  0
SECTION
  2
HEADER
  9
$ACADVER
  1
AC1015
  9
$ACADMAINTVER
 70
    20
  9
$DWGCODEPAGE
  3
ANSI_932
  9
$INSBASE
 10
0.0
 20
0.0
 30
0.0
  9
$EXTMIN
 10
242.9183812912099
 20
710.4433809928905
 30
-0.0015258207003583
  9
$EXTMAX
 10
828.410072077801
 20
1345.578075669614
 30
0.0000000349246037
  9
$LIMMIN
 10
0.0
 20
0.0
  9
$LIMMAX
 10
420.0
 20
297.0
  9
$ORTHOMODE
 70
     1
  9
$REGENMODE
 70
     1
  9
$FILLMODE
 70
     1
  9
$QTEXTMODE
 70
     0
  9
$MIRRTEXT
 70
     0
  9
$LTSCALE
 40
1.0
  9
$ATTMODE
 70
     1
  9
$TEXTSIZE
 40
2.5
  9
$TRACEWID
 40
1.0
  9
$TEXTSTYLE
  7
Standard
  9
$CLAYER
  8
0
  9
$CELTYPE
  6
ByLayer
  9
$CECOLOR
 62
   256
  9
$CELTSCALE
 40
1.0
  9
$DISPSILH
 70
     0
  9
$DIMSCALE
 40
1.0
  9
$DIMASZ
 40
2.5
  9
$DIMEXO
 40
0.625
  9
$DIMDLI
 40
3.75
  9
$DIMRND
 40
0.0
  9
$DIMDLE
 40
0.0
  9
$DIMEXE
 40
1.25
  9
$DIMTP
 40
0.0
  9
$DIMTM
 40
0.0
  9
$DIMTXT
 40
2.5
  9
$DIMCEN
 40
2.5
  9
$DIMTSZ
 40
0.0
  9
$DIMTOL
 70
     0
  9
$DIMLIM
 70
     0
  9
$DIMTIH
 70
     0
  9
$DIMTOH
 70
     0
  9
$DIMSE1
 70
     0
  9
$DIMSE2
 70
     0
  9
$DIMTAD
 70
     1
  9
$DIMZIN
 70
     8
  9
$DIMBLK
  1

  9
$DIMASO
 70
     1
  9
$DIMSHO
 70
     1
  9
$DIMPOST
  1

  9
$DIMAPOST
  1

  9
$DIMALT
 70
     0
  9
$DIMALTD
 70
     3
  9
$DIMALTF
 40
0.03937007874016
  9
$DIMLFAC
 40
1.0
  9
$DIMTOFL
 70
     1
  9
$DIMTVP
 40
0.0
  9
$DIMTIX
 70
     0
  9
$DIMSOXD
 70
     0
  9
$DIMSAH
 70
     0
  9
$DIMBLK1
  1

  9
$DIMBLK2
  1

  9
$DIMSTYLE
  2
ISO-25
  9
$DIMCLRD
 70
     0
  9
$DIMCLRE
 70
     0
  9
$DIMCLRT
 70
     0
  9
$DIMTFAC
 40
1.0
  9
$DIMGAP
 40
0.625
  9
$DIMJUST
 70
     0
  9
$DIMSD1
 70
     0
  9
$DIMSD2
 70
     0
  9
$DIMTOLJ
 70
     0
  9
$DIMTZIN
 70
     8
  9
$DIMALTZ
 70
     0
  9
$DIMALTTZ
 70
     0
  9
$DIMUPT
 70
     0
  9
$DIMDEC
 70
     2
  9
$DIMTDEC
 70
     2
  9
$DIMALTU
 70
     2
  9
$DIMALTTD
 70
     3
  9
$DIMTXSTY
  7
Standard
  9
$DIMAUNIT
 70
     0
  9
$DIMADEC
 70
     0
  9
$DIMALTRND
 40
0.0
  9
$DIMAZIN
 70
     0
  9
$DIMDSEP
 70
    44
  9
$DIMATFIT
 70
     3
  9
$DIMFRAC
 70
     0
  9
$DIMLDRBLK
  1

  9
$DIMLUNIT
 70
     2
  9
$DIMLWD
 70
    -2
  9
$DIMLWE
 70
    -2
  9
$DIMTMOVE
 70
     0
  9
$LUNITS
 70
     2
  9
$LUPREC
 70
     2
  9
$SKETCHINC
 40
1.0
  9
$FILLETRAD
 40
0.0
  9
$AUNITS
 70
     0
  9
$AUPREC
 70
     0
  9
$MENU
  1
.
  9
$ELEVATION
 40
0.0
  9
$PELEVATION
 40
0.0
  9
$THICKNESS
 40
0.0
  9
$LIMCHECK
 70
     0
  9
$CHAMFERA
 40
0.0
  9
$CHAMFERB
 40
0.0
  9
$CHAMFERC
 40
0.0
  9
$CHAMFERD
 40
0.0
  9
$SKPOLY
 70
     0
  9
$TDCREATE
 40
2454354.690738924
  9
$TDUCREATE
 40
2454354.315738923
  9
$TDUPDATE
 40
2455610.577004884
  9
$TDUUPDATE
 40
2455610.202004884
  9
$TDINDWG
 40
0.0925394097
  9
$TDUSRTIMER
 40
0.0925337963
  9
$USRTIMER
 70
     1
  9
$ANGBASE
 50
0.0
  9
$ANGDIR
 70
     0
  9
$PDMODE
 70
     0
  9
$PDSIZE
 40
0.0
  9
$PLINEWID
 40
0.0
  9
$SPLFRAME
 70
     0
  9
$SPLINETYPE
 70
     6
  9
$SPLINESEGS
 70
     8
  9
$HANDSEED
  5
2272
  9
$SURFTAB1
 70
     6
  9
$SURFTAB2
 70
     6
  9
$SURFTYPE
 70
     6
  9
$SURFU
 70
     6
  9
$SURFV
 70
     6
  9
$UCSBASE
  2

  9
$UCSNAME
  2

  9
$UCSORG
 10
0.0
 20
0.0
 30
0.0
  9
$UCSXDIR
 10
1.0
 20
0.0
 30
0.0
  9
$UCSYDIR
 10
0.0
 20
1.0
 30
0.0
  9
$UCSORTHOREF
  2

  9
$UCSORTHOVIEW
 70
     0
  9
$UCSORGTOP
 10
0.0
 20
0.0
 30
0.0
  9
$UCSORGBOTTOM
 10
0.0
 20
0.0
 30
0.0
  9
$UCSORGLEFT
 10
0.0
 20
0.0
 30
0.0
  9
$UCSORGRIGHT
 10
0.0
 20
0.0
 30
0.0
  9
$UCSORGFRONT
 10
0.0
 20
0.0
 30
0.0
  9
$UCSORGBACK
 10
0.0
 20
0.0
 30
0.0
  9
$PUCSBASE
  2

  9
$PUCSNAME
  2

  9
$PUCSORG
 10
0.0
 20
0.0
 30
0.0
  9
$PUCSXDIR
 10
1.0
 20
0.0
 30
0.0
  9
$PUCSYDIR
 10
0.0
 20
1.0
 30
0.0
  9
$PUCSORTHOREF
  2

  9
$PUCSORTHOVIEW
 70
     0
  9
$PUCSORGTOP
 10
0.0
 20
0.0
 30
0.0
  9
$PUCSORGBOTTOM
 10
0.0
 20
0.0
 30
0.0
  9
$PUCSORGLEFT
 10
0.0
 20
0.0
 30
0.0
  9
$PUCSORGRIGHT
 10
0.0
 20
0.0
 30
0.0
  9
$PUCSORGFRONT
 10
0.0
 20
0.0
 30
0.0
  9
$PUCSORGBACK
 10
0.0
 20
0.0
 30
0.0
  9
$USERI1
 70
     0
  9
$USERI2
 70
     0
  9
$USERI3
 70
     0
  9
$USERI4
 70
     0
  9
$USERI5
 70
     0
  9
$USERR1
 40
0.0
  9
$USERR2
 40
0.0
  9
$USERR3
 40
0.0
  9
$USERR4
 40
0.0
  9
$USERR5
 40
0.0
  9
$WORLDVIEW
 70
     1
  9
$SHADEDGE
 70
     3
  9
$SHADEDIF
 70
    70
  9
$TILEMODE
 70
     1
  9
$MAXACTVP
 70
    64
  9
$PINSBASE
 10
0.0
 20
0.0
 30
0.0
  9
$PLIMCHECK
 70
     0
  9
$PEXTMIN
 10
29.06606628894806
 20
20.36233246326444
 30
0.0
  9
$PEXTMAX
 10
261.5945966005325
 20
183.2609921693801
 30
0.0
  9
$PLIMMIN
 10
-3.17498779296875
 20
-3.174999952316281
  9
$PLIMMAX
 10
293.8356628417969
 20
206.7983276844024
  9
$UNITMODE
 70
     0
  9
$VISRETAIN
 70
     1
  9
$PLINEGEN
 70
     0
  9
$PSLTSCALE
 70
     1
  9
$TREEDEPTH
 70
  3020
  9
$CMLSTYLE
  2
Standard
  9
$CMLJUST
 70
     0
  9
$CMLSCALE
 40
20.0
  9
$PROXYGRAPHICS
 70
     1
  9
$MEASUREMENT
 70
     1
  9
$CELWEIGHT
370
    -1
  9
$ENDCAPS
280
     0
  9
$JOINSTYLE
280
     0
  9
$LWDISPLAY
290
     0
  9
$INSUNITS
 70
     4
  9
$HYPERLINKBASE
  1

  9
$STYLESHEET
  1
KIHON1.ctb
  9
$XEDIT
290
     1
  9
$CEPSNTYPE
380
     0
  9
$PSTYLEMODE
290
     1
  9
$FINGERPRINTGUID
  2
{DD28B6F0-6A46-4203-99D8-E0CB2352CE3F}
  9
$VERSIONGUID
  2
{6CC5766E-5206-4299-9792-493B59EDFE22}
  9
$EXTNAMES
290
     1
  9
$PSVPSCALE
 40
0.0
  9
$OLESTARTUP
290
     0
  0
ENDSEC
  0
SECTION
  2
CLASSES
  0
CLASS
  1
ACDBDICTIONARYWDFLT
  2
AcDbDictionaryWithDefault
  3
ObjectDBX Classes
 90
        0
280
     0
281
     0
  0
CLASS
  1
DICTIONARYVAR
  2
AcDbDictionaryVar
  3
ObjectDBX Classes
 90
        0
280
     0
281
     0
  0
CLASS
  1
TABLESTYLE
  2
AcDbTableStyle
  3
ObjectDBX Classes
 90
     2047
280
     0
281
     0
  0
CLASS
  1
MATERIAL
  2
AcDbMaterial
  3
ObjectDBX Classes
 90
        0
280
     0
281
     0
  0
CLASS
  1
DIMASSOC
  2
AcDbDimAssoc
  3
"AcDbDimAssoc|Product Desc:     AcDim ARX App For Dimension|Company:          Autodesk, Inc.|WEB Address:      www.autodesk.com"
 90
        0
280
     0
281
     0
  0
CLASS
  1
SORTENTSTABLE
  2
AcDbSortentsTable
  3
ObjectDBX Classes
 90
        0
280
     0
281
     0
  0
CLASS
  1
VISUALSTYLE
  2
AcDbVisualStyle
  3
ObjectDBX Classes
 90
     4095
280
     0
281
     0
  0
CLASS
  1
SCALE
  2
AcDbScale
  3
ObjectDBX Classes
 90
     1153
280
     0
281
     0
  0
CLASS
  1
MLEADERSTYLE
  2
AcDbMLeaderStyle
  3
ACDB_MLEADERSTYLE_CLASS
 90
     4095
280
     0
281
     0
  0
CLASS
  1
CELLSTYLEMAP
  2
AcDbCellStyleMap
  3
ObjectDBX Classes
 90
     1152
280
     0
281
     0
  0
CLASS
  1
ACDBPLACEHOLDER
  2
AcDbPlaceHolder
  3
ObjectDBX Classes
 90
        0
280
     0
281
     0
  0
CLASS
  1
LAYOUT
  2
AcDbLayout
  3
ObjectDBX Classes
 90
        0
280
     0
281
     0
  0
CLASS
  1
AMGSETTINGSOBJ
  2
AmgSettingsObj
  3
"AcadM|Product Description: AutoCAD Mechanical 2000|Company: Autodesk"
 90
        0
280
     0
281
     0
  0
CLASS
  1
ACME_DOCUMENT
  2
AcMeDbDoc
  3
AcMeServices
 90
        0
280
     0
281
     0
  0
CLASS
  1
ACMESCOPE
  2
AcMeScope
  3
AcMeServices
 90
        0
280
     0
281
     0
  0
CLASS
  1
ACMECOMMANDHISTORY
  2
AcMeCommandHistory
  3
AcMeServices
 90
        0
280
     0
281
     0
  0
CLASS
  1
ACIMSYSVARMAN
  2
AcImSysVarManager
  3
AcMeServices
 90
        0
280
     0
281
     0
  0
CLASS
  1
ACIMREALSYSVAR
  2
AcImRealSysVar
  3
AcMeServices
 90
        0
280
     0
281
     0
  0
CLASS
  1
ACIMINTSYSVAR
  2
AcImIntSysVar
  3
AcMeServices
 90
        0
280
     0
281
     0
  0
CLASS
  1
ACMEDRAWINGMAN
  2
AcMeDrawingMan
  3
AcMeServices
 90
        0
280
     0
281
     0
  0
CLASS
  1
ACMEVIEW
  2
AcMeView
  3
AcMeServices
 90
        0
280
     0
281
     0
  0
CLASS
  1
ACDBENTITYCACHE
  2
AcMeEntityCache
  3
AcMeServices
 90
        0
280
     0
281
     0
  0
CLASS
  1
GSMANAGER
  2
AcMeGSManager
  3
AcMeServices
 90
        0
280
     0
281
     0
  0
CLASS
  1
AMDTINTERNALREACTOR
  2
AmdtInternalReactor
  3
AcMeServices
 90
        0
280
     0
281
     0
  0
CLASS
  1
ACMESTATEMGR
  2
AcMeStateMgr
  3
AcMeServices
 90
        0
280
     0
281
     0
  0
CLASS
  1
ACGREFMASTER
  2
AcGrefMaster
  3
AcAttribServices
 90
        0
280
     0
281
     0
  0
CLASS
  1
AM_DRAWING_MGR
  2
AcDmDwgMgr
  3
AcMechDwgViewMgmt
 90
        0
280
     0
281
     0
  0
CLASS
  1
AM_DWG_DOCUMENT
  2
AcDmDwgDocument
  3
AcMechDwgViewMgmt
 90
        0
280
     0
281
     0
  0
CLASS
  1
AM_DWG_SHEET
  2
AcDmSheet
  3
AcMechDwgViewMgmt
 90
        0
280
     0
281
     0
  0
CLASS
  1
AM_VIEWDIMPARMAP
  2
AcDmViewDimParMap
  3
AcMechDwgViewMgmt
 90
        0
280
     0
281
     0
  0
CLASS
  1
AM_DWGMGR_NAME
  2
AcDmDwgMgrName
  3
AcMechDwgViewMgmt
 90
        0
280
     0
281
     0
  0
CLASS
  1
ACME_DATABASE
  2
AcMeDbDatabase
  3
AcMeServices
 90
        0
280
     0
281
     0
  0
CLASS
  1
ACRFINSADJUSTERMGR
  2
AcRfInsAdjusterMgr
  3
AcMeServices
 90
        0
280
     0
281
     0
  0
CLASS
  1
ACGREFACADMASTER
  2
AcGrefacadMaster
  3
AcGrefServices
 90
        0
280
     0
281
     0
  0
CLASS
  1
AMDTMENUSTATEMGR
  2
AmdtMenuStateMgr
  3
McadcomServices
 90
        0
280
     0
281
     0
  0
CLASS
  1
AMDTMCOMMENUSTATE
  2
AmdtMcomMenuState
  3
McadcomServices
 90
        0
280
     0
281
     0
  0
CLASS
  1
AMIMASTER
  2
AmiMaster
  3
AmiServices
 90
        0
280
     0
281
     0
  0
CLASS
  1
ASAPP
  2
AcAsAppObject
  3
AutoSurfServices
 90
        0
280
     0
281
     0
  0
CLASS
  1
IM_STATIC_MAN
  2
AcImStaticVarManager
  3
AcMeServices
 90
        0
280
     0
281
     0
  0
CLASS
  1
ACIMSTRSYSVAR
  2
AcImStrSysVar
  3
AcMeServices
 90
        0
280
     0
281
     0
  0
CLASS
  1
ACIMDBLSTATICVAR
  2
AcImDblStaticVar
  3
AcMeServices
 90
        0
280
     0
281
     0
  0
CLASS
  1
ACIMSTRSTATICVAR
  2
AcImStrStaticVar
  3
AcMeServices
 90
        0
280
     0
281
     0
  0
CLASS
  1
ACIMINTSTATICVAR
  2
AcImIntStaticVar
  3
AcMeServices
 90
        0
280
     0
281
     0
  0
CLASS
  1
ACASGREFMASTER
  2
AcAsGrefMaster
  3
AutoSurfResolverServices
 90
        0
280
     0
281
     0
  0
CLASS
  1
ACADGREFMODULE
  2
AcAdGrefModule
  3
AdGrefServices
 90
        0
280
     0
281
     0
  0
CLASS
  1
AMDTMAPISURFMOUDULE
  2
AmdtMApiSurfModule
  3
MApiSurfServices
 90
        0
280
     0
281
     0
  0
CLASS
  1
MAPIAMMOUDLE
  2
MApiAmModule
  3
MApiAmServices
 90
        0
280
     0
281
     0
  0
CLASS
  1
AMDTADMENUSTATE
  2
AmdtAdMenuState
  3
DesignerServices
 90
        0
280
     0
281
     0
  0
CLASS
  1
ADAPPL
  2
AcAdAppl
  3
DesignerServices
 90
        0
280
     0
281
     0
  0
CLASS
  1
DEPMGR
  2
AcAdDepMgr
  3
DesignerServices
 90
        0
280
     0
281
     0
  0
CLASS
  1
PARAMMGR
  2
AcAdParamMgr
  3
DesignerServices
 90
        0
280
     0
281
     0
  0
CLASS
  1
PARAMSCOPE
  2
AcAdParamScope
  3
DesignerServices
 90
        0
280
     0
281
     0
  0
CLASS
  1
NAMEDAPPL
  2
AcAdNamedAppl
  3
DesignerServices
 90
        0
280
     0
281
     0
  0
CLASS
  1
AMDTDMMENUSTATE
  2
AmdtDmMenuState
  3
AcMechDwgViewMgmt
 90
        0
280
     0
281
     0
  0
CLASS
  1
MAPIADMODULE
  2
MApiAdModule
  3
MApiAdServices
 90
        0
280
     0
281
     0
  0
CLASS
  1
AMDTAMMENUSTATE
  2
AmdtAmMenuState
  3
DesignerAssemblies
 90
        0
280
     0
281
     0
  0
CLASS
  1
ACAMPROJECT
  2
AcAmProject
  3
DesignerAssemblies
 90
        0
280
     0
281
     0
  0
CLASS
  1
ACAMGRCOMPDEF
  2
AcAmGrCompDef
  3
DesignerAssemblies
 90
        0
280
     0
281
     0
  0
CLASS
  1
ACCMCONTEXT
  2
AcCmContext
  3
DesignerAssemblies
 90
        0
280
     0
281
     0
  0
CLASS
  1
ACAMCOMPDEF
  2
AcAmCompDef
  3
DesignerAssemblies
 90
        0
280
     0
281
     0
  0
CLASS
  1
ACAMCOMPDEFMGR
  2
AcAmCompDefMgr
  3
DesignerAssemblies
 90
        0
280
     0
281
     0
  0
CLASS
  1
AMCONTEXTMGR
  2
AcAmContextMgr
  3
DesignerAssemblies
 90
        0
280
     0
281
     0
  0
CLASS
  1
ACAMCONTEXTMODELER
  2
AcAmContextModeler
  3
DesignerAssemblies
 90
        0
280
     0
281
     0
  0
CLASS
  1
ACMDATADICTIONARY
  2
AcmDataDictionary
  3
"AcmSymBB|Product Description: AutoCAD Mechanical 2004 DX|Company: Autodesk"
 90
        0
280
     0
281
     0
  0
CLASS
  1
ACMDATAENTRYBLOCK
  2
AcmDataEntryBlock
  3
"AcmSymBB|Product Description: AutoCAD Mechanical 2004 DX|Company: Autodesk"
 90
        0
280
     0
281
     0
  0
CLASS
  1
CATALOGSTATE
  2
AcAmCatalogState
  3
DesignerAssemblies
 90
        0
280
     0
281
     0
  0
CLASS
  1
ACAMGRCOMPDEFSET
  2
AcAmGrCompDefSet
  3
DesignerAssemblies
 90
        0
280
     0
281
     0
  0
CLASS
  1
AMDTBROWSERDBTAB
  2
AmdtBrowserDbTab
  3
McadcomServices
 90
        0
280
     0
281
     0
  0
CLASS
  1
CBROWSERAPPOBJECT
  2
CBrowserAppObject
  3
McadcomServices
 90
        0
280
     0
281
     0
  0
CLASS
  1
DM_PLACEHOLDER
  2
AcDmSelsetPlaceholder
  3
AcMechDwgViewMgmt
 90
        0
280
     0
281
     0
  0
CLASS
  1
ACMSTANDARDISO
  2
AcmStandardISO
  3
"Amdt_StdImp|Product Description: AutoCAD Mechanical 2004 DX|Company: Autodesk"
 90
        0
280
     0
281
     0
  0
CLASS
  1
AMGOBJPROPCFG
  2
AmgObjPropCfg
  3
"AmgLay|Product Description: AutoCAD Mechanical 2000|Company: Autodesk"
 90
        1
280
     0
281
     0
  0
CLASS
  1
AMDTEDGESTANDARDISO13715
  2
AmdtEdgeStdISO13715
  3
"Amdt_StdImp|Product Description: AutoCAD Mechanical 2004 DX|Company: Autodesk"
 90
        0
280
     0
281
     0
  0
CLASS
  1
ACMSURFSTANDARDISO
  2
AcmSurfTextStdISO
  3
"Amdt_StdImp|Product Description: AutoCAD Mechanical 2004 DX|Company: Autodesk"
 90
        0
280
     0
281
     0
  0
CLASS
  1
ACMFCFSTANDARDISO
  2
AcmFCFStdISO
  3
"Amdt_StdImp|Product Description: AutoCAD Mechanical 2004 DX|Company: Autodesk"
 90
        0
280
     0
281
     0
  0
CLASS
  1
ACMWELDSTANDARDISO
  2
AcmWeldingStdISO
  3
"Amdt_StdImp|Product Description: AutoCAD Mechanical 2004 DX|Company: Autodesk"
 90
        0
280
     0
281
     0
  0
CLASS
  1
ACMIDSTANDARDISO
  2
AcmIdStdISO
  3
"Amdt_StdImp|Product Description: AutoCAD Mechanical 2004 DX|Company: Autodesk"
 90
        0
280
     0
281
     0
  0
CLASS
  1
ACMDATUMSTANDARDISO
  2
AcmDatumStdISO
  3
"Amdt_StdImp|Product Description: AutoCAD Mechanical 2004 DX|Company: Autodesk"
 90
        0
280
     0
281
     0
  0
CLASS
  1
ACMBOMSTANDARDISO
  2
AcmBOMStdISO
  3
"Amdt_StdImp|Product Description: AutoCAD Mechanical 2004 DX|Company: Autodesk"
 90
        0
280
     0
281
     0
  0
CLASS
  1
ACMDETAILSTANDARDISO
  2
AmdtDetailSymStdISO
  3
"Amdt_StdImp|Product Description: AutoCAD Mechanical 2004 DX|Company: Autodesk"
 90
        0
280
     0
281
     0
  0
CLASS
  1
ACMSECTIONSTANDARDISO
  2
AmdtSectionSymStdISO
  3
"Amdt_StdImp|Product Description: AutoCAD Mechanical 2004 DX|Company: Autodesk"
 90
        0
280
     0
281
     0
  0
CLASS
  1
ACMCENTERLINESTANDARDISO
  2
AmdtCenterLineStdISO
  3
"Amdt_StdImp|Product Description: AutoCAD Mechanical 2004 DX|Company: Autodesk"
 90
        0
280
     0
281
     0
  0
CLASS
  1
ACMTHREADLINESTANDARDISO
  2
AmdtThreadLineStdISO
  3
"Amdt_StdImp|Product Description: AutoCAD Mechanical 2004 DX|Company: Autodesk"
 90
        0
280
     0
281
     0
  0
CLASS
  1
ACMNOTESTANDARDISO
  2
AmdtNoteStdISO
  3
"Amdt_StdImp|Product Description: AutoCAD Mechanical 2004 DX|Company: Autodesk"
 90
        0
280
     0
281
     0
  0
CLASS
  1
AMDTNOTETEMPLATEDB
  2
AmdtNoteTemplateDB
  3
AMDT_STDIMP_MODULE_NAME
 90
        0
280
     0
281
     0
  0
CLASS
  1
ACAMGLAYSTD
  2
AcAmgLayStd
  3
"AcAmgLayStd|Product Description: AutoCAD Mechanical 2000|Company: Autodesk"
 90
        0
280
     0
281
     0
  0
CLASS
  1
ACAMGDIMSTD
  2
AcAmgDimStd
  3
"AcAmgDimStd|Product Description: AutoCAD Mechanical 2000|Company: Autodesk"
 90
        0
280
     0
281
     0
  0
CLASS
  1
ACAMGHOLECHARTSTDISO
  2
AcAmgHoleChartStdISO
  3
ACMSYMBB_MODULE_NAME
 90
        0
280
     0
281
     0
  0
CLASS
  1
ACAMGTITLESTD
  2
AcAmgTitleStd
  3
"TITLEAPP"
 90
        0
280
     0
281
     0
  0
CLASS
  1
ACAMGFILTERDAT
  2
AcAmgFilterDat
  3
"AcadM|Product Description: AutoCAD Mechanical 2000|Company: Autodesk"
 90
        0
280
     0
281
     0
  0
CLASS
  1
LAYER_INDEX
  2
AcDbLayerIndex
  3
ObjectDBX Classes
 90
        0
280
     0
281
     0
  0
CLASS
  1
IDBUFFER
  2
AcDbIdBuffer
  3
ObjectDBX Classes
 90
        0
280
     0
281
     0
  0
ENDSEC
  0
SECTION
  2
TABLES
  0
TABLE
  2
VPORT
  5
8
102
{ACAD_XDICTIONARY
360
1808
102
}
330
0
100
AcDbSymbolTable
 70
     2
  0
VPORT
  5
226A
330
8
100
AcDbSymbolTableRecord
100
AcDbViewportTableRecord
  2
*Active
 70
     0
 10
0.0
 20
0.0
 11
1.0
 21
1.0
 12
535.6642266845055
 22
1028.010728331252
 13
0.0
 23
0.0
 14
10.0
 24
10.0
 15
10.0
 25
10.0
 16
0.0
 26
0.0
 36
1.0
 17
0.0
 27
0.0
 37
0.0
 40
639.6713710672716
 41
1.398092967818831
 42
50.0
 43
0.0
 44
0.0
 50
0.0
 51
0.0
 71
     0
 72
  1000
 73
     1
 74
     3
 75
     0
 76
     0
 77
     0
 78
     0
281
     0
 65
     1
110
0.0
120
0.0
130
0.0
111
1.0
121
0.0
131
0.0
112
0.0
122
1.0
132
0.0
 79
     0
146
0.0
  0
ENDTAB
  0
TABLE
  2
LTYPE
  5
5
330
0
100
AcDbSymbolTable
 70
    17
  0
LTYPE
  5
14
330
5
100
AcDbSymbolTableRecord
100
AcDbLinetypeTableRecord
  2
ByBlock
 70
     0
  3

 72
    65
 73
     0
 40
0.0
  0
LTYPE
  5
15
330
5
100
AcDbSymbolTableRecord
100
AcDbLinetypeTableRecord
  2
ByLayer
 70
     0
  3

 72
    65
 73
     0
 40
0.0
  0
LTYPE
  5
16
330
5
100
AcDbSymbolTableRecord
100
AcDbLinetypeTableRecord
  2
Continuous
 70
     0
  3
Solid line
 72
    65
 73
     0
 40
0.0
  0
LTYPE
  5
1AE
330
5
100
AcDbSymbolTableRecord
100
AcDbLinetypeTableRecord
  2
DASHED2
 70
     0
  3
Dashed (.5x) _ _ _ _ _ _ _ _ _ _ _ _ _ _ _ _ _
 72
    65
 73
     2
 40
9.524999999999996
 49
6.349999999999997
 74
     0
 49
-3.174999999999998
 74
     0
  0
LTYPE
  5
2179
330
5
100
AcDbSymbolTableRecord
100
AcDbLinetypeTableRecord
  2
HIDDEN
 70
     0
  3
Hidden __ __ __ __ __ __ __ __ __ __ __ __ __ _
 72
    65
 73
     2
 40
9.524999999999998
 49
6.349999999999999
 74
     0
 49
-3.174999999999999
 74
     0
  0
LTYPE
  5
217A
330
5
100
AcDbSymbolTableRecord
100
AcDbLinetypeTableRecord
  2
PHANTOM2
 70
     0
  3
Phantom (.5x) ___ _ _ ___ _ _ ___ _ _ ___ _ _
 72
    65
 73
     6
 40
31.75
 49
15.875
 74
     0
 49
-3.174999999999999
 74
     0
 49
3.174999999999999
 74
     0
 49
-3.174999999999999
 74
     0
 49
3.174999999999999
 74
     0
 49
-3.174999999999999
 74
     0
  0
LTYPE
  5
217B
330
5
100
AcDbSymbolTableRecord
100
AcDbLinetypeTableRecord
  2
CENTER
 70
     0
  3
Center ____ _ ____ _ ____ _ ____ _ ____ _ ____
 72
    65
 73
     4
 40
50.8
 49
31.75
 74
     0
 49
-6.349999999999999
 74
     0
 49
6.349999999999999
 74
     0
 49
-6.349999999999999
 74
     0
  0
LTYPE
  5
21CA
330
5
100
AcDbSymbolTableRecord
100
AcDbLinetypeTableRecord
  2
ASULTYPE
 70
     0
  3
実線
 72
    65
 73
     2
 40
3.0
 49
2.5
 74
     0
 49
0.5
 74
     0
  0
LTYPE
  5
21CB
330
5
100
AcDbSymbolTableRecord
100
AcDbLinetypeTableRecord
  2
ASVLTYPE
 70
     0
  3
__ __ __ __ __ __ __ __ __ __ __ __ __ __ __ __ __ __ __ __ __
 72
    65
 73
     2
 40
0.75
 49
0.5
 74
     0
 49
-0.25
 74
     0
  0
LTYPE
  5
2212
330
5
100
AcDbSymbolTableRecord
100
AcDbLinetypeTableRecord
  2
AM_ISO02W050
 70
     0
  3
__ __ __ __ __ __ __ __ __ __ __ __ __ __ __
 72
    65
 73
     2
 40
7.5
 49
6.0
 74
     0
 49
-1.5
 74
     0
  0
LTYPE
  5
2213
330
5
100
AcDbSymbolTableRecord
100
AcDbLinetypeTableRecord
  2
AM_ISO08W050
 70
     0
  3
____ . ____ . ____ . ____ . ____ . ____ . ____
 72
    65
 73
     4
 40
18.0
 49
12.0
 74
     0
 49
-1.5
 74
     0
 49
3.0
 74
     0
 49
-1.5
 74
     0
  0
LTYPE
  5
2214
330
5
100
AcDbSymbolTableRecord
100
AcDbLinetypeTableRecord
  2
AM_ISO09W050
 70
     0
  3
_____ . . _____ . . _____ . . ____ .. ____
 72
    65
 73
     6
 40
22.5
 49
12.0
 74
     0
 49
-1.5
 74
     0
 49
3.0
 74
     0
 49
-1.5
 74
     0
 49
3.0
 74
     0
 49
-1.5
 74
     0
  0
LTYPE
  5
2215
330
5
100
AcDbSymbolTableRecord
100
AcDbLinetypeTableRecord
  2
Amconstr
 70
     0
  3
_______________________
 72
    65
 73
     2
 40
9999.0
 49
9999.0
 74
     0
 49
0.0
 74
     0
  0
LTYPE
  5
2216
330
5
100
AcDbSymbolTableRecord
100
AcDbLinetypeTableRecord
  2
AM_ISO08W050x2
 70
     0
  3
__ . __ . __ . __ . __ . __
 72
    65
 73
     4
 40
9.0
 49
6.0
 74
     0
 49
-0.75
 74
     0
 49
1.5
 74
     0
 49
-0.75
 74
     0
  0
LTYPE
  5
2217
330
5
100
AcDbSymbolTableRecord
100
AcDbLinetypeTableRecord
  2
AM_ISO02W050x2
 70
     0
  3
 _ _ _ _ _ _ _ _ _ _ _ _
 72
    65
 73
     2
 40
3.75
 49
3.0
 74
     0
 49
-0.75
 74
     0
  0
LTYPE
  5
221A
330
5
100
AcDbSymbolTableRecord
100
AcDbLinetypeTableRecord
  2
Amzigzag
 70
     0
  3
/\/-/\/-/\/-/\/-/\/-/\/
 72
    65
 73
     2
 40
11.0001
 49
0.0001
 74
     4
 75
   136
340
2219
 46
0.04
 50
0.0
 44
0.0
 45
0.0
 49
-11.0
 74
     0
  0
LTYPE
  5
2229
330
5
100
AcDbSymbolTableRecord
100
AcDbLinetypeTableRecord
  2
ACISOWELD
 70
     0
  3
_ _ _ _ _
 72
    65
 73
     2
 40
2.0
 49
2.0
 74
     0
 49
-1.0
 74
     0
  0
LTYPE
  5
222A
330
5
100
AcDbSymbolTableRecord
100
AcDbLinetypeTableRecord
  2
ACISOTGB
 70
     0
  3
__ . . __ . .
 72
    65
 73
     6
 40
9.0
 49
4.0
 74
     0
 49
-1.0
 74
     0
 49
1.0
 74
     0
 49
-1.0
 74
     0
 49
1.0
 74
     0
 49
-1.0
 74
     0
  0
LTYPE
  5
222B
330
5
100
AcDbSymbolTableRecord
100
AcDbLinetypeTableRecord
  2
ACISOTGL
 70
     0
  3
_ _ _ _ _
 72
    65
 73
     2
 40
3.0
 49
2.0
 74
     0
 49
-1.0
 74
     0
  0
ENDTAB
  0
TABLE
  2
LAYER
  5
2
102
{ACAD_XDICTIONARY
360
1C1
102
}
330
0
100
AcDbSymbolTable
 70
     3
  0
LAYER
  5
10
102
{ACAD_XDICTIONARY
360
178C
102
}
330
2
100
AcDbSymbolTableRecord
100
AcDbLayerTableRecord
  2
0
 70
     0
 62
     7
  6
Continuous
370
    -3
390
F
  0
LAYER
  5
1AF
102
{ACAD_XDICTIONARY
360
1B0
102
}
330
2
100
AcDbSymbolTableRecord
100
AcDbLayerTableRecord
  2
かくれ線
 70
     0
 62
     2
  6
DASHED2
370
    15
390
F
  0
LAYER
  5
1B3
330
2
100
AcDbSymbolTableRecord
100
AcDbLayerTableRecord
  2
Defpoints
 70
     0
 62
     7
  6
Continuous
290
     0
370
    -3
390
F
  0
ENDTAB
  0
TABLE
  2
STYLE
  5
3
330
0
100
AcDbSymbolTable
 70
     6
  0
STYLE
  5
11
330
3
100
AcDbSymbolTableRecord
100
AcDbTextStyleTableRecord
  2
Standard
 70
     0
 40
0.0
 41
1.0
 50
0.0
 71
     0
 42
2.5
  3
txt.shx
  4
extfont2.shx
  0
STYLE
  5
1B6
330
3
100
AcDbSymbolTableRecord
100
AcDbTextStyleTableRecord
  2
CB
 70
     0
 40
2.5
 41
1.0
 50
0.0
 71
     0
 42
2.5
  3
MS Gothic.ttf
  4

1001
ACAD
1000
MS Gothic
1071
    32817
  0
STYLE
  5
2219
330
3
100
AcDbSymbolTableRecord
100
AcDbTextStyleTableRecord
  2

 70
     1
 40
0.0
 41
1.0
 50
0.0
 71
     0
 42
2.5
  3
genltshp.shx
  4

  0
STYLE
  5
221B
330
3
100
AcDbSymbolTableRecord
100
AcDbTextStyleTableRecord
  2
ACISOTS
 70
     0
 40
1.0
 41
1.0
 50
0.0
 71
     0
 42
2.5
  3
isocp.shx
  4
extfont.shx
  0
STYLE
  5
2228
330
3
100
AcDbSymbolTableRecord
100
AcDbTextStyleTableRecord
  2
ACISOGDT
 70
     0
 40
0.0
 41
1.0
 50
0.0
 71
     0
 42
2.5
  3
AMGDT
  4

  0
ENDTAB
  0
TABLE
  2
VIEW
  5
6
330
0
100
AcDbSymbolTable
 70
     4
  0
VIEW
  5
15DF
330
6
100
AcDbSymbolTableRecord
100
AcDbViewTableRecord
  2
OLE1
 70
     0
 40
550.9033316255782
 10
517.312103107335
 20
1001.737015277941
 41
622.2794932048048
 11
0.0
 21
0.0
 31
1.0
 12
0.0
 22
0.0
 32
0.0
 42
50.0
 43
0.0
 44
0.0
 50
0.0
 71
     0
281
     0
 72
     0
  0
VIEW
  5
1605
330
6
100
AcDbSymbolTableRecord
100
AcDbViewTableRecord
  2
OLE2
 70
     0
 40
511.4154841477621
 10
547.3493217961971
 20
1007.621504323603
 41
610.0592947605325
 11
0.0
 21
0.0
 31
1.0
 12
0.0
 22
0.0
 32
0.0
 42
50.0
 43
0.0
 44
0.0
 50
0.0
 71
     0
281
     0
 72
     0
  0
VIEW
  5
173C
330
6
100
AcDbSymbolTableRecord
100
AcDbViewTableRecord
  2
OLE3
 70
     0
 40
544.4370527720906
 10
547.4719826956791
 20
995.4072048537783
 41
565.8154710746596
 11
0.0
 21
0.0
 31
1.0
 12
0.0
 22
0.0
 32
0.0
 42
50.0
 43
0.0
 44
0.0
 50
0.0
 71
     0
281
     0
 72
     0
  0
ENDTAB
  0
TABLE
  2
UCS
  5
7
330
0
100
AcDbSymbolTable
 70
     0
  0
ENDTAB
  0
TABLE
  2
APPID
  5
9
330
0
100
AcDbSymbolTable
 70
    22
  0
APPID
  5
12
330
9
100
AcDbSymbolTableRecord
100
AcDbRegAppTableRecord
  2
ACAD
 70
     0
  0
APPID
  5
9E
330
9
100
AcDbSymbolTableRecord
100
AcDbRegAppTableRecord
  2
ACAD_PSEXT
 70
     0
  0
APPID
  5
1BB
330
9
100
AcDbSymbolTableRecord
100
AcDbRegAppTableRecord
  2
ACAD_DSTYLE_DIMJOGGED_JOGANGLE_SYMBOL
 70
     0
  0
APPID
  5
1BC
330
9
100
AcDbSymbolTableRecord
100
AcDbRegAppTableRecord
  2
ACAD_DSTYLE_DIMINSPECT
 70
     0
  0
APPID
  5
1BD
330
9
100
AcDbSymbolTableRecord
100
AcDbRegAppTableRecord
  2
ACAD_DSTYLE_DIMARC_LENGTH_SYMBOL
 70
     0
  0
APPID
  5
A79
330
9
100
AcDbSymbolTableRecord
100
AcDbRegAppTableRecord
  2
ACAD_EXEMPT_FROM_CAD_STANDARDS
 70
     0
  0
APPID
  5
1785
330
9
100
AcDbSymbolTableRecord
100
AcDbRegAppTableRecord
  2
ACAD_MLEADERVER
 70
     0
  0
APPID
  5
2145
330
9
100
AcDbSymbolTableRecord
100
AcDbRegAppTableRecord
  2
GENIUS_GENDIM_13
 70
     0
  0
APPID
  5
2146
330
9
100
AcDbSymbolTableRecord
100
AcDbRegAppTableRecord
  2
GENIUS_GENDTOL_13
 70
     0
  0
APPID
  5
2147
330
9
100
AcDbSymbolTableRecord
100
AcDbRegAppTableRecord
  2
GENIUS_GE3DTOL_13
 70
     0
  0
APPID
  5
214A
330
9
100
AcDbSymbolTableRecord
100
AcDbRegAppTableRecord
  2
MCAD_NO_VIS
 70
     0
  0
APPID
  5
214B
330
9
100
AcDbSymbolTableRecord
100
AcDbRegAppTableRecord
  2
ACAD_TEMP_GRAPHIC
 70
     0
  0
APPID
  5
217D
330
9
100
AcDbSymbolTableRecord
100
AcDbRegAppTableRecord
  2
AD_DRAW
 70
     0
  0
APPID
  5
2180
330
9
100
AcDbSymbolTableRecord
100
AcDbRegAppTableRecord
  2
ACATTRIBSERVICES
 70
     0
  0
APPID
  5
21CC
330
9
100
AcDbSymbolTableRecord
100
AcDbRegAppTableRecord
  2
ASURF_PCURVE_APPNAME
 70
     0
  0
APPID
  5
21D1
330
9
100
AcDbSymbolTableRecord
100
AcDbRegAppTableRecord
  2
AMG_3D2D_5.0
 70
     0
  0
APPID
  5
2202
330
9
100
AcDbSymbolTableRecord
100
AcDbRegAppTableRecord
  2
DESIGNERASSEMBLIES
 70
     0
  0
APPID
  5
2209
330
9
100
AcDbSymbolTableRecord
100
AcDbRegAppTableRecord
  2
ACADM_DIM_EDIT
 70
     0
  0
APPID
  5
220A
330
9
100
AcDbSymbolTableRecord
100
AcDbRegAppTableRecord
  2
AMDT_DM_ADJ
 70
     0
  0
APPID
  5
224E
330
9
100
AcDbSymbolTableRecord
100
AcDbRegAppTableRecord
  2
GENIUS_GENSCREG_15
 70
     0
  0
APPID
  5
224F
330
9
100
AcDbSymbolTableRecord
100
AcDbRegAppTableRecord
  2
GENIUS_GENODEF_13
 70
     0
  0
APPID
  5
2250
330
9
100
AcDbSymbolTableRecord
100
AcDbRegAppTableRecord
  2
GENIUS_GENOBJ-N-SDF_13
 70
     0
  0
ENDTAB
  0
TABLE
  2
DIMSTYLE
  5
A
330
0
100
AcDbSymbolTable
 70
    11
100
AcDbDimStyleTable
 71
     1
340
27
  0
DIMSTYLE
105
27
102
{ACAD_REACTORS
330
1EE6
102
}
330
A
100
AcDbSymbolTableRecord
100
AcDbDimStyleTableRecord
  2
ISO-25
 70
     0
 41
2.5
 42
0.625
 43
3.75
 44
1.25
 73
     0
 74
     0
 77
     1
 78
     8
140
2.5
141
2.5
143
0.03937007874016
147
0.625
171
     3
172
     1
271
     2
272
     2
274
     3
278
    44
283
     0
284
     8
340
11
  0
DIMSTYLE
105
1B7
330
A
100
AcDbSymbolTableRecord
100
AcDbDimStyleTableRecord
  2
AM_ISO$SF
 70
     0
  4
"
 41
2.5
 42
1.0
 43
10.0
 44
1.0
 47
0.1
 48
0.1
 73
     0
 74
     0
 75
     1
 76
     1
 77
     1
 78
     8
 79
     2
140
3.5
141
0.0
143
0.0393701
146
0.71
147
1.5
172
     1
176
   256
177
   256
178
     2
271
     2
272
     3
274
     4
283
     0
284
     8
340
11
371
    -1
372
    -1
1001
ACAD_DSTYLE_DIMJOGGED_JOGANGLE_SYMBOL
1070
   384
1040
0.7853981633974483
1001
ACAD_DSTYLE_DIMARC_LENGTH_SYMBOL
1070
   379
1070
     1
  0
DIMSTYLE
105
1B8
330
A
100
AcDbSymbolTableRecord
100
AcDbDimStyleTableRecord
  2
AM_ISO$SH
 70
     0
  4
"
 41
2.5
 42
1.0
 43
10.0
 44
1.0
 47
0.1
 48
0.1
 73
     0
 74
     0
 75
     1
 76
     1
 77
     1
 78
     8
 79
     2
140
3.5
141
0.0
143
0.0393701
144
2.0
146
0.71
147
1.5
172
     1
173
     1
176
   256
177
   256
178
     2
271
     2
272
     3
274
     4
283
     0
284
     8
340
11
343
F3
371
    -1
372
    -1
1001
ACAD_DSTYLE_DIMJOGGED_JOGANGLE_SYMBOL
1070
   384
1040
0.7853981633974483
1001
ACAD_DSTYLE_DIMARC_LENGTH_SYMBOL
1070
   379
1070
     1
  0
DIMSTYLE
105
1B9
330
A
100
AcDbSymbolTableRecord
100
AcDbDimStyleTableRecord
  2
AM_JIS
 70
     0
  4
"
 40
3.0
 41
3.0
 42
2.0
 43
10.0
 44
1.0
 47
0.1
 48
0.1
 73
     0
 74
     0
 77
     3
 78
     8
 79
     2
140
3.5
141
0.0
143
0.0393701
146
0.71
147
1.5
172
     1
176
   256
177
   256
178
   256
271
     2
272
     2
283
     0
284
     8
340
11
341
F7
342
F7
371
    -1
372
    -1
1001
ACAD_DSTYLE_DIMJOGGED_JOGANGLE_SYMBOL
1070
   384
1040
0.7853981633974483
1001
ACAD_DSTYLE_DIMARC_LENGTH_SYMBOL
1070
   379
1070
     1
  0
DIMSTYLE
105
1BA
102
{ACAD_REACTORS
330
1CE9
330
1CF6
330
1CF7
330
1CF8
330
1CF9
330
1CFA
330
1CFB
330
1CFC
330
1CFD
330
1CFE
330
1CFF
330
1D00
330
1D01
330
1D06
330
1D07
330
1EE0
330
1EE1
102
}
330
A
100
AcDbSymbolTableRecord
100
AcDbDimStyleTableRecord
  2
AM_JIS$0
 70
     0
  4
"
 40
3.0
 41
3.0
 42
2.0
 43
10.0
 44
1.0
 47
0.1
 48
0.1
 73
     0
 74
     0
 77
     3
 78
     8
 79
     2
140
3.5
141
0.0
143
0.0393701
146
0.71
147
1.5
172
     1
176
   256
177
   256
178
   256
271
     2
272
     2
283
     0
284
     8
340
11
341
F7
342
F7
371
    -1
372
    -1
1001
ACAD_DSTYLE_DIMJOGGED_JOGANGLE_SYMBOL
1070
   384
1040
0.7853981633974483
1001
ACAD_DSTYLE_DIMARC_LENGTH_SYMBOL
1070
   379
1070
     1
  0
DIMSTYLE
105
2237
330
A
100
AcDbSymbolTableRecord
100
AcDbDimStyleTableRecord
  2
AM_ISO
 70
     0
  4
"
 41
2.5
 42
1.0
 43
10.0
 44
1.0
 47
0.1
 48
0.1
 73
     0
 74
     0
 77
     1
 78
     8
 79
     2
140
3.5
141
0.0
143
0.0393701
146
0.71
147
1.5
172
     1
176
   256
177
   256
178
     2
271
     2
272
     3
274
     4
283
     0
284
     8
340
11
371
    -1
372
    -1
1001
ACAD_DSTYLE_DIMARC_LENGTH_SYMBOL
1070
   379
1070
     1
1001
ACAD_DSTYLE_DIMJOGGED_JOGANGLE_SYMBOL
1070
   384
1040
0.7853981633974483
  0
DIMSTYLE
105
2240
330
A
100
AcDbSymbolTableRecord
100
AcDbDimStyleTableRecord
  2
AM_ISO$3
 70
     0
  4
"
 41
2.5
 42
1.0
 43
10.0
 44
1.0
 47
0.1
 48
0.1
 73
     0
 77
     1
 78
     8
 79
     2
140
3.5
141
0.0
143
0.0393701
146
0.71
147
1.5
176
   256
177
   256
178
     2
271
     2
272
     3
274
     4
283
     0
284
     8
288
     1
289
     0
340
11
371
    -1
372
    -1
1001
ACAD_DSTYLE_DIMARC_LENGTH_SYMBOL
1070
   379
1070
     1
1001
ACAD_DSTYLE_DIMJOGGED_JOGANGLE_SYMBOL
1070
   384
1040
0.7853981633974483
  0
DIMSTYLE
105
2243
330
A
100
AcDbSymbolTableRecord
100
AcDbDimStyleTableRecord
  2
AM_ISO$4
 70
     0
  4
"
 41
2.5
 42
1.0
 43
10.0
 44
1.0
 47
0.1
 48
0.1
 73
     0
 77
     1
 78
     8
 79
     2
140
3.5
141
0.0
143
0.0393701
146
0.71
147
1.5
176
   256
177
   256
178
     2
271
     2
272
     3
274
     4
283
     0
284
     8
288
     1
289
     0
340
11
371
    -1
372
    -1
1001
ACAD_DSTYLE_DIMARC_LENGTH_SYMBOL
1070
   379
1070
     1
1001
ACAD_DSTYLE_DIMJOGGED_JOGANGLE_SYMBOL
1070
   384
1040
0.7853981633974483
  0
DIMSTYLE
105
2246
330
A
100
AcDbSymbolTableRecord
100
AcDbDimStyleTableRecord
  2
AM_ISO$6
 70
     0
  4
"
 41
2.5
 42
1.0
 43
10.0
 44
1.0
 47
0.1
 48
0.1
 73
     0
 74
     0
 78
     8
 79
     2
140
3.5
141
0.0
143
0.0393701
146
0.71
147
1.5
172
     1
176
   256
177
   256
178
     2
271
     2
272
     3
274
     4
283
     0
284
     8
340
11
371
    -1
372
    -1
1001
ACAD_DSTYLE_DIMARC_LENGTH_SYMBOL
1070
   379
1070
     1
1001
ACAD_DSTYLE_DIMJOGGED_JOGANGLE_SYMBOL
1070
   384
1040
0.7853981633974483
  0
DIMSTYLE
105
2249
330
A
100
AcDbSymbolTableRecord
100
AcDbDimStyleTableRecord
  2
AM_ISO$7
 70
     0
  4
"
 41
2.5
 42
1.0
 43
10.0
 44
1.0
 47
0.1
 48
0.1
 73
     0
 74
     0
 77
     1
 78
     8
 79
     2
140
5.0
141
0.0
143
0.0393701
146
0.71
147
1.5
172
     1
176
   256
177
   256
178
     2
271
     2
272
     3
274
     4
283
     0
284
     8
340
11
371
    -1
372
    -1
1001
ACAD_DSTYLE_DIMARC_LENGTH_SYMBOL
1070
   379
1070
     1
1001
ACAD_DSTYLE_DIMJOGGED_JOGANGLE_SYMBOL
1070
   384
1040
0.7853981633974483
  0
ENDTAB
  0
TABLE
  2
BLOCK_RECORD
  5
1
330
0
100
AcDbSymbolTable
 70
    57
  0
BLOCK_RECORD
  5
1F
102
{ACAD_XDICTIONARY
360
15E9
102
}
330
1
100
AcDbSymbolTableRecord
100
AcDbBlockTableRecord
  2
*Model_Space
340
22
  0
BLOCK_RECORD
  5
182D
330
1
100
AcDbSymbolTableRecord
100
AcDbBlockTableRecord
  2
*Paper_Space
340
182E
  0
BLOCK_RECORD
  5
F3
330
1
100
AcDbSymbolTableRecord
100
AcDbBlockTableRecord
  2
GENAXEH
340
0
  0
BLOCK_RECORD
  5
F7
330
1
100
AcDbSymbolTableRecord
100
AcDbBlockTableRecord
  2
_OPEN30
340
0
102
{BLKREFS
331
193A
331
1945
331
194D
331
194E
331
1956
331
1957
331
195F
331
1960
331
1968
331
1969
331
1971
331
1972
331
197B
331
197C
331
1984
331
1985
331
198D
331
198E
331
1996
331
1997
331
19A0
331
19A1
331
19AA
331
19AB
331
19B3
331
19B4
331
19BD
331
19BE
331
19D2
331
19D3
331
19DE
331
19DF
331
1AA6
331
1AA7
331
19EA
331
19EB
331
19F6
331
19F7
331
1A02
331
1A03
331
1A0E
331
1A0F
331
1A1B
331
1A1C
331
1A28
331
1A29
331
1A34
331
1A35
331
1A40
331
1A41
331
1A4F
331
1A5A
331
1A66
331
1A67
331
1A72
331
1A73
331
1A7F
331
1A80
331
1A8C
331
1A8D
331
1A99
331
1A9A
331
1FC6
331
1FC7
331
1FCF
331
1FD0
331
1FD8
331
1FD9
331
1FE1
331
1FE2
331
1FEB
331
1FEC
331
1FF5
331
1FF6
331
1FFE
331
1FFF
331
2007
331
2008
331
2013
331
201B
331
2024
331
2025
331
202D
331
202E
331
2037
331
2038
331
2041
331
2042
331
204B
331
204C
331
2055
331
2056
331
205E
331
205F
331
2069
331
206A
102
}
  0
BLOCK_RECORD
  5
FD
330
1
100
AcDbSymbolTableRecord
100
AcDbBlockTableRecord
  2
_DotSmall
340
0
102
{BLKREFS
331
1939
331
1944
331
1A4E
331
1A5B
331
2012
331
201C
102
}
  0
BLOCK_RECORD
  5
127C
330
1
100
AcDbSymbolTableRecord
100
AcDbBlockTableRecord
  2
*D3
340
0
  0
BLOCK_RECORD
  5
1289
330
1
100
AcDbSymbolTableRecord
100
AcDbBlockTableRecord
  2
*D4
340
0
  0
BLOCK_RECORD
  5
1297
330
1
100
AcDbSymbolTableRecord
100
AcDbBlockTableRecord
  2
*D5
340
0
  0
BLOCK_RECORD
  5
12A3
330
1
100
AcDbSymbolTableRecord
100
AcDbBlockTableRecord
  2
*D6
340
0
  0
BLOCK_RECORD
  5
12AF
330
1
100
AcDbSymbolTableRecord
100
AcDbBlockTableRecord
  2
*D7
340
0
  0
BLOCK_RECORD
  5
12BB
330
1
100
AcDbSymbolTableRecord
100
AcDbBlockTableRecord
  2
*D8
340
0
  0
BLOCK_RECORD
  5
12C7
330
1
100
AcDbSymbolTableRecord
100
AcDbBlockTableRecord
  2
*D9
340
0
  0
BLOCK_RECORD
  5
12D3
330
1
100
AcDbSymbolTableRecord
100
AcDbBlockTableRecord
  2
*D10
340
0
  0
BLOCK_RECORD
  5
12E0
330
1
100
AcDbSymbolTableRecord
100
AcDbBlockTableRecord
  2
*D11
340
0
  0
BLOCK_RECORD
  5
12EC
330
1
100
AcDbSymbolTableRecord
100
AcDbBlockTableRecord
  2
*D12
340
0
  0
BLOCK_RECORD
  5
12F8
330
1
100
AcDbSymbolTableRecord
100
AcDbBlockTableRecord
  2
*D13
340
0
  0
BLOCK_RECORD
  5
1304
330
1
100
AcDbSymbolTableRecord
100
AcDbBlockTableRecord
  2
*D14
340
0
  0
BLOCK_RECORD
  5
1311
330
1
100
AcDbSymbolTableRecord
100
AcDbBlockTableRecord
  2
*D15
340
0
  0
BLOCK_RECORD
  5
131E
330
1
100
AcDbSymbolTableRecord
100
AcDbBlockTableRecord
  2
*D16
340
0
  0
BLOCK_RECORD
  5
14C7
330
1
100
AcDbSymbolTableRecord
100
AcDbBlockTableRecord
  2
*D17
340
0
  0
BLOCK_RECORD
  5
188F
330
1
100
AcDbSymbolTableRecord
100
AcDbBlockTableRecord
  2
*D18
340
0
  0
BLOCK_RECORD
  5
19CC
330
1
100
AcDbSymbolTableRecord
100
AcDbBlockTableRecord
  2
*D19
340
0
  0
BLOCK_RECORD
  5
19D9
330
1
100
AcDbSymbolTableRecord
100
AcDbBlockTableRecord
  2
*D20
340
0
  0
BLOCK_RECORD
  5
19E5
330
1
100
AcDbSymbolTableRecord
100
AcDbBlockTableRecord
  2
*D21
340
0
  0
BLOCK_RECORD
  5
19F1
330
1
100
AcDbSymbolTableRecord
100
AcDbBlockTableRecord
  2
*D22
340
0
  0
BLOCK_RECORD
  5
19FD
330
1
100
AcDbSymbolTableRecord
100
AcDbBlockTableRecord
  2
*D23
340
0
  0
BLOCK_RECORD
  5
1A09
330
1
100
AcDbSymbolTableRecord
100
AcDbBlockTableRecord
  2
*D24
340
0
  0
BLOCK_RECORD
  5
1A15
330
1
100
AcDbSymbolTableRecord
100
AcDbBlockTableRecord
  2
*D25
340
0
  0
BLOCK_RECORD
  5
1A22
330
1
100
AcDbSymbolTableRecord
100
AcDbBlockTableRecord
  2
*D26
340
0
  0
BLOCK_RECORD
  5
1A2F
330
1
100
AcDbSymbolTableRecord
100
AcDbBlockTableRecord
  2
*D27
340
0
  0
BLOCK_RECORD
  5
1A3B
330
1
100
AcDbSymbolTableRecord
100
AcDbBlockTableRecord
  2
*D28
340
0
  0
BLOCK_RECORD
  5
1A47
330
1
100
AcDbSymbolTableRecord
100
AcDbBlockTableRecord
  2
*D29
340
0
  0
BLOCK_RECORD
  5
1A55
330
1
100
AcDbSymbolTableRecord
100
AcDbBlockTableRecord
  2
*D30
340
0
  0
BLOCK_RECORD
  5
1A61
330
1
100
AcDbSymbolTableRecord
100
AcDbBlockTableRecord
  2
*D31
340
0
  0
BLOCK_RECORD
  5
1A6D
330
1
100
AcDbSymbolTableRecord
100
AcDbBlockTableRecord
  2
*D32
340
0
  0
BLOCK_RECORD
  5
1A79
330
1
100
AcDbSymbolTableRecord
100
AcDbBlockTableRecord
  2
*D33
340
0
  0
BLOCK_RECORD
  5
1A86
330
1
100
AcDbSymbolTableRecord
100
AcDbBlockTableRecord
  2
*D34
340
0
  0
BLOCK_RECORD
  5
1A93
330
1
100
AcDbSymbolTableRecord
100
AcDbBlockTableRecord
  2
*D35
340
0
  0
BLOCK_RECORD
  5
1AA0
330
1
100
AcDbSymbolTableRecord
100
AcDbBlockTableRecord
  2
*D36
340
0
  0
BLOCK_RECORD
  5
1EEF
330
1
100
AcDbSymbolTableRecord
100
AcDbBlockTableRecord
  2
*D37
340
0
  0
BLOCK_RECORD
  5
1EFB
330
1
100
AcDbSymbolTableRecord
100
AcDbBlockTableRecord
  2
*D38
340
0
  0
BLOCK_RECORD
  5
1F07
330
1
100
AcDbSymbolTableRecord
100
AcDbBlockTableRecord
  2
*D39
340
0
  0
BLOCK_RECORD
  5
1F13
330
1
100
AcDbSymbolTableRecord
100
AcDbBlockTableRecord
  2
*D40
340
0
  0
BLOCK_RECORD
  5
1F1F
330
1
100
AcDbSymbolTableRecord
100
AcDbBlockTableRecord
  2
*D41
340
0
  0
BLOCK_RECORD
  5
1F2C
330
1
100
AcDbSymbolTableRecord
100
AcDbBlockTableRecord
  2
*D42
340
0
  0
BLOCK_RECORD
  5
1F39
330
1
100
AcDbSymbolTableRecord
100
AcDbBlockTableRecord
  2
*D43
340
0
  0
BLOCK_RECORD
  5
1F45
330
1
100
AcDbSymbolTableRecord
100
AcDbBlockTableRecord
  2
*D44
340
0
  0
BLOCK_RECORD
  5
1F51
330
1
100
AcDbSymbolTableRecord
100
AcDbBlockTableRecord
  2
*D45
340
0
  0
BLOCK_RECORD
  5
1F5F
330
1
100
AcDbSymbolTableRecord
100
AcDbBlockTableRecord
  2
*D46
340
0
  0
BLOCK_RECORD
  5
1F6B
330
1
100
AcDbSymbolTableRecord
100
AcDbBlockTableRecord
  2
*D47
340
0
  0
BLOCK_RECORD
  5
1F77
330
1
100
AcDbSymbolTableRecord
100
AcDbBlockTableRecord
  2
*D48
340
0
  0
BLOCK_RECORD
  5
1F83
330
1
100
AcDbSymbolTableRecord
100
AcDbBlockTableRecord
  2
*D49
340
0
  0
BLOCK_RECORD
  5
1F90
330
1
100
AcDbSymbolTableRecord
100
AcDbBlockTableRecord
  2
*D50
340
0
  0
BLOCK_RECORD
  5
1F9D
330
1
100
AcDbSymbolTableRecord
100
AcDbBlockTableRecord
  2
*D51
340
0
  0
BLOCK_RECORD
  5
1FAA
330
1
100
AcDbSymbolTableRecord
100
AcDbBlockTableRecord
  2
*D52
340
0
  0
BLOCK_RECORD
  5
1FB7
330
1
100
AcDbSymbolTableRecord
100
AcDbBlockTableRecord
  2
*D53
340
0
  0
BLOCK_RECORD
  5
2064
330
1
100
AcDbSymbolTableRecord
100
AcDbBlockTableRecord
  2
*D54
340
0
  0
ENDTAB
  0
ENDSEC
  0
SECTION
  2
BLOCKS
  0
BLOCK
  5
20
330
1F
100
AcDbEntity
  8
0
100
AcDbBlockBegin
  2
*Model_Space
 70
     0
 10
0.0
 20
0.0
 30
0.0
  3
*Model_Space
  1

  0
ENDBLK
  5
21
330
1F
100
AcDbEntity
  8
0
100
AcDbBlockEnd
  0
BLOCK
  5
182F
330
182D
100
AcDbEntity
 67
     1
  8
0
100
AcDbBlockBegin
  2
*Paper_Space
 70
     0
 10
0.0
 20
0.0
 30
0.0
  3
*Paper_Space
  1

  0
ENDBLK
  5
1830
330
182D
100
AcDbEntity
 67
     1
  8
0
100
AcDbBlockEnd
  0
BLOCK
  5
F4
330
F3
100
AcDbEntity
  8
0
100
AcDbBlockBegin
  2
GENAXEH
 70
     0
 10
0.0
 20
0.0
 30
0.0
  3
GENAXEH
  1

  0
LINE
  5
F5
330
F3
100
AcDbEntity
  8
0
100
AcDbLine
 10
-1.0
 20
0.0
 30
0.0
 11
1.0
 21
0.0
 31
0.0
  0
ENDBLK
  5
F6
330
F3
100
AcDbEntity
  8
0
100
AcDbBlockEnd
  0
BLOCK
  5
F8
330
F7
100
AcDbEntity
  8
0
100
AcDbBlockBegin
  2
_OPEN30
 70
     0
 10
0.0
 20
0.0
 30
0.0
  3
_OPEN30
  1

  0
LINE
  5
F9
330
F7
100
AcDbEntity
  8
0
  6
ByBlock
 62
     0
100
AcDbLine
 10
-1.0
 20
0.26794919
 30
0.0
 11
0.0
 21
0.0
 31
0.0
  0
LINE
  5
FA
330
F7
100
AcDbEntity
  8
0
  6
ByBlock
 62
     0
100
AcDbLine
 10
0.0
 20
0.0
 30
0.0
 11
-1.0
 21
-0.26794919
 31
0.0
  0
LINE
  5
FB
330
F7
100
AcDbEntity
  8
0
  6
ByBlock
 62
     0
100
AcDbLine
 10
0.0
 20
0.0
 30
0.0
 11
-1.0
 21
0.0
 31
0.0
  0
ENDBLK
  5
FC
330
F7
100
AcDbEntity
  8
0
100
AcDbBlockEnd
  0
BLOCK
  5
FE
330
FD
100
AcDbEntity
  8
0
100
AcDbBlockBegin
  2
_DotSmall
 70
     0
 10
0.0
 20
0.0
 30
0.0
  3
_DotSmall
  1

  0
LWPOLYLINE
  5
FF
330
FD
100
AcDbEntity
  8
0
  6
ByBlock
 62
     0
100
AcDbPolyline
 90
        2
 70
     1
 43
0.5
 10
-0.0625
 20
0.0
 42
1.0
 10
0.0625
 20
0.0
 42
1.0
  0
ENDBLK
  5
100
330
FD
100
AcDbEntity
  8
0
100
AcDbBlockEnd
  0
BLOCK
  5
1287
330
127C
100
AcDbEntity
  8
0
100
AcDbBlockBegin
  2
*D3
 70
     1
 10
0.0
 20
0.0
 30
0.0
  3
*D3
  1

  0
LINE
  5
1936
330
127C
100
AcDbEntity
  8
0
100
AcDbLine
 10
1084.514846367725
 20
1131.414328215956
 30
0.0
 11
1084.514846367725
 21
1166.477431072831
 31
0.0
  0
LINE
  5
1937
330
127C
100
AcDbEntity
  8
0
100
AcDbLine
 10
1110.514846367725
 20
1134.414328215955
 30
0.0
 11
1110.514846367725
 21
1166.477431072831
 31
0.0
  0
LINE
  5
1938
330
127C
100
AcDbEntity
  8
0
100
AcDbLine
 10
1084.514846367725
 20
1163.477431072831
 30
0.0
 11
1101.514846367725
 21
1163.477431072831
 31
0.0
  0
INSERT
  5
1939
330
127C
100
AcDbEntity
  8
0
100
AcDbBlockReference
  2
_DotSmall
 10
1084.514846367725
 20
1163.477431072831
 30
0.0
 41
9.0
 42
9.0
 43
9.0
 50
180.0
  0
INSERT
  5
193A
330
127C
100
AcDbEntity
  8
0
100
AcDbBlockReference
  2
_OPEN30
 10
1110.514846367725
 20
1163.477431072831
 30
0.0
 41
9.0
 42
9.0
 43
9.0
  0
MTEXT
  5
193B
330
127C
100
AcDbEntity
  8
0
370
    50
100
AcDbMText
 10
1101.514846367725
 20
1173.227431072831
 30
0.0
 40
10.5
 41
0.0
 71
     5
 72
     1
  1
26
 73
     1
 44
1.0
1001
ACAD
1000
MTEXTBEGIN
1070
    73
1070
     1
1070
    44
1040
1.0
1070
    74
1070
     0
1000
MTEXTEND
  0
POINT
  5
193C
330
127C
100
AcDbEntity
  8
Defpoints
 62
     0
100
AcDbPoint
 10
1084.514846367725
 20
1125.414328215956
 30
0.0
  0
POINT
  5
193D
330
127C
100
AcDbEntity
  8
Defpoints
 62
     0
100
AcDbPoint
 10
1110.514846367725
 20
1128.414328215955
 30
0.0
  0
POINT
  5
193E
330
127C
100
AcDbEntity
  8
Defpoints
 62
     0
100
AcDbPoint
 10
1110.514846367725
 20
1163.477431072831
 30
0.0
  0
ENDBLK
  5
1288
330
127C
100
AcDbEntity
  8
0
100
AcDbBlockEnd
  0
BLOCK
  5
1295
330
1289
100
AcDbEntity
  8
0
100
AcDbBlockBegin
  2
*D4
 70
     1
 10
0.0
 20
0.0
 30
0.0
  3
*D4
  1

  0
LINE
  5
193F
330
1289
100
AcDbEntity
  8
0
100
AcDbLine
 10
1084.514846367725
 20
1131.414328215956
 30
0.0
 11
1084.514846367725
 21
1166.512982706322
 31
0.0
  0
LINE
  5
1940
330
1289
100
AcDbEntity
  8
0
100
AcDbLine
 10
1078.514846367725
 20
1072.414328215956
 30
0.0
 11
1078.514846367725
 21
1166.512982706322
 31
0.0
  0
LINE
  5
1941
330
1289
100
AcDbEntity
  8
0
100
AcDbLine
 10
1084.514846367725
 20
1163.512982706322
 30
0.0
 11
1093.514846367725
 21
1163.512982706322
 31
0.0
  0
LINE
  5
1942
330
1289
100
AcDbEntity
  8
0
100
AcDbLine
 10
1069.514846367725
 20
1163.512982706322
 30
0.0
 11
1044.514846367725
 21
1163.512982706322
 31
0.0
  0
LINE
  5
1943
330
1289
100
AcDbEntity
  8
0
100
AcDbLine
 10
1084.514846367725
 20
1163.512982706322
 30
0.0
 11
1078.514846367725
 21
1163.512982706322
 31
0.0
  0
INSERT
  5
1944
330
1289
100
AcDbEntity
  8
0
100
AcDbBlockReference
  2
_DotSmall
 10
1084.514846367725
 20
1163.512982706322
 30
0.0
 41
9.0
 42
9.0
 43
9.0
 50
180.0
  0
INSERT
  5
1945
330
1289
100
AcDbEntity
  8
0
100
AcDbBlockReference
  2
_OPEN30
 10
1078.514846367725
 20
1163.512982706322
 30
0.0
 41
9.0
 42
9.0
 43
9.0
  0
MTEXT
  5
1946
330
1289
100
AcDbEntity
  8
0
370
    50
100
AcDbMText
 10
1052.514846367725
 20
1173.262982706322
 30
0.0
 40
10.5
 41
0.0
 71
     5
 72
     1
  1
6
 73
     1
 44
1.0
1001
ACAD
1000
MTEXTBEGIN
1070
    73
1070
     1
1070
    44
1040
1.0
1070
    74
1070
     0
1000
MTEXTEND
  0
POINT
  5
1947
330
1289
100
AcDbEntity
  8
Defpoints
 62
     0
100
AcDbPoint
 10
1084.514846367725
 20
1125.414328215956
 30
0.0
  0
POINT
  5
1948
330
1289
100
AcDbEntity
  8
Defpoints
 62
     0
100
AcDbPoint
 10
1078.514846367725
 20
1066.414328215956
 30
0.0
  0
POINT
  5
1949
330
1289
100
AcDbEntity
  8
Defpoints
 62
     0
100
AcDbPoint
 10
1078.514846367725
 20
1163.512982706322
 30
0.0
  0
ENDBLK
  5
1296
330
1289
100
AcDbEntity
  8
0
100
AcDbBlockEnd
  0
BLOCK
  5
12A1
330
1297
100
AcDbEntity
  8
0
100
AcDbBlockBegin
  2
*D5
 70
     1
 10
0.0
 20
0.0
 30
0.0
  3
*D5
  1

  0
LINE
  5
194A
330
1297
100
AcDbEntity
  8
0
100
AcDbLine
 10
1208.514846367725
 20
1132.414328215955
 30
0.0
 11
1208.514846367725
 21
1166.489969942971
 31
0.0
  0
LINE
  5
194B
330
1297
100
AcDbEntity
  8
0
100
AcDbLine
 10
1110.514846367725
 20
1147.814328215956
 30
0.0
 11
1110.514846367725
 21
1166.489969942971
 31
0.0
  0
LINE
  5
194C
330
1297
100
AcDbEntity
  8
0
100
AcDbLine
 10
1199.514846367725
 20
1163.489969942971
 30
0.0
 11
1119.514846367725
 21
1163.489969942971
 31
0.0
  0
INSERT
  5
194D
330
1297
100
AcDbEntity
  8
0
100
AcDbBlockReference
  2
_OPEN30
 10
1208.514846367725
 20
1163.489969942971
 30
0.0
 41
9.0
 42
9.0
 43
9.0
  0
INSERT
  5
194E
330
1297
100
AcDbEntity
  8
0
100
AcDbBlockReference
  2
_OPEN30
 10
1110.514846367725
 20
1163.489969942971
 30
0.0
 41
9.0
 42
9.0
 43
9.0
 50
180.0
  0
MTEXT
  5
194F
330
1297
100
AcDbEntity
  8
0
370
    50
100
AcDbMText
 10
1159.514846367725
 20
1173.239969942971
 30
0.0
 40
10.5
 41
0.0
 71
     5
 72
     1
  1
98
 73
     1
 44
1.0
1001
ACAD
1000
MTEXTBEGIN
1070
    73
1070
     1
1070
    44
1040
1.0
1070
    74
1070
     0
1000
MTEXTEND
  0
POINT
  5
1950
330
1297
100
AcDbEntity
  8
Defpoints
 62
     0
100
AcDbPoint
 10
1208.514846367725
 20
1126.414328215955
 30
0.0
  0
POINT
  5
1951
330
1297
100
AcDbEntity
  8
Defpoints
 62
     0
100
AcDbPoint
 10
1110.514846367725
 20
1141.814328215956
 30
0.0
  0
POINT
  5
1952
330
1297
100
AcDbEntity
  8
Defpoints
 62
     0
100
AcDbPoint
 10
1110.514846367725
 20
1163.489969942971
 30
0.0
  0
ENDBLK
  5
12A2
330
1297
100
AcDbEntity
  8
0
100
AcDbBlockEnd
  0
BLOCK
  5
12AD
330
12A3
100
AcDbEntity
  8
0
100
AcDbBlockBegin
  2
*D6
 70
     1
 10
0.0
 20
0.0
 30
0.0
  3
*D6
  1

  0
LINE
  5
1953
330
12A3
100
AcDbEntity
  8
0
100
AcDbLine
 10
1208.514846367725
 20
1132.414328215955
 30
0.0
 11
1208.514846367725
 21
1185.826276966016
 31
0.0
  0
LINE
  5
1954
330
12A3
100
AcDbEntity
  8
0
100
AcDbLine
 10
1078.514846367725
 20
1072.414328215956
 30
0.0
 11
1078.514846367725
 21
1185.826276966016
 31
0.0
  0
LINE
  5
1955
330
12A3
100
AcDbEntity
  8
0
100
AcDbLine
 10
1199.514846367725
 20
1182.826276966016
 30
0.0
 11
1087.514846367725
 21
1182.826276966016
 31
0.0
  0
INSERT
  5
1956
330
12A3
100
AcDbEntity
  8
0
100
AcDbBlockReference
  2
_OPEN30
 10
1208.514846367725
 20
1182.826276966016
 30
0.0
 41
9.0
 42
9.0
 43
9.0
  0
INSERT
  5
1957
330
12A3
100
AcDbEntity
  8
0
100
AcDbBlockReference
  2
_OPEN30
 10
1078.514846367725
 20
1182.826276966016
 30
0.0
 41
9.0
 42
9.0
 43
9.0
 50
180.0
  0
MTEXT
  5
1958
330
12A3
100
AcDbEntity
  8
0
370
    50
100
AcDbMText
 10
1143.514846367725
 20
1192.576276966016
 30
0.0
 40
10.5
 41
0.0
 71
     5
 72
     1
  1
130
 73
     1
 44
1.0
1001
ACAD
1000
MTEXTBEGIN
1070
    73
1070
     1
1070
    44
1040
1.0
1070
    74
1070
     0
1000
MTEXTEND
  0
POINT
  5
1959
330
12A3
100
AcDbEntity
  8
Defpoints
 62
     0
100
AcDbPoint
 10
1208.514846367725
 20
1126.414328215955
 30
0.0
  0
POINT
  5
195A
330
12A3
100
AcDbEntity
  8
Defpoints
 62
     0
100
AcDbPoint
 10
1078.514846367725
 20
1066.414328215956
 30
0.0
  0
POINT
  5
195B
330
12A3
100
AcDbEntity
  8
Defpoints
 62
     0
100
AcDbPoint
 10
1078.514846367725
 20
1182.826276966016
 30
0.0
  0
ENDBLK
  5
12AE
330
12A3
100
AcDbEntity
  8
0
100
AcDbBlockEnd
  0
BLOCK
  5
12B9
330
12AF
100
AcDbEntity
  8
0
100
AcDbBlockBegin
  2
*D7
 70
     1
 10
0.0
 20
0.0
 30
0.0
  3
*D7
  1

  0
LINE
  5
195C
330
12AF
100
AcDbEntity
  8
0
100
AcDbLine
 10
1272.45572251237
 20
812.4143282159566
 30
0.0
 11
1272.45572251237
 21
759.1644673211972
 31
0.0
  0
LINE
  5
195D
330
12AF
100
AcDbEntity
  8
0
100
AcDbLine
 10
1462.45572251237
 20
812.4143282159566
 30
0.0
 11
1462.45572251237
 21
759.1644673211972
 31
0.0
  0
LINE
  5
195E
330
12AF
100
AcDbEntity
  8
0
100
AcDbLine
 10
1281.455722512369
 20
762.1644673211972
 30
0.0
 11
1453.45572251237
 21
762.1644673211972
 31
0.0
  0
INSERT
  5
195F
330
12AF
100
AcDbEntity
  8
0
100
AcDbBlockReference
  2
_OPEN30
 10
1272.45572251237
 20
762.1644673211972
 30
0.0
 41
9.0
 42
9.0
 43
9.0
 50
180.0
  0
INSERT
  5
1960
330
12AF
100
AcDbEntity
  8
0
100
AcDbBlockReference
  2
_OPEN30
 10
1462.45572251237
 20
762.1644673211972
 30
0.0
 41
9.0
 42
9.0
 43
9.0
  0
MTEXT
  5
1961
330
12AF
100
AcDbEntity
  8
0
370
    50
100
AcDbMText
 10
1367.45572251237
 20
771.9144673211972
 30
0.0
 40
10.5
 41
0.0
 71
     5
 72
     1
  1
190
 73
     1
 44
1.0
1001
ACAD
1000
MTEXTBEGIN
1070
    73
1070
     1
1070
    44
1040
1.0
1070
    74
1070
     0
1000
MTEXTEND
  0
POINT
  5
1962
330
12AF
100
AcDbEntity
  8
Defpoints
 62
     0
100
AcDbPoint
 10
1272.45572251237
 20
818.4143282159565
 30
0.0
  0
POINT
  5
1963
330
12AF
100
AcDbEntity
  8
Defpoints
 62
     0
100
AcDbPoint
 10
1462.45572251237
 20
818.4143282159565
 30
0.0
  0
POINT
  5
1964
330
12AF
100
AcDbEntity
  8
Defpoints
 62
     0
100
AcDbPoint
 10
1462.45572251237
 20
762.1644673211972
 30
0.0
  0
ENDBLK
  5
12BA
330
12AF
100
AcDbEntity
  8
0
100
AcDbBlockEnd
  0
BLOCK
  5
12C5
330
12BB
100
AcDbEntity
  8
0
100
AcDbBlockBegin
  2
*D8
 70
     1
 10
0.0
 20
0.0
 30
0.0
  3
*D8
  1

  0
LINE
  5
1965
330
12BB
100
AcDbEntity
  8
0
100
AcDbLine
 10
1466.45572251237
 20
816.4143282159566
 30
0.0
 11
1505.84079632963
 21
816.4143282159566
 31
0.0
  0
LINE
  5
1966
330
12BB
100
AcDbEntity
  8
0
100
AcDbLine
 10
1468.506378069242
 20
1128.407115271129
 30
0.0
 11
1505.84079632963
 21
1128.407115271129
 31
0.0
  0
LINE
  5
1967
330
12BB
100
AcDbEntity
  8
0
100
AcDbLine
 10
1502.840796329629
 20
825.4143282159565
 30
0.0
 11
1502.840796329629
 21
1119.407115271129
 31
0.0
  0
INSERT
  5
1968
330
12BB
100
AcDbEntity
  8
0
100
AcDbBlockReference
  2
_OPEN30
 10
1502.840796329629
 20
816.4143282159566
 30
0.0
 41
9.0
 42
9.0
 43
9.0
 50
270.0
  0
INSERT
  5
1969
330
12BB
100
AcDbEntity
  8
0
100
AcDbBlockReference
  2
_OPEN30
 10
1502.840796329629
 20
1128.407115271129
 30
0.0
 41
9.0
 42
9.0
 43
9.0
 50
90.0
  0
MTEXT
  5
196A
330
12BB
100
AcDbEntity
  8
0
370
    50
100
AcDbMText
 10
1493.090796329629
 20
972.4107217435427
 30
0.0
 40
10.5
 41
0.0
 71
     5
 72
     1
  1
312
 11
0.0000000000000001
 21
1.0
 31
0.0
 73
     1
 44
1.0
1001
ACAD
1000
MTEXTBEGIN
1070
    73
1070
     1
1070
    44
1040
1.0
1070
    74
1070
     0
1000
MTEXTEND
  0
POINT
  5
196B
330
12BB
100
AcDbEntity
  8
Defpoints
 62
     0
100
AcDbPoint
 10
1460.45572251237
 20
816.4143282159566
 30
0.0
  0
POINT
  5
196C
330
12BB
100
AcDbEntity
  8
Defpoints
 62
     0
100
AcDbPoint
 10
1462.506378069242
 20
1128.407115271129
 30
0.0
  0
POINT
  5
196D
330
12BB
100
AcDbEntity
  8
Defpoints
 62
     0
100
AcDbPoint
 10
1502.840796329629
 20
1128.407115271129
 30
0.0
  0
ENDBLK
  5
12C6
330
12BB
100
AcDbEntity
  8
0
100
AcDbBlockEnd
  0
BLOCK
  5
12D1
330
12C7
100
AcDbEntity
  8
0
100
AcDbBlockBegin
  2
*D9
 70
     1
 10
0.0
 20
0.0
 30
0.0
  3
*D9
  1

  0
LINE
  5
196E
330
12C7
100
AcDbEntity
  8
0
100
AcDbLine
 10
1201.514846367725
 20
810.4143282159565
 30
0.0
 11
1201.514846367725
 21
778.4593086819333
 31
0.0
  0
LINE
  5
196F
330
12C7
100
AcDbEntity
  8
0
100
AcDbLine
 10
1078.514846367725
 20
810.4143282159565
 30
0.0
 11
1078.514846367725
 21
778.4593086819333
 31
0.0
  0
LINE
  5
1970
330
12C7
100
AcDbEntity
  8
0
100
AcDbLine
 10
1192.514846367725
 20
781.4593086819331
 30
0.0
 11
1087.514846367725
 21
781.4593086819331
 31
0.0
  0
INSERT
  5
1971
330
12C7
100
AcDbEntity
  8
0
100
AcDbBlockReference
  2
_OPEN30
 10
1201.514846367725
 20
781.4593086819331
 30
0.0
 41
9.0
 42
9.0
 43
9.0
  0
INSERT
  5
1972
330
12C7
100
AcDbEntity
  8
0
100
AcDbBlockReference
  2
_OPEN30
 10
1078.514846367725
 20
781.4593086819331
 30
0.0
 41
9.0
 42
9.0
 43
9.0
 50
180.0
  0
MTEXT
  5
1973
330
12C7
100
AcDbEntity
  8
0
370
    50
100
AcDbMText
 10
1140.014846367725
 20
791.2093086819331
 30
0.0
 40
10.5
 41
0.0
 71
     5
 72
     1
  1
123（A0J2）
 73
     1
 44
1.0
1001
ACAD
1000
MTEXTBEGIN
1070
    73
1070
     1
1070
    44
1040
1.0
1070
    74
1070
     0
1000
MTEXTEND
  0
POINT
  5
1974
330
12C7
100
AcDbEntity
  8
Defpoints
 62
     0
100
AcDbPoint
 10
1201.514846367725
 20
816.4143282159566
 30
0.0
  0
POINT
  5
1975
330
12C7
100
AcDbEntity
  8
Defpoints
 62
     0
100
AcDbPoint
 10
1078.514846367725
 20
816.4143282159566
 30
0.0
  0
POINT
  5
1976
330
12C7
100
AcDbEntity
  8
Defpoints
 62
     0
100
AcDbPoint
 10
1078.514846367725
 20
781.4593086819331
 30
0.0
  0
ENDBLK
  5
12D2
330
12C7
100
AcDbEntity
  8
0
100
AcDbBlockEnd
  0
BLOCK
  5
12DE
330
12D3
100
AcDbEntity
  8
0
100
AcDbBlockBegin
  2
*D10
 70
     1
 10
0.0
 20
0.0
 30
0.0
  3
*D10
  1

  0
LINE
  5
1977
330
12D3
100
AcDbEntity
  8
0
100
AcDbLine
 10
1201.514846367725
 20
810.4143282159565
 30
0.0
 11
1201.514846367725
 21
756.8536651694728
 31
0.0
  0
LINE
  5
1978
330
12D3
100
AcDbEntity
  8
0
100
AcDbLine
 10
1236.014846367725
 20
1023.814328215957
 30
0.0
 11
1236.014846367725
 21
756.8536651694728
 31
0.0
  0
LINE
  5
1979
330
12D3
100
AcDbEntity
  8
0
100
AcDbLine
 10
1227.014846367725
 20
759.8536651694728
 30
0.0
 11
1210.514846367725
 21
759.8536651694728
 31
0.0
  0
LINE
  5
197A
330
12D3
100
AcDbEntity
  8
0
100
AcDbLine
 10
1201.514846367725
 20
759.8536651694728
 30
0.0
 11
1089.014846367725
 21
759.8536651694728
 31
0.0
  0
INSERT
  5
197B
330
12D3
100
AcDbEntity
  8
0
100
AcDbBlockReference
  2
_OPEN30
 10
1236.014846367725
 20
759.8536651694728
 30
0.0
 41
9.0
 42
9.0
 43
9.0
  0
INSERT
  5
197C
330
12D3
100
AcDbEntity
  8
0
100
AcDbBlockReference
  2
_OPEN30
 10
1201.514846367725
 20
759.8536651694728
 30
0.0
 41
9.0
 42
9.0
 43
9.0
 50
180.0
  0
MTEXT
  5
197D
330
12D3
100
AcDbEntity
  8
0
370
    50
100
AcDbMText
 10
1140.764846367725
 20
769.6036651694728
 30
0.0
 40
10.5
 41
0.0
 71
     5
 72
     1
  1
35（増加寸法）
 73
     1
 44
1.0
1001
ACAD
1000
MTEXTBEGIN
1070
    73
1070
     1
1070
    44
1040
1.0
1070
    74
1070
     0
1000
MTEXTEND
  0
POINT
  5
197E
330
12D3
100
AcDbEntity
  8
Defpoints
 62
     0
100
AcDbPoint
 10
1201.514846367725
 20
816.4143282159566
 30
0.0
  0
POINT
  5
197F
330
12D3
100
AcDbEntity
  8
Defpoints
 62
     0
100
AcDbPoint
 10
1236.014846367725
 20
1029.814328215957
 30
0.0
  0
POINT
  5
1980
330
12D3
100
AcDbEntity
  8
Defpoints
 62
     0
100
AcDbPoint
 10
1236.014846367725
 20
759.8536651694728
 30
0.0
  0
ENDBLK
  5
12DF
330
12D3
100
AcDbEntity
  8
0
100
AcDbBlockEnd
  0
BLOCK
  5
12EA
330
12E0
100
AcDbEntity
  8
0
100
AcDbBlockBegin
  2
*D11
 70
     1
 10
0.0
 20
0.0
 30
0.0
  3
*D11
  1

  0
LINE
  5
1981
330
12E0
100
AcDbEntity
  8
0
100
AcDbLine
 10
1466.06572251237
 20
1060.414328215957
 30
0.0
 11
1486.013613182561
 21
1060.414328215957
 31
0.0
  0
LINE
  5
1982
330
12E0
100
AcDbEntity
  8
0
100
AcDbLine
 10
1466.06572251237
 20
822.4143282159566
 30
0.0
 11
1486.013613182561
 21
822.4143282159566
 31
0.0
  0
LINE
  5
1983
330
12E0
100
AcDbEntity
  8
0
100
AcDbLine
 10
1483.013613182562
 20
1051.414328215957
 30
0.0
 11
1483.013613182562
 21
831.4143282159566
 31
0.0
  0
INSERT
  5
1984
330
12E0
100
AcDbEntity
  8
0
100
AcDbBlockReference
  2
_OPEN30
 10
1483.013613182562
 20
1060.414328215957
 30
0.0
 41
9.0
 42
9.0
 43
9.0
 50
90.0
  0
INSERT
  5
1985
330
12E0
100
AcDbEntity
  8
0
100
AcDbBlockReference
  2
_OPEN30
 10
1483.013613182562
 20
822.4143282159566
 30
0.0
 41
9.0
 42
9.0
 43
9.0
 50
270.0
  0
MTEXT
  5
1986
330
12E0
100
AcDbEntity
  8
0
370
    50
100
AcDbMText
 10
1473.263613182561
 20
941.4143282159567
 30
0.0
 40
10.5
 41
0.0
 71
     5
 72
     1
  1
238（取付ピッチ）
 11
0.0000000000000001
 21
1.0
 31
0.0
 73
     1
 44
1.0
1001
ACAD
1000
MTEXTBEGIN
1070
    73
1070
     1
1070
    44
1040
1.0
1070
    74
1070
     0
1000
MTEXTEND
  0
POINT
  5
1987
330
12E0
100
AcDbEntity
  8
Defpoints
 62
     0
100
AcDbPoint
 10
1460.06572251237
 20
1060.414328215957
 30
0.0
  0
POINT
  5
1988
330
12E0
100
AcDbEntity
  8
Defpoints
 62
     0
100
AcDbPoint
 10
1460.06572251237
 20
822.4143282159566
 30
0.0
  0
POINT
  5
1989
330
12E0
100
AcDbEntity
  8
Defpoints
 62
     0
100
AcDbPoint
 10
1483.013613182562
 20
822.4143282159566
 30
0.0
  0
ENDBLK
  5
12EB
330
12E0
100
AcDbEntity
  8
0
100
AcDbBlockEnd
  0
BLOCK
  5
12F6
330
12EC
100
AcDbEntity
  8
0
100
AcDbBlockBegin
  2
*D12
 70
     1
 10
0.0
 20
0.0
 30
0.0
  3
*D12
  1

  0
LINE
  5
198A
330
12EC
100
AcDbEntity
  8
0
100
AcDbLine
 10
1277.455722512369
 20
813.8043282159568
 30
0.0
 11
1277.455722512369
 21
778.4593086819334
 31
0.0
  0
LINE
  5
198B
330
12EC
100
AcDbEntity
  8
0
100
AcDbLine
 10
1457.45572251237
 20
813.8043282159568
 30
0.0
 11
1457.45572251237
 21
778.4593086819334
 31
0.0
  0
LINE
  5
198C
330
12EC
100
AcDbEntity
  8
0
100
AcDbLine
 10
1286.45572251237
 20
781.4593086819334
 30
0.0
 11
1448.455722512369
 21
781.4593086819334
 31
0.0
  0
INSERT
  5
198D
330
12EC
100
AcDbEntity
  8
0
100
AcDbBlockReference
  2
_OPEN30
 10
1277.455722512369
 20
781.4593086819334
 30
0.0
 41
9.0
 42
9.0
 43
9.0
 50
180.0
  0
INSERT
  5
198E
330
12EC
100
AcDbEntity
  8
0
100
AcDbBlockReference
  2
_OPEN30
 10
1457.45572251237
 20
781.4593086819334
 30
0.0
 41
9.0
 42
9.0
 43
9.0
  0
MTEXT
  5
198F
330
12EC
100
AcDbEntity
  8
0
370
    50
100
AcDbMText
 10
1367.45572251237
 20
791.2093086819334
 30
0.0
 40
10.5
 41
0.0
 71
     5
 72
     1
  1
180（取付ピッチ）
 73
     1
 44
1.0
1001
ACAD
1000
MTEXTBEGIN
1070
    73
1070
     1
1070
    44
1040
1.0
1070
    74
1070
     0
1000
MTEXTEND
  0
POINT
  5
1990
330
12EC
100
AcDbEntity
  8
Defpoints
 62
     0
100
AcDbPoint
 10
1277.455722512369
 20
819.8043282159567
 30
0.0
  0
POINT
  5
1991
330
12EC
100
AcDbEntity
  8
Defpoints
 62
     0
100
AcDbPoint
 10
1457.45572251237
 20
819.8043282159567
 30
0.0
  0
POINT
  5
1992
330
12EC
100
AcDbEntity
  8
Defpoints
 62
     0
100
AcDbPoint
 10
1457.45572251237
 20
781.4593086819334
 30
0.0
  0
ENDBLK
  5
12F7
330
12EC
100
AcDbEntity
  8
0
100
AcDbBlockEnd
  0
BLOCK
  5
1302
330
12F8
100
AcDbEntity
  8
0
100
AcDbBlockBegin
  2
*D13
 70
     1
 10
0.0
 20
0.0
 30
0.0
  3
*D13
  1

  0
LINE
  5
1993
330
12F8
100
AcDbEntity
  8
0
100
AcDbLine
 10
1072.514846367725
 20
1066.414328215956
 30
0.0
 11
1043.342691424993
 21
1066.414328215956
 31
0.0
  0
LINE
  5
1994
330
12F8
100
AcDbEntity
  8
0
100
AcDbLine
 10
1072.514846367725
 20
816.4143282159566
 30
0.0
 11
1043.342691424993
 21
816.4143282159566
 31
0.0
  0
LINE
  5
1995
330
12F8
100
AcDbEntity
  8
0
100
AcDbLine
 10
1046.342691424993
 20
1057.414328215956
 30
0.0
 11
1046.342691424993
 21
825.4143282159565
 31
0.0
  0
INSERT
  5
1996
330
12F8
100
AcDbEntity
  8
0
100
AcDbBlockReference
  2
_OPEN30
 10
1046.342691424993
 20
1066.414328215956
 30
0.0
 41
9.0
 42
9.0
 43
9.0
 50
90.0
  0
INSERT
  5
1997
330
12F8
100
AcDbEntity
  8
0
100
AcDbBlockReference
  2
_OPEN30
 10
1046.342691424993
 20
816.4143282159566
 30
0.0
 41
9.0
 42
9.0
 43
9.0
 50
270.0
  0
MTEXT
  5
1998
330
12F8
100
AcDbEntity
  8
0
370
    50
100
AcDbMText
 10
1036.592691424993
 20
941.4143282159564
 30
0.0
 40
10.5
 41
0.0
 71
     5
 72
     1
  1
250（A0J2）
 11
0.0000000000000001
 21
1.0
 31
0.0
 73
     1
 44
1.0
1001
ACAD
1000
MTEXTBEGIN
1070
    73
1070
     1
1070
    44
1040
1.0
1070
    74
1070
     0
1000
MTEXTEND
  0
POINT
  5
1999
330
12F8
100
AcDbEntity
  8
Defpoints
 62
     0
100
AcDbPoint
 10
1078.514846367725
 20
1066.414328215956
 30
0.0
  0
POINT
  5
199A
330
12F8
100
AcDbEntity
  8
Defpoints
 62
     0
100
AcDbPoint
 10
1078.514846367725
 20
816.4143282159566
 30
0.0
  0
POINT
  5
199B
330
12F8
100
AcDbEntity
  8
Defpoints
 62
     0
100
AcDbPoint
 10
1046.342691424993
 20
816.4143282159566
 30
0.0
  0
ENDBLK
  5
1303
330
12F8
100
AcDbEntity
  8
0
100
AcDbBlockEnd
  0
BLOCK
  5
130F
330
1304
100
AcDbEntity
  8
0
100
AcDbBlockBegin
  2
*D14
 70
     1
 10
0.0
 20
0.0
 30
0.0
  3
*D14
  1

  0
LINE
  5
199C
330
1304
100
AcDbEntity
  8
0
100
AcDbLine
 10
1072.514846367725
 20
1066.414328215956
 30
0.0
 11
1023.246287698744
 21
1066.414328215956
 31
0.0
  0
LINE
  5
199D
330
1304
100
AcDbEntity
  8
0
100
AcDbLine
 10
1081.514846367725
 20
1128.414328215956
 30
0.0
 11
1023.246287698744
 21
1128.414328215956
 31
0.0
  0
LINE
  5
199E
330
1304
100
AcDbEntity
  8
0
100
AcDbLine
 10
1026.246287698744
 20
1119.414328215956
 30
0.0
 11
1026.246287698744
 21
1075.414328215956
 31
0.0
  0
LINE
  5
199F
330
1304
100
AcDbEntity
  8
0
100
AcDbLine
 10
1026.246287698744
 20
1066.414328215956
 30
0.0
 11
1026.246287698744
 21
953.9143282159558
 31
0.0
  0
INSERT
  5
19A0
330
1304
100
AcDbEntity
  8
0
100
AcDbBlockReference
  2
_OPEN30
 10
1026.246287698744
 20
1128.414328215956
 30
0.0
 41
9.0
 42
9.0
 43
9.0
 50
90.0
  0
INSERT
  5
19A1
330
1304
100
AcDbEntity
  8
0
100
AcDbBlockReference
  2
_OPEN30
 10
1026.246287698744
 20
1066.414328215956
 30
0.0
 41
9.0
 42
9.0
 43
9.0
 50
270.0
  0
MTEXT
  5
19A2
330
1304
100
AcDbEntity
  8
0
370
    50
100
AcDbMText
 10
1016.496287698744
 20
1005.664328215956
 30
0.0
 40
10.5
 41
0.0
 71
     5
 72
     1
  1
62（増加寸法）
 11
0.0000000000000001
 21
1.0
 31
0.0
 73
     1
 44
1.0
1001
ACAD
1000
MTEXTBEGIN
1070
    73
1070
     1
1070
    44
1040
1.0
1070
    74
1070
     0
1000
MTEXTEND
  0
POINT
  5
19A3
330
1304
100
AcDbEntity
  8
Defpoints
 62
     0
100
AcDbPoint
 10
1078.514846367725
 20
1066.414328215956
 30
0.0
  0
POINT
  5
19A4
330
1304
100
AcDbEntity
  8
Defpoints
 62
     0
100
AcDbPoint
 10
1087.514846367725
 20
1128.414328215956
 30
0.0
  0
POINT
  5
19A5
330
1304
100
AcDbEntity
  8
Defpoints
 62
     0
100
AcDbPoint
 10
1026.246287698744
 20
1128.414328215956
 30
0.0
  0
ENDBLK
  5
1310
330
1304
100
AcDbEntity
  8
0
100
AcDbBlockEnd
  0
BLOCK
  5
131C
330
1311
100
AcDbEntity
  8
0
100
AcDbBlockBegin
  2
*D15
 70
     1
 10
0.0
 20
0.0
 30
0.0
  3
*D15
  1

  0
LINE
  5
19A6
330
1311
100
AcDbEntity
  8
0
100
AcDbLine
 10
1208.514846367725
 20
1132.414328215955
 30
0.0
 11
1208.514846367725
 21
1166.494153258004
 31
0.0
  0
LINE
  5
19A7
330
1311
100
AcDbEntity
  8
0
100
AcDbLine
 10
1236.014846367725
 20
1132.414328215955
 30
0.0
 11
1236.014846367725
 21
1166.494153258004
 31
0.0
  0
LINE
  5
19A8
330
1311
100
AcDbEntity
  8
0
100
AcDbLine
 10
1217.514846367725
 20
1163.494153258004
 30
0.0
 11
1227.014846367725
 21
1163.494153258004
 31
0.0
  0
LINE
  5
19A9
330
1311
100
AcDbEntity
  8
0
100
AcDbLine
 10
1236.014846367725
 20
1163.494153258004
 30
0.0
 11
1398.914846367725
 21
1163.494153258004
 31
0.0
  0
INSERT
  5
19AA
330
1311
100
AcDbEntity
  8
0
100
AcDbBlockReference
  2
_OPEN30
 10
1208.514846367725
 20
1163.494153258004
 30
0.0
 41
9.0
 42
9.0
 43
9.0
 50
180.0
  0
INSERT
  5
19AB
330
1311
100
AcDbEntity
  8
0
100
AcDbBlockReference
  2
_OPEN30
 10
1236.014846367725
 20
1163.494153258004
 30
0.0
 41
9.0
 42
9.0
 43
9.0
  0
MTEXT
  5
19AC
330
1311
100
AcDbEntity
  8
0
370
    50
100
AcDbMText
 10
1321.964846367725
 20
1173.244153258004
 30
0.0
 40
10.5
 41
0.0
 71
     5
 72
     1
  1
28（配線必要スペース）
 73
     1
 44
1.0
1001
ACAD
1000
MTEXTBEGIN
1070
    73
1070
     1
1070
    44
1040
1.0
1070
    74
1070
     0
1000
MTEXTEND
  0
POINT
  5
19AD
330
1311
100
AcDbEntity
  8
Defpoints
 62
     0
100
AcDbPoint
 10
1208.514846367725
 20
1126.414328215955
 30
0.0
  0
POINT
  5
19AE
330
1311
100
AcDbEntity
  8
Defpoints
 62
     0
100
AcDbPoint
 10
1236.014846367725
 20
1126.414328215955
 30
0.0
  0
POINT
  5
19AF
330
1311
100
AcDbEntity
  8
Defpoints
 62
     0
100
AcDbPoint
 10
1236.014846367725
 20
1163.494153258004
 30
0.0
  0
ENDBLK
  5
131D
330
1311
100
AcDbEntity
  8
0
100
AcDbBlockEnd
  0
BLOCK
  5
1328
330
131E
100
AcDbEntity
  8
0
100
AcDbBlockBegin
  2
*D16
 70
     1
 10
0.0
 20
0.0
 30
0.0
  3
*D16
  1

  0
LINE
  5
19B0
330
131E
100
AcDbEntity
  8
0
100
AcDbLine
 10
1236.014846367725
 20
1132.414328215955
 30
0.0
 11
1236.014846367725
 21
1203.815066229462
 31
0.0
  0
LINE
  5
19B1
330
131E
100
AcDbEntity
  8
0
100
AcDbLine
 10
1078.514846367725
 20
1072.414328215956
 30
0.0
 11
1078.514846367725
 21
1203.815066229462
 31
0.0
  0
LINE
  5
19B2
330
131E
100
AcDbEntity
  8
0
100
AcDbLine
 10
1227.014846367725
 20
1200.815066229462
 30
0.0
 11
1087.514846367725
 21
1200.815066229462
 31
0.0
  0
INSERT
  5
19B3
330
131E
100
AcDbEntity
  8
0
100
AcDbBlockReference
  2
_OPEN30
 10
1236.014846367725
 20
1200.815066229462
 30
0.0
 41
9.0
 42
9.0
 43
9.0
  0
INSERT
  5
19B4
330
131E
100
AcDbEntity
  8
0
100
AcDbBlockReference
  2
_OPEN30
 10
1078.514846367725
 20
1200.815066229462
 30
0.0
 41
9.0
 42
9.0
 43
9.0
 50
180.0
  0
MTEXT
  5
19B5
330
131E
100
AcDbEntity
  8
0
370
    50
100
AcDbMText
 10
1157.264846367725
 20
1210.565066229462
 30
0.0
 40
10.5
 41
0.0
 71
     5
 72
     1
  1
157
 73
     1
 44
1.0
1001
ACAD
1000
MTEXTBEGIN
1070
    73
1070
     1
1070
    44
1040
1.0
1070
    74
1070
     0
1000
MTEXTEND
  0
POINT
  5
19B6
330
131E
100
AcDbEntity
  8
Defpoints
 62
     0
100
AcDbPoint
 10
1236.014846367725
 20
1126.414328215955
 30
0.0
  0
POINT
  5
19B7
330
131E
100
AcDbEntity
  8
Defpoints
 62
     0
100
AcDbPoint
 10
1078.514846367725
 20
1066.414328215956
 30
0.0
  0
POINT
  5
19B8
330
131E
100
AcDbEntity
  8
Defpoints
 62
     0
100
AcDbPoint
 10
1078.514846367725
 20
1200.815066229462
 30
0.0
  0
ENDBLK
  5
1329
330
131E
100
AcDbEntity
  8
0
100
AcDbBlockEnd
  0
BLOCK
  5
14D1
330
14C7
100
AcDbEntity
  8
0
100
AcDbBlockBegin
  2
*D17
 70
     1
 10
0.0
 20
0.0
 30
0.0
  3
*D17
  1

  0
LINE
  5
19B9
330
14C7
100
AcDbEntity
  8
0
 62
     0
370
    -2
100
AcDbLine
 10
1079.639846367725
 20
1128.414328215956
 30
0.0
 11
1022.562500296711
 21
1128.414328215956
 31
0.0
  0
LINE
  5
19BA
330
14C7
100
AcDbEntity
  8
0
 62
     0
370
    -2
100
AcDbLine
 10
1082.659213084283
 20
1157.814328215957
 30
0.0
 11
1022.562500296711
 21
1157.814328215957
 31
0.0
  0
LINE
  5
19BB
330
14C7
100
AcDbEntity
  8
0
 62
     0
370
    -2
100
AcDbLine
 10
1026.312500296711
 20
1135.914328215956
 30
0.0
 11
1026.312500296711
 21
1150.314328215957
 31
0.0
  0
LINE
  5
19BC
330
14C7
100
AcDbEntity
  8
0
 62
     0
370
    -2
100
AcDbLine
 10
1026.312500296711
 20
1157.814328215957
 30
0.0
 11
1026.312500296711
 21
1253.064328215957
 31
0.0
  0
INSERT
  5
19BD
330
14C7
100
AcDbEntity
  8
0
 62
     0
370
    -2
100
AcDbBlockReference
  2
_OPEN30
 10
1026.312500296711
 20
1128.414328215956
 30
0.0
 41
7.5
 42
7.5
 43
7.5
 50
270.0
  0
INSERT
  5
19BE
330
14C7
100
AcDbEntity
  8
0
 62
     0
370
    -2
100
AcDbBlockReference
  2
_OPEN30
 10
1026.312500296711
 20
1157.814328215957
 30
0.0
 41
7.5
 42
7.5
 43
7.5
 50
90.0
  0
MTEXT
  5
19BF
330
14C7
100
AcDbEntity
  8
0
 62
     0
370
    50
100
AcDbMText
 10
1016.562500296711
 20
1209.189328215957
 30
0.0
 40
10.5
 41
0.0
 71
     5
 72
     1
  1
30　　　　　
 11
0.0000000000000001
 21
1.0
 31
0.0
 73
     1
 44
1.0
1001
ACAD
1000
MTEXTBEGIN
1070
    73
1070
     1
1070
    44
1040
1.0
1070
    74
1070
     0
1000
MTEXTEND
  0
POINT
  5
19C0
330
14C7
100
AcDbEntity
  8
Defpoints
 62
     0
100
AcDbPoint
 10
1081.514846367725
 20
1128.414328215956
 30
0.0
  0
POINT
  5
19C1
330
14C7
100
AcDbEntity
  8
Defpoints
 62
     0
100
AcDbPoint
 10
1084.534213084283
 20
1157.814328215957
 30
0.0
  0
POINT
  5
19C2
330
14C7
100
AcDbEntity
  8
Defpoints
 62
     0
100
AcDbPoint
 10
1026.312500296711
 20
1157.814328215957
 30
0.0
  0
ENDBLK
  5
14D2
330
14C7
100
AcDbEntity
  8
0
100
AcDbBlockEnd
  0
BLOCK
  5
1899
330
188F
100
AcDbEntity
  8
0
100
AcDbBlockBegin
  2
*D18
 70
     1
 10
0.0
 20
0.0
 30
0.0
  3
*D18
  1

  0
LINE
  5
19C3
330
188F
100
AcDbEntity
  8
0
 62
     0
370
    -2
100
AcDbLine
 10
1463.131378069242
 20
1128.414328215956
 30
0.0
 11
1547.43348239254
 21
1128.414328215955
 31
0.0
  0
LINE
  5
19C4
330
188F
100
AcDbEntity
  8
0
 62
     0
370
    -2
100
AcDbLine
 10
1461.08072251237
 20
816.4143282159566
 30
0.0
 11
1547.43348239254
 21
816.4143282159566
 31
0.0
  0
LINE
  5
19C5
330
188F
100
AcDbEntity
  8
0
 62
     0
370
    -2
100
AcDbLine
 10
1546.18348239254
 20
1125.914328215956
 30
0.0
 11
1546.18348239254
 21
818.9143282159566
 31
0.0
  0
SOLID
  5
19C6
330
188F
100
AcDbEntity
  8
0
 62
     0
100
AcDbTrace
 10
1545.766815725874
 20
1125.914328215956
 30
0.0
 11
1546.600149059207
 21
1125.914328215956
 31
0.0
 12
1546.18348239254
 22
1128.414328215955
 32
0.0
 13
1546.18348239254
 23
1128.414328215955
 33
0.0
  0
SOLID
  5
19C7
330
188F
100
AcDbEntity
  8
0
 62
     0
100
AcDbTrace
 10
1545.766815725874
 20
818.9143282159566
 30
0.0
 11
1546.600149059207
 21
818.9143282159566
 31
0.0
 12
1546.18348239254
 22
816.4143282159566
 32
0.0
 13
1546.18348239254
 23
816.4143282159566
 33
0.0
  0
MTEXT
  5
19C8
330
188F
100
AcDbEntity
  8
0
 62
     0
100
AcDbMText
 10
1544.30848239254
 20
972.4143282159564
 30
0.0
 40
2.5
 41
0.0
 71
     5
 72
     1
  1
312
 11
0.0000000000000001
 21
1.0
 31
0.0
 73
     1
 44
1.0
1001
ACAD
1000
MTEXTBEGIN
1070
    73
1070
     1
1070
    44
1040
1.0
1070
    74
1070
     0
1000
MTEXTEND
  0
POINT
  5
19C9
330
188F
100
AcDbEntity
  8
Defpoints
 62
     0
100
AcDbPoint
 10
1462.506378069242
 20
1128.414328215956
 30
0.0
  0
POINT
  5
19CA
330
188F
100
AcDbEntity
  8
Defpoints
 62
     0
100
AcDbPoint
 10
1460.45572251237
 20
816.4143282159566
 30
0.0
  0
POINT
  5
19CB
330
188F
100
AcDbEntity
  8
Defpoints
 62
     0
100
AcDbPoint
 10
1546.18348239254
 20
816.4143282159566
 30
0.0
  0
ENDBLK
  5
189A
330
188F
100
AcDbEntity
  8
0
100
AcDbBlockEnd
  0
BLOCK
  5
19CD
330
19CC
100
AcDbEntity
  8
0
100
AcDbBlockBegin
  2
*D19
 70
     1
 10
0.0
 20
0.0
 30
0.0
  3
*D19
  1

  0
LINE
  5
19CE
330
19CC
100
AcDbEntity
  8
0
100
AcDbLine
 10
323.1804775549509
 20
326.8799877512476
 30
0.0
 11
323.1804775549509
 21
379.4746420195502
 31
0.0
  0
LINE
  5
19CF
330
19CC
100
AcDbEntity
  8
0
100
AcDbLine
 10
350.6804775549509
 20
326.8799877512476
 30
0.0
 11
350.6804775549509
 21
379.4746420195502
 31
0.0
  0
LINE
  5
19D0
330
19CC
100
AcDbEntity
  8
0
100
AcDbLine
 10
332.1804775549509
 20
376.4746420195502
 30
0.0
 11
341.6804775549509
 21
376.4746420195502
 31
0.0
  0
LINE
  5
19D1
330
19CC
100
AcDbEntity
  8
0
100
AcDbLine
 10
350.6804775549509
 20
376.4746420195502
 30
0.0
 11
513.580477554951
 21
376.4746420195502
 31
0.0
  0
INSERT
  5
19D2
330
19CC
100
AcDbEntity
  8
0
100
AcDbBlockReference
  2
_OPEN30
 10
323.1804775549509
 20
376.4746420195502
 30
0.0
 41
9.0
 42
9.0
 43
9.0
 50
180.0
  0
INSERT
  5
19D3
330
19CC
100
AcDbEntity
  8
0
100
AcDbBlockReference
  2
_OPEN30
 10
350.6804775549509
 20
376.4746420195502
 30
0.0
 41
9.0
 42
9.0
 43
9.0
  0
MTEXT
  5
19D4
330
19CC
100
AcDbEntity
  8
0
370
    50
100
AcDbMText
 10
436.6304775549506
 20
386.2246420195502
 30
0.0
 40
10.5
 41
0.0
 71
     5
 72
     1
  1
28（配線必要スペース）
 73
     1
 44
1.0
1001
ACAD
1000
MTEXTBEGIN
1070
    73
1070
     1
1070
    44
1040
1.0
1070
    74
1070
     0
1000
MTEXTEND
  0
POINT
  5
19D5
330
19CC
100
AcDbEntity
  8
Defpoints
 62
     0
100
AcDbPoint
 10
323.1804775549509
 20
320.8799877512476
 30
0.0
  0
POINT
  5
19D6
330
19CC
100
AcDbEntity
  8
Defpoints
 62
     0
100
AcDbPoint
 10
350.6804775549509
 20
320.8799877512476
 30
0.0
  0
POINT
  5
19D7
330
19CC
100
AcDbEntity
  8
Defpoints
 62
     0
100
AcDbPoint
 10
350.6804775549509
 20
376.4746420195502
 30
0.0
  0
ENDBLK
  5
19D8
330
19CC
100
AcDbEntity
  8
0
100
AcDbBlockEnd
  0
BLOCK
  5
19DA
330
19D9
100
AcDbEntity
  8
0
100
AcDbBlockBegin
  2
*D20
 70
     1
 10
0.0
 20
0.0
 30
0.0
  3
*D20
  1

  0
LINE
  5
19DB
330
19D9
100
AcDbEntity
  8
0
100
AcDbLine
 10
350.6804775549509
 20
326.8799877512476
 30
0.0
 11
350.6804775549509
 21
403.3001598179811
 31
0.0
  0
LINE
  5
19DC
330
19D9
100
AcDbEntity
  8
0
100
AcDbLine
 10
193.1804775549508
 20
267.4799877512478
 30
0.0
 11
193.1804775549508
 21
403.3001598179811
 31
0.0
  0
LINE
  5
19DD
330
19D9
100
AcDbEntity
  8
0
100
AcDbLine
 10
341.6804775549509
 20
400.3001598179811
 30
0.0
 11
202.1804775549508
 21
400.3001598179811
 31
0.0
  0
INSERT
  5
19DE
330
19D9
100
AcDbEntity
  8
0
100
AcDbBlockReference
  2
_OPEN30
 10
350.6804775549509
 20
400.3001598179811
 30
0.0
 41
9.0
 42
9.0
 43
9.0
  0
INSERT
  5
19DF
330
19D9
100
AcDbEntity
  8
0
100
AcDbBlockReference
  2
_OPEN30
 10
193.1804775549508
 20
400.3001598179811
 30
0.0
 41
9.0
 42
9.0
 43
9.0
 50
180.0
  0
MTEXT
  5
19E0
330
19D9
100
AcDbEntity
  8
0
370
    50
100
AcDbMText
 10
271.9304775549509
 20
410.050159817981
 30
0.0
 40
10.5
 41
0.0
 71
     5
 72
     1
  1
158
 73
     1
 44
1.0
1001
ACAD
1000
MTEXTBEGIN
1070
    73
1070
     1
1070
    44
1040
1.0
1070
    74
1070
     0
1000
MTEXTEND
  0
POINT
  5
19E1
330
19D9
100
AcDbEntity
  8
Defpoints
 62
     0
100
AcDbPoint
 10
350.6804775549509
 20
320.8799877512476
 30
0.0
  0
POINT
  5
19E2
330
19D9
100
AcDbEntity
  8
Defpoints
 62
     0
100
AcDbPoint
 10
193.1804775549508
 20
261.4799877512478
 30
0.0
  0
POINT
  5
19E3
330
19D9
100
AcDbEntity
  8
Defpoints
 62
     0
100
AcDbPoint
 10
193.1804775549508
 20
400.3001598179811
 30
0.0
  0
ENDBLK
  5
19E4
330
19D9
100
AcDbEntity
  8
0
100
AcDbBlockEnd
  0
BLOCK
  5
19E6
330
19E5
100
AcDbEntity
  8
0
100
AcDbBlockBegin
  2
*D21
 70
     1
 10
0.0
 20
0.0
 30
0.0
  3
*D21
  1

  0
LINE
  5
19E7
330
19E5
100
AcDbEntity
  8
0
100
AcDbLine
 10
569.7613454216341
 20
322.8799877512475
 30
0.0
 11
609.872804234124
 21
322.8799877512475
 31
0.0
  0
LINE
  5
19E8
330
19E5
100
AcDbEntity
  8
0
100
AcDbLine
 10
538.7613454216338
 20
11.47998775124773
 30
0.0
 11
609.8728042341238
 21
11.47998775124771
 31
0.0
  0
LINE
  5
19E9
330
19E5
100
AcDbEntity
  8
0
100
AcDbLine
 10
606.872804234124
 20
313.8799877512477
 30
0.0
 11
606.8728042341238
 21
20.47998775124771
 31
0.0
  0
INSERT
  5
19EA
330
19E5
100
AcDbEntity
  8
0
100
AcDbBlockReference
  2
_OPEN30
 10
606.872804234124
 20
322.8799877512475
 30
0.0
 41
9.0
 42
9.0
 43
9.0
 50
90.0
  0
INSERT
  5
19EB
330
19E5
100
AcDbEntity
  8
0
100
AcDbBlockReference
  2
_OPEN30
 10
606.8728042341238
 20
11.47998775124771
 30
0.0
 41
9.0
 42
9.0
 43
9.0
 50
270.0
  0
MTEXT
  5
19EC
330
19E5
100
AcDbEntity
  8
0
370
    50
100
AcDbMText
 10
597.1228042341238
 20
167.1799877512477
 30
0.0
 40
10.5
 41
0.0
 71
     5
 72
     1
  1
312
 11
0.0000000000000001
 21
1.0
 31
0.0
 73
     1
 44
1.0
1001
ACAD
1000
MTEXTBEGIN
1070
    73
1070
     1
1070
    44
1040
1.0
1070
    74
1070
     0
1000
MTEXTEND
  0
POINT
  5
19ED
330
19E5
100
AcDbEntity
  8
Defpoints
 62
     0
100
AcDbPoint
 10
563.7613454216341
 20
322.8799877512475
 30
0.0
  0
POINT
  5
19EE
330
19E5
100
AcDbEntity
  8
Defpoints
 62
     0
100
AcDbPoint
 10
532.7613454216336
 20
11.47998775124773
 30
0.0
  0
POINT
  5
19EF
330
19E5
100
AcDbEntity
  8
Defpoints
 62
     0
100
AcDbPoint
 10
606.8728042341238
 20
11.47998775124771
 30
0.0
  0
ENDBLK
  5
19F0
330
19E5
100
AcDbEntity
  8
0
100
AcDbBlockEnd
  0
BLOCK
  5
19F2
330
19F1
100
AcDbEntity
  8
0
100
AcDbBlockBegin
  2
*D22
 70
     1
 10
0.0
 20
0.0
 30
0.0
  3
*D22
  1

  0
LINE
  5
19F3
330
19F1
100
AcDbEntity
  8
0
100
AcDbLine
 10
538.3713454216339
 20
255.4799877512477
 30
0.0
 11
590.1165066246001
 21
255.4799877512476
 31
0.0
  0
LINE
  5
19F4
330
19F1
100
AcDbEntity
  8
0
100
AcDbLine
 10
538.3713454216338
 20
17.47998775124773
 30
0.0
 11
590.1165066246001
 21
17.47998775124771
 31
0.0
  0
LINE
  5
19F5
330
19F1
100
AcDbEntity
  8
0
100
AcDbLine
 10
587.1165066246001
 20
246.4799877512477
 30
0.0
 11
587.1165066246001
 21
26.47998775124772
 31
0.0
  0
INSERT
  5
19F6
330
19F1
100
AcDbEntity
  8
0
100
AcDbBlockReference
  2
_OPEN30
 10
587.1165066246001
 20
255.4799877512476
 30
0.0
 41
9.0
 42
9.0
 43
9.0
 50
90.0
  0
INSERT
  5
19F7
330
19F1
100
AcDbEntity
  8
0
100
AcDbBlockReference
  2
_OPEN30
 10
587.1165066246001
 20
17.47998775124771
 30
0.0
 41
9.0
 42
9.0
 43
9.0
 50
270.0
  0
MTEXT
  5
19F8
330
19F1
100
AcDbEntity
  8
0
370
    50
100
AcDbMText
 10
577.3665066246
 20
136.4799877512478
 30
0.0
 40
10.5
 41
0.0
 71
     5
 72
     1
  1
238（取付ピッチ）
 11
0.0000000000000001
 21
1.0
 31
0.0
 73
     1
 44
1.0
1001
ACAD
1000
MTEXTBEGIN
1070
    73
1070
     1
1070
    44
1040
1.0
1070
    74
1070
     0
1000
MTEXTEND
  0
POINT
  5
19F9
330
19F1
100
AcDbEntity
  8
Defpoints
 62
     0
100
AcDbPoint
 10
532.3713454216338
 20
255.4799877512477
 30
0.0
  0
POINT
  5
19FA
330
19F1
100
AcDbEntity
  8
Defpoints
 62
     0
100
AcDbPoint
 10
532.3713454216338
 20
17.47998775124773
 30
0.0
  0
POINT
  5
19FB
330
19F1
100
AcDbEntity
  8
Defpoints
 62
     0
100
AcDbPoint
 10
587.1165066246001
 20
17.47998775124771
 30
0.0
  0
ENDBLK
  5
19FC
330
19F1
100
AcDbEntity
  8
0
100
AcDbBlockEnd
  0
BLOCK
  5
19FE
330
19FD
100
AcDbEntity
  8
0
100
AcDbBlockBegin
  2
*D23
 70
     1
 10
0.0
 20
0.0
 30
0.0
  3
*D23
  1

  0
LINE
  5
19FF
330
19FD
100
AcDbEntity
  8
0
100
AcDbLine
 10
529.7613454216338
 20
8.86998775124772
 30
0.0
 11
529.7613454216338
 21
-34.15828923069466
 31
0.0
  0
LINE
  5
1A00
330
19FD
100
AcDbEntity
  8
0
100
AcDbLine
 10
407.7613454216336
 20
8.869987751247775
 30
0.0
 11
407.7613454216336
 21
-34.15828923069466
 31
0.0
  0
LINE
  5
1A01
330
19FD
100
AcDbEntity
  8
0
100
AcDbLine
 10
520.7613454216335
 20
-31.15828923069466
 30
0.0
 11
416.7613454216335
 21
-31.15828923069466
 31
0.0
  0
INSERT
  5
1A02
330
19FD
100
AcDbEntity
  8
0
100
AcDbBlockReference
  2
_OPEN30
 10
529.7613454216338
 20
-31.15828923069466
 30
0.0
 41
9.0
 42
9.0
 43
9.0
  0
INSERT
  5
1A03
330
19FD
100
AcDbEntity
  8
0
100
AcDbBlockReference
  2
_OPEN30
 10
407.7613454216336
 20
-31.15828923069466
 30
0.0
 41
9.0
 42
9.0
 43
9.0
 50
180.0
  0
MTEXT
  5
1A04
330
19FD
100
AcDbEntity
  8
0
370
    50
100
AcDbMText
 10
471.6064545727613
 20
-21.40828923069466
 30
0.0
 40
10.5
 41
0.0
 71
     5
 72
     1
  1
122（取付ピッチ）
 73
     1
 44
1.0
1001
ACAD
1000
MTEXTBEGIN
1070
    73
1070
     1
1070
    44
1040
1.0
1070
    74
1070
     0
1000
MTEXTEND
  0
POINT
  5
1A05
330
19FD
100
AcDbEntity
  8
Defpoints
 62
     0
100
AcDbPoint
 10
529.7613454216338
 20
14.86998775124772
 30
0.0
  0
POINT
  5
1A06
330
19FD
100
AcDbEntity
  8
Defpoints
 62
     0
100
AcDbPoint
 10
407.7613454216336
 20
14.86998775124777
 30
0.0
  0
POINT
  5
1A07
330
19FD
100
AcDbEntity
  8
Defpoints
 62
     0
100
AcDbPoint
 10
407.7613454216336
 20
-31.15828923069466
 30
0.0
  0
ENDBLK
  5
1A08
330
19FD
100
AcDbEntity
  8
0
100
AcDbBlockEnd
  0
BLOCK
  5
1A0A
330
1A09
100
AcDbEntity
  8
0
100
AcDbBlockBegin
  2
*D24
 70
     1
 10
0.0
 20
0.0
 30
0.0
  3
*D24
  1

  0
LINE
  5
1A0B
330
1A09
100
AcDbEntity
  8
0
100
AcDbLine
 10
534.7613454216338
 20
7.479987751247674
 30
0.0
 11
534.7613454216338
 21
-70.74620583020466
 31
0.0
  0
LINE
  5
1A0C
330
1A09
100
AcDbEntity
  8
0
100
AcDbLine
 10
402.7613454216337
 20
7.479987751247787
 30
0.0
 11
402.7613454216337
 21
-70.74620583020466
 31
0.0
  0
LINE
  5
1A0D
330
1A09
100
AcDbEntity
  8
0
100
AcDbLine
 10
525.7613454216338
 20
-67.74620583020464
 30
0.0
 11
411.7613454216336
 21
-67.74620583020464
 31
0.0
  0
INSERT
  5
1A0E
330
1A09
100
AcDbEntity
  8
0
100
AcDbBlockReference
  2
_OPEN30
 10
534.7613454216338
 20
-67.74620583020464
 30
0.0
 41
9.0
 42
9.0
 43
9.0
  0
INSERT
  5
1A0F
330
1A09
100
AcDbEntity
  8
0
100
AcDbBlockReference
  2
_OPEN30
 10
402.7613454216337
 20
-67.74620583020464
 30
0.0
 41
9.0
 42
9.0
 43
9.0
 50
180.0
  0
MTEXT
  5
1A10
330
1A09
100
AcDbEntity
  8
0
370
    50
100
AcDbMText
 10
468.7613454216339
 20
-57.99620583020463
 30
0.0
 40
10.5
 41
0.0
 71
     5
 72
     1
  1
132
 73
     1
 44
1.0
1001
ACAD
1000
MTEXTBEGIN
1070
    73
1070
     1
1070
    44
1040
1.0
1070
    74
1070
     0
1000
MTEXTEND
  0
POINT
  5
1A11
330
1A09
100
AcDbEntity
  8
Defpoints
 62
     0
100
AcDbPoint
 10
534.7613454216338
 20
13.47998775124767
 30
0.0
  0
POINT
  5
1A12
330
1A09
100
AcDbEntity
  8
Defpoints
 62
     0
100
AcDbPoint
 10
402.7613454216337
 20
13.47998775124779
 30
0.0
  0
POINT
  5
1A13
330
1A09
100
AcDbEntity
  8
Defpoints
 62
     0
100
AcDbPoint
 10
402.7613454216337
 20
-67.74620583020464
 30
0.0
  0
ENDBLK
  5
1A14
330
1A09
100
AcDbEntity
  8
0
100
AcDbBlockEnd
  0
BLOCK
  5
1A16
330
1A15
100
AcDbEntity
  8
0
100
AcDbBlockBegin
  2
*D25
 70
     1
 10
0.0
 20
0.0
 30
0.0
  3
*D25
  1

  0
LINE
  5
1A17
330
1A15
100
AcDbEntity
  8
0
100
AcDbLine
 10
534.7613454216338
 20
7.479987751247674
 30
0.0
 11
534.7613454216338
 21
-70.74620583020466
 31
0.0
  0
LINE
  5
1A18
330
1A15
100
AcDbEntity
  8
0
100
AcDbLine
 10
563.7613454216341
 20
202.8799877512475
 30
0.0
 11
563.7613454216341
 21
-70.74620583020466
 31
0.0
  0
LINE
  5
1A19
330
1A15
100
AcDbEntity
  8
0
100
AcDbLine
 10
543.7613454216338
 20
-67.74620583020464
 30
0.0
 11
554.7613454216341
 21
-67.74620583020464
 31
0.0
  0
LINE
  5
1A1A
330
1A15
100
AcDbEntity
  8
0
100
AcDbLine
 10
563.7613454216341
 20
-67.74620583020464
 30
0.0
 11
676.2613454216341
 21
-67.74620583020464
 31
0.0
  0
INSERT
  5
1A1B
330
1A15
100
AcDbEntity
  8
0
100
AcDbBlockReference
  2
_OPEN30
 10
534.7613454216338
 20
-67.74620583020464
 30
0.0
 41
9.0
 42
9.0
 43
9.0
 50
180.0
  0
INSERT
  5
1A1C
330
1A15
100
AcDbEntity
  8
0
100
AcDbBlockReference
  2
_OPEN30
 10
563.7613454216341
 20
-67.74620583020464
 30
0.0
 41
9.0
 42
9.0
 43
9.0
  0
MTEXT
  5
1A1D
330
1A15
100
AcDbEntity
  8
0
370
    50
100
AcDbMText
 10
624.5113454216341
 20
-57.99620583020463
 30
0.0
 40
10.5
 41
0.0
 71
     5
 72
     1
  1
29（増加寸法）
 73
     1
 44
1.0
1001
ACAD
1000
MTEXTBEGIN
1070
    73
1070
     1
1070
    44
1040
1.0
1070
    74
1070
     0
1000
MTEXTEND
  0
POINT
  5
1A1E
330
1A15
100
AcDbEntity
  8
Defpoints
 62
     0
100
AcDbPoint
 10
534.7613454216338
 20
13.47998775124767
 30
0.0
  0
POINT
  5
1A1F
330
1A15
100
AcDbEntity
  8
Defpoints
 62
     0
100
AcDbPoint
 10
563.7613454216341
 20
208.8799877512475
 30
0.0
  0
POINT
  5
1A20
330
1A15
100
AcDbEntity
  8
Defpoints
 62
     0
100
AcDbPoint
 10
563.7613454216341
 20
-67.74620583020464
 30
0.0
  0
ENDBLK
  5
1A21
330
1A15
100
AcDbEntity
  8
0
100
AcDbBlockEnd
  0
BLOCK
  5
1A23
330
1A22
100
AcDbEntity
  8
0
100
AcDbBlockBegin
  2
*D26
 70
     1
 10
0.0
 20
0.0
 30
0.0
  3
*D26
  1

  0
LINE
  5
1A24
330
1A22
100
AcDbEntity
  8
0
100
AcDbLine
 10
402.7613454216337
 20
7.479987751247787
 30
0.0
 11
402.7613454216337
 21
-70.74620583020466
 31
0.0
  0
LINE
  5
1A25
330
1A22
100
AcDbEntity
  8
0
100
AcDbLine
 10
373.7613454216341
 20
202.8799877512477
 30
0.0
 11
373.7613454216341
 21
-70.74620583020466
 31
0.0
  0
LINE
  5
1A26
330
1A22
100
AcDbEntity
  8
0
100
AcDbLine
 10
393.7613454216339
 20
-67.74620583020464
 30
0.0
 11
382.7613454216341
 21
-67.74620583020464
 31
0.0
  0
LINE
  5
1A27
330
1A22
100
AcDbEntity
  8
0
100
AcDbLine
 10
373.7613454216341
 20
-67.74620583020464
 30
0.0
 11
261.2613454216341
 21
-67.74620583020464
 31
0.0
  0
INSERT
  5
1A28
330
1A22
100
AcDbEntity
  8
0
100
AcDbBlockReference
  2
_OPEN30
 10
402.7613454216337
 20
-67.74620583020464
 30
0.0
 41
9.0
 42
9.0
 43
9.0
  0
INSERT
  5
1A29
330
1A22
100
AcDbEntity
  8
0
100
AcDbBlockReference
  2
_OPEN30
 10
373.7613454216341
 20
-67.74620583020464
 30
0.0
 41
9.0
 42
9.0
 43
9.0
 50
180.0
  0
MTEXT
  5
1A2A
330
1A22
100
AcDbEntity
  8
0
370
    50
100
AcDbMText
 10
313.0113454216342
 20
-57.99620583020463
 30
0.0
 40
10.5
 41
0.0
 71
     5
 72
     1
  1
29（増加寸法）
 73
     1
 44
1.0
1001
ACAD
1000
MTEXTBEGIN
1070
    73
1070
     1
1070
    44
1040
1.0
1070
    74
1070
     0
1000
MTEXTEND
  0
POINT
  5
1A2B
330
1A22
100
AcDbEntity
  8
Defpoints
 62
     0
100
AcDbPoint
 10
402.7613454216337
 20
13.47998775124779
 30
0.0
  0
POINT
  5
1A2C
330
1A22
100
AcDbEntity
  8
Defpoints
 62
     0
100
AcDbPoint
 10
373.7613454216341
 20
208.8799877512477
 30
0.0
  0
POINT
  5
1A2D
330
1A22
100
AcDbEntity
  8
Defpoints
 62
     0
100
AcDbPoint
 10
373.7613454216341
 20
-67.74620583020464
 30
0.0
  0
ENDBLK
  5
1A2E
330
1A22
100
AcDbEntity
  8
0
100
AcDbBlockEnd
  0
BLOCK
  5
1A30
330
1A2F
100
AcDbEntity
  8
0
100
AcDbBlockBegin
  2
*D27
 70
     1
 10
0.0
 20
0.0
 30
0.0
  3
*D27
  1

  0
LINE
  5
1A31
330
1A2F
100
AcDbEntity
  8
0
100
AcDbLine
 10
563.7613454216341
 20
216.8799877512475
 30
0.0
 11
563.7613454216341
 21
-94.83387419745451
 31
0.0
  0
LINE
  5
1A32
330
1A2F
100
AcDbEntity
  8
0
100
AcDbLine
 10
373.7613454216341
 20
202.8799877512477
 30
0.0
 11
373.7613454216341
 21
-94.83387419745451
 31
0.0
  0
LINE
  5
1A33
330
1A2F
100
AcDbEntity
  8
0
100
AcDbLine
 10
554.7613454216341
 20
-91.83387419745448
 30
0.0
 11
382.7613454216341
 21
-91.83387419745448
 31
0.0
  0
INSERT
  5
1A34
330
1A2F
100
AcDbEntity
  8
0
100
AcDbBlockReference
  2
_OPEN30
 10
563.7613454216341
 20
-91.83387419745448
 30
0.0
 41
9.0
 42
9.0
 43
9.0
  0
INSERT
  5
1A35
330
1A2F
100
AcDbEntity
  8
0
100
AcDbBlockReference
  2
_OPEN30
 10
373.7613454216341
 20
-91.83387419745448
 30
0.0
 41
9.0
 42
9.0
 43
9.0
 50
180.0
  0
MTEXT
  5
1A36
330
1A2F
100
AcDbEntity
  8
0
370
    50
100
AcDbMText
 10
468.7613454216341
 20
-82.08387419745452
 30
0.0
 40
10.5
 41
0.0
 71
     5
 72
     1
  1
190
 73
     1
 44
1.0
1001
ACAD
1000
MTEXTBEGIN
1070
    73
1070
     1
1070
    44
1040
1.0
1070
    74
1070
     0
1000
MTEXTEND
  0
POINT
  5
1A37
330
1A2F
100
AcDbEntity
  8
Defpoints
 62
     0
100
AcDbPoint
 10
563.7613454216341
 20
222.8799877512475
 30
0.0
  0
POINT
  5
1A38
330
1A2F
100
AcDbEntity
  8
Defpoints
 62
     0
100
AcDbPoint
 10
373.7613454216341
 20
208.8799877512477
 30
0.0
  0
POINT
  5
1A39
330
1A2F
100
AcDbEntity
  8
Defpoints
 62
     0
100
AcDbPoint
 10
373.7613454216341
 20
-91.83387419745448
 30
0.0
  0
ENDBLK
  5
1A3A
330
1A2F
100
AcDbEntity
  8
0
100
AcDbBlockEnd
  0
BLOCK
  5
1A3C
330
1A3B
100
AcDbEntity
  8
0
100
AcDbBlockBegin
  2
*D28
 70
     1
 10
0.0
 20
0.0
 30
0.0
  3
*D28
  1

  0
LINE
  5
1A3D
330
1A3B
100
AcDbEntity
  8
0
100
AcDbLine
 10
323.1804775549509
 20
326.8799877512476
 30
0.0
 11
323.1804775549509
 21
359.4960795267257
 31
0.0
  0
LINE
  5
1A3E
330
1A3B
100
AcDbEntity
  8
0
100
AcDbLine
 10
225.1804775549508
 20
328.8799877512476
 30
0.0
 11
225.1804775549508
 21
359.4960795267257
 31
0.0
  0
LINE
  5
1A3F
330
1A3B
100
AcDbEntity
  8
0
100
AcDbLine
 10
314.1804775549509
 20
356.4960795267257
 30
0.0
 11
234.1804775549509
 21
356.4960795267257
 31
0.0
  0
INSERT
  5
1A40
330
1A3B
100
AcDbEntity
  8
0
100
AcDbBlockReference
  2
_OPEN30
 10
323.1804775549509
 20
356.4960795267257
 30
0.0
 41
9.0
 42
9.0
 43
9.0
  0
INSERT
  5
1A41
330
1A3B
100
AcDbEntity
  8
0
100
AcDbBlockReference
  2
_OPEN30
 10
225.1804775549508
 20
356.4960795267257
 30
0.0
 41
9.0
 42
9.0
 43
9.0
 50
180.0
  0
MTEXT
  5
1A42
330
1A3B
100
AcDbEntity
  8
0
370
    50
100
AcDbMText
 10
274.1804775549509
 20
366.2460795267257
 30
0.0
 40
10.5
 41
0.0
 71
     5
 72
     1
  1
98
 73
     1
 44
1.0
1001
ACAD
1000
MTEXTBEGIN
1070
    73
1070
     1
1070
    44
1040
1.0
1070
    74
1070
     0
1000
MTEXTEND
  0
POINT
  5
1A43
330
1A3B
100
AcDbEntity
  8
Defpoints
 62
     0
100
AcDbPoint
 10
323.1804775549509
 20
320.8799877512476
 30
0.0
  0
POINT
  5
1A44
330
1A3B
100
AcDbEntity
  8
Defpoints
 62
     0
100
AcDbPoint
 10
225.1804775549508
 20
322.8799877512476
 30
0.0
  0
POINT
  5
1A45
330
1A3B
100
AcDbEntity
  8
Defpoints
 62
     0
100
AcDbPoint
 10
225.1804775549508
 20
356.4960795267257
 30
0.0
  0
ENDBLK
  5
1A46
330
1A3B
100
AcDbEntity
  8
0
100
AcDbBlockEnd
  0
BLOCK
  5
1A48
330
1A47
100
AcDbEntity
  8
0
100
AcDbBlockBegin
  2
*D29
 70
     1
 10
0.0
 20
0.0
 30
0.0
  3
*D29
  1

  0
LINE
  5
1A49
330
1A47
100
AcDbEntity
  8
0
100
AcDbLine
 10
199.1804775549509
 20
325.8799877512477
 30
0.0
 11
199.1804775549509
 21
359.5909629437764
 31
0.0
  0
LINE
  5
1A4A
330
1A47
100
AcDbEntity
  8
0
100
AcDbLine
 10
193.1804775549508
 20
267.4799877512478
 30
0.0
 11
193.1804775549508
 21
359.5909629437764
 31
0.0
  0
LINE
  5
1A4B
330
1A47
100
AcDbEntity
  8
0
100
AcDbLine
 10
199.1804775549509
 20
356.5909629437765
 30
0.0
 11
208.1804775549509
 21
356.5909629437765
 31
0.0
  0
LINE
  5
1A4C
330
1A47
100
AcDbEntity
  8
0
100
AcDbLine
 10
184.1804775549509
 20
356.5909629437765
 30
0.0
 11
159.1804775549509
 21
356.5909629437765
 31
0.0
  0
LINE
  5
1A4D
330
1A47
100
AcDbEntity
  8
0
100
AcDbLine
 10
199.1804775549509
 20
356.5909629437765
 30
0.0
 11
193.1804775549508
 21
356.5909629437765
 31
0.0
  0
INSERT
  5
1A4E
330
1A47
100
AcDbEntity
  8
0
100
AcDbBlockReference
  2
_DotSmall
 10
199.1804775549509
 20
356.5909629437765
 30
0.0
 41
9.0
 42
9.0
 43
9.0
 50
180.0
  0
INSERT
  5
1A4F
330
1A47
100
AcDbEntity
  8
0
100
AcDbBlockReference
  2
_OPEN30
 10
193.1804775549508
 20
356.5909629437765
 30
0.0
 41
9.0
 42
9.0
 43
9.0
  0
MTEXT
  5
1A50
330
1A47
100
AcDbEntity
  8
0
370
    50
100
AcDbMText
 10
167.1804775549508
 20
366.3409629437765
 30
0.0
 40
10.5
 41
0.0
 71
     5
 72
     1
  1
6
 73
     1
 44
1.0
1001
ACAD
1000
MTEXTBEGIN
1070
    73
1070
     1
1070
    44
1040
1.0
1070
    74
1070
     0
1000
MTEXTEND
  0
POINT
  5
1A51
330
1A47
100
AcDbEntity
  8
Defpoints
 62
     0
100
AcDbPoint
 10
199.1804775549509
 20
319.8799877512477
 30
0.0
  0
POINT
  5
1A52
330
1A47
100
AcDbEntity
  8
Defpoints
 62
     0
100
AcDbPoint
 10
193.1804775549508
 20
261.4799877512478
 30
0.0
  0
POINT
  5
1A53
330
1A47
100
AcDbEntity
  8
Defpoints
 62
     0
100
AcDbPoint
 10
193.1804775549508
 20
356.5909629437765
 30
0.0
  0
ENDBLK
  5
1A54
330
1A47
100
AcDbEntity
  8
0
100
AcDbBlockEnd
  0
BLOCK
  5
1A56
330
1A55
100
AcDbEntity
  8
0
100
AcDbBlockBegin
  2
*D30
 70
     1
 10
0.0
 20
0.0
 30
0.0
  3
*D30
  1

  0
LINE
  5
1A57
330
1A55
100
AcDbEntity
  8
0
100
AcDbLine
 10
225.1804775549508
 20
328.8799877512476
 30
0.0
 11
225.1804775549508
 21
359.5570884444969
 31
0.0
  0
LINE
  5
1A58
330
1A55
100
AcDbEntity
  8
0
100
AcDbLine
 10
199.1804775549509
 20
325.8799877512477
 30
0.0
 11
199.1804775549509
 21
359.5570884444969
 31
0.0
  0
LINE
  5
1A59
330
1A55
100
AcDbEntity
  8
0
100
AcDbLine
 10
216.1804775549509
 20
356.5570884444968
 30
0.0
 11
199.1804775549509
 21
356.5570884444968
 31
0.0
  0
INSERT
  5
1A5A
330
1A55
100
AcDbEntity
  8
0
100
AcDbBlockReference
  2
_OPEN30
 10
225.1804775549508
 20
356.5570884444968
 30
0.0
 41
9.0
 42
9.0
 43
9.0
  0
INSERT
  5
1A5B
330
1A55
100
AcDbEntity
  8
0
100
AcDbBlockReference
  2
_DotSmall
 10
199.1804775549509
 20
356.5570884444968
 30
0.0
 41
9.0
 42
9.0
 43
9.0
 50
180.0
  0
MTEXT
  5
1A5C
330
1A55
100
AcDbEntity
  8
0
370
    50
100
AcDbMText
 10
216.1804775549509
 20
366.3070884444969
 30
0.0
 40
10.5
 41
0.0
 71
     5
 72
     1
  1
26
 73
     1
 44
1.0
1001
ACAD
1000
MTEXTBEGIN
1070
    73
1070
     1
1070
    44
1040
1.0
1070
    74
1070
     0
1000
MTEXTEND
  0
POINT
  5
1A5D
330
1A55
100
AcDbEntity
  8
Defpoints
 62
     0
100
AcDbPoint
 10
225.1804775549508
 20
322.8799877512476
 30
0.0
  0
POINT
  5
1A5E
330
1A55
100
AcDbEntity
  8
Defpoints
 62
     0
100
AcDbPoint
 10
199.1804775549509
 20
319.8799877512477
 30
0.0
  0
POINT
  5
1A5F
330
1A55
100
AcDbEntity
  8
Defpoints
 62
     0
100
AcDbPoint
 10
199.1804775549509
 20
356.5570884444968
 30
0.0
  0
ENDBLK
  5
1A60
330
1A55
100
AcDbEntity
  8
0
100
AcDbBlockEnd
  0
BLOCK
  5
1A62
330
1A61
100
AcDbEntity
  8
0
100
AcDbBlockBegin
  2
*D31
 70
     1
 10
0.0
 20
0.0
 30
0.0
  3
*D31
  1

  0
LINE
  5
1A63
330
1A61
100
AcDbEntity
  8
0
100
AcDbLine
 10
323.1804775549509
 20
326.8799877512476
 30
0.0
 11
323.1804775549509
 21
379.478713655898
 31
0.0
  0
LINE
  5
1A64
330
1A61
100
AcDbEntity
  8
0
100
AcDbLine
 10
193.1804775549508
 20
267.4799877512478
 30
0.0
 11
193.1804775549508
 21
379.478713655898
 31
0.0
  0
LINE
  5
1A65
330
1A61
100
AcDbEntity
  8
0
100
AcDbLine
 10
314.1804775549509
 20
376.478713655898
 30
0.0
 11
202.1804775549508
 21
376.478713655898
 31
0.0
  0
INSERT
  5
1A66
330
1A61
100
AcDbEntity
  8
0
100
AcDbBlockReference
  2
_OPEN30
 10
323.1804775549509
 20
376.478713655898
 30
0.0
 41
9.0
 42
9.0
 43
9.0
  0
INSERT
  5
1A67
330
1A61
100
AcDbEntity
  8
0
100
AcDbBlockReference
  2
_OPEN30
 10
193.1804775549508
 20
376.478713655898
 30
0.0
 41
9.0
 42
9.0
 43
9.0
 50
180.0
  0
MTEXT
  5
1A68
330
1A61
100
AcDbEntity
  8
0
370
    50
100
AcDbMText
 10
258.1804775549509
 20
386.228713655898
 30
0.0
 40
10.5
 41
0.0
 71
     5
 72
     1
  1
130
 73
     1
 44
1.0
1001
ACAD
1000
MTEXTBEGIN
1070
    73
1070
     1
1070
    44
1040
1.0
1070
    74
1070
     0
1000
MTEXTEND
  0
POINT
  5
1A69
330
1A61
100
AcDbEntity
  8
Defpoints
 62
     0
100
AcDbPoint
 10
323.1804775549509
 20
320.8799877512476
 30
0.0
  0
POINT
  5
1A6A
330
1A61
100
AcDbEntity
  8
Defpoints
 62
     0
100
AcDbPoint
 10
193.1804775549508
 20
261.4799877512478
 30
0.0
  0
POINT
  5
1A6B
330
1A61
100
AcDbEntity
  8
Defpoints
 62
     0
100
AcDbPoint
 10
193.1804775549508
 20
376.478713655898
 30
0.0
  0
ENDBLK
  5
1A6C
330
1A61
100
AcDbEntity
  8
0
100
AcDbBlockEnd
  0
BLOCK
  5
1A6E
330
1A6D
100
AcDbEntity
  8
0
100
AcDbBlockBegin
  2
*D32
 70
     1
 10
0.0
 20
0.0
 30
0.0
  3
*D32
  1

  0
LINE
  5
1A6F
330
1A6D
100
AcDbEntity
  8
0
100
AcDbLine
 10
187.1804775549508
 20
261.4799877512478
 30
0.0
 11
153.18914209033
 21
261.4799877512478
 31
0.0
  0
LINE
  5
1A70
330
1A6D
100
AcDbEntity
  8
0
100
AcDbLine
 10
187.1804775549508
 20
11.47998775124785
 30
0.0
 11
153.18914209033
 21
11.47998775124785
 31
0.0
  0
LINE
  5
1A71
330
1A6D
100
AcDbEntity
  8
0
100
AcDbLine
 10
156.18914209033
 20
252.4799877512478
 30
0.0
 11
156.18914209033
 21
20.47998775124785
 31
0.0
  0
INSERT
  5
1A72
330
1A6D
100
AcDbEntity
  8
0
100
AcDbBlockReference
  2
_OPEN30
 10
156.18914209033
 20
261.4799877512478
 30
0.0
 41
9.0
 42
9.0
 43
9.0
 50
90.0
  0
INSERT
  5
1A73
330
1A6D
100
AcDbEntity
  8
0
100
AcDbBlockReference
  2
_OPEN30
 10
156.18914209033
 20
11.47998775124785
 30
0.0
 41
9.0
 42
9.0
 43
9.0
 50
270.0
  0
MTEXT
  5
1A74
330
1A6D
100
AcDbEntity
  8
0
370
    50
100
AcDbMText
 10
146.43914209033
 20
136.4799877512478
 30
0.0
 40
10.5
 41
0.0
 71
     5
 72
     1
  1
250（A0J2）
 11
0.0000000000000001
 21
1.0
 31
0.0
 73
     1
 44
1.0
1001
ACAD
1000
MTEXTBEGIN
1070
    73
1070
     1
1070
    44
1040
1.0
1070
    74
1070
     0
1000
MTEXTEND
  0
POINT
  5
1A75
330
1A6D
100
AcDbEntity
  8
Defpoints
 62
     0
100
AcDbPoint
 10
193.1804775549508
 20
261.4799877512478
 30
0.0
  0
POINT
  5
1A76
330
1A6D
100
AcDbEntity
  8
Defpoints
 62
     0
100
AcDbPoint
 10
193.1804775549508
 20
11.47998775124785
 30
0.0
  0
POINT
  5
1A77
330
1A6D
100
AcDbEntity
  8
Defpoints
 62
     0
100
AcDbPoint
 10
156.18914209033
 20
11.47998775124785
 30
0.0
  0
ENDBLK
  5
1A78
330
1A6D
100
AcDbEntity
  8
0
100
AcDbBlockEnd
  0
BLOCK
  5
1A7A
330
1A79
100
AcDbEntity
  8
0
100
AcDbBlockBegin
  2
*D33
 70
     1
 10
0.0
 20
0.0
 30
0.0
  3
*D33
  1

  0
LINE
  5
1A7B
330
1A79
100
AcDbEntity
  8
0
100
AcDbLine
 10
187.1804775549508
 20
352.8799877512477
 30
0.0
 11
130.8545519716433
 21
352.8799877512477
 31
0.0
  0
LINE
  5
1A7C
330
1A79
100
AcDbEntity
  8
0
100
AcDbLine
 10
187.1804775549508
 20
261.4799877512478
 30
0.0
 11
130.8545519716433
 21
261.4799877512478
 31
0.0
  0
LINE
  5
1A7D
330
1A79
100
AcDbEntity
  8
0
100
AcDbLine
 10
133.8545519716433
 20
343.8799877512476
 30
0.0
 11
133.8545519716433
 21
270.4799877512479
 31
0.0
  0
LINE
  5
1A7E
330
1A79
100
AcDbEntity
  8
0
100
AcDbLine
 10
133.8545519716433
 20
261.4799877512478
 30
0.0
 11
133.8545519716433
 21
148.9799877512478
 31
0.0
  0
INSERT
  5
1A7F
330
1A79
100
AcDbEntity
  8
0
100
AcDbBlockReference
  2
_OPEN30
 10
133.8545519716433
 20
352.8799877512477
 30
0.0
 41
9.0
 42
9.0
 43
9.0
 50
90.0
  0
INSERT
  5
1A80
330
1A79
100
AcDbEntity
  8
0
100
AcDbBlockReference
  2
_OPEN30
 10
133.8545519716433
 20
261.4799877512478
 30
0.0
 41
9.0
 42
9.0
 43
9.0
 50
270.0
  0
MTEXT
  5
1A81
330
1A79
100
AcDbEntity
  8
0
370
    50
100
AcDbMText
 10
124.1045519716433
 20
200.7299877512478
 30
0.0
 40
10.5
 41
0.0
 71
     5
 72
     1
  1
92（増加寸法）
 11
0.0000000000000001
 21
1.0
 31
0.0
 73
     1
 44
1.0
1001
ACAD
1000
MTEXTBEGIN
1070
    73
1070
     1
1070
    44
1040
1.0
1070
    74
1070
     0
1000
MTEXTEND
  0
POINT
  5
1A82
330
1A79
100
AcDbEntity
  8
Defpoints
 62
     0
100
AcDbPoint
 10
193.1804775549508
 20
352.8799877512477
 30
0.0
  0
POINT
  5
1A83
330
1A79
100
AcDbEntity
  8
Defpoints
 62
     0
100
AcDbPoint
 10
193.1804775549508
 20
261.4799877512478
 30
0.0
  0
POINT
  5
1A84
330
1A79
100
AcDbEntity
  8
Defpoints
 62
     0
100
AcDbPoint
 10
133.8545519716433
 20
261.4799877512478
 30
0.0
  0
ENDBLK
  5
1A85
330
1A79
100
AcDbEntity
  8
0
100
AcDbBlockEnd
  0
BLOCK
  5
1A87
330
1A86
100
AcDbEntity
  8
0
100
AcDbBlockBegin
  2
*D34
 70
     1
 10
0.0
 20
0.0
 30
0.0
  3
*D34
  1

  0
LINE
  5
1A88
330
1A86
100
AcDbEntity
  8
0
100
AcDbLine
 10
275.1804775549508
 20
5.479987751247788
 30
0.0
 11
275.1804775549508
 21
-26.56444344546037
 31
0.0
  0
LINE
  5
1A89
330
1A86
100
AcDbEntity
  8
0
100
AcDbLine
 10
193.1804775549508
 20
5.479987751247903
 30
0.0
 11
193.1804775549508
 21
-26.56444344546037
 31
0.0
  0
LINE
  5
1A8A
330
1A86
100
AcDbEntity
  8
0
100
AcDbLine
 10
266.1804775549508
 20
-23.56444344546037
 30
0.0
 11
202.1804775549508
 21
-23.56444344546037
 31
0.0
  0
LINE
  5
1A8B
330
1A86
100
AcDbEntity
  8
0
100
AcDbLine
 10
193.1804775549508
 20
-23.56444344546037
 30
0.0
 11
90.83047755495078
 21
-23.56444344546037
 31
0.0
  0
INSERT
  5
1A8C
330
1A86
100
AcDbEntity
  8
0
100
AcDbBlockReference
  2
_OPEN30
 10
275.1804775549508
 20
-23.56444344546037
 30
0.0
 41
9.0
 42
9.0
 43
9.0
  0
INSERT
  5
1A8D
330
1A86
100
AcDbEntity
  8
0
100
AcDbBlockReference
  2
_OPEN30
 10
193.1804775549508
 20
-23.56444344546037
 30
0.0
 41
9.0
 42
9.0
 43
9.0
 50
180.0
  0
MTEXT
  5
1A8E
330
1A86
100
AcDbEntity
  8
0
370
    50
100
AcDbMText
 10
137.5054775549508
 20
-13.81444344546037
 30
0.0
 40
10.5
 41
0.0
 71
     5
 72
     1
  1
82（A0J2）
 73
     1
 44
1.0
1001
ACAD
1000
MTEXTBEGIN
1070
    73
1070
     1
1070
    44
1040
1.0
1070
    74
1070
     0
1000
MTEXTEND
  0
POINT
  5
1A8F
330
1A86
100
AcDbEntity
  8
Defpoints
 62
     0
100
AcDbPoint
 10
275.1804775549508
 20
11.47998775124779
 30
0.0
  0
POINT
  5
1A90
330
1A86
100
AcDbEntity
  8
Defpoints
 62
     0
100
AcDbPoint
 10
193.1804775549508
 20
11.4799877512479
 30
0.0
  0
POINT
  5
1A91
330
1A86
100
AcDbEntity
  8
Defpoints
 62
     0
100
AcDbPoint
 10
193.1804775549508
 20
-23.56444344546037
 30
0.0
  0
ENDBLK
  5
1A92
330
1A86
100
AcDbEntity
  8
0
100
AcDbBlockEnd
  0
BLOCK
  5
1A94
330
1A93
100
AcDbEntity
  8
0
100
AcDbBlockBegin
  2
*D35
 70
     1
 10
0.0
 20
0.0
 30
0.0
  3
*D35
  1

  0
LINE
  5
1A95
330
1A93
100
AcDbEntity
  8
0
100
AcDbLine
 10
275.1804775549508
 20
5.479987751247788
 30
0.0
 11
275.1804775549508
 21
-47.33112540374395
 31
0.0
  0
LINE
  5
1A96
330
1A93
100
AcDbEntity
  8
0
100
AcDbLine
 10
350.6804775549509
 20
218.8799877512476
 30
0.0
 11
350.6804775549509
 21
-47.33112540374395
 31
0.0
  0
LINE
  5
1A97
330
1A93
100
AcDbEntity
  8
0
100
AcDbLine
 10
341.6804775549509
 20
-44.33112540374395
 30
0.0
 11
284.1804775549508
 21
-44.33112540374395
 31
0.0
  0
LINE
  5
1A98
330
1A93
100
AcDbEntity
  8
0
100
AcDbLine
 10
275.1804775549508
 20
-44.33112540374395
 30
0.0
 11
162.6804775549508
 21
-44.33112540374395
 31
0.0
  0
INSERT
  5
1A99
330
1A93
100
AcDbEntity
  8
0
100
AcDbBlockReference
  2
_OPEN30
 10
350.6804775549509
 20
-44.33112540374395
 30
0.0
 41
9.0
 42
9.0
 43
9.0
  0
INSERT
  5
1A9A
330
1A93
100
AcDbEntity
  8
0
100
AcDbBlockReference
  2
_OPEN30
 10
275.1804775549508
 20
-44.33112540374395
 30
0.0
 41
9.0
 42
9.0
 43
9.0
 50
180.0
  0
MTEXT
  5
1A9B
330
1A93
100
AcDbEntity
  8
0
370
    50
100
AcDbMText
 10
214.4304775549509
 20
-34.58112540374396
 30
0.0
 40
10.5
 41
0.0
 71
     5
 72
     1
  1
76（増加寸法）
 73
     1
 44
1.0
1001
ACAD
1000
MTEXTBEGIN
1070
    73
1070
     1
1070
    44
1040
1.0
1070
    74
1070
     0
1000
MTEXTEND
  0
POINT
  5
1A9C
330
1A93
100
AcDbEntity
  8
Defpoints
 62
     0
100
AcDbPoint
 10
275.1804775549508
 20
11.47998775124779
 30
0.0
  0
POINT
  5
1A9D
330
1A93
100
AcDbEntity
  8
Defpoints
 62
     0
100
AcDbPoint
 10
350.6804775549509
 20
224.8799877512476
 30
0.0
  0
POINT
  5
1A9E
330
1A93
100
AcDbEntity
  8
Defpoints
 62
     0
100
AcDbPoint
 10
350.6804775549509
 20
-44.33112540374395
 30
0.0
  0
ENDBLK
  5
1A9F
330
1A93
100
AcDbEntity
  8
0
100
AcDbBlockEnd
  0
BLOCK
  5
1AA1
330
1AA0
100
AcDbEntity
  8
0
100
AcDbBlockBegin
  2
*D36
 70
     1
 10
0.0
 20
0.0
 30
0.0
  3
*D36
  1

  0
LINE
  5
1AA2
330
1AA0
100
AcDbEntity
  8
0
 62
     0
370
    -2
100
AcDbLine
 10
196.1804775549508
 20
322.8799877512476
 30
0.0
 11
153.1433303743702
 21
322.8799877512476
 31
0.0
  0
LINE
  5
1AA3
330
1AA0
100
AcDbEntity
  8
0
 62
     0
370
    -2
100
AcDbLine
 10
193.2061042153426
 20
352.8799877512477
 30
0.0
 11
153.1433303743702
 21
352.8799877512477
 31
0.0
  0
LINE
  5
1AA4
330
1AA0
100
AcDbEntity
  8
0
 62
     0
370
    -2
100
AcDbLine
 10
156.1433303743702
 20
331.8799877512477
 30
0.0
 11
156.1433303743702
 21
343.8799877512476
 31
0.0
  0
LINE
  5
1AA5
330
1AA0
100
AcDbEntity
  8
0
 62
     0
370
    -2
100
AcDbLine
 10
156.1433303743702
 20
352.8799877512477
 30
0.0
 11
156.1433303743702
 21
449.6299877512476
 31
0.0
  0
INSERT
  5
1AA6
330
1AA0
100
AcDbEntity
  8
0
 62
     0
370
    -2
100
AcDbBlockReference
  2
_OPEN30
 10
156.1433303743702
 20
322.8799877512476
 30
0.0
 41
9.0
 42
9.0
 43
9.0
 50
270.0
  0
INSERT
  5
1AA7
330
1AA0
100
AcDbEntity
  8
0
 62
     0
370
    -2
100
AcDbBlockReference
  2
_OPEN30
 10
156.1433303743702
 20
352.8799877512477
 30
0.0
 41
9.0
 42
9.0
 43
9.0
 50
90.0
  0
MTEXT
  5
1AA8
330
1AA0
100
AcDbEntity
  8
0
 62
     0
370
    50
100
AcDbMText
 10
146.3933303743701
 20
405.7549877512476
 30
0.0
 40
10.5
 41
0.0
 71
     5
 72
     1
  1
30　　　　　
 11
0.0000000000000001
 21
1.0
 31
0.0
 73
     1
 44
1.0
1001
ACAD
1000
MTEXTBEGIN
1070
    73
1070
     1
1070
    44
1040
1.0
1070
    74
1070
     0
1000
MTEXTEND
  0
POINT
  5
1AA9
330
1AA0
100
AcDbEntity
  8
Defpoints
 62
     0
100
AcDbPoint
 10
202.1804775549508
 20
322.8799877512476
 30
0.0
  0
POINT
  5
1AAA
330
1AA0
100
AcDbEntity
  8
Defpoints
 62
     0
100
AcDbPoint
 10
199.2061042153426
 20
352.8799877512477
 30
0.0
  0
POINT
  5
1AAB
330
1AA0
100
AcDbEntity
  8
Defpoints
 62
     0
100
AcDbPoint
 10
156.1433303743702
 20
352.8799877512477
 30
0.0
  0
ENDBLK
  5
1AAC
330
1AA0
100
AcDbEntity
  8
0
100
AcDbBlockEnd
  0
BLOCK
  5
1EF9
330
1EEF
100
AcDbEntity
  8
0
100
AcDbBlockBegin
  2
*D37
 70
     1
 10
0.0
 20
0.0
 30
0.0
  3
*D37
  1

  0
LINE
  5
1FC3
330
1EEF
100
AcDbEntity
  8
0
100
AcDbLine
 10
721.8847898514963
 20
1128.159177944847
 30
0.0
 11
761.996248663986
 21
1128.159177944847
 31
0.0
  0
LINE
  5
1FC4
330
1EEF
100
AcDbEntity
  8
0
100
AcDbLine
 10
690.8847898514958
 20
816.759177944848
 30
0.0
 11
761.996248663986
 21
816.759177944848
 31
0.0
  0
LINE
  5
1FC5
330
1EEF
100
AcDbEntity
  8
0
100
AcDbLine
 10
758.9962486639857
 20
1119.159177944847
 30
0.0
 11
758.9962486639857
 21
825.759177944848
 31
0.0
  0
INSERT
  5
1FC6
330
1EEF
100
AcDbEntity
  8
0
100
AcDbBlockReference
  2
_OPEN30
 10
758.9962486639857
 20
1128.159177944847
 30
0.0
 41
9.0
 42
9.0
 43
9.0
 50
90.0
  0
INSERT
  5
1FC7
330
1EEF
100
AcDbEntity
  8
0
100
AcDbBlockReference
  2
_OPEN30
 10
758.9962486639857
 20
816.759177944848
 30
0.0
 41
9.0
 42
9.0
 43
9.0
 50
270.0
  0
MTEXT
  5
1FC8
330
1EEF
100
AcDbEntity
  8
0
370
    50
100
AcDbMText
 10
749.2462486639857
 20
972.4591779448481
 30
0.0
 40
10.5
 41
0.0
 71
     5
 72
     1
  1
312
 11
0.0000000000000001
 21
1.0
 31
0.0
 73
     1
 44
1.0
1001
ACAD
1000
MTEXTBEGIN
1070
    73
1070
     1
1070
    44
1040
1.0
1070
    74
1070
     0
1000
MTEXTEND
  0
POINT
  5
1FC9
330
1EEF
100
AcDbEntity
  8
Defpoints
 62
     0
100
AcDbPoint
 10
715.8847898514961
 20
1128.159177944847
 30
0.0
  0
POINT
  5
1FCA
330
1EEF
100
AcDbEntity
  8
Defpoints
 62
     0
100
AcDbPoint
 10
684.8847898514957
 20
816.759177944848
 30
0.0
  0
POINT
  5
1FCB
330
1EEF
100
AcDbEntity
  8
Defpoints
 62
     0
100
AcDbPoint
 10
758.9962486639857
 20
816.759177944848
 30
0.0
  0
ENDBLK
  5
1EFA
330
1EEF
100
AcDbEntity
  8
0
100
AcDbBlockEnd
  0
BLOCK
  5
1F05
330
1EFB
100
AcDbEntity
  8
0
100
AcDbBlockBegin
  2
*D38
 70
     1
 10
0.0
 20
0.0
 30
0.0
  3
*D38
  1

  0
LINE
  5
1FCC
330
1EFB
100
AcDbEntity
  8
0
100
AcDbLine
 10
690.494789851496
 20
1060.759177944848
 30
0.0
 11
742.2399510544622
 21
1060.759177944848
 31
0.0
  0
LINE
  5
1FCD
330
1EFB
100
AcDbEntity
  8
0
100
AcDbLine
 10
690.4947898514958
 20
822.7591779448481
 30
0.0
 11
742.2399510544622
 21
822.7591779448481
 31
0.0
  0
LINE
  5
1FCE
330
1EFB
100
AcDbEntity
  8
0
100
AcDbLine
 10
739.2399510544621
 20
1051.759177944848
 30
0.0
 11
739.2399510544621
 21
831.7591779448481
 31
0.0
  0
INSERT
  5
1FCF
330
1EFB
100
AcDbEntity
  8
0
100
AcDbBlockReference
  2
_OPEN30
 10
739.2399510544621
 20
1060.759177944848
 30
0.0
 41
9.0
 42
9.0
 43
9.0
 50
90.0
  0
INSERT
  5
1FD0
330
1EFB
100
AcDbEntity
  8
0
100
AcDbBlockReference
  2
_OPEN30
 10
739.2399510544621
 20
822.7591779448481
 30
0.0
 41
9.0
 42
9.0
 43
9.0
 50
270.0
  0
MTEXT
  5
1FD1
330
1EFB
100
AcDbEntity
  8
0
370
    50
100
AcDbMText
 10
729.4899510544618
 20
941.7591779448482
 30
0.0
 40
10.5
 41
0.0
 71
     5
 72
     1
  1
238（取付ピッチ）
 11
0.0000000000000001
 21
1.0
 31
0.0
 73
     1
 44
1.0
1001
ACAD
1000
MTEXTBEGIN
1070
    73
1070
     1
1070
    44
1040
1.0
1070
    74
1070
     0
1000
MTEXTEND
  0
POINT
  5
1FD2
330
1EFB
100
AcDbEntity
  8
Defpoints
 62
     0
100
AcDbPoint
 10
684.4947898514957
 20
1060.759177944848
 30
0.0
  0
POINT
  5
1FD3
330
1EFB
100
AcDbEntity
  8
Defpoints
 62
     0
100
AcDbPoint
 10
684.4947898514957
 20
822.7591779448481
 30
0.0
  0
POINT
  5
1FD4
330
1EFB
100
AcDbEntity
  8
Defpoints
 62
     0
100
AcDbPoint
 10
739.2399510544621
 20
822.7591779448481
 30
0.0
  0
ENDBLK
  5
1F06
330
1EFB
100
AcDbEntity
  8
0
100
AcDbBlockEnd
  0
BLOCK
  5
1F11
330
1F07
100
AcDbEntity
  8
0
100
AcDbBlockBegin
  2
*D39
 70
     1
 10
0.0
 20
0.0
 30
0.0
  3
*D39
  1

  0
LINE
  5
1FD5
330
1F07
100
AcDbEntity
  8
0
100
AcDbLine
 10
681.8847898514957
 20
814.1491779448479
 30
0.0
 11
681.8847898514957
 21
771.1209009629055
 31
0.0
  0
LINE
  5
1FD6
330
1F07
100
AcDbEntity
  8
0
100
AcDbLine
 10
559.8847898514958
 20
814.1491779448481
 30
0.0
 11
559.8847898514958
 21
771.1209009629055
 31
0.0
  0
LINE
  5
1FD7
330
1F07
100
AcDbEntity
  8
0
100
AcDbLine
 10
672.8847898514957
 20
774.1209009629056
 30
0.0
 11
568.8847898514957
 21
774.1209009629056
 31
0.0
  0
INSERT
  5
1FD8
330
1F07
100
AcDbEntity
  8
0
100
AcDbBlockReference
  2
_OPEN30
 10
681.8847898514957
 20
774.1209009629056
 30
0.0
 41
9.0
 42
9.0
 43
9.0
  0
INSERT
  5
1FD9
330
1F07
100
AcDbEntity
  8
0
100
AcDbBlockReference
  2
_OPEN30
 10
559.8847898514958
 20
774.1209009629056
 30
0.0
 41
9.0
 42
9.0
 43
9.0
 50
180.0
  0
MTEXT
  5
1FDA
330
1F07
100
AcDbEntity
  8
0
370
    50
100
AcDbMText
 10
623.7298990026232
 20
783.8709009629056
 30
0.0
 40
10.5
 41
0.0
 71
     5
 72
     1
  1
122（取付ピッチ）
 73
     1
 44
1.0
1001
ACAD
1000
MTEXTBEGIN
1070
    73
1070
     1
1070
    44
1040
1.0
1070
    74
1070
     0
1000
MTEXTEND
  0
POINT
  5
1FDB
330
1F07
100
AcDbEntity
  8
Defpoints
 62
     0
100
AcDbPoint
 10
681.8847898514957
 20
820.1491779448479
 30
0.0
  0
POINT
  5
1FDC
330
1F07
100
AcDbEntity
  8
Defpoints
 62
     0
100
AcDbPoint
 10
559.8847898514958
 20
820.1491779448479
 30
0.0
  0
POINT
  5
1FDD
330
1F07
100
AcDbEntity
  8
Defpoints
 62
     0
100
AcDbPoint
 10
559.8847898514958
 20
774.1209009629056
 30
0.0
  0
ENDBLK
  5
1F12
330
1F07
100
AcDbEntity
  8
0
100
AcDbBlockEnd
  0
BLOCK
  5
1F1D
330
1F13
100
AcDbEntity
  8
0
100
AcDbBlockBegin
  2
*D40
 70
     1
 10
0.0
 20
0.0
 30
0.0
  3
*D40
  1

  0
LINE
  5
1FDE
330
1F13
100
AcDbEntity
  8
0
100
AcDbLine
 10
686.8847898514957
 20
812.7591779448479
 30
0.0
 11
686.8847898514957
 21
734.5329843633956
 31
0.0
  0
LINE
  5
1FDF
330
1F13
100
AcDbEntity
  8
0
100
AcDbLine
 10
554.8847898514958
 20
812.7591779448479
 30
0.0
 11
554.8847898514958
 21
734.5329843633956
 31
0.0
  0
LINE
  5
1FE0
330
1F13
100
AcDbEntity
  8
0
100
AcDbLine
 10
677.8847898514957
 20
737.5329843633957
 30
0.0
 11
563.8847898514957
 21
737.5329843633957
 31
0.0
  0
INSERT
  5
1FE1
330
1F13
100
AcDbEntity
  8
0
100
AcDbBlockReference
  2
_OPEN30
 10
686.8847898514957
 20
737.5329843633957
 30
0.0
 41
9.0
 42
9.0
 43
9.0
  0
INSERT
  5
1FE2
330
1F13
100
AcDbEntity
  8
0
100
AcDbBlockReference
  2
_OPEN30
 10
554.8847898514958
 20
737.5329843633957
 30
0.0
 41
9.0
 42
9.0
 43
9.0
 50
180.0
  0
MTEXT
  5
1FE3
330
1F13
100
AcDbEntity
  8
0
370
    50
100
AcDbMText
 10
620.8847898514957
 20
747.2829843633957
 30
0.0
 40
10.5
 41
0.0
 71
     5
 72
     1
  1
132
 73
     1
 44
1.0
1001
ACAD
1000
MTEXTBEGIN
1070
    73
1070
     1
1070
    44
1040
1.0
1070
    74
1070
     0
1000
MTEXTEND
  0
POINT
  5
1FE4
330
1F13
100
AcDbEntity
  8
Defpoints
 62
     0
100
AcDbPoint
 10
686.8847898514957
 20
818.7591779448476
 30
0.0
  0
POINT
  5
1FE5
330
1F13
100
AcDbEntity
  8
Defpoints
 62
     0
100
AcDbPoint
 10
554.8847898514958
 20
818.759177944848
 30
0.0
  0
POINT
  5
1FE6
330
1F13
100
AcDbEntity
  8
Defpoints
 62
     0
100
AcDbPoint
 10
554.8847898514958
 20
737.5329843633957
 30
0.0
  0
ENDBLK
  5
1F1E
330
1F13
100
AcDbEntity
  8
0
100
AcDbBlockEnd
  0
BLOCK
  5
1F2A
330
1F1F
100
AcDbEntity
  8
0
100
AcDbBlockBegin
  2
*D41
 70
     1
 10
0.0
 20
0.0
 30
0.0
  3
*D41
  1

  0
LINE
  5
1FE7
330
1F1F
100
AcDbEntity
  8
0
100
AcDbLine
 10
686.8847898514957
 20
812.7591779448479
 30
0.0
 11
686.8847898514957
 21
734.5329843633956
 31
0.0
  0
LINE
  5
1FE8
330
1F1F
100
AcDbEntity
  8
0
100
AcDbLine
 10
715.8847898514961
 20
1008.159177944848
 30
0.0
 11
715.8847898514961
 21
734.5329843633956
 31
0.0
  0
LINE
  5
1FE9
330
1F1F
100
AcDbEntity
  8
0
100
AcDbLine
 10
695.8847898514958
 20
737.5329843633957
 30
0.0
 11
706.8847898514961
 21
737.5329843633957
 31
0.0
  0
LINE
  5
1FEA
330
1F1F
100
AcDbEntity
  8
0
100
AcDbLine
 10
715.8847898514961
 20
737.5329843633957
 30
0.0
 11
828.3847898514961
 21
737.5329843633957
 31
0.0
  0
INSERT
  5
1FEB
330
1F1F
100
AcDbEntity
  8
0
100
AcDbBlockReference
  2
_OPEN30
 10
686.8847898514957
 20
737.5329843633957
 30
0.0
 41
9.0
 42
9.0
 43
9.0
 50
180.0
  0
INSERT
  5
1FEC
330
1F1F
100
AcDbEntity
  8
0
100
AcDbBlockReference
  2
_OPEN30
 10
715.8847898514961
 20
737.5329843633957
 30
0.0
 41
9.0
 42
9.0
 43
9.0
  0
MTEXT
  5
1FED
330
1F1F
100
AcDbEntity
  8
0
370
    50
100
AcDbMText
 10
776.6347898514961
 20
747.2829843633957
 30
0.0
 40
10.5
 41
0.0
 71
     5
 72
     1
  1
29（増加寸法）
 73
     1
 44
1.0
1001
ACAD
1000
MTEXTBEGIN
1070
    73
1070
     1
1070
    44
1040
1.0
1070
    74
1070
     0
1000
MTEXTEND
  0
POINT
  5
1FEE
330
1F1F
100
AcDbEntity
  8
Defpoints
 62
     0
100
AcDbPoint
 10
686.8847898514957
 20
818.7591779448476
 30
0.0
  0
POINT
  5
1FEF
330
1F1F
100
AcDbEntity
  8
Defpoints
 62
     0
100
AcDbPoint
 10
715.8847898514961
 20
1014.159177944848
 30
0.0
  0
POINT
  5
1FF0
330
1F1F
100
AcDbEntity
  8
Defpoints
 62
     0
100
AcDbPoint
 10
715.8847898514961
 20
737.5329843633957
 30
0.0
  0
ENDBLK
  5
1F2B
330
1F1F
100
AcDbEntity
  8
0
100
AcDbBlockEnd
  0
BLOCK
  5
1F37
330
1F2C
100
AcDbEntity
  8
0
100
AcDbBlockBegin
  2
*D42
 70
     1
 10
0.0
 20
0.0
 30
0.0
  3
*D42
  1

  0
LINE
  5
1FF1
330
1F2C
100
AcDbEntity
  8
0
100
AcDbLine
 10
554.8847898514958
 20
812.7591779448479
 30
0.0
 11
554.8847898514958
 21
734.5329843633956
 31
0.0
  0
LINE
  5
1FF2
330
1F2C
100
AcDbEntity
  8
0
100
AcDbLine
 10
525.8847898514962
 20
1008.159177944848
 30
0.0
 11
525.8847898514962
 21
734.5329843633956
 31
0.0
  0
LINE
  5
1FF3
330
1F2C
100
AcDbEntity
  8
0
100
AcDbLine
 10
545.8847898514958
 20
737.5329843633957
 30
0.0
 11
534.8847898514962
 21
737.5329843633957
 31
0.0
  0
LINE
  5
1FF4
330
1F2C
100
AcDbEntity
  8
0
100
AcDbLine
 10
525.8847898514962
 20
737.5329843633957
 30
0.0
 11
413.3847898514962
 21
737.5329843633957
 31
0.0
  0
INSERT
  5
1FF5
330
1F2C
100
AcDbEntity
  8
0
100
AcDbBlockReference
  2
_OPEN30
 10
554.8847898514958
 20
737.5329843633957
 30
0.0
 41
9.0
 42
9.0
 43
9.0
  0
INSERT
  5
1FF6
330
1F2C
100
AcDbEntity
  8
0
100
AcDbBlockReference
  2
_OPEN30
 10
525.8847898514962
 20
737.5329843633957
 30
0.0
 41
9.0
 42
9.0
 43
9.0
 50
180.0
  0
MTEXT
  5
1FF7
330
1F2C
100
AcDbEntity
  8
0
370
    50
100
AcDbMText
 10
465.1347898514962
 20
747.2829843633957
 30
0.0
 40
10.5
 41
0.0
 71
     5
 72
     1
  1
29（増加寸法）
 73
     1
 44
1.0
1001
ACAD
1000
MTEXTBEGIN
1070
    73
1070
     1
1070
    44
1040
1.0
1070
    74
1070
     0
1000
MTEXTEND
  0
POINT
  5
1FF8
330
1F2C
100
AcDbEntity
  8
Defpoints
 62
     0
100
AcDbPoint
 10
554.8847898514958
 20
818.759177944848
 30
0.0
  0
POINT
  5
1FF9
330
1F2C
100
AcDbEntity
  8
Defpoints
 62
     0
100
AcDbPoint
 10
525.8847898514962
 20
1014.159177944848
 30
0.0
  0
POINT
  5
1FFA
330
1F2C
100
AcDbEntity
  8
Defpoints
 62
     0
100
AcDbPoint
 10
525.8847898514962
 20
737.5329843633957
 30
0.0
  0
ENDBLK
  5
1F38
330
1F2C
100
AcDbEntity
  8
0
100
AcDbBlockEnd
  0
BLOCK
  5
1F43
330
1F39
100
AcDbEntity
  8
0
100
AcDbBlockBegin
  2
*D43
 70
     1
 10
0.0
 20
0.0
 30
0.0
  3
*D43
  1

  0
LINE
  5
1FFB
330
1F39
100
AcDbEntity
  8
0
100
AcDbLine
 10
715.8847898514961
 20
1022.159177944848
 30
0.0
 11
715.8847898514961
 21
710.4453159961458
 31
0.0
  0
LINE
  5
1FFC
330
1F39
100
AcDbEntity
  8
0
100
AcDbLine
 10
525.8847898514962
 20
1008.159177944848
 30
0.0
 11
525.8847898514962
 21
710.4453159961458
 31
0.0
  0
LINE
  5
1FFD
330
1F39
100
AcDbEntity
  8
0
100
AcDbLine
 10
706.8847898514961
 20
713.4453159961458
 30
0.0
 11
534.8847898514962
 21
713.4453159961458
 31
0.0
  0
INSERT
  5
1FFE
330
1F39
100
AcDbEntity
  8
0
100
AcDbBlockReference
  2
_OPEN30
 10
715.8847898514961
 20
713.4453159961458
 30
0.0
 41
9.0
 42
9.0
 43
9.0
  0
INSERT
  5
1FFF
330
1F39
100
AcDbEntity
  8
0
100
AcDbBlockReference
  2
_OPEN30
 10
525.8847898514962
 20
713.4453159961458
 30
0.0
 41
9.0
 42
9.0
 43
9.0
 50
180.0
  0
MTEXT
  5
2000
330
1F39
100
AcDbEntity
  8
0
370
    50
100
AcDbMText
 10
620.8847898514961
 20
723.1953159961458
 30
0.0
 40
10.5
 41
0.0
 71
     5
 72
     1
  1
190
 73
     1
 44
1.0
1001
ACAD
1000
MTEXTBEGIN
1070
    73
1070
     1
1070
    44
1040
1.0
1070
    74
1070
     0
1000
MTEXTEND
  0
POINT
  5
2001
330
1F39
100
AcDbEntity
  8
Defpoints
 62
     0
100
AcDbPoint
 10
715.8847898514961
 20
1028.159177944847
 30
0.0
  0
POINT
  5
2002
330
1F39
100
AcDbEntity
  8
Defpoints
 62
     0
100
AcDbPoint
 10
525.8847898514962
 20
1014.159177944848
 30
0.0
  0
POINT
  5
2003
330
1F39
100
AcDbEntity
  8
Defpoints
 62
     0
100
AcDbPoint
 10
525.8847898514962
 20
713.4453159961458
 30
0.0
  0
ENDBLK
  5
1F44
330
1F39
100
AcDbEntity
  8
0
100
AcDbBlockEnd
  0
BLOCK
  5
1F4F
330
1F45
100
AcDbEntity
  8
0
100
AcDbBlockBegin
  2
*D44
 70
     1
 10
0.0
 20
0.0
 30
0.0
  3
*D44
  1

  0
LINE
  5
2004
330
1F45
100
AcDbEntity
  8
0
100
AcDbLine
 10
475.3039219848128
 20
1132.159177944848
 30
0.0
 11
475.3039219848128
 21
1164.775269720326
 31
0.0
  0
LINE
  5
2005
330
1F45
100
AcDbEntity
  8
0
100
AcDbLine
 10
377.3039219848129
 20
1134.159177944848
 30
0.0
 11
377.3039219848129
 21
1164.775269720326
 31
0.0
  0
LINE
  5
2006
330
1F45
100
AcDbEntity
  8
0
100
AcDbLine
 10
466.3039219848128
 20
1161.775269720326
 30
0.0
 11
386.3039219848129
 21
1161.775269720326
 31
0.0
  0
INSERT
  5
2007
330
1F45
100
AcDbEntity
  8
0
100
AcDbBlockReference
  2
_OPEN30
 10
475.3039219848128
 20
1161.775269720326
 30
0.0
 41
9.0
 42
9.0
 43
9.0
  0
INSERT
  5
2008
330
1F45
100
AcDbEntity
  8
0
100
AcDbBlockReference
  2
_OPEN30
 10
377.3039219848129
 20
1161.775269720326
 30
0.0
 41
9.0
 42
9.0
 43
9.0
 50
180.0
  0
MTEXT
  5
2009
330
1F45
100
AcDbEntity
  8
0
370
    50
100
AcDbMText
 10
426.3039219848129
 20
1171.525269720326
 30
0.0
 40
10.5
 41
0.0
 71
     5
 72
     1
  1
98
 73
     1
 44
1.0
1001
ACAD
1000
MTEXTBEGIN
1070
    73
1070
     1
1070
    44
1040
1.0
1070
    74
1070
     0
1000
MTEXTEND
  0
POINT
  5
200A
330
1F45
100
AcDbEntity
  8
Defpoints
 62
     0
100
AcDbPoint
 10
475.3039219848128
 20
1126.159177944848
 30
0.0
  0
POINT
  5
200B
330
1F45
100
AcDbEntity
  8
Defpoints
 62
     0
100
AcDbPoint
 10
377.3039219848129
 20
1128.159177944848
 30
0.0
  0
POINT
  5
200C
330
1F45
100
AcDbEntity
  8
Defpoints
 62
     0
100
AcDbPoint
 10
377.3039219848129
 20
1161.775269720326
 30
0.0
  0
ENDBLK
  5
1F50
330
1F45
100
AcDbEntity
  8
0
100
AcDbBlockEnd
  0
BLOCK
  5
1F5D
330
1F51
100
AcDbEntity
  8
0
100
AcDbBlockBegin
  2
*D45
 70
     1
 10
0.0
 20
0.0
 30
0.0
  3
*D45
  1

  0
LINE
  5
200D
330
1F51
100
AcDbEntity
  8
0
100
AcDbLine
 10
351.3039219848129
 20
1131.159177944848
 30
0.0
 11
351.3039219848129
 21
1164.870153137377
 31
0.0
  0
LINE
  5
200E
330
1F51
100
AcDbEntity
  8
0
100
AcDbLine
 10
345.3039219848129
 20
1072.759177944848
 30
0.0
 11
345.3039219848129
 21
1164.870153137377
 31
0.0
  0
LINE
  5
200F
330
1F51
100
AcDbEntity
  8
0
100
AcDbLine
 10
351.3039219848129
 20
1161.870153137376
 30
0.0
 11
360.3039219848128
 21
1161.870153137376
 31
0.0
  0
LINE
  5
2010
330
1F51
100
AcDbEntity
  8
0
100
AcDbLine
 10
336.3039219848129
 20
1161.870153137376
 30
0.0
 11
311.3039219848129
 21
1161.870153137376
 31
0.0
  0
LINE
  5
2011
330
1F51
100
AcDbEntity
  8
0
100
AcDbLine
 10
351.3039219848129
 20
1161.870153137376
 30
0.0
 11
345.3039219848129
 21
1161.870153137376
 31
0.0
  0
INSERT
  5
2012
330
1F51
100
AcDbEntity
  8
0
100
AcDbBlockReference
  2
_DotSmall
 10
351.3039219848129
 20
1161.870153137376
 30
0.0
 41
9.0
 42
9.0
 43
9.0
 50
180.0
  0
INSERT
  5
2013
330
1F51
100
AcDbEntity
  8
0
100
AcDbBlockReference
  2
_OPEN30
 10
345.3039219848129
 20
1161.870153137376
 30
0.0
 41
9.0
 42
9.0
 43
9.0
  0
MTEXT
  5
2014
330
1F51
100
AcDbEntity
  8
0
370
    50
100
AcDbMText
 10
319.3039219848129
 20
1171.620153137377
 30
0.0
 40
10.5
 41
0.0
 71
     5
 72
     1
  1
6
 73
     1
 44
1.0
1001
ACAD
1000
MTEXTBEGIN
1070
    73
1070
     1
1070
    44
1040
1.0
1070
    74
1070
     0
1000
MTEXTEND
  0
POINT
  5
2015
330
1F51
100
AcDbEntity
  8
Defpoints
 62
     0
100
AcDbPoint
 10
351.3039219848129
 20
1125.159177944848
 30
0.0
  0
POINT
  5
2016
330
1F51
100
AcDbEntity
  8
Defpoints
 62
     0
100
AcDbPoint
 10
345.3039219848129
 20
1066.759177944848
 30
0.0
  0
POINT
  5
2017
330
1F51
100
AcDbEntity
  8
Defpoints
 62
     0
100
AcDbPoint
 10
345.3039219848129
 20
1161.870153137376
 30
0.0
  0
ENDBLK
  5
1F5E
330
1F51
100
AcDbEntity
  8
0
100
AcDbBlockEnd
  0
BLOCK
  5
1F69
330
1F5F
100
AcDbEntity
  8
0
100
AcDbBlockBegin
  2
*D46
 70
     1
 10
0.0
 20
0.0
 30
0.0
  3
*D46
  1

  0
LINE
  5
2018
330
1F5F
100
AcDbEntity
  8
0
100
AcDbLine
 10
377.3039219848129
 20
1134.159177944848
 30
0.0
 11
377.3039219848129
 21
1164.836278638097
 31
0.0
  0
LINE
  5
2019
330
1F5F
100
AcDbEntity
  8
0
100
AcDbLine
 10
351.3039219848129
 20
1131.159177944848
 30
0.0
 11
351.3039219848129
 21
1164.836278638097
 31
0.0
  0
LINE
  5
201A
330
1F5F
100
AcDbEntity
  8
0
100
AcDbLine
 10
368.3039219848128
 20
1161.836278638097
 30
0.0
 11
351.3039219848129
 21
1161.836278638097
 31
0.0
  0
INSERT
  5
201B
330
1F5F
100
AcDbEntity
  8
0
100
AcDbBlockReference
  2
_OPEN30
 10
377.3039219848129
 20
1161.836278638097
 30
0.0
 41
9.0
 42
9.0
 43
9.0
  0
INSERT
  5
201C
330
1F5F
100
AcDbEntity
  8
0
100
AcDbBlockReference
  2
_DotSmall
 10
351.3039219848129
 20
1161.836278638097
 30
0.0
 41
9.0
 42
9.0
 43
9.0
 50
180.0
  0
MTEXT
  5
201D
330
1F5F
100
AcDbEntity
  8
0
370
    50
100
AcDbMText
 10
368.3039219848128
 20
1171.586278638097
 30
0.0
 40
10.5
 41
0.0
 71
     5
 72
     1
  1
26
 73
     1
 44
1.0
1001
ACAD
1000
MTEXTBEGIN
1070
    73
1070
     1
1070
    44
1040
1.0
1070
    74
1070
     0
1000
MTEXTEND
  0
POINT
  5
201E
330
1F5F
100
AcDbEntity
  8
Defpoints
 62
     0
100
AcDbPoint
 10
377.3039219848129
 20
1128.159177944848
 30
0.0
  0
POINT
  5
201F
330
1F5F
100
AcDbEntity
  8
Defpoints
 62
     0
100
AcDbPoint
 10
351.3039219848129
 20
1125.159177944848
 30
0.0
  0
POINT
  5
2020
330
1F5F
100
AcDbEntity
  8
Defpoints
 62
     0
100
AcDbPoint
 10
351.3039219848129
 20
1161.836278638097
 30
0.0
  0
ENDBLK
  5
1F6A
330
1F5F
100
AcDbEntity
  8
0
100
AcDbBlockEnd
  0
BLOCK
  5
1F75
330
1F6B
100
AcDbEntity
  8
0
100
AcDbBlockBegin
  2
*D47
 70
     1
 10
0.0
 20
0.0
 30
0.0
  3
*D47
  1

  0
LINE
  5
2021
330
1F6B
100
AcDbEntity
  8
0
100
AcDbLine
 10
475.3039219848128
 20
1132.159177944848
 30
0.0
 11
475.3039219848128
 21
1184.757903849498
 31
0.0
  0
LINE
  5
2022
330
1F6B
100
AcDbEntity
  8
0
100
AcDbLine
 10
345.3039219848129
 20
1072.759177944848
 30
0.0
 11
345.3039219848129
 21
1184.757903849498
 31
0.0
  0
LINE
  5
2023
330
1F6B
100
AcDbEntity
  8
0
100
AcDbLine
 10
466.3039219848128
 20
1181.757903849498
 30
0.0
 11
354.3039219848129
 21
1181.757903849498
 31
0.0
  0
INSERT
  5
2024
330
1F6B
100
AcDbEntity
  8
0
100
AcDbBlockReference
  2
_OPEN30
 10
475.3039219848128
 20
1181.757903849498
 30
0.0
 41
9.0
 42
9.0
 43
9.0
  0
INSERT
  5
2025
330
1F6B
100
AcDbEntity
  8
0
100
AcDbBlockReference
  2
_OPEN30
 10
345.3039219848129
 20
1181.757903849498
 30
0.0
 41
9.0
 42
9.0
 43
9.0
 50
180.0
  0
MTEXT
  5
2026
330
1F6B
100
AcDbEntity
  8
0
370
    50
100
AcDbMText
 10
410.3039219848128
 20
1191.507903849498
 30
0.0
 40
10.5
 41
0.0
 71
     5
 72
     1
  1
130
 73
     1
 44
1.0
1001
ACAD
1000
MTEXTBEGIN
1070
    73
1070
     1
1070
    44
1040
1.0
1070
    74
1070
     0
1000
MTEXTEND
  0
POINT
  5
2027
330
1F6B
100
AcDbEntity
  8
Defpoints
 62
     0
100
AcDbPoint
 10
475.3039219848128
 20
1126.159177944848
 30
0.0
  0
POINT
  5
2028
330
1F6B
100
AcDbEntity
  8
Defpoints
 62
     0
100
AcDbPoint
 10
345.3039219848129
 20
1066.759177944848
 30
0.0
  0
POINT
  5
2029
330
1F6B
100
AcDbEntity
  8
Defpoints
 62
     0
100
AcDbPoint
 10
345.3039219848129
 20
1181.757903849498
 30
0.0
  0
ENDBLK
  5
1F76
330
1F6B
100
AcDbEntity
  8
0
100
AcDbBlockEnd
  0
BLOCK
  5
1F81
330
1F77
100
AcDbEntity
  8
0
100
AcDbBlockBegin
  2
*D48
 70
     1
 10
0.0
 20
0.0
 30
0.0
  3
*D48
  1

  0
LINE
  5
202A
330
1F77
100
AcDbEntity
  8
0
100
AcDbLine
 10
339.3039219848129
 20
1066.759177944848
 30
0.0
 11
305.3125865201921
 21
1066.759177944848
 31
0.0
  0
LINE
  5
202B
330
1F77
100
AcDbEntity
  8
0
100
AcDbLine
 10
339.3039219848128
 20
816.759177944848
 30
0.0
 11
305.312586520192
 21
816.759177944848
 31
0.0
  0
LINE
  5
202C
330
1F77
100
AcDbEntity
  8
0
100
AcDbLine
 10
308.3125865201921
 20
1057.759177944848
 30
0.0
 11
308.3125865201921
 21
825.759177944848
 31
0.0
  0
INSERT
  5
202D
330
1F77
100
AcDbEntity
  8
0
100
AcDbBlockReference
  2
_OPEN30
 10
308.3125865201921
 20
1066.759177944848
 30
0.0
 41
9.0
 42
9.0
 43
9.0
 50
90.0
  0
INSERT
  5
202E
330
1F77
100
AcDbEntity
  8
0
100
AcDbBlockReference
  2
_OPEN30
 10
308.3125865201921
 20
816.759177944848
 30
0.0
 41
9.0
 42
9.0
 43
9.0
 50
270.0
  0
MTEXT
  5
202F
330
1F77
100
AcDbEntity
  8
0
370
    50
100
AcDbMText
 10
298.5625865201919
 20
941.759177944848
 30
0.0
 40
10.5
 41
0.0
 71
     5
 72
     1
  1
250（A0J2）
 11
0.0000000000000001
 21
1.0
 31
0.0
 73
     1
 44
1.0
1001
ACAD
1000
MTEXTBEGIN
1070
    73
1070
     1
1070
    44
1040
1.0
1070
    74
1070
     0
1000
MTEXTEND
  0
POINT
  5
2030
330
1F77
100
AcDbEntity
  8
Defpoints
 62
     0
100
AcDbPoint
 10
345.3039219848129
 20
1066.759177944848
 30
0.0
  0
POINT
  5
2031
330
1F77
100
AcDbEntity
  8
Defpoints
 62
     0
100
AcDbPoint
 10
345.3039219848129
 20
816.759177944848
 30
0.0
  0
POINT
  5
2032
330
1F77
100
AcDbEntity
  8
Defpoints
 62
     0
100
AcDbPoint
 10
308.3125865201921
 20
816.759177944848
 30
0.0
  0
ENDBLK
  5
1F82
330
1F77
100
AcDbEntity
  8
0
100
AcDbBlockEnd
  0
BLOCK
  5
1F8E
330
1F83
100
AcDbEntity
  8
0
100
AcDbBlockBegin
  2
*D49
 70
     1
 10
0.0
 20
0.0
 30
0.0
  3
*D49
  1

  0
LINE
  5
2033
330
1F83
100
AcDbEntity
  8
0
100
AcDbLine
 10
339.3039219848129
 20
1158.159177944848
 30
0.0
 11
282.9779964015056
 21
1158.159177944848
 31
0.0
  0
LINE
  5
2034
330
1F83
100
AcDbEntity
  8
0
100
AcDbLine
 10
339.3039219848129
 20
1066.759177944848
 30
0.0
 11
282.9779964015055
 21
1066.759177944848
 31
0.0
  0
LINE
  5
2035
330
1F83
100
AcDbEntity
  8
0
100
AcDbLine
 10
285.9779964015055
 20
1149.159177944848
 30
0.0
 11
285.9779964015055
 21
1075.759177944848
 31
0.0
  0
LINE
  5
2036
330
1F83
100
AcDbEntity
  8
0
100
AcDbLine
 10
285.9779964015055
 20
1066.759177944848
 30
0.0
 11
285.9779964015055
 21
954.2591779448475
 31
0.0
  0
INSERT
  5
2037
330
1F83
100
AcDbEntity
  8
0
100
AcDbBlockReference
  2
_OPEN30
 10
285.9779964015055
 20
1158.159177944848
 30
0.0
 41
9.0
 42
9.0
 43
9.0
 50
90.0
  0
INSERT
  5
2038
330
1F83
100
AcDbEntity
  8
0
100
AcDbBlockReference
  2
_OPEN30
 10
285.9779964015055
 20
1066.759177944848
 30
0.0
 41
9.0
 42
9.0
 43
9.0
 50
270.0
  0
MTEXT
  5
2039
330
1F83
100
AcDbEntity
  8
0
370
    50
100
AcDbMText
 10
276.2279964015053
 20
1006.009177944848
 30
0.0
 40
10.5
 41
0.0
 71
     5
 72
     1
  1
92（増加寸法）
 11
0.0000000000000001
 21
1.0
 31
0.0
 73
     1
 44
1.0
1001
ACAD
1000
MTEXTBEGIN
1070
    73
1070
     1
1070
    44
1040
1.0
1070
    74
1070
     0
1000
MTEXTEND
  0
POINT
  5
203A
330
1F83
100
AcDbEntity
  8
Defpoints
 62
     0
100
AcDbPoint
 10
345.3039219848129
 20
1158.159177944848
 30
0.0
  0
POINT
  5
203B
330
1F83
100
AcDbEntity
  8
Defpoints
 62
     0
100
AcDbPoint
 10
345.3039219848129
 20
1066.759177944848
 30
0.0
  0
POINT
  5
203C
330
1F83
100
AcDbEntity
  8
Defpoints
 62
     0
100
AcDbPoint
 10
285.9779964015055
 20
1066.759177944848
 30
0.0
  0
ENDBLK
  5
1F8F
330
1F83
100
AcDbEntity
  8
0
100
AcDbBlockEnd
  0
BLOCK
  5
1F9B
330
1F90
100
AcDbEntity
  8
0
100
AcDbBlockBegin
  2
*D50
 70
     1
 10
0.0
 20
0.0
 30
0.0
  3
*D50
  1

  0
LINE
  5
203D
330
1F90
100
AcDbEntity
  8
0
100
AcDbLine
 10
427.3039219848127
 20
810.759177944848
 30
0.0
 11
427.3039219848127
 21
778.7147467481397
 31
0.0
  0
LINE
  5
203E
330
1F90
100
AcDbEntity
  8
0
100
AcDbLine
 10
345.3039219848129
 20
810.7591779448481
 30
0.0
 11
345.3039219848129
 21
778.7147467481397
 31
0.0
  0
LINE
  5
203F
330
1F90
100
AcDbEntity
  8
0
100
AcDbLine
 10
418.3039219848128
 20
781.7147467481397
 30
0.0
 11
354.3039219848129
 21
781.7147467481397
 31
0.0
  0
LINE
  5
2040
330
1F90
100
AcDbEntity
  8
0
100
AcDbLine
 10
345.3039219848129
 20
781.7147467481397
 30
0.0
 11
242.9539219848128
 21
781.7147467481397
 31
0.0
  0
INSERT
  5
2041
330
1F90
100
AcDbEntity
  8
0
100
AcDbBlockReference
  2
_OPEN30
 10
427.3039219848127
 20
781.7147467481397
 30
0.0
 41
9.0
 42
9.0
 43
9.0
  0
INSERT
  5
2042
330
1F90
100
AcDbEntity
  8
0
100
AcDbBlockReference
  2
_OPEN30
 10
345.3039219848129
 20
781.7147467481397
 30
0.0
 41
9.0
 42
9.0
 43
9.0
 50
180.0
  0
MTEXT
  5
2043
330
1F90
100
AcDbEntity
  8
0
370
    50
100
AcDbMText
 10
289.6289219848128
 20
791.4647467481398
 30
0.0
 40
10.5
 41
0.0
 71
     5
 72
     1
  1
82（A0J2）
 73
     1
 44
1.0
1001
ACAD
1000
MTEXTBEGIN
1070
    73
1070
     1
1070
    44
1040
1.0
1070
    74
1070
     0
1000
MTEXTEND
  0
POINT
  5
2044
330
1F90
100
AcDbEntity
  8
Defpoints
 62
     0
100
AcDbPoint
 10
427.3039219848127
 20
816.759177944848
 30
0.0
  0
POINT
  5
2045
330
1F90
100
AcDbEntity
  8
Defpoints
 62
     0
100
AcDbPoint
 10
345.3039219848129
 20
816.7591779448482
 30
0.0
  0
POINT
  5
2046
330
1F90
100
AcDbEntity
  8
Defpoints
 62
     0
100
AcDbPoint
 10
345.3039219848129
 20
781.7147467481397
 30
0.0
  0
ENDBLK
  5
1F9C
330
1F90
100
AcDbEntity
  8
0
100
AcDbBlockEnd
  0
BLOCK
  5
1FA8
330
1F9D
100
AcDbEntity
  8
0
100
AcDbBlockBegin
  2
*D51
 70
     1
 10
0.0
 20
0.0
 30
0.0
  3
*D51
  1

  0
LINE
  5
2047
330
1F9D
100
AcDbEntity
  8
0
100
AcDbLine
 10
427.3039219848127
 20
810.759177944848
 30
0.0
 11
427.3039219848127
 21
757.9480647898563
 31
0.0
  0
LINE
  5
2048
330
1F9D
100
AcDbEntity
  8
0
100
AcDbLine
 10
502.8039219848126
 20
1024.159177944848
 30
0.0
 11
502.8039219848126
 21
757.9480647898563
 31
0.0
  0
LINE
  5
2049
330
1F9D
100
AcDbEntity
  8
0
100
AcDbLine
 10
493.8039219848127
 20
760.9480647898562
 30
0.0
 11
436.3039219848126
 21
760.9480647898562
 31
0.0
  0
LINE
  5
204A
330
1F9D
100
AcDbEntity
  8
0
100
AcDbLine
 10
427.3039219848127
 20
760.9480647898562
 30
0.0
 11
314.8039219848129
 21
760.9480647898562
 31
0.0
  0
INSERT
  5
204B
330
1F9D
100
AcDbEntity
  8
0
100
AcDbBlockReference
  2
_OPEN30
 10
502.8039219848126
 20
760.9480647898562
 30
0.0
 41
9.0
 42
9.0
 43
9.0
  0
INSERT
  5
204C
330
1F9D
100
AcDbEntity
  8
0
100
AcDbBlockReference
  2
_OPEN30
 10
427.3039219848127
 20
760.9480647898562
 30
0.0
 41
9.0
 42
9.0
 43
9.0
 50
180.0
  0
MTEXT
  5
204D
330
1F9D
100
AcDbEntity
  8
0
370
    50
100
AcDbMText
 10
366.5539219848128
 20
770.6980647898562
 30
0.0
 40
10.5
 41
0.0
 71
     5
 72
     1
  1
76（増加寸法）
 73
     1
 44
1.0
1001
ACAD
1000
MTEXTBEGIN
1070
    73
1070
     1
1070
    44
1040
1.0
1070
    74
1070
     0
1000
MTEXTEND
  0
POINT
  5
204E
330
1F9D
100
AcDbEntity
  8
Defpoints
 62
     0
100
AcDbPoint
 10
427.3039219848127
 20
816.759177944848
 30
0.0
  0
POINT
  5
204F
330
1F9D
100
AcDbEntity
  8
Defpoints
 62
     0
100
AcDbPoint
 10
502.8039219848126
 20
1030.159177944848
 30
0.0
  0
POINT
  5
2050
330
1F9D
100
AcDbEntity
  8
Defpoints
 62
     0
100
AcDbPoint
 10
502.8039219848126
 20
760.9480647898562
 30
0.0
  0
ENDBLK
  5
1FA9
330
1F9D
100
AcDbEntity
  8
0
100
AcDbBlockEnd
  0
BLOCK
  5
1FB5
330
1FAA
100
AcDbEntity
  8
0
100
AcDbBlockBegin
  2
*D52
 70
     1
 10
0.0
 20
0.0
 30
0.0
  3
*D52
  1

  0
LINE
  5
2051
330
1FAA
100
AcDbEntity
  8
0
100
AcDbLine
 10
475.3039219848128
 20
1132.159177944848
 30
0.0
 11
475.3039219848128
 21
1184.75383221315
 31
0.0
  0
LINE
  5
2052
330
1FAA
100
AcDbEntity
  8
0
100
AcDbLine
 10
502.8039219848126
 20
1132.159177944848
 30
0.0
 11
502.8039219848126
 21
1184.75383221315
 31
0.0
  0
LINE
  5
2053
330
1FAA
100
AcDbEntity
  8
0
100
AcDbLine
 10
484.3039219848129
 20
1181.75383221315
 30
0.0
 11
493.8039219848127
 21
1181.75383221315
 31
0.0
  0
LINE
  5
2054
330
1FAA
100
AcDbEntity
  8
0
100
AcDbLine
 10
502.8039219848126
 20
1181.75383221315
 30
0.0
 11
665.703921984813
 21
1181.75383221315
 31
0.0
  0
INSERT
  5
2055
330
1FAA
100
AcDbEntity
  8
0
100
AcDbBlockReference
  2
_OPEN30
 10
475.3039219848128
 20
1181.75383221315
 30
0.0
 41
9.0
 42
9.0
 43
9.0
 50
180.0
  0
INSERT
  5
2056
330
1FAA
100
AcDbEntity
  8
0
100
AcDbBlockReference
  2
_OPEN30
 10
502.8039219848126
 20
1181.75383221315
 30
0.0
 41
9.0
 42
9.0
 43
9.0
  0
MTEXT
  5
2057
330
1FAA
100
AcDbEntity
  8
0
370
    50
100
AcDbMText
 10
588.753921984813
 20
1191.50383221315
 30
0.0
 40
10.5
 41
0.0
 71
     5
 72
     1
  1
28（配線必要スペース）
 73
     1
 44
1.0
1001
ACAD
1000
MTEXTBEGIN
1070
    73
1070
     1
1070
    44
1040
1.0
1070
    74
1070
     0
1000
MTEXTEND
  0
POINT
  5
2058
330
1FAA
100
AcDbEntity
  8
Defpoints
 62
     0
100
AcDbPoint
 10
475.3039219848128
 20
1126.159177944848
 30
0.0
  0
POINT
  5
2059
330
1FAA
100
AcDbEntity
  8
Defpoints
 62
     0
100
AcDbPoint
 10
502.8039219848126
 20
1126.159177944848
 30
0.0
  0
POINT
  5
205A
330
1FAA
100
AcDbEntity
  8
Defpoints
 62
     0
100
AcDbPoint
 10
502.8039219848126
 20
1181.75383221315
 30
0.0
  0
ENDBLK
  5
1FB6
330
1FAA
100
AcDbEntity
  8
0
100
AcDbBlockEnd
  0
BLOCK
  5
1FC1
330
1FB7
100
AcDbEntity
  8
0
100
AcDbBlockBegin
  2
*D53
 70
     1
 10
0.0
 20
0.0
 30
0.0
  3
*D53
  1

  0
LINE
  5
205B
330
1FB7
100
AcDbEntity
  8
0
100
AcDbLine
 10
502.8039219848126
 20
1132.159177944848
 30
0.0
 11
502.8039219848126
 21
1208.579350011581
 31
0.0
  0
LINE
  5
205C
330
1FB7
100
AcDbEntity
  8
0
100
AcDbLine
 10
345.3039219848129
 20
1072.759177944848
 30
0.0
 11
345.3039219848129
 21
1208.579350011581
 31
0.0
  0
LINE
  5
205D
330
1FB7
100
AcDbEntity
  8
0
100
AcDbLine
 10
493.8039219848127
 20
1205.579350011581
 30
0.0
 11
354.3039219848129
 21
1205.579350011581
 31
0.0
  0
INSERT
  5
205E
330
1FB7
100
AcDbEntity
  8
0
100
AcDbBlockReference
  2
_OPEN30
 10
502.8039219848126
 20
1205.579350011581
 30
0.0
 41
9.0
 42
9.0
 43
9.0
  0
INSERT
  5
205F
330
1FB7
100
AcDbEntity
  8
0
100
AcDbBlockReference
  2
_OPEN30
 10
345.3039219848129
 20
1205.579350011581
 30
0.0
 41
9.0
 42
9.0
 43
9.0
 50
180.0
  0
MTEXT
  5
2060
330
1FB7
100
AcDbEntity
  8
0
370
    50
100
AcDbMText
 10
424.0539219848129
 20
1215.329350011581
 30
0.0
 40
10.5
 41
0.0
 71
     5
 72
     1
  1
158
 73
     1
 44
1.0
1001
ACAD
1000
MTEXTBEGIN
1070
    73
1070
     1
1070
    44
1040
1.0
1070
    74
1070
     0
1000
MTEXTEND
  0
POINT
  5
2061
330
1FB7
100
AcDbEntity
  8
Defpoints
 62
     0
100
AcDbPoint
 10
502.8039219848126
 20
1126.159177944848
 30
0.0
  0
POINT
  5
2062
330
1FB7
100
AcDbEntity
  8
Defpoints
 62
     0
100
AcDbPoint
 10
345.3039219848129
 20
1066.759177944848
 30
0.0
  0
POINT
  5
2063
330
1FB7
100
AcDbEntity
  8
Defpoints
 62
     0
100
AcDbPoint
 10
345.3039219848129
 20
1205.579350011581
 30
0.0
  0
ENDBLK
  5
1FC2
330
1FB7
100
AcDbEntity
  8
0
100
AcDbBlockEnd
  0
BLOCK
  5
206F
330
2064
100
AcDbEntity
  8
0
100
AcDbBlockBegin
  2
*D54
 70
     1
 10
0.0
 20
0.0
 30
0.0
  3
*D54
  1

  0
LINE
  5
2065
330
2064
100
AcDbEntity
  8
0
 62
     0
370
    -2
100
AcDbLine
 10
348.3039219848129
 20
1128.159177944848
 30
0.0
 11
305.2667748042324
 21
1128.159177944848
 31
0.0
  0
LINE
  5
2066
330
2064
100
AcDbEntity
  8
0
 62
     0
370
    -2
100
AcDbLine
 10
345.3295486452049
 20
1158.159177944848
 30
0.0
 11
305.2667748042324
 21
1158.159177944848
 31
0.0
  0
LINE
  5
2067
330
2064
100
AcDbEntity
  8
0
 62
     0
370
    -2
100
AcDbLine
 10
308.2667748042323
 20
1137.159177944848
 30
0.0
 11
308.2667748042323
 21
1149.159177944848
 31
0.0
  0
LINE
  5
2068
330
2064
100
AcDbEntity
  8
0
 62
     0
370
    -2
100
AcDbLine
 10
308.2667748042323
 20
1158.159177944848
 30
0.0
 11
308.2667748042323
 21
1254.909177944848
 31
0.0
  0
INSERT
  5
2069
330
2064
100
AcDbEntity
  8
0
 62
     0
370
    -2
100
AcDbBlockReference
  2
_OPEN30
 10
308.2667748042323
 20
1128.159177944848
 30
0.0
 41
9.0
 42
9.0
 43
9.0
 50
270.0
  0
INSERT
  5
206A
330
2064
100
AcDbEntity
  8
0
 62
     0
370
    -2
100
AcDbBlockReference
  2
_OPEN30
 10
308.2667748042323
 20
1158.159177944848
 30
0.0
 41
9.0
 42
9.0
 43
9.0
 50
90.0
  0
MTEXT
  5
206B
330
2064
100
AcDbEntity
  8
0
 62
     0
370
    50
100
AcDbMText
 10
298.5167748042321
 20
1211.034177944848
 30
0.0
 40
10.5
 41
0.0
 71
     5
 72
     1
  1
30　　　　　
 11
0.0000000000000001
 21
1.0
 31
0.0
 73
     1
 44
1.0
1001
ACAD
1000
MTEXTBEGIN
1070
    73
1070
     1
1070
    44
1040
1.0
1070
    74
1070
     0
1000
MTEXTEND
  0
POINT
  5
206C
330
2064
100
AcDbEntity
  8
Defpoints
 62
     0
100
AcDbPoint
 10
354.3039219848129
 20
1128.159177944848
 30
0.0
  0
POINT
  5
206D
330
2064
100
AcDbEntity
  8
Defpoints
 62
     0
100
AcDbPoint
 10
351.3295486452049
 20
1158.159177944848
 30
0.0
  0
POINT
  5
206E
330
2064
100
AcDbEntity
  8
Defpoints
 62
     0
100
AcDbPoint
 10
308.2667748042323
 20
1158.159177944848
 30
0.0
  0
ENDBLK
  5
2070
330
2064
100
AcDbEntity
  8
0
100
AcDbBlockEnd
  0
ENDSEC
  0
SECTION
  2
ENTITIES
  0
MTEXT
  5
17E6
330
1F
100
AcDbEntity
  8
0
100
AcDbMText
 10
296.8676529029888
 20
1345.333964320642
 30
0.0
 40
20.0
 41
536.0536237022349
 71
     1
 72
     5
  1
{\fMS Gothic|b0|i0|c128|p49;平置きタイプ小型１段積み（Q33Bベース）\P固定台セット SC-A0JQSES-F使用}
 73
     1
 44
1.0
1001
ACAD
1000
ACAD_MTEXT_DEFINED_HEIGHT_BEGIN
1070
    46
1040
60.37234859499813
1000
ACAD_MTEXT_DEFINED_HEIGHT_END
1000
MTEXTBEGIN
1070
    73
1070
     1
1070
    44
1040
1.0
1070
    74
1070
     0
1000
MTEXTEND
  0
LINE
  5
1CD1
330
1F
100
AcDbEntity
  8
0
370
    50
100
AcDbLine
 10
681.8847898514957
 20
822.8141779448478
 30
0.0
 11
681.8847898514957
 21
822.704177944848
 31
0.0
  0
LINE
  5
1CD2
330
1F
100
AcDbEntity
  8
0
370
    50
100
AcDbLine
 10
681.8297898514957
 20
822.7591779448481
 30
0.0
 11
681.9397898514957
 21
822.7591779448481
 31
0.0
  0
LINE
  5
1CD3
330
1F
100
AcDbEntity
  8
0
370
    50
100
AcDbLine
 10
681.8847898514957
 20
825.3691779448477
 30
0.0
 11
681.8847898514957
 21
822.9701779448481
 31
0.0
  0
LINE
  5
1CD4
330
1F
100
AcDbEntity
  8
0
370
    50
100
AcDbLine
 10
681.8847898514957
 20
822.5481779448481
 30
0.0
 11
681.8847898514957
 21
820.1491779448479
 31
0.0
  0
LINE
  5
1CD5
330
1F
100
AcDbEntity
  8
0
370
    50
100
AcDbLine
 10
679.2747898514956
 20
822.7591779448481
 30
0.0
 11
681.6737898514957
 21
822.7591779448481
 31
0.0
  0
LINE
  5
1CD6
330
1F
100
AcDbEntity
  8
0
370
    50
100
AcDbLine
 10
682.0957898514957
 20
822.7591779448481
 30
0.0
 11
684.4947898514957
 21
822.7591779448481
 31
0.0
  0
LINE
  5
1CD7
330
1F
100
AcDbEntity
  8
0
370
    50
100
AcDbLine
 10
559.8847898514958
 20
822.8141779448481
 30
0.0
 11
559.8847898514958
 21
822.704177944848
 31
0.0
  0
LINE
  5
1CD8
330
1F
100
AcDbEntity
  8
0
370
    50
100
AcDbLine
 10
559.8297898514958
 20
822.7591779448481
 30
0.0
 11
559.9397898514959
 21
822.7591779448481
 31
0.0
  0
LINE
  5
1CD9
330
1F
100
AcDbEntity
  8
0
370
    50
100
AcDbLine
 10
559.8847898514958
 20
825.369177944848
 30
0.0
 11
559.8847898514958
 21
822.9701779448481
 31
0.0
  0
LINE
  5
1CDA
330
1F
100
AcDbEntity
  8
0
370
    50
100
AcDbLine
 10
559.8847898514958
 20
822.5481779448481
 30
0.0
 11
559.8847898514958
 21
820.1491779448479
 31
0.0
  0
LINE
  5
1CDB
330
1F
100
AcDbEntity
  8
0
370
    50
100
AcDbLine
 10
557.2747898514958
 20
822.7591779448481
 30
0.0
 11
559.6737898514958
 21
822.7591779448481
 31
0.0
  0
LINE
  5
1CDC
330
1F
100
AcDbEntity
  8
0
370
    50
100
AcDbLine
 10
560.0957898514958
 20
822.7591779448481
 30
0.0
 11
562.4947898514959
 21
822.7591779448481
 31
0.0
  0
LINE
  5
1CDD
330
1F
100
AcDbEntity
  8
0
370
    50
100
AcDbLine
 10
580.8847898514954
 20
836.8141779448475
 30
0.0
 11
580.8847898514954
 21
836.7041779448479
 31
0.0
  0
LINE
  5
1CDE
330
1F
100
AcDbEntity
  8
0
370
    50
100
AcDbLine
 10
580.8297898514958
 20
836.7591779448479
 30
0.0
 11
580.9397898514958
 21
836.7591779448479
 31
0.0
  0
LINE
  5
1CDF
330
1F
100
AcDbEntity
  8
0
370
    50
100
AcDbLine
 10
580.8847898514954
 20
839.869177944848
 30
0.0
 11
580.8847898514954
 21
836.970177944848
 31
0.0
  0
LINE
  5
1CE0
330
1F
100
AcDbEntity
  8
0
370
    50
100
AcDbLine
 10
580.8847898514954
 20
836.5481779448479
 30
0.0
 11
580.8847898514954
 21
833.6491779448479
 31
0.0
  0
LINE
  5
1CE1
330
1F
100
AcDbEntity
  8
0
370
    50
100
AcDbLine
 10
577.7747898514957
 20
836.7591779448479
 30
0.0
 11
580.6737898514954
 21
836.7591779448479
 31
0.0
  0
LINE
  5
1CE2
330
1F
100
AcDbEntity
  8
0
370
    50
100
AcDbLine
 10
581.0957898514955
 20
836.7591779448479
 30
0.0
 11
583.9947898514957
 21
836.7591779448479
 31
0.0
  0
LINE
  5
1CE3
330
1F
100
AcDbEntity
  8
0
370
    50
100
AcDbLine
 10
664.8847898514956
 20
836.8141779448475
 30
0.0
 11
664.8847898514956
 21
836.7041779448479
 31
0.0
  0
LINE
  5
1CE4
330
1F
100
AcDbEntity
  8
0
370
    50
100
AcDbLine
 10
664.8297898514957
 20
836.7591779448479
 30
0.0
 11
664.9397898514957
 21
836.7591779448479
 31
0.0
  0
LINE
  5
1CE5
330
1F
100
AcDbEntity
  8
0
370
    50
100
AcDbLine
 10
664.8847898514956
 20
839.869177944848
 30
0.0
 11
664.8847898514956
 21
836.970177944848
 31
0.0
  0
LINE
  5
1CE6
330
1F
100
AcDbEntity
  8
0
370
    50
100
AcDbLine
 10
664.8847898514956
 20
836.5481779448479
 30
0.0
 11
664.8847898514956
 21
833.6491779448479
 31
0.0
  0
LINE
  5
1CE7
330
1F
100
AcDbEntity
  8
0
370
    50
100
AcDbLine
 10
661.7747898514957
 20
836.7591779448479
 30
0.0
 11
664.6737898514956
 21
836.7591779448479
 31
0.0
  0
LINE
  5
1CE8
330
1F
100
AcDbEntity
  8
0
370
    50
100
AcDbLine
 10
665.0957898514956
 20
836.7591779448479
 30
0.0
 11
667.9947898514957
 21
836.7591779448479
 31
0.0
  0
DIMENSION
  5
1CE9
330
1F
100
AcDbEntity
  8
0
370
    50
100
AcDbDimension
  2
*D37
 10
758.9962486639857
 20
816.759177944848
 30
0.0
 11
749.2462486639857
 21
972.4591779448481
 31
0.0
 70
    32
  1
312
 71
     5
 42
311.3999999999998
  3
AM_JIS$0
100
AcDbAlignedDimension
 13
715.8847898514961
 23
1128.159177944847
 33
0.0
 14
684.8847898514957
 24
816.759177944848
 34
0.0
 50
270.0
100
AcDbRotatedDimension
1001
ACAD_DSTYLE_DIMINSPECT
1070
   396
1000
100%
1070
   395
1000

1070
   394
1070
    33
1070
   393
1070
     0
  0
LINE
  5
1CEA
330
1F
100
AcDbEntity
  8
0
370
    50
100
AcDbLine
 10
681.884789851496
 20
1060.814177944848
 30
0.0
 11
681.884789851496
 21
1060.704177944848
 31
0.0
  0
LINE
  5
1CEB
330
1F
100
AcDbEntity
  8
0
370
    50
100
AcDbLine
 10
681.8297898514957
 20
1060.759177944848
 30
0.0
 11
681.939789851496
 21
1060.759177944848
 31
0.0
  0
LINE
  5
1CEC
330
1F
100
AcDbEntity
  8
0
370
    50
100
AcDbLine
 10
681.884789851496
 20
1063.369177944848
 30
0.0
 11
681.884789851496
 21
1060.970177944848
 31
0.0
  0
LINE
  5
1CED
330
1F
100
AcDbEntity
  8
0
370
    50
100
AcDbLine
 10
681.884789851496
 20
1060.548177944848
 30
0.0
 11
681.884789851496
 21
1058.149177944848
 31
0.0
  0
LINE
  5
1CEE
330
1F
100
AcDbEntity
  8
0
370
    50
100
AcDbLine
 10
679.2747898514959
 20
1060.759177944848
 30
0.0
 11
681.6737898514959
 21
1060.759177944848
 31
0.0
  0
LINE
  5
1CEF
330
1F
100
AcDbEntity
  8
0
370
    50
100
AcDbLine
 10
682.095789851496
 20
1060.759177944848
 30
0.0
 11
684.4947898514957
 21
1060.759177944848
 31
0.0
  0
LINE
  5
1CF0
330
1F
100
AcDbEntity
  8
0
370
    50
100
AcDbLine
 10
559.8847898514958
 20
1060.814177944848
 30
0.0
 11
559.8847898514958
 21
1060.704177944848
 31
0.0
  0
LINE
  5
1CF1
330
1F
100
AcDbEntity
  8
0
370
    50
100
AcDbLine
 10
559.8297898514958
 20
1060.759177944848
 30
0.0
 11
559.9397898514959
 21
1060.759177944848
 31
0.0
  0
LINE
  5
1CF2
330
1F
100
AcDbEntity
  8
0
370
    50
100
AcDbLine
 10
559.8847898514958
 20
1063.369177944848
 30
0.0
 11
559.8847898514958
 21
1060.970177944848
 31
0.0
  0
LINE
  5
1CF3
330
1F
100
AcDbEntity
  8
0
370
    50
100
AcDbLine
 10
559.8847898514958
 20
1060.548177944848
 30
0.0
 11
559.8847898514958
 21
1058.149177944848
 31
0.0
  0
LINE
  5
1CF4
330
1F
100
AcDbEntity
  8
0
370
    50
100
AcDbLine
 10
557.2747898514959
 20
1060.759177944848
 30
0.0
 11
559.6737898514959
 21
1060.759177944848
 31
0.0
  0
LINE
  5
1CF5
330
1F
100
AcDbEntity
  8
0
370
    50
100
AcDbLine
 10
560.0957898514958
 20
1060.759177944848
 30
0.0
 11
562.4947898514959
 21
1060.759177944848
 31
0.0
  0
DIMENSION
  5
1CF6
330
1F
100
AcDbEntity
  8
0
370
    50
100
AcDbDimension
  2
*D38
 10
739.2399510544621
 20
822.7591779448481
 30
0.0
 11
729.4899510544618
 21
941.7591779448482
 31
0.0
 70
    32
  1
<>（取付ピッチ）
 71
     5
 42
238.0000000000001
  3
AM_JIS$0
100
AcDbAlignedDimension
 13
684.4947898514957
 23
1060.759177944848
 33
0.0
 14
684.4947898514957
 24
822.7591779448481
 34
0.0
 50
270.0
100
AcDbRotatedDimension
1001
ACAD_DSTYLE_DIMINSPECT
1070
   396
1000
100%
1070
   395
1000

1070
   394
1070
    33
1070
   393
1070
     0
1001
ACAD
1000
DSTYLE
1002
{
1070
    40
1040
3.0
1002
}
  0
DIMENSION
  5
1CF7
330
1F
100
AcDbEntity
  8
0
370
    50
100
AcDbDimension
  2
*D39
 10
559.8847898514958
 20
774.1209009629056
 30
0.0
 11
623.7298990026232
 21
774.1209009629056
 31
0.0
 70
   160
  1
<>（取付ピッチ）
 71
     5
 42
122.0
  3
AM_JIS$0
100
AcDbAlignedDimension
 13
681.8847898514957
 23
820.1491779448479
 33
0.0
 14
559.8847898514958
 24
820.1491779448479
 34
0.0
100
AcDbRotatedDimension
1001
ACAD_DSTYLE_DIMINSPECT
1070
   396
1000
100%
1070
   395
1000

1070
   394
1070
    33
1070
   393
1070
     0
1001
ACAD
1000
DSTYLE
1002
{
1070
    40
1040
3.0
1002
}
  0
DIMENSION
  5
1CF8
330
1F
100
AcDbEntity
  8
0
370
    50
100
AcDbDimension
  2
*D40
 10
554.8847898514958
 20
737.5329843633957
 30
0.0
 11
620.8847898514957
 21
747.2829843633957
 31
0.0
 70
    32
 71
     5
 42
132.0
  3
AM_JIS$0
100
AcDbAlignedDimension
 13
686.8847898514957
 23
818.7591779448476
 33
0.0
 14
554.8847898514958
 24
818.759177944848
 34
0.0
100
AcDbRotatedDimension
1001
ACAD_DSTYLE_DIMINSPECT
1070
   396
1000
100%
1070
   395
1000

1070
   394
1070
    33
1070
   393
1070
     0
  0
DIMENSION
  5
1CF9
330
1F
100
AcDbEntity
  8
0
370
    50
100
AcDbDimension
  2
*D41
 10
715.8847898514961
 20
737.5329843633957
 30
0.0
 11
776.6347898514961
 21
747.2829843633957
 31
0.0
 70
    32
  1
<>（増加寸法）
 71
     5
 42
29.00000000000034
  3
AM_JIS$0
100
AcDbAlignedDimension
 13
686.8847898514957
 23
818.7591779448476
 33
0.0
 14
715.8847898514961
 24
1014.159177944848
 34
0.0
100
AcDbRotatedDimension
1001
ACAD_DSTYLE_DIMINSPECT
1070
   396
1000
100%
1070
   395
1000

1070
   394
1070
    33
1070
   393
1070
     0
  0
DIMENSION
  5
1CFA
330
1F
100
AcDbEntity
  8
0
370
    50
100
AcDbDimension
  2
*D42
 10
525.8847898514962
 20
737.5329843633957
 30
0.0
 11
465.1347898514962
 21
747.2829843633957
 31
0.0
 70
    32
  1
<>（増加寸法）
 71
     5
 42
28.99999999999966
  3
AM_JIS$0
100
AcDbAlignedDimension
 13
554.8847898514958
 23
818.759177944848
 33
0.0
 14
525.8847898514962
 24
1014.159177944848
 34
0.0
100
AcDbRotatedDimension
1001
ACAD_DSTYLE_DIMINSPECT
1070
   396
1000
100%
1070
   395
1000

1070
   394
1070
    33
1070
   393
1070
     0
  0
DIMENSION
  5
1CFB
330
1F
100
AcDbEntity
  8
0
370
    50
100
AcDbDimension
  2
*D43
 10
525.8847898514962
 20
713.4453159961458
 30
0.0
 11
620.8847898514961
 21
723.1953159961458
 31
0.0
 70
    32
 71
     5
 42
190.0
  3
AM_JIS$0
100
AcDbAlignedDimension
 13
715.8847898514961
 23
1028.159177944847
 33
0.0
 14
525.8847898514962
 24
1014.159177944848
 34
0.0
100
AcDbRotatedDimension
1001
ACAD_DSTYLE_DIMINSPECT
1070
   396
1000
100%
1070
   395
1000

1070
   394
1070
    33
1070
   393
1070
     0
  0
DIMENSION
  5
1CFC
330
1F
100
AcDbEntity
  8
0
370
    50
100
AcDbDimension
  2
*D44
 10
377.3039219848129
 20
1161.775269720326
 30
0.0
 11
426.3039219848129
 21
1161.775269720326
 31
0.0
 70
   160
 71
     5
 42
98.0
  3
AM_JIS$0
100
AcDbAlignedDimension
 13
475.3039219848128
 23
1126.159177944848
 33
0.0
 14
377.3039219848129
 24
1128.159177944848
 34
0.0
100
AcDbRotatedDimension
1001
ACAD_DSTYLE_DIMINSPECT
1070
   396
1000
100%
1070
   395
1000

1070
   394
1070
    33
1070
   393
1070
     0
  0
DIMENSION
  5
1CFD
330
1F
100
AcDbEntity
  8
0
370
    50
100
AcDbDimension
  2
*D45
 10
345.3039219848129
 20
1161.870153137376
 30
0.0
 11
319.3039219848129
 21
1161.870153137376
 31
0.0
 70
   160
 71
     5
 42
6.0
  3
AM_JIS$0
100
AcDbAlignedDimension
 13
351.3039219848129
 23
1125.159177944848
 33
0.0
 14
345.3039219848129
 24
1066.759177944848
 34
0.0
100
AcDbRotatedDimension
1001
ACAD_DSTYLE_DIMINSPECT
1070
   396
1000
100%
1070
   395
1000

1070
   394
1070
    33
1070
   393
1070
     0
1001
ACAD
1000
DSTYLE
1002
{
1070
   344
1005
F7
1070
   342
1005
0
1070
   173
1070
     1
1070
   343
1005
FD
1002
}
  0
DIMENSION
  5
1CFE
330
1F
100
AcDbEntity
  8
0
370
    50
100
AcDbDimension
  2
*D46
 10
351.3039219848129
 20
1161.836278638097
 30
0.0
 11
368.3039219848128
 21
1161.836278638097
 31
0.0
 70
   160
 71
     5
 42
26.0
  3
AM_JIS$0
100
AcDbAlignedDimension
 13
377.3039219848129
 23
1128.159177944848
 33
0.0
 14
351.3039219848129
 24
1125.159177944848
 34
0.0
100
AcDbRotatedDimension
1001
ACAD
1000
DSTYLE
1002
{
1070
   343
1005
F7
1070
   342
1005
0
1070
   173
1070
     1
1070
   344
1005
FD
1002
}
  0
DIMENSION
  5
1CFF
330
1F
100
AcDbEntity
  8
0
370
    50
100
AcDbDimension
  2
*D47
 10
345.3039219848129
 20
1181.757903849498
 30
0.0
 11
410.3039219848128
 21
1181.757903849498
 31
0.0
 70
   160
 71
     5
 42
130.0
  3
AM_JIS$0
100
AcDbAlignedDimension
 13
475.3039219848128
 23
1126.159177944848
 33
0.0
 14
345.3039219848129
 24
1066.759177944848
 34
0.0
100
AcDbRotatedDimension
1001
ACAD_DSTYLE_DIMINSPECT
1070
   396
1000
100%
1070
   395
1000

1070
   394
1070
    33
1070
   393
1070
     0
  0
DIMENSION
  5
1D00
330
1F
100
AcDbEntity
  8
0
370
    50
100
AcDbDimension
  2
*D48
 10
308.3125865201921
 20
816.759177944848
 30
0.0
 11
298.5625865201919
 21
941.759177944848
 31
0.0
 70
    32
  1
<>（A0J2）
 71
     5
 42
249.9999999999999
  3
AM_JIS$0
100
AcDbAlignedDimension
 13
345.3039219848129
 23
1066.759177944848
 33
0.0
 14
345.3039219848129
 24
816.759177944848
 34
0.0
 50
270.0
100
AcDbRotatedDimension
1001
ACAD_DSTYLE_DIMINSPECT
1070
   396
1000
100%
1070
   395
1000

1070
   394
1070
    33
1070
   393
1070
     0
  0
DIMENSION
  5
1D01
330
1F
100
AcDbEntity
  8
0
370
    50
100
AcDbDimension
  2
*D49
 10
285.9779964015055
 20
1066.759177944848
 30
0.0
 11
285.9779964015053
 21
1006.009177944848
 31
0.0
 70
   160
  1
92（増加寸法）
 71
     5
 42
91.39999999999986
  3
AM_JIS$0
100
AcDbAlignedDimension
 13
345.3039219848129
 23
1158.159177944848
 33
0.0
 14
345.3039219848129
 24
1066.759177944848
 34
0.0
 50
270.0
100
AcDbRotatedDimension
1001
ACAD_DSTYLE_DIMINSPECT
1070
   396
1000
100%
1070
   395
1000

1070
   394
1070
    33
1070
   393
1070
     0
  0
LWPOLYLINE
  5
1D02
330
1F
100
AcDbEntity
  8
0
370
    50
100
AcDbPolyline
 90
        2
 70
     0
 43
0.0
 10
345.3039219848129
 20
1066.759177944848
 10
345.3039219848129
 20
816.759177944848
  0
LWPOLYLINE
  5
1D03
330
1F
100
AcDbEntity
  8
かくれ線
 62
     7
370
    50
100
AcDbPolyline
 90
        2
 70
     0
 43
0.0
 10
427.3039219848127
 20
1066.759177944848
 10
427.3039219848127
 20
816.759177944848
  0
LWPOLYLINE
  5
1D04
330
1F
100
AcDbEntity
  8
かくれ線
 62
     7
370
    50
100
AcDbPolyline
 90
        2
 70
     0
 43
0.0
 10
427.3039219848127
 20
816.759177944848
 10
345.3039219848129
 20
816.7591779448482
  0
LWPOLYLINE
  5
1D05
102
{ACAD_REACTORS
330
20CE
102
}
330
1F
100
AcDbEntity
  8
かくれ線
 62
     7
370
    50
100
AcDbPolyline
 90
        2
 70
     0
 43
0.0
 10
427.3039219848127
 20
1066.759177944848
 10
345.3039219848129
 20
1066.759177944848
  0
DIMENSION
  5
1D06
330
1F
100
AcDbEntity
  8
0
370
    50
100
AcDbDimension
  2
*D50
 10
345.3039219848129
 20
781.7147467481397
 30
0.0
 11
289.6289219848128
 21
791.4647467481398
 31
0.0
 70
    32
  1
<>（A0J2）
 71
     5
 42
82.0
  3
AM_JIS$0
100
AcDbAlignedDimension
 13
427.3039219848127
 23
816.759177944848
 33
0.0
 14
345.3039219848129
 24
816.7591779448482
 34
0.0
100
AcDbRotatedDimension
1001
ACAD_DSTYLE_DIMINSPECT
1070
   396
1000
100%
1070
   395
1000

1070
   394
1070
    33
1070
   393
1070
     0
1001
ACAD
1000
DSTYLE
1002
{
1070
    40
1040
3.0
1002
}
  0
DIMENSION
  5
1D07
330
1F
100
AcDbEntity
  8
0
370
    50
100
AcDbDimension
  2
*D51
 10
502.8039219848126
 20
760.9480647898562
 30
0.0
 11
366.5539219848128
 21
760.9480647898562
 31
0.0
 70
   160
  1
<>（増加寸法）
 71
     5
 42
75.5000000000001
  3
AM_JIS$0
100
AcDbAlignedDimension
 13
427.3039219848127
 23
816.759177944848
 33
0.0
 14
502.8039219848126
 24
1030.159177944848
 34
0.0
100
AcDbRotatedDimension
1001
ACAD_DSTYLE_DIMINSPECT
1070
   396
1000
100%
1070
   395
1000

1070
   394
1070
    33
1070
   393
1070
     0
1001
ACAD
1000
DSTYLE
1002
{
1070
   271
1070
     0
1070
    40
1040
3.0
1002
}
  0
LINE
  5
1D08
330
1F
100
AcDbEntity
  8
0
370
    50
100
AcDbLine
 10
568.3847898514957
 20
833.5641779448478
 30
0.0
 11
568.3847898514957
 21
833.4541779448477
 31
0.0
  0
LINE
  5
1D09
330
1F
100
AcDbEntity
  8
0
370
    50
100
AcDbLine
 10
568.3297898514958
 20
833.5091779448477
 30
0.0
 11
568.4397898514959
 21
833.5091779448477
 31
0.0
  0
LINE
  5
1D0A
330
1F
100
AcDbEntity
  8
0
370
    50
100
AcDbLine
 10
568.3847898514957
 20
835.6191779448476
 30
0.0
 11
568.3847898514957
 21
833.7201779448477
 31
0.0
  0
LINE
  5
1D0B
330
1F
100
AcDbEntity
  8
0
370
    50
100
AcDbLine
 10
568.3847898514957
 20
833.2981779448477
 30
0.0
 11
568.3847898514957
 21
831.3991779448477
 31
0.0
  0
LINE
  5
1D0C
330
1F
100
AcDbEntity
  8
0
370
    50
100
AcDbLine
 10
566.2747898514957
 20
833.5091779448477
 30
0.0
 11
568.1737898514957
 21
833.5091779448477
 31
0.0
  0
LINE
  5
1D0D
330
1F
100
AcDbEntity
  8
0
370
    50
100
AcDbLine
 10
568.5957898514957
 20
833.5091779448477
 30
0.0
 11
570.4947898514957
 21
833.5091779448477
 31
0.0
  0
LINE
  5
1D0E
330
1F
100
AcDbEntity
  8
0
370
    50
100
AcDbLine
 10
559.8847898514958
 20
992.0641779448475
 30
0.0
 11
559.8847898514958
 21
991.9541779448476
 31
0.0
  0
LINE
  5
1D0F
330
1F
100
AcDbEntity
  8
0
370
    50
100
AcDbLine
 10
559.8297898514958
 20
992.0091779448476
 30
0.0
 11
559.9397898514959
 21
992.0091779448476
 31
0.0
  0
LINE
  5
1D10
330
1F
100
AcDbEntity
  8
0
370
    50
100
AcDbLine
 10
559.8847898514958
 20
994.1191779448475
 30
0.0
 11
559.8847898514958
 21
992.2201779448476
 31
0.0
  0
LINE
  5
1D11
330
1F
100
AcDbEntity
  8
0
370
    50
100
AcDbLine
 10
559.8847898514958
 20
991.7981779448476
 30
0.0
 11
559.8847898514958
 21
989.8991779448476
 31
0.0
  0
LINE
  5
1D12
330
1F
100
AcDbEntity
  8
0
370
    50
100
AcDbLine
 10
557.7747898514959
 20
992.0091779448476
 30
0.0
 11
559.6737898514959
 21
992.0091779448476
 31
0.0
  0
LINE
  5
1D13
330
1F
100
AcDbEntity
  8
0
370
    50
100
AcDbLine
 10
560.0957898514958
 20
992.0091779448476
 30
0.0
 11
561.994789851496
 21
992.0091779448476
 31
0.0
  0
LINE
  5
1D14
330
1F
100
AcDbEntity
  8
0
370
    50
100
AcDbLine
 10
567.8847898514957
 20
981.0591779448476
 30
0.0
 11
568.8847898514957
 21
981.0591779448476
 31
0.0
  0
LINE
  5
1D15
330
1F
100
AcDbEntity
  8
0
370
    50
100
AcDbLine
 10
567.8847898514957
 20
978.0591779448478
 30
0.0
 11
567.8847898514957
 21
981.0591779448476
 31
0.0
  0
LINE
  5
1D16
330
1F
100
AcDbEntity
  8
0
370
    50
100
AcDbLine
 10
568.8847898514957
 20
978.0591779448478
 30
0.0
 11
567.8847898514957
 21
978.0591779448478
 31
0.0
  0
LINE
  5
1D17
330
1F
100
AcDbEntity
  8
0
370
    50
100
AcDbLine
 10
568.8847898514957
 20
972.4591779448475
 30
0.0
 11
568.8847898514957
 21
969.4591779448478
 31
0.0
  0
LINE
  5
1D18
330
1F
100
AcDbEntity
  8
0
370
    50
100
AcDbLine
 10
567.8847898514957
 20
972.4591779448475
 30
0.0
 11
568.8847898514957
 21
972.4591779448475
 31
0.0
  0
LINE
  5
1D19
330
1F
100
AcDbEntity
  8
0
370
    50
100
AcDbLine
 10
567.8847898514957
 20
969.4591779448478
 30
0.0
 11
567.8847898514957
 21
972.4591779448475
 31
0.0
  0
LINE
  5
1D1A
330
1F
100
AcDbEntity
  8
0
370
    50
100
AcDbLine
 10
568.8847898514957
 20
969.4591779448478
 30
0.0
 11
567.8847898514957
 21
969.4591779448478
 31
0.0
  0
LINE
  5
1D1B
330
1F
100
AcDbEntity
  8
0
370
    50
100
AcDbLine
 10
568.8847898514957
 20
929.4591779448476
 30
0.0
 11
568.8847898514957
 21
926.4591779448478
 31
0.0
  0
LINE
  5
1D1C
330
1F
100
AcDbEntity
  8
0
370
    50
100
AcDbLine
 10
567.8847898514957
 20
929.4591779448476
 30
0.0
 11
568.8847898514957
 21
929.4591779448476
 31
0.0
  0
LINE
  5
1D1D
330
1F
100
AcDbEntity
  8
0
370
    50
100
AcDbLine
 10
567.8847898514957
 20
926.4591779448478
 30
0.0
 11
567.8847898514957
 21
929.4591779448476
 31
0.0
  0
LINE
  5
1D1E
330
1F
100
AcDbEntity
  8
0
370
    50
100
AcDbLine
 10
568.8847898514957
 20
926.4591779448478
 30
0.0
 11
567.8847898514957
 21
926.4591779448478
 31
0.0
  0
LINE
  5
1D1F
330
1F
100
AcDbEntity
  8
0
370
    50
100
AcDbLine
 10
568.8847898514957
 20
920.8591779448475
 30
0.0
 11
568.8847898514957
 21
917.8591779448478
 31
0.0
  0
LINE
  5
1D20
330
1F
100
AcDbEntity
  8
0
370
    50
100
AcDbLine
 10
567.8847898514957
 20
920.8591779448475
 30
0.0
 11
568.8847898514957
 21
920.8591779448475
 31
0.0
  0
LINE
  5
1D21
330
1F
100
AcDbEntity
  8
0
370
    50
100
AcDbLine
 10
567.8847898514957
 20
917.8591779448478
 30
0.0
 11
567.8847898514957
 21
920.8591779448475
 31
0.0
  0
LINE
  5
1D22
330
1F
100
AcDbEntity
  8
0
370
    50
100
AcDbLine
 10
568.8847898514957
 20
917.8591779448478
 30
0.0
 11
567.8847898514957
 21
917.8591779448478
 31
0.0
  0
LINE
  5
1D23
330
1F
100
AcDbEntity
  8
0
370
    50
100
AcDbLine
 10
568.8847898514957
 20
946.6591779448476
 30
0.0
 11
568.8847898514957
 21
943.6591779448475
 31
0.0
  0
LINE
  5
1D24
330
1F
100
AcDbEntity
  8
0
370
    50
100
AcDbLine
 10
567.8847898514957
 20
946.6591779448476
 30
0.0
 11
568.8847898514957
 21
946.6591779448476
 31
0.0
  0
LINE
  5
1D25
330
1F
100
AcDbEntity
  8
0
370
    50
100
AcDbLine
 10
567.8847898514957
 20
943.6591779448475
 30
0.0
 11
567.8847898514957
 21
946.6591779448476
 31
0.0
  0
LINE
  5
1D26
330
1F
100
AcDbEntity
  8
0
370
    50
100
AcDbLine
 10
568.8847898514957
 20
943.6591779448475
 30
0.0
 11
567.8847898514957
 21
943.6591779448475
 31
0.0
  0
LINE
  5
1D27
330
1F
100
AcDbEntity
  8
0
370
    50
100
AcDbLine
 10
568.8847898514957
 20
938.0591779448478
 30
0.0
 11
568.8847898514957
 21
935.0591779448475
 31
0.0
  0
LINE
  5
1D28
330
1F
100
AcDbEntity
  8
0
370
    50
100
AcDbLine
 10
567.8847898514957
 20
938.0591779448478
 30
0.0
 11
568.8847898514957
 21
938.0591779448478
 31
0.0
  0
LINE
  5
1D29
330
1F
100
AcDbEntity
  8
0
370
    50
100
AcDbLine
 10
567.8847898514957
 20
935.0591779448475
 30
0.0
 11
567.8847898514957
 21
938.0591779448478
 31
0.0
  0
LINE
  5
1D2A
330
1F
100
AcDbEntity
  8
0
370
    50
100
AcDbLine
 10
568.8847898514957
 20
935.0591779448475
 30
0.0
 11
567.8847898514957
 21
935.0591779448475
 31
0.0
  0
ARC
  5
1D2B
330
1F
100
AcDbEntity
  8
0
370
    50
100
AcDbCircle
 10
570.8847898514957
 20
993.2591779448475
 30
0.0
 40
1.999999999999999
100
AcDbArc
 50
0.0
 51
90.0
  0
ARC
  5
1D2C
330
1F
100
AcDbEntity
  8
0
370
    50
100
AcDbCircle
 10
570.8847898514957
 20
832.2591779448476
 30
0.0
 40
1.999999999999999
100
AcDbArc
 50
270.0
 51
0.0
  0
ARC
  5
1D2D
330
1F
100
AcDbEntity
  8
0
370
    50
100
AcDbCircle
 10
556.8847898514958
 20
832.2591779448476
 30
0.0
 40
1.999999999999999
100
AcDbArc
 50
180.0
 51
270.0
  0
ARC
  5
1D2E
330
1F
100
AcDbEntity
  8
0
370
    50
100
AcDbCircle
 10
556.8847898514958
 20
993.2591779448475
 30
0.0
 40
1.999999999999999
100
AcDbArc
 50
90.0
 51
180.0
  0
CIRCLE
  5
1D2F
330
1F
100
AcDbEntity
  8
0
370
    50
100
AcDbCircle
 10
568.3847898514957
 20
833.5091779448477
 30
0.0
 40
2.0
  0
CIRCLE
  5
1D30
330
1F
100
AcDbEntity
  8
0
370
    50
100
AcDbCircle
 10
559.8847898514958
 20
992.0091779448476
 30
0.0
 40
2.0
  0
LINE
  5
1D31
102
{ACAD_REACTORS
330
20CE
102
}
330
1F
100
AcDbEntity
  8
0
370
    50
100
AcDbLine
 10
377.3039219848129
 20
1128.159177944848
 30
0.0
 11
371.3039219848129
 21
1128.159177944848
 31
0.0
  0
LINE
  5
1D32
102
{ACAD_REACTORS
330
20CE
102
}
330
1F
100
AcDbEntity
  8
0
370
    50
100
AcDbLine
 10
377.3039219848129
 20
1114.159177944848
 30
0.0
 11
377.3039219848129
 21
1028.159177944848
 31
0.0
  0
LINE
  5
1D33
102
{ACAD_REACTORS
330
20CE
102
}
330
1F
100
AcDbEntity
  8
0
370
    50
100
AcDbLine
 10
377.3039219848129
 20
1028.159177944848
 30
0.0
 11
371.3039219848129
 21
1028.159177944848
 31
0.0
  0
HATCH
  5
1D34
330
1F
100
AcDbEntity
  8
0
370
    50
100
AcDbHatch
 10
0.0
 20
0.0
 30
0.0
210
0.0
220
0.0
230
1.0
  2
DOTS
 70
     0
 71
     1
 91
        2
 92
        1
 93
       14
 72
     1
 10
354.3039219848129
 20
1125.159177944848
 11
352.9039219848128
 21
1125.159177944848
 72
     1
 10
352.9039219848128
 20
1125.159177944848
 11
351.3039219848129
 21
1125.159177944848
 72
     1
 10
351.3039219848129
 20
1125.159177944848
 11
351.3039219848129
 21
1004.159177944848
 72
     1
 10
351.3039219848129
 20
1004.159177944848
 11
352.9039219848128
 21
1004.159177944848
 72
     1
 10
352.9039219848128
 20
1004.159177944848
 11
369.7039219848128
 21
1004.159177944848
 72
     1
 10
369.7039219848128
 20
1004.159177944848
 11
371.3039219848129
 21
1004.159177944848
 72
     1
 10
371.3039219848129
 20
1004.159177944848
 11
371.3039219848129
 21
1006.159177944848
 72
     1
 10
371.3039219848129
 20
1006.159177944848
 11
371.3039219848129
 21
1014.159177944848
 72
     1
 10
371.3039219848129
 20
1014.159177944848
 11
371.3039219848129
 21
1125.159177944848
 72
     1
 10
371.3039219848129
 20
1125.159177944848
 11
369.7039219848128
 21
1125.159177944848
 72
     1
 10
369.7039219848128
 20
1125.159177944848
 11
368.3039219848128
 21
1125.159177944848
 72
     1
 10
368.3039219848128
 20
1125.159177944848
 11
368.3039219848128
 21
1128.159177944848
 72
     1
 10
368.3039219848128
 20
1128.159177944848
 11
354.3039219848129
 21
1128.159177944848
 72
     1
 10
354.3039219848129
 20
1128.159177944848
 11
354.3039219848129
 21
1125.159177944848
 97
       14
330
1D4B
330
1D54
330
1D59
330
1D5C
330
1D50
330
1D51
330
1D5E
330
1D5F
330
1D35
330
1D61
330
1D60
330
1D4E
330
1D4C
330
1D4D
 92
       33
 93
       11
 72
     1
 10
351.3039219848129
 20
826.759177944848
 11
351.3039219848129
 21
1004.159177944848
 72
     1
 10
345.3039219848129
 20
1064.759177944848
 11
345.3039219848129
 21
818.759177944848
 72
     1
 10
345.3039219848129
 20
1066.759177944848
 11
345.3039219848129
 21
1064.759177944848
 72
     1
 10
346.7039219848128
 20
1066.759177944848
 11
345.3039219848129
 21
1066.759177944848
 72
     1
 10
346.7039219848128
 20
1066.759177944848
 11
349.7039219848129
 21
1066.759177944848
 72
     2
 10
349.7039219848129
 20
1065.159177944848
 40
1.6
 50
0.0
 51
90.0
 73
     1
 72
     1
 10
351.3039219848129
 20
816.759177944848
 11
351.3039219848129
 21
826.759177944848
 72
     1
 10
345.3039219848129
 20
818.759177944848
 11
345.3039219848129
 21
816.759177944848
 72
     1
 10
345.3039219848129
 20
816.759177944848
 11
346.7039219848128
 21
816.759177944848
 72
     1
 10
349.7039219848129
 20
816.759177944848
 11
346.7039219848128
 21
816.759177944848
 72
     2
 10
349.7039219848129
 20
818.3591779448482
 40
1.599999999999999
 50
270.0
 51
360.0
 73
     1
 97
       25
330
1D4B
330
1D54
330
1D59
330
1D5C
330
1D50
330
1D51
330
1D5E
330
1D5F
330
1D35
330
1D61
330
1D60
330
1D4E
330
1D4C
330
1D4D
330
1D93
330
1D6F
330
1D6C
330
1D6A
330
1D66
330
1D7C
330
1D96
330
1D69
330
1D68
330
1D72
330
1D79
 75
     0
 76
     1
 52
0.0
 41
2.0
 77
     0
 78
     1
 53
0.0
 43
152.123444429862
 44
805.2791901936004
 45
1.587499999999999
 46
3.174999999999998
 79
     2
 49
0.0
 49
-3.174999999999998
 98
        1
 10
152.123444429862
 20
805.2791901936004
1001
ACAD
1010
0.0
1020
0.0
1030
0.0
  0
LINE
  5
1D35
102
{ACAD_REACTORS
330
1D34
330
20CE
102
}
330
1F
100
AcDbEntity
  8
0
370
    50
100
AcDbLine
 10
371.3039219848129
 20
1125.159177944848
 30
0.0
 11
371.3039219848129
 21
1014.159177944848
 31
0.0
  0
LINE
  5
1D36
102
{ACAD_REACTORS
330
20CE
102
}
330
1F
100
AcDbEntity
  8
0
370
    50
100
AcDbLine
 10
377.3039219848129
 20
1029.159177944848
 30
0.0
 11
377.3039219848129
 21
1128.159177944848
 31
0.0
  0
LINE
  5
1D37
330
1F
100
AcDbEntity
  8
0
370
    50
100
AcDbLine
 10
377.3039219848129
 20
1127.159177944848
 30
0.0
 11
391.3039219848128
 21
1127.159177944848
 31
0.0
  0
LINE
  5
1D38
330
1F
100
AcDbEntity
  8
0
370
    50
100
AcDbLine
 10
377.3039219848129
 20
1029.159177944848
 30
0.0
 11
391.3039219848128
 21
1029.159177944848
 31
0.0
  0
LINE
  5
1D39
330
1F
100
AcDbEntity
  8
0
370
    50
100
AcDbLine
 10
475.3039219848128
 20
1126.159177944848
 30
0.0
 11
475.3039219848128
 21
1111.159177944848
 31
0.0
  0
LINE
  5
1D3A
330
1F
100
AcDbEntity
  8
0
370
    50
100
AcDbLine
 10
391.303921984813
 20
1030.159177944848
 30
0.0
 11
474.3039219848126
 21
1030.159177944848
 31
0.0
  0
LINE
  5
1D3B
330
1F
100
AcDbEntity
  8
0
370
    50
100
AcDbLine
 10
474.3039219848126
 20
1111.159177944848
 30
0.0
 11
475.3039219848128
 21
1111.159177944848
 31
0.0
  0
LINE
  5
1D3C
330
1F
100
AcDbEntity
  8
0
370
    50
100
AcDbLine
 10
474.3039219848126
 20
1030.159177944848
 30
0.0
 11
474.3039219848126
 21
1111.159177944848
 31
0.0
  0
LINE
  5
1D3D
330
1F
100
AcDbEntity
  8
0
370
    50
100
AcDbLine
 10
475.3039219848128
 20
1111.159177944848
 30
0.0
 11
475.3039219848128
 21
1066.159177944848
 31
0.0
  0
LINE
  5
1D3E
330
1F
100
AcDbEntity
  8
0
370
    50
100
AcDbLine
 10
474.3039219848126
 20
1066.159177944848
 30
0.0
 11
475.3039219848128
 21
1066.159177944848
 31
0.0
  0
LINE
  5
1D3F
330
1F
100
AcDbEntity
  8
0
370
    50
100
AcDbLine
 10
475.3039219848128
 20
1064.159177944848
 30
0.0
 11
474.3039219848126
 21
1064.159177944848
 31
0.0
  0
LINE
  5
1D40
330
1F
100
AcDbEntity
  8
0
370
    50
100
AcDbLine
 10
475.3039219848128
 20
1064.159177944848
 30
0.0
 11
475.3039219848128
 21
1050.159177944848
 31
0.0
  0
LINE
  5
1D41
330
1F
100
AcDbEntity
  8
0
370
    50
100
AcDbLine
 10
474.3039219848126
 20
1050.159177944848
 30
0.0
 11
475.3039219848128
 21
1050.159177944848
 31
0.0
  0
LINE
  5
1D42
330
1F
100
AcDbEntity
  8
0
370
    50
100
AcDbLine
 10
475.3039219848128
 20
1047.159177944847
 30
0.0
 11
474.3039219848126
 21
1047.159177944847
 31
0.0
  0
LINE
  5
1D43
330
1F
100
AcDbEntity
  8
0
370
    50
100
AcDbLine
 10
475.3039219848128
 20
1047.159177944847
 30
0.0
 11
475.3039219848128
 21
1033.159177944847
 31
0.0
  0
LINE
  5
1D44
330
1F
100
AcDbEntity
  8
0
370
    50
100
AcDbLine
 10
474.3039219848126
 20
1033.159177944847
 30
0.0
 11
475.3039219848128
 21
1033.159177944847
 31
0.0
  0
LINE
  5
1D45
330
1F
100
AcDbEntity
  8
0
370
    50
100
AcDbLine
 10
420.3039219848126
 20
1064.90182011375
 30
0.0
 11
420.3039219848126
 21
1120.159177944847
 31
0.0
  0
LINE
  5
1D46
330
1F
100
AcDbEntity
  8
0
370
    50
100
AcDbLine
 10
391.303921984813
 20
1064.90182011375
 30
0.0
 11
420.3039219848126
 21
1064.90182011375
 31
0.0
  0
LINE
  5
1D47
330
1F
100
AcDbEntity
  8
0
370
    50
100
AcDbLine
 10
391.303921984813
 20
1126.159177944848
 30
0.0
 11
475.3039219848128
 21
1126.159177944848
 31
0.0
  0
LINE
  5
1D48
330
1F
100
AcDbEntity
  8
0
370
    50
100
AcDbLine
 10
391.3039219848128
 20
1120.159177944847
 30
0.0
 11
391.3039219848128
 21
1127.159177944847
 31
0.0
  0
LINE
  5
1D49
330
1F
100
AcDbEntity
  8
0
370
    50
100
AcDbLine
 10
391.3039219848128
 20
1029.159177944848
 30
0.0
 11
391.3039219848128
 21
1064.90182011375
 31
0.0
  0
LINE
  5
1D4A
330
1F
100
AcDbEntity
  8
0
370
    50
100
AcDbLine
 10
420.3039219848126
 20
1120.159177944847
 30
0.0
 11
391.303921984813
 21
1120.159177944847
 31
0.0
  0
LINE
  5
1D4B
102
{ACAD_REACTORS
330
1D34
102
}
330
1F
100
AcDbEntity
  8
0
370
    50
100
AcDbLine
 10
354.3039219848129
 20
1125.159177944848
 30
0.0
 11
352.9039219848128
 21
1125.159177944848
 31
0.0
  0
LINE
  5
1D4C
102
{ACAD_REACTORS
330
1D34
102
}
330
1F
100
AcDbEntity
  8
0
370
    50
100
AcDbLine
 10
354.3039219848129
 20
1128.159177944848
 30
0.0
 11
368.3039219848128
 21
1128.159177944848
 31
0.0
  0
LINE
  5
1D4D
102
{ACAD_REACTORS
330
1EE8
330
1D34
102
}
330
1F
100
AcDbEntity
  8
0
370
    50
100
AcDbLine
 10
354.3039219848129
 20
1128.159177944848
 30
0.0
 11
354.3039219848129
 21
1125.159177944848
 31
0.0
  0
LINE
  5
1D4E
102
{ACAD_REACTORS
330
1D34
102
}
330
1F
100
AcDbEntity
  8
0
370
    50
100
AcDbLine
 10
368.3039219848128
 20
1125.159177944848
 30
0.0
 11
368.3039219848128
 21
1128.159177944848
 31
0.0
  0
LINE
  5
1D4F
330
1F
100
AcDbEntity
  8
0
370
    50
100
AcDbLine
 10
369.7039219848128
 20
1125.159177944848
 30
0.0
 11
369.7039219848128
 21
1006.159177944848
 31
0.0
  0
LINE
  5
1D50
102
{ACAD_REACTORS
330
1D34
102
}
330
1F
100
AcDbEntity
  8
0
370
    50
100
AcDbLine
 10
352.9039219848128
 20
1004.159177944848
 30
0.0
 11
369.7039219848128
 21
1004.159177944848
 31
0.0
  0
LINE
  5
1D51
102
{ACAD_REACTORS
330
1D34
102
}
330
1F
100
AcDbEntity
  8
0
370
    50
100
AcDbLine
 10
369.7039219848128
 20
1004.159177944848
 30
0.0
 11
371.3039219848129
 21
1004.159177944848
 31
0.0
  0
LINE
  5
1D52
330
1F
100
AcDbEntity
  8
0
370
    50
100
AcDbLine
 10
369.7039219848128
 20
1006.159177944848
 30
0.0
 11
369.7039219848128
 21
1004.159177944848
 31
0.0
  0
LINE
  5
1D53
330
1F
100
AcDbEntity
  8
0
370
    50
100
AcDbLine
 10
371.3039219848129
 20
1006.159177944848
 30
0.0
 11
369.7039219848128
 21
1006.159177944848
 31
0.0
  0
LINE
  5
1D54
102
{ACAD_REACTORS
330
1D34
102
}
330
1F
100
AcDbEntity
  8
0
370
    50
100
AcDbLine
 10
352.9039219848128
 20
1125.159177944848
 30
0.0
 11
351.3039219848129
 21
1125.159177944848
 31
0.0
  0
LINE
  5
1D55
330
1F
100
AcDbEntity
  8
0
370
    50
100
AcDbLine
 10
352.9039219848128
 20
1109.159177944848
 30
0.0
 11
352.9039219848128
 21
1111.159177944848
 31
0.0
  0
LINE
  5
1D56
330
1F
100
AcDbEntity
  8
0
370
    50
100
AcDbLine
 10
351.3039219848129
 20
1123.159177944848
 30
0.0
 11
352.9039219848128
 21
1123.159177944848
 31
0.0
  0
LINE
  5
1D57
330
1F
100
AcDbEntity
  8
0
370
    50
100
AcDbLine
 10
352.9039219848128
 20
1006.159177944848
 30
0.0
 11
352.9039219848128
 21
1125.159177944848
 31
0.0
  0
LINE
  5
1D58
330
1F
100
AcDbEntity
  8
0
370
    50
100
AcDbLine
 10
351.3039219848129
 20
1111.159177944848
 30
0.0
 11
351.3039219848129
 21
1109.159177944848
 31
0.0
  0
LINE
  5
1D59
102
{ACAD_REACTORS
330
1D34
102
}
330
1F
100
AcDbEntity
  8
0
370
    50
100
AcDbLine
 10
351.3039219848129
 20
1004.159177944848
 30
0.0
 11
351.3039219848129
 21
1125.159177944848
 31
0.0
  0
LINE
  5
1D5A
330
1F
100
AcDbEntity
  8
0
370
    50
100
AcDbLine
 10
352.9039219848128
 20
1006.159177944848
 30
0.0
 11
351.3039219848129
 21
1006.159177944848
 31
0.0
  0
LINE
  5
1D5B
330
1F
100
AcDbEntity
  8
0
370
    50
100
AcDbLine
 10
352.9039219848128
 20
1004.159177944848
 30
0.0
 11
352.9039219848128
 21
1006.159177944848
 31
0.0
  0
LINE
  5
1D5C
102
{ACAD_REACTORS
330
1D34
102
}
330
1F
100
AcDbEntity
  8
0
370
    50
100
AcDbLine
 10
351.3039219848129
 20
1004.159177944848
 30
0.0
 11
352.9039219848128
 21
1004.159177944848
 31
0.0
  0
LINE
  5
1D5D
330
1F
100
AcDbEntity
  8
0
370
    50
100
AcDbLine
 10
351.3039219848129
 20
1006.159177944848
 30
0.0
 11
351.3039219848129
 21
1005.059177944848
 31
0.0
  0
LINE
  5
1D5E
102
{ACAD_REACTORS
330
1D34
102
}
330
1F
100
AcDbEntity
  8
0
370
    50
100
AcDbLine
 10
371.3039219848129
 20
1004.159177944848
 30
0.0
 11
371.3039219848129
 21
1006.159177944848
 31
0.0
  0
LINE
  5
1D5F
102
{ACAD_REACTORS
330
1D34
102
}
330
1F
100
AcDbEntity
  8
0
370
    50
100
AcDbLine
 10
371.3039219848129
 20
1014.159177944848
 30
0.0
 11
371.3039219848129
 21
1006.159177944848
 31
0.0
  0
LINE
  5
1D60
102
{ACAD_REACTORS
330
1D34
102
}
330
1F
100
AcDbEntity
  8
0
370
    50
100
AcDbLine
 10
369.7039219848128
 20
1125.159177944848
 30
0.0
 11
368.3039219848128
 21
1125.159177944848
 31
0.0
  0
LINE
  5
1D61
102
{ACAD_REACTORS
330
1D34
102
}
330
1F
100
AcDbEntity
  8
0
370
    50
100
AcDbLine
 10
371.3039219848129
 20
1125.159177944848
 30
0.0
 11
369.7039219848128
 21
1125.159177944848
 31
0.0
  0
LINE
  5
1D62
330
1F
100
AcDbEntity
  8
0
370
    50
100
AcDbLine
 10
369.7039219848128
 20
1123.159177944848
 30
0.0
 11
371.3039219848129
 21
1123.159177944848
 31
0.0
  0
LINE
  5
1D63
330
1F
100
AcDbEntity
  8
0
370
    50
100
AcDbLine
 10
369.7039219848128
 20
1111.159177944848
 30
0.0
 11
369.7039219848128
 21
1109.159177944848
 31
0.0
  0
LINE
  5
1D64
330
1F
100
AcDbEntity
  8
0
370
    50
100
AcDbLine
 10
349.7039219848129
 20
1056.359177944848
 30
0.0
 11
349.7039219848129
 21
1065.159177944848
 31
0.0
  0
LINE
  5
1D65
330
1F
100
AcDbEntity
  8
0
370
    50
100
AcDbLine
 10
349.7039219848129
 20
1065.159177944848
 30
0.0
 11
346.7039219848128
 21
1065.159177944848
 31
0.0
  0
LINE
  5
1D66
102
{ACAD_REACTORS
330
1D34
102
}
330
1F
100
AcDbEntity
  8
0
370
    50
100
AcDbLine
 10
346.7039219848128
 20
1066.759177944848
 30
0.0
 11
349.7039219848129
 21
1066.759177944848
 31
0.0
  0
LINE
  5
1D67
330
1F
100
AcDbEntity
  8
0
370
    50
100
AcDbLine
 10
346.7039219848128
 20
816.759177944848
 30
0.0
 11
346.7039219848128
 21
818.759177944848
 31
0.0
  0
LINE
  5
1D68
102
{ACAD_REACTORS
330
1D34
102
}
330
1F
100
AcDbEntity
  8
0
370
    50
100
AcDbLine
 10
345.3039219848129
 20
816.759177944848
 30
0.0
 11
346.7039219848128
 21
816.759177944848
 31
0.0
  0
LINE
  5
1D69
102
{ACAD_REACTORS
330
1D34
102
}
330
1F
100
AcDbEntity
  8
0
370
    50
100
AcDbLine
 10
345.3039219848129
 20
818.759177944848
 30
0.0
 11
345.3039219848129
 21
816.759177944848
 31
0.0
  0
LINE
  5
1D6A
102
{ACAD_REACTORS
330
1D34
102
}
330
1F
100
AcDbEntity
  8
0
370
    50
100
AcDbLine
 10
346.7039219848128
 20
1066.759177944848
 30
0.0
 11
345.3039219848129
 21
1066.759177944848
 31
0.0
  0
LINE
  5
1D6B
330
1F
100
AcDbEntity
  8
0
370
    50
100
AcDbLine
 10
346.7039219848128
 20
1064.759177944848
 30
0.0
 11
346.7039219848128
 21
1066.759177944848
 31
0.0
  0
LINE
  5
1D6C
102
{ACAD_REACTORS
330
1D34
102
}
330
1F
100
AcDbEntity
  8
0
370
    50
100
AcDbLine
 10
345.3039219848129
 20
1066.759177944848
 30
0.0
 11
345.3039219848129
 21
1064.759177944848
 31
0.0
  0
LINE
  5
1D6D
330
1F
100
AcDbEntity
  8
0
370
    50
100
AcDbLine
 10
346.7039219848128
 20
828.7591779448479
 30
0.0
 11
346.7039219848128
 21
818.759177944848
 31
0.0
  0
LINE
  5
1D6E
330
1F
100
AcDbEntity
  8
0
370
    50
100
AcDbLine
 10
346.7039219848128
 20
818.759177944848
 30
0.0
 11
345.3039219848129
 21
818.759177944848
 31
0.0
  0
LINE
  5
1D6F
102
{ACAD_REACTORS
330
1D34
102
}
330
1F
100
AcDbEntity
  8
0
370
    50
100
AcDbLine
 10
345.3039219848129
 20
1064.759177944848
 30
0.0
 11
345.3039219848129
 21
818.759177944848
 31
0.0
  0
LINE
  5
1D70
330
1F
100
AcDbEntity
  8
0
370
    50
100
AcDbLine
 10
345.3039219848129
 20
1064.759177944848
 30
0.0
 11
346.7039219848128
 21
1064.759177944848
 31
0.0
  0
LINE
  5
1D71
330
1F
100
AcDbEntity
  8
0
370
    50
100
AcDbLine
 10
346.7039219848128
 20
1064.759177944848
 30
0.0
 11
346.7039219848128
 21
1054.759177944848
 31
0.0
  0
LINE
  5
1D72
102
{ACAD_REACTORS
330
1D34
102
}
330
1F
100
AcDbEntity
  8
0
370
    50
100
AcDbLine
 10
349.7039219848129
 20
816.759177944848
 30
0.0
 11
346.7039219848128
 21
816.759177944848
 31
0.0
  0
LINE
  5
1D73
330
1F
100
AcDbEntity
  8
0
370
    50
100
AcDbLine
 10
346.7039219848128
 20
818.3591779448482
 30
0.0
 11
349.7039219848129
 21
818.3591779448482
 31
0.0
  0
LINE
  5
1D74
330
1F
100
AcDbEntity
  8
0
370
    50
100
AcDbLine
 10
349.7039219848129
 20
818.3591779448482
 30
0.0
 11
349.7039219848129
 21
827.1591779448481
 31
0.0
  0
LINE
  5
1D75
330
1F
100
AcDbEntity
  8
0
370
    50
100
AcDbLine
 10
346.7039219848128
 20
827.1591779448481
 30
0.0
 11
349.7039219848129
 21
827.1591779448481
 31
0.0
  0
LINE
  5
1D76
330
1F
100
AcDbEntity
  8
0
370
    50
100
AcDbLine
 10
349.7039219848129
 20
1056.359177944848
 30
0.0
 11
346.7039219848128
 21
1056.359177944848
 31
0.0
  0
LINE
  5
1D77
330
1F
100
AcDbEntity
  8
0
370
    50
100
AcDbLine
 10
351.3039219848129
 20
826.759177944848
 30
0.0
 11
351.3039219848129
 21
818.3591779448482
 31
0.0
  0
LINE
  5
1D78
330
1F
100
AcDbEntity
  8
0
370
    50
100
AcDbLine
 10
351.3039219848129
 20
998.759177944848
 30
0.0
 11
351.3039219848129
 21
1004.159177944848
 31
0.0
  0
ARC
  5
1D79
102
{ACAD_REACTORS
330
1D34
102
}
330
1F
100
AcDbEntity
  8
0
370
    50
100
AcDbCircle
 10
349.7039219848129
 20
818.3591779448482
 30
0.0
 40
1.599999999999999
100
AcDbArc
 50
270.0
 51
0.0
  0
ARC
  5
1D7A
330
1F
100
AcDbEntity
  8
0
370
    50
100
AcDbCircle
 10
349.7039219848129
 20
828.7591779448479
 30
0.0
 40
1.599999999999989
100
AcDbArc
 50
270.0
 51
0.0
  0
ARC
  5
1D7B
330
1F
100
AcDbEntity
  8
0
370
    50
100
AcDbCircle
 10
349.7039219848129
 20
1054.759177944848
 30
0.0
 40
1.599999999999999
100
AcDbArc
 50
0.0
 51
90.0
  0
ARC
  5
1D7C
102
{ACAD_REACTORS
330
1D34
102
}
330
1F
100
AcDbEntity
  8
0
370
    50
100
AcDbCircle
 10
349.7039219848129
 20
1065.159177944848
 30
0.0
 40
1.6
100
AcDbArc
 50
0.0
 51
90.0
  0
LINE
  5
1D7D
330
1F
100
AcDbEntity
  8
0
370
    50
100
AcDbLine
 10
403.3039219848125
 20
816.759177944848
 30
0.0
 11
403.3039219848126
 21
855.7591779448481
 31
0.0
  0
LINE
  5
1D7E
330
1F
100
AcDbEntity
  8
0
370
    50
100
AcDbLine
 10
421.9039219848126
 20
853.7591779448479
 30
0.0
 11
421.9039219848125
 21
818.759177944848
 31
0.0
  0
LINE
  5
1D7F
330
1F
100
AcDbEntity
  8
0
370
    50
100
AcDbLine
 10
403.3039219848126
 20
855.7591779448481
 30
0.0
 11
419.9039219848128
 21
855.7591779448481
 31
0.0
  0
LINE
  5
1D80
330
1F
100
AcDbEntity
  8
0
370
    50
100
AcDbLine
 10
392.3039219848129
 20
855.7591779448481
 30
0.0
 11
403.3039219848126
 21
855.7591779448481
 31
0.0
  0
LINE
  5
1D81
330
1F
100
AcDbEntity
  8
0
370
    50
100
AcDbLine
 10
403.3039219848125
 20
816.759177944848
 30
0.0
 11
392.3039219848129
 21
816.759177944848
 31
0.0
  0
LINE
  5
1D82
330
1F
100
AcDbEntity
  8
0
370
    50
100
AcDbLine
 10
419.9039219848128
 20
816.759177944848
 30
0.0
 11
403.3039219848125
 21
816.759177944848
 31
0.0
  0
ARC
  5
1D83
330
1F
100
AcDbEntity
  8
0
370
    50
100
AcDbCircle
 10
419.9039219848128
 20
853.7591779448479
 30
0.0
 40
1.999999999999999
100
AcDbArc
 50
0.0
 51
90.0
  0
ARC
  5
1D84
330
1F
100
AcDbEntity
  8
0
370
    50
100
AcDbCircle
 10
419.9039219848128
 20
818.759177944848
 30
0.0
 40
1.999999999999999
100
AcDbArc
 50
270.0
 51
0.0
  0
LINE
  5
1D85
330
1F
100
AcDbEntity
  8
0
370
    50
100
AcDbLine
 10
363.3039219848129
 20
998.7591779448475
 30
0.0
 11
392.3039219848129
 21
998.7591779448475
 31
0.0
  0
LINE
  5
1D86
330
1F
100
AcDbEntity
  8
0
370
    50
100
AcDbLine
 10
363.3039219848129
 20
826.7591779448476
 30
0.0
 11
363.3039219848129
 21
828.7591779448476
 31
0.0
  0
LINE
  5
1D87
330
1F
100
AcDbEntity
  8
0
370
    50
100
AcDbLine
 10
363.3039219848129
 20
996.7591779448476
 30
0.0
 11
363.3039219848129
 21
998.7591779448475
 31
0.0
  0
LINE
  5
1D88
330
1F
100
AcDbEntity
  8
0
370
    50
100
AcDbLine
 10
363.3039219848129
 20
996.7591779448476
 30
0.0
 11
392.3039219848129
 21
996.7591779448476
 31
0.0
  0
LINE
  5
1D89
330
1F
100
AcDbEntity
  8
0
370
    50
100
AcDbLine
 10
392.3039219848129
 20
828.7591779448476
 30
0.0
 11
363.3039219848129
 21
828.7591779448476
 31
0.0
  0
LINE
  5
1D8A
330
1F
100
AcDbEntity
  8
0
370
    50
100
AcDbLine
 10
392.3039219848129
 20
826.7591779448476
 30
0.0
 11
392.3039219848129
 21
828.7591779448476
 31
0.0
  0
LINE
  5
1D8B
330
1F
100
AcDbEntity
  8
0
370
    50
100
AcDbLine
 10
392.3039219848129
 20
996.7591779448476
 30
0.0
 11
392.3039219848129
 21
828.7591779448476
 31
0.0
  0
LINE
  5
1D8C
330
1F
100
AcDbEntity
  8
0
370
    50
100
AcDbLine
 10
392.3039219848129
 20
996.7591779448476
 30
0.0
 11
392.3039219848129
 21
998.7591779448475
 31
0.0
  0
LINE
  5
1D8D
330
1F
100
AcDbEntity
  8
0
370
    50
100
AcDbLine
 10
363.3039219848129
 20
826.7591779448476
 30
0.0
 11
392.3039219848129
 21
826.7591779448476
 31
0.0
  0
LINE
  5
1D8E
330
1F
100
AcDbEntity
  8
0
370
    50
100
AcDbLine
 10
363.3039219848129
 20
826.7591779448476
 30
0.0
 11
363.3039219848129
 21
816.7591779448477
 31
0.0
  0
LINE
  5
1D8F
330
1F
100
AcDbEntity
  8
0
370
    50
100
AcDbLine
 10
392.3039219848129
 20
826.7591779448476
 30
0.0
 11
392.3039219848129
 21
816.7591779448477
 31
0.0
  0
LINE
  5
1D90
330
1F
100
AcDbEntity
  8
0
370
    50
100
AcDbLine
 10
363.3039219848129
 20
816.7591779448477
 30
0.0
 11
392.3039219848129
 21
816.7591779448477
 31
0.0
  0
LINE
  5
1D91
330
1F
100
AcDbEntity
  8
0
370
    50
100
AcDbLine
 10
351.3039219848129
 20
998.759177944848
 30
0.0
 11
363.3039219848129
 21
998.759177944848
 31
0.0
  0
LINE
  5
1D92
330
1F
100
AcDbEntity
  8
0
370
    50
100
AcDbLine
 10
363.3039219848129
 20
826.759177944848
 30
0.0
 11
363.3039219848129
 21
998.759177944848
 31
0.0
  0
LINE
  5
1D93
102
{ACAD_REACTORS
330
1D34
102
}
330
1F
100
AcDbEntity
  8
0
370
    50
100
AcDbLine
 10
351.3039219848129
 20
826.759177944848
 30
0.0
 11
351.3039219848129
 21
1004.159177944848
 31
0.0
  0
LINE
  5
1D94
330
1F
100
AcDbEntity
  8
0
370
    50
100
AcDbLine
 10
363.3039219848129
 20
826.759177944848
 30
0.0
 11
363.3039219848129
 21
816.759177944848
 31
0.0
  0
LINE
  5
1D95
330
1F
100
AcDbEntity
  8
0
370
    50
100
AcDbLine
 10
363.3039219848129
 20
816.759177944848
 30
0.0
 11
351.3039219848129
 21
816.759177944848
 31
0.0
  0
LINE
  5
1D96
102
{ACAD_REACTORS
330
1D34
102
}
330
1F
100
AcDbEntity
  8
0
370
    50
100
AcDbLine
 10
351.3039219848129
 20
816.759177944848
 30
0.0
 11
351.3039219848129
 21
826.759177944848
 31
0.0
  0
LINE
  5
1D97
330
1F
100
AcDbEntity
  8
0
370
    50
100
AcDbLine
 10
351.3039219848129
 20
826.759177944848
 30
0.0
 11
363.3039219848129
 21
826.759177944848
 31
0.0
  0
LINE
  5
1D98
330
1F
100
AcDbEntity
  8
0
370
    50
100
AcDbLine
 10
370.3039219848129
 20
995.259177944848
 30
0.0
 11
363.3039219848129
 21
995.259177944848
 31
0.0
  0
LINE
  5
1D99
330
1F
100
AcDbEntity
  8
0
370
    50
100
AcDbLine
 10
359.3039219848129
 20
832.2591779448476
 30
0.0
 11
359.3039219848129
 21
993.2591779448475
 31
0.0
  0
LINE
  5
1D9A
330
1F
100
AcDbEntity
  8
0
370
    50
100
AcDbLine
 10
363.3039219848129
 20
830.2591779448475
 30
0.0
 11
370.3039219848129
 21
830.2591779448475
 31
0.0
  0
LINE
  5
1D9B
330
1F
100
AcDbEntity
  8
0
370
    50
100
AcDbLine
 10
370.3039219848129
 20
832.2591779448476
 30
0.0
 11
370.3039219848129
 21
993.2591779448475
 31
0.0
  0
LINE
  5
1D9C
330
1F
100
AcDbEntity
  8
0
370
    50
100
AcDbLine
 10
370.3039219848129
 20
832.2591779448476
 30
0.0
 11
370.3039219848129
 21
830.2591779448475
 31
0.0
  0
LINE
  5
1D9D
330
1F
100
AcDbEntity
  8
0
370
    50
100
AcDbLine
 10
370.3039219848129
 20
995.259177944848
 30
0.0
 11
370.3039219848129
 21
993.2591779448475
 31
0.0
  0
LINE
  5
1D9E
330
1F
100
AcDbEntity
  8
0
370
    50
100
AcDbLine
 10
715.8847898514961
 20
1128.159177944847
 30
0.0
 11
525.8847898514962
 21
1128.159177944848
 31
0.0
  0
LINE
  5
1D9F
330
1F
100
AcDbEntity
  8
0
370
    50
100
AcDbLine
 10
715.8847898514961
 20
1028.159177944847
 30
0.0
 11
715.8847898514961
 21
1128.159177944847
 31
0.0
  0
HATCH
  5
1DA0
330
1F
100
AcDbEntity
  8
0
370
    50
100
AcDbHatch
 10
0.0
 20
0.0
 30
0.0
210
0.0
220
0.0
230
1.0
  2
DOTS
 70
     0
 71
     1
 91
        1
 92
       33
 93
        6
 72
     1
 10
674.3847898514957
 20
998.7591779448475
 11
686.8847898514957
 21
998.7591779448475
 72
     1
 10
686.8847898514957
 20
998.7591779448475
 11
686.8847898514957
 21
1028.159177944848
 72
     1
 10
585.3847898514957
 20
998.7591779448475
 11
674.3847898514957
 21
998.7591779448475
 72
     1
 10
525.8847898514962
 20
1028.159177944848
 11
686.8847898514957
 21
1028.159177944847
 72
     1
 10
554.8847898514958
 20
998.7591779448475
 11
585.3847898514957
 21
998.7591779448475
 72
     1
 10
554.8847898514958
 20
1028.159177944848
 11
554.8847898514958
 21
998.759177944848
 97
        6
330
1E3C
330
1E11
330
1E4D
330
1DA1
330
1E43
330
1E10
 75
     0
 76
     1
 52
0.0
 41
2.0
 77
     0
 78
     1
 53
0.0
 43
152.123444429862
 44
805.2791901936004
 45
1.587499999999999
 46
3.174999999999998
 79
     2
 49
0.0
 49
-3.174999999999998
 98
        1
 10
152.123444429862
 20
805.2791901936004
1001
ACAD
1010
0.0
1020
0.0
1030
0.0
  0
LINE
  5
1DA1
102
{ACAD_REACTORS
330
1DA0
102
}
330
1F
100
AcDbEntity
  8
0
370
    50
100
AcDbLine
 10
525.8847898514962
 20
1028.159177944848
 30
0.0
 11
686.8847898514957
 21
1028.159177944847
 31
0.0
  0
LINE
  5
1DA2
330
1F
100
AcDbEntity
  8
0
370
    50
100
AcDbLine
 10
525.8847898514962
 20
1128.159177944848
 30
0.0
 11
525.8847898514962
 21
1127.159177944847
 31
0.0
  0
LINE
  5
1DA3
330
1F
100
AcDbEntity
  8
0
370
    50
100
AcDbLine
 10
525.8847898514962
 20
1029.159177944848
 30
0.0
 11
525.8847898514962
 21
1028.159177944848
 31
0.0
  0
LINE
  5
1DA4
330
1F
100
AcDbEntity
  8
0
370
    50
100
AcDbLine
 10
604.2847898514959
 20
1111.159177944847
 30
0.0
 11
604.2847898514959
 21
1126.159177944847
 31
0.0
  0
LINE
  5
1DA5
330
1F
100
AcDbEntity
  8
0
370
    50
100
AcDbLine
 10
659.084789851496
 20
1112.159177944848
 30
0.0
 11
659.084789851496
 21
1030.159177944848
 31
0.0
  0
LINE
  5
1DA6
330
1F
100
AcDbEntity
  8
0
370
    50
100
AcDbLine
 10
686.4847898514961
 20
1112.159177944848
 30
0.0
 11
686.4847898514961
 21
1030.159177944848
 31
0.0
  0
LINE
  5
1DA7
330
1F
100
AcDbEntity
  8
0
370
    50
100
AcDbLine
 10
714.8847898514961
 20
1112.159177944848
 30
0.0
 11
714.8847898514961
 21
1030.159177944848
 31
0.0
  0
LINE
  5
1DA8
330
1F
100
AcDbEntity
  8
0
370
    50
100
AcDbLine
 10
687.4847898514961
 20
1030.159177944848
 30
0.0
 11
714.8847898514961
 21
1030.159177944848
 31
0.0
  0
LINE
  5
1DA9
330
1F
100
AcDbEntity
  8
0
370
    50
100
AcDbLine
 10
660.084789851496
 20
1030.159177944848
 30
0.0
 11
686.4847898514961
 21
1030.159177944848
 31
0.0
  0
LINE
  5
1DAA
330
1F
100
AcDbEntity
  8
0
370
    50
100
AcDbLine
 10
632.684789851496
 20
1030.159177944848
 30
0.0
 11
659.084789851496
 21
1030.159177944848
 31
0.0
  0
LINE
  5
1DAB
330
1F
100
AcDbEntity
  8
0
370
    50
100
AcDbLine
 10
632.684789851496
 20
1030.159177944848
 30
0.0
 11
632.684789851496
 21
1112.159177944848
 31
0.0
  0
LINE
  5
1DAC
330
1F
100
AcDbEntity
  8
0
370
    50
100
AcDbLine
 10
659.084789851496
 20
1112.159177944848
 30
0.0
 11
659.084789851496
 21
1126.159177944847
 31
0.0
  0
LINE
  5
1DAD
330
1F
100
AcDbEntity
  8
0
370
    50
100
AcDbLine
 10
632.684789851496
 20
1112.159177944848
 30
0.0
 11
659.084789851496
 21
1112.159177944848
 31
0.0
  0
LINE
  5
1DAE
330
1F
100
AcDbEntity
  8
0
370
    50
100
AcDbLine
 10
632.684789851496
 20
1126.159177944847
 30
0.0
 11
632.684789851496
 21
1112.159177944848
 31
0.0
  0
LINE
  5
1DAF
330
1F
100
AcDbEntity
  8
0
370
    50
100
AcDbLine
 10
660.084789851496
 20
1030.159177944848
 30
0.0
 11
660.0847898514961
 21
1112.159177944848
 31
0.0
  0
LINE
  5
1DB0
330
1F
100
AcDbEntity
  8
0
370
    50
100
AcDbLine
 10
686.4847898514961
 20
1112.159177944848
 30
0.0
 11
686.4847898514961
 21
1126.159177944847
 31
0.0
  0
LINE
  5
1DB1
330
1F
100
AcDbEntity
  8
0
370
    50
100
AcDbLine
 10
660.084789851496
 20
1112.159177944848
 30
0.0
 11
686.4847898514961
 21
1112.159177944848
 31
0.0
  0
LINE
  5
1DB2
330
1F
100
AcDbEntity
  8
0
370
    50
100
AcDbLine
 10
660.084789851496
 20
1126.159177944847
 30
0.0
 11
660.084789851496
 21
1112.159177944848
 31
0.0
  0
LINE
  5
1DB3
330
1F
100
AcDbEntity
  8
0
370
    50
100
AcDbLine
 10
687.4847898514961
 20
1030.159177944848
 30
0.0
 11
687.4847898514961
 21
1112.159177944848
 31
0.0
  0
LINE
  5
1DB4
330
1F
100
AcDbEntity
  8
0
370
    50
100
AcDbLine
 10
714.8847898514961
 20
1126.159177944847
 30
0.0
 11
714.8847898514961
 21
1112.159177944848
 31
0.0
  0
LINE
  5
1DB5
330
1F
100
AcDbEntity
  8
0
370
    50
100
AcDbLine
 10
687.4847898514961
 20
1112.159177944848
 30
0.0
 11
714.8847898514961
 21
1112.159177944848
 31
0.0
  0
LINE
  5
1DB6
330
1F
100
AcDbEntity
  8
0
370
    50
100
AcDbLine
 10
687.4847898514961
 20
1126.159177944847
 30
0.0
 11
687.4847898514961
 21
1112.159177944848
 31
0.0
  0
LINE
  5
1DB7
330
1F
100
AcDbEntity
  8
0
370
    50
100
AcDbLine
 10
714.8847898514961
 20
1126.159177944847
 30
0.0
 11
687.4847898514961
 21
1126.159177944847
 31
0.0
  0
LINE
  5
1DB8
330
1F
100
AcDbEntity
  8
0
370
    50
100
AcDbLine
 10
659.084789851496
 20
1126.159177944847
 30
0.0
 11
632.684789851496
 21
1126.159177944847
 31
0.0
  0
LINE
  5
1DB9
330
1F
100
AcDbEntity
  8
0
370
    50
100
AcDbLine
 10
686.4847898514961
 20
1126.159177944847
 30
0.0
 11
660.084789851496
 21
1126.159177944847
 31
0.0
  0
LINE
  5
1DBA
330
1F
100
AcDbEntity
  8
0
370
    50
100
AcDbLine
 10
545.8847898514961
 20
1126.159177944847
 30
0.0
 11
545.8847898514961
 21
1111.159177944847
 31
0.0
  0
LINE
  5
1DBB
330
1F
100
AcDbEntity
  8
0
370
    50
100
AcDbLine
 10
545.8847898514958
 20
1111.159177944847
 30
0.0
 11
604.2847898514959
 21
1111.159177944847
 31
0.0
  0
LINE
  5
1DBC
330
1F
100
AcDbEntity
  8
0
370
    50
100
AcDbLine
 10
545.8847898514958
 20
1030.159177944848
 30
0.0
 11
545.8847898514961
 21
1111.159177944847
 31
0.0
  0
LINE
  5
1DBD
330
1F
100
AcDbEntity
  8
0
370
    50
100
AcDbLine
 10
604.2847898514959
 20
1111.159177944847
 30
0.0
 11
604.2847898514959
 21
1030.159177944848
 31
0.0
  0
LINE
  5
1DBE
330
1F
100
AcDbEntity
  8
0
370
    50
100
AcDbLine
 10
604.2847898514959
 20
1030.159177944848
 30
0.0
 11
545.8847898514961
 21
1030.159177944848
 31
0.0
  0
LINE
  5
1DBF
330
1F
100
AcDbEntity
  8
0
370
    50
100
AcDbLine
 10
631.684789851496
 20
1126.159177944847
 30
0.0
 11
605.2847898514959
 21
1126.159177944847
 31
0.0
  0
LINE
  5
1DC0
330
1F
100
AcDbEntity
  8
0
370
    50
100
AcDbLine
 10
631.684789851496
 20
1066.159177944848
 30
0.0
 11
631.684789851496
 21
1126.159177944847
 31
0.0
  0
LINE
  5
1DC1
330
1F
100
AcDbEntity
  8
0
370
    50
100
AcDbLine
 10
631.684789851496
 20
1066.159177944848
 30
0.0
 11
631.684789851496
 21
1064.159177944848
 31
0.0
  0
LINE
  5
1DC2
330
1F
100
AcDbEntity
  8
0
370
    50
100
AcDbLine
 10
605.2847898514959
 20
1066.159177944848
 30
0.0
 11
631.684789851496
 21
1066.159177944848
 31
0.0
  0
LINE
  5
1DC3
330
1F
100
AcDbEntity
  8
0
370
    50
100
AcDbLine
 10
631.684789851496
 20
1033.159177944847
 30
0.0
 11
631.684789851496
 21
1047.159177944847
 31
0.0
  0
LINE
  5
1DC4
330
1F
100
AcDbEntity
  8
0
370
    50
100
AcDbLine
 10
631.684789851496
 20
1064.159177944848
 30
0.0
 11
605.2847898514959
 21
1064.159177944848
 31
0.0
  0
LINE
  5
1DC5
330
1F
100
AcDbEntity
  8
0
370
    50
100
AcDbLine
 10
631.684789851496
 20
1050.159177944848
 30
0.0
 11
631.684789851496
 21
1064.159177944848
 31
0.0
  0
LINE
  5
1DC6
330
1F
100
AcDbEntity
  8
0
370
    50
100
AcDbLine
 10
631.684789851496
 20
1050.159177944848
 30
0.0
 11
631.684789851496
 21
1047.159177944847
 31
0.0
  0
LINE
  5
1DC7
330
1F
100
AcDbEntity
  8
0
370
    50
100
AcDbLine
 10
605.2847898514959
 20
1050.159177944848
 30
0.0
 11
631.684789851496
 21
1050.159177944848
 31
0.0
  0
LINE
  5
1DC8
330
1F
100
AcDbEntity
  8
0
370
    50
100
AcDbLine
 10
631.684789851496
 20
1047.159177944847
 30
0.0
 11
605.2847898514959
 21
1047.159177944847
 31
0.0
  0
LINE
  5
1DC9
330
1F
100
AcDbEntity
  8
0
370
    50
100
AcDbLine
 10
605.2847898514959
 20
1126.159177944847
 30
0.0
 11
605.2847898514959
 21
1066.159177944848
 31
0.0
  0
LINE
  5
1DCA
330
1F
100
AcDbEntity
  8
0
370
    50
100
AcDbLine
 10
605.2847898514959
 20
1064.159177944848
 30
0.0
 11
605.2847898514959
 21
1066.159177944848
 31
0.0
  0
LINE
  5
1DCB
330
1F
100
AcDbEntity
  8
0
370
    50
100
AcDbLine
 10
605.2847898514959
 20
1064.159177944848
 30
0.0
 11
605.2847898514959
 21
1050.159177944848
 31
0.0
  0
LINE
  5
1DCC
330
1F
100
AcDbEntity
  8
0
370
    50
100
AcDbLine
 10
605.2847898514959
 20
1047.159177944847
 30
0.0
 11
605.2847898514959
 21
1050.159177944848
 31
0.0
  0
LINE
  5
1DCD
330
1F
100
AcDbEntity
  8
0
370
    50
100
AcDbLine
 10
605.2847898514959
 20
1047.159177944847
 30
0.0
 11
605.2847898514959
 21
1033.159177944847
 31
0.0
  0
LINE
  5
1DCE
330
1F
100
AcDbEntity
  8
0
370
    50
100
AcDbLine
 10
631.684789851496
 20
1033.159177944847
 30
0.0
 11
631.684789851496
 21
1030.159177944848
 31
0.0
  0
LINE
  5
1DCF
330
1F
100
AcDbEntity
  8
0
370
    50
100
AcDbLine
 10
631.6847898514961
 20
1030.159177944848
 30
0.0
 11
605.2847898514959
 21
1030.159177944848
 31
0.0
  0
LINE
  5
1DD0
330
1F
100
AcDbEntity
  8
0
370
    50
100
AcDbLine
 10
605.2847898514959
 20
1030.159177944848
 30
0.0
 11
605.2847898514959
 21
1033.159177944847
 31
0.0
  0
LINE
  5
1DD1
330
1F
100
AcDbEntity
  8
0
370
    50
100
AcDbLine
 10
605.2847898514959
 20
1033.159177944847
 30
0.0
 11
631.684789851496
 21
1033.159177944847
 31
0.0
  0
LINE
  5
1DD2
330
1F
100
AcDbEntity
  8
0
370
    50
100
AcDbLine
 10
623.684789851496
 20
1119.159177944847
 30
0.0
 11
626.684789851496
 21
1119.159177944847
 31
0.0
  0
LINE
  5
1DD3
330
1F
100
AcDbEntity
  8
0
370
    50
100
AcDbLine
 10
626.684789851496
 20
1119.159177944847
 30
0.0
 11
626.684789851496
 21
1117.159177944847
 31
0.0
  0
LINE
  5
1DD4
330
1F
100
AcDbEntity
  8
0
370
    50
100
AcDbLine
 10
626.684789851496
 20
1117.159177944847
 30
0.0
 11
623.684789851496
 21
1117.159177944847
 31
0.0
  0
LINE
  5
1DD5
330
1F
100
AcDbEntity
  8
0
370
    50
100
AcDbLine
 10
623.684789851496
 20
1117.159177944847
 30
0.0
 11
623.684789851496
 21
1119.159177944847
 31
0.0
  0
LINE
  5
1DD6
330
1F
100
AcDbEntity
  8
0
370
    50
100
AcDbLine
 10
623.684789851496
 20
1116.159177944847
 30
0.0
 11
626.684789851496
 21
1116.159177944847
 31
0.0
  0
LINE
  5
1DD7
330
1F
100
AcDbEntity
  8
0
370
    50
100
AcDbLine
 10
626.684789851496
 20
1116.159177944847
 30
0.0
 11
626.684789851496
 21
1114.159177944848
 31
0.0
  0
LINE
  5
1DD8
330
1F
100
AcDbEntity
  8
0
370
    50
100
AcDbLine
 10
626.684789851496
 20
1114.159177944848
 30
0.0
 11
623.684789851496
 21
1114.159177944848
 31
0.0
  0
LINE
  5
1DD9
330
1F
100
AcDbEntity
  8
0
370
    50
100
AcDbLine
 10
623.684789851496
 20
1114.159177944848
 30
0.0
 11
623.684789851496
 21
1116.159177944847
 31
0.0
  0
LINE
  5
1DDA
330
1F
100
AcDbEntity
  8
0
370
    50
100
AcDbLine
 10
623.684789851496
 20
1113.159177944847
 30
0.0
 11
626.684789851496
 21
1113.159177944847
 31
0.0
  0
LINE
  5
1DDB
330
1F
100
AcDbEntity
  8
0
370
    50
100
AcDbLine
 10
626.684789851496
 20
1113.159177944847
 30
0.0
 11
626.684789851496
 21
1111.159177944847
 31
0.0
  0
LINE
  5
1DDC
330
1F
100
AcDbEntity
  8
0
370
    50
100
AcDbLine
 10
626.684789851496
 20
1111.159177944847
 30
0.0
 11
623.684789851496
 21
1111.159177944847
 31
0.0
  0
LINE
  5
1DDD
330
1F
100
AcDbEntity
  8
0
370
    50
100
AcDbLine
 10
623.684789851496
 20
1111.159177944847
 30
0.0
 11
623.684789851496
 21
1113.159177944847
 31
0.0
  0
LINE
  5
1DDE
330
1F
100
AcDbEntity
  8
0
370
    50
100
AcDbLine
 10
623.684789851496
 20
1110.159177944847
 30
0.0
 11
626.684789851496
 21
1110.159177944847
 31
0.0
  0
LINE
  5
1DDF
330
1F
100
AcDbEntity
  8
0
370
    50
100
AcDbLine
 10
626.684789851496
 20
1110.159177944847
 30
0.0
 11
626.684789851496
 21
1108.159177944847
 31
0.0
  0
LINE
  5
1DE0
330
1F
100
AcDbEntity
  8
0
370
    50
100
AcDbLine
 10
626.684789851496
 20
1108.159177944847
 30
0.0
 11
623.684789851496
 21
1108.159177944847
 31
0.0
  0
LINE
  5
1DE1
330
1F
100
AcDbEntity
  8
0
370
    50
100
AcDbLine
 10
623.684789851496
 20
1108.159177944847
 30
0.0
 11
623.684789851496
 21
1110.159177944847
 31
0.0
  0
LINE
  5
1DE2
330
1F
100
AcDbEntity
  8
0
370
    50
100
AcDbLine
 10
623.684789851496
 20
1107.159177944847
 30
0.0
 11
626.684789851496
 21
1107.159177944847
 31
0.0
  0
LINE
  5
1DE3
330
1F
100
AcDbEntity
  8
0
370
    50
100
AcDbLine
 10
626.684789851496
 20
1107.159177944847
 30
0.0
 11
626.684789851496
 21
1105.159177944847
 31
0.0
  0
LINE
  5
1DE4
330
1F
100
AcDbEntity
  8
0
370
    50
100
AcDbLine
 10
626.684789851496
 20
1105.159177944847
 30
0.0
 11
623.684789851496
 21
1105.159177944847
 31
0.0
  0
LINE
  5
1DE5
330
1F
100
AcDbEntity
  8
0
370
    50
100
AcDbLine
 10
623.684789851496
 20
1105.159177944847
 30
0.0
 11
623.684789851496
 21
1107.159177944847
 31
0.0
  0
LINE
  5
1DE6
330
1F
100
AcDbEntity
  8
0
370
    50
100
AcDbLine
 10
623.684789851496
 20
1104.159177944848
 30
0.0
 11
626.684789851496
 21
1104.159177944848
 31
0.0
  0
LINE
  5
1DE7
330
1F
100
AcDbEntity
  8
0
370
    50
100
AcDbLine
 10
626.684789851496
 20
1104.159177944848
 30
0.0
 11
626.684789851496
 21
1102.159177944847
 31
0.0
  0
LINE
  5
1DE8
330
1F
100
AcDbEntity
  8
0
370
    50
100
AcDbLine
 10
626.684789851496
 20
1102.159177944847
 30
0.0
 11
623.684789851496
 21
1102.159177944847
 31
0.0
  0
LINE
  5
1DE9
330
1F
100
AcDbEntity
  8
0
370
    50
100
AcDbLine
 10
623.684789851496
 20
1102.159177944847
 30
0.0
 11
623.684789851496
 21
1104.159177944848
 31
0.0
  0
LINE
  5
1DEA
330
1F
100
AcDbEntity
  8
0
370
    50
100
AcDbLine
 10
525.8847898514958
 20
1064.90182011375
 30
0.0
 11
525.8847898514958
 21
1120.159177944847
 31
0.0
  0
LINE
  5
1DEB
330
1F
100
AcDbEntity
  8
0
370
    50
100
AcDbLine
 10
525.8847898514958
 20
1064.90182011375
 30
0.0
 11
545.8847898514958
 21
1064.90182011375
 31
0.0
  0
LINE
  5
1DEC
330
1F
100
AcDbEntity
  8
0
370
    50
100
AcDbLine
 10
604.2847898514959
 20
1126.159177944847
 30
0.0
 11
545.8847898514958
 21
1126.159177944847
 31
0.0
  0
LINE
  5
1DED
330
1F
100
AcDbEntity
  8
0
370
    50
100
AcDbLine
 10
525.8847898514958
 20
1120.159177944847
 30
0.0
 11
525.8847898514958
 21
1127.159177944847
 31
0.0
  0
LINE
  5
1DEE
330
1F
100
AcDbEntity
  8
0
370
    50
100
AcDbLine
 10
525.8847898514958
 20
1127.159177944847
 30
0.0
 11
714.8847898514961
 21
1127.159177944847
 31
0.0
  0
LINE
  5
1DEF
330
1F
100
AcDbEntity
  8
0
370
    50
100
AcDbLine
 10
714.8847898514958
 20
1127.159177944847
 30
0.0
 11
714.8847898514958
 21
1126.159177944847
 31
0.0
  0
LINE
  5
1DF0
330
1F
100
AcDbEntity
  8
0
370
    50
100
AcDbLine
 10
714.8847898514961
 20
1030.159177944848
 30
0.0
 11
714.8847898514961
 21
1029.159177944848
 31
0.0
  0
LINE
  5
1DF1
330
1F
100
AcDbEntity
  8
0
370
    50
100
AcDbLine
 10
714.8847898514961
 20
1029.159177944848
 30
0.0
 11
525.8847898514958
 21
1029.159177944848
 31
0.0
  0
LINE
  5
1DF2
330
1F
100
AcDbEntity
  8
0
370
    50
100
AcDbLine
 10
525.8847898514958
 20
1029.159177944848
 30
0.0
 11
525.8847898514958
 21
1064.90182011375
 31
0.0
  0
LINE
  5
1DF3
330
1F
100
AcDbEntity
  8
0
370
    50
100
AcDbLine
 10
545.8847898514961
 20
1120.159177944847
 30
0.0
 11
525.8847898514958
 21
1120.159177944847
 31
0.0
  0
LINE
  5
1DF4
330
1F
100
AcDbEntity
  8
0
370
    50
100
AcDbLine
 10
700.8847898514958
 20
1103.159177944847
 30
0.0
 11
708.8847898514958
 21
1103.159177944847
 31
0.0
  0
LINE
  5
1DF5
330
1F
100
AcDbEntity
  8
0
370
    50
100
AcDbLine
 10
708.8847898514958
 20
1103.159177944847
 30
0.0
 11
708.8847898514958
 21
1033.159177944847
 31
0.0
  0
LINE
  5
1DF6
330
1F
100
AcDbEntity
  8
0
370
    50
100
AcDbLine
 10
708.8847898514958
 20
1033.159177944847
 30
0.0
 11
700.8847898514958
 21
1033.159177944847
 31
0.0
  0
LINE
  5
1DF7
330
1F
100
AcDbEntity
  8
0
370
    50
100
AcDbLine
 10
700.8847898514958
 20
1033.159177944847
 30
0.0
 11
700.8847898514958
 21
1103.159177944847
 31
0.0
  0
LINE
  5
1DF8
330
1F
100
AcDbEntity
  8
0
370
    50
100
AcDbLine
 10
673.4847898514961
 20
1103.159177944848
 30
0.0
 11
681.4847898514961
 21
1103.159177944848
 31
0.0
  0
LINE
  5
1DF9
330
1F
100
AcDbEntity
  8
0
370
    50
100
AcDbLine
 10
681.4847898514961
 20
1103.159177944848
 30
0.0
 11
681.4847898514961
 21
1033.159177944848
 31
0.0
  0
LINE
  5
1DFA
330
1F
100
AcDbEntity
  8
0
370
    50
100
AcDbLine
 10
681.4847898514961
 20
1033.159177944848
 30
0.0
 11
673.4847898514961
 21
1033.159177944848
 31
0.0
  0
LINE
  5
1DFB
330
1F
100
AcDbEntity
  8
0
370
    50
100
AcDbLine
 10
673.4847898514961
 20
1033.159177944848
 30
0.0
 11
673.4847898514961
 21
1103.159177944848
 31
0.0
  0
LINE
  5
1DFC
330
1F
100
AcDbEntity
  8
0
370
    50
100
AcDbLine
 10
646.084789851496
 20
1103.159177944848
 30
0.0
 11
654.084789851496
 21
1103.159177944848
 31
0.0
  0
LINE
  5
1DFD
330
1F
100
AcDbEntity
  8
0
370
    50
100
AcDbLine
 10
654.084789851496
 20
1103.159177944848
 30
0.0
 11
654.084789851496
 21
1033.159177944848
 31
0.0
  0
LINE
  5
1DFE
330
1F
100
AcDbEntity
  8
0
370
    50
100
AcDbLine
 10
654.084789851496
 20
1033.159177944848
 30
0.0
 11
646.084789851496
 21
1033.159177944848
 31
0.0
  0
LINE
  5
1DFF
330
1F
100
AcDbEntity
  8
0
370
    50
100
AcDbLine
 10
646.084789851496
 20
1033.159177944848
 30
0.0
 11
646.0847898514961
 21
1103.159177944848
 31
0.0
  0
LINE
  5
1E00
330
1F
100
AcDbEntity
  8
0
370
    50
100
AcDbLine
 10
662.7847898514959
 20
1004.159177944847
 30
0.0
 11
662.7847898514959
 21
1028.159177944848
 31
0.0
  0
LINE
  5
1E01
330
1F
100
AcDbEntity
  8
0
370
    50
100
AcDbLine
 10
686.384789851496
 20
1006.159177944847
 30
0.0
 11
684.3847898514957
 21
1004.159177944847
 31
0.0
  0
LINE
  5
1E02
330
1F
100
AcDbEntity
  8
0
370
    50
100
AcDbLine
 10
684.3847898514957
 20
1004.159177944848
 30
0.0
 11
662.7847898514959
 21
1004.159177944848
 31
0.0
  0
LINE
  5
1E03
330
1F
100
AcDbEntity
  8
0
370
    50
100
AcDbLine
 10
686.384789851496
 20
1028.159177944848
 30
0.0
 11
686.384789851496
 21
1006.159177944848
 31
0.0
  0
LINE
  5
1E04
330
1F
100
AcDbEntity
  8
0
370
    50
100
AcDbLine
 10
578.984789851496
 20
1028.159177944848
 30
0.0
 11
578.984789851496
 21
1004.159177944848
 31
0.0
  0
LINE
  5
1E05
330
1F
100
AcDbEntity
  8
0
370
    50
100
AcDbLine
 10
557.3847898514958
 20
1004.159177944848
 30
0.0
 11
578.984789851496
 21
1004.159177944848
 31
0.0
  0
LINE
  5
1E06
330
1F
100
AcDbEntity
  8
0
370
    50
100
AcDbLine
 10
557.3847898514958
 20
1004.159177944847
 30
0.0
 11
555.3847898514958
 21
1006.159177944847
 31
0.0
  0
LINE
  5
1E07
330
1F
100
AcDbEntity
  8
0
370
    50
100
AcDbLine
 10
555.3847898514958
 20
1028.159177944848
 30
0.0
 11
555.3847898514958
 21
1006.159177944847
 31
0.0
  0
HATCH
  5
1E08
330
1F
100
AcDbEntity
  8
0
370
    50
100
AcDbHatch
 10
0.0
 20
0.0
 30
0.0
210
0.0
220
0.0
230
1.0
  2
DOTS
 70
     0
 71
     1
 91
        1
 92
        1
 93
        5
 72
     1
 10
671.8847898514957
 20
826.7591779448476
 11
671.8847898514957
 21
816.7591779448477
 72
     1
 10
671.8847898514957
 20
816.759177944848
 11
684.8847898514957
 21
816.759177944848
 72
     1
 10
684.8847898514957
 20
816.759177944848
 11
686.8847898514957
 21
818.7591779448476
 72
     1
 10
686.8847898514957
 20
818.7591779448476
 11
686.8847898514957
 21
826.7591779448476
 72
     1
 10
686.8847898514957
 20
826.7591779448476
 11
671.8847898514957
 21
826.7591779448476
 97
        5
330
1E4A
330
1E09
330
1E0D
330
1E0E
330
1E46
 75
     0
 76
     1
 52
0.0
 41
2.0
 77
     0
 78
     1
 53
0.0
 43
152.123444429862
 44
805.2791901936004
 45
1.587499999999999
 46
3.174999999999998
 79
     2
 49
0.0
 49
-3.174999999999998
 98
        1
 10
152.123444429862
 20
805.2791901936004
1001
ACAD
1010
0.0
1020
0.0
1030
0.0
  0
LINE
  5
1E09
102
{ACAD_REACTORS
330
1E08
102
}
330
1F
100
AcDbEntity
  8
0
370
    50
100
AcDbLine
 10
684.8847898514957
 20
816.759177944848
 30
0.0
 11
671.8847898514957
 21
816.759177944848
 31
0.0
  0
HATCH
  5
1E0A
330
1F
100
AcDbEntity
  8
0
370
    50
100
AcDbHatch
 10
0.0
 20
0.0
 30
0.0
210
0.0
220
0.0
230
1.0
  2
DOTS
 70
     0
 71
     1
 91
        1
 92
        1
 93
        5
 72
     1
 10
569.8847898514957
 20
826.7591779448476
 11
569.8847898514957
 21
816.7591779448477
 72
     1
 10
569.8847898514957
 20
816.759177944848
 11
556.8847898514958
 21
816.759177944848
 72
     1
 10
556.8847898514958
 20
816.759177944848
 11
554.8847898514958
 21
818.759177944848
 72
     1
 10
554.8847898514958
 20
818.759177944848
 11
554.8847898514958
 21
826.7591779448476
 72
     1
 10
554.8847898514958
 20
826.7591779448476
 11
569.8847898514957
 21
826.7591779448476
 97
        5
330
1E49
330
1E0B
330
1E0C
330
1E0F
330
1E45
 75
     0
 76
     1
 52
0.0
 41
2.0
 77
     0
 78
     1
 53
0.0
 43
152.123444429862
 44
805.2791901936004
 45
1.587499999999999
 46
3.174999999999998
 79
     2
 49
0.0
 49
-3.174999999999998
 98
        1
 10
152.123444429862
 20
805.2791901936004
1001
ACAD
1010
0.0
1020
0.0
1030
0.0
  0
LINE
  5
1E0B
102
{ACAD_REACTORS
330
1E0A
102
}
330
1F
100
AcDbEntity
  8
0
370
    50
100
AcDbLine
 10
569.8847898514957
 20
816.759177944848
 30
0.0
 11
556.8847898514958
 21
816.759177944848
 31
0.0
  0
LINE
  5
1E0C
102
{ACAD_REACTORS
330
1E0A
102
}
330
1F
100
AcDbEntity
  8
0
370
    50
100
AcDbLine
 10
556.8847898514958
 20
816.759177944848
 30
0.0
 11
554.8847898514958
 21
818.759177944848
 31
0.0
  0
LINE
  5
1E0D
102
{ACAD_REACTORS
330
1E08
102
}
330
1F
100
AcDbEntity
  8
0
370
    50
100
AcDbLine
 10
686.8847898514957
 20
818.7591779448476
 30
0.0
 11
684.8847898514957
 21
816.759177944848
 31
0.0
  0
LINE
  5
1E0E
102
{ACAD_REACTORS
330
1E08
102
}
330
1F
100
AcDbEntity
  8
0
370
    50
100
AcDbLine
 10
686.8847898514957
 20
818.7591779448476
 30
0.0
 11
686.8847898514957
 21
826.7591779448476
 31
0.0
  0
LINE
  5
1E0F
102
{ACAD_REACTORS
330
1E0A
102
}
330
1F
100
AcDbEntity
  8
0
370
    50
100
AcDbLine
 10
554.8847898514958
 20
826.7591779448476
 30
0.0
 11
554.8847898514958
 21
818.759177944848
 31
0.0
  0
LINE
  5
1E10
102
{ACAD_REACTORS
330
1DA0
102
}
330
1F
100
AcDbEntity
  8
0
370
    50
100
AcDbLine
 10
554.8847898514958
 20
1028.159177944848
 30
0.0
 11
554.8847898514958
 21
998.759177944848
 31
0.0
  0
LINE
  5
1E11
102
{ACAD_REACTORS
330
1DA0
102
}
330
1F
100
AcDbEntity
  8
0
370
    50
100
AcDbLine
 10
686.8847898514957
 20
998.7591779448475
 30
0.0
 11
686.8847898514957
 21
1028.159177944848
 31
0.0
  0
CIRCLE
  5
1E12
330
1F
100
AcDbEntity
  8
0
370
    50
100
AcDbCircle
 10
681.8847898514957
 20
822.7591779448481
 30
0.0
 40
2.5
  0
CIRCLE
  5
1E13
330
1F
100
AcDbEntity
  8
0
370
    50
100
AcDbCircle
 10
559.8847898514958
 20
822.7591779448481
 30
0.0
 40
2.5
  0
LINE
  5
1E14
330
1F
100
AcDbEntity
  8
0
370
    50
100
AcDbLine
 10
576.3847898514957
 20
816.7591779448477
 30
0.0
 11
576.3847898514957
 21
855.7591779448479
 31
0.0
  0
LINE
  5
1E15
330
1F
100
AcDbEntity
  8
0
370
    50
100
AcDbLine
 10
669.3847898514956
 20
855.7591779448479
 30
0.0
 11
669.3847898514956
 21
816.7591779448477
 31
0.0
  0
LINE
  5
1E16
330
1F
100
AcDbEntity
  8
0
370
    50
100
AcDbLine
 10
587.3847898514957
 20
853.7591779448479
 30
0.0
 11
587.3847898514957
 21
818.7591779448476
 31
0.0
  0
LINE
  5
1E17
330
1F
100
AcDbEntity
  8
0
370
    50
100
AcDbLine
 10
658.3847898514956
 20
818.7591779448476
 30
0.0
 11
658.3847898514956
 21
853.7591779448479
 31
0.0
  0
LINE
  5
1E18
330
1F
100
AcDbEntity
  8
0
370
    50
100
AcDbLine
 10
576.3847898514957
 20
855.7591779448479
 30
0.0
 11
587.3847898514957
 21
855.7591779448479
 31
0.0
  0
LINE
  5
1E19
330
1F
100
AcDbEntity
  8
0
370
    50
100
AcDbLine
 10
658.3847898514956
 20
855.7591779448477
 30
0.0
 11
669.3847898514956
 21
855.7591779448477
 31
0.0
  0
LINE
  5
1E1A
330
1F
100
AcDbEntity
  8
0
370
    50
100
AcDbLine
 10
589.2847898514957
 20
855.7591779448479
 30
0.0
 11
587.3847898514956
 21
855.7591779448479
 31
0.0
  0
LINE
  5
1E1B
330
1F
100
AcDbEntity
  8
0
370
    50
100
AcDbLine
 10
598.9847898514957
 20
855.7591779448479
 30
0.0
 11
589.2847898514957
 21
855.7591779448479
 31
0.0
  0
LINE
  5
1E1C
330
1F
100
AcDbEntity
  8
0
370
    50
100
AcDbLine
 10
600.7847898514957
 20
855.7591779448479
 30
0.0
 11
598.9847898514956
 21
855.7591779448479
 31
0.0
  0
LINE
  5
1E1D
330
1F
100
AcDbEntity
  8
0
370
    50
100
AcDbLine
 10
610.4847898514957
 20
855.7591779448479
 30
0.0
 11
600.7847898514957
 21
855.7591779448479
 31
0.0
  0
LINE
  5
1E1E
330
1F
100
AcDbEntity
  8
0
370
    50
100
AcDbLine
 10
612.2847898514955
 20
855.7591779448479
 30
0.0
 11
610.4847898514956
 21
855.7591779448479
 31
0.0
  0
LINE
  5
1E1F
330
1F
100
AcDbEntity
  8
0
370
    50
100
AcDbLine
 10
621.9847898514957
 20
855.7591779448479
 30
0.0
 11
612.2847898514955
 21
855.7591779448479
 31
0.0
  0
LINE
  5
1E20
330
1F
100
AcDbEntity
  8
0
370
    50
100
AcDbLine
 10
623.7847898514957
 20
855.7591779448479
 30
0.0
 11
621.9847898514956
 21
855.7591779448479
 31
0.0
  0
LINE
  5
1E21
330
1F
100
AcDbEntity
  8
0
370
    50
100
AcDbLine
 10
633.4847898514957
 20
855.7591779448479
 30
0.0
 11
623.7847898514957
 21
855.7591779448479
 31
0.0
  0
LINE
  5
1E22
330
1F
100
AcDbEntity
  8
0
370
    50
100
AcDbLine
 10
635.2847898514957
 20
855.7591779448479
 30
0.0
 11
633.4847898514956
 21
855.7591779448479
 31
0.0
  0
LINE
  5
1E23
330
1F
100
AcDbEntity
  8
0
370
    50
100
AcDbLine
 10
644.9847898514957
 20
855.7591779448479
 30
0.0
 11
635.2847898514957
 21
855.7591779448479
 31
0.0
  0
LINE
  5
1E24
330
1F
100
AcDbEntity
  8
0
370
    50
100
AcDbLine
 10
646.7847898514957
 20
855.7591779448479
 30
0.0
 11
644.9847898514956
 21
855.7591779448479
 31
0.0
  0
LINE
  5
1E25
330
1F
100
AcDbEntity
  8
0
370
    50
100
AcDbLine
 10
656.4847898514957
 20
855.7591779448479
 30
0.0
 11
646.7847898514957
 21
855.7591779448479
 31
0.0
  0
LINE
  5
1E26
330
1F
100
AcDbEntity
  8
0
370
    50
100
AcDbLine
 10
658.3847898514956
 20
855.7591779448477
 30
0.0
 11
656.4847898514957
 21
855.7591779448477
 31
0.0
  0
LINE
  5
1E27
330
1F
100
AcDbEntity
  8
0
370
    50
100
AcDbLine
 10
669.3847898514956
 20
816.7591779448477
 30
0.0
 11
658.3847898514956
 21
816.7591779448477
 31
0.0
  0
LINE
  5
1E28
330
1F
100
AcDbEntity
  8
0
370
    50
100
AcDbLine
 10
587.3847898514956
 20
816.7591779448477
 30
0.0
 11
576.3847898514955
 21
816.7591779448477
 31
0.0
  0
LINE
  5
1E29
330
1F
100
AcDbEntity
  8
0
370
    50
100
AcDbLine
 10
656.4847898514957
 20
816.7591779448477
 30
0.0
 11
658.3847898514956
 21
816.7591779448477
 31
0.0
  0
LINE
  5
1E2A
330
1F
100
AcDbEntity
  8
0
370
    50
100
AcDbLine
 10
646.7847898514957
 20
816.7591779448477
 30
0.0
 11
656.4847898514957
 21
816.7591779448477
 31
0.0
  0
LINE
  5
1E2B
330
1F
100
AcDbEntity
  8
0
370
    50
100
AcDbLine
 10
644.9847898514956
 20
816.7591779448477
 30
0.0
 11
646.7847898514957
 21
816.7591779448477
 31
0.0
  0
LINE
  5
1E2C
330
1F
100
AcDbEntity
  8
0
370
    50
100
AcDbLine
 10
635.2847898514957
 20
816.7591779448477
 30
0.0
 11
644.9847898514957
 21
816.7591779448477
 31
0.0
  0
LINE
  5
1E2D
330
1F
100
AcDbEntity
  8
0
370
    50
100
AcDbLine
 10
633.4847898514956
 20
816.7591779448477
 30
0.0
 11
635.2847898514957
 21
816.7591779448477
 31
0.0
  0
LINE
  5
1E2E
330
1F
100
AcDbEntity
  8
0
370
    50
100
AcDbLine
 10
623.7847898514957
 20
816.7591779448477
 30
0.0
 11
633.4847898514957
 21
816.7591779448477
 31
0.0
  0
LINE
  5
1E2F
330
1F
100
AcDbEntity
  8
0
370
    50
100
AcDbLine
 10
621.9847898514956
 20
816.7591779448477
 30
0.0
 11
623.7847898514957
 21
816.7591779448477
 31
0.0
  0
LINE
  5
1E30
330
1F
100
AcDbEntity
  8
0
370
    50
100
AcDbLine
 10
612.2847898514955
 20
816.7591779448477
 30
0.0
 11
621.9847898514957
 21
816.7591779448477
 31
0.0
  0
LINE
  5
1E31
330
1F
100
AcDbEntity
  8
0
370
    50
100
AcDbLine
 10
610.4847898514956
 20
816.7591779448477
 30
0.0
 11
612.2847898514955
 21
816.7591779448477
 31
0.0
  0
LINE
  5
1E32
330
1F
100
AcDbEntity
  8
0
370
    50
100
AcDbLine
 10
600.7847898514957
 20
816.7591779448477
 30
0.0
 11
610.4847898514957
 21
816.7591779448477
 31
0.0
  0
LINE
  5
1E33
330
1F
100
AcDbEntity
  8
0
370
    50
100
AcDbLine
 10
598.9847898514956
 20
816.7591779448477
 30
0.0
 11
600.7847898514957
 21
816.7591779448477
 31
0.0
  0
LINE
  5
1E34
330
1F
100
AcDbEntity
  8
0
370
    50
100
AcDbLine
 10
589.2847898514957
 20
816.7591779448477
 30
0.0
 11
598.9847898514957
 21
816.7591779448477
 31
0.0
  0
LINE
  5
1E35
330
1F
100
AcDbEntity
  8
0
370
    50
100
AcDbLine
 10
587.3847898514956
 20
816.7591779448477
 30
0.0
 11
589.2847898514957
 21
816.7591779448477
 31
0.0
  0
CIRCLE
  5
1E36
330
1F
100
AcDbEntity
  8
0
370
    50
100
AcDbCircle
 10
580.8847898514954
 20
836.7591779448479
 30
0.0
 40
3.0
  0
CIRCLE
  5
1E37
330
1F
100
AcDbEntity
  8
0
370
    50
100
AcDbCircle
 10
664.8847898514956
 20
836.7591779448479
 30
0.0
 40
3.0
  0
LINE
  5
1E38
330
1F
100
AcDbEntity
  8
0
370
    50
100
AcDbLine
 10
658.3847898514956
 20
855.7591779448479
 30
0.0
 11
658.3847898514956
 21
853.7591779448479
 31
0.0
  0
LINE
  5
1E39
330
1F
100
AcDbEntity
  8
0
370
    50
100
AcDbLine
 10
587.3847898514957
 20
853.7591779448479
 30
0.0
 11
587.3847898514957
 21
855.7591779448479
 31
0.0
  0
LINE
  5
1E3A
330
1F
100
AcDbEntity
  8
0
370
    50
100
AcDbLine
 10
658.3847898514956
 20
818.7591779448476
 30
0.0
 11
658.3847898514956
 21
816.7591779448477
 31
0.0
  0
LINE
  5
1E3B
330
1F
100
AcDbEntity
  8
0
370
    50
100
AcDbLine
 10
587.3847898514956
 20
816.7591779448477
 30
0.0
 11
587.3847898514956
 21
818.7591779448476
 31
0.0
  0
LINE
  5
1E3C
102
{ACAD_REACTORS
330
1DA0
102
}
330
1F
100
AcDbEntity
  8
0
370
    50
100
AcDbLine
 10
674.3847898514957
 20
998.7591779448475
 30
0.0
 11
686.8847898514957
 21
998.7591779448475
 31
0.0
  0
LINE
  5
1E3D
330
1F
100
AcDbEntity
  8
0
370
    50
100
AcDbLine
 10
686.8847898514957
 20
998.7591779448475
 30
0.0
 11
686.8847898514957
 21
826.7591779448476
 31
0.0
  0
LINE
  5
1E3E
330
1F
100
AcDbEntity
  8
0
370
    50
100
AcDbLine
 10
554.8847898514958
 20
826.7591779448476
 30
0.0
 11
554.8847898514958
 21
828.7591779448476
 31
0.0
  0
LINE
  5
1E3F
330
1F
100
AcDbEntity
  8
0
370
    50
100
AcDbLine
 10
573.3847898514957
 20
828.7591779448476
 30
0.0
 11
554.8847898514958
 21
828.7591779448476
 31
0.0
  0
LINE
  5
1E40
330
1F
100
AcDbEntity
  8
0
370
    50
100
AcDbLine
 10
573.3847898514957
 20
996.7591779448476
 30
0.0
 11
573.3847898514957
 21
828.7591779448476
 31
0.0
  0
LINE
  5
1E41
330
1F
100
AcDbEntity
  8
0
370
    50
100
AcDbLine
 10
554.8847898514958
 20
996.7591779448476
 30
0.0
 11
573.3847898514957
 21
996.7591779448476
 31
0.0
  0
LINE
  5
1E42
330
1F
100
AcDbEntity
  8
0
370
    50
100
AcDbLine
 10
554.8847898514958
 20
996.7591779448476
 30
0.0
 11
554.8847898514958
 21
998.7591779448475
 31
0.0
  0
LINE
  5
1E43
102
{ACAD_REACTORS
330
1DA0
102
}
330
1F
100
AcDbEntity
  8
0
370
    50
100
AcDbLine
 10
554.8847898514958
 20
998.7591779448475
 30
0.0
 11
585.3847898514957
 21
998.7591779448475
 31
0.0
  0
LINE
  5
1E44
330
1F
100
AcDbEntity
  8
0
370
    50
100
AcDbLine
 10
674.3847898514957
 20
968.7591779448476
 30
0.0
 11
585.3847898514957
 21
968.7591779448476
 31
0.0
  0
LINE
  5
1E45
102
{ACAD_REACTORS
330
1E0A
102
}
330
1F
100
AcDbEntity
  8
0
370
    50
100
AcDbLine
 10
569.8847898514957
 20
826.7591779448476
 30
0.0
 11
554.8847898514958
 21
826.7591779448476
 31
0.0
  0
LINE
  5
1E46
102
{ACAD_REACTORS
330
1E08
102
}
330
1F
100
AcDbEntity
  8
0
370
    50
100
AcDbLine
 10
686.8847898514957
 20
826.7591779448476
 30
0.0
 11
671.8847898514957
 21
826.7591779448476
 31
0.0
  0
LINE
  5
1E47
330
1F
100
AcDbEntity
  8
0
370
    50
100
AcDbLine
 10
569.8847898514957
 20
816.7591779448477
 30
0.0
 11
576.3847898514955
 21
816.7591779448477
 31
0.0
  0
LINE
  5
1E48
330
1F
100
AcDbEntity
  8
0
370
    50
100
AcDbLine
 10
669.3847898514956
 20
816.7591779448477
 30
0.0
 11
671.8847898514957
 21
816.7591779448477
 31
0.0
  0
LINE
  5
1E49
102
{ACAD_REACTORS
330
1E0A
102
}
330
1F
100
AcDbEntity
  8
0
370
    50
100
AcDbLine
 10
569.8847898514957
 20
826.7591779448476
 30
0.0
 11
569.8847898514957
 21
816.7591779448477
 31
0.0
  0
LINE
  5
1E4A
102
{ACAD_REACTORS
330
1E08
102
}
330
1F
100
AcDbEntity
  8
0
370
    50
100
AcDbLine
 10
671.8847898514957
 20
826.7591779448476
 30
0.0
 11
671.8847898514957
 21
816.7591779448477
 31
0.0
  0
LINE
  5
1E4B
330
1F
100
AcDbEntity
  8
0
370
    50
100
AcDbLine
 10
674.3847898514957
 20
998.7591779448475
 30
0.0
 11
674.3847898514957
 21
968.7591779448476
 31
0.0
  0
LINE
  5
1E4C
330
1F
100
AcDbEntity
  8
0
370
    50
100
AcDbLine
 10
585.3847898514957
 20
968.7591779448476
 30
0.0
 11
585.3847898514957
 21
998.7591779448475
 31
0.0
  0
LINE
  5
1E4D
102
{ACAD_REACTORS
330
1DA0
102
}
330
1F
100
AcDbEntity
  8
0
370
    50
100
AcDbLine
 10
585.3847898514957
 20
998.7591779448475
 30
0.0
 11
674.3847898514957
 21
998.7591779448475
 31
0.0
  0
LINE
  5
1E4E
330
1F
100
AcDbEntity
  8
0
370
    50
100
AcDbLine
 10
664.3847898514957
 20
973.7591779448475
 30
0.0
 11
595.3847898514957
 21
973.7591779448475
 31
0.0
  0
LINE
  5
1E4F
330
1F
100
AcDbEntity
  8
0
370
    50
100
AcDbLine
 10
664.3847898514957
 20
981.7591779448475
 30
0.0
 11
664.3847898514957
 21
973.7591779448475
 31
0.0
  0
LINE
  5
1E50
330
1F
100
AcDbEntity
  8
0
370
    50
100
AcDbLine
 10
595.3847898514957
 20
981.7591779448475
 30
0.0
 11
664.3847898514957
 21
981.7591779448475
 31
0.0
  0
LINE
  5
1E51
330
1F
100
AcDbEntity
  8
0
370
    50
100
AcDbLine
 10
595.3847898514957
 20
973.7591779448475
 30
0.0
 11
595.3847898514957
 21
981.7591779448475
 31
0.0
  0
LINE
  5
1E52
330
1F
100
AcDbEntity
  8
0
370
    50
100
AcDbLine
 10
664.3847898514957
 20
985.7591779448476
 30
0.0
 11
595.3847898514957
 21
985.7591779448476
 31
0.0
  0
LINE
  5
1E53
330
1F
100
AcDbEntity
  8
0
370
    50
100
AcDbLine
 10
664.3847898514957
 20
993.7591779448476
 30
0.0
 11
664.3847898514957
 21
985.7591779448476
 31
0.0
  0
LINE
  5
1E54
330
1F
100
AcDbEntity
  8
0
370
    50
100
AcDbLine
 10
595.3847898514957
 20
993.7591779448476
 30
0.0
 11
664.3847898514957
 21
993.7591779448476
 31
0.0
  0
LINE
  5
1E55
330
1F
100
AcDbEntity
  8
0
370
    50
100
AcDbLine
 10
595.3847898514957
 20
985.7591779448476
 30
0.0
 11
595.3847898514957
 21
993.7591779448476
 31
0.0
  0
LINE
  5
1E56
330
1F
100
AcDbEntity
  8
0
370
    50
100
AcDbLine
 10
554.8847898514956
 20
828.7591779448476
 30
0.0
 11
554.8847898514956
 21
832.2591779448476
 31
0.0
  0
LINE
  5
1E57
330
1F
100
AcDbEntity
  8
0
370
    50
100
AcDbLine
 10
554.8847898514958
 20
993.2591779448475
 30
0.0
 11
554.8847898514958
 21
996.7591779448476
 31
0.0
  0
LINE
  5
1E58
330
1F
100
AcDbEntity
  8
0
370
    50
100
AcDbLine
 10
566.8847898514957
 20
996.7591779448481
 30
0.0
 11
566.8847898514957
 21
995.259177944848
 31
0.0
  0
LINE
  5
1E59
330
1F
100
AcDbEntity
  8
0
370
    50
100
AcDbLine
 10
556.8847898514958
 20
828.7591779448479
 30
0.0
 11
556.8847898514958
 21
830.2591779448475
 31
0.0
  0
LINE
  5
1E5A
330
1F
100
AcDbEntity
  8
0
370
    50
100
AcDbLine
 10
556.8847898514958
 20
995.259177944848
 30
0.0
 11
570.8847898514957
 21
995.259177944848
 31
0.0
  0
LINE
  5
1E5B
330
1F
100
AcDbEntity
  8
0
370
    50
100
AcDbLine
 10
572.8847898514957
 20
993.2591779448475
 30
0.0
 11
572.8847898514957
 21
832.2591779448476
 31
0.0
  0
LINE
  5
1E5C
330
1F
100
AcDbEntity
  8
0
370
    50
100
AcDbLine
 10
570.8847898514957
 20
830.2591779448475
 30
0.0
 11
556.8847898514958
 21
830.2591779448475
 31
0.0
  0
LINE
  5
1E5D
330
1F
100
AcDbEntity
  8
0
370
    50
100
AcDbLine
 10
554.8847898514958
 20
832.2591779448476
 30
0.0
 11
554.8847898514958
 21
993.2591779448475
 31
0.0
  0
LINE
  5
1E5E
330
1F
100
AcDbEntity
  8
0
370
    50
100
AcDbLine
 10
564.8847898514957
 20
838.3591779448476
 30
0.0
 11
564.8847898514957
 21
991.7591779448475
 31
0.0
  0
LINE
  5
1E5F
330
1F
100
AcDbEntity
  8
0
370
    50
100
AcDbLine
 10
564.8847898514957
 20
991.7591779448475
 30
0.0
 11
571.8847898514957
 21
991.7591779448475
 31
0.0
  0
LINE
  5
1E60
330
1F
100
AcDbEntity
  8
0
370
    50
100
AcDbLine
 10
571.8847898514957
 20
991.7591779448475
 30
0.0
 11
571.8847898514957
 21
838.3591779448476
 31
0.0
  0
LINE
  5
1E61
330
1F
100
AcDbEntity
  8
0
370
    50
100
AcDbLine
 10
571.8847898514957
 20
838.3591779448476
 30
0.0
 11
564.8847898514957
 21
838.3591779448476
 31
0.0
  0
LINE
  5
1E62
330
1F
100
AcDbEntity
  8
0
370
    50
100
AcDbLine
 10
563.8847898514957
 20
987.4591779448476
 30
0.0
 11
563.8847898514957
 21
834.0591779448477
 31
0.0
  0
LINE
  5
1E63
330
1F
100
AcDbEntity
  8
0
370
    50
100
AcDbLine
 10
563.8847898514957
 20
834.0591779448477
 30
0.0
 11
556.8847898514958
 21
834.0591779448477
 31
0.0
  0
LINE
  5
1E64
330
1F
100
AcDbEntity
  8
0
370
    50
100
AcDbLine
 10
556.8847898514958
 20
834.0591779448477
 30
0.0
 11
556.8847898514958
 21
987.4591779448476
 31
0.0
  0
LINE
  5
1E65
330
1F
100
AcDbEntity
  8
0
370
    50
100
AcDbLine
 10
556.8847898514958
 20
987.4591779448476
 30
0.0
 11
563.8847898514957
 21
987.4591779448476
 31
0.0
  0
LINE
  5
1E66
330
1F
100
AcDbEntity
  8
0
370
    50
100
AcDbLine
 10
560.3847898514958
 20
839.1591779448477
 30
0.0
 11
560.3847898514958
 21
836.1591779448476
 31
0.0
  0
LINE
  5
1E67
330
1F
100
AcDbEntity
  8
0
370
    50
100
AcDbLine
 10
559.3847898514958
 20
839.1591779448477
 30
0.0
 11
560.3847898514958
 21
839.1591779448477
 31
0.0
  0
LINE
  5
1E68
330
1F
100
AcDbEntity
  8
0
370
    50
100
AcDbLine
 10
559.3847898514958
 20
836.1591779448476
 30
0.0
 11
559.3847898514958
 21
839.1591779448477
 31
0.0
  0
LINE
  5
1E69
330
1F
100
AcDbEntity
  8
0
370
    50
100
AcDbLine
 10
560.3847898514958
 20
836.1591779448476
 30
0.0
 11
559.3847898514958
 21
836.1591779448476
 31
0.0
  0
LINE
  5
1E6A
330
1F
100
AcDbEntity
  8
0
370
    50
100
AcDbLine
 10
560.3847898514958
 20
985.3591779448477
 30
0.0
 11
560.3847898514958
 21
982.3591779448475
 31
0.0
  0
LINE
  5
1E6B
330
1F
100
AcDbEntity
  8
0
370
    50
100
AcDbLine
 10
559.3847898514958
 20
985.3591779448477
 30
0.0
 11
560.3847898514958
 21
985.3591779448477
 31
0.0
  0
LINE
  5
1E6C
330
1F
100
AcDbEntity
  8
0
370
    50
100
AcDbLine
 10
559.3847898514958
 20
982.3591779448475
 30
0.0
 11
559.3847898514958
 21
985.3591779448477
 31
0.0
  0
LINE
  5
1E6D
330
1F
100
AcDbEntity
  8
0
370
    50
100
AcDbLine
 10
560.3847898514958
 20
982.3591779448475
 30
0.0
 11
559.3847898514958
 21
982.3591779448475
 31
0.0
  0
LINE
  5
1E6E
330
1F
100
AcDbEntity
  8
0
370
    50
100
AcDbLine
 10
560.3847898514958
 20
890.7591779448479
 30
0.0
 11
560.3847898514958
 21
887.7591779448477
 31
0.0
  0
LINE
  5
1E6F
330
1F
100
AcDbEntity
  8
0
370
    50
100
AcDbLine
 10
559.3847898514958
 20
890.7591779448479
 30
0.0
 11
560.3847898514958
 21
890.7591779448479
 31
0.0
  0
LINE
  5
1E70
330
1F
100
AcDbEntity
  8
0
370
    50
100
AcDbLine
 10
559.3847898514958
 20
887.7591779448477
 30
0.0
 11
559.3847898514958
 21
890.7591779448479
 31
0.0
  0
LINE
  5
1E71
330
1F
100
AcDbEntity
  8
0
370
    50
100
AcDbLine
 10
560.3847898514958
 20
887.7591779448477
 30
0.0
 11
559.3847898514958
 21
887.7591779448477
 31
0.0
  0
LINE
  5
1E72
330
1F
100
AcDbEntity
  8
0
370
    50
100
AcDbLine
 10
560.3847898514958
 20
882.1591779448477
 30
0.0
 11
560.3847898514958
 21
879.1591779448477
 31
0.0
  0
LINE
  5
1E73
330
1F
100
AcDbEntity
  8
0
370
    50
100
AcDbLine
 10
559.3847898514958
 20
882.1591779448477
 30
0.0
 11
560.3847898514958
 21
882.1591779448477
 31
0.0
  0
LINE
  5
1E74
330
1F
100
AcDbEntity
  8
0
370
    50
100
AcDbLine
 10
559.3847898514958
 20
879.1591779448477
 30
0.0
 11
559.3847898514958
 21
882.1591779448477
 31
0.0
  0
LINE
  5
1E75
330
1F
100
AcDbEntity
  8
0
370
    50
100
AcDbLine
 10
560.3847898514958
 20
879.1591779448477
 30
0.0
 11
559.3847898514958
 21
879.1591779448477
 31
0.0
  0
LINE
  5
1E76
330
1F
100
AcDbEntity
  8
0
370
    50
100
AcDbLine
 10
560.3847898514958
 20
907.9591779448476
 30
0.0
 11
560.3847898514958
 21
904.9591779448475
 31
0.0
  0
LINE
  5
1E77
330
1F
100
AcDbEntity
  8
0
370
    50
100
AcDbLine
 10
559.3847898514958
 20
907.9591779448476
 30
0.0
 11
560.3847898514958
 21
907.9591779448476
 31
0.0
  0
LINE
  5
1E78
330
1F
100
AcDbEntity
  8
0
370
    50
100
AcDbLine
 10
559.3847898514958
 20
904.9591779448475
 30
0.0
 11
559.3847898514958
 21
907.9591779448476
 31
0.0
  0
LINE
  5
1E79
330
1F
100
AcDbEntity
  8
0
370
    50
100
AcDbLine
 10
560.3847898514958
 20
904.9591779448475
 30
0.0
 11
559.3847898514958
 21
904.9591779448475
 31
0.0
  0
LINE
  5
1E7A
330
1F
100
AcDbEntity
  8
0
370
    50
100
AcDbLine
 10
560.3847898514958
 20
899.3591779448477
 30
0.0
 11
560.3847898514958
 21
896.3591779448476
 31
0.0
  0
LINE
  5
1E7B
330
1F
100
AcDbEntity
  8
0
370
    50
100
AcDbLine
 10
559.3847898514958
 20
899.3591779448477
 30
0.0
 11
560.3847898514958
 21
899.3591779448477
 31
0.0
  0
LINE
  5
1E7C
330
1F
100
AcDbEntity
  8
0
370
    50
100
AcDbLine
 10
559.3847898514958
 20
896.3591779448476
 30
0.0
 11
559.3847898514958
 21
899.3591779448477
 31
0.0
  0
LINE
  5
1E7D
330
1F
100
AcDbEntity
  8
0
370
    50
100
AcDbLine
 10
560.3847898514958
 20
896.3591779448476
 30
0.0
 11
559.3847898514958
 21
896.3591779448476
 31
0.0
  0
LINE
  5
1E7E
330
1F
100
AcDbEntity
  8
0
370
    50
100
AcDbLine
 10
560.3847898514958
 20
856.3591779448477
 30
0.0
 11
560.3847898514958
 21
853.3591779448476
 31
0.0
  0
LINE
  5
1E7F
330
1F
100
AcDbEntity
  8
0
370
    50
100
AcDbLine
 10
559.3847898514958
 20
856.3591779448477
 30
0.0
 11
560.3847898514958
 21
856.3591779448477
 31
0.0
  0
LINE
  5
1E80
330
1F
100
AcDbEntity
  8
0
370
    50
100
AcDbLine
 10
559.3847898514958
 20
853.3591779448476
 30
0.0
 11
559.3847898514958
 21
856.3591779448477
 31
0.0
  0
LINE
  5
1E81
330
1F
100
AcDbEntity
  8
0
370
    50
100
AcDbLine
 10
560.3847898514958
 20
853.3591779448476
 30
0.0
 11
559.3847898514958
 21
853.3591779448476
 31
0.0
  0
LINE
  5
1E82
330
1F
100
AcDbEntity
  8
0
370
    50
100
AcDbLine
 10
560.3847898514958
 20
847.7591779448477
 30
0.0
 11
560.3847898514958
 21
844.7591779448476
 31
0.0
  0
LINE
  5
1E83
330
1F
100
AcDbEntity
  8
0
370
    50
100
AcDbLine
 10
559.3847898514958
 20
847.7591779448477
 30
0.0
 11
560.3847898514958
 21
847.7591779448477
 31
0.0
  0
LINE
  5
1E84
330
1F
100
AcDbEntity
  8
0
370
    50
100
AcDbLine
 10
559.3847898514958
 20
844.7591779448476
 30
0.0
 11
559.3847898514958
 21
847.7591779448477
 31
0.0
  0
LINE
  5
1E85
330
1F
100
AcDbEntity
  8
0
370
    50
100
AcDbLine
 10
560.3847898514958
 20
844.7591779448476
 30
0.0
 11
559.3847898514958
 21
844.7591779448476
 31
0.0
  0
LINE
  5
1E86
330
1F
100
AcDbEntity
  8
0
370
    50
100
AcDbLine
 10
560.3847898514958
 20
873.5591779448478
 30
0.0
 11
560.3847898514958
 21
870.5591779448477
 31
0.0
  0
LINE
  5
1E87
330
1F
100
AcDbEntity
  8
0
370
    50
100
AcDbLine
 10
559.3847898514958
 20
873.5591779448478
 30
0.0
 11
560.3847898514958
 21
873.5591779448478
 31
0.0
  0
LINE
  5
1E88
330
1F
100
AcDbEntity
  8
0
370
    50
100
AcDbLine
 10
559.3847898514958
 20
870.5591779448477
 30
0.0
 11
559.3847898514958
 21
873.5591779448478
 31
0.0
  0
LINE
  5
1E89
330
1F
100
AcDbEntity
  8
0
370
    50
100
AcDbLine
 10
560.3847898514958
 20
870.5591779448477
 30
0.0
 11
559.3847898514958
 21
870.5591779448477
 31
0.0
  0
LINE
  5
1E8A
330
1F
100
AcDbEntity
  8
0
370
    50
100
AcDbLine
 10
560.3847898514958
 20
864.9591779448478
 30
0.0
 11
560.3847898514958
 21
861.9591779448477
 31
0.0
  0
LINE
  5
1E8B
330
1F
100
AcDbEntity
  8
0
370
    50
100
AcDbLine
 10
559.3847898514958
 20
864.9591779448478
 30
0.0
 11
560.3847898514958
 21
864.9591779448478
 31
0.0
  0
LINE
  5
1E8C
330
1F
100
AcDbEntity
  8
0
370
    50
100
AcDbLine
 10
559.3847898514958
 20
861.9591779448477
 30
0.0
 11
559.3847898514958
 21
864.9591779448478
 31
0.0
  0
LINE
  5
1E8D
330
1F
100
AcDbEntity
  8
0
370
    50
100
AcDbLine
 10
560.3847898514958
 20
861.9591779448477
 30
0.0
 11
559.3847898514958
 21
861.9591779448477
 31
0.0
  0
LINE
  5
1E8E
330
1F
100
AcDbEntity
  8
0
370
    50
100
AcDbLine
 10
560.3847898514958
 20
959.5591779448476
 30
0.0
 11
560.3847898514958
 21
956.5591779448478
 31
0.0
  0
LINE
  5
1E8F
330
1F
100
AcDbEntity
  8
0
370
    50
100
AcDbLine
 10
559.3847898514958
 20
959.5591779448476
 30
0.0
 11
560.3847898514958
 21
959.5591779448476
 31
0.0
  0
LINE
  5
1E90
330
1F
100
AcDbEntity
  8
0
370
    50
100
AcDbLine
 10
559.3847898514958
 20
956.5591779448478
 30
0.0
 11
559.3847898514958
 21
959.5591779448476
 31
0.0
  0
LINE
  5
1E91
330
1F
100
AcDbEntity
  8
0
370
    50
100
AcDbLine
 10
560.3847898514958
 20
956.5591779448478
 30
0.0
 11
559.3847898514958
 21
956.5591779448478
 31
0.0
  0
LINE
  5
1E92
330
1F
100
AcDbEntity
  8
0
370
    50
100
AcDbLine
 10
560.3847898514958
 20
950.9591779448475
 30
0.0
 11
560.3847898514958
 21
947.9591779448478
 31
0.0
  0
LINE
  5
1E93
330
1F
100
AcDbEntity
  8
0
370
    50
100
AcDbLine
 10
559.3847898514958
 20
950.9591779448475
 30
0.0
 11
560.3847898514958
 21
950.9591779448475
 31
0.0
  0
LINE
  5
1E94
330
1F
100
AcDbEntity
  8
0
370
    50
100
AcDbLine
 10
559.3847898514958
 20
947.9591779448478
 30
0.0
 11
559.3847898514958
 21
950.9591779448481
 31
0.0
  0
LINE
  5
1E95
330
1F
100
AcDbEntity
  8
0
370
    50
100
AcDbLine
 10
560.3847898514958
 20
947.9591779448478
 30
0.0
 11
559.3847898514958
 21
947.9591779448478
 31
0.0
  0
LINE
  5
1E96
330
1F
100
AcDbEntity
  8
0
370
    50
100
AcDbLine
 10
560.3847898514958
 20
976.7591779448476
 30
0.0
 11
560.3847898514958
 21
973.7591779448475
 31
0.0
  0
LINE
  5
1E97
330
1F
100
AcDbEntity
  8
0
370
    50
100
AcDbLine
 10
559.3847898514958
 20
976.7591779448476
 30
0.0
 11
560.3847898514958
 21
976.7591779448476
 31
0.0
  0
LINE
  5
1E98
330
1F
100
AcDbEntity
  8
0
370
    50
100
AcDbLine
 10
559.3847898514958
 20
973.7591779448475
 30
0.0
 11
559.3847898514958
 21
976.7591779448476
 31
0.0
  0
LINE
  5
1E99
330
1F
100
AcDbEntity
  8
0
370
    50
100
AcDbLine
 10
560.3847898514958
 20
973.7591779448475
 30
0.0
 11
559.3847898514958
 21
973.7591779448475
 31
0.0
  0
LINE
  5
1E9A
330
1F
100
AcDbEntity
  8
0
370
    50
100
AcDbLine
 10
560.3847898514958
 20
968.1591779448476
 30
0.0
 11
560.3847898514958
 21
965.1591779448475
 31
0.0
  0
LINE
  5
1E9B
330
1F
100
AcDbEntity
  8
0
370
    50
100
AcDbLine
 10
559.3847898514958
 20
968.1591779448476
 30
0.0
 11
560.3847898514958
 21
968.1591779448476
 31
0.0
  0
LINE
  5
1E9C
330
1F
100
AcDbEntity
  8
0
370
    50
100
AcDbLine
 10
559.3847898514958
 20
965.1591779448475
 30
0.0
 11
559.3847898514958
 21
968.1591779448476
 31
0.0
  0
LINE
  5
1E9D
330
1F
100
AcDbEntity
  8
0
370
    50
100
AcDbLine
 10
560.3847898514958
 20
965.1591779448475
 30
0.0
 11
559.3847898514958
 21
965.1591779448475
 31
0.0
  0
LINE
  5
1E9E
330
1F
100
AcDbEntity
  8
0
370
    50
100
AcDbLine
 10
560.3847898514958
 20
925.1591779448474
 30
0.0
 11
560.3847898514958
 21
922.1591779448475
 31
0.0
  0
LINE
  5
1E9F
330
1F
100
AcDbEntity
  8
0
370
    50
100
AcDbLine
 10
559.3847898514958
 20
925.1591779448474
 30
0.0
 11
560.3847898514958
 21
925.1591779448474
 31
0.0
  0
LINE
  5
1EA0
330
1F
100
AcDbEntity
  8
0
370
    50
100
AcDbLine
 10
559.3847898514958
 20
922.1591779448475
 30
0.0
 11
559.3847898514958
 21
925.1591779448474
 31
0.0
  0
LINE
  5
1EA1
330
1F
100
AcDbEntity
  8
0
370
    50
100
AcDbLine
 10
560.3847898514958
 20
922.1591779448475
 30
0.0
 11
559.3847898514958
 21
922.1591779448475
 31
0.0
  0
LINE
  5
1EA2
330
1F
100
AcDbEntity
  8
0
370
    50
100
AcDbLine
 10
560.3847898514958
 20
916.5591779448478
 30
0.0
 11
560.3847898514958
 21
913.5591779448475
 31
0.0
  0
LINE
  5
1EA3
330
1F
100
AcDbEntity
  8
0
370
    50
100
AcDbLine
 10
559.3847898514958
 20
916.5591779448478
 30
0.0
 11
560.3847898514958
 21
916.5591779448478
 31
0.0
  0
LINE
  5
1EA4
330
1F
100
AcDbEntity
  8
0
370
    50
100
AcDbLine
 10
559.3847898514958
 20
913.5591779448475
 30
0.0
 11
559.3847898514958
 21
916.5591779448478
 31
0.0
  0
LINE
  5
1EA5
330
1F
100
AcDbEntity
  8
0
370
    50
100
AcDbLine
 10
560.3847898514958
 20
913.5591779448475
 30
0.0
 11
559.3847898514958
 21
913.5591779448475
 31
0.0
  0
LINE
  5
1EA6
330
1F
100
AcDbEntity
  8
0
370
    50
100
AcDbLine
 10
560.3847898514958
 20
942.3591779448475
 30
0.0
 11
560.3847898514958
 21
939.3591779448478
 31
0.0
  0
LINE
  5
1EA7
330
1F
100
AcDbEntity
  8
0
370
    50
100
AcDbLine
 10
559.3847898514958
 20
942.3591779448475
 30
0.0
 11
560.3847898514958
 21
942.3591779448475
 31
0.0
  0
LINE
  5
1EA8
330
1F
100
AcDbEntity
  8
0
370
    50
100
AcDbLine
 10
559.3847898514958
 20
939.3591779448478
 30
0.0
 11
559.3847898514958
 21
942.3591779448475
 31
0.0
  0
LINE
  5
1EA9
330
1F
100
AcDbEntity
  8
0
370
    50
100
AcDbLine
 10
560.3847898514958
 20
939.3591779448478
 30
0.0
 11
559.3847898514958
 21
939.3591779448478
 31
0.0
  0
LINE
  5
1EAA
330
1F
100
AcDbEntity
  8
0
370
    50
100
AcDbLine
 10
560.3847898514958
 20
933.7591779448475
 30
0.0
 11
560.3847898514958
 21
930.7591779448475
 31
0.0
  0
LINE
  5
1EAB
330
1F
100
AcDbEntity
  8
0
370
    50
100
AcDbLine
 10
559.3847898514958
 20
933.7591779448475
 30
0.0
 11
560.3847898514958
 21
933.7591779448475
 31
0.0
  0
LINE
  5
1EAC
330
1F
100
AcDbEntity
  8
0
370
    50
100
AcDbLine
 10
559.3847898514958
 20
930.7591779448475
 30
0.0
 11
559.3847898514958
 21
933.7591779448475
 31
0.0
  0
LINE
  5
1EAD
330
1F
100
AcDbEntity
  8
0
370
    50
100
AcDbLine
 10
560.3847898514958
 20
930.7591779448475
 30
0.0
 11
559.3847898514958
 21
930.7591779448475
 31
0.0
  0
LINE
  5
1EAE
330
1F
100
AcDbEntity
  8
0
370
    50
100
AcDbLine
 10
568.8847898514957
 20
843.4591779448478
 30
0.0
 11
568.8847898514957
 21
840.4591779448477
 31
0.0
  0
LINE
  5
1EAF
330
1F
100
AcDbEntity
  8
0
370
    50
100
AcDbLine
 10
567.8847898514957
 20
843.4591779448478
 30
0.0
 11
568.8847898514957
 21
843.4591779448478
 31
0.0
  0
LINE
  5
1EB0
330
1F
100
AcDbEntity
  8
0
370
    50
100
AcDbLine
 10
567.8847898514957
 20
840.4591779448477
 30
0.0
 11
567.8847898514957
 21
843.4591779448478
 31
0.0
  0
LINE
  5
1EB1
330
1F
100
AcDbEntity
  8
0
370
    50
100
AcDbLine
 10
568.8847898514957
 20
840.4591779448477
 30
0.0
 11
567.8847898514957
 21
840.4591779448477
 31
0.0
  0
LINE
  5
1EB2
330
1F
100
AcDbEntity
  8
0
370
    50
100
AcDbLine
 10
568.8847898514957
 20
989.6591779448476
 30
0.0
 11
568.8847898514957
 21
986.6591779448475
 31
0.0
  0
LINE
  5
1EB3
330
1F
100
AcDbEntity
  8
0
370
    50
100
AcDbLine
 10
567.8847898514957
 20
989.6591779448476
 30
0.0
 11
568.8847898514957
 21
989.6591779448476
 31
0.0
  0
LINE
  5
1EB4
330
1F
100
AcDbEntity
  8
0
370
    50
100
AcDbLine
 10
567.8847898514957
 20
986.6591779448475
 30
0.0
 11
567.8847898514957
 21
989.6591779448476
 31
0.0
  0
LINE
  5
1EB5
330
1F
100
AcDbEntity
  8
0
370
    50
100
AcDbLine
 10
568.8847898514957
 20
986.6591779448475
 30
0.0
 11
567.8847898514957
 21
986.6591779448475
 31
0.0
  0
LINE
  5
1EB6
330
1F
100
AcDbEntity
  8
0
370
    50
100
AcDbLine
 10
568.8847898514957
 20
895.0591779448478
 30
0.0
 11
568.8847898514957
 21
892.0591779448477
 31
0.0
  0
LINE
  5
1EB7
330
1F
100
AcDbEntity
  8
0
370
    50
100
AcDbLine
 10
567.8847898514957
 20
895.0591779448478
 30
0.0
 11
568.8847898514957
 21
895.0591779448478
 31
0.0
  0
LINE
  5
1EB8
330
1F
100
AcDbEntity
  8
0
370
    50
100
AcDbLine
 10
567.8847898514957
 20
892.0591779448477
 30
0.0
 11
567.8847898514957
 21
895.0591779448478
 31
0.0
  0
LINE
  5
1EB9
330
1F
100
AcDbEntity
  8
0
370
    50
100
AcDbLine
 10
568.8847898514957
 20
892.0591779448477
 30
0.0
 11
567.8847898514957
 21
892.0591779448477
 31
0.0
  0
LINE
  5
1EBA
330
1F
100
AcDbEntity
  8
0
370
    50
100
AcDbLine
 10
568.8847898514957
 20
886.4591779448478
 30
0.0
 11
568.8847898514957
 21
883.4591779448475
 31
0.0
  0
LINE
  5
1EBB
330
1F
100
AcDbEntity
  8
0
370
    50
100
AcDbLine
 10
567.8847898514957
 20
886.4591779448478
 30
0.0
 11
568.8847898514957
 21
886.4591779448478
 31
0.0
  0
LINE
  5
1EBC
330
1F
100
AcDbEntity
  8
0
370
    50
100
AcDbLine
 10
567.8847898514957
 20
883.4591779448475
 30
0.0
 11
567.8847898514957
 21
886.4591779448478
 31
0.0
  0
LINE
  5
1EBD
330
1F
100
AcDbEntity
  8
0
370
    50
100
AcDbLine
 10
568.8847898514957
 20
883.4591779448475
 30
0.0
 11
567.8847898514957
 21
883.4591779448475
 31
0.0
  0
LINE
  5
1EBE
330
1F
100
AcDbEntity
  8
0
370
    50
100
AcDbLine
 10
568.8847898514957
 20
912.2591779448475
 30
0.0
 11
568.8847898514957
 21
909.2591779448476
 31
0.0
  0
LINE
  5
1EBF
330
1F
100
AcDbEntity
  8
0
370
    50
100
AcDbLine
 10
567.8847898514957
 20
912.2591779448475
 30
0.0
 11
568.8847898514957
 21
912.2591779448475
 31
0.0
  0
LINE
  5
1EC0
330
1F
100
AcDbEntity
  8
0
370
    50
100
AcDbLine
 10
567.8847898514957
 20
909.2591779448476
 30
0.0
 11
567.8847898514957
 21
912.2591779448475
 31
0.0
  0
LINE
  5
1EC1
330
1F
100
AcDbEntity
  8
0
370
    50
100
AcDbLine
 10
568.8847898514957
 20
909.2591779448476
 30
0.0
 11
567.8847898514957
 21
909.2591779448476
 31
0.0
  0
LINE
  5
1EC2
330
1F
100
AcDbEntity
  8
0
370
    50
100
AcDbLine
 10
568.8847898514957
 20
903.6591779448475
 30
0.0
 11
568.8847898514957
 21
900.6591779448477
 31
0.0
  0
LINE
  5
1EC3
330
1F
100
AcDbEntity
  8
0
370
    50
100
AcDbLine
 10
567.8847898514957
 20
903.6591779448475
 30
0.0
 11
568.8847898514957
 21
903.6591779448475
 31
0.0
  0
LINE
  5
1EC4
330
1F
100
AcDbEntity
  8
0
370
    50
100
AcDbLine
 10
567.8847898514957
 20
900.6591779448477
 30
0.0
 11
567.8847898514957
 21
903.6591779448475
 31
0.0
  0
LINE
  5
1EC5
330
1F
100
AcDbEntity
  8
0
370
    50
100
AcDbLine
 10
568.8847898514957
 20
900.6591779448477
 30
0.0
 11
567.8847898514957
 21
900.6591779448477
 31
0.0
  0
LINE
  5
1EC6
330
1F
100
AcDbEntity
  8
0
370
    50
100
AcDbLine
 10
568.8847898514957
 20
860.6591779448477
 30
0.0
 11
568.8847898514957
 21
857.6591779448476
 31
0.0
  0
LINE
  5
1EC7
330
1F
100
AcDbEntity
  8
0
370
    50
100
AcDbLine
 10
567.8847898514957
 20
860.6591779448477
 30
0.0
 11
568.8847898514957
 21
860.6591779448477
 31
0.0
  0
LINE
  5
1EC8
330
1F
100
AcDbEntity
  8
0
370
    50
100
AcDbLine
 10
567.8847898514957
 20
857.6591779448476
 30
0.0
 11
567.8847898514957
 21
860.6591779448477
 31
0.0
  0
LINE
  5
1EC9
330
1F
100
AcDbEntity
  8
0
370
    50
100
AcDbLine
 10
568.8847898514957
 20
857.6591779448476
 30
0.0
 11
567.8847898514957
 21
857.6591779448476
 31
0.0
  0
LINE
  5
1ECA
330
1F
100
AcDbEntity
  8
0
370
    50
100
AcDbLine
 10
568.8847898514957
 20
852.0591779448475
 30
0.0
 11
568.8847898514957
 21
849.0591779448477
 31
0.0
  0
LINE
  5
1ECB
330
1F
100
AcDbEntity
  8
0
370
    50
100
AcDbLine
 10
567.8847898514957
 20
852.0591779448475
 30
0.0
 11
568.8847898514957
 21
852.0591779448475
 31
0.0
  0
LINE
  5
1ECC
330
1F
100
AcDbEntity
  8
0
370
    50
100
AcDbLine
 10
567.8847898514957
 20
849.0591779448477
 30
0.0
 11
567.8847898514957
 21
852.0591779448475
 31
0.0
  0
LINE
  5
1ECD
330
1F
100
AcDbEntity
  8
0
370
    50
100
AcDbLine
 10
568.8847898514957
 20
849.0591779448477
 30
0.0
 11
567.8847898514957
 21
849.0591779448477
 31
0.0
  0
LINE
  5
1ECE
330
1F
100
AcDbEntity
  8
0
370
    50
100
AcDbLine
 10
568.8847898514957
 20
877.8591779448477
 30
0.0
 11
568.8847898514957
 21
874.8591779448476
 31
0.0
  0
LINE
  5
1ECF
330
1F
100
AcDbEntity
  8
0
370
    50
100
AcDbLine
 10
567.8847898514957
 20
877.8591779448477
 30
0.0
 11
568.8847898514957
 21
877.8591779448477
 31
0.0
  0
LINE
  5
1ED0
330
1F
100
AcDbEntity
  8
0
370
    50
100
AcDbLine
 10
567.8847898514957
 20
874.8591779448476
 30
0.0
 11
567.8847898514957
 21
877.8591779448477
 31
0.0
  0
LINE
  5
1ED1
330
1F
100
AcDbEntity
  8
0
370
    50
100
AcDbLine
 10
568.8847898514957
 20
874.8591779448476
 30
0.0
 11
567.8847898514957
 21
874.8591779448476
 31
0.0
  0
LINE
  5
1ED2
330
1F
100
AcDbEntity
  8
0
370
    50
100
AcDbLine
 10
568.8847898514957
 20
869.2591779448477
 30
0.0
 11
568.8847898514957
 21
866.2591779448476
 31
0.0
  0
LINE
  5
1ED3
330
1F
100
AcDbEntity
  8
0
370
    50
100
AcDbLine
 10
567.8847898514957
 20
869.2591779448477
 30
0.0
 11
568.8847898514957
 21
869.2591779448477
 31
0.0
  0
LINE
  5
1ED4
330
1F
100
AcDbEntity
  8
0
370
    50
100
AcDbLine
 10
567.8847898514957
 20
866.2591779448476
 30
0.0
 11
567.8847898514957
 21
869.2591779448477
 31
0.0
  0
LINE
  5
1ED5
330
1F
100
AcDbEntity
  8
0
370
    50
100
AcDbLine
 10
568.8847898514957
 20
866.2591779448476
 30
0.0
 11
567.8847898514957
 21
866.2591779448476
 31
0.0
  0
LINE
  5
1ED6
330
1F
100
AcDbEntity
  8
0
370
    50
100
AcDbLine
 10
568.8847898514957
 20
963.8591779448475
 30
0.0
 11
568.8847898514957
 21
960.8591779448476
 31
0.0
  0
LINE
  5
1ED7
330
1F
100
AcDbEntity
  8
0
370
    50
100
AcDbLine
 10
567.8847898514957
 20
963.8591779448475
 30
0.0
 11
568.8847898514957
 21
963.8591779448475
 31
0.0
  0
LINE
  5
1ED8
330
1F
100
AcDbEntity
  8
0
370
    50
100
AcDbLine
 10
567.8847898514957
 20
960.8591779448476
 30
0.0
 11
567.8847898514957
 21
963.8591779448475
 31
0.0
  0
LINE
  5
1ED9
330
1F
100
AcDbEntity
  8
0
370
    50
100
AcDbLine
 10
568.8847898514957
 20
960.8591779448476
 30
0.0
 11
567.8847898514957
 21
960.8591779448476
 31
0.0
  0
LINE
  5
1EDA
330
1F
100
AcDbEntity
  8
0
370
    50
100
AcDbLine
 10
568.8847898514957
 20
955.2591779448475
 30
0.0
 11
568.8847898514957
 21
952.2591779448475
 31
0.0
  0
LINE
  5
1EDB
330
1F
100
AcDbEntity
  8
0
370
    50
100
AcDbLine
 10
567.8847898514957
 20
955.2591779448475
 30
0.0
 11
568.8847898514957
 21
955.2591779448475
 31
0.0
  0
LINE
  5
1EDC
330
1F
100
AcDbEntity
  8
0
370
    50
100
AcDbLine
 10
567.8847898514957
 20
952.2591779448475
 30
0.0
 11
567.8847898514957
 21
955.2591779448475
 31
0.0
  0
LINE
  5
1EDD
330
1F
100
AcDbEntity
  8
0
370
    50
100
AcDbLine
 10
568.8847898514957
 20
952.2591779448475
 30
0.0
 11
567.8847898514957
 21
952.2591779448475
 31
0.0
  0
LINE
  5
1EDE
330
1F
100
AcDbEntity
  8
0
370
    50
100
AcDbLine
 10
568.8847898514957
 20
981.0591779448476
 30
0.0
 11
568.8847898514957
 21
978.0591779448478
 31
0.0
  0
LWPOLYLINE
  5
1EDF
330
1F
100
AcDbEntity
  8
0
370
    50
100
AcDbPolyline
 90
        2
 70
     0
 43
0.0
 10
502.8039219848126
 20
1126.086900685262
 10
502.8497562224687
 20
1030.234660455783
  0
DIMENSION
  5
1EE0
330
1F
100
AcDbEntity
  8
0
370
    50
100
AcDbDimension
  2
*D52
 10
502.8039219848126
 20
1181.75383221315
 30
0.0
 11
588.753921984813
 21
1181.75383221315
 31
0.0
 70
   160
  1
<>（配線必要スペース）
 71
     5
 42
27.50000000000006
  3
AM_JIS$0
100
AcDbAlignedDimension
 13
475.3039219848128
 23
1126.159177944848
 33
0.0
 14
502.8039219848126
 24
1126.159177944848
 34
0.0
100
AcDbRotatedDimension
1001
ACAD
1000
DSTYLE
1002
{
1070
   271
1070
     0
1002
}
  0
DIMENSION
  5
1EE1
330
1F
100
AcDbEntity
  8
0
370
    50
100
AcDbDimension
  2
*D53
 10
345.3039219848129
 20
1205.579350011581
 30
0.0
 11
424.0539219848129
 21
1205.579350011581
 31
0.0
 70
   160
 71
     5
 42
157.5
  3
AM_JIS$0
100
AcDbAlignedDimension
 13
502.8039219848126
 23
1126.159177944848
 33
0.0
 14
345.3039219848129
 24
1066.759177944848
 34
0.0
100
AcDbRotatedDimension
1001
ACAD
1000
DSTYLE
1002
{
1070
   271
1070
     0
1002
}
  0
LINE
  5
1EE2
330
1F
100
AcDbEntity
  8
0
370
    50
100
AcDbLine
 10
525.8847898514962
 20
1008.159177944848
 30
0.0
 11
525.8847898514962
 21
1028.159177944848
 31
0.0
  0
LINE
  5
1EE3
330
1F
100
AcDbEntity
  8
0
370
    50
100
AcDbLine
 10
715.8847898514961
 20
1022.159177944848
 30
0.0
 11
715.8847898514961
 21
1028.159177944847
 31
0.0
  0
LINE
  5
1EE4
330
1F
100
AcDbEntity
  8
0
370
    50
100
AcDbLine
 10
368.3039219848128
 20
1158.159177944848
 30
0.0
 11
351.3295486452049
 21
1158.159177944848
 31
0.0
  0
LINE
  5
1EE5
102
{ACAD_REACTORS
330
1EE8
102
}
330
1F
100
AcDbEntity
  8
0
370
    50
100
AcDbLine
 10
351.3295486452049
 20
1158.159177944848
 30
0.0
 11
475.3196371784406
 21
1158.159177944848
 31
0.0
  0
DIMENSION
  5
1EE6
102
{ACAD_XDICTIONARY
360
1EE7
102
}
102
{ACAD_REACTORS
330
1EE8
102
}
330
1F
100
AcDbEntity
  8
0
370
    50
100
AcDbDimension
  2
*D54
 10
308.2667748042323
 20
1158.159177944848
 30
0.0
 11
308.2667748042322
 21
1211.034177944848
 31
0.0
 70
   160
  1
30　　　　　
 71
     5
 42
30.0
  3
ISO-25
100
AcDbAlignedDimension
 13
354.3039219848129
 23
1128.159177944848
 33
0.0
 14
351.3295486452049
 24
1158.159177944848
 34
0.0
 50
90.0
100
AcDbRotatedDimension
1001
ACAD
1000
DSTYLE
1002
{
1070
    40
1040
3.0
1070
    42
1040
2.0
1070
    44
1040
1.0
1070
    41
1040
3.0
1070
   147
1040
1.5
1070
   140
1040
3.5
1070
   343
1005
F7
1070
   173
1070
     1
1070
   344
1005
F7
1002
}
  0
MTEXT
  5
1EE9
330
1F
100
AcDbEntity
  8
0
370
    50
100
AcDbMText
 10
276.600199777861
 20
1202.197478558225
 30
0.0
 40
10.5
 41
55.2929187763857
 71
     1
 72
     5
  1
設置必要\Pスペース
 11
0.0000000000000001
 21
1.0
 31
0.0
 73
     1
 44
1.0
1001
ACAD
1000
ACAD_MTEXT_DEFINED_HEIGHT_BEGIN
1070
    46
1040
36.99776472199278
1000
ACAD_MTEXT_DEFINED_HEIGHT_END
1000
MTEXTBEGIN
1070
    73
1070
     1
1070
    44
1040
1.0
1070
    74
1070
     0
1000
MTEXTEND
  0
ARC
  5
1EEA
330
1F
100
AcDbEntity
  8
0
370
    50
100
AcDbCircle
 10
289.5063194913553
 20
1231.257522929335
 30
0.0
 40
35.45984611085938
100
AcDbArc
 50
240.3598513817788
 51
300.0928760355139
  0
ARC
  5
1EEB
330
1F
100
AcDbEntity
  8
0
370
    50
100
AcDbCircle
 10
289.6278074180424
 20
1210.234547382708
 30
0.0
 40
46.43344154565097
100
AcDbArc
 50
67.64832944413853
 51
112.3516705558614
  0
LINE
  5
1EEC
330
1F
100
AcDbEntity
  8
0
370
    50
100
AcDbLine
 10
686.8847898514957
 20
1028.159177944847
 30
0.0
 11
715.8847898514961
 21
1028.159177944847
 31
0.0
  0
LINE
  5
1EED
330
1F
100
AcDbEntity
  8
0
370
    50
100
AcDbLine
 10
351.3039219848129
 20
1004.159177944848
 30
0.0
 11
351.3039219848129
 21
1005.059177944848
 31
0.0
  0
LINE
  5
1EEE
102
{ACAD_REACTORS
330
20CE
102
}
330
1F
100
AcDbEntity
  8
0
370
    50
100
AcDbLine
 10
371.3039219848129
 20
1125.159177944848
 30
0.0
 11
371.3039219848129
 21
1128.159177944848
 31
0.0
  0
CIRCLE
  5
2078
330
1F
100
AcDbEntity
  8
0
100
AcDbCircle
 10
345.3039219848129
 20
816.759177944848
 30
0.0
 40
0.0
  0
HATCH
  5
20CE
330
1F
100
AcDbEntity
  8
0
100
AcDbHatch
 10
0.0
 20
0.0
 30
0.0
210
0.0
220
0.0
230
1.0
  2
DOTS
 70
     0
 71
     1
 91
        2
 92
        7
 72
     0
 73
     1
 93
        5
 10
377.3039219848128
 20
1128.159177944848
 10
371.3039219848128
 20
1128.159177944848
 10
371.3039219848129
 20
1125.159177944848
 10
371.3039219848129
 20
1066.759177944848
 10
377.3039219848129
 20
1066.759177944848
 97
        5
330
1D31
330
1EEE
330
1D35
330
1D05
330
1D36
 92
        7
 72
     0
 73
     1
 93
        4
 10
377.3039219848129
 20
1066.759177944848
 10
371.3039219848129
 20
1066.759177944848
 10
371.3039219848129
 20
1028.159177944848
 10
377.3039219848129
 20
1028.159177944848
 97
        4
330
1D05
330
1D35
330
1D33
330
1D32
 75
     0
 76
     1
 52
0.0
 41
2.0
 77
     0
 78
     1
 53
0.0
 43
0.0
 44
0.0
 45
1.587499999999999
 46
3.174999999999998
 79
     2
 49
0.0
 49
-3.174999999999998
 47
0.1356861713842125
 98
        2
 10
372.9636255095761
 20
1083.48374770007
 10
372.556363220519
 20
1059.060235901105
1001
ACAD
1010
0.0
1020
0.0
1030
0.0
  0
VIEWPORT
  5
1834
102
{ACAD_XDICTIONARY
360
1835
102
}
330
182D
100
AcDbEntity
 67
     1
  8
0
100
AcDbViewport
 10
180.9523468318249
 20
95.41455827903218
 30
0.0
 40
281.9223298124385
 41
201.6477704285046
 68
     1
 69
     1
 12
180.9523468318249
 22
95.41455827903218
 13
0.0
 23
0.0
 14
10.0
 24
10.0
 15
10.0
 25
10.0
 16
0.0
 26
0.0
 36
1.0
 17
0.0
 27
0.0
 37
0.0
 42
50.0
 43
0.0
 44
0.0
 45
201.6477704285046
 50
0.0
 51
0.0
 72
  1000
 90
    32800
  1

281
     0
 71
     0
 74
     0
110
0.0
120
0.0
130
0.0
111
1.0
121
0.0
131
0.0
112
0.0
122
1.0
132
0.0
 79
     0
146
0.0
  0
VIEWPORT
  5
1838
102
{ACAD_XDICTIONARY
360
1839
102
}
330
182D
100
AcDbEntity
 67
     1
  8
0
100
AcDbViewport
 10
145.3303314447403
 20
101.8116623163223
 30
0.0
 40
232.5285303115845
 41
162.8986597061157
 68
     2
 69
     2
 12
517.4275319056667
 22
1020.478083312077
 13
0.0
 23
0.0
 14
10.0
 24
10.0
 15
10.0
 25
10.0
 16
0.0
 26
0.0
 36
1.0
 17
0.0
 27
0.0
 37
0.0
 42
50.0
 43
0.0
 44
0.0
 45
660.0666146376076
 50
0.0
 51
0.0
 72
  1000
 90
    32864
  1

281
     0
 71
     1
 74
     0
110
0.0
120
0.0
130
0.0
111
1.0
121
0.0
131
0.0
112
0.0
122
1.0
132
0.0
 79
     0
146
0.0
1001
GENIUS_GENSCREG_15
1000
PF
1040
0.0
1000
DF
1040
0.0
1000
MIN
1011
29.06606628894804
1021
20.36233246326444
1031
0.0
1000
MAX
1011
261.5945966005325
1021
183.2609921693801
1031
0.0
1000
FLAGS
1070
     4
1001
GENIUS_GENODEF_13
1002
{
1000
HIER
1070
     0
1002
}
1002
{
1000
MANEDIT
1070
     0
1002
}
1002
{
1000
NOSEL
1070
     0
1002
}
1002
{
1000
BEHIND
1070
     0
1002
}
1002
{
1000
OTHER
1070
     0
1002
}
1002
{
1000
REACTOR
1002
}
1001
GENIUS_GENOBJ-N-SDF_13
1002
{
1000
OWNER
1000
GEN
1002
}
  0
ENDSEC
  0
SECTION
  2
OBJECTS
  0
DICTIONARY
  5
C
330
0
100
AcDbDictionary
281
     1
  3
ACAD_2007HEADERVARS_RT
350
1874
  3
ACAD_COLOR
350
6B
  3
ACAD_GROUP
350
D
  3
ACAD_LAYOUT
350
1A
  3
ACAD_MATERIAL
350
6A
  3
ACAD_MLEADERSTYLE
350
1783
  3
ACAD_MLINESTYLE
350
17
  3
ACAD_PLOTSETTINGS
350
19
  3
ACAD_PLOTSTYLENAME
350
E
  3
ACAD_SCALELIST
350
1761
  3
ACAD_TABLESTYLE
350
7E
  3
ACAD_VISUALSTYLE
350
1750
  3
ACDB_RECOMPOSE_DATA
350
1805
  3
ACDBHEADERROUNDTRIPXREC
350
226C
  3
AcDbVariableDictionary
350
5E
  3
AcmDictionary
350
2203
  3
AMG
350
2142
  3
AMGSNAPSETTINGS
350
2256
  3
DWGPROPS
350
226B
  3
MAPISURF_MODULE
350
21CF
  0
DICTIONARY
  5
1808
330
8
100
AcDbDictionary
280
     1
281
     1
  0
DICTIONARY
  5
1C1
330
2
100
AcDbDictionary
280
     1
281
     1
  3
ACAD_LAYERSTATES
360
1C2
  0
DICTIONARY
  5
178C
330
10
100
AcDbDictionary
280
     1
281
     1
  3
ADSK_XREC_LAYER_RECONCILED
360
178D
  0
DICTIONARY
  5
1B0
330
1AF
100
AcDbDictionary
280
     1
281
     1
  3
ADSK_XREC_LAYER_RECONCILED
360
1B2
  0
DICTIONARY
  5
15E9
330
1F
100
AcDbDictionary
280
     1
281
     1
  3
ACAD_INDEX
360
2265
  3
ACAD_SORTENTS
360
15EA
  0
DICTIONARY
  5
1EE7
330
1EE6
100
AcDbDictionary
280
     1
281
     1
  3
ACAD_DIMASSOC
360
1EE8
  0
DICTIONARY
  5
1835
330
1834
100
AcDbDictionary
280
     1
281
     1
  3
ACAD_XREC_ROUNDTRIP
360
2270
  3
ASDK_XREC_ANNOTATION_SCALE_INFO
360
1836
  0
DICTIONARY
  5
1839
330
1838
100
AcDbDictionary
280
     1
281
     1
  3
ACAD_XREC_ROUNDTRIP
360
2271
  3
ASDK_XREC_ANNOTATION_SCALE_INFO
360
183A
  0
DICTIONARY
  5
1874
102
{ACAD_REACTORS
330
C
102
}
330
C
100
AcDbDictionary
281
     1
  3
DIMARCSYM
350
1875
  0
DICTIONARY
  5
6B
102
{ACAD_REACTORS
330
C
102
}
330
C
100
AcDbDictionary
281
     1
  0
DICTIONARY
  5
D
102
{ACAD_REACTORS
330
C
102
}
330
C
100
AcDbDictionary
281
     1
  3
*A1
350
A85
  3
*A2
350
A86
  0
DICTIONARY
  5
1A
102
{ACAD_REACTORS
330
C
102
}
330
C
100
AcDbDictionary
281
     1
  3
Model
350
22
  3
レイアウト1
350
182E
  0
DICTIONARY
  5
6A
102
{ACAD_REACTORS
330
C
102
}
330
C
100
AcDbDictionary
281
     1
  3
ByBlock
350
1748
  3
ByLayer
350
1740
  3
Global
350
1BE
  0
DICTIONARY
  5
1783
102
{ACAD_REACTORS
330
C
102
}
330
C
100
AcDbDictionary
281
     1
  3
Standard
350
1784
  0
DICTIONARY
  5
17
102
{ACAD_REACTORS
330
C
102
}
330
C
100
AcDbDictionary
281
     1
  3
Standard
350
18
  0
DICTIONARY
  5
19
102
{ACAD_REACTORS
330
C
102
}
330
C
100
AcDbDictionary
281
     1
  0
ACDBDICTIONARYWDFLT
  5
E
102
{ACAD_REACTORS
330
C
102
}
330
C
100
AcDbDictionary
281
     1
  3
Normal
350
F
100
AcDbDictionaryWithDefault
340
F
  0
DICTIONARY
  5
1761
102
{ACAD_REACTORS
330
C
102
}
330
C
100
AcDbDictionary
281
     1
  3
A0
350
1762
  3
A1
350
1763
  3
A2
350
1764
  3
A3
350
1765
  3
A4
350
1766
  3
A5
350
1767
  3
A6
350
1768
  3
A7
350
1769
  3
A8
350
176A
  3
A9
350
176B
  3
B0
350
176C
  3
B1
350
176D
  3
B2
350
176E
  3
B3
350
176F
  3
B4
350
1770
  3
B5
350
1771
  3
B6
350
1772
  3
B7
350
1773
  3
B8
350
1774
  3
B9
350
1775
  3
C0
350
1776
  3
C1
350
1777
  3
C2
350
1778
  3
C3
350
1779
  3
C4
350
177A
  3
C5
350
177B
  3
C6
350
177C
  3
C7
350
177D
  3
C8
350
177E
  3
C9
350
177F
  3
D0
350
1780
  3
D1
350
1781
  3
D2
350
1782
  0
DICTIONARY
  5
7E
102
{ACAD_REACTORS
330
C
102
}
330
C
100
AcDbDictionary
281
     1
  3
Standard
350
7F
  0
DICTIONARY
  5
1750
102
{ACAD_REACTORS
330
C
102
}
330
C
100
AcDbDictionary
281
     1
  3
2dWireframe
350
1756
  3
3D Hidden
350
1758
  3
3dWireframe
350
1757
  3
Basic
350
1755
  3
Brighten
350
175C
  3
ColorChange
350
1760
  3
Conceptual
350
1759
  3
Dim
350
175B
  3
Facepattern
350
175F
  3
Flat
350
1751
  3
FlatWithEdges
350
1752
  3
Gouraud
350
1753
  3
GouraudWithEdges
350
1754
  3
Linepattern
350
175E
  3
Realistic
350
175A
  3
Thicken
350
175D
  0
XRECORD
  5
1805
102
{ACAD_REACTORS
330
C
102
}
330
C
100
AcDbXrecord
280
     1
 90
        1
330
7F
  0
DICTIONARY
  5
226C
102
{ACAD_REACTORS
330
C
102
}
330
C
100
AcDbDictionary
281
     1
  0
DICTIONARY
  5
5E
102
{ACAD_REACTORS
330
C
102
}
330
C
100
AcDbDictionary
281
     1
  3
CANNOSCALE
350
181E
  3
CMLEADERSTYLE
350
181D
  3
CTABLESTYLE
350
84
  3
DIMASSOC
350
5F
  3
HIDETEXT
350
63
  3
INDEXCTL
350
1871
  3
PROJECTNAME
350
1917
  3
SORTENTS
350
1870
  0
DICTIONARY
  5
2203
102
{ACAD_REACTORS
330
C
102
}
330
C
100
AcDbDictionary
281
     1
  3
AcmStdDictionary
350
220F
  3
AMDTSECTSYM_ARROWCOLOR
350
222E
  0
DICTIONARY
  5
2142
102
{ACAD_REACTORS
330
C
102
}
330
C
100
AcDbDictionary
281
     1
  3
AcMgSettings
350
2143
  0
DICTIONARY
  5
2256
102
{ACAD_REACTORS
330
C
102
}
330
C
100
AcDbDictionary
281
     1
  3
DIMENSION
350
225B
  3
FEA
350
225A
  3
HATCH (1)
350
2257
  3
HATCH (2)
350
2258
  3
SIMPLE WELD
350
225C
  3
SYMBOLS
350
2259
  0
XRECORD
  5
226B
102
{ACAD_REACTORS
330
C
102
}
330
C
100
AcDbXrecord
280
     1
  1
DWGPROPS COOKIE
  2

  3

  4

  6

  7

  8
A070040
  9

300
AmdtFileType=84
301
=
302
=
303
=
304
=
305
=
306
=
307
=
308
=
309
=
 40
0.0925390509259259
 41
2454354.690738924
 42
2455610.577004884
  1

 90
        1
  0
DICTIONARY
  5
1C2
102
{ACAD_REACTORS
330
1C1
102
}
330
1C1
100
AcDbDictionary
281
     1
  0
XRECORD
  5
178D
102
{ACAD_REACTORS
330
178C
102
}
330
178C
100
AcDbXrecord
280
     1
290
     1
  0
XRECORD
  5
1B2
102
{ACAD_REACTORS
330
1B0
102
}
330
1B0
100
AcDbXrecord
280
     1
290
     1
  0
DICTIONARY
  5
2265
102
{ACAD_REACTORS
330
15E9
102
}
330
15E9
100
AcDbDictionary
281
     1
  3
*A1
350
2266
  0
SORTENTSTABLE
  5
15EA
102
{ACAD_REACTORS
330
15E9
102
}
330
15E9
100
AcDbSortentsTable
330
1F
331
1D76
  5
1D78
331
1E4D
  5
1E4F
331
1D0A
  5
1D0C
331
1D59
  5
1D5B
331
1D61
  5
1D63
331
1D3E
  5
1D40
331
1DA5
  5
1DA7
331
1D12
  5
1D14
331
1CF6
  5
1CF6
331
1D91
  5
1D93
331
1D46
  5
1D48
331
1E45
  5
1E47
331
1D1A
  5
1D1C
331
1D22
  5
1D24
331
1CFE
  5
1CFE
331
1D86
  5
1D88
331
1D06
  5
1D08
331
1EBB
  5
1EBD
331
1DEE
  5
1DF0
331
1E2D
  5
1E2F
331
1DAF
  5
1DB1
331
1E84
  5
1E86
331
1E8C
  5
1E8E
331
1EC3
  5
1EC5
331
1DF6
  5
1DF8
331
1E35
  5
1E37
331
1DB7
  5
1DB9
331
1E94
  5
1E96
331
1ECB
  5
1ECD
331
1DBF
  5
1DC1
331
1DFE
  5
1E00
331
1E55
  5
1E57
331
1E5D
  5
1E5F
331
1E9C
  5
1E9E
331
1DC7
  5
1DC9
331
1E06
  5
1E08
331
1ED3
  5
1ED5
331
1D8E
  5
1D90
331
1EEA
  5
1EEC
331
1D2A
  5
1D2C
331
1D9E
  5
1DA0
331
1CD3
  5
1CD3
331
1D32
  5
1D34
331
1D6F
  5
1D71
331
1E3E
  5
1E40
331
1CDB
  5
1CDB
331
1D4A
  5
1D4C
331
1D52
  5
1D54
331
1D7F
  5
1D81
331
1E16
  5
1E18
331
1CE3
  5
1CE3
331
1CEF
  5
1CEF
331
1EDB
  5
1EDD
331
1E0E
  5
1E10
331
1E65
  5
1E67
331
1DCF
  5
1DD1
331
1EA4
  5
1EA6
331
1E1E
  5
1E20
331
1E6D
  5
1E6F
331
1DD7
  5
1DD9
331
1EAC
  5
1EAE
331
1EB4
  5
1EB6
331
1DDF
  5
1DE1
331
1E26
  5
1E28
331
1E75
  5
1E77
331
1E7D
  5
1E7F
331
1DE7
  5
1DE9
331
1D0B
  5
1D0D
331
1D5A
  5
1D5C
331
1D77
  5
1D79
331
1E4E
  5
1E50
331
1DA6
  5
1DA8
331
1D13
  5
1D15
331
1D62
  5
1D64
331
1D3F
  5
1D41
331
1CF7
  5
1CF7
331
1D47
  5
1D49
331
1E46
  5
1E48
331
1D1B
  5
1D1D
331
1D92
  5
1D94
331
1D87
  5
1D89
331
1D23
  5
1D25
331
1CFF
  5
1CFF
331
1D07
  5
1D09
331
1DA8
  5
1DAA
331
1E85
  5
1E87
331
1EBC
  5
1EBE
331
1DB0
  5
1DB2
331
1DEF
  5
1DF1
331
1E2E
  5
1E30
331
1E36
  5
1E38
331
1E8D
  5
1E8F
331
1DB8
  5
1DBA
331
1DF7
  5
1DF9
331
1EC4
  5
1EC6
331
1ECC
  5
1ECE
331
1DFF
  5
1E01
331
1E56
  5
1E58
331
1DC0
  5
1DC2
331
1E95
  5
1E97
331
1E9D
  5
1E9F
331
1ED4
  5
1ED6
331
1E07
  5
1E09
331
1E5E
  5
1E60
331
1D8F
  5
1D91
331
1EEB
  5
1EED
331
1D2B
  5
1D2D
331
1D33
  5
1D35
331
1D68
  5
1D6A
331
1D9F
  5
1DA1
331
1CD4
  5
1CD4
331
1EE0
  5
1EE2
331
1E3F
  5
1E41
331
1CDC
  5
1CDC
331
1D4B
  5
1D4D
331
1D78
  5
1D7A
331
1E17
  5
1E19
331
1CE4
  5
1CE4
331
1D53
  5
1D55
331
1CE8
  5
1CE8
331
1DC8
  5
1DCA
331
1EA5
  5
1EA7
331
1EDC
  5
1EDE
331
1DD0
  5
1DD2
331
1E0F
  5
1E11
331
1E66
  5
1E68
331
1E6E
  5
1E70
331
1EAD
  5
1EAF
331
1DD8
  5
1DDA
331
1E1F
  5
1E21
331
1E27
  5
1E29
331
1E76
  5
1E78
331
1DE0
  5
1DE2
331
1EB5
  5
1EB7
331
1E7E
  5
1E80
331
1D70
  5
1D72
331
1D38
  5
1D3A
331
1E4F
  5
1E51
331
1D0C
  5
1D0E
331
1D5B
  5
1D5D
331
1CF0
  5
1CF0
331
1D63
  5
1D65
331
1D40
  5
1D42
331
1DA7
  5
1DA9
331
1D14
  5
1D16
331
1CF8
  5
1CF8
331
1D1C
  5
1D1E
331
1D93
  5
1D95
331
1D80
  5
1D82
331
1E47
  5
1E49
331
1D24
  5
1D26
331
1D00
  5
1D00
331
1DA9
  5
1DAB
331
1DE8
  5
1DEA
331
1EBD
  5
1EBF
331
1DF0
  5
1DF2
331
1E2F
  5
1E31
331
1DB1
  5
1DB3
331
1E86
  5
1E88
331
1E8E
  5
1E90
331
1EC5
  5
1EC7
331
1DB9
  5
1DBB
331
1DF8
  5
1DFA
331
1E37
  5
1E39
331
1E96
  5
1E98
331
1ECD
  5
1ECF
331
1DC1
  5
1DC3
331
1E00
  5
1E02
331
1E57
  5
1E59
331
1E5F
  5
1E61
331
1E9E
  5
1EA0
331
1ED5
  5
1ED7
331
1D88
  5
1D8A
331
1D98
  5
1D9A
331
1EEC
  5
1EEE
331
1D2C
  5
1D2E
331
1E38
  5
1E3A
331
1CD5
  5
1CD5
331
1D34
  5
1D36
331
1D69
  5
1D6B
331
1EE1
  5
1EE3
331
1D79
  5
1D7B
331
1E10
  5
1E12
331
1CDD
  5
1CDD
331
1D4C
  5
1D4E
331
20CE
  5
1D06
331
1D54
  5
1D56
331
1CE5
  5
1CE5
331
1CE9
  5
1CE9
331
1DC9
  5
1DCB
331
1E08
  5
1E0A
331
1EDD
  5
1EDF
331
1E18
  5
1E1A
331
1E67
  5
1E69
331
1DD1
  5
1DD3
331
1EA6
  5
1EA8
331
1EAE
  5
1EB0
331
1E20
  5
1E22
331
1E6F
  5
1E71
331
1DD9
  5
1DDB
331
1EB6
  5
1EB8
331
1DE1
  5
1DE3
331
1E77
  5
1E79
331
1E7F
  5
1E81
331
1D71
  5
1D73
331
1E48
  5
1E4A
331
1DA0
  5
1DA2
331
1D0D
  5
1D0F
331
1D5C
  5
1D5E
331
1D39
  5
1D3B
331
1CF1
  5
1CF1
331
1E40
  5
1E42
331
1D15
  5
1D17
331
1D64
  5
1D66
331
1D41
  5
1D43
331
1CF9
  5
1CF9
331
1D81
  5
1D83
331
1D1D
  5
1D1F
331
1D94
  5
1D96
331
1D01
  5
1D01
331
1D25
  5
1D27
331
1DAA
  5
1DAC
331
1DE9
  5
1DEB
331
1E28
  5
1E2A
331
1E30
  5
1E32
331
1E87
  5
1E89
331
1DB2
  5
1DB4
331
1DF1
  5
1DF3
331
1EBE
  5
1EC0
331
1E50
  5
1E52
331
1E8F
  5
1E91
331
1DBA
  5
1DBC
331
1DF9
  5
1DFB
331
1EC6
  5
1EC8
331
1ECE
  5
1ED0
331
1E01
  5
1E03
331
1E58
  5
1E5A
331
1DC2
  5
1DC4
331
1E97
  5
1E99
331
1E9F
  5
1EA1
331
1ED6
  5
1ED8
331
1D89
  5
1D8B
331
1D2D
  5
1D2F
331
1D99
  5
1D9B
331
17E6
  5
17E6
331
1EED
  5
2078
331
1D35
  5
1D37
331
1D6A
  5
1D6C
331
1E39
  5
1E3B
331
1CD6
  5
1CD6
331
1EE2
  5
1EE4
331
1E11
  5
1E13
331
1CDE
  5
1CDE
331
1D4D
  5
1D4F
331
1D7A
  5
1D7C
331
1CE6
  5
1CE6
331
1D55
  5
1D57
331
1CEA
  5
1CEA
331
1DCA
  5
1DCC
331
1E09
  5
1E0B
331
1E60
  5
1E62
331
1EA7
  5
1EA9
331
1EDE
  5
1EE0
331
1DD2
  5
1DD4
331
1E19
  5
1E1B
331
1E68
  5
1E6A
331
1E70
  5
1E72
331
1EAF
  5
1EB1
331
1DDA
  5
1DDC
331
1E21
  5
1E23
331
1E78
  5
1E7A
331
1DE2
  5
1DE4
331
1EB7
  5
1EB9
331
1E49
  5
1E4B
331
1D72
  5
1D74
331
1D3A
  5
1D3C
331
1DA1
  5
1DA3
331
1D0E
  5
1D10
331
1D5D
  5
1D5F
331
1CF2
  5
1CF2
331
1D65
  5
1D67
331
1D42
  5
1D44
331
1E41
  5
1E43
331
1D16
  5
1D18
331
1CFA
  5
1CFA
331
1D1E
  5
1D20
331
1D95
  5
1D97
331
1D82
  5
1D84
331
1D26
  5
1D28
331
1D02
  5
1D02
331
1E29
  5
1E2B
331
1E80
  5
1E82
331
1DAB
  5
1DAD
331
1DEA
  5
1DEC
331
1EBF
  5
1EC1
331
1DF2
  5
1DF4
331
1E31
  5
1E33
331
1DB3
  5
1DB5
331
1E88
  5
1E8A
331
1E90
  5
1E92
331
1EC7
  5
1EC9
331
1DBB
  5
1DBD
331
1DFA
  5
1DFC
331
1E51
  5
1E53
331
1E59
  5
1E5B
331
1E98
  5
1E9A
331
1DC3
  5
1DC5
331
1E02
  5
1E04
331
1ECF
  5
1ED1
331
1ED7
  5
1ED9
331
1D8A
  5
1D8C
331
1D9A
  5
1D9C
331
1EEE
  5
20BB
331
1D2E
  5
1D30
331
1D6B
  5
1D6D
331
1E3A
  5
1E3C
331
1CD7
  5
1CD7
331
1D36
  5
1D38
331
1D4E
  5
1D50
331
1D7B
  5
1D7D
331
1E12
  5
1E14
331
1CDF
  5
1CDF
331
1EE3
  5
1EE5
331
1D56
  5
1D58
331
1CE7
  5
1CE7
331
1CEB
  5
1CEB
331
1E61
  5
1E63
331
1EA0
  5
1EA2
331
1DCB
  5
1DCD
331
1E0A
  5
1E0C
331
1EDF
  5
1EE1
331
1E1A
  5
1E1C
331
1E69
  5
1E6B
331
1DD3
  5
1DD5
331
1EA8
  5
1EAA
331
1EB0
  5
1EB2
331
1DDB
  5
1DDD
331
1E22
  5
1E24
331
1E71
  5
1E73
331
1DE3
  5
1DE5
331
1E79
  5
1E7B
331
1D73
  5
1D75
331
1E4A
  5
1E4C
331
1DA2
  5
1DA4
331
1D0F
  5
1D11
331
1D5E
  5
1D60
331
1D3B
  5
1D3D
331
1CF3
  5
1CF3
331
1E42
  5
1E44
331
1D17
  5
1D19
331
1D66
  5
1D68
331
1D43
  5
1D45
331
1CFB
  5
1CFB
331
1D83
  5
1D85
331
1D1F
  5
1D21
331
1D96
  5
1D98
331
1D03
  5
1D03
331
1D27
  5
1D29
331
1E81
  5
1E83
331
1EB8
  5
1EBA
331
1DAC
  5
1DAE
331
1DEB
  5
1DED
331
1E2A
  5
1E2C
331
1E32
  5
1E34
331
1E89
  5
1E8B
331
1DB4
  5
1DB6
331
1DF3
  5
1DF5
331
1EC0
  5
1EC2
331
1EC8
  5
1ECA
331
1E52
  5
1E54
331
1E91
  5
1E93
331
1DBC
  5
1DBE
331
1DFB
  5
1DFD
331
1ED0
  5
1ED2
331
1E03
  5
1E05
331
1E5A
  5
1E5C
331
1DC4
  5
1DC6
331
1E99
  5
1E9B
331
1D8B
  5
1D8D
331
1D2F
  5
1D31
331
1D9B
  5
1D9D
331
1D37
  5
1D39
331
1D6C
  5
1D6E
331
1E3B
  5
1E3D
331
1CD8
  5
1CD8
331
1EE4
  5
1EE6
331
1E13
  5
1E15
331
1CE0
  5
1CE0
331
1D4F
  5
1D51
331
1D7C
  5
1D7E
331
1D57
  5
1D59
331
1CEC
  5
1CEC
331
1EA1
  5
1EA3
331
1ED8
  5
1EDA
331
1DCC
  5
1DCE
331
1E0B
  5
1E0D
331
1E62
  5
1E64
331
1E6A
  5
1E6C
331
1EA9
  5
1EAB
331
1DD4
  5
1DD6
331
1E1B
  5
1E1D
331
2078
  5
20BC
331
1E72
  5
1E74
331
1EB1
  5
1EB3
331
1DDC
  5
1DDE
331
1E23
  5
1E25
331
1E7A
  5
1E7C
331
1DE4
  5
1DE6
331
1D74
  5
1D76
331
1E4B
  5
1E4D
331
1D08
  5
1D0A
331
1D5F
  5
1D61
331
1D3C
  5
1D3E
331
1DA3
  5
1DA5
331
1D10
  5
1D12
331
1CF4
  5
1CF4
331
1D67
  5
1D69
331
1D44
  5
1D46
331
1E43
  5
1E45
331
1D18
  5
1D1A
331
1CFC
  5
1CFC
331
1D20
  5
1D22
331
1D97
  5
1D99
331
1D84
  5
1D86
331
1D04
  5
1D04
331
1EB9
  5
1EBB
331
1DEC
  5
1DEE
331
1E2B
  5
1E2D
331
1DAD
  5
1DAF
331
1E82
  5
1E84
331
1EC1
  5
1EC3
331
1DF4
  5
1DF6
331
1E33
  5
1E35
331
1DB5
  5
1DB7
331
1E8A
  5
1E8C
331
1E92
  5
1E94
331
1EC9
  5
1ECB
331
1DBD
  5
1DBF
331
1DFC
  5
1DFE
331
1E53
  5
1E55
331
1E5B
  5
1E5D
331
1E9A
  5
1E9C
331
1DC5
  5
1DC7
331
1E04
  5
1E06
331
1ED1
  5
1ED3
331
1D28
  5
1D2A
331
1D8C
  5
1D8E
331
1D9C
  5
1D9E
331
1CD1
  5
1CD1
331
1D30
  5
1D32
331
1D6D
  5
1D6F
331
1E3C
  5
1E3E
331
1CD9
  5
1CD9
331
1D48
  5
1D4A
331
1D50
  5
1D52
331
1D7D
  5
1D7F
331
1E14
  5
1E16
331
1CE1
  5
1CE1
331
1EE5
  5
1EE9
331
1CED
  5
1CED
331
1ED9
  5
1EDB
331
1E63
  5
1E65
331
1EA2
  5
1EA4
331
1DCD
  5
1DCF
331
1E0C
  5
1E0E
331
1E1C
  5
1E1E
331
1E6B
  5
1E6D
331
1DD5
  5
1DD7
331
1EAA
  5
1EAC
331
1EB2
  5
1EB4
331
1DDD
  5
1DDF
331
1E24
  5
1E26
331
1E73
  5
1E75
331
1E7B
  5
1E7D
331
1DE5
  5
1DE7
331
1D58
  5
1D5A
331
1D75
  5
1D77
331
1E4C
  5
1E4E
331
1D09
  5
1D0B
331
1DA4
  5
1DA6
331
1D11
  5
1D13
331
1D60
  5
1D62
331
1D3D
  5
1D3F
331
1CF5
  5
1CF5
331
1D45
  5
1D47
331
1E44
  5
1E46
331
1D19
  5
1D1B
331
1D90
  5
1D92
331
1D85
  5
1D87
331
1D21
  5
1D23
331
1CFD
  5
1CFD
331
1D05
  5
1D07
331
1E83
  5
1E85
331
1EBA
  5
1EBC
331
1DAE
  5
1DB0
331
1DED
  5
1DEF
331
1E2C
  5
1E2E
331
1E34
  5
1E36
331
1E8B
  5
1E8D
331
1DB6
  5
1DB8
331
1DF5
  5
1DF7
331
1EC2
  5
1EC4
331
1ECA
  5
1ECC
331
1DFD
  5
1DFF
331
1E54
  5
1E56
331
1DBE
  5
1DC0
331
1E93
  5
1E95
331
1ED2
  5
1ED4
331
1E05
  5
1E07
331
1E5C
  5
1E5E
331
1DC6
  5
1DC8
331
1E9B
  5
1E9D
331
1D8D
  5
1D8F
331
1EE9
  5
1EEB
331
1D29
  5
1D2B
331
1D31
  5
1D33
331
1D9D
  5
1D9F
331
1CD2
  5
1CD2
331
1CDA
  5
1CDA
331
1D49
  5
1D4B
331
1D6E
  5
1D70
331
1E3D
  5
1E3F
331
1EE6
  5
1EEA
331
1E15
  5
1E17
331
1CE2
  5
1CE2
331
1D51
  5
1D53
331
1D7E
  5
1D80
331
1CEE
  5
1CEE
331
1EA3
  5
1EA5
331
1EDA
  5
1EDC
331
1DCE
  5
1DD0
331
1E0D
  5
1E0F
331
1E64
  5
1E66
331
1E6C
  5
1E6E
331
1EAB
  5
1EAD
331
1DD6
  5
1DD8
331
1E1D
  5
1E1F
331
1E74
  5
1E76
331
1EB3
  5
1EB5
331
1DDE
  5
1DE0
331
1E25
  5
1E27
331
1E7C
  5
1E7E
331
1DE6
  5
1DE8
  0
DIMASSOC
  5
1EE8
102
{ACAD_REACTORS
330
1EE7
102
}
330
1EE7
100
AcDbDimAssoc
330
1EE6
 90
        3
 70
     0
 71
     0
  1
AcDbOsnapPointRef
 72
    13
331
1D4D
 73
     2
 91
        0
 40
0.0
 10
0.0
 20
0.0
 30
2.000000000000000E+50
 75
     0
  1
AcDbOsnapPointRef
 72
    13
331
1EE5
 73
     2
 91
        0
 40
0.0
 10
0.0
 20
0.0
 30
2.000000000000000E+50
 75
     0
  0
XRECORD
  5
2270
102
{ACAD_REACTORS
330
1835
102
}
330
1835
100
AcDbXrecord
280
     1
102
SHADEPLOT
 70
     0
  0
XRECORD
  5
1836
102
{ACAD_REACTORS
330
1835
102
}
330
1835
100
AcDbXrecord
280
     1
 90
        1
340
1762
  0
XRECORD
  5
2271
102
{ACAD_REACTORS
330
1839
102
}
330
1839
100
AcDbXrecord
280
     1
102
SHADEPLOT
 70
     0
  0
XRECORD
  5
183A
102
{ACAD_REACTORS
330
1839
102
}
330
1839
100
AcDbXrecord
280
     1
 90
        1
340
1762
  0
XRECORD
  5
1875
102
{ACAD_REACTORS
330
1874
102
}
330
1874
100
AcDbXrecord
280
     1
 70
     1
  0
GROUP
  5
A85
102
{ACAD_REACTORS
330
D
102
}
330
D
100
AcDbGroup
300

 70
     1
 71
     1
  0
GROUP
  5
A86
102
{ACAD_REACTORS
330
D
102
}
330
D
100
AcDbGroup
300

 70
     1
 71
     1
  0
LAYOUT
  5
22
102
{ACAD_XDICTIONARY
360
226D
102
}
102
{ACAD_REACTORS
330
1A
102
}
330
1A
100
AcDbPlotSettings
  1

  2
Adobe PDF
  4
A4
  6

 40
3.174999952316284
 41
3.174999952316284
 42
3.175003051757812
 43
3.17498779296875
 44
209.9733276367187
 45
297.0318298339844
 46
0.0
 47
2.998751917953853
 48
0.0
 49
0.0
140
0.0
141
0.0
142
1.0
143
3.141444489334892
 70
 11956
 72
     1
 73
     1
 74
     0
  7
KIHON1.ctb
 75
     0
147
0.3183248990695105
148
-88.50420388241401
149
-708.1750427976165
100
AcDbLayout
  1
Model
 70
     1
 71
     0
 10
0.0
 20
0.0
 11
12.0
 21
9.0
 12
0.0
 22
0.0
 32
0.0
 14
0.0
 24
0.0
 34
0.0
 15
0.0
 25
0.0
 35
0.0
146
0.0
 13
0.0
 23
0.0
 33
0.0
 16
1.0
 26
0.0
 36
0.0
 17
0.0
 27
1.0
 37
0.0
 76
     0
330
1F
331
173E
1001
ACAD_PSEXT
1000
Adobe PDF
1000
Adobe PDF Converter
1000
My Documents
1000

1070
     0
  0
LAYOUT
  5
182E
102
{ACAD_XDICTIONARY
360
1842
102
}
102
{ACAD_REACTORS
330
1A
102
}
330
1A
100
AcDbPlotSettings
  1

  2
Microsoft Office Document Image Writer
  4
A4
  6

 40
3.174999952316281
 41
3.174999952316281
 42
3.175003051757812
 43
3.17498779296875
 44
209.9733276367186
 45
297.0106506347656
 46
0.0
 47
0.0
 48
0.0
 49
0.0
140
0.0
141
0.0
142
1.0
143
1.0
 70
   688
 72
     1
 73
     1
 74
     5
  7
KIHON1.ctb
 75
    16
147
1.0
148
0.0
149
0.0
100
AcDbLayout
  1
レイアウト1
 70
     1
 71
     1
 10
-3.17498779296875
 20
-3.174999952316281
 11
293.8356628417969
 21
206.7983276844024
 12
0.0
 22
0.0
 32
0.0
 14
29.06606628894806
 24
20.36233246326444
 34
0.0
 15
261.5945966005325
 25
183.2609921693801
 35
0.0
146
0.0
 13
0.0
 23
0.0
 33
0.0
 16
1.0
 26
0.0
 36
0.0
 17
0.0
 27
1.0
 37
0.0
 76
     0
330
182D
331
1834
1001
ACAD_PSEXT
1000
Microsoft Office Document Image Writer
1000
Microsoft Office Document Image Writer Driver
1000
Microsoft Document Imaging Writer Port:
1000

1070
     0
  0
MATERIAL
  5
1748
102
{ACAD_XDICTIONARY
360
1749
102
}
102
{ACAD_REACTORS
330
6A
102
}
330
6A
100
AcDbMaterial
  1
ByBlock
 72
     0
 43
0.0008202099737533
 43
0.0
 43
0.0
 43
0.0
 43
0.0
 43
0.0008202099737533
 43
0.0
 43
0.0
 43
0.0
 43
0.0
 43
1.0
 43
0.0
 43
0.0
 43
0.0
 43
0.0
 43
1.0
 77
     0
 47
0.0008202099737533
 47
0.0
 47
0.0
 47
0.0
 47
0.0
 47
0.0008202099737533
 47
0.0
 47
0.0
 47
0.0
 47
0.0
 47
1.0
 47
0.0
 47
0.0
 47
0.0
 47
0.0
 47
1.0
171
     0
 49
0.0008202099737533
 49
0.0
 49
0.0
 49
0.0
 49
0.0
 49
0.0008202099737533
 49
0.0
 49
0.0
 49
0.0
 49
0.0
 49
1.0
 49
0.0
 49
0.0
 49
0.0
 49
0.0
 49
1.0
175
     0
142
0.0008202099737533
142
0.0
142
0.0
142
0.0
142
0.0
142
0.0008202099737533
142
0.0
142
0.0
142
0.0
142
0.0
142
1.0
142
0.0
142
0.0
142
0.0
142
0.0
142
1.0
179
     0
144
0.0008202099737533
144
0.0
144
0.0
144
0.0
144
0.0
144
0.0008202099737533
144
0.0
144
0.0
144
0.0
144
0.0
144
1.0
144
0.0
144
0.0
144
0.0
144
0.0
144
1.0
147
0.0008202099737533
147
0.0
147
0.0
147
0.0
147
0.0
147
0.0008202099737533
147
0.0
147
0.0
147
0.0
147
0.0
147
1.0
147
0.0
147
0.0
147
0.0
147
0.0
147
1.0
  0
MATERIAL
  5
1740
102
{ACAD_XDICTIONARY
360
1741
102
}
102
{ACAD_REACTORS
330
6A
102
}
330
6A
100
AcDbMaterial
  1
ByLayer
 72
     0
 43
0.0008202099737533
 43
0.0
 43
0.0
 43
0.0
 43
0.0
 43
0.0008202099737533
 43
0.0
 43
0.0
 43
0.0
 43
0.0
 43
1.0
 43
0.0
 43
0.0
 43
0.0
 43
0.0
 43
1.0
 77
     0
 47
0.0008202099737533
 47
0.0
 47
0.0
 47
0.0
 47
0.0
 47
0.0008202099737533
 47
0.0
 47
0.0
 47
0.0
 47
0.0
 47
1.0
 47
0.0
 47
0.0
 47
0.0
 47
0.0
 47
1.0
171
     0
 49
0.0008202099737533
 49
0.0
 49
0.0
 49
0.0
 49
0.0
 49
0.0008202099737533
 49
0.0
 49
0.0
 49
0.0
 49
0.0
 49
1.0
 49
0.0
 49
0.0
 49
0.0
 49
0.0
 49
1.0
175
     0
142
0.0008202099737533
142
0.0
142
0.0
142
0.0
142
0.0
142
0.0008202099737533
142
0.0
142
0.0
142
0.0
142
0.0
142
1.0
142
0.0
142
0.0
142
0.0
142
0.0
142
1.0
179
     0
144
0.0008202099737533
144
0.0
144
0.0
144
0.0
144
0.0
144
0.0008202099737533
144
0.0
144
0.0
144
0.0
144
0.0
144
1.0
144
0.0
144
0.0
144
0.0
144
0.0
144
1.0
147
0.0008202099737533
147
0.0
147
0.0
147
0.0
147
0.0
147
0.0008202099737533
147
0.0
147
0.0
147
0.0
147
0.0
147
1.0
147
0.0
147
0.0
147
0.0
147
0.0
147
1.0
  0
MATERIAL
  5
1BE
102
{ACAD_XDICTIONARY
360
1879
102
}
102
{ACAD_REACTORS
330
6A
102
}
330
6A
100
AcDbMaterial
  1
Global
 71
     1
 72
     0
 44
1.0
 76
     1
 77
     0
140
0.0
175
     0
145
1.5
1001
ACAD
1070
    -1
1070
     3
1070
     0
1000
Glass - Clear
1071
        0
  0
MLEADERSTYLE
  5
1784
102
{ACAD_REACTORS
330
1783
102
}
330
1783
100
AcDbMLeaderStyle
170
     2
171
     1
172
     0
 90
        2
 40
0.0
 41
0.0
173
     1
 91
-1056964608
340
14
 92
       -2
290
     1
 42
2.0
291
     1
 43
0.36
  3
Standard
 44
4.0
300

342
11
174
     1
178
     6
175
     1
176
     0
 93
-1056964608
 45
4.0
292
     0
297
     0
 46
4.0
 94
-1056964608
 47
1.0
 49
1.0
140
1.0
293
     1
141
0.0
294
     1
177
     0
142
1.0
295
     0
296
     0
143
0.125
1001
ACAD_MLEADERVER
1070
     2
1001
ACAD
1001
ACAD
1001
ACAD
1001
ACAD
1001
ACAD
1000
AcRTDxfName
1000
MLEADERSTYLE
  0
MLINESTYLE
  5
18
102
{ACAD_REACTORS
330
17
102
}
330
17
100
AcDbMlineStyle
  2
STANDARD
 70
     0
  3

 62
   256
 51
90.0
 52
90.0
 71
     2
 49
0.5
 62
   256
  6
BYLAYER
 49
-0.5
 62
   256
  6
BYLAYER
  0
ACDBPLACEHOLDER
  5
F
102
{ACAD_REACTORS
330
E
102
}
330
E
  0
SCALE
  5
1762
102
{ACAD_REACTORS
330
1761
102
}
330
1761
100
AcDbScale
 70
     0
300
1:1
140
1.0
141
1.0
290
     1
1001
ACAD
1001
ACAD
1001
ACAD
1001
ACAD
1001
ACAD
1000
AcRTDxfName
1000
SCALE
  0
SCALE
  5
1763
102
{ACAD_REACTORS
330
1761
102
}
330
1761
100
AcDbScale
 70
     0
300
1:2
140
1.0
141
2.0
290
     0
1001
ACAD
1001
ACAD
1001
ACAD
1001
ACAD
1001
ACAD
1000
AcRTDxfName
1000
SCALE
  0
SCALE
  5
1764
102
{ACAD_REACTORS
330
1761
102
}
330
1761
100
AcDbScale
 70
     0
300
1:4
140
1.0
141
4.0
290
     0
1001
ACAD
1001
ACAD
1001
ACAD
1001
ACAD
1001
ACAD
1000
AcRTDxfName
1000
SCALE
  0
SCALE
  5
1765
102
{ACAD_REACTORS
330
1761
102
}
330
1761
100
AcDbScale
 70
     0
300
1:5
140
1.0
141
5.0
290
     0
1001
ACAD
1001
ACAD
1001
ACAD
1001
ACAD
1001
ACAD
1000
AcRTDxfName
1000
SCALE
  0
SCALE
  5
1766
102
{ACAD_REACTORS
330
1761
102
}
330
1761
100
AcDbScale
 70
     0
300
1:8
140
1.0
141
8.0
290
     0
1001
ACAD
1001
ACAD
1001
ACAD
1001
ACAD
1001
ACAD
1000
AcRTDxfName
1000
SCALE
  0
SCALE
  5
1767
102
{ACAD_REACTORS
330
1761
102
}
330
1761
100
AcDbScale
 70
     0
300
1:10
140
1.0
141
10.0
290
     0
1001
ACAD
1001
ACAD
1001
ACAD
1001
ACAD
1001
ACAD
1000
AcRTDxfName
1000
SCALE
  0
SCALE
  5
1768
102
{ACAD_REACTORS
330
1761
102
}
330
1761
100
AcDbScale
 70
     0
300
1:16
140
1.0
141
16.0
290
     0
1001
ACAD
1001
ACAD
1001
ACAD
1001
ACAD
1001
ACAD
1000
AcRTDxfName
1000
SCALE
  0
SCALE
  5
1769
102
{ACAD_REACTORS
330
1761
102
}
330
1761
100
AcDbScale
 70
     0
300
1:20
140
1.0
141
20.0
290
     0
1001
ACAD
1001
ACAD
1001
ACAD
1001
ACAD
1001
ACAD
1000
AcRTDxfName
1000
SCALE
  0
SCALE
  5
176A
102
{ACAD_REACTORS
330
1761
102
}
330
1761
100
AcDbScale
 70
     0
300
1:30
140
1.0
141
30.0
290
     0
1001
ACAD
1001
ACAD
1001
ACAD
1001
ACAD
1001
ACAD
1000
AcRTDxfName
1000
SCALE
  0
SCALE
  5
176B
102
{ACAD_REACTORS
330
1761
102
}
330
1761
100
AcDbScale
 70
     0
300
1:40
140
1.0
141
40.0
290
     0
1001
ACAD
1001
ACAD
1001
ACAD
1001
ACAD
1001
ACAD
1000
AcRTDxfName
1000
SCALE
  0
SCALE
  5
176C
102
{ACAD_REACTORS
330
1761
102
}
330
1761
100
AcDbScale
 70
     0
300
1:50
140
1.0
141
50.0
290
     0
1001
ACAD
1001
ACAD
1001
ACAD
1001
ACAD
1001
ACAD
1000
AcRTDxfName
1000
SCALE
  0
SCALE
  5
176D
102
{ACAD_REACTORS
330
1761
102
}
330
1761
100
AcDbScale
 70
     0
300
1:100
140
1.0
141
100.0
290
     0
1001
ACAD
1001
ACAD
1001
ACAD
1001
ACAD
1001
ACAD
1000
AcRTDxfName
1000
SCALE
  0
SCALE
  5
176E
102
{ACAD_REACTORS
330
1761
102
}
330
1761
100
AcDbScale
 70
     0
300
2:1
140
2.0
141
1.0
290
     0
1001
ACAD
1001
ACAD
1001
ACAD
1001
ACAD
1001
ACAD
1000
AcRTDxfName
1000
SCALE
  0
SCALE
  5
176F
102
{ACAD_REACTORS
330
1761
102
}
330
1761
100
AcDbScale
 70
     0
300
4:1
140
4.0
141
1.0
290
     0
1001
ACAD
1001
ACAD
1001
ACAD
1001
ACAD
1001
ACAD
1000
AcRTDxfName
1000
SCALE
  0
SCALE
  5
1770
102
{ACAD_REACTORS
330
1761
102
}
330
1761
100
AcDbScale
 70
     0
300
8:1
140
8.0
141
1.0
290
     0
1001
ACAD
1001
ACAD
1001
ACAD
1001
ACAD
1001
ACAD
1000
AcRTDxfName
1000
SCALE
  0
SCALE
  5
1771
102
{ACAD_REACTORS
330
1761
102
}
330
1761
100
AcDbScale
 70
     0
300
10:1
140
10.0
141
1.0
290
     0
1001
ACAD
1001
ACAD
1001
ACAD
1001
ACAD
1001
ACAD
1000
AcRTDxfName
1000
SCALE
  0
SCALE
  5
1772
102
{ACAD_REACTORS
330
1761
102
}
330
1761
100
AcDbScale
 70
     0
300
100:1
140
100.0
141
1.0
290
     0
1001
ACAD
1001
ACAD
1001
ACAD
1001
ACAD
1001
ACAD
1000
AcRTDxfName
1000
SCALE
  0
SCALE
  5
1773
102
{ACAD_REACTORS
330
1761
102
}
330
1761
100
AcDbScale
 70
     0
300
1/128" = 1'-0"
140
0.0078125
141
12.0
290
     0
1001
ACAD
1001
ACAD
1001
ACAD
1001
ACAD
1001
ACAD
1000
AcRTDxfName
1000
SCALE
  0
SCALE
  5
1774
102
{ACAD_REACTORS
330
1761
102
}
330
1761
100
AcDbScale
 70
     0
300
1/64" = 1'-0"
140
0.015625
141
12.0
290
     0
1001
ACAD
1001
ACAD
1001
ACAD
1001
ACAD
1001
ACAD
1000
AcRTDxfName
1000
SCALE
  0
SCALE
  5
1775
102
{ACAD_REACTORS
330
1761
102
}
330
1761
100
AcDbScale
 70
     0
300
1/32" = 1'-0"
140
0.03125
141
12.0
290
     0
1001
ACAD
1001
ACAD
1001
ACAD
1001
ACAD
1001
ACAD
1000
AcRTDxfName
1000
SCALE
  0
SCALE
  5
1776
102
{ACAD_REACTORS
330
1761
102
}
330
1761
100
AcDbScale
 70
     0
300
1/16" = 1'-0"
140
0.0625
141
12.0
290
     0
1001
ACAD
1001
ACAD
1001
ACAD
1001
ACAD
1001
ACAD
1000
AcRTDxfName
1000
SCALE
  0
SCALE
  5
1777
102
{ACAD_REACTORS
330
1761
102
}
330
1761
100
AcDbScale
 70
     0
300
3/32" = 1'-0"
140
0.09375
141
12.0
290
     0
1001
ACAD
1001
ACAD
1001
ACAD
1001
ACAD
1001
ACAD
1000
AcRTDxfName
1000
SCALE
  0
SCALE
  5
1778
102
{ACAD_REACTORS
330
1761
102
}
330
1761
100
AcDbScale
 70
     0
300
1/8" = 1'-0"
140
0.125
141
12.0
290
     0
1001
ACAD
1001
ACAD
1001
ACAD
1001
ACAD
1001
ACAD
1000
AcRTDxfName
1000
SCALE
  0
SCALE
  5
1779
102
{ACAD_REACTORS
330
1761
102
}
330
1761
100
AcDbScale
 70
     0
300
3/16" = 1'-0"
140
0.1875
141
12.0
290
     0
1001
ACAD
1001
ACAD
1001
ACAD
1001
ACAD
1001
ACAD
1000
AcRTDxfName
1000
SCALE
  0
SCALE
  5
177A
102
{ACAD_REACTORS
330
1761
102
}
330
1761
100
AcDbScale
 70
     0
300
1/4" = 1'-0"
140
0.25
141
12.0
290
     0
1001
ACAD
1001
ACAD
1001
ACAD
1001
ACAD
1001
ACAD
1000
AcRTDxfName
1000
SCALE
  0
SCALE
  5
177B
102
{ACAD_REACTORS
330
1761
102
}
330
1761
100
AcDbScale
 70
     0
300
3/8" = 1'-0"
140
0.375
141
12.0
290
     0
1001
ACAD
1001
ACAD
1001
ACAD
1001
ACAD
1001
ACAD
1000
AcRTDxfName
1000
SCALE
  0
SCALE
  5
177C
102
{ACAD_REACTORS
330
1761
102
}
330
1761
100
AcDbScale
 70
     0
300
1/2" = 1'-0"
140
0.5
141
12.0
290
     0
1001
ACAD
1001
ACAD
1001
ACAD
1001
ACAD
1001
ACAD
1000
AcRTDxfName
1000
SCALE
  0
SCALE
  5
177D
102
{ACAD_REACTORS
330
1761
102
}
330
1761
100
AcDbScale
 70
     0
300
3/4" = 1'-0"
140
0.75
141
12.0
290
     0
1001
ACAD
1001
ACAD
1001
ACAD
1001
ACAD
1001
ACAD
1000
AcRTDxfName
1000
SCALE
  0
SCALE
  5
177E
102
{ACAD_REACTORS
330
1761
102
}
330
1761
100
AcDbScale
 70
     0
300
1" = 1'-0"
140
1.0
141
12.0
290
     0
1001
ACAD
1001
ACAD
1001
ACAD
1001
ACAD
1001
ACAD
1000
AcRTDxfName
1000
SCALE
  0
SCALE
  5
177F
102
{ACAD_REACTORS
330
1761
102
}
330
1761
100
AcDbScale
 70
     0
300
1-1/2" = 1'-0"
140
1.5
141
12.0
290
     0
1001
ACAD
1001
ACAD
1001
ACAD
1001
ACAD
1001
ACAD
1000
AcRTDxfName
1000
SCALE
  0
SCALE
  5
1780
102
{ACAD_REACTORS
330
1761
102
}
330
1761
100
AcDbScale
 70
     0
300
3" = 1'-0"
140
3.0
141
12.0
290
     0
1001
ACAD
1001
ACAD
1001
ACAD
1001
ACAD
1001
ACAD
1000
AcRTDxfName
1000
SCALE
  0
SCALE
  5
1781
102
{ACAD_REACTORS
330
1761
102
}
330
1761
100
AcDbScale
 70
     0
300
6" = 1'-0"
140
6.0
141
12.0
290
     0
1001
ACAD
1001
ACAD
1001
ACAD
1001
ACAD
1001
ACAD
1000
AcRTDxfName
1000
SCALE
  0
SCALE
  5
1782
102
{ACAD_REACTORS
330
1761
102
}
330
1761
100
AcDbScale
 70
     0
300
1'-0" = 1'-0"
140
12.0
141
12.0
290
     0
1001
ACAD
1001
ACAD
1001
ACAD
1001
ACAD
1001
ACAD
1000
AcRTDxfName
1000
SCALE
  0
TABLESTYLE
  5
7F
102
{ACAD_XDICTIONARY
360
1803
102
}
102
{ACAD_REACTORS
330
7E
102
}
330
7E
100
AcDbTableStyle
  3
Standard
 70
     0
 71
     0
 40
1.5
 41
1.5
280
     0
281
     0
  7
Standard
140
4.5
170
     2
 62
     0
 63
     7
283
     0
274
    -2
284
     1
 64
     0
275
    -2
285
     1
 65
     0
276
    -2
286
     1
 66
     0
277
    -2
287
     1
 67
     0
278
    -2
288
     1
 68
     0
279
    -2
289
     1
 69
     0
  7
Standard
140
6.0
170
     5
 62
     0
 63
     7
283
     0
274
    -2
284
     1
 64
     0
275
    -2
285
     1
 65
     0
276
    -2
286
     1
 66
     0
277
    -2
287
     1
 67
     0
278
    -2
288
     1
 68
     0
279
    -2
289
     1
 69
     0
  7
Standard
140
4.5
170
     5
 62
     0
 63
     7
283
     0
274
    -2
284
     1
 64
     0
275
    -2
285
     1
 65
     0
276
    -2
286
     1
 66
     0
277
    -2
287
     1
 67
     0
278
    -2
288
     1
 68
     0
279
    -2
289
     1
 69
     0
  0
VISUALSTYLE
  5
1756
102
{ACAD_REACTORS
330
1750
102
}
330
1750
100
AcDbVisualStyle
  2
2dWireframe
 70
     4
 71
     0
 72
     2
 73
     0
 90
        0
 40
-0.6
 41
-30.0
 62
     5
 63
     7
 74
     1
 91
        4
 64
     7
 65
   257
 75
     1
175
     1
 42
1.0
 92
        0
 66
   257
 43
1.0
 76
     1
 77
     6
 78
     2
 67
     7
 79
     5
170
     0
171
     0
290
     0
174
     0
 93
        1
 44
0.0
173
     0
291
     0
 45
0.0
1001
ACAD
1000
AcDbSavedByObjectVersion
1070
     0
1001
ACAD
1001
ACAD
1001
ACAD
1001
ACAD
1001
ACAD
1000
AcRTDxfName
1000
VISUALSTYLE
  0
VISUALSTYLE
  5
1758
102
{ACAD_REACTORS
330
1750
102
}
330
1750
100
AcDbVisualStyle
  2
3D Hidden
 70
     6
 71
     1
 72
     2
 73
     2
 90
        0
 40
-0.6
 41
-30.0
 62
     5
 63
     7
 74
     2
 91
        2
 64
     7
 65
   257
 75
     2
175
     1
 42
40.0
 92
        0
 66
   257
 43
1.0
 76
     1
 77
     6
 78
     2
 67
     7
 79
     3
170
     0
171
     0
290
     0
174
     0
 93
        1
 44
0.0
173
     0
291
     0
 45
0.0
1001
ACAD
1000
AcDbSavedByObjectVersion
1070
     0
1001
ACAD
1001
ACAD
1001
ACAD
1001
ACAD
1001
ACAD
1000
AcRTDxfName
1000
VISUALSTYLE
  0
VISUALSTYLE
  5
1757
102
{ACAD_REACTORS
330
1750
102
}
330
1750
100
AcDbVisualStyle
  2
3dWireframe
 70
     5
 71
     0
 72
     2
 73
     0
 90
        0
 40
-0.6
 41
-30.0
 62
     5
 63
     7
 74
     1
 91
        4
 64
     7
 65
   257
 75
     1
175
     1
 42
1.0
 92
        0
 66
   257
 43
1.0
 76
     1
 77
     6
 78
     2
 67
     7
 79
     5
170
     0
171
     0
290
     0
174
     0
 93
        1
 44
0.0
173
     0
291
     0
 45
0.0
1001
ACAD
1000
AcDbSavedByObjectVersion
1070
     0
1001
ACAD
1001
ACAD
1001
ACAD
1001
ACAD
1001
ACAD
1000
AcRTDxfName
1000
VISUALSTYLE
  0
VISUALSTYLE
  5
1755
102
{ACAD_REACTORS
330
1750
102
}
330
1750
100
AcDbVisualStyle
  2
Basic
 70
     7
 71
     1
 72
     0
 73
     1
 90
        0
 40
-0.6
 41
-30.0
 62
     5
 63
     7
 74
     0
 91
        4
 64
     7
 65
   257
 75
     1
175
     1
 42
1.0
 92
        8
 66
     7
 43
1.0
 76
     1
 77
     6
 78
     2
 67
     7
 79
     5
170
     0
171
     0
290
     0
174
     0
 93
        1
 44
0.0
173
     0
291
     1
 45
0.0
1001
ACAD
1000
AcDbSavedByObjectVersion
1070
     0
1001
ACAD
1001
ACAD
1001
ACAD
1001
ACAD
1001
ACAD
1000
AcRTDxfName
1000
VISUALSTYLE
  0
VISUALSTYLE
  5
175C
102
{ACAD_REACTORS
330
1750
102
}
330
1750
100
AcDbVisualStyle
  2
Brighten
 70
    12
 71
     2
 72
     2
 73
     0
 90
        0
 40
-0.6
 41
-30.0
 62
     5
 63
     7
 74
     1
 91
        4
 64
     7
 65
   257
 75
     1
175
     1
 42
1.0
 92
        8
 66
     7
 43
1.0
 76
     1
 77
     6
 78
     2
 67
     7
 79
     5
170
     0
171
     0
290
     0
174
     0
 93
        1
 44
50.0
173
     0
291
     1
 45
0.0
1001
ACAD
1000
AcDbSavedByObjectVersion
1070
     0
1001
ACAD
1001
ACAD
1001
ACAD
1001
ACAD
1001
ACAD
1000
AcRTDxfName
1000
VISUALSTYLE
  0
VISUALSTYLE
  5
1760
102
{ACAD_REACTORS
330
1750
102
}
330
1750
100
AcDbVisualStyle
  2
ColorChange
 70
    16
 71
     2
 72
     2
 73
     3
 90
        0
 40
-0.6
 41
-30.0
 62
     5
 63
     8
 74
     1
 91
        4
 64
     7
 65
   257
 75
     1
175
     1
 42
1.0
 92
        8
 66
     8
 43
1.0
 76
     1
 77
     6
 78
     2
 67
     7
 79
     5
170
     0
171
     0
290
     0
174
     0
 93
        1
 44
0.0
173
     0
291
     1
 45
0.0
1001
ACAD
1000
AcDbSavedByObjectVersion
1070
     0
1001
ACAD
1001
ACAD
1001
ACAD
1001
ACAD
1001
ACAD
1000
AcRTDxfName
1000
VISUALSTYLE
  0
VISUALSTYLE
  5
1759
102
{ACAD_REACTORS
330
1750
102
}
330
1750
100
AcDbVisualStyle
  2
Conceptual
 70
     9
 71
     3
 72
     2
 73
     0
 90
        0
 40
-0.6
 41
-30.0
 62
     5
 63
     7
 74
     2
 91
        2
 64
     7
 65
   257
 75
     1
175
     1
 42
40.0
 92
        8
 66
     7
 43
1.0
 76
     1
 77
     6
 78
     2
 67
     7
 79
     3
170
     0
171
     0
290
     0
174
     0
 93
        1
 44
0.0
173
     0
291
     0
 45
0.0
1001
ACAD
1000
AcDbSavedByObjectVersion
1070
     0
1001
ACAD
1001
ACAD
1001
ACAD
1001
ACAD
1001
ACAD
1000
AcRTDxfName
1000
VISUALSTYLE
  0
VISUALSTYLE
  5
175B
102
{ACAD_REACTORS
330
1750
102
}
330
1750
100
AcDbVisualStyle
  2
Dim
 70
    11
 71
     2
 72
     2
 73
     0
 90
        0
 40
-0.6
 41
-30.0
 62
     5
 63
     7
 74
     1
 91
        4
 64
     7
 65
   257
 75
     1
175
     1
 42
1.0
 92
        8
 66
     7
 43
1.0
 76
     1
 77
     6
 78
     2
 67
     7
 79
     5
170
     0
171
     0
290
     0
174
     0
 93
        1
 44
-50.0
173
     0
291
     1
 45
0.0
1001
ACAD
1000
AcDbSavedByObjectVersion
1070
     0
1001
ACAD
1001
ACAD
1001
ACAD
1001
ACAD
1001
ACAD
1000
AcRTDxfName
1000
VISUALSTYLE
  0
VISUALSTYLE
  5
175F
102
{ACAD_REACTORS
330
1750
102
}
330
1750
100
AcDbVisualStyle
  2
Facepattern
 70
    15
 71
     2
 72
     2
 73
     0
 90
        0
 40
-0.6
 41
-30.0
 62
     5
 63
     7
 74
     1
 91
        4
 64
     7
 65
   257
 75
     1
175
     1
 42
1.0
 92
        8
 66
     7
 43
1.0
 76
     1
 77
     6
 78
     2
 67
     7
 79
     5
170
     0
171
     0
290
     0
174
     0
 93
        1
 44
0.0
173
     0
291
     1
 45
0.0
1001
ACAD
1000
AcDbSavedByObjectVersion
1070
     0
1001
ACAD
1001
ACAD
1001
ACAD
1001
ACAD
1001
ACAD
1000
AcRTDxfName
1000
VISUALSTYLE
  0
VISUALSTYLE
  5
1751
102
{ACAD_REACTORS
330
1750
102
}
330
1750
100
AcDbVisualStyle
  2
Flat
 70
     0
 71
     2
 72
     1
 73
     1
 90
        2
 40
-0.6
 41
30.0
 62
     5
 63
     7
 74
     0
 91
        4
 64
     7
 65
   257
 75
     1
175
     1
 42
1.0
 92
        8
 66
     7
 43
1.0
 76
     1
 77
     6
 78
     2
 67
     7
 79
     5
170
     0
171
     0
290
     0
174
     0
 93
       13
 44
0.0
173
     0
291
     1
 45
0.0
1001
ACAD
1000
AcDbSavedByObjectVersion
1070
     0
1001
ACAD
1001
ACAD
1001
ACAD
1001
ACAD
1001
ACAD
1000
AcRTDxfName
1000
VISUALSTYLE
  0
VISUALSTYLE
  5
1752
102
{ACAD_REACTORS
330
1750
102
}
330
1750
100
AcDbVisualStyle
  2
FlatWithEdges
 70
     1
 71
     2
 72
     1
 73
     1
 90
        2
 40
-0.6
 41
30.0
 62
     5
 63
     7
 74
     1
 91
        4
 64
     7
 65
   257
 75
     1
175
     1
 42
1.0
 92
        0
 66
   257
 43
1.0
 76
     1
 77
     6
 78
     2
 67
     7
 79
     5
170
     0
171
     0
290
     0
174
     0
 93
       13
 44
0.0
173
     0
291
     1
 45
0.0
1001
ACAD
1000
AcDbSavedByObjectVersion
1070
     0
1001
ACAD
1001
ACAD
1001
ACAD
1001
ACAD
1001
ACAD
1000
AcRTDxfName
1000
VISUALSTYLE
  0
VISUALSTYLE
  5
1753
102
{ACAD_REACTORS
330
1750
102
}
330
1750
100
AcDbVisualStyle
  2
Gouraud
 70
     2
 71
     2
 72
     2
 73
     1
 90
        2
 40
-0.6
 41
30.0
 62
     5
 63
     7
 74
     0
 91
        4
 64
     7
 65
   257
 75
     1
175
     1
 42
1.0
 92
        0
 66
     7
 43
1.0
 76
     1
 77
     6
 78
     2
 67
     7
 79
     5
170
     0
171
     0
290
     0
174
     0
 93
       13
 44
0.0
173
     0
291
     1
 45
0.0
1001
ACAD
1000
AcDbSavedByObjectVersion
1070
     0
1001
ACAD
1001
ACAD
1001
ACAD
1001
ACAD
1001
ACAD
1000
AcRTDxfName
1000
VISUALSTYLE
  0
VISUALSTYLE
  5
1754
102
{ACAD_REACTORS
330
1750
102
}
330
1750
100
AcDbVisualStyle
  2
GouraudWithEdges
 70
     3
 71
     2
 72
     2
 73
     1
 90
        2
 40
-0.6
 41
30.0
 62
     5
 63
     7
 74
     1
 91
        4
 64
     7
 65
   257
 75
     1
175
     1
 42
1.0
 92
        0
 66
   257
 43
1.0
 76
     1
 77
     6
 78
     2
 67
     7
 79
     5
170
     0
171
     0
290
     0
174
     0
 93
       13
 44
0.0
173
     0
291
     1
 45
0.0
1001
ACAD
1000
AcDbSavedByObjectVersion
1070
     0
1001
ACAD
1001
ACAD
1001
ACAD
1001
ACAD
1001
ACAD
1000
AcRTDxfName
1000
VISUALSTYLE
  0
VISUALSTYLE
  5
175E
102
{ACAD_REACTORS
330
1750
102
}
330
1750
100
AcDbVisualStyle
  2
Linepattern
 70
    14
 71
     2
 72
     2
 73
     0
 90
        0
 40
-0.6
 41
-30.0
 62
     5
 63
     7
 74
     1
 91
        4
 64
     7
 65
   257
 75
     7
175
     7
 42
1.0
 92
        8
 66
     7
 43
1.0
 76
     1
 77
     6
 78
     2
 67
     7
 79
     5
170
     0
171
     0
290
     0
174
     0
 93
        1
 44
0.0
173
     0
291
     1
 45
0.0
1001
ACAD
1000
AcDbSavedByObjectVersion
1070
     0
1001
ACAD
1001
ACAD
1001
ACAD
1001
ACAD
1001
ACAD
1000
AcRTDxfName
1000
VISUALSTYLE
  0
VISUALSTYLE
  5
175A
102
{ACAD_REACTORS
330
1750
102
}
330
1750
100
AcDbVisualStyle
  2
Realistic
 70
     8
 71
     2
 72
     2
 73
     0
 90
        0
 40
-0.6
 41
-30.0
 62
     5
 63
     7
 74
     1
 91
        0
 64
     7
 65
   257
 75
     1
175
     1
 42
1.0
 92
        8
 66
     8
 43
1.0
 76
     1
 77
     6
 78
     2
 67
     7
 79
     5
170
     0
171
     0
290
     0
174
     0
 93
       13
 44
0.0
173
     0
291
     0
 45
0.0
1001
ACAD
1000
AcDbSavedByObjectVersion
1070
     0
1001
ACAD
1001
ACAD
1001
ACAD
1001
ACAD
1001
ACAD
1000
AcRTDxfName
1000
VISUALSTYLE
  0
VISUALSTYLE
  5
175D
102
{ACAD_REACTORS
330
1750
102
}
330
1750
100
AcDbVisualStyle
  2
Thicken
 70
    13
 71
     2
 72
     2
 73
     0
 90
        0
 40
-0.6
 41
-30.0
 62
     5
 63
     7
 74
     1
 91
        4
 64
     7
 65
   257
 75
     1
175
     1
 42
1.0
 92
       12
 66
     7
 43
1.0
 76
     1
 77
     6
 78
     2
 67
     7
 79
     5
170
     0
171
     0
290
     0
174
     0
 93
        1
 44
0.0
173
     0
291
     1
 45
0.0
1001
ACAD
1000
AcDbSavedByObjectVersion
1070
     0
1001
ACAD
1001
ACAD
1001
ACAD
1001
ACAD
1001
ACAD
1000
AcRTDxfName
1000
VISUALSTYLE
  0
DICTIONARYVAR
  5
181E
102
{ACAD_REACTORS
330
5E
102
}
330
5E
100
DictionaryVariables
280
     0
  1
1:1
  0
DICTIONARYVAR
  5
181D
102
{ACAD_REACTORS
330
5E
102
}
330
5E
100
DictionaryVariables
280
     0
  1
STANDARD
  0
DICTIONARYVAR
  5
84
102
{ACAD_REACTORS
330
5E
102
}
330
5E
100
DictionaryVariables
280
     0
  1
STANDARD
  0
DICTIONARYVAR
  5
5F
102
{ACAD_REACTORS
330
5E
102
}
330
5E
100
DictionaryVariables
280
     0
  1
2
  0
DICTIONARYVAR
  5
63
102
{ACAD_REACTORS
330
5E
102
}
330
5E
100
DictionaryVariables
280
     0
  1
1
  0
DICTIONARYVAR
  5
1871
102
{ACAD_REACTORS
330
5E
102
}
330
5E
100
DictionaryVariables
280
     0
  1
1
  0
DICTIONARYVAR
  5
1917
102
{ACAD_REACTORS
330
5E
102
}
330
5E
100
DictionaryVariables
280
     0
  1

  0
DICTIONARYVAR
  5
1870
102
{ACAD_REACTORS
330
5E
102
}
330
5E
100
DictionaryVariables
280
     0
  1
127
  0
DICTIONARY
  5
220F
102
{ACAD_REACTORS
330
2203
102
}
330
2203
100
AcDbDictionary
281
     1
  0
XRECORD
  5
222E
102
{ACAD_REACTORS
330
2203
102
}
330
2203
100
AcDbXrecord
280
     1
 90
-1023410169
  0
DICTIONARY
  5
2143
102
{ACAD_REACTORS
330
2142
102
}
330
2142
100
AcDbDictionary
281
     1
  3
DWGSETTINGS
350
2144
  3
TRANSSETTINGS
350
2148
  0
ACAMGFILTERDAT
  5
225B
102
{ACAD_REACTORS
330
2256
102
}
330
2256
100
AcAmgFilterDat
 70
    15
  1
DIMENSION,AMDT_*_DIM
  2
*
  3
*
  4
*
  5
*
290
     1
  0
ACAMGFILTERDAT
  5
225A
102
{ACAD_REACTORS
330
2256
102
}
330
2256
100
AcAmgFilterDat
 70
    15
  1
*
  2
AM_FEA-AM_*
  3
*
  4
*
  5
*
290
     1
  0
ACAMGFILTERDAT
  5
2257
102
{ACAD_REACTORS
330
2256
102
}
330
2256
100
AcAmgFilterDat
 70
    15
  1
HATCH
  2
*
  3
*
  4
*
  5
*
290
     1
  0
ACAMGFILTERDAT
  5
2258
102
{ACAD_REACTORS
330
2256
102
}
330
2256
100
AcAmgFilterDat
 70
    15
  1
LINE
  2
8,8N,*-8,*-8N,AM_8,AM_8N,*-AM_8,*-AM_8N
  3
*
  4
*
  5
INSERT,STDPART2D
290
     1
  0
ACAMGFILTERDAT
  5
225C
102
{ACAD_REACTORS
330
2256
102
}
330
2256
100
AcAmgFilterDat
 70
    15
  1
ARC
  2
AM_5
  3
*
  4
2
  5
INSERT
290
     0
  0
ACAMGFILTERDAT
  5
2259
102
{ACAD_REACTORS
330
2256
102
}
330
2256
100
AcAmgFilterDat
 70
    15
  1
ACMFCFRAME,ACMDATUMTARGET,ACMDATUMID,ACMWELDSYM,ACMSURFSYM,ACMFEATID,ACMPARTREF,ACMBALLOON,AMDTEDGESYM,AMGSCREWCALCTABLE
  2
*
  3
*
  4
*
  5
*
290
     1
  0
LAYER_INDEX
  5
2266
102
{ACAD_REACTORS
330
2265
102
}
330
2265
100
AcDbIndex
 40
2455610.577004884
100
AcDbLayerIndex
  8
0
360
2267
 90
      540
  8
かくれ線
360
2268
 90
        3
  8
Defpoints
360
2269
 90
        0
  0
DICTIONARY
  5
226D
330
22
100
AcDbDictionary
280
     1
281
     1
  3
ACAD_XREC_ROUNDTRIP
360
226E
  0
DICTIONARY
  5
1842
330
182E
100
AcDbDictionary
280
     1
281
     1
  3
ACAD_XREC_ROUNDTRIP
360
226F
  3
ADSK_XREC_LAYOUTTHUMBNAIL
360
1843
  0
DICTIONARY
  5
1749
330
1748
100
AcDbDictionary
280
     1
281
     1
  3
ACAD_XREC_ROUNDTRIP
360
187C
  3
BUMPTILE
360
174B
  3
DIFFUSETILE
360
174A
  3
OPACITYTILE
360
174E
  3
REFLECTIONTILE
360
174D
  3
REFRACTIONTILE
360
174F
  3
SPECULARTILE
360
174C
  0
DICTIONARY
  5
1741
330
1740
100
AcDbDictionary
280
     1
281
     1
  3
ACAD_XREC_ROUNDTRIP
360
187B
  3
BUMPTILE
360
1743
  3
DIFFUSETILE
360
1742
  3
OPACITYTILE
360
1746
  3
REFLECTIONTILE
360
1745
  3
REFRACTIONTILE
360
1747
  3
SPECULARTILE
360
1744
  0
DICTIONARY
  5
1879
330
1BE
100
AcDbDictionary
280
     1
281
     1
  3
ACAD_XREC_ROUNDTRIP
360
187A
  0
DICTIONARY
  5
1803
330
7F
100
AcDbDictionary
280
     1
281
     1
  3
ACAD_ROUNDTRIP_2008_TABLESTYLE_CELLSTYLEMAP
360
1872
  3
ACAD_XREC_ROUNDTRIP
360
1878
  0
IDBUFFER
  5
2267
330
0
100
AcDbIdBuffer
330
1EC3
330
1EC4
330
1EC5
330
1EC6
330
1EC7
330
1EC8
330
1EC9
330
1ECA
330
1ECB
330
1ECC
330
1ECD
330
1ECE
330
1ECF
330
1ED0
330
1ED1
330
1ED2
330
1ED3
330
1ED4
330
1ED5
330
1ED6
330
1ED7
330
1ED8
330
1ED9
330
1EDA
330
1EDB
330
1EDC
330
1EDD
330
1EDE
330
1EDF
330
1EE0
330
1EE1
330
1EE2
330
1EE3
330
1EE4
330
1EE5
330
1EE6
330
1EE9
330
1EEA
330
1EEB
330
1EEC
330
1EED
330
1EEE
330
2078
330
20CE
330
17E6
330
1CD1
330
1CD2
330
1CD3
330
1CD4
330
1CD5
330
1CD6
330
1CD7
330
1CD8
330
1CD9
330
1CDA
330
1CDB
330
1CDC
330
1CDD
330
1CDE
330
1CDF
330
1CE0
330
1CE1
330
1CE2
330
1CE3
330
1CE4
330
1CE5
330
1CE6
330
1CE7
330
1CE8
330
1CE9
330
1CEA
330
1CEB
330
1CEC
330
1CED
330
1CEE
330
1CEF
330
1CF0
330
1CF1
330
1CF2
330
1CF3
330
1CF4
330
1CF5
330
1CF6
330
1CF7
330
1CF8
330
1CF9
330
1CFA
330
1CFB
330
1CFC
330
1CFD
330
1CFE
330
1CFF
330
1D00
330
1D01
330
1D02
330
1D06
330
1D07
330
1D08
330
1D09
330
1D0A
330
1D0B
330
1D0C
330
1D0D
330
1D0E
330
1D0F
330
1D10
330
1D11
330
1D12
330
1D13
330
1D14
330
1D15
330
1D16
330
1D17
330
1D18
330
1D19
330
1D1A
330
1D1B
330
1D1C
330
1D1D
330
1D1E
330
1D1F
330
1D20
330
1D21
330
1D22
330
1D23
330
1D24
330
1D25
330
1D26
330
1D27
330
1D28
330
1D29
330
1D2A
330
1D2B
330
1D2C
330
1D2D
330
1D2E
330
1D2F
330
1D30
330
1D31
330
1D32
330
1D33
330
1D34
330
1D35
330
1D36
330
1D37
330
1D38
330
1D39
330
1D3A
330
1D3B
330
1D3C
330
1D3D
330
1D3E
330
1D3F
330
1D40
330
1D41
330
1D42
330
1D43
330
1D44
330
1D45
330
1D46
330
1D47
330
1D48
330
1D49
330
1D4A
330
1D4B
330
1D4C
330
1D4D
330
1D4E
330
1D4F
330
1D50
330
1D51
330
1D52
330
1D53
330
1D54
330
1D55
330
1D56
330
1D57
330
1D58
330
1D59
330
1D5A
330
1D5B
330
1D5C
330
1D5D
330
1D5E
330
1D5F
330
1D60
330
1D61
330
1D62
330
1D63
330
1D64
330
1D65
330
1D66
330
1D67
330
1D68
330
1D69
330
1D6A
330
1D6B
330
1D6C
330
1D6D
330
1D6E
330
1D6F
330
1D70
330
1D71
330
1D72
330
1D73
330
1D74
330
1D75
330
1D76
330
1D77
330
1D78
330
1D79
330
1D7A
330
1D7B
330
1D7C
330
1D7D
330
1D7E
330
1D7F
330
1D80
330
1D81
330
1D82
330
1D83
330
1D84
330
1D85
330
1D86
330
1D87
330
1D88
330
1D89
330
1D8A
330
1D8B
330
1D8C
330
1D8D
330
1D8E
330
1D8F
330
1D90
330
1D91
330
1D92
330
1D93
330
1D94
330
1D95
330
1D96
330
1D97
330
1D98
330
1D99
330
1D9A
330
1D9B
330
1D9C
330
1D9D
330
1D9E
330
1D9F
330
1DA0
330
1DA1
330
1DA2
330
1DA3
330
1DA4
330
1DA5
330
1DA6
330
1DA7
330
1DA8
330
1DA9
330
1DAA
330
1DAB
330
1DAC
330
1DAD
330
1DAE
330
1DAF
330
1DB0
330
1DB1
330
1DB2
330
1DB3
330
1DB4
330
1DB5
330
1DB6
330
1DB7
330
1DB8
330
1DB9
330
1DBA
330
1DBB
330
1DBC
330
1DBD
330
1DBE
330
1DBF
330
1DC0
330
1DC1
330
1DC2
330
1DC3
330
1DC4
330
1DC5
330
1DC6
330
1DC7
330
1DC8
330
1DC9
330
1DCA
330
1DCB
330
1DCC
330
1DCD
330
1DCE
330
1DCF
330
1DD0
330
1DD1
330
1DD2
330
1DD3
330
1DD4
330
1DD5
330
1DD6
330
1DD7
330
1DD8
330
1DD9
330
1DDA
330
1DDB
330
1DDC
330
1DDD
330
1DDE
330
1DDF
330
1DE0
330
1DE1
330
1DE2
330
1DE3
330
1DE4
330
1DE5
330
1DE6
330
1DE7
330
1DE8
330
1DE9
330
1DEA
330
1DEB
330
1DEC
330
1DED
330
1DEE
330
1DEF
330
1DF0
330
1DF1
330
1DF2
330
1DF3
330
1DF4
330
1DF5
330
1DF6
330
1DF7
330
1DF8
330
1DF9
330
1DFA
330
1DFB
330
1DFC
330
1DFD
330
1DFE
330
1DFF
330
1E00
330
1E01
330
1E02
330
1E03
330
1E04
330
1E05
330
1E06
330
1E07
330
1E08
330
1E09
330
1E0A
330
1E0B
330
1E0C
330
1E0D
330
1E0E
330
1E0F
330
1E10
330
1E11
330
1E12
330
1E13
330
1E14
330
1E15
330
1E16
330
1E17
330
1E18
330
1E19
330
1E1A
330
1E1B
330
1E1C
330
1E1D
330
1E1E
330
1E1F
330
1E20
330
1E21
330
1E22
330
1E23
330
1E24
330
1E25
330
1E26
330
1E27
330
1E28
330
1E29
330
1E2A
330
1E2B
330
1E2C
330
1E2D
330
1E2E
330
1E2F
330
1E30
330
1E31
330
1E32
330
1E33
330
1E34
330
1E35
330
1E36
330
1E37
330
1E38
330
1E39
330
1E3A
330
1E3B
330
1E3C
330
1E3D
330
1E3E
330
1E3F
330
1E40
330
1E41
330
1E42
330
1E43
330
1E44
330
1E45
330
1E46
330
1E47
330
1E48
330
1E49
330
1E4A
330
1E4B
330
1E4C
330
1E4D
330
1E4E
330
1E4F
330
1E50
330
1E51
330
1E52
330
1E53
330
1E54
330
1E55
330
1E56
330
1E57
330
1E58
330
1E59
330
1E5A
330
1E5B
330
1E5C
330
1E5D
330
1E5E
330
1E5F
330
1E60
330
1E61
330
1E62
330
1E63
330
1E64
330
1E65
330
1E66
330
1E67
330
1E68
330
1E69
330
1E6A
330
1E6B
330
1E6C
330
1E6D
330
1E6E
330
1E6F
330
1E70
330
1E71
330
1E72
330
1E73
330
1E74
330
1E75
330
1E76
330
1E77
330
1E78
330
1E79
330
1E7A
330
1E7B
330
1E7C
330
1E7D
330
1E7E
330
1E7F
330
1E80
330
1E81
330
1E82
330
1E83
330
1E84
330
1E85
330
1E86
330
1E87
330
1E88
330
1E89
330
1E8A
330
1E8B
330
1E8C
330
1E8D
330
1E8E
330
1E8F
330
1E90
330
1E91
330
1E92
330
1E93
330
1E94
330
1E95
330
1E96
330
1E97
330
1E98
330
1E99
330
1E9A
330
1E9B
330
1E9C
330
1E9D
330
1E9E
330
1E9F
330
1EA0
330
1EA1
330
1EA2
330
1EA3
330
1EA4
330
1EA5
330
1EA6
330
1EA7
330
1EA8
330
1EA9
330
1EAA
330
1EAB
330
1EAC
330
1EAD
330
1EAE
330
1EAF
330
1EB0
330
1EB1
330
1EB2
330
1EB3
330
1EB4
330
1EB5
330
1EB6
330
1EB7
330
1EB8
330
1EB9
330
1EBA
330
1EBB
330
1EBC
330
1EBD
330
1EBE
330
1EBF
330
1EC0
330
1EC1
330
1EC2
  0
IDBUFFER
  5
2268
330
0
100
AcDbIdBuffer
330
1D03
330
1D04
330
1D05
  0
IDBUFFER
  5
2269
330
0
100
AcDbIdBuffer
  0
XRECORD
  5
226E
102
{ACAD_REACTORS
330
226D
102
}
330
226D
100
AcDbXrecord
280
     1
102
SHADEPLOT
 70
     0
102
SHADEPLOTRESLEVEL
 70
     2
102
SHADEPLOTCUSTOMDPI
 70
   300
  0
XRECORD
  5
226F
102
{ACAD_REACTORS
330
1842
102
}
330
1842
100
AcDbXrecord
280
     1
102
SHADEPLOT
 70
     0
102
SHADEPLOTRESLEVEL
 70
     2
102
SHADEPLOTCUSTOMDPI
 70
   300
  0
XRECORD
  5
1843
102
{ACAD_REACTORS
330
1842
102
}
330
1842
100
AcDbXrecord
280
     1
310
28000000B40000007F00000001000800000000004C590000000000000000000000010000000000000000000000000000FFFFFF000000000000000000000000000000000000000000000000000000000000000000330000006600000099000000CC000000FF00000000330000333300006633000099330000CC330000FF3300
310
0000660000336600006666000099660000CC660000FF66000000990000339900006699000099990000CC990000FF99000000CC000033CC000066CC000099CC0000CCCC0000FFCC000000FF000033FF000066FF000099FF0000CCFF0000FFFF000000003300330033006600330099003300CC003300FF003300003333003333
310
33006633330099333300CC333300FF33330000663300336633006666330099663300CC663300FF66330000993300339933006699330099993300CC993300FF99330000CC330033CC330066CC330099CC3300CCCC3300FFCC330000FF330033FF330066FF330099FF3300CCFF3300FFFF330000006600330066006600660099
310
006600CC006600FF00660000336600333366006633660099336600CC336600FF33660000666600336666006666660099666600CC666600FF66660000996600339966006699660099996600CC996600FF99660000CC660033CC660066CC660099CC6600CCCC6600FFCC660000FF660033FF660066FF660099FF6600CCFF6600
310
FFFF660000009900330099006600990099009900CC009900FF00990000339900333399006633990099339900CC339900FF33990000669900336699006666990099669900CC669900FF66990000999900339999006699990099999900CC999900FF99990000CC990033CC990066CC990099CC9900CCCC9900FFCC990000FF99
310
0033FF990066FF990099FF9900CCFF9900FFFF99000000CC003300CC006600CC009900CC00CC00CC00FF00CC000033CC003333CC006633CC009933CC00CC33CC00FF33CC000066CC003366CC006666CC009966CC00CC66CC00FF66CC000099CC003399CC006699CC009999CC00CC99CC00FF99CC0000CCCC0033CCCC0066CC
310
CC0099CCCC00CCCCCC00FFCCCC0000FFCC0033FFCC0066FFCC0099FFCC00CCFFCC00FFFFCC000000FF003300FF006600FF009900FF00CC00FF00FF00FF000033FF003333FF006633FF009933FF00CC33FF00FF33FF000066FF003366FF006666FF009966FF00CC66FF00FF66FF000099FF003399FF006699FF009999FF00CC
310
99FF00FF99FF0000CCFF0033CCFF0066CCFF0099CCFF00CCCCFF00FFCCFF0000FFFF0033FFFF0066FFFF0099FFFF00CCFFFF00FFFFFF00000000000D0D0D001A1A1A00282828003535350043434300505050005D5D5D006B6B6B00787878008686860093939300A1A1A100AEAEAE00BBBBBB00C9C9C900D6D6D600E4E4E400
310
F1F1F100FFFFFF0000000000000000000000000000000000000000000000000000000000000000000000000000000000F5F5F5F5F5F5F5F5F5F5F5F5F5F5F5F5F5F5F5F5F5F5F5F5F5F5F5F5F5F5F5F5F5F5F5F5F5F5F5F5F5F5F5F5F5F5F5F5F5F5F5F5F5F5F5F5F5F5F5F5F5F5F5F5F5F5F5F5F5F5F5F5F5F5F5F5F5F5F5
310
F5F5F5F5F5F5F5F5F5F5F5F5F5F5F5F5F5F5F5F5F5F5F5F5F5F5F5F5F5F5F5F5F5F5F5F5F5F5F5F5F5F5F5F5F5F5F5F5F5F5F5F5F5F5F5F5F5F5F5F5F5F5F5F5F5F5F5F5F5F5F5F5F5F5F5F5F5F5F5F5F5F5F5F5F5F5F5F5F5F5F5F5F5F5F5F5F5F5F5F5F5F5E2E2E2E2E2E2E2E2E2E2E2E2E2E2E2E2E2E2E2E2E2E2E2E2E2
310
E2E2E2E2E2E2E2E2E2E2E2E2E2E2E2E2E2E2E2E2E2E2E2E2E2E2E2E2E2E2E2E2E2E2E2E2E2E2E2E2E2E2E2E2E2E2E2E2E2E2E2E2E2E2E2E2E2E2E2E2E2E2E2E2E2E2E2E2E2E2E2E2E2E2E2E2E2E2E2E2E2E2E2E2E2E2E2E2E2E2E2E2E2E2E2E2E2E2E2E2E2E2E2E2E2E2E2E2E2E2E2E2E2E2E2E2E2E2E2E2E2E2E2E2E2E2E2
310
E2E2E2E2E2E2E2E2E2E2E2E2E2E2E2E2E2E2E2E2E2E2E2E2E2E2F5F5E2F5F5F5F5F5F5F5F5F5E2E2E2E2E2E2E2E2E2F5F5F5F5F5F5F5F5F5F5F5F5F5F5F5F5E2E2E2E2E2E2E2E2E2F5F5F5F5F5F5F5F5F5F5F5F5F5F5F5F5E2E2E2E2E2E2E2E2E2F5F5F5F5F5F5F5F5F5F5F5F5F5F5F5F5E2E2E2E2E2E2E2E2E2F5F5F5F5F5
310
F5F5F5F5F5F5F5F5F5F5F5E2E2E2E2E2E2E2E2E2F5F5F5F5F5F5F5F5F5F5F5F5F5F5F5F5E2E2E2E2E2E2E2E2E2F5F5F5F5F5F5F5F5F5F5F5F5F5F5F5F5E2E2E2E2E2E2E2E2E2F5F5F5F5F5F5F5F5E2F5F5E2F5E2E2E2E2E2E2E2E2E2E2E2E2E2E2E2E2E2E2E2E2E2E2E2E2E2E2E2E2E2E2E2E2E2E2E2E2E2E2E2E2E2E2E2E2
310
E2E2E2E2E2E2E2E2E2E2E2E2E2E2E2E2E2E2E2E2E2E2E2E2E2E2E2E2E2E2E2E2E2E2E2E2E2E2E2E2E2E2E2E2E2E2E2E2E2E2E2E2E2E2E2E2E2E2E2E2E2E2E2E2E2E2E2E2E2E2E2E2E2E2E2E2E2E2E2E2E2E2E2E2E2E2E2E2E2E2E2E2E2E2E2E2E2E2E2E2E2E2E2E2E2E2E2E2E2E2E2E2E2E2E2E2E2E2E2E2E2E2E2E2E2E2E2
310
E2E2E2F5E2F5F5E2F5E2E2E2E2E2E2E2E2E2E2E2E2E2E2E2E2E2E2E2E2E2E2E2E2E2E2E2E2E2E2E2E2E2E2E2E2E2E2E2E2E2E2E2E2E2E2E2E2E2E2E2E2E2E2E2E2E2E2E2E2E2E2E2E2E2E2E2E2E2E2E2E2E2E2E2E2E2E2E2E2E2E2E2E2E2E2E2E2E2E2E2E2E2E2E2E2E2E2E2E2E2E2E2E2E2E2E2E2E2E2E2E2E2E2E2E2E2E2
310
E2E2E2E2E2E2E2E2E2E2E2E2E2E2E2E2E2E2E2E2E2E2E2E2E2E2E2E2E2E2E2E2E2E2E2E2E2E2E2E2E2E2E2E2E2E2E2E2E2E2E2E2E2E2E2E2F5E2F5F5E2F5E2E2E2E2E2E2E2E2E2E2E2E2E2E2E2E2E2E2E2E2E2E2E2E2E2E2E2E2E2E2E2E2E2E2E2E2E2E2E2E2E2E2E2E2E2E2E2E2E2E2E2E2E2E2E2E2E2E2E2E2E2E2E2E2E2
310
E2E2E2E2E2E2E2E2E2E2E2E2E2E2E2E2E2E2E2E2E2E2E2E2E2E2E2E2E2E2E2E2E2E2E2E2E2E2E2E2E2E2E2E2E2E2E2E2E2E2E2E2E2E2E2E2E2E2E2E2E2E2E2E2E2E2E2E2E2E2E2E2E2E2E2E2E2E2E2E2E2E2E2E2E2E2E2E2E2E2E2E2E2E2E2E2E2E2E2E2E2E2E2E2E2E2E2E2E2F5E2F5F5E2F5E2E2E2E2E2E2E2E2E2E2E2E2
310
E2E2E2E2E2E2E2E2E2E2E2E2E2E2E2E2E2E2E2E2E2E2E2E2E2E2E2E2E2E2E2E2E2E2E2E2E2E2E2E2E2E2E2E2E2E2E2E2E2E2E2E2E2E2E2E2E2E2E2E2E2E2E2E2E2E2E2E2E2E2E2E2E2E2E2E2E2E2E2E2E2E2E2E2E2E2E2E2E2E2E2E2E2E2E2E2E2E2E2E2E2E2E2E2E2E2E2E2E2E2E2E2E2E2E2E2E2E2E2E2E2E2E2E2E2E2E2
310
E2E2E2E2E2E2E2E2E2E2E2E2E2E2E2E2E2E2E2E2E2E2E2E2E2E2E2E2E2E2E2E2E2E2E2F5E2F5F5E2F5E2E2E2E2E2E2E2E2E2E2E2E2E2E2E2E2E2E2E2E2E2E2E2E2E2E2E2E2E2E2E2E2E2E2E2E2E2E2E2E2E2E2E2E2E2E2E2E2E2E2E2E2E2E2E2E2E2E2E2E2E2E2E2E2E2E2E2E2E2E2E2E2E2E2E2E2E2E2E2E2E2E2E2E2E2E2
310
E2E2E2E2E2E2E2E2E2E2E2E2E2E2E2E2E2E2E2E2E2E2E2E2E2E2E2E2E2E2E2E2E2E2E2E2E2E2E2E2E2E2E2E2E2E2E2E2E2E2E2E2E2E2E2E2E2E2E2E2E2E2E2E2E2E2E2E2E2E2E2E2E2E2E2E2E2E2E2E2E2E2E2E2E2E2E2E2F5E2F5F5E2F5E2E2E2E2E2E2E2E2E2E2E2E2E2E2E2E2E2E2E2E2E2E2E2E2E2E2E2E2E2E2E2E2E2
310
E2E2E2E2E2E2E2E2E2E2E2E2E2E2E2E2E2E2E2E2E2E2E2E2E2E2E2E2E2E2E2E2E2E2E2E2E2E2E2E2E2E2E2E2E2E2E2E2E2E2E2E2E2E2E2E2E2E2E2E2E2E2E2E2E2E2E2E2E2E2E2E2E2E2E2E2E2E2E2E2E2E2E2E2E2E2E2E2E2E2E2E2E2E2E2E2E2E2E2E2E2E2E2E2E2E2E2E2E2E2E2E2E2E2E2E2E2E2E2E2E2E2E2E2E2E2E2
310
E2E2E2E2E2E2E2E2E2E2E2E2E2E2F5E2F5F5E2F5E2E2E2E2E2E2E2E2E2E2E2E2E2E2E2E2E2E2E2E2E2E2E2E2E2E2E2E2E2E2E2E2E2E2E2E2E2E2E2E2E2E2E2E2E2E2E2E2E2E2E2E2E2E2E2E2E2E2E2E2E2E2E2E2E2E2E2E2E2E2E2E2E2E2E2E2E2E2E2E2E2E2E2E2E2E2E2E2E2E2E2E2E2E2E2E2E2E2E2E2E2E2E2E2E2E2E2
310
E2E2E2E2E2E2E2E2E2E2E2E2E2E2E2E2E2E2E2E2E2E2E2E2E2E2E2E2E2E2E2E2E2E2E2E2E2E2E2E2E2E2E2E2E2E2E2E2E2E2E2E2E2E2E2E2E2E2E2E2E2E2E2E2E2E2E2F5E2F5F5E2E2E2E2E2E2E2E2E2E2E2E2E2E2E2E2E2E2E2E2E2E2E2E2E2E2E2E2E2E2E2E2E2E2E2E2E2E2E2E2E2E2E2E2E2E2E2E2E2E2E2E2E2E2E2E2
310
E2E2E2E2E2E2E2E2E2E2E2E2E2E2E2E2E2E2E2E2E2E2E2E2E2E2E2E2E2E2E2E2E2E2E2E2E2E2E2E2E2E2E2E2E2E2E2E2E2E2E2E2E2E2E2E2E2E2E2E2E2E2E2E2E2E2E2E2E2E2E2E2E2E2E2E2E2E2E2E2E2E2E2E2E2E2E2E2E2E2E2E2E2E2E2E2E2E2E2E2E2E2E2E2E2E2E2E2E2E2E2E2E2E2E2E2E2E2E2E2E2E2F5F5E2E2E2
310
E2E2E2E2E2E2E2E2E2E2E2E2E2E2E2E2E2E2E2E2E2E2E2E2E2E2E2E2E2E2E2E2E2E2E2E2E2E2E2E2E2E2E2E2E2E2E2E2E2E2E2E2E2E2E2E2E2E2E2E2E2E2E2E2E2E2E2E2E2E2E2E2E2E2E2E2E2E2E2E2E2E2E2E2E2E2E2E2E2E2E2E2E2E2E2E2E2E2E2E2E2E2E2E2E2E2E2E2E2E2E2E2E2E2E2E2E2E2E2E2E2E2E2E2E2E2E2
310
E2E2E2E2E2E2E2E2E2E2E2E2E2E2E2E2E2E2E2E2E2E2E2E2E2E2E2E2E2E2E2E2E2E2E2E2E2E2E2E2E2E2E2E2E2E2E2E2F5F5E2E2E2E2E2E2E2E2E2E2E2E2E2E2E2E2E2E2E2E2E2E2E2E2E2E2E2E2E2E2E2E2E2E2E2E2E2E2E2E2E2E2E2E2E2E2E2E2E2E2E2E2E2E2E2E2E2E2E2E2E2E2E2E2E2E2E2E2E2E2E2E2E2E2E2E2E2
310
E2E2E2E2E2E2E2E2E2E2E2E2E2E2E2E2E2E2E2E2E2E2E2E2E2E2E2E2E2E2E2E2E2E2E2E2E2E2E2E2E2E2E2E2E2E2E2E2E2E2E2E2E2E2E2E2E2E2E2E2E2E2E2E2E2E2E2E2E2E2E2E2E2E2E2E2E2E2E2E2E2E2E2E2E2E2E2E2E2E2E2E2E2E2E2E2E2E2E2E2E2F5F5E2E2E2E2E2E2E2E2E2E2E2E2E2E2E2E2E2E2E2E2E2E2E2E2
310
E2E2E2E2E2E2E2E2E2E2E2E2E2E2E2E2E2E2E2E2E2E2E2E2E2E2E2E2E2E2E2E2E2E2E2E2E2E2E2E2E2E2E2E2E2E2E2E2E2E2E2E2E2E2E2E2E2E2E2E2E2E2E2E2E2E2E2E2E2E2E2E2E2E2E2E2E2E2E2E2E2E2E2E2E2E2E2E2E2E2E2E2E2E2E2E2E2E2E2E2E2E2E2E2E2E2E2E2E2E2E2E2E2E2E2E2E2E2E2E2E2E2E2E2E2E2E2
310
E2E2E2E2E2E2E2E2E2E2E2E2E2E2E2E2E2E2E2E2E2E2E2E2E2E2E2F5F5E2E2E2E2E2E2E2E2E2E2E2E2E2E2E2E2E2E2E2F5F5F5F5F5F5F5F5F5F5F5F5F5F5F5F5F5F5F5F5F5F5F5F5F5F5F5F5F5F5F5F5F5F5F5F5F5F5F5F5F5F5F5F5F5F5F5F5F5F5F5F5F5F5F5F5F5F5F5F5F5F5F5F5F5F5F5F5F5F5F5F5F5F5F5F5F5F5F5
310
F5F5F5F5F5F5F5F5F5F5F5F5F5F5F5F5F5F5F5F5F5F5F5F5F5F5F5F5F5F5F5F5F5F5F5F5F5F5F5F5F5F5F5F5F5F5F5F5F5F5F5F5F5F5F5F5F5F5F5F5F5E2E2E2E2E2E2E2E2E2E2E2E2E2E2E2E2E2E2E2F5F5E2E2E2E2E2E2E2E2E2E2E2E2E2E2E2E2E2E2E2F5E2E2E2E2E2E2E2E2E2E2E2E2E2E2E2E2E2E2E2E2E2E2E2E2E2
310
E2E2E2E2E2E2E2E2E2E2E2E2E2E2E2E2E2E2E2E2E2E2E2E2E2E2E2E2E2E2E2E2E2E2E2E2E2E2E2E2E2E2E2E2E2E2E2E2E2E2E2E2E2E2E2E2E2E2E2E2E2E2E2E2E2E2E2E2E2E2E2E2E2E2E2E2E2E2E2E2E2E2E2E2E2E2E2E2E2E2E2E2E2E2E2E2E2E2E2E2E2E2E2E2E2E2E2E2E2E2E2E2E2F5E2E2E2E2E2E2E2E2E2E2E2E2E2
310
E2E2E2E2E2E2F5F5E2E2E2E2E2E2E2E2E2E2E2E2E2E2E2E2E2E2E2F5E2E2E2E2E2E2E2E2E2E2E2E2E2E2E2E2E2E2E2E2E2E2E2E2E2E2E2E2E2E2E2E2E2E2E2E2E2E2E2E2E2E2E2E2E2E2E2E2E2E2E2E2E2E2E2E2E2E2E2E2E2E2E2E2E2E2E2E2E2E2E2E2E2E2E2E2E2E2E2E2E2E2E2E2E2E2E2E2E2E2E2E2E2E2E2E2E2E2E2
310
E2E2E2E2E2E2E2E2E2E2E2E2E2E2E2E2E2E2E2E2E2E2E2E2E2E2E2E2E2E2E2E2E2E2E2E2E2E2E2F5E2E2E2E2E2E2E2E2E2E2E2E2E2E2E2E2E2E2E2F5F5E2E2E2E2E2E2E2E2E2E2E2E2E2E2E2E2E2E2E2F5E2E2E2E2E2E2E2E2E2E2E2E2E2E2E2E2E2E2E2E2E2E2E2E2E2E2E2E2E2E2E2E2E2E2E2E2E2E2E2E2E2E2E2E2E2E2
310
E2E2E2E2E2E2E2E2E2E2E2E2E2E2E2E2E2E2E2E2E2E2E2E2F5F5F5F5F5F5F5F5F5F5F5F5F5F5F5F5F5F5F5F5F5F5F5F5F5F5F5F5F5E2E2E2E2E2E2E2E2E2E2E2E2E2E2E2E2E2E2E2E2E2E2E2E2E2E2E2E2E2E2E2E2E2E2E2E2E2E2E2F5E2E2E2E2E2E2E2E2E2E2E2E2E2E2E2E2E2E2E2F5F5E2E2E2E2E2E2E2E2E2E2E2E2E2
310
E2E2E2E2E2E2F5E2E2E2E2E2E2E2E2E2E2E2E2E2E2E2E2E2E2E2E2E2E2E2E2E2E2E2E2E2E2E2E2E2E2E2E2E2E2E2E2E2E2E2E2E2E2E2E2E2E2E2E2E2E2E2E2E2E2E2E2E2E2E2E2E2E2E2E2E2E2F5F5E2E2E2E2E2E2E2E2E2E2F5F5F5F5E2E2E2E2E2E2E2E2E2E2E2F5F5E2E2E2E2E2E2E2E2E2E2E2E2E2E2E2E2E2E2E2E2E2
310
E2E2E2E2E2E2E2E2E2E2E2E2E2E2E2E2E2E2F5E2E2E2E2E2E2E2E2E2E2E2E2E2E2E2E2E2E2E2F5F5E2F5E2E2E2E2E2E2E2E2E2E2E2E2E2E2E2E2E2F5E2E2E2E2E2E2E2E2E2E2E2E2E2E2E2E2E2E2E2E2E2E2E2E2E2E2E2E2E2E2E2E2E2E2E2E2E2E2E2E2E2E2E2E2E2E2E2E2E2E2E2E2E2E2E2E2E2E2E2E2E2E2E2E2E2E2E2
310
E2E2E2F5E2E2E2E2E2E2E2E2E2E2E2F5F5F5F5E2E2E2E2E2E2E2E2E2E2E2E2F5E2E2E2E2E2E2E2E2E2E2E2E2E2E2E2E2E2E2E2E2E2E2E2E2E2E2E2E2E2E2E2E2E2E2E2E2E2E2E2F5E2E2E2E2E2E2E2E2E2E2E2E2E2E2E2E2E2F5E2F5F5E2F5E2E2E2E2E2E2E2E2E2E2E2E2E2E2E2E2E2F5E2E2E2E2E2E2E2E2E2E2E2E2E2E2
310
E2E2E2E2E2E2E2E2E2E2E2E2E2E2E2E2E2E2E2E2E2E2E2E2E2E2E2E2E2E2E2E2E2E2E2E2E2E2E2E2E2E2E2E2E2E2E2E2E2E2E2E2E2E2E2E2F5F5E2F5F5F5E2E2E2E2E2E2F5F5F5F5E2E2E2E2E2E2F5E2F5F5E2F5F5E2E2E2E2E2E2E2E2E2E2E2E2E2E2E2E2E2E2E2E2E2E2E2E2E2E2E2E2E2E2E2E2E2E2E2E2E2E2E2F5E2E2
310
E2E2E2E2E2E2E2E2E2E2E2E2E2E2E2F5E2F5F5E2F5E2E2E2E2E2E2E2E2E2E2E2E2E2E2E2E2E2F5E2E2E2E2E2E2E2E2E2E2E2E2E2E2E2E2E2E2E2E2E2E2E2E2E2E2E2E2E2E2E2E2E2E2E2E2E2E2E2E2E2E2E2E2E2E2E2E2E2E2E2E2E2F5F5F5F5F5F5F5F5F5F5F5F5F5F5F5F5F5F5F5F5F5F5F5F5F5F5F5F5F5F5F5F5F5F5F5
310
F5F5F5F5F5F5F5F5F5F5F5F5F5F5F5F5F5F5F5F5F5F5F5F5F5F5F5E2E2E2E2E2E2E2E2E2E2E2E2E2E2E2E2E2E2E2E2E2E2E2F5E2E2E2E2E2E2E2E2E2E2E2E2E2E2E2E2E2F5E2F5F5E2F5E2E2E2E2E2E2E2E2E2E2E2E2E2E2E2E2E2F5E2E2E2E2E2E2E2E2E2E2E2E2E2E2E2E2E2E2E2E2E2E2E2E2E2E2E2E2E2E2E2E2E2E2E2
310
E2E2E2E2E2E2E2E2E2E2E2E2E2E2E2E2E2E2E2F5F5F5E2F5F5F5F5F5F5F5F5F5F5E2E2F5E2E2E2F5E2E2E2E2E2E2E2F5F5F5F5F5E2E2E2E2E2E2E2F5E2E2E2F5E2F5F5F5E2F5F5F5F5F5F5F5F5F5F5E2E2E2E2E2E2E2E2E2E2E2E2E2E2E2E2E2E2E2E2E2E2E2E2F5E2E2E2E2E2E2E2E2E2E2E2E2E2E2E2E2E2F5E2F5F5E2F5
310
E2E2E2E2E2E2E2E2E2E2E2E2E2E2E2E2E2F5E2E2E2E2E2E2E2E2E2E2E2E2E2E2E2E2E2E2E2E2E2E2E2E2E2E2E2E2E2E2E2E2E2E2E2E2E2E2E2E2E2E2E2E2E2E2E2E2E2E2E2E2E2E2F5F5F5E2F5F5F5F5F5F5F5F5F5F5E2E2F5E2E2E2F5E2E2E2E2E2E2E2F5F5F5F5F5E2E2E2E2E2E2E2F5E2E2E2F5E2F5F5F5E2F5F5F5F5F5
310
F5F5F5F5F5E2E2E2E2E2E2E2E2E2E2E2E2E2E2E2E2E2E2E2E2E2E2E2E2F5E2E2E2E2E2E2E2E2E2E2E2E2E2E2E2E2E2F5E2F5F5E2F5E2E2E2E2E2E2E2E2E2E2E2E2E2E2E2E2E2F5E2E2E2E2E2E2E2E2E2E2E2E2E2E2E2E2E2E2E2E2E2E2E2E2E2E2E2E2E2E2E2E2E2E2E2E2E2E2E2F5F5F5F5F5F5F5F5F5F5F5F5F5F5F5F5F5
310
F5F5F5F5F5F5F5F5F5F5F5E2E2E2F5E2E2E2F5E2E2E2E2E2E2E2E2E2E2E2E2E2E2E2E2E2E2E2F5E2E2E2F5E2E2E2E2E2E2E2E2E2E2E2E2E2E2E2E2E2E2E2E2E2E2E2E2E2E2E2E2E2E2E2E2E2E2E2E2E2E2E2F5E2E2E2E2E2E2E2E2E2E2E2E2E2E2E2E2E2F5E2F5F5E2F5E2E2E2E2E2E2E2E2E2E2E2E2E2E2E2E2E2F5E2E2E2
310
E2E2E2E2E2E2E2E2E2E2E2E2E2E2E2E2E2E2E2E2E2E2E2E2E2E2E2E2E2E2E2E2E2E2E2E2F5E2F5F5F5F5F5F5F5F5F5F5F5F5E2E2F5F5F5E2E2E2E2E2E2E2F5F5E2E2E2F5E2E2E2F5E2E2E2E2E2E2E2E2E2E2E2E2E2E2E2E2E2E2E2F5E2E2E2F5E2E2E2E2E2E2E2E2E2E2E2E2E2E2E2E2E2E2E2E2E2E2E2E2E2E2E2E2E2E2E2
310
E2E2E2E2E2E2E2E2F5E2E2E2E2E2E2E2E2E2E2E2E2E2E2E2E2E2F5E2F5F5E2F5E2E2E2E2E2E2E2E2E2E2E2E2E2E2E2E2E2F5E2E2E2E2E2E2E2E2E2E2E2E2E2E2E2E2E2E2E2E2E2E2E2E2E2E2E2E2E2E2E2E2E2E2E2E2E2E2E2E2F5F5F5F5F5F5F5F5F5F5F5F5F5E2E2F5E2E2E2E2E2E2E2E2E2E2F5E2E2E2F5E2E2E2F5F5F5
310
F5F5F5F5F5F5F5F5F5F5F5F5F5F5F5F5F5F5E2E2E2F5E2E2E2E2E2E2E2E2E2E2E2E2E2E2E2E2E2E2E2E2E2E2E2E2E2E2E2E2E2E2E2E2E2E2E2E2E2E2E2F5E2E2E2E2E2E2E2E2E2E2E2E2E2E2E2E2E2F5E2F5F5E2F5E2E2E2E2E2E2E2E2E2E2E2E2E2E2E2E2E2F5E2E2E2E2E2E2E2E2E2E2E2E2E2E2E2E2E2E2E2E2E2E2E2E2
310
E2E2E2E2F5F5F5F5F5F5F5F5F5F5F5F5F5F5F5F5F5F5F5F5F5F5F5F5F5F5F5F5E2E2E2E2E2E2E2E2E2E2F5E2E2E2F5E2E2E2F5F5F5F5F5F5E2F5F5F5F5F5F5F5F5E2F5F5F5F5F5E2E2E2F5E2E2E2E2E2E2E2E2E2E2E2E2E2E2E2E2E2E2E2E2E2E2E2E2E2E2E2E2E2E2E2E2E2E2E2E2E2E2E2F5E2E2E2E2E2E2E2E2E2E2E2E2
310
E2E2E2E2E2F5E2F5F5E2F5E2E2E2E2E2E2E2E2E2E2E2E2E2E2E2E2E2F5E2E2E2E2E2E2E2E2E2E2E2E2E2E2E2E2E2E2E2E2E2E2E2E2E2E2E2E2E2F5F5F5E2F5F5F5F5F5F5F5F5E2E2F5F5E2E2E2E2E2E2E2E2E2F5F5E2E2E2E2E2E2E2E2E2E2F5E2E2E2F5E2E2E2F5F5F5F5F5F5E2F5F5F5F5F5F5F5F5F5F5F5F5F5F5E2E2E2
310
F5E2E2E2E2E2E2E2E2E2E2E2E2E2E2E2E2E2E2E2E2E2E2E2E2E2E2E2E2E2E2E2E2E2E2E2E2E2E2E2F5E2E2E2E2E2E2E2E2E2E2E2E2E2E2E2E2E2F5E2F5F5E2F5E2E2E2E2E2E2E2E2E2E2E2E2E2E2E2E2E2F5E2E2E2E2E2E2E2E2E2E2E2E2E2E2E2E2E2E2E2E2E2E2E2E2E2E2E2E2E2F5F5F5E2F5F5F5F5E2F5F5F5E2E2F5E2
310
E2E2E2E2E2E2E2E2E2E2F5E2E2E2E2E2E2E2E2E2E2F5E2E2E2F5E2E2E2F5F5F5F5F5F5E2E2E2E2F5F5E2E2E2E2E2E2E2F5F5E2E2E2F5E2E2E2E2E2E2E2E2E2E2E2E2E2E2E2E2E2E2E2E2E2E2E2E2E2E2E2E2E2E2E2E2E2E2E2E2E2E2E2F5E2E2E2E2E2E2E2E2E2E2E2E2E2E2E2E2E2F5E2F5F5E2F5E2E2E2E2E2E2E2E2E2E2
310
E2E2E2E2E2E2E2F5E2E2E2E2E2E2E2E2E2E2E2E2E2E2E2E2E2E2E2E2E2E2E2E2E2E2E2E2E2F5F5F5E2F5F5F5F5E2F5F5F5E2E2F5E2E2E2E2E2E2E2E2E2E2E2F5E2E2E2E2E2E2E2E2E2E2F5E2E2E2F5E2E2E2F5F5E2E2E2E2E2E2E2E2E2E2E2E2E2E2E2E2E2F5F5E2E2E2F5E2E2E2E2E2E2E2E2E2E2E2E2E2E2E2E2E2E2E2E2
310
E2E2E2E2E2E2E2E2E2E2E2E2E2E2E2E2E2E2E2F5E2E2E2E2E2E2E2E2E2E2E2E2E2E2E2E2E2F5E2F5F5E2F5E2E2E2E2E2E2E2E2E2E2E2E2E2E2E2E2E2F5E2E2E2E2E2E2E2E2E2E2E2E2E2E2E2E2E2E2E2E2E2E2E2E2E2E2E2E2E2E2E2E2E2E2E2E2E2E2E2E2E2E2E2F5E2E2E2E2E2E2E2E2E2E2E2F5E2E2E2E2E2E2E2E2E2E2
310
F5E2E2E2F5E2E2E2F5F5E2E2E2E2E2E2E2E2E2E2E2E2E2E2E2E2E2F5F5E2E2E2F5E2E2E2E2E2E2E2E2E2E2E2E2E2E2E2E2E2E2E2E2E2E2E2E2E2E2E2E2E2E2E2E2E2E2E2E2E2E2E2F5E2E2E2E2E2E2E2E2E2E2E2E2E2E2E2E2E2F5E2F5F5E2F5E2E2E2E2E2E2E2E2E2E2E2E2E2E2E2E2E2F5E2E2E2E2E2E2E2E2E2E2E2E2E2
310
E2E2E2E2E2E2E2E2E2E2E2E2E2E2E2E2E2E2E2E2E2E2E2E2E2E2E2E2E2E2F5E2E2E2E2E2E2E2E2E2E2E2F5E2E2E2E2E2E2E2E2E2E2F5E2E2E2F5E2E2E2F5F5E2E2E2E2E2E2E2E2E2E2E2E2E2E2E2E2E2F5F5E2E2E2F5E2E2E2E2E2E2E2E2E2E2E2E2E2E2E2E2E2E2E2E2E2E2E2E2E2E2E2E2E2E2E2E2E2E2E2E2E2E2E2F5E2
310
E2E2E2E2E2E2E2E2E2E2E2E2E2E2E2E2F5E2F5F5E2F5E2E2E2E2E2E2E2E2E2E2E2E2E2E2E2E2E2F5E2E2E2E2E2E2E2E2E2E2E2E2E2E2E2E2E2E2E2E2E2E2E2E2E2E2E2E2E2E2E2E2E2E2E2E2E2F5F5F5F5F5F5F5F5F5F5F5F5F5F5F5F5F5F5F5E2E2E2E2E2E2E2E2E2E2F5E2E2E2F5E2E2E2F5F5F5F5F5F5F5F5F5F5F5F5F5
310
F5F5F5F5F5F5F5F5F5F5F5F5F5F5F5F5F5F5F5E2E2E2E2E2E2E2E2E2E2E2E2E2E2E2E2E2E2E2E2E2E2E2E2E2E2E2E2E2E2E2E2F5E2E2E2E2E2E2E2E2E2E2E2E2E2E2E2E2E2F5E2F5F5E2F5E2E2E2E2E2E2E2E2E2E2E2E2E2E2E2E2E2F5E2E2E2E2E2E2E2E2E2E2E2E2E2E2E2E2E2E2E2E2E2E2E2E2E2E2E2E2E2E2E2E2E2E2
310
E2E2E2F5F5E2E2E2E2F5F5F5F5F5F5F5F5E2F5E2F5F5E2E2E2E2E2E2E2E2E2E2F5E2E2E2F5E2E2E2F5F5F5F5E2F5E2E2E2E2E2E2E2E2E2F5E2F5F5F5F5F5F5F5F5F5F5F5F5E2F5F5E2E2E2E2E2E2E2E2E2E2E2E2E2E2E2E2E2E2E2E2E2E2E2E2E2E2E2E2E2E2E2E2F5E2E2E2E2E2E2E2E2E2E2E2E2E2E2E2E2E2F5E2F5F5E2
310
E2E2E2E2E2E2E2E2E2E2E2E2E2E2E2E2E2E2F5E2E2E2E2E2E2E2E2E2E2E2E2E2E2E2E2E2E2E2E2E2E2E2E2E2E2E2E2E2E2E2E2E2E2E2E2E2E2F5E2E2E2E2F5F5F5F5F5E2E2F5E2F5E2F5F5E2E2E2E2E2E2E2E2E2E2F5E2E2E2F5E2E2E2F5F5F5F5F5F5E2E2E2E2E2E2E2E2E2F5F5F5E2E2F5E2E2E2F5E2E2F5F5E2F5E2E2E2
310
E2E2E2E2E2E2E2E2E2E2E2E2E2E2E2E2E2E2E2E2E2E2E2E2E2E2E2E2E2E2F5E2E2E2E2E2E2E2E2E2E2E2E2E2E2E2E2E2E2E2F5F5E2E2E2E2E2E2E2E2E2E2E2E2E2E2E2E2E2E2E2F5E2E2E2E2E2E2E2E2E2E2E2E2E2E2E2E2E2E2E2E2E2E2E2E2E2E2E2E2E2E2E2E2E2E2E2E2E2E2F5E2E2E2E2F5F5F5F5F5E2E2F5E2F5E2F5
310
F5E2E2E2E2E2E2E2E2E2E2F5E2E2E2F5E2E2E2F5F5F5F5F5F5E2E2E2E2E2E2E2E2E2F5F5F5E2E2F5E2E2E2F5E2E2F5E2E2F5E2E2E2E2E2E2E2E2E2E2E2E2E2E2E2E2E2E2E2E2E2E2E2E2E2E2E2E2E2E2E2E2E2F5E2E2E2E2E2E2E2E2E2E2E2E2E2E2E2E2E2E2E2F5F5E2E2E2E2E2E2E2E2E2E2E2E2E2E2E2E2E2E2E2F5E2E2
310
E2E2E2E2E2E2E2E2E2E2E2E2E2E2E2E2E2E2E2E2E2E2E2E2E2E2E2E2E2E2E2E2E2E2E2E2F5E2E2E2E2F5F5F5F5F5E2E2F5E2F5E2F5E2E2E2E2E2E2E2E2E2E2E2F5E2E2E2F5E2E2E2F5F5F5F5E2F5E2E2E2E2E2E2E2E2E2F5E2F5E2E2F5E2E2E2F5E2E2F5E2E2F5E2E2E2E2E2E2E2E2E2E2E2E2E2E2E2E2E2E2E2E2E2E2E2E2
310
E2E2E2E2E2E2E2E2E2F5E2E2E2E2E2E2E2E2E2E2E2E2E2E2E2E2E2E2E2F5F5E2E2E2E2E2E2E2E2E2E2E2E2E2E2E2E2E2E2E2F5E2E2E2E2E2E2E2E2E2E2E2E2E2E2E2E2E2E2E2E2E2E2E2E2E2E2E2E2E2E2E2E2E2E2E2E2E2E2F5E2E2E2E2F5F5F5F5F5E2E2F5F5F5F5F5F5E2E2E2E2E2E2E2E2E2E2F5E2E2E2F5E2E2E2F5F5
310
F5F5F5F5F5F5F5F5F5F5F5F5F5F5F5F5E2E2F5E2E2E2F5E2E2F5E2E2F5E2E2E2E2E2E2E2E2E2E2E2E2E2E2E2E2E2E2E2E2E2E2E2E2E2E2E2E2E2E2E2E2E2F5E2E2E2E2E2E2E2E2E2E2E2E2E2E2E2E2E2E2E2F5F5E2E2E2E2E2E2E2E2E2E2E2E2E2E2E2E2E2E2E2F5E2E2E2E2E2E2E2E2E2E2E2E2E2E2E2E2E2E2E2E2E2E2E2
310
E2E2E2E2E2E2E2E2E2E2E2E2E2E2E2F5E2E2E2E2F5F5F5F5F5E2E2F5E2E2E2E2F5E2E2E2E2E2E2E2E2E2E2F5E2E2E2F5E2E2E2F5F5F5F5E2E2E2E2E2E2E2E2E2E2E2E2E2E2E2E2F5E2E2E2F5E2E2F5E2E2F5E2E2E2E2E2E2E2E2E2E2E2E2E2E2E2E2E2E2E2E2E2E2E2E2E2E2E2E2E2E2E2E2E2F5E2E2E2E2E2E2E2E2E2E2E2
310
E2E2E2E2E2E2E2E2F5F5E2E2E2E2E2E2E2E2E2E2E2E2E2E2E2E2E2E2E2F5E2E2E2E2E2E2E2E2E2E2E2E2E2E2E2E2E2E2E2E2E2E2E2E2E2E2E2E2E2E2E2E2E2E2E2E2E2E2F5E2E2E2E2F5F5F5F5F5E2E2F5E2E2E2E2F5E2E2E2E2E2E2E2E2E2E2F5E2E2E2F5E2E2E2F5F5F5F5E2E2E2E2E2E2E2E2E2E2E2E2E2E2E2E2F5E2E2
310
E2F5E2E2F5E2E2F5E2E2E2E2E2E2E2E2E2E2E2E2E2E2E2E2E2E2E2E2E2E2E2E2E2E2E2E2E2E2E2E2E2F5E2E2E2E2E2E2E2E2E2E2E2E2E2E2E2E2E2E2E2F5F5E2E2E2E2E2E2E2E2E2E2E2E2E2E2E2E2E2E2E2F5E2E2E2E2E2E2E2E2E2E2E2E2E2E2E2E2E2E2E2E2E2E2E2E2E2E2E2E2E2E2E2E2E2E2E2E2E2E2F5E2E2E2E2F5
310
F5F5F5F5E2E2F5E2E2E2E2F5E2E2E2E2E2E2E2E2E2E2F5E2E2E2F5E2E2E2F5F5F5F5E2E2E2E2E2E2E2E2E2E2E2E2E2E2E2E2F5E2E2E2F5E2E2F5E2E2F5E2E2E2E2E2E2E2E2E2E2E2E2E2E2E2E2E2E2E2E2E2E2E2E2E2E2E2E2E2E2E2E2E2F5E2E2E2E2E2E2E2E2E2E2E2E2E2E2E2E2E2E2E2F5F5E2E2E2E2E2E2E2E2E2E2E2
310
E2E2E2E2E2E2E2E2F5E2E2E2E2E2E2E2E2E2E2E2E2E2E2E2E2E2E2E2E2E2E2E2E2E2E2E2E2E2E2E2E2E2E2E2E2E2E2F5E2E2E2E2F5F5F5F5F5E2E2F5E2E2E2E2F5E2E2E2E2E2E2E2E2E2E2F5E2E2E2F5E2E2E2F5F5F5F5E2E2E2E2E2E2E2E2E2E2E2E2E2E2E2E2F5E2E2E2F5E2E2F5E2E2F5E2E2E2E2E2E2E2E2E2E2E2E2E2
310
E2E2E2E2E2E2E2E2E2E2E2E2E2E2E2E2E2E2E2E2F5E2E2E2E2E2E2E2E2E2E2E2E2E2E2E2E2E2E2E2F5F5E2F5E2E2E2E2E2E2E2E2E2E2E2E2E2E2E2E2E2F5E2E2E2E2E2E2E2E2E2E2E2E2E2E2E2E2E2E2E2E2E2E2E2E2E2E2E2E2E2E2E2E2E2E2E2E2E2E2F5E2E2E2E2F5F5F5F5F5E2E2F5E2E2E2E2E2E2E2E2E2E2E2E2E2E2
310
E2F5E2E2E2F5E2E2E2F5F5F5F5E2E2E2E2E2E2E2E2E2E2E2E2E2E2E2E2F5E2E2E2F5F5F5F5E2E2F5E2E2E2E2E2E2E2E2E2E2E2E2E2E2E2E2E2E2E2E2E2E2E2E2E2E2E2E2E2E2E2E2E2F5E2E2E2E2E2E2E2E2E2E2E2E2E2E2E2E2E2F5E2F5F5E2F5E2E2E2E2E2E2E2E2E2E2E2E2E2E2E2E2E2F5E2E2E2E2E2E2E2E2E2E2E2E2
310
E2E2E2E2E2E2E2E2E2E2E2E2E2E2E2E2E2E2E2E2E2E2E2E2F5F5F5E2E2E2E2F5F5F5F5F5E2E2F5E2E2E2E2F5E2E2E2E2E2E2E2E2E2E2F5E2E2E2F5E2E2E2F5F5F5F5E2E2E2E2E2E2E2E2E2E2E2E2E2E2E2E2F5E2E2E2F5F5F5F5E2E2F5E2E2E2E2E2E2E2E2E2E2E2E2E2E2E2E2E2E2E2E2E2E2E2E2E2E2E2E2E2E2E2E2E2F5
310
E2E2E2E2E2E2E2E2E2E2E2E2E2E2E2E2E2F5E2F5F5E2F5E2E2E2E2E2E2E2E2E2E2E2E2E2E2E2E2E2F5E2E2E2E2E2E2E2E2E2E2E2E2E2E2E2E2E2E2E2E2E2E2E2E2E2E2E2E2E2E2E2E2E2E2E2F5F5F5F5E2E2E2E2F5F5F5F5F5E2E2F5E2E2E2E2F5E2E2E2E2E2E2E2E2E2E2F5E2E2E2F5E2E2E2F5F5F5F5E2E2E2E2E2E2E2E2
310
E2E2E2E2E2E2E2E2F5E2E2E2F5F5F5F5E2E2F5E2E2E2E2E2E2E2E2E2E2E2E2E2E2E2E2E2E2E2E2E2E2E2E2E2E2E2E2E2E2E2E2E2F5E2E2E2E2E2E2E2E2E2E2E2E2E2E2E2E2E2F5E2F5F5E2F5E2E2E2E2E2E2E2E2E2E2E2E2E2E2E2E2E2F5E2E2E2E2E2E2E2E2E2E2E2E2E2E2E2E2E2E2E2E2E2E2E2E2E2E2E2E2E2E2E2E2E2
310
E2E2F5F5F5F5E2E2E2E2F5F5F5F5F5E2E2F5E2E2E2E2F5E2E2E2E2E2E2E2E2E2E2F5E2E2E2F5E2E2E2F5F5F5F5E2E2E2E2E2E2E2E2E2E2E2E2E2E2E2E2F5E2E2E2F5F5F5F5E2E2F5E2E2E2E2E2E2E2E2E2E2E2E2E2E2E2E2E2E2E2E2E2E2E2E2E2E2E2E2E2E2E2E2E2F5E2E2E2E2E2E2E2E2E2E2E2E2E2E2E2E2E2F5E2F5F5
310
E2F5E2E2E2E2E2E2E2E2E2E2E2E2E2E2E2E2E2F5E2E2E2E2E2E2E2E2E2E2E2E2E2E2E2E2E2E2E2E2E2E2E2E2E2E2E2E2E2E2E2E2E2E2E2F5F5F5F5E2E2E2E2F5F5F5F5F5E2E2F5E2E2E2E2F5E2E2E2E2E2E2E2E2E2E2F5E2E2E2F5E2E2E2F5F5F5F5E2E2E2E2E2E2E2E2E2E2E2E2E2E2E2E2F5E2E2E2F5F5F5F5E2E2F5E2E2
310
E2E2E2E2E2E2E2E2E2E2E2E2E2E2E2E2E2E2E2E2E2E2E2E2E2E2E2E2E2E2E2F5E2E2E2E2E2E2E2E2E2E2E2E2E2E2E2E2E2F5E2F5F5E2F5E2E2E2E2E2E2E2E2E2E2E2E2E2E2E2E2E2F5E2E2E2E2E2E2E2E2E2E2E2E2E2E2E2E2E2E2E2E2E2E2E2E2E2E2E2E2E2E2E2E2E2E2E2F5F5F5F5E2E2E2E2F5F5F5F5F5E2E2F5E2E2E2
310
E2E2E2E2E2E2E2E2E2E2E2E2F5E2E2E2F5E2E2E2F5F5F5F5E2E2E2E2E2E2E2E2E2E2E2E2E2E2E2E2F5E2E2E2F5F5F5F5E2E2F5E2E2E2E2E2E2E2E2E2E2E2E2E2E2E2E2E2E2E2E2E2E2E2E2E2E2E2E2E2E2E2E2E2F5E2E2E2E2E2E2E2E2E2E2E2E2E2E2E2E2E2F5E2F5F5E2F5E2E2E2E2E2E2E2E2E2E2E2E2E2E2E2E2E2F5E2
310
E2E2E2E2E2E2E2E2E2E2E2E2E2E2E2E2E2E2E2E2E2E2E2E2E2E2E2E2E2E2E2E2E2E2E2E2E2F5E2E2E2E2F5F5F5F5F5E2E2F5E2E2E2E2F5E2E2E2E2E2E2E2E2E2E2F5E2E2E2F5E2E2E2F5F5F5F5E2E2E2E2E2E2E2E2E2E2E2E2E2E2E2E2F5E2E2E2F5F5F5F5E2E2F5E2E2E2E2E2E2E2E2E2E2E2E2E2E2E2E2E2E2E2E2E2E2E2
310
E2E2E2E2E2E2E2E2E2E2F5E2E2E2E2E2E2E2E2E2E2E2E2E2E2E2E2E2F5E2F5F5E2F5E2E2E2E2E2E2E2E2E2E2E2E2E2E2E2E2E2F5E2E2E2E2E2E2E2E2E2E2E2E2E2E2E2E2E2E2E2E2E2E2E2E2E2E2E2E2E2E2E2E2E2E2E2F5F5F5F5E2E2E2E2F5F5F5F5F5E2E2F5E2E2E2E2F5E2E2E2E2E2E2E2E2E2E2F5E2E2E2F5E2E2E2F5
310
F5F5F5E2E2E2E2E2E2E2E2E2E2E2E2E2E2E2E2F5E2E2E2F5F5F5F5E2E2F5E2E2E2E2E2E2E2E2E2E2E2E2E2E2E2E2E2E2E2E2E2E2E2E2E2E2E2E2E2E2E2E2E2F5E2E2E2E2E2E2E2E2E2E2E2E2E2E2E2E2E2F5E2F5F5E2F5E2E2E2E2E2E2E2E2E2E2E2E2E2E2E2E2E2F5E2E2E2E2E2E2E2E2E2E2E2E2E2E2E2E2E2E2E2E2E2E2
310
E2E2E2E2E2E2E2E2E2E2E2E2E2F5F5F5F5E2E2E2E2F5F5F5F5F5E2E2F5E2E2E2E2F5E2E2E2E2E2E2E2E2E2E2F5E2E2E2F5E2E2E2F5F5F5F5E2E2E2E2E2E2E2E2E2E2E2E2E2E2E2E2F5E2E2E2F5F5F5F5E2E2F5E2E2E2E2E2E2E2E2E2E2E2E2E2E2E2E2E2E2E2E2E2E2E2E2E2E2E2E2E2E2E2E2E2F5E2E2E2E2E2E2E2E2E2E2
310
E2E2E2E2E2E2E2F5E2F5F5E2F5E2E2E2E2E2E2E2E2E2E2E2E2E2E2E2E2E2F5E2E2E2E2E2E2E2E2E2E2E2E2E2E2E2E2E2E2E2E2E2E2E2E2E2E2E2E2E2E2E2E2E2E2E2E2F5F5F5E2E2E2E2F5F5F5F5F5E2E2F5E2E2E2E2F5E2E2E2E2E2E2E2E2E2E2F5E2E2E2F5E2E2E2F5F5F5F5E2E2E2E2E2E2E2E2E2E2E2E2E2E2E2E2F5E2
310
E2E2F5F5F5F5E2E2F5E2E2E2E2E2E2E2E2E2E2E2E2E2E2E2E2E2E2E2E2E2E2E2E2E2E2E2E2E2E2E2E2E2F5E2E2E2E2E2E2E2E2E2E2E2E2E2E2E2E2E2F5E2F5F5E2F5E2E2E2E2E2E2E2E2E2E2E2E2E2E2E2E2E2F5E2E2E2E2E2E2E2E2E2E2E2E2E2E2E2E2E2E2E2E2E2E2E2E2E2E2E2E2E2E2E2E2E2E2F5F5F5F5F5E2E2E2E2
310
F5F5F5F5F5E2E2F5E2E2E2E2F5E2E2E2E2E2E2E2E2E2E2F5E2E2E2F5E2E2E2F5F5F5F5E2E2E2E2E2E2E2E2E2E2E2E2E2E2E2E2F5E2E2E2F5F5F5F5E2E2F5E2E2E2E2E2E2E2E2E2E2E2E2E2E2E2E2E2E2E2E2E2E2E2E2E2E2E2E2E2E2E2E2E2F5E2E2E2E2E2E2E2E2E2E2E2E2E2E2E2E2E2F5E2F5F5E2F5E2E2E2E2E2E2E2E2
310
E2E2E2E2E2E2E2E2E2F5E2E2E2E2E2E2E2E2E2E2E2E2E2E2E2E2E2E2E2E2E2E2E2E2E2E2E2E2E2E2E2E2F5F5F5E2E2F5F5E2E2E2E2F5F5F5F5F5E2E2F5E2E2E2E2E2E2E2E2E2E2E2E2E2E2E2F5E2E2E2F5E2E2E2F5F5F5F5E2E2E2E2E2E2E2E2E2E2E2E2E2E2E2E2F5E2E2E2F5F5F5F5F5F5F5E2E2E2E2E2E2E2E2E2E2E2E2
310
E2E2E2E2E2E2E2E2E2E2E2E2E2E2E2E2E2E2E2E2E2F5E2E2E2E2E2E2E2E2E2E2E2E2E2E2E2E2E2F5E2F5F5E2F5E2E2E2E2E2E2E2E2E2E2E2E2E2E2E2E2E2F5E2E2E2E2E2E2E2E2E2E2E2E2E2E2E2E2E2E2E2E2E2E2E2E2E2E2E2E2E2E2E2E2F5F5F5F5F5F5F5E2E2E2E2F5F5F5F5F5E2E2F5E2E2E2E2F5E2E2E2E2E2E2E2E2
310
E2E2F5E2E2E2F5E2E2E2F5F5F5F5E2F5F5F5F5F5F5F5F5F5F5F5F5F5F5E2F5E2E2E2F5E2F5F5F5F5F5E2E2E2E2E2E2E2E2E2E2E2E2E2E2E2E2E2E2E2E2E2E2E2E2E2E2E2E2E2E2E2E2E2F5E2E2E2E2E2E2E2E2E2E2E2E2E2E2E2E2E2F5E2F5F5E2F5E2E2E2E2E2E2E2E2E2E2E2E2E2E2E2E2E2F5E2E2E2E2E2E2E2E2E2E2E2
310
E2E2E2E2E2E2E2E2E2E2E2E2E2E2E2E2E2E2E2E2E2F5F5F5F5F5F5F5E2E2E2E2F5F5F5F5F5E2E2F5E2E2E2E2F5E2E2E2E2E2E2E2E2E2E2F5E2E2E2F5E2E2E2F5F5F5F5E2F5F5F5F5F5F5F5F5F5F5F5F5E2F5E2F5E2E2E2F5E2F5F5F5F5F5E2E2E2E2E2E2E2E2E2E2E2E2E2E2E2E2E2E2E2E2E2E2E2E2E2E2E2E2E2E2E2E2E2
310
F5E2E2E2E2E2E2E2E2E2E2E2E2E2E2E2E2E2F5E2F5F5E2F5E2E2E2E2E2E2E2E2E2E2E2E2E2E2E2E2E2F5E2E2E2E2E2E2E2E2E2E2E2E2E2E2E2E2E2E2E2E2E2E2E2E2E2E2E2E2E2E2E2E2E2E2F5F5F5F5F5E2E2E2E2F5F5F5F5F5E2E2F5E2E2E2E2F5E2E2E2E2E2E2E2E2E2E2F5E2E2E2F5E2E2E2F5F5F5F5E2F5F5F5F5F5F5
310
F5F5F5F5F5F5E2F5E2F5E2E2E2F5F5F5F5F5F5F5E2E2E2E2E2E2E2E2E2E2E2E2E2E2E2E2E2E2E2E2E2E2E2E2E2E2E2E2E2E2E2E2E2F5E2E2E2E2E2E2E2E2E2E2E2E2E2E2E2E2E2F5E2F5F5E2F5E2E2E2E2E2E2E2E2E2E2E2E2E2E2E2E2E2F5E2E2E2E2E2E2E2E2E2E2E2E2E2E2E2E2E2E2E2E2E2E2E2E2E2E2E2E2E2E2E2E2
310
F5F5F5E2E2E2F5E2E2E2E2F5F5F5F5F5E2E2F5E2E2E2E2F5E2E2E2E2E2E2E2E2E2E2F5E2E2E2F5E2E2E2F5F5F5F5E2F5F5F5F5F5F5F5F5F5F5F5F5E2F5E2F5E2E2E2F5F5F5F5F5F5F5E2E2E2E2E2E2E2E2E2E2E2E2E2E2E2E2E2E2E2E2E2E2E2E2E2E2E2E2E2E2E2E2E2F5E2E2E2E2E2E2E2E2E2E2E2E2E2E2E2E2E2F5E2F5
310
F5E2E2E2E2E2E2E2E2E2E2E2E2E2E2E2E2E2E2E2F5E2E2E2E2E2E2E2E2E2E2E2E2E2E2E2E2E2E2E2E2E2E2E2E2E2E2E2E2E2E2E2E2F5F5F5E2E2E2F5E2E2E2E2F5F5F5F5F5F5F5F5E2E2E2E2F5E2E2E2E2E2E2E2E2E2E2F5E2E2E2F5E2E2E2F5F5F5F5E2F5F5F5F5F5F5F5F5F5F5F5F5E2F5E2F5E2E2E2F5F5F5F5E2E2F5E2
310
E2E2E2E2E2E2E2E2E2E2E2E2E2E2E2E2E2E2E2E2E2E2E2E2E2E2E2E2E2E2E2E2F5E2E2E2E2E2E2E2E2E2E2E2E2E2E2E2E2E2E2E2F5F5E2E2E2E2E2E2E2E2E2E2E2E2E2E2E2E2E2E2E2F5E2E2E2E2E2E2E2E2E2E2E2E2E2E2E2E2E2E2E2E2E2E2E2E2E2E2E2E2E2E2E2E2F5F5F5E2E2E2F5E2E2E2E2F5F5F5F5F5F5F5F5E2E2
310
E2E2E2E2E2E2E2E2E2E2E2E2E2F5E2E2E2F5E2E2E2F5F5F5F5F5F5F5F5F5F5F5F5F5F5F5F5F5F5F5F5F5E2E2E2F5E2E2F5E2E2F5E2E2E2E2E2E2E2E2E2E2E2E2E2E2E2E2E2E2E2E2E2E2E2E2E2E2E2E2E2E2E2E2E2F5E2E2E2E2E2E2E2E2E2E2E2E2E2E2E2E2E2E2E2F5F5E2E2E2E2E2E2E2E2E2E2E2E2E2E2E2E2E2E2E2F5
310
E2E2E2E2E2E2E2E2E2E2E2E2E2E2E2E2E2E2E2E2E2E2E2E2E2E2E2E2E2E2E2E2F5F5F5E2E2E2F5E2E2E2E2F5F5F5F5F5E2E2E2E2E2E2E2F5E2E2E2E2E2E2E2E2E2E2F5E2E2E2F5E2E2E2F5F5F5F5F5F5F5F5F5F5F5F5F5F5F5F5F5F5F5F5F5E2E2E2F5E2E2F5E2E2F5E2E2E2E2E2E2E2E2E2E2E2E2E2E2E2E2E2E2E2E2E2E2
310
E2E2E2E2E2E2E2E2E2E2E2F5E2E2E2E2E2E2E2E2E2E2E2E2E2E2E2E2E2E2E2F5F5E2E2E2E2E2E2E2E2E2E2E2E2E2E2E2E2E2E2E2F5E2E2E2E2E2E2E2E2E2E2E2E2E2E2E2E2E2E2E2E2E2E2E2E2E2E2E2E2E2E2E2E2F5F5F5E2E2E2F5E2E2E2E2F5F5F5F5F5E2E2E2E2E2E2E2F5E2E2E2E2E2E2E2E2E2E2F5E2E2E2F5E2E2E2
310
F5F5F5F5F5F5F5F5F5F5F5F5F5F5F5F5F5F5F5F5F5E2E2E2F5E2E2F5E2E2F5E2E2E2E2E2E2E2E2E2E2E2E2E2E2E2E2E2E2E2E2E2E2E2E2E2E2E2E2E2E2E2E2E2F5E2E2E2E2E2E2E2E2E2E2E2E2E2E2E2E2E2E2E2F5F5E2E2E2E2E2E2E2E2E2E2E2E2E2E2E2E2E2E2E2F5E2E2E2E2E2E2E2E2E2E2E2E2E2E2E2E2E2E2E2E2E2
310
E2E2E2E2E2E2E2E2E2E2E2F5F5F5E2E2E2F5E2E2E2E2F5F5F5F5F5E2E2E2E2E2E2E2F5E2E2E2E2E2E2E2E2E2E2F5E2E2E2F5E2E2E2F5F5F5F5F5F5F5F5F5F5F5F5F5F5F5F5F5F5F5F5F5E2E2E2F5E2E2F5E2E2F5E2E2E2E2E2E2E2E2E2E2E2E2E2E2E2E2E2E2E2E2E2E2E2E2E2E2E2E2E2E2E2E2E2F5E2E2E2E2E2E2E2E2E2
310
E2E2E2E2E2E2E2E2E2E2F5F5E2E2E2E2E2E2E2E2E2E2E2E2E2E2E2E2E2E2E2F5E2E2E2E2E2E2E2E2E2E2E2E2E2E2E2E2E2E2E2E2E2E2E2E2E2E2E2E2E2E2E2E2F5F5F5E2E2E2F5E2E2E2E2F5F5F5F5F5F5F5F5F5F5F5F5F5F5F5F5F5F5F5F5E2E2E2F5E2E2E2F5F5F5F5F5F5F5F5F5F5F5F5F5F5F5F5F5F5F5F5F5F5F5F5F5
310
F5F5F5F5E2E2F5E2E2F5E2E2E2E2E2E2E2E2E2E2E2E2E2E2E2E2E2E2E2E2E2E2E2E2E2E2E2E2E2E2E2E2E2F5E2E2E2E2E2E2E2E2E2E2E2E2E2E2E2E2E2E2E2F5F5E2E2E2E2E2E2E2E2E2E2E2E2E2E2E2E2E2E2E2F5E2E2E2E2E2E2E2E2E2E2E2E2E2E2E2E2E2E2E2E2E2E2E2E2E2E2E2E2E2E2E2E2F5F5F5E2E2E2F5E2E2E2
310
E2F5F5F5F5F5F5E2F5E2E2E2E2F5E2E2E2E2E2E2F5E2E2E2F5E2E2E2F5E2E2F5E2E2E2E2E2E2E2F5F5F5F5F5F5E2F5F5F5E2F5F5F5E2F5F5F5E2E2F5E2E2F5E2E2E2E2E2E2E2E2E2E2E2E2E2E2E2E2E2E2E2E2E2E2E2E2E2E2E2E2E2E2E2E2E2F5E2E2E2E2E2E2E2E2E2E2E2E2E2E2E2E2E2E2E2F5F5E2E2E2E2E2E2E2E2E2
310
E2E2E2E2E2E2E2E2E2E2F5E2E2E2E2E2E2E2E2E2E2E2E2E2E2E2E2E2E2E2E2E2E2E2E2E2E2E2E2E2E2E2E2F5F5F5E2E2E2F5E2E2E2E2F5F5F5F5F5F5E2F5E2E2E2E2E2E2E2E2E2E2E2F5E2E2E2F5E2E2E2F5E2E2F5E2E2E2E2E2E2E2F5E2E2E2F5F5E2F5F5F5E2F5F5F5E2F5F5F5E2E2F5E2E2F5E2E2E2E2E2E2E2E2E2E2E2
310
E2E2E2E2E2E2E2E2E2E2E2E2E2E2E2E2E2E2E2E2E2E2F5E2E2E2E2E2E2E2E2E2E2E2E2E2E2E2E2E2E2E2F5F5E2E2E2E2E2E2E2E2E2E2E2E2E2E2E2E2E2E2E2F5E2E2E2E2E2E2E2E2E2E2E2E2E2E2E2E2E2E2E2E2E2E2E2E2E2E2E2E2E2E2E2E2F5F5F5E2E2E2F5E2E2E2E2F5F5F5F5F5F5E2F5E2E2E2E2F5E2E2E2E2E2E2F5
310
E2E2E2F5E2E2E2F5E2E2F5E2E2E2E2E2E2E2F5F5F5F5F5F5E2F5F5F5E2F5F5F5E2F5F5F5E2E2F5E2E2F5E2E2E2E2E2E2E2E2E2E2E2E2E2E2E2E2E2E2E2E2E2E2E2E2E2E2E2E2E2E2E2E2E2F5E2E2E2E2E2E2E2E2E2E2E2E2E2E2E2E2E2E2E2F5F5E2F5E2E2E2E2E2E2E2E2E2E2E2E2E2E2E2E2E2F5E2E2E2E2E2E2E2E2E2E2
310
E2E2E2E2E2E2E2E2E2E2E2E2E2E2E2E2E2E2E2E2E2E2E2E2F5E2E2E2F5E2E2E2E2F5F5F5F5F5F5E2F5E2E2E2E2F5E2E2E2E2E2E2F5E2E2E2F5E2E2E2F5E2E2F5E2E2E2E2E2E2E2F5E2E2E2F5F5E2F5F5F5E2F5F5F5E2F5F5F5E2E2F5F5E2F5E2E2E2E2E2E2E2E2E2E2E2E2E2E2E2E2E2E2E2E2E2E2E2E2E2E2E2E2E2E2E2E2
310
E2F5E2E2E2E2E2E2E2E2E2E2E2E2E2E2E2E2E2F5E2F5F5E2F5E2E2E2E2E2E2E2E2E2E2E2E2E2E2E2E2E2F5E2E2E2E2E2E2E2E2E2E2E2E2E2E2E2E2E2E2E2E2E2E2E2E2E2E2E2E2E2E2E2E2E2E2F5E2E2F5F5E2E2E2E2F5F5F5F5F5F5E2F5E2E2E2E2F5E2E2E2E2E2E2F5E2E2E2F5E2E2E2F5E2E2F5F5F5E2E2E2E2E2F5E2E2
310
E2F5F5E2F5F5F5E2F5F5F5F5F5F5F5F5F5F5F5E2F5E2E2E2E2E2E2E2E2E2E2E2E2E2E2E2E2E2E2E2E2E2E2E2E2E2E2E2E2E2E2E2E2E2F5E2E2E2E2E2E2E2E2E2E2E2E2E2E2E2E2E2F5E2F5F5E2F5E2E2E2E2E2E2E2E2E2E2E2E2E2E2E2E2E2F5E2E2E2E2E2E2E2E2E2E2E2E2E2E2E2E2E2E2E2E2E2E2E2E2E2E2E2E2E2E2E2
310
E2E2E2F5F5F5F5F5F5F5F5F5F5F5F5F5F5F5F5F5F5F5F5F5F5E2E2E2E2E2E2F5E2E2E2F5E2E2E2F5F5F5F5E2E2E2E2E2E2E2F5F5F5F5F5F5E2F5F5F5E2F5F5F5E2F5F5F5E2E2E2E2E2F5E2E2E2E2E2E2E2E2E2E2E2E2E2E2E2E2E2E2E2E2E2E2E2E2E2E2E2E2E2E2E2E2E2F5E2E2E2E2E2E2E2E2E2E2E2E2E2E2E2E2E2F5E2
310
F5F5E2F5E2E2E2E2E2E2E2E2E2E2E2E2E2E2E2E2E2F5E2E2E2E2E2E2E2E2E2E2E2E2E2E2E2E2E2E2E2E2E2E2E2E2E2E2E2E2E2E2E2E2E2E2F5F5E2E2E2E2E2E2E2F5F5F5F5F5F5E2E2E2E2E2F5E2E2E2E2E2E2E2F5E2E2E2F5E2E2E2F5E2E2F5E2E2E2E2E2E2E2F5E2E2E2F5F5E2F5F5F5E2F5F5F5E2F5F5F5E2E2E2E2E2F5
310
E2E2E2E2E2E2E2E2E2E2E2E2E2E2E2E2E2E2E2E2E2E2E2E2E2E2E2E2E2E2E2E2E2F5E2E2E2E2E2E2E2E2E2E2E2E2E2E2E2E2E2F5E2F5F5E2F5E2E2E2E2E2E2E2E2E2E2E2E2E2E2E2E2E2F5E2E2E2E2E2E2E2E2E2E2E2E2E2E2E2E2E2E2E2E2E2E2E2E2E2E2E2E2E2E2E2E2E2E2F5E2E2E2E2E2E2E2E2F5F5F5F5F5F5E2E2E2
310
E2E2F5E2E2E2E2E2E2E2F5E2E2E2F5E2E2E2F5E2E2F5E2E2E2E2E2E2E2F5E2E2E2F5F5E2F5F5F5E2F5F5F5E2F5F5F5E2E2E2E2E2F5E2E2E2E2E2E2E2E2E2E2E2E2E2E2E2E2E2E2E2E2E2E2E2E2E2E2E2E2E2E2E2E2E2F5E2E2E2E2E2E2E2E2E2E2E2E2E2E2E2E2E2F5E2F5F5E2F5E2E2E2E2E2E2E2E2E2E2E2E2E2E2E2E2E2
310
F5E2E2E2E2E2E2E2E2E2E2E2E2E2E2E2E2E2E2E2E2E2E2E2E2E2E2E2E2E2E2E2E2E2E2F5E2E2E2E2E2E2E2E2F5F5F5F5F5F5E2E2E2E2E2F5E2E2E2E2E2E2E2F5E2E2E2F5E2E2E2F5E2E2F5E2E2E2E2E2E2E2F5E2E2E2F5F5E2F5F5F5E2F5F5F5E2F5F5F5E2E2E2E2E2F5E2E2E2E2E2E2E2E2E2E2E2E2E2E2E2E2E2E2E2E2E2
310
E2E2E2E2E2E2E2E2E2E2E2E2F5E2E2E2E2E2E2E2E2E2E2E2E2E2E2E2E2E2F5E2F5F5E2F5E2E2E2E2E2E2E2E2E2E2E2E2E2E2E2E2E2F5E2E2E2E2E2E2E2E2E2E2E2E2E2E2E2E2E2E2E2E2E2E2E2E2E2E2E2E2E2E2E2E2E2E2F5E2E2E2E2E2E2E2E2F5F5F5F5F5F5E2E2E2E2E2F5E2E2E2E2E2E2E2F5E2E2E2F5E2E2E2F5E2E2
310
F5E2E2E2E2E2E2E2F5E2E2E2F5F5E2F5F5F5E2F5F5F5E2F5F5F5E2E2E2E2E2F5E2E2E2E2E2E2E2E2E2E2E2E2E2E2E2E2E2E2E2E2E2E2E2E2E2E2E2E2E2E2E2E2E2F5E2E2E2E2E2E2E2E2E2E2E2E2E2E2E2E2E2F5E2F5F5E2F5E2E2E2E2E2E2E2E2E2E2E2E2E2E2E2E2E2F5E2E2E2E2E2E2E2E2E2E2E2E2E2E2E2E2E2E2E2E2
310
E2E2E2E2E2E2E2E2E2E2E2E2E2E2F5E2E2E2E2E2E2E2E2F5F5F5F5F5F5E2E2E2E2E2F5E2E2E2E2E2E2E2F5E2E2E2F5E2E2E2F5E2E2F5E2E2E2E2E2E2E2F5E2E2F5F5F5E2F5F5F5E2F5F5F5E2F5F5F5E2E2E2E2E2F5E2E2E2E2E2E2E2E2E2E2E2E2E2E2E2E2E2E2E2E2E2E2E2E2E2E2E2E2E2E2E2E2E2F5E2E2E2E2E2E2E2E2
310
E2E2E2E2E2E2E2E2E2F5E2F5F5E2F5E2E2E2E2E2E2E2E2E2E2E2E2E2E2E2E2E2F5E2E2E2E2E2E2E2E2E2E2E2E2E2E2E2E2E2E2E2E2E2E2E2E2E2E2E2E2E2E2E2E2E2E2F5E2E2E2E2E2E2E2E2F5F5F5F5F5F5E2E2E2E2E2F5E2E2E2E2E2E2E2F5E2E2E2F5E2E2E2F5E2E2F5E2E2E2E2E2E2E2F5E2E2F5F5F5E2E2F5F5E2E2F5
310
F5E2E2E2F5E2E2E2E2E2F5E2E2E2E2E2E2E2E2E2E2E2E2E2E2E2E2E2E2E2E2E2E2E2E2E2E2E2E2E2E2E2E2E2F5E2E2E2E2E2E2E2E2E2E2E2E2E2E2E2E2E2F5E2F5F5E2F5E2E2E2E2E2E2E2E2E2E2E2E2E2E2E2E2E2F5E2E2E2E2E2E2E2E2E2E2E2E2E2E2E2E2E2E2E2E2E2E2E2E2E2E2E2E2E2E2E2E2E2E2F5E2E2E2E2E2E2
310
E2E2F5F5F5F5F5F5E2E2E2E2E2F5E2E2E2E2E2E2E2F5E2E2E2F5E2E2E2F5E2E2F5F5F5F5F5F5F5F5F5E2E2F5F5F5F5F5F5F5F5F5F5F5F5F5F5F5E2E2E2E2E2F5E2E2E2E2E2E2E2E2E2E2E2E2E2E2E2E2E2E2E2E2E2E2E2E2E2E2E2E2E2E2E2E2E2F5E2E2E2E2E2E2E2E2E2E2E2E2E2E2E2E2E2F5E2F5F5E2F5E2E2E2E2E2E2
310
E2E2E2E2E2E2E2E2E2E2E2F5E2E2E2E2E2E2E2E2E2E2E2E2E2E2E2E2E2E2E2E2E2E2E2E2E2E2E2E2E2E2E2E2E2E2F5E2E2E2E2E2E2E2E2F5F5F5F5F5F5E2F5F5F5F5F5E2E2E2E2E2E2E2F5E2E2E2F5E2E2E2F5F5F5F5E2E2E2E2E2E2E2F5E2E2F5F5F5E2E2F5F5E2E2F5F5E2E2E2F5E2E2E2E2E2F5F5E2E2E2E2E2E2E2E2E2
310
E2E2E2E2E2E2E2E2E2E2E2E2E2E2E2E2E2E2E2E2E2E2E2F5E2E2E2E2E2E2E2E2E2E2E2E2E2E2E2E2E2F5E2F5F5E2F5E2E2E2E2E2E2E2E2E2E2E2E2E2E2E2E2E2F5E2E2E2E2E2E2E2E2E2E2E2E2E2E2E2E2E2E2E2E2E2E2E2E2E2E2E2E2E2E2E2E2E2E2F5E2E2F5F5F5F5F5F5F5F5F5F5F5F5F5F5F5F5F5F5F5F5F5F5F5F5F5
310
F5E2E2E2F5E2E2E2F5F5F5F5F5F5F5F5F5F5F5F5F5F5F5F5F5F5F5F5F5F5F5F5F5F5F5F5F5F5F5F5F5F5F5F5E2E2E2E2E2E2E2E2E2E2E2E2E2E2E2E2E2E2E2E2E2E2E2E2E2E2E2E2E2E2E2E2F5E2E2E2E2E2E2E2E2E2E2E2E2E2E2E2E2E2F5E2F5F5E2F5E2E2E2E2E2E2E2E2E2E2E2E2E2E2E2E2E2F5E2E2E2E2E2E2E2E2E2
310
E2E2E2E2E2E2E2E2E2E2E2E2E2E2E2E2E2E2E2E2E2E2E2E2E2F5E2E2F5F5E2E2E2E2F5F5E2E2E2F5E2E2E2E2E2E2E2E2E2E2E2E2E2F5E2E2E2F5E2E2E2E2E2E2E2E2E2E2E2E2E2E2E2E2E2E2E2E2E2E2E2E2E2E2E2E2E2E2E2E2E2E2E2E2E2E2E2E2E2E2E2E2E2E2E2E2E2E2E2E2E2E2E2E2E2E2E2E2E2E2E2E2E2E2E2E2E2
310
E2E2F5E2E2E2E2E2E2E2E2E2E2E2E2E2E2E2E2E2F5E2F5F5E2F5E2E2E2E2E2E2E2E2E2E2E2E2E2E2E2E2E2F5E2E2E2E2E2E2E2E2E2E2E2E2E2E2E2E2E2E2E2E2E2E2E2E2E2E2E2E2E2E2E2E2E2E2F5E2E2E2F5E2E2E2E2F5F5E2E2E2F5E2E2E2E2E2E2E2E2E2E2E2E2E2F5E2E2E2F5E2E2E2E2E2E2E2E2E2E2E2E2E2E2E2E2
310
E2E2E2E2E2E2E2E2E2E2E2E2E2E2E2E2E2E2E2E2E2E2E2E2E2E2E2E2E2E2E2E2E2E2E2E2E2E2E2E2E2E2E2E2E2E2E2E2E2E2E2E2E2E2E2F5E2E2E2E2E2E2E2E2E2E2E2E2E2E2E2E2E2F5E2F5F5E2F5E2E2E2E2E2E2E2E2E2E2E2E2E2E2E2E2E2F5E2E2E2E2E2E2E2E2E2E2E2E2E2E2E2E2E2E2E2E2E2E2E2E2E2E2E2E2E2E2
310
E2E2E2E2F5F5E2F5F5E2E2E2E2F5F5E2E2E2F5E2E2E2E2E2E2E2E2E2E2E2E2E2F5E2E2E2F5E2E2E2E2E2E2E2E2E2E2E2E2E2E2E2E2E2E2E2E2E2E2E2E2E2E2E2E2E2E2E2E2E2E2E2E2E2E2E2E2E2E2E2E2E2E2E2E2E2E2E2E2E2E2E2E2E2E2E2E2E2E2E2E2E2E2E2E2E2E2E2F5E2E2E2E2E2E2E2E2E2E2E2E2E2E2E2E2E2F5
310
E2F5F5E2F5E2E2E2E2E2E2E2E2E2E2E2E2E2E2E2E2E2F5E2E2E2E2E2E2E2E2E2E2E2E2E2E2E2E2E2E2E2E2E2E2E2E2E2E2E2E2E2E2E2E2E2E2F5F5E2E2F5E2E2E2E2F5F5E2E2E2F5E2E2E2E2E2E2E2E2E2E2E2E2E2F5E2E2E2F5E2E2E2E2E2E2E2E2E2E2E2E2E2E2E2E2E2E2E2E2E2E2E2E2E2E2E2E2E2E2E2E2E2E2E2E2E2
310
E2E2E2E2E2E2E2E2E2E2E2E2E2E2E2E2E2E2E2E2E2E2E2E2E2E2E2E2E2E2E2E2E2E2F5E2E2E2E2E2E2E2E2E2E2E2E2E2E2E2E2E2F5E2F5F5E2E2E2E2E2E2E2E2E2E2E2E2E2E2E2E2E2E2E2F5E2E2E2E2E2E2E2E2E2E2E2E2E2E2E2E2E2E2E2E2E2E2E2E2E2E2E2E2E2E2E2E2E2E2F5F5F5F5F5F5F5F5F5F5F5F5F5F5F5F5F5
310
F5F5F5F5F5F5F5F5F5F5F5F5E2E2E2F5E2E2E2E2E2E2E2E2E2E2E2E2E2E2E2E2E2E2E2E2E2E2E2E2E2E2E2E2E2E2E2E2E2E2E2E2E2E2E2E2E2E2E2E2E2E2E2E2E2E2E2E2E2E2E2E2E2E2E2E2E2E2E2E2E2E2E2E2E2E2E2F5E2E2E2E2E2E2E2E2E2E2E2E2E2E2E2E2E2E2E2F5F5E2E2E2E2E2E2E2E2E2E2E2E2E2E2E2E2E2E2
310
E2F5E2E2E2E2E2E2E2E2E2E2E2E2E2E2E2E2E2E2E2E2E2E2E2E2E2E2E2E2E2E2E2E2E2E2E2E2E2E2F5F5F5E2E2F5F5F5F5F5F5E2E2E2E2E2F5F5F5E2E2E2E2E2F5E2E2E2F5E2E2E2E2E2E2E2E2E2E2E2E2E2E2E2E2E2E2E2E2E2E2E2E2E2E2E2E2E2E2E2E2E2E2E2E2E2E2E2E2E2E2E2E2E2E2E2E2E2E2E2E2E2E2E2E2E2E2
310
E2E2E2E2E2E2E2E2E2E2E2E2E2F5E2E2E2E2E2E2E2E2E2E2E2E2E2E2E2E2E2E2E2F5F5E2E2E2E2E2E2E2E2E2E2E2E2E2E2E2E2E2E2E2F5E2E2E2E2E2E2E2E2E2E2E2E2E2E2E2E2E2E2E2E2E2E2E2E2E2E2E2E2E2E2E2E2E2E2E2F5F5F5F5F5E2E2E2F5E2F5F5F5E2E2E2E2E2E2F5F5F5E2E2E2E2E2F5E2E2E2F5E2E2E2E2E2
310
E2E2E2E2E2E2E2E2E2E2E2E2E2E2E2E2E2E2E2E2E2E2E2E2E2E2E2E2E2E2E2E2E2E2E2E2E2E2E2E2E2E2E2E2E2E2E2E2E2E2E2E2E2E2E2E2E2E2E2E2E2E2E2E2E2E2F5E2E2E2E2E2E2E2E2E2E2E2E2E2E2E2E2E2E2E2F5F5E2E2E2E2E2E2E2E2E2E2E2E2E2E2E2E2E2E2E2F5E2E2E2E2E2E2E2E2E2E2E2E2E2E2E2E2E2E2E2
310
E2E2E2E2E2E2E2E2E2E2E2E2E2E2E2E2F5F5F5F5E2E2E2E2F5F5F5F5F5F5F5F5F5F5F5F5F5F5F5F5F5F5F5F5F5F5F5F5F5F5F5F5F5F5F5F5F5F5F5F5F5F5F5F5F5F5F5F5F5F5F5F5E2E2E2E2E2E2E2E2E2E2E2E2E2E2E2E2E2E2E2E2E2E2E2E2E2E2E2E2E2E2E2E2E2E2E2E2E2E2E2E2E2E2E2E2E2E2E2F5E2E2E2E2E2E2E2
310
E2E2E2E2E2E2E2E2E2E2E2E2F5F5E2E2E2E2E2E2E2E2E2E2E2E2E2E2E2E2E2E2E2F5E2E2E2E2E2E2E2E2E2E2E2E2E2E2E2E2E2E2E2E2E2E2E2E2E2E2E2E2E2E2E2E2E2E2E2F5F5F5F5E2E2E2E2F5E2E2E2E2E2E2E2F5F5F5F5E2E2E2E2E2E2E2E2E2E2E2F5E2F5F5F5F5F5F5F5F5F5F5F5F5F5F5F5F5F5F5F5F5F5F5E2E2E2
310
E2E2E2E2E2E2E2E2E2E2E2E2E2E2E2E2E2E2E2E2E2E2E2E2E2E2E2E2E2E2E2E2E2E2E2E2E2E2E2E2E2E2E2E2E2F5E2E2E2E2E2E2E2E2E2E2E2E2E2E2E2E2E2E2E2F5F5E2E2E2E2E2E2E2E2E2E2E2E2E2E2E2E2E2E2E2F5E2E2E2E2E2E2E2E2E2E2E2E2E2E2E2E2E2E2E2E2E2E2E2E2E2E2E2E2E2E2E2E2E2F5F5F5F5E2F5E2
310
E2E2E2F5E2E2E2E2E2E2E2F5F5F5F5E2E2E2E2E2E2E2E2E2E2E2F5E2F5F5F5F5F5F5F5F5F5F5F5F5F5F5F5F5F5E2E2F5E2F5E2E2E2E2E2E2E2E2E2E2E2E2E2E2E2E2E2E2E2E2E2E2E2E2E2E2E2E2E2E2E2E2E2E2E2E2E2E2E2E2E2E2E2E2E2E2E2E2F5E2E2E2E2E2E2E2E2E2E2E2E2E2E2E2E2E2E2E2F5F5E2E2E2E2E2E2E2
310
E2E2E2E2E2E2E2E2E2E2E2E2F5E2E2E2E2E2E2E2E2E2E2E2E2E2E2E2E2E2E2E2E2E2E2E2E2E2E2E2E2E2E2E2E2F5F5F5E2F5F5F5E2E2E2E2F5F5E2E2E2E2E2E2E2E2E2E2E2E2E2E2E2E2E2E2E2E2F5F5E2E2E2E2E2E2E2E2E2E2E2E2E2E2E2E2E2E2E2E2E2E2E2E2E2E2E2E2E2E2E2E2E2E2E2E2E2E2E2E2E2E2E2E2E2E2E2
310
E2E2E2E2E2E2E2E2E2E2E2E2E2E2E2E2E2E2E2E2E2E2E2E2F5E2E2E2E2E2E2E2E2E2E2E2E2E2E2E2E2E2E2E2F5F5E2E2E2E2E2E2E2E2E2E2E2E2E2E2E2E2E2E2E2F5E2E2E2E2E2E2E2E2E2E2E2E2E2E2E2E2E2E2E2E2E2E2E2E2E2E2E2E2E2E2E2E2E2F5F5E2F5F5F5E2E2E2E2F5F5F5F5F5F5F5F5F5F5F5F5F5F5F5F5F5F5
310
F5F5F5F5F5F5E2E2E2E2E2E2E2E2E2E2E2E2E2E2E2E2E2E2E2E2E2E2E2E2E2E2E2E2E2E2E2E2E2E2E2E2E2E2E2E2E2E2E2E2E2E2E2E2E2E2E2E2E2E2E2E2E2E2E2E2E2E2E2E2E2E2E2E2E2E2E2F5E2E2E2E2E2E2E2E2E2E2E2E2E2E2E2E2E2E2E2F5F5E2F5E2E2E2E2E2E2E2E2E2E2E2E2E2E2E2E2E2F5E2E2E2E2E2E2E2E2
310
E2E2E2E2E2E2E2E2E2E2E2E2E2E2E2E2E2E2E2E2E2E2E2E2E2F5F5E2F5E2F5E2E2E2E2E2E2E2E2E2E2E2E2E2E2F5F5F5F5F5E2E2E2E2E2E2E2E2E2E2E2E2E2E2E2E2E2E2E2E2E2E2E2E2E2E2E2E2E2E2E2E2E2E2E2E2E2E2E2E2E2E2E2E2E2E2E2E2E2E2E2E2E2E2E2E2E2E2E2E2E2E2E2E2E2E2E2E2E2E2E2E2E2E2E2E2E2
310
E2E2E2F5E2E2E2E2E2E2E2E2E2E2E2E2E2E2E2E2E2F5E2F5F5E2F5E2E2E2E2E2E2E2E2E2E2E2E2E2E2E2E2E2F5E2E2E2E2E2E2E2E2E2E2E2E2E2E2E2E2E2E2E2E2E2E2E2E2E2E2E2E2E2E2E2E2E2F5F5E2F5F5F5E2E2E2E2E2E2E2E2E2E2E2E2E2E2F5F5F5F5F5E2E2E2E2E2E2E2E2E2E2E2E2E2E2E2E2E2E2E2E2E2E2E2E2
310
E2E2E2E2E2E2E2E2E2E2E2E2E2E2E2E2E2E2E2E2E2E2E2E2E2E2E2E2E2E2E2E2E2E2E2E2E2E2E2E2E2E2E2E2E2E2E2E2E2E2E2E2E2E2E2E2F5E2E2E2E2E2E2E2E2E2E2E2E2E2E2E2E2E2F5E2F5F5E2F5E2E2E2E2E2E2E2E2E2E2E2E2E2E2E2E2E2F5E2E2E2E2E2E2E2E2E2E2E2E2E2E2E2E2E2E2E2E2E2E2E2E2E2E2E2E2E2
310
E2E2E2E2F5F5E2F5E2F5E2E2E2E2E2E2E2E2E2E2E2E2E2E2E2E2E2E2E2E2E2E2E2E2E2E2E2E2E2E2E2E2E2E2E2E2E2E2E2E2E2E2E2E2E2E2E2E2E2E2E2E2E2E2E2E2E2E2E2E2E2E2E2E2E2E2E2E2E2E2E2E2E2E2E2E2E2E2E2E2E2E2E2E2E2E2E2E2E2E2E2E2E2E2E2E2E2E2E2F5E2E2E2E2E2E2E2E2E2E2E2E2E2E2E2E2E2
310
F5E2F5F5E2F5E2E2E2E2E2E2E2E2E2E2E2E2E2E2E2E2E2F5E2E2E2E2E2E2E2E2E2E2E2E2E2E2E2E2E2E2E2E2E2E2E2E2E2E2E2E2E2E2E2E2E2F5F5E2F5E2F5E2E2E2E2E2E2E2E2E2E2E2E2E2E2E2E2E2E2E2E2E2E2E2E2E2E2E2E2E2E2E2E2E2E2E2E2E2E2E2E2E2E2E2E2E2E2E2E2E2E2E2E2E2E2E2E2E2E2E2E2E2E2E2E2
310
E2E2E2E2E2E2E2E2E2E2E2E2E2E2E2E2E2E2E2E2E2E2E2E2E2E2E2E2E2E2E2E2E2E2E2F5E2E2E2E2E2E2E2E2E2E2E2E2E2E2E2E2E2F5E2F5F5E2F5E2E2E2E2E2E2E2E2E2E2E2E2E2E2E2E2E2F5E2E2E2E2E2E2E2E2E2E2E2E2E2E2E2E2E2E2E2E2E2E2E2E2E2E2E2E2E2E2E2E2E2F5F5E2F5F5F5E2E2E2E2E2E2E2E2E2E2E2
310
E2E2E2E2E2E2E2E2E2E2E2E2E2E2E2E2E2E2E2E2E2E2E2E2E2E2E2E2E2E2E2E2E2E2E2E2E2E2E2E2E2E2E2E2E2E2E2E2E2E2E2E2E2E2E2E2E2E2E2E2E2E2E2E2E2E2E2E2E2E2E2E2E2E2E2E2E2E2E2E2E2E2E2E2E2E2E2E2F5E2E2E2E2E2E2E2E2E2E2E2E2E2E2E2E2E2F5E2F5F5E2F5E2E2E2E2E2E2E2E2E2E2E2E2E2E2E2
310
E2E2F5E2E2E2E2E2E2E2E2E2E2E2E2E2E2E2E2E2E2E2E2E2E2E2E2E2E2E2E2E2E2E2E2E2F5F5E2F5F5F5E2E2E2E2E2E2E2E2E2E2E2E2E2E2E2E2E2E2E2E2E2E2E2E2E2E2E2E2E2E2E2E2E2E2E2E2E2E2E2E2E2E2E2E2E2E2E2E2E2E2E2E2E2E2E2E2E2E2E2E2E2E2E2E2E2E2E2E2E2E2E2E2E2E2E2E2E2E2E2E2E2E2E2E2E2
310
E2E2E2E2E2E2E2E2E2E2E2E2E2E2F5E2E2E2E2E2E2E2E2E2E2E2E2E2E2E2E2E2F5E2F5F5E2F5E2E2E2E2E2E2E2E2E2E2E2E2E2E2E2E2E2F5E2E2E2E2E2E2E2E2E2E2E2E2E2E2E2E2E2E2E2E2E2E2E2E2E2E2E2E2E2E2E2E2F5F5F5F5F5F5F5E2E2E2E2E2E2E2E2E2E2E2E2E2E2E2E2E2E2E2E2E2E2E2E2E2E2E2E2E2E2E2E2
310
E2E2E2E2E2E2E2E2E2E2E2E2E2E2E2E2E2E2E2E2E2E2E2E2E2E2E2E2E2E2E2E2E2E2E2E2E2E2E2E2E2E2E2E2E2E2E2E2E2E2E2E2E2E2E2E2E2E2E2E2E2E2E2E2E2E2E2F5E2E2E2E2E2E2E2E2E2E2E2E2E2E2E2E2E2F5E2F5F5E2F5E2E2E2E2E2E2E2E2E2E2E2E2E2E2E2E2E2F5E2E2E2E2E2E2E2E2E2E2E2E2E2E2E2E2E2E2
310
E2E2E2E2E2E2E2E2E2E2E2E2E2E2E2E2E2E2E2E2E2E2E2E2E2E2E2E2E2E2E2E2E2E2E2E2E2E2E2E2E2E2E2E2E2E2E2E2E2E2E2E2E2E2E2E2E2E2E2E2E2E2E2E2E2E2E2E2E2E2E2E2E2E2E2E2E2E2E2E2E2E2E2E2E2E2E2E2E2E2E2E2E2E2E2E2E2E2E2E2E2E2E2E2E2E2E2E2E2E2E2E2E2E2E2E2E2E2E2E2F5E2E2E2E2E2E2
310
E2E2E2E2E2E2E2E2E2E2E2F5E2F5F5E2F5E2E2E2E2E2E2E2E2E2E2E2E2E2E2E2E2E2F5E2E2E2E2E2E2E2E2E2E2E2E2E2E2E2E2E2E2E2E2E2E2E2E2E2E2E2E2E2E2E2E2E2E2E2E2E2E2E2E2E2E2E2E2E2E2E2E2E2E2E2E2E2E2E2E2E2E2E2E2E2E2E2E2E2E2E2E2E2E2E2E2E2E2E2E2E2E2E2E2E2E2E2E2E2E2E2E2E2E2E2E2
310
E2E2E2E2E2E2E2E2E2E2E2E2E2E2E2E2E2E2E2E2E2E2E2E2E2E2E2E2E2E2E2E2E2E2E2E2E2E2E2E2E2E2E2E2E2E2F5E2E2E2E2E2E2E2E2E2E2E2E2E2E2E2E2E2F5E2F5F5E2F5E2E2E2E2E2E2E2E2E2E2E2E2E2E2E2E2E2F5E2E2E2E2E2E2E2E2E2E2E2E2E2E2E2E2E2E2E2E2E2E2E2E2E2E2E2E2E2E2E2E2E2E2E2E2E2E2E2
310
E2E2E2E2E2E2E2E2E2E2E2E2E2E2E2E2E2E2E2E2E2E2E2E2E2E2E2E2E2E2E2E2E2E2E2E2E2E2E2E2E2E2E2E2E2E2E2E2E2E2E2E2E2E2E2E2E2E2E2E2E2E2E2E2E2E2E2E2E2E2E2E2E2E2E2E2E2E2E2E2E2E2E2E2E2E2E2E2E2E2E2E2E2E2E2E2E2E2E2F5E2E2E2E2E2E2E2E2E2E2E2E2E2E2E2E2E2F5E2F5F5E2F5E2E2E2E2
310
E2E2E2E2E2E2E2E2E2E2E2E2E2F5E2E2E2E2E2E2E2E2E2E2E2E2E2E2E2E2E2E2E2E2E2E2E2E2E2E2E2E2E2E2E2E2E2E2E2E2F5F5F5F5F5F5F5F5F5F5F5F5F5F5F5F5F5F5F5F5F5F5F5F5F5F5F5F5F5F5F5F5F5F5F5F5F5F5F5F5F5F5F5F5F5F5F5F5F5F5F5F5F5F5F5F5E2E2E2E2E2E2E2E2E2E2E2E2E2E2E2E2E2E2E2E2E2
310
E2E2E2E2E2E2E2E2E2E2E2E2E2E2E2E2E2E2E2E2E2E2E2E2E2F5E2E2E2E2E2E2E2E2E2E2E2E2E2E2E2E2E2F5E2F5F5E2F5E2E2E2E2E2E2E2E2E2E2E2E2E2E2E2E2E2F5E2E2E2E2E2E2E2E2E2E2E2E2E2E2E2E2E2E2E2E2E2E2E2E2E2E2E2E2E2E2E2E2E2E2E2E2F5F5F5F5F5F5F5F5F5F5F5F5F5F5F5F5F5F5F5F5F5F5F5F5
310
F5F5F5F5F5F5F5F5F5F5F5F5F5F5F5F5F5F5F5F5F5F5F5F5F5F5F5F5F5F5F5F5E2E2E2E2E2E2E2E2E2E2E2E2E2E2E2E2E2E2E2E2E2E2E2E2E2E2E2E2E2E2E2E2E2E2E2E2E2E2E2E2E2E2E2E2E2E2F5E2E2E2E2E2E2E2E2E2E2E2E2E2E2E2E2E2F5E2F5F5E2F5E2E2E2E2E2E2E2E2E2E2E2E2E2E2E2E2E2F5E2E2E2E2E2E2E2
310
E2E2E2E2E2E2E2E2E2E2E2E2E2E2E2E2E2E2E2E2E2E2E2E2E2E2E2E2E2F5F5F5F5F5F5F5F5F5F5F5F5F5F5F5F5F5F5F5F5F5F5F5F5F5F5F5F5F5F5F5F5F5F5F5F5F5F5F5F5F5F5F5F5F5F5F5F5F5F5F5F5F5F5F5F5E2E2E2E2E2E2E2E2E2E2E2E2E2E2E2E2E2E2E2E2E2E2E2E2E2E2E2E2E2E2E2E2E2E2E2E2E2E2E2E2E2E2
310
E2E2E2E2F5E2E2E2E2E2E2E2E2E2E2E2E2E2E2E2E2E2F5E2F5F5E2F5E2E2E2E2E2E2E2E2E2E2E2E2E2E2E2E2E2F5E2E2E2E2E2E2E2E2E2E2E2E2E2E2E2E2E2E2E2E2E2E2E2E2E2E2E2E2E2E2E2E2E2E2E2E2F5F5F5F5F5F5F5F5F5F5F5F5F5F5F5F5F5F5F5F5F5F5F5F5F5F5F5F5F5F5F5F5F5F5F5F5F5F5F5F5F5F5F5F5F5
310
F5F5F5F5F5F5F5F5F5F5F5E2E2E2E2E2E2E2E2E2E2E2E2E2E2E2E2E2E2E2E2E2E2E2E2E2E2E2E2E2E2E2E2E2E2E2E2E2E2E2E2E2E2E2E2E2E2F5E2E2E2E2E2E2E2E2E2E2E2E2E2E2E2E2E2F5E2F5F5E2F5E2E2E2E2E2E2E2E2E2E2E2E2E2E2E2E2E2F5E2E2E2E2E2E2E2E2E2E2E2E2E2E2E2E2E2E2E2E2E2E2E2E2E2E2E2E2
310
E2E2E2E2E2E2E2E2E2E2E2E2E2E2E2E2E2E2E2E2E2E2E2E2E2E2E2E2E2E2E2E2E2E2E2E2E2E2E2E2E2E2E2E2E2E2E2E2E2E2E2E2E2E2E2E2E2E2E2E2E2E2E2E2E2E2E2E2E2E2E2E2E2E2E2E2E2E2E2E2E2E2E2E2E2E2E2E2E2E2E2E2E2E2E2E2E2E2E2E2E2E2E2E2E2E2E2E2E2E2F5E2E2E2E2E2E2E2E2E2E2E2E2E2E2E2E2
310
E2F5E2F5F5E2F5E2E2E2E2E2E2E2E2E2E2E2E2E2E2E2E2E2F5E2E2E2E2E2E2E2E2E2E2E2E2E2E2E2E2E2E2E2E2E2E2E2E2E2E2E2E2E2E2E2E2E2E2E2E2E2E2E2E2E2E2E2E2E2E2E2E2E2E2E2E2E2E2E2E2E2E2E2E2E2E2E2E2E2E2E2E2E2E2E2E2E2E2E2E2E2E2E2E2E2E2E2E2E2E2E2E2E2E2E2E2E2E2E2E2E2E2E2E2E2E2
310
E2E2E2E2E2E2E2E2E2E2E2E2E2E2E2E2E2E2E2E2E2E2E2E2E2E2E2E2E2E2E2E2E2E2E2E2F5E2E2E2E2E2E2E2E2E2E2E2E2E2E2E2E2E2F5E2F5F5E2E2E2E2E2E2E2E2E2E2E2E2E2E2E2E2E2E2E2F5E2E2E2E2E2E2E2E2E2E2E2E2E2E2E2E2E2E2E2E2E2E2E2E2E2E2E2E2E2E2E2E2E2E2E2E2F5F5F5F5F5F5F5F5F5F5F5F5F5
310
F5F5F5F5F5F5F5F5F5F5F5F5F5F5F5F5F5F5F5F5F5F5F5F5F5F5F5F5F5F5F5F5F5F5F5F5F5F5F5F5F5F5F5F5F5F5F5F5F5F5F5F5F5F5F5F5F5F5F5F5E2E2E2E2E2E2E2E2E2E2E2E2E2E2E2E2E2E2E2E2E2E2E2E2E2E2E2E2E2F5E2E2E2E2E2E2E2E2E2E2E2E2E2E2E2E2E2E2E2F5F5E2E2E2E2E2E2E2E2E2E2E2E2E2E2E2E2
310
E2E2E2F5E2E2E2E2E2E2E2E2E2E2E2E2E2E2E2E2E2E2E2E2E2E2E2E2E2E2E2E2E2E2E2E2E2E2E2E2F5F5F5F5F5F5F5F5F5F5F5F5F5F5F5F5F5F5F5F5F5F5F5F5F5F5F5F5F5F5F5F5F5F5F5F5F5F5F5F5F5F5F5F5F5F5F5F5F5F5F5F5F5F5F5F5F5F5F5F5F5F5F5F5F5F5F5F5F5F5F5F5F5E2E2E2E2E2E2E2E2E2E2E2E2E2E2
310
E2E2E2E2E2E2E2E2E2E2E2E2E2E2E2F5E2E2E2E2E2E2E2E2E2E2E2E2E2E2E2E2E2E2E2F5F5E2E2E2E2E2E2E2E2E2E2E2E2E2E2E2E2E2E2E2F5E2E2E2E2E2E2E2E2E2E2E2E2E2E2E2E2E2E2E2E2E2E2E2E2E2E2E2E2E2E2E2E2E2E2E2E2F5F5F5F5F5F5F5F5F5F5F5F5F5F5F5F5F5F5F5F5F5F5F5F5F5F5F5F5F5F5F5F5F5F5
310
F5F5F5F5F5F5F5F5F5F5F5F5F5F5F5F5F5F5F5F5F5F5F5F5F5F5F5F5F5F5F5F5F5F5F5F5F5F5F5E2E2E2E2E2E2E2E2E2E2E2E2E2E2E2E2E2E2E2E2E2E2E2E2E2E2E2E2E2F5E2E2E2E2E2E2E2E2E2E2E2E2E2E2E2E2E2E2E2F5F5E2E2E2E2E2E2E2E2E2E2E2E2E2E2E2E2E2E2E2F5E2E2E2E2E2E2E2E2E2E2E2E2E2E2E2E2E2
310
E2E2E2E2E2E2E2E2E2E2E2E2E2E2E2E2E2E2E2E2E2E2E2E2E2E2E2E2E2E2E2E2E2E2E2E2E2E2E2E2E2E2E2E2E2E2E2E2E2E2E2E2E2E2E2E2E2E2E2E2E2E2E2E2E2E2E2E2E2E2E2E2E2E2E2E2E2E2E2E2E2E2E2E2E2E2E2E2E2E2E2E2E2E2E2E2E2E2E2E2E2E2E2E2E2E2E2E2E2E2E2E2E2E2E2E2E2E2E2E2E2F5E2E2E2E2E2
310
E2E2E2E2E2E2E2E2E2E2E2E2E2E2F5F5E2E2E2E2E2E2E2E2E2E2E2E2E2E2E2E2E2E2E2F5F5F5F5F5F5F5F5F5F5F5F5F5F5F5F5F5F5F5F5F5F5F5F5F5F5F5F5F5F5F5F5F5F5F5F5F5F5F5F5F5F5F5F5F5F5F5F5F5F5F5F5F5F5F5F5F5F5F5F5F5F5F5F5F5F5F5F5F5F5F5F5F5F5F5F5F5F5F5F5F5F5F5F5F5F5F5F5F5F5F5F5
310
F5F5F5F5F5F5F5F5F5F5F5F5F5F5F5F5F5F5F5F5F5F5F5F5F5F5F5F5F5F5F5F5F5F5F5F5F5F5F5F5F5F5F5F5F5F5F5F5E2E2E2E2E2E2E2E2E2E2E2E2E2E2E2E2E2E2E2F5F5E2E2E2E2E2E2E2E2E2E2E2E2E2E2E2E2E2E2E2E2E2E2E2E2E2E2E2E2E2E2E2E2E2E2E2E2E2E2E2E2E2E2E2E2E2E2E2E2E2E2E2E2E2E2E2E2E2E2
310
E2E2E2E2E2E2E2E2E2E2E2E2E2E2E2E2E2E2E2E2E2E2E2E2E2E2E2E2E2E2E2E2E2E2E2E2E2E2E2E2E2E2E2E2E2E2E2E2E2E2E2E2E2E2E2E2E2E2E2E2E2E2E2E2E2E2E2E2E2E2E2E2E2E2E2E2E2E2E2E2E2E2E2E2E2E2E2E2E2E2E2E2E2E2E2E2E2E2E2E2E2E2E2E2E2E2E2E2E2E2E2E2E2E2E2E2E2E2E2E2F5F5E2E2E2E2E2
310
E2E2E2E2E2E2E2E2E2E2E2E2E2E2E2E2E2E2E2E2E2E2E2E2E2E2E2E2E2E2E2E2E2E2E2E2E2E2E2E2E2E2E2E2E2E2E2E2E2E2E2E2E2E2E2E2E2E2E2E2E2E2E2E2E2E2E2E2E2E2E2E2E2E2E2E2E2E2E2E2E2E2E2E2E2E2E2E2E2E2E2E2E2E2E2E2E2E2E2E2E2E2E2E2E2E2E2E2E2E2E2E2E2E2E2E2E2E2E2E2E2E2E2E2E2E2E2
310
E2E2E2E2E2E2E2E2E2E2E2E2E2E2E2E2E2E2E2E2E2E2E2E2E2E2E2E2E2E2E2E2E2E2E2E2E2E2E2E2E2E2E2E2E2E2F5F5E2E2E2E2E2E2E2E2E2E2E2E2E2E2E2E2E2E2E2E2E2E2E2E2E2E2E2E2E2E2E2E2E2E2E2E2E2E2E2E2E2E2E2E2E2E2E2E2E2E2E2E2E2E2E2E2E2E2E2E2E2E2E2E2E2E2E2E2E2E2E2E2E2E2E2E2E2E2E2
310
E2E2E2E2E2E2E2E2E2E2E2E2E2E2E2E2E2E2E2E2E2E2E2E2E2E2E2E2E2E2E2E2E2E2E2E2E2E2E2E2E2E2E2E2E2E2E2E2E2E2E2E2E2E2E2E2E2E2E2E2E2E2E2E2E2E2E2E2E2E2E2E2E2E2E2E2E2E2E2E2E2E2E2E2E2E2E2E2E2E2E2E2E2E2E2E2E2E2E2F5F5E2E2E2E2E2E2E2E2E2E2E2E2E2E2E2E2E2E2E2E2E2E2E2E2E2E2
310
E2E2E2E2E2E2E2E2E2E2E2E2E2E2E2E2E2E2E2E2E2E2E2E2E2E2E2E2E2E2E2E2E2E2E2E2E2E2E2E2E2E2E2E2E2E2E2E2E2E2E2E2E2E2E2E2E2E2E2E2E2E2E2E2E2E2E2E2E2E2E2E2E2E2E2E2E2E2E2E2E2E2E2E2E2E2E2E2E2E2E2E2E2E2E2E2E2E2E2E2E2E2E2E2E2E2E2E2E2E2E2E2E2E2E2E2E2E2E2E2E2E2E2E2E2E2E2
310
E2E2E2E2E2E2E2E2E2E2E2E2E2E2E2E2E2E2E2E2E2E2E2E2E2F5F5E2F5E2E2E2E2E2E2E2E2E2E2E2E2E2E2E2E2E2E2E2E2E2E2E2E2E2E2E2E2E2E2E2E2E2E2E2E2E2E2E2E2E2E2E2E2E2E2E2E2E2E2E2E2E2E2E2E2E2E2E2E2E2E2E2E2E2E2E2E2E2E2E2E2E2E2E2E2E2E2E2E2E2E2E2E2E2E2E2E2E2E2E2E2E2E2E2E2E2E2
310
E2E2E2E2E2E2E2E2E2E2E2E2E2E2E2E2E2E2E2E2E2E2E2E2E2E2E2E2E2E2E2E2E2E2E2E2E2E2E2E2E2E2E2E2E2E2E2E2E2E2E2E2E2E2E2E2E2E2E2E2E2E2E2E2E2E2E2E2E2E2E2E2E2E2E2E2F5E2F5F5E2F5E2E2E2E2E2E2E2E2E2E2E2E2E2E2E2E2E2E2E2E2E2E2E2E2E2E2E2E2E2E2E2E2E2E2E2E2E2E2E2E2E2E2E2E2E2
310
E2E2E2E2E2E2E2E2E2E2E2E2E2E2E2E2E2E2E2E2E2E2E2E2E2E2E2E2E2E2E2E2E2E2E2E2E2E2E2E2E2E2E2E2E2E2E2E2E2E2E2E2E2E2E2E2E2E2E2E2E2E2E2E2E2E2E2E2E2E2E2E2E2E2E2E2E2E2E2E2E2E2E2E2E2E2E2E2E2E2E2E2E2E2E2E2E2E2E2E2E2E2E2E2E2E2E2E2E2E2E2E2E2E2E2E2E2E2E2E2E2E2E2E2E2E2E2
310
E2E2F5E2F5F5E2F5E2E2E2E2E2E2E2E2E2E2E2E2E2E2E2E2E2E2E2E2E2E2E2E2E2E2E2E2E2E2E2E2E2E2E2E2E2E2E2E2E2E2E2E2E2E2E2E2E2E2E2E2E2E2E2E2E2E2E2E2E2E2E2E2E2E2E2E2E2E2E2E2E2E2E2E2E2E2E2E2E2E2E2E2E2E2E2E2E2E2E2E2E2E2E2E2E2E2E2E2E2E2E2E2E2E2E2E2E2E2E2E2E2E2E2E2E2E2E2
310
E2E2E2E2E2E2E2E2E2E2E2E2E2E2E2E2E2E2E2E2E2E2E2E2E2E2E2E2E2E2E2E2E2E2E2E2E2E2E2E2E2E2E2E2E2E2E2E2E2E2E2E2E2E2E2F5E2F5F5E2F5E2E2E2E2E2E2E2E2E2E2E2E2E2E2E2E2E2E2E2E2E2E2E2E2E2E2E2E2E2E2E2E2E2E2E2E2E2E2E2E2E2E2E2E2E2E2E2E2E2E2E2E2E2E2E2E2E2E2E2E2E2E2E2E2E2E2
310
E2E2E2E2E2E2E2E2E2E2E2E2E2E2E2E2E2E2E2E2E2E2E2E2E2E2E2E2E2E2E2E2E2E2E2E2E2E2E2E2E2E2E2E2E2E2E2E2E2E2E2E2E2E2E2E2E2E2E2E2E2E2E2E2E2E2E2E2E2E2E2E2E2E2E2E2E2E2E2E2E2E2E2E2E2E2E2E2E2E2E2E2E2E2E2E2E2E2E2E2E2E2E2E2E2E2E2E2F5E2F5F5E2F5E2E2E2E2E2E2E2E2E2E2E2E2E2
310
E2E2E2E2E2E2E2E2E2E2E2E2E2E2E2E2E2E2E2E2E2E2E2E2E2E2E2E2E2E2E2E2E2E2E2E2E2E2E2E2E2E2E2E2E2E2E2E2E2E2E2E2E2E2E2E2E2E2E2E2E2E2E2E2E2E2E2E2E2E2E2E2E2E2E2E2E2E2E2E2E2E2E2E2E2E2E2E2E2E2E2E2E2E2E2E2E2E2E2E2E2E2E2E2E2E2E2E2E2E2E2E2E2E2E2E2E2E2E2E2E2E2E2E2E2E2E2
310
E2E2E2E2E2E2E2E2E2E2E2E2E2E2E2E2E2E2E2E2E2E2E2E2E2E2E2E2E2E2E2E2E2E2F5E2F5F5E2F5E2E2E2E2E2E2E2E2E2E2E2E2E2E2E2E2E2E2E2E2E2E2E2E2E2E2E2E2E2E2E2E2E2E2E2E2E2E2E2E2E2E2E2E2E2E2E2E2E2E2E2E2E2E2E2E2E2E2E2E2E2E2E2E2E2E2E2E2E2E2E2E2E2E2E2E2E2E2E2E2E2E2E2E2E2E2E2
310
E2E2E2E2E2E2E2E2E2E2E2E2E2E2E2E2E2E2E2E2E2E2E2E2E2E2E2E2E2E2E2E2E2E2E2E2E2E2E2E2E2E2E2E2E2E2E2E2E2E2E2E2E2E2E2E2E2E2E2E2E2E2E2E2E2E2E2E2E2E2E2E2E2E2E2E2E2E2E2E2E2E2E2E2E2E2E2F5E2F5F5E2F5E2E2E2E2E2E2E2E2E2E2E2E2E2E2E2E2E2E2E2E2E2E2E2E2E2E2E2E2E2E2E2E2E2E2
310
E2E2E2E2E2E2E2E2E2E2E2E2E2E2E2E2E2E2E2E2E2E2E2E2E2E2E2E2E2E2E2E2E2E2E2E2E2E2E2E2E2E2E2E2E2E2E2E2E2E2E2E2E2E2E2E2E2E2E2E2E2E2E2E2E2E2E2E2E2E2E2E2E2E2E2E2E2E2E2E2E2E2E2E2E2E2E2E2E2E2E2E2E2E2E2E2E2E2E2E2E2E2E2E2E2E2E2E2E2E2E2E2E2E2E2E2E2E2E2E2E2E2E2E2E2E2E2
310
E2E2E2E2E2E2E2E2E2E2E2E2E2F5E2F5F5E2F5F5F5F5F5F5F5F5F5E2E2E2E2E2E2E2E2E2F5F5F5F5F5F5F5F5F5F5F5F5F5F5F5F5E2E2E2E2E2E2E2E2E2F5F5F5F5F5F5F5F5F5F5F5F5F5F5F5F5E2E2E2E2E2E2E2E2E2F5F5F5F5F5F5F5F5F5F5F5F5F5F5F5F5E2E2E2E2E2E2E2E2E2F5F5F5F5F5F5F5F5F5F5F5F5F5F5F5F5
310
E2E2E2E2E2E2E2E2E2F5F5F5F5F5F5F5F5F5F5F5F5F5F5F5F5E2E2E2E2E2E2E2E2E2F5F5F5F5F5F5F5F5F5F5F5F5F5F5F5F5E2E2E2E2E2E2E2E2E2F5F5F5F5F5F5F5F5E2F5F5E2E2E2E2E2E2E2E2E2E2E2E2E2E2E2E2E2E2E2E2E2E2E2E2E2E2E2E2E2E2E2E2E2E2E2E2E2E2E2E2E2E2E2E2E2E2E2E2E2E2E2E2E2E2E2E2E2
310
E2E2E2E2E2E2E2E2E2E2E2E2E2E2E2E2E2E2E2E2E2E2E2E2E2E2E2E2E2E2E2E2E2E2E2E2E2E2E2E2E2E2E2E2E2E2E2E2E2E2E2E2E2E2E2E2E2E2E2E2E2E2E2E2E2E2E2E2E2E2E2E2E2E2E2E2E2E2E2E2E2E2E2E2E2E2E2E2E2E2E2E2E2E2E2E2E2E2E2E2E2E2E2E2E2E2E2E2E2E2E2E2E2E2E2E2E2E2E2E2E2F5F5F5F5F5F5
310
F5F5F5F5F5F5F5F5F5F5F5F5F5F5F5F5F5F5F5F5F5F5F5F5F5F5F5F5F5F5F5F5F5F5F5F5F5F5F5F5F5F5F5F5F5F5F5F5F5F5F5F5F5F5F5F5F5F5F5F5F5F5F5F5F5F5F5F5F5F5F5F5F5F5F5F5F5F5F5F5F5F5F5F5F5F5F5F5F5F5F5F5F5F5F5F5F5F5F5F5F5F5F5F5F5F5F5F5F5F5F5F5F5F5F5F5F5F5F5F5F5F5F5F5F5F5F5
310
F5F5F5F5F5F5F5F5F5F5F5F5F5F5F5F5F5F5F5F5F5F5F5F5F5F5F5F5F5F5F5F5F5F5F5F5F5F5F5F5F5F5F5F5F5F5F5F5
  0
XRECORD
  5
187C
102
{ACAD_REACTORS
330
1749
102
}
330
1749
100
AcDbXrecord
280
     1
102
MATERIAL
148
0.0
149
0.0
149
0.0
 93
        0
 94
      127
282
     0
 72
     0
 77
     0
171
     0
175
     0
179
     0
273
     0
  0
XRECORD
  5
174B
102
{ACAD_REACTORS
330
1749
102
}
330
1749
100
AcDbXrecord
280
     1
270
     1
271
     1
  0
XRECORD
  5
174A
102
{ACAD_REACTORS
330
1749
102
}
330
1749
100
AcDbXrecord
280
     1
270
     1
271
     1
  0
XRECORD
  5
174E
102
{ACAD_REACTORS
330
1749
102
}
330
1749
100
AcDbXrecord
280
     1
270
     1
271
     1
  0
XRECORD
  5
174D
102
{ACAD_REACTORS
330
1749
102
}
330
1749
100
AcDbXrecord
280
     1
270
     1
271
     1
  0
XRECORD
  5
174F
102
{ACAD_REACTORS
330
1749
102
}
330
1749
100
AcDbXrecord
280
     1
270
     1
271
     1
  0
XRECORD
  5
174C
102
{ACAD_REACTORS
330
1749
102
}
330
1749
100
AcDbXrecord
280
     1
270
     1
271
     1
  0
XRECORD
  5
187B
102
{ACAD_REACTORS
330
1741
102
}
330
1741
100
AcDbXrecord
280
     1
102
MATERIAL
148
0.0
149
0.0
149
0.0
 93
        0
 94
      127
282
     0
 72
     0
 77
     0
171
     0
175
     0
179
     0
273
     0
  0
XRECORD
  5
1743
102
{ACAD_REACTORS
330
1741
102
}
330
1741
100
AcDbXrecord
280
     1
270
     1
271
     1
  0
XRECORD
  5
1742
102
{ACAD_REACTORS
330
1741
102
}
330
1741
100
AcDbXrecord
280
     1
270
     1
271
     1
  0
XRECORD
  5
1746
102
{ACAD_REACTORS
330
1741
102
}
330
1741
100
AcDbXrecord
280
     1
270
     1
271
     1
  0
XRECORD
  5
1745
102
{ACAD_REACTORS
330
1741
102
}
330
1741
100
AcDbXrecord
280
     1
270
     1
271
     1
  0
XRECORD
  5
1747
102
{ACAD_REACTORS
330
1741
102
}
330
1741
100
AcDbXrecord
280
     1
270
     1
271
     1
  0
XRECORD
  5
1744
102
{ACAD_REACTORS
330
1741
102
}
330
1741
100
AcDbXrecord
280
     1
270
     1
271
     1
  0
XRECORD
  5
187A
102
{ACAD_REACTORS
330
1879
102
}
330
1879
100
AcDbXrecord
280
     1
102
MATERIAL
148
0.0
149
0.0
149
0.0
 93
        0
 94
       63
282
     0
 72
     0
 77
     0
171
     1
175
     0
179
     1
273
     0
  0
CELLSTYLEMAP
  5
1872
102
{ACAD_REACTORS
330
1803
102
}
330
1803
100
AcDbCellStyleMap
 90
        3
300
CELLSTYLE
  1
TABLEFORMAT_BEGIN
 90
        5
170
     1
 91
        0
 92
    32768
 62
   257
 93
        1
300
CONTENTFORMAT
  1
CONTENTFORMAT_BEGIN
 90
        0
 91
        0
 92
        4
 93
        0
300

 40
0.0
140
1.0
 94
        5
 62
     0
340
11
144
6.0
309
CONTENTFORMAT_END
171
     1
301
MARGIN
  1
CELLMARGIN_BEGIN
 40
1.5
 40
1.5
 40
1.5
 40
1.5
 40
0.18
 40
0.18
309
CELLMARGIN_END
 94
        6
 95
        1
302
GRIDFORMAT
  1
GRIDFORMAT_BEGIN
 90
        0
 91
        1
 62
     0
 92
       -2
340
0
 93
        0
 40
0.045
309
GRIDFORMAT_END
 95
        2
302
GRIDFORMAT
  1
GRIDFORMAT_BEGIN
 90
        0
 91
        1
 62
     0
 92
       -2
340
0
 93
        0
 40
0.045
309
GRIDFORMAT_END
 95
        4
302
GRIDFORMAT
  1
GRIDFORMAT_BEGIN
 90
        0
 91
        1
 62
     0
 92
       -2
340
0
 93
        0
 40
0.045
309
GRIDFORMAT_END
 95
        8
302
GRIDFORMAT
  1
GRIDFORMAT_BEGIN
 90
        0
 91
        1
 62
     0
 92
       -2
340
0
 93
        0
 40
0.045
309
GRIDFORMAT_END
 95
       16
302
GRIDFORMAT
  1
GRIDFORMAT_BEGIN
 90
        0
 91
        1
 62
     0
 92
       -2
340
0
 93
        0
 40
0.045
309
GRIDFORMAT_END
 95
       32
302
GRIDFORMAT
  1
GRIDFORMAT_BEGIN
 90
        0
 91
        1
 62
     0
 92
       -2
340
0
 93
        0
 40
0.045
309
GRIDFORMAT_END
309
TABLEFORMAT_END
  1
CELLSTYLE_BEGIN
 90
        1
 91
        1
300
_TITLE
309
CELLSTYLE_END
300
CELLSTYLE
  1
TABLEFORMAT_BEGIN
 90
        5
170
     1
 91
        0
 92
        0
 62
   257
 93
        1
300
CONTENTFORMAT
  1
CONTENTFORMAT_BEGIN
 90
        0
 91
        0
 92
        4
 93
        0
300

 40
0.0
140
1.0
 94
        5
 62
     0
340
11
144
4.5
309
CONTENTFORMAT_END
171
     1
301
MARGIN
  1
CELLMARGIN_BEGIN
 40
1.5
 40
1.5
 40
1.5
 40
1.5
 40
0.18
 40
0.18
309
CELLMARGIN_END
 94
        6
 95
        1
302
GRIDFORMAT
  1
GRIDFORMAT_BEGIN
 90
        0
 91
        1
 62
     0
 92
       -2
340
0
 93
        0
 40
0.045
309
GRIDFORMAT_END
 95
        2
302
GRIDFORMAT
  1
GRIDFORMAT_BEGIN
 90
        0
 91
        1
 62
     0
 92
       -2
340
0
 93
        0
 40
0.045
309
GRIDFORMAT_END
 95
        4
302
GRIDFORMAT
  1
GRIDFORMAT_BEGIN
 90
        0
 91
        1
 62
     0
 92
       -2
340
0
 93
        0
 40
0.045
309
GRIDFORMAT_END
 95
        8
302
GRIDFORMAT
  1
GRIDFORMAT_BEGIN
 90
        0
 91
        1
 62
     0
 92
       -2
340
0
 93
        0
 40
0.045
309
GRIDFORMAT_END
 95
       16
302
GRIDFORMAT
  1
GRIDFORMAT_BEGIN
 90
        0
 91
        1
 62
     0
 92
       -2
340
0
 93
        0
 40
0.045
309
GRIDFORMAT_END
 95
       32
302
GRIDFORMAT
  1
GRIDFORMAT_BEGIN
 90
        0
 91
        1
 62
     0
 92
       -2
340
0
 93
        0
 40
0.045
309
GRIDFORMAT_END
309
TABLEFORMAT_END
  1
CELLSTYLE_BEGIN
 90
        2
 91
        1
300
_HEADER
309
CELLSTYLE_END
300
CELLSTYLE
  1
TABLEFORMAT_BEGIN
 90
        5
170
     1
 91
        0
 92
        0
 62
   257
 93
        1
300
CONTENTFORMAT
  1
CONTENTFORMAT_BEGIN
 90
        0
 91
        0
 92
        4
 93
        0
300

 40
0.0
140
1.0
 94
        2
 62
     0
340
11
144
4.5
309
CONTENTFORMAT_END
171
     1
301
MARGIN
  1
CELLMARGIN_BEGIN
 40
1.5
 40
1.5
 40
1.5
 40
1.5
 40
0.18
 40
0.18
309
CELLMARGIN_END
 94
        6
 95
        1
302
GRIDFORMAT
  1
GRIDFORMAT_BEGIN
 90
        0
 91
        1
 62
     0
 92
       -2
340
0
 93
        0
 40
0.045
309
GRIDFORMAT_END
 95
        2
302
GRIDFORMAT
  1
GRIDFORMAT_BEGIN
 90
        0
 91
        1
 62
     0
 92
       -2
340
0
 93
        0
 40
0.045
309
GRIDFORMAT_END
 95
        4
302
GRIDFORMAT
  1
GRIDFORMAT_BEGIN
 90
        0
 91
        1
 62
     0
 92
       -2
340
0
 93
        0
 40
0.045
309
GRIDFORMAT_END
 95
        8
302
GRIDFORMAT
  1
GRIDFORMAT_BEGIN
 90
        0
 91
        1
 62
     0
 92
       -2
340
0
 93
        0
 40
0.045
309
GRIDFORMAT_END
 95
       16
302
GRIDFORMAT
  1
GRIDFORMAT_BEGIN
 90
        0
 91
        1
 62
     0
 92
       -2
340
0
 93
        0
 40
0.045
309
GRIDFORMAT_END
 95
       32
302
GRIDFORMAT
  1
GRIDFORMAT_BEGIN
 90
        0
 91
        1
 62
     0
 92
       -2
340
0
 93
        0
 40
0.045
309
GRIDFORMAT_END
309
TABLEFORMAT_END
  1
CELLSTYLE_BEGIN
 90
        3
 91
        2
300
_DATA
309
CELLSTYLE_END
1001
ACAD
1001
ACAD
1001
ACAD
1001
ACAD
1001
ACAD
1000
AcRTDxfName
1000
CELLSTYLEMAP
  0
XRECORD
  5
1878
102
{ACAD_REACTORS
330
1803
102
}
330
1803
100
AcDbXrecord
280
     1
102
ACAD_ROUNDTRIP_PRE2007_TABLESTYLE
 90
        4
 91
        0
  1

 92
        4
 93
        0
  2

 94
        4
 95
        0
  3

  0
ENDSEC
  0
EOF
