  0
SECTION
  2
HEADER
  9
$ACADVER
  1
AC1015
  9
$ACADMAINTVER
 70
    20
  9
$DWGCODEPAGE
  3
ANSI_932
  9
$INSBASE
 10
0.0
 20
0.0
 30
0.0
  9
$EXTMIN
 10
2100.46137689856
 20
853.2098220822653
 30
-0.0000000000112498
  9
$EXTMAX
 10
4034.513598596864
 20
1875.784992263479
 30
0.0000000000002956
  9
$LIMMIN
 10
0.0
 20
0.0
  9
$LIMMAX
 10
420.0
 20
297.0
  9
$ORTHOMODE
 70
     1
  9
$REGENMODE
 70
     1
  9
$FILLMODE
 70
     1
  9
$QTEXTMODE
 70
     0
  9
$MIRRTEXT
 70
     1
  9
$LTSCALE
 40
1.0
  9
$ATTMODE
 70
     1
  9
$TEXTSIZE
 40
62.5215949741746
  9
$TRACEWID
 40
1.0
  9
$TEXTSTYLE
  7
STANDARD
  9
$CLAYER
  8
SIZE
  9
$CELTYPE
  6
BYLAYER
  9
$CECOLOR
 62
   256
  9
$CELTSCALE
 40
1.0
  9
$DISPSILH
 70
     0
  9
$DIMSCALE
 40
10.0
  9
$DIMASZ
 40
2.0
  9
$DIMEXO
 40
1.0
  9
$DIMDLI
 40
3.75
  9
$DIMRND
 40
0.5
  9
$DIMDLE
 40
0.0
  9
$DIMEXE
 40
1.0
  9
$DIMTP
 40
0.0
  9
$DIMTM
 40
0.0
  9
$DIMTXT
 40
2.0
  9
$DIMCEN
 40
2.5
  9
$DIMTSZ
 40
0.0
  9
$DIMTOL
 70
     0
  9
$DIMLIM
 70
     0
  9
$DIMTIH
 70
     0
  9
$DIMTOH
 70
     0
  9
$DIMSE1
 70
     0
  9
$DIMSE2
 70
     0
  9
$DIMTAD
 70
     1
  9
$DIMZIN
 70
     8
  9
$DIMBLK
  1

  9
$DIMASO
 70
     1
  9
$DIMSHO
 70
     1
  9
$DIMPOST
  1

  9
$DIMAPOST
  1

  9
$DIMALT
 70
     0
  9
$DIMALTD
 70
     4
  9
$DIMALTF
 40
0.0394
  9
$DIMLFAC
 40
1.0
  9
$DIMTOFL
 70
     1
  9
$DIMTVP
 40
0.0
  9
$DIMTIX
 70
     0
  9
$DIMSOXD
 70
     0
  9
$DIMSAH
 70
     1
  9
$DIMBLK1
  1
OPEN30
  9
$DIMBLK2
  1
OPEN30
  9
$DIMSTYLE
  2
STANDARD
  9
$DIMCLRD
 70
     0
  9
$DIMCLRE
 70
     0
  9
$DIMCLRT
 70
     0
  9
$DIMTFAC
 40
1.0
  9
$DIMGAP
 40
1.0
  9
$DIMJUST
 70
     0
  9
$DIMSD1
 70
     0
  9
$DIMSD2
 70
     0
  9
$DIMTOLJ
 70
     1
  9
$DIMTZIN
 70
     8
  9
$DIMALTZ
 70
     0
  9
$DIMALTTZ
 70
     0
  9
$DIMUPT
 70
     0
  9
$DIMDEC
 70
     1
  9
$DIMTDEC
 70
     1
  9
$DIMALTU
 70
     8
  9
$DIMALTTD
 70
     4
  9
$DIMTXSTY
  7
STANDARD
  9
$DIMAUNIT
 70
     0
  9
$DIMADEC
 70
     0
  9
$DIMALTRND
 40
0.0
  9
$DIMAZIN
 70
     0
  9
$DIMDSEP
 70
    46
  9
$DIMATFIT
 70
     3
  9
$DIMFRAC
 70
     0
  9
$DIMLDRBLK
  1
OPEN30
  9
$DIMLUNIT
 70
     2
  9
$DIMLWD
 70
    -2
  9
$DIMLWE
 70
    -2
  9
$DIMTMOVE
 70
     0
  9
$LUNITS
 70
     2
  9
$LUPREC
 70
     2
  9
$SKETCHINC
 40
1.0
  9
$FILLETRAD
 40
10.0
  9
$AUNITS
 70
     0
  9
$AUPREC
 70
     0
  9
$MENU
  1
.
  9
$ELEVATION
 40
0.0
  9
$PELEVATION
 40
0.0
  9
$THICKNESS
 40
0.0
  9
$LIMCHECK
 70
     0
  9
$CHAMFERA
 40
10.0
  9
$CHAMFERB
 40
10.0
  9
$CHAMFERC
 40
20.0
  9
$CHAMFERD
 40
0.0
  9
$SKPOLY
 70
     0
  9
$TDCREATE
 40
2451324.468257373
  9
$TDUCREATE
 40
2451324.093257373
  9
$TDUPDATE
 40
2455891.667921574
  9
$TDUUPDATE
 40
2455891.292921574
  9
$TDINDWG
 40
2.0455066088
  9
$TDUSRTIMER
 40
2.0455055208
  9
$USRTIMER
 70
     1
  9
$ANGBASE
 50
0.0
  9
$ANGDIR
 70
     0
  9
$PDMODE
 70
     0
  9
$PDSIZE
 40
0.0
  9
$PLINEWID
 40
0.0
  9
$SPLFRAME
 70
     0
  9
$SPLINETYPE
 70
     6
  9
$SPLINESEGS
 70
     8
  9
$HANDSEED
  5
22E2
  9
$SURFTAB1
 70
     6
  9
$SURFTAB2
 70
     6
  9
$SURFTYPE
 70
     6
  9
$SURFU
 70
     6
  9
$SURFV
 70
     6
  9
$UCSBASE
  2

  9
$UCSNAME
  2

  9
$UCSORG
 10
0.0
 20
0.0
 30
0.0
  9
$UCSXDIR
 10
1.0
 20
0.0
 30
0.0
  9
$UCSYDIR
 10
0.0
 20
1.0
 30
0.0
  9
$UCSORTHOREF
  2

  9
$UCSORTHOVIEW
 70
     0
  9
$UCSORGTOP
 10
0.0
 20
0.0
 30
0.0
  9
$UCSORGBOTTOM
 10
0.0
 20
0.0
 30
0.0
  9
$UCSORGLEFT
 10
0.0
 20
0.0
 30
0.0
  9
$UCSORGRIGHT
 10
0.0
 20
0.0
 30
0.0
  9
$UCSORGFRONT
 10
0.0
 20
0.0
 30
0.0
  9
$UCSORGBACK
 10
0.0
 20
0.0
 30
0.0
  9
$PUCSBASE
  2

  9
$PUCSNAME
  2

  9
$PUCSORG
 10
0.0
 20
0.0
 30
0.0
  9
$PUCSXDIR
 10
1.0
 20
0.0
 30
0.0
  9
$PUCSYDIR
 10
0.0
 20
1.0
 30
0.0
  9
$PUCSORTHOREF
  2

  9
$PUCSORTHOVIEW
 70
     0
  9
$PUCSORGTOP
 10
0.0
 20
0.0
 30
0.0
  9
$PUCSORGBOTTOM
 10
0.0
 20
0.0
 30
0.0
  9
$PUCSORGLEFT
 10
0.0
 20
0.0
 30
0.0
  9
$PUCSORGRIGHT
 10
0.0
 20
0.0
 30
0.0
  9
$PUCSORGFRONT
 10
0.0
 20
0.0
 30
0.0
  9
$PUCSORGBACK
 10
0.0
 20
0.0
 30
0.0
  9
$USERI1
 70
     0
  9
$USERI2
 70
     0
  9
$USERI3
 70
     0
  9
$USERI4
 70
     0
  9
$USERI5
 70
     0
  9
$USERR1
 40
0.0
  9
$USERR2
 40
0.0
  9
$USERR3
 40
0.0
  9
$USERR4
 40
0.0
  9
$USERR5
 40
0.0
  9
$WORLDVIEW
 70
     1
  9
$SHADEDGE
 70
     3
  9
$SHADEDIF
 70
    70
  9
$TILEMODE
 70
     1
  9
$MAXACTVP
 70
    48
  9
$PINSBASE
 10
0.0
 20
0.0
 30
0.0
  9
$PLIMCHECK
 70
     0
  9
$PEXTMIN
 10
-1439.804583653114
 20
-1400.237631316938
 30
0.0
  9
$PEXTMAX
 10
2872.968780515991
 20
1675.790811506817
 30
0.0
  9
$PLIMMIN
 10
0.0
 20
0.0
  9
$PLIMMAX
 10
12.0
 20
9.0
  9
$UNITMODE
 70
     0
  9
$VISRETAIN
 70
     1
  9
$PLINEGEN
 70
     0
  9
$PSLTSCALE
 70
     1
  9
$TREEDEPTH
 70
  3020
  9
$CMLSTYLE
  2
STANDARD
  9
$CMLJUST
 70
     0
  9
$CMLSCALE
 40
20.0
  9
$PROXYGRAPHICS
 70
     1
  9
$MEASUREMENT
 70
     1
  9
$CELWEIGHT
370
    -1
  9
$ENDCAPS
280
     0
  9
$JOINSTYLE
280
     0
  9
$LWDISPLAY
290
     0
  9
$INSUNITS
 70
     0
  9
$HYPERLINKBASE
  1

  9
$STYLESHEET
  1

  9
$XEDIT
290
     1
  9
$CEPSNTYPE
380
     0
  9
$PSTYLEMODE
290
     1
  9
$FINGERPRINTGUID
  2
{7B48495B-9D62-4076-8CB1-8ACA882609AE}
  9
$VERSIONGUID
  2
{B651F205-AA85-481F-BD63-B175E4DFC078}
  9
$EXTNAMES
290
     1
  9
$PSVPSCALE
 40
0.0
  9
$OLESTARTUP
290
     0
  0
ENDSEC
  0
SECTION
  2
CLASSES
  0
CLASS
  1
ACDBDICTIONARYWDFLT
  2
AcDbDictionaryWithDefault
  3
ObjectDBX Classes
 90
        0
280
     0
281
     0
  0
CLASS
  1
ACDBPLACEHOLDER
  2
AcDbPlaceHolder
  3
ObjectDBX Classes
 90
        0
280
     0
281
     0
  0
CLASS
  1
LAYOUT
  2
AcDbLayout
  3
ObjectDBX Classes
 90
        0
280
     0
281
     0
  0
CLASS
  1
ACME_DOCUMENT
  2
AcMeDbDoc
  3
AcMeServices
 90
     1024
280
     0
281
     0
  0
CLASS
  1
AMGSETTINGSOBJ
  2
AmgSettingsObj
  3
"AcadM|Product Description: AutoCAD Mechanical|Company: Autodesk, Inc."
 90
     1024
280
     0
281
     0
  0
CLASS
  1
ACMESCOPE
  2
AcMeScope
  3
AcMeServices
 90
     1024
280
     0
281
     0
  0
CLASS
  1
ACMECOMMANDHISTORY
  2
AcMeCommandHistory
  3
AcMeServices
 90
     1024
280
     0
281
     0
  0
CLASS
  1
DICTIONARYVAR
  2
AcDbDictionaryVar
  3
ObjectDBX Classes
 90
        0
280
     0
281
     0
  0
CLASS
  1
ACIMSYSVARMAN
  2
AcImSysVarManager
  3
AcMeServices
 90
     1024
280
     0
281
     0
  0
CLASS
  1
ACIMREALSYSVAR
  2
AcImRealSysVar
  3
AcMeServices
 90
     1024
280
     0
281
     0
  0
CLASS
  1
ACIMINTSYSVAR
  2
AcImIntSysVar
  3
AcMeServices
 90
     1024
280
     0
281
     0
  0
CLASS
  1
ACMEDRAWINGMAN
  2
AcMeDrawingMan
  3
AcMeServices
 90
     1024
280
     0
281
     0
  0
CLASS
  1
ACMEVIEW
  2
AcMeView
  3
AcMeServices
 90
     1024
280
     0
281
     0
  0
CLASS
  1
ACDBENTITYCACHE
  2
AcMeEntityCache
  3
AcMeServices
 90
     1024
280
     0
281
     0
  0
CLASS
  1
GSMANAGER
  2
AcMeGSManager
  3
AcMeServices
 90
     1024
280
     0
281
     0
  0
CLASS
  1
AMDTINTERNALREACTOR
  2
AmdtInternalReactor
  3
AcMeServices
 90
     1024
280
     0
281
     0
  0
CLASS
  1
ACMESTATEMGR
  2
AcMeStateMgr
  3
AcMeServices
 90
     1024
280
     0
281
     0
  0
CLASS
  1
ACGREFMASTER
  2
AcGrefMaster
  3
AcAttribServices
 90
     1024
280
     0
281
     0
  0
CLASS
  1
AM_DRAWING_MGR
  2
AcDmDwgMgr
  3
AcMechDwgViewMgmt
 90
     1024
280
     0
281
     0
  0
CLASS
  1
AM_DWG_DOCUMENT
  2
AcDmDwgDocument
  3
AcMechDwgViewMgmt
 90
     1024
280
     0
281
     0
  0
CLASS
  1
AM_DWG_SHEET
  2
AcDmSheet
  3
AcMechDwgViewMgmt
 90
     1024
280
     0
281
     0
  0
CLASS
  1
AM_VIEWDIMPARMAP
  2
AcDmViewDimParMap
  3
AcMechDwgViewMgmt
 90
     1024
280
     0
281
     0
  0
CLASS
  1
AM_DWGMGR_NAME
  2
AcDmDwgMgrName
  3
AcMechDwgViewMgmt
 90
     1024
280
     0
281
     0
  0
CLASS
  1
ACME_DATABASE
  2
AcMeDbDatabase
  3
AcMeServices
 90
     1024
280
     0
281
     0
  0
CLASS
  1
ACRFINSADJUSTERMGR
  2
AcRfInsAdjusterMgr
  3
AcMeServices
 90
     1024
280
     0
281
     0
  0
CLASS
  1
ACGREFACADMASTER
  2
AcGrefacadMaster
  3
AcGrefServices
 90
     1024
280
     0
281
     0
  0
CLASS
  1
AMDTMENUSTATEMGR
  2
AmdtMenuStateMgr
  3
McadcomServices
 90
     1024
280
     0
281
     0
  0
CLASS
  1
AMDTMCOMMENUSTATE
  2
AmdtMcomMenuState
  3
McadcomServices
 90
     1024
280
     0
281
     0
  0
CLASS
  1
AMIMASTER
  2
AmiMaster
  3
AmiServices
 90
     1024
280
     0
281
     0
  0
CLASS
  1
ASAPP
  2
AcAsAppObject
  3
AutoSurfServices
 90
     1024
280
     0
281
     0
  0
CLASS
  1
IM_STATIC_MAN
  2
AcImStaticVarManager
  3
AcMeServices
 90
     1024
280
     0
281
     0
  0
CLASS
  1
ACIMSTRSYSVAR
  2
AcImStrSysVar
  3
AcMeServices
 90
     1024
280
     0
281
     0
  0
CLASS
  1
ACIMDBLSTATICVAR
  2
AcImDblStaticVar
  3
AcMeServices
 90
     1024
280
     0
281
     0
  0
CLASS
  1
ACIMSTRSTATICVAR
  2
AcImStrStaticVar
  3
AcMeServices
 90
     1024
280
     0
281
     0
  0
CLASS
  1
ACIMINTSTATICVAR
  2
AcImIntStaticVar
  3
AcMeServices
 90
     1024
280
     0
281
     0
  0
CLASS
  1
ACASGREFMASTER
  2
AcAsGrefMaster
  3
AutoSurfResolverServices
 90
     1024
280
     0
281
     0
  0
CLASS
  1
ACADGREFMODULE
  2
AcAdGrefModule
  3
AdGrefServices
 90
     1024
280
     0
281
     0
  0
CLASS
  1
AMDTMAPISURFMOUDULE
  2
AmdtMApiSurfModule
  3
MApiSurfServices
 90
     1024
280
     0
281
     0
  0
CLASS
  1
MAPIAMMOUDLE
  2
MApiAmModule
  3
MApiAmServices
 90
     1024
280
     0
281
     0
  0
CLASS
  1
AMDTADMENUSTATE
  2
AmdtAdMenuState
  3
DesignerServices
 90
     1024
280
     0
281
     0
  0
CLASS
  1
ADAPPL
  2
AcAdAppl
  3
DesignerServices
 90
     1024
280
     0
281
     0
  0
CLASS
  1
DEPMGR
  2
AcAdDepMgr
  3
DesignerServices
 90
     1024
280
     0
281
     0
  0
CLASS
  1
PARAMMGR
  2
AcAdParamMgr
  3
DesignerServices
 90
     1024
280
     0
281
     0
  0
CLASS
  1
PARAMSCOPE
  2
AcAdParamScope
  3
DesignerServices
 90
     1024
280
     0
281
     0
  0
CLASS
  1
NAMEDAPPL
  2
AcAdNamedAppl
  3
DesignerServices
 90
     1024
280
     0
281
     0
  0
CLASS
  1
ADHNTMPLT
  2
AdHoleNoteTemplateMgr
  3
DesignerServices
 90
    33792
280
     0
281
     0
  0
CLASS
  1
AM_HNTEMPLATE_MGR_NAME
  2
AdHoleNoteTemplateMgrName
  3
DesignerServices
 90
    33792
280
     0
281
     0
  0
CLASS
  1
AMDTDMMENUSTATE
  2
AmdtDmMenuState
  3
AcMechDwgViewMgmt
 90
     1024
280
     0
281
     0
  0
CLASS
  1
MAPIADMODULE
  2
MApiAdModule
  3
MApiAdServices
 90
     1024
280
     0
281
     0
  0
CLASS
  1
AMDTAMMENUSTATE
  2
AmdtAmMenuState
  3
DesignerAssemblies
 90
     1024
280
     0
281
     0
  0
CLASS
  1
ACAMPROJECT
  2
AcAmProject
  3
DesignerAssemblies
 90
     1024
280
     0
281
     0
  0
CLASS
  1
ACAMGRCOMPDEF
  2
AcAmGrCompDef
  3
DesignerAssemblies
 90
     1024
280
     0
281
     0
  0
CLASS
  1
ACCMCONTEXT
  2
AcCmContext
  3
DesignerAssemblies
 90
     1024
280
     0
281
     0
  0
CLASS
  1
ACAMCOMPDEF
  2
AcAmCompDef
  3
DesignerAssemblies
 90
     1024
280
     0
281
     0
  0
CLASS
  1
ACAMCOMPDEFMGR
  2
AcAmCompDefMgr
  3
DesignerAssemblies
 90
     1024
280
     0
281
     0
  0
CLASS
  1
AMCONTEXTMGR
  2
AcAmContextMgr
  3
DesignerAssemblies
 90
     1024
280
     0
281
     0
  0
CLASS
  1
ACAMCONTEXTMODELER
  2
AcAmContextModeler
  3
DesignerAssemblies
 90
     1024
280
     0
281
     0
  0
CLASS
  1
ACMDATADICTIONARY
  2
AcmDataDictionary
  3
"AcmSymBB|Product Description: AutoCAD Mechanical|Company: Autodesk, Inc."
 90
     1024
280
     0
281
     0
  0
CLASS
  1
ACMDATAENTRYBLOCK
  2
AcmDataEntryBlock
  3
AcmSymBB|Product Description: AutoCAD Mechanical|Company: Autodesk, Inc.
 90
     1024
280
     0
281
     0
  0
CLASS
  1
CATALOGSTATE
  2
AcAmCatalogState
  3
DesignerAssemblies
 90
     1024
280
     0
281
     0
  0
CLASS
  1
ACAMGRCOMPDEFSET
  2
AcAmGrCompDefSet
  3
DesignerAssemblies
 90
     1024
280
     0
281
     0
  0
CLASS
  1
AMDTBROWSERDBTAB
  2
AmdtBrowserDbTab
  3
McadcomServices
 90
     1024
280
     0
281
     0
  0
CLASS
  1
CBROWSERAPPOBJECT
  2
CBrowserAppObject
  3
McadcomServices
 90
     1024
280
     0
281
     0
  0
CLASS
  1
DM_PLACEHOLDER
  2
AcDmSelsetPlaceholder
  3
AcMechDwgViewMgmt
 90
     1024
280
     0
281
     0
  0
CLASS
  1
ACMSTANDARDISO
  2
AcmStandardISO
  3
"Amdt_StdImp|Product Description: AutoCAD Mechanical|Company: Autodesk, Inc."
 90
     1024
280
     0
281
     0
  0
CLASS
  1
AMGOBJPROPCFG
  2
AmgObjPropCfg
  3
"AmgLay|Product Description: AutoCAD Mechanical|Company: Autodesk, Inc."
 90
     1025
280
     0
281
     0
  0
CLASS
  1
AMDTEDGESTANDARDISO
  2
AmdtEdgeStdISO
  3
"Amdt_StdImp|Product Description: AutoCAD Mechanical|Company: Autodesk, Inc."
 90
    33792
280
     0
281
     0
  0
CLASS
  1
ACMSURFSTANDARDISO
  2
AcmSurfTextStdISO
  3
"Amdt_StdImp|Product Description: AutoCAD Mechanical|Company: Autodesk, Inc."
 90
    33792
280
     0
281
     0
  0
CLASS
  1
ACMFCFSTANDARDISO
  2
AcmFCFStdISO
  3
"Amdt_StdImp|Product Description: AutoCAD Mechanical|Company: Autodesk, Inc."
 90
     1024
280
     0
281
     0
  0
CLASS
  1
ACMWELDSTANDARDISO
  2
AcmWeldingStdISO
  3
"Amdt_StdImp|Product Description: AutoCAD Mechanical|Company: Autodesk, Inc."
 90
     1024
280
     0
281
     0
  0
CLASS
  1
ACMIDSTANDARDISO
  2
AcmIdStdISO
  3
"Amdt_StdImp|Product Description: AutoCAD Mechanical|Company: Autodesk, Inc."
 90
     1024
280
     0
281
     0
  0
CLASS
  1
ACMDATUMSTANDARDISO
  2
AcmDatumStdISO
  3
"Amdt_StdImp|Product Description: AutoCAD Mechanical|Company: Autodesk, Inc."
 90
     1024
280
     0
281
     0
  0
CLASS
  1
ACMBOMSTANDARDISO
  2
AcmBOMStdISO
  3
"Amdt_StdImp|Product Description: AutoCAD Mechanical|Company: Autodesk, Inc."
 90
     1024
280
     0
281
     0
  0
CLASS
  1
ACMDETAILSTANDARDISO
  2
AmdtDetailSymStdISO
  3
"Amdt_StdImp|Product Description: AutoCAD Mechanical|Company: Autodesk, Inc."
 90
     1024
280
     0
281
     0
  0
CLASS
  1
ACMSECTIONSTANDARDISO
  2
AmdtSectionSymStdISO
  3
"Amdt_StdImp|Product Description: AutoCAD Mechanical|Company: Autodesk, Inc."
 90
    33792
280
     0
281
     0
  0
CLASS
  1
ACMCENTERLINESTANDARDISO
  2
AmdtCenterLineStdISO
  3
"Amdt_StdImp|Product Description: AutoCAD Mechanical|Company: Autodesk, Inc."
 90
     1024
280
     0
281
     0
  0
CLASS
  1
ACMTHREADLINESTANDARDISO
  2
AmdtThreadLineStdISO
  3
"Amdt_StdImp|Product Description: AutoCAD Mechanical|Company: Autodesk, Inc."
 90
     1024
280
     0
281
     0
  0
CLASS
  1
ACAMGLAYSTD
  2
AcAmgLayStd
  3
"AmgLay|Product Description: AutoCAD Mechanical|Company: Autodesk, Inc."
 90
     1024
280
     0
281
     0
  0
CLASS
  1
ACAMGDIMSTD
  2
AcAmgDimStd
  3
"AmgDim|Product Description: AutoCAD Mechanical|Company: Autodesk, Inc."
 90
     1024
280
     0
281
     0
  0
CLASS
  1
ACAMGTITLESTD
  2
AcAmgTitleStd
  3
"AmgTitle|Product Description: AutoCAD Mechanical|Company: Autodesk, Inc."
 90
     4095
280
     0
281
     0
  0
CLASS
  1
ACAMGFILTERDAT
  2
AcAmgFilterDat
  3
"AcadM|Product Description: AutoCAD Mechanical|Company: Autodesk, Inc."
 90
     1024
280
     0
281
     0
  0
CLASS
  1
AMDTFORMULAUPDATEDISPATCHER
  2
AmdtFormulaUpdateDispatcher
  3
AcMeServices
 90
    33792
280
     0
281
     0
  0
CLASS
  1
LAYER_INDEX
  2
AcDbLayerIndex
  3
ObjectDBX Classes
 90
        0
280
     0
281
     0
  0
CLASS
  1
IDBUFFER
  2
AcDbIdBuffer
  3
ObjectDBX Classes
 90
        0
280
     0
281
     0
  0
CLASS
  1
TABLESTYLE
  2
AcDbTableStyle
  3
ObjectDBX Classes
 90
     4095
280
     0
281
     0
  0
CLASS
  1
ACMNOTESTANDARDISO
  2
AmdtNoteStdISO
  3
"Amdt_StdImp|Product Description: AutoCAD Mechanical|Company: Autodesk, Inc."
 90
     1024
280
     0
281
     0
  0
CLASS
  1
AMDTNOTETEMPLATEDB
  2
AmdtNoteTemplateDB
  3
AcmSymBB|Product Description: AutoCAD Mechanical|Company: Autodesk, Inc.
 90
     1024
280
     0
281
     0
  0
CLASS
  1
ACAMEXTERNALCOMPDEF
  2
AcAmExternalCompDef
  3
DesignerAssemblies
 90
    33792
280
     0
281
     0
  0
CLASS
  1
ACCMBODY
  2
AcCmBody
  3
DesignerAssemblies
 90
    33792
280
     0
281
     0
  0
CLASS
  1
ACAMCOMPENT
  2
AcAmCompEnt
  3
DesignerAssemblies
 90
    33792
280
     0
281
     1
  0
CLASS
  1
ACAMCOMPFEEDBACK
  2
AcAmCompFeedback
  3
DesignerAssemblies
 90
    33792
280
     0
281
     0
  0
CLASS
  1
ACAMCOMP
  2
AcAmComp
  3
DesignerAssemblies
 90
    33792
280
     0
281
     0
  0
CLASS
  1
ACAMCOMPENTCLONE
  2
AcAmCompEntClone
  3
DesignerAssemblies
 90
    33792
280
     0
281
     1
  0
CLASS
  1
ACAMCLONEREACTOR
  2
AcAmGrCompCloneReactor
  3
DesignerAssemblies
 90
    33792
280
     0
281
     0
  0
CLASS
  1
EDGEID
  2
AcAdEdgeId
  3
DesignerServices
 90
    33792
280
     0
281
     0
  0
CLASS
  1
ACADPARTLINEDGRES
  2
AcAdPartLinEdgRes
  3
AdGrefServices
 90
    33792
280
     0
281
     0
  0
CLASS
  1
ACRFINSADJ
  2
AcRfInsAdjuster
  3
AcMeServices
 90
    33792
280
     0
281
     0
  0
CLASS
  1
STREFID
  2
AcAdStraightRefId
  3
DesignerServices
 90
    33792
280
     0
281
     0
  0
CLASS
  1
ACMEAXIS
  2
AcImAxisDisplay
  3
AcMeServices
 90
    33792
280
     0
281
     1
  0
CLASS
  1
FACEID
  2
AcAdFaceId
  3
DesignerServices
 90
    33792
280
     0
281
     0
  0
CLASS
  1
DEPEDGESECONDARYDEPID
  2
AcAdDepEdgeSecondaryDepId
  3
DesignerServices
 90
    33792
280
     0
281
     0
  0
CLASS
  1
ACADPARTPLANARFACERES
  2
AcAdPartPlanarFaceRes
  3
AdGrefServices
 90
    33792
280
     0
281
     0
  0
CLASS
  1
ACMEPOINT
  2
AcImPointDisplay
  3
AcMeServices
 90
    33792
280
     0
281
     1
  0
CLASS
  1
ACMELINEARARROW
  2
AcImLinearArrowDisplay
  3
AcMeServices
 90
    33792
280
     0
281
     1
  0
CLASS
  1
ACAMEXPR
  2
AcAmExpr
  3
DesignerAssemblies
 90
    33792
280
     0
281
     0
  0
CLASS
  1
ACCMDISTPLPL
  2
AcCmDistPlPl
  3
DesignerAssemblies
 90
    33792
280
     0
281
     0
  0
CLASS
  1
ACCMCONSTREACTOR
  2
AcCmConstraintReactor
  3
DesignerAssemblies
 90
    33792
280
     0
281
     0
  0
CLASS
  1
ACCMDISTPTLN
  2
AcCmDistPtLn
  3
DesignerAssemblies
 90
    33792
280
     0
281
     0
  0
CLASS
  1
AM_VIEW_SELECT_FILTER
  2
AcDmSelectViewEntFilter
  3
AcMechDwgViewMgmt
 90
    33792
280
     0
281
     0
  0
CLASS
  1
AM_GREF_PLANE
  2
AcDmGrefPlnDef
  3
AcMechDwgViewMgmt
 90
    33792
280
     0
281
     0
  0
CLASS
  1
AM_GREF_AXIS
  2
AcDmGrefAxisDef
  3
AcMechDwgViewMgmt
 90
    33792
280
     0
281
     0
  0
CLASS
  1
AM_BASE_VIEW_ORIENT
  2
AcDmBaseViewOr
  3
AcMechDwgViewMgmt
 90
    33792
280
     0
281
     0
  0
CLASS
  1
AM_DWG_VIEWPORT
  2
AcDmViewport
  3
AcMechDwgViewMgmt
 90
    33792
280
     0
281
     0
  0
CLASS
  1
AM_VIEW_DISPLAY
  2
AcDmDwgViewDisplay
  3
AcMechDwgViewMgmt
 90
    33792
280
     0
281
     0
  0
CLASS
  1
AM_CLDFLTS
  2
AcDmClDflts
  3
AcMechDwgViewMgmt
 90
    33792
280
     0
281
     0
  0
CLASS
  1
AM_BASE_VIEW
  2
AcDmBaseView
  3
AcMechDwgViewMgmt
 90
    33792
280
     0
281
     0
  0
CLASS
  1
ACMEPLINE
  2
AcImPlineDisplay
  3
AcMeServices
 90
    33792
280
     0
281
     1
  0
CLASS
  1
ACDMPARTVIEWDATA
  2
AcDmPartViewData
  3
AcMechDwgViewMgmt
 90
    33792
280
     0
281
     0
  0
CLASS
  1
ACDMDISPLAYATTRIBS
  2
AcDmDisplayAttribs
  3
AcMechDwgViewMgmt
 90
    33792
280
     0
281
     0
  0
CLASS
  1
ACDMBODYINSTANCEDATA
  2
AcDmBodyInstanceData
  3
AcMechDwgViewMgmt
 90
    33792
280
     0
281
     0
  0
CLASS
  1
ACDMVWEDLINE
  2
AcDmViewEdgeLine
  3
AcMechDwgViewMgmt
 90
    33792
280
     0
281
     1
  0
CLASS
  1
ACDMVWEDARC
  2
AcDmViewEdgeArc
  3
AcMechDwgViewMgmt
 90
    33792
280
     0
281
     1
  0
CLASS
  1
AM_ISO_VIEW_ORIENT
  2
AcDmIsoViewOr
  3
AcMechDwgViewMgmt
 90
    33792
280
     0
281
     0
  0
CLASS
  1
AM_ISO_VIEW
  2
AcDmIsoView
  3
AcMechDwgViewMgmt
 90
    33792
280
     0
281
     0
  0
CLASS
  1
AM_ORTHO_VIEW_ORIENT
  2
AcDmOrthoViewOr
  3
AcMechDwgViewMgmt
 90
    33792
280
     0
281
     0
  0
CLASS
  1
AM_ORTHO_VIEW
  2
AcDmOrthoView
  3
AcMechDwgViewMgmt
 90
    33792
280
     0
281
     0
  0
CLASS
  1
ACAMVIEWREACTOR
  2
AcAmViewReactor
  3
DesignerAssemblies
 90
    33792
280
     0
281
     0
  0
CLASS
  1
AMVIEW
  2
AcAmView
  3
DesignerAssemblies
 90
    33792
280
     0
281
     0
  0
CLASS
  1
ACAMVIEWCONTEXT
  2
AcAmViewContext
  3
DesignerAssemblies
 90
    33792
280
     0
281
     0
  0
CLASS
  1
ACAMCOMPENTVIEW
  2
AcAmCompEntView
  3
DesignerAssemblies
 90
    33792
280
     0
281
     1
  0
CLASS
  1
ACAMCOMPVIEWREACTOR
  2
AcAmGrCompViewReactor
  3
DesignerAssemblies
 90
    33792
280
     0
281
     0
  0
CLASS
  1
ACAMVIEWENTITYFILTER
  2
AcAmViewEntityFilter
  3
DesignerAssemblies
 90
    33792
280
     0
281
     0
  0
CLASS
  1
ACDMVWEDCIRC
  2
AcDmViewEdgeCircle
  3
AcMechDwgViewMgmt
 90
    33792
280
     0
281
     1
  0
CLASS
  1
AM_ADCIRCTRLINE
  2
AcAdBullsEyeCl
  3
DesignerServices
 90
    33792
280
     0
281
     0
  0
CLASS
  1
AM_ADLINCTRLINE
  2
AcAdLineCl
  3
DesignerServices
 90
    33792
280
     0
281
     0
  0
CLASS
  1
ACDMVIEWGEOM
  2
AcDmViewGeometry
  3
AcMechDwgViewMgmt
 90
    33792
280
     0
281
     1
  0
CLASS
  1
ACCMDISTLNLN
  2
AcCmDistLnLn
  3
DesignerAssemblies
 90
    33792
280
     0
281
     0
  0
CLASS
  1
ACAMXREFCONTEXTMODELER
  2
AcAmXrefContextModeler
  3
DesignerAssemblies
 90
    33792
280
     0
281
     0
  0
CLASS
  1
CNRREFID
  2
AcAdCornerId
  3
DesignerServices
 90
    33792
280
     0
281
     0
  0
CLASS
  1
ACADPARTPOINTRES
  2
AcAdPartPointRes
  3
AdGrefServices
 90
    33792
280
     0
281
     0
  0
CLASS
  1
AM_VIEWDIMLINEAR
  2
AcDmViewDimLinear
  3
AcMechDwgViewMgmt
 90
    33792
280
     0
281
     0
  0
CLASS
  1
PARAM
  2
AcAdParam
  3
DesignerServices
 90
    33792
280
     0
281
     0
  0
CLASS
  1
SORTENTSTABLE
  2
AcDbSortentsTable
  3
ObjectDBX Classes
 90
        0
280
     0
281
     0
  0
CLASS
  1
ACADPARTCIRCEDGRES
  2
AcAdPartCircEdgRes
  3
AdGrefServices
 90
    33792
280
     0
281
     0
  0
CLASS
  1
AM_VIEWDIMRADIUS
  2
AcDmViewDimRadius
  3
AcMechDwgViewMgmt
 90
    33792
280
     0
281
     0
  0
CLASS
  1
DEPEDGEPATTERNINSTANCE
  2
AcAdDepEdgePatternInstance
  3
DesignerServices
 90
    33792
280
     0
281
     0
  0
CLASS
  1
FEEDBACK
  2
AcAmFeedback
  3
DesignerAssemblies
 90
    33792
280
     0
281
     1
  0
CLASS
  1
ACAMTRIAXISSYMBOL
  2
AcAmTriAxisSymbol
  3
DesignerAssemblies
 90
    33792
280
     0
281
     0
  0
CLASS
  1
ACAMTEXTCIRCLESYMBOL
  2
AcAmTextCircleSymbol
  3
DesignerAssemblies
 90
    33792
280
     0
281
     0
  0
CLASS
  1
ACDMVISEDIT
  2
AcDmViewEntityVisEdit
  3
AcMechDwgViewMgmt
 90
    33792
280
     0
281
     0
  0
CLASS
  1
SILEDGEID
  2
AcAdSilhouetteEdgeId
  3
DesignerServices
 90
    33792
280
     0
281
     0
  0
CLASS
  1
MATERIAL
  2
AcDbMaterial
  3
ObjectDBX Classes
 90
     1153
280
     0
281
     0
  0
CLASS
  1
VISUALSTYLE
  2
AcDbVisualStyle
  3
ObjectDBX Classes
 90
     4095
280
     0
281
     0
  0
CLASS
  1
SCALE
  2
AcDbScale
  3
ObjectDBX Classes
 90
     1153
280
     0
281
     0
  0
CLASS
  1
MLEADERSTYLE
  2
AcDbMLeaderStyle
  3
ACDB_MLEADERSTYLE_CLASS
 90
     4095
280
     0
281
     0
  0
CLASS
  1
EXACTERMXREFMAP
  2
ExAcTermXrefMap
  3
EXAC_SERVICE
 90
    33793
280
     0
281
     0
  0
CLASS
  1
NPOCOLLECTION
  2
AcDbImpNonPersistentObjectsCollection
  3
ObjectDBX Classes
 90
     1153
280
     0
281
     0
  0
CLASS
  1
ACRFATTGENMGR
  2
AcRfAttGeneralMgr
  3
AcAttribServices
 90
     1024
280
     0
281
     0
  0
CLASS
  1
ACRFOBJATTMGR
  2
AcRfObjAttGroupMgr
  3
AcAttribServices
 90
     1024
280
     0
281
     0
  0
CLASS
  1
ACRFMCADAPIATTHOLDER
  2
AcRfMCADAPIAttHolder
  3
AcAttribServices
 90
     1024
280
     0
281
     0
  0
CLASS
  1
AMDTSYSATTR
  2
AmdtSystemAttribute
  3
AcAttribServices
 90
     1024
280
     0
281
     0
  0
CLASS
  1
ACMTAPERSTANDARDISO
  2
AcmTaperStdISO
  3
"Amdt_StdImp|Product Description: AutoCAD Mechanical|Company: Autodesk, Inc."
 90
     1024
280
     0
281
     0
  0
CLASS
  1
ACMANOOTATIONVIEWSTANDARDISO
  2
AmdtAnViewStdISO
  3
"Amdt_StdImp|Product Description: AutoCAD Mechanical|Company: Autodesk, Inc."
 90
     1024
280
     0
281
     0
  0
CLASS
  1
SOLID_BACKGROUND
  2
AcDbSolidBackground
  3
SCENEOE
 90
     4095
280
     0
281
     0
  0
CLASS
  1
CELLSTYLEMAP
  2
AcDbCellStyleMap
  3
ObjectDBX Classes
 90
     1152
280
     0
281
     0
  0
CLASS
  1
AM_ABS_AXIS
  2
AcDmAbsAxisDef
  3
AcMechDwgViewMgmt
 90
    33792
280
     0
281
     0
  0
CLASS
  1
AM_ABS_PLANE
  2
AcDmAbsPlnDef
  3
AcMechDwgViewMgmt
 90
    33792
280
     0
281
     0
  0
CLASS
  1
MULTILEADER
  2
AcDbMLeader
  3
ACDB_MLEADER_CLASS
 90
     1025
280
     0
281
     1
  0
CLASS
  1
AMDTEDGESTANDARDISO13715
  2
AmdtEdgeStdISO13715
  3
"Amdt_StdImp|Product Description: AutoCAD Mechanical|Company: Autodesk, Inc."
 90
     1024
280
     0
281
     0
  0
CLASS
  1
ACMSURFSTANDARDISO2002
  2
AcmSurfTextStdISO2002
  3
"Amdt_StdImp|Product Description: AutoCAD Mechanical|Company: Autodesk, Inc."
 90
     1024
280
     0
281
     0
  0
CLASS
  1
ACMSECTIONSTANDARDISO2001
  2
AmdtSectionSymStdISO2001
  3
"Amdt_StdImp|Product Description: AutoCAD Mechanical|Company: Autodesk, Inc."
 90
     1024
280
     0
281
     0
  0
CLASS
  1
ACAMGHOLECHARTSTDISO
  2
AcAmgHoleChartStdISO
  3
AmgDim|Product Description: AutoCAD Mechanical|Company: Autodesk, Inc.
 90
     1024
280
     0
281
     0
  0
ENDSEC
  0
SECTION
  2
TABLES
  0
TABLE
  2
VPORT
  5
2A
330
0
100
AcDbSymbolTable
 70
     1
  0
VPORT
  5
C17
330
2A
100
AcDbSymbolTableRecord
100
AcDbViewportTableRecord
  2
*Active
 70
     0
 10
0.0
 20
0.0
 11
1.0
 21
1.0
 12
346.3062803292948
 22
400.1163258152685
 13
0.0
 23
0.0
 14
10.0
 24
10.0
 15
10.0
 25
10.0
 16
0.0
 26
0.0
 36
2692.469335415894
 17
2721.181207418418
 27
964.3810813576035
 37
0.0
 40
1160.410512284184
 41
1.672936259143155
 42
50.0
 43
0.0
 44
0.0
 50
0.0
 51
0.0
 71
     0
 72
  2000
 73
     1
 74
     0
 75
     0
 76
     0
 77
     0
 78
     0
281
     4
 65
     0
110
0.0
120
0.0
130
0.0
111
1.0
121
0.0
131
0.0
112
0.0
122
1.0
132
0.0
 79
     0
146
0.0
  0
ENDTAB
  0
TABLE
  2
LTYPE
  5
25
330
0
100
AcDbSymbolTable
 70
    12
  0
LTYPE
  5
26
330
25
100
AcDbSymbolTableRecord
100
AcDbLinetypeTableRecord
  2
BYBLOCK
 70
     0
  3

 72
    65
 73
     0
 40
0.0
  0
LTYPE
  5
27
330
25
100
AcDbSymbolTableRecord
100
AcDbLinetypeTableRecord
  2
BYLAYER
 70
     0
  3

 72
    65
 73
     0
 40
0.0
  0
LTYPE
  5
14
330
25
100
AcDbSymbolTableRecord
100
AcDbLinetypeTableRecord
  2
CONTINUOUS
 70
     0
  3
Solid line
 72
    65
 73
     0
 40
0.0
  0
LTYPE
  5
81
330
25
100
AcDbSymbolTableRecord
100
AcDbLinetypeTableRecord
  2
HIDDEN
 70
     0
  3
Hidden __ __ __ __ __ __ __ __ __ __ __ __ __ _
 72
    65
 73
     2
 40
0.375
 49
0.25
 74
     0
 49
-0.125
 74
     0
  0
LTYPE
  5
624
330
25
100
AcDbSymbolTableRecord
100
AcDbLinetypeTableRecord
  2
AM_ISO08W050
 70
     0
  3
____ . ____ . ____ . ____ . ____ . ____ . ____
 72
    65
 73
     4
 40
18.0
 49
12.0
 74
     0
 49
-1.5
 74
     0
 49
3.0
 74
     0
 49
-1.5
 74
     0
  0
LTYPE
  5
CB5
330
25
100
AcDbSymbolTableRecord
100
AcDbLinetypeTableRecord
  2
DASHDOT
 70
     0
  3
____ _ ____ _ ____ _ ____ _ ____ _ ____ _ ____
 72
    65
 73
     4
 40
5.5
 49
4.0
 74
     0
 49
-0.6
 74
     0
 49
0.3
 74
     0
 49
-0.6
 74
     0
  0
LTYPE
  5
12A4
330
25
100
AcDbSymbolTableRecord
100
AcDbLinetypeTableRecord
  2
PHANTOM2
 70
     0
  3
Phantom (.5x) ___ _ _ ___ _ _ ___ _ _ ___ _ _
 72
    65
 73
     6
 40
31.75
 49
15.875
 74
     0
 49
-3.174999999999998
 74
     0
 49
3.174999999999998
 74
     0
 49
-3.174999999999998
 74
     0
 49
3.174999999999998
 74
     0
 49
-3.174999999999998
 74
     0
  0
LTYPE
  5
12A5
330
25
100
AcDbSymbolTableRecord
100
AcDbLinetypeTableRecord
  2
CENTER
 70
     0
  3
Center ____ _ ____ _ ____ _ ____ _ ____ _ ____
 72
    65
 73
     4
 40
50.8
 49
31.75
 74
     0
 49
-6.349999999999997
 74
     0
 49
6.349999999999997
 74
     0
 49
-6.349999999999997
 74
     0
  0
LTYPE
  5
12F3
330
25
100
AcDbSymbolTableRecord
100
AcDbLinetypeTableRecord
  2
ASULTYPE
 70
     0
  3
実線
 72
    65
 73
     2
 40
3.0
 49
2.5
 74
     0
 49
0.5
 74
     0
  0
LTYPE
  5
12F4
330
25
100
AcDbSymbolTableRecord
100
AcDbLinetypeTableRecord
  2
ASVLTYPE
 70
     0
  3
__ __ __ __ __ __ __ __ __ __ __ __ __ __ __ __ __ __ __ __ __
 72
    65
 73
     2
 40
0.75
 49
0.5
 74
     0
 49
-0.25
 74
     0
  0
LTYPE
  5
1348
330
25
100
AcDbSymbolTableRecord
100
AcDbLinetypeTableRecord
  2
ACISOWELD
 70
     0
  3
_ _ _ _ _
 72
    65
 73
     2
 40
2.0
 49
2.0
 74
     0
 49
-1.0
 74
     0
  0
LTYPE
  5
1349
330
25
100
AcDbSymbolTableRecord
100
AcDbLinetypeTableRecord
  2
ACISOTGB
 70
     0
  3
__ . . __ . .
 72
    65
 73
     6
 40
9.0
 49
4.0
 74
     0
 49
-1.0
 74
     0
 49
1.0
 74
     0
 49
-1.0
 74
     0
 49
1.0
 74
     0
 49
-1.0
 74
     0
  0
LTYPE
  5
134A
330
25
100
AcDbSymbolTableRecord
100
AcDbLinetypeTableRecord
  2
ACISOTGL
 70
     0
  3
_ _ _ _ _
 72
    65
 73
     2
 40
3.0
 49
2.0
 74
     0
 49
-1.0
 74
     0
  0
LTYPE
  5
1B5C
330
25
100
AcDbSymbolTableRecord
100
AcDbLinetypeTableRecord
  2
DASHED
 70
     0
  3
Dashed __ __ __ __ __ __ __ __ __ __ __ __ __ _
 72
    65
 73
     2
 40
0.75
 49
0.5
 74
     0
 49
-0.25
 74
     0
  0
ENDTAB
  0
TABLE
  2
LAYER
  5
1F
102
{ACAD_XDICTIONARY
360
20
102
}
330
0
100
AcDbSymbolTable
 70
    11
  0
LAYER
  5
5
102
{ACAD_XDICTIONARY
360
6
102
}
330
1F
100
AcDbSymbolTableRecord
100
AcDbLayerTableRecord
  2
0
 70
     0
 62
     7
  6
CONTINUOUS
370
    -3
390
8
  0
LAYER
  5
B88
330
1F
100
AcDbSymbolTableRecord
100
AcDbLayerTableRecord
  2
Defpoints
 70
     0
 62
     7
  6
CONTINUOUS
290
     0
370
    -3
390
8
  0
LAYER
  5
CB6
102
{ACAD_XDICTIONARY
360
CB7
102
}
330
1F
100
AcDbSymbolTableRecord
100
AcDbLayerTableRecord
  2
SIZE
 70
     0
 62
    30
  6
CONTINUOUS
370
    -3
390
8
  0
LAYER
  5
CB8
102
{ACAD_XDICTIONARY
360
CB9
102
}
330
1F
100
AcDbSymbolTableRecord
100
AcDbLayerTableRecord
  2
OUTLINE
 70
     0
 62
     3
  6
CONTINUOUS
370
    -3
390
8
  0
LAYER
  5
CBC
102
{ACAD_XDICTIONARY
360
CBD
102
}
330
1F
100
AcDbSymbolTableRecord
100
AcDbLayerTableRecord
  2
BASIS
 70
     0
 62
     6
  6
DASHDOT
370
    -3
390
8
  0
LAYER
  5
CBE
102
{ACAD_XDICTIONARY
360
CBF
102
}
330
1F
100
AcDbSymbolTableRecord
100
AcDbLayerTableRecord
  2
NOTE
 70
     0
 62
     4
  6
CONTINUOUS
370
    -3
390
8
  0
LAYER
  5
CC0
102
{ACAD_XDICTIONARY
360
CC1
102
}
330
1F
100
AcDbSymbolTableRecord
100
AcDbLayerTableRecord
  2
ARRANGE
 70
     0
 62
     1
  6
CONTINUOUS
370
    -3
390
8
  0
LAYER
  5
CC2
102
{ACAD_XDICTIONARY
360
CC3
102
}
330
1F
100
AcDbSymbolTableRecord
100
AcDbLayerTableRecord
  2
ETC
 70
     0
 62
    61
  6
CONTINUOUS
370
    -3
390
8
  0
LAYER
  5
1B5D
102
{ACAD_XDICTIONARY
360
1B5E
102
}
330
1F
100
AcDbSymbolTableRecord
100
AcDbLayerTableRecord
  2
AM_VIS
 70
     0
 62
     7
  6
CONTINUOUS
370
    50
390
8
1001
AcAecLayerStandard
1000

1000

  0
LAYER
  5
1B5F
102
{ACAD_XDICTIONARY
360
1B60
102
}
330
1F
100
AcDbSymbolTableRecord
100
AcDbLayerTableRecord
  2
AM_HID
 70
     0
 62
     7
  6
CONTINUOUS
370
    25
390
8
1001
AcAecLayerStandard
1000

1000

  0
LAYER
  5
1B61
102
{ACAD_XDICTIONARY
360
1B62
102
}
330
1F
100
AcDbSymbolTableRecord
100
AcDbLayerTableRecord
  2
AM_7
 70
     0
 62
     4
  6
AM_ISO08W050
370
    25
390
8
1001
AcAecLayerStandard
1000

1000

  0
ENDTAB
  0
TABLE
  2
STYLE
  5
22
330
0
100
AcDbSymbolTable
 70
     4
  0
STYLE
  5
23
330
22
100
AcDbSymbolTableRecord
100
AcDbTextStyleTableRecord
  2
STANDARD
 70
     0
 40
0.0
 41
1.0
 50
0.0
 71
     0
 42
62.5215949741746
  3
romans.shx
  4
extfont.shx
  0
STYLE
  5
CC4
330
22
100
AcDbSymbolTableRecord
100
AcDbTextStyleTableRecord
  2
STANDARD1
 70
     0
 40
0.0
 41
1.0
 50
0.0
 71
     0
 42
3.5
  3
MONOTXT
  4
BIGFONT
  0
STYLE
  5
1338
330
22
100
AcDbSymbolTableRecord
100
AcDbTextStyleTableRecord
  2
ACISOTS
 70
     0
 40
1.0
 41
1.0
 50
0.0
 71
     0
 42
62.5215949741746
  3
isocp.shx
  4
extfont.shx
  0
STYLE
  5
1347
330
22
100
AcDbSymbolTableRecord
100
AcDbTextStyleTableRecord
  2
ACISOGDT
 70
     0
 40
0.0
 41
1.0
 50
0.0
 71
     0
 42
62.5215949741746
  3
amgdt.shx
  4

  0
ENDTAB
  0
TABLE
  2
VIEW
  5
28
330
0
100
AcDbSymbolTable
 70
     0
  0
ENDTAB
  0
TABLE
  2
UCS
  5
29
330
0
100
AcDbSymbolTable
 70
     0
  0
ENDTAB
  0
TABLE
  2
APPID
  5
2E
330
0
100
AcDbSymbolTable
 70
    24
  0
APPID
  5
2F
330
2E
100
AcDbSymbolTableRecord
100
AcDbRegAppTableRecord
  2
ACAD
 70
     0
  0
APPID
  5
38
330
2E
100
AcDbSymbolTableRecord
100
AcDbRegAppTableRecord
  2
ACAD_DSTYLE_DIMJOGGED_JOGANGLE_SYMBOL
 70
     0
  0
APPID
  5
7C
330
2E
100
AcDbSymbolTableRecord
100
AcDbRegAppTableRecord
  2
AcAecLayerStandard
 70
     0
  0
APPID
  5
1E
330
2E
100
AcDbSymbolTableRecord
100
AcDbRegAppTableRecord
  2
ACAD_PSEXT
 70
     0
  0
APPID
  5
AFF
330
2E
100
AcDbSymbolTableRecord
100
AcDbRegAppTableRecord
  2
ACATTRIBSERVICES
 70
     0
  0
APPID
  5
B18
330
2E
100
AcDbSymbolTableRecord
100
AcDbRegAppTableRecord
  2
ACAD_MLEADERVER
 70
     0
  0
APPID
  5
B21
330
2E
100
AcDbSymbolTableRecord
100
AcDbRegAppTableRecord
  2
ACAD_EXEMPT_FROM_CAD_STANDARDS
 70
     0
  0
APPID
  5
B5E
330
2E
100
AcDbSymbolTableRecord
100
AcDbRegAppTableRecord
  2
ACAD_DSTYLE_DIMJAG
 70
     0
  0
APPID
  5
B5F
330
2E
100
AcDbSymbolTableRecord
100
AcDbRegAppTableRecord
  2
ACAD_DSTYLE_DIMTALN
 70
     0
  0
APPID
  5
B6F
330
2E
100
AcDbSymbolTableRecord
100
AcDbRegAppTableRecord
  2
ACAD_DSTYLE_DIMEXT_LENGTH
 70
     0
  0
APPID
  5
1270
330
2E
100
AcDbSymbolTableRecord
100
AcDbRegAppTableRecord
  2
GENIUS_GENDIM_13
 70
     0
  0
APPID
  5
1271
330
2E
100
AcDbSymbolTableRecord
100
AcDbRegAppTableRecord
  2
GENIUS_GENDTOL_13
 70
     0
  0
APPID
  5
1272
330
2E
100
AcDbSymbolTableRecord
100
AcDbRegAppTableRecord
  2
GENIUS_GE3DTOL_13
 70
     0
  0
APPID
  5
1275
330
2E
100
AcDbSymbolTableRecord
100
AcDbRegAppTableRecord
  2
MCAD_NO_VIS
 70
     0
  0
APPID
  5
1276
330
2E
100
AcDbSymbolTableRecord
100
AcDbRegAppTableRecord
  2
ACAD_TEMP_GRAPHIC
 70
     0
  0
APPID
  5
12A7
330
2E
100
AcDbSymbolTableRecord
100
AcDbRegAppTableRecord
  2
AD_DRAW
 70
     0
  0
APPID
  5
12F5
330
2E
100
AcDbSymbolTableRecord
100
AcDbRegAppTableRecord
  2
ASURF_PCURVE_APPNAME
 70
     0
  0
APPID
  5
12FA
330
2E
100
AcDbSymbolTableRecord
100
AcDbRegAppTableRecord
  2
AMG_3D2D_5.0
 70
     0
  0
APPID
  5
132B
330
2E
100
AcDbSymbolTableRecord
100
AcDbRegAppTableRecord
  2
DESIGNERASSEMBLIES
 70
     0
  0
APPID
  5
132F
330
2E
100
AcDbSymbolTableRecord
100
AcDbRegAppTableRecord
  2
ACADM_DIM_EDIT
 70
     0
  0
APPID
  5
1330
330
2E
100
AcDbSymbolTableRecord
100
AcDbRegAppTableRecord
  2
AMDT_DM_ADJ
 70
     0
  0
APPID
  5
15D5
330
2E
100
AcDbSymbolTableRecord
100
AcDbRegAppTableRecord
  2
ACAD_DSTYLE_DIMRADIAL_EXTENSION
 70
     0
  0
APPID
  5
1668
330
2E
100
AcDbSymbolTableRecord
100
AcDbRegAppTableRecord
  2
ACAD_DSTYLE_DIMINSPECT
 70
     0
  0
APPID
  5
16AA
330
2E
100
AcDbSymbolTableRecord
100
AcDbRegAppTableRecord
  2
ACAD_DSTYLE_DIMARC_LENGTH_SYMBOL
 70
     0
  0
ENDTAB
  0
TABLE
  2
DIMSTYLE
  5
30
330
0
100
AcDbSymbolTable
 70
    10
100
AcDbDimStyleTable
 71
     3
340
31
340
136E
340
1355
  0
DIMSTYLE
105
31
102
{ACAD_REACTORS
330
15AD
330
1EC1
330
1ECE
330
1EDB
330
1EE8
330
201A
330
214A
330
2157
330
2169
102
}
330
30
100
AcDbSymbolTableRecord
100
AcDbDimStyleTableRecord
  2
STANDARD
 70
     0
 40
0.0
 41
2.0
 42
1.0
 43
3.75
 44
1.0
 73
     0
 74
     0
 77
     1
 78
     8
140
2.0
141
2.5
143
0.0394
147
1.0
171
     4
172
     1
173
     1
271
     0
272
     0
273
     8
274
     4
284
     8
340
23
341
32
343
32
344
32
1001
ACAD_DSTYLE_DIMEXT_LENGTH
1070
   378
1040
15.0
1001
ACAD_DSTYLE_DIMJOGGED_JOGANGLE_SYMBOL
1070
   384
1040
1.570796326794896
  0
DIMSTYLE
105
1355
330
30
100
AcDbSymbolTableRecord
100
AcDbDimStyleTableRecord
  2
AM_ISO
 70
     0
  4
"
 41
2.5
 42
1.0
 43
10.0
 44
1.0
 47
0.1
 48
0.1
 73
     0
 74
     0
 77
     1
 78
     8
 79
     2
140
3.5
141
0.0
143
0.0393701
146
0.71
147
1.5
172
     1
176
   256
177
   256
178
     2
271
     2
272
     3
274
     4
283
     0
284
     8
340
23
371
    -1
372
    -1
1001
ACAD_DSTYLE_DIMARC_LENGTH_SYMBOL
1070
   379
1070
     1
  0
DIMSTYLE
105
1356
330
30
100
AcDbSymbolTableRecord
100
AcDbDimStyleTableRecord
  2
AM_ISO$3
 70
     0
  4
"
 41
2.5
 42
1.0
 43
10.0
 44
1.0
 47
0.1
 48
0.1
 73
     0
 77
     1
 78
     8
 79
     2
140
3.5
141
0.0
143
0.0393701
146
0.71
147
1.5
176
   256
177
   256
178
     2
271
     2
272
     3
274
     4
283
     0
284
     8
288
     1
289
     0
340
23
371
    -1
372
    -1
1001
ACAD_DSTYLE_DIMARC_LENGTH_SYMBOL
1070
   379
1070
     1
  0
DIMSTYLE
105
1357
330
30
100
AcDbSymbolTableRecord
100
AcDbDimStyleTableRecord
  2
AM_ISO$4
 70
     0
  4
"
 41
2.5
 42
1.0
 43
10.0
 44
1.0
 47
0.1
 48
0.1
 73
     0
 77
     1
 78
     8
 79
     2
140
3.5
141
0.0
143
0.0393701
146
0.71
147
1.5
176
   256
177
   256
178
     2
271
     2
272
     3
274
     4
283
     0
284
     8
288
     1
289
     0
340
23
371
    -1
372
    -1
1001
ACAD_DSTYLE_DIMARC_LENGTH_SYMBOL
1070
   379
1070
     1
  0
DIMSTYLE
105
1358
330
30
100
AcDbSymbolTableRecord
100
AcDbDimStyleTableRecord
  2
AM_ISO$6
 70
     0
  4
"
 41
2.5
 42
1.0
 43
10.0
 44
1.0
 47
0.1
 48
0.1
 73
     0
 74
     0
 78
     8
 79
     2
140
3.5
141
0.0
143
0.0393701
146
0.71
147
1.5
172
     1
176
   256
177
   256
178
     2
271
     2
272
     3
274
     4
283
     0
284
     8
340
23
371
    -1
372
    -1
1001
ACAD_DSTYLE_DIMARC_LENGTH_SYMBOL
1070
   379
1070
     1
  0
DIMSTYLE
105
1359
330
30
100
AcDbSymbolTableRecord
100
AcDbDimStyleTableRecord
  2
AM_ISO$7
 70
     0
  4
"
 41
2.5
 42
1.0
 43
10.0
 44
1.0
 47
0.1
 48
0.1
 73
     0
 74
     0
 77
     1
 78
     8
 79
     2
140
5.0
141
0.0
143
0.0393701
146
0.71
147
1.5
172
     1
176
   256
177
   256
178
     2
271
     2
272
     3
274
     4
283
     0
284
     8
340
23
371
    -1
372
    -1
1001
ACAD_DSTYLE_DIMARC_LENGTH_SYMBOL
1070
   379
1070
     1
  0
DIMSTYLE
105
135A
330
30
100
AcDbSymbolTableRecord
100
AcDbDimStyleTableRecord
  2
AM_ISO$SF
 70
     0
  4
"
 41
2.5
 42
1.0
 43
10.0
 44
1.0
 47
0.1
 48
0.1
 73
     0
 74
     0
 75
     1
 76
     1
 77
     1
 78
     8
 79
     2
140
3.5
141
0.0
143
0.0393701
146
0.71
147
1.5
172
     1
176
   256
177
   256
178
     2
271
     2
272
     3
274
     4
283
     0
284
     8
340
23
371
    -1
372
    -1
1001
ACAD_DSTYLE_DIMARC_LENGTH_SYMBOL
1070
   379
1070
     1
  0
DIMSTYLE
105
135F
330
30
100
AcDbSymbolTableRecord
100
AcDbDimStyleTableRecord
  2
AM_ISO$SH
 70
     0
  4
"
 41
2.5
 42
1.0
 43
10.0
 44
1.0
 47
0.1
 48
0.1
 73
     0
 74
     0
 75
     1
 76
     1
 77
     1
 78
     8
 79
     2
140
3.5
141
0.0
143
0.0393701
144
2.0
146
0.71
147
1.5
172
     1
173
     1
176
   256
177
   256
178
     2
271
     2
272
     3
274
     4
283
     0
284
     8
340
23
343
135B
371
    -1
372
    -1
1001
ACAD_DSTYLE_DIMARC_LENGTH_SYMBOL
1070
   379
1070
     1
  0
DIMSTYLE
105
136E
330
30
100
AcDbSymbolTableRecord
100
AcDbDimStyleTableRecord
  2
STANDARD1
 70
     0
 40
10.0
 41
2.0
 42
0.625
 43
3.75
 44
1.25
 77
     1
 78
     8
140
2.0
141
0.0
147
1.0
173
     1
284
     8
340
23
341
32
343
32
344
32
1001
ACAD_DSTYLE_DIMJAG
1070
   388
1040
1.5
1001
ACAD_DSTYLE_DIMTALN
1070
   392
1070
     0
  0
DIMSTYLE
105
136F
330
30
100
AcDbSymbolTableRecord
100
AcDbDimStyleTableRecord
  2
AM_JIS
 70
     0
  4
"
 40
10.0
 41
2.5
 42
1.0
 43
10.0
 44
1.0
 47
0.1
 48
0.1
 73
     0
 74
     0
 77
     3
 78
     8
 79
     2
140
3.5
141
0.0
143
0.0393701
146
0.71
147
1.5
172
     1
176
   256
177
   256
178
     2
271
     2
272
     3
274
     4
283
     0
284
     8
340
23
341
32
342
32
343
32
344
32
371
    -1
372
    -1
1001
ACAD_DSTYLE_DIMJOGGED_JOGANGLE_SYMBOL
1070
   384
1040
0.7853981633974483
1001
ACAD_DSTYLE_DIMARC_LENGTH_SYMBOL
1070
   379
1070
     1
  0
ENDTAB
  0
TABLE
  2
BLOCK_RECORD
  5
1
330
0
100
AcDbSymbolTable
 70
    31
  0
BLOCK_RECORD
  5
2
102
{ACAD_XDICTIONARY
360
3
102
}
330
1
100
AcDbSymbolTableRecord
100
AcDbBlockTableRecord
  2
*MODEL_SPACE
340
16
  0
BLOCK_RECORD
  5
18
330
1
100
AcDbSymbolTableRecord
100
AcDbBlockTableRecord
  2
*Paper_Space
340
1B
  0
BLOCK_RECORD
  5
32
330
1
100
AcDbSymbolTableRecord
100
AcDbBlockTableRecord
  2
_OPEN30
340
0
102
{BLKREFS
331
1218
331
1219
331
1221
331
1222
331
122A
331
122B
331
1233
331
1234
331
123C
331
123D
331
1245
331
1246
331
124E
331
124F
331
1566
331
1567
331
1573
331
1574
331
1580
331
1581
331
15BD
331
15BE
331
15C6
331
15C7
331
15CF
331
15D0
331
1690
331
1EAC
331
1EAD
331
1EB9
331
1EBA
331
2125
331
2126
331
2287
331
2288
331
2290
331
2291
331
2299
331
229A
331
22A2
331
22A3
331
22AB
331
22AC
331
22B6
331
22B7
331
22BF
331
22C0
331
22C8
331
22C9
331
22D1
331
22D2
102
}
  0
BLOCK_RECORD
  5
B89
330
1
100
AcDbSymbolTableRecord
100
AcDbBlockTableRecord
  2
*D1
340
0
  0
BLOCK_RECORD
  5
B96
330
1
100
AcDbSymbolTableRecord
100
AcDbBlockTableRecord
  2
*D2
340
0
  0
BLOCK_RECORD
  5
BA3
330
1
100
AcDbSymbolTableRecord
100
AcDbBlockTableRecord
  2
*D3
340
0
  0
BLOCK_RECORD
  5
BB0
330
1
100
AcDbSymbolTableRecord
100
AcDbBlockTableRecord
  2
*D4
340
0
  0
BLOCK_RECORD
  5
BCF
330
1
100
AcDbSymbolTableRecord
100
AcDbBlockTableRecord
  2
*D5
340
0
  0
BLOCK_RECORD
  5
BF9
330
1
100
AcDbSymbolTableRecord
100
AcDbBlockTableRecord
  2
*D6
340
0
  0
BLOCK_RECORD
  5
C06
330
1
100
AcDbSymbolTableRecord
100
AcDbBlockTableRecord
  2
*D7
340
0
  0
BLOCK_RECORD
  5
CB0
330
1
100
AcDbSymbolTableRecord
100
AcDbBlockTableRecord
  2
_DOTBLANK
340
0
  0
BLOCK_RECORD
  5
135B
330
1
100
AcDbSymbolTableRecord
100
AcDbBlockTableRecord
  2
GENAXEH
340
0
  0
BLOCK_RECORD
  5
1560
330
1
100
AcDbSymbolTableRecord
100
AcDbBlockTableRecord
  2
*D10
340
0
  0
BLOCK_RECORD
  5
156D
330
1
100
AcDbSymbolTableRecord
100
AcDbBlockTableRecord
  2
*D11
340
0
  0
BLOCK_RECORD
  5
157A
330
1
100
AcDbSymbolTableRecord
100
AcDbBlockTableRecord
  2
*D12
340
0
  0
BLOCK_RECORD
  5
1587
330
1
100
AcDbSymbolTableRecord
100
AcDbBlockTableRecord
  2
*D13
340
0
  0
BLOCK_RECORD
  5
1594
330
1
100
AcDbSymbolTableRecord
100
AcDbBlockTableRecord
  2
*D14
340
0
  0
BLOCK_RECORD
  5
15A1
330
1
100
AcDbSymbolTableRecord
100
AcDbBlockTableRecord
  2
*D15
340
0
  0
BLOCK_RECORD
  5
15AE
330
1
100
AcDbSymbolTableRecord
100
AcDbBlockTableRecord
  2
*D16
340
0
  0
BLOCK_RECORD
  5
15D7
330
1
100
AcDbSymbolTableRecord
100
AcDbBlockTableRecord
  2
*D17
340
0
  0
BLOCK_RECORD
  5
160A
330
1
100
AcDbSymbolTableRecord
100
AcDbBlockTableRecord
  2
*D18
340
0
  0
BLOCK_RECORD
  5
1E8E
330
1
100
AcDbSymbolTableRecord
100
AcDbBlockTableRecord
  2
*D19
340
0
  0
BLOCK_RECORD
  5
1EB3
330
1
100
AcDbSymbolTableRecord
100
AcDbBlockTableRecord
  2
*D20
340
0
  0
BLOCK_RECORD
  5
1EC2
330
1
100
AcDbSymbolTableRecord
100
AcDbBlockTableRecord
  2
*D21
340
0
  0
BLOCK_RECORD
  5
1ECF
330
1
100
AcDbSymbolTableRecord
100
AcDbBlockTableRecord
  2
*D22
340
0
  0
BLOCK_RECORD
  5
1EDC
330
1
100
AcDbSymbolTableRecord
100
AcDbBlockTableRecord
  2
*D23
340
0
  0
BLOCK_RECORD
  5
1EE9
330
1
100
AcDbSymbolTableRecord
100
AcDbBlockTableRecord
  2
*D24
340
0
  0
BLOCK_RECORD
  5
201B
330
1
100
AcDbSymbolTableRecord
100
AcDbBlockTableRecord
  2
*D25
340
0
  0
BLOCK_RECORD
  5
211F
330
1
100
AcDbSymbolTableRecord
100
AcDbBlockTableRecord
  2
*D26
340
0
  0
BLOCK_RECORD
  5
214B
330
1
100
AcDbSymbolTableRecord
100
AcDbBlockTableRecord
  2
*D27
340
0
  0
BLOCK_RECORD
  5
2158
330
1
100
AcDbSymbolTableRecord
100
AcDbBlockTableRecord
  2
*D28
340
0
  0
BLOCK_RECORD
  5
216A
330
1
100
AcDbSymbolTableRecord
100
AcDbBlockTableRecord
  2
*D29
340
0
  0
ENDTAB
  0
ENDSEC
  0
SECTION
  2
BLOCKS
  0
BLOCK
  5
4
330
2
100
AcDbEntity
  8
0
100
AcDbBlockBegin
  2
*MODEL_SPACE
 70
     0
 10
0.0
 20
0.0
 30
0.0
  3
*MODEL_SPACE
  1

  0
ENDBLK
  5
15
330
2
100
AcDbEntity
  8
0
100
AcDbBlockEnd
  0
BLOCK
  5
19
330
18
100
AcDbEntity
 67
     1
  8
0
100
AcDbBlockBegin
  2
*Paper_Space
 70
     0
 10
0.0
 20
0.0
 30
0.0
  3
*Paper_Space
  1

  0
ENDBLK
  5
1A
330
18
100
AcDbEntity
 67
     1
  8
0
100
AcDbBlockEnd
  0
BLOCK
  5
33
330
32
100
AcDbEntity
  8
0
100
AcDbBlockBegin
  2
_OPEN30
 70
     0
 10
0.0
 20
0.0
 30
0.0
  3
_OPEN30
  1

  0
LINE
  5
34
330
32
100
AcDbEntity
  8
0
  6
ByBlock
 62
     0
100
AcDbLine
 10
-1.0
 20
0.26794919
 30
0.0
 11
0.0
 21
0.0
 31
0.0
  0
LINE
  5
35
330
32
100
AcDbEntity
  8
0
  6
ByBlock
 62
     0
100
AcDbLine
 10
0.0
 20
0.0
 30
0.0
 11
-1.0
 21
-0.26794919
 31
0.0
  0
LINE
  5
36
330
32
100
AcDbEntity
  8
0
  6
ByBlock
 62
     0
100
AcDbLine
 10
0.0
 20
0.0
 30
0.0
 11
-1.0
 21
0.0
 31
0.0
  0
ENDBLK
  5
37
330
32
100
AcDbEntity
  8
0
100
AcDbBlockEnd
  0
BLOCK
  5
B93
330
B89
100
AcDbEntity
  8
0
100
AcDbBlockBegin
  2
*D1
 70
     1
 10
0.0
 20
0.0
 30
0.0
  3
*D1
  1

  0
LINE
  5
124B
330
B89
100
AcDbEntity
  8
SIZE
 62
     0
370
    -2
100
AcDbLine
 10
-314.4855110895245
 20
1535.830811506845
 30
0.0
 11
-361.7170233088361
 21
1535.830811506845
 31
0.0
  0
LINE
  5
124C
330
B89
100
AcDbEntity
  8
SIZE
 62
     0
370
    -2
100
AcDbLine
 10
-314.4855110895245
 20
1385.830811506845
 30
0.0
 11
-361.7170233088362
 21
1385.830811506845
 31
0.0
  0
LINE
  5
124D
330
B89
100
AcDbEntity
  8
SIZE
 62
     0
370
    -2
100
AcDbLine
 10
-356.7170233088361
 20
1525.830811506845
 30
0.0
 11
-356.7170233088362
 21
1395.830811506845
 31
0.0
  0
INSERT
  5
124E
330
B89
100
AcDbEntity
  8
SIZE
 62
     0
370
    -2
100
AcDbBlockReference
  2
_OPEN30
 10
-356.7170233088361
 20
1535.830811506845
 30
0.0
 41
10.0
 42
10.0
 43
10.0
 50
90.0
  0
INSERT
  5
124F
330
B89
100
AcDbEntity
  8
SIZE
 62
     0
370
    -2
100
AcDbBlockReference
  2
_OPEN30
 10
-356.7170233088362
 20
1385.830811506845
 30
0.0
 41
10.0
 42
10.0
 43
10.0
 50
270.0
  0
MTEXT
  5
1250
330
B89
100
AcDbEntity
  8
SIZE
 62
     0
100
AcDbMText
 10
-366.7170233088364
 20
1460.830811506845
 30
0.0
 40
10.0
 41
0.0
 71
     5
 72
     1
  1
\A1;150
 11
0.0000000000000001
 21
1.0
 31
0.0
 73
     1
 44
1.0
1001
ACAD
1000
MTEXTBEGIN
1070
    73
1070
     1
1070
    44
1040
1.0
1070
    74
1070
     0
1000
MTEXTEND
  0
POINT
  5
1251
330
B89
100
AcDbEntity
  8
Defpoints
 62
     0
100
AcDbPoint
 10
-309.4855110895245
 20
1535.830811506845
 30
0.0
  0
POINT
  5
1252
330
B89
100
AcDbEntity
  8
Defpoints
 62
     0
100
AcDbPoint
 10
-309.4855110895245
 20
1385.830811506845
 30
0.0
  0
POINT
  5
1253
330
B89
100
AcDbEntity
  8
Defpoints
 62
     0
100
AcDbPoint
 10
-356.7170233088362
 20
1385.830811506845
 30
0.0
  0
ENDBLK
  5
B94
330
B89
100
AcDbEntity
  8
0
100
AcDbBlockEnd
  0
BLOCK
  5
BA0
330
B96
100
AcDbEntity
  8
0
100
AcDbBlockBegin
  2
*D2
 70
     1
 10
0.0
 20
0.0
 30
0.0
  3
*D2
  1

  0
LINE
  5
1242
330
B96
100
AcDbEntity
  8
SIZE
 62
     0
370
    -2
100
AcDbLine
 10
-314.4855110895245
 20
1385.830811506845
 30
0.0
 11
-361.388124300869
 21
1385.830811506845
 31
0.0
  0
LINE
  5
1243
330
B96
100
AcDbEntity
  8
SIZE
 62
     0
370
    -2
100
AcDbLine
 10
-314.4855110895245
 20
1235.830811506845
 30
0.0
 11
-361.388124300869
 21
1235.830811506845
 31
0.0
  0
LINE
  5
1244
330
B96
100
AcDbEntity
  8
SIZE
 62
     0
370
    -2
100
AcDbLine
 10
-356.388124300869
 20
1375.830811506845
 30
0.0
 11
-356.388124300869
 21
1245.830811506845
 31
0.0
  0
INSERT
  5
1245
330
B96
100
AcDbEntity
  8
SIZE
 62
     0
370
    -2
100
AcDbBlockReference
  2
_OPEN30
 10
-356.388124300869
 20
1385.830811506845
 30
0.0
 41
10.0
 42
10.0
 43
10.0
 50
90.0
  0
INSERT
  5
1246
330
B96
100
AcDbEntity
  8
SIZE
 62
     0
370
    -2
100
AcDbBlockReference
  2
_OPEN30
 10
-356.388124300869
 20
1235.830811506845
 30
0.0
 41
10.0
 42
10.0
 43
10.0
 50
270.0
  0
MTEXT
  5
1247
330
B96
100
AcDbEntity
  8
SIZE
 62
     0
100
AcDbMText
 10
-366.3881243008692
 20
1310.830811506845
 30
0.0
 40
10.0
 41
0.0
 71
     5
 72
     1
  1
\A1;150
 11
0.0000000000000001
 21
1.0
 31
0.0
 73
     1
 44
1.0
1001
ACAD
1000
MTEXTBEGIN
1070
    73
1070
     1
1070
    44
1040
1.0
1070
    74
1070
     0
1000
MTEXTEND
  0
POINT
  5
1248
330
B96
100
AcDbEntity
  8
Defpoints
 62
     0
100
AcDbPoint
 10
-309.4855110895245
 20
1385.830811506845
 30
0.0
  0
POINT
  5
1249
330
B96
100
AcDbEntity
  8
Defpoints
 62
     0
100
AcDbPoint
 10
-309.4855110895245
 20
1235.830811506845
 30
0.0
  0
POINT
  5
124A
330
B96
100
AcDbEntity
  8
Defpoints
 62
     0
100
AcDbPoint
 10
-356.388124300869
 20
1235.830811506845
 30
0.0
  0
ENDBLK
  5
BA1
330
B96
100
AcDbEntity
  8
0
100
AcDbBlockEnd
  0
BLOCK
  5
BAD
330
BA3
100
AcDbEntity
  8
0
100
AcDbBlockBegin
  2
*D3
 70
     1
 10
0.0
 20
0.0
 30
0.0
  3
*D3
  1

  0
LINE
  5
1239
330
BA3
100
AcDbEntity
  8
SIZE
 62
     0
370
    -2
100
AcDbLine
 10
-314.4855110895245
 20
1235.830811506845
 30
0.0
 11
-361.2300528975047
 21
1235.830811506845
 31
0.0
  0
LINE
  5
123A
330
BA3
100
AcDbEntity
  8
SIZE
 62
     0
370
    -2
100
AcDbLine
 10
-314.4855110895245
 20
1085.830811506845
 30
0.0
 11
-361.2300528975047
 21
1085.830811506845
 31
0.0
  0
LINE
  5
123B
330
BA3
100
AcDbEntity
  8
SIZE
 62
     0
370
    -2
100
AcDbLine
 10
-356.2300528975047
 20
1225.830811506845
 30
0.0
 11
-356.2300528975047
 21
1095.830811506845
 31
0.0
  0
INSERT
  5
123C
330
BA3
100
AcDbEntity
  8
SIZE
 62
     0
370
    -2
100
AcDbBlockReference
  2
_OPEN30
 10
-356.2300528975047
 20
1235.830811506845
 30
0.0
 41
10.0
 42
10.0
 43
10.0
 50
90.0
  0
INSERT
  5
123D
330
BA3
100
AcDbEntity
  8
SIZE
 62
     0
370
    -2
100
AcDbBlockReference
  2
_OPEN30
 10
-356.2300528975047
 20
1085.830811506845
 30
0.0
 41
10.0
 42
10.0
 43
10.0
 50
270.0
  0
MTEXT
  5
123E
330
BA3
100
AcDbEntity
  8
SIZE
 62
     0
100
AcDbMText
 10
-366.2300528975048
 20
1160.830811506845
 30
0.0
 40
10.0
 41
0.0
 71
     5
 72
     1
  1
\A1;150
 11
0.0000000000000001
 21
1.0
 31
0.0
 73
     1
 44
1.0
1001
ACAD
1000
MTEXTBEGIN
1070
    73
1070
     1
1070
    44
1040
1.0
1070
    74
1070
     0
1000
MTEXTEND
  0
POINT
  5
123F
330
BA3
100
AcDbEntity
  8
Defpoints
 62
     0
100
AcDbPoint
 10
-309.4855110895245
 20
1235.830811506845
 30
0.0
  0
POINT
  5
1240
330
BA3
100
AcDbEntity
  8
Defpoints
 62
     0
100
AcDbPoint
 10
-309.4855110895245
 20
1085.830811506845
 30
0.0
  0
POINT
  5
1241
330
BA3
100
AcDbEntity
  8
Defpoints
 62
     0
100
AcDbPoint
 10
-356.2300528975047
 20
1085.830811506845
 30
0.0
  0
ENDBLK
  5
BAE
330
BA3
100
AcDbEntity
  8
0
100
AcDbBlockEnd
  0
BLOCK
  5
BBA
330
BB0
100
AcDbEntity
  8
0
100
AcDbBlockBegin
  2
*D4
 70
     1
 10
0.0
 20
0.0
 30
0.0
  3
*D4
  1

  0
LINE
  5
1230
330
BB0
100
AcDbEntity
  8
SIZE
 62
     0
370
    -2
100
AcDbLine
 10
-314.4855110895245
 20
1085.830811506845
 30
0.0
 11
-361.4686313380586
 21
1085.830811506845
 31
0.0
  0
LINE
  5
1231
330
BB0
100
AcDbEntity
  8
SIZE
 62
     0
370
    -2
100
AcDbLine
 10
-314.4855110895245
 20
935.8308115068448
 30
0.0
 11
-361.4686313380586
 21
935.8308115068448
 31
0.0
  0
LINE
  5
1232
330
BB0
100
AcDbEntity
  8
SIZE
 62
     0
370
    -2
100
AcDbLine
 10
-356.4686313380586
 20
1075.830811506845
 30
0.0
 11
-356.4686313380586
 21
945.8308115068447
 31
0.0
  0
INSERT
  5
1233
330
BB0
100
AcDbEntity
  8
SIZE
 62
     0
370
    -2
100
AcDbBlockReference
  2
_OPEN30
 10
-356.4686313380586
 20
1085.830811506845
 30
0.0
 41
10.0
 42
10.0
 43
10.0
 50
90.0
  0
INSERT
  5
1234
330
BB0
100
AcDbEntity
  8
SIZE
 62
     0
370
    -2
100
AcDbBlockReference
  2
_OPEN30
 10
-356.4686313380586
 20
935.8308115068448
 30
0.0
 41
10.0
 42
10.0
 43
10.0
 50
270.0
  0
MTEXT
  5
1235
330
BB0
100
AcDbEntity
  8
SIZE
 62
     0
100
AcDbMText
 10
-366.4686313380588
 20
1010.830811506845
 30
0.0
 40
10.0
 41
0.0
 71
     5
 72
     1
  1
\A1;150
 11
0.0000000000000001
 21
1.0
 31
0.0
 73
     1
 44
1.0
1001
ACAD
1000
MTEXTBEGIN
1070
    73
1070
     1
1070
    44
1040
1.0
1070
    74
1070
     0
1000
MTEXTEND
  0
POINT
  5
1236
330
BB0
100
AcDbEntity
  8
Defpoints
 62
     0
100
AcDbPoint
 10
-309.4855110895245
 20
1085.830811506845
 30
0.0
  0
POINT
  5
1237
330
BB0
100
AcDbEntity
  8
Defpoints
 62
     0
100
AcDbPoint
 10
-309.4855110895245
 20
935.8308115068448
 30
0.0
  0
POINT
  5
1238
330
BB0
100
AcDbEntity
  8
Defpoints
 62
     0
100
AcDbPoint
 10
-356.4686313380586
 20
935.8308115068448
 30
0.0
  0
ENDBLK
  5
BBB
330
BB0
100
AcDbEntity
  8
0
100
AcDbBlockEnd
  0
BLOCK
  5
BD9
330
BCF
100
AcDbEntity
  8
0
100
AcDbBlockBegin
  2
*D5
 70
     1
 10
0.0
 20
0.0
 30
0.0
  3
*D5
  1

  0
LINE
  5
1227
330
BCF
100
AcDbEntity
  8
SIZE
 62
     0
370
    -2
100
AcDbLine
 10
-243.9855110895382
 20
1616.830811506845
 30
0.0
 11
-410.8898055096611
 21
1616.830811506845
 31
0.0
  0
LINE
  5
1228
330
BCF
100
AcDbEntity
  8
SIZE
 62
     0
370
    -2
100
AcDbLine
 10
-282.4855110895383
 20
854.8308115068449
 30
0.0
 11
-410.8898055096613
 21
854.8308115068449
 31
0.0
  0
LINE
  5
1229
330
BCF
100
AcDbEntity
  8
SIZE
 62
     0
370
    -2
100
AcDbLine
 10
-405.889805509661
 20
1606.830811506845
 30
0.0
 11
-405.889805509661
 21
864.8308115068449
 31
0.0
  0
INSERT
  5
122A
330
BCF
100
AcDbEntity
  8
SIZE
 62
     0
370
    -2
100
AcDbBlockReference
  2
_OPEN30
 10
-405.889805509661
 20
1616.830811506845
 30
0.0
 41
10.0
 42
10.0
 43
10.0
 50
90.0
  0
INSERT
  5
122B
330
BCF
100
AcDbEntity
  8
SIZE
 62
     0
370
    -2
100
AcDbBlockReference
  2
_OPEN30
 10
-405.889805509661
 20
854.8308115068449
 30
0.0
 41
10.0
 42
10.0
 43
10.0
 50
270.0
  0
MTEXT
  5
122C
330
BCF
100
AcDbEntity
  8
SIZE
 62
     0
100
AcDbMText
 10
-415.8898055096614
 20
1235.830811506845
 30
0.0
 40
10.0
 41
0.0
 71
     5
 72
     1
  1
\A1;762
 11
0.0000000000000001
 21
1.0
 31
0.0
 73
     1
 44
1.0
1001
ACAD
1000
MTEXTBEGIN
1070
    73
1070
     1
1070
    44
1040
1.0
1070
    74
1070
     0
1000
MTEXTEND
  0
POINT
  5
122D
330
BCF
100
AcDbEntity
  8
Defpoints
 62
     0
100
AcDbPoint
 10
-238.9855110895382
 20
1616.830811506845
 30
0.0
  0
POINT
  5
122E
330
BCF
100
AcDbEntity
  8
Defpoints
 62
     0
100
AcDbPoint
 10
-277.4855110895383
 20
854.8308115068449
 30
0.0
  0
POINT
  5
122F
330
BCF
100
AcDbEntity
  8
Defpoints
 62
     0
100
AcDbPoint
 10
-405.889805509661
 20
854.8308115068449
 30
0.0
  0
ENDBLK
  5
BDA
330
BCF
100
AcDbEntity
  8
0
100
AcDbBlockEnd
  0
BLOCK
  5
C03
330
BF9
100
AcDbEntity
  8
0
100
AcDbBlockBegin
  2
*D6
 70
     1
 10
0.0
 20
0.0
 30
0.0
  3
*D6
  1

  0
LINE
  5
121E
330
BF9
100
AcDbEntity
  8
SIZE
 62
     0
370
    -2
100
AcDbLine
 10
-325.9855110895246
 20
1573.830811506845
 30
0.0
 11
-325.9855110895246
 21
1706.751057515776
 31
0.0
  0
LINE
  5
121F
330
BF9
100
AcDbEntity
  8
SIZE
 62
     0
370
    -2
100
AcDbLine
 10
586.0144889104623
 20
1573.830811506845
 30
0.0
 11
586.0144889104623
 21
1706.751057515776
 31
0.0
  0
LINE
  5
1220
330
BF9
100
AcDbEntity
  8
SIZE
 62
     0
370
    -2
100
AcDbLine
 10
-315.9855110895246
 20
1701.751057515776
 30
0.0
 11
576.0144889104623
 21
1701.751057515776
 31
0.0
  0
INSERT
  5
1221
330
BF9
100
AcDbEntity
  8
SIZE
 62
     0
370
    -2
100
AcDbBlockReference
  2
_OPEN30
 10
-325.9855110895246
 20
1701.751057515776
 30
0.0
 41
10.0
 42
10.0
 43
10.0
 50
180.0
  0
INSERT
  5
1222
330
BF9
100
AcDbEntity
  8
SIZE
 62
     0
370
    -2
100
AcDbBlockReference
  2
_OPEN30
 10
586.0144889104623
 20
1701.751057515776
 30
0.0
 41
10.0
 42
10.0
 43
10.0
  0
MTEXT
  5
1223
330
BF9
100
AcDbEntity
  8
SIZE
 62
     0
100
AcDbMText
 10
130.0144889104688
 20
1711.751057515776
 30
0.0
 40
10.0
 41
0.0
 71
     5
 72
     1
  1
\A1;912
 73
     1
 44
1.0
1001
ACAD
1000
MTEXTBEGIN
1070
    73
1070
     1
1070
    44
1040
1.0
1070
    74
1070
     0
1000
MTEXTEND
  0
POINT
  5
1224
330
BF9
100
AcDbEntity
  8
Defpoints
 62
     0
100
AcDbPoint
 10
-325.9855110895246
 20
1568.830811506845
 30
0.0
  0
POINT
  5
1225
330
BF9
100
AcDbEntity
  8
Defpoints
 62
     0
100
AcDbPoint
 10
586.0144889104623
 20
1568.830811506845
 30
0.0
  0
POINT
  5
1226
330
BF9
100
AcDbEntity
  8
Defpoints
 62
     0
100
AcDbPoint
 10
586.0144889104623
 20
1701.751057515776
 30
0.0
  0
ENDBLK
  5
C04
330
BF9
100
AcDbEntity
  8
0
100
AcDbBlockEnd
  0
BLOCK
  5
C10
330
C06
100
AcDbEntity
  8
0
100
AcDbBlockBegin
  2
*D7
 70
     1
 10
0.0
 20
0.0
 30
0.0
  3
*D7
  1

  0
LINE
  5
1215
330
C06
100
AcDbEntity
  8
SIZE
 62
     0
370
    -2
100
AcDbLine
 10
-309.4855110895245
 20
1540.830811506845
 30
0.0
 11
-309.4855110895245
 21
1659.422882102099
 31
0.0
  0
LINE
  5
1216
330
C06
100
AcDbEntity
  8
SIZE
 62
     0
370
    -2
100
AcDbLine
 10
569.5144889104623
 20
1540.830811506845
 30
0.0
 11
569.5144889104623
 21
1659.422882102099
 31
0.0
  0
LINE
  5
1217
330
C06
100
AcDbEntity
  8
SIZE
 62
     0
370
    -2
100
AcDbLine
 10
-299.4855110895245
 20
1654.422882102099
 30
0.0
 11
559.5144889104623
 21
1654.422882102099
 31
0.0
  0
INSERT
  5
1218
330
C06
100
AcDbEntity
  8
SIZE
 62
     0
370
    -2
100
AcDbBlockReference
  2
_OPEN30
 10
-309.4855110895245
 20
1654.422882102099
 30
0.0
 41
10.0
 42
10.0
 43
10.0
 50
180.0
  0
INSERT
  5
1219
330
C06
100
AcDbEntity
  8
SIZE
 62
     0
370
    -2
100
AcDbBlockReference
  2
_OPEN30
 10
569.5144889104623
 20
1654.422882102099
 30
0.0
 41
10.0
 42
10.0
 43
10.0
  0
MTEXT
  5
121A
330
C06
100
AcDbEntity
  8
SIZE
 62
     0
100
AcDbMText
 10
130.0144889104689
 20
1664.422882102099
 30
0.0
 40
10.0
 41
0.0
 71
     5
 72
     1
  1
\A1;879
 73
     1
 44
1.0
1001
ACAD
1000
MTEXTBEGIN
1070
    73
1070
     1
1070
    44
1040
1.0
1070
    74
1070
     0
1000
MTEXTEND
  0
POINT
  5
121B
330
C06
100
AcDbEntity
  8
Defpoints
 62
     0
100
AcDbPoint
 10
-309.4855110895245
 20
1535.830811506845
 30
0.0
  0
POINT
  5
121C
330
C06
100
AcDbEntity
  8
Defpoints
 62
     0
100
AcDbPoint
 10
569.5144889104623
 20
1535.830811506845
 30
0.0
  0
POINT
  5
121D
330
C06
100
AcDbEntity
  8
Defpoints
 62
     0
100
AcDbPoint
 10
569.5144889104623
 20
1654.422882102099
 30
0.0
  0
ENDBLK
  5
C11
330
C06
100
AcDbEntity
  8
0
100
AcDbBlockEnd
  0
BLOCK
  5
CB1
330
CB0
100
AcDbEntity
  8
0
100
AcDbBlockBegin
  2
_DOTBLANK
 70
     0
 10
0.0
 20
0.0
 30
0.0
  3
_DOTBLANK
  1

  0
CIRCLE
  5
CB2
330
CB0
100
AcDbEntity
  8
0
  6
Continuous
 62
     7
100
AcDbCircle
 10
0.0
 20
0.0
 30
0.0
 40
0.5
  0
LINE
  5
CB3
330
CB0
100
AcDbEntity
  8
0
  6
Continuous
 62
     7
100
AcDbLine
 10
-0.5
 20
0.0
 30
0.0
 11
-1.0
 21
0.0
 31
0.0
  0
ENDBLK
  5
CB4
330
CB0
100
AcDbEntity
  8
0
100
AcDbBlockEnd
  0
BLOCK
  5
135D
330
135B
100
AcDbEntity
  8
0
100
AcDbBlockBegin
  2
GENAXEH
 70
     0
 10
0.0
 20
0.0
 30
0.0
  3
GENAXEH
  1

  0
LINE
  5
135C
330
135B
100
AcDbEntity
  8
0
100
AcDbLine
 10
-1.0
 20
0.0
 30
0.0
 11
1.0
 21
0.0
 31
0.0
  0
ENDBLK
  5
135E
330
135B
100
AcDbEntity
  8
0
100
AcDbBlockEnd
  0
BLOCK
  5
1561
330
1560
100
AcDbEntity
  8
0
100
AcDbBlockBegin
  2
*D10
 70
     1
 10
0.0
 20
0.0
 30
0.0
  3
*D10
  1

  0
LINE
  5
1563
330
1560
100
AcDbEntity
  8
SIZE
 62
     0
370
    -2
100
AcDbLine
 10
1073.918421634096
 20
1586.498912144865
 30
0.0
 11
1073.918421634096
 21
1691.476658569712
 31
0.0
  0
LINE
  5
1564
330
1560
100
AcDbEntity
  8
SIZE
 62
     0
370
    -2
100
AcDbLine
 10
1949.918421634099
 20
1586.498912144858
 30
0.0
 11
1949.918421634099
 21
1691.476658569712
 31
0.0
  0
LINE
  5
1565
330
1560
100
AcDbEntity
  8
SIZE
 62
     0
370
    -2
100
AcDbLine
 10
1093.918421634096
 20
1681.476658569712
 30
0.0
 11
1929.918421634099
 21
1681.476658569712
 31
0.0
  0
INSERT
  5
1566
330
1560
100
AcDbEntity
  8
SIZE
 62
     0
370
    -2
100
AcDbBlockReference
  2
_OPEN30
 10
1073.918421634096
 20
1681.476658569712
 30
0.0
 41
20.0
 42
20.0
 43
20.0
 50
180.0
  0
INSERT
  5
1567
330
1560
100
AcDbEntity
  8
SIZE
 62
     0
370
    -2
100
AcDbBlockReference
  2
_OPEN30
 10
1949.918421634099
 20
1681.476658569712
 30
0.0
 41
20.0
 42
20.0
 43
20.0
  0
MTEXT
  5
1568
330
1560
100
AcDbEntity
  8
SIZE
 62
     0
100
AcDbMText
 10
1511.918421634098
 20
1701.476658569712
 30
0.0
 40
20.0
 41
0.0
 71
     5
 72
     1
  1
\A1;876
 73
     1
 44
1.0
1001
ACAD
1000
MTEXTBEGIN
1070
    73
1070
     1
1070
    44
1040
1.0
1070
    74
1070
     0
1000
MTEXTEND
  0
POINT
  5
1569
330
1560
100
AcDbEntity
  8
Defpoints
 62
     0
100
AcDbPoint
 10
1073.918421634096
 20
1576.498912144865
 30
0.0
  0
POINT
  5
156A
330
1560
100
AcDbEntity
  8
Defpoints
 62
     0
100
AcDbPoint
 10
1949.918421634099
 20
1576.498912144858
 30
0.0
  0
POINT
  5
156B
330
1560
100
AcDbEntity
  8
Defpoints
 62
     0
100
AcDbPoint
 10
1949.918421634099
 20
1681.476658569712
 30
0.0
  0
ENDBLK
  5
1562
330
1560
100
AcDbEntity
  8
0
100
AcDbBlockEnd
  0
BLOCK
  5
156E
330
156D
100
AcDbEntity
  8
0
100
AcDbBlockBegin
  2
*D11
 70
     1
 10
0.0
 20
0.0
 30
0.0
  3
*D11
  1

  0
LINE
  5
1570
330
156D
100
AcDbEntity
  8
SIZE
 62
     0
370
    -2
100
AcDbLine
 10
1055.918421634096
 20
1585.998912144865
 30
0.0
 11
1055.918421634096
 21
1735.910474793192
 31
0.0
  0
LINE
  5
1571
330
156D
100
AcDbEntity
  8
SIZE
 62
     0
370
    -2
100
AcDbLine
 10
1967.918421634097
 20
1585.998912144858
 30
0.0
 11
1967.918421634097
 21
1735.910474793192
 31
0.0
  0
LINE
  5
1572
330
156D
100
AcDbEntity
  8
SIZE
 62
     0
370
    -2
100
AcDbLine
 10
1075.918421634096
 20
1725.910474793192
 30
0.0
 11
1947.918421634097
 21
1725.910474793192
 31
0.0
  0
INSERT
  5
1573
330
156D
100
AcDbEntity
  8
SIZE
 62
     0
370
    -2
100
AcDbBlockReference
  2
_OPEN30
 10
1055.918421634096
 20
1725.910474793192
 30
0.0
 41
20.0
 42
20.0
 43
20.0
 50
180.0
  0
INSERT
  5
1574
330
156D
100
AcDbEntity
  8
SIZE
 62
     0
370
    -2
100
AcDbBlockReference
  2
_OPEN30
 10
1967.918421634097
 20
1725.910474793192
 30
0.0
 41
20.0
 42
20.0
 43
20.0
  0
MTEXT
  5
1575
330
156D
100
AcDbEntity
  8
SIZE
 62
     0
100
AcDbMText
 10
1511.918421634097
 20
1745.910474793192
 30
0.0
 40
20.0
 41
0.0
 71
     5
 72
     1
  1
\A1;912
 73
     1
 44
1.0
1001
ACAD
1000
MTEXTBEGIN
1070
    73
1070
     1
1070
    44
1040
1.0
1070
    74
1070
     0
1000
MTEXTEND
  0
POINT
  5
1576
330
156D
100
AcDbEntity
  8
Defpoints
 62
     0
100
AcDbPoint
 10
1055.918421634096
 20
1575.998912144865
 30
0.0
  0
POINT
  5
1577
330
156D
100
AcDbEntity
  8
Defpoints
 62
     0
100
AcDbPoint
 10
1967.918421634097
 20
1575.998912144858
 30
0.0
  0
POINT
  5
1578
330
156D
100
AcDbEntity
  8
Defpoints
 62
     0
100
AcDbPoint
 10
1967.918421634097
 20
1725.910474793192
 30
0.0
  0
ENDBLK
  5
156F
330
156D
100
AcDbEntity
  8
0
100
AcDbBlockEnd
  0
BLOCK
  5
157B
330
157A
100
AcDbEntity
  8
0
100
AcDbBlockBegin
  2
*D12
 70
     1
 10
0.0
 20
0.0
 30
0.0
  3
*D12
  1

  0
LINE
  5
157D
330
157A
100
AcDbEntity
  8
SIZE
 62
     0
370
    -2
100
AcDbLine
 10
1050.418421634096
 20
1562.998912144865
 30
0.0
 11
1001.578957738109
 21
1562.998912144865
 31
0.0
  0
LINE
  5
157E
330
157A
100
AcDbEntity
  8
SIZE
 62
     0
370
    -2
100
AcDbLine
 10
1050.418421634096
 20
1412.998912144865
 30
0.0
 11
1001.578957738109
 21
1412.998912144865
 31
0.0
  0
LINE
  5
157F
330
157A
100
AcDbEntity
  8
SIZE
 62
     0
370
    -2
100
AcDbLine
 10
1011.578957738109
 20
1542.998912144865
 30
0.0
 11
1011.578957738109
 21
1432.998912144865
 31
0.0
  0
INSERT
  5
1580
330
157A
100
AcDbEntity
  8
SIZE
 62
     0
370
    -2
100
AcDbBlockReference
  2
_OPEN30
 10
1011.578957738109
 20
1562.998912144865
 30
0.0
 41
20.0
 42
20.0
 43
20.0
 50
90.0
  0
INSERT
  5
1581
330
157A
100
AcDbEntity
  8
SIZE
 62
     0
370
    -2
100
AcDbBlockReference
  2
_OPEN30
 10
1011.578957738109
 20
1412.998912144865
 30
0.0
 41
20.0
 42
20.0
 43
20.0
 50
270.0
  0
MTEXT
  5
1582
330
157A
100
AcDbEntity
  8
SIZE
 62
     0
100
AcDbMText
 10
991.578957738109
 20
1487.998912144865
 30
0.0
 40
20.0
 41
0.0
 71
     5
 72
     1
  1
\A1;150
 11
0.0000000000000001
 21
1.0
 31
0.0
 73
     1
 44
1.0
1001
ACAD
1000
MTEXTBEGIN
1070
    73
1070
     1
1070
    44
1040
1.0
1070
    74
1070
     0
1000
MTEXTEND
  0
POINT
  5
1583
330
157A
100
AcDbEntity
  8
Defpoints
 62
     0
100
AcDbPoint
 10
1060.418421634096
 20
1562.998912144865
 30
0.0
  0
POINT
  5
1584
330
157A
100
AcDbEntity
  8
Defpoints
 62
     0
100
AcDbPoint
 10
1060.418421634096
 20
1412.998912144865
 30
0.0
  0
POINT
  5
1585
330
157A
100
AcDbEntity
  8
Defpoints
 62
     0
100
AcDbPoint
 10
1011.578957738109
 20
1412.998912144865
 30
0.0
  0
ENDBLK
  5
157C
330
157A
100
AcDbEntity
  8
0
100
AcDbBlockEnd
  0
BLOCK
  5
1588
330
1587
100
AcDbEntity
  8
0
100
AcDbBlockBegin
  2
*D13
 70
     1
 10
0.0
 20
0.0
 30
0.0
  3
*D13
  1

  0
LINE
  5
15BA
330
1587
100
AcDbEntity
  8
SIZE
 62
     0
370
    -2
100
AcDbLine
 10
1050.418421634096
 20
1412.998912144865
 30
0.0
 11
1001.578957738109
 21
1412.998912144865
 31
0.0
  0
LINE
  5
15BB
330
1587
100
AcDbEntity
  8
SIZE
 62
     0
370
    -2
100
AcDbLine
 10
1030.595420559354
 20
1263.003295767508
 30
0.0
 11
1001.578957738109
 21
1263.003295767508
 31
0.0
  0
LINE
  5
15BC
330
1587
100
AcDbEntity
  8
SIZE
 62
     0
370
    -2
100
AcDbLine
 10
1011.578957738109
 20
1392.998912144865
 30
0.0
 11
1011.578957738109
 21
1283.003295767508
 31
0.0
  0
INSERT
  5
15BD
330
1587
100
AcDbEntity
  8
SIZE
 62
     0
370
    -2
100
AcDbBlockReference
  2
_OPEN30
 10
1011.578957738109
 20
1412.998912144865
 30
0.0
 41
20.0
 42
20.0
 43
20.0
 50
90.0
  0
INSERT
  5
15BE
330
1587
100
AcDbEntity
  8
SIZE
 62
     0
370
    -2
100
AcDbBlockReference
  2
_OPEN30
 10
1011.578957738109
 20
1263.003295767508
 30
0.0
 41
20.0
 42
20.0
 43
20.0
 50
270.0
  0
MTEXT
  5
15BF
330
1587
100
AcDbEntity
  8
SIZE
 62
     0
100
AcDbMText
 10
991.578957738109
 20
1338.001103956187
 30
0.0
 40
20.0
 41
0.0
 71
     5
 72
     1
  1
\A1;150
 11
0.0000000000000001
 21
1.0
 31
0.0
 73
     1
 44
1.0
1001
ACAD
1000
MTEXTBEGIN
1070
    73
1070
     1
1070
    44
1040
1.0
1070
    74
1070
     0
1000
MTEXTEND
  0
POINT
  5
15C0
330
1587
100
AcDbEntity
  8
Defpoints
 62
     0
100
AcDbPoint
 10
1060.418421634096
 20
1412.998912144865
 30
0.0
  0
POINT
  5
15C1
330
1587
100
AcDbEntity
  8
Defpoints
 62
     0
100
AcDbPoint
 10
1040.595420559354
 20
1263.003295767508
 30
0.0
  0
POINT
  5
15C2
330
1587
100
AcDbEntity
  8
Defpoints
 62
     0
100
AcDbPoint
 10
1011.578957738109
 20
1263.003295767508
 30
0.0
  0
ENDBLK
  5
1589
330
1587
100
AcDbEntity
  8
0
100
AcDbBlockEnd
  0
BLOCK
  5
1595
330
1594
100
AcDbEntity
  8
0
100
AcDbBlockBegin
  2
*D14
 70
     1
 10
0.0
 20
0.0
 30
0.0
  3
*D14
  1

  0
LINE
  5
15C3
330
1594
100
AcDbEntity
  8
SIZE
 62
     0
370
    -2
100
AcDbLine
 10
1030.595420559354
 20
1263.003295767508
 30
0.0
 11
1001.578957738109
 21
1263.003295767508
 31
0.0
  0
LINE
  5
15C4
330
1594
100
AcDbEntity
  8
SIZE
 62
     0
370
    -2
100
AcDbLine
 10
1050.418421634096
 20
1112.998912144865
 30
0.0
 11
1001.578957738109
 21
1112.998912144865
 31
0.0
  0
LINE
  5
15C5
330
1594
100
AcDbEntity
  8
SIZE
 62
     0
370
    -2
100
AcDbLine
 10
1011.578957738109
 20
1243.003295767508
 30
0.0
 11
1011.578957738109
 21
1132.998912144865
 31
0.0
  0
INSERT
  5
15C6
330
1594
100
AcDbEntity
  8
SIZE
 62
     0
370
    -2
100
AcDbBlockReference
  2
_OPEN30
 10
1011.578957738109
 20
1263.003295767508
 30
0.0
 41
20.0
 42
20.0
 43
20.0
 50
90.0
  0
INSERT
  5
15C7
330
1594
100
AcDbEntity
  8
SIZE
 62
     0
370
    -2
100
AcDbBlockReference
  2
_OPEN30
 10
1011.578957738109
 20
1112.998912144865
 30
0.0
 41
20.0
 42
20.0
 43
20.0
 50
270.0
  0
MTEXT
  5
15C8
330
1594
100
AcDbEntity
  8
SIZE
 62
     0
100
AcDbMText
 10
991.578957738109
 20
1188.001103956187
 30
0.0
 40
20.0
 41
0.0
 71
     5
 72
     1
  1
\A1;150
 11
0.0000000000000001
 21
1.0
 31
0.0
 73
     1
 44
1.0
1001
ACAD
1000
MTEXTBEGIN
1070
    73
1070
     1
1070
    44
1040
1.0
1070
    74
1070
     0
1000
MTEXTEND
  0
POINT
  5
15C9
330
1594
100
AcDbEntity
  8
Defpoints
 62
     0
100
AcDbPoint
 10
1040.595420559354
 20
1263.003295767508
 30
0.0
  0
POINT
  5
15CA
330
1594
100
AcDbEntity
  8
Defpoints
 62
     0
100
AcDbPoint
 10
1060.418421634096
 20
1112.998912144865
 30
0.0
  0
POINT
  5
15CB
330
1594
100
AcDbEntity
  8
Defpoints
 62
     0
100
AcDbPoint
 10
1011.578957738109
 20
1112.998912144865
 30
0.0
  0
ENDBLK
  5
1596
330
1594
100
AcDbEntity
  8
0
100
AcDbBlockEnd
  0
BLOCK
  5
15A2
330
15A1
100
AcDbEntity
  8
0
100
AcDbBlockBegin
  2
*D15
 70
     1
 10
0.0
 20
0.0
 30
0.0
  3
*D15
  1

  0
LINE
  5
15CC
330
15A1
100
AcDbEntity
  8
SIZE
 62
     0
370
    -2
100
AcDbLine
 10
1050.418421634096
 20
1112.998912144865
 30
0.0
 11
1001.578957738109
 21
1112.998912144865
 31
0.0
  0
LINE
  5
15CD
330
15A1
100
AcDbEntity
  8
SIZE
 62
     0
370
    -2
100
AcDbLine
 10
1050.418421634096
 20
962.9989121448652
 30
0.0
 11
1001.578957738109
 21
962.9989121448652
 31
0.0
  0
LINE
  5
15CE
330
15A1
100
AcDbEntity
  8
SIZE
 62
     0
370
    -2
100
AcDbLine
 10
1011.578957738109
 20
1092.998912144865
 30
0.0
 11
1011.578957738109
 21
982.9989121448653
 31
0.0
  0
INSERT
  5
15CF
330
15A1
100
AcDbEntity
  8
SIZE
 62
     0
370
    -2
100
AcDbBlockReference
  2
_OPEN30
 10
1011.578957738109
 20
1112.998912144865
 30
0.0
 41
20.0
 42
20.0
 43
20.0
 50
90.0
  0
INSERT
  5
15D0
330
15A1
100
AcDbEntity
  8
SIZE
 62
     0
370
    -2
100
AcDbBlockReference
  2
_OPEN30
 10
1011.578957738109
 20
962.9989121448652
 30
0.0
 41
20.0
 42
20.0
 43
20.0
 50
270.0
  0
MTEXT
  5
15D1
330
15A1
100
AcDbEntity
  8
SIZE
 62
     0
100
AcDbMText
 10
991.578957738109
 20
1037.998912144865
 30
0.0
 40
20.0
 41
0.0
 71
     5
 72
     1
  1
\A1;150
 11
0.0000000000000001
 21
1.0
 31
0.0
 73
     1
 44
1.0
1001
ACAD
1000
MTEXTBEGIN
1070
    73
1070
     1
1070
    44
1040
1.0
1070
    74
1070
     0
1000
MTEXTEND
  0
POINT
  5
15D2
330
15A1
100
AcDbEntity
  8
Defpoints
 62
     0
100
AcDbPoint
 10
1060.418421634096
 20
1112.998912144865
 30
0.0
  0
POINT
  5
15D3
330
15A1
100
AcDbEntity
  8
Defpoints
 62
     0
100
AcDbPoint
 10
1060.418421634096
 20
962.9989121448652
 30
0.0
  0
POINT
  5
15D4
330
15A1
100
AcDbEntity
  8
Defpoints
 62
     0
100
AcDbPoint
 10
1011.578957738109
 20
962.9989121448652
 30
0.0
  0
ENDBLK
  5
15A3
330
15A1
100
AcDbEntity
  8
0
100
AcDbBlockEnd
  0
BLOCK
  5
15AF
330
15AE
100
AcDbEntity
  8
0
100
AcDbBlockBegin
  2
*D16
 70
     1
 10
0.0
 20
0.0
 30
0.0
  3
*D16
  1

  0
LINE
  5
22CE
330
15AE
100
AcDbEntity
  8
SIZE
 62
     0
 48
50.0
370
    -2
100
AcDbLine
 10
2287.904703458519
 20
895.9989121448582
 30
0.0
 11
2132.975705051977
 21
895.9989121448582
 31
0.0
  0
LINE
  5
22CF
330
15AE
100
AcDbEntity
  8
SIZE
 62
     0
 48
50.0
370
    -2
100
AcDbLine
 10
2317.904703458523
 20
1629.998912144858
 30
0.0
 11
2132.975705051977
 21
1629.998912144858
 31
0.0
  0
LINE
  5
22D0
330
15AE
100
AcDbEntity
  8
SIZE
 62
     0
 48
50.0
370
    -2
100
AcDbLine
 10
2142.975705051977
 20
915.9989121448582
 30
0.0
 11
2142.975705051977
 21
1609.998912144858
 31
0.0
  0
INSERT
  5
22D1
330
15AE
100
AcDbEntity
  8
SIZE
 62
     0
 48
50.0
370
    -2
100
AcDbBlockReference
  2
_OPEN30
 10
2142.975705051977
 20
895.9989121448582
 30
0.0
 41
20.0
 42
20.0
 43
20.0
 50
270.0
  0
INSERT
  5
22D2
330
15AE
100
AcDbEntity
  8
SIZE
 62
     0
 48
50.0
370
    -2
100
AcDbBlockReference
  2
_OPEN30
 10
2142.975705051977
 20
1629.998912144858
 30
0.0
 41
20.0
 42
20.0
 43
20.0
 50
90.0
  0
MTEXT
  5
22D3
330
15AE
100
AcDbEntity
  8
SIZE
 62
     0
 48
50.0
100
AcDbMText
 10
2122.975705051977
 20
1262.998912144858
 30
0.0
 40
20.0
 41
0.0
 71
     5
 72
     1
  1
\A1;734
 11
0.0000000000000001
 21
1.0
 31
0.0
 73
     1
 44
1.0
1001
ACAD
1000
MTEXTBEGIN
1070
    73
1070
     1
1070
    44
1040
1.0
1070
    74
1070
     0
1000
MTEXTEND
  0
POINT
  5
22D4
330
15AE
100
AcDbEntity
  8
Defpoints
 62
     0
 48
50.0
100
AcDbPoint
 10
2297.904703458519
 20
895.9989121448582
 30
0.0
  0
POINT
  5
22D5
330
15AE
100
AcDbEntity
  8
Defpoints
 62
     0
 48
50.0
100
AcDbPoint
 10
2327.904703458523
 20
1629.998912144858
 30
0.0
  0
POINT
  5
22D6
330
15AE
100
AcDbEntity
  8
Defpoints
 62
     0
 48
50.0
100
AcDbPoint
 10
2142.975705051977
 20
1629.998912144858
 30
0.0
  0
ENDBLK
  5
15B0
330
15AE
100
AcDbEntity
  8
0
100
AcDbBlockEnd
  0
BLOCK
  5
15D8
330
15D7
100
AcDbEntity
  8
0
100
AcDbBlockBegin
  2
*D17
 70
     1
 10
0.0
 20
0.0
 30
0.0
  3
*D17
  1

  0
LINE
  5
1602
330
15D7
100
AcDbEntity
  8
SIZE
100
AcDbLine
 10
1061.720804107804
 20
1589.206990321924
 30
0.0
 11
1023.385329793412
 21
1678.931354047263
 31
0.0
  0
LINE
  5
1603
330
15D7
100
AcDbEntity
  8
SIZE
100
AcDbLine
 10
1023.385329793412
 20
1678.931354047263
 30
0.0
 11
981.9567583648407
 21
1678.931354047263
 31
0.0
  0
SOLID
  5
1604
330
15D7
100
AcDbEntity
  8
SIZE
100
AcDbTrace
 10
1065.552394484567
 20
1590.844068907639
 30
0.0
 11
1057.889213731041
 21
1587.569911736209
 31
0.0
 12
1071.543275622095
 22
1566.217448061345
 32
0.0
 13
1071.543275622095
 23
1566.217448061345
 33
0.0
  0
MTEXT
  5
1605
102
{ACAD_XDICTIONARY
360
22E0
102
}
330
15D7
100
AcDbEntity
  8
SIZE
 62
     2
100
AcDbMText
 10
997.6710440791277
 20
1698.931354047264
 30
0.0
 40
20.0
 41
0.0
 71
     5
 72
     1
  1
\U+22057
 73
     1
 44
1.0
1001
ACAD
1000
MTEXTBEGIN
1070
    73
1070
     1
1070
    44
1040
1.0
1070
    74
1070
     0
1000
MTEXTEND
  0
ARC
  5
1606
330
15D7
100
AcDbEntity
  8
SIZE
100
AcDbCircle
 10
1014.316363944915
 20
1601.649728461688
 30
0.0
 40
3.499999999999771
100
AcDbArc
 50
270.0000000000001
 51
328.2361070036568
  0
POINT
  5
1607
330
15D7
100
AcDbEntity
  8
Defpoints
 62
     0
100
AcDbPoint
 10
1071.543275622095
 20
1566.217448061345
 30
0.0
  0
POINT
  5
1608
330
15D7
100
AcDbEntity
  8
Defpoints
 62
     0
100
AcDbPoint
 10
1074.293567646096
 20
1559.780376228384
 30
0.0
  0
ENDBLK
  5
15D9
330
15D7
100
AcDbEntity
  8
0
100
AcDbBlockEnd
  0
BLOCK
  5
160B
330
160A
100
AcDbEntity
  8
0
100
AcDbBlockBegin
  2
*D18
 70
     1
 10
0.0
 20
0.0
 30
0.0
  3
*D18
  1

  0
LINE
  5
168D
330
160A
100
AcDbEntity
  8
NOTE
 62
     0
370
    -2
100
AcDbLine
 10
886.0409392145001
 20
1711.64293990896
 30
0.0
 11
953.3742725478335
 21
1711.64293990896
 31
0.0
  0
LINE
  5
168E
330
160A
100
AcDbEntity
  8
NOTE
 62
     0
370
    -2
100
AcDbLine
 10
953.3742725478335
 20
1711.64293990896
 30
0.0
 11
1058.190891449092
 21
1581.311472169334
 31
0.0
  0
MTEXT
  5
168F
330
160A
100
AcDbEntity
  8
NOTE
 62
     0
100
AcDbMText
 10
909.5647487383097
 20
1731.64293990896
 30
0.0
 40
20.0
 41
0.0
 71
     5
 72
     1
  1
\A1;10×
 73
     1
 44
1.0
1001
ACAD
1000
MTEXTBEGIN
1070
    73
1070
     1
1070
    44
1040
1.0
1070
    74
1070
     0
1000
MTEXTEND
  0
INSERT
  5
1690
330
160A
100
AcDbEntity
  8
NOTE
 62
     0
370
    -2
100
AcDbBlockReference
  2
_OPEN30
 10
1070.724959691648
 20
1565.726314701701
 30
0.0
 41
20.0
 42
20.0
 43
20.0
 50
308.8073228777204
  0
POINT
  5
1691
330
160A
100
AcDbEntity
  8
Defpoints
 62
     0
100
AcDbPoint
 10
1070.724959691648
 20
1565.726314701701
 30
0.0
  0
POINT
  5
1692
330
160A
100
AcDbEntity
  8
Defpoints
 62
     0
100
AcDbPoint
 10
1072.918421634096
 20
1562.998912144865
 30
0.0
  0
ENDBLK
  5
160C
330
160A
100
AcDbEntity
  8
0
100
AcDbBlockEnd
  0
BLOCK
  5
1E8F
330
1E8E
100
AcDbEntity
  8
0
100
AcDbBlockBegin
  2
*D19
 70
     1
 10
0.0
 20
0.0
 30
0.0
  3
*D19
  1

  0
LINE
  5
1EA7
330
1E8E
100
AcDbEntity
  8
SIZE
 62
     0
370
    -2
100
AcDbLine
 10
3116.404703458523
 20
1586.498907409567
 30
0.0
 11
3116.404703458523
 21
1690.664077364081
 31
0.0
  0
LINE
  5
1EA8
330
1E8E
100
AcDbEntity
  8
SIZE
 62
     0
370
    -2
100
AcDbLine
 10
3165.404703458508
 20
1586.498907407894
 30
0.0
 11
3165.404703458508
 21
1690.664077364081
 31
0.0
  0
LINE
  5
1EA9
330
1E8E
100
AcDbEntity
  8
SIZE
 62
     0
370
    -2
100
AcDbLine
 10
3096.404703458523
 20
1680.664077364081
 30
0.0
 11
3076.404703458523
 21
1680.664077364081
 31
0.0
  0
LINE
  5
1EAA
330
1E8E
100
AcDbEntity
  8
SIZE
 62
     0
370
    -2
100
AcDbLine
 10
3185.404703458508
 20
1680.664077364081
 30
0.0
 11
3205.404703458508
 21
1680.664077364081
 31
0.0
  0
LINE
  5
1EAB
330
1E8E
100
AcDbEntity
  8
SIZE
 62
     0
370
    -2
100
AcDbLine
 10
3116.404703458523
 20
1680.664077364081
 30
0.0
 11
3165.404703458508
 21
1680.664077364081
 31
0.0
  0
INSERT
  5
1EAC
330
1E8E
100
AcDbEntity
  8
SIZE
 62
     0
370
    -2
100
AcDbBlockReference
  2
_OPEN30
 10
3116.404703458523
 20
1680.664077364081
 30
0.0
 41
20.0
 42
20.0
 43
20.0
  0
INSERT
  5
1EAD
330
1E8E
100
AcDbEntity
  8
SIZE
 62
     0
370
    -2
100
AcDbBlockReference
  2
_OPEN30
 10
3165.404703458508
 20
1680.664077364081
 30
0.0
 41
20.0
 42
20.0
 43
20.0
 50
180.0
  0
MTEXT
  5
1EAE
330
1E8E
100
AcDbEntity
  8
SIZE
 62
     0
100
AcDbMText
 10
3140.904703458515
 20
1700.664077364081
 30
0.0
 40
20.0
 41
0.0
 71
     5
 72
     1
  1
\A1;49
 73
     1
 44
1.0
1001
ACAD
1000
MTEXTBEGIN
1070
    73
1070
     1
1070
    44
1040
1.0
1070
    74
1070
     0
1000
MTEXTEND
  0
POINT
  5
1EAF
330
1E8E
100
AcDbEntity
  8
Defpoints
 62
     0
100
AcDbPoint
 10
3116.404703458523
 20
1576.498907409567
 30
0.0
  0
POINT
  5
1EB0
330
1E8E
100
AcDbEntity
  8
Defpoints
 62
     0
100
AcDbPoint
 10
3165.404703458508
 20
1576.498907407894
 30
0.0
  0
POINT
  5
1EB1
330
1E8E
100
AcDbEntity
  8
Defpoints
 62
     0
100
AcDbPoint
 10
3165.404703458508
 20
1680.664077364081
 30
0.0
  0
ENDBLK
  5
1E90
330
1E8E
100
AcDbEntity
  8
0
100
AcDbBlockEnd
  0
BLOCK
  5
1EB4
330
1EB3
100
AcDbEntity
  8
0
100
AcDbBlockBegin
  2
*D20
 70
     1
 10
0.0
 20
0.0
 30
0.0
  3
*D20
  1

  0
LINE
  5
1EB6
330
1EB3
100
AcDbEntity
  8
SIZE
 62
     0
370
    -2
100
AcDbLine
 10
2285.404703458516
 20
1586.498907409199
 30
0.0
 11
2285.404703458516
 21
1736.210984860122
 31
0.0
  0
LINE
  5
1EB7
330
1EB3
100
AcDbEntity
  8
SIZE
 62
     0
370
    -2
100
AcDbLine
 10
3996.404703458519
 20
1586.498907409199
 30
0.0
 11
3996.404703458519
 21
1736.210984860122
 31
0.0
  0
LINE
  5
1EB8
330
1EB3
100
AcDbEntity
  8
SIZE
 62
     0
370
    -2
100
AcDbLine
 10
2305.404703458516
 20
1726.210984860121
 30
0.0
 11
3976.404703458519
 21
1726.210984860121
 31
0.0
  0
INSERT
  5
1EB9
330
1EB3
100
AcDbEntity
  8
SIZE
 62
     0
370
    -2
100
AcDbBlockReference
  2
_OPEN30
 10
2285.404703458516
 20
1726.210984860121
 30
0.0
 41
20.0
 42
20.0
 43
20.0
 50
180.0
  0
INSERT
  5
1EBA
330
1EB3
100
AcDbEntity
  8
SIZE
 62
     0
370
    -2
100
AcDbBlockReference
  2
_OPEN30
 10
3996.404703458519
 20
1726.210984860121
 30
0.0
 41
20.0
 42
20.0
 43
20.0
  0
MTEXT
  5
1EBB
330
1EB3
100
AcDbEntity
  8
SIZE
 62
     0
100
AcDbMText
 10
3140.904703458518
 20
1746.210984860121
 30
0.0
 40
20.0
 41
0.0
 71
     5
 72
     1
  1
\A1;1711
 73
     1
 44
1.0
1001
ACAD
1000
MTEXTBEGIN
1070
    73
1070
     1
1070
    44
1040
1.0
1070
    74
1070
     0
1000
MTEXTEND
  0
POINT
  5
1EBC
330
1EB3
100
AcDbEntity
  8
Defpoints
 62
     0
100
AcDbPoint
 10
2285.404703458516
 20
1576.4989074092
 30
0.0
  0
POINT
  5
1EBD
330
1EB3
100
AcDbEntity
  8
Defpoints
 62
     0
100
AcDbPoint
 10
3996.404703458519
 20
1576.4989074092
 30
0.0
  0
POINT
  5
1EBE
330
1EB3
100
AcDbEntity
  8
Defpoints
 62
     0
100
AcDbPoint
 10
3996.404703458519
 20
1726.210984860121
 30
0.0
  0
ENDBLK
  5
1EB5
330
1EB3
100
AcDbEntity
  8
0
100
AcDbBlockEnd
  0
BLOCK
  5
1EC3
330
1EC2
100
AcDbEntity
  8
0
100
AcDbBlockBegin
  2
*D21
 70
     1
 10
0.0
 20
0.0
 30
0.0
  3
*D21
  1

  0
LINE
  5
228D
330
1EC2
100
AcDbEntity
  8
SIZE
 62
     0
 48
50.0
370
    -2
100
AcDbLine
 10
2261.904703458516
 20
1562.998907409199
 30
0.0
 11
2177.381406941597
 21
1562.998907409199
 31
0.0
  0
LINE
  5
228E
330
1EC2
100
AcDbEntity
  8
SIZE
 62
     0
 48
50.0
370
    -2
100
AcDbLine
 10
2261.904703458516
 20
1412.998907409199
 30
0.0
 11
2177.381406941597
 21
1412.998907409199
 31
0.0
  0
LINE
  5
228F
330
1EC2
100
AcDbEntity
  8
SIZE
 62
     0
 48
50.0
370
    -2
100
AcDbLine
 10
2187.381406941597
 20
1542.998907409199
 30
0.0
 11
2187.381406941597
 21
1432.998907409199
 31
0.0
  0
INSERT
  5
2290
330
1EC2
100
AcDbEntity
  8
SIZE
 62
     0
 48
50.0
370
    -2
100
AcDbBlockReference
  2
_OPEN30
 10
2187.381406941597
 20
1562.998907409199
 30
0.0
 41
20.0
 42
20.0
 43
20.0
 50
90.0
  0
INSERT
  5
2291
330
1EC2
100
AcDbEntity
  8
SIZE
 62
     0
 48
50.0
370
    -2
100
AcDbBlockReference
  2
_OPEN30
 10
2187.381406941597
 20
1412.998907409199
 30
0.0
 41
20.0
 42
20.0
 43
20.0
 50
270.0
  0
MTEXT
  5
2292
330
1EC2
100
AcDbEntity
  8
SIZE
 62
     0
 48
50.0
100
AcDbMText
 10
2167.381406941597
 20
1487.998907409199
 30
0.0
 40
20.0
 41
0.0
 71
     5
 72
     1
  1
\A1;150
 11
0.0000000000000001
 21
1.0
 31
0.0
 73
     1
 44
1.0
1001
ACAD
1000
MTEXTBEGIN
1070
    73
1070
     1
1070
    44
1040
1.0
1070
    74
1070
     0
1000
MTEXTEND
  0
POINT
  5
2293
330
1EC2
100
AcDbEntity
  8
Defpoints
 62
     0
 48
50.0
100
AcDbPoint
 10
2271.904703458516
 20
1562.998907409199
 30
0.0
  0
POINT
  5
2294
330
1EC2
100
AcDbEntity
  8
Defpoints
 62
     0
 48
50.0
100
AcDbPoint
 10
2271.904703458516
 20
1412.998907409199
 30
0.0
  0
POINT
  5
2295
330
1EC2
100
AcDbEntity
  8
Defpoints
 62
     0
 48
50.0
100
AcDbPoint
 10
2187.381406941597
 20
1412.998907409199
 30
0.0
  0
ENDBLK
  5
1EC4
330
1EC2
100
AcDbEntity
  8
0
100
AcDbBlockEnd
  0
BLOCK
  5
1ED0
330
1ECF
100
AcDbEntity
  8
0
100
AcDbBlockBegin
  2
*D22
 70
     1
 10
0.0
 20
0.0
 30
0.0
  3
*D22
  1

  0
LINE
  5
2284
330
1ECF
100
AcDbEntity
  8
SIZE
 62
     0
 48
50.0
370
    -2
100
AcDbLine
 10
2261.904703458516
 20
1412.998907409199
 30
0.0
 11
2177.381406941597
 21
1412.998907409199
 31
0.0
  0
LINE
  5
2285
330
1ECF
100
AcDbEntity
  8
SIZE
 62
     0
 48
50.0
370
    -2
100
AcDbLine
 10
2235.147696735446
 20
1263.003295767502
 30
0.0
 11
2177.381406941597
 21
1263.003295767502
 31
0.0
  0
LINE
  5
2286
330
1ECF
100
AcDbEntity
  8
SIZE
 62
     0
 48
50.0
370
    -2
100
AcDbLine
 10
2187.381406941597
 20
1392.998907409199
 30
0.0
 11
2187.381406941597
 21
1283.003295767502
 31
0.0
  0
INSERT
  5
2287
330
1ECF
100
AcDbEntity
  8
SIZE
 62
     0
 48
50.0
370
    -2
100
AcDbBlockReference
  2
_OPEN30
 10
2187.381406941597
 20
1412.998907409199
 30
0.0
 41
20.0
 42
20.0
 43
20.0
 50
90.0
  0
INSERT
  5
2288
330
1ECF
100
AcDbEntity
  8
SIZE
 62
     0
 48
50.0
370
    -2
100
AcDbBlockReference
  2
_OPEN30
 10
2187.381406941597
 20
1263.003295767502
 30
0.0
 41
20.0
 42
20.0
 43
20.0
 50
270.0
  0
MTEXT
  5
2289
330
1ECF
100
AcDbEntity
  8
SIZE
 62
     0
 48
50.0
100
AcDbMText
 10
2167.381406941597
 20
1338.001101588351
 30
0.0
 40
20.0
 41
0.0
 71
     5
 72
     1
  1
\A1;150
 11
0.0000000000000001
 21
1.0
 31
0.0
 73
     1
 44
1.0
1001
ACAD
1000
MTEXTBEGIN
1070
    73
1070
     1
1070
    44
1040
1.0
1070
    74
1070
     0
1000
MTEXTEND
  0
POINT
  5
228A
330
1ECF
100
AcDbEntity
  8
Defpoints
 62
     0
 48
50.0
100
AcDbPoint
 10
2271.904703458516
 20
1412.998907409199
 30
0.0
  0
POINT
  5
228B
330
1ECF
100
AcDbEntity
  8
Defpoints
 62
     0
 48
50.0
100
AcDbPoint
 10
2245.147696735446
 20
1263.003295767502
 30
0.0
  0
POINT
  5
228C
330
1ECF
100
AcDbEntity
  8
Defpoints
 62
     0
 48
50.0
100
AcDbPoint
 10
2187.381406941597
 20
1263.003295767502
 30
0.0
  0
ENDBLK
  5
1ED1
330
1ECF
100
AcDbEntity
  8
0
100
AcDbBlockEnd
  0
BLOCK
  5
1EDD
330
1EDC
100
AcDbEntity
  8
0
100
AcDbBlockBegin
  2
*D23
 70
     1
 10
0.0
 20
0.0
 30
0.0
  3
*D23
  1

  0
LINE
  5
229F
330
1EDC
100
AcDbEntity
  8
SIZE
 62
     0
 48
50.0
370
    -2
100
AcDbLine
 10
2235.147696735446
 20
1263.003295767502
 30
0.0
 11
2177.381406941597
 21
1263.003295767502
 31
0.0
  0
LINE
  5
22A0
330
1EDC
100
AcDbEntity
  8
SIZE
 62
     0
 48
50.0
370
    -2
100
AcDbLine
 10
2261.904703458516
 20
1112.998907409199
 30
0.0
 11
2177.381406941597
 21
1112.998907409199
 31
0.0
  0
LINE
  5
22A1
330
1EDC
100
AcDbEntity
  8
SIZE
 62
     0
 48
50.0
370
    -2
100
AcDbLine
 10
2187.381406941597
 20
1243.003295767502
 30
0.0
 11
2187.381406941597
 21
1132.998907409199
 31
0.0
  0
INSERT
  5
22A2
330
1EDC
100
AcDbEntity
  8
SIZE
 62
     0
 48
50.0
370
    -2
100
AcDbBlockReference
  2
_OPEN30
 10
2187.381406941597
 20
1263.003295767502
 30
0.0
 41
20.0
 42
20.0
 43
20.0
 50
90.0
  0
INSERT
  5
22A3
330
1EDC
100
AcDbEntity
  8
SIZE
 62
     0
 48
50.0
370
    -2
100
AcDbBlockReference
  2
_OPEN30
 10
2187.381406941597
 20
1112.998907409199
 30
0.0
 41
20.0
 42
20.0
 43
20.0
 50
270.0
  0
MTEXT
  5
22A4
330
1EDC
100
AcDbEntity
  8
SIZE
 62
     0
 48
50.0
100
AcDbMText
 10
2167.381406941597
 20
1188.001101588351
 30
0.0
 40
20.0
 41
0.0
 71
     5
 72
     1
  1
\A1;150
 11
0.0000000000000001
 21
1.0
 31
0.0
 73
     1
 44
1.0
1001
ACAD
1000
MTEXTBEGIN
1070
    73
1070
     1
1070
    44
1040
1.0
1070
    74
1070
     0
1000
MTEXTEND
  0
POINT
  5
22A5
330
1EDC
100
AcDbEntity
  8
Defpoints
 62
     0
 48
50.0
100
AcDbPoint
 10
2245.147696735446
 20
1263.003295767502
 30
0.0
  0
POINT
  5
22A6
330
1EDC
100
AcDbEntity
  8
Defpoints
 62
     0
 48
50.0
100
AcDbPoint
 10
2271.904703458516
 20
1112.998907409199
 30
0.0
  0
POINT
  5
22A7
330
1EDC
100
AcDbEntity
  8
Defpoints
 62
     0
 48
50.0
100
AcDbPoint
 10
2187.381406941597
 20
1112.998907409199
 30
0.0
  0
ENDBLK
  5
1EDE
330
1EDC
100
AcDbEntity
  8
0
100
AcDbBlockEnd
  0
BLOCK
  5
1EEA
330
1EE9
100
AcDbEntity
  8
0
100
AcDbBlockBegin
  2
*D24
 70
     1
 10
0.0
 20
0.0
 30
0.0
  3
*D24
  1

  0
LINE
  5
2296
330
1EE9
100
AcDbEntity
  8
SIZE
 62
     0
 48
50.0
370
    -2
100
AcDbLine
 10
2261.904703458516
 20
1112.998907409199
 30
0.0
 11
2177.381406941595
 21
1112.998907409199
 31
0.0
  0
LINE
  5
2297
330
1EE9
100
AcDbEntity
  8
SIZE
 62
     0
 48
50.0
370
    -2
100
AcDbLine
 10
2261.904703458516
 20
962.9989074091996
 30
0.0
 11
2177.381406941595
 21
962.9989074091996
 31
0.0
  0
LINE
  5
2298
330
1EE9
100
AcDbEntity
  8
SIZE
 62
     0
 48
50.0
370
    -2
100
AcDbLine
 10
2187.381406941595
 20
1092.998907409199
 30
0.0
 11
2187.381406941595
 21
982.9989074091995
 31
0.0
  0
INSERT
  5
2299
330
1EE9
100
AcDbEntity
  8
SIZE
 62
     0
 48
50.0
370
    -2
100
AcDbBlockReference
  2
_OPEN30
 10
2187.381406941595
 20
1112.998907409199
 30
0.0
 41
20.0
 42
20.0
 43
20.0
 50
90.0
  0
INSERT
  5
229A
330
1EE9
100
AcDbEntity
  8
SIZE
 62
     0
 48
50.0
370
    -2
100
AcDbBlockReference
  2
_OPEN30
 10
2187.381406941595
 20
962.9989074091996
 30
0.0
 41
20.0
 42
20.0
 43
20.0
 50
270.0
  0
MTEXT
  5
229B
330
1EE9
100
AcDbEntity
  8
SIZE
 62
     0
 48
50.0
100
AcDbMText
 10
2167.381406941595
 20
1037.998907409199
 30
0.0
 40
20.0
 41
0.0
 71
     5
 72
     1
  1
\A1;150
 11
0.0000000000000001
 21
1.0
 31
0.0
 73
     1
 44
1.0
1001
ACAD
1000
MTEXTBEGIN
1070
    73
1070
     1
1070
    44
1040
1.0
1070
    74
1070
     0
1000
MTEXTEND
  0
POINT
  5
229C
330
1EE9
100
AcDbEntity
  8
Defpoints
 62
     0
 48
50.0
100
AcDbPoint
 10
2271.904703458516
 20
1112.998907409199
 30
0.0
  0
POINT
  5
229D
330
1EE9
100
AcDbEntity
  8
Defpoints
 62
     0
 48
50.0
100
AcDbPoint
 10
2271.904703458516
 20
962.9989074091996
 30
0.0
  0
POINT
  5
229E
330
1EE9
100
AcDbEntity
  8
Defpoints
 62
     0
 48
50.0
100
AcDbPoint
 10
2187.381406941595
 20
962.9989074091996
 30
0.0
  0
ENDBLK
  5
1EEB
330
1EE9
100
AcDbEntity
  8
0
100
AcDbBlockEnd
  0
BLOCK
  5
201C
330
201B
100
AcDbEntity
  8
0
100
AcDbBlockBegin
  2
*D25
 70
     1
 10
0.0
 20
0.0
 30
0.0
  3
*D25
  1

  0
LINE
  5
22C5
330
201B
100
AcDbEntity
  8
SIZE
 62
     0
 48
50.0
370
    -2
100
AcDbLine
 10
2268.904703458517
 20
1585.998907409199
 30
0.0
 11
2268.904703458517
 21
1781.741488437188
 31
0.0
  0
LINE
  5
22C6
330
201B
100
AcDbEntity
  8
SIZE
 62
     0
 48
50.0
370
    -2
100
AcDbLine
 10
4012.904703458519
 20
1585.998907407893
 30
0.0
 11
4012.904703458519
 21
1781.741488437188
 31
0.0
  0
LINE
  5
22C7
330
201B
100
AcDbEntity
  8
SIZE
 62
     0
 48
50.0
370
    -2
100
AcDbLine
 10
2288.904703458518
 20
1771.741488437188
 30
0.0
 11
3992.90470345852
 21
1771.741488437188
 31
0.0
  0
INSERT
  5
22C8
330
201B
100
AcDbEntity
  8
SIZE
 62
     0
 48
50.0
370
    -2
100
AcDbBlockReference
  2
_OPEN30
 10
2268.904703458517
 20
1771.741488437188
 30
0.0
 41
20.0
 42
20.0
 43
20.0
 50
180.0
  0
INSERT
  5
22C9
330
201B
100
AcDbEntity
  8
SIZE
 62
     0
 48
50.0
370
    -2
100
AcDbBlockReference
  2
_OPEN30
 10
4012.904703458519
 20
1771.741488437188
 30
0.0
 41
20.0
 42
20.0
 43
20.0
  0
MTEXT
  5
22CA
330
201B
100
AcDbEntity
  8
SIZE
 62
     0
 48
50.0
100
AcDbMText
 10
3140.904703458518
 20
1791.741488437188
 30
0.0
 40
20.0
 41
0.0
 71
     5
 72
     1
  1
\A1;1744
 73
     1
 44
1.0
1001
ACAD
1000
MTEXTBEGIN
1070
    73
1070
     1
1070
    44
1040
1.0
1070
    74
1070
     0
1000
MTEXTEND
  0
POINT
  5
22CB
330
201B
100
AcDbEntity
  8
Defpoints
 62
     0
 48
50.0
100
AcDbPoint
 10
2268.904703458517
 20
1575.998907409199
 30
0.0
  0
POINT
  5
22CC
330
201B
100
AcDbEntity
  8
Defpoints
 62
     0
 48
50.0
100
AcDbPoint
 10
4012.904703458519
 20
1575.998907407893
 30
0.0
  0
POINT
  5
22CD
330
201B
100
AcDbEntity
  8
Defpoints
 62
     0
 48
50.0
100
AcDbPoint
 10
4012.904703458519
 20
1771.741488437188
 30
0.0
  0
ENDBLK
  5
201D
330
201B
100
AcDbEntity
  8
0
100
AcDbBlockEnd
  0
BLOCK
  5
2120
330
211F
100
AcDbEntity
  8
0
100
AcDbBlockBegin
  2
*D26
 70
     1
 10
0.0
 20
0.0
 30
0.0
  3
*D26
  1

  0
LINE
  5
2122
330
211F
100
AcDbEntity
  8
SIZE
 62
     0
370
    -2
100
AcDbLine
 10
3996.404703458519
 20
1586.498907407894
 30
0.0
 11
3996.404703458519
 21
1683.142875741904
 31
0.0
  0
LINE
  5
2123
330
211F
100
AcDbEntity
  8
SIZE
 62
     0
370
    -2
100
AcDbLine
 10
3165.404703458508
 20
1586.498907407894
 30
0.0
 11
3165.404703458508
 21
1683.142875741904
 31
0.0
  0
LINE
  5
2124
330
211F
100
AcDbEntity
  8
SIZE
 62
     0
370
    -2
100
AcDbLine
 10
3976.404703458519
 20
1673.142875741904
 30
0.0
 11
3185.404703458508
 21
1673.142875741904
 31
0.0
  0
INSERT
  5
2125
330
211F
100
AcDbEntity
  8
SIZE
 62
     0
370
    -2
100
AcDbBlockReference
  2
_OPEN30
 10
3996.404703458519
 20
1673.142875741904
 30
0.0
 41
20.0
 42
20.0
 43
20.0
  0
INSERT
  5
2126
330
211F
100
AcDbEntity
  8
SIZE
 62
     0
370
    -2
100
AcDbBlockReference
  2
_OPEN30
 10
3165.404703458508
 20
1673.142875741904
 30
0.0
 41
20.0
 42
20.0
 43
20.0
 50
180.0
  0
MTEXT
  5
2127
330
211F
100
AcDbEntity
  8
SIZE
 62
     0
100
AcDbMText
 10
3580.904703458514
 20
1693.142875741903
 30
0.0
 40
20.0
 41
0.0
 71
     5
 72
     1
  1
\A1;831
 73
     1
 44
1.0
1001
ACAD
1000
MTEXTBEGIN
1070
    73
1070
     1
1070
    44
1040
1.0
1070
    74
1070
     0
1000
MTEXTEND
  0
POINT
  5
2128
330
211F
100
AcDbEntity
  8
Defpoints
 62
     0
100
AcDbPoint
 10
3996.404703458519
 20
1576.498907407894
 30
0.0
  0
POINT
  5
2129
330
211F
100
AcDbEntity
  8
Defpoints
 62
     0
100
AcDbPoint
 10
3165.404703458508
 20
1576.498907407894
 30
0.0
  0
POINT
  5
212A
330
211F
100
AcDbEntity
  8
Defpoints
 62
     0
100
AcDbPoint
 10
3165.404703458508
 20
1673.142875741904
 30
0.0
  0
ENDBLK
  5
2121
330
211F
100
AcDbEntity
  8
0
100
AcDbBlockEnd
  0
BLOCK
  5
214C
330
214B
100
AcDbEntity
  8
0
100
AcDbBlockBegin
  2
*D27
 70
     1
 10
0.0
 20
0.0
 30
0.0
  3
*D27
  1

  0
LINE
  5
22BC
330
214B
100
AcDbEntity
  8
SIZE
 62
     0
 48
50.0
370
    -2
100
AcDbLine
 10
3996.404703458519
 20
1586.498907407894
 30
0.0
 11
3996.404703458519
 21
1734.536384508107
 31
0.0
  0
LINE
  5
22BD
330
214B
100
AcDbEntity
  8
SIZE
 62
     0
 48
50.0
370
    -2
100
AcDbLine
 10
3165.404703458508
 20
1586.498907407894
 30
0.0
 11
3165.404703458508
 21
1734.536384508107
 31
0.0
  0
LINE
  5
22BE
330
214B
100
AcDbEntity
  8
SIZE
 62
     0
 48
50.0
370
    -2
100
AcDbLine
 10
3976.404703458519
 20
1724.536384508107
 30
0.0
 11
3185.404703458508
 21
1724.536384508107
 31
0.0
  0
INSERT
  5
22BF
330
214B
100
AcDbEntity
  8
SIZE
 62
     0
 48
50.0
370
    -2
100
AcDbBlockReference
  2
_OPEN30
 10
3996.404703458519
 20
1724.536384508107
 30
0.0
 41
20.0
 42
20.0
 43
20.0
  0
INSERT
  5
22C0
330
214B
100
AcDbEntity
  8
SIZE
 62
     0
 48
50.0
370
    -2
100
AcDbBlockReference
  2
_OPEN30
 10
3165.404703458508
 20
1724.536384508107
 30
0.0
 41
20.0
 42
20.0
 43
20.0
 50
180.0
  0
MTEXT
  5
22C1
330
214B
100
AcDbEntity
  8
SIZE
 62
     0
 48
50.0
100
AcDbMText
 10
3580.904703458514
 20
1744.536384508107
 30
0.0
 40
20.0
 41
0.0
 71
     5
 72
     1
  1
\A1;831
 73
     1
 44
1.0
1001
ACAD
1000
MTEXTBEGIN
1070
    73
1070
     1
1070
    44
1040
1.0
1070
    74
1070
     0
1000
MTEXTEND
  0
POINT
  5
22C2
330
214B
100
AcDbEntity
  8
Defpoints
 62
     0
 48
50.0
100
AcDbPoint
 10
3996.404703458519
 20
1576.498907407894
 30
0.0
  0
POINT
  5
22C3
330
214B
100
AcDbEntity
  8
Defpoints
 62
     0
 48
50.0
100
AcDbPoint
 10
3165.404703458508
 20
1576.498907407894
 30
0.0
  0
POINT
  5
22C4
330
214B
100
AcDbEntity
  8
Defpoints
 62
     0
 48
50.0
100
AcDbPoint
 10
3165.404703458508
 20
1724.536384508107
 30
0.0
  0
ENDBLK
  5
214D
330
214B
100
AcDbEntity
  8
0
100
AcDbBlockEnd
  0
BLOCK
  5
2159
330
2158
100
AcDbEntity
  8
0
100
AcDbBlockBegin
  2
*D28
 70
     1
 10
0.0
 20
0.0
 30
0.0
  3
*D28
  1

  0
LINE
  5
22B1
330
2158
100
AcDbEntity
  8
SIZE
 62
     0
 48
50.0
370
    -2
100
AcDbLine
 10
3165.404703458508
 20
1586.498907407894
 30
0.0
 11
3165.404703458508
 21
1734.536384508107
 31
0.0
  0
LINE
  5
22B2
330
2158
100
AcDbEntity
  8
SIZE
 62
     0
 48
50.0
370
    -2
100
AcDbLine
 10
3116.404703458523
 20
1586.498907409567
 30
0.0
 11
3116.404703458523
 21
1734.536384508107
 31
0.0
  0
LINE
  5
22B3
330
2158
100
AcDbEntity
  8
SIZE
 62
     0
 48
50.0
370
    -2
100
AcDbLine
 10
3185.404703458508
 20
1724.536384508107
 30
0.0
 11
3205.404703458508
 21
1724.536384508107
 31
0.0
  0
LINE
  5
22B4
330
2158
100
AcDbEntity
  8
SIZE
 62
     0
 48
50.0
370
    -2
100
AcDbLine
 10
3096.404703458523
 20
1724.536384508107
 30
0.0
 11
3076.404703458523
 21
1724.536384508107
 31
0.0
  0
LINE
  5
22B5
330
2158
100
AcDbEntity
  8
SIZE
 62
     0
 48
50.0
370
    -2
100
AcDbLine
 10
3165.404703458508
 20
1724.536384508107
 30
0.0
 11
3116.404703458523
 21
1724.536384508107
 31
0.0
  0
INSERT
  5
22B6
330
2158
100
AcDbEntity
  8
SIZE
 62
     0
 48
50.0
370
    -2
100
AcDbBlockReference
  2
_OPEN30
 10
3165.404703458508
 20
1724.536384508107
 30
0.0
 41
20.0
 42
20.0
 43
20.0
 50
180.0
  0
INSERT
  5
22B7
330
2158
100
AcDbEntity
  8
SIZE
 62
     0
 48
50.0
370
    -2
100
AcDbBlockReference
  2
_OPEN30
 10
3116.404703458523
 20
1724.536384508107
 30
0.0
 41
20.0
 42
20.0
 43
20.0
  0
MTEXT
  5
22B8
330
2158
100
AcDbEntity
  8
SIZE
 62
     0
 48
50.0
100
AcDbMText
 10
3140.904703458516
 20
1744.536384508107
 30
0.0
 40
20.0
 41
0.0
 71
     5
 72
     1
  1
\A1;49
 73
     1
 44
1.0
1001
ACAD
1000
MTEXTBEGIN
1070
    73
1070
     1
1070
    44
1040
1.0
1070
    74
1070
     0
1000
MTEXTEND
  0
POINT
  5
22B9
330
2158
100
AcDbEntity
  8
Defpoints
 62
     0
 48
50.0
100
AcDbPoint
 10
3165.404703458508
 20
1576.498907407894
 30
0.0
  0
POINT
  5
22BA
330
2158
100
AcDbEntity
  8
Defpoints
 62
     0
 48
50.0
100
AcDbPoint
 10
3116.404703458523
 20
1576.498907409567
 30
0.0
  0
POINT
  5
22BB
330
2158
100
AcDbEntity
  8
Defpoints
 62
     0
 48
50.0
100
AcDbPoint
 10
3116.404703458523
 20
1724.536384508107
 30
0.0
  0
ENDBLK
  5
215A
330
2158
100
AcDbEntity
  8
0
100
AcDbBlockEnd
  0
BLOCK
  5
216B
330
216A
100
AcDbEntity
  8
0
100
AcDbBlockBegin
  2
*D29
 70
     1
 10
0.0
 20
0.0
 30
0.0
  3
*D29
  1

  0
LINE
  5
22A8
330
216A
100
AcDbEntity
  8
SIZE
 62
     0
 48
50.0
370
    -2
100
AcDbLine
 10
3116.404703458523
 20
1586.498907409567
 30
0.0
 11
3116.404703458523
 21
1734.536384508107
 31
0.0
  0
LINE
  5
22A9
330
216A
100
AcDbEntity
  8
SIZE
 62
     0
 48
50.0
370
    -2
100
AcDbLine
 10
2285.404703458516
 20
1586.498907409567
 30
0.0
 11
2285.404703458516
 21
1734.536384508107
 31
0.0
  0
LINE
  5
22AA
330
216A
100
AcDbEntity
  8
SIZE
 62
     0
 48
50.0
370
    -2
100
AcDbLine
 10
3096.404703458523
 20
1724.536384508107
 30
0.0
 11
2305.404703458516
 21
1724.536384508107
 31
0.0
  0
INSERT
  5
22AB
330
216A
100
AcDbEntity
  8
SIZE
 62
     0
 48
50.0
370
    -2
100
AcDbBlockReference
  2
_OPEN30
 10
3116.404703458523
 20
1724.536384508107
 30
0.0
 41
20.0
 42
20.0
 43
20.0
  0
INSERT
  5
22AC
330
216A
100
AcDbEntity
  8
SIZE
 62
     0
 48
50.0
370
    -2
100
AcDbBlockReference
  2
_OPEN30
 10
2285.404703458516
 20
1724.536384508107
 30
0.0
 41
20.0
 42
20.0
 43
20.0
 50
180.0
  0
MTEXT
  5
22AD
330
216A
100
AcDbEntity
  8
SIZE
 62
     0
 48
50.0
100
AcDbMText
 10
2700.904703458519
 20
1744.536384508107
 30
0.0
 40
20.0
 41
0.0
 71
     5
 72
     1
  1
\A1;831
 73
     1
 44
1.0
1001
ACAD
1000
MTEXTBEGIN
1070
    73
1070
     1
1070
    44
1040
1.0
1070
    74
1070
     0
1000
MTEXTEND
  0
POINT
  5
22AE
330
216A
100
AcDbEntity
  8
Defpoints
 62
     0
 48
50.0
100
AcDbPoint
 10
3116.404703458523
 20
1576.498907409567
 30
0.0
  0
POINT
  5
22AF
330
216A
100
AcDbEntity
  8
Defpoints
 62
     0
 48
50.0
100
AcDbPoint
 10
2285.404703458516
 20
1576.498907409567
 30
0.0
  0
POINT
  5
22B0
330
216A
100
AcDbEntity
  8
Defpoints
 62
     0
 48
50.0
100
AcDbPoint
 10
2285.404703458516
 20
1724.536384508107
 30
0.0
  0
ENDBLK
  5
216C
330
216A
100
AcDbEntity
  8
0
100
AcDbBlockEnd
  0
ENDSEC
  0
SECTION
  2
ENTITIES
  0
MTEXT
  5
B60
330
2
100
AcDbEntity
  8
ETC
 48
50.0
100
AcDbMText
 10
2875.156905874662
 20
1875.771777088642
 30
0.0
 40
40.0
 41
651.9792552343242
 71
     1
 72
     5
  1
AG1S-KS77TD-1
 73
     1
 44
1.0
1001
ACAD
1000
MTEXTBEGIN
1070
    73
1070
     1
1070
    44
1040
1.0
1070
    74
1070
     0
1000
MTEXTEND
  0
DIMENSION
  5
15AD
330
2
100
AcDbEntity
  8
SIZE
 48
50.0
100
AcDbDimension
  2
*D16
 10
2142.975705051977
 20
1629.998912144858
 30
0.0
 11
2142.975705051977
 21
1262.998912144858
 31
0.0
 70
   160
 71
     5
 42
734.0
  3
STANDARD
100
AcDbAlignedDimension
 13
2297.904703458519
 23
895.9989121448582
 33
0.0
 14
2327.904703458523
 24
1629.998912144858
 34
0.0
 50
90.0
100
AcDbRotatedDimension
1001
ACAD
1000
DSTYLE
1002
{
1070
    40
1040
10.0
1070
    45
1040
0.5
1070
    90
1070
     1
1070
   271
1070
     1
1070
   272
1070
     1
1002
}
  0
LINE
  5
1CF6
330
2
100
AcDbEntity
  8
OUTLINE
 48
50.0
100
AcDbLine
 10
3954.904703458521
 20
1614.448345721327
 30
0.0
 11
3954.904703458521
 21
1614.998907407893
 31
0.0
  0
LINE
  5
1CF7
330
2
100
AcDbEntity
  8
OUTLINE
 48
50.0
100
AcDbLine
 10
3954.904703458521
 20
1614.998907407893
 30
0.0
 11
3984.90470345852
 21
1614.998907407893
 31
0.0
  0
LINE
  5
1CF8
330
2
100
AcDbEntity
  8
OUTLINE
 48
50.0
100
AcDbLine
 10
3984.90470345852
 20
910.9989074078931
 30
0.0
 11
3984.90470345852
 21
1614.998907407893
 31
0.0
  0
LINE
  5
1CF9
330
2
100
AcDbEntity
  8
OUTLINE
 48
50.0
100
AcDbLine
 10
3983.904703458522
 20
910.9989074078931
 30
0.0
 11
3984.90470345852
 21
910.9989074078931
 31
0.0
  0
LINE
  5
1CFA
330
2
100
AcDbEntity
  8
OUTLINE
 48
50.0
100
AcDbLine
 10
4012.904703458519
 20
1575.998907407893
 30
0.0
 11
3984.90470345852
 21
1612.688562580307
 31
0.0
  0
LINE
  5
1CFB
330
2
100
AcDbEntity
  8
OUTLINE
 48
50.0
100
AcDbLine
 10
4012.904703458519
 20
949.9989074078934
 30
0.0
 11
4012.904703458519
 21
1575.998907407893
 31
0.0
  0
LINE
  5
1CFC
330
2
100
AcDbEntity
  8
OUTLINE
 48
50.0
100
AcDbLine
 10
3995.404703458521
 20
1566.498907407893
 30
0.0
 11
3997.404703458521
 21
1566.498907407893
 31
0.0
  0
LINE
  5
1CFD
330
2
100
AcDbEntity
  8
OUTLINE
 48
50.0
100
AcDbLine
 10
3997.404703458521
 20
1559.498907407893
 30
0.0
 11
3995.404703458521
 21
1559.498907407893
 31
0.0
  0
LINE
  5
1CFE
330
2
100
AcDbEntity
  8
OUTLINE
 48
50.0
100
AcDbLine
 10
3997.404703458521
 20
1409.498907407893
 30
0.0
 11
3995.404703458521
 21
1409.498907407893
 31
0.0
  0
LINE
  5
1CFF
330
2
100
AcDbEntity
  8
OUTLINE
 48
50.0
100
AcDbLine
 10
3995.404703458521
 20
1416.498907407893
 30
0.0
 11
3997.404703458521
 21
1416.498907407893
 31
0.0
  0
LINE
  5
1D00
330
2
100
AcDbEntity
  8
OUTLINE
 48
50.0
100
AcDbLine
 10
3997.404703458521
 20
1259.498907407893
 30
0.0
 11
3995.404703458521
 21
1259.498907407893
 31
0.0
  0
LINE
  5
1D01
330
2
100
AcDbEntity
  8
OUTLINE
 48
50.0
100
AcDbLine
 10
3995.404703458521
 20
1266.498907407893
 30
0.0
 11
3997.404703458521
 21
1266.498907407893
 31
0.0
  0
LINE
  5
1D02
330
2
100
AcDbEntity
  8
OUTLINE
 48
50.0
100
AcDbLine
 10
3997.404703458521
 20
1109.498907407893
 30
0.0
 11
3995.404703458521
 21
1109.498907407893
 31
0.0
  0
LINE
  5
1D03
330
2
100
AcDbEntity
  8
OUTLINE
 48
50.0
100
AcDbLine
 10
3995.404703458521
 20
1116.498907407893
 30
0.0
 11
3997.404703458521
 21
1116.498907407893
 31
0.0
  0
LINE
  5
1D04
330
2
100
AcDbEntity
  8
OUTLINE
 48
50.0
100
AcDbLine
 10
3997.404703458521
 20
959.4989074078934
 30
0.0
 11
3995.404703458521
 21
959.4989074078934
 31
0.0
  0
LINE
  5
1D05
330
2
100
AcDbEntity
  8
OUTLINE
 48
50.0
100
AcDbLine
 10
3995.404703458521
 20
966.4989074078931
 30
0.0
 11
3997.404703458521
 21
966.4989074078931
 31
0.0
  0
LINE
  5
1D06
330
2
100
AcDbEntity
  8
OUTLINE
 48
50.0
100
AcDbLine
 10
3984.90470345852
 20
913.3092522354795
 30
0.0
 11
4012.904703458519
 21
949.9989074078932
 31
0.0
  0
ELLIPSE
  5
1D07
330
2
100
AcDbEntity
  8
OUTLINE
 48
50.0
100
AcDbEllipse
 10
3969.904703458521
 20
920.0214876009107
 30
0.0
 11
-2.0
 21
0.0000000000000008
 31
0.0
210
0.0
220
0.0
230
1.0
 40
0.8657348311141284
 41
3.286631885695781
 42
6.138146075073596
  0
ELLIPSE
  5
1D08
330
2
100
AcDbEntity
  8
OUTLINE
 48
50.0
100
AcDbEllipse
 10
3969.904703458521
 20
920.5219905501483
 30
0.0
 11
2.0
 21
-0.0000000000000008
 31
0.0
210
0.0
220
0.0
230
1.0
 40
0.8657348311141284
 41
5.306865638773731
 42
10.40109762917195
  0
ELLIPSE
  5
1D09
330
2
100
AcDbEntity
  8
OUTLINE
 48
50.0
100
AcDbEllipse
 10
3969.904703458521
 20
1091.071752279633
 30
0.0
 11
2.0
 21
-0.0000000000000008
 31
0.0
210
0.0
220
0.0
230
1.0
 40
0.8657348311141284
 41
5.306865638766615
 42
10.40109762917907
  0
ELLIPSE
  5
1D0A
330
2
100
AcDbEntity
  8
OUTLINE
 48
50.0
100
AcDbEllipse
 10
3969.904703458521
 20
1090.571249330396
 30
0.0
 11
-2.0
 21
0.0000000000000008
 31
0.0
210
0.0
220
0.0
230
1.0
 40
0.8657348311141284
 41
3.286631885695808
 42
6.138146075073572
  0
ELLIPSE
  5
1D0B
330
2
100
AcDbEntity
  8
OUTLINE
 48
50.0
100
AcDbEllipse
 10
3969.904703458521
 20
1261.621514009113
 30
0.0
 11
2.0
 21
-0.0000000000000008
 31
0.0
210
0.0
220
0.0
230
1.0
 40
0.8657348311141284
 41
5.306865638781411
 42
10.40109762916426
  0
ELLIPSE
  5
1D0C
330
2
100
AcDbEntity
  8
OUTLINE
 48
50.0
100
AcDbEllipse
 10
3969.904703458521
 20
1261.121011059875
 30
0.0
 11
-2.0
 21
0.0000000000000008
 31
0.0
210
0.0
220
0.0
230
1.0
 40
0.8657348311141284
 41
3.286631885695963
 42
6.138146075073417
  0
ELLIPSE
  5
1D0D
330
2
100
AcDbEntity
  8
OUTLINE
 48
50.0
100
AcDbEllipse
 10
3969.904703458521
 20
1432.171275738595
 30
0.0
 11
2.0
 21
-0.0000000000000008
 31
0.0
210
0.0
220
0.0
230
1.0
 40
0.8657348311141284
 41
5.306865638780315
 42
10.40109762916536
  0
ELLIPSE
  5
1D0E
330
2
100
AcDbEntity
  8
OUTLINE
 48
50.0
100
AcDbEllipse
 10
3969.904703458521
 20
1431.670772789359
 30
0.0
 11
-2.0
 21
0.0000000000000008
 31
0.0
210
0.0
220
0.0
230
1.0
 40
0.8657348311141284
 41
3.286631885696015
 42
6.138146075073365
  0
ELLIPSE
  5
1D0F
330
2
100
AcDbEntity
  8
OUTLINE
 48
50.0
100
AcDbEllipse
 10
3969.904703458521
 20
1602.721037468084
 30
0.0
 11
2.0
 21
-0.0000000000000008
 31
0.0
210
0.0
220
0.0
230
1.0
 40
0.8657348311141284
 41
5.306865638763316
 42
10.4010976291791
  0
ELLIPSE
  5
1D10
330
2
100
AcDbEntity
  8
OUTLINE
 48
50.0
100
AcDbEllipse
 10
3969.904703458521
 20
1602.220534518846
 30
0.0
 11
-2.0
 21
0.0000000000000008
 31
0.0
210
0.0
220
0.0
230
1.0
 40
0.8657348311141284
 41
3.286631885695836
 42
6.138146075073542
  0
ARC
  5
1D11
330
2
100
AcDbEntity
  8
OUTLINE
 48
50.0
100
AcDbCircle
 10
3997.404703458521
 20
1562.998907407893
 30
0.0
 40
3.5
100
AcDbArc
 50
270.0
 51
90.0
  0
ARC
  5
1D12
330
2
100
AcDbEntity
  8
OUTLINE
 48
50.0
100
AcDbCircle
 10
3995.404703458521
 20
1562.998907407894
 30
0.0
 40
3.5
100
AcDbArc
 50
90.0
 51
270.0
  0
ARC
  5
1D13
330
2
100
AcDbEntity
  8
OUTLINE
 48
50.0
100
AcDbCircle
 10
3995.404703458521
 20
1412.998907407894
 30
0.0
 40
3.5
100
AcDbArc
 50
90.0
 51
270.0
  0
ARC
  5
1D14
330
2
100
AcDbEntity
  8
OUTLINE
 48
50.0
100
AcDbCircle
 10
3997.404703458521
 20
1412.998907407893
 30
0.0
 40
3.5
100
AcDbArc
 50
270.0
 51
90.0
  0
ARC
  5
1D15
330
2
100
AcDbEntity
  8
OUTLINE
 48
50.0
100
AcDbCircle
 10
3995.404703458521
 20
1262.998907407894
 30
0.0
 40
3.5
100
AcDbArc
 50
90.0
 51
270.0
  0
ARC
  5
1D16
330
2
100
AcDbEntity
  8
OUTLINE
 48
50.0
100
AcDbCircle
 10
3997.404703458521
 20
1262.998907407893
 30
0.0
 40
3.5
100
AcDbArc
 50
270.0
 51
90.0
  0
ARC
  5
1D17
330
2
100
AcDbEntity
  8
OUTLINE
 48
50.0
100
AcDbCircle
 10
3995.404703458521
 20
1112.998907407894
 30
0.0
 40
3.5
100
AcDbArc
 50
90.0
 51
270.0
  0
ARC
  5
1D18
330
2
100
AcDbEntity
  8
OUTLINE
 48
50.0
100
AcDbCircle
 10
3997.404703458521
 20
1112.998907407893
 30
0.0
 40
3.5
100
AcDbArc
 50
270.0
 51
90.0
  0
ARC
  5
1D19
330
2
100
AcDbEntity
  8
OUTLINE
 48
50.0
100
AcDbCircle
 10
3995.404703458521
 20
962.9989074078936
 30
0.0
 40
3.5
100
AcDbArc
 50
90.0
 51
270.0
  0
ARC
  5
1D1A
330
2
100
AcDbEntity
  8
OUTLINE
 48
50.0
100
AcDbCircle
 10
3997.404703458521
 20
962.9989074078931
 30
0.0
 40
3.5
100
AcDbArc
 50
270.0
 51
90.0
  0
LINE
  5
1D1B
330
2
100
AcDbEntity
  8
OUTLINE
  6
HIDDEN
 48
50.0
100
AcDbLine
 10
3168.904703458518
 20
915.9989074078934
 30
0.0
 11
3169.404703458518
 21
915.9989074078934
 31
0.0
  0
LINE
  5
1D1C
330
2
100
AcDbEntity
  8
OUTLINE
  6
HIDDEN
 48
50.0
100
AcDbLine
 10
3141.904703458522
 20
1609.998907407894
 30
0.0
 11
3141.904703458525
 21
915.9989074078934
 31
0.0
  0
LINE
  5
1D1D
330
2
100
AcDbEntity
  8
OUTLINE
  6
HIDDEN
 48
50.0
100
AcDbLine
 10
3168.904703458519
 20
1609.998907407893
 30
0.0
 11
3169.404703458519
 21
1609.998907407893
 31
0.0
  0
LINE
  5
1D1E
330
2
100
AcDbEntity
  8
OUTLINE
 48
50.0
100
AcDbLine
 10
3169.904703458522
 20
1614.448345721328
 30
0.0
 11
3169.904703458522
 21
1614.499410357131
 31
0.0
  0
LINE
  5
1D1F
330
2
100
AcDbEntity
  8
OUTLINE
 48
50.0
100
AcDbLine
 10
3140.904703458522
 20
1610.119671566805
 30
0.0
 11
3140.904703458522
 21
1614.998907407893
 31
0.0
  0
LINE
  5
1D20
330
2
100
AcDbEntity
  8
OUTLINE
 48
50.0
100
AcDbLine
 10
3140.904703458522
 20
1614.998907407893
 30
0.0
 11
3141.904703458522
 21
1614.998907407893
 31
0.0
  0
LINE
  5
1D21
330
2
100
AcDbEntity
  8
OUTLINE
 48
50.0
100
AcDbLine
 10
3141.904703458522
 20
1614.499410357131
 30
0.0
 11
3141.904703458522
 21
1614.998907407893
 31
0.0
  0
LINE
  5
1D22
330
2
100
AcDbEntity
  8
OUTLINE
 48
50.0
100
AcDbLine
 10
3141.904703458522
 20
1614.499410357131
 30
0.0
 11
3168.904703458523
 21
1614.499410357131
 31
0.0
  0
LINE
  5
1D23
330
2
100
AcDbEntity
  8
OUTLINE
 48
50.0
100
AcDbLine
 10
3141.904703458522
 20
1614.998907407893
 30
0.0
 11
3168.904703458523
 21
1614.998907407893
 31
0.0
  0
LINE
  5
1D24
330
2
100
AcDbEntity
  8
OUTLINE
 48
50.0
100
AcDbLine
 10
3168.904703458523
 20
1614.998907407893
 30
0.0
 11
3169.904703458522
 21
1614.998907407893
 31
0.0
  0
LINE
  5
1D25
330
2
100
AcDbEntity
  8
OUTLINE
 48
50.0
100
AcDbLine
 10
3169.904703458522
 20
1614.998907407893
 30
0.0
 11
3169.904703458522
 21
1614.499410357131
 31
0.0
  0
LINE
  5
1D26
330
2
100
AcDbEntity
  8
OUTLINE
 48
50.0
100
AcDbLine
 10
3168.904703458523
 20
1614.499410357131
 30
0.0
 11
3169.904703458522
 21
1614.499410357131
 31
0.0
  0
LINE
  5
1D27
330
2
100
AcDbEntity
  8
OUTLINE
 48
50.0
100
AcDbLine
 10
3168.904703458523
 20
1614.998907407893
 30
0.0
 11
3168.904703458523
 21
1614.499410357131
 31
0.0
  0
LINE
  5
1D28
330
2
100
AcDbEntity
  8
OUTLINE
  6
HIDDEN
 48
50.0
100
AcDbLine
 10
3169.904703458519
 20
1609.498907407893
 30
0.0
 11
3169.404703458519
 21
1609.998907407893
 31
0.0
  0
LINE
  5
1D29
330
2
100
AcDbEntity
  8
OUTLINE
  6
HIDDEN
 48
50.0
100
AcDbLine
 10
3141.904703458518
 20
915.9989074078934
 30
0.0
 11
3168.904703458518
 21
915.9989074078934
 31
0.0
  0
LINE
  5
1D2A
330
2
100
AcDbEntity
  8
OUTLINE
  6
HIDDEN
 48
50.0
100
AcDbLine
 10
3141.90470345852
 20
1609.998907407893
 30
0.0
 11
3168.904703458519
 21
1609.998907407893
 31
0.0
  0
LINE
  5
1D2B
330
2
100
AcDbEntity
  8
OUTLINE
  6
HIDDEN
 48
50.0
100
AcDbLine
 10
3169.904703458519
 20
1609.498907407893
 30
0.0
 11
3181.904703458519
 21
1597.498907407893
 31
0.0
  0
LINE
  5
1D2C
330
2
100
AcDbEntity
  8
OUTLINE
  6
HIDDEN
 48
50.0
100
AcDbLine
 10
3181.904703458519
 20
1508.998907407893
 30
0.0
 11
3181.904703458519
 21
1597.498907407893
 31
0.0
  0
LINE
  5
1D2D
330
2
100
AcDbEntity
  8
OUTLINE
  6
HIDDEN
 48
50.0
100
AcDbLine
 10
3150.90470345852
 20
1477.998907407893
 30
0.0
 11
3181.904703458519
 21
1508.998907407893
 31
0.0
  0
LINE
  5
1D2E
330
2
100
AcDbEntity
  8
OUTLINE
  6
HIDDEN
 48
50.0
100
AcDbLine
 10
3150.90470345852
 20
1077.998907407893
 30
0.0
 11
3150.90470345852
 21
1477.998907407893
 31
0.0
  0
LINE
  5
1D2F
330
2
100
AcDbEntity
  8
OUTLINE
  6
HIDDEN
 48
50.0
100
AcDbLine
 10
3181.904703458519
 20
1046.998907407893
 30
0.0
 11
3150.90470345852
 21
1077.998907407893
 31
0.0
  0
LINE
  5
1D30
330
2
100
AcDbEntity
  8
OUTLINE
  6
HIDDEN
 48
50.0
100
AcDbLine
 10
3181.904703458519
 20
928.4989074078934
 30
0.0
 11
3181.904703458519
 21
1046.998907407893
 31
0.0
  0
LINE
  5
1D31
330
2
100
AcDbEntity
  8
OUTLINE
  6
HIDDEN
 48
50.0
100
AcDbLine
 10
3169.404703458518
 20
915.9989074078934
 30
0.0
 11
3169.904703458519
 21
916.4989074078931
 31
0.0
  0
LINE
  5
1D32
330
2
100
AcDbEntity
  8
OUTLINE
  6
HIDDEN
 48
50.0
100
AcDbLine
 10
3181.904703458518
 20
928.4989074078936
 30
0.0
 11
3169.904703458519
 21
916.4989074078937
 31
0.0
  0
ELLIPSE
  5
1D33
330
2
100
AcDbEntity
  8
OUTLINE
 48
50.0
100
AcDbEllipse
 10
3154.904703458526
 20
920.0214876009107
 30
0.0
 11
-2.25
 21
0.0000000000000346
 31
0.0
210
0.0
220
0.0
230
1.0
 40
0.8657348311141229
 41
3.270420934828041
 42
6.154357025941346
  0
ELLIPSE
  5
1D34
330
2
100
AcDbEntity
  8
OUTLINE
 48
50.0
100
AcDbEllipse
 10
3154.904703458525
 20
1090.571249330394
 30
0.0
 11
-2.25
 21
0.0000000000000346
 31
0.0
210
0.0
220
0.0
230
1.0
 40
0.8657348311141229
 41
3.270420934828053
 42
6.154357025941282
  0
ELLIPSE
  5
1D35
330
2
100
AcDbEntity
  8
OUTLINE
 48
50.0
100
AcDbEllipse
 10
3154.904703458524
 20
1261.121011059877
 30
0.0
 11
-2.25
 21
0.0000000000000346
 31
0.0
210
0.0
220
0.0
230
1.0
 40
0.8657348311141229
 41
3.270420934828103
 42
6.154357025941257
  0
ELLIPSE
  5
1D36
330
2
100
AcDbEntity
  8
OUTLINE
 48
50.0
100
AcDbEllipse
 10
3154.904703458524
 20
1431.670772789361
 30
0.0
 11
-2.25
 21
0.0000000000000346
 31
0.0
210
0.0
220
0.0
230
1.0
 40
0.8657348311141229
 41
3.270420934828055
 42
6.154357025941326
  0
ELLIPSE
  5
1D37
330
2
100
AcDbEntity
  8
OUTLINE
 48
50.0
100
AcDbEllipse
 10
3154.904703458523
 20
1602.220534518844
 30
0.0
 11
-2.25
 21
0.0000000000000346
 31
0.0
210
0.0
220
0.0
230
1.0
 40
0.8657348311141229
 41
3.270420934828083
 42
6.154357025941356
  0
ELLIPSE
  5
1D38
330
2
100
AcDbEntity
  8
OUTLINE
 48
50.0
100
AcDbEllipse
 10
3154.904703458523
 20
1602.721037468082
 30
0.0
 11
2.25
 21
-0.0000000000000346
 31
0.0
210
0.0
220
0.0
230
1.0
 40
0.8657348311141287
 41
5.949016325438612
 42
9.758946942513636
  0
ELLIPSE
  5
1D39
330
2
100
AcDbEntity
  8
OUTLINE
 48
50.0
100
AcDbEllipse
 10
3154.904703458524
 20
1432.171275738598
 30
0.0
 11
2.25
 21
-0.0000000000000346
 31
0.0
210
0.0
220
0.0
230
1.0
 40
0.8657348311141287
 41
5.949016325441607
 42
9.75894694251667
  0
ELLIPSE
  5
1D3A
330
2
100
AcDbEntity
  8
OUTLINE
 48
50.0
100
AcDbEllipse
 10
3154.904703458524
 20
1261.621514009115
 30
0.0
 11
2.25
 21
-0.0000000000000346
 31
0.0
210
0.0
220
0.0
230
1.0
 40
0.8657348311141287
 41
5.949016325443325
 42
9.75894694251813
  0
ELLIPSE
  5
1D3B
330
2
100
AcDbEntity
  8
OUTLINE
 48
50.0
100
AcDbEllipse
 10
3154.904703458525
 20
1091.071752279632
 30
0.0
 11
2.25
 21
-0.0000000000000346
 31
0.0
210
0.0
220
0.0
230
1.0
 40
0.8657348311141287
 41
5.949016325444872
 42
9.758946942519855
  0
ELLIPSE
  5
1D3C
330
2
100
AcDbEntity
  8
OUTLINE
 48
50.0
100
AcDbEllipse
 10
3154.904703458526
 20
920.5219905501486
 30
0.0
 11
2.25
 21
-0.0000000000000346
 31
0.0
210
0.0
220
0.0
230
1.0
 40
0.8657348311141287
 41
5.94901632544638
 42
9.758946942521381
  0
CIRCLE
  5
1D3D
330
2
100
AcDbEntity
  8
OUTLINE
 48
50.0
100
AcDbCircle
 10
3165.404703458519
 20
962.9989074078936
 30
0.0
 40
3.5
  0
CIRCLE
  5
1D3E
330
2
100
AcDbEntity
  8
OUTLINE
 48
50.0
100
AcDbCircle
 10
3165.404703458519
 20
1562.998907407893
 30
0.0
 40
3.5
  0
LINE
  5
1D3F
330
2
100
AcDbEntity
  8
OUTLINE
 48
50.0
100
AcDbLine
 10
3170.904703458522
 20
1629.998907407894
 30
0.0
 11
3953.904703458522
 21
1629.998907407894
 31
0.0
  0
LINE
  5
1D40
330
2
100
AcDbEntity
  8
OUTLINE
 48
50.0
100
AcDbLine
 10
3170.904703458522
 20
1614.998907407893
 30
0.0
 11
3953.904703458522
 21
1614.998907407893
 31
0.0
  0
LINE
  5
1D41
330
2
100
AcDbEntity
  8
OUTLINE
 48
50.0
100
AcDbLine
 10
3170.904703458522
 20
1629.998907407894
 30
0.0
 11
3170.904703458522
 21
1614.998907407893
 31
0.0
  0
LINE
  5
1D42
330
2
100
AcDbEntity
  8
OUTLINE
 48
50.0
100
AcDbLine
 10
3170.904703458522
 20
1614.998907407893
 30
0.0
 11
3170.904703458522
 21
1614.448345721329
 31
0.0
  0
LINE
  5
1D43
330
2
100
AcDbEntity
  8
OUTLINE
 48
50.0
100
AcDbLine
 10
3954.904703458521
 20
1614.998907407893
 30
0.0
 11
3953.904703458522
 21
1614.998907407893
 31
0.0
  0
LINE
  5
1D44
330
2
100
AcDbEntity
  8
OUTLINE
 48
50.0
100
AcDbLine
 10
3953.904703458522
 20
1629.998907407894
 30
0.0
 11
3954.904703458522
 21
1629.998907407894
 31
0.0
  0
LINE
  5
1D45
330
2
100
AcDbEntity
  8
OUTLINE
 48
50.0
100
AcDbLine
 10
3954.904703458522
 20
1629.998907407894
 30
0.0
 11
3954.904703458522
 21
1615.998907407893
 31
0.0
  0
LINE
  5
1D46
330
2
100
AcDbEntity
  8
OUTLINE
 48
50.0
100
AcDbLine
 10
3978.904703458522
 20
1615.998907407893
 30
0.0
 11
3978.904703458522
 21
1614.998907407893
 31
0.0
  0
LINE
  5
1D47
330
2
100
AcDbEntity
  8
OUTLINE
 48
50.0
100
AcDbLine
 10
3983.904703458522
 20
1614.998907407893
 30
0.0
 11
3983.904703458522
 21
1615.998907407893
 31
0.0
  0
LINE
  5
1D48
330
2
100
AcDbEntity
  8
OUTLINE
 48
50.0
100
AcDbLine
 10
3169.904703458522
 20
1615.998907407893
 30
0.0
 11
3169.904703458522
 21
1629.998907407894
 31
0.0
  0
LINE
  5
1D49
330
2
100
AcDbEntity
  8
OUTLINE
 48
50.0
100
AcDbLine
 10
3169.904703458522
 20
1629.998907407894
 30
0.0
 11
3170.904703458522
 21
1629.998907407894
 31
0.0
  0
LINE
  5
1D4A
330
2
100
AcDbEntity
  8
OUTLINE
 48
50.0
100
AcDbLine
 10
3145.904703458521
 20
1614.998907407893
 30
0.0
 11
3145.904703458521
 21
1615.998907407893
 31
0.0
  0
LINE
  5
1D4B
330
2
100
AcDbEntity
  8
OUTLINE
 48
50.0
100
AcDbLine
 10
3170.904703458522
 20
1614.998907407893
 30
0.0
 11
3169.904703458522
 21
1614.998907407893
 31
0.0
  0
LINE
  5
1D4C
330
2
100
AcDbEntity
  8
OUTLINE
 48
50.0
100
AcDbLine
 10
3140.904703458522
 20
1615.998907407893
 30
0.0
 11
3140.904703458522
 21
1614.998907407893
 31
0.0
  0
LINE
  5
1D4D
330
2
100
AcDbEntity
  8
OUTLINE
 48
50.0
100
AcDbLine
 10
3953.904703458522
 20
1614.448345721327
 30
0.0
 11
3953.904703458522
 21
1614.998907407893
 31
0.0
  0
LINE
  5
1D4E
330
2
100
AcDbEntity
  8
OUTLINE
 48
50.0
100
AcDbLine
 10
3953.904703458522
 20
1614.998907407893
 30
0.0
 11
3953.904703458522
 21
1629.998907407894
 31
0.0
  0
LINE
  5
1D4F
330
2
100
AcDbEntity
  8
OUTLINE
 48
50.0
100
AcDbLine
 10
3145.904703458521
 20
1615.998907407893
 30
0.0
 11
3169.904703458522
 21
1615.998907407893
 31
0.0
  0
LINE
  5
1D50
330
2
100
AcDbEntity
  8
OUTLINE
 48
50.0
100
AcDbLine
 10
3145.904703458521
 20
1615.998907407893
 30
0.0
 11
3140.904703458522
 21
1615.998907407893
 31
0.0
  0
LINE
  5
1D51
330
2
100
AcDbEntity
  8
OUTLINE
 48
50.0
100
AcDbLine
 10
3983.904703458522
 20
1615.998907407893
 30
0.0
 11
3978.904703458522
 21
1615.998907407893
 31
0.0
  0
LINE
  5
1D52
330
2
100
AcDbEntity
  8
OUTLINE
 48
50.0
100
AcDbLine
 10
3954.904703458522
 20
1615.998907407893
 30
0.0
 11
3978.904703458522
 21
1615.998907407893
 31
0.0
  0
ELLIPSE
  5
1D53
330
2
100
AcDbEntity
  8
OUTLINE
 48
50.0
100
AcDbEllipse
 10
3703.404703458522
 20
1592.482246909498
 30
0.0
 11
2.0
 21
-0.0000000000000214
 31
0.0
210
0.0
220
0.0
230
1.0
 40
0.866025403784439
 41
0.0000000000000127
 42
6.283185307179597
  0
ELLIPSE
  5
1D54
330
2
100
AcDbEntity
  8
OUTLINE
 48
50.0
100
AcDbEllipse
 10
3703.404703458522
 20
1591.982246909498
 30
0.0
 11
-2.0
 21
0.0000000000000214
 31
0.0
210
0.0
220
0.0
230
1.0
 40
0.866025403784439
 41
3.286436150588496
 42
6.138341810180876
  0
ELLIPSE
  5
1D55
330
2
100
AcDbEntity
  8
OUTLINE
 48
50.0
100
AcDbEllipse
 10
3421.404703458521
 20
1592.482246909498
 30
0.0
 11
2.0
 21
-0.0000000000000214
 31
0.0
210
0.0
220
0.0
230
1.0
 40
0.866025403784439
 41
0.0000000000000127
 42
6.283185307179597
  0
ELLIPSE
  5
1D56
330
2
100
AcDbEntity
  8
OUTLINE
 48
50.0
100
AcDbEllipse
 10
3421.404703458521
 20
1591.982246909498
 30
0.0
 11
-2.0
 21
0.0000000000000214
 31
0.0
210
0.0
220
0.0
230
1.0
 40
0.866025403784439
 41
3.286436150588496
 42
6.138341810180876
  0
LINE
  5
1D57
330
2
100
AcDbEntity
  8
OUTLINE
 48
50.0
100
AcDbLine
 10
3983.904703458522
 20
895.4999939094072
 30
0.0
 11
3983.904703458522
 21
895.4825683148488
 31
0.0
  0
LINE
  5
1D58
330
2
100
AcDbEntity
  8
OUTLINE
 48
50.0
100
AcDbLine
 10
3983.904703458522
 20
909.7679406949032
 30
0.0
 11
3983.904703458522
 21
895.4999939094072
 31
0.0
  0
LINE
  5
1D59
330
2
100
AcDbEntity
  8
OUTLINE
 48
50.0
100
AcDbLine
 10
3983.904703458522
 20
895.4999939094072
 30
0.0
 11
3140.904703458521
 21
895.4999939094085
 31
0.0
  0
LINE
  5
1D5A
330
2
100
AcDbEntity
  8
OUTLINE
 48
50.0
100
AcDbLine
 10
3140.904703458521
 20
909.767940694904
 30
0.0
 11
3140.904703458521
 21
895.4999939094083
 31
0.0
  0
LINE
  5
1D5B
330
2
100
AcDbEntity
  8
OUTLINE
 48
50.0
100
AcDbLine
 10
3978.904703458521
 20
1614.448345721327
 30
0.0
 11
3983.904703458522
 21
1610.119671565756
 31
0.0
  0
LINE
  5
1D5C
330
2
100
AcDbEntity
  8
OUTLINE
 48
50.0
100
AcDbLine
 10
3983.904703458522
 20
1610.119671565756
 30
0.0
 11
3983.904703458519
 21
909.7679406949032
 31
0.0
  0
LINE
  5
1D5D
330
2
100
AcDbEntity
  8
OUTLINE
 48
50.0
100
AcDbLine
 10
3983.904703458522
 20
909.7679406949032
 30
0.0
 11
3140.904703458521
 21
909.7679406949044
 31
0.0
  0
LINE
  5
1D5E
330
2
100
AcDbEntity
  8
OUTLINE
 48
50.0
100
AcDbLine
 10
3140.904703458522
 20
1610.119671565757
 30
0.0
 11
3140.904703458519
 21
909.767940694904
 31
0.0
  0
LINE
  5
1D5F
330
2
100
AcDbEntity
  8
OUTLINE
 48
50.0
100
AcDbLine
 10
3978.904703458522
 20
1614.448345721327
 30
0.0
 11
3145.904703458521
 21
1614.448345721327
 31
0.0
  0
LINE
  5
1D60
330
2
100
AcDbEntity
  8
OUTLINE
 48
50.0
100
AcDbLine
 10
3140.904703458521
 20
1610.119671565757
 30
0.0
 11
3145.904703458521
 21
1614.448345721327
 31
0.0
  0
LINE
  5
1D61
330
2
100
AcDbEntity
  8
OUTLINE
 48
50.0
100
AcDbLine
 10
3983.904703458522
 20
895.4825683148488
 30
0.0
 11
3140.904703458521
 21
895.48256831485
 31
0.0
  0
ELLIPSE
  5
1D62
330
2
100
AcDbEntity
  8
OUTLINE
 48
50.0
100
AcDbEllipse
 10
3932.404703458522
 20
1260.728031677525
 30
0.0
 11
-2.049999999999998
 21
0.0000000000000008
 31
0.0
210
0.0
220
0.0
230
1.0
 40
0.8657348311141287
 41
3.283070246140864
 42
6.141707714628394
  0
ELLIPSE
  5
1D63
330
2
100
AcDbEntity
  8
OUTLINE
 48
50.0
100
AcDbEllipse
 10
3747.404703458521
 20
1255.53362269084
 30
0.0
 11
-2.049999999999998
 21
0.0000000000000008
 31
0.0
210
0.0
220
0.0
230
1.0
 40
0.8657348311141287
 41
3.283070246140915
 42
6.141707714628366
  0
ELLIPSE
  5
1D64
330
2
100
AcDbEntity
  8
OUTLINE
 48
50.0
100
AcDbEllipse
 10
3562.404703458521
 20
1260.728031677525
 30
0.0
 11
-2.049999999999998
 21
0.0000000000000008
 31
0.0
210
0.0
220
0.0
230
1.0
 40
0.8657348311141287
 41
3.283070246140915
 42
6.141707714628366
  0
ELLIPSE
  5
1D65
330
2
100
AcDbEntity
  8
OUTLINE
 48
50.0
100
AcDbEllipse
 10
3377.404703458521
 20
1255.533622690841
 30
0.0
 11
-2.049999999999998
 21
0.0000000000000008
 31
0.0
210
0.0
220
0.0
230
1.0
 40
0.8657348311141287
 41
3.283070246140915
 42
6.141707714628366
  0
ELLIPSE
  5
1D66
330
2
100
AcDbEntity
  8
OUTLINE
 48
50.0
100
AcDbEllipse
 10
3192.404703458521
 20
1260.728031677525
 30
0.0
 11
-2.049999999999998
 21
0.0000000000000008
 31
0.0
210
0.0
220
0.0
230
1.0
 40
0.8657348311141287
 41
3.283070246140864
 42
6.141707714628394
  0
ELLIPSE
  5
1D67
330
2
100
AcDbEntity
  8
OUTLINE
 48
50.0
100
AcDbEllipse
 10
3703.404703458522
 20
1592.304471994236
 30
0.0
 11
-2.5
 21
0.000000000000001
 31
0.0
210
0.0
220
0.0
230
1.0
 40
0.8657348311141287
 41
3.257476850476491
 42
6.167301110292887
  0
ELLIPSE
  5
1D68
330
2
100
AcDbEntity
  8
OUTLINE
 48
50.0
100
AcDbEllipse
 10
3421.404703458521
 20
1592.304471994237
 30
0.0
 11
-2.5
 21
0.000000000000001
 31
0.0
210
0.0
220
0.0
230
1.0
 40
0.8657348311141287
 41
3.257476850476491
 42
6.167301110292887
  0
ELLIPSE
  5
1D69
330
2
100
AcDbEntity
  8
OUTLINE
 48
50.0
100
AcDbEllipse
 10
3969.904703458521
 20
920.5219905501492
 30
0.0
 11
-2.5
 21
0.000000000000001
 31
0.0
210
0.0
220
0.0
230
1.0
 40
0.8657348311141287
 41
3.257476850476511
 42
6.167301110292817
  0
ELLIPSE
  5
1D6A
330
2
100
AcDbEntity
  8
OUTLINE
 48
50.0
100
AcDbEllipse
 10
3969.904703458521
 20
1091.071752279632
 30
0.0
 11
-2.5
 21
0.000000000000001
 31
0.0
210
0.0
220
0.0
230
1.0
 40
0.8657348311141287
 41
3.257476850476461
 42
6.167301110292853
  0
ELLIPSE
  5
1D6B
330
2
100
AcDbEntity
  8
OUTLINE
 48
50.0
100
AcDbEllipse
 10
3969.904703458521
 20
1261.621514009116
 30
0.0
 11
-2.5
 21
0.000000000000001
 31
0.0
210
0.0
220
0.0
230
1.0
 40
0.8657348311141287
 41
3.257476850476491
 42
6.167301110292807
  0
ELLIPSE
  5
1D6C
330
2
100
AcDbEntity
  8
OUTLINE
 48
50.0
100
AcDbEllipse
 10
3969.904703458521
 20
1432.171275738599
 30
0.0
 11
-2.5
 21
0.000000000000001
 31
0.0
210
0.0
220
0.0
230
1.0
 40
0.8657348311141287
 41
3.257476850476593
 42
6.167301110292887
  0
ELLIPSE
  5
1D6D
330
2
100
AcDbEntity
  8
OUTLINE
 48
50.0
100
AcDbEllipse
 10
3969.904703458521
 20
1602.721037468082
 30
0.0
 11
-2.5
 21
0.000000000000001
 31
0.0
210
0.0
220
0.0
230
1.0
 40
0.8657348311141287
 41
3.257476850476531
 42
6.167301110292846
  0
ELLIPSE
  5
1D6E
330
2
100
AcDbEntity
  8
OUTLINE
 48
50.0
100
AcDbEllipse
 10
3154.904703458521
 20
920.5219905501504
 30
0.0
 11
-2.5
 21
0.000000000000001
 31
0.0
210
0.0
220
0.0
230
1.0
 40
0.8657348311141287
 41
3.257476850476511
 42
6.167301110292817
  0
ELLIPSE
  5
1D6F
330
2
100
AcDbEntity
  8
OUTLINE
 48
50.0
100
AcDbEllipse
 10
3154.904703458521
 20
1091.071752279633
 30
0.0
 11
-2.5
 21
0.000000000000001
 31
0.0
210
0.0
220
0.0
230
1.0
 40
0.8657348311141287
 41
3.257476850476461
 42
6.167301110292853
  0
ELLIPSE
  5
1D70
330
2
100
AcDbEntity
  8
OUTLINE
 48
50.0
100
AcDbEllipse
 10
3154.904703458521
 20
1261.621514009117
 30
0.0
 11
-2.5
 21
0.000000000000001
 31
0.0
210
0.0
220
0.0
230
1.0
 40
0.8657348311141287
 41
3.257476850476491
 42
6.167301110292787
  0
ELLIPSE
  5
1D71
330
2
100
AcDbEntity
  8
OUTLINE
 48
50.0
100
AcDbEllipse
 10
3154.904703458521
 20
1432.1712757386
 30
0.0
 11
-2.5
 21
0.000000000000001
 31
0.0
210
0.0
220
0.0
230
1.0
 40
0.8657348311141287
 41
3.257476850476593
 42
6.167301110292867
  0
ELLIPSE
  5
1D72
330
2
100
AcDbEntity
  8
OUTLINE
 48
50.0
100
AcDbEllipse
 10
3154.904703458522
 20
1602.721037468084
 30
0.0
 11
-2.5
 21
0.000000000000001
 31
0.0
210
0.0
220
0.0
230
1.0
 40
0.8657348311141287
 41
3.257476850476531
 42
6.167301110292846
  0
ELLIPSE
  5
1D73
330
2
100
AcDbEntity
  8
OUTLINE
 48
50.0
100
AcDbEllipse
 10
3932.404703458522
 20
1261.228534626762
 30
0.0
 11
2.049999999999998
 21
-0.0000000000000008
 31
0.0
210
0.0
220
0.0
230
1.0
 40
0.8657348311141287
 41
0.0000000000000011
 42
6.283185307179587
  0
ELLIPSE
  5
1D74
330
2
100
AcDbEntity
  8
OUTLINE
 48
50.0
100
AcDbEllipse
 10
3747.404703458521
 20
1256.034125640078
 30
0.0
 11
2.049999999999998
 21
-0.0000000000000008
 31
0.0
210
0.0
220
0.0
230
1.0
 40
0.8657348311141287
 41
0.0000000000000011
 42
6.283185307179587
  0
ELLIPSE
  5
1D75
330
2
100
AcDbEntity
  8
OUTLINE
 48
50.0
100
AcDbEllipse
 10
3562.404703458521
 20
1261.228534626762
 30
0.0
 11
2.049999999999998
 21
-0.0000000000000008
 31
0.0
210
0.0
220
0.0
230
1.0
 40
0.8657348311141287
 41
0.0000000000000011
 42
6.283185307179587
  0
ELLIPSE
  5
1D76
330
2
100
AcDbEntity
  8
OUTLINE
 48
50.0
100
AcDbEllipse
 10
3377.404703458521
 20
1256.034125640078
 30
0.0
 11
2.049999999999998
 21
-0.0000000000000008
 31
0.0
210
0.0
220
0.0
230
1.0
 40
0.8657348311141287
 41
0.0000000000000011
 42
6.283185307179587
  0
ELLIPSE
  5
1D77
330
2
100
AcDbEntity
  8
OUTLINE
 48
50.0
100
AcDbEllipse
 10
3192.404703458521
 20
1261.228534626763
 30
0.0
 11
2.049999999999998
 21
-0.0000000000000008
 31
0.0
210
0.0
220
0.0
230
1.0
 40
0.8657348311141287
 41
0.0000000000000011
 42
6.283185307179587
  0
ELLIPSE
  5
1D78
330
2
100
AcDbEntity
  8
OUTLINE
 48
50.0
100
AcDbEllipse
 10
3703.404703458522
 20
1592.804974943474
 30
0.0
 11
2.5
 21
-0.000000000000001
 31
0.0
210
0.0
220
0.0
230
1.0
 40
0.8657348311141287
 41
0.0000000000000011
 42
6.283185307179587
  0
ELLIPSE
  5
1D79
330
2
100
AcDbEntity
  8
OUTLINE
 48
50.0
100
AcDbEllipse
 10
3421.404703458521
 20
1592.804974943474
 30
0.0
 11
2.5
 21
-0.000000000000001
 31
0.0
210
0.0
220
0.0
230
1.0
 40
0.8657348311141287
 41
0.0000000000000011
 42
6.283185307179587
  0
ELLIPSE
  5
1D7A
330
2
100
AcDbEntity
  8
OUTLINE
 48
50.0
100
AcDbEllipse
 10
3969.904703458521
 20
921.022493499387
 30
0.0
 11
2.5
 21
-0.000000000000001
 31
0.0
210
0.0
220
0.0
230
1.0
 40
0.8657348311141287
 41
0.0000000000000011
 42
6.283185307179587
  0
ELLIPSE
  5
1D7B
330
2
100
AcDbEntity
  8
OUTLINE
 48
50.0
100
AcDbEllipse
 10
3969.904703458521
 20
1091.57225522887
 30
0.0
 11
2.5
 21
-0.000000000000001
 31
0.0
210
0.0
220
0.0
230
1.0
 40
0.8657348311141287
 41
0.0000000000000011
 42
6.283185307179587
  0
ELLIPSE
  5
1D7C
330
2
100
AcDbEntity
  8
OUTLINE
 48
50.0
100
AcDbEllipse
 10
3969.904703458521
 20
1262.122016958354
 30
0.0
 11
2.5
 21
-0.000000000000001
 31
0.0
210
0.0
220
0.0
230
1.0
 40
0.8657348311141287
 41
0.0000000000000011
 42
6.283185307179587
  0
ELLIPSE
  5
1D7D
330
2
100
AcDbEntity
  8
OUTLINE
 48
50.0
100
AcDbEllipse
 10
3969.904703458521
 20
1432.671778687837
 30
0.0
 11
2.5
 21
-0.000000000000001
 31
0.0
210
0.0
220
0.0
230
1.0
 40
0.8657348311141287
 41
0.0000000000000011
 42
6.283185307179587
  0
ELLIPSE
  5
1D7E
330
2
100
AcDbEntity
  8
OUTLINE
 48
50.0
100
AcDbEllipse
 10
3969.904703458521
 20
1603.22154041732
 30
0.0
 11
2.5
 21
-0.000000000000001
 31
0.0
210
0.0
220
0.0
230
1.0
 40
0.8657348311141287
 41
0.0000000000000011
 42
6.283185307179587
  0
ELLIPSE
  5
1D7F
330
2
100
AcDbEntity
  8
OUTLINE
 48
50.0
100
AcDbEllipse
 10
3154.904703458521
 20
921.0224934993879
 30
0.0
 11
2.5
 21
-0.000000000000001
 31
0.0
210
0.0
220
0.0
230
1.0
 40
0.8657348311141287
 41
0.0000000000000011
 42
6.283185307179587
  0
ELLIPSE
  5
1D80
330
2
100
AcDbEntity
  8
OUTLINE
 48
50.0
100
AcDbEllipse
 10
3154.904703458521
 20
1091.572255228871
 30
0.0
 11
2.5
 21
-0.000000000000001
 31
0.0
210
0.0
220
0.0
230
1.0
 40
0.8657348311141287
 41
0.0000000000000011
 42
6.283185307179587
  0
ELLIPSE
  5
1D81
330
2
100
AcDbEntity
  8
OUTLINE
 48
50.0
100
AcDbEllipse
 10
3154.904703458521
 20
1262.122016958355
 30
0.0
 11
2.5
 21
-0.000000000000001
 31
0.0
210
0.0
220
0.0
230
1.0
 40
0.8657348311141287
 41
0.0000000000000011
 42
6.283185307179587
  0
ELLIPSE
  5
1D82
330
2
100
AcDbEntity
  8
OUTLINE
 48
50.0
100
AcDbEllipse
 10
3154.904703458521
 20
1432.671778687838
 30
0.0
 11
2.5
 21
-0.000000000000001
 31
0.0
210
0.0
220
0.0
230
1.0
 40
0.8657348311141287
 41
0.0000000000000011
 42
6.283185307179587
  0
ELLIPSE
  5
1D83
330
2
100
AcDbEntity
  8
OUTLINE
 48
50.0
100
AcDbEllipse
 10
3154.904703458522
 20
1603.221540417322
 30
0.0
 11
2.5
 21
-0.000000000000001
 31
0.0
210
0.0
220
0.0
230
1.0
 40
0.8657348311141287
 41
0.0000000000000011
 42
6.283185307179587
  0
ELLIPSE
  5
1D84
330
2
100
AcDbEntity
  8
OUTLINE
 48
50.0
100
AcDbEllipse
 10
3892.404703458521
 20
895.4912811121285
 30
0.0
 11
-2.0
 21
0.0000000000000025
 31
0.0
210
0.0
220
0.0
230
1.0
 40
0.0005808531519511
 41
-0.0000000012888763
 42
6.283185305890138
  0
ELLIPSE
  5
1D85
330
2
100
AcDbEntity
  8
OUTLINE
 48
50.0
100
AcDbEllipse
 10
3672.40470345852
 20
895.4912811121285
 30
0.0
 11
-2.0
 21
0.0000000000000025
 31
0.0
210
0.0
220
0.0
230
1.0
 40
0.0005808531519511
 41
-0.0000000012888763
 42
6.283185305890138
  0
ELLIPSE
  5
1D86
330
2
100
AcDbEntity
  8
OUTLINE
 48
50.0
100
AcDbEllipse
 10
3452.404703458521
 20
895.4912811121287
 30
0.0
 11
-2.0
 21
0.0000000000000025
 31
0.0
210
0.0
220
0.0
230
1.0
 40
0.0005808531519511
 41
-0.0000000012888763
 42
6.283185305890138
  0
ELLIPSE
  5
1D87
330
2
100
AcDbEntity
  8
OUTLINE
 48
50.0
100
AcDbEllipse
 10
3232.404703458521
 20
895.4912811121291
 30
0.0
 11
-2.0
 21
0.0000000000000025
 31
0.0
210
0.0
220
0.0
230
1.0
 40
0.0005808531519511
 41
-0.0000000012888763
 42
6.283185305890138
  0
ELLIPSE
  5
1D88
330
2
100
AcDbEntity
  8
OUTLINE
 48
50.0
100
AcDbEllipse
 10
3747.404703458521
 20
1255.533622690839
 30
0.0
 11
2.049999999999998
 21
0.0000000000000298
 31
0.0
210
0.0
220
0.0
230
1.0
 40
0.8657348311141392
 41
0.141477592549782
 42
3.000115061036777
  0
ELLIPSE
  5
1D89
330
2
100
AcDbEntity
  8
OUTLINE
 48
50.0
100
AcDbEllipse
 10
3562.404703458521
 20
1260.728031677523
 30
0.0
 11
2.049999999999998
 21
0.0000000000000298
 31
0.0
210
0.0
220
0.0
230
1.0
 40
0.8657348311141392
 41
0.1414775925500271
 42
3.000115061036535
  0
ELLIPSE
  5
1D8A
330
2
100
AcDbEntity
  8
OUTLINE
 48
50.0
100
AcDbEllipse
 10
3377.40470345852
 20
1255.533622690837
 30
0.0
 11
2.049999999999998
 21
0.0000000000000298
 31
0.0
210
0.0
220
0.0
230
1.0
 40
0.8657348311141392
 41
0.1414775925505085
 42
3.000115061036176
  0
ELLIPSE
  5
1D8B
330
2
100
AcDbEntity
  8
OUTLINE
 48
50.0
100
AcDbEllipse
 10
3192.40470345852
 20
1260.728031677521
 30
0.0
 11
2.049999999999998
 21
0.0000000000000298
 31
0.0
210
0.0
220
0.0
230
1.0
 40
0.8657348311141392
 41
0.1414775925507298
 42
3.000115061035857
  0
ELLIPSE
  5
1D8C
330
2
100
AcDbEntity
  8
OUTLINE
 48
50.0
100
AcDbEllipse
 10
3747.404703458521
 20
1255.033119741601
 30
0.0
 11
-2.049999999999998
 21
-0.0000000000000298
 31
0.0
210
0.0
220
0.0
230
1.0
 40
0.8657348311141392
 41
3.427483442011691
 42
5.997294518755992
  0
ELLIPSE
  5
1D8D
330
2
100
AcDbEntity
  8
OUTLINE
 48
50.0
100
AcDbEllipse
 10
3562.404703458521
 20
1260.227528728285
 30
0.0
 11
-2.049999999999998
 21
-0.0000000000000298
 31
0.0
210
0.0
220
0.0
230
1.0
 40
0.8657348311141392
 41
3.427483442012051
 42
5.997294518755611
  0
ELLIPSE
  5
1D8E
330
2
100
AcDbEntity
  8
OUTLINE
 48
50.0
100
AcDbEllipse
 10
3377.40470345852
 20
1255.033119741599
 30
0.0
 11
-2.049999999999998
 21
-0.0000000000000298
 31
0.0
210
0.0
220
0.0
230
1.0
 40
0.8657348311141392
 41
3.427483442012265
 42
5.997294518755445
  0
ELLIPSE
  5
1D8F
330
2
100
AcDbEntity
  8
OUTLINE
 48
50.0
100
AcDbEllipse
 10
3192.40470345852
 20
1260.227528728284
 30
0.0
 11
-2.049999999999998
 21
-0.0000000000000298
 31
0.0
210
0.0
220
0.0
230
1.0
 40
0.8657348311141392
 41
3.427483442012843
 42
5.997294518755327
  0
ELLIPSE
  5
1D90
330
2
100
AcDbEntity
  8
OUTLINE
 48
50.0
100
AcDbEllipse
 10
3932.404703458522
 20
1260.728031677524
 30
0.0
 11
2.049999999999998
 21
0.0000000000000298
 31
0.0
210
0.0
220
0.0
230
1.0
 40
0.8657348311141392
 41
0.1414775925495369
 42
3.000115061037026
  0
ELLIPSE
  5
1D91
330
2
100
AcDbEntity
  8
OUTLINE
 48
50.0
100
AcDbEllipse
 10
3932.404703458522
 20
1260.227528728287
 30
0.0
 11
-2.049999999999998
 21
-0.0000000000000298
 31
0.0
210
0.0
220
0.0
230
1.0
 40
0.8657348311141392
 41
3.427483442011476
 42
5.997294518756182
  0
LINE
  5
1D92
330
2
100
AcDbEntity
  8
OUTLINE
 48
50.0
100
AcDbLine
 10
3140.904703458522
 20
1610.119671566805
 30
0.0
 11
3140.904703458522
 21
1614.998907409055
 31
0.0
  0
LINE
  5
1D93
330
2
100
AcDbEntity
  8
OUTLINE
 48
50.0
100
AcDbLine
 10
3111.904703458522
 20
1614.499410358293
 30
0.0
 11
3111.904703458522
 21
1614.448345722727
 31
0.0
  0
LINE
  5
1D94
330
2
100
AcDbEntity
  8
OUTLINE
 48
50.0
100
AcDbLine
 10
3139.904703458523
 20
1614.499410358293
 30
0.0
 11
3139.904703458523
 21
1614.998907409055
 31
0.0
  0
LINE
  5
1D95
330
2
100
AcDbEntity
  8
OUTLINE
 48
50.0
100
AcDbLine
 10
3139.904703458523
 20
1614.998907409055
 30
0.0
 11
3140.904703458522
 21
1614.998907409055
 31
0.0
  0
LINE
  5
1D96
330
2
100
AcDbEntity
  8
OUTLINE
  6
HIDDEN
 48
50.0
100
AcDbLine
 10
3111.904703458522
 20
1606.998907409199
 30
0.0
 11
3112.904703458522
 21
1607.998907409199
 31
0.0
  0
LINE
  5
1D97
330
2
100
AcDbEntity
  8
OUTLINE
 48
50.0
100
AcDbLine
 10
3139.904703458523
 20
1614.998907409056
 30
0.0
 11
3112.904703458522
 21
1614.998907409056
 31
0.0
  0
LINE
  5
1D98
330
2
100
AcDbEntity
  8
OUTLINE
 48
50.0
100
AcDbLine
 10
3139.904703458523
 20
1614.499410358293
 30
0.0
 11
3112.904703458522
 21
1614.499410358293
 31
0.0
  0
LINE
  5
1D99
330
2
100
AcDbEntity
  8
OUTLINE
  6
HIDDEN
 48
50.0
100
AcDbLine
 10
3139.904703458523
 20
915.9989074091994
 30
0.0
 11
3139.904703458523
 21
1609.9989074092
 31
0.0
  0
LINE
  5
1D9A
330
2
100
AcDbEntity
  8
OUTLINE
  6
HIDDEN
 48
50.0
100
AcDbLine
 10
3112.904703458522
 20
917.9989074091992
 30
0.0
 11
3111.904703458522
 21
918.9989074091997
 31
0.0
  0
LINE
  5
1D9B
330
2
100
AcDbEntity
  8
OUTLINE
 48
50.0
100
AcDbLine
 10
3112.904703458522
 20
1614.499410358293
 30
0.0
 11
3111.904703458522
 21
1614.499410358293
 31
0.0
  0
LINE
  5
1D9C
330
2
100
AcDbEntity
  8
OUTLINE
 48
50.0
100
AcDbLine
 10
3111.904703458522
 20
1614.49941038219
 30
0.0
 11
3111.904703458522
 21
1614.998907409056
 31
0.0
  0
LINE
  5
1D9D
330
2
100
AcDbEntity
  8
OUTLINE
 48
50.0
100
AcDbLine
 10
3112.904703458522
 20
1614.998907409056
 30
0.0
 11
3111.904703458522
 21
1614.998907409056
 31
0.0
  0
LINE
  5
1D9E
330
2
100
AcDbEntity
  8
OUTLINE
 48
50.0
100
AcDbLine
 10
3112.904703458522
 20
1614.499410358293
 30
0.0
 11
3112.904703458522
 21
1614.998907409056
 31
0.0
  0
LINE
  5
1D9F
330
2
100
AcDbEntity
  8
OUTLINE
  6
HIDDEN
 48
50.0
100
AcDbLine
 10
3099.904703458522
 20
1594.998907409199
 30
0.0
 11
3099.904703458522
 21
1493.998907409199
 31
0.0
  0
LINE
  5
1DA0
330
2
100
AcDbEntity
  8
OUTLINE
  6
HIDDEN
 48
50.0
100
AcDbLine
 10
3099.904703458522
 20
1594.998907409199
 30
0.0
 11
3111.904703458522
 21
1606.998907409199
 31
0.0
  0
LINE
  5
1DA1
330
2
100
AcDbEntity
  8
OUTLINE
  6
HIDDEN
 48
50.0
100
AcDbLine
 10
3112.904703458522
 20
1607.998907409199
 30
0.0
 11
3114.904703458523
 21
1609.9989074092
 31
0.0
  0
LINE
  5
1DA2
330
2
100
AcDbEntity
  8
OUTLINE
  6
HIDDEN
 48
50.0
100
AcDbLine
 10
3139.904703458523
 20
1609.9989074092
 30
0.0
 11
3114.904703458523
 21
1609.9989074092
 31
0.0
  0
LINE
  5
1DA3
330
2
100
AcDbEntity
  8
OUTLINE
  6
HIDDEN
 48
50.0
100
AcDbLine
 10
3139.904703458523
 20
915.9989074091994
 30
0.0
 11
3114.904703458523
 21
915.9989074091994
 31
0.0
  0
LINE
  5
1DA4
330
2
100
AcDbEntity
  8
OUTLINE
  6
HIDDEN
 48
50.0
100
AcDbLine
 10
3114.904703458523
 20
915.9989074091994
 30
0.0
 11
3112.904703458522
 21
917.9989074091992
 31
0.0
  0
LINE
  5
1DA5
330
2
100
AcDbEntity
  8
OUTLINE
  6
HIDDEN
 48
50.0
100
AcDbLine
 10
3111.904703458522
 20
918.9989074091997
 30
0.0
 11
3099.904703458522
 21
930.9989074091992
 31
0.0
  0
LINE
  5
1DA6
330
2
100
AcDbEntity
  8
OUTLINE
  6
HIDDEN
 48
50.0
100
AcDbLine
 10
3099.904703458522
 20
1031.998907409199
 30
0.0
 11
3099.904703458522
 21
930.9989074091992
 31
0.0
  0
LINE
  5
1DA7
330
2
100
AcDbEntity
  8
OUTLINE
  6
HIDDEN
 48
50.0
100
AcDbLine
 10
3130.904703458523
 20
1062.998907409199
 30
0.0
 11
3099.904703458522
 21
1031.998907409199
 31
0.0
  0
LINE
  5
1DA8
330
2
100
AcDbEntity
  8
OUTLINE
  6
HIDDEN
 48
50.0
100
AcDbLine
 10
3099.904703458522
 20
1493.998907409199
 30
0.0
 11
3130.904703458523
 21
1462.998907409199
 31
0.0
  0
LINE
  5
1DA9
330
2
100
AcDbEntity
  8
OUTLINE
  6
HIDDEN
 48
50.0
100
AcDbLine
 10
3130.904703458523
 20
1462.998907409199
 30
0.0
 11
3130.904703458523
 21
1062.998907409199
 31
0.0
  0
ELLIPSE
  5
1DAA
330
2
100
AcDbEntity
  8
OUTLINE
 48
50.0
100
AcDbEllipse
 10
3126.904703458523
 20
920.5219905511757
 30
0.0
 11
2.25
 21
0.0
 31
0.0
210
0.0
220
0.0
230
1.0
 40
0.8657348311142968
 41
5.949016325500307
 42
9.758946942448675
  0
ELLIPSE
  5
1DAB
330
2
100
AcDbEntity
  8
OUTLINE
 48
50.0
100
AcDbEllipse
 10
3126.904703458523
 20
1091.071752280692
 30
0.0
 11
2.25
 21
0.0
 31
0.0
210
0.0
220
0.0
230
1.0
 40
0.8657348311142968
 41
5.949016325556797
 42
9.758946942392155
  0
ELLIPSE
  5
1DAC
330
2
100
AcDbEntity
  8
OUTLINE
 48
50.0
100
AcDbEllipse
 10
3126.904703458523
 20
1261.621514010208
 30
0.0
 11
2.25
 21
0.0
 31
0.0
210
0.0
220
0.0
230
1.0
 40
0.8657348311142968
 41
5.949016325613253
 42
9.758946942335713
  0
ELLIPSE
  5
1DAD
330
2
100
AcDbEntity
  8
OUTLINE
 48
50.0
100
AcDbEllipse
 10
3126.904703458523
 20
1432.171275739725
 30
0.0
 11
2.25
 21
0.0
 31
0.0
210
0.0
220
0.0
230
1.0
 40
0.8657348311142968
 41
5.949016325669429
 42
9.758946942279532
  0
ELLIPSE
  5
1DAE
330
2
100
AcDbEntity
  8
OUTLINE
 48
50.0
100
AcDbEllipse
 10
3126.904703458523
 20
1602.721037469241
 30
0.0
 11
2.25
 21
0.0
 31
0.0
210
0.0
220
0.0
230
1.0
 40
0.8657348311142968
 41
5.949016325726022
 42
9.758946942222943
  0
ELLIPSE
  5
1DAF
330
2
100
AcDbEntity
  8
OUTLINE
 48
50.0
100
AcDbEllipse
 10
3126.904703458523
 20
1602.220534520047
 30
0.0
 11
-2.25
 21
0.0
 31
0.0
210
0.0
220
0.0
230
1.0
 40
0.8657348311142428
 41
3.270420934816717
 42
6.154357025952662
  0
ELLIPSE
  5
1DB0
330
2
100
AcDbEntity
  8
OUTLINE
 48
50.0
100
AcDbEllipse
 10
3126.904703458523
 20
1431.670772790531
 30
0.0
 11
-2.25
 21
0.0
 31
0.0
210
0.0
220
0.0
230
1.0
 40
0.8657348311142428
 41
3.270420934816738
 42
6.154357025952641
  0
ELLIPSE
  5
1DB1
330
2
100
AcDbEntity
  8
OUTLINE
 48
50.0
100
AcDbEllipse
 10
3126.904703458523
 20
1261.121011061014
 30
0.0
 11
-2.25
 21
0.0
 31
0.0
210
0.0
220
0.0
230
1.0
 40
0.8657348311142428
 41
3.270420934816738
 42
6.154357025952641
  0
ELLIPSE
  5
1DB2
330
2
100
AcDbEntity
  8
OUTLINE
 48
50.0
100
AcDbEllipse
 10
3126.904703458523
 20
1090.571249331498
 30
0.0
 11
-2.25
 21
0.0
 31
0.0
210
0.0
220
0.0
230
1.0
 40
0.8657348311142428
 41
3.270420934816727
 42
6.154357025952652
  0
ELLIPSE
  5
1DB3
330
2
100
AcDbEntity
  8
OUTLINE
 48
50.0
100
AcDbEllipse
 10
3126.904703458523
 20
920.0214876019821
 30
0.0
 11
-2.25
 21
0.0
 31
0.0
210
0.0
220
0.0
230
1.0
 40
0.8657348311142428
 41
3.270420934816728
 42
6.154357025952648
  0
CIRCLE
  5
1DB4
330
2
100
AcDbEntity
  8
OUTLINE
 48
50.0
100
AcDbCircle
 10
3116.404703458523
 20
962.9989074091993
 30
0.0
 40
3.5
  0
CIRCLE
  5
1DB5
330
2
100
AcDbEntity
  8
OUTLINE
 48
50.0
100
AcDbCircle
 10
3116.404703458523
 20
1562.998907409199
 30
0.0
 40
3.5
  0
LINE
  5
1DB6
330
2
100
AcDbEntity
  8
OUTLINE
 48
50.0
100
AcDbLine
 10
2296.904703458517
 20
910.9989074089186
 30
0.0
 11
2296.904703458517
 21
1614.998907409055
 31
0.0
  0
LINE
  5
1DB7
330
2
100
AcDbEntity
  8
OUTLINE
 48
50.0
100
AcDbLine
 10
2296.904703458517
 20
1614.998907409055
 30
0.0
 11
2326.904703458517
 21
1614.998907409055
 31
0.0
  0
LINE
  5
1DB8
330
2
100
AcDbEntity
  8
OUTLINE
 48
50.0
100
AcDbLine
 10
2326.904703458517
 20
1614.448345722727
 30
0.0
 11
2326.904703458517
 21
1614.998907409055
 31
0.0
  0
LINE
  5
1DB9
330
2
100
AcDbEntity
  8
OUTLINE
 48
50.0
100
AcDbLine
 10
2296.904703458517
 20
910.9989074089186
 30
0.0
 11
2297.904703458522
 21
910.9989074089186
 31
0.0
  0
LINE
  5
1DBA
330
2
100
AcDbEntity
  8
OUTLINE
 48
50.0
100
AcDbLine
 10
2296.904703458517
 20
1612.688562581613
 30
0.0
 11
2268.904703458517
 21
1575.998907409199
 31
0.0
  0
LINE
  5
1DBB
330
2
100
AcDbEntity
  8
OUTLINE
 48
50.0
100
AcDbLine
 10
2268.904703458517
 20
1575.998907409199
 30
0.0
 11
2268.904703458517
 21
949.9989074091992
 31
0.0
  0
LINE
  5
1DBC
330
2
100
AcDbEntity
  8
OUTLINE
 48
50.0
100
AcDbLine
 10
2268.904703458517
 20
949.9989074091992
 30
0.0
 11
2296.904703458517
 21
913.3092522367856
 31
0.0
  0
LINE
  5
1DBD
330
2
100
AcDbEntity
  8
OUTLINE
 48
50.0
100
AcDbLine
 10
2284.404703458517
 20
966.4989074091991
 30
0.0
 11
2286.404703458517
 21
966.4989074091991
 31
0.0
  0
LINE
  5
1DBE
330
2
100
AcDbEntity
  8
OUTLINE
 48
50.0
100
AcDbLine
 10
2286.404703458517
 20
959.4989074091992
 30
0.0
 11
2284.404703458517
 21
959.4989074091992
 31
0.0
  0
LINE
  5
1DBF
330
2
100
AcDbEntity
  8
OUTLINE
 48
50.0
100
AcDbLine
 10
2284.404703458517
 20
1266.498907409199
 30
0.0
 11
2286.404703458517
 21
1266.498907409199
 31
0.0
  0
LINE
  5
1DC0
330
2
100
AcDbEntity
  8
OUTLINE
 48
50.0
100
AcDbLine
 10
2286.404703458517
 20
1259.498907409199
 30
0.0
 11
2284.404703458517
 21
1259.498907409199
 31
0.0
  0
LINE
  5
1DC1
330
2
100
AcDbEntity
  8
OUTLINE
 48
50.0
100
AcDbLine
 10
2284.404703458517
 20
1566.498907409199
 30
0.0
 11
2286.404703458517
 21
1566.498907409199
 31
0.0
  0
LINE
  5
1DC2
330
2
100
AcDbEntity
  8
OUTLINE
 48
50.0
100
AcDbLine
 10
2286.404703458517
 20
1559.498907409199
 30
0.0
 11
2284.404703458517
 21
1559.498907409199
 31
0.0
  0
LINE
  5
1DC3
330
2
100
AcDbEntity
  8
OUTLINE
 48
50.0
100
AcDbLine
 10
2284.404703458517
 20
1416.498907409199
 30
0.0
 11
2286.404703458517
 21
1416.498907409199
 31
0.0
  0
LINE
  5
1DC4
330
2
100
AcDbEntity
  8
OUTLINE
 48
50.0
100
AcDbLine
 10
2286.404703458517
 20
1409.498907409199
 30
0.0
 11
2284.404703458517
 21
1409.498907409199
 31
0.0
  0
LINE
  5
1DC5
330
2
100
AcDbEntity
  8
OUTLINE
 48
50.0
100
AcDbLine
 10
2284.404703458517
 20
1116.498907409199
 30
0.0
 11
2286.404703458517
 21
1116.498907409199
 31
0.0
  0
LINE
  5
1DC6
330
2
100
AcDbEntity
  8
OUTLINE
 48
50.0
100
AcDbLine
 10
2286.404703458517
 20
1109.498907409199
 30
0.0
 11
2284.404703458517
 21
1109.498907409199
 31
0.0
  0
ELLIPSE
  5
1DC7
330
2
100
AcDbEntity
  8
OUTLINE
 48
50.0
100
AcDbEllipse
 10
2311.904703458518
 20
920.0214876019384
 30
0.0
 11
-1.999999999999999
 21
0.0
 31
0.0
210
0.0
220
0.0
230
1.0
 40
0.8657348311142966
 41
3.286631885695736
 42
6.138146075073637
  0
ELLIPSE
  5
1DC8
330
2
100
AcDbEntity
  8
OUTLINE
 48
50.0
100
AcDbEllipse
 10
2311.904703458518
 20
920.5219905511757
 30
0.0
 11
1.999999999999999
 21
0.0
 31
0.0
210
0.0
220
0.0
230
1.0
 40
0.8657348311142966
 41
5.30686563897571
 42
10.40109762895458
  0
ELLIPSE
  5
1DC9
330
2
100
AcDbEntity
  8
OUTLINE
 48
50.0
100
AcDbEllipse
 10
2311.904703458518
 20
1091.071752280694
 30
0.0
 11
1.999999999999999
 21
0.0
 31
0.0
210
0.0
220
0.0
230
1.0
 40
0.8657348311142966
 41
5.306865639150831
 42
10.40109762877947
  0
ELLIPSE
  5
1DCA
330
2
100
AcDbEntity
  8
OUTLINE
 48
50.0
100
AcDbEllipse
 10
2311.904703458518
 20
1090.571249331456
 30
0.0
 11
-1.999999999999999
 21
0.0
 31
0.0
210
0.0
220
0.0
230
1.0
 40
0.8657348311142966
 41
3.286631885695753
 42
6.138146075073622
  0
ELLIPSE
  5
1DCB
330
2
100
AcDbEntity
  8
OUTLINE
 48
50.0
100
AcDbEllipse
 10
2311.904703458518
 20
1261.621514010206
 30
0.0
 11
2.0
 21
0.0
 31
0.0
210
0.0
220
0.0
230
1.0
 40
0.8657348311142966
 41
5.306865639346784
 42
10.40109762858351
  0
ELLIPSE
  5
1DCC
330
2
100
AcDbEntity
  8
OUTLINE
 48
50.0
100
AcDbEllipse
 10
2311.904703458518
 20
1261.121011060968
 30
0.0
 11
-2.0
 21
0.0
 31
0.0
210
0.0
220
0.0
230
1.0
 40
0.8657348311142966
 41
3.286631885695883
 42
6.138146075073492
  0
ELLIPSE
  5
1DCD
330
2
100
AcDbEntity
  8
OUTLINE
 48
50.0
100
AcDbEllipse
 10
2311.904703458518
 20
1432.171275739723
 30
0.0
 11
2.0
 21
0.0
 31
0.0
210
0.0
220
0.0
230
1.0
 40
0.8657348311142966
 41
5.306865639527384
 42
10.40109762840291
  0
ELLIPSE
  5
1DCE
330
2
100
AcDbEntity
  8
OUTLINE
 48
50.0
100
AcDbEllipse
 10
2311.904703458518
 20
1431.670772790485
 30
0.0
 11
-2.0
 21
0.0
 31
0.0
210
0.0
220
0.0
230
1.0
 40
0.8657348311142966
 41
3.286631885695861
 42
6.138146075073517
  0
ELLIPSE
  5
1DCF
330
2
100
AcDbEntity
  8
OUTLINE
 48
50.0
100
AcDbEllipse
 10
2311.904703458518
 20
1602.721037469243
 30
0.0
 11
2.0
 21
0.0
 31
0.0
210
0.0
220
0.0
230
1.0
 40
0.8657348311142966
 41
5.306865639693698
 42
10.40109762823658
  0
ELLIPSE
  5
1DD0
330
2
100
AcDbEntity
  8
OUTLINE
 48
50.0
100
AcDbEllipse
 10
2311.904703458518
 20
1602.220534520006
 30
0.0
 11
-2.0
 21
0.0
 31
0.0
210
0.0
220
0.0
230
1.0
 40
0.8657348311142966
 41
3.286631885695808
 42
6.13814607507357
  0
ARC
  5
1DD1
330
2
100
AcDbEntity
  8
OUTLINE
 48
50.0
100
AcDbCircle
 10
2284.404703458517
 20
962.9989074091993
 30
0.0
 40
3.5
100
AcDbArc
 50
90.0
 51
270.0
  0
ARC
  5
1DD2
330
2
100
AcDbEntity
  8
OUTLINE
 48
50.0
100
AcDbCircle
 10
2286.404703458517
 20
962.9989074091993
 30
0.0
 40
3.5
100
AcDbArc
 50
270.0
 51
90.0
  0
ARC
  5
1DD3
330
2
100
AcDbEntity
  8
OUTLINE
 48
50.0
100
AcDbCircle
 10
2284.404703458517
 20
1262.998907409199
 30
0.0
 40
3.5
100
AcDbArc
 50
90.0
 51
270.0
  0
ARC
  5
1DD4
330
2
100
AcDbEntity
  8
OUTLINE
 48
50.0
100
AcDbCircle
 10
2286.404703458517
 20
1262.998907409199
 30
0.0
 40
3.5
100
AcDbArc
 50
270.0
 51
90.0
  0
ARC
  5
1DD5
330
2
100
AcDbEntity
  8
OUTLINE
 48
50.0
100
AcDbCircle
 10
2284.404703458517
 20
1562.998907409199
 30
0.0
 40
3.5
100
AcDbArc
 50
90.0
 51
270.0
  0
ARC
  5
1DD6
330
2
100
AcDbEntity
  8
OUTLINE
 48
50.0
100
AcDbCircle
 10
2286.404703458517
 20
1562.998907409199
 30
0.0
 40
3.5
100
AcDbArc
 50
270.0
 51
90.0
  0
ARC
  5
1DD7
330
2
100
AcDbEntity
  8
OUTLINE
 48
50.0
100
AcDbCircle
 10
2284.404703458517
 20
1412.998907409199
 30
0.0
 40
3.5
100
AcDbArc
 50
90.0
 51
270.0
  0
ARC
  5
1DD8
330
2
100
AcDbEntity
  8
OUTLINE
 48
50.0
100
AcDbCircle
 10
2286.404703458517
 20
1412.998907409199
 30
0.0
 40
3.5
100
AcDbArc
 50
270.0
 51
90.0
  0
ARC
  5
1DD9
330
2
100
AcDbEntity
  8
OUTLINE
 48
50.0
100
AcDbCircle
 10
2284.404703458517
 20
1112.998907409199
 30
0.0
 40
3.5
100
AcDbArc
 50
90.0
 51
270.0
  0
ARC
  5
1DDA
330
2
100
AcDbEntity
  8
OUTLINE
 48
50.0
100
AcDbCircle
 10
2286.404703458517
 20
1112.998907409199
 30
0.0
 40
3.5
100
AcDbArc
 50
270.0
 51
90.0
  0
LINE
  5
1DDB
330
2
100
AcDbEntity
  8
OUTLINE
 48
50.0
100
AcDbLine
 10
2327.904703458523
 20
1629.998907409056
 30
0.0
 11
3110.904703458523
 21
1629.998907409056
 31
0.0
  0
LINE
  5
1DDC
330
2
100
AcDbEntity
  8
OUTLINE
 48
50.0
100
AcDbLine
 10
2327.904703458523
 20
1614.998907409056
 30
0.0
 11
3110.904703458523
 21
1614.998907409056
 31
0.0
  0
LINE
  5
1DDD
330
2
100
AcDbEntity
  8
OUTLINE
 48
50.0
100
AcDbLine
 10
2327.904703458523
 20
1629.998907409056
 30
0.0
 11
2327.904703458523
 21
1614.998907409056
 31
0.0
  0
LINE
  5
1DDE
330
2
100
AcDbEntity
  8
OUTLINE
 48
50.0
100
AcDbLine
 10
2327.904703458523
 20
1614.998907409056
 30
0.0
 11
2327.904703458523
 21
1614.448345722727
 31
0.0
  0
LINE
  5
1DDF
330
2
100
AcDbEntity
  8
OUTLINE
 48
50.0
100
AcDbLine
 10
3111.904703458522
 20
1614.998907409056
 30
0.0
 11
3110.904703458523
 21
1614.998907409056
 31
0.0
  0
LINE
  5
1DE0
330
2
100
AcDbEntity
  8
OUTLINE
 48
50.0
100
AcDbLine
 10
3110.904703458523
 20
1629.998907409056
 30
0.0
 11
3111.904703458522
 21
1629.998907409056
 31
0.0
  0
LINE
  5
1DE1
330
2
100
AcDbEntity
  8
OUTLINE
 48
50.0
100
AcDbLine
 10
3111.904703458522
 20
1629.998907409056
 30
0.0
 11
3111.904703458522
 21
1615.998907409056
 31
0.0
  0
LINE
  5
1DE2
330
2
100
AcDbEntity
  8
OUTLINE
 48
50.0
100
AcDbLine
 10
3135.904703458523
 20
1615.998907409055
 30
0.0
 11
3135.904703458523
 21
1614.998907409056
 31
0.0
  0
LINE
  5
1DE3
330
2
100
AcDbEntity
  8
OUTLINE
 48
50.0
100
AcDbLine
 10
3140.904703458522
 20
1614.998907409058
 30
0.0
 11
3140.904703458522
 21
1615.998907409058
 31
0.0
  0
LINE
  5
1DE4
330
2
100
AcDbEntity
  8
OUTLINE
 48
50.0
100
AcDbLine
 10
2326.904703458522
 20
1615.998907409056
 30
0.0
 11
2326.904703458522
 21
1629.998907409056
 31
0.0
  0
LINE
  5
1DE5
330
2
100
AcDbEntity
  8
OUTLINE
 48
50.0
100
AcDbLine
 10
2326.904703458522
 20
1629.998907409056
 30
0.0
 11
2327.904703458523
 21
1629.998907409056
 31
0.0
  0
LINE
  5
1DE6
330
2
100
AcDbEntity
  8
OUTLINE
 48
50.0
100
AcDbLine
 10
2302.904703458523
 20
1614.998907409056
 30
0.0
 11
2302.904703458523
 21
1615.998907409056
 31
0.0
  0
LINE
  5
1DE7
330
2
100
AcDbEntity
  8
OUTLINE
 48
50.0
100
AcDbLine
 10
2327.904703458523
 20
1614.998907409056
 30
0.0
 11
2326.904703458516
 21
1614.998907409056
 31
0.0
  0
LINE
  5
1DE8
330
2
100
AcDbEntity
  8
OUTLINE
 48
50.0
100
AcDbLine
 10
2297.904703458522
 20
1615.998907409058
 30
0.0
 11
2297.904703458522
 21
1614.998907409058
 31
0.0
  0
LINE
  5
1DE9
330
2
100
AcDbEntity
  8
OUTLINE
 48
50.0
100
AcDbLine
 10
3110.904703458523
 20
1614.448345722727
 30
0.0
 11
3110.904703458523
 21
1614.998907409055
 31
0.0
  0
LINE
  5
1DEA
330
2
100
AcDbEntity
  8
OUTLINE
 48
50.0
100
AcDbLine
 10
3110.904703458523
 20
1614.998907409056
 30
0.0
 11
3110.904703458523
 21
1629.998907409056
 31
0.0
  0
LINE
  5
1DEB
330
2
100
AcDbEntity
  8
OUTLINE
 48
50.0
100
AcDbLine
 10
2302.904703458523
 20
1615.998907409056
 30
0.0
 11
2326.904703458522
 21
1615.998907409056
 31
0.0
  0
LINE
  5
1DEC
330
2
100
AcDbEntity
  8
OUTLINE
 48
50.0
100
AcDbLine
 10
2302.904703458523
 20
1615.998907409056
 30
0.0
 11
2297.904703458522
 21
1615.998907409058
 31
0.0
  0
LINE
  5
1DED
330
2
100
AcDbEntity
  8
OUTLINE
 48
50.0
100
AcDbLine
 10
3140.904703458522
 20
1615.998907409058
 30
0.0
 11
3135.904703458523
 21
1615.998907409055
 31
0.0
  0
LINE
  5
1DEE
330
2
100
AcDbEntity
  8
OUTLINE
 48
50.0
100
AcDbLine
 10
3111.904703458522
 20
1615.998907409056
 30
0.0
 11
3135.904703458523
 21
1615.998907409056
 31
0.0
  0
ELLIPSE
  5
1DEF
330
2
100
AcDbEntity
  8
OUTLINE
 48
50.0
100
AcDbEllipse
 10
2860.404703458522
 20
1592.482246910656
 30
0.0
 11
2.0
 21
-0.0000000000000082
 31
0.0
210
0.0
220
0.0
230
1.0
 40
0.8660254037846071
 41
0.0000000000000056
 42
6.283185307179588
  0
ELLIPSE
  5
1DF0
330
2
100
AcDbEntity
  8
OUTLINE
 48
50.0
100
AcDbEllipse
 10
2860.404703458522
 20
1591.982246910656
 30
0.0
 11
-2.0
 21
0.0000000000000082
 31
0.0
210
0.0
220
0.0
230
1.0
 40
0.8660254037846069
 41
3.286436150588455
 42
6.138341810181016
  0
ELLIPSE
  5
1DF1
330
2
100
AcDbEntity
  8
OUTLINE
 48
50.0
100
AcDbEllipse
 10
2578.404703458522
 20
1592.482246910656
 30
0.0
 11
2.0
 21
-0.0000000000000082
 31
0.0
210
0.0
220
0.0
230
1.0
 40
0.8660254037846071
 41
0.0000000000000056
 42
6.283185307179588
  0
ELLIPSE
  5
1DF2
330
2
100
AcDbEntity
  8
OUTLINE
 48
50.0
100
AcDbEllipse
 10
2578.404703458522
 20
1591.982246910656
 30
0.0
 11
-2.0
 21
0.0000000000000082
 31
0.0
210
0.0
220
0.0
230
1.0
 40
0.8660254037846069
 41
3.286436150588455
 42
6.138341810181016
  0
LINE
  5
1DF3
330
2
100
AcDbEntity
  8
OUTLINE
 48
50.0
100
AcDbLine
 10
2297.904703458522
 20
895.4999939104821
 30
0.0
 11
2297.904703458522
 21
895.4825683159475
 31
0.0
  0
LINE
  5
1DF4
330
2
100
AcDbEntity
  8
OUTLINE
 48
50.0
100
AcDbLine
 10
3140.904703458522
 20
909.7679406959775
 30
0.0
 11
3140.904703458522
 21
895.4999939104817
 31
0.0
  0
LINE
  5
1DF5
330
2
100
AcDbEntity
  8
OUTLINE
 48
50.0
100
AcDbLine
 10
3140.904703458522
 20
895.4999939104817
 30
0.0
 11
2297.904703458522
 21
895.4999939104821
 31
0.0
  0
LINE
  5
1DF6
330
2
100
AcDbEntity
  8
OUTLINE
 48
50.0
100
AcDbLine
 10
2297.904703458522
 20
909.7679406959779
 30
0.0
 11
2297.904703458522
 21
895.4999939104819
 31
0.0
  0
LINE
  5
1DF7
330
2
100
AcDbEntity
  8
OUTLINE
 48
50.0
100
AcDbLine
 10
3135.904703458523
 20
1614.448345722727
 30
0.0
 11
3140.904703458522
 21
1610.119671567154
 31
0.0
  0
LINE
  5
1DF8
330
2
100
AcDbEntity
  8
OUTLINE
 48
50.0
100
AcDbLine
 10
3140.904703458522
 20
1610.119671567154
 30
0.0
 11
3140.904703458522
 21
909.7679406959775
 31
0.0
  0
LINE
  5
1DF9
330
2
100
AcDbEntity
  8
OUTLINE
 48
50.0
100
AcDbLine
 10
3140.904703458522
 20
909.7679406959775
 30
0.0
 11
2297.904703458522
 21
909.7679406959782
 31
0.0
  0
LINE
  5
1DFA
330
2
100
AcDbEntity
  8
OUTLINE
 48
50.0
100
AcDbLine
 10
2297.904703458522
 20
1610.119671567154
 30
0.0
 11
2297.904703458522
 21
909.7679406959779
 31
0.0
  0
LINE
  5
1DFB
330
2
100
AcDbEntity
  8
OUTLINE
 48
50.0
100
AcDbLine
 10
3135.904703458523
 20
1614.448345722726
 30
0.0
 11
2302.904703458523
 21
1614.448345722727
 31
0.0
  0
LINE
  5
1DFC
330
2
100
AcDbEntity
  8
OUTLINE
 48
50.0
100
AcDbLine
 10
2297.904703458522
 20
1610.119671567154
 30
0.0
 11
2302.904703458523
 21
1614.448345722727
 31
0.0
  0
LINE
  5
1DFD
330
2
100
AcDbEntity
  8
OUTLINE
 48
50.0
100
AcDbLine
 10
3140.904703458522
 20
895.4825683159471
 30
0.0
 11
2297.904703458522
 21
895.4825683159475
 31
0.0
  0
ELLIPSE
  5
1DFE
330
2
100
AcDbEntity
  8
OUTLINE
 48
50.0
100
AcDbEllipse
 10
3089.404703458523
 20
1260.728031678762
 30
0.0
 11
-2.049999999999998
 21
0.0
 31
0.0
210
0.0
220
0.0
230
1.0
 40
0.8657348311145279
 41
3.283070246140761
 42
6.141707714628617
  0
ELLIPSE
  5
1DFF
330
2
100
AcDbEntity
  8
OUTLINE
 48
50.0
100
AcDbEllipse
 10
2904.404703458522
 20
1255.533622692074
 30
0.0
 11
-2.049999999999998
 21
0.0
 31
0.0
210
0.0
220
0.0
230
1.0
 40
0.8657348311145279
 41
3.283070246140732
 42
6.141707714628642
  0
ELLIPSE
  5
1E00
330
2
100
AcDbEntity
  8
OUTLINE
 48
50.0
100
AcDbEllipse
 10
2719.404703458522
 20
1260.728031678762
 30
0.0
 11
-2.049999999999998
 21
0.0
 31
0.0
210
0.0
220
0.0
230
1.0
 40
0.8657348311145279
 41
3.283070246140761
 42
6.141707714628617
  0
ELLIPSE
  5
1E01
330
2
100
AcDbEntity
  8
OUTLINE
 48
50.0
100
AcDbEllipse
 10
2534.404703458522
 20
1255.533622692075
 30
0.0
 11
-2.049999999999998
 21
0.0
 31
0.0
210
0.0
220
0.0
230
1.0
 40
0.8657348311145279
 41
3.283070246140732
 42
6.141707714628642
  0
ELLIPSE
  5
1E02
330
2
100
AcDbEntity
  8
OUTLINE
 48
50.0
100
AcDbEllipse
 10
2349.404703458523
 20
1260.728031678762
 30
0.0
 11
-2.049999999999998
 21
0.0
 31
0.0
210
0.0
220
0.0
230
1.0
 40
0.8657348311145279
 41
3.283070246140709
 42
6.141707714628669
  0
ELLIPSE
  5
1E03
330
2
100
AcDbEntity
  8
OUTLINE
 48
50.0
100
AcDbEllipse
 10
2860.404703458522
 20
1592.304471995626
 30
0.0
 11
-2.5
 21
0.0
 31
0.0
210
0.0
220
0.0
230
1.0
 40
0.8657348311145279
 41
3.257476850476323
 42
6.167301110293056
  0
ELLIPSE
  5
1E04
330
2
100
AcDbEntity
  8
OUTLINE
 48
50.0
100
AcDbEllipse
 10
2578.404703458522
 20
1592.304471995626
 30
0.0
 11
-2.5
 21
0.0
 31
0.0
210
0.0
220
0.0
230
1.0
 40
0.8657348311145279
 41
3.257476850476283
 42
6.167301110293093
  0
ELLIPSE
  5
1E05
330
2
100
AcDbEntity
  8
OUTLINE
 48
50.0
100
AcDbEllipse
 10
3126.904703458523
 20
920.5219905512294
 30
0.0
 11
-2.5
 21
0.0
 31
0.0
210
0.0
220
0.0
230
1.0
 40
0.8657348311145279
 41
3.257476850476362
 42
6.167301110293017
  0
ELLIPSE
  5
1E06
330
2
100
AcDbEntity
  8
OUTLINE
 48
50.0
100
AcDbEllipse
 10
3126.904703458523
 20
1091.071752280791
 30
0.0
 11
-2.5
 21
0.0
 31
0.0
210
0.0
220
0.0
230
1.0
 40
0.8657348311145279
 41
3.257476850476308
 42
6.167301110293084
  0
ELLIPSE
  5
1E07
330
2
100
AcDbEntity
  8
OUTLINE
 48
50.0
100
AcDbEllipse
 10
3126.904703458523
 20
1261.621514010353
 30
0.0
 11
-2.5
 21
0.0
 31
0.0
210
0.0
220
0.0
230
1.0
 40
0.8657348311145279
 41
3.257476850476323
 42
6.167301110293056
  0
ELLIPSE
  5
1E08
330
2
100
AcDbEntity
  8
OUTLINE
 48
50.0
100
AcDbEllipse
 10
3126.904703458523
 20
1432.171275739914
 30
0.0
 11
-2.5
 21
0.0
 31
0.0
210
0.0
220
0.0
230
1.0
 40
0.8657348311145279
 41
3.257476850476323
 42
6.167301110293056
  0
ELLIPSE
  5
1E09
330
2
100
AcDbEntity
  8
OUTLINE
 48
50.0
100
AcDbEllipse
 10
3126.904703458523
 20
1602.721037469478
 30
0.0
 11
-2.5
 21
0.0
 31
0.0
210
0.0
220
0.0
230
1.0
 40
0.8657348311145279
 41
3.257476850476261
 42
6.167301110293117
  0
ELLIPSE
  5
1E0A
330
2
100
AcDbEntity
  8
OUTLINE
 48
50.0
100
AcDbEllipse
 10
2311.904703458523
 20
920.5219905512295
 30
0.0
 11
-2.5
 21
0.0
 31
0.0
210
0.0
220
0.0
230
1.0
 40
0.8657348311145279
 41
3.257476850476341
 42
6.167301110293051
  0
ELLIPSE
  5
1E0B
330
2
100
AcDbEntity
  8
OUTLINE
 48
50.0
100
AcDbEllipse
 10
2311.904703458523
 20
1091.071752280791
 30
0.0
 11
-2.5
 21
0.0
 31
0.0
210
0.0
220
0.0
230
1.0
 40
0.8657348311145279
 41
3.257476850476308
 42
6.167301110293069
  0
ELLIPSE
  5
1E0C
330
2
100
AcDbEntity
  8
OUTLINE
 48
50.0
100
AcDbEllipse
 10
2311.904703458523
 20
1261.621514010354
 30
0.0
 11
-2.5
 21
0.0
 31
0.0
210
0.0
220
0.0
230
1.0
 40
0.8657348311145279
 41
3.257476850476364
 42
6.167301110293013
  0
ELLIPSE
  5
1E0D
330
2
100
AcDbEntity
  8
OUTLINE
 48
50.0
100
AcDbEllipse
 10
2311.904703458523
 20
1432.171275739916
 30
0.0
 11
-2.5
 21
0.0
 31
0.0
210
0.0
220
0.0
230
1.0
 40
0.8657348311145279
 41
3.257476850476323
 42
6.167301110293056
  0
ELLIPSE
  5
1E0E
330
2
100
AcDbEntity
  8
OUTLINE
 48
50.0
100
AcDbEllipse
 10
2311.904703458523
 20
1602.721037469478
 30
0.0
 11
-2.5
 21
0.0
 31
0.0
210
0.0
220
0.0
230
1.0
 40
0.8657348311145279
 41
3.257476850476323
 42
6.167301110293056
  0
ELLIPSE
  5
1E0F
330
2
100
AcDbEntity
  8
OUTLINE
 48
50.0
100
AcDbEllipse
 10
3089.404703458523
 20
1261.228534627999
 30
0.0
 11
2.049999999999998
 21
0.0
 31
0.0
210
0.0
220
0.0
230
1.0
 40
0.8657348311145279
 41
0.0000000000000002
 42
6.283185307179584
  0
ELLIPSE
  5
1E10
330
2
100
AcDbEntity
  8
OUTLINE
 48
50.0
100
AcDbEllipse
 10
2904.404703458522
 20
1256.034125641312
 30
0.0
 11
2.049999999999998
 21
0.0
 31
0.0
210
0.0
220
0.0
230
1.0
 40
0.8657348311145279
 41
0.0000000000000002
 42
6.283185307179584
  0
ELLIPSE
  5
1E11
330
2
100
AcDbEntity
  8
OUTLINE
 48
50.0
100
AcDbEllipse
 10
2719.404703458522
 20
1261.228534627999
 30
0.0
 11
2.049999999999998
 21
0.0
 31
0.0
210
0.0
220
0.0
230
1.0
 40
0.8657348311145279
 41
0.0000000000000002
 42
6.283185307179584
  0
ELLIPSE
  5
1E12
330
2
100
AcDbEntity
  8
OUTLINE
 48
50.0
100
AcDbEllipse
 10
2534.404703458522
 20
1256.034125641312
 30
0.0
 11
2.049999999999998
 21
0.0
 31
0.0
210
0.0
220
0.0
230
1.0
 40
0.8657348311145279
 41
0.0000000000000002
 42
6.283185307179584
  0
ELLIPSE
  5
1E13
330
2
100
AcDbEntity
  8
OUTLINE
 48
50.0
100
AcDbEllipse
 10
2349.404703458523
 20
1261.228534627999
 30
0.0
 11
2.049999999999998
 21
0.0
 31
0.0
210
0.0
220
0.0
230
1.0
 40
0.8657348311145279
 41
0.0000000000000002
 42
6.283185307179584
  0
ELLIPSE
  5
1E14
330
2
100
AcDbEntity
  8
OUTLINE
 48
50.0
100
AcDbEllipse
 10
2860.404703458522
 20
1592.804974944863
 30
0.0
 11
2.5
 21
0.0
 31
0.0
210
0.0
220
0.0
230
1.0
 40
0.8657348311145279
 41
0.0000000000000002
 42
6.283185307179584
  0
ELLIPSE
  5
1E15
330
2
100
AcDbEntity
  8
OUTLINE
 48
50.0
100
AcDbEllipse
 10
2578.404703458522
 20
1592.804974944863
 30
0.0
 11
2.5
 21
0.0
 31
0.0
210
0.0
220
0.0
230
1.0
 40
0.8657348311145279
 41
0.0000000000000002
 42
6.283185307179584
  0
ELLIPSE
  5
1E16
330
2
100
AcDbEntity
  8
OUTLINE
 48
50.0
100
AcDbEllipse
 10
3126.904703458523
 20
921.0224935004664
 30
0.0
 11
2.5
 21
0.0
 31
0.0
210
0.0
220
0.0
230
1.0
 40
0.8657348311145279
 41
0.0000000000000002
 42
6.283185307179584
  0
ELLIPSE
  5
1E17
330
2
100
AcDbEntity
  8
OUTLINE
 48
50.0
100
AcDbEllipse
 10
3126.904703458523
 20
1091.572255230028
 30
0.0
 11
2.5
 21
0.0
 31
0.0
210
0.0
220
0.0
230
1.0
 40
0.8657348311145279
 41
0.0000000000000002
 42
6.283185307179584
  0
ELLIPSE
  5
1E18
330
2
100
AcDbEntity
  8
OUTLINE
 48
50.0
100
AcDbEllipse
 10
3126.904703458523
 20
1262.12201695959
 30
0.0
 11
2.5
 21
0.0
 31
0.0
210
0.0
220
0.0
230
1.0
 40
0.8657348311145279
 41
0.0000000000000002
 42
6.283185307179584
  0
ELLIPSE
  5
1E19
330
2
100
AcDbEntity
  8
OUTLINE
 48
50.0
100
AcDbEllipse
 10
3126.904703458523
 20
1432.671778689153
 30
0.0
 11
2.5
 21
0.0
 31
0.0
210
0.0
220
0.0
230
1.0
 40
0.8657348311145279
 41
0.0000000000000002
 42
6.283185307179584
  0
ELLIPSE
  5
1E1A
330
2
100
AcDbEntity
  8
OUTLINE
 48
50.0
100
AcDbEllipse
 10
3126.904703458523
 20
1603.221540418714
 30
0.0
 11
2.5
 21
0.0
 31
0.0
210
0.0
220
0.0
230
1.0
 40
0.8657348311145279
 41
0.0000000000000002
 42
6.283185307179584
  0
ELLIPSE
  5
1E1B
330
2
100
AcDbEntity
  8
OUTLINE
 48
50.0
100
AcDbEllipse
 10
2311.904703458523
 20
921.0224935004667
 30
0.0
 11
2.5
 21
0.0
 31
0.0
210
0.0
220
0.0
230
1.0
 40
0.8657348311145279
 41
0.0000000000000002
 42
6.283185307179584
  0
ELLIPSE
  5
1E1C
330
2
100
AcDbEntity
  8
OUTLINE
 48
50.0
100
AcDbEllipse
 10
2311.904703458523
 20
1091.572255230029
 30
0.0
 11
2.5
 21
0.0
 31
0.0
210
0.0
220
0.0
230
1.0
 40
0.8657348311145279
 41
0.0000000000000002
 42
6.283185307179584
  0
ELLIPSE
  5
1E1D
330
2
100
AcDbEntity
  8
OUTLINE
 48
50.0
100
AcDbEllipse
 10
2311.904703458523
 20
1262.122016959591
 30
0.0
 11
2.5
 21
0.0
 31
0.0
210
0.0
220
0.0
230
1.0
 40
0.8657348311145279
 41
0.0000000000000002
 42
6.283185307179584
  0
ELLIPSE
  5
1E1E
330
2
100
AcDbEntity
  8
OUTLINE
 48
50.0
100
AcDbEllipse
 10
2311.904703458523
 20
1432.671778689153
 30
0.0
 11
2.5
 21
0.0
 31
0.0
210
0.0
220
0.0
230
1.0
 40
0.8657348311145279
 41
0.0000000000000002
 42
6.283185307179584
  0
ELLIPSE
  5
1E1F
330
2
100
AcDbEntity
  8
OUTLINE
 48
50.0
100
AcDbEllipse
 10
2311.904703458523
 20
1603.221540418715
 30
0.0
 11
2.5
 21
0.0
 31
0.0
210
0.0
220
0.0
230
1.0
 40
0.8657348311145279
 41
0.0000000000000002
 42
6.283185307179584
  0
ELLIPSE
  5
1E20
330
2
100
AcDbEntity
  8
OUTLINE
 48
50.0
100
AcDbEllipse
 10
3049.404703458522
 20
895.4912811132144
 30
0.0
 11
-2.0
 21
0.0000000000000008
 31
0.0
210
0.0
220
0.0
230
1.0
 40
0.0005808531511532
 41
-0.0000000012903489
 42
6.28318530588861
  0
ELLIPSE
  5
1E21
330
2
100
AcDbEntity
  8
OUTLINE
 48
50.0
100
AcDbEllipse
 10
2829.404703458522
 20
895.4912811132144
 30
0.0
 11
-2.0
 21
0.0000000000000008
 31
0.0
210
0.0
220
0.0
230
1.0
 40
0.0005808531511532
 41
-0.0000000012903489
 42
6.28318530588861
  0
ELLIPSE
  5
1E22
330
2
100
AcDbEntity
  8
OUTLINE
 48
50.0
100
AcDbEllipse
 10
2609.404703458523
 20
895.4912811132148
 30
0.0
 11
-2.0
 21
0.0000000000000008
 31
0.0
210
0.0
220
0.0
230
1.0
 40
0.0005808531511532
 41
-0.0000000012903489
 42
6.28318530588861
  0
ELLIPSE
  5
1E23
330
2
100
AcDbEntity
  8
OUTLINE
 48
50.0
100
AcDbEllipse
 10
2389.404703458522
 20
895.4912811132148
 30
0.0
 11
-2.0
 21
0.0000000000000008
 31
0.0
210
0.0
220
0.0
230
1.0
 40
0.0005808531511532
 41
-0.0000000012903489
 42
6.28318530588861
  0
ELLIPSE
  5
1E24
330
2
100
AcDbEntity
  8
OUTLINE
 48
50.0
100
AcDbEllipse
 10
2904.404703458522
 20
1255.533622691902
 30
0.0
 11
2.049999999999998
 21
0.0
 31
0.0
210
0.0
220
0.0
230
1.0
 40
0.8657348311144613
 41
0.1414775925999239
 42
3.000115060989867
  0
ELLIPSE
  5
1E25
330
2
100
AcDbEntity
  8
OUTLINE
 48
50.0
100
AcDbEllipse
 10
2719.404703458522
 20
1260.728031678589
 30
0.0
 11
2.049999999999998
 21
0.0
 31
0.0
210
0.0
220
0.0
230
1.0
 40
0.8657348311144613
 41
0.141477592600094
 42
3.0001150609897
  0
ELLIPSE
  5
1E26
330
2
100
AcDbEntity
  8
OUTLINE
 48
50.0
100
AcDbEllipse
 10
2534.404703458522
 20
1255.533622691902
 30
0.0
 11
2.049999999999998
 21
0.0
 31
0.0
210
0.0
220
0.0
230
1.0
 40
0.8657348311144613
 41
0.1414775925999952
 42
3.000115060989798
  0
ELLIPSE
  5
1E27
330
2
100
AcDbEntity
  8
OUTLINE
 48
50.0
100
AcDbEllipse
 10
2349.404703458523
 20
1260.728031678589
 30
0.0
 11
2.049999999999998
 21
0.0
 31
0.0
210
0.0
220
0.0
230
1.0
 40
0.8657348311144613
 41
0.141477592600169
 42
3.000115060989623
  0
ELLIPSE
  5
1E28
330
2
100
AcDbEntity
  8
OUTLINE
 48
50.0
100
AcDbEllipse
 10
2904.404703458522
 20
1255.033119742665
 30
0.0
 11
-2.049999999999998
 21
0.0
 31
0.0
210
0.0
220
0.0
230
1.0
 40
0.8657348311144613
 41
3.42748344206243
 42
5.997294518706947
  0
ELLIPSE
  5
1E29
330
2
100
AcDbEntity
  8
OUTLINE
 48
50.0
100
AcDbEllipse
 10
2719.404703458522
 20
1260.227528729351
 30
0.0
 11
-2.049999999999998
 21
0.0
 31
0.0
210
0.0
220
0.0
230
1.0
 40
0.8657348311144613
 41
3.427483442062548
 42
5.997294518706829
  0
ELLIPSE
  5
1E2A
330
2
100
AcDbEntity
  8
OUTLINE
 48
50.0
100
AcDbEllipse
 10
2534.404703458522
 20
1255.033119742664
 30
0.0
 11
-2.049999999999998
 21
0.0
 31
0.0
210
0.0
220
0.0
230
1.0
 40
0.8657348311144613
 41
3.427483442062501
 42
5.997294518706878
  0
ELLIPSE
  5
1E2B
330
2
100
AcDbEntity
  8
OUTLINE
 48
50.0
100
AcDbEllipse
 10
2349.404703458523
 20
1260.227528729351
 30
0.0
 11
-2.049999999999998
 21
0.0
 31
0.0
210
0.0
220
0.0
230
1.0
 40
0.8657348311144613
 41
3.427483442062595
 42
5.99729451870678
  0
ELLIPSE
  5
1E2C
330
2
100
AcDbEntity
  8
OUTLINE
 48
50.0
100
AcDbEllipse
 10
3089.404703458523
 20
1260.728031678589
 30
0.0
 11
2.049999999999998
 21
0.0
 31
0.0
210
0.0
220
0.0
230
1.0
 40
0.8657348311144613
 41
0.1414775926000227
 42
3.000115060989771
  0
ELLIPSE
  5
1E2D
330
2
100
AcDbEntity
  8
OUTLINE
 48
50.0
100
AcDbEllipse
 10
3089.404703458523
 20
1260.227528729352
 30
0.0
 11
-2.049999999999998
 21
0.0
 31
0.0
210
0.0
220
0.0
230
1.0
 40
0.8657348311144613
 41
3.427483442062501
 42
5.997294518706878
  0
LINE
  5
1E2E
330
2
100
AcDbEntity
  8
NOTE
 48
50.0
100
AcDbLine
 10
3995.904703458519
 20
962.9989074078936
 30
0.0
 11
3996.904703458521
 21
962.9989074078936
 31
0.0
  0
LINE
  5
1E2F
330
2
100
AcDbEntity
  8
NOTE
 48
50.0
100
AcDbLine
 10
3996.404703458519
 20
962.4989074078936
 30
0.0
 11
3996.404703458519
 21
963.4989074078939
 31
0.0
  0
LINE
  5
1E30
330
2
100
AcDbEntity
  8
NOTE
 48
50.0
100
AcDbLine
 10
3982.904703458519
 20
962.9989074078936
 30
0.0
 11
3994.904703458519
 21
962.9989074078936
 31
0.0
  0
LINE
  5
1E31
330
2
100
AcDbEntity
  8
NOTE
 48
50.0
100
AcDbLine
 10
3997.904703458522
 20
962.9989074078936
 30
0.0
 11
4009.904703458519
 21
962.9989074078936
 31
0.0
  0
LINE
  5
1E32
330
2
100
AcDbEntity
  8
NOTE
 48
50.0
100
AcDbLine
 10
3996.404703458519
 20
949.4989074078937
 30
0.0
 11
3996.404703458519
 21
961.4989074078936
 31
0.0
  0
LINE
  5
1E33
330
2
100
AcDbEntity
  8
NOTE
 48
50.0
100
AcDbLine
 10
3996.404703458519
 20
964.4989074078939
 30
0.0
 11
3996.404703458519
 21
976.4989074078936
 31
0.0
  0
LINE
  5
1E34
330
2
100
AcDbEntity
  8
NOTE
 48
50.0
100
AcDbLine
 10
3164.904703458509
 20
962.9989074078936
 30
0.0
 11
3165.904703458509
 21
962.9989074078936
 31
0.0
  0
LINE
  5
1E35
330
2
100
AcDbEntity
  8
NOTE
 48
50.0
100
AcDbLine
 10
3165.404703458508
 20
962.4989074078936
 30
0.0
 11
3165.404703458508
 21
963.4989074078935
 31
0.0
  0
LINE
  5
1E36
330
2
100
AcDbEntity
  8
NOTE
 48
50.0
100
AcDbLine
 10
3151.904703458508
 20
962.9989074078936
 30
0.0
 11
3163.904703458508
 21
962.9989074078936
 31
0.0
  0
LINE
  5
1E37
330
2
100
AcDbEntity
  8
NOTE
 48
50.0
100
AcDbLine
 10
3166.904703458508
 20
962.9989074078936
 30
0.0
 11
3178.904703458508
 21
962.9989074078936
 31
0.0
  0
LINE
  5
1E38
330
2
100
AcDbEntity
  8
NOTE
 48
50.0
100
AcDbLine
 10
3165.404703458508
 20
949.4989074078937
 30
0.0
 11
3165.404703458508
 21
961.4989074078936
 31
0.0
  0
LINE
  5
1E39
330
2
100
AcDbEntity
  8
NOTE
 48
50.0
100
AcDbLine
 10
3165.404703458508
 20
964.4989074078935
 30
0.0
 11
3165.404703458508
 21
976.4989074078936
 31
0.0
  0
LINE
  5
1E3A
330
2
100
AcDbEntity
  8
NOTE
 48
50.0
100
AcDbLine
 10
3164.904703458509
 20
1562.998907407894
 30
0.0
 11
3165.904703458509
 21
1562.998907407894
 31
0.0
  0
LINE
  5
1E3B
330
2
100
AcDbEntity
  8
NOTE
 48
50.0
100
AcDbLine
 10
3165.404703458508
 20
1562.498907407894
 30
0.0
 11
3165.404703458508
 21
1563.498907407894
 31
0.0
  0
LINE
  5
1E3C
330
2
100
AcDbEntity
  8
NOTE
 48
50.0
100
AcDbLine
 10
3151.904703458508
 20
1562.998907407894
 30
0.0
 11
3163.904703458508
 21
1562.998907407894
 31
0.0
  0
LINE
  5
1E3D
330
2
100
AcDbEntity
  8
NOTE
 48
50.0
100
AcDbLine
 10
3166.904703458508
 20
1562.998907407894
 30
0.0
 11
3178.904703458508
 21
1562.998907407894
 31
0.0
  0
LINE
  5
1E3E
330
2
100
AcDbEntity
  8
NOTE
 48
50.0
100
AcDbLine
 10
3165.404703458508
 20
1549.498907407894
 30
0.0
 11
3165.404703458508
 21
1561.498907407894
 31
0.0
  0
LINE
  5
1E3F
330
2
100
AcDbEntity
  8
NOTE
 48
50.0
100
AcDbLine
 10
3165.404703458508
 20
1564.498907407894
 30
0.0
 11
3165.404703458508
 21
1576.498907407894
 31
0.0
  0
LINE
  5
1E40
330
2
100
AcDbEntity
  8
NOTE
 48
50.0
100
AcDbLine
 10
3115.904703458522
 20
962.9989074095668
 30
0.0
 11
3116.904703458522
 21
962.9989074095668
 31
0.0
  0
LINE
  5
1E41
330
2
100
AcDbEntity
  8
NOTE
 48
50.0
100
AcDbLine
 10
3116.404703458523
 20
962.4989074095667
 30
0.0
 11
3116.404703458523
 21
963.4989074095667
 31
0.0
  0
LINE
  5
1E42
330
2
100
AcDbEntity
  8
NOTE
 48
50.0
100
AcDbLine
 10
3102.904703458523
 20
962.9989074095668
 30
0.0
 11
3114.904703458523
 21
962.9989074095668
 31
0.0
  0
LINE
  5
1E43
330
2
100
AcDbEntity
  8
NOTE
 48
50.0
100
AcDbLine
 10
3117.904703458523
 20
962.9989074095668
 30
0.0
 11
3129.904703458523
 21
962.9989074095668
 31
0.0
  0
LINE
  5
1E44
330
2
100
AcDbEntity
  8
NOTE
 48
50.0
100
AcDbLine
 10
3116.404703458523
 20
949.4989074095668
 30
0.0
 11
3116.404703458523
 21
961.4989074095667
 31
0.0
  0
LINE
  5
1E45
330
2
100
AcDbEntity
  8
NOTE
 48
50.0
100
AcDbLine
 10
3116.404703458523
 20
964.4989074095667
 30
0.0
 11
3116.404703458523
 21
976.4989074095668
 31
0.0
  0
LINE
  5
1E46
330
2
100
AcDbEntity
  8
NOTE
 48
50.0
100
AcDbLine
 10
3115.904703458522
 20
1562.998907409567
 30
0.0
 11
3116.904703458522
 21
1562.998907409567
 31
0.0
  0
LINE
  5
1E47
330
2
100
AcDbEntity
  8
NOTE
 48
50.0
100
AcDbLine
 10
3116.404703458523
 20
1562.498907409567
 30
0.0
 11
3116.404703458523
 21
1563.498907409567
 31
0.0
  0
LINE
  5
1E48
330
2
100
AcDbEntity
  8
NOTE
 48
50.0
100
AcDbLine
 10
3102.904703458523
 20
1562.998907409567
 30
0.0
 11
3114.904703458523
 21
1562.998907409567
 31
0.0
  0
LINE
  5
1E49
330
2
100
AcDbEntity
  8
NOTE
 48
50.0
100
AcDbLine
 10
3117.904703458523
 20
1562.998907409567
 30
0.0
 11
3129.904703458523
 21
1562.998907409567
 31
0.0
  0
LINE
  5
1E4A
330
2
100
AcDbEntity
  8
NOTE
 48
50.0
100
AcDbLine
 10
3116.404703458523
 20
1549.498907409567
 30
0.0
 11
3116.404703458523
 21
1561.498907409567
 31
0.0
  0
LINE
  5
1E4B
330
2
100
AcDbEntity
  8
NOTE
 48
50.0
100
AcDbLine
 10
3116.404703458523
 20
1564.498907409567
 30
0.0
 11
3116.404703458523
 21
1576.498907409567
 31
0.0
  0
LINE
  5
1E4C
330
2
100
AcDbEntity
  8
NOTE
 48
50.0
100
AcDbLine
 10
3995.904703458519
 20
1112.998907407894
 30
0.0
 11
3996.904703458521
 21
1112.998907407894
 31
0.0
  0
LINE
  5
1E4D
330
2
100
AcDbEntity
  8
NOTE
 48
50.0
100
AcDbLine
 10
3996.404703458519
 20
1112.498907407894
 30
0.0
 11
3996.404703458519
 21
1113.498907407894
 31
0.0
  0
LINE
  5
1E4E
330
2
100
AcDbEntity
  8
NOTE
 48
50.0
100
AcDbLine
 10
3982.904703458519
 20
1112.998907407894
 30
0.0
 11
3994.904703458519
 21
1112.998907407894
 31
0.0
  0
LINE
  5
1E4F
330
2
100
AcDbEntity
  8
NOTE
 48
50.0
100
AcDbLine
 10
3997.904703458522
 20
1112.998907407894
 30
0.0
 11
4009.904703458519
 21
1112.998907407894
 31
0.0
  0
LINE
  5
1E50
330
2
100
AcDbEntity
  8
NOTE
 48
50.0
100
AcDbLine
 10
3996.404703458519
 20
1099.498907407894
 30
0.0
 11
3996.404703458519
 21
1111.498907407894
 31
0.0
  0
LINE
  5
1E51
330
2
100
AcDbEntity
  8
NOTE
 48
50.0
100
AcDbLine
 10
3996.404703458519
 20
1114.498907407894
 30
0.0
 11
3996.404703458519
 21
1126.498907407894
 31
0.0
  0
LINE
  5
1E52
330
2
100
AcDbEntity
  8
NOTE
 48
50.0
100
AcDbLine
 10
3995.904703458519
 20
1262.998907407894
 30
0.0
 11
3996.904703458521
 21
1262.998907407894
 31
0.0
  0
LINE
  5
1E53
330
2
100
AcDbEntity
  8
NOTE
 48
50.0
100
AcDbLine
 10
3996.404703458519
 20
1262.498907407894
 30
0.0
 11
3996.404703458519
 21
1263.498907407894
 31
0.0
  0
LINE
  5
1E54
330
2
100
AcDbEntity
  8
NOTE
 48
50.0
100
AcDbLine
 10
3982.904703458519
 20
1262.998907407894
 30
0.0
 11
3994.904703458519
 21
1262.998907407894
 31
0.0
  0
LINE
  5
1E55
330
2
100
AcDbEntity
  8
NOTE
 48
50.0
100
AcDbLine
 10
3997.904703458522
 20
1262.998907407894
 30
0.0
 11
4009.904703458519
 21
1262.998907407894
 31
0.0
  0
LINE
  5
1E56
330
2
100
AcDbEntity
  8
NOTE
 48
50.0
100
AcDbLine
 10
3996.404703458519
 20
1249.498907407894
 30
0.0
 11
3996.404703458519
 21
1261.498907407894
 31
0.0
  0
LINE
  5
1E57
330
2
100
AcDbEntity
  8
NOTE
 48
50.0
100
AcDbLine
 10
3996.404703458519
 20
1264.498907407894
 30
0.0
 11
3996.404703458519
 21
1276.498907407894
 31
0.0
  0
LINE
  5
1E58
330
2
100
AcDbEntity
  8
NOTE
 48
50.0
100
AcDbLine
 10
3995.904703458519
 20
1412.998907407894
 30
0.0
 11
3996.904703458521
 21
1412.998907407894
 31
0.0
  0
LINE
  5
1E59
330
2
100
AcDbEntity
  8
NOTE
 48
50.0
100
AcDbLine
 10
3996.404703458519
 20
1412.498907407894
 30
0.0
 11
3996.404703458519
 21
1413.498907407894
 31
0.0
  0
LINE
  5
1E5A
330
2
100
AcDbEntity
  8
NOTE
 48
50.0
100
AcDbLine
 10
3982.904703458519
 20
1412.998907407894
 30
0.0
 11
3994.904703458519
 21
1412.998907407894
 31
0.0
  0
LINE
  5
1E5B
330
2
100
AcDbEntity
  8
NOTE
 48
50.0
100
AcDbLine
 10
3997.904703458522
 20
1412.998907407894
 30
0.0
 11
4009.904703458519
 21
1412.998907407894
 31
0.0
  0
LINE
  5
1E5C
330
2
100
AcDbEntity
  8
NOTE
 48
50.0
100
AcDbLine
 10
3996.404703458519
 20
1399.498907407894
 30
0.0
 11
3996.404703458519
 21
1411.498907407894
 31
0.0
  0
LINE
  5
1E5D
330
2
100
AcDbEntity
  8
NOTE
 48
50.0
100
AcDbLine
 10
3996.404703458519
 20
1414.498907407894
 30
0.0
 11
3996.404703458519
 21
1426.498907407894
 31
0.0
  0
LINE
  5
1E5E
330
2
100
AcDbEntity
  8
NOTE
 48
50.0
100
AcDbLine
 10
3995.904703458519
 20
1562.998907407894
 30
0.0
 11
3996.904703458521
 21
1562.998907407894
 31
0.0
  0
LINE
  5
1E5F
330
2
100
AcDbEntity
  8
NOTE
 48
50.0
100
AcDbLine
 10
3996.404703458519
 20
1562.498907407894
 30
0.0
 11
3996.404703458519
 21
1563.498907407894
 31
0.0
  0
LINE
  5
1E60
330
2
100
AcDbEntity
  8
NOTE
 48
50.0
100
AcDbLine
 10
3982.904703458519
 20
1562.998907407894
 30
0.0
 11
3994.904703458519
 21
1562.998907407894
 31
0.0
  0
LINE
  5
1E61
330
2
100
AcDbEntity
  8
NOTE
 48
50.0
100
AcDbLine
 10
3997.904703458522
 20
1562.998907407894
 30
0.0
 11
4009.904703458519
 21
1562.998907407894
 31
0.0
  0
LINE
  5
1E62
330
2
100
AcDbEntity
  8
NOTE
 48
50.0
100
AcDbLine
 10
3996.404703458519
 20
1549.498907407894
 30
0.0
 11
3996.404703458519
 21
1561.498907407894
 31
0.0
  0
LINE
  5
1E63
330
2
100
AcDbEntity
  8
NOTE
 48
50.0
100
AcDbLine
 10
3996.404703458519
 20
1564.498907407894
 30
0.0
 11
3996.404703458519
 21
1576.498907407894
 31
0.0
  0
LINE
  5
1E64
330
2
100
AcDbEntity
  8
NOTE
 48
50.0
100
AcDbLine
 10
2284.904703458516
 20
962.9989074091996
 30
0.0
 11
2285.904703458516
 21
962.9989074091996
 31
0.0
  0
LINE
  5
1E65
330
2
100
AcDbEntity
  8
NOTE
 48
50.0
100
AcDbLine
 10
2285.404703458516
 20
962.4989074091997
 30
0.0
 11
2285.404703458516
 21
963.4989074091997
 31
0.0
  0
LINE
  5
1E66
330
2
100
AcDbEntity
  8
NOTE
 48
50.0
100
AcDbLine
 10
2271.904703458516
 20
962.9989074091996
 30
0.0
 11
2283.904703458516
 21
962.9989074091996
 31
0.0
  0
LINE
  5
1E67
330
2
100
AcDbEntity
  8
NOTE
 48
50.0
100
AcDbLine
 10
2286.904703458516
 20
962.9989074091996
 30
0.0
 11
2298.904703458516
 21
962.9989074091996
 31
0.0
  0
LINE
  5
1E68
330
2
100
AcDbEntity
  8
NOTE
 48
50.0
100
AcDbLine
 10
2285.404703458516
 20
949.4989074091996
 30
0.0
 11
2285.404703458516
 21
961.4989074091996
 31
0.0
  0
LINE
  5
1E69
330
2
100
AcDbEntity
  8
NOTE
 48
50.0
100
AcDbLine
 10
2285.404703458516
 20
964.4989074091997
 30
0.0
 11
2285.404703458516
 21
976.4989074091996
 31
0.0
  0
LINE
  5
1E6A
330
2
100
AcDbEntity
  8
NOTE
 48
50.0
100
AcDbLine
 10
2284.904703458516
 20
1112.998907409199
 30
0.0
 11
2285.904703458516
 21
1112.998907409199
 31
0.0
  0
LINE
  5
1E6B
330
2
100
AcDbEntity
  8
NOTE
 48
50.0
100
AcDbLine
 10
2285.404703458516
 20
1112.498907409199
 30
0.0
 11
2285.404703458516
 21
1113.498907409199
 31
0.0
  0
LINE
  5
1E6C
330
2
100
AcDbEntity
  8
NOTE
 48
50.0
100
AcDbLine
 10
2271.904703458516
 20
1112.998907409199
 30
0.0
 11
2283.904703458516
 21
1112.998907409199
 31
0.0
  0
LINE
  5
1E6D
330
2
100
AcDbEntity
  8
NOTE
 48
50.0
100
AcDbLine
 10
2286.904703458516
 20
1112.998907409199
 30
0.0
 11
2298.904703458516
 21
1112.998907409199
 31
0.0
  0
LINE
  5
1E6E
330
2
100
AcDbEntity
  8
NOTE
 48
50.0
100
AcDbLine
 10
2285.404703458516
 20
1099.498907409199
 30
0.0
 11
2285.404703458516
 21
1111.498907409199
 31
0.0
  0
LINE
  5
1E6F
330
2
100
AcDbEntity
  8
NOTE
 48
50.0
100
AcDbLine
 10
2285.404703458516
 20
1114.498907409199
 30
0.0
 11
2285.404703458516
 21
1126.4989074092
 31
0.0
  0
LINE
  5
1E70
330
2
100
AcDbEntity
  8
NOTE
 48
50.0
100
AcDbLine
 10
2284.904703458516
 20
1262.998907409199
 30
0.0
 11
2285.904703458516
 21
1262.998907409199
 31
0.0
  0
LINE
  5
1E71
330
2
100
AcDbEntity
  8
NOTE
 48
50.0
100
AcDbLine
 10
2285.404703458516
 20
1262.498907409199
 30
0.0
 11
2285.404703458516
 21
1263.498907409199
 31
0.0
  0
LINE
  5
1E72
330
2
100
AcDbEntity
  8
NOTE
 48
50.0
100
AcDbLine
 10
2271.904703458516
 20
1262.998907409199
 30
0.0
 11
2283.904703458516
 21
1262.998907409199
 31
0.0
  0
LINE
  5
1E73
330
2
100
AcDbEntity
  8
NOTE
 48
50.0
100
AcDbLine
 10
2286.904703458516
 20
1262.998907409199
 30
0.0
 11
2298.904703458516
 21
1262.998907409199
 31
0.0
  0
LINE
  5
1E74
330
2
100
AcDbEntity
  8
NOTE
 48
50.0
100
AcDbLine
 10
2285.404703458516
 20
1249.498907409199
 30
0.0
 11
2285.404703458516
 21
1261.4989074092
 31
0.0
  0
LINE
  5
1E75
330
2
100
AcDbEntity
  8
NOTE
 48
50.0
100
AcDbLine
 10
2285.404703458516
 20
1264.498907409199
 30
0.0
 11
2285.404703458516
 21
1276.498907409199
 31
0.0
  0
LINE
  5
1E76
330
2
100
AcDbEntity
  8
NOTE
 48
50.0
100
AcDbLine
 10
2284.904703458516
 20
1412.998907409199
 30
0.0
 11
2285.904703458516
 21
1412.998907409199
 31
0.0
  0
LINE
  5
1E77
330
2
100
AcDbEntity
  8
NOTE
 48
50.0
100
AcDbLine
 10
2285.404703458516
 20
1412.498907409199
 30
0.0
 11
2285.404703458516
 21
1413.498907409199
 31
0.0
  0
LINE
  5
1E78
330
2
100
AcDbEntity
  8
NOTE
 48
50.0
100
AcDbLine
 10
2271.904703458516
 20
1412.998907409199
 30
0.0
 11
2283.904703458516
 21
1412.998907409199
 31
0.0
  0
LINE
  5
1E79
330
2
100
AcDbEntity
  8
NOTE
 48
50.0
100
AcDbLine
 10
2286.904703458516
 20
1412.998907409199
 30
0.0
 11
2298.904703458516
 21
1412.998907409199
 31
0.0
  0
LINE
  5
1E7A
330
2
100
AcDbEntity
  8
NOTE
 48
50.0
100
AcDbLine
 10
2285.404703458516
 20
1399.498907409199
 30
0.0
 11
2285.404703458516
 21
1411.498907409199
 31
0.0
  0
LINE
  5
1E7B
330
2
100
AcDbEntity
  8
NOTE
 48
50.0
100
AcDbLine
 10
2285.404703458516
 20
1414.498907409199
 30
0.0
 11
2285.404703458516
 21
1426.4989074092
 31
0.0
  0
LINE
  5
1E7C
330
2
100
AcDbEntity
  8
NOTE
 48
50.0
100
AcDbLine
 10
2284.904703458516
 20
1562.998907409199
 30
0.0
 11
2285.904703458516
 21
1562.998907409199
 31
0.0
  0
LINE
  5
1E7D
330
2
100
AcDbEntity
  8
NOTE
 48
50.0
100
AcDbLine
 10
2285.404703458516
 20
1562.498907409199
 30
0.0
 11
2285.404703458516
 21
1563.498907409199
 31
0.0
  0
LINE
  5
1E7E
330
2
100
AcDbEntity
  8
NOTE
 48
50.0
100
AcDbLine
 10
2271.904703458516
 20
1562.998907409199
 30
0.0
 11
2283.904703458516
 21
1562.998907409199
 31
0.0
  0
LINE
  5
1E7F
330
2
100
AcDbEntity
  8
NOTE
 48
50.0
100
AcDbLine
 10
2286.904703458516
 20
1562.998907409199
 30
0.0
 11
2298.904703458516
 21
1562.998907409199
 31
0.0
  0
LINE
  5
1E80
330
2
100
AcDbEntity
  8
NOTE
 48
50.0
100
AcDbLine
 10
2285.404703458516
 20
1549.498907409199
 30
0.0
 11
2285.404703458516
 21
1561.498907409199
 31
0.0
  0
LINE
  5
1E81
330
2
100
AcDbEntity
  8
NOTE
 48
50.0
100
AcDbLine
 10
2285.404703458516
 20
1564.498907409199
 30
0.0
 11
2285.404703458516
 21
1576.4989074092
 31
0.0
  0
LINE
  5
1E82
330
2
100
AcDbEntity
  8
BASIS
  6
DASHDOT
 62
     6
 48
50.0
100
AcDbLine
 10
3140.904703458521
 20
853.3399787720201
 30
0.0
 11
3140.904703458521
 21
1666.467855477594
 31
0.0
  0
LINE
  5
1E83
330
2
100
AcDbEntity
  8
ARRANGE
  6
Continuous
 62
     1
 48
50.0
100
AcDbLine
 10
3124.220585894116
 20
1246.319178203098
 30
0.0
 11
3157.588821022923
 21
1279.687413331905
 31
0.0
  0
LINE
  5
1E84
330
2
100
AcDbEntity
  8
ARRANGE
  6
Continuous
 62
     1
 48
50.0
100
AcDbLine
 10
3124.220585894116
 20
1279.687413331905
 30
0.0
 11
3157.588821022923
 21
1246.319178203098
 31
0.0
  0
CIRCLE
  5
1E85
330
2
100
AcDbEntity
  8
ARRANGE
 48
50.0
100
AcDbCircle
 10
3140.904703458521
 20
1263.003295767502
 30
0.0
 40
15.0
  0
LINE
  5
1E86
330
2
100
AcDbEntity
  8
BASIS
 48
50.0
100
AcDbLine
 10
4034.491882955573
 20
1263.003295767502
 30
0.0
 11
2245.147696735446
 21
1263.003295767502
 31
0.0
  0
MULTILEADER
  5
1EBF
330
2
100
AcDbEntity
  8
NOTE
 48
50.0
 92
     1148
310
7C0400001C0000000C00000010000000050000000C00000016000000000000C00C00000013000000112700003C0000000600000002000000B489EDAD023AA140AA24A1C723509A4000000000000000009504025C4A39A140AA24A1C723509A4000000000000000000C0000001300000001000000880000001D000000B5E432
310
E346D5254070354FD408C2304000000000000000008A30A56B21D4A14070354FD408C230C0B5E432E346D525400000000000000000372DD941F67698400000000000000000000000000000000000000000000034400000000000000000000000000000000000000000000000000000000000000000000000000000F03F0C00
310
000016000000040000C30C00000017000000FDFFFFFF540000002000000002000000000000000000F0BF498A025C1426D13F000000000000000000000000000000000000000000000000000000000000000000000000000000000000000000000000000000000000F03F0C00000016000000040000C30C00000017000000FD
310
FFFFFF540000002000000002000000000000000000000000000000000000000000000000000000000000000000F0BF498A025C1426D1BF000000000000000000000000000000000000000000000000000000000000F03F0C00000016000000040000C30C00000017000000FDFFFFFF54000000200000000200000000000000
310
0000000000000000000000000000000000000000000000000000F0BF0000000000000000000000000000000000000000000000000000000000000000000000000000F03F080000001F0000000C00000016000000000000C00C00000013000000891300003C0000000600000002000000A5FDC1244CBEA1400D6A2A65FEB998
310
400000000000000000B489EDAD023AA140AA24A1C723509A4000000000000000000C000000130000009A3A00003C000000060000000200000058350E1F7B69A040AA24A1C723509A4000000000000000009504025C4A39A140AA24A1C723509A4000000000000000000C00000016000000000000C00C00000012000000FF7F
310
00000C00000017000000FFFFFFFF0C00000016000000000000C00C00000013000000993A0000AC0000000B000000A1C732680D5EA040AA24A1C723609A40000000000000000000000000000000000000000000000000000000000000F03F000000000000F03F000000000000000000000000000000003130817E0000000004
310
000000010000000000000000003440000000000000F03F0000000000000000000000000000F03F0000000000000000000000000000000000000000726F6D616E732E7368780000657874666F6E742E73687800B00000000B0000007D7EA043C463A04055CF4B72CEDA99400000000000000000000000000000000000000000
310
00000000000000000000F03F000000000000F03F0000000000000000000000000000000039817E3792B78C8A00FFFFFF08000000010000000000000000003440000000000000F03F0000000000000000000000000000F03F0000000000000000000000000000000000000000726F6D616E732E7368780000657874666F6E74
310
2E73687800
100
AcDbMLeader
300
CONTEXT_DATA{
 40
1.0
 10
2098.740471309673
 20
1696.034941213477
 30
0.0
 41
20.0
140
20.0
145
2.0
174
     1
175
     6
176
     0
177
     0
290
     1
304
10×\P9×7長穴
 11
0.0
 21
0.0
 31
1.0
340
23
 12
2100.740471309673
 22
1708.034941213477
 32
0.0
 13
1.0
 23
0.0
 33
0.0
 42
0.0
 43
0.0
 44
0.0
 45
1.0
170
     1
 90
-1073741824
171
     1
172
     5
 91
-1073741824
141
0.0
 92
 12640252
291
     0
292
     0
173
     0
293
     0
142
0.0
143
0.0
294
     0
295
     0
296
     0
110
2282.065274393249
120
1565.740485566506
130
0.0
111
1.0
121
0.0
131
0.0
112
0.0
122
1.0
132
0.0
297
     0
302
LEADER{
290
     1
291
     1
 10
2205.005233214435
 20
1684.034941213477
 30
0.0
 11
-1.0
 21
0.0
 31
0.0
 90
        0
 40
0.359999999999998
304
LEADER_LINE{
 10
2282.065274393249
 20
1565.740485566506
 30
0.0
 91
        0
305
}
303
}
301
}
340
B17
 90
 67454336
170
     1
 91
-1056964608
341
26
171
    -2
290
     1
291
     1
 41
0.36
342
32
 42
20.0
172
     2
343
23
173
     1
 95
        6
174
     1
175
     2
 92
-1056964608
292
     0
 93
-1056964608
 10
1.0
 20
1.0
 30
1.0
 43
0.0
176
     0
293
     0
294
     0
178
     0
179
     1
 45
1.0
1001
ACAD_MLEADERVER
1070
     2
  0
MULTILEADER
  5
1EC0
330
2
100
AcDbEntity
  8
NOTE
 48
50.0
 92
      976
310
D00300001B0000000C00000010000000050000000C00000016000000000000C00C00000013000000112700003C00000006000000020000001EEF734A05F4A740AA24A1C723F099400000000000000000FF6988F84CF3A740AA24A1C723F0994000000000000000000C0000001300000001000000880000001D0000003C2C8E
310
B831322240E1B830B592CF31400000000000000000258E20CB5A54A840E1B830B592CF31C03C2C8EB8313222400000000000000000372DD941F67698400000000000000000000000000000000000000000000034400000000000000000000000000000000000000000000000000000000000000000000000000000F03F0C00
310
000016000000040000C30C00000017000000FDFFFFFF540000002000000002000000000000000000F0BF498A025C1426D13F000000000000000000000000000000000000000000000000000000000000000000000000000000000000000000000000000000000000F03F0C00000016000000040000C30C00000017000000FD
310
FFFFFF540000002000000002000000000000000000000000000000000000000000000000000000000000000000F0BF498A025C1426D1BF000000000000000000000000000000000000000000000000000000000000F03F0C00000016000000040000C30C00000017000000FDFFFFFF54000000200000000200000000000000
310
0000000000000000000000000000000000000000000000000000F0BF0000000000000000000000000000000000000000000000000000000000000000000000000000F03F080000001F0000000C00000016000000000000C00C00000013000000891300003C0000000600000002000000F9FF67992842A8401AF0AD8C34BE98
310
4000000000000000001EEF734A05F4A740AA24A1C723F0994000000000000000000C000000130000009A3A00003C000000060000000200000030764B29595AA740AA24A1C723F099400000000000000000FF6988F84CF3A740AA24A1C723F0994000000000000000000C00000016000000000000C00C00000012000000FF7F
310
00000C00000017000000FFFFFFFF0C00000016000000000000C00C00000013000000993A0000B00000000B00000054BFDD4DA254A740AA24A1C723009A40000000000000000000000000000000000000000000000000000000000000F03F000000000000F03F0000000000000000000000000000000034817E5C552B323230
310
3537000B000000010000000000000000003440000000000000F03F0000000000000000000000000000F03F0000000000000000000000000000000000000000726F6D616E732E7368780000657874666F6E742E73687800
100
AcDbMLeader
300
CONTEXT_DATA{
 40
1.0
 10
2987.174143179109
 20
1672.034941213477
 30
0.0
 41
20.0
140
20.0
145
2.0
174
     1
175
     6
176
     0
177
     0
290
     1
304
4×%%C7
 11
0.0
 21
0.0
 31
1.0
340
23
 12
2989.174143179108
 22
1684.034941213477
 32
0.0
 13
1.0
 23
0.0
 33
0.0
 42
0.0
 43
0.0
 44
0.0
 45
1.0
170
     1
 90
-1073741824
171
     1
172
     5
 91
-1073741824
141
0.0
 92
 12640252
291
     0
292
     0
173
     0
293
     0
142
0.0
143
0.0
294
     0
295
     0
296
     0
110
3114.177330987312
120
1565.740485566506
130
0.0
111
1.0
121
0.0
131
0.0
112
0.0
122
1.0
132
0.0
297
     0
302
LEADER{
290
     1
291
     1
 10
3066.010333655299
 20
1660.034941213477
 30
0.0
 11
-1.0
 21
0.0
 31
0.0
 90
        0
 40
0.359999999999998
304
LEADER_LINE{
 10
3114.177330987312
 20
1565.740485566506
 30
0.0
 91
        0
305
}
303
}
301
}
340
B17
 90
 67454336
170
     1
 91
-1056964608
341
26
171
    -2
290
     1
291
     1
 41
0.36
342
32
 42
20.0
172
     2
343
23
173
     1
 95
        6
174
     1
175
     2
 92
-1056964608
292
     0
 93
-1056964608
 10
1.0
 20
1.0
 30
1.0
 43
0.0
176
     0
293
     0
294
     0
178
     0
179
     1
 45
1.0
1001
ACAD_MLEADERVER
1070
     2
  0
DIMENSION
  5
1EC1
330
2
100
AcDbEntity
  8
SIZE
 48
50.0
100
AcDbDimension
  2
*D21
 10
2187.381406941597
 20
1412.998907409199
 30
0.0
 11
2167.381406941597
 21
1487.998907409199
 31
0.0
 70
    32
 71
     5
 42
150.0
  3
STANDARD
100
AcDbAlignedDimension
 13
2271.904703458516
 23
1562.998907409199
 33
0.0
 14
2271.904703458516
 24
1412.998907409199
 34
0.0
 50
90.0
100
AcDbRotatedDimension
1001
ACAD
1000
DSTYLE
1002
{
1070
    40
1040
10.0
1070
    45
1040
0.5
1070
    50
1040
0.7853981633974483
1070
    90
1070
     1
1070
   271
1070
     1
1070
   272
1070
     1
1002
}
  0
DIMENSION
  5
1ECE
330
2
100
AcDbEntity
  8
SIZE
 48
50.0
100
AcDbDimension
  2
*D22
 10
2187.381406941597
 20
1263.003295767502
 30
0.0
 11
2167.381406941597
 21
1338.001101588351
 31
0.0
 70
    32
 71
     5
 42
149.9956116416967
  3
STANDARD
100
AcDbAlignedDimension
 13
2271.904703458516
 23
1412.998907409199
 33
0.0
 14
2245.147696735446
 24
1263.003295767502
 34
0.0
 50
90.0
100
AcDbRotatedDimension
1001
ACAD
1000
DSTYLE
1002
{
1070
   279
1070
     1
1070
    40
1040
10.0
1070
    45
1040
0.5
1070
    50
1040
0.7853981633974483
1070
    90
1070
     1
1070
   271
1070
     1
1070
   272
1070
     1
1002
}
  0
DIMENSION
  5
1EDB
330
2
100
AcDbEntity
  8
SIZE
 48
50.0
100
AcDbDimension
  2
*D23
 10
2187.381406941597
 20
1112.998907409199
 30
0.0
 11
2167.381406941597
 21
1188.001101588351
 31
0.0
 70
    32
 71
     5
 42
150.004388358303
  3
STANDARD
100
AcDbAlignedDimension
 13
2245.147696735446
 23
1263.003295767502
 33
0.0
 14
2271.904703458516
 24
1112.998907409199
 34
0.0
 50
90.0
100
AcDbRotatedDimension
1001
ACAD
1000
DSTYLE
1002
{
1070
   279
1070
     1
1070
    40
1040
10.0
1070
    45
1040
0.5
1070
    50
1040
0.7853981633974483
1070
    90
1070
     1
1070
   271
1070
     1
1070
   272
1070
     1
1002
}
  0
DIMENSION
  5
1EE8
330
2
100
AcDbEntity
  8
SIZE
 48
50.0
100
AcDbDimension
  2
*D24
 10
2187.381406941595
 20
962.9989074091996
 30
0.0
 11
2167.381406941595
 21
1037.998907409199
 31
0.0
 70
    32
 71
     5
 42
149.9999999999994
  3
STANDARD
100
AcDbAlignedDimension
 13
2271.904703458516
 23
1112.998907409199
 33
0.0
 14
2271.904703458516
 24
962.9989074091996
 34
0.0
 50
90.0
100
AcDbRotatedDimension
1001
ACAD
1000
DSTYLE
1002
{
1070
   279
1070
     1
1070
    40
1040
10.0
1070
    45
1040
0.5
1070
    50
1040
0.7853981633974483
1070
    90
1070
     1
1070
   271
1070
     1
1070
   272
1070
     1
1002
}
  0
DIMENSION
  5
201A
330
2
100
AcDbEntity
  8
SIZE
 48
50.0
100
AcDbDimension
  2
*D25
 10
4012.904703458519
 20
1771.741488437188
 30
0.0
 11
3140.904703458518
 21
1791.741488437188
 31
0.0
 70
    32
 71
     5
 42
1744.000000000002
  3
STANDARD
100
AcDbAlignedDimension
 13
2268.904703458517
 23
1575.998907409199
 33
0.0
 14
4012.904703458519
 24
1575.998907407893
 34
0.0
100
AcDbRotatedDimension
1001
ACAD
1000
DSTYLE
1002
{
1070
    40
1040
10.0
1070
    45
1040
0.5
1070
    50
1040
0.7853981633974483
1070
    90
1070
     1
1070
   271
1070
     1
1070
   272
1070
     1
1002
}
  0
DIMENSION
  5
214A
330
2
100
AcDbEntity
  8
SIZE
 48
50.0
100
AcDbDimension
  2
*D27
 10
3165.404703458508
 20
1724.536384508107
 30
0.0
 11
3580.904703458514
 21
1744.536384508107
 31
0.0
 70
    32
 71
     5
 42
831.0000000000108
  3
STANDARD
100
AcDbAlignedDimension
 13
3996.404703458519
 23
1576.498907407894
 33
0.0
 14
3165.404703458508
 24
1576.498907407894
 34
0.0
100
AcDbRotatedDimension
1001
ACAD
1000
DSTYLE
1002
{
1070
    40
1040
10.0
1070
    45
1040
0.5
1070
    50
1040
0.7853981633974483
1070
    90
1070
     1
1070
   271
1070
     1
1070
   272
1070
     1
1002
}
  0
DIMENSION
  5
2157
330
2
100
AcDbEntity
  8
SIZE
 48
50.0
100
AcDbDimension
  2
*D28
 10
3116.404703458523
 20
1724.536384508107
 30
0.0
 11
3140.904703458516
 21
1724.536384508107
 31
0.0
 70
   160
 71
     5
 42
48.99999999998545
  3
STANDARD
100
AcDbAlignedDimension
 13
3165.404703458508
 23
1576.498907407894
 33
0.0
 14
3116.404703458523
 24
1576.498907409567
 34
0.0
100
AcDbRotatedDimension
1001
ACAD
1000
DSTYLE
1002
{
1070
   279
1070
     0
1070
    40
1040
10.0
1070
    45
1040
0.5
1070
    50
1040
0.7853981633974483
1070
    90
1070
     1
1070
   271
1070
     1
1070
   272
1070
     1
1002
}
  0
DIMENSION
  5
2169
330
2
100
AcDbEntity
  8
SIZE
 48
50.0
100
AcDbDimension
  2
*D29
 10
2285.404703458516
 20
1724.536384508107
 30
0.0
 11
2700.904703458519
 21
1744.536384508107
 31
0.0
 70
    32
 71
     5
 42
831.0000000000067
  3
STANDARD
100
AcDbAlignedDimension
 13
3116.404703458523
 23
1576.498907409567
 33
0.0
 14
2285.404703458516
 24
1576.498907409567
 34
0.0
100
AcDbRotatedDimension
1001
ACAD
1000
DSTYLE
1002
{
1070
   279
1070
     1
1070
    40
1040
10.0
1070
    45
1040
0.5
1070
    50
1040
0.7853981633974483
1070
    90
1070
     1
1070
   271
1070
     1
1070
   272
1070
     1
1002
}
  0
ENDSEC
  0
SECTION
  2
OBJECTS
  0
DICTIONARY
  5
A
330
0
100
AcDbDictionary
281
     1
  3
ACAD_2007HEADERVARS_RT
350
22D9
  3
ACAD_BACKGROUND
350
B1D
  3
ACAD_COLOR
350
4D
  3
ACAD_GROUP
350
3A
  3
ACAD_LAYOUT
350
17
  3
ACAD_MATERIAL
350
C
  3
ACAD_MLEADERSTYLE
350
B16
  3
ACAD_MLINESTYLE
350
3B
  3
ACAD_PLOTSETTINGS
350
3C
  3
ACAD_PLOTSTYLENAME
350
9
  3
ACAD_SCALELIST
350
4E
  3
ACAD_TABLESTYLE
350
4F
  3
ACAD_VISUALSTYLE
350
2D
  3
ACDB_RECOMPOSE_DATA
350
B02
  3
AcDbVariableDictionary
350
B03
  3
AcmDictionary
350
AFC
  3
AMG
350
126D
  3
AMGSNAPSETTINGS
350
1362
  3
DWGPROPS
350
22D8
  3
MAPISURF_MODULE
350
222B
  0
DICTIONARY
  5
20
330
1F
100
AcDbDictionary
280
     1
281
     1
  3
ACAD_LAYERFILTERS
360
1981
  3
ACAD_LAYERSTATES
360
21
  3
ACLYDICTIONARY
360
1980
  0
DICTIONARY
  5
6
330
5
100
AcDbDictionary
280
     1
281
     1
  3
ADSK_XREC_LAYER_RECONCILED
360
7
  0
DICTIONARY
  5
CB7
330
CB6
100
AcDbDictionary
280
     1
281
     1
  0
DICTIONARY
  5
CB9
330
CB8
100
AcDbDictionary
280
     1
281
     1
  0
DICTIONARY
  5
CBD
330
CBC
100
AcDbDictionary
280
     1
281
     1
  0
DICTIONARY
  5
CBF
330
CBE
100
AcDbDictionary
280
     1
281
     1
  0
DICTIONARY
  5
CC1
330
CC0
100
AcDbDictionary
280
     1
281
     1
  0
DICTIONARY
  5
CC3
330
CC2
100
AcDbDictionary
280
     1
281
     1
  0
DICTIONARY
  5
1B5E
330
1B5D
100
AcDbDictionary
280
     1
281
     1
  0
DICTIONARY
  5
1B60
330
1B5F
100
AcDbDictionary
280
     1
281
     1
  0
DICTIONARY
  5
1B62
330
1B61
100
AcDbDictionary
280
     1
281
     1
  0
DICTIONARY
  5
3
330
2
100
AcDbDictionary
280
     1
281
     1
  3
ACAD_INDEX
360
1547
  3
ACAD_SORTENTS
360
B34
  0
DICTIONARY
  5
22E0
330
1605
100
AcDbDictionary
280
     1
281
     1
  3
ACAD_MTEXT_RT
360
22E1
  0
DICTIONARY
  5
22D9
102
{ACAD_REACTORS
330
A
102
}
330
A
100
AcDbDictionary
281
     1
  3
DIMARCSYM
350
22DB
  3
DIMFXL
350
22DA
  0
DICTIONARY
  5
B1D
102
{ACAD_REACTORS
330
A
102
}
330
A
100
AcDbDictionary
281
     1
  0
DICTIONARY
  5
4D
102
{ACAD_REACTORS
330
A
102
}
330
A
100
AcDbDictionary
281
     1
  0
DICTIONARY
  5
3A
102
{ACAD_REACTORS
330
A
102
}
330
A
100
AcDbDictionary
281
     1
  0
DICTIONARY
  5
17
102
{ACAD_REACTORS
330
A
102
}
330
A
100
AcDbDictionary
281
     1
  3
Model
350
16
  3
レイアウト1
350
1B
  0
DICTIONARY
  5
C
102
{ACAD_REACTORS
330
A
102
}
330
A
100
AcDbDictionary
281
     1
  3
ByBlock
350
45
  3
ByLayer
350
3D
  3
Global
350
B
  0
DICTIONARY
  5
B16
102
{ACAD_REACTORS
330
A
102
}
330
A
100
AcDbDictionary
281
     1
  3
Standard
350
B17
  0
DICTIONARY
  5
3B
102
{ACAD_REACTORS
330
A
102
}
330
A
100
AcDbDictionary
281
     1
  3
STANDARD
350
53
  0
DICTIONARY
  5
3C
102
{ACAD_REACTORS
330
A
102
}
330
A
100
AcDbDictionary
281
     1
  0
ACDBDICTIONARYWDFLT
  5
9
102
{ACAD_REACTORS
330
A
102
}
330
A
100
AcDbDictionary
281
     1
  3
Normal
350
8
100
AcDbDictionaryWithDefault
340
8
  0
DICTIONARY
  5
4E
102
{ACAD_REACTORS
330
A
102
}
330
A
100
AcDbDictionary
281
     1
  3
*A1
350
CC5
  3
*A2
350
1B63
  3
*A3
350
1B64
  3
A0
350
57
  3
A1
350
58
  3
A2
350
59
  3
A3
350
5A
  3
A4
350
5B
  3
A5
350
5C
  3
A6
350
5D
  3
A7
350
5E
  3
A8
350
5F
  3
A9
350
60
  3
B0
350
61
  3
B1
350
62
  3
B2
350
63
  3
B3
350
64
  3
B4
350
65
  3
B5
350
66
  3
B6
350
67
  3
B7
350
68
  3
B8
350
69
  3
B9
350
6A
  3
C0
350
6B
  3
C1
350
6C
  3
C2
350
6D
  3
C3
350
6E
  3
C4
350
6F
  3
C5
350
70
  3
C6
350
71
  3
C7
350
72
  3
C8
350
73
  3
C9
350
74
  3
D0
350
75
  3
D1
350
76
  3
D2
350
77
  0
DICTIONARY
  5
4F
102
{ACAD_REACTORS
330
A
102
}
330
A
100
AcDbDictionary
281
     1
  3
Standard
350
54
  0
DICTIONARY
  5
2D
102
{ACAD_REACTORS
330
A
102
}
330
A
100
AcDbDictionary
281
     1
  3
2dWireframe
350
B0D
  3
3D Hidden
350
B0E
  3
3dWireframe
350
56
  3
Basic
350
B0C
  3
Brighten
350
B11
  3
ColorChange
350
B15
  3
Conceptual
350
B0F
  3
Dim
350
B10
  3
Facepattern
350
B14
  3
Flat
350
B09
  3
FlatWithEdges
350
B0A
  3
Gouraud
350
2C
  3
GouraudWithEdges
350
B0B
  3
Linepattern
350
B13
  3
Realistic
350
55
  3
Thicken
350
B12
  0
XRECORD
  5
B02
102
{ACAD_REACTORS
330
A
102
}
330
A
100
AcDbXrecord
280
     1
 90
        1
330
54
  0
DICTIONARY
  5
B03
102
{ACAD_REACTORS
330
A
102
}
330
A
100
AcDbDictionary
281
     1
  3
CANNOSCALE
350
B06
  3
CMLEADERSTYLE
350
B05
  3
CTABLESTYLE
350
B04
  3
DIMASSOC
350
B7B
  3
HIDETEXT
350
B7A
  3
INDEXCTL
350
B79
  3
LIGHTINGUNITS
350
B07
  3
MSLTSCALE
350
B77
  3
SORTENTS
350
B78
  0
DICTIONARY
  5
AFC
102
{ACAD_REACTORS
330
A
102
}
330
A
100
AcDbDictionary
281
     1
  3
AcmStdDictionary
350
1335
  3
AMDTSECTSYM_ARROWCOLOR
350
134C
  0
DICTIONARY
  5
126D
102
{ACAD_REACTORS
330
A
102
}
330
A
100
AcDbDictionary
281
     1
  3
AcMgSettings
350
126E
  0
DICTIONARY
  5
1362
102
{ACAD_REACTORS
330
A
102
}
330
A
100
AcDbDictionary
281
     1
  3
DIMENSION
350
1367
  3
FEA
350
1366
  3
HATCH (1)
350
1363
  3
HATCH (2)
350
1364
  3
SIMPLE WELD
350
1368
  3
SYMBOLS
350
1365
  0
XRECORD
  5
22D8
102
{ACAD_REACTORS
330
A
102
}
330
A
100
AcDbXrecord
280
     1
  1
DWGPROPS COOKIE
  2

  3

  4

  6

  7

  8
W000135
  9

300
AmdtFileType=84
301
=
302
=
303
=
304
=
305
=
306
=
307
=
308
=
309
=
 40
2.045506493055555
 41
2451324.468257373
 42
2455891.667921574
  1

 90
        1
  0
DICTIONARY
  5
1981
102
{ACAD_REACTORS
330
20
102
}
330
20
100
AcDbDictionary
281
     1
  0
DICTIONARY
  5
21
102
{ACAD_REACTORS
330
20
102
}
330
20
100
AcDbDictionary
281
     1
  0
DICTIONARY
  5
1980
102
{ACAD_REACTORS
330
20
102
}
330
20
100
AcDbDictionary
281
     1
1001
ACAD
1000
<All
  0
XRECORD
  5
7
102
{ACAD_REACTORS
330
6
102
}
330
6
100
AcDbXrecord
280
     1
290
     1
  0
DICTIONARY
  5
1547
102
{ACAD_REACTORS
330
3
102
}
330
3
100
AcDbDictionary
281
     1
  3
*A1
350
1548
  0
SORTENTSTABLE
  5
B34
102
{ACAD_REACTORS
330
3
102
}
330
3
100
AcDbSortentsTable
330
2
331
B60
  5
B60
331
15AD
  5
1884
  0
XRECORD
  5
22E1
102
{ACAD_REACTORS
330
22E0
102
}
330
22E0
100
AcDbXrecord
280
     1
 40
1940.0
  1
\U+22057
  0
XRECORD
  5
22DB
102
{ACAD_REACTORS
330
22D9
102
}
330
22D9
100
AcDbXrecord
280
     1
 70
     1
  0
XRECORD
  5
22DA
102
{ACAD_REACTORS
330
22D9
102
}
330
22D9
100
AcDbXrecord
280
     1
 40
15.0
  0
LAYOUT
  5
16
102
{ACAD_XDICTIONARY
360
22DC
102
}
102
{ACAD_REACTORS
330
17
102
}
330
17
100
AcDbPlotSettings
  1

  2
なし
  4

  6

 40
0.0
 41
0.0
 42
0.0
 43
0.0
 44
0.0
 45
0.0
 46
0.0
 47
0.0
 48
0.0
 49
0.0
140
0.0
141
0.0
142
1.0
143
1.0
 70
  1712
 72
     0
 73
     0
 74
     0
  7

 75
     0
147
1.0
148
0.0
149
0.0
100
AcDbLayout
  1
Model
 70
     1
 71
     0
 10
0.0
 20
0.0
 11
12.0
 21
9.0
 12
0.0
 22
0.0
 32
0.0
 14
0.0
 24
0.0
 34
0.0
 15
0.0
 25
0.0
 35
0.0
146
0.0
 13
0.0
 23
0.0
 33
0.0
 16
1.0
 26
0.0
 36
0.0
 17
0.0
 27
1.0
 37
0.0
 76
     0
330
2
331
C17
  0
LAYOUT
  5
1B
102
{ACAD_XDICTIONARY
360
1C
102
}
102
{ACAD_REACTORS
330
17
102
}
330
17
100
AcDbPlotSettings
  1

  2
Microsoft XPS Document Writer
  4
A4
  6

 40
3.174999952316281
 41
3.174999952316281
 42
3.175003051757812
 43
3.17498779296875
 44
210.0156707763672
 45
297.0106506347656
 46
0.0
 47
0.0
 48
0.0
 49
0.0
140
0.0
141
0.0
142
1.0
143
1.0
 70
   688
 72
     1
 73
     1
 74
     5
  7

 75
    16
147
1.0
148
0.0
149
0.0
100
AcDbLayout
  1
レイアウト1
 70
     1
 71
     1
 10
0.0
 20
0.0
 11
12.0
 21
9.0
 12
0.0
 22
0.0
 32
0.0
 14
-1439.804583653114
 24
-1400.237631316938
 34
0.0
 15
2872.968780515991
 25
1675.790811506817
 35
0.0
146
0.0
 13
0.0
 23
0.0
 33
0.0
 16
1.0
 26
0.0
 36
0.0
 17
0.0
 27
1.0
 37
0.0
 76
     0
330
18
1001
ACAD_PSEXT
1000
Microsoft XPS Document Writer
1000
Microsoft XPS Document Writer
1000
XPSPort:
1000

1070
     0
  0
MATERIAL
  5
45
102
{ACAD_XDICTIONARY
360
46
102
}
102
{ACAD_REACTORS
330
C
102
}
330
C
100
AcDbMaterial
  1
ByBlock
 72
     0
 43
0.0208333333333333
 43
0.0
 43
0.0
 43
0.0
 43
0.0
 43
0.0208333333333333
 43
0.0
 43
0.0
 43
0.0
 43
0.0
 43
1.0
 43
0.0
 43
0.0
 43
0.0
 43
0.0
 43
1.0
 77
     0
 47
0.0208333333333333
 47
0.0
 47
0.0
 47
0.0
 47
0.0
 47
0.0208333333333333
 47
0.0
 47
0.0
 47
0.0
 47
0.0
 47
1.0
 47
0.0
 47
0.0
 47
0.0
 47
0.0
 47
1.0
171
     0
 49
0.0208333333333333
 49
0.0
 49
0.0
 49
0.0
 49
0.0
 49
0.0208333333333333
 49
0.0
 49
0.0
 49
0.0
 49
0.0
 49
1.0
 49
0.0
 49
0.0
 49
0.0
 49
0.0
 49
1.0
175
     0
142
0.0208333333333333
142
0.0
142
0.0
142
0.0
142
0.0
142
0.0208333333333333
142
0.0
142
0.0
142
0.0
142
0.0
142
1.0
142
0.0
142
0.0
142
0.0
142
0.0
142
1.0
179
     0
144
0.0208333333333333
144
0.0
144
0.0
144
0.0
144
0.0
144
0.0208333333333333
144
0.0
144
0.0
144
0.0
144
0.0
144
1.0
144
0.0
144
0.0
144
0.0
144
0.0
144
1.0
147
0.0208333333333333
147
0.0
147
0.0
147
0.0
147
0.0
147
0.0208333333333333
147
0.0
147
0.0
147
0.0
147
0.0
147
1.0
147
0.0
147
0.0
147
0.0
147
0.0
147
1.0
  0
MATERIAL
  5
3D
102
{ACAD_XDICTIONARY
360
3E
102
}
102
{ACAD_REACTORS
330
C
102
}
330
C
100
AcDbMaterial
  1
ByLayer
 72
     0
 43
0.0208333333333333
 43
0.0
 43
0.0
 43
0.0
 43
0.0
 43
0.0208333333333333
 43
0.0
 43
0.0
 43
0.0
 43
0.0
 43
1.0
 43
0.0
 43
0.0
 43
0.0
 43
0.0
 43
1.0
 77
     0
 47
0.0208333333333333
 47
0.0
 47
0.0
 47
0.0
 47
0.0
 47
0.0208333333333333
 47
0.0
 47
0.0
 47
0.0
 47
0.0
 47
1.0
 47
0.0
 47
0.0
 47
0.0
 47
0.0
 47
1.0
171
     0
 49
0.0208333333333333
 49
0.0
 49
0.0
 49
0.0
 49
0.0
 49
0.0208333333333333
 49
0.0
 49
0.0
 49
0.0
 49
0.0
 49
1.0
 49
0.0
 49
0.0
 49
0.0
 49
0.0
 49
1.0
175
     0
142
0.0208333333333333
142
0.0
142
0.0
142
0.0
142
0.0
142
0.0208333333333333
142
0.0
142
0.0
142
0.0
142
0.0
142
1.0
142
0.0
142
0.0
142
0.0
142
0.0
142
1.0
179
     0
144
0.0208333333333333
144
0.0
144
0.0
144
0.0
144
0.0
144
0.0208333333333333
144
0.0
144
0.0
144
0.0
144
0.0
144
1.0
144
0.0
144
0.0
144
0.0
144
0.0
144
1.0
147
0.0208333333333333
147
0.0
147
0.0
147
0.0
147
0.0
147
0.0208333333333333
147
0.0
147
0.0
147
0.0
147
0.0
147
1.0
147
0.0
147
0.0
147
0.0
147
0.0
147
1.0
  0
MATERIAL
  5
B
102
{ACAD_XDICTIONARY
360
D
102
}
102
{ACAD_REACTORS
330
C
102
}
330
C
100
AcDbMaterial
  1
Global
 72
     0
 43
0.0208333333333333
 43
0.0
 43
0.0
 43
0.0
 43
0.0
 43
0.0208333333333333
 43
0.0
 43
0.0
 43
0.0
 43
0.0
 43
1.0
 43
0.0
 43
0.0
 43
0.0
 43
0.0
 43
1.0
 77
     0
 47
0.0208333333333333
 47
0.0
 47
0.0
 47
0.0
 47
0.0
 47
0.0208333333333333
 47
0.0
 47
0.0
 47
0.0
 47
0.0
 47
1.0
 47
0.0
 47
0.0
 47
0.0
 47
0.0
 47
1.0
171
     0
 49
0.0208333333333333
 49
0.0
 49
0.0
 49
0.0
 49
0.0
 49
0.0208333333333333
 49
0.0
 49
0.0
 49
0.0
 49
0.0
 49
1.0
 49
0.0
 49
0.0
 49
0.0
 49
0.0
 49
1.0
175
     0
142
0.0208333333333333
142
0.0
142
0.0
142
0.0
142
0.0
142
0.0208333333333333
142
0.0
142
0.0
142
0.0
142
0.0
142
1.0
142
0.0
142
0.0
142
0.0
142
0.0
142
1.0
179
     0
144
0.0208333333333333
144
0.0
144
0.0
144
0.0
144
0.0
144
0.0208333333333333
144
0.0
144
0.0
144
0.0
144
0.0
144
1.0
144
0.0
144
0.0
144
0.0
144
0.0
144
1.0
147
0.0208333333333333
147
0.0
147
0.0
147
0.0
147
0.0
147
0.0208333333333333
147
0.0
147
0.0
147
0.0
147
0.0
147
1.0
147
0.0
147
0.0
147
0.0
147
0.0
147
1.0
  0
MLEADERSTYLE
  5
B17
102
{ACAD_REACTORS
330
B16
330
1EBF
330
1EC0
102
}
330
B16
100
AcDbMLeaderStyle
170
     2
171
     1
172
     0
 90
        2
 40
0.0
 41
0.0
173
     1
 91
-1056964608
340
26
 92
       -2
290
     1
 42
2.0
291
     1
 43
0.36
  3
Standard
 44
4.0
300

342
23
174
     1
178
     6
175
     1
176
     0
 93
-1056964608
 45
4.0
292
     0
297
     0
 46
4.0
 94
-1056964608
 47
1.0
 49
1.0
140
1.0
293
     1
141
0.0
294
     1
177
     0
142
1.0
295
     0
296
     0
143
0.125
1001
ACAD_MLEADERVER
1070
     2
  0
MLINESTYLE
  5
53
102
{ACAD_REACTORS
330
3B
102
}
330
3B
100
AcDbMlineStyle
  2
STANDARD
 70
     0
  3

 62
   256
 51
90.0
 52
90.0
 71
     2
 49
0.5
 62
   256
  6
BYLAYER
 49
-0.5
 62
   256
  6
BYLAYER
  0
ACDBPLACEHOLDER
  5
8
102
{ACAD_REACTORS
330
9
102
}
330
9
  0
SCALE
  5
CC5
102
{ACAD_REACTORS
330
4E
102
}
330
4E
100
AcDbScale
 70
     0
300
1:5_XREF
140
1.0
141
5.0
290
     0
  0
SCALE
  5
1B63
102
{ACAD_REACTORS
330
4E
102
}
330
4E
100
AcDbScale
 70
     0
300
1:5_XREF_XREF
140
1.0
141
5.0
290
     0
  0
SCALE
  5
1B64
102
{ACAD_REACTORS
330
4E
102
}
330
4E
100
AcDbScale
 70
     0
300
1:5_XREF_XREF_XREF_XREF
140
1.0
141
5.0
290
     0
  0
SCALE
  5
57
102
{ACAD_REACTORS
330
4E
102
}
330
4E
100
AcDbScale
 70
     0
300
1:1
140
1.0
141
1.0
290
     1
  0
SCALE
  5
58
102
{ACAD_REACTORS
330
4E
102
}
330
4E
100
AcDbScale
 70
     0
300
1:2
140
1.0
141
2.0
290
     0
  0
SCALE
  5
59
102
{ACAD_REACTORS
330
4E
102
}
330
4E
100
AcDbScale
 70
     0
300
1:4
140
1.0
141
4.0
290
     0
  0
SCALE
  5
5A
102
{ACAD_REACTORS
330
4E
102
}
330
4E
100
AcDbScale
 70
     0
300
1:5
140
1.0
141
5.0
290
     0
  0
SCALE
  5
5B
102
{ACAD_REACTORS
330
4E
102
}
330
4E
100
AcDbScale
 70
     0
300
1:8
140
1.0
141
8.0
290
     0
  0
SCALE
  5
5C
102
{ACAD_REACTORS
330
4E
102
}
330
4E
100
AcDbScale
 70
     0
300
1:10
140
1.0
141
10.0
290
     0
  0
SCALE
  5
5D
102
{ACAD_REACTORS
330
4E
102
}
330
4E
100
AcDbScale
 70
     0
300
1:16
140
1.0
141
16.0
290
     0
  0
SCALE
  5
5E
102
{ACAD_REACTORS
330
4E
102
}
330
4E
100
AcDbScale
 70
     0
300
1:20
140
1.0
141
20.0
290
     0
  0
SCALE
  5
5F
102
{ACAD_REACTORS
330
4E
102
}
330
4E
100
AcDbScale
 70
     0
300
1:30
140
1.0
141
30.0
290
     0
  0
SCALE
  5
60
102
{ACAD_REACTORS
330
4E
102
}
330
4E
100
AcDbScale
 70
     0
300
1:40
140
1.0
141
40.0
290
     0
  0
SCALE
  5
61
102
{ACAD_REACTORS
330
4E
102
}
330
4E
100
AcDbScale
 70
     0
300
1:50
140
1.0
141
50.0
290
     0
  0
SCALE
  5
62
102
{ACAD_REACTORS
330
4E
102
}
330
4E
100
AcDbScale
 70
     0
300
1:100
140
1.0
141
100.0
290
     0
  0
SCALE
  5
63
102
{ACAD_REACTORS
330
4E
102
}
330
4E
100
AcDbScale
 70
     0
300
2:1
140
2.0
141
1.0
290
     0
  0
SCALE
  5
64
102
{ACAD_REACTORS
330
4E
102
}
330
4E
100
AcDbScale
 70
     0
300
4:1
140
4.0
141
1.0
290
     0
  0
SCALE
  5
65
102
{ACAD_REACTORS
330
4E
102
}
330
4E
100
AcDbScale
 70
     0
300
8:1
140
8.0
141
1.0
290
     0
  0
SCALE
  5
66
102
{ACAD_REACTORS
330
4E
102
}
330
4E
100
AcDbScale
 70
     0
300
10:1
140
10.0
141
1.0
290
     0
  0
SCALE
  5
67
102
{ACAD_REACTORS
330
4E
102
}
330
4E
100
AcDbScale
 70
     0
300
100:1
140
100.0
141
1.0
290
     0
  0
SCALE
  5
68
102
{ACAD_REACTORS
330
4E
102
}
330
4E
100
AcDbScale
 70
     0
300
1/128" = 1'-0"
140
0.0078125
141
12.0
290
     0
  0
SCALE
  5
69
102
{ACAD_REACTORS
330
4E
102
}
330
4E
100
AcDbScale
 70
     0
300
1/64" = 1'-0"
140
0.015625
141
12.0
290
     0
  0
SCALE
  5
6A
102
{ACAD_REACTORS
330
4E
102
}
330
4E
100
AcDbScale
 70
     0
300
1/32" = 1'-0"
140
0.03125
141
12.0
290
     0
  0
SCALE
  5
6B
102
{ACAD_REACTORS
330
4E
102
}
330
4E
100
AcDbScale
 70
     0
300
1/16" = 1'-0"
140
0.0625
141
12.0
290
     0
  0
SCALE
  5
6C
102
{ACAD_REACTORS
330
4E
102
}
330
4E
100
AcDbScale
 70
     0
300
3/32" = 1'-0"
140
0.09375
141
12.0
290
     0
  0
SCALE
  5
6D
102
{ACAD_REACTORS
330
4E
102
}
330
4E
100
AcDbScale
 70
     0
300
1/8" = 1'-0"
140
0.125
141
12.0
290
     0
  0
SCALE
  5
6E
102
{ACAD_REACTORS
330
4E
102
}
330
4E
100
AcDbScale
 70
     0
300
3/16" = 1'-0"
140
0.1875
141
12.0
290
     0
  0
SCALE
  5
6F
102
{ACAD_REACTORS
330
4E
102
}
330
4E
100
AcDbScale
 70
     0
300
1/4" = 1'-0"
140
0.25
141
12.0
290
     0
  0
SCALE
  5
70
102
{ACAD_REACTORS
330
4E
102
}
330
4E
100
AcDbScale
 70
     0
300
3/8" = 1'-0"
140
0.375
141
12.0
290
     0
  0
SCALE
  5
71
102
{ACAD_REACTORS
330
4E
102
}
330
4E
100
AcDbScale
 70
     0
300
1/2" = 1'-0"
140
0.5
141
12.0
290
     0
  0
SCALE
  5
72
102
{ACAD_REACTORS
330
4E
102
}
330
4E
100
AcDbScale
 70
     0
300
3/4" = 1'-0"
140
0.75
141
12.0
290
     0
  0
SCALE
  5
73
102
{ACAD_REACTORS
330
4E
102
}
330
4E
100
AcDbScale
 70
     0
300
1" = 1'-0"
140
1.0
141
12.0
290
     0
  0
SCALE
  5
74
102
{ACAD_REACTORS
330
4E
102
}
330
4E
100
AcDbScale
 70
     0
300
1-1/2" = 1'-0"
140
1.5
141
12.0
290
     0
  0
SCALE
  5
75
102
{ACAD_REACTORS
330
4E
102
}
330
4E
100
AcDbScale
 70
     0
300
3" = 1'-0"
140
3.0
141
12.0
290
     0
  0
SCALE
  5
76
102
{ACAD_REACTORS
330
4E
102
}
330
4E
100
AcDbScale
 70
     0
300
6" = 1'-0"
140
6.0
141
12.0
290
     0
  0
SCALE
  5
77
102
{ACAD_REACTORS
330
4E
102
}
330
4E
100
AcDbScale
 70
     0
300
1'-0" = 1'-0"
140
12.0
141
12.0
290
     0
  0
TABLESTYLE
  5
54
102
{ACAD_XDICTIONARY
360
B00
102
}
102
{ACAD_REACTORS
330
4F
102
}
330
4F
100
AcDbTableStyle
  3
Standard
 70
     0
 71
     0
 40
1.5
 41
1.5
280
     0
281
     0
  7
STANDARD
140
4.5
170
     2
 62
     0
 63
     7
283
     0
274
    -2
284
     1
 64
     0
275
    -2
285
     1
 65
     0
276
    -2
286
     1
 66
     0
277
    -2
287
     1
 67
     0
278
    -2
288
     1
 68
     0
279
    -2
289
     1
 69
     0
  7
STANDARD
140
6.0
170
     5
 62
     0
 63
     7
283
     0
274
    -2
284
     1
 64
     0
275
    -2
285
     1
 65
     0
276
    -2
286
     1
 66
     0
277
    -2
287
     1
 67
     0
278
    -2
288
     1
 68
     0
279
    -2
289
     1
 69
     0
  7
STANDARD
140
4.5
170
     5
 62
     0
 63
     7
283
     0
274
    -2
284
     1
 64
     0
275
    -2
285
     1
 65
     0
276
    -2
286
     1
 66
     0
277
    -2
287
     1
 67
     0
278
    -2
288
     1
 68
     0
279
    -2
289
     1
 69
     0
  0
VISUALSTYLE
  5
B0D
102
{ACAD_REACTORS
330
2D
102
}
330
2D
100
AcDbVisualStyle
  2
2dWireframe
 70
     4
 71
     0
 72
     2
 73
     0
 90
        0
 40
-0.6
 41
-30.0
 62
     5
 63
     7
 74
     1
 91
        4
 64
     7
 65
   257
 75
     1
175
     1
 42
1.0
 92
        0
 66
   257
 43
1.0
 76
     1
 77
     6
 78
     2
 67
     7
 79
     5
170
     0
171
     0
290
     0
174
     0
 93
        1
 44
0.0
173
     0
291
     0
 45
0.0
1001
ACAD
1000
AcDbSavedByObjectVersion
1070
     0
1000
AcDbSavedByObjectVersion
1070
     0
1000
AcDbSavedByObjectVersion
1070
     0
1000
AcDbSavedByObjectVersion
1070
     0
1000
AcDbSavedByObjectVersion
1070
     0
1000
AcDbSavedByObjectVersion
1070
     0
1000
AcDbSavedByObjectVersion
1070
     0
1000
AcDbSavedByObjectVersion
1070
     0
1000
AcDbSavedByObjectVersion
1070
     0
1000
AcDbSavedByObjectVersion
1070
     0
1000
AcDbSavedByObjectVersion
1070
     0
  0
VISUALSTYLE
  5
B0E
102
{ACAD_REACTORS
330
2D
102
}
330
2D
100
AcDbVisualStyle
  2
3D Hidden
 70
     6
 71
     1
 72
     2
 73
     2
 90
        0
 40
-0.6
 41
-30.0
 62
     5
 63
     7
 74
     2
 91
        2
 64
     7
 65
   257
 75
     2
175
     1
 42
40.0
 92
        0
 66
   257
 43
1.0
 76
     1
 77
     6
 78
     2
 67
     7
 79
     3
170
     0
171
     0
290
     0
174
     0
 93
        1
 44
0.0
173
     0
291
     0
 45
0.0
1001
ACAD
1000
AcDbSavedByObjectVersion
1070
     0
1000
AcDbSavedByObjectVersion
1070
     0
1000
AcDbSavedByObjectVersion
1070
     0
1000
AcDbSavedByObjectVersion
1070
     0
1000
AcDbSavedByObjectVersion
1070
     0
1000
AcDbSavedByObjectVersion
1070
     0
1000
AcDbSavedByObjectVersion
1070
     0
1000
AcDbSavedByObjectVersion
1070
     0
1000
AcDbSavedByObjectVersion
1070
     0
1000
AcDbSavedByObjectVersion
1070
     0
1000
AcDbSavedByObjectVersion
1070
     0
  0
VISUALSTYLE
  5
56
102
{ACAD_REACTORS
330
2D
102
}
330
2D
100
AcDbVisualStyle
  2
3dWireframe
 70
     5
 71
     0
 72
     2
 73
     0
 90
        0
 40
-0.6
 41
-30.0
 62
     5
 63
     7
 74
     1
 91
        4
 64
     7
 65
   257
 75
     1
175
     1
 42
1.0
 92
        0
 66
   257
 43
1.0
 76
     1
 77
     6
 78
     2
 67
     7
 79
     5
170
     0
171
     0
290
     0
174
     0
 93
        1
 44
0.0
173
     0
291
     0
 45
0.0
1001
ACAD
1000
AcDbSavedByObjectVersion
1070
     0
1000
AcDbSavedByObjectVersion
1070
     0
1000
AcDbSavedByObjectVersion
1070
     0
1000
AcDbSavedByObjectVersion
1070
     0
1000
AcDbSavedByObjectVersion
1070
     0
1000
AcDbSavedByObjectVersion
1070
     0
1000
AcDbSavedByObjectVersion
1070
     0
1000
AcDbSavedByObjectVersion
1070
     0
1000
AcDbSavedByObjectVersion
1070
     0
1000
AcDbSavedByObjectVersion
1070
     0
1000
AcDbSavedByObjectVersion
1070
     0
  0
VISUALSTYLE
  5
B0C
102
{ACAD_REACTORS
330
2D
102
}
330
2D
100
AcDbVisualStyle
  2
Basic
 70
     7
 71
     1
 72
     0
 73
     1
 90
        0
 40
-0.6
 41
-30.0
 62
     5
 63
     7
 74
     0
 91
        4
 64
     7
 65
   257
 75
     1
175
     1
 42
1.0
 92
        8
 66
     7
 43
1.0
 76
     1
 77
     6
 78
     2
 67
     7
 79
     5
170
     0
171
     0
290
     0
174
     0
 93
        1
 44
0.0
173
     0
291
     1
 45
0.0
1001
ACAD
1000
AcDbSavedByObjectVersion
1070
     0
1000
AcDbSavedByObjectVersion
1070
     0
1000
AcDbSavedByObjectVersion
1070
     0
1000
AcDbSavedByObjectVersion
1070
     0
1000
AcDbSavedByObjectVersion
1070
     0
1000
AcDbSavedByObjectVersion
1070
     0
1000
AcDbSavedByObjectVersion
1070
     0
1000
AcDbSavedByObjectVersion
1070
     0
1000
AcDbSavedByObjectVersion
1070
     0
1000
AcDbSavedByObjectVersion
1070
     0
1000
AcDbSavedByObjectVersion
1070
     0
  0
VISUALSTYLE
  5
B11
102
{ACAD_REACTORS
330
2D
102
}
330
2D
100
AcDbVisualStyle
  2
Brighten
 70
    12
 71
     2
 72
     2
 73
     0
 90
        0
 40
-0.6
 41
-30.0
 62
     5
 63
     7
 74
     1
 91
        4
 64
     7
 65
   257
 75
     1
175
     1
 42
1.0
 92
        8
 66
     7
 43
1.0
 76
     1
 77
     6
 78
     2
 67
     7
 79
     5
170
     0
171
     0
290
     0
174
     0
 93
        1
 44
50.0
173
     0
291
     1
 45
0.0
1001
ACAD
1000
AcDbSavedByObjectVersion
1070
     0
1000
AcDbSavedByObjectVersion
1070
     0
1000
AcDbSavedByObjectVersion
1070
     0
1000
AcDbSavedByObjectVersion
1070
     0
1000
AcDbSavedByObjectVersion
1070
     0
1000
AcDbSavedByObjectVersion
1070
     0
1000
AcDbSavedByObjectVersion
1070
     0
1000
AcDbSavedByObjectVersion
1070
     0
1000
AcDbSavedByObjectVersion
1070
     0
1000
AcDbSavedByObjectVersion
1070
     0
1000
AcDbSavedByObjectVersion
1070
     0
  0
VISUALSTYLE
  5
B15
102
{ACAD_REACTORS
330
2D
102
}
330
2D
100
AcDbVisualStyle
  2
ColorChange
 70
    16
 71
     2
 72
     2
 73
     3
 90
        0
 40
-0.6
 41
-30.0
 62
     5
 63
     8
 74
     1
 91
        4
 64
     7
 65
   257
 75
     1
175
     1
 42
1.0
 92
        8
 66
     8
 43
1.0
 76
     1
 77
     6
 78
     2
 67
     7
 79
     5
170
     0
171
     0
290
     0
174
     0
 93
        1
 44
0.0
173
     0
291
     1
 45
0.0
1001
ACAD
1000
AcDbSavedByObjectVersion
1070
     0
1000
AcDbSavedByObjectVersion
1070
     0
1000
AcDbSavedByObjectVersion
1070
     0
1000
AcDbSavedByObjectVersion
1070
     0
1000
AcDbSavedByObjectVersion
1070
     0
1000
AcDbSavedByObjectVersion
1070
     0
1000
AcDbSavedByObjectVersion
1070
     0
1000
AcDbSavedByObjectVersion
1070
     0
1000
AcDbSavedByObjectVersion
1070
     0
1000
AcDbSavedByObjectVersion
1070
     0
1000
AcDbSavedByObjectVersion
1070
     0
  0
VISUALSTYLE
  5
B0F
102
{ACAD_REACTORS
330
2D
102
}
330
2D
100
AcDbVisualStyle
  2
Conceptual
 70
     9
 71
     3
 72
     2
 73
     0
 90
        0
 40
-0.6
 41
-30.0
 62
     5
 63
     7
 74
     2
 91
        2
 64
     7
 65
   257
 75
     1
175
     1
 42
40.0
 92
        8
 66
     7
 43
1.0
 76
     1
 77
     6
 78
     2
 67
     7
 79
     3
170
     0
171
     0
290
     0
174
     0
 93
        1
 44
0.0
173
     0
291
     0
 45
0.0
1001
ACAD
1000
AcDbSavedByObjectVersion
1070
     0
1000
AcDbSavedByObjectVersion
1070
     0
1000
AcDbSavedByObjectVersion
1070
     0
1000
AcDbSavedByObjectVersion
1070
     0
1000
AcDbSavedByObjectVersion
1070
     0
1000
AcDbSavedByObjectVersion
1070
     0
1000
AcDbSavedByObjectVersion
1070
     0
1000
AcDbSavedByObjectVersion
1070
     0
1000
AcDbSavedByObjectVersion
1070
     0
1000
AcDbSavedByObjectVersion
1070
     0
1000
AcDbSavedByObjectVersion
1070
     0
  0
VISUALSTYLE
  5
B10
102
{ACAD_REACTORS
330
2D
102
}
330
2D
100
AcDbVisualStyle
  2
Dim
 70
    11
 71
     2
 72
     2
 73
     0
 90
        0
 40
-0.6
 41
-30.0
 62
     5
 63
     7
 74
     1
 91
        4
 64
     7
 65
   257
 75
     1
175
     1
 42
1.0
 92
        8
 66
     7
 43
1.0
 76
     1
 77
     6
 78
     2
 67
     7
 79
     5
170
     0
171
     0
290
     0
174
     0
 93
        1
 44
-50.0
173
     0
291
     1
 45
0.0
1001
ACAD
1000
AcDbSavedByObjectVersion
1070
     0
1000
AcDbSavedByObjectVersion
1070
     0
1000
AcDbSavedByObjectVersion
1070
     0
1000
AcDbSavedByObjectVersion
1070
     0
1000
AcDbSavedByObjectVersion
1070
     0
1000
AcDbSavedByObjectVersion
1070
     0
1000
AcDbSavedByObjectVersion
1070
     0
1000
AcDbSavedByObjectVersion
1070
     0
1000
AcDbSavedByObjectVersion
1070
     0
1000
AcDbSavedByObjectVersion
1070
     0
1000
AcDbSavedByObjectVersion
1070
     0
  0
VISUALSTYLE
  5
B14
102
{ACAD_REACTORS
330
2D
102
}
330
2D
100
AcDbVisualStyle
  2
Facepattern
 70
    15
 71
     2
 72
     2
 73
     0
 90
        0
 40
-0.6
 41
-30.0
 62
     5
 63
     7
 74
     1
 91
        4
 64
     7
 65
   257
 75
     1
175
     1
 42
1.0
 92
        8
 66
     7
 43
1.0
 76
     1
 77
     6
 78
     2
 67
     7
 79
     5
170
     0
171
     0
290
     0
174
     0
 93
        1
 44
0.0
173
     0
291
     1
 45
0.0
1001
ACAD
1000
AcDbSavedByObjectVersion
1070
     0
1000
AcDbSavedByObjectVersion
1070
     0
1000
AcDbSavedByObjectVersion
1070
     0
1000
AcDbSavedByObjectVersion
1070
     0
1000
AcDbSavedByObjectVersion
1070
     0
1000
AcDbSavedByObjectVersion
1070
     0
1000
AcDbSavedByObjectVersion
1070
     0
1000
AcDbSavedByObjectVersion
1070
     0
1000
AcDbSavedByObjectVersion
1070
     0
1000
AcDbSavedByObjectVersion
1070
     0
1000
AcDbSavedByObjectVersion
1070
     0
  0
VISUALSTYLE
  5
B09
102
{ACAD_REACTORS
330
2D
102
}
330
2D
100
AcDbVisualStyle
  2
Flat
 70
     0
 71
     2
 72
     1
 73
     1
 90
        2
 40
-0.6
 41
30.0
 62
     5
 63
     7
 74
     0
 91
        4
 64
     7
 65
   257
 75
     1
175
     1
 42
1.0
 92
        8
 66
     7
 43
1.0
 76
     1
 77
     6
 78
     2
 67
     7
 79
     5
170
     0
171
     0
290
     0
174
     0
 93
       13
 44
0.0
173
     0
291
     1
 45
0.0
1001
ACAD
1000
AcDbSavedByObjectVersion
1070
     0
1000
AcDbSavedByObjectVersion
1070
     0
1000
AcDbSavedByObjectVersion
1070
     0
1000
AcDbSavedByObjectVersion
1070
     0
1000
AcDbSavedByObjectVersion
1070
     0
1000
AcDbSavedByObjectVersion
1070
     0
1000
AcDbSavedByObjectVersion
1070
     0
1000
AcDbSavedByObjectVersion
1070
     0
1000
AcDbSavedByObjectVersion
1070
     0
1000
AcDbSavedByObjectVersion
1070
     0
1000
AcDbSavedByObjectVersion
1070
     0
  0
VISUALSTYLE
  5
B0A
102
{ACAD_REACTORS
330
2D
102
}
330
2D
100
AcDbVisualStyle
  2
FlatWithEdges
 70
     1
 71
     2
 72
     1
 73
     1
 90
        2
 40
-0.6
 41
30.0
 62
     5
 63
     7
 74
     1
 91
        4
 64
     7
 65
   257
 75
     1
175
     1
 42
1.0
 92
        0
 66
   257
 43
1.0
 76
     1
 77
     6
 78
     2
 67
     7
 79
     5
170
     0
171
     0
290
     0
174
     0
 93
       13
 44
0.0
173
     0
291
     1
 45
0.0
1001
ACAD
1000
AcDbSavedByObjectVersion
1070
     0
1000
AcDbSavedByObjectVersion
1070
     0
1000
AcDbSavedByObjectVersion
1070
     0
1000
AcDbSavedByObjectVersion
1070
     0
1000
AcDbSavedByObjectVersion
1070
     0
1000
AcDbSavedByObjectVersion
1070
     0
1000
AcDbSavedByObjectVersion
1070
     0
1000
AcDbSavedByObjectVersion
1070
     0
1000
AcDbSavedByObjectVersion
1070
     0
1000
AcDbSavedByObjectVersion
1070
     0
1000
AcDbSavedByObjectVersion
1070
     0
  0
VISUALSTYLE
  5
2C
102
{ACAD_REACTORS
330
2D
102
}
330
2D
100
AcDbVisualStyle
  2
Gouraud
 70
     2
 71
     2
 72
     2
 73
     1
 90
        2
 40
-0.6
 41
30.0
 62
     5
 63
     7
 74
     0
 91
        4
 64
     7
 65
   257
 75
     1
175
     1
 42
1.0
 92
        0
 66
     7
 43
1.0
 76
     1
 77
     6
 78
     2
 67
     7
 79
     5
170
     0
171
     0
290
     0
174
     0
 93
       13
 44
0.0
173
     0
291
     1
 45
0.0
1001
ACAD
1000
AcDbSavedByObjectVersion
1070
     0
1000
AcDbSavedByObjectVersion
1070
     0
1000
AcDbSavedByObjectVersion
1070
     0
1000
AcDbSavedByObjectVersion
1070
     0
1000
AcDbSavedByObjectVersion
1070
     0
1000
AcDbSavedByObjectVersion
1070
     0
1000
AcDbSavedByObjectVersion
1070
     0
1000
AcDbSavedByObjectVersion
1070
     0
1000
AcDbSavedByObjectVersion
1070
     0
1000
AcDbSavedByObjectVersion
1070
     0
1000
AcDbSavedByObjectVersion
1070
     0
  0
VISUALSTYLE
  5
B0B
102
{ACAD_REACTORS
330
2D
102
}
330
2D
100
AcDbVisualStyle
  2
GouraudWithEdges
 70
     3
 71
     2
 72
     2
 73
     1
 90
        2
 40
-0.6
 41
30.0
 62
     5
 63
     7
 74
     1
 91
        4
 64
     7
 65
   257
 75
     1
175
     1
 42
1.0
 92
        0
 66
   257
 43
1.0
 76
     1
 77
     6
 78
     2
 67
     7
 79
     5
170
     0
171
     0
290
     0
174
     0
 93
       13
 44
0.0
173
     0
291
     1
 45
0.0
1001
ACAD
1000
AcDbSavedByObjectVersion
1070
     0
1000
AcDbSavedByObjectVersion
1070
     0
1000
AcDbSavedByObjectVersion
1070
     0
1000
AcDbSavedByObjectVersion
1070
     0
1000
AcDbSavedByObjectVersion
1070
     0
1000
AcDbSavedByObjectVersion
1070
     0
1000
AcDbSavedByObjectVersion
1070
     0
1000
AcDbSavedByObjectVersion
1070
     0
1000
AcDbSavedByObjectVersion
1070
     0
1000
AcDbSavedByObjectVersion
1070
     0
1000
AcDbSavedByObjectVersion
1070
     0
  0
VISUALSTYLE
  5
B13
102
{ACAD_REACTORS
330
2D
102
}
330
2D
100
AcDbVisualStyle
  2
Linepattern
 70
    14
 71
     2
 72
     2
 73
     0
 90
        0
 40
-0.6
 41
-30.0
 62
     5
 63
     7
 74
     1
 91
        4
 64
     7
 65
   257
 75
     7
175
     7
 42
1.0
 92
        8
 66
     7
 43
1.0
 76
     1
 77
     6
 78
     2
 67
     7
 79
     5
170
     0
171
     0
290
     0
174
     0
 93
        1
 44
0.0
173
     0
291
     1
 45
0.0
1001
ACAD
1000
AcDbSavedByObjectVersion
1070
     0
1000
AcDbSavedByObjectVersion
1070
     0
1000
AcDbSavedByObjectVersion
1070
     0
1000
AcDbSavedByObjectVersion
1070
     0
1000
AcDbSavedByObjectVersion
1070
     0
1000
AcDbSavedByObjectVersion
1070
     0
1000
AcDbSavedByObjectVersion
1070
     0
1000
AcDbSavedByObjectVersion
1070
     0
1000
AcDbSavedByObjectVersion
1070
     0
1000
AcDbSavedByObjectVersion
1070
     0
1000
AcDbSavedByObjectVersion
1070
     0
  0
VISUALSTYLE
  5
55
102
{ACAD_REACTORS
330
2D
102
}
330
2D
100
AcDbVisualStyle
  2
Realistic
 70
     8
 71
     2
 72
     2
 73
     0
 90
        0
 40
-0.6
 41
-30.0
 62
     5
 63
     7
 74
     1
 91
        0
 64
     7
 65
   257
 75
     1
175
     1
 42
1.0
 92
        8
 66
     8
 43
1.0
 76
     1
 77
     6
 78
     2
 67
     7
 79
     5
170
     0
171
     0
290
     0
174
     0
 93
       13
 44
0.0
173
     0
291
     0
 45
0.0
1001
ACAD
1000
AcDbSavedByObjectVersion
1070
     0
1000
AcDbSavedByObjectVersion
1070
     0
1000
AcDbSavedByObjectVersion
1070
     0
1000
AcDbSavedByObjectVersion
1070
     0
1000
AcDbSavedByObjectVersion
1070
     0
1000
AcDbSavedByObjectVersion
1070
     0
1000
AcDbSavedByObjectVersion
1070
     0
1000
AcDbSavedByObjectVersion
1070
     0
1000
AcDbSavedByObjectVersion
1070
     0
1000
AcDbSavedByObjectVersion
1070
     0
1000
AcDbSavedByObjectVersion
1070
     0
  0
VISUALSTYLE
  5
B12
102
{ACAD_REACTORS
330
2D
102
}
330
2D
100
AcDbVisualStyle
  2
Thicken
 70
    13
 71
     2
 72
     2
 73
     0
 90
        0
 40
-0.6
 41
-30.0
 62
     5
 63
     7
 74
     1
 91
        4
 64
     7
 65
   257
 75
     1
175
     1
 42
1.0
 92
       12
 66
     7
 43
1.0
 76
     1
 77
     6
 78
     2
 67
     7
 79
     5
170
     0
171
     0
290
     0
174
     0
 93
        1
 44
0.0
173
     0
291
     1
 45
0.0
1001
ACAD
1000
AcDbSavedByObjectVersion
1070
     0
1000
AcDbSavedByObjectVersion
1070
     0
1000
AcDbSavedByObjectVersion
1070
     0
1000
AcDbSavedByObjectVersion
1070
     0
1000
AcDbSavedByObjectVersion
1070
     0
1000
AcDbSavedByObjectVersion
1070
     0
1000
AcDbSavedByObjectVersion
1070
     0
1000
AcDbSavedByObjectVersion
1070
     0
1000
AcDbSavedByObjectVersion
1070
     0
1000
AcDbSavedByObjectVersion
1070
     0
1000
AcDbSavedByObjectVersion
1070
     0
  0
DICTIONARYVAR
  5
B06
102
{ACAD_REACTORS
330
B03
102
}
330
B03
100
DictionaryVariables
280
     0
  1
1:1
  0
DICTIONARYVAR
  5
B05
102
{ACAD_REACTORS
330
B03
102
}
330
B03
100
DictionaryVariables
280
     0
  1
STANDARD
  0
DICTIONARYVAR
  5
B04
102
{ACAD_REACTORS
330
B03
102
}
330
B03
100
DictionaryVariables
280
     0
  1
STANDARD
  0
DICTIONARYVAR
  5
B7B
102
{ACAD_REACTORS
330
B03
102
}
330
B03
100
DictionaryVariables
280
     0
  1
1
  0
DICTIONARYVAR
  5
B7A
102
{ACAD_REACTORS
330
B03
102
}
330
B03
100
DictionaryVariables
280
     0
  1
1
  0
DICTIONARYVAR
  5
B79
102
{ACAD_REACTORS
330
B03
102
}
330
B03
100
DictionaryVariables
280
     0
  1
1
  0
DICTIONARYVAR
  5
B07
102
{ACAD_REACTORS
330
B03
102
}
330
B03
100
DictionaryVariables
280
     0
  1
0
  0
DICTIONARYVAR
  5
B77
102
{ACAD_REACTORS
330
B03
102
}
330
B03
100
DictionaryVariables
280
     0
  1
1
  0
DICTIONARYVAR
  5
B78
102
{ACAD_REACTORS
330
B03
102
}
330
B03
100
DictionaryVariables
280
     0
  1
127
  0
DICTIONARY
  5
1335
102
{ACAD_REACTORS
330
AFC
102
}
330
AFC
100
AcDbDictionary
281
     1
  0
XRECORD
  5
134C
102
{ACAD_REACTORS
330
AFC
102
}
330
AFC
100
AcDbXrecord
280
     1
 90
-1023410169
  0
DICTIONARY
  5
126E
102
{ACAD_REACTORS
330
126D
102
}
330
126D
100
AcDbDictionary
281
     1
  3
DWGSETTINGS
350
21AD
  3
TRANSSETTINGS
350
21AE
  0
ACAMGFILTERDAT
  5
1367
102
{ACAD_REACTORS
330
1362
102
}
330
1362
100
AcAmgFilterDat
 70
    15
  1
DIMENSION,AMDT_*_DIM
  2
*
  3
*
  4
*
  5
*
290
     1
  0
ACAMGFILTERDAT
  5
1366
102
{ACAD_REACTORS
330
1362
102
}
330
1362
100
AcAmgFilterDat
 70
    15
  1
*
  2
AM_FEA-AM_*
  3
*
  4
*
  5
*
290
     1
  0
ACAMGFILTERDAT
  5
1363
102
{ACAD_REACTORS
330
1362
102
}
330
1362
100
AcAmgFilterDat
 70
    15
  1
HATCH
  2
*
  3
*
  4
*
  5
*
290
     1
  0
ACAMGFILTERDAT
  5
1364
102
{ACAD_REACTORS
330
1362
102
}
330
1362
100
AcAmgFilterDat
 70
    15
  1
LINE
  2
8,8N,*-8,*-8N,AM_8,AM_8N,*-AM_8,*-AM_8N
  3
*
  4
*
  5
INSERT,STDPART2D
290
     1
  0
ACAMGFILTERDAT
  5
1368
102
{ACAD_REACTORS
330
1362
102
}
330
1362
100
AcAmgFilterDat
 70
    15
  1
ARC
  2
AM_5
  3
*
  4
2
  5
INSERT
290
     0
  0
ACAMGFILTERDAT
  5
1365
102
{ACAD_REACTORS
330
1362
102
}
330
1362
100
AcAmgFilterDat
 70
    15
  1
ACMFCFRAME,ACMDATUMTARGET,ACMDATUMID,ACMWELDSYM,ACMSURFSYM,ACMFEATID,ACMPARTREF,ACMBALLOON,AMDTEDGESYM,AMGSCREWCALCTABLE
  2
*
  3
*
  4
*
  5
*
290
     1
  0
LAYER_INDEX
  5
1548
102
{ACAD_REACTORS
330
1547
102
}
330
1547
100
AcDbIndex
 40
2455891.667921574
100
AcDbLayerIndex
  8
0
360
1549
 90
        0
  8
Defpoints
360
154A
 90
        0
  8
SIZE
360
154B
 90
        9
  8
OUTLINE
360
154C
 90
      312
  8
BASIS
360
154D
 90
        2
  8
NOTE
360
154E
 90
       86
  8
ARRANGE
360
154F
 90
        3
  8
ETC
360
1550
 90
        1
  8
AM_VIS
360
1F07
 90
        0
  8
AM_HID
360
1F08
 90
        0
  8
AM_7
360
1F09
 90
        0
  0
DICTIONARY
  5
22DC
330
16
100
AcDbDictionary
280
     1
281
     1
  3
ACAD_XREC_ROUNDTRIP
360
22DD
  0
DICTIONARY
  5
1C
330
1B
100
AcDbDictionary
280
     1
281
     1
  3
ACAD_XREC_ROUNDTRIP
360
22DE
  3
ADSK_XREC_LAYOUTTHUMBNAIL
360
1D
  0
DICTIONARY
  5
46
330
45
100
AcDbDictionary
280
     1
281
     1
  3
ACAD_XREC_ROUNDTRIP
360
B71
  3
BUMPTILE
360
47
  3
DIFFUSETILE
360
48
  3
OPACITYTILE
360
49
  3
REFLECTIONTILE
360
4A
  3
REFRACTIONTILE
360
4B
  3
SPECULARTILE
360
4C
  0
DICTIONARY
  5
3E
330
3D
100
AcDbDictionary
280
     1
281
     1
  3
ACAD_XREC_ROUNDTRIP
360
B70
  3
BUMPTILE
360
3F
  3
DIFFUSETILE
360
40
  3
OPACITYTILE
360
41
  3
REFLECTIONTILE
360
42
  3
REFRACTIONTILE
360
43
  3
SPECULARTILE
360
44
  0
DICTIONARY
  5
D
330
B
100
AcDbDictionary
280
     1
281
     1
  3
ACAD_XREC_ROUNDTRIP
360
B69
  3
BUMPTILE
360
E
  3
DIFFUSETILE
360
F
  3
OPACITYTILE
360
10
  3
REFLECTIONTILE
360
11
  3
REFRACTIONTILE
360
12
  3
SPECULARTILE
360
13
  0
DICTIONARY
  5
B00
330
54
100
AcDbDictionary
280
     1
281
     1
  3
ACAD_ROUNDTRIP_2008_TABLESTYLE_CELLSTYLEMAP
360
22D7
  3
ACAD_XREC_ROUNDTRIP
360
22DF
  0
IDBUFFER
  5
1549
330
0
100
AcDbIdBuffer
  0
IDBUFFER
  5
154A
330
0
100
AcDbIdBuffer
  0
IDBUFFER
  5
154B
330
0
100
AcDbIdBuffer
330
15AD
330
1EC1
330
1ECE
330
1EDB
330
1EE8
330
201A
330
214A
330
2157
330
2169
  0
IDBUFFER
  5
154C
330
0
100
AcDbIdBuffer
330
1CF6
330
1CF7
330
1CF8
330
1CF9
330
1CFA
330
1CFB
330
1CFC
330
1CFD
330
1CFE
330
1CFF
330
1D00
330
1D01
330
1D02
330
1D03
330
1D04
330
1D05
330
1D06
330
1D07
330
1D08
330
1D09
330
1D0A
330
1D0B
330
1D0C
330
1D0D
330
1D0E
330
1D0F
330
1D10
330
1D11
330
1D12
330
1D13
330
1D14
330
1D15
330
1D16
330
1D17
330
1D18
330
1D19
330
1D1A
330
1D1B
330
1D1C
330
1D1D
330
1D1E
330
1D1F
330
1D20
330
1D21
330
1D22
330
1D23
330
1D24
330
1D25
330
1D26
330
1D27
330
1D28
330
1D29
330
1D2A
330
1D2B
330
1D2C
330
1D2D
330
1D2E
330
1D2F
330
1D30
330
1D31
330
1D32
330
1D33
330
1D34
330
1D35
330
1D36
330
1D37
330
1D38
330
1D39
330
1D3A
330
1D3B
330
1D3C
330
1D3D
330
1D3E
330
1D3F
330
1D40
330
1D41
330
1D42
330
1D43
330
1D44
330
1D45
330
1D46
330
1D47
330
1D48
330
1D49
330
1D4A
330
1D4B
330
1D4C
330
1D4D
330
1D4E
330
1D4F
330
1D50
330
1D51
330
1D52
330
1D53
330
1D54
330
1D55
330
1D56
330
1D57
330
1D58
330
1D59
330
1D5A
330
1D5B
330
1D5C
330
1D5D
330
1D5E
330
1D5F
330
1D60
330
1D61
330
1D62
330
1D63
330
1D64
330
1D65
330
1D66
330
1D67
330
1D68
330
1D69
330
1D6A
330
1D6B
330
1D6C
330
1D6D
330
1D6E
330
1D6F
330
1D70
330
1D71
330
1D72
330
1D73
330
1D74
330
1D75
330
1D76
330
1D77
330
1D78
330
1D79
330
1D7A
330
1D7B
330
1D7C
330
1D7D
330
1D7E
330
1D7F
330
1D80
330
1D81
330
1D82
330
1D83
330
1D84
330
1D85
330
1D86
330
1D87
330
1D88
330
1D89
330
1D8A
330
1D8B
330
1D8C
330
1D8D
330
1D8E
330
1D8F
330
1D90
330
1D91
330
1D92
330
1D93
330
1D94
330
1D95
330
1D96
330
1D97
330
1D98
330
1D99
330
1D9A
330
1D9B
330
1D9C
330
1D9D
330
1D9E
330
1D9F
330
1DA0
330
1DA1
330
1DA2
330
1DA3
330
1DA4
330
1DA5
330
1DA6
330
1DA7
330
1DA8
330
1DA9
330
1DAA
330
1DAB
330
1DAC
330
1DAD
330
1DAE
330
1DAF
330
1DB0
330
1DB1
330
1DB2
330
1DB3
330
1DB4
330
1DB5
330
1DB6
330
1DB7
330
1DB8
330
1DB9
330
1DBA
330
1DBB
330
1DBC
330
1DBD
330
1DBE
330
1DBF
330
1DC0
330
1DC1
330
1DC2
330
1DC3
330
1DC4
330
1DC5
330
1DC6
330
1DC7
330
1DC8
330
1DC9
330
1DCA
330
1DCB
330
1DCC
330
1DCD
330
1DCE
330
1DCF
330
1DD0
330
1DD1
330
1DD2
330
1DD3
330
1DD4
330
1DD5
330
1DD6
330
1DD7
330
1DD8
330
1DD9
330
1DDA
330
1DDB
330
1DDC
330
1DDD
330
1DDE
330
1DDF
330
1DE0
330
1DE1
330
1DE2
330
1DE3
330
1DE4
330
1DE5
330
1DE6
330
1DE7
330
1DE8
330
1DE9
330
1DEA
330
1DEB
330
1DEC
330
1DED
330
1DEE
330
1DEF
330
1DF0
330
1DF1
330
1DF2
330
1DF3
330
1DF4
330
1DF5
330
1DF6
330
1DF7
330
1DF8
330
1DF9
330
1DFA
330
1DFB
330
1DFC
330
1DFD
330
1DFE
330
1DFF
330
1E00
330
1E01
330
1E02
330
1E03
330
1E04
330
1E05
330
1E06
330
1E07
330
1E08
330
1E09
330
1E0A
330
1E0B
330
1E0C
330
1E0D
330
1E0E
330
1E0F
330
1E10
330
1E11
330
1E12
330
1E13
330
1E14
330
1E15
330
1E16
330
1E17
330
1E18
330
1E19
330
1E1A
330
1E1B
330
1E1C
330
1E1D
330
1E1E
330
1E1F
330
1E20
330
1E21
330
1E22
330
1E23
330
1E24
330
1E25
330
1E26
330
1E27
330
1E28
330
1E29
330
1E2A
330
1E2B
330
1E2C
330
1E2D
  0
IDBUFFER
  5
154D
330
0
100
AcDbIdBuffer
330
1E82
330
1E86
  0
IDBUFFER
  5
154E
330
0
100
AcDbIdBuffer
330
1E2E
330
1E2F
330
1E30
330
1E31
330
1E32
330
1E33
330
1E34
330
1E35
330
1E36
330
1E37
330
1E38
330
1E39
330
1E3A
330
1E3B
330
1E3C
330
1E3D
330
1E3E
330
1E3F
330
1E40
330
1E41
330
1E42
330
1E43
330
1E44
330
1E45
330
1E46
330
1E47
330
1E48
330
1E49
330
1E4A
330
1E4B
330
1E4C
330
1E4D
330
1E4E
330
1E4F
330
1E50
330
1E51
330
1E52
330
1E53
330
1E54
330
1E55
330
1E56
330
1E57
330
1E58
330
1E59
330
1E5A
330
1E5B
330
1E5C
330
1E5D
330
1E5E
330
1E5F
330
1E60
330
1E61
330
1E62
330
1E63
330
1E64
330
1E65
330
1E66
330
1E67
330
1E68
330
1E69
330
1E6A
330
1E6B
330
1E6C
330
1E6D
330
1E6E
330
1E6F
330
1E70
330
1E71
330
1E72
330
1E73
330
1E74
330
1E75
330
1E76
330
1E77
330
1E78
330
1E79
330
1E7A
330
1E7B
330
1E7C
330
1E7D
330
1E7E
330
1E7F
330
1E80
330
1E81
330
1EBF
330
1EC0
  0
IDBUFFER
  5
154F
330
0
100
AcDbIdBuffer
330
1E83
330
1E84
330
1E85
  0
IDBUFFER
  5
1550
330
0
100
AcDbIdBuffer
330
B60
  0
IDBUFFER
  5
1F07
330
0
100
AcDbIdBuffer
  0
IDBUFFER
  5
1F08
330
0
100
AcDbIdBuffer
  0
IDBUFFER
  5
1F09
330
0
100
AcDbIdBuffer
  0
XRECORD
  5
22DD
102
{ACAD_REACTORS
330
22DC
102
}
330
22DC
100
AcDbXrecord
280
     1
102
SHADEPLOT
 70
     0
102
SHADEPLOTRESLEVEL
 70
     2
102
SHADEPLOTCUSTOMDPI
 70
   300
  0
XRECORD
  5
22DE
102
{ACAD_REACTORS
330
1C
102
}
330
1C
100
AcDbXrecord
280
     1
102
SHADEPLOT
 70
     0
102
SHADEPLOTRESLEVEL
 70
     2
102
SHADEPLOTCUSTOMDPI
 70
   300
  0
XRECORD
  5
1D
102
{ACAD_REACTORS
330
1C
102
}
330
1C
100
AcDbXrecord
280
     1
310
28000000B4000000870000000100080000000000EC5E0000000000000000000000010000000000000000000000000000FFFFFF000000000000000000000000000000000000000000000000000000000000000000330000006600000099000000CC000000FF00000000330000333300006633000099330000CC330000FF3300
310
0000660000336600006666000099660000CC660000FF66000000990000339900006699000099990000CC990000FF99000000CC000033CC000066CC000099CC0000CCCC0000FFCC000000FF000033FF000066FF000099FF0000CCFF0000FFFF000000003300330033006600330099003300CC003300FF003300003333003333
310
33006633330099333300CC333300FF33330000663300336633006666330099663300CC663300FF66330000993300339933006699330099993300CC993300FF99330000CC330033CC330066CC330099CC3300CCCC3300FFCC330000FF330033FF330066FF330099FF3300CCFF3300FFFF330000006600330066006600660099
310
006600CC006600FF00660000336600333366006633660099336600CC336600FF33660000666600336666006666660099666600CC666600FF66660000996600339966006699660099996600CC996600FF99660000CC660033CC660066CC660099CC6600CCCC6600FFCC660000FF660033FF660066FF660099FF6600CCFF6600
310
FFFF660000009900330099006600990099009900CC009900FF00990000339900333399006633990099339900CC339900FF33990000669900336699006666990099669900CC669900FF66990000999900339999006699990099999900CC999900FF99990000CC990033CC990066CC990099CC9900CCCC9900FFCC990000FF99
310
0033FF990066FF990099FF9900CCFF9900FFFF99000000CC003300CC006600CC009900CC00CC00CC00FF00CC000033CC003333CC006633CC009933CC00CC33CC00FF33CC000066CC003366CC006666CC009966CC00CC66CC00FF66CC000099CC003399CC006699CC009999CC00CC99CC00FF99CC0000CCCC0033CCCC0066CC
310
CC0099CCCC00CCCCCC00FFCCCC0000FFCC0033FFCC0066FFCC0099FFCC00CCFFCC00FFFFCC000000FF003300FF006600FF009900FF00CC00FF00FF00FF000033FF003333FF006633FF009933FF00CC33FF00FF33FF000066FF003366FF006666FF009966FF00CC66FF00FF66FF000099FF003399FF006699FF009999FF00CC
310
99FF00FF99FF0000CCFF0033CCFF0066CCFF0099CCFF00CCCCFF00FFCCFF0000FFFF0033FFFF0066FFFF0099FFFF00CCFFFF00FFFFFF00000000000D0D0D001A1A1A00282828003535350043434300505050005D5D5D006B6B6B00787878008686860093939300A1A1A100AEAEAE00BBBBBB00C9C9C900D6D6D600E4E4E400
310
F1F1F100FFFFFF0000000000000000000000000000000000000000000000000000000000000000000000000000000000E2E2E2E2E2E2E2E2E2E2E2E2E2E2E2E2E2E2E2E2E2E2E2E2E2E2E2E2E2E2E2E2E2E2E2E2E2E2E2E2E2E2E2E2E2E2E2E2E2E2E2E2E2E2E2E2E2E2E2E2E2E2E2E2E2E2E2E2E2E2E2E2E2E2E2E2E2E2E2
310
E2E2E2E2E2E2E2E2E2E2E2E2E2E2E2E2E2E2E2E2E2E2E2E2E2E2E2E2E2E2E2E2E2E2E2E2E2E2E2E2E2E2E2E2E2E2E2E2E2E2E2E2E2E2E2E2E2E2E2E2E2E2E2E2E2E2E2E2E2E2E2E2E2E2E2E2E2E2E2E2E2E2E2E2E2E2E2E2E2E2E2E2E2E2E2E2E2E2E2E2E2E2E2E2E2E2E2E2E2E2E2E2E2E2E2E2E2E2E2E2E2E2E2E2E2E2E2
310
E2E2E2E2E2E2E2E2E2E2E2E2E2E2E2E2E2E2E2E2E2E2E2E2E2E2E2E2E2E2E2E2E2E2E2E2E2E2E2E2E2E2E2E2E2E2E2E2E2E2E2E2E2E2E2E2E2E2E2E2E2E2E2E2E2E2E2E2E2E2E2E2E2E2E2E2E2E2E2E2E2E2E2E2E2E2E2E2E2E2E2E2E2E2E2E2E2E2E2E2E2E2E2E2E2E2E2E2E2E2E2E2E2E2E2E2E2E2E2E2E2E2E2E2E2E2E2
310
E2E2E2E2E2E2E2E2E2E2E2E2E2E2E2E2E2E2E2E2E2E2E2E2E2E2E2E2E2E2E2E2E2E2E2E2E2E2E2E2E2E2E2E2E2E2E2E2E2E2E2E2E2E2E2E2E2E2E2E2E2E2E2E2E2E2E2E2E2E2E2E2E2E2E2E2E2E2E2E2E2E2E2E2E2E2E2E2E2E2E2E2E2E2E2E2E2E2E2E2E2E2E2E2E2E2E2E2E2E2E2E2E2E2E2E2E2E2E2E2E2E2E2E2E2E2E2
310
E2E2E2E2E2E2E2E2E2E2E2E2E2E2E2E2E2E2E2E2E2E2E2E2E2E2E2E2E2E2E2E2E2E2E2E2E2E2E2E2E2E2E2E2E2E2E2E2E2E2E2E2E2E2E2E2E2E2E2E2E2E2E2E2E2E2E2E2E2E2E2E2E2E2E2E2E2E2E2E2E2E2E2E2E2E2E2E2E2E2E2E2E2E2E2E2E2E2E2E2E2E2E2E2E2E2E2E2E2E2E2E2E2E2E2E2E2E2E2E2E2E2E2E2E2E2E2
310
E2E2E2E2E2E2E2E2E2E2E2E2E2E2E2E2E2E2E2E2E2E2E2E2E2E2E2E2E2E2E2E2E2E2E2E2E2E2E2E2E2E2E2E2E2E2E2E2E2E2E2E2E2E2E2E2E2E2E2E2E2E2E2E2E2E2E2E2E2E2E2E2E2E2E2E2E2E2E2E2E2E2E2E2E2E2E2E2E2E2E2E2E2E2E2E2E2E2E2E2E2E2E2E2E2E2E2E2E2E2E2E2E2E2E2E2E2E2E2E2E2E2E2E2E2E2E2
310
E2E2E2E2E2E2E2E2E2E2E2E2E2E2E2E2E2E2E2E2E2E2E2E2E2E2E2E2E2E2E2E2E2E2E2E2E2E2E2E2E2E2E2E2E2E2E2E2E2E2E2E2E2E2E2E2E2E2E2E2E2E2E2E2E2E2E2E2E2E2E2E2E2E2E2E2E2E2E2E2E2E2E2E2E2E2E2E2E2E2E2E2E2E2E2E2E2E2E2E2E2E2E2E2E2E2E2E2E2E2E2E2E2E2E2E2E2E2E2E2E2E2E2E2E2E2E2
310
E2E2E2E2E2E2E2E2E2E2E2E2E2E2E2E2E2E2E2E2E2E2E2E2E2E2E2E2E2E2E2E2E2E2E2E2E2E2E2E2E2E2E2E2E2E2E2E2E2E2E2E2E2E2E2E2E2E2E2E2E2E2E2E2E2E2E2E2E2E2E2E2E2E2E2E2E2E2E2E2E2E2E2E2E2E2E2E2E2E2E2E2E2E2E2E2E2E2E2E2E2E2E2E2E2E2E2E2E2E2E2E2E2E2E2E2E2E2E2E2E2E2E2E2E2E2E2
310
E2E2E2E2E2E2E2E2E2E2E2E2E2E2E2E2E2E2E2E2E2E2E2E2E2E2E2E2E2E2E2E2E2E2E2E2E2E2E2E2E2E2E2E2E2E2E2E2E2E2E2E2E2E2E2E2E2E2E2E2E2E2E2E2E2E2E2E2E2E2E2E2E2E2E2E2E2E2E2E2E2E2E2E2E2E2E2E2E2E2E2E2E2E2E2E2E2E2E2E2E2E2E2E2E2E2E2E2E2E2E2E2E2E2E2E2E2E2E2E2E2E2E2E2E2E2E2
310
E2E2E2E2E2E2E2E2E2E2E2E2E2E2E2E2E2E2E2E2E2E2E2E2E2E2E2E2E2E2E2E2E2E2E2E2E2E2E2E2E2E2E2E2E2E2E2E2E2E2E2E2E2E2E2E2E2E2E2E2E2E2E2E2E2E2E2E2E2E2E2E2E2E2E2E2E2E2E2E2E2E2E2E2E2E2E2E2E2E2E2E2E2E2E2E2E2E2E2E2E2E2E2E2E2E2E2E2E2E2E2E2E2E2E2E2E2E2E2E2E2E2E2E2E2E2E2
310
E2E2E2E2E2E2E2E2E2E2E2E2E2E2E2E2E2E2E2E2E2E2E2E2E2E2E2E2E2E2E2E2E2E2E2E2E2E2E2E2E2E2E2E2E2E2E2E2E2E2E2E2E2E2E2E2E2E2E2E2E2E2E2E2E2E2E2E2E2E2E2E2E2E2E2E2E2E2E2E2E2E2E2E2E2E2E2E2E2E2E2E2E2E2E2E2E2E2E2E2E2E2E2E2E2E2E2E2E2E2E2E2E2E2E2E2E2E2E2E2E2E2E2E2E2E2E2
310
E2E2E2E2E2E2E2E2E2E2E2E2E2E2E2E2E2E2E2E2E2E2E2E2E2E2E2E2E2E2E2E2E2E2E2E2E2E2E2E2E2E2E2E2E2E2E2E2E2E2E2E2E2E2E2E2E2E2E2E2E2E2E2E2E2E2E2E2E2E2E2E2E2E2E2E2E2E2E2E2E2E2E2E2E2E2E2E2E2E2E2E2E2E2E2E2E2E2E2E2E2E2E2E2E2E2E2E2E2E2E2E2E2E2E2E2E2E2E2E2E2E2E2E2E2E2E2
310
E2E2E2E2E2E2E2E2E2E2E2E2E2E2E2E2E2E2E2E2E2E2E2E2E2E2E2E2E2E2E2E2E2E2E2E2E2E2E2E2E2E2E2E2E2E2E2E2E2E2E2E2E2E2E2E2E2E2E2E2E2E2E2E2E2E2E2E2E2E2E2E2E2E2E2E2E2E2E2E2E2E2E2E2E2E2E2E2E2E2E2E2E2E2E2E2E2E2E2E2E2E2E2E2E2E2E2E2E2E2E2E2E2E2E2E2E2E2E2E2E2E2E2E2E2E2E2
310
E2E2E2E2E2E2E2E2E2E2E2E2E2E2E2E2E2E2E2E2E2E2E2E2E2E2E2E2E2E2E2E2E2E2E2E2E2E2E2E2E2E2E2E2E2E2E2E2E2E2E2E2E2E2E2E2E2E2E2E2E2E2E2E2E2E2E2E2E2E2E2E2E2E2E2E2E2E2E2E2E2E2E2E2E2E2E2E2E2E2E2E2E2E2E2E2E2E2E2E2E2E2E2E2E2E2E2E2E2E2E2E2E2E2E2E2E2E2E2E2E2E2E2E2E2E2E2
310
E2E2E2E2E2E2E2E2E2E2E2E2E2E2E2E2E2E2E2E2E2E2E2E2E2E2E2E2E2E2E2E2E2E2E2E2E2E2E2E2E2E2E2E2E2E2E2E2E2E2E2E2E2E2E2E2E2E2E2E2E2E2E2E2E2E2E2E2E2E2E2E2E2E2E2E2E2E2E2E2E2E2E2E2E2E2E2E2E2E2E2E2E2E2E2E2E2E2E2E2E2E2E2E2E2E2E2E2E2E2E2E2E2E2E2E2E2E2E2E2E2E2E2E2E2E2E2
310
E2E2E2E2E2E2E2E2E2E2E2E2E2E2E2E2E2E2E2E2E2E2E2E2E2E2E2E2E2E2E2E2E2E2E2E2E2E2E2E2E2E2E2E2E2E2E2E2E2E2E2E2E2E2E2E2E2E2E2E2E2E2E2E2E2E2E2E2E2E2E2E2E2E2E2E2E2E2E2E2E2E2E2E2E2E2E2E2E2E2E2E2E2E2E2E2E2E2E2E2E2E2E2E2E2E2E2E2E2E2E2E2E2E2E2E2E2E2E2E2E2E2E2E2E2E2E2
310
E2E2E2E2E2E2E2E2E2E2E2E2E2E2E2E2E2E2E2E2E2E2E2E2E2E2E2E2E2E2E2E2E2E2E2E2E2E2E2E2E2E2E2E2E2E2E2E2E2E2E2E2E2E2E2E2E2E2E2E2E2E2E2E2E2E2E2E2E2E2E2E2E2E2E2E2E2E2E2E2E2E2E2E2E2E2E2E2E2E2E2E2E2E2E2E2E2E2E2E2E2E2E2E2E2E2E2E2E2E2E2E2E2E2E2E2E2E2E2E2E2E2E2E2E2E2E2
310
E2E2E2E2E2E2E2E2E2E2E2E2E2E2E2E2E2E2E2E2E2E2E2E2E2E2E2E2E2E2E2E2E2E2E2E2E2E2E2E2E2E2E2E2E2E2E2E2E2E2E2E2E2E2E2E2E2E2E2E2E2E2E2E2E2E2E2E2E2E2E2E2E2E2E2E2E2E2E2E2E2E2E2E2E2E2E2E2E2E2E2E2E2E2E2E2E2E2E2E2E2E2E2E2E2E2E2E2E2E2E2E2E2E2E2E2E2E2E2E2E2E2E2E2E2E2E2
310
E2E2E2E2E2E2E2E2E2E2E2E2E2E2E2E2E2E2E2E2E2E2E2E2E2E2E2E2E2E2E2E2E2E2E2E2E2E2E2E2E2E2E2E2E2E2E2E2E2E2E2E2E2E2E2E2E2E2E2E2E2E2E2E2E2E2E2E2E2E2E2E2E2E2E2E2E2E2E2E2E2E2E2E2E2E2E2E2E2E2E2E2E2E2E2E2E2E2E2E2E2E2E2E2E2E2E2E2E2E2E2E2E2E2E2E2E2E2E2E2E2E2E2E2E2E2E2
310
E2E2E2E2E2E2E2E2E2E2E2E2E2E2E2E2E2E2E2E2E2E2E2E2E2E2E2E2E2E2E2E2E2E2E2E2E2E2E2E2E2E2E2E2E2E2E2E2E2E2E2E2E2E2E2E2E2E2E2E2E2E2E2E2E2E2E2E2E2E2E2E2E2E2E2E2E2E2E2E2E2E2E2E2E2E2E2E2E2E2E2E2E2E2E2E2E2E2E2E2E2E2E2E2E2E2E2E2E2E2E2E2E2E2E2E2E2E2E2E2E2E2E2E2E2E2E2
310
E2E2E2E2E2E2E2E2E2E2E2E2E2E2E2E2E2E2E2E2E2E2E2E2E2E2E2E2E2E2E2E2E2E2E2E2E2E2E2E2E2E2E2E2E2E2E2E2E2E2E2E2E2E2E2E2E2E2E2E2E2E2E2E2E2E2E2E2E2E2E2E2E2E2E2E2E2E2E2E2E2E2E2E2E2E2E2E2E2E2E2E2E2E2E2E2E2E2E2E2E2E2E2E2E2E2E2E2E2E2E2E2E2E2E2E2E2E2E2E2E2E2E2E2E2E2E2
310
E2E2E2E2E2E2E2E2E2E2E2E2E2E2E2E2E2E2E2E2E2E2E2E2E2E2E2E2E2E2E2E2E2E2E2E2E2E2E2E2E2E2E2E2E2E2E2E2E2E2E2E2E2E2E2E2E2E2E2E2E2E2E2E2E2E2E2E2E2E2E2E2E2E2E2E2E2E2E2E2E2E2E2E2E2E2E2E2E2E2E2E2E2E2E2E2E2E2E2E2E2E2E2E2E2E2E2E2E2E2E2E2E2E2E2E2E2E2E2E2E2E2E2E2E2E2E2
310
E2E2E2E2E2E2E2E2E2E2E2E2E2E2E2E2E2E2E2E2E2E2E2E2E2E2E2E2E2E2E2E2E2E2E2E2E2E2E2E2E2E2E2E2E2E2E2E2E2E2E2E2E2E2E2E2E2E2E2E2E2E2E2E2E2E2E2E2E2E2E2E2E2E2E2E2E2E2E2E2E2E2E2E2E2E2E2E2E2E2E2E2E2E2E2E2E2E2E2E2E2E2E2E2E2E2E2E2E2E2E2E2E2E2E2E2E2E2E2E2E2E2E2E2E2E2E2
310
E2E2E2E2E2E2E2E2E2E2E2E2E2E2E2E2E2E2E2E2E2E2E2E2E2E2E2E2E2E2E2E2E2E2E2E2E2E2E2E2E2E2E2E2E2E2E2E2E2E2E2E2E2E2E2E2E2E2E2E2E2E2E2E2E2E2E2E2E2E2E2E2E2E2E2E2E2E2E2E2E2E2E2E2E2E2E2E2E2E2E2E2E2E2E2E2E2E2E2E2E2E2E2E2E2E2E2E2E2E2E2E2E2E2E2E2E2E2E2E2E2E2E2E2E2E2E2
310
E2E2E2E2E2E2E2E2E2E2E2E2E2E2E2E2E2E2E2E2E2E2E2E2E2E2E2E2E2E2E2E2E2E2E2E2E2E2E2E2E2E2E2E2E2E2E2E2E2E2E2E2E2E2E2E2E2E2E2E2E2E2E2E2E2E2E2E2E2E2E2E2E2E2E2E2E2E2E2E2E2E2E2E2E2E2E2E2E2E2E2E2E2E2E2E2E2E2E2E2E2E2E2E2E2E2E2E2E2E2E2E2E2E2E2E2E2E2E2E2E2E2E2E2E2E2E2
310
E2E2E2E2E2E2E2E2E2E2E2E2E2E2E2E2E2E2E2E2E2E2E2E2E2E2E2E2E2E2E2E2E2E2E2E2E2E2E2E2E2E2E2E2E2E2E2E2E2E2E2E2E2E2E2E2E2E2E2E2E2E2E2E2E2E2E2E2E2E2E2E2E2E2E2E2E2E2E2E2E2E2E2E2E2E2E2E2E2E2E2E2E2E2E2E2E2E2E2E2E2E2E2E2E2E2E2E2E2E2E2E2E2E2E2E2E2E2E2E2E2E2E2E2E2E2E2
310
E2E2E2E2E2E2E2E2E2E2E2E2E2E2E2E2E2E2E2E2E2E2E2E2E2E2E2E2E2E2E2E2E2E2E2E2E2E2E2E2E2E2E2E2E2E2E2E2E2E2E2E2E2E2E2E2E2E2E2E2E2E2E2E2E2E2E2E2E2E2E2E2E2E2E2E2E2E2E2E2E2E2E2E2E2E2E2E2E2E2E2E2E2E2E2E2E2E2E2E2E2E2E2E2E2E2E2E2E2E2E2E2E2E2E2E2E2E2E2E2E2E2E2E2E2E2E2
310
E2E2E2E2E2E2E2E2E2E2E2E2E2E2E2E2E2E2E2E2E2E2E2E2E2E2E2E2E2E2E2E2E2E2E2E2E2E2E2E2E2E2E2E2E2E2E2E2E2E2E2E2E2E2E2E2E2E2E2E2E2E2E2E2E2E2E2E2E2E2E2E2E2E2E2E2E2E2E2E2E2E2E2E2E2E2E2E2E2E2E2E2E2E2E2E2E2E2E2E2E2E2E2E2E2E2E2E2E2E2E2E2E2E2E2E2E2E2E2E2E2E2E2E2E2E2E2
310
E2E2E2E2E2E2E2E2E2E2E2E2E2E2E2E2E2E2E2E2E2E2E2E2E2E2E2E2E2E2E2E2E2E2E2E2E2E2E2E2E2E2E2E2E2E2E2E2E2E2E2E2E2E2E2E2E2E2E2E2E2E2E2E2E2E2E2E2E2E2E2E2E2E2E2E2E2E2E2E2E2E2E2E2E2E2E2E2E2E2E2E2E2E2E2E2E2E2E2E2E2E2E2E2E2E2E2E2E2E2E2E2E2E2E2E2E2E2E2E2E2E2E2E2E2E2E2
310
E2E2E2E2E2E2E2E2E2E2E2E2E2E2E2E2E2E2E2E2E2E2E2E2E2E2E2E2E2E2E2E2E2E2E2E2E2E2E2E2E2E2E2E2E2E2E2E2E2E2E2E2E2E2E2E2E2E2E2E2E2E2E2E2E2E2E2E2E2E2E2E2E2E2E2E2E2E2E2E2E2E2E2E2E2E2E2E2E2E2E2E2E2E2E2E2E2E2E2E2E2E2E2E2E2E2E2E2E2E2E2E2E2E2E2E2E2E2E2E2E2E2E2E2E2E2E2
310
E2E2E2E2E2E2E2E2E2E2E2E2E2E2E2E2E2E2E2E2E2E2E2E2E2E2E2E2E2E2E2E2E2E2E2E2E2E2E2E2E2E2E2E2E2E2E2E2E2E2E2E2E2E2E2E2E2E2E2E2E2E2E2E2E2E2E2E2E2E2E2E2E2E2E2E2E2E2E2E2E2E2E2E2E2E2E2E2E2E2E2E2E2E2E2E2E2E2E2E2E2E2E2E2E2E2E2E2E2E2E2E2E2E2E2E2E2E2E2E2E2E2E2E2E2E2E2
310
E2E2E2E2E2E2E2E2E2E2E2E2E2E2E2E2E2E2E2E2E2E2E2E2E2E2E2E2E2E2E2E2E2E2E2E2E2E2E2E2E2E2E2E2E2E2E2E2E2E2E2E2E2E2E2E2E2E2E2E2E2E2E2E2E2E2E2E2E2E2E2E2E2E2E2E2E2E2E2E2E2E2E2E2E2E2E2E2E2E2E2E2E2E2E2E2E2E2E2E2E2E2E2E2E2E2E2E2E2E2E2E2E2E2E2E2E2E2E2E2E2E2E2E2E2E2E2
310
E2E2E2E2E2E2E2E2E2E2E2E2E2E2E2E2E2E2E2E2E2E2E2E2E2E2E2E2E2E2E2E2E2E2E2E2E2E2E2E2E2E2E2E2E2E2E2E2E2E2E2E2E2E2E2E2E2E2E2E2E2E2E2E2E2E2E2E2E2E2E2E2E2E2E2E2E2E2E2E2E2E2E2E2E2E2E2E2E2E2E2E2E2E2E2E2E2E2E2E2E2E2E2E2E2E2E2E2E2E2E2E2E2E2E2E2E2E2E2E2E2E2E2E2E2E2E2
310
E2E2E2E2E2E2E2E2E2E2E2E2E2E2E2E2E2E2E2E2E2E2E2E2E2E2E2E2E2E2E2E2E2E2E2E2E2E2E2E2E2E2E2E2E2E2E2E2E2E2E2E2E2E2E2E2E2E2E2E2E2E2E2E2E2E2E2E2E2E2E2E2E2E2E2E2E2E2E2E2E2E2E2E2E2E2E2E2E2E2E2E2E2E2E2E2E2E2E2E2E2E2E2E2E2E2E2E2E2E2E2E2E2E2E2E2E2E2E2E2E2E2E2E2E2E2E2
310
E2E2E2E2E2E2E2E2E2E2E2E2E2E2E2E2E2E2E2E2E2E2E2E2E2E2E2E2E2E2E2E2E2E2E2E2E2E2E2E2E2E2E2E2E2E2E2E2E2E2E2E2E2E2E2E2E2E2E2E2E2E2E2E2E2E2E2E2E2E2E2E2E2E2E2E2E2E2E2E2E2E2E2E2E2E2E2E2E2E2E2E2E2E2E2E2E2E2E2E2E2E2E2E2E2E2E2E2E2E2E2E2E2E2E2E2E2E2E2E2E2E2E2E2E2E2E2
310
E2E2E2E2E2E2E2E2E2E2E2E2E2E2E2E2E2E2E2E2E2E2E2E2E2E2E2E2E2E2E2E2E2E2E2E2E2E2E2E2E2E2E2E2E2E2E2E2E2E2E2E2E2E2E2E2E2E2E2E2E2E2E2E2E2E2E2E2E2E2E2E2E2E2E2E2E2E2E2E2E2E2E2E2E2E2E2E2E2E2E2E2E2E2E2E2E2E2E2E2E2E2E2E2E2E2E2E2E2E2E2E2E2E2E2E2E2E2E2E2E2E2E2E2E2E2E2
310
E2E2E2E2E2E2E2E2E2E2E2E2E2E2E2E2E2E2E2E2E2E2E2E2E2E2E2E2E2E2E2E2E2E2E2E2E2E2E2E2E2E2E2E2E2E2E2E2E2E2E2E2E2E2E2E2E2E2E2E2E2E2E2E2E2E2E2E2E2E2E2E2E2E2E2E2E2E2E2E2E2E2E2E2E2E2E2E2E2E2E2E2E2E2E2E2E2E2E2E2E2E2E2E2E2E2E2E2E2E2E2E2E2E2E2E2E2E2E2E2E2E2E2E2E2E2E2
310
E2E2E2E2E2E2E2E2E2E2E2E2E2E2E2E2E2E2E2E2E2E2E2E2E2E2E2E2E2E2E2E2E2E2E2E2E2E2E2E2E2E2E2E2E2E2E2E2E2E2E2E2E2E2E2E2E2E2E2E2E2E2E2E2E2E2E2E2E2E2E2E2E2E2E2E2E2E2E2E2E2E2E2E2E2E2E2E2E2E2E2E2E2E2E2E2E2E2E2E2E2E2E2E2E2E2E2E2E2E2E2E2E2E2E2E2E2E2E2E2E2E2E2E2E2E2E2
310
E2E2E2E2E2E2E2E2E2E2E2E2E2E2E2E2E2E2E2E2E2E2E2E2E2E2E2E2E2E2E2E2E2E2E2E2E2E2E2E2E2E2E2E2E2E2E2E2E2E2E2E2E2E2E2E2E2E2E2E2E2E2E2E2E2E2E2E2E2E2E2E2E2E2E2E2E2E2E2E2E2E2E2E2E2E2E2E2E2E2E2E2E2E2E2E2E2E2E2E2E2E2E2E2E2E2E2E2E2E2E2E2E2E2E2E2E2E2E2E2E2E2E2E2E2E2E2
310
E2E2E2E2E2E2E2E2E2E2E2E2E2E2E2E2E2E2E2E2E2E2E2E2E2E2E2E2E2E2E2E2E2E2E2E2E2E2E2E2E2E2E2E2E2E2E2E2E2E2E2E2E2E2E2E2E2E2E2E2E2E2E2E2E2E2E2E2E2E2E2E2E2E2E2E2E2E2E2E2E2E2E2E2E2E2E2E2E2E2E2E2E2E2E2E2E2E2E2E2E2E2E2E2E2E2E2E2E2E2E2E2E2E2E2E2E2E2E2E2E2E2E2E2E2E2E2
310
E2E2E2E2E2E2E2E2E2E2E2E2E2E2E2E2E2E2E2E2E2E2E2E2E2E2E2E2E2E2E2E2E2E2E2E2E2E2E2E2E2E2E2E2E2E2E2E2E2E2E2E2E2E2E2E2E2E2E2E2E2E2E2E2E2E2E2E2E2E2E2E2E2E2E2E2E2E2E2E2E2E2E2E2E2E2E2E2E2E2E2E2E2E2E2E2E2E2E2E2E2E2E2E2E2E2E2E2E2E2E2E2E2E2E2E2E2E2E2E2E2E2E2E2E2E2E2
310
E2E2E2E2E2E2E2E2E2E2E2E2E2E2E2E2E2E2E2E2E2E2E2E2E2E2E2E2E2E2E2E2E2E2E2E2E2E2E2E2E2E2E2E2E2E2E2E2E2E2E2E2E2E2E2E2E2E2E2E2E2E2E2E2E2E2E2E2E2E2E2E2E2E2E2E2E2E2E2E2E2E2E2E2E2E2E2E2E2E2E2E2E2E2E2E2E2E2E2E2E2E2E2E2E2E2E2E2E2E2E2E2E2E2E2E2E2E2E2E2E2E2E2E2E2E2E2
310
E2E2E2E2E2E2E2E2E2E2E2E2E2E2E2E2E2E2E2E2E2E2E2E2E2E2E2E2E2E2E2E2E2E2E2E2E2E2E2E2E2E2E2E2E2E2E2E2E2E2E2E2E2E2E2E2E2E2E2E2E2E2E2E2E2E2E2E2E2E2E2E2E2E2E2E2E2E2E2E2E2E2E2E2E2E2E2E2E2E2E2E2E2E2E2E2E2E2E2E2E2E2E2E2E2E2E2E2E2E2E2E2E2E2E2E2E2E2E2E2E2E2E2E2E2E2E2
310
E2E2E2E2E2E2E2E2E2E2E2E2E2E2E2E2E2E2E2E2E2E2E2E2E2E2E2E2E2E2E2E2E2E2E2E2E2E2E2E2E2E2E2E2E2E2E2E2E2E2E2E2E2E2E2E2E2E2E2E2E2E2E2E2E2E2E2E2E2E2E2E2E2E2E2E2E2E2E2E2E2E2E2E2E2E2E2E2E2E2E2E2E2E2E2E2E2E2E2E2E2E2E2E2E2E2E2E2E2E2E2E2E2E2E2E2E2E2E2E2E2E2E2E2E2E2E2
310
E2E2E2E2E2E2E2E2E2E2E2E2E2E2E2E2E2E2E2E2E2E2E2E2E2E2E2E2E2E2E2E2E2E2E2E2E2E2E2E2E2E2E2E2E2E2E2E2E2E2E2E2E2E2E2E2E2E2E2E2E2E2E2E2E2E2E2E2E2E2E2E2E2E2E2E2E2E2E2E2E2E2E2E2E2E2E2E2E2E2E2E2E2E2E2E2E2E2E2E2E2E2E2E2E2E2E2E2E2E2E2E2E2E2E2E2E2E2E2E2E2E2E2E2E2E2E2
310
E2E2E2E2E2E2E2E2E2E2E2E2E2E2E2E2E2E2E2E2E2E2E2E2E2E2E2E2E2E2E2E2E2E2E2E2E2E2E2E2E2E2E2E2E2E2E2E2E2E2E2E2E2E2E2E2E2E2E2E2E2E2E2E2E2E2E2E2E2E2E2E2E2E2E2E2E2E2E2E2E2E2E2E2E2E2E2E2E2E2E2E2E2E2E2E2E2E2E2E2E2E2E2E2E2E2E2E2E2E2E2E2E2E2E2E2E2E2E2E2E2E2E2E2E2E2E2
310
E2E2E2E2E2E2E2E2E2E2E2E2E2E2E2E2E2E2E2E2E2E2E2E2E2E2E2E2E2E2E2E2E2E2E2E2E2E2E2E2E2E2E2E2E2E2E2E2E2E2E2E2E2E2E2E2E2E2E2E2E2E2E2E2E2E2E2E2E2E2E2E2E2E2E2E2E2E2E2E2E2E2E2E2E2E2E2E2E2E2E2E2E2E2E2E2E2E2E2E2E2E2E2E2E2E2E2E2E2E2E2E2E2E2E2E2E2E2E2E2E2E2E2E2E2E2E2
310
E2E2E2E2E2E2E2E2E2E2E2E2E2E2E2E2E2E2E2E2E2E2E2E2E2E2E2E2E2E2E2E2E2E2E2E2E2E2E2E2E2E2E2E2E2E2E2E2E2E2E2E2E2E2E2E2E2E2E2E2E2E2E2E2E2E2E2E2E2E2E2E2E2E2E2E2E2E2E2E2E2E2E2E2E2E2E2E2E2E2E2E2E2E2E2E2E2E2E2E2E2E2E2E2E2E2E2E2E2E2E2E2E2E2E2E2E2E2E2E2E2E2E2E2E2E2E2
310
E2E2E2E2E2E2E2E2E2E2E2E2E2E2E2E2E2E2E2E2E2E2E2E2E2E2E2E2E2E2E2E2E2E2E2E2E2E2E2E2E2E2E2E2E2E2E2E2E2E2E2E2E2E2E2E2E2E2E2E2E2E2E2E2E2E2E2E2E2E2E2E2E2E2E2E2E2E2E2E2E2E2E2E2E2E2E2E2E2E2E2E2E2E2E2E2E2E2E2E2E2E2E2E2E2E2E2E2E2E2E2E2E2E2E2E2E2E2E2E2E2E2E2E2E2E2E2
310
E2E2E2E2E2E2E2E2E2E2E2E2E2E2E2E2E2E2E2E2E2E2E2E2E2E2E2E2E2E2E2E2E2E2E2E2E2E2E2E2E2E2E2E2E2E2E2E2E2E2E2E2E2E2E2E2E2E2E2E2E2E2E2E2E2E2E2E2E2E2E2E2E2E2E2E2E2E2E2E2E2E2E2E2E2E2E2E2E2E2E2E2E2E2E2E2E2E2E2E2E2E2E2E2E2E2E2E2E2E2E2E2E2E2E2E2E2E2E2E2E2E2E2E2E2E2E2
310
E2E2E2E2E2E2E2E2E2E2E2E2E2E2E2E2E2E2E2E2E2E2E2E2E2E2E2E2E2E2E2E2E2E2E2E2E2E2E2E2E2E2E2E2E2E2E2E2E2E2E2E2E2E2E2E2E2E2E2E2E2E2E2E2E2E2E2E2E2E2E2E2E2E2E2E2E2E2E2E2E2E2E2E2E2E2E2E2E2E2E2E2E2E2E2E2E2E2E2E2E2E2E2E2E2E2E2E2E2E2E2E2E2E2E2E2E2E2E2E2E2E2E2E2E2E2E2
310
E2E2E2E2E2E2E2E2E2E2E2E2E2E2E2E2E2E2E2E2E2E2E2E2E2E2E2E2E2E2E2E2E2E2E2E2E2E2E2E2E2E2E2E2E2E2E2E2E2E2E2E2E2E2E2E2E2E2E2E2E2E2E2E2E2E2E2E2E2E2E2E2E2E2E2E2E2E2E2E2E2E2E2E2E2E2E2E2E2E2E2E2E2E2E2E2E2E2E2E2E2E2E2E2E2E2E2E2E2E2E2E2E2E2E2E2E2E2E2E2E2E2E2E2E2E2E2
310
E2E2E2E2E2E2E2E2E2E2E2E2E2E2E2E2E2E2E2E2E2E2E2E2E2E2E2E2E2E2E2E2E2E2E2E2E2E2E2E2E2E2E2E2E2E2E2E2E2E2E2E2E2E2E2E2E2E2E2E2E2E2E2E2E2E2E2E2E2E2E2E2E2E2E2E2E2E2E2E2E2E2E2E2E2E2E2E2E2E2E2E2E2E2E2E2E2E2E2E2E2E2E2E2E2E2E2E2E2E2E2E2E2E2E2E2E2E2E2E2E2E2E2E2E2E2E2
310
E2E2E2E2E2E2E2E2E2E2E2E2E2E2E2E2E2E2E2E2E2E2E2E2E2E2E2E2E2E2E2E2E2E2E2E2E2E2E2E2E2E2E2E2E2E2E2E2E2E2E2E2E2E2E2E2E2E2E2E2E2E2E2E2E2E2E2E2E2E2E2E2E2E2E2E2E2E2E2E2E2E2E2E2E2E2E2E2E2E2E2E2E2E2E2E2E2E2E2E2E2E2E2E2E2E2E2E2E2E2E2E2E2E2E2E2E2E2E2E2E2E2E2E2E2E2E2
310
E2E2E2E2E2E2E2E2E2E2E2E2E2E2E2E2E2E2E2E2E2E2E2E2E2E2E2E2E2E2E2E2E2E2E2E2E2E2E2E2E2E2E2E2E2E2E2E2E2E2E2E2E2E2E2E2E2E2E2E2E2E2E2E2E2E2E2E2E2E2E2E2E2E2E2E2E2E2E2E2E2E2E2E2E2E2E2E2E2E2E2E2E2E2E2E2E2E2E2E2E2E2E2E2E2E2E2E2E2E2E2E2E2E2E2E2E2E2E2E2E2E2E2E2E2E2E2
310
E2E2E2E2E2E2E2E2E2E2E2E2E2E2E2E2E2E2E2E2E2E2E2E2E2E2E2E2E2E2E2E2E2E2E2E2E2E2E2E2E2E2E2E2E2E2E2E2E2E2E2E2E2E2E2E2E2E2E2E2E2E2E2E2E2E2E2E2E2E2E2E2E2E2E2E2E2E2E2E2E2E2E2E2E2E2E2E2E2E2E2E2E2E2E2E2E2E2E2E2E2E2E2E2E2E2E2E2E2E2E2E2E2E2E2E2E2E2E2E2E2E2E2E2E2E2E2
310
E2E2E2E2E2E2E2E2E2E2E2E2E2E2E2E2E2E2E2E2E2E2E2E2E2E2E2E2E2E2E2E2E2E2E2E2E2E2E2E2E2E2E2E2E2E2E2E2E2E2E2E2E2E2E2E2E2E2E2E2E2E2E2E2E2E2E2E2E2E2E2E2E2E2E2E2E2E2E2E2E2E2E2E2E2E2E2E2E2E2E2E2E2E2E2E2E2E2E2E2E2E2E2E2E2E2E2E2E2E2E2E2E2E2E2E2E2E2E2E2E2E2E2E2E2E2E2
310
E2E2E2E2E2E2E2E2E2E2E2E2E2E2E2E2E2E2E2E2E2E2E2E2E2E2E2E2E2E2E2E2E2E2E2E2E2E2E2E2E2E2E2E2E2E2E2E2E2E2E2E2E2E2E2E2E2E2E2E2E2E2E2E2E2E2E2E2E2E2E2E2E2E2E2E2E2E2E2E2E2E2E2E2E2E2E2E2E2E2E2E2E2E2E2E2E2E2E2E2E2E2E2E2E2E2E2E2E2E2E2E2E2E2E2E2E2E2E2E2E2E2E2E2E2E2E2
310
E2E2E2E2E2E2E2E2E2E2E2E2E2E2E2E2E2E2E2E2E2E2E2E2E2E2E2E2E2E2E2E2E2E2E2E2E2E2E2E2E2E2E2E2E2E2E2E2E2E2E2E2E2E2E2E2E2E2E2E2E2E2E2E2E2E2E2E2E2E2E2E2E2E2E2E2E2E2E2E2E2E2E2E2E2E2E2E2E2E2E2E2E2E2E2E2E2E2E2E2E2E2E2E2E2E2E2E2E2E2E2E2E2E2E2E2E2E2E2E2E2E2E2E2E2E2E2
310
E2E2E2E2E2E2E2E2E2E2E2E2E2E2E2E2E2E2E2E2E2E2E2E2E2E2E2E2E2E2E2E2E2E2E2E2E2E2E2E2E2E2E2E2E2E2E2E2E2E2E2E2E2E2E2E2E2E2E2E2E2E2E2E2E2E2E2E2E2E2E2E2E2E2E2E2E2E2E2E2E2E2E2E2E2E2E2E2E2E2E2E2E2E2E2E2E2E2E2E2E2E2E2E2E2E2E2E2E2E2E2E2E2E2E2E2E2E2E2E2E2E2E2E2E2E2E2
310
E2E2E2E2E2E2E2E2E2E2E2E2E2E2E2E2E2E2E2E2E2E2E2E2E2E2E2E2E2E2E2E2E2E2E2E2E2E2E2E2E2E2E2E2E2E2E2E2E2E2E2E2E2E2E2E2E2E2E2E2E2E2E2E2E2E2E2E2E2E2E2E2E2E2E2E2E2E2E2E2E2E2E2E2E2E2E2E2E2E2E2E2E2E2E2E2E2E2E2E2E2E2E2E2E2E2E2E2E2E2E2E2E2E2E2E2E2E2E2E2E2E2E2E2E2E2E2
310
E2E2E2E2E2E2E2E2E2E2E2E2E2E2E2E2E2E2E2E2E2E2E2E2E2E2E2E2E2E2E2E2E2E2E2E2E2E2E2E2E2E2E2E2E2E2E2E2E2E2E2E2E2E2E2E2E2E2E2E2E2E2E2E2E2E2E2E2E2E2E2E2E2E2E2E2E2E2E2E2E2E2E2E2E2E2E2E2E2E2E2E2E2E2E2E2E2E2E2E2E2E2E2E2E2E2E2E2E2E2E2E2E2E2E2E2E2E2E2E2E2E2E2E2E2E2E2
310
E2E2E2E2E2E2E2E2E2E2E2E2E2E2E2E2E2E2E2E2E2E2E2E2E2E2E2E2E2E2E2E2E2E2E2E2E2E2E2E2E2E2E2E2E2E2E2E2E2E2E2E2E2E2E2E2E2E2E2E2E2E2E2E2E2E2E2E2E2E2E2E2E2E2E2E2E2E2E2E2E2E2E2E2E2E2E2E2E2E2E2E2E2E2E2E2E2E2E2E2E2E2E2E2E2E2E2E2E2E2E2E2E2E2E2E2E2E2E2E2E2E2E2E2E2E2E2
310
E2E2E2E2E2E2E2E2E2E2E2E2E2E2E2E2E2E2E2E2E2E2E2E2E2E2E2E2E2E2E2E2E2E2E2E2E2E2E2E2E2E2E2E2E2E2E2E2E2E2E2E2E2E2E2E2E2E2E2E2E2E2E2E2E2E2E2E2E2E2E2E2E2E2E2E2E2E2E2E2E2E2E2E2E2E2E2E2E2E2E2E2E2E2E2E2E2E2E2E2E2E2E2E2E2E2E2E2E2E2E2E2E2E2E2E2E2E2E2E2E2E2E2E2E2E2E2
310
E2E2E2E2E2E2E2E2E2E2E2E2E2E2E2E2E2E2E2E2E2E2E2E2E2E2E2E2E2E2E2E2E2E2E2E2E2E2E2E2E2E2E2E2E2E2E2E2E2E2E2E2E2E2E2E2E2E2E2E2E2E2E2E2E2E2E2E2E2E2E2E2E2E2E2E2E2E2E2E2E2E2E2E2E2E2E2E2E2E2E2E2E2E2E2E2E2E2E2E2E2E2E2E2E2E2E2E2E2E2E2E2E2E2E2E2E2E2E2E2E2E2E2E2E2E2E2
310
E2E2E2E2E2E2E2E2E2E2E2E2E2E2E2E2E2E2E2E2E2E2E2E2E2E2E2E2E2E2E2E2E2E2E2E2E2E2E2E2E2E2E2E2E2E2E2E2E2E2E2E2E2E2E2E2E2E2E2E2E2E2E2E2E2E2E2E2E2E2E2E2E2E2E2E2E2E2E2E2E2E2E2E2E2E2E2E2E2E2E2E2E2E2E2E2E2E2E2E2E2E2E2E2E2E2E2E2E2E2E2E2E2E2E2E2E2E2E2E2E2E2E2E2E2E2E2
310
E2E2E2E2E2E2E2E2E2E2E2E2E2E2E2E2E2E2E2E2E2E2E2E2E2E2E2E2E2E2E2E2E2E2E2E2E2E2E2E2E2E2E2E2E2E2E2E2E2E2E2E2E2E2E2E2E2E2E2E2E2E2E2E2E2E2E2E2E2E2E2E2E2E2E2E2E2E2E2E2E2E2E2E2E2E2E2E2E2E2E2E2E2E2E2E2E2E2E2E2E2E2E2E2E2E2E2E2E2E2E2E2E2E2E2E2E2E2E2E2E2E2E2E2E2E2E2
310
E2E2E2E2E2E2E2E2E2E2E2E2E2E2E2E2E2E2E2E2E2E2E2E2E2E2E2E2E2E2E2E2E2E2E2E2E2E2E2E2E2E2E2E2E2E2E2E2E2E2E2E2E2E2E2E2E2E2E2E2E2E2E2E2E2E2E2E2E2E2E2E2E2E2E2E2E2E2E2E2E2E2E2E2E2E2E2E2E2E2E2E2E2E2E2E2E2E2E2E2E2E2E2E2E2E2E2E2E2E2E2E2E2E2E2E2E2E2E2E2E2E2E2E2E2E2E2
310
E2E2E2E2E2E2E2E2E2E2E2E2E2E2E2E2E2E2E2E2E2E2E2E2E2E2E2E2E2E2E2E2E2E2E2E2E2E2E2E2E2E2E2E2E2E2E2E2E2E2E2E2E2E2E2E2E2E2E2E2E2E2E2E2E2E2E2E2E2E2E2E2E2E2E2E2E2E2E2E2E2E2E2E2E2E2E2E2E2E2E2E2E2E2E2E2E2E2E2E2E2E2E2E2E2E2E2E2E2E2E2E2E2E2E2E2E2E2E2E2E2E2E2E2E2E2E2
310
E2E2E2E2E2E2E2E2E2E2E2E2E2E2E2E2E2E2E2E2E2E2E2E2E2E2E2E2E2E2E2E2E2E2E2E2E2E2E2E2E2E2E2E2E2E2E2E2E2E2E2E2E2E2E2E2E2E2E2E2E2E2E2E2E2E2E2E2E2E2E2E2E2E2E2E2E2E2E2E2E2E2E2E2E2E2E2E2E2E2E2E2E2E2E2E2E2E2E2E2E2E2E2E2E2E2E2E2E2E2E2E2E2E2E2E2E2E2E2E2E2E2E2E2E2E2E2
310
E2E2E2E2E2E2E2E2E2E2E2E2E2E2E2E2E2E2E2E2E2E2E2E2E2E2E2E2E2E2E2E2E2E2E2E2E2E2E2E2E2E2E2E2E2E2E2E2E2E2E2E2E2E2E2E2E2E2E2E2E2E2E2E2E2E2E2E2E2E2E2E2E2E2E2E2E2E2E2E2E2E2E2E2E2E2E2E2E2E2E2E2E2E2E2E2E2E2E2E2E2E2E2E2E2E2E2E2E2E2E2E2E2E2E2E2E2E2E2E2E2E2E2E2E2E2E2
310
E2E2E2E2E2E2E2E2E2E2E2E2E2E2E2E2E2E2E2E2E2E2E2E2E2E2E2E2E2E2E2E2E2E2E2E2E2E2E2E2E2E2E2E2E2E2E2E2E2E2E2E2E2E2E2E2E2E2E2E2E2E2E2E2E2E2E2E2E2E2E2E2E2E2E2E2E2E2E2E2E2E2E2E2E2E2E2E2E2E2E2E2E2E2E2E2E2E2E2E2E2E2E2E2E2E2E2E2E2E2E2E2E2E2E2E2E2E2E2E2E2E2E2E2E2E2E2
310
E2E2E2E2E2E2E2E2E2E2E2E2E2E2E2E2E2E2E2E2E2E2E2E2E2E2E2E2E2E2E2E2E2E2E2E2E2E2E2E2E2E2E2E2E2E2E2E2E2E2E2E2E2E2E2E2E2E2E2E2E2E2E2E2E2E2E2E2E2E2E2E2E2E2E2E2E2E2E2E2E2E2E2E2E2E2E2E2E2E2E2E2E2E2E2E2E2E2E2E2E2E2E2E2E2E2E2E2E2E2E2E2E2E2E2E2E2E2E2E2E2E2E2E2E2E2E2
310
E2E2E2E2E2E2E2E2E2E2E2E2E2E2E2E2E2E2E2E2E2E2E2E2E2E2E2E2E2E2E2E2E2E2E2E2E2E2E2E2E2E2E2E2E2E2E2E2E2E2E2E2E2E2E2E2E2E2E2E2E2E2E2E2E2E2E2E2E2E2E2E2E2E2E2E2E2E2E2E2E2E2E2E2E2E2E2E2E2E2E2E2E2E2E2E2E2E2E2E2E2E2E2E2E2E2E2E2E2E2E2E2E2E2E2E2E2E2E2E2E2E2E2E2E2E2E2
310
E2E2E2E2E2E2E2E2E2E2E2E2E2E2E2E2E2E2E2E2E2E2E2E2E2E2E2E2E2E2E2E2E2E2E2E2E2E2E2E2E2E2E2E2E2E2E2E2E2E2E2E2E2E2E2E2E2E2E2E2E2E2E2E2E2E2E2E2E2E2E2E2E2E2E2E2E2E2E2E2E2E2E2E2E2E2E2E2E2E2E2E2E2E2E2E2E2E2E2E2E2E2E2E2E2E2E2E2E2E2E2E2E2E2E2E2E2E2E2E2E2E2E2E2E2E2E2
310
E2E2E2E2E2E2E2E2E2E2E2E2E2E2E2E2E2E2E2E2E2E2E2E2E2E2E2E2E2E2E2E2E2E2E2E2E2E2E2E2E2E2E2E2E2E2E2E2E2E2E2E2E2E2E2E2E2E2E2E2E2E2E2E2E2E2E2E2E2E2E2E2E2E2E2E2E2E2E2E2E2E2E2E2E2E2E2E2E2E2E2E2E2E2E2E2E2E2E2E2E2E2E2E2E2E2E2E2E2E2E2E2E2E2E2E2E2E2E2E2E2E2E2E2E2E2E2
310
E2E2E2E2E2E2E2E2E2E2E2E2E2E2E2E2E2E2E2E2E2E2E2E2E2E2E2E2E2E2E2E2E2E2E2E2E2E2E2E2E2E2E2E2E2E2E2E2E2E2E2E2E2E2E2E2E2E2E2E2E2E2E2E2E2E2E2E2E2E2E2E2E2E2E2E2E2E2E2E2E2E2E2E2E2E2E2E2E2E2E2E2E2E2E2E2E2E2E2E2E2E2E2E2E2E2E2E2E2E2E2E2E2E2E2E2E2E2E2E2E2E2E2E2E2E2E2
310
E2E2E2E2E2E2E2E2E2E2E2E2E2E2E2E2E2E2E2E2E2E2E2E2E2E2E2E2E2E2E2E2E2E2E2E2E2E2E2E2E2E2E2E2E2E2E2E2E2E2E2E2E2E2E2E2E2E2E2E2E2E2E2E2E2E2E2E2E2E2E2E2E2E2E2E2E2E2E2E2E2E2E2E2E2E2E2E2E2E2E2E2E2E2E2E2E2E2E2E2E2E2E2E2E2E2E2E2E2E2E2E2E2E2E2E2E2E2E2E2E2E2E2E2E2E2E2
310
E2E2E2E2E2E2E2E2E2E2E2E2E2E2E2E2E2E2E2E2E2E2E2E2E2E2E2E2E2E2E2E2E2E2E2E2E2E2E2E2E2E2E2E2E2E2E2E2E2E2E2E2E2E2E2E2E2E2E2E2E2E2E2E2E2E2E2E2E2E2E2E2E2E2E2E2E2E2E2E2E2E2E2E2E2E2E2E2E2E2E2E2E2E2E2E2E2E2E2E2E2E2E2E2E2E2E2E2E2E2E2E2E2E2E2E2E2E2E2E2E2E2E2E2E2E2E2
310
E2E2E2E2E2E2E2E2E2E2E2E2E2E2E2E2E2E2E2E2E2E2E2E2E2E2E2E2E2E2E2E2E2E2E2E2E2E2E2E2E2E2E2E2E2E2E2E2E2E2E2E2E2E2E2E2E2E2E2E2E2E2E2E2E2E2E2E2E2E2E2E2E2E2E2E2E2E2E2E2E2E2E2E2E2E2E2E2E2E2E2E2E2E2E2E2E2E2E2E2E2E2E2E2E2E2E2E2E2E2E2E2E2E2E2E2E2E2E2E2E2E2E2E2E2E2E2
310
E2E2E2E2E2E2E2E2E2E2E2E2E2E2E2E2E2E2E2E2E2E2E2E2E2E2E2E2E2E2E2E2E2E2E2E2E2E2E2E2E2E2E2E2E2E2E2E2E2E2E2E2E2E2E2E2E2E2E2E2E2E2E2E2E2E2E2E2E2E2E2E2E2E2E2E2E2E2E2E2E2E2E2E2E2E2E2E2E2E2E2E2E2E2E2E2E2E2E2E2E2E2E2E2E2E2E2E2E2E2E2E2E2E2E2E2E2E2E2E2E2E2E2E2E2E2E2
310
E2E2E2E2E2E2E2E2E2E2E2E2E2E2E2E2E2E2E2E2E2E2E2E2E2E2E2E2E2E2E2E2E2E2E2E2E2E2E2E2E2E2E2E2E2E2E2E2E2E2E2E2E2E2E2E2E2E2E2E2E2E2E2E2E2E2E2E2E2E2E2E2E2E2E2E2E2E2E2E2E2E2E2E2E2E2E2E2E2E2E2E2E2E2E2E2E2E2E2E2E2E2E2E2E2E2E2E2E2E2E2E2E2E2E2E2E2E2E2E2E2E2E2E2E2E2E2
310
E2E2E2E2E2E2E2E2E2E2E2E2E2E2E2E2E2E2E2E2E2E2E2E2E2E2E2E2E2E2E2E2E2E2E2E2E2E2E2E2E2E2E2E2E2E2E2E2E2E2E2E2E2E2E2E2E2E2E2E2E2E2E2E2E2E2E2E2E2E2E2E2E2E2E2E2E2E2E2E2E2E2E2E2E2E2E2E2E2E2E2E2E2E2E2E2E2E2E2E2E2E2E2E2E2E2E2E2E2E2E2E2E2E2E2E2E2E2E2E2E2E2E2E2E2E2E2
310
E2E2E2E2E2E2E2E2E2E2E2E2E2E2E2E2E2E2E2E2E2E2E2E2E2E2E2E2E2E2E2E2E2E2E2E2E2E2E2E2E2E2E2E2E2E2E2E2E2E2E2E2E2E2E2E2E2E2E2E2E2E2E2E2E2E2E2E2E2E2E2E2E2E2E2E2E2E2E2E2E2E2E2E2E2E2E2E2E2E2E2E2E2E2E2E2E2E2E2E2E2E2E2E2E2E2E2E2E2E2E2E2E2E2E2E2E2E2E2E2E2E2E2E2E2E2E2
310
E2E2E2E2E2E2E2E2E2E2E2E2E2E2E2E2E2E2E2E2E2E2E2E2E2E2E2E2E2E2E2E2E2E2E2E2E2E2E2E2E2E2E2E2E2E2E2E2E2E2E2E2E2E2E2E2E2E2E2E2E2E2E2E2E2E2E2E2E2E2E2E2E2E2E2E2E2E2E2E2E2E2E2E2E2E2E2E2E2E2E2E2E2E2E2E2E2E2E2E2E2E2E2E2E2E2E2E2E2E2E2E2E2E2E2E2E2E2E2E2E2E2E2E2E2E2E2
310
E2E2E2E2E2E2E2E2E2E2E2E2E2E2E2E2E2E2E2E2E2E2E2E2E2E2E2E2E2E2E2E2E2E2E2E2E2E2E2E2E2E2E2E2E2E2E2E2E2E2E2E2E2E2E2E2E2E2E2E2E2E2E2E2E2E2E2E2E2E2E2E2E2E2E2E2E2E2E2E2E2E2E2E2E2E2E2E2E2E2E2E2E2E2E2E2E2E2E2E2E2E2E2E2E2E2E2E2E2E2E2E2E2E2E2E2E2E2E2E2E2E2E2E2E2E2E2
310
E2E2E2E2E2E2E2E2E2E2E2E2E2E2E2E2E2E2E2E2E2E2E2E2E2E2E2E2E2E2E2E2E2E2E2E2E2E2E2E2E2E2E2E2E2E2E2E2E2E2E2E2E2E2E2E2E2E2E2E2E2E2E2E2E2E2E2E2E2E2E2E2E2E2E2E2E2E2E2E2E2E2E2E2E2E2E2E2E2E2E2E2E2E2E2E2E2E2E2E2E2E2E2E2E2E2E2E2E2E2E2E2E2E2E2E2E2E2E2E2E2E2E2E2E2E2E2
310
E2E2E2E2E2E2E2E2E2E2E2E2E2E2E2E2E2E2E2E2E2E2E2E2E2E2E2E2E2E2E2E2E2E2E2E2E2E2E2E2E2E2E2E2E2E2E2E2E2E2E2E2E2E2E2E2E2E2E2E2E2E2E2E2E2E2E2E2E2E2E2E2E2E2E2E2E2E2E2E2E2E2E2E2E2E2E2E2E2E2E2E2E2E2E2E2E2E2E2E2E2E2E2E2E2E2E2E2E2E2E2E2E2E2E2E2E2E2E2E2E2E2E2E2E2E2E2
310
E2E2E2E2E2E2E2E2E2E2E2E2E2E2E2E2E2E2E2E2E2E2E2E2E2E2E2E2E2E2E2E2E2E2E2E2E2E2E2E2E2E2E2E2E2E2E2E2E2E2E2E2E2E2E2E2E2E2E2E2E2E2E2E2E2E2E2E2E2E2E2E2E2E2E2E2E2E2E2E2E2E2E2E2E2E2E2E2E2E2E2E2E2E2E2E2E2E2E2E2E2E2E2E2E2E2E2E2E2E2E2E2E2E2E2E2E2E2E2E2E2E2E2E2E2E2E2
310
E2E2E2E2E2E2E2E2E2E2E2E2E2E2E2E2E2E2E2E2E2E2E2E2E2E2E2E2E2E2E2E2E2E2E2E2E2E2E2E2E2E2E2E2E2E2E2E2E2E2E2E2E2E2E2E2E2E2E2E2E2E2E2E2E2E2E2E2E2E2E2E2E2E2E2E2E2E2E2E2E2E2E2E2E2E2E2E2E2E2E2E2E2E2E2E2E2E2E2E2E2E2E2E2E2E2E2E2E2E2E2E2E2E2E2E2E2E2E2E2E2E2E2E2E2E2E2
310
E2E2E2E2E2E2E2E2E2E2E2E2E2E2E2E2E2E2E2E2E2E2E2E2E2E2E2E2E2E2E2E2E2E2E2E2E2E2E2E2E2E2E2E2E2E2E2E2E2E2E2E2E2E2E2E2E2E2E2E2E2E2E2E2E2E2E2E2E2E2E2E2E2E2E2E2E2E2E2E2E2E2E2E2E2E2E2E2E2E2E2E2E2E2E2E2E2E2E2E2E2E2E2E2E2E2E2E2E2E2E2E2E2E2E2E2E2E2E2E2E2E2E2E2E2E2E2
310
E2E2E2E2E2E2E2E2E2E2E2E2E2E2E2E2E2E2E2E2E2E2E2E2E2E2E2E2E2E2E2E2E2E2E2E2E2E2E2E2E2E2E2E2E2E2E2E2E2E2E2E2E2E2E2E2E2E2E2E2E2E2E2E2E2E2E2E2E2E2E2E2E2E2E2E2E2E2E2E2E2E2E2E2E2E2E2E2E2E2E2E2E2E2E2E2E2E2E2E2E2E2E2E2E2E2E2E2E2E2E2E2E2E2E2E2E2E2E2E2E2E2E2E2E2E2E2
310
E2E2E2E2E2E2E2E2E2E2E2E2E2E2E2E2E2E2E2E2E2E2E2E2E2E2E2E2E2E2E2E2E2E2E2E2E2E2E2E2E2E2E2E2E2E2E2E2E2E2E2E2E2E2E2E2E2E2E2E2E2E2E2E2E2E2E2E2E2E2E2E2E2E2E2E2E2E2E2E2E2E2E2E2E2E2E2E2E2E2E2E2E2E2E2E2E2E2E2E2E2E2E2E2E2E2E2E2E2E2E2E2E2E2E2E2E2E2E2E2E2E2E2E2E2E2E2
310
E2E2E2E2E2E2E2E2E2E2E2E2E2E2E2E2E2E2E2E2E2E2E2E2E2E2E2E2E2E2E2E2E2E2E2E2E2E2E2E2E2E2E2E2E2E2E2E2E2E2E2E2E2E2E2E2E2E2E2E2E2E2E2E2E2E2E2E2E2E2E2E2E2E2E2E2E2E2E2E2E2E2E2E2E2E2E2E2E2E2E2E2E2E2E2E2E2E2E2E2E2E2E2E2E2E2E2E2E2E2E2E2E2E2E2E2E2E2E2E2E2E2E2E2E2E2E2
310
E2E2E2E2E2E2E2E2E2E2E2E2E2E2E2E2E2E2E2E2E2E2E2E2E2E2E2E2E2E2E2E2E2E2E2E2E2E2E2E2E2E2E2E2E2E2E2E2E2E2E2E2E2E2E2E2E2E2E2E2E2E2E2E2E2E2E2E2E2E2E2E2E2E2E2E2E2E2E2E2E2E2E2E2E2E2E2E2E2E2E2E2E2E2E2E2E2E2E2E2E2E2E2E2E2E2E2E2E2E2E2E2E2E2E2E2E2E2E2E2E2E2E2E2E2E2E2
310
E2E2E2E2E2E2E2E2E2E2E2E2E2E2E2E2E2E2E2E2E2E2E2E2E2E2E2E2E2E2E2E2E2E2E2E2E2E2E2E2E2E2E2E2E2E2E2E2E2E2E2E2E2E2E2E2E2E2E2E2E2E2E2E2E2E2E2E2E2E2E2E2E2E2E2E2E2E2E2E2E2E2E2E2E2E2E2E2E2E2E2E2E2E2E2E2E2E2E2E2E2E2E2E2E2E2E2E2E2E2E2E2E2E2E2E2E2E2E2E2E2E2E2E2E2E2E2
310
E2E2E2E2E2E2E2E2E2E2E2E2E2E2E2E2E2E2E2E2E2E2E2E2E2E2E2E2E2E2E2E2E2E2E2E2E2E2E2E2E2E2E2E2E2E2E2E2E2E2E2E2E2E2E2E2E2E2E2E2E2E2E2E2E2E2E2E2E2E2E2E2E2E2E2E2E2E2E2E2E2E2E2E2E2E2E2E2E2E2E2E2E2E2E2E2E2E2E2E2E2E2E2E2E2E2E2E2E2E2E2E2E2E2E2E2E2E2E2E2E2E2E2E2E2E2E2
310
E2E2E2E2E2E2E2E2E2E2E2E2E2E2E2E2E2E2E2E2E2E2E2E2E2E2E2E2E2E2E2E2E2E2E2E2E2E2E2E2E2E2E2E2E2E2E2E2E2E2E2E2E2E2E2E2E2E2E2E2E2E2E2E2E2E2E2E2E2E2E2E2E2E2E2E2E2E2E2E2E2E2E2E2E2E2E2E2E2E2E2E2E2E2E2E2E2E2E2E2E2E2E2E2E2E2E2E2E2E2E2E2E2E2E2E2E2E2E2E2E2E2E2E2E2E2E2
310
E2E2E2E2E2E2E2E2E2E2E2E2E2E2E2E2E2E2E2E2E2E2E2E2E2E2E2E2E2E2E2E2E2E2E2E2E2E2E2E2E2E2E2E2E2E2E2E2E2E2E2E2E2E2E2E2E2E2E2E2E2E2E2E2E2E2E2E2E2E2E2E2E2E2E2E2E2E2E2E2E2E2E2E2E2E2E2E2E2E2E2E2E2E2E2E2E2E2E2E2E2E2E2E2E2E2E2E2E2E2E2E2E2E2E2E2E2E2E2E2E2E2E2E2E2E2E2
310
E2E2E2E2E2E2E2E2E2E2E2E2E2E2E2E2E2E2E2E2E2E2E2E2E2E2E2E2E2E2E2E2E2E2E2E2E2E2E2E2E2E2E2E2E2E2E2E2E2E2E2E2E2E2E2E2E2E2E2E2E2E2E2E2E2E2E2E2E2E2E2E2E2E2E2E2E2E2E2E2E2E2E2E2E2E2E2E2E2E2E2E2E2E2E2E2E2E2E2E2E2E2E2E2E2E2E2E2E2E2E2E2E2E2E2E2E2E2E2E2E2E2E2E2E2E2E2
310
E2E2E2E2E2E2E2E2E2E2E2E2E2E2E2E2E2E2E2E2E2E2E2E2E2E2E2E2E2E2E2E2E2E2E2E2E2E2E2E2E2E2E2E2E2E2E2E2E2E2E2E2E2E2E2E2E2E2E2E2E2E2E2E2E2E2E2E2E2E2E2E2E2E2E2E2E2E2E2E2E2E2E2E2E2E2E2E2E2E2E2E2E2E2E2E2E2E2E2E2E2E2E2E2E2E2E2E2E2E2E2E2E2E2E2E2E2E2E2E2E2E2E2E2E2E2E2
310
E2E2E2E2E2E2E2E2E2E2E2E2E2E2E2E2E2E2E2E2E2E2E2E2E2E2E2E2E2E2E2E2E2E2E2E2E2E2E2E2E2E2E2E2E2E2E2E2E2E2E2E2E2E2E2E2E2E2E2E2E2E2E2E2E2E2E2E2E2E2E2E2E2E2E2E2E2E2E2E2E2E2E2E2E2E2E2E2E2E2E2E2E2E2E2E2E2E2E2E2E2E2E2E2E2E2E2E2E2E2E2E2E2E2E2E2E2E2E2E2E2E2E2E2E2E2E2
310
E2E2E2E2E2E2E2E2E2E2E2E2E2E2E2E2E2E2E2E2E2E2E2E2E2E2E2E2E2E2E2E2E2E2E2E2E2E2E2E2E2E2E2E2E2E2E2E2E2E2E2E2E2E2E2E2E2E2E2E2E2E2E2E2E2E2E2E2E2E2E2E2E2E2E2E2E2E2E2E2E2E2E2E2E2E2E2E2E2E2E2E2E2E2E2E2E2E2E2E2E2E2E2E2E2E2E2E2E2E2E2E2E2E2E2E2E2E2E2E2E2E2E2E2E2E2E2
310
E2E2E2E2E2E2E2E2E2E2E2E2E2E2E2E2E2E2E2E2E2E2E2E2E2E2E2E2E2E2E2E2E2E2E2E2E2E2E2E2E2E2E2E2E2E2E2E2E2E2E2E2E2E2E2E2E2E2E2E2E2E2E2E2E2E2E2E2E2E2E2E2E2E2E2E2E2E2E2E2E2E2E2E2E2E2E2E2E2E2E2E2E2E2E2E2E2E2E2E2E2E2E2E2E2E2E2E2E2E2E2E2E2E2E2E2E2E2E2E2E2E2E2E2E2E2E2
310
E2E2E2E2E2E2E2E2E2E2E2E2E2E2E2E2E2E2E2E2E2E2E2E2E2E2E2E2E2E2E2E2E2E2E2E2E2E2E2E2E2E2E2E2E2E2E2E2E2E2E2E2E2E2E2E2E2E2E2E2E2E2E2E2E2E2E2E2E2E2E2E2E2E2E2E2E2E2E2E2E2E2E2E2E2E2E2E2E2E2E2E2E2E2E2E2E2E2E2E2E2E2E2E2E2E2E2E2E2E2E2E2E2E2E2E2E2E2E2E2E2E2E2E2E2E2E2
310
E2E2E2E2E2E2E2E2E2E2E2E2E2E2E2E2E2E2E2E2E2E2E2E2E2E2E2E2E2E2E2E2E2E2E2E2E2E2E2E2E2E2E2E2E2E2E2E2E2E2E2E2E2E2E2E2E2E2E2E2E2E2E2E2E2E2E2E2E2E2E2E2E2E2E2E2E2E2E2E2E2E2E2E2E2E2E2E2E2E2E2E2E2E2E2E2E2E2E2E2E2E2E2E2E2E2E2E2E2E2E2E2E2E2E2E2E2E2E2E2E2E2E2E2E2E2E2
310
E2E2E2E2E2E2E2E2E2E2E2E2E2E2E2E2E2E2E2E2E2E2E2E2E2E2E2E2E2E2E2E2E2E2E2E2E2E2E2E2E2E2E2E2E2E2E2E2E2E2E2E2E2E2E2E2E2E2E2E2E2E2E2E2E2E2E2E2E2E2E2E2E2E2E2E2E2E2E2E2E2E2E2E2E2E2E2E2E2E2E2E2E2E2E2E2E2E2E2E2E2E2E2E2E2E2E2E2E2E2E2E2E2E2E2E2E2E2E2E2E2E2E2E2E2E2E2
310
E2E2E2E2E2E2E2E2E2E2E2E2E2E2E2E2E2E2E2E2E2E2E2E2E2E2E2E2E2E2E2E2E2E2E2E2E2E2E2E2E2E2E2E2E2E2E2E2E2E2E2E2E2E2E2E2E2E2E2E2E2E2E2E2E2E2E2E2E2E2E2E2E2E2E2E2E2E2E2E2E2E2E2E2E2E2E2E2E2E2E2E2E2E2E2E2E2E2E2E2E2E2E2E2E2E2E2E2E2E2E2E2E2E2E2E2E2E2E2E2E2E2E2E2E2E2E2
310
E2E2E2E2E2E2E2E2E2E2E2E2E2E2E2E2E2E2E2E2E2E2E2E2E2E2E2E2E2E2E2E2E2E2E2E2E2E2E2E2E2E2E2E2E2E2E2E2E2E2E2E2E2E2E2E2E2E2E2E2E2E2E2E2E2E2E2E2E2E2E2E2E2E2E2E2E2E2E2E2E2E2E2E2E2E2E2E2E2E2E2E2E2E2E2E2E2E2E2E2E2E2E2E2E2E2E2E2E2E2E2E2E2E2E2E2E2E2E2E2E2E2E2E2E2E2E2
310
E2E2E2E2E2E2E2E2E2E2E2E2E2E2E2E2E2E2E2E2E2E2E2E2E2E2E2E2E2E2E2E2E2E2E2E2E2E2E2E2E2E2E2E2E2E2E2E2E2E2E2E2E2E2E2E2E2E2E2E2E2E2E2E2E2E2E2E2E2E2E2E2E2E2E2E2E2E2E2E2E2E2E2E2E2E2E2E2E2E2E2E2E2E2E2E2E2E2E2E2E2E2E2E2E2E2E2E2E2E2E2E2E2E2E2E2E2E2E2E2E2E2E2E2E2E2E2
310
E2E2E2E2E2E2E2E2E2E2E2E2E2E2E2E2E2E2E2E2E2E2E2E2E2E2E2E2E2E2E2E2E2E2E2E2E2E2E2E2E2E2E2E2E2E2E2E2E2E2E2E2E2E2E2E2E2E2E2E2E2E2E2E2E2E2E2E2E2E2E2E2E2E2E2E2E2E2E2E2E2E2E2E2E2E2E2E2E2E2E2E2E2E2E2E2E2E2E2E2E2E2E2E2E2E2E2E2E2E2E2E2E2E2E2E2E2E2E2E2E2E2E2E2E2E2E2
310
E2E2E2E2E2E2E2E2E2E2E2E2E2E2E2E2E2E2E2E2E2E2E2E2E2E2E2E2E2E2E2E2E2E2E2E2E2E2E2E2E2E2E2E2E2E2E2E2E2E2E2E2E2E2E2E2E2E2E2E2E2E2E2E2E2E2E2E2E2E2E2E2E2E2E2E2E2E2E2E2E2E2E2E2E2E2E2E2E2E2E2E2E2E2E2E2E2E2E2E2E2E2E2E2E2E2E2E2E2E2E2E2E2E2E2E2E2E2E2E2E2E2E2E2E2E2E2
310
E2E2E2E2E2E2E2E2E2E2E2E2E2E2E2E2E2E2E2E2E2E2E2E2E2E2E2E2E2E2E2E2E2E2E2E2E2E2E2E2E2E2E2E2E2E2E2E2E2E2E2E2E2E2E2E2E2E2E2E2E2E2E2E2E2E2E2E2E2E2E2E2E2E2E2E2E2E2E2E2E2E2E2E2E2E2E2E2E2E2E2E2E2E2E2E2E2E2E2E2E2E2E2E2E2E2E2E2E2E2E2E2E2E2E2E2E2E2E2E2E2E2E2E2E2E2E2
310
E2E2E2E2E2E2E2E2E2E2E2E2E2E2E2E2E2E2E2E2E2E2E2E2E2E2E2E2E2E2E2E2E2E2E2E2E2E2E2E2E2E2E2E2E2E2E2E2E2E2E2E2E2E2E2E2E2E2E2E2E2E2E2E2E2E2E2E2E2E2E2E2E2E2E2E2E2E2E2E2E2E2E2E2E2E2E2E2E2E2E2E2E2E2E2E2E2E2E2E2E2E2E2E2E2E2E2E2E2E2E2E2E2E2E2E2E2E2E2E2E2E2E2E2E2E2E2
310
E2E2E2E2E2E2E2E2E2E2E2E2E2E2E2E2E2E2E2E2E2E2E2E2E2E2E2E2E2E2E2E2E2E2E2E2E2E2E2E2E2E2E2E2E2E2E2E2E2E2E2E2E2E2E2E2E2E2E2E2E2E2E2E2E2E2E2E2E2E2E2E2E2E2E2E2E2E2E2E2E2E2E2E2E2E2E2E2E2E2E2E2E2E2E2E2E2E2E2E2E2E2E2E2E2E2E2E2E2E2E2E2E2E2E2E2E2E2E2E2E2E2E2E2E2E2E2
310
E2E2E2E2E2E2E2E2E2E2E2E2E2E2E2E2E2E2E2E2E2E2E2E2E2E2E2E2E2E2E2E2E2E2E2E2E2E2E2E2E2E2E2E2E2E2E2E2E2E2E2E2E2E2E2E2E2E2E2E2E2E2E2E2E2E2E2E2E2E2E2E2E2E2E2E2E2E2E2E2E2E2E2E2E2E2E2E2E2E2E2E2E2E2E2E2E2E2E2E2E2E2E2E2E2E2E2E2E2E2E2E2E2E2E2E2E2E2E2E2E2E2E2E2E2E2E2
310
E2E2E2E2E2E2E2E2E2E2E2E2E2E2E2E2E2E2E2E2E2E2E2E2E2E2E2E2E2E2E2E2E2E2E2E2E2E2E2E2E2E2E2E2E2E2E2E2E2E2E2E2E2E2E2E2E2E2E2E2E2E2E2E2E2E2E2E2E2E2E2E2E2E2E2E2E2E2E2E2E2E2E2E2E2E2E2E2E2E2E2E2E2E2E2E2E2E2E2E2E2E2E2E2E2E2E2E2E2E2E2E2E2E2E2E2E2E2E2E2E2E2E2E2E2E2E2
310
E2E2E2E2E2E2E2E2E2E2E2E2E2E2E2E2E2E2E2E2E2E2E2E2E2E2E2E2E2E2E2E2E2E2E2E2E2E2E2E2E2E2E2E2E2E2E2E2E2E2E2E2E2E2E2E2E2E2E2E2E2E2E2E2E2E2E2E2E2E2E2E2E2E2E2E2E2E2E2E2E2E2E2E2E2E2E2E2E2E2E2E2E2E2E2E2E2E2E2E2E2E2E2E2E2E2E2E2E2E2E2E2E2E2E2E2E2E2E2E2E2E2E2E2E2E2E2
310
E2E2E2E2E2E2E2E2E2E2E2E2E2E2E2E2E2E2E2E2E2E2E2E2E2E2E2E2E2E2E2E2E2E2E2E2E2E2E2E2E2E2E2E2E2E2E2E2E2E2E2E2E2E2E2E2E2E2E2E2E2E2E2E2E2E2E2E2E2E2E2E2E2E2E2E2E2E2E2E2E2E2E2E2E2E2E2E2E2E2E2E2E2E2E2E2E2E2E2E2E2E2E2E2E2E2E2E2E2E2E2E2E2E2E2E2E2E2E2E2E2E2E2E2E2E2E2
310
E2E2E2E2E2E2E2E2E2E2E2E2E2E2E2E2E2E2E2E2E2E2E2E2E2E2E2E2E2E2E2E2E2E2E2E2E2E2E2E2E2E2E2E2E2E2E2E2E2E2E2E2E2E2E2E2E2E2E2E2E2E2E2E2E2E2E2E2E2E2E2E2E2E2E2E2E2E2E2E2E2E2E2E2E2E2E2E2E2E2E2E2E2E2E2E2E2E2E2E2E2E2E2E2E2E2E2E2E2E2E2E2E2E2E2E2E2E2E2E2E2E2E2E2E2E2E2
310
E2E2E2E2E2E2E2E2E2E2E2E2E2E2E2E2E2E2E2E2E2E2E2E2E2E2E2E2E2E2E2E2E2E2E2E2E2E2E2E2E2E2E2E2E2E2E2E2E2E2E2E2E2E2E2E2E2E2E2E2E2E2E2E2E2E2E2E2E2E2E2E2E2E2E2E2E2E2E2E2E2E2E2E2E2E2E2E2E2E2E2E2E2E2E2E2E2E2E2E2E2E2E2E2E2E2E2E2E2E2E2E2E2E2E2E2E2E2E2E2E2E2E2E2E2E2E2
310
E2E2E2E2E2E2E2E2E2E2E2E2E2E2E2E2E2E2E2E2E2E2E2E2E2E2E2E2E2E2E2E2E2E2E2E2E2E2E2E2E2E2E2E2E2E2E2E2E2E2E2E2E2E2E2E2E2E2E2E2E2E2E2E2E2E2E2E2E2E2E2E2E2E2E2E2E2E2E2E2E2E2E2E2E2E2E2E2E2E2E2E2E2E2E2E2E2E2E2E2E2E2E2E2E2E2E2E2E2E2E2E2E2E2E2E2E2E2E2E2E2E2E2E2E2E2E2
310
E2E2E2E2E2E2E2E2E2E2E2E2E2E2E2E2E2E2E2E2E2E2E2E2E2E2E2E2E2E2E2E2E2E2E2E2E2E2E2E2E2E2E2E2E2E2E2E2E2E2E2E2E2E2E2E2E2E2E2E2E2E2E2E2E2E2E2E2E2E2E2E2E2E2E2E2E2E2E2E2E2E2E2E2E2E2E2E2E2E2E2E2E2E2E2E2E2E2E2E2E2E2E2E2E2E2E2E2E2E2E2E2E2E2E2E2E2E2E2E2E2E2E2E2E2E2E2
310
E2E2E2E2E2E2E2E2E2E2E2E2E2E2E2E2E2E2E2E2E2E2E2E2E2E2E2E2E2E2E2E2E2E2E2E2E2E2E2E2E2E2E2E2E2E2E2E2E2E2E2E2E2E2E2E2E2E2E2E2E2E2E2E2E2E2E2E2E2E2E2E2E2E2E2E2E2E2E2E2E2E2E2E2E2E2E2E2E2E2E2E2E2E2E2E2E2E2E2E2E2E2E2E2E2E2E2E2E2E2E2E2E2E2E2E2E2E2E2E2E2E2E2E2E2E2E2
310
E2E2E2E2E2E2E2E2E2E2E2E2E2E2E2E2E2E2E2E2E2E2E2E2E2E2E2E2E2E2E2E2E2E2E2E2E2E2E2E2E2E2E2E2E2E2E2E2E2E2E2E2E2E2E2E2E2E2E2E2E2E2E2E2E2E2E2E2E2E2E2E2E2E2E2E2E2E2E2E2E2E2E2E2E2E2E2E2E2E2E2E2E2E2E2E2E2E2E2E2E2E2E2E2E2E2E2E2E2E2E2E2E2E2E2E2E2E2E2E2E2E2E2E2E2E2E2
310
E2E2E2E2E2E2E2E2E2E2E2E2E2E2E2E2E2E2E2E2E2E2E2E2E2E2E2E2E2E2E2E2E2E2E2E2E2E2E2E2E2E2E2E2E2E2E2E2E2E2E2E2E2E2E2E2E2E2E2E2E2E2E2E2E2E2E2E2E2E2E2E2E2E2E2E2E2E2E2E2E2E2E2E2E2E2E2E2E2E2E2E2E2E2E2E2E2E2E2E2E2E2E2E2E2E2E2E2E2E2E2E2E2E2E2E2E2E2E2E2E2E2E2E2E2E2E2
310
E2E2E2E2E2E2E2E2E2E2E2E2E2E2E2E2E2E2E2E2E2E2E2E2E2E2E2E2E2E2E2E2E2E2E2E2E2E2E2E2E2E2E2E2E2E2E2E2E2E2E2E2E2E2E2E2E2E2E2E2E2E2E2E2E2E2E2E2E2E2E2E2E2E2E2E2E2E2E2E2E2E2E2E2E2E2E2E2E2E2E2E2E2E2E2E2E2E2E2E2E2E2E2E2E2E2E2E2E2E2E2E2E2E2E2E2E2E2E2E2E2E2E2E2E2E2E2
310
E2E2E2E2E2E2E2E2E2E2E2E2E2E2E2E2E2E2E2E2E2E2E2E2E2E2E2E2E2E2E2E2E2E2E2E2E2E2E2E2E2E2E2E2E2E2E2E2E2E2E2E2E2E2E2E2E2E2E2E2E2E2E2E2E2E2E2E2E2E2E2E2E2E2E2E2E2E2E2E2E2E2E2E2E2E2E2E2E2E2E2E2E2E2E2E2E2E2E2E2E2E2E2E2E2E2E2E2E2E2E2E2E2E2E2E2E2E2E2E2E2E2E2E2E2E2E2
310
E2E2E2E2E2E2E2E2E2E2E2E2E2E2E2E2E2E2E2E2E2E2E2E2E2E2E2E2E2E2E2E2E2E2E2E2E2E2E2E2E2E2E2E2E2E2E2E2E2E2E2E2E2E2E2E2E2E2E2E2E2E2E2E2E2E2E2E2E2E2E2E2E2E2E2E2E2E2E2E2E2E2E2E2E2E2E2E2E2E2E2E2E2E2E2E2E2E2E2E2E2E2E2E2E2E2E2E2E2E2E2E2E2E2E2E2E2E2E2E2E2E2E2E2E2E2E2
310
E2E2E2E2E2E2E2E2E2E2E2E2E2E2E2E2E2E2E2E2E2E2E2E2E2E2E2E2E2E2E2E2E2E2E2E2E2E2E2E2E2E2E2E2E2E2E2E2E2E2E2E2E2E2E2E2E2E2E2E2E2E2E2E2E2E2E2E2E2E2E2E2E2E2E2E2E2E2E2E2E2E2E2E2E2E2E2E2E2E2E2E2E2E2E2E2E2E2E2E2E2E2E2E2E2E2E2E2E2E2E2E2E2E2E2E2E2E2E2E2E2E2E2E2E2E2E2
310
E2E2E2E2E2E2E2E2E2E2E2E2E2E2E2E2E2E2E2E2E2E2E2E2E2E2E2E2E2E2E2E2E2E2E2E2E2E2E2E2E2E2E2E2E2E2E2E2E2E2E2E2E2E2E2E2E2E2E2E2E2E2E2E2E2E2E2E2E2E2E2E2E2E2E2E2E2E2E2E2E2E2E2E2E2E2E2E2E2E2E2E2E2E2E2E2E2E2E2E2E2E2E2E2E2E2E2E2E2E2E2E2E2E2E2E2E2E2E2E2E2E2E2E2E2E2E2
310
E2E2E2E2E2E2E2E2E2E2E2E2E2E2E2E2E2E2E2E2E2E2E2E2E2E2E2E2E2E2E2E2E2E2E2E2E2E2E2E2E2E2E2E2E2E2E2E2E2E2E2E2E2E2E2E2E2E2E2E2E2E2E2E2E2E2E2E2E2E2E2E2E2E2E2E2E2E2E2E2E2E2E2E2E2E2E2E2E2E2E2E2E2E2E2E2E2E2E2E2E2E2E2E2E2E2E2E2E2E2E2E2E2E2E2E2E2E2E2E2E2E2E2E2E2E2E2
310
E2E2E2E2E2E2E2E2E2E2E2E2E2E2E2E2E2E2E2E2E2E2E2E2E2E2E2E2E2E2E2E2E2E2E2E2E2E2E2E2E2E2E2E2E2E2E2E2E2E2E2E2E2E2E2E2E2E2E2E2E2E2E2E2E2E2E2E2E2E2E2E2E2E2E2E2E2E2E2E2E2E2E2E2E2E2E2E2E2E2E2E2E2E2E2E2E2E2E2E2E2E2E2E2E2E2E2E2E2E2E2E2E2E2E2E2E2E2E2E2E2E2E2E2E2E2E2
310
E2E2E2E2E2E2E2E2E2E2E2E2E2E2E2E2E2E2E2E2E2E2E2E2E2E2E2E2E2E2E2E2E2E2E2E2E2E2E2E2E2E2E2E2E2E2E2E2E2E2E2E2E2E2E2E2E2E2E2E2E2E2E2E2E2E2E2E2E2E2E2E2E2E2E2E2E2E2E2E2E2E2E2E2E2E2E2E2E2E2E2E2E2E2E2E2E2E2E2E2E2E2E2E2E2E2E2E2E2E2E2E2E2E2E2E2E2E2E2E2E2E2E2E2E2E2E2
310
E2E2E2E2E2E2E2E2E2E2E2E2E2E2E2E2E2E2E2E2E2E2E2E2E2E2E2E2E2E2E2E2E2E2E2E2E2E2E2E2E2E2E2E2E2E2E2E2E2E2E2E2E2E2E2E2E2E2E2E2E2E2E2E2E2E2E2E2E2E2E2E2E2E2E2E2E2E2E2E2E2E2E2E2E2E2E2E2E2E2E2E2E2E2E2E2E2E2E2E2E2E2E2E2E2E2E2E2E2E2E2E2E2E2E2E2E2E2E2E2E2E2E2E2E2E2E2
310
E2E2E2E2E2E2E2E2E2E2E2E2E2E2E2E2E2E2E2E2E2E2E2E2E2E2E2E2E2E2E2E2E2E2E2E2E2E2E2E2E2E2E2E2E2E2E2E2E2E2E2E2E2E2E2E2E2E2E2E2E2E2E2E2E2E2E2E2E2E2E2E2E2E2E2E2E2E2E2E2E2E2E2E2E2E2E2E2E2E2E2E2E2E2E2E2E2E2E2E2E2E2E2E2E2E2E2E2E2E2E2E2E2E2E2E2E2E2E2E2E2E2E2E2E2E2E2
310
E2E2E2E2E2E2E2E2E2E2E2E2E2E2E2E2E2E2E2E2E2E2E2E2E2E2E2E2E2E2E2E2E2E2E2E2E2E2E2E2E2E2E2E2E2E2E2E2E2E2E2E2E2E2E2E2E2E2E2E2E2E2E2E2E2E2E2E2E2E2E2E2E2E2E2E2E2E2E2E2E2E2E2E2E2E2E2E2E2E2E2E2E2E2E2E2E2E2E2E2E2E2E2E2E2E2E2E2E2E2E2E2E2E2E2E2E2E2E2E2E2E2E2E2E2E2E2
310
E2E2E2E2E2E2E2E2E2E2E2E2E2E2E2E2E2E2E2E2E2E2E2E2E2E2E2E2E2E2E2E2E2E2E2E2E2E2E2E2E2E2E2E2E2E2E2E2E2E2E2E2E2E2E2E2E2E2E2E2E2E2E2E2E2E2E2E2E2E2E2E2E2E2E2E2E2E2E2E2E2E2E2E2E2E2E2E2E2E2E2E2E2E2E2E2E2E2E2E2E2E2E2E2E2E2E2E2E2E2E2E2E2E2E2E2E2E2E2E2E2E2E2E2E2E2E2
310
E2E2E2E2E2E2E2E2E2E2E2E2E2E2E2E2E2E2E2E2E2E2E2E2E2E2E2E2E2E2E2E2E2E2E2E2E2E2E2E2E2E2E2E2E2E2E2E2E2E2E2E2E2E2E2E2E2E2E2E2E2E2E2E2E2E2E2E2E2E2E2E2E2E2E2E2E2E2E2E2E2E2E2E2E2E2E2E2E2E2E2E2E2E2E2E2E2E2E2E2E2E2E2E2E2E2E2E2E2E2E2E2E2E2E2E2E2E2E2E2E2E2E2E2E2E2E2
310
E2E2E2E2E2E2E2E2E2E2E2E2E2E2E2E2E2E2E2E2E2E2E2E2E2E2E2E2E2E2E2E2E2E2E2E2E2E2E2E2E2E2E2E2E2E2E2E2E2E2E2E2E2E2E2E2E2E2E2E2E2E2E2E2E2E2E2E2E2E2E2E2E2E2E2E2E2E2E2E2E2E2E2E2E2E2E2E2E2E2E2E2E2E2E2E2E2E2E2E2E2E2E2E2E2E2E2E2E2E2E2E2E2E2E2E2E2E2E2E2E2E2E2E2E2E2E2
310
E2E2E2E2E2E2E2E2E2E2E2E2E2E2E2E2E2E2E2E2E2E2E2E2E2E2E2E2E2E2E2E2E2E2E2E2E2E2E2E2E2E2E2E2E2E2E2E2E2E2E2E2E2E2E2E2E2E2E2E2E2E2E2E2E2E2E2E2E2E2E2E2E2E2E2E2E2E2E2E2E2E2E2E2E2E2E2E2E2E2E2E2E2E2E2E2E2E2E2E2E2E2E2E2E2E2E2E2E2E2E2E2E2E2E2E2E2E2E2E2E2E2E2E2E2E2E2
310
E2E2E2E2E2E2E2E2E2E2E2E2E2E2E2E2E2E2E2E2E2E2E2E2E2E2E2E2E2E2E2E2E2E2E2E2E2E2E2E2E2E2E2E2E2E2E2E2E2E2E2E2E2E2E2E2E2E2E2E2E2E2E2E2E2E2E2E2E2E2E2E2E2E2E2E2E2E2E2E2E2E2E2E2E2E2E2E2E2E2E2E2E2E2E2E2E2E2E2E2E2E2E2E2E2E2E2E2E2E2E2E2E2E2E2E2E2E2E2E2E2E2E2E2E2E2E2
310
E2E2E2E2E2E2E2E2E2E2E2E2E2E2E2E2E2E2E2E2E2E2E2E2E2E2E2E2E2E2E2E2E2E2E2E2E2E2E2E2E2E2E2E2E2E2E2E2E2E2E2E2E2E2E2E2E2E2E2E2E2E2E2E2E2E2E2E2E2E2E2E2E2E2E2E2E2E2E2E2E2E2E2E2E2E2E2E2E2E2E2E2E2E2E2E2E2E2E2E2E2E2E2E2E2E2E2E2E2E2E2E2E2E2E2E2E2E2E2E2E2E2E2E2E2E2E2
310
E2E2E2E2E2E2E2E2E2E2E2E2E2E2E2E2E2E2E2E2E2E2E2E2E2E2E2E2E2E2E2E2E2E2E2E2E2E2E2E2E2E2E2E2E2E2E2E2E2E2E2E2E2E2E2E2E2E2E2E2E2E2E2E2E2E2E2E2E2E2E2E2E2E2E2E2E2E2E2E2E2E2E2E2E2E2E2E2E2E2E2E2E2E2E2E2E2E2E2E2E2E2E2E2E2E2E2E2E2E2E2E2E2E2E2E2E2E2E2E2E2E2E2E2E2E2E2
310
E2E2E2E2E2E2E2E2E2E2E2E2E2E2E2E2E2E2E2E2E2E2E2E2E2E2E2E2E2E2E2E2E2E2E2E2E2E2E2E2E2E2E2E2E2E2E2E2E2E2E2E2E2E2E2E2E2E2E2E2E2E2E2E2E2E2E2E2E2E2E2E2E2E2E2E2E2E2E2E2E2E2E2E2E2E2E2E2E2E2E2E2E2E2E2E2E2E2E2E2E2E2E2E2E2E2E2E2E2E2E2E2E2E2E2E2E2E2E2E2E2E2E2E2E2E2E2
310
E2E2E2E2E2E2E2E2E2E2E2E2E2E2E2E2E2E2E2E2E2E2E2E2E2E2E2E2E2E2E2E2E2E2E2E2E2E2E2E2E2E2E2E2E2E2E2E2E2E2E2E2E2E2E2E2E2E2E2E2E2E2E2E2E2E2E2E2E2E2E2E2E2E2E2E2E2E2E2E2E2E2E2E2E2E2E2E2E2E2E2E2E2E2E2E2E2E2E2E2E2E2E2E2E2E2E2E2E2E2E2E2E2E2E2E2E2E2E2E2E2E2E2E2E2E2E2
310
E2E2E2E2E2E2E2E2E2E2E2E2E2E2E2E2E2E2E2E2E2E2E2E2E2E2E2E2E2E2E2E2E2E2E2E2E2E2E2E2E2E2E2E2E2E2E2E2E2E2E2E2E2E2E2E2E2E2E2E2E2E2E2E2E2E2E2E2E2E2E2E2E2E2E2E2E2E2E2E2E2E2E2E2E2E2E2E2E2E2E2E2E2E2E2E2E2E2E2E2E2E2E2E2E2E2E2E2E2E2E2E2E2E2E2E2E2E2E2E2E2E2E2E2E2E2E2
310
E2E2E2E2E2E2E2E2E2E2E2E2E2E2E2E2E2E2E2E2E2E2E2E2E2E2E2E2E2E2E2E2E2E2E2E2E2E2E2E2E2E2E2E2E2E2E2E2E2E2E2E2E2E2E2E2E2E2E2E2E2E2E2E2E2E2E2E2E2E2E2E2E2E2E2E2E2E2E2E2E2E2E2E2E2E2E2E2E2E2E2E2E2E2E2E2E2E2E2E2E2E2E2E2E2E2E2E2E2E2E2E2E2E2E2E2E2E2E2E2E2E2E2E2E2E2E2
310
E2E2E2E2E2E2E2E2E2E2E2E2E2E2E2E2E2E2E2E2E2E2E2E2E2E2E2E2E2E2E2E2E2E2E2E2E2E2E2E2E2E2E2E2E2E2E2E2E2E2E2E2E2E2E2E2E2E2E2E2E2E2E2E2E2E2E2E2E2E2E2E2E2E2E2E2E2E2E2E2E2E2E2E2E2E2E2E2E2E2E2E2E2E2E2E2E2E2E2E2E2E2E2E2E2E2E2E2E2E2E2E2E2E2E2E2E2E2E2E2E2E2E2E2E2E2E2
310
E2E2E2E2E2E2E2E2E2E2E2E2E2E2E2E2E2E2E2E2E2E2E2E2E2E2E2E2E2E2E2E2E2E2E2E2E2E2E2E2E2E2E2E2E2E2E2E2E2E2E2E2E2E2E2E2E2E2E2E2E2E2E2E2E2E2E2E2E2E2E2E2E2E2E2E2E2E2E2E2E2E2E2E2E2E2E2E2E2E2E2E2E2E2E2E2E2E2E2E2E2E2E2E2E2E2E2E2E2E2E2E2E2E2E2E2E2E2E2E2E2E2E2E2E2E2E2
310
E2E2E2E2E2E2E2E2E2E2E2E2E2E2E2E2E2E2E2E2E2E2E2E2E2E2E2E2E2E2E2E2E2E2E2E2E2E2E2E2E2E2E2E2E2E2E2E2E2E2E2E2E2E2E2E2E2E2E2E2E2E2E2E2E2E2E2E2E2E2E2E2E2E2E2E2E2E2E2E2E2E2E2E2E2E2E2E2E2E2E2E2E2E2E2E2E2E2E2E2E2E2E2E2E2E2E2E2E2E2E2E2E2E2E2E2E2E2E2E2E2E2E2E2E2E2E2
310
E2E2E2E2E2E2E2E2E2E2E2E2E2E2E2E2E2E2E2E2E2E2E2E2E2E2E2E2E2E2E2E2E2E2E2E2E2E2E2E2E2E2E2E2E2E2E2E2E2E2E2E2E2E2E2E2E2E2E2E2E2E2E2E2E2E2E2E2E2E2E2E2E2E2E2E2E2E2E2E2E2E2E2E2E2E2E2E2E2E2E2E2E2E2E2E2E2E2E2E2E2E2E2E2E2E2E2E2E2E2E2E2E2E2E2E2E2E2E2E2E2E2E2E2E2E2E2
310
E2E2E2E2E2E2E2E2E2E2E2E2E2E2E2E2E2E2E2E2E2E2E2E2E2E2E2E2E2E2E2E2E2E2E2E2E2E2E2E2E2E2E2E2E2E2E2E2E2E2E2E2E2E2E2E2E2E2E2E2E2E2E2E2E2E2E2E2E2E2E2E2E2E2E2E2E2E2E2E2E2E2E2E2E2E2E2E2E2E2E2E2E2E2E2E2E2E2E2E2E2E2E2E2E2E2E2E2E2E2E2E2E2E2E2E2E2E2E2E2E2E2E2E2E2E2E2
310
E2E2E2E2E2E2E2E2E2E2E2E2E2E2E2E2E2E2E2E2E2E2E2E2E2E2E2E2E2E2E2E2E2E2E2E2E2E2E2E2E2E2E2E2E2E2E2E2E2E2E2E2E2E2E2E2E2E2E2E2E2E2E2E2E2E2E2E2E2E2E2E2E2E2E2E2E2E2E2E2E2E2E2E2E2E2E2E2E2E2E2E2E2E2E2E2E2E2E2E2E2E2E2E2E2E2E2E2E2E2E2E2E2E2E2E2E2E2E2E2E2E2E2E2E2E2E2
310
E2E2E2E2E2E2E2E2E2E2E2E2E2E2E2E2E2E2E2E2E2E2E2E2E2E2E2E2E2E2E2E2E2E2E2E2E2E2E2E2E2E2E2E2E2E2E2E2E2E2E2E2E2E2E2E2E2E2E2E2E2E2E2E2E2E2E2E2E2E2E2E2E2E2E2E2E2E2E2E2E2E2E2E2E2E2E2E2E2E2E2E2E2E2E2E2E2E2E2E2E2E2E2E2E2E2E2E2E2E2E2E2E2E2E2E2E2E2E2E2E2E2E2E2E2E2E2
310
E2E2E2E2E2E2E2E2E2E2E2E2E2E2E2E2E2E2E2E2E2E2E2E2E2E2E2E2E2E2E2E2E2E2E2E2E2E2E2E2E2E2E2E2E2E2E2E2E2E2E2E2E2E2E2E2E2E2E2E2E2E2E2E2E2E2E2E2E2E2E2E2E2E2E2E2E2E2E2E2E2E2E2E2E2E2E2E2E2E2E2E2E2E2E2E2E2E2E2E2E2E2E2E2E2E2E2E2E2E2E2E2E2E2E2E2E2E2E2E2E2E2E2E2E2E2E2
310
E2E2E2E2E2E2E2E2E2E2E2E2E2E2E2E2E2E2E2E2E2E2E2E2E2E2E2E2E2E2E2E2E2E2E2E2E2E2E2E2E2E2E2E2E2E2E2E2E2E2E2E2E2E2E2E2E2E2E2E2E2E2E2E2E2E2E2E2E2E2E2E2E2E2E2E2E2E2E2E2E2E2E2E2E2E2E2E2E2E2E2E2E2E2E2E2E2E2E2E2E2E2E2E2E2E2E2E2E2E2E2E2E2E2E2E2E2E2E2E2E2E2E2E2E2E2E2
310
E2E2E2E2E2E2E2E2E2E2E2E2E2E2E2E2E2E2E2E2E2E2E2E2E2E2E2E2E2E2E2E2E2E2E2E2E2E2E2E2E2E2E2E2E2E2E2E2E2E2E2E2E2E2E2E2E2E2E2E2E2E2E2E2E2E2E2E2E2E2E2E2E2E2E2E2E2E2E2E2E2E2E2E2E2E2E2E2E2E2E2E2E2E2E2E2E2E2E2E2E2E2E2E2E2E2E2E2E2E2E2E2E2E2E2E2E2E2E2E2E2E2E2E2E2E2E2
310
E2E2E2E2E2E2E2E2E2E2E2E2E2E2E2E2E2E2E2E2E2E2E2E2E2E2E2E2E2E2E2E2E2E2E2E2E2E2E2E2E2E2E2E2E2E2E2E2E2E2E2E2E2E2E2E2E2E2E2E2E2E2E2E2E2E2E2E2E2E2E2E2E2E2E2E2E2E2E2E2E2E2E2E2E2E2E2E2E2E2E2E2E2E2E2E2E2E2E2E2E2E2E2E2E2E2E2E2E2E2E2E2E2E2E2E2E2E2E2E2E2E2E2E2E2E2E2
310
E2E2E2E2E2E2E2E2E2E2E2E2E2E2E2E2E2E2E2E2E2E2E2E2E2E2E2E2E2E2E2E2E2E2E2E2E2E2E2E2E2E2E2E2E2E2E2E2E2E2E2E2E2E2E2E2E2E2E2E2E2E2E2E2E2E2E2E2E2E2E2E2E2E2E2E2E2E2E2E2E2E2E2E2E2E2E2E2E2E2E2E2E2E2E2E2E2E2E2E2E2E2E2E2E2E2E2E2E2E2E2E2E2E2E2E2E2E2E2E2E2E2E2E2E2E2E2
310
E2E2E2E2E2E2E2E2E2E2E2E2E2E2E2E2E2E2E2E2E2E2E2E2E2E2E2E2E2E2E2E2E2E2E2E2E2E2E2E2E2E2E2E2E2E2E2E2E2E2E2E2E2E2E2E2E2E2E2E2E2E2E2E2E2E2E2E2E2E2E2E2E2E2E2E2E2E2E2E2E2E2E2E2E2E2E2E2E2E2E2E2E2E2E2E2E2E2E2E2E2E2E2E2E2E2E2E2E2E2E2E2E2E2E2E2E2E2E2E2E2E2E2E2E2E2E2
310
E2E2E2E2E2E2E2E2E2E2E2E2E2E2E2E2E2E2E2E2E2E2E2E2E2E2E2E2E2E2E2E2E2E2E2E2E2E2E2E2E2E2E2E2E2E2E2E2E2E2E2E2E2E2E2E2E2E2E2E2E2E2E2E2E2E2E2E2E2E2E2E2E2E2E2E2E2E2E2E2E2E2E2E2E2E2E2E2E2E2E2E2E2E2E2E2E2E2E2E2E2E2E2E2E2E2E2E2E2E2E2E2E2E2E2E2E2E2E2E2E2E2E2E2E2E2E2
310
E2E2E2E2E2E2E2E2E2E2E2E2E2E2E2E2E2E2E2E2E2E2E2E2E2E2E2E2E2E2E2E2E2E2E2E2E2E2E2E2E2E2E2E2E2E2E2E2E2E2E2E2E2E2E2E2E2E2E2E2E2E2E2E2E2E2E2E2E2E2E2E2E2E2E2E2E2E2E2E2E2E2E2E2E2E2E2E2E2E2E2E2E2E2E2E2E2E2E2E2E2E2E2E2E2E2E2E2E2E2E2E2E2E2E2E2E2E2E2E2E2E2E2E2E2E2E2
310
E2E2E2E2E2E2E2E2E2E2E2E2E2E2E2E2E2E2E2E2E2E2E2E2E2E2E2E2E2E2E2E2E2E2E2E2E2E2E2E2E2E2E2E2E2E2E2E2E2E2E2E2E2E2E2E2E2E2E2E2E2E2E2E2E2E2E2E2E2E2E2E2E2E2E2E2E2E2E2E2E2E2E2E2E2E2E2E2E2E2E2E2E2E2E2E2E2E2E2E2E2E2E2E2E2E2E2E2E2E2E2E2E2E2E2E2E2E2E2E2E2E2E2E2E2E2E2
310
E2E2E2E2E2E2E2E2E2E2E2E2E2E2E2E2E2E2E2E2E2E2E2E2E2E2E2E2E2E2E2E2E2E2E2E2E2E2E2E2E2E2E2E2E2E2E2E2E2E2E2E2E2E2E2E2E2E2E2E2E2E2E2E2E2E2E2E2E2E2E2E2E2E2E2E2E2E2E2E2E2E2E2E2E2E2E2E2E2E2E2E2E2E2E2E2E2E2E2E2E2E2E2E2E2E2E2E2E2E2E2E2E2E2E2E2E2E2E2E2E2E2E2E2E2E2E2
310
E2E2E2E2E2E2E2E2E2E2E2E2E2E2E2E2E2E2E2E2E2E2E2E2E2E2E2E2E2E2E2E2E2E2E2E2E2E2E2E2E2E2E2E2E2E2E2E2E2E2E2E2E2E2E2E2E2E2E2E2E2E2E2E2E2E2E2E2E2E2E2E2E2E2E2E2E2E2E2E2E2E2E2E2E2E2E2E2E2E2E2E2E2E2E2E2E2E2E2E2E2E2E2E2E2E2E2E2E2E2E2E2E2E2E2E2E2E2E2E2E2E2E2E2E2E2E2
310
E2E2E2E2E2E2E2E2E2E2E2E2E2E2E2E2E2E2E2E2E2E2E2E2E2E2E2E2E2E2E2E2E2E2E2E2E2E2E2E2E2E2E2E2E2E2E2E2E2E2E2E2E2E2E2E2E2E2E2E2E2E2E2E2E2E2E2E2E2E2E2E2E2E2E2E2E2E2E2E2E2E2E2E2E2E2E2E2E2E2E2E2E2E2E2E2E2E2E2E2E2E2E2E2E2E2E2E2E2E2E2E2E2E2E2E2E2E2E2E2E2E2E2E2E2E2E2
310
E2E2E2E2E2E2E2E2E2E2E2E2E2E2E2E2E2E2E2E2E2E2E2E2E2E2E2E2E2E2E2E2E2E2E2E2E2E2E2E2E2E2E2E2E2E2E2E2E2E2E2E2E2E2E2E2E2E2E2E2E2E2E2E2E2E2E2E2E2E2E2E2E2E2E2E2E2E2E2E2E2E2E2E2E2E2E2E2E2E2E2E2E2E2E2E2E2E2E2E2E2E2E2E2E2E2E2E2E2E2E2E2E2E2E2E2E2E2E2E2E2E2E2E2E2E2E2
310
E2E2E2E2E2E2E2E2E2E2E2E2E2E2E2E2E2E2E2E2E2E2E2E2E2E2E2E2E2E2E2E2E2E2E2E2E2E2E2E2E2E2E2E2E2E2E2E2E2E2E2E2E2E2E2E2E2E2E2E2E2E2E2E2E2E2E2E2E2E2E2E2E2E2E2E2E2E2E2E2E2E2E2E2E2E2E2E2E2E2E2E2E2E2E2E2E2E2E2E2E2E2E2E2E2E2E2E2E2E2E2E2E2E2E2E2E2E2E2E2E2E2E2E2E2E2E2
310
E2E2E2E2E2E2E2E2E2E2E2E2E2E2E2E2E2E2E2E2E2E2E2E2E2E2E2E2E2E2E2E2E2E2E2E2E2E2E2E2E2E2E2E2E2E2E2E2E2E2E2E2E2E2E2E2E2E2E2E2E2E2E2E2E2E2E2E2E2E2E2E2E2E2E2E2E2E2E2E2E2E2E2E2E2E2E2E2E2E2E2E2E2E2E2E2E2E2E2E2E2E2E2E2E2E2E2E2E2E2E2E2E2E2E2E2E2E2E2E2E2E2E2E2E2E2E2
310
E2E2E2E2E2E2E2E2E2E2E2E2E2E2E2E2E2E2E2E2E2E2E2E2E2E2E2E2E2E2E2E2E2E2E2E2E2E2E2E2E2E2E2E2E2E2E2E2E2E2E2E2E2E2E2E2E2E2E2E2E2E2E2E2E2E2E2E2E2E2E2E2E2E2E2E2E2E2E2E2E2E2E2E2E2E2E2E2E2E2E2E2E2E2E2E2E2E2E2E2E2E2E2E2E2E2E2E2E2E2E2E2E2E2E2E2E2E2E2E2E2E2E2E2E2E2E2
310
E2E2E2E2E2E2E2E2E2E2E2E2E2E2E2E2E2E2E2E2E2E2E2E2E2E2E2E2E2E2E2E2E2E2E2E2E2E2E2E2E2E2E2E2E2E2E2E2E2E2E2E2E2E2E2E2E2E2E2E2E2E2E2E2E2E2E2E2E2E2E2E2E2E2E2E2E2E2E2E2E2E2E2E2E2E2E2E2E2E2E2E2E2E2E2E2E2E2E2E2E2E2E2E2E2E2E2E2E2E2E2E2E2E2E2E2E2E2E2E2E2E2E2E2E2E2E2
310
E2E2E2E2E2E2E2E2E2E2E2E2E2E2E2E2E2E2E2E2E2E2E2E2E2E2E2E2E2E2E2E2E2E2E2E2E2E2E2E2E2E2E2E2E2E2E2E2E2E2E2E2E2E2E2E2E2E2E2E2E2E2E2E2E2E2E2E2E2E2E2E2E2E2E2E2E2E2E2E2E2E2E2E2E2E2E2E2E2E2E2E2E2E2E2E2E2E2E2E2E2E2E2E2E2E2E2E2E2E2E2E2E2E2E2E2E2E2E2E2E2E2E2E2E2E2E2
310
E2E2E2E2E2E2E2E2E2E2E2E2E2E2E2E2E2E2E2E2E2E2E2E2E2E2E2E2E2E2E2E2E2E2E2E2E2E2E2E2E2E2E2E2E2E2E2E2E2E2E2E2E2E2E2E2E2E2E2E2E2E2E2E2E2E2E2E2E2E2E2E2E2E2E2E2E2E2E2E2E2E2E2E2E2E2E2E2E2E2E2E2E2E2E2E2E2E2E2E2E2E2E2E2E2E2E2E2E2E2E2E2E2E2E2E2E2E2E2E2E2E2E2E2E2E2E2
310
E2E2E2E2E2E2E2E2E2E2E2E2E2E2E2E2E2E2E2E2E2E2E2E2E2E2E2E2E2E2E2E2E2E2E2E2E2E2E2E2E2E2E2E2E2E2E2E2E2E2E2E2E2E2E2E2E2E2E2E2E2E2E2E2E2E2E2E2E2E2E2E2E2E2E2E2E2E2E2E2E2E2E2E2E2E2E2E2E2E2E2E2E2E2E2E2E2E2E2E2E2E2E2E2E2E2E2E2E2E2E2E2E2E2E2E2E2E2E2E2E2E2E2E2E2E2E2
310
E2E2E2E2E2E2E2E2E2E2E2E2E2E2E2E2E2E2E2E2E2E2E2E2E2E2E2E2E2E2E2E2E2E2E2E2E2E2E2E2E2E2E2E2E2E2E2E2E2E2E2E2E2E2E2E2E2E2E2E2E2E2E2E2E2E2E2E2E2E2E2E2E2E2E2E2E2E2E2E2E2E2E2E2E2E2E2E2E2E2E2E2E2E2E2E2E2E2E2E2E2E2E2E2E2E2E2E2E2E2E2E2E2E2E2E2E2E2E2E2E2E2E2E2E2E2E2
310
E2E2E2E2E2E2E2E2E2E2E2E2E2E2E2E2E2E2E2E2E2E2E2E2E2E2E2E2E2E2E2E2E2E2E2E2E2E2E2E2E2E2E2E2E2E2E2E2E2E2E2E2E2E2E2E2E2E2E2E2E2E2E2E2E2E2E2E2E2E2E2E2E2E2E2E2E2E2E2E2E2E2E2E2E2E2E2E2E2E2E2E2E2E2E2E2E2E2E2E2E2E2E2E2E2E2E2E2E2E2E2E2E2E2E2E2E2E2E2E2E2E2E2E2E2E2E2
310
E2E2E2E2E2E2E2E2E2E2E2E2E2E2E2E2E2E2E2E2E2E2E2E2E2E2E2E2E2E2E2E2E2E2E2E2E2E2E2E2E2E2E2E2E2E2E2E2E2E2E2E2E2E2E2E2E2E2E2E2E2E2E2E2E2E2E2E2E2E2E2E2E2E2E2E2E2E2E2E2E2E2E2E2E2E2E2E2E2E2E2E2E2E2E2E2E2E2E2E2E2E2E2E2E2E2E2E2E2E2E2E2E2E2E2E2E2E2E2E2E2E2E2E2E2E2E2
310
E2E2E2E2E2E2E2E2E2E2E2E2E2E2E2E2E2E2E2E2E2E2E2E2E2E2E2E2E2E2E2E2E2E2E2E2E2E2E2E2E2E2E2E2E2E2E2E2E2E2E2E2E2E2E2E2E2E2E2E2E2E2E2E2E2E2E2E2E2E2E2E2E2E2E2E2E2E2E2E2E2E2E2E2E2E2E2E2E2E2E2E2E2E2E2E2E2E2E2E2E2E2E2E2E2E2E2E2E2E2E2E2E2E2E2E2E2E2E2E2E2E2E2E2E2E2E2
310
E2E2E2E2E2E2E2E2E2E2E2E2E2E2E2E2E2E2E2E2E2E2E2E2E2E2E2E2E2E2E2E2E2E2E2E2E2E2E2E2E2E2E2E2E2E2E2E2E2E2E2E2E2E2E2E2E2E2E2E2E2E2E2E2E2E2E2E2E2E2E2E2E2E2E2E2E2E2E2E2E2E2E2E2E2E2E2E2E2E2E2E2E2E2E2E2E2E2E2E2E2E2E2E2E2E2E2E2E2E2E2E2E2E2E2E2E2E2E2E2E2E2E2E2E2E2E2
310
E2E2E2E2E2E2E2E2E2E2E2E2E2E2E2E2E2E2E2E2E2E2E2E2E2E2E2E2E2E2E2E2E2E2E2E2E2E2E2E2E2E2E2E2E2E2E2E2E2E2E2E2E2E2E2E2E2E2E2E2E2E2E2E2E2E2E2E2E2E2E2E2E2E2E2E2E2E2E2E2E2E2E2E2E2E2E2E2E2E2E2E2E2E2E2E2E2E2E2E2E2E2E2E2E2E2E2E2E2E2E2E2E2E2E2E2E2E2E2E2E2E2E2E2E2E2E2
310
E2E2E2E2E2E2E2E2E2E2E2E2E2E2E2E2E2E2E2E2E2E2E2E2E2E2E2E2E2E2E2E2E2E2E2E2E2E2E2E2E2E2E2E2E2E2E2E2E2E2E2E2E2E2E2E2E2E2E2E2E2E2E2E2E2E2E2E2E2E2E2E2E2E2E2E2E2E2E2E2E2E2E2E2E2E2E2E2E2E2E2E2E2E2E2E2E2E2E2E2E2E2E2E2E2E2E2E2E2E2E2E2E2E2E2E2E2E2E2E2E2E2E2E2E2E2E2
310
E2E2E2E2E2E2E2E2E2E2E2E2E2E2E2E2E2E2E2E2E2E2E2E2E2E2E2E2E2E2E2E2E2E2E2E2E2E2E2E2E2E2E2E2E2E2E2E2E2E2E2E2E2E2E2E2E2E2E2E2E2E2E2E2E2E2E2E2E2E2E2E2E2E2E2E2E2E2E2E2E2E2E2E2E2E2E2E2E2E2E2E2E2E2E2E2E2E2E2E2E2E2E2E2E2E2E2E2E2E2E2E2E2E2E2E2E2E2E2E2E2E2E2E2E2E2E2
310
E2E2E2E2E2E2E2E2E2E2E2E2E2E2E2E2E2E2E2E2E2E2E2E2E2E2E2E2E2E2E2E2E2E2E2E2E2E2E2E2E2E2E2E2E2E2E2E2E2E2E2E2E2E2E2E2E2E2E2E2E2E2E2E2E2E2E2E2E2E2E2E2E2E2E2E2E2E2E2E2E2E2E2E2E2E2E2E2E2E2E2E2E2E2E2E2E2E2E2E2E2E2E2E2E2E2E2E2E2E2E2E2E2E2E2E2E2E2E2E2E2E2E2E2E2E2E2
310
E2E2E2E2E2E2E2E2E2E2E2E2E2E2E2E2E2E2E2E2E2E2E2E2E2E2E2E2E2E2E2E2E2E2E2E2E2E2E2E2E2E2E2E2E2E2E2E2E2E2E2E2E2E2E2E2E2E2E2E2E2E2E2E2E2E2E2E2E2E2E2E2E2E2E2E2E2E2E2E2E2E2E2E2E2E2E2E2E2E2E2E2E2E2E2E2E2E2E2E2E2E2E2E2E2E2E2E2E2E2E2E2E2E2E2E2E2E2E2E2E2E2E2E2E2E2E2
310
E2E2E2E2E2E2E2E2E2E2E2E2E2E2E2E2E2E2E2E2E2E2E2E2E2E2E2E2E2E2E2E2E2E2E2E2E2E2E2E2E2E2E2E2E2E2E2E2E2E2E2E2E2E2E2E2E2E2E2E2E2E2E2E2E2E2E2E2E2E2E2E2E2E2E2E2E2E2E2E2E2E2E2E2E2E2E2E2E2E2E2E2E2E2E2E2E2E2E2E2E2E2E2E2E2E2E2E2E2E2E2E2E2E2E2E2E2E2E2E2E2E2E2E2E2E2E2
310
E2E2E2E2E2E2E2E2E2E2E2E2E2E2E2E2E2E2E2E2E2E2E2E2E2E2E2E2E2E2E2E2E2E2E2E2E2E2E2E2E2E2E2E2E2E2E2E2E2E2E2E2E2E2E2E2E2E2E2E2E2E2E2E2E2E2E2E2E2E2E2E2E2E2E2E2E2E2E2E2E2E2E2E2E2E2E2E2E2E2E2E2E2E2E2E2E2E2E2E2E2E2E2E2E2E2E2E2E2E2E2E2E2E2E2E2E2E2E2E2E2E2E2E2E2E2E2
310
E2E2E2E2E2E2E2E2E2E2E2E2E2E2E2E2E2E2E2E2E2E2E2E2E2E2E2E2E2E2E2E2E2E2E2E2E2E2E2E2E2E2E2E2E2E2E2E2E2E2E2E2E2E2E2E2E2E2E2E2E2E2E2E2E2E2E2E2E2E2E2E2E2E2E2E2E2E2E2E2E2E2E2E2E2E2E2E2E2E2E2E2E2E2E2E2E2E2E2E2E2E2E2E2E2E2E2E2E2E2E2E2E2E2E2E2E2E2E2E2E2E2E2E2E2E2E2
310
E2E2E2E2E2E2E2E2E2E2E2E2E2E2E2E2E2E2E2E2E2E2E2E2E2E2E2E2E2E2E2E2E2E2E2E2E2E2E2E2E2E2E2E2E2E2E2E2E2E2E2E2E2E2E2E2E2E2E2E2E2E2E2E2E2E2E2E2E2E2E2E2E2E2E2E2E2E2E2E2E2E2E2E2E2E2E2E2E2E2E2E2E2E2E2E2E2E2E2E2E2E2E2E2E2E2E2E2E2E2E2E2E2E2E2E2E2E2E2E2E2E2E2E2E2E2E2
310
E2E2E2E2E2E2E2E2E2E2E2E2E2E2E2E2E2E2E2E2E2E2E2E2E2E2E2E2E2E2E2E2E2E2E2E2E2E2E2E2E2E2E2E2E2E2E2E2E2E2E2E2E2E2E2E2E2E2E2E2E2E2E2E2E2E2E2E2E2E2E2E2E2E2E2E2E2E2E2E2E2E2E2E2E2E2E2E2E2E2E2E2E2E2E2E2E2E2E2E2E2E2E2E2E2E2E2E2E2E2E2E2E2E2E2E2E2E2E2E2E2E2E2E2E2E2E2
310
E2E2E2E2E2E2E2E2E2E2E2E2E2E2E2E2E2E2E2E2E2E2E2E2E2E2E2E2E2E2E2E2E2E2E2E2E2E2E2E2E2E2E2E2E2E2E2E2E2E2E2E2E2E2E2E2E2E2E2E2E2E2E2E2E2E2E2E2E2E2E2E2E2E2E2E2E2E2E2E2E2E2E2E2E2E2E2E2E2E2E2E2E2E2E2E2E2E2E2E2E2E2E2E2E2E2E2E2E2E2E2E2E2E2E2E2E2E2E2E2E2E2E2E2E2E2E2
310
E2E2E2E2E2E2E2E2E2E2E2E2E2E2E2E2E2E2E2E2E2E2E2E2E2E2E2E2E2E2E2E2E2E2E2E2E2E2E2E2E2E2E2E2E2E2E2E2E2E2E2E2E2E2E2E2E2E2E2E2E2E2E2E2E2E2E2E2E2E2E2E2E2E2E2E2E2E2E2E2E2E2E2E2E2E2E2E2E2E2E2
  0
XRECORD
  5
B71
102
{ACAD_REACTORS
330
46
102
}
330
46
100
AcDbXrecord
280
     1
102
MATERIAL
148
0.0
149
0.0
149
0.0
 93
        0
 94
      127
282
     0
 72
     0
 77
     0
171
     0
175
     0
179
     0
273
     0
  0
XRECORD
  5
47
102
{ACAD_REACTORS
330
46
102
}
330
46
100
AcDbXrecord
280
     1
270
     1
271
     1
  0
XRECORD
  5
48
102
{ACAD_REACTORS
330
46
102
}
330
46
100
AcDbXrecord
280
     1
270
     1
271
     1
  0
XRECORD
  5
49
102
{ACAD_REACTORS
330
46
102
}
330
46
100
AcDbXrecord
280
     1
270
     1
271
     1
  0
XRECORD
  5
4A
102
{ACAD_REACTORS
330
46
102
}
330
46
100
AcDbXrecord
280
     1
270
     1
271
     1
  0
XRECORD
  5
4B
102
{ACAD_REACTORS
330
46
102
}
330
46
100
AcDbXrecord
280
     1
270
     1
271
     1
  0
XRECORD
  5
4C
102
{ACAD_REACTORS
330
46
102
}
330
46
100
AcDbXrecord
280
     1
270
     1
271
     1
  0
XRECORD
  5
B70
102
{ACAD_REACTORS
330
3E
102
}
330
3E
100
AcDbXrecord
280
     1
102
MATERIAL
148
0.0
149
0.0
149
0.0
 93
        0
 94
      127
282
     0
 72
     0
 77
     0
171
     0
175
     0
179
     0
273
     0
  0
XRECORD
  5
3F
102
{ACAD_REACTORS
330
3E
102
}
330
3E
100
AcDbXrecord
280
     1
270
     1
271
     1
  0
XRECORD
  5
40
102
{ACAD_REACTORS
330
3E
102
}
330
3E
100
AcDbXrecord
280
     1
270
     1
271
     1
  0
XRECORD
  5
41
102
{ACAD_REACTORS
330
3E
102
}
330
3E
100
AcDbXrecord
280
     1
270
     1
271
     1
  0
XRECORD
  5
42
102
{ACAD_REACTORS
330
3E
102
}
330
3E
100
AcDbXrecord
280
     1
270
     1
271
     1
  0
XRECORD
  5
43
102
{ACAD_REACTORS
330
3E
102
}
330
3E
100
AcDbXrecord
280
     1
270
     1
271
     1
  0
XRECORD
  5
44
102
{ACAD_REACTORS
330
3E
102
}
330
3E
100
AcDbXrecord
280
     1
270
     1
271
     1
  0
XRECORD
  5
B69
102
{ACAD_REACTORS
330
D
102
}
330
D
100
AcDbXrecord
280
     1
102
MATERIAL
148
0.0
149
0.0
149
0.0
 93
        0
 94
      127
282
     0
 72
     0
 77
     0
171
     0
175
     0
179
     0
273
     0
  0
XRECORD
  5
E
102
{ACAD_REACTORS
330
D
102
}
330
D
100
AcDbXrecord
280
     1
270
     1
271
     1
  0
XRECORD
  5
F
102
{ACAD_REACTORS
330
D
102
}
330
D
100
AcDbXrecord
280
     1
270
     1
271
     1
  0
XRECORD
  5
10
102
{ACAD_REACTORS
330
D
102
}
330
D
100
AcDbXrecord
280
     1
270
     1
271
     1
  0
XRECORD
  5
11
102
{ACAD_REACTORS
330
D
102
}
330
D
100
AcDbXrecord
280
     1
270
     1
271
     1
  0
XRECORD
  5
12
102
{ACAD_REACTORS
330
D
102
}
330
D
100
AcDbXrecord
280
     1
270
     1
271
     1
  0
XRECORD
  5
13
102
{ACAD_REACTORS
330
D
102
}
330
D
100
AcDbXrecord
280
     1
270
     1
271
     1
  0
CELLSTYLEMAP
  5
22D7
102
{ACAD_REACTORS
330
B00
102
}
330
B00
100
AcDbCellStyleMap
 90
        3
300
CELLSTYLE
  1
TABLEFORMAT_BEGIN
 90
        5
170
     1
 91
        0
 92
    32768
 62
   257
 93
        1
300
CONTENTFORMAT
  1
CONTENTFORMAT_BEGIN
 90
        0
 91
        0
 92
        4
 93
        0
300

 40
0.0
140
1.0
 94
        5
 62
     0
340
23
144
6.0
309
CONTENTFORMAT_END
171
     1
301
MARGIN
  1
CELLMARGIN_BEGIN
 40
1.5
 40
1.5
 40
1.5
 40
1.5
 40
0.18
 40
0.18
309
CELLMARGIN_END
 94
        6
 95
        1
302
GRIDFORMAT
  1
GRIDFORMAT_BEGIN
 90
        0
 91
        1
 62
     0
 92
       -2
340
0
 93
        0
 40
0.045
309
GRIDFORMAT_END
 95
        2
302
GRIDFORMAT
  1
GRIDFORMAT_BEGIN
 90
        0
 91
        1
 62
     0
 92
       -2
340
0
 93
        0
 40
0.045
309
GRIDFORMAT_END
 95
        4
302
GRIDFORMAT
  1
GRIDFORMAT_BEGIN
 90
        0
 91
        1
 62
     0
 92
       -2
340
0
 93
        0
 40
0.045
309
GRIDFORMAT_END
 95
        8
302
GRIDFORMAT
  1
GRIDFORMAT_BEGIN
 90
        0
 91
        1
 62
     0
 92
       -2
340
0
 93
        0
 40
0.045
309
GRIDFORMAT_END
 95
       16
302
GRIDFORMAT
  1
GRIDFORMAT_BEGIN
 90
        0
 91
        1
 62
     0
 92
       -2
340
0
 93
        0
 40
0.045
309
GRIDFORMAT_END
 95
       32
302
GRIDFORMAT
  1
GRIDFORMAT_BEGIN
 90
        0
 91
        1
 62
     0
 92
       -2
340
0
 93
        0
 40
0.045
309
GRIDFORMAT_END
309
TABLEFORMAT_END
  1
CELLSTYLE_BEGIN
 90
        1
 91
        1
300
_TITLE
309
CELLSTYLE_END
300
CELLSTYLE
  1
TABLEFORMAT_BEGIN
 90
        5
170
     1
 91
        0
 92
        0
 62
   257
 93
        1
300
CONTENTFORMAT
  1
CONTENTFORMAT_BEGIN
 90
        0
 91
        0
 92
        4
 93
        0
300

 40
0.0
140
1.0
 94
        5
 62
     0
340
23
144
4.5
309
CONTENTFORMAT_END
171
     1
301
MARGIN
  1
CELLMARGIN_BEGIN
 40
1.5
 40
1.5
 40
1.5
 40
1.5
 40
0.18
 40
0.18
309
CELLMARGIN_END
 94
        6
 95
        1
302
GRIDFORMAT
  1
GRIDFORMAT_BEGIN
 90
        0
 91
        1
 62
     0
 92
       -2
340
0
 93
        0
 40
0.045
309
GRIDFORMAT_END
 95
        2
302
GRIDFORMAT
  1
GRIDFORMAT_BEGIN
 90
        0
 91
        1
 62
     0
 92
       -2
340
0
 93
        0
 40
0.045
309
GRIDFORMAT_END
 95
        4
302
GRIDFORMAT
  1
GRIDFORMAT_BEGIN
 90
        0
 91
        1
 62
     0
 92
       -2
340
0
 93
        0
 40
0.045
309
GRIDFORMAT_END
 95
        8
302
GRIDFORMAT
  1
GRIDFORMAT_BEGIN
 90
        0
 91
        1
 62
     0
 92
       -2
340
0
 93
        0
 40
0.045
309
GRIDFORMAT_END
 95
       16
302
GRIDFORMAT
  1
GRIDFORMAT_BEGIN
 90
        0
 91
        1
 62
     0
 92
       -2
340
0
 93
        0
 40
0.045
309
GRIDFORMAT_END
 95
       32
302
GRIDFORMAT
  1
GRIDFORMAT_BEGIN
 90
        0
 91
        1
 62
     0
 92
       -2
340
0
 93
        0
 40
0.045
309
GRIDFORMAT_END
309
TABLEFORMAT_END
  1
CELLSTYLE_BEGIN
 90
        2
 91
        1
300
_HEADER
309
CELLSTYLE_END
300
CELLSTYLE
  1
TABLEFORMAT_BEGIN
 90
        5
170
     1
 91
        0
 92
        0
 62
   257
 93
        1
300
CONTENTFORMAT
  1
CONTENTFORMAT_BEGIN
 90
        0
 91
        0
 92
        4
 93
        0
300

 40
0.0
140
1.0
 94
        2
 62
     0
340
23
144
4.5
309
CONTENTFORMAT_END
171
     1
301
MARGIN
  1
CELLMARGIN_BEGIN
 40
1.5
 40
1.5
 40
1.5
 40
1.5
 40
0.18
 40
0.18
309
CELLMARGIN_END
 94
        6
 95
        1
302
GRIDFORMAT
  1
GRIDFORMAT_BEGIN
 90
        0
 91
        1
 62
     0
 92
       -2
340
0
 93
        0
 40
0.045
309
GRIDFORMAT_END
 95
        2
302
GRIDFORMAT
  1
GRIDFORMAT_BEGIN
 90
        0
 91
        1
 62
     0
 92
       -2
340
0
 93
        0
 40
0.045
309
GRIDFORMAT_END
 95
        4
302
GRIDFORMAT
  1
GRIDFORMAT_BEGIN
 90
        0
 91
        1
 62
     0
 92
       -2
340
0
 93
        0
 40
0.045
309
GRIDFORMAT_END
 95
        8
302
GRIDFORMAT
  1
GRIDFORMAT_BEGIN
 90
        0
 91
        1
 62
     0
 92
       -2
340
0
 93
        0
 40
0.045
309
GRIDFORMAT_END
 95
       16
302
GRIDFORMAT
  1
GRIDFORMAT_BEGIN
 90
        0
 91
        1
 62
     0
 92
       -2
340
0
 93
        0
 40
0.045
309
GRIDFORMAT_END
 95
       32
302
GRIDFORMAT
  1
GRIDFORMAT_BEGIN
 90
        0
 91
        1
 62
     0
 92
       -2
340
0
 93
        0
 40
0.045
309
GRIDFORMAT_END
309
TABLEFORMAT_END
  1
CELLSTYLE_BEGIN
 90
        3
 91
        2
300
_DATA
309
CELLSTYLE_END
  0
XRECORD
  5
22DF
102
{ACAD_REACTORS
330
B00
102
}
330
B00
100
AcDbXrecord
280
     1
102
ACAD_ROUNDTRIP_PRE2007_TABLESTYLE
 90
        4
 91
        0
  1

 92
        4
 93
        0
  2

 94
        4
 95
        0
  3

  0
ENDSEC
  0
EOF
