  0
SECTION
  2
HEADER
  9
$ACADVER
  1
AC1015
  9
$ACADMAINTVER
 70
    20
  9
$DWGCODEPAGE
  3
ANSI_932
  9
$INSBASE
 10
0.0
 20
0.0
 30
0.0
  9
$EXTMIN
 10
2290.521949405777
 20
-1337.375791392363
 30
-0.0000000000000076
  9
$EXTMAX
 10
4209.889142759847
 20
-340.8599268949692
 30
0.0000000000000076
  9
$LIMMIN
 10
0.0
 20
0.0
  9
$LIMMAX
 10
420.0
 20
297.0
  9
$ORTHOMODE
 70
     1
  9
$REGENMODE
 70
     1
  9
$FILLMODE
 70
     1
  9
$QTEXTMODE
 70
     0
  9
$MIRRTEXT
 70
     1
  9
$LTSCALE
 40
1.0
  9
$ATTMODE
 70
     1
  9
$TEXTSIZE
 40
62.5215949741746
  9
$TRACEWID
 40
1.0
  9
$TEXTSTYLE
  7
STANDARD
  9
$CLAYER
  8
SIZE
  9
$CELTYPE
  6
BYLAYER
  9
$CECOLOR
 62
   256
  9
$CELTSCALE
 40
1.0
  9
$DISPSILH
 70
     0
  9
$DIMSCALE
 40
10.0
  9
$DIMASZ
 40
2.0
  9
$DIMEXO
 40
1.0
  9
$DIMDLI
 40
3.75
  9
$DIMRND
 40
0.5
  9
$DIMDLE
 40
0.0
  9
$DIMEXE
 40
1.0
  9
$DIMTP
 40
0.0
  9
$DIMTM
 40
0.0
  9
$DIMTXT
 40
2.0
  9
$DIMCEN
 40
2.5
  9
$DIMTSZ
 40
0.0
  9
$DIMTOL
 70
     0
  9
$DIMLIM
 70
     0
  9
$DIMTIH
 70
     0
  9
$DIMTOH
 70
     0
  9
$DIMSE1
 70
     0
  9
$DIMSE2
 70
     0
  9
$DIMTAD
 70
     1
  9
$DIMZIN
 70
     8
  9
$DIMBLK
  1

  9
$DIMASO
 70
     1
  9
$DIMSHO
 70
     1
  9
$DIMPOST
  1

  9
$DIMAPOST
  1

  9
$DIMALT
 70
     0
  9
$DIMALTD
 70
     4
  9
$DIMALTF
 40
0.0394
  9
$DIMLFAC
 40
1.0
  9
$DIMTOFL
 70
     1
  9
$DIMTVP
 40
0.0
  9
$DIMTIX
 70
     0
  9
$DIMSOXD
 70
     0
  9
$DIMSAH
 70
     1
  9
$DIMBLK1
  1
OPEN30
  9
$DIMBLK2
  1
OPEN30
  9
$DIMSTYLE
  2
STANDARD
  9
$DIMCLRD
 70
     0
  9
$DIMCLRE
 70
     0
  9
$DIMCLRT
 70
     0
  9
$DIMTFAC
 40
1.0
  9
$DIMGAP
 40
1.0
  9
$DIMJUST
 70
     0
  9
$DIMSD1
 70
     0
  9
$DIMSD2
 70
     0
  9
$DIMTOLJ
 70
     1
  9
$DIMTZIN
 70
     8
  9
$DIMALTZ
 70
     0
  9
$DIMALTTZ
 70
     0
  9
$DIMUPT
 70
     0
  9
$DIMDEC
 70
     1
  9
$DIMTDEC
 70
     1
  9
$DIMALTU
 70
     8
  9
$DIMALTTD
 70
     4
  9
$DIMTXSTY
  7
STANDARD
  9
$DIMAUNIT
 70
     0
  9
$DIMADEC
 70
     0
  9
$DIMALTRND
 40
0.0
  9
$DIMAZIN
 70
     0
  9
$DIMDSEP
 70
    46
  9
$DIMATFIT
 70
     3
  9
$DIMFRAC
 70
     0
  9
$DIMLDRBLK
  1
OPEN30
  9
$DIMLUNIT
 70
     2
  9
$DIMLWD
 70
    -2
  9
$DIMLWE
 70
    -2
  9
$DIMTMOVE
 70
     0
  9
$LUNITS
 70
     2
  9
$LUPREC
 70
     2
  9
$SKETCHINC
 40
1.0
  9
$FILLETRAD
 40
10.0
  9
$AUNITS
 70
     0
  9
$AUPREC
 70
     0
  9
$MENU
  1
.
  9
$ELEVATION
 40
0.0
  9
$PELEVATION
 40
0.0
  9
$THICKNESS
 40
0.0
  9
$LIMCHECK
 70
     0
  9
$CHAMFERA
 40
10.0
  9
$CHAMFERB
 40
10.0
  9
$CHAMFERC
 40
20.0
  9
$CHAMFERD
 40
0.0
  9
$SKPOLY
 70
     0
  9
$TDCREATE
 40
2451324.468257373
  9
$TDUCREATE
 40
2451324.093257373
  9
$TDUPDATE
 40
2455894.559112790
  9
$TDUUPDATE
 40
2455894.184112790
  9
$TDINDWG
 40
2.0134721875
  9
$TDUSRTIMER
 40
2.0134710995
  9
$USRTIMER
 70
     1
  9
$ANGBASE
 50
0.0
  9
$ANGDIR
 70
     0
  9
$PDMODE
 70
     0
  9
$PDSIZE
 40
0.0
  9
$PLINEWID
 40
0.0
  9
$SPLFRAME
 70
     0
  9
$SPLINETYPE
 70
     6
  9
$SPLINESEGS
 70
     8
  9
$HANDSEED
  5
2184
  9
$SURFTAB1
 70
     6
  9
$SURFTAB2
 70
     6
  9
$SURFTYPE
 70
     6
  9
$SURFU
 70
     6
  9
$SURFV
 70
     6
  9
$UCSBASE
  2

  9
$UCSNAME
  2

  9
$UCSORG
 10
0.0
 20
0.0
 30
0.0
  9
$UCSXDIR
 10
1.0
 20
0.0
 30
0.0
  9
$UCSYDIR
 10
0.0
 20
1.0
 30
0.0
  9
$UCSORTHOREF
  2

  9
$UCSORTHOVIEW
 70
     0
  9
$UCSORGTOP
 10
0.0
 20
0.0
 30
0.0
  9
$UCSORGBOTTOM
 10
0.0
 20
0.0
 30
0.0
  9
$UCSORGLEFT
 10
0.0
 20
0.0
 30
0.0
  9
$UCSORGRIGHT
 10
0.0
 20
0.0
 30
0.0
  9
$UCSORGFRONT
 10
0.0
 20
0.0
 30
0.0
  9
$UCSORGBACK
 10
0.0
 20
0.0
 30
0.0
  9
$PUCSBASE
  2

  9
$PUCSNAME
  2

  9
$PUCSORG
 10
0.0
 20
0.0
 30
0.0
  9
$PUCSXDIR
 10
1.0
 20
0.0
 30
0.0
  9
$PUCSYDIR
 10
0.0
 20
1.0
 30
0.0
  9
$PUCSORTHOREF
  2

  9
$PUCSORTHOVIEW
 70
     0
  9
$PUCSORGTOP
 10
0.0
 20
0.0
 30
0.0
  9
$PUCSORGBOTTOM
 10
0.0
 20
0.0
 30
0.0
  9
$PUCSORGLEFT
 10
0.0
 20
0.0
 30
0.0
  9
$PUCSORGRIGHT
 10
0.0
 20
0.0
 30
0.0
  9
$PUCSORGFRONT
 10
0.0
 20
0.0
 30
0.0
  9
$PUCSORGBACK
 10
0.0
 20
0.0
 30
0.0
  9
$USERI1
 70
     0
  9
$USERI2
 70
     0
  9
$USERI3
 70
     0
  9
$USERI4
 70
     0
  9
$USERI5
 70
     0
  9
$USERR1
 40
0.0
  9
$USERR2
 40
0.0
  9
$USERR3
 40
0.0
  9
$USERR4
 40
0.0
  9
$USERR5
 40
0.0
  9
$WORLDVIEW
 70
     1
  9
$SHADEDGE
 70
     3
  9
$SHADEDIF
 70
    70
  9
$TILEMODE
 70
     1
  9
$MAXACTVP
 70
    48
  9
$PINSBASE
 10
0.0
 20
0.0
 30
0.0
  9
$PLIMCHECK
 70
     0
  9
$PEXTMIN
 10
-1439.804583653114
 20
-1400.237631316938
 30
0.0
  9
$PEXTMAX
 10
2872.968780515991
 20
1675.790811506817
 30
0.0
  9
$PLIMMIN
 10
0.0
 20
0.0
  9
$PLIMMAX
 10
12.0
 20
9.0
  9
$UNITMODE
 70
     0
  9
$VISRETAIN
 70
     1
  9
$PLINEGEN
 70
     0
  9
$PSLTSCALE
 70
     1
  9
$TREEDEPTH
 70
  3020
  9
$CMLSTYLE
  2
STANDARD
  9
$CMLJUST
 70
     0
  9
$CMLSCALE
 40
20.0
  9
$PROXYGRAPHICS
 70
     1
  9
$MEASUREMENT
 70
     1
  9
$CELWEIGHT
370
    -1
  9
$ENDCAPS
280
     0
  9
$JOINSTYLE
280
     0
  9
$LWDISPLAY
290
     0
  9
$INSUNITS
 70
     0
  9
$HYPERLINKBASE
  1

  9
$STYLESHEET
  1

  9
$XEDIT
290
     1
  9
$CEPSNTYPE
380
     0
  9
$PSTYLEMODE
290
     1
  9
$FINGERPRINTGUID
  2
{7B48495B-9D62-4076-8CB1-8ACA882609AE}
  9
$VERSIONGUID
  2
{AF70F256-9345-4F09-9A93-A84986BCFA17}
  9
$EXTNAMES
290
     1
  9
$PSVPSCALE
 40
0.0
  9
$OLESTARTUP
290
     0
  0
ENDSEC
  0
SECTION
  2
CLASSES
  0
CLASS
  1
ACDBDICTIONARYWDFLT
  2
AcDbDictionaryWithDefault
  3
ObjectDBX Classes
 90
        0
280
     0
281
     0
  0
CLASS
  1
ACDBPLACEHOLDER
  2
AcDbPlaceHolder
  3
ObjectDBX Classes
 90
        0
280
     0
281
     0
  0
CLASS
  1
LAYOUT
  2
AcDbLayout
  3
ObjectDBX Classes
 90
        0
280
     0
281
     0
  0
CLASS
  1
ACME_DOCUMENT
  2
AcMeDbDoc
  3
AcMeServices
 90
     1024
280
     0
281
     0
  0
CLASS
  1
AMGSETTINGSOBJ
  2
AmgSettingsObj
  3
"AcadM|Product Description: AutoCAD Mechanical|Company: Autodesk, Inc."
 90
     1024
280
     0
281
     0
  0
CLASS
  1
ACMESCOPE
  2
AcMeScope
  3
AcMeServices
 90
     1024
280
     0
281
     0
  0
CLASS
  1
ACMECOMMANDHISTORY
  2
AcMeCommandHistory
  3
AcMeServices
 90
     1024
280
     0
281
     0
  0
CLASS
  1
DICTIONARYVAR
  2
AcDbDictionaryVar
  3
ObjectDBX Classes
 90
        0
280
     0
281
     0
  0
CLASS
  1
ACIMSYSVARMAN
  2
AcImSysVarManager
  3
AcMeServices
 90
     1024
280
     0
281
     0
  0
CLASS
  1
ACIMREALSYSVAR
  2
AcImRealSysVar
  3
AcMeServices
 90
     1024
280
     0
281
     0
  0
CLASS
  1
ACIMINTSYSVAR
  2
AcImIntSysVar
  3
AcMeServices
 90
     1024
280
     0
281
     0
  0
CLASS
  1
ACMEDRAWINGMAN
  2
AcMeDrawingMan
  3
AcMeServices
 90
     1024
280
     0
281
     0
  0
CLASS
  1
ACMEVIEW
  2
AcMeView
  3
AcMeServices
 90
     1024
280
     0
281
     0
  0
CLASS
  1
ACDBENTITYCACHE
  2
AcMeEntityCache
  3
AcMeServices
 90
     1024
280
     0
281
     0
  0
CLASS
  1
GSMANAGER
  2
AcMeGSManager
  3
AcMeServices
 90
     1024
280
     0
281
     0
  0
CLASS
  1
AMDTINTERNALREACTOR
  2
AmdtInternalReactor
  3
AcMeServices
 90
     1024
280
     0
281
     0
  0
CLASS
  1
ACMESTATEMGR
  2
AcMeStateMgr
  3
AcMeServices
 90
     1024
280
     0
281
     0
  0
CLASS
  1
ACGREFMASTER
  2
AcGrefMaster
  3
AcAttribServices
 90
     1024
280
     0
281
     0
  0
CLASS
  1
AM_DRAWING_MGR
  2
AcDmDwgMgr
  3
AcMechDwgViewMgmt
 90
     1024
280
     0
281
     0
  0
CLASS
  1
AM_DWG_DOCUMENT
  2
AcDmDwgDocument
  3
AcMechDwgViewMgmt
 90
     1024
280
     0
281
     0
  0
CLASS
  1
AM_DWG_SHEET
  2
AcDmSheet
  3
AcMechDwgViewMgmt
 90
     1024
280
     0
281
     0
  0
CLASS
  1
AM_VIEWDIMPARMAP
  2
AcDmViewDimParMap
  3
AcMechDwgViewMgmt
 90
     1024
280
     0
281
     0
  0
CLASS
  1
AM_DWGMGR_NAME
  2
AcDmDwgMgrName
  3
AcMechDwgViewMgmt
 90
     1024
280
     0
281
     0
  0
CLASS
  1
ACME_DATABASE
  2
AcMeDbDatabase
  3
AcMeServices
 90
     1024
280
     0
281
     0
  0
CLASS
  1
ACRFINSADJUSTERMGR
  2
AcRfInsAdjusterMgr
  3
AcMeServices
 90
     1024
280
     0
281
     0
  0
CLASS
  1
ACGREFACADMASTER
  2
AcGrefacadMaster
  3
AcGrefServices
 90
     1024
280
     0
281
     0
  0
CLASS
  1
AMDTMENUSTATEMGR
  2
AmdtMenuStateMgr
  3
McadcomServices
 90
     1024
280
     0
281
     0
  0
CLASS
  1
AMDTMCOMMENUSTATE
  2
AmdtMcomMenuState
  3
McadcomServices
 90
     1024
280
     0
281
     0
  0
CLASS
  1
AMIMASTER
  2
AmiMaster
  3
AmiServices
 90
     1024
280
     0
281
     0
  0
CLASS
  1
ASAPP
  2
AcAsAppObject
  3
AutoSurfServices
 90
     1024
280
     0
281
     0
  0
CLASS
  1
IM_STATIC_MAN
  2
AcImStaticVarManager
  3
AcMeServices
 90
     1024
280
     0
281
     0
  0
CLASS
  1
ACIMSTRSYSVAR
  2
AcImStrSysVar
  3
AcMeServices
 90
     1024
280
     0
281
     0
  0
CLASS
  1
ACIMDBLSTATICVAR
  2
AcImDblStaticVar
  3
AcMeServices
 90
     1024
280
     0
281
     0
  0
CLASS
  1
ACIMSTRSTATICVAR
  2
AcImStrStaticVar
  3
AcMeServices
 90
     1024
280
     0
281
     0
  0
CLASS
  1
ACIMINTSTATICVAR
  2
AcImIntStaticVar
  3
AcMeServices
 90
     1024
280
     0
281
     0
  0
CLASS
  1
ACASGREFMASTER
  2
AcAsGrefMaster
  3
AutoSurfResolverServices
 90
     1024
280
     0
281
     0
  0
CLASS
  1
ACADGREFMODULE
  2
AcAdGrefModule
  3
AdGrefServices
 90
     1024
280
     0
281
     0
  0
CLASS
  1
AMDTMAPISURFMOUDULE
  2
AmdtMApiSurfModule
  3
MApiSurfServices
 90
     1024
280
     0
281
     0
  0
CLASS
  1
MAPIAMMOUDLE
  2
MApiAmModule
  3
MApiAmServices
 90
     1024
280
     0
281
     0
  0
CLASS
  1
AMDTADMENUSTATE
  2
AmdtAdMenuState
  3
DesignerServices
 90
     1024
280
     0
281
     0
  0
CLASS
  1
ADAPPL
  2
AcAdAppl
  3
DesignerServices
 90
     1024
280
     0
281
     0
  0
CLASS
  1
DEPMGR
  2
AcAdDepMgr
  3
DesignerServices
 90
     1024
280
     0
281
     0
  0
CLASS
  1
PARAMMGR
  2
AcAdParamMgr
  3
DesignerServices
 90
     1024
280
     0
281
     0
  0
CLASS
  1
PARAMSCOPE
  2
AcAdParamScope
  3
DesignerServices
 90
     1024
280
     0
281
     0
  0
CLASS
  1
NAMEDAPPL
  2
AcAdNamedAppl
  3
DesignerServices
 90
     1024
280
     0
281
     0
  0
CLASS
  1
ADHNTMPLT
  2
AdHoleNoteTemplateMgr
  3
DesignerServices
 90
    33792
280
     0
281
     0
  0
CLASS
  1
AM_HNTEMPLATE_MGR_NAME
  2
AdHoleNoteTemplateMgrName
  3
DesignerServices
 90
    33792
280
     0
281
     0
  0
CLASS
  1
AMDTDMMENUSTATE
  2
AmdtDmMenuState
  3
AcMechDwgViewMgmt
 90
     1024
280
     0
281
     0
  0
CLASS
  1
MAPIADMODULE
  2
MApiAdModule
  3
MApiAdServices
 90
     1024
280
     0
281
     0
  0
CLASS
  1
AMDTAMMENUSTATE
  2
AmdtAmMenuState
  3
DesignerAssemblies
 90
     1024
280
     0
281
     0
  0
CLASS
  1
ACAMPROJECT
  2
AcAmProject
  3
DesignerAssemblies
 90
     1024
280
     0
281
     0
  0
CLASS
  1
ACAMGRCOMPDEF
  2
AcAmGrCompDef
  3
DesignerAssemblies
 90
     1024
280
     0
281
     0
  0
CLASS
  1
ACCMCONTEXT
  2
AcCmContext
  3
DesignerAssemblies
 90
     1024
280
     0
281
     0
  0
CLASS
  1
ACAMCOMPDEF
  2
AcAmCompDef
  3
DesignerAssemblies
 90
     1024
280
     0
281
     0
  0
CLASS
  1
ACAMCOMPDEFMGR
  2
AcAmCompDefMgr
  3
DesignerAssemblies
 90
     1024
280
     0
281
     0
  0
CLASS
  1
AMCONTEXTMGR
  2
AcAmContextMgr
  3
DesignerAssemblies
 90
     1024
280
     0
281
     0
  0
CLASS
  1
ACAMCONTEXTMODELER
  2
AcAmContextModeler
  3
DesignerAssemblies
 90
     1024
280
     0
281
     0
  0
CLASS
  1
ACMDATADICTIONARY
  2
AcmDataDictionary
  3
"AcmSymBB|Product Description: AutoCAD Mechanical|Company: Autodesk, Inc."
 90
     1024
280
     0
281
     0
  0
CLASS
  1
ACMDATAENTRYBLOCK
  2
AcmDataEntryBlock
  3
AcmSymBB|Product Description: AutoCAD Mechanical|Company: Autodesk, Inc.
 90
     1024
280
     0
281
     0
  0
CLASS
  1
CATALOGSTATE
  2
AcAmCatalogState
  3
DesignerAssemblies
 90
     1024
280
     0
281
     0
  0
CLASS
  1
ACAMGRCOMPDEFSET
  2
AcAmGrCompDefSet
  3
DesignerAssemblies
 90
     1024
280
     0
281
     0
  0
CLASS
  1
AMDTBROWSERDBTAB
  2
AmdtBrowserDbTab
  3
McadcomServices
 90
     1024
280
     0
281
     0
  0
CLASS
  1
CBROWSERAPPOBJECT
  2
CBrowserAppObject
  3
McadcomServices
 90
     1024
280
     0
281
     0
  0
CLASS
  1
DM_PLACEHOLDER
  2
AcDmSelsetPlaceholder
  3
AcMechDwgViewMgmt
 90
     1024
280
     0
281
     0
  0
CLASS
  1
ACMSTANDARDISO
  2
AcmStandardISO
  3
"Amdt_StdImp|Product Description: AutoCAD Mechanical|Company: Autodesk, Inc."
 90
     1024
280
     0
281
     0
  0
CLASS
  1
AMGOBJPROPCFG
  2
AmgObjPropCfg
  3
"AmgLay|Product Description: AutoCAD Mechanical|Company: Autodesk, Inc."
 90
     1025
280
     0
281
     0
  0
CLASS
  1
AMDTEDGESTANDARDISO
  2
AmdtEdgeStdISO
  3
"Amdt_StdImp|Product Description: AutoCAD Mechanical|Company: Autodesk, Inc."
 90
    33792
280
     0
281
     0
  0
CLASS
  1
ACMSURFSTANDARDISO
  2
AcmSurfTextStdISO
  3
"Amdt_StdImp|Product Description: AutoCAD Mechanical|Company: Autodesk, Inc."
 90
    33792
280
     0
281
     0
  0
CLASS
  1
ACMFCFSTANDARDISO
  2
AcmFCFStdISO
  3
"Amdt_StdImp|Product Description: AutoCAD Mechanical|Company: Autodesk, Inc."
 90
     1024
280
     0
281
     0
  0
CLASS
  1
ACMWELDSTANDARDISO
  2
AcmWeldingStdISO
  3
"Amdt_StdImp|Product Description: AutoCAD Mechanical|Company: Autodesk, Inc."
 90
     1024
280
     0
281
     0
  0
CLASS
  1
ACMIDSTANDARDISO
  2
AcmIdStdISO
  3
"Amdt_StdImp|Product Description: AutoCAD Mechanical|Company: Autodesk, Inc."
 90
     1024
280
     0
281
     0
  0
CLASS
  1
ACMDATUMSTANDARDISO
  2
AcmDatumStdISO
  3
"Amdt_StdImp|Product Description: AutoCAD Mechanical|Company: Autodesk, Inc."
 90
     1024
280
     0
281
     0
  0
CLASS
  1
ACMBOMSTANDARDISO
  2
AcmBOMStdISO
  3
"Amdt_StdImp|Product Description: AutoCAD Mechanical|Company: Autodesk, Inc."
 90
     1024
280
     0
281
     0
  0
CLASS
  1
ACMDETAILSTANDARDISO
  2
AmdtDetailSymStdISO
  3
"Amdt_StdImp|Product Description: AutoCAD Mechanical|Company: Autodesk, Inc."
 90
     1024
280
     0
281
     0
  0
CLASS
  1
ACMSECTIONSTANDARDISO
  2
AmdtSectionSymStdISO
  3
"Amdt_StdImp|Product Description: AutoCAD Mechanical|Company: Autodesk, Inc."
 90
    33792
280
     0
281
     0
  0
CLASS
  1
ACMCENTERLINESTANDARDISO
  2
AmdtCenterLineStdISO
  3
"Amdt_StdImp|Product Description: AutoCAD Mechanical|Company: Autodesk, Inc."
 90
     1024
280
     0
281
     0
  0
CLASS
  1
ACMTHREADLINESTANDARDISO
  2
AmdtThreadLineStdISO
  3
"Amdt_StdImp|Product Description: AutoCAD Mechanical|Company: Autodesk, Inc."
 90
     1024
280
     0
281
     0
  0
CLASS
  1
ACAMGLAYSTD
  2
AcAmgLayStd
  3
"AmgLay|Product Description: AutoCAD Mechanical|Company: Autodesk, Inc."
 90
     1024
280
     0
281
     0
  0
CLASS
  1
ACAMGDIMSTD
  2
AcAmgDimStd
  3
"AmgDim|Product Description: AutoCAD Mechanical|Company: Autodesk, Inc."
 90
     1024
280
     0
281
     0
  0
CLASS
  1
ACAMGTITLESTD
  2
AcAmgTitleStd
  3
"AmgTitle|Product Description: AutoCAD Mechanical|Company: Autodesk, Inc."
 90
     4095
280
     0
281
     0
  0
CLASS
  1
ACAMGFILTERDAT
  2
AcAmgFilterDat
  3
"AcadM|Product Description: AutoCAD Mechanical|Company: Autodesk, Inc."
 90
     1024
280
     0
281
     0
  0
CLASS
  1
AMDTFORMULAUPDATEDISPATCHER
  2
AmdtFormulaUpdateDispatcher
  3
AcMeServices
 90
    33792
280
     0
281
     0
  0
CLASS
  1
LAYER_INDEX
  2
AcDbLayerIndex
  3
ObjectDBX Classes
 90
        0
280
     0
281
     0
  0
CLASS
  1
IDBUFFER
  2
AcDbIdBuffer
  3
ObjectDBX Classes
 90
        0
280
     0
281
     0
  0
CLASS
  1
TABLESTYLE
  2
AcDbTableStyle
  3
ObjectDBX Classes
 90
     4095
280
     0
281
     0
  0
CLASS
  1
ACMNOTESTANDARDISO
  2
AmdtNoteStdISO
  3
"Amdt_StdImp|Product Description: AutoCAD Mechanical|Company: Autodesk, Inc."
 90
     1024
280
     0
281
     0
  0
CLASS
  1
AMDTNOTETEMPLATEDB
  2
AmdtNoteTemplateDB
  3
AcmSymBB|Product Description: AutoCAD Mechanical|Company: Autodesk, Inc.
 90
     1024
280
     0
281
     0
  0
CLASS
  1
ACAMEXTERNALCOMPDEF
  2
AcAmExternalCompDef
  3
DesignerAssemblies
 90
    33792
280
     0
281
     0
  0
CLASS
  1
ACCMBODY
  2
AcCmBody
  3
DesignerAssemblies
 90
    33792
280
     0
281
     0
  0
CLASS
  1
ACAMCOMPENT
  2
AcAmCompEnt
  3
DesignerAssemblies
 90
    33792
280
     0
281
     1
  0
CLASS
  1
ACAMCOMPFEEDBACK
  2
AcAmCompFeedback
  3
DesignerAssemblies
 90
    33792
280
     0
281
     0
  0
CLASS
  1
ACAMCOMP
  2
AcAmComp
  3
DesignerAssemblies
 90
    33792
280
     0
281
     0
  0
CLASS
  1
ACAMCOMPENTCLONE
  2
AcAmCompEntClone
  3
DesignerAssemblies
 90
    33792
280
     0
281
     1
  0
CLASS
  1
ACAMCLONEREACTOR
  2
AcAmGrCompCloneReactor
  3
DesignerAssemblies
 90
    33792
280
     0
281
     0
  0
CLASS
  1
EDGEID
  2
AcAdEdgeId
  3
DesignerServices
 90
    33792
280
     0
281
     0
  0
CLASS
  1
ACADPARTLINEDGRES
  2
AcAdPartLinEdgRes
  3
AdGrefServices
 90
    33792
280
     0
281
     0
  0
CLASS
  1
ACRFINSADJ
  2
AcRfInsAdjuster
  3
AcMeServices
 90
    33792
280
     0
281
     0
  0
CLASS
  1
STREFID
  2
AcAdStraightRefId
  3
DesignerServices
 90
    33792
280
     0
281
     0
  0
CLASS
  1
ACMEAXIS
  2
AcImAxisDisplay
  3
AcMeServices
 90
    33792
280
     0
281
     1
  0
CLASS
  1
FACEID
  2
AcAdFaceId
  3
DesignerServices
 90
    33792
280
     0
281
     0
  0
CLASS
  1
DEPEDGESECONDARYDEPID
  2
AcAdDepEdgeSecondaryDepId
  3
DesignerServices
 90
    33792
280
     0
281
     0
  0
CLASS
  1
ACADPARTPLANARFACERES
  2
AcAdPartPlanarFaceRes
  3
AdGrefServices
 90
    33792
280
     0
281
     0
  0
CLASS
  1
ACMEPOINT
  2
AcImPointDisplay
  3
AcMeServices
 90
    33792
280
     0
281
     1
  0
CLASS
  1
ACMELINEARARROW
  2
AcImLinearArrowDisplay
  3
AcMeServices
 90
    33792
280
     0
281
     1
  0
CLASS
  1
ACAMEXPR
  2
AcAmExpr
  3
DesignerAssemblies
 90
    33792
280
     0
281
     0
  0
CLASS
  1
ACCMDISTPLPL
  2
AcCmDistPlPl
  3
DesignerAssemblies
 90
    33792
280
     0
281
     0
  0
CLASS
  1
ACCMCONSTREACTOR
  2
AcCmConstraintReactor
  3
DesignerAssemblies
 90
    33792
280
     0
281
     0
  0
CLASS
  1
ACCMDISTPTLN
  2
AcCmDistPtLn
  3
DesignerAssemblies
 90
    33792
280
     0
281
     0
  0
CLASS
  1
AM_VIEW_SELECT_FILTER
  2
AcDmSelectViewEntFilter
  3
AcMechDwgViewMgmt
 90
    33792
280
     0
281
     0
  0
CLASS
  1
AM_GREF_PLANE
  2
AcDmGrefPlnDef
  3
AcMechDwgViewMgmt
 90
    33792
280
     0
281
     0
  0
CLASS
  1
AM_GREF_AXIS
  2
AcDmGrefAxisDef
  3
AcMechDwgViewMgmt
 90
    33792
280
     0
281
     0
  0
CLASS
  1
AM_BASE_VIEW_ORIENT
  2
AcDmBaseViewOr
  3
AcMechDwgViewMgmt
 90
    33792
280
     0
281
     0
  0
CLASS
  1
AM_DWG_VIEWPORT
  2
AcDmViewport
  3
AcMechDwgViewMgmt
 90
    33792
280
     0
281
     0
  0
CLASS
  1
AM_VIEW_DISPLAY
  2
AcDmDwgViewDisplay
  3
AcMechDwgViewMgmt
 90
    33792
280
     0
281
     0
  0
CLASS
  1
AM_CLDFLTS
  2
AcDmClDflts
  3
AcMechDwgViewMgmt
 90
    33792
280
     0
281
     0
  0
CLASS
  1
AM_BASE_VIEW
  2
AcDmBaseView
  3
AcMechDwgViewMgmt
 90
    33792
280
     0
281
     0
  0
CLASS
  1
ACMEPLINE
  2
AcImPlineDisplay
  3
AcMeServices
 90
    33792
280
     0
281
     1
  0
CLASS
  1
ACDMPARTVIEWDATA
  2
AcDmPartViewData
  3
AcMechDwgViewMgmt
 90
    33792
280
     0
281
     0
  0
CLASS
  1
ACDMDISPLAYATTRIBS
  2
AcDmDisplayAttribs
  3
AcMechDwgViewMgmt
 90
    33792
280
     0
281
     0
  0
CLASS
  1
ACDMBODYINSTANCEDATA
  2
AcDmBodyInstanceData
  3
AcMechDwgViewMgmt
 90
    33792
280
     0
281
     0
  0
CLASS
  1
ACDMVWEDLINE
  2
AcDmViewEdgeLine
  3
AcMechDwgViewMgmt
 90
    33792
280
     0
281
     1
  0
CLASS
  1
ACDMVWEDARC
  2
AcDmViewEdgeArc
  3
AcMechDwgViewMgmt
 90
    33792
280
     0
281
     1
  0
CLASS
  1
AM_ISO_VIEW_ORIENT
  2
AcDmIsoViewOr
  3
AcMechDwgViewMgmt
 90
    33792
280
     0
281
     0
  0
CLASS
  1
AM_ISO_VIEW
  2
AcDmIsoView
  3
AcMechDwgViewMgmt
 90
    33792
280
     0
281
     0
  0
CLASS
  1
AM_ORTHO_VIEW_ORIENT
  2
AcDmOrthoViewOr
  3
AcMechDwgViewMgmt
 90
    33792
280
     0
281
     0
  0
CLASS
  1
AM_ORTHO_VIEW
  2
AcDmOrthoView
  3
AcMechDwgViewMgmt
 90
    33792
280
     0
281
     0
  0
CLASS
  1
ACAMVIEWREACTOR
  2
AcAmViewReactor
  3
DesignerAssemblies
 90
    33792
280
     0
281
     0
  0
CLASS
  1
AMVIEW
  2
AcAmView
  3
DesignerAssemblies
 90
    33792
280
     0
281
     0
  0
CLASS
  1
ACAMVIEWCONTEXT
  2
AcAmViewContext
  3
DesignerAssemblies
 90
    33792
280
     0
281
     0
  0
CLASS
  1
ACAMCOMPENTVIEW
  2
AcAmCompEntView
  3
DesignerAssemblies
 90
    33792
280
     0
281
     1
  0
CLASS
  1
ACAMCOMPVIEWREACTOR
  2
AcAmGrCompViewReactor
  3
DesignerAssemblies
 90
    33792
280
     0
281
     0
  0
CLASS
  1
ACAMVIEWENTITYFILTER
  2
AcAmViewEntityFilter
  3
DesignerAssemblies
 90
    33792
280
     0
281
     0
  0
CLASS
  1
ACDMVWEDCIRC
  2
AcDmViewEdgeCircle
  3
AcMechDwgViewMgmt
 90
    33792
280
     0
281
     1
  0
CLASS
  1
AM_ADCIRCTRLINE
  2
AcAdBullsEyeCl
  3
DesignerServices
 90
    33792
280
     0
281
     0
  0
CLASS
  1
AM_ADLINCTRLINE
  2
AcAdLineCl
  3
DesignerServices
 90
    33792
280
     0
281
     0
  0
CLASS
  1
ACDMVIEWGEOM
  2
AcDmViewGeometry
  3
AcMechDwgViewMgmt
 90
    33792
280
     0
281
     1
  0
CLASS
  1
ACCMDISTLNLN
  2
AcCmDistLnLn
  3
DesignerAssemblies
 90
    33792
280
     0
281
     0
  0
CLASS
  1
ACAMXREFCONTEXTMODELER
  2
AcAmXrefContextModeler
  3
DesignerAssemblies
 90
    33792
280
     0
281
     0
  0
CLASS
  1
CNRREFID
  2
AcAdCornerId
  3
DesignerServices
 90
    33792
280
     0
281
     0
  0
CLASS
  1
ACADPARTPOINTRES
  2
AcAdPartPointRes
  3
AdGrefServices
 90
    33792
280
     0
281
     0
  0
CLASS
  1
AM_VIEWDIMLINEAR
  2
AcDmViewDimLinear
  3
AcMechDwgViewMgmt
 90
    33792
280
     0
281
     0
  0
CLASS
  1
PARAM
  2
AcAdParam
  3
DesignerServices
 90
    33792
280
     0
281
     0
  0
CLASS
  1
SORTENTSTABLE
  2
AcDbSortentsTable
  3
ObjectDBX Classes
 90
        0
280
     0
281
     0
  0
CLASS
  1
ACADPARTCIRCEDGRES
  2
AcAdPartCircEdgRes
  3
AdGrefServices
 90
    33792
280
     0
281
     0
  0
CLASS
  1
AM_VIEWDIMRADIUS
  2
AcDmViewDimRadius
  3
AcMechDwgViewMgmt
 90
    33792
280
     0
281
     0
  0
CLASS
  1
DEPEDGEPATTERNINSTANCE
  2
AcAdDepEdgePatternInstance
  3
DesignerServices
 90
    33792
280
     0
281
     0
  0
CLASS
  1
FEEDBACK
  2
AcAmFeedback
  3
DesignerAssemblies
 90
    33792
280
     0
281
     1
  0
CLASS
  1
ACAMTRIAXISSYMBOL
  2
AcAmTriAxisSymbol
  3
DesignerAssemblies
 90
    33792
280
     0
281
     0
  0
CLASS
  1
ACAMTEXTCIRCLESYMBOL
  2
AcAmTextCircleSymbol
  3
DesignerAssemblies
 90
    33792
280
     0
281
     0
  0
CLASS
  1
ACDMVISEDIT
  2
AcDmViewEntityVisEdit
  3
AcMechDwgViewMgmt
 90
    33792
280
     0
281
     0
  0
CLASS
  1
SILEDGEID
  2
AcAdSilhouetteEdgeId
  3
DesignerServices
 90
    33792
280
     0
281
     0
  0
CLASS
  1
MATERIAL
  2
AcDbMaterial
  3
ObjectDBX Classes
 90
     1153
280
     0
281
     0
  0
CLASS
  1
VISUALSTYLE
  2
AcDbVisualStyle
  3
ObjectDBX Classes
 90
     4095
280
     0
281
     0
  0
CLASS
  1
SCALE
  2
AcDbScale
  3
ObjectDBX Classes
 90
     1153
280
     0
281
     0
  0
CLASS
  1
MLEADERSTYLE
  2
AcDbMLeaderStyle
  3
ACDB_MLEADERSTYLE_CLASS
 90
     4095
280
     0
281
     0
  0
CLASS
  1
EXACTERMXREFMAP
  2
ExAcTermXrefMap
  3
EXAC_SERVICE
 90
    33793
280
     0
281
     0
  0
CLASS
  1
NPOCOLLECTION
  2
AcDbImpNonPersistentObjectsCollection
  3
ObjectDBX Classes
 90
     1153
280
     0
281
     0
  0
CLASS
  1
ACRFATTGENMGR
  2
AcRfAttGeneralMgr
  3
AcAttribServices
 90
     1024
280
     0
281
     0
  0
CLASS
  1
ACRFOBJATTMGR
  2
AcRfObjAttGroupMgr
  3
AcAttribServices
 90
     1024
280
     0
281
     0
  0
CLASS
  1
ACRFMCADAPIATTHOLDER
  2
AcRfMCADAPIAttHolder
  3
AcAttribServices
 90
     1024
280
     0
281
     0
  0
CLASS
  1
AMDTSYSATTR
  2
AmdtSystemAttribute
  3
AcAttribServices
 90
     1024
280
     0
281
     0
  0
CLASS
  1
ACMTAPERSTANDARDISO
  2
AcmTaperStdISO
  3
"Amdt_StdImp|Product Description: AutoCAD Mechanical|Company: Autodesk, Inc."
 90
     1024
280
     0
281
     0
  0
CLASS
  1
ACMANOOTATIONVIEWSTANDARDISO
  2
AmdtAnViewStdISO
  3
"Amdt_StdImp|Product Description: AutoCAD Mechanical|Company: Autodesk, Inc."
 90
     1024
280
     0
281
     0
  0
CLASS
  1
SOLID_BACKGROUND
  2
AcDbSolidBackground
  3
SCENEOE
 90
     4095
280
     0
281
     0
  0
CLASS
  1
CELLSTYLEMAP
  2
AcDbCellStyleMap
  3
ObjectDBX Classes
 90
     1152
280
     0
281
     0
  0
CLASS
  1
AM_ABS_AXIS
  2
AcDmAbsAxisDef
  3
AcMechDwgViewMgmt
 90
    33792
280
     0
281
     0
  0
CLASS
  1
AM_ABS_PLANE
  2
AcDmAbsPlnDef
  3
AcMechDwgViewMgmt
 90
    33792
280
     0
281
     0
  0
CLASS
  1
MULTILEADER
  2
AcDbMLeader
  3
ACDB_MLEADER_CLASS
 90
     1025
280
     0
281
     1
  0
CLASS
  1
AMDTEDGESTANDARDISO13715
  2
AmdtEdgeStdISO13715
  3
"Amdt_StdImp|Product Description: AutoCAD Mechanical|Company: Autodesk, Inc."
 90
     1024
280
     0
281
     0
  0
CLASS
  1
ACMSURFSTANDARDISO2002
  2
AcmSurfTextStdISO2002
  3
"Amdt_StdImp|Product Description: AutoCAD Mechanical|Company: Autodesk, Inc."
 90
     1024
280
     0
281
     0
  0
CLASS
  1
ACMSECTIONSTANDARDISO2001
  2
AmdtSectionSymStdISO2001
  3
"Amdt_StdImp|Product Description: AutoCAD Mechanical|Company: Autodesk, Inc."
 90
     1024
280
     0
281
     0
  0
CLASS
  1
ACAMGHOLECHARTSTDISO
  2
AcAmgHoleChartStdISO
  3
AmgDim|Product Description: AutoCAD Mechanical|Company: Autodesk, Inc.
 90
     1024
280
     0
281
     0
  0
ENDSEC
  0
SECTION
  2
TABLES
  0
TABLE
  2
VPORT
  5
2A
330
0
100
AcDbSymbolTable
 70
     1
  0
VPORT
  5
BF0
330
2A
100
AcDbSymbolTableRecord
100
AcDbViewportTableRecord
  2
*Active
 70
     0
 10
0.0
 20
0.0
 11
1.0
 21
1.0
 12
-83.9900042557133
 22
83.92003737420798
 13
0.0
 23
0.0
 14
10.0
 24
10.0
 15
10.0
 25
10.0
 16
0.0
 26
0.0
 36
3011.35531301583
 17
3334.195550338525
 27
-923.0378965178742
 37
0.0
 40
1002.757091206146
 41
1.956112852664576
 42
50.0
 43
0.0
 44
0.0
 50
0.0
 51
0.0
 71
     0
 72
  2000
 73
     1
 74
     0
 75
     0
 76
     0
 77
     0
 78
     0
281
     4
 65
     0
110
0.0
120
0.0
130
0.0
111
1.0
121
0.0
131
0.0
112
0.0
122
1.0
132
0.0
 79
     0
146
0.0
  0
ENDTAB
  0
TABLE
  2
LTYPE
  5
25
330
0
100
AcDbSymbolTable
 70
    12
  0
LTYPE
  5
26
330
25
100
AcDbSymbolTableRecord
100
AcDbLinetypeTableRecord
  2
BYBLOCK
 70
     0
  3

 72
    65
 73
     0
 40
0.0
  0
LTYPE
  5
27
330
25
100
AcDbSymbolTableRecord
100
AcDbLinetypeTableRecord
  2
BYLAYER
 70
     0
  3

 72
    65
 73
     0
 40
0.0
  0
LTYPE
  5
14
330
25
100
AcDbSymbolTableRecord
100
AcDbLinetypeTableRecord
  2
CONTINUOUS
 70
     0
  3
Solid line
 72
    65
 73
     0
 40
0.0
  0
LTYPE
  5
81
330
25
100
AcDbSymbolTableRecord
100
AcDbLinetypeTableRecord
  2
HIDDEN
 70
     0
  3
Hidden __ __ __ __ __ __ __ __ __ __ __ __ __ _
 72
    65
 73
     2
 40
0.375
 49
0.25
 74
     0
 49
-0.125
 74
     0
  0
LTYPE
  5
624
330
25
100
AcDbSymbolTableRecord
100
AcDbLinetypeTableRecord
  2
AM_ISO08W050
 70
     0
  3
____ . ____ . ____ . ____ . ____ . ____ . ____
 72
    65
 73
     4
 40
18.0
 49
12.0
 74
     0
 49
-1.5
 74
     0
 49
3.0
 74
     0
 49
-1.5
 74
     0
  0
LTYPE
  5
C97
330
25
100
AcDbSymbolTableRecord
100
AcDbLinetypeTableRecord
  2
DASHDOT
 70
     0
  3
____ _ ____ _ ____ _ ____ _ ____ _ ____ _ ____
 72
    65
 73
     4
 40
5.5
 49
4.0
 74
     0
 49
-0.6
 74
     0
 49
0.3
 74
     0
 49
-0.6
 74
     0
  0
LTYPE
  5
1286
330
25
100
AcDbSymbolTableRecord
100
AcDbLinetypeTableRecord
  2
PHANTOM2
 70
     0
  3
Phantom (.5x) ___ _ _ ___ _ _ ___ _ _ ___ _ _
 72
    65
 73
     6
 40
31.75
 49
15.875
 74
     0
 49
-3.174999999999998
 74
     0
 49
3.174999999999998
 74
     0
 49
-3.174999999999998
 74
     0
 49
3.174999999999998
 74
     0
 49
-3.174999999999998
 74
     0
  0
LTYPE
  5
1287
330
25
100
AcDbSymbolTableRecord
100
AcDbLinetypeTableRecord
  2
CENTER
 70
     0
  3
Center ____ _ ____ _ ____ _ ____ _ ____ _ ____
 72
    65
 73
     4
 40
50.8
 49
31.75
 74
     0
 49
-6.349999999999997
 74
     0
 49
6.349999999999997
 74
     0
 49
-6.349999999999997
 74
     0
  0
LTYPE
  5
12D5
330
25
100
AcDbSymbolTableRecord
100
AcDbLinetypeTableRecord
  2
ASULTYPE
 70
     0
  3
実線
 72
    65
 73
     2
 40
3.0
 49
2.5
 74
     0
 49
0.5
 74
     0
  0
LTYPE
  5
12D6
330
25
100
AcDbSymbolTableRecord
100
AcDbLinetypeTableRecord
  2
ASVLTYPE
 70
     0
  3
__ __ __ __ __ __ __ __ __ __ __ __ __ __ __ __ __ __ __ __ __
 72
    65
 73
     2
 40
0.75
 49
0.5
 74
     0
 49
-0.25
 74
     0
  0
LTYPE
  5
132A
330
25
100
AcDbSymbolTableRecord
100
AcDbLinetypeTableRecord
  2
ACISOWELD
 70
     0
  3
_ _ _ _ _
 72
    65
 73
     2
 40
2.0
 49
2.0
 74
     0
 49
-1.0
 74
     0
  0
LTYPE
  5
132B
330
25
100
AcDbSymbolTableRecord
100
AcDbLinetypeTableRecord
  2
ACISOTGB
 70
     0
  3
__ . . __ . .
 72
    65
 73
     6
 40
9.0
 49
4.0
 74
     0
 49
-1.0
 74
     0
 49
1.0
 74
     0
 49
-1.0
 74
     0
 49
1.0
 74
     0
 49
-1.0
 74
     0
  0
LTYPE
  5
132C
330
25
100
AcDbSymbolTableRecord
100
AcDbLinetypeTableRecord
  2
ACISOTGL
 70
     0
  3
_ _ _ _ _
 72
    65
 73
     2
 40
3.0
 49
2.0
 74
     0
 49
-1.0
 74
     0
  0
LTYPE
  5
1B0B
330
25
100
AcDbSymbolTableRecord
100
AcDbLinetypeTableRecord
  2
DASHED
 70
     0
  3
Dashed __ __ __ __ __ __ __ __ __ __ __ __ __ _
 72
    65
 73
     2
 40
0.75
 49
0.5
 74
     0
 49
-0.25
 74
     0
  0
ENDTAB
  0
TABLE
  2
LAYER
  5
1F
102
{ACAD_XDICTIONARY
360
20
102
}
330
0
100
AcDbSymbolTable
 70
     8
  0
LAYER
  5
5
102
{ACAD_XDICTIONARY
360
6
102
}
330
1F
100
AcDbSymbolTableRecord
100
AcDbLayerTableRecord
  2
0
 70
     0
 62
     7
  6
CONTINUOUS
370
    -3
390
8
  0
LAYER
  5
B88
330
1F
100
AcDbSymbolTableRecord
100
AcDbLayerTableRecord
  2
Defpoints
 70
     0
 62
     7
  6
CONTINUOUS
290
     0
370
    -3
390
8
  0
LAYER
  5
C98
102
{ACAD_XDICTIONARY
360
C99
102
}
330
1F
100
AcDbSymbolTableRecord
100
AcDbLayerTableRecord
  2
SIZE
 70
     0
 62
    30
  6
CONTINUOUS
370
    -3
390
8
  0
LAYER
  5
C9A
102
{ACAD_XDICTIONARY
360
C9B
102
}
330
1F
100
AcDbSymbolTableRecord
100
AcDbLayerTableRecord
  2
OUTLINE
 70
     0
 62
     3
  6
CONTINUOUS
370
    -3
390
8
  0
LAYER
  5
C9E
102
{ACAD_XDICTIONARY
360
C9F
102
}
330
1F
100
AcDbSymbolTableRecord
100
AcDbLayerTableRecord
  2
BASIS
 70
     0
 62
     6
  6
DASHDOT
370
    -3
390
8
  0
LAYER
  5
CA0
102
{ACAD_XDICTIONARY
360
CA1
102
}
330
1F
100
AcDbSymbolTableRecord
100
AcDbLayerTableRecord
  2
NOTE
 70
     0
 62
     4
  6
CONTINUOUS
370
    -3
390
8
  0
LAYER
  5
CA2
102
{ACAD_XDICTIONARY
360
CA3
102
}
330
1F
100
AcDbSymbolTableRecord
100
AcDbLayerTableRecord
  2
ARRANGE
 70
     0
 62
     1
  6
CONTINUOUS
370
    -3
390
8
  0
LAYER
  5
CA4
102
{ACAD_XDICTIONARY
360
CA5
102
}
330
1F
100
AcDbSymbolTableRecord
100
AcDbLayerTableRecord
  2
ETC
 70
     0
 62
    61
  6
CONTINUOUS
370
    -3
390
8
  0
ENDTAB
  0
TABLE
  2
STYLE
  5
22
330
0
100
AcDbSymbolTable
 70
     4
  0
STYLE
  5
23
330
22
100
AcDbSymbolTableRecord
100
AcDbTextStyleTableRecord
  2
STANDARD
 70
     0
 40
0.0
 41
1.0
 50
0.0
 71
     0
 42
62.5215949741746
  3
romans.shx
  4
extfont.shx
  0
STYLE
  5
CA6
330
22
100
AcDbSymbolTableRecord
100
AcDbTextStyleTableRecord
  2
STANDARD1
 70
     0
 40
0.0
 41
1.0
 50
0.0
 71
     0
 42
3.5
  3
MONOTXT
  4
BIGFONT
  0
STYLE
  5
131A
330
22
100
AcDbSymbolTableRecord
100
AcDbTextStyleTableRecord
  2
ACISOTS
 70
     0
 40
1.0
 41
1.0
 50
0.0
 71
     0
 42
62.5215949741746
  3
isocp.shx
  4
extfont.shx
  0
STYLE
  5
1329
330
22
100
AcDbSymbolTableRecord
100
AcDbTextStyleTableRecord
  2
ACISOGDT
 70
     0
 40
0.0
 41
1.0
 50
0.0
 71
     0
 42
62.5215949741746
  3
amgdt.shx
  4

  0
ENDTAB
  0
TABLE
  2
VIEW
  5
28
330
0
100
AcDbSymbolTable
 70
     0
  0
ENDTAB
  0
TABLE
  2
UCS
  5
29
330
0
100
AcDbSymbolTable
 70
     0
  0
ENDTAB
  0
TABLE
  2
APPID
  5
2E
330
0
100
AcDbSymbolTable
 70
    22
  0
APPID
  5
2F
330
2E
100
AcDbSymbolTableRecord
100
AcDbRegAppTableRecord
  2
ACAD
 70
     0
  0
APPID
  5
38
330
2E
100
AcDbSymbolTableRecord
100
AcDbRegAppTableRecord
  2
ACAD_DSTYLE_DIMJOGGED_JOGANGLE_SYMBOL
 70
     0
  0
APPID
  5
7C
330
2E
100
AcDbSymbolTableRecord
100
AcDbRegAppTableRecord
  2
AcAecLayerStandard
 70
     0
  0
APPID
  5
1E
330
2E
100
AcDbSymbolTableRecord
100
AcDbRegAppTableRecord
  2
ACAD_PSEXT
 70
     0
  0
APPID
  5
AFF
330
2E
100
AcDbSymbolTableRecord
100
AcDbRegAppTableRecord
  2
ACATTRIBSERVICES
 70
     0
  0
APPID
  5
B18
330
2E
100
AcDbSymbolTableRecord
100
AcDbRegAppTableRecord
  2
ACAD_MLEADERVER
 70
     0
  0
APPID
  5
B21
330
2E
100
AcDbSymbolTableRecord
100
AcDbRegAppTableRecord
  2
ACAD_EXEMPT_FROM_CAD_STANDARDS
 70
     0
  0
APPID
  5
B5E
330
2E
100
AcDbSymbolTableRecord
100
AcDbRegAppTableRecord
  2
ACAD_DSTYLE_DIMJAG
 70
     0
  0
APPID
  5
B5F
330
2E
100
AcDbSymbolTableRecord
100
AcDbRegAppTableRecord
  2
ACAD_DSTYLE_DIMTALN
 70
     0
  0
APPID
  5
B6F
330
2E
100
AcDbSymbolTableRecord
100
AcDbRegAppTableRecord
  2
ACAD_DSTYLE_DIMEXT_LENGTH
 70
     0
  0
APPID
  5
1252
330
2E
100
AcDbSymbolTableRecord
100
AcDbRegAppTableRecord
  2
GENIUS_GENDIM_13
 70
     0
  0
APPID
  5
1253
330
2E
100
AcDbSymbolTableRecord
100
AcDbRegAppTableRecord
  2
GENIUS_GENDTOL_13
 70
     0
  0
APPID
  5
1254
330
2E
100
AcDbSymbolTableRecord
100
AcDbRegAppTableRecord
  2
GENIUS_GE3DTOL_13
 70
     0
  0
APPID
  5
1257
330
2E
100
AcDbSymbolTableRecord
100
AcDbRegAppTableRecord
  2
MCAD_NO_VIS
 70
     0
  0
APPID
  5
1258
330
2E
100
AcDbSymbolTableRecord
100
AcDbRegAppTableRecord
  2
ACAD_TEMP_GRAPHIC
 70
     0
  0
APPID
  5
1289
330
2E
100
AcDbSymbolTableRecord
100
AcDbRegAppTableRecord
  2
AD_DRAW
 70
     0
  0
APPID
  5
12D7
330
2E
100
AcDbSymbolTableRecord
100
AcDbRegAppTableRecord
  2
ASURF_PCURVE_APPNAME
 70
     0
  0
APPID
  5
12DC
330
2E
100
AcDbSymbolTableRecord
100
AcDbRegAppTableRecord
  2
AMG_3D2D_5.0
 70
     0
  0
APPID
  5
130D
330
2E
100
AcDbSymbolTableRecord
100
AcDbRegAppTableRecord
  2
DESIGNERASSEMBLIES
 70
     0
  0
APPID
  5
1311
330
2E
100
AcDbSymbolTableRecord
100
AcDbRegAppTableRecord
  2
ACADM_DIM_EDIT
 70
     0
  0
APPID
  5
1312
330
2E
100
AcDbSymbolTableRecord
100
AcDbRegAppTableRecord
  2
AMDT_DM_ADJ
 70
     0
  0
APPID
  5
1669
330
2E
100
AcDbSymbolTableRecord
100
AcDbRegAppTableRecord
  2
ACAD_DSTYLE_DIMARC_LENGTH_SYMBOL
 70
     0
  0
ENDTAB
  0
TABLE
  2
DIMSTYLE
  5
30
330
0
100
AcDbSymbolTable
 70
    10
100
AcDbDimStyleTable
 71
     1
340
31
  0
DIMSTYLE
105
31
102
{ACAD_REACTORS
330
1FD7
330
1FE4
330
1FF6
330
2024
330
2043
330
2050
330
205D
330
206A
330
2077
102
}
330
30
100
AcDbSymbolTableRecord
100
AcDbDimStyleTableRecord
  2
STANDARD
 70
     0
 40
0.0
 41
2.0
 42
1.0
 43
3.75
 44
1.0
 73
     0
 74
     0
 77
     1
 78
     8
140
2.0
141
2.5
143
0.0394
147
1.0
171
     4
172
     1
173
     1
271
     0
272
     0
273
     8
274
     4
284
     8
340
23
341
32
343
32
344
32
1001
ACAD_DSTYLE_DIMEXT_LENGTH
1070
   378
1040
15.0
1001
ACAD_DSTYLE_DIMJOGGED_JOGANGLE_SYMBOL
1070
   384
1040
1.570796326794896
  0
DIMSTYLE
105
1337
330
30
100
AcDbSymbolTableRecord
100
AcDbDimStyleTableRecord
  2
AM_ISO
 70
     0
  4
"
 41
2.5
 42
1.0
 43
10.0
 44
1.0
 47
0.1
 48
0.1
 73
     0
 74
     0
 77
     1
 78
     8
 79
     2
140
3.5
141
0.0
143
0.0393701
146
0.71
147
1.5
172
     1
176
   256
177
   256
178
     2
271
     2
272
     3
274
     4
283
     0
284
     8
340
23
371
    -1
372
    -1
1001
ACAD_DSTYLE_DIMARC_LENGTH_SYMBOL
1070
   379
1070
     1
  0
DIMSTYLE
105
1338
330
30
100
AcDbSymbolTableRecord
100
AcDbDimStyleTableRecord
  2
AM_ISO$3
 70
     0
  4
"
 41
2.5
 42
1.0
 43
10.0
 44
1.0
 47
0.1
 48
0.1
 73
     0
 77
     1
 78
     8
 79
     2
140
3.5
141
0.0
143
0.0393701
146
0.71
147
1.5
176
   256
177
   256
178
     2
271
     2
272
     3
274
     4
283
     0
284
     8
288
     1
289
     0
340
23
371
    -1
372
    -1
1001
ACAD_DSTYLE_DIMARC_LENGTH_SYMBOL
1070
   379
1070
     1
  0
DIMSTYLE
105
1339
330
30
100
AcDbSymbolTableRecord
100
AcDbDimStyleTableRecord
  2
AM_ISO$4
 70
     0
  4
"
 41
2.5
 42
1.0
 43
10.0
 44
1.0
 47
0.1
 48
0.1
 73
     0
 77
     1
 78
     8
 79
     2
140
3.5
141
0.0
143
0.0393701
146
0.71
147
1.5
176
   256
177
   256
178
     2
271
     2
272
     3
274
     4
283
     0
284
     8
288
     1
289
     0
340
23
371
    -1
372
    -1
1001
ACAD_DSTYLE_DIMARC_LENGTH_SYMBOL
1070
   379
1070
     1
  0
DIMSTYLE
105
133A
330
30
100
AcDbSymbolTableRecord
100
AcDbDimStyleTableRecord
  2
AM_ISO$6
 70
     0
  4
"
 41
2.5
 42
1.0
 43
10.0
 44
1.0
 47
0.1
 48
0.1
 73
     0
 74
     0
 78
     8
 79
     2
140
3.5
141
0.0
143
0.0393701
146
0.71
147
1.5
172
     1
176
   256
177
   256
178
     2
271
     2
272
     3
274
     4
283
     0
284
     8
340
23
371
    -1
372
    -1
1001
ACAD_DSTYLE_DIMARC_LENGTH_SYMBOL
1070
   379
1070
     1
  0
DIMSTYLE
105
133B
330
30
100
AcDbSymbolTableRecord
100
AcDbDimStyleTableRecord
  2
AM_ISO$7
 70
     0
  4
"
 41
2.5
 42
1.0
 43
10.0
 44
1.0
 47
0.1
 48
0.1
 73
     0
 74
     0
 77
     1
 78
     8
 79
     2
140
5.0
141
0.0
143
0.0393701
146
0.71
147
1.5
172
     1
176
   256
177
   256
178
     2
271
     2
272
     3
274
     4
283
     0
284
     8
340
23
371
    -1
372
    -1
1001
ACAD_DSTYLE_DIMARC_LENGTH_SYMBOL
1070
   379
1070
     1
  0
DIMSTYLE
105
133C
330
30
100
AcDbSymbolTableRecord
100
AcDbDimStyleTableRecord
  2
AM_ISO$SF
 70
     0
  4
"
 41
2.5
 42
1.0
 43
10.0
 44
1.0
 47
0.1
 48
0.1
 73
     0
 74
     0
 75
     1
 76
     1
 77
     1
 78
     8
 79
     2
140
3.5
141
0.0
143
0.0393701
146
0.71
147
1.5
172
     1
176
   256
177
   256
178
     2
271
     2
272
     3
274
     4
283
     0
284
     8
340
23
371
    -1
372
    -1
1001
ACAD_DSTYLE_DIMARC_LENGTH_SYMBOL
1070
   379
1070
     1
  0
DIMSTYLE
105
1341
330
30
100
AcDbSymbolTableRecord
100
AcDbDimStyleTableRecord
  2
AM_ISO$SH
 70
     0
  4
"
 41
2.5
 42
1.0
 43
10.0
 44
1.0
 47
0.1
 48
0.1
 73
     0
 74
     0
 75
     1
 76
     1
 77
     1
 78
     8
 79
     2
140
3.5
141
0.0
143
0.0393701
144
2.0
146
0.71
147
1.5
172
     1
173
     1
176
   256
177
   256
178
     2
271
     2
272
     3
274
     4
283
     0
284
     8
340
23
343
133D
371
    -1
372
    -1
1001
ACAD_DSTYLE_DIMARC_LENGTH_SYMBOL
1070
   379
1070
     1
  0
DIMSTYLE
105
1349
330
30
100
AcDbSymbolTableRecord
100
AcDbDimStyleTableRecord
  2
STANDARD1
 70
     0
 40
10.0
 41
2.5
 42
0.625
 43
3.75
 44
1.25
 77
     1
 78
     8
140
2.5
141
0.0
147
1.0
173
     1
284
     8
340
23
341
32
343
32
344
32
  0
DIMSTYLE
105
134A
330
30
100
AcDbSymbolTableRecord
100
AcDbDimStyleTableRecord
  2
AM_JIS
 70
     0
  4
"
 40
10.0
 41
2.5
 42
1.0
 43
10.0
 44
1.0
 47
0.1
 48
0.1
 73
     0
 74
     0
 77
     3
 78
     8
 79
     2
140
3.5
141
0.0
143
0.0393701
146
0.71
147
1.5
172
     1
176
   256
177
   256
178
     2
271
     2
272
     3
274
     4
283
     0
284
     8
340
23
341
32
342
32
343
32
344
32
371
    -1
372
    -1
1001
ACAD_DSTYLE_DIMJOGGED_JOGANGLE_SYMBOL
1070
   384
1040
0.7853981633974483
1001
ACAD_DSTYLE_DIMARC_LENGTH_SYMBOL
1070
   379
1070
     1
  0
ENDTAB
  0
TABLE
  2
BLOCK_RECORD
  5
1
330
0
100
AcDbSymbolTable
 70
    28
  0
BLOCK_RECORD
  5
2
102
{ACAD_XDICTIONARY
360
3
102
}
330
1
100
AcDbSymbolTableRecord
100
AcDbBlockTableRecord
  2
*MODEL_SPACE
340
16
  0
BLOCK_RECORD
  5
18
330
1
100
AcDbSymbolTableRecord
100
AcDbBlockTableRecord
  2
*Paper_Space
340
1B
  0
BLOCK_RECORD
  5
32
330
1
100
AcDbSymbolTableRecord
100
AcDbBlockTableRecord
  2
_OPEN30
340
0
102
{BLKREFS
331
11FA
331
11FB
331
1203
331
1204
331
120C
331
120D
331
1215
331
1216
331
121E
331
121F
331
1227
331
1228
331
1230
331
1231
331
15E3
331
15E4
331
15F0
331
15F1
331
15FD
331
15FE
331
162D
331
162E
331
1636
331
1637
331
163F
331
1640
331
174E
331
174F
331
1FDE
331
1FDF
331
1FFD
331
1FFE
331
201E
331
201F
331
203D
331
203E
331
204A
331
204B
331
2057
331
2058
331
2064
331
2065
331
2071
331
2072
331
207E
331
207F
102
}
  0
BLOCK_RECORD
  5
B89
330
1
100
AcDbSymbolTableRecord
100
AcDbBlockTableRecord
  2
*D1
340
0
  0
BLOCK_RECORD
  5
B96
330
1
100
AcDbSymbolTableRecord
100
AcDbBlockTableRecord
  2
*D2
340
0
  0
BLOCK_RECORD
  5
BA3
330
1
100
AcDbSymbolTableRecord
100
AcDbBlockTableRecord
  2
*D3
340
0
  0
BLOCK_RECORD
  5
BB0
330
1
100
AcDbSymbolTableRecord
100
AcDbBlockTableRecord
  2
*D4
340
0
  0
BLOCK_RECORD
  5
BBD
330
1
100
AcDbSymbolTableRecord
100
AcDbBlockTableRecord
  2
*D5
340
0
  0
BLOCK_RECORD
  5
BCA
330
1
100
AcDbSymbolTableRecord
100
AcDbBlockTableRecord
  2
*D6
340
0
  0
BLOCK_RECORD
  5
BD7
330
1
100
AcDbSymbolTableRecord
100
AcDbBlockTableRecord
  2
*D7
340
0
  0
BLOCK_RECORD
  5
C92
330
1
100
AcDbSymbolTableRecord
100
AcDbBlockTableRecord
  2
_DOTBLANK
340
0
  0
BLOCK_RECORD
  5
133D
330
1
100
AcDbSymbolTableRecord
100
AcDbBlockTableRecord
  2
GENAXEH
340
0
  0
BLOCK_RECORD
  5
15DD
330
1
100
AcDbSymbolTableRecord
100
AcDbBlockTableRecord
  2
*D10
340
0
  0
BLOCK_RECORD
  5
15EA
330
1
100
AcDbSymbolTableRecord
100
AcDbBlockTableRecord
  2
*D11
340
0
  0
BLOCK_RECORD
  5
15F7
330
1
100
AcDbSymbolTableRecord
100
AcDbBlockTableRecord
  2
*D12
340
0
  0
BLOCK_RECORD
  5
1604
330
1
100
AcDbSymbolTableRecord
100
AcDbBlockTableRecord
  2
*D13
340
0
  0
BLOCK_RECORD
  5
1611
330
1
100
AcDbSymbolTableRecord
100
AcDbBlockTableRecord
  2
*D14
340
0
  0
BLOCK_RECORD
  5
161E
330
1
100
AcDbSymbolTableRecord
100
AcDbBlockTableRecord
  2
*D15
340
0
  0
BLOCK_RECORD
  5
1646
330
1
100
AcDbSymbolTableRecord
100
AcDbBlockTableRecord
  2
*D16
340
0
  0
BLOCK_RECORD
  5
1FD8
330
1
100
AcDbSymbolTableRecord
100
AcDbBlockTableRecord
  2
*D17
340
0
  0
BLOCK_RECORD
  5
1FE5
330
1
100
AcDbSymbolTableRecord
100
AcDbBlockTableRecord
  2
*D18
340
0
  0
BLOCK_RECORD
  5
1FF7
330
1
100
AcDbSymbolTableRecord
100
AcDbBlockTableRecord
  2
*D19
340
0
  0
BLOCK_RECORD
  5
2025
330
1
100
AcDbSymbolTableRecord
100
AcDbBlockTableRecord
  2
*D20
340
0
  0
BLOCK_RECORD
  5
2044
330
1
100
AcDbSymbolTableRecord
100
AcDbBlockTableRecord
  2
*D21
340
0
  0
BLOCK_RECORD
  5
2051
330
1
100
AcDbSymbolTableRecord
100
AcDbBlockTableRecord
  2
*D22
340
0
  0
BLOCK_RECORD
  5
205E
330
1
100
AcDbSymbolTableRecord
100
AcDbBlockTableRecord
  2
*D23
340
0
  0
BLOCK_RECORD
  5
206B
330
1
100
AcDbSymbolTableRecord
100
AcDbBlockTableRecord
  2
*D24
340
0
  0
BLOCK_RECORD
  5
2078
330
1
100
AcDbSymbolTableRecord
100
AcDbBlockTableRecord
  2
*D25
340
0
  0
ENDTAB
  0
ENDSEC
  0
SECTION
  2
BLOCKS
  0
BLOCK
  5
4
330
2
100
AcDbEntity
  8
0
100
AcDbBlockBegin
  2
*MODEL_SPACE
 70
     0
 10
0.0
 20
0.0
 30
0.0
  3
*MODEL_SPACE
  1

  0
ENDBLK
  5
15
330
2
100
AcDbEntity
  8
0
100
AcDbBlockEnd
  0
BLOCK
  5
19
330
18
100
AcDbEntity
 67
     1
  8
0
100
AcDbBlockBegin
  2
*Paper_Space
 70
     0
 10
0.0
 20
0.0
 30
0.0
  3
*Paper_Space
  1

  0
ENDBLK
  5
1A
330
18
100
AcDbEntity
 67
     1
  8
0
100
AcDbBlockEnd
  0
BLOCK
  5
33
330
32
100
AcDbEntity
  8
0
100
AcDbBlockBegin
  2
_OPEN30
 70
     0
 10
0.0
 20
0.0
 30
0.0
  3
_OPEN30
  1

  0
LINE
  5
34
330
32
100
AcDbEntity
  8
0
  6
ByBlock
 62
     0
100
AcDbLine
 10
-1.0
 20
0.26794919
 30
0.0
 11
0.0
 21
0.0
 31
0.0
  0
LINE
  5
35
330
32
100
AcDbEntity
  8
0
  6
ByBlock
 62
     0
100
AcDbLine
 10
0.0
 20
0.0
 30
0.0
 11
-1.0
 21
-0.26794919
 31
0.0
  0
LINE
  5
36
330
32
100
AcDbEntity
  8
0
  6
ByBlock
 62
     0
100
AcDbLine
 10
0.0
 20
0.0
 30
0.0
 11
-1.0
 21
0.0
 31
0.0
  0
ENDBLK
  5
37
330
32
100
AcDbEntity
  8
0
100
AcDbBlockEnd
  0
BLOCK
  5
B93
330
B89
100
AcDbEntity
  8
0
100
AcDbBlockBegin
  2
*D1
 70
     1
 10
0.0
 20
0.0
 30
0.0
  3
*D1
  1

  0
LINE
  5
122D
330
B89
100
AcDbEntity
  8
SIZE
 62
     0
370
    -2
100
AcDbLine
 10
-314.4855110895245
 20
-660.2776313169656
 30
0.0
 11
-357.4203349729813
 21
-660.2776313169656
 31
0.0
  0
LINE
  5
122E
330
B89
100
AcDbEntity
  8
SIZE
 62
     0
370
    -2
100
AcDbLine
 10
-314.4855110895245
 20
-810.2776313169655
 30
0.0
 11
-357.4203349729813
 21
-810.2776313169655
 31
0.0
  0
LINE
  5
122F
330
B89
100
AcDbEntity
  8
SIZE
 62
     0
370
    -2
100
AcDbLine
 10
-352.4203349729813
 20
-670.2776313169656
 30
0.0
 11
-352.4203349729813
 21
-800.2776313169656
 31
0.0
  0
INSERT
  5
1230
330
B89
100
AcDbEntity
  8
SIZE
 62
     0
370
    -2
100
AcDbBlockReference
  2
_OPEN30
 10
-352.4203349729813
 20
-660.2776313169656
 30
0.0
 41
10.0
 42
10.0
 43
10.0
 50
90.0
  0
INSERT
  5
1231
330
B89
100
AcDbEntity
  8
SIZE
 62
     0
370
    -2
100
AcDbBlockReference
  2
_OPEN30
 10
-352.4203349729813
 20
-810.2776313169655
 30
0.0
 41
10.0
 42
10.0
 43
10.0
 50
270.0
  0
MTEXT
  5
1232
330
B89
100
AcDbEntity
  8
SIZE
 62
     0
100
AcDbMText
 10
-362.4203349729812
 20
-735.2776313169656
 30
0.0
 40
10.0
 41
0.0
 71
     5
 72
     1
  1
\A1;150
 11
0.0000000000000001
 21
1.0
 31
0.0
 73
     1
 44
1.0
1001
ACAD
1000
MTEXTBEGIN
1070
    73
1070
     1
1070
    44
1040
1.0
1070
    74
1070
     0
1000
MTEXTEND
  0
POINT
  5
1233
330
B89
100
AcDbEntity
  8
Defpoints
 62
     0
100
AcDbPoint
 10
-309.4855110895245
 20
-660.2776313169656
 30
0.0
  0
POINT
  5
1234
330
B89
100
AcDbEntity
  8
Defpoints
 62
     0
100
AcDbPoint
 10
-309.4855110895245
 20
-810.2776313169655
 30
0.0
  0
POINT
  5
1235
330
B89
100
AcDbEntity
  8
Defpoints
 62
     0
100
AcDbPoint
 10
-352.4203349729813
 20
-810.2776313169655
 30
0.0
  0
ENDBLK
  5
B94
330
B89
100
AcDbEntity
  8
0
100
AcDbBlockEnd
  0
BLOCK
  5
BA0
330
B96
100
AcDbEntity
  8
0
100
AcDbBlockBegin
  2
*D2
 70
     1
 10
0.0
 20
0.0
 30
0.0
  3
*D2
  1

  0
LINE
  5
1224
330
B96
100
AcDbEntity
  8
SIZE
 62
     0
370
    -2
100
AcDbLine
 10
-314.4855110895245
 20
-810.2776313169655
 30
0.0
 11
-357.217762610784
 21
-810.2776313169655
 31
0.0
  0
LINE
  5
1225
330
B96
100
AcDbEntity
  8
SIZE
 62
     0
370
    -2
100
AcDbLine
 10
-314.4855110895245
 20
-960.2776313169655
 30
0.0
 11
-357.217762610784
 21
-960.2776313169655
 31
0.0
  0
LINE
  5
1226
330
B96
100
AcDbEntity
  8
SIZE
 62
     0
370
    -2
100
AcDbLine
 10
-352.2177626107839
 20
-820.2776313169655
 30
0.0
 11
-352.217762610784
 21
-950.2776313169656
 31
0.0
  0
INSERT
  5
1227
330
B96
100
AcDbEntity
  8
SIZE
 62
     0
370
    -2
100
AcDbBlockReference
  2
_OPEN30
 10
-352.2177626107839
 20
-810.2776313169655
 30
0.0
 41
10.0
 42
10.0
 43
10.0
 50
90.0
  0
INSERT
  5
1228
330
B96
100
AcDbEntity
  8
SIZE
 62
     0
370
    -2
100
AcDbBlockReference
  2
_OPEN30
 10
-352.217762610784
 20
-960.2776313169655
 30
0.0
 41
10.0
 42
10.0
 43
10.0
 50
270.0
  0
MTEXT
  5
1229
330
B96
100
AcDbEntity
  8
SIZE
 62
     0
100
AcDbMText
 10
-362.2177626107838
 20
-885.2776313169655
 30
0.0
 40
10.0
 41
0.0
 71
     5
 72
     1
  1
\A1;150
 11
0.0000000000000001
 21
1.0
 31
0.0
 73
     1
 44
1.0
1001
ACAD
1000
MTEXTBEGIN
1070
    73
1070
     1
1070
    44
1040
1.0
1070
    74
1070
     0
1000
MTEXTEND
  0
POINT
  5
122A
330
B96
100
AcDbEntity
  8
Defpoints
 62
     0
100
AcDbPoint
 10
-309.4855110895245
 20
-810.2776313169655
 30
0.0
  0
POINT
  5
122B
330
B96
100
AcDbEntity
  8
Defpoints
 62
     0
100
AcDbPoint
 10
-309.4855110895245
 20
-960.2776313169655
 30
0.0
  0
POINT
  5
122C
330
B96
100
AcDbEntity
  8
Defpoints
 62
     0
100
AcDbPoint
 10
-352.217762610784
 20
-960.2776313169655
 30
0.0
  0
ENDBLK
  5
BA1
330
B96
100
AcDbEntity
  8
0
100
AcDbBlockEnd
  0
BLOCK
  5
BAD
330
BA3
100
AcDbEntity
  8
0
100
AcDbBlockBegin
  2
*D3
 70
     1
 10
0.0
 20
0.0
 30
0.0
  3
*D3
  1

  0
LINE
  5
121B
330
BA3
100
AcDbEntity
  8
SIZE
 62
     0
370
    -2
100
AcDbLine
 10
-314.4855110895245
 20
-960.2776313169655
 30
0.0
 11
-356.9877206922773
 21
-960.2776313169655
 31
0.0
  0
LINE
  5
121C
330
BA3
100
AcDbEntity
  8
SIZE
 62
     0
370
    -2
100
AcDbLine
 10
-314.4855110895245
 20
-1110.277631316965
 30
0.0
 11
-356.9877206922773
 21
-1110.277631316965
 31
0.0
  0
LINE
  5
121D
330
BA3
100
AcDbEntity
  8
SIZE
 62
     0
370
    -2
100
AcDbLine
 10
-351.9877206922773
 20
-970.2776313169657
 30
0.0
 11
-351.9877206922773
 21
-1100.277631316965
 31
0.0
  0
INSERT
  5
121E
330
BA3
100
AcDbEntity
  8
SIZE
 62
     0
370
    -2
100
AcDbBlockReference
  2
_OPEN30
 10
-351.9877206922773
 20
-960.2776313169655
 30
0.0
 41
10.0
 42
10.0
 43
10.0
 50
90.0
  0
INSERT
  5
121F
330
BA3
100
AcDbEntity
  8
SIZE
 62
     0
370
    -2
100
AcDbBlockReference
  2
_OPEN30
 10
-351.9877206922773
 20
-1110.277631316965
 30
0.0
 41
10.0
 42
10.0
 43
10.0
 50
270.0
  0
MTEXT
  5
1220
330
BA3
100
AcDbEntity
  8
SIZE
 62
     0
100
AcDbMText
 10
-361.9877206922772
 20
-1035.277631316965
 30
0.0
 40
10.0
 41
0.0
 71
     5
 72
     1
  1
\A1;150
 11
0.0000000000000001
 21
1.0
 31
0.0
 73
     1
 44
1.0
1001
ACAD
1000
MTEXTBEGIN
1070
    73
1070
     1
1070
    44
1040
1.0
1070
    74
1070
     0
1000
MTEXTEND
  0
POINT
  5
1221
330
BA3
100
AcDbEntity
  8
Defpoints
 62
     0
100
AcDbPoint
 10
-309.4855110895245
 20
-960.2776313169655
 30
0.0
  0
POINT
  5
1222
330
BA3
100
AcDbEntity
  8
Defpoints
 62
     0
100
AcDbPoint
 10
-309.4855110895245
 20
-1110.277631316965
 30
0.0
  0
POINT
  5
1223
330
BA3
100
AcDbEntity
  8
Defpoints
 62
     0
100
AcDbPoint
 10
-351.9877206922773
 20
-1110.277631316965
 30
0.0
  0
ENDBLK
  5
BAE
330
BA3
100
AcDbEntity
  8
0
100
AcDbBlockEnd
  0
BLOCK
  5
BBA
330
BB0
100
AcDbEntity
  8
0
100
AcDbBlockBegin
  2
*D4
 70
     1
 10
0.0
 20
0.0
 30
0.0
  3
*D4
  1

  0
LINE
  5
1212
330
BB0
100
AcDbEntity
  8
SIZE
 62
     0
370
    -2
100
AcDbLine
 10
-314.4855110895245
 20
-1110.277631316965
 30
0.0
 11
-356.8250825966313
 21
-1110.277631316965
 31
0.0
  0
LINE
  5
1213
330
BB0
100
AcDbEntity
  8
SIZE
 62
     0
370
    -2
100
AcDbLine
 10
-314.4855110895245
 20
-1260.277631316965
 30
0.0
 11
-356.8250825966314
 21
-1260.277631316965
 31
0.0
  0
LINE
  5
1214
330
BB0
100
AcDbEntity
  8
SIZE
 62
     0
370
    -2
100
AcDbLine
 10
-351.8250825966313
 20
-1120.277631316965
 30
0.0
 11
-351.8250825966314
 21
-1250.277631316965
 31
0.0
  0
INSERT
  5
1215
330
BB0
100
AcDbEntity
  8
SIZE
 62
     0
370
    -2
100
AcDbBlockReference
  2
_OPEN30
 10
-351.8250825966313
 20
-1110.277631316965
 30
0.0
 41
10.0
 42
10.0
 43
10.0
 50
90.0
  0
INSERT
  5
1216
330
BB0
100
AcDbEntity
  8
SIZE
 62
     0
370
    -2
100
AcDbBlockReference
  2
_OPEN30
 10
-351.8250825966314
 20
-1260.277631316965
 30
0.0
 41
10.0
 42
10.0
 43
10.0
 50
270.0
  0
MTEXT
  5
1217
330
BB0
100
AcDbEntity
  8
SIZE
 62
     0
100
AcDbMText
 10
-361.8250825966311
 20
-1185.277631316965
 30
0.0
 40
10.0
 41
0.0
 71
     5
 72
     1
  1
\A1;150
 11
0.0000000000000001
 21
1.0
 31
0.0
 73
     1
 44
1.0
1001
ACAD
1000
MTEXTBEGIN
1070
    73
1070
     1
1070
    44
1040
1.0
1070
    74
1070
     0
1000
MTEXTEND
  0
POINT
  5
1218
330
BB0
100
AcDbEntity
  8
Defpoints
 62
     0
100
AcDbPoint
 10
-309.4855110895245
 20
-1110.277631316965
 30
0.0
  0
POINT
  5
1219
330
BB0
100
AcDbEntity
  8
Defpoints
 62
     0
100
AcDbPoint
 10
-309.4855110895245
 20
-1260.277631316965
 30
0.0
  0
POINT
  5
121A
330
BB0
100
AcDbEntity
  8
Defpoints
 62
     0
100
AcDbPoint
 10
-351.8250825966314
 20
-1260.277631316965
 30
0.0
  0
ENDBLK
  5
BBB
330
BB0
100
AcDbEntity
  8
0
100
AcDbBlockEnd
  0
BLOCK
  5
BC7
330
BBD
100
AcDbEntity
  8
0
100
AcDbBlockBegin
  2
*D5
 70
     1
 10
0.0
 20
0.0
 30
0.0
  3
*D5
  1

  0
LINE
  5
1209
330
BBD
100
AcDbEntity
  8
SIZE
 62
     0
370
    -2
100
AcDbLine
 10
-282.4855110895383
 20
-579.2776313169651
 30
0.0
 11
-398.1681945371564
 21
-579.2776313169651
 31
0.0
  0
LINE
  5
120A
330
BBD
100
AcDbEntity
  8
SIZE
 62
     0
370
    -2
100
AcDbLine
 10
-243.9855110895382
 20
-1341.277631316965
 30
0.0
 11
-398.1681945371565
 21
-1341.277631316965
 31
0.0
  0
LINE
  5
120B
330
BBD
100
AcDbEntity
  8
SIZE
 62
     0
370
    -2
100
AcDbLine
 10
-393.1681945371563
 20
-589.2776313169647
 30
0.0
 11
-393.1681945371565
 21
-1331.277631316965
 31
0.0
  0
INSERT
  5
120C
330
BBD
100
AcDbEntity
  8
SIZE
 62
     0
370
    -2
100
AcDbBlockReference
  2
_OPEN30
 10
-393.1681945371563
 20
-579.2776313169651
 30
0.0
 41
10.0
 42
10.0
 43
10.0
 50
90.0
  0
INSERT
  5
120D
330
BBD
100
AcDbEntity
  8
SIZE
 62
     0
370
    -2
100
AcDbBlockReference
  2
_OPEN30
 10
-393.1681945371565
 20
-1341.277631316965
 30
0.0
 41
10.0
 42
10.0
 43
10.0
 50
270.0
  0
MTEXT
  5
120E
330
BBD
100
AcDbEntity
  8
SIZE
 62
     0
100
AcDbMText
 10
-403.1681945371563
 20
-960.277631316965
 30
0.0
 40
10.0
 41
0.0
 71
     5
 72
     1
  1
\A1;762
 11
0.0000000000000001
 21
1.0
 31
0.0
 73
     1
 44
1.0
1001
ACAD
1000
MTEXTBEGIN
1070
    73
1070
     1
1070
    44
1040
1.0
1070
    74
1070
     0
1000
MTEXTEND
  0
POINT
  5
120F
330
BBD
100
AcDbEntity
  8
Defpoints
 62
     0
100
AcDbPoint
 10
-277.4855110895383
 20
-579.2776313169651
 30
0.0
  0
POINT
  5
1210
330
BBD
100
AcDbEntity
  8
Defpoints
 62
     0
100
AcDbPoint
 10
-238.9855110895382
 20
-1341.277631316965
 30
0.0
  0
POINT
  5
1211
330
BBD
100
AcDbEntity
  8
Defpoints
 62
     0
100
AcDbPoint
 10
-393.1681945371565
 20
-1341.277631316965
 30
0.0
  0
ENDBLK
  5
BC8
330
BBD
100
AcDbEntity
  8
0
100
AcDbBlockEnd
  0
BLOCK
  5
BD4
330
BCA
100
AcDbEntity
  8
0
100
AcDbBlockBegin
  2
*D6
 70
     1
 10
0.0
 20
0.0
 30
0.0
  3
*D6
  1

  0
LINE
  5
11F7
330
BCA
100
AcDbEntity
  8
SIZE
 62
     0
370
    -2
100
AcDbLine
 10
-309.4855110895245
 20
-655.2776313169657
 30
0.0
 11
-309.4855110895245
 21
-533.7200016120257
 31
0.0
  0
LINE
  5
11F8
330
BCA
100
AcDbEntity
  8
SIZE
 62
     0
370
    -2
100
AcDbLine
 10
569.5144889104623
 20
-655.2776313169657
 30
0.0
 11
569.5144889104623
 21
-533.7200016120257
 31
0.0
  0
LINE
  5
11F9
330
BCA
100
AcDbEntity
  8
SIZE
 62
     0
370
    -2
100
AcDbLine
 10
-299.4855110895245
 20
-538.7200016120257
 30
0.0
 11
559.5144889104623
 21
-538.7200016120257
 31
0.0
  0
INSERT
  5
11FA
330
BCA
100
AcDbEntity
  8
SIZE
 62
     0
370
    -2
100
AcDbBlockReference
  2
_OPEN30
 10
-309.4855110895245
 20
-538.7200016120257
 30
0.0
 41
10.0
 42
10.0
 43
10.0
 50
180.0
  0
INSERT
  5
11FB
330
BCA
100
AcDbEntity
  8
SIZE
 62
     0
370
    -2
100
AcDbBlockReference
  2
_OPEN30
 10
569.5144889104623
 20
-538.7200016120257
 30
0.0
 41
10.0
 42
10.0
 43
10.0
  0
MTEXT
  5
11FC
330
BCA
100
AcDbEntity
  8
SIZE
 62
     0
100
AcDbMText
 10
130.0144889104689
 20
-528.7200016120257
 30
0.0
 40
10.0
 41
0.0
 71
     5
 72
     1
  1
\A1;879
 73
     1
 44
1.0
1001
ACAD
1000
MTEXTBEGIN
1070
    73
1070
     1
1070
    44
1040
1.0
1070
    74
1070
     0
1000
MTEXTEND
  0
POINT
  5
11FD
330
BCA
100
AcDbEntity
  8
Defpoints
 62
     0
100
AcDbPoint
 10
-309.4855110895245
 20
-660.2776313169656
 30
0.0
  0
POINT
  5
11FE
330
BCA
100
AcDbEntity
  8
Defpoints
 62
     0
100
AcDbPoint
 10
569.5144889104623
 20
-660.2776313169656
 30
0.0
  0
POINT
  5
11FF
330
BCA
100
AcDbEntity
  8
Defpoints
 62
     0
100
AcDbPoint
 10
569.5144889104623
 20
-538.7200016120257
 30
0.0
  0
ENDBLK
  5
BD5
330
BCA
100
AcDbEntity
  8
0
100
AcDbBlockEnd
  0
BLOCK
  5
BE1
330
BD7
100
AcDbEntity
  8
0
100
AcDbBlockBegin
  2
*D7
 70
     1
 10
0.0
 20
0.0
 30
0.0
  3
*D7
  1

  0
LINE
  5
1200
330
BD7
100
AcDbEntity
  8
SIZE
 62
     0
370
    -2
100
AcDbLine
 10
-325.9855110895246
 20
-622.2776313169653
 30
0.0
 11
-325.9855110895246
 21
-507.1337428596361
 31
0.0
  0
LINE
  5
1201
330
BD7
100
AcDbEntity
  8
SIZE
 62
     0
370
    -2
100
AcDbLine
 10
586.0144889104623
 20
-622.2776313169653
 30
0.0
 11
586.0144889104623
 21
-507.1337428596361
 31
0.0
  0
LINE
  5
1202
330
BD7
100
AcDbEntity
  8
SIZE
 62
     0
370
    -2
100
AcDbLine
 10
-315.9855110895246
 20
-512.1337428596361
 30
0.0
 11
576.0144889104623
 21
-512.1337428596361
 31
0.0
  0
INSERT
  5
1203
330
BD7
100
AcDbEntity
  8
SIZE
 62
     0
370
    -2
100
AcDbBlockReference
  2
_OPEN30
 10
-325.9855110895246
 20
-512.1337428596361
 30
0.0
 41
10.0
 42
10.0
 43
10.0
 50
180.0
  0
INSERT
  5
1204
330
BD7
100
AcDbEntity
  8
SIZE
 62
     0
370
    -2
100
AcDbBlockReference
  2
_OPEN30
 10
586.0144889104623
 20
-512.1337428596361
 30
0.0
 41
10.0
 42
10.0
 43
10.0
  0
MTEXT
  5
1205
330
BD7
100
AcDbEntity
  8
SIZE
 62
     0
100
AcDbMText
 10
130.0144889104689
 20
-502.1337428596361
 30
0.0
 40
10.0
 41
0.0
 71
     5
 72
     1
  1
\A1;912
 73
     1
 44
1.0
1001
ACAD
1000
MTEXTBEGIN
1070
    73
1070
     1
1070
    44
1040
1.0
1070
    74
1070
     0
1000
MTEXTEND
  0
POINT
  5
1206
330
BD7
100
AcDbEntity
  8
Defpoints
 62
     0
100
AcDbPoint
 10
-325.9855110895246
 20
-627.2776313169653
 30
0.0
  0
POINT
  5
1207
330
BD7
100
AcDbEntity
  8
Defpoints
 62
     0
100
AcDbPoint
 10
586.0144889104623
 20
-627.2776313169653
 30
0.0
  0
POINT
  5
1208
330
BD7
100
AcDbEntity
  8
Defpoints
 62
     0
100
AcDbPoint
 10
586.0144889104623
 20
-512.1337428596361
 30
0.0
  0
ENDBLK
  5
BE2
330
BD7
100
AcDbEntity
  8
0
100
AcDbBlockEnd
  0
BLOCK
  5
C93
330
C92
100
AcDbEntity
  8
0
100
AcDbBlockBegin
  2
_DOTBLANK
 70
     0
 10
0.0
 20
0.0
 30
0.0
  3
_DOTBLANK
  1

  0
CIRCLE
  5
C94
330
C92
100
AcDbEntity
  8
0
  6
Continuous
 62
     7
100
AcDbCircle
 10
0.0
 20
0.0
 30
0.0
 40
0.5
  0
LINE
  5
C95
330
C92
100
AcDbEntity
  8
0
  6
Continuous
 62
     7
100
AcDbLine
 10
-0.5
 20
0.0
 30
0.0
 11
-1.0
 21
0.0
 31
0.0
  0
ENDBLK
  5
C96
330
C92
100
AcDbEntity
  8
0
100
AcDbBlockEnd
  0
BLOCK
  5
133F
330
133D
100
AcDbEntity
  8
0
100
AcDbBlockBegin
  2
GENAXEH
 70
     0
 10
0.0
 20
0.0
 30
0.0
  3
GENAXEH
  1

  0
LINE
  5
133E
330
133D
100
AcDbEntity
  8
0
100
AcDbLine
 10
-1.0
 20
0.0
 30
0.0
 11
1.0
 21
0.0
 31
0.0
  0
ENDBLK
  5
1340
330
133D
100
AcDbEntity
  8
0
100
AcDbBlockEnd
  0
BLOCK
  5
15DE
330
15DD
100
AcDbEntity
  8
0
100
AcDbBlockBegin
  2
*D10
 70
     1
 10
0.0
 20
0.0
 30
0.0
  3
*D10
  1

  0
LINE
  5
15E0
330
15DD
100
AcDbEntity
  8
SIZE
 62
     0
370
    -2
100
AcDbLine
 10
994.4274373545963
 20
-601.39918749251
 30
0.0
 11
994.4274373545963
 21
-496.9649011365581
 31
0.0
  0
LINE
  5
15E1
330
15DD
100
AcDbEntity
  8
SIZE
 62
     0
370
    -2
100
AcDbLine
 10
1870.427437354599
 20
-601.39918749251
 30
0.0
 11
1870.427437354599
 21
-496.9649011365581
 31
0.0
  0
LINE
  5
15E2
330
15DD
100
AcDbEntity
  8
SIZE
 62
     0
370
    -2
100
AcDbLine
 10
1014.427437354596
 20
-506.9649011365583
 30
0.0
 11
1850.427437354599
 21
-506.9649011365583
 31
0.0
  0
INSERT
  5
15E3
330
15DD
100
AcDbEntity
  8
SIZE
 62
     0
370
    -2
100
AcDbBlockReference
  2
_OPEN30
 10
994.4274373545963
 20
-506.9649011365583
 30
0.0
 41
20.0
 42
20.0
 43
20.0
 50
180.0
  0
INSERT
  5
15E4
330
15DD
100
AcDbEntity
  8
SIZE
 62
     0
370
    -2
100
AcDbBlockReference
  2
_OPEN30
 10
1870.427437354599
 20
-506.9649011365583
 30
0.0
 41
20.0
 42
20.0
 43
20.0
  0
MTEXT
  5
15E5
330
15DD
100
AcDbEntity
  8
SIZE
 62
     0
100
AcDbMText
 10
1432.427437354597
 20
-486.9649011365583
 30
0.0
 40
20.0
 41
0.0
 71
     5
 72
     1
  1
\A1;876
 73
     1
 44
1.0
1001
ACAD
1000
MTEXTBEGIN
1070
    73
1070
     1
1070
    44
1040
1.0
1070
    74
1070
     0
1000
MTEXTEND
  0
POINT
  5
15E6
330
15DD
100
AcDbEntity
  8
Defpoints
 62
     0
100
AcDbPoint
 10
994.4274373545963
 20
-611.3991874925098
 30
0.0
  0
POINT
  5
15E7
330
15DD
100
AcDbEntity
  8
Defpoints
 62
     0
100
AcDbPoint
 10
1870.427437354599
 20
-611.3991874925098
 30
0.0
  0
POINT
  5
15E8
330
15DD
100
AcDbEntity
  8
Defpoints
 62
     0
100
AcDbPoint
 10
1870.427437354599
 20
-506.9649011365583
 30
0.0
  0
ENDBLK
  5
15DF
330
15DD
100
AcDbEntity
  8
0
100
AcDbBlockEnd
  0
BLOCK
  5
15EB
330
15EA
100
AcDbEntity
  8
0
100
AcDbBlockBegin
  2
*D11
 70
     1
 10
0.0
 20
0.0
 30
0.0
  3
*D11
  1

  0
LINE
  5
15ED
330
15EA
100
AcDbEntity
  8
SIZE
 62
     0
370
    -2
100
AcDbLine
 10
976.4274373545964
 20
-601.89918749251
 30
0.0
 11
976.4274373545964
 21
-456.8316133035627
 31
0.0
  0
LINE
  5
15EE
330
15EA
100
AcDbEntity
  8
SIZE
 62
     0
370
    -2
100
AcDbLine
 10
1888.427437354597
 20
-601.89918749251
 30
0.0
 11
1888.427437354597
 21
-456.8316133035627
 31
0.0
  0
LINE
  5
15EF
330
15EA
100
AcDbEntity
  8
SIZE
 62
     0
370
    -2
100
AcDbLine
 10
996.4274373545963
 20
-466.8316133035624
 30
0.0
 11
1868.427437354597
 21
-466.8316133035624
 31
0.0
  0
INSERT
  5
15F0
330
15EA
100
AcDbEntity
  8
SIZE
 62
     0
370
    -2
100
AcDbBlockReference
  2
_OPEN30
 10
976.4274373545964
 20
-466.8316133035624
 30
0.0
 41
20.0
 42
20.0
 43
20.0
 50
180.0
  0
INSERT
  5
15F1
330
15EA
100
AcDbEntity
  8
SIZE
 62
     0
370
    -2
100
AcDbBlockReference
  2
_OPEN30
 10
1888.427437354597
 20
-466.8316133035624
 30
0.0
 41
20.0
 42
20.0
 43
20.0
  0
MTEXT
  5
15F2
330
15EA
100
AcDbEntity
  8
SIZE
 62
     0
100
AcDbMText
 10
1432.427437354597
 20
-446.8316133035626
 30
0.0
 40
20.0
 41
0.0
 71
     5
 72
     1
  1
\A1;912
 73
     1
 44
1.0
1001
ACAD
1000
MTEXTBEGIN
1070
    73
1070
     1
1070
    44
1040
1.0
1070
    74
1070
     0
1000
MTEXTEND
  0
POINT
  5
15F3
330
15EA
100
AcDbEntity
  8
Defpoints
 62
     0
100
AcDbPoint
 10
976.4274373545964
 20
-611.89918749251
 30
0.0
  0
POINT
  5
15F4
330
15EA
100
AcDbEntity
  8
Defpoints
 62
     0
100
AcDbPoint
 10
1888.427437354597
 20
-611.89918749251
 30
0.0
  0
POINT
  5
15F5
330
15EA
100
AcDbEntity
  8
Defpoints
 62
     0
100
AcDbPoint
 10
1888.427437354597
 20
-466.8316133035624
 30
0.0
  0
ENDBLK
  5
15EC
330
15EA
100
AcDbEntity
  8
0
100
AcDbBlockEnd
  0
BLOCK
  5
15F8
330
15F7
100
AcDbEntity
  8
0
100
AcDbBlockBegin
  2
*D12
 70
     1
 10
0.0
 20
0.0
 30
0.0
  3
*D12
  1

  0
LINE
  5
15FA
330
15F7
100
AcDbEntity
  8
SIZE
 62
     0
370
    -2
100
AcDbLine
 10
970.9274373545964
 20
-624.89918749251
 30
0.0
 11
927.4389743145887
 21
-624.89918749251
 31
0.0
  0
LINE
  5
15FB
330
15F7
100
AcDbEntity
  8
SIZE
 62
     0
370
    -2
100
AcDbLine
 10
970.9274373545964
 20
-774.8991874925097
 30
0.0
 11
927.4389743145887
 21
-774.8991874925097
 31
0.0
  0
LINE
  5
15FC
330
15F7
100
AcDbEntity
  8
SIZE
 62
     0
370
    -2
100
AcDbLine
 10
937.4389743145892
 20
-644.8991874925098
 30
0.0
 11
937.4389743145892
 21
-754.8991874925099
 31
0.0
  0
INSERT
  5
15FD
330
15F7
100
AcDbEntity
  8
SIZE
 62
     0
370
    -2
100
AcDbBlockReference
  2
_OPEN30
 10
937.4389743145892
 20
-624.89918749251
 30
0.0
 41
20.0
 42
20.0
 43
20.0
 50
90.0
  0
INSERT
  5
15FE
330
15F7
100
AcDbEntity
  8
SIZE
 62
     0
370
    -2
100
AcDbBlockReference
  2
_OPEN30
 10
937.4389743145888
 20
-774.8991874925097
 30
0.0
 41
20.0
 42
20.0
 43
20.0
 50
270.0
  0
MTEXT
  5
15FF
330
15F7
100
AcDbEntity
  8
SIZE
 62
     0
100
AcDbMText
 10
917.4389743145892
 20
-699.8991874925097
 30
0.0
 40
20.0
 41
0.0
 71
     5
 72
     1
  1
\A1;150
 11
0.0000000000000001
 21
1.0
 31
0.0
 73
     1
 44
1.0
1001
ACAD
1000
MTEXTBEGIN
1070
    73
1070
     1
1070
    44
1040
1.0
1070
    74
1070
     0
1000
MTEXTEND
  0
POINT
  5
1600
330
15F7
100
AcDbEntity
  8
Defpoints
 62
     0
100
AcDbPoint
 10
980.9274373545964
 20
-624.89918749251
 30
0.0
  0
POINT
  5
1601
330
15F7
100
AcDbEntity
  8
Defpoints
 62
     0
100
AcDbPoint
 10
980.9274373545964
 20
-774.8991874925097
 30
0.0
  0
POINT
  5
1602
330
15F7
100
AcDbEntity
  8
Defpoints
 62
     0
100
AcDbPoint
 10
937.4389743145888
 20
-774.8991874925097
 30
0.0
  0
ENDBLK
  5
15F9
330
15F7
100
AcDbEntity
  8
0
100
AcDbBlockEnd
  0
BLOCK
  5
1605
330
1604
100
AcDbEntity
  8
0
100
AcDbBlockBegin
  2
*D13
 70
     1
 10
0.0
 20
0.0
 30
0.0
  3
*D13
  1

  0
LINE
  5
162A
330
1604
100
AcDbEntity
  8
SIZE
 62
     0
370
    -2
100
AcDbLine
 10
970.9274373545964
 20
-774.8991874925097
 30
0.0
 11
927.4389743145887
 21
-774.8991874925097
 31
0.0
  0
LINE
  5
162B
330
1604
100
AcDbEntity
  8
SIZE
 62
     0
370
    -2
100
AcDbLine
 10
953.4287393207524
 20
-924.8991874925101
 30
0.0
 11
927.4389743145887
 21
-924.8991874925101
 31
0.0
  0
LINE
  5
162C
330
1604
100
AcDbEntity
  8
SIZE
 62
     0
370
    -2
100
AcDbLine
 10
937.4389743145888
 20
-794.8991874925098
 30
0.0
 11
937.4389743145888
 21
-904.8991874925098
 31
0.0
  0
INSERT
  5
162D
330
1604
100
AcDbEntity
  8
SIZE
 62
     0
370
    -2
100
AcDbBlockReference
  2
_OPEN30
 10
937.4389743145888
 20
-774.8991874925097
 30
0.0
 41
20.0
 42
20.0
 43
20.0
 50
90.0
  0
INSERT
  5
162E
330
1604
100
AcDbEntity
  8
SIZE
 62
     0
370
    -2
100
AcDbBlockReference
  2
_OPEN30
 10
937.4389743145888
 20
-924.8991874925101
 30
0.0
 41
20.0
 42
20.0
 43
20.0
 50
270.0
  0
MTEXT
  5
162F
330
1604
100
AcDbEntity
  8
SIZE
 62
     0
100
AcDbMText
 10
917.4389743145892
 20
-849.8991874925097
 30
0.0
 40
20.0
 41
0.0
 71
     5
 72
     1
  1
\A1;150
 11
0.0000000000000001
 21
1.0
 31
0.0
 73
     1
 44
1.0
1001
ACAD
1000
MTEXTBEGIN
1070
    73
1070
     1
1070
    44
1040
1.0
1070
    74
1070
     0
1000
MTEXTEND
  0
POINT
  5
1630
330
1604
100
AcDbEntity
  8
Defpoints
 62
     0
100
AcDbPoint
 10
980.9274373545964
 20
-774.8991874925097
 30
0.0
  0
POINT
  5
1631
330
1604
100
AcDbEntity
  8
Defpoints
 62
     0
100
AcDbPoint
 10
963.4287393207523
 20
-924.8991874925101
 30
0.0
  0
POINT
  5
1632
330
1604
100
AcDbEntity
  8
Defpoints
 62
     0
100
AcDbPoint
 10
937.4389743145888
 20
-924.8991874925101
 30
0.0
  0
ENDBLK
  5
1606
330
1604
100
AcDbEntity
  8
0
100
AcDbBlockEnd
  0
BLOCK
  5
1612
330
1611
100
AcDbEntity
  8
0
100
AcDbBlockBegin
  2
*D14
 70
     1
 10
0.0
 20
0.0
 30
0.0
  3
*D14
  1

  0
LINE
  5
1633
330
1611
100
AcDbEntity
  8
SIZE
 62
     0
370
    -2
100
AcDbLine
 10
953.4287393207524
 20
-924.8991874925101
 30
0.0
 11
927.4389743145887
 21
-924.8991874925101
 31
0.0
  0
LINE
  5
1634
330
1611
100
AcDbEntity
  8
SIZE
 62
     0
370
    -2
100
AcDbLine
 10
970.9274373545964
 20
-1074.89918749251
 30
0.0
 11
927.4389743145887
 21
-1074.89918749251
 31
0.0
  0
LINE
  5
1635
330
1611
100
AcDbEntity
  8
SIZE
 62
     0
370
    -2
100
AcDbLine
 10
937.4389743145888
 20
-944.8991874925097
 30
0.0
 11
937.4389743145888
 21
-1054.89918749251
 31
0.0
  0
INSERT
  5
1636
330
1611
100
AcDbEntity
  8
SIZE
 62
     0
370
    -2
100
AcDbBlockReference
  2
_OPEN30
 10
937.4389743145888
 20
-924.8991874925101
 30
0.0
 41
20.0
 42
20.0
 43
20.0
 50
90.0
  0
INSERT
  5
1637
330
1611
100
AcDbEntity
  8
SIZE
 62
     0
370
    -2
100
AcDbBlockReference
  2
_OPEN30
 10
937.4389743145888
 20
-1074.89918749251
 30
0.0
 41
20.0
 42
20.0
 43
20.0
 50
270.0
  0
MTEXT
  5
1638
330
1611
100
AcDbEntity
  8
SIZE
 62
     0
100
AcDbMText
 10
917.4389743145892
 20
-999.8991874925096
 30
0.0
 40
20.0
 41
0.0
 71
     5
 72
     1
  1
\A1;150
 11
0.0000000000000001
 21
1.0
 31
0.0
 73
     1
 44
1.0
1001
ACAD
1000
MTEXTBEGIN
1070
    73
1070
     1
1070
    44
1040
1.0
1070
    74
1070
     0
1000
MTEXTEND
  0
POINT
  5
1639
330
1611
100
AcDbEntity
  8
Defpoints
 62
     0
100
AcDbPoint
 10
963.4287393207523
 20
-924.8991874925101
 30
0.0
  0
POINT
  5
163A
330
1611
100
AcDbEntity
  8
Defpoints
 62
     0
100
AcDbPoint
 10
980.9274373545964
 20
-1074.89918749251
 30
0.0
  0
POINT
  5
163B
330
1611
100
AcDbEntity
  8
Defpoints
 62
     0
100
AcDbPoint
 10
937.4389743145888
 20
-1074.89918749251
 30
0.0
  0
ENDBLK
  5
1613
330
1611
100
AcDbEntity
  8
0
100
AcDbBlockEnd
  0
BLOCK
  5
161F
330
161E
100
AcDbEntity
  8
0
100
AcDbBlockBegin
  2
*D15
 70
     1
 10
0.0
 20
0.0
 30
0.0
  3
*D15
  1

  0
LINE
  5
163C
330
161E
100
AcDbEntity
  8
SIZE
 62
     0
370
    -2
100
AcDbLine
 10
970.9274373545964
 20
-1074.89918749251
 30
0.0
 11
927.4389743145887
 21
-1074.89918749251
 31
0.0
  0
LINE
  5
163D
330
161E
100
AcDbEntity
  8
SIZE
 62
     0
370
    -2
100
AcDbLine
 10
970.9274373545964
 20
-1224.89918749251
 30
0.0
 11
927.4389743145887
 21
-1224.89918749251
 31
0.0
  0
LINE
  5
163E
330
161E
100
AcDbEntity
  8
SIZE
 62
     0
370
    -2
100
AcDbLine
 10
937.4389743145888
 20
-1094.89918749251
 30
0.0
 11
937.4389743145888
 21
-1204.89918749251
 31
0.0
  0
INSERT
  5
163F
330
161E
100
AcDbEntity
  8
SIZE
 62
     0
370
    -2
100
AcDbBlockReference
  2
_OPEN30
 10
937.4389743145888
 20
-1074.89918749251
 30
0.0
 41
20.0
 42
20.0
 43
20.0
 50
90.0
  0
INSERT
  5
1640
330
161E
100
AcDbEntity
  8
SIZE
 62
     0
370
    -2
100
AcDbBlockReference
  2
_OPEN30
 10
937.4389743145888
 20
-1224.89918749251
 30
0.0
 41
20.0
 42
20.0
 43
20.0
 50
270.0
  0
MTEXT
  5
1641
330
161E
100
AcDbEntity
  8
SIZE
 62
     0
100
AcDbMText
 10
917.4389743145892
 20
-1149.899187492509
 30
0.0
 40
20.0
 41
0.0
 71
     5
 72
     1
  1
\A1;150
 11
0.0000000000000001
 21
1.0
 31
0.0
 73
     1
 44
1.0
1001
ACAD
1000
MTEXTBEGIN
1070
    73
1070
     1
1070
    44
1040
1.0
1070
    74
1070
     0
1000
MTEXTEND
  0
POINT
  5
1642
330
161E
100
AcDbEntity
  8
Defpoints
 62
     0
100
AcDbPoint
 10
980.9274373545964
 20
-1074.89918749251
 30
0.0
  0
POINT
  5
1643
330
161E
100
AcDbEntity
  8
Defpoints
 62
     0
100
AcDbPoint
 10
980.9274373545964
 20
-1224.89918749251
 30
0.0
  0
POINT
  5
1644
330
161E
100
AcDbEntity
  8
Defpoints
 62
     0
100
AcDbPoint
 10
937.4389743145888
 20
-1224.89918749251
 30
0.0
  0
ENDBLK
  5
1620
330
161E
100
AcDbEntity
  8
0
100
AcDbBlockEnd
  0
BLOCK
  5
1647
330
1646
100
AcDbEntity
  8
0
100
AcDbBlockBegin
  2
*D16
 70
     1
 10
0.0
 20
0.0
 30
0.0
  3
*D16
  1

  0
LINE
  5
174B
330
1646
100
AcDbEntity
  8
SIZE
 62
     0
370
    -2
100
AcDbLine
 10
1029.927437354596
 20
-1291.899187492503
 30
0.0
 11
877.332253841971
 21
-1291.899187492503
 31
0.0
  0
LINE
  5
174C
330
1646
100
AcDbEntity
  8
SIZE
 62
     0
370
    -2
100
AcDbLine
 10
1029.927437354597
 20
-557.8991874925033
 30
0.0
 11
877.3322538419712
 21
-557.8991874925033
 31
0.0
  0
LINE
  5
174D
330
1646
100
AcDbEntity
  8
SIZE
 62
     0
370
    -2
100
AcDbLine
 10
887.3322538419712
 20
-1271.899187492503
 30
0.0
 11
887.3322538419712
 21
-577.8991874925033
 31
0.0
  0
INSERT
  5
174E
330
1646
100
AcDbEntity
  8
SIZE
 62
     0
370
    -2
100
AcDbBlockReference
  2
_OPEN30
 10
887.332253841971
 20
-1291.899187492503
 30
0.0
 41
20.0
 42
20.0
 43
20.0
 50
270.0
  0
INSERT
  5
174F
330
1646
100
AcDbEntity
  8
SIZE
 62
     0
370
    -2
100
AcDbBlockReference
  2
_OPEN30
 10
887.3322538419712
 20
-557.8991874925033
 30
0.0
 41
20.0
 42
20.0
 43
20.0
 50
90.0
  0
MTEXT
  5
1750
330
1646
100
AcDbEntity
  8
SIZE
 62
     0
100
AcDbMText
 10
867.3322538419713
 20
-924.899187492503
 30
0.0
 40
20.0
 41
0.0
 71
     5
 72
     1
  1
\A1;734
 11
0.0000000000000001
 21
1.0
 31
0.0
 73
     1
 44
1.0
1001
ACAD
1000
MTEXTBEGIN
1070
    73
1070
     1
1070
    44
1040
1.0
1070
    74
1070
     0
1000
MTEXTEND
  0
POINT
  5
1751
330
1646
100
AcDbEntity
  8
Defpoints
 62
     0
100
AcDbPoint
 10
1039.927437354596
 20
-1291.899187492503
 30
0.0
  0
POINT
  5
1752
330
1646
100
AcDbEntity
  8
Defpoints
 62
     0
100
AcDbPoint
 10
1039.927437354597
 20
-557.8991874925033
 30
0.0
  0
POINT
  5
1753
330
1646
100
AcDbEntity
  8
Defpoints
 62
     0
100
AcDbPoint
 10
887.3322538419712
 20
-557.8991874925033
 30
0.0
  0
ENDBLK
  5
1648
330
1646
100
AcDbEntity
  8
0
100
AcDbBlockEnd
  0
BLOCK
  5
1FD9
330
1FD8
100
AcDbEntity
  8
0
100
AcDbBlockBegin
  2
*D17
 70
     1
 10
0.0
 20
0.0
 30
0.0
  3
*D17
  1

  0
LINE
  5
1FDB
330
1FD8
100
AcDbEntity
  8
SIZE
 62
     0
370
    -2
100
AcDbLine
 10
2466.135223066364
 20
-601.3991922930123
 30
0.0
 11
2466.135223066364
 21
-490.3263067077124
 31
0.0
  0
LINE
  5
1FDC
330
1FD8
100
AcDbEntity
  8
SIZE
 62
     0
370
    -2
100
AcDbLine
 10
3297.135223066371
 20
-601.3991922930123
 30
0.0
 11
3297.135223066371
 21
-490.3263067077124
 31
0.0
  0
LINE
  5
1FDD
330
1FD8
100
AcDbEntity
  8
SIZE
 62
     0
370
    -2
100
AcDbLine
 10
2486.135223066364
 20
-500.3263067077123
 30
0.0
 11
3277.135223066371
 21
-500.3263067077123
 31
0.0
  0
INSERT
  5
1FDE
330
1FD8
100
AcDbEntity
  8
SIZE
 62
     0
370
    -2
100
AcDbBlockReference
  2
_OPEN30
 10
2466.135223066364
 20
-500.3263067077123
 30
0.0
 41
20.0
 42
20.0
 43
20.0
 50
180.0
  0
INSERT
  5
1FDF
330
1FD8
100
AcDbEntity
  8
SIZE
 62
     0
370
    -2
100
AcDbBlockReference
  2
_OPEN30
 10
3297.135223066371
 20
-500.3263067077123
 30
0.0
 41
20.0
 42
20.0
 43
20.0
  0
MTEXT
  5
1FE0
330
1FD8
100
AcDbEntity
  8
SIZE
 62
     0
100
AcDbMText
 10
2881.635223066368
 20
-480.3263067077123
 30
0.0
 40
20.0
 41
0.0
 71
     5
 72
     1
  1
\A1;831
 73
     1
 44
1.0
1001
ACAD
1000
MTEXTBEGIN
1070
    73
1070
     1
1070
    44
1040
1.0
1070
    74
1070
     0
1000
MTEXTEND
  0
POINT
  5
1FE1
330
1FD8
100
AcDbEntity
  8
Defpoints
 62
     0
100
AcDbPoint
 10
2466.135223066364
 20
-611.3991922930123
 30
0.0
  0
POINT
  5
1FE2
330
1FD8
100
AcDbEntity
  8
Defpoints
 62
     0
100
AcDbPoint
 10
3297.135223066371
 20
-611.3991922930123
 30
0.0
  0
POINT
  5
1FE3
330
1FD8
100
AcDbEntity
  8
Defpoints
 62
     0
100
AcDbPoint
 10
3297.135223066371
 20
-500.3263067077123
 30
0.0
  0
ENDBLK
  5
1FDA
330
1FD8
100
AcDbEntity
  8
0
100
AcDbBlockEnd
  0
BLOCK
  5
1FE6
330
1FE5
100
AcDbEntity
  8
0
100
AcDbBlockBegin
  2
*D18
 70
     1
 10
0.0
 20
0.0
 30
0.0
  3
*D18
  1

  0
LINE
  5
2019
330
1FE5
100
AcDbEntity
  8
SIZE
 62
     0
370
    -2
100
AcDbLine
 10
3297.135223066371
 20
-601.3991922930123
 30
0.0
 11
3297.135223066371
 21
-490.3263067077124
 31
0.0
  0
LINE
  5
201A
330
1FE5
100
AcDbEntity
  8
SIZE
 62
     0
370
    -2
100
AcDbLine
 10
3346.135223066357
 20
-601.3991922917066
 30
0.0
 11
3346.135223066357
 21
-490.3263067077124
 31
0.0
  0
LINE
  5
201B
330
1FE5
100
AcDbEntity
  8
SIZE
 62
     0
370
    -2
100
AcDbLine
 10
3277.135223066371
 20
-500.3263067077123
 30
0.0
 11
3257.135223066371
 21
-500.3263067077123
 31
0.0
  0
LINE
  5
201C
330
1FE5
100
AcDbEntity
  8
SIZE
 62
     0
370
    -2
100
AcDbLine
 10
3366.135223066356
 20
-500.3263067077123
 30
0.0
 11
3386.135223066356
 21
-500.3263067077123
 31
0.0
  0
LINE
  5
201D
330
1FE5
100
AcDbEntity
  8
SIZE
 62
     0
370
    -2
100
AcDbLine
 10
3297.135223066371
 20
-500.3263067077123
 30
0.0
 11
3346.135223066357
 21
-500.3263067077123
 31
0.0
  0
INSERT
  5
201E
330
1FE5
100
AcDbEntity
  8
SIZE
 62
     0
370
    -2
100
AcDbBlockReference
  2
_OPEN30
 10
3297.135223066371
 20
-500.3263067077123
 30
0.0
 41
20.0
 42
20.0
 43
20.0
  0
INSERT
  5
201F
330
1FE5
100
AcDbEntity
  8
SIZE
 62
     0
370
    -2
100
AcDbBlockReference
  2
_OPEN30
 10
3346.135223066357
 20
-500.3263067077123
 30
0.0
 41
20.0
 42
20.0
 43
20.0
 50
180.0
  0
MTEXT
  5
2020
330
1FE5
100
AcDbEntity
  8
SIZE
 62
     0
100
AcDbMText
 10
3321.635223066363
 20
-480.3263067077123
 30
0.0
 40
20.0
 41
0.0
 71
     5
 72
     1
  1
\A1;49
 73
     1
 44
1.0
1001
ACAD
1000
MTEXTBEGIN
1070
    73
1070
     1
1070
    44
1040
1.0
1070
    74
1070
     0
1000
MTEXTEND
  0
POINT
  5
2021
330
1FE5
100
AcDbEntity
  8
Defpoints
 62
     0
100
AcDbPoint
 10
3297.135223066371
 20
-611.3991922930123
 30
0.0
  0
POINT
  5
2022
330
1FE5
100
AcDbEntity
  8
Defpoints
 62
     0
100
AcDbPoint
 10
3346.135223066357
 20
-611.3991922917066
 30
0.0
  0
POINT
  5
2023
330
1FE5
100
AcDbEntity
  8
Defpoints
 62
     0
100
AcDbPoint
 10
3346.135223066357
 20
-500.3263067077123
 30
0.0
  0
ENDBLK
  5
1FE7
330
1FE5
100
AcDbEntity
  8
0
100
AcDbBlockEnd
  0
BLOCK
  5
1FF8
330
1FF7
100
AcDbEntity
  8
0
100
AcDbBlockBegin
  2
*D19
 70
     1
 10
0.0
 20
0.0
 30
0.0
  3
*D19
  1

  0
LINE
  5
1FFA
330
1FF7
100
AcDbEntity
  8
SIZE
 62
     0
370
    -2
100
AcDbLine
 10
3346.135223066357
 20
-601.3991922917066
 30
0.0
 11
3346.135223066357
 21
-490.3263067077124
 31
0.0
  0
LINE
  5
1FFB
330
1FF7
100
AcDbEntity
  8
SIZE
 62
     0
370
    -2
100
AcDbLine
 10
4177.135223066367
 20
-601.3991922917064
 30
0.0
 11
4177.135223066367
 21
-490.3263067077124
 31
0.0
  0
LINE
  5
1FFC
330
1FF7
100
AcDbEntity
  8
SIZE
 62
     0
370
    -2
100
AcDbLine
 10
3366.135223066356
 20
-500.3263067077123
 30
0.0
 11
4157.135223066367
 21
-500.3263067077123
 31
0.0
  0
INSERT
  5
1FFD
330
1FF7
100
AcDbEntity
  8
SIZE
 62
     0
370
    -2
100
AcDbBlockReference
  2
_OPEN30
 10
3346.135223066357
 20
-500.3263067077123
 30
0.0
 41
20.0
 42
20.0
 43
20.0
 50
180.0
  0
INSERT
  5
1FFE
330
1FF7
100
AcDbEntity
  8
SIZE
 62
     0
370
    -2
100
AcDbBlockReference
  2
_OPEN30
 10
4177.135223066367
 20
-500.3263067077123
 30
0.0
 41
20.0
 42
20.0
 43
20.0
  0
MTEXT
  5
1FFF
330
1FF7
100
AcDbEntity
  8
SIZE
 62
     0
100
AcDbMText
 10
3761.635223066362
 20
-480.3263067077123
 30
0.0
 40
20.0
 41
0.0
 71
     5
 72
     1
  1
\A1;831
 73
     1
 44
1.0
1001
ACAD
1000
MTEXTBEGIN
1070
    73
1070
     1
1070
    44
1040
1.0
1070
    74
1070
     0
1000
MTEXTEND
  0
POINT
  5
2000
330
1FF7
100
AcDbEntity
  8
Defpoints
 62
     0
100
AcDbPoint
 10
3346.135223066357
 20
-611.3991922917066
 30
0.0
  0
POINT
  5
2001
330
1FF7
100
AcDbEntity
  8
Defpoints
 62
     0
100
AcDbPoint
 10
4177.135223066367
 20
-611.3991922917064
 30
0.0
  0
POINT
  5
2002
330
1FF7
100
AcDbEntity
  8
Defpoints
 62
     0
100
AcDbPoint
 10
4177.135223066367
 20
-500.3263067077123
 30
0.0
  0
ENDBLK
  5
1FF9
330
1FF7
100
AcDbEntity
  8
0
100
AcDbBlockEnd
  0
BLOCK
  5
2026
330
2025
100
AcDbEntity
  8
0
100
AcDbBlockBegin
  2
*D20
 70
     1
 10
0.0
 20
0.0
 30
0.0
  3
*D20
  1

  0
LINE
  5
203A
330
2025
100
AcDbEntity
  8
SIZE
 62
     0
370
    -2
100
AcDbLine
 10
2449.635223066366
 20
-601.8991922930126
 30
0.0
 11
2449.635223066366
 21
-449.9370362518513
 31
0.0
  0
LINE
  5
203B
330
2025
100
AcDbEntity
  8
SIZE
 62
     0
370
    -2
100
AcDbLine
 10
4193.635223066368
 20
-601.8991922930126
 30
0.0
 11
4193.635223066368
 21
-449.9370362518513
 31
0.0
  0
LINE
  5
203C
330
2025
100
AcDbEntity
  8
SIZE
 62
     0
370
    -2
100
AcDbLine
 10
2469.635223066366
 20
-459.9370362518513
 30
0.0
 11
4173.635223066368
 21
-459.9370362518513
 31
0.0
  0
INSERT
  5
203D
330
2025
100
AcDbEntity
  8
SIZE
 62
     0
370
    -2
100
AcDbBlockReference
  2
_OPEN30
 10
2449.635223066366
 20
-459.9370362518513
 30
0.0
 41
20.0
 42
20.0
 43
20.0
 50
180.0
  0
INSERT
  5
203E
330
2025
100
AcDbEntity
  8
SIZE
 62
     0
370
    -2
100
AcDbBlockReference
  2
_OPEN30
 10
4193.635223066368
 20
-459.9370362518513
 30
0.0
 41
20.0
 42
20.0
 43
20.0
  0
MTEXT
  5
203F
330
2025
100
AcDbEntity
  8
SIZE
 62
     0
100
AcDbMText
 10
3321.635223066368
 20
-439.9370362518513
 30
0.0
 40
20.0
 41
0.0
 71
     5
 72
     1
  1
\A1;1744
 73
     1
 44
1.0
1001
ACAD
1000
MTEXTBEGIN
1070
    73
1070
     1
1070
    44
1040
1.0
1070
    74
1070
     0
1000
MTEXTEND
  0
POINT
  5
2040
330
2025
100
AcDbEntity
  8
Defpoints
 62
     0
100
AcDbPoint
 10
2449.635223066366
 20
-611.8991922930128
 30
0.0
  0
POINT
  5
2041
330
2025
100
AcDbEntity
  8
Defpoints
 62
     0
100
AcDbPoint
 10
4193.635223066368
 20
-611.8991922930128
 30
0.0
  0
POINT
  5
2042
330
2025
100
AcDbEntity
  8
Defpoints
 62
     0
100
AcDbPoint
 10
4193.635223066368
 20
-459.9370362518513
 30
0.0
  0
ENDBLK
  5
2027
330
2025
100
AcDbEntity
  8
0
100
AcDbBlockEnd
  0
BLOCK
  5
2045
330
2044
100
AcDbEntity
  8
0
100
AcDbBlockBegin
  2
*D21
 70
     1
 10
0.0
 20
0.0
 30
0.0
  3
*D21
  1

  0
LINE
  5
2047
330
2044
100
AcDbEntity
  8
SIZE
 62
     0
370
    -2
100
AcDbLine
 10
2442.635223066365
 20
-624.8991922930123
 30
0.0
 11
2380.655241176427
 21
-624.8991922930123
 31
0.0
  0
LINE
  5
2048
330
2044
100
AcDbEntity
  8
SIZE
 62
     0
370
    -2
100
AcDbLine
 10
2442.635223066365
 20
-774.8991922930127
 30
0.0
 11
2380.655241176427
 21
-774.8991922930127
 31
0.0
  0
LINE
  5
2049
330
2044
100
AcDbEntity
  8
SIZE
 62
     0
370
    -2
100
AcDbLine
 10
2390.655241176427
 20
-644.8991922930123
 30
0.0
 11
2390.655241176427
 21
-754.8991922930126
 31
0.0
  0
INSERT
  5
204A
330
2044
100
AcDbEntity
  8
SIZE
 62
     0
370
    -2
100
AcDbBlockReference
  2
_OPEN30
 10
2390.655241176427
 20
-624.8991922930123
 30
0.0
 41
20.0
 42
20.0
 43
20.0
 50
90.0
  0
INSERT
  5
204B
330
2044
100
AcDbEntity
  8
SIZE
 62
     0
370
    -2
100
AcDbBlockReference
  2
_OPEN30
 10
2390.655241176427
 20
-774.8991922930127
 30
0.0
 41
20.0
 42
20.0
 43
20.0
 50
270.0
  0
MTEXT
  5
204C
330
2044
100
AcDbEntity
  8
SIZE
 62
     0
100
AcDbMText
 10
2370.655241176427
 20
-699.8991922930119
 30
0.0
 40
20.0
 41
0.0
 71
     5
 72
     1
  1
\A1;150
 11
0.0000000000000001
 21
1.0
 31
0.0
 73
     1
 44
1.0
1001
ACAD
1000
MTEXTBEGIN
1070
    73
1070
     1
1070
    44
1040
1.0
1070
    74
1070
     0
1000
MTEXTEND
  0
POINT
  5
204D
330
2044
100
AcDbEntity
  8
Defpoints
 62
     0
100
AcDbPoint
 10
2452.635223066364
 20
-624.8991922930123
 30
0.0
  0
POINT
  5
204E
330
2044
100
AcDbEntity
  8
Defpoints
 62
     0
100
AcDbPoint
 10
2452.635223066364
 20
-774.8991922930127
 30
0.0
  0
POINT
  5
204F
330
2044
100
AcDbEntity
  8
Defpoints
 62
     0
100
AcDbPoint
 10
2390.655241176427
 20
-774.8991922930127
 30
0.0
  0
ENDBLK
  5
2046
330
2044
100
AcDbEntity
  8
0
100
AcDbBlockEnd
  0
BLOCK
  5
2052
330
2051
100
AcDbEntity
  8
0
100
AcDbBlockBegin
  2
*D22
 70
     1
 10
0.0
 20
0.0
 30
0.0
  3
*D22
  1

  0
LINE
  5
2054
330
2051
100
AcDbEntity
  8
SIZE
 62
     0
370
    -2
100
AcDbLine
 10
2442.635223066365
 20
-774.8991922930127
 30
0.0
 11
2380.655241176427
 21
-774.8991922930127
 31
0.0
  0
LINE
  5
2055
330
2051
100
AcDbEntity
  8
SIZE
 62
     0
370
    -2
100
AcDbLine
 10
2414.589719653456
 20
-924.8991922930127
 30
0.0
 11
2380.655241176427
 21
-924.8991922930127
 31
0.0
  0
LINE
  5
2056
330
2051
100
AcDbEntity
  8
SIZE
 62
     0
370
    -2
100
AcDbLine
 10
2390.655241176427
 20
-794.8991922930127
 30
0.0
 11
2390.655241176427
 21
-904.8991922930126
 31
0.0
  0
INSERT
  5
2057
330
2051
100
AcDbEntity
  8
SIZE
 62
     0
370
    -2
100
AcDbBlockReference
  2
_OPEN30
 10
2390.655241176427
 20
-774.8991922930127
 30
0.0
 41
20.0
 42
20.0
 43
20.0
 50
90.0
  0
INSERT
  5
2058
330
2051
100
AcDbEntity
  8
SIZE
 62
     0
370
    -2
100
AcDbBlockReference
  2
_OPEN30
 10
2390.655241176427
 20
-924.8991922930127
 30
0.0
 41
20.0
 42
20.0
 43
20.0
 50
270.0
  0
MTEXT
  5
2059
330
2051
100
AcDbEntity
  8
SIZE
 62
     0
100
AcDbMText
 10
2370.655241176427
 20
-849.8991922930121
 30
0.0
 40
20.0
 41
0.0
 71
     5
 72
     1
  1
\A1;150
 11
0.0000000000000001
 21
1.0
 31
0.0
 73
     1
 44
1.0
1001
ACAD
1000
MTEXTBEGIN
1070
    73
1070
     1
1070
    44
1040
1.0
1070
    74
1070
     0
1000
MTEXTEND
  0
POINT
  5
205A
330
2051
100
AcDbEntity
  8
Defpoints
 62
     0
100
AcDbPoint
 10
2452.635223066364
 20
-774.8991922930127
 30
0.0
  0
POINT
  5
205B
330
2051
100
AcDbEntity
  8
Defpoints
 62
     0
100
AcDbPoint
 10
2424.589719653456
 20
-924.8991922930127
 30
0.0
  0
POINT
  5
205C
330
2051
100
AcDbEntity
  8
Defpoints
 62
     0
100
AcDbPoint
 10
2390.655241176427
 20
-924.8991922930127
 30
0.0
  0
ENDBLK
  5
2053
330
2051
100
AcDbEntity
  8
0
100
AcDbBlockEnd
  0
BLOCK
  5
205F
330
205E
100
AcDbEntity
  8
0
100
AcDbBlockBegin
  2
*D23
 70
     1
 10
0.0
 20
0.0
 30
0.0
  3
*D23
  1

  0
LINE
  5
2061
330
205E
100
AcDbEntity
  8
SIZE
 62
     0
370
    -2
100
AcDbLine
 10
2414.589719653456
 20
-924.8991922930127
 30
0.0
 11
2380.655241176427
 21
-924.8991922930127
 31
0.0
  0
LINE
  5
2062
330
205E
100
AcDbEntity
  8
SIZE
 62
     0
370
    -2
100
AcDbLine
 10
2442.635223066365
 20
-1074.899192293012
 30
0.0
 11
2380.655241176427
 21
-1074.899192293012
 31
0.0
  0
LINE
  5
2063
330
205E
100
AcDbEntity
  8
SIZE
 62
     0
370
    -2
100
AcDbLine
 10
2390.655241176427
 20
-944.899192293013
 30
0.0
 11
2390.655241176427
 21
-1054.899192293012
 31
0.0
  0
INSERT
  5
2064
330
205E
100
AcDbEntity
  8
SIZE
 62
     0
370
    -2
100
AcDbBlockReference
  2
_OPEN30
 10
2390.655241176427
 20
-924.8991922930127
 30
0.0
 41
20.0
 42
20.0
 43
20.0
 50
90.0
  0
INSERT
  5
2065
330
205E
100
AcDbEntity
  8
SIZE
 62
     0
370
    -2
100
AcDbBlockReference
  2
_OPEN30
 10
2390.655241176427
 20
-1074.899192293012
 30
0.0
 41
20.0
 42
20.0
 43
20.0
 50
270.0
  0
MTEXT
  5
2066
330
205E
100
AcDbEntity
  8
SIZE
 62
     0
100
AcDbMText
 10
2370.655241176427
 20
-999.8991922930123
 30
0.0
 40
20.0
 41
0.0
 71
     5
 72
     1
  1
\A1;150
 11
0.0000000000000001
 21
1.0
 31
0.0
 73
     1
 44
1.0
1001
ACAD
1000
MTEXTBEGIN
1070
    73
1070
     1
1070
    44
1040
1.0
1070
    74
1070
     0
1000
MTEXTEND
  0
POINT
  5
2067
330
205E
100
AcDbEntity
  8
Defpoints
 62
     0
100
AcDbPoint
 10
2424.589719653456
 20
-924.8991922930127
 30
0.0
  0
POINT
  5
2068
330
205E
100
AcDbEntity
  8
Defpoints
 62
     0
100
AcDbPoint
 10
2452.635223066364
 20
-1074.899192293012
 30
0.0
  0
POINT
  5
2069
330
205E
100
AcDbEntity
  8
Defpoints
 62
     0
100
AcDbPoint
 10
2390.655241176427
 20
-1074.899192293012
 30
0.0
  0
ENDBLK
  5
2060
330
205E
100
AcDbEntity
  8
0
100
AcDbBlockEnd
  0
BLOCK
  5
206C
330
206B
100
AcDbEntity
  8
0
100
AcDbBlockBegin
  2
*D24
 70
     1
 10
0.0
 20
0.0
 30
0.0
  3
*D24
  1

  0
LINE
  5
206E
330
206B
100
AcDbEntity
  8
SIZE
 62
     0
370
    -2
100
AcDbLine
 10
2442.635223066365
 20
-1074.899192293012
 30
0.0
 11
2380.655241176427
 21
-1074.899192293012
 31
0.0
  0
LINE
  5
206F
330
206B
100
AcDbEntity
  8
SIZE
 62
     0
370
    -2
100
AcDbLine
 10
2442.635223066365
 20
-1224.899192293012
 30
0.0
 11
2380.655241176427
 21
-1224.899192293012
 31
0.0
  0
LINE
  5
2070
330
206B
100
AcDbEntity
  8
SIZE
 62
     0
370
    -2
100
AcDbLine
 10
2390.655241176427
 20
-1094.899192293012
 30
0.0
 11
2390.655241176427
 21
-1204.899192293012
 31
0.0
  0
INSERT
  5
2071
330
206B
100
AcDbEntity
  8
SIZE
 62
     0
370
    -2
100
AcDbBlockReference
  2
_OPEN30
 10
2390.655241176427
 20
-1074.899192293012
 30
0.0
 41
20.0
 42
20.0
 43
20.0
 50
90.0
  0
INSERT
  5
2072
330
206B
100
AcDbEntity
  8
SIZE
 62
     0
370
    -2
100
AcDbBlockReference
  2
_OPEN30
 10
2390.655241176427
 20
-1224.899192293012
 30
0.0
 41
20.0
 42
20.0
 43
20.0
 50
270.0
  0
MTEXT
  5
2073
330
206B
100
AcDbEntity
  8
SIZE
 62
     0
100
AcDbMText
 10
2370.655241176427
 20
-1149.899192293012
 30
0.0
 40
20.0
 41
0.0
 71
     5
 72
     1
  1
\A1;150
 11
0.0000000000000001
 21
1.0
 31
0.0
 73
     1
 44
1.0
1001
ACAD
1000
MTEXTBEGIN
1070
    73
1070
     1
1070
    44
1040
1.0
1070
    74
1070
     0
1000
MTEXTEND
  0
POINT
  5
2074
330
206B
100
AcDbEntity
  8
Defpoints
 62
     0
100
AcDbPoint
 10
2452.635223066364
 20
-1074.899192293012
 30
0.0
  0
POINT
  5
2075
330
206B
100
AcDbEntity
  8
Defpoints
 62
     0
100
AcDbPoint
 10
2452.635223066364
 20
-1224.899192293012
 30
0.0
  0
POINT
  5
2076
330
206B
100
AcDbEntity
  8
Defpoints
 62
     0
100
AcDbPoint
 10
2390.655241176427
 20
-1224.899192293012
 30
0.0
  0
ENDBLK
  5
206D
330
206B
100
AcDbEntity
  8
0
100
AcDbBlockEnd
  0
BLOCK
  5
2079
330
2078
100
AcDbEntity
  8
0
100
AcDbBlockBegin
  2
*D25
 70
     1
 10
0.0
 20
0.0
 30
0.0
  3
*D25
  1

  0
LINE
  5
207B
330
2078
100
AcDbEntity
  8
SIZE
 62
     0
370
    -2
100
AcDbLine
 10
2497.63522306637
 20
-1291.899192293013
 30
0.0
 11
2330.685782408792
 21
-1291.899192293013
 31
0.0
  0
LINE
  5
207C
330
2078
100
AcDbEntity
  8
SIZE
 62
     0
370
    -2
100
AcDbLine
 10
2497.63522306637
 20
-557.8991922930127
 30
0.0
 11
2330.685782408793
 21
-557.8991922930127
 31
0.0
  0
LINE
  5
207D
330
2078
100
AcDbEntity
  8
SIZE
 62
     0
370
    -2
100
AcDbLine
 10
2340.685782408792
 20
-1271.899192293013
 30
0.0
 11
2340.685782408793
 21
-577.8991922930126
 31
0.0
  0
INSERT
  5
207E
330
2078
100
AcDbEntity
  8
SIZE
 62
     0
370
    -2
100
AcDbBlockReference
  2
_OPEN30
 10
2340.685782408792
 20
-1291.899192293013
 30
0.0
 41
20.0
 42
20.0
 43
20.0
 50
270.0
  0
INSERT
  5
207F
330
2078
100
AcDbEntity
  8
SIZE
 62
     0
370
    -2
100
AcDbBlockReference
  2
_OPEN30
 10
2340.685782408793
 20
-557.8991922930127
 30
0.0
 41
20.0
 42
20.0
 43
20.0
 50
90.0
  0
MTEXT
  5
2080
330
2078
100
AcDbEntity
  8
SIZE
 62
     0
100
AcDbMText
 10
2320.685782408793
 20
-924.8991922930123
 30
0.0
 40
20.0
 41
0.0
 71
     5
 72
     1
  1
\A1;734
 11
0.0000000000000001
 21
1.0
 31
0.0
 73
     1
 44
1.0
1001
ACAD
1000
MTEXTBEGIN
1070
    73
1070
     1
1070
    44
1040
1.0
1070
    74
1070
     0
1000
MTEXTEND
  0
POINT
  5
2081
330
2078
100
AcDbEntity
  8
Defpoints
 62
     0
100
AcDbPoint
 10
2507.63522306637
 20
-1291.899192293013
 30
0.0
  0
POINT
  5
2082
330
2078
100
AcDbEntity
  8
Defpoints
 62
     0
100
AcDbPoint
 10
2507.63522306637
 20
-557.8991922930127
 30
0.0
  0
POINT
  5
2083
330
2078
100
AcDbEntity
  8
Defpoints
 62
     0
100
AcDbPoint
 10
2340.685782408793
 20
-557.8991922930127
 30
0.0
  0
ENDBLK
  5
207A
330
2078
100
AcDbEntity
  8
0
100
AcDbBlockEnd
  0
ENDSEC
  0
SECTION
  2
ENTITIES
  0
MTEXT
  5
B60
330
2
100
AcDbEntity
  8
ETC
100
AcDbMText
 10
3067.742602778315
 20
-340.8611038143844
 30
0.0
 40
40.0
 41
651.9792552343242
 71
     1
 72
     5
  1
AG1S-KS77TD-6
 73
     1
 44
1.0
1001
ACAD
1000
MTEXTBEGIN
1070
    73
1070
     1
1070
    44
1040
1.0
1070
    74
1070
     0
1000
MTEXTEND
  0
LINE
  5
1D56
330
2
100
AcDbEntity
  8
NOTE
100
AcDbLine
 10
4176.635223066367
 20
-1224.899192291706
 30
0.0
 11
4177.635223066366
 21
-1224.899192291706
 31
0.0
  0
LINE
  5
1D57
330
2
100
AcDbEntity
  8
NOTE
100
AcDbLine
 10
4177.135223066367
 20
-1225.399192291706
 30
0.0
 11
4177.135223066367
 21
-1224.399192291706
 31
0.0
  0
LINE
  5
1D58
330
2
100
AcDbEntity
  8
NOTE
100
AcDbLine
 10
4163.635223066367
 20
-1224.899192291706
 30
0.0
 11
4175.635223066367
 21
-1224.899192291706
 31
0.0
  0
LINE
  5
1D59
330
2
100
AcDbEntity
  8
NOTE
100
AcDbLine
 10
4178.635223066367
 20
-1224.899192291706
 30
0.0
 11
4190.635223066367
 21
-1224.899192291706
 31
0.0
  0
LINE
  5
1D5A
330
2
100
AcDbEntity
  8
NOTE
100
AcDbLine
 10
4177.135223066367
 20
-1238.399192291706
 30
0.0
 11
4177.135223066367
 21
-1226.399192291706
 31
0.0
  0
LINE
  5
1D5B
330
2
100
AcDbEntity
  8
NOTE
100
AcDbLine
 10
4177.135223066367
 20
-1223.399192291706
 30
0.0
 11
4177.135223066367
 21
-1211.399192291706
 31
0.0
  0
LINE
  5
1D74
330
2
100
AcDbEntity
  8
NOTE
100
AcDbLine
 10
3345.635223066356
 20
-1224.899192291707
 30
0.0
 11
3346.635223066356
 21
-1224.899192291707
 31
0.0
  0
LINE
  5
1D75
330
2
100
AcDbEntity
  8
NOTE
100
AcDbLine
 10
3346.135223066357
 20
-1225.399192291707
 30
0.0
 11
3346.135223066357
 21
-1224.399192291707
 31
0.0
  0
LINE
  5
1D76
330
2
100
AcDbEntity
  8
NOTE
100
AcDbLine
 10
3332.635223066356
 20
-1224.899192291707
 30
0.0
 11
3344.635223066357
 21
-1224.899192291707
 31
0.0
  0
LINE
  5
1D77
330
2
100
AcDbEntity
  8
NOTE
100
AcDbLine
 10
3347.635223066356
 20
-1224.899192291707
 30
0.0
 11
3359.635223066356
 21
-1224.899192291707
 31
0.0
  0
LINE
  5
1D78
330
2
100
AcDbEntity
  8
NOTE
100
AcDbLine
 10
3346.135223066357
 20
-1238.399192291707
 30
0.0
 11
3346.135223066357
 21
-1226.399192291707
 31
0.0
  0
LINE
  5
1D79
330
2
100
AcDbEntity
  8
NOTE
100
AcDbLine
 10
3346.135223066357
 20
-1223.399192291707
 30
0.0
 11
3346.135223066357
 21
-1211.399192291707
 31
0.0
  0
LINE
  5
1D7A
330
2
100
AcDbEntity
  8
NOTE
100
AcDbLine
 10
3345.635223066356
 20
-624.8991922917066
 30
0.0
 11
3346.635223066356
 21
-624.8991922917066
 31
0.0
  0
LINE
  5
1D7B
330
2
100
AcDbEntity
  8
NOTE
100
AcDbLine
 10
3346.135223066357
 20
-625.3991922917066
 30
0.0
 11
3346.135223066357
 21
-624.3991922917066
 31
0.0
  0
LINE
  5
1D7C
330
2
100
AcDbEntity
  8
NOTE
100
AcDbLine
 10
3332.635223066356
 20
-624.8991922917066
 30
0.0
 11
3344.635223066357
 21
-624.8991922917066
 31
0.0
  0
LINE
  5
1D7D
330
2
100
AcDbEntity
  8
NOTE
100
AcDbLine
 10
3347.635223066356
 20
-624.8991922917066
 30
0.0
 11
3359.635223066356
 21
-624.8991922917066
 31
0.0
  0
LINE
  5
1D7E
330
2
100
AcDbEntity
  8
NOTE
100
AcDbLine
 10
3346.135223066357
 20
-638.3991922917066
 30
0.0
 11
3346.135223066357
 21
-626.3991922917066
 31
0.0
  0
LINE
  5
1D7F
330
2
100
AcDbEntity
  8
NOTE
100
AcDbLine
 10
3346.135223066357
 20
-623.3991922917066
 30
0.0
 11
3346.135223066357
 21
-611.3991922917066
 31
0.0
  0
LINE
  5
1D80
330
2
100
AcDbEntity
  8
NOTE
100
AcDbLine
 10
3296.635223066371
 20
-1224.89919229338
 30
0.0
 11
3297.635223066372
 21
-1224.89919229338
 31
0.0
  0
LINE
  5
1D81
330
2
100
AcDbEntity
  8
NOTE
100
AcDbLine
 10
3297.135223066371
 20
-1225.39919229338
 30
0.0
 11
3297.135223066371
 21
-1224.39919229338
 31
0.0
  0
LINE
  5
1D82
330
2
100
AcDbEntity
  8
NOTE
100
AcDbLine
 10
3283.635223066371
 20
-1224.89919229338
 30
0.0
 11
3295.635223066371
 21
-1224.89919229338
 31
0.0
  0
LINE
  5
1D83
330
2
100
AcDbEntity
  8
NOTE
100
AcDbLine
 10
3298.635223066372
 20
-1224.89919229338
 30
0.0
 11
3310.635223066371
 21
-1224.89919229338
 31
0.0
  0
LINE
  5
1D84
330
2
100
AcDbEntity
  8
NOTE
100
AcDbLine
 10
3297.135223066371
 20
-1238.39919229338
 30
0.0
 11
3297.135223066371
 21
-1226.39919229338
 31
0.0
  0
LINE
  5
1D85
330
2
100
AcDbEntity
  8
NOTE
100
AcDbLine
 10
3297.135223066371
 20
-1223.39919229338
 30
0.0
 11
3297.135223066371
 21
-1211.39919229338
 31
0.0
  0
LINE
  5
1D86
330
2
100
AcDbEntity
  8
NOTE
100
AcDbLine
 10
3296.635223066371
 20
-624.8991922933798
 30
0.0
 11
3297.635223066372
 21
-624.8991922933798
 31
0.0
  0
LINE
  5
1D87
330
2
100
AcDbEntity
  8
NOTE
100
AcDbLine
 10
3297.135223066371
 20
-625.3991922933797
 30
0.0
 11
3297.135223066371
 21
-624.3991922933799
 31
0.0
  0
LINE
  5
1D88
330
2
100
AcDbEntity
  8
NOTE
100
AcDbLine
 10
3283.635223066371
 20
-624.8991922933798
 30
0.0
 11
3295.635223066371
 21
-624.8991922933798
 31
0.0
  0
LINE
  5
1D89
330
2
100
AcDbEntity
  8
NOTE
100
AcDbLine
 10
3298.635223066372
 20
-624.8991922933798
 30
0.0
 11
3310.635223066371
 21
-624.8991922933798
 31
0.0
  0
LINE
  5
1D8A
330
2
100
AcDbEntity
  8
NOTE
100
AcDbLine
 10
3297.135223066371
 20
-638.3991922933797
 30
0.0
 11
3297.135223066371
 21
-626.3991922933797
 31
0.0
  0
LINE
  5
1D8B
330
2
100
AcDbEntity
  8
NOTE
100
AcDbLine
 10
3297.135223066371
 20
-623.3991922933799
 30
0.0
 11
3297.135223066371
 21
-611.3991922933799
 31
0.0
  0
ELLIPSE
  5
1DAE
330
2
100
AcDbEntity
  8
OUTLINE
100
AcDbEllipse
 10
2530.135223066371
 20
-922.628316562575
 30
0.0
 11
-2.049999999999998
 21
0.0
 31
0.0
210
0.0
220
0.0
230
1.0
 40
0.8657348311145279
 41
3.283070246190008
 42
6.14170771457937
  0
ELLIPSE
  5
1DAF
330
2
100
AcDbEntity
  8
OUTLINE
100
AcDbEllipse
 10
2715.135223066371
 20
-917.4339075758878
 30
0.0
 11
-2.049999999999998
 21
0.0
 31
0.0
210
0.0
220
0.0
230
1.0
 40
0.8657348311145279
 41
3.283070246189886
 42
6.141707714579491
  0
ELLIPSE
  5
1DB0
330
2
100
AcDbEntity
  8
OUTLINE
100
AcDbEllipse
 10
2900.135223066371
 20
-922.6283165625748
 30
0.0
 11
-2.049999999999998
 21
0.0
 31
0.0
210
0.0
220
0.0
230
1.0
 40
0.8657348311145279
 41
3.28307024618991
 42
6.141707714579467
  0
ELLIPSE
  5
1DB1
330
2
100
AcDbEntity
  8
OUTLINE
100
AcDbEllipse
 10
3085.135223066371
 20
-917.4339075758876
 30
0.0
 11
-2.049999999999998
 21
0.0
 31
0.0
210
0.0
220
0.0
230
1.0
 40
0.8657348311145279
 41
3.283070246189788
 42
6.14170771457959
  0
ELLIPSE
  5
1DB2
330
2
100
AcDbEntity
  8
OUTLINE
100
AcDbEllipse
 10
3270.135223066371
 20
-922.6283165625748
 30
0.0
 11
-2.049999999999998
 21
0.0
 31
0.0
210
0.0
220
0.0
230
1.0
 40
0.8657348311145279
 41
3.283070246189863
 42
6.141707714579516
  0
LINE
  5
1DB3
330
2
100
AcDbEntity
  8
OUTLINE
100
AcDbLine
 10
2483.635223066371
 20
-570.3688756664785
 30
0.0
 11
2478.635223066371
 21
-566.0402015109057
 31
0.0
  0
LINE
  5
1DB4
330
2
100
AcDbEntity
  8
OUTLINE
100
AcDbLine
 10
2478.635223066371
 20
-566.0402015109053
 30
0.0
 11
2478.635223066371
 21
-566.5407044601427
 31
0.0
  0
LINE
  5
1DB5
330
2
100
AcDbEntity
  8
OUTLINE
100
AcDbLine
 10
2478.635223066371
 20
-566.5407044601427
 30
0.0
 11
2483.635223066371
 21
-570.8693786157153
 31
0.0
  0
LINE
  5
1DB6
330
2
100
AcDbEntity
  8
OUTLINE
100
AcDbLine
 10
2483.635223066371
 20
-570.8693786157156
 30
0.0
 11
2483.635223066371
 21
-570.3688756664785
 31
0.0
  0
LINE
  5
1DB7
330
2
100
AcDbEntity
  8
OUTLINE
100
AcDbLine
 10
2507.63522306637
 20
-570.3688756664782
 30
0.0
 11
2483.635223066371
 21
-570.3688756664782
 31
0.0
  0
LINE
  5
1DB8
330
2
100
AcDbEntity
  8
OUTLINE
100
AcDbLine
 10
3291.635223066369
 20
-570.3688756664782
 30
0.0
 11
2508.635223066369
 21
-570.3688756664782
 31
0.0
  0
LINE
  5
1DB9
330
2
100
AcDbEntity
  8
OUTLINE
100
AcDbLine
 10
3316.63522306637
 20
-570.3688756664782
 30
0.0
 11
3292.63522306637
 21
-570.3688756664782
 31
0.0
  0
LINE
  5
1DBA
330
2
100
AcDbEntity
  8
OUTLINE
100
AcDbLine
 10
3321.635223066371
 20
-566.0402015109053
 30
0.0
 11
3316.63522306637
 21
-570.3688756664782
 31
0.0
  0
LINE
  5
1DBB
330
2
100
AcDbEntity
  8
OUTLINE
100
AcDbLine
 10
3321.635223066371
 20
-557.3828531997601
 30
0.0
 11
3321.635223066371
 21
-566.0402015109053
 31
0.0
  0
LINE
  5
1DBC
330
2
100
AcDbEntity
  8
OUTLINE
100
AcDbLine
 10
3321.635223066371
 20
-557.3828531997601
 30
0.0
 11
2478.635223066371
 21
-557.3828531997603
 31
0.0
  0
LINE
  5
1DBD
330
2
100
AcDbEntity
  8
OUTLINE
100
AcDbLine
 10
2478.635223066371
 20
-557.3828531997603
 30
0.0
 11
2478.635223066371
 21
-566.0402015109054
 31
0.0
  0
LINE
  5
1DBE
330
2
100
AcDbEntity
  8
OUTLINE
100
AcDbLine
 10
2507.635223066369
 20
-570.8693786157152
 30
0.0
 11
2483.635223066371
 21
-570.8693786157152
 31
0.0
  0
LINE
  5
1DBF
330
2
100
AcDbEntity
  8
OUTLINE
100
AcDbLine
 10
3291.63522306637
 20
-570.869378615715
 30
0.0
 11
2508.635223066369
 21
-570.8693786157152
 31
0.0
  0
LINE
  5
1DC0
330
2
100
AcDbEntity
  8
OUTLINE
100
AcDbLine
 10
3316.63522306637
 20
-570.869378615715
 30
0.0
 11
3292.63522306637
 21
-570.869378615715
 31
0.0
  0
LINE
  5
1DC1
330
2
100
AcDbEntity
  8
OUTLINE
100
AcDbLine
 10
3316.63522306637
 20
-570.3688756664782
 30
0.0
 11
3316.63522306637
 21
-570.8693786157152
 31
0.0
  0
LINE
  5
1DC2
330
2
100
AcDbEntity
  8
OUTLINE
100
AcDbLine
 10
3316.63522306637
 20
-570.8693786157152
 30
0.0
 11
3321.635223066371
 21
-566.5407044601423
 31
0.0
  0
LINE
  5
1DC3
330
2
100
AcDbEntity
  8
OUTLINE
100
AcDbLine
 10
3321.635223066371
 20
-566.5407044601422
 30
0.0
 11
3321.635223066371
 21
-566.0402015109051
 31
0.0
  0
LINE
  5
1DC4
330
2
100
AcDbEntity
  8
OUTLINE
100
AcDbLine
 10
2508.635223066371
 20
-1276.348630606539
 30
0.0
 11
2507.635223066365
 21
-1276.348630606539
 31
0.0
  0
LINE
  5
1DC5
330
2
100
AcDbEntity
  8
OUTLINE
100
AcDbLine
 10
3292.635223066372
 20
-1276.348630606539
 30
0.0
 11
3291.635223066372
 21
-1276.348630606539
 31
0.0
  0
LINE
  5
1DC6
330
2
100
AcDbEntity
  8
OUTLINE
100
AcDbLine
 10
2508.635223066371
 20
-1275.848127657303
 30
0.0
 11
2507.635223066365
 21
-1275.848127657303
 31
0.0
  0
LINE
  5
1DC7
330
2
100
AcDbEntity
  8
OUTLINE
100
AcDbLine
 10
3292.635223066371
 20
-1275.848127657302
 30
0.0
 11
3291.635223066371
 21
-1275.848127657302
 31
0.0
  0
LINE
  5
1DC8
330
2
100
AcDbEntity
  8
OUTLINE
100
AcDbLine
 10
2478.635223066371
 20
-566.5407044601315
 30
0.0
 11
2478.635223066371
 21
-571.399695579411
 31
0.0
  0
LINE
  5
1DC9
330
2
100
AcDbEntity
  8
OUTLINE
100
AcDbLine
 10
2507.63522306637
 20
-571.399695579411
 30
0.0
 11
2478.635223066371
 21
-571.399695579411
 31
0.0
  0
LINE
  5
1DCA
330
2
100
AcDbEntity
  8
OUTLINE
100
AcDbLine
 10
3291.63522306637
 20
-571.3996955794108
 30
0.0
 11
2508.635223066369
 21
-571.399695579411
 31
0.0
  0
LINE
  5
1DCB
330
2
100
AcDbEntity
  8
OUTLINE
100
AcDbLine
 10
3321.635223066371
 20
-571.3996955794108
 30
0.0
 11
3292.63522306637
 21
-571.3996955794108
 31
0.0
  0
LINE
  5
1DCC
330
2
100
AcDbEntity
  8
OUTLINE
100
AcDbLine
 10
3321.635223066371
 20
-566.5407044593059
 30
0.0
 11
3321.635223066371
 21
-571.3996955794108
 31
0.0
  0
LINE
  5
1DCD
330
2
100
AcDbEntity
  8
OUTLINE
100
AcDbLine
 10
3321.635223066371
 20
-571.3996955794105
 30
0.0
 11
3321.635223066371
 21
-571.899192291769
 31
0.0
  0
LINE
  5
1DCE
330
2
100
AcDbEntity
  8
OUTLINE
100
AcDbLine
 10
2478.635223066371
 20
-571.3996955794108
 30
0.0
 11
2478.635223066371
 21
-571.8991922927317
 31
0.0
  0
ELLIPSE
  5
1DCF
330
2
100
AcDbEntity
  8
OUTLINE
100
AcDbEllipse
 10
3270.135223066371
 20
-922.1278136131648
 30
0.0
 11
-2.049999999999998
 21
0.0
 31
0.0
210
0.0
220
0.0
230
1.0
 40
0.8657348311144613
 41
0.0000000000000002
 42
6.283185307179585
  0
ELLIPSE
  5
1DD0
330
2
100
AcDbEntity
  8
OUTLINE
100
AcDbEllipse
 10
3270.135223066371
 20
-922.6283165624019
 30
0.0
 11
2.049999999999998
 21
0.0
 31
0.0
210
0.0
220
0.0
230
1.0
 40
0.8657348311144613
 41
0.1414775925509919
 42
3.000115061038801
  0
ELLIPSE
  5
1DD1
330
2
100
AcDbEntity
  8
OUTLINE
100
AcDbEllipse
 10
2530.135223066371
 20
-922.1278136131642
 30
0.0
 11
-2.049999999999998
 21
0.0
 31
0.0
210
0.0
220
0.0
230
1.0
 40
0.8657348311144613
 41
0.0000000000000002
 42
6.283185307179585
  0
ELLIPSE
  5
1DD2
330
2
100
AcDbEntity
  8
OUTLINE
100
AcDbEllipse
 10
2715.135223066371
 20
-916.9334046264777
 30
0.0
 11
-2.049999999999998
 21
0.0
 31
0.0
210
0.0
220
0.0
230
1.0
 40
0.8657348311144613
 41
0.0000000000000002
 42
6.283185307179585
  0
ELLIPSE
  5
1DD3
330
2
100
AcDbEntity
  8
OUTLINE
100
AcDbEllipse
 10
2900.135223066371
 20
-922.1278136131646
 30
0.0
 11
-2.049999999999998
 21
0.0
 31
0.0
210
0.0
220
0.0
230
1.0
 40
0.8657348311144613
 41
0.0000000000000002
 42
6.283185307179585
  0
ELLIPSE
  5
1DD4
330
2
100
AcDbEntity
  8
OUTLINE
100
AcDbEllipse
 10
3085.135223066371
 20
-916.9334046264777
 30
0.0
 11
-2.049999999999998
 21
0.0
 31
0.0
210
0.0
220
0.0
230
1.0
 40
0.8657348311144613
 41
0.0000000000000002
 42
6.283185307179585
  0
ELLIPSE
  5
1DD5
330
2
100
AcDbEntity
  8
OUTLINE
100
AcDbEllipse
 10
2530.135223066371
 20
-922.6283165624016
 30
0.0
 11
2.049999999999998
 21
0.0
 31
0.0
210
0.0
220
0.0
230
1.0
 40
0.8657348311144613
 41
0.1414775925509919
 42
3.000115061038801
  0
ELLIPSE
  5
1DD6
330
2
100
AcDbEntity
  8
OUTLINE
100
AcDbEllipse
 10
2715.135223066371
 20
-917.4339075757146
 30
0.0
 11
2.049999999999998
 21
0.0
 31
0.0
210
0.0
220
0.0
230
1.0
 40
0.8657348311144613
 41
0.1414775925509919
 42
3.000115061038801
  0
ELLIPSE
  5
1DD7
330
2
100
AcDbEntity
  8
OUTLINE
100
AcDbEllipse
 10
2900.135223066371
 20
-922.6283165624018
 30
0.0
 11
2.049999999999998
 21
0.0
 31
0.0
210
0.0
220
0.0
230
1.0
 40
0.8657348311144613
 41
0.1414775925510157
 42
3.000115061038776
  0
ELLIPSE
  5
1DD8
330
2
100
AcDbEntity
  8
OUTLINE
100
AcDbEllipse
 10
3085.135223066371
 20
-917.4339075757146
 30
0.0
 11
2.049999999999998
 21
0.0
 31
0.0
210
0.0
220
0.0
230
1.0
 40
0.8657348311144613
 41
0.1414775925509919
 42
3.000115061038801
  0
LINE
  5
1DD9
330
2
100
AcDbEntity
  8
OUTLINE
100
AcDbLine
 10
2515.135223066371
 20
-924.3597862246303
 30
0.0
 11
2520.13522306637
 21
-928.6884603802027
 31
0.0
  0
LINE
  5
1DDA
330
2
100
AcDbEntity
  8
OUTLINE
100
AcDbLine
 10
2520.13522306637
 20
-928.6884603802027
 30
0.0
 11
2520.13522306637
 21
-928.1879574309655
 31
0.0
  0
LINE
  5
1DDB
330
2
100
AcDbEntity
  8
OUTLINE
100
AcDbLine
 10
2520.13522306637
 20
-928.1879574309655
 30
0.0
 11
2515.135223066371
 21
-923.8592832753932
 31
0.0
  0
LINE
  5
1DDC
330
2
100
AcDbEntity
  8
OUTLINE
100
AcDbLine
 10
2515.135223066371
 20
-923.8592832753932
 30
0.0
 11
2515.135223066371
 21
-924.3597862246303
 31
0.0
  0
LINE
  5
1DDD
330
2
100
AcDbEntity
  8
OUTLINE
100
AcDbLine
 10
2515.135223066371
 20
-923.8592832753932
 30
0.0
 11
2515.135223066371
 21
-911.7389956397907
 31
0.0
  0
LINE
  5
1DDE
330
2
100
AcDbEntity
  8
OUTLINE
100
AcDbLine
 10
2515.135223066371
 20
-911.7389956397907
 30
0.0
 11
2515.135223066371
 21
-909.84520069674
 31
0.0
  0
LINE
  5
1DDF
330
2
100
AcDbEntity
  8
OUTLINE
100
AcDbLine
 10
2515.135223066371
 20
-909.3446977475121
 30
0.0
 11
2515.135223066371
 21
-909.8452006967493
 31
0.0
  0
LINE
  5
1DE0
330
2
100
AcDbEntity
  8
OUTLINE
100
AcDbLine
 10
2515.135223066371
 20
-909.3446977475121
 30
0.0
 11
2515.135223066371
 21
-896.3586752807954
 31
0.0
  0
LINE
  5
1DE1
330
2
100
AcDbEntity
  8
OUTLINE
100
AcDbLine
 10
2520.13522306637
 20
-928.1879574309655
 30
0.0
 11
3280.135223066371
 21
-928.1879574309659
 31
0.0
  0
LINE
  5
1DE2
330
2
100
AcDbEntity
  8
OUTLINE
100
AcDbLine
 10
3285.135223066371
 20
-923.8592832753935
 30
0.0
 11
3280.135223066371
 21
-928.1879574309659
 31
0.0
  0
LINE
  5
1DE3
330
2
100
AcDbEntity
  8
OUTLINE
100
AcDbLine
 10
3285.135223066371
 20
-923.8592832753935
 30
0.0
 11
3285.135223066371
 21
-911.7389956397913
 31
0.0
  0
LINE
  5
1DE4
330
2
100
AcDbEntity
  8
OUTLINE
100
AcDbLine
 10
3282.947723066384
 20
-911.7389956397913
 30
0.0
 11
3285.135223066371
 21
-911.7389956397913
 31
0.0
  0
LINE
  5
1DE5
330
2
100
AcDbEntity
  8
OUTLINE
100
AcDbLine
 10
2515.135223066371
 20
-911.7389956397907
 30
0.0
 11
2517.322723066358
 21
-911.7389956397907
 31
0.0
  0
LINE
  5
1DE6
330
2
100
AcDbEntity
  8
OUTLINE
100
AcDbLine
 10
2520.13522306637
 20
-913.6733719030845
 30
0.0
 11
2515.135223066371
 21
-909.3446977475121
 31
0.0
  0
LINE
  5
1DE7
330
2
100
AcDbEntity
  8
OUTLINE
100
AcDbLine
 10
2515.135223066371
 20
-909.8452006967493
 30
0.0
 11
2520.13522306637
 21
-914.1738748523216
 31
0.0
  0
LINE
  5
1DE8
330
2
100
AcDbEntity
  8
OUTLINE
100
AcDbLine
 10
2520.13522306637
 20
-914.1738748523216
 30
0.0
 11
2520.13522306637
 21
-913.6733719030845
 31
0.0
  0
LINE
  5
1DE9
330
2
100
AcDbEntity
  8
OUTLINE
100
AcDbLine
 10
2520.13522306637
 20
-914.1738748523216
 30
0.0
 11
3280.135223066371
 21
-914.1738748523222
 31
0.0
  0
LINE
  5
1DEA
330
2
100
AcDbEntity
  8
OUTLINE
100
AcDbLine
 10
3280.135223066371
 20
-913.6733719030846
 30
0.0
 11
3280.135223066371
 21
-914.1738748523222
 31
0.0
  0
LINE
  5
1DEB
330
2
100
AcDbEntity
  8
OUTLINE
100
AcDbLine
 10
2520.13522306637
 20
-913.6733719030845
 30
0.0
 11
3280.135223066371
 21
-913.6733719030846
 31
0.0
  0
LINE
  5
1DEC
330
2
100
AcDbEntity
  8
OUTLINE
100
AcDbLine
 10
3280.135223066371
 20
-914.1738748523222
 30
0.0
 11
3285.135223066371
 21
-909.8452006967498
 31
0.0
  0
LINE
  5
1DED
330
2
100
AcDbEntity
  8
OUTLINE
100
AcDbLine
 10
3285.135223066371
 20
-909.3446977475123
 30
0.0
 11
3280.135223066371
 21
-913.6733719030846
 31
0.0
  0
LINE
  5
1DEE
330
2
100
AcDbEntity
  8
OUTLINE
100
AcDbLine
 10
3285.135223066371
 20
-909.8452006967498
 30
0.0
 11
3285.135223066371
 21
-909.3446977475123
 31
0.0
  0
LINE
  5
1DEF
330
2
100
AcDbEntity
  8
OUTLINE
100
AcDbLine
 10
3285.135223066371
 20
-909.3446977475123
 30
0.0
 11
3285.135223066371
 21
-896.3586752807957
 31
0.0
  0
LINE
  5
1DF0
330
2
100
AcDbEntity
  8
OUTLINE
100
AcDbLine
 10
2515.135223066371
 20
-896.3586752807954
 30
0.0
 11
3285.135223066371
 21
-896.3586752807957
 31
0.0
  0
LINE
  5
1DF1
330
2
100
AcDbEntity
  8
OUTLINE
100
AcDbLine
 10
3285.135223066371
 20
-911.7389956397913
 30
0.0
 11
3285.135223066371
 21
-909.8452006967404
 31
0.0
  0
LINE
  5
1DF2
330
2
100
AcDbEntity
  8
OUTLINE
100
AcDbLine
 10
3285.135223066371
 20
-924.3597862246307
 30
0.0
 11
3285.135223066371
 21
-923.8592832753935
 31
0.0
  0
LINE
  5
1DF3
330
2
100
AcDbEntity
  8
OUTLINE
100
AcDbLine
 10
3280.135223066371
 20
-928.6884603802032
 30
0.0
 11
3285.135223066371
 21
-924.3597862246307
 31
0.0
  0
LINE
  5
1DF4
330
2
100
AcDbEntity
  8
OUTLINE
100
AcDbLine
 10
3280.135223066371
 20
-928.1879574309655
 30
0.0
 11
3280.135223066371
 21
-928.6884603802027
 31
0.0
  0
LINE
  5
1DF5
330
2
100
AcDbEntity
  8
OUTLINE
100
AcDbLine
 10
2520.13522306637
 20
-928.6884603802027
 30
0.0
 11
3280.135223066371
 21
-928.6884603802034
 31
0.0
  0
ARC
  5
1E10
330
2
100
AcDbEntity
  8
OUTLINE
100
AcDbCircle
 10
4176.135223066368
 20
-624.8991922917069
 30
0.0
 40
3.5
100
AcDbArc
 50
90.0
 51
270.0
  0
ARC
  5
1E11
330
2
100
AcDbEntity
  8
OUTLINE
100
AcDbCircle
 10
4178.135223066368
 20
-624.8991922917062
 30
0.0
 40
3.5
100
AcDbArc
 50
270.0
 51
90.0
  0
ARC
  5
1E12
330
2
100
AcDbEntity
  8
OUTLINE
100
AcDbCircle
 10
4176.135223066368
 20
-774.8991922917069
 30
0.0
 40
3.5
100
AcDbArc
 50
90.0
 51
270.0
  0
ARC
  5
1E13
330
2
100
AcDbEntity
  8
OUTLINE
100
AcDbCircle
 10
4178.135223066368
 20
-774.8991922917064
 30
0.0
 40
3.5
100
AcDbArc
 50
270.0
 51
90.0
  0
ARC
  5
1E14
330
2
100
AcDbEntity
  8
OUTLINE
100
AcDbCircle
 10
4176.135223066368
 20
-924.8991922917067
 30
0.0
 40
3.5
100
AcDbArc
 50
90.0
 51
270.0
  0
ARC
  5
1E15
330
2
100
AcDbEntity
  8
OUTLINE
100
AcDbCircle
 10
4178.135223066368
 20
-924.8991922917063
 30
0.0
 40
3.5
100
AcDbArc
 50
270.0
 51
90.0
  0
ARC
  5
1E16
330
2
100
AcDbEntity
  8
OUTLINE
100
AcDbCircle
 10
4176.135223066368
 20
-1074.899192291707
 30
0.0
 40
3.5
100
AcDbArc
 50
90.0
 51
270.0
  0
ARC
  5
1E17
330
2
100
AcDbEntity
  8
OUTLINE
100
AcDbCircle
 10
4178.135223066368
 20
-1074.899192291706
 30
0.0
 40
3.5
100
AcDbArc
 50
270.0
 51
90.0
  0
ARC
  5
1E18
330
2
100
AcDbEntity
  8
OUTLINE
100
AcDbCircle
 10
4178.135223066368
 20
-1224.899192291706
 30
0.0
 40
3.5
100
AcDbArc
 50
270.0
 51
90.0
  0
ARC
  5
1E19
330
2
100
AcDbEntity
  8
OUTLINE
100
AcDbCircle
 10
4176.135223066368
 20
-1224.899192291707
 30
0.0
 40
3.5
100
AcDbArc
 50
90.0
 51
270.0
  0
ELLIPSE
  5
1E1A
330
2
100
AcDbEntity
  8
OUTLINE
100
AcDbEllipse
 10
4150.635223066368
 20
-1264.120819402659
 30
0.0
 11
-2.0
 21
-0.0000000000000008
 31
0.0
210
0.0
220
0.0
230
1.0
 40
0.8657348311141284
 41
-0.0000000000000006
 42
6.283185307179584
  0
ELLIPSE
  5
1E1B
330
2
100
AcDbEntity
  8
OUTLINE
100
AcDbEllipse
 10
4150.635223066368
 20
-1264.621322351897
 30
0.0
 11
2.0
 21
0.0000000000000008
 31
0.0
210
0.0
220
0.0
230
1.0
 40
0.8657348311141284
 41
0.1450392321061199
 42
2.996553421483671
  0
ELLIPSE
  5
1E1C
330
2
100
AcDbEntity
  8
OUTLINE
100
AcDbEllipse
 10
4150.635223066368
 20
-1093.571057673172
 30
0.0
 11
-2.0
 21
-0.0000000000000008
 31
0.0
210
0.0
220
0.0
230
1.0
 40
0.8657348311141284
 41
-0.0000000000000006
 42
6.283185307179584
  0
ELLIPSE
  5
1E1D
330
2
100
AcDbEntity
  8
OUTLINE
100
AcDbEllipse
 10
4150.635223066368
 20
-1094.07156062241
 30
0.0
 11
2.0
 21
0.0000000000000008
 31
0.0
210
0.0
220
0.0
230
1.0
 40
0.8657348311141284
 41
0.1450392321061685
 42
2.996553421483622
  0
ELLIPSE
  5
1E1E
330
2
100
AcDbEntity
  8
OUTLINE
100
AcDbEllipse
 10
4150.635223066368
 20
-923.0212959436881
 30
0.0
 11
-2.0
 21
-0.0000000000000008
 31
0.0
210
0.0
220
0.0
230
1.0
 40
0.8657348311141284
 41
-0.0000000000000006
 42
6.283185307179584
  0
ELLIPSE
  5
1E1F
330
2
100
AcDbEntity
  8
OUTLINE
100
AcDbEllipse
 10
4150.635223066368
 20
-923.5217988929262
 30
0.0
 11
2.0
 21
0.0000000000000008
 31
0.0
210
0.0
220
0.0
230
1.0
 40
0.8657348311141284
 41
0.1450392321062454
 42
2.996553421483544
  0
ELLIPSE
  5
1E20
330
2
100
AcDbEntity
  8
OUTLINE
100
AcDbEllipse
 10
4150.635223066368
 20
-752.4715342142093
 30
0.0
 11
-2.0
 21
-0.0000000000000008
 31
0.0
210
0.0
220
0.0
230
1.0
 40
0.8657348311141284
 41
-0.0000000000000006
 42
6.283185307179584
  0
ELLIPSE
  5
1E21
330
2
100
AcDbEntity
  8
OUTLINE
100
AcDbEllipse
 10
4150.635223066368
 20
-752.9720371634466
 30
0.0
 11
2.0
 21
0.0000000000000008
 31
0.0
210
0.0
220
0.0
230
1.0
 40
0.8657348311141284
 41
0.1450392321060955
 42
2.996553421483693
  0
ELLIPSE
  5
1E22
330
2
100
AcDbEntity
  8
OUTLINE
100
AcDbEllipse
 10
4150.635223066368
 20
-582.4222754339614
 30
0.0
 11
2.0
 21
0.0000000000000008
 31
0.0
210
0.0
220
0.0
230
1.0
 40
0.8657348311141284
 41
0.1450392321060681
 42
2.996553421483721
  0
ELLIPSE
  5
1E23
330
2
100
AcDbEntity
  8
OUTLINE
100
AcDbEllipse
 10
4150.635223066368
 20
-581.921772484724
 30
0.0
 11
-2.0
 21
-0.0000000000000008
 31
0.0
210
0.0
220
0.0
230
1.0
 40
0.8657348311141284
 41
-0.0000000000000006
 42
6.283185307179584
  0
LINE
  5
1E24
330
2
100
AcDbEntity
  8
OUTLINE
100
AcDbLine
 10
4193.635223066368
 20
-611.8991922917062
 30
0.0
 11
4164.635223066368
 21
-573.8991922917067
 31
0.0
  0
LINE
  5
1E25
330
2
100
AcDbEntity
  8
OUTLINE
100
AcDbLine
 10
4178.135223066368
 20
-628.3991922917062
 30
0.0
 11
4176.135223066368
 21
-628.3991922917062
 31
0.0
  0
LINE
  5
1E26
330
2
100
AcDbEntity
  8
OUTLINE
100
AcDbLine
 10
4176.135223066368
 20
-621.3991922917064
 30
0.0
 11
4178.135223066368
 21
-621.3991922917064
 31
0.0
  0
LINE
  5
1E27
330
2
100
AcDbEntity
  8
OUTLINE
100
AcDbLine
 10
4178.135223066368
 20
-778.3991922917062
 30
0.0
 11
4176.135223066368
 21
-778.3991922917062
 31
0.0
  0
LINE
  5
1E28
330
2
100
AcDbEntity
  8
OUTLINE
100
AcDbLine
 10
4176.135223066368
 20
-771.3991922917064
 30
0.0
 11
4178.135223066368
 21
-771.3991922917064
 31
0.0
  0
LINE
  5
1E29
330
2
100
AcDbEntity
  8
OUTLINE
100
AcDbLine
 10
4178.135223066368
 20
-928.3991922917063
 30
0.0
 11
4176.135223066368
 21
-928.3991922917063
 31
0.0
  0
LINE
  5
1E2A
330
2
100
AcDbEntity
  8
OUTLINE
100
AcDbLine
 10
4176.135223066368
 20
-921.3991922917063
 30
0.0
 11
4178.135223066368
 21
-921.3991922917063
 31
0.0
  0
LINE
  5
1E2B
330
2
100
AcDbEntity
  8
OUTLINE
100
AcDbLine
 10
4178.135223066368
 20
-1078.399192291706
 30
0.0
 11
4176.135223066368
 21
-1078.399192291706
 31
0.0
  0
LINE
  5
1E2C
330
2
100
AcDbEntity
  8
OUTLINE
100
AcDbLine
 10
4176.135223066368
 20
-1071.399192291706
 30
0.0
 11
4178.135223066368
 21
-1071.399192291706
 31
0.0
  0
LINE
  5
1E2D
330
2
100
AcDbEntity
  8
OUTLINE
100
AcDbLine
 10
4164.635223066368
 20
-573.8991922917067
 30
0.0
 11
4164.635223066368
 21
-1275.899192291706
 31
0.0
  0
LINE
  5
1E2E
330
2
100
AcDbEntity
  8
OUTLINE
100
AcDbLine
 10
4164.635223066368
 20
-1275.899192291706
 30
0.0
 11
4193.635223066368
 21
-1237.899192291706
 31
0.0
  0
LINE
  5
1E2F
330
2
100
AcDbEntity
  8
OUTLINE
100
AcDbLine
 10
4193.635223066368
 20
-1237.899192291706
 30
0.0
 11
4193.635223066368
 21
-611.8991922917062
 31
0.0
  0
LINE
  5
1E30
330
2
100
AcDbEntity
  8
OUTLINE
100
AcDbLine
 10
4176.135223066368
 20
-1221.399192291706
 30
0.0
 11
4178.135223066368
 21
-1221.399192291706
 31
0.0
  0
LINE
  5
1E31
330
2
100
AcDbEntity
  8
OUTLINE
100
AcDbLine
 10
4178.135223066368
 20
-1228.399192291706
 30
0.0
 11
4176.135223066368
 21
-1228.399192291706
 31
0.0
  0
LINE
  5
1E32
330
2
100
AcDbEntity
  8
OUTLINE
100
AcDbLine
 10
4164.635223066368
 20
-1275.899192291706
 30
0.0
 11
4136.635223066368
 21
-1275.899192291706
 31
0.0
  0
LINE
  5
1E33
330
2
100
AcDbEntity
  8
OUTLINE
100
AcDbLine
 10
4136.635223066368
 20
-582.8991922917067
 30
0.0
 11
4136.635223066368
 21
-573.8991922917064
 31
0.0
  0
LINE
  5
1E34
330
2
100
AcDbEntity
  8
OUTLINE
100
AcDbLine
 10
4136.635223066368
 20
-582.8991922917063
 30
0.0
 11
4136.635223066368
 21
-1266.899192291706
 31
0.0
  0
LINE
  5
1E35
330
2
100
AcDbEntity
  8
OUTLINE
100
AcDbLine
 10
4136.635223066368
 20
-1275.899192291706
 30
0.0
 11
4136.635223066368
 21
-1266.899192291706
 31
0.0
  0
LINE
  5
1E36
330
2
100
AcDbEntity
  8
OUTLINE
100
AcDbLine
 10
4136.635223066368
 20
-1266.899192291706
 30
0.0
 11
4135.635223066368
 21
-1266.899192291706
 31
0.0
  0
LINE
  5
1E37
330
2
100
AcDbEntity
  8
OUTLINE
100
AcDbLine
 10
4135.635223066368
 20
-1276.899192291706
 30
0.0
 11
4135.635223066368
 21
-1266.899192291706
 31
0.0
  0
LINE
  5
1E38
330
2
100
AcDbEntity
  8
OUTLINE
100
AcDbLine
 10
4160.635223066367
 20
-1276.899192291706
 30
0.0
 11
4165.635223066368
 21
-1276.899192291706
 31
0.0
  0
LINE
  5
1E39
330
2
100
AcDbEntity
  8
OUTLINE
100
AcDbLine
 10
4165.635223066368
 20
-1276.899192291706
 30
0.0
 11
4165.635223066368
 21
-1274.58884746412
 31
0.0
  0
LINE
  5
1E3A
330
2
100
AcDbEntity
  8
OUTLINE
100
AcDbLine
 10
4135.635223066368
 20
-582.8991922917066
 30
0.0
 11
4136.635223066368
 21
-582.8991922917066
 31
0.0
  0
LINE
  5
1E3B
330
2
100
AcDbEntity
  8
OUTLINE
100
AcDbLine
 10
4136.635223066368
 20
-573.8991922917062
 30
0.0
 11
4164.635223066368
 21
-573.8991922917062
 31
0.0
  0
LINE
  5
1E3C
330
2
100
AcDbEntity
  8
OUTLINE
100
AcDbLine
 10
4165.635223066368
 20
-575.2095371192925
 30
0.0
 11
4165.635223066368
 21
-572.8991922917067
 31
0.0
  0
LINE
  5
1E3D
330
2
100
AcDbEntity
  8
OUTLINE
100
AcDbLine
 10
4135.635223066368
 20
-572.8991922917067
 30
0.0
 11
4165.635223066368
 21
-572.8991922917067
 31
0.0
  0
LINE
  5
1E3E
330
2
100
AcDbEntity
  8
OUTLINE
100
AcDbLine
 10
4135.635223066368
 20
-582.8991922917066
 30
0.0
 11
4135.635223066368
 21
-572.8991922917067
 31
0.0
  0
LINE
  5
1E3F
330
2
100
AcDbEntity
  8
OUTLINE
100
AcDbLine
 10
4135.635223066368
 20
-1266.899192291706
 30
0.0
 11
4135.635223066368
 21
-582.8991922917062
 31
0.0
  0
CIRCLE
  5
1E40
330
2
100
AcDbEntity
  8
OUTLINE
100
AcDbCircle
 10
3346.135223066367
 20
-624.8991922917066
 30
0.0
 40
3.5
  0
CIRCLE
  5
1E41
330
2
100
AcDbEntity
  8
OUTLINE
100
AcDbCircle
 10
3346.135223066367
 20
-1224.899192291706
 30
0.0
 40
3.5
  0
ELLIPSE
  5
1E42
330
2
100
AcDbEntity
  8
OUTLINE
100
AcDbEllipse
 10
3335.635223066373
 20
-752.9720371634449
 30
0.0
 11
2.25
 21
0.0000000000000346
 31
0.0
210
0.0
220
0.0
230
1.0
 40
0.8657348311141287
 41
0.1288282812382384
 42
3.01276437235152
  0
ELLIPSE
  5
1E43
330
2
100
AcDbEntity
  8
OUTLINE
100
AcDbEllipse
 10
3335.635223066372
 20
-923.5217988929283
 30
0.0
 11
2.25
 21
0.0000000000000346
 31
0.0
210
0.0
220
0.0
230
1.0
 40
0.8657348311141287
 41
0.1288282812382373
 42
3.012764372351619
  0
ELLIPSE
  5
1E44
330
2
100
AcDbEntity
  8
OUTLINE
100
AcDbEllipse
 10
3335.635223066372
 20
-1094.071560622412
 30
0.0
 11
2.25
 21
0.0000000000000346
 31
0.0
210
0.0
220
0.0
230
1.0
 40
0.8657348311141287
 41
0.1288282812382373
 42
3.012764372351529
  0
ELLIPSE
  5
1E45
330
2
100
AcDbEntity
  8
OUTLINE
100
AcDbEllipse
 10
3335.635223066372
 20
-1093.571057673174
 30
0.0
 11
-2.25
 21
-0.0000000000000346
 31
0.0
210
0.0
220
0.0
230
1.0
 40
0.8657348311141229
 41
0.0000000000000118
 42
6.283185307179596
  0
ELLIPSE
  5
1E46
330
2
100
AcDbEntity
  8
OUTLINE
100
AcDbEllipse
 10
3335.635223066372
 20
-923.0212959436903
 30
0.0
 11
-2.25
 21
-0.0000000000000346
 31
0.0
210
0.0
220
0.0
230
1.0
 40
0.8657348311141229
 41
0.0000000000000118
 42
6.283185307179596
  0
ELLIPSE
  5
1E47
330
2
100
AcDbEntity
  8
OUTLINE
100
AcDbEllipse
 10
3335.635223066373
 20
-752.4715342142071
 30
0.0
 11
-2.25
 21
-0.0000000000000346
 31
0.0
210
0.0
220
0.0
230
1.0
 40
0.8657348311141229
 41
-0.0000000000000033
 42
6.283185307179581
  0
LINE
  5
1E48
330
2
100
AcDbEntity
  8
OUTLINE
100
AcDbLine
 10
3350.135223066367
 20
-577.8991922917064
 30
0.0
 11
3362.635223066366
 21
-590.3991922917064
 31
0.0
  0
LINE
  5
1E49
330
2
100
AcDbEntity
  8
OUTLINE
100
AcDbLine
 10
3362.635223066367
 20
-708.8991922917066
 30
0.0
 11
3362.635223066367
 21
-590.3991922917066
 31
0.0
  0
LINE
  5
1E4A
330
2
100
AcDbEntity
  8
OUTLINE
100
AcDbLine
 10
3322.635223066367
 20
-577.8991922917064
 30
0.0
 11
3350.135223066367
 21
-577.8991922917064
 31
0.0
  0
LINE
  5
1E4B
330
2
100
AcDbEntity
  8
OUTLINE
100
AcDbLine
 10
3322.635223066367
 20
-577.8991922917064
 30
0.0
 11
3322.635223066367
 21
-572.8991922917064
 31
0.0
  0
LINE
  5
1E4C
330
2
100
AcDbEntity
  8
OUTLINE
100
AcDbLine
 10
3321.635223066366
 20
-572.8991922917064
 30
0.0
 11
3322.635223066367
 21
-572.8991922917064
 31
0.0
  0
LINE
  5
1E4E
330
2
100
AcDbEntity
  8
OUTLINE
100
AcDbLine
 10
3321.635223066368
 20
-1276.899192291707
 30
0.0
 11
3322.635223066367
 21
-1276.899192291707
 31
0.0
  0
LINE
  5
1E4F
330
2
100
AcDbEntity
  8
OUTLINE
100
AcDbLine
 10
3322.635223066367
 20
-1276.899192291707
 30
0.0
 11
3322.635223066367
 21
-1271.899192291706
 31
0.0
  0
LINE
  5
1E50
330
2
100
AcDbEntity
  8
OUTLINE
100
AcDbLine
 10
3322.635223066367
 20
-1271.899192291706
 30
0.0
 11
3350.135223066367
 21
-1271.899192291706
 31
0.0
  0
LINE
  5
1E51
330
2
100
AcDbEntity
  8
OUTLINE
100
AcDbLine
 10
3362.635223066367
 20
-1259.399192291706
 30
0.0
 11
3350.135223066367
 21
-1271.899192291706
 31
0.0
  0
LINE
  5
1E52
330
2
100
AcDbEntity
  8
OUTLINE
100
AcDbLine
 10
3362.635223066367
 20
-1259.399192291706
 30
0.0
 11
3362.635223066367
 21
-1170.899192291706
 31
0.0
  0
LINE
  5
1E53
330
2
100
AcDbEntity
  8
OUTLINE
100
AcDbLine
 10
3362.635223066367
 20
-1170.899192291706
 30
0.0
 11
3331.635223066367
 21
-1139.899192291706
 31
0.0
  0
LINE
  5
1E54
330
2
100
AcDbEntity
  8
OUTLINE
100
AcDbLine
 10
3331.635223066367
 20
-1139.899192291706
 30
0.0
 11
3331.635223066367
 21
-739.8991922917066
 31
0.0
  0
LINE
  5
1E55
330
2
100
AcDbEntity
  8
OUTLINE
100
AcDbLine
 10
3331.635223066366
 20
-739.8991922917066
 30
0.0
 11
3362.635223066366
 21
-708.8991922917066
 31
0.0
  0
LINE
  5
1E56
330
2
100
AcDbEntity
  8
OUTLINE
100
AcDbLine
 10
3349.635223066373
 20
-721.8991922914512
 30
0.0
 11
3349.63522306637
 21
-1157.899192291547
 31
0.0
  0
LINE
  5
1E57
330
2
100
AcDbEntity
  8
OUTLINE
100
AcDbLine
 10
3350.635223066374
 20
-720.8991922914511
 30
0.0
 11
3350.635223066371
 21
-1158.899192291547
 31
0.0
  0
LINE
  5
1E58
330
2
100
AcDbEntity
  8
OUTLINE
100
AcDbLine
 10
3349.635223066367
 20
-1271.899192291706
 30
0.0
 11
3349.635223066367
 21
-1275.899192291707
 31
0.0
  0
LINE
  5
1E59
330
2
100
AcDbEntity
  8
OUTLINE
100
AcDbLine
 10
3349.635223066366
 20
-573.8991922917064
 30
0.0
 11
3349.635223066366
 21
-577.8991922917064
 31
0.0
  0
LINE
  5
1E5A
330
2
100
AcDbEntity
  8
OUTLINE
100
AcDbLine
 10
3322.635223066367
 20
-1275.899192291707
 30
0.0
 11
3349.635223066367
 21
-1275.899192291707
 31
0.0
  0
LINE
  5
1E5B
330
2
100
AcDbEntity
  8
OUTLINE
100
AcDbLine
 10
3322.635223066367
 20
-573.8991922917064
 30
0.0
 11
3349.635223066366
 21
-573.8991922917064
 31
0.0
  0
LINE
  5
1E5C
330
2
100
AcDbEntity
  8
OUTLINE
100
AcDbLine
 10
3322.635223066367
 20
-1276.899192291707
 30
0.0
 11
3325.635223066367
 21
-1276.899192291707
 31
0.0
  0
LINE
  5
1E5D
330
2
100
AcDbEntity
  8
OUTLINE
100
AcDbLine
 10
3350.635223066368
 20
-1276.899192291707
 30
0.0
 11
3350.635223066368
 21
-1271.399192291707
 31
0.0
  0
LINE
  5
1E5E
330
2
100
AcDbEntity
  8
OUTLINE
100
AcDbLine
 10
3350.635223066366
 20
-578.3991922917063
 30
0.0
 11
3350.635223066366
 21
-572.8991922917064
 31
0.0
  0
LINE
  5
1E5F
330
2
100
AcDbEntity
  8
OUTLINE
100
AcDbLine
 10
3322.635223066367
 20
-572.8991922917064
 30
0.0
 11
3350.635223066366
 21
-572.8991922917064
 31
0.0
  0
LINE
  5
1E60
330
2
100
AcDbEntity
  8
OUTLINE
100
AcDbLine
 10
4129.635223066368
 20
-559.8991922917064
 30
0.0
 11
4129.635223066368
 21
-558.8991922917064
 31
0.0
  0
LINE
  5
1E61
330
2
100
AcDbEntity
  8
OUTLINE
100
AcDbLine
 10
3356.635223066368
 20
-558.8991922917064
 30
0.0
 11
3356.635223066368
 21
-559.8991922917064
 31
0.0
  0
LINE
  5
1E62
330
2
100
AcDbEntity
  8
OUTLINE
100
AcDbLine
 10
3356.635223066368
 20
-559.8991922917064
 30
0.0
 11
4129.635223066368
 21
-559.8991922917064
 31
0.0
  0
LINE
  5
1E63
330
2
100
AcDbEntity
  8
OUTLINE
100
AcDbLine
 10
4159.635223066366
 20
-572.8991922917064
 30
0.0
 11
4134.635223066367
 21
-572.8991922917064
 31
0.0
  0
LINE
  5
1E64
330
2
100
AcDbEntity
  8
OUTLINE
100
AcDbLine
 10
3351.635223066368
 20
-572.8991922917064
 30
0.0
 11
3326.635223066368
 21
-572.8991922917064
 31
0.0
  0
LINE
  5
1E65
330
2
100
AcDbEntity
  8
OUTLINE
100
AcDbLine
 10
4164.635223066368
 20
-572.8991922917064
 30
0.0
 11
4164.635223066368
 21
-571.8991922917064
 31
0.0
  0
LINE
  5
1E66
330
2
100
AcDbEntity
  8
OUTLINE
100
AcDbLine
 10
4164.635223066368
 20
-571.8991922917064
 30
0.0
 11
4159.635223066366
 21
-571.8991922917064
 31
0.0
  0
LINE
  5
1E67
330
2
100
AcDbEntity
  8
OUTLINE
100
AcDbLine
 10
4159.635223066366
 20
-571.8991922917064
 30
0.0
 11
4159.635223066366
 21
-572.8991922917061
 31
0.0
  0
LINE
  5
1E68
330
2
100
AcDbEntity
  8
OUTLINE
100
AcDbLine
 10
4135.635223066365
 20
-571.8991922917064
 30
0.0
 11
4159.635223066366
 21
-571.8991922917064
 31
0.0
  0
LINE
  5
1E69
330
2
100
AcDbEntity
  8
OUTLINE
100
AcDbLine
 10
4135.635223066368
 20
-557.8991922917062
 30
0.0
 11
4135.635223066368
 21
-571.8991922917061
 31
0.0
  0
LINE
  5
1E6A
330
2
100
AcDbEntity
  8
OUTLINE
100
AcDbLine
 10
4134.635223066367
 20
-557.8991922917063
 30
0.0
 11
4135.635223066365
 21
-557.8991922917063
 31
0.0
  0
LINE
  5
1E6B
330
2
100
AcDbEntity
  8
OUTLINE
100
AcDbLine
 10
4134.635223066367
 20
-572.8991922917064
 30
0.0
 11
4134.635223066367
 21
-558.8991922917064
 31
0.0
  0
LINE
  5
1E6C
330
2
100
AcDbEntity
  8
OUTLINE
100
AcDbLine
 10
3326.635223066368
 20
-571.8991922917064
 30
0.0
 11
3321.635223066368
 21
-571.8991922917064
 31
0.0
  0
LINE
  5
1E6D
330
2
100
AcDbEntity
  8
OUTLINE
100
AcDbLine
 10
3321.635223066368
 20
-571.8991922917064
 30
0.0
 11
3321.635223066368
 21
-572.8991922917064
 31
0.0
  0
LINE
  5
1E6E
330
2
100
AcDbEntity
  8
OUTLINE
100
AcDbLine
 10
3326.635223066368
 20
-572.8991922917064
 30
0.0
 11
3326.635223066368
 21
-571.8991922917064
 31
0.0
  0
LINE
  5
1E6F
330
2
100
AcDbEntity
  8
OUTLINE
100
AcDbLine
 10
4134.635223066367
 20
-558.8991922917064
 30
0.0
 11
4134.635223066367
 21
-557.8991922917062
 31
0.0
  0
LINE
  5
1E70
330
2
100
AcDbEntity
  8
OUTLINE
100
AcDbLine
 10
3351.635223066368
 20
-557.8991922917063
 30
0.0
 11
3351.635223066368
 21
-558.8991922917064
 31
0.0
  0
LINE
  5
1E71
330
2
100
AcDbEntity
  8
OUTLINE
100
AcDbLine
 10
3351.635223066368
 20
-558.8991922917064
 30
0.0
 11
3351.635223066368
 21
-572.8991922917061
 31
0.0
  0
LINE
  5
1E72
330
2
100
AcDbEntity
  8
OUTLINE
100
AcDbLine
 10
3350.635223066368
 20
-557.8991922917063
 30
0.0
 11
3351.635223066368
 21
-557.8991922917063
 31
0.0
  0
LINE
  5
1E73
330
2
100
AcDbEntity
  8
OUTLINE
100
AcDbLine
 10
3350.635223066368
 20
-571.8991922917064
 30
0.0
 11
3350.635223066368
 21
-557.8991922917063
 31
0.0
  0
LINE
  5
1E74
330
2
100
AcDbEntity
  8
OUTLINE
100
AcDbLine
 10
3326.635223066368
 20
-571.8991922917064
 30
0.0
 11
3350.635223066368
 21
-571.8991922917064
 31
0.0
  0
LINE
  5
1E75
330
2
100
AcDbEntity
  8
OUTLINE
100
AcDbLine
 10
3351.635223066367
 20
-557.8991922917063
 30
0.0
 11
4134.635223066367
 21
-557.8991922917063
 31
0.0
  0
LINE
  5
1E76
330
2
100
AcDbEntity
  8
OUTLINE
100
AcDbLine
 10
3351.635223066368
 20
-558.8991922917064
 30
0.0
 11
3356.635223066368
 21
-558.8991922917064
 31
0.0
  0
LINE
  5
1E77
330
2
100
AcDbEntity
  8
OUTLINE
100
AcDbLine
 10
4129.635223066368
 20
-558.8991922917064
 30
0.0
 11
4134.635223066367
 21
-558.8991922917064
 31
0.0
  0
ELLIPSE
  5
1E78
330
2
100
AcDbEntity
  8
OUTLINE
100
AcDbEllipse
 10
3602.135223066369
 20
-1253.882531793311
 30
0.0
 11
-2.0
 21
-0.0000000000000214
 31
0.0
210
0.0
220
0.0
230
1.0
 40
0.866025403784439
 41
-0.0000000000000122
 42
6.283185307179572
  0
ELLIPSE
  5
1E79
330
2
100
AcDbEntity
  8
OUTLINE
100
AcDbEllipse
 10
3602.135223066369
 20
-1254.382531793311
 30
0.0
 11
2.0
 21
0.0000000000000214
 31
0.0
210
0.0
220
0.0
230
1.0
 40
0.866025403784439
 41
0.1448434969987094
 42
2.99674915659104
  0
ELLIPSE
  5
1E7A
330
2
100
AcDbEntity
  8
OUTLINE
100
AcDbEllipse
 10
3884.135223066369
 20
-1253.882531793311
 30
0.0
 11
-2.0
 21
-0.0000000000000214
 31
0.0
210
0.0
220
0.0
230
1.0
 40
0.866025403784439
 41
-0.0000000000000122
 42
6.283185307179572
  0
ELLIPSE
  5
1E7B
330
2
100
AcDbEntity
  8
OUTLINE
100
AcDbEllipse
 10
3884.135223066369
 20
-1254.382531793311
 30
0.0
 11
2.0
 21
0.0000000000000214
 31
0.0
210
0.0
220
0.0
230
1.0
 40
0.866025403784439
 41
0.1448434969987094
 42
2.99674915659104
  0
LINE
  5
1E7C
330
2
100
AcDbEntity
  8
OUTLINE
100
AcDbLine
 10
4159.635223066366
 20
-1277.899192291706
 30
0.0
 11
4164.635223066367
 21
-1277.899192291706
 31
0.0
  0
LINE
  5
1E7D
330
2
100
AcDbEntity
  8
OUTLINE
100
AcDbLine
 10
4135.635223066365
 20
-1277.899192291706
 30
0.0
 11
4159.635223066366
 21
-1277.899192291706
 31
0.0
  0
LINE
  5
1E7E
330
2
100
AcDbEntity
  8
OUTLINE
100
AcDbLine
 10
3321.635223066368
 20
-1277.899192291706
 30
0.0
 11
3326.635223066367
 21
-1277.899192291706
 31
0.0
  0
LINE
  5
1E7F
330
2
100
AcDbEntity
  8
OUTLINE
100
AcDbLine
 10
3350.635223066368
 20
-1277.899192291706
 30
0.0
 11
3326.635223066367
 21
-1277.899192291706
 31
0.0
  0
LINE
  5
1E80
330
2
100
AcDbEntity
  8
OUTLINE
100
AcDbLine
 10
3362.635223066368
 20
-1224.195998313838
 30
0.0
 11
4129.635223066371
 21
-1224.195998313838
 31
0.0
  0
LINE
  5
1E81
330
2
100
AcDbEntity
  8
OUTLINE
100
AcDbLine
 10
4129.635223066371
 20
-1223.329972910053
 30
0.0
 11
4129.635223066371
 21
-1224.195998313837
 31
0.0
  0
LINE
  5
1E82
330
2
100
AcDbEntity
  8
OUTLINE
100
AcDbLine
 10
3362.635223066367
 20
-1223.329972910053
 30
0.0
 11
4129.635223066371
 21
-1223.329972910053
 31
0.0
  0
LINE
  5
1E83
330
2
100
AcDbEntity
  8
OUTLINE
100
AcDbLine
 10
3362.635223066368
 20
-1234.195998313838
 30
0.0
 11
4134.63522306637
 21
-1234.195998313838
 31
0.0
  0
LINE
  5
1E84
330
2
100
AcDbEntity
  8
OUTLINE
100
AcDbLine
 10
4134.63522306637
 20
-1234.195998313838
 30
0.0
 11
4134.63522306637
 21
-1226.695998313838
 31
0.0
  0
LINE
  5
1E85
330
2
100
AcDbEntity
  8
OUTLINE
100
AcDbLine
 10
4129.635223066371
 20
-1224.195998313838
 30
0.0
 11
4134.63522306637
 21
-1226.695998313838
 31
0.0
  0
LINE
  5
1E86
330
2
100
AcDbEntity
  8
OUTLINE
100
AcDbLine
 10
4134.63522306637
 20
-1225.829972910053
 30
0.0
 11
4129.635223066371
 21
-1223.329972910053
 31
0.0
  0
LINE
  5
1E87
330
2
100
AcDbEntity
  8
OUTLINE
100
AcDbLine
 10
4134.63522306637
 20
-1226.695998313838
 30
0.0
 11
4134.63522306637
 21
-1225.829972910053
 31
0.0
  0
LINE
  5
1E88
330
2
100
AcDbEntity
  8
OUTLINE
100
AcDbLine
 10
4134.63522306637
 20
-1276.631243099275
 30
0.0
 11
4134.63522306637
 21
-1234.195998313838
 31
0.0
  0
LINE
  5
1E89
330
2
100
AcDbEntity
  8
OUTLINE
100
AcDbLine
 10
4134.63522306637
 20
-1276.899192291706
 30
0.0
 11
4134.63522306637
 21
-1276.631243099275
 31
0.0
  0
LINE
  5
1E8A
330
2
100
AcDbEntity
  8
OUTLINE
100
AcDbLine
 10
3326.635223066367
 20
-1276.899192291706
 30
0.0
 11
3325.635223066367
 21
-1276.899192291706
 31
0.0
  0
LINE
  5
1E8B
330
2
100
AcDbEntity
  8
OUTLINE
100
AcDbLine
 10
3321.635223066368
 20
-1276.899192291706
 30
0.0
 11
3321.635223066368
 21
-1277.899192291706
 31
0.0
  0
LINE
  5
1E8C
330
2
100
AcDbEntity
  8
OUTLINE
100
AcDbLine
 10
3326.635223066367
 20
-1277.899192291706
 30
0.0
 11
3326.635223066367
 21
-1276.899192291706
 31
0.0
  0
LINE
  5
1E8D
330
2
100
AcDbEntity
  8
OUTLINE
100
AcDbLine
 10
3326.635223066367
 20
-1276.899192291706
 30
0.0
 11
3351.635223066367
 21
-1276.899192291706
 31
0.0
  0
LINE
  5
1E8E
330
2
100
AcDbEntity
  8
OUTLINE
100
AcDbLine
 10
4160.635223066367
 20
-1276.899192291706
 30
0.0
 11
4159.635223066366
 21
-1276.899192291706
 31
0.0
  0
LINE
  5
1E8F
330
2
100
AcDbEntity
  8
OUTLINE
100
AcDbLine
 10
4159.635223066366
 20
-1276.899192291706
 30
0.0
 11
4159.635223066366
 21
-1277.899192291706
 31
0.0
  0
LINE
  5
1E90
330
2
100
AcDbEntity
  8
OUTLINE
100
AcDbLine
 10
4164.635223066367
 20
-1277.899192291706
 30
0.0
 11
4164.635223066367
 21
-1276.899192291706
 31
0.0
  0
LINE
  5
1E91
330
2
100
AcDbEntity
  8
OUTLINE
100
AcDbLine
 10
4159.635223066366
 20
-1276.899192291706
 30
0.0
 11
4134.635223066367
 21
-1276.899192291706
 31
0.0
  0
LINE
  5
1E92
330
2
100
AcDbEntity
  8
OUTLINE
100
AcDbLine
 10
4134.635223066367
 20
-1276.899192291706
 30
0.0
 11
4134.635223066367
 21
-1283.899192291706
 31
0.0
  0
LINE
  5
1E93
330
2
100
AcDbEntity
  8
OUTLINE
100
AcDbLine
 10
4135.635223066365
 20
-1291.899192291706
 30
0.0
 11
4135.635223066365
 21
-1277.899192291706
 31
0.0
  0
LINE
  5
1E94
330
2
100
AcDbEntity
  8
OUTLINE
100
AcDbLine
 10
3351.635223066367
 20
-1276.899192291706
 30
0.0
 11
3351.635223066367
 21
-1283.899192291706
 31
0.0
  0
LINE
  5
1E95
330
2
100
AcDbEntity
  8
OUTLINE
100
AcDbLine
 10
3350.635223066368
 20
-1291.899192291706
 30
0.0
 11
3350.635223066368
 21
-1277.899192291706
 31
0.0
  0
LINE
  5
1E96
330
2
100
AcDbEntity
  8
OUTLINE
100
AcDbLine
 10
3351.63522306637
 20
-1276.631243099275
 30
0.0
 11
3351.63522306637
 21
-1276.899192291707
 31
0.0
  0
LINE
  5
1E97
330
2
100
AcDbEntity
  8
OUTLINE
100
AcDbLine
 10
3351.63522306637
 20
-1270.399192291559
 30
0.0
 11
3351.63522306637
 21
-1276.631243099275
 31
0.0
  0
LINE
  5
1E98
330
2
100
AcDbEntity
  8
OUTLINE
100
AcDbLine
 10
3500.635223066367
 20
-1283.899192291706
 30
0.0
 11
3505.635223066367
 21
-1288.899192291706
 31
0.0
  0
LINE
  5
1E99
330
2
100
AcDbEntity
  8
OUTLINE
100
AcDbLine
 10
3505.635223066367
 20
-1290.899192291706
 30
0.0
 11
3505.635223066367
 21
-1288.899192291706
 31
0.0
  0
LINE
  5
1E9A
330
2
100
AcDbEntity
  8
OUTLINE
100
AcDbLine
 10
3350.635223066368
 20
-1291.899192291706
 30
0.0
 11
4135.635223066365
 21
-1291.899192291706
 31
0.0
  0
LINE
  5
1E9B
330
2
100
AcDbEntity
  8
OUTLINE
100
AcDbLine
 10
3985.635223066367
 20
-1283.899192291706
 30
0.0
 11
4134.635223066367
 21
-1283.899192291706
 31
0.0
  0
LINE
  5
1E9C
330
2
100
AcDbEntity
  8
OUTLINE
100
AcDbLine
 10
3980.635223066367
 20
-1288.899192291706
 30
0.0
 11
3985.635223066367
 21
-1283.899192291706
 31
0.0
  0
LINE
  5
1E9D
330
2
100
AcDbEntity
  8
OUTLINE
100
AcDbLine
 10
3980.635223066367
 20
-1288.899192291706
 30
0.0
 11
3980.635223066367
 21
-1290.899192291706
 31
0.0
  0
LINE
  5
1E9E
330
2
100
AcDbEntity
  8
OUTLINE
100
AcDbLine
 10
3980.635223066367
 20
-1290.899192291706
 30
0.0
 11
3505.635223066367
 21
-1290.899192291706
 31
0.0
  0
LINE
  5
1E9F
330
2
100
AcDbEntity
  8
OUTLINE
100
AcDbLine
 10
3351.635223066367
 20
-1283.899192291706
 30
0.0
 11
3500.635223066367
 21
-1283.899192291706
 31
0.0
  0
LINE
  5
1EA0
330
2
100
AcDbEntity
  8
OUTLINE
100
AcDbLine
 10
3351.63522306637
 20
-1276.631243099275
 30
0.0
 11
4134.63522306637
 21
-1276.631243099275
 31
0.0
  0
ELLIPSE
  5
1EA1
330
2
100
AcDbEntity
  8
OUTLINE
100
AcDbEllipse
 10
3335.63522306637
 20
-1094.572063571651
 30
0.0
 11
2.5
 21
0.000000000000001
 31
0.0
210
0.0
220
0.0
230
1.0
 40
0.8657348311141287
 41
0.5544029941647329
 42
2.587189659415931
  0
ELLIPSE
  5
1EA2
330
2
100
AcDbEntity
  8
OUTLINE
100
AcDbEllipse
 10
3335.63522306637
 20
-924.0223018421676
 30
0.0
 11
2.5
 21
0.000000000000001
 31
0.0
210
0.0
220
0.0
230
1.0
 40
0.8657348311141287
 41
0.5544029941628251
 42
2.587189659413989
  0
ELLIPSE
  5
1EA3
330
2
100
AcDbEntity
  8
OUTLINE
100
AcDbEllipse
 10
3335.63522306637
 20
-753.4725401126843
 30
0.0
 11
2.5
 21
0.000000000000001
 31
0.0
210
0.0
220
0.0
230
1.0
 40
0.8657348311141287
 41
0.5544029941613596
 42
2.587189659412429
  0
ELLIPSE
  5
1EA4
330
2
100
AcDbEntity
  8
OUTLINE
100
AcDbEllipse
 10
4150.635223066371
 20
-1265.121825301133
 30
0.0
 11
2.5
 21
0.000000000000001
 31
0.0
210
0.0
220
0.0
230
1.0
 40
0.8657348311141287
 41
1.106201940215376
 42
2.035390713380924
  0
ELLIPSE
  5
1EA5
330
2
100
AcDbEntity
  8
OUTLINE
100
AcDbEllipse
 10
4150.635223066369
 20
-1094.57206357165
 30
0.0
 11
2.5
 21
0.000000000000001
 31
0.0
210
0.0
220
0.0
230
1.0
 40
0.8657348311141287
 41
1.106201940202747
 42
2.03539071339108
  0
ELLIPSE
  5
1EA6
330
2
100
AcDbEntity
  8
OUTLINE
100
AcDbEllipse
 10
4150.635223066369
 20
-924.0223018421668
 30
0.0
 11
2.5
 21
0.000000000000001
 31
0.0
210
0.0
220
0.0
230
1.0
 40
0.8657348311141287
 41
1.106201940201154
 42
2.035390713391107
  0
ELLIPSE
  5
1EA7
330
2
100
AcDbEntity
  8
OUTLINE
100
AcDbEllipse
 10
4150.635223066369
 20
-753.4725401126834
 30
0.0
 11
2.5
 21
0.000000000000001
 31
0.0
210
0.0
220
0.0
230
1.0
 40
0.8657348311141287
 41
1.106201940212129
 42
2.035390713380127
  0
ELLIPSE
  5
1EA8
330
2
100
AcDbEntity
  8
OUTLINE
100
AcDbEllipse
 10
4150.635223066369
 20
-582.9227783832001
 30
0.0
 11
2.5
 21
0.000000000000001
 31
0.0
210
0.0
220
0.0
230
1.0
 40
0.8657348311141287
 41
1.106201940206835
 42
2.035390713385419
  0
ELLIPSE
  5
1EA9
330
2
100
AcDbEntity
  8
OUTLINE
100
AcDbEllipse
 10
3373.13522306637
 20
-923.128819510576
 30
0.0
 11
2.049999999999998
 21
0.0000000000000008
 31
0.0
210
0.0
220
0.0
230
1.0
 40
0.8657348311141287
 41
0.2858907884241417
 42
2.855701865166602
  0
ELLIPSE
  5
1EAA
330
2
100
AcDbEntity
  8
OUTLINE
100
AcDbEllipse
 10
3558.135223066369
 20
-917.9344105238913
 30
0.0
 11
2.049999999999998
 21
0.0000000000000008
 31
0.0
210
0.0
220
0.0
230
1.0
 40
0.8657348311141287
 41
0.2858907884239272
 42
2.855701865167083
  0
ELLIPSE
  5
1EAB
330
2
100
AcDbEntity
  8
OUTLINE
100
AcDbEllipse
 10
3743.135223066369
 20
-923.1288195105756
 30
0.0
 11
2.049999999999998
 21
0.0000000000000008
 31
0.0
210
0.0
220
0.0
230
1.0
 40
0.8657348311141287
 41
0.2858907884236897
 42
2.855701865167321
  0
ELLIPSE
  5
1EAC
330
2
100
AcDbEntity
  8
OUTLINE
100
AcDbEllipse
 10
3928.135223066369
 20
-917.9344105238907
 30
0.0
 11
2.049999999999998
 21
0.0000000000000008
 31
0.0
210
0.0
220
0.0
230
1.0
 40
0.8657348311141287
 41
0.2858907884233796
 42
2.855701865167631
  0
ELLIPSE
  5
1EAD
330
2
100
AcDbEntity
  8
OUTLINE
100
AcDbEllipse
 10
4113.135223066367
 20
-923.1288195105756
 30
0.0
 11
2.049999999999998
 21
0.0000000000000008
 31
0.0
210
0.0
220
0.0
230
1.0
 40
0.8657348311141287
 41
0.285890788423142
 42
2.855701865167894
  0
ELLIPSE
  5
1EAE
330
2
100
AcDbEntity
  8
OUTLINE
100
AcDbEllipse
 10
3373.13522306637
 20
-922.6283165613386
 30
0.0
 11
-2.049999999999998
 21
-0.0000000000000008
 31
0.0
210
0.0
220
0.0
230
1.0
 40
0.8657348311141287
 41
3.283070246143632
 42
6.14170771462866
  0
ELLIPSE
  5
1EAF
330
2
100
AcDbEntity
  8
OUTLINE
100
AcDbEllipse
 10
3558.135223066369
 20
-917.4339075746535
 30
0.0
 11
-2.049999999999998
 21
-0.0000000000000008
 31
0.0
210
0.0
220
0.0
230
1.0
 40
0.8657348311141287
 41
3.283070246143334
 42
6.141707714628957
  0
ELLIPSE
  5
1EB0
330
2
100
AcDbEntity
  8
OUTLINE
100
AcDbEllipse
 10
3743.135223066369
 20
-922.6283165613379
 30
0.0
 11
-2.049999999999998
 21
-0.0000000000000008
 31
0.0
210
0.0
220
0.0
230
1.0
 40
0.8657348311141287
 41
3.283070246143003
 42
6.141707714629299
  0
ELLIPSE
  5
1EB1
330
2
100
AcDbEntity
  8
OUTLINE
100
AcDbEllipse
 10
3928.135223066369
 20
-917.4339075746532
 30
0.0
 11
-2.049999999999998
 21
-0.0000000000000008
 31
0.0
210
0.0
220
0.0
230
1.0
 40
0.8657348311141287
 41
3.283070246142707
 42
6.141707714629584
  0
ELLIPSE
  5
1EB2
330
2
100
AcDbEntity
  8
OUTLINE
100
AcDbEllipse
 10
4113.135223066367
 20
-922.6283165613379
 30
0.0
 11
-2.049999999999998
 21
-0.0000000000000008
 31
0.0
210
0.0
220
0.0
230
1.0
 40
0.8657348311141287
 41
3.283070246142509
 42
6.141707714629852
  0
LINE
  5
1EB3
330
2
100
AcDbEntity
  8
OUTLINE
100
AcDbLine
 10
3326.635223066368
 20
-570.3688756653747
 30
0.0
 11
3321.635223066369
 21
-566.0402015098042
 31
0.0
  0
LINE
  5
1EB4
330
2
100
AcDbEntity
  8
OUTLINE
100
AcDbLine
 10
3321.635223066369
 20
-566.0402015098038
 30
0.0
 11
3321.635223066369
 21
-566.5407044590417
 31
0.0
  0
LINE
  5
1EB5
330
2
100
AcDbEntity
  8
OUTLINE
100
AcDbLine
 10
3321.635223066369
 20
-566.540704459042
 30
0.0
 11
3326.635223066368
 21
-570.8693786146127
 31
0.0
  0
LINE
  5
1EB6
330
2
100
AcDbEntity
  8
OUTLINE
100
AcDbLine
 10
3326.635223066368
 20
-570.8693786146127
 30
0.0
 11
3326.635223066368
 21
-570.3688756653749
 31
0.0
  0
LINE
  5
1EB7
330
2
100
AcDbEntity
  8
OUTLINE
100
AcDbLine
 10
3350.635223066369
 20
-570.3688756653749
 30
0.0
 11
3326.635223066368
 21
-570.3688756653749
 31
0.0
  0
LINE
  5
1EB8
330
2
100
AcDbEntity
  8
OUTLINE
100
AcDbLine
 10
4134.635223066367
 20
-570.3688756653738
 30
0.0
 11
3351.635223066368
 21
-570.3688756653749
 31
0.0
  0
LINE
  5
1EB9
330
2
100
AcDbEntity
  8
OUTLINE
100
AcDbLine
 10
4159.635223066369
 20
-570.3688756653738
 30
0.0
 11
4135.635223066368
 21
-570.3688756653738
 31
0.0
  0
LINE
  5
1EBA
330
2
100
AcDbEntity
  8
OUTLINE
100
AcDbLine
 10
4164.635223066368
 20
-566.0402015098028
 30
0.0
 11
4159.635223066369
 21
-570.3688756653737
 31
0.0
  0
LINE
  5
1EBB
330
2
100
AcDbEntity
  8
OUTLINE
100
AcDbLine
 10
4164.635223066368
 20
-557.3828531986618
 30
0.0
 11
4164.635223066368
 21
-566.0402015098028
 31
0.0
  0
LINE
  5
1EBC
330
2
100
AcDbEntity
  8
OUTLINE
100
AcDbLine
 10
4164.635223066368
 20
-557.3828531986618
 30
0.0
 11
3321.635223066369
 21
-557.3828531986629
 31
0.0
  0
LINE
  5
1EBD
330
2
100
AcDbEntity
  8
OUTLINE
100
AcDbLine
 10
3321.635223066369
 20
-557.3828531986626
 30
0.0
 11
3321.635223066369
 21
-566.0402015098038
 31
0.0
  0
LINE
  5
1EBE
330
2
100
AcDbEntity
  8
OUTLINE
100
AcDbLine
 10
3350.635223066369
 20
-570.8693786146125
 30
0.0
 11
3326.635223066368
 21
-570.8693786146125
 31
0.0
  0
LINE
  5
1EBF
330
2
100
AcDbEntity
  8
OUTLINE
100
AcDbLine
 10
4134.635223066367
 20
-570.8693786146116
 30
0.0
 11
3351.63522306637
 21
-570.8693786146126
 31
0.0
  0
LINE
  5
1EC0
330
2
100
AcDbEntity
  8
OUTLINE
100
AcDbLine
 10
4159.635223066369
 20
-570.8693786146113
 30
0.0
 11
4135.635223066368
 21
-570.8693786146113
 31
0.0
  0
LINE
  5
1EC1
330
2
100
AcDbEntity
  8
OUTLINE
100
AcDbLine
 10
4159.635223066369
 20
-570.3688756653737
 30
0.0
 11
4159.635223066369
 21
-570.8693786146116
 31
0.0
  0
LINE
  5
1EC2
330
2
100
AcDbEntity
  8
OUTLINE
100
AcDbLine
 10
4159.635223066369
 20
-570.8693786146116
 30
0.0
 11
4164.635223066368
 21
-566.5407044590407
 31
0.0
  0
LINE
  5
1EC3
330
2
100
AcDbEntity
  8
OUTLINE
100
AcDbLine
 10
4164.635223066368
 20
-566.5407044590407
 30
0.0
 11
4164.635223066368
 21
-566.0402015098028
 31
0.0
  0
LINE
  5
1EC4
330
2
100
AcDbEntity
  8
OUTLINE
100
AcDbLine
 10
3351.63522306637
 20
-1276.348630605141
 30
0.0
 11
3350.635223066368
 21
-1276.348630605141
 31
0.0
  0
LINE
  5
1EC5
330
2
100
AcDbEntity
  8
OUTLINE
100
AcDbLine
 10
4135.635223066368
 20
-1276.34863060514
 30
0.0
 11
4134.63522306637
 21
-1276.34863060514
 31
0.0
  0
LINE
  5
1EC6
330
2
100
AcDbEntity
  8
OUTLINE
100
AcDbLine
 10
3351.63522306637
 20
-1275.848127655903
 30
0.0
 11
3350.635223066368
 21
-1275.848127655903
 31
0.0
  0
LINE
  5
1EC7
330
2
100
AcDbEntity
  8
OUTLINE
100
AcDbLine
 10
4135.635223066368
 20
-1275.848127655902
 30
0.0
 11
4134.63522306637
 21
-1275.848127655902
 31
0.0
  0
LINE
  5
1EC8
330
2
100
AcDbEntity
  8
OUTLINE
100
AcDbLine
 10
3321.635223066369
 20
-566.5407044593059
 30
0.0
 11
3321.635223066369
 21
-571.3996955783366
 31
0.0
  0
LINE
  5
1EC9
330
2
100
AcDbEntity
  8
OUTLINE
100
AcDbLine
 10
3350.635223066369
 20
-571.3996955783366
 30
0.0
 11
3321.635223066369
 21
-571.3996955783366
 31
0.0
  0
LINE
  5
1ECA
330
2
100
AcDbEntity
  8
OUTLINE
100
AcDbLine
 10
4134.635223066367
 20
-571.3996955783357
 30
0.0
 11
3351.63522306637
 21
-571.3996955783366
 31
0.0
  0
LINE
  5
1ECB
330
2
100
AcDbEntity
  8
OUTLINE
100
AcDbLine
 10
4164.635223066368
 20
-571.3996955783357
 30
0.0
 11
4135.635223066368
 21
-571.3996955783357
 31
0.0
  0
LINE
  5
1ECC
330
2
100
AcDbEntity
  8
OUTLINE
100
AcDbLine
 10
4164.635223066368
 20
-566.5407044590298
 30
0.0
 11
4164.635223066368
 21
-571.3996955783357
 31
0.0
  0
LINE
  5
1ECD
330
2
100
AcDbEntity
  8
OUTLINE
100
AcDbLine
 10
4164.635223066368
 20
-571.3996955783353
 30
0.0
 11
4164.635223066368
 21
-571.8991922914427
 31
0.0
  0
LINE
  5
1ECE
330
2
100
AcDbEntity
  8
OUTLINE
100
AcDbLine
 10
3321.635223066368
 20
-571.3996955783366
 30
0.0
 11
3321.635223066368
 21
-571.899192291769
 31
0.0
  0
ELLIPSE
  5
1ECF
330
2
100
AcDbEntity
  8
OUTLINE
100
AcDbEllipse
 10
4113.135223066367
 20
-922.1278136120998
 30
0.0
 11
-2.049999999999998
 21
0.0000000000000298
 31
0.0
210
0.0
220
0.0
230
1.0
 40
0.8657348311141392
 41
-0.0000000000000149
 42
6.28318530717957
  0
ELLIPSE
  5
1ED0
330
2
100
AcDbEntity
  8
OUTLINE
100
AcDbEllipse
 10
4113.135223066367
 20
-922.6283165613375
 30
0.0
 11
2.049999999999998
 21
-0.0000000000000298
 31
0.0
210
0.0
220
0.0
230
1.0
 40
0.8657348311141392
 41
0.1414775925511906
 42
3.000115061038596
  0
ELLIPSE
  5
1ED1
330
2
100
AcDbEntity
  8
OUTLINE
100
AcDbEllipse
 10
3373.135223066368
 20
-922.1278136120966
 30
0.0
 11
-2.049999999999998
 21
0.0000000000000298
 31
0.0
210
0.0
220
0.0
230
1.0
 40
0.8657348311141392
 41
-0.0000000000000149
 42
6.28318530717957
  0
ELLIPSE
  5
1ED2
330
2
100
AcDbEntity
  8
OUTLINE
100
AcDbEllipse
 10
3558.135223066368
 20
-916.9334046254125
 30
0.0
 11
-2.049999999999998
 21
0.0000000000000298
 31
0.0
210
0.0
220
0.0
230
1.0
 40
0.8657348311141392
 41
-0.0000000000000149
 42
6.28318530717957
  0
ELLIPSE
  5
1ED3
330
2
100
AcDbEntity
  8
OUTLINE
100
AcDbEllipse
 10
3743.135223066368
 20
-922.1278136120982
 30
0.0
 11
-2.049999999999998
 21
0.0000000000000298
 31
0.0
210
0.0
220
0.0
230
1.0
 40
0.8657348311141392
 41
-0.0000000000000149
 42
6.28318530717957
  0
ELLIPSE
  5
1ED4
330
2
100
AcDbEntity
  8
OUTLINE
100
AcDbEllipse
 10
3928.135223066368
 20
-916.9334046254141
 30
0.0
 11
-2.049999999999998
 21
0.0000000000000298
 31
0.0
210
0.0
220
0.0
230
1.0
 40
0.8657348311141392
 41
-0.0000000000000149
 42
6.28318530717957
  0
ELLIPSE
  5
1ED5
330
2
100
AcDbEntity
  8
OUTLINE
100
AcDbEllipse
 10
3373.135223066368
 20
-922.6283165613343
 30
0.0
 11
2.049999999999998
 21
-0.0000000000000298
 31
0.0
210
0.0
220
0.0
230
1.0
 40
0.8657348311141392
 41
0.1414775925512182
 42
3.000115061038568
  0
ELLIPSE
  5
1ED6
330
2
100
AcDbEntity
  8
OUTLINE
100
AcDbEllipse
 10
3558.135223066368
 20
-917.4339075746503
 30
0.0
 11
2.049999999999998
 21
-0.0000000000000298
 31
0.0
210
0.0
220
0.0
230
1.0
 40
0.8657348311141392
 41
0.1414775925512419
 42
3.000115061038596
  0
ELLIPSE
  5
1ED7
330
2
100
AcDbEntity
  8
OUTLINE
100
AcDbEllipse
 10
3743.135223066368
 20
-922.6283165613361
 30
0.0
 11
2.049999999999998
 21
-0.0000000000000298
 31
0.0
210
0.0
220
0.0
230
1.0
 40
0.8657348311141392
 41
0.1414775925511906
 42
3.000115061038596
  0
ELLIPSE
  5
1ED8
330
2
100
AcDbEntity
  8
OUTLINE
100
AcDbEllipse
 10
3928.135223066368
 20
-917.4339075746519
 30
0.0
 11
2.049999999999998
 21
-0.0000000000000298
 31
0.0
210
0.0
220
0.0
230
1.0
 40
0.8657348311141392
 41
0.1414775925511669
 42
3.00011506103862
  0
LINE
  5
1ED9
330
2
100
AcDbEntity
  8
OUTLINE
100
AcDbLine
 10
3358.135223066368
 20
-924.3597862235626
 30
0.0
 11
3363.135223066368
 21
-928.6884603791333
 31
0.0
  0
LINE
  5
1EDA
330
2
100
AcDbEntity
  8
OUTLINE
100
AcDbLine
 10
3363.135223066368
 20
-928.6884603791333
 30
0.0
 11
3363.135223066368
 21
-928.1879574298956
 31
0.0
  0
LINE
  5
1EDB
330
2
100
AcDbEntity
  8
OUTLINE
100
AcDbLine
 10
3363.135223066368
 20
-928.1879574298956
 30
0.0
 11
3358.135223066368
 21
-923.8592832743247
 31
0.0
  0
LINE
  5
1EDC
330
2
100
AcDbEntity
  8
OUTLINE
100
AcDbLine
 10
3358.135223066368
 20
-923.8592832743247
 30
0.0
 11
3358.135223066368
 21
-924.3597862235626
 31
0.0
  0
LINE
  5
1EDD
330
2
100
AcDbEntity
  8
OUTLINE
100
AcDbLine
 10
3358.135223066368
 20
-923.8592832743247
 30
0.0
 11
3358.135223066368
 21
-911.7389956387269
 31
0.0
  0
LINE
  5
1EDE
330
2
100
AcDbEntity
  8
OUTLINE
100
AcDbLine
 10
3358.135223066368
 20
-911.7389956387269
 30
0.0
 11
3358.135223066368
 21
-909.8452006956559
 31
0.0
  0
LINE
  5
1EDF
330
2
100
AcDbEntity
  8
OUTLINE
100
AcDbLine
 10
3358.135223066368
 20
-909.3446977464273
 30
0.0
 11
3358.135223066368
 21
-909.8452006956653
 31
0.0
  0
LINE
  5
1EE0
330
2
100
AcDbEntity
  8
OUTLINE
100
AcDbLine
 10
3358.135223066368
 20
-909.3446977464273
 30
0.0
 11
3358.135223066368
 21
-896.3586752797155
 31
0.0
  0
LINE
  5
1EE1
330
2
100
AcDbEntity
  8
OUTLINE
100
AcDbLine
 10
3363.135223066368
 20
-928.1879574298956
 30
0.0
 11
4123.135223066368
 21
-928.1879574298987
 31
0.0
  0
LINE
  5
1EE2
330
2
100
AcDbEntity
  8
OUTLINE
100
AcDbLine
 10
4128.135223066368
 20
-923.8592832743281
 30
0.0
 11
4123.135223066368
 21
-928.1879574298987
 31
0.0
  0
LINE
  5
1EE3
330
2
100
AcDbEntity
  8
OUTLINE
100
AcDbLine
 10
4128.135223066368
 20
-923.8592832743281
 30
0.0
 11
4128.135223066368
 21
-911.7389956387299
 31
0.0
  0
LINE
  5
1EE4
330
2
100
AcDbEntity
  8
OUTLINE
100
AcDbLine
 10
4125.947723066357
 20
-911.7389956387299
 30
0.0
 11
4128.135223066368
 21
-911.7389956387299
 31
0.0
  0
LINE
  5
1EE5
330
2
100
AcDbEntity
  8
OUTLINE
100
AcDbLine
 10
3358.135223066368
 20
-911.7389956387269
 30
0.0
 11
3360.322723066381
 21
-911.7389956387269
 31
0.0
  0
LINE
  5
1EE6
330
2
100
AcDbEntity
  8
OUTLINE
100
AcDbLine
 10
3363.135223066368
 20
-913.6733719019982
 30
0.0
 11
3358.135223066368
 21
-909.3446977464273
 31
0.0
  0
LINE
  5
1EE7
330
2
100
AcDbEntity
  8
OUTLINE
100
AcDbLine
 10
3358.135223066368
 20
-909.8452006956653
 30
0.0
 11
3363.135223066368
 21
-914.1738748512359
 31
0.0
  0
LINE
  5
1EE8
330
2
100
AcDbEntity
  8
OUTLINE
100
AcDbLine
 10
3363.135223066368
 20
-914.1738748512359
 30
0.0
 11
3363.135223066368
 21
-913.6733719019982
 31
0.0
  0
LINE
  5
1EE9
330
2
100
AcDbEntity
  8
OUTLINE
100
AcDbLine
 10
3363.135223066368
 20
-914.1738748512359
 30
0.0
 11
4123.135223066368
 21
-914.1738748512393
 31
0.0
  0
LINE
  5
1EEA
330
2
100
AcDbEntity
  8
OUTLINE
100
AcDbLine
 10
4123.135223066368
 20
-913.6733719020012
 30
0.0
 11
4123.135223066368
 21
-914.1738748512393
 31
0.0
  0
LINE
  5
1EEB
330
2
100
AcDbEntity
  8
OUTLINE
100
AcDbLine
 10
3363.135223066368
 20
-913.6733719019982
 30
0.0
 11
4123.135223066368
 21
-913.6733719020012
 31
0.0
  0
LINE
  5
1EEC
330
2
100
AcDbEntity
  8
OUTLINE
100
AcDbLine
 10
4123.135223066368
 20
-914.1738748512393
 30
0.0
 11
4128.135223066368
 21
-909.8452006956689
 31
0.0
  0
LINE
  5
1EED
330
2
100
AcDbEntity
  8
OUTLINE
100
AcDbLine
 10
4128.135223066368
 20
-909.3446977464306
 30
0.0
 11
4123.135223066368
 21
-913.6733719020012
 31
0.0
  0
LINE
  5
1EEE
330
2
100
AcDbEntity
  8
OUTLINE
100
AcDbLine
 10
4128.135223066368
 20
-909.8452006956689
 30
0.0
 11
4128.135223066368
 21
-909.3446977464308
 31
0.0
  0
LINE
  5
1EEF
330
2
100
AcDbEntity
  8
OUTLINE
100
AcDbLine
 10
4128.135223066368
 20
-909.3446977464308
 30
0.0
 11
4128.135223066368
 21
-896.3586752797189
 31
0.0
  0
LINE
  5
1EF0
330
2
100
AcDbEntity
  8
OUTLINE
100
AcDbLine
 10
3358.135223066368
 20
-896.3586752797157
 30
0.0
 11
4128.135223066368
 21
-896.3586752797191
 31
0.0
  0
LINE
  5
1EF1
330
2
100
AcDbEntity
  8
OUTLINE
100
AcDbLine
 10
4128.135223066368
 20
-911.7389956387299
 30
0.0
 11
4128.135223066368
 21
-909.8452006956591
 31
0.0
  0
LINE
  5
1EF2
330
2
100
AcDbEntity
  8
OUTLINE
100
AcDbLine
 10
4128.135223066368
 20
-924.3597862235658
 30
0.0
 11
4128.135223066368
 21
-923.8592832743281
 31
0.0
  0
LINE
  5
1EF3
330
2
100
AcDbEntity
  8
OUTLINE
100
AcDbLine
 10
4123.135223066368
 20
-928.6884603791364
 30
0.0
 11
4128.135223066368
 21
-924.359786223566
 31
0.0
  0
LINE
  5
1EF4
330
2
100
AcDbEntity
  8
OUTLINE
100
AcDbLine
 10
4123.135223066368
 20
-928.1879574298987
 30
0.0
 11
4123.135223066368
 21
-928.6884603791367
 31
0.0
  0
LINE
  5
1EF5
330
2
100
AcDbEntity
  8
OUTLINE
100
AcDbLine
 10
3363.135223066368
 20
-928.6884603791333
 30
0.0
 11
4123.135223066368
 21
-928.6884603791364
 31
0.0
  0
ELLIPSE
  5
1EF6
330
2
100
AcDbEntity
  8
OUTLINE
100
AcDbEllipse
 10
3307.635223066371
 20
-752.4715342153113
 30
0.0
 11
-2.25
 21
0.0
 31
0.0
210
0.0
220
0.0
230
1.0
 40
0.8657348311142428
 41
0.0000000000000002
 42
6.283185307179585
  0
ELLIPSE
  5
1EF7
330
2
100
AcDbEntity
  8
OUTLINE
100
AcDbEllipse
 10
3307.635223066371
 20
-923.0212959448275
 30
0.0
 11
-2.25
 21
0.0
 31
0.0
210
0.0
220
0.0
230
1.0
 40
0.8657348311142428
 41
0.0000000000000002
 42
6.283185307179585
  0
ELLIPSE
  5
1EF8
330
2
100
AcDbEntity
  8
OUTLINE
100
AcDbEllipse
 10
3307.635223066371
 20
-1093.571057674344
 30
0.0
 11
-2.25
 21
0.0
 31
0.0
210
0.0
220
0.0
230
1.0
 40
0.8657348311142428
 41
0.0000000000000002
 42
6.283185307179585
  0
ELLIPSE
  5
1EF9
330
2
100
AcDbEntity
  8
OUTLINE
100
AcDbEllipse
 10
3307.635223066371
 20
-1094.071560623538
 30
0.0
 11
2.25
 21
0.0
 31
0.0
210
0.0
220
0.0
230
1.0
 40
0.8657348311142968
 41
0.1288282812269235
 42
3.012764372362868
  0
ELLIPSE
  5
1EFA
330
2
100
AcDbEntity
  8
OUTLINE
100
AcDbEllipse
 10
3307.635223066371
 20
-923.5217988940215
 30
0.0
 11
2.25
 21
0.0
 31
0.0
210
0.0
220
0.0
230
1.0
 40
0.8657348311142968
 41
0.1288282812269669
 42
3.012764372362826
  0
ELLIPSE
  5
1EFB
330
2
100
AcDbEntity
  8
OUTLINE
100
AcDbEllipse
 10
3307.635223066371
 20
-752.9720371645053
 30
0.0
 11
2.25
 21
0.0
 31
0.0
210
0.0
220
0.0
230
1.0
 40
0.8657348311142968
 41
0.1288282812269398
 42
3.012764372362858
  0
CIRCLE
  5
1EFC
330
2
100
AcDbEntity
  8
OUTLINE
100
AcDbCircle
 10
3297.135223066371
 20
-624.8991922930128
 30
0.0
 40
3.5
  0
CIRCLE
  5
1EFD
330
2
100
AcDbEntity
  8
OUTLINE
100
AcDbCircle
 10
3297.135223066371
 20
-1224.899192293013
 30
0.0
 40
3.5
  0
LINE
  5
1EFE
330
2
100
AcDbEntity
  8
OUTLINE
100
AcDbLine
 10
3311.635223066371
 20
-724.8991922930127
 30
0.0
 11
3311.635223066371
 21
-1124.899192293013
 31
0.0
  0
LINE
  5
1EFF
330
2
100
AcDbEntity
  8
OUTLINE
100
AcDbLine
 10
3311.635223066371
 20
-1124.899192293013
 30
0.0
 11
3280.635223066371
 21
-1155.899192293013
 31
0.0
  0
LINE
  5
1F00
330
2
100
AcDbEntity
  8
OUTLINE
100
AcDbLine
 10
3280.635223066371
 20
-693.8991922930129
 30
0.0
 11
3311.635223066371
 21
-724.8991922930127
 31
0.0
  0
LINE
  5
1F01
330
2
100
AcDbEntity
  8
OUTLINE
100
AcDbLine
 10
3280.635223066371
 20
-592.8991922930126
 30
0.0
 11
3280.635223066371
 21
-693.8991922930129
 31
0.0
  0
LINE
  5
1F02
330
2
100
AcDbEntity
  8
OUTLINE
100
AcDbLine
 10
3293.635223066371
 20
-1142.899192292846
 30
0.0
 11
3293.635223066371
 21
-706.8991922927616
 31
0.0
  0
LINE
  5
1F03
330
2
100
AcDbEntity
  8
OUTLINE
100
AcDbLine
 10
3292.635223066371
 20
-1143.899192292846
 30
0.0
 11
3292.635223066371
 21
-705.8991922927614
 31
0.0
  0
LINE
  5
1F04
330
2
100
AcDbEntity
  8
OUTLINE
100
AcDbLine
 10
3293.635223066371
 20
-579.8991922930123
 30
0.0
 11
3293.635223066371
 21
-573.8991922930123
 31
0.0
  0
LINE
  5
1F05
330
2
100
AcDbEntity
  8
OUTLINE
100
AcDbLine
 10
3293.635223066371
 20
-1275.899192293012
 30
0.0
 11
3293.635223066371
 21
-1269.899192293012
 31
0.0
  0
LINE
  5
1F06
330
2
100
AcDbEntity
  8
OUTLINE
100
AcDbLine
 10
3320.63522306637
 20
-573.8991922930123
 30
0.0
 11
3293.635223066371
 21
-573.8991922930123
 31
0.0
  0
LINE
  5
1F07
330
2
100
AcDbEntity
  8
OUTLINE
100
AcDbLine
 10
3320.63522306637
 20
-572.8991922930122
 30
0.0
 11
3292.635223066371
 21
-572.8991922930122
 31
0.0
  0
LINE
  5
1F08
330
2
100
AcDbEntity
  8
OUTLINE
100
AcDbLine
 10
3292.635223066371
 20
-580.8991922930122
 30
0.0
 11
3292.635223066371
 21
-572.8991922930122
 31
0.0
  0
LINE
  5
1F09
330
2
100
AcDbEntity
  8
OUTLINE
100
AcDbLine
 10
3320.63522306637
 20
-1275.899192293012
 30
0.0
 11
3293.635223066371
 21
-1275.899192293012
 31
0.0
  0
LINE
  5
1F0A
330
2
100
AcDbEntity
  8
OUTLINE
100
AcDbLine
 10
3295.635223066371
 20
-1271.899192293013
 30
0.0
 11
3280.635223066371
 21
-1256.899192293013
 31
0.0
  0
LINE
  5
1F0B
330
2
100
AcDbEntity
  8
OUTLINE
100
AcDbLine
 10
3280.635223066371
 20
-1155.899192293013
 30
0.0
 11
3280.635223066371
 21
-1256.899192293013
 31
0.0
  0
LINE
  5
1F0C
330
2
100
AcDbEntity
  8
OUTLINE
100
AcDbLine
 10
3280.635223066371
 20
-592.8991922930129
 30
0.0
 11
3295.635223066371
 21
-577.8991922930129
 31
0.0
  0
LINE
  5
1F0D
330
2
100
AcDbEntity
  8
OUTLINE
100
AcDbLine
 10
3320.63522306637
 20
-1276.899192293013
 30
0.0
 11
3317.63522306637
 21
-1276.899192293013
 31
0.0
  0
LINE
  5
1F0E
330
2
100
AcDbEntity
  8
OUTLINE
100
AcDbLine
 10
3292.635223066371
 20
-1268.899192293012
 30
0.0
 11
3292.635223066371
 21
-1276.899192293012
 31
0.0
  0
LINE
  5
1F0F
330
2
100
AcDbEntity
  8
OUTLINE
100
AcDbLine
 10
3320.63522306637
 20
-1276.899192293013
 30
0.0
 11
3321.635223066371
 21
-1276.899192293013
 31
0.0
  0
LINE
  5
1F10
330
2
100
AcDbEntity
  8
OUTLINE
100
AcDbLine
 10
3320.63522306637
 20
-1276.899192293013
 30
0.0
 11
3320.63522306637
 21
-1271.899192293013
 31
0.0
  0
LINE
  5
1F11
330
2
100
AcDbEntity
  8
OUTLINE
100
AcDbLine
 10
3320.63522306637
 20
-577.8991922930128
 30
0.0
 11
3320.63522306637
 21
-572.8991922930127
 31
0.0
  0
LINE
  5
1F12
330
2
100
AcDbEntity
  8
OUTLINE
100
AcDbLine
 10
3321.635223066371
 20
-1276.899192293013
 30
0.0
 11
3321.635223066371
 21
-572.8991922930129
 31
0.0
  0
LINE
  5
1F13
330
2
100
AcDbEntity
  8
OUTLINE
100
AcDbLine
 10
3320.63522306637
 20
-572.8991922930127
 30
0.0
 11
3321.635223066371
 21
-572.8991922930127
 31
0.0
  0
LINE
  5
1F14
330
2
100
AcDbEntity
  8
OUTLINE
100
AcDbLine
 10
3320.63522306637
 20
-1271.899192293013
 30
0.0
 11
3295.635223066371
 21
-1271.899192293013
 31
0.0
  0
LINE
  5
1F15
330
2
100
AcDbEntity
  8
OUTLINE
100
AcDbLine
 10
3320.63522306637
 20
-577.8991922930128
 30
0.0
 11
3295.635223066371
 21
-577.8991922930128
 31
0.0
  0
ARC
  5
1F16
330
2
100
AcDbEntity
  8
OUTLINE
100
AcDbCircle
 10
2467.135223066365
 20
-774.8991922930127
 30
0.0
 40
3.5
100
AcDbArc
 50
270.0
 51
90.0
  0
ARC
  5
1F17
330
2
100
AcDbEntity
  8
OUTLINE
100
AcDbCircle
 10
2465.135223066365
 20
-774.8991922930127
 30
0.0
 40
3.5
100
AcDbArc
 50
90.0
 51
270.0
  0
ARC
  5
1F18
330
2
100
AcDbEntity
  8
OUTLINE
100
AcDbCircle
 10
2467.135223066365
 20
-1074.899192293012
 30
0.0
 40
3.5
100
AcDbArc
 50
270.0
 51
90.0
  0
ARC
  5
1F19
330
2
100
AcDbEntity
  8
OUTLINE
100
AcDbCircle
 10
2465.135223066365
 20
-1074.899192293012
 30
0.0
 40
3.5
100
AcDbArc
 50
90.0
 51
270.0
  0
ARC
  5
1F1A
330
2
100
AcDbEntity
  8
OUTLINE
100
AcDbCircle
 10
2467.135223066365
 20
-1224.899192293012
 30
0.0
 40
3.5
100
AcDbArc
 50
270.0
 51
90.0
  0
ARC
  5
1F1B
330
2
100
AcDbEntity
  8
OUTLINE
100
AcDbCircle
 10
2465.135223066365
 20
-1224.899192293012
 30
0.0
 40
3.5
100
AcDbArc
 50
90.0
 51
270.0
  0
ARC
  5
1F1C
330
2
100
AcDbEntity
  8
OUTLINE
100
AcDbCircle
 10
2467.135223066365
 20
-924.8991922930127
 30
0.0
 40
3.5
100
AcDbArc
 50
270.0
 51
90.0
  0
ARC
  5
1F1D
330
2
100
AcDbEntity
  8
OUTLINE
100
AcDbCircle
 10
2465.135223066365
 20
-924.8991922930123
 30
0.0
 40
3.5
100
AcDbArc
 50
90.0
 51
270.0
  0
ARC
  5
1F1E
330
2
100
AcDbEntity
  8
OUTLINE
100
AcDbCircle
 10
2467.135223066365
 20
-624.8991922930128
 30
0.0
 40
3.5
100
AcDbArc
 50
270.0
 51
90.0
  0
ARC
  5
1F1F
330
2
100
AcDbEntity
  8
OUTLINE
100
AcDbCircle
 10
2465.135223066365
 20
-624.8991922930128
 30
0.0
 40
3.5
100
AcDbArc
 50
90.0
 51
270.0
  0
ELLIPSE
  5
1F20
330
2
100
AcDbEntity
  8
OUTLINE
100
AcDbEllipse
 10
2492.635223066365
 20
-1264.120819403819
 30
0.0
 11
-2.0
 21
0.0
 31
0.0
210
0.0
220
0.0
230
1.0
 40
0.8657348311142966
 41
0.0000000000000002
 42
6.283185307179585
  0
ELLIPSE
  5
1F21
330
2
100
AcDbEntity
  8
OUTLINE
100
AcDbEllipse
 10
2492.635223066365
 20
-1264.621322353057
 30
0.0
 11
2.0
 21
0.0
 31
0.0
210
0.0
220
0.0
230
1.0
 40
0.8657348311142966
 41
0.145039232106016
 42
2.996553421483776
  0
ELLIPSE
  5
1F22
330
2
100
AcDbEntity
  8
OUTLINE
100
AcDbEllipse
 10
2492.635223066365
 20
-1093.571057674298
 30
0.0
 11
-2.0
 21
0.0
 31
0.0
210
0.0
220
0.0
230
1.0
 40
0.8657348311142966
 41
0.0000000000000002
 42
6.283185307179585
  0
ELLIPSE
  5
1F23
330
2
100
AcDbEntity
  8
OUTLINE
100
AcDbEllipse
 10
2492.635223066365
 20
-1094.071560623536
 30
0.0
 11
2.0
 21
0.0
 31
0.0
210
0.0
220
0.0
230
1.0
 40
0.8657348311142966
 41
0.1450392321060929
 42
2.9965534214837
  0
ELLIPSE
  5
1F24
330
2
100
AcDbEntity
  8
OUTLINE
100
AcDbEllipse
 10
2492.635223066365
 20
-923.0212959447817
 30
0.0
 11
-2.0
 21
0.0
 31
0.0
210
0.0
220
0.0
230
1.0
 40
0.8657348311142966
 41
0.0000000000000002
 42
6.283185307179585
  0
ELLIPSE
  5
1F25
330
2
100
AcDbEntity
  8
OUTLINE
100
AcDbEllipse
 10
2492.635223066365
 20
-923.5217988940195
 30
0.0
 11
2.0
 21
0.0
 31
0.0
210
0.0
220
0.0
230
1.0
 40
0.8657348311142966
 41
0.1450392321061415
 42
2.996553421483651
  0
ELLIPSE
  5
1F26
330
2
100
AcDbEntity
  8
OUTLINE
100
AcDbEllipse
 10
2492.635223066365
 20
-752.4715342152695
 30
0.0
 11
-1.999999999999999
 21
0.0
 31
0.0
210
0.0
220
0.0
230
1.0
 40
0.8657348311142966
 41
0.0000000000000002
 42
6.283185307179585
  0
ELLIPSE
  5
1F27
330
2
100
AcDbEntity
  8
OUTLINE
100
AcDbEllipse
 10
2492.635223066365
 20
-752.9720371645067
 30
0.0
 11
1.999999999999999
 21
0.0
 31
0.0
210
0.0
220
0.0
230
1.0
 40
0.8657348311142966
 41
0.1450392321059551
 42
2.996553421483836
  0
ELLIPSE
  5
1F28
330
2
100
AcDbEntity
  8
OUTLINE
100
AcDbEllipse
 10
2492.635223066365
 20
-582.4222754349888
 30
0.0
 11
1.999999999999999
 21
0.0
 31
0.0
210
0.0
220
0.0
230
1.0
 40
0.8657348311142966
 41
0.1450392321059308
 42
2.996553421483861
  0
ELLIPSE
  5
1F29
330
2
100
AcDbEntity
  8
OUTLINE
100
AcDbEllipse
 10
2492.635223066365
 20
-581.9217724857516
 30
0.0
 11
-1.999999999999999
 21
0.0
 31
0.0
210
0.0
220
0.0
230
1.0
 40
0.8657348311142966
 41
0.0000000000000002
 42
6.283185307179585
  0
LINE
  5
1F2A
330
2
100
AcDbEntity
  8
OUTLINE
100
AcDbLine
 10
2465.135223066365
 20
-771.3991922930127
 30
0.0
 11
2467.135223066365
 21
-771.3991922930127
 31
0.0
  0
LINE
  5
1F2B
330
2
100
AcDbEntity
  8
OUTLINE
100
AcDbLine
 10
2467.135223066365
 20
-778.3991922930127
 30
0.0
 11
2465.135223066365
 21
-778.3991922930127
 31
0.0
  0
LINE
  5
1F2C
330
2
100
AcDbEntity
  8
OUTLINE
100
AcDbLine
 10
2465.135223066365
 20
-1071.399192293012
 30
0.0
 11
2467.135223066365
 21
-1071.399192293012
 31
0.0
  0
LINE
  5
1F2D
330
2
100
AcDbEntity
  8
OUTLINE
100
AcDbLine
 10
2467.135223066365
 20
-1078.399192293012
 30
0.0
 11
2465.135223066365
 21
-1078.399192293012
 31
0.0
  0
LINE
  5
1F2E
330
2
100
AcDbEntity
  8
OUTLINE
100
AcDbLine
 10
2465.135223066365
 20
-1221.399192293012
 30
0.0
 11
2467.135223066365
 21
-1221.399192293012
 31
0.0
  0
LINE
  5
1F2F
330
2
100
AcDbEntity
  8
OUTLINE
100
AcDbLine
 10
2467.135223066365
 20
-1228.399192293012
 30
0.0
 11
2465.135223066365
 21
-1228.399192293012
 31
0.0
  0
LINE
  5
1F30
330
2
100
AcDbEntity
  8
OUTLINE
100
AcDbLine
 10
2465.135223066365
 20
-921.3991922930123
 30
0.0
 11
2467.135223066365
 21
-921.3991922930123
 31
0.0
  0
LINE
  5
1F31
330
2
100
AcDbEntity
  8
OUTLINE
100
AcDbLine
 10
2467.135223066365
 20
-928.3991922930123
 30
0.0
 11
2465.135223066365
 21
-928.3991922930123
 31
0.0
  0
LINE
  5
1F32
330
2
100
AcDbEntity
  8
OUTLINE
100
AcDbLine
 10
2465.135223066365
 20
-621.3991922930123
 30
0.0
 11
2467.135223066365
 21
-621.3991922930123
 31
0.0
  0
LINE
  5
1F33
330
2
100
AcDbEntity
  8
OUTLINE
100
AcDbLine
 10
2467.135223066365
 20
-628.3991922930123
 30
0.0
 11
2465.135223066365
 21
-628.3991922930123
 31
0.0
  0
LINE
  5
1F34
330
2
100
AcDbEntity
  8
OUTLINE
100
AcDbLine
 10
2478.635223066365
 20
-573.8991922930126
 30
0.0
 11
2449.635223066366
 21
-611.8991922930128
 31
0.0
  0
LINE
  5
1F35
330
2
100
AcDbEntity
  8
OUTLINE
100
AcDbLine
 10
2449.635223066366
 20
-611.8991922930128
 30
0.0
 11
2449.635223066366
 21
-1237.899192293012
 31
0.0
  0
LINE
  5
1F36
330
2
100
AcDbEntity
  8
OUTLINE
100
AcDbLine
 10
2449.635223066366
 20
-1237.899192293012
 30
0.0
 11
2478.635223066365
 21
-1275.899192293012
 31
0.0
  0
LINE
  5
1F37
330
2
100
AcDbEntity
  8
OUTLINE
100
AcDbLine
 10
2478.635223066365
 20
-1275.899192293013
 30
0.0
 11
2478.635223066365
 21
-573.8991922930129
 31
0.0
  0
LINE
  5
1F38
330
2
100
AcDbEntity
  8
OUTLINE
100
AcDbLine
 10
2507.635223066365
 20
-1266.899192293012
 30
0.0
 11
2506.635223066365
 21
-1266.899192293012
 31
0.0
  0
LINE
  5
1F39
330
2
100
AcDbEntity
  8
OUTLINE
100
AcDbLine
 10
2478.635223066365
 20
-573.8991922930123
 30
0.0
 11
2506.635223066365
 21
-573.8991922930123
 31
0.0
  0
LINE
  5
1F3A
330
2
100
AcDbEntity
  8
OUTLINE
100
AcDbLine
 10
2506.635223066365
 20
-573.8991922930123
 30
0.0
 11
2506.635223066365
 21
-582.8991922930121
 31
0.0
  0
LINE
  5
1F3B
330
2
100
AcDbEntity
  8
OUTLINE
100
AcDbLine
 10
2506.635223066365
 20
-582.8991922930121
 30
0.0
 11
2507.635223066365
 21
-582.8991922930121
 31
0.0
  0
LINE
  5
1F3C
330
2
100
AcDbEntity
  8
OUTLINE
100
AcDbLine
 10
2507.635223066365
 20
-582.8991922930123
 30
0.0
 11
2507.635223066365
 21
-572.8991922930123
 31
0.0
  0
LINE
  5
1F3D
330
2
100
AcDbEntity
  8
OUTLINE
100
AcDbLine
 10
2477.635223066365
 20
-572.8991922930123
 30
0.0
 11
2507.635223066365
 21
-572.8991922930123
 31
0.0
  0
LINE
  5
1F3E
330
2
100
AcDbEntity
  8
OUTLINE
100
AcDbLine
 10
2477.635223066365
 20
-575.2095371205983
 30
0.0
 11
2477.635223066365
 21
-572.8991922930123
 31
0.0
  0
LINE
  5
1F3F
330
2
100
AcDbEntity
  8
OUTLINE
100
AcDbLine
 10
2506.635223066365
 20
-1266.89919229287
 30
0.0
 11
2506.635223066365
 21
-582.8991922927373
 31
0.0
  0
LINE
  5
1F40
330
2
100
AcDbEntity
  8
OUTLINE
100
AcDbLine
 10
2507.635223066365
 20
-582.8991922927373
 30
0.0
 11
2507.635223066365
 21
-1266.89919229287
 31
0.0
  0
LINE
  5
1F41
330
2
100
AcDbEntity
  8
OUTLINE
100
AcDbLine
 10
2506.635223066365
 20
-1275.899192293012
 30
0.0
 11
2478.635223066365
 21
-1275.899192293012
 31
0.0
  0
LINE
  5
1F42
330
2
100
AcDbEntity
  8
OUTLINE
100
AcDbLine
 10
2477.635223066365
 20
-1276.899192293012
 30
0.0
 11
2477.635223066365
 21
-1274.588847465426
 31
0.0
  0
LINE
  5
1F43
330
2
100
AcDbEntity
  8
OUTLINE
100
AcDbLine
 10
2477.635223066365
 20
-1276.899192293012
 30
0.0
 11
2482.635223066365
 21
-1276.899192293012
 31
0.0
  0
LINE
  5
1F44
330
2
100
AcDbEntity
  8
OUTLINE
100
AcDbLine
 10
2507.635223066365
 20
-1276.899192293012
 30
0.0
 11
2507.635223066365
 21
-1266.899192293012
 31
0.0
  0
LINE
  5
1F45
330
2
100
AcDbEntity
  8
OUTLINE
100
AcDbLine
 10
2506.635223066365
 20
-1266.899192293012
 30
0.0
 11
2506.635223066365
 21
-1275.899192293012
 31
0.0
  0
LINE
  5
1F46
330
2
100
AcDbEntity
  8
OUTLINE
100
AcDbLine
 10
3286.635223066369
 20
-559.899192293013
 30
0.0
 11
3286.635223066369
 21
-558.899192293013
 31
0.0
  0
LINE
  5
1F47
330
2
100
AcDbEntity
  8
OUTLINE
100
AcDbLine
 10
2513.63522306637
 20
-558.899192293013
 30
0.0
 11
2513.63522306637
 21
-559.899192293013
 31
0.0
  0
LINE
  5
1F48
330
2
100
AcDbEntity
  8
OUTLINE
100
AcDbLine
 10
2513.63522306637
 20
-559.899192293013
 30
0.0
 11
3286.63522306637
 21
-559.8991922930129
 31
0.0
  0
LINE
  5
1F49
330
2
100
AcDbEntity
  8
OUTLINE
100
AcDbLine
 10
3316.635223066369
 20
-572.8991922930124
 30
0.0
 11
3291.635223066369
 21
-572.8991922930124
 31
0.0
  0
LINE
  5
1F4A
330
2
100
AcDbEntity
  8
OUTLINE
100
AcDbLine
 10
2508.635223066371
 20
-572.8991922930126
 30
0.0
 11
2483.63522306637
 21
-572.8991922930126
 31
0.0
  0
LINE
  5
1F4B
330
2
100
AcDbEntity
  8
OUTLINE
100
AcDbLine
 10
3321.635223066369
 20
-572.8991922930107
 30
0.0
 11
3321.635223066369
 21
-571.899192293011
 31
0.0
  0
LINE
  5
1F4C
330
2
100
AcDbEntity
  8
OUTLINE
100
AcDbLine
 10
3321.635223066369
 20
-571.899192293011
 30
0.0
 11
3316.63522306637
 21
-571.8991922930126
 31
0.0
  0
LINE
  5
1F4D
330
2
100
AcDbEntity
  8
OUTLINE
100
AcDbLine
 10
3316.63522306637
 20
-571.8991922930126
 30
0.0
 11
3316.63522306637
 21
-572.8991922930124
 31
0.0
  0
LINE
  5
1F4E
330
2
100
AcDbEntity
  8
OUTLINE
100
AcDbLine
 10
3292.63522306637
 20
-571.8991922930126
 30
0.0
 11
3316.635223066369
 21
-571.8991922930126
 31
0.0
  0
LINE
  5
1F4F
330
2
100
AcDbEntity
  8
OUTLINE
100
AcDbLine
 10
3292.63522306637
 20
-557.8991922930121
 30
0.0
 11
3292.63522306637
 21
-571.8991922930122
 31
0.0
  0
LINE
  5
1F50
330
2
100
AcDbEntity
  8
OUTLINE
100
AcDbLine
 10
3291.635223066369
 20
-557.8991922930127
 30
0.0
 11
3292.63522306637
 21
-557.8991922930127
 31
0.0
  0
LINE
  5
1F51
330
2
100
AcDbEntity
  8
OUTLINE
100
AcDbLine
 10
3291.63522306637
 20
-572.8991922930124
 30
0.0
 11
3291.63522306637
 21
-558.8991922930127
 31
0.0
  0
LINE
  5
1F52
330
2
100
AcDbEntity
  8
OUTLINE
100
AcDbLine
 10
2483.63522306637
 20
-571.8991922930126
 30
0.0
 11
2478.63522306637
 21
-571.899192293011
 31
0.0
  0
LINE
  5
1F53
330
2
100
AcDbEntity
  8
OUTLINE
100
AcDbLine
 10
2478.63522306637
 20
-571.899192293011
 30
0.0
 11
2478.63522306637
 21
-572.8991922930108
 31
0.0
  0
LINE
  5
1F54
330
2
100
AcDbEntity
  8
OUTLINE
100
AcDbLine
 10
2483.63522306637
 20
-572.8991922930126
 30
0.0
 11
2483.63522306637
 21
-571.8991922930126
 31
0.0
  0
LINE
  5
1F55
330
2
100
AcDbEntity
  8
OUTLINE
100
AcDbLine
 10
3291.63522306637
 20
-558.899192293013
 30
0.0
 11
3291.63522306637
 21
-557.8991922930124
 31
0.0
  0
LINE
  5
1F56
330
2
100
AcDbEntity
  8
OUTLINE
100
AcDbLine
 10
2508.635223066369
 20
-557.8991922930129
 30
0.0
 11
2508.635223066369
 21
-558.899192293013
 31
0.0
  0
LINE
  5
1F57
330
2
100
AcDbEntity
  8
OUTLINE
100
AcDbLine
 10
2508.635223066369
 20
-558.8991922930127
 30
0.0
 11
2508.635223066369
 21
-572.8991922930123
 31
0.0
  0
LINE
  5
1F58
330
2
100
AcDbEntity
  8
OUTLINE
100
AcDbLine
 10
2507.63522306637
 20
-557.8991922930127
 30
0.0
 11
2508.635223066371
 21
-557.8991922930127
 31
0.0
  0
LINE
  5
1F59
330
2
100
AcDbEntity
  8
OUTLINE
100
AcDbLine
 10
2507.63522306637
 20
-571.8991922930126
 30
0.0
 11
2507.63522306637
 21
-557.8991922930127
 31
0.0
  0
LINE
  5
1F5A
330
2
100
AcDbEntity
  8
OUTLINE
100
AcDbLine
 10
2483.63522306637
 20
-571.8991922930126
 30
0.0
 11
2507.63522306637
 21
-571.8991922930126
 31
0.0
  0
LINE
  5
1F5B
330
2
100
AcDbEntity
  8
OUTLINE
100
AcDbLine
 10
2508.635223066369
 20
-557.8991922930131
 30
0.0
 11
3291.63522306637
 21
-557.8991922930129
 31
0.0
  0
LINE
  5
1F5C
330
2
100
AcDbEntity
  8
OUTLINE
100
AcDbLine
 10
2508.635223066371
 20
-558.899192293013
 30
0.0
 11
2513.63522306637
 21
-558.899192293013
 31
0.0
  0
LINE
  5
1F5D
330
2
100
AcDbEntity
  8
OUTLINE
100
AcDbLine
 10
3286.63522306637
 20
-558.899192293013
 30
0.0
 11
3291.63522306637
 21
-558.899192293013
 31
0.0
  0
ELLIPSE
  5
1F5E
330
2
100
AcDbEntity
  8
OUTLINE
100
AcDbEllipse
 10
2759.135223066371
 20
-1253.882531794469
 30
0.0
 11
-2.0
 21
-0.0000000000000082
 31
0.0
210
0.0
220
0.0
230
1.0
 40
0.8660254037846069
 41
-0.0000000000000051
 42
6.28318530717958
  0
ELLIPSE
  5
1F5F
330
2
100
AcDbEntity
  8
OUTLINE
100
AcDbEllipse
 10
2759.135223066371
 20
-1254.382531794469
 30
0.0
 11
2.0
 21
0.0000000000000082
 31
0.0
210
0.0
220
0.0
230
1.0
 40
0.8660254037846071
 41
0.1448434969986454
 42
2.996749156591206
  0
ELLIPSE
  5
1F60
330
2
100
AcDbEntity
  8
OUTLINE
100
AcDbEllipse
 10
3041.135223066371
 20
-1253.882531794469
 30
0.0
 11
-2.0
 21
-0.0000000000000082
 31
0.0
210
0.0
220
0.0
230
1.0
 40
0.8660254037846069
 41
-0.0000000000000051
 42
6.28318530717958
  0
ELLIPSE
  5
1F61
330
2
100
AcDbEntity
  8
OUTLINE
100
AcDbEllipse
 10
3041.135223066371
 20
-1254.382531794469
 30
0.0
 11
2.0
 21
0.0000000000000082
 31
0.0
210
0.0
220
0.0
230
1.0
 40
0.8660254037846071
 41
0.1448434969986454
 42
2.996749156591206
  0
LINE
  5
1F62
330
2
100
AcDbEntity
  8
OUTLINE
100
AcDbLine
 10
3316.63522306637
 20
-1277.899192293013
 30
0.0
 11
3321.635223066369
 21
-1277.899192293011
 31
0.0
  0
LINE
  5
1F63
330
2
100
AcDbEntity
  8
OUTLINE
100
AcDbLine
 10
3292.63522306637
 20
-1277.899192293013
 30
0.0
 11
3316.63522306637
 21
-1277.899192293013
 31
0.0
  0
LINE
  5
1F64
330
2
100
AcDbEntity
  8
OUTLINE
100
AcDbLine
 10
2478.63522306637
 20
-1277.899192293011
 30
0.0
 11
2483.63522306637
 21
-1277.899192293012
 31
0.0
  0
LINE
  5
1F65
330
2
100
AcDbEntity
  8
OUTLINE
100
AcDbLine
 10
2507.63522306637
 20
-1277.899192293013
 30
0.0
 11
2483.63522306637
 21
-1277.899192293013
 31
0.0
  0
LINE
  5
1F66
330
2
100
AcDbEntity
  8
OUTLINE
100
AcDbLine
 10
2508.635223066371
 20
-1226.695998314996
 30
0.0
 11
2513.635223066371
 21
-1224.195998314998
 31
0.0
  0
LINE
  5
1F67
330
2
100
AcDbEntity
  8
OUTLINE
100
AcDbLine
 10
2513.635223066371
 20
-1224.195998314998
 30
0.0
 11
2513.635223066371
 21
-1223.329972911213
 31
0.0
  0
LINE
  5
1F68
330
2
100
AcDbEntity
  8
OUTLINE
100
AcDbLine
 10
2513.635223066371
 20
-1223.329972911213
 30
0.0
 11
2508.635223066371
 21
-1225.829972911212
 31
0.0
  0
LINE
  5
1F69
330
2
100
AcDbEntity
  8
OUTLINE
100
AcDbLine
 10
2508.635223066371
 20
-1225.829972911212
 30
0.0
 11
2508.635223066371
 21
-1226.695998314996
 31
0.0
  0
LINE
  5
1F6A
330
2
100
AcDbEntity
  8
OUTLINE
100
AcDbLine
 10
2513.635223066371
 20
-1224.195998314998
 30
0.0
 11
3280.635223066371
 21
-1224.195998314998
 31
0.0
  0
LINE
  5
1F6B
330
2
100
AcDbEntity
  8
OUTLINE
100
AcDbLine
 10
2513.635223066371
 20
-1223.329972911213
 30
0.0
 11
3280.635223066371
 21
-1223.329972911213
 31
0.0
  0
LINE
  5
1F6C
330
2
100
AcDbEntity
  8
OUTLINE
100
AcDbLine
 10
2508.635223066371
 20
-1226.695998314996
 30
0.0
 11
2508.635223066371
 21
-1234.195998314992
 31
0.0
  0
LINE
  5
1F6D
330
2
100
AcDbEntity
  8
OUTLINE
100
AcDbLine
 10
2508.635223066371
 20
-1234.195998314992
 30
0.0
 11
3280.635223066369
 21
-1234.195998314992
 31
0.0
  0
LINE
  5
1F6E
330
2
100
AcDbEntity
  8
OUTLINE
100
AcDbLine
 10
3291.635223066371
 20
-1276.631243100438
 30
0.0
 11
3291.635223066371
 21
-1267.899192292867
 31
0.0
  0
LINE
  5
1F6F
330
2
100
AcDbEntity
  8
OUTLINE
100
AcDbLine
 10
3291.635223066371
 20
-1276.899192292869
 30
0.0
 11
3291.635223066371
 21
-1276.631243100438
 31
0.0
  0
LINE
  5
1F70
330
2
100
AcDbEntity
  8
OUTLINE
100
AcDbLine
 10
2483.63522306637
 20
-1276.899192293013
 30
0.0
 11
2482.635223066365
 21
-1276.899192293013
 31
0.0
  0
LINE
  5
1F71
330
2
100
AcDbEntity
  8
OUTLINE
100
AcDbLine
 10
2478.63522306637
 20
-1276.899192293011
 30
0.0
 11
2478.63522306637
 21
-1277.899192293011
 31
0.0
  0
LINE
  5
1F72
330
2
100
AcDbEntity
  8
OUTLINE
100
AcDbLine
 10
2483.63522306637
 20
-1277.899192293013
 30
0.0
 11
2483.63522306637
 21
-1276.899192293013
 31
0.0
  0
LINE
  5
1F73
330
2
100
AcDbEntity
  8
OUTLINE
100
AcDbLine
 10
2483.63522306637
 20
-1276.899192293013
 30
0.0
 11
2508.635223066371
 21
-1276.899192293013
 31
0.0
  0
LINE
  5
1F74
330
2
100
AcDbEntity
  8
OUTLINE
100
AcDbLine
 10
3317.63522306637
 20
-1276.899192293012
 30
0.0
 11
3316.63522306637
 21
-1276.899192293013
 31
0.0
  0
LINE
  5
1F75
330
2
100
AcDbEntity
  8
OUTLINE
100
AcDbLine
 10
3316.63522306637
 20
-1276.899192293013
 30
0.0
 11
3316.63522306637
 21
-1277.899192293013
 31
0.0
  0
LINE
  5
1F76
330
2
100
AcDbEntity
  8
OUTLINE
100
AcDbLine
 10
3321.635223066369
 20
-1277.899192293011
 30
0.0
 11
3321.635223066369
 21
-1276.899192293011
 31
0.0
  0
LINE
  5
1F77
330
2
100
AcDbEntity
  8
OUTLINE
100
AcDbLine
 10
3316.63522306637
 20
-1276.899192293013
 30
0.0
 11
3291.63522306637
 21
-1276.899192293013
 31
0.0
  0
LINE
  5
1F78
330
2
100
AcDbEntity
  8
OUTLINE
100
AcDbLine
 10
3291.63522306637
 20
-1276.899192293013
 30
0.0
 11
3291.63522306637
 21
-1283.899192293013
 31
0.0
  0
LINE
  5
1F79
330
2
100
AcDbEntity
  8
OUTLINE
100
AcDbLine
 10
3292.63522306637
 20
-1291.899192293013
 30
0.0
 11
3292.63522306637
 21
-1277.899192293013
 31
0.0
  0
LINE
  5
1F7A
330
2
100
AcDbEntity
  8
OUTLINE
100
AcDbLine
 10
2508.635223066371
 20
-1276.899192293013
 30
0.0
 11
2508.635223066371
 21
-1283.899192293013
 31
0.0
  0
LINE
  5
1F7B
330
2
100
AcDbEntity
  8
OUTLINE
100
AcDbLine
 10
2507.63522306637
 20
-1291.899192293013
 30
0.0
 11
2507.63522306637
 21
-1277.899192293013
 31
0.0
  0
LINE
  5
1F7C
330
2
100
AcDbEntity
  8
OUTLINE
100
AcDbLine
 10
2508.635223066371
 20
-1276.631243100438
 30
0.0
 11
2508.635223066371
 21
-1276.899192292869
 31
0.0
  0
LINE
  5
1F7D
330
2
100
AcDbEntity
  8
OUTLINE
100
AcDbLine
 10
2508.635223066371
 20
-1234.195998314992
 30
0.0
 11
2508.635223066371
 21
-1276.631243100438
 31
0.0
  0
LINE
  5
1F7E
330
2
100
AcDbEntity
  8
OUTLINE
100
AcDbLine
 10
2657.63522306637
 20
-1283.899192293013
 30
0.0
 11
2662.635223066371
 21
-1288.899192293013
 31
0.0
  0
LINE
  5
1F7F
330
2
100
AcDbEntity
  8
OUTLINE
100
AcDbLine
 10
2662.635223066371
 20
-1290.899192293013
 30
0.0
 11
2662.635223066371
 21
-1288.899192293013
 31
0.0
  0
LINE
  5
1F80
330
2
100
AcDbEntity
  8
OUTLINE
100
AcDbLine
 10
2507.63522306637
 20
-1291.899192293013
 30
0.0
 11
3292.63522306637
 21
-1291.899192293013
 31
0.0
  0
LINE
  5
1F81
330
2
100
AcDbEntity
  8
OUTLINE
100
AcDbLine
 10
3142.63522306637
 20
-1283.899192293013
 30
0.0
 11
3291.63522306637
 21
-1283.899192293013
 31
0.0
  0
LINE
  5
1F82
330
2
100
AcDbEntity
  8
OUTLINE
100
AcDbLine
 10
3137.63522306637
 20
-1288.899192293013
 30
0.0
 11
3142.63522306637
 21
-1283.899192293013
 31
0.0
  0
LINE
  5
1F83
330
2
100
AcDbEntity
  8
OUTLINE
100
AcDbLine
 10
3137.63522306637
 20
-1288.899192293013
 30
0.0
 11
3137.63522306637
 21
-1290.899192293013
 31
0.0
  0
LINE
  5
1F84
330
2
100
AcDbEntity
  8
OUTLINE
100
AcDbLine
 10
3137.63522306637
 20
-1290.899192293013
 30
0.0
 11
2662.635223066371
 21
-1290.899192293013
 31
0.0
  0
LINE
  5
1F85
330
2
100
AcDbEntity
  8
OUTLINE
100
AcDbLine
 10
2508.635223066371
 20
-1283.899192293013
 30
0.0
 11
2657.63522306637
 21
-1283.899192293013
 31
0.0
  0
LINE
  5
1F86
330
2
100
AcDbEntity
  8
OUTLINE
100
AcDbLine
 10
2508.635223066371
 20
-1276.631243100438
 30
0.0
 11
3291.635223066371
 21
-1276.631243100438
 31
0.0
  0
ELLIPSE
  5
1F87
330
2
100
AcDbEntity
  8
OUTLINE
100
AcDbEllipse
 10
2492.635223066371
 20
-1265.121825302528
 30
0.0
 11
2.5
 21
0.0
 31
0.0
210
0.0
220
0.0
230
1.0
 40
0.8657348311145279
 41
1.10620193952767
 42
2.035390714080853
  0
ELLIPSE
  5
1F88
330
2
100
AcDbEntity
  8
OUTLINE
100
AcDbEllipse
 10
2492.635223066371
 20
-1094.572063572966
 30
0.0
 11
2.5
 21
0.0
 31
0.0
210
0.0
220
0.0
230
1.0
 40
0.8657348311145279
 41
1.106201939650965
 42
2.035390713957549
  0
ELLIPSE
  5
1F89
330
2
100
AcDbEntity
  8
OUTLINE
100
AcDbEllipse
 10
2492.635223066371
 20
-924.022301843404
 30
0.0
 11
2.5
 21
0.0
 31
0.0
210
0.0
220
0.0
230
1.0
 40
0.8657348311145279
 41
1.106201939784843
 42
2.03539071382367
  0
ELLIPSE
  5
1F8A
330
2
100
AcDbEntity
  8
OUTLINE
100
AcDbEllipse
 10
2492.635223066371
 20
-753.4725401138419
 30
0.0
 11
2.5
 21
0.0
 31
0.0
210
0.0
220
0.0
230
1.0
 40
0.8657348311145279
 41
1.106201939930115
 42
2.035390713678391
  0
ELLIPSE
  5
1F8B
330
2
100
AcDbEntity
  8
OUTLINE
100
AcDbEllipse
 10
2492.635223066371
 20
-582.9227783842798
 30
0.0
 11
2.5
 21
0.0
 31
0.0
210
0.0
220
0.0
230
1.0
 40
0.8657348311145279
 41
1.106201940059926
 42
2.035390713548582
  0
ELLIPSE
  5
1F8C
330
2
100
AcDbEntity
  8
OUTLINE
100
AcDbEllipse
 10
3307.635223066371
 20
-1094.572063572965
 30
0.0
 11
2.5
 21
0.0
 31
0.0
210
0.0
220
0.0
230
1.0
 40
0.8657348311145279
 41
0.5544029940391403
 42
2.587189659550653
  0
ELLIPSE
  5
1F8D
330
2
100
AcDbEntity
  8
OUTLINE
100
AcDbEllipse
 10
3307.635223066371
 20
-924.0223018434036
 30
0.0
 11
2.5
 21
0.0
 31
0.0
210
0.0
220
0.0
230
1.0
 40
0.8657348311145279
 41
0.554402994070866
 42
2.587189659518925
  0
ELLIPSE
  5
1F8E
330
2
100
AcDbEntity
  8
OUTLINE
100
AcDbEllipse
 10
3307.635223066371
 20
-753.4725401138415
 30
0.0
 11
2.5
 21
0.0
 31
0.0
210
0.0
220
0.0
230
1.0
 40
0.8657348311145279
 41
0.5544029941021326
 42
2.587189659487659
  0
ELLIPSE
  5
1F8F
330
2
100
AcDbEntity
  8
OUTLINE
100
AcDbEllipse
 10
2530.135223066371
 20
-923.128819511812
 30
0.0
 11
2.049999999999998
 21
0.0
 31
0.0
210
0.0
220
0.0
230
1.0
 40
0.8657348311145279
 41
0.2858907884728014
 42
2.855701865116968
  0
ELLIPSE
  5
1F90
330
2
100
AcDbEntity
  8
OUTLINE
100
AcDbEllipse
 10
2715.135223066371
 20
-917.9344105251248
 30
0.0
 11
2.049999999999998
 21
0.0
 31
0.0
210
0.0
220
0.0
230
1.0
 40
0.8657348311145279
 41
0.2858907884726826
 42
2.85570186511711
  0
ELLIPSE
  5
1F91
330
2
100
AcDbEntity
  8
OUTLINE
100
AcDbEllipse
 10
2900.135223066371
 20
-923.128819511812
 30
0.0
 11
2.049999999999998
 21
0.0
 31
0.0
210
0.0
220
0.0
230
1.0
 40
0.8657348311145279
 41
0.2858907884727056
 42
2.855701865117086
  0
ELLIPSE
  5
1F92
330
2
100
AcDbEntity
  8
OUTLINE
100
AcDbEllipse
 10
3085.135223066371
 20
-917.9344105251246
 30
0.0
 11
2.049999999999998
 21
0.0
 31
0.0
210
0.0
220
0.0
230
1.0
 40
0.8657348311145279
 41
0.2858907884726098
 42
2.855701865117183
  0
ELLIPSE
  5
1F93
330
2
100
AcDbEntity
  8
OUTLINE
100
AcDbEllipse
 10
3270.135223066371
 20
-923.128819511812
 30
0.0
 11
2.049999999999998
 21
0.0
 31
0.0
210
0.0
220
0.0
230
1.0
 40
0.8657348311145279
 41
0.2858907884727056
 42
2.855701865117086
  0
LINE
  5
1F96
330
2
100
AcDbEntity
  8
NOTE
100
AcDbLine
 10
4176.635223066367
 20
-1074.899192291706
 30
0.0
 11
4177.635223066366
 21
-1074.899192291706
 31
0.0
  0
LINE
  5
1F97
330
2
100
AcDbEntity
  8
NOTE
100
AcDbLine
 10
4177.135223066367
 20
-1075.399192291706
 30
0.0
 11
4177.135223066367
 21
-1074.399192291706
 31
0.0
  0
LINE
  5
1F98
330
2
100
AcDbEntity
  8
NOTE
100
AcDbLine
 10
4163.635223066367
 20
-1074.899192291706
 30
0.0
 11
4175.635223066367
 21
-1074.899192291706
 31
0.0
  0
LINE
  5
1F99
330
2
100
AcDbEntity
  8
NOTE
100
AcDbLine
 10
4178.635223066367
 20
-1074.899192291706
 30
0.0
 11
4190.635223066367
 21
-1074.899192291706
 31
0.0
  0
LINE
  5
1F9A
330
2
100
AcDbEntity
  8
NOTE
100
AcDbLine
 10
4177.135223066367
 20
-1088.399192291706
 30
0.0
 11
4177.135223066367
 21
-1076.399192291706
 31
0.0
  0
LINE
  5
1F9B
330
2
100
AcDbEntity
  8
NOTE
100
AcDbLine
 10
4177.135223066367
 20
-1073.399192291706
 30
0.0
 11
4177.135223066367
 21
-1061.399192291706
 31
0.0
  0
LINE
  5
1F9C
330
2
100
AcDbEntity
  8
NOTE
100
AcDbLine
 10
4176.635223066367
 20
-924.8991922917063
 30
0.0
 11
4177.635223066366
 21
-924.8991922917063
 31
0.0
  0
LINE
  5
1F9D
330
2
100
AcDbEntity
  8
NOTE
100
AcDbLine
 10
4177.135223066367
 20
-925.3991922917064
 30
0.0
 11
4177.135223066367
 21
-924.3991922917064
 31
0.0
  0
LINE
  5
1F9E
330
2
100
AcDbEntity
  8
NOTE
100
AcDbLine
 10
4163.635223066367
 20
-924.8991922917063
 30
0.0
 11
4175.635223066367
 21
-924.8991922917063
 31
0.0
  0
LINE
  5
1F9F
330
2
100
AcDbEntity
  8
NOTE
100
AcDbLine
 10
4178.635223066367
 20
-924.8991922917063
 30
0.0
 11
4190.635223066367
 21
-924.8991922917063
 31
0.0
  0
LINE
  5
1FA0
330
2
100
AcDbEntity
  8
NOTE
100
AcDbLine
 10
4177.135223066367
 20
-938.3991922917063
 30
0.0
 11
4177.135223066367
 21
-926.3991922917064
 31
0.0
  0
LINE
  5
1FA1
330
2
100
AcDbEntity
  8
NOTE
100
AcDbLine
 10
4177.135223066367
 20
-923.3991922917065
 30
0.0
 11
4177.135223066367
 21
-911.3991922917064
 31
0.0
  0
LINE
  5
1FA2
330
2
100
AcDbEntity
  8
NOTE
100
AcDbLine
 10
4176.635223066367
 20
-774.8991922917064
 30
0.0
 11
4177.635223066366
 21
-774.8991922917064
 31
0.0
  0
LINE
  5
1FA3
330
2
100
AcDbEntity
  8
NOTE
100
AcDbLine
 10
4177.135223066367
 20
-775.3991922917064
 30
0.0
 11
4177.135223066367
 21
-774.3991922917062
 31
0.0
  0
LINE
  5
1FA4
330
2
100
AcDbEntity
  8
NOTE
100
AcDbLine
 10
4163.635223066367
 20
-774.8991922917064
 30
0.0
 11
4175.635223066367
 21
-774.8991922917064
 31
0.0
  0
LINE
  5
1FA5
330
2
100
AcDbEntity
  8
NOTE
100
AcDbLine
 10
4178.635223066367
 20
-774.8991922917064
 30
0.0
 11
4190.635223066367
 21
-774.8991922917064
 31
0.0
  0
LINE
  5
1FA6
330
2
100
AcDbEntity
  8
NOTE
100
AcDbLine
 10
4177.135223066367
 20
-788.3991922917064
 30
0.0
 11
4177.135223066367
 21
-776.3991922917064
 31
0.0
  0
LINE
  5
1FA7
330
2
100
AcDbEntity
  8
NOTE
100
AcDbLine
 10
4177.135223066367
 20
-773.3991922917064
 30
0.0
 11
4177.135223066367
 21
-761.3991922917064
 31
0.0
  0
LINE
  5
1FA8
330
2
100
AcDbEntity
  8
NOTE
100
AcDbLine
 10
4176.635223066367
 20
-624.8991922917062
 30
0.0
 11
4177.635223066366
 21
-624.8991922917062
 31
0.0
  0
LINE
  5
1FA9
330
2
100
AcDbEntity
  8
NOTE
100
AcDbLine
 10
4177.135223066367
 20
-625.3991922917064
 30
0.0
 11
4177.135223066367
 21
-624.3991922917062
 31
0.0
  0
LINE
  5
1FAA
330
2
100
AcDbEntity
  8
NOTE
100
AcDbLine
 10
4163.635223066367
 20
-624.8991922917062
 30
0.0
 11
4175.635223066367
 21
-624.8991922917062
 31
0.0
  0
LINE
  5
1FAB
330
2
100
AcDbEntity
  8
NOTE
100
AcDbLine
 10
4178.635223066367
 20
-624.8991922917062
 30
0.0
 11
4190.635223066367
 21
-624.8991922917062
 31
0.0
  0
LINE
  5
1FAC
330
2
100
AcDbEntity
  8
NOTE
100
AcDbLine
 10
4177.135223066367
 20
-638.3991922917064
 30
0.0
 11
4177.135223066367
 21
-626.3991922917064
 31
0.0
  0
LINE
  5
1FAD
330
2
100
AcDbEntity
  8
NOTE
100
AcDbLine
 10
4177.135223066367
 20
-623.3991922917064
 30
0.0
 11
4177.135223066367
 21
-611.3991922917064
 31
0.0
  0
LINE
  5
1FAE
330
2
100
AcDbEntity
  8
NOTE
100
AcDbLine
 10
2465.635223066364
 20
-1224.899192293012
 30
0.0
 11
2466.635223066365
 21
-1224.899192293012
 31
0.0
  0
LINE
  5
1FAF
330
2
100
AcDbEntity
  8
NOTE
100
AcDbLine
 10
2466.135223066364
 20
-1225.399192293012
 30
0.0
 11
2466.135223066364
 21
-1224.399192293012
 31
0.0
  0
LINE
  5
1FB0
330
2
100
AcDbEntity
  8
NOTE
100
AcDbLine
 10
2452.635223066364
 20
-1224.899192293012
 30
0.0
 11
2464.635223066364
 21
-1224.899192293012
 31
0.0
  0
LINE
  5
1FB1
330
2
100
AcDbEntity
  8
NOTE
100
AcDbLine
 10
2467.635223066364
 20
-1224.899192293012
 30
0.0
 11
2479.635223066364
 21
-1224.899192293012
 31
0.0
  0
LINE
  5
1FB2
330
2
100
AcDbEntity
  8
NOTE
100
AcDbLine
 10
2466.135223066364
 20
-1238.399192293012
 30
0.0
 11
2466.135223066364
 21
-1226.399192293012
 31
0.0
  0
LINE
  5
1FB3
330
2
100
AcDbEntity
  8
NOTE
100
AcDbLine
 10
2466.135223066364
 20
-1223.399192293012
 30
0.0
 11
2466.135223066364
 21
-1211.399192293012
 31
0.0
  0
LINE
  5
1FB4
330
2
100
AcDbEntity
  8
NOTE
100
AcDbLine
 10
2465.635223066364
 20
-1074.899192293012
 30
0.0
 11
2466.635223066365
 21
-1074.899192293012
 31
0.0
  0
LINE
  5
1FB5
330
2
100
AcDbEntity
  8
NOTE
100
AcDbLine
 10
2466.135223066364
 20
-1075.399192293012
 30
0.0
 11
2466.135223066364
 21
-1074.399192293012
 31
0.0
  0
LINE
  5
1FB6
330
2
100
AcDbEntity
  8
NOTE
100
AcDbLine
 10
2452.635223066364
 20
-1074.899192293012
 30
0.0
 11
2464.635223066364
 21
-1074.899192293012
 31
0.0
  0
LINE
  5
1FB7
330
2
100
AcDbEntity
  8
NOTE
100
AcDbLine
 10
2467.635223066364
 20
-1074.899192293012
 30
0.0
 11
2479.635223066364
 21
-1074.899192293012
 31
0.0
  0
LINE
  5
1FB8
330
2
100
AcDbEntity
  8
NOTE
100
AcDbLine
 10
2466.135223066364
 20
-1088.399192293012
 30
0.0
 11
2466.135223066364
 21
-1076.399192293012
 31
0.0
  0
LINE
  5
1FB9
330
2
100
AcDbEntity
  8
NOTE
100
AcDbLine
 10
2466.135223066364
 20
-1073.399192293012
 30
0.0
 11
2466.135223066364
 21
-1061.399192293012
 31
0.0
  0
LINE
  5
1FBA
330
2
100
AcDbEntity
  8
NOTE
100
AcDbLine
 10
2465.635223066364
 20
-924.8991922930123
 30
0.0
 11
2466.635223066365
 21
-924.8991922930123
 31
0.0
  0
LINE
  5
1FBB
330
2
100
AcDbEntity
  8
NOTE
100
AcDbLine
 10
2466.135223066364
 20
-925.3991922930124
 30
0.0
 11
2466.135223066364
 21
-924.3991922930122
 31
0.0
  0
LINE
  5
1FBC
330
2
100
AcDbEntity
  8
NOTE
100
AcDbLine
 10
2452.635223066364
 20
-924.8991922930123
 30
0.0
 11
2464.635223066364
 21
-924.8991922930123
 31
0.0
  0
LINE
  5
1FBD
330
2
100
AcDbEntity
  8
NOTE
100
AcDbLine
 10
2467.635223066364
 20
-924.8991922930123
 30
0.0
 11
2479.635223066364
 21
-924.8991922930123
 31
0.0
  0
LINE
  5
1FBE
330
2
100
AcDbEntity
  8
NOTE
100
AcDbLine
 10
2466.135223066364
 20
-938.3991922930123
 30
0.0
 11
2466.135223066364
 21
-926.3991922930124
 31
0.0
  0
LINE
  5
1FBF
330
2
100
AcDbEntity
  8
NOTE
100
AcDbLine
 10
2466.135223066364
 20
-923.3991922930123
 30
0.0
 11
2466.135223066364
 21
-911.3991922930123
 31
0.0
  0
LINE
  5
1FC0
330
2
100
AcDbEntity
  8
NOTE
100
AcDbLine
 10
2465.635223066364
 20
-774.8991922930127
 30
0.0
 11
2466.635223066365
 21
-774.8991922930127
 31
0.0
  0
LINE
  5
1FC1
330
2
100
AcDbEntity
  8
NOTE
100
AcDbLine
 10
2466.135223066364
 20
-775.3991922930127
 30
0.0
 11
2466.135223066364
 21
-774.3991922930127
 31
0.0
  0
LINE
  5
1FC2
330
2
100
AcDbEntity
  8
NOTE
100
AcDbLine
 10
2452.635223066364
 20
-774.8991922930127
 30
0.0
 11
2464.635223066364
 21
-774.8991922930127
 31
0.0
  0
LINE
  5
1FC3
330
2
100
AcDbEntity
  8
NOTE
100
AcDbLine
 10
2467.635223066364
 20
-774.8991922930127
 30
0.0
 11
2479.635223066364
 21
-774.8991922930127
 31
0.0
  0
LINE
  5
1FC4
330
2
100
AcDbEntity
  8
NOTE
100
AcDbLine
 10
2466.135223066364
 20
-788.3991922930126
 30
0.0
 11
2466.135223066364
 21
-776.3991922930126
 31
0.0
  0
LINE
  5
1FC5
330
2
100
AcDbEntity
  8
NOTE
100
AcDbLine
 10
2466.135223066364
 20
-773.3991922930126
 30
0.0
 11
2466.135223066364
 21
-761.3991922930126
 31
0.0
  0
LINE
  5
1FC6
330
2
100
AcDbEntity
  8
NOTE
100
AcDbLine
 10
2465.635223066364
 20
-624.8991922930123
 30
0.0
 11
2466.635223066365
 21
-624.8991922930123
 31
0.0
  0
LINE
  5
1FC7
330
2
100
AcDbEntity
  8
NOTE
100
AcDbLine
 10
2466.135223066364
 20
-625.3991922930123
 30
0.0
 11
2466.135223066364
 21
-624.3991922930123
 31
0.0
  0
LINE
  5
1FC8
330
2
100
AcDbEntity
  8
NOTE
100
AcDbLine
 10
2452.635223066364
 20
-624.8991922930123
 30
0.0
 11
2464.635223066364
 21
-624.8991922930123
 31
0.0
  0
LINE
  5
1FC9
330
2
100
AcDbEntity
  8
NOTE
100
AcDbLine
 10
2467.635223066364
 20
-624.8991922930123
 30
0.0
 11
2479.635223066364
 21
-624.8991922930123
 31
0.0
  0
LINE
  5
1FCA
330
2
100
AcDbEntity
  8
NOTE
100
AcDbLine
 10
2466.135223066364
 20
-638.3991922930123
 30
0.0
 11
2466.135223066364
 21
-626.3991922930123
 31
0.0
  0
LINE
  5
1FCB
330
2
100
AcDbEntity
  8
NOTE
100
AcDbLine
 10
2466.135223066364
 20
-623.3991922930123
 30
0.0
 11
2466.135223066364
 21
-611.3991922930123
 31
0.0
  0
LINE
  5
1FD3
330
2
100
AcDbEntity
  8
BASIS
  6
DASHDOT
 62
     6
100
AcDbLine
 10
3321.635223066371
 20
-1337.276053987117
 30
0.0
 11
3321.635223066371
 21
-520.7223758425534
 31
0.0
  0
LINE
  5
1FD4
330
2
100
AcDbEntity
  8
ARRANGE
  6
Continuous
 62
     1
100
AcDbLine
 10
3304.951105501967
 20
-941.5833098574163
 30
0.0
 11
3338.319340630775
 21
-908.2150747286092
 31
0.0
  0
LINE
  5
1FD5
330
2
100
AcDbEntity
  8
ARRANGE
  6
Continuous
 62
     1
100
AcDbLine
 10
3304.951105501967
 20
-908.2150747286092
 30
0.0
 11
3338.319340630775
 21
-941.5833098574163
 31
0.0
  0
LINE
  5
1FD6
330
2
100
AcDbEntity
  8
BASIS
100
AcDbLine
 10
2424.589719653456
 20
-924.8991922930127
 30
0.0
 11
4209.609533258059
 21
-924.8991922930127
 31
0.0
  0
DIMENSION
  5
1FD7
330
2
100
AcDbEntity
  8
SIZE
100
AcDbDimension
  2
*D17
 10
3297.135223066371
 20
-500.3263067077123
 30
0.0
 11
2881.635223066368
 21
-480.3263067077123
 31
0.0
 70
    32
 71
     5
 42
831.0000000000064
  3
STANDARD
100
AcDbAlignedDimension
 13
2466.135223066364
 23
-611.3991922930123
 33
0.0
 14
3297.135223066371
 24
-611.3991922930123
 34
0.0
100
AcDbRotatedDimension
1001
ACAD
1000
DSTYLE
1002
{
1070
    40
1040
10.0
1070
    45
1040
0.5
1070
    50
1040
0.7853981633974483
1070
    90
1070
     1
1070
   271
1070
     1
1070
   272
1070
     1
1002
}
  0
DIMENSION
  5
1FE4
330
2
100
AcDbEntity
  8
SIZE
100
AcDbDimension
  2
*D18
 10
3346.135223066357
 20
-500.3263067077123
 30
0.0
 11
3321.635223066363
 21
-500.3263067077123
 31
0.0
 70
   160
 71
     5
 42
48.99999999998545
  3
STANDARD
100
AcDbAlignedDimension
 13
3297.135223066371
 23
-611.3991922930123
 33
0.0
 14
3346.135223066357
 24
-611.3991922917066
 34
0.0
100
AcDbRotatedDimension
1001
ACAD
1000
DSTYLE
1002
{
1070
   279
1070
     0
1070
    40
1040
10.0
1070
    45
1040
0.5
1070
    50
1040
0.7853981633974483
1070
    90
1070
     1
1070
   271
1070
     1
1070
   272
1070
     1
1002
}
  0
DIMENSION
  5
1FF6
330
2
100
AcDbEntity
  8
SIZE
100
AcDbDimension
  2
*D19
 10
4177.135223066367
 20
-500.3263067077123
 30
0.0
 11
3761.635223066362
 21
-480.3263067077123
 31
0.0
 70
    32
 71
     5
 42
831.0000000000107
  3
STANDARD
100
AcDbAlignedDimension
 13
3346.135223066357
 23
-611.3991922917066
 33
0.0
 14
4177.135223066367
 24
-611.3991922917064
 34
0.0
100
AcDbRotatedDimension
1001
ACAD
1000
DSTYLE
1002
{
1070
   279
1070
     1
1070
    40
1040
10.0
1070
    45
1040
0.5
1070
    50
1040
0.7853981633974483
1070
    90
1070
     1
1070
   271
1070
     1
1070
   272
1070
     1
1002
}
  0
DIMENSION
  5
2024
330
2
100
AcDbEntity
  8
SIZE
100
AcDbDimension
  2
*D20
 10
4193.635223066368
 20
-459.9370362518513
 30
0.0
 11
3321.635223066368
 21
-459.9370362518513
 31
0.0
 70
   160
 71
     5
 42
1744.000000000002
  3
STANDARD
100
AcDbAlignedDimension
 13
2449.635223066366
 23
-611.8991922930128
 33
0.0
 14
4193.635223066368
 24
-611.8991922930128
 34
0.0
100
AcDbRotatedDimension
1001
ACAD
1000
DSTYLE
1002
{
1070
    40
1040
10.0
1070
    45
1040
0.5
1070
    50
1040
0.7853981633974483
1070
    90
1070
     1
1070
   271
1070
     1
1070
   272
1070
     1
1002
}
  0
DIMENSION
  5
2043
330
2
100
AcDbEntity
  8
SIZE
100
AcDbDimension
  2
*D21
 10
2390.655241176427
 20
-774.8991922930127
 30
0.0
 11
2370.655241176427
 21
-699.8991922930119
 31
0.0
 70
    32
 71
     5
 42
150.0000000000002
  3
STANDARD
100
AcDbAlignedDimension
 13
2452.635223066364
 23
-624.8991922930123
 33
0.0
 14
2452.635223066364
 24
-774.8991922930127
 34
0.0
 50
90.0
100
AcDbRotatedDimension
1001
ACAD
1000
DSTYLE
1002
{
1070
    40
1040
10.0
1070
    45
1040
0.5
1070
    50
1040
0.7853981633974483
1070
    90
1070
     1
1070
   271
1070
     1
1070
   272
1070
     1
1002
}
  0
DIMENSION
  5
2050
330
2
100
AcDbEntity
  8
SIZE
100
AcDbDimension
  2
*D22
 10
2390.655241176427
 20
-924.8991922930127
 30
0.0
 11
2370.655241176427
 21
-849.8991922930121
 31
0.0
 70
    32
 71
     5
 42
150.0000000000002
  3
STANDARD
100
AcDbAlignedDimension
 13
2452.635223066364
 23
-774.8991922930127
 33
0.0
 14
2424.589719653456
 24
-924.8991922930127
 34
0.0
 50
90.0
100
AcDbRotatedDimension
1001
ACAD
1000
DSTYLE
1002
{
1070
   279
1070
     1
1070
    40
1040
10.0
1070
    45
1040
0.5
1070
    50
1040
0.7853981633974483
1070
    90
1070
     1
1070
   271
1070
     1
1070
   272
1070
     1
1002
}
  0
DIMENSION
  5
205D
330
2
100
AcDbEntity
  8
SIZE
100
AcDbDimension
  2
*D23
 10
2390.655241176427
 20
-1074.899192293012
 30
0.0
 11
2370.655241176427
 21
-999.8991922930123
 31
0.0
 70
    32
 71
     5
 42
149.9999999999996
  3
STANDARD
100
AcDbAlignedDimension
 13
2424.589719653456
 23
-924.8991922930127
 33
0.0
 14
2452.635223066364
 24
-1074.899192293012
 34
0.0
 50
90.0
100
AcDbRotatedDimension
1001
ACAD
1000
DSTYLE
1002
{
1070
   279
1070
     1
1070
    40
1040
10.0
1070
    45
1040
0.5
1070
    50
1040
0.7853981633974483
1070
    90
1070
     1
1070
   271
1070
     1
1070
   272
1070
     1
1002
}
  0
DIMENSION
  5
206A
330
2
100
AcDbEntity
  8
SIZE
100
AcDbDimension
  2
*D24
 10
2390.655241176427
 20
-1224.899192293012
 30
0.0
 11
2370.655241176427
 21
-1149.899192293012
 31
0.0
 70
    32
 71
     5
 42
150.0
  3
STANDARD
100
AcDbAlignedDimension
 13
2452.635223066364
 23
-1074.899192293012
 33
0.0
 14
2452.635223066364
 24
-1224.899192293012
 34
0.0
 50
90.0
100
AcDbRotatedDimension
1001
ACAD
1000
DSTYLE
1002
{
1070
   279
1070
     1
1070
    40
1040
10.0
1070
    45
1040
0.5
1070
    50
1040
0.7853981633974483
1070
    90
1070
     1
1070
   271
1070
     1
1070
   272
1070
     1
1002
}
  0
DIMENSION
  5
2077
330
2
100
AcDbEntity
  8
SIZE
100
AcDbDimension
  2
*D25
 10
2340.685782408793
 20
-557.8991922930127
 30
0.0
 11
2320.685782408793
 21
-924.8991922930123
 31
0.0
 70
    32
 71
     5
 42
734.0000000000003
  3
STANDARD
100
AcDbAlignedDimension
 13
2507.63522306637
 23
-1291.899192293013
 33
0.0
 14
2507.63522306637
 24
-557.8991922930127
 34
0.0
 50
90.0
100
AcDbRotatedDimension
1001
ACAD
1000
DSTYLE
1002
{
1070
    40
1040
10.0
1070
    45
1040
0.5
1070
    50
1040
0.7853981633974483
1070
    90
1070
     1
1070
   271
1070
     1
1070
   272
1070
     1
1002
}
  0
MULTILEADER
  5
2084
330
2
100
AcDbEntity
  8
NOTE
 92
     1148
310
7C0400001C0000000C00000010000000050000000C00000016000000000000C00C00000013000000112700003C00000006000000020000007F4DEE812BB6A240296DF18EB93D7FC0000000000000000060C8023073B5A240296DF18EB93D7FC000000000000000000C0000001300000001000000880000001D00000033CA44
310
86FC722340D93AA738047A314000000000000000005C245473213EA340D93AA738047A31C033CA4486FC72234000000000000000004BE2161C3C7083C00000000000000000000000000000000000000000000034400000000000000000000000000000000000000000000000000000000000000000000000000000F03F0C00
310
000016000000040000C30C00000017000000FDFFFFFF540000002000000002000000000000000000F0BF498A025C1426D13F000000000000000000000000000000000000000000000000000000000000000000000000000000000000000000000000000000000000F03F0C00000016000000040000C30C00000017000000FD
310
FFFFFF540000002000000002000000000000000000000000000000000000000000000000000000000000000000F0BF498A025C1426D1BF000000000000000000000000000000000000000000000000000000000000F03F0C00000016000000040000C30C00000017000000FDFFFFFF54000000200000000200000000000000
310
0000000000000000000000000000000000000000000000000000F0BF0000000000000000000000000000000000000000000000000000000000000000000000000000F03F080000001F0000000C00000016000000000000C00C00000013000000891300003C000000060000000200000092DFCD76AE2AA34074A851FA6BE482
310
C000000000000000007F4DEE812BB6A240296DF18EB93D7FC000000000000000000C000000130000009A3A00003C000000060000000200000023F90EF3A3E5A1402B6DF18EB93D7FC0000000000000000060C8023073B5A2402B6DF18EB93D7FC000000000000000000C00000016000000000000C00C00000012000000FF7F
310
00000C00000017000000FFFFFFFF0C00000016000000000000C00C00000013000000993A0000AC0000000B0000006C8B333C36DAA1402B6DF18EB9FD7EC0000000000000000000000000000000000000000000000000000000000000F03F000000000000F03F000000000000000000000000000000003130817E0000470004
310
000000010000000000000000003440000000000000F03F0000000000000000000000000000F03F0000000000000000000000000000000000000000726F6D616E732E7368780000657874666F6E742E73687800B00000000B0000004842A117EDDFA14040612372878980C00000000000000000000000000000000000000000
310
00000000000000000000F03F000000000000F03F0000000000000000000000000000000039817E3792B78C8A0000000008000000010000000000000000003440000000000000F03F0000000000000000000000000000F03F0000000000000000000000000000000000000000726F6D616E732E7368780000657874666F6E74
310
2E73687800
100
AcDbMLeader
300
CONTEXT_DATA{
 40
1.0
 10
2288.820213764107
 20
-487.8578023367615
 30
0.0
 41
20.0
140
20.0
145
2.0
174
     1
175
     6
176
     0
177
     0
290
     1
304
10×\P9×7長穴
 11
0.0
 21
0.0
 31
1.0
340
23
 12
2290.820213764107
 22
-475.8578023367615
 32
0.0
 13
1.0
 23
0.0
 33
0.0
 42
0.0
 43
0.0
 44
0.0
 45
1.0
170
     1
 90
-1073741824
171
     1
172
     5
 91
-1073741824
141
0.0
 92
  5103612
291
     0
292
     0
173
     0
293
     0
142
0.0
143
0.0
294
     0
295
     0
296
     0
110
2463.065333012999
120
-622.0293504512604
130
0.0
111
1.0
121
0.0
131
0.0
112
0.0
122
1.0
132
0.0
297
     0
302
LEADER{
290
     1
291
     1
 10
2395.084975668869
 20
-499.8578023367613
 30
0.0
 11
-1.0
 21
0.0
 31
0.0
 90
        0
 40
0.36
304
LEADER_LINE{
 10
2463.065333012999
 20
-622.0293504512604
 30
0.0
 91
        0
305
}
303
}
301
}
340
B17
 90
 67454208
170
     1
 91
-1056964608
341
26
171
    -2
290
     1
291
     1
 41
0.36
342
32
 42
20.0
172
     2
343
23
173
     1
 95
        6
174
     1
175
     2
 92
-1056964608
292
     0
 93
-1056964608
 10
1.0
 20
1.0
 30
1.0
 43
0.0
176
     0
293
     0
294
     0
178
     0
179
     1
 45
1.0
1001
ACAD_MLEADERVER
1070
     2
  0
MULTILEADER
  5
2085
330
2
100
AcDbEntity
  8
NOTE
 92
      976
310
D00300001B0000000C00000010000000050000000C00000016000000000000C00C00000013000000112700003C00000006000000020000004FE15DE81536A9402A52DD1834DF80C00000000000000000305C72965D35A9402A52DD1834DF80C000000000000000000C0000001300000001000000880000001D000000F3B83D
310
D15A8129407DF8FE5B4AD02E4000000000000000002DB8C3D90BBEA9407DF8FE5B4AD02EC0F3B83DD15A81294000000000000000004BE2161C3C7083C00000000000000000000000000000000000000000000034400000000000000000000000000000000000000000000000000000000000000000000000000000F03F0C00
310
000016000000040000C30C00000017000000FDFFFFFF540000002000000002000000000000000000F0BF498A025C1426D13F000000000000000000000000000000000000000000000000000000000000000000000000000000000000000000000000000000000000F03F0C00000016000000040000C30C00000017000000FD
310
FFFFFF540000002000000002000000000000000000000000000000000000000000000000000000000000000000F0BF498A025C1426D1BF000000000000000000000000000000000000000000000000000000000000F03F0C00000016000000040000C30C00000017000000FDFFFFFF54000000200000000200000000000000
310
0000000000000000000000000000000000000000000000000000F0BF0000000000000000000000000000000000000000000000000000000000000000000000000000F03F080000001F0000000C00000016000000000000C00C00000013000000891300003C0000000600000002000000747AF27E8AA4A94069E6A6F2FAF482
310
C000000000000000004FE15DE81536A9402A52DD1834DF80C000000000000000000C000000130000009A3A00003C0000000600000002000000616835C7699CA8402A52DD1834DF80C00000000000000000305C72965D35A9402A52DD1834DF80C000000000000000000C00000016000000000000C00C00000012000000FF7F
310
00000C00000017000000FFFFFFFF0C00000016000000000000C00C00000013000000993A0000B00000000B00000086B1C7EBB296A8402A52DD1834BF80C0000000000000000000000000000000000000000000000000000000000000F03F000000000000F03F0000000000000000000000000000000034817E5C552B323230
310
3537000B000000010000000000000000003440000000000000F03F0000000000000000000000000000F03F0000000000000000000000000000000000000000726F6D616E732E7368780000657874666F6E742E73687800
100
AcDbMLeader
300
CONTEXT_DATA{
 40
1.0
 10
3148.206597966186
 20
-527.9004380503367
 30
0.0
 41
20.0
140
20.0
145
2.0
174
     1
175
     6
176
     0
177
     0
290
     1
304
4×%%C7
 11
0.0
 21
0.0
 31
1.0
340
23
 12
3150.206597966186
 22
-515.9004380503367
 32
0.0
 13
1.0
 23
0.0
 33
0.0
 42
0.0
 43
0.0
 44
0.0
 45
1.0
170
     1
 90
-1073741824
171
     1
172
     5
 91
-1073741824
141
0.0
 92
  5103612
291
     0
292
     0
173
     0
293
     0
142
0.0
143
0.0
294
     0
295
     0
296
     0
110
3295.023145786507
120
-622.0293504512604
130
0.0
111
1.0
121
0.0
131
0.0
112
0.0
122
1.0
132
0.0
297
     0
302
LEADER{
290
     1
291
     1
 10
3227.042788442377
 20
-539.9004380503368
 30
0.0
 11
-1.0
 21
0.0
 31
0.0
 90
        0
 40
0.36
304
LEADER_LINE{
 10
3295.023145786507
 20
-622.0293504512604
 30
0.0
 91
        0
305
}
303
}
301
}
340
B17
 90
 67454208
170
     1
 91
-1056964608
341
26
171
    -2
290
     1
291
     1
 41
0.36
342
32
 42
20.0
172
     2
343
23
173
     1
 95
        6
174
     1
175
     2
 92
-1056964608
292
     0
 93
-1056964608
 10
1.0
 20
1.0
 30
1.0
 43
0.0
176
     0
293
     0
294
     0
178
     0
179
     1
 45
1.0
1001
ACAD_MLEADERVER
1070
     2
  0
CIRCLE
  5
217A
330
2
100
AcDbEntity
  8
ARRANGE
100
AcDbCircle
 10
3321.635223066371
 20
-924.8991922930128
 30
0.0
 40
15.0
  0
ENDSEC
  0
SECTION
  2
OBJECTS
  0
DICTIONARY
  5
A
330
0
100
AcDbDictionary
281
     1
  3
ACAD_2007HEADERVARS_RT
350
217D
  3
ACAD_BACKGROUND
350
B1D
  3
ACAD_COLOR
350
4D
  3
ACAD_GROUP
350
3A
  3
ACAD_LAYOUT
350
17
  3
ACAD_MATERIAL
350
C
  3
ACAD_MLEADERSTYLE
350
B16
  3
ACAD_MLINESTYLE
350
3B
  3
ACAD_PLOTSETTINGS
350
3C
  3
ACAD_PLOTSTYLENAME
350
9
  3
ACAD_SCALELIST
350
4E
  3
ACAD_TABLESTYLE
350
4F
  3
ACAD_VISUALSTYLE
350
2D
  3
ACDB_RECOMPOSE_DATA
350
B02
  3
AcDbVariableDictionary
350
B03
  3
AcmDictionary
350
AFC
  3
AMG
350
124F
  3
AMGSNAPSETTINGS
350
148B
  3
DWGPROPS
350
217C
  3
MAPISURF_MODULE
350
2118
  0
DICTIONARY
  5
20
330
1F
100
AcDbDictionary
280
     1
281
     1
  3
ACAD_LAYERFILTERS
360
1F95
  3
ACAD_LAYERSTATES
360
21
  3
ACLYDICTIONARY
360
1F94
  0
DICTIONARY
  5
6
330
5
100
AcDbDictionary
280
     1
281
     1
  3
ADSK_XREC_LAYER_RECONCILED
360
7
  0
DICTIONARY
  5
C99
330
C98
100
AcDbDictionary
280
     1
281
     1
  0
DICTIONARY
  5
C9B
330
C9A
100
AcDbDictionary
280
     1
281
     1
  0
DICTIONARY
  5
C9F
330
C9E
100
AcDbDictionary
280
     1
281
     1
  0
DICTIONARY
  5
CA1
330
CA0
100
AcDbDictionary
280
     1
281
     1
  0
DICTIONARY
  5
CA3
330
CA2
100
AcDbDictionary
280
     1
281
     1
  0
DICTIONARY
  5
CA5
330
CA4
100
AcDbDictionary
280
     1
281
     1
  0
DICTIONARY
  5
3
330
2
100
AcDbDictionary
280
     1
281
     1
  3
ACAD_INDEX
360
1652
  3
ACAD_SORTENTS
360
B34
  0
DICTIONARY
  5
217D
102
{ACAD_REACTORS
330
A
102
}
330
A
100
AcDbDictionary
281
     1
  3
DIMARCSYM
350
217F
  3
DIMFXL
350
217E
  0
DICTIONARY
  5
B1D
102
{ACAD_REACTORS
330
A
102
}
330
A
100
AcDbDictionary
281
     1
  0
DICTIONARY
  5
4D
102
{ACAD_REACTORS
330
A
102
}
330
A
100
AcDbDictionary
281
     1
  0
DICTIONARY
  5
3A
102
{ACAD_REACTORS
330
A
102
}
330
A
100
AcDbDictionary
281
     1
  0
DICTIONARY
  5
17
102
{ACAD_REACTORS
330
A
102
}
330
A
100
AcDbDictionary
281
     1
  3
Model
350
16
  3
レイアウト1
350
1B
  0
DICTIONARY
  5
C
102
{ACAD_REACTORS
330
A
102
}
330
A
100
AcDbDictionary
281
     1
  3
ByBlock
350
45
  3
ByLayer
350
3D
  3
Global
350
B
  0
DICTIONARY
  5
B16
102
{ACAD_REACTORS
330
A
102
}
330
A
100
AcDbDictionary
281
     1
  3
Standard
350
B17
  0
DICTIONARY
  5
3B
102
{ACAD_REACTORS
330
A
102
}
330
A
100
AcDbDictionary
281
     1
  3
STANDARD
350
53
  0
DICTIONARY
  5
3C
102
{ACAD_REACTORS
330
A
102
}
330
A
100
AcDbDictionary
281
     1
  0
ACDBDICTIONARYWDFLT
  5
9
102
{ACAD_REACTORS
330
A
102
}
330
A
100
AcDbDictionary
281
     1
  3
Normal
350
8
100
AcDbDictionaryWithDefault
340
8
  0
DICTIONARY
  5
4E
102
{ACAD_REACTORS
330
A
102
}
330
A
100
AcDbDictionary
281
     1
  3
*A1
350
CA7
  3
*A2
350
1B10
  3
*A3
350
1B11
  3
A0
350
57
  3
A1
350
58
  3
A2
350
59
  3
A3
350
5A
  3
A4
350
5B
  3
A5
350
5C
  3
A6
350
5D
  3
A7
350
5E
  3
A8
350
5F
  3
A9
350
60
  3
B0
350
61
  3
B1
350
62
  3
B2
350
63
  3
B3
350
64
  3
B4
350
65
  3
B5
350
66
  3
B6
350
67
  3
B7
350
68
  3
B8
350
69
  3
B9
350
6A
  3
C0
350
6B
  3
C1
350
6C
  3
C2
350
6D
  3
C3
350
6E
  3
C4
350
6F
  3
C5
350
70
  3
C6
350
71
  3
C7
350
72
  3
C8
350
73
  3
C9
350
74
  3
D0
350
75
  3
D1
350
76
  3
D2
350
77
  0
DICTIONARY
  5
4F
102
{ACAD_REACTORS
330
A
102
}
330
A
100
AcDbDictionary
281
     1
  3
Standard
350
54
  0
DICTIONARY
  5
2D
102
{ACAD_REACTORS
330
A
102
}
330
A
100
AcDbDictionary
281
     1
  3
2dWireframe
350
B0D
  3
3D Hidden
350
B0E
  3
3dWireframe
350
56
  3
Basic
350
B0C
  3
Brighten
350
B11
  3
ColorChange
350
B15
  3
Conceptual
350
B0F
  3
Dim
350
B10
  3
Facepattern
350
B14
  3
Flat
350
B09
  3
FlatWithEdges
350
B0A
  3
Gouraud
350
2C
  3
GouraudWithEdges
350
B0B
  3
Linepattern
350
B13
  3
Realistic
350
55
  3
Thicken
350
B12
  0
XRECORD
  5
B02
102
{ACAD_REACTORS
330
A
102
}
330
A
100
AcDbXrecord
280
     1
 90
        1
330
54
  0
DICTIONARY
  5
B03
102
{ACAD_REACTORS
330
A
102
}
330
A
100
AcDbDictionary
281
     1
  3
CANNOSCALE
350
B06
  3
CMLEADERSTYLE
350
B05
  3
CTABLESTYLE
350
B04
  3
DIMASSOC
350
B7B
  3
HIDETEXT
350
B7A
  3
INDEXCTL
350
B79
  3
LIGHTINGUNITS
350
B07
  3
MSLTSCALE
350
B77
  3
SORTENTS
350
B78
  0
DICTIONARY
  5
AFC
102
{ACAD_REACTORS
330
A
102
}
330
A
100
AcDbDictionary
281
     1
  3
AcmStdDictionary
350
1317
  3
AMDTSECTSYM_ARROWCOLOR
350
132E
  0
DICTIONARY
  5
124F
102
{ACAD_REACTORS
330
A
102
}
330
A
100
AcDbDictionary
281
     1
  3
AcMgSettings
350
1250
  0
DICTIONARY
  5
148B
102
{ACAD_REACTORS
330
A
102
}
330
A
100
AcDbDictionary
281
     1
  3
DIMENSION
350
1490
  3
FEA
350
148F
  3
HATCH (1)
350
148C
  3
HATCH (2)
350
148D
  3
SIMPLE WELD
350
1491
  3
SYMBOLS
350
148E
  0
XRECORD
  5
217C
102
{ACAD_REACTORS
330
A
102
}
330
A
100
AcDbXrecord
280
     1
  1
DWGPROPS COOKIE
  2

  3

  4

  6

  7

  8
W000135
  9

300
AmdtFileType=84
301
=
302
=
303
=
304
=
305
=
306
=
307
=
308
=
309
=
 40
2.013472071759259
 41
2451324.468257373
 42
2455894.55911279
  1

 90
        1
  0
DICTIONARY
  5
1F95
102
{ACAD_REACTORS
330
20
102
}
330
20
100
AcDbDictionary
281
     1
  0
DICTIONARY
  5
21
102
{ACAD_REACTORS
330
20
102
}
330
20
100
AcDbDictionary
281
     1
  0
DICTIONARY
  5
1F94
102
{ACAD_REACTORS
330
20
102
}
330
20
100
AcDbDictionary
281
     1
1001
ACAD
1000
<All
  0
XRECORD
  5
7
102
{ACAD_REACTORS
330
6
102
}
330
6
100
AcDbXrecord
280
     1
290
     1
  0
DICTIONARY
  5
1652
102
{ACAD_REACTORS
330
3
102
}
330
3
100
AcDbDictionary
281
     1
  3
*A1
350
1653
  0
SORTENTSTABLE
  5
B34
102
{ACAD_REACTORS
330
3
102
}
330
3
100
AcDbSortentsTable
330
2
  0
XRECORD
  5
217F
102
{ACAD_REACTORS
330
217D
102
}
330
217D
100
AcDbXrecord
280
     1
 70
     1
  0
XRECORD
  5
217E
102
{ACAD_REACTORS
330
217D
102
}
330
217D
100
AcDbXrecord
280
     1
 40
15.0
  0
LAYOUT
  5
16
102
{ACAD_XDICTIONARY
360
2180
102
}
102
{ACAD_REACTORS
330
17
102
}
330
17
100
AcDbPlotSettings
  1

  2
なし
  4

  6

 40
0.0
 41
0.0
 42
0.0
 43
0.0
 44
0.0
 45
0.0
 46
0.0
 47
0.0
 48
0.0
 49
0.0
140
0.0
141
0.0
142
1.0
143
1.0
 70
  1712
 72
     0
 73
     0
 74
     0
  7

 75
     0
147
1.0
148
0.0
149
0.0
100
AcDbLayout
  1
Model
 70
     1
 71
     0
 10
0.0
 20
0.0
 11
12.0
 21
9.0
 12
0.0
 22
0.0
 32
0.0
 14
0.0
 24
0.0
 34
0.0
 15
0.0
 25
0.0
 35
0.0
146
0.0
 13
0.0
 23
0.0
 33
0.0
 16
1.0
 26
0.0
 36
0.0
 17
0.0
 27
1.0
 37
0.0
 76
     0
330
2
331
BF0
  0
LAYOUT
  5
1B
102
{ACAD_XDICTIONARY
360
1C
102
}
102
{ACAD_REACTORS
330
17
102
}
330
17
100
AcDbPlotSettings
  1

  2
Microsoft XPS Document Writer
  4
A4
  6

 40
3.174999952316281
 41
3.174999952316281
 42
3.175003051757812
 43
3.17498779296875
 44
210.0156707763672
 45
297.0106506347656
 46
0.0
 47
0.0
 48
0.0
 49
0.0
140
0.0
141
0.0
142
1.0
143
1.0
 70
   688
 72
     1
 73
     1
 74
     5
  7

 75
    16
147
1.0
148
0.0
149
0.0
100
AcDbLayout
  1
レイアウト1
 70
     1
 71
     1
 10
0.0
 20
0.0
 11
12.0
 21
9.0
 12
0.0
 22
0.0
 32
0.0
 14
-1439.804583653114
 24
-1400.237631316938
 34
0.0
 15
2872.968780515991
 25
1675.790811506817
 35
0.0
146
0.0
 13
0.0
 23
0.0
 33
0.0
 16
1.0
 26
0.0
 36
0.0
 17
0.0
 27
1.0
 37
0.0
 76
     0
330
18
1001
ACAD_PSEXT
1000
Microsoft XPS Document Writer
1000
Microsoft XPS Document Writer
1000
XPSPort:
1000

1070
     0
  0
MATERIAL
  5
45
102
{ACAD_XDICTIONARY
360
46
102
}
102
{ACAD_REACTORS
330
C
102
}
330
C
100
AcDbMaterial
  1
ByBlock
 72
     0
 43
0.0208333333333333
 43
0.0
 43
0.0
 43
0.0
 43
0.0
 43
0.0208333333333333
 43
0.0
 43
0.0
 43
0.0
 43
0.0
 43
1.0
 43
0.0
 43
0.0
 43
0.0
 43
0.0
 43
1.0
 77
     0
 47
0.0208333333333333
 47
0.0
 47
0.0
 47
0.0
 47
0.0
 47
0.0208333333333333
 47
0.0
 47
0.0
 47
0.0
 47
0.0
 47
1.0
 47
0.0
 47
0.0
 47
0.0
 47
0.0
 47
1.0
171
     0
 49
0.0208333333333333
 49
0.0
 49
0.0
 49
0.0
 49
0.0
 49
0.0208333333333333
 49
0.0
 49
0.0
 49
0.0
 49
0.0
 49
1.0
 49
0.0
 49
0.0
 49
0.0
 49
0.0
 49
1.0
175
     0
142
0.0208333333333333
142
0.0
142
0.0
142
0.0
142
0.0
142
0.0208333333333333
142
0.0
142
0.0
142
0.0
142
0.0
142
1.0
142
0.0
142
0.0
142
0.0
142
0.0
142
1.0
179
     0
144
0.0208333333333333
144
0.0
144
0.0
144
0.0
144
0.0
144
0.0208333333333333
144
0.0
144
0.0
144
0.0
144
0.0
144
1.0
144
0.0
144
0.0
144
0.0
144
0.0
144
1.0
147
0.0208333333333333
147
0.0
147
0.0
147
0.0
147
0.0
147
0.0208333333333333
147
0.0
147
0.0
147
0.0
147
0.0
147
1.0
147
0.0
147
0.0
147
0.0
147
0.0
147
1.0
  0
MATERIAL
  5
3D
102
{ACAD_XDICTIONARY
360
3E
102
}
102
{ACAD_REACTORS
330
C
102
}
330
C
100
AcDbMaterial
  1
ByLayer
 72
     0
 43
0.0208333333333333
 43
0.0
 43
0.0
 43
0.0
 43
0.0
 43
0.0208333333333333
 43
0.0
 43
0.0
 43
0.0
 43
0.0
 43
1.0
 43
0.0
 43
0.0
 43
0.0
 43
0.0
 43
1.0
 77
     0
 47
0.0208333333333333
 47
0.0
 47
0.0
 47
0.0
 47
0.0
 47
0.0208333333333333
 47
0.0
 47
0.0
 47
0.0
 47
0.0
 47
1.0
 47
0.0
 47
0.0
 47
0.0
 47
0.0
 47
1.0
171
     0
 49
0.0208333333333333
 49
0.0
 49
0.0
 49
0.0
 49
0.0
 49
0.0208333333333333
 49
0.0
 49
0.0
 49
0.0
 49
0.0
 49
1.0
 49
0.0
 49
0.0
 49
0.0
 49
0.0
 49
1.0
175
     0
142
0.0208333333333333
142
0.0
142
0.0
142
0.0
142
0.0
142
0.0208333333333333
142
0.0
142
0.0
142
0.0
142
0.0
142
1.0
142
0.0
142
0.0
142
0.0
142
0.0
142
1.0
179
     0
144
0.0208333333333333
144
0.0
144
0.0
144
0.0
144
0.0
144
0.0208333333333333
144
0.0
144
0.0
144
0.0
144
0.0
144
1.0
144
0.0
144
0.0
144
0.0
144
0.0
144
1.0
147
0.0208333333333333
147
0.0
147
0.0
147
0.0
147
0.0
147
0.0208333333333333
147
0.0
147
0.0
147
0.0
147
0.0
147
1.0
147
0.0
147
0.0
147
0.0
147
0.0
147
1.0
  0
MATERIAL
  5
B
102
{ACAD_XDICTIONARY
360
D
102
}
102
{ACAD_REACTORS
330
C
102
}
330
C
100
AcDbMaterial
  1
Global
 72
     0
 43
0.0208333333333333
 43
0.0
 43
0.0
 43
0.0
 43
0.0
 43
0.0208333333333333
 43
0.0
 43
0.0
 43
0.0
 43
0.0
 43
1.0
 43
0.0
 43
0.0
 43
0.0
 43
0.0
 43
1.0
 77
     0
 47
0.0208333333333333
 47
0.0
 47
0.0
 47
0.0
 47
0.0
 47
0.0208333333333333
 47
0.0
 47
0.0
 47
0.0
 47
0.0
 47
1.0
 47
0.0
 47
0.0
 47
0.0
 47
0.0
 47
1.0
171
     0
 49
0.0208333333333333
 49
0.0
 49
0.0
 49
0.0
 49
0.0
 49
0.0208333333333333
 49
0.0
 49
0.0
 49
0.0
 49
0.0
 49
1.0
 49
0.0
 49
0.0
 49
0.0
 49
0.0
 49
1.0
175
     0
142
0.0208333333333333
142
0.0
142
0.0
142
0.0
142
0.0
142
0.0208333333333333
142
0.0
142
0.0
142
0.0
142
0.0
142
1.0
142
0.0
142
0.0
142
0.0
142
0.0
142
1.0
179
     0
144
0.0208333333333333
144
0.0
144
0.0
144
0.0
144
0.0
144
0.0208333333333333
144
0.0
144
0.0
144
0.0
144
0.0
144
1.0
144
0.0
144
0.0
144
0.0
144
0.0
144
1.0
147
0.0208333333333333
147
0.0
147
0.0
147
0.0
147
0.0
147
0.0208333333333333
147
0.0
147
0.0
147
0.0
147
0.0
147
1.0
147
0.0
147
0.0
147
0.0
147
0.0
147
1.0
  0
MLEADERSTYLE
  5
B17
102
{ACAD_REACTORS
330
B16
330
2084
330
2085
102
}
330
B16
100
AcDbMLeaderStyle
170
     2
171
     1
172
     0
 90
        2
 40
0.0
 41
0.0
173
     1
 91
-1056964608
340
26
 92
       -2
290
     1
 42
2.0
291
     1
 43
0.36
  3
Standard
 44
4.0
300

342
23
174
     1
178
     6
175
     1
176
     0
 93
-1056964608
 45
4.0
292
     0
297
     0
 46
4.0
 94
-1056964608
 47
1.0
 49
1.0
140
1.0
293
     1
141
0.0
294
     1
177
     0
142
1.0
295
     0
296
     0
143
0.125
1001
ACAD_MLEADERVER
1070
     2
  0
MLINESTYLE
  5
53
102
{ACAD_REACTORS
330
3B
102
}
330
3B
100
AcDbMlineStyle
  2
STANDARD
 70
     0
  3

 62
   256
 51
90.0
 52
90.0
 71
     2
 49
0.5
 62
   256
  6
BYLAYER
 49
-0.5
 62
   256
  6
BYLAYER
  0
ACDBPLACEHOLDER
  5
8
102
{ACAD_REACTORS
330
9
102
}
330
9
  0
SCALE
  5
CA7
102
{ACAD_REACTORS
330
4E
102
}
330
4E
100
AcDbScale
 70
     0
300
1:5_XREF
140
1.0
141
5.0
290
     0
  0
SCALE
  5
1B10
102
{ACAD_REACTORS
330
4E
102
}
330
4E
100
AcDbScale
 70
     0
300
1:5_XREF_XREF
140
1.0
141
5.0
290
     0
  0
SCALE
  5
1B11
102
{ACAD_REACTORS
330
4E
102
}
330
4E
100
AcDbScale
 70
     0
300
1:5_XREF_XREF_XREF_XREF
140
1.0
141
5.0
290
     0
  0
SCALE
  5
57
102
{ACAD_REACTORS
330
4E
102
}
330
4E
100
AcDbScale
 70
     0
300
1:1
140
1.0
141
1.0
290
     1
  0
SCALE
  5
58
102
{ACAD_REACTORS
330
4E
102
}
330
4E
100
AcDbScale
 70
     0
300
1:2
140
1.0
141
2.0
290
     0
  0
SCALE
  5
59
102
{ACAD_REACTORS
330
4E
102
}
330
4E
100
AcDbScale
 70
     0
300
1:4
140
1.0
141
4.0
290
     0
  0
SCALE
  5
5A
102
{ACAD_REACTORS
330
4E
102
}
330
4E
100
AcDbScale
 70
     0
300
1:5
140
1.0
141
5.0
290
     0
  0
SCALE
  5
5B
102
{ACAD_REACTORS
330
4E
102
}
330
4E
100
AcDbScale
 70
     0
300
1:8
140
1.0
141
8.0
290
     0
  0
SCALE
  5
5C
102
{ACAD_REACTORS
330
4E
102
}
330
4E
100
AcDbScale
 70
     0
300
1:10
140
1.0
141
10.0
290
     0
  0
SCALE
  5
5D
102
{ACAD_REACTORS
330
4E
102
}
330
4E
100
AcDbScale
 70
     0
300
1:16
140
1.0
141
16.0
290
     0
  0
SCALE
  5
5E
102
{ACAD_REACTORS
330
4E
102
}
330
4E
100
AcDbScale
 70
     0
300
1:20
140
1.0
141
20.0
290
     0
  0
SCALE
  5
5F
102
{ACAD_REACTORS
330
4E
102
}
330
4E
100
AcDbScale
 70
     0
300
1:30
140
1.0
141
30.0
290
     0
  0
SCALE
  5
60
102
{ACAD_REACTORS
330
4E
102
}
330
4E
100
AcDbScale
 70
     0
300
1:40
140
1.0
141
40.0
290
     0
  0
SCALE
  5
61
102
{ACAD_REACTORS
330
4E
102
}
330
4E
100
AcDbScale
 70
     0
300
1:50
140
1.0
141
50.0
290
     0
  0
SCALE
  5
62
102
{ACAD_REACTORS
330
4E
102
}
330
4E
100
AcDbScale
 70
     0
300
1:100
140
1.0
141
100.0
290
     0
  0
SCALE
  5
63
102
{ACAD_REACTORS
330
4E
102
}
330
4E
100
AcDbScale
 70
     0
300
2:1
140
2.0
141
1.0
290
     0
  0
SCALE
  5
64
102
{ACAD_REACTORS
330
4E
102
}
330
4E
100
AcDbScale
 70
     0
300
4:1
140
4.0
141
1.0
290
     0
  0
SCALE
  5
65
102
{ACAD_REACTORS
330
4E
102
}
330
4E
100
AcDbScale
 70
     0
300
8:1
140
8.0
141
1.0
290
     0
  0
SCALE
  5
66
102
{ACAD_REACTORS
330
4E
102
}
330
4E
100
AcDbScale
 70
     0
300
10:1
140
10.0
141
1.0
290
     0
  0
SCALE
  5
67
102
{ACAD_REACTORS
330
4E
102
}
330
4E
100
AcDbScale
 70
     0
300
100:1
140
100.0
141
1.0
290
     0
  0
SCALE
  5
68
102
{ACAD_REACTORS
330
4E
102
}
330
4E
100
AcDbScale
 70
     0
300
1/128" = 1'-0"
140
0.0078125
141
12.0
290
     0
  0
SCALE
  5
69
102
{ACAD_REACTORS
330
4E
102
}
330
4E
100
AcDbScale
 70
     0
300
1/64" = 1'-0"
140
0.015625
141
12.0
290
     0
  0
SCALE
  5
6A
102
{ACAD_REACTORS
330
4E
102
}
330
4E
100
AcDbScale
 70
     0
300
1/32" = 1'-0"
140
0.03125
141
12.0
290
     0
  0
SCALE
  5
6B
102
{ACAD_REACTORS
330
4E
102
}
330
4E
100
AcDbScale
 70
     0
300
1/16" = 1'-0"
140
0.0625
141
12.0
290
     0
  0
SCALE
  5
6C
102
{ACAD_REACTORS
330
4E
102
}
330
4E
100
AcDbScale
 70
     0
300
3/32" = 1'-0"
140
0.09375
141
12.0
290
     0
  0
SCALE
  5
6D
102
{ACAD_REACTORS
330
4E
102
}
330
4E
100
AcDbScale
 70
     0
300
1/8" = 1'-0"
140
0.125
141
12.0
290
     0
  0
SCALE
  5
6E
102
{ACAD_REACTORS
330
4E
102
}
330
4E
100
AcDbScale
 70
     0
300
3/16" = 1'-0"
140
0.1875
141
12.0
290
     0
  0
SCALE
  5
6F
102
{ACAD_REACTORS
330
4E
102
}
330
4E
100
AcDbScale
 70
     0
300
1/4" = 1'-0"
140
0.25
141
12.0
290
     0
  0
SCALE
  5
70
102
{ACAD_REACTORS
330
4E
102
}
330
4E
100
AcDbScale
 70
     0
300
3/8" = 1'-0"
140
0.375
141
12.0
290
     0
  0
SCALE
  5
71
102
{ACAD_REACTORS
330
4E
102
}
330
4E
100
AcDbScale
 70
     0
300
1/2" = 1'-0"
140
0.5
141
12.0
290
     0
  0
SCALE
  5
72
102
{ACAD_REACTORS
330
4E
102
}
330
4E
100
AcDbScale
 70
     0
300
3/4" = 1'-0"
140
0.75
141
12.0
290
     0
  0
SCALE
  5
73
102
{ACAD_REACTORS
330
4E
102
}
330
4E
100
AcDbScale
 70
     0
300
1" = 1'-0"
140
1.0
141
12.0
290
     0
  0
SCALE
  5
74
102
{ACAD_REACTORS
330
4E
102
}
330
4E
100
AcDbScale
 70
     0
300
1-1/2" = 1'-0"
140
1.5
141
12.0
290
     0
  0
SCALE
  5
75
102
{ACAD_REACTORS
330
4E
102
}
330
4E
100
AcDbScale
 70
     0
300
3" = 1'-0"
140
3.0
141
12.0
290
     0
  0
SCALE
  5
76
102
{ACAD_REACTORS
330
4E
102
}
330
4E
100
AcDbScale
 70
     0
300
6" = 1'-0"
140
6.0
141
12.0
290
     0
  0
SCALE
  5
77
102
{ACAD_REACTORS
330
4E
102
}
330
4E
100
AcDbScale
 70
     0
300
1'-0" = 1'-0"
140
12.0
141
12.0
290
     0
  0
TABLESTYLE
  5
54
102
{ACAD_XDICTIONARY
360
B00
102
}
102
{ACAD_REACTORS
330
4F
102
}
330
4F
100
AcDbTableStyle
  3
Standard
 70
     0
 71
     0
 40
1.5
 41
1.5
280
     0
281
     0
  7
STANDARD
140
4.5
170
     2
 62
     0
 63
     7
283
     0
274
    -2
284
     1
 64
     0
275
    -2
285
     1
 65
     0
276
    -2
286
     1
 66
     0
277
    -2
287
     1
 67
     0
278
    -2
288
     1
 68
     0
279
    -2
289
     1
 69
     0
  7
STANDARD
140
6.0
170
     5
 62
     0
 63
     7
283
     0
274
    -2
284
     1
 64
     0
275
    -2
285
     1
 65
     0
276
    -2
286
     1
 66
     0
277
    -2
287
     1
 67
     0
278
    -2
288
     1
 68
     0
279
    -2
289
     1
 69
     0
  7
STANDARD
140
4.5
170
     5
 62
     0
 63
     7
283
     0
274
    -2
284
     1
 64
     0
275
    -2
285
     1
 65
     0
276
    -2
286
     1
 66
     0
277
    -2
287
     1
 67
     0
278
    -2
288
     1
 68
     0
279
    -2
289
     1
 69
     0
  0
VISUALSTYLE
  5
B0D
102
{ACAD_REACTORS
330
2D
102
}
330
2D
100
AcDbVisualStyle
  2
2dWireframe
 70
     4
 71
     0
 72
     2
 73
     0
 90
        0
 40
-0.6
 41
-30.0
 62
     5
 63
     7
 74
     1
 91
        4
 64
     7
 65
   257
 75
     1
175
     1
 42
1.0
 92
        0
 66
   257
 43
1.0
 76
     1
 77
     6
 78
     2
 67
     7
 79
     5
170
     0
171
     0
290
     0
174
     0
 93
        1
 44
0.0
173
     0
291
     0
 45
0.0
1001
ACAD
1000
AcDbSavedByObjectVersion
1070
     0
1000
AcDbSavedByObjectVersion
1070
     0
1000
AcDbSavedByObjectVersion
1070
     0
1000
AcDbSavedByObjectVersion
1070
     0
1000
AcDbSavedByObjectVersion
1070
     0
1000
AcDbSavedByObjectVersion
1070
     0
1000
AcDbSavedByObjectVersion
1070
     0
1000
AcDbSavedByObjectVersion
1070
     0
1000
AcDbSavedByObjectVersion
1070
     0
  0
VISUALSTYLE
  5
B0E
102
{ACAD_REACTORS
330
2D
102
}
330
2D
100
AcDbVisualStyle
  2
3D Hidden
 70
     6
 71
     1
 72
     2
 73
     2
 90
        0
 40
-0.6
 41
-30.0
 62
     5
 63
     7
 74
     2
 91
        2
 64
     7
 65
   257
 75
     2
175
     1
 42
40.0
 92
        0
 66
   257
 43
1.0
 76
     1
 77
     6
 78
     2
 67
     7
 79
     3
170
     0
171
     0
290
     0
174
     0
 93
        1
 44
0.0
173
     0
291
     0
 45
0.0
1001
ACAD
1000
AcDbSavedByObjectVersion
1070
     0
1000
AcDbSavedByObjectVersion
1070
     0
1000
AcDbSavedByObjectVersion
1070
     0
1000
AcDbSavedByObjectVersion
1070
     0
1000
AcDbSavedByObjectVersion
1070
     0
1000
AcDbSavedByObjectVersion
1070
     0
1000
AcDbSavedByObjectVersion
1070
     0
1000
AcDbSavedByObjectVersion
1070
     0
1000
AcDbSavedByObjectVersion
1070
     0
  0
VISUALSTYLE
  5
56
102
{ACAD_REACTORS
330
2D
102
}
330
2D
100
AcDbVisualStyle
  2
3dWireframe
 70
     5
 71
     0
 72
     2
 73
     0
 90
        0
 40
-0.6
 41
-30.0
 62
     5
 63
     7
 74
     1
 91
        4
 64
     7
 65
   257
 75
     1
175
     1
 42
1.0
 92
        0
 66
   257
 43
1.0
 76
     1
 77
     6
 78
     2
 67
     7
 79
     5
170
     0
171
     0
290
     0
174
     0
 93
        1
 44
0.0
173
     0
291
     0
 45
0.0
1001
ACAD
1000
AcDbSavedByObjectVersion
1070
     0
1000
AcDbSavedByObjectVersion
1070
     0
1000
AcDbSavedByObjectVersion
1070
     0
1000
AcDbSavedByObjectVersion
1070
     0
1000
AcDbSavedByObjectVersion
1070
     0
1000
AcDbSavedByObjectVersion
1070
     0
1000
AcDbSavedByObjectVersion
1070
     0
1000
AcDbSavedByObjectVersion
1070
     0
1000
AcDbSavedByObjectVersion
1070
     0
  0
VISUALSTYLE
  5
B0C
102
{ACAD_REACTORS
330
2D
102
}
330
2D
100
AcDbVisualStyle
  2
Basic
 70
     7
 71
     1
 72
     0
 73
     1
 90
        0
 40
-0.6
 41
-30.0
 62
     5
 63
     7
 74
     0
 91
        4
 64
     7
 65
   257
 75
     1
175
     1
 42
1.0
 92
        8
 66
     7
 43
1.0
 76
     1
 77
     6
 78
     2
 67
     7
 79
     5
170
     0
171
     0
290
     0
174
     0
 93
        1
 44
0.0
173
     0
291
     1
 45
0.0
1001
ACAD
1000
AcDbSavedByObjectVersion
1070
     0
1000
AcDbSavedByObjectVersion
1070
     0
1000
AcDbSavedByObjectVersion
1070
     0
1000
AcDbSavedByObjectVersion
1070
     0
1000
AcDbSavedByObjectVersion
1070
     0
1000
AcDbSavedByObjectVersion
1070
     0
1000
AcDbSavedByObjectVersion
1070
     0
1000
AcDbSavedByObjectVersion
1070
     0
1000
AcDbSavedByObjectVersion
1070
     0
  0
VISUALSTYLE
  5
B11
102
{ACAD_REACTORS
330
2D
102
}
330
2D
100
AcDbVisualStyle
  2
Brighten
 70
    12
 71
     2
 72
     2
 73
     0
 90
        0
 40
-0.6
 41
-30.0
 62
     5
 63
     7
 74
     1
 91
        4
 64
     7
 65
   257
 75
     1
175
     1
 42
1.0
 92
        8
 66
     7
 43
1.0
 76
     1
 77
     6
 78
     2
 67
     7
 79
     5
170
     0
171
     0
290
     0
174
     0
 93
        1
 44
50.0
173
     0
291
     1
 45
0.0
1001
ACAD
1000
AcDbSavedByObjectVersion
1070
     0
1000
AcDbSavedByObjectVersion
1070
     0
1000
AcDbSavedByObjectVersion
1070
     0
1000
AcDbSavedByObjectVersion
1070
     0
1000
AcDbSavedByObjectVersion
1070
     0
1000
AcDbSavedByObjectVersion
1070
     0
1000
AcDbSavedByObjectVersion
1070
     0
1000
AcDbSavedByObjectVersion
1070
     0
1000
AcDbSavedByObjectVersion
1070
     0
  0
VISUALSTYLE
  5
B15
102
{ACAD_REACTORS
330
2D
102
}
330
2D
100
AcDbVisualStyle
  2
ColorChange
 70
    16
 71
     2
 72
     2
 73
     3
 90
        0
 40
-0.6
 41
-30.0
 62
     5
 63
     8
 74
     1
 91
        4
 64
     7
 65
   257
 75
     1
175
     1
 42
1.0
 92
        8
 66
     8
 43
1.0
 76
     1
 77
     6
 78
     2
 67
     7
 79
     5
170
     0
171
     0
290
     0
174
     0
 93
        1
 44
0.0
173
     0
291
     1
 45
0.0
1001
ACAD
1000
AcDbSavedByObjectVersion
1070
     0
1000
AcDbSavedByObjectVersion
1070
     0
1000
AcDbSavedByObjectVersion
1070
     0
1000
AcDbSavedByObjectVersion
1070
     0
1000
AcDbSavedByObjectVersion
1070
     0
1000
AcDbSavedByObjectVersion
1070
     0
1000
AcDbSavedByObjectVersion
1070
     0
1000
AcDbSavedByObjectVersion
1070
     0
1000
AcDbSavedByObjectVersion
1070
     0
  0
VISUALSTYLE
  5
B0F
102
{ACAD_REACTORS
330
2D
102
}
330
2D
100
AcDbVisualStyle
  2
Conceptual
 70
     9
 71
     3
 72
     2
 73
     0
 90
        0
 40
-0.6
 41
-30.0
 62
     5
 63
     7
 74
     2
 91
        2
 64
     7
 65
   257
 75
     1
175
     1
 42
40.0
 92
        8
 66
     7
 43
1.0
 76
     1
 77
     6
 78
     2
 67
     7
 79
     3
170
     0
171
     0
290
     0
174
     0
 93
        1
 44
0.0
173
     0
291
     0
 45
0.0
1001
ACAD
1000
AcDbSavedByObjectVersion
1070
     0
1000
AcDbSavedByObjectVersion
1070
     0
1000
AcDbSavedByObjectVersion
1070
     0
1000
AcDbSavedByObjectVersion
1070
     0
1000
AcDbSavedByObjectVersion
1070
     0
1000
AcDbSavedByObjectVersion
1070
     0
1000
AcDbSavedByObjectVersion
1070
     0
1000
AcDbSavedByObjectVersion
1070
     0
1000
AcDbSavedByObjectVersion
1070
     0
  0
VISUALSTYLE
  5
B10
102
{ACAD_REACTORS
330
2D
102
}
330
2D
100
AcDbVisualStyle
  2
Dim
 70
    11
 71
     2
 72
     2
 73
     0
 90
        0
 40
-0.6
 41
-30.0
 62
     5
 63
     7
 74
     1
 91
        4
 64
     7
 65
   257
 75
     1
175
     1
 42
1.0
 92
        8
 66
     7
 43
1.0
 76
     1
 77
     6
 78
     2
 67
     7
 79
     5
170
     0
171
     0
290
     0
174
     0
 93
        1
 44
-50.0
173
     0
291
     1
 45
0.0
1001
ACAD
1000
AcDbSavedByObjectVersion
1070
     0
1000
AcDbSavedByObjectVersion
1070
     0
1000
AcDbSavedByObjectVersion
1070
     0
1000
AcDbSavedByObjectVersion
1070
     0
1000
AcDbSavedByObjectVersion
1070
     0
1000
AcDbSavedByObjectVersion
1070
     0
1000
AcDbSavedByObjectVersion
1070
     0
1000
AcDbSavedByObjectVersion
1070
     0
1000
AcDbSavedByObjectVersion
1070
     0
  0
VISUALSTYLE
  5
B14
102
{ACAD_REACTORS
330
2D
102
}
330
2D
100
AcDbVisualStyle
  2
Facepattern
 70
    15
 71
     2
 72
     2
 73
     0
 90
        0
 40
-0.6
 41
-30.0
 62
     5
 63
     7
 74
     1
 91
        4
 64
     7
 65
   257
 75
     1
175
     1
 42
1.0
 92
        8
 66
     7
 43
1.0
 76
     1
 77
     6
 78
     2
 67
     7
 79
     5
170
     0
171
     0
290
     0
174
     0
 93
        1
 44
0.0
173
     0
291
     1
 45
0.0
1001
ACAD
1000
AcDbSavedByObjectVersion
1070
     0
1000
AcDbSavedByObjectVersion
1070
     0
1000
AcDbSavedByObjectVersion
1070
     0
1000
AcDbSavedByObjectVersion
1070
     0
1000
AcDbSavedByObjectVersion
1070
     0
1000
AcDbSavedByObjectVersion
1070
     0
1000
AcDbSavedByObjectVersion
1070
     0
1000
AcDbSavedByObjectVersion
1070
     0
1000
AcDbSavedByObjectVersion
1070
     0
  0
VISUALSTYLE
  5
B09
102
{ACAD_REACTORS
330
2D
102
}
330
2D
100
AcDbVisualStyle
  2
Flat
 70
     0
 71
     2
 72
     1
 73
     1
 90
        2
 40
-0.6
 41
30.0
 62
     5
 63
     7
 74
     0
 91
        4
 64
     7
 65
   257
 75
     1
175
     1
 42
1.0
 92
        8
 66
     7
 43
1.0
 76
     1
 77
     6
 78
     2
 67
     7
 79
     5
170
     0
171
     0
290
     0
174
     0
 93
       13
 44
0.0
173
     0
291
     1
 45
0.0
1001
ACAD
1000
AcDbSavedByObjectVersion
1070
     0
1000
AcDbSavedByObjectVersion
1070
     0
1000
AcDbSavedByObjectVersion
1070
     0
1000
AcDbSavedByObjectVersion
1070
     0
1000
AcDbSavedByObjectVersion
1070
     0
1000
AcDbSavedByObjectVersion
1070
     0
1000
AcDbSavedByObjectVersion
1070
     0
1000
AcDbSavedByObjectVersion
1070
     0
1000
AcDbSavedByObjectVersion
1070
     0
  0
VISUALSTYLE
  5
B0A
102
{ACAD_REACTORS
330
2D
102
}
330
2D
100
AcDbVisualStyle
  2
FlatWithEdges
 70
     1
 71
     2
 72
     1
 73
     1
 90
        2
 40
-0.6
 41
30.0
 62
     5
 63
     7
 74
     1
 91
        4
 64
     7
 65
   257
 75
     1
175
     1
 42
1.0
 92
        0
 66
   257
 43
1.0
 76
     1
 77
     6
 78
     2
 67
     7
 79
     5
170
     0
171
     0
290
     0
174
     0
 93
       13
 44
0.0
173
     0
291
     1
 45
0.0
1001
ACAD
1000
AcDbSavedByObjectVersion
1070
     0
1000
AcDbSavedByObjectVersion
1070
     0
1000
AcDbSavedByObjectVersion
1070
     0
1000
AcDbSavedByObjectVersion
1070
     0
1000
AcDbSavedByObjectVersion
1070
     0
1000
AcDbSavedByObjectVersion
1070
     0
1000
AcDbSavedByObjectVersion
1070
     0
1000
AcDbSavedByObjectVersion
1070
     0
1000
AcDbSavedByObjectVersion
1070
     0
  0
VISUALSTYLE
  5
2C
102
{ACAD_REACTORS
330
2D
102
}
330
2D
100
AcDbVisualStyle
  2
Gouraud
 70
     2
 71
     2
 72
     2
 73
     1
 90
        2
 40
-0.6
 41
30.0
 62
     5
 63
     7
 74
     0
 91
        4
 64
     7
 65
   257
 75
     1
175
     1
 42
1.0
 92
        0
 66
     7
 43
1.0
 76
     1
 77
     6
 78
     2
 67
     7
 79
     5
170
     0
171
     0
290
     0
174
     0
 93
       13
 44
0.0
173
     0
291
     1
 45
0.0
1001
ACAD
1000
AcDbSavedByObjectVersion
1070
     0
1000
AcDbSavedByObjectVersion
1070
     0
1000
AcDbSavedByObjectVersion
1070
     0
1000
AcDbSavedByObjectVersion
1070
     0
1000
AcDbSavedByObjectVersion
1070
     0
1000
AcDbSavedByObjectVersion
1070
     0
1000
AcDbSavedByObjectVersion
1070
     0
1000
AcDbSavedByObjectVersion
1070
     0
1000
AcDbSavedByObjectVersion
1070
     0
  0
VISUALSTYLE
  5
B0B
102
{ACAD_REACTORS
330
2D
102
}
330
2D
100
AcDbVisualStyle
  2
GouraudWithEdges
 70
     3
 71
     2
 72
     2
 73
     1
 90
        2
 40
-0.6
 41
30.0
 62
     5
 63
     7
 74
     1
 91
        4
 64
     7
 65
   257
 75
     1
175
     1
 42
1.0
 92
        0
 66
   257
 43
1.0
 76
     1
 77
     6
 78
     2
 67
     7
 79
     5
170
     0
171
     0
290
     0
174
     0
 93
       13
 44
0.0
173
     0
291
     1
 45
0.0
1001
ACAD
1000
AcDbSavedByObjectVersion
1070
     0
1000
AcDbSavedByObjectVersion
1070
     0
1000
AcDbSavedByObjectVersion
1070
     0
1000
AcDbSavedByObjectVersion
1070
     0
1000
AcDbSavedByObjectVersion
1070
     0
1000
AcDbSavedByObjectVersion
1070
     0
1000
AcDbSavedByObjectVersion
1070
     0
1000
AcDbSavedByObjectVersion
1070
     0
1000
AcDbSavedByObjectVersion
1070
     0
  0
VISUALSTYLE
  5
B13
102
{ACAD_REACTORS
330
2D
102
}
330
2D
100
AcDbVisualStyle
  2
Linepattern
 70
    14
 71
     2
 72
     2
 73
     0
 90
        0
 40
-0.6
 41
-30.0
 62
     5
 63
     7
 74
     1
 91
        4
 64
     7
 65
   257
 75
     7
175
     7
 42
1.0
 92
        8
 66
     7
 43
1.0
 76
     1
 77
     6
 78
     2
 67
     7
 79
     5
170
     0
171
     0
290
     0
174
     0
 93
        1
 44
0.0
173
     0
291
     1
 45
0.0
1001
ACAD
1000
AcDbSavedByObjectVersion
1070
     0
1000
AcDbSavedByObjectVersion
1070
     0
1000
AcDbSavedByObjectVersion
1070
     0
1000
AcDbSavedByObjectVersion
1070
     0
1000
AcDbSavedByObjectVersion
1070
     0
1000
AcDbSavedByObjectVersion
1070
     0
1000
AcDbSavedByObjectVersion
1070
     0
1000
AcDbSavedByObjectVersion
1070
     0
1000
AcDbSavedByObjectVersion
1070
     0
  0
VISUALSTYLE
  5
55
102
{ACAD_REACTORS
330
2D
102
}
330
2D
100
AcDbVisualStyle
  2
Realistic
 70
     8
 71
     2
 72
     2
 73
     0
 90
        0
 40
-0.6
 41
-30.0
 62
     5
 63
     7
 74
     1
 91
        0
 64
     7
 65
   257
 75
     1
175
     1
 42
1.0
 92
        8
 66
     8
 43
1.0
 76
     1
 77
     6
 78
     2
 67
     7
 79
     5
170
     0
171
     0
290
     0
174
     0
 93
       13
 44
0.0
173
     0
291
     0
 45
0.0
1001
ACAD
1000
AcDbSavedByObjectVersion
1070
     0
1000
AcDbSavedByObjectVersion
1070
     0
1000
AcDbSavedByObjectVersion
1070
     0
1000
AcDbSavedByObjectVersion
1070
     0
1000
AcDbSavedByObjectVersion
1070
     0
1000
AcDbSavedByObjectVersion
1070
     0
1000
AcDbSavedByObjectVersion
1070
     0
1000
AcDbSavedByObjectVersion
1070
     0
1000
AcDbSavedByObjectVersion
1070
     0
  0
VISUALSTYLE
  5
B12
102
{ACAD_REACTORS
330
2D
102
}
330
2D
100
AcDbVisualStyle
  2
Thicken
 70
    13
 71
     2
 72
     2
 73
     0
 90
        0
 40
-0.6
 41
-30.0
 62
     5
 63
     7
 74
     1
 91
        4
 64
     7
 65
   257
 75
     1
175
     1
 42
1.0
 92
       12
 66
     7
 43
1.0
 76
     1
 77
     6
 78
     2
 67
     7
 79
     5
170
     0
171
     0
290
     0
174
     0
 93
        1
 44
0.0
173
     0
291
     1
 45
0.0
1001
ACAD
1000
AcDbSavedByObjectVersion
1070
     0
1000
AcDbSavedByObjectVersion
1070
     0
1000
AcDbSavedByObjectVersion
1070
     0
1000
AcDbSavedByObjectVersion
1070
     0
1000
AcDbSavedByObjectVersion
1070
     0
1000
AcDbSavedByObjectVersion
1070
     0
1000
AcDbSavedByObjectVersion
1070
     0
1000
AcDbSavedByObjectVersion
1070
     0
1000
AcDbSavedByObjectVersion
1070
     0
  0
DICTIONARYVAR
  5
B06
102
{ACAD_REACTORS
330
B03
102
}
330
B03
100
DictionaryVariables
280
     0
  1
1:1
  0
DICTIONARYVAR
  5
B05
102
{ACAD_REACTORS
330
B03
102
}
330
B03
100
DictionaryVariables
280
     0
  1
STANDARD
  0
DICTIONARYVAR
  5
B04
102
{ACAD_REACTORS
330
B03
102
}
330
B03
100
DictionaryVariables
280
     0
  1
STANDARD
  0
DICTIONARYVAR
  5
B7B
102
{ACAD_REACTORS
330
B03
102
}
330
B03
100
DictionaryVariables
280
     0
  1
1
  0
DICTIONARYVAR
  5
B7A
102
{ACAD_REACTORS
330
B03
102
}
330
B03
100
DictionaryVariables
280
     0
  1
1
  0
DICTIONARYVAR
  5
B79
102
{ACAD_REACTORS
330
B03
102
}
330
B03
100
DictionaryVariables
280
     0
  1
1
  0
DICTIONARYVAR
  5
B07
102
{ACAD_REACTORS
330
B03
102
}
330
B03
100
DictionaryVariables
280
     0
  1
0
  0
DICTIONARYVAR
  5
B77
102
{ACAD_REACTORS
330
B03
102
}
330
B03
100
DictionaryVariables
280
     0
  1
1
  0
DICTIONARYVAR
  5
B78
102
{ACAD_REACTORS
330
B03
102
}
330
B03
100
DictionaryVariables
280
     0
  1
127
  0
DICTIONARY
  5
1317
102
{ACAD_REACTORS
330
AFC
102
}
330
AFC
100
AcDbDictionary
281
     1
  0
XRECORD
  5
132E
102
{ACAD_REACTORS
330
AFC
102
}
330
AFC
100
AcDbXrecord
280
     1
 90
-1023410169
  0
DICTIONARY
  5
1250
102
{ACAD_REACTORS
330
124F
102
}
330
124F
100
AcDbDictionary
281
     1
  3
DWGSETTINGS
350
209A
  3
TRANSSETTINGS
350
209B
  0
ACAMGFILTERDAT
  5
1490
102
{ACAD_REACTORS
330
148B
102
}
330
148B
100
AcAmgFilterDat
 70
    15
  1
DIMENSION,AMDT_*_DIM
  2
*
  3
*
  4
*
  5
*
290
     1
  0
ACAMGFILTERDAT
  5
148F
102
{ACAD_REACTORS
330
148B
102
}
330
148B
100
AcAmgFilterDat
 70
    15
  1
*
  2
AM_FEA-AM_*
  3
*
  4
*
  5
*
290
     1
  0
ACAMGFILTERDAT
  5
148C
102
{ACAD_REACTORS
330
148B
102
}
330
148B
100
AcAmgFilterDat
 70
    15
  1
HATCH
  2
*
  3
*
  4
*
  5
*
290
     1
  0
ACAMGFILTERDAT
  5
148D
102
{ACAD_REACTORS
330
148B
102
}
330
148B
100
AcAmgFilterDat
 70
    15
  1
LINE
  2
8,8N,*-8,*-8N,AM_8,AM_8N,*-AM_8,*-AM_8N
  3
*
  4
*
  5
INSERT,STDPART2D
290
     1
  0
ACAMGFILTERDAT
  5
1491
102
{ACAD_REACTORS
330
148B
102
}
330
148B
100
AcAmgFilterDat
 70
    15
  1
ARC
  2
AM_5
  3
*
  4
2
  5
INSERT
290
     0
  0
ACAMGFILTERDAT
  5
148E
102
{ACAD_REACTORS
330
148B
102
}
330
148B
100
AcAmgFilterDat
 70
    15
  1
ACMFCFRAME,ACMDATUMTARGET,ACMDATUMID,ACMWELDSYM,ACMSURFSYM,ACMFEATID,ACMPARTREF,ACMBALLOON,AMDTEDGESYM,AMGSCREWCALCTABLE
  2
*
  3
*
  4
*
  5
*
290
     1
  0
LAYER_INDEX
  5
1653
102
{ACAD_REACTORS
330
1652
102
}
330
1652
100
AcDbIndex
 40
2455894.55911279
100
AcDbLayerIndex
  8
0
360
1654
 90
        0
  8
Defpoints
360
1655
 90
        0
  8
SIZE
360
1656
 90
        9
  8
OUTLINE
360
1657
 90
      459
  8
BASIS
360
1658
 90
        2
  8
NOTE
360
1659
 90
       86
  8
ARRANGE
360
165A
 90
        3
  8
ETC
360
165B
 90
        1
  0
DICTIONARY
  5
2180
330
16
100
AcDbDictionary
280
     1
281
     1
  3
ACAD_XREC_ROUNDTRIP
360
2181
  0
DICTIONARY
  5
1C
330
1B
100
AcDbDictionary
280
     1
281
     1
  3
ACAD_XREC_ROUNDTRIP
360
2182
  3
ADSK_XREC_LAYOUTTHUMBNAIL
360
1D
  0
DICTIONARY
  5
46
330
45
100
AcDbDictionary
280
     1
281
     1
  3
ACAD_XREC_ROUNDTRIP
360
B71
  3
BUMPTILE
360
47
  3
DIFFUSETILE
360
48
  3
OPACITYTILE
360
49
  3
REFLECTIONTILE
360
4A
  3
REFRACTIONTILE
360
4B
  3
SPECULARTILE
360
4C
  0
DICTIONARY
  5
3E
330
3D
100
AcDbDictionary
280
     1
281
     1
  3
ACAD_XREC_ROUNDTRIP
360
B70
  3
BUMPTILE
360
3F
  3
DIFFUSETILE
360
40
  3
OPACITYTILE
360
41
  3
REFLECTIONTILE
360
42
  3
REFRACTIONTILE
360
43
  3
SPECULARTILE
360
44
  0
DICTIONARY
  5
D
330
B
100
AcDbDictionary
280
     1
281
     1
  3
ACAD_XREC_ROUNDTRIP
360
B69
  3
BUMPTILE
360
E
  3
DIFFUSETILE
360
F
  3
OPACITYTILE
360
10
  3
REFLECTIONTILE
360
11
  3
REFRACTIONTILE
360
12
  3
SPECULARTILE
360
13
  0
DICTIONARY
  5
B00
330
54
100
AcDbDictionary
280
     1
281
     1
  3
ACAD_ROUNDTRIP_2008_TABLESTYLE_CELLSTYLEMAP
360
217B
  3
ACAD_XREC_ROUNDTRIP
360
2183
  0
IDBUFFER
  5
1654
330
0
100
AcDbIdBuffer
  0
IDBUFFER
  5
1655
330
0
100
AcDbIdBuffer
  0
IDBUFFER
  5
1656
330
0
100
AcDbIdBuffer
330
1FD7
330
1FE4
330
1FF6
330
2024
330
2043
330
2050
330
205D
330
206A
330
2077
  0
IDBUFFER
  5
1657
330
0
100
AcDbIdBuffer
330
1DAE
330
1DAF
330
1DB0
330
1DB1
330
1DB2
330
1DB3
330
1DB4
330
1DB5
330
1DB6
330
1DB7
330
1DB8
330
1DB9
330
1DBA
330
1DBB
330
1DBC
330
1DBD
330
1DBE
330
1DBF
330
1DC0
330
1DC1
330
1DC2
330
1DC3
330
1DC4
330
1DC5
330
1DC6
330
1DC7
330
1DC8
330
1DC9
330
1DCA
330
1DCB
330
1DCC
330
1DCD
330
1DCE
330
1DCF
330
1DD0
330
1DD1
330
1DD2
330
1DD3
330
1DD4
330
1DD5
330
1DD6
330
1DD7
330
1DD8
330
1DD9
330
1DDA
330
1DDB
330
1DDC
330
1DDD
330
1DDE
330
1DDF
330
1DE0
330
1DE1
330
1DE2
330
1DE3
330
1DE4
330
1DE5
330
1DE6
330
1DE7
330
1DE8
330
1DE9
330
1DEA
330
1DEB
330
1DEC
330
1DED
330
1DEE
330
1DEF
330
1DF0
330
1DF1
330
1DF2
330
1DF3
330
1DF4
330
1DF5
330
1E10
330
1E11
330
1E12
330
1E13
330
1E14
330
1E15
330
1E16
330
1E17
330
1E18
330
1E19
330
1E1A
330
1E1B
330
1E1C
330
1E1D
330
1E1E
330
1E1F
330
1E20
330
1E21
330
1E22
330
1E23
330
1E24
330
1E25
330
1E26
330
1E27
330
1E28
330
1E29
330
1E2A
330
1E2B
330
1E2C
330
1E2D
330
1E2E
330
1E2F
330
1E30
330
1E31
330
1E32
330
1E33
330
1E34
330
1E35
330
1E36
330
1E37
330
1E38
330
1E39
330
1E3A
330
1E3B
330
1E3C
330
1E3D
330
1E3E
330
1E3F
330
1E40
330
1E41
330
1E42
330
1E43
330
1E44
330
1E45
330
1E46
330
1E47
330
1E48
330
1E49
330
1E4A
330
1E4B
330
1E4C
330
1E4E
330
1E4F
330
1E50
330
1E51
330
1E52
330
1E53
330
1E54
330
1E55
330
1E56
330
1E57
330
1E58
330
1E59
330
1E5A
330
1E5B
330
1E5C
330
1E5D
330
1E5E
330
1E5F
330
1E60
330
1E61
330
1E62
330
1E63
330
1E64
330
1E65
330
1E66
330
1E67
330
1E68
330
1E69
330
1E6A
330
1E6B
330
1E6C
330
1E6D
330
1E6E
330
1E6F
330
1E70
330
1E71
330
1E72
330
1E73
330
1E74
330
1E75
330
1E76
330
1E77
330
1E78
330
1E79
330
1E7A
330
1E7B
330
1E7C
330
1E7D
330
1E7E
330
1E7F
330
1E80
330
1E81
330
1E82
330
1E83
330
1E84
330
1E85
330
1E86
330
1E87
330
1E88
330
1E89
330
1E8A
330
1E8B
330
1E8C
330
1E8D
330
1E8E
330
1E8F
330
1E90
330
1E91
330
1E92
330
1E93
330
1E94
330
1E95
330
1E96
330
1E97
330
1E98
330
1E99
330
1E9A
330
1E9B
330
1E9C
330
1E9D
330
1E9E
330
1E9F
330
1EA0
330
1EA1
330
1EA2
330
1EA3
330
1EA4
330
1EA5
330
1EA6
330
1EA7
330
1EA8
330
1EA9
330
1EAA
330
1EAB
330
1EAC
330
1EAD
330
1EAE
330
1EAF
330
1EB0
330
1EB1
330
1EB2
330
1EB3
330
1EB4
330
1EB5
330
1EB6
330
1EB7
330
1EB8
330
1EB9
330
1EBA
330
1EBB
330
1EBC
330
1EBD
330
1EBE
330
1EBF
330
1EC0
330
1EC1
330
1EC2
330
1EC3
330
1EC4
330
1EC5
330
1EC6
330
1EC7
330
1EC8
330
1EC9
330
1ECA
330
1ECB
330
1ECC
330
1ECD
330
1ECE
330
1ECF
330
1ED0
330
1ED1
330
1ED2
330
1ED3
330
1ED4
330
1ED5
330
1ED6
330
1ED7
330
1ED8
330
1ED9
330
1EDA
330
1EDB
330
1EDC
330
1EDD
330
1EDE
330
1EDF
330
1EE0
330
1EE1
330
1EE2
330
1EE3
330
1EE4
330
1EE5
330
1EE6
330
1EE7
330
1EE8
330
1EE9
330
1EEA
330
1EEB
330
1EEC
330
1EED
330
1EEE
330
1EEF
330
1EF0
330
1EF1
330
1EF2
330
1EF3
330
1EF4
330
1EF5
330
1EF6
330
1EF7
330
1EF8
330
1EF9
330
1EFA
330
1EFB
330
1EFC
330
1EFD
330
1EFE
330
1EFF
330
1F00
330
1F01
330
1F02
330
1F03
330
1F04
330
1F05
330
1F06
330
1F07
330
1F08
330
1F09
330
1F0A
330
1F0B
330
1F0C
330
1F0D
330
1F0E
330
1F0F
330
1F10
330
1F11
330
1F12
330
1F13
330
1F14
330
1F15
330
1F16
330
1F17
330
1F18
330
1F19
330
1F1A
330
1F1B
330
1F1C
330
1F1D
330
1F1E
330
1F1F
330
1F20
330
1F21
330
1F22
330
1F23
330
1F24
330
1F25
330
1F26
330
1F27
330
1F28
330
1F29
330
1F2A
330
1F2B
330
1F2C
330
1F2D
330
1F2E
330
1F2F
330
1F30
330
1F31
330
1F32
330
1F33
330
1F34
330
1F35
330
1F36
330
1F37
330
1F38
330
1F39
330
1F3A
330
1F3B
330
1F3C
330
1F3D
330
1F3E
330
1F3F
330
1F40
330
1F41
330
1F42
330
1F43
330
1F44
330
1F45
330
1F46
330
1F47
330
1F48
330
1F49
330
1F4A
330
1F4B
330
1F4C
330
1F4D
330
1F4E
330
1F4F
330
1F50
330
1F51
330
1F52
330
1F53
330
1F54
330
1F55
330
1F56
330
1F57
330
1F58
330
1F59
330
1F5A
330
1F5B
330
1F5C
330
1F5D
330
1F5E
330
1F5F
330
1F60
330
1F61
330
1F62
330
1F63
330
1F64
330
1F65
330
1F66
330
1F67
330
1F68
330
1F69
330
1F6A
330
1F6B
330
1F6C
330
1F6D
330
1F6E
330
1F6F
330
1F70
330
1F71
330
1F72
330
1F73
330
1F74
330
1F75
330
1F76
330
1F77
330
1F78
330
1F79
330
1F7A
330
1F7B
330
1F7C
330
1F7D
330
1F7E
330
1F7F
330
1F80
330
1F81
330
1F82
330
1F83
330
1F84
330
1F85
330
1F86
330
1F87
330
1F88
330
1F89
330
1F8A
330
1F8B
330
1F8C
330
1F8D
330
1F8E
330
1F8F
330
1F90
330
1F91
330
1F92
330
1F93
  0
IDBUFFER
  5
1658
330
0
100
AcDbIdBuffer
330
1FD3
330
1FD6
  0
IDBUFFER
  5
1659
330
0
100
AcDbIdBuffer
330
1D56
330
1D57
330
1D58
330
1D59
330
1D5A
330
1D5B
330
1D74
330
1D75
330
1D76
330
1D77
330
1D78
330
1D79
330
1D7A
330
1D7B
330
1D7C
330
1D7D
330
1D7E
330
1D7F
330
1D80
330
1D81
330
1D82
330
1D83
330
1D84
330
1D85
330
1D86
330
1D87
330
1D88
330
1D89
330
1D8A
330
1D8B
330
1F96
330
1F97
330
1F98
330
1F99
330
1F9A
330
1F9B
330
1F9C
330
1F9D
330
1F9E
330
1F9F
330
1FA0
330
1FA1
330
1FA2
330
1FA3
330
1FA4
330
1FA5
330
1FA6
330
1FA7
330
1FA8
330
1FA9
330
1FAA
330
1FAB
330
1FAC
330
1FAD
330
1FAE
330
1FAF
330
1FB0
330
1FB1
330
1FB2
330
1FB3
330
1FB4
330
1FB5
330
1FB6
330
1FB7
330
1FB8
330
1FB9
330
1FBA
330
1FBB
330
1FBC
330
1FBD
330
1FBE
330
1FBF
330
1FC0
330
1FC1
330
1FC2
330
1FC3
330
1FC4
330
1FC5
330
1FC6
330
1FC7
330
1FC8
330
1FC9
330
1FCA
330
1FCB
330
2084
330
2085
  0
IDBUFFER
  5
165A
330
0
100
AcDbIdBuffer
330
217A
330
1FD4
330
1FD5
  0
IDBUFFER
  5
165B
330
0
100
AcDbIdBuffer
330
B60
  0
XRECORD
  5
2181
102
{ACAD_REACTORS
330
2180
102
}
330
2180
100
AcDbXrecord
280
     1
102
SHADEPLOT
 70
     0
102
SHADEPLOTRESLEVEL
 70
     2
102
SHADEPLOTCUSTOMDPI
 70
   300
  0
XRECORD
  5
2182
102
{ACAD_REACTORS
330
1C
102
}
330
1C
100
AcDbXrecord
280
     1
102
SHADEPLOT
 70
     0
102
SHADEPLOTRESLEVEL
 70
     2
102
SHADEPLOTCUSTOMDPI
 70
   300
  0
XRECORD
  5
1D
102
{ACAD_REACTORS
330
1C
102
}
330
1C
100
AcDbXrecord
280
     1
310
28000000B4000000870000000100080000000000EC5E0000000000000000000000010000000000000000000000000000FFFFFF000000000000000000000000000000000000000000000000000000000000000000330000006600000099000000CC000000FF00000000330000333300006633000099330000CC330000FF3300
310
0000660000336600006666000099660000CC660000FF66000000990000339900006699000099990000CC990000FF99000000CC000033CC000066CC000099CC0000CCCC0000FFCC000000FF000033FF000066FF000099FF0000CCFF0000FFFF000000003300330033006600330099003300CC003300FF003300003333003333
310
33006633330099333300CC333300FF33330000663300336633006666330099663300CC663300FF66330000993300339933006699330099993300CC993300FF99330000CC330033CC330066CC330099CC3300CCCC3300FFCC330000FF330033FF330066FF330099FF3300CCFF3300FFFF330000006600330066006600660099
310
006600CC006600FF00660000336600333366006633660099336600CC336600FF33660000666600336666006666660099666600CC666600FF66660000996600339966006699660099996600CC996600FF99660000CC660033CC660066CC660099CC6600CCCC6600FFCC660000FF660033FF660066FF660099FF6600CCFF6600
310
FFFF660000009900330099006600990099009900CC009900FF00990000339900333399006633990099339900CC339900FF33990000669900336699006666990099669900CC669900FF66990000999900339999006699990099999900CC999900FF99990000CC990033CC990066CC990099CC9900CCCC9900FFCC990000FF99
310
0033FF990066FF990099FF9900CCFF9900FFFF99000000CC003300CC006600CC009900CC00CC00CC00FF00CC000033CC003333CC006633CC009933CC00CC33CC00FF33CC000066CC003366CC006666CC009966CC00CC66CC00FF66CC000099CC003399CC006699CC009999CC00CC99CC00FF99CC0000CCCC0033CCCC0066CC
310
CC0099CCCC00CCCCCC00FFCCCC0000FFCC0033FFCC0066FFCC0099FFCC00CCFFCC00FFFFCC000000FF003300FF006600FF009900FF00CC00FF00FF00FF000033FF003333FF006633FF009933FF00CC33FF00FF33FF000066FF003366FF006666FF009966FF00CC66FF00FF66FF000099FF003399FF006699FF009999FF00CC
310
99FF00FF99FF0000CCFF0033CCFF0066CCFF0099CCFF00CCCCFF00FFCCFF0000FFFF0033FFFF0066FFFF0099FFFF00CCFFFF00FFFFFF00000000000D0D0D001A1A1A00282828003535350043434300505050005D5D5D006B6B6B00787878008686860093939300A1A1A100AEAEAE00BBBBBB00C9C9C900D6D6D600E4E4E400
310
F1F1F100FFFFFF0000000000000000000000000000000000000000000000000000000000000000000000000000000000E2E2E2E2E2E2E2E2E2E2E2E2E2E2E2E2E2E2E2E2E2E2E2E2E2E2E2E2E2E2E2E2E2E2E2E2E2E2E2E2E2E2E2E2E2E2E2E2E2E2E2E2E2E2E2E2E2E2E2E2E2E2E2E2E2E2E2E2E2E2E2E2E2E2E2E2E2E2E2
310
E2E2E2E2E2E2E2E2E2E2E2E2E2E2E2E2E2E2E2E2E2E2E2E2E2E2E2E2E2E2E2E2E2E2E2E2E2E2E2E2E2E2E2E2E2E2E2E2E2E2E2E2E2E2E2E2E2E2E2E2E2E2E2E2E2E2E2E2E2E2E2E2E2E2E2E2E2E2E2E2E2E2E2E2E2E2E2E2E2E2E2E2E2E2E2E2E2E2E2E2E2E2E2E2E2E2E2E2E2E2E2E2E2E2E2E2E2E2E2E2E2E2E2E2E2E2E2
310
E2E2E2E2E2E2E2E2E2E2E2E2E2E2E2E2E2E2E2E2E2E2E2E2E2E2E2E2E2E2E2E2E2E2E2E2E2E2E2E2E2E2E2E2E2E2E2E2E2E2E2E2E2E2E2E2E2E2E2E2E2E2E2E2E2E2E2E2E2E2E2E2E2E2E2E2E2E2E2E2E2E2E2E2E2E2E2E2E2E2E2E2E2E2E2E2E2E2E2E2E2E2E2E2E2E2E2E2E2E2E2E2E2E2E2E2E2E2E2E2E2E2E2E2E2E2E2
310
E2E2E2E2E2E2E2E2E2E2E2E2E2E2E2E2E2E2E2E2E2E2E2E2E2E2E2E2E2E2E2E2E2E2E2E2E2E2E2E2E2E2E2E2E2E2E2E2E2E2E2E2E2E2E2E2E2E2E2E2E2E2E2E2E2E2E2E2E2E2E2E2E2E2E2E2E2E2E2E2E2E2E2E2E2E2E2E2E2E2E2E2E2E2E2E2E2E2E2E2E2E2E2E2E2E2E2E2E2E2E2E2E2E2E2E2E2E2E2E2E2E2E2E2E2E2E2
310
E2E2E2E2E2E2E2E2E2E2E2E2E2E2E2E2E2E2E2E2E2E2E2E2E2E2E2E2E2E2E2E2E2E2E2E2E2E2E2E2E2E2E2E2E2E2E2E2E2E2E2E2E2E2E2E2E2E2E2E2E2E2E2E2E2E2E2E2E2E2E2E2E2E2E2E2E2E2E2E2E2E2E2E2E2E2E2E2E2E2E2E2E2E2E2E2E2E2E2E2E2E2E2E2E2E2E2E2E2E2E2E2E2E2E2E2E2E2E2E2E2E2E2E2E2E2E2
310
E2E2E2E2E2E2E2E2E2E2E2E2E2E2E2E2E2E2E2E2E2E2E2E2E2E2E2E2E2E2E2E2E2E2E2E2E2E2E2E2E2E2E2E2E2E2E2E2E2E2E2E2E2E2E2E2E2E2E2E2E2E2E2E2E2E2E2E2E2E2E2E2E2E2E2E2E2E2E2E2E2E2E2E2E2E2E2E2E2E2E2E2E2E2E2E2E2E2E2E2E2E2E2E2E2E2E2E2E2E2E2E2E2E2E2E2E2E2E2E2E2E2E2E2E2E2E2
310
E2E2E2E2E2E2E2E2E2E2E2E2E2E2E2E2E2E2E2E2E2E2E2E2E2E2E2E2E2E2E2E2E2E2E2E2E2E2E2E2E2E2E2E2E2E2E2E2E2E2E2E2E2E2E2E2E2E2E2E2E2E2E2E2E2E2E2E2E2E2E2E2E2E2E2E2E2E2E2E2E2E2E2E2E2E2E2E2E2E2E2E2E2E2E2E2E2E2E2E2E2E2E2E2E2E2E2E2E2E2E2E2E2E2E2E2E2E2E2E2E2E2E2E2E2E2E2
310
E2E2E2E2E2E2E2E2E2E2E2E2E2E2E2E2E2E2E2E2E2E2E2E2E2E2E2E2E2E2E2E2E2E2E2E2E2E2E2E2E2E2E2E2E2E2E2E2E2E2E2E2E2E2E2E2E2E2E2E2E2E2E2E2E2E2E2E2E2E2E2E2E2E2E2E2E2E2E2E2E2E2E2E2E2E2E2E2E2E2E2E2E2E2E2E2E2E2E2E2E2E2E2E2E2E2E2E2E2E2E2E2E2E2E2E2E2E2E2E2E2E2E2E2E2E2E2
310
E2E2E2E2E2E2E2E2E2E2E2E2E2E2E2E2E2E2E2E2E2E2E2E2E2E2E2E2E2E2E2E2E2E2E2E2E2E2E2E2E2E2E2E2E2E2E2E2E2E2E2E2E2E2E2E2E2E2E2E2E2E2E2E2E2E2E2E2E2E2E2E2E2E2E2E2E2E2E2E2E2E2E2E2E2E2E2E2E2E2E2E2E2E2E2E2E2E2E2E2E2E2E2E2E2E2E2E2E2E2E2E2E2E2E2E2E2E2E2E2E2E2E2E2E2E2E2
310
E2E2E2E2E2E2E2E2E2E2E2E2E2E2E2E2E2E2E2E2E2E2E2E2E2E2E2E2E2E2E2E2E2E2E2E2E2E2E2E2E2E2E2E2E2E2E2E2E2E2E2E2E2E2E2E2E2E2E2E2E2E2E2E2E2E2E2E2E2E2E2E2E2E2E2E2E2E2E2E2E2E2E2E2E2E2E2E2E2E2E2E2E2E2E2E2E2E2E2E2E2E2E2E2E2E2E2E2E2E2E2E2E2E2E2E2E2E2E2E2E2E2E2E2E2E2E2
310
E2E2E2E2E2E2E2E2E2E2E2E2E2E2E2E2E2E2E2E2E2E2E2E2E2E2E2E2E2E2E2E2E2E2E2E2E2E2E2E2E2E2E2E2E2E2E2E2E2E2E2E2E2E2E2E2E2E2E2E2E2E2E2E2E2E2E2E2E2E2E2E2E2E2E2E2E2E2E2E2E2E2E2E2E2E2E2E2E2E2E2E2E2E2E2E2E2E2E2E2E2E2E2E2E2E2E2E2E2E2E2E2E2E2E2E2E2E2E2E2E2E2E2E2E2E2E2
310
E2E2E2E2E2E2E2E2E2E2E2E2E2E2E2E2E2E2E2E2E2E2E2E2E2E2E2E2E2E2E2E2E2E2E2E2E2E2E2E2E2E2E2E2E2E2E2E2E2E2E2E2E2E2E2E2E2E2E2E2E2E2E2E2E2E2E2E2E2E2E2E2E2E2E2E2E2E2E2E2E2E2E2E2E2E2E2E2E2E2E2E2E2E2E2E2E2E2E2E2E2E2E2E2E2E2E2E2E2E2E2E2E2E2E2E2E2E2E2E2E2E2E2E2E2E2E2
310
E2E2E2E2E2E2E2E2E2E2E2E2E2E2E2E2E2E2E2E2E2E2E2E2E2E2E2E2E2E2E2E2E2E2E2E2E2E2E2E2E2E2E2E2E2E2E2E2E2E2E2E2E2E2E2E2E2E2E2E2E2E2E2E2E2E2E2E2E2E2E2E2E2E2E2E2E2E2E2E2E2E2E2E2E2E2E2E2E2E2E2E2E2E2E2E2E2E2E2E2E2E2E2E2E2E2E2E2E2E2E2E2E2E2E2E2E2E2E2E2E2E2E2E2E2E2E2
310
E2E2E2E2E2E2E2E2E2E2E2E2E2E2E2E2E2E2E2E2E2E2E2E2E2E2E2E2E2E2E2E2E2E2E2E2E2E2E2E2E2E2E2E2E2E2E2E2E2E2E2E2E2E2E2E2E2E2E2E2E2E2E2E2E2E2E2E2E2E2E2E2E2E2E2E2E2E2E2E2E2E2E2E2E2E2E2E2E2E2E2E2E2E2E2E2E2E2E2E2E2E2E2E2E2E2E2E2E2E2E2E2E2E2E2E2E2E2E2E2E2E2E2E2E2E2E2
310
E2E2E2E2E2E2E2E2E2E2E2E2E2E2E2E2E2E2E2E2E2E2E2E2E2E2E2E2E2E2E2E2E2E2E2E2E2E2E2E2E2E2E2E2E2E2E2E2E2E2E2E2E2E2E2E2E2E2E2E2E2E2E2E2E2E2E2E2E2E2E2E2E2E2E2E2E2E2E2E2E2E2E2E2E2E2E2E2E2E2E2E2E2E2E2E2E2E2E2E2E2E2E2E2E2E2E2E2E2E2E2E2E2E2E2E2E2E2E2E2E2E2E2E2E2E2E2
310
E2E2E2E2E2E2E2E2E2E2E2E2E2E2E2E2E2E2E2E2E2E2E2E2E2E2E2E2E2E2E2E2E2E2E2E2E2E2E2E2E2E2E2E2E2E2E2E2E2E2E2E2E2E2E2E2E2E2E2E2E2E2E2E2E2E2E2E2E2E2E2E2E2E2E2E2E2E2E2E2E2E2E2E2E2E2E2E2E2E2E2E2E2E2E2E2E2E2E2E2E2E2E2E2E2E2E2E2E2E2E2E2E2E2E2E2E2E2E2E2E2E2E2E2E2E2E2
310
E2E2E2E2E2E2E2E2E2E2E2E2E2E2E2E2E2E2E2E2E2E2E2E2E2E2E2E2E2E2E2E2E2E2E2E2E2E2E2E2E2E2E2E2E2E2E2E2E2E2E2E2E2E2E2E2E2E2E2E2E2E2E2E2E2E2E2E2E2E2E2E2E2E2E2E2E2E2E2E2E2E2E2E2E2E2E2E2E2E2E2E2E2E2E2E2E2E2E2E2E2E2E2E2E2E2E2E2E2E2E2E2E2E2E2E2E2E2E2E2E2E2E2E2E2E2E2
310
E2E2E2E2E2E2E2E2E2E2E2E2E2E2E2E2E2E2E2E2E2E2E2E2E2E2E2E2E2E2E2E2E2E2E2E2E2E2E2E2E2E2E2E2E2E2E2E2E2E2E2E2E2E2E2E2E2E2E2E2E2E2E2E2E2E2E2E2E2E2E2E2E2E2E2E2E2E2E2E2E2E2E2E2E2E2E2E2E2E2E2E2E2E2E2E2E2E2E2E2E2E2E2E2E2E2E2E2E2E2E2E2E2E2E2E2E2E2E2E2E2E2E2E2E2E2E2
310
E2E2E2E2E2E2E2E2E2E2E2E2E2E2E2E2E2E2E2E2E2E2E2E2E2E2E2E2E2E2E2E2E2E2E2E2E2E2E2E2E2E2E2E2E2E2E2E2E2E2E2E2E2E2E2E2E2E2E2E2E2E2E2E2E2E2E2E2E2E2E2E2E2E2E2E2E2E2E2E2E2E2E2E2E2E2E2E2E2E2E2E2E2E2E2E2E2E2E2E2E2E2E2E2E2E2E2E2E2E2E2E2E2E2E2E2E2E2E2E2E2E2E2E2E2E2E2
310
E2E2E2E2E2E2E2E2E2E2E2E2E2E2E2E2E2E2E2E2E2E2E2E2E2E2E2E2E2E2E2E2E2E2E2E2E2E2E2E2E2E2E2E2E2E2E2E2E2E2E2E2E2E2E2E2E2E2E2E2E2E2E2E2E2E2E2E2E2E2E2E2E2E2E2E2E2E2E2E2E2E2E2E2E2E2E2E2E2E2E2E2E2E2E2E2E2E2E2E2E2E2E2E2E2E2E2E2E2E2E2E2E2E2E2E2E2E2E2E2E2E2E2E2E2E2E2
310
E2E2E2E2E2E2E2E2E2E2E2E2E2E2E2E2E2E2E2E2E2E2E2E2E2E2E2E2E2E2E2E2E2E2E2E2E2E2E2E2E2E2E2E2E2E2E2E2E2E2E2E2E2E2E2E2E2E2E2E2E2E2E2E2E2E2E2E2E2E2E2E2E2E2E2E2E2E2E2E2E2E2E2E2E2E2E2E2E2E2E2E2E2E2E2E2E2E2E2E2E2E2E2E2E2E2E2E2E2E2E2E2E2E2E2E2E2E2E2E2E2E2E2E2E2E2E2
310
E2E2E2E2E2E2E2E2E2E2E2E2E2E2E2E2E2E2E2E2E2E2E2E2E2E2E2E2E2E2E2E2E2E2E2E2E2E2E2E2E2E2E2E2E2E2E2E2E2E2E2E2E2E2E2E2E2E2E2E2E2E2E2E2E2E2E2E2E2E2E2E2E2E2E2E2E2E2E2E2E2E2E2E2E2E2E2E2E2E2E2E2E2E2E2E2E2E2E2E2E2E2E2E2E2E2E2E2E2E2E2E2E2E2E2E2E2E2E2E2E2E2E2E2E2E2E2
310
E2E2E2E2E2E2E2E2E2E2E2E2E2E2E2E2E2E2E2E2E2E2E2E2E2E2E2E2E2E2E2E2E2E2E2E2E2E2E2E2E2E2E2E2E2E2E2E2E2E2E2E2E2E2E2E2E2E2E2E2E2E2E2E2E2E2E2E2E2E2E2E2E2E2E2E2E2E2E2E2E2E2E2E2E2E2E2E2E2E2E2E2E2E2E2E2E2E2E2E2E2E2E2E2E2E2E2E2E2E2E2E2E2E2E2E2E2E2E2E2E2E2E2E2E2E2E2
310
E2E2E2E2E2E2E2E2E2E2E2E2E2E2E2E2E2E2E2E2E2E2E2E2E2E2E2E2E2E2E2E2E2E2E2E2E2E2E2E2E2E2E2E2E2E2E2E2E2E2E2E2E2E2E2E2E2E2E2E2E2E2E2E2E2E2E2E2E2E2E2E2E2E2E2E2E2E2E2E2E2E2E2E2E2E2E2E2E2E2E2E2E2E2E2E2E2E2E2E2E2E2E2E2E2E2E2E2E2E2E2E2E2E2E2E2E2E2E2E2E2E2E2E2E2E2E2
310
E2E2E2E2E2E2E2E2E2E2E2E2E2E2E2E2E2E2E2E2E2E2E2E2E2E2E2E2E2E2E2E2E2E2E2E2E2E2E2E2E2E2E2E2E2E2E2E2E2E2E2E2E2E2E2E2E2E2E2E2E2E2E2E2E2E2E2E2E2E2E2E2E2E2E2E2E2E2E2E2E2E2E2E2E2E2E2E2E2E2E2E2E2E2E2E2E2E2E2E2E2E2E2E2E2E2E2E2E2E2E2E2E2E2E2E2E2E2E2E2E2E2E2E2E2E2E2
310
E2E2E2E2E2E2E2E2E2E2E2E2E2E2E2E2E2E2E2E2E2E2E2E2E2E2E2E2E2E2E2E2E2E2E2E2E2E2E2E2E2E2E2E2E2E2E2E2E2E2E2E2E2E2E2E2E2E2E2E2E2E2E2E2E2E2E2E2E2E2E2E2E2E2E2E2E2E2E2E2E2E2E2E2E2E2E2E2E2E2E2E2E2E2E2E2E2E2E2E2E2E2E2E2E2E2E2E2E2E2E2E2E2E2E2E2E2E2E2E2E2E2E2E2E2E2E2
310
E2E2E2E2E2E2E2E2E2E2E2E2E2E2E2E2E2E2E2E2E2E2E2E2E2E2E2E2E2E2E2E2E2E2E2E2E2E2E2E2E2E2E2E2E2E2E2E2E2E2E2E2E2E2E2E2E2E2E2E2E2E2E2E2E2E2E2E2E2E2E2E2E2E2E2E2E2E2E2E2E2E2E2E2E2E2E2E2E2E2E2E2E2E2E2E2E2E2E2E2E2E2E2E2E2E2E2E2E2E2E2E2E2E2E2E2E2E2E2E2E2E2E2E2E2E2E2
310
E2E2E2E2E2E2E2E2E2E2E2E2E2E2E2E2E2E2E2E2E2E2E2E2E2E2E2E2E2E2E2E2E2E2E2E2E2E2E2E2E2E2E2E2E2E2E2E2E2E2E2E2E2E2E2E2E2E2E2E2E2E2E2E2E2E2E2E2E2E2E2E2E2E2E2E2E2E2E2E2E2E2E2E2E2E2E2E2E2E2E2E2E2E2E2E2E2E2E2E2E2E2E2E2E2E2E2E2E2E2E2E2E2E2E2E2E2E2E2E2E2E2E2E2E2E2E2
310
E2E2E2E2E2E2E2E2E2E2E2E2E2E2E2E2E2E2E2E2E2E2E2E2E2E2E2E2E2E2E2E2E2E2E2E2E2E2E2E2E2E2E2E2E2E2E2E2E2E2E2E2E2E2E2E2E2E2E2E2E2E2E2E2E2E2E2E2E2E2E2E2E2E2E2E2E2E2E2E2E2E2E2E2E2E2E2E2E2E2E2E2E2E2E2E2E2E2E2E2E2E2E2E2E2E2E2E2E2E2E2E2E2E2E2E2E2E2E2E2E2E2E2E2E2E2E2
310
E2E2E2E2E2E2E2E2E2E2E2E2E2E2E2E2E2E2E2E2E2E2E2E2E2E2E2E2E2E2E2E2E2E2E2E2E2E2E2E2E2E2E2E2E2E2E2E2E2E2E2E2E2E2E2E2E2E2E2E2E2E2E2E2E2E2E2E2E2E2E2E2E2E2E2E2E2E2E2E2E2E2E2E2E2E2E2E2E2E2E2E2E2E2E2E2E2E2E2E2E2E2E2E2E2E2E2E2E2E2E2E2E2E2E2E2E2E2E2E2E2E2E2E2E2E2E2
310
E2E2E2E2E2E2E2E2E2E2E2E2E2E2E2E2E2E2E2E2E2E2E2E2E2E2E2E2E2E2E2E2E2E2E2E2E2E2E2E2E2E2E2E2E2E2E2E2E2E2E2E2E2E2E2E2E2E2E2E2E2E2E2E2E2E2E2E2E2E2E2E2E2E2E2E2E2E2E2E2E2E2E2E2E2E2E2E2E2E2E2E2E2E2E2E2E2E2E2E2E2E2E2E2E2E2E2E2E2E2E2E2E2E2E2E2E2E2E2E2E2E2E2E2E2E2E2
310
E2E2E2E2E2E2E2E2E2E2E2E2E2E2E2E2E2E2E2E2E2E2E2E2E2E2E2E2E2E2E2E2E2E2E2E2E2E2E2E2E2E2E2E2E2E2E2E2E2E2E2E2E2E2E2E2E2E2E2E2E2E2E2E2E2E2E2E2E2E2E2E2E2E2E2E2E2E2E2E2E2E2E2E2E2E2E2E2E2E2E2E2E2E2E2E2E2E2E2E2E2E2E2E2E2E2E2E2E2E2E2E2E2E2E2E2E2E2E2E2E2E2E2E2E2E2E2
310
E2E2E2E2E2E2E2E2E2E2E2E2E2E2E2E2E2E2E2E2E2E2E2E2E2E2E2E2E2E2E2E2E2E2E2E2E2E2E2E2E2E2E2E2E2E2E2E2E2E2E2E2E2E2E2E2E2E2E2E2E2E2E2E2E2E2E2E2E2E2E2E2E2E2E2E2E2E2E2E2E2E2E2E2E2E2E2E2E2E2E2E2E2E2E2E2E2E2E2E2E2E2E2E2E2E2E2E2E2E2E2E2E2E2E2E2E2E2E2E2E2E2E2E2E2E2E2
310
E2E2E2E2E2E2E2E2E2E2E2E2E2E2E2E2E2E2E2E2E2E2E2E2E2E2E2E2E2E2E2E2E2E2E2E2E2E2E2E2E2E2E2E2E2E2E2E2E2E2E2E2E2E2E2E2E2E2E2E2E2E2E2E2E2E2E2E2E2E2E2E2E2E2E2E2E2E2E2E2E2E2E2E2E2E2E2E2E2E2E2E2E2E2E2E2E2E2E2E2E2E2E2E2E2E2E2E2E2E2E2E2E2E2E2E2E2E2E2E2E2E2E2E2E2E2E2
310
E2E2E2E2E2E2E2E2E2E2E2E2E2E2E2E2E2E2E2E2E2E2E2E2E2E2E2E2E2E2E2E2E2E2E2E2E2E2E2E2E2E2E2E2E2E2E2E2E2E2E2E2E2E2E2E2E2E2E2E2E2E2E2E2E2E2E2E2E2E2E2E2E2E2E2E2E2E2E2E2E2E2E2E2E2E2E2E2E2E2E2E2E2E2E2E2E2E2E2E2E2E2E2E2E2E2E2E2E2E2E2E2E2E2E2E2E2E2E2E2E2E2E2E2E2E2E2
310
E2E2E2E2E2E2E2E2E2E2E2E2E2E2E2E2E2E2E2E2E2E2E2E2E2E2E2E2E2E2E2E2E2E2E2E2E2E2E2E2E2E2E2E2E2E2E2E2E2E2E2E2E2E2E2E2E2E2E2E2E2E2E2E2E2E2E2E2E2E2E2E2E2E2E2E2E2E2E2E2E2E2E2E2E2E2E2E2E2E2E2E2E2E2E2E2E2E2E2E2E2E2E2E2E2E2E2E2E2E2E2E2E2E2E2E2E2E2E2E2E2E2E2E2E2E2E2
310
E2E2E2E2E2E2E2E2E2E2E2E2E2E2E2E2E2E2E2E2E2E2E2E2E2E2E2E2E2E2E2E2E2E2E2E2E2E2E2E2E2E2E2E2E2E2E2E2E2E2E2E2E2E2E2E2E2E2E2E2E2E2E2E2E2E2E2E2E2E2E2E2E2E2E2E2E2E2E2E2E2E2E2E2E2E2E2E2E2E2E2E2E2E2E2E2E2E2E2E2E2E2E2E2E2E2E2E2E2E2E2E2E2E2E2E2E2E2E2E2E2E2E2E2E2E2E2
310
E2E2E2E2E2E2E2E2E2E2E2E2E2E2E2E2E2E2E2E2E2E2E2E2E2E2E2E2E2E2E2E2E2E2E2E2E2E2E2E2E2E2E2E2E2E2E2E2E2E2E2E2E2E2E2E2E2E2E2E2E2E2E2E2E2E2E2E2E2E2E2E2E2E2E2E2E2E2E2E2E2E2E2E2E2E2E2E2E2E2E2E2E2E2E2E2E2E2E2E2E2E2E2E2E2E2E2E2E2E2E2E2E2E2E2E2E2E2E2E2E2E2E2E2E2E2E2
310
E2E2E2E2E2E2E2E2E2E2E2E2E2E2E2E2E2E2E2E2E2E2E2E2E2E2E2E2E2E2E2E2E2E2E2E2E2E2E2E2E2E2E2E2E2E2E2E2E2E2E2E2E2E2E2E2E2E2E2E2E2E2E2E2E2E2E2E2E2E2E2E2E2E2E2E2E2E2E2E2E2E2E2E2E2E2E2E2E2E2E2E2E2E2E2E2E2E2E2E2E2E2E2E2E2E2E2E2E2E2E2E2E2E2E2E2E2E2E2E2E2E2E2E2E2E2E2
310
E2E2E2E2E2E2E2E2E2E2E2E2E2E2E2E2E2E2E2E2E2E2E2E2E2E2E2E2E2E2E2E2E2E2E2E2E2E2E2E2E2E2E2E2E2E2E2E2E2E2E2E2E2E2E2E2E2E2E2E2E2E2E2E2E2E2E2E2E2E2E2E2E2E2E2E2E2E2E2E2E2E2E2E2E2E2E2E2E2E2E2E2E2E2E2E2E2E2E2E2E2E2E2E2E2E2E2E2E2E2E2E2E2E2E2E2E2E2E2E2E2E2E2E2E2E2E2
310
E2E2E2E2E2E2E2E2E2E2E2E2E2E2E2E2E2E2E2E2E2E2E2E2E2E2E2E2E2E2E2E2E2E2E2E2E2E2E2E2E2E2E2E2E2E2E2E2E2E2E2E2E2E2E2E2E2E2E2E2E2E2E2E2E2E2E2E2E2E2E2E2E2E2E2E2E2E2E2E2E2E2E2E2E2E2E2E2E2E2E2E2E2E2E2E2E2E2E2E2E2E2E2E2E2E2E2E2E2E2E2E2E2E2E2E2E2E2E2E2E2E2E2E2E2E2E2
310
E2E2E2E2E2E2E2E2E2E2E2E2E2E2E2E2E2E2E2E2E2E2E2E2E2E2E2E2E2E2E2E2E2E2E2E2E2E2E2E2E2E2E2E2E2E2E2E2E2E2E2E2E2E2E2E2E2E2E2E2E2E2E2E2E2E2E2E2E2E2E2E2E2E2E2E2E2E2E2E2E2E2E2E2E2E2E2E2E2E2E2E2E2E2E2E2E2E2E2E2E2E2E2E2E2E2E2E2E2E2E2E2E2E2E2E2E2E2E2E2E2E2E2E2E2E2E2
310
E2E2E2E2E2E2E2E2E2E2E2E2E2E2E2E2E2E2E2E2E2E2E2E2E2E2E2E2E2E2E2E2E2E2E2E2E2E2E2E2E2E2E2E2E2E2E2E2E2E2E2E2E2E2E2E2E2E2E2E2E2E2E2E2E2E2E2E2E2E2E2E2E2E2E2E2E2E2E2E2E2E2E2E2E2E2E2E2E2E2E2E2E2E2E2E2E2E2E2E2E2E2E2E2E2E2E2E2E2E2E2E2E2E2E2E2E2E2E2E2E2E2E2E2E2E2E2
310
E2E2E2E2E2E2E2E2E2E2E2E2E2E2E2E2E2E2E2E2E2E2E2E2E2E2E2E2E2E2E2E2E2E2E2E2E2E2E2E2E2E2E2E2E2E2E2E2E2E2E2E2E2E2E2E2E2E2E2E2E2E2E2E2E2E2E2E2E2E2E2E2E2E2E2E2E2E2E2E2E2E2E2E2E2E2E2E2E2E2E2E2E2E2E2E2E2E2E2E2E2E2E2E2E2E2E2E2E2E2E2E2E2E2E2E2E2E2E2E2E2E2E2E2E2E2E2
310
E2E2E2E2E2E2E2E2E2E2E2E2E2E2E2E2E2E2E2E2E2E2E2E2E2E2E2E2E2E2E2E2E2E2E2E2E2E2E2E2E2E2E2E2E2E2E2E2E2E2E2E2E2E2E2E2E2E2E2E2E2E2E2E2E2E2E2E2E2E2E2E2E2E2E2E2E2E2E2E2E2E2E2E2E2E2E2E2E2E2E2E2E2E2E2E2E2E2E2E2E2E2E2E2E2E2E2E2E2E2E2E2E2E2E2E2E2E2E2E2E2E2E2E2E2E2E2
310
E2E2E2E2E2E2E2E2E2E2E2E2E2E2E2E2E2E2E2E2E2E2E2E2E2E2E2E2E2E2E2E2E2E2E2E2E2E2E2E2E2E2E2E2E2E2E2E2E2E2E2E2E2E2E2E2E2E2E2E2E2E2E2E2E2E2E2E2E2E2E2E2E2E2E2E2E2E2E2E2E2E2E2E2E2E2E2E2E2E2E2E2E2E2E2E2E2E2E2E2E2E2E2E2E2E2E2E2E2E2E2E2E2E2E2E2E2E2E2E2E2E2E2E2E2E2E2
310
E2E2E2E2E2E2E2E2E2E2E2E2E2E2E2E2E2E2E2E2E2E2E2E2E2E2E2E2E2E2E2E2E2E2E2E2E2E2E2E2E2E2E2E2E2E2E2E2E2E2E2E2E2E2E2E2E2E2E2E2E2E2E2E2E2E2E2E2E2E2E2E2E2E2E2E2E2E2E2E2E2E2E2E2E2E2E2E2E2E2E2E2E2E2E2E2E2E2E2E2E2E2E2E2E2E2E2E2E2E2E2E2E2E2E2E2E2E2E2E2E2E2E2E2E2E2E2
310
E2E2E2E2E2E2E2E2E2E2E2E2E2E2E2E2E2E2E2E2E2E2E2E2E2E2E2E2E2E2E2E2E2E2E2E2E2E2E2E2E2E2E2E2E2E2E2E2E2E2E2E2E2E2E2E2E2E2E2E2E2E2E2E2E2E2E2E2E2E2E2E2E2E2E2E2E2E2E2E2E2E2E2E2E2E2E2E2E2E2E2E2E2E2E2E2E2E2E2E2E2E2E2E2E2E2E2E2E2E2E2E2E2E2E2E2E2E2E2E2E2E2E2E2E2E2E2
310
E2E2E2E2E2E2E2E2E2E2E2E2E2E2E2E2E2E2E2E2E2E2E2E2E2E2E2E2E2E2E2E2E2E2E2E2E2E2E2E2E2E2E2E2E2E2E2E2E2E2E2E2E2E2E2E2E2E2E2E2E2E2E2E2E2E2E2E2E2E2E2E2E2E2E2E2E2E2E2E2E2E2E2E2E2E2E2E2E2E2E2E2E2E2E2E2E2E2E2E2E2E2E2E2E2E2E2E2E2E2E2E2E2E2E2E2E2E2E2E2E2E2E2E2E2E2E2
310
E2E2E2E2E2E2E2E2E2E2E2E2E2E2E2E2E2E2E2E2E2E2E2E2E2E2E2E2E2E2E2E2E2E2E2E2E2E2E2E2E2E2E2E2E2E2E2E2E2E2E2E2E2E2E2E2E2E2E2E2E2E2E2E2E2E2E2E2E2E2E2E2E2E2E2E2E2E2E2E2E2E2E2E2E2E2E2E2E2E2E2E2E2E2E2E2E2E2E2E2E2E2E2E2E2E2E2E2E2E2E2E2E2E2E2E2E2E2E2E2E2E2E2E2E2E2E2
310
E2E2E2E2E2E2E2E2E2E2E2E2E2E2E2E2E2E2E2E2E2E2E2E2E2E2E2E2E2E2E2E2E2E2E2E2E2E2E2E2E2E2E2E2E2E2E2E2E2E2E2E2E2E2E2E2E2E2E2E2E2E2E2E2E2E2E2E2E2E2E2E2E2E2E2E2E2E2E2E2E2E2E2E2E2E2E2E2E2E2E2E2E2E2E2E2E2E2E2E2E2E2E2E2E2E2E2E2E2E2E2E2E2E2E2E2E2E2E2E2E2E2E2E2E2E2E2
310
E2E2E2E2E2E2E2E2E2E2E2E2E2E2E2E2E2E2E2E2E2E2E2E2E2E2E2E2E2E2E2E2E2E2E2E2E2E2E2E2E2E2E2E2E2E2E2E2E2E2E2E2E2E2E2E2E2E2E2E2E2E2E2E2E2E2E2E2E2E2E2E2E2E2E2E2E2E2E2E2E2E2E2E2E2E2E2E2E2E2E2E2E2E2E2E2E2E2E2E2E2E2E2E2E2E2E2E2E2E2E2E2E2E2E2E2E2E2E2E2E2E2E2E2E2E2E2
310
E2E2E2E2E2E2E2E2E2E2E2E2E2E2E2E2E2E2E2E2E2E2E2E2E2E2E2E2E2E2E2E2E2E2E2E2E2E2E2E2E2E2E2E2E2E2E2E2E2E2E2E2E2E2E2E2E2E2E2E2E2E2E2E2E2E2E2E2E2E2E2E2E2E2E2E2E2E2E2E2E2E2E2E2E2E2E2E2E2E2E2E2E2E2E2E2E2E2E2E2E2E2E2E2E2E2E2E2E2E2E2E2E2E2E2E2E2E2E2E2E2E2E2E2E2E2E2
310
E2E2E2E2E2E2E2E2E2E2E2E2E2E2E2E2E2E2E2E2E2E2E2E2E2E2E2E2E2E2E2E2E2E2E2E2E2E2E2E2E2E2E2E2E2E2E2E2E2E2E2E2E2E2E2E2E2E2E2E2E2E2E2E2E2E2E2E2E2E2E2E2E2E2E2E2E2E2E2E2E2E2E2E2E2E2E2E2E2E2E2E2E2E2E2E2E2E2E2E2E2E2E2E2E2E2E2E2E2E2E2E2E2E2E2E2E2E2E2E2E2E2E2E2E2E2E2
310
E2E2E2E2E2E2E2E2E2E2E2E2E2E2E2E2E2E2E2E2E2E2E2E2E2E2E2E2E2E2E2E2E2E2E2E2E2E2E2E2E2E2E2E2E2E2E2E2E2E2E2E2E2E2E2E2E2E2E2E2E2E2E2E2E2E2E2E2E2E2E2E2E2E2E2E2E2E2E2E2E2E2E2E2E2E2E2E2E2E2E2E2E2E2E2E2E2E2E2E2E2E2E2E2E2E2E2E2E2E2E2E2E2E2E2E2E2E2E2E2E2E2E2E2E2E2E2
310
E2E2E2E2E2E2E2E2E2E2E2E2E2E2E2E2E2E2E2E2E2E2E2E2E2E2E2E2E2E2E2E2E2E2E2E2E2E2E2E2E2E2E2E2E2E2E2E2E2E2E2E2E2E2E2E2E2E2E2E2E2E2E2E2E2E2E2E2E2E2E2E2E2E2E2E2E2E2E2E2E2E2E2E2E2E2E2E2E2E2E2E2E2E2E2E2E2E2E2E2E2E2E2E2E2E2E2E2E2E2E2E2E2E2E2E2E2E2E2E2E2E2E2E2E2E2E2
310
E2E2E2E2E2E2E2E2E2E2E2E2E2E2E2E2E2E2E2E2E2E2E2E2E2E2E2E2E2E2E2E2E2E2E2E2E2E2E2E2E2E2E2E2E2E2E2E2E2E2E2E2E2E2E2E2E2E2E2E2E2E2E2E2E2E2E2E2E2E2E2E2E2E2E2E2E2E2E2E2E2E2E2E2E2E2E2E2E2E2E2E2E2E2E2E2E2E2E2E2E2E2E2E2E2E2E2E2E2E2E2E2E2E2E2E2E2E2E2E2E2E2E2E2E2E2E2
310
E2E2E2E2E2E2E2E2E2E2E2E2E2E2E2E2E2E2E2E2E2E2E2E2E2E2E2E2E2E2E2E2E2E2E2E2E2E2E2E2E2E2E2E2E2E2E2E2E2E2E2E2E2E2E2E2E2E2E2E2E2E2E2E2E2E2E2E2E2E2E2E2E2E2E2E2E2E2E2E2E2E2E2E2E2E2E2E2E2E2E2E2E2E2E2E2E2E2E2E2E2E2E2E2E2E2E2E2E2E2E2E2E2E2E2E2E2E2E2E2E2E2E2E2E2E2E2
310
E2E2E2E2E2E2E2E2E2E2E2E2E2E2E2E2E2E2E2E2E2E2E2E2E2E2E2E2E2E2E2E2E2E2E2E2E2E2E2E2E2E2E2E2E2E2E2E2E2E2E2E2E2E2E2E2E2E2E2E2E2E2E2E2E2E2E2E2E2E2E2E2E2E2E2E2E2E2E2E2E2E2E2E2E2E2E2E2E2E2E2E2E2E2E2E2E2E2E2E2E2E2E2E2E2E2E2E2E2E2E2E2E2E2E2E2E2E2E2E2E2E2E2E2E2E2E2
310
E2E2E2E2E2E2E2E2E2E2E2E2E2E2E2E2E2E2E2E2E2E2E2E2E2E2E2E2E2E2E2E2E2E2E2E2E2E2E2E2E2E2E2E2E2E2E2E2E2E2E2E2E2E2E2E2E2E2E2E2E2E2E2E2E2E2E2E2E2E2E2E2E2E2E2E2E2E2E2E2E2E2E2E2E2E2E2E2E2E2E2E2E2E2E2E2E2E2E2E2E2E2E2E2E2E2E2E2E2E2E2E2E2E2E2E2E2E2E2E2E2E2E2E2E2E2E2
310
E2E2E2E2E2E2E2E2E2E2E2E2E2E2E2E2E2E2E2E2E2E2E2E2E2E2E2E2E2E2E2E2E2E2E2E2E2E2E2E2E2E2E2E2E2E2E2E2E2E2E2E2E2E2E2E2E2E2E2E2E2E2E2E2E2E2E2E2E2E2E2E2E2E2E2E2E2E2E2E2E2E2E2E2E2E2E2E2E2E2E2E2E2E2E2E2E2E2E2E2E2E2E2E2E2E2E2E2E2E2E2E2E2E2E2E2E2E2E2E2E2E2E2E2E2E2E2
310
E2E2E2E2E2E2E2E2E2E2E2E2E2E2E2E2E2E2E2E2E2E2E2E2E2E2E2E2E2E2E2E2E2E2E2E2E2E2E2E2E2E2E2E2E2E2E2E2E2E2E2E2E2E2E2E2E2E2E2E2E2E2E2E2E2E2E2E2E2E2E2E2E2E2E2E2E2E2E2E2E2E2E2E2E2E2E2E2E2E2E2E2E2E2E2E2E2E2E2E2E2E2E2E2E2E2E2E2E2E2E2E2E2E2E2E2E2E2E2E2E2E2E2E2E2E2E2
310
E2E2E2E2E2E2E2E2E2E2E2E2E2E2E2E2E2E2E2E2E2E2E2E2E2E2E2E2E2E2E2E2E2E2E2E2E2E2E2E2E2E2E2E2E2E2E2E2E2E2E2E2E2E2E2E2E2E2E2E2E2E2E2E2E2E2E2E2E2E2E2E2E2E2E2E2E2E2E2E2E2E2E2E2E2E2E2E2E2E2E2E2E2E2E2E2E2E2E2E2E2E2E2E2E2E2E2E2E2E2E2E2E2E2E2E2E2E2E2E2E2E2E2E2E2E2E2
310
E2E2E2E2E2E2E2E2E2E2E2E2E2E2E2E2E2E2E2E2E2E2E2E2E2E2E2E2E2E2E2E2E2E2E2E2E2E2E2E2E2E2E2E2E2E2E2E2E2E2E2E2E2E2E2E2E2E2E2E2E2E2E2E2E2E2E2E2E2E2E2E2E2E2E2E2E2E2E2E2E2E2E2E2E2E2E2E2E2E2E2E2E2E2E2E2E2E2E2E2E2E2E2E2E2E2E2E2E2E2E2E2E2E2E2E2E2E2E2E2E2E2E2E2E2E2E2
310
E2E2E2E2E2E2E2E2E2E2E2E2E2E2E2E2E2E2E2E2E2E2E2E2E2E2E2E2E2E2E2E2E2E2E2E2E2E2E2E2E2E2E2E2E2E2E2E2E2E2E2E2E2E2E2E2E2E2E2E2E2E2E2E2E2E2E2E2E2E2E2E2E2E2E2E2E2E2E2E2E2E2E2E2E2E2E2E2E2E2E2E2E2E2E2E2E2E2E2E2E2E2E2E2E2E2E2E2E2E2E2E2E2E2E2E2E2E2E2E2E2E2E2E2E2E2E2
310
E2E2E2E2E2E2E2E2E2E2E2E2E2E2E2E2E2E2E2E2E2E2E2E2E2E2E2E2E2E2E2E2E2E2E2E2E2E2E2E2E2E2E2E2E2E2E2E2E2E2E2E2E2E2E2E2E2E2E2E2E2E2E2E2E2E2E2E2E2E2E2E2E2E2E2E2E2E2E2E2E2E2E2E2E2E2E2E2E2E2E2E2E2E2E2E2E2E2E2E2E2E2E2E2E2E2E2E2E2E2E2E2E2E2E2E2E2E2E2E2E2E2E2E2E2E2E2
310
E2E2E2E2E2E2E2E2E2E2E2E2E2E2E2E2E2E2E2E2E2E2E2E2E2E2E2E2E2E2E2E2E2E2E2E2E2E2E2E2E2E2E2E2E2E2E2E2E2E2E2E2E2E2E2E2E2E2E2E2E2E2E2E2E2E2E2E2E2E2E2E2E2E2E2E2E2E2E2E2E2E2E2E2E2E2E2E2E2E2E2E2E2E2E2E2E2E2E2E2E2E2E2E2E2E2E2E2E2E2E2E2E2E2E2E2E2E2E2E2E2E2E2E2E2E2E2
310
E2E2E2E2E2E2E2E2E2E2E2E2E2E2E2E2E2E2E2E2E2E2E2E2E2E2E2E2E2E2E2E2E2E2E2E2E2E2E2E2E2E2E2E2E2E2E2E2E2E2E2E2E2E2E2E2E2E2E2E2E2E2E2E2E2E2E2E2E2E2E2E2E2E2E2E2E2E2E2E2E2E2E2E2E2E2E2E2E2E2E2E2E2E2E2E2E2E2E2E2E2E2E2E2E2E2E2E2E2E2E2E2E2E2E2E2E2E2E2E2E2E2E2E2E2E2E2
310
E2E2E2E2E2E2E2E2E2E2E2E2E2E2E2E2E2E2E2E2E2E2E2E2E2E2E2E2E2E2E2E2E2E2E2E2E2E2E2E2E2E2E2E2E2E2E2E2E2E2E2E2E2E2E2E2E2E2E2E2E2E2E2E2E2E2E2E2E2E2E2E2E2E2E2E2E2E2E2E2E2E2E2E2E2E2E2E2E2E2E2E2E2E2E2E2E2E2E2E2E2E2E2E2E2E2E2E2E2E2E2E2E2E2E2E2E2E2E2E2E2E2E2E2E2E2E2
310
E2E2E2E2E2E2E2E2E2E2E2E2E2E2E2E2E2E2E2E2E2E2E2E2E2E2E2E2E2E2E2E2E2E2E2E2E2E2E2E2E2E2E2E2E2E2E2E2E2E2E2E2E2E2E2E2E2E2E2E2E2E2E2E2E2E2E2E2E2E2E2E2E2E2E2E2E2E2E2E2E2E2E2E2E2E2E2E2E2E2E2E2E2E2E2E2E2E2E2E2E2E2E2E2E2E2E2E2E2E2E2E2E2E2E2E2E2E2E2E2E2E2E2E2E2E2E2
310
E2E2E2E2E2E2E2E2E2E2E2E2E2E2E2E2E2E2E2E2E2E2E2E2E2E2E2E2E2E2E2E2E2E2E2E2E2E2E2E2E2E2E2E2E2E2E2E2E2E2E2E2E2E2E2E2E2E2E2E2E2E2E2E2E2E2E2E2E2E2E2E2E2E2E2E2E2E2E2E2E2E2E2E2E2E2E2E2E2E2E2E2E2E2E2E2E2E2E2E2E2E2E2E2E2E2E2E2E2E2E2E2E2E2E2E2E2E2E2E2E2E2E2E2E2E2E2
310
E2E2E2E2E2E2E2E2E2E2E2E2E2E2E2E2E2E2E2E2E2E2E2E2E2E2E2E2E2E2E2E2E2E2E2E2E2E2E2E2E2E2E2E2E2E2E2E2E2E2E2E2E2E2E2E2E2E2E2E2E2E2E2E2E2E2E2E2E2E2E2E2E2E2E2E2E2E2E2E2E2E2E2E2E2E2E2E2E2E2E2E2E2E2E2E2E2E2E2E2E2E2E2E2E2E2E2E2E2E2E2E2E2E2E2E2E2E2E2E2E2E2E2E2E2E2E2
310
E2E2E2E2E2E2E2E2E2E2E2E2E2E2E2E2E2E2E2E2E2E2E2E2E2E2E2E2E2E2E2E2E2E2E2E2E2E2E2E2E2E2E2E2E2E2E2E2E2E2E2E2E2E2E2E2E2E2E2E2E2E2E2E2E2E2E2E2E2E2E2E2E2E2E2E2E2E2E2E2E2E2E2E2E2E2E2E2E2E2E2E2E2E2E2E2E2E2E2E2E2E2E2E2E2E2E2E2E2E2E2E2E2E2E2E2E2E2E2E2E2E2E2E2E2E2E2
310
E2E2E2E2E2E2E2E2E2E2E2E2E2E2E2E2E2E2E2E2E2E2E2E2E2E2E2E2E2E2E2E2E2E2E2E2E2E2E2E2E2E2E2E2E2E2E2E2E2E2E2E2E2E2E2E2E2E2E2E2E2E2E2E2E2E2E2E2E2E2E2E2E2E2E2E2E2E2E2E2E2E2E2E2E2E2E2E2E2E2E2E2E2E2E2E2E2E2E2E2E2E2E2E2E2E2E2E2E2E2E2E2E2E2E2E2E2E2E2E2E2E2E2E2E2E2E2
310
E2E2E2E2E2E2E2E2E2E2E2E2E2E2E2E2E2E2E2E2E2E2E2E2E2E2E2E2E2E2E2E2E2E2E2E2E2E2E2E2E2E2E2E2E2E2E2E2E2E2E2E2E2E2E2E2E2E2E2E2E2E2E2E2E2E2E2E2E2E2E2E2E2E2E2E2E2E2E2E2E2E2E2E2E2E2E2E2E2E2E2E2E2E2E2E2E2E2E2E2E2E2E2E2E2E2E2E2E2E2E2E2E2E2E2E2E2E2E2E2E2E2E2E2E2E2E2
310
E2E2E2E2E2E2E2E2E2E2E2E2E2E2E2E2E2E2E2E2E2E2E2E2E2E2E2E2E2E2E2E2E2E2E2E2E2E2E2E2E2E2E2E2E2E2E2E2E2E2E2E2E2E2E2E2E2E2E2E2E2E2E2E2E2E2E2E2E2E2E2E2E2E2E2E2E2E2E2E2E2E2E2E2E2E2E2E2E2E2E2E2E2E2E2E2E2E2E2E2E2E2E2E2E2E2E2E2E2E2E2E2E2E2E2E2E2E2E2E2E2E2E2E2E2E2E2
310
E2E2E2E2E2E2E2E2E2E2E2E2E2E2E2E2E2E2E2E2E2E2E2E2E2E2E2E2E2E2E2E2E2E2E2E2E2E2E2E2E2E2E2E2E2E2E2E2E2E2E2E2E2E2E2E2E2E2E2E2E2E2E2E2E2E2E2E2E2E2E2E2E2E2E2E2E2E2E2E2E2E2E2E2E2E2E2E2E2E2E2E2E2E2E2E2E2E2E2E2E2E2E2E2E2E2E2E2E2E2E2E2E2E2E2E2E2E2E2E2E2E2E2E2E2E2E2
310
E2E2E2E2E2E2E2E2E2E2E2E2E2E2E2E2E2E2E2E2E2E2E2E2E2E2E2E2E2E2E2E2E2E2E2E2E2E2E2E2E2E2E2E2E2E2E2E2E2E2E2E2E2E2E2E2E2E2E2E2E2E2E2E2E2E2E2E2E2E2E2E2E2E2E2E2E2E2E2E2E2E2E2E2E2E2E2E2E2E2E2E2E2E2E2E2E2E2E2E2E2E2E2E2E2E2E2E2E2E2E2E2E2E2E2E2E2E2E2E2E2E2E2E2E2E2E2
310
E2E2E2E2E2E2E2E2E2E2E2E2E2E2E2E2E2E2E2E2E2E2E2E2E2E2E2E2E2E2E2E2E2E2E2E2E2E2E2E2E2E2E2E2E2E2E2E2E2E2E2E2E2E2E2E2E2E2E2E2E2E2E2E2E2E2E2E2E2E2E2E2E2E2E2E2E2E2E2E2E2E2E2E2E2E2E2E2E2E2E2E2E2E2E2E2E2E2E2E2E2E2E2E2E2E2E2E2E2E2E2E2E2E2E2E2E2E2E2E2E2E2E2E2E2E2E2
310
E2E2E2E2E2E2E2E2E2E2E2E2E2E2E2E2E2E2E2E2E2E2E2E2E2E2E2E2E2E2E2E2E2E2E2E2E2E2E2E2E2E2E2E2E2E2E2E2E2E2E2E2E2E2E2E2E2E2E2E2E2E2E2E2E2E2E2E2E2E2E2E2E2E2E2E2E2E2E2E2E2E2E2E2E2E2E2E2E2E2E2E2E2E2E2E2E2E2E2E2E2E2E2E2E2E2E2E2E2E2E2E2E2E2E2E2E2E2E2E2E2E2E2E2E2E2E2
310
E2E2E2E2E2E2E2E2E2E2E2E2E2E2E2E2E2E2E2E2E2E2E2E2E2E2E2E2E2E2E2E2E2E2E2E2E2E2E2E2E2E2E2E2E2E2E2E2E2E2E2E2E2E2E2E2E2E2E2E2E2E2E2E2E2E2E2E2E2E2E2E2E2E2E2E2E2E2E2E2E2E2E2E2E2E2E2E2E2E2E2E2E2E2E2E2E2E2E2E2E2E2E2E2E2E2E2E2E2E2E2E2E2E2E2E2E2E2E2E2E2E2E2E2E2E2E2
310
E2E2E2E2E2E2E2E2E2E2E2E2E2E2E2E2E2E2E2E2E2E2E2E2E2E2E2E2E2E2E2E2E2E2E2E2E2E2E2E2E2E2E2E2E2E2E2E2E2E2E2E2E2E2E2E2E2E2E2E2E2E2E2E2E2E2E2E2E2E2E2E2E2E2E2E2E2E2E2E2E2E2E2E2E2E2E2E2E2E2E2E2E2E2E2E2E2E2E2E2E2E2E2E2E2E2E2E2E2E2E2E2E2E2E2E2E2E2E2E2E2E2E2E2E2E2E2
310
E2E2E2E2E2E2E2E2E2E2E2E2E2E2E2E2E2E2E2E2E2E2E2E2E2E2E2E2E2E2E2E2E2E2E2E2E2E2E2E2E2E2E2E2E2E2E2E2E2E2E2E2E2E2E2E2E2E2E2E2E2E2E2E2E2E2E2E2E2E2E2E2E2E2E2E2E2E2E2E2E2E2E2E2E2E2E2E2E2E2E2E2E2E2E2E2E2E2E2E2E2E2E2E2E2E2E2E2E2E2E2E2E2E2E2E2E2E2E2E2E2E2E2E2E2E2E2
310
E2E2E2E2E2E2E2E2E2E2E2E2E2E2E2E2E2E2E2E2E2E2E2E2E2E2E2E2E2E2E2E2E2E2E2E2E2E2E2E2E2E2E2E2E2E2E2E2E2E2E2E2E2E2E2E2E2E2E2E2E2E2E2E2E2E2E2E2E2E2E2E2E2E2E2E2E2E2E2E2E2E2E2E2E2E2E2E2E2E2E2E2E2E2E2E2E2E2E2E2E2E2E2E2E2E2E2E2E2E2E2E2E2E2E2E2E2E2E2E2E2E2E2E2E2E2E2
310
E2E2E2E2E2E2E2E2E2E2E2E2E2E2E2E2E2E2E2E2E2E2E2E2E2E2E2E2E2E2E2E2E2E2E2E2E2E2E2E2E2E2E2E2E2E2E2E2E2E2E2E2E2E2E2E2E2E2E2E2E2E2E2E2E2E2E2E2E2E2E2E2E2E2E2E2E2E2E2E2E2E2E2E2E2E2E2E2E2E2E2E2E2E2E2E2E2E2E2E2E2E2E2E2E2E2E2E2E2E2E2E2E2E2E2E2E2E2E2E2E2E2E2E2E2E2E2
310
E2E2E2E2E2E2E2E2E2E2E2E2E2E2E2E2E2E2E2E2E2E2E2E2E2E2E2E2E2E2E2E2E2E2E2E2E2E2E2E2E2E2E2E2E2E2E2E2E2E2E2E2E2E2E2E2E2E2E2E2E2E2E2E2E2E2E2E2E2E2E2E2E2E2E2E2E2E2E2E2E2E2E2E2E2E2E2E2E2E2E2E2E2E2E2E2E2E2E2E2E2E2E2E2E2E2E2E2E2E2E2E2E2E2E2E2E2E2E2E2E2E2E2E2E2E2E2
310
E2E2E2E2E2E2E2E2E2E2E2E2E2E2E2E2E2E2E2E2E2E2E2E2E2E2E2E2E2E2E2E2E2E2E2E2E2E2E2E2E2E2E2E2E2E2E2E2E2E2E2E2E2E2E2E2E2E2E2E2E2E2E2E2E2E2E2E2E2E2E2E2E2E2E2E2E2E2E2E2E2E2E2E2E2E2E2E2E2E2E2E2E2E2E2E2E2E2E2E2E2E2E2E2E2E2E2E2E2E2E2E2E2E2E2E2E2E2E2E2E2E2E2E2E2E2E2
310
E2E2E2E2E2E2E2E2E2E2E2E2E2E2E2E2E2E2E2E2E2E2E2E2E2E2E2E2E2E2E2E2E2E2E2E2E2E2E2E2E2E2E2E2E2E2E2E2E2E2E2E2E2E2E2E2E2E2E2E2E2E2E2E2E2E2E2E2E2E2E2E2E2E2E2E2E2E2E2E2E2E2E2E2E2E2E2E2E2E2E2E2E2E2E2E2E2E2E2E2E2E2E2E2E2E2E2E2E2E2E2E2E2E2E2E2E2E2E2E2E2E2E2E2E2E2E2
310
E2E2E2E2E2E2E2E2E2E2E2E2E2E2E2E2E2E2E2E2E2E2E2E2E2E2E2E2E2E2E2E2E2E2E2E2E2E2E2E2E2E2E2E2E2E2E2E2E2E2E2E2E2E2E2E2E2E2E2E2E2E2E2E2E2E2E2E2E2E2E2E2E2E2E2E2E2E2E2E2E2E2E2E2E2E2E2E2E2E2E2E2E2E2E2E2E2E2E2E2E2E2E2E2E2E2E2E2E2E2E2E2E2E2E2E2E2E2E2E2E2E2E2E2E2E2E2
310
E2E2E2E2E2E2E2E2E2E2E2E2E2E2E2E2E2E2E2E2E2E2E2E2E2E2E2E2E2E2E2E2E2E2E2E2E2E2E2E2E2E2E2E2E2E2E2E2E2E2E2E2E2E2E2E2E2E2E2E2E2E2E2E2E2E2E2E2E2E2E2E2E2E2E2E2E2E2E2E2E2E2E2E2E2E2E2E2E2E2E2E2E2E2E2E2E2E2E2E2E2E2E2E2E2E2E2E2E2E2E2E2E2E2E2E2E2E2E2E2E2E2E2E2E2E2E2
310
E2E2E2E2E2E2E2E2E2E2E2E2E2E2E2E2E2E2E2E2E2E2E2E2E2E2E2E2E2E2E2E2E2E2E2E2E2E2E2E2E2E2E2E2E2E2E2E2E2E2E2E2E2E2E2E2E2E2E2E2E2E2E2E2E2E2E2E2E2E2E2E2E2E2E2E2E2E2E2E2E2E2E2E2E2E2E2E2E2E2E2E2E2E2E2E2E2E2E2E2E2E2E2E2E2E2E2E2E2E2E2E2E2E2E2E2E2E2E2E2E2E2E2E2E2E2E2
310
E2E2E2E2E2E2E2E2E2E2E2E2E2E2E2E2E2E2E2E2E2E2E2E2E2E2E2E2E2E2E2E2E2E2E2E2E2E2E2E2E2E2E2E2E2E2E2E2E2E2E2E2E2E2E2E2E2E2E2E2E2E2E2E2E2E2E2E2E2E2E2E2E2E2E2E2E2E2E2E2E2E2E2E2E2E2E2E2E2E2E2E2E2E2E2E2E2E2E2E2E2E2E2E2E2E2E2E2E2E2E2E2E2E2E2E2E2E2E2E2E2E2E2E2E2E2E2
310
E2E2E2E2E2E2E2E2E2E2E2E2E2E2E2E2E2E2E2E2E2E2E2E2E2E2E2E2E2E2E2E2E2E2E2E2E2E2E2E2E2E2E2E2E2E2E2E2E2E2E2E2E2E2E2E2E2E2E2E2E2E2E2E2E2E2E2E2E2E2E2E2E2E2E2E2E2E2E2E2E2E2E2E2E2E2E2E2E2E2E2E2E2E2E2E2E2E2E2E2E2E2E2E2E2E2E2E2E2E2E2E2E2E2E2E2E2E2E2E2E2E2E2E2E2E2E2
310
E2E2E2E2E2E2E2E2E2E2E2E2E2E2E2E2E2E2E2E2E2E2E2E2E2E2E2E2E2E2E2E2E2E2E2E2E2E2E2E2E2E2E2E2E2E2E2E2E2E2E2E2E2E2E2E2E2E2E2E2E2E2E2E2E2E2E2E2E2E2E2E2E2E2E2E2E2E2E2E2E2E2E2E2E2E2E2E2E2E2E2E2E2E2E2E2E2E2E2E2E2E2E2E2E2E2E2E2E2E2E2E2E2E2E2E2E2E2E2E2E2E2E2E2E2E2E2
310
E2E2E2E2E2E2E2E2E2E2E2E2E2E2E2E2E2E2E2E2E2E2E2E2E2E2E2E2E2E2E2E2E2E2E2E2E2E2E2E2E2E2E2E2E2E2E2E2E2E2E2E2E2E2E2E2E2E2E2E2E2E2E2E2E2E2E2E2E2E2E2E2E2E2E2E2E2E2E2E2E2E2E2E2E2E2E2E2E2E2E2E2E2E2E2E2E2E2E2E2E2E2E2E2E2E2E2E2E2E2E2E2E2E2E2E2E2E2E2E2E2E2E2E2E2E2E2
310
E2E2E2E2E2E2E2E2E2E2E2E2E2E2E2E2E2E2E2E2E2E2E2E2E2E2E2E2E2E2E2E2E2E2E2E2E2E2E2E2E2E2E2E2E2E2E2E2E2E2E2E2E2E2E2E2E2E2E2E2E2E2E2E2E2E2E2E2E2E2E2E2E2E2E2E2E2E2E2E2E2E2E2E2E2E2E2E2E2E2E2E2E2E2E2E2E2E2E2E2E2E2E2E2E2E2E2E2E2E2E2E2E2E2E2E2E2E2E2E2E2E2E2E2E2E2E2
310
E2E2E2E2E2E2E2E2E2E2E2E2E2E2E2E2E2E2E2E2E2E2E2E2E2E2E2E2E2E2E2E2E2E2E2E2E2E2E2E2E2E2E2E2E2E2E2E2E2E2E2E2E2E2E2E2E2E2E2E2E2E2E2E2E2E2E2E2E2E2E2E2E2E2E2E2E2E2E2E2E2E2E2E2E2E2E2E2E2E2E2E2E2E2E2E2E2E2E2E2E2E2E2E2E2E2E2E2E2E2E2E2E2E2E2E2E2E2E2E2E2E2E2E2E2E2E2
310
E2E2E2E2E2E2E2E2E2E2E2E2E2E2E2E2E2E2E2E2E2E2E2E2E2E2E2E2E2E2E2E2E2E2E2E2E2E2E2E2E2E2E2E2E2E2E2E2E2E2E2E2E2E2E2E2E2E2E2E2E2E2E2E2E2E2E2E2E2E2E2E2E2E2E2E2E2E2E2E2E2E2E2E2E2E2E2E2E2E2E2E2E2E2E2E2E2E2E2E2E2E2E2E2E2E2E2E2E2E2E2E2E2E2E2E2E2E2E2E2E2E2E2E2E2E2E2
310
E2E2E2E2E2E2E2E2E2E2E2E2E2E2E2E2E2E2E2E2E2E2E2E2E2E2E2E2E2E2E2E2E2E2E2E2E2E2E2E2E2E2E2E2E2E2E2E2E2E2E2E2E2E2E2E2E2E2E2E2E2E2E2E2E2E2E2E2E2E2E2E2E2E2E2E2E2E2E2E2E2E2E2E2E2E2E2E2E2E2E2E2E2E2E2E2E2E2E2E2E2E2E2E2E2E2E2E2E2E2E2E2E2E2E2E2E2E2E2E2E2E2E2E2E2E2E2
310
E2E2E2E2E2E2E2E2E2E2E2E2E2E2E2E2E2E2E2E2E2E2E2E2E2E2E2E2E2E2E2E2E2E2E2E2E2E2E2E2E2E2E2E2E2E2E2E2E2E2E2E2E2E2E2E2E2E2E2E2E2E2E2E2E2E2E2E2E2E2E2E2E2E2E2E2E2E2E2E2E2E2E2E2E2E2E2E2E2E2E2E2E2E2E2E2E2E2E2E2E2E2E2E2E2E2E2E2E2E2E2E2E2E2E2E2E2E2E2E2E2E2E2E2E2E2E2
310
E2E2E2E2E2E2E2E2E2E2E2E2E2E2E2E2E2E2E2E2E2E2E2E2E2E2E2E2E2E2E2E2E2E2E2E2E2E2E2E2E2E2E2E2E2E2E2E2E2E2E2E2E2E2E2E2E2E2E2E2E2E2E2E2E2E2E2E2E2E2E2E2E2E2E2E2E2E2E2E2E2E2E2E2E2E2E2E2E2E2E2E2E2E2E2E2E2E2E2E2E2E2E2E2E2E2E2E2E2E2E2E2E2E2E2E2E2E2E2E2E2E2E2E2E2E2E2
310
E2E2E2E2E2E2E2E2E2E2E2E2E2E2E2E2E2E2E2E2E2E2E2E2E2E2E2E2E2E2E2E2E2E2E2E2E2E2E2E2E2E2E2E2E2E2E2E2E2E2E2E2E2E2E2E2E2E2E2E2E2E2E2E2E2E2E2E2E2E2E2E2E2E2E2E2E2E2E2E2E2E2E2E2E2E2E2E2E2E2E2E2E2E2E2E2E2E2E2E2E2E2E2E2E2E2E2E2E2E2E2E2E2E2E2E2E2E2E2E2E2E2E2E2E2E2E2
310
E2E2E2E2E2E2E2E2E2E2E2E2E2E2E2E2E2E2E2E2E2E2E2E2E2E2E2E2E2E2E2E2E2E2E2E2E2E2E2E2E2E2E2E2E2E2E2E2E2E2E2E2E2E2E2E2E2E2E2E2E2E2E2E2E2E2E2E2E2E2E2E2E2E2E2E2E2E2E2E2E2E2E2E2E2E2E2E2E2E2E2E2E2E2E2E2E2E2E2E2E2E2E2E2E2E2E2E2E2E2E2E2E2E2E2E2E2E2E2E2E2E2E2E2E2E2E2
310
E2E2E2E2E2E2E2E2E2E2E2E2E2E2E2E2E2E2E2E2E2E2E2E2E2E2E2E2E2E2E2E2E2E2E2E2E2E2E2E2E2E2E2E2E2E2E2E2E2E2E2E2E2E2E2E2E2E2E2E2E2E2E2E2E2E2E2E2E2E2E2E2E2E2E2E2E2E2E2E2E2E2E2E2E2E2E2E2E2E2E2E2E2E2E2E2E2E2E2E2E2E2E2E2E2E2E2E2E2E2E2E2E2E2E2E2E2E2E2E2E2E2E2E2E2E2E2
310
E2E2E2E2E2E2E2E2E2E2E2E2E2E2E2E2E2E2E2E2E2E2E2E2E2E2E2E2E2E2E2E2E2E2E2E2E2E2E2E2E2E2E2E2E2E2E2E2E2E2E2E2E2E2E2E2E2E2E2E2E2E2E2E2E2E2E2E2E2E2E2E2E2E2E2E2E2E2E2E2E2E2E2E2E2E2E2E2E2E2E2E2E2E2E2E2E2E2E2E2E2E2E2E2E2E2E2E2E2E2E2E2E2E2E2E2E2E2E2E2E2E2E2E2E2E2E2
310
E2E2E2E2E2E2E2E2E2E2E2E2E2E2E2E2E2E2E2E2E2E2E2E2E2E2E2E2E2E2E2E2E2E2E2E2E2E2E2E2E2E2E2E2E2E2E2E2E2E2E2E2E2E2E2E2E2E2E2E2E2E2E2E2E2E2E2E2E2E2E2E2E2E2E2E2E2E2E2E2E2E2E2E2E2E2E2E2E2E2E2E2E2E2E2E2E2E2E2E2E2E2E2E2E2E2E2E2E2E2E2E2E2E2E2E2E2E2E2E2E2E2E2E2E2E2E2
310
E2E2E2E2E2E2E2E2E2E2E2E2E2E2E2E2E2E2E2E2E2E2E2E2E2E2E2E2E2E2E2E2E2E2E2E2E2E2E2E2E2E2E2E2E2E2E2E2E2E2E2E2E2E2E2E2E2E2E2E2E2E2E2E2E2E2E2E2E2E2E2E2E2E2E2E2E2E2E2E2E2E2E2E2E2E2E2E2E2E2E2E2E2E2E2E2E2E2E2E2E2E2E2E2E2E2E2E2E2E2E2E2E2E2E2E2E2E2E2E2E2E2E2E2E2E2E2
310
E2E2E2E2E2E2E2E2E2E2E2E2E2E2E2E2E2E2E2E2E2E2E2E2E2E2E2E2E2E2E2E2E2E2E2E2E2E2E2E2E2E2E2E2E2E2E2E2E2E2E2E2E2E2E2E2E2E2E2E2E2E2E2E2E2E2E2E2E2E2E2E2E2E2E2E2E2E2E2E2E2E2E2E2E2E2E2E2E2E2E2E2E2E2E2E2E2E2E2E2E2E2E2E2E2E2E2E2E2E2E2E2E2E2E2E2E2E2E2E2E2E2E2E2E2E2E2
310
E2E2E2E2E2E2E2E2E2E2E2E2E2E2E2E2E2E2E2E2E2E2E2E2E2E2E2E2E2E2E2E2E2E2E2E2E2E2E2E2E2E2E2E2E2E2E2E2E2E2E2E2E2E2E2E2E2E2E2E2E2E2E2E2E2E2E2E2E2E2E2E2E2E2E2E2E2E2E2E2E2E2E2E2E2E2E2E2E2E2E2E2E2E2E2E2E2E2E2E2E2E2E2E2E2E2E2E2E2E2E2E2E2E2E2E2E2E2E2E2E2E2E2E2E2E2E2
310
E2E2E2E2E2E2E2E2E2E2E2E2E2E2E2E2E2E2E2E2E2E2E2E2E2E2E2E2E2E2E2E2E2E2E2E2E2E2E2E2E2E2E2E2E2E2E2E2E2E2E2E2E2E2E2E2E2E2E2E2E2E2E2E2E2E2E2E2E2E2E2E2E2E2E2E2E2E2E2E2E2E2E2E2E2E2E2E2E2E2E2E2E2E2E2E2E2E2E2E2E2E2E2E2E2E2E2E2E2E2E2E2E2E2E2E2E2E2E2E2E2E2E2E2E2E2E2
310
E2E2E2E2E2E2E2E2E2E2E2E2E2E2E2E2E2E2E2E2E2E2E2E2E2E2E2E2E2E2E2E2E2E2E2E2E2E2E2E2E2E2E2E2E2E2E2E2E2E2E2E2E2E2E2E2E2E2E2E2E2E2E2E2E2E2E2E2E2E2E2E2E2E2E2E2E2E2E2E2E2E2E2E2E2E2E2E2E2E2E2E2E2E2E2E2E2E2E2E2E2E2E2E2E2E2E2E2E2E2E2E2E2E2E2E2E2E2E2E2E2E2E2E2E2E2E2
310
E2E2E2E2E2E2E2E2E2E2E2E2E2E2E2E2E2E2E2E2E2E2E2E2E2E2E2E2E2E2E2E2E2E2E2E2E2E2E2E2E2E2E2E2E2E2E2E2E2E2E2E2E2E2E2E2E2E2E2E2E2E2E2E2E2E2E2E2E2E2E2E2E2E2E2E2E2E2E2E2E2E2E2E2E2E2E2E2E2E2E2E2E2E2E2E2E2E2E2E2E2E2E2E2E2E2E2E2E2E2E2E2E2E2E2E2E2E2E2E2E2E2E2E2E2E2E2
310
E2E2E2E2E2E2E2E2E2E2E2E2E2E2E2E2E2E2E2E2E2E2E2E2E2E2E2E2E2E2E2E2E2E2E2E2E2E2E2E2E2E2E2E2E2E2E2E2E2E2E2E2E2E2E2E2E2E2E2E2E2E2E2E2E2E2E2E2E2E2E2E2E2E2E2E2E2E2E2E2E2E2E2E2E2E2E2E2E2E2E2E2E2E2E2E2E2E2E2E2E2E2E2E2E2E2E2E2E2E2E2E2E2E2E2E2E2E2E2E2E2E2E2E2E2E2E2
310
E2E2E2E2E2E2E2E2E2E2E2E2E2E2E2E2E2E2E2E2E2E2E2E2E2E2E2E2E2E2E2E2E2E2E2E2E2E2E2E2E2E2E2E2E2E2E2E2E2E2E2E2E2E2E2E2E2E2E2E2E2E2E2E2E2E2E2E2E2E2E2E2E2E2E2E2E2E2E2E2E2E2E2E2E2E2E2E2E2E2E2E2E2E2E2E2E2E2E2E2E2E2E2E2E2E2E2E2E2E2E2E2E2E2E2E2E2E2E2E2E2E2E2E2E2E2E2
310
E2E2E2E2E2E2E2E2E2E2E2E2E2E2E2E2E2E2E2E2E2E2E2E2E2E2E2E2E2E2E2E2E2E2E2E2E2E2E2E2E2E2E2E2E2E2E2E2E2E2E2E2E2E2E2E2E2E2E2E2E2E2E2E2E2E2E2E2E2E2E2E2E2E2E2E2E2E2E2E2E2E2E2E2E2E2E2E2E2E2E2E2E2E2E2E2E2E2E2E2E2E2E2E2E2E2E2E2E2E2E2E2E2E2E2E2E2E2E2E2E2E2E2E2E2E2E2
310
E2E2E2E2E2E2E2E2E2E2E2E2E2E2E2E2E2E2E2E2E2E2E2E2E2E2E2E2E2E2E2E2E2E2E2E2E2E2E2E2E2E2E2E2E2E2E2E2E2E2E2E2E2E2E2E2E2E2E2E2E2E2E2E2E2E2E2E2E2E2E2E2E2E2E2E2E2E2E2E2E2E2E2E2E2E2E2E2E2E2E2E2E2E2E2E2E2E2E2E2E2E2E2E2E2E2E2E2E2E2E2E2E2E2E2E2E2E2E2E2E2E2E2E2E2E2E2
310
E2E2E2E2E2E2E2E2E2E2E2E2E2E2E2E2E2E2E2E2E2E2E2E2E2E2E2E2E2E2E2E2E2E2E2E2E2E2E2E2E2E2E2E2E2E2E2E2E2E2E2E2E2E2E2E2E2E2E2E2E2E2E2E2E2E2E2E2E2E2E2E2E2E2E2E2E2E2E2E2E2E2E2E2E2E2E2E2E2E2E2E2E2E2E2E2E2E2E2E2E2E2E2E2E2E2E2E2E2E2E2E2E2E2E2E2E2E2E2E2E2E2E2E2E2E2E2
310
E2E2E2E2E2E2E2E2E2E2E2E2E2E2E2E2E2E2E2E2E2E2E2E2E2E2E2E2E2E2E2E2E2E2E2E2E2E2E2E2E2E2E2E2E2E2E2E2E2E2E2E2E2E2E2E2E2E2E2E2E2E2E2E2E2E2E2E2E2E2E2E2E2E2E2E2E2E2E2E2E2E2E2E2E2E2E2E2E2E2E2E2E2E2E2E2E2E2E2E2E2E2E2E2E2E2E2E2E2E2E2E2E2E2E2E2E2E2E2E2E2E2E2E2E2E2E2
310
E2E2E2E2E2E2E2E2E2E2E2E2E2E2E2E2E2E2E2E2E2E2E2E2E2E2E2E2E2E2E2E2E2E2E2E2E2E2E2E2E2E2E2E2E2E2E2E2E2E2E2E2E2E2E2E2E2E2E2E2E2E2E2E2E2E2E2E2E2E2E2E2E2E2E2E2E2E2E2E2E2E2E2E2E2E2E2E2E2E2E2E2E2E2E2E2E2E2E2E2E2E2E2E2E2E2E2E2E2E2E2E2E2E2E2E2E2E2E2E2E2E2E2E2E2E2E2
310
E2E2E2E2E2E2E2E2E2E2E2E2E2E2E2E2E2E2E2E2E2E2E2E2E2E2E2E2E2E2E2E2E2E2E2E2E2E2E2E2E2E2E2E2E2E2E2E2E2E2E2E2E2E2E2E2E2E2E2E2E2E2E2E2E2E2E2E2E2E2E2E2E2E2E2E2E2E2E2E2E2E2E2E2E2E2E2E2E2E2E2E2E2E2E2E2E2E2E2E2E2E2E2E2E2E2E2E2E2E2E2E2E2E2E2E2E2E2E2E2E2E2E2E2E2E2E2
310
E2E2E2E2E2E2E2E2E2E2E2E2E2E2E2E2E2E2E2E2E2E2E2E2E2E2E2E2E2E2E2E2E2E2E2E2E2E2E2E2E2E2E2E2E2E2E2E2E2E2E2E2E2E2E2E2E2E2E2E2E2E2E2E2E2E2E2E2E2E2E2E2E2E2E2E2E2E2E2E2E2E2E2E2E2E2E2E2E2E2E2E2E2E2E2E2E2E2E2E2E2E2E2E2E2E2E2E2E2E2E2E2E2E2E2E2E2E2E2E2E2E2E2E2E2E2E2
310
E2E2E2E2E2E2E2E2E2E2E2E2E2E2E2E2E2E2E2E2E2E2E2E2E2E2E2E2E2E2E2E2E2E2E2E2E2E2E2E2E2E2E2E2E2E2E2E2E2E2E2E2E2E2E2E2E2E2E2E2E2E2E2E2E2E2E2E2E2E2E2E2E2E2E2E2E2E2E2E2E2E2E2E2E2E2E2E2E2E2E2E2E2E2E2E2E2E2E2E2E2E2E2E2E2E2E2E2E2E2E2E2E2E2E2E2E2E2E2E2E2E2E2E2E2E2E2
310
E2E2E2E2E2E2E2E2E2E2E2E2E2E2E2E2E2E2E2E2E2E2E2E2E2E2E2E2E2E2E2E2E2E2E2E2E2E2E2E2E2E2E2E2E2E2E2E2E2E2E2E2E2E2E2E2E2E2E2E2E2E2E2E2E2E2E2E2E2E2E2E2E2E2E2E2E2E2E2E2E2E2E2E2E2E2E2E2E2E2E2E2E2E2E2E2E2E2E2E2E2E2E2E2E2E2E2E2E2E2E2E2E2E2E2E2E2E2E2E2E2E2E2E2E2E2E2
310
E2E2E2E2E2E2E2E2E2E2E2E2E2E2E2E2E2E2E2E2E2E2E2E2E2E2E2E2E2E2E2E2E2E2E2E2E2E2E2E2E2E2E2E2E2E2E2E2E2E2E2E2E2E2E2E2E2E2E2E2E2E2E2E2E2E2E2E2E2E2E2E2E2E2E2E2E2E2E2E2E2E2E2E2E2E2E2E2E2E2E2E2E2E2E2E2E2E2E2E2E2E2E2E2E2E2E2E2E2E2E2E2E2E2E2E2E2E2E2E2E2E2E2E2E2E2E2
310
E2E2E2E2E2E2E2E2E2E2E2E2E2E2E2E2E2E2E2E2E2E2E2E2E2E2E2E2E2E2E2E2E2E2E2E2E2E2E2E2E2E2E2E2E2E2E2E2E2E2E2E2E2E2E2E2E2E2E2E2E2E2E2E2E2E2E2E2E2E2E2E2E2E2E2E2E2E2E2E2E2E2E2E2E2E2E2E2E2E2E2E2E2E2E2E2E2E2E2E2E2E2E2E2E2E2E2E2E2E2E2E2E2E2E2E2E2E2E2E2E2E2E2E2E2E2E2
310
E2E2E2E2E2E2E2E2E2E2E2E2E2E2E2E2E2E2E2E2E2E2E2E2E2E2E2E2E2E2E2E2E2E2E2E2E2E2E2E2E2E2E2E2E2E2E2E2E2E2E2E2E2E2E2E2E2E2E2E2E2E2E2E2E2E2E2E2E2E2E2E2E2E2E2E2E2E2E2E2E2E2E2E2E2E2E2E2E2E2E2E2E2E2E2E2E2E2E2E2E2E2E2E2E2E2E2E2E2E2E2E2E2E2E2E2E2E2E2E2E2E2E2E2E2E2E2
310
E2E2E2E2E2E2E2E2E2E2E2E2E2E2E2E2E2E2E2E2E2E2E2E2E2E2E2E2E2E2E2E2E2E2E2E2E2E2E2E2E2E2E2E2E2E2E2E2E2E2E2E2E2E2E2E2E2E2E2E2E2E2E2E2E2E2E2E2E2E2E2E2E2E2E2E2E2E2E2E2E2E2E2E2E2E2E2E2E2E2E2E2E2E2E2E2E2E2E2E2E2E2E2E2E2E2E2E2E2E2E2E2E2E2E2E2E2E2E2E2E2E2E2E2E2E2E2
310
E2E2E2E2E2E2E2E2E2E2E2E2E2E2E2E2E2E2E2E2E2E2E2E2E2E2E2E2E2E2E2E2E2E2E2E2E2E2E2E2E2E2E2E2E2E2E2E2E2E2E2E2E2E2E2E2E2E2E2E2E2E2E2E2E2E2E2E2E2E2E2E2E2E2E2E2E2E2E2E2E2E2E2E2E2E2E2E2E2E2E2E2E2E2E2E2E2E2E2E2E2E2E2E2E2E2E2E2E2E2E2E2E2E2E2E2E2E2E2E2E2E2E2E2E2E2E2
310
E2E2E2E2E2E2E2E2E2E2E2E2E2E2E2E2E2E2E2E2E2E2E2E2E2E2E2E2E2E2E2E2E2E2E2E2E2E2E2E2E2E2E2E2E2E2E2E2E2E2E2E2E2E2E2E2E2E2E2E2E2E2E2E2E2E2E2E2E2E2E2E2E2E2E2E2E2E2E2E2E2E2E2E2E2E2E2E2E2E2E2E2E2E2E2E2E2E2E2E2E2E2E2E2E2E2E2E2E2E2E2E2E2E2E2E2E2E2E2E2E2E2E2E2E2E2E2
310
E2E2E2E2E2E2E2E2E2E2E2E2E2E2E2E2E2E2E2E2E2E2E2E2E2E2E2E2E2E2E2E2E2E2E2E2E2E2E2E2E2E2E2E2E2E2E2E2E2E2E2E2E2E2E2E2E2E2E2E2E2E2E2E2E2E2E2E2E2E2E2E2E2E2E2E2E2E2E2E2E2E2E2E2E2E2E2E2E2E2E2E2E2E2E2E2E2E2E2E2E2E2E2E2E2E2E2E2E2E2E2E2E2E2E2E2E2E2E2E2E2E2E2E2E2E2E2
310
E2E2E2E2E2E2E2E2E2E2E2E2E2E2E2E2E2E2E2E2E2E2E2E2E2E2E2E2E2E2E2E2E2E2E2E2E2E2E2E2E2E2E2E2E2E2E2E2E2E2E2E2E2E2E2E2E2E2E2E2E2E2E2E2E2E2E2E2E2E2E2E2E2E2E2E2E2E2E2E2E2E2E2E2E2E2E2E2E2E2E2E2E2E2E2E2E2E2E2E2E2E2E2E2E2E2E2E2E2E2E2E2E2E2E2E2E2E2E2E2E2E2E2E2E2E2E2
310
E2E2E2E2E2E2E2E2E2E2E2E2E2E2E2E2E2E2E2E2E2E2E2E2E2E2E2E2E2E2E2E2E2E2E2E2E2E2E2E2E2E2E2E2E2E2E2E2E2E2E2E2E2E2E2E2E2E2E2E2E2E2E2E2E2E2E2E2E2E2E2E2E2E2E2E2E2E2E2E2E2E2E2E2E2E2E2E2E2E2E2E2E2E2E2E2E2E2E2E2E2E2E2E2E2E2E2E2E2E2E2E2E2E2E2E2E2E2E2E2E2E2E2E2E2E2E2
310
E2E2E2E2E2E2E2E2E2E2E2E2E2E2E2E2E2E2E2E2E2E2E2E2E2E2E2E2E2E2E2E2E2E2E2E2E2E2E2E2E2E2E2E2E2E2E2E2E2E2E2E2E2E2E2E2E2E2E2E2E2E2E2E2E2E2E2E2E2E2E2E2E2E2E2E2E2E2E2E2E2E2E2E2E2E2E2E2E2E2E2E2E2E2E2E2E2E2E2E2E2E2E2E2E2E2E2E2E2E2E2E2E2E2E2E2E2E2E2E2E2E2E2E2E2E2E2
310
E2E2E2E2E2E2E2E2E2E2E2E2E2E2E2E2E2E2E2E2E2E2E2E2E2E2E2E2E2E2E2E2E2E2E2E2E2E2E2E2E2E2E2E2E2E2E2E2E2E2E2E2E2E2E2E2E2E2E2E2E2E2E2E2E2E2E2E2E2E2E2E2E2E2E2E2E2E2E2E2E2E2E2E2E2E2E2E2E2E2E2E2E2E2E2E2E2E2E2E2E2E2E2E2E2E2E2E2E2E2E2E2E2E2E2E2E2E2E2E2E2E2E2E2E2E2E2
310
E2E2E2E2E2E2E2E2E2E2E2E2E2E2E2E2E2E2E2E2E2E2E2E2E2E2E2E2E2E2E2E2E2E2E2E2E2E2E2E2E2E2E2E2E2E2E2E2E2E2E2E2E2E2E2E2E2E2E2E2E2E2E2E2E2E2E2E2E2E2E2E2E2E2E2E2E2E2E2E2E2E2E2E2E2E2E2E2E2E2E2E2E2E2E2E2E2E2E2E2E2E2E2E2E2E2E2E2E2E2E2E2E2E2E2E2E2E2E2E2E2E2E2E2E2E2E2
310
E2E2E2E2E2E2E2E2E2E2E2E2E2E2E2E2E2E2E2E2E2E2E2E2E2E2E2E2E2E2E2E2E2E2E2E2E2E2E2E2E2E2E2E2E2E2E2E2E2E2E2E2E2E2E2E2E2E2E2E2E2E2E2E2E2E2E2E2E2E2E2E2E2E2E2E2E2E2E2E2E2E2E2E2E2E2E2E2E2E2E2E2E2E2E2E2E2E2E2E2E2E2E2E2E2E2E2E2E2E2E2E2E2E2E2E2E2E2E2E2E2E2E2E2E2E2E2
310
E2E2E2E2E2E2E2E2E2E2E2E2E2E2E2E2E2E2E2E2E2E2E2E2E2E2E2E2E2E2E2E2E2E2E2E2E2E2E2E2E2E2E2E2E2E2E2E2E2E2E2E2E2E2E2E2E2E2E2E2E2E2E2E2E2E2E2E2E2E2E2E2E2E2E2E2E2E2E2E2E2E2E2E2E2E2E2E2E2E2E2E2E2E2E2E2E2E2E2E2E2E2E2E2E2E2E2E2E2E2E2E2E2E2E2E2E2E2E2E2E2E2E2E2E2E2E2
310
E2E2E2E2E2E2E2E2E2E2E2E2E2E2E2E2E2E2E2E2E2E2E2E2E2E2E2E2E2E2E2E2E2E2E2E2E2E2E2E2E2E2E2E2E2E2E2E2E2E2E2E2E2E2E2E2E2E2E2E2E2E2E2E2E2E2E2E2E2E2E2E2E2E2E2E2E2E2E2E2E2E2E2E2E2E2E2E2E2E2E2E2E2E2E2E2E2E2E2E2E2E2E2E2E2E2E2E2E2E2E2E2E2E2E2E2E2E2E2E2E2E2E2E2E2E2E2
310
E2E2E2E2E2E2E2E2E2E2E2E2E2E2E2E2E2E2E2E2E2E2E2E2E2E2E2E2E2E2E2E2E2E2E2E2E2E2E2E2E2E2E2E2E2E2E2E2E2E2E2E2E2E2E2E2E2E2E2E2E2E2E2E2E2E2E2E2E2E2E2E2E2E2E2E2E2E2E2E2E2E2E2E2E2E2E2E2E2E2E2E2E2E2E2E2E2E2E2E2E2E2E2E2E2E2E2E2E2E2E2E2E2E2E2E2E2E2E2E2E2E2E2E2E2E2E2
310
E2E2E2E2E2E2E2E2E2E2E2E2E2E2E2E2E2E2E2E2E2E2E2E2E2E2E2E2E2E2E2E2E2E2E2E2E2E2E2E2E2E2E2E2E2E2E2E2E2E2E2E2E2E2E2E2E2E2E2E2E2E2E2E2E2E2E2E2E2E2E2E2E2E2E2E2E2E2E2E2E2E2E2E2E2E2E2E2E2E2E2E2E2E2E2E2E2E2E2E2E2E2E2E2E2E2E2E2E2E2E2E2E2E2E2E2E2E2E2E2E2E2E2E2E2E2E2
310
E2E2E2E2E2E2E2E2E2E2E2E2E2E2E2E2E2E2E2E2E2E2E2E2E2E2E2E2E2E2E2E2E2E2E2E2E2E2E2E2E2E2E2E2E2E2E2E2E2E2E2E2E2E2E2E2E2E2E2E2E2E2E2E2E2E2E2E2E2E2E2E2E2E2E2E2E2E2E2E2E2E2E2E2E2E2E2E2E2E2E2E2E2E2E2E2E2E2E2E2E2E2E2E2E2E2E2E2E2E2E2E2E2E2E2E2E2E2E2E2E2E2E2E2E2E2E2
310
E2E2E2E2E2E2E2E2E2E2E2E2E2E2E2E2E2E2E2E2E2E2E2E2E2E2E2E2E2E2E2E2E2E2E2E2E2E2E2E2E2E2E2E2E2E2E2E2E2E2E2E2E2E2E2E2E2E2E2E2E2E2E2E2E2E2E2E2E2E2E2E2E2E2E2E2E2E2E2E2E2E2E2E2E2E2E2E2E2E2E2E2E2E2E2E2E2E2E2E2E2E2E2E2E2E2E2E2E2E2E2E2E2E2E2E2E2E2E2E2E2E2E2E2E2E2E2
310
E2E2E2E2E2E2E2E2E2E2E2E2E2E2E2E2E2E2E2E2E2E2E2E2E2E2E2E2E2E2E2E2E2E2E2E2E2E2E2E2E2E2E2E2E2E2E2E2E2E2E2E2E2E2E2E2E2E2E2E2E2E2E2E2E2E2E2E2E2E2E2E2E2E2E2E2E2E2E2E2E2E2E2E2E2E2E2E2E2E2E2E2E2E2E2E2E2E2E2E2E2E2E2E2E2E2E2E2E2E2E2E2E2E2E2E2E2E2E2E2E2E2E2E2E2E2E2
310
E2E2E2E2E2E2E2E2E2E2E2E2E2E2E2E2E2E2E2E2E2E2E2E2E2E2E2E2E2E2E2E2E2E2E2E2E2E2E2E2E2E2E2E2E2E2E2E2E2E2E2E2E2E2E2E2E2E2E2E2E2E2E2E2E2E2E2E2E2E2E2E2E2E2E2E2E2E2E2E2E2E2E2E2E2E2E2E2E2E2E2E2E2E2E2E2E2E2E2E2E2E2E2E2E2E2E2E2E2E2E2E2E2E2E2E2E2E2E2E2E2E2E2E2E2E2E2
310
E2E2E2E2E2E2E2E2E2E2E2E2E2E2E2E2E2E2E2E2E2E2E2E2E2E2E2E2E2E2E2E2E2E2E2E2E2E2E2E2E2E2E2E2E2E2E2E2E2E2E2E2E2E2E2E2E2E2E2E2E2E2E2E2E2E2E2E2E2E2E2E2E2E2E2E2E2E2E2E2E2E2E2E2E2E2E2E2E2E2E2E2E2E2E2E2E2E2E2E2E2E2E2E2E2E2E2E2E2E2E2E2E2E2E2E2E2E2E2E2E2E2E2E2E2E2E2
310
E2E2E2E2E2E2E2E2E2E2E2E2E2E2E2E2E2E2E2E2E2E2E2E2E2E2E2E2E2E2E2E2E2E2E2E2E2E2E2E2E2E2E2E2E2E2E2E2E2E2E2E2E2E2E2E2E2E2E2E2E2E2E2E2E2E2E2E2E2E2E2E2E2E2E2E2E2E2E2E2E2E2E2E2E2E2E2E2E2E2E2E2E2E2E2E2E2E2E2E2E2E2E2E2E2E2E2E2E2E2E2E2E2E2E2E2E2E2E2E2E2E2E2E2E2E2E2
310
E2E2E2E2E2E2E2E2E2E2E2E2E2E2E2E2E2E2E2E2E2E2E2E2E2E2E2E2E2E2E2E2E2E2E2E2E2E2E2E2E2E2E2E2E2E2E2E2E2E2E2E2E2E2E2E2E2E2E2E2E2E2E2E2E2E2E2E2E2E2E2E2E2E2E2E2E2E2E2E2E2E2E2E2E2E2E2E2E2E2E2E2E2E2E2E2E2E2E2E2E2E2E2E2E2E2E2E2E2E2E2E2E2E2E2E2E2E2E2E2E2E2E2E2E2E2E2
310
E2E2E2E2E2E2E2E2E2E2E2E2E2E2E2E2E2E2E2E2E2E2E2E2E2E2E2E2E2E2E2E2E2E2E2E2E2E2E2E2E2E2E2E2E2E2E2E2E2E2E2E2E2E2E2E2E2E2E2E2E2E2E2E2E2E2E2E2E2E2E2E2E2E2E2E2E2E2E2E2E2E2E2E2E2E2E2E2E2E2E2E2E2E2E2E2E2E2E2E2E2E2E2E2E2E2E2E2E2E2E2E2E2E2E2E2E2E2E2E2E2E2E2E2E2E2E2
310
E2E2E2E2E2E2E2E2E2E2E2E2E2E2E2E2E2E2E2E2E2E2E2E2E2E2E2E2E2E2E2E2E2E2E2E2E2E2E2E2E2E2E2E2E2E2E2E2E2E2E2E2E2E2E2E2E2E2E2E2E2E2E2E2E2E2E2E2E2E2E2E2E2E2E2E2E2E2E2E2E2E2E2E2E2E2E2E2E2E2E2E2E2E2E2E2E2E2E2E2E2E2E2E2E2E2E2E2E2E2E2E2E2E2E2E2E2E2E2E2E2E2E2E2E2E2E2
310
E2E2E2E2E2E2E2E2E2E2E2E2E2E2E2E2E2E2E2E2E2E2E2E2E2E2E2E2E2E2E2E2E2E2E2E2E2E2E2E2E2E2E2E2E2E2E2E2E2E2E2E2E2E2E2E2E2E2E2E2E2E2E2E2E2E2E2E2E2E2E2E2E2E2E2E2E2E2E2E2E2E2E2E2E2E2E2E2E2E2E2E2E2E2E2E2E2E2E2E2E2E2E2E2E2E2E2E2E2E2E2E2E2E2E2E2E2E2E2E2E2E2E2E2E2E2E2
310
E2E2E2E2E2E2E2E2E2E2E2E2E2E2E2E2E2E2E2E2E2E2E2E2E2E2E2E2E2E2E2E2E2E2E2E2E2E2E2E2E2E2E2E2E2E2E2E2E2E2E2E2E2E2E2E2E2E2E2E2E2E2E2E2E2E2E2E2E2E2E2E2E2E2E2E2E2E2E2E2E2E2E2E2E2E2E2E2E2E2E2E2E2E2E2E2E2E2E2E2E2E2E2E2E2E2E2E2E2E2E2E2E2E2E2E2E2E2E2E2E2E2E2E2E2E2E2
310
E2E2E2E2E2E2E2E2E2E2E2E2E2E2E2E2E2E2E2E2E2E2E2E2E2E2E2E2E2E2E2E2E2E2E2E2E2E2E2E2E2E2E2E2E2E2E2E2E2E2E2E2E2E2E2E2E2E2E2E2E2E2E2E2E2E2E2E2E2E2E2E2E2E2E2E2E2E2E2E2E2E2E2E2E2E2E2E2E2E2E2E2E2E2E2E2E2E2E2E2E2E2E2E2E2E2E2E2E2E2E2E2E2E2E2E2E2E2E2E2E2E2E2E2E2E2E2
310
E2E2E2E2E2E2E2E2E2E2E2E2E2E2E2E2E2E2E2E2E2E2E2E2E2E2E2E2E2E2E2E2E2E2E2E2E2E2E2E2E2E2E2E2E2E2E2E2E2E2E2E2E2E2E2E2E2E2E2E2E2E2E2E2E2E2E2E2E2E2E2E2E2E2E2E2E2E2E2E2E2E2E2E2E2E2E2E2E2E2E2E2E2E2E2E2E2E2E2E2E2E2E2E2E2E2E2E2E2E2E2E2E2E2E2E2E2E2E2E2E2E2E2E2E2E2E2
310
E2E2E2E2E2E2E2E2E2E2E2E2E2E2E2E2E2E2E2E2E2E2E2E2E2E2E2E2E2E2E2E2E2E2E2E2E2E2E2E2E2E2E2E2E2E2E2E2E2E2E2E2E2E2E2E2E2E2E2E2E2E2E2E2E2E2E2E2E2E2E2E2E2E2E2E2E2E2E2E2E2E2E2E2E2E2E2E2E2E2E2E2E2E2E2E2E2E2E2E2E2E2E2E2E2E2E2E2E2E2E2E2E2E2E2E2E2E2E2E2E2E2E2E2E2E2E2
310
E2E2E2E2E2E2E2E2E2E2E2E2E2E2E2E2E2E2E2E2E2E2E2E2E2E2E2E2E2E2E2E2E2E2E2E2E2E2E2E2E2E2E2E2E2E2E2E2E2E2E2E2E2E2E2E2E2E2E2E2E2E2E2E2E2E2E2E2E2E2E2E2E2E2E2E2E2E2E2E2E2E2E2E2E2E2E2E2E2E2E2E2E2E2E2E2E2E2E2E2E2E2E2E2E2E2E2E2E2E2E2E2E2E2E2E2E2E2E2E2E2E2E2E2E2E2E2
310
E2E2E2E2E2E2E2E2E2E2E2E2E2E2E2E2E2E2E2E2E2E2E2E2E2E2E2E2E2E2E2E2E2E2E2E2E2E2E2E2E2E2E2E2E2E2E2E2E2E2E2E2E2E2E2E2E2E2E2E2E2E2E2E2E2E2E2E2E2E2E2E2E2E2E2E2E2E2E2E2E2E2E2E2E2E2E2E2E2E2E2E2E2E2E2E2E2E2E2E2E2E2E2E2E2E2E2E2E2E2E2E2E2E2E2E2E2E2E2E2E2E2E2E2E2E2E2
310
E2E2E2E2E2E2E2E2E2E2E2E2E2E2E2E2E2E2E2E2E2E2E2E2E2E2E2E2E2E2E2E2E2E2E2E2E2E2E2E2E2E2E2E2E2E2E2E2E2E2E2E2E2E2E2E2E2E2E2E2E2E2E2E2E2E2E2E2E2E2E2E2E2E2E2E2E2E2E2E2E2E2E2E2E2E2E2E2E2E2E2E2E2E2E2E2E2E2E2E2E2E2E2E2E2E2E2E2E2E2E2E2E2E2E2E2E2E2E2E2E2E2E2E2E2E2E2
310
E2E2E2E2E2E2E2E2E2E2E2E2E2E2E2E2E2E2E2E2E2E2E2E2E2E2E2E2E2E2E2E2E2E2E2E2E2E2E2E2E2E2E2E2E2E2E2E2E2E2E2E2E2E2E2E2E2E2E2E2E2E2E2E2E2E2E2E2E2E2E2E2E2E2E2E2E2E2E2E2E2E2E2E2E2E2E2E2E2E2E2E2E2E2E2E2E2E2E2E2E2E2E2E2E2E2E2E2E2E2E2E2E2E2E2E2E2E2E2E2E2E2E2E2E2E2E2
310
E2E2E2E2E2E2E2E2E2E2E2E2E2E2E2E2E2E2E2E2E2E2E2E2E2E2E2E2E2E2E2E2E2E2E2E2E2E2E2E2E2E2E2E2E2E2E2E2E2E2E2E2E2E2E2E2E2E2E2E2E2E2E2E2E2E2E2E2E2E2E2E2E2E2E2E2E2E2E2E2E2E2E2E2E2E2E2E2E2E2E2E2E2E2E2E2E2E2E2E2E2E2E2E2E2E2E2E2E2E2E2E2E2E2E2E2E2E2E2E2E2E2E2E2E2E2E2
310
E2E2E2E2E2E2E2E2E2E2E2E2E2E2E2E2E2E2E2E2E2E2E2E2E2E2E2E2E2E2E2E2E2E2E2E2E2E2E2E2E2E2E2E2E2E2E2E2E2E2E2E2E2E2E2E2E2E2E2E2E2E2E2E2E2E2E2E2E2E2E2E2E2E2E2E2E2E2E2E2E2E2E2E2E2E2E2E2E2E2E2E2E2E2E2E2E2E2E2E2E2E2E2E2E2E2E2E2E2E2E2E2E2E2E2E2E2E2E2E2E2E2E2E2E2E2E2
310
E2E2E2E2E2E2E2E2E2E2E2E2E2E2E2E2E2E2E2E2E2E2E2E2E2E2E2E2E2E2E2E2E2E2E2E2E2E2E2E2E2E2E2E2E2E2E2E2E2E2E2E2E2E2E2E2E2E2E2E2E2E2E2E2E2E2E2E2E2E2E2E2E2E2E2E2E2E2E2E2E2E2E2E2E2E2E2E2E2E2E2E2E2E2E2E2E2E2E2E2E2E2E2E2E2E2E2E2E2E2E2E2E2E2E2E2E2E2E2E2E2E2E2E2E2E2E2
310
E2E2E2E2E2E2E2E2E2E2E2E2E2E2E2E2E2E2E2E2E2E2E2E2E2E2E2E2E2E2E2E2E2E2E2E2E2E2E2E2E2E2E2E2E2E2E2E2E2E2E2E2E2E2E2E2E2E2E2E2E2E2E2E2E2E2E2E2E2E2E2E2E2E2E2E2E2E2E2E2E2E2E2E2E2E2E2E2E2E2E2E2E2E2E2E2E2E2E2E2E2E2E2E2E2E2E2E2E2E2E2E2E2E2E2E2E2E2E2E2E2E2E2E2E2E2E2
310
E2E2E2E2E2E2E2E2E2E2E2E2E2E2E2E2E2E2E2E2E2E2E2E2E2E2E2E2E2E2E2E2E2E2E2E2E2E2E2E2E2E2E2E2E2E2E2E2E2E2E2E2E2E2E2E2E2E2E2E2E2E2E2E2E2E2E2E2E2E2E2E2E2E2E2E2E2E2E2E2E2E2E2E2E2E2E2E2E2E2E2E2E2E2E2E2E2E2E2E2E2E2E2E2E2E2E2E2E2E2E2E2E2E2E2E2E2E2E2E2E2E2E2E2E2E2E2
310
E2E2E2E2E2E2E2E2E2E2E2E2E2E2E2E2E2E2E2E2E2E2E2E2E2E2E2E2E2E2E2E2E2E2E2E2E2E2E2E2E2E2E2E2E2E2E2E2E2E2E2E2E2E2E2E2E2E2E2E2E2E2E2E2E2E2E2E2E2E2E2E2E2E2E2E2E2E2E2E2E2E2E2E2E2E2E2E2E2E2E2E2E2E2E2E2E2E2E2E2E2E2E2E2E2E2E2E2E2E2E2E2E2E2E2E2E2E2E2E2E2E2E2E2E2E2E2
310
E2E2E2E2E2E2E2E2E2E2E2E2E2E2E2E2E2E2E2E2E2E2E2E2E2E2E2E2E2E2E2E2E2E2E2E2E2E2E2E2E2E2E2E2E2E2E2E2E2E2E2E2E2E2E2E2E2E2E2E2E2E2E2E2E2E2E2E2E2E2E2E2E2E2E2E2E2E2E2E2E2E2E2E2E2E2E2E2E2E2E2E2E2E2E2E2E2E2E2E2E2E2E2E2E2E2E2E2E2E2E2E2E2E2E2E2E2E2E2E2E2E2E2E2E2E2E2
310
E2E2E2E2E2E2E2E2E2E2E2E2E2E2E2E2E2E2E2E2E2E2E2E2E2E2E2E2E2E2E2E2E2E2E2E2E2E2E2E2E2E2E2E2E2E2E2E2E2E2E2E2E2E2E2E2E2E2E2E2E2E2E2E2E2E2E2E2E2E2E2E2E2E2E2E2E2E2E2E2E2E2E2E2E2E2E2E2E2E2E2E2E2E2E2E2E2E2E2E2E2E2E2E2E2E2E2E2E2E2E2E2E2E2E2E2E2E2E2E2E2E2E2E2E2E2E2
310
E2E2E2E2E2E2E2E2E2E2E2E2E2E2E2E2E2E2E2E2E2E2E2E2E2E2E2E2E2E2E2E2E2E2E2E2E2E2E2E2E2E2E2E2E2E2E2E2E2E2E2E2E2E2E2E2E2E2E2E2E2E2E2E2E2E2E2E2E2E2E2E2E2E2E2E2E2E2E2E2E2E2E2E2E2E2E2E2E2E2E2E2E2E2E2E2E2E2E2E2E2E2E2E2E2E2E2E2E2E2E2E2E2E2E2E2E2E2E2E2E2E2E2E2E2E2E2
310
E2E2E2E2E2E2E2E2E2E2E2E2E2E2E2E2E2E2E2E2E2E2E2E2E2E2E2E2E2E2E2E2E2E2E2E2E2E2E2E2E2E2E2E2E2E2E2E2E2E2E2E2E2E2E2E2E2E2E2E2E2E2E2E2E2E2E2E2E2E2E2E2E2E2E2E2E2E2E2E2E2E2E2E2E2E2E2E2E2E2E2E2E2E2E2E2E2E2E2E2E2E2E2E2E2E2E2E2E2E2E2E2E2E2E2E2E2E2E2E2E2E2E2E2E2E2E2
310
E2E2E2E2E2E2E2E2E2E2E2E2E2E2E2E2E2E2E2E2E2E2E2E2E2E2E2E2E2E2E2E2E2E2E2E2E2E2E2E2E2E2E2E2E2E2E2E2E2E2E2E2E2E2E2E2E2E2E2E2E2E2E2E2E2E2E2E2E2E2E2E2E2E2E2E2E2E2E2E2E2E2E2E2E2E2E2E2E2E2E2E2E2E2E2E2E2E2E2E2E2E2E2E2E2E2E2E2E2E2E2E2E2E2E2E2E2E2E2E2E2E2E2E2E2E2E2
310
E2E2E2E2E2E2E2E2E2E2E2E2E2E2E2E2E2E2E2E2E2E2E2E2E2E2E2E2E2E2E2E2E2E2E2E2E2E2E2E2E2E2E2E2E2E2E2E2E2E2E2E2E2E2E2E2E2E2E2E2E2E2E2E2E2E2E2E2E2E2E2E2E2E2E2E2E2E2E2E2E2E2E2E2E2E2E2E2E2E2E2E2E2E2E2E2E2E2E2E2E2E2E2E2E2E2E2E2E2E2E2E2E2E2E2E2E2E2E2E2E2E2E2E2E2E2E2
310
E2E2E2E2E2E2E2E2E2E2E2E2E2E2E2E2E2E2E2E2E2E2E2E2E2E2E2E2E2E2E2E2E2E2E2E2E2E2E2E2E2E2E2E2E2E2E2E2E2E2E2E2E2E2E2E2E2E2E2E2E2E2E2E2E2E2E2E2E2E2E2E2E2E2E2E2E2E2E2E2E2E2E2E2E2E2E2E2E2E2E2E2E2E2E2E2E2E2E2E2E2E2E2E2E2E2E2E2E2E2E2E2E2E2E2E2E2E2E2E2E2E2E2E2E2E2E2
310
E2E2E2E2E2E2E2E2E2E2E2E2E2E2E2E2E2E2E2E2E2E2E2E2E2E2E2E2E2E2E2E2E2E2E2E2E2E2E2E2E2E2E2E2E2E2E2E2E2E2E2E2E2E2E2E2E2E2E2E2E2E2E2E2E2E2E2E2E2E2E2E2E2E2E2E2E2E2E2E2E2E2E2E2E2E2E2E2E2E2E2E2E2E2E2E2E2E2E2E2E2E2E2E2E2E2E2E2E2E2E2E2E2E2E2E2E2E2E2E2E2E2E2E2E2E2E2
310
E2E2E2E2E2E2E2E2E2E2E2E2E2E2E2E2E2E2E2E2E2E2E2E2E2E2E2E2E2E2E2E2E2E2E2E2E2E2E2E2E2E2E2E2E2E2E2E2E2E2E2E2E2E2E2E2E2E2E2E2E2E2E2E2E2E2E2E2E2E2E2E2E2E2E2E2E2E2E2E2E2E2E2E2E2E2E2E2E2E2E2E2E2E2E2E2E2E2E2E2E2E2E2E2E2E2E2E2E2E2E2E2E2E2E2E2E2E2E2E2E2E2E2E2E2E2E2
310
E2E2E2E2E2E2E2E2E2E2E2E2E2E2E2E2E2E2E2E2E2E2E2E2E2E2E2E2E2E2E2E2E2E2E2E2E2E2E2E2E2E2E2E2E2E2E2E2E2E2E2E2E2E2E2E2E2E2E2E2E2E2E2E2E2E2E2E2E2E2E2E2E2E2E2E2E2E2E2E2E2E2E2E2E2E2E2E2E2E2E2E2E2E2E2E2E2E2E2E2E2E2E2E2E2E2E2E2E2E2E2E2E2E2E2E2E2E2E2E2E2E2E2E2E2E2E2
310
E2E2E2E2E2E2E2E2E2E2E2E2E2E2E2E2E2E2E2E2E2E2E2E2E2E2E2E2E2E2E2E2E2E2E2E2E2E2E2E2E2E2E2E2E2E2E2E2E2E2E2E2E2E2E2E2E2E2E2E2E2E2E2E2E2E2E2E2E2E2E2E2E2E2E2E2E2E2E2E2E2E2E2E2E2E2E2E2E2E2E2E2E2E2E2E2E2E2E2E2E2E2E2E2E2E2E2E2E2E2E2E2E2E2E2E2E2E2E2E2E2E2E2E2E2E2E2
310
E2E2E2E2E2E2E2E2E2E2E2E2E2E2E2E2E2E2E2E2E2E2E2E2E2E2E2E2E2E2E2E2E2E2E2E2E2E2E2E2E2E2E2E2E2E2E2E2E2E2E2E2E2E2E2E2E2E2E2E2E2E2E2E2E2E2E2E2E2E2E2E2E2E2E2E2E2E2E2E2E2E2E2E2E2E2E2E2E2E2E2E2E2E2E2E2E2E2E2E2E2E2E2E2E2E2E2E2E2E2E2E2E2E2E2E2E2E2E2E2E2E2E2E2E2E2E2
310
E2E2E2E2E2E2E2E2E2E2E2E2E2E2E2E2E2E2E2E2E2E2E2E2E2E2E2E2E2E2E2E2E2E2E2E2E2E2E2E2E2E2E2E2E2E2E2E2E2E2E2E2E2E2E2E2E2E2E2E2E2E2E2E2E2E2E2E2E2E2E2E2E2E2E2E2E2E2E2E2E2E2E2E2E2E2E2E2E2E2E2E2E2E2E2E2E2E2E2E2E2E2E2E2E2E2E2E2E2E2E2E2E2E2E2E2E2E2E2E2E2E2E2E2E2E2E2
310
E2E2E2E2E2E2E2E2E2E2E2E2E2E2E2E2E2E2E2E2E2E2E2E2E2E2E2E2E2E2E2E2E2E2E2E2E2E2E2E2E2E2E2E2E2E2E2E2E2E2E2E2E2E2E2E2E2E2E2E2E2E2E2E2E2E2E2E2E2E2E2E2E2E2E2E2E2E2E2E2E2E2E2E2E2E2E2E2E2E2E2E2E2E2E2E2E2E2E2E2E2E2E2E2E2E2E2E2E2E2E2E2E2E2E2E2E2E2E2E2E2E2E2E2E2E2E2
310
E2E2E2E2E2E2E2E2E2E2E2E2E2E2E2E2E2E2E2E2E2E2E2E2E2E2E2E2E2E2E2E2E2E2E2E2E2E2E2E2E2E2E2E2E2E2E2E2E2E2E2E2E2E2E2E2E2E2E2E2E2E2E2E2E2E2E2E2E2E2E2E2E2E2E2E2E2E2E2E2E2E2E2E2E2E2E2E2E2E2E2E2E2E2E2E2E2E2E2E2E2E2E2E2E2E2E2E2E2E2E2E2E2E2E2E2E2E2E2E2E2E2E2E2E2E2E2
310
E2E2E2E2E2E2E2E2E2E2E2E2E2E2E2E2E2E2E2E2E2E2E2E2E2E2E2E2E2E2E2E2E2E2E2E2E2E2E2E2E2E2E2E2E2E2E2E2E2E2E2E2E2E2E2E2E2E2E2E2E2E2E2E2E2E2E2E2E2E2E2E2E2E2E2E2E2E2E2E2E2E2E2E2E2E2E2E2E2E2E2E2E2E2E2E2E2E2E2E2E2E2E2E2E2E2E2E2E2E2E2E2E2E2E2E2E2E2E2E2E2E2E2E2E2E2E2
310
E2E2E2E2E2E2E2E2E2E2E2E2E2E2E2E2E2E2E2E2E2E2E2E2E2E2E2E2E2E2E2E2E2E2E2E2E2E2E2E2E2E2E2E2E2E2E2E2E2E2E2E2E2E2E2E2E2E2E2E2E2E2E2E2E2E2E2E2E2E2E2E2E2E2E2E2E2E2E2E2E2E2E2E2E2E2E2E2E2E2E2E2E2E2E2E2E2E2E2E2E2E2E2E2E2E2E2E2E2E2E2E2E2E2E2E2E2E2E2E2E2E2E2E2E2E2E2
310
E2E2E2E2E2E2E2E2E2E2E2E2E2E2E2E2E2E2E2E2E2E2E2E2E2E2E2E2E2E2E2E2E2E2E2E2E2E2E2E2E2E2E2E2E2E2E2E2E2E2E2E2E2E2E2E2E2E2E2E2E2E2E2E2E2E2E2E2E2E2E2E2E2E2E2E2E2E2E2E2E2E2E2E2E2E2E2E2E2E2E2E2E2E2E2E2E2E2E2E2E2E2E2E2E2E2E2E2E2E2E2E2E2E2E2E2E2E2E2E2E2E2E2E2E2E2E2
310
E2E2E2E2E2E2E2E2E2E2E2E2E2E2E2E2E2E2E2E2E2E2E2E2E2E2E2E2E2E2E2E2E2E2E2E2E2E2E2E2E2E2E2E2E2E2E2E2E2E2E2E2E2E2E2E2E2E2E2E2E2E2E2E2E2E2E2E2E2E2E2E2E2E2E2E2E2E2E2E2E2E2E2E2E2E2E2E2E2E2E2E2E2E2E2E2E2E2E2E2E2E2E2E2E2E2E2E2E2E2E2E2E2E2E2E2E2E2E2E2E2E2E2E2E2E2E2
310
E2E2E2E2E2E2E2E2E2E2E2E2E2E2E2E2E2E2E2E2E2E2E2E2E2E2E2E2E2E2E2E2E2E2E2E2E2E2E2E2E2E2E2E2E2E2E2E2E2E2E2E2E2E2E2E2E2E2E2E2E2E2E2E2E2E2E2E2E2E2E2E2E2E2E2E2E2E2E2E2E2E2E2E2E2E2E2E2E2E2E2E2E2E2E2E2E2E2E2E2E2E2E2E2E2E2E2E2E2E2E2E2E2E2E2E2E2E2E2E2E2E2E2E2E2E2E2
310
E2E2E2E2E2E2E2E2E2E2E2E2E2E2E2E2E2E2E2E2E2E2E2E2E2E2E2E2E2E2E2E2E2E2E2E2E2E2E2E2E2E2E2E2E2E2E2E2E2E2E2E2E2E2E2E2E2E2E2E2E2E2E2E2E2E2E2E2E2E2E2E2E2E2E2E2E2E2E2E2E2E2E2E2E2E2E2E2E2E2E2E2E2E2E2E2E2E2E2E2E2E2E2E2E2E2E2E2E2E2E2E2E2E2E2E2E2E2E2E2E2E2E2E2E2E2E2
310
E2E2E2E2E2E2E2E2E2E2E2E2E2E2E2E2E2E2E2E2E2E2E2E2E2E2E2E2E2E2E2E2E2E2E2E2E2E2E2E2E2E2E2E2E2E2E2E2E2E2E2E2E2E2E2E2E2E2E2E2E2E2E2E2E2E2E2E2E2E2E2E2E2E2E2E2E2E2E2E2E2E2E2E2E2E2E2E2E2E2E2E2E2E2E2E2E2E2E2E2E2E2E2E2E2E2E2E2E2E2E2E2E2E2E2E2E2E2E2E2E2E2E2E2E2E2E2
310
E2E2E2E2E2E2E2E2E2E2E2E2E2E2E2E2E2E2E2E2E2E2E2E2E2E2E2E2E2E2E2E2E2E2E2E2E2E2E2E2E2E2E2E2E2E2E2E2E2E2E2E2E2E2E2E2E2E2E2E2E2E2E2E2E2E2E2E2E2E2E2E2E2E2E2E2E2E2E2E2E2E2E2E2E2E2E2E2E2E2E2E2E2E2E2E2E2E2E2E2E2E2E2E2E2E2E2E2E2E2E2E2E2E2E2E2E2E2E2E2E2E2E2E2E2E2E2
310
E2E2E2E2E2E2E2E2E2E2E2E2E2E2E2E2E2E2E2E2E2E2E2E2E2E2E2E2E2E2E2E2E2E2E2E2E2E2E2E2E2E2E2E2E2E2E2E2E2E2E2E2E2E2E2E2E2E2E2E2E2E2E2E2E2E2E2E2E2E2E2E2E2E2E2E2E2E2E2E2E2E2E2E2E2E2E2E2E2E2E2E2E2E2E2E2E2E2E2E2E2E2E2E2E2E2E2E2E2E2E2E2E2E2E2E2E2E2E2E2E2E2E2E2E2E2E2
310
E2E2E2E2E2E2E2E2E2E2E2E2E2E2E2E2E2E2E2E2E2E2E2E2E2E2E2E2E2E2E2E2E2E2E2E2E2E2E2E2E2E2E2E2E2E2E2E2E2E2E2E2E2E2E2E2E2E2E2E2E2E2E2E2E2E2E2E2E2E2E2E2E2E2E2E2E2E2E2E2E2E2E2E2E2E2E2E2E2E2E2E2E2E2E2E2E2E2E2E2E2E2E2E2E2E2E2E2E2E2E2E2E2E2E2E2E2E2E2E2E2E2E2E2E2E2E2
310
E2E2E2E2E2E2E2E2E2E2E2E2E2E2E2E2E2E2E2E2E2E2E2E2E2E2E2E2E2E2E2E2E2E2E2E2E2E2E2E2E2E2E2E2E2E2E2E2E2E2E2E2E2E2E2E2E2E2E2E2E2E2E2E2E2E2E2E2E2E2E2E2E2E2E2E2E2E2E2E2E2E2E2E2E2E2E2E2E2E2E2E2E2E2E2E2E2E2E2E2E2E2E2E2E2E2E2E2E2E2E2E2E2E2E2E2E2E2E2E2E2E2E2E2E2E2E2
310
E2E2E2E2E2E2E2E2E2E2E2E2E2E2E2E2E2E2E2E2E2E2E2E2E2E2E2E2E2E2E2E2E2E2E2E2E2E2E2E2E2E2E2E2E2E2E2E2E2E2E2E2E2E2E2E2E2E2E2E2E2E2E2E2E2E2E2E2E2E2E2E2E2E2E2E2E2E2E2E2E2E2E2E2E2E2E2E2E2E2E2E2E2E2E2E2E2E2E2E2E2E2E2E2E2E2E2E2E2E2E2E2E2E2E2E2E2E2E2E2E2E2E2E2E2E2E2
310
E2E2E2E2E2E2E2E2E2E2E2E2E2E2E2E2E2E2E2E2E2E2E2E2E2E2E2E2E2E2E2E2E2E2E2E2E2E2E2E2E2E2E2E2E2E2E2E2E2E2E2E2E2E2E2E2E2E2E2E2E2E2E2E2E2E2E2E2E2E2E2E2E2E2E2E2E2E2E2E2E2E2E2E2E2E2E2E2E2E2E2
  0
XRECORD
  5
B71
102
{ACAD_REACTORS
330
46
102
}
330
46
100
AcDbXrecord
280
     1
102
MATERIAL
148
0.0
149
0.0
149
0.0
 93
        0
 94
      127
282
     0
 72
     0
 77
     0
171
     0
175
     0
179
     0
273
     0
  0
XRECORD
  5
47
102
{ACAD_REACTORS
330
46
102
}
330
46
100
AcDbXrecord
280
     1
270
     1
271
     1
  0
XRECORD
  5
48
102
{ACAD_REACTORS
330
46
102
}
330
46
100
AcDbXrecord
280
     1
270
     1
271
     1
  0
XRECORD
  5
49
102
{ACAD_REACTORS
330
46
102
}
330
46
100
AcDbXrecord
280
     1
270
     1
271
     1
  0
XRECORD
  5
4A
102
{ACAD_REACTORS
330
46
102
}
330
46
100
AcDbXrecord
280
     1
270
     1
271
     1
  0
XRECORD
  5
4B
102
{ACAD_REACTORS
330
46
102
}
330
46
100
AcDbXrecord
280
     1
270
     1
271
     1
  0
XRECORD
  5
4C
102
{ACAD_REACTORS
330
46
102
}
330
46
100
AcDbXrecord
280
     1
270
     1
271
     1
  0
XRECORD
  5
B70
102
{ACAD_REACTORS
330
3E
102
}
330
3E
100
AcDbXrecord
280
     1
102
MATERIAL
148
0.0
149
0.0
149
0.0
 93
        0
 94
      127
282
     0
 72
     0
 77
     0
171
     0
175
     0
179
     0
273
     0
  0
XRECORD
  5
3F
102
{ACAD_REACTORS
330
3E
102
}
330
3E
100
AcDbXrecord
280
     1
270
     1
271
     1
  0
XRECORD
  5
40
102
{ACAD_REACTORS
330
3E
102
}
330
3E
100
AcDbXrecord
280
     1
270
     1
271
     1
  0
XRECORD
  5
41
102
{ACAD_REACTORS
330
3E
102
}
330
3E
100
AcDbXrecord
280
     1
270
     1
271
     1
  0
XRECORD
  5
42
102
{ACAD_REACTORS
330
3E
102
}
330
3E
100
AcDbXrecord
280
     1
270
     1
271
     1
  0
XRECORD
  5
43
102
{ACAD_REACTORS
330
3E
102
}
330
3E
100
AcDbXrecord
280
     1
270
     1
271
     1
  0
XRECORD
  5
44
102
{ACAD_REACTORS
330
3E
102
}
330
3E
100
AcDbXrecord
280
     1
270
     1
271
     1
  0
XRECORD
  5
B69
102
{ACAD_REACTORS
330
D
102
}
330
D
100
AcDbXrecord
280
     1
102
MATERIAL
148
0.0
149
0.0
149
0.0
 93
        0
 94
      127
282
     0
 72
     0
 77
     0
171
     0
175
     0
179
     0
273
     0
  0
XRECORD
  5
E
102
{ACAD_REACTORS
330
D
102
}
330
D
100
AcDbXrecord
280
     1
270
     1
271
     1
  0
XRECORD
  5
F
102
{ACAD_REACTORS
330
D
102
}
330
D
100
AcDbXrecord
280
     1
270
     1
271
     1
  0
XRECORD
  5
10
102
{ACAD_REACTORS
330
D
102
}
330
D
100
AcDbXrecord
280
     1
270
     1
271
     1
  0
XRECORD
  5
11
102
{ACAD_REACTORS
330
D
102
}
330
D
100
AcDbXrecord
280
     1
270
     1
271
     1
  0
XRECORD
  5
12
102
{ACAD_REACTORS
330
D
102
}
330
D
100
AcDbXrecord
280
     1
270
     1
271
     1
  0
XRECORD
  5
13
102
{ACAD_REACTORS
330
D
102
}
330
D
100
AcDbXrecord
280
     1
270
     1
271
     1
  0
CELLSTYLEMAP
  5
217B
102
{ACAD_REACTORS
330
B00
102
}
330
B00
100
AcDbCellStyleMap
 90
        3
300
CELLSTYLE
  1
TABLEFORMAT_BEGIN
 90
        5
170
     1
 91
        0
 92
    32768
 62
   257
 93
        1
300
CONTENTFORMAT
  1
CONTENTFORMAT_BEGIN
 90
        0
 91
        0
 92
        4
 93
        0
300

 40
0.0
140
1.0
 94
        5
 62
     0
340
23
144
6.0
309
CONTENTFORMAT_END
171
     1
301
MARGIN
  1
CELLMARGIN_BEGIN
 40
1.5
 40
1.5
 40
1.5
 40
1.5
 40
0.18
 40
0.18
309
CELLMARGIN_END
 94
        6
 95
        1
302
GRIDFORMAT
  1
GRIDFORMAT_BEGIN
 90
        0
 91
        1
 62
     0
 92
       -2
340
0
 93
        0
 40
0.045
309
GRIDFORMAT_END
 95
        2
302
GRIDFORMAT
  1
GRIDFORMAT_BEGIN
 90
        0
 91
        1
 62
     0
 92
       -2
340
0
 93
        0
 40
0.045
309
GRIDFORMAT_END
 95
        4
302
GRIDFORMAT
  1
GRIDFORMAT_BEGIN
 90
        0
 91
        1
 62
     0
 92
       -2
340
0
 93
        0
 40
0.045
309
GRIDFORMAT_END
 95
        8
302
GRIDFORMAT
  1
GRIDFORMAT_BEGIN
 90
        0
 91
        1
 62
     0
 92
       -2
340
0
 93
        0
 40
0.045
309
GRIDFORMAT_END
 95
       16
302
GRIDFORMAT
  1
GRIDFORMAT_BEGIN
 90
        0
 91
        1
 62
     0
 92
       -2
340
0
 93
        0
 40
0.045
309
GRIDFORMAT_END
 95
       32
302
GRIDFORMAT
  1
GRIDFORMAT_BEGIN
 90
        0
 91
        1
 62
     0
 92
       -2
340
0
 93
        0
 40
0.045
309
GRIDFORMAT_END
309
TABLEFORMAT_END
  1
CELLSTYLE_BEGIN
 90
        1
 91
        1
300
_TITLE
309
CELLSTYLE_END
300
CELLSTYLE
  1
TABLEFORMAT_BEGIN
 90
        5
170
     1
 91
        0
 92
        0
 62
   257
 93
        1
300
CONTENTFORMAT
  1
CONTENTFORMAT_BEGIN
 90
        0
 91
        0
 92
        4
 93
        0
300

 40
0.0
140
1.0
 94
        5
 62
     0
340
23
144
4.5
309
CONTENTFORMAT_END
171
     1
301
MARGIN
  1
CELLMARGIN_BEGIN
 40
1.5
 40
1.5
 40
1.5
 40
1.5
 40
0.18
 40
0.18
309
CELLMARGIN_END
 94
        6
 95
        1
302
GRIDFORMAT
  1
GRIDFORMAT_BEGIN
 90
        0
 91
        1
 62
     0
 92
       -2
340
0
 93
        0
 40
0.045
309
GRIDFORMAT_END
 95
        2
302
GRIDFORMAT
  1
GRIDFORMAT_BEGIN
 90
        0
 91
        1
 62
     0
 92
       -2
340
0
 93
        0
 40
0.045
309
GRIDFORMAT_END
 95
        4
302
GRIDFORMAT
  1
GRIDFORMAT_BEGIN
 90
        0
 91
        1
 62
     0
 92
       -2
340
0
 93
        0
 40
0.045
309
GRIDFORMAT_END
 95
        8
302
GRIDFORMAT
  1
GRIDFORMAT_BEGIN
 90
        0
 91
        1
 62
     0
 92
       -2
340
0
 93
        0
 40
0.045
309
GRIDFORMAT_END
 95
       16
302
GRIDFORMAT
  1
GRIDFORMAT_BEGIN
 90
        0
 91
        1
 62
     0
 92
       -2
340
0
 93
        0
 40
0.045
309
GRIDFORMAT_END
 95
       32
302
GRIDFORMAT
  1
GRIDFORMAT_BEGIN
 90
        0
 91
        1
 62
     0
 92
       -2
340
0
 93
        0
 40
0.045
309
GRIDFORMAT_END
309
TABLEFORMAT_END
  1
CELLSTYLE_BEGIN
 90
        2
 91
        1
300
_HEADER
309
CELLSTYLE_END
300
CELLSTYLE
  1
TABLEFORMAT_BEGIN
 90
        5
170
     1
 91
        0
 92
        0
 62
   257
 93
        1
300
CONTENTFORMAT
  1
CONTENTFORMAT_BEGIN
 90
        0
 91
        0
 92
        4
 93
        0
300

 40
0.0
140
1.0
 94
        2
 62
     0
340
23
144
4.5
309
CONTENTFORMAT_END
171
     1
301
MARGIN
  1
CELLMARGIN_BEGIN
 40
1.5
 40
1.5
 40
1.5
 40
1.5
 40
0.18
 40
0.18
309
CELLMARGIN_END
 94
        6
 95
        1
302
GRIDFORMAT
  1
GRIDFORMAT_BEGIN
 90
        0
 91
        1
 62
     0
 92
       -2
340
0
 93
        0
 40
0.045
309
GRIDFORMAT_END
 95
        2
302
GRIDFORMAT
  1
GRIDFORMAT_BEGIN
 90
        0
 91
        1
 62
     0
 92
       -2
340
0
 93
        0
 40
0.045
309
GRIDFORMAT_END
 95
        4
302
GRIDFORMAT
  1
GRIDFORMAT_BEGIN
 90
        0
 91
        1
 62
     0
 92
       -2
340
0
 93
        0
 40
0.045
309
GRIDFORMAT_END
 95
        8
302
GRIDFORMAT
  1
GRIDFORMAT_BEGIN
 90
        0
 91
        1
 62
     0
 92
       -2
340
0
 93
        0
 40
0.045
309
GRIDFORMAT_END
 95
       16
302
GRIDFORMAT
  1
GRIDFORMAT_BEGIN
 90
        0
 91
        1
 62
     0
 92
       -2
340
0
 93
        0
 40
0.045
309
GRIDFORMAT_END
 95
       32
302
GRIDFORMAT
  1
GRIDFORMAT_BEGIN
 90
        0
 91
        1
 62
     0
 92
       -2
340
0
 93
        0
 40
0.045
309
GRIDFORMAT_END
309
TABLEFORMAT_END
  1
CELLSTYLE_BEGIN
 90
        3
 91
        2
300
_DATA
309
CELLSTYLE_END
  0
XRECORD
  5
2183
102
{ACAD_REACTORS
330
B00
102
}
330
B00
100
AcDbXrecord
280
     1
102
ACAD_ROUNDTRIP_PRE2007_TABLESTYLE
 90
        4
 91
        0
  1

 92
        4
 93
        0
  2

 94
        4
 95
        0
  3

  0
ENDSEC
  0
EOF
