  0
SECTION
  2
HEADER
  9
$ACADVER
  1
AC1015
  9
$ACADMAINTVER
 70
    20
  9
$DWGCODEPAGE
  3
ANSI_932
  9
$INSBASE
 10
0.0
 20
0.0
 30
0.0
  9
$EXTMIN
 10
7040.815607989003
 20
-808.4438341946833
 30
-0.0000000000000076
  9
$EXTMAX
 10
8862.262442694573
 20
727.6759339739109
 30
0.0000000000000076
  9
$LIMMIN
 10
0.0
 20
0.0
  9
$LIMMAX
 10
420.0
 20
297.0
  9
$ORTHOMODE
 70
     0
  9
$REGENMODE
 70
     1
  9
$FILLMODE
 70
     1
  9
$QTEXTMODE
 70
     0
  9
$MIRRTEXT
 70
     1
  9
$LTSCALE
 40
1.0
  9
$ATTMODE
 70
     1
  9
$TEXTSIZE
 40
62.5215949741746
  9
$TRACEWID
 40
1.0
  9
$TEXTSTYLE
  7
STANDARD
  9
$CLAYER
  8
SIZE
  9
$CELTYPE
  6
BYLAYER
  9
$CECOLOR
 62
   256
  9
$CELTSCALE
 40
1.0
  9
$DISPSILH
 70
     0
  9
$DIMSCALE
 40
10.0
  9
$DIMASZ
 40
2.0
  9
$DIMEXO
 40
1.0
  9
$DIMDLI
 40
3.75
  9
$DIMRND
 40
0.5
  9
$DIMDLE
 40
0.0
  9
$DIMEXE
 40
1.0
  9
$DIMTP
 40
0.0
  9
$DIMTM
 40
0.0
  9
$DIMTXT
 40
2.0
  9
$DIMCEN
 40
2.5
  9
$DIMTSZ
 40
0.0
  9
$DIMTOL
 70
     0
  9
$DIMLIM
 70
     0
  9
$DIMTIH
 70
     0
  9
$DIMTOH
 70
     0
  9
$DIMSE1
 70
     0
  9
$DIMSE2
 70
     0
  9
$DIMTAD
 70
     1
  9
$DIMZIN
 70
     8
  9
$DIMBLK
  1

  9
$DIMASO
 70
     1
  9
$DIMSHO
 70
     1
  9
$DIMPOST
  1

  9
$DIMAPOST
  1

  9
$DIMALT
 70
     0
  9
$DIMALTD
 70
     4
  9
$DIMALTF
 40
0.0394
  9
$DIMLFAC
 40
1.0
  9
$DIMTOFL
 70
     1
  9
$DIMTVP
 40
0.0
  9
$DIMTIX
 70
     0
  9
$DIMSOXD
 70
     0
  9
$DIMSAH
 70
     1
  9
$DIMBLK1
  1
OPEN30
  9
$DIMBLK2
  1
OPEN30
  9
$DIMSTYLE
  2
STANDARD
  9
$DIMCLRD
 70
     0
  9
$DIMCLRE
 70
     0
  9
$DIMCLRT
 70
     0
  9
$DIMTFAC
 40
1.0
  9
$DIMGAP
 40
1.0
  9
$DIMJUST
 70
     0
  9
$DIMSD1
 70
     0
  9
$DIMSD2
 70
     0
  9
$DIMTOLJ
 70
     1
  9
$DIMTZIN
 70
     8
  9
$DIMALTZ
 70
     0
  9
$DIMALTTZ
 70
     0
  9
$DIMUPT
 70
     0
  9
$DIMDEC
 70
     1
  9
$DIMTDEC
 70
     1
  9
$DIMALTU
 70
     8
  9
$DIMALTTD
 70
     4
  9
$DIMTXSTY
  7
STANDARD
  9
$DIMAUNIT
 70
     0
  9
$DIMADEC
 70
     0
  9
$DIMALTRND
 40
0.0
  9
$DIMAZIN
 70
     0
  9
$DIMDSEP
 70
    46
  9
$DIMATFIT
 70
     3
  9
$DIMFRAC
 70
     0
  9
$DIMLDRBLK
  1
OPEN30
  9
$DIMLUNIT
 70
     2
  9
$DIMLWD
 70
    -2
  9
$DIMLWE
 70
    -2
  9
$DIMTMOVE
 70
     0
  9
$LUNITS
 70
     2
  9
$LUPREC
 70
     2
  9
$SKETCHINC
 40
1.0
  9
$FILLETRAD
 40
10.0
  9
$AUNITS
 70
     0
  9
$AUPREC
 70
     0
  9
$MENU
  1
.
  9
$ELEVATION
 40
0.0
  9
$PELEVATION
 40
0.0
  9
$THICKNESS
 40
0.0
  9
$LIMCHECK
 70
     0
  9
$CHAMFERA
 40
10.0
  9
$CHAMFERB
 40
10.0
  9
$CHAMFERC
 40
20.0
  9
$CHAMFERD
 40
0.0
  9
$SKPOLY
 70
     0
  9
$TDCREATE
 40
2451324.468257373
  9
$TDUCREATE
 40
2451324.093257373
  9
$TDUPDATE
 40
2455891.636455185
  9
$TDUUPDATE
 40
2455891.261455185
  9
$TDINDWG
 40
2.0870333218
  9
$TDUSRTIMER
 40
2.0870322338
  9
$USRTIMER
 70
     1
  9
$ANGBASE
 50
0.0
  9
$ANGDIR
 70
     0
  9
$PDMODE
 70
     0
  9
$PDSIZE
 40
0.0
  9
$PLINEWID
 40
0.0
  9
$SPLFRAME
 70
     0
  9
$SPLINETYPE
 70
     6
  9
$SPLINESEGS
 70
     8
  9
$HANDSEED
  5
314F
  9
$SURFTAB1
 70
     6
  9
$SURFTAB2
 70
     6
  9
$SURFTYPE
 70
     6
  9
$SURFU
 70
     6
  9
$SURFV
 70
     6
  9
$UCSBASE
  2

  9
$UCSNAME
  2

  9
$UCSORG
 10
0.0
 20
0.0
 30
0.0
  9
$UCSXDIR
 10
1.0
 20
0.0
 30
0.0
  9
$UCSYDIR
 10
0.0
 20
1.0
 30
0.0
  9
$UCSORTHOREF
  2

  9
$UCSORTHOVIEW
 70
     0
  9
$UCSORGTOP
 10
0.0
 20
0.0
 30
0.0
  9
$UCSORGBOTTOM
 10
0.0
 20
0.0
 30
0.0
  9
$UCSORGLEFT
 10
0.0
 20
0.0
 30
0.0
  9
$UCSORGRIGHT
 10
0.0
 20
0.0
 30
0.0
  9
$UCSORGFRONT
 10
0.0
 20
0.0
 30
0.0
  9
$UCSORGBACK
 10
0.0
 20
0.0
 30
0.0
  9
$PUCSBASE
  2

  9
$PUCSNAME
  2

  9
$PUCSORG
 10
0.0
 20
0.0
 30
0.0
  9
$PUCSXDIR
 10
1.0
 20
0.0
 30
0.0
  9
$PUCSYDIR
 10
0.0
 20
1.0
 30
0.0
  9
$PUCSORTHOREF
  2

  9
$PUCSORTHOVIEW
 70
     0
  9
$PUCSORGTOP
 10
0.0
 20
0.0
 30
0.0
  9
$PUCSORGBOTTOM
 10
0.0
 20
0.0
 30
0.0
  9
$PUCSORGLEFT
 10
0.0
 20
0.0
 30
0.0
  9
$PUCSORGRIGHT
 10
0.0
 20
0.0
 30
0.0
  9
$PUCSORGFRONT
 10
0.0
 20
0.0
 30
0.0
  9
$PUCSORGBACK
 10
0.0
 20
0.0
 30
0.0
  9
$USERI1
 70
     0
  9
$USERI2
 70
     0
  9
$USERI3
 70
     0
  9
$USERI4
 70
     0
  9
$USERI5
 70
     0
  9
$USERR1
 40
0.0
  9
$USERR2
 40
0.0
  9
$USERR3
 40
0.0
  9
$USERR4
 40
0.0
  9
$USERR5
 40
0.0
  9
$WORLDVIEW
 70
     1
  9
$SHADEDGE
 70
     3
  9
$SHADEDIF
 70
    70
  9
$TILEMODE
 70
     1
  9
$MAXACTVP
 70
    48
  9
$PINSBASE
 10
0.0
 20
0.0
 30
0.0
  9
$PLIMCHECK
 70
     0
  9
$PEXTMIN
 10
-1439.804583653114
 20
-1400.237631316938
 30
0.0
  9
$PEXTMAX
 10
2872.968780515991
 20
1675.790811506817
 30
0.0
  9
$PLIMMIN
 10
0.0
 20
0.0
  9
$PLIMMAX
 10
12.0
 20
9.0
  9
$UNITMODE
 70
     0
  9
$VISRETAIN
 70
     1
  9
$PLINEGEN
 70
     0
  9
$PSLTSCALE
 70
     1
  9
$TREEDEPTH
 70
  3020
  9
$CMLSTYLE
  2
STANDARD
  9
$CMLJUST
 70
     0
  9
$CMLSCALE
 40
20.0
  9
$PROXYGRAPHICS
 70
     1
  9
$MEASUREMENT
 70
     1
  9
$CELWEIGHT
370
    -1
  9
$ENDCAPS
280
     0
  9
$JOINSTYLE
280
     0
  9
$LWDISPLAY
290
     0
  9
$INSUNITS
 70
     0
  9
$HYPERLINKBASE
  1

  9
$STYLESHEET
  1

  9
$XEDIT
290
     1
  9
$CEPSNTYPE
380
     0
  9
$PSTYLEMODE
290
     1
  9
$FINGERPRINTGUID
  2
{7B48495B-9D62-4076-8CB1-8ACA882609AE}
  9
$VERSIONGUID
  2
{9B62F0FE-C262-477F-AF26-387D3DFDF6E0}
  9
$EXTNAMES
290
     1
  9
$PSVPSCALE
 40
0.0
  9
$OLESTARTUP
290
     0
  0
ENDSEC
  0
SECTION
  2
CLASSES
  0
CLASS
  1
ACDBDICTIONARYWDFLT
  2
AcDbDictionaryWithDefault
  3
ObjectDBX Classes
 90
        0
280
     0
281
     0
  0
CLASS
  1
ACDBPLACEHOLDER
  2
AcDbPlaceHolder
  3
ObjectDBX Classes
 90
        0
280
     0
281
     0
  0
CLASS
  1
LAYOUT
  2
AcDbLayout
  3
ObjectDBX Classes
 90
        0
280
     0
281
     0
  0
CLASS
  1
ACME_DOCUMENT
  2
AcMeDbDoc
  3
AcMeServices
 90
     1024
280
     0
281
     0
  0
CLASS
  1
AMGSETTINGSOBJ
  2
AmgSettingsObj
  3
"AcadM|Product Description: AutoCAD Mechanical|Company: Autodesk, Inc."
 90
     1024
280
     0
281
     0
  0
CLASS
  1
ACMESCOPE
  2
AcMeScope
  3
AcMeServices
 90
     1024
280
     0
281
     0
  0
CLASS
  1
ACMECOMMANDHISTORY
  2
AcMeCommandHistory
  3
AcMeServices
 90
     1024
280
     0
281
     0
  0
CLASS
  1
DICTIONARYVAR
  2
AcDbDictionaryVar
  3
ObjectDBX Classes
 90
        0
280
     0
281
     0
  0
CLASS
  1
ACIMSYSVARMAN
  2
AcImSysVarManager
  3
AcMeServices
 90
     1024
280
     0
281
     0
  0
CLASS
  1
ACIMREALSYSVAR
  2
AcImRealSysVar
  3
AcMeServices
 90
     1024
280
     0
281
     0
  0
CLASS
  1
ACIMINTSYSVAR
  2
AcImIntSysVar
  3
AcMeServices
 90
     1024
280
     0
281
     0
  0
CLASS
  1
ACMEDRAWINGMAN
  2
AcMeDrawingMan
  3
AcMeServices
 90
     1024
280
     0
281
     0
  0
CLASS
  1
ACMEVIEW
  2
AcMeView
  3
AcMeServices
 90
     1024
280
     0
281
     0
  0
CLASS
  1
ACDBENTITYCACHE
  2
AcMeEntityCache
  3
AcMeServices
 90
     1024
280
     0
281
     0
  0
CLASS
  1
GSMANAGER
  2
AcMeGSManager
  3
AcMeServices
 90
     1024
280
     0
281
     0
  0
CLASS
  1
AMDTINTERNALREACTOR
  2
AmdtInternalReactor
  3
AcMeServices
 90
     1024
280
     0
281
     0
  0
CLASS
  1
ACMESTATEMGR
  2
AcMeStateMgr
  3
AcMeServices
 90
     1024
280
     0
281
     0
  0
CLASS
  1
ACGREFMASTER
  2
AcGrefMaster
  3
AcAttribServices
 90
     1024
280
     0
281
     0
  0
CLASS
  1
AM_DRAWING_MGR
  2
AcDmDwgMgr
  3
AcMechDwgViewMgmt
 90
     1024
280
     0
281
     0
  0
CLASS
  1
AM_DWG_DOCUMENT
  2
AcDmDwgDocument
  3
AcMechDwgViewMgmt
 90
     1024
280
     0
281
     0
  0
CLASS
  1
AM_DWG_SHEET
  2
AcDmSheet
  3
AcMechDwgViewMgmt
 90
     1024
280
     0
281
     0
  0
CLASS
  1
AM_VIEWDIMPARMAP
  2
AcDmViewDimParMap
  3
AcMechDwgViewMgmt
 90
     1024
280
     0
281
     0
  0
CLASS
  1
AM_DWGMGR_NAME
  2
AcDmDwgMgrName
  3
AcMechDwgViewMgmt
 90
     1024
280
     0
281
     0
  0
CLASS
  1
ACME_DATABASE
  2
AcMeDbDatabase
  3
AcMeServices
 90
     1024
280
     0
281
     0
  0
CLASS
  1
ACRFINSADJUSTERMGR
  2
AcRfInsAdjusterMgr
  3
AcMeServices
 90
     1024
280
     0
281
     0
  0
CLASS
  1
ACGREFACADMASTER
  2
AcGrefacadMaster
  3
AcGrefServices
 90
     1024
280
     0
281
     0
  0
CLASS
  1
AMDTMENUSTATEMGR
  2
AmdtMenuStateMgr
  3
McadcomServices
 90
     1024
280
     0
281
     0
  0
CLASS
  1
AMDTMCOMMENUSTATE
  2
AmdtMcomMenuState
  3
McadcomServices
 90
     1024
280
     0
281
     0
  0
CLASS
  1
AMIMASTER
  2
AmiMaster
  3
AmiServices
 90
     1024
280
     0
281
     0
  0
CLASS
  1
ASAPP
  2
AcAsAppObject
  3
AutoSurfServices
 90
     1024
280
     0
281
     0
  0
CLASS
  1
IM_STATIC_MAN
  2
AcImStaticVarManager
  3
AcMeServices
 90
     1024
280
     0
281
     0
  0
CLASS
  1
ACIMSTRSYSVAR
  2
AcImStrSysVar
  3
AcMeServices
 90
     1024
280
     0
281
     0
  0
CLASS
  1
ACIMDBLSTATICVAR
  2
AcImDblStaticVar
  3
AcMeServices
 90
     1024
280
     0
281
     0
  0
CLASS
  1
ACIMSTRSTATICVAR
  2
AcImStrStaticVar
  3
AcMeServices
 90
     1024
280
     0
281
     0
  0
CLASS
  1
ACIMINTSTATICVAR
  2
AcImIntStaticVar
  3
AcMeServices
 90
     1024
280
     0
281
     0
  0
CLASS
  1
ACASGREFMASTER
  2
AcAsGrefMaster
  3
AutoSurfResolverServices
 90
     1024
280
     0
281
     0
  0
CLASS
  1
ACADGREFMODULE
  2
AcAdGrefModule
  3
AdGrefServices
 90
     1024
280
     0
281
     0
  0
CLASS
  1
AMDTMAPISURFMOUDULE
  2
AmdtMApiSurfModule
  3
MApiSurfServices
 90
    33792
280
     0
281
     0
  0
CLASS
  1
MAPIAMMOUDLE
  2
MApiAmModule
  3
MApiAmServices
 90
     1024
280
     0
281
     0
  0
CLASS
  1
AMDTADMENUSTATE
  2
AmdtAdMenuState
  3
DesignerServices
 90
     1024
280
     0
281
     0
  0
CLASS
  1
ADAPPL
  2
AcAdAppl
  3
DesignerServices
 90
     1024
280
     0
281
     0
  0
CLASS
  1
DEPMGR
  2
AcAdDepMgr
  3
DesignerServices
 90
     1024
280
     0
281
     0
  0
CLASS
  1
PARAMMGR
  2
AcAdParamMgr
  3
DesignerServices
 90
     1024
280
     0
281
     0
  0
CLASS
  1
PARAMSCOPE
  2
AcAdParamScope
  3
DesignerServices
 90
     1024
280
     0
281
     0
  0
CLASS
  1
NAMEDAPPL
  2
AcAdNamedAppl
  3
DesignerServices
 90
     1024
280
     0
281
     0
  0
CLASS
  1
ADHNTMPLT
  2
AdHoleNoteTemplateMgr
  3
DesignerServices
 90
    33792
280
     0
281
     0
  0
CLASS
  1
AM_HNTEMPLATE_MGR_NAME
  2
AdHoleNoteTemplateMgrName
  3
DesignerServices
 90
    33792
280
     0
281
     0
  0
CLASS
  1
AMDTDMMENUSTATE
  2
AmdtDmMenuState
  3
AcMechDwgViewMgmt
 90
     1024
280
     0
281
     0
  0
CLASS
  1
MAPIADMODULE
  2
MApiAdModule
  3
MApiAdServices
 90
     1024
280
     0
281
     0
  0
CLASS
  1
AMDTAMMENUSTATE
  2
AmdtAmMenuState
  3
DesignerAssemblies
 90
     1024
280
     0
281
     0
  0
CLASS
  1
ACAMPROJECT
  2
AcAmProject
  3
DesignerAssemblies
 90
     1024
280
     0
281
     0
  0
CLASS
  1
ACAMGRCOMPDEF
  2
AcAmGrCompDef
  3
DesignerAssemblies
 90
     1024
280
     0
281
     0
  0
CLASS
  1
ACCMCONTEXT
  2
AcCmContext
  3
DesignerAssemblies
 90
     1024
280
     0
281
     0
  0
CLASS
  1
ACAMCOMPDEF
  2
AcAmCompDef
  3
DesignerAssemblies
 90
     1024
280
     0
281
     0
  0
CLASS
  1
ACAMCOMPDEFMGR
  2
AcAmCompDefMgr
  3
DesignerAssemblies
 90
     1024
280
     0
281
     0
  0
CLASS
  1
AMCONTEXTMGR
  2
AcAmContextMgr
  3
DesignerAssemblies
 90
     1024
280
     0
281
     0
  0
CLASS
  1
ACAMCONTEXTMODELER
  2
AcAmContextModeler
  3
DesignerAssemblies
 90
     1024
280
     0
281
     0
  0
CLASS
  1
ACMDATADICTIONARY
  2
AcmDataDictionary
  3
"AcmSymBB|Product Description: AutoCAD Mechanical|Company: Autodesk, Inc."
 90
     1024
280
     0
281
     0
  0
CLASS
  1
ACMDATAENTRYBLOCK
  2
AcmDataEntryBlock
  3
AcmSymBB|Product Description: AutoCAD Mechanical|Company: Autodesk, Inc.
 90
     1024
280
     0
281
     0
  0
CLASS
  1
CATALOGSTATE
  2
AcAmCatalogState
  3
DesignerAssemblies
 90
     1024
280
     0
281
     0
  0
CLASS
  1
ACAMGRCOMPDEFSET
  2
AcAmGrCompDefSet
  3
DesignerAssemblies
 90
     1024
280
     0
281
     0
  0
CLASS
  1
AMDTBROWSERDBTAB
  2
AmdtBrowserDbTab
  3
McadcomServices
 90
     1024
280
     0
281
     0
  0
CLASS
  1
CBROWSERAPPOBJECT
  2
CBrowserAppObject
  3
McadcomServices
 90
     1024
280
     0
281
     0
  0
CLASS
  1
DM_PLACEHOLDER
  2
AcDmSelsetPlaceholder
  3
AcMechDwgViewMgmt
 90
     1024
280
     0
281
     0
  0
CLASS
  1
ACMSTANDARDISO
  2
AcmStandardISO
  3
"Amdt_StdImp|Product Description: AutoCAD Mechanical|Company: Autodesk, Inc."
 90
     1024
280
     0
281
     0
  0
CLASS
  1
AMGOBJPROPCFG
  2
AmgObjPropCfg
  3
"AmgLay|Product Description: AutoCAD Mechanical|Company: Autodesk, Inc."
 90
     1025
280
     0
281
     0
  0
CLASS
  1
AMDTEDGESTANDARDISO
  2
AmdtEdgeStdISO
  3
"Amdt_StdImp|Product Description: AutoCAD Mechanical|Company: Autodesk, Inc."
 90
    33792
280
     0
281
     0
  0
CLASS
  1
ACMSURFSTANDARDISO
  2
AcmSurfTextStdISO
  3
"Amdt_StdImp|Product Description: AutoCAD Mechanical|Company: Autodesk, Inc."
 90
    33792
280
     0
281
     0
  0
CLASS
  1
ACMFCFSTANDARDISO
  2
AcmFCFStdISO
  3
"Amdt_StdImp|Product Description: AutoCAD Mechanical|Company: Autodesk, Inc."
 90
     1024
280
     0
281
     0
  0
CLASS
  1
ACMWELDSTANDARDISO
  2
AcmWeldingStdISO
  3
"Amdt_StdImp|Product Description: AutoCAD Mechanical|Company: Autodesk, Inc."
 90
     1024
280
     0
281
     0
  0
CLASS
  1
ACMIDSTANDARDISO
  2
AcmIdStdISO
  3
"Amdt_StdImp|Product Description: AutoCAD Mechanical|Company: Autodesk, Inc."
 90
     1024
280
     0
281
     0
  0
CLASS
  1
ACMDATUMSTANDARDISO
  2
AcmDatumStdISO
  3
"Amdt_StdImp|Product Description: AutoCAD Mechanical|Company: Autodesk, Inc."
 90
     1024
280
     0
281
     0
  0
CLASS
  1
ACMBOMSTANDARDISO
  2
AcmBOMStdISO
  3
"Amdt_StdImp|Product Description: AutoCAD Mechanical|Company: Autodesk, Inc."
 90
     1024
280
     0
281
     0
  0
CLASS
  1
ACMDETAILSTANDARDISO
  2
AmdtDetailSymStdISO
  3
"Amdt_StdImp|Product Description: AutoCAD Mechanical|Company: Autodesk, Inc."
 90
     1024
280
     0
281
     0
  0
CLASS
  1
ACMSECTIONSTANDARDISO
  2
AmdtSectionSymStdISO
  3
"Amdt_StdImp|Product Description: AutoCAD Mechanical|Company: Autodesk, Inc."
 90
    33792
280
     0
281
     0
  0
CLASS
  1
ACMCENTERLINESTANDARDISO
  2
AmdtCenterLineStdISO
  3
"Amdt_StdImp|Product Description: AutoCAD Mechanical|Company: Autodesk, Inc."
 90
     1024
280
     0
281
     0
  0
CLASS
  1
ACMTHREADLINESTANDARDISO
  2
AmdtThreadLineStdISO
  3
"Amdt_StdImp|Product Description: AutoCAD Mechanical|Company: Autodesk, Inc."
 90
     1024
280
     0
281
     0
  0
CLASS
  1
ACAMGLAYSTD
  2
AcAmgLayStd
  3
"AmgLay|Product Description: AutoCAD Mechanical|Company: Autodesk, Inc."
 90
     1024
280
     0
281
     0
  0
CLASS
  1
ACAMGDIMSTD
  2
AcAmgDimStd
  3
"AmgDim|Product Description: AutoCAD Mechanical|Company: Autodesk, Inc."
 90
     1024
280
     0
281
     0
  0
CLASS
  1
ACAMGTITLESTD
  2
AcAmgTitleStd
  3
"AmgTitle|Product Description: AutoCAD Mechanical|Company: Autodesk, Inc."
 90
     4095
280
     0
281
     0
  0
CLASS
  1
ACAMGFILTERDAT
  2
AcAmgFilterDat
  3
"AcadM|Product Description: AutoCAD Mechanical|Company: Autodesk, Inc."
 90
     1024
280
     0
281
     0
  0
CLASS
  1
AMDTFORMULAUPDATEDISPATCHER
  2
AmdtFormulaUpdateDispatcher
  3
AcMeServices
 90
    33792
280
     0
281
     0
  0
CLASS
  1
LAYER_INDEX
  2
AcDbLayerIndex
  3
ObjectDBX Classes
 90
        0
280
     0
281
     0
  0
CLASS
  1
IDBUFFER
  2
AcDbIdBuffer
  3
ObjectDBX Classes
 90
        0
280
     0
281
     0
  0
CLASS
  1
TABLESTYLE
  2
AcDbTableStyle
  3
ObjectDBX Classes
 90
     4095
280
     0
281
     0
  0
CLASS
  1
ACMNOTESTANDARDISO
  2
AmdtNoteStdISO
  3
"Amdt_StdImp|Product Description: AutoCAD Mechanical|Company: Autodesk, Inc."
 90
     1024
280
     0
281
     0
  0
CLASS
  1
AMDTNOTETEMPLATEDB
  2
AmdtNoteTemplateDB
  3
AcmSymBB|Product Description: AutoCAD Mechanical|Company: Autodesk, Inc.
 90
     1024
280
     0
281
     0
  0
CLASS
  1
ACAMEXTERNALCOMPDEF
  2
AcAmExternalCompDef
  3
DesignerAssemblies
 90
    33792
280
     0
281
     0
  0
CLASS
  1
ACCMBODY
  2
AcCmBody
  3
DesignerAssemblies
 90
    33792
280
     0
281
     0
  0
CLASS
  1
ACAMCOMPENT
  2
AcAmCompEnt
  3
DesignerAssemblies
 90
    33792
280
     0
281
     1
  0
CLASS
  1
ACAMCOMPFEEDBACK
  2
AcAmCompFeedback
  3
DesignerAssemblies
 90
    33792
280
     0
281
     0
  0
CLASS
  1
ACAMCOMP
  2
AcAmComp
  3
DesignerAssemblies
 90
    33792
280
     0
281
     0
  0
CLASS
  1
ACAMCOMPENTCLONE
  2
AcAmCompEntClone
  3
DesignerAssemblies
 90
    33792
280
     0
281
     1
  0
CLASS
  1
ACAMCLONEREACTOR
  2
AcAmGrCompCloneReactor
  3
DesignerAssemblies
 90
    33792
280
     0
281
     0
  0
CLASS
  1
EDGEID
  2
AcAdEdgeId
  3
DesignerServices
 90
    33792
280
     0
281
     0
  0
CLASS
  1
ACADPARTLINEDGRES
  2
AcAdPartLinEdgRes
  3
AdGrefServices
 90
    33792
280
     0
281
     0
  0
CLASS
  1
ACRFINSADJ
  2
AcRfInsAdjuster
  3
AcMeServices
 90
    33792
280
     0
281
     0
  0
CLASS
  1
STREFID
  2
AcAdStraightRefId
  3
DesignerServices
 90
    33792
280
     0
281
     0
  0
CLASS
  1
ACMEAXIS
  2
AcImAxisDisplay
  3
AcMeServices
 90
    33792
280
     0
281
     1
  0
CLASS
  1
FACEID
  2
AcAdFaceId
  3
DesignerServices
 90
    33792
280
     0
281
     0
  0
CLASS
  1
DEPEDGESECONDARYDEPID
  2
AcAdDepEdgeSecondaryDepId
  3
DesignerServices
 90
    33792
280
     0
281
     0
  0
CLASS
  1
ACADPARTPLANARFACERES
  2
AcAdPartPlanarFaceRes
  3
AdGrefServices
 90
    33792
280
     0
281
     0
  0
CLASS
  1
ACMEPOINT
  2
AcImPointDisplay
  3
AcMeServices
 90
    33792
280
     0
281
     1
  0
CLASS
  1
ACMELINEARARROW
  2
AcImLinearArrowDisplay
  3
AcMeServices
 90
    33792
280
     0
281
     1
  0
CLASS
  1
ACAMEXPR
  2
AcAmExpr
  3
DesignerAssemblies
 90
    33792
280
     0
281
     0
  0
CLASS
  1
ACCMDISTPLPL
  2
AcCmDistPlPl
  3
DesignerAssemblies
 90
    33792
280
     0
281
     0
  0
CLASS
  1
ACCMCONSTREACTOR
  2
AcCmConstraintReactor
  3
DesignerAssemblies
 90
    33792
280
     0
281
     0
  0
CLASS
  1
ACCMDISTPTLN
  2
AcCmDistPtLn
  3
DesignerAssemblies
 90
    33792
280
     0
281
     0
  0
CLASS
  1
AM_VIEW_SELECT_FILTER
  2
AcDmSelectViewEntFilter
  3
AcMechDwgViewMgmt
 90
    33792
280
     0
281
     0
  0
CLASS
  1
AM_GREF_PLANE
  2
AcDmGrefPlnDef
  3
AcMechDwgViewMgmt
 90
    33792
280
     0
281
     0
  0
CLASS
  1
AM_GREF_AXIS
  2
AcDmGrefAxisDef
  3
AcMechDwgViewMgmt
 90
    33792
280
     0
281
     0
  0
CLASS
  1
AM_BASE_VIEW_ORIENT
  2
AcDmBaseViewOr
  3
AcMechDwgViewMgmt
 90
    33792
280
     0
281
     0
  0
CLASS
  1
AM_DWG_VIEWPORT
  2
AcDmViewport
  3
AcMechDwgViewMgmt
 90
    33792
280
     0
281
     0
  0
CLASS
  1
AM_VIEW_DISPLAY
  2
AcDmDwgViewDisplay
  3
AcMechDwgViewMgmt
 90
    33792
280
     0
281
     0
  0
CLASS
  1
AM_CLDFLTS
  2
AcDmClDflts
  3
AcMechDwgViewMgmt
 90
    33792
280
     0
281
     0
  0
CLASS
  1
AM_BASE_VIEW
  2
AcDmBaseView
  3
AcMechDwgViewMgmt
 90
    33792
280
     0
281
     0
  0
CLASS
  1
ACMEPLINE
  2
AcImPlineDisplay
  3
AcMeServices
 90
    33792
280
     0
281
     1
  0
CLASS
  1
ACDMPARTVIEWDATA
  2
AcDmPartViewData
  3
AcMechDwgViewMgmt
 90
    33792
280
     0
281
     0
  0
CLASS
  1
ACDMDISPLAYATTRIBS
  2
AcDmDisplayAttribs
  3
AcMechDwgViewMgmt
 90
    33792
280
     0
281
     0
  0
CLASS
  1
ACDMBODYINSTANCEDATA
  2
AcDmBodyInstanceData
  3
AcMechDwgViewMgmt
 90
    33792
280
     0
281
     0
  0
CLASS
  1
ACDMVWEDLINE
  2
AcDmViewEdgeLine
  3
AcMechDwgViewMgmt
 90
    33792
280
     0
281
     1
  0
CLASS
  1
ACDMVWEDARC
  2
AcDmViewEdgeArc
  3
AcMechDwgViewMgmt
 90
    33792
280
     0
281
     1
  0
CLASS
  1
AM_ISO_VIEW_ORIENT
  2
AcDmIsoViewOr
  3
AcMechDwgViewMgmt
 90
    33792
280
     0
281
     0
  0
CLASS
  1
AM_ISO_VIEW
  2
AcDmIsoView
  3
AcMechDwgViewMgmt
 90
    33792
280
     0
281
     0
  0
CLASS
  1
AM_ORTHO_VIEW_ORIENT
  2
AcDmOrthoViewOr
  3
AcMechDwgViewMgmt
 90
    33792
280
     0
281
     0
  0
CLASS
  1
AM_ORTHO_VIEW
  2
AcDmOrthoView
  3
AcMechDwgViewMgmt
 90
    33792
280
     0
281
     0
  0
CLASS
  1
ACAMVIEWREACTOR
  2
AcAmViewReactor
  3
DesignerAssemblies
 90
    33792
280
     0
281
     0
  0
CLASS
  1
AMVIEW
  2
AcAmView
  3
DesignerAssemblies
 90
    33792
280
     0
281
     0
  0
CLASS
  1
ACAMVIEWCONTEXT
  2
AcAmViewContext
  3
DesignerAssemblies
 90
    33792
280
     0
281
     0
  0
CLASS
  1
ACAMCOMPENTVIEW
  2
AcAmCompEntView
  3
DesignerAssemblies
 90
    33792
280
     0
281
     1
  0
CLASS
  1
ACAMCOMPVIEWREACTOR
  2
AcAmGrCompViewReactor
  3
DesignerAssemblies
 90
    33792
280
     0
281
     0
  0
CLASS
  1
ACAMVIEWENTITYFILTER
  2
AcAmViewEntityFilter
  3
DesignerAssemblies
 90
    33792
280
     0
281
     0
  0
CLASS
  1
ACDMVWEDCIRC
  2
AcDmViewEdgeCircle
  3
AcMechDwgViewMgmt
 90
    33792
280
     0
281
     1
  0
CLASS
  1
AM_ADCIRCTRLINE
  2
AcAdBullsEyeCl
  3
DesignerServices
 90
    33792
280
     0
281
     0
  0
CLASS
  1
AM_ADLINCTRLINE
  2
AcAdLineCl
  3
DesignerServices
 90
    33792
280
     0
281
     0
  0
CLASS
  1
ACDMVIEWGEOM
  2
AcDmViewGeometry
  3
AcMechDwgViewMgmt
 90
    33792
280
     0
281
     1
  0
CLASS
  1
ACCMDISTLNLN
  2
AcCmDistLnLn
  3
DesignerAssemblies
 90
    33792
280
     0
281
     0
  0
CLASS
  1
ACAMXREFCONTEXTMODELER
  2
AcAmXrefContextModeler
  3
DesignerAssemblies
 90
    33792
280
     0
281
     0
  0
CLASS
  1
CNRREFID
  2
AcAdCornerId
  3
DesignerServices
 90
    33792
280
     0
281
     0
  0
CLASS
  1
ACADPARTPOINTRES
  2
AcAdPartPointRes
  3
AdGrefServices
 90
    33792
280
     0
281
     0
  0
CLASS
  1
AM_VIEWDIMLINEAR
  2
AcDmViewDimLinear
  3
AcMechDwgViewMgmt
 90
    33792
280
     0
281
     0
  0
CLASS
  1
PARAM
  2
AcAdParam
  3
DesignerServices
 90
    33792
280
     0
281
     0
  0
CLASS
  1
SORTENTSTABLE
  2
AcDbSortentsTable
  3
ObjectDBX Classes
 90
        0
280
     0
281
     0
  0
CLASS
  1
ACADPARTCIRCEDGRES
  2
AcAdPartCircEdgRes
  3
AdGrefServices
 90
    33792
280
     0
281
     0
  0
CLASS
  1
AM_VIEWDIMRADIUS
  2
AcDmViewDimRadius
  3
AcMechDwgViewMgmt
 90
    33792
280
     0
281
     0
  0
CLASS
  1
DEPEDGEPATTERNINSTANCE
  2
AcAdDepEdgePatternInstance
  3
DesignerServices
 90
    33792
280
     0
281
     0
  0
CLASS
  1
FEEDBACK
  2
AcAmFeedback
  3
DesignerAssemblies
 90
    33792
280
     0
281
     1
  0
CLASS
  1
ACAMTRIAXISSYMBOL
  2
AcAmTriAxisSymbol
  3
DesignerAssemblies
 90
    33792
280
     0
281
     0
  0
CLASS
  1
ACAMTEXTCIRCLESYMBOL
  2
AcAmTextCircleSymbol
  3
DesignerAssemblies
 90
    33792
280
     0
281
     0
  0
CLASS
  1
ACDMVISEDIT
  2
AcDmViewEntityVisEdit
  3
AcMechDwgViewMgmt
 90
    33792
280
     0
281
     0
  0
CLASS
  1
SILEDGEID
  2
AcAdSilhouetteEdgeId
  3
DesignerServices
 90
    33792
280
     0
281
     0
  0
CLASS
  1
MATERIAL
  2
AcDbMaterial
  3
ObjectDBX Classes
 90
     1153
280
     0
281
     0
  0
CLASS
  1
VISUALSTYLE
  2
AcDbVisualStyle
  3
ObjectDBX Classes
 90
     4095
280
     0
281
     0
  0
CLASS
  1
SCALE
  2
AcDbScale
  3
ObjectDBX Classes
 90
     1153
280
     0
281
     0
  0
CLASS
  1
MLEADERSTYLE
  2
AcDbMLeaderStyle
  3
ACDB_MLEADERSTYLE_CLASS
 90
     4095
280
     0
281
     0
  0
CLASS
  1
EXACTERMXREFMAP
  2
ExAcTermXrefMap
  3
EXAC_SERVICE
 90
    33793
280
     0
281
     0
  0
CLASS
  1
NPOCOLLECTION
  2
AcDbImpNonPersistentObjectsCollection
  3
ObjectDBX Classes
 90
     1153
280
     0
281
     0
  0
CLASS
  1
ACRFATTGENMGR
  2
AcRfAttGeneralMgr
  3
AcAttribServices
 90
     1024
280
     0
281
     0
  0
CLASS
  1
ACRFOBJATTMGR
  2
AcRfObjAttGroupMgr
  3
AcAttribServices
 90
     1024
280
     0
281
     0
  0
CLASS
  1
ACRFMCADAPIATTHOLDER
  2
AcRfMCADAPIAttHolder
  3
AcAttribServices
 90
     1024
280
     0
281
     0
  0
CLASS
  1
AMDTSYSATTR
  2
AmdtSystemAttribute
  3
AcAttribServices
 90
     1024
280
     0
281
     0
  0
CLASS
  1
ACMTAPERSTANDARDISO
  2
AcmTaperStdISO
  3
"Amdt_StdImp|Product Description: AutoCAD Mechanical|Company: Autodesk, Inc."
 90
     1024
280
     0
281
     0
  0
CLASS
  1
ACMANOOTATIONVIEWSTANDARDISO
  2
AmdtAnViewStdISO
  3
"Amdt_StdImp|Product Description: AutoCAD Mechanical|Company: Autodesk, Inc."
 90
     1024
280
     0
281
     0
  0
CLASS
  1
SOLID_BACKGROUND
  2
AcDbSolidBackground
  3
SCENEOE
 90
     4095
280
     0
281
     0
  0
CLASS
  1
CELLSTYLEMAP
  2
AcDbCellStyleMap
  3
ObjectDBX Classes
 90
     1152
280
     0
281
     0
  0
CLASS
  1
AM_ABS_AXIS
  2
AcDmAbsAxisDef
  3
AcMechDwgViewMgmt
 90
    33792
280
     0
281
     0
  0
CLASS
  1
AM_ABS_PLANE
  2
AcDmAbsPlnDef
  3
AcMechDwgViewMgmt
 90
    33792
280
     0
281
     0
  0
CLASS
  1
MULTILEADER
  2
AcDbMLeader
  3
ACDB_MLEADER_CLASS
 90
     1025
280
     0
281
     1
  0
CLASS
  1
AMDTEDGESTANDARDISO13715
  2
AmdtEdgeStdISO13715
  3
"Amdt_StdImp|Product Description: AutoCAD Mechanical|Company: Autodesk, Inc."
 90
     1024
280
     0
281
     0
  0
CLASS
  1
ACMSURFSTANDARDISO2002
  2
AcmSurfTextStdISO2002
  3
"Amdt_StdImp|Product Description: AutoCAD Mechanical|Company: Autodesk, Inc."
 90
     1024
280
     0
281
     0
  0
CLASS
  1
ACMSECTIONSTANDARDISO2001
  2
AmdtSectionSymStdISO2001
  3
"Amdt_StdImp|Product Description: AutoCAD Mechanical|Company: Autodesk, Inc."
 90
     1024
280
     0
281
     0
  0
CLASS
  1
ACAMGHOLECHARTSTDISO
  2
AcAmgHoleChartStdISO
  3
AmgDim|Product Description: AutoCAD Mechanical|Company: Autodesk, Inc.
 90
     1024
280
     0
281
     0
  0
ENDSEC
  0
SECTION
  2
TABLES
  0
TABLE
  2
VPORT
  5
2A
330
0
100
AcDbSymbolTable
 70
     1
  0
VPORT
  5
BB9
330
2A
100
AcDbSymbolTableRecord
100
AcDbViewportTableRecord
  2
*Active
 70
     0
 10
0.0
 20
0.0
 11
1.0
 21
1.0
 12
-768.3980147196962
 22
516.8452014975842
 13
0.0
 23
0.0
 14
10.0
 24
10.0
 15
10.0
 25
10.0
 16
0.0
 26
0.0
 36
1548.114840219091
 17
8719.937040061484
 27
-557.2291516079705
 37
0.0
 40
1545.740560036038
 41
1.672936259143155
 42
50.0
 43
0.0
 44
0.0
 50
0.0
 51
0.0
 71
     0
 72
  2000
 73
     1
 74
     0
 75
     0
 76
     0
 77
     0
 78
     0
281
     4
 65
     0
110
0.0
120
0.0
130
0.0
111
1.0
121
0.0
131
0.0
112
0.0
122
1.0
132
0.0
 79
     0
146
0.0
  0
ENDTAB
  0
TABLE
  2
LTYPE
  5
25
330
0
100
AcDbSymbolTable
 70
    12
  0
LTYPE
  5
26
330
25
100
AcDbSymbolTableRecord
100
AcDbLinetypeTableRecord
  2
BYBLOCK
 70
     0
  3

 72
    65
 73
     0
 40
0.0
  0
LTYPE
  5
27
330
25
100
AcDbSymbolTableRecord
100
AcDbLinetypeTableRecord
  2
BYLAYER
 70
     0
  3

 72
    65
 73
     0
 40
0.0
  0
LTYPE
  5
14
330
25
100
AcDbSymbolTableRecord
100
AcDbLinetypeTableRecord
  2
CONTINUOUS
 70
     0
  3
Solid line
 72
    65
 73
     0
 40
0.0
  0
LTYPE
  5
81
330
25
100
AcDbSymbolTableRecord
100
AcDbLinetypeTableRecord
  2
HIDDEN
 70
     0
  3
Hidden __ __ __ __ __ __ __ __ __ __ __ __ __ _
 72
    65
 73
     2
 40
0.375
 49
0.25
 74
     0
 49
-0.125
 74
     0
  0
LTYPE
  5
624
330
25
100
AcDbSymbolTableRecord
100
AcDbLinetypeTableRecord
  2
AM_ISO08W050
 70
     0
  3
____ . ____ . ____ . ____ . ____ . ____ . ____
 72
    65
 73
     4
 40
18.0
 49
12.0
 74
     0
 49
-1.5
 74
     0
 49
3.0
 74
     0
 49
-1.5
 74
     0
  0
LTYPE
  5
C0F
330
25
100
AcDbSymbolTableRecord
100
AcDbLinetypeTableRecord
  2
DASHDOT
 70
     0
  3
____ _ ____ _ ____ _ ____ _ ____ _ ____ _ ____
 72
    65
 73
     4
 40
5.5
 49
4.0
 74
     0
 49
-0.6
 74
     0
 49
0.3
 74
     0
 49
-0.6
 74
     0
  0
LTYPE
  5
171D
330
25
100
AcDbSymbolTableRecord
100
AcDbLinetypeTableRecord
  2
PHANTOM2
 70
     0
  3
Phantom (.5x) ___ _ _ ___ _ _ ___ _ _ ___ _ _
 72
    65
 73
     6
 40
31.75
 49
15.875
 74
     0
 49
-3.174999999999998
 74
     0
 49
3.174999999999998
 74
     0
 49
-3.174999999999998
 74
     0
 49
3.174999999999998
 74
     0
 49
-3.174999999999998
 74
     0
  0
LTYPE
  5
171E
330
25
100
AcDbSymbolTableRecord
100
AcDbLinetypeTableRecord
  2
CENTER
 70
     0
  3
Center ____ _ ____ _ ____ _ ____ _ ____ _ ____
 72
    65
 73
     4
 40
50.8
 49
31.75
 74
     0
 49
-6.349999999999997
 74
     0
 49
6.349999999999997
 74
     0
 49
-6.349999999999997
 74
     0
  0
LTYPE
  5
176C
330
25
100
AcDbSymbolTableRecord
100
AcDbLinetypeTableRecord
  2
ASULTYPE
 70
     0
  3
実線
 72
    65
 73
     2
 40
3.0
 49
2.5
 74
     0
 49
0.5
 74
     0
  0
LTYPE
  5
176D
330
25
100
AcDbSymbolTableRecord
100
AcDbLinetypeTableRecord
  2
ASVLTYPE
 70
     0
  3
__ __ __ __ __ __ __ __ __ __ __ __ __ __ __ __ __ __ __ __ __
 72
    65
 73
     2
 40
0.75
 49
0.5
 74
     0
 49
-0.25
 74
     0
  0
LTYPE
  5
17C1
330
25
100
AcDbSymbolTableRecord
100
AcDbLinetypeTableRecord
  2
ACISOWELD
 70
     0
  3
_ _ _ _ _
 72
    65
 73
     2
 40
2.0
 49
2.0
 74
     0
 49
-1.0
 74
     0
  0
LTYPE
  5
17C2
330
25
100
AcDbSymbolTableRecord
100
AcDbLinetypeTableRecord
  2
ACISOTGB
 70
     0
  3
__ . . __ . .
 72
    65
 73
     6
 40
9.0
 49
4.0
 74
     0
 49
-1.0
 74
     0
 49
1.0
 74
     0
 49
-1.0
 74
     0
 49
1.0
 74
     0
 49
-1.0
 74
     0
  0
LTYPE
  5
17C3
330
25
100
AcDbSymbolTableRecord
100
AcDbLinetypeTableRecord
  2
ACISOTGL
 70
     0
  3
_ _ _ _ _
 72
    65
 73
     2
 40
3.0
 49
2.0
 74
     0
 49
-1.0
 74
     0
  0
LTYPE
  5
26C0
330
25
100
AcDbSymbolTableRecord
100
AcDbLinetypeTableRecord
  2
DASHED
 70
     0
  3
Dashed __ __ __ __ __ __ __ __ __ __ __ __ __ _
 72
    65
 73
     2
 40
0.75
 49
0.5
 74
     0
 49
-0.25
 74
     0
  0
ENDTAB
  0
TABLE
  2
LAYER
  5
1F
102
{ACAD_XDICTIONARY
360
20
102
}
330
0
100
AcDbSymbolTable
 70
     8
  0
LAYER
  5
5
102
{ACAD_XDICTIONARY
360
6
102
}
330
1F
100
AcDbSymbolTableRecord
100
AcDbLayerTableRecord
  2
0
 70
     0
 62
     7
  6
CONTINUOUS
370
    -3
390
8
  0
LAYER
  5
B89
330
1F
100
AcDbSymbolTableRecord
100
AcDbLayerTableRecord
  2
Defpoints
 70
     0
 62
     7
  6
CONTINUOUS
290
     0
370
    -3
390
8
  0
LAYER
  5
C10
102
{ACAD_XDICTIONARY
360
C11
102
}
330
1F
100
AcDbSymbolTableRecord
100
AcDbLayerTableRecord
  2
SIZE
 70
     0
 62
    30
  6
CONTINUOUS
370
    -3
390
8
  0
LAYER
  5
C12
102
{ACAD_XDICTIONARY
360
C13
102
}
330
1F
100
AcDbSymbolTableRecord
100
AcDbLayerTableRecord
  2
OUTLINE
 70
     0
 62
     3
  6
CONTINUOUS
370
    -3
390
8
  0
LAYER
  5
C16
102
{ACAD_XDICTIONARY
360
C17
102
}
330
1F
100
AcDbSymbolTableRecord
100
AcDbLayerTableRecord
  2
BASIS
 70
     0
 62
     6
  6
DASHDOT
370
    -3
390
8
  0
LAYER
  5
C18
102
{ACAD_XDICTIONARY
360
C19
102
}
330
1F
100
AcDbSymbolTableRecord
100
AcDbLayerTableRecord
  2
NOTE
 70
     0
 62
     4
  6
CONTINUOUS
370
    -3
390
8
  0
LAYER
  5
C1A
102
{ACAD_XDICTIONARY
360
C1B
102
}
330
1F
100
AcDbSymbolTableRecord
100
AcDbLayerTableRecord
  2
ARRANGE
 70
     0
 62
     1
  6
CONTINUOUS
370
    -3
390
8
  0
LAYER
  5
C1C
102
{ACAD_XDICTIONARY
360
C1D
102
}
330
1F
100
AcDbSymbolTableRecord
100
AcDbLayerTableRecord
  2
ETC
 70
     0
 62
    61
  6
CONTINUOUS
370
    -3
390
8
  0
ENDTAB
  0
TABLE
  2
STYLE
  5
22
330
0
100
AcDbSymbolTable
 70
     4
  0
STYLE
  5
23
330
22
100
AcDbSymbolTableRecord
100
AcDbTextStyleTableRecord
  2
STANDARD
 70
     0
 40
0.0
 41
1.0
 50
0.0
 71
     0
 42
62.5215949741746
  3
romans.shx
  4
extfont.shx
  0
STYLE
  5
C1E
330
22
100
AcDbSymbolTableRecord
100
AcDbTextStyleTableRecord
  2
STANDARD1
 70
     0
 40
0.0
 41
1.0
 50
0.0
 71
     0
 42
3.5
  3
MONOTXT
  4
BIGFONT
  0
STYLE
  5
17B1
330
22
100
AcDbSymbolTableRecord
100
AcDbTextStyleTableRecord
  2
ACISOTS
 70
     0
 40
1.0
 41
1.0
 50
0.0
 71
     0
 42
62.5215949741746
  3
isocp.shx
  4
extfont.shx
  0
STYLE
  5
17C0
330
22
100
AcDbSymbolTableRecord
100
AcDbTextStyleTableRecord
  2
ACISOGDT
 70
     0
 40
0.0
 41
1.0
 50
0.0
 71
     0
 42
62.5215949741746
  3
amgdt.shx
  4

  0
ENDTAB
  0
TABLE
  2
VIEW
  5
28
330
0
100
AcDbSymbolTable
 70
     0
  0
ENDTAB
  0
TABLE
  2
UCS
  5
29
330
0
100
AcDbSymbolTable
 70
     0
  0
ENDTAB
  0
TABLE
  2
APPID
  5
2E
330
0
100
AcDbSymbolTable
 70
    22
  0
APPID
  5
2F
330
2E
100
AcDbSymbolTableRecord
100
AcDbRegAppTableRecord
  2
ACAD
 70
     0
  0
APPID
  5
38
330
2E
100
AcDbSymbolTableRecord
100
AcDbRegAppTableRecord
  2
ACAD_DSTYLE_DIMJOGGED_JOGANGLE_SYMBOL
 70
     0
  0
APPID
  5
7C
330
2E
100
AcDbSymbolTableRecord
100
AcDbRegAppTableRecord
  2
AcAecLayerStandard
 70
     0
  0
APPID
  5
1E
330
2E
100
AcDbSymbolTableRecord
100
AcDbRegAppTableRecord
  2
ACAD_PSEXT
 70
     0
  0
APPID
  5
AFF
330
2E
100
AcDbSymbolTableRecord
100
AcDbRegAppTableRecord
  2
ACATTRIBSERVICES
 70
     0
  0
APPID
  5
B18
330
2E
100
AcDbSymbolTableRecord
100
AcDbRegAppTableRecord
  2
ACAD_MLEADERVER
 70
     0
  0
APPID
  5
B21
330
2E
100
AcDbSymbolTableRecord
100
AcDbRegAppTableRecord
  2
ACAD_EXEMPT_FROM_CAD_STANDARDS
 70
     0
  0
APPID
  5
B5E
330
2E
100
AcDbSymbolTableRecord
100
AcDbRegAppTableRecord
  2
ACAD_DSTYLE_DIMJAG
 70
     0
  0
APPID
  5
B5F
330
2E
100
AcDbSymbolTableRecord
100
AcDbRegAppTableRecord
  2
ACAD_DSTYLE_DIMTALN
 70
     0
  0
APPID
  5
B6F
330
2E
100
AcDbSymbolTableRecord
100
AcDbRegAppTableRecord
  2
ACAD_DSTYLE_DIMEXT_LENGTH
 70
     0
  0
APPID
  5
16E9
330
2E
100
AcDbSymbolTableRecord
100
AcDbRegAppTableRecord
  2
GENIUS_GENDIM_13
 70
     0
  0
APPID
  5
16EA
330
2E
100
AcDbSymbolTableRecord
100
AcDbRegAppTableRecord
  2
GENIUS_GENDTOL_13
 70
     0
  0
APPID
  5
16EB
330
2E
100
AcDbSymbolTableRecord
100
AcDbRegAppTableRecord
  2
GENIUS_GE3DTOL_13
 70
     0
  0
APPID
  5
16EE
330
2E
100
AcDbSymbolTableRecord
100
AcDbRegAppTableRecord
  2
MCAD_NO_VIS
 70
     0
  0
APPID
  5
16EF
330
2E
100
AcDbSymbolTableRecord
100
AcDbRegAppTableRecord
  2
ACAD_TEMP_GRAPHIC
 70
     0
  0
APPID
  5
1720
330
2E
100
AcDbSymbolTableRecord
100
AcDbRegAppTableRecord
  2
AD_DRAW
 70
     0
  0
APPID
  5
176E
330
2E
100
AcDbSymbolTableRecord
100
AcDbRegAppTableRecord
  2
ASURF_PCURVE_APPNAME
 70
     0
  0
APPID
  5
1773
330
2E
100
AcDbSymbolTableRecord
100
AcDbRegAppTableRecord
  2
AMG_3D2D_5.0
 70
     0
  0
APPID
  5
17A4
330
2E
100
AcDbSymbolTableRecord
100
AcDbRegAppTableRecord
  2
DESIGNERASSEMBLIES
 70
     0
  0
APPID
  5
17A8
330
2E
100
AcDbSymbolTableRecord
100
AcDbRegAppTableRecord
  2
ACADM_DIM_EDIT
 70
     0
  0
APPID
  5
17A9
330
2E
100
AcDbSymbolTableRecord
100
AcDbRegAppTableRecord
  2
AMDT_DM_ADJ
 70
     0
  0
APPID
  5
197B
330
2E
100
AcDbSymbolTableRecord
100
AcDbRegAppTableRecord
  2
ACAD_DSTYLE_DIMARC_LENGTH_SYMBOL
 70
     0
  0
ENDTAB
  0
TABLE
  2
DIMSTYLE
  5
30
330
0
100
AcDbSymbolTable
 70
    10
100
AcDbDimStyleTable
 71
     1
340
31
  0
DIMSTYLE
105
31
102
{ACAD_REACTORS
330
2D42
330
2D4F
330
2D95
330
2DD6
330
2DEC
330
2E11
330
2E27
330
2E41
330
2E4E
330
2E5B
330
2E34
330
2E90
330
30F3
330
3118
102
}
330
30
100
AcDbSymbolTableRecord
100
AcDbDimStyleTableRecord
  2
STANDARD
 70
     0
 40
0.0
 41
2.0
 42
1.0
 43
3.75
 44
1.0
 73
     0
 74
     0
 77
     1
 78
     8
140
2.0
141
2.5
143
0.0394
147
1.0
171
     4
172
     1
173
     1
271
     0
272
     0
273
     8
274
     4
284
     8
340
23
341
32
343
32
344
32
1001
ACAD_DSTYLE_DIMEXT_LENGTH
1070
   378
1040
15.0
1001
ACAD_DSTYLE_DIMJOGGED_JOGANGLE_SYMBOL
1070
   384
1040
1.570796326794896
  0
DIMSTYLE
105
17CE
330
30
100
AcDbSymbolTableRecord
100
AcDbDimStyleTableRecord
  2
AM_ISO
 70
     0
  4
"
 41
2.5
 42
1.0
 43
10.0
 44
1.0
 47
0.1
 48
0.1
 73
     0
 74
     0
 77
     1
 78
     8
 79
     2
140
3.5
141
0.0
143
0.0393701
146
0.71
147
1.5
172
     1
176
   256
177
   256
178
     2
271
     2
272
     3
274
     4
283
     0
284
     8
340
23
371
    -1
372
    -1
1001
ACAD_DSTYLE_DIMARC_LENGTH_SYMBOL
1070
   379
1070
     1
  0
DIMSTYLE
105
17CF
330
30
100
AcDbSymbolTableRecord
100
AcDbDimStyleTableRecord
  2
AM_ISO$3
 70
     0
  4
"
 41
2.5
 42
1.0
 43
10.0
 44
1.0
 47
0.1
 48
0.1
 73
     0
 77
     1
 78
     8
 79
     2
140
3.5
141
0.0
143
0.0393701
146
0.71
147
1.5
176
   256
177
   256
178
     2
271
     2
272
     3
274
     4
283
     0
284
     8
288
     1
289
     0
340
23
371
    -1
372
    -1
1001
ACAD_DSTYLE_DIMARC_LENGTH_SYMBOL
1070
   379
1070
     1
  0
DIMSTYLE
105
17D0
330
30
100
AcDbSymbolTableRecord
100
AcDbDimStyleTableRecord
  2
AM_ISO$4
 70
     0
  4
"
 41
2.5
 42
1.0
 43
10.0
 44
1.0
 47
0.1
 48
0.1
 73
     0
 77
     1
 78
     8
 79
     2
140
3.5
141
0.0
143
0.0393701
146
0.71
147
1.5
176
   256
177
   256
178
     2
271
     2
272
     3
274
     4
283
     0
284
     8
288
     1
289
     0
340
23
371
    -1
372
    -1
1001
ACAD_DSTYLE_DIMARC_LENGTH_SYMBOL
1070
   379
1070
     1
  0
DIMSTYLE
105
17D1
330
30
100
AcDbSymbolTableRecord
100
AcDbDimStyleTableRecord
  2
AM_ISO$6
 70
     0
  4
"
 41
2.5
 42
1.0
 43
10.0
 44
1.0
 47
0.1
 48
0.1
 73
     0
 74
     0
 78
     8
 79
     2
140
3.5
141
0.0
143
0.0393701
146
0.71
147
1.5
172
     1
176
   256
177
   256
178
     2
271
     2
272
     3
274
     4
283
     0
284
     8
340
23
371
    -1
372
    -1
1001
ACAD_DSTYLE_DIMARC_LENGTH_SYMBOL
1070
   379
1070
     1
  0
DIMSTYLE
105
17D2
330
30
100
AcDbSymbolTableRecord
100
AcDbDimStyleTableRecord
  2
AM_ISO$7
 70
     0
  4
"
 41
2.5
 42
1.0
 43
10.0
 44
1.0
 47
0.1
 48
0.1
 73
     0
 74
     0
 77
     1
 78
     8
 79
     2
140
5.0
141
0.0
143
0.0393701
146
0.71
147
1.5
172
     1
176
   256
177
   256
178
     2
271
     2
272
     3
274
     4
283
     0
284
     8
340
23
371
    -1
372
    -1
1001
ACAD_DSTYLE_DIMARC_LENGTH_SYMBOL
1070
   379
1070
     1
  0
DIMSTYLE
105
17D3
330
30
100
AcDbSymbolTableRecord
100
AcDbDimStyleTableRecord
  2
AM_ISO$SF
 70
     0
  4
"
 41
2.5
 42
1.0
 43
10.0
 44
1.0
 47
0.1
 48
0.1
 73
     0
 74
     0
 75
     1
 76
     1
 77
     1
 78
     8
 79
     2
140
3.5
141
0.0
143
0.0393701
146
0.71
147
1.5
172
     1
176
   256
177
   256
178
     2
271
     2
272
     3
274
     4
283
     0
284
     8
340
23
371
    -1
372
    -1
1001
ACAD_DSTYLE_DIMARC_LENGTH_SYMBOL
1070
   379
1070
     1
  0
DIMSTYLE
105
17D8
330
30
100
AcDbSymbolTableRecord
100
AcDbDimStyleTableRecord
  2
AM_ISO$SH
 70
     0
  4
"
 41
2.5
 42
1.0
 43
10.0
 44
1.0
 47
0.1
 48
0.1
 73
     0
 74
     0
 75
     1
 76
     1
 77
     1
 78
     8
 79
     2
140
3.5
141
0.0
143
0.0393701
144
2.0
146
0.71
147
1.5
172
     1
173
     1
176
   256
177
   256
178
     2
271
     2
272
     3
274
     4
283
     0
284
     8
340
23
343
17D4
371
    -1
372
    -1
1001
ACAD_DSTYLE_DIMARC_LENGTH_SYMBOL
1070
   379
1070
     1
  0
DIMSTYLE
105
17E7
330
30
100
AcDbSymbolTableRecord
100
AcDbDimStyleTableRecord
  2
STANDARD1
 70
     0
 40
10.0
 41
2.5
 42
0.625
 43
3.75
 44
1.25
 77
     1
 78
     8
140
2.5
141
0.0
147
1.0
173
     1
284
     8
340
23
341
32
343
32
344
32
  0
DIMSTYLE
105
17E8
330
30
100
AcDbSymbolTableRecord
100
AcDbDimStyleTableRecord
  2
AM_JIS
 70
     0
  4
"
 40
10.0
 41
2.5
 42
1.0
 43
10.0
 44
1.0
 47
0.1
 48
0.1
 73
     0
 74
     0
 77
     3
 78
     8
 79
     2
140
3.5
141
0.0
143
0.0393701
146
0.71
147
1.5
172
     1
176
   256
177
   256
178
     2
271
     2
272
     3
274
     4
283
     0
284
     8
340
23
341
32
342
32
343
32
344
32
371
    -1
372
    -1
1001
ACAD_DSTYLE_DIMJOGGED_JOGANGLE_SYMBOL
1070
   384
1040
0.7853981633974483
1001
ACAD_DSTYLE_DIMARC_LENGTH_SYMBOL
1070
   379
1070
     1
  0
ENDTAB
  0
TABLE
  2
BLOCK_RECORD
  5
1
330
0
100
AcDbSymbolTable
 70
    50
  0
BLOCK_RECORD
  5
2
102
{ACAD_XDICTIONARY
360
3
102
}
330
1
100
AcDbSymbolTableRecord
100
AcDbBlockTableRecord
  2
*MODEL_SPACE
340
16
  0
BLOCK_RECORD
  5
18
330
1
100
AcDbSymbolTableRecord
100
AcDbBlockTableRecord
  2
*Paper_Space
340
1B
  0
BLOCK_RECORD
  5
32
330
1
100
AcDbSymbolTableRecord
100
AcDbBlockTableRecord
  2
_OPEN30
340
0
102
{BLKREFS
331
16B7
331
16B8
331
16C9
331
16CA
331
1930
331
1931
331
193D
331
193E
331
194A
331
194B
331
195B
331
195C
331
1DA5
331
1DA6
331
1DB2
331
1DB3
331
1DBF
331
1DC0
331
1DCC
331
1DCD
331
1DD9
331
1DDA
331
1DE6
331
1DE7
331
1DF3
331
1DF4
331
1E00
331
1E01
331
20A6
331
20A7
331
20B3
331
20B4
331
20C0
331
20C1
331
20CD
331
20CE
331
20DA
331
20DB
331
21D5
331
21D6
331
21E2
331
21E3
331
2496
331
2497
331
24A3
331
24A4
331
24B0
331
24B1
331
24BD
331
24BE
331
24CA
331
24CB
331
24D7
331
24D8
331
25CF
331
25D0
331
2D3C
331
2D3D
331
2D56
331
2D57
331
2D63
331
2D64
331
2D79
331
2D7A
331
2D8F
331
2D90
331
2E0B
331
2E0C
331
2E21
331
2E22
331
2E2E
331
2E2F
331
2E3B
331
2E3C
331
2E48
331
2E49
331
2E55
331
2E56
331
2E62
331
2E63
331
2EA0
331
2EA1
331
30DB
331
30DC
331
30E4
331
30E5
331
30ED
331
30EE
331
3112
331
3113
331
3137
331
3138
102
}
  0
BLOCK_RECORD
  5
B8A
330
1
100
AcDbSymbolTableRecord
100
AcDbBlockTableRecord
  2
*D1
340
0
  0
BLOCK_RECORD
  5
B97
330
1
100
AcDbSymbolTableRecord
100
AcDbBlockTableRecord
  2
*D2
340
0
  0
BLOCK_RECORD
  5
BA4
330
1
100
AcDbSymbolTableRecord
100
AcDbBlockTableRecord
  2
*D3
340
0
  0
BLOCK_RECORD
  5
C0A
330
1
100
AcDbSymbolTableRecord
100
AcDbBlockTableRecord
  2
_DOTBLANK
340
0
  0
BLOCK_RECORD
  5
17D4
330
1
100
AcDbSymbolTableRecord
100
AcDbBlockTableRecord
  2
GENAXEH
340
0
  0
BLOCK_RECORD
  5
1937
330
1
100
AcDbSymbolTableRecord
100
AcDbBlockTableRecord
  2
*D6
340
0
  0
BLOCK_RECORD
  5
1944
330
1
100
AcDbSymbolTableRecord
100
AcDbBlockTableRecord
  2
*D7
340
0
  0
BLOCK_RECORD
  5
1955
330
1
100
AcDbSymbolTableRecord
100
AcDbBlockTableRecord
  2
*D8
340
0
  0
BLOCK_RECORD
  5
1D9F
330
1
100
AcDbSymbolTableRecord
100
AcDbBlockTableRecord
  2
*D9
340
0
  0
BLOCK_RECORD
  5
1DAC
330
1
100
AcDbSymbolTableRecord
100
AcDbBlockTableRecord
  2
*D10
340
0
  0
BLOCK_RECORD
  5
1DB9
330
1
100
AcDbSymbolTableRecord
100
AcDbBlockTableRecord
  2
*D11
340
0
  0
BLOCK_RECORD
  5
1DC6
330
1
100
AcDbSymbolTableRecord
100
AcDbBlockTableRecord
  2
*D12
340
0
  0
BLOCK_RECORD
  5
1DD3
330
1
100
AcDbSymbolTableRecord
100
AcDbBlockTableRecord
  2
*D13
340
0
  0
BLOCK_RECORD
  5
1DE0
330
1
100
AcDbSymbolTableRecord
100
AcDbBlockTableRecord
  2
*D14
340
0
  0
BLOCK_RECORD
  5
1DED
330
1
100
AcDbSymbolTableRecord
100
AcDbBlockTableRecord
  2
*D15
340
0
  0
BLOCK_RECORD
  5
1DFA
330
1
100
AcDbSymbolTableRecord
100
AcDbBlockTableRecord
  2
*D16
340
0
  0
BLOCK_RECORD
  5
20A0
330
1
100
AcDbSymbolTableRecord
100
AcDbBlockTableRecord
  2
*D17
340
0
  0
BLOCK_RECORD
  5
20AD
330
1
100
AcDbSymbolTableRecord
100
AcDbBlockTableRecord
  2
*D18
340
0
  0
BLOCK_RECORD
  5
20BA
330
1
100
AcDbSymbolTableRecord
100
AcDbBlockTableRecord
  2
*D19
340
0
  0
BLOCK_RECORD
  5
20C7
330
1
100
AcDbSymbolTableRecord
100
AcDbBlockTableRecord
  2
*D20
340
0
  0
BLOCK_RECORD
  5
20D4
330
1
100
AcDbSymbolTableRecord
100
AcDbBlockTableRecord
  2
*D21
340
0
  0
BLOCK_RECORD
  5
21CF
330
1
100
AcDbSymbolTableRecord
100
AcDbBlockTableRecord
  2
*D22
340
0
  0
BLOCK_RECORD
  5
21DC
330
1
100
AcDbSymbolTableRecord
100
AcDbBlockTableRecord
  2
*D23
340
0
  0
BLOCK_RECORD
  5
2490
330
1
100
AcDbSymbolTableRecord
100
AcDbBlockTableRecord
  2
*D24
340
0
  0
BLOCK_RECORD
  5
249D
330
1
100
AcDbSymbolTableRecord
100
AcDbBlockTableRecord
  2
*D25
340
0
  0
BLOCK_RECORD
  5
24AA
330
1
100
AcDbSymbolTableRecord
100
AcDbBlockTableRecord
  2
*D26
340
0
  0
BLOCK_RECORD
  5
24B7
330
1
100
AcDbSymbolTableRecord
100
AcDbBlockTableRecord
  2
*D27
340
0
  0
BLOCK_RECORD
  5
24C4
330
1
100
AcDbSymbolTableRecord
100
AcDbBlockTableRecord
  2
*D28
340
0
  0
BLOCK_RECORD
  5
24D1
330
1
100
AcDbSymbolTableRecord
100
AcDbBlockTableRecord
  2
*D29
340
0
  0
BLOCK_RECORD
  5
25C9
330
1
100
AcDbSymbolTableRecord
100
AcDbBlockTableRecord
  2
*D30
340
0
  0
BLOCK_RECORD
  5
2D36
330
1
100
AcDbSymbolTableRecord
100
AcDbBlockTableRecord
  2
*D31
340
0
  0
BLOCK_RECORD
  5
2D43
330
1
100
AcDbSymbolTableRecord
100
AcDbBlockTableRecord
  2
*D32
340
0
  0
BLOCK_RECORD
  5
2D50
330
1
100
AcDbSymbolTableRecord
100
AcDbBlockTableRecord
  2
*D33
340
0
  0
BLOCK_RECORD
  5
2D5D
330
1
100
AcDbSymbolTableRecord
100
AcDbBlockTableRecord
  2
*D34
340
0
  0
BLOCK_RECORD
  5
2D6A
330
1
100
AcDbSymbolTableRecord
100
AcDbBlockTableRecord
  2
*D35
340
0
  0
BLOCK_RECORD
  5
2D80
330
1
100
AcDbSymbolTableRecord
100
AcDbBlockTableRecord
  2
*D36
340
0
  0
BLOCK_RECORD
  5
2D96
330
1
100
AcDbSymbolTableRecord
100
AcDbBlockTableRecord
  2
*D37
340
0
  0
BLOCK_RECORD
  5
2DD7
330
1
100
AcDbSymbolTableRecord
100
AcDbBlockTableRecord
  2
*D38
340
0
  0
BLOCK_RECORD
  5
2DED
330
1
100
AcDbSymbolTableRecord
100
AcDbBlockTableRecord
  2
*D39
340
0
  0
BLOCK_RECORD
  5
2E12
330
1
100
AcDbSymbolTableRecord
100
AcDbBlockTableRecord
  2
*D40
340
0
  0
BLOCK_RECORD
  5
2E28
330
1
100
AcDbSymbolTableRecord
100
AcDbBlockTableRecord
  2
*D41
340
0
  0
BLOCK_RECORD
  5
2E35
330
1
100
AcDbSymbolTableRecord
100
AcDbBlockTableRecord
  2
*D42
340
0
  0
BLOCK_RECORD
  5
2E42
330
1
100
AcDbSymbolTableRecord
100
AcDbBlockTableRecord
  2
*D43
340
0
  0
BLOCK_RECORD
  5
2E4F
330
1
100
AcDbSymbolTableRecord
100
AcDbBlockTableRecord
  2
*D44
340
0
  0
BLOCK_RECORD
  5
2E5C
330
1
100
AcDbSymbolTableRecord
100
AcDbBlockTableRecord
  2
*D45
340
0
  0
BLOCK_RECORD
  5
2E91
330
1
100
AcDbSymbolTableRecord
100
AcDbBlockTableRecord
  2
*D46
340
0
  0
BLOCK_RECORD
  5
30F4
330
1
100
AcDbSymbolTableRecord
100
AcDbBlockTableRecord
  2
*D48
340
0
  0
BLOCK_RECORD
  5
3119
330
1
100
AcDbSymbolTableRecord
100
AcDbBlockTableRecord
  2
*D49
340
0
  0
ENDTAB
  0
ENDSEC
  0
SECTION
  2
BLOCKS
  0
BLOCK
  5
4
330
2
100
AcDbEntity
  8
0
100
AcDbBlockBegin
  2
*MODEL_SPACE
 70
     0
 10
0.0
 20
0.0
 30
0.0
  3
*MODEL_SPACE
  1

  0
ENDBLK
  5
15
330
2
100
AcDbEntity
  8
0
100
AcDbBlockEnd
  0
BLOCK
  5
19
330
18
100
AcDbEntity
 67
     1
  8
0
100
AcDbBlockBegin
  2
*Paper_Space
 70
     0
 10
0.0
 20
0.0
 30
0.0
  3
*Paper_Space
  1

  0
ENDBLK
  5
1A
330
18
100
AcDbEntity
 67
     1
  8
0
100
AcDbBlockEnd
  0
BLOCK
  5
33
330
32
100
AcDbEntity
  8
0
100
AcDbBlockBegin
  2
_OPEN30
 70
     0
 10
0.0
 20
0.0
 30
0.0
  3
_OPEN30
  1

  0
LINE
  5
34
330
32
100
AcDbEntity
  8
0
  6
ByBlock
 62
     0
100
AcDbLine
 10
-1.0
 20
0.26794919
 30
0.0
 11
0.0
 21
0.0
 31
0.0
  0
LINE
  5
35
330
32
100
AcDbEntity
  8
0
  6
ByBlock
 62
     0
100
AcDbLine
 10
0.0
 20
0.0
 30
0.0
 11
-1.0
 21
-0.26794919
 31
0.0
  0
LINE
  5
36
330
32
100
AcDbEntity
  8
0
  6
ByBlock
 62
     0
100
AcDbLine
 10
0.0
 20
0.0
 30
0.0
 11
-1.0
 21
0.0
 31
0.0
  0
ENDBLK
  5
37
330
32
100
AcDbEntity
  8
0
100
AcDbBlockEnd
  0
BLOCK
  5
B94
330
B8A
100
AcDbEntity
  8
0
100
AcDbBlockBegin
  2
*D1
 70
     1
 10
0.0
 20
0.0
 30
0.0
  3
*D1
  1

  0
LINE
  5
192D
330
B8A
100
AcDbEntity
  8
SIZE
 62
     0
370
    -2
100
AcDbLine
 10
-309.4855110895245
 20
-329.5556583977946
 30
0.0
 11
-309.4855110895245
 21
-397.1325484327433
 31
0.0
  0
LINE
  5
192E
330
B8A
100
AcDbEntity
  8
SIZE
 62
     0
370
    -2
100
AcDbLine
 10
569.5144889104621
 20
-329.5556583977696
 30
0.0
 11
569.5144889104621
 21
-397.1325484327433
 31
0.0
  0
LINE
  5
192F
330
B8A
100
AcDbEntity
  8
SIZE
 62
     0
370
    -2
100
AcDbLine
 10
-289.4855110895245
 20
-387.1325484327433
 30
0.0
 11
549.514488910462
 21
-387.1325484327433
 31
0.0
  0
INSERT
  5
1930
330
B8A
100
AcDbEntity
  8
SIZE
 62
     0
370
    -2
100
AcDbBlockReference
  2
_OPEN30
 10
-309.4855110895245
 20
-387.1325484327433
 30
0.0
 41
20.0
 42
20.0
 43
20.0
 50
180.0
  0
INSERT
  5
1931
330
B8A
100
AcDbEntity
  8
SIZE
 62
     0
370
    -2
100
AcDbBlockReference
  2
_OPEN30
 10
569.5144889104621
 20
-387.1325484327433
 30
0.0
 41
20.0
 42
20.0
 43
20.0
  0
MTEXT
  5
1932
330
B8A
100
AcDbEntity
  8
SIZE
 62
     0
100
AcDbMText
 10
130.0144889104688
 20
-367.1325484327433
 30
0.0
 40
20.0
 41
0.0
 71
     5
 72
     1
  1
\A1;879
 73
     1
 44
1.0
1001
ACAD
1000
MTEXTBEGIN
1070
    73
1070
     1
1070
    44
1040
1.0
1070
    74
1070
     0
1000
MTEXTEND
  0
POINT
  5
1933
330
B8A
100
AcDbEntity
  8
Defpoints
 62
     0
100
AcDbPoint
 10
-309.4855110895245
 20
-319.5556583977946
 30
0.0
  0
POINT
  5
1934
330
B8A
100
AcDbEntity
  8
Defpoints
 62
     0
100
AcDbPoint
 10
569.5144889104621
 20
-319.5556583977696
 30
0.0
  0
POINT
  5
1935
330
B8A
100
AcDbEntity
  8
Defpoints
 62
     0
100
AcDbPoint
 10
569.5144889104621
 20
-387.1325484327433
 30
0.0
  0
ENDBLK
  5
B95
330
B8A
100
AcDbEntity
  8
0
100
AcDbBlockEnd
  0
BLOCK
  5
BA1
330
B97
100
AcDbEntity
  8
0
100
AcDbBlockBegin
  2
*D2
 70
     1
 10
0.0
 20
0.0
 30
0.0
  3
*D2
  1

  0
LINE
  5
16B4
330
B97
100
AcDbEntity
  8
SIZE
 62
     0
370
    -2
100
AcDbLine
 10
-325.9855110895246
 20
-324.5556583977947
 30
0.0
 11
-325.9855110895246
 21
-441.5373076871635
 31
0.0
  0
LINE
  5
16B5
330
B97
100
AcDbEntity
  8
SIZE
 62
     0
370
    -2
100
AcDbLine
 10
586.0144889104623
 20
-324.5556583977697
 30
0.0
 11
586.0144889104623
 21
-441.5373076871635
 31
0.0
  0
LINE
  5
16B6
330
B97
100
AcDbEntity
  8
SIZE
 62
     0
370
    -2
100
AcDbLine
 10
-315.9855110895246
 20
-436.5373076871635
 30
0.0
 11
576.0144889104623
 21
-436.5373076871635
 31
0.0
  0
INSERT
  5
16B7
330
B97
100
AcDbEntity
  8
SIZE
 62
     0
370
    -2
100
AcDbBlockReference
  2
_OPEN30
 10
-325.9855110895246
 20
-436.5373076871635
 30
0.0
 41
10.0
 42
10.0
 43
10.0
 50
180.0
  0
INSERT
  5
16B8
330
B97
100
AcDbEntity
  8
SIZE
 62
     0
370
    -2
100
AcDbBlockReference
  2
_OPEN30
 10
586.0144889104623
 20
-436.5373076871635
 30
0.0
 41
10.0
 42
10.0
 43
10.0
  0
MTEXT
  5
16B9
330
B97
100
AcDbEntity
  8
SIZE
 62
     0
100
AcDbMText
 10
130.0144889104688
 20
-426.5373076871631
 30
0.0
 40
10.0
 41
0.0
 71
     5
 72
     1
  1
\A1;912
 73
     1
 44
1.0
1001
ACAD
1000
MTEXTBEGIN
1070
    73
1070
     1
1070
    44
1040
1.0
1070
    74
1070
     0
1000
MTEXTEND
  0
POINT
  5
16BA
330
B97
100
AcDbEntity
  8
Defpoints
 62
     0
100
AcDbPoint
 10
-325.9855110895246
 20
-319.5556583977947
 30
0.0
  0
POINT
  5
16BB
330
B97
100
AcDbEntity
  8
Defpoints
 62
     0
100
AcDbPoint
 10
586.0144889104623
 20
-319.5556583977697
 30
0.0
  0
POINT
  5
16BC
330
B97
100
AcDbEntity
  8
Defpoints
 62
     0
100
AcDbPoint
 10
586.0144889104623
 20
-436.5373076871635
 30
0.0
  0
ENDBLK
  5
BA2
330
B97
100
AcDbEntity
  8
0
100
AcDbBlockEnd
  0
BLOCK
  5
BAE
330
BA4
100
AcDbEntity
  8
0
100
AcDbBlockBegin
  2
*D3
 70
     1
 10
0.0
 20
0.0
 30
0.0
  3
*D3
  1

  0
LINE
  5
16C6
330
BA4
100
AcDbEntity
  8
SIZE
 62
     0
370
    -2
100
AcDbLine
 10
-289.9855110895382
 20
519.2886459369541
 30
0.0
 11
-381.0765739426713
 21
519.2886459369541
 31
0.0
  0
LINE
  5
16C7
330
BA4
100
AcDbEntity
  8
SIZE
 62
     0
370
    -2
100
AcDbLine
 10
-330.9855110895246
 20
-319.5556583977947
 30
0.0
 11
-381.0765739426715
 21
-319.5556583977947
 31
0.0
  0
LINE
  5
16C8
330
BA4
100
AcDbEntity
  8
SIZE
 62
     0
370
    -2
100
AcDbLine
 10
-376.0765739426714
 20
509.2886459369537
 30
0.0
 11
-376.0765739426715
 21
-309.5556583977947
 31
0.0
  0
INSERT
  5
16C9
330
BA4
100
AcDbEntity
  8
SIZE
 62
     0
370
    -2
100
AcDbBlockReference
  2
_OPEN30
 10
-376.0765739426714
 20
519.2886459369541
 30
0.0
 41
10.0
 42
10.0
 43
10.0
 50
90.0
  0
INSERT
  5
16CA
330
BA4
100
AcDbEntity
  8
SIZE
 62
     0
370
    -2
100
AcDbBlockReference
  2
_OPEN30
 10
-376.0765739426715
 20
-319.5556583977947
 30
0.0
 41
10.0
 42
10.0
 43
10.0
 50
270.0
  0
MTEXT
  5
16CB
330
BA4
100
AcDbEntity
  8
SIZE
 62
     0
100
AcDbMText
 10
-386.0765739426715
 20
99.8664937695797
 30
0.0
 40
10.0
 41
0.0
 71
     5
 72
     1
  1
\A1;839
 11
0.0000000000000001
 21
1.0
 31
0.0
 73
     1
 44
1.0
1001
ACAD
1000
MTEXTBEGIN
1070
    73
1070
     1
1070
    44
1040
1.0
1070
    74
1070
     0
1000
MTEXTEND
  0
POINT
  5
16CC
330
BA4
100
AcDbEntity
  8
Defpoints
 62
     0
100
AcDbPoint
 10
-284.9855110895382
 20
519.2886459369541
 30
0.0
  0
POINT
  5
16CD
330
BA4
100
AcDbEntity
  8
Defpoints
 62
     0
100
AcDbPoint
 10
-325.9855110895246
 20
-319.5556583977947
 30
0.0
  0
POINT
  5
16CE
330
BA4
100
AcDbEntity
  8
Defpoints
 62
     0
100
AcDbPoint
 10
-376.0765739426715
 20
-319.5556583977947
 30
0.0
  0
ENDBLK
  5
BAF
330
BA4
100
AcDbEntity
  8
0
100
AcDbBlockEnd
  0
BLOCK
  5
C0B
330
C0A
100
AcDbEntity
  8
0
100
AcDbBlockBegin
  2
_DOTBLANK
 70
     0
 10
0.0
 20
0.0
 30
0.0
  3
_DOTBLANK
  1

  0
CIRCLE
  5
C0C
330
C0A
100
AcDbEntity
  8
0
  6
Continuous
 62
     7
100
AcDbCircle
 10
0.0
 20
0.0
 30
0.0
 40
0.5
  0
LINE
  5
C0D
330
C0A
100
AcDbEntity
  8
0
  6
Continuous
 62
     7
100
AcDbLine
 10
-0.5
 20
0.0
 30
0.0
 11
-1.0
 21
0.0
 31
0.0
  0
ENDBLK
  5
C0E
330
C0A
100
AcDbEntity
  8
0
100
AcDbBlockEnd
  0
BLOCK
  5
17D6
330
17D4
100
AcDbEntity
  8
0
100
AcDbBlockBegin
  2
GENAXEH
 70
     0
 10
0.0
 20
0.0
 30
0.0
  3
GENAXEH
  1

  0
LINE
  5
17D5
330
17D4
100
AcDbEntity
  8
0
100
AcDbLine
 10
-1.0
 20
0.0
 30
0.0
 11
1.0
 21
0.0
 31
0.0
  0
ENDBLK
  5
17D7
330
17D4
100
AcDbEntity
  8
0
100
AcDbBlockEnd
  0
BLOCK
  5
1938
330
1937
100
AcDbEntity
  8
0
100
AcDbBlockBegin
  2
*D6
 70
     1
 10
0.0
 20
0.0
 30
0.0
  3
*D6
  1

  0
LINE
  5
193A
330
1937
100
AcDbEntity
  8
SIZE
 62
     0
370
    -2
100
AcDbLine
 10
996.4346699659632
 20
-346.5119693281392
 30
0.0
 11
996.4346699659632
 21
-397.6458762804644
 31
0.0
  0
LINE
  5
193B
330
1937
100
AcDbEntity
  8
SIZE
 62
     0
370
    -2
100
AcDbLine
 10
1872.434669965944
 20
-346.5119693281392
 30
0.0
 11
1872.434669965944
 21
-397.6458762804644
 31
0.0
  0
LINE
  5
193C
330
1937
100
AcDbEntity
  8
SIZE
 62
     0
370
    -2
100
AcDbLine
 10
1016.434669965963
 20
-387.6458762804645
 30
0.0
 11
1852.434669965944
 21
-387.6458762804645
 31
0.0
  0
INSERT
  5
193D
330
1937
100
AcDbEntity
  8
SIZE
 62
     0
370
    -2
100
AcDbBlockReference
  2
_OPEN30
 10
996.4346699659632
 20
-387.6458762804645
 30
0.0
 41
20.0
 42
20.0
 43
20.0
 50
180.0
  0
INSERT
  5
193E
330
1937
100
AcDbEntity
  8
SIZE
 62
     0
370
    -2
100
AcDbBlockReference
  2
_OPEN30
 10
1872.434669965944
 20
-387.6458762804645
 30
0.0
 41
20.0
 42
20.0
 43
20.0
  0
MTEXT
  5
193F
330
1937
100
AcDbEntity
  8
SIZE
 62
     0
100
AcDbMText
 10
1434.434669965954
 20
-367.6458762804645
 30
0.0
 40
20.0
 41
0.0
 71
     5
 72
     1
  1
\A1;876
 73
     1
 44
1.0
1001
ACAD
1000
MTEXTBEGIN
1070
    73
1070
     1
1070
    44
1040
1.0
1070
    74
1070
     0
1000
MTEXTEND
  0
POINT
  5
1940
330
1937
100
AcDbEntity
  8
Defpoints
 62
     0
100
AcDbPoint
 10
996.4346699659632
 20
-336.5119693281392
 30
0.0
  0
POINT
  5
1941
330
1937
100
AcDbEntity
  8
Defpoints
 62
     0
100
AcDbPoint
 10
1872.434669965944
 20
-336.5119693281392
 30
0.0
  0
POINT
  5
1942
330
1937
100
AcDbEntity
  8
Defpoints
 62
     0
100
AcDbPoint
 10
1872.434669965944
 20
-387.6458762804645
 30
0.0
  0
ENDBLK
  5
1939
330
1937
100
AcDbEntity
  8
0
100
AcDbBlockEnd
  0
BLOCK
  5
1945
330
1944
100
AcDbEntity
  8
0
100
AcDbBlockBegin
  2
*D7
 70
     1
 10
0.0
 20
0.0
 30
0.0
  3
*D7
  1

  0
LINE
  5
1947
330
1944
100
AcDbEntity
  8
SIZE
 62
     0
370
    -2
100
AcDbLine
 10
978.4346699659426
 20
-333.011969328139
 30
0.0
 11
978.4346699659426
 21
-442.1831528996071
 31
0.0
  0
LINE
  5
1948
330
1944
100
AcDbEntity
  8
SIZE
 62
     0
370
    -2
100
AcDbLine
 10
1890.434669965943
 20
-333.011969328139
 30
0.0
 11
1890.434669965943
 21
-442.1831528996071
 31
0.0
  0
LINE
  5
1949
330
1944
100
AcDbEntity
  8
SIZE
 62
     0
370
    -2
100
AcDbLine
 10
998.4346699659427
 20
-432.183152899607
 30
0.0
 11
1870.434669965943
 21
-432.183152899607
 31
0.0
  0
INSERT
  5
194A
330
1944
100
AcDbEntity
  8
SIZE
 62
     0
370
    -2
100
AcDbBlockReference
  2
_OPEN30
 10
978.4346699659426
 20
-432.183152899607
 30
0.0
 41
20.0
 42
20.0
 43
20.0
 50
180.0
  0
INSERT
  5
194B
330
1944
100
AcDbEntity
  8
SIZE
 62
     0
370
    -2
100
AcDbBlockReference
  2
_OPEN30
 10
1890.434669965943
 20
-432.183152899607
 30
0.0
 41
20.0
 42
20.0
 43
20.0
  0
MTEXT
  5
194C
330
1944
100
AcDbEntity
  8
SIZE
 62
     0
100
AcDbMText
 10
1434.434669965943
 20
-412.1831528996071
 30
0.0
 40
20.0
 41
0.0
 71
     5
 72
     1
  1
\A1;912
 73
     1
 44
1.0
1001
ACAD
1000
MTEXTBEGIN
1070
    73
1070
     1
1070
    44
1040
1.0
1070
    74
1070
     0
1000
MTEXTEND
  0
POINT
  5
194D
330
1944
100
AcDbEntity
  8
Defpoints
 62
     0
100
AcDbPoint
 10
978.4346699659426
 20
-323.011969328139
 30
0.0
  0
POINT
  5
194E
330
1944
100
AcDbEntity
  8
Defpoints
 62
     0
100
AcDbPoint
 10
1890.434669965943
 20
-323.011969328139
 30
0.0
  0
POINT
  5
194F
330
1944
100
AcDbEntity
  8
Defpoints
 62
     0
100
AcDbPoint
 10
1890.434669965943
 20
-432.183152899607
 30
0.0
  0
ENDBLK
  5
1946
330
1944
100
AcDbEntity
  8
0
100
AcDbBlockEnd
  0
BLOCK
  5
1956
330
1955
100
AcDbEntity
  8
0
100
AcDbBlockBegin
  2
*D8
 70
     1
 10
0.0
 20
0.0
 30
0.0
  3
*D8
  1

  0
LINE
  5
1958
330
1955
100
AcDbEntity
  8
SIZE
 62
     0
370
    -2
100
AcDbLine
 10
1002.934669965941
 20
515.8630589847083
 30
0.0
 11
918.0388972567808
 21
515.8630589847083
 31
0.0
  0
LINE
  5
1959
330
1955
100
AcDbEntity
  8
SIZE
 62
     0
370
    -2
100
AcDbLine
 10
968.4346699659426
 20
-323.0119693281388
 30
0.0
 11
918.0388972567804
 21
-323.0119693281388
 31
0.0
  0
LINE
  5
195A
330
1955
100
AcDbEntity
  8
SIZE
 62
     0
370
    -2
100
AcDbLine
 10
928.0388972567807
 20
495.8630589847083
 30
0.0
 11
928.0388972567804
 21
-303.0119693281388
 31
0.0
  0
INSERT
  5
195B
330
1955
100
AcDbEntity
  8
SIZE
 62
     0
370
    -2
100
AcDbBlockReference
  2
_OPEN30
 10
928.0388972567807
 20
515.8630589847083
 30
0.0
 41
20.0
 42
20.0
 43
20.0
 50
90.0
  0
INSERT
  5
195C
330
1955
100
AcDbEntity
  8
SIZE
 62
     0
370
    -2
100
AcDbBlockReference
  2
_OPEN30
 10
928.0388972567804
 20
-323.0119693281388
 30
0.0
 41
20.0
 42
20.0
 43
20.0
 50
270.0
  0
MTEXT
  5
195D
330
1955
100
AcDbEntity
  8
SIZE
 62
     0
100
AcDbMText
 10
908.0388972567803
 20
96.42554482828494
 30
0.0
 40
20.0
 41
0.0
 71
     5
 72
     1
  1
\A1;839
 11
0.0000000000000001
 21
1.0
 31
0.0
 73
     1
 44
1.0
1001
ACAD
1000
MTEXTBEGIN
1070
    73
1070
     1
1070
    44
1040
1.0
1070
    74
1070
     0
1000
MTEXTEND
  0
POINT
  5
195E
330
1955
100
AcDbEntity
  8
Defpoints
 62
     0
100
AcDbPoint
 10
1012.934669965941
 20
515.8630589847083
 30
0.0
  0
POINT
  5
195F
330
1955
100
AcDbEntity
  8
Defpoints
 62
     0
100
AcDbPoint
 10
978.4346699659426
 20
-323.0119693281388
 30
0.0
  0
POINT
  5
1960
330
1955
100
AcDbEntity
  8
Defpoints
 62
     0
100
AcDbPoint
 10
928.0388972567804
 20
-323.0119693281388
 30
0.0
  0
ENDBLK
  5
1957
330
1955
100
AcDbEntity
  8
0
100
AcDbBlockEnd
  0
BLOCK
  5
1DA0
330
1D9F
100
AcDbEntity
  8
0
100
AcDbBlockBegin
  2
*D9
 70
     1
 10
0.0
 20
0.0
 30
0.0
  3
*D9
  1

  0
LINE
  5
1DA2
330
1D9F
100
AcDbEntity
  8
SIZE
 62
     0
370
    -2
100
AcDbLine
 10
2762.327006929457
 20
511.8793116688855
 30
0.0
 11
2714.385851848158
 21
511.8793116688855
 31
0.0
  0
LINE
  5
1DA3
330
1D9F
100
AcDbEntity
  8
SIZE
 62
     0
370
    -2
100
AcDbLine
 10
2762.327006929457
 20
22.87931166888563
 30
0.0
 11
2714.385851848158
 21
22.87931166888565
 31
0.0
  0
LINE
  5
1DA4
330
1D9F
100
AcDbEntity
  8
SIZE
 62
     0
370
    -2
100
AcDbLine
 10
2724.385851848158
 20
491.8793116688853
 30
0.0
 11
2724.385851848158
 21
42.87931166888564
 31
0.0
  0
INSERT
  5
1DA5
330
1D9F
100
AcDbEntity
  8
SIZE
 62
     0
370
    -2
100
AcDbBlockReference
  2
_OPEN30
 10
2724.385851848158
 20
511.8793116688855
 30
0.0
 41
20.0
 42
20.0
 43
20.0
 50
90.0
  0
INSERT
  5
1DA6
330
1D9F
100
AcDbEntity
  8
SIZE
 62
     0
370
    -2
100
AcDbBlockReference
  2
_OPEN30
 10
2724.385851848158
 20
22.87931166888565
 30
0.0
 41
20.0
 42
20.0
 43
20.0
 50
270.0
  0
MTEXT
  5
1DA7
330
1D9F
100
AcDbEntity
  8
SIZE
 62
     0
100
AcDbMText
 10
2704.385851848158
 20
267.379311668886
 30
0.0
 40
20.0
 41
0.0
 71
     5
 72
     1
  1
\A1;489
 11
0.0000000000000001
 21
1.0
 31
0.0
 73
     1
 44
1.0
1001
ACAD
1000
MTEXTBEGIN
1070
    73
1070
     1
1070
    44
1040
1.0
1070
    74
1070
     0
1000
MTEXTEND
  0
POINT
  5
1DA8
330
1D9F
100
AcDbEntity
  8
Defpoints
 62
     0
100
AcDbPoint
 10
2772.327006929457
 20
511.8793116688855
 30
0.0
  0
POINT
  5
1DA9
330
1D9F
100
AcDbEntity
  8
Defpoints
 62
     0
100
AcDbPoint
 10
2772.327006929457
 20
22.87931166888563
 30
0.0
  0
POINT
  5
1DAA
330
1D9F
100
AcDbEntity
  8
Defpoints
 62
     0
100
AcDbPoint
 10
2724.385851848158
 20
22.87931166888565
 30
0.0
  0
ENDBLK
  5
1DA1
330
1D9F
100
AcDbEntity
  8
0
100
AcDbBlockEnd
  0
BLOCK
  5
1DAD
330
1DAC
100
AcDbEntity
  8
0
100
AcDbBlockBegin
  2
*D10
 70
     1
 10
0.0
 20
0.0
 30
0.0
  3
*D10
  1

  0
LINE
  5
1DAF
330
1DAC
100
AcDbEntity
  8
SIZE
 62
     0
370
    -2
100
AcDbLine
 10
2762.327006929457
 20
22.87931166888563
 30
0.0
 11
2714.385851848158
 21
22.87931166888565
 31
0.0
  0
LINE
  5
1DB0
330
1DAC
100
AcDbEntity
  8
SIZE
 62
     0
370
    -2
100
AcDbLine
 10
2762.327005936793
 20
-475.1206883311142
 30
0.0
 11
2714.385851848158
 21
-475.1206883311142
 31
0.0
  0
LINE
  5
1DB1
330
1DAC
100
AcDbEntity
  8
SIZE
 62
     0
370
    -2
100
AcDbLine
 10
2724.385851848158
 20
2.879311668885647
 30
0.0
 11
2724.385851848158
 21
-455.1206883311142
 31
0.0
  0
INSERT
  5
1DB2
330
1DAC
100
AcDbEntity
  8
SIZE
 62
     0
370
    -2
100
AcDbBlockReference
  2
_OPEN30
 10
2724.385851848158
 20
22.87931166888565
 30
0.0
 41
20.0
 42
20.0
 43
20.0
 50
90.0
  0
INSERT
  5
1DB3
330
1DAC
100
AcDbEntity
  8
SIZE
 62
     0
370
    -2
100
AcDbBlockReference
  2
_OPEN30
 10
2724.385851848158
 20
-475.1206883311142
 30
0.0
 41
20.0
 42
20.0
 43
20.0
 50
270.0
  0
MTEXT
  5
1DB4
330
1DAC
100
AcDbEntity
  8
SIZE
 62
     0
100
AcDbMText
 10
2704.385851848158
 20
-226.1206883311138
 30
0.0
 40
20.0
 41
0.0
 71
     5
 72
     1
  1
\A1;498
 11
0.0000000000000001
 21
1.0
 31
0.0
 73
     1
 44
1.0
1001
ACAD
1000
MTEXTBEGIN
1070
    73
1070
     1
1070
    44
1040
1.0
1070
    74
1070
     0
1000
MTEXTEND
  0
POINT
  5
1DB5
330
1DAC
100
AcDbEntity
  8
Defpoints
 62
     0
100
AcDbPoint
 10
2772.327006929457
 20
22.87931166888563
 30
0.0
  0
POINT
  5
1DB6
330
1DAC
100
AcDbEntity
  8
Defpoints
 62
     0
100
AcDbPoint
 10
2772.327005936793
 20
-475.1206883311142
 30
0.0
  0
POINT
  5
1DB7
330
1DAC
100
AcDbEntity
  8
Defpoints
 62
     0
100
AcDbPoint
 10
2724.385851848158
 20
-475.1206883311142
 30
0.0
  0
ENDBLK
  5
1DAE
330
1DAC
100
AcDbEntity
  8
0
100
AcDbBlockEnd
  0
BLOCK
  5
1DBA
330
1DB9
100
AcDbEntity
  8
0
100
AcDbBlockBegin
  2
*D11
 70
     1
 10
0.0
 20
0.0
 30
0.0
  3
*D11
  1

  0
LINE
  5
1DBC
330
1DB9
100
AcDbEntity
  8
SIZE
 62
     0
370
    -2
100
AcDbLine
 10
2762.327005936793
 20
-475.1206883311142
 30
0.0
 11
2714.385851848158
 21
-475.1206883311142
 31
0.0
  0
LINE
  5
1DBD
330
1DB9
100
AcDbEntity
  8
SIZE
 62
     0
370
    -2
100
AcDbLine
 10
2798.827005690001
 20
-720.5069770222894
 30
0.0
 11
2714.385851848158
 21
-720.5069770222894
 31
0.0
  0
LINE
  5
1DBE
330
1DB9
100
AcDbEntity
  8
SIZE
 62
     0
370
    -2
100
AcDbLine
 10
2724.385851848158
 20
-495.1206883311142
 30
0.0
 11
2724.385851848158
 21
-700.5069770222895
 31
0.0
  0
INSERT
  5
1DBF
330
1DB9
100
AcDbEntity
  8
SIZE
 62
     0
370
    -2
100
AcDbBlockReference
  2
_OPEN30
 10
2724.385851848158
 20
-475.1206883311142
 30
0.0
 41
20.0
 42
20.0
 43
20.0
 50
90.0
  0
INSERT
  5
1DC0
330
1DB9
100
AcDbEntity
  8
SIZE
 62
     0
370
    -2
100
AcDbBlockReference
  2
_OPEN30
 10
2724.385851848158
 20
-720.5069770222894
 30
0.0
 41
20.0
 42
20.0
 43
20.0
 50
270.0
  0
MTEXT
  5
1DC1
330
1DB9
100
AcDbEntity
  8
SIZE
 62
     0
100
AcDbMText
 10
2704.385851848158
 20
-597.8138326767012
 30
0.0
 40
20.0
 41
0.0
 71
     5
 72
     1
  1
\A1;245.5
 11
0.0000000000000001
 21
1.0
 31
0.0
 73
     1
 44
1.0
1001
ACAD
1000
MTEXTBEGIN
1070
    73
1070
     1
1070
    44
1040
1.0
1070
    74
1070
     0
1000
MTEXTEND
  0
POINT
  5
1DC2
330
1DB9
100
AcDbEntity
  8
Defpoints
 62
     0
100
AcDbPoint
 10
2772.327005936793
 20
-475.1206883311142
 30
0.0
  0
POINT
  5
1DC3
330
1DB9
100
AcDbEntity
  8
Defpoints
 62
     0
100
AcDbPoint
 10
2808.82700569
 20
-720.5069770222894
 30
0.0
  0
POINT
  5
1DC4
330
1DB9
100
AcDbEntity
  8
Defpoints
 62
     0
100
AcDbPoint
 10
2724.385851848158
 20
-720.5069770222894
 30
0.0
  0
ENDBLK
  5
1DBB
330
1DB9
100
AcDbEntity
  8
0
100
AcDbBlockEnd
  0
BLOCK
  5
1DC7
330
1DC6
100
AcDbEntity
  8
0
100
AcDbBlockBegin
  2
*D12
 70
     1
 10
0.0
 20
0.0
 30
0.0
  3
*D12
  1

  0
LINE
  5
1DC9
330
1DC6
100
AcDbEntity
  8
SIZE
 62
     0
370
    -2
100
AcDbLine
 10
3282.327005936794
 20
-475.1206888068273
 30
0.0
 11
3339.925708835958
 21
-475.1206888068273
 31
0.0
  0
LINE
  5
1DCA
330
1DC6
100
AcDbEntity
  8
SIZE
 62
     0
370
    -2
100
AcDbLine
 10
3276.82700564273
 20
-767.5069623831862
 30
0.0
 11
3339.925708835958
 21
-767.5069623831862
 31
0.0
  0
LINE
  5
1DCB
330
1DC6
100
AcDbEntity
  8
SIZE
 62
     0
370
    -2
100
AcDbLine
 10
3329.925708835958
 20
-495.1206888068274
 30
0.0
 11
3329.925708835958
 21
-747.5069623831862
 31
0.0
  0
INSERT
  5
1DCC
330
1DC6
100
AcDbEntity
  8
SIZE
 62
     0
370
    -2
100
AcDbBlockReference
  2
_OPEN30
 10
3329.925708835958
 20
-475.1206888068273
 30
0.0
 41
20.0
 42
20.0
 43
20.0
 50
90.0
  0
INSERT
  5
1DCD
330
1DC6
100
AcDbEntity
  8
SIZE
 62
     0
370
    -2
100
AcDbBlockReference
  2
_OPEN30
 10
3329.925708835958
 20
-767.5069623831862
 30
0.0
 41
20.0
 42
20.0
 43
20.0
 50
270.0
  0
MTEXT
  5
1DCE
330
1DC6
100
AcDbEntity
  8
SIZE
 62
     0
100
AcDbMText
 10
3309.925708835958
 20
-621.3138255950062
 30
0.0
 40
20.0
 41
0.0
 71
     5
 72
     1
  1
\A1;292.5
 11
0.0000000000000001
 21
1.0
 31
0.0
 73
     1
 44
1.0
1001
ACAD
1000
MTEXTBEGIN
1070
    73
1070
     1
1070
    44
1040
1.0
1070
    74
1070
     0
1000
MTEXTEND
  0
POINT
  5
1DCF
330
1DC6
100
AcDbEntity
  8
Defpoints
 62
     0
100
AcDbPoint
 10
3272.327005936794
 20
-475.1206888068273
 30
0.0
  0
POINT
  5
1DD0
330
1DC6
100
AcDbEntity
  8
Defpoints
 62
     0
100
AcDbPoint
 10
3266.82700564273
 20
-767.5069623831862
 30
0.0
  0
POINT
  5
1DD1
330
1DC6
100
AcDbEntity
  8
Defpoints
 62
     0
100
AcDbPoint
 10
3329.925708835958
 20
-767.5069623831862
 30
0.0
  0
ENDBLK
  5
1DC8
330
1DC6
100
AcDbEntity
  8
0
100
AcDbBlockEnd
  0
BLOCK
  5
1DD4
330
1DD3
100
AcDbEntity
  8
0
100
AcDbBlockBegin
  2
*D13
 70
     1
 10
0.0
 20
0.0
 30
0.0
  3
*D13
  1

  0
LINE
  5
1DD6
330
1DD3
100
AcDbEntity
  8
SIZE
 62
     0
370
    -2
100
AcDbLine
 10
3224.827005636696
 20
-773.5069604404216
 30
0.0
 11
2666.929781465833
 21
-773.5069604404214
 31
0.0
  0
LINE
  5
1DD7
330
1DD3
100
AcDbEntity
  8
SIZE
 62
     0
370
    -2
100
AcDbLine
 10
2768.827006885381
 20
520.8793111971979
 30
0.0
 11
2666.929781465833
 21
520.8793111971979
 31
0.0
  0
LINE
  5
1DD8
330
1DD3
100
AcDbEntity
  8
SIZE
 62
     0
370
    -2
100
AcDbLine
 10
2676.929781465833
 20
-753.5069604404214
 30
0.0
 11
2676.929781465833
 21
500.8793111971979
 31
0.0
  0
INSERT
  5
1DD9
330
1DD3
100
AcDbEntity
  8
SIZE
 62
     0
370
    -2
100
AcDbBlockReference
  2
_OPEN30
 10
2676.929781465833
 20
-773.5069604404214
 30
0.0
 41
20.0
 42
20.0
 43
20.0
 50
270.0
  0
INSERT
  5
1DDA
330
1DD3
100
AcDbEntity
  8
SIZE
 62
     0
370
    -2
100
AcDbBlockReference
  2
_OPEN30
 10
2676.929781465833
 20
520.8793111971979
 30
0.0
 41
20.0
 42
20.0
 43
20.0
 50
90.0
  0
MTEXT
  5
1DDB
330
1DD3
100
AcDbEntity
  8
SIZE
 62
     0
100
AcDbMText
 10
2656.929781465833
 20
-126.3138246216114
 30
0.0
 40
20.0
 41
0.0
 71
     5
 72
     1
  1
\A1;1294.5
 11
0.0000000000000001
 21
1.0
 31
0.0
 73
     1
 44
1.0
1001
ACAD
1000
MTEXTBEGIN
1070
    73
1070
     1
1070
    44
1040
1.0
1070
    74
1070
     0
1000
MTEXTEND
  0
POINT
  5
1DDC
330
1DD3
100
AcDbEntity
  8
Defpoints
 62
     0
100
AcDbPoint
 10
3234.827005636696
 20
-773.5069604404216
 30
0.0
  0
POINT
  5
1DDD
330
1DD3
100
AcDbEntity
  8
Defpoints
 62
     0
100
AcDbPoint
 10
2778.827006885381
 20
520.8793111971979
 30
0.0
  0
POINT
  5
1DDE
330
1DD3
100
AcDbEntity
  8
Defpoints
 62
     0
100
AcDbPoint
 10
2676.929781465833
 20
520.8793111971979
 30
0.0
  0
ENDBLK
  5
1DD5
330
1DD3
100
AcDbEntity
  8
0
100
AcDbBlockEnd
  0
BLOCK
  5
1DE1
330
1DE0
100
AcDbEntity
  8
0
100
AcDbBlockBegin
  2
*D14
 70
     1
 10
0.0
 20
0.0
 30
0.0
  3
*D14
  1

  0
LINE
  5
1DE3
330
1DE0
100
AcDbEntity
  8
SIZE
 62
     0
370
    -2
100
AcDbLine
 10
2822.32700569
 20
-744.0069770222894
 30
0.0
 11
2822.32700569
 21
-845.8272182761897
 31
0.0
  0
LINE
  5
1DE4
330
1DE0
100
AcDbEntity
  8
SIZE
 62
     0
370
    -2
100
AcDbLine
 10
3253.32700564273
 20
-791.0069623831861
 30
0.0
 11
3253.32700564273
 21
-845.8272182761897
 31
0.0
  0
LINE
  5
1DE5
330
1DE0
100
AcDbEntity
  8
SIZE
 62
     0
370
    -2
100
AcDbLine
 10
2842.32700569
 20
-835.8272182761897
 30
0.0
 11
3233.32700564273
 21
-835.8272182761897
 31
0.0
  0
INSERT
  5
1DE6
330
1DE0
100
AcDbEntity
  8
SIZE
 62
     0
370
    -2
100
AcDbBlockReference
  2
_OPEN30
 10
2822.32700569
 20
-835.8272182761897
 30
0.0
 41
20.0
 42
20.0
 43
20.0
 50
180.0
  0
INSERT
  5
1DE7
330
1DE0
100
AcDbEntity
  8
SIZE
 62
     0
370
    -2
100
AcDbBlockReference
  2
_OPEN30
 10
3253.32700564273
 20
-835.8272182761897
 30
0.0
 41
20.0
 42
20.0
 43
20.0
  0
MTEXT
  5
1DE8
330
1DE0
100
AcDbEntity
  8
SIZE
 62
     0
100
AcDbMText
 10
3037.827005666365
 20
-815.8272182761896
 30
0.0
 40
20.0
 41
0.0
 71
     5
 72
     1
  1
\A1;431
 73
     1
 44
1.0
1001
ACAD
1000
MTEXTBEGIN
1070
    73
1070
     1
1070
    44
1040
1.0
1070
    74
1070
     0
1000
MTEXTEND
  0
POINT
  5
1DE9
330
1DE0
100
AcDbEntity
  8
Defpoints
 62
     0
100
AcDbPoint
 10
2822.32700569
 20
-734.0069770222894
 30
0.0
  0
POINT
  5
1DEA
330
1DE0
100
AcDbEntity
  8
Defpoints
 62
     0
100
AcDbPoint
 10
3253.32700564273
 20
-781.0069623831862
 30
0.0
  0
POINT
  5
1DEB
330
1DE0
100
AcDbEntity
  8
Defpoints
 62
     0
100
AcDbPoint
 10
3253.32700564273
 20
-835.8272182761897
 30
0.0
  0
ENDBLK
  5
1DE2
330
1DE0
100
AcDbEntity
  8
0
100
AcDbBlockEnd
  0
BLOCK
  5
1DEE
330
1DED
100
AcDbEntity
  8
0
100
AcDbBlockBegin
  2
*D15
 70
     1
 10
0.0
 20
0.0
 30
0.0
  3
*D15
  1

  0
LINE
  5
1DF0
330
1DED
100
AcDbEntity
  8
SIZE
 62
     0
370
    -2
100
AcDbLine
 10
2785.827006929457
 20
535.3793116688855
 30
0.0
 11
2785.827006929457
 21
573.8673980388328
 31
0.0
  0
LINE
  5
1DF1
330
1DED
100
AcDbEntity
  8
SIZE
 62
     0
370
    -2
100
AcDbLine
 10
3258.827006929458
 20
535.3793111931723
 30
0.0
 11
3258.827006929458
 21
573.8673980388328
 31
0.0
  0
LINE
  5
1DF2
330
1DED
100
AcDbEntity
  8
SIZE
 62
     0
370
    -2
100
AcDbLine
 10
2805.827006929457
 20
563.8673980388327
 30
0.0
 11
3238.827006929457
 21
563.8673980388327
 31
0.0
  0
INSERT
  5
1DF3
330
1DED
100
AcDbEntity
  8
SIZE
 62
     0
370
    -2
100
AcDbBlockReference
  2
_OPEN30
 10
2785.827006929457
 20
563.8673980388327
 30
0.0
 41
20.0
 42
20.0
 43
20.0
 50
180.0
  0
INSERT
  5
1DF4
330
1DED
100
AcDbEntity
  8
SIZE
 62
     0
370
    -2
100
AcDbBlockReference
  2
_OPEN30
 10
3258.827006929458
 20
563.8673980388327
 30
0.0
 41
20.0
 42
20.0
 43
20.0
  0
MTEXT
  5
1DF5
330
1DED
100
AcDbEntity
  8
SIZE
 62
     0
100
AcDbMText
 10
3022.327006929457
 20
583.8673980388327
 30
0.0
 40
20.0
 41
0.0
 71
     5
 72
     1
  1
\A1;473
 73
     1
 44
1.0
1001
ACAD
1000
MTEXTBEGIN
1070
    73
1070
     1
1070
    44
1040
1.0
1070
    74
1070
     0
1000
MTEXTEND
  0
POINT
  5
1DF6
330
1DED
100
AcDbEntity
  8
Defpoints
 62
     0
100
AcDbPoint
 10
2785.827006929457
 20
525.3793116688853
 30
0.0
  0
POINT
  5
1DF7
330
1DED
100
AcDbEntity
  8
Defpoints
 62
     0
100
AcDbPoint
 10
3258.827006929458
 20
525.3793111931725
 30
0.0
  0
POINT
  5
1DF8
330
1DED
100
AcDbEntity
  8
Defpoints
 62
     0
100
AcDbPoint
 10
3258.827006929458
 20
563.8673980388327
 30
0.0
  0
ENDBLK
  5
1DEF
330
1DED
100
AcDbEntity
  8
0
100
AcDbBlockEnd
  0
BLOCK
  5
1DFB
330
1DFA
100
AcDbEntity
  8
0
100
AcDbBlockBegin
  2
*D16
 70
     1
 10
0.0
 20
0.0
 30
0.0
  3
*D16
  1

  0
LINE
  5
1DFD
330
1DFA
100
AcDbEntity
  8
SIZE
 62
     0
370
    -2
100
AcDbLine
 10
3266.827006937505
 20
529.8793111851266
 30
0.0
 11
3266.827006937505
 21
615.7576775999244
 31
0.0
  0
LINE
  5
1DFE
330
1DFA
100
AcDbEntity
  8
SIZE
 62
     0
370
    -2
100
AcDbLine
 10
2777.827006937503
 20
529.8793116769314
 30
0.0
 11
2777.827006937503
 21
615.7576775999244
 31
0.0
  0
LINE
  5
1DFF
330
1DFA
100
AcDbEntity
  8
SIZE
 62
     0
370
    -2
100
AcDbLine
 10
3246.827006937503
 20
605.7576775999242
 30
0.0
 11
2797.827006937503
 21
605.7576775999242
 31
0.0
  0
INSERT
  5
1E00
330
1DFA
100
AcDbEntity
  8
SIZE
 62
     0
370
    -2
100
AcDbBlockReference
  2
_OPEN30
 10
3266.827006937505
 20
605.7576775999242
 30
0.0
 41
20.0
 42
20.0
 43
20.0
  0
INSERT
  5
1E01
330
1DFA
100
AcDbEntity
  8
SIZE
 62
     0
370
    -2
100
AcDbBlockReference
  2
_OPEN30
 10
2777.827006937503
 20
605.7576775999242
 30
0.0
 41
20.0
 42
20.0
 43
20.0
 50
180.0
  0
MTEXT
  5
1E02
330
1DFA
100
AcDbEntity
  8
SIZE
 62
     0
100
AcDbMText
 10
3022.327006937503
 20
625.7576775999242
 30
0.0
 40
20.0
 41
0.0
 71
     5
 72
     1
  1
\A1;489
 73
     1
 44
1.0
1001
ACAD
1000
MTEXTBEGIN
1070
    73
1070
     1
1070
    44
1040
1.0
1070
    74
1070
     0
1000
MTEXTEND
  0
POINT
  5
1E03
330
1DFA
100
AcDbEntity
  8
Defpoints
 62
     0
100
AcDbPoint
 10
3266.827006937505
 20
519.8793111851266
 30
0.0
  0
POINT
  5
1E04
330
1DFA
100
AcDbEntity
  8
Defpoints
 62
     0
100
AcDbPoint
 10
2777.827006937503
 20
519.8793116769317
 30
0.0
  0
POINT
  5
1E05
330
1DFA
100
AcDbEntity
  8
Defpoints
 62
     0
100
AcDbPoint
 10
2777.827006937503
 20
605.7576775999242
 30
0.0
  0
ENDBLK
  5
1DFC
330
1DFA
100
AcDbEntity
  8
0
100
AcDbBlockEnd
  0
BLOCK
  5
20A1
330
20A0
100
AcDbEntity
  8
0
100
AcDbBlockBegin
  2
*D17
 70
     1
 10
0.0
 20
0.0
 30
0.0
  3
*D17
  1

  0
LINE
  5
20A3
330
20A0
100
AcDbEntity
  8
SIZE
 62
     0
370
    -2
100
AcDbLine
 10
3846.443701630743
 20
543.0665476014892
 30
0.0
 11
3846.443701630743
 21
586.3267327050241
 31
0.0
  0
LINE
  5
20A4
330
20A0
100
AcDbEntity
  8
SIZE
 62
     0
370
    -2
100
AcDbLine
 10
4640.443701630744
 20
543.0665476014892
 30
0.0
 11
4640.443701630744
 21
586.3267327050241
 31
0.0
  0
LINE
  5
20A5
330
20A0
100
AcDbEntity
  8
SIZE
 62
     0
370
    -2
100
AcDbLine
 10
3866.443701630744
 20
576.3267327050241
 30
0.0
 11
4620.443701630743
 21
576.3267327050241
 31
0.0
  0
INSERT
  5
20A6
330
20A0
100
AcDbEntity
  8
SIZE
 62
     0
370
    -2
100
AcDbBlockReference
  2
_OPEN30
 10
3846.443701630743
 20
576.3267327050241
 30
0.0
 41
20.0
 42
20.0
 43
20.0
 50
180.0
  0
INSERT
  5
20A7
330
20A0
100
AcDbEntity
  8
SIZE
 62
     0
370
    -2
100
AcDbBlockReference
  2
_OPEN30
 10
4640.443701630744
 20
576.3267327050241
 30
0.0
 41
20.0
 42
20.0
 43
20.0
  0
MTEXT
  5
20A8
330
20A0
100
AcDbEntity
  8
SIZE
 62
     0
100
AcDbMText
 10
4243.443701630744
 20
596.3267327050241
 30
0.0
 40
20.0
 41
0.0
 71
     5
 72
     1
  1
\A1;794
 73
     1
 44
1.0
1001
ACAD
1000
MTEXTBEGIN
1070
    73
1070
     1
1070
    44
1040
1.0
1070
    74
1070
     0
1000
MTEXTEND
  0
POINT
  5
20A9
330
20A0
100
AcDbEntity
  8
Defpoints
 62
     0
100
AcDbPoint
 10
3846.443701630743
 20
533.0665476014892
 30
0.0
  0
POINT
  5
20AA
330
20A0
100
AcDbEntity
  8
Defpoints
 62
     0
100
AcDbPoint
 10
4640.443701630744
 20
533.0665476014892
 30
0.0
  0
POINT
  5
20AB
330
20A0
100
AcDbEntity
  8
Defpoints
 62
     0
100
AcDbPoint
 10
4640.443701630744
 20
576.3267327050241
 30
0.0
  0
ENDBLK
  5
20A2
330
20A0
100
AcDbEntity
  8
0
100
AcDbBlockEnd
  0
BLOCK
  5
20AE
330
20AD
100
AcDbEntity
  8
0
100
AcDbBlockBegin
  2
*D18
 70
     1
 10
0.0
 20
0.0
 30
0.0
  3
*D18
  1

  0
LINE
  5
20B0
330
20AD
100
AcDbEntity
  8
SIZE
 62
     0
370
    -2
100
AcDbLine
 10
3838.443701630744
 20
537.5665476014892
 30
0.0
 11
3838.443701630744
 21
630.6273215158624
 31
0.0
  0
LINE
  5
20B1
330
20AD
100
AcDbEntity
  8
SIZE
 62
     0
370
    -2
100
AcDbLine
 10
4648.443701630744
 20
537.5665476014813
 30
0.0
 11
4648.443701630744
 21
630.6273215158624
 31
0.0
  0
LINE
  5
20B2
330
20AD
100
AcDbEntity
  8
SIZE
 62
     0
370
    -2
100
AcDbLine
 10
3858.443701630744
 20
620.6273215158622
 30
0.0
 11
4628.443701630746
 21
620.6273215158622
 31
0.0
  0
INSERT
  5
20B3
330
20AD
100
AcDbEntity
  8
SIZE
 62
     0
370
    -2
100
AcDbBlockReference
  2
_OPEN30
 10
3838.443701630744
 20
620.6273215158622
 30
0.0
 41
20.0
 42
20.0
 43
20.0
 50
180.0
  0
INSERT
  5
20B4
330
20AD
100
AcDbEntity
  8
SIZE
 62
     0
370
    -2
100
AcDbBlockReference
  2
_OPEN30
 10
4648.443701630744
 20
620.6273215158622
 30
0.0
 41
20.0
 42
20.0
 43
20.0
  0
MTEXT
  5
20B5
330
20AD
100
AcDbEntity
  8
SIZE
 62
     0
100
AcDbMText
 10
4243.443701630744
 20
640.6273215158623
 30
0.0
 40
20.0
 41
0.0
 71
     5
 72
     1
  1
\A1;810
 73
     1
 44
1.0
1001
ACAD
1000
MTEXTBEGIN
1070
    73
1070
     1
1070
    44
1040
1.0
1070
    74
1070
     0
1000
MTEXTEND
  0
POINT
  5
20B6
330
20AD
100
AcDbEntity
  8
Defpoints
 62
     0
100
AcDbPoint
 10
3838.443701630744
 20
527.5665476014892
 30
0.0
  0
POINT
  5
20B7
330
20AD
100
AcDbEntity
  8
Defpoints
 62
     0
100
AcDbPoint
 10
4648.443701630744
 20
527.5665476014815
 30
0.0
  0
POINT
  5
20B8
330
20AD
100
AcDbEntity
  8
Defpoints
 62
     0
100
AcDbPoint
 10
4648.443701630744
 20
620.6273215158622
 30
0.0
  0
ENDBLK
  5
20AF
330
20AD
100
AcDbEntity
  8
0
100
AcDbBlockEnd
  0
BLOCK
  5
20BB
330
20BA
100
AcDbEntity
  8
0
100
AcDbBlockBegin
  2
*D19
 70
     1
 10
0.0
 20
0.0
 30
0.0
  3
*D19
  1

  0
LINE
  5
20BD
330
20BA
100
AcDbEntity
  8
SIZE
 62
     0
370
    -2
100
AcDbLine
 10
3822.943701630744
 20
519.5665476014892
 30
0.0
 11
3770.139651452152
 21
519.5665476014892
 31
0.0
  0
LINE
  5
20BE
330
20BA
100
AcDbEntity
  8
SIZE
 62
     0
370
    -2
100
AcDbLine
 10
3822.943701630744
 20
-46.43345239851123
 30
0.0
 11
3770.139651452152
 21
-46.43345239851121
 31
0.0
  0
LINE
  5
20BF
330
20BA
100
AcDbEntity
  8
SIZE
 62
     0
370
    -2
100
AcDbLine
 10
3780.139651452151
 20
499.5665476014891
 30
0.0
 11
3780.139651452151
 21
-26.43345239851122
 31
0.0
  0
INSERT
  5
20C0
330
20BA
100
AcDbEntity
  8
SIZE
 62
     0
370
    -2
100
AcDbBlockReference
  2
_OPEN30
 10
3780.139651452151
 20
519.5665476014892
 30
0.0
 41
20.0
 42
20.0
 43
20.0
 50
90.0
  0
INSERT
  5
20C1
330
20BA
100
AcDbEntity
  8
SIZE
 62
     0
370
    -2
100
AcDbBlockReference
  2
_OPEN30
 10
3780.139651452151
 20
-46.43345239851122
 30
0.0
 41
20.0
 42
20.0
 43
20.0
 50
270.0
  0
MTEXT
  5
20C2
330
20BA
100
AcDbEntity
  8
SIZE
 62
     0
100
AcDbMText
 10
3760.139651452152
 20
236.5665476014896
 30
0.0
 40
20.0
 41
0.0
 71
     5
 72
     1
  1
\A1;566
 11
0.0000000000000001
 21
1.0
 31
0.0
 73
     1
 44
1.0
1001
ACAD
1000
MTEXTBEGIN
1070
    73
1070
     1
1070
    44
1040
1.0
1070
    74
1070
     0
1000
MTEXTEND
  0
POINT
  5
20C3
330
20BA
100
AcDbEntity
  8
Defpoints
 62
     0
100
AcDbPoint
 10
3832.943701630744
 20
519.5665476014892
 30
0.0
  0
POINT
  5
20C4
330
20BA
100
AcDbEntity
  8
Defpoints
 62
     0
100
AcDbPoint
 10
3832.943701630744
 20
-46.43345239851123
 30
0.0
  0
POINT
  5
20C5
330
20BA
100
AcDbEntity
  8
Defpoints
 62
     0
100
AcDbPoint
 10
3780.139651452151
 20
-46.43345239851122
 30
0.0
  0
ENDBLK
  5
20BC
330
20BA
100
AcDbEntity
  8
0
100
AcDbBlockEnd
  0
BLOCK
  5
20C8
330
20C7
100
AcDbEntity
  8
0
100
AcDbBlockBegin
  2
*D20
 70
     1
 10
0.0
 20
0.0
 30
0.0
  3
*D20
  1

  0
LINE
  5
20CA
330
20C7
100
AcDbEntity
  8
SIZE
 62
     0
370
    -2
100
AcDbLine
 10
3822.943701630744
 20
-46.43345239851123
 30
0.0
 11
3770.139651452152
 21
-46.43345239851121
 31
0.0
  0
LINE
  5
20CB
330
20C7
100
AcDbEntity
  8
SIZE
 62
     0
370
    -2
100
AcDbLine
 10
3825.443701630744
 20
-713.4334523985107
 30
0.0
 11
3770.139651452152
 21
-713.4334523985107
 31
0.0
  0
LINE
  5
20CC
330
20C7
100
AcDbEntity
  8
SIZE
 62
     0
370
    -2
100
AcDbLine
 10
3780.139651452151
 20
-66.43345239851122
 30
0.0
 11
3780.139651452151
 21
-693.4334523985107
 31
0.0
  0
INSERT
  5
20CD
330
20C7
100
AcDbEntity
  8
SIZE
 62
     0
370
    -2
100
AcDbBlockReference
  2
_OPEN30
 10
3780.139651452151
 20
-46.43345239851122
 30
0.0
 41
20.0
 42
20.0
 43
20.0
 50
90.0
  0
INSERT
  5
20CE
330
20C7
100
AcDbEntity
  8
SIZE
 62
     0
370
    -2
100
AcDbBlockReference
  2
_OPEN30
 10
3780.139651452151
 20
-713.4334523985107
 30
0.0
 41
20.0
 42
20.0
 43
20.0
 50
270.0
  0
MTEXT
  5
20CF
330
20C7
100
AcDbEntity
  8
SIZE
 62
     0
100
AcDbMText
 10
3760.139651452152
 20
-379.9334523985105
 30
0.0
 40
20.0
 41
0.0
 71
     5
 72
     1
  1
\A1;667
 11
0.0000000000000001
 21
1.0
 31
0.0
 73
     1
 44
1.0
1001
ACAD
1000
MTEXTBEGIN
1070
    73
1070
     1
1070
    44
1040
1.0
1070
    74
1070
     0
1000
MTEXTEND
  0
POINT
  5
20D0
330
20C7
100
AcDbEntity
  8
Defpoints
 62
     0
100
AcDbPoint
 10
3832.943701630744
 20
-46.43345239851123
 30
0.0
  0
POINT
  5
20D1
330
20C7
100
AcDbEntity
  8
Defpoints
 62
     0
100
AcDbPoint
 10
3835.443701630744
 20
-713.4334523985107
 30
0.0
  0
POINT
  5
20D2
330
20C7
100
AcDbEntity
  8
Defpoints
 62
     0
100
AcDbPoint
 10
3780.139651452151
 20
-713.4334523985107
 30
0.0
  0
ENDBLK
  5
20C9
330
20C7
100
AcDbEntity
  8
0
100
AcDbBlockEnd
  0
BLOCK
  5
20D5
330
20D4
100
AcDbEntity
  8
0
100
AcDbBlockBegin
  2
*D21
 70
     1
 10
0.0
 20
0.0
 30
0.0
  3
*D21
  1

  0
LINE
  5
20D7
330
20D4
100
AcDbEntity
  8
SIZE
 62
     0
370
    -2
100
AcDbLine
 10
3828.443701630744
 20
-723.4334523985108
 30
0.0
 11
3722.936137213692
 21
-723.4334523985108
 31
0.0
  0
LINE
  5
20D8
330
20D4
100
AcDbEntity
  8
SIZE
 62
     0
370
    -2
100
AcDbLine
 10
3829.443701630769
 20
528.5665476013623
 30
0.0
 11
3722.936137213692
 21
528.5665476013623
 31
0.0
  0
LINE
  5
20D9
330
20D4
100
AcDbEntity
  8
SIZE
 62
     0
370
    -2
100
AcDbLine
 10
3732.936137213692
 20
-703.4334523985108
 30
0.0
 11
3732.936137213692
 21
508.5665476013621
 31
0.0
  0
INSERT
  5
20DA
330
20D4
100
AcDbEntity
  8
SIZE
 62
     0
370
    -2
100
AcDbBlockReference
  2
_OPEN30
 10
3732.936137213692
 20
-723.4334523985108
 30
0.0
 41
20.0
 42
20.0
 43
20.0
 50
270.0
  0
INSERT
  5
20DB
330
20D4
100
AcDbEntity
  8
SIZE
 62
     0
370
    -2
100
AcDbBlockReference
  2
_OPEN30
 10
3732.936137213692
 20
528.5665476013623
 30
0.0
 41
20.0
 42
20.0
 43
20.0
 50
90.0
  0
MTEXT
  5
20DC
330
20D4
100
AcDbEntity
  8
SIZE
 62
     0
100
AcDbMText
 10
3712.936137213692
 20
-97.43345239857365
 30
0.0
 40
20.0
 41
0.0
 71
     5
 72
     1
  1
\A1;1252
 11
0.0000000000000001
 21
1.0
 31
0.0
 73
     1
 44
1.0
1001
ACAD
1000
MTEXTBEGIN
1070
    73
1070
     1
1070
    44
1040
1.0
1070
    74
1070
     0
1000
MTEXTEND
  0
POINT
  5
20DD
330
20D4
100
AcDbEntity
  8
Defpoints
 62
     0
100
AcDbPoint
 10
3838.443701630744
 20
-723.4334523985108
 30
0.0
  0
POINT
  5
20DE
330
20D4
100
AcDbEntity
  8
Defpoints
 62
     0
100
AcDbPoint
 10
3839.443701630769
 20
528.5665476013623
 30
0.0
  0
POINT
  5
20DF
330
20D4
100
AcDbEntity
  8
Defpoints
 62
     0
100
AcDbPoint
 10
3732.936137213692
 20
528.5665476013623
 30
0.0
  0
ENDBLK
  5
20D6
330
20D4
100
AcDbEntity
  8
0
100
AcDbBlockEnd
  0
BLOCK
  5
21D0
330
21CF
100
AcDbEntity
  8
0
100
AcDbBlockBegin
  2
*D22
 70
     1
 10
0.0
 20
0.0
 30
0.0
  3
*D22
  1

  0
LINE
  5
21D2
330
21CF
100
AcDbEntity
  8
SIZE
 62
     0
370
    -2
100
AcDbLine
 10
3848.943701630744
 20
-736.9334523985108
 30
0.0
 11
3848.943701630744
 21
-803.5378455858321
 31
0.0
  0
LINE
  5
21D3
330
21CF
100
AcDbEntity
  8
SIZE
 62
     0
370
    -2
100
AcDbLine
 10
4637.943701630745
 20
-736.9334523985108
 30
0.0
 11
4637.943701630745
 21
-803.5378455858321
 31
0.0
  0
LINE
  5
21D4
330
21CF
100
AcDbEntity
  8
SIZE
 62
     0
370
    -2
100
AcDbLine
 10
3868.943701630744
 20
-793.537845585832
 30
0.0
 11
4617.943701630745
 21
-793.537845585832
 31
0.0
  0
INSERT
  5
21D5
330
21CF
100
AcDbEntity
  8
SIZE
 62
     0
370
    -2
100
AcDbBlockReference
  2
_OPEN30
 10
3848.943701630744
 20
-793.537845585832
 30
0.0
 41
20.0
 42
20.0
 43
20.0
 50
180.0
  0
INSERT
  5
21D6
330
21CF
100
AcDbEntity
  8
SIZE
 62
     0
370
    -2
100
AcDbBlockReference
  2
_OPEN30
 10
4637.943701630745
 20
-793.537845585832
 30
0.0
 41
20.0
 42
20.0
 43
20.0
  0
MTEXT
  5
21D7
330
21CF
100
AcDbEntity
  8
SIZE
 62
     0
100
AcDbMText
 10
4243.443701630744
 20
-773.5378455858322
 30
0.0
 40
20.0
 41
0.0
 71
     5
 72
     1
  1
\A1;789
 73
     1
 44
1.0
1001
ACAD
1000
MTEXTBEGIN
1070
    73
1070
     1
1070
    44
1040
1.0
1070
    74
1070
     0
1000
MTEXTEND
  0
POINT
  5
21D8
330
21CF
100
AcDbEntity
  8
Defpoints
 62
     0
100
AcDbPoint
 10
3848.943701630744
 20
-726.9334523985108
 30
0.0
  0
POINT
  5
21D9
330
21CF
100
AcDbEntity
  8
Defpoints
 62
     0
100
AcDbPoint
 10
4637.943701630745
 20
-726.9334523985108
 30
0.0
  0
POINT
  5
21DA
330
21CF
100
AcDbEntity
  8
Defpoints
 62
     0
100
AcDbPoint
 10
4637.943701630745
 20
-793.537845585832
 30
0.0
  0
ENDBLK
  5
21D1
330
21CF
100
AcDbEntity
  8
0
100
AcDbBlockEnd
  0
BLOCK
  5
21DD
330
21DC
100
AcDbEntity
  8
0
100
AcDbBlockBegin
  2
*D23
 70
     1
 10
0.0
 20
0.0
 30
0.0
  3
*D23
  1

  0
LINE
  5
21DF
330
21DC
100
AcDbEntity
  8
SIZE
 62
     0
370
    -2
100
AcDbLine
 10
3846.443701630743
 20
-22.93345239851124
 30
0.0
 11
3846.443701630743
 21
586.4923879218527
 31
0.0
  0
LINE
  5
21E0
330
21DC
100
AcDbEntity
  8
SIZE
 62
     0
370
    -2
100
AcDbLine
 10
4640.443701630744
 20
-22.93345239851124
 30
0.0
 11
4640.443701630744
 21
586.4923879218527
 31
0.0
  0
LINE
  5
21E1
330
21DC
100
AcDbEntity
  8
SIZE
 62
     0
370
    -2
100
AcDbLine
 10
3866.443701630743
 20
576.4923879218526
 30
0.0
 11
4620.443701630743
 21
576.4923879218526
 31
0.0
  0
INSERT
  5
21E2
330
21DC
100
AcDbEntity
  8
SIZE
 62
     0
370
    -2
100
AcDbBlockReference
  2
_OPEN30
 10
3846.443701630743
 20
576.4923879218526
 30
0.0
 41
20.0
 42
20.0
 43
20.0
 50
180.0
  0
INSERT
  5
21E3
330
21DC
100
AcDbEntity
  8
SIZE
 62
     0
370
    -2
100
AcDbBlockReference
  2
_OPEN30
 10
4640.443701630744
 20
576.4923879218526
 30
0.0
 41
20.0
 42
20.0
 43
20.0
  0
MTEXT
  5
21E4
330
21DC
100
AcDbEntity
  8
SIZE
 62
     0
100
AcDbMText
 10
4243.443701630744
 20
596.4923879218527
 30
0.0
 40
20.0
 41
0.0
 71
     5
 72
     1
  1
\A1;794
 73
     1
 44
1.0
1001
ACAD
1000
MTEXTBEGIN
1070
    73
1070
     1
1070
    44
1040
1.0
1070
    74
1070
     0
1000
MTEXTEND
  0
POINT
  5
21E5
330
21DC
100
AcDbEntity
  8
Defpoints
 62
     0
100
AcDbPoint
 10
3846.443701630743
 20
-32.93345239851124
 30
0.0
  0
POINT
  5
21E6
330
21DC
100
AcDbEntity
  8
Defpoints
 62
     0
100
AcDbPoint
 10
4640.443701630744
 20
-32.93345239851124
 30
0.0
  0
POINT
  5
21E7
330
21DC
100
AcDbEntity
  8
Defpoints
 62
     0
100
AcDbPoint
 10
4640.443701630744
 20
576.4923879218526
 30
0.0
  0
ENDBLK
  5
21DE
330
21DC
100
AcDbEntity
  8
0
100
AcDbBlockEnd
  0
BLOCK
  5
2491
330
2490
100
AcDbEntity
  8
0
100
AcDbBlockBegin
  2
*D24
 70
     1
 10
0.0
 20
0.0
 30
0.0
  3
*D24
  1

  0
LINE
  5
2493
330
2490
100
AcDbEntity
  8
SIZE
 62
     0
370
    -2
100
AcDbLine
 10
5245.313363714299
 20
557.0378216083931
 30
0.0
 11
5245.313363714299
 21
589.6543825268326
 31
0.0
  0
LINE
  5
2494
330
2490
100
AcDbEntity
  8
SIZE
 62
     0
370
    -2
100
AcDbLine
 10
6339.313363714298
 20
557.0378216083943
 30
0.0
 11
6339.313363714298
 21
589.6543825268326
 31
0.0
  0
LINE
  5
2495
330
2490
100
AcDbEntity
  8
SIZE
 62
     0
370
    -2
100
AcDbLine
 10
5265.313363714298
 20
579.6543825268327
 30
0.0
 11
6319.313363714298
 21
579.6543825268327
 31
0.0
  0
INSERT
  5
2496
330
2490
100
AcDbEntity
  8
SIZE
 62
     0
370
    -2
100
AcDbBlockReference
  2
_OPEN30
 10
5245.313363714299
 20
579.6543825268327
 30
0.0
 41
20.0
 42
20.0
 43
20.0
 50
180.0
  0
INSERT
  5
2497
330
2490
100
AcDbEntity
  8
SIZE
 62
     0
370
    -2
100
AcDbBlockReference
  2
_OPEN30
 10
6339.313363714298
 20
579.6543825268327
 30
0.0
 41
20.0
 42
20.0
 43
20.0
  0
MTEXT
  5
2498
330
2490
100
AcDbEntity
  8
SIZE
 62
     0
100
AcDbMText
 10
5792.313363714298
 20
599.6543825268327
 30
0.0
 40
20.0
 41
0.0
 71
     5
 72
     1
  1
\A1;1094
 73
     1
 44
1.0
1001
ACAD
1000
MTEXTBEGIN
1070
    73
1070
     1
1070
    44
1040
1.0
1070
    74
1070
     0
1000
MTEXTEND
  0
POINT
  5
2499
330
2490
100
AcDbEntity
  8
Defpoints
 62
     0
100
AcDbPoint
 10
5245.313363714299
 20
547.0378216083928
 30
0.0
  0
POINT
  5
249A
330
2490
100
AcDbEntity
  8
Defpoints
 62
     0
100
AcDbPoint
 10
6339.313363714298
 20
547.0378216083942
 30
0.0
  0
POINT
  5
249B
330
2490
100
AcDbEntity
  8
Defpoints
 62
     0
100
AcDbPoint
 10
6339.313363714298
 20
579.6543825268327
 30
0.0
  0
ENDBLK
  5
2492
330
2490
100
AcDbEntity
  8
0
100
AcDbBlockEnd
  0
BLOCK
  5
249E
330
249D
100
AcDbEntity
  8
0
100
AcDbBlockBegin
  2
*D25
 70
     1
 10
0.0
 20
0.0
 30
0.0
  3
*D25
  1

  0
LINE
  5
24A0
330
249D
100
AcDbEntity
  8
SIZE
 62
     0
370
    -2
100
AcDbLine
 10
5237.313363714299
 20
551.5378216083928
 30
0.0
 11
5237.313363714299
 21
632.6867111639876
 31
0.0
  0
LINE
  5
24A1
330
249D
100
AcDbEntity
  8
SIZE
 62
     0
370
    -2
100
AcDbLine
 10
6347.313363714299
 20
551.5378216083928
 30
0.0
 11
6347.313363714299
 21
632.6867111639876
 31
0.0
  0
LINE
  5
24A2
330
249D
100
AcDbEntity
  8
SIZE
 62
     0
370
    -2
100
AcDbLine
 10
5257.313363714298
 20
622.6867111639876
 30
0.0
 11
6327.313363714298
 21
622.6867111639876
 31
0.0
  0
INSERT
  5
24A3
330
249D
100
AcDbEntity
  8
SIZE
 62
     0
370
    -2
100
AcDbBlockReference
  2
_OPEN30
 10
5237.313363714299
 20
622.6867111639876
 30
0.0
 41
20.0
 42
20.0
 43
20.0
 50
180.0
  0
INSERT
  5
24A4
330
249D
100
AcDbEntity
  8
SIZE
 62
     0
370
    -2
100
AcDbBlockReference
  2
_OPEN30
 10
6347.313363714299
 20
622.6867111639876
 30
0.0
 41
20.0
 42
20.0
 43
20.0
  0
MTEXT
  5
24A5
330
249D
100
AcDbEntity
  8
SIZE
 62
     0
100
AcDbMText
 10
5792.313363714298
 20
642.6867111639876
 30
0.0
 40
20.0
 41
0.0
 71
     5
 72
     1
  1
\A1;1110
 73
     1
 44
1.0
1001
ACAD
1000
MTEXTBEGIN
1070
    73
1070
     1
1070
    44
1040
1.0
1070
    74
1070
     0
1000
MTEXTEND
  0
POINT
  5
24A6
330
249D
100
AcDbEntity
  8
Defpoints
 62
     0
100
AcDbPoint
 10
5237.313363714299
 20
541.5378216083928
 30
0.0
  0
POINT
  5
24A7
330
249D
100
AcDbEntity
  8
Defpoints
 62
     0
100
AcDbPoint
 10
6347.313363714299
 20
541.5378216083928
 30
0.0
  0
POINT
  5
24A8
330
249D
100
AcDbEntity
  8
Defpoints
 62
     0
100
AcDbPoint
 10
6347.313363714299
 20
622.6867111639876
 30
0.0
  0
ENDBLK
  5
249F
330
249D
100
AcDbEntity
  8
0
100
AcDbBlockEnd
  0
BLOCK
  5
24AB
330
24AA
100
AcDbEntity
  8
0
100
AcDbBlockBegin
  2
*D26
 70
     1
 10
0.0
 20
0.0
 30
0.0
  3
*D26
  1

  0
LINE
  5
24AD
330
24AA
100
AcDbEntity
  8
SIZE
 62
     0
370
    -2
100
AcDbLine
 10
5247.813363714298
 20
-722.962178391607
 30
0.0
 11
5247.813363714298
 21
-791.8885147251049
 31
0.0
  0
LINE
  5
24AE
330
24AA
100
AcDbEntity
  8
SIZE
 62
     0
370
    -2
100
AcDbLine
 10
6336.813363714298
 20
-722.962178391607
 30
0.0
 11
6336.813363714298
 21
-791.8885147251049
 31
0.0
  0
LINE
  5
24AF
330
24AA
100
AcDbEntity
  8
SIZE
 62
     0
370
    -2
100
AcDbLine
 10
5267.813363714298
 20
-781.8885147251051
 30
0.0
 11
6316.813363714299
 21
-781.8885147251051
 31
0.0
  0
INSERT
  5
24B0
330
24AA
100
AcDbEntity
  8
SIZE
 62
     0
370
    -2
100
AcDbBlockReference
  2
_OPEN30
 10
5247.813363714298
 20
-781.8885147251051
 30
0.0
 41
20.0
 42
20.0
 43
20.0
 50
180.0
  0
INSERT
  5
24B1
330
24AA
100
AcDbEntity
  8
SIZE
 62
     0
370
    -2
100
AcDbBlockReference
  2
_OPEN30
 10
6336.813363714298
 20
-781.8885147251051
 30
0.0
 41
20.0
 42
20.0
 43
20.0
  0
MTEXT
  5
24B2
330
24AA
100
AcDbEntity
  8
SIZE
 62
     0
100
AcDbMText
 10
5792.313363714298
 20
-761.8885147251051
 30
0.0
 40
20.0
 41
0.0
 71
     5
 72
     1
  1
\A1;1089
 73
     1
 44
1.0
1001
ACAD
1000
MTEXTBEGIN
1070
    73
1070
     1
1070
    44
1040
1.0
1070
    74
1070
     0
1000
MTEXTEND
  0
POINT
  5
24B3
330
24AA
100
AcDbEntity
  8
Defpoints
 62
     0
100
AcDbPoint
 10
5247.813363714298
 20
-712.962178391607
 30
0.0
  0
POINT
  5
24B4
330
24AA
100
AcDbEntity
  8
Defpoints
 62
     0
100
AcDbPoint
 10
6336.813363714298
 20
-712.962178391607
 30
0.0
  0
POINT
  5
24B5
330
24AA
100
AcDbEntity
  8
Defpoints
 62
     0
100
AcDbPoint
 10
6336.813363714298
 20
-781.8885147251051
 30
0.0
  0
ENDBLK
  5
24AC
330
24AA
100
AcDbEntity
  8
0
100
AcDbBlockEnd
  0
BLOCK
  5
24B8
330
24B7
100
AcDbEntity
  8
0
100
AcDbBlockBegin
  2
*D27
 70
     1
 10
0.0
 20
0.0
 30
0.0
  3
*D27
  1

  0
LINE
  5
24BA
330
24B7
100
AcDbEntity
  8
SIZE
 62
     0
370
    -2
100
AcDbLine
 10
5221.813363714298
 20
533.5378216083928
 30
0.0
 11
5166.899180224439
 21
533.5378216083928
 31
0.0
  0
LINE
  5
24BB
330
24B7
100
AcDbEntity
  8
SIZE
 62
     0
370
    -2
100
AcDbLine
 10
5221.813363714298
 20
-32.46217839160749
 30
0.0
 11
5166.899180224439
 21
-32.46217839160748
 31
0.0
  0
LINE
  5
24BC
330
24B7
100
AcDbEntity
  8
SIZE
 62
     0
370
    -2
100
AcDbLine
 10
5176.899180224439
 20
513.5378216083928
 30
0.0
 11
5176.899180224439
 21
-12.46217839160748
 31
0.0
  0
INSERT
  5
24BD
330
24B7
100
AcDbEntity
  8
SIZE
 62
     0
370
    -2
100
AcDbBlockReference
  2
_OPEN30
 10
5176.899180224439
 20
533.5378216083928
 30
0.0
 41
20.0
 42
20.0
 43
20.0
 50
90.0
  0
INSERT
  5
24BE
330
24B7
100
AcDbEntity
  8
SIZE
 62
     0
370
    -2
100
AcDbBlockReference
  2
_OPEN30
 10
5176.899180224439
 20
-32.46217839160749
 30
0.0
 41
20.0
 42
20.0
 43
20.0
 50
270.0
  0
MTEXT
  5
24BF
330
24B7
100
AcDbEntity
  8
SIZE
 62
     0
100
AcDbMText
 10
5156.899180224439
 20
250.5378216083935
 30
0.0
 40
20.0
 41
0.0
 71
     5
 72
     1
  1
\A1;566
 11
0.0000000000000001
 21
1.0
 31
0.0
 73
     1
 44
1.0
1001
ACAD
1000
MTEXTBEGIN
1070
    73
1070
     1
1070
    44
1040
1.0
1070
    74
1070
     0
1000
MTEXTEND
  0
POINT
  5
24C0
330
24B7
100
AcDbEntity
  8
Defpoints
 62
     0
100
AcDbPoint
 10
5231.813363714298
 20
533.5378216083928
 30
0.0
  0
POINT
  5
24C1
330
24B7
100
AcDbEntity
  8
Defpoints
 62
     0
100
AcDbPoint
 10
5231.813363714298
 20
-32.46217839160749
 30
0.0
  0
POINT
  5
24C2
330
24B7
100
AcDbEntity
  8
Defpoints
 62
     0
100
AcDbPoint
 10
5176.899180224439
 20
-32.46217839160749
 30
0.0
  0
ENDBLK
  5
24B9
330
24B7
100
AcDbEntity
  8
0
100
AcDbBlockEnd
  0
BLOCK
  5
24C5
330
24C4
100
AcDbEntity
  8
0
100
AcDbBlockBegin
  2
*D28
 70
     1
 10
0.0
 20
0.0
 30
0.0
  3
*D28
  1

  0
LINE
  5
24C7
330
24C4
100
AcDbEntity
  8
SIZE
 62
     0
370
    -2
100
AcDbLine
 10
5221.813363714298
 20
-32.46217839160749
 30
0.0
 11
5166.899180224439
 21
-32.46217839160748
 31
0.0
  0
LINE
  5
24C8
330
24C4
100
AcDbEntity
  8
SIZE
 62
     0
370
    -2
100
AcDbLine
 10
5224.313363714298
 20
-699.462178391607
 30
0.0
 11
5166.899180224439
 21
-699.462178391607
 31
0.0
  0
LINE
  5
24C9
330
24C4
100
AcDbEntity
  8
SIZE
 62
     0
370
    -2
100
AcDbLine
 10
5176.899180224439
 20
-52.46217839160749
 30
0.0
 11
5176.899180224439
 21
-679.4621783916069
 31
0.0
  0
INSERT
  5
24CA
330
24C4
100
AcDbEntity
  8
SIZE
 62
     0
370
    -2
100
AcDbBlockReference
  2
_OPEN30
 10
5176.899180224439
 20
-32.46217839160749
 30
0.0
 41
20.0
 42
20.0
 43
20.0
 50
90.0
  0
INSERT
  5
24CB
330
24C4
100
AcDbEntity
  8
SIZE
 62
     0
370
    -2
100
AcDbBlockReference
  2
_OPEN30
 10
5176.899180224439
 20
-699.462178391607
 30
0.0
 41
20.0
 42
20.0
 43
20.0
 50
270.0
  0
MTEXT
  5
24CC
330
24C4
100
AcDbEntity
  8
SIZE
 62
     0
100
AcDbMText
 10
5156.899180224439
 20
-365.9621783916065
 30
0.0
 40
20.0
 41
0.0
 71
     5
 72
     1
  1
\A1;667
 11
0.0000000000000001
 21
1.0
 31
0.0
 73
     1
 44
1.0
1001
ACAD
1000
MTEXTBEGIN
1070
    73
1070
     1
1070
    44
1040
1.0
1070
    74
1070
     0
1000
MTEXTEND
  0
POINT
  5
24CD
330
24C4
100
AcDbEntity
  8
Defpoints
 62
     0
100
AcDbPoint
 10
5231.813363714298
 20
-32.46217839160749
 30
0.0
  0
POINT
  5
24CE
330
24C4
100
AcDbEntity
  8
Defpoints
 62
     0
100
AcDbPoint
 10
5234.313363714298
 20
-699.462178391607
 30
0.0
  0
POINT
  5
24CF
330
24C4
100
AcDbEntity
  8
Defpoints
 62
     0
100
AcDbPoint
 10
5176.899180224439
 20
-699.462178391607
 30
0.0
  0
ENDBLK
  5
24C6
330
24C4
100
AcDbEntity
  8
0
100
AcDbBlockEnd
  0
BLOCK
  5
24D2
330
24D1
100
AcDbEntity
  8
0
100
AcDbBlockBegin
  2
*D29
 70
     1
 10
0.0
 20
0.0
 30
0.0
  3
*D29
  1

  0
LINE
  5
24D4
330
24D1
100
AcDbEntity
  8
SIZE
 62
     0
370
    -2
100
AcDbLine
 10
5227.313363714298
 20
-709.4621783916062
 30
0.0
 11
5119.112935587281
 21
-709.4621783916062
 31
0.0
  0
LINE
  5
24D5
330
24D1
100
AcDbEntity
  8
SIZE
 62
     0
370
    -2
100
AcDbLine
 10
5228.313363714324
 20
542.5378216082662
 30
0.0
 11
5119.112935587281
 21
542.5378216082662
 31
0.0
  0
LINE
  5
24D6
330
24D1
100
AcDbEntity
  8
SIZE
 62
     0
370
    -2
100
AcDbLine
 10
5129.112935587282
 20
-689.4621783916062
 30
0.0
 11
5129.112935587282
 21
522.5378216082662
 31
0.0
  0
INSERT
  5
24D7
330
24D1
100
AcDbEntity
  8
SIZE
 62
     0
370
    -2
100
AcDbBlockReference
  2
_OPEN30
 10
5129.112935587282
 20
-709.4621783916062
 30
0.0
 41
20.0
 42
20.0
 43
20.0
 50
270.0
  0
INSERT
  5
24D8
330
24D1
100
AcDbEntity
  8
SIZE
 62
     0
370
    -2
100
AcDbBlockReference
  2
_OPEN30
 10
5129.112935587282
 20
542.5378216082662
 30
0.0
 41
20.0
 42
20.0
 43
20.0
 50
90.0
  0
MTEXT
  5
24D9
330
24D1
100
AcDbEntity
  8
SIZE
 62
     0
100
AcDbMText
 10
5109.112935587281
 20
-83.4621783916693
 30
0.0
 40
20.0
 41
0.0
 71
     5
 72
     1
  1
\A1;1252
 11
0.0000000000000001
 21
1.0
 31
0.0
 73
     1
 44
1.0
1001
ACAD
1000
MTEXTBEGIN
1070
    73
1070
     1
1070
    44
1040
1.0
1070
    74
1070
     0
1000
MTEXTEND
  0
POINT
  5
24DA
330
24D1
100
AcDbEntity
  8
Defpoints
 62
     0
100
AcDbPoint
 10
5237.313363714299
 20
-709.4621783916062
 30
0.0
  0
POINT
  5
24DB
330
24D1
100
AcDbEntity
  8
Defpoints
 62
     0
100
AcDbPoint
 10
5238.313363714324
 20
542.5378216082662
 30
0.0
  0
POINT
  5
24DC
330
24D1
100
AcDbEntity
  8
Defpoints
 62
     0
100
AcDbPoint
 10
5129.112935587282
 20
542.5378216082662
 30
0.0
  0
ENDBLK
  5
24D3
330
24D1
100
AcDbEntity
  8
0
100
AcDbBlockEnd
  0
BLOCK
  5
25CA
330
25C9
100
AcDbEntity
  8
0
100
AcDbBlockBegin
  2
*D30
 70
     1
 10
0.0
 20
0.0
 30
0.0
  3
*D30
  1

  0
LINE
  5
25CC
330
25C9
100
AcDbEntity
  8
SIZE
 62
     0
370
    -2
100
AcDbLine
 10
5245.313363714299
 20
-8.962178391607487
 30
0.0
 11
5245.313363714299
 21
593.2735050868335
 31
0.0
  0
LINE
  5
25CD
330
25C9
100
AcDbEntity
  8
SIZE
 62
     0
370
    -2
100
AcDbLine
 10
6339.313363714298
 20
-8.962178391607487
 30
0.0
 11
6339.313363714298
 21
593.2735050868335
 31
0.0
  0
LINE
  5
25CE
330
25C9
100
AcDbEntity
  8
SIZE
 62
     0
370
    -2
100
AcDbLine
 10
5265.313363714299
 20
583.2735050868335
 30
0.0
 11
6319.313363714298
 21
583.2735050868335
 31
0.0
  0
INSERT
  5
25CF
330
25C9
100
AcDbEntity
  8
SIZE
 62
     0
370
    -2
100
AcDbBlockReference
  2
_OPEN30
 10
5245.313363714299
 20
583.2735050868335
 30
0.0
 41
20.0
 42
20.0
 43
20.0
 50
180.0
  0
INSERT
  5
25D0
330
25C9
100
AcDbEntity
  8
SIZE
 62
     0
370
    -2
100
AcDbBlockReference
  2
_OPEN30
 10
6339.313363714298
 20
583.2735050868335
 30
0.0
 41
20.0
 42
20.0
 43
20.0
  0
MTEXT
  5
25D1
330
25C9
100
AcDbEntity
  8
SIZE
 62
     0
100
AcDbMText
 10
5792.313363714298
 20
603.2735050868335
 30
0.0
 40
20.0
 41
0.0
 71
     5
 72
     1
  1
\A1;1094
 73
     1
 44
1.0
1001
ACAD
1000
MTEXTBEGIN
1070
    73
1070
     1
1070
    44
1040
1.0
1070
    74
1070
     0
1000
MTEXTEND
  0
POINT
  5
25D2
330
25C9
100
AcDbEntity
  8
Defpoints
 62
     0
100
AcDbPoint
 10
5245.313363714299
 20
-18.96217839160749
 30
0.0
  0
POINT
  5
25D3
330
25C9
100
AcDbEntity
  8
Defpoints
 62
     0
100
AcDbPoint
 10
6339.313363714298
 20
-18.96217839160749
 30
0.0
  0
POINT
  5
25D4
330
25C9
100
AcDbEntity
  8
Defpoints
 62
     0
100
AcDbPoint
 10
6339.313363714298
 20
583.2735050868335
 30
0.0
  0
ENDBLK
  5
25CB
330
25C9
100
AcDbEntity
  8
0
100
AcDbBlockEnd
  0
BLOCK
  5
2D37
330
2D36
100
AcDbEntity
  8
0
100
AcDbBlockBegin
  2
*D31
 70
     1
 10
0.0
 20
0.0
 30
0.0
  3
*D31
  1

  0
LINE
  5
2D39
330
2D36
100
AcDbEntity
  8
SIZE
 62
     0
370
    -2
100
AcDbLine
 10
7197.739136810786
 20
553.28461179187
 30
0.0
 11
7197.739136810786
 21
609.7516821281255
 31
0.0
  0
LINE
  5
2D3A
330
2D36
100
AcDbEntity
  8
SIZE
 62
     0
370
    -2
100
AcDbLine
 10
7990.739136810788
 20
553.28461179187
 30
0.0
 11
7990.739136810788
 21
609.7516821281255
 31
0.0
  0
LINE
  5
2D3B
330
2D36
100
AcDbEntity
  8
SIZE
 62
     0
370
    -2
100
AcDbLine
 10
7217.739136810786
 20
599.7516821281252
 30
0.0
 11
7970.739136810786
 21
599.7516821281252
 31
0.0
  0
INSERT
  5
2D3C
330
2D36
100
AcDbEntity
  8
SIZE
 62
     0
370
    -2
100
AcDbBlockReference
  2
_OPEN30
 10
7197.739136810786
 20
599.7516821281252
 30
0.0
 41
20.0
 42
20.0
 43
20.0
 50
180.0
  0
INSERT
  5
2D3D
330
2D36
100
AcDbEntity
  8
SIZE
 62
     0
370
    -2
100
AcDbBlockReference
  2
_OPEN30
 10
7990.739136810788
 20
599.7516821281252
 30
0.0
 41
20.0
 42
20.0
 43
20.0
  0
MTEXT
  5
2D3E
330
2D36
100
AcDbEntity
  8
SIZE
 62
     0
100
AcDbMText
 10
7594.239136810786
 20
619.7516821281253
 30
0.0
 40
20.0
 41
0.0
 71
     5
 72
     1
  1
\A1;793
 73
     1
 44
1.0
1001
ACAD
1000
MTEXTBEGIN
1070
    73
1070
     1
1070
    44
1040
1.0
1070
    74
1070
     0
1000
MTEXTEND
  0
POINT
  5
2D3F
330
2D36
100
AcDbEntity
  8
Defpoints
 62
     0
100
AcDbPoint
 10
7197.739136810786
 20
543.28461179187
 30
0.0
  0
POINT
  5
2D40
330
2D36
100
AcDbEntity
  8
Defpoints
 62
     0
100
AcDbPoint
 10
7990.739136810788
 20
543.28461179187
 30
0.0
  0
POINT
  5
2D41
330
2D36
100
AcDbEntity
  8
Defpoints
 62
     0
100
AcDbPoint
 10
7990.739136810788
 20
599.7516821281252
 30
0.0
  0
ENDBLK
  5
2D38
330
2D36
100
AcDbEntity
  8
0
100
AcDbBlockEnd
  0
BLOCK
  5
2D44
330
2D43
100
AcDbEntity
  8
0
100
AcDbBlockBegin
  2
*D32
 70
     1
 10
0.0
 20
0.0
 30
0.0
  3
*D32
  1

  0
LINE
  5
30D8
330
2D43
100
AcDbEntity
  8
SIZE
 62
     0
370
    -2
100
AcDbLine
 10
7197.739136810786
 20
-32.71538820812998
 30
0.0
 11
7197.739136810786
 21
-808.3424303382908
 31
0.0
  0
LINE
  5
30D9
330
2D43
100
AcDbEntity
  8
SIZE
 62
     0
370
    -2
100
AcDbLine
 10
7976.739136810786
 20
-32.71538820812998
 30
0.0
 11
7976.739136810786
 21
-808.3424303382908
 31
0.0
  0
LINE
  5
30DA
330
2D43
100
AcDbEntity
  8
SIZE
 62
     0
370
    -2
100
AcDbLine
 10
7217.739136810786
 20
-798.3424303382908
 30
0.0
 11
7956.739136810786
 21
-798.3424303382908
 31
0.0
  0
INSERT
  5
30DB
330
2D43
100
AcDbEntity
  8
SIZE
 62
     0
370
    -2
100
AcDbBlockReference
  2
_OPEN30
 10
7197.739136810786
 20
-798.3424303382908
 30
0.0
 41
20.0
 42
20.0
 43
20.0
 50
180.0
  0
INSERT
  5
30DC
330
2D43
100
AcDbEntity
  8
SIZE
 62
     0
370
    -2
100
AcDbBlockReference
  2
_OPEN30
 10
7976.739136810786
 20
-798.3424303382908
 30
0.0
 41
20.0
 42
20.0
 43
20.0
  0
MTEXT
  5
30DD
330
2D43
100
AcDbEntity
  8
SIZE
 62
     0
100
AcDbMText
 10
7605.862001237477
 20
-778.3424303382908
 30
0.0
 40
20.0
 41
0.0
 71
     5
 72
     1
  1
\A1;779
 73
     1
 44
1.0
1001
ACAD
1000
MTEXTBEGIN
1070
    73
1070
     1
1070
    44
1040
1.0
1070
    74
1070
     0
1000
MTEXTEND
  0
POINT
  5
30DE
330
2D43
100
AcDbEntity
  8
Defpoints
 62
     0
100
AcDbPoint
 10
7197.739136810786
 20
-22.71538820812998
 30
0.0
  0
POINT
  5
30DF
330
2D43
100
AcDbEntity
  8
Defpoints
 62
     0
100
AcDbPoint
 10
7976.739136810786
 20
-22.71538820812998
 30
0.0
  0
POINT
  5
30E0
330
2D43
100
AcDbEntity
  8
Defpoints
 62
     0
100
AcDbPoint
 10
7976.739136810786
 20
-798.3424303382908
 30
0.0
  0
ENDBLK
  5
2D45
330
2D43
100
AcDbEntity
  8
0
100
AcDbBlockEnd
  0
BLOCK
  5
2D51
330
2D50
100
AcDbEntity
  8
0
100
AcDbBlockBegin
  2
*D33
 70
     1
 10
0.0
 20
0.0
 30
0.0
  3
*D33
  1

  0
LINE
  5
2D53
330
2D50
100
AcDbEntity
  8
SIZE
 62
     0
370
    -2
100
AcDbLine
 10
7197.739136810786
 20
553.28461179187
 30
0.0
 11
7197.739136810786
 21
589.7380288177428
 31
0.0
  0
LINE
  5
2D54
330
2D50
100
AcDbEntity
  8
SIZE
 62
     0
370
    -2
100
AcDbLine
 10
7990.739136810788
 20
553.2846117914057
 30
0.0
 11
7990.739136810788
 21
589.7380288177428
 31
0.0
  0
LINE
  5
2D55
330
2D50
100
AcDbEntity
  8
SIZE
 62
     0
370
    -2
100
AcDbLine
 10
7217.739136810786
 20
579.7380288177428
 30
0.0
 11
7970.739136810786
 21
579.7380288177428
 31
0.0
  0
INSERT
  5
2D56
330
2D50
100
AcDbEntity
  8
SIZE
 62
     0
370
    -2
100
AcDbBlockReference
  2
_OPEN30
 10
7197.739136810786
 20
579.7380288177428
 30
0.0
 41
20.0
 42
20.0
 43
20.0
 50
180.0
  0
INSERT
  5
2D57
330
2D50
100
AcDbEntity
  8
SIZE
 62
     0
370
    -2
100
AcDbBlockReference
  2
_OPEN30
 10
7990.739136810788
 20
579.7380288177428
 30
0.0
 41
20.0
 42
20.0
 43
20.0
  0
MTEXT
  5
2D58
330
2D50
100
AcDbEntity
  8
SIZE
 62
     0
100
AcDbMText
 10
7594.239136810786
 20
599.7380288177428
 30
0.0
 40
20.0
 41
0.0
 71
     5
 72
     1
  1
\A1;793
 73
     1
 44
1.0
1001
ACAD
1000
MTEXTBEGIN
1070
    73
1070
     1
1070
    44
1040
1.0
1070
    74
1070
     0
1000
MTEXTEND
  0
POINT
  5
2D59
330
2D50
100
AcDbEntity
  8
Defpoints
 62
     0
100
AcDbPoint
 10
7197.739136810786
 20
543.28461179187
 30
0.0
  0
POINT
  5
2D5A
330
2D50
100
AcDbEntity
  8
Defpoints
 62
     0
100
AcDbPoint
 10
7990.739136810788
 20
543.2846117914057
 30
0.0
  0
POINT
  5
2D5B
330
2D50
100
AcDbEntity
  8
Defpoints
 62
     0
100
AcDbPoint
 10
7990.739136810788
 20
579.7380288177428
 30
0.0
  0
ENDBLK
  5
2D52
330
2D50
100
AcDbEntity
  8
0
100
AcDbBlockEnd
  0
BLOCK
  5
2D5E
330
2D5D
100
AcDbEntity
  8
0
100
AcDbBlockBegin
  2
*D34
 70
     1
 10
0.0
 20
0.0
 30
0.0
  3
*D34
  1

  0
LINE
  5
2D60
330
2D5D
100
AcDbEntity
  8
SIZE
 62
     0
370
    -2
100
AcDbLine
 10
7200.239136810786
 20
-726.7153882081297
 30
0.0
 11
7200.239136810786
 21
-797.4117781242616
 31
0.0
  0
LINE
  5
2D61
330
2D5D
100
AcDbEntity
  8
SIZE
 62
     0
370
    -2
100
AcDbLine
 10
7976.739136810786
 20
-680.7153882085939
 30
0.0
 11
7976.739136810786
 21
-797.4117781242616
 31
0.0
  0
LINE
  5
2D62
330
2D5D
100
AcDbEntity
  8
SIZE
 62
     0
370
    -2
100
AcDbLine
 10
7220.239136810786
 20
-787.4117781242613
 30
0.0
 11
7956.739136810786
 21
-787.4117781242613
 31
0.0
  0
INSERT
  5
2D63
330
2D5D
100
AcDbEntity
  8
SIZE
 62
     0
370
    -2
100
AcDbBlockReference
  2
_OPEN30
 10
7200.239136810786
 20
-787.4117781242613
 30
0.0
 41
20.0
 42
20.0
 43
20.0
 50
180.0
  0
INSERT
  5
2D64
330
2D5D
100
AcDbEntity
  8
SIZE
 62
     0
370
    -2
100
AcDbBlockReference
  2
_OPEN30
 10
7976.739136810786
 20
-787.4117781242613
 30
0.0
 41
20.0
 42
20.0
 43
20.0
  0
MTEXT
  5
2D65
330
2D5D
100
AcDbEntity
  8
SIZE
 62
     0
100
AcDbMText
 10
7588.489136810787
 20
-767.4117781242613
 30
0.0
 40
20.0
 41
0.0
 71
     5
 72
     1
  1
\A1;776.5
 73
     1
 44
1.0
1001
ACAD
1000
MTEXTBEGIN
1070
    73
1070
     1
1070
    44
1040
1.0
1070
    74
1070
     0
1000
MTEXTEND
  0
POINT
  5
2D66
330
2D5D
100
AcDbEntity
  8
Defpoints
 62
     0
100
AcDbPoint
 10
7200.239136810786
 20
-716.7153882081297
 30
0.0
  0
POINT
  5
2D67
330
2D5D
100
AcDbEntity
  8
Defpoints
 62
     0
100
AcDbPoint
 10
7976.739136810786
 20
-670.7153882085939
 30
0.0
  0
POINT
  5
2D68
330
2D5D
100
AcDbEntity
  8
Defpoints
 62
     0
100
AcDbPoint
 10
7976.739136810786
 20
-787.4117781242613
 30
0.0
  0
ENDBLK
  5
2D5F
330
2D5D
100
AcDbEntity
  8
0
100
AcDbBlockEnd
  0
BLOCK
  5
2D6B
330
2D6A
100
AcDbEntity
  8
0
100
AcDbBlockBegin
  2
*D35
 70
     1
 10
0.0
 20
0.0
 30
0.0
  3
*D35
  1

  0
LINE
  5
2D76
330
2D6A
100
AcDbEntity
  8
SIZE
 62
     0
370
    -2
100
AcDbLine
 10
7976.739136810786
 20
-680.7153882085939
 30
0.0
 11
7976.739136810786
 21
-797.4117781242616
 31
0.0
  0
LINE
  5
2D77
330
2D6A
100
AcDbEntity
  8
SIZE
 62
     0
370
    -2
100
AcDbLine
 10
8042.739136810785
 20
-680.7153882085939
 30
0.0
 11
8042.739136810785
 21
-797.4117781242616
 31
0.0
  0
LINE
  5
2D78
330
2D6A
100
AcDbEntity
  8
SIZE
 62
     0
370
    -2
100
AcDbLine
 10
7996.739136810787
 20
-787.4117781242613
 30
0.0
 11
8022.739136810784
 21
-787.4117781242613
 31
0.0
  0
INSERT
  5
2D79
330
2D6A
100
AcDbEntity
  8
SIZE
 62
     0
370
    -2
100
AcDbBlockReference
  2
_OPEN30
 10
7976.739136810786
 20
-787.4117781242613
 30
0.0
 41
20.0
 42
20.0
 43
20.0
 50
180.0
  0
INSERT
  5
2D7A
330
2D6A
100
AcDbEntity
  8
SIZE
 62
     0
370
    -2
100
AcDbBlockReference
  2
_OPEN30
 10
8042.739136810785
 20
-787.4117781242613
 30
0.0
 41
20.0
 42
20.0
 43
20.0
  0
MTEXT
  5
2D7B
330
2D6A
100
AcDbEntity
  8
SIZE
 62
     0
100
AcDbMText
 10
8009.739136810786
 20
-767.4117781242613
 30
0.0
 40
20.0
 41
0.0
 71
     5
 72
     1
  1
\A1;66
 73
     1
 44
1.0
1001
ACAD
1000
MTEXTBEGIN
1070
    73
1070
     1
1070
    44
1040
1.0
1070
    74
1070
     0
1000
MTEXTEND
  0
POINT
  5
2D7C
330
2D6A
100
AcDbEntity
  8
Defpoints
 62
     0
100
AcDbPoint
 10
7976.739136810786
 20
-670.7153882085939
 30
0.0
  0
POINT
  5
2D7D
330
2D6A
100
AcDbEntity
  8
Defpoints
 62
     0
100
AcDbPoint
 10
8042.739136810785
 20
-670.7153882085939
 30
0.0
  0
POINT
  5
2D7E
330
2D6A
100
AcDbEntity
  8
Defpoints
 62
     0
100
AcDbPoint
 10
8042.739136810785
 20
-787.4117781242613
 30
0.0
  0
ENDBLK
  5
2D6C
330
2D6A
100
AcDbEntity
  8
0
100
AcDbBlockEnd
  0
BLOCK
  5
2D81
330
2D80
100
AcDbEntity
  8
0
100
AcDbBlockBegin
  2
*D36
 70
     1
 10
0.0
 20
0.0
 30
0.0
  3
*D36
  1

  0
LINE
  5
2D8C
330
2D80
100
AcDbEntity
  8
SIZE
 62
     0
370
    -2
100
AcDbLine
 10
8042.739136810785
 20
-680.7153882081625
 30
0.0
 11
8042.739136810785
 21
-797.4117781242616
 31
0.0
  0
LINE
  5
2D8D
330
2D80
100
AcDbEntity
  8
SIZE
 62
     0
370
    -2
100
AcDbLine
 10
8819.239136810786
 20
-726.7153882081315
 30
0.0
 11
8819.239136810786
 21
-797.4117781242616
 31
0.0
  0
LINE
  5
2D8E
330
2D80
100
AcDbEntity
  8
SIZE
 62
     0
370
    -2
100
AcDbLine
 10
8062.739136810785
 20
-787.4117781242613
 30
0.0
 11
8799.239136810786
 21
-787.4117781242613
 31
0.0
  0
INSERT
  5
2D8F
330
2D80
100
AcDbEntity
  8
SIZE
 62
     0
370
    -2
100
AcDbBlockReference
  2
_OPEN30
 10
8042.739136810785
 20
-787.4117781242613
 30
0.0
 41
20.0
 42
20.0
 43
20.0
 50
180.0
  0
INSERT
  5
2D90
330
2D80
100
AcDbEntity
  8
SIZE
 62
     0
370
    -2
100
AcDbBlockReference
  2
_OPEN30
 10
8819.239136810786
 20
-787.4117781242613
 30
0.0
 41
20.0
 42
20.0
 43
20.0
  0
MTEXT
  5
2D91
330
2D80
100
AcDbEntity
  8
SIZE
 62
     0
100
AcDbMText
 10
8430.989136810785
 20
-767.4117781242613
 30
0.0
 40
20.0
 41
0.0
 71
     5
 72
     1
  1
\A1;776.5
 73
     1
 44
1.0
1001
ACAD
1000
MTEXTBEGIN
1070
    73
1070
     1
1070
    44
1040
1.0
1070
    74
1070
     0
1000
MTEXTEND
  0
POINT
  5
2D92
330
2D80
100
AcDbEntity
  8
Defpoints
 62
     0
100
AcDbPoint
 10
8042.739136810785
 20
-670.7153882081625
 30
0.0
  0
POINT
  5
2D93
330
2D80
100
AcDbEntity
  8
Defpoints
 62
     0
100
AcDbPoint
 10
8819.239136810786
 20
-716.7153882081315
 30
0.0
  0
POINT
  5
2D94
330
2D80
100
AcDbEntity
  8
Defpoints
 62
     0
100
AcDbPoint
 10
8819.239136810786
 20
-787.4117781242613
 30
0.0
  0
ENDBLK
  5
2D82
330
2D80
100
AcDbEntity
  8
0
100
AcDbBlockEnd
  0
BLOCK
  5
2D97
330
2D96
100
AcDbEntity
  8
0
100
AcDbBlockBegin
  2
*D37
 70
     1
 10
0.0
 20
0.0
 30
0.0
  3
*D37
  1

  0
LINE
  5
30E1
330
2D96
100
AcDbEntity
  8
SIZE
 62
     0
370
    -2
100
AcDbLine
 10
7976.739136810786
 20
-32.71538820859416
 30
0.0
 11
7976.739136810786
 21
-808.3424303382908
 31
0.0
  0
LINE
  5
30E2
330
2D96
100
AcDbEntity
  8
SIZE
 62
     0
370
    -2
100
AcDbLine
 10
8042.739136810785
 20
-32.71538820816272
 30
0.0
 11
8042.739136810785
 21
-808.3424303382908
 31
0.0
  0
LINE
  5
30E3
330
2D96
100
AcDbEntity
  8
SIZE
 62
     0
370
    -2
100
AcDbLine
 10
7996.739136810787
 20
-798.3424303382908
 30
0.0
 11
8022.739136810784
 21
-798.3424303382908
 31
0.0
  0
INSERT
  5
30E4
330
2D96
100
AcDbEntity
  8
SIZE
 62
     0
370
    -2
100
AcDbBlockReference
  2
_OPEN30
 10
7976.739136810786
 20
-798.3424303382908
 30
0.0
 41
20.0
 42
20.0
 43
20.0
 50
180.0
  0
INSERT
  5
30E5
330
2D96
100
AcDbEntity
  8
SIZE
 62
     0
370
    -2
100
AcDbBlockReference
  2
_OPEN30
 10
8042.739136810785
 20
-798.3424303382908
 30
0.0
 41
20.0
 42
20.0
 43
20.0
  0
MTEXT
  5
30E6
330
2D96
100
AcDbEntity
  8
SIZE
 62
     0
100
AcDbMText
 10
8007.878719731019
 20
-778.3424303382908
 30
0.0
 40
20.0
 41
0.0
 71
     5
 72
     1
  1
\A1;66
 73
     1
 44
1.0
1001
ACAD
1000
MTEXTBEGIN
1070
    73
1070
     1
1070
    44
1040
1.0
1070
    74
1070
     0
1000
MTEXTEND
  0
POINT
  5
30E7
330
2D96
100
AcDbEntity
  8
Defpoints
 62
     0
100
AcDbPoint
 10
7976.739136810786
 20
-22.71538820859416
 30
0.0
  0
POINT
  5
30E8
330
2D96
100
AcDbEntity
  8
Defpoints
 62
     0
100
AcDbPoint
 10
8042.739136810785
 20
-22.71538820816272
 30
0.0
  0
POINT
  5
30E9
330
2D96
100
AcDbEntity
  8
Defpoints
 62
     0
100
AcDbPoint
 10
8042.739136810785
 20
-798.3424303382908
 30
0.0
  0
ENDBLK
  5
2D98
330
2D96
100
AcDbEntity
  8
0
100
AcDbBlockEnd
  0
BLOCK
  5
2DD8
330
2DD7
100
AcDbEntity
  8
0
100
AcDbBlockBegin
  2
*D38
 70
     1
 10
0.0
 20
0.0
 30
0.0
  3
*D38
  1

  0
LINE
  5
30EA
330
2DD7
100
AcDbEntity
  8
SIZE
 62
     0
370
    -2
100
AcDbLine
 10
8042.739136810785
 20
-32.71538820816272
 30
0.0
 11
8042.739136810785
 21
-808.3424303382908
 31
0.0
  0
LINE
  5
30EB
330
2DD7
100
AcDbEntity
  8
SIZE
 62
     0
370
    -2
100
AcDbLine
 10
8821.739136810785
 20
-32.71538820816272
 30
0.0
 11
8821.739136810785
 21
-808.3424303382908
 31
0.0
  0
LINE
  5
30EC
330
2DD7
100
AcDbEntity
  8
SIZE
 62
     0
370
    -2
100
AcDbLine
 10
8062.739136810785
 20
-798.3424303382908
 30
0.0
 11
8801.739136810786
 21
-798.3424303382908
 31
0.0
  0
INSERT
  5
30ED
330
2DD7
100
AcDbEntity
  8
SIZE
 62
     0
370
    -2
100
AcDbBlockReference
  2
_OPEN30
 10
8042.739136810785
 20
-798.3424303382908
 30
0.0
 41
20.0
 42
20.0
 43
20.0
 50
180.0
  0
INSERT
  5
30EE
330
2DD7
100
AcDbEntity
  8
SIZE
 62
     0
370
    -2
100
AcDbBlockReference
  2
_OPEN30
 10
8821.739136810785
 20
-798.3424303382908
 30
0.0
 41
20.0
 42
20.0
 43
20.0
  0
MTEXT
  5
30EF
330
2DD7
100
AcDbEntity
  8
SIZE
 62
     0
100
AcDbMText
 10
8433.22685097266
 20
-778.3424303382908
 30
0.0
 40
20.0
 41
0.0
 71
     5
 72
     1
  1
\A1;779
 73
     1
 44
1.0
1001
ACAD
1000
MTEXTBEGIN
1070
    73
1070
     1
1070
    44
1040
1.0
1070
    74
1070
     0
1000
MTEXTEND
  0
POINT
  5
30F0
330
2DD7
100
AcDbEntity
  8
Defpoints
 62
     0
100
AcDbPoint
 10
8042.739136810785
 20
-22.71538820816272
 30
0.0
  0
POINT
  5
30F1
330
2DD7
100
AcDbEntity
  8
Defpoints
 62
     0
100
AcDbPoint
 10
8821.739136810785
 20
-22.71538820816272
 30
0.0
  0
POINT
  5
30F2
330
2DD7
100
AcDbEntity
  8
Defpoints
 62
     0
100
AcDbPoint
 10
8821.739136810785
 20
-798.3424303382908
 30
0.0
  0
ENDBLK
  5
2DD9
330
2DD7
100
AcDbEntity
  8
0
100
AcDbBlockEnd
  0
BLOCK
  5
2DEE
330
2DED
100
AcDbEntity
  8
0
100
AcDbBlockBegin
  2
*D39
 70
     1
 10
0.0
 20
0.0
 30
0.0
  3
*D39
  1

  0
LINE
  5
2E06
330
2DED
100
AcDbEntity
  8
SIZE
 62
     0
370
    -2
100
AcDbLine
 10
7990.739136810788
 20
553.2846117914057
 30
0.0
 11
7990.739136810788
 21
589.7380288177428
 31
0.0
  0
LINE
  5
2E07
330
2DED
100
AcDbEntity
  8
SIZE
 62
     0
370
    -2
100
AcDbLine
 10
8028.739136810782
 20
553.2846117914057
 30
0.0
 11
8028.739136810782
 21
589.7380288177428
 31
0.0
  0
LINE
  5
2E08
330
2DED
100
AcDbEntity
  8
SIZE
 62
     0
370
    -2
100
AcDbLine
 10
7970.739136810786
 20
579.7380288177428
 30
0.0
 11
7950.739136810786
 21
579.7380288177428
 31
0.0
  0
LINE
  5
2E09
330
2DED
100
AcDbEntity
  8
SIZE
 62
     0
370
    -2
100
AcDbLine
 10
8048.739136810786
 20
579.7380288177428
 30
0.0
 11
8068.739136810785
 21
579.7380288177428
 31
0.0
  0
LINE
  5
2E0A
330
2DED
100
AcDbEntity
  8
SIZE
 62
     0
370
    -2
100
AcDbLine
 10
7990.739136810788
 20
579.7380288177428
 30
0.0
 11
8028.739136810782
 21
579.7380288177428
 31
0.0
  0
INSERT
  5
2E0B
330
2DED
100
AcDbEntity
  8
SIZE
 62
     0
370
    -2
100
AcDbBlockReference
  2
_OPEN30
 10
7990.739136810788
 20
579.7380288177428
 30
0.0
 41
20.0
 42
20.0
 43
20.0
  0
INSERT
  5
2E0C
330
2DED
100
AcDbEntity
  8
SIZE
 62
     0
370
    -2
100
AcDbBlockReference
  2
_OPEN30
 10
8028.739136810782
 20
579.7380288177428
 30
0.0
 41
20.0
 42
20.0
 43
20.0
 50
180.0
  0
MTEXT
  5
2E0D
330
2DED
100
AcDbEntity
  8
SIZE
 62
     0
100
AcDbMText
 10
8009.739136810786
 20
599.7380288177428
 30
0.0
 40
20.0
 41
0.0
 71
     5
 72
     1
  1
\A1;38
 73
     1
 44
1.0
1001
ACAD
1000
MTEXTBEGIN
1070
    73
1070
     1
1070
    44
1040
1.0
1070
    74
1070
     0
1000
MTEXTEND
  0
POINT
  5
2E0E
330
2DED
100
AcDbEntity
  8
Defpoints
 62
     0
100
AcDbPoint
 10
7990.739136810788
 20
543.2846117914057
 30
0.0
  0
POINT
  5
2E0F
330
2DED
100
AcDbEntity
  8
Defpoints
 62
     0
100
AcDbPoint
 10
8028.739136810782
 20
543.2846117914057
 30
0.0
  0
POINT
  5
2E10
330
2DED
100
AcDbEntity
  8
Defpoints
 62
     0
100
AcDbPoint
 10
8028.739136810782
 20
579.7380288177428
 30
0.0
  0
ENDBLK
  5
2DEF
330
2DED
100
AcDbEntity
  8
0
100
AcDbBlockEnd
  0
BLOCK
  5
2E13
330
2E12
100
AcDbEntity
  8
0
100
AcDbBlockBegin
  2
*D40
 70
     1
 10
0.0
 20
0.0
 30
0.0
  3
*D40
  1

  0
LINE
  5
2E1E
330
2E12
100
AcDbEntity
  8
SIZE
 62
     0
370
    -2
100
AcDbLine
 10
8028.739136810782
 20
553.2846117918372
 30
0.0
 11
8028.739136810782
 21
589.7380288177428
 31
0.0
  0
LINE
  5
2E1F
330
2E12
100
AcDbEntity
  8
SIZE
 62
     0
370
    -2
100
AcDbLine
 10
8821.739136810785
 20
553.2846117918682
 30
0.0
 11
8821.739136810785
 21
589.7380288177428
 31
0.0
  0
LINE
  5
2E20
330
2E12
100
AcDbEntity
  8
SIZE
 62
     0
370
    -2
100
AcDbLine
 10
8048.739136810786
 20
579.7380288177428
 30
0.0
 11
8801.739136810786
 21
579.7380288177428
 31
0.0
  0
INSERT
  5
2E21
330
2E12
100
AcDbEntity
  8
SIZE
 62
     0
370
    -2
100
AcDbBlockReference
  2
_OPEN30
 10
8028.739136810782
 20
579.7380288177428
 30
0.0
 41
20.0
 42
20.0
 43
20.0
 50
180.0
  0
INSERT
  5
2E22
330
2E12
100
AcDbEntity
  8
SIZE
 62
     0
370
    -2
100
AcDbBlockReference
  2
_OPEN30
 10
8821.739136810785
 20
579.7380288177428
 30
0.0
 41
20.0
 42
20.0
 43
20.0
  0
MTEXT
  5
2E23
330
2E12
100
AcDbEntity
  8
SIZE
 62
     0
100
AcDbMText
 10
8425.239136810786
 20
599.7380288177428
 30
0.0
 40
20.0
 41
0.0
 71
     5
 72
     1
  1
\A1;793
 73
     1
 44
1.0
1001
ACAD
1000
MTEXTBEGIN
1070
    73
1070
     1
1070
    44
1040
1.0
1070
    74
1070
     0
1000
MTEXTEND
  0
POINT
  5
2E24
330
2E12
100
AcDbEntity
  8
Defpoints
 62
     0
100
AcDbPoint
 10
8028.739136810782
 20
543.2846117918371
 30
0.0
  0
POINT
  5
2E25
330
2E12
100
AcDbEntity
  8
Defpoints
 62
     0
100
AcDbPoint
 10
8821.739136810785
 20
543.2846117918683
 30
0.0
  0
POINT
  5
2E26
330
2E12
100
AcDbEntity
  8
Defpoints
 62
     0
100
AcDbPoint
 10
8821.739136810785
 20
579.7380288177428
 30
0.0
  0
ENDBLK
  5
2E14
330
2E12
100
AcDbEntity
  8
0
100
AcDbBlockEnd
  0
BLOCK
  5
2E29
330
2E28
100
AcDbEntity
  8
0
100
AcDbBlockBegin
  2
*D41
 70
     1
 10
0.0
 20
0.0
 30
0.0
  3
*D41
  1

  0
LINE
  5
2E2B
330
2E28
100
AcDbEntity
  8
SIZE
 62
     0
370
    -2
100
AcDbLine
 10
7189.739136810786
 20
547.7846117918756
 30
0.0
 11
7189.739136810786
 21
631.4895579413271
 31
0.0
  0
LINE
  5
2E2C
330
2E28
100
AcDbEntity
  8
SIZE
 62
     0
370
    -2
100
AcDbLine
 10
8829.739136810784
 20
547.7846117918736
 30
0.0
 11
8829.739136810784
 21
631.4895579413271
 31
0.0
  0
LINE
  5
2E2D
330
2E28
100
AcDbEntity
  8
SIZE
 62
     0
370
    -2
100
AcDbLine
 10
7209.739136810786
 20
621.4895579413271
 30
0.0
 11
8809.739136810788
 21
621.4895579413271
 31
0.0
  0
INSERT
  5
2E2E
330
2E28
100
AcDbEntity
  8
SIZE
 62
     0
370
    -2
100
AcDbBlockReference
  2
_OPEN30
 10
7189.739136810786
 20
621.4895579413271
 30
0.0
 41
20.0
 42
20.0
 43
20.0
 50
180.0
  0
INSERT
  5
2E2F
330
2E28
100
AcDbEntity
  8
SIZE
 62
     0
370
    -2
100
AcDbBlockReference
  2
_OPEN30
 10
8829.739136810784
 20
621.4895579413271
 30
0.0
 41
20.0
 42
20.0
 43
20.0
  0
MTEXT
  5
2E30
330
2E28
100
AcDbEntity
  8
SIZE
 62
     0
100
AcDbMText
 10
8009.739136810786
 20
641.4895579413271
 30
0.0
 40
20.0
 41
0.0
 71
     5
 72
     1
  1
\A1;1640
 73
     1
 44
1.0
1001
ACAD
1000
MTEXTBEGIN
1070
    73
1070
     1
1070
    44
1040
1.0
1070
    74
1070
     0
1000
MTEXTEND
  0
POINT
  5
2E31
330
2E28
100
AcDbEntity
  8
Defpoints
 62
     0
100
AcDbPoint
 10
7189.739136810786
 20
537.7846117918758
 30
0.0
  0
POINT
  5
2E32
330
2E28
100
AcDbEntity
  8
Defpoints
 62
     0
100
AcDbPoint
 10
8829.739136810784
 20
537.7846117918736
 30
0.0
  0
POINT
  5
2E33
330
2E28
100
AcDbEntity
  8
Defpoints
 62
     0
100
AcDbPoint
 10
8829.739136810784
 20
621.4895579413271
 30
0.0
  0
ENDBLK
  5
2E2A
330
2E28
100
AcDbEntity
  8
0
100
AcDbBlockEnd
  0
BLOCK
  5
2E36
330
2E35
100
AcDbEntity
  8
0
100
AcDbBlockBegin
  2
*D42
 70
     1
 10
0.0
 20
0.0
 30
0.0
  3
*D42
  1

  0
LINE
  5
2E38
330
2E35
100
AcDbEntity
  8
SIZE
 62
     0
370
    -2
100
AcDbLine
 10
7174.239136810786
 20
529.78461179187
 30
0.0
 11
7138.434181269532
 21
529.78461179187
 31
0.0
  0
LINE
  5
2E39
330
2E35
100
AcDbEntity
  8
SIZE
 62
     0
370
    -2
100
AcDbLine
 10
7174.239136810786
 20
-36.21538820812997
 30
0.0
 11
7138.434181269532
 21
-36.21538820812997
 31
0.0
  0
LINE
  5
2E3A
330
2E35
100
AcDbEntity
  8
SIZE
 62
     0
370
    -2
100
AcDbLine
 10
7148.434181269532
 20
509.78461179187
 30
0.0
 11
7148.434181269532
 21
-16.21538820812997
 31
0.0
  0
INSERT
  5
2E3B
330
2E35
100
AcDbEntity
  8
SIZE
 62
     0
370
    -2
100
AcDbBlockReference
  2
_OPEN30
 10
7148.434181269532
 20
529.78461179187
 30
0.0
 41
20.0
 42
20.0
 43
20.0
 50
90.0
  0
INSERT
  5
2E3C
330
2E35
100
AcDbEntity
  8
SIZE
 62
     0
370
    -2
100
AcDbBlockReference
  2
_OPEN30
 10
7148.434181269532
 20
-36.21538820812997
 30
0.0
 41
20.0
 42
20.0
 43
20.0
 50
270.0
  0
MTEXT
  5
2E3D
330
2E35
100
AcDbEntity
  8
SIZE
 62
     0
100
AcDbMText
 10
7128.434181269532
 20
246.7846117918712
 30
0.0
 40
20.0
 41
0.0
 71
     5
 72
     1
  1
\A1;566
 11
0.0000000000000001
 21
1.0
 31
0.0
 73
     1
 44
1.0
1001
ACAD
1000
MTEXTBEGIN
1070
    73
1070
     1
1070
    44
1040
1.0
1070
    74
1070
     0
1000
MTEXTEND
  0
POINT
  5
2E3E
330
2E35
100
AcDbEntity
  8
Defpoints
 62
     0
100
AcDbPoint
 10
7184.239136810787
 20
529.78461179187
 30
0.0
  0
POINT
  5
2E3F
330
2E35
100
AcDbEntity
  8
Defpoints
 62
     0
100
AcDbPoint
 10
7184.239136810787
 20
-36.21538820812998
 30
0.0
  0
POINT
  5
2E40
330
2E35
100
AcDbEntity
  8
Defpoints
 62
     0
100
AcDbPoint
 10
7148.434181269532
 20
-36.21538820812997
 30
0.0
  0
ENDBLK
  5
2E37
330
2E35
100
AcDbEntity
  8
0
100
AcDbBlockEnd
  0
BLOCK
  5
2E43
330
2E42
100
AcDbEntity
  8
0
100
AcDbBlockBegin
  2
*D43
 70
     1
 10
0.0
 20
0.0
 30
0.0
  3
*D43
  1

  0
LINE
  5
2E45
330
2E42
100
AcDbEntity
  8
SIZE
 62
     0
370
    -2
100
AcDbLine
 10
7174.239136810786
 20
-36.21538820812997
 30
0.0
 11
7138.434181269532
 21
-36.21538820812997
 31
0.0
  0
LINE
  5
2E46
330
2E42
100
AcDbEntity
  8
SIZE
 62
     0
370
    -2
100
AcDbLine
 10
7176.739136810788
 20
-703.2153882081297
 30
0.0
 11
7138.434181269532
 21
-703.2153882081297
 31
0.0
  0
LINE
  5
2E47
330
2E42
100
AcDbEntity
  8
SIZE
 62
     0
370
    -2
100
AcDbLine
 10
7148.434181269532
 20
-56.21538820812997
 30
0.0
 11
7148.434181269532
 21
-683.2153882081297
 31
0.0
  0
INSERT
  5
2E48
330
2E42
100
AcDbEntity
  8
SIZE
 62
     0
370
    -2
100
AcDbBlockReference
  2
_OPEN30
 10
7148.434181269532
 20
-36.21538820812997
 30
0.0
 41
20.0
 42
20.0
 43
20.0
 50
90.0
  0
INSERT
  5
2E49
330
2E42
100
AcDbEntity
  8
SIZE
 62
     0
370
    -2
100
AcDbBlockReference
  2
_OPEN30
 10
7148.434181269532
 20
-703.2153882081297
 30
0.0
 41
20.0
 42
20.0
 43
20.0
 50
270.0
  0
MTEXT
  5
2E4A
330
2E42
100
AcDbEntity
  8
SIZE
 62
     0
100
AcDbMText
 10
7128.434181269532
 20
-369.7153882081287
 30
0.0
 40
20.0
 41
0.0
 71
     5
 72
     1
  1
\A1;667
 11
0.0000000000000001
 21
1.0
 31
0.0
 73
     1
 44
1.0
1001
ACAD
1000
MTEXTBEGIN
1070
    73
1070
     1
1070
    44
1040
1.0
1070
    74
1070
     0
1000
MTEXTEND
  0
POINT
  5
2E4B
330
2E42
100
AcDbEntity
  8
Defpoints
 62
     0
100
AcDbPoint
 10
7184.239136810787
 20
-36.21538820812998
 30
0.0
  0
POINT
  5
2E4C
330
2E42
100
AcDbEntity
  8
Defpoints
 62
     0
100
AcDbPoint
 10
7186.739136810786
 20
-703.2153882081297
 30
0.0
  0
POINT
  5
2E4D
330
2E42
100
AcDbEntity
  8
Defpoints
 62
     0
100
AcDbPoint
 10
7148.434181269532
 20
-703.2153882081297
 30
0.0
  0
ENDBLK
  5
2E44
330
2E42
100
AcDbEntity
  8
0
100
AcDbBlockEnd
  0
BLOCK
  5
2E50
330
2E4F
100
AcDbEntity
  8
0
100
AcDbBlockBegin
  2
*D44
 70
     1
 10
0.0
 20
0.0
 30
0.0
  3
*D44
  1

  0
LINE
  5
2E52
330
2E4F
100
AcDbEntity
  8
SIZE
 62
     0
370
    -2
100
AcDbLine
 10
7953.239136810786
 20
-36.21538820859417
 30
0.0
 11
7901.874986442668
 21
-36.21538820859414
 31
0.0
  0
LINE
  5
2E53
330
2E4F
100
AcDbEntity
  8
SIZE
 62
     0
370
    -2
100
AcDbLine
 10
7953.239136810786
 20
-657.2153882085939
 30
0.0
 11
7901.874986442668
 21
-657.2153882085939
 31
0.0
  0
LINE
  5
2E54
330
2E4F
100
AcDbEntity
  8
SIZE
 62
     0
370
    -2
100
AcDbLine
 10
7911.874986442666
 20
-56.21538820859415
 30
0.0
 11
7911.874986442666
 21
-637.2153882085939
 31
0.0
  0
INSERT
  5
2E55
330
2E4F
100
AcDbEntity
  8
SIZE
 62
     0
370
    -2
100
AcDbBlockReference
  2
_OPEN30
 10
7911.874986442666
 20
-36.21538820859415
 30
0.0
 41
20.0
 42
20.0
 43
20.0
 50
90.0
  0
INSERT
  5
2E56
330
2E4F
100
AcDbEntity
  8
SIZE
 62
     0
370
    -2
100
AcDbBlockReference
  2
_OPEN30
 10
7911.874986442666
 20
-657.2153882085939
 30
0.0
 41
20.0
 42
20.0
 43
20.0
 50
270.0
  0
MTEXT
  5
2E57
330
2E4F
100
AcDbEntity
  8
SIZE
 62
     0
100
AcDbMText
 10
7891.874986442664
 20
-346.7153882085928
 30
0.0
 40
20.0
 41
0.0
 71
     5
 72
     1
  1
\A1;621
 11
0.0000000000000001
 21
1.0
 31
0.0
 73
     1
 44
1.0
1001
ACAD
1000
MTEXTBEGIN
1070
    73
1070
     1
1070
    44
1040
1.0
1070
    74
1070
     0
1000
MTEXTEND
  0
POINT
  5
2E58
330
2E4F
100
AcDbEntity
  8
Defpoints
 62
     0
100
AcDbPoint
 10
7963.239136810786
 20
-36.21538820859417
 30
0.0
  0
POINT
  5
2E59
330
2E4F
100
AcDbEntity
  8
Defpoints
 62
     0
100
AcDbPoint
 10
7963.239136810786
 20
-657.2153882085939
 30
0.0
  0
POINT
  5
2E5A
330
2E4F
100
AcDbEntity
  8
Defpoints
 62
     0
100
AcDbPoint
 10
7911.874986442666
 20
-657.2153882085939
 30
0.0
  0
ENDBLK
  5
2E51
330
2E4F
100
AcDbEntity
  8
0
100
AcDbBlockEnd
  0
BLOCK
  5
2E5D
330
2E5C
100
AcDbEntity
  8
0
100
AcDbBlockBegin
  2
*D45
 70
     1
 10
0.0
 20
0.0
 30
0.0
  3
*D45
  1

  0
LINE
  5
2E5F
330
2E5C
100
AcDbEntity
  8
SIZE
 62
     0
370
    -2
100
AcDbLine
 10
7180.739136810813
 20
538.7846117917488
 30
0.0
 11
7086.170287581682
 21
538.7846117917488
 31
0.0
  0
LINE
  5
2E60
330
2E5C
100
AcDbEntity
  8
SIZE
 62
     0
370
    -2
100
AcDbLine
 10
7179.739136810788
 20
-713.2153882081245
 30
0.0
 11
7086.170287581682
 21
-713.2153882081245
 31
0.0
  0
LINE
  5
2E61
330
2E5C
100
AcDbEntity
  8
SIZE
 62
     0
370
    -2
100
AcDbLine
 10
7096.170287581682
 20
518.7846117917488
 30
0.0
 11
7096.170287581682
 21
-693.2153882081244
 31
0.0
  0
INSERT
  5
2E62
330
2E5C
100
AcDbEntity
  8
SIZE
 62
     0
370
    -2
100
AcDbBlockReference
  2
_OPEN30
 10
7096.170287581682
 20
538.7846117917488
 30
0.0
 41
20.0
 42
20.0
 43
20.0
 50
90.0
  0
INSERT
  5
2E63
330
2E5C
100
AcDbEntity
  8
SIZE
 62
     0
370
    -2
100
AcDbBlockReference
  2
_OPEN30
 10
7096.170287581682
 20
-713.2153882081245
 30
0.0
 41
20.0
 42
20.0
 43
20.0
 50
270.0
  0
MTEXT
  5
2E64
330
2E5C
100
AcDbEntity
  8
SIZE
 62
     0
100
AcDbMText
 10
7076.170287581682
 20
-87.21538820818668
 30
0.0
 40
20.0
 41
0.0
 71
     5
 72
     1
  1
\A1;1252
 11
0.0000000000000001
 21
1.0
 31
0.0
 73
     1
 44
1.0
1001
ACAD
1000
MTEXTBEGIN
1070
    73
1070
     1
1070
    44
1040
1.0
1070
    74
1070
     0
1000
MTEXTEND
  0
POINT
  5
2E65
330
2E5C
100
AcDbEntity
  8
Defpoints
 62
     0
100
AcDbPoint
 10
7190.739136810812
 20
538.7846117917488
 30
0.0
  0
POINT
  5
2E66
330
2E5C
100
AcDbEntity
  8
Defpoints
 62
     0
100
AcDbPoint
 10
7189.739136810786
 20
-713.2153882081245
 30
0.0
  0
POINT
  5
2E67
330
2E5C
100
AcDbEntity
  8
Defpoints
 62
     0
100
AcDbPoint
 10
7096.170287581682
 20
-713.2153882081245
 30
0.0
  0
ENDBLK
  5
2E5E
330
2E5C
100
AcDbEntity
  8
0
100
AcDbBlockEnd
  0
BLOCK
  5
2E92
330
2E91
100
AcDbEntity
  8
0
100
AcDbBlockBegin
  2
*D46
 70
     1
 10
0.0
 20
0.0
 30
0.0
  3
*D46
  1

  0
LINE
  5
2E9D
330
2E91
100
AcDbEntity
  8
SIZE
 62
     0
370
    -2
100
AcDbLine
 10
7967.319625547777
 20
529.7846117914057
 30
0.0
 11
7901.874986442668
 21
529.7846117914058
 31
0.0
  0
LINE
  5
2E9E
330
2E91
100
AcDbEntity
  8
SIZE
 62
     0
370
    -2
100
AcDbLine
 10
7953.239136810786
 20
-36.21538820859417
 30
0.0
 11
7901.874986442668
 21
-36.21538820859414
 31
0.0
  0
LINE
  5
2E9F
330
2E91
100
AcDbEntity
  8
SIZE
 62
     0
370
    -2
100
AcDbLine
 10
7911.874986442666
 20
509.7846117914057
 30
0.0
 11
7911.874986442666
 21
-16.21538820859415
 31
0.0
  0
INSERT
  5
2EA0
330
2E91
100
AcDbEntity
  8
SIZE
 62
     0
370
    -2
100
AcDbBlockReference
  2
_OPEN30
 10
7911.874986442666
 20
529.7846117914058
 30
0.0
 41
20.0
 42
20.0
 43
20.0
 50
90.0
  0
INSERT
  5
2EA1
330
2E91
100
AcDbEntity
  8
SIZE
 62
     0
370
    -2
100
AcDbBlockReference
  2
_OPEN30
 10
7911.874986442666
 20
-36.21538820859415
 30
0.0
 41
20.0
 42
20.0
 43
20.0
 50
270.0
  0
MTEXT
  5
2EA2
330
2E91
100
AcDbEntity
  8
SIZE
 62
     0
100
AcDbMText
 10
7891.874986442664
 20
246.7846117914071
 30
0.0
 40
20.0
 41
0.0
 71
     5
 72
     1
  1
\A1;566
 11
0.0000000000000001
 21
1.0
 31
0.0
 73
     1
 44
1.0
1001
ACAD
1000
MTEXTBEGIN
1070
    73
1070
     1
1070
    44
1040
1.0
1070
    74
1070
     0
1000
MTEXTEND
  0
POINT
  5
2EA3
330
2E91
100
AcDbEntity
  8
Defpoints
 62
     0
100
AcDbPoint
 10
7977.319625547777
 20
529.7846117914057
 30
0.0
  0
POINT
  5
2EA4
330
2E91
100
AcDbEntity
  8
Defpoints
 62
     0
100
AcDbPoint
 10
7963.239136810786
 20
-36.21538820859417
 30
0.0
  0
POINT
  5
2EA5
330
2E91
100
AcDbEntity
  8
Defpoints
 62
     0
100
AcDbPoint
 10
7911.874986442666
 20
-36.21538820859415
 30
0.0
  0
ENDBLK
  5
2E93
330
2E91
100
AcDbEntity
  8
0
100
AcDbBlockEnd
  0
BLOCK
  5
30F5
330
30F4
100
AcDbEntity
  8
0
100
AcDbBlockBegin
  2
*D48
 70
     1
 10
0.0
 20
0.0
 30
0.0
  3
*D48
  1

  0
LINE
  5
310D
330
30F4
100
AcDbEntity
  8
SIZE
 62
     0
370
    -2
100
AcDbLine
 10
7200.239136810786
 20
-726.7153882081297
 30
0.0
 11
7200.239136810786
 21
-772.138877512609
 31
0.0
  0
LINE
  5
310E
330
30F4
100
AcDbEntity
  8
SIZE
 62
     0
370
    -2
100
AcDbLine
 10
7197.739136810786
 20
-59.71538820812998
 30
0.0
 11
7197.739136810786
 21
-772.138877512609
 31
0.0
  0
LINE
  5
310F
330
30F4
100
AcDbEntity
  8
SIZE
 62
     0
370
    -2
100
AcDbLine
 10
7177.739136810787
 20
-762.138877512609
 30
0.0
 11
7157.739136810786
 21
-762.138877512609
 31
0.0
  0
LINE
  5
3110
330
30F4
100
AcDbEntity
  8
SIZE
 62
     0
370
    -2
100
AcDbLine
 10
7220.239136810786
 20
-762.138877512609
 30
0.0
 11
7303.175528322485
 21
-762.138877512609
 31
0.0
  0
LINE
  5
3111
330
30F4
100
AcDbEntity
  8
SIZE
 62
     0
370
    -2
100
AcDbLine
 10
7197.739136810786
 20
-762.138877512609
 30
0.0
 11
7200.239136810786
 21
-762.138877512609
 31
0.0
  0
INSERT
  5
3112
330
30F4
100
AcDbEntity
  8
SIZE
 62
     0
370
    -2
100
AcDbBlockReference
  2
_OPEN30
 10
7197.739136810786
 20
-762.138877512609
 30
0.0
 41
20.0
 42
20.0
 43
20.0
  0
INSERT
  5
3113
330
30F4
100
AcDbEntity
  8
SIZE
 62
     0
370
    -2
100
AcDbBlockReference
  2
_OPEN30
 10
7200.239136810786
 20
-762.138877512609
 30
0.0
 41
20.0
 42
20.0
 43
20.0
 50
180.0
  0
MTEXT
  5
3114
330
30F4
100
AcDbEntity
  8
SIZE
 62
     0
100
AcDbMText
 10
7272.223147370104
 20
-742.138877512609
 30
0.0
 40
20.0
 41
0.0
 71
     5
 72
     1
  1
\A1;2.5
 73
     1
 44
1.0
1001
ACAD
1000
MTEXTBEGIN
1070
    73
1070
     1
1070
    44
1040
1.0
1070
    74
1070
     0
1000
MTEXTEND
  0
POINT
  5
3115
330
30F4
100
AcDbEntity
  8
Defpoints
 62
     0
100
AcDbPoint
 10
7200.239136810786
 20
-716.7153882081297
 30
0.0
  0
POINT
  5
3116
330
30F4
100
AcDbEntity
  8
Defpoints
 62
     0
100
AcDbPoint
 10
7197.739136810786
 20
-49.71538820812998
 30
0.0
  0
POINT
  5
3117
330
30F4
100
AcDbEntity
  8
Defpoints
 62
     0
100
AcDbPoint
 10
7197.739136810786
 20
-762.138877512609
 30
0.0
  0
ENDBLK
  5
30F6
330
30F4
100
AcDbEntity
  8
0
100
AcDbBlockEnd
  0
BLOCK
  5
311A
330
3119
100
AcDbEntity
  8
0
100
AcDbBlockBegin
  2
*D49
 70
     1
 10
0.0
 20
0.0
 30
0.0
  3
*D49
  1

  0
LINE
  5
3132
330
3119
100
AcDbEntity
  8
SIZE
 62
     0
370
    -2
100
AcDbLine
 10
8819.239136810786
 20
-726.7153882081315
 30
0.0
 11
8819.239136810786
 21
-772.1705669118875
 31
0.0
  0
LINE
  5
3133
330
3119
100
AcDbEntity
  8
SIZE
 62
     0
370
    -2
100
AcDbLine
 10
8821.739136810785
 20
-59.71538820813157
 30
0.0
 11
8821.739136810785
 21
-772.1705669118875
 31
0.0
  0
LINE
  5
3134
330
3119
100
AcDbEntity
  8
SIZE
 62
     0
370
    -2
100
AcDbLine
 10
8841.739136810785
 20
-762.1705669118876
 30
0.0
 11
8861.739136810786
 21
-762.1705669118876
 31
0.0
  0
LINE
  5
3135
330
3119
100
AcDbEntity
  8
SIZE
 62
     0
370
    -2
100
AcDbLine
 10
8799.239136810786
 20
-762.1705669118876
 30
0.0
 11
8717.334374906023
 21
-762.1705669118876
 31
0.0
  0
LINE
  5
3136
330
3119
100
AcDbEntity
  8
SIZE
 62
     0
370
    -2
100
AcDbLine
 10
8821.739136810785
 20
-762.1705669118876
 30
0.0
 11
8819.239136810786
 21
-762.1705669118876
 31
0.0
  0
INSERT
  5
3137
330
3119
100
AcDbEntity
  8
SIZE
 62
     0
370
    -2
100
AcDbBlockReference
  2
_OPEN30
 10
8821.739136810785
 20
-762.1705669118876
 30
0.0
 41
20.0
 42
20.0
 43
20.0
 50
180.0
  0
INSERT
  5
3138
330
3119
100
AcDbEntity
  8
SIZE
 62
     0
370
    -2
100
AcDbBlockReference
  2
_OPEN30
 10
8819.239136810786
 20
-762.1705669118876
 30
0.0
 41
20.0
 42
20.0
 43
20.0
  0
MTEXT
  5
3139
330
3119
100
AcDbEntity
  8
SIZE
 62
     0
100
AcDbMText
 10
8748.286755858405
 20
-742.1705669118876
 30
0.0
 40
20.0
 41
0.0
 71
     5
 72
     1
  1
\A1;2.5
 73
     1
 44
1.0
1001
ACAD
1000
MTEXTBEGIN
1070
    73
1070
     1
1070
    44
1040
1.0
1070
    74
1070
     0
1000
MTEXTEND
  0
POINT
  5
313A
330
3119
100
AcDbEntity
  8
Defpoints
 62
     0
100
AcDbPoint
 10
8819.239136810786
 20
-716.7153882081315
 30
0.0
  0
POINT
  5
313B
330
3119
100
AcDbEntity
  8
Defpoints
 62
     0
100
AcDbPoint
 10
8821.739136810785
 20
-49.71538820813157
 30
0.0
  0
POINT
  5
313C
330
3119
100
AcDbEntity
  8
Defpoints
 62
     0
100
AcDbPoint
 10
8821.739136810785
 20
-762.1705669118876
 30
0.0
  0
ENDBLK
  5
311B
330
3119
100
AcDbEntity
  8
0
100
AcDbBlockEnd
  0
ENDSEC
  0
SECTION
  2
ENTITIES
  0
MTEXT
  5
B60
330
2
100
AcDbEntity
  8
ETC
100
AcDbMText
 10
7743.406879442931
 20
727.6652514802762
 30
0.0
 40
40.0
 41
651.9792552343242
 71
     1
 72
     5
  1
AG1S-KS89SD-3
 73
     1
 44
1.0
1001
ACAD
1000
MTEXTBEGIN
1070
    73
1070
     1
1070
    44
1040
1.0
1070
    74
1070
     0
1000
MTEXTEND
  0
MULTILEADER
  5
1E06
330
2
100
AcDbEntity
  8
NOTE
 92
      980
310
D40300001B0000000C00000010000000050000000C00000016000000000000C00C00000013000000112700003C00000006000000020000000322A4E76EDEBB408BB604F0799582400000000000000000745FAEBE12DEBB408BB604F07995824000000000000000000C0000001300000001000000880000001D00000061C818
310
7BE3C02B403CBD919C27CE2C400000000000000000C8ED6E871B1BBC403CBD919C27CE2CC061C8187BE3C02B4000000000000000000AE6BF9CAF9D80400000000000000000000000000000000000000000000034400000000000000000000000000000000000000000000000000000000000000000000000000000F03F0C00
310
000016000000040000C30C00000017000000FDFFFFFF540000002000000002000000000000000000F0BF498A025C1426D13F000000000000000000000000000000000000000000000000000000000000000000000000000000000000000000000000000000000000F03F0C00000016000000040000C30C00000017000000FD
310
FFFFFF540000002000000002000000000000000000000000000000000000000000000000000000000000000000F0BF498A025C1426D1BF000000000000000000000000000000000000000000000000000000000000F03F0C00000016000000040000C30C00000017000000FDFFFFFF54000000200000000200000000000000
310
0000000000000000000000000000000000000000000000000000F0BF0000000000000000000000000000000000000000000000000000000000000000000000000000F03F080000001F0000000C00000016000000000000C00C00000013000000891300003C00000006000000020000006461B1153B0DBC40FF2C323BE81081
310
4000000000000000000322A4E76EDEBB408BB604F07995824000000000000000000C000000130000009A3A00003C0000000600000002000000CAB403146881BB408BB604F0799582400000000000000000755FAEBE12DEBB408BB604F07995824000000000000000000C00000016000000000000C00C00000012000000FF7F
310
00000C00000017000000FFFFFFFF0C00000016000000000000C00C00000013000000993A0000B40000000B000000F0FD9538B17BBB408BB604F079B58240000000000000000000000000000000000000000000000000000000000000F03F000000000000F03F000000000000000000000000000000003132817E5C552B3232
310
303537000000000C000000010000000000000000003440000000000000F03F0000000000000000000000000000F03F0000000000000000000000000000000000000000726F6D616E732E7368780000657874666F6E742E73687800
100
AcDbMLeader
300
CONTEXT_DATA{
 40
1.0
 10
7039.406555396688
 20
606.6845398300369
 30
0.0
 41
20.0
140
20.0
145
2.0
174
     1
175
     6
176
     0
177
     0
290
     1
304
12×%%C7
 11
0.0
 21
0.0
 31
1.0
340
23
 12
7041.406555396689
 22
618.6845398300369
 32
0.0
 13
1.0
 23
0.0
 33
0.0
 42
0.0
 43
0.0
 44
0.0
 45
1.0
170
     1
 90
-1073741824
171
     1
172
     5
 91
-1073741824
141
0.0
 92
 12836860
291
     0
292
     0
173
     0
293
     0
142
0.0
143
0.0
294
     0
295
     0
296
     0
110
7195.107535298397
120
531.7107481948926
130
0.0
111
1.0
121
0.0
131
0.0
112
0.0
122
1.0
132
0.0
297
     0
302
LEADER{
290
     1
291
     1
 10
7134.433222063354
 20
594.6845398300369
 30
0.0
 11
-1.0
 21
0.0
 31
0.0
 90
        0
 40
0.36
304
LEADER_LINE{
 10
7195.107535298397
 20
531.7107481948926
 30
0.0
 91
        0
305
}
303
}
301
}
340
B17
 90
 67454208
170
     1
 91
-1056964608
341
26
171
    -2
290
     1
291
     1
 41
0.36
342
32
 42
20.0
172
     2
343
23
173
     1
 95
        6
174
     1
175
     2
 92
-1056964608
292
     0
 93
-1056964608
 10
1.0
 20
1.0
 30
1.0
 43
0.0
176
     0
293
     0
294
     0
178
     0
179
     1
 45
1.0
1001
ACAD_MLEADERVER
1070
     2
  0
LINE
  5
2B95
330
2
100
AcDbEntity
  8
OUTLINE
  6
HIDDEN
 48
50.0
100
AcDbLine
 10
7979.739136810788
 20
536.78461179141
 30
0.0
 11
7984.739136810786
 21
536.7846117914116
 31
0.0
  0
LINE
  5
2B96
330
2
100
AcDbEntity
  8
OUTLINE
 48
50.0
100
AcDbLine
 10
7999.739136810787
 20
537.7846117914116
 30
0.0
 11
7998.739136810811
 21
537.7846117914116
 31
0.0
  0
LINE
  5
2B97
330
2
100
AcDbEntity
  8
OUTLINE
 48
50.0
100
AcDbLine
 10
7999.739136810787
 20
537.7846117914116
 30
0.0
 11
7999.739136810787
 21
300.3108344245736
 31
0.0
  0
LINE
  5
2B98
330
2
100
AcDbEntity
  8
OUTLINE
 48
50.0
100
AcDbLine
 10
7999.739136810787
 20
300.3108344245735
 30
0.0
 11
7998.739136810788
 21
300.3108344245735
 31
0.0
  0
LINE
  5
2B99
330
2
100
AcDbEntity
  8
OUTLINE
 48
50.0
100
AcDbLine
 10
7998.739136810788
 20
-713.2153882085936
 30
0.0
 11
7974.739136810787
 21
-713.2153882085936
 31
0.0
  0
LINE
  5
2B9A
330
2
100
AcDbEntity
  8
OUTLINE
 48
50.0
100
AcDbLine
 10
7974.739136810787
 20
-713.2153882085936
 30
0.0
 11
7969.739136810787
 21
-708.2153882085934
 31
0.0
  0
LINE
  5
2B9B
330
2
100
AcDbEntity
  8
OUTLINE
  6
HIDDEN
 48
50.0
100
AcDbLine
 10
7969.739136810787
 20
531.7846117914061
 30
0.0
 11
7969.739136810787
 21
-306.3558962731546
 31
0.0
  0
LINE
  5
2B9C
330
2
100
AcDbEntity
  8
OUTLINE
 48
50.0
100
AcDbLine
 10
7969.739136810787
 20
-306.3558962731546
 30
0.0
 11
7969.739136810787
 21
-708.2153882085937
 31
0.0
  0
LINE
  5
2B9D
330
2
100
AcDbEntity
  8
OUTLINE
  6
HIDDEN
 48
50.0
100
AcDbLine
 10
7979.739136810788
 20
536.7846117914064
 30
0.0
 11
7974.739136810787
 21
536.7846117914064
 31
0.0
  0
LINE
  5
2B9E
330
2
100
AcDbEntity
  8
OUTLINE
  6
HIDDEN
 48
50.0
100
AcDbLine
 10
7969.739136810787
 20
531.7846117914061
 30
0.0
 11
7974.739136810787
 21
536.784611791406
 31
0.0
  0
ELLIPSE
  5
2B9F
330
2
100
AcDbEntity
  8
OUTLINE
 48
50.0
100
AcDbEllipse
 10
7987.739136810787
 20
506.5000464569715
 30
0.0
 11
2.0
 21
0.0
 31
0.0
210
0.0
220
0.0
230
1.0
 40
0.7660444431188333
 41
0.2113447395233624
 42
2.93024791406643
  0
ELLIPSE
  5
2BA0
330
2
100
AcDbEntity
  8
OUTLINE
 48
50.0
100
AcDbEllipse
 10
7987.739136810787
 20
353.2911578332051
 30
0.0
 11
2.0
 21
0.0
 31
0.0
210
0.0
220
0.0
230
1.0
 40
0.7660444431188333
 41
0.2113447395233838
 42
2.93024791406642
  0
ELLIPSE
  5
2BA1
330
2
100
AcDbEntity
  8
OUTLINE
 48
50.0
100
AcDbEllipse
 10
7987.739136810787
 20
-245.1449323755626
 30
0.0
 11
2.0
 21
0.0
 31
0.0
210
0.0
220
0.0
230
1.0
 40
0.936607191794579
 41
0.0936609237961943
 42
3.047931729793598
  0
ELLIPSE
  5
2BA2
330
2
100
AcDbEntity
  8
OUTLINE
 48
50.0
100
AcDbEllipse
 10
7987.739136810787
 20
-57.82349401664681
 30
0.0
 11
2.0
 21
0.0
 31
0.0
210
0.0
220
0.0
230
1.0
 40
0.936607191794579
 41
0.0936609237961943
 42
3.047931729793551
  0
ELLIPSE
  5
2BA3
330
2
100
AcDbEntity
  8
OUTLINE
 48
50.0
100
AcDbEllipse
 10
7987.739136810787
 20
129.4979443422691
 30
0.0
 11
2.0
 21
0.0
 31
0.0
210
0.0
220
0.0
230
1.0
 40
0.936607191794579
 41
0.0936609237962539
 42
3.047931729793537
  0
ELLIPSE
  5
2BA4
330
2
100
AcDbEntity
  8
OUTLINE
 48
50.0
100
AcDbEllipse
 10
7987.739136810787
 20
-244.7945511998715
 30
0.0
 11
-2.0
 21
0.0
 31
0.0
210
0.0
220
0.0
230
1.0
 40
0.936607191794579
 41
0.0000000000000002
 42
6.283185307179584
  0
ELLIPSE
  5
2BA5
330
2
100
AcDbEntity
  8
OUTLINE
 48
50.0
100
AcDbEllipse
 10
7987.739136810787
 20
-57.47311284095565
 30
0.0
 11
-2.0
 21
0.0
 31
0.0
210
0.0
220
0.0
230
1.0
 40
0.936607191794579
 41
0.0000000000000002
 42
6.283185307179584
  0
ELLIPSE
  5
2BA6
330
2
100
AcDbEntity
  8
OUTLINE
 48
50.0
100
AcDbEllipse
 10
7987.739136810787
 20
129.8483255179601
 30
0.0
 11
-2.0
 21
0.0
 31
0.0
210
0.0
220
0.0
230
1.0
 40
0.936607191794579
 41
0.0000000000000002
 42
6.283185307179584
  0
ELLIPSE
  5
2BA7
330
2
100
AcDbEntity
  8
OUTLINE
 48
50.0
100
AcDbEllipse
 10
7987.739136810787
 20
-371.5171193227978
 30
0.0
 11
-2.0
 21
0.0
 31
0.0
210
0.0
220
0.0
230
1.0
 40
0.7070106949840497
 41
0.0000000000000002
 42
6.283185307179584
  0
ELLIPSE
  5
2BA8
330
2
100
AcDbEntity
  8
OUTLINE
 48
50.0
100
AcDbEllipse
 10
7987.739136810787
 20
-370.8099164684639
 30
0.0
 11
2.0
 21
0.0
 31
0.0
210
0.0
220
0.0
230
1.0
 40
0.7070106949840497
 41
3.394343085577801
 42
6.030434875191496
  0
ELLIPSE
  5
2BA9
330
2
100
AcDbEntity
  8
OUTLINE
 48
50.0
100
AcDbEllipse
 10
7987.739136810787
 20
-618.9708625672151
 30
0.0
 11
-2.0
 21
0.0
 31
0.0
210
0.0
220
0.0
230
1.0
 40
0.7070106949840497
 41
0.0000000000000002
 42
6.283185307179584
  0
ELLIPSE
  5
2BAA
330
2
100
AcDbEntity
  8
OUTLINE
 48
50.0
100
AcDbEllipse
 10
7987.739136810787
 20
-618.2636597128812
 30
0.0
 11
2.0
 21
0.0
 31
0.0
210
0.0
220
0.0
230
1.0
 40
0.7070106949840497
 41
3.394343085577725
 42
6.030434875191652
  0
ELLIPSE
  5
2BAB
330
2
100
AcDbEntity
  8
OUTLINE
 48
50.0
100
AcDbEllipse
 10
7987.739136810787
 20
507.1428340666583
 30
0.0
 11
-2.0
 21
0.0
 31
0.0
210
0.0
220
0.0
230
1.0
 40
0.7660444431188333
 41
2.662936822113733
 42
6.761841138653547
  0
ELLIPSE
  5
2BAC
330
2
100
AcDbEntity
  8
OUTLINE
 48
50.0
100
AcDbEllipse
 10
7987.739136810787
 20
353.9339454428918
 30
0.0
 11
-2.0
 21
0.0
 31
0.0
210
0.0
220
0.0
230
1.0
 40
0.7660444431188333
 41
0.0000000000000002
 42
6.283185307179584
  0
CIRCLE
  5
2BAD
330
2
100
AcDbEntity
  8
OUTLINE
  6
HIDDEN
 48
50.0
100
AcDbCircle
 10
7990.739136810788
 20
529.7846117914064
 30
0.0
 40
3.5
  0
CIRCLE
  5
2BAE
330
2
100
AcDbEntity
  8
OUTLINE
  6
HIDDEN
 48
50.0
100
AcDbCircle
 10
7976.739136810786
 20
-36.2153882085936
 30
0.0
 40
3.5
  0
ARC
  5
2BAF
330
2
100
AcDbEntity
  8
OUTLINE
 48
50.0
100
AcDbCircle
 10
7976.739136810786
 20
-657.2153882085935
 30
0.0
 40
3.5
100
AcDbArc
 50
31.00271913386476
 51
328.9972808661353
  0
LINE
  5
2BB0
330
2
100
AcDbEntity
  8
OUTLINE
 48
50.0
100
AcDbLine
 10
7190.739136810788
 20
283.9632792484104
 30
0.0
 11
7190.739136810788
 21
-292.2111368052433
 31
0.0
  0
LINE
  5
2BB1
330
2
100
AcDbEntity
  8
OUTLINE
 48
50.0
100
AcDbLine
 10
7998.739136810788
 20
-292.2111368052433
 30
0.0
 11
7998.739136810788
 21
283.9632792479795
 31
0.0
  0
LINE
  5
2BB2
330
2
100
AcDbEntity
  8
OUTLINE
 48
50.0
100
AcDbLine
 10
7979.739136810788
 20
-306.3558962729136
 30
0.0
 11
7979.739136810788
 21
-305.6486582995301
 31
0.0
  0
LINE
  5
2BB3
330
2
100
AcDbEntity
  8
OUTLINE
 48
50.0
100
AcDbLine
 10
7209.739136810786
 20
-306.3558962729138
 30
0.0
 11
7979.739136810788
 21
-306.3558962729138
 31
0.0
  0
LINE
  5
2BB4
330
2
100
AcDbEntity
  8
OUTLINE
 48
50.0
100
AcDbLine
 10
7209.739136810786
 20
-305.6486582995303
 30
0.0
 11
7209.739136810786
 21
-306.3558962729137
 31
0.0
  0
LINE
  5
2BB5
330
2
100
AcDbEntity
  8
OUTLINE
 48
50.0
100
AcDbLine
 10
7195.739136810786
 20
-305.6486582995303
 30
0.0
 11
7209.739136810786
 21
-305.6486582995303
 31
0.0
  0
LINE
  5
2BB6
330
2
100
AcDbEntity
  8
OUTLINE
 48
50.0
100
AcDbLine
 10
7195.739136810786
 20
-305.6486582995304
 30
0.0
 11
7190.739136810788
 21
-302.1124684326127
 31
0.0
  0
LINE
  5
2BB7
330
2
100
AcDbEntity
  8
OUTLINE
 48
50.0
100
AcDbLine
 10
7190.739136810788
 20
-292.2111368052427
 30
0.0
 11
7190.739136810788
 21
-302.1124684326121
 31
0.0
  0
LINE
  5
2BB8
330
2
100
AcDbEntity
  8
OUTLINE
 48
50.0
100
AcDbLine
 10
7190.739136810788
 20
-292.211136805243
 30
0.0
 11
7998.739136810788
 21
-292.211136805243
 31
0.0
  0
LINE
  5
2BB9
330
2
100
AcDbEntity
  8
OUTLINE
 48
50.0
100
AcDbLine
 10
7998.739136810788
 20
-302.1124684326121
 30
0.0
 11
7998.739136810788
 21
-292.2111368052426
 31
0.0
  0
LINE
  5
2BBA
330
2
100
AcDbEntity
  8
OUTLINE
 48
50.0
100
AcDbLine
 10
7979.739136810788
 20
-305.6486582995303
 30
0.0
 11
7993.739136810788
 21
-305.6486582995303
 31
0.0
  0
LINE
  5
2BBB
330
2
100
AcDbEntity
  8
OUTLINE
 48
50.0
100
AcDbLine
 10
7998.739136810788
 20
-302.1124684326125
 30
0.0
 11
7993.739136810788
 21
-305.6486582995301
 31
0.0
  0
ELLIPSE
  5
2BBC
330
2
100
AcDbEntity
  8
OUTLINE
 48
50.0
100
AcDbEllipse
 10
7310.739136810787
 20
288.4853221073959
 30
0.0
 11
-2.0
 21
0.0
 31
0.0
210
0.0
220
0.0
230
1.0
 40
0.9366071917945795
 41
2.0325753611318
 42
7.392202597464067
  0
ELLIPSE
  5
2BBD
330
2
100
AcDbEntity
  8
OUTLINE
 48
50.0
100
AcDbEllipse
 10
7310.739136810787
 20
288.1349409317045
 30
0.0
 11
2.0
 21
0.0
 31
0.0
210
0.0
220
0.0
230
1.0
 40
0.9366071917945795
 41
0.0936609237962539
 42
3.047931729793543
  0
ELLIPSE
  5
2BBE
330
2
100
AcDbEntity
  8
OUTLINE
 48
50.0
100
AcDbEllipse
 10
7878.739136810786
 20
288.4853221073959
 30
0.0
 11
-2.0
 21
0.0
 31
0.0
210
0.0
220
0.0
230
1.0
 40
0.9366071917945795
 41
2.032575359782684
 42
7.392202598813677
  0
ELLIPSE
  5
2BBF
330
2
100
AcDbEntity
  8
OUTLINE
 48
50.0
100
AcDbEllipse
 10
7878.739136810786
 20
288.1349409317045
 30
0.0
 11
2.0
 21
0.0
 31
0.0
210
0.0
220
0.0
230
1.0
 40
0.9366071917945795
 41
0.0936609237962506
 42
3.047931729793543
  0
ELLIPSE
  5
2BC0
330
2
100
AcDbEntity
  8
OUTLINE
 48
50.0
100
AcDbEllipse
 10
7201.739136810786
 20
-244.4441700237196
 30
0.0
 11
-2.5
 21
0.0
 31
0.0
210
0.0
220
0.0
230
1.0
 40
0.9366071917945792
 41
0.0000000000000002
 42
6.283185307179584
  0
ELLIPSE
  5
2BC1
330
2
100
AcDbEntity
  8
OUTLINE
 48
50.0
100
AcDbEllipse
 10
7201.739136810786
 20
-244.7945511994108
 30
0.0
 11
2.5
 21
0.0
 31
0.0
210
0.0
220
0.0
230
1.0
 40
0.9366071917945795
 41
0.0748892184172158
 42
3.066703435172577
  0
ELLIPSE
  5
2BC2
330
2
100
AcDbEntity
  8
OUTLINE
 48
50.0
100
AcDbEllipse
 10
7201.739136810786
 20
-57.12273166480361
 30
0.0
 11
-2.5
 21
0.0
 31
0.0
210
0.0
220
0.0
230
1.0
 40
0.9366071917945792
 41
0.0000000000000002
 42
6.283185307179584
  0
ELLIPSE
  5
2BC3
330
2
100
AcDbEntity
  8
OUTLINE
 48
50.0
100
AcDbEllipse
 10
7201.739136810786
 20
-57.47311284049487
 30
0.0
 11
2.5
 21
0.0
 31
0.0
210
0.0
220
0.0
230
1.0
 40
0.9366071917945795
 41
0.0748892184172529
 42
3.066703435172538
  0
ELLIPSE
  5
2BC4
330
2
100
AcDbEntity
  8
OUTLINE
 48
50.0
100
AcDbEllipse
 10
7201.739136810786
 20
130.1987066941123
 30
0.0
 11
-2.5
 21
0.0
 31
0.0
210
0.0
220
0.0
230
1.0
 40
0.9366071917945792
 41
0.0000000000000002
 42
6.283185307179584
  0
ELLIPSE
  5
2BC5
330
2
100
AcDbEntity
  8
OUTLINE
 48
50.0
100
AcDbEllipse
 10
7201.739136810786
 20
129.848325518421
 30
0.0
 11
2.5
 21
0.0
 31
0.0
210
0.0
220
0.0
230
1.0
 40
0.9366071917945795
 41
0.0748892184172529
 42
3.066703435172538
  0
ELLIPSE
  5
2BC6
330
2
100
AcDbEntity
  8
OUTLINE
 48
50.0
100
AcDbEllipse
 10
7987.739136810787
 20
-244.4441700237196
 30
0.0
 11
-2.5
 21
0.0
 31
0.0
210
0.0
220
0.0
230
1.0
 40
0.9366071917945792
 41
0.0000000000000002
 42
6.283185307179584
  0
ELLIPSE
  5
2BC7
330
2
100
AcDbEntity
  8
OUTLINE
 48
50.0
100
AcDbEllipse
 10
7987.739136810787
 20
-244.7945511994107
 30
0.0
 11
2.5
 21
0.0
 31
0.0
210
0.0
220
0.0
230
1.0
 40
0.9366071917945795
 41
0.0748892184172583
 42
3.066703435172533
  0
ELLIPSE
  5
2BC8
330
2
100
AcDbEntity
  8
OUTLINE
 48
50.0
100
AcDbEllipse
 10
7987.739136810787
 20
-57.12273166480361
 30
0.0
 11
-2.5
 21
0.0
 31
0.0
210
0.0
220
0.0
230
1.0
 40
0.9366071917945792
 41
0.0000000000000002
 42
6.283185307179584
  0
ELLIPSE
  5
2BC9
330
2
100
AcDbEntity
  8
OUTLINE
 48
50.0
100
AcDbEllipse
 10
7987.739136810787
 20
-57.47311284049487
 30
0.0
 11
2.5
 21
0.0
 31
0.0
210
0.0
220
0.0
230
1.0
 40
0.9366071917945795
 41
0.0748892184172529
 42
3.066703435172538
  0
ELLIPSE
  5
2BCA
330
2
100
AcDbEntity
  8
OUTLINE
 48
50.0
100
AcDbEllipse
 10
7987.739136810787
 20
130.1987066941124
 30
0.0
 11
-2.5
 21
0.0
 31
0.0
210
0.0
220
0.0
230
1.0
 40
0.9366071917945792
 41
0.0000000000000002
 42
6.283185307179584
  0
ELLIPSE
  5
2BCB
330
2
100
AcDbEntity
  8
OUTLINE
 48
50.0
100
AcDbEllipse
 10
7987.739136810787
 20
129.8483255184211
 30
0.0
 11
2.5
 21
0.0
 31
0.0
210
0.0
220
0.0
230
1.0
 40
0.9366071917945795
 41
0.0748892184172529
 42
3.066703435172538
  0
ELLIPSE
  5
2BCC
330
2
100
AcDbEntity
  8
OUTLINE
 48
50.0
100
AcDbEllipse
 10
7328.739136810786
 20
-299.2835165390783
 30
0.0
 11
-2.0
 21
0.0
 31
0.0
210
0.0
220
0.0
230
1.0
 40
0.7072379733835318
 41
0.0000000000000002
 42
6.283185307179584
  0
ELLIPSE
  5
2BCD
330
2
100
AcDbEntity
  8
OUTLINE
 48
50.0
100
AcDbEllipse
 10
7328.739136810786
 20
-298.5765409744337
 30
0.0
 11
2.0
 21
0.0
 31
0.0
210
0.0
220
0.0
230
1.0
 40
0.7072379733835322
 41
3.394177109567406
 42
6.030600851201972
  0
ELLIPSE
  5
2BCE
330
2
100
AcDbEntity
  8
OUTLINE
 48
50.0
100
AcDbEllipse
 10
7505.739136810787
 20
-299.2835165390784
 30
0.0
 11
-2.0
 21
0.0
 31
0.0
210
0.0
220
0.0
230
1.0
 40
0.7072379733835318
 41
0.0000000000000002
 42
6.283185307179584
  0
ELLIPSE
  5
2BCF
330
2
100
AcDbEntity
  8
OUTLINE
 48
50.0
100
AcDbEllipse
 10
7505.739136810787
 20
-298.5765409744337
 30
0.0
 11
2.0
 21
0.0
 31
0.0
210
0.0
220
0.0
230
1.0
 40
0.7072379733835322
 41
3.394177109567443
 42
6.030600851201932
  0
ELLIPSE
  5
2BD0
330
2
100
AcDbEntity
  8
OUTLINE
 48
50.0
100
AcDbEllipse
 10
7594.739136810787
 20
288.4853221073959
 30
0.0
 11
-2.0
 21
0.0
 31
0.0
210
0.0
220
0.0
230
1.0
 40
0.9366071917945795
 41
2.032575360457248
 42
7.392202598138615
  0
ELLIPSE
  5
2BD1
330
2
100
AcDbEntity
  8
OUTLINE
 48
50.0
100
AcDbEllipse
 10
7594.739136810787
 20
288.1349409317047
 30
0.0
 11
2.0
 21
0.0
 31
0.0
210
0.0
220
0.0
230
1.0
 40
0.9366071917945795
 41
0.0936609237962469
 42
3.047931729793543
  0
ELLIPSE
  5
2BD2
330
2
100
AcDbEntity
  8
OUTLINE
 48
50.0
100
AcDbEllipse
 10
7683.739136810787
 20
-299.2835165390784
 30
0.0
 11
-2.0
 21
0.0
 31
0.0
210
0.0
220
0.0
230
1.0
 40
0.7072379733835318
 41
0.0000000000000002
 42
6.283185307179584
  0
ELLIPSE
  5
2BD3
330
2
100
AcDbEntity
  8
OUTLINE
 48
50.0
100
AcDbEllipse
 10
7683.739136810787
 20
-298.5765409744337
 30
0.0
 11
2.0
 21
0.0
 31
0.0
210
0.0
220
0.0
230
1.0
 40
0.7072379733835322
 41
3.394177109567443
 42
6.030600851201932
  0
ELLIPSE
  5
2BD4
330
2
100
AcDbEntity
  8
OUTLINE
 48
50.0
100
AcDbEllipse
 10
7860.739136810787
 20
-299.2835165390784
 30
0.0
 11
-2.0
 21
0.0
 31
0.0
210
0.0
220
0.0
230
1.0
 40
0.7072379733835318
 41
0.0000000000000002
 42
6.283185307179584
  0
ELLIPSE
  5
2BD5
330
2
100
AcDbEntity
  8
OUTLINE
 48
50.0
100
AcDbEllipse
 10
7860.739136810787
 20
-298.5765409744337
 30
0.0
 11
2.0
 21
0.0
 31
0.0
210
0.0
220
0.0
230
1.0
 40
0.7072379733835322
 41
3.394177109567443
 42
6.030600851201932
  0
LINE
  5
2BD6
330
2
100
AcDbEntity
  8
OUTLINE
 48
50.0
100
AcDbLine
 10
7190.739136810812
 20
538.7846117917488
 30
0.0
 11
7190.739136810623
 21
298.5238581956275
 31
0.0
  0
LINE
  5
2BD7
330
2
100
AcDbEntity
  8
OUTLINE
 48
50.0
100
AcDbLine
 10
7190.739136810623
 20
298.5238581956269
 30
0.0
 11
7190.739136810613
 21
284.3128256381567
 31
0.0
  0
LINE
  5
2BD8
330
2
100
AcDbEntity
  8
OUTLINE
 48
50.0
100
AcDbLine
 10
7190.739136810623
 20
298.5238581956269
 30
0.0
 11
7998.739136810623
 21
298.5238581952529
 31
0.0
  0
LINE
  5
2BD9
330
2
100
AcDbEntity
  8
OUTLINE
 48
50.0
100
AcDbLine
 10
7998.739136810614
 20
284.3128256377828
 30
0.0
 11
7993.739136810612
 21
279.6294646915441
 31
0.0
  0
LINE
  5
2BDA
330
2
100
AcDbEntity
  8
OUTLINE
 48
50.0
100
AcDbLine
 10
7195.739136810612
 20
279.6294646919134
 30
0.0
 11
7993.739136810609
 21
279.6294646915442
 31
0.0
  0
LINE
  5
2BDB
330
2
100
AcDbEntity
  8
OUTLINE
 48
50.0
100
AcDbLine
 10
7993.739136810609
 20
279.6294646915439
 30
0.0
 11
7993.739136810609
 21
279.2802432083925
 31
0.0
  0
LINE
  5
2BDC
330
2
100
AcDbEntity
  8
OUTLINE
 48
50.0
100
AcDbLine
 10
7190.739136810613
 20
284.3128256381567
 30
0.0
 11
7190.739136810613
 21
283.9632792484104
 31
0.0
  0
LINE
  5
2BDD
330
2
100
AcDbEntity
  8
OUTLINE
 48
50.0
100
AcDbLine
 10
7195.739136810608
 20
279.6294646919133
 30
0.0
 11
7190.739136810613
 21
284.3128256381567
 31
0.0
  0
LINE
  5
2BDE
330
2
100
AcDbEntity
  8
OUTLINE
 48
50.0
100
AcDbLine
 10
7195.739136810612
 20
279.2802432088181
 30
0.0
 11
7195.739136810612
 21
279.6294646919132
 31
0.0
  0
LINE
  5
2BDF
330
2
100
AcDbEntity
  8
OUTLINE
 48
50.0
100
AcDbLine
 10
7200.239136810805
 20
526.9367327546499
 30
0.0
 11
7203.239136810805
 21
526.9367327546483
 31
0.0
  0
LINE
  5
2BE0
330
2
100
AcDbEntity
  8
OUTLINE
 48
50.0
100
AcDbLine
 10
7203.239136810805
 20
526.2939451449626
 30
0.0
 11
7200.239136810805
 21
526.293945144964
 31
0.0
  0
LINE
  5
2BE1
330
2
100
AcDbEntity
  8
OUTLINE
 48
50.0
100
AcDbLine
 10
7203.239136810805
 20
526.9367327546488
 30
0.0
 11
7203.239136810799
 21
524.638599425293
 31
0.0
  0
LINE
  5
2BE2
330
2
100
AcDbEntity
  8
OUTLINE
 48
50.0
100
AcDbLine
 10
7203.239136810799
 20
524.6385994252928
 30
0.0
 11
7200.239136810799
 21
524.6385994252941
 31
0.0
  0
LINE
  5
2BE3
330
2
100
AcDbEntity
  8
OUTLINE
 48
50.0
100
AcDbLine
 10
7200.239136810799
 20
524.6385994252941
 30
0.0
 11
7200.239136810805
 21
526.9367327546499
 31
0.0
  0
LINE
  5
2BE4
330
2
100
AcDbEntity
  8
OUTLINE
 48
50.0
100
AcDbLine
 10
7986.239136810803
 20
526.9367327542863
 30
0.0
 11
7989.239136810803
 21
526.936732754285
 31
0.0
  0
LINE
  5
2BE5
330
2
100
AcDbEntity
  8
OUTLINE
 48
50.0
100
AcDbLine
 10
7989.239136810803
 20
526.2939451445988
 30
0.0
 11
7986.239136810803
 21
526.2939451446002
 31
0.0
  0
LINE
  5
2BE6
330
2
100
AcDbEntity
  8
OUTLINE
 48
50.0
100
AcDbLine
 10
7989.239136810803
 20
526.9367327542852
 30
0.0
 11
7989.239136810801
 21
524.6385994249292
 31
0.0
  0
LINE
  5
2BE7
330
2
100
AcDbEntity
  8
OUTLINE
 48
50.0
100
AcDbLine
 10
7989.239136810801
 20
524.6385994249292
 30
0.0
 11
7986.239136810801
 21
524.6385994249306
 31
0.0
  0
LINE
  5
2BE8
330
2
100
AcDbEntity
  8
OUTLINE
 48
50.0
100
AcDbLine
 10
7986.239136810801
 20
524.6385994249306
 30
0.0
 11
7986.239136810803
 21
526.9367327542863
 31
0.0
  0
LINE
  5
2BE9
330
2
100
AcDbEntity
  8
OUTLINE
 48
50.0
100
AcDbLine
 10
7199.239136810662
 20
349.9030801905265
 30
0.0
 11
7199.239136810667
 21
354.5767330529609
 31
0.0
  0
LINE
  5
2BEA
330
2
100
AcDbEntity
  8
OUTLINE
 48
50.0
100
AcDbLine
 10
7204.239136810667
 20
354.5767330529586
 30
0.0
 11
7204.239136810663
 21
349.9030801905239
 31
0.0
  0
LINE
  5
2BEB
330
2
100
AcDbEntity
  8
OUTLINE
 48
50.0
100
AcDbLine
 10
7204.239136810663
 20
349.9030801905237
 30
0.0
 11
7204.239136810663
 21
349.2602925808367
 31
0.0
  0
LINE
  5
2BEC
330
2
100
AcDbEntity
  8
OUTLINE
 48
50.0
100
AcDbLine
 10
7199.239136810662
 20
349.903080190526
 30
0.0
 11
7199.239136810662
 21
349.260292580839
 31
0.0
  0
LINE
  5
2BED
330
2
100
AcDbEntity
  8
OUTLINE
 48
50.0
100
AcDbLine
 10
7985.239136810662
 20
349.9030801901627
 30
0.0
 11
7985.239136810666
 21
354.5767330525972
 31
0.0
  0
LINE
  5
2BEE
330
2
100
AcDbEntity
  8
OUTLINE
 48
50.0
100
AcDbLine
 10
7990.239136810666
 20
354.5767330525952
 30
0.0
 11
7990.239136810664
 21
349.9030801901604
 31
0.0
  0
LINE
  5
2BEF
330
2
100
AcDbEntity
  8
OUTLINE
 48
50.0
100
AcDbLine
 10
7990.239136810664
 20
349.9030801901599
 30
0.0
 11
7990.239136810664
 21
349.2602925804729
 31
0.0
  0
LINE
  5
2BF0
330
2
100
AcDbEntity
  8
OUTLINE
 48
50.0
100
AcDbLine
 10
7985.239136810662
 20
349.9030801901624
 30
0.0
 11
7985.239136810662
 21
349.2602925804754
 31
0.0
  0
LINE
  5
2BF1
330
2
100
AcDbEntity
  8
OUTLINE
 48
50.0
100
AcDbLine
 10
7190.739136810812
 20
538.7846117917488
 30
0.0
 11
7998.739136810812
 21
538.7846117913749
 31
0.0
  0
LINE
  5
2BF2
330
2
100
AcDbEntity
  8
OUTLINE
 48
50.0
100
AcDbLine
 10
7998.739136810614
 20
283.9632792479795
 30
0.0
 11
7998.739136810614
 21
284.3128256377828
 31
0.0
  0
LINE
  5
2BF3
330
2
100
AcDbEntity
  8
OUTLINE
 48
50.0
100
AcDbLine
 10
7998.739136810614
 20
284.3128256377828
 30
0.0
 11
7998.739136810621
 21
298.5238581952529
 31
0.0
  0
LINE
  5
2BF4
330
2
100
AcDbEntity
  8
OUTLINE
 48
50.0
100
AcDbLine
 10
7998.739136810623
 20
298.5238581952535
 30
0.0
 11
7998.739136810812
 21
538.7846117913749
 31
0.0
  0
LINE
  5
2BF5
330
2
100
AcDbEntity
  8
OUTLINE
  6
HIDDEN
 48
50.0
100
AcDbLine
 10
7190.739136810812
 20
537.7846117917477
 30
0.0
 11
7998.739136810812
 21
537.7846117913739
 31
0.0
  0
ELLIPSE
  5
2BF6
330
2
100
AcDbEntity
  8
OUTLINE
 48
50.0
100
AcDbEllipse
 10
7878.739136810617
 20
288.9961865840793
 30
0.0
 11
-2.5
 21
0.0
 31
0.0
210
0.0
220
0.0
230
1.0
 40
0.9366721892482027
 41
0.0000000000000864
 42
6.283185307179672
  0
ELLIPSE
  5
2BF7
330
2
100
AcDbEntity
  8
OUTLINE
 48
50.0
100
AcDbEllipse
 10
7310.739136810616
 20
288.9961865843422
 30
0.0
 11
-2.5
 21
0.0
 31
0.0
210
0.0
220
0.0
230
1.0
 40
0.9366721892482027
 41
0.0000000000000864
 42
6.283185307179672
  0
ELLIPSE
  5
2BF8
330
2
100
AcDbEntity
  8
OUTLINE
 48
50.0
100
AcDbEllipse
 10
7201.739136810667
 20
354.57673305296
 30
0.0
 11
-2.5
 21
0.0
 31
0.0
210
0.0
220
0.0
230
1.0
 40
0.7660444431186204
 41
3.141592653589176
 42
6.283185307178968
  0
ELLIPSE
  5
2BF9
330
2
100
AcDbEntity
  8
OUTLINE
 48
50.0
100
AcDbEllipse
 10
7201.739136810667
 20
353.9339454432731
 30
0.0
 11
2.5
 21
0.0
 31
0.0
210
0.0
220
0.0
230
1.0
 40
0.7660444431186204
 41
-0.0000000000006159
 42
3.141592653589176
  0
ELLIPSE
  5
2BFA
330
2
100
AcDbEntity
  8
OUTLINE
 48
50.0
100
AcDbEllipse
 10
7201.739136810658
 20
346.1502441786552
 30
0.0
 11
-5.5
 21
0.0
 31
0.0
210
0.0
220
0.0
230
1.0
 40
0.7660444431186204
 41
5.184250817663759
 42
10.52371245028406
  0
ELLIPSE
  5
2BFB
330
2
100
AcDbEntity
  8
OUTLINE
 48
50.0
100
AcDbEllipse
 10
7201.739136810658
 20
345.5074565689685
 30
0.0
 11
5.5
 21
0.0
 31
0.0
210
0.0
220
0.0
230
1.0
 40
0.7660444431186204
 41
2.042658164073964
 42
3.065236695065931
  0
ELLIPSE
  5
2BFC
330
2
100
AcDbEntity
  8
OUTLINE
 48
50.0
100
AcDbEllipse
 10
7201.739136810658
 20
345.5074565689685
 30
0.0
 11
5.5
 21
0.0
 31
0.0
210
0.0
220
0.0
230
1.0
 40
0.7660444431186204
 41
0.0763559585238395
 42
1.098934489514687
  0
ELLIPSE
  5
2BFD
330
2
100
AcDbEntity
  8
OUTLINE
 48
50.0
100
AcDbEllipse
 10
7987.739136810667
 20
354.5767330525962
 30
0.0
 11
-2.5
 21
0.0
 31
0.0
210
0.0
220
0.0
230
1.0
 40
0.7660444431186204
 41
3.141592653589176
 42
6.283185307178968
  0
ELLIPSE
  5
2BFE
330
2
100
AcDbEntity
  8
OUTLINE
 48
50.0
100
AcDbEllipse
 10
7987.739136810667
 20
353.9339454429097
 30
0.0
 11
2.5
 21
0.0
 31
0.0
210
0.0
220
0.0
230
1.0
 40
0.7660444431186204
 41
-0.0000000000006159
 42
3.141592653589176
  0
ELLIPSE
  5
2BFF
330
2
100
AcDbEntity
  8
OUTLINE
 48
50.0
100
AcDbEllipse
 10
7987.739136810659
 20
346.1502441782916
 30
0.0
 11
-5.5
 21
0.0
 31
0.0
210
0.0
220
0.0
230
1.0
 40
0.7660444431186204
 41
5.184250817663768
 42
10.52371245028406
  0
ELLIPSE
  5
2C00
330
2
100
AcDbEntity
  8
OUTLINE
 48
50.0
100
AcDbEllipse
 10
7987.739136810659
 20
345.5074565686047
 30
0.0
 11
5.5
 21
0.0
 31
0.0
210
0.0
220
0.0
230
1.0
 40
0.7660444431186204
 41
2.042658164073975
 42
3.065236695065943
  0
ELLIPSE
  5
2C01
330
2
100
AcDbEntity
  8
OUTLINE
 48
50.0
100
AcDbEllipse
 10
7987.739136810659
 20
345.5074565686047
 30
0.0
 11
5.5
 21
0.0
 31
0.0
210
0.0
220
0.0
230
1.0
 40
0.7660444431186204
 41
0.0763559585238355
 42
1.098934489514676
  0
ELLIPSE
  5
2C02
330
2
100
AcDbEntity
  8
OUTLINE
 48
50.0
100
AcDbEllipse
 10
7201.739136810788
 20
507.1428340669979
 30
0.0
 11
2.5
 21
0.0
 31
0.0
210
0.0
220
0.0
230
1.0
 40
0.7660444431186204
 41
0.1686178138043845
 42
2.972974839785276
  0
ELLIPSE
  5
2C03
330
2
100
AcDbEntity
  8
OUTLINE
 48
50.0
100
AcDbEllipse
 10
7201.739136810788
 20
507.7856216766838
 30
0.0
 11
-2.5
 21
0.0
 31
0.0
210
0.0
220
0.0
230
1.0
 40
0.7660444431186204
 41
0.0000000000000002
 42
6.283185307179584
  0
ELLIPSE
  5
2C04
330
2
100
AcDbEntity
  8
OUTLINE
 48
50.0
100
AcDbEllipse
 10
7987.739136810787
 20
507.1428340666341
 30
0.0
 11
2.5
 21
0.0
 31
0.0
210
0.0
220
0.0
230
1.0
 40
0.7660444431186204
 41
0.1686178138043845
 42
2.972974839785276
  0
ELLIPSE
  5
2C05
330
2
100
AcDbEntity
  8
OUTLINE
 48
50.0
100
AcDbEllipse
 10
7987.739136810787
 20
507.78562167632
 30
0.0
 11
-2.5
 21
0.0
 31
0.0
210
0.0
220
0.0
230
1.0
 40
0.7660444431186204
 41
0.0000000000000002
 42
6.283185307179584
  0
ELLIPSE
  5
2C06
330
2
100
AcDbEntity
  8
OUTLINE
 48
50.0
100
AcDbEllipse
 10
7594.739136810616
 20
288.9961865842108
 30
0.0
 11
-2.5
 21
0.0
 31
0.0
210
0.0
220
0.0
230
1.0
 40
0.9366721892482027
 41
0.0000000000000864
 42
6.283185307179672
  0
LINE
  5
2C07
330
2
100
AcDbEntity
  8
OUTLINE
 48
50.0
100
AcDbLine
 10
8020.739136810785
 20
300.3108344250041
 30
0.0
 11
8019.739136810784
 21
300.3108344250041
 31
0.0
  0
LINE
  5
2C08
330
2
100
AcDbEntity
  8
OUTLINE
 48
50.0
100
AcDbLine
 10
8019.739136810784
 20
537.7846117918426
 30
0.0
 11
8019.739136810784
 21
300.3108344250037
 31
0.0
  0
LINE
  5
2C09
330
2
100
AcDbEntity
  8
OUTLINE
 48
50.0
100
AcDbLine
 10
8020.739136810785
 20
-684.9153882081512
 30
0.0
 11
8034.739136810783
 21
-684.9153882081512
 31
0.0
  0
LINE
  5
2C0A
330
2
100
AcDbEntity
  8
OUTLINE
 48
50.0
100
AcDbLine
 10
8020.739136810785
 20
-713.2153882081578
 30
0.0
 11
8019.739136810784
 21
-713.2153882081578
 31
0.0
  0
LINE
  5
2C0B
330
2
100
AcDbEntity
  8
OUTLINE
 48
50.0
100
AcDbLine
 10
8019.739136810784
 20
-291.6249107891703
 30
0.0
 11
8019.739136810784
 21
-713.2153882081571
 31
0.0
  0
LINE
  5
2C0C
330
2
100
AcDbEntity
  8
OUTLINE
 48
50.0
100
AcDbLine
 10
8020.739136810872
 20
-291.6249107891708
 30
0.0
 11
8019.739136810784
 21
-291.6249107891708
 31
0.0
  0
LINE
  5
2C0D
330
2
100
AcDbEntity
  8
OUTLINE
 48
50.0
100
AcDbLine
 10
8039.739136810785
 20
-679.9153882081505
 30
0.0
 11
8034.739136810783
 21
-684.9153882081512
 31
0.0
  0
LINE
  5
2C0E
330
2
100
AcDbEntity
  8
OUTLINE
 48
50.0
100
AcDbLine
 10
8039.739136810785
 20
-306.3558962729448
 30
0.0
 11
8039.739136810785
 21
-679.9153882081502
 31
0.0
  0
LINE
  5
2C0F
330
2
100
AcDbEntity
  8
OUTLINE
 48
50.0
100
AcDbLine
 10
8020.739136810785
 20
-713.2153882081578
 30
0.0
 11
8020.739136810785
 21
-684.9153882081512
 31
0.0
  0
LINE
  5
2C10
330
2
100
AcDbEntity
  8
OUTLINE
  6
HIDDEN
 48
50.0
100
AcDbLine
 10
8035.739136810787
 20
537.7846117918425
 30
0.0
 11
8020.739136810783
 21
537.7846117918425
 31
0.0
  0
LINE
  5
2C11
330
2
100
AcDbEntity
  8
OUTLINE
 48
50.0
100
AcDbLine
 10
8020.739136810783
 20
537.7846117918425
 30
0.0
 11
8019.739136810784
 21
537.7846117918425
 31
0.0
  0
LINE
  5
2C12
330
2
100
AcDbEntity
  8
OUTLINE
 48
50.0
100
AcDbLine
 10
8044.739136810784
 20
-713.2153882081627
 30
0.0
 11
8020.739136810785
 21
-713.2153882081627
 31
0.0
  0
LINE
  5
2C13
330
2
100
AcDbEntity
  8
OUTLINE
  6
HIDDEN
 48
50.0
100
AcDbLine
 10
8044.739136810784
 20
536.7846117918372
 30
0.0
 11
8039.739136810785
 21
536.7846117918372
 31
0.0
  0
LINE
  5
2C14
330
2
100
AcDbEntity
  8
OUTLINE
  6
HIDDEN
 48
50.0
100
AcDbLine
 10
8044.739136810784
 20
536.7846117918372
 30
0.0
 11
8049.739136810783
 21
531.7846117918373
 31
0.0
  0
LINE
  5
2C15
330
2
100
AcDbEntity
  8
OUTLINE
 48
50.0
100
AcDbLine
 10
8049.739136810783
 20
-708.2153882081627
 30
0.0
 11
8049.739136810783
 21
-306.3558962731828
 31
0.0
  0
LINE
  5
2C16
330
2
100
AcDbEntity
  8
OUTLINE
  6
HIDDEN
 48
50.0
100
AcDbLine
 10
8049.739136810783
 20
-306.3558962731828
 30
0.0
 11
8049.739136810783
 21
531.7846117918373
 31
0.0
  0
LINE
  5
2C17
330
2
100
AcDbEntity
  8
OUTLINE
 48
50.0
100
AcDbLine
 10
8049.739136810783
 20
-708.2153882081627
 30
0.0
 11
8044.739136810784
 21
-713.2153882081627
 31
0.0
  0
ELLIPSE
  5
2C18
330
2
100
AcDbEntity
  8
OUTLINE
 48
50.0
100
AcDbEllipse
 10
8031.739136810783
 20
129.8483255183904
 30
0.0
 11
-2.0
 21
0.0
 31
0.0
210
0.0
220
0.0
230
1.0
 40
0.9366071917945806
 41
0.0000000000000002
 42
6.283185307179584
  0
ELLIPSE
  5
2C19
330
2
100
AcDbEntity
  8
OUTLINE
 48
50.0
100
AcDbEllipse
 10
8031.739136810783
 20
-57.47311284052557
 30
0.0
 11
-2.0
 21
0.0
 31
0.0
210
0.0
220
0.0
230
1.0
 40
0.9366071917945806
 41
0.0000000000000002
 42
6.283185307179584
  0
ELLIPSE
  5
2C1A
330
2
100
AcDbEntity
  8
OUTLINE
 48
50.0
100
AcDbEllipse
 10
8031.739136810783
 20
-244.7945511994417
 30
0.0
 11
-2.0
 21
0.0
 31
0.0
210
0.0
220
0.0
230
1.0
 40
0.9366071917945806
 41
0.0000000000000002
 42
6.283185307179584
  0
ELLIPSE
  5
2C1B
330
2
100
AcDbEntity
  8
OUTLINE
 48
50.0
100
AcDbEllipse
 10
8031.739136810783
 20
353.2911578336355
 30
0.0
 11
1.999999999997083
 21
0.0
 31
0.0
210
0.0
220
0.0
230
1.0
 40
0.7660444431188354
 41
0.2113447395199389
 42
2.930247914069846
  0
ELLIPSE
  5
2C1C
330
2
100
AcDbEntity
  8
OUTLINE
 48
50.0
100
AcDbEllipse
 10
8031.739136810783
 20
506.5000464574027
 30
0.0
 11
1.999999999999728
 21
0.0
 31
0.0
210
0.0
220
0.0
230
1.0
 40
0.7660444431188354
 41
0.2113447395230067
 42
2.930247914066786
  0
ELLIPSE
  5
2C1D
330
2
100
AcDbEntity
  8
OUTLINE
 48
50.0
100
AcDbEllipse
 10
8031.739136810783
 20
507.1428340670893
 30
0.0
 11
-2.0
 21
0.0
 31
0.0
210
0.0
220
0.0
230
1.0
 40
0.7660444431188354
 41
2.662936822211325
 42
6.761841138555954
  0
ELLIPSE
  5
2C1E
330
2
100
AcDbEntity
  8
OUTLINE
 48
50.0
100
AcDbEllipse
 10
8031.739136810783
 20
353.9339454433223
 30
0.0
 11
-2.0
 21
0.0
 31
0.0
210
0.0
220
0.0
230
1.0
 40
0.7660444431188354
 41
0.0000000000000002
 42
6.283185307179584
  0
ELLIPSE
  5
2C1F
330
2
100
AcDbEntity
  8
OUTLINE
 48
50.0
100
AcDbEllipse
 10
8031.739136810783
 20
-245.1449323751329
 30
0.0
 11
2.000000000008673
 21
0.0
 31
0.0
210
0.0
220
0.0
230
1.0
 40
0.9366071917945806
 41
0.0936609238191917
 42
3.047931729770601
  0
ELLIPSE
  5
2C20
330
2
100
AcDbEntity
  8
OUTLINE
 48
50.0
100
AcDbEllipse
 10
8031.739136810783
 20
-57.8234940162167
 30
0.0
 11
2.000000000008745
 21
0.0
 31
0.0
210
0.0
220
0.0
230
1.0
 40
0.9366071917945806
 41
0.0936609238192447
 42
3.047931729770501
  0
ELLIPSE
  5
2C21
330
2
100
AcDbEntity
  8
OUTLINE
 48
50.0
100
AcDbEllipse
 10
8031.739136810783
 20
129.4979443426994
 30
0.0
 11
2.000000000001188
 21
0.0
 31
0.0
210
0.0
220
0.0
230
1.0
 40
0.9366071917945806
 41
0.0936609237992915
 42
3.047931729790488
  0
ELLIPSE
  5
2C22
330
2
100
AcDbEntity
  8
OUTLINE
 48
50.0
100
AcDbEllipse
 10
8031.739136810783
 20
-371.5171193223682
 30
0.0
 11
-2.0
 21
0.0
 31
0.0
210
0.0
220
0.0
230
1.0
 40
0.7070106949840472
 41
0.0000000000000002
 42
6.283185307179584
  0
ELLIPSE
  5
2C23
330
2
100
AcDbEntity
  8
OUTLINE
 48
50.0
100
AcDbEllipse
 10
8031.739136810783
 20
-370.8099164680342
 30
0.0
 11
2.0
 21
0.0
 31
0.0
210
0.0
220
0.0
230
1.0
 40
0.7070106949840472
 41
3.394343085577725
 42
6.030434875191652
  0
ELLIPSE
  5
2C24
330
2
100
AcDbEntity
  8
OUTLINE
 48
50.0
100
AcDbEllipse
 10
8031.739136810783
 20
-618.9708625667845
 30
0.0
 11
-2.0
 21
0.0
 31
0.0
210
0.0
220
0.0
230
1.0
 40
0.7070106949840472
 41
0.0000000000000002
 42
6.283185307179584
  0
ELLIPSE
  5
2C25
330
2
100
AcDbEntity
  8
OUTLINE
 48
50.0
100
AcDbEllipse
 10
8031.739136810783
 20
-618.2636597124504
 30
0.0
 11
2.0
 21
0.0
 31
0.0
210
0.0
220
0.0
230
1.0
 40
0.7070106949840472
 41
3.394343085577725
 42
6.030434875191652
  0
ARC
  5
2C26
330
2
100
AcDbEntity
  8
OUTLINE
 48
50.0
100
AcDbCircle
 10
8042.739136810785
 20
-657.2153882081627
 30
0.0
 40
3.5
100
AcDbArc
 50
211.0027191338648
 51
148.9972808661352
  0
CIRCLE
  5
2C27
330
2
100
AcDbEntity
  8
OUTLINE
  6
HIDDEN
 48
50.0
100
AcDbCircle
 10
8042.739136810785
 20
-36.21538820816271
 30
0.0
 40
3.5
  0
CIRCLE
  5
2C28
330
2
100
AcDbEntity
  8
OUTLINE
  6
HIDDEN
 48
50.0
100
AcDbCircle
 10
8028.739136810782
 20
529.7846117918371
 30
0.0
 40
3.5
  0
LINE
  5
2C29
330
2
100
AcDbEntity
  8
OUTLINE
  6
HIDDEN
 48
50.0
100
AcDbLine
 10
8828.739136810787
 20
-302.112468432503
 30
0.0
 11
8828.739136810787
 21
-684.9153882081203
 31
0.0
  0
LINE
  5
2C2A
330
2
100
AcDbEntity
  8
OUTLINE
 48
50.0
100
AcDbLine
 10
8829.739136810784
 20
-291.6249107891396
 30
0.0
 11
8829.739136810784
 21
-713.2153882081261
 31
0.0
  0
LINE
  5
2C2B
330
2
100
AcDbEntity
  8
OUTLINE
 48
50.0
100
AcDbLine
 10
8829.739136810784
 20
-713.2153882081265
 30
0.0
 11
8828.739136810787
 21
-713.2153882081265
 31
0.0
  0
LINE
  5
2C2C
330
2
100
AcDbEntity
  8
OUTLINE
 48
50.0
100
AcDbLine
 10
8828.739136810787
 20
-684.9153882081203
 30
0.0
 11
8828.739136810787
 21
-713.2153882081261
 31
0.0
  0
LINE
  5
2C2D
330
2
100
AcDbEntity
  8
OUTLINE
 48
50.0
100
AcDbLine
 10
8814.739136810786
 20
-684.9153882081203
 30
0.0
 11
8828.739136810787
 21
-684.9153882081203
 31
0.0
  0
LINE
  5
2C2E
330
2
100
AcDbEntity
  8
OUTLINE
 48
50.0
100
AcDbLine
 10
8814.739136810786
 20
-684.9153882081203
 30
0.0
 11
8809.739136810788
 21
-679.9153882081196
 31
0.0
  0
LINE
  5
2C2F
330
2
100
AcDbEntity
  8
OUTLINE
 48
50.0
100
AcDbLine
 10
8809.739136810788
 20
-306.3558962728071
 30
0.0
 11
8809.739136810788
 21
-679.9153882081191
 31
0.0
  0
LINE
  5
2C30
330
2
100
AcDbEntity
  8
OUTLINE
 48
50.0
100
AcDbLine
 10
8829.739136810784
 20
300.3108344250348
 30
0.0
 11
8829.739136810784
 21
-291.6249107891401
 31
0.0
  0
LINE
  5
2C31
330
2
100
AcDbEntity
  8
OUTLINE
 48
50.0
100
AcDbLine
 10
8829.739136810784
 20
-291.6249107891401
 30
0.0
 11
8828.739136810872
 21
-291.6249107891401
 31
0.0
  0
LINE
  5
2C32
330
2
100
AcDbEntity
  8
OUTLINE
  6
HIDDEN
 48
50.0
100
AcDbLine
 10
8829.739136810784
 20
-680.2153882081265
 30
0.0
 11
8828.739136810787
 21
-680.2153882081265
 31
0.0
  0
LINE
  5
2C33
330
2
100
AcDbEntity
  8
OUTLINE
  6
HIDDEN
 48
50.0
100
AcDbLine
 10
8829.739136810784
 20
-683.2153882081265
 30
0.0
 11
8828.739136810787
 21
-683.2153882081265
 31
0.0
  0
LINE
  5
2C34
330
2
100
AcDbEntity
  8
OUTLINE
 48
50.0
100
AcDbLine
 10
8829.739136810784
 20
537.7846117918736
 30
0.0
 11
8828.739136810781
 21
537.7846117918736
 31
0.0
  0
LINE
  5
2C35
330
2
100
AcDbEntity
  8
OUTLINE
  6
HIDDEN
 48
50.0
100
AcDbLine
 10
8828.739136810781
 20
537.7846117918736
 30
0.0
 11
8813.739136810786
 21
537.7846117918736
 31
0.0
  0
LINE
  5
2C36
330
2
100
AcDbEntity
  8
OUTLINE
 48
50.0
100
AcDbLine
 10
8829.739136810784
 20
537.7846117918736
 30
0.0
 11
8829.739136810784
 21
300.3108344250347
 31
0.0
  0
LINE
  5
2C37
330
2
100
AcDbEntity
  8
OUTLINE
 48
50.0
100
AcDbLine
 10
8829.739136810784
 20
300.3108344250345
 30
0.0
 11
8828.739136810787
 21
300.3108344250345
 31
0.0
  0
LINE
  5
2C38
330
2
100
AcDbEntity
  8
OUTLINE
  6
HIDDEN
 48
50.0
100
AcDbLine
 10
8812.739136810785
 20
536.7846117918682
 30
0.0
 11
8812.739136810785
 21
537.784611791868
 31
0.0
  0
LINE
  5
2C39
330
2
100
AcDbEntity
  8
OUTLINE
 48
50.0
100
AcDbLine
 10
8828.739136810787
 20
-713.2153882081316
 30
0.0
 11
8817.739136810786
 21
-713.2153882081316
 31
0.0
  0
LINE
  5
2C3A
330
2
100
AcDbEntity
  8
OUTLINE
 48
50.0
100
AcDbLine
 10
8817.739136810786
 20
-713.2153882081316
 30
0.0
 11
8812.739136810785
 21
-708.2153882081315
 31
0.0
  0
LINE
  5
2C3B
330
2
100
AcDbEntity
  8
OUTLINE
 48
50.0
100
AcDbLine
 10
8812.739136810785
 20
-708.2153882081317
 30
0.0
 11
8812.739136810785
 21
-682.91538820815
 31
0.0
  0
LINE
  5
2C3C
330
2
100
AcDbEntity
  8
OUTLINE
  6
HIDDEN
 48
50.0
100
AcDbLine
 10
8812.739136810785
 20
-682.91538820815
 30
0.0
 11
8812.739136810785
 21
-476.7153882081315
 31
0.0
  0
LINE
  5
2C3D
330
2
100
AcDbEntity
  8
OUTLINE
  6
HIDDEN
 48
50.0
100
AcDbLine
 10
8812.739136810785
 20
-454.7153882081316
 30
0.0
 11
8812.739136810785
 21
536.7846117918682
 31
0.0
  0
LINE
  5
2C3E
330
2
100
AcDbEntity
  8
OUTLINE
  6
HIDDEN
 48
50.0
100
AcDbLine
 10
8817.739136810786
 20
-459.7153882081316
 30
0.0
 11
8828.739136810787
 21
-459.7153882081316
 31
0.0
  0
LINE
  5
2C3F
330
2
100
AcDbEntity
  8
OUTLINE
  6
HIDDEN
 48
50.0
100
AcDbLine
 10
8817.739136810786
 20
-459.7153882081316
 30
0.0
 11
8812.739136810785
 21
-454.7153882081316
 31
0.0
  0
LINE
  5
2C40
330
2
100
AcDbEntity
  8
OUTLINE
  6
HIDDEN
 48
50.0
100
AcDbLine
 10
8828.739136810787
 20
-471.7153882081316
 30
0.0
 11
8817.739136810786
 21
-471.7153882081316
 31
0.0
  0
LINE
  5
2C41
330
2
100
AcDbEntity
  8
OUTLINE
  6
HIDDEN
 48
50.0
100
AcDbLine
 10
8812.739136810785
 20
-476.7153882081317
 30
0.0
 11
8817.739136810786
 21
-471.7153882081317
 31
0.0
  0
LINE
  5
2C42
330
2
100
AcDbEntity
  8
OUTLINE
  6
HIDDEN
 48
50.0
100
AcDbLine
 10
8829.739136810784
 20
-693.2153882081259
 30
0.0
 11
8828.739136810787
 21
-693.2153882081259
 31
0.0
  0
LINE
  5
2C43
330
2
100
AcDbEntity
  8
OUTLINE
  6
HIDDEN
 48
50.0
100
AcDbLine
 10
8829.739136810784
 20
-698.2153882081258
 30
0.0
 11
8828.739136810787
 21
-698.2153882081258
 31
0.0
  0
ELLIPSE
  5
2C44
330
2
100
AcDbEntity
  8
OUTLINE
 48
50.0
100
AcDbEllipse
 10
8817.739136810786
 20
506.5000464574334
 30
0.0
 11
2.0
 21
0.0
 31
0.0
210
0.0
220
0.0
230
1.0
 40
0.7660444431188359
 41
0.2113447395233944
 42
2.930247914066398
  0
ELLIPSE
  5
2C45
330
2
100
AcDbEntity
  8
OUTLINE
 48
50.0
100
AcDbEllipse
 10
8817.739136810786
 20
353.2911578336664
 30
0.0
 11
2.0
 21
0.0
 31
0.0
210
0.0
220
0.0
230
1.0
 40
0.7660444431188359
 41
0.2113447395233731
 42
2.93024791406643
  0
ELLIPSE
  5
2C46
330
2
100
AcDbEntity
  8
OUTLINE
 48
50.0
100
AcDbEllipse
 10
8817.739136810786
 20
-245.1449323751024
 30
0.0
 11
2.0
 21
0.0
 31
0.0
210
0.0
220
0.0
230
1.0
 40
0.9366071917945804
 41
0.0936609237961943
 42
3.047931729793598
  0
ELLIPSE
  5
2C47
330
2
100
AcDbEntity
  8
OUTLINE
 48
50.0
100
AcDbEllipse
 10
8817.739136810786
 20
-57.82349401618626
 30
0.0
 11
2.0
 21
0.0
 31
0.0
210
0.0
220
0.0
230
1.0
 40
0.9366071917945804
 41
0.0936609237962406
 42
3.047931729793524
  0
ELLIPSE
  5
2C48
330
2
100
AcDbEntity
  8
OUTLINE
 48
50.0
100
AcDbEllipse
 10
8817.739136810786
 20
129.4979443427298
 30
0.0
 11
2.0
 21
0.0
 31
0.0
210
0.0
220
0.0
230
1.0
 40
0.9366071917945804
 41
0.0936609237962539
 42
3.047931729793537
  0
ELLIPSE
  5
2C49
330
2
100
AcDbEntity
  8
OUTLINE
 48
50.0
100
AcDbEllipse
 10
8817.739136810786
 20
-244.7945511994113
 30
0.0
 11
-2.0
 21
0.0
 31
0.0
210
0.0
220
0.0
230
1.0
 40
0.9366071917945804
 41
0.0000000000000002
 42
6.283185307179584
  0
ELLIPSE
  5
2C4A
330
2
100
AcDbEntity
  8
OUTLINE
 48
50.0
100
AcDbEllipse
 10
8817.739136810786
 20
-57.47311284049509
 30
0.0
 11
-2.0
 21
0.0
 31
0.0
210
0.0
220
0.0
230
1.0
 40
0.9366071917945804
 41
0.0000000000000002
 42
6.283185307179584
  0
ELLIPSE
  5
2C4B
330
2
100
AcDbEntity
  8
OUTLINE
 48
50.0
100
AcDbEllipse
 10
8817.739136810786
 20
129.848325518421
 30
0.0
 11
-2.0
 21
0.0
 31
0.0
210
0.0
220
0.0
230
1.0
 40
0.9366071917945804
 41
0.0000000000000002
 42
6.283185307179584
  0
ELLIPSE
  5
2C4C
330
2
100
AcDbEntity
  8
OUTLINE
 48
50.0
100
AcDbEllipse
 10
8817.739136810786
 20
-371.5171193223373
 30
0.0
 11
-2.0
 21
0.0
 31
0.0
210
0.0
220
0.0
230
1.0
 40
0.7070106949840466
 41
0.0000000000000002
 42
6.283185307179584
  0
ELLIPSE
  5
2C4D
330
2
100
AcDbEntity
  8
OUTLINE
 48
50.0
100
AcDbEllipse
 10
8817.739136810786
 20
-370.8099164680033
 30
0.0
 11
2.0
 21
0.0
 31
0.0
210
0.0
220
0.0
230
1.0
 40
0.7070106949840466
 41
3.394343085577725
 42
6.030434875191652
  0
ELLIPSE
  5
2C4E
330
2
100
AcDbEntity
  8
OUTLINE
 48
50.0
100
AcDbEllipse
 10
8817.739136810786
 20
-618.9708625667535
 30
0.0
 11
-2.0
 21
0.0
 31
0.0
210
0.0
220
0.0
230
1.0
 40
0.7070106949840466
 41
0.0000000000000002
 42
6.283185307179584
  0
ELLIPSE
  5
2C4F
330
2
100
AcDbEntity
  8
OUTLINE
 48
50.0
100
AcDbEllipse
 10
8817.739136810786
 20
-618.2636597124196
 30
0.0
 11
2.0
 21
0.0
 31
0.0
210
0.0
220
0.0
230
1.0
 40
0.7070106949840466
 41
3.394343085577725
 42
6.030434875191652
  0
ELLIPSE
  5
2C50
330
2
100
AcDbEntity
  8
OUTLINE
 48
50.0
100
AcDbEllipse
 10
8817.739136810786
 20
353.9339454433532
 30
0.0
 11
-2.0
 21
0.0
 31
0.0
210
0.0
220
0.0
230
1.0
 40
0.7660444431188359
 41
0.0000000000000002
 42
6.283185307179584
  0
ELLIPSE
  5
2C51
330
2
100
AcDbEntity
  8
OUTLINE
 48
50.0
100
AcDbEllipse
 10
8817.739136810786
 20
507.1428340671202
 30
0.0
 11
-2.0
 21
0.0
 31
0.0
210
0.0
220
0.0
230
1.0
 40
0.7660444431188359
 41
2.662936822204542
 42
6.761841138562767
  0
CIRCLE
  5
2C52
330
2
100
AcDbEntity
  8
OUTLINE
 48
50.0
100
AcDbCircle
 10
8819.239136810786
 20
-703.2153882081315
 30
0.0
 40
3.5
  0
CIRCLE
  5
2C53
330
2
100
AcDbEntity
  8
OUTLINE
  6
HIDDEN
 48
50.0
100
AcDbCircle
 10
8821.739136810785
 20
529.7846117918683
 30
0.0
 40
3.5
  0
CIRCLE
  5
2C54
330
2
100
AcDbEntity
  8
OUTLINE
  6
HIDDEN
 48
50.0
100
AcDbCircle
 10
8821.739136810785
 20
-36.21538820813157
 30
0.0
 40
3.5
  0
LINE
  5
2C55
330
2
100
AcDbEntity
  8
OUTLINE
 48
50.0
100
AcDbLine
 10
8020.739136810753
 20
283.9632792484142
 30
0.0
 11
8020.73913681087
 21
-292.2111368052768
 31
0.0
  0
LINE
  5
2C56
330
2
100
AcDbEntity
  8
OUTLINE
 48
50.0
100
AcDbLine
 10
8828.739136810872
 20
-292.2111368051323
 30
0.0
 11
8828.739136810753
 21
283.9632792484461
 31
0.0
  0
LINE
  5
2C57
330
2
100
AcDbEntity
  8
OUTLINE
 48
50.0
100
AcDbLine
 10
8809.739136810874
 20
-306.3558962728062
 30
0.0
 11
8809.739136810874
 21
-305.6486582994227
 31
0.0
  0
LINE
  5
2C58
330
2
100
AcDbEntity
  8
OUTLINE
 48
50.0
100
AcDbLine
 10
8039.739136810872
 20
-306.3558962729438
 30
0.0
 11
8809.739136810874
 21
-306.3558962728062
 31
0.0
  0
LINE
  5
2C59
330
2
100
AcDbEntity
  8
OUTLINE
 48
50.0
100
AcDbLine
 10
8039.739136810872
 20
-305.6486582995603
 30
0.0
 11
8039.739136810872
 21
-306.3558962729437
 31
0.0
  0
LINE
  5
2C5A
330
2
100
AcDbEntity
  8
OUTLINE
 48
50.0
100
AcDbLine
 10
8025.739136810873
 20
-305.6486582995629
 30
0.0
 11
8039.739136810872
 21
-305.6486582995603
 31
0.0
  0
LINE
  5
2C5B
330
2
100
AcDbEntity
  8
OUTLINE
 48
50.0
100
AcDbLine
 10
8025.739136810873
 20
-305.6486582995629
 30
0.0
 11
8020.739136810872
 21
-302.1124684326462
 31
0.0
  0
LINE
  5
2C5C
330
2
100
AcDbEntity
  8
OUTLINE
 48
50.0
100
AcDbLine
 10
8020.739136810872
 20
-292.2111368052762
 30
0.0
 11
8020.739136810872
 21
-302.1124684326455
 31
0.0
  0
LINE
  5
2C5D
330
2
100
AcDbEntity
  8
OUTLINE
 48
50.0
100
AcDbLine
 10
8020.739136810872
 20
-292.2111368052764
 30
0.0
 11
8828.739136810872
 21
-292.2111368051321
 31
0.0
  0
LINE
  5
2C5E
330
2
100
AcDbEntity
  8
OUTLINE
 48
50.0
100
AcDbLine
 10
8828.739136810872
 20
-302.1124684325012
 30
0.0
 11
8828.739136810872
 21
-292.2111368051319
 31
0.0
  0
LINE
  5
2C5F
330
2
100
AcDbEntity
  8
OUTLINE
 48
50.0
100
AcDbLine
 10
8809.739136810874
 20
-305.6486582994228
 30
0.0
 11
8823.739136810873
 21
-305.6486582994202
 31
0.0
  0
LINE
  5
2C60
330
2
100
AcDbEntity
  8
OUTLINE
 48
50.0
100
AcDbLine
 10
8828.739136810872
 20
-302.1124684325017
 30
0.0
 11
8823.739136810873
 21
-305.64865829942
 31
0.0
  0
ELLIPSE
  5
2C61
330
2
100
AcDbEntity
  8
OUTLINE
 48
50.0
100
AcDbEllipse
 10
8140.739136810752
 20
288.4853221073844
 30
0.0
 11
-2.0
 21
0.0
 31
0.0
210
0.0
220
0.0
230
1.0
 40
0.9366071917945804
 41
2.032575362893913
 42
7.392202598034522
  0
ELLIPSE
  5
2C62
330
2
100
AcDbEntity
  8
OUTLINE
 48
50.0
100
AcDbEllipse
 10
8140.739136810752
 20
288.1349409316931
 30
0.0
 11
2.0
 21
0.0
 31
0.0
210
0.0
220
0.0
230
1.0
 40
0.9366071917945804
 41
0.0936609237963032
 42
3.047931729793476
  0
ELLIPSE
  5
2C63
330
2
100
AcDbEntity
  8
OUTLINE
 48
50.0
100
AcDbEllipse
 10
8708.739136810754
 20
288.4853221074859
 30
0.0
 11
-2.0
 21
0.0
 31
0.0
210
0.0
220
0.0
230
1.0
 40
0.9366071917945804
 41
2.032575362471809
 42
7.392202598456622
  0
ELLIPSE
  5
2C64
330
2
100
AcDbEntity
  8
OUTLINE
 48
50.0
100
AcDbEllipse
 10
8708.739136810754
 20
288.1349409317945
 30
0.0
 11
2.0
 21
0.0
 31
0.0
210
0.0
220
0.0
230
1.0
 40
0.9366071917945804
 41
0.0936609237962994
 42
3.047931729793511
  0
ELLIPSE
  5
2C65
330
2
100
AcDbEntity
  8
OUTLINE
 48
50.0
100
AcDbEllipse
 10
8031.739136810861
 20
-244.4441700237509
 30
0.0
 11
-2.5
 21
0.0
 31
0.0
210
0.0
220
0.0
230
1.0
 40
0.9366071917945804
 41
0.0000000000000002
 42
6.283185307179584
  0
ELLIPSE
  5
2C66
330
2
100
AcDbEntity
  8
OUTLINE
 48
50.0
100
AcDbEllipse
 10
8031.739136810861
 20
-244.7945511994424
 30
0.0
 11
2.5
 21
0.0
 31
0.0
210
0.0
220
0.0
230
1.0
 40
0.9366071917945804
 41
0.0748892184172476
 42
3.066703435172533
  0
ELLIPSE
  5
2C67
330
2
100
AcDbEntity
  8
OUTLINE
 48
50.0
100
AcDbEllipse
 10
8031.739136810823
 20
-57.12273166483488
 30
0.0
 11
-2.5
 21
0.0
 31
0.0
210
0.0
220
0.0
230
1.0
 40
0.9366071917945804
 41
0.0000000000000002
 42
6.283185307179584
  0
ELLIPSE
  5
2C68
330
2
100
AcDbEntity
  8
OUTLINE
 48
50.0
100
AcDbEllipse
 10
8031.739136810823
 20
-57.47311284052603
 30
0.0
 11
2.5
 21
0.0
 31
0.0
210
0.0
220
0.0
230
1.0
 40
0.9366071917945804
 41
0.0748892184172795
 42
3.066703435172517
  0
ELLIPSE
  5
2C69
330
2
100
AcDbEntity
  8
OUTLINE
 48
50.0
100
AcDbEllipse
 10
8031.739136810783
 20
130.1987066940812
 30
0.0
 11
-2.5
 21
0.0
 31
0.0
210
0.0
220
0.0
230
1.0
 40
0.9366071917945804
 41
0.0000000000000002
 42
6.283185307179584
  0
ELLIPSE
  5
2C6A
330
2
100
AcDbEntity
  8
OUTLINE
 48
50.0
100
AcDbEllipse
 10
8031.739136810783
 20
129.8483255183899
 30
0.0
 11
2.5
 21
0.0
 31
0.0
210
0.0
220
0.0
230
1.0
 40
0.9366071917945804
 41
0.0748892184172583
 42
3.066703435172528
  0
ELLIPSE
  5
2C6B
330
2
100
AcDbEntity
  8
OUTLINE
 48
50.0
100
AcDbEllipse
 10
8817.739136810862
 20
-244.4441700236105
 30
0.0
 11
-2.5
 21
0.0
 31
0.0
210
0.0
220
0.0
230
1.0
 40
0.9366071917945804
 41
0.0000000000000002
 42
6.283185307179584
  0
ELLIPSE
  5
2C6C
330
2
100
AcDbEntity
  8
OUTLINE
 48
50.0
100
AcDbEllipse
 10
8817.739136810862
 20
-244.7945511993018
 30
0.0
 11
2.5
 21
0.0
 31
0.0
210
0.0
220
0.0
230
1.0
 40
0.9366071917945804
 41
0.0748892184172158
 42
3.066703435172577
  0
ELLIPSE
  5
2C6D
330
2
100
AcDbEntity
  8
OUTLINE
 48
50.0
100
AcDbEllipse
 10
8817.739136810821
 20
-57.12273166469436
 30
0.0
 11
-2.5
 21
0.0
 31
0.0
210
0.0
220
0.0
230
1.0
 40
0.9366071917945804
 41
0.0000000000000002
 42
6.283185307179584
  0
ELLIPSE
  5
2C6E
330
2
100
AcDbEntity
  8
OUTLINE
 48
50.0
100
AcDbEllipse
 10
8817.739136810821
 20
-57.47311284038564
 30
0.0
 11
2.5
 21
0.0
 31
0.0
210
0.0
220
0.0
230
1.0
 40
0.9366071917945804
 41
0.0748892184172583
 42
3.066703435172517
  0
ELLIPSE
  5
2C6F
330
2
100
AcDbEntity
  8
OUTLINE
 48
50.0
100
AcDbEllipse
 10
8817.739136810786
 20
130.1987066942217
 30
0.0
 11
-2.5
 21
0.0
 31
0.0
210
0.0
220
0.0
230
1.0
 40
0.9366071917945804
 41
0.0000000000000002
 42
6.283185307179584
  0
ELLIPSE
  5
2C70
330
2
100
AcDbEntity
  8
OUTLINE
 48
50.0
100
AcDbEllipse
 10
8817.739136810786
 20
129.8483255185305
 30
0.0
 11
2.5
 21
0.0
 31
0.0
210
0.0
220
0.0
230
1.0
 40
0.9366071917945804
 41
0.0748892184172583
 42
3.066703435172517
  0
ELLIPSE
  5
2C71
330
2
100
AcDbEntity
  8
OUTLINE
 48
50.0
100
AcDbEllipse
 10
8158.739136810872
 20
-299.2835165390872
 30
0.0
 11
-2.0
 21
0.0
 31
0.0
210
0.0
220
0.0
230
1.0
 40
0.7072379733835299
 41
0.0000000000003475
 42
6.283185307179932
  0
ELLIPSE
  5
2C72
330
2
100
AcDbEntity
  8
OUTLINE
 48
50.0
100
AcDbEllipse
 10
8158.73913681087
 20
-298.5765409744425
 30
0.0
 11
2.0
 21
0.0
 31
0.0
210
0.0
220
0.0
230
1.0
 40
0.7072379733835303
 41
3.394177109568587
 42
6.030600851203463
  0
ELLIPSE
  5
2C73
330
2
100
AcDbEntity
  8
OUTLINE
 48
50.0
100
AcDbEllipse
 10
8335.739136810873
 20
-299.2835165390557
 30
0.0
 11
-2.0
 21
0.0
 31
0.0
210
0.0
220
0.0
230
1.0
 40
0.7072379733835299
 41
0.0000000000003475
 42
6.283185307179932
  0
ELLIPSE
  5
2C74
330
2
100
AcDbEntity
  8
OUTLINE
 48
50.0
100
AcDbEllipse
 10
8335.73913681087
 20
-298.576540974411
 30
0.0
 11
2.0
 21
0.0
 31
0.0
210
0.0
220
0.0
230
1.0
 40
0.7072379733835303
 41
3.394177109568627
 42
6.030600851203422
  0
ELLIPSE
  5
2C75
330
2
100
AcDbEntity
  8
OUTLINE
 48
50.0
100
AcDbEllipse
 10
8424.739136810753
 20
288.4853221074352
 30
0.0
 11
-2.0
 21
0.0
 31
0.0
210
0.0
220
0.0
230
1.0
 40
0.9366071917945804
 41
2.032575362682607
 42
7.392202598245824
  0
ELLIPSE
  5
2C76
330
2
100
AcDbEntity
  8
OUTLINE
 48
50.0
100
AcDbEllipse
 10
8424.739136810753
 20
288.134940931744
 30
0.0
 11
2.0
 21
0.0
 31
0.0
210
0.0
220
0.0
230
1.0
 40
0.9366071917945804
 41
0.0936609237962804
 42
3.047931729793492
  0
ELLIPSE
  5
2C77
330
2
100
AcDbEntity
  8
OUTLINE
 48
50.0
100
AcDbEllipse
 10
8513.739136810874
 20
-299.2835165390239
 30
0.0
 11
-2.0
 21
0.0
 31
0.0
210
0.0
220
0.0
230
1.0
 40
0.7072379733835299
 41
0.0000000000003475
 42
6.283185307179932
  0
ELLIPSE
  5
2C78
330
2
100
AcDbEntity
  8
OUTLINE
 48
50.0
100
AcDbEllipse
 10
8513.739136810874
 20
-298.5765409743791
 30
0.0
 11
2.0
 21
0.0
 31
0.0
210
0.0
220
0.0
230
1.0
 40
0.7072379733835303
 41
3.394177109568004
 42
6.030600851202493
  0
ELLIPSE
  5
2C79
330
2
100
AcDbEntity
  8
OUTLINE
 48
50.0
100
AcDbEllipse
 10
8690.739136810874
 20
-299.2835165389922
 30
0.0
 11
-2.0
 21
0.0
 31
0.0
210
0.0
220
0.0
230
1.0
 40
0.7072379733835299
 41
0.0000000000003475
 42
6.283185307179932
  0
ELLIPSE
  5
2C7A
330
2
100
AcDbEntity
  8
OUTLINE
 48
50.0
100
AcDbEllipse
 10
8690.739136810874
 20
-298.5765409743475
 30
0.0
 11
2.0
 21
0.0
 31
0.0
210
0.0
220
0.0
230
1.0
 40
0.7072379733835303
 41
3.394177109568082
 42
6.030600851202493
  0
LINE
  5
2C7B
330
2
100
AcDbEntity
  8
OUTLINE
 48
50.0
100
AcDbLine
 10
8020.739136810783
 20
538.7846117918853
 30
0.0
 11
8020.739136810799
 21
298.5238581956743
 31
0.0
  0
LINE
  5
2C7C
330
2
100
AcDbEntity
  8
OUTLINE
 48
50.0
100
AcDbLine
 10
8020.739136810799
 20
298.5238581956738
 30
0.0
 11
8020.739136810799
 21
284.3128256382012
 31
0.0
  0
LINE
  5
2C7D
330
2
100
AcDbEntity
  8
OUTLINE
 48
50.0
100
AcDbLine
 10
8020.739136810799
 20
298.5238581956738
 30
0.0
 11
8828.739136810796
 21
298.5238581957012
 31
0.0
  0
LINE
  5
2C7E
330
2
100
AcDbEntity
  8
OUTLINE
 48
50.0
100
AcDbLine
 10
8828.739136810796
 20
284.3128256382287
 30
0.0
 11
8823.739136810798
 21
279.6294646919867
 31
0.0
  0
LINE
  5
2C7F
330
2
100
AcDbEntity
  8
OUTLINE
 48
50.0
100
AcDbLine
 10
8025.739136810798
 20
279.6294646919598
 30
0.0
 11
8823.739136810798
 21
279.6294646919869
 31
0.0
  0
LINE
  5
2C80
330
2
100
AcDbEntity
  8
OUTLINE
 48
50.0
100
AcDbLine
 10
8823.739136810797
 20
279.6294646919865
 30
0.0
 11
8823.739136810797
 21
279.280243208856
 31
0.0
  0
LINE
  5
2C81
330
2
100
AcDbEntity
  8
OUTLINE
 48
50.0
100
AcDbLine
 10
8020.739136810799
 20
284.3128256382012
 30
0.0
 11
8020.739136810799
 21
283.9632792484142
 31
0.0
  0
LINE
  5
2C82
330
2
100
AcDbEntity
  8
OUTLINE
 48
50.0
100
AcDbLine
 10
8025.739136810798
 20
279.6294646919596
 30
0.0
 11
8020.739136810799
 21
284.3128256382012
 31
0.0
  0
LINE
  5
2C83
330
2
100
AcDbEntity
  8
OUTLINE
 48
50.0
100
AcDbLine
 10
8025.739136810797
 20
279.2802432088249
 30
0.0
 11
8025.739136810797
 21
279.6294646919595
 31
0.0
  0
LINE
  5
2C84
330
2
100
AcDbEntity
  8
OUTLINE
 48
50.0
100
AcDbLine
 10
8030.239136810783
 20
526.9367327547866
 30
0.0
 11
8033.239136810783
 21
526.9367327547866
 31
0.0
  0
LINE
  5
2C85
330
2
100
AcDbEntity
  8
OUTLINE
 48
50.0
100
AcDbLine
 10
8033.239136810783
 20
526.2939451451011
 30
0.0
 11
8030.239136810783
 21
526.2939451451009
 31
0.0
  0
LINE
  5
2C86
330
2
100
AcDbEntity
  8
OUTLINE
 48
50.0
100
AcDbLine
 10
8033.239136810783
 20
526.9367327547869
 30
0.0
 11
8033.239136810783
 21
524.6385994254302
 31
0.0
  0
LINE
  5
2C87
330
2
100
AcDbEntity
  8
OUTLINE
 48
50.0
100
AcDbLine
 10
8033.239136810783
 20
524.6385994254302
 30
0.0
 11
8030.239136810783
 21
524.6385994254301
 31
0.0
  0
LINE
  5
2C88
330
2
100
AcDbEntity
  8
OUTLINE
 48
50.0
100
AcDbLine
 10
8030.239136810783
 20
524.6385994254301
 30
0.0
 11
8030.239136810783
 21
526.9367327547866
 31
0.0
  0
LINE
  5
2C89
330
2
100
AcDbEntity
  8
OUTLINE
 48
50.0
100
AcDbLine
 10
8816.239136810784
 20
526.9367327548136
 30
0.0
 11
8819.239136810784
 21
526.9367327548136
 31
0.0
  0
LINE
  5
2C8A
330
2
100
AcDbEntity
  8
OUTLINE
 48
50.0
100
AcDbLine
 10
8819.239136810784
 20
526.2939451451277
 30
0.0
 11
8816.239136810784
 21
526.2939451451277
 31
0.0
  0
LINE
  5
2C8B
330
2
100
AcDbEntity
  8
OUTLINE
 48
50.0
100
AcDbLine
 10
8819.239136810786
 20
526.9367327548136
 30
0.0
 11
8819.239136810786
 21
524.6385994254567
 31
0.0
  0
LINE
  5
2C8C
330
2
100
AcDbEntity
  8
OUTLINE
 48
50.0
100
AcDbLine
 10
8819.239136810786
 20
524.6385994254568
 30
0.0
 11
8816.239136810786
 21
524.6385994254567
 31
0.0
  0
LINE
  5
2C8D
330
2
100
AcDbEntity
  8
OUTLINE
 48
50.0
100
AcDbLine
 10
8816.239136810786
 20
524.6385994254567
 30
0.0
 11
8816.239136810786
 21
526.9367327548136
 31
0.0
  0
LINE
  5
2C8E
330
2
100
AcDbEntity
  8
OUTLINE
 48
50.0
100
AcDbLine
 10
8029.239136810794
 20
349.9030801905967
 30
0.0
 11
8029.239136810794
 21
354.5767330530332
 31
0.0
  0
LINE
  5
2C8F
330
2
100
AcDbEntity
  8
OUTLINE
 48
50.0
100
AcDbLine
 10
8034.239136810795
 20
354.5767330530332
 30
0.0
 11
8034.239136810795
 21
349.9030801905967
 31
0.0
  0
LINE
  5
2C90
330
2
100
AcDbEntity
  8
OUTLINE
 48
50.0
100
AcDbLine
 10
8034.239136810795
 20
349.9030801905965
 30
0.0
 11
8034.239136810795
 21
349.2602925809099
 31
0.0
  0
LINE
  5
2C91
330
2
100
AcDbEntity
  8
OUTLINE
 48
50.0
100
AcDbLine
 10
8029.239136810794
 20
349.9030801905963
 30
0.0
 11
8029.239136810794
 21
349.2602925809099
 31
0.0
  0
LINE
  5
2C92
330
2
100
AcDbEntity
  8
OUTLINE
 48
50.0
100
AcDbLine
 10
8815.239136810793
 20
349.9030801906235
 30
0.0
 11
8815.239136810793
 21
354.5767330530599
 31
0.0
  0
LINE
  5
2C93
330
2
100
AcDbEntity
  8
OUTLINE
 48
50.0
100
AcDbLine
 10
8820.239136810792
 20
354.57673305306
 30
0.0
 11
8820.239136810792
 21
349.9030801906235
 31
0.0
  0
LINE
  5
2C94
330
2
100
AcDbEntity
  8
OUTLINE
 48
50.0
100
AcDbLine
 10
8820.239136810796
 20
349.9030801906231
 30
0.0
 11
8820.239136810796
 21
349.2602925809365
 31
0.0
  0
LINE
  5
2C95
330
2
100
AcDbEntity
  8
OUTLINE
 48
50.0
100
AcDbLine
 10
8815.239136810793
 20
349.9030801906231
 30
0.0
 11
8815.239136810793
 21
349.2602925809363
 31
0.0
  0
LINE
  5
2C96
330
2
100
AcDbEntity
  8
OUTLINE
 48
50.0
100
AcDbLine
 10
8020.739136810783
 20
538.7846117918853
 30
0.0
 11
8828.739136810781
 21
538.7846117919126
 31
0.0
  0
LINE
  5
2C97
330
2
100
AcDbEntity
  8
OUTLINE
 48
50.0
100
AcDbLine
 10
8828.739136810796
 20
283.9632792484458
 30
0.0
 11
8828.739136810796
 21
284.3128256382287
 31
0.0
  0
LINE
  5
2C98
330
2
100
AcDbEntity
  8
OUTLINE
 48
50.0
100
AcDbLine
 10
8828.739136810796
 20
284.3128256382287
 30
0.0
 11
8828.739136810796
 21
298.5238581957012
 31
0.0
  0
LINE
  5
2C99
330
2
100
AcDbEntity
  8
OUTLINE
 48
50.0
100
AcDbLine
 10
8828.739136810796
 20
298.5238581957018
 30
0.0
 11
8828.739136810781
 21
538.784611791913
 31
0.0
  0
LINE
  5
2C9A
330
2
100
AcDbEntity
  8
OUTLINE
  6
HIDDEN
 48
50.0
100
AcDbLine
 10
8020.739136810783
 20
537.7846117918843
 30
0.0
 11
8828.739136810781
 21
537.7846117919118
 31
0.0
  0
ELLIPSE
  5
2C9B
330
2
100
AcDbEntity
  8
OUTLINE
 48
50.0
100
AcDbEllipse
 10
8708.739136810796
 20
288.9961865844664
 30
0.0
 11
-2.5
 21
0.0
 31
0.0
210
0.0
220
0.0
230
1.0
 40
0.9366721892483582
 41
-0.000000000000006
 42
6.283185307179577
  0
ELLIPSE
  5
2C9C
330
2
100
AcDbEntity
  8
OUTLINE
 48
50.0
100
AcDbEllipse
 10
8140.739136810799
 20
288.9961865844472
 30
0.0
 11
-2.5
 21
0.0
 31
0.0
210
0.0
220
0.0
230
1.0
 40
0.9366721892483582
 41
-0.000000000000006
 42
6.283185307179577
  0
ELLIPSE
  5
2C9D
330
2
100
AcDbEntity
  8
OUTLINE
 48
50.0
100
AcDbEllipse
 10
8031.739136810793
 20
354.5767330530332
 30
0.0
 11
-2.499999999999999
 21
0.0
 31
0.0
210
0.0
220
0.0
230
1.0
 40
0.7660444431189059
 41
3.141592653589848
 42
6.283185307179641
  0
ELLIPSE
  5
2C9E
330
2
100
AcDbEntity
  8
OUTLINE
 48
50.0
100
AcDbEllipse
 10
8031.739136810793
 20
353.9339454433468
 30
0.0
 11
2.499999999999999
 21
0.0
 31
0.0
210
0.0
220
0.0
230
1.0
 40
0.7660444431189059
 41
0.0000000000000552
 42
3.141592653589848
  0
ELLIPSE
  5
2C9F
330
2
100
AcDbEntity
  8
OUTLINE
 48
50.0
100
AcDbEllipse
 10
8031.739136810795
 20
346.1502441787254
 30
0.0
 11
-5.499999999999999
 21
0.0
 31
0.0
210
0.0
220
0.0
230
1.0
 40
0.766044443118906
 41
5.184250817664342
 42
10.52371245028464
  0
ELLIPSE
  5
2CA0
330
2
100
AcDbEntity
  8
OUTLINE
 48
50.0
100
AcDbEllipse
 10
8031.739136810795
 20
345.5074565690392
 30
0.0
 11
5.499999999999999
 21
0.0
 31
0.0
210
0.0
220
0.0
230
1.0
 40
0.766044443118906
 41
2.042658164074548
 42
3.065236695065995
  0
ELLIPSE
  5
2CA1
330
2
100
AcDbEntity
  8
OUTLINE
 48
50.0
100
AcDbEllipse
 10
8031.739136810795
 20
345.5074565690392
 30
0.0
 11
5.499999999999999
 21
0.0
 31
0.0
210
0.0
220
0.0
230
1.0
 40
0.766044443118906
 41
0.07635595852378
 42
1.098934489515265
  0
ELLIPSE
  5
2CA2
330
2
100
AcDbEntity
  8
OUTLINE
 48
50.0
100
AcDbEllipse
 10
8817.739136810793
 20
354.57673305306
 30
0.0
 11
-2.499999999999999
 21
0.0
 31
0.0
210
0.0
220
0.0
230
1.0
 40
0.7660444431189059
 41
3.141592653589848
 42
6.283185307179641
  0
ELLIPSE
  5
2CA3
330
2
100
AcDbEntity
  8
OUTLINE
 48
50.0
100
AcDbEllipse
 10
8817.739136810793
 20
353.9339454433737
 30
0.0
 11
2.499999999999999
 21
0.0
 31
0.0
210
0.0
220
0.0
230
1.0
 40
0.7660444431189059
 41
0.0000000000000552
 42
3.141592653589848
  0
ELLIPSE
  5
2CA4
330
2
100
AcDbEntity
  8
OUTLINE
 48
50.0
100
AcDbEllipse
 10
8817.739136810795
 20
346.1502441787518
 30
0.0
 11
-5.499999999999999
 21
0.0
 31
0.0
210
0.0
220
0.0
230
1.0
 40
0.766044443118906
 41
5.184250817664342
 42
10.52371245028464
  0
ELLIPSE
  5
2CA5
330
2
100
AcDbEntity
  8
OUTLINE
 48
50.0
100
AcDbEllipse
 10
8817.739136810795
 20
345.5074565690654
 30
0.0
 11
5.499999999999999
 21
0.0
 31
0.0
210
0.0
220
0.0
230
1.0
 40
0.766044443118906
 41
2.042658164074548
 42
3.065236695066015
  0
ELLIPSE
  5
2CA6
330
2
100
AcDbEntity
  8
OUTLINE
 48
50.0
100
AcDbEllipse
 10
8817.739136810795
 20
345.5074565690654
 30
0.0
 11
5.499999999999999
 21
0.0
 31
0.0
210
0.0
220
0.0
230
1.0
 40
0.766044443118906
 41
0.0763559585237869
 42
1.098934489515263
  0
ELLIPSE
  5
2CA7
330
2
100
AcDbEntity
  8
OUTLINE
 48
50.0
100
AcDbEllipse
 10
8031.739136810786
 20
507.1428340671284
 30
0.0
 11
2.5
 21
0.0
 31
0.0
210
0.0
220
0.0
230
1.0
 40
0.7660444431189059
 41
0.1686178138043527
 42
2.972974839785477
  0
ELLIPSE
  5
2CA8
330
2
100
AcDbEntity
  8
OUTLINE
 48
50.0
100
AcDbEllipse
 10
8031.739136810786
 20
507.7856216768143
 30
0.0
 11
-2.5
 21
0.0
 31
0.0
210
0.0
220
0.0
230
1.0
 40
0.7660444431189059
 41
0.0000000000000002
 42
6.283185307179584
  0
ELLIPSE
  5
2CA9
330
2
100
AcDbEntity
  8
OUTLINE
 48
50.0
100
AcDbEllipse
 10
8817.739136810786
 20
507.1428340671551
 30
0.0
 11
2.5
 21
0.0
 31
0.0
210
0.0
220
0.0
230
1.0
 40
0.7660444431189059
 41
0.1686178138043527
 42
2.972974839785468
  0
ELLIPSE
  5
2CAA
330
2
100
AcDbEntity
  8
OUTLINE
 48
50.0
100
AcDbEllipse
 10
8817.739136810786
 20
507.7856216768409
 30
0.0
 11
-2.5
 21
0.0
 31
0.0
210
0.0
220
0.0
230
1.0
 40
0.7660444431189059
 41
0.0000000000000002
 42
6.283185307179584
  0
ELLIPSE
  5
2CAB
330
2
100
AcDbEntity
  8
OUTLINE
 48
50.0
100
AcDbEllipse
 10
8424.739136810798
 20
288.9961865844568
 30
0.0
 11
-2.5
 21
0.0
 31
0.0
210
0.0
220
0.0
230
1.0
 40
0.9366721892483582
 41
-0.000000000000006
 42
6.283185307179577
  0
LINE
  5
2CAC
330
2
100
AcDbEntity
  8
OUTLINE
 48
50.0
100
AcDbLine
 10
7189.739136810786
 20
300.3108344250371
 30
0.0
 11
7189.739136810786
 21
-291.624910789138
 31
0.0
  0
LINE
  5
2CAD
330
2
100
AcDbEntity
  8
OUTLINE
 48
50.0
100
AcDbLine
 10
7190.739136810788
 20
300.3108344250372
 30
0.0
 11
7189.739136810786
 21
300.3108344250372
 31
0.0
  0
LINE
  5
2CAE
330
2
100
AcDbEntity
  8
OUTLINE
 48
50.0
100
AcDbLine
 10
7189.739136810786
 20
537.7846117918758
 30
0.0
 11
7189.739136810786
 21
300.3108344250368
 31
0.0
  0
LINE
  5
2CAF
330
2
100
AcDbEntity
  8
OUTLINE
 48
50.0
100
AcDbLine
 10
7189.739136810786
 20
-291.6249107891371
 30
0.0
 11
7189.739136810786
 21
-713.2153882081239
 31
0.0
  0
LINE
  5
2CB0
330
2
100
AcDbEntity
  8
OUTLINE
 48
50.0
100
AcDbLine
 10
7190.739136810788
 20
-291.6249107891376
 30
0.0
 11
7189.739136810786
 21
-291.6249107891376
 31
0.0
  0
LINE
  5
2CB1
330
2
100
AcDbEntity
  8
OUTLINE
 48
50.0
100
AcDbLine
 10
7190.739136810788
 20
-684.9153882081183
 30
0.0
 11
7204.739136810786
 21
-684.9153882081183
 31
0.0
  0
LINE
  5
2CB2
330
2
100
AcDbEntity
  8
OUTLINE
 48
50.0
100
AcDbLine
 10
7209.739136810786
 20
-679.9153882081172
 30
0.0
 11
7204.739136810786
 21
-684.9153882081183
 31
0.0
  0
LINE
  5
2CB3
330
2
100
AcDbEntity
  8
OUTLINE
 48
50.0
100
AcDbLine
 10
7209.739136810786
 20
-306.3558962729147
 30
0.0
 11
7209.739136810786
 21
-679.9153882081172
 31
0.0
  0
LINE
  5
2CB4
330
2
100
AcDbEntity
  8
OUTLINE
 48
50.0
100
AcDbLine
 10
7190.739136810788
 20
-713.2153882081245
 30
0.0
 11
7190.739136810788
 21
-684.9153882081183
 31
0.0
  0
LINE
  5
2CB5
330
2
100
AcDbEntity
  8
OUTLINE
  6
HIDDEN
 48
50.0
100
AcDbLine
 10
7190.739136810788
 20
-302.1124684326139
 30
0.0
 11
7190.739136810788
 21
-684.9153882081185
 31
0.0
  0
LINE
  5
2CB6
330
2
100
AcDbEntity
  8
OUTLINE
  6
HIDDEN
 48
50.0
100
AcDbLine
 10
7189.739136810786
 20
-680.2153882081244
 30
0.0
 11
7190.739136810788
 21
-680.2153882081244
 31
0.0
  0
LINE
  5
2CB7
330
2
100
AcDbEntity
  8
OUTLINE
  6
HIDDEN
 48
50.0
100
AcDbLine
 10
7189.739136810786
 20
-683.2153882081244
 30
0.0
 11
7190.739136810788
 21
-683.2153882081244
 31
0.0
  0
LINE
  5
2CB8
330
2
100
AcDbEntity
  8
OUTLINE
 48
50.0
100
AcDbLine
 10
7190.739136810812
 20
537.7846117918757
 30
0.0
 11
7189.739136810786
 21
537.7846117918757
 31
0.0
  0
LINE
  5
2CB9
330
2
100
AcDbEntity
  8
OUTLINE
 48
50.0
100
AcDbLine
 10
7190.739136810788
 20
-713.2153882081245
 30
0.0
 11
7189.739136810786
 21
-713.2153882081245
 31
0.0
  0
LINE
  5
2CBA
330
2
100
AcDbEntity
  8
OUTLINE
 48
50.0
100
AcDbLine
 10
7206.739136810786
 20
-708.2153882081294
 30
0.0
 11
7201.739136810786
 21
-713.2153882081293
 31
0.0
  0
LINE
  5
2CBB
330
2
100
AcDbEntity
  8
OUTLINE
 48
50.0
100
AcDbLine
 10
7201.739136810786
 20
-713.2153882081293
 30
0.0
 11
7190.739136810788
 21
-713.2153882081293
 31
0.0
  0
LINE
  5
2CBC
330
2
100
AcDbEntity
  8
OUTLINE
  6
HIDDEN
 48
50.0
100
AcDbLine
 10
7201.739136810786
 20
-471.6744575990771
 30
0.0
 11
7190.739136810788
 21
-471.6744575990771
 31
0.0
  0
LINE
  5
2CBD
330
2
100
AcDbEntity
  8
OUTLINE
  6
HIDDEN
 48
50.0
100
AcDbLine
 10
7190.739136810788
 20
-459.6744575990771
 30
0.0
 11
7201.739136810786
 21
-459.6744575990771
 31
0.0
  0
LINE
  5
2CBE
330
2
100
AcDbEntity
  8
OUTLINE
  6
HIDDEN
 48
50.0
100
AcDbLine
 10
7206.739136810786
 20
-454.674457599077
 30
0.0
 11
7206.739136810786
 21
536.7846117918702
 31
0.0
  0
LINE
  5
2CBF
330
2
100
AcDbEntity
  8
OUTLINE
  6
HIDDEN
 48
50.0
100
AcDbLine
 10
7206.739136810786
 20
-454.674457599077
 30
0.0
 11
7201.739136810786
 21
-459.6744575990771
 31
0.0
  0
LINE
  5
2CC0
330
2
100
AcDbEntity
  8
OUTLINE
 48
50.0
100
AcDbLine
 10
7206.739136810786
 20
-708.2153882081294
 30
0.0
 11
7206.739136810786
 21
-682.9153882081473
 31
0.0
  0
LINE
  5
2CC1
330
2
100
AcDbEntity
  8
OUTLINE
  6
HIDDEN
 48
50.0
100
AcDbLine
 10
7206.739136810786
 20
-682.9153882081475
 30
0.0
 11
7206.739136810786
 21
-476.6744575990771
 31
0.0
  0
LINE
  5
2CC2
330
2
100
AcDbEntity
  8
OUTLINE
  6
HIDDEN
 48
50.0
100
AcDbLine
 10
7201.739136810786
 20
-471.6744575990771
 30
0.0
 11
7206.739136810786
 21
-476.6744575990771
 31
0.0
  0
LINE
  5
2CC3
330
2
100
AcDbEntity
  8
OUTLINE
  6
HIDDEN
 48
50.0
100
AcDbLine
 10
7189.739136810786
 20
-698.2153882081233
 30
0.0
 11
7190.739136810788
 21
-698.2153882081233
 31
0.0
  0
LINE
  5
2CC4
330
2
100
AcDbEntity
  8
OUTLINE
  6
HIDDEN
 48
50.0
100
AcDbLine
 10
7189.739136810786
 20
-693.2153882081236
 30
0.0
 11
7190.739136810788
 21
-693.2153882081236
 31
0.0
  0
ELLIPSE
  5
2CC5
330
2
100
AcDbEntity
  8
OUTLINE
 48
50.0
100
AcDbEllipse
 10
7201.739136810786
 20
129.8483255184236
 30
0.0
 11
-2.0
 21
0.0
 31
0.0
210
0.0
220
0.0
230
1.0
 40
0.9366071917945806
 41
0.0000000000000002
 42
6.283185307179584
  0
ELLIPSE
  5
2CC6
330
2
100
AcDbEntity
  8
OUTLINE
 48
50.0
100
AcDbEllipse
 10
7201.739136810786
 20
-57.47311284049239
 30
0.0
 11
-2.0
 21
0.0
 31
0.0
210
0.0
220
0.0
230
1.0
 40
0.9366071917945806
 41
0.0000000000000002
 42
6.283185307179584
  0
ELLIPSE
  5
2CC7
330
2
100
AcDbEntity
  8
OUTLINE
 48
50.0
100
AcDbEllipse
 10
7201.739136810786
 20
-244.7945511994086
 30
0.0
 11
-2.0
 21
0.0
 31
0.0
210
0.0
220
0.0
230
1.0
 40
0.9366071917945806
 41
0.0000000000000002
 42
6.283185307179584
  0
ELLIPSE
  5
2CC8
330
2
100
AcDbEntity
  8
OUTLINE
 48
50.0
100
AcDbEllipse
 10
7201.739136810786
 20
506.5000464574359
 30
0.0
 11
1.999999999999728
 21
0.0
 31
0.0
210
0.0
220
0.0
230
1.0
 40
0.7660444431188354
 41
0.2113447395230067
 42
2.930247914066786
  0
ELLIPSE
  5
2CC9
330
2
100
AcDbEntity
  8
OUTLINE
 48
50.0
100
AcDbEllipse
 10
7201.739136810786
 20
353.2911578336686
 30
0.0
 11
1.999999999970146
 21
0.0
 31
0.0
210
0.0
220
0.0
230
1.0
 40
0.7660444431188354
 41
0.2113447394899822
 42
2.930247914099816
  0
ELLIPSE
  5
2CCA
330
2
100
AcDbEntity
  8
OUTLINE
 48
50.0
100
AcDbEllipse
 10
7201.739136810786
 20
507.1428340671225
 30
0.0
 11
-2.0
 21
0.0
 31
0.0
210
0.0
220
0.0
230
1.0
 40
0.7660444431188354
 41
2.662936821959271
 42
6.761841138807986
  0
ELLIPSE
  5
2CCB
330
2
100
AcDbEntity
  8
OUTLINE
 48
50.0
100
AcDbEllipse
 10
7201.739136810786
 20
353.9339454433555
 30
0.0
 11
-2.0
 21
0.0
 31
0.0
210
0.0
220
0.0
230
1.0
 40
0.7660444431188354
 41
0.0000000000000002
 42
6.283185307179584
  0
ELLIPSE
  5
2CCC
330
2
100
AcDbEntity
  8
OUTLINE
 48
50.0
100
AcDbEllipse
 10
7201.739136810786
 20
-245.1449323750997
 30
0.0
 11
2.000000000008673
 21
0.0
 31
0.0
210
0.0
220
0.0
230
1.0
 40
0.9366071917945806
 41
0.0936609238191386
 42
3.047931729770653
  0
ELLIPSE
  5
2CCD
330
2
100
AcDbEntity
  8
OUTLINE
 48
50.0
100
AcDbEllipse
 10
7201.739136810786
 20
-57.82349401618353
 30
0.0
 11
2.000000000008745
 21
0.0
 31
0.0
210
0.0
220
0.0
230
1.0
 40
0.9366071917945806
 41
0.0936609238192447
 42
3.047931729770501
  0
ELLIPSE
  5
2CCE
330
2
100
AcDbEntity
  8
OUTLINE
 48
50.0
100
AcDbEllipse
 10
7201.739136810786
 20
129.4979443427326
 30
0.0
 11
2.000000000001188
 21
0.0
 31
0.0
210
0.0
220
0.0
230
1.0
 40
0.9366071917945806
 41
0.0936609237992915
 42
3.047931729790488
  0
ELLIPSE
  5
2CCF
330
2
100
AcDbEntity
  8
OUTLINE
 48
50.0
100
AcDbEllipse
 10
7201.739136810786
 20
-371.5171193223349
 30
0.0
 11
-2.0
 21
0.0
 31
0.0
210
0.0
220
0.0
230
1.0
 40
0.7070106949840472
 41
0.0000000000000002
 42
6.283185307179584
  0
ELLIPSE
  5
2CD0
330
2
100
AcDbEntity
  8
OUTLINE
 48
50.0
100
AcDbEllipse
 10
7201.739136810786
 20
-370.8099164680011
 30
0.0
 11
2.0
 21
0.0
 31
0.0
210
0.0
220
0.0
230
1.0
 40
0.7070106949840472
 41
3.394343085577725
 42
6.030434875191652
  0
ELLIPSE
  5
2CD1
330
2
100
AcDbEntity
  8
OUTLINE
 48
50.0
100
AcDbEllipse
 10
7201.739136810786
 20
-618.9708625667512
 30
0.0
 11
-2.0
 21
0.0
 31
0.0
210
0.0
220
0.0
230
1.0
 40
0.7070106949840472
 41
0.0000000000000002
 42
6.283185307179584
  0
ELLIPSE
  5
2CD2
330
2
100
AcDbEntity
  8
OUTLINE
 48
50.0
100
AcDbEllipse
 10
7201.739136810786
 20
-618.2636597124171
 30
0.0
 11
2.0
 21
0.0
 31
0.0
210
0.0
220
0.0
230
1.0
 40
0.7070106949840472
 41
3.394343085577725
 42
6.030434875191652
  0
CIRCLE
  5
2CD3
330
2
100
AcDbEntity
  8
OUTLINE
 48
50.0
100
AcDbCircle
 10
7200.239136810786
 20
-703.2153882081294
 30
0.0
 40
3.5
  0
CIRCLE
  5
2CD4
330
2
100
AcDbEntity
  8
OUTLINE
  6
HIDDEN
 48
50.0
100
AcDbCircle
 10
7197.739136810786
 20
529.7846117918703
 30
0.0
 40
3.5
  0
CIRCLE
  5
2CD5
330
2
100
AcDbEntity
  8
OUTLINE
  6
HIDDEN
 48
50.0
100
AcDbCircle
 10
7197.739136810786
 20
-36.21538820812953
 30
0.0
 40
3.5
  0
LINE
  5
2CD6
330
2
100
AcDbEntity
  8
OUTLINE
 48
50.0
100
AcDbLine
 10
7999.739136810787
 20
-291.6249107895998
 30
0.0
 11
7999.739136810787
 21
-713.2153882085881
 31
0.0
  0
LINE
  5
2CD7
330
2
100
AcDbEntity
  8
OUTLINE
 48
50.0
100
AcDbLine
 10
7999.739136810787
 20
-713.2153882085885
 30
0.0
 11
7998.739136810788
 21
-713.2153882085885
 31
0.0
  0
LINE
  5
2CD8
330
2
100
AcDbEntity
  8
OUTLINE
 48
50.0
100
AcDbLine
 10
7998.739136810788
 20
-684.9153882085822
 30
0.0
 11
7998.739136810788
 21
-713.2153882085884
 31
0.0
  0
LINE
  5
2CD9
330
2
100
AcDbEntity
  8
OUTLINE
 48
50.0
100
AcDbLine
 10
7984.739136810786
 20
-684.915388208582
 30
0.0
 11
7998.739136810788
 21
-684.915388208582
 31
0.0
  0
LINE
  5
2CDA
330
2
100
AcDbEntity
  8
OUTLINE
 48
50.0
100
AcDbLine
 10
7984.739136810786
 20
-684.915388208582
 30
0.0
 11
7979.739136810788
 21
-679.9153882085812
 31
0.0
  0
LINE
  5
2CDB
330
2
100
AcDbEntity
  8
OUTLINE
 48
50.0
100
AcDbLine
 10
7979.739136810788
 20
-306.3558962729148
 30
0.0
 11
7979.739136810788
 21
-679.9153882085809
 31
0.0
  0
LINE
  5
2CDC
330
2
100
AcDbEntity
  8
OUTLINE
 48
50.0
100
AcDbLine
 10
7999.739136810787
 20
300.3108344245739
 30
0.0
 11
7999.739136810787
 21
-291.6249107896002
 31
0.0
  0
LINE
  5
2CDD
330
2
100
AcDbEntity
  8
OUTLINE
 48
50.0
100
AcDbLine
 10
7999.739136810787
 20
-291.6249107896003
 30
0.0
 11
7998.739136810785
 21
-291.6249107896003
 31
0.0
  0
LINE
  5
2CDE
330
2
100
AcDbEntity
  8
NOTE
 48
50.0
100
AcDbLine
 10
8042.239136810785
 20
-657.2153882081622
 30
0.0
 11
8043.239136810784
 21
-657.2153882081622
 31
0.0
  0
LINE
  5
2CDF
330
2
100
AcDbEntity
  8
NOTE
 48
50.0
100
AcDbLine
 10
8042.739136810785
 20
-657.7153882081622
 30
0.0
 11
8042.739136810785
 21
-656.7153882081623
 31
0.0
  0
LINE
  5
2CE0
330
2
100
AcDbEntity
  8
NOTE
 48
50.0
100
AcDbLine
 10
8029.239136810785
 20
-657.2153882081622
 30
0.0
 11
8041.239136810785
 21
-657.2153882081622
 31
0.0
  0
LINE
  5
2CE1
330
2
100
AcDbEntity
  8
NOTE
 48
50.0
100
AcDbLine
 10
8044.239136810785
 20
-657.2153882081622
 30
0.0
 11
8056.239136810786
 21
-657.2153882081622
 31
0.0
  0
LINE
  5
2CE2
330
2
100
AcDbEntity
  8
NOTE
 48
50.0
100
AcDbLine
 10
8042.739136810785
 20
-670.7153882081625
 30
0.0
 11
8042.739136810785
 21
-658.7153882081625
 31
0.0
  0
LINE
  5
2CE3
330
2
100
AcDbEntity
  8
NOTE
 48
50.0
100
AcDbLine
 10
8042.739136810785
 20
-655.7153882081625
 30
0.0
 11
8042.739136810785
 21
-643.7153882081624
 31
0.0
  0
LINE
  5
2CE4
330
2
100
AcDbEntity
  8
NOTE
 48
50.0
100
AcDbLine
 10
8042.239136810785
 20
-36.21538820816271
 30
0.0
 11
8043.239136810784
 21
-36.21538820816271
 31
0.0
  0
LINE
  5
2CE5
330
2
100
AcDbEntity
  8
NOTE
 48
50.0
100
AcDbLine
 10
8042.739136810785
 20
-36.71538820816272
 30
0.0
 11
8042.739136810785
 21
-35.71538820816272
 31
0.0
  0
LINE
  5
2CE6
330
2
100
AcDbEntity
  8
NOTE
 48
50.0
100
AcDbLine
 10
8029.239136810785
 20
-36.21538820816271
 30
0.0
 11
8041.239136810785
 21
-36.21538820816271
 31
0.0
  0
LINE
  5
2CE7
330
2
100
AcDbEntity
  8
NOTE
 48
50.0
100
AcDbLine
 10
8044.239136810785
 20
-36.21538820816271
 30
0.0
 11
8056.239136810786
 21
-36.21538820816271
 31
0.0
  0
LINE
  5
2CE8
330
2
100
AcDbEntity
  8
NOTE
 48
50.0
100
AcDbLine
 10
8042.739136810785
 20
-49.7153882081627
 30
0.0
 11
8042.739136810785
 21
-37.71538820816271
 31
0.0
  0
LINE
  5
2CE9
330
2
100
AcDbEntity
  8
NOTE
 48
50.0
100
AcDbLine
 10
8042.739136810785
 20
-34.71538820816272
 30
0.0
 11
8042.739136810785
 21
-22.71538820816272
 31
0.0
  0
LINE
  5
2CEA
330
2
100
AcDbEntity
  8
NOTE
 48
50.0
100
AcDbLine
 10
8028.239136810785
 20
529.7846117918371
 30
0.0
 11
8029.239136810785
 21
529.7846117918371
 31
0.0
  0
LINE
  5
2CEB
330
2
100
AcDbEntity
  8
NOTE
 48
50.0
100
AcDbLine
 10
8028.739136810782
 20
529.2846117918371
 30
0.0
 11
8028.739136810782
 21
530.2846117918371
 31
0.0
  0
LINE
  5
2CEC
330
2
100
AcDbEntity
  8
NOTE
 48
50.0
100
AcDbLine
 10
8015.239136810784
 20
529.7846117918371
 30
0.0
 11
8027.239136810782
 21
529.7846117918371
 31
0.0
  0
LINE
  5
2CED
330
2
100
AcDbEntity
  8
NOTE
 48
50.0
100
AcDbLine
 10
8030.239136810783
 20
529.7846117918371
 30
0.0
 11
8042.239136810785
 21
529.7846117918371
 31
0.0
  0
LINE
  5
2CEE
330
2
100
AcDbEntity
  8
NOTE
 48
50.0
100
AcDbLine
 10
8028.739136810782
 20
516.2846117918372
 30
0.0
 11
8028.739136810782
 21
528.2846117918372
 31
0.0
  0
LINE
  5
2CEF
330
2
100
AcDbEntity
  8
NOTE
 48
50.0
100
AcDbLine
 10
8028.739136810782
 20
531.2846117918373
 30
0.0
 11
8028.739136810782
 21
543.2846117918371
 31
0.0
  0
LINE
  5
2CF0
330
2
100
AcDbEntity
  8
NOTE
 48
50.0
100
AcDbLine
 10
8818.739136810785
 20
-703.2153882081315
 30
0.0
 11
8819.739136810786
 21
-703.2153882081315
 31
0.0
  0
LINE
  5
2CF1
330
2
100
AcDbEntity
  8
NOTE
 48
50.0
100
AcDbLine
 10
8819.239136810786
 20
-703.7153882081315
 30
0.0
 11
8819.239136810786
 21
-702.7153882081315
 31
0.0
  0
LINE
  5
2CF2
330
2
100
AcDbEntity
  8
NOTE
 48
50.0
100
AcDbLine
 10
8805.739136810785
 20
-703.2153882081315
 30
0.0
 11
8817.739136810786
 21
-703.2153882081315
 31
0.0
  0
LINE
  5
2CF3
330
2
100
AcDbEntity
  8
NOTE
 48
50.0
100
AcDbLine
 10
8820.739136810786
 20
-703.2153882081315
 30
0.0
 11
8832.739136810785
 21
-703.2153882081315
 31
0.0
  0
LINE
  5
2CF4
330
2
100
AcDbEntity
  8
NOTE
 48
50.0
100
AcDbLine
 10
8819.239136810786
 20
-716.7153882081315
 30
0.0
 11
8819.239136810786
 21
-704.7153882081316
 31
0.0
  0
LINE
  5
2CF5
330
2
100
AcDbEntity
  8
NOTE
 48
50.0
100
AcDbLine
 10
8819.239136810786
 20
-701.7153882081315
 30
0.0
 11
8819.239136810786
 21
-689.7153882081315
 31
0.0
  0
LINE
  5
2CF6
330
2
100
AcDbEntity
  8
NOTE
 48
50.0
100
AcDbLine
 10
8821.239136810786
 20
529.7846117918683
 30
0.0
 11
8822.239136810786
 21
529.7846117918683
 31
0.0
  0
LINE
  5
2CF7
330
2
100
AcDbEntity
  8
NOTE
 48
50.0
100
AcDbLine
 10
8821.739136810785
 20
529.2846117918683
 30
0.0
 11
8821.739136810785
 21
530.2846117918683
 31
0.0
  0
LINE
  5
2CF8
330
2
100
AcDbEntity
  8
NOTE
 48
50.0
100
AcDbLine
 10
8808.239136810788
 20
529.7846117918683
 30
0.0
 11
8820.239136810785
 21
529.7846117918683
 31
0.0
  0
LINE
  5
2CF9
330
2
100
AcDbEntity
  8
NOTE
 48
50.0
100
AcDbLine
 10
8823.239136810785
 20
529.7846117918683
 30
0.0
 11
8835.239136810786
 21
529.7846117918683
 31
0.0
  0
LINE
  5
2CFA
330
2
100
AcDbEntity
  8
NOTE
 48
50.0
100
AcDbLine
 10
8821.739136810785
 20
516.2846117918681
 30
0.0
 11
8821.739136810785
 21
528.2846117918682
 31
0.0
  0
LINE
  5
2CFB
330
2
100
AcDbEntity
  8
NOTE
 48
50.0
100
AcDbLine
 10
8821.739136810785
 20
531.2846117918683
 30
0.0
 11
8821.739136810785
 21
543.2846117918683
 31
0.0
  0
LINE
  5
2CFC
330
2
100
AcDbEntity
  8
NOTE
 48
50.0
100
AcDbLine
 10
8821.239136810786
 20
-36.21538820813157
 30
0.0
 11
8822.239136810786
 21
-36.21538820813157
 31
0.0
  0
LINE
  5
2CFD
330
2
100
AcDbEntity
  8
NOTE
 48
50.0
100
AcDbLine
 10
8821.739136810785
 20
-36.71538820813157
 30
0.0
 11
8821.739136810785
 21
-35.71538820813157
 31
0.0
  0
LINE
  5
2CFE
330
2
100
AcDbEntity
  8
NOTE
 48
50.0
100
AcDbLine
 10
8808.239136810788
 20
-36.21538820813157
 30
0.0
 11
8820.239136810785
 21
-36.21538820813157
 31
0.0
  0
LINE
  5
2CFF
330
2
100
AcDbEntity
  8
NOTE
 48
50.0
100
AcDbLine
 10
8823.239136810785
 20
-36.21538820813157
 30
0.0
 11
8835.239136810786
 21
-36.21538820813157
 31
0.0
  0
LINE
  5
2D00
330
2
100
AcDbEntity
  8
NOTE
 48
50.0
100
AcDbLine
 10
8821.739136810785
 20
-49.71538820813157
 30
0.0
 11
8821.739136810785
 21
-37.71538820813157
 31
0.0
  0
LINE
  5
2D01
330
2
100
AcDbEntity
  8
NOTE
 48
50.0
100
AcDbLine
 10
8821.739136810785
 20
-34.71538820813157
 30
0.0
 11
8821.739136810785
 21
-22.71538820813157
 31
0.0
  0
LINE
  5
2D02
330
2
100
AcDbEntity
  8
NOTE
 48
50.0
100
AcDbLine
 10
7199.739136810787
 20
-703.2153882081297
 30
0.0
 11
7200.739136810786
 21
-703.2153882081297
 31
0.0
  0
LINE
  5
2D03
330
2
100
AcDbEntity
  8
NOTE
 48
50.0
100
AcDbLine
 10
7200.239136810786
 20
-703.7153882081297
 30
0.0
 11
7200.239136810786
 21
-702.7153882081297
 31
0.0
  0
LINE
  5
2D04
330
2
100
AcDbEntity
  8
NOTE
 48
50.0
100
AcDbLine
 10
7186.739136810786
 20
-703.2153882081297
 30
0.0
 11
7198.739136810786
 21
-703.2153882081297
 31
0.0
  0
LINE
  5
2D05
330
2
100
AcDbEntity
  8
NOTE
 48
50.0
100
AcDbLine
 10
7201.739136810786
 20
-703.2153882081297
 30
0.0
 11
7213.739136810787
 21
-703.2153882081297
 31
0.0
  0
LINE
  5
2D06
330
2
100
AcDbEntity
  8
NOTE
 48
50.0
100
AcDbLine
 10
7200.239136810786
 20
-716.7153882081297
 30
0.0
 11
7200.239136810786
 21
-704.7153882081297
 31
0.0
  0
LINE
  5
2D07
330
2
100
AcDbEntity
  8
NOTE
 48
50.0
100
AcDbLine
 10
7200.239136810786
 20
-701.7153882081297
 30
0.0
 11
7200.239136810786
 21
-689.7153882081298
 31
0.0
  0
LINE
  5
2D08
330
2
100
AcDbEntity
  8
NOTE
 48
50.0
100
AcDbLine
 10
7197.239136810786
 20
529.78461179187
 30
0.0
 11
7198.239136810787
 21
529.78461179187
 31
0.0
  0
LINE
  5
2D09
330
2
100
AcDbEntity
  8
NOTE
 48
50.0
100
AcDbLine
 10
7197.739136810786
 20
529.28461179187
 30
0.0
 11
7197.739136810786
 21
530.28461179187
 31
0.0
  0
LINE
  5
2D0A
330
2
100
AcDbEntity
  8
NOTE
 48
50.0
100
AcDbLine
 10
7184.239136810787
 20
529.78461179187
 30
0.0
 11
7196.239136810787
 21
529.78461179187
 31
0.0
  0
LINE
  5
2D0B
330
2
100
AcDbEntity
  8
NOTE
 48
50.0
100
AcDbLine
 10
7199.239136810786
 20
529.78461179187
 30
0.0
 11
7211.239136810786
 21
529.78461179187
 31
0.0
  0
LINE
  5
2D0C
330
2
100
AcDbEntity
  8
NOTE
 48
50.0
100
AcDbLine
 10
7197.739136810786
 20
516.28461179187
 30
0.0
 11
7197.739136810786
 21
528.28461179187
 31
0.0
  0
LINE
  5
2D0D
330
2
100
AcDbEntity
  8
NOTE
 48
50.0
100
AcDbLine
 10
7197.739136810786
 20
531.28461179187
 30
0.0
 11
7197.739136810786
 21
543.28461179187
 31
0.0
  0
LINE
  5
2D0E
330
2
100
AcDbEntity
  8
NOTE
 48
50.0
100
AcDbLine
 10
7197.239136810786
 20
-36.21538820812998
 30
0.0
 11
7198.239136810787
 21
-36.21538820812998
 31
0.0
  0
LINE
  5
2D0F
330
2
100
AcDbEntity
  8
NOTE
 48
50.0
100
AcDbLine
 10
7197.739136810786
 20
-36.71538820812998
 30
0.0
 11
7197.739136810786
 21
-35.71538820812998
 31
0.0
  0
LINE
  5
2D10
330
2
100
AcDbEntity
  8
NOTE
 48
50.0
100
AcDbLine
 10
7184.239136810787
 20
-36.21538820812998
 30
0.0
 11
7196.239136810787
 21
-36.21538820812998
 31
0.0
  0
LINE
  5
2D11
330
2
100
AcDbEntity
  8
NOTE
 48
50.0
100
AcDbLine
 10
7199.239136810786
 20
-36.21538820812998
 30
0.0
 11
7211.239136810786
 21
-36.21538820812998
 31
0.0
  0
LINE
  5
2D12
330
2
100
AcDbEntity
  8
NOTE
 48
50.0
100
AcDbLine
 10
7197.739136810786
 20
-49.71538820812998
 30
0.0
 11
7197.739136810786
 21
-37.71538820812998
 31
0.0
  0
LINE
  5
2D13
330
2
100
AcDbEntity
  8
NOTE
 48
50.0
100
AcDbLine
 10
7197.739136810786
 20
-34.71538820812998
 30
0.0
 11
7197.739136810786
 21
-22.71538820812998
 31
0.0
  0
LINE
  5
2D14
330
2
100
AcDbEntity
  8
NOTE
 48
50.0
100
AcDbLine
 10
7990.239136810787
 20
529.7846117914057
 30
0.0
 11
7991.239136810786
 21
529.7846117914057
 31
0.0
  0
LINE
  5
2D15
330
2
100
AcDbEntity
  8
NOTE
 48
50.0
100
AcDbLine
 10
7990.739136810788
 20
529.2846117914057
 30
0.0
 11
7990.739136810788
 21
530.2846117914056
 31
0.0
  0
LINE
  5
2D16
330
2
100
AcDbEntity
  8
NOTE
 48
50.0
100
AcDbLine
 10
7977.239136810786
 20
529.7846117914057
 30
0.0
 11
7989.239136810788
 21
529.7846117914057
 31
0.0
  0
LINE
  5
2D17
330
2
100
AcDbEntity
  8
NOTE
 48
50.0
100
AcDbLine
 10
7992.239136810788
 20
529.7846117914057
 30
0.0
 11
8004.239136810786
 21
529.7846117914057
 31
0.0
  0
LINE
  5
2D18
330
2
100
AcDbEntity
  8
NOTE
 48
50.0
100
AcDbLine
 10
7990.739136810788
 20
516.2846117914057
 30
0.0
 11
7990.739136810788
 21
528.2846117914057
 31
0.0
  0
LINE
  5
2D19
330
2
100
AcDbEntity
  8
NOTE
 48
50.0
100
AcDbLine
 10
7990.739136810788
 20
531.2846117914057
 30
0.0
 11
7990.739136810788
 21
543.2846117914057
 31
0.0
  0
LINE
  5
2D1A
330
2
100
AcDbEntity
  8
NOTE
 48
50.0
100
AcDbLine
 10
7976.239136810787
 20
-36.21538820859417
 30
0.0
 11
7977.239136810786
 21
-36.21538820859417
 31
0.0
  0
LINE
  5
2D1B
330
2
100
AcDbEntity
  8
NOTE
 48
50.0
100
AcDbLine
 10
7976.739136810786
 20
-36.71538820859416
 30
0.0
 11
7976.739136810786
 21
-35.71538820859416
 31
0.0
  0
LINE
  5
2D1C
330
2
100
AcDbEntity
  8
NOTE
 48
50.0
100
AcDbLine
 10
7963.239136810786
 20
-36.21538820859417
 30
0.0
 11
7975.239136810786
 21
-36.21538820859417
 31
0.0
  0
LINE
  5
2D1D
330
2
100
AcDbEntity
  8
NOTE
 48
50.0
100
AcDbLine
 10
7978.239136810788
 20
-36.21538820859417
 30
0.0
 11
7990.239136810787
 21
-36.21538820859417
 31
0.0
  0
LINE
  5
2D1E
330
2
100
AcDbEntity
  8
NOTE
 48
50.0
100
AcDbLine
 10
7976.739136810786
 20
-49.71538820859416
 30
0.0
 11
7976.739136810786
 21
-37.71538820859416
 31
0.0
  0
LINE
  5
2D1F
330
2
100
AcDbEntity
  8
NOTE
 48
50.0
100
AcDbLine
 10
7976.739136810786
 20
-34.71538820859417
 30
0.0
 11
7976.739136810786
 21
-22.71538820859416
 31
0.0
  0
LINE
  5
2D20
330
2
100
AcDbEntity
  8
NOTE
 48
50.0
100
AcDbLine
 10
7976.239136810787
 20
-657.2153882085939
 30
0.0
 11
7977.239136810786
 21
-657.2153882085939
 31
0.0
  0
LINE
  5
2D21
330
2
100
AcDbEntity
  8
NOTE
 48
50.0
100
AcDbLine
 10
7976.739136810786
 20
-657.7153882085939
 30
0.0
 11
7976.739136810786
 21
-656.7153882085939
 31
0.0
  0
LINE
  5
2D22
330
2
100
AcDbEntity
  8
NOTE
 48
50.0
100
AcDbLine
 10
7963.239136810786
 20
-657.2153882085939
 30
0.0
 11
7975.239136810786
 21
-657.2153882085939
 31
0.0
  0
LINE
  5
2D23
330
2
100
AcDbEntity
  8
NOTE
 48
50.0
100
AcDbLine
 10
7978.239136810788
 20
-657.2153882085939
 30
0.0
 11
7990.239136810787
 21
-657.2153882085939
 31
0.0
  0
LINE
  5
2D24
330
2
100
AcDbEntity
  8
NOTE
 48
50.0
100
AcDbLine
 10
7976.739136810786
 20
-670.7153882085939
 30
0.0
 11
7976.739136810786
 21
-658.7153882085939
 31
0.0
  0
LINE
  5
2D25
330
2
100
AcDbEntity
  8
NOTE
 48
50.0
100
AcDbLine
 10
7976.739136810786
 20
-655.7153882085939
 30
0.0
 11
7976.739136810786
 21
-643.7153882085939
 31
0.0
  0
LINE
  5
2D26
330
2
100
AcDbEntity
  8
OUTLINE
 48
50.0
100
AcDbLine
 10
8019.739136810784
 20
300.3108344250039
 30
0.0
 11
8019.739136810784
 21
-291.6249107891712
 31
0.0
  0
LINE
  5
2D27
330
2
100
AcDbEntity
  8
OUTLINE
  6
HIDDEN
 48
50.0
100
AcDbLine
 10
8034.739136810783
 20
536.7846117918426
 30
0.0
 11
8020.739136810785
 21
536.7846117918426
 31
0.0
  0
LINE
  5
2D31
330
2
100
AcDbEntity
  8
BASIS
  6
DASHDOT
 62
     6
100
AcDbLine
 10
8009.739136810786
 20
-738.5096297769059
 30
0.0
 11
8009.739136810786
 21
568.0728097977797
 31
0.0
  0
LINE
  5
2D32
330
2
100
AcDbEntity
  8
ARRANGE
  6
Continuous
 62
     1
100
AcDbLine
 10
7993.05501924638
 20
-729.8995057727831
 30
0.0
 11
8026.423254375186
 21
-696.5312706439759
 31
0.0
  0
LINE
  5
2D33
330
2
100
AcDbEntity
  8
ARRANGE
  6
Continuous
 62
     1
100
AcDbLine
 10
7993.05501924638
 20
-696.5312706439759
 30
0.0
 11
8026.423254375186
 21
-729.8995057727831
 31
0.0
  0
CIRCLE
  5
2D34
330
2
100
AcDbEntity
  8
ARRANGE
100
AcDbCircle
 10
8009.739136810786
 20
-713.2153882083795
 30
0.0
 40
15.0
  0
DIMENSION
  5
2D42
330
2
100
AcDbEntity
  8
SIZE
100
AcDbDimension
  2
*D32
 10
7976.739136810786
 20
-798.3424303382908
 30
0.0
 11
7605.862001237477
 21
-798.3424303382908
 31
0.0
 70
   160
 71
     5
 42
779.0
  3
STANDARD
100
AcDbAlignedDimension
 13
7197.739136810786
 23
-22.71538820812998
 33
0.0
 14
7976.739136810786
 24
-22.71538820812998
 34
0.0
100
AcDbRotatedDimension
1001
ACAD
1000
DSTYLE
1002
{
1070
    40
1040
10.0
1070
    45
1040
0.5
1070
    50
1040
0.7853981633974483
1070
    90
1070
     1
1070
   271
1070
     1
1070
   272
1070
     1
1002
}
  0
DIMENSION
  5
2D4F
330
2
100
AcDbEntity
  8
SIZE
100
AcDbDimension
  2
*D33
 10
7990.739136810788
 20
579.7380288177428
 30
0.0
 11
7594.239136810786
 21
599.7380288177428
 31
0.0
 70
    32
 71
     5
 42
793.0
  3
STANDARD
100
AcDbAlignedDimension
 13
7197.739136810786
 23
543.28461179187
 33
0.0
 14
7990.739136810788
 24
543.2846117914057
 34
0.0
100
AcDbRotatedDimension
1001
ACAD
1000
DSTYLE
1002
{
1070
    40
1040
10.0
1070
    45
1040
0.5
1070
    50
1040
0.7853981633974483
1070
    90
1070
     1
1070
   271
1070
     1
1070
   272
1070
     1
1002
}
  0
DIMENSION
  5
2D95
330
2
100
AcDbEntity
  8
SIZE
100
AcDbDimension
  2
*D37
 10
8042.739136810785
 20
-798.3424303382908
 30
0.0
 11
8007.878719731019
 21
-798.3424303382908
 31
0.0
 70
   160
 71
     5
 42
65.99999999999818
  3
STANDARD
100
AcDbAlignedDimension
 13
7976.739136810786
 23
-22.71538820859416
 33
0.0
 14
8042.739136810785
 24
-22.71538820816272
 34
0.0
100
AcDbRotatedDimension
1001
ACAD
1000
DSTYLE
1002
{
1070
   279
1070
     0
1070
    40
1040
10.0
1070
    45
1040
0.5
1070
    50
1040
0.7853981633974483
1070
    90
1070
     1
1070
   271
1070
     1
1070
   272
1070
     1
1002
}
  0
DIMENSION
  5
2DD6
330
2
100
AcDbEntity
  8
SIZE
100
AcDbDimension
  2
*D38
 10
8821.739136810785
 20
-798.3424303382908
 30
0.0
 11
8433.22685097266
 21
-798.3424303382908
 31
0.0
 70
   160
 71
     5
 42
779.0000000000008
  3
STANDARD
100
AcDbAlignedDimension
 13
8042.739136810785
 23
-22.71538820816272
 33
0.0
 14
8821.739136810785
 24
-22.71538820816272
 34
0.0
100
AcDbRotatedDimension
1001
ACAD
1000
DSTYLE
1002
{
1070
    40
1040
10.0
1070
    45
1040
0.5
1070
    50
1040
0.7853981633974483
1070
    90
1070
     1
1070
   271
1070
     1
1070
   272
1070
     1
1002
}
  0
DIMENSION
  5
2DEC
330
2
100
AcDbEntity
  8
SIZE
100
AcDbDimension
  2
*D39
 10
8028.739136810782
 20
579.7380288177428
 30
0.0
 11
8009.739136810786
 21
579.7380288177428
 31
0.0
 70
   160
 71
     5
 42
37.99999999999818
  3
STANDARD
100
AcDbAlignedDimension
 13
7990.739136810788
 23
543.2846117914057
 33
0.0
 14
8028.739136810782
 24
543.2846117914057
 34
0.0
100
AcDbRotatedDimension
1001
ACAD
1000
DSTYLE
1002
{
1070
    40
1040
10.0
1070
    45
1040
0.5
1070
    50
1040
0.7853981633974483
1070
    90
1070
     1
1070
   271
1070
     1
1070
   272
1070
     1
1002
}
  0
DIMENSION
  5
2E11
330
2
100
AcDbEntity
  8
SIZE
100
AcDbDimension
  2
*D40
 10
8821.739136810785
 20
579.7380288177428
 30
0.0
 11
8425.239136810786
 21
599.7380288177428
 31
0.0
 70
    32
 71
     5
 42
793.0000000000009
  3
STANDARD
100
AcDbAlignedDimension
 13
8028.739136810782
 23
543.2846117918371
 33
0.0
 14
8821.739136810785
 24
543.2846117918683
 34
0.0
100
AcDbRotatedDimension
1001
ACAD
1000
DSTYLE
1002
{
1070
    40
1040
10.0
1070
    45
1040
0.5
1070
    50
1040
0.7853981633974483
1070
    90
1070
     1
1070
   271
1070
     1
1070
   272
1070
     1
1002
}
  0
DIMENSION
  5
2E27
330
2
100
AcDbEntity
  8
SIZE
100
AcDbDimension
  2
*D41
 10
8829.739136810784
 20
621.4895579413271
 30
0.0
 11
8009.739136810786
 21
641.4895579413271
 31
0.0
 70
    32
 71
     5
 42
1639.999999999999
  3
STANDARD
100
AcDbAlignedDimension
 13
7189.739136810786
 23
537.7846117918758
 33
0.0
 14
8829.739136810784
 24
537.7846117918736
 34
0.0
100
AcDbRotatedDimension
1001
ACAD
1000
DSTYLE
1002
{
1070
    40
1040
10.0
1070
    45
1040
0.5
1070
    50
1040
0.7853981633974483
1070
    90
1070
     1
1070
   271
1070
     1
1070
   272
1070
     1
1002
}
  0
DIMENSION
  5
2E34
330
2
100
AcDbEntity
  8
SIZE
100
AcDbDimension
  2
*D42
 10
7148.434181269532
 20
-36.21538820812997
 30
0.0
 11
7128.434181269532
 21
246.7846117918712
 31
0.0
 70
    32
 71
     5
 42
566.0
  3
STANDARD
100
AcDbAlignedDimension
 13
7184.239136810787
 23
529.78461179187
 33
0.0
 14
7184.239136810787
 24
-36.21538820812998
 34
0.0
 50
90.0
100
AcDbRotatedDimension
1001
ACAD
1000
DSTYLE
1002
{
1070
    40
1040
10.0
1070
    45
1040
0.5
1070
    50
1040
0.7853981633974483
1070
    90
1070
     1
1070
   271
1070
     1
1070
   272
1070
     1
1002
}
  0
DIMENSION
  5
2E41
330
2
100
AcDbEntity
  8
SIZE
100
AcDbDimension
  2
*D43
 10
7148.434181269532
 20
-703.2153882081297
 30
0.0
 11
7128.434181269532
 21
-369.7153882081287
 31
0.0
 70
    32
 71
     5
 42
666.9999999999998
  3
STANDARD
100
AcDbAlignedDimension
 13
7184.239136810787
 23
-36.21538820812998
 33
0.0
 14
7186.739136810786
 24
-703.2153882081297
 34
0.0
 50
90.0
100
AcDbRotatedDimension
1001
ACAD
1000
DSTYLE
1002
{
1070
   279
1070
     1
1070
    40
1040
10.0
1070
    45
1040
0.5
1070
    50
1040
0.7853981633974483
1070
    90
1070
     1
1070
   271
1070
     1
1070
   272
1070
     1
1002
}
  0
DIMENSION
  5
2E4E
330
2
100
AcDbEntity
  8
SIZE
100
AcDbDimension
  2
*D44
 10
7911.874986442666
 20
-657.2153882085939
 30
0.0
 11
7891.874986442664
 21
-346.7153882085928
 31
0.0
 70
    32
 71
     5
 42
620.9999999999999
  3
STANDARD
100
AcDbAlignedDimension
 13
7963.239136810786
 23
-36.21538820859417
 33
0.0
 14
7963.239136810786
 24
-657.2153882085939
 34
0.0
 50
90.0
100
AcDbRotatedDimension
1001
ACAD
1000
DSTYLE
1002
{
1070
    40
1040
10.0
1070
    45
1040
0.5
1070
    50
1040
0.7853981633974483
1070
    90
1070
     1
1070
   271
1070
     1
1070
   272
1070
     1
1002
}
  0
DIMENSION
  5
2E5B
330
2
100
AcDbEntity
  8
SIZE
100
AcDbDimension
  2
*D45
 10
7096.170287581682
 20
-713.2153882081245
 30
0.0
 11
7076.170287581682
 21
-87.21538820818668
 31
0.0
 70
    32
 71
     5
 42
1251.999999999873
  3
STANDARD
100
AcDbAlignedDimension
 13
7190.739136810812
 23
538.7846117917488
 33
0.0
 14
7189.739136810786
 24
-713.2153882081245
 34
0.0
 50
90.0
100
AcDbRotatedDimension
1001
ACAD
1000
DSTYLE
1002
{
1070
    40
1040
10.0
1070
    45
1040
0.5
1070
    50
1040
0.7853981633974483
1070
    90
1070
     1
1070
   271
1070
     1
1070
   272
1070
     1
1002
}
  0
DIMENSION
  5
2E90
330
2
100
AcDbEntity
  8
SIZE
100
AcDbDimension
  2
*D46
 10
7911.874986442666
 20
-36.21538820859415
 30
0.0
 11
7891.874986442664
 21
246.7846117914071
 31
0.0
 70
    32
 71
     5
 42
565.9999999999999
  3
STANDARD
100
AcDbAlignedDimension
 13
7977.319625547777
 23
529.7846117914057
 33
0.0
 14
7963.239136810786
 24
-36.21538820859417
 34
0.0
 50
90.0
100
AcDbRotatedDimension
1001
ACAD
1000
DSTYLE
1002
{
1070
    40
1040
10.0
1070
    45
1040
0.5
1070
    50
1040
0.7853981633974483
1070
    90
1070
     1
1070
   271
1070
     1
1070
   272
1070
     1
1002
}
  0
DIMENSION
  5
30F3
330
2
100
AcDbEntity
  8
SIZE
100
AcDbDimension
  2
*D48
 10
7197.739136810786
 20
-762.138877512609
 30
0.0
 11
7272.223147370104
 21
-762.138877512609
 31
0.0
 70
   160
 71
     5
 42
2.5
  3
STANDARD
100
AcDbAlignedDimension
 13
7200.239136810786
 23
-716.7153882081297
 33
0.0
 14
7197.739136810786
 24
-49.71538820812998
 34
0.0
100
AcDbRotatedDimension
1001
ACAD
1000
DSTYLE
1002
{
1070
    40
1040
10.0
1070
    45
1040
0.5
1070
    50
1040
0.7853981633974483
1070
    90
1070
     1
1070
   271
1070
     1
1070
   272
1070
     1
1002
}
  0
DIMENSION
  5
3118
330
2
100
AcDbEntity
  8
SIZE
100
AcDbDimension
  2
*D49
 10
8821.739136810785
 20
-762.1705669118876
 30
0.0
 11
8748.286755858405
 21
-762.1705669118876
 31
0.0
 70
   160
 71
     5
 42
2.5
  3
STANDARD
100
AcDbAlignedDimension
 13
8819.239136810786
 23
-716.7153882081315
 33
0.0
 14
8821.739136810785
 24
-49.71538820813157
 34
0.0
100
AcDbRotatedDimension
1001
ACAD
1000
DSTYLE
1002
{
1070
    40
1040
10.0
1070
    45
1040
0.5
1070
    50
1040
0.7853981633974483
1070
    90
1070
     1
1070
   271
1070
     1
1070
   272
1070
     1
1002
}
  0
ENDSEC
  0
SECTION
  2
OBJECTS
  0
DICTIONARY
  5
A
330
0
100
AcDbDictionary
281
     1
  3
ACAD_2007HEADERVARS_RT
350
3148
  3
ACAD_BACKGROUND
350
B1D
  3
ACAD_COLOR
350
4D
  3
ACAD_GROUP
350
3A
  3
ACAD_LAYOUT
350
17
  3
ACAD_MATERIAL
350
C
  3
ACAD_MLEADERSTYLE
350
B16
  3
ACAD_MLINESTYLE
350
3B
  3
ACAD_PLOTSETTINGS
350
3C
  3
ACAD_PLOTSTYLENAME
350
9
  3
ACAD_SCALELIST
350
4E
  3
ACAD_TABLESTYLE
350
4F
  3
ACAD_VISUALSTYLE
350
2D
  3
ACDB_RECOMPOSE_DATA
350
B02
  3
AcDbVariableDictionary
350
B03
  3
AcmDictionary
350
AFC
  3
AMG
350
16E6
  3
AMGSNAPSETTINGS
350
17DB
  3
DWGPROPS
350
3147
  0
DICTIONARY
  5
20
330
1F
100
AcDbDictionary
280
     1
281
     1
  3
ACAD_LAYERFILTERS
360
2D29
  3
ACAD_LAYERSTATES
360
21
  3
ACLYDICTIONARY
360
2D28
  0
DICTIONARY
  5
6
330
5
100
AcDbDictionary
280
     1
281
     1
  3
ADSK_XREC_LAYER_RECONCILED
360
7
  0
DICTIONARY
  5
C11
330
C10
100
AcDbDictionary
280
     1
281
     1
  0
DICTIONARY
  5
C13
330
C12
100
AcDbDictionary
280
     1
281
     1
  0
DICTIONARY
  5
C17
330
C16
100
AcDbDictionary
280
     1
281
     1
  0
DICTIONARY
  5
C19
330
C18
100
AcDbDictionary
280
     1
281
     1
  0
DICTIONARY
  5
C1B
330
C1A
100
AcDbDictionary
280
     1
281
     1
  0
DICTIONARY
  5
C1D
330
C1C
100
AcDbDictionary
280
     1
281
     1
  0
DICTIONARY
  5
3
330
2
100
AcDbDictionary
280
     1
281
     1
  3
ACAD_INDEX
360
1967
  3
ACAD_SORTENTS
360
B34
  0
DICTIONARY
  5
3148
102
{ACAD_REACTORS
330
A
102
}
330
A
100
AcDbDictionary
281
     1
  3
DIMARCSYM
350
314A
  3
DIMFXL
350
3149
  0
DICTIONARY
  5
B1D
102
{ACAD_REACTORS
330
A
102
}
330
A
100
AcDbDictionary
281
     1
  0
DICTIONARY
  5
4D
102
{ACAD_REACTORS
330
A
102
}
330
A
100
AcDbDictionary
281
     1
  0
DICTIONARY
  5
3A
102
{ACAD_REACTORS
330
A
102
}
330
A
100
AcDbDictionary
281
     1
  0
DICTIONARY
  5
17
102
{ACAD_REACTORS
330
A
102
}
330
A
100
AcDbDictionary
281
     1
  3
Model
350
16
  3
レイアウト1
350
1B
  0
DICTIONARY
  5
C
102
{ACAD_REACTORS
330
A
102
}
330
A
100
AcDbDictionary
281
     1
  3
ByBlock
350
45
  3
ByLayer
350
3D
  3
Global
350
B
  0
DICTIONARY
  5
B16
102
{ACAD_REACTORS
330
A
102
}
330
A
100
AcDbDictionary
281
     1
  3
Standard
350
B17
  0
DICTIONARY
  5
3B
102
{ACAD_REACTORS
330
A
102
}
330
A
100
AcDbDictionary
281
     1
  3
STANDARD
350
53
  0
DICTIONARY
  5
3C
102
{ACAD_REACTORS
330
A
102
}
330
A
100
AcDbDictionary
281
     1
  0
ACDBDICTIONARYWDFLT
  5
9
102
{ACAD_REACTORS
330
A
102
}
330
A
100
AcDbDictionary
281
     1
  3
Normal
350
8
100
AcDbDictionaryWithDefault
340
8
  0
DICTIONARY
  5
4E
102
{ACAD_REACTORS
330
A
102
}
330
A
100
AcDbDictionary
281
     1
  3
*A1
350
C1F
  3
*A2
350
26C7
  3
*A3
350
26C8
  3
A0
350
57
  3
A1
350
58
  3
A2
350
59
  3
A3
350
5A
  3
A4
350
5B
  3
A5
350
5C
  3
A6
350
5D
  3
A7
350
5E
  3
A8
350
5F
  3
A9
350
60
  3
B0
350
61
  3
B1
350
62
  3
B2
350
63
  3
B3
350
64
  3
B4
350
65
  3
B5
350
66
  3
B6
350
67
  3
B7
350
68
  3
B8
350
69
  3
B9
350
6A
  3
C0
350
6B
  3
C1
350
6C
  3
C2
350
6D
  3
C3
350
6E
  3
C4
350
6F
  3
C5
350
70
  3
C6
350
71
  3
C7
350
72
  3
C8
350
73
  3
C9
350
74
  3
D0
350
75
  3
D1
350
76
  3
D2
350
77
  0
DICTIONARY
  5
4F
102
{ACAD_REACTORS
330
A
102
}
330
A
100
AcDbDictionary
281
     1
  3
Standard
350
54
  0
DICTIONARY
  5
2D
102
{ACAD_REACTORS
330
A
102
}
330
A
100
AcDbDictionary
281
     1
  3
2dWireframe
350
B0D
  3
3D Hidden
350
B0E
  3
3dWireframe
350
56
  3
Basic
350
B0C
  3
Brighten
350
B11
  3
ColorChange
350
B15
  3
Conceptual
350
B0F
  3
Dim
350
B10
  3
Facepattern
350
B14
  3
Flat
350
B09
  3
FlatWithEdges
350
B0A
  3
Gouraud
350
2C
  3
GouraudWithEdges
350
B0B
  3
Linepattern
350
B13
  3
Realistic
350
55
  3
Thicken
350
B12
  0
XRECORD
  5
B02
102
{ACAD_REACTORS
330
A
102
}
330
A
100
AcDbXrecord
280
     1
 90
        1
330
54
  0
DICTIONARY
  5
B03
102
{ACAD_REACTORS
330
A
102
}
330
A
100
AcDbDictionary
281
     1
  3
CANNOSCALE
350
B06
  3
CMLEADERSTYLE
350
B05
  3
CTABLESTYLE
350
B04
  3
DIMASSOC
350
B7B
  3
HIDETEXT
350
B7A
  3
INDEXCTL
350
B79
  3
LIGHTINGUNITS
350
B07
  3
MSLTSCALE
350
B77
  3
SORTENTS
350
B78
  0
DICTIONARY
  5
AFC
102
{ACAD_REACTORS
330
A
102
}
330
A
100
AcDbDictionary
281
     1
  3
AcmStdDictionary
350
17AE
  3
AMDTSECTSYM_ARROWCOLOR
350
17C5
  0
DICTIONARY
  5
16E6
102
{ACAD_REACTORS
330
A
102
}
330
A
100
AcDbDictionary
281
     1
  3
AcMgSettings
350
16E7
  0
DICTIONARY
  5
17DB
102
{ACAD_REACTORS
330
A
102
}
330
A
100
AcDbDictionary
281
     1
  3
DIMENSION
350
17E0
  3
FEA
350
17DF
  3
HATCH (1)
350
17DC
  3
HATCH (2)
350
17DD
  3
SIMPLE WELD
350
17E1
  3
SYMBOLS
350
17DE
  0
XRECORD
  5
3147
102
{ACAD_REACTORS
330
A
102
}
330
A
100
AcDbXrecord
280
     1
  1
DWGPROPS COOKIE
  2

  3

  4

  6

  7

  8
W000135
  9

300
AmdtFileType=84
301
=
302
=
303
=
304
=
305
=
306
=
307
=
308
=
309
=
 40
2.087033136574074
 41
2451324.468257373
 42
2455891.636455185
  1

 90
        1
  0
DICTIONARY
  5
2D29
102
{ACAD_REACTORS
330
20
102
}
330
20
100
AcDbDictionary
281
     1
  0
DICTIONARY
  5
21
102
{ACAD_REACTORS
330
20
102
}
330
20
100
AcDbDictionary
281
     1
  0
DICTIONARY
  5
2D28
102
{ACAD_REACTORS
330
20
102
}
330
20
100
AcDbDictionary
281
     1
1001
ACAD
1000
<All
  0
XRECORD
  5
7
102
{ACAD_REACTORS
330
6
102
}
330
6
100
AcDbXrecord
280
     1
290
     1
  0
DICTIONARY
  5
1967
102
{ACAD_REACTORS
330
3
102
}
330
3
100
AcDbDictionary
281
     1
  3
*A1
350
1968
  0
SORTENTSTABLE
  5
B34
102
{ACAD_REACTORS
330
3
102
}
330
3
100
AcDbSortentsTable
330
2
  0
XRECORD
  5
314A
102
{ACAD_REACTORS
330
3148
102
}
330
3148
100
AcDbXrecord
280
     1
 70
     1
  0
XRECORD
  5
3149
102
{ACAD_REACTORS
330
3148
102
}
330
3148
100
AcDbXrecord
280
     1
 40
15.0
  0
LAYOUT
  5
16
102
{ACAD_XDICTIONARY
360
314B
102
}
102
{ACAD_REACTORS
330
17
102
}
330
17
100
AcDbPlotSettings
  1

  2
なし
  4

  6

 40
0.0
 41
0.0
 42
0.0
 43
0.0
 44
0.0
 45
0.0
 46
0.0
 47
0.0
 48
0.0
 49
0.0
140
0.0
141
0.0
142
1.0
143
1.0
 70
  1712
 72
     0
 73
     0
 74
     0
  7

 75
     0
147
1.0
148
0.0
149
0.0
100
AcDbLayout
  1
Model
 70
     1
 71
     0
 10
0.0
 20
0.0
 11
12.0
 21
9.0
 12
0.0
 22
0.0
 32
0.0
 14
0.0
 24
0.0
 34
0.0
 15
0.0
 25
0.0
 35
0.0
146
0.0
 13
0.0
 23
0.0
 33
0.0
 16
1.0
 26
0.0
 36
0.0
 17
0.0
 27
1.0
 37
0.0
 76
     0
330
2
331
BB9
  0
LAYOUT
  5
1B
102
{ACAD_XDICTIONARY
360
1C
102
}
102
{ACAD_REACTORS
330
17
102
}
330
17
100
AcDbPlotSettings
  1

  2
Microsoft XPS Document Writer
  4
A4
  6

 40
3.174999952316281
 41
3.174999952316281
 42
3.175003051757812
 43
3.17498779296875
 44
210.0156707763672
 45
297.0106506347656
 46
0.0
 47
0.0
 48
0.0
 49
0.0
140
0.0
141
0.0
142
1.0
143
1.0
 70
   688
 72
     1
 73
     1
 74
     5
  7

 75
    16
147
1.0
148
0.0
149
0.0
100
AcDbLayout
  1
レイアウト1
 70
     1
 71
     1
 10
0.0
 20
0.0
 11
12.0
 21
9.0
 12
0.0
 22
0.0
 32
0.0
 14
-1439.804583653114
 24
-1400.237631316938
 34
0.0
 15
2872.968780515991
 25
1675.790811506817
 35
0.0
146
0.0
 13
0.0
 23
0.0
 33
0.0
 16
1.0
 26
0.0
 36
0.0
 17
0.0
 27
1.0
 37
0.0
 76
     0
330
18
1001
ACAD_PSEXT
1000
Microsoft XPS Document Writer
1000
Microsoft XPS Document Writer
1000
XPSPort:
1000

1070
     0
  0
MATERIAL
  5
45
102
{ACAD_XDICTIONARY
360
46
102
}
102
{ACAD_REACTORS
330
C
102
}
330
C
100
AcDbMaterial
  1
ByBlock
 72
     0
 43
0.0208333333333333
 43
0.0
 43
0.0
 43
0.0
 43
0.0
 43
0.0208333333333333
 43
0.0
 43
0.0
 43
0.0
 43
0.0
 43
1.0
 43
0.0
 43
0.0
 43
0.0
 43
0.0
 43
1.0
 77
     0
 47
0.0208333333333333
 47
0.0
 47
0.0
 47
0.0
 47
0.0
 47
0.0208333333333333
 47
0.0
 47
0.0
 47
0.0
 47
0.0
 47
1.0
 47
0.0
 47
0.0
 47
0.0
 47
0.0
 47
1.0
171
     0
 49
0.0208333333333333
 49
0.0
 49
0.0
 49
0.0
 49
0.0
 49
0.0208333333333333
 49
0.0
 49
0.0
 49
0.0
 49
0.0
 49
1.0
 49
0.0
 49
0.0
 49
0.0
 49
0.0
 49
1.0
175
     0
142
0.0208333333333333
142
0.0
142
0.0
142
0.0
142
0.0
142
0.0208333333333333
142
0.0
142
0.0
142
0.0
142
0.0
142
1.0
142
0.0
142
0.0
142
0.0
142
0.0
142
1.0
179
     0
144
0.0208333333333333
144
0.0
144
0.0
144
0.0
144
0.0
144
0.0208333333333333
144
0.0
144
0.0
144
0.0
144
0.0
144
1.0
144
0.0
144
0.0
144
0.0
144
0.0
144
1.0
147
0.0208333333333333
147
0.0
147
0.0
147
0.0
147
0.0
147
0.0208333333333333
147
0.0
147
0.0
147
0.0
147
0.0
147
1.0
147
0.0
147
0.0
147
0.0
147
0.0
147
1.0
  0
MATERIAL
  5
3D
102
{ACAD_XDICTIONARY
360
3E
102
}
102
{ACAD_REACTORS
330
C
102
}
330
C
100
AcDbMaterial
  1
ByLayer
 72
     0
 43
0.0208333333333333
 43
0.0
 43
0.0
 43
0.0
 43
0.0
 43
0.0208333333333333
 43
0.0
 43
0.0
 43
0.0
 43
0.0
 43
1.0
 43
0.0
 43
0.0
 43
0.0
 43
0.0
 43
1.0
 77
     0
 47
0.0208333333333333
 47
0.0
 47
0.0
 47
0.0
 47
0.0
 47
0.0208333333333333
 47
0.0
 47
0.0
 47
0.0
 47
0.0
 47
1.0
 47
0.0
 47
0.0
 47
0.0
 47
0.0
 47
1.0
171
     0
 49
0.0208333333333333
 49
0.0
 49
0.0
 49
0.0
 49
0.0
 49
0.0208333333333333
 49
0.0
 49
0.0
 49
0.0
 49
0.0
 49
1.0
 49
0.0
 49
0.0
 49
0.0
 49
0.0
 49
1.0
175
     0
142
0.0208333333333333
142
0.0
142
0.0
142
0.0
142
0.0
142
0.0208333333333333
142
0.0
142
0.0
142
0.0
142
0.0
142
1.0
142
0.0
142
0.0
142
0.0
142
0.0
142
1.0
179
     0
144
0.0208333333333333
144
0.0
144
0.0
144
0.0
144
0.0
144
0.0208333333333333
144
0.0
144
0.0
144
0.0
144
0.0
144
1.0
144
0.0
144
0.0
144
0.0
144
0.0
144
1.0
147
0.0208333333333333
147
0.0
147
0.0
147
0.0
147
0.0
147
0.0208333333333333
147
0.0
147
0.0
147
0.0
147
0.0
147
1.0
147
0.0
147
0.0
147
0.0
147
0.0
147
1.0
  0
MATERIAL
  5
B
102
{ACAD_XDICTIONARY
360
D
102
}
102
{ACAD_REACTORS
330
C
102
}
330
C
100
AcDbMaterial
  1
Global
 72
     0
 43
0.0208333333333333
 43
0.0
 43
0.0
 43
0.0
 43
0.0
 43
0.0208333333333333
 43
0.0
 43
0.0
 43
0.0
 43
0.0
 43
1.0
 43
0.0
 43
0.0
 43
0.0
 43
0.0
 43
1.0
 77
     0
 47
0.0208333333333333
 47
0.0
 47
0.0
 47
0.0
 47
0.0
 47
0.0208333333333333
 47
0.0
 47
0.0
 47
0.0
 47
0.0
 47
1.0
 47
0.0
 47
0.0
 47
0.0
 47
0.0
 47
1.0
171
     0
 49
0.0208333333333333
 49
0.0
 49
0.0
 49
0.0
 49
0.0
 49
0.0208333333333333
 49
0.0
 49
0.0
 49
0.0
 49
0.0
 49
1.0
 49
0.0
 49
0.0
 49
0.0
 49
0.0
 49
1.0
175
     0
142
0.0208333333333333
142
0.0
142
0.0
142
0.0
142
0.0
142
0.0208333333333333
142
0.0
142
0.0
142
0.0
142
0.0
142
1.0
142
0.0
142
0.0
142
0.0
142
0.0
142
1.0
179
     0
144
0.0208333333333333
144
0.0
144
0.0
144
0.0
144
0.0
144
0.0208333333333333
144
0.0
144
0.0
144
0.0
144
0.0
144
1.0
144
0.0
144
0.0
144
0.0
144
0.0
144
1.0
147
0.0208333333333333
147
0.0
147
0.0
147
0.0
147
0.0
147
0.0208333333333333
147
0.0
147
0.0
147
0.0
147
0.0
147
1.0
147
0.0
147
0.0
147
0.0
147
0.0
147
1.0
  0
MLEADERSTYLE
  5
B17
102
{ACAD_REACTORS
330
B16
330
1E06
102
}
330
B16
100
AcDbMLeaderStyle
170
     2
171
     1
172
     0
 90
        2
 40
0.0
 41
0.0
173
     1
 91
-1056964608
340
26
 92
       -2
290
     1
 42
2.0
291
     1
 43
0.36
  3
Standard
 44
4.0
300

342
23
174
     1
178
     6
175
     1
176
     0
 93
-1056964608
 45
4.0
292
     0
297
     0
 46
4.0
 94
-1056964608
 47
1.0
 49
1.0
140
1.0
293
     1
141
0.0
294
     1
177
     0
142
1.0
295
     0
296
     0
143
0.125
1001
ACAD_MLEADERVER
1070
     2
  0
MLINESTYLE
  5
53
102
{ACAD_REACTORS
330
3B
102
}
330
3B
100
AcDbMlineStyle
  2
STANDARD
 70
     0
  3

 62
   256
 51
90.0
 52
90.0
 71
     2
 49
0.5
 62
   256
  6
BYLAYER
 49
-0.5
 62
   256
  6
BYLAYER
  0
ACDBPLACEHOLDER
  5
8
102
{ACAD_REACTORS
330
9
102
}
330
9
  0
SCALE
  5
C1F
102
{ACAD_REACTORS
330
4E
102
}
330
4E
100
AcDbScale
 70
     0
300
1:5_XREF
140
1.0
141
5.0
290
     0
  0
SCALE
  5
26C7
102
{ACAD_REACTORS
330
4E
102
}
330
4E
100
AcDbScale
 70
     0
300
1:5_XREF_XREF
140
1.0
141
5.0
290
     0
  0
SCALE
  5
26C8
102
{ACAD_REACTORS
330
4E
102
}
330
4E
100
AcDbScale
 70
     0
300
1:5_XREF_XREF_XREF_XREF
140
1.0
141
5.0
290
     0
  0
SCALE
  5
57
102
{ACAD_REACTORS
330
4E
102
}
330
4E
100
AcDbScale
 70
     0
300
1:1
140
1.0
141
1.0
290
     1
  0
SCALE
  5
58
102
{ACAD_REACTORS
330
4E
102
}
330
4E
100
AcDbScale
 70
     0
300
1:2
140
1.0
141
2.0
290
     0
  0
SCALE
  5
59
102
{ACAD_REACTORS
330
4E
102
}
330
4E
100
AcDbScale
 70
     0
300
1:4
140
1.0
141
4.0
290
     0
  0
SCALE
  5
5A
102
{ACAD_REACTORS
330
4E
102
}
330
4E
100
AcDbScale
 70
     0
300
1:5
140
1.0
141
5.0
290
     0
  0
SCALE
  5
5B
102
{ACAD_REACTORS
330
4E
102
}
330
4E
100
AcDbScale
 70
     0
300
1:8
140
1.0
141
8.0
290
     0
  0
SCALE
  5
5C
102
{ACAD_REACTORS
330
4E
102
}
330
4E
100
AcDbScale
 70
     0
300
1:10
140
1.0
141
10.0
290
     0
  0
SCALE
  5
5D
102
{ACAD_REACTORS
330
4E
102
}
330
4E
100
AcDbScale
 70
     0
300
1:16
140
1.0
141
16.0
290
     0
  0
SCALE
  5
5E
102
{ACAD_REACTORS
330
4E
102
}
330
4E
100
AcDbScale
 70
     0
300
1:20
140
1.0
141
20.0
290
     0
  0
SCALE
  5
5F
102
{ACAD_REACTORS
330
4E
102
}
330
4E
100
AcDbScale
 70
     0
300
1:30
140
1.0
141
30.0
290
     0
  0
SCALE
  5
60
102
{ACAD_REACTORS
330
4E
102
}
330
4E
100
AcDbScale
 70
     0
300
1:40
140
1.0
141
40.0
290
     0
  0
SCALE
  5
61
102
{ACAD_REACTORS
330
4E
102
}
330
4E
100
AcDbScale
 70
     0
300
1:50
140
1.0
141
50.0
290
     0
  0
SCALE
  5
62
102
{ACAD_REACTORS
330
4E
102
}
330
4E
100
AcDbScale
 70
     0
300
1:100
140
1.0
141
100.0
290
     0
  0
SCALE
  5
63
102
{ACAD_REACTORS
330
4E
102
}
330
4E
100
AcDbScale
 70
     0
300
2:1
140
2.0
141
1.0
290
     0
  0
SCALE
  5
64
102
{ACAD_REACTORS
330
4E
102
}
330
4E
100
AcDbScale
 70
     0
300
4:1
140
4.0
141
1.0
290
     0
  0
SCALE
  5
65
102
{ACAD_REACTORS
330
4E
102
}
330
4E
100
AcDbScale
 70
     0
300
8:1
140
8.0
141
1.0
290
     0
  0
SCALE
  5
66
102
{ACAD_REACTORS
330
4E
102
}
330
4E
100
AcDbScale
 70
     0
300
10:1
140
10.0
141
1.0
290
     0
  0
SCALE
  5
67
102
{ACAD_REACTORS
330
4E
102
}
330
4E
100
AcDbScale
 70
     0
300
100:1
140
100.0
141
1.0
290
     0
  0
SCALE
  5
68
102
{ACAD_REACTORS
330
4E
102
}
330
4E
100
AcDbScale
 70
     0
300
1/128" = 1'-0"
140
0.0078125
141
12.0
290
     0
  0
SCALE
  5
69
102
{ACAD_REACTORS
330
4E
102
}
330
4E
100
AcDbScale
 70
     0
300
1/64" = 1'-0"
140
0.015625
141
12.0
290
     0
  0
SCALE
  5
6A
102
{ACAD_REACTORS
330
4E
102
}
330
4E
100
AcDbScale
 70
     0
300
1/32" = 1'-0"
140
0.03125
141
12.0
290
     0
  0
SCALE
  5
6B
102
{ACAD_REACTORS
330
4E
102
}
330
4E
100
AcDbScale
 70
     0
300
1/16" = 1'-0"
140
0.0625
141
12.0
290
     0
  0
SCALE
  5
6C
102
{ACAD_REACTORS
330
4E
102
}
330
4E
100
AcDbScale
 70
     0
300
3/32" = 1'-0"
140
0.09375
141
12.0
290
     0
  0
SCALE
  5
6D
102
{ACAD_REACTORS
330
4E
102
}
330
4E
100
AcDbScale
 70
     0
300
1/8" = 1'-0"
140
0.125
141
12.0
290
     0
  0
SCALE
  5
6E
102
{ACAD_REACTORS
330
4E
102
}
330
4E
100
AcDbScale
 70
     0
300
3/16" = 1'-0"
140
0.1875
141
12.0
290
     0
  0
SCALE
  5
6F
102
{ACAD_REACTORS
330
4E
102
}
330
4E
100
AcDbScale
 70
     0
300
1/4" = 1'-0"
140
0.25
141
12.0
290
     0
  0
SCALE
  5
70
102
{ACAD_REACTORS
330
4E
102
}
330
4E
100
AcDbScale
 70
     0
300
3/8" = 1'-0"
140
0.375
141
12.0
290
     0
  0
SCALE
  5
71
102
{ACAD_REACTORS
330
4E
102
}
330
4E
100
AcDbScale
 70
     0
300
1/2" = 1'-0"
140
0.5
141
12.0
290
     0
  0
SCALE
  5
72
102
{ACAD_REACTORS
330
4E
102
}
330
4E
100
AcDbScale
 70
     0
300
3/4" = 1'-0"
140
0.75
141
12.0
290
     0
  0
SCALE
  5
73
102
{ACAD_REACTORS
330
4E
102
}
330
4E
100
AcDbScale
 70
     0
300
1" = 1'-0"
140
1.0
141
12.0
290
     0
  0
SCALE
  5
74
102
{ACAD_REACTORS
330
4E
102
}
330
4E
100
AcDbScale
 70
     0
300
1-1/2" = 1'-0"
140
1.5
141
12.0
290
     0
  0
SCALE
  5
75
102
{ACAD_REACTORS
330
4E
102
}
330
4E
100
AcDbScale
 70
     0
300
3" = 1'-0"
140
3.0
141
12.0
290
     0
  0
SCALE
  5
76
102
{ACAD_REACTORS
330
4E
102
}
330
4E
100
AcDbScale
 70
     0
300
6" = 1'-0"
140
6.0
141
12.0
290
     0
  0
SCALE
  5
77
102
{ACAD_REACTORS
330
4E
102
}
330
4E
100
AcDbScale
 70
     0
300
1'-0" = 1'-0"
140
12.0
141
12.0
290
     0
  0
TABLESTYLE
  5
54
102
{ACAD_XDICTIONARY
360
B00
102
}
102
{ACAD_REACTORS
330
4F
102
}
330
4F
100
AcDbTableStyle
  3
Standard
 70
     0
 71
     0
 40
1.5
 41
1.5
280
     0
281
     0
  7
STANDARD
140
4.5
170
     2
 62
     0
 63
     7
283
     0
274
    -2
284
     1
 64
     0
275
    -2
285
     1
 65
     0
276
    -2
286
     1
 66
     0
277
    -2
287
     1
 67
     0
278
    -2
288
     1
 68
     0
279
    -2
289
     1
 69
     0
  7
STANDARD
140
6.0
170
     5
 62
     0
 63
     7
283
     0
274
    -2
284
     1
 64
     0
275
    -2
285
     1
 65
     0
276
    -2
286
     1
 66
     0
277
    -2
287
     1
 67
     0
278
    -2
288
     1
 68
     0
279
    -2
289
     1
 69
     0
  7
STANDARD
140
4.5
170
     5
 62
     0
 63
     7
283
     0
274
    -2
284
     1
 64
     0
275
    -2
285
     1
 65
     0
276
    -2
286
     1
 66
     0
277
    -2
287
     1
 67
     0
278
    -2
288
     1
 68
     0
279
    -2
289
     1
 69
     0
  0
VISUALSTYLE
  5
B0D
102
{ACAD_REACTORS
330
2D
102
}
330
2D
100
AcDbVisualStyle
  2
2dWireframe
 70
     4
 71
     0
 72
     2
 73
     0
 90
        0
 40
-0.6
 41
-30.0
 62
     5
 63
     7
 74
     1
 91
        4
 64
     7
 65
   257
 75
     1
175
     1
 42
1.0
 92
        0
 66
   257
 43
1.0
 76
     1
 77
     6
 78
     2
 67
     7
 79
     5
170
     0
171
     0
290
     0
174
     0
 93
        1
 44
0.0
173
     0
291
     0
 45
0.0
1001
ACAD
1000
AcDbSavedByObjectVersion
1070
     0
1000
AcDbSavedByObjectVersion
1070
     0
1000
AcDbSavedByObjectVersion
1070
     0
1000
AcDbSavedByObjectVersion
1070
     0
1000
AcDbSavedByObjectVersion
1070
     0
1000
AcDbSavedByObjectVersion
1070
     0
1000
AcDbSavedByObjectVersion
1070
     0
1000
AcDbSavedByObjectVersion
1070
     0
1000
AcDbSavedByObjectVersion
1070
     0
1000
AcDbSavedByObjectVersion
1070
     0
1000
AcDbSavedByObjectVersion
1070
     0
1000
AcDbSavedByObjectVersion
1070
     0
  0
VISUALSTYLE
  5
B0E
102
{ACAD_REACTORS
330
2D
102
}
330
2D
100
AcDbVisualStyle
  2
3D Hidden
 70
     6
 71
     1
 72
     2
 73
     2
 90
        0
 40
-0.6
 41
-30.0
 62
     5
 63
     7
 74
     2
 91
        2
 64
     7
 65
   257
 75
     2
175
     1
 42
40.0
 92
        0
 66
   257
 43
1.0
 76
     1
 77
     6
 78
     2
 67
     7
 79
     3
170
     0
171
     0
290
     0
174
     0
 93
        1
 44
0.0
173
     0
291
     0
 45
0.0
1001
ACAD
1000
AcDbSavedByObjectVersion
1070
     0
1000
AcDbSavedByObjectVersion
1070
     0
1000
AcDbSavedByObjectVersion
1070
     0
1000
AcDbSavedByObjectVersion
1070
     0
1000
AcDbSavedByObjectVersion
1070
     0
1000
AcDbSavedByObjectVersion
1070
     0
1000
AcDbSavedByObjectVersion
1070
     0
1000
AcDbSavedByObjectVersion
1070
     0
1000
AcDbSavedByObjectVersion
1070
     0
1000
AcDbSavedByObjectVersion
1070
     0
1000
AcDbSavedByObjectVersion
1070
     0
1000
AcDbSavedByObjectVersion
1070
     0
  0
VISUALSTYLE
  5
56
102
{ACAD_REACTORS
330
2D
102
}
330
2D
100
AcDbVisualStyle
  2
3dWireframe
 70
     5
 71
     0
 72
     2
 73
     0
 90
        0
 40
-0.6
 41
-30.0
 62
     5
 63
     7
 74
     1
 91
        4
 64
     7
 65
   257
 75
     1
175
     1
 42
1.0
 92
        0
 66
   257
 43
1.0
 76
     1
 77
     6
 78
     2
 67
     7
 79
     5
170
     0
171
     0
290
     0
174
     0
 93
        1
 44
0.0
173
     0
291
     0
 45
0.0
1001
ACAD
1000
AcDbSavedByObjectVersion
1070
     0
1000
AcDbSavedByObjectVersion
1070
     0
1000
AcDbSavedByObjectVersion
1070
     0
1000
AcDbSavedByObjectVersion
1070
     0
1000
AcDbSavedByObjectVersion
1070
     0
1000
AcDbSavedByObjectVersion
1070
     0
1000
AcDbSavedByObjectVersion
1070
     0
1000
AcDbSavedByObjectVersion
1070
     0
1000
AcDbSavedByObjectVersion
1070
     0
1000
AcDbSavedByObjectVersion
1070
     0
1000
AcDbSavedByObjectVersion
1070
     0
1000
AcDbSavedByObjectVersion
1070
     0
  0
VISUALSTYLE
  5
B0C
102
{ACAD_REACTORS
330
2D
102
}
330
2D
100
AcDbVisualStyle
  2
Basic
 70
     7
 71
     1
 72
     0
 73
     1
 90
        0
 40
-0.6
 41
-30.0
 62
     5
 63
     7
 74
     0
 91
        4
 64
     7
 65
   257
 75
     1
175
     1
 42
1.0
 92
        8
 66
     7
 43
1.0
 76
     1
 77
     6
 78
     2
 67
     7
 79
     5
170
     0
171
     0
290
     0
174
     0
 93
        1
 44
0.0
173
     0
291
     1
 45
0.0
1001
ACAD
1000
AcDbSavedByObjectVersion
1070
     0
1000
AcDbSavedByObjectVersion
1070
     0
1000
AcDbSavedByObjectVersion
1070
     0
1000
AcDbSavedByObjectVersion
1070
     0
1000
AcDbSavedByObjectVersion
1070
     0
1000
AcDbSavedByObjectVersion
1070
     0
1000
AcDbSavedByObjectVersion
1070
     0
1000
AcDbSavedByObjectVersion
1070
     0
1000
AcDbSavedByObjectVersion
1070
     0
1000
AcDbSavedByObjectVersion
1070
     0
1000
AcDbSavedByObjectVersion
1070
     0
1000
AcDbSavedByObjectVersion
1070
     0
  0
VISUALSTYLE
  5
B11
102
{ACAD_REACTORS
330
2D
102
}
330
2D
100
AcDbVisualStyle
  2
Brighten
 70
    12
 71
     2
 72
     2
 73
     0
 90
        0
 40
-0.6
 41
-30.0
 62
     5
 63
     7
 74
     1
 91
        4
 64
     7
 65
   257
 75
     1
175
     1
 42
1.0
 92
        8
 66
     7
 43
1.0
 76
     1
 77
     6
 78
     2
 67
     7
 79
     5
170
     0
171
     0
290
     0
174
     0
 93
        1
 44
50.0
173
     0
291
     1
 45
0.0
1001
ACAD
1000
AcDbSavedByObjectVersion
1070
     0
1000
AcDbSavedByObjectVersion
1070
     0
1000
AcDbSavedByObjectVersion
1070
     0
1000
AcDbSavedByObjectVersion
1070
     0
1000
AcDbSavedByObjectVersion
1070
     0
1000
AcDbSavedByObjectVersion
1070
     0
1000
AcDbSavedByObjectVersion
1070
     0
1000
AcDbSavedByObjectVersion
1070
     0
1000
AcDbSavedByObjectVersion
1070
     0
1000
AcDbSavedByObjectVersion
1070
     0
1000
AcDbSavedByObjectVersion
1070
     0
1000
AcDbSavedByObjectVersion
1070
     0
  0
VISUALSTYLE
  5
B15
102
{ACAD_REACTORS
330
2D
102
}
330
2D
100
AcDbVisualStyle
  2
ColorChange
 70
    16
 71
     2
 72
     2
 73
     3
 90
        0
 40
-0.6
 41
-30.0
 62
     5
 63
     8
 74
     1
 91
        4
 64
     7
 65
   257
 75
     1
175
     1
 42
1.0
 92
        8
 66
     8
 43
1.0
 76
     1
 77
     6
 78
     2
 67
     7
 79
     5
170
     0
171
     0
290
     0
174
     0
 93
        1
 44
0.0
173
     0
291
     1
 45
0.0
1001
ACAD
1000
AcDbSavedByObjectVersion
1070
     0
1000
AcDbSavedByObjectVersion
1070
     0
1000
AcDbSavedByObjectVersion
1070
     0
1000
AcDbSavedByObjectVersion
1070
     0
1000
AcDbSavedByObjectVersion
1070
     0
1000
AcDbSavedByObjectVersion
1070
     0
1000
AcDbSavedByObjectVersion
1070
     0
1000
AcDbSavedByObjectVersion
1070
     0
1000
AcDbSavedByObjectVersion
1070
     0
1000
AcDbSavedByObjectVersion
1070
     0
1000
AcDbSavedByObjectVersion
1070
     0
1000
AcDbSavedByObjectVersion
1070
     0
  0
VISUALSTYLE
  5
B0F
102
{ACAD_REACTORS
330
2D
102
}
330
2D
100
AcDbVisualStyle
  2
Conceptual
 70
     9
 71
     3
 72
     2
 73
     0
 90
        0
 40
-0.6
 41
-30.0
 62
     5
 63
     7
 74
     2
 91
        2
 64
     7
 65
   257
 75
     1
175
     1
 42
40.0
 92
        8
 66
     7
 43
1.0
 76
     1
 77
     6
 78
     2
 67
     7
 79
     3
170
     0
171
     0
290
     0
174
     0
 93
        1
 44
0.0
173
     0
291
     0
 45
0.0
1001
ACAD
1000
AcDbSavedByObjectVersion
1070
     0
1000
AcDbSavedByObjectVersion
1070
     0
1000
AcDbSavedByObjectVersion
1070
     0
1000
AcDbSavedByObjectVersion
1070
     0
1000
AcDbSavedByObjectVersion
1070
     0
1000
AcDbSavedByObjectVersion
1070
     0
1000
AcDbSavedByObjectVersion
1070
     0
1000
AcDbSavedByObjectVersion
1070
     0
1000
AcDbSavedByObjectVersion
1070
     0
1000
AcDbSavedByObjectVersion
1070
     0
1000
AcDbSavedByObjectVersion
1070
     0
1000
AcDbSavedByObjectVersion
1070
     0
  0
VISUALSTYLE
  5
B10
102
{ACAD_REACTORS
330
2D
102
}
330
2D
100
AcDbVisualStyle
  2
Dim
 70
    11
 71
     2
 72
     2
 73
     0
 90
        0
 40
-0.6
 41
-30.0
 62
     5
 63
     7
 74
     1
 91
        4
 64
     7
 65
   257
 75
     1
175
     1
 42
1.0
 92
        8
 66
     7
 43
1.0
 76
     1
 77
     6
 78
     2
 67
     7
 79
     5
170
     0
171
     0
290
     0
174
     0
 93
        1
 44
-50.0
173
     0
291
     1
 45
0.0
1001
ACAD
1000
AcDbSavedByObjectVersion
1070
     0
1000
AcDbSavedByObjectVersion
1070
     0
1000
AcDbSavedByObjectVersion
1070
     0
1000
AcDbSavedByObjectVersion
1070
     0
1000
AcDbSavedByObjectVersion
1070
     0
1000
AcDbSavedByObjectVersion
1070
     0
1000
AcDbSavedByObjectVersion
1070
     0
1000
AcDbSavedByObjectVersion
1070
     0
1000
AcDbSavedByObjectVersion
1070
     0
1000
AcDbSavedByObjectVersion
1070
     0
1000
AcDbSavedByObjectVersion
1070
     0
1000
AcDbSavedByObjectVersion
1070
     0
  0
VISUALSTYLE
  5
B14
102
{ACAD_REACTORS
330
2D
102
}
330
2D
100
AcDbVisualStyle
  2
Facepattern
 70
    15
 71
     2
 72
     2
 73
     0
 90
        0
 40
-0.6
 41
-30.0
 62
     5
 63
     7
 74
     1
 91
        4
 64
     7
 65
   257
 75
     1
175
     1
 42
1.0
 92
        8
 66
     7
 43
1.0
 76
     1
 77
     6
 78
     2
 67
     7
 79
     5
170
     0
171
     0
290
     0
174
     0
 93
        1
 44
0.0
173
     0
291
     1
 45
0.0
1001
ACAD
1000
AcDbSavedByObjectVersion
1070
     0
1000
AcDbSavedByObjectVersion
1070
     0
1000
AcDbSavedByObjectVersion
1070
     0
1000
AcDbSavedByObjectVersion
1070
     0
1000
AcDbSavedByObjectVersion
1070
     0
1000
AcDbSavedByObjectVersion
1070
     0
1000
AcDbSavedByObjectVersion
1070
     0
1000
AcDbSavedByObjectVersion
1070
     0
1000
AcDbSavedByObjectVersion
1070
     0
1000
AcDbSavedByObjectVersion
1070
     0
1000
AcDbSavedByObjectVersion
1070
     0
1000
AcDbSavedByObjectVersion
1070
     0
  0
VISUALSTYLE
  5
B09
102
{ACAD_REACTORS
330
2D
102
}
330
2D
100
AcDbVisualStyle
  2
Flat
 70
     0
 71
     2
 72
     1
 73
     1
 90
        2
 40
-0.6
 41
30.0
 62
     5
 63
     7
 74
     0
 91
        4
 64
     7
 65
   257
 75
     1
175
     1
 42
1.0
 92
        8
 66
     7
 43
1.0
 76
     1
 77
     6
 78
     2
 67
     7
 79
     5
170
     0
171
     0
290
     0
174
     0
 93
       13
 44
0.0
173
     0
291
     1
 45
0.0
1001
ACAD
1000
AcDbSavedByObjectVersion
1070
     0
1000
AcDbSavedByObjectVersion
1070
     0
1000
AcDbSavedByObjectVersion
1070
     0
1000
AcDbSavedByObjectVersion
1070
     0
1000
AcDbSavedByObjectVersion
1070
     0
1000
AcDbSavedByObjectVersion
1070
     0
1000
AcDbSavedByObjectVersion
1070
     0
1000
AcDbSavedByObjectVersion
1070
     0
1000
AcDbSavedByObjectVersion
1070
     0
1000
AcDbSavedByObjectVersion
1070
     0
1000
AcDbSavedByObjectVersion
1070
     0
1000
AcDbSavedByObjectVersion
1070
     0
  0
VISUALSTYLE
  5
B0A
102
{ACAD_REACTORS
330
2D
102
}
330
2D
100
AcDbVisualStyle
  2
FlatWithEdges
 70
     1
 71
     2
 72
     1
 73
     1
 90
        2
 40
-0.6
 41
30.0
 62
     5
 63
     7
 74
     1
 91
        4
 64
     7
 65
   257
 75
     1
175
     1
 42
1.0
 92
        0
 66
   257
 43
1.0
 76
     1
 77
     6
 78
     2
 67
     7
 79
     5
170
     0
171
     0
290
     0
174
     0
 93
       13
 44
0.0
173
     0
291
     1
 45
0.0
1001
ACAD
1000
AcDbSavedByObjectVersion
1070
     0
1000
AcDbSavedByObjectVersion
1070
     0
1000
AcDbSavedByObjectVersion
1070
     0
1000
AcDbSavedByObjectVersion
1070
     0
1000
AcDbSavedByObjectVersion
1070
     0
1000
AcDbSavedByObjectVersion
1070
     0
1000
AcDbSavedByObjectVersion
1070
     0
1000
AcDbSavedByObjectVersion
1070
     0
1000
AcDbSavedByObjectVersion
1070
     0
1000
AcDbSavedByObjectVersion
1070
     0
1000
AcDbSavedByObjectVersion
1070
     0
1000
AcDbSavedByObjectVersion
1070
     0
  0
VISUALSTYLE
  5
2C
102
{ACAD_REACTORS
330
2D
102
}
330
2D
100
AcDbVisualStyle
  2
Gouraud
 70
     2
 71
     2
 72
     2
 73
     1
 90
        2
 40
-0.6
 41
30.0
 62
     5
 63
     7
 74
     0
 91
        4
 64
     7
 65
   257
 75
     1
175
     1
 42
1.0
 92
        0
 66
     7
 43
1.0
 76
     1
 77
     6
 78
     2
 67
     7
 79
     5
170
     0
171
     0
290
     0
174
     0
 93
       13
 44
0.0
173
     0
291
     1
 45
0.0
1001
ACAD
1000
AcDbSavedByObjectVersion
1070
     0
1000
AcDbSavedByObjectVersion
1070
     0
1000
AcDbSavedByObjectVersion
1070
     0
1000
AcDbSavedByObjectVersion
1070
     0
1000
AcDbSavedByObjectVersion
1070
     0
1000
AcDbSavedByObjectVersion
1070
     0
1000
AcDbSavedByObjectVersion
1070
     0
1000
AcDbSavedByObjectVersion
1070
     0
1000
AcDbSavedByObjectVersion
1070
     0
1000
AcDbSavedByObjectVersion
1070
     0
1000
AcDbSavedByObjectVersion
1070
     0
1000
AcDbSavedByObjectVersion
1070
     0
  0
VISUALSTYLE
  5
B0B
102
{ACAD_REACTORS
330
2D
102
}
330
2D
100
AcDbVisualStyle
  2
GouraudWithEdges
 70
     3
 71
     2
 72
     2
 73
     1
 90
        2
 40
-0.6
 41
30.0
 62
     5
 63
     7
 74
     1
 91
        4
 64
     7
 65
   257
 75
     1
175
     1
 42
1.0
 92
        0
 66
   257
 43
1.0
 76
     1
 77
     6
 78
     2
 67
     7
 79
     5
170
     0
171
     0
290
     0
174
     0
 93
       13
 44
0.0
173
     0
291
     1
 45
0.0
1001
ACAD
1000
AcDbSavedByObjectVersion
1070
     0
1000
AcDbSavedByObjectVersion
1070
     0
1000
AcDbSavedByObjectVersion
1070
     0
1000
AcDbSavedByObjectVersion
1070
     0
1000
AcDbSavedByObjectVersion
1070
     0
1000
AcDbSavedByObjectVersion
1070
     0
1000
AcDbSavedByObjectVersion
1070
     0
1000
AcDbSavedByObjectVersion
1070
     0
1000
AcDbSavedByObjectVersion
1070
     0
1000
AcDbSavedByObjectVersion
1070
     0
1000
AcDbSavedByObjectVersion
1070
     0
1000
AcDbSavedByObjectVersion
1070
     0
  0
VISUALSTYLE
  5
B13
102
{ACAD_REACTORS
330
2D
102
}
330
2D
100
AcDbVisualStyle
  2
Linepattern
 70
    14
 71
     2
 72
     2
 73
     0
 90
        0
 40
-0.6
 41
-30.0
 62
     5
 63
     7
 74
     1
 91
        4
 64
     7
 65
   257
 75
     7
175
     7
 42
1.0
 92
        8
 66
     7
 43
1.0
 76
     1
 77
     6
 78
     2
 67
     7
 79
     5
170
     0
171
     0
290
     0
174
     0
 93
        1
 44
0.0
173
     0
291
     1
 45
0.0
1001
ACAD
1000
AcDbSavedByObjectVersion
1070
     0
1000
AcDbSavedByObjectVersion
1070
     0
1000
AcDbSavedByObjectVersion
1070
     0
1000
AcDbSavedByObjectVersion
1070
     0
1000
AcDbSavedByObjectVersion
1070
     0
1000
AcDbSavedByObjectVersion
1070
     0
1000
AcDbSavedByObjectVersion
1070
     0
1000
AcDbSavedByObjectVersion
1070
     0
1000
AcDbSavedByObjectVersion
1070
     0
1000
AcDbSavedByObjectVersion
1070
     0
1000
AcDbSavedByObjectVersion
1070
     0
1000
AcDbSavedByObjectVersion
1070
     0
  0
VISUALSTYLE
  5
55
102
{ACAD_REACTORS
330
2D
102
}
330
2D
100
AcDbVisualStyle
  2
Realistic
 70
     8
 71
     2
 72
     2
 73
     0
 90
        0
 40
-0.6
 41
-30.0
 62
     5
 63
     7
 74
     1
 91
        0
 64
     7
 65
   257
 75
     1
175
     1
 42
1.0
 92
        8
 66
     8
 43
1.0
 76
     1
 77
     6
 78
     2
 67
     7
 79
     5
170
     0
171
     0
290
     0
174
     0
 93
       13
 44
0.0
173
     0
291
     0
 45
0.0
1001
ACAD
1000
AcDbSavedByObjectVersion
1070
     0
1000
AcDbSavedByObjectVersion
1070
     0
1000
AcDbSavedByObjectVersion
1070
     0
1000
AcDbSavedByObjectVersion
1070
     0
1000
AcDbSavedByObjectVersion
1070
     0
1000
AcDbSavedByObjectVersion
1070
     0
1000
AcDbSavedByObjectVersion
1070
     0
1000
AcDbSavedByObjectVersion
1070
     0
1000
AcDbSavedByObjectVersion
1070
     0
1000
AcDbSavedByObjectVersion
1070
     0
1000
AcDbSavedByObjectVersion
1070
     0
1000
AcDbSavedByObjectVersion
1070
     0
  0
VISUALSTYLE
  5
B12
102
{ACAD_REACTORS
330
2D
102
}
330
2D
100
AcDbVisualStyle
  2
Thicken
 70
    13
 71
     2
 72
     2
 73
     0
 90
        0
 40
-0.6
 41
-30.0
 62
     5
 63
     7
 74
     1
 91
        4
 64
     7
 65
   257
 75
     1
175
     1
 42
1.0
 92
       12
 66
     7
 43
1.0
 76
     1
 77
     6
 78
     2
 67
     7
 79
     5
170
     0
171
     0
290
     0
174
     0
 93
        1
 44
0.0
173
     0
291
     1
 45
0.0
1001
ACAD
1000
AcDbSavedByObjectVersion
1070
     0
1000
AcDbSavedByObjectVersion
1070
     0
1000
AcDbSavedByObjectVersion
1070
     0
1000
AcDbSavedByObjectVersion
1070
     0
1000
AcDbSavedByObjectVersion
1070
     0
1000
AcDbSavedByObjectVersion
1070
     0
1000
AcDbSavedByObjectVersion
1070
     0
1000
AcDbSavedByObjectVersion
1070
     0
1000
AcDbSavedByObjectVersion
1070
     0
1000
AcDbSavedByObjectVersion
1070
     0
1000
AcDbSavedByObjectVersion
1070
     0
1000
AcDbSavedByObjectVersion
1070
     0
  0
DICTIONARYVAR
  5
B06
102
{ACAD_REACTORS
330
B03
102
}
330
B03
100
DictionaryVariables
280
     0
  1
1:1
  0
DICTIONARYVAR
  5
B05
102
{ACAD_REACTORS
330
B03
102
}
330
B03
100
DictionaryVariables
280
     0
  1
STANDARD
  0
DICTIONARYVAR
  5
B04
102
{ACAD_REACTORS
330
B03
102
}
330
B03
100
DictionaryVariables
280
     0
  1
STANDARD
  0
DICTIONARYVAR
  5
B7B
102
{ACAD_REACTORS
330
B03
102
}
330
B03
100
DictionaryVariables
280
     0
  1
1
  0
DICTIONARYVAR
  5
B7A
102
{ACAD_REACTORS
330
B03
102
}
330
B03
100
DictionaryVariables
280
     0
  1
1
  0
DICTIONARYVAR
  5
B79
102
{ACAD_REACTORS
330
B03
102
}
330
B03
100
DictionaryVariables
280
     0
  1
1
  0
DICTIONARYVAR
  5
B07
102
{ACAD_REACTORS
330
B03
102
}
330
B03
100
DictionaryVariables
280
     0
  1
0
  0
DICTIONARYVAR
  5
B77
102
{ACAD_REACTORS
330
B03
102
}
330
B03
100
DictionaryVariables
280
     0
  1
1
  0
DICTIONARYVAR
  5
B78
102
{ACAD_REACTORS
330
B03
102
}
330
B03
100
DictionaryVariables
280
     0
  1
127
  0
DICTIONARY
  5
17AE
102
{ACAD_REACTORS
330
AFC
102
}
330
AFC
100
AcDbDictionary
281
     1
  0
XRECORD
  5
17C5
102
{ACAD_REACTORS
330
AFC
102
}
330
AFC
100
AcDbXrecord
280
     1
 90
-1023410169
  0
DICTIONARY
  5
16E7
102
{ACAD_REACTORS
330
16E6
102
}
330
16E6
100
AcDbDictionary
281
     1
  3
DWGSETTINGS
350
2FC2
  3
TRANSSETTINGS
350
2FC3
  0
ACAMGFILTERDAT
  5
17E0
102
{ACAD_REACTORS
330
17DB
102
}
330
17DB
100
AcAmgFilterDat
 70
    15
  1
DIMENSION,AMDT_*_DIM
  2
*
  3
*
  4
*
  5
*
290
     1
  0
ACAMGFILTERDAT
  5
17DF
102
{ACAD_REACTORS
330
17DB
102
}
330
17DB
100
AcAmgFilterDat
 70
    15
  1
*
  2
AM_FEA-AM_*
  3
*
  4
*
  5
*
290
     1
  0
ACAMGFILTERDAT
  5
17DC
102
{ACAD_REACTORS
330
17DB
102
}
330
17DB
100
AcAmgFilterDat
 70
    15
  1
HATCH
  2
*
  3
*
  4
*
  5
*
290
     1
  0
ACAMGFILTERDAT
  5
17DD
102
{ACAD_REACTORS
330
17DB
102
}
330
17DB
100
AcAmgFilterDat
 70
    15
  1
LINE
  2
8,8N,*-8,*-8N,AM_8,AM_8N,*-AM_8,*-AM_8N
  3
*
  4
*
  5
INSERT,STDPART2D
290
     1
  0
ACAMGFILTERDAT
  5
17E1
102
{ACAD_REACTORS
330
17DB
102
}
330
17DB
100
AcAmgFilterDat
 70
    15
  1
ARC
  2
AM_5
  3
*
  4
2
  5
INSERT
290
     0
  0
ACAMGFILTERDAT
  5
17DE
102
{ACAD_REACTORS
330
17DB
102
}
330
17DB
100
AcAmgFilterDat
 70
    15
  1
ACMFCFRAME,ACMDATUMTARGET,ACMDATUMID,ACMWELDSYM,ACMSURFSYM,ACMFEATID,ACMPARTREF,ACMBALLOON,AMDTEDGESYM,AMGSCREWCALCTABLE
  2
*
  3
*
  4
*
  5
*
290
     1
  0
LAYER_INDEX
  5
1968
102
{ACAD_REACTORS
330
1967
102
}
330
1967
100
AcDbIndex
 40
2455891.636455185
100
AcDbLayerIndex
  8
0
360
1969
 90
        0
  8
Defpoints
360
196A
 90
        0
  8
SIZE
360
196B
 90
       14
  8
OUTLINE
360
196C
 90
      331
  8
BASIS
360
196D
 90
        1
  8
NOTE
360
196E
 90
       73
  8
ARRANGE
360
196F
 90
        3
  8
ETC
360
1970
 90
        1
  0
DICTIONARY
  5
314B
330
16
100
AcDbDictionary
280
     1
281
     1
  3
ACAD_XREC_ROUNDTRIP
360
314C
  0
DICTIONARY
  5
1C
330
1B
100
AcDbDictionary
280
     1
281
     1
  3
ACAD_XREC_ROUNDTRIP
360
314D
  3
ADSK_XREC_LAYOUTTHUMBNAIL
360
1D
  0
DICTIONARY
  5
46
330
45
100
AcDbDictionary
280
     1
281
     1
  3
ACAD_XREC_ROUNDTRIP
360
B71
  3
BUMPTILE
360
47
  3
DIFFUSETILE
360
48
  3
OPACITYTILE
360
49
  3
REFLECTIONTILE
360
4A
  3
REFRACTIONTILE
360
4B
  3
SPECULARTILE
360
4C
  0
DICTIONARY
  5
3E
330
3D
100
AcDbDictionary
280
     1
281
     1
  3
ACAD_XREC_ROUNDTRIP
360
B70
  3
BUMPTILE
360
3F
  3
DIFFUSETILE
360
40
  3
OPACITYTILE
360
41
  3
REFLECTIONTILE
360
42
  3
REFRACTIONTILE
360
43
  3
SPECULARTILE
360
44
  0
DICTIONARY
  5
D
330
B
100
AcDbDictionary
280
     1
281
     1
  3
ACAD_XREC_ROUNDTRIP
360
B69
  3
BUMPTILE
360
E
  3
DIFFUSETILE
360
F
  3
OPACITYTILE
360
10
  3
REFLECTIONTILE
360
11
  3
REFRACTIONTILE
360
12
  3
SPECULARTILE
360
13
  0
DICTIONARY
  5
B00
330
54
100
AcDbDictionary
280
     1
281
     1
  3
ACAD_ROUNDTRIP_2008_TABLESTYLE_CELLSTYLEMAP
360
3146
  3
ACAD_XREC_ROUNDTRIP
360
314E
  0
IDBUFFER
  5
1969
330
0
100
AcDbIdBuffer
  0
IDBUFFER
  5
196A
330
0
100
AcDbIdBuffer
  0
IDBUFFER
  5
196B
330
0
100
AcDbIdBuffer
330
2D42
330
2D4F
330
2D95
330
2DD6
330
2DEC
330
2E11
330
2E27
330
2E34
330
2E41
330
2E4E
330
2E5B
330
2E90
330
30F3
330
3118
  0
IDBUFFER
  5
196C
330
0
100
AcDbIdBuffer
330
2B95
330
2B96
330
2B97
330
2B98
330
2B99
330
2B9A
330
2B9B
330
2B9C
330
2B9D
330
2B9E
330
2B9F
330
2BA0
330
2BA1
330
2BA2
330
2BA3
330
2BA4
330
2BA5
330
2BA6
330
2BA7
330
2BA8
330
2BA9
330
2BAA
330
2BAB
330
2BAC
330
2BAD
330
2BAE
330
2BAF
330
2BB0
330
2BB1
330
2BB2
330
2BB3
330
2BB4
330
2BB5
330
2BB6
330
2BB7
330
2BB8
330
2BB9
330
2BBA
330
2BBB
330
2BBC
330
2BBD
330
2BBE
330
2BBF
330
2BC0
330
2BC1
330
2BC2
330
2BC3
330
2BC4
330
2BC5
330
2BC6
330
2BC7
330
2BC8
330
2BC9
330
2BCA
330
2BCB
330
2BCC
330
2BCD
330
2BCE
330
2BCF
330
2BD0
330
2BD1
330
2BD2
330
2BD3
330
2BD4
330
2BD5
330
2BD6
330
2BD7
330
2BD8
330
2BD9
330
2BDA
330
2BDB
330
2BDC
330
2BDD
330
2BDE
330
2BDF
330
2BE0
330
2BE1
330
2BE2
330
2BE3
330
2BE4
330
2BE5
330
2BE6
330
2BE7
330
2BE8
330
2BE9
330
2BEA
330
2BEB
330
2BEC
330
2BED
330
2BEE
330
2BEF
330
2BF0
330
2BF1
330
2BF2
330
2BF3
330
2BF4
330
2BF5
330
2BF6
330
2BF7
330
2BF8
330
2BF9
330
2BFA
330
2BFB
330
2BFC
330
2BFD
330
2BFE
330
2BFF
330
2C00
330
2C01
330
2C02
330
2C03
330
2C04
330
2C05
330
2C06
330
2C07
330
2C08
330
2C09
330
2C0A
330
2C0B
330
2C0C
330
2C0D
330
2C0E
330
2C0F
330
2C10
330
2C11
330
2C12
330
2C13
330
2C14
330
2C15
330
2C16
330
2C17
330
2C18
330
2C19
330
2C1A
330
2C1B
330
2C1C
330
2C1D
330
2C1E
330
2C1F
330
2C20
330
2C21
330
2C22
330
2C23
330
2C24
330
2C25
330
2C26
330
2C27
330
2C28
330
2C29
330
2C2A
330
2C2B
330
2C2C
330
2C2D
330
2C2E
330
2C2F
330
2C30
330
2C31
330
2C32
330
2C33
330
2C34
330
2C35
330
2C36
330
2C37
330
2C38
330
2C39
330
2C3A
330
2C3B
330
2C3C
330
2C3D
330
2C3E
330
2C3F
330
2C40
330
2C41
330
2C42
330
2C43
330
2C44
330
2C45
330
2C46
330
2C47
330
2C48
330
2C49
330
2C4A
330
2C4B
330
2C4C
330
2C4D
330
2C4E
330
2C4F
330
2C50
330
2C51
330
2C52
330
2C53
330
2C54
330
2C55
330
2C56
330
2C57
330
2C58
330
2C59
330
2C5A
330
2C5B
330
2C5C
330
2C5D
330
2C5E
330
2C5F
330
2C60
330
2C61
330
2C62
330
2C63
330
2C64
330
2C65
330
2C66
330
2C67
330
2C68
330
2C69
330
2C6A
330
2C6B
330
2C6C
330
2C6D
330
2C6E
330
2C6F
330
2C70
330
2C71
330
2C72
330
2C73
330
2C74
330
2C75
330
2C76
330
2C77
330
2C78
330
2C79
330
2C7A
330
2C7B
330
2C7C
330
2C7D
330
2C7E
330
2C7F
330
2C80
330
2C81
330
2C82
330
2C83
330
2C84
330
2C85
330
2C86
330
2C87
330
2C88
330
2C89
330
2C8A
330
2C8B
330
2C8C
330
2C8D
330
2C8E
330
2C8F
330
2C90
330
2C91
330
2C92
330
2C93
330
2C94
330
2C95
330
2C96
330
2C97
330
2C98
330
2C99
330
2C9A
330
2C9B
330
2C9C
330
2C9D
330
2C9E
330
2C9F
330
2CA0
330
2CA1
330
2CA2
330
2CA3
330
2CA4
330
2CA5
330
2CA6
330
2CA7
330
2CA8
330
2CA9
330
2CAA
330
2CAB
330
2CAC
330
2CAD
330
2CAE
330
2CAF
330
2CB0
330
2CB1
330
2CB2
330
2CB3
330
2CB4
330
2CB5
330
2CB6
330
2CB7
330
2CB8
330
2CB9
330
2CBA
330
2CBB
330
2CBC
330
2CBD
330
2CBE
330
2CBF
330
2CC0
330
2CC1
330
2CC2
330
2CC3
330
2CC4
330
2CC5
330
2CC6
330
2CC7
330
2CC8
330
2CC9
330
2CCA
330
2CCB
330
2CCC
330
2CCD
330
2CCE
330
2CCF
330
2CD0
330
2CD1
330
2CD2
330
2CD3
330
2CD4
330
2CD5
330
2CD6
330
2CD7
330
2CD8
330
2CD9
330
2CDA
330
2CDB
330
2CDC
330
2CDD
330
2D26
330
2D27
  0
IDBUFFER
  5
196D
330
0
100
AcDbIdBuffer
330
2D31
  0
IDBUFFER
  5
196E
330
0
100
AcDbIdBuffer
330
1E06
330
2CDE
330
2CDF
330
2CE0
330
2CE1
330
2CE2
330
2CE3
330
2CE4
330
2CE5
330
2CE6
330
2CE7
330
2CE8
330
2CE9
330
2CEA
330
2CEB
330
2CEC
330
2CED
330
2CEE
330
2CEF
330
2CF0
330
2CF1
330
2CF2
330
2CF3
330
2CF4
330
2CF5
330
2CF6
330
2CF7
330
2CF8
330
2CF9
330
2CFA
330
2CFB
330
2CFC
330
2CFD
330
2CFE
330
2CFF
330
2D00
330
2D01
330
2D02
330
2D03
330
2D04
330
2D05
330
2D06
330
2D07
330
2D08
330
2D09
330
2D0A
330
2D0B
330
2D0C
330
2D0D
330
2D0E
330
2D0F
330
2D10
330
2D11
330
2D12
330
2D13
330
2D14
330
2D15
330
2D16
330
2D17
330
2D18
330
2D19
330
2D1A
330
2D1B
330
2D1C
330
2D1D
330
2D1E
330
2D1F
330
2D20
330
2D21
330
2D22
330
2D23
330
2D24
330
2D25
  0
IDBUFFER
  5
196F
330
0
100
AcDbIdBuffer
330
2D32
330
2D33
330
2D34
  0
IDBUFFER
  5
1970
330
0
100
AcDbIdBuffer
330
B60
  0
XRECORD
  5
314C
102
{ACAD_REACTORS
330
314B
102
}
330
314B
100
AcDbXrecord
280
     1
102
SHADEPLOT
 70
     0
102
SHADEPLOTRESLEVEL
 70
     2
102
SHADEPLOTCUSTOMDPI
 70
   300
  0
XRECORD
  5
314D
102
{ACAD_REACTORS
330
1C
102
}
330
1C
100
AcDbXrecord
280
     1
102
SHADEPLOT
 70
     0
102
SHADEPLOTRESLEVEL
 70
     2
102
SHADEPLOTCUSTOMDPI
 70
   300
  0
XRECORD
  5
1D
102
{ACAD_REACTORS
330
1C
102
}
330
1C
100
AcDbXrecord
280
     1
310
28000000B4000000870000000100080000000000EC5E0000000000000000000000010000000000000000000000000000FFFFFF000000000000000000000000000000000000000000000000000000000000000000330000006600000099000000CC000000FF00000000330000333300006633000099330000CC330000FF3300
310
0000660000336600006666000099660000CC660000FF66000000990000339900006699000099990000CC990000FF99000000CC000033CC000066CC000099CC0000CCCC0000FFCC000000FF000033FF000066FF000099FF0000CCFF0000FFFF000000003300330033006600330099003300CC003300FF003300003333003333
310
33006633330099333300CC333300FF33330000663300336633006666330099663300CC663300FF66330000993300339933006699330099993300CC993300FF99330000CC330033CC330066CC330099CC3300CCCC3300FFCC330000FF330033FF330066FF330099FF3300CCFF3300FFFF330000006600330066006600660099
310
006600CC006600FF00660000336600333366006633660099336600CC336600FF33660000666600336666006666660099666600CC666600FF66660000996600339966006699660099996600CC996600FF99660000CC660033CC660066CC660099CC6600CCCC6600FFCC660000FF660033FF660066FF660099FF6600CCFF6600
310
FFFF660000009900330099006600990099009900CC009900FF00990000339900333399006633990099339900CC339900FF33990000669900336699006666990099669900CC669900FF66990000999900339999006699990099999900CC999900FF99990000CC990033CC990066CC990099CC9900CCCC9900FFCC990000FF99
310
0033FF990066FF990099FF9900CCFF9900FFFF99000000CC003300CC006600CC009900CC00CC00CC00FF00CC000033CC003333CC006633CC009933CC00CC33CC00FF33CC000066CC003366CC006666CC009966CC00CC66CC00FF66CC000099CC003399CC006699CC009999CC00CC99CC00FF99CC0000CCCC0033CCCC0066CC
310
CC0099CCCC00CCCCCC00FFCCCC0000FFCC0033FFCC0066FFCC0099FFCC00CCFFCC00FFFFCC000000FF003300FF006600FF009900FF00CC00FF00FF00FF000033FF003333FF006633FF009933FF00CC33FF00FF33FF000066FF003366FF006666FF009966FF00CC66FF00FF66FF000099FF003399FF006699FF009999FF00CC
310
99FF00FF99FF0000CCFF0033CCFF0066CCFF0099CCFF00CCCCFF00FFCCFF0000FFFF0033FFFF0066FFFF0099FFFF00CCFFFF00FFFFFF00000000000D0D0D001A1A1A00282828003535350043434300505050005D5D5D006B6B6B00787878008686860093939300A1A1A100AEAEAE00BBBBBB00C9C9C900D6D6D600E4E4E400
310
F1F1F100FFFFFF0000000000000000000000000000000000000000000000000000000000000000000000000000000000E2E2E2E2E2E2E2E2E2E2E2E2E2E2E2E2E2E2E2E2E2E2E2E2E2E2E2E2E2E2E2E2E2E2E2E2E2E2E2E2E2E2E2E2E2E2E2E2E2E2E2E2E2E2E2E2E2E2E2E2E2E2E2E2E2E2E2E2E2E2E2E2E2E2E2E2E2E2E2
310
E2E2E2E2E2E2E2E2E2E2E2E2E2E2E2E2E2E2E2E2E2E2E2E2E2E2E2E2E2E2E2E2E2E2E2E2E2E2E2E2E2E2E2E2E2E2E2E2E2E2E2E2E2E2E2E2E2E2E2E2E2E2E2E2E2E2E2E2E2E2E2E2E2E2E2E2E2E2E2E2E2E2E2E2E2E2E2E2E2E2E2E2E2E2E2E2E2E2E2E2E2E2E2E2E2E2E2E2E2E2E2E2E2E2E2E2E2E2E2E2E2E2E2E2E2E2E2
310
E2E2E2E2E2E2E2E2E2E2E2E2E2E2E2E2E2E2E2E2E2E2E2E2E2E2E2E2E2E2E2E2E2E2E2E2E2E2E2E2E2E2E2E2E2E2E2E2E2E2E2E2E2E2E2E2E2E2E2E2E2E2E2E2E2E2E2E2E2E2E2E2E2E2E2E2E2E2E2E2E2E2E2E2E2E2E2E2E2E2E2E2E2E2E2E2E2E2E2E2E2E2E2E2E2E2E2E2E2E2E2E2E2E2E2E2E2E2E2E2E2E2E2E2E2E2E2
310
E2E2E2E2E2E2E2E2E2E2E2E2E2E2E2E2E2E2E2E2E2E2E2E2E2E2E2E2E2E2E2E2E2E2E2E2E2E2E2E2E2E2E2E2E2E2E2E2E2E2E2E2E2E2E2E2E2E2E2E2E2E2E2E2E2E2E2E2E2E2E2E2E2E2E2E2E2E2E2E2E2E2E2E2E2E2E2E2E2E2E2E2E2E2E2E2E2E2E2E2E2E2E2E2E2E2E2E2E2E2E2E2E2E2E2E2E2E2E2E2E2E2E2E2E2E2E2
310
E2E2E2E2E2E2E2E2E2E2E2E2E2E2E2E2E2E2E2E2E2E2E2E2E2E2E2E2E2E2E2E2E2E2E2E2E2E2E2E2E2E2E2E2E2E2E2E2E2E2E2E2E2E2E2E2E2E2E2E2E2E2E2E2E2E2E2E2E2E2E2E2E2E2E2E2E2E2E2E2E2E2E2E2E2E2E2E2E2E2E2E2E2E2E2E2E2E2E2E2E2E2E2E2E2E2E2E2E2E2E2E2E2E2E2E2E2E2E2E2E2E2E2E2E2E2E2
310
E2E2E2E2E2E2E2E2E2E2E2E2E2E2E2E2E2E2E2E2E2E2E2E2E2E2E2E2E2E2E2E2E2E2E2E2E2E2E2E2E2E2E2E2E2E2E2E2E2E2E2E2E2E2E2E2E2E2E2E2E2E2E2E2E2E2E2E2E2E2E2E2E2E2E2E2E2E2E2E2E2E2E2E2E2E2E2E2E2E2E2E2E2E2E2E2E2E2E2E2E2E2E2E2E2E2E2E2E2E2E2E2E2E2E2E2E2E2E2E2E2E2E2E2E2E2E2
310
E2E2E2E2E2E2E2E2E2E2E2E2E2E2E2E2E2E2E2E2E2E2E2E2E2E2E2E2E2E2E2E2E2E2E2E2E2E2E2E2E2E2E2E2E2E2E2E2E2E2E2E2E2E2E2E2E2E2E2E2E2E2E2E2E2E2E2E2E2E2E2E2E2E2E2E2E2E2E2E2E2E2E2E2E2E2E2E2E2E2E2E2E2E2E2E2E2E2E2E2E2E2E2E2E2E2E2E2E2E2E2E2E2E2E2E2E2E2E2E2E2E2E2E2E2E2E2
310
E2E2E2E2E2E2E2E2E2E2E2E2E2E2E2E2E2E2E2E2E2E2E2E2E2E2E2E2E2E2E2E2E2E2E2E2E2E2E2E2E2E2E2E2E2E2E2E2E2E2E2E2E2E2E2E2E2E2E2E2E2E2E2E2E2E2E2E2E2E2E2E2E2E2E2E2E2E2E2E2E2E2E2E2E2E2E2E2E2E2E2E2E2E2E2E2E2E2E2E2E2E2E2E2E2E2E2E2E2E2E2E2E2E2E2E2E2E2E2E2E2E2E2E2E2E2E2
310
E2E2E2E2E2E2E2E2E2E2E2E2E2E2E2E2E2E2E2E2E2E2E2E2E2E2E2E2E2E2E2E2E2E2E2E2E2E2E2E2E2E2E2E2E2E2E2E2E2E2E2E2E2E2E2E2E2E2E2E2E2E2E2E2E2E2E2E2E2E2E2E2E2E2E2E2E2E2E2E2E2E2E2E2E2E2E2E2E2E2E2E2E2E2E2E2E2E2E2E2E2E2E2E2E2E2E2E2E2E2E2E2E2E2E2E2E2E2E2E2E2E2E2E2E2E2E2
310
E2E2E2E2E2E2E2E2E2E2E2E2E2E2E2E2E2E2E2E2E2E2E2E2E2E2E2E2E2E2E2E2E2E2E2E2E2E2E2E2E2E2E2E2E2E2E2E2E2E2E2E2E2E2E2E2E2E2E2E2E2E2E2E2E2E2E2E2E2E2E2E2E2E2E2E2E2E2E2E2E2E2E2E2E2E2E2E2E2E2E2E2E2E2E2E2E2E2E2E2E2E2E2E2E2E2E2E2E2E2E2E2E2E2E2E2E2E2E2E2E2E2E2E2E2E2E2
310
E2E2E2E2E2E2E2E2E2E2E2E2E2E2E2E2E2E2E2E2E2E2E2E2E2E2E2E2E2E2E2E2E2E2E2E2E2E2E2E2E2E2E2E2E2E2E2E2E2E2E2E2E2E2E2E2E2E2E2E2E2E2E2E2E2E2E2E2E2E2E2E2E2E2E2E2E2E2E2E2E2E2E2E2E2E2E2E2E2E2E2E2E2E2E2E2E2E2E2E2E2E2E2E2E2E2E2E2E2E2E2E2E2E2E2E2E2E2E2E2E2E2E2E2E2E2E2
310
E2E2E2E2E2E2E2E2E2E2E2E2E2E2E2E2E2E2E2E2E2E2E2E2E2E2E2E2E2E2E2E2E2E2E2E2E2E2E2E2E2E2E2E2E2E2E2E2E2E2E2E2E2E2E2E2E2E2E2E2E2E2E2E2E2E2E2E2E2E2E2E2E2E2E2E2E2E2E2E2E2E2E2E2E2E2E2E2E2E2E2E2E2E2E2E2E2E2E2E2E2E2E2E2E2E2E2E2E2E2E2E2E2E2E2E2E2E2E2E2E2E2E2E2E2E2E2
310
E2E2E2E2E2E2E2E2E2E2E2E2E2E2E2E2E2E2E2E2E2E2E2E2E2E2E2E2E2E2E2E2E2E2E2E2E2E2E2E2E2E2E2E2E2E2E2E2E2E2E2E2E2E2E2E2E2E2E2E2E2E2E2E2E2E2E2E2E2E2E2E2E2E2E2E2E2E2E2E2E2E2E2E2E2E2E2E2E2E2E2E2E2E2E2E2E2E2E2E2E2E2E2E2E2E2E2E2E2E2E2E2E2E2E2E2E2E2E2E2E2E2E2E2E2E2E2
310
E2E2E2E2E2E2E2E2E2E2E2E2E2E2E2E2E2E2E2E2E2E2E2E2E2E2E2E2E2E2E2E2E2E2E2E2E2E2E2E2E2E2E2E2E2E2E2E2E2E2E2E2E2E2E2E2E2E2E2E2E2E2E2E2E2E2E2E2E2E2E2E2E2E2E2E2E2E2E2E2E2E2E2E2E2E2E2E2E2E2E2E2E2E2E2E2E2E2E2E2E2E2E2E2E2E2E2E2E2E2E2E2E2E2E2E2E2E2E2E2E2E2E2E2E2E2E2
310
E2E2E2E2E2E2E2E2E2E2E2E2E2E2E2E2E2E2E2E2E2E2E2E2E2E2E2E2E2E2E2E2E2E2E2E2E2E2E2E2E2E2E2E2E2E2E2E2E2E2E2E2E2E2E2E2E2E2E2E2E2E2E2E2E2E2E2E2E2E2E2E2E2E2E2E2E2E2E2E2E2E2E2E2E2E2E2E2E2E2E2E2E2E2E2E2E2E2E2E2E2E2E2E2E2E2E2E2E2E2E2E2E2E2E2E2E2E2E2E2E2E2E2E2E2E2E2
310
E2E2E2E2E2E2E2E2E2E2E2E2E2E2E2E2E2E2E2E2E2E2E2E2E2E2E2E2E2E2E2E2E2E2E2E2E2E2E2E2E2E2E2E2E2E2E2E2E2E2E2E2E2E2E2E2E2E2E2E2E2E2E2E2E2E2E2E2E2E2E2E2E2E2E2E2E2E2E2E2E2E2E2E2E2E2E2E2E2E2E2E2E2E2E2E2E2E2E2E2E2E2E2E2E2E2E2E2E2E2E2E2E2E2E2E2E2E2E2E2E2E2E2E2E2E2E2
310
E2E2E2E2E2E2E2E2E2E2E2E2E2E2E2E2E2E2E2E2E2E2E2E2E2E2E2E2E2E2E2E2E2E2E2E2E2E2E2E2E2E2E2E2E2E2E2E2E2E2E2E2E2E2E2E2E2E2E2E2E2E2E2E2E2E2E2E2E2E2E2E2E2E2E2E2E2E2E2E2E2E2E2E2E2E2E2E2E2E2E2E2E2E2E2E2E2E2E2E2E2E2E2E2E2E2E2E2E2E2E2E2E2E2E2E2E2E2E2E2E2E2E2E2E2E2E2
310
E2E2E2E2E2E2E2E2E2E2E2E2E2E2E2E2E2E2E2E2E2E2E2E2E2E2E2E2E2E2E2E2E2E2E2E2E2E2E2E2E2E2E2E2E2E2E2E2E2E2E2E2E2E2E2E2E2E2E2E2E2E2E2E2E2E2E2E2E2E2E2E2E2E2E2E2E2E2E2E2E2E2E2E2E2E2E2E2E2E2E2E2E2E2E2E2E2E2E2E2E2E2E2E2E2E2E2E2E2E2E2E2E2E2E2E2E2E2E2E2E2E2E2E2E2E2E2
310
E2E2E2E2E2E2E2E2E2E2E2E2E2E2E2E2E2E2E2E2E2E2E2E2E2E2E2E2E2E2E2E2E2E2E2E2E2E2E2E2E2E2E2E2E2E2E2E2E2E2E2E2E2E2E2E2E2E2E2E2E2E2E2E2E2E2E2E2E2E2E2E2E2E2E2E2E2E2E2E2E2E2E2E2E2E2E2E2E2E2E2E2E2E2E2E2E2E2E2E2E2E2E2E2E2E2E2E2E2E2E2E2E2E2E2E2E2E2E2E2E2E2E2E2E2E2E2
310
E2E2E2E2E2E2E2E2E2E2E2E2E2E2E2E2E2E2E2E2E2E2E2E2E2E2E2E2E2E2E2E2E2E2E2E2E2E2E2E2E2E2E2E2E2E2E2E2E2E2E2E2E2E2E2E2E2E2E2E2E2E2E2E2E2E2E2E2E2E2E2E2E2E2E2E2E2E2E2E2E2E2E2E2E2E2E2E2E2E2E2E2E2E2E2E2E2E2E2E2E2E2E2E2E2E2E2E2E2E2E2E2E2E2E2E2E2E2E2E2E2E2E2E2E2E2E2
310
E2E2E2E2E2E2E2E2E2E2E2E2E2E2E2E2E2E2E2E2E2E2E2E2E2E2E2E2E2E2E2E2E2E2E2E2E2E2E2E2E2E2E2E2E2E2E2E2E2E2E2E2E2E2E2E2E2E2E2E2E2E2E2E2E2E2E2E2E2E2E2E2E2E2E2E2E2E2E2E2E2E2E2E2E2E2E2E2E2E2E2E2E2E2E2E2E2E2E2E2E2E2E2E2E2E2E2E2E2E2E2E2E2E2E2E2E2E2E2E2E2E2E2E2E2E2E2
310
E2E2E2E2E2E2E2E2E2E2E2E2E2E2E2E2E2E2E2E2E2E2E2E2E2E2E2E2E2E2E2E2E2E2E2E2E2E2E2E2E2E2E2E2E2E2E2E2E2E2E2E2E2E2E2E2E2E2E2E2E2E2E2E2E2E2E2E2E2E2E2E2E2E2E2E2E2E2E2E2E2E2E2E2E2E2E2E2E2E2E2E2E2E2E2E2E2E2E2E2E2E2E2E2E2E2E2E2E2E2E2E2E2E2E2E2E2E2E2E2E2E2E2E2E2E2E2
310
E2E2E2E2E2E2E2E2E2E2E2E2E2E2E2E2E2E2E2E2E2E2E2E2E2E2E2E2E2E2E2E2E2E2E2E2E2E2E2E2E2E2E2E2E2E2E2E2E2E2E2E2E2E2E2E2E2E2E2E2E2E2E2E2E2E2E2E2E2E2E2E2E2E2E2E2E2E2E2E2E2E2E2E2E2E2E2E2E2E2E2E2E2E2E2E2E2E2E2E2E2E2E2E2E2E2E2E2E2E2E2E2E2E2E2E2E2E2E2E2E2E2E2E2E2E2E2
310
E2E2E2E2E2E2E2E2E2E2E2E2E2E2E2E2E2E2E2E2E2E2E2E2E2E2E2E2E2E2E2E2E2E2E2E2E2E2E2E2E2E2E2E2E2E2E2E2E2E2E2E2E2E2E2E2E2E2E2E2E2E2E2E2E2E2E2E2E2E2E2E2E2E2E2E2E2E2E2E2E2E2E2E2E2E2E2E2E2E2E2E2E2E2E2E2E2E2E2E2E2E2E2E2E2E2E2E2E2E2E2E2E2E2E2E2E2E2E2E2E2E2E2E2E2E2E2
310
E2E2E2E2E2E2E2E2E2E2E2E2E2E2E2E2E2E2E2E2E2E2E2E2E2E2E2E2E2E2E2E2E2E2E2E2E2E2E2E2E2E2E2E2E2E2E2E2E2E2E2E2E2E2E2E2E2E2E2E2E2E2E2E2E2E2E2E2E2E2E2E2E2E2E2E2E2E2E2E2E2E2E2E2E2E2E2E2E2E2E2E2E2E2E2E2E2E2E2E2E2E2E2E2E2E2E2E2E2E2E2E2E2E2E2E2E2E2E2E2E2E2E2E2E2E2E2
310
E2E2E2E2E2E2E2E2E2E2E2E2E2E2E2E2E2E2E2E2E2E2E2E2E2E2E2E2E2E2E2E2E2E2E2E2E2E2E2E2E2E2E2E2E2E2E2E2E2E2E2E2E2E2E2E2E2E2E2E2E2E2E2E2E2E2E2E2E2E2E2E2E2E2E2E2E2E2E2E2E2E2E2E2E2E2E2E2E2E2E2E2E2E2E2E2E2E2E2E2E2E2E2E2E2E2E2E2E2E2E2E2E2E2E2E2E2E2E2E2E2E2E2E2E2E2E2
310
E2E2E2E2E2E2E2E2E2E2E2E2E2E2E2E2E2E2E2E2E2E2E2E2E2E2E2E2E2E2E2E2E2E2E2E2E2E2E2E2E2E2E2E2E2E2E2E2E2E2E2E2E2E2E2E2E2E2E2E2E2E2E2E2E2E2E2E2E2E2E2E2E2E2E2E2E2E2E2E2E2E2E2E2E2E2E2E2E2E2E2E2E2E2E2E2E2E2E2E2E2E2E2E2E2E2E2E2E2E2E2E2E2E2E2E2E2E2E2E2E2E2E2E2E2E2E2
310
E2E2E2E2E2E2E2E2E2E2E2E2E2E2E2E2E2E2E2E2E2E2E2E2E2E2E2E2E2E2E2E2E2E2E2E2E2E2E2E2E2E2E2E2E2E2E2E2E2E2E2E2E2E2E2E2E2E2E2E2E2E2E2E2E2E2E2E2E2E2E2E2E2E2E2E2E2E2E2E2E2E2E2E2E2E2E2E2E2E2E2E2E2E2E2E2E2E2E2E2E2E2E2E2E2E2E2E2E2E2E2E2E2E2E2E2E2E2E2E2E2E2E2E2E2E2E2
310
E2E2E2E2E2E2E2E2E2E2E2E2E2E2E2E2E2E2E2E2E2E2E2E2E2E2E2E2E2E2E2E2E2E2E2E2E2E2E2E2E2E2E2E2E2E2E2E2E2E2E2E2E2E2E2E2E2E2E2E2E2E2E2E2E2E2E2E2E2E2E2E2E2E2E2E2E2E2E2E2E2E2E2E2E2E2E2E2E2E2E2E2E2E2E2E2E2E2E2E2E2E2E2E2E2E2E2E2E2E2E2E2E2E2E2E2E2E2E2E2E2E2E2E2E2E2E2
310
E2E2E2E2E2E2E2E2E2E2E2E2E2E2E2E2E2E2E2E2E2E2E2E2E2E2E2E2E2E2E2E2E2E2E2E2E2E2E2E2E2E2E2E2E2E2E2E2E2E2E2E2E2E2E2E2E2E2E2E2E2E2E2E2E2E2E2E2E2E2E2E2E2E2E2E2E2E2E2E2E2E2E2E2E2E2E2E2E2E2E2E2E2E2E2E2E2E2E2E2E2E2E2E2E2E2E2E2E2E2E2E2E2E2E2E2E2E2E2E2E2E2E2E2E2E2E2
310
E2E2E2E2E2E2E2E2E2E2E2E2E2E2E2E2E2E2E2E2E2E2E2E2E2E2E2E2E2E2E2E2E2E2E2E2E2E2E2E2E2E2E2E2E2E2E2E2E2E2E2E2E2E2E2E2E2E2E2E2E2E2E2E2E2E2E2E2E2E2E2E2E2E2E2E2E2E2E2E2E2E2E2E2E2E2E2E2E2E2E2E2E2E2E2E2E2E2E2E2E2E2E2E2E2E2E2E2E2E2E2E2E2E2E2E2E2E2E2E2E2E2E2E2E2E2E2
310
E2E2E2E2E2E2E2E2E2E2E2E2E2E2E2E2E2E2E2E2E2E2E2E2E2E2E2E2E2E2E2E2E2E2E2E2E2E2E2E2E2E2E2E2E2E2E2E2E2E2E2E2E2E2E2E2E2E2E2E2E2E2E2E2E2E2E2E2E2E2E2E2E2E2E2E2E2E2E2E2E2E2E2E2E2E2E2E2E2E2E2E2E2E2E2E2E2E2E2E2E2E2E2E2E2E2E2E2E2E2E2E2E2E2E2E2E2E2E2E2E2E2E2E2E2E2E2
310
E2E2E2E2E2E2E2E2E2E2E2E2E2E2E2E2E2E2E2E2E2E2E2E2E2E2E2E2E2E2E2E2E2E2E2E2E2E2E2E2E2E2E2E2E2E2E2E2E2E2E2E2E2E2E2E2E2E2E2E2E2E2E2E2E2E2E2E2E2E2E2E2E2E2E2E2E2E2E2E2E2E2E2E2E2E2E2E2E2E2E2E2E2E2E2E2E2E2E2E2E2E2E2E2E2E2E2E2E2E2E2E2E2E2E2E2E2E2E2E2E2E2E2E2E2E2E2
310
E2E2E2E2E2E2E2E2E2E2E2E2E2E2E2E2E2E2E2E2E2E2E2E2E2E2E2E2E2E2E2E2E2E2E2E2E2E2E2E2E2E2E2E2E2E2E2E2E2E2E2E2E2E2E2E2E2E2E2E2E2E2E2E2E2E2E2E2E2E2E2E2E2E2E2E2E2E2E2E2E2E2E2E2E2E2E2E2E2E2E2E2E2E2E2E2E2E2E2E2E2E2E2E2E2E2E2E2E2E2E2E2E2E2E2E2E2E2E2E2E2E2E2E2E2E2E2
310
E2E2E2E2E2E2E2E2E2E2E2E2E2E2E2E2E2E2E2E2E2E2E2E2E2E2E2E2E2E2E2E2E2E2E2E2E2E2E2E2E2E2E2E2E2E2E2E2E2E2E2E2E2E2E2E2E2E2E2E2E2E2E2E2E2E2E2E2E2E2E2E2E2E2E2E2E2E2E2E2E2E2E2E2E2E2E2E2E2E2E2E2E2E2E2E2E2E2E2E2E2E2E2E2E2E2E2E2E2E2E2E2E2E2E2E2E2E2E2E2E2E2E2E2E2E2E2
310
E2E2E2E2E2E2E2E2E2E2E2E2E2E2E2E2E2E2E2E2E2E2E2E2E2E2E2E2E2E2E2E2E2E2E2E2E2E2E2E2E2E2E2E2E2E2E2E2E2E2E2E2E2E2E2E2E2E2E2E2E2E2E2E2E2E2E2E2E2E2E2E2E2E2E2E2E2E2E2E2E2E2E2E2E2E2E2E2E2E2E2E2E2E2E2E2E2E2E2E2E2E2E2E2E2E2E2E2E2E2E2E2E2E2E2E2E2E2E2E2E2E2E2E2E2E2E2
310
E2E2E2E2E2E2E2E2E2E2E2E2E2E2E2E2E2E2E2E2E2E2E2E2E2E2E2E2E2E2E2E2E2E2E2E2E2E2E2E2E2E2E2E2E2E2E2E2E2E2E2E2E2E2E2E2E2E2E2E2E2E2E2E2E2E2E2E2E2E2E2E2E2E2E2E2E2E2E2E2E2E2E2E2E2E2E2E2E2E2E2E2E2E2E2E2E2E2E2E2E2E2E2E2E2E2E2E2E2E2E2E2E2E2E2E2E2E2E2E2E2E2E2E2E2E2E2
310
E2E2E2E2E2E2E2E2E2E2E2E2E2E2E2E2E2E2E2E2E2E2E2E2E2E2E2E2E2E2E2E2E2E2E2E2E2E2E2E2E2E2E2E2E2E2E2E2E2E2E2E2E2E2E2E2E2E2E2E2E2E2E2E2E2E2E2E2E2E2E2E2E2E2E2E2E2E2E2E2E2E2E2E2E2E2E2E2E2E2E2E2E2E2E2E2E2E2E2E2E2E2E2E2E2E2E2E2E2E2E2E2E2E2E2E2E2E2E2E2E2E2E2E2E2E2E2
310
E2E2E2E2E2E2E2E2E2E2E2E2E2E2E2E2E2E2E2E2E2E2E2E2E2E2E2E2E2E2E2E2E2E2E2E2E2E2E2E2E2E2E2E2E2E2E2E2E2E2E2E2E2E2E2E2E2E2E2E2E2E2E2E2E2E2E2E2E2E2E2E2E2E2E2E2E2E2E2E2E2E2E2E2E2E2E2E2E2E2E2E2E2E2E2E2E2E2E2E2E2E2E2E2E2E2E2E2E2E2E2E2E2E2E2E2E2E2E2E2E2E2E2E2E2E2E2
310
E2E2E2E2E2E2E2E2E2E2E2E2E2E2E2E2E2E2E2E2E2E2E2E2E2E2E2E2E2E2E2E2E2E2E2E2E2E2E2E2E2E2E2E2E2E2E2E2E2E2E2E2E2E2E2E2E2E2E2E2E2E2E2E2E2E2E2E2E2E2E2E2E2E2E2E2E2E2E2E2E2E2E2E2E2E2E2E2E2E2E2E2E2E2E2E2E2E2E2E2E2E2E2E2E2E2E2E2E2E2E2E2E2E2E2E2E2E2E2E2E2E2E2E2E2E2E2
310
E2E2E2E2E2E2E2E2E2E2E2E2E2E2E2E2E2E2E2E2E2E2E2E2E2E2E2E2E2E2E2E2E2E2E2E2E2E2E2E2E2E2E2E2E2E2E2E2E2E2E2E2E2E2E2E2E2E2E2E2E2E2E2E2E2E2E2E2E2E2E2E2E2E2E2E2E2E2E2E2E2E2E2E2E2E2E2E2E2E2E2E2E2E2E2E2E2E2E2E2E2E2E2E2E2E2E2E2E2E2E2E2E2E2E2E2E2E2E2E2E2E2E2E2E2E2E2
310
E2E2E2E2E2E2E2E2E2E2E2E2E2E2E2E2E2E2E2E2E2E2E2E2E2E2E2E2E2E2E2E2E2E2E2E2E2E2E2E2E2E2E2E2E2E2E2E2E2E2E2E2E2E2E2E2E2E2E2E2E2E2E2E2E2E2E2E2E2E2E2E2E2E2E2E2E2E2E2E2E2E2E2E2E2E2E2E2E2E2E2E2E2E2E2E2E2E2E2E2E2E2E2E2E2E2E2E2E2E2E2E2E2E2E2E2E2E2E2E2E2E2E2E2E2E2E2
310
E2E2E2E2E2E2E2E2E2E2E2E2E2E2E2E2E2E2E2E2E2E2E2E2E2E2E2E2E2E2E2E2E2E2E2E2E2E2E2E2E2E2E2E2E2E2E2E2E2E2E2E2E2E2E2E2E2E2E2E2E2E2E2E2E2E2E2E2E2E2E2E2E2E2E2E2E2E2E2E2E2E2E2E2E2E2E2E2E2E2E2E2E2E2E2E2E2E2E2E2E2E2E2E2E2E2E2E2E2E2E2E2E2E2E2E2E2E2E2E2E2E2E2E2E2E2E2
310
E2E2E2E2E2E2E2E2E2E2E2E2E2E2E2E2E2E2E2E2E2E2E2E2E2E2E2E2E2E2E2E2E2E2E2E2E2E2E2E2E2E2E2E2E2E2E2E2E2E2E2E2E2E2E2E2E2E2E2E2E2E2E2E2E2E2E2E2E2E2E2E2E2E2E2E2E2E2E2E2E2E2E2E2E2E2E2E2E2E2E2E2E2E2E2E2E2E2E2E2E2E2E2E2E2E2E2E2E2E2E2E2E2E2E2E2E2E2E2E2E2E2E2E2E2E2E2
310
E2E2E2E2E2E2E2E2E2E2E2E2E2E2E2E2E2E2E2E2E2E2E2E2E2E2E2E2E2E2E2E2E2E2E2E2E2E2E2E2E2E2E2E2E2E2E2E2E2E2E2E2E2E2E2E2E2E2E2E2E2E2E2E2E2E2E2E2E2E2E2E2E2E2E2E2E2E2E2E2E2E2E2E2E2E2E2E2E2E2E2E2E2E2E2E2E2E2E2E2E2E2E2E2E2E2E2E2E2E2E2E2E2E2E2E2E2E2E2E2E2E2E2E2E2E2E2
310
E2E2E2E2E2E2E2E2E2E2E2E2E2E2E2E2E2E2E2E2E2E2E2E2E2E2E2E2E2E2E2E2E2E2E2E2E2E2E2E2E2E2E2E2E2E2E2E2E2E2E2E2E2E2E2E2E2E2E2E2E2E2E2E2E2E2E2E2E2E2E2E2E2E2E2E2E2E2E2E2E2E2E2E2E2E2E2E2E2E2E2E2E2E2E2E2E2E2E2E2E2E2E2E2E2E2E2E2E2E2E2E2E2E2E2E2E2E2E2E2E2E2E2E2E2E2E2
310
E2E2E2E2E2E2E2E2E2E2E2E2E2E2E2E2E2E2E2E2E2E2E2E2E2E2E2E2E2E2E2E2E2E2E2E2E2E2E2E2E2E2E2E2E2E2E2E2E2E2E2E2E2E2E2E2E2E2E2E2E2E2E2E2E2E2E2E2E2E2E2E2E2E2E2E2E2E2E2E2E2E2E2E2E2E2E2E2E2E2E2E2E2E2E2E2E2E2E2E2E2E2E2E2E2E2E2E2E2E2E2E2E2E2E2E2E2E2E2E2E2E2E2E2E2E2E2
310
E2E2E2E2E2E2E2E2E2E2E2E2E2E2E2E2E2E2E2E2E2E2E2E2E2E2E2E2E2E2E2E2E2E2E2E2E2E2E2E2E2E2E2E2E2E2E2E2E2E2E2E2E2E2E2E2E2E2E2E2E2E2E2E2E2E2E2E2E2E2E2E2E2E2E2E2E2E2E2E2E2E2E2E2E2E2E2E2E2E2E2E2E2E2E2E2E2E2E2E2E2E2E2E2E2E2E2E2E2E2E2E2E2E2E2E2E2E2E2E2E2E2E2E2E2E2E2
310
E2E2E2E2E2E2E2E2E2E2E2E2E2E2E2E2E2E2E2E2E2E2E2E2E2E2E2E2E2E2E2E2E2E2E2E2E2E2E2E2E2E2E2E2E2E2E2E2E2E2E2E2E2E2E2E2E2E2E2E2E2E2E2E2E2E2E2E2E2E2E2E2E2E2E2E2E2E2E2E2E2E2E2E2E2E2E2E2E2E2E2E2E2E2E2E2E2E2E2E2E2E2E2E2E2E2E2E2E2E2E2E2E2E2E2E2E2E2E2E2E2E2E2E2E2E2E2
310
E2E2E2E2E2E2E2E2E2E2E2E2E2E2E2E2E2E2E2E2E2E2E2E2E2E2E2E2E2E2E2E2E2E2E2E2E2E2E2E2E2E2E2E2E2E2E2E2E2E2E2E2E2E2E2E2E2E2E2E2E2E2E2E2E2E2E2E2E2E2E2E2E2E2E2E2E2E2E2E2E2E2E2E2E2E2E2E2E2E2E2E2E2E2E2E2E2E2E2E2E2E2E2E2E2E2E2E2E2E2E2E2E2E2E2E2E2E2E2E2E2E2E2E2E2E2E2
310
E2E2E2E2E2E2E2E2E2E2E2E2E2E2E2E2E2E2E2E2E2E2E2E2E2E2E2E2E2E2E2E2E2E2E2E2E2E2E2E2E2E2E2E2E2E2E2E2E2E2E2E2E2E2E2E2E2E2E2E2E2E2E2E2E2E2E2E2E2E2E2E2E2E2E2E2E2E2E2E2E2E2E2E2E2E2E2E2E2E2E2E2E2E2E2E2E2E2E2E2E2E2E2E2E2E2E2E2E2E2E2E2E2E2E2E2E2E2E2E2E2E2E2E2E2E2E2
310
E2E2E2E2E2E2E2E2E2E2E2E2E2E2E2E2E2E2E2E2E2E2E2E2E2E2E2E2E2E2E2E2E2E2E2E2E2E2E2E2E2E2E2E2E2E2E2E2E2E2E2E2E2E2E2E2E2E2E2E2E2E2E2E2E2E2E2E2E2E2E2E2E2E2E2E2E2E2E2E2E2E2E2E2E2E2E2E2E2E2E2E2E2E2E2E2E2E2E2E2E2E2E2E2E2E2E2E2E2E2E2E2E2E2E2E2E2E2E2E2E2E2E2E2E2E2E2
310
E2E2E2E2E2E2E2E2E2E2E2E2E2E2E2E2E2E2E2E2E2E2E2E2E2E2E2E2E2E2E2E2E2E2E2E2E2E2E2E2E2E2E2E2E2E2E2E2E2E2E2E2E2E2E2E2E2E2E2E2E2E2E2E2E2E2E2E2E2E2E2E2E2E2E2E2E2E2E2E2E2E2E2E2E2E2E2E2E2E2E2E2E2E2E2E2E2E2E2E2E2E2E2E2E2E2E2E2E2E2E2E2E2E2E2E2E2E2E2E2E2E2E2E2E2E2E2
310
E2E2E2E2E2E2E2E2E2E2E2E2E2E2E2E2E2E2E2E2E2E2E2E2E2E2E2E2E2E2E2E2E2E2E2E2E2E2E2E2E2E2E2E2E2E2E2E2E2E2E2E2E2E2E2E2E2E2E2E2E2E2E2E2E2E2E2E2E2E2E2E2E2E2E2E2E2E2E2E2E2E2E2E2E2E2E2E2E2E2E2E2E2E2E2E2E2E2E2E2E2E2E2E2E2E2E2E2E2E2E2E2E2E2E2E2E2E2E2E2E2E2E2E2E2E2E2
310
E2E2E2E2E2E2E2E2E2E2E2E2E2E2E2E2E2E2E2E2E2E2E2E2E2E2E2E2E2E2E2E2E2E2E2E2E2E2E2E2E2E2E2E2E2E2E2E2E2E2E2E2E2E2E2E2E2E2E2E2E2E2E2E2E2E2E2E2E2E2E2E2E2E2E2E2E2E2E2E2E2E2E2E2E2E2E2E2E2E2E2E2E2E2E2E2E2E2E2E2E2E2E2E2E2E2E2E2E2E2E2E2E2E2E2E2E2E2E2E2E2E2E2E2E2E2E2
310
E2E2E2E2E2E2E2E2E2E2E2E2E2E2E2E2E2E2E2E2E2E2E2E2E2E2E2E2E2E2E2E2E2E2E2E2E2E2E2E2E2E2E2E2E2E2E2E2E2E2E2E2E2E2E2E2E2E2E2E2E2E2E2E2E2E2E2E2E2E2E2E2E2E2E2E2E2E2E2E2E2E2E2E2E2E2E2E2E2E2E2E2E2E2E2E2E2E2E2E2E2E2E2E2E2E2E2E2E2E2E2E2E2E2E2E2E2E2E2E2E2E2E2E2E2E2E2
310
E2E2E2E2E2E2E2E2E2E2E2E2E2E2E2E2E2E2E2E2E2E2E2E2E2E2E2E2E2E2E2E2E2E2E2E2E2E2E2E2E2E2E2E2E2E2E2E2E2E2E2E2E2E2E2E2E2E2E2E2E2E2E2E2E2E2E2E2E2E2E2E2E2E2E2E2E2E2E2E2E2E2E2E2E2E2E2E2E2E2E2E2E2E2E2E2E2E2E2E2E2E2E2E2E2E2E2E2E2E2E2E2E2E2E2E2E2E2E2E2E2E2E2E2E2E2E2
310
E2E2E2E2E2E2E2E2E2E2E2E2E2E2E2E2E2E2E2E2E2E2E2E2E2E2E2E2E2E2E2E2E2E2E2E2E2E2E2E2E2E2E2E2E2E2E2E2E2E2E2E2E2E2E2E2E2E2E2E2E2E2E2E2E2E2E2E2E2E2E2E2E2E2E2E2E2E2E2E2E2E2E2E2E2E2E2E2E2E2E2E2E2E2E2E2E2E2E2E2E2E2E2E2E2E2E2E2E2E2E2E2E2E2E2E2E2E2E2E2E2E2E2E2E2E2E2
310
E2E2E2E2E2E2E2E2E2E2E2E2E2E2E2E2E2E2E2E2E2E2E2E2E2E2E2E2E2E2E2E2E2E2E2E2E2E2E2E2E2E2E2E2E2E2E2E2E2E2E2E2E2E2E2E2E2E2E2E2E2E2E2E2E2E2E2E2E2E2E2E2E2E2E2E2E2E2E2E2E2E2E2E2E2E2E2E2E2E2E2E2E2E2E2E2E2E2E2E2E2E2E2E2E2E2E2E2E2E2E2E2E2E2E2E2E2E2E2E2E2E2E2E2E2E2E2
310
E2E2E2E2E2E2E2E2E2E2E2E2E2E2E2E2E2E2E2E2E2E2E2E2E2E2E2E2E2E2E2E2E2E2E2E2E2E2E2E2E2E2E2E2E2E2E2E2E2E2E2E2E2E2E2E2E2E2E2E2E2E2E2E2E2E2E2E2E2E2E2E2E2E2E2E2E2E2E2E2E2E2E2E2E2E2E2E2E2E2E2E2E2E2E2E2E2E2E2E2E2E2E2E2E2E2E2E2E2E2E2E2E2E2E2E2E2E2E2E2E2E2E2E2E2E2E2
310
E2E2E2E2E2E2E2E2E2E2E2E2E2E2E2E2E2E2E2E2E2E2E2E2E2E2E2E2E2E2E2E2E2E2E2E2E2E2E2E2E2E2E2E2E2E2E2E2E2E2E2E2E2E2E2E2E2E2E2E2E2E2E2E2E2E2E2E2E2E2E2E2E2E2E2E2E2E2E2E2E2E2E2E2E2E2E2E2E2E2E2E2E2E2E2E2E2E2E2E2E2E2E2E2E2E2E2E2E2E2E2E2E2E2E2E2E2E2E2E2E2E2E2E2E2E2E2
310
E2E2E2E2E2E2E2E2E2E2E2E2E2E2E2E2E2E2E2E2E2E2E2E2E2E2E2E2E2E2E2E2E2E2E2E2E2E2E2E2E2E2E2E2E2E2E2E2E2E2E2E2E2E2E2E2E2E2E2E2E2E2E2E2E2E2E2E2E2E2E2E2E2E2E2E2E2E2E2E2E2E2E2E2E2E2E2E2E2E2E2E2E2E2E2E2E2E2E2E2E2E2E2E2E2E2E2E2E2E2E2E2E2E2E2E2E2E2E2E2E2E2E2E2E2E2E2
310
E2E2E2E2E2E2E2E2E2E2E2E2E2E2E2E2E2E2E2E2E2E2E2E2E2E2E2E2E2E2E2E2E2E2E2E2E2E2E2E2E2E2E2E2E2E2E2E2E2E2E2E2E2E2E2E2E2E2E2E2E2E2E2E2E2E2E2E2E2E2E2E2E2E2E2E2E2E2E2E2E2E2E2E2E2E2E2E2E2E2E2E2E2E2E2E2E2E2E2E2E2E2E2E2E2E2E2E2E2E2E2E2E2E2E2E2E2E2E2E2E2E2E2E2E2E2E2
310
E2E2E2E2E2E2E2E2E2E2E2E2E2E2E2E2E2E2E2E2E2E2E2E2E2E2E2E2E2E2E2E2E2E2E2E2E2E2E2E2E2E2E2E2E2E2E2E2E2E2E2E2E2E2E2E2E2E2E2E2E2E2E2E2E2E2E2E2E2E2E2E2E2E2E2E2E2E2E2E2E2E2E2E2E2E2E2E2E2E2E2E2E2E2E2E2E2E2E2E2E2E2E2E2E2E2E2E2E2E2E2E2E2E2E2E2E2E2E2E2E2E2E2E2E2E2E2
310
E2E2E2E2E2E2E2E2E2E2E2E2E2E2E2E2E2E2E2E2E2E2E2E2E2E2E2E2E2E2E2E2E2E2E2E2E2E2E2E2E2E2E2E2E2E2E2E2E2E2E2E2E2E2E2E2E2E2E2E2E2E2E2E2E2E2E2E2E2E2E2E2E2E2E2E2E2E2E2E2E2E2E2E2E2E2E2E2E2E2E2E2E2E2E2E2E2E2E2E2E2E2E2E2E2E2E2E2E2E2E2E2E2E2E2E2E2E2E2E2E2E2E2E2E2E2E2
310
E2E2E2E2E2E2E2E2E2E2E2E2E2E2E2E2E2E2E2E2E2E2E2E2E2E2E2E2E2E2E2E2E2E2E2E2E2E2E2E2E2E2E2E2E2E2E2E2E2E2E2E2E2E2E2E2E2E2E2E2E2E2E2E2E2E2E2E2E2E2E2E2E2E2E2E2E2E2E2E2E2E2E2E2E2E2E2E2E2E2E2E2E2E2E2E2E2E2E2E2E2E2E2E2E2E2E2E2E2E2E2E2E2E2E2E2E2E2E2E2E2E2E2E2E2E2E2
310
E2E2E2E2E2E2E2E2E2E2E2E2E2E2E2E2E2E2E2E2E2E2E2E2E2E2E2E2E2E2E2E2E2E2E2E2E2E2E2E2E2E2E2E2E2E2E2E2E2E2E2E2E2E2E2E2E2E2E2E2E2E2E2E2E2E2E2E2E2E2E2E2E2E2E2E2E2E2E2E2E2E2E2E2E2E2E2E2E2E2E2E2E2E2E2E2E2E2E2E2E2E2E2E2E2E2E2E2E2E2E2E2E2E2E2E2E2E2E2E2E2E2E2E2E2E2E2
310
E2E2E2E2E2E2E2E2E2E2E2E2E2E2E2E2E2E2E2E2E2E2E2E2E2E2E2E2E2E2E2E2E2E2E2E2E2E2E2E2E2E2E2E2E2E2E2E2E2E2E2E2E2E2E2E2E2E2E2E2E2E2E2E2E2E2E2E2E2E2E2E2E2E2E2E2E2E2E2E2E2E2E2E2E2E2E2E2E2E2E2E2E2E2E2E2E2E2E2E2E2E2E2E2E2E2E2E2E2E2E2E2E2E2E2E2E2E2E2E2E2E2E2E2E2E2E2
310
E2E2E2E2E2E2E2E2E2E2E2E2E2E2E2E2E2E2E2E2E2E2E2E2E2E2E2E2E2E2E2E2E2E2E2E2E2E2E2E2E2E2E2E2E2E2E2E2E2E2E2E2E2E2E2E2E2E2E2E2E2E2E2E2E2E2E2E2E2E2E2E2E2E2E2E2E2E2E2E2E2E2E2E2E2E2E2E2E2E2E2E2E2E2E2E2E2E2E2E2E2E2E2E2E2E2E2E2E2E2E2E2E2E2E2E2E2E2E2E2E2E2E2E2E2E2E2
310
E2E2E2E2E2E2E2E2E2E2E2E2E2E2E2E2E2E2E2E2E2E2E2E2E2E2E2E2E2E2E2E2E2E2E2E2E2E2E2E2E2E2E2E2E2E2E2E2E2E2E2E2E2E2E2E2E2E2E2E2E2E2E2E2E2E2E2E2E2E2E2E2E2E2E2E2E2E2E2E2E2E2E2E2E2E2E2E2E2E2E2E2E2E2E2E2E2E2E2E2E2E2E2E2E2E2E2E2E2E2E2E2E2E2E2E2E2E2E2E2E2E2E2E2E2E2E2
310
E2E2E2E2E2E2E2E2E2E2E2E2E2E2E2E2E2E2E2E2E2E2E2E2E2E2E2E2E2E2E2E2E2E2E2E2E2E2E2E2E2E2E2E2E2E2E2E2E2E2E2E2E2E2E2E2E2E2E2E2E2E2E2E2E2E2E2E2E2E2E2E2E2E2E2E2E2E2E2E2E2E2E2E2E2E2E2E2E2E2E2E2E2E2E2E2E2E2E2E2E2E2E2E2E2E2E2E2E2E2E2E2E2E2E2E2E2E2E2E2E2E2E2E2E2E2E2
310
E2E2E2E2E2E2E2E2E2E2E2E2E2E2E2E2E2E2E2E2E2E2E2E2E2E2E2E2E2E2E2E2E2E2E2E2E2E2E2E2E2E2E2E2E2E2E2E2E2E2E2E2E2E2E2E2E2E2E2E2E2E2E2E2E2E2E2E2E2E2E2E2E2E2E2E2E2E2E2E2E2E2E2E2E2E2E2E2E2E2E2E2E2E2E2E2E2E2E2E2E2E2E2E2E2E2E2E2E2E2E2E2E2E2E2E2E2E2E2E2E2E2E2E2E2E2E2
310
E2E2E2E2E2E2E2E2E2E2E2E2E2E2E2E2E2E2E2E2E2E2E2E2E2E2E2E2E2E2E2E2E2E2E2E2E2E2E2E2E2E2E2E2E2E2E2E2E2E2E2E2E2E2E2E2E2E2E2E2E2E2E2E2E2E2E2E2E2E2E2E2E2E2E2E2E2E2E2E2E2E2E2E2E2E2E2E2E2E2E2E2E2E2E2E2E2E2E2E2E2E2E2E2E2E2E2E2E2E2E2E2E2E2E2E2E2E2E2E2E2E2E2E2E2E2E2
310
E2E2E2E2E2E2E2E2E2E2E2E2E2E2E2E2E2E2E2E2E2E2E2E2E2E2E2E2E2E2E2E2E2E2E2E2E2E2E2E2E2E2E2E2E2E2E2E2E2E2E2E2E2E2E2E2E2E2E2E2E2E2E2E2E2E2E2E2E2E2E2E2E2E2E2E2E2E2E2E2E2E2E2E2E2E2E2E2E2E2E2E2E2E2E2E2E2E2E2E2E2E2E2E2E2E2E2E2E2E2E2E2E2E2E2E2E2E2E2E2E2E2E2E2E2E2E2
310
E2E2E2E2E2E2E2E2E2E2E2E2E2E2E2E2E2E2E2E2E2E2E2E2E2E2E2E2E2E2E2E2E2E2E2E2E2E2E2E2E2E2E2E2E2E2E2E2E2E2E2E2E2E2E2E2E2E2E2E2E2E2E2E2E2E2E2E2E2E2E2E2E2E2E2E2E2E2E2E2E2E2E2E2E2E2E2E2E2E2E2E2E2E2E2E2E2E2E2E2E2E2E2E2E2E2E2E2E2E2E2E2E2E2E2E2E2E2E2E2E2E2E2E2E2E2E2
310
E2E2E2E2E2E2E2E2E2E2E2E2E2E2E2E2E2E2E2E2E2E2E2E2E2E2E2E2E2E2E2E2E2E2E2E2E2E2E2E2E2E2E2E2E2E2E2E2E2E2E2E2E2E2E2E2E2E2E2E2E2E2E2E2E2E2E2E2E2E2E2E2E2E2E2E2E2E2E2E2E2E2E2E2E2E2E2E2E2E2E2E2E2E2E2E2E2E2E2E2E2E2E2E2E2E2E2E2E2E2E2E2E2E2E2E2E2E2E2E2E2E2E2E2E2E2E2
310
E2E2E2E2E2E2E2E2E2E2E2E2E2E2E2E2E2E2E2E2E2E2E2E2E2E2E2E2E2E2E2E2E2E2E2E2E2E2E2E2E2E2E2E2E2E2E2E2E2E2E2E2E2E2E2E2E2E2E2E2E2E2E2E2E2E2E2E2E2E2E2E2E2E2E2E2E2E2E2E2E2E2E2E2E2E2E2E2E2E2E2E2E2E2E2E2E2E2E2E2E2E2E2E2E2E2E2E2E2E2E2E2E2E2E2E2E2E2E2E2E2E2E2E2E2E2E2
310
E2E2E2E2E2E2E2E2E2E2E2E2E2E2E2E2E2E2E2E2E2E2E2E2E2E2E2E2E2E2E2E2E2E2E2E2E2E2E2E2E2E2E2E2E2E2E2E2E2E2E2E2E2E2E2E2E2E2E2E2E2E2E2E2E2E2E2E2E2E2E2E2E2E2E2E2E2E2E2E2E2E2E2E2E2E2E2E2E2E2E2E2E2E2E2E2E2E2E2E2E2E2E2E2E2E2E2E2E2E2E2E2E2E2E2E2E2E2E2E2E2E2E2E2E2E2E2
310
E2E2E2E2E2E2E2E2E2E2E2E2E2E2E2E2E2E2E2E2E2E2E2E2E2E2E2E2E2E2E2E2E2E2E2E2E2E2E2E2E2E2E2E2E2E2E2E2E2E2E2E2E2E2E2E2E2E2E2E2E2E2E2E2E2E2E2E2E2E2E2E2E2E2E2E2E2E2E2E2E2E2E2E2E2E2E2E2E2E2E2E2E2E2E2E2E2E2E2E2E2E2E2E2E2E2E2E2E2E2E2E2E2E2E2E2E2E2E2E2E2E2E2E2E2E2E2
310
E2E2E2E2E2E2E2E2E2E2E2E2E2E2E2E2E2E2E2E2E2E2E2E2E2E2E2E2E2E2E2E2E2E2E2E2E2E2E2E2E2E2E2E2E2E2E2E2E2E2E2E2E2E2E2E2E2E2E2E2E2E2E2E2E2E2E2E2E2E2E2E2E2E2E2E2E2E2E2E2E2E2E2E2E2E2E2E2E2E2E2E2E2E2E2E2E2E2E2E2E2E2E2E2E2E2E2E2E2E2E2E2E2E2E2E2E2E2E2E2E2E2E2E2E2E2E2
310
E2E2E2E2E2E2E2E2E2E2E2E2E2E2E2E2E2E2E2E2E2E2E2E2E2E2E2E2E2E2E2E2E2E2E2E2E2E2E2E2E2E2E2E2E2E2E2E2E2E2E2E2E2E2E2E2E2E2E2E2E2E2E2E2E2E2E2E2E2E2E2E2E2E2E2E2E2E2E2E2E2E2E2E2E2E2E2E2E2E2E2E2E2E2E2E2E2E2E2E2E2E2E2E2E2E2E2E2E2E2E2E2E2E2E2E2E2E2E2E2E2E2E2E2E2E2E2
310
E2E2E2E2E2E2E2E2E2E2E2E2E2E2E2E2E2E2E2E2E2E2E2E2E2E2E2E2E2E2E2E2E2E2E2E2E2E2E2E2E2E2E2E2E2E2E2E2E2E2E2E2E2E2E2E2E2E2E2E2E2E2E2E2E2E2E2E2E2E2E2E2E2E2E2E2E2E2E2E2E2E2E2E2E2E2E2E2E2E2E2E2E2E2E2E2E2E2E2E2E2E2E2E2E2E2E2E2E2E2E2E2E2E2E2E2E2E2E2E2E2E2E2E2E2E2E2
310
E2E2E2E2E2E2E2E2E2E2E2E2E2E2E2E2E2E2E2E2E2E2E2E2E2E2E2E2E2E2E2E2E2E2E2E2E2E2E2E2E2E2E2E2E2E2E2E2E2E2E2E2E2E2E2E2E2E2E2E2E2E2E2E2E2E2E2E2E2E2E2E2E2E2E2E2E2E2E2E2E2E2E2E2E2E2E2E2E2E2E2E2E2E2E2E2E2E2E2E2E2E2E2E2E2E2E2E2E2E2E2E2E2E2E2E2E2E2E2E2E2E2E2E2E2E2E2
310
E2E2E2E2E2E2E2E2E2E2E2E2E2E2E2E2E2E2E2E2E2E2E2E2E2E2E2E2E2E2E2E2E2E2E2E2E2E2E2E2E2E2E2E2E2E2E2E2E2E2E2E2E2E2E2E2E2E2E2E2E2E2E2E2E2E2E2E2E2E2E2E2E2E2E2E2E2E2E2E2E2E2E2E2E2E2E2E2E2E2E2E2E2E2E2E2E2E2E2E2E2E2E2E2E2E2E2E2E2E2E2E2E2E2E2E2E2E2E2E2E2E2E2E2E2E2E2
310
E2E2E2E2E2E2E2E2E2E2E2E2E2E2E2E2E2E2E2E2E2E2E2E2E2E2E2E2E2E2E2E2E2E2E2E2E2E2E2E2E2E2E2E2E2E2E2E2E2E2E2E2E2E2E2E2E2E2E2E2E2E2E2E2E2E2E2E2E2E2E2E2E2E2E2E2E2E2E2E2E2E2E2E2E2E2E2E2E2E2E2E2E2E2E2E2E2E2E2E2E2E2E2E2E2E2E2E2E2E2E2E2E2E2E2E2E2E2E2E2E2E2E2E2E2E2E2
310
E2E2E2E2E2E2E2E2E2E2E2E2E2E2E2E2E2E2E2E2E2E2E2E2E2E2E2E2E2E2E2E2E2E2E2E2E2E2E2E2E2E2E2E2E2E2E2E2E2E2E2E2E2E2E2E2E2E2E2E2E2E2E2E2E2E2E2E2E2E2E2E2E2E2E2E2E2E2E2E2E2E2E2E2E2E2E2E2E2E2E2E2E2E2E2E2E2E2E2E2E2E2E2E2E2E2E2E2E2E2E2E2E2E2E2E2E2E2E2E2E2E2E2E2E2E2E2
310
E2E2E2E2E2E2E2E2E2E2E2E2E2E2E2E2E2E2E2E2E2E2E2E2E2E2E2E2E2E2E2E2E2E2E2E2E2E2E2E2E2E2E2E2E2E2E2E2E2E2E2E2E2E2E2E2E2E2E2E2E2E2E2E2E2E2E2E2E2E2E2E2E2E2E2E2E2E2E2E2E2E2E2E2E2E2E2E2E2E2E2E2E2E2E2E2E2E2E2E2E2E2E2E2E2E2E2E2E2E2E2E2E2E2E2E2E2E2E2E2E2E2E2E2E2E2E2
310
E2E2E2E2E2E2E2E2E2E2E2E2E2E2E2E2E2E2E2E2E2E2E2E2E2E2E2E2E2E2E2E2E2E2E2E2E2E2E2E2E2E2E2E2E2E2E2E2E2E2E2E2E2E2E2E2E2E2E2E2E2E2E2E2E2E2E2E2E2E2E2E2E2E2E2E2E2E2E2E2E2E2E2E2E2E2E2E2E2E2E2E2E2E2E2E2E2E2E2E2E2E2E2E2E2E2E2E2E2E2E2E2E2E2E2E2E2E2E2E2E2E2E2E2E2E2E2
310
E2E2E2E2E2E2E2E2E2E2E2E2E2E2E2E2E2E2E2E2E2E2E2E2E2E2E2E2E2E2E2E2E2E2E2E2E2E2E2E2E2E2E2E2E2E2E2E2E2E2E2E2E2E2E2E2E2E2E2E2E2E2E2E2E2E2E2E2E2E2E2E2E2E2E2E2E2E2E2E2E2E2E2E2E2E2E2E2E2E2E2E2E2E2E2E2E2E2E2E2E2E2E2E2E2E2E2E2E2E2E2E2E2E2E2E2E2E2E2E2E2E2E2E2E2E2E2
310
E2E2E2E2E2E2E2E2E2E2E2E2E2E2E2E2E2E2E2E2E2E2E2E2E2E2E2E2E2E2E2E2E2E2E2E2E2E2E2E2E2E2E2E2E2E2E2E2E2E2E2E2E2E2E2E2E2E2E2E2E2E2E2E2E2E2E2E2E2E2E2E2E2E2E2E2E2E2E2E2E2E2E2E2E2E2E2E2E2E2E2E2E2E2E2E2E2E2E2E2E2E2E2E2E2E2E2E2E2E2E2E2E2E2E2E2E2E2E2E2E2E2E2E2E2E2E2
310
E2E2E2E2E2E2E2E2E2E2E2E2E2E2E2E2E2E2E2E2E2E2E2E2E2E2E2E2E2E2E2E2E2E2E2E2E2E2E2E2E2E2E2E2E2E2E2E2E2E2E2E2E2E2E2E2E2E2E2E2E2E2E2E2E2E2E2E2E2E2E2E2E2E2E2E2E2E2E2E2E2E2E2E2E2E2E2E2E2E2E2E2E2E2E2E2E2E2E2E2E2E2E2E2E2E2E2E2E2E2E2E2E2E2E2E2E2E2E2E2E2E2E2E2E2E2E2
310
E2E2E2E2E2E2E2E2E2E2E2E2E2E2E2E2E2E2E2E2E2E2E2E2E2E2E2E2E2E2E2E2E2E2E2E2E2E2E2E2E2E2E2E2E2E2E2E2E2E2E2E2E2E2E2E2E2E2E2E2E2E2E2E2E2E2E2E2E2E2E2E2E2E2E2E2E2E2E2E2E2E2E2E2E2E2E2E2E2E2E2E2E2E2E2E2E2E2E2E2E2E2E2E2E2E2E2E2E2E2E2E2E2E2E2E2E2E2E2E2E2E2E2E2E2E2E2
310
E2E2E2E2E2E2E2E2E2E2E2E2E2E2E2E2E2E2E2E2E2E2E2E2E2E2E2E2E2E2E2E2E2E2E2E2E2E2E2E2E2E2E2E2E2E2E2E2E2E2E2E2E2E2E2E2E2E2E2E2E2E2E2E2E2E2E2E2E2E2E2E2E2E2E2E2E2E2E2E2E2E2E2E2E2E2E2E2E2E2E2E2E2E2E2E2E2E2E2E2E2E2E2E2E2E2E2E2E2E2E2E2E2E2E2E2E2E2E2E2E2E2E2E2E2E2E2
310
E2E2E2E2E2E2E2E2E2E2E2E2E2E2E2E2E2E2E2E2E2E2E2E2E2E2E2E2E2E2E2E2E2E2E2E2E2E2E2E2E2E2E2E2E2E2E2E2E2E2E2E2E2E2E2E2E2E2E2E2E2E2E2E2E2E2E2E2E2E2E2E2E2E2E2E2E2E2E2E2E2E2E2E2E2E2E2E2E2E2E2E2E2E2E2E2E2E2E2E2E2E2E2E2E2E2E2E2E2E2E2E2E2E2E2E2E2E2E2E2E2E2E2E2E2E2E2
310
E2E2E2E2E2E2E2E2E2E2E2E2E2E2E2E2E2E2E2E2E2E2E2E2E2E2E2E2E2E2E2E2E2E2E2E2E2E2E2E2E2E2E2E2E2E2E2E2E2E2E2E2E2E2E2E2E2E2E2E2E2E2E2E2E2E2E2E2E2E2E2E2E2E2E2E2E2E2E2E2E2E2E2E2E2E2E2E2E2E2E2E2E2E2E2E2E2E2E2E2E2E2E2E2E2E2E2E2E2E2E2E2E2E2E2E2E2E2E2E2E2E2E2E2E2E2E2
310
E2E2E2E2E2E2E2E2E2E2E2E2E2E2E2E2E2E2E2E2E2E2E2E2E2E2E2E2E2E2E2E2E2E2E2E2E2E2E2E2E2E2E2E2E2E2E2E2E2E2E2E2E2E2E2E2E2E2E2E2E2E2E2E2E2E2E2E2E2E2E2E2E2E2E2E2E2E2E2E2E2E2E2E2E2E2E2E2E2E2E2E2E2E2E2E2E2E2E2E2E2E2E2E2E2E2E2E2E2E2E2E2E2E2E2E2E2E2E2E2E2E2E2E2E2E2E2
310
E2E2E2E2E2E2E2E2E2E2E2E2E2E2E2E2E2E2E2E2E2E2E2E2E2E2E2E2E2E2E2E2E2E2E2E2E2E2E2E2E2E2E2E2E2E2E2E2E2E2E2E2E2E2E2E2E2E2E2E2E2E2E2E2E2E2E2E2E2E2E2E2E2E2E2E2E2E2E2E2E2E2E2E2E2E2E2E2E2E2E2E2E2E2E2E2E2E2E2E2E2E2E2E2E2E2E2E2E2E2E2E2E2E2E2E2E2E2E2E2E2E2E2E2E2E2E2
310
E2E2E2E2E2E2E2E2E2E2E2E2E2E2E2E2E2E2E2E2E2E2E2E2E2E2E2E2E2E2E2E2E2E2E2E2E2E2E2E2E2E2E2E2E2E2E2E2E2E2E2E2E2E2E2E2E2E2E2E2E2E2E2E2E2E2E2E2E2E2E2E2E2E2E2E2E2E2E2E2E2E2E2E2E2E2E2E2E2E2E2E2E2E2E2E2E2E2E2E2E2E2E2E2E2E2E2E2E2E2E2E2E2E2E2E2E2E2E2E2E2E2E2E2E2E2E2
310
E2E2E2E2E2E2E2E2E2E2E2E2E2E2E2E2E2E2E2E2E2E2E2E2E2E2E2E2E2E2E2E2E2E2E2E2E2E2E2E2E2E2E2E2E2E2E2E2E2E2E2E2E2E2E2E2E2E2E2E2E2E2E2E2E2E2E2E2E2E2E2E2E2E2E2E2E2E2E2E2E2E2E2E2E2E2E2E2E2E2E2E2E2E2E2E2E2E2E2E2E2E2E2E2E2E2E2E2E2E2E2E2E2E2E2E2E2E2E2E2E2E2E2E2E2E2E2
310
E2E2E2E2E2E2E2E2E2E2E2E2E2E2E2E2E2E2E2E2E2E2E2E2E2E2E2E2E2E2E2E2E2E2E2E2E2E2E2E2E2E2E2E2E2E2E2E2E2E2E2E2E2E2E2E2E2E2E2E2E2E2E2E2E2E2E2E2E2E2E2E2E2E2E2E2E2E2E2E2E2E2E2E2E2E2E2E2E2E2E2E2E2E2E2E2E2E2E2E2E2E2E2E2E2E2E2E2E2E2E2E2E2E2E2E2E2E2E2E2E2E2E2E2E2E2E2
310
E2E2E2E2E2E2E2E2E2E2E2E2E2E2E2E2E2E2E2E2E2E2E2E2E2E2E2E2E2E2E2E2E2E2E2E2E2E2E2E2E2E2E2E2E2E2E2E2E2E2E2E2E2E2E2E2E2E2E2E2E2E2E2E2E2E2E2E2E2E2E2E2E2E2E2E2E2E2E2E2E2E2E2E2E2E2E2E2E2E2E2E2E2E2E2E2E2E2E2E2E2E2E2E2E2E2E2E2E2E2E2E2E2E2E2E2E2E2E2E2E2E2E2E2E2E2E2
310
E2E2E2E2E2E2E2E2E2E2E2E2E2E2E2E2E2E2E2E2E2E2E2E2E2E2E2E2E2E2E2E2E2E2E2E2E2E2E2E2E2E2E2E2E2E2E2E2E2E2E2E2E2E2E2E2E2E2E2E2E2E2E2E2E2E2E2E2E2E2E2E2E2E2E2E2E2E2E2E2E2E2E2E2E2E2E2E2E2E2E2E2E2E2E2E2E2E2E2E2E2E2E2E2E2E2E2E2E2E2E2E2E2E2E2E2E2E2E2E2E2E2E2E2E2E2E2
310
E2E2E2E2E2E2E2E2E2E2E2E2E2E2E2E2E2E2E2E2E2E2E2E2E2E2E2E2E2E2E2E2E2E2E2E2E2E2E2E2E2E2E2E2E2E2E2E2E2E2E2E2E2E2E2E2E2E2E2E2E2E2E2E2E2E2E2E2E2E2E2E2E2E2E2E2E2E2E2E2E2E2E2E2E2E2E2E2E2E2E2E2E2E2E2E2E2E2E2E2E2E2E2E2E2E2E2E2E2E2E2E2E2E2E2E2E2E2E2E2E2E2E2E2E2E2E2
310
E2E2E2E2E2E2E2E2E2E2E2E2E2E2E2E2E2E2E2E2E2E2E2E2E2E2E2E2E2E2E2E2E2E2E2E2E2E2E2E2E2E2E2E2E2E2E2E2E2E2E2E2E2E2E2E2E2E2E2E2E2E2E2E2E2E2E2E2E2E2E2E2E2E2E2E2E2E2E2E2E2E2E2E2E2E2E2E2E2E2E2E2E2E2E2E2E2E2E2E2E2E2E2E2E2E2E2E2E2E2E2E2E2E2E2E2E2E2E2E2E2E2E2E2E2E2E2
310
E2E2E2E2E2E2E2E2E2E2E2E2E2E2E2E2E2E2E2E2E2E2E2E2E2E2E2E2E2E2E2E2E2E2E2E2E2E2E2E2E2E2E2E2E2E2E2E2E2E2E2E2E2E2E2E2E2E2E2E2E2E2E2E2E2E2E2E2E2E2E2E2E2E2E2E2E2E2E2E2E2E2E2E2E2E2E2E2E2E2E2E2E2E2E2E2E2E2E2E2E2E2E2E2E2E2E2E2E2E2E2E2E2E2E2E2E2E2E2E2E2E2E2E2E2E2E2
310
E2E2E2E2E2E2E2E2E2E2E2E2E2E2E2E2E2E2E2E2E2E2E2E2E2E2E2E2E2E2E2E2E2E2E2E2E2E2E2E2E2E2E2E2E2E2E2E2E2E2E2E2E2E2E2E2E2E2E2E2E2E2E2E2E2E2E2E2E2E2E2E2E2E2E2E2E2E2E2E2E2E2E2E2E2E2E2E2E2E2E2E2E2E2E2E2E2E2E2E2E2E2E2E2E2E2E2E2E2E2E2E2E2E2E2E2E2E2E2E2E2E2E2E2E2E2E2
310
E2E2E2E2E2E2E2E2E2E2E2E2E2E2E2E2E2E2E2E2E2E2E2E2E2E2E2E2E2E2E2E2E2E2E2E2E2E2E2E2E2E2E2E2E2E2E2E2E2E2E2E2E2E2E2E2E2E2E2E2E2E2E2E2E2E2E2E2E2E2E2E2E2E2E2E2E2E2E2E2E2E2E2E2E2E2E2E2E2E2E2E2E2E2E2E2E2E2E2E2E2E2E2E2E2E2E2E2E2E2E2E2E2E2E2E2E2E2E2E2E2E2E2E2E2E2E2
310
E2E2E2E2E2E2E2E2E2E2E2E2E2E2E2E2E2E2E2E2E2E2E2E2E2E2E2E2E2E2E2E2E2E2E2E2E2E2E2E2E2E2E2E2E2E2E2E2E2E2E2E2E2E2E2E2E2E2E2E2E2E2E2E2E2E2E2E2E2E2E2E2E2E2E2E2E2E2E2E2E2E2E2E2E2E2E2E2E2E2E2E2E2E2E2E2E2E2E2E2E2E2E2E2E2E2E2E2E2E2E2E2E2E2E2E2E2E2E2E2E2E2E2E2E2E2E2
310
E2E2E2E2E2E2E2E2E2E2E2E2E2E2E2E2E2E2E2E2E2E2E2E2E2E2E2E2E2E2E2E2E2E2E2E2E2E2E2E2E2E2E2E2E2E2E2E2E2E2E2E2E2E2E2E2E2E2E2E2E2E2E2E2E2E2E2E2E2E2E2E2E2E2E2E2E2E2E2E2E2E2E2E2E2E2E2E2E2E2E2E2E2E2E2E2E2E2E2E2E2E2E2E2E2E2E2E2E2E2E2E2E2E2E2E2E2E2E2E2E2E2E2E2E2E2E2
310
E2E2E2E2E2E2E2E2E2E2E2E2E2E2E2E2E2E2E2E2E2E2E2E2E2E2E2E2E2E2E2E2E2E2E2E2E2E2E2E2E2E2E2E2E2E2E2E2E2E2E2E2E2E2E2E2E2E2E2E2E2E2E2E2E2E2E2E2E2E2E2E2E2E2E2E2E2E2E2E2E2E2E2E2E2E2E2E2E2E2E2E2E2E2E2E2E2E2E2E2E2E2E2E2E2E2E2E2E2E2E2E2E2E2E2E2E2E2E2E2E2E2E2E2E2E2E2
310
E2E2E2E2E2E2E2E2E2E2E2E2E2E2E2E2E2E2E2E2E2E2E2E2E2E2E2E2E2E2E2E2E2E2E2E2E2E2E2E2E2E2E2E2E2E2E2E2E2E2E2E2E2E2E2E2E2E2E2E2E2E2E2E2E2E2E2E2E2E2E2E2E2E2E2E2E2E2E2E2E2E2E2E2E2E2E2E2E2E2E2E2E2E2E2E2E2E2E2E2E2E2E2E2E2E2E2E2E2E2E2E2E2E2E2E2E2E2E2E2E2E2E2E2E2E2E2
310
E2E2E2E2E2E2E2E2E2E2E2E2E2E2E2E2E2E2E2E2E2E2E2E2E2E2E2E2E2E2E2E2E2E2E2E2E2E2E2E2E2E2E2E2E2E2E2E2E2E2E2E2E2E2E2E2E2E2E2E2E2E2E2E2E2E2E2E2E2E2E2E2E2E2E2E2E2E2E2E2E2E2E2E2E2E2E2E2E2E2E2E2E2E2E2E2E2E2E2E2E2E2E2E2E2E2E2E2E2E2E2E2E2E2E2E2E2E2E2E2E2E2E2E2E2E2E2
310
E2E2E2E2E2E2E2E2E2E2E2E2E2E2E2E2E2E2E2E2E2E2E2E2E2E2E2E2E2E2E2E2E2E2E2E2E2E2E2E2E2E2E2E2E2E2E2E2E2E2E2E2E2E2E2E2E2E2E2E2E2E2E2E2E2E2E2E2E2E2E2E2E2E2E2E2E2E2E2E2E2E2E2E2E2E2E2E2E2E2E2E2E2E2E2E2E2E2E2E2E2E2E2E2E2E2E2E2E2E2E2E2E2E2E2E2E2E2E2E2E2E2E2E2E2E2E2
310
E2E2E2E2E2E2E2E2E2E2E2E2E2E2E2E2E2E2E2E2E2E2E2E2E2E2E2E2E2E2E2E2E2E2E2E2E2E2E2E2E2E2E2E2E2E2E2E2E2E2E2E2E2E2E2E2E2E2E2E2E2E2E2E2E2E2E2E2E2E2E2E2E2E2E2E2E2E2E2E2E2E2E2E2E2E2E2E2E2E2E2E2E2E2E2E2E2E2E2E2E2E2E2E2E2E2E2E2E2E2E2E2E2E2E2E2E2E2E2E2E2E2E2E2E2E2E2
310
E2E2E2E2E2E2E2E2E2E2E2E2E2E2E2E2E2E2E2E2E2E2E2E2E2E2E2E2E2E2E2E2E2E2E2E2E2E2E2E2E2E2E2E2E2E2E2E2E2E2E2E2E2E2E2E2E2E2E2E2E2E2E2E2E2E2E2E2E2E2E2E2E2E2E2E2E2E2E2E2E2E2E2E2E2E2E2E2E2E2E2E2E2E2E2E2E2E2E2E2E2E2E2E2E2E2E2E2E2E2E2E2E2E2E2E2E2E2E2E2E2E2E2E2E2E2E2
310
E2E2E2E2E2E2E2E2E2E2E2E2E2E2E2E2E2E2E2E2E2E2E2E2E2E2E2E2E2E2E2E2E2E2E2E2E2E2E2E2E2E2E2E2E2E2E2E2E2E2E2E2E2E2E2E2E2E2E2E2E2E2E2E2E2E2E2E2E2E2E2E2E2E2E2E2E2E2E2E2E2E2E2E2E2E2E2E2E2E2E2E2E2E2E2E2E2E2E2E2E2E2E2E2E2E2E2E2E2E2E2E2E2E2E2E2E2E2E2E2E2E2E2E2E2E2E2
310
E2E2E2E2E2E2E2E2E2E2E2E2E2E2E2E2E2E2E2E2E2E2E2E2E2E2E2E2E2E2E2E2E2E2E2E2E2E2E2E2E2E2E2E2E2E2E2E2E2E2E2E2E2E2E2E2E2E2E2E2E2E2E2E2E2E2E2E2E2E2E2E2E2E2E2E2E2E2E2E2E2E2E2E2E2E2E2E2E2E2E2E2E2E2E2E2E2E2E2E2E2E2E2E2E2E2E2E2E2E2E2E2E2E2E2E2E2E2E2E2E2E2E2E2E2E2E2
310
E2E2E2E2E2E2E2E2E2E2E2E2E2E2E2E2E2E2E2E2E2E2E2E2E2E2E2E2E2E2E2E2E2E2E2E2E2E2E2E2E2E2E2E2E2E2E2E2E2E2E2E2E2E2E2E2E2E2E2E2E2E2E2E2E2E2E2E2E2E2E2E2E2E2E2E2E2E2E2E2E2E2E2E2E2E2E2E2E2E2E2E2E2E2E2E2E2E2E2E2E2E2E2E2E2E2E2E2E2E2E2E2E2E2E2E2E2E2E2E2E2E2E2E2E2E2E2
310
E2E2E2E2E2E2E2E2E2E2E2E2E2E2E2E2E2E2E2E2E2E2E2E2E2E2E2E2E2E2E2E2E2E2E2E2E2E2E2E2E2E2E2E2E2E2E2E2E2E2E2E2E2E2E2E2E2E2E2E2E2E2E2E2E2E2E2E2E2E2E2E2E2E2E2E2E2E2E2E2E2E2E2E2E2E2E2E2E2E2E2E2E2E2E2E2E2E2E2E2E2E2E2E2E2E2E2E2E2E2E2E2E2E2E2E2E2E2E2E2E2E2E2E2E2E2E2
310
E2E2E2E2E2E2E2E2E2E2E2E2E2E2E2E2E2E2E2E2E2E2E2E2E2E2E2E2E2E2E2E2E2E2E2E2E2E2E2E2E2E2E2E2E2E2E2E2E2E2E2E2E2E2E2E2E2E2E2E2E2E2E2E2E2E2E2E2E2E2E2E2E2E2E2E2E2E2E2E2E2E2E2E2E2E2E2E2E2E2E2E2E2E2E2E2E2E2E2E2E2E2E2E2E2E2E2E2E2E2E2E2E2E2E2E2E2E2E2E2E2E2E2E2E2E2E2
310
E2E2E2E2E2E2E2E2E2E2E2E2E2E2E2E2E2E2E2E2E2E2E2E2E2E2E2E2E2E2E2E2E2E2E2E2E2E2E2E2E2E2E2E2E2E2E2E2E2E2E2E2E2E2E2E2E2E2E2E2E2E2E2E2E2E2E2E2E2E2E2E2E2E2E2E2E2E2E2E2E2E2E2E2E2E2E2E2E2E2E2E2E2E2E2E2E2E2E2E2E2E2E2E2E2E2E2E2E2E2E2E2E2E2E2E2E2E2E2E2E2E2E2E2E2E2E2
310
E2E2E2E2E2E2E2E2E2E2E2E2E2E2E2E2E2E2E2E2E2E2E2E2E2E2E2E2E2E2E2E2E2E2E2E2E2E2E2E2E2E2E2E2E2E2E2E2E2E2E2E2E2E2E2E2E2E2E2E2E2E2E2E2E2E2E2E2E2E2E2E2E2E2E2E2E2E2E2E2E2E2E2E2E2E2E2E2E2E2E2E2E2E2E2E2E2E2E2E2E2E2E2E2E2E2E2E2E2E2E2E2E2E2E2E2E2E2E2E2E2E2E2E2E2E2E2
310
E2E2E2E2E2E2E2E2E2E2E2E2E2E2E2E2E2E2E2E2E2E2E2E2E2E2E2E2E2E2E2E2E2E2E2E2E2E2E2E2E2E2E2E2E2E2E2E2E2E2E2E2E2E2E2E2E2E2E2E2E2E2E2E2E2E2E2E2E2E2E2E2E2E2E2E2E2E2E2E2E2E2E2E2E2E2E2E2E2E2E2E2E2E2E2E2E2E2E2E2E2E2E2E2E2E2E2E2E2E2E2E2E2E2E2E2E2E2E2E2E2E2E2E2E2E2E2
310
E2E2E2E2E2E2E2E2E2E2E2E2E2E2E2E2E2E2E2E2E2E2E2E2E2E2E2E2E2E2E2E2E2E2E2E2E2E2E2E2E2E2E2E2E2E2E2E2E2E2E2E2E2E2E2E2E2E2E2E2E2E2E2E2E2E2E2E2E2E2E2E2E2E2E2E2E2E2E2E2E2E2E2E2E2E2E2E2E2E2E2E2E2E2E2E2E2E2E2E2E2E2E2E2E2E2E2E2E2E2E2E2E2E2E2E2E2E2E2E2E2E2E2E2E2E2E2
310
E2E2E2E2E2E2E2E2E2E2E2E2E2E2E2E2E2E2E2E2E2E2E2E2E2E2E2E2E2E2E2E2E2E2E2E2E2E2E2E2E2E2E2E2E2E2E2E2E2E2E2E2E2E2E2E2E2E2E2E2E2E2E2E2E2E2E2E2E2E2E2E2E2E2E2E2E2E2E2E2E2E2E2E2E2E2E2E2E2E2E2E2E2E2E2E2E2E2E2E2E2E2E2E2E2E2E2E2E2E2E2E2E2E2E2E2E2E2E2E2E2E2E2E2E2E2E2
310
E2E2E2E2E2E2E2E2E2E2E2E2E2E2E2E2E2E2E2E2E2E2E2E2E2E2E2E2E2E2E2E2E2E2E2E2E2E2E2E2E2E2E2E2E2E2E2E2E2E2E2E2E2E2E2E2E2E2E2E2E2E2E2E2E2E2E2E2E2E2E2E2E2E2E2E2E2E2E2E2E2E2E2E2E2E2E2E2E2E2E2E2E2E2E2E2E2E2E2E2E2E2E2E2E2E2E2E2E2E2E2E2E2E2E2E2E2E2E2E2E2E2E2E2E2E2E2
310
E2E2E2E2E2E2E2E2E2E2E2E2E2E2E2E2E2E2E2E2E2E2E2E2E2E2E2E2E2E2E2E2E2E2E2E2E2E2E2E2E2E2E2E2E2E2E2E2E2E2E2E2E2E2E2E2E2E2E2E2E2E2E2E2E2E2E2E2E2E2E2E2E2E2E2E2E2E2E2E2E2E2E2E2E2E2E2E2E2E2E2E2E2E2E2E2E2E2E2E2E2E2E2E2E2E2E2E2E2E2E2E2E2E2E2E2E2E2E2E2E2E2E2E2E2E2E2
310
E2E2E2E2E2E2E2E2E2E2E2E2E2E2E2E2E2E2E2E2E2E2E2E2E2E2E2E2E2E2E2E2E2E2E2E2E2E2E2E2E2E2E2E2E2E2E2E2E2E2E2E2E2E2E2E2E2E2E2E2E2E2E2E2E2E2E2E2E2E2E2E2E2E2E2E2E2E2E2E2E2E2E2E2E2E2E2E2E2E2E2E2E2E2E2E2E2E2E2E2E2E2E2E2E2E2E2E2E2E2E2E2E2E2E2E2E2E2E2E2E2E2E2E2E2E2E2
310
E2E2E2E2E2E2E2E2E2E2E2E2E2E2E2E2E2E2E2E2E2E2E2E2E2E2E2E2E2E2E2E2E2E2E2E2E2E2E2E2E2E2E2E2E2E2E2E2E2E2E2E2E2E2E2E2E2E2E2E2E2E2E2E2E2E2E2E2E2E2E2E2E2E2E2E2E2E2E2E2E2E2E2E2E2E2E2E2E2E2E2E2E2E2E2E2E2E2E2E2E2E2E2E2E2E2E2E2E2E2E2E2E2E2E2E2E2E2E2E2E2E2E2E2E2E2E2
310
E2E2E2E2E2E2E2E2E2E2E2E2E2E2E2E2E2E2E2E2E2E2E2E2E2E2E2E2E2E2E2E2E2E2E2E2E2E2E2E2E2E2E2E2E2E2E2E2E2E2E2E2E2E2E2E2E2E2E2E2E2E2E2E2E2E2E2E2E2E2E2E2E2E2E2E2E2E2E2E2E2E2E2E2E2E2E2E2E2E2E2E2E2E2E2E2E2E2E2E2E2E2E2E2E2E2E2E2E2E2E2E2E2E2E2E2E2E2E2E2E2E2E2E2E2E2E2
310
E2E2E2E2E2E2E2E2E2E2E2E2E2E2E2E2E2E2E2E2E2E2E2E2E2E2E2E2E2E2E2E2E2E2E2E2E2E2E2E2E2E2E2E2E2E2E2E2E2E2E2E2E2E2E2E2E2E2E2E2E2E2E2E2E2E2E2E2E2E2E2E2E2E2E2E2E2E2E2E2E2E2E2E2E2E2E2E2E2E2E2E2E2E2E2E2E2E2E2E2E2E2E2E2E2E2E2E2E2E2E2E2E2E2E2E2E2E2E2E2E2E2E2E2E2E2E2
310
E2E2E2E2E2E2E2E2E2E2E2E2E2E2E2E2E2E2E2E2E2E2E2E2E2E2E2E2E2E2E2E2E2E2E2E2E2E2E2E2E2E2E2E2E2E2E2E2E2E2E2E2E2E2E2E2E2E2E2E2E2E2E2E2E2E2E2E2E2E2E2E2E2E2E2E2E2E2E2E2E2E2E2E2E2E2E2E2E2E2E2E2E2E2E2E2E2E2E2E2E2E2E2E2E2E2E2E2E2E2E2E2E2E2E2E2E2E2E2E2E2E2E2E2E2E2E2
310
E2E2E2E2E2E2E2E2E2E2E2E2E2E2E2E2E2E2E2E2E2E2E2E2E2E2E2E2E2E2E2E2E2E2E2E2E2E2E2E2E2E2E2E2E2E2E2E2E2E2E2E2E2E2E2E2E2E2E2E2E2E2E2E2E2E2E2E2E2E2E2E2E2E2E2E2E2E2E2E2E2E2E2E2E2E2E2E2E2E2E2E2E2E2E2E2E2E2E2E2E2E2E2E2E2E2E2E2E2E2E2E2E2E2E2E2E2E2E2E2E2E2E2E2E2E2E2
310
E2E2E2E2E2E2E2E2E2E2E2E2E2E2E2E2E2E2E2E2E2E2E2E2E2E2E2E2E2E2E2E2E2E2E2E2E2E2E2E2E2E2E2E2E2E2E2E2E2E2E2E2E2E2E2E2E2E2E2E2E2E2E2E2E2E2E2E2E2E2E2E2E2E2E2E2E2E2E2E2E2E2E2E2E2E2E2E2E2E2E2E2E2E2E2E2E2E2E2E2E2E2E2E2E2E2E2E2E2E2E2E2E2E2E2E2E2E2E2E2E2E2E2E2E2E2E2
310
E2E2E2E2E2E2E2E2E2E2E2E2E2E2E2E2E2E2E2E2E2E2E2E2E2E2E2E2E2E2E2E2E2E2E2E2E2E2E2E2E2E2E2E2E2E2E2E2E2E2E2E2E2E2E2E2E2E2E2E2E2E2E2E2E2E2E2E2E2E2E2E2E2E2E2E2E2E2E2E2E2E2E2E2E2E2E2E2E2E2E2E2E2E2E2E2E2E2E2E2E2E2E2E2E2E2E2E2E2E2E2E2E2E2E2E2E2E2E2E2E2E2E2E2E2E2E2
310
E2E2E2E2E2E2E2E2E2E2E2E2E2E2E2E2E2E2E2E2E2E2E2E2E2E2E2E2E2E2E2E2E2E2E2E2E2E2E2E2E2E2E2E2E2E2E2E2E2E2E2E2E2E2E2E2E2E2E2E2E2E2E2E2E2E2E2E2E2E2E2E2E2E2E2E2E2E2E2E2E2E2E2E2E2E2E2E2E2E2E2E2E2E2E2E2E2E2E2E2E2E2E2E2E2E2E2E2E2E2E2E2E2E2E2E2E2E2E2E2E2E2E2E2E2E2E2
310
E2E2E2E2E2E2E2E2E2E2E2E2E2E2E2E2E2E2E2E2E2E2E2E2E2E2E2E2E2E2E2E2E2E2E2E2E2E2E2E2E2E2E2E2E2E2E2E2E2E2E2E2E2E2E2E2E2E2E2E2E2E2E2E2E2E2E2E2E2E2E2E2E2E2E2E2E2E2E2E2E2E2E2E2E2E2E2E2E2E2E2E2E2E2E2E2E2E2E2E2E2E2E2E2E2E2E2E2E2E2E2E2E2E2E2E2E2E2E2E2E2E2E2E2E2E2E2
310
E2E2E2E2E2E2E2E2E2E2E2E2E2E2E2E2E2E2E2E2E2E2E2E2E2E2E2E2E2E2E2E2E2E2E2E2E2E2E2E2E2E2E2E2E2E2E2E2E2E2E2E2E2E2E2E2E2E2E2E2E2E2E2E2E2E2E2E2E2E2E2E2E2E2E2E2E2E2E2E2E2E2E2E2E2E2E2E2E2E2E2E2E2E2E2E2E2E2E2E2E2E2E2E2E2E2E2E2E2E2E2E2E2E2E2E2E2E2E2E2E2E2E2E2E2E2E2
310
E2E2E2E2E2E2E2E2E2E2E2E2E2E2E2E2E2E2E2E2E2E2E2E2E2E2E2E2E2E2E2E2E2E2E2E2E2E2E2E2E2E2E2E2E2E2E2E2E2E2E2E2E2E2E2E2E2E2E2E2E2E2E2E2E2E2E2E2E2E2E2E2E2E2E2E2E2E2E2E2E2E2E2E2E2E2E2E2E2E2E2E2E2E2E2E2E2E2E2E2E2E2E2E2E2E2E2E2E2E2E2E2E2E2E2E2E2E2E2E2E2E2E2E2E2E2E2
310
E2E2E2E2E2E2E2E2E2E2E2E2E2E2E2E2E2E2E2E2E2E2E2E2E2E2E2E2E2E2E2E2E2E2E2E2E2E2E2E2E2E2E2E2E2E2E2E2E2E2E2E2E2E2E2E2E2E2E2E2E2E2E2E2E2E2E2E2E2E2E2E2E2E2E2E2E2E2E2E2E2E2E2E2E2E2E2E2E2E2E2E2E2E2E2E2E2E2E2E2E2E2E2E2E2E2E2E2E2E2E2E2E2E2E2E2E2E2E2E2E2E2E2E2E2E2E2
310
E2E2E2E2E2E2E2E2E2E2E2E2E2E2E2E2E2E2E2E2E2E2E2E2E2E2E2E2E2E2E2E2E2E2E2E2E2E2E2E2E2E2E2E2E2E2E2E2E2E2E2E2E2E2E2E2E2E2E2E2E2E2E2E2E2E2E2E2E2E2E2E2E2E2E2E2E2E2E2E2E2E2E2E2E2E2E2E2E2E2E2E2E2E2E2E2E2E2E2E2E2E2E2E2E2E2E2E2E2E2E2E2E2E2E2E2E2E2E2E2E2E2E2E2E2E2E2
310
E2E2E2E2E2E2E2E2E2E2E2E2E2E2E2E2E2E2E2E2E2E2E2E2E2E2E2E2E2E2E2E2E2E2E2E2E2E2E2E2E2E2E2E2E2E2E2E2E2E2E2E2E2E2E2E2E2E2E2E2E2E2E2E2E2E2E2E2E2E2E2E2E2E2E2E2E2E2E2E2E2E2E2E2E2E2E2E2E2E2E2E2E2E2E2E2E2E2E2E2E2E2E2E2E2E2E2E2E2E2E2E2E2E2E2E2E2E2E2E2E2E2E2E2E2E2E2
310
E2E2E2E2E2E2E2E2E2E2E2E2E2E2E2E2E2E2E2E2E2E2E2E2E2E2E2E2E2E2E2E2E2E2E2E2E2E2E2E2E2E2E2E2E2E2E2E2E2E2E2E2E2E2E2E2E2E2E2E2E2E2E2E2E2E2E2E2E2E2E2E2E2E2E2E2E2E2E2E2E2E2E2E2E2E2E2E2E2E2E2E2E2E2E2E2E2E2E2E2E2E2E2E2E2E2E2E2E2E2E2E2E2E2E2E2E2E2E2E2E2E2E2E2E2E2E2
310
E2E2E2E2E2E2E2E2E2E2E2E2E2E2E2E2E2E2E2E2E2E2E2E2E2E2E2E2E2E2E2E2E2E2E2E2E2E2E2E2E2E2E2E2E2E2E2E2E2E2E2E2E2E2E2E2E2E2E2E2E2E2E2E2E2E2E2E2E2E2E2E2E2E2E2E2E2E2E2E2E2E2E2E2E2E2E2E2E2E2E2E2E2E2E2E2E2E2E2E2E2E2E2E2E2E2E2E2E2E2E2E2E2E2E2E2E2E2E2E2E2E2E2E2E2E2E2
310
E2E2E2E2E2E2E2E2E2E2E2E2E2E2E2E2E2E2E2E2E2E2E2E2E2E2E2E2E2E2E2E2E2E2E2E2E2E2E2E2E2E2E2E2E2E2E2E2E2E2E2E2E2E2E2E2E2E2E2E2E2E2E2E2E2E2E2E2E2E2E2E2E2E2E2E2E2E2E2E2E2E2E2E2E2E2E2E2E2E2E2E2E2E2E2E2E2E2E2E2E2E2E2E2E2E2E2E2E2E2E2E2E2E2E2E2E2E2E2E2E2E2E2E2E2E2E2
310
E2E2E2E2E2E2E2E2E2E2E2E2E2E2E2E2E2E2E2E2E2E2E2E2E2E2E2E2E2E2E2E2E2E2E2E2E2E2E2E2E2E2E2E2E2E2E2E2E2E2E2E2E2E2E2E2E2E2E2E2E2E2E2E2E2E2E2E2E2E2E2E2E2E2E2E2E2E2E2E2E2E2E2E2E2E2E2E2E2E2E2E2E2E2E2E2E2E2E2E2E2E2E2E2E2E2E2E2E2E2E2E2E2E2E2E2E2E2E2E2E2E2E2E2E2E2E2
310
E2E2E2E2E2E2E2E2E2E2E2E2E2E2E2E2E2E2E2E2E2E2E2E2E2E2E2E2E2E2E2E2E2E2E2E2E2E2E2E2E2E2E2E2E2E2E2E2E2E2E2E2E2E2E2E2E2E2E2E2E2E2E2E2E2E2E2E2E2E2E2E2E2E2E2E2E2E2E2E2E2E2E2E2E2E2E2E2E2E2E2E2E2E2E2E2E2E2E2E2E2E2E2E2E2E2E2E2E2E2E2E2E2E2E2E2E2E2E2E2E2E2E2E2E2E2E2
310
E2E2E2E2E2E2E2E2E2E2E2E2E2E2E2E2E2E2E2E2E2E2E2E2E2E2E2E2E2E2E2E2E2E2E2E2E2E2E2E2E2E2E2E2E2E2E2E2E2E2E2E2E2E2E2E2E2E2E2E2E2E2E2E2E2E2E2E2E2E2E2E2E2E2E2E2E2E2E2E2E2E2E2E2E2E2E2E2E2E2E2E2E2E2E2E2E2E2E2E2E2E2E2E2E2E2E2E2E2E2E2E2E2E2E2E2E2E2E2E2E2E2E2E2E2E2E2
310
E2E2E2E2E2E2E2E2E2E2E2E2E2E2E2E2E2E2E2E2E2E2E2E2E2E2E2E2E2E2E2E2E2E2E2E2E2E2E2E2E2E2E2E2E2E2E2E2E2E2E2E2E2E2E2E2E2E2E2E2E2E2E2E2E2E2E2E2E2E2E2E2E2E2E2E2E2E2E2E2E2E2E2E2E2E2E2E2E2E2E2E2E2E2E2E2E2E2E2E2E2E2E2E2E2E2E2E2E2E2E2E2E2E2E2E2E2E2E2E2E2E2E2E2E2E2E2
310
E2E2E2E2E2E2E2E2E2E2E2E2E2E2E2E2E2E2E2E2E2E2E2E2E2E2E2E2E2E2E2E2E2E2E2E2E2E2E2E2E2E2E2E2E2E2E2E2E2E2E2E2E2E2E2E2E2E2E2E2E2E2E2E2E2E2E2E2E2E2E2E2E2E2E2E2E2E2E2E2E2E2E2E2E2E2E2E2E2E2E2E2E2E2E2E2E2E2E2E2E2E2E2E2E2E2E2E2E2E2E2E2E2E2E2E2E2E2E2E2E2E2E2E2E2E2E2
310
E2E2E2E2E2E2E2E2E2E2E2E2E2E2E2E2E2E2E2E2E2E2E2E2E2E2E2E2E2E2E2E2E2E2E2E2E2E2E2E2E2E2E2E2E2E2E2E2E2E2E2E2E2E2E2E2E2E2E2E2E2E2E2E2E2E2E2E2E2E2E2E2E2E2E2E2E2E2E2E2E2E2E2E2E2E2E2E2E2E2E2E2E2E2E2E2E2E2E2E2E2E2E2E2E2E2E2E2E2E2E2E2E2E2E2E2E2E2E2E2E2E2E2E2E2E2E2
310
E2E2E2E2E2E2E2E2E2E2E2E2E2E2E2E2E2E2E2E2E2E2E2E2E2E2E2E2E2E2E2E2E2E2E2E2E2E2E2E2E2E2E2E2E2E2E2E2E2E2E2E2E2E2E2E2E2E2E2E2E2E2E2E2E2E2E2E2E2E2E2E2E2E2E2E2E2E2E2E2E2E2E2E2E2E2E2E2E2E2E2E2E2E2E2E2E2E2E2E2E2E2E2E2E2E2E2E2E2E2E2E2E2E2E2E2E2E2E2E2E2E2E2E2E2E2E2
310
E2E2E2E2E2E2E2E2E2E2E2E2E2E2E2E2E2E2E2E2E2E2E2E2E2E2E2E2E2E2E2E2E2E2E2E2E2E2E2E2E2E2E2E2E2E2E2E2E2E2E2E2E2E2E2E2E2E2E2E2E2E2E2E2E2E2E2E2E2E2E2E2E2E2E2E2E2E2E2E2E2E2E2E2E2E2E2E2E2E2E2E2E2E2E2E2E2E2E2E2E2E2E2E2E2E2E2E2E2E2E2E2E2E2E2E2E2E2E2E2E2E2E2E2E2E2E2
310
E2E2E2E2E2E2E2E2E2E2E2E2E2E2E2E2E2E2E2E2E2E2E2E2E2E2E2E2E2E2E2E2E2E2E2E2E2E2E2E2E2E2E2E2E2E2E2E2E2E2E2E2E2E2E2E2E2E2E2E2E2E2E2E2E2E2E2E2E2E2E2E2E2E2E2E2E2E2E2E2E2E2E2E2E2E2E2E2E2E2E2E2E2E2E2E2E2E2E2E2E2E2E2E2E2E2E2E2E2E2E2E2E2E2E2E2E2E2E2E2E2E2E2E2E2E2E2
310
E2E2E2E2E2E2E2E2E2E2E2E2E2E2E2E2E2E2E2E2E2E2E2E2E2E2E2E2E2E2E2E2E2E2E2E2E2E2E2E2E2E2E2E2E2E2E2E2E2E2E2E2E2E2E2E2E2E2E2E2E2E2E2E2E2E2E2E2E2E2E2E2E2E2E2E2E2E2E2E2E2E2E2E2E2E2E2E2E2E2E2E2E2E2E2E2E2E2E2E2E2E2E2E2E2E2E2E2E2E2E2E2E2E2E2E2E2E2E2E2E2E2E2E2E2E2E2
310
E2E2E2E2E2E2E2E2E2E2E2E2E2E2E2E2E2E2E2E2E2E2E2E2E2E2E2E2E2E2E2E2E2E2E2E2E2E2E2E2E2E2E2E2E2E2E2E2E2E2E2E2E2E2E2E2E2E2E2E2E2E2E2E2E2E2E2E2E2E2E2E2E2E2E2E2E2E2E2E2E2E2E2E2E2E2E2E2E2E2E2E2E2E2E2E2E2E2E2E2E2E2E2E2E2E2E2E2E2E2E2E2E2E2E2E2E2E2E2E2E2E2E2E2E2E2E2
310
E2E2E2E2E2E2E2E2E2E2E2E2E2E2E2E2E2E2E2E2E2E2E2E2E2E2E2E2E2E2E2E2E2E2E2E2E2E2E2E2E2E2E2E2E2E2E2E2E2E2E2E2E2E2E2E2E2E2E2E2E2E2E2E2E2E2E2E2E2E2E2E2E2E2E2E2E2E2E2E2E2E2E2E2E2E2E2E2E2E2E2E2E2E2E2E2E2E2E2E2E2E2E2E2E2E2E2E2E2E2E2E2E2E2E2E2E2E2E2E2E2E2E2E2E2E2E2
310
E2E2E2E2E2E2E2E2E2E2E2E2E2E2E2E2E2E2E2E2E2E2E2E2E2E2E2E2E2E2E2E2E2E2E2E2E2E2E2E2E2E2E2E2E2E2E2E2E2E2E2E2E2E2E2E2E2E2E2E2E2E2E2E2E2E2E2E2E2E2E2E2E2E2E2E2E2E2E2E2E2E2E2E2E2E2E2E2E2E2E2E2E2E2E2E2E2E2E2E2E2E2E2E2E2E2E2E2E2E2E2E2E2E2E2E2E2E2E2E2E2E2E2E2E2E2E2
310
E2E2E2E2E2E2E2E2E2E2E2E2E2E2E2E2E2E2E2E2E2E2E2E2E2E2E2E2E2E2E2E2E2E2E2E2E2E2E2E2E2E2E2E2E2E2E2E2E2E2E2E2E2E2E2E2E2E2E2E2E2E2E2E2E2E2E2E2E2E2E2E2E2E2E2E2E2E2E2E2E2E2E2E2E2E2E2E2E2E2E2E2E2E2E2E2E2E2E2E2E2E2E2E2E2E2E2E2E2E2E2E2E2E2E2E2E2E2E2E2E2E2E2E2E2E2E2
310
E2E2E2E2E2E2E2E2E2E2E2E2E2E2E2E2E2E2E2E2E2E2E2E2E2E2E2E2E2E2E2E2E2E2E2E2E2E2E2E2E2E2E2E2E2E2E2E2E2E2E2E2E2E2E2E2E2E2E2E2E2E2E2E2E2E2E2E2E2E2E2E2E2E2E2E2E2E2E2E2E2E2E2E2E2E2E2E2E2E2E2E2E2E2E2E2E2E2E2E2E2E2E2E2E2E2E2E2E2E2E2E2E2E2E2E2E2E2E2E2E2E2E2E2E2E2E2
310
E2E2E2E2E2E2E2E2E2E2E2E2E2E2E2E2E2E2E2E2E2E2E2E2E2E2E2E2E2E2E2E2E2E2E2E2E2E2E2E2E2E2E2E2E2E2E2E2E2E2E2E2E2E2E2E2E2E2E2E2E2E2E2E2E2E2E2E2E2E2E2E2E2E2E2E2E2E2E2E2E2E2E2E2E2E2E2E2E2E2E2E2E2E2E2E2E2E2E2E2E2E2E2E2E2E2E2E2E2E2E2E2E2E2E2E2E2E2E2E2E2E2E2E2E2E2E2
310
E2E2E2E2E2E2E2E2E2E2E2E2E2E2E2E2E2E2E2E2E2E2E2E2E2E2E2E2E2E2E2E2E2E2E2E2E2E2E2E2E2E2E2E2E2E2E2E2E2E2E2E2E2E2E2E2E2E2E2E2E2E2E2E2E2E2E2E2E2E2E2E2E2E2E2E2E2E2E2E2E2E2E2E2E2E2E2E2E2E2E2E2E2E2E2E2E2E2E2E2E2E2E2E2E2E2E2E2E2E2E2E2E2E2E2E2E2E2E2E2E2E2E2E2E2E2E2
310
E2E2E2E2E2E2E2E2E2E2E2E2E2E2E2E2E2E2E2E2E2E2E2E2E2E2E2E2E2E2E2E2E2E2E2E2E2E2E2E2E2E2E2E2E2E2E2E2E2E2E2E2E2E2E2E2E2E2E2E2E2E2E2E2E2E2E2E2E2E2E2E2E2E2E2E2E2E2E2E2E2E2E2E2E2E2E2E2E2E2E2E2E2E2E2E2E2E2E2E2E2E2E2E2E2E2E2E2E2E2E2E2E2E2E2E2E2E2E2E2E2E2E2E2E2E2E2
310
E2E2E2E2E2E2E2E2E2E2E2E2E2E2E2E2E2E2E2E2E2E2E2E2E2E2E2E2E2E2E2E2E2E2E2E2E2E2E2E2E2E2E2E2E2E2E2E2E2E2E2E2E2E2E2E2E2E2E2E2E2E2E2E2E2E2E2E2E2E2E2E2E2E2E2E2E2E2E2E2E2E2E2E2E2E2E2E2E2E2E2E2E2E2E2E2E2E2E2E2E2E2E2E2E2E2E2E2E2E2E2E2E2E2E2E2E2E2E2E2E2E2E2E2E2E2E2
310
E2E2E2E2E2E2E2E2E2E2E2E2E2E2E2E2E2E2E2E2E2E2E2E2E2E2E2E2E2E2E2E2E2E2E2E2E2E2E2E2E2E2E2E2E2E2E2E2E2E2E2E2E2E2E2E2E2E2E2E2E2E2E2E2E2E2E2E2E2E2E2E2E2E2E2E2E2E2E2E2E2E2E2E2E2E2E2E2E2E2E2E2E2E2E2E2E2E2E2E2E2E2E2E2E2E2E2E2E2E2E2E2E2E2E2E2E2E2E2E2E2E2E2E2E2E2E2
310
E2E2E2E2E2E2E2E2E2E2E2E2E2E2E2E2E2E2E2E2E2E2E2E2E2E2E2E2E2E2E2E2E2E2E2E2E2E2E2E2E2E2E2E2E2E2E2E2E2E2E2E2E2E2E2E2E2E2E2E2E2E2E2E2E2E2E2E2E2E2E2E2E2E2E2E2E2E2E2E2E2E2E2E2E2E2E2E2E2E2E2E2E2E2E2E2E2E2E2E2E2E2E2E2E2E2E2E2E2E2E2E2E2E2E2E2E2E2E2E2E2E2E2E2E2E2E2
310
E2E2E2E2E2E2E2E2E2E2E2E2E2E2E2E2E2E2E2E2E2E2E2E2E2E2E2E2E2E2E2E2E2E2E2E2E2E2E2E2E2E2E2E2E2E2E2E2E2E2E2E2E2E2E2E2E2E2E2E2E2E2E2E2E2E2E2E2E2E2E2E2E2E2E2E2E2E2E2E2E2E2E2E2E2E2E2E2E2E2E2E2E2E2E2E2E2E2E2E2E2E2E2E2E2E2E2E2E2E2E2E2E2E2E2E2E2E2E2E2E2E2E2E2E2E2E2
310
E2E2E2E2E2E2E2E2E2E2E2E2E2E2E2E2E2E2E2E2E2E2E2E2E2E2E2E2E2E2E2E2E2E2E2E2E2E2E2E2E2E2E2E2E2E2E2E2E2E2E2E2E2E2E2E2E2E2E2E2E2E2E2E2E2E2E2E2E2E2E2E2E2E2E2E2E2E2E2E2E2E2E2E2E2E2E2E2E2E2E2E2E2E2E2E2E2E2E2E2E2E2E2E2E2E2E2E2E2E2E2E2E2E2E2E2E2E2E2E2E2E2E2E2E2E2E2
310
E2E2E2E2E2E2E2E2E2E2E2E2E2E2E2E2E2E2E2E2E2E2E2E2E2E2E2E2E2E2E2E2E2E2E2E2E2E2E2E2E2E2E2E2E2E2E2E2E2E2E2E2E2E2E2E2E2E2E2E2E2E2E2E2E2E2E2E2E2E2E2E2E2E2E2E2E2E2E2E2E2E2E2E2E2E2E2E2E2E2E2E2E2E2E2E2E2E2E2E2E2E2E2E2E2E2E2E2E2E2E2E2E2E2E2E2E2E2E2E2E2E2E2E2E2E2E2
310
E2E2E2E2E2E2E2E2E2E2E2E2E2E2E2E2E2E2E2E2E2E2E2E2E2E2E2E2E2E2E2E2E2E2E2E2E2E2E2E2E2E2E2E2E2E2E2E2E2E2E2E2E2E2E2E2E2E2E2E2E2E2E2E2E2E2E2E2E2E2E2E2E2E2E2E2E2E2E2E2E2E2E2E2E2E2E2E2E2E2E2E2E2E2E2E2E2E2E2E2E2E2E2E2E2E2E2E2E2E2E2E2E2E2E2E2E2E2E2E2E2E2E2E2E2E2E2
310
E2E2E2E2E2E2E2E2E2E2E2E2E2E2E2E2E2E2E2E2E2E2E2E2E2E2E2E2E2E2E2E2E2E2E2E2E2E2E2E2E2E2E2E2E2E2E2E2E2E2E2E2E2E2E2E2E2E2E2E2E2E2E2E2E2E2E2E2E2E2E2E2E2E2E2E2E2E2E2E2E2E2E2E2E2E2E2E2E2E2E2E2E2E2E2E2E2E2E2E2E2E2E2E2E2E2E2E2E2E2E2E2E2E2E2E2E2E2E2E2E2E2E2E2E2E2E2
310
E2E2E2E2E2E2E2E2E2E2E2E2E2E2E2E2E2E2E2E2E2E2E2E2E2E2E2E2E2E2E2E2E2E2E2E2E2E2E2E2E2E2E2E2E2E2E2E2E2E2E2E2E2E2E2E2E2E2E2E2E2E2E2E2E2E2E2E2E2E2E2E2E2E2E2E2E2E2E2E2E2E2E2E2E2E2E2E2E2E2E2E2E2E2E2E2E2E2E2E2E2E2E2E2E2E2E2E2E2E2E2E2E2E2E2E2E2E2E2E2E2E2E2E2E2E2E2
310
E2E2E2E2E2E2E2E2E2E2E2E2E2E2E2E2E2E2E2E2E2E2E2E2E2E2E2E2E2E2E2E2E2E2E2E2E2E2E2E2E2E2E2E2E2E2E2E2E2E2E2E2E2E2E2E2E2E2E2E2E2E2E2E2E2E2E2E2E2E2E2E2E2E2E2E2E2E2E2E2E2E2E2E2E2E2E2E2E2E2E2E2E2E2E2E2E2E2E2E2E2E2E2E2E2E2E2E2E2E2E2E2E2E2E2E2E2E2E2E2E2E2E2E2E2E2E2
310
E2E2E2E2E2E2E2E2E2E2E2E2E2E2E2E2E2E2E2E2E2E2E2E2E2E2E2E2E2E2E2E2E2E2E2E2E2E2E2E2E2E2E2E2E2E2E2E2E2E2E2E2E2E2E2E2E2E2E2E2E2E2E2E2E2E2E2E2E2E2E2E2E2E2E2E2E2E2E2E2E2E2E2E2E2E2E2E2E2E2E2E2E2E2E2E2E2E2E2E2E2E2E2E2E2E2E2E2E2E2E2E2E2E2E2E2E2E2E2E2E2E2E2E2E2E2E2
310
E2E2E2E2E2E2E2E2E2E2E2E2E2E2E2E2E2E2E2E2E2E2E2E2E2E2E2E2E2E2E2E2E2E2E2E2E2E2E2E2E2E2E2E2E2E2E2E2E2E2E2E2E2E2E2E2E2E2E2E2E2E2E2E2E2E2E2E2E2E2E2E2E2E2E2E2E2E2E2E2E2E2E2E2E2E2E2E2E2E2E2E2E2E2E2E2E2E2E2E2E2E2E2E2E2E2E2E2E2E2E2E2E2E2E2E2E2E2E2E2E2E2E2E2E2E2E2
310
E2E2E2E2E2E2E2E2E2E2E2E2E2E2E2E2E2E2E2E2E2E2E2E2E2E2E2E2E2E2E2E2E2E2E2E2E2E2E2E2E2E2E2E2E2E2E2E2E2E2E2E2E2E2E2E2E2E2E2E2E2E2E2E2E2E2E2E2E2E2E2E2E2E2E2E2E2E2E2E2E2E2E2E2E2E2E2E2E2E2E2E2E2E2E2E2E2E2E2E2E2E2E2E2E2E2E2E2E2E2E2E2E2E2E2E2E2E2E2E2E2E2E2E2E2E2E2
310
E2E2E2E2E2E2E2E2E2E2E2E2E2E2E2E2E2E2E2E2E2E2E2E2E2E2E2E2E2E2E2E2E2E2E2E2E2E2E2E2E2E2E2E2E2E2E2E2E2E2E2E2E2E2E2E2E2E2E2E2E2E2E2E2E2E2E2E2E2E2E2E2E2E2E2E2E2E2E2E2E2E2E2E2E2E2E2E2E2E2E2E2E2E2E2E2E2E2E2E2E2E2E2E2E2E2E2E2E2E2E2E2E2E2E2E2E2E2E2E2E2E2E2E2E2E2E2
310
E2E2E2E2E2E2E2E2E2E2E2E2E2E2E2E2E2E2E2E2E2E2E2E2E2E2E2E2E2E2E2E2E2E2E2E2E2E2E2E2E2E2E2E2E2E2E2E2E2E2E2E2E2E2E2E2E2E2E2E2E2E2E2E2E2E2E2E2E2E2E2E2E2E2E2E2E2E2E2E2E2E2E2E2E2E2E2E2E2E2E2E2E2E2E2E2E2E2E2E2E2E2E2E2E2E2E2E2E2E2E2E2E2E2E2E2E2E2E2E2E2E2E2E2E2E2E2
310
E2E2E2E2E2E2E2E2E2E2E2E2E2E2E2E2E2E2E2E2E2E2E2E2E2E2E2E2E2E2E2E2E2E2E2E2E2E2E2E2E2E2E2E2E2E2E2E2E2E2E2E2E2E2E2E2E2E2E2E2E2E2E2E2E2E2E2E2E2E2E2E2E2E2E2E2E2E2E2E2E2E2E2E2E2E2E2E2E2E2E2E2E2E2E2E2E2E2E2E2E2E2E2E2E2E2E2E2E2E2E2E2E2E2E2E2E2E2E2E2E2E2E2E2E2E2E2
310
E2E2E2E2E2E2E2E2E2E2E2E2E2E2E2E2E2E2E2E2E2E2E2E2E2E2E2E2E2E2E2E2E2E2E2E2E2E2E2E2E2E2E2E2E2E2E2E2E2E2E2E2E2E2E2E2E2E2E2E2E2E2E2E2E2E2E2E2E2E2E2E2E2E2E2E2E2E2E2E2E2E2E2E2E2E2E2E2E2E2E2E2E2E2E2E2E2E2E2E2E2E2E2E2E2E2E2E2E2E2E2E2E2E2E2E2E2E2E2E2E2E2E2E2E2E2E2
310
E2E2E2E2E2E2E2E2E2E2E2E2E2E2E2E2E2E2E2E2E2E2E2E2E2E2E2E2E2E2E2E2E2E2E2E2E2E2E2E2E2E2E2E2E2E2E2E2E2E2E2E2E2E2E2E2E2E2E2E2E2E2E2E2E2E2E2E2E2E2E2E2E2E2E2E2E2E2E2E2E2E2E2E2E2E2E2E2E2E2E2E2E2E2E2E2E2E2E2E2E2E2E2E2E2E2E2E2E2E2E2E2E2E2E2E2E2E2E2E2E2E2E2E2E2E2E2
310
E2E2E2E2E2E2E2E2E2E2E2E2E2E2E2E2E2E2E2E2E2E2E2E2E2E2E2E2E2E2E2E2E2E2E2E2E2E2E2E2E2E2E2E2E2E2E2E2E2E2E2E2E2E2E2E2E2E2E2E2E2E2E2E2E2E2E2E2E2E2E2E2E2E2E2E2E2E2E2E2E2E2E2E2E2E2E2E2E2E2E2E2E2E2E2E2E2E2E2E2E2E2E2E2E2E2E2E2E2E2E2E2E2E2E2E2E2E2E2E2E2E2E2E2E2E2E2
310
E2E2E2E2E2E2E2E2E2E2E2E2E2E2E2E2E2E2E2E2E2E2E2E2E2E2E2E2E2E2E2E2E2E2E2E2E2E2E2E2E2E2E2E2E2E2E2E2E2E2E2E2E2E2E2E2E2E2E2E2E2E2E2E2E2E2E2E2E2E2E2E2E2E2E2E2E2E2E2E2E2E2E2E2E2E2E2E2E2E2E2E2E2E2E2E2E2E2E2E2E2E2E2E2E2E2E2E2E2E2E2E2E2E2E2E2E2E2E2E2E2E2E2E2E2E2E2
310
E2E2E2E2E2E2E2E2E2E2E2E2E2E2E2E2E2E2E2E2E2E2E2E2E2E2E2E2E2E2E2E2E2E2E2E2E2E2E2E2E2E2E2E2E2E2E2E2E2E2E2E2E2E2E2E2E2E2E2E2E2E2E2E2E2E2E2E2E2E2E2E2E2E2E2E2E2E2E2E2E2E2E2E2E2E2E2E2E2E2E2E2E2E2E2E2E2E2E2E2E2E2E2E2E2E2E2E2E2E2E2E2E2E2E2E2E2E2E2E2E2E2E2E2E2E2E2
310
E2E2E2E2E2E2E2E2E2E2E2E2E2E2E2E2E2E2E2E2E2E2E2E2E2E2E2E2E2E2E2E2E2E2E2E2E2E2E2E2E2E2E2E2E2E2E2E2E2E2E2E2E2E2E2E2E2E2E2E2E2E2E2E2E2E2E2E2E2E2E2E2E2E2E2E2E2E2E2E2E2E2E2E2E2E2E2E2E2E2E2E2E2E2E2E2E2E2E2E2E2E2E2E2E2E2E2E2E2E2E2E2E2E2E2E2E2E2E2E2E2E2E2E2E2E2E2
310
E2E2E2E2E2E2E2E2E2E2E2E2E2E2E2E2E2E2E2E2E2E2E2E2E2E2E2E2E2E2E2E2E2E2E2E2E2E2E2E2E2E2E2E2E2E2E2E2E2E2E2E2E2E2E2E2E2E2E2E2E2E2E2E2E2E2E2E2E2E2E2E2E2E2E2E2E2E2E2E2E2E2E2E2E2E2E2E2E2E2E2E2E2E2E2E2E2E2E2E2E2E2E2E2E2E2E2E2E2E2E2E2E2E2E2E2E2E2E2E2E2E2E2E2E2E2E2
310
E2E2E2E2E2E2E2E2E2E2E2E2E2E2E2E2E2E2E2E2E2E2E2E2E2E2E2E2E2E2E2E2E2E2E2E2E2E2E2E2E2E2E2E2E2E2E2E2E2E2E2E2E2E2E2E2E2E2E2E2E2E2E2E2E2E2E2E2E2E2E2E2E2E2E2E2E2E2E2E2E2E2E2E2E2E2E2E2E2E2E2E2E2E2E2E2E2E2E2E2E2E2E2E2E2E2E2E2E2E2E2E2E2E2E2E2E2E2E2E2E2E2E2E2E2E2E2
310
E2E2E2E2E2E2E2E2E2E2E2E2E2E2E2E2E2E2E2E2E2E2E2E2E2E2E2E2E2E2E2E2E2E2E2E2E2E2E2E2E2E2E2E2E2E2E2E2E2E2E2E2E2E2E2E2E2E2E2E2E2E2E2E2E2E2E2E2E2E2E2E2E2E2E2E2E2E2E2E2E2E2E2E2E2E2E2E2E2E2E2E2E2E2E2E2E2E2E2E2E2E2E2E2E2E2E2E2E2E2E2E2E2E2E2E2E2E2E2E2E2E2E2E2E2E2E2
310
E2E2E2E2E2E2E2E2E2E2E2E2E2E2E2E2E2E2E2E2E2E2E2E2E2E2E2E2E2E2E2E2E2E2E2E2E2E2E2E2E2E2E2E2E2E2E2E2E2E2E2E2E2E2E2E2E2E2E2E2E2E2E2E2E2E2E2E2E2E2E2E2E2E2E2E2E2E2E2E2E2E2E2E2E2E2E2E2E2E2E2E2E2E2E2E2E2E2E2E2E2E2E2E2E2E2E2E2E2E2E2E2E2E2E2E2E2E2E2E2E2E2E2E2E2E2E2
310
E2E2E2E2E2E2E2E2E2E2E2E2E2E2E2E2E2E2E2E2E2E2E2E2E2E2E2E2E2E2E2E2E2E2E2E2E2E2E2E2E2E2E2E2E2E2E2E2E2E2E2E2E2E2E2E2E2E2E2E2E2E2E2E2E2E2E2E2E2E2E2E2E2E2E2E2E2E2E2E2E2E2E2E2E2E2E2E2E2E2E2E2E2E2E2E2E2E2E2E2E2E2E2E2E2E2E2E2E2E2E2E2E2E2E2E2E2E2E2E2E2E2E2E2E2E2E2
310
E2E2E2E2E2E2E2E2E2E2E2E2E2E2E2E2E2E2E2E2E2E2E2E2E2E2E2E2E2E2E2E2E2E2E2E2E2E2E2E2E2E2E2E2E2E2E2E2E2E2E2E2E2E2E2E2E2E2E2E2E2E2E2E2E2E2E2E2E2E2E2E2E2E2E2E2E2E2E2E2E2E2E2E2E2E2E2E2E2E2E2E2E2E2E2E2E2E2E2E2E2E2E2E2E2E2E2E2E2E2E2E2E2E2E2E2E2E2E2E2E2E2E2E2E2E2E2
310
E2E2E2E2E2E2E2E2E2E2E2E2E2E2E2E2E2E2E2E2E2E2E2E2E2E2E2E2E2E2E2E2E2E2E2E2E2E2E2E2E2E2E2E2E2E2E2E2E2E2E2E2E2E2E2E2E2E2E2E2E2E2E2E2E2E2E2E2E2E2E2E2E2E2E2E2E2E2E2E2E2E2E2E2E2E2E2E2E2E2E2
  0
XRECORD
  5
B71
102
{ACAD_REACTORS
330
46
102
}
330
46
100
AcDbXrecord
280
     1
102
MATERIAL
148
0.0
149
0.0
149
0.0
 93
        0
 94
      127
282
     0
 72
     0
 77
     0
171
     0
175
     0
179
     0
273
     0
  0
XRECORD
  5
47
102
{ACAD_REACTORS
330
46
102
}
330
46
100
AcDbXrecord
280
     1
270
     1
271
     1
  0
XRECORD
  5
48
102
{ACAD_REACTORS
330
46
102
}
330
46
100
AcDbXrecord
280
     1
270
     1
271
     1
  0
XRECORD
  5
49
102
{ACAD_REACTORS
330
46
102
}
330
46
100
AcDbXrecord
280
     1
270
     1
271
     1
  0
XRECORD
  5
4A
102
{ACAD_REACTORS
330
46
102
}
330
46
100
AcDbXrecord
280
     1
270
     1
271
     1
  0
XRECORD
  5
4B
102
{ACAD_REACTORS
330
46
102
}
330
46
100
AcDbXrecord
280
     1
270
     1
271
     1
  0
XRECORD
  5
4C
102
{ACAD_REACTORS
330
46
102
}
330
46
100
AcDbXrecord
280
     1
270
     1
271
     1
  0
XRECORD
  5
B70
102
{ACAD_REACTORS
330
3E
102
}
330
3E
100
AcDbXrecord
280
     1
102
MATERIAL
148
0.0
149
0.0
149
0.0
 93
        0
 94
      127
282
     0
 72
     0
 77
     0
171
     0
175
     0
179
     0
273
     0
  0
XRECORD
  5
3F
102
{ACAD_REACTORS
330
3E
102
}
330
3E
100
AcDbXrecord
280
     1
270
     1
271
     1
  0
XRECORD
  5
40
102
{ACAD_REACTORS
330
3E
102
}
330
3E
100
AcDbXrecord
280
     1
270
     1
271
     1
  0
XRECORD
  5
41
102
{ACAD_REACTORS
330
3E
102
}
330
3E
100
AcDbXrecord
280
     1
270
     1
271
     1
  0
XRECORD
  5
42
102
{ACAD_REACTORS
330
3E
102
}
330
3E
100
AcDbXrecord
280
     1
270
     1
271
     1
  0
XRECORD
  5
43
102
{ACAD_REACTORS
330
3E
102
}
330
3E
100
AcDbXrecord
280
     1
270
     1
271
     1
  0
XRECORD
  5
44
102
{ACAD_REACTORS
330
3E
102
}
330
3E
100
AcDbXrecord
280
     1
270
     1
271
     1
  0
XRECORD
  5
B69
102
{ACAD_REACTORS
330
D
102
}
330
D
100
AcDbXrecord
280
     1
102
MATERIAL
148
0.0
149
0.0
149
0.0
 93
        0
 94
      127
282
     0
 72
     0
 77
     0
171
     0
175
     0
179
     0
273
     0
  0
XRECORD
  5
E
102
{ACAD_REACTORS
330
D
102
}
330
D
100
AcDbXrecord
280
     1
270
     1
271
     1
  0
XRECORD
  5
F
102
{ACAD_REACTORS
330
D
102
}
330
D
100
AcDbXrecord
280
     1
270
     1
271
     1
  0
XRECORD
  5
10
102
{ACAD_REACTORS
330
D
102
}
330
D
100
AcDbXrecord
280
     1
270
     1
271
     1
  0
XRECORD
  5
11
102
{ACAD_REACTORS
330
D
102
}
330
D
100
AcDbXrecord
280
     1
270
     1
271
     1
  0
XRECORD
  5
12
102
{ACAD_REACTORS
330
D
102
}
330
D
100
AcDbXrecord
280
     1
270
     1
271
     1
  0
XRECORD
  5
13
102
{ACAD_REACTORS
330
D
102
}
330
D
100
AcDbXrecord
280
     1
270
     1
271
     1
  0
CELLSTYLEMAP
  5
3146
102
{ACAD_REACTORS
330
B00
102
}
330
B00
100
AcDbCellStyleMap
 90
        3
300
CELLSTYLE
  1
TABLEFORMAT_BEGIN
 90
        5
170
     1
 91
        0
 92
    32768
 62
   257
 93
        1
300
CONTENTFORMAT
  1
CONTENTFORMAT_BEGIN
 90
        0
 91
        0
 92
        4
 93
        0
300

 40
0.0
140
1.0
 94
        5
 62
     0
340
23
144
6.0
309
CONTENTFORMAT_END
171
     1
301
MARGIN
  1
CELLMARGIN_BEGIN
 40
1.5
 40
1.5
 40
1.5
 40
1.5
 40
0.18
 40
0.18
309
CELLMARGIN_END
 94
        6
 95
        1
302
GRIDFORMAT
  1
GRIDFORMAT_BEGIN
 90
        0
 91
        1
 62
     0
 92
       -2
340
0
 93
        0
 40
0.045
309
GRIDFORMAT_END
 95
        2
302
GRIDFORMAT
  1
GRIDFORMAT_BEGIN
 90
        0
 91
        1
 62
     0
 92
       -2
340
0
 93
        0
 40
0.045
309
GRIDFORMAT_END
 95
        4
302
GRIDFORMAT
  1
GRIDFORMAT_BEGIN
 90
        0
 91
        1
 62
     0
 92
       -2
340
0
 93
        0
 40
0.045
309
GRIDFORMAT_END
 95
        8
302
GRIDFORMAT
  1
GRIDFORMAT_BEGIN
 90
        0
 91
        1
 62
     0
 92
       -2
340
0
 93
        0
 40
0.045
309
GRIDFORMAT_END
 95
       16
302
GRIDFORMAT
  1
GRIDFORMAT_BEGIN
 90
        0
 91
        1
 62
     0
 92
       -2
340
0
 93
        0
 40
0.045
309
GRIDFORMAT_END
 95
       32
302
GRIDFORMAT
  1
GRIDFORMAT_BEGIN
 90
        0
 91
        1
 62
     0
 92
       -2
340
0
 93
        0
 40
0.045
309
GRIDFORMAT_END
309
TABLEFORMAT_END
  1
CELLSTYLE_BEGIN
 90
        1
 91
        1
300
_TITLE
309
CELLSTYLE_END
300
CELLSTYLE
  1
TABLEFORMAT_BEGIN
 90
        5
170
     1
 91
        0
 92
        0
 62
   257
 93
        1
300
CONTENTFORMAT
  1
CONTENTFORMAT_BEGIN
 90
        0
 91
        0
 92
        4
 93
        0
300

 40
0.0
140
1.0
 94
        5
 62
     0
340
23
144
4.5
309
CONTENTFORMAT_END
171
     1
301
MARGIN
  1
CELLMARGIN_BEGIN
 40
1.5
 40
1.5
 40
1.5
 40
1.5
 40
0.18
 40
0.18
309
CELLMARGIN_END
 94
        6
 95
        1
302
GRIDFORMAT
  1
GRIDFORMAT_BEGIN
 90
        0
 91
        1
 62
     0
 92
       -2
340
0
 93
        0
 40
0.045
309
GRIDFORMAT_END
 95
        2
302
GRIDFORMAT
  1
GRIDFORMAT_BEGIN
 90
        0
 91
        1
 62
     0
 92
       -2
340
0
 93
        0
 40
0.045
309
GRIDFORMAT_END
 95
        4
302
GRIDFORMAT
  1
GRIDFORMAT_BEGIN
 90
        0
 91
        1
 62
     0
 92
       -2
340
0
 93
        0
 40
0.045
309
GRIDFORMAT_END
 95
        8
302
GRIDFORMAT
  1
GRIDFORMAT_BEGIN
 90
        0
 91
        1
 62
     0
 92
       -2
340
0
 93
        0
 40
0.045
309
GRIDFORMAT_END
 95
       16
302
GRIDFORMAT
  1
GRIDFORMAT_BEGIN
 90
        0
 91
        1
 62
     0
 92
       -2
340
0
 93
        0
 40
0.045
309
GRIDFORMAT_END
 95
       32
302
GRIDFORMAT
  1
GRIDFORMAT_BEGIN
 90
        0
 91
        1
 62
     0
 92
       -2
340
0
 93
        0
 40
0.045
309
GRIDFORMAT_END
309
TABLEFORMAT_END
  1
CELLSTYLE_BEGIN
 90
        2
 91
        1
300
_HEADER
309
CELLSTYLE_END
300
CELLSTYLE
  1
TABLEFORMAT_BEGIN
 90
        5
170
     1
 91
        0
 92
        0
 62
   257
 93
        1
300
CONTENTFORMAT
  1
CONTENTFORMAT_BEGIN
 90
        0
 91
        0
 92
        4
 93
        0
300

 40
0.0
140
1.0
 94
        2
 62
     0
340
23
144
4.5
309
CONTENTFORMAT_END
171
     1
301
MARGIN
  1
CELLMARGIN_BEGIN
 40
1.5
 40
1.5
 40
1.5
 40
1.5
 40
0.18
 40
0.18
309
CELLMARGIN_END
 94
        6
 95
        1
302
GRIDFORMAT
  1
GRIDFORMAT_BEGIN
 90
        0
 91
        1
 62
     0
 92
       -2
340
0
 93
        0
 40
0.045
309
GRIDFORMAT_END
 95
        2
302
GRIDFORMAT
  1
GRIDFORMAT_BEGIN
 90
        0
 91
        1
 62
     0
 92
       -2
340
0
 93
        0
 40
0.045
309
GRIDFORMAT_END
 95
        4
302
GRIDFORMAT
  1
GRIDFORMAT_BEGIN
 90
        0
 91
        1
 62
     0
 92
       -2
340
0
 93
        0
 40
0.045
309
GRIDFORMAT_END
 95
        8
302
GRIDFORMAT
  1
GRIDFORMAT_BEGIN
 90
        0
 91
        1
 62
     0
 92
       -2
340
0
 93
        0
 40
0.045
309
GRIDFORMAT_END
 95
       16
302
GRIDFORMAT
  1
GRIDFORMAT_BEGIN
 90
        0
 91
        1
 62
     0
 92
       -2
340
0
 93
        0
 40
0.045
309
GRIDFORMAT_END
 95
       32
302
GRIDFORMAT
  1
GRIDFORMAT_BEGIN
 90
        0
 91
        1
 62
     0
 92
       -2
340
0
 93
        0
 40
0.045
309
GRIDFORMAT_END
309
TABLEFORMAT_END
  1
CELLSTYLE_BEGIN
 90
        3
 91
        2
300
_DATA
309
CELLSTYLE_END
  0
XRECORD
  5
314E
102
{ACAD_REACTORS
330
B00
102
}
330
B00
100
AcDbXrecord
280
     1
102
ACAD_ROUNDTRIP_PRE2007_TABLESTYLE
 90
        4
 91
        0
  1

 92
        4
 93
        0
  2

 94
        4
 95
        0
  3

  0
ENDSEC
  0
EOF
