  0
SECTION
  2
HEADER
  9
$ACADVER
  1
AC1015
  9
$ACADMAINTVER
 70
    20
  9
$DWGCODEPAGE
  3
ANSI_932
  9
$INSBASE
 10
0.0
 20
0.0
 30
0.0
  9
$EXTMIN
 10
9101.008297856944
 20
-778.811762769973
 30
-0.000000000000013
  9
$EXTMAX
 10
10920.44526081574
 20
785.5791820226555
 30
0.0000000000000023
  9
$LIMMIN
 10
0.0
 20
0.0
  9
$LIMMAX
 10
420.0
 20
297.0
  9
$ORTHOMODE
 70
     0
  9
$REGENMODE
 70
     1
  9
$FILLMODE
 70
     1
  9
$QTEXTMODE
 70
     0
  9
$MIRRTEXT
 70
     1
  9
$LTSCALE
 40
1.0
  9
$ATTMODE
 70
     1
  9
$TEXTSIZE
 40
62.5215949741746
  9
$TRACEWID
 40
1.0
  9
$TEXTSTYLE
  7
STANDARD
  9
$CLAYER
  8
SIZE
  9
$CELTYPE
  6
BYLAYER
  9
$CECOLOR
 62
   256
  9
$CELTSCALE
 40
1.0
  9
$DISPSILH
 70
     0
  9
$DIMSCALE
 40
10.0
  9
$DIMASZ
 40
2.0
  9
$DIMEXO
 40
1.0
  9
$DIMDLI
 40
3.75
  9
$DIMRND
 40
0.5
  9
$DIMDLE
 40
0.0
  9
$DIMEXE
 40
1.0
  9
$DIMTP
 40
0.0
  9
$DIMTM
 40
0.0
  9
$DIMTXT
 40
2.0
  9
$DIMCEN
 40
2.5
  9
$DIMTSZ
 40
0.0
  9
$DIMTOL
 70
     0
  9
$DIMLIM
 70
     0
  9
$DIMTIH
 70
     0
  9
$DIMTOH
 70
     0
  9
$DIMSE1
 70
     0
  9
$DIMSE2
 70
     0
  9
$DIMTAD
 70
     1
  9
$DIMZIN
 70
     8
  9
$DIMBLK
  1

  9
$DIMASO
 70
     1
  9
$DIMSHO
 70
     1
  9
$DIMPOST
  1

  9
$DIMAPOST
  1

  9
$DIMALT
 70
     0
  9
$DIMALTD
 70
     4
  9
$DIMALTF
 40
0.0394
  9
$DIMLFAC
 40
1.0
  9
$DIMTOFL
 70
     1
  9
$DIMTVP
 40
0.0
  9
$DIMTIX
 70
     0
  9
$DIMSOXD
 70
     0
  9
$DIMSAH
 70
     1
  9
$DIMBLK1
  1
OPEN30
  9
$DIMBLK2
  1
OPEN30
  9
$DIMSTYLE
  2
STANDARD
  9
$DIMCLRD
 70
     0
  9
$DIMCLRE
 70
     0
  9
$DIMCLRT
 70
     0
  9
$DIMTFAC
 40
1.0
  9
$DIMGAP
 40
1.0
  9
$DIMJUST
 70
     0
  9
$DIMSD1
 70
     0
  9
$DIMSD2
 70
     0
  9
$DIMTOLJ
 70
     1
  9
$DIMTZIN
 70
     8
  9
$DIMALTZ
 70
     0
  9
$DIMALTTZ
 70
     0
  9
$DIMUPT
 70
     0
  9
$DIMDEC
 70
     1
  9
$DIMTDEC
 70
     1
  9
$DIMALTU
 70
     8
  9
$DIMALTTD
 70
     4
  9
$DIMTXSTY
  7
STANDARD
  9
$DIMAUNIT
 70
     0
  9
$DIMADEC
 70
     0
  9
$DIMALTRND
 40
0.0
  9
$DIMAZIN
 70
     0
  9
$DIMDSEP
 70
    46
  9
$DIMATFIT
 70
     3
  9
$DIMFRAC
 70
     0
  9
$DIMLDRBLK
  1
OPEN30
  9
$DIMLUNIT
 70
     2
  9
$DIMLWD
 70
    -2
  9
$DIMLWE
 70
    -2
  9
$DIMTMOVE
 70
     0
  9
$LUNITS
 70
     2
  9
$LUPREC
 70
     2
  9
$SKETCHINC
 40
1.0
  9
$FILLETRAD
 40
10.0
  9
$AUNITS
 70
     0
  9
$AUPREC
 70
     0
  9
$MENU
  1
.
  9
$ELEVATION
 40
0.0
  9
$PELEVATION
 40
0.0
  9
$THICKNESS
 40
0.0
  9
$LIMCHECK
 70
     0
  9
$CHAMFERA
 40
10.0
  9
$CHAMFERB
 40
10.0
  9
$CHAMFERC
 40
20.0
  9
$CHAMFERD
 40
0.0
  9
$SKPOLY
 70
     0
  9
$TDCREATE
 40
2451324.468257373
  9
$TDUCREATE
 40
2451324.093257373
  9
$TDUPDATE
 40
2455891.637884491
  9
$TDUUPDATE
 40
2455891.262884491
  9
$TDINDWG
 40
1.9799985185
  9
$TDUSRTIMER
 40
1.9799977894
  9
$USRTIMER
 70
     1
  9
$ANGBASE
 50
0.0
  9
$ANGDIR
 70
     0
  9
$PDMODE
 70
     0
  9
$PDSIZE
 40
0.0
  9
$PLINEWID
 40
0.0
  9
$SPLFRAME
 70
     0
  9
$SPLINETYPE
 70
     6
  9
$SPLINESEGS
 70
     8
  9
$HANDSEED
  5
24B6
  9
$SURFTAB1
 70
     6
  9
$SURFTAB2
 70
     6
  9
$SURFTYPE
 70
     6
  9
$SURFU
 70
     6
  9
$SURFV
 70
     6
  9
$UCSBASE
  2

  9
$UCSNAME
  2

  9
$UCSORG
 10
0.0
 20
0.0
 30
0.0
  9
$UCSXDIR
 10
1.0
 20
0.0
 30
0.0
  9
$UCSYDIR
 10
0.0
 20
1.0
 30
0.0
  9
$UCSORTHOREF
  2

  9
$UCSORTHOVIEW
 70
     0
  9
$UCSORGTOP
 10
0.0
 20
0.0
 30
0.0
  9
$UCSORGBOTTOM
 10
0.0
 20
0.0
 30
0.0
  9
$UCSORGLEFT
 10
0.0
 20
0.0
 30
0.0
  9
$UCSORGRIGHT
 10
0.0
 20
0.0
 30
0.0
  9
$UCSORGFRONT
 10
0.0
 20
0.0
 30
0.0
  9
$UCSORGBACK
 10
0.0
 20
0.0
 30
0.0
  9
$PUCSBASE
  2

  9
$PUCSNAME
  2

  9
$PUCSORG
 10
0.0
 20
0.0
 30
0.0
  9
$PUCSXDIR
 10
1.0
 20
0.0
 30
0.0
  9
$PUCSYDIR
 10
0.0
 20
1.0
 30
0.0
  9
$PUCSORTHOREF
  2

  9
$PUCSORTHOVIEW
 70
     0
  9
$PUCSORGTOP
 10
0.0
 20
0.0
 30
0.0
  9
$PUCSORGBOTTOM
 10
0.0
 20
0.0
 30
0.0
  9
$PUCSORGLEFT
 10
0.0
 20
0.0
 30
0.0
  9
$PUCSORGRIGHT
 10
0.0
 20
0.0
 30
0.0
  9
$PUCSORGFRONT
 10
0.0
 20
0.0
 30
0.0
  9
$PUCSORGBACK
 10
0.0
 20
0.0
 30
0.0
  9
$USERI1
 70
     0
  9
$USERI2
 70
     0
  9
$USERI3
 70
     0
  9
$USERI4
 70
     0
  9
$USERI5
 70
     0
  9
$USERR1
 40
0.0
  9
$USERR2
 40
0.0
  9
$USERR3
 40
0.0
  9
$USERR4
 40
0.0
  9
$USERR5
 40
0.0
  9
$WORLDVIEW
 70
     1
  9
$SHADEDGE
 70
     3
  9
$SHADEDIF
 70
    70
  9
$TILEMODE
 70
     1
  9
$MAXACTVP
 70
    48
  9
$PINSBASE
 10
0.0
 20
0.0
 30
0.0
  9
$PLIMCHECK
 70
     0
  9
$PEXTMIN
 10
-1439.804583653114
 20
-1400.237631316938
 30
0.0
  9
$PEXTMAX
 10
2872.968780515991
 20
1675.790811506817
 30
0.0
  9
$PLIMMIN
 10
0.0
 20
0.0
  9
$PLIMMAX
 10
12.0
 20
9.0
  9
$UNITMODE
 70
     0
  9
$VISRETAIN
 70
     1
  9
$PLINEGEN
 70
     0
  9
$PSLTSCALE
 70
     1
  9
$TREEDEPTH
 70
  3020
  9
$CMLSTYLE
  2
STANDARD
  9
$CMLJUST
 70
     0
  9
$CMLSCALE
 40
20.0
  9
$PROXYGRAPHICS
 70
     1
  9
$MEASUREMENT
 70
     1
  9
$CELWEIGHT
370
    -1
  9
$ENDCAPS
280
     0
  9
$JOINSTYLE
280
     0
  9
$LWDISPLAY
290
     0
  9
$INSUNITS
 70
     0
  9
$HYPERLINKBASE
  1

  9
$STYLESHEET
  1

  9
$XEDIT
290
     1
  9
$CEPSNTYPE
380
     0
  9
$PSTYLEMODE
290
     1
  9
$FINGERPRINTGUID
  2
{7B48495B-9D62-4076-8CB1-8ACA882609AE}
  9
$VERSIONGUID
  2
{24348149-530F-4930-A190-9E9D62FC3B2D}
  9
$EXTNAMES
290
     1
  9
$PSVPSCALE
 40
0.0
  9
$OLESTARTUP
290
     0
  0
ENDSEC
  0
SECTION
  2
CLASSES
  0
CLASS
  1
ACDBDICTIONARYWDFLT
  2
AcDbDictionaryWithDefault
  3
ObjectDBX Classes
 90
        0
280
     0
281
     0
  0
CLASS
  1
ACDBPLACEHOLDER
  2
AcDbPlaceHolder
  3
ObjectDBX Classes
 90
        0
280
     0
281
     0
  0
CLASS
  1
LAYOUT
  2
AcDbLayout
  3
ObjectDBX Classes
 90
        0
280
     0
281
     0
  0
CLASS
  1
ACME_DOCUMENT
  2
AcMeDbDoc
  3
AcMeServices
 90
     1024
280
     0
281
     0
  0
CLASS
  1
AMGSETTINGSOBJ
  2
AmgSettingsObj
  3
"AcadM|Product Description: AutoCAD Mechanical|Company: Autodesk, Inc."
 90
     1024
280
     0
281
     0
  0
CLASS
  1
ACMESCOPE
  2
AcMeScope
  3
AcMeServices
 90
     1024
280
     0
281
     0
  0
CLASS
  1
ACMECOMMANDHISTORY
  2
AcMeCommandHistory
  3
AcMeServices
 90
     1024
280
     0
281
     0
  0
CLASS
  1
DICTIONARYVAR
  2
AcDbDictionaryVar
  3
ObjectDBX Classes
 90
        0
280
     0
281
     0
  0
CLASS
  1
ACIMSYSVARMAN
  2
AcImSysVarManager
  3
AcMeServices
 90
     1024
280
     0
281
     0
  0
CLASS
  1
ACIMREALSYSVAR
  2
AcImRealSysVar
  3
AcMeServices
 90
     1024
280
     0
281
     0
  0
CLASS
  1
ACIMINTSYSVAR
  2
AcImIntSysVar
  3
AcMeServices
 90
     1024
280
     0
281
     0
  0
CLASS
  1
ACMEDRAWINGMAN
  2
AcMeDrawingMan
  3
AcMeServices
 90
     1024
280
     0
281
     0
  0
CLASS
  1
ACMEVIEW
  2
AcMeView
  3
AcMeServices
 90
     1024
280
     0
281
     0
  0
CLASS
  1
ACDBENTITYCACHE
  2
AcMeEntityCache
  3
AcMeServices
 90
     1024
280
     0
281
     0
  0
CLASS
  1
GSMANAGER
  2
AcMeGSManager
  3
AcMeServices
 90
     1024
280
     0
281
     0
  0
CLASS
  1
AMDTINTERNALREACTOR
  2
AmdtInternalReactor
  3
AcMeServices
 90
     1024
280
     0
281
     0
  0
CLASS
  1
ACMESTATEMGR
  2
AcMeStateMgr
  3
AcMeServices
 90
     1024
280
     0
281
     0
  0
CLASS
  1
ACGREFMASTER
  2
AcGrefMaster
  3
AcAttribServices
 90
     1024
280
     0
281
     0
  0
CLASS
  1
AM_DRAWING_MGR
  2
AcDmDwgMgr
  3
AcMechDwgViewMgmt
 90
     1024
280
     0
281
     0
  0
CLASS
  1
AM_DWG_DOCUMENT
  2
AcDmDwgDocument
  3
AcMechDwgViewMgmt
 90
     1024
280
     0
281
     0
  0
CLASS
  1
AM_DWG_SHEET
  2
AcDmSheet
  3
AcMechDwgViewMgmt
 90
     1024
280
     0
281
     0
  0
CLASS
  1
AM_VIEWDIMPARMAP
  2
AcDmViewDimParMap
  3
AcMechDwgViewMgmt
 90
     1024
280
     0
281
     0
  0
CLASS
  1
AM_DWGMGR_NAME
  2
AcDmDwgMgrName
  3
AcMechDwgViewMgmt
 90
     1024
280
     0
281
     0
  0
CLASS
  1
ACME_DATABASE
  2
AcMeDbDatabase
  3
AcMeServices
 90
     1024
280
     0
281
     0
  0
CLASS
  1
ACRFINSADJUSTERMGR
  2
AcRfInsAdjusterMgr
  3
AcMeServices
 90
     1024
280
     0
281
     0
  0
CLASS
  1
ACGREFACADMASTER
  2
AcGrefacadMaster
  3
AcGrefServices
 90
     1024
280
     0
281
     0
  0
CLASS
  1
AMDTMENUSTATEMGR
  2
AmdtMenuStateMgr
  3
McadcomServices
 90
     1024
280
     0
281
     0
  0
CLASS
  1
AMDTMCOMMENUSTATE
  2
AmdtMcomMenuState
  3
McadcomServices
 90
     1024
280
     0
281
     0
  0
CLASS
  1
AMIMASTER
  2
AmiMaster
  3
AmiServices
 90
     1024
280
     0
281
     0
  0
CLASS
  1
ASAPP
  2
AcAsAppObject
  3
AutoSurfServices
 90
     1024
280
     0
281
     0
  0
CLASS
  1
IM_STATIC_MAN
  2
AcImStaticVarManager
  3
AcMeServices
 90
     1024
280
     0
281
     0
  0
CLASS
  1
ACIMSTRSYSVAR
  2
AcImStrSysVar
  3
AcMeServices
 90
     1024
280
     0
281
     0
  0
CLASS
  1
ACIMDBLSTATICVAR
  2
AcImDblStaticVar
  3
AcMeServices
 90
     1024
280
     0
281
     0
  0
CLASS
  1
ACIMSTRSTATICVAR
  2
AcImStrStaticVar
  3
AcMeServices
 90
     1024
280
     0
281
     0
  0
CLASS
  1
ACIMINTSTATICVAR
  2
AcImIntStaticVar
  3
AcMeServices
 90
     1024
280
     0
281
     0
  0
CLASS
  1
ACASGREFMASTER
  2
AcAsGrefMaster
  3
AutoSurfResolverServices
 90
     1024
280
     0
281
     0
  0
CLASS
  1
ACADGREFMODULE
  2
AcAdGrefModule
  3
AdGrefServices
 90
     1024
280
     0
281
     0
  0
CLASS
  1
AMDTMAPISURFMOUDULE
  2
AmdtMApiSurfModule
  3
MApiSurfServices
 90
     1024
280
     0
281
     0
  0
CLASS
  1
MAPIAMMOUDLE
  2
MApiAmModule
  3
MApiAmServices
 90
     1024
280
     0
281
     0
  0
CLASS
  1
AMDTADMENUSTATE
  2
AmdtAdMenuState
  3
DesignerServices
 90
     1024
280
     0
281
     0
  0
CLASS
  1
ADAPPL
  2
AcAdAppl
  3
DesignerServices
 90
     1024
280
     0
281
     0
  0
CLASS
  1
DEPMGR
  2
AcAdDepMgr
  3
DesignerServices
 90
     1024
280
     0
281
     0
  0
CLASS
  1
PARAMMGR
  2
AcAdParamMgr
  3
DesignerServices
 90
     1024
280
     0
281
     0
  0
CLASS
  1
PARAMSCOPE
  2
AcAdParamScope
  3
DesignerServices
 90
     1024
280
     0
281
     0
  0
CLASS
  1
NAMEDAPPL
  2
AcAdNamedAppl
  3
DesignerServices
 90
     1024
280
     0
281
     0
  0
CLASS
  1
ADHNTMPLT
  2
AdHoleNoteTemplateMgr
  3
DesignerServices
 90
    33792
280
     0
281
     0
  0
CLASS
  1
AM_HNTEMPLATE_MGR_NAME
  2
AdHoleNoteTemplateMgrName
  3
DesignerServices
 90
    33792
280
     0
281
     0
  0
CLASS
  1
AMDTDMMENUSTATE
  2
AmdtDmMenuState
  3
AcMechDwgViewMgmt
 90
     1024
280
     0
281
     0
  0
CLASS
  1
MAPIADMODULE
  2
MApiAdModule
  3
MApiAdServices
 90
     1024
280
     0
281
     0
  0
CLASS
  1
AMDTAMMENUSTATE
  2
AmdtAmMenuState
  3
DesignerAssemblies
 90
     1024
280
     0
281
     0
  0
CLASS
  1
ACAMPROJECT
  2
AcAmProject
  3
DesignerAssemblies
 90
     1024
280
     0
281
     0
  0
CLASS
  1
ACAMGRCOMPDEF
  2
AcAmGrCompDef
  3
DesignerAssemblies
 90
     1024
280
     0
281
     0
  0
CLASS
  1
ACCMCONTEXT
  2
AcCmContext
  3
DesignerAssemblies
 90
     1024
280
     0
281
     0
  0
CLASS
  1
ACAMCOMPDEF
  2
AcAmCompDef
  3
DesignerAssemblies
 90
     1024
280
     0
281
     0
  0
CLASS
  1
ACAMCOMPDEFMGR
  2
AcAmCompDefMgr
  3
DesignerAssemblies
 90
     1024
280
     0
281
     0
  0
CLASS
  1
AMCONTEXTMGR
  2
AcAmContextMgr
  3
DesignerAssemblies
 90
     1024
280
     0
281
     0
  0
CLASS
  1
ACAMCONTEXTMODELER
  2
AcAmContextModeler
  3
DesignerAssemblies
 90
     1024
280
     0
281
     0
  0
CLASS
  1
ACMDATADICTIONARY
  2
AcmDataDictionary
  3
"AcmSymBB|Product Description: AutoCAD Mechanical|Company: Autodesk, Inc."
 90
     1024
280
     0
281
     0
  0
CLASS
  1
ACMDATAENTRYBLOCK
  2
AcmDataEntryBlock
  3
AcmSymBB|Product Description: AutoCAD Mechanical|Company: Autodesk, Inc.
 90
     1024
280
     0
281
     0
  0
CLASS
  1
CATALOGSTATE
  2
AcAmCatalogState
  3
DesignerAssemblies
 90
     1024
280
     0
281
     0
  0
CLASS
  1
ACAMGRCOMPDEFSET
  2
AcAmGrCompDefSet
  3
DesignerAssemblies
 90
     1024
280
     0
281
     0
  0
CLASS
  1
AMDTBROWSERDBTAB
  2
AmdtBrowserDbTab
  3
McadcomServices
 90
     1024
280
     0
281
     0
  0
CLASS
  1
CBROWSERAPPOBJECT
  2
CBrowserAppObject
  3
McadcomServices
 90
     1024
280
     0
281
     0
  0
CLASS
  1
DM_PLACEHOLDER
  2
AcDmSelsetPlaceholder
  3
AcMechDwgViewMgmt
 90
     1024
280
     0
281
     0
  0
CLASS
  1
ACMSTANDARDISO
  2
AcmStandardISO
  3
"Amdt_StdImp|Product Description: AutoCAD Mechanical|Company: Autodesk, Inc."
 90
     1024
280
     0
281
     0
  0
CLASS
  1
AMGOBJPROPCFG
  2
AmgObjPropCfg
  3
"AmgLay|Product Description: AutoCAD Mechanical|Company: Autodesk, Inc."
 90
     1025
280
     0
281
     0
  0
CLASS
  1
AMDTEDGESTANDARDISO
  2
AmdtEdgeStdISO
  3
"Amdt_StdImp|Product Description: AutoCAD Mechanical|Company: Autodesk, Inc."
 90
    33792
280
     0
281
     0
  0
CLASS
  1
ACMSURFSTANDARDISO
  2
AcmSurfTextStdISO
  3
"Amdt_StdImp|Product Description: AutoCAD Mechanical|Company: Autodesk, Inc."
 90
    33792
280
     0
281
     0
  0
CLASS
  1
ACMFCFSTANDARDISO
  2
AcmFCFStdISO
  3
"Amdt_StdImp|Product Description: AutoCAD Mechanical|Company: Autodesk, Inc."
 90
     1024
280
     0
281
     0
  0
CLASS
  1
ACMWELDSTANDARDISO
  2
AcmWeldingStdISO
  3
"Amdt_StdImp|Product Description: AutoCAD Mechanical|Company: Autodesk, Inc."
 90
     1024
280
     0
281
     0
  0
CLASS
  1
ACMIDSTANDARDISO
  2
AcmIdStdISO
  3
"Amdt_StdImp|Product Description: AutoCAD Mechanical|Company: Autodesk, Inc."
 90
     1024
280
     0
281
     0
  0
CLASS
  1
ACMDATUMSTANDARDISO
  2
AcmDatumStdISO
  3
"Amdt_StdImp|Product Description: AutoCAD Mechanical|Company: Autodesk, Inc."
 90
     1024
280
     0
281
     0
  0
CLASS
  1
ACMBOMSTANDARDISO
  2
AcmBOMStdISO
  3
"Amdt_StdImp|Product Description: AutoCAD Mechanical|Company: Autodesk, Inc."
 90
     1024
280
     0
281
     0
  0
CLASS
  1
ACMDETAILSTANDARDISO
  2
AmdtDetailSymStdISO
  3
"Amdt_StdImp|Product Description: AutoCAD Mechanical|Company: Autodesk, Inc."
 90
     1024
280
     0
281
     0
  0
CLASS
  1
ACMSECTIONSTANDARDISO
  2
AmdtSectionSymStdISO
  3
"Amdt_StdImp|Product Description: AutoCAD Mechanical|Company: Autodesk, Inc."
 90
    33792
280
     0
281
     0
  0
CLASS
  1
ACMCENTERLINESTANDARDISO
  2
AmdtCenterLineStdISO
  3
"Amdt_StdImp|Product Description: AutoCAD Mechanical|Company: Autodesk, Inc."
 90
     1024
280
     0
281
     0
  0
CLASS
  1
ACMTHREADLINESTANDARDISO
  2
AmdtThreadLineStdISO
  3
"Amdt_StdImp|Product Description: AutoCAD Mechanical|Company: Autodesk, Inc."
 90
     1024
280
     0
281
     0
  0
CLASS
  1
ACAMGLAYSTD
  2
AcAmgLayStd
  3
"AmgLay|Product Description: AutoCAD Mechanical|Company: Autodesk, Inc."
 90
     1024
280
     0
281
     0
  0
CLASS
  1
ACAMGDIMSTD
  2
AcAmgDimStd
  3
"AmgDim|Product Description: AutoCAD Mechanical|Company: Autodesk, Inc."
 90
     1024
280
     0
281
     0
  0
CLASS
  1
ACAMGTITLESTD
  2
AcAmgTitleStd
  3
"AmgTitle|Product Description: AutoCAD Mechanical|Company: Autodesk, Inc."
 90
     4095
280
     0
281
     0
  0
CLASS
  1
ACAMGFILTERDAT
  2
AcAmgFilterDat
  3
"AcadM|Product Description: AutoCAD Mechanical|Company: Autodesk, Inc."
 90
     1024
280
     0
281
     0
  0
CLASS
  1
AMDTFORMULAUPDATEDISPATCHER
  2
AmdtFormulaUpdateDispatcher
  3
AcMeServices
 90
    33792
280
     0
281
     0
  0
CLASS
  1
LAYER_INDEX
  2
AcDbLayerIndex
  3
ObjectDBX Classes
 90
        0
280
     0
281
     0
  0
CLASS
  1
IDBUFFER
  2
AcDbIdBuffer
  3
ObjectDBX Classes
 90
        0
280
     0
281
     0
  0
CLASS
  1
TABLESTYLE
  2
AcDbTableStyle
  3
ObjectDBX Classes
 90
     4095
280
     0
281
     0
  0
CLASS
  1
ACMNOTESTANDARDISO
  2
AmdtNoteStdISO
  3
"Amdt_StdImp|Product Description: AutoCAD Mechanical|Company: Autodesk, Inc."
 90
     1024
280
     0
281
     0
  0
CLASS
  1
AMDTNOTETEMPLATEDB
  2
AmdtNoteTemplateDB
  3
AcmSymBB|Product Description: AutoCAD Mechanical|Company: Autodesk, Inc.
 90
     1024
280
     0
281
     0
  0
CLASS
  1
ACAMEXTERNALCOMPDEF
  2
AcAmExternalCompDef
  3
DesignerAssemblies
 90
    33792
280
     0
281
     0
  0
CLASS
  1
ACCMBODY
  2
AcCmBody
  3
DesignerAssemblies
 90
    33792
280
     0
281
     0
  0
CLASS
  1
ACAMCOMPENT
  2
AcAmCompEnt
  3
DesignerAssemblies
 90
    33792
280
     0
281
     1
  0
CLASS
  1
ACAMCOMPFEEDBACK
  2
AcAmCompFeedback
  3
DesignerAssemblies
 90
    33792
280
     0
281
     0
  0
CLASS
  1
ACAMCOMP
  2
AcAmComp
  3
DesignerAssemblies
 90
    33792
280
     0
281
     0
  0
CLASS
  1
ACAMCOMPENTCLONE
  2
AcAmCompEntClone
  3
DesignerAssemblies
 90
    33792
280
     0
281
     1
  0
CLASS
  1
ACAMCLONEREACTOR
  2
AcAmGrCompCloneReactor
  3
DesignerAssemblies
 90
    33792
280
     0
281
     0
  0
CLASS
  1
EDGEID
  2
AcAdEdgeId
  3
DesignerServices
 90
    33792
280
     0
281
     0
  0
CLASS
  1
ACADPARTLINEDGRES
  2
AcAdPartLinEdgRes
  3
AdGrefServices
 90
    33792
280
     0
281
     0
  0
CLASS
  1
ACRFINSADJ
  2
AcRfInsAdjuster
  3
AcMeServices
 90
    33792
280
     0
281
     0
  0
CLASS
  1
STREFID
  2
AcAdStraightRefId
  3
DesignerServices
 90
    33792
280
     0
281
     0
  0
CLASS
  1
ACMEAXIS
  2
AcImAxisDisplay
  3
AcMeServices
 90
    33792
280
     0
281
     1
  0
CLASS
  1
FACEID
  2
AcAdFaceId
  3
DesignerServices
 90
    33792
280
     0
281
     0
  0
CLASS
  1
DEPEDGESECONDARYDEPID
  2
AcAdDepEdgeSecondaryDepId
  3
DesignerServices
 90
    33792
280
     0
281
     0
  0
CLASS
  1
ACADPARTPLANARFACERES
  2
AcAdPartPlanarFaceRes
  3
AdGrefServices
 90
    33792
280
     0
281
     0
  0
CLASS
  1
ACMEPOINT
  2
AcImPointDisplay
  3
AcMeServices
 90
    33792
280
     0
281
     1
  0
CLASS
  1
ACMELINEARARROW
  2
AcImLinearArrowDisplay
  3
AcMeServices
 90
    33792
280
     0
281
     1
  0
CLASS
  1
ACAMEXPR
  2
AcAmExpr
  3
DesignerAssemblies
 90
    33792
280
     0
281
     0
  0
CLASS
  1
ACCMDISTPLPL
  2
AcCmDistPlPl
  3
DesignerAssemblies
 90
    33792
280
     0
281
     0
  0
CLASS
  1
ACCMCONSTREACTOR
  2
AcCmConstraintReactor
  3
DesignerAssemblies
 90
    33792
280
     0
281
     0
  0
CLASS
  1
ACCMDISTPTLN
  2
AcCmDistPtLn
  3
DesignerAssemblies
 90
    33792
280
     0
281
     0
  0
CLASS
  1
AM_VIEW_SELECT_FILTER
  2
AcDmSelectViewEntFilter
  3
AcMechDwgViewMgmt
 90
    33792
280
     0
281
     0
  0
CLASS
  1
AM_GREF_PLANE
  2
AcDmGrefPlnDef
  3
AcMechDwgViewMgmt
 90
    33792
280
     0
281
     0
  0
CLASS
  1
AM_GREF_AXIS
  2
AcDmGrefAxisDef
  3
AcMechDwgViewMgmt
 90
    33792
280
     0
281
     0
  0
CLASS
  1
AM_BASE_VIEW_ORIENT
  2
AcDmBaseViewOr
  3
AcMechDwgViewMgmt
 90
    33792
280
     0
281
     0
  0
CLASS
  1
AM_DWG_VIEWPORT
  2
AcDmViewport
  3
AcMechDwgViewMgmt
 90
    33792
280
     0
281
     0
  0
CLASS
  1
AM_VIEW_DISPLAY
  2
AcDmDwgViewDisplay
  3
AcMechDwgViewMgmt
 90
    33792
280
     0
281
     0
  0
CLASS
  1
AM_CLDFLTS
  2
AcDmClDflts
  3
AcMechDwgViewMgmt
 90
    33792
280
     0
281
     0
  0
CLASS
  1
AM_BASE_VIEW
  2
AcDmBaseView
  3
AcMechDwgViewMgmt
 90
    33792
280
     0
281
     0
  0
CLASS
  1
ACMEPLINE
  2
AcImPlineDisplay
  3
AcMeServices
 90
    33792
280
     0
281
     1
  0
CLASS
  1
ACDMPARTVIEWDATA
  2
AcDmPartViewData
  3
AcMechDwgViewMgmt
 90
    33792
280
     0
281
     0
  0
CLASS
  1
ACDMDISPLAYATTRIBS
  2
AcDmDisplayAttribs
  3
AcMechDwgViewMgmt
 90
    33792
280
     0
281
     0
  0
CLASS
  1
ACDMBODYINSTANCEDATA
  2
AcDmBodyInstanceData
  3
AcMechDwgViewMgmt
 90
    33792
280
     0
281
     0
  0
CLASS
  1
ACDMVWEDLINE
  2
AcDmViewEdgeLine
  3
AcMechDwgViewMgmt
 90
    33792
280
     0
281
     1
  0
CLASS
  1
ACDMVWEDARC
  2
AcDmViewEdgeArc
  3
AcMechDwgViewMgmt
 90
    33792
280
     0
281
     1
  0
CLASS
  1
AM_ISO_VIEW_ORIENT
  2
AcDmIsoViewOr
  3
AcMechDwgViewMgmt
 90
    33792
280
     0
281
     0
  0
CLASS
  1
AM_ISO_VIEW
  2
AcDmIsoView
  3
AcMechDwgViewMgmt
 90
    33792
280
     0
281
     0
  0
CLASS
  1
AM_ORTHO_VIEW_ORIENT
  2
AcDmOrthoViewOr
  3
AcMechDwgViewMgmt
 90
    33792
280
     0
281
     0
  0
CLASS
  1
AM_ORTHO_VIEW
  2
AcDmOrthoView
  3
AcMechDwgViewMgmt
 90
    33792
280
     0
281
     0
  0
CLASS
  1
ACAMVIEWREACTOR
  2
AcAmViewReactor
  3
DesignerAssemblies
 90
    33792
280
     0
281
     0
  0
CLASS
  1
AMVIEW
  2
AcAmView
  3
DesignerAssemblies
 90
    33792
280
     0
281
     0
  0
CLASS
  1
ACAMVIEWCONTEXT
  2
AcAmViewContext
  3
DesignerAssemblies
 90
    33792
280
     0
281
     0
  0
CLASS
  1
ACAMCOMPENTVIEW
  2
AcAmCompEntView
  3
DesignerAssemblies
 90
    33792
280
     0
281
     1
  0
CLASS
  1
ACAMCOMPVIEWREACTOR
  2
AcAmGrCompViewReactor
  3
DesignerAssemblies
 90
    33792
280
     0
281
     0
  0
CLASS
  1
ACAMVIEWENTITYFILTER
  2
AcAmViewEntityFilter
  3
DesignerAssemblies
 90
    33792
280
     0
281
     0
  0
CLASS
  1
ACDMVWEDCIRC
  2
AcDmViewEdgeCircle
  3
AcMechDwgViewMgmt
 90
    33792
280
     0
281
     1
  0
CLASS
  1
AM_ADCIRCTRLINE
  2
AcAdBullsEyeCl
  3
DesignerServices
 90
    33792
280
     0
281
     0
  0
CLASS
  1
AM_ADLINCTRLINE
  2
AcAdLineCl
  3
DesignerServices
 90
    33792
280
     0
281
     0
  0
CLASS
  1
ACDMVIEWGEOM
  2
AcDmViewGeometry
  3
AcMechDwgViewMgmt
 90
    33792
280
     0
281
     1
  0
CLASS
  1
ACCMDISTLNLN
  2
AcCmDistLnLn
  3
DesignerAssemblies
 90
    33792
280
     0
281
     0
  0
CLASS
  1
ACAMXREFCONTEXTMODELER
  2
AcAmXrefContextModeler
  3
DesignerAssemblies
 90
    33792
280
     0
281
     0
  0
CLASS
  1
CNRREFID
  2
AcAdCornerId
  3
DesignerServices
 90
    33792
280
     0
281
     0
  0
CLASS
  1
ACADPARTPOINTRES
  2
AcAdPartPointRes
  3
AdGrefServices
 90
    33792
280
     0
281
     0
  0
CLASS
  1
AM_VIEWDIMLINEAR
  2
AcDmViewDimLinear
  3
AcMechDwgViewMgmt
 90
    33792
280
     0
281
     0
  0
CLASS
  1
PARAM
  2
AcAdParam
  3
DesignerServices
 90
    33792
280
     0
281
     0
  0
CLASS
  1
SORTENTSTABLE
  2
AcDbSortentsTable
  3
ObjectDBX Classes
 90
        0
280
     0
281
     0
  0
CLASS
  1
ACADPARTCIRCEDGRES
  2
AcAdPartCircEdgRes
  3
AdGrefServices
 90
    33792
280
     0
281
     0
  0
CLASS
  1
AM_VIEWDIMRADIUS
  2
AcDmViewDimRadius
  3
AcMechDwgViewMgmt
 90
    33792
280
     0
281
     0
  0
CLASS
  1
DEPEDGEPATTERNINSTANCE
  2
AcAdDepEdgePatternInstance
  3
DesignerServices
 90
    33792
280
     0
281
     0
  0
CLASS
  1
FEEDBACK
  2
AcAmFeedback
  3
DesignerAssemblies
 90
    33792
280
     0
281
     1
  0
CLASS
  1
ACAMTRIAXISSYMBOL
  2
AcAmTriAxisSymbol
  3
DesignerAssemblies
 90
    33792
280
     0
281
     0
  0
CLASS
  1
ACAMTEXTCIRCLESYMBOL
  2
AcAmTextCircleSymbol
  3
DesignerAssemblies
 90
    33792
280
     0
281
     0
  0
CLASS
  1
ACDMVISEDIT
  2
AcDmViewEntityVisEdit
  3
AcMechDwgViewMgmt
 90
    33792
280
     0
281
     0
  0
CLASS
  1
SILEDGEID
  2
AcAdSilhouetteEdgeId
  3
DesignerServices
 90
    33792
280
     0
281
     0
  0
CLASS
  1
MATERIAL
  2
AcDbMaterial
  3
ObjectDBX Classes
 90
     1153
280
     0
281
     0
  0
CLASS
  1
VISUALSTYLE
  2
AcDbVisualStyle
  3
ObjectDBX Classes
 90
     4095
280
     0
281
     0
  0
CLASS
  1
SCALE
  2
AcDbScale
  3
ObjectDBX Classes
 90
     1153
280
     0
281
     0
  0
CLASS
  1
MLEADERSTYLE
  2
AcDbMLeaderStyle
  3
ACDB_MLEADERSTYLE_CLASS
 90
     4095
280
     0
281
     0
  0
CLASS
  1
EXACTERMXREFMAP
  2
ExAcTermXrefMap
  3
EXAC_SERVICE
 90
    33793
280
     0
281
     0
  0
CLASS
  1
NPOCOLLECTION
  2
AcDbImpNonPersistentObjectsCollection
  3
ObjectDBX Classes
 90
     1153
280
     0
281
     0
  0
CLASS
  1
ACRFATTGENMGR
  2
AcRfAttGeneralMgr
  3
AcAttribServices
 90
     1024
280
     0
281
     0
  0
CLASS
  1
ACRFOBJATTMGR
  2
AcRfObjAttGroupMgr
  3
AcAttribServices
 90
     1024
280
     0
281
     0
  0
CLASS
  1
ACRFMCADAPIATTHOLDER
  2
AcRfMCADAPIAttHolder
  3
AcAttribServices
 90
     1024
280
     0
281
     0
  0
CLASS
  1
AMDTSYSATTR
  2
AmdtSystemAttribute
  3
AcAttribServices
 90
     1024
280
     0
281
     0
  0
CLASS
  1
ACMTAPERSTANDARDISO
  2
AcmTaperStdISO
  3
"Amdt_StdImp|Product Description: AutoCAD Mechanical|Company: Autodesk, Inc."
 90
     1024
280
     0
281
     0
  0
CLASS
  1
ACMANOOTATIONVIEWSTANDARDISO
  2
AmdtAnViewStdISO
  3
"Amdt_StdImp|Product Description: AutoCAD Mechanical|Company: Autodesk, Inc."
 90
     1024
280
     0
281
     0
  0
CLASS
  1
SOLID_BACKGROUND
  2
AcDbSolidBackground
  3
SCENEOE
 90
     4095
280
     0
281
     0
  0
CLASS
  1
CELLSTYLEMAP
  2
AcDbCellStyleMap
  3
ObjectDBX Classes
 90
     1152
280
     0
281
     0
  0
CLASS
  1
AM_ABS_AXIS
  2
AcDmAbsAxisDef
  3
AcMechDwgViewMgmt
 90
    33792
280
     0
281
     0
  0
CLASS
  1
AM_ABS_PLANE
  2
AcDmAbsPlnDef
  3
AcMechDwgViewMgmt
 90
    33792
280
     0
281
     0
  0
CLASS
  1
MULTILEADER
  2
AcDbMLeader
  3
ACDB_MLEADER_CLASS
 90
     1025
280
     0
281
     1
  0
CLASS
  1
AMDTEDGESTANDARDISO13715
  2
AmdtEdgeStdISO13715
  3
"Amdt_StdImp|Product Description: AutoCAD Mechanical|Company: Autodesk, Inc."
 90
     1024
280
     0
281
     0
  0
CLASS
  1
ACMSURFSTANDARDISO2002
  2
AcmSurfTextStdISO2002
  3
"Amdt_StdImp|Product Description: AutoCAD Mechanical|Company: Autodesk, Inc."
 90
     1024
280
     0
281
     0
  0
CLASS
  1
ACMSECTIONSTANDARDISO2001
  2
AmdtSectionSymStdISO2001
  3
"Amdt_StdImp|Product Description: AutoCAD Mechanical|Company: Autodesk, Inc."
 90
     1024
280
     0
281
     0
  0
CLASS
  1
ACAMGHOLECHARTSTDISO
  2
AcAmgHoleChartStdISO
  3
AmgDim|Product Description: AutoCAD Mechanical|Company: Autodesk, Inc.
 90
     1024
280
     0
281
     0
  0
ENDSEC
  0
SECTION
  2
TABLES
  0
TABLE
  2
VPORT
  5
2A
330
0
100
AcDbSymbolTable
 70
     1
  0
VPORT
  5
BB4
330
2A
100
AcDbSymbolTableRecord
100
AcDbViewportTableRecord
  2
*Active
 70
     0
 10
0.0
 20
0.0
 11
1.0
 21
1.0
 12
233.2684970102546
 22
277.537043983709
 13
0.0
 23
0.0
 14
10.0
 24
10.0
 15
10.0
 25
10.0
 16
0.0
 26
0.0
 36
3652.547980524849
 17
9777.45828232609
 27
-274.1533343573677
 37
0.0
 40
1574.188800396758
 41
1.672936259143155
 42
50.0
 43
0.0
 44
0.0
 50
0.0
 51
0.0
 71
     0
 72
  2000
 73
     1
 74
     0
 75
     0
 76
     0
 77
     0
 78
     0
281
     4
 65
     0
110
0.0
120
0.0
130
0.0
111
1.0
121
0.0
131
0.0
112
0.0
122
1.0
132
0.0
 79
     0
146
0.0
  0
ENDTAB
  0
TABLE
  2
LTYPE
  5
25
330
0
100
AcDbSymbolTable
 70
    13
  0
LTYPE
  5
26
330
25
100
AcDbSymbolTableRecord
100
AcDbLinetypeTableRecord
  2
BYBLOCK
 70
     0
  3

 72
    65
 73
     0
 40
0.0
  0
LTYPE
  5
27
330
25
100
AcDbSymbolTableRecord
100
AcDbLinetypeTableRecord
  2
BYLAYER
 70
     0
  3

 72
    65
 73
     0
 40
0.0
  0
LTYPE
  5
14
330
25
100
AcDbSymbolTableRecord
100
AcDbLinetypeTableRecord
  2
CONTINUOUS
 70
     0
  3
Solid line
 72
    65
 73
     0
 40
0.0
  0
LTYPE
  5
81
330
25
100
AcDbSymbolTableRecord
100
AcDbLinetypeTableRecord
  2
HIDDEN
 70
     0
  3
Hidden __ __ __ __ __ __ __ __ __ __ __ __ __ _
 72
    65
 73
     2
 40
0.375
 49
0.25
 74
     0
 49
-0.125
 74
     0
  0
LTYPE
  5
624
330
25
100
AcDbSymbolTableRecord
100
AcDbLinetypeTableRecord
  2
AM_ISO08W050
 70
     0
  3
____ . ____ . ____ . ____ . ____ . ____ . ____
 72
    65
 73
     4
 40
18.0
 49
12.0
 74
     0
 49
-1.5
 74
     0
 49
3.0
 74
     0
 49
-1.5
 74
     0
  0
LTYPE
  5
C0A
330
25
100
AcDbSymbolTableRecord
100
AcDbLinetypeTableRecord
  2
DASHDOT
 70
     0
  3
____ _ ____ _ ____ _ ____ _ ____ _ ____ _ ____
 72
    65
 73
     4
 40
5.5
 49
4.0
 74
     0
 49
-0.6
 74
     0
 49
0.3
 74
     0
 49
-0.6
 74
     0
  0
LTYPE
  5
11CF
330
25
100
AcDbSymbolTableRecord
100
AcDbLinetypeTableRecord
  2
PHANTOM2
 70
     0
  3
Phantom (.5x) ___ _ _ ___ _ _ ___ _ _ ___ _ _
 72
    65
 73
     6
 40
31.75
 49
15.875
 74
     0
 49
-3.174999999999998
 74
     0
 49
3.174999999999998
 74
     0
 49
-3.174999999999998
 74
     0
 49
3.174999999999998
 74
     0
 49
-3.174999999999998
 74
     0
  0
LTYPE
  5
11D0
330
25
100
AcDbSymbolTableRecord
100
AcDbLinetypeTableRecord
  2
CENTER
 70
     0
  3
Center ____ _ ____ _ ____ _ ____ _ ____ _ ____
 72
    65
 73
     4
 40
50.8
 49
31.75
 74
     0
 49
-6.349999999999997
 74
     0
 49
6.349999999999997
 74
     0
 49
-6.349999999999997
 74
     0
  0
LTYPE
  5
121E
330
25
100
AcDbSymbolTableRecord
100
AcDbLinetypeTableRecord
  2
ASULTYPE
 70
     0
  3
実線
 72
    65
 73
     2
 40
3.0
 49
2.5
 74
     0
 49
0.5
 74
     0
  0
LTYPE
  5
121F
330
25
100
AcDbSymbolTableRecord
100
AcDbLinetypeTableRecord
  2
ASVLTYPE
 70
     0
  3
__ __ __ __ __ __ __ __ __ __ __ __ __ __ __ __ __ __ __ __ __
 72
    65
 73
     2
 40
0.75
 49
0.5
 74
     0
 49
-0.25
 74
     0
  0
LTYPE
  5
1273
330
25
100
AcDbSymbolTableRecord
100
AcDbLinetypeTableRecord
  2
ACISOWELD
 70
     0
  3
_ _ _ _ _
 72
    65
 73
     2
 40
2.0
 49
2.0
 74
     0
 49
-1.0
 74
     0
  0
LTYPE
  5
1274
330
25
100
AcDbSymbolTableRecord
100
AcDbLinetypeTableRecord
  2
ACISOTGB
 70
     0
  3
__ . . __ . .
 72
    65
 73
     6
 40
9.0
 49
4.0
 74
     0
 49
-1.0
 74
     0
 49
1.0
 74
     0
 49
-1.0
 74
     0
 49
1.0
 74
     0
 49
-1.0
 74
     0
  0
LTYPE
  5
1275
330
25
100
AcDbSymbolTableRecord
100
AcDbLinetypeTableRecord
  2
ACISOTGL
 70
     0
  3
_ _ _ _ _
 72
    65
 73
     2
 40
3.0
 49
2.0
 74
     0
 49
-1.0
 74
     0
  0
LTYPE
  5
1F1D
330
25
100
AcDbSymbolTableRecord
100
AcDbLinetypeTableRecord
  2
DASHED
 70
     0
  3
Dashed __ __ __ __ __ __ __ __ __ __ __ __ __ _
 72
    65
 73
     2
 40
0.75
 49
0.5
 74
     0
 49
-0.25
 74
     0
  0
ENDTAB
  0
TABLE
  2
LAYER
  5
1F
102
{ACAD_XDICTIONARY
360
20
102
}
330
0
100
AcDbSymbolTable
 70
     8
  0
LAYER
  5
5
102
{ACAD_XDICTIONARY
360
6
102
}
330
1F
100
AcDbSymbolTableRecord
100
AcDbLayerTableRecord
  2
0
 70
     0
 62
     7
  6
CONTINUOUS
370
    -3
390
8
  0
LAYER
  5
B89
330
1F
100
AcDbSymbolTableRecord
100
AcDbLayerTableRecord
  2
Defpoints
 70
     0
 62
     7
  6
CONTINUOUS
290
     0
370
    -3
390
8
  0
LAYER
  5
C0B
102
{ACAD_XDICTIONARY
360
C0C
102
}
330
1F
100
AcDbSymbolTableRecord
100
AcDbLayerTableRecord
  2
SIZE
 70
     0
 62
    30
  6
CONTINUOUS
370
    -3
390
8
  0
LAYER
  5
C0D
102
{ACAD_XDICTIONARY
360
C0E
102
}
330
1F
100
AcDbSymbolTableRecord
100
AcDbLayerTableRecord
  2
OUTLINE
 70
     0
 62
     3
  6
CONTINUOUS
370
    -3
390
8
  0
LAYER
  5
C11
102
{ACAD_XDICTIONARY
360
C12
102
}
330
1F
100
AcDbSymbolTableRecord
100
AcDbLayerTableRecord
  2
BASIS
 70
     0
 62
     6
  6
DASHDOT
370
    -3
390
8
  0
LAYER
  5
C13
102
{ACAD_XDICTIONARY
360
C14
102
}
330
1F
100
AcDbSymbolTableRecord
100
AcDbLayerTableRecord
  2
NOTE
 70
     0
 62
     4
  6
CONTINUOUS
370
    -3
390
8
  0
LAYER
  5
C15
102
{ACAD_XDICTIONARY
360
C16
102
}
330
1F
100
AcDbSymbolTableRecord
100
AcDbLayerTableRecord
  2
ARRANGE
 70
     0
 62
     1
  6
CONTINUOUS
370
    -3
390
8
  0
LAYER
  5
C17
102
{ACAD_XDICTIONARY
360
C18
102
}
330
1F
100
AcDbSymbolTableRecord
100
AcDbLayerTableRecord
  2
ETC
 70
     0
 62
    61
  6
CONTINUOUS
370
    -3
390
8
  0
ENDTAB
  0
TABLE
  2
STYLE
  5
22
330
0
100
AcDbSymbolTable
 70
     4
  0
STYLE
  5
23
330
22
100
AcDbSymbolTableRecord
100
AcDbTextStyleTableRecord
  2
STANDARD
 70
     0
 40
0.0
 41
1.0
 50
0.0
 71
     0
 42
62.5215949741746
  3
romans.shx
  4
extfont.shx
  0
STYLE
  5
C19
330
22
100
AcDbSymbolTableRecord
100
AcDbTextStyleTableRecord
  2
STANDARD1
 70
     0
 40
0.0
 41
1.0
 50
0.0
 71
     0
 42
3.5
  3
MONOTXT
  4
BIGFONT
  0
STYLE
  5
1263
330
22
100
AcDbSymbolTableRecord
100
AcDbTextStyleTableRecord
  2
ACISOTS
 70
     0
 40
1.0
 41
1.0
 50
0.0
 71
     0
 42
62.5215949741746
  3
isocp.shx
  4
extfont.shx
  0
STYLE
  5
1272
330
22
100
AcDbSymbolTableRecord
100
AcDbTextStyleTableRecord
  2
ACISOGDT
 70
     0
 40
0.0
 41
1.0
 50
0.0
 71
     0
 42
62.5215949741746
  3
amgdt.shx
  4

  0
ENDTAB
  0
TABLE
  2
VIEW
  5
28
330
0
100
AcDbSymbolTable
 70
     0
  0
ENDTAB
  0
TABLE
  2
UCS
  5
29
330
0
100
AcDbSymbolTable
 70
     0
  0
ENDTAB
  0
TABLE
  2
APPID
  5
2E
330
0
100
AcDbSymbolTable
 70
    22
  0
APPID
  5
2F
330
2E
100
AcDbSymbolTableRecord
100
AcDbRegAppTableRecord
  2
ACAD
 70
     0
  0
APPID
  5
38
330
2E
100
AcDbSymbolTableRecord
100
AcDbRegAppTableRecord
  2
ACAD_DSTYLE_DIMJOGGED_JOGANGLE_SYMBOL
 70
     0
  0
APPID
  5
7C
330
2E
100
AcDbSymbolTableRecord
100
AcDbRegAppTableRecord
  2
AcAecLayerStandard
 70
     0
  0
APPID
  5
1E
330
2E
100
AcDbSymbolTableRecord
100
AcDbRegAppTableRecord
  2
ACAD_PSEXT
 70
     0
  0
APPID
  5
AFF
330
2E
100
AcDbSymbolTableRecord
100
AcDbRegAppTableRecord
  2
ACATTRIBSERVICES
 70
     0
  0
APPID
  5
B18
330
2E
100
AcDbSymbolTableRecord
100
AcDbRegAppTableRecord
  2
ACAD_MLEADERVER
 70
     0
  0
APPID
  5
B21
330
2E
100
AcDbSymbolTableRecord
100
AcDbRegAppTableRecord
  2
ACAD_EXEMPT_FROM_CAD_STANDARDS
 70
     0
  0
APPID
  5
B5E
330
2E
100
AcDbSymbolTableRecord
100
AcDbRegAppTableRecord
  2
ACAD_DSTYLE_DIMJAG
 70
     0
  0
APPID
  5
B5F
330
2E
100
AcDbSymbolTableRecord
100
AcDbRegAppTableRecord
  2
ACAD_DSTYLE_DIMTALN
 70
     0
  0
APPID
  5
B6F
330
2E
100
AcDbSymbolTableRecord
100
AcDbRegAppTableRecord
  2
ACAD_DSTYLE_DIMEXT_LENGTH
 70
     0
  0
APPID
  5
119B
330
2E
100
AcDbSymbolTableRecord
100
AcDbRegAppTableRecord
  2
GENIUS_GENDIM_13
 70
     0
  0
APPID
  5
119C
330
2E
100
AcDbSymbolTableRecord
100
AcDbRegAppTableRecord
  2
GENIUS_GENDTOL_13
 70
     0
  0
APPID
  5
119D
330
2E
100
AcDbSymbolTableRecord
100
AcDbRegAppTableRecord
  2
GENIUS_GE3DTOL_13
 70
     0
  0
APPID
  5
11A0
330
2E
100
AcDbSymbolTableRecord
100
AcDbRegAppTableRecord
  2
MCAD_NO_VIS
 70
     0
  0
APPID
  5
11A1
330
2E
100
AcDbSymbolTableRecord
100
AcDbRegAppTableRecord
  2
ACAD_TEMP_GRAPHIC
 70
     0
  0
APPID
  5
11D2
330
2E
100
AcDbSymbolTableRecord
100
AcDbRegAppTableRecord
  2
AD_DRAW
 70
     0
  0
APPID
  5
1220
330
2E
100
AcDbSymbolTableRecord
100
AcDbRegAppTableRecord
  2
ASURF_PCURVE_APPNAME
 70
     0
  0
APPID
  5
1225
330
2E
100
AcDbSymbolTableRecord
100
AcDbRegAppTableRecord
  2
AMG_3D2D_5.0
 70
     0
  0
APPID
  5
1256
330
2E
100
AcDbSymbolTableRecord
100
AcDbRegAppTableRecord
  2
DESIGNERASSEMBLIES
 70
     0
  0
APPID
  5
125A
330
2E
100
AcDbSymbolTableRecord
100
AcDbRegAppTableRecord
  2
ACADM_DIM_EDIT
 70
     0
  0
APPID
  5
125B
330
2E
100
AcDbSymbolTableRecord
100
AcDbRegAppTableRecord
  2
AMDT_DM_ADJ
 70
     0
  0
APPID
  5
148B
330
2E
100
AcDbSymbolTableRecord
100
AcDbRegAppTableRecord
  2
ACAD_DSTYLE_DIMARC_LENGTH_SYMBOL
 70
     0
  0
ENDTAB
  0
TABLE
  2
DIMSTYLE
  5
30
330
0
100
AcDbSymbolTable
 70
    11
100
AcDbDimStyleTable
 71
     1
340
31
  0
DIMSTYLE
105
31
102
{ACAD_REACTORS
330
2224
330
2231
330
2243
330
2271
330
228B
330
22B0
330
22CA
330
22D7
330
22E4
330
22F1
330
22FE
330
230B
330
2463
330
247D
102
}
330
30
100
AcDbSymbolTableRecord
100
AcDbDimStyleTableRecord
  2
STANDARD
 70
     0
 40
0.0
 41
2.0
 42
1.0
 43
3.75
 44
1.0
 73
     0
 74
     0
 77
     1
 78
     8
140
2.0
141
2.5
143
0.0394
147
1.0
171
     4
172
     1
173
     1
271
     0
272
     0
273
     8
274
     4
284
     8
340
23
341
32
343
32
344
32
1001
ACAD_DSTYLE_DIMEXT_LENGTH
1070
   378
1040
15.0
1001
ACAD_DSTYLE_DIMJOGGED_JOGANGLE_SYMBOL
1070
   384
1040
1.570796326794896
  0
DIMSTYLE
105
1280
330
30
100
AcDbSymbolTableRecord
100
AcDbDimStyleTableRecord
  2
AM_ISO
 70
     0
  4
"
 41
2.5
 42
1.0
 43
10.0
 44
1.0
 47
0.1
 48
0.1
 73
     0
 74
     0
 77
     1
 78
     8
 79
     2
140
3.5
141
0.0
143
0.0393701
146
0.71
147
1.5
172
     1
176
   256
177
   256
178
     2
271
     2
272
     3
274
     4
283
     0
284
     8
340
23
371
    -1
372
    -1
1001
ACAD_DSTYLE_DIMARC_LENGTH_SYMBOL
1070
   379
1070
     1
  0
DIMSTYLE
105
1281
330
30
100
AcDbSymbolTableRecord
100
AcDbDimStyleTableRecord
  2
AM_ISO$3
 70
     0
  4
"
 41
2.5
 42
1.0
 43
10.0
 44
1.0
 47
0.1
 48
0.1
 73
     0
 77
     1
 78
     8
 79
     2
140
3.5
141
0.0
143
0.0393701
146
0.71
147
1.5
176
   256
177
   256
178
     2
271
     2
272
     3
274
     4
283
     0
284
     8
288
     1
289
     0
340
23
371
    -1
372
    -1
1001
ACAD_DSTYLE_DIMARC_LENGTH_SYMBOL
1070
   379
1070
     1
  0
DIMSTYLE
105
1282
330
30
100
AcDbSymbolTableRecord
100
AcDbDimStyleTableRecord
  2
AM_ISO$4
 70
     0
  4
"
 41
2.5
 42
1.0
 43
10.0
 44
1.0
 47
0.1
 48
0.1
 73
     0
 77
     1
 78
     8
 79
     2
140
3.5
141
0.0
143
0.0393701
146
0.71
147
1.5
176
   256
177
   256
178
     2
271
     2
272
     3
274
     4
283
     0
284
     8
288
     1
289
     0
340
23
371
    -1
372
    -1
1001
ACAD_DSTYLE_DIMARC_LENGTH_SYMBOL
1070
   379
1070
     1
  0
DIMSTYLE
105
1283
330
30
100
AcDbSymbolTableRecord
100
AcDbDimStyleTableRecord
  2
AM_ISO$6
 70
     0
  4
"
 41
2.5
 42
1.0
 43
10.0
 44
1.0
 47
0.1
 48
0.1
 73
     0
 74
     0
 78
     8
 79
     2
140
3.5
141
0.0
143
0.0393701
146
0.71
147
1.5
172
     1
176
   256
177
   256
178
     2
271
     2
272
     3
274
     4
283
     0
284
     8
340
23
371
    -1
372
    -1
1001
ACAD_DSTYLE_DIMARC_LENGTH_SYMBOL
1070
   379
1070
     1
  0
DIMSTYLE
105
1284
330
30
100
AcDbSymbolTableRecord
100
AcDbDimStyleTableRecord
  2
AM_ISO$7
 70
     0
  4
"
 41
2.5
 42
1.0
 43
10.0
 44
1.0
 47
0.1
 48
0.1
 73
     0
 74
     0
 77
     1
 78
     8
 79
     2
140
5.0
141
0.0
143
0.0393701
146
0.71
147
1.5
172
     1
176
   256
177
   256
178
     2
271
     2
272
     3
274
     4
283
     0
284
     8
340
23
371
    -1
372
    -1
1001
ACAD_DSTYLE_DIMARC_LENGTH_SYMBOL
1070
   379
1070
     1
  0
DIMSTYLE
105
1285
330
30
100
AcDbSymbolTableRecord
100
AcDbDimStyleTableRecord
  2
AM_ISO$SF
 70
     0
  4
"
 41
2.5
 42
1.0
 43
10.0
 44
1.0
 47
0.1
 48
0.1
 73
     0
 74
     0
 75
     1
 76
     1
 77
     1
 78
     8
 79
     2
140
3.5
141
0.0
143
0.0393701
146
0.71
147
1.5
172
     1
176
   256
177
   256
178
     2
271
     2
272
     3
274
     4
283
     0
284
     8
340
23
371
    -1
372
    -1
1001
ACAD_DSTYLE_DIMARC_LENGTH_SYMBOL
1070
   379
1070
     1
  0
DIMSTYLE
105
128A
330
30
100
AcDbSymbolTableRecord
100
AcDbDimStyleTableRecord
  2
AM_ISO$SH
 70
     0
  4
"
 41
2.5
 42
1.0
 43
10.0
 44
1.0
 47
0.1
 48
0.1
 73
     0
 74
     0
 75
     1
 76
     1
 77
     1
 78
     8
 79
     2
140
3.5
141
0.0
143
0.0393701
144
2.0
146
0.71
147
1.5
172
     1
173
     1
176
   256
177
   256
178
     2
271
     2
272
     3
274
     4
283
     0
284
     8
340
23
343
1286
371
    -1
372
    -1
1001
ACAD_DSTYLE_DIMARC_LENGTH_SYMBOL
1070
   379
1070
     1
  0
DIMSTYLE
105
1292
330
30
100
AcDbSymbolTableRecord
100
AcDbDimStyleTableRecord
  2
STANDARD1
 70
     0
 40
10.0
 41
2.5
 42
0.625
 43
3.75
 44
1.25
 77
     1
 78
     8
140
2.5
141
0.0
147
1.0
173
     1
284
     8
340
23
341
32
343
32
344
32
  0
DIMSTYLE
105
1293
330
30
100
AcDbSymbolTableRecord
100
AcDbDimStyleTableRecord
  2
AM_JIS
 70
     0
  4
"
 40
10.0
 41
2.5
 42
1.0
 43
10.0
 44
1.0
 47
0.1
 48
0.1
 73
     0
 74
     0
 77
     3
 78
     8
 79
     2
140
3.5
141
0.0
143
0.0393701
146
0.71
147
1.5
172
     1
176
   256
177
   256
178
     2
271
     2
272
     3
274
     4
283
     0
284
     8
340
23
341
32
342
32
343
32
344
32
371
    -1
372
    -1
1001
ACAD_DSTYLE_DIMJOGGED_JOGANGLE_SYMBOL
1070
   384
1040
0.7853981633974483
1001
ACAD_DSTYLE_DIMARC_LENGTH_SYMBOL
1070
   379
1070
     1
  0
ENDTAB
  0
TABLE
  2
BLOCK_RECORD
  5
1
330
0
100
AcDbSymbolTable
 70
    50
  0
BLOCK_RECORD
  5
2
102
{ACAD_XDICTIONARY
360
3
102
}
330
1
100
AcDbSymbolTableRecord
100
AcDbBlockTableRecord
  2
*MODEL_SPACE
340
16
  0
BLOCK_RECORD
  5
18
330
1
100
AcDbSymbolTableRecord
100
AcDbBlockTableRecord
  2
*Paper_Space
340
1B
  0
BLOCK_RECORD
  5
32
330
1
100
AcDbSymbolTableRecord
100
AcDbBlockTableRecord
  2
_OPEN30
340
0
102
{BLKREFS
331
1167
331
1168
331
1170
331
1171
331
1179
331
117A
331
144E
331
144F
331
145B
331
145C
331
1468
331
1469
331
17CC
331
17CD
331
17D9
331
17DA
331
17E6
331
17E7
331
17F3
331
17F4
331
1800
331
1801
331
180D
331
180E
331
181A
331
181B
331
1827
331
1828
331
1A66
331
1A67
331
1A73
331
1A74
331
1A80
331
1A81
331
1A8D
331
1A8E
331
1A9A
331
1A9B
331
1B92
331
1B93
331
1B9F
331
1BA0
331
1DDD
331
1DDE
331
1DEA
331
1DEB
331
1DF7
331
1DF8
331
1E04
331
1E05
331
1E11
331
1E12
331
1E1E
331
1E1F
331
1E2B
331
1E2C
331
222B
331
222C
331
224A
331
224B
331
226B
331
226C
331
229E
331
229F
331
22AA
331
22AB
331
22B7
331
22B8
331
22C4
331
22C5
331
22D1
331
22D2
331
22DE
331
22DF
331
22EB
331
22EC
331
22F8
331
22F9
331
2305
331
2306
331
2312
331
2313
331
244B
331
244C
331
245D
331
245E
331
2477
331
2478
331
24A7
331
24A8
102
}
  0
BLOCK_RECORD
  5
B8A
330
1
100
AcDbSymbolTableRecord
100
AcDbBlockTableRecord
  2
*D1
340
0
  0
BLOCK_RECORD
  5
B97
330
1
100
AcDbSymbolTableRecord
100
AcDbBlockTableRecord
  2
*D2
340
0
  0
BLOCK_RECORD
  5
BA4
330
1
100
AcDbSymbolTableRecord
100
AcDbBlockTableRecord
  2
*D3
340
0
  0
BLOCK_RECORD
  5
C05
330
1
100
AcDbSymbolTableRecord
100
AcDbBlockTableRecord
  2
_DOTBLANK
340
0
  0
BLOCK_RECORD
  5
1286
330
1
100
AcDbSymbolTableRecord
100
AcDbBlockTableRecord
  2
GENAXEH
340
0
  0
BLOCK_RECORD
  5
1448
330
1
100
AcDbSymbolTableRecord
100
AcDbBlockTableRecord
  2
*D6
340
0
  0
BLOCK_RECORD
  5
1455
330
1
100
AcDbSymbolTableRecord
100
AcDbBlockTableRecord
  2
*D7
340
0
  0
BLOCK_RECORD
  5
1462
330
1
100
AcDbSymbolTableRecord
100
AcDbBlockTableRecord
  2
*D8
340
0
  0
BLOCK_RECORD
  5
17C6
330
1
100
AcDbSymbolTableRecord
100
AcDbBlockTableRecord
  2
*D9
340
0
  0
BLOCK_RECORD
  5
17D3
330
1
100
AcDbSymbolTableRecord
100
AcDbBlockTableRecord
  2
*D10
340
0
  0
BLOCK_RECORD
  5
17E0
330
1
100
AcDbSymbolTableRecord
100
AcDbBlockTableRecord
  2
*D11
340
0
  0
BLOCK_RECORD
  5
17ED
330
1
100
AcDbSymbolTableRecord
100
AcDbBlockTableRecord
  2
*D12
340
0
  0
BLOCK_RECORD
  5
17FA
330
1
100
AcDbSymbolTableRecord
100
AcDbBlockTableRecord
  2
*D13
340
0
  0
BLOCK_RECORD
  5
1807
330
1
100
AcDbSymbolTableRecord
100
AcDbBlockTableRecord
  2
*D14
340
0
  0
BLOCK_RECORD
  5
1814
330
1
100
AcDbSymbolTableRecord
100
AcDbBlockTableRecord
  2
*D15
340
0
  0
BLOCK_RECORD
  5
1821
330
1
100
AcDbSymbolTableRecord
100
AcDbBlockTableRecord
  2
*D16
340
0
  0
BLOCK_RECORD
  5
1A60
330
1
100
AcDbSymbolTableRecord
100
AcDbBlockTableRecord
  2
*D17
340
0
  0
BLOCK_RECORD
  5
1A6D
330
1
100
AcDbSymbolTableRecord
100
AcDbBlockTableRecord
  2
*D18
340
0
  0
BLOCK_RECORD
  5
1A7A
330
1
100
AcDbSymbolTableRecord
100
AcDbBlockTableRecord
  2
*D19
340
0
  0
BLOCK_RECORD
  5
1A87
330
1
100
AcDbSymbolTableRecord
100
AcDbBlockTableRecord
  2
*D20
340
0
  0
BLOCK_RECORD
  5
1A94
330
1
100
AcDbSymbolTableRecord
100
AcDbBlockTableRecord
  2
*D21
340
0
  0
BLOCK_RECORD
  5
1B8C
330
1
100
AcDbSymbolTableRecord
100
AcDbBlockTableRecord
  2
*D22
340
0
  0
BLOCK_RECORD
  5
1B99
330
1
100
AcDbSymbolTableRecord
100
AcDbBlockTableRecord
  2
*D23
340
0
  0
BLOCK_RECORD
  5
1DD7
330
1
100
AcDbSymbolTableRecord
100
AcDbBlockTableRecord
  2
*D24
340
0
  0
BLOCK_RECORD
  5
1DE4
330
1
100
AcDbSymbolTableRecord
100
AcDbBlockTableRecord
  2
*D25
340
0
  0
BLOCK_RECORD
  5
1DF1
330
1
100
AcDbSymbolTableRecord
100
AcDbBlockTableRecord
  2
*D26
340
0
  0
BLOCK_RECORD
  5
1DFE
330
1
100
AcDbSymbolTableRecord
100
AcDbBlockTableRecord
  2
*D27
340
0
  0
BLOCK_RECORD
  5
1E0B
330
1
100
AcDbSymbolTableRecord
100
AcDbBlockTableRecord
  2
*D28
340
0
  0
BLOCK_RECORD
  5
1E18
330
1
100
AcDbSymbolTableRecord
100
AcDbBlockTableRecord
  2
*D29
340
0
  0
BLOCK_RECORD
  5
1E25
330
1
100
AcDbSymbolTableRecord
100
AcDbBlockTableRecord
  2
*D30
340
0
  0
BLOCK_RECORD
  5
2225
330
1
100
AcDbSymbolTableRecord
100
AcDbBlockTableRecord
  2
*D31
340
0
  0
BLOCK_RECORD
  5
2232
330
1
100
AcDbSymbolTableRecord
100
AcDbBlockTableRecord
  2
*D32
340
0
  0
BLOCK_RECORD
  5
2244
330
1
100
AcDbSymbolTableRecord
100
AcDbBlockTableRecord
  2
*D33
340
0
  0
BLOCK_RECORD
  5
2272
330
1
100
AcDbSymbolTableRecord
100
AcDbBlockTableRecord
  2
*D34
340
0
  0
BLOCK_RECORD
  5
227F
330
1
100
AcDbSymbolTableRecord
100
AcDbBlockTableRecord
  2
*D35
340
0
  0
BLOCK_RECORD
  5
228C
330
1
100
AcDbSymbolTableRecord
100
AcDbBlockTableRecord
  2
*D36
340
0
  0
BLOCK_RECORD
  5
22A4
330
1
100
AcDbSymbolTableRecord
100
AcDbBlockTableRecord
  2
*D37
340
0
  0
BLOCK_RECORD
  5
22B1
330
1
100
AcDbSymbolTableRecord
100
AcDbBlockTableRecord
  2
*D38
340
0
  0
BLOCK_RECORD
  5
22BE
330
1
100
AcDbSymbolTableRecord
100
AcDbBlockTableRecord
  2
*D39
340
0
  0
BLOCK_RECORD
  5
22CB
330
1
100
AcDbSymbolTableRecord
100
AcDbBlockTableRecord
  2
*D40
340
0
  0
BLOCK_RECORD
  5
22D8
330
1
100
AcDbSymbolTableRecord
100
AcDbBlockTableRecord
  2
*D41
340
0
  0
BLOCK_RECORD
  5
22E5
330
1
100
AcDbSymbolTableRecord
100
AcDbBlockTableRecord
  2
*D42
340
0
  0
BLOCK_RECORD
  5
22F2
330
1
100
AcDbSymbolTableRecord
100
AcDbBlockTableRecord
  2
*D43
340
0
  0
BLOCK_RECORD
  5
22FF
330
1
100
AcDbSymbolTableRecord
100
AcDbBlockTableRecord
  2
*D44
340
0
  0
BLOCK_RECORD
  5
230C
330
1
100
AcDbSymbolTableRecord
100
AcDbBlockTableRecord
  2
*D45
340
0
  0
BLOCK_RECORD
  5
2464
330
1
100
AcDbSymbolTableRecord
100
AcDbBlockTableRecord
  2
*D48
340
0
  0
BLOCK_RECORD
  5
247E
330
1
100
AcDbSymbolTableRecord
100
AcDbBlockTableRecord
  2
*D49
340
0
  0
ENDTAB
  0
ENDSEC
  0
SECTION
  2
BLOCKS
  0
BLOCK
  5
4
330
2
100
AcDbEntity
  8
0
100
AcDbBlockBegin
  2
*MODEL_SPACE
 70
     0
 10
0.0
 20
0.0
 30
0.0
  3
*MODEL_SPACE
  1

  0
ENDBLK
  5
15
330
2
100
AcDbEntity
  8
0
100
AcDbBlockEnd
  0
BLOCK
  5
19
330
18
100
AcDbEntity
 67
     1
  8
0
100
AcDbBlockBegin
  2
*Paper_Space
 70
     0
 10
0.0
 20
0.0
 30
0.0
  3
*Paper_Space
  1

  0
ENDBLK
  5
1A
330
18
100
AcDbEntity
 67
     1
  8
0
100
AcDbBlockEnd
  0
BLOCK
  5
33
330
32
100
AcDbEntity
  8
0
100
AcDbBlockBegin
  2
_OPEN30
 70
     0
 10
0.0
 20
0.0
 30
0.0
  3
_OPEN30
  1

  0
LINE
  5
34
330
32
100
AcDbEntity
  8
0
  6
ByBlock
 62
     0
100
AcDbLine
 10
-1.0
 20
0.26794919
 30
0.0
 11
0.0
 21
0.0
 31
0.0
  0
LINE
  5
35
330
32
100
AcDbEntity
  8
0
  6
ByBlock
 62
     0
100
AcDbLine
 10
0.0
 20
0.0
 30
0.0
 11
-1.0
 21
-0.26794919
 31
0.0
  0
LINE
  5
36
330
32
100
AcDbEntity
  8
0
  6
ByBlock
 62
     0
100
AcDbLine
 10
0.0
 20
0.0
 30
0.0
 11
-1.0
 21
0.0
 31
0.0
  0
ENDBLK
  5
37
330
32
100
AcDbEntity
  8
0
100
AcDbBlockEnd
  0
BLOCK
  5
B94
330
B8A
100
AcDbEntity
  8
0
100
AcDbBlockBegin
  2
*D1
 70
     1
 10
0.0
 20
0.0
 30
0.0
  3
*D1
  1

  0
LINE
  5
116D
330
B8A
100
AcDbEntity
  8
SIZE
 62
     0
370
    -2
100
AcDbLine
 10
1931.668780516005
 20
-324.5556583977695
 30
0.0
 11
1931.668780516005
 21
-380.2689857515068
 31
0.0
  0
LINE
  5
116E
330
B8A
100
AcDbEntity
  8
SIZE
 62
     0
370
    -2
100
AcDbLine
 10
2810.668780515992
 20
-324.5556583977944
 30
0.0
 11
2810.668780515992
 21
-380.2689857515068
 31
0.0
  0
LINE
  5
116F
330
B8A
100
AcDbEntity
  8
SIZE
 62
     0
370
    -2
100
AcDbLine
 10
1941.668780516005
 20
-375.2689857515068
 30
0.0
 11
2800.668780515992
 21
-375.2689857515068
 31
0.0
  0
INSERT
  5
1170
330
B8A
100
AcDbEntity
  8
SIZE
 62
     0
370
    -2
100
AcDbBlockReference
  2
_OPEN30
 10
1931.668780516005
 20
-375.2689857515068
 30
0.0
 41
10.0
 42
10.0
 43
10.0
 50
180.0
  0
INSERT
  5
1171
330
B8A
100
AcDbEntity
  8
SIZE
 62
     0
370
    -2
100
AcDbBlockReference
  2
_OPEN30
 10
2810.668780515992
 20
-375.2689857515068
 30
0.0
 41
10.0
 42
10.0
 43
10.0
  0
MTEXT
  5
1172
330
B8A
100
AcDbEntity
  8
SIZE
 62
     0
100
AcDbMText
 10
2371.168780515998
 20
-365.2689857515068
 30
0.0
 40
10.0
 41
0.0
 71
     5
 72
     1
  1
\A1;879
 73
     1
 44
1.0
1001
ACAD
1000
MTEXTBEGIN
1070
    73
1070
     1
1070
    44
1040
1.0
1070
    74
1070
     0
1000
MTEXTEND
  0
POINT
  5
1173
330
B8A
100
AcDbEntity
  8
Defpoints
 62
     0
100
AcDbPoint
 10
1931.668780516005
 20
-319.5556583977695
 30
0.0
  0
POINT
  5
1174
330
B8A
100
AcDbEntity
  8
Defpoints
 62
     0
100
AcDbPoint
 10
2810.668780515992
 20
-319.5556583977944
 30
0.0
  0
POINT
  5
1175
330
B8A
100
AcDbEntity
  8
Defpoints
 62
     0
100
AcDbPoint
 10
2810.668780515992
 20
-375.2689857515068
 30
0.0
  0
ENDBLK
  5
B95
330
B8A
100
AcDbEntity
  8
0
100
AcDbBlockEnd
  0
BLOCK
  5
BA1
330
B97
100
AcDbEntity
  8
0
100
AcDbBlockBegin
  2
*D2
 70
     1
 10
0.0
 20
0.0
 30
0.0
  3
*D2
  1

  0
LINE
  5
1164
330
B97
100
AcDbEntity
  8
SIZE
 62
     0
370
    -2
100
AcDbLine
 10
1915.168780516005
 20
-324.5556583977695
 30
0.0
 11
1915.168780516005
 21
-431.0391847903698
 31
0.0
  0
LINE
  5
1165
330
B97
100
AcDbEntity
  8
SIZE
 62
     0
370
    -2
100
AcDbLine
 10
2827.168780515993
 20
-324.5556583977944
 30
0.0
 11
2827.168780515993
 21
-431.0391847903698
 31
0.0
  0
LINE
  5
1166
330
B97
100
AcDbEntity
  8
SIZE
 62
     0
370
    -2
100
AcDbLine
 10
1925.168780516005
 20
-426.0391847903697
 30
0.0
 11
2817.168780515994
 21
-426.0391847903697
 31
0.0
  0
INSERT
  5
1167
330
B97
100
AcDbEntity
  8
SIZE
 62
     0
370
    -2
100
AcDbBlockReference
  2
_OPEN30
 10
1915.168780516005
 20
-426.0391847903697
 30
0.0
 41
10.0
 42
10.0
 43
10.0
 50
180.0
  0
INSERT
  5
1168
330
B97
100
AcDbEntity
  8
SIZE
 62
     0
370
    -2
100
AcDbBlockReference
  2
_OPEN30
 10
2827.168780515993
 20
-426.0391847903697
 30
0.0
 41
10.0
 42
10.0
 43
10.0
  0
MTEXT
  5
1169
330
B97
100
AcDbEntity
  8
SIZE
 62
     0
100
AcDbMText
 10
2371.168780515999
 20
-416.0391847903698
 30
0.0
 40
10.0
 41
0.0
 71
     5
 72
     1
  1
\A1;912
 73
     1
 44
1.0
1001
ACAD
1000
MTEXTBEGIN
1070
    73
1070
     1
1070
    44
1040
1.0
1070
    74
1070
     0
1000
MTEXTEND
  0
POINT
  5
116A
330
B97
100
AcDbEntity
  8
Defpoints
 62
     0
100
AcDbPoint
 10
1915.168780516005
 20
-319.5556583977695
 30
0.0
  0
POINT
  5
116B
330
B97
100
AcDbEntity
  8
Defpoints
 62
     0
100
AcDbPoint
 10
2827.168780515993
 20
-319.5556583977944
 30
0.0
  0
POINT
  5
116C
330
B97
100
AcDbEntity
  8
Defpoints
 62
     0
100
AcDbPoint
 10
2827.168780515993
 20
-426.0391847903697
 30
0.0
  0
ENDBLK
  5
BA2
330
B97
100
AcDbEntity
  8
0
100
AcDbBlockEnd
  0
BLOCK
  5
BAE
330
BA4
100
AcDbEntity
  8
0
100
AcDbBlockBegin
  2
*D3
 70
     1
 10
0.0
 20
0.0
 30
0.0
  3
*D3
  1

  0
LINE
  5
1176
330
BA4
100
AcDbEntity
  8
SIZE
 62
     0
370
    -2
100
AcDbLine
 10
1910.168780516005
 20
-319.5556583977694
 30
0.0
 11
1876.700263935713
 21
-319.5556583977694
 31
0.0
  0
LINE
  5
1177
330
BA4
100
AcDbEntity
  8
SIZE
 62
     0
370
    -2
100
AcDbLine
 10
1951.168780516006
 20
519.2886459369551
 30
0.0
 11
1876.700263935714
 21
519.2886459369551
 31
0.0
  0
LINE
  5
1178
330
BA4
100
AcDbEntity
  8
SIZE
 62
     0
370
    -2
100
AcDbLine
 10
1881.700263935714
 20
-309.5556583977694
 30
0.0
 11
1881.700263935714
 21
509.2886459369551
 31
0.0
  0
INSERT
  5
1179
330
BA4
100
AcDbEntity
  8
SIZE
 62
     0
370
    -2
100
AcDbBlockReference
  2
_OPEN30
 10
1881.700263935714
 20
-319.5556583977694
 30
0.0
 41
10.0
 42
10.0
 43
10.0
 50
270.0
  0
INSERT
  5
117A
330
BA4
100
AcDbEntity
  8
SIZE
 62
     0
370
    -2
100
AcDbBlockReference
  2
_OPEN30
 10
1881.700263935714
 20
519.2886459369551
 30
0.0
 41
10.0
 42
10.0
 43
10.0
 50
90.0
  0
MTEXT
  5
117B
330
BA4
100
AcDbEntity
  8
SIZE
 62
     0
100
AcDbMText
 10
1871.700263935714
 20
99.8664937695932
 30
0.0
 40
10.0
 41
0.0
 71
     5
 72
     1
  1
\A1;839
 11
0.0000000000000001
 21
1.0
 31
0.0
 73
     1
 44
1.0
1001
ACAD
1000
MTEXTBEGIN
1070
    73
1070
     1
1070
    44
1040
1.0
1070
    74
1070
     0
1000
MTEXTEND
  0
POINT
  5
117C
330
BA4
100
AcDbEntity
  8
Defpoints
 62
     0
100
AcDbPoint
 10
1915.168780516005
 20
-319.5556583977694
 30
0.0
  0
POINT
  5
117D
330
BA4
100
AcDbEntity
  8
Defpoints
 62
     0
100
AcDbPoint
 10
1956.168780516006
 20
519.2886459369551
 30
0.0
  0
POINT
  5
117E
330
BA4
100
AcDbEntity
  8
Defpoints
 62
     0
100
AcDbPoint
 10
1881.700263935714
 20
519.2886459369551
 30
0.0
  0
ENDBLK
  5
BAF
330
BA4
100
AcDbEntity
  8
0
100
AcDbBlockEnd
  0
BLOCK
  5
C06
330
C05
100
AcDbEntity
  8
0
100
AcDbBlockBegin
  2
_DOTBLANK
 70
     0
 10
0.0
 20
0.0
 30
0.0
  3
_DOTBLANK
  1

  0
CIRCLE
  5
C07
330
C05
100
AcDbEntity
  8
0
  6
Continuous
 62
     7
100
AcDbCircle
 10
0.0
 20
0.0
 30
0.0
 40
0.5
  0
LINE
  5
C08
330
C05
100
AcDbEntity
  8
0
  6
Continuous
 62
     7
100
AcDbLine
 10
-0.5
 20
0.0
 30
0.0
 11
-1.0
 21
0.0
 31
0.0
  0
ENDBLK
  5
C09
330
C05
100
AcDbEntity
  8
0
100
AcDbBlockEnd
  0
BLOCK
  5
1288
330
1286
100
AcDbEntity
  8
0
100
AcDbBlockBegin
  2
GENAXEH
 70
     0
 10
0.0
 20
0.0
 30
0.0
  3
GENAXEH
  1

  0
LINE
  5
1287
330
1286
100
AcDbEntity
  8
0
100
AcDbLine
 10
-1.0
 20
0.0
 30
0.0
 11
1.0
 21
0.0
 31
0.0
  0
ENDBLK
  5
1289
330
1286
100
AcDbEntity
  8
0
100
AcDbBlockEnd
  0
BLOCK
  5
1449
330
1448
100
AcDbEntity
  8
0
100
AcDbBlockBegin
  2
*D6
 70
     1
 10
0.0
 20
0.0
 30
0.0
  3
*D6
  1

  0
LINE
  5
144B
330
1448
100
AcDbEntity
  8
SIZE
 62
     0
370
    -2
100
AcDbLine
 10
3276.577915568412
 20
-345.7119700917789
 30
0.0
 11
3276.577915568412
 21
-407.9533044267659
 31
0.0
  0
LINE
  5
144C
330
1448
100
AcDbEntity
  8
SIZE
 62
     0
370
    -2
100
AcDbLine
 10
4152.577915568391
 20
-345.7119700917789
 30
0.0
 11
4152.577915568391
 21
-407.9533044267659
 31
0.0
  0
LINE
  5
144D
330
1448
100
AcDbEntity
  8
SIZE
 62
     0
370
    -2
100
AcDbLine
 10
3296.57791556841
 20
-397.9533044267659
 30
0.0
 11
4132.577915568391
 21
-397.9533044267659
 31
0.0
  0
INSERT
  5
144E
330
1448
100
AcDbEntity
  8
SIZE
 62
     0
370
    -2
100
AcDbBlockReference
  2
_OPEN30
 10
3276.577915568412
 20
-397.9533044267659
 30
0.0
 41
20.0
 42
20.0
 43
20.0
 50
180.0
  0
INSERT
  5
144F
330
1448
100
AcDbEntity
  8
SIZE
 62
     0
370
    -2
100
AcDbBlockReference
  2
_OPEN30
 10
4152.577915568391
 20
-397.9533044267659
 30
0.0
 41
20.0
 42
20.0
 43
20.0
  0
MTEXT
  5
1450
330
1448
100
AcDbEntity
  8
SIZE
 62
     0
100
AcDbMText
 10
3714.577915568401
 20
-377.9533044267659
 30
0.0
 40
20.0
 41
0.0
 71
     5
 72
     1
  1
\A1;876
 73
     1
 44
1.0
1001
ACAD
1000
MTEXTBEGIN
1070
    73
1070
     1
1070
    44
1040
1.0
1070
    74
1070
     0
1000
MTEXTEND
  0
POINT
  5
1451
330
1448
100
AcDbEntity
  8
Defpoints
 62
     0
100
AcDbPoint
 10
3276.577915568412
 20
-335.7119700917789
 30
0.0
  0
POINT
  5
1452
330
1448
100
AcDbEntity
  8
Defpoints
 62
     0
100
AcDbPoint
 10
4152.577915568391
 20
-335.7119700917789
 30
0.0
  0
POINT
  5
1453
330
1448
100
AcDbEntity
  8
Defpoints
 62
     0
100
AcDbPoint
 10
4152.577915568391
 20
-397.9533044267659
 30
0.0
  0
ENDBLK
  5
144A
330
1448
100
AcDbEntity
  8
0
100
AcDbBlockEnd
  0
BLOCK
  5
1456
330
1455
100
AcDbEntity
  8
0
100
AcDbBlockBegin
  2
*D7
 70
     1
 10
0.0
 20
0.0
 30
0.0
  3
*D7
  1

  0
LINE
  5
1458
330
1455
100
AcDbEntity
  8
SIZE
 62
     0
370
    -2
100
AcDbLine
 10
3258.57791556839
 20
-332.2119700917785
 30
0.0
 11
3258.57791556839
 21
-457.1314945482344
 31
0.0
  0
LINE
  5
1459
330
1455
100
AcDbEntity
  8
SIZE
 62
     0
370
    -2
100
AcDbLine
 10
4170.577915568389
 20
-332.2119700917785
 30
0.0
 11
4170.577915568389
 21
-457.1314945482344
 31
0.0
  0
LINE
  5
145A
330
1455
100
AcDbEntity
  8
SIZE
 62
     0
370
    -2
100
AcDbLine
 10
3278.577915568391
 20
-447.1314945482344
 30
0.0
 11
4150.57791556839
 21
-447.1314945482344
 31
0.0
  0
INSERT
  5
145B
330
1455
100
AcDbEntity
  8
SIZE
 62
     0
370
    -2
100
AcDbBlockReference
  2
_OPEN30
 10
3258.57791556839
 20
-447.1314945482344
 30
0.0
 41
20.0
 42
20.0
 43
20.0
 50
180.0
  0
INSERT
  5
145C
330
1455
100
AcDbEntity
  8
SIZE
 62
     0
370
    -2
100
AcDbBlockReference
  2
_OPEN30
 10
4170.577915568389
 20
-447.1314945482344
 30
0.0
 41
20.0
 42
20.0
 43
20.0
  0
MTEXT
  5
145D
330
1455
100
AcDbEntity
  8
SIZE
 62
     0
100
AcDbMText
 10
3714.577915568391
 20
-427.1314945482344
 30
0.0
 40
20.0
 41
0.0
 71
     5
 72
     1
  1
\A1;912
 73
     1
 44
1.0
1001
ACAD
1000
MTEXTBEGIN
1070
    73
1070
     1
1070
    44
1040
1.0
1070
    74
1070
     0
1000
MTEXTEND
  0
POINT
  5
145E
330
1455
100
AcDbEntity
  8
Defpoints
 62
     0
100
AcDbPoint
 10
3258.57791556839
 20
-322.2119700917785
 30
0.0
  0
POINT
  5
145F
330
1455
100
AcDbEntity
  8
Defpoints
 62
     0
100
AcDbPoint
 10
4170.577915568389
 20
-322.2119700917785
 30
0.0
  0
POINT
  5
1460
330
1455
100
AcDbEntity
  8
Defpoints
 62
     0
100
AcDbPoint
 10
4170.577915568389
 20
-447.1314945482344
 30
0.0
  0
ENDBLK
  5
1457
330
1455
100
AcDbEntity
  8
0
100
AcDbBlockEnd
  0
BLOCK
  5
1463
330
1462
100
AcDbEntity
  8
0
100
AcDbBlockBegin
  2
*D8
 70
     1
 10
0.0
 20
0.0
 30
0.0
  3
*D8
  1

  0
LINE
  5
1465
330
1462
100
AcDbEntity
  8
SIZE
 62
     0
370
    -2
100
AcDbLine
 10
3248.577915568392
 20
-322.2119700917785
 30
0.0
 11
3200.16545124475
 21
-322.2119700917785
 31
0.0
  0
LINE
  5
1466
330
1462
100
AcDbEntity
  8
SIZE
 62
     0
370
    -2
100
AcDbLine
 10
3283.077915568392
 20
516.6630582210614
 30
0.0
 11
3200.16545124475
 21
516.6630582210614
 31
0.0
  0
LINE
  5
1467
330
1462
100
AcDbEntity
  8
SIZE
 62
     0
370
    -2
100
AcDbLine
 10
3210.16545124475
 20
-302.2119700917785
 30
0.0
 11
3210.16545124475
 21
496.6630582210613
 31
0.0
  0
INSERT
  5
1468
330
1462
100
AcDbEntity
  8
SIZE
 62
     0
370
    -2
100
AcDbBlockReference
  2
_OPEN30
 10
3210.16545124475
 20
-322.2119700917785
 30
0.0
 41
20.0
 42
20.0
 43
20.0
 50
270.0
  0
INSERT
  5
1469
330
1462
100
AcDbEntity
  8
SIZE
 62
     0
370
    -2
100
AcDbBlockReference
  2
_OPEN30
 10
3210.16545124475
 20
516.6630582210614
 30
0.0
 41
20.0
 42
20.0
 43
20.0
 50
90.0
  0
MTEXT
  5
146A
330
1462
100
AcDbEntity
  8
SIZE
 62
     0
100
AcDbMText
 10
3190.16545124475
 20
97.22554406464196
 30
0.0
 40
20.0
 41
0.0
 71
     5
 72
     1
  1
\A1;839
 11
0.0000000000000001
 21
1.0
 31
0.0
 73
     1
 44
1.0
1001
ACAD
1000
MTEXTBEGIN
1070
    73
1070
     1
1070
    44
1040
1.0
1070
    74
1070
     0
1000
MTEXTEND
  0
POINT
  5
146B
330
1462
100
AcDbEntity
  8
Defpoints
 62
     0
100
AcDbPoint
 10
3258.57791556839
 20
-322.2119700917785
 30
0.0
  0
POINT
  5
146C
330
1462
100
AcDbEntity
  8
Defpoints
 62
     0
100
AcDbPoint
 10
3293.077915568392
 20
516.6630582210614
 30
0.0
  0
POINT
  5
146D
330
1462
100
AcDbEntity
  8
Defpoints
 62
     0
100
AcDbPoint
 10
3210.16545124475
 20
516.6630582210614
 30
0.0
  0
ENDBLK
  5
1464
330
1462
100
AcDbEntity
  8
0
100
AcDbBlockEnd
  0
BLOCK
  5
17C7
330
17C6
100
AcDbEntity
  8
0
100
AcDbBlockBegin
  2
*D9
 70
     1
 10
0.0
 20
0.0
 30
0.0
  3
*D9
  1

  0
LINE
  5
17C9
330
17C6
100
AcDbEntity
  8
SIZE
 62
     0
370
    -2
100
AcDbLine
 10
5403.844224021759
 20
-734.8685909323052
 30
0.0
 11
5403.844224021759
 21
-836.8109185808247
 31
0.0
  0
LINE
  5
17CA
330
17C6
100
AcDbEntity
  8
SIZE
 62
     0
370
    -2
100
AcDbLine
 10
4972.844224069028
 20
-781.868576293202
 30
0.0
 11
4972.844224069028
 21
-836.8109185808247
 31
0.0
  0
LINE
  5
17CB
330
17C6
100
AcDbEntity
  8
SIZE
 62
     0
370
    -2
100
AcDbLine
 10
5383.84422402176
 20
-826.8109185808247
 30
0.0
 11
4992.844224069028
 21
-826.8109185808247
 31
0.0
  0
INSERT
  5
17CC
330
17C6
100
AcDbEntity
  8
SIZE
 62
     0
370
    -2
100
AcDbBlockReference
  2
_OPEN30
 10
5403.844224021759
 20
-826.8109185808247
 30
0.0
 41
20.0
 42
20.0
 43
20.0
  0
INSERT
  5
17CD
330
17C6
100
AcDbEntity
  8
SIZE
 62
     0
370
    -2
100
AcDbBlockReference
  2
_OPEN30
 10
4972.844224069028
 20
-826.8109185808247
 30
0.0
 41
20.0
 42
20.0
 43
20.0
 50
180.0
  0
MTEXT
  5
17CE
330
17C6
100
AcDbEntity
  8
SIZE
 62
     0
100
AcDbMText
 10
5188.344224045393
 20
-806.8109185808246
 30
0.0
 40
20.0
 41
0.0
 71
     5
 72
     1
  1
\A1;431
 73
     1
 44
1.0
1001
ACAD
1000
MTEXTBEGIN
1070
    73
1070
     1
1070
    44
1040
1.0
1070
    74
1070
     0
1000
MTEXTEND
  0
POINT
  5
17CF
330
17C6
100
AcDbEntity
  8
Defpoints
 62
     0
100
AcDbPoint
 10
5403.844224021759
 20
-724.8685909323053
 30
0.0
  0
POINT
  5
17D0
330
17C6
100
AcDbEntity
  8
Defpoints
 62
     0
100
AcDbPoint
 10
4972.844224069028
 20
-771.868576293202
 30
0.0
  0
POINT
  5
17D1
330
17C6
100
AcDbEntity
  8
Defpoints
 62
     0
100
AcDbPoint
 10
4972.844224069028
 20
-826.8109185808247
 30
0.0
  0
ENDBLK
  5
17C8
330
17C6
100
AcDbEntity
  8
0
100
AcDbBlockEnd
  0
BLOCK
  5
17D4
330
17D3
100
AcDbEntity
  8
0
100
AcDbBlockBegin
  2
*D10
 70
     1
 10
0.0
 20
0.0
 30
0.0
  3
*D10
  1

  0
LINE
  5
17D6
330
17D3
100
AcDbEntity
  8
SIZE
 62
     0
370
    -2
100
AcDbLine
 10
4949.344224069029
 20
-758.368576293202
 30
0.0
 11
4902.678982623477
 21
-758.368576293202
 31
0.0
  0
LINE
  5
17D7
330
17D3
100
AcDbEntity
  8
SIZE
 62
     0
370
    -2
100
AcDbLine
 10
4943.844223774964
 20
-465.9823027168431
 30
0.0
 11
4902.678982623477
 21
-465.9823027168431
 31
0.0
  0
LINE
  5
17D8
330
17D3
100
AcDbEntity
  8
SIZE
 62
     0
370
    -2
100
AcDbLine
 10
4912.678982623477
 20
-738.368576293202
 30
0.0
 11
4912.678982623477
 21
-485.982302716843
 31
0.0
  0
INSERT
  5
17D9
330
17D3
100
AcDbEntity
  8
SIZE
 62
     0
370
    -2
100
AcDbBlockReference
  2
_OPEN30
 10
4912.678982623477
 20
-758.368576293202
 30
0.0
 41
20.0
 42
20.0
 43
20.0
 50
270.0
  0
INSERT
  5
17DA
330
17D3
100
AcDbEntity
  8
SIZE
 62
     0
370
    -2
100
AcDbBlockReference
  2
_OPEN30
 10
4912.678982623477
 20
-465.9823027168431
 30
0.0
 41
20.0
 42
20.0
 43
20.0
 50
90.0
  0
MTEXT
  5
17DB
330
17D3
100
AcDbEntity
  8
SIZE
 62
     0
100
AcDbMText
 10
4892.678982623477
 20
-612.1754395050217
 30
0.0
 40
20.0
 41
0.0
 71
     5
 72
     1
  1
\A1;292.5
 11
0.0000000000000001
 21
1.0
 31
0.0
 73
     1
 44
1.0
1001
ACAD
1000
MTEXTBEGIN
1070
    73
1070
     1
1070
    44
1040
1.0
1070
    74
1070
     0
1000
MTEXTEND
  0
POINT
  5
17DC
330
17D3
100
AcDbEntity
  8
Defpoints
 62
     0
100
AcDbPoint
 10
4959.344224069027
 20
-758.368576293202
 30
0.0
  0
POINT
  5
17DD
330
17D3
100
AcDbEntity
  8
Defpoints
 62
     0
100
AcDbPoint
 10
4953.844223774964
 20
-465.9823027168431
 30
0.0
  0
POINT
  5
17DE
330
17D3
100
AcDbEntity
  8
Defpoints
 62
     0
100
AcDbPoint
 10
4912.678982623477
 20
-465.9823027168431
 30
0.0
  0
ENDBLK
  5
17D5
330
17D3
100
AcDbEntity
  8
0
100
AcDbBlockEnd
  0
BLOCK
  5
17E1
330
17E0
100
AcDbEntity
  8
0
100
AcDbBlockBegin
  2
*D11
 70
     1
 10
0.0
 20
0.0
 30
0.0
  3
*D11
  1

  0
LINE
  5
17E3
330
17E0
100
AcDbEntity
  8
SIZE
 62
     0
370
    -2
100
AcDbLine
 10
4943.844223774964
 20
-465.9823027168431
 30
0.0
 11
4902.678982623477
 21
-465.9823027168431
 31
0.0
  0
LINE
  5
17E4
330
17E0
100
AcDbEntity
  8
SIZE
 62
     0
370
    -2
100
AcDbLine
 10
4943.844223274107
 20
32.01769728315663
 30
0.0
 11
4902.678982623477
 21
32.01769728315664
 31
0.0
  0
LINE
  5
17E5
330
17E0
100
AcDbEntity
  8
SIZE
 62
     0
370
    -2
100
AcDbLine
 10
4912.678982623477
 20
-445.9823027168432
 30
0.0
 11
4912.678982623477
 21
12.01769728315663
 31
0.0
  0
INSERT
  5
17E6
330
17E0
100
AcDbEntity
  8
SIZE
 62
     0
370
    -2
100
AcDbBlockReference
  2
_OPEN30
 10
4912.678982623477
 20
-465.9823027168431
 30
0.0
 41
20.0
 42
20.0
 43
20.0
 50
270.0
  0
INSERT
  5
17E7
330
17E0
100
AcDbEntity
  8
SIZE
 62
     0
370
    -2
100
AcDbBlockReference
  2
_OPEN30
 10
4912.678982623477
 20
32.01769728315663
 30
0.0
 41
20.0
 42
20.0
 43
20.0
 50
90.0
  0
MTEXT
  5
17E8
330
17E0
100
AcDbEntity
  8
SIZE
 62
     0
100
AcDbMText
 10
4892.678982623477
 20
-216.9823027168425
 30
0.0
 40
20.0
 41
0.0
 71
     5
 72
     1
  1
\A1;498
 11
0.0000000000000001
 21
1.0
 31
0.0
 73
     1
 44
1.0
1001
ACAD
1000
MTEXTBEGIN
1070
    73
1070
     1
1070
    44
1040
1.0
1070
    74
1070
     0
1000
MTEXTEND
  0
POINT
  5
17E9
330
17E0
100
AcDbEntity
  8
Defpoints
 62
     0
100
AcDbPoint
 10
4953.844223774964
 20
-465.9823027168431
 30
0.0
  0
POINT
  5
17EA
330
17E0
100
AcDbEntity
  8
Defpoints
 62
     0
100
AcDbPoint
 10
4953.844223274107
 20
32.01769728315662
 30
0.0
  0
POINT
  5
17EB
330
17E0
100
AcDbEntity
  8
Defpoints
 62
     0
100
AcDbPoint
 10
4912.678982623477
 20
32.01769728315663
 30
0.0
  0
ENDBLK
  5
17E2
330
17E0
100
AcDbEntity
  8
0
100
AcDbBlockEnd
  0
BLOCK
  5
17EE
330
17ED
100
AcDbEntity
  8
0
100
AcDbBlockBegin
  2
*D12
 70
     1
 10
0.0
 20
0.0
 30
0.0
  3
*D12
  1

  0
LINE
  5
17F0
330
17ED
100
AcDbEntity
  8
SIZE
 62
     0
370
    -2
100
AcDbLine
 10
4943.844223274107
 20
32.01769728315663
 30
0.0
 11
4902.678982623477
 21
32.01769728315664
 31
0.0
  0
LINE
  5
17F1
330
17ED
100
AcDbEntity
  8
SIZE
 62
     0
370
    -2
100
AcDbLine
 10
4943.844222782303
 20
521.0176972831566
 30
0.0
 11
4902.678982623477
 21
521.0176972831566
 31
0.0
  0
LINE
  5
17F2
330
17ED
100
AcDbEntity
  8
SIZE
 62
     0
370
    -2
100
AcDbLine
 10
4912.678982623477
 20
52.01769728315664
 30
0.0
 11
4912.678982623477
 21
501.0176972831566
 31
0.0
  0
INSERT
  5
17F3
330
17ED
100
AcDbEntity
  8
SIZE
 62
     0
370
    -2
100
AcDbBlockReference
  2
_OPEN30
 10
4912.678982623477
 20
32.01769728315663
 30
0.0
 41
20.0
 42
20.0
 43
20.0
 50
270.0
  0
INSERT
  5
17F4
330
17ED
100
AcDbEntity
  8
SIZE
 62
     0
370
    -2
100
AcDbBlockReference
  2
_OPEN30
 10
4912.678982623477
 20
521.0176972831566
 30
0.0
 41
20.0
 42
20.0
 43
20.0
 50
90.0
  0
MTEXT
  5
17F5
330
17ED
100
AcDbEntity
  8
SIZE
 62
     0
100
AcDbMText
 10
4892.678982623477
 20
276.5176972831575
 30
0.0
 40
20.0
 41
0.0
 71
     5
 72
     1
  1
\A1;489
 11
0.0000000000000001
 21
1.0
 31
0.0
 73
     1
 44
1.0
1001
ACAD
1000
MTEXTBEGIN
1070
    73
1070
     1
1070
    44
1040
1.0
1070
    74
1070
     0
1000
MTEXTEND
  0
POINT
  5
17F6
330
17ED
100
AcDbEntity
  8
Defpoints
 62
     0
100
AcDbPoint
 10
4953.844223274107
 20
32.01769728315662
 30
0.0
  0
POINT
  5
17F7
330
17ED
100
AcDbEntity
  8
Defpoints
 62
     0
100
AcDbPoint
 10
4953.844222782302
 20
521.0176972831566
 30
0.0
  0
POINT
  5
17F8
330
17ED
100
AcDbEntity
  8
Defpoints
 62
     0
100
AcDbPoint
 10
4912.678982623477
 20
521.0176972831566
 30
0.0
  0
ENDBLK
  5
17EF
330
17ED
100
AcDbEntity
  8
0
100
AcDbBlockEnd
  0
BLOCK
  5
17FB
330
17FA
100
AcDbEntity
  8
0
100
AcDbBlockBegin
  2
*D13
 70
     1
 10
0.0
 20
0.0
 30
0.0
  3
*D13
  1

  0
LINE
  5
17FD
330
17FA
100
AcDbEntity
  8
SIZE
 62
     0
370
    -2
100
AcDbLine
 10
5463.844223774965
 20
-465.98230224113
 30
0.0
 11
5528.741897340081
 21
-465.98230224113
 31
0.0
  0
LINE
  5
17FE
330
17FA
100
AcDbEntity
  8
SIZE
 62
     0
370
    -2
100
AcDbLine
 10
5427.344224021759
 20
-711.3685909323053
 30
0.0
 11
5528.741897340081
 21
-711.3685909323053
 31
0.0
  0
LINE
  5
17FF
330
17FA
100
AcDbEntity
  8
SIZE
 62
     0
370
    -2
100
AcDbLine
 10
5518.741897340081
 20
-485.9823022411298
 30
0.0
 11
5518.741897340081
 21
-691.3685909323053
 31
0.0
  0
INSERT
  5
1800
330
17FA
100
AcDbEntity
  8
SIZE
 62
     0
370
    -2
100
AcDbBlockReference
  2
_OPEN30
 10
5518.741897340081
 20
-465.98230224113
 30
0.0
 41
20.0
 42
20.0
 43
20.0
 50
90.0
  0
INSERT
  5
1801
330
17FA
100
AcDbEntity
  8
SIZE
 62
     0
370
    -2
100
AcDbBlockReference
  2
_OPEN30
 10
5518.741897340081
 20
-711.3685909323053
 30
0.0
 41
20.0
 42
20.0
 43
20.0
 50
270.0
  0
MTEXT
  5
1802
330
17FA
100
AcDbEntity
  8
SIZE
 62
     0
100
AcDbMText
 10
5498.741897340081
 20
-588.6754465867168
 30
0.0
 40
20.0
 41
0.0
 71
     5
 72
     1
  1
\A1;245.5
 11
0.0000000000000001
 21
1.0
 31
0.0
 73
     1
 44
1.0
1001
ACAD
1000
MTEXTBEGIN
1070
    73
1070
     1
1070
    44
1040
1.0
1070
    74
1070
     0
1000
MTEXTEND
  0
POINT
  5
1803
330
17FA
100
AcDbEntity
  8
Defpoints
 62
     0
100
AcDbPoint
 10
5453.844223774964
 20
-465.98230224113
 30
0.0
  0
POINT
  5
1804
330
17FA
100
AcDbEntity
  8
Defpoints
 62
     0
100
AcDbPoint
 10
5417.344224021759
 20
-711.3685909323053
 30
0.0
  0
POINT
  5
1805
330
17FA
100
AcDbEntity
  8
Defpoints
 62
     0
100
AcDbPoint
 10
5518.741897340081
 20
-711.3685909323053
 30
0.0
  0
ENDBLK
  5
17FC
330
17FA
100
AcDbEntity
  8
0
100
AcDbBlockEnd
  0
BLOCK
  5
1808
330
1807
100
AcDbEntity
  8
0
100
AcDbBlockBegin
  2
*D14
 70
     1
 10
0.0
 20
0.0
 30
0.0
  3
*D14
  1

  0
LINE
  5
180A
330
1807
100
AcDbEntity
  8
SIZE
 62
     0
370
    -2
100
AcDbLine
 10
4950.344222842804
 20
530.0176972871821
 30
0.0
 11
4853.153832427754
 21
530.0176972871821
 31
0.0
  0
LINE
  5
180B
330
1807
100
AcDbEntity
  8
SIZE
 62
     0
370
    -2
100
AcDbLine
 10
4956.344224075063
 20
-764.3685743755805
 30
0.0
 11
4853.153832427754
 21
-764.3685743755805
 31
0.0
  0
LINE
  5
180C
330
1807
100
AcDbEntity
  8
SIZE
 62
     0
370
    -2
100
AcDbLine
 10
4863.153832427753
 20
510.0176972871821
 30
0.0
 11
4863.153832427753
 21
-744.3685743755804
 31
0.0
  0
INSERT
  5
180D
330
1807
100
AcDbEntity
  8
SIZE
 62
     0
370
    -2
100
AcDbBlockReference
  2
_OPEN30
 10
4863.153832427753
 20
530.0176972871821
 30
0.0
 41
20.0
 42
20.0
 43
20.0
 50
90.0
  0
INSERT
  5
180E
330
1807
100
AcDbEntity
  8
SIZE
 62
     0
370
    -2
100
AcDbBlockReference
  2
_OPEN30
 10
4863.153832427753
 20
-764.3685743755805
 30
0.0
 41
20.0
 42
20.0
 43
20.0
 50
270.0
  0
MTEXT
  5
180F
330
1807
100
AcDbEntity
  8
SIZE
 62
     0
100
AcDbMText
 10
4843.153832427756
 20
-117.1754385441984
 30
0.0
 40
20.0
 41
0.0
 71
     5
 72
     1
  1
\A1;1294.5
 11
0.0000000000000001
 21
1.0
 31
0.0
 73
     1
 44
1.0
1001
ACAD
1000
MTEXTBEGIN
1070
    73
1070
     1
1070
    44
1040
1.0
1070
    74
1070
     0
1000
MTEXTEND
  0
POINT
  5
1810
330
1807
100
AcDbEntity
  8
Defpoints
 62
     0
100
AcDbPoint
 10
4960.344222842805
 20
530.0176972871821
 30
0.0
  0
POINT
  5
1811
330
1807
100
AcDbEntity
  8
Defpoints
 62
     0
100
AcDbPoint
 10
4966.344224075061
 20
-764.3685743755805
 30
0.0
  0
POINT
  5
1812
330
1807
100
AcDbEntity
  8
Defpoints
 62
     0
100
AcDbPoint
 10
4863.153832427753
 20
-764.3685743755805
 30
0.0
  0
ENDBLK
  5
1809
330
1807
100
AcDbEntity
  8
0
100
AcDbBlockEnd
  0
BLOCK
  5
1815
330
1814
100
AcDbEntity
  8
0
100
AcDbBlockBegin
  2
*D15
 70
     1
 10
0.0
 20
0.0
 30
0.0
  3
*D15
  1

  0
LINE
  5
1817
330
1814
100
AcDbEntity
  8
SIZE
 62
     0
370
    -2
100
AcDbLine
 10
4967.344222782301
 20
544.5176972831566
 30
0.0
 11
4967.344222782301
 21
584.7945503374176
 31
0.0
  0
LINE
  5
1818
330
1814
100
AcDbEntity
  8
SIZE
 62
     0
370
    -2
100
AcDbLine
 10
5440.3442227823
 20
544.5176977588698
 30
0.0
 11
5440.3442227823
 21
584.7945503374176
 31
0.0
  0
LINE
  5
1819
330
1814
100
AcDbEntity
  8
SIZE
 62
     0
370
    -2
100
AcDbLine
 10
4987.344222782303
 20
574.7945503374173
 30
0.0
 11
5420.344222782301
 21
574.7945503374173
 31
0.0
  0
INSERT
  5
181A
330
1814
100
AcDbEntity
  8
SIZE
 62
     0
370
    -2
100
AcDbBlockReference
  2
_OPEN30
 10
4967.344222782301
 20
574.7945503374173
 30
0.0
 41
20.0
 42
20.0
 43
20.0
 50
180.0
  0
INSERT
  5
181B
330
1814
100
AcDbEntity
  8
SIZE
 62
     0
370
    -2
100
AcDbBlockReference
  2
_OPEN30
 10
5440.3442227823
 20
574.7945503374173
 30
0.0
 41
20.0
 42
20.0
 43
20.0
  0
MTEXT
  5
181C
330
1814
100
AcDbEntity
  8
SIZE
 62
     0
100
AcDbMText
 10
5203.844222782302
 20
594.7945503374175
 30
0.0
 40
20.0
 41
0.0
 71
     5
 72
     1
  1
\A1;473
 73
     1
 44
1.0
1001
ACAD
1000
MTEXTBEGIN
1070
    73
1070
     1
1070
    44
1040
1.0
1070
    74
1070
     0
1000
MTEXTEND
  0
POINT
  5
181D
330
1814
100
AcDbEntity
  8
Defpoints
 62
     0
100
AcDbPoint
 10
4967.344222782301
 20
534.5176972831565
 30
0.0
  0
POINT
  5
181E
330
1814
100
AcDbEntity
  8
Defpoints
 62
     0
100
AcDbPoint
 10
5440.3442227823
 20
534.5176977588697
 30
0.0
  0
POINT
  5
181F
330
1814
100
AcDbEntity
  8
Defpoints
 62
     0
100
AcDbPoint
 10
5440.3442227823
 20
574.7945503374173
 30
0.0
  0
ENDBLK
  5
1816
330
1814
100
AcDbEntity
  8
0
100
AcDbBlockEnd
  0
BLOCK
  5
1822
330
1821
100
AcDbEntity
  8
0
100
AcDbBlockBegin
  2
*D16
 70
     1
 10
0.0
 20
0.0
 30
0.0
  3
*D16
  1

  0
LINE
  5
1824
330
1821
100
AcDbEntity
  8
SIZE
 62
     0
370
    -2
100
AcDbLine
 10
4959.344222774254
 20
539.0176972751109
 30
0.0
 11
4959.344222774254
 21
622.8073934823115
 31
0.0
  0
LINE
  5
1825
330
1821
100
AcDbEntity
  8
SIZE
 62
     0
370
    -2
100
AcDbLine
 10
5448.344222774256
 20
539.0176977669158
 30
0.0
 11
5448.344222774256
 21
622.8073934823115
 31
0.0
  0
LINE
  5
1826
330
1821
100
AcDbEntity
  8
SIZE
 62
     0
370
    -2
100
AcDbLine
 10
4979.344222774255
 20
612.8073934823114
 30
0.0
 11
5428.344222774256
 21
612.8073934823114
 31
0.0
  0
INSERT
  5
1827
330
1821
100
AcDbEntity
  8
SIZE
 62
     0
370
    -2
100
AcDbBlockReference
  2
_OPEN30
 10
4959.344222774254
 20
612.8073934823114
 30
0.0
 41
20.0
 42
20.0
 43
20.0
 50
180.0
  0
INSERT
  5
1828
330
1821
100
AcDbEntity
  8
SIZE
 62
     0
370
    -2
100
AcDbBlockReference
  2
_OPEN30
 10
5448.344222774256
 20
612.8073934823114
 30
0.0
 41
20.0
 42
20.0
 43
20.0
  0
MTEXT
  5
1829
330
1821
100
AcDbEntity
  8
SIZE
 62
     0
100
AcDbMText
 10
5203.844222774256
 20
632.8073934823114
 30
0.0
 40
20.0
 41
0.0
 71
     5
 72
     1
  1
\A1;489
 73
     1
 44
1.0
1001
ACAD
1000
MTEXTBEGIN
1070
    73
1070
     1
1070
    44
1040
1.0
1070
    74
1070
     0
1000
MTEXTEND
  0
POINT
  5
182A
330
1821
100
AcDbEntity
  8
Defpoints
 62
     0
100
AcDbPoint
 10
4959.344222774254
 20
529.0176972751106
 30
0.0
  0
POINT
  5
182B
330
1821
100
AcDbEntity
  8
Defpoints
 62
     0
100
AcDbPoint
 10
5448.344222774256
 20
529.0176977669158
 30
0.0
  0
POINT
  5
182C
330
1821
100
AcDbEntity
  8
Defpoints
 62
     0
100
AcDbPoint
 10
5448.344222774256
 20
612.8073934823114
 30
0.0
  0
ENDBLK
  5
1823
330
1821
100
AcDbEntity
  8
0
100
AcDbBlockEnd
  0
BLOCK
  5
1A61
330
1A60
100
AcDbEntity
  8
0
100
AcDbBlockBegin
  2
*D17
 70
     1
 10
0.0
 20
0.0
 30
0.0
  3
*D17
  1

  0
LINE
  5
1A63
330
1A60
100
AcDbEntity
  8
SIZE
 62
     0
370
    -2
100
AcDbLine
 10
5960.517836402465
 20
555.3593111377327
 30
0.0
 11
5960.517836402465
 21
591.0515333223172
 31
0.0
  0
LINE
  5
1A64
330
1A60
100
AcDbEntity
  8
SIZE
 62
     0
370
    -2
100
AcDbLine
 10
6754.517836402467
 20
555.3593111377404
 30
0.0
 11
6754.517836402467
 21
591.0515333223172
 31
0.0
  0
LINE
  5
1A65
330
1A60
100
AcDbEntity
  8
SIZE
 62
     0
370
    -2
100
AcDbLine
 10
5980.517836402465
 20
581.0515333223172
 30
0.0
 11
6734.517836402466
 21
581.0515333223172
 31
0.0
  0
INSERT
  5
1A66
330
1A60
100
AcDbEntity
  8
SIZE
 62
     0
370
    -2
100
AcDbBlockReference
  2
_OPEN30
 10
5960.517836402465
 20
581.0515333223172
 30
0.0
 41
20.0
 42
20.0
 43
20.0
 50
180.0
  0
INSERT
  5
1A67
330
1A60
100
AcDbEntity
  8
SIZE
 62
     0
370
    -2
100
AcDbBlockReference
  2
_OPEN30
 10
6754.517836402467
 20
581.0515333223172
 30
0.0
 41
20.0
 42
20.0
 43
20.0
  0
MTEXT
  5
1A68
330
1A60
100
AcDbEntity
  8
SIZE
 62
     0
100
AcDbMText
 10
6357.517836402465
 20
601.0515333223172
 30
0.0
 40
20.0
 41
0.0
 71
     5
 72
     1
  1
\A1;794
 73
     1
 44
1.0
1001
ACAD
1000
MTEXTBEGIN
1070
    73
1070
     1
1070
    44
1040
1.0
1070
    74
1070
     0
1000
MTEXTEND
  0
POINT
  5
1A69
330
1A60
100
AcDbEntity
  8
Defpoints
 62
     0
100
AcDbPoint
 10
5960.517836402465
 20
545.3593111377326
 30
0.0
  0
POINT
  5
1A6A
330
1A60
100
AcDbEntity
  8
Defpoints
 62
     0
100
AcDbPoint
 10
6754.517836402467
 20
545.3593111377402
 30
0.0
  0
POINT
  5
1A6B
330
1A60
100
AcDbEntity
  8
Defpoints
 62
     0
100
AcDbPoint
 10
6754.517836402467
 20
581.0515333223172
 30
0.0
  0
ENDBLK
  5
1A62
330
1A60
100
AcDbEntity
  8
0
100
AcDbBlockEnd
  0
BLOCK
  5
1A6E
330
1A6D
100
AcDbEntity
  8
0
100
AcDbBlockBegin
  2
*D18
 70
     1
 10
0.0
 20
0.0
 30
0.0
  3
*D18
  1

  0
LINE
  5
1A70
330
1A6D
100
AcDbEntity
  8
SIZE
 62
     0
370
    -2
100
AcDbLine
 10
5952.517836402465
 20
549.8593111377326
 30
0.0
 11
5952.517836402465
 21
632.5549857378962
 31
0.0
  0
LINE
  5
1A71
330
1A6D
100
AcDbEntity
  8
SIZE
 62
     0
370
    -2
100
AcDbLine
 10
6762.517836402465
 20
549.8593111377326
 30
0.0
 11
6762.517836402465
 21
632.5549857378962
 31
0.0
  0
LINE
  5
1A72
330
1A6D
100
AcDbEntity
  8
SIZE
 62
     0
370
    -2
100
AcDbLine
 10
5972.517836402465
 20
622.5549857378966
 30
0.0
 11
6742.517836402464
 21
622.5549857378966
 31
0.0
  0
INSERT
  5
1A73
330
1A6D
100
AcDbEntity
  8
SIZE
 62
     0
370
    -2
100
AcDbBlockReference
  2
_OPEN30
 10
5952.517836402465
 20
622.5549857378966
 30
0.0
 41
20.0
 42
20.0
 43
20.0
 50
180.0
  0
INSERT
  5
1A74
330
1A6D
100
AcDbEntity
  8
SIZE
 62
     0
370
    -2
100
AcDbBlockReference
  2
_OPEN30
 10
6762.517836402465
 20
622.5549857378966
 30
0.0
 41
20.0
 42
20.0
 43
20.0
  0
MTEXT
  5
1A75
330
1A6D
100
AcDbEntity
  8
SIZE
 62
     0
100
AcDbMText
 10
6357.517836402465
 20
642.5549857378967
 30
0.0
 40
20.0
 41
0.0
 71
     5
 72
     1
  1
\A1;810
 73
     1
 44
1.0
1001
ACAD
1000
MTEXTBEGIN
1070
    73
1070
     1
1070
    44
1040
1.0
1070
    74
1070
     0
1000
MTEXTEND
  0
POINT
  5
1A76
330
1A6D
100
AcDbEntity
  8
Defpoints
 62
     0
100
AcDbPoint
 10
5952.517836402465
 20
539.8593111377326
 30
0.0
  0
POINT
  5
1A77
330
1A6D
100
AcDbEntity
  8
Defpoints
 62
     0
100
AcDbPoint
 10
6762.517836402465
 20
539.8593111377326
 30
0.0
  0
POINT
  5
1A78
330
1A6D
100
AcDbEntity
  8
Defpoints
 62
     0
100
AcDbPoint
 10
6762.517836402465
 20
622.5549857378966
 30
0.0
  0
ENDBLK
  5
1A6F
330
1A6D
100
AcDbEntity
  8
0
100
AcDbBlockEnd
  0
BLOCK
  5
1A7B
330
1A7A
100
AcDbEntity
  8
0
100
AcDbBlockBegin
  2
*D19
 70
     1
 10
0.0
 20
0.0
 30
0.0
  3
*D19
  1

  0
LINE
  5
1A7D
330
1A7A
100
AcDbEntity
  8
SIZE
 62
     0
370
    -2
100
AcDbLine
 10
5937.017836402465
 20
531.8593111377326
 30
0.0
 11
5895.839527645171
 21
531.8593111377326
 31
0.0
  0
LINE
  5
1A7E
330
1A7A
100
AcDbEntity
  8
SIZE
 62
     0
370
    -2
100
AcDbLine
 10
5937.017836402465
 20
-34.14068886226733
 30
0.0
 11
5895.839527645171
 21
-34.14068886226731
 31
0.0
  0
LINE
  5
1A7F
330
1A7A
100
AcDbEntity
  8
SIZE
 62
     0
370
    -2
100
AcDbLine
 10
5905.839527645171
 20
511.8593111377326
 30
0.0
 11
5905.839527645171
 21
-14.14068886226731
 31
0.0
  0
INSERT
  5
1A80
330
1A7A
100
AcDbEntity
  8
SIZE
 62
     0
370
    -2
100
AcDbBlockReference
  2
_OPEN30
 10
5905.839527645171
 20
531.8593111377326
 30
0.0
 41
20.0
 42
20.0
 43
20.0
 50
90.0
  0
INSERT
  5
1A81
330
1A7A
100
AcDbEntity
  8
SIZE
 62
     0
370
    -2
100
AcDbBlockReference
  2
_OPEN30
 10
5905.839527645171
 20
-34.14068886226733
 30
0.0
 41
20.0
 42
20.0
 43
20.0
 50
270.0
  0
MTEXT
  5
1A82
330
1A7A
100
AcDbEntity
  8
SIZE
 62
     0
100
AcDbMText
 10
5885.83952764517
 20
248.8593111377336
 30
0.0
 40
20.0
 41
0.0
 71
     5
 72
     1
  1
\A1;566
 11
0.0000000000000001
 21
1.0
 31
0.0
 73
     1
 44
1.0
1001
ACAD
1000
MTEXTBEGIN
1070
    73
1070
     1
1070
    44
1040
1.0
1070
    74
1070
     0
1000
MTEXTEND
  0
POINT
  5
1A83
330
1A7A
100
AcDbEntity
  8
Defpoints
 62
     0
100
AcDbPoint
 10
5947.017836402466
 20
531.8593111377326
 30
0.0
  0
POINT
  5
1A84
330
1A7A
100
AcDbEntity
  8
Defpoints
 62
     0
100
AcDbPoint
 10
5947.017836402466
 20
-34.14068886226733
 30
0.0
  0
POINT
  5
1A85
330
1A7A
100
AcDbEntity
  8
Defpoints
 62
     0
100
AcDbPoint
 10
5905.839527645171
 20
-34.14068886226733
 30
0.0
  0
ENDBLK
  5
1A7C
330
1A7A
100
AcDbEntity
  8
0
100
AcDbBlockEnd
  0
BLOCK
  5
1A88
330
1A87
100
AcDbEntity
  8
0
100
AcDbBlockBegin
  2
*D20
 70
     1
 10
0.0
 20
0.0
 30
0.0
  3
*D20
  1

  0
LINE
  5
1A8A
330
1A87
100
AcDbEntity
  8
SIZE
 62
     0
370
    -2
100
AcDbLine
 10
5937.017836402465
 20
-34.14068886226733
 30
0.0
 11
5895.839527645171
 21
-34.14068886226731
 31
0.0
  0
LINE
  5
1A8B
330
1A87
100
AcDbEntity
  8
SIZE
 62
     0
370
    -2
100
AcDbLine
 10
5939.517836402465
 20
-701.1406888622673
 30
0.0
 11
5895.839527645171
 21
-701.1406888622673
 31
0.0
  0
LINE
  5
1A8C
330
1A87
100
AcDbEntity
  8
SIZE
 62
     0
370
    -2
100
AcDbLine
 10
5905.839527645171
 20
-54.14068886226733
 30
0.0
 11
5905.839527645171
 21
-681.1406888622672
 31
0.0
  0
INSERT
  5
1A8D
330
1A87
100
AcDbEntity
  8
SIZE
 62
     0
370
    -2
100
AcDbBlockReference
  2
_OPEN30
 10
5905.839527645171
 20
-34.14068886226733
 30
0.0
 41
20.0
 42
20.0
 43
20.0
 50
90.0
  0
INSERT
  5
1A8E
330
1A87
100
AcDbEntity
  8
SIZE
 62
     0
370
    -2
100
AcDbBlockReference
  2
_OPEN30
 10
5905.839527645171
 20
-701.1406888622673
 30
0.0
 41
20.0
 42
20.0
 43
20.0
 50
270.0
  0
MTEXT
  5
1A8F
330
1A87
100
AcDbEntity
  8
SIZE
 62
     0
100
AcDbMText
 10
5885.83952764517
 20
-367.6406888622663
 30
0.0
 40
20.0
 41
0.0
 71
     5
 72
     1
  1
\A1;667
 11
0.0000000000000001
 21
1.0
 31
0.0
 73
     1
 44
1.0
1001
ACAD
1000
MTEXTBEGIN
1070
    73
1070
     1
1070
    44
1040
1.0
1070
    74
1070
     0
1000
MTEXTEND
  0
POINT
  5
1A90
330
1A87
100
AcDbEntity
  8
Defpoints
 62
     0
100
AcDbPoint
 10
5947.017836402466
 20
-34.14068886226733
 30
0.0
  0
POINT
  5
1A91
330
1A87
100
AcDbEntity
  8
Defpoints
 62
     0
100
AcDbPoint
 10
5949.517836402465
 20
-701.1406888622673
 30
0.0
  0
POINT
  5
1A92
330
1A87
100
AcDbEntity
  8
Defpoints
 62
     0
100
AcDbPoint
 10
5905.839527645171
 20
-701.1406888622673
 30
0.0
  0
ENDBLK
  5
1A89
330
1A87
100
AcDbEntity
  8
0
100
AcDbBlockEnd
  0
BLOCK
  5
1A95
330
1A94
100
AcDbEntity
  8
0
100
AcDbBlockBegin
  2
*D21
 70
     1
 10
0.0
 20
0.0
 30
0.0
  3
*D21
  1

  0
LINE
  5
1A97
330
1A94
100
AcDbEntity
  8
SIZE
 62
     0
370
    -2
100
AcDbLine
 10
5942.517836402466
 20
-711.1406888622673
 30
0.0
 11
5849.910961447642
 21
-711.1406888622673
 31
0.0
  0
LINE
  5
1A98
330
1A94
100
AcDbEntity
  8
SIZE
 62
     0
370
    -2
100
AcDbLine
 10
5943.517836402433
 20
540.8593111372327
 30
0.0
 11
5849.910961447642
 21
540.8593111372328
 31
0.0
  0
LINE
  5
1A99
330
1A94
100
AcDbEntity
  8
SIZE
 62
     0
370
    -2
100
AcDbLine
 10
5859.910961447639
 20
-691.140688862267
 30
0.0
 11
5859.910961447639
 21
520.8593111372326
 31
0.0
  0
INSERT
  5
1A9A
330
1A94
100
AcDbEntity
  8
SIZE
 62
     0
370
    -2
100
AcDbBlockReference
  2
_OPEN30
 10
5859.910961447639
 20
-711.1406888622673
 30
0.0
 41
20.0
 42
20.0
 43
20.0
 50
270.0
  0
INSERT
  5
1A9B
330
1A94
100
AcDbEntity
  8
SIZE
 62
     0
370
    -2
100
AcDbBlockReference
  2
_OPEN30
 10
5859.910961447639
 20
540.8593111372328
 30
0.0
 41
20.0
 42
20.0
 43
20.0
 50
90.0
  0
MTEXT
  5
1A9C
330
1A94
100
AcDbEntity
  8
SIZE
 62
     0
100
AcDbMText
 10
5839.910961447639
 20
-85.14068886251632
 30
0.0
 40
20.0
 41
0.0
 71
     5
 72
     1
  1
\A1;1252
 11
0.0000000000000001
 21
1.0
 31
0.0
 73
     1
 44
1.0
1001
ACAD
1000
MTEXTBEGIN
1070
    73
1070
     1
1070
    44
1040
1.0
1070
    74
1070
     0
1000
MTEXTEND
  0
POINT
  5
1A9D
330
1A94
100
AcDbEntity
  8
Defpoints
 62
     0
100
AcDbPoint
 10
5952.517836402465
 20
-711.1406888622673
 30
0.0
  0
POINT
  5
1A9E
330
1A94
100
AcDbEntity
  8
Defpoints
 62
     0
100
AcDbPoint
 10
5953.517836402433
 20
540.8593111372327
 30
0.0
  0
POINT
  5
1A9F
330
1A94
100
AcDbEntity
  8
Defpoints
 62
     0
100
AcDbPoint
 10
5859.910961447639
 20
540.8593111372328
 30
0.0
  0
ENDBLK
  5
1A96
330
1A94
100
AcDbEntity
  8
0
100
AcDbBlockEnd
  0
BLOCK
  5
1B8D
330
1B8C
100
AcDbEntity
  8
0
100
AcDbBlockBegin
  2
*D22
 70
     1
 10
0.0
 20
0.0
 30
0.0
  3
*D22
  1

  0
LINE
  5
1B8F
330
1B8C
100
AcDbEntity
  8
SIZE
 62
     0
370
    -2
100
AcDbLine
 10
5960.517836402465
 20
-10.64068886226733
 30
0.0
 11
5960.517836402465
 21
589.1202476644552
 31
0.0
  0
LINE
  5
1B90
330
1B8C
100
AcDbEntity
  8
SIZE
 62
     0
370
    -2
100
AcDbLine
 10
6754.517836402467
 20
-10.64068886226733
 30
0.0
 11
6754.517836402467
 21
589.1202476644552
 31
0.0
  0
LINE
  5
1B91
330
1B8C
100
AcDbEntity
  8
SIZE
 62
     0
370
    -2
100
AcDbLine
 10
5980.517836402465
 20
579.120247664455
 30
0.0
 11
6734.517836402467
 21
579.120247664455
 31
0.0
  0
INSERT
  5
1B92
330
1B8C
100
AcDbEntity
  8
SIZE
 62
     0
370
    -2
100
AcDbBlockReference
  2
_OPEN30
 10
5960.517836402465
 20
579.120247664455
 30
0.0
 41
20.0
 42
20.0
 43
20.0
 50
180.0
  0
INSERT
  5
1B93
330
1B8C
100
AcDbEntity
  8
SIZE
 62
     0
370
    -2
100
AcDbBlockReference
  2
_OPEN30
 10
6754.517836402467
 20
579.120247664455
 30
0.0
 41
20.0
 42
20.0
 43
20.0
  0
MTEXT
  5
1B94
330
1B8C
100
AcDbEntity
  8
SIZE
 62
     0
100
AcDbMText
 10
6357.517836402466
 20
599.120247664455
 30
0.0
 40
20.0
 41
0.0
 71
     5
 72
     1
  1
\A1;794
 73
     1
 44
1.0
1001
ACAD
1000
MTEXTBEGIN
1070
    73
1070
     1
1070
    44
1040
1.0
1070
    74
1070
     0
1000
MTEXTEND
  0
POINT
  5
1B95
330
1B8C
100
AcDbEntity
  8
Defpoints
 62
     0
100
AcDbPoint
 10
5960.517836402465
 20
-20.64068886226733
 30
0.0
  0
POINT
  5
1B96
330
1B8C
100
AcDbEntity
  8
Defpoints
 62
     0
100
AcDbPoint
 10
6754.517836402467
 20
-20.64068886226733
 30
0.0
  0
POINT
  5
1B97
330
1B8C
100
AcDbEntity
  8
Defpoints
 62
     0
100
AcDbPoint
 10
6754.517836402467
 20
579.120247664455
 30
0.0
  0
ENDBLK
  5
1B8E
330
1B8C
100
AcDbEntity
  8
0
100
AcDbBlockEnd
  0
BLOCK
  5
1B9A
330
1B99
100
AcDbEntity
  8
0
100
AcDbBlockBegin
  2
*D23
 70
     1
 10
0.0
 20
0.0
 30
0.0
  3
*D23
  1

  0
LINE
  5
1B9C
330
1B99
100
AcDbEntity
  8
SIZE
 62
     0
370
    -2
100
AcDbLine
 10
5963.017836402465
 20
-724.6406888622673
 30
0.0
 11
5963.017836402465
 21
-795.4624029744665
 31
0.0
  0
LINE
  5
1B9D
330
1B99
100
AcDbEntity
  8
SIZE
 62
     0
370
    -2
100
AcDbLine
 10
6752.017836402465
 20
-724.6406888622673
 30
0.0
 11
6752.017836402465
 21
-795.4624029744665
 31
0.0
  0
LINE
  5
1B9E
330
1B99
100
AcDbEntity
  8
SIZE
 62
     0
370
    -2
100
AcDbLine
 10
5983.017836402465
 20
-785.4624029744663
 30
0.0
 11
6732.017836402466
 21
-785.4624029744663
 31
0.0
  0
INSERT
  5
1B9F
330
1B99
100
AcDbEntity
  8
SIZE
 62
     0
370
    -2
100
AcDbBlockReference
  2
_OPEN30
 10
5963.017836402465
 20
-785.4624029744663
 30
0.0
 41
20.0
 42
20.0
 43
20.0
 50
180.0
  0
INSERT
  5
1BA0
330
1B99
100
AcDbEntity
  8
SIZE
 62
     0
370
    -2
100
AcDbBlockReference
  2
_OPEN30
 10
6752.017836402465
 20
-785.4624029744663
 30
0.0
 41
20.0
 42
20.0
 43
20.0
  0
MTEXT
  5
1BA1
330
1B99
100
AcDbEntity
  8
SIZE
 62
     0
100
AcDbMText
 10
6357.517836402465
 20
-765.4624029744665
 30
0.0
 40
20.0
 41
0.0
 71
     5
 72
     1
  1
\A1;789
 73
     1
 44
1.0
1001
ACAD
1000
MTEXTBEGIN
1070
    73
1070
     1
1070
    44
1040
1.0
1070
    74
1070
     0
1000
MTEXTEND
  0
POINT
  5
1BA2
330
1B99
100
AcDbEntity
  8
Defpoints
 62
     0
100
AcDbPoint
 10
5963.017836402465
 20
-714.6406888622673
 30
0.0
  0
POINT
  5
1BA3
330
1B99
100
AcDbEntity
  8
Defpoints
 62
     0
100
AcDbPoint
 10
6752.017836402465
 20
-714.6406888622673
 30
0.0
  0
POINT
  5
1BA4
330
1B99
100
AcDbEntity
  8
Defpoints
 62
     0
100
AcDbPoint
 10
6752.017836402465
 20
-785.4624029744663
 30
0.0
  0
ENDBLK
  5
1B9B
330
1B99
100
AcDbEntity
  8
0
100
AcDbBlockEnd
  0
BLOCK
  5
1DD8
330
1DD7
100
AcDbEntity
  8
0
100
AcDbBlockBegin
  2
*D24
 70
     1
 10
0.0
 20
0.0
 30
0.0
  3
*D24
  1

  0
LINE
  5
1DDA
330
1DD7
100
AcDbEntity
  8
SIZE
 62
     0
370
    -2
100
AcDbLine
 10
7564.545914584773
 20
582.6540992575892
 30
0.0
 11
7564.545914584773
 21
625.4985072175641
 31
0.0
  0
LINE
  5
1DDB
330
1DD7
100
AcDbEntity
  8
SIZE
 62
     0
370
    -2
100
AcDbLine
 10
8658.545914584772
 20
582.6540992575892
 30
0.0
 11
8658.545914584772
 21
625.4985072175641
 31
0.0
  0
LINE
  5
1DDC
330
1DD7
100
AcDbEntity
  8
SIZE
 62
     0
370
    -2
100
AcDbLine
 10
7584.545914584771
 20
615.4985072175641
 30
0.0
 11
8638.545914584772
 21
615.4985072175641
 31
0.0
  0
INSERT
  5
1DDD
330
1DD7
100
AcDbEntity
  8
SIZE
 62
     0
370
    -2
100
AcDbBlockReference
  2
_OPEN30
 10
7564.545914584773
 20
615.4985072175641
 30
0.0
 41
20.0
 42
20.0
 43
20.0
 50
180.0
  0
INSERT
  5
1DDE
330
1DD7
100
AcDbEntity
  8
SIZE
 62
     0
370
    -2
100
AcDbBlockReference
  2
_OPEN30
 10
8658.545914584772
 20
615.4985072175641
 30
0.0
 41
20.0
 42
20.0
 43
20.0
  0
MTEXT
  5
1DDF
330
1DD7
100
AcDbEntity
  8
SIZE
 62
     0
100
AcDbMText
 10
8111.545914584771
 20
635.4985072175641
 30
0.0
 40
20.0
 41
0.0
 71
     5
 72
     1
  1
\A1;1094
 73
     1
 44
1.0
1001
ACAD
1000
MTEXTBEGIN
1070
    73
1070
     1
1070
    44
1040
1.0
1070
    74
1070
     0
1000
MTEXTEND
  0
POINT
  5
1DE0
330
1DD7
100
AcDbEntity
  8
Defpoints
 62
     0
100
AcDbPoint
 10
7564.545914584773
 20
572.6540992575892
 30
0.0
  0
POINT
  5
1DE1
330
1DD7
100
AcDbEntity
  8
Defpoints
 62
     0
100
AcDbPoint
 10
8658.545914584772
 20
572.6540992575892
 30
0.0
  0
POINT
  5
1DE2
330
1DD7
100
AcDbEntity
  8
Defpoints
 62
     0
100
AcDbPoint
 10
8658.545914584772
 20
615.4985072175641
 30
0.0
  0
ENDBLK
  5
1DD9
330
1DD7
100
AcDbEntity
  8
0
100
AcDbBlockEnd
  0
BLOCK
  5
1DE5
330
1DE4
100
AcDbEntity
  8
0
100
AcDbBlockBegin
  2
*D25
 70
     1
 10
0.0
 20
0.0
 30
0.0
  3
*D25
  1

  0
LINE
  5
1DE7
330
1DE4
100
AcDbEntity
  8
SIZE
 62
     0
370
    -2
100
AcDbLine
 10
7556.545914584773
 20
577.1540992575892
 30
0.0
 11
7556.545914584773
 21
670.2776352814311
 31
0.0
  0
LINE
  5
1DE8
330
1DE4
100
AcDbEntity
  8
SIZE
 62
     0
370
    -2
100
AcDbLine
 10
8666.545914584773
 20
577.1540992575875
 30
0.0
 11
8666.545914584773
 21
670.2776352814311
 31
0.0
  0
LINE
  5
1DE9
330
1DE4
100
AcDbEntity
  8
SIZE
 62
     0
370
    -2
100
AcDbLine
 10
7576.545914584773
 20
660.2776352814311
 30
0.0
 11
8646.545914584773
 21
660.2776352814311
 31
0.0
  0
INSERT
  5
1DEA
330
1DE4
100
AcDbEntity
  8
SIZE
 62
     0
370
    -2
100
AcDbBlockReference
  2
_OPEN30
 10
7556.545914584773
 20
660.2776352814311
 30
0.0
 41
20.0
 42
20.0
 43
20.0
 50
180.0
  0
INSERT
  5
1DEB
330
1DE4
100
AcDbEntity
  8
SIZE
 62
     0
370
    -2
100
AcDbBlockReference
  2
_OPEN30
 10
8666.545914584773
 20
660.2776352814311
 30
0.0
 41
20.0
 42
20.0
 43
20.0
  0
MTEXT
  5
1DEC
330
1DE4
100
AcDbEntity
  8
SIZE
 62
     0
100
AcDbMText
 10
8111.545914584771
 20
680.2776352814311
 30
0.0
 40
20.0
 41
0.0
 71
     5
 72
     1
  1
\A1;1110
 73
     1
 44
1.0
1001
ACAD
1000
MTEXTBEGIN
1070
    73
1070
     1
1070
    44
1040
1.0
1070
    74
1070
     0
1000
MTEXTEND
  0
POINT
  5
1DED
330
1DE4
100
AcDbEntity
  8
Defpoints
 62
     0
100
AcDbPoint
 10
7556.545914584773
 20
567.1540992575891
 30
0.0
  0
POINT
  5
1DEE
330
1DE4
100
AcDbEntity
  8
Defpoints
 62
     0
100
AcDbPoint
 10
8666.545914584773
 20
567.1540992575875
 30
0.0
  0
POINT
  5
1DEF
330
1DE4
100
AcDbEntity
  8
Defpoints
 62
     0
100
AcDbPoint
 10
8666.545914584773
 20
660.2776352814311
 30
0.0
  0
ENDBLK
  5
1DE6
330
1DE4
100
AcDbEntity
  8
0
100
AcDbBlockEnd
  0
BLOCK
  5
1DF2
330
1DF1
100
AcDbEntity
  8
0
100
AcDbBlockBegin
  2
*D26
 70
     1
 10
0.0
 20
0.0
 30
0.0
  3
*D26
  1

  0
LINE
  5
1DF4
330
1DF1
100
AcDbEntity
  8
SIZE
 62
     0
370
    -2
100
AcDbLine
 10
7567.045914584773
 20
-697.3459007424104
 30
0.0
 11
7567.045914584773
 21
-760.5994951524087
 31
0.0
  0
LINE
  5
1DF5
330
1DF1
100
AcDbEntity
  8
SIZE
 62
     0
370
    -2
100
AcDbLine
 10
8656.045914584773
 20
-697.3459007424118
 30
0.0
 11
8656.045914584773
 21
-760.5994951524087
 31
0.0
  0
LINE
  5
1DF6
330
1DF1
100
AcDbEntity
  8
SIZE
 62
     0
370
    -2
100
AcDbLine
 10
7587.045914584773
 20
-750.5994951524087
 30
0.0
 11
8636.045914584773
 21
-750.5994951524087
 31
0.0
  0
INSERT
  5
1DF7
330
1DF1
100
AcDbEntity
  8
SIZE
 62
     0
370
    -2
100
AcDbBlockReference
  2
_OPEN30
 10
7567.045914584773
 20
-750.5994951524087
 30
0.0
 41
20.0
 42
20.0
 43
20.0
 50
180.0
  0
INSERT
  5
1DF8
330
1DF1
100
AcDbEntity
  8
SIZE
 62
     0
370
    -2
100
AcDbBlockReference
  2
_OPEN30
 10
8656.045914584773
 20
-750.5994951524087
 30
0.0
 41
20.0
 42
20.0
 43
20.0
  0
MTEXT
  5
1DF9
330
1DF1
100
AcDbEntity
  8
SIZE
 62
     0
100
AcDbMText
 10
8111.545914584771
 20
-730.5994951524087
 30
0.0
 40
20.0
 41
0.0
 71
     5
 72
     1
  1
\A1;1089
 73
     1
 44
1.0
1001
ACAD
1000
MTEXTBEGIN
1070
    73
1070
     1
1070
    44
1040
1.0
1070
    74
1070
     0
1000
MTEXTEND
  0
POINT
  5
1DFA
330
1DF1
100
AcDbEntity
  8
Defpoints
 62
     0
100
AcDbPoint
 10
7567.045914584773
 20
-687.3459007424107
 30
0.0
  0
POINT
  5
1DFB
330
1DF1
100
AcDbEntity
  8
Defpoints
 62
     0
100
AcDbPoint
 10
8656.045914584773
 20
-687.3459007424117
 30
0.0
  0
POINT
  5
1DFC
330
1DF1
100
AcDbEntity
  8
Defpoints
 62
     0
100
AcDbPoint
 10
8656.045914584773
 20
-750.5994951524087
 30
0.0
  0
ENDBLK
  5
1DF3
330
1DF1
100
AcDbEntity
  8
0
100
AcDbBlockEnd
  0
BLOCK
  5
1DFF
330
1DFE
100
AcDbEntity
  8
0
100
AcDbBlockBegin
  2
*D27
 70
     1
 10
0.0
 20
0.0
 30
0.0
  3
*D27
  1

  0
LINE
  5
1E01
330
1DFE
100
AcDbEntity
  8
SIZE
 62
     0
370
    -2
100
AcDbLine
 10
7564.545914584773
 20
16.65409925758934
 30
0.0
 11
7564.545914584773
 21
627.7662143133182
 31
0.0
  0
LINE
  5
1E02
330
1DFE
100
AcDbEntity
  8
SIZE
 62
     0
370
    -2
100
AcDbLine
 10
8658.545914584772
 20
16.65409925758934
 30
0.0
 11
8658.545914584772
 21
627.7662143133182
 31
0.0
  0
LINE
  5
1E03
330
1DFE
100
AcDbEntity
  8
SIZE
 62
     0
370
    -2
100
AcDbLine
 10
7584.545914584771
 20
617.7662143133183
 30
0.0
 11
8638.545914584772
 21
617.7662143133183
 31
0.0
  0
INSERT
  5
1E04
330
1DFE
100
AcDbEntity
  8
SIZE
 62
     0
370
    -2
100
AcDbBlockReference
  2
_OPEN30
 10
7564.545914584773
 20
617.7662143133183
 30
0.0
 41
20.0
 42
20.0
 43
20.0
 50
180.0
  0
INSERT
  5
1E05
330
1DFE
100
AcDbEntity
  8
SIZE
 62
     0
370
    -2
100
AcDbBlockReference
  2
_OPEN30
 10
8658.545914584772
 20
617.7662143133183
 30
0.0
 41
20.0
 42
20.0
 43
20.0
  0
MTEXT
  5
1E06
330
1DFE
100
AcDbEntity
  8
SIZE
 62
     0
100
AcDbMText
 10
8111.545914584771
 20
637.766214313318
 30
0.0
 40
20.0
 41
0.0
 71
     5
 72
     1
  1
\A1;1094
 73
     1
 44
1.0
1001
ACAD
1000
MTEXTBEGIN
1070
    73
1070
     1
1070
    44
1040
1.0
1070
    74
1070
     0
1000
MTEXTEND
  0
POINT
  5
1E07
330
1DFE
100
AcDbEntity
  8
Defpoints
 62
     0
100
AcDbPoint
 10
7564.545914584773
 20
6.654099257589335
 30
0.0
  0
POINT
  5
1E08
330
1DFE
100
AcDbEntity
  8
Defpoints
 62
     0
100
AcDbPoint
 10
8658.545914584772
 20
6.654099257589335
 30
0.0
  0
POINT
  5
1E09
330
1DFE
100
AcDbEntity
  8
Defpoints
 62
     0
100
AcDbPoint
 10
8658.545914584772
 20
617.7662143133183
 30
0.0
  0
ENDBLK
  5
1E00
330
1DFE
100
AcDbEntity
  8
0
100
AcDbBlockEnd
  0
BLOCK
  5
1E0C
330
1E0B
100
AcDbEntity
  8
0
100
AcDbBlockBegin
  2
*D28
 70
     1
 10
0.0
 20
0.0
 30
0.0
  3
*D28
  1

  0
LINE
  5
1E0E
330
1E0B
100
AcDbEntity
  8
SIZE
 62
     0
370
    -2
100
AcDbLine
 10
7541.045914584772
 20
559.1540992575893
 30
0.0
 11
7486.477827017079
 21
559.1540992575893
 31
0.0
  0
LINE
  5
1E0F
330
1E0B
100
AcDbEntity
  8
SIZE
 62
     0
370
    -2
100
AcDbLine
 10
7541.045914584772
 20
-6.845900742410657
 30
0.0
 11
7486.477827017079
 21
-6.845900742410643
 31
0.0
  0
LINE
  5
1E10
330
1E0B
100
AcDbEntity
  8
SIZE
 62
     0
370
    -2
100
AcDbLine
 10
7496.47782701708
 20
539.1540992575893
 30
0.0
 11
7496.47782701708
 21
13.15409925758935
 31
0.0
  0
INSERT
  5
1E11
330
1E0B
100
AcDbEntity
  8
SIZE
 62
     0
370
    -2
100
AcDbBlockReference
  2
_OPEN30
 10
7496.47782701708
 20
559.1540992575893
 30
0.0
 41
20.0
 42
20.0
 43
20.0
 50
90.0
  0
INSERT
  5
1E12
330
1E0B
100
AcDbEntity
  8
SIZE
 62
     0
370
    -2
100
AcDbBlockReference
  2
_OPEN30
 10
7496.47782701708
 20
-6.845900742410647
 30
0.0
 41
20.0
 42
20.0
 43
20.0
 50
270.0
  0
MTEXT
  5
1E13
330
1E0B
100
AcDbEntity
  8
SIZE
 62
     0
100
AcDbMText
 10
7476.477827017079
 20
276.1540992575906
 30
0.0
 40
20.0
 41
0.0
 71
     5
 72
     1
  1
\A1;566
 11
0.0000000000000001
 21
1.0
 31
0.0
 73
     1
 44
1.0
1001
ACAD
1000
MTEXTBEGIN
1070
    73
1070
     1
1070
    44
1040
1.0
1070
    74
1070
     0
1000
MTEXTEND
  0
POINT
  5
1E14
330
1E0B
100
AcDbEntity
  8
Defpoints
 62
     0
100
AcDbPoint
 10
7551.045914584773
 20
559.1540992575893
 30
0.0
  0
POINT
  5
1E15
330
1E0B
100
AcDbEntity
  8
Defpoints
 62
     0
100
AcDbPoint
 10
7551.045914584773
 20
-6.845900742410662
 30
0.0
  0
POINT
  5
1E16
330
1E0B
100
AcDbEntity
  8
Defpoints
 62
     0
100
AcDbPoint
 10
7496.47782701708
 20
-6.845900742410647
 30
0.0
  0
ENDBLK
  5
1E0D
330
1E0B
100
AcDbEntity
  8
0
100
AcDbBlockEnd
  0
BLOCK
  5
1E19
330
1E18
100
AcDbEntity
  8
0
100
AcDbBlockBegin
  2
*D29
 70
     1
 10
0.0
 20
0.0
 30
0.0
  3
*D29
  1

  0
LINE
  5
1E1B
330
1E18
100
AcDbEntity
  8
SIZE
 62
     0
370
    -2
100
AcDbLine
 10
7541.045914584772
 20
-6.845900742410657
 30
0.0
 11
7486.477827017079
 21
-6.845900742410643
 31
0.0
  0
LINE
  5
1E1C
330
1E18
100
AcDbEntity
  8
SIZE
 62
     0
370
    -2
100
AcDbLine
 10
7543.545914584773
 20
-673.8459007424106
 30
0.0
 11
7486.477827017079
 21
-673.8459007424106
 31
0.0
  0
LINE
  5
1E1D
330
1E18
100
AcDbEntity
  8
SIZE
 62
     0
370
    -2
100
AcDbLine
 10
7496.47782701708
 20
-26.84590074241065
 30
0.0
 11
7496.47782701708
 21
-653.8459007424108
 31
0.0
  0
INSERT
  5
1E1E
330
1E18
100
AcDbEntity
  8
SIZE
 62
     0
370
    -2
100
AcDbBlockReference
  2
_OPEN30
 10
7496.47782701708
 20
-6.845900742410647
 30
0.0
 41
20.0
 42
20.0
 43
20.0
 50
90.0
  0
INSERT
  5
1E1F
330
1E18
100
AcDbEntity
  8
SIZE
 62
     0
370
    -2
100
AcDbBlockReference
  2
_OPEN30
 10
7496.47782701708
 20
-673.8459007424106
 30
0.0
 41
20.0
 42
20.0
 43
20.0
 50
270.0
  0
MTEXT
  5
1E20
330
1E18
100
AcDbEntity
  8
SIZE
 62
     0
100
AcDbMText
 10
7476.477827017079
 20
-340.3459007424094
 30
0.0
 40
20.0
 41
0.0
 71
     5
 72
     1
  1
\A1;667
 11
0.0000000000000001
 21
1.0
 31
0.0
 73
     1
 44
1.0
1001
ACAD
1000
MTEXTBEGIN
1070
    73
1070
     1
1070
    44
1040
1.0
1070
    74
1070
     0
1000
MTEXTEND
  0
POINT
  5
1E21
330
1E18
100
AcDbEntity
  8
Defpoints
 62
     0
100
AcDbPoint
 10
7551.045914584773
 20
-6.845900742410662
 30
0.0
  0
POINT
  5
1E22
330
1E18
100
AcDbEntity
  8
Defpoints
 62
     0
100
AcDbPoint
 10
7553.545914584772
 20
-673.8459007424106
 30
0.0
  0
POINT
  5
1E23
330
1E18
100
AcDbEntity
  8
Defpoints
 62
     0
100
AcDbPoint
 10
7496.47782701708
 20
-673.8459007424106
 30
0.0
  0
ENDBLK
  5
1E1A
330
1E18
100
AcDbEntity
  8
0
100
AcDbBlockEnd
  0
BLOCK
  5
1E26
330
1E25
100
AcDbEntity
  8
0
100
AcDbBlockBegin
  2
*D30
 70
     1
 10
0.0
 20
0.0
 30
0.0
  3
*D30
  1

  0
LINE
  5
1E28
330
1E25
100
AcDbEntity
  8
SIZE
 62
     0
370
    -2
100
AcDbLine
 10
7546.545914584773
 20
-683.8459007424106
 30
0.0
 11
7435.343857564196
 21
-683.8459007424106
 31
0.0
  0
LINE
  5
1E29
330
1E25
100
AcDbEntity
  8
SIZE
 62
     0
370
    -2
100
AcDbLine
 10
7547.545914584739
 20
568.1540992569417
 30
0.0
 11
7435.343857564196
 21
568.1540992569417
 31
0.0
  0
LINE
  5
1E2A
330
1E25
100
AcDbEntity
  8
SIZE
 62
     0
370
    -2
100
AcDbLine
 10
7445.343857564194
 20
-663.8459007424106
 30
0.0
 11
7445.343857564194
 21
548.1540992569415
 31
0.0
  0
INSERT
  5
1E2B
330
1E25
100
AcDbEntity
  8
SIZE
 62
     0
370
    -2
100
AcDbBlockReference
  2
_OPEN30
 10
7445.343857564194
 20
-683.8459007424106
 30
0.0
 41
20.0
 42
20.0
 43
20.0
 50
270.0
  0
INSERT
  5
1E2C
330
1E25
100
AcDbEntity
  8
SIZE
 62
     0
370
    -2
100
AcDbBlockReference
  2
_OPEN30
 10
7445.343857564194
 20
568.1540992569417
 30
0.0
 41
20.0
 42
20.0
 43
20.0
 50
90.0
  0
MTEXT
  5
1E2D
330
1E25
100
AcDbEntity
  8
SIZE
 62
     0
100
AcDbMText
 10
7425.343857564193
 20
-57.84590074273318
 30
0.0
 40
20.0
 41
0.0
 71
     5
 72
     1
  1
\A1;1252
 11
0.0000000000000001
 21
1.0
 31
0.0
 73
     1
 44
1.0
1001
ACAD
1000
MTEXTBEGIN
1070
    73
1070
     1
1070
    44
1040
1.0
1070
    74
1070
     0
1000
MTEXTEND
  0
POINT
  5
1E2E
330
1E25
100
AcDbEntity
  8
Defpoints
 62
     0
100
AcDbPoint
 10
7556.545914584773
 20
-683.8459007424106
 30
0.0
  0
POINT
  5
1E2F
330
1E25
100
AcDbEntity
  8
Defpoints
 62
     0
100
AcDbPoint
 10
7557.54591458474
 20
568.1540992569417
 30
0.0
  0
POINT
  5
1E30
330
1E25
100
AcDbEntity
  8
Defpoints
 62
     0
100
AcDbPoint
 10
7445.343857564194
 20
568.1540992569417
 30
0.0
  0
ENDBLK
  5
1E27
330
1E25
100
AcDbEntity
  8
0
100
AcDbBlockEnd
  0
BLOCK
  5
2226
330
2225
100
AcDbEntity
  8
0
100
AcDbBlockBegin
  2
*D31
 70
     1
 10
0.0
 20
0.0
 30
0.0
  3
*D31
  1

  0
LINE
  5
2228
330
2225
100
AcDbEntity
  8
SIZE
 62
     0
370
    -2
100
AcDbLine
 10
9256.436582049763
 20
582.7327006283829
 30
0.0
 11
9256.436582049763
 21
627.6796417303335
 31
0.0
  0
LINE
  5
2229
330
2225
100
AcDbEntity
  8
SIZE
 62
     0
370
    -2
100
AcDbLine
 10
10049.43658204976
 20
582.7327006283829
 30
0.0
 11
10049.43658204976
 21
627.6796417303335
 31
0.0
  0
LINE
  5
222A
330
2225
100
AcDbEntity
  8
SIZE
 62
     0
370
    -2
100
AcDbLine
 10
9276.436582049765
 20
617.6796417303335
 30
0.0
 11
10029.43658204976
 21
617.6796417303335
 31
0.0
  0
INSERT
  5
222B
330
2225
100
AcDbEntity
  8
SIZE
 62
     0
370
    -2
100
AcDbBlockReference
  2
_OPEN30
 10
9256.436582049763
 20
617.6796417303335
 30
0.0
 41
20.0
 42
20.0
 43
20.0
 50
180.0
  0
INSERT
  5
222C
330
2225
100
AcDbEntity
  8
SIZE
 62
     0
370
    -2
100
AcDbBlockReference
  2
_OPEN30
 10
10049.43658204976
 20
617.6796417303335
 30
0.0
 41
20.0
 42
20.0
 43
20.0
  0
MTEXT
  5
222D
330
2225
100
AcDbEntity
  8
SIZE
 62
     0
100
AcDbMText
 10
9652.936582049765
 20
637.6796417303335
 30
0.0
 40
20.0
 41
0.0
 71
     5
 72
     1
  1
\A1;793
 73
     1
 44
1.0
1001
ACAD
1000
MTEXTBEGIN
1070
    73
1070
     1
1070
    44
1040
1.0
1070
    74
1070
     0
1000
MTEXTEND
  0
POINT
  5
222E
330
2225
100
AcDbEntity
  8
Defpoints
 62
     0
100
AcDbPoint
 10
9256.436582049763
 20
572.7327006283831
 30
0.0
  0
POINT
  5
222F
330
2225
100
AcDbEntity
  8
Defpoints
 62
     0
100
AcDbPoint
 10
10049.43658204976
 20
572.7327006283831
 30
0.0
  0
POINT
  5
2230
330
2225
100
AcDbEntity
  8
Defpoints
 62
     0
100
AcDbPoint
 10
10049.43658204976
 20
617.6796417303335
 30
0.0
  0
ENDBLK
  5
2227
330
2225
100
AcDbEntity
  8
0
100
AcDbBlockEnd
  0
BLOCK
  5
2233
330
2232
100
AcDbEntity
  8
0
100
AcDbBlockBegin
  2
*D32
 70
     1
 10
0.0
 20
0.0
 30
0.0
  3
*D32
  1

  0
LINE
  5
2266
330
2232
100
AcDbEntity
  8
SIZE
 62
     0
370
    -2
100
AcDbLine
 10
10049.43658204976
 20
582.7327006283829
 30
0.0
 11
10049.43658204976
 21
627.6796417303335
 31
0.0
  0
LINE
  5
2267
330
2232
100
AcDbEntity
  8
SIZE
 62
     0
370
    -2
100
AcDbLine
 10
10087.43658204976
 20
582.7327006279203
 30
0.0
 11
10087.43658204976
 21
627.6796417303335
 31
0.0
  0
LINE
  5
2268
330
2232
100
AcDbEntity
  8
SIZE
 62
     0
370
    -2
100
AcDbLine
 10
10029.43658204976
 20
617.6796417303335
 30
0.0
 11
10009.43658204976
 21
617.6796417303335
 31
0.0
  0
LINE
  5
2269
330
2232
100
AcDbEntity
  8
SIZE
 62
     0
370
    -2
100
AcDbLine
 10
10107.43658204976
 20
617.6796417303335
 30
0.0
 11
10127.43658204976
 21
617.6796417303335
 31
0.0
  0
LINE
  5
226A
330
2232
100
AcDbEntity
  8
SIZE
 62
     0
370
    -2
100
AcDbLine
 10
10049.43658204976
 20
617.6796417303335
 30
0.0
 11
10087.43658204976
 21
617.6796417303335
 31
0.0
  0
INSERT
  5
226B
330
2232
100
AcDbEntity
  8
SIZE
 62
     0
370
    -2
100
AcDbBlockReference
  2
_OPEN30
 10
10049.43658204976
 20
617.6796417303335
 30
0.0
 41
20.0
 42
20.0
 43
20.0
  0
INSERT
  5
226C
330
2232
100
AcDbEntity
  8
SIZE
 62
     0
370
    -2
100
AcDbBlockReference
  2
_OPEN30
 10
10087.43658204976
 20
617.6796417303335
 30
0.0
 41
20.0
 42
20.0
 43
20.0
 50
180.0
  0
MTEXT
  5
226D
330
2232
100
AcDbEntity
  8
SIZE
 62
     0
100
AcDbMText
 10
10068.43658204976
 20
637.6796417303335
 30
0.0
 40
20.0
 41
0.0
 71
     5
 72
     1
  1
\A1;38
 73
     1
 44
1.0
1001
ACAD
1000
MTEXTBEGIN
1070
    73
1070
     1
1070
    44
1040
1.0
1070
    74
1070
     0
1000
MTEXTEND
  0
POINT
  5
226E
330
2232
100
AcDbEntity
  8
Defpoints
 62
     0
100
AcDbPoint
 10
10049.43658204976
 20
572.7327006283831
 30
0.0
  0
POINT
  5
226F
330
2232
100
AcDbEntity
  8
Defpoints
 62
     0
100
AcDbPoint
 10
10087.43658204976
 20
572.7327006279202
 30
0.0
  0
POINT
  5
2270
330
2232
100
AcDbEntity
  8
Defpoints
 62
     0
100
AcDbPoint
 10
10087.43658204976
 20
617.6796417303335
 30
0.0
  0
ENDBLK
  5
2234
330
2232
100
AcDbEntity
  8
0
100
AcDbBlockEnd
  0
BLOCK
  5
2245
330
2244
100
AcDbEntity
  8
0
100
AcDbBlockBegin
  2
*D33
 70
     1
 10
0.0
 20
0.0
 30
0.0
  3
*D33
  1

  0
LINE
  5
2247
330
2244
100
AcDbEntity
  8
SIZE
 62
     0
370
    -2
100
AcDbLine
 10
10087.43658204976
 20
582.7327006279203
 30
0.0
 11
10087.43658204976
 21
627.6796417303335
 31
0.0
  0
LINE
  5
2248
330
2244
100
AcDbEntity
  8
SIZE
 62
     0
370
    -2
100
AcDbLine
 10
10880.43658204976
 20
582.7327006283848
 30
0.0
 11
10880.43658204976
 21
627.6796417303335
 31
0.0
  0
LINE
  5
2249
330
2244
100
AcDbEntity
  8
SIZE
 62
     0
370
    -2
100
AcDbLine
 10
10107.43658204976
 20
617.6796417303335
 30
0.0
 11
10860.43658204976
 21
617.6796417303335
 31
0.0
  0
INSERT
  5
224A
330
2244
100
AcDbEntity
  8
SIZE
 62
     0
370
    -2
100
AcDbBlockReference
  2
_OPEN30
 10
10087.43658204976
 20
617.6796417303335
 30
0.0
 41
20.0
 42
20.0
 43
20.0
 50
180.0
  0
INSERT
  5
224B
330
2244
100
AcDbEntity
  8
SIZE
 62
     0
370
    -2
100
AcDbBlockReference
  2
_OPEN30
 10
10880.43658204976
 20
617.6796417303335
 30
0.0
 41
20.0
 42
20.0
 43
20.0
  0
MTEXT
  5
224C
330
2244
100
AcDbEntity
  8
SIZE
 62
     0
100
AcDbMText
 10
10483.93658204976
 20
637.6796417303335
 30
0.0
 40
20.0
 41
0.0
 71
     5
 72
     1
  1
\A1;793
 73
     1
 44
1.0
1001
ACAD
1000
MTEXTBEGIN
1070
    73
1070
     1
1070
    44
1040
1.0
1070
    74
1070
     0
1000
MTEXTEND
  0
POINT
  5
224D
330
2244
100
AcDbEntity
  8
Defpoints
 62
     0
100
AcDbPoint
 10
10087.43658204976
 20
572.7327006279202
 30
0.0
  0
POINT
  5
224E
330
2244
100
AcDbEntity
  8
Defpoints
 62
     0
100
AcDbPoint
 10
10880.43658204976
 20
572.7327006283847
 30
0.0
  0
POINT
  5
224F
330
2244
100
AcDbEntity
  8
Defpoints
 62
     0
100
AcDbPoint
 10
10880.43658204976
 20
617.6796417303335
 30
0.0
  0
ENDBLK
  5
2246
330
2244
100
AcDbEntity
  8
0
100
AcDbBlockEnd
  0
BLOCK
  5
2273
330
2272
100
AcDbEntity
  8
0
100
AcDbBlockBegin
  2
*D34
 70
     1
 10
0.0
 20
0.0
 30
0.0
  3
*D34
  1

  0
LINE
  5
2448
330
2272
100
AcDbEntity
  8
SIZE
 62
     0
370
    -2
100
AcDbLine
 10
9256.436582049763
 20
-30.2672993716169
 30
0.0
 11
9256.436582049763
 21
-778.7918320708056
 31
0.0
  0
LINE
  5
2449
330
2272
100
AcDbEntity
  8
SIZE
 62
     0
370
    -2
100
AcDbLine
 10
10035.43658204976
 20
-30.26729937164805
 30
0.0
 11
10035.43658204976
 21
-778.7918320708056
 31
0.0
  0
LINE
  5
244A
330
2272
100
AcDbEntity
  8
SIZE
 62
     0
370
    -2
100
AcDbLine
 10
9276.436582049765
 20
-768.7918320708056
 30
0.0
 11
10015.43658204976
 21
-768.7918320708056
 31
0.0
  0
INSERT
  5
244B
330
2272
100
AcDbEntity
  8
SIZE
 62
     0
370
    -2
100
AcDbBlockReference
  2
_OPEN30
 10
9256.436582049763
 20
-768.7918320708056
 30
0.0
 41
20.0
 42
20.0
 43
20.0
 50
180.0
  0
INSERT
  5
244C
330
2272
100
AcDbEntity
  8
SIZE
 62
     0
370
    -2
100
AcDbBlockReference
  2
_OPEN30
 10
10035.43658204976
 20
-768.7918320708056
 30
0.0
 41
20.0
 42
20.0
 43
20.0
  0
MTEXT
  5
244D
330
2272
100
AcDbEntity
  8
SIZE
 62
     0
100
AcDbMText
 10
9645.936582049763
 20
-748.7918320708056
 30
0.0
 40
20.0
 41
0.0
 71
     5
 72
     1
  1
\A1;779
 73
     1
 44
1.0
1001
ACAD
1000
MTEXTBEGIN
1070
    73
1070
     1
1070
    44
1040
1.0
1070
    74
1070
     0
1000
MTEXTEND
  0
POINT
  5
244E
330
2272
100
AcDbEntity
  8
Defpoints
 62
     0
100
AcDbPoint
 10
9256.436582049763
 20
-20.2672993716169
 30
0.0
  0
POINT
  5
244F
330
2272
100
AcDbEntity
  8
Defpoints
 62
     0
100
AcDbPoint
 10
10035.43658204976
 20
-20.26729937164805
 30
0.0
  0
POINT
  5
2450
330
2272
100
AcDbEntity
  8
Defpoints
 62
     0
100
AcDbPoint
 10
10035.43658204976
 20
-768.7918320708056
 30
0.0
  0
ENDBLK
  5
2274
330
2272
100
AcDbEntity
  8
0
100
AcDbBlockEnd
  0
BLOCK
  5
2280
330
227F
100
AcDbEntity
  8
0
100
AcDbBlockBegin
  2
*D35
 70
     1
 10
0.0
 20
0.0
 30
0.0
  3
*D35
  1

  0
LINE
  5
2298
330
227F
100
AcDbEntity
  8
SIZE
 62
     0
370
    -2
100
AcDbLine
 10
10035.43658204976
 20
16.7327006283831
 30
0.0
 11
10035.43658204976
 21
77.37873089046269
 31
0.0
  0
LINE
  5
2299
330
227F
100
AcDbEntity
  8
SIZE
 62
     0
370
    -2
100
AcDbLine
 10
10101.43658204976
 20
16.73270062792051
 30
0.0
 11
10101.43658204976
 21
77.37873089046269
 31
0.0
  0
LINE
  5
229A
330
227F
100
AcDbEntity
  8
SIZE
 62
     0
370
    -2
100
AcDbLine
 10
10055.43658204976
 20
67.37873089046269
 30
0.0
 11
10081.43658204976
 21
67.37873089046269
 31
0.0
  0
LINE
  5
229B
330
227F
100
AcDbEntity
  8
SIZE
 62
     0
370
    -2
100
AcDbLine
 10
10068.43658204976
 20
67.37873089046269
 30
0.0
 11
10131.26326822203
 21
135.206208702816
 31
0.0
  0
LINE
  5
229C
330
227F
100
AcDbEntity
  8
SIZE
 62
     0
370
    -2
100
AcDbLine
 10
10131.26326822203
 20
135.206208702816
 30
0.0
 11
10182.6918396506
 21
135.206208702816
 31
0.0
  0
MTEXT
  5
229D
330
227F
100
AcDbEntity
  8
SIZE
 62
     0
100
AcDbMText
 10
10156.97755393632
 20
155.206208702816
 30
0.0
 40
20.0
 41
0.0
 71
     5
 72
     1
  1
\A1;66
 73
     1
 44
1.0
1001
ACAD
1000
MTEXTBEGIN
1070
    73
1070
     1
1070
    44
1040
1.0
1070
    74
1070
     0
1000
MTEXTEND
  0
INSERT
  5
229E
330
227F
100
AcDbEntity
  8
SIZE
 62
     0
370
    -2
100
AcDbBlockReference
  2
_OPEN30
 10
10035.43658204976
 20
67.37873089046269
 30
0.0
 41
20.0
 42
20.0
 43
20.0
 50
180.0
  0
INSERT
  5
229F
330
227F
100
AcDbEntity
  8
SIZE
 62
     0
370
    -2
100
AcDbBlockReference
  2
_OPEN30
 10
10101.43658204976
 20
67.37873089046269
 30
0.0
 41
20.0
 42
20.0
 43
20.0
  0
POINT
  5
22A0
330
227F
100
AcDbEntity
  8
Defpoints
 62
     0
100
AcDbPoint
 10
10035.43658204976
 20
6.732700628383097
 30
0.0
  0
POINT
  5
22A1
330
227F
100
AcDbEntity
  8
Defpoints
 62
     0
100
AcDbPoint
 10
10101.43658204976
 20
6.732700627920507
 30
0.0
  0
POINT
  5
22A2
330
227F
100
AcDbEntity
  8
Defpoints
 62
     0
100
AcDbPoint
 10
10101.43658204976
 20
67.37873089046269
 30
0.0
  0
ENDBLK
  5
2281
330
227F
100
AcDbEntity
  8
0
100
AcDbBlockEnd
  0
BLOCK
  5
228D
330
228C
100
AcDbEntity
  8
0
100
AcDbBlockBegin
  2
*D36
 70
     1
 10
0.0
 20
0.0
 30
0.0
  3
*D36
  1

  0
LINE
  5
245A
330
228C
100
AcDbEntity
  8
SIZE
 62
     0
370
    -2
100
AcDbLine
 10
10101.43658204976
 20
-30.26729937207949
 30
0.0
 11
10101.43658204976
 21
-778.7918320708056
 31
0.0
  0
LINE
  5
245B
330
228C
100
AcDbEntity
  8
SIZE
 62
     0
370
    -2
100
AcDbLine
 10
10880.43658204976
 20
-30.26729937161531
 30
0.0
 11
10880.43658204976
 21
-778.7918320708056
 31
0.0
  0
LINE
  5
245C
330
228C
100
AcDbEntity
  8
SIZE
 62
     0
370
    -2
100
AcDbLine
 10
10121.43658204976
 20
-768.7918320708056
 30
0.0
 11
10860.43658204976
 21
-768.7918320708056
 31
0.0
  0
INSERT
  5
245D
330
228C
100
AcDbEntity
  8
SIZE
 62
     0
370
    -2
100
AcDbBlockReference
  2
_OPEN30
 10
10101.43658204976
 20
-768.7918320708056
 30
0.0
 41
20.0
 42
20.0
 43
20.0
 50
180.0
  0
INSERT
  5
245E
330
228C
100
AcDbEntity
  8
SIZE
 62
     0
370
    -2
100
AcDbBlockReference
  2
_OPEN30
 10
10880.43658204976
 20
-768.7918320708056
 30
0.0
 41
20.0
 42
20.0
 43
20.0
  0
MTEXT
  5
245F
330
228C
100
AcDbEntity
  8
SIZE
 62
     0
100
AcDbMText
 10
10490.93658204976
 20
-748.7918320708056
 30
0.0
 40
20.0
 41
0.0
 71
     5
 72
     1
  1
\A1;779
 73
     1
 44
1.0
1001
ACAD
1000
MTEXTBEGIN
1070
    73
1070
     1
1070
    44
1040
1.0
1070
    74
1070
     0
1000
MTEXTEND
  0
POINT
  5
2460
330
228C
100
AcDbEntity
  8
Defpoints
 62
     0
100
AcDbPoint
 10
10101.43658204976
 20
-20.26729937207949
 30
0.0
  0
POINT
  5
2461
330
228C
100
AcDbEntity
  8
Defpoints
 62
     0
100
AcDbPoint
 10
10880.43658204976
 20
-20.26729937161531
 30
0.0
  0
POINT
  5
2462
330
228C
100
AcDbEntity
  8
Defpoints
 62
     0
100
AcDbPoint
 10
10880.43658204976
 20
-768.7918320708056
 30
0.0
  0
ENDBLK
  5
228E
330
228C
100
AcDbEntity
  8
0
100
AcDbBlockEnd
  0
BLOCK
  5
22A5
330
22A4
100
AcDbEntity
  8
0
100
AcDbBlockBegin
  2
*D37
 70
     1
 10
0.0
 20
0.0
 30
0.0
  3
*D37
  1

  0
LINE
  5
22A7
330
22A4
100
AcDbEntity
  8
SIZE
 62
     0
370
    -2
100
AcDbLine
 10
9258.936582049759
 20
-697.2672993716168
 30
0.0
 11
9258.936582049759
 21
-778.7918320708056
 31
0.0
  0
LINE
  5
22A8
330
22A4
100
AcDbEntity
  8
SIZE
 62
     0
370
    -2
100
AcDbLine
 10
10035.43658204976
 20
-651.2672993716477
 30
0.0
 11
10035.43658204976
 21
-778.7918320708056
 31
0.0
  0
LINE
  5
22A9
330
22A4
100
AcDbEntity
  8
SIZE
 62
     0
370
    -2
100
AcDbLine
 10
9278.936582049759
 20
-768.7918320708056
 30
0.0
 11
10015.43658204976
 21
-768.7918320708056
 31
0.0
  0
INSERT
  5
22AA
330
22A4
100
AcDbEntity
  8
SIZE
 62
     0
370
    -2
100
AcDbBlockReference
  2
_OPEN30
 10
9258.936582049759
 20
-768.7918320708056
 30
0.0
 41
20.0
 42
20.0
 43
20.0
 50
180.0
  0
INSERT
  5
22AB
330
22A4
100
AcDbEntity
  8
SIZE
 62
     0
370
    -2
100
AcDbBlockReference
  2
_OPEN30
 10
10035.43658204976
 20
-768.7918320708056
 30
0.0
 41
20.0
 42
20.0
 43
20.0
  0
MTEXT
  5
22AC
330
22A4
100
AcDbEntity
  8
SIZE
 62
     0
100
AcDbMText
 10
9647.186582049759
 20
-748.7918320708056
 30
0.0
 40
20.0
 41
0.0
 71
     5
 72
     1
  1
\A1;776.5
 73
     1
 44
1.0
1001
ACAD
1000
MTEXTBEGIN
1070
    73
1070
     1
1070
    44
1040
1.0
1070
    74
1070
     0
1000
MTEXTEND
  0
POINT
  5
22AD
330
22A4
100
AcDbEntity
  8
Defpoints
 62
     0
100
AcDbPoint
 10
9258.936582049759
 20
-687.2672993716167
 30
0.0
  0
POINT
  5
22AE
330
22A4
100
AcDbEntity
  8
Defpoints
 62
     0
100
AcDbPoint
 10
10035.43658204976
 20
-641.2672993716475
 30
0.0
  0
POINT
  5
22AF
330
22A4
100
AcDbEntity
  8
Defpoints
 62
     0
100
AcDbPoint
 10
10035.43658204976
 20
-768.7918320708056
 30
0.0
  0
ENDBLK
  5
22A6
330
22A4
100
AcDbEntity
  8
0
100
AcDbBlockEnd
  0
BLOCK
  5
22B2
330
22B1
100
AcDbEntity
  8
0
100
AcDbBlockBegin
  2
*D38
 70
     1
 10
0.0
 20
0.0
 30
0.0
  3
*D38
  1

  0
LINE
  5
22B4
330
22B1
100
AcDbEntity
  8
SIZE
 62
     0
370
    -2
100
AcDbLine
 10
10035.43658204976
 20
-651.2672993716477
 30
0.0
 11
10035.43658204976
 21
-778.7918320708056
 31
0.0
  0
LINE
  5
22B5
330
22B1
100
AcDbEntity
  8
SIZE
 62
     0
370
    -2
100
AcDbLine
 10
10101.43658204976
 20
-651.2672993720793
 30
0.0
 11
10101.43658204976
 21
-778.7918320708056
 31
0.0
  0
LINE
  5
22B6
330
22B1
100
AcDbEntity
  8
SIZE
 62
     0
370
    -2
100
AcDbLine
 10
10055.43658204976
 20
-768.7918320708056
 30
0.0
 11
10081.43658204976
 21
-768.7918320708056
 31
0.0
  0
INSERT
  5
22B7
330
22B1
100
AcDbEntity
  8
SIZE
 62
     0
370
    -2
100
AcDbBlockReference
  2
_OPEN30
 10
10035.43658204976
 20
-768.7918320708056
 30
0.0
 41
20.0
 42
20.0
 43
20.0
 50
180.0
  0
INSERT
  5
22B8
330
22B1
100
AcDbEntity
  8
SIZE
 62
     0
370
    -2
100
AcDbBlockReference
  2
_OPEN30
 10
10101.43658204976
 20
-768.7918320708056
 30
0.0
 41
20.0
 42
20.0
 43
20.0
  0
MTEXT
  5
22B9
330
22B1
100
AcDbEntity
  8
SIZE
 62
     0
100
AcDbMText
 10
10068.43658204976
 20
-748.7918320708056
 30
0.0
 40
20.0
 41
0.0
 71
     5
 72
     1
  1
\A1;66
 73
     1
 44
1.0
1001
ACAD
1000
MTEXTBEGIN
1070
    73
1070
     1
1070
    44
1040
1.0
1070
    74
1070
     0
1000
MTEXTEND
  0
POINT
  5
22BA
330
22B1
100
AcDbEntity
  8
Defpoints
 62
     0
100
AcDbPoint
 10
10035.43658204976
 20
-641.2672993716475
 30
0.0
  0
POINT
  5
22BB
330
22B1
100
AcDbEntity
  8
Defpoints
 62
     0
100
AcDbPoint
 10
10101.43658204976
 20
-641.2672993720794
 30
0.0
  0
POINT
  5
22BC
330
22B1
100
AcDbEntity
  8
Defpoints
 62
     0
100
AcDbPoint
 10
10101.43658204976
 20
-768.7918320708056
 30
0.0
  0
ENDBLK
  5
22B3
330
22B1
100
AcDbEntity
  8
0
100
AcDbBlockEnd
  0
BLOCK
  5
22BF
330
22BE
100
AcDbEntity
  8
0
100
AcDbBlockBegin
  2
*D39
 70
     1
 10
0.0
 20
0.0
 30
0.0
  3
*D39
  1

  0
LINE
  5
22C1
330
22BE
100
AcDbEntity
  8
SIZE
 62
     0
370
    -2
100
AcDbLine
 10
10101.43658204976
 20
-651.2672993720793
 30
0.0
 11
10101.43658204976
 21
-778.7918320708056
 31
0.0
  0
LINE
  5
22C2
330
22BE
100
AcDbEntity
  8
SIZE
 62
     0
370
    -2
100
AcDbLine
 10
10877.93658204976
 20
-697.2672993716148
 30
0.0
 11
10877.93658204976
 21
-778.7918320708056
 31
0.0
  0
LINE
  5
22C3
330
22BE
100
AcDbEntity
  8
SIZE
 62
     0
370
    -2
100
AcDbLine
 10
10121.43658204976
 20
-768.7918320708056
 30
0.0
 11
10857.93658204976
 21
-768.7918320708056
 31
0.0
  0
INSERT
  5
22C4
330
22BE
100
AcDbEntity
  8
SIZE
 62
     0
370
    -2
100
AcDbBlockReference
  2
_OPEN30
 10
10101.43658204976
 20
-768.7918320708056
 30
0.0
 41
20.0
 42
20.0
 43
20.0
 50
180.0
  0
INSERT
  5
22C5
330
22BE
100
AcDbEntity
  8
SIZE
 62
     0
370
    -2
100
AcDbBlockReference
  2
_OPEN30
 10
10877.93658204976
 20
-768.7918320708056
 30
0.0
 41
20.0
 42
20.0
 43
20.0
  0
MTEXT
  5
22C6
330
22BE
100
AcDbEntity
  8
SIZE
 62
     0
100
AcDbMText
 10
10489.68658204976
 20
-748.7918320708056
 30
0.0
 40
20.0
 41
0.0
 71
     5
 72
     1
  1
\A1;776.5
 73
     1
 44
1.0
1001
ACAD
1000
MTEXTBEGIN
1070
    73
1070
     1
1070
    44
1040
1.0
1070
    74
1070
     0
1000
MTEXTEND
  0
POINT
  5
22C7
330
22BE
100
AcDbEntity
  8
Defpoints
 62
     0
100
AcDbPoint
 10
10101.43658204976
 20
-641.2672993720794
 30
0.0
  0
POINT
  5
22C8
330
22BE
100
AcDbEntity
  8
Defpoints
 62
     0
100
AcDbPoint
 10
10877.93658204976
 20
-687.2672993716149
 30
0.0
  0
POINT
  5
22C9
330
22BE
100
AcDbEntity
  8
Defpoints
 62
     0
100
AcDbPoint
 10
10877.93658204976
 20
-768.7918320708056
 30
0.0
  0
ENDBLK
  5
22C0
330
22BE
100
AcDbEntity
  8
0
100
AcDbBlockEnd
  0
BLOCK
  5
22CC
330
22CB
100
AcDbEntity
  8
0
100
AcDbBlockBegin
  2
*D40
 70
     1
 10
0.0
 20
0.0
 30
0.0
  3
*D40
  1

  0
LINE
  5
22CE
330
22CB
100
AcDbEntity
  8
SIZE
 62
     0
370
    -2
100
AcDbLine
 10
9248.436582049762
 20
577.2327006283827
 30
0.0
 11
9248.436582049762
 21
677.3298433743368
 31
0.0
  0
LINE
  5
22CF
330
22CB
100
AcDbEntity
  8
SIZE
 62
     0
370
    -2
100
AcDbLine
 10
10888.43658204976
 20
577.2327006283827
 30
0.0
 11
10888.43658204976
 21
677.3298433743368
 31
0.0
  0
LINE
  5
22D0
330
22CB
100
AcDbEntity
  8
SIZE
 62
     0
370
    -2
100
AcDbLine
 10
9268.436582049764
 20
667.329843374337
 30
0.0
 11
10868.43658204976
 21
667.329843374337
 31
0.0
  0
INSERT
  5
22D1
330
22CB
100
AcDbEntity
  8
SIZE
 62
     0
370
    -2
100
AcDbBlockReference
  2
_OPEN30
 10
9248.436582049762
 20
667.329843374337
 30
0.0
 41
20.0
 42
20.0
 43
20.0
 50
180.0
  0
INSERT
  5
22D2
330
22CB
100
AcDbEntity
  8
SIZE
 62
     0
370
    -2
100
AcDbBlockReference
  2
_OPEN30
 10
10888.43658204976
 20
667.329843374337
 30
0.0
 41
20.0
 42
20.0
 43
20.0
  0
MTEXT
  5
22D3
330
22CB
100
AcDbEntity
  8
SIZE
 62
     0
100
AcDbMText
 10
10068.43658204976
 20
687.329843374337
 30
0.0
 40
20.0
 41
0.0
 71
     5
 72
     1
  1
\A1;1640
 73
     1
 44
1.0
1001
ACAD
1000
MTEXTBEGIN
1070
    73
1070
     1
1070
    44
1040
1.0
1070
    74
1070
     0
1000
MTEXTEND
  0
POINT
  5
22D4
330
22CB
100
AcDbEntity
  8
Defpoints
 62
     0
100
AcDbPoint
 10
9248.436582049762
 20
567.2327006283827
 30
0.0
  0
POINT
  5
22D5
330
22CB
100
AcDbEntity
  8
Defpoints
 62
     0
100
AcDbPoint
 10
10888.43658204976
 20
567.2327006283827
 30
0.0
  0
POINT
  5
22D6
330
22CB
100
AcDbEntity
  8
Defpoints
 62
     0
100
AcDbPoint
 10
10888.43658204976
 20
667.329843374337
 30
0.0
  0
ENDBLK
  5
22CD
330
22CB
100
AcDbEntity
  8
0
100
AcDbBlockEnd
  0
BLOCK
  5
22D9
330
22D8
100
AcDbEntity
  8
0
100
AcDbBlockBegin
  2
*D41
 70
     1
 10
0.0
 20
0.0
 30
0.0
  3
*D41
  1

  0
LINE
  5
22DB
330
22D8
100
AcDbEntity
  8
SIZE
 62
     0
370
    -2
100
AcDbLine
 10
9232.936582049765
 20
559.2327006283831
 30
0.0
 11
9175.063054548941
 21
559.2327006283831
 31
0.0
  0
LINE
  5
22DC
330
22D8
100
AcDbEntity
  8
SIZE
 62
     0
370
    -2
100
AcDbLine
 10
9232.936582049765
 20
-6.767299371616896
 30
0.0
 11
9175.063054548941
 21
-6.767299371616879
 31
0.0
  0
LINE
  5
22DD
330
22D8
100
AcDbEntity
  8
SIZE
 62
     0
370
    -2
100
AcDbLine
 10
9185.06305454894
 20
539.2327006283831
 30
0.0
 11
9185.06305454894
 21
13.23270062838312
 31
0.0
  0
INSERT
  5
22DE
330
22D8
100
AcDbEntity
  8
SIZE
 62
     0
370
    -2
100
AcDbBlockReference
  2
_OPEN30
 10
9185.06305454894
 20
559.2327006283831
 30
0.0
 41
20.0
 42
20.0
 43
20.0
 50
90.0
  0
INSERT
  5
22DF
330
22D8
100
AcDbEntity
  8
SIZE
 62
     0
370
    -2
100
AcDbBlockReference
  2
_OPEN30
 10
9185.06305454894
 20
-6.767299371616883
 30
0.0
 41
20.0
 42
20.0
 43
20.0
 50
270.0
  0
MTEXT
  5
22E0
330
22D8
100
AcDbEntity
  8
SIZE
 62
     0
100
AcDbMText
 10
9165.063054548941
 20
276.2327006283846
 30
0.0
 40
20.0
 41
0.0
 71
     5
 72
     1
  1
\A1;566
 11
0.0000000000000001
 21
1.0
 31
0.0
 73
     1
 44
1.0
1001
ACAD
1000
MTEXTBEGIN
1070
    73
1070
     1
1070
    44
1040
1.0
1070
    74
1070
     0
1000
MTEXTEND
  0
POINT
  5
22E1
330
22D8
100
AcDbEntity
  8
Defpoints
 62
     0
100
AcDbPoint
 10
9242.936582049763
 20
559.2327006283831
 30
0.0
  0
POINT
  5
22E2
330
22D8
100
AcDbEntity
  8
Defpoints
 62
     0
100
AcDbPoint
 10
9242.936582049763
 20
-6.7672993716169
 30
0.0
  0
POINT
  5
22E3
330
22D8
100
AcDbEntity
  8
Defpoints
 62
     0
100
AcDbPoint
 10
9185.06305454894
 20
-6.767299371616883
 30
0.0
  0
ENDBLK
  5
22DA
330
22D8
100
AcDbEntity
  8
0
100
AcDbBlockEnd
  0
BLOCK
  5
22E6
330
22E5
100
AcDbEntity
  8
0
100
AcDbBlockBegin
  2
*D42
 70
     1
 10
0.0
 20
0.0
 30
0.0
  3
*D42
  1

  0
LINE
  5
22E8
330
22E5
100
AcDbEntity
  8
SIZE
 62
     0
370
    -2
100
AcDbLine
 10
9232.936582049765
 20
-6.767299371616896
 30
0.0
 11
9175.063054548941
 21
-6.767299371616879
 31
0.0
  0
LINE
  5
22E9
330
22E5
100
AcDbEntity
  8
SIZE
 62
     0
370
    -2
100
AcDbLine
 10
9235.436582049764
 20
-673.7672993716167
 30
0.0
 11
9175.063054548941
 21
-673.7672993716167
 31
0.0
  0
LINE
  5
22EA
330
22E5
100
AcDbEntity
  8
SIZE
 62
     0
370
    -2
100
AcDbLine
 10
9185.06305454894
 20
-26.76729937161689
 30
0.0
 11
9185.06305454894
 21
-653.7672993716167
 31
0.0
  0
INSERT
  5
22EB
330
22E5
100
AcDbEntity
  8
SIZE
 62
     0
370
    -2
100
AcDbBlockReference
  2
_OPEN30
 10
9185.06305454894
 20
-6.767299371616883
 30
0.0
 41
20.0
 42
20.0
 43
20.0
 50
90.0
  0
INSERT
  5
22EC
330
22E5
100
AcDbEntity
  8
SIZE
 62
     0
370
    -2
100
AcDbBlockReference
  2
_OPEN30
 10
9185.06305454894
 20
-673.7672993716167
 30
0.0
 41
20.0
 42
20.0
 43
20.0
 50
270.0
  0
MTEXT
  5
22ED
330
22E5
100
AcDbEntity
  8
SIZE
 62
     0
100
AcDbMText
 10
9165.063054548941
 20
-340.2672993716154
 30
0.0
 40
20.0
 41
0.0
 71
     5
 72
     1
  1
\A1;667
 11
0.0000000000000001
 21
1.0
 31
0.0
 73
     1
 44
1.0
1001
ACAD
1000
MTEXTBEGIN
1070
    73
1070
     1
1070
    44
1040
1.0
1070
    74
1070
     0
1000
MTEXTEND
  0
POINT
  5
22EE
330
22E5
100
AcDbEntity
  8
Defpoints
 62
     0
100
AcDbPoint
 10
9242.936582049763
 20
-6.7672993716169
 30
0.0
  0
POINT
  5
22EF
330
22E5
100
AcDbEntity
  8
Defpoints
 62
     0
100
AcDbPoint
 10
9245.436582049762
 20
-673.7672993716167
 30
0.0
  0
POINT
  5
22F0
330
22E5
100
AcDbEntity
  8
Defpoints
 62
     0
100
AcDbPoint
 10
9185.06305454894
 20
-673.7672993716167
 30
0.0
  0
ENDBLK
  5
22E7
330
22E5
100
AcDbEntity
  8
0
100
AcDbBlockEnd
  0
BLOCK
  5
22F3
330
22F2
100
AcDbEntity
  8
0
100
AcDbBlockBegin
  2
*D43
 70
     1
 10
0.0
 20
0.0
 30
0.0
  3
*D43
  1

  0
LINE
  5
22F5
330
22F2
100
AcDbEntity
  8
SIZE
 62
     0
370
    -2
100
AcDbLine
 10
10025.93658204976
 20
559.2327006283519
 30
0.0
 11
9957.462691508109
 21
559.2327006283519
 31
0.0
  0
LINE
  5
22F6
330
22F2
100
AcDbEntity
  8
SIZE
 62
     0
370
    -2
100
AcDbLine
 10
10011.93658204976
 20
-6.767299371648046
 30
0.0
 11
9957.462691508109
 21
-6.767299371648031
 31
0.0
  0
LINE
  5
22F7
330
22F2
100
AcDbEntity
  8
SIZE
 62
     0
370
    -2
100
AcDbLine
 10
9967.462691508108
 20
539.2327006283522
 30
0.0
 11
9967.462691508108
 21
13.23270062835196
 31
0.0
  0
INSERT
  5
22F8
330
22F2
100
AcDbEntity
  8
SIZE
 62
     0
370
    -2
100
AcDbBlockReference
  2
_OPEN30
 10
9967.462691508108
 20
559.2327006283519
 30
0.0
 41
20.0
 42
20.0
 43
20.0
 50
90.0
  0
INSERT
  5
22F9
330
22F2
100
AcDbEntity
  8
SIZE
 62
     0
370
    -2
100
AcDbBlockReference
  2
_OPEN30
 10
9967.462691508108
 20
-6.767299371648033
 30
0.0
 41
20.0
 42
20.0
 43
20.0
 50
270.0
  0
MTEXT
  5
22FA
330
22F2
100
AcDbEntity
  8
SIZE
 62
     0
100
AcDbMText
 10
9947.462691508109
 20
276.2327006283536
 30
0.0
 40
20.0
 41
0.0
 71
     5
 72
     1
  1
\A1;566
 11
0.0000000000000001
 21
1.0
 31
0.0
 73
     1
 44
1.0
1001
ACAD
1000
MTEXTBEGIN
1070
    73
1070
     1
1070
    44
1040
1.0
1070
    74
1070
     0
1000
MTEXTEND
  0
POINT
  5
22FB
330
22F2
100
AcDbEntity
  8
Defpoints
 62
     0
100
AcDbPoint
 10
10035.93658204976
 20
559.2327006283519
 30
0.0
  0
POINT
  5
22FC
330
22F2
100
AcDbEntity
  8
Defpoints
 62
     0
100
AcDbPoint
 10
10021.93658204976
 20
-6.767299371648049
 30
0.0
  0
POINT
  5
22FD
330
22F2
100
AcDbEntity
  8
Defpoints
 62
     0
100
AcDbPoint
 10
9967.462691508108
 20
-6.767299371648033
 30
0.0
  0
ENDBLK
  5
22F4
330
22F2
100
AcDbEntity
  8
0
100
AcDbBlockEnd
  0
BLOCK
  5
2300
330
22FF
100
AcDbEntity
  8
0
100
AcDbBlockBegin
  2
*D44
 70
     1
 10
0.0
 20
0.0
 30
0.0
  3
*D44
  1

  0
LINE
  5
2302
330
22FF
100
AcDbEntity
  8
SIZE
 62
     0
370
    -2
100
AcDbLine
 10
10011.93658204976
 20
-6.767299371648046
 30
0.0
 11
9957.462691508109
 21
-6.767299371648031
 31
0.0
  0
LINE
  5
2303
330
22FF
100
AcDbEntity
  8
SIZE
 62
     0
370
    -2
100
AcDbLine
 10
10011.93658204976
 20
-627.7672993716477
 30
0.0
 11
9957.462691508109
 21
-627.7672993716476
 31
0.0
  0
LINE
  5
2304
330
22FF
100
AcDbEntity
  8
SIZE
 62
     0
370
    -2
100
AcDbLine
 10
9967.462691508108
 20
-26.76729937164803
 30
0.0
 11
9967.462691508108
 21
-607.7672993716475
 31
0.0
  0
INSERT
  5
2305
330
22FF
100
AcDbEntity
  8
SIZE
 62
     0
370
    -2
100
AcDbBlockReference
  2
_OPEN30
 10
9967.462691508108
 20
-6.767299371648033
 30
0.0
 41
20.0
 42
20.0
 43
20.0
 50
90.0
  0
INSERT
  5
2306
330
22FF
100
AcDbEntity
  8
SIZE
 62
     0
370
    -2
100
AcDbBlockReference
  2
_OPEN30
 10
9967.462691508108
 20
-627.7672993716476
 30
0.0
 41
20.0
 42
20.0
 43
20.0
 50
270.0
  0
MTEXT
  5
2307
330
22FF
100
AcDbEntity
  8
SIZE
 62
     0
100
AcDbMText
 10
9947.462691508109
 20
-317.2672993716462
 30
0.0
 40
20.0
 41
0.0
 71
     5
 72
     1
  1
\A1;621
 11
0.0000000000000001
 21
1.0
 31
0.0
 73
     1
 44
1.0
1001
ACAD
1000
MTEXTBEGIN
1070
    73
1070
     1
1070
    44
1040
1.0
1070
    74
1070
     0
1000
MTEXTEND
  0
POINT
  5
2308
330
22FF
100
AcDbEntity
  8
Defpoints
 62
     0
100
AcDbPoint
 10
10021.93658204976
 20
-6.767299371648049
 30
0.0
  0
POINT
  5
2309
330
22FF
100
AcDbEntity
  8
Defpoints
 62
     0
100
AcDbPoint
 10
10021.93658204976
 20
-627.7672993716477
 30
0.0
  0
POINT
  5
230A
330
22FF
100
AcDbEntity
  8
Defpoints
 62
     0
100
AcDbPoint
 10
9967.462691508108
 20
-627.7672993716476
 30
0.0
  0
ENDBLK
  5
2301
330
22FF
100
AcDbEntity
  8
0
100
AcDbBlockEnd
  0
BLOCK
  5
230D
330
230C
100
AcDbEntity
  8
0
100
AcDbBlockBegin
  2
*D45
 70
     1
 10
0.0
 20
0.0
 30
0.0
  3
*D45
  1

  0
LINE
  5
230F
330
230C
100
AcDbEntity
  8
SIZE
 62
     0
370
    -2
100
AcDbLine
 10
9239.436582049764
 20
568.2327006284252
 30
0.0
 11
9128.532532878962
 21
568.2327006284252
 31
0.0
  0
LINE
  5
2310
330
230C
100
AcDbEntity
  8
SIZE
 62
     0
370
    -2
100
AcDbLine
 10
9238.436582049764
 20
-683.7672993716171
 30
0.0
 11
9128.532532878962
 21
-683.7672993716171
 31
0.0
  0
LINE
  5
2311
330
230C
100
AcDbEntity
  8
SIZE
 62
     0
370
    -2
100
AcDbLine
 10
9138.53253287896
 20
548.2327006284251
 30
0.0
 11
9138.53253287896
 21
-663.7672993716171
 31
0.0
  0
INSERT
  5
2312
330
230C
100
AcDbEntity
  8
SIZE
 62
     0
370
    -2
100
AcDbBlockReference
  2
_OPEN30
 10
9138.53253287896
 20
568.2327006284252
 30
0.0
 41
20.0
 42
20.0
 43
20.0
 50
90.0
  0
INSERT
  5
2313
330
230C
100
AcDbEntity
  8
SIZE
 62
     0
370
    -2
100
AcDbBlockReference
  2
_OPEN30
 10
9138.53253287896
 20
-683.7672993716171
 30
0.0
 41
20.0
 42
20.0
 43
20.0
 50
270.0
  0
MTEXT
  5
2314
330
230C
100
AcDbEntity
  8
SIZE
 62
     0
100
AcDbMText
 10
9118.53253287896
 20
-57.7672993715945
 30
0.0
 40
20.0
 41
0.0
 71
     5
 72
     1
  1
\A1;1252
 11
0.0000000000000001
 21
1.0
 31
0.0
 73
     1
 44
1.0
1001
ACAD
1000
MTEXTBEGIN
1070
    73
1070
     1
1070
    44
1040
1.0
1070
    74
1070
     0
1000
MTEXTEND
  0
POINT
  5
2315
330
230C
100
AcDbEntity
  8
Defpoints
 62
     0
100
AcDbPoint
 10
9249.436582049765
 20
568.2327006284252
 30
0.0
  0
POINT
  5
2316
330
230C
100
AcDbEntity
  8
Defpoints
 62
     0
100
AcDbPoint
 10
9248.436582049762
 20
-683.7672993716171
 30
0.0
  0
POINT
  5
2317
330
230C
100
AcDbEntity
  8
Defpoints
 62
     0
100
AcDbPoint
 10
9138.53253287896
 20
-683.7672993716171
 30
0.0
  0
ENDBLK
  5
230E
330
230C
100
AcDbEntity
  8
0
100
AcDbBlockEnd
  0
BLOCK
  5
2465
330
2464
100
AcDbEntity
  8
0
100
AcDbBlockBegin
  2
*D48
 70
     1
 10
0.0
 20
0.0
 30
0.0
  3
*D48
  1

  0
LINE
  5
2472
330
2464
100
AcDbEntity
  8
SIZE
 62
     0
370
    -2
100
AcDbLine
 10
9258.936582049759
 20
-697.2672993716168
 30
0.0
 11
9258.936582049759
 21
-741.7477218320075
 31
0.0
  0
LINE
  5
2473
330
2464
100
AcDbEntity
  8
SIZE
 62
     0
370
    -2
100
AcDbLine
 10
9256.436582049763
 20
-30.2672993716169
 30
0.0
 11
9256.436582049763
 21
-741.7477218320075
 31
0.0
  0
LINE
  5
2474
330
2464
100
AcDbEntity
  8
SIZE
 62
     0
370
    -2
100
AcDbLine
 10
9236.436582049764
 20
-731.7477218320075
 30
0.0
 11
9216.436582049764
 21
-731.7477218320075
 31
0.0
  0
LINE
  5
2475
330
2464
100
AcDbEntity
  8
SIZE
 62
     0
370
    -2
100
AcDbLine
 10
9278.936582049759
 20
-731.7477218320075
 30
0.0
 11
9360.84134395452
 21
-731.7477218320075
 31
0.0
  0
LINE
  5
2476
330
2464
100
AcDbEntity
  8
SIZE
 62
     0
370
    -2
100
AcDbLine
 10
9256.436582049763
 20
-731.7477218320075
 30
0.0
 11
9258.936582049759
 21
-731.7477218320075
 31
0.0
  0
INSERT
  5
2477
330
2464
100
AcDbEntity
  8
SIZE
 62
     0
370
    -2
100
AcDbBlockReference
  2
_OPEN30
 10
9256.436582049763
 20
-731.7477218320075
 30
0.0
 41
20.0
 42
20.0
 43
20.0
  0
INSERT
  5
2478
330
2464
100
AcDbEntity
  8
SIZE
 62
     0
370
    -2
100
AcDbBlockReference
  2
_OPEN30
 10
9258.936582049759
 20
-731.7477218320075
 30
0.0
 41
20.0
 42
20.0
 43
20.0
 50
180.0
  0
MTEXT
  5
2479
330
2464
100
AcDbEntity
  8
SIZE
 62
     0
100
AcDbMText
 10
9329.88896300214
 20
-711.7477218320075
 30
0.0
 40
20.0
 41
0.0
 71
     5
 72
     1
  1
\A1;2.5
 73
     1
 44
1.0
1001
ACAD
1000
MTEXTBEGIN
1070
    73
1070
     1
1070
    44
1040
1.0
1070
    74
1070
     0
1000
MTEXTEND
  0
POINT
  5
247A
330
2464
100
AcDbEntity
  8
Defpoints
 62
     0
100
AcDbPoint
 10
9258.936582049759
 20
-687.2672993716167
 30
0.0
  0
POINT
  5
247B
330
2464
100
AcDbEntity
  8
Defpoints
 62
     0
100
AcDbPoint
 10
9256.436582049763
 20
-20.2672993716169
 30
0.0
  0
POINT
  5
247C
330
2464
100
AcDbEntity
  8
Defpoints
 62
     0
100
AcDbPoint
 10
9256.436582049763
 20
-731.7477218320075
 30
0.0
  0
ENDBLK
  5
2466
330
2464
100
AcDbEntity
  8
0
100
AcDbBlockEnd
  0
BLOCK
  5
247F
330
247E
100
AcDbEntity
  8
0
100
AcDbBlockBegin
  2
*D49
 70
     1
 10
0.0
 20
0.0
 30
0.0
  3
*D49
  1

  0
LINE
  5
24A2
330
247E
100
AcDbEntity
  8
SIZE
 62
     0
370
    -2
100
AcDbLine
 10
10877.93658204976
 20
-697.2672993716148
 30
0.0
 11
10877.93658204976
 21
-742.3497437936603
 31
0.0
  0
LINE
  5
24A3
330
247E
100
AcDbEntity
  8
SIZE
 62
     0
370
    -2
100
AcDbLine
 10
10880.43658204976
 20
-30.26729937161531
 30
0.0
 11
10880.43658204976
 21
-742.3497437936603
 31
0.0
  0
LINE
  5
24A4
330
247E
100
AcDbEntity
  8
SIZE
 62
     0
370
    -2
100
AcDbLine
 10
10900.43658204976
 20
-732.3497437936603
 30
0.0
 11
10920.43658204976
 21
-732.3497437936603
 31
0.0
  0
LINE
  5
24A5
330
247E
100
AcDbEntity
  8
SIZE
 62
     0
370
    -2
100
AcDbLine
 10
10857.93658204976
 20
-732.3497437936603
 30
0.0
 11
10776.031820145
 21
-732.3497437936603
 31
0.0
  0
LINE
  5
24A6
330
247E
100
AcDbEntity
  8
SIZE
 62
     0
370
    -2
100
AcDbLine
 10
10880.43658204976
 20
-732.3497437936603
 30
0.0
 11
10877.93658204976
 21
-732.3497437936603
 31
0.0
  0
INSERT
  5
24A7
330
247E
100
AcDbEntity
  8
SIZE
 62
     0
370
    -2
100
AcDbBlockReference
  2
_OPEN30
 10
10880.43658204976
 20
-732.3497437936603
 30
0.0
 41
20.0
 42
20.0
 43
20.0
 50
180.0
  0
INSERT
  5
24A8
330
247E
100
AcDbEntity
  8
SIZE
 62
     0
370
    -2
100
AcDbBlockReference
  2
_OPEN30
 10
10877.93658204976
 20
-732.3497437936603
 30
0.0
 41
20.0
 42
20.0
 43
20.0
  0
MTEXT
  5
24A9
330
247E
100
AcDbEntity
  8
SIZE
 62
     0
100
AcDbMText
 10
10806.98420109738
 20
-712.3497437936602
 30
0.0
 40
20.0
 41
0.0
 71
     5
 72
     1
  1
\A1;2.5
 73
     1
 44
1.0
1001
ACAD
1000
MTEXTBEGIN
1070
    73
1070
     1
1070
    44
1040
1.0
1070
    74
1070
     0
1000
MTEXTEND
  0
POINT
  5
24AA
330
247E
100
AcDbEntity
  8
Defpoints
 62
     0
100
AcDbPoint
 10
10877.93658204976
 20
-687.2672993716149
 30
0.0
  0
POINT
  5
24AB
330
247E
100
AcDbEntity
  8
Defpoints
 62
     0
100
AcDbPoint
 10
10880.43658204976
 20
-20.26729937161531
 30
0.0
  0
POINT
  5
24AC
330
247E
100
AcDbEntity
  8
Defpoints
 62
     0
100
AcDbPoint
 10
10880.43658204976
 20
-732.3497437936603
 30
0.0
  0
ENDBLK
  5
2480
330
247E
100
AcDbEntity
  8
0
100
AcDbBlockEnd
  0
ENDSEC
  0
SECTION
  2
ENTITIES
  0
MTEXT
  5
B60
330
2
100
AcDbEntity
  8
ETC
100
AcDbMText
 10
9805.914304824909
 20
785.5750589302928
 30
0.0
 40
40.0
 41
651.9792552343242
 71
     1
 72
     5
  1
AG1S-KS89SD-5
 73
     1
 44
1.0
1001
ACAD
1000
MTEXTBEGIN
1070
    73
1070
     1
1070
    44
1040
1.0
1070
    74
1070
     0
1000
MTEXTEND
  0
MULTILEADER
  5
182D
330
2
100
AcDbEntity
  8
NOTE
 92
      980
310
D40300001B0000000C00000010000000050000000C00000016000000000000C00C00000013000000112700003C00000006000000020000003F21FEA65FF5C140FABC60A6886883400000000000000000F73F839231F5C140FABC60A68868834000000000000000000C0000001300000001000000880000001D00000042AD3B
310
B09E442C40C66BF3B3EC4C2C4000000000000000001BF0A1B90813C240C66BF3B3EC4C2CC042AD3BB09E442C400000000000000000FD3660106C8D81400000000000000000000000000000000000000000000034400000000000000000000000000000000000000000000000000000000000000000000000000000F03F0C00
310
000016000000040000C30C00000017000000FDFFFFFF540000002000000002000000000000000000F0BF498A025C1426D13F000000000000000000000000000000000000000000000000000000000000000000000000000000000000000000000000000000000000F03F0C00000016000000040000C30C00000017000000FD
310
FFFFFF540000002000000002000000000000000000000000000000000000000000000000000000000000000000F0BF498A025C1426D1BF000000000000000000000000000000000000000000000000000000000000F03F0C00000016000000040000C30C00000017000000FDFFFFFF54000000200000000200000000000000
310
0000000000000000000000000000000000000000000000000000F0BF0000000000000000000000000000000000000000000000000000000000000000000000000000F03F080000001F0000000C00000016000000000000C00C00000013000000891300003C000000060000000200000030E1F591F70BC240AC0430C39FFE81
310
4000000000000000003F21FEA65FF5C140FABC60A68868834000000000000000000C000000130000009A3A00003C0000000600000002000000A2EA2D3DDCC6C140FABC60A6886883400000000000000000F73F839231F5C140FABC60A68868834000000000000000000C00000016000000000000C00C00000012000000FF7F
310
00000C00000017000000FFFFFFFF0C00000016000000000000C00C00000013000000993A0000B40000000B000000340F77CF00C4C140FABC60A688888340000000000000000000000000000000000000000000000000000000000000F03F000000000000F03F000000000000000000000000000000003132817E5C552B3232
310
303537000000000C000000010000000000000000003440000000000000F03F0000000000000000000000000000F03F0000000000000000000000000000000000000000726F6D616E732E7368780000657874666F6E742E73687800
100
AcDbMLeader
300
CONTEXT_DATA{
 40
1.0
 10
9099.720617045944
 20
633.0667235906287
 30
0.0
 41
20.0
140
20.0
145
2.0
174
     1
175
     6
176
     0
177
     0
290
     1
304
12×%%C7
 11
0.0
 21
0.0
 31
1.0
340
23
 12
9101.720617045943
 22
645.0667235906287
 32
0.0
 13
1.0
 23
0.0
 33
0.0
 42
0.0
 43
0.0
 44
0.0
 45
1.0
170
     1
 90
-1073741824
171
     1
172
     5
 91
-1073741824
141
0.0
 92
 12836860
291
     0
292
     0
173
     0
293
     0
142
0.0
143
0.0
294
     0
295
     0
296
     0
110
9256.436582049763
120
559.1540992575893
130
0.0
111
1.0
121
0.0
131
0.0
112
0.0
122
1.0
132
0.0
297
     0
302
LEADER{
290
     1
291
     1
 10
9194.74728371261
 20
621.0667235906287
 30
0.0
 11
-1.0
 21
0.0
 31
0.0
 90
        0
 40
0.36
304
LEADER_LINE{
 10
9254.068165056457
 20
561.6777656094342
 30
0.0
 91
        0
305
}
303
}
301
}
340
B17
 90
 67454208
170
     1
 91
-1056964608
341
26
171
    -2
290
     1
291
     1
 41
0.36
342
32
 42
20.0
172
     2
343
23
173
     1
 95
        6
174
     1
175
     2
 92
-1056964608
292
     0
 93
-1056964608
 10
1.0
 20
1.0
 30
1.0
 43
0.0
176
     0
293
     0
294
     0
178
     0
179
     1
 45
1.0
1001
ACAD_MLEADERVER
1070
     2
  0
CIRCLE
  5
202B
330
2
100
AcDbEntity
  8
OUTLINE
100
AcDbCircle
 10
10049.43658204976
 20
559.2327006283517
 30
0.0
 40
3.5
  0
CIRCLE
  5
202C
330
2
100
AcDbEntity
  8
OUTLINE
100
AcDbCircle
 10
10035.43658204976
 20
-6.767299371648276
 30
0.0
 40
3.5
  0
CIRCLE
  5
202D
330
2
100
AcDbEntity
  8
OUTLINE
100
AcDbCircle
 10
10035.43658204976
 20
-627.7672993716483
 30
0.0
 40
3.5
  0
LINE
  5
202E
330
2
100
AcDbEntity
  8
OUTLINE
100
AcDbLine
 10
10033.43658204976
 20
-683.7672993716482
 30
0.0
 11
10028.43658204976
 21
-678.7672993716483
 31
0.0
  0
LINE
  5
202F
330
2
100
AcDbEntity
  8
OUTLINE
100
AcDbLine
 10
10028.43658204976
 20
561.2327006283517
 30
0.0
 11
10028.43658204976
 21
-678.7672993716483
 31
0.0
  0
LINE
  5
2030
330
2
100
AcDbEntity
  8
OUTLINE
100
AcDbLine
 10
10058.43658204976
 20
-683.7672993716482
 30
0.0
 11
10033.43658204976
 21
-683.7672993716482
 31
0.0
  0
LINE
  5
2031
330
2
100
AcDbEntity
  8
OUTLINE
100
AcDbLine
 10
10058.43658204976
 20
-683.7672993716482
 30
0.0
 11
10058.43658204976
 21
567.2327006283516
 31
0.0
  0
LINE
  5
2032
330
2
100
AcDbEntity
  8
OUTLINE
100
AcDbLine
 10
10058.43658204976
 20
567.2327006283516
 30
0.0
 11
10038.43658204976
 21
567.2327006283516
 31
0.0
  0
LINE
  5
2033
330
2
100
AcDbEntity
  8
OUTLINE
100
AcDbLine
 10
10038.43658204976
 20
567.2327006283516
 30
0.0
 11
10038.43658204976
 21
566.2327006283517
 31
0.0
  0
LINE
  5
2034
330
2
100
AcDbEntity
  8
OUTLINE
100
AcDbLine
 10
10038.43658204976
 20
566.2327006283517
 30
0.0
 11
10033.43658204976
 21
566.2327006283517
 31
0.0
  0
LINE
  5
2035
330
2
100
AcDbEntity
  8
OUTLINE
100
AcDbLine
 10
10028.43658204976
 20
561.2327006283512
 30
0.0
 11
10033.43658204976
 21
566.2327006283517
 31
0.0
  0
LINE
  5
2036
330
2
100
AcDbEntity
  8
OUTLINE
100
AcDbLine
 10
10038.43658204976
 20
-8.570075009185075
 30
0.0
 11
10038.43658204976
 21
-4.964523733721986
 31
0.0
  0
LINE
  5
2037
330
2
100
AcDbEntity
  8
OUTLINE
100
AcDbLine
 10
10038.43658204976
 20
-629.5700750093372
 30
0.0
 11
10038.43658204976
 21
-625.9645237338716
 31
0.0
  0
CIRCLE
  5
2038
330
2
100
AcDbEntity
  8
OUTLINE
100
AcDbCircle
 10
9258.936582049759
 20
-673.7672993716171
 30
0.0
 40
3.5
  0
CIRCLE
  5
2039
330
2
100
AcDbEntity
  8
OUTLINE
100
AcDbCircle
 10
9256.436582049763
 20
-6.767299371617127
 30
0.0
 40
3.5
  0
CIRCLE
  5
203A
330
2
100
AcDbEntity
  8
OUTLINE
100
AcDbCircle
 10
9256.436582049763
 20
559.2327006283827
 30
0.0
 40
3.5
  0
LINE
  5
203B
330
2
100
AcDbEntity
  8
OUTLINE
100
AcDbLine
 10
9260.436582049759
 20
-442.2672993716171
 30
0.0
 11
9265.436582049764
 21
-447.2672993716171
 31
0.0
  0
LINE
  5
203C
330
2
100
AcDbEntity
  8
OUTLINE
100
AcDbLine
 10
9260.436582049759
 20
-442.2672993716171
 30
0.0
 11
9249.436582049762
 21
-442.2672993716171
 31
0.0
  0
LINE
  5
203D
330
2
100
AcDbEntity
  8
OUTLINE
100
AcDbLine
 10
9249.436582049762
 20
-442.2672993716171
 30
0.0
 11
9249.436582049762
 21
-430.267299371617
 31
0.0
  0
LINE
  5
203E
330
2
100
AcDbEntity
  8
OUTLINE
100
AcDbLine
 10
9249.436582049762
 20
-430.267299371617
 30
0.0
 11
9260.436582049759
 21
-430.267299371617
 31
0.0
  0
LINE
  5
203F
330
2
100
AcDbEntity
  8
OUTLINE
100
AcDbLine
 10
9265.436582049764
 20
-425.2672993716172
 30
0.0
 11
9260.436582049759
 21
-430.267299371617
 31
0.0
  0
LINE
  5
2040
330
2
100
AcDbEntity
  8
OUTLINE
100
AcDbLine
 10
9265.436582049764
 20
-425.2672993716172
 30
0.0
 11
9265.436582049764
 21
567.2327006283827
 31
0.0
  0
LINE
  5
2041
330
2
100
AcDbEntity
  8
OUTLINE
100
AcDbLine
 10
9248.436582049762
 20
567.2327006283827
 30
0.0
 11
9265.436582049764
 21
567.2327006283827
 31
0.0
  0
LINE
  5
2042
330
2
100
AcDbEntity
  8
OUTLINE
100
AcDbLine
 10
9248.436582049762
 20
-683.7672993716171
 30
0.0
 11
9248.436582049762
 21
567.2327006283827
 31
0.0
  0
LINE
  5
2043
330
2
100
AcDbEntity
  8
OUTLINE
100
AcDbLine
 10
9248.436582049762
 20
-683.7672993716171
 30
0.0
 11
9260.436582049759
 21
-683.7672993716171
 31
0.0
  0
LINE
  5
2044
330
2
100
AcDbEntity
  8
OUTLINE
100
AcDbLine
 10
9265.436582049764
 20
-678.7672993716171
 30
0.0
 11
9260.436582049759
 21
-683.7672993716171
 31
0.0
  0
LINE
  5
2045
330
2
100
AcDbEntity
  8
OUTLINE
100
AcDbLine
 10
9265.436582049764
 20
-678.7672993716171
 30
0.0
 11
9265.436582049764
 21
-447.2672993716171
 31
0.0
  0
LINE
  5
2046
330
2
100
AcDbEntity
  8
OUTLINE
100
AcDbLine
 10
9265.436582049764
 20
549.7369352700872
 30
0.0
 11
9268.436582049764
 21
547.4388019407308
 31
0.0
  0
LINE
  5
2047
330
2
100
AcDbEntity
  8
OUTLINE
100
AcDbLine
 10
9268.436582049764
 20
547.4388019407308
 30
0.0
 11
9268.436582049764
 21
548.0815895504177
 31
0.0
  0
LINE
  5
2048
330
2
100
AcDbEntity
  8
OUTLINE
100
AcDbLine
 10
9268.436582049764
 20
548.0815895504177
 30
0.0
 11
9265.436582049764
 21
550.3797228797741
 31
0.0
  0
LINE
  5
2049
330
2
100
AcDbEntity
  8
OUTLINE
100
AcDbLine
 10
9265.436582049764
 20
566.2327006283828
 30
0.0
 11
9268.436582049764
 21
566.2327006283836
 31
0.0
  0
LINE
  5
204A
330
2
100
AcDbEntity
  8
OUTLINE
100
AcDbLine
 10
9268.436582049764
 20
566.2327006283836
 30
0.0
 11
9268.436582049764
 21
567.2327006283836
 31
0.0
  0
LINE
  5
204B
330
2
100
AcDbEntity
  8
OUTLINE
100
AcDbLine
 10
9265.436582049764
 20
329.387246262361
 30
0.0
 11
9268.436582049764
 21
329.387246262361
 31
0.0
  0
LINE
  5
204C
330
2
100
AcDbEntity
  8
OUTLINE
100
AcDbLine
 10
9268.436582049764
 20
319.8201696673264
 30
0.0
 11
9268.436582049764
 21
-261.924544313018
 31
0.0
  0
LINE
  5
204D
330
2
100
AcDbEntity
  8
OUTLINE
100
AcDbLine
 10
9268.436582049764
 20
-275.2599011706177
 30
0.0
 11
9268.436582049764
 21
-650.4672993716049
 31
0.0
  0
LINE
  5
204E
330
2
100
AcDbEntity
  8
OUTLINE
100
AcDbLine
 10
9268.436582049764
 20
-261.9245443130179
 30
0.0
 11
9268.436582049764
 21
-269.1308138164576
 31
0.0
  0
LINE
  5
204F
330
2
100
AcDbEntity
  8
OUTLINE
100
AcDbLine
 10
9265.436582049764
 20
-261.9245443130184
 30
0.0
 11
9268.436582049764
 21
-261.9245443130184
 31
0.0
  0
LINE
  5
2050
330
2
100
AcDbEntity
  8
OUTLINE
100
AcDbLine
 10
9268.43658204943
 20
-650.4672993719387
 30
0.0
 11
9265.436582049764
 21
-653.4672993716058
 31
0.0
  0
LINE
  5
2051
330
2
100
AcDbEntity
  8
OUTLINE
100
AcDbLine
 10
9268.436582049764
 20
547.4388019407308
 30
0.0
 11
9268.436582049764
 21
329.387246262361
 31
0.0
  0
ELLIPSE
  5
2052
330
2
100
AcDbEntity
  8
OUTLINE
100
AcDbEllipse
 10
9653.436582049797
 20
317.5830297682587
 30
0.0
 11
-2.0
 21
0.0
 31
0.0
210
0.0
220
0.0
230
1.0
 40
0.9366071917945804
 41
0.0000000000000002
 42
6.283185307179584
  0
ELLIPSE
  5
2053
330
2
100
AcDbEntity
  8
OUTLINE
100
AcDbEllipse
 10
9653.436582049797
 20
317.9334109439499
 30
0.0
 11
2.0
 21
0.0
 31
0.0
210
0.0
220
0.0
230
1.0
 40
0.9366071917945804
 41
3.235253577386008
 42
6.189524383383387
  0
ELLIPSE
  5
2054
330
2
100
AcDbEntity
  8
OUTLINE
100
AcDbEllipse
 10
9369.436582049797
 20
317.5830297683092
 30
0.0
 11
-2.0
 21
0.0
 31
0.0
210
0.0
220
0.0
230
1.0
 40
0.9366071917945804
 41
0.0000000000000002
 42
6.283185307179584
  0
ELLIPSE
  5
2055
330
2
100
AcDbEntity
  8
OUTLINE
100
AcDbEllipse
 10
9369.436582049797
 20
317.9334109440006
 30
0.0
 11
2.0
 21
0.0
 31
0.0
210
0.0
220
0.0
230
1.0
 40
0.9366071917945804
 41
3.235253577386028
 42
6.18952438338337
  0
ELLIPSE
  5
2056
330
2
100
AcDbEntity
  8
OUTLINE
100
AcDbEllipse
 10
9937.436582049798
 20
317.5830297682078
 30
0.0
 11
-2.0
 21
0.0
 31
0.0
210
0.0
220
0.0
230
1.0
 40
0.9366071917945804
 41
0.0000000000000002
 42
6.283185307179584
  0
ELLIPSE
  5
2057
330
2
100
AcDbEntity
  8
OUTLINE
100
AcDbEllipse
 10
9937.436582049798
 20
317.9334109438991
 30
0.0
 11
2.0
 21
0.0
 31
0.0
210
0.0
220
0.0
230
1.0
 40
0.9366071917945804
 41
3.235253577386031
 42
6.189524383383361
  0
LINE
  5
2058
330
2
100
AcDbEntity
  8
OUTLINE
100
AcDbLine
 10
9268.43658204968
 20
-269.838051789847
 30
0.0
 11
9273.436582049681
 21
-266.3031739666256
 31
0.0
  0
LINE
  5
2059
330
2
100
AcDbEntity
  8
OUTLINE
100
AcDbLine
 10
9273.436582049681
 20
-266.3031739666256
 30
0.0
 11
9273.436582049681
 21
-265.5959359932418
 31
0.0
  0
LINE
  5
205A
330
2
100
AcDbEntity
  8
OUTLINE
100
AcDbLine
 10
9273.436582049681
 20
-265.5959359932421
 30
0.0
 11
9268.436582049677
 21
-269.1308138164635
 31
0.0
  0
LINE
  5
205B
330
2
100
AcDbEntity
  8
OUTLINE
100
AcDbLine
 10
9268.436582049677
 20
-269.1308138164635
 30
0.0
 11
9268.436582049677
 21
-269.838051789847
 31
0.0
  0
LINE
  5
205C
330
2
100
AcDbEntity
  8
OUTLINE
100
AcDbLine
 10
10028.43658204976
 20
-265.5959359933766
 30
0.0
 11
9273.436582049681
 21
-265.5959359932418
 31
0.0
  0
LINE
  5
205D
330
2
100
AcDbEntity
  8
OUTLINE
100
AcDbLine
 10
10028.43658204976
 20
-266.3031739667604
 30
0.0
 11
9273.436582049681
 21
-266.3031739666256
 31
0.0
  0
LINE
  5
205E
330
2
100
AcDbEntity
  8
OUTLINE
100
AcDbLine
 10
10028.43658204976
 20
-276.9078074364273
 30
0.0
 11
9268.436582049677
 21
-276.9078074362915
 31
0.0
  0
LINE
  5
205F
330
2
100
AcDbEntity
  8
OUTLINE
100
AcDbLine
 10
9268.436582049677
 20
-269.838051789847
 30
0.0
 11
9268.436582049677
 21
-275.2599011706202
 31
0.0
  0
LINE
  5
2060
330
2
100
AcDbEntity
  8
OUTLINE
100
AcDbLine
 10
10028.43658204976
 20
320.7567768589762
 30
0.0
 11
9265.436582049764
 21
320.7567768591125
 31
0.0
  0
LINE
  5
2061
330
2
100
AcDbEntity
  8
OUTLINE
100
AcDbLine
 10
10028.43658204976
 20
326.3628756700342
 30
0.0
 11
9265.436582049764
 21
326.3628756701704
 31
0.0
  0
LINE
  5
2062
330
2
100
AcDbEntity
  8
OUTLINE
100
AcDbLine
 10
10028.43658204976
 20
319.820169667182
 30
0.0
 11
9265.436582049764
 21
319.8201696673183
 31
0.0
  0
LINE
  5
2063
330
2
100
AcDbEntity
  8
OUTLINE
100
AcDbLine
 10
10028.43658204976
 20
-262.5109831548437
 30
0.0
 11
9268.436582049764
 21
-262.510983154708
 31
0.0
  0
ELLIPSE
  5
2064
330
2
100
AcDbEntity
  8
OUTLINE
100
AcDbEllipse
 10
9653.436582049751
 20
318.4442754209715
 30
0.0
 11
2.5
 21
0.0
 31
0.0
210
0.0
220
0.0
230
1.0
 40
0.9366721892483582
 41
4.347941401344456
 42
5.076836559332643
  0
ELLIPSE
  5
2065
330
2
100
AcDbEntity
  8
OUTLINE
100
AcDbEllipse
 10
9937.436582049752
 20
318.4442754209618
 30
0.0
 11
2.5
 21
0.0
 31
0.0
210
0.0
220
0.0
230
1.0
 40
0.9366721892483582
 41
4.347941401182477
 42
5.076836559494619
  0
ELLIPSE
  5
2066
330
2
100
AcDbEntity
  8
OUTLINE
100
AcDbEllipse
 10
9369.436582049749
 20
318.4442754209811
 30
0.0
 11
2.5
 21
0.0
 31
0.0
210
0.0
220
0.0
230
1.0
 40
0.9366721892483582
 41
4.347941401506044
 42
5.07683655917105
  0
LINE
  5
2067
330
2
100
AcDbEntity
  8
OUTLINE
100
AcDbLine
 10
9535.436582049767
 20
564.2327006284148
 30
0.0
 11
9530.436582049766
 21
559.2327006284148
 31
0.0
  0
LINE
  5
2068
330
2
100
AcDbEntity
  8
OUTLINE
100
AcDbLine
 10
9535.436582049767
 20
564.2327006284148
 30
0.0
 11
9535.436582049767
 21
568.2327006284148
 31
0.0
  0
LINE
  5
2069
330
2
100
AcDbEntity
  8
OUTLINE
100
AcDbLine
 10
9552.436582049766
 20
559.2327006284143
 30
0.0
 11
9547.436582049767
 21
564.2327006284142
 31
0.0
  0
LINE
  5
206A
330
2
100
AcDbEntity
  8
OUTLINE
100
AcDbLine
 10
9547.436582049767
 20
568.2327006284142
 30
0.0
 11
9547.436582049767
 21
564.2327006284142
 31
0.0
  0
LINE
  5
206B
330
2
100
AcDbEntity
  8
OUTLINE
100
AcDbLine
 10
9730.436582049769
 20
559.2327006284082
 30
0.0
 11
9552.436582049766
 21
559.2327006284143
 31
0.0
  0
LINE
  5
206C
330
2
100
AcDbEntity
  8
OUTLINE
100
AcDbLine
 10
9735.436582049766
 20
564.2327006284078
 30
0.0
 11
9730.436582049769
 21
559.2327006284079
 31
0.0
  0
LINE
  5
206D
330
2
100
AcDbEntity
  8
OUTLINE
100
AcDbLine
 10
9735.436582049766
 20
564.2327006284078
 30
0.0
 11
9735.436582049766
 21
568.2327006284081
 31
0.0
  0
LINE
  5
206E
330
2
100
AcDbEntity
  8
OUTLINE
100
AcDbLine
 10
9735.436582049766
 20
568.2327006284081
 30
0.0
 11
9547.436582049767
 21
568.2327006284142
 31
0.0
  0
LINE
  5
206F
330
2
100
AcDbEntity
  8
OUTLINE
100
AcDbLine
 10
9752.436582049767
 20
559.2327006284071
 30
0.0
 11
9747.436582049768
 21
564.2327006284075
 31
0.0
  0
LINE
  5
2070
330
2
100
AcDbEntity
  8
OUTLINE
100
AcDbLine
 10
10030.43658204976
 20
559.2327006283978
 30
0.0
 11
9752.436582049767
 21
559.2327006284071
 31
0.0
  0
LINE
  5
2071
330
2
100
AcDbEntity
  8
OUTLINE
100
AcDbLine
 10
9276.436582049766
 20
559.2327006284233
 30
0.0
 11
9271.436582049766
 21
564.2327006284237
 31
0.0
  0
LINE
  5
2072
330
2
100
AcDbEntity
  8
OUTLINE
100
AcDbLine
 10
9271.436582049766
 20
568.2327006284237
 30
0.0
 11
9271.436582049766
 21
564.2327006284237
 31
0.0
  0
LINE
  5
2073
330
2
100
AcDbEntity
  8
OUTLINE
100
AcDbLine
 10
9254.436582049766
 20
568.2327006284245
 30
0.0
 11
9249.436582049765
 21
568.2327006284252
 31
0.0
  0
LINE
  5
2074
330
2
100
AcDbEntity
  8
OUTLINE
100
AcDbLine
 10
9249.436582049765
 20
568.2327006284252
 30
0.0
 11
9249.436582049765
 21
567.2327006284251
 31
0.0
  0
LINE
  5
2075
330
2
100
AcDbEntity
  8
OUTLINE
100
AcDbLine
 10
9254.436582049766
 20
567.2327006284245
 30
0.0
 11
9254.436582049766
 21
568.2327006284245
 31
0.0
  0
LINE
  5
2076
330
2
100
AcDbEntity
  8
OUTLINE
100
AcDbLine
 10
9271.436582049766
 20
567.2327006284238
 30
0.0
 11
9265.436582049764
 21
567.232700628424
 31
0.0
  0
LINE
  5
2077
330
2
100
AcDbEntity
  8
OUTLINE
100
AcDbLine
 10
9254.436582049766
 20
568.2327006284245
 30
0.0
 11
9271.436582049766
 21
568.2327006284237
 31
0.0
  0
LINE
  5
2078
330
2
100
AcDbEntity
  8
OUTLINE
100
AcDbLine
 10
10038.43658204976
 20
567.2327006283977
 30
0.0
 11
10035.43658204976
 21
567.2327006283977
 31
0.0
  0
LINE
  5
2079
330
2
100
AcDbEntity
  8
OUTLINE
100
AcDbLine
 10
9747.436582049768
 20
567.2327006284079
 30
0.0
 11
9735.436582049766
 21
567.232700628408
 31
0.0
  0
LINE
  5
207A
330
2
100
AcDbEntity
  8
OUTLINE
100
AcDbLine
 10
9547.436582049767
 20
567.2327006284142
 30
0.0
 11
9535.436582049767
 21
567.2327006284148
 31
0.0
  0
LINE
  5
207B
330
2
100
AcDbEntity
  8
OUTLINE
100
AcDbLine
 10
10035.43658204976
 20
564.2327006283977
 30
0.0
 11
10030.43658204976
 21
559.2327006283981
 31
0.0
  0
LINE
  5
207C
330
2
100
AcDbEntity
  8
OUTLINE
100
AcDbLine
 10
10057.43658204976
 20
567.2327006283977
 30
0.0
 11
10057.43658204976
 21
568.2327006283977
 31
0.0
  0
LINE
  5
207D
330
2
100
AcDbEntity
  8
OUTLINE
100
AcDbLine
 10
10057.43658204976
 20
568.2327006283977
 30
0.0
 11
10052.43658204976
 21
568.2327006283974
 31
0.0
  0
LINE
  5
207E
330
2
100
AcDbEntity
  8
OUTLINE
100
AcDbLine
 10
10052.43658204976
 20
568.2327006283974
 30
0.0
 11
10052.43658204976
 21
567.2327006283974
 31
0.0
  0
LINE
  5
207F
330
2
100
AcDbEntity
  8
OUTLINE
100
AcDbLine
 10
10035.43658204976
 20
568.2327006283981
 30
0.0
 11
10052.43658204976
 21
568.2327006283974
 31
0.0
  0
LINE
  5
2080
330
2
100
AcDbEntity
  8
OUTLINE
100
AcDbLine
 10
10035.43658204976
 20
564.2327006283977
 30
0.0
 11
10035.43658204976
 21
568.2327006283977
 31
0.0
  0
LINE
  5
2081
330
2
100
AcDbEntity
  8
OUTLINE
100
AcDbLine
 10
9747.436582049768
 20
568.2327006284075
 30
0.0
 11
9747.436582049768
 21
564.2327006284075
 31
0.0
  0
LINE
  5
2082
330
2
100
AcDbEntity
  8
OUTLINE
100
AcDbLine
 10
9735.436582049766
 20
568.2327006284082
 30
0.0
 11
9747.436582049768
 21
568.2327006284078
 31
0.0
  0
LINE
  5
2083
330
2
100
AcDbEntity
  8
OUTLINE
100
AcDbLine
 10
9535.436582049767
 20
568.2327006284148
 30
0.0
 11
9547.436582049767
 21
568.2327006284148
 31
0.0
  0
LINE
  5
2084
330
2
100
AcDbEntity
  8
OUTLINE
100
AcDbLine
 10
9530.436582049766
 20
559.2327006284148
 30
0.0
 11
9276.436582049766
 21
559.2327006284233
 31
0.0
  0
LINE
  5
2085
330
2
100
AcDbEntity
  8
OUTLINE
100
AcDbLine
 10
9535.436582049767
 20
568.2327006284148
 30
0.0
 11
9271.436582049766
 21
568.2327006284237
 31
0.0
  0
LINE
  5
2086
330
2
100
AcDbEntity
  8
OUTLINE
100
AcDbLine
 10
10035.43658204976
 20
568.2327006283977
 30
0.0
 11
9747.436582049768
 21
568.2327006284075
 31
0.0
  0
LINE
  5
2087
330
2
100
AcDbEntity
  8
OUTLINE
100
AcDbLine
 10
10028.43658204976
 20
327.4607899321822
 30
0.0
 11
9265.436582049764
 21
327.4607899322082
 31
0.0
  0
CIRCLE
  5
2088
330
2
100
AcDbEntity
  8
OUTLINE
100
AcDbCircle
 10
10880.43658204976
 20
559.2327006283848
 30
0.0
 40
3.5
  0
CIRCLE
  5
2089
330
2
100
AcDbEntity
  8
OUTLINE
100
AcDbCircle
 10
10880.43658204976
 20
-6.767299371615079
 30
0.0
 40
3.5
  0
CIRCLE
  5
208A
330
2
100
AcDbEntity
  8
OUTLINE
100
AcDbCircle
 10
10877.93658204976
 20
-673.7672993716151
 30
0.0
 40
3.5
  0
LINE
  5
208B
330
2
100
AcDbEntity
  8
OUTLINE
100
AcDbLine
 10
10871.43658204976
 20
-447.2263687625626
 30
0.0
 11
10876.43658204976
 21
-442.2263687625626
 31
0.0
  0
LINE
  5
208C
330
2
100
AcDbEntity
  8
OUTLINE
100
AcDbLine
 10
10871.43658204976
 20
-447.2263687625626
 30
0.0
 11
10871.43658204976
 21
-678.7672993716149
 31
0.0
  0
LINE
  5
208D
330
2
100
AcDbEntity
  8
OUTLINE
100
AcDbLine
 10
10876.43658204976
 20
-683.7672993716148
 30
0.0
 11
10871.43658204976
 21
-678.7672993716149
 31
0.0
  0
LINE
  5
208E
330
2
100
AcDbEntity
  8
OUTLINE
100
AcDbLine
 10
10876.43658204976
 20
-683.7672993716148
 30
0.0
 11
10888.43658204976
 21
-683.7672993716148
 31
0.0
  0
LINE
  5
208F
330
2
100
AcDbEntity
  8
OUTLINE
100
AcDbLine
 10
10888.43658204976
 20
-683.7672993716148
 30
0.0
 11
10888.43658204976
 21
567.2327006283848
 31
0.0
  0
LINE
  5
2090
330
2
100
AcDbEntity
  8
OUTLINE
100
AcDbLine
 10
10871.43658204976
 20
567.2327006283848
 30
0.0
 11
10888.43658204976
 21
567.2327006283848
 31
0.0
  0
LINE
  5
2091
330
2
100
AcDbEntity
  8
OUTLINE
100
AcDbLine
 10
10871.43658204976
 20
567.2327006283848
 30
0.0
 11
10871.43658204976
 21
-425.2263687625626
 31
0.0
  0
LINE
  5
2092
330
2
100
AcDbEntity
  8
OUTLINE
100
AcDbLine
 10
10876.43658204976
 20
-430.2263687625628
 30
0.0
 11
10871.43658204976
 21
-425.2263687625626
 31
0.0
  0
LINE
  5
2093
330
2
100
AcDbEntity
  8
OUTLINE
100
AcDbLine
 10
10876.43658204976
 20
-430.2263687625626
 30
0.0
 11
10887.43658204976
 21
-430.2263687625626
 31
0.0
  0
LINE
  5
2094
330
2
100
AcDbEntity
  8
OUTLINE
100
AcDbLine
 10
10887.43658204976
 20
-430.2263687625623
 30
0.0
 11
10887.43658204976
 21
-442.2263687625624
 31
0.0
  0
LINE
  5
2095
330
2
100
AcDbEntity
  8
OUTLINE
100
AcDbLine
 10
10887.43658204976
 20
-442.2263687625626
 30
0.0
 11
10876.43658204976
 21
-442.2263687625626
 31
0.0
  0
LINE
  5
2096
330
2
100
AcDbEntity
  8
OUTLINE
100
AcDbLine
 10
10868.43658204976
 20
567.2327006283856
 30
0.0
 11
10868.43658204976
 21
566.2327006283856
 31
0.0
  0
LINE
  5
2097
330
2
100
AcDbEntity
  8
OUTLINE
100
AcDbLine
 10
10868.43658204976
 20
566.2327006283856
 30
0.0
 11
10871.43658204976
 21
566.2327006283851
 31
0.0
  0
LINE
  5
2098
330
2
100
AcDbEntity
  8
OUTLINE
100
AcDbLine
 10
10868.43658204976
 20
329.3872462623633
 30
0.0
 11
10871.43658204976
 21
329.3872462623633
 31
0.0
  0
LINE
  5
2099
330
2
100
AcDbEntity
  8
OUTLINE
100
AcDbLine
 10
10868.43658204976
 20
-261.9245443130162
 30
0.0
 11
10868.43658204976
 21
319.8201696672181
 31
0.0
  0
LINE
  5
209A
330
2
100
AcDbEntity
  8
OUTLINE
100
AcDbLine
 10
10868.43658204976
 20
-261.9245443130162
 30
0.0
 11
10871.43658204976
 21
-261.9245443130162
 31
0.0
  0
LINE
  5
209B
330
2
100
AcDbEntity
  8
OUTLINE
100
AcDbLine
 10
10868.43658204976
 20
-269.1308138165648
 30
0.0
 11
10868.43658204976
 21
-261.924544313016
 31
0.0
  0
LINE
  5
209C
330
2
100
AcDbEntity
  8
OUTLINE
100
AcDbLine
 10
10868.43658204976
 20
-650.4672993716026
 30
0.0
 11
10868.43658204976
 21
-275.2599011706761
 31
0.0
  0
LINE
  5
209D
330
2
100
AcDbEntity
  8
OUTLINE
100
AcDbLine
 10
10871.43658204976
 20
-653.4672993716042
 30
0.0
 11
10868.43658204971
 21
-650.4672993715517
 31
0.0
  0
LINE
  5
209E
330
2
100
AcDbEntity
  8
OUTLINE
100
AcDbLine
 10
10871.43658204976
 20
550.3797228797768
 30
0.0
 11
10868.43658204976
 21
548.0815895504197
 31
0.0
  0
LINE
  5
209F
330
2
100
AcDbEntity
  8
OUTLINE
100
AcDbLine
 10
10868.43658204976
 20
548.0815895504198
 30
0.0
 11
10868.43658204976
 21
547.4388019407326
 31
0.0
  0
LINE
  5
20A0
330
2
100
AcDbEntity
  8
OUTLINE
100
AcDbLine
 10
10868.43658204976
 20
547.4388019407329
 30
0.0
 11
10871.43658204976
 21
549.7369352700893
 31
0.0
  0
LINE
  5
20A1
330
2
100
AcDbEntity
  8
OUTLINE
100
AcDbLine
 10
10868.43658204976
 20
329.3872462623635
 30
0.0
 11
10868.43658204976
 21
547.4388019407326
 31
0.0
  0
CIRCLE
  5
20A2
330
2
100
AcDbEntity
  8
OUTLINE
100
AcDbCircle
 10
10087.43658204976
 20
559.2327006279208
 30
0.0
 40
3.5
  0
CIRCLE
  5
20A3
330
2
100
AcDbEntity
  8
OUTLINE
100
AcDbCircle
 10
10101.43658204976
 20
-6.76729937207915
 30
0.0
 40
3.5
  0
CIRCLE
  5
20A4
330
2
100
AcDbEntity
  8
OUTLINE
100
AcDbCircle
 10
10101.43658204976
 20
-627.7672993720791
 30
0.0
 40
3.5
  0
LINE
  5
20A5
330
2
100
AcDbEntity
  8
OUTLINE
100
AcDbLine
 10
10103.43658204976
 20
566.2327006279207
 30
0.0
 11
10108.43658204976
 21
561.2327006279208
 31
0.0
  0
LINE
  5
20A6
330
2
100
AcDbEntity
  8
OUTLINE
100
AcDbLine
 10
10103.43658204976
 20
566.2327006279207
 30
0.0
 11
10098.43658204976
 21
566.2327006279207
 31
0.0
  0
LINE
  5
20A7
330
2
100
AcDbEntity
  8
OUTLINE
100
AcDbLine
 10
10098.43658204976
 20
566.2327006279207
 30
0.0
 11
10098.43658204976
 21
567.2327006279207
 31
0.0
  0
LINE
  5
20A8
330
2
100
AcDbEntity
  8
OUTLINE
100
AcDbLine
 10
10078.43658204976
 20
567.2327006279207
 30
0.0
 11
10098.43658204976
 21
567.2327006279207
 31
0.0
  0
LINE
  5
20A9
330
2
100
AcDbEntity
  8
OUTLINE
100
AcDbLine
 10
10078.43658204976
 20
-683.7672993720791
 30
0.0
 11
10078.43658204976
 21
567.2327006279207
 31
0.0
  0
LINE
  5
20AA
330
2
100
AcDbEntity
  8
OUTLINE
100
AcDbLine
 10
10078.43658204976
 20
-683.7672993720794
 30
0.0
 11
10103.43658204976
 21
-683.7672993720794
 31
0.0
  0
LINE
  5
20AB
330
2
100
AcDbEntity
  8
OUTLINE
100
AcDbLine
 10
10108.43658204976
 20
-678.7672993720794
 30
0.0
 11
10103.43658204976
 21
-683.7672993720794
 31
0.0
  0
LINE
  5
20AC
330
2
100
AcDbEntity
  8
OUTLINE
100
AcDbLine
 10
10108.43658204976
 20
-678.7672993720794
 30
0.0
 11
10108.43658204976
 21
561.2327006279206
 31
0.0
  0
LINE
  5
20AD
330
2
100
AcDbEntity
  8
OUTLINE
100
AcDbLine
 10
10098.43658204976
 20
-4.964523734152862
 30
0.0
 11
10098.43658204976
 21
-8.570075009616175
 31
0.0
  0
LINE
  5
20AE
330
2
100
AcDbEntity
  8
OUTLINE
100
AcDbLine
 10
10098.43658204976
 20
-625.9645237343025
 30
0.0
 11
10098.43658204976
 21
-629.5700750097684
 31
0.0
  0
ELLIPSE
  5
20AF
330
2
100
AcDbEntity
  8
OUTLINE
100
AcDbEllipse
 10
10483.43658204976
 20
317.5830297682194
 30
0.0
 11
-2.0
 21
0.0
 31
0.0
210
0.0
220
0.0
230
1.0
 40
0.9366071917945792
 41
0.0000000000000002
 42
6.283185307179584
  0
ELLIPSE
  5
20B0
330
2
100
AcDbEntity
  8
OUTLINE
100
AcDbEllipse
 10
10483.43658204976
 20
317.9334109439105
 30
0.0
 11
2.0
 21
0.0
 31
0.0
210
0.0
220
0.0
230
1.0
 40
0.9366071917945795
 41
3.235253577386043
 42
6.189524383383343
  0
ELLIPSE
  5
20B1
330
2
100
AcDbEntity
  8
OUTLINE
100
AcDbEllipse
 10
10199.43658204976
 20
317.5830297682192
 30
0.0
 11
-2.0
 21
0.0
 31
0.0
210
0.0
220
0.0
230
1.0
 40
0.9366071917945792
 41
0.0000000000000002
 42
6.283185307179584
  0
ELLIPSE
  5
20B2
330
2
100
AcDbEntity
  8
OUTLINE
100
AcDbEllipse
 10
10199.43658204976
 20
317.9334109439105
 30
0.0
 11
2.0
 21
0.0
 31
0.0
210
0.0
220
0.0
230
1.0
 40
0.9366071917945795
 41
3.235253577386081
 42
6.189524383383287
  0
ELLIPSE
  5
20B3
330
2
100
AcDbEntity
  8
OUTLINE
100
AcDbEllipse
 10
10767.43658204976
 20
317.5830297682192
 30
0.0
 11
-2.0
 21
0.0
 31
0.0
210
0.0
220
0.0
230
1.0
 40
0.9366071917945792
 41
0.0000000000000002
 42
6.283185307179584
  0
ELLIPSE
  5
20B4
330
2
100
AcDbEntity
  8
OUTLINE
100
AcDbEllipse
 10
10767.43658204976
 20
317.9334109439105
 30
0.0
 11
2.0
 21
0.0
 31
0.0
210
0.0
220
0.0
230
1.0
 40
0.9366071917945795
 41
3.235253577386081
 42
6.189524383383312
  0
LINE
  5
20B5
330
2
100
AcDbEntity
  8
OUTLINE
100
AcDbLine
 10
10863.43658204976
 20
-265.5959359933485
 30
0.0
 11
10108.43658204976
 21
-265.5959359933485
 31
0.0
  0
LINE
  5
20B6
330
2
100
AcDbEntity
  8
OUTLINE
100
AcDbLine
 10
10868.43658204976
 20
-269.1308138165711
 30
0.0
 11
10863.43658204976
 21
-265.5959359933488
 31
0.0
  0
LINE
  5
20B7
330
2
100
AcDbEntity
  8
OUTLINE
100
AcDbLine
 10
10863.43658204976
 20
-266.3031739667322
 30
0.0
 11
10108.43658204976
 21
-266.3031739667322
 31
0.0
  0
LINE
  5
20B8
330
2
100
AcDbEntity
  8
OUTLINE
100
AcDbLine
 10
10863.43658204976
 20
-265.5959359933484
 30
0.0
 11
10863.43658204976
 21
-266.3031739667323
 31
0.0
  0
LINE
  5
20B9
330
2
100
AcDbEntity
  8
OUTLINE
100
AcDbLine
 10
10868.43658204976
 20
-276.9078074363991
 30
0.0
 11
10108.43658204976
 21
-276.9078074363991
 31
0.0
  0
LINE
  5
20BA
330
2
100
AcDbEntity
  8
OUTLINE
100
AcDbLine
 10
10863.43658204976
 20
-266.3031739667322
 30
0.0
 11
10868.43658204976
 21
-269.8380517899545
 31
0.0
  0
LINE
  5
20BB
330
2
100
AcDbEntity
  8
OUTLINE
100
AcDbLine
 10
10868.43658204976
 20
-269.8380517899547
 30
0.0
 11
10868.43658204976
 21
-269.1308138165712
 31
0.0
  0
LINE
  5
20BC
330
2
100
AcDbEntity
  8
OUTLINE
100
AcDbLine
 10
10868.43658204976
 20
-275.2599011706756
 30
0.0
 11
10868.43658204976
 21
-269.8380517899545
 31
0.0
  0
LINE
  5
20BD
330
2
100
AcDbEntity
  8
OUTLINE
100
AcDbLine
 10
10871.43658204976
 20
320.7567768590038
 30
0.0
 11
10108.43658204976
 21
320.7567768590038
 31
0.0
  0
LINE
  5
20BE
330
2
100
AcDbEntity
  8
OUTLINE
100
AcDbLine
 10
10871.43658204976
 20
326.3628756700618
 30
0.0
 11
10108.43658204976
 21
326.3628756700618
 31
0.0
  0
LINE
  5
20BF
330
2
100
AcDbEntity
  8
OUTLINE
100
AcDbLine
 10
10871.43658204976
 20
319.8201696672097
 30
0.0
 11
10108.43658204976
 21
319.8201696672097
 31
0.0
  0
LINE
  5
20C0
330
2
100
AcDbEntity
  8
OUTLINE
100
AcDbLine
 10
10868.43658204976
 20
-262.5109831548155
 30
0.0
 11
10108.43658204976
 21
-262.5109831548155
 31
0.0
  0
ELLIPSE
  5
20C1
330
2
100
AcDbEntity
  8
OUTLINE
100
AcDbEllipse
 10
10483.43658204993
 20
318.4442754207255
 30
0.0
 11
2.5
 21
0.0
 31
0.0
210
0.0
220
0.0
230
1.0
 40
0.9366721892482027
 41
4.347941403003821
 42
5.076836559367943
  0
ELLIPSE
  5
20C2
330
2
100
AcDbEntity
  8
OUTLINE
100
AcDbEllipse
 10
10767.43658204993
 20
318.4442754208569
 30
0.0
 11
2.5
 21
0.0
 31
0.0
210
0.0
220
0.0
230
1.0
 40
0.9366721892482027
 41
4.347941402486733
 42
5.076836559885027
  0
ELLIPSE
  5
20C3
330
2
100
AcDbEntity
  8
OUTLINE
100
AcDbEllipse
 10
10199.43658204993
 20
318.4442754205941
 30
0.0
 11
2.5
 21
0.0
 31
0.0
210
0.0
220
0.0
230
1.0
 40
0.9366721892482027
 41
4.347941403520906
 42
5.07683655885085
  0
LINE
  5
20C4
330
2
100
AcDbEntity
  8
OUTLINE
100
AcDbLine
 10
10389.43658204973
 20
564.2327006280187
 30
0.0
 11
10384.43658204973
 21
559.2327006280163
 31
0.0
  0
LINE
  5
20C5
330
2
100
AcDbEntity
  8
OUTLINE
100
AcDbLine
 10
10389.43658204973
 20
564.2327006280187
 30
0.0
 11
10389.43658204972
 21
568.2327006280187
 31
0.0
  0
LINE
  5
20C6
330
2
100
AcDbEntity
  8
OUTLINE
100
AcDbLine
 10
10406.43658204973
 20
559.2327006280267
 30
0.0
 11
10401.43658204973
 21
564.2327006280245
 31
0.0
  0
LINE
  5
20C7
330
2
100
AcDbEntity
  8
OUTLINE
100
AcDbLine
 10
10401.43658204972
 20
568.2327006280245
 30
0.0
 11
10401.43658204973
 21
564.2327006280245
 31
0.0
  0
LINE
  5
20C8
330
2
100
AcDbEntity
  8
OUTLINE
100
AcDbLine
 10
10584.43658204973
 20
559.2327006281091
 30
0.0
 11
10406.43658204973
 21
559.2327006280267
 31
0.0
  0
LINE
  5
20C9
330
2
100
AcDbEntity
  8
OUTLINE
100
AcDbLine
 10
10589.43658204973
 20
564.2327006281114
 30
0.0
 11
10584.43658204973
 21
559.2327006281091
 31
0.0
  0
LINE
  5
20CA
330
2
100
AcDbEntity
  8
OUTLINE
100
AcDbLine
 10
10589.43658204973
 20
564.2327006281114
 30
0.0
 11
10589.43658204972
 21
568.2327006281115
 31
0.0
  0
LINE
  5
20CB
330
2
100
AcDbEntity
  8
OUTLINE
100
AcDbLine
 10
10589.43658204972
 20
568.2327006281114
 30
0.0
 11
10401.43658204972
 21
568.2327006280245
 31
0.0
  0
LINE
  5
20CC
330
2
100
AcDbEntity
  8
OUTLINE
100
AcDbLine
 10
10606.43658204973
 20
559.2327006281192
 30
0.0
 11
10601.43658204973
 21
564.2327006281171
 31
0.0
  0
LINE
  5
20CD
330
2
100
AcDbEntity
  8
OUTLINE
100
AcDbLine
 10
10860.43658204973
 20
559.2327006282369
 30
0.0
 11
10606.43658204973
 21
559.2327006281192
 31
0.0
  0
LINE
  5
20CE
330
2
100
AcDbEntity
  8
OUTLINE
100
AcDbLine
 10
10106.43658204973
 20
559.2327006278881
 30
0.0
 11
10101.43658204972
 21
564.2327006278857
 31
0.0
  0
LINE
  5
20CF
330
2
100
AcDbEntity
  8
OUTLINE
100
AcDbLine
 10
10101.43658204972
 20
568.2327006278857
 30
0.0
 11
10101.43658204972
 21
564.2327006278857
 31
0.0
  0
LINE
  5
20D0
330
2
100
AcDbEntity
  8
OUTLINE
100
AcDbLine
 10
10084.43658204972
 20
568.232700627878
 30
0.0
 11
10079.43658204973
 21
568.2327006278787
 31
0.0
  0
LINE
  5
20D1
330
2
100
AcDbEntity
  8
OUTLINE
100
AcDbLine
 10
10079.43658204973
 20
568.2327006278787
 30
0.0
 11
10079.43658204973
 21
567.2327006278786
 31
0.0
  0
LINE
  5
20D2
330
2
100
AcDbEntity
  8
OUTLINE
100
AcDbLine
 10
10084.43658204972
 20
567.2327006278782
 30
0.0
 11
10084.43658204972
 21
568.232700627878
 31
0.0
  0
LINE
  5
20D3
330
2
100
AcDbEntity
  8
OUTLINE
100
AcDbLine
 10
10101.43658204972
 20
567.2327006278862
 30
0.0
 11
10098.43658204976
 21
567.2327006278849
 31
0.0
  0
LINE
  5
20D4
330
2
100
AcDbEntity
  8
OUTLINE
100
AcDbLine
 10
10084.43658204972
 20
568.232700627878
 30
0.0
 11
10101.43658204972
 21
568.2327006278862
 31
0.0
  0
LINE
  5
20D5
330
2
100
AcDbEntity
  8
OUTLINE
100
AcDbLine
 10
10871.43658204976
 20
567.2327006282422
 30
0.0
 11
10865.43658204972
 21
567.2327006282396
 31
0.0
  0
LINE
  5
20D6
330
2
100
AcDbEntity
  8
OUTLINE
100
AcDbLine
 10
10601.43658204972
 20
567.2327006281175
 30
0.0
 11
10589.43658204972
 21
567.2327006281117
 31
0.0
  0
LINE
  5
20D7
330
2
100
AcDbEntity
  8
OUTLINE
100
AcDbLine
 10
10401.43658204972
 20
567.232700628025
 30
0.0
 11
10389.43658204972
 21
567.2327006280195
 31
0.0
  0
LINE
  5
20D8
330
2
100
AcDbEntity
  8
OUTLINE
100
AcDbLine
 10
10865.43658204973
 20
564.2327006282392
 30
0.0
 11
10860.43658204973
 21
559.2327006282369
 31
0.0
  0
LINE
  5
20D9
330
2
100
AcDbEntity
  8
OUTLINE
100
AcDbLine
 10
10887.43658204973
 20
567.2327006282527
 30
0.0
 11
10887.43658204973
 21
568.2327006282527
 31
0.0
  0
LINE
  5
20DA
330
2
100
AcDbEntity
  8
OUTLINE
100
AcDbLine
 10
10887.43658204972
 20
568.2327006282527
 30
0.0
 11
10882.43658204972
 21
568.2327006282474
 31
0.0
  0
LINE
  5
20DB
330
2
100
AcDbEntity
  8
OUTLINE
100
AcDbLine
 10
10882.43658204972
 20
568.2327006282474
 30
0.0
 11
10882.43658204972
 21
567.2327006282475
 31
0.0
  0
LINE
  5
20DC
330
2
100
AcDbEntity
  8
OUTLINE
100
AcDbLine
 10
10865.43658204972
 20
568.2327006282397
 30
0.0
 11
10882.43658204972
 21
568.2327006282478
 31
0.0
  0
LINE
  5
20DD
330
2
100
AcDbEntity
  8
OUTLINE
100
AcDbLine
 10
10865.43658204973
 20
564.2327006282392
 30
0.0
 11
10865.43658204972
 21
568.2327006282391
 31
0.0
  0
LINE
  5
20DE
330
2
100
AcDbEntity
  8
OUTLINE
100
AcDbLine
 10
10601.43658204972
 20
568.2327006281171
 30
0.0
 11
10601.43658204973
 21
564.2327006281171
 31
0.0
  0
LINE
  5
20DF
330
2
100
AcDbEntity
  8
OUTLINE
100
AcDbLine
 10
10589.43658204972
 20
568.232700628112
 30
0.0
 11
10601.43658204972
 21
568.2327006281175
 31
0.0
  0
LINE
  5
20E0
330
2
100
AcDbEntity
  8
OUTLINE
100
AcDbLine
 10
10389.43658204972
 20
568.2327006280195
 30
0.0
 11
10401.43658204972
 21
568.232700628025
 31
0.0
  0
LINE
  5
20E1
330
2
100
AcDbEntity
  8
OUTLINE
100
AcDbLine
 10
10384.43658204973
 20
559.2327006280163
 30
0.0
 11
10106.43658204973
 21
559.2327006278881
 31
0.0
  0
LINE
  5
20E2
330
2
100
AcDbEntity
  8
OUTLINE
100
AcDbLine
 10
10389.43658204972
 20
568.232700628019
 30
0.0
 11
10101.43658204972
 21
568.2327006278857
 31
0.0
  0
LINE
  5
20E3
330
2
100
AcDbEntity
  8
OUTLINE
100
AcDbLine
 10
10865.43658204972
 20
568.2327006282391
 30
0.0
 11
10601.43658204972
 21
568.2327006281171
 31
0.0
  0
LINE
  5
20E4
330
2
100
AcDbEntity
  8
OUTLINE
100
AcDbLine
 10
10871.43658204976
 20
327.4607899321265
 30
0.0
 11
10108.43658204976
 21
327.4607899317735
 31
0.0
  0
LINE
  5
20E5
330
2
100
AcDbEntity
  8
NOTE
100
AcDbLine
 10
10034.93658204976
 20
-627.7672993716477
 30
0.0
 11
10035.93658204976
 21
-627.7672993716477
 31
0.0
  0
LINE
  5
20E6
330
2
100
AcDbEntity
  8
NOTE
100
AcDbLine
 10
10035.43658204976
 20
-628.2672993716476
 30
0.0
 11
10035.43658204976
 21
-627.2672993716477
 31
0.0
  0
LINE
  5
20E7
330
2
100
AcDbEntity
  8
NOTE
100
AcDbLine
 10
10021.93658204976
 20
-627.7672993716477
 30
0.0
 11
10033.93658204976
 21
-627.7672993716477
 31
0.0
  0
LINE
  5
20E8
330
2
100
AcDbEntity
  8
NOTE
100
AcDbLine
 10
10036.93658204976
 20
-627.7672993716477
 30
0.0
 11
10048.93658204976
 21
-627.7672993716477
 31
0.0
  0
LINE
  5
20E9
330
2
100
AcDbEntity
  8
NOTE
100
AcDbLine
 10
10035.43658204976
 20
-641.2672993716475
 30
0.0
 11
10035.43658204976
 21
-629.2672993716477
 31
0.0
  0
LINE
  5
20EA
330
2
100
AcDbEntity
  8
NOTE
100
AcDbLine
 10
10035.43658204976
 20
-626.2672993716477
 30
0.0
 11
10035.43658204976
 21
-614.2672993716477
 31
0.0
  0
LINE
  5
20EB
330
2
100
AcDbEntity
  8
NOTE
100
AcDbLine
 10
10034.93658204976
 20
-6.767299371648049
 30
0.0
 11
10035.93658204976
 21
-6.767299371648049
 31
0.0
  0
LINE
  5
20EC
330
2
100
AcDbEntity
  8
NOTE
100
AcDbLine
 10
10035.43658204976
 20
-7.267299371648049
 30
0.0
 11
10035.43658204976
 21
-6.267299371648049
 31
0.0
  0
LINE
  5
20ED
330
2
100
AcDbEntity
  8
NOTE
100
AcDbLine
 10
10021.93658204976
 20
-6.767299371648049
 30
0.0
 11
10033.93658204976
 21
-6.767299371648049
 31
0.0
  0
LINE
  5
20EE
330
2
100
AcDbEntity
  8
NOTE
100
AcDbLine
 10
10036.93658204976
 20
-6.767299371648049
 30
0.0
 11
10048.93658204976
 21
-6.767299371648049
 31
0.0
  0
LINE
  5
20EF
330
2
100
AcDbEntity
  8
NOTE
100
AcDbLine
 10
10035.43658204976
 20
-20.26729937164805
 30
0.0
 11
10035.43658204976
 21
-8.267299371648048
 31
0.0
  0
LINE
  5
20F0
330
2
100
AcDbEntity
  8
NOTE
100
AcDbLine
 10
10035.43658204976
 20
-5.267299371648048
 30
0.0
 11
10035.43658204976
 21
6.732700628351949
 31
0.0
  0
LINE
  5
20F1
330
2
100
AcDbEntity
  8
NOTE
100
AcDbLine
 10
10048.93658204976
 20
559.2327006283519
 30
0.0
 11
10049.93658204976
 21
559.2327006283519
 31
0.0
  0
LINE
  5
20F2
330
2
100
AcDbEntity
  8
NOTE
100
AcDbLine
 10
10049.43658204976
 20
558.7327006283519
 30
0.0
 11
10049.43658204976
 21
559.7327006283519
 31
0.0
  0
LINE
  5
20F3
330
2
100
AcDbEntity
  8
NOTE
100
AcDbLine
 10
10035.93658204976
 20
559.2327006283519
 30
0.0
 11
10047.93658204976
 21
559.2327006283519
 31
0.0
  0
LINE
  5
20F4
330
2
100
AcDbEntity
  8
NOTE
100
AcDbLine
 10
10050.93658204976
 20
559.2327006283519
 30
0.0
 11
10062.93658204976
 21
559.2327006283519
 31
0.0
  0
LINE
  5
20F5
330
2
100
AcDbEntity
  8
NOTE
100
AcDbLine
 10
10049.43658204976
 20
545.7327006283519
 30
0.0
 11
10049.43658204976
 21
557.7327006283519
 31
0.0
  0
LINE
  5
20F6
330
2
100
AcDbEntity
  8
NOTE
100
AcDbLine
 10
10049.43658204976
 20
560.7327006283519
 30
0.0
 11
10049.43658204976
 21
572.7327006283519
 31
0.0
  0
LINE
  5
20F7
330
2
100
AcDbEntity
  8
NOTE
100
AcDbLine
 10
9255.936582049764
 20
559.2327006283831
 30
0.0
 11
9256.936582049762
 21
559.2327006283831
 31
0.0
  0
LINE
  5
20F8
330
2
100
AcDbEntity
  8
NOTE
100
AcDbLine
 10
9256.436582049763
 20
558.7327006283831
 30
0.0
 11
9256.436582049763
 21
559.7327006283831
 31
0.0
  0
LINE
  5
20F9
330
2
100
AcDbEntity
  8
NOTE
100
AcDbLine
 10
9242.936582049763
 20
559.2327006283831
 30
0.0
 11
9254.936582049763
 21
559.2327006283831
 31
0.0
  0
LINE
  5
20FA
330
2
100
AcDbEntity
  8
NOTE
100
AcDbLine
 10
9257.936582049763
 20
559.2327006283831
 30
0.0
 11
9269.936582049762
 21
559.2327006283831
 31
0.0
  0
LINE
  5
20FB
330
2
100
AcDbEntity
  8
NOTE
100
AcDbLine
 10
9256.436582049763
 20
545.7327006283831
 30
0.0
 11
9256.436582049763
 21
557.7327006283828
 31
0.0
  0
LINE
  5
20FC
330
2
100
AcDbEntity
  8
NOTE
100
AcDbLine
 10
9256.436582049763
 20
560.732700628383
 30
0.0
 11
9256.436582049763
 21
572.7327006283831
 31
0.0
  0
LINE
  5
20FD
330
2
100
AcDbEntity
  8
NOTE
100
AcDbLine
 10
9255.936582049764
 20
-6.7672993716169
 30
0.0
 11
9256.936582049762
 21
-6.7672993716169
 31
0.0
  0
LINE
  5
20FE
330
2
100
AcDbEntity
  8
NOTE
100
AcDbLine
 10
9256.436582049763
 20
-7.2672993716169
 30
0.0
 11
9256.436582049763
 21
-6.2672993716169
 31
0.0
  0
LINE
  5
20FF
330
2
100
AcDbEntity
  8
NOTE
100
AcDbLine
 10
9242.936582049763
 20
-6.7672993716169
 30
0.0
 11
9254.936582049763
 21
-6.7672993716169
 31
0.0
  0
LINE
  5
2100
330
2
100
AcDbEntity
  8
NOTE
100
AcDbLine
 10
9257.936582049763
 20
-6.7672993716169
 30
0.0
 11
9269.936582049762
 21
-6.7672993716169
 31
0.0
  0
LINE
  5
2101
330
2
100
AcDbEntity
  8
NOTE
100
AcDbLine
 10
9256.436582049763
 20
-20.2672993716169
 30
0.0
 11
9256.436582049763
 21
-8.2672993716169
 31
0.0
  0
LINE
  5
2102
330
2
100
AcDbEntity
  8
NOTE
100
AcDbLine
 10
9256.436582049763
 20
-5.2672993716169
 30
0.0
 11
9256.436582049763
 21
6.732700628383097
 31
0.0
  0
LINE
  5
2103
330
2
100
AcDbEntity
  8
NOTE
100
AcDbLine
 10
9258.436582049762
 20
-673.7672993716167
 30
0.0
 11
9259.436582049763
 21
-673.7672993716167
 31
0.0
  0
LINE
  5
2104
330
2
100
AcDbEntity
  8
NOTE
100
AcDbLine
 10
9258.936582049759
 20
-674.2672993716169
 30
0.0
 11
9258.936582049759
 21
-673.2672993716168
 31
0.0
  0
LINE
  5
2105
330
2
100
AcDbEntity
  8
NOTE
100
AcDbLine
 10
9245.436582049762
 20
-673.7672993716167
 30
0.0
 11
9257.436582049759
 21
-673.7672993716167
 31
0.0
  0
LINE
  5
2106
330
2
100
AcDbEntity
  8
NOTE
100
AcDbLine
 10
9260.436582049759
 20
-673.7672993716167
 30
0.0
 11
9272.436582049762
 21
-673.7672993716167
 31
0.0
  0
LINE
  5
2107
330
2
100
AcDbEntity
  8
NOTE
100
AcDbLine
 10
9258.936582049759
 20
-687.2672993716167
 30
0.0
 11
9258.936582049759
 21
-675.2672993716169
 31
0.0
  0
LINE
  5
2108
330
2
100
AcDbEntity
  8
NOTE
100
AcDbLine
 10
9258.936582049759
 20
-672.2672993716169
 30
0.0
 11
9258.936582049759
 21
-660.2672993716169
 31
0.0
  0
LINE
  5
2109
330
2
100
AcDbEntity
  8
NOTE
100
AcDbLine
 10
10877.43658204976
 20
-673.7672993716151
 30
0.0
 11
10878.43658204976
 21
-673.7672993716151
 31
0.0
  0
LINE
  5
210A
330
2
100
AcDbEntity
  8
NOTE
100
AcDbLine
 10
10877.93658204976
 20
-674.267299371615
 30
0.0
 11
10877.93658204976
 21
-673.2672993716152
 31
0.0
  0
LINE
  5
210B
330
2
100
AcDbEntity
  8
NOTE
100
AcDbLine
 10
10864.43658204976
 20
-673.7672993716151
 30
0.0
 11
10876.43658204976
 21
-673.7672993716151
 31
0.0
  0
LINE
  5
210C
330
2
100
AcDbEntity
  8
NOTE
100
AcDbLine
 10
10879.43658204976
 20
-673.7672993716151
 30
0.0
 11
10891.43658204976
 21
-673.7672993716151
 31
0.0
  0
LINE
  5
210D
330
2
100
AcDbEntity
  8
NOTE
100
AcDbLine
 10
10877.93658204976
 20
-687.2672993716149
 30
0.0
 11
10877.93658204976
 21
-675.2672993716148
 31
0.0
  0
LINE
  5
210E
330
2
100
AcDbEntity
  8
NOTE
100
AcDbLine
 10
10877.93658204976
 20
-672.2672993716152
 30
0.0
 11
10877.93658204976
 21
-660.2672993716152
 31
0.0
  0
LINE
  5
210F
330
2
100
AcDbEntity
  8
NOTE
100
AcDbLine
 10
10879.93658204976
 20
-6.767299371615306
 30
0.0
 11
10880.93658204976
 21
-6.767299371615306
 31
0.0
  0
LINE
  5
2110
330
2
100
AcDbEntity
  8
NOTE
100
AcDbLine
 10
10880.43658204976
 20
-7.267299371615306
 30
0.0
 11
10880.43658204976
 21
-6.267299371615306
 31
0.0
  0
LINE
  5
2111
330
2
100
AcDbEntity
  8
NOTE
100
AcDbLine
 10
10866.93658204976
 20
-6.767299371615306
 30
0.0
 11
10878.93658204976
 21
-6.767299371615306
 31
0.0
  0
LINE
  5
2112
330
2
100
AcDbEntity
  8
NOTE
100
AcDbLine
 10
10881.93658204976
 20
-6.767299371615306
 30
0.0
 11
10893.93658204976
 21
-6.767299371615306
 31
0.0
  0
LINE
  5
2113
330
2
100
AcDbEntity
  8
NOTE
100
AcDbLine
 10
10880.43658204976
 20
-20.26729937161531
 30
0.0
 11
10880.43658204976
 21
-8.267299371615306
 31
0.0
  0
LINE
  5
2114
330
2
100
AcDbEntity
  8
NOTE
100
AcDbLine
 10
10880.43658204976
 20
-5.267299371615308
 30
0.0
 11
10880.43658204976
 21
6.732700628384691
 31
0.0
  0
LINE
  5
2115
330
2
100
AcDbEntity
  8
NOTE
100
AcDbLine
 10
10879.93658204976
 20
559.2327006283847
 30
0.0
 11
10880.93658204976
 21
559.2327006283847
 31
0.0
  0
LINE
  5
2116
330
2
100
AcDbEntity
  8
NOTE
100
AcDbLine
 10
10880.43658204976
 20
558.7327006283847
 30
0.0
 11
10880.43658204976
 21
559.7327006283847
 31
0.0
  0
LINE
  5
2117
330
2
100
AcDbEntity
  8
NOTE
100
AcDbLine
 10
10866.93658204976
 20
559.2327006283847
 30
0.0
 11
10878.93658204976
 21
559.2327006283847
 31
0.0
  0
LINE
  5
2118
330
2
100
AcDbEntity
  8
NOTE
100
AcDbLine
 10
10881.93658204976
 20
559.2327006283847
 30
0.0
 11
10893.93658204976
 21
559.2327006283847
 31
0.0
  0
LINE
  5
2119
330
2
100
AcDbEntity
  8
NOTE
100
AcDbLine
 10
10880.43658204976
 20
545.7327006283844
 30
0.0
 11
10880.43658204976
 21
557.7327006283844
 31
0.0
  0
LINE
  5
211A
330
2
100
AcDbEntity
  8
NOTE
100
AcDbLine
 10
10880.43658204976
 20
560.7327006283846
 30
0.0
 11
10880.43658204976
 21
572.7327006283847
 31
0.0
  0
LINE
  5
211B
330
2
100
AcDbEntity
  8
NOTE
100
AcDbLine
 10
10100.93658204976
 20
-627.7672993720792
 30
0.0
 11
10101.93658204976
 21
-627.7672993720792
 31
0.0
  0
LINE
  5
211C
330
2
100
AcDbEntity
  8
NOTE
100
AcDbLine
 10
10101.43658204976
 20
-628.2672993720794
 30
0.0
 11
10101.43658204976
 21
-627.2672993720792
 31
0.0
  0
LINE
  5
211D
330
2
100
AcDbEntity
  8
NOTE
100
AcDbLine
 10
10087.93658204976
 20
-627.7672993720792
 30
0.0
 11
10099.93658204976
 21
-627.7672993720792
 31
0.0
  0
LINE
  5
211E
330
2
100
AcDbEntity
  8
NOTE
100
AcDbLine
 10
10102.93658204976
 20
-627.7672993720792
 30
0.0
 11
10114.93658204976
 21
-627.7672993720792
 31
0.0
  0
LINE
  5
211F
330
2
100
AcDbEntity
  8
NOTE
100
AcDbLine
 10
10101.43658204976
 20
-641.2672993720794
 30
0.0
 11
10101.43658204976
 21
-629.2672993720794
 31
0.0
  0
LINE
  5
2120
330
2
100
AcDbEntity
  8
NOTE
100
AcDbLine
 10
10101.43658204976
 20
-626.2672993720793
 30
0.0
 11
10101.43658204976
 21
-614.2672993720792
 31
0.0
  0
LINE
  5
2121
330
2
100
AcDbEntity
  8
NOTE
100
AcDbLine
 10
10100.93658204976
 20
-6.767299372079492
 30
0.0
 11
10101.93658204976
 21
-6.767299372079492
 31
0.0
  0
LINE
  5
2122
330
2
100
AcDbEntity
  8
NOTE
100
AcDbLine
 10
10101.43658204976
 20
-7.267299372079492
 30
0.0
 11
10101.43658204976
 21
-6.267299372079492
 31
0.0
  0
LINE
  5
2123
330
2
100
AcDbEntity
  8
NOTE
100
AcDbLine
 10
10087.93658204976
 20
-6.767299372079492
 30
0.0
 11
10099.93658204976
 21
-6.767299372079492
 31
0.0
  0
LINE
  5
2124
330
2
100
AcDbEntity
  8
NOTE
100
AcDbLine
 10
10102.93658204976
 20
-6.767299372079492
 30
0.0
 11
10114.93658204976
 21
-6.767299372079492
 31
0.0
  0
LINE
  5
2125
330
2
100
AcDbEntity
  8
NOTE
100
AcDbLine
 10
10101.43658204976
 20
-20.26729937207949
 30
0.0
 11
10101.43658204976
 21
-8.267299372079492
 31
0.0
  0
LINE
  5
2126
330
2
100
AcDbEntity
  8
NOTE
100
AcDbLine
 10
10101.43658204976
 20
-5.267299372079492
 30
0.0
 11
10101.43658204976
 21
6.732700627920507
 31
0.0
  0
LINE
  5
2127
330
2
100
AcDbEntity
  8
NOTE
100
AcDbLine
 10
10086.93658204976
 20
559.2327006279202
 30
0.0
 11
10087.93658204976
 21
559.2327006279202
 31
0.0
  0
LINE
  5
2128
330
2
100
AcDbEntity
  8
NOTE
100
AcDbLine
 10
10087.43658204976
 20
558.7327006279203
 30
0.0
 11
10087.43658204976
 21
559.7327006279201
 31
0.0
  0
LINE
  5
2129
330
2
100
AcDbEntity
  8
NOTE
100
AcDbLine
 10
10073.93658204976
 20
559.2327006279202
 30
0.0
 11
10085.93658204976
 21
559.2327006279202
 31
0.0
  0
LINE
  5
212A
330
2
100
AcDbEntity
  8
NOTE
100
AcDbLine
 10
10088.93658204976
 20
559.2327006279202
 30
0.0
 11
10100.93658204976
 21
559.2327006279202
 31
0.0
  0
LINE
  5
212B
330
2
100
AcDbEntity
  8
NOTE
100
AcDbLine
 10
10087.43658204976
 20
545.7327006279204
 30
0.0
 11
10087.43658204976
 21
557.7327006279204
 31
0.0
  0
LINE
  5
212C
330
2
100
AcDbEntity
  8
NOTE
100
AcDbLine
 10
10087.43658204976
 20
560.7327006279204
 30
0.0
 11
10087.43658204976
 21
572.7327006279202
 31
0.0
  0
LINE
  5
2220
330
2
100
AcDbEntity
  8
BASIS
  6
DASHDOT
 62
     6
100
AcDbLine
 10
10068.43658204976
 20
-709.0615409403897
 30
0.0
 11
10068.43658204976
 21
597.4892699998747
 31
0.0
  0
LINE
  5
2221
330
2
100
AcDbEntity
  8
ARRANGE
  6
Continuous
 62
     1
100
AcDbLine
 10
10051.75246448535
 20
-700.4514169362675
 30
0.0
 11
10085.12069961416
 21
-667.08318180746
 31
0.0
  0
LINE
  5
2222
330
2
100
AcDbEntity
  8
ARRANGE
  6
Continuous
 62
     1
100
AcDbLine
 10
10051.75246448535
 20
-667.08318180746
 30
0.0
 11
10085.12069961416
 21
-700.4514169362675
 31
0.0
  0
CIRCLE
  5
2223
330
2
100
AcDbEntity
  8
ARRANGE
100
AcDbCircle
 10
10068.43658204976
 20
-683.7672993718634
 30
0.0
 40
15.0
  0
DIMENSION
  5
2224
330
2
100
AcDbEntity
  8
SIZE
100
AcDbDimension
  2
*D31
 10
10049.43658204976
 20
617.6796417303335
 30
0.0
 11
9652.936582049765
 21
637.6796417303335
 31
0.0
 70
    32
 71
     5
 42
792.9999999999945
  3
STANDARD
100
AcDbAlignedDimension
 13
9256.436582049763
 23
572.7327006283831
 33
0.0
 14
10049.43658204976
 24
572.7327006283831
 34
0.0
100
AcDbRotatedDimension
1001
ACAD
1000
DSTYLE
1002
{
1070
    40
1040
10.0
1070
    45
1040
0.5
1070
    50
1040
0.7853981633974483
1070
    90
1070
     1
1070
   271
1070
     1
1070
   272
1070
     1
1002
}
  0
DIMENSION
  5
2231
330
2
100
AcDbEntity
  8
SIZE
100
AcDbDimension
  2
*D32
 10
10087.43658204976
 20
617.6796417303335
 30
0.0
 11
10068.43658204976
 21
617.6796417303335
 31
0.0
 70
   160
 71
     5
 42
38.0
  3
STANDARD
100
AcDbAlignedDimension
 13
10049.43658204976
 23
572.7327006283831
 33
0.0
 14
10087.43658204976
 24
572.7327006279202
 34
0.0
100
AcDbRotatedDimension
1001
ACAD
1000
DSTYLE
1002
{
1070
   279
1070
     0
1070
    40
1040
10.0
1070
    45
1040
0.5
1070
    50
1040
0.7853981633974483
1070
    90
1070
     1
1070
   271
1070
     1
1070
   272
1070
     1
1002
}
  0
DIMENSION
  5
2243
330
2
100
AcDbEntity
  8
SIZE
100
AcDbDimension
  2
*D33
 10
10880.43658204976
 20
617.6796417303335
 30
0.0
 11
10483.93658204976
 21
637.6796417303335
 31
0.0
 70
    32
 71
     5
 42
793.0
  3
STANDARD
100
AcDbAlignedDimension
 13
10087.43658204976
 23
572.7327006279202
 33
0.0
 14
10880.43658204976
 24
572.7327006283847
 34
0.0
100
AcDbRotatedDimension
1001
ACAD
1000
DSTYLE
1002
{
1070
   279
1070
     1
1070
    40
1040
10.0
1070
    45
1040
0.5
1070
    50
1040
0.7853981633974483
1070
    90
1070
     1
1070
   271
1070
     1
1070
   272
1070
     1
1002
}
  0
DIMENSION
  5
2271
330
2
100
AcDbEntity
  8
SIZE
100
AcDbDimension
  2
*D34
 10
10035.43658204976
 20
-768.7918320708056
 30
0.0
 11
9645.936582049763
 21
-748.7918320708056
 31
0.0
 70
    32
 71
     5
 42
778.9999999999945
  3
STANDARD
100
AcDbAlignedDimension
 13
9256.436582049763
 23
-20.2672993716169
 33
0.0
 14
10035.43658204976
 24
-20.26729937164805
 34
0.0
100
AcDbRotatedDimension
1001
ACAD
1000
DSTYLE
1002
{
1070
    40
1040
10.0
1070
    45
1040
0.5
1070
    50
1040
0.7853981633974483
1070
    90
1070
     1
1070
   271
1070
     1
1070
   272
1070
     1
1002
}
  0
DIMENSION
  5
228B
330
2
100
AcDbEntity
  8
SIZE
100
AcDbDimension
  2
*D36
 10
10880.43658204976
 20
-768.7918320708056
 30
0.0
 11
10490.93658204976
 21
-748.7918320708056
 31
0.0
 70
    32
 71
     5
 42
779.0
  3
STANDARD
100
AcDbAlignedDimension
 13
10101.43658204976
 23
-20.26729937207949
 33
0.0
 14
10880.43658204976
 24
-20.26729937161531
 34
0.0
100
AcDbRotatedDimension
1001
ACAD
1000
DSTYLE
1002
{
1070
   279
1070
     1
1070
    40
1040
10.0
1070
    45
1040
0.5
1070
    50
1040
0.7853981633974483
1070
    90
1070
     1
1070
   271
1070
     1
1070
   272
1070
     1
1002
}
  0
DIMENSION
  5
22B0
330
2
100
AcDbEntity
  8
SIZE
100
AcDbDimension
  2
*D38
 10
10101.43658204976
 20
-768.7918320708056
 30
0.0
 11
10068.43658204976
 21
-748.7918320708056
 31
0.0
 70
    32
 71
     5
 42
66.0
  3
STANDARD
100
AcDbAlignedDimension
 13
10035.43658204976
 23
-641.2672993716475
 33
0.0
 14
10101.43658204976
 24
-641.2672993720794
 34
0.0
100
AcDbRotatedDimension
1001
ACAD
1000
DSTYLE
1002
{
1070
   279
1070
     1
1070
    40
1040
10.0
1070
    45
1040
0.5
1070
    50
1040
0.7853981633974483
1070
    90
1070
     1
1070
   271
1070
     1
1070
   272
1070
     1
1002
}
  0
DIMENSION
  5
22CA
330
2
100
AcDbEntity
  8
SIZE
100
AcDbDimension
  2
*D40
 10
10888.43658204976
 20
667.329843374337
 30
0.0
 11
10068.43658204976
 21
687.329843374337
 31
0.0
 70
    32
 71
     5
 42
1639.999999999996
  3
STANDARD
100
AcDbAlignedDimension
 13
9248.436582049762
 23
567.2327006283827
 33
0.0
 14
10888.43658204976
 24
567.2327006283827
 34
0.0
100
AcDbRotatedDimension
1001
ACAD
1000
DSTYLE
1002
{
1070
    40
1040
10.0
1070
    45
1040
0.5
1070
    50
1040
0.7853981633974483
1070
    90
1070
     1
1070
   271
1070
     1
1070
   272
1070
     1
1002
}
  0
DIMENSION
  5
22D7
330
2
100
AcDbEntity
  8
SIZE
100
AcDbDimension
  2
*D41
 10
9185.06305454894
 20
-6.767299371616883
 30
0.0
 11
9165.063054548941
 21
276.2327006283846
 31
0.0
 70
    32
 71
     5
 42
566.0
  3
STANDARD
100
AcDbAlignedDimension
 13
9242.936582049763
 23
559.2327006283831
 33
0.0
 14
9242.936582049763
 24
-6.7672993716169
 34
0.0
 50
90.0
100
AcDbRotatedDimension
1001
ACAD
1000
DSTYLE
1002
{
1070
    40
1040
10.0
1070
    45
1040
0.5
1070
    50
1040
0.7853981633974483
1070
    90
1070
     1
1070
   271
1070
     1
1070
   272
1070
     1
1002
}
  0
DIMENSION
  5
22E4
330
2
100
AcDbEntity
  8
SIZE
100
AcDbDimension
  2
*D42
 10
9185.06305454894
 20
-673.7672993716167
 30
0.0
 11
9165.063054548941
 21
-340.2672993716154
 31
0.0
 70
    32
 71
     5
 42
666.9999999999999
  3
STANDARD
100
AcDbAlignedDimension
 13
9242.936582049763
 23
-6.7672993716169
 33
0.0
 14
9245.436582049762
 24
-673.7672993716167
 34
0.0
 50
90.0
100
AcDbRotatedDimension
1001
ACAD
1000
DSTYLE
1002
{
1070
   279
1070
     1
1070
    40
1040
10.0
1070
    45
1040
0.5
1070
    50
1040
0.7853981633974483
1070
    90
1070
     1
1070
   271
1070
     1
1070
   272
1070
     1
1002
}
  0
DIMENSION
  5
22F1
330
2
100
AcDbEntity
  8
SIZE
100
AcDbDimension
  2
*D43
 10
9967.462691508108
 20
-6.767299371648033
 30
0.0
 11
9947.462691508109
 21
276.2327006283536
 31
0.0
 70
    32
 71
     5
 42
566.0
  3
STANDARD
100
AcDbAlignedDimension
 13
10035.93658204976
 23
559.2327006283519
 33
0.0
 14
10021.93658204976
 24
-6.767299371648049
 34
0.0
 50
90.0
100
AcDbRotatedDimension
1001
ACAD
1000
DSTYLE
1002
{
1070
    40
1040
10.0
1070
    45
1040
0.5
1070
    50
1040
0.7853981633974483
1070
    90
1070
     1
1070
   271
1070
     1
1070
   272
1070
     1
1002
}
  0
DIMENSION
  5
22FE
330
2
100
AcDbEntity
  8
SIZE
100
AcDbDimension
  2
*D44
 10
9967.462691508108
 20
-627.7672993716476
 30
0.0
 11
9947.462691508109
 21
-317.2672993716462
 31
0.0
 70
    32
 71
     5
 42
620.9999999999996
  3
STANDARD
100
AcDbAlignedDimension
 13
10021.93658204976
 23
-6.767299371648049
 33
0.0
 14
10021.93658204976
 24
-627.7672993716477
 34
0.0
 50
90.0
100
AcDbRotatedDimension
1001
ACAD
1000
DSTYLE
1002
{
1070
   279
1070
     1
1070
    40
1040
10.0
1070
    45
1040
0.5
1070
    50
1040
0.7853981633974483
1070
    90
1070
     1
1070
   271
1070
     1
1070
   272
1070
     1
1002
}
  0
DIMENSION
  5
230B
330
2
100
AcDbEntity
  8
SIZE
100
AcDbDimension
  2
*D45
 10
9138.53253287896
 20
-683.7672993716171
 30
0.0
 11
9118.53253287896
 21
-57.7672993715945
 31
0.0
 70
    32
 71
     5
 42
1252.000000000042
  3
STANDARD
100
AcDbAlignedDimension
 13
9249.436582049765
 23
568.2327006284252
 33
0.0
 14
9248.436582049762
 24
-683.7672993716171
 34
0.0
 50
90.0
100
AcDbRotatedDimension
1001
ACAD
1000
DSTYLE
1002
{
1070
    40
1040
10.0
1070
    45
1040
0.5
1070
    50
1040
0.7853981633974483
1070
    90
1070
     1
1070
   271
1070
     1
1070
   272
1070
     1
1002
}
  0
DIMENSION
  5
2463
330
2
100
AcDbEntity
  8
SIZE
100
AcDbDimension
  2
*D48
 10
9256.436582049763
 20
-731.7477218320075
 30
0.0
 11
9329.88896300214
 21
-731.7477218320075
 31
0.0
 70
   160
 71
     5
 42
2.499999999994543
  3
STANDARD
100
AcDbAlignedDimension
 13
9258.936582049759
 23
-687.2672993716167
 33
0.0
 14
9256.436582049763
 24
-20.2672993716169
 34
0.0
100
AcDbRotatedDimension
1001
ACAD
1000
DSTYLE
1002
{
1070
    40
1040
10.0
1070
    45
1040
0.5
1070
    50
1040
0.7853981633974483
1070
    90
1070
     1
1070
   271
1070
     1
1070
   272
1070
     1
1002
}
  0
DIMENSION
  5
247D
330
2
100
AcDbEntity
  8
SIZE
100
AcDbDimension
  2
*D49
 10
10880.43658204976
 20
-732.3497437936603
 30
0.0
 11
10806.98420109738
 21
-732.3497437936603
 31
0.0
 70
   160
 71
     5
 42
2.5
  3
STANDARD
100
AcDbAlignedDimension
 13
10877.93658204976
 23
-687.2672993716149
 33
0.0
 14
10880.43658204976
 24
-20.26729937161531
 34
0.0
100
AcDbRotatedDimension
1001
ACAD
1000
DSTYLE
1002
{
1070
    40
1040
10.0
1070
    45
1040
0.5
1070
    50
1040
0.7853981633974483
1070
    90
1070
     1
1070
   271
1070
     1
1070
   272
1070
     1
1002
}
  0
ENDSEC
  0
SECTION
  2
OBJECTS
  0
DICTIONARY
  5
A
330
0
100
AcDbDictionary
281
     1
  3
ACAD_2007HEADERVARS_RT
350
24AF
  3
ACAD_BACKGROUND
350
B1D
  3
ACAD_COLOR
350
4D
  3
ACAD_GROUP
350
3A
  3
ACAD_LAYOUT
350
17
  3
ACAD_MATERIAL
350
C
  3
ACAD_MLEADERSTYLE
350
B16
  3
ACAD_MLINESTYLE
350
3B
  3
ACAD_PLOTSETTINGS
350
3C
  3
ACAD_PLOTSTYLENAME
350
9
  3
ACAD_SCALELIST
350
4E
  3
ACAD_TABLESTYLE
350
4F
  3
ACAD_VISUALSTYLE
350
2D
  3
ACDB_RECOMPOSE_DATA
350
B02
  3
AcDbVariableDictionary
350
B03
  3
AcmDictionary
350
AFC
  3
AMG
350
1198
  3
AMGSNAPSETTINGS
350
136A
  3
DWGPROPS
350
24AE
  3
MAPISURF_MODULE
350
23AA
  0
DICTIONARY
  5
20
330
1F
100
AcDbDictionary
280
     1
281
     1
  3
ACAD_LAYERFILTERS
360
212E
  3
ACAD_LAYERSTATES
360
21
  3
ACLYDICTIONARY
360
212D
  0
DICTIONARY
  5
6
330
5
100
AcDbDictionary
280
     1
281
     1
  3
ADSK_XREC_LAYER_RECONCILED
360
7
  0
DICTIONARY
  5
C0C
330
C0B
100
AcDbDictionary
280
     1
281
     1
  0
DICTIONARY
  5
C0E
330
C0D
100
AcDbDictionary
280
     1
281
     1
  0
DICTIONARY
  5
C12
330
C11
100
AcDbDictionary
280
     1
281
     1
  0
DICTIONARY
  5
C14
330
C13
100
AcDbDictionary
280
     1
281
     1
  0
DICTIONARY
  5
C16
330
C15
100
AcDbDictionary
280
     1
281
     1
  0
DICTIONARY
  5
C18
330
C17
100
AcDbDictionary
280
     1
281
     1
  0
DICTIONARY
  5
3
330
2
100
AcDbDictionary
280
     1
281
     1
  3
ACAD_INDEX
360
1477
  3
ACAD_SORTENTS
360
B34
  0
DICTIONARY
  5
24AF
102
{ACAD_REACTORS
330
A
102
}
330
A
100
AcDbDictionary
281
     1
  3
DIMARCSYM
350
24B1
  3
DIMFXL
350
24B0
  0
DICTIONARY
  5
B1D
102
{ACAD_REACTORS
330
A
102
}
330
A
100
AcDbDictionary
281
     1
  0
DICTIONARY
  5
4D
102
{ACAD_REACTORS
330
A
102
}
330
A
100
AcDbDictionary
281
     1
  0
DICTIONARY
  5
3A
102
{ACAD_REACTORS
330
A
102
}
330
A
100
AcDbDictionary
281
     1
  0
DICTIONARY
  5
17
102
{ACAD_REACTORS
330
A
102
}
330
A
100
AcDbDictionary
281
     1
  3
Model
350
16
  3
レイアウト1
350
1B
  0
DICTIONARY
  5
C
102
{ACAD_REACTORS
330
A
102
}
330
A
100
AcDbDictionary
281
     1
  3
ByBlock
350
45
  3
ByLayer
350
3D
  3
Global
350
B
  0
DICTIONARY
  5
B16
102
{ACAD_REACTORS
330
A
102
}
330
A
100
AcDbDictionary
281
     1
  3
Standard
350
B17
  0
DICTIONARY
  5
3B
102
{ACAD_REACTORS
330
A
102
}
330
A
100
AcDbDictionary
281
     1
  3
STANDARD
350
53
  0
DICTIONARY
  5
3C
102
{ACAD_REACTORS
330
A
102
}
330
A
100
AcDbDictionary
281
     1
  0
ACDBDICTIONARYWDFLT
  5
9
102
{ACAD_REACTORS
330
A
102
}
330
A
100
AcDbDictionary
281
     1
  3
Normal
350
8
100
AcDbDictionaryWithDefault
340
8
  0
DICTIONARY
  5
4E
102
{ACAD_REACTORS
330
A
102
}
330
A
100
AcDbDictionary
281
     1
  3
*A1
350
C1A
  3
*A2
350
1F22
  3
*A3
350
1F23
  3
A0
350
57
  3
A1
350
58
  3
A2
350
59
  3
A3
350
5A
  3
A4
350
5B
  3
A5
350
5C
  3
A6
350
5D
  3
A7
350
5E
  3
A8
350
5F
  3
A9
350
60
  3
B0
350
61
  3
B1
350
62
  3
B2
350
63
  3
B3
350
64
  3
B4
350
65
  3
B5
350
66
  3
B6
350
67
  3
B7
350
68
  3
B8
350
69
  3
B9
350
6A
  3
C0
350
6B
  3
C1
350
6C
  3
C2
350
6D
  3
C3
350
6E
  3
C4
350
6F
  3
C5
350
70
  3
C6
350
71
  3
C7
350
72
  3
C8
350
73
  3
C9
350
74
  3
D0
350
75
  3
D1
350
76
  3
D2
350
77
  0
DICTIONARY
  5
4F
102
{ACAD_REACTORS
330
A
102
}
330
A
100
AcDbDictionary
281
     1
  3
Standard
350
54
  0
DICTIONARY
  5
2D
102
{ACAD_REACTORS
330
A
102
}
330
A
100
AcDbDictionary
281
     1
  3
2dWireframe
350
B0D
  3
3D Hidden
350
B0E
  3
3dWireframe
350
56
  3
Basic
350
B0C
  3
Brighten
350
B11
  3
ColorChange
350
B15
  3
Conceptual
350
B0F
  3
Dim
350
B10
  3
Facepattern
350
B14
  3
Flat
350
B09
  3
FlatWithEdges
350
B0A
  3
Gouraud
350
2C
  3
GouraudWithEdges
350
B0B
  3
Linepattern
350
B13
  3
Realistic
350
55
  3
Thicken
350
B12
  0
XRECORD
  5
B02
102
{ACAD_REACTORS
330
A
102
}
330
A
100
AcDbXrecord
280
     1
 90
        1
330
54
  0
DICTIONARY
  5
B03
102
{ACAD_REACTORS
330
A
102
}
330
A
100
AcDbDictionary
281
     1
  3
CANNOSCALE
350
B06
  3
CMLEADERSTYLE
350
B05
  3
CTABLESTYLE
350
B04
  3
DIMASSOC
350
B7B
  3
HIDETEXT
350
B7A
  3
INDEXCTL
350
B79
  3
LIGHTINGUNITS
350
B07
  3
MSLTSCALE
350
B77
  3
SORTENTS
350
B78
  0
DICTIONARY
  5
AFC
102
{ACAD_REACTORS
330
A
102
}
330
A
100
AcDbDictionary
281
     1
  3
AcmStdDictionary
350
1260
  3
AMDTSECTSYM_ARROWCOLOR
350
1277
  0
DICTIONARY
  5
1198
102
{ACAD_REACTORS
330
A
102
}
330
A
100
AcDbDictionary
281
     1
  3
AcMgSettings
350
1199
  0
DICTIONARY
  5
136A
102
{ACAD_REACTORS
330
A
102
}
330
A
100
AcDbDictionary
281
     1
  3
DIMENSION
350
136F
  3
FEA
350
136E
  3
HATCH (1)
350
136B
  3
HATCH (2)
350
136C
  3
SIMPLE WELD
350
1370
  3
SYMBOLS
350
136D
  0
XRECORD
  5
24AE
102
{ACAD_REACTORS
330
A
102
}
330
A
100
AcDbXrecord
280
     1
  1
DWGPROPS COOKIE
  2

  3

  4

  6

  7

  8
W000135
  9

300
AmdtFileType=84
301
=
302
=
303
=
304
=
305
=
306
=
307
=
308
=
309
=
 40
1.979998402777777
 41
2451324.468257373
 42
2455891.637884491
  1

 90
        1
  0
DICTIONARY
  5
212E
102
{ACAD_REACTORS
330
20
102
}
330
20
100
AcDbDictionary
281
     1
  0
DICTIONARY
  5
21
102
{ACAD_REACTORS
330
20
102
}
330
20
100
AcDbDictionary
281
     1
  0
DICTIONARY
  5
212D
102
{ACAD_REACTORS
330
20
102
}
330
20
100
AcDbDictionary
281
     1
1001
ACAD
1000
<All
  0
XRECORD
  5
7
102
{ACAD_REACTORS
330
6
102
}
330
6
100
AcDbXrecord
280
     1
290
     1
  0
DICTIONARY
  5
1477
102
{ACAD_REACTORS
330
3
102
}
330
3
100
AcDbDictionary
281
     1
  3
*A1
350
1478
  0
SORTENTSTABLE
  5
B34
102
{ACAD_REACTORS
330
3
102
}
330
3
100
AcDbSortentsTable
330
2
  0
XRECORD
  5
24B1
102
{ACAD_REACTORS
330
24AF
102
}
330
24AF
100
AcDbXrecord
280
     1
 70
     1
  0
XRECORD
  5
24B0
102
{ACAD_REACTORS
330
24AF
102
}
330
24AF
100
AcDbXrecord
280
     1
 40
15.0
  0
LAYOUT
  5
16
102
{ACAD_XDICTIONARY
360
24B2
102
}
102
{ACAD_REACTORS
330
17
102
}
330
17
100
AcDbPlotSettings
  1

  2
なし
  4

  6

 40
0.0
 41
0.0
 42
0.0
 43
0.0
 44
0.0
 45
0.0
 46
0.0
 47
0.0
 48
0.0
 49
0.0
140
0.0
141
0.0
142
1.0
143
1.0
 70
  1712
 72
     0
 73
     0
 74
     0
  7

 75
     0
147
1.0
148
0.0
149
0.0
100
AcDbLayout
  1
Model
 70
     1
 71
     0
 10
0.0
 20
0.0
 11
12.0
 21
9.0
 12
0.0
 22
0.0
 32
0.0
 14
0.0
 24
0.0
 34
0.0
 15
0.0
 25
0.0
 35
0.0
146
0.0
 13
0.0
 23
0.0
 33
0.0
 16
1.0
 26
0.0
 36
0.0
 17
0.0
 27
1.0
 37
0.0
 76
     0
330
2
331
BB4
  0
LAYOUT
  5
1B
102
{ACAD_XDICTIONARY
360
1C
102
}
102
{ACAD_REACTORS
330
17
102
}
330
17
100
AcDbPlotSettings
  1

  2
Microsoft XPS Document Writer
  4
A4
  6

 40
3.174999952316281
 41
3.174999952316281
 42
3.175003051757812
 43
3.17498779296875
 44
210.0156707763672
 45
297.0106506347656
 46
0.0
 47
0.0
 48
0.0
 49
0.0
140
0.0
141
0.0
142
1.0
143
1.0
 70
   688
 72
     1
 73
     1
 74
     5
  7

 75
    16
147
1.0
148
0.0
149
0.0
100
AcDbLayout
  1
レイアウト1
 70
     1
 71
     1
 10
0.0
 20
0.0
 11
12.0
 21
9.0
 12
0.0
 22
0.0
 32
0.0
 14
-1439.804583653114
 24
-1400.237631316938
 34
0.0
 15
2872.968780515991
 25
1675.790811506817
 35
0.0
146
0.0
 13
0.0
 23
0.0
 33
0.0
 16
1.0
 26
0.0
 36
0.0
 17
0.0
 27
1.0
 37
0.0
 76
     0
330
18
1001
ACAD_PSEXT
1000
Microsoft XPS Document Writer
1000
Microsoft XPS Document Writer
1000
XPSPort:
1000

1070
     0
  0
MATERIAL
  5
45
102
{ACAD_XDICTIONARY
360
46
102
}
102
{ACAD_REACTORS
330
C
102
}
330
C
100
AcDbMaterial
  1
ByBlock
 72
     0
 43
0.0208333333333333
 43
0.0
 43
0.0
 43
0.0
 43
0.0
 43
0.0208333333333333
 43
0.0
 43
0.0
 43
0.0
 43
0.0
 43
1.0
 43
0.0
 43
0.0
 43
0.0
 43
0.0
 43
1.0
 77
     0
 47
0.0208333333333333
 47
0.0
 47
0.0
 47
0.0
 47
0.0
 47
0.0208333333333333
 47
0.0
 47
0.0
 47
0.0
 47
0.0
 47
1.0
 47
0.0
 47
0.0
 47
0.0
 47
0.0
 47
1.0
171
     0
 49
0.0208333333333333
 49
0.0
 49
0.0
 49
0.0
 49
0.0
 49
0.0208333333333333
 49
0.0
 49
0.0
 49
0.0
 49
0.0
 49
1.0
 49
0.0
 49
0.0
 49
0.0
 49
0.0
 49
1.0
175
     0
142
0.0208333333333333
142
0.0
142
0.0
142
0.0
142
0.0
142
0.0208333333333333
142
0.0
142
0.0
142
0.0
142
0.0
142
1.0
142
0.0
142
0.0
142
0.0
142
0.0
142
1.0
179
     0
144
0.0208333333333333
144
0.0
144
0.0
144
0.0
144
0.0
144
0.0208333333333333
144
0.0
144
0.0
144
0.0
144
0.0
144
1.0
144
0.0
144
0.0
144
0.0
144
0.0
144
1.0
147
0.0208333333333333
147
0.0
147
0.0
147
0.0
147
0.0
147
0.0208333333333333
147
0.0
147
0.0
147
0.0
147
0.0
147
1.0
147
0.0
147
0.0
147
0.0
147
0.0
147
1.0
  0
MATERIAL
  5
3D
102
{ACAD_XDICTIONARY
360
3E
102
}
102
{ACAD_REACTORS
330
C
102
}
330
C
100
AcDbMaterial
  1
ByLayer
 72
     0
 43
0.0208333333333333
 43
0.0
 43
0.0
 43
0.0
 43
0.0
 43
0.0208333333333333
 43
0.0
 43
0.0
 43
0.0
 43
0.0
 43
1.0
 43
0.0
 43
0.0
 43
0.0
 43
0.0
 43
1.0
 77
     0
 47
0.0208333333333333
 47
0.0
 47
0.0
 47
0.0
 47
0.0
 47
0.0208333333333333
 47
0.0
 47
0.0
 47
0.0
 47
0.0
 47
1.0
 47
0.0
 47
0.0
 47
0.0
 47
0.0
 47
1.0
171
     0
 49
0.0208333333333333
 49
0.0
 49
0.0
 49
0.0
 49
0.0
 49
0.0208333333333333
 49
0.0
 49
0.0
 49
0.0
 49
0.0
 49
1.0
 49
0.0
 49
0.0
 49
0.0
 49
0.0
 49
1.0
175
     0
142
0.0208333333333333
142
0.0
142
0.0
142
0.0
142
0.0
142
0.0208333333333333
142
0.0
142
0.0
142
0.0
142
0.0
142
1.0
142
0.0
142
0.0
142
0.0
142
0.0
142
1.0
179
     0
144
0.0208333333333333
144
0.0
144
0.0
144
0.0
144
0.0
144
0.0208333333333333
144
0.0
144
0.0
144
0.0
144
0.0
144
1.0
144
0.0
144
0.0
144
0.0
144
0.0
144
1.0
147
0.0208333333333333
147
0.0
147
0.0
147
0.0
147
0.0
147
0.0208333333333333
147
0.0
147
0.0
147
0.0
147
0.0
147
1.0
147
0.0
147
0.0
147
0.0
147
0.0
147
1.0
  0
MATERIAL
  5
B
102
{ACAD_XDICTIONARY
360
D
102
}
102
{ACAD_REACTORS
330
C
102
}
330
C
100
AcDbMaterial
  1
Global
 72
     0
 43
0.0208333333333333
 43
0.0
 43
0.0
 43
0.0
 43
0.0
 43
0.0208333333333333
 43
0.0
 43
0.0
 43
0.0
 43
0.0
 43
1.0
 43
0.0
 43
0.0
 43
0.0
 43
0.0
 43
1.0
 77
     0
 47
0.0208333333333333
 47
0.0
 47
0.0
 47
0.0
 47
0.0
 47
0.0208333333333333
 47
0.0
 47
0.0
 47
0.0
 47
0.0
 47
1.0
 47
0.0
 47
0.0
 47
0.0
 47
0.0
 47
1.0
171
     0
 49
0.0208333333333333
 49
0.0
 49
0.0
 49
0.0
 49
0.0
 49
0.0208333333333333
 49
0.0
 49
0.0
 49
0.0
 49
0.0
 49
1.0
 49
0.0
 49
0.0
 49
0.0
 49
0.0
 49
1.0
175
     0
142
0.0208333333333333
142
0.0
142
0.0
142
0.0
142
0.0
142
0.0208333333333333
142
0.0
142
0.0
142
0.0
142
0.0
142
1.0
142
0.0
142
0.0
142
0.0
142
0.0
142
1.0
179
     0
144
0.0208333333333333
144
0.0
144
0.0
144
0.0
144
0.0
144
0.0208333333333333
144
0.0
144
0.0
144
0.0
144
0.0
144
1.0
144
0.0
144
0.0
144
0.0
144
0.0
144
1.0
147
0.0208333333333333
147
0.0
147
0.0
147
0.0
147
0.0
147
0.0208333333333333
147
0.0
147
0.0
147
0.0
147
0.0
147
1.0
147
0.0
147
0.0
147
0.0
147
0.0
147
1.0
  0
MLEADERSTYLE
  5
B17
102
{ACAD_REACTORS
330
B16
330
182D
102
}
330
B16
100
AcDbMLeaderStyle
170
     2
171
     1
172
     0
 90
        2
 40
0.0
 41
0.0
173
     1
 91
-1056964608
340
26
 92
       -2
290
     1
 42
2.0
291
     1
 43
0.36
  3
Standard
 44
4.0
300

342
23
174
     1
178
     6
175
     1
176
     0
 93
-1056964608
 45
4.0
292
     0
297
     0
 46
4.0
 94
-1056964608
 47
1.0
 49
1.0
140
1.0
293
     1
141
0.0
294
     1
177
     0
142
1.0
295
     0
296
     0
143
0.125
1001
ACAD_MLEADERVER
1070
     2
  0
MLINESTYLE
  5
53
102
{ACAD_REACTORS
330
3B
102
}
330
3B
100
AcDbMlineStyle
  2
STANDARD
 70
     0
  3

 62
   256
 51
90.0
 52
90.0
 71
     2
 49
0.5
 62
   256
  6
BYLAYER
 49
-0.5
 62
   256
  6
BYLAYER
  0
ACDBPLACEHOLDER
  5
8
102
{ACAD_REACTORS
330
9
102
}
330
9
  0
SCALE
  5
C1A
102
{ACAD_REACTORS
330
4E
102
}
330
4E
100
AcDbScale
 70
     0
300
1:5_XREF
140
1.0
141
5.0
290
     0
  0
SCALE
  5
1F22
102
{ACAD_REACTORS
330
4E
102
}
330
4E
100
AcDbScale
 70
     0
300
1:5_XREF_XREF
140
1.0
141
5.0
290
     0
  0
SCALE
  5
1F23
102
{ACAD_REACTORS
330
4E
102
}
330
4E
100
AcDbScale
 70
     0
300
1:5_XREF_XREF_XREF_XREF
140
1.0
141
5.0
290
     0
  0
SCALE
  5
57
102
{ACAD_REACTORS
330
4E
102
}
330
4E
100
AcDbScale
 70
     0
300
1:1
140
1.0
141
1.0
290
     1
  0
SCALE
  5
58
102
{ACAD_REACTORS
330
4E
102
}
330
4E
100
AcDbScale
 70
     0
300
1:2
140
1.0
141
2.0
290
     0
  0
SCALE
  5
59
102
{ACAD_REACTORS
330
4E
102
}
330
4E
100
AcDbScale
 70
     0
300
1:4
140
1.0
141
4.0
290
     0
  0
SCALE
  5
5A
102
{ACAD_REACTORS
330
4E
102
}
330
4E
100
AcDbScale
 70
     0
300
1:5
140
1.0
141
5.0
290
     0
  0
SCALE
  5
5B
102
{ACAD_REACTORS
330
4E
102
}
330
4E
100
AcDbScale
 70
     0
300
1:8
140
1.0
141
8.0
290
     0
  0
SCALE
  5
5C
102
{ACAD_REACTORS
330
4E
102
}
330
4E
100
AcDbScale
 70
     0
300
1:10
140
1.0
141
10.0
290
     0
  0
SCALE
  5
5D
102
{ACAD_REACTORS
330
4E
102
}
330
4E
100
AcDbScale
 70
     0
300
1:16
140
1.0
141
16.0
290
     0
  0
SCALE
  5
5E
102
{ACAD_REACTORS
330
4E
102
}
330
4E
100
AcDbScale
 70
     0
300
1:20
140
1.0
141
20.0
290
     0
  0
SCALE
  5
5F
102
{ACAD_REACTORS
330
4E
102
}
330
4E
100
AcDbScale
 70
     0
300
1:30
140
1.0
141
30.0
290
     0
  0
SCALE
  5
60
102
{ACAD_REACTORS
330
4E
102
}
330
4E
100
AcDbScale
 70
     0
300
1:40
140
1.0
141
40.0
290
     0
  0
SCALE
  5
61
102
{ACAD_REACTORS
330
4E
102
}
330
4E
100
AcDbScale
 70
     0
300
1:50
140
1.0
141
50.0
290
     0
  0
SCALE
  5
62
102
{ACAD_REACTORS
330
4E
102
}
330
4E
100
AcDbScale
 70
     0
300
1:100
140
1.0
141
100.0
290
     0
  0
SCALE
  5
63
102
{ACAD_REACTORS
330
4E
102
}
330
4E
100
AcDbScale
 70
     0
300
2:1
140
2.0
141
1.0
290
     0
  0
SCALE
  5
64
102
{ACAD_REACTORS
330
4E
102
}
330
4E
100
AcDbScale
 70
     0
300
4:1
140
4.0
141
1.0
290
     0
  0
SCALE
  5
65
102
{ACAD_REACTORS
330
4E
102
}
330
4E
100
AcDbScale
 70
     0
300
8:1
140
8.0
141
1.0
290
     0
  0
SCALE
  5
66
102
{ACAD_REACTORS
330
4E
102
}
330
4E
100
AcDbScale
 70
     0
300
10:1
140
10.0
141
1.0
290
     0
  0
SCALE
  5
67
102
{ACAD_REACTORS
330
4E
102
}
330
4E
100
AcDbScale
 70
     0
300
100:1
140
100.0
141
1.0
290
     0
  0
SCALE
  5
68
102
{ACAD_REACTORS
330
4E
102
}
330
4E
100
AcDbScale
 70
     0
300
1/128" = 1'-0"
140
0.0078125
141
12.0
290
     0
  0
SCALE
  5
69
102
{ACAD_REACTORS
330
4E
102
}
330
4E
100
AcDbScale
 70
     0
300
1/64" = 1'-0"
140
0.015625
141
12.0
290
     0
  0
SCALE
  5
6A
102
{ACAD_REACTORS
330
4E
102
}
330
4E
100
AcDbScale
 70
     0
300
1/32" = 1'-0"
140
0.03125
141
12.0
290
     0
  0
SCALE
  5
6B
102
{ACAD_REACTORS
330
4E
102
}
330
4E
100
AcDbScale
 70
     0
300
1/16" = 1'-0"
140
0.0625
141
12.0
290
     0
  0
SCALE
  5
6C
102
{ACAD_REACTORS
330
4E
102
}
330
4E
100
AcDbScale
 70
     0
300
3/32" = 1'-0"
140
0.09375
141
12.0
290
     0
  0
SCALE
  5
6D
102
{ACAD_REACTORS
330
4E
102
}
330
4E
100
AcDbScale
 70
     0
300
1/8" = 1'-0"
140
0.125
141
12.0
290
     0
  0
SCALE
  5
6E
102
{ACAD_REACTORS
330
4E
102
}
330
4E
100
AcDbScale
 70
     0
300
3/16" = 1'-0"
140
0.1875
141
12.0
290
     0
  0
SCALE
  5
6F
102
{ACAD_REACTORS
330
4E
102
}
330
4E
100
AcDbScale
 70
     0
300
1/4" = 1'-0"
140
0.25
141
12.0
290
     0
  0
SCALE
  5
70
102
{ACAD_REACTORS
330
4E
102
}
330
4E
100
AcDbScale
 70
     0
300
3/8" = 1'-0"
140
0.375
141
12.0
290
     0
  0
SCALE
  5
71
102
{ACAD_REACTORS
330
4E
102
}
330
4E
100
AcDbScale
 70
     0
300
1/2" = 1'-0"
140
0.5
141
12.0
290
     0
  0
SCALE
  5
72
102
{ACAD_REACTORS
330
4E
102
}
330
4E
100
AcDbScale
 70
     0
300
3/4" = 1'-0"
140
0.75
141
12.0
290
     0
  0
SCALE
  5
73
102
{ACAD_REACTORS
330
4E
102
}
330
4E
100
AcDbScale
 70
     0
300
1" = 1'-0"
140
1.0
141
12.0
290
     0
  0
SCALE
  5
74
102
{ACAD_REACTORS
330
4E
102
}
330
4E
100
AcDbScale
 70
     0
300
1-1/2" = 1'-0"
140
1.5
141
12.0
290
     0
  0
SCALE
  5
75
102
{ACAD_REACTORS
330
4E
102
}
330
4E
100
AcDbScale
 70
     0
300
3" = 1'-0"
140
3.0
141
12.0
290
     0
  0
SCALE
  5
76
102
{ACAD_REACTORS
330
4E
102
}
330
4E
100
AcDbScale
 70
     0
300
6" = 1'-0"
140
6.0
141
12.0
290
     0
  0
SCALE
  5
77
102
{ACAD_REACTORS
330
4E
102
}
330
4E
100
AcDbScale
 70
     0
300
1'-0" = 1'-0"
140
12.0
141
12.0
290
     0
  0
TABLESTYLE
  5
54
102
{ACAD_XDICTIONARY
360
B00
102
}
102
{ACAD_REACTORS
330
4F
102
}
330
4F
100
AcDbTableStyle
  3
Standard
 70
     0
 71
     0
 40
1.5
 41
1.5
280
     0
281
     0
  7
STANDARD
140
4.5
170
     2
 62
     0
 63
     7
283
     0
274
    -2
284
     1
 64
     0
275
    -2
285
     1
 65
     0
276
    -2
286
     1
 66
     0
277
    -2
287
     1
 67
     0
278
    -2
288
     1
 68
     0
279
    -2
289
     1
 69
     0
  7
STANDARD
140
6.0
170
     5
 62
     0
 63
     7
283
     0
274
    -2
284
     1
 64
     0
275
    -2
285
     1
 65
     0
276
    -2
286
     1
 66
     0
277
    -2
287
     1
 67
     0
278
    -2
288
     1
 68
     0
279
    -2
289
     1
 69
     0
  7
STANDARD
140
4.5
170
     5
 62
     0
 63
     7
283
     0
274
    -2
284
     1
 64
     0
275
    -2
285
     1
 65
     0
276
    -2
286
     1
 66
     0
277
    -2
287
     1
 67
     0
278
    -2
288
     1
 68
     0
279
    -2
289
     1
 69
     0
  0
VISUALSTYLE
  5
B0D
102
{ACAD_REACTORS
330
2D
102
}
330
2D
100
AcDbVisualStyle
  2
2dWireframe
 70
     4
 71
     0
 72
     2
 73
     0
 90
        0
 40
-0.6
 41
-30.0
 62
     5
 63
     7
 74
     1
 91
        4
 64
     7
 65
   257
 75
     1
175
     1
 42
1.0
 92
        0
 66
   257
 43
1.0
 76
     1
 77
     6
 78
     2
 67
     7
 79
     5
170
     0
171
     0
290
     0
174
     0
 93
        1
 44
0.0
173
     0
291
     0
 45
0.0
1001
ACAD
1000
AcDbSavedByObjectVersion
1070
     0
1000
AcDbSavedByObjectVersion
1070
     0
1000
AcDbSavedByObjectVersion
1070
     0
1000
AcDbSavedByObjectVersion
1070
     0
1000
AcDbSavedByObjectVersion
1070
     0
1000
AcDbSavedByObjectVersion
1070
     0
1000
AcDbSavedByObjectVersion
1070
     0
1000
AcDbSavedByObjectVersion
1070
     0
1000
AcDbSavedByObjectVersion
1070
     0
1000
AcDbSavedByObjectVersion
1070
     0
1000
AcDbSavedByObjectVersion
1070
     0
  0
VISUALSTYLE
  5
B0E
102
{ACAD_REACTORS
330
2D
102
}
330
2D
100
AcDbVisualStyle
  2
3D Hidden
 70
     6
 71
     1
 72
     2
 73
     2
 90
        0
 40
-0.6
 41
-30.0
 62
     5
 63
     7
 74
     2
 91
        2
 64
     7
 65
   257
 75
     2
175
     1
 42
40.0
 92
        0
 66
   257
 43
1.0
 76
     1
 77
     6
 78
     2
 67
     7
 79
     3
170
     0
171
     0
290
     0
174
     0
 93
        1
 44
0.0
173
     0
291
     0
 45
0.0
1001
ACAD
1000
AcDbSavedByObjectVersion
1070
     0
1000
AcDbSavedByObjectVersion
1070
     0
1000
AcDbSavedByObjectVersion
1070
     0
1000
AcDbSavedByObjectVersion
1070
     0
1000
AcDbSavedByObjectVersion
1070
     0
1000
AcDbSavedByObjectVersion
1070
     0
1000
AcDbSavedByObjectVersion
1070
     0
1000
AcDbSavedByObjectVersion
1070
     0
1000
AcDbSavedByObjectVersion
1070
     0
1000
AcDbSavedByObjectVersion
1070
     0
1000
AcDbSavedByObjectVersion
1070
     0
  0
VISUALSTYLE
  5
56
102
{ACAD_REACTORS
330
2D
102
}
330
2D
100
AcDbVisualStyle
  2
3dWireframe
 70
     5
 71
     0
 72
     2
 73
     0
 90
        0
 40
-0.6
 41
-30.0
 62
     5
 63
     7
 74
     1
 91
        4
 64
     7
 65
   257
 75
     1
175
     1
 42
1.0
 92
        0
 66
   257
 43
1.0
 76
     1
 77
     6
 78
     2
 67
     7
 79
     5
170
     0
171
     0
290
     0
174
     0
 93
        1
 44
0.0
173
     0
291
     0
 45
0.0
1001
ACAD
1000
AcDbSavedByObjectVersion
1070
     0
1000
AcDbSavedByObjectVersion
1070
     0
1000
AcDbSavedByObjectVersion
1070
     0
1000
AcDbSavedByObjectVersion
1070
     0
1000
AcDbSavedByObjectVersion
1070
     0
1000
AcDbSavedByObjectVersion
1070
     0
1000
AcDbSavedByObjectVersion
1070
     0
1000
AcDbSavedByObjectVersion
1070
     0
1000
AcDbSavedByObjectVersion
1070
     0
1000
AcDbSavedByObjectVersion
1070
     0
1000
AcDbSavedByObjectVersion
1070
     0
  0
VISUALSTYLE
  5
B0C
102
{ACAD_REACTORS
330
2D
102
}
330
2D
100
AcDbVisualStyle
  2
Basic
 70
     7
 71
     1
 72
     0
 73
     1
 90
        0
 40
-0.6
 41
-30.0
 62
     5
 63
     7
 74
     0
 91
        4
 64
     7
 65
   257
 75
     1
175
     1
 42
1.0
 92
        8
 66
     7
 43
1.0
 76
     1
 77
     6
 78
     2
 67
     7
 79
     5
170
     0
171
     0
290
     0
174
     0
 93
        1
 44
0.0
173
     0
291
     1
 45
0.0
1001
ACAD
1000
AcDbSavedByObjectVersion
1070
     0
1000
AcDbSavedByObjectVersion
1070
     0
1000
AcDbSavedByObjectVersion
1070
     0
1000
AcDbSavedByObjectVersion
1070
     0
1000
AcDbSavedByObjectVersion
1070
     0
1000
AcDbSavedByObjectVersion
1070
     0
1000
AcDbSavedByObjectVersion
1070
     0
1000
AcDbSavedByObjectVersion
1070
     0
1000
AcDbSavedByObjectVersion
1070
     0
1000
AcDbSavedByObjectVersion
1070
     0
1000
AcDbSavedByObjectVersion
1070
     0
  0
VISUALSTYLE
  5
B11
102
{ACAD_REACTORS
330
2D
102
}
330
2D
100
AcDbVisualStyle
  2
Brighten
 70
    12
 71
     2
 72
     2
 73
     0
 90
        0
 40
-0.6
 41
-30.0
 62
     5
 63
     7
 74
     1
 91
        4
 64
     7
 65
   257
 75
     1
175
     1
 42
1.0
 92
        8
 66
     7
 43
1.0
 76
     1
 77
     6
 78
     2
 67
     7
 79
     5
170
     0
171
     0
290
     0
174
     0
 93
        1
 44
50.0
173
     0
291
     1
 45
0.0
1001
ACAD
1000
AcDbSavedByObjectVersion
1070
     0
1000
AcDbSavedByObjectVersion
1070
     0
1000
AcDbSavedByObjectVersion
1070
     0
1000
AcDbSavedByObjectVersion
1070
     0
1000
AcDbSavedByObjectVersion
1070
     0
1000
AcDbSavedByObjectVersion
1070
     0
1000
AcDbSavedByObjectVersion
1070
     0
1000
AcDbSavedByObjectVersion
1070
     0
1000
AcDbSavedByObjectVersion
1070
     0
1000
AcDbSavedByObjectVersion
1070
     0
1000
AcDbSavedByObjectVersion
1070
     0
  0
VISUALSTYLE
  5
B15
102
{ACAD_REACTORS
330
2D
102
}
330
2D
100
AcDbVisualStyle
  2
ColorChange
 70
    16
 71
     2
 72
     2
 73
     3
 90
        0
 40
-0.6
 41
-30.0
 62
     5
 63
     8
 74
     1
 91
        4
 64
     7
 65
   257
 75
     1
175
     1
 42
1.0
 92
        8
 66
     8
 43
1.0
 76
     1
 77
     6
 78
     2
 67
     7
 79
     5
170
     0
171
     0
290
     0
174
     0
 93
        1
 44
0.0
173
     0
291
     1
 45
0.0
1001
ACAD
1000
AcDbSavedByObjectVersion
1070
     0
1000
AcDbSavedByObjectVersion
1070
     0
1000
AcDbSavedByObjectVersion
1070
     0
1000
AcDbSavedByObjectVersion
1070
     0
1000
AcDbSavedByObjectVersion
1070
     0
1000
AcDbSavedByObjectVersion
1070
     0
1000
AcDbSavedByObjectVersion
1070
     0
1000
AcDbSavedByObjectVersion
1070
     0
1000
AcDbSavedByObjectVersion
1070
     0
1000
AcDbSavedByObjectVersion
1070
     0
1000
AcDbSavedByObjectVersion
1070
     0
  0
VISUALSTYLE
  5
B0F
102
{ACAD_REACTORS
330
2D
102
}
330
2D
100
AcDbVisualStyle
  2
Conceptual
 70
     9
 71
     3
 72
     2
 73
     0
 90
        0
 40
-0.6
 41
-30.0
 62
     5
 63
     7
 74
     2
 91
        2
 64
     7
 65
   257
 75
     1
175
     1
 42
40.0
 92
        8
 66
     7
 43
1.0
 76
     1
 77
     6
 78
     2
 67
     7
 79
     3
170
     0
171
     0
290
     0
174
     0
 93
        1
 44
0.0
173
     0
291
     0
 45
0.0
1001
ACAD
1000
AcDbSavedByObjectVersion
1070
     0
1000
AcDbSavedByObjectVersion
1070
     0
1000
AcDbSavedByObjectVersion
1070
     0
1000
AcDbSavedByObjectVersion
1070
     0
1000
AcDbSavedByObjectVersion
1070
     0
1000
AcDbSavedByObjectVersion
1070
     0
1000
AcDbSavedByObjectVersion
1070
     0
1000
AcDbSavedByObjectVersion
1070
     0
1000
AcDbSavedByObjectVersion
1070
     0
1000
AcDbSavedByObjectVersion
1070
     0
1000
AcDbSavedByObjectVersion
1070
     0
  0
VISUALSTYLE
  5
B10
102
{ACAD_REACTORS
330
2D
102
}
330
2D
100
AcDbVisualStyle
  2
Dim
 70
    11
 71
     2
 72
     2
 73
     0
 90
        0
 40
-0.6
 41
-30.0
 62
     5
 63
     7
 74
     1
 91
        4
 64
     7
 65
   257
 75
     1
175
     1
 42
1.0
 92
        8
 66
     7
 43
1.0
 76
     1
 77
     6
 78
     2
 67
     7
 79
     5
170
     0
171
     0
290
     0
174
     0
 93
        1
 44
-50.0
173
     0
291
     1
 45
0.0
1001
ACAD
1000
AcDbSavedByObjectVersion
1070
     0
1000
AcDbSavedByObjectVersion
1070
     0
1000
AcDbSavedByObjectVersion
1070
     0
1000
AcDbSavedByObjectVersion
1070
     0
1000
AcDbSavedByObjectVersion
1070
     0
1000
AcDbSavedByObjectVersion
1070
     0
1000
AcDbSavedByObjectVersion
1070
     0
1000
AcDbSavedByObjectVersion
1070
     0
1000
AcDbSavedByObjectVersion
1070
     0
1000
AcDbSavedByObjectVersion
1070
     0
1000
AcDbSavedByObjectVersion
1070
     0
  0
VISUALSTYLE
  5
B14
102
{ACAD_REACTORS
330
2D
102
}
330
2D
100
AcDbVisualStyle
  2
Facepattern
 70
    15
 71
     2
 72
     2
 73
     0
 90
        0
 40
-0.6
 41
-30.0
 62
     5
 63
     7
 74
     1
 91
        4
 64
     7
 65
   257
 75
     1
175
     1
 42
1.0
 92
        8
 66
     7
 43
1.0
 76
     1
 77
     6
 78
     2
 67
     7
 79
     5
170
     0
171
     0
290
     0
174
     0
 93
        1
 44
0.0
173
     0
291
     1
 45
0.0
1001
ACAD
1000
AcDbSavedByObjectVersion
1070
     0
1000
AcDbSavedByObjectVersion
1070
     0
1000
AcDbSavedByObjectVersion
1070
     0
1000
AcDbSavedByObjectVersion
1070
     0
1000
AcDbSavedByObjectVersion
1070
     0
1000
AcDbSavedByObjectVersion
1070
     0
1000
AcDbSavedByObjectVersion
1070
     0
1000
AcDbSavedByObjectVersion
1070
     0
1000
AcDbSavedByObjectVersion
1070
     0
1000
AcDbSavedByObjectVersion
1070
     0
1000
AcDbSavedByObjectVersion
1070
     0
  0
VISUALSTYLE
  5
B09
102
{ACAD_REACTORS
330
2D
102
}
330
2D
100
AcDbVisualStyle
  2
Flat
 70
     0
 71
     2
 72
     1
 73
     1
 90
        2
 40
-0.6
 41
30.0
 62
     5
 63
     7
 74
     0
 91
        4
 64
     7
 65
   257
 75
     1
175
     1
 42
1.0
 92
        8
 66
     7
 43
1.0
 76
     1
 77
     6
 78
     2
 67
     7
 79
     5
170
     0
171
     0
290
     0
174
     0
 93
       13
 44
0.0
173
     0
291
     1
 45
0.0
1001
ACAD
1000
AcDbSavedByObjectVersion
1070
     0
1000
AcDbSavedByObjectVersion
1070
     0
1000
AcDbSavedByObjectVersion
1070
     0
1000
AcDbSavedByObjectVersion
1070
     0
1000
AcDbSavedByObjectVersion
1070
     0
1000
AcDbSavedByObjectVersion
1070
     0
1000
AcDbSavedByObjectVersion
1070
     0
1000
AcDbSavedByObjectVersion
1070
     0
1000
AcDbSavedByObjectVersion
1070
     0
1000
AcDbSavedByObjectVersion
1070
     0
1000
AcDbSavedByObjectVersion
1070
     0
  0
VISUALSTYLE
  5
B0A
102
{ACAD_REACTORS
330
2D
102
}
330
2D
100
AcDbVisualStyle
  2
FlatWithEdges
 70
     1
 71
     2
 72
     1
 73
     1
 90
        2
 40
-0.6
 41
30.0
 62
     5
 63
     7
 74
     1
 91
        4
 64
     7
 65
   257
 75
     1
175
     1
 42
1.0
 92
        0
 66
   257
 43
1.0
 76
     1
 77
     6
 78
     2
 67
     7
 79
     5
170
     0
171
     0
290
     0
174
     0
 93
       13
 44
0.0
173
     0
291
     1
 45
0.0
1001
ACAD
1000
AcDbSavedByObjectVersion
1070
     0
1000
AcDbSavedByObjectVersion
1070
     0
1000
AcDbSavedByObjectVersion
1070
     0
1000
AcDbSavedByObjectVersion
1070
     0
1000
AcDbSavedByObjectVersion
1070
     0
1000
AcDbSavedByObjectVersion
1070
     0
1000
AcDbSavedByObjectVersion
1070
     0
1000
AcDbSavedByObjectVersion
1070
     0
1000
AcDbSavedByObjectVersion
1070
     0
1000
AcDbSavedByObjectVersion
1070
     0
1000
AcDbSavedByObjectVersion
1070
     0
  0
VISUALSTYLE
  5
2C
102
{ACAD_REACTORS
330
2D
102
}
330
2D
100
AcDbVisualStyle
  2
Gouraud
 70
     2
 71
     2
 72
     2
 73
     1
 90
        2
 40
-0.6
 41
30.0
 62
     5
 63
     7
 74
     0
 91
        4
 64
     7
 65
   257
 75
     1
175
     1
 42
1.0
 92
        0
 66
     7
 43
1.0
 76
     1
 77
     6
 78
     2
 67
     7
 79
     5
170
     0
171
     0
290
     0
174
     0
 93
       13
 44
0.0
173
     0
291
     1
 45
0.0
1001
ACAD
1000
AcDbSavedByObjectVersion
1070
     0
1000
AcDbSavedByObjectVersion
1070
     0
1000
AcDbSavedByObjectVersion
1070
     0
1000
AcDbSavedByObjectVersion
1070
     0
1000
AcDbSavedByObjectVersion
1070
     0
1000
AcDbSavedByObjectVersion
1070
     0
1000
AcDbSavedByObjectVersion
1070
     0
1000
AcDbSavedByObjectVersion
1070
     0
1000
AcDbSavedByObjectVersion
1070
     0
1000
AcDbSavedByObjectVersion
1070
     0
1000
AcDbSavedByObjectVersion
1070
     0
  0
VISUALSTYLE
  5
B0B
102
{ACAD_REACTORS
330
2D
102
}
330
2D
100
AcDbVisualStyle
  2
GouraudWithEdges
 70
     3
 71
     2
 72
     2
 73
     1
 90
        2
 40
-0.6
 41
30.0
 62
     5
 63
     7
 74
     1
 91
        4
 64
     7
 65
   257
 75
     1
175
     1
 42
1.0
 92
        0
 66
   257
 43
1.0
 76
     1
 77
     6
 78
     2
 67
     7
 79
     5
170
     0
171
     0
290
     0
174
     0
 93
       13
 44
0.0
173
     0
291
     1
 45
0.0
1001
ACAD
1000
AcDbSavedByObjectVersion
1070
     0
1000
AcDbSavedByObjectVersion
1070
     0
1000
AcDbSavedByObjectVersion
1070
     0
1000
AcDbSavedByObjectVersion
1070
     0
1000
AcDbSavedByObjectVersion
1070
     0
1000
AcDbSavedByObjectVersion
1070
     0
1000
AcDbSavedByObjectVersion
1070
     0
1000
AcDbSavedByObjectVersion
1070
     0
1000
AcDbSavedByObjectVersion
1070
     0
1000
AcDbSavedByObjectVersion
1070
     0
1000
AcDbSavedByObjectVersion
1070
     0
  0
VISUALSTYLE
  5
B13
102
{ACAD_REACTORS
330
2D
102
}
330
2D
100
AcDbVisualStyle
  2
Linepattern
 70
    14
 71
     2
 72
     2
 73
     0
 90
        0
 40
-0.6
 41
-30.0
 62
     5
 63
     7
 74
     1
 91
        4
 64
     7
 65
   257
 75
     7
175
     7
 42
1.0
 92
        8
 66
     7
 43
1.0
 76
     1
 77
     6
 78
     2
 67
     7
 79
     5
170
     0
171
     0
290
     0
174
     0
 93
        1
 44
0.0
173
     0
291
     1
 45
0.0
1001
ACAD
1000
AcDbSavedByObjectVersion
1070
     0
1000
AcDbSavedByObjectVersion
1070
     0
1000
AcDbSavedByObjectVersion
1070
     0
1000
AcDbSavedByObjectVersion
1070
     0
1000
AcDbSavedByObjectVersion
1070
     0
1000
AcDbSavedByObjectVersion
1070
     0
1000
AcDbSavedByObjectVersion
1070
     0
1000
AcDbSavedByObjectVersion
1070
     0
1000
AcDbSavedByObjectVersion
1070
     0
1000
AcDbSavedByObjectVersion
1070
     0
1000
AcDbSavedByObjectVersion
1070
     0
  0
VISUALSTYLE
  5
55
102
{ACAD_REACTORS
330
2D
102
}
330
2D
100
AcDbVisualStyle
  2
Realistic
 70
     8
 71
     2
 72
     2
 73
     0
 90
        0
 40
-0.6
 41
-30.0
 62
     5
 63
     7
 74
     1
 91
        0
 64
     7
 65
   257
 75
     1
175
     1
 42
1.0
 92
        8
 66
     8
 43
1.0
 76
     1
 77
     6
 78
     2
 67
     7
 79
     5
170
     0
171
     0
290
     0
174
     0
 93
       13
 44
0.0
173
     0
291
     0
 45
0.0
1001
ACAD
1000
AcDbSavedByObjectVersion
1070
     0
1000
AcDbSavedByObjectVersion
1070
     0
1000
AcDbSavedByObjectVersion
1070
     0
1000
AcDbSavedByObjectVersion
1070
     0
1000
AcDbSavedByObjectVersion
1070
     0
1000
AcDbSavedByObjectVersion
1070
     0
1000
AcDbSavedByObjectVersion
1070
     0
1000
AcDbSavedByObjectVersion
1070
     0
1000
AcDbSavedByObjectVersion
1070
     0
1000
AcDbSavedByObjectVersion
1070
     0
1000
AcDbSavedByObjectVersion
1070
     0
  0
VISUALSTYLE
  5
B12
102
{ACAD_REACTORS
330
2D
102
}
330
2D
100
AcDbVisualStyle
  2
Thicken
 70
    13
 71
     2
 72
     2
 73
     0
 90
        0
 40
-0.6
 41
-30.0
 62
     5
 63
     7
 74
     1
 91
        4
 64
     7
 65
   257
 75
     1
175
     1
 42
1.0
 92
       12
 66
     7
 43
1.0
 76
     1
 77
     6
 78
     2
 67
     7
 79
     5
170
     0
171
     0
290
     0
174
     0
 93
        1
 44
0.0
173
     0
291
     1
 45
0.0
1001
ACAD
1000
AcDbSavedByObjectVersion
1070
     0
1000
AcDbSavedByObjectVersion
1070
     0
1000
AcDbSavedByObjectVersion
1070
     0
1000
AcDbSavedByObjectVersion
1070
     0
1000
AcDbSavedByObjectVersion
1070
     0
1000
AcDbSavedByObjectVersion
1070
     0
1000
AcDbSavedByObjectVersion
1070
     0
1000
AcDbSavedByObjectVersion
1070
     0
1000
AcDbSavedByObjectVersion
1070
     0
1000
AcDbSavedByObjectVersion
1070
     0
1000
AcDbSavedByObjectVersion
1070
     0
  0
DICTIONARYVAR
  5
B06
102
{ACAD_REACTORS
330
B03
102
}
330
B03
100
DictionaryVariables
280
     0
  1
1:1
  0
DICTIONARYVAR
  5
B05
102
{ACAD_REACTORS
330
B03
102
}
330
B03
100
DictionaryVariables
280
     0
  1
STANDARD
  0
DICTIONARYVAR
  5
B04
102
{ACAD_REACTORS
330
B03
102
}
330
B03
100
DictionaryVariables
280
     0
  1
STANDARD
  0
DICTIONARYVAR
  5
B7B
102
{ACAD_REACTORS
330
B03
102
}
330
B03
100
DictionaryVariables
280
     0
  1
1
  0
DICTIONARYVAR
  5
B7A
102
{ACAD_REACTORS
330
B03
102
}
330
B03
100
DictionaryVariables
280
     0
  1
1
  0
DICTIONARYVAR
  5
B79
102
{ACAD_REACTORS
330
B03
102
}
330
B03
100
DictionaryVariables
280
     0
  1
1
  0
DICTIONARYVAR
  5
B07
102
{ACAD_REACTORS
330
B03
102
}
330
B03
100
DictionaryVariables
280
     0
  1
0
  0
DICTIONARYVAR
  5
B77
102
{ACAD_REACTORS
330
B03
102
}
330
B03
100
DictionaryVariables
280
     0
  1
1
  0
DICTIONARYVAR
  5
B78
102
{ACAD_REACTORS
330
B03
102
}
330
B03
100
DictionaryVariables
280
     0
  1
127
  0
DICTIONARY
  5
1260
102
{ACAD_REACTORS
330
AFC
102
}
330
AFC
100
AcDbDictionary
281
     1
  0
XRECORD
  5
1277
102
{ACAD_REACTORS
330
AFC
102
}
330
AFC
100
AcDbXrecord
280
     1
 90
-1023410169
  0
DICTIONARY
  5
1199
102
{ACAD_REACTORS
330
1198
102
}
330
1198
100
AcDbDictionary
281
     1
  3
DWGSETTINGS
350
232C
  3
TRANSSETTINGS
350
232D
  0
ACAMGFILTERDAT
  5
136F
102
{ACAD_REACTORS
330
136A
102
}
330
136A
100
AcAmgFilterDat
 70
    15
  1
DIMENSION,AMDT_*_DIM
  2
*
  3
*
  4
*
  5
*
290
     1
  0
ACAMGFILTERDAT
  5
136E
102
{ACAD_REACTORS
330
136A
102
}
330
136A
100
AcAmgFilterDat
 70
    15
  1
*
  2
AM_FEA-AM_*
  3
*
  4
*
  5
*
290
     1
  0
ACAMGFILTERDAT
  5
136B
102
{ACAD_REACTORS
330
136A
102
}
330
136A
100
AcAmgFilterDat
 70
    15
  1
HATCH
  2
*
  3
*
  4
*
  5
*
290
     1
  0
ACAMGFILTERDAT
  5
136C
102
{ACAD_REACTORS
330
136A
102
}
330
136A
100
AcAmgFilterDat
 70
    15
  1
LINE
  2
8,8N,*-8,*-8N,AM_8,AM_8N,*-AM_8,*-AM_8N
  3
*
  4
*
  5
INSERT,STDPART2D
290
     1
  0
ACAMGFILTERDAT
  5
1370
102
{ACAD_REACTORS
330
136A
102
}
330
136A
100
AcAmgFilterDat
 70
    15
  1
ARC
  2
AM_5
  3
*
  4
2
  5
INSERT
290
     0
  0
ACAMGFILTERDAT
  5
136D
102
{ACAD_REACTORS
330
136A
102
}
330
136A
100
AcAmgFilterDat
 70
    15
  1
ACMFCFRAME,ACMDATUMTARGET,ACMDATUMID,ACMWELDSYM,ACMSURFSYM,ACMFEATID,ACMPARTREF,ACMBALLOON,AMDTEDGESYM,AMGSCREWCALCTABLE
  2
*
  3
*
  4
*
  5
*
290
     1
  0
LAYER_INDEX
  5
1478
102
{ACAD_REACTORS
330
1477
102
}
330
1477
100
AcDbIndex
 40
2455891.637884491
100
AcDbLayerIndex
  8
0
360
1479
 90
        0
  8
Defpoints
360
147A
 90
        0
  8
SIZE
360
147B
 90
       14
  8
OUTLINE
360
147C
 90
      186
  8
BASIS
360
147D
 90
        1
  8
NOTE
360
147E
 90
       73
  8
ARRANGE
360
147F
 90
        3
  8
ETC
360
1480
 90
        1
  0
DICTIONARY
  5
24B2
330
16
100
AcDbDictionary
280
     1
281
     1
  3
ACAD_XREC_ROUNDTRIP
360
24B3
  0
DICTIONARY
  5
1C
330
1B
100
AcDbDictionary
280
     1
281
     1
  3
ACAD_XREC_ROUNDTRIP
360
24B4
  3
ADSK_XREC_LAYOUTTHUMBNAIL
360
1D
  0
DICTIONARY
  5
46
330
45
100
AcDbDictionary
280
     1
281
     1
  3
ACAD_XREC_ROUNDTRIP
360
B71
  3
BUMPTILE
360
47
  3
DIFFUSETILE
360
48
  3
OPACITYTILE
360
49
  3
REFLECTIONTILE
360
4A
  3
REFRACTIONTILE
360
4B
  3
SPECULARTILE
360
4C
  0
DICTIONARY
  5
3E
330
3D
100
AcDbDictionary
280
     1
281
     1
  3
ACAD_XREC_ROUNDTRIP
360
B70
  3
BUMPTILE
360
3F
  3
DIFFUSETILE
360
40
  3
OPACITYTILE
360
41
  3
REFLECTIONTILE
360
42
  3
REFRACTIONTILE
360
43
  3
SPECULARTILE
360
44
  0
DICTIONARY
  5
D
330
B
100
AcDbDictionary
280
     1
281
     1
  3
ACAD_XREC_ROUNDTRIP
360
B69
  3
BUMPTILE
360
E
  3
DIFFUSETILE
360
F
  3
OPACITYTILE
360
10
  3
REFLECTIONTILE
360
11
  3
REFRACTIONTILE
360
12
  3
SPECULARTILE
360
13
  0
DICTIONARY
  5
B00
330
54
100
AcDbDictionary
280
     1
281
     1
  3
ACAD_ROUNDTRIP_2008_TABLESTYLE_CELLSTYLEMAP
360
24AD
  3
ACAD_XREC_ROUNDTRIP
360
24B5
  0
IDBUFFER
  5
1479
330
0
100
AcDbIdBuffer
  0
IDBUFFER
  5
147A
330
0
100
AcDbIdBuffer
  0
IDBUFFER
  5
147B
330
0
100
AcDbIdBuffer
330
2224
330
2231
330
2243
330
2271
330
228B
330
22B0
330
22CA
330
22D7
330
22E4
330
22F1
330
22FE
330
230B
330
2463
330
247D
  0
IDBUFFER
  5
147C
330
0
100
AcDbIdBuffer
330
202B
330
202C
330
202D
330
202E
330
202F
330
2030
330
2031
330
2032
330
2033
330
2034
330
2035
330
2036
330
2037
330
2038
330
2039
330
203A
330
203B
330
203C
330
203D
330
203E
330
203F
330
2040
330
2041
330
2042
330
2043
330
2044
330
2045
330
2046
330
2047
330
2048
330
2049
330
204A
330
204B
330
204C
330
204D
330
204E
330
204F
330
2050
330
2051
330
2052
330
2053
330
2054
330
2055
330
2056
330
2057
330
2058
330
2059
330
205A
330
205B
330
205C
330
205D
330
205E
330
205F
330
2060
330
2061
330
2062
330
2063
330
2064
330
2065
330
2066
330
2067
330
2068
330
2069
330
206A
330
206B
330
206C
330
206D
330
206E
330
206F
330
2070
330
2071
330
2072
330
2073
330
2074
330
2075
330
2076
330
2077
330
2078
330
2079
330
207A
330
207B
330
207C
330
207D
330
207E
330
207F
330
2080
330
2081
330
2082
330
2083
330
2084
330
2085
330
2086
330
2087
330
2088
330
2089
330
208A
330
208B
330
208C
330
208D
330
208E
330
208F
330
2090
330
2091
330
2092
330
2093
330
2094
330
2095
330
2096
330
2097
330
2098
330
2099
330
209A
330
209B
330
209C
330
209D
330
209E
330
209F
330
20A0
330
20A1
330
20A2
330
20A3
330
20A4
330
20A5
330
20A6
330
20A7
330
20A8
330
20A9
330
20AA
330
20AB
330
20AC
330
20AD
330
20AE
330
20AF
330
20B0
330
20B1
330
20B2
330
20B3
330
20B4
330
20B5
330
20B6
330
20B7
330
20B8
330
20B9
330
20BA
330
20BB
330
20BC
330
20BD
330
20BE
330
20BF
330
20C0
330
20C1
330
20C2
330
20C3
330
20C4
330
20C5
330
20C6
330
20C7
330
20C8
330
20C9
330
20CA
330
20CB
330
20CC
330
20CD
330
20CE
330
20CF
330
20D0
330
20D1
330
20D2
330
20D3
330
20D4
330
20D5
330
20D6
330
20D7
330
20D8
330
20D9
330
20DA
330
20DB
330
20DC
330
20DD
330
20DE
330
20DF
330
20E0
330
20E1
330
20E2
330
20E3
330
20E4
  0
IDBUFFER
  5
147D
330
0
100
AcDbIdBuffer
330
2220
  0
IDBUFFER
  5
147E
330
0
100
AcDbIdBuffer
330
182D
330
20E5
330
20E6
330
20E7
330
20E8
330
20E9
330
20EA
330
20EB
330
20EC
330
20ED
330
20EE
330
20EF
330
20F0
330
20F1
330
20F2
330
20F3
330
20F4
330
20F5
330
20F6
330
20F7
330
20F8
330
20F9
330
20FA
330
20FB
330
20FC
330
20FD
330
20FE
330
20FF
330
2100
330
2101
330
2102
330
2103
330
2104
330
2105
330
2106
330
2107
330
2108
330
2109
330
210A
330
210B
330
210C
330
210D
330
210E
330
210F
330
2110
330
2111
330
2112
330
2113
330
2114
330
2115
330
2116
330
2117
330
2118
330
2119
330
211A
330
211B
330
211C
330
211D
330
211E
330
211F
330
2120
330
2121
330
2122
330
2123
330
2124
330
2125
330
2126
330
2127
330
2128
330
2129
330
212A
330
212B
330
212C
  0
IDBUFFER
  5
147F
330
0
100
AcDbIdBuffer
330
2221
330
2222
330
2223
  0
IDBUFFER
  5
1480
330
0
100
AcDbIdBuffer
330
B60
  0
XRECORD
  5
24B3
102
{ACAD_REACTORS
330
24B2
102
}
330
24B2
100
AcDbXrecord
280
     1
102
SHADEPLOT
 70
     0
102
SHADEPLOTRESLEVEL
 70
     2
102
SHADEPLOTCUSTOMDPI
 70
   300
  0
XRECORD
  5
24B4
102
{ACAD_REACTORS
330
1C
102
}
330
1C
100
AcDbXrecord
280
     1
102
SHADEPLOT
 70
     0
102
SHADEPLOTRESLEVEL
 70
     2
102
SHADEPLOTCUSTOMDPI
 70
   300
  0
XRECORD
  5
1D
102
{ACAD_REACTORS
330
1C
102
}
330
1C
100
AcDbXrecord
280
     1
310
28000000B4000000870000000100080000000000EC5E0000000000000000000000010000000000000000000000000000FFFFFF000000000000000000000000000000000000000000000000000000000000000000330000006600000099000000CC000000FF00000000330000333300006633000099330000CC330000FF3300
310
0000660000336600006666000099660000CC660000FF66000000990000339900006699000099990000CC990000FF99000000CC000033CC000066CC000099CC0000CCCC0000FFCC000000FF000033FF000066FF000099FF0000CCFF0000FFFF000000003300330033006600330099003300CC003300FF003300003333003333
310
33006633330099333300CC333300FF33330000663300336633006666330099663300CC663300FF66330000993300339933006699330099993300CC993300FF99330000CC330033CC330066CC330099CC3300CCCC3300FFCC330000FF330033FF330066FF330099FF3300CCFF3300FFFF330000006600330066006600660099
310
006600CC006600FF00660000336600333366006633660099336600CC336600FF33660000666600336666006666660099666600CC666600FF66660000996600339966006699660099996600CC996600FF99660000CC660033CC660066CC660099CC6600CCCC6600FFCC660000FF660033FF660066FF660099FF6600CCFF6600
310
FFFF660000009900330099006600990099009900CC009900FF00990000339900333399006633990099339900CC339900FF33990000669900336699006666990099669900CC669900FF66990000999900339999006699990099999900CC999900FF99990000CC990033CC990066CC990099CC9900CCCC9900FFCC990000FF99
310
0033FF990066FF990099FF9900CCFF9900FFFF99000000CC003300CC006600CC009900CC00CC00CC00FF00CC000033CC003333CC006633CC009933CC00CC33CC00FF33CC000066CC003366CC006666CC009966CC00CC66CC00FF66CC000099CC003399CC006699CC009999CC00CC99CC00FF99CC0000CCCC0033CCCC0066CC
310
CC0099CCCC00CCCCCC00FFCCCC0000FFCC0033FFCC0066FFCC0099FFCC00CCFFCC00FFFFCC000000FF003300FF006600FF009900FF00CC00FF00FF00FF000033FF003333FF006633FF009933FF00CC33FF00FF33FF000066FF003366FF006666FF009966FF00CC66FF00FF66FF000099FF003399FF006699FF009999FF00CC
310
99FF00FF99FF0000CCFF0033CCFF0066CCFF0099CCFF00CCCCFF00FFCCFF0000FFFF0033FFFF0066FFFF0099FFFF00CCFFFF00FFFFFF00000000000D0D0D001A1A1A00282828003535350043434300505050005D5D5D006B6B6B00787878008686860093939300A1A1A100AEAEAE00BBBBBB00C9C9C900D6D6D600E4E4E400
310
F1F1F100FFFFFF0000000000000000000000000000000000000000000000000000000000000000000000000000000000E2E2E2E2E2E2E2E2E2E2E2E2E2E2E2E2E2E2E2E2E2E2E2E2E2E2E2E2E2E2E2E2E2E2E2E2E2E2E2E2E2E2E2E2E2E2E2E2E2E2E2E2E2E2E2E2E2E2E2E2E2E2E2E2E2E2E2E2E2E2E2E2E2E2E2E2E2E2E2
310
E2E2E2E2E2E2E2E2E2E2E2E2E2E2E2E2E2E2E2E2E2E2E2E2E2E2E2E2E2E2E2E2E2E2E2E2E2E2E2E2E2E2E2E2E2E2E2E2E2E2E2E2E2E2E2E2E2E2E2E2E2E2E2E2E2E2E2E2E2E2E2E2E2E2E2E2E2E2E2E2E2E2E2E2E2E2E2E2E2E2E2E2E2E2E2E2E2E2E2E2E2E2E2E2E2E2E2E2E2E2E2E2E2E2E2E2E2E2E2E2E2E2E2E2E2E2E2
310
E2E2E2E2E2E2E2E2E2E2E2E2E2E2E2E2E2E2E2E2E2E2E2E2E2E2E2E2E2E2E2E2E2E2E2E2E2E2E2E2E2E2E2E2E2E2E2E2E2E2E2E2E2E2E2E2E2E2E2E2E2E2E2E2E2E2E2E2E2E2E2E2E2E2E2E2E2E2E2E2E2E2E2E2E2E2E2E2E2E2E2E2E2E2E2E2E2E2E2E2E2E2E2E2E2E2E2E2E2E2E2E2E2E2E2E2E2E2E2E2E2E2E2E2E2E2E2
310
E2E2E2E2E2E2E2E2E2E2E2E2E2E2E2E2E2E2E2E2E2E2E2E2E2E2E2E2E2E2E2E2E2E2E2E2E2E2E2E2E2E2E2E2E2E2E2E2E2E2E2E2E2E2E2E2E2E2E2E2E2E2E2E2E2E2E2E2E2E2E2E2E2E2E2E2E2E2E2E2E2E2E2E2E2E2E2E2E2E2E2E2E2E2E2E2E2E2E2E2E2E2E2E2E2E2E2E2E2E2E2E2E2E2E2E2E2E2E2E2E2E2E2E2E2E2E2
310
E2E2E2E2E2E2E2E2E2E2E2E2E2E2E2E2E2E2E2E2E2E2E2E2E2E2E2E2E2E2E2E2E2E2E2E2E2E2E2E2E2E2E2E2E2E2E2E2E2E2E2E2E2E2E2E2E2E2E2E2E2E2E2E2E2E2E2E2E2E2E2E2E2E2E2E2E2E2E2E2E2E2E2E2E2E2E2E2E2E2E2E2E2E2E2E2E2E2E2E2E2E2E2E2E2E2E2E2E2E2E2E2E2E2E2E2E2E2E2E2E2E2E2E2E2E2E2
310
E2E2E2E2E2E2E2E2E2E2E2E2E2E2E2E2E2E2E2E2E2E2E2E2E2E2E2E2E2E2E2E2E2E2E2E2E2E2E2E2E2E2E2E2E2E2E2E2E2E2E2E2E2E2E2E2E2E2E2E2E2E2E2E2E2E2E2E2E2E2E2E2E2E2E2E2E2E2E2E2E2E2E2E2E2E2E2E2E2E2E2E2E2E2E2E2E2E2E2E2E2E2E2E2E2E2E2E2E2E2E2E2E2E2E2E2E2E2E2E2E2E2E2E2E2E2E2
310
E2E2E2E2E2E2E2E2E2E2E2E2E2E2E2E2E2E2E2E2E2E2E2E2E2E2E2E2E2E2E2E2E2E2E2E2E2E2E2E2E2E2E2E2E2E2E2E2E2E2E2E2E2E2E2E2E2E2E2E2E2E2E2E2E2E2E2E2E2E2E2E2E2E2E2E2E2E2E2E2E2E2E2E2E2E2E2E2E2E2E2E2E2E2E2E2E2E2E2E2E2E2E2E2E2E2E2E2E2E2E2E2E2E2E2E2E2E2E2E2E2E2E2E2E2E2E2
310
E2E2E2E2E2E2E2E2E2E2E2E2E2E2E2E2E2E2E2E2E2E2E2E2E2E2E2E2E2E2E2E2E2E2E2E2E2E2E2E2E2E2E2E2E2E2E2E2E2E2E2E2E2E2E2E2E2E2E2E2E2E2E2E2E2E2E2E2E2E2E2E2E2E2E2E2E2E2E2E2E2E2E2E2E2E2E2E2E2E2E2E2E2E2E2E2E2E2E2E2E2E2E2E2E2E2E2E2E2E2E2E2E2E2E2E2E2E2E2E2E2E2E2E2E2E2E2
310
E2E2E2E2E2E2E2E2E2E2E2E2E2E2E2E2E2E2E2E2E2E2E2E2E2E2E2E2E2E2E2E2E2E2E2E2E2E2E2E2E2E2E2E2E2E2E2E2E2E2E2E2E2E2E2E2E2E2E2E2E2E2E2E2E2E2E2E2E2E2E2E2E2E2E2E2E2E2E2E2E2E2E2E2E2E2E2E2E2E2E2E2E2E2E2E2E2E2E2E2E2E2E2E2E2E2E2E2E2E2E2E2E2E2E2E2E2E2E2E2E2E2E2E2E2E2E2
310
E2E2E2E2E2E2E2E2E2E2E2E2E2E2E2E2E2E2E2E2E2E2E2E2E2E2E2E2E2E2E2E2E2E2E2E2E2E2E2E2E2E2E2E2E2E2E2E2E2E2E2E2E2E2E2E2E2E2E2E2E2E2E2E2E2E2E2E2E2E2E2E2E2E2E2E2E2E2E2E2E2E2E2E2E2E2E2E2E2E2E2E2E2E2E2E2E2E2E2E2E2E2E2E2E2E2E2E2E2E2E2E2E2E2E2E2E2E2E2E2E2E2E2E2E2E2E2
310
E2E2E2E2E2E2E2E2E2E2E2E2E2E2E2E2E2E2E2E2E2E2E2E2E2E2E2E2E2E2E2E2E2E2E2E2E2E2E2E2E2E2E2E2E2E2E2E2E2E2E2E2E2E2E2E2E2E2E2E2E2E2E2E2E2E2E2E2E2E2E2E2E2E2E2E2E2E2E2E2E2E2E2E2E2E2E2E2E2E2E2E2E2E2E2E2E2E2E2E2E2E2E2E2E2E2E2E2E2E2E2E2E2E2E2E2E2E2E2E2E2E2E2E2E2E2E2
310
E2E2E2E2E2E2E2E2E2E2E2E2E2E2E2E2E2E2E2E2E2E2E2E2E2E2E2E2E2E2E2E2E2E2E2E2E2E2E2E2E2E2E2E2E2E2E2E2E2E2E2E2E2E2E2E2E2E2E2E2E2E2E2E2E2E2E2E2E2E2E2E2E2E2E2E2E2E2E2E2E2E2E2E2E2E2E2E2E2E2E2E2E2E2E2E2E2E2E2E2E2E2E2E2E2E2E2E2E2E2E2E2E2E2E2E2E2E2E2E2E2E2E2E2E2E2E2
310
E2E2E2E2E2E2E2E2E2E2E2E2E2E2E2E2E2E2E2E2E2E2E2E2E2E2E2E2E2E2E2E2E2E2E2E2E2E2E2E2E2E2E2E2E2E2E2E2E2E2E2E2E2E2E2E2E2E2E2E2E2E2E2E2E2E2E2E2E2E2E2E2E2E2E2E2E2E2E2E2E2E2E2E2E2E2E2E2E2E2E2E2E2E2E2E2E2E2E2E2E2E2E2E2E2E2E2E2E2E2E2E2E2E2E2E2E2E2E2E2E2E2E2E2E2E2E2
310
E2E2E2E2E2E2E2E2E2E2E2E2E2E2E2E2E2E2E2E2E2E2E2E2E2E2E2E2E2E2E2E2E2E2E2E2E2E2E2E2E2E2E2E2E2E2E2E2E2E2E2E2E2E2E2E2E2E2E2E2E2E2E2E2E2E2E2E2E2E2E2E2E2E2E2E2E2E2E2E2E2E2E2E2E2E2E2E2E2E2E2E2E2E2E2E2E2E2E2E2E2E2E2E2E2E2E2E2E2E2E2E2E2E2E2E2E2E2E2E2E2E2E2E2E2E2E2
310
E2E2E2E2E2E2E2E2E2E2E2E2E2E2E2E2E2E2E2E2E2E2E2E2E2E2E2E2E2E2E2E2E2E2E2E2E2E2E2E2E2E2E2E2E2E2E2E2E2E2E2E2E2E2E2E2E2E2E2E2E2E2E2E2E2E2E2E2E2E2E2E2E2E2E2E2E2E2E2E2E2E2E2E2E2E2E2E2E2E2E2E2E2E2E2E2E2E2E2E2E2E2E2E2E2E2E2E2E2E2E2E2E2E2E2E2E2E2E2E2E2E2E2E2E2E2E2
310
E2E2E2E2E2E2E2E2E2E2E2E2E2E2E2E2E2E2E2E2E2E2E2E2E2E2E2E2E2E2E2E2E2E2E2E2E2E2E2E2E2E2E2E2E2E2E2E2E2E2E2E2E2E2E2E2E2E2E2E2E2E2E2E2E2E2E2E2E2E2E2E2E2E2E2E2E2E2E2E2E2E2E2E2E2E2E2E2E2E2E2E2E2E2E2E2E2E2E2E2E2E2E2E2E2E2E2E2E2E2E2E2E2E2E2E2E2E2E2E2E2E2E2E2E2E2E2
310
E2E2E2E2E2E2E2E2E2E2E2E2E2E2E2E2E2E2E2E2E2E2E2E2E2E2E2E2E2E2E2E2E2E2E2E2E2E2E2E2E2E2E2E2E2E2E2E2E2E2E2E2E2E2E2E2E2E2E2E2E2E2E2E2E2E2E2E2E2E2E2E2E2E2E2E2E2E2E2E2E2E2E2E2E2E2E2E2E2E2E2E2E2E2E2E2E2E2E2E2E2E2E2E2E2E2E2E2E2E2E2E2E2E2E2E2E2E2E2E2E2E2E2E2E2E2E2
310
E2E2E2E2E2E2E2E2E2E2E2E2E2E2E2E2E2E2E2E2E2E2E2E2E2E2E2E2E2E2E2E2E2E2E2E2E2E2E2E2E2E2E2E2E2E2E2E2E2E2E2E2E2E2E2E2E2E2E2E2E2E2E2E2E2E2E2E2E2E2E2E2E2E2E2E2E2E2E2E2E2E2E2E2E2E2E2E2E2E2E2E2E2E2E2E2E2E2E2E2E2E2E2E2E2E2E2E2E2E2E2E2E2E2E2E2E2E2E2E2E2E2E2E2E2E2E2
310
E2E2E2E2E2E2E2E2E2E2E2E2E2E2E2E2E2E2E2E2E2E2E2E2E2E2E2E2E2E2E2E2E2E2E2E2E2E2E2E2E2E2E2E2E2E2E2E2E2E2E2E2E2E2E2E2E2E2E2E2E2E2E2E2E2E2E2E2E2E2E2E2E2E2E2E2E2E2E2E2E2E2E2E2E2E2E2E2E2E2E2E2E2E2E2E2E2E2E2E2E2E2E2E2E2E2E2E2E2E2E2E2E2E2E2E2E2E2E2E2E2E2E2E2E2E2E2
310
E2E2E2E2E2E2E2E2E2E2E2E2E2E2E2E2E2E2E2E2E2E2E2E2E2E2E2E2E2E2E2E2E2E2E2E2E2E2E2E2E2E2E2E2E2E2E2E2E2E2E2E2E2E2E2E2E2E2E2E2E2E2E2E2E2E2E2E2E2E2E2E2E2E2E2E2E2E2E2E2E2E2E2E2E2E2E2E2E2E2E2E2E2E2E2E2E2E2E2E2E2E2E2E2E2E2E2E2E2E2E2E2E2E2E2E2E2E2E2E2E2E2E2E2E2E2E2
310
E2E2E2E2E2E2E2E2E2E2E2E2E2E2E2E2E2E2E2E2E2E2E2E2E2E2E2E2E2E2E2E2E2E2E2E2E2E2E2E2E2E2E2E2E2E2E2E2E2E2E2E2E2E2E2E2E2E2E2E2E2E2E2E2E2E2E2E2E2E2E2E2E2E2E2E2E2E2E2E2E2E2E2E2E2E2E2E2E2E2E2E2E2E2E2E2E2E2E2E2E2E2E2E2E2E2E2E2E2E2E2E2E2E2E2E2E2E2E2E2E2E2E2E2E2E2E2
310
E2E2E2E2E2E2E2E2E2E2E2E2E2E2E2E2E2E2E2E2E2E2E2E2E2E2E2E2E2E2E2E2E2E2E2E2E2E2E2E2E2E2E2E2E2E2E2E2E2E2E2E2E2E2E2E2E2E2E2E2E2E2E2E2E2E2E2E2E2E2E2E2E2E2E2E2E2E2E2E2E2E2E2E2E2E2E2E2E2E2E2E2E2E2E2E2E2E2E2E2E2E2E2E2E2E2E2E2E2E2E2E2E2E2E2E2E2E2E2E2E2E2E2E2E2E2E2
310
E2E2E2E2E2E2E2E2E2E2E2E2E2E2E2E2E2E2E2E2E2E2E2E2E2E2E2E2E2E2E2E2E2E2E2E2E2E2E2E2E2E2E2E2E2E2E2E2E2E2E2E2E2E2E2E2E2E2E2E2E2E2E2E2E2E2E2E2E2E2E2E2E2E2E2E2E2E2E2E2E2E2E2E2E2E2E2E2E2E2E2E2E2E2E2E2E2E2E2E2E2E2E2E2E2E2E2E2E2E2E2E2E2E2E2E2E2E2E2E2E2E2E2E2E2E2E2
310
E2E2E2E2E2E2E2E2E2E2E2E2E2E2E2E2E2E2E2E2E2E2E2E2E2E2E2E2E2E2E2E2E2E2E2E2E2E2E2E2E2E2E2E2E2E2E2E2E2E2E2E2E2E2E2E2E2E2E2E2E2E2E2E2E2E2E2E2E2E2E2E2E2E2E2E2E2E2E2E2E2E2E2E2E2E2E2E2E2E2E2E2E2E2E2E2E2E2E2E2E2E2E2E2E2E2E2E2E2E2E2E2E2E2E2E2E2E2E2E2E2E2E2E2E2E2E2
310
E2E2E2E2E2E2E2E2E2E2E2E2E2E2E2E2E2E2E2E2E2E2E2E2E2E2E2E2E2E2E2E2E2E2E2E2E2E2E2E2E2E2E2E2E2E2E2E2E2E2E2E2E2E2E2E2E2E2E2E2E2E2E2E2E2E2E2E2E2E2E2E2E2E2E2E2E2E2E2E2E2E2E2E2E2E2E2E2E2E2E2E2E2E2E2E2E2E2E2E2E2E2E2E2E2E2E2E2E2E2E2E2E2E2E2E2E2E2E2E2E2E2E2E2E2E2E2
310
E2E2E2E2E2E2E2E2E2E2E2E2E2E2E2E2E2E2E2E2E2E2E2E2E2E2E2E2E2E2E2E2E2E2E2E2E2E2E2E2E2E2E2E2E2E2E2E2E2E2E2E2E2E2E2E2E2E2E2E2E2E2E2E2E2E2E2E2E2E2E2E2E2E2E2E2E2E2E2E2E2E2E2E2E2E2E2E2E2E2E2E2E2E2E2E2E2E2E2E2E2E2E2E2E2E2E2E2E2E2E2E2E2E2E2E2E2E2E2E2E2E2E2E2E2E2E2
310
E2E2E2E2E2E2E2E2E2E2E2E2E2E2E2E2E2E2E2E2E2E2E2E2E2E2E2E2E2E2E2E2E2E2E2E2E2E2E2E2E2E2E2E2E2E2E2E2E2E2E2E2E2E2E2E2E2E2E2E2E2E2E2E2E2E2E2E2E2E2E2E2E2E2E2E2E2E2E2E2E2E2E2E2E2E2E2E2E2E2E2E2E2E2E2E2E2E2E2E2E2E2E2E2E2E2E2E2E2E2E2E2E2E2E2E2E2E2E2E2E2E2E2E2E2E2E2
310
E2E2E2E2E2E2E2E2E2E2E2E2E2E2E2E2E2E2E2E2E2E2E2E2E2E2E2E2E2E2E2E2E2E2E2E2E2E2E2E2E2E2E2E2E2E2E2E2E2E2E2E2E2E2E2E2E2E2E2E2E2E2E2E2E2E2E2E2E2E2E2E2E2E2E2E2E2E2E2E2E2E2E2E2E2E2E2E2E2E2E2E2E2E2E2E2E2E2E2E2E2E2E2E2E2E2E2E2E2E2E2E2E2E2E2E2E2E2E2E2E2E2E2E2E2E2E2
310
E2E2E2E2E2E2E2E2E2E2E2E2E2E2E2E2E2E2E2E2E2E2E2E2E2E2E2E2E2E2E2E2E2E2E2E2E2E2E2E2E2E2E2E2E2E2E2E2E2E2E2E2E2E2E2E2E2E2E2E2E2E2E2E2E2E2E2E2E2E2E2E2E2E2E2E2E2E2E2E2E2E2E2E2E2E2E2E2E2E2E2E2E2E2E2E2E2E2E2E2E2E2E2E2E2E2E2E2E2E2E2E2E2E2E2E2E2E2E2E2E2E2E2E2E2E2E2
310
E2E2E2E2E2E2E2E2E2E2E2E2E2E2E2E2E2E2E2E2E2E2E2E2E2E2E2E2E2E2E2E2E2E2E2E2E2E2E2E2E2E2E2E2E2E2E2E2E2E2E2E2E2E2E2E2E2E2E2E2E2E2E2E2E2E2E2E2E2E2E2E2E2E2E2E2E2E2E2E2E2E2E2E2E2E2E2E2E2E2E2E2E2E2E2E2E2E2E2E2E2E2E2E2E2E2E2E2E2E2E2E2E2E2E2E2E2E2E2E2E2E2E2E2E2E2E2
310
E2E2E2E2E2E2E2E2E2E2E2E2E2E2E2E2E2E2E2E2E2E2E2E2E2E2E2E2E2E2E2E2E2E2E2E2E2E2E2E2E2E2E2E2E2E2E2E2E2E2E2E2E2E2E2E2E2E2E2E2E2E2E2E2E2E2E2E2E2E2E2E2E2E2E2E2E2E2E2E2E2E2E2E2E2E2E2E2E2E2E2E2E2E2E2E2E2E2E2E2E2E2E2E2E2E2E2E2E2E2E2E2E2E2E2E2E2E2E2E2E2E2E2E2E2E2E2
310
E2E2E2E2E2E2E2E2E2E2E2E2E2E2E2E2E2E2E2E2E2E2E2E2E2E2E2E2E2E2E2E2E2E2E2E2E2E2E2E2E2E2E2E2E2E2E2E2E2E2E2E2E2E2E2E2E2E2E2E2E2E2E2E2E2E2E2E2E2E2E2E2E2E2E2E2E2E2E2E2E2E2E2E2E2E2E2E2E2E2E2E2E2E2E2E2E2E2E2E2E2E2E2E2E2E2E2E2E2E2E2E2E2E2E2E2E2E2E2E2E2E2E2E2E2E2E2
310
E2E2E2E2E2E2E2E2E2E2E2E2E2E2E2E2E2E2E2E2E2E2E2E2E2E2E2E2E2E2E2E2E2E2E2E2E2E2E2E2E2E2E2E2E2E2E2E2E2E2E2E2E2E2E2E2E2E2E2E2E2E2E2E2E2E2E2E2E2E2E2E2E2E2E2E2E2E2E2E2E2E2E2E2E2E2E2E2E2E2E2E2E2E2E2E2E2E2E2E2E2E2E2E2E2E2E2E2E2E2E2E2E2E2E2E2E2E2E2E2E2E2E2E2E2E2E2
310
E2E2E2E2E2E2E2E2E2E2E2E2E2E2E2E2E2E2E2E2E2E2E2E2E2E2E2E2E2E2E2E2E2E2E2E2E2E2E2E2E2E2E2E2E2E2E2E2E2E2E2E2E2E2E2E2E2E2E2E2E2E2E2E2E2E2E2E2E2E2E2E2E2E2E2E2E2E2E2E2E2E2E2E2E2E2E2E2E2E2E2E2E2E2E2E2E2E2E2E2E2E2E2E2E2E2E2E2E2E2E2E2E2E2E2E2E2E2E2E2E2E2E2E2E2E2E2
310
E2E2E2E2E2E2E2E2E2E2E2E2E2E2E2E2E2E2E2E2E2E2E2E2E2E2E2E2E2E2E2E2E2E2E2E2E2E2E2E2E2E2E2E2E2E2E2E2E2E2E2E2E2E2E2E2E2E2E2E2E2E2E2E2E2E2E2E2E2E2E2E2E2E2E2E2E2E2E2E2E2E2E2E2E2E2E2E2E2E2E2E2E2E2E2E2E2E2E2E2E2E2E2E2E2E2E2E2E2E2E2E2E2E2E2E2E2E2E2E2E2E2E2E2E2E2E2
310
E2E2E2E2E2E2E2E2E2E2E2E2E2E2E2E2E2E2E2E2E2E2E2E2E2E2E2E2E2E2E2E2E2E2E2E2E2E2E2E2E2E2E2E2E2E2E2E2E2E2E2E2E2E2E2E2E2E2E2E2E2E2E2E2E2E2E2E2E2E2E2E2E2E2E2E2E2E2E2E2E2E2E2E2E2E2E2E2E2E2E2E2E2E2E2E2E2E2E2E2E2E2E2E2E2E2E2E2E2E2E2E2E2E2E2E2E2E2E2E2E2E2E2E2E2E2E2
310
E2E2E2E2E2E2E2E2E2E2E2E2E2E2E2E2E2E2E2E2E2E2E2E2E2E2E2E2E2E2E2E2E2E2E2E2E2E2E2E2E2E2E2E2E2E2E2E2E2E2E2E2E2E2E2E2E2E2E2E2E2E2E2E2E2E2E2E2E2E2E2E2E2E2E2E2E2E2E2E2E2E2E2E2E2E2E2E2E2E2E2E2E2E2E2E2E2E2E2E2E2E2E2E2E2E2E2E2E2E2E2E2E2E2E2E2E2E2E2E2E2E2E2E2E2E2E2
310
E2E2E2E2E2E2E2E2E2E2E2E2E2E2E2E2E2E2E2E2E2E2E2E2E2E2E2E2E2E2E2E2E2E2E2E2E2E2E2E2E2E2E2E2E2E2E2E2E2E2E2E2E2E2E2E2E2E2E2E2E2E2E2E2E2E2E2E2E2E2E2E2E2E2E2E2E2E2E2E2E2E2E2E2E2E2E2E2E2E2E2E2E2E2E2E2E2E2E2E2E2E2E2E2E2E2E2E2E2E2E2E2E2E2E2E2E2E2E2E2E2E2E2E2E2E2E2
310
E2E2E2E2E2E2E2E2E2E2E2E2E2E2E2E2E2E2E2E2E2E2E2E2E2E2E2E2E2E2E2E2E2E2E2E2E2E2E2E2E2E2E2E2E2E2E2E2E2E2E2E2E2E2E2E2E2E2E2E2E2E2E2E2E2E2E2E2E2E2E2E2E2E2E2E2E2E2E2E2E2E2E2E2E2E2E2E2E2E2E2E2E2E2E2E2E2E2E2E2E2E2E2E2E2E2E2E2E2E2E2E2E2E2E2E2E2E2E2E2E2E2E2E2E2E2E2
310
E2E2E2E2E2E2E2E2E2E2E2E2E2E2E2E2E2E2E2E2E2E2E2E2E2E2E2E2E2E2E2E2E2E2E2E2E2E2E2E2E2E2E2E2E2E2E2E2E2E2E2E2E2E2E2E2E2E2E2E2E2E2E2E2E2E2E2E2E2E2E2E2E2E2E2E2E2E2E2E2E2E2E2E2E2E2E2E2E2E2E2E2E2E2E2E2E2E2E2E2E2E2E2E2E2E2E2E2E2E2E2E2E2E2E2E2E2E2E2E2E2E2E2E2E2E2E2
310
E2E2E2E2E2E2E2E2E2E2E2E2E2E2E2E2E2E2E2E2E2E2E2E2E2E2E2E2E2E2E2E2E2E2E2E2E2E2E2E2E2E2E2E2E2E2E2E2E2E2E2E2E2E2E2E2E2E2E2E2E2E2E2E2E2E2E2E2E2E2E2E2E2E2E2E2E2E2E2E2E2E2E2E2E2E2E2E2E2E2E2E2E2E2E2E2E2E2E2E2E2E2E2E2E2E2E2E2E2E2E2E2E2E2E2E2E2E2E2E2E2E2E2E2E2E2E2
310
E2E2E2E2E2E2E2E2E2E2E2E2E2E2E2E2E2E2E2E2E2E2E2E2E2E2E2E2E2E2E2E2E2E2E2E2E2E2E2E2E2E2E2E2E2E2E2E2E2E2E2E2E2E2E2E2E2E2E2E2E2E2E2E2E2E2E2E2E2E2E2E2E2E2E2E2E2E2E2E2E2E2E2E2E2E2E2E2E2E2E2E2E2E2E2E2E2E2E2E2E2E2E2E2E2E2E2E2E2E2E2E2E2E2E2E2E2E2E2E2E2E2E2E2E2E2E2
310
E2E2E2E2E2E2E2E2E2E2E2E2E2E2E2E2E2E2E2E2E2E2E2E2E2E2E2E2E2E2E2E2E2E2E2E2E2E2E2E2E2E2E2E2E2E2E2E2E2E2E2E2E2E2E2E2E2E2E2E2E2E2E2E2E2E2E2E2E2E2E2E2E2E2E2E2E2E2E2E2E2E2E2E2E2E2E2E2E2E2E2E2E2E2E2E2E2E2E2E2E2E2E2E2E2E2E2E2E2E2E2E2E2E2E2E2E2E2E2E2E2E2E2E2E2E2E2
310
E2E2E2E2E2E2E2E2E2E2E2E2E2E2E2E2E2E2E2E2E2E2E2E2E2E2E2E2E2E2E2E2E2E2E2E2E2E2E2E2E2E2E2E2E2E2E2E2E2E2E2E2E2E2E2E2E2E2E2E2E2E2E2E2E2E2E2E2E2E2E2E2E2E2E2E2E2E2E2E2E2E2E2E2E2E2E2E2E2E2E2E2E2E2E2E2E2E2E2E2E2E2E2E2E2E2E2E2E2E2E2E2E2E2E2E2E2E2E2E2E2E2E2E2E2E2E2
310
E2E2E2E2E2E2E2E2E2E2E2E2E2E2E2E2E2E2E2E2E2E2E2E2E2E2E2E2E2E2E2E2E2E2E2E2E2E2E2E2E2E2E2E2E2E2E2E2E2E2E2E2E2E2E2E2E2E2E2E2E2E2E2E2E2E2E2E2E2E2E2E2E2E2E2E2E2E2E2E2E2E2E2E2E2E2E2E2E2E2E2E2E2E2E2E2E2E2E2E2E2E2E2E2E2E2E2E2E2E2E2E2E2E2E2E2E2E2E2E2E2E2E2E2E2E2E2
310
E2E2E2E2E2E2E2E2E2E2E2E2E2E2E2E2E2E2E2E2E2E2E2E2E2E2E2E2E2E2E2E2E2E2E2E2E2E2E2E2E2E2E2E2E2E2E2E2E2E2E2E2E2E2E2E2E2E2E2E2E2E2E2E2E2E2E2E2E2E2E2E2E2E2E2E2E2E2E2E2E2E2E2E2E2E2E2E2E2E2E2E2E2E2E2E2E2E2E2E2E2E2E2E2E2E2E2E2E2E2E2E2E2E2E2E2E2E2E2E2E2E2E2E2E2E2E2
310
E2E2E2E2E2E2E2E2E2E2E2E2E2E2E2E2E2E2E2E2E2E2E2E2E2E2E2E2E2E2E2E2E2E2E2E2E2E2E2E2E2E2E2E2E2E2E2E2E2E2E2E2E2E2E2E2E2E2E2E2E2E2E2E2E2E2E2E2E2E2E2E2E2E2E2E2E2E2E2E2E2E2E2E2E2E2E2E2E2E2E2E2E2E2E2E2E2E2E2E2E2E2E2E2E2E2E2E2E2E2E2E2E2E2E2E2E2E2E2E2E2E2E2E2E2E2E2
310
E2E2E2E2E2E2E2E2E2E2E2E2E2E2E2E2E2E2E2E2E2E2E2E2E2E2E2E2E2E2E2E2E2E2E2E2E2E2E2E2E2E2E2E2E2E2E2E2E2E2E2E2E2E2E2E2E2E2E2E2E2E2E2E2E2E2E2E2E2E2E2E2E2E2E2E2E2E2E2E2E2E2E2E2E2E2E2E2E2E2E2E2E2E2E2E2E2E2E2E2E2E2E2E2E2E2E2E2E2E2E2E2E2E2E2E2E2E2E2E2E2E2E2E2E2E2E2
310
E2E2E2E2E2E2E2E2E2E2E2E2E2E2E2E2E2E2E2E2E2E2E2E2E2E2E2E2E2E2E2E2E2E2E2E2E2E2E2E2E2E2E2E2E2E2E2E2E2E2E2E2E2E2E2E2E2E2E2E2E2E2E2E2E2E2E2E2E2E2E2E2E2E2E2E2E2E2E2E2E2E2E2E2E2E2E2E2E2E2E2E2E2E2E2E2E2E2E2E2E2E2E2E2E2E2E2E2E2E2E2E2E2E2E2E2E2E2E2E2E2E2E2E2E2E2E2
310
E2E2E2E2E2E2E2E2E2E2E2E2E2E2E2E2E2E2E2E2E2E2E2E2E2E2E2E2E2E2E2E2E2E2E2E2E2E2E2E2E2E2E2E2E2E2E2E2E2E2E2E2E2E2E2E2E2E2E2E2E2E2E2E2E2E2E2E2E2E2E2E2E2E2E2E2E2E2E2E2E2E2E2E2E2E2E2E2E2E2E2E2E2E2E2E2E2E2E2E2E2E2E2E2E2E2E2E2E2E2E2E2E2E2E2E2E2E2E2E2E2E2E2E2E2E2E2
310
E2E2E2E2E2E2E2E2E2E2E2E2E2E2E2E2E2E2E2E2E2E2E2E2E2E2E2E2E2E2E2E2E2E2E2E2E2E2E2E2E2E2E2E2E2E2E2E2E2E2E2E2E2E2E2E2E2E2E2E2E2E2E2E2E2E2E2E2E2E2E2E2E2E2E2E2E2E2E2E2E2E2E2E2E2E2E2E2E2E2E2E2E2E2E2E2E2E2E2E2E2E2E2E2E2E2E2E2E2E2E2E2E2E2E2E2E2E2E2E2E2E2E2E2E2E2E2
310
E2E2E2E2E2E2E2E2E2E2E2E2E2E2E2E2E2E2E2E2E2E2E2E2E2E2E2E2E2E2E2E2E2E2E2E2E2E2E2E2E2E2E2E2E2E2E2E2E2E2E2E2E2E2E2E2E2E2E2E2E2E2E2E2E2E2E2E2E2E2E2E2E2E2E2E2E2E2E2E2E2E2E2E2E2E2E2E2E2E2E2E2E2E2E2E2E2E2E2E2E2E2E2E2E2E2E2E2E2E2E2E2E2E2E2E2E2E2E2E2E2E2E2E2E2E2E2
310
E2E2E2E2E2E2E2E2E2E2E2E2E2E2E2E2E2E2E2E2E2E2E2E2E2E2E2E2E2E2E2E2E2E2E2E2E2E2E2E2E2E2E2E2E2E2E2E2E2E2E2E2E2E2E2E2E2E2E2E2E2E2E2E2E2E2E2E2E2E2E2E2E2E2E2E2E2E2E2E2E2E2E2E2E2E2E2E2E2E2E2E2E2E2E2E2E2E2E2E2E2E2E2E2E2E2E2E2E2E2E2E2E2E2E2E2E2E2E2E2E2E2E2E2E2E2E2
310
E2E2E2E2E2E2E2E2E2E2E2E2E2E2E2E2E2E2E2E2E2E2E2E2E2E2E2E2E2E2E2E2E2E2E2E2E2E2E2E2E2E2E2E2E2E2E2E2E2E2E2E2E2E2E2E2E2E2E2E2E2E2E2E2E2E2E2E2E2E2E2E2E2E2E2E2E2E2E2E2E2E2E2E2E2E2E2E2E2E2E2E2E2E2E2E2E2E2E2E2E2E2E2E2E2E2E2E2E2E2E2E2E2E2E2E2E2E2E2E2E2E2E2E2E2E2E2
310
E2E2E2E2E2E2E2E2E2E2E2E2E2E2E2E2E2E2E2E2E2E2E2E2E2E2E2E2E2E2E2E2E2E2E2E2E2E2E2E2E2E2E2E2E2E2E2E2E2E2E2E2E2E2E2E2E2E2E2E2E2E2E2E2E2E2E2E2E2E2E2E2E2E2E2E2E2E2E2E2E2E2E2E2E2E2E2E2E2E2E2E2E2E2E2E2E2E2E2E2E2E2E2E2E2E2E2E2E2E2E2E2E2E2E2E2E2E2E2E2E2E2E2E2E2E2E2
310
E2E2E2E2E2E2E2E2E2E2E2E2E2E2E2E2E2E2E2E2E2E2E2E2E2E2E2E2E2E2E2E2E2E2E2E2E2E2E2E2E2E2E2E2E2E2E2E2E2E2E2E2E2E2E2E2E2E2E2E2E2E2E2E2E2E2E2E2E2E2E2E2E2E2E2E2E2E2E2E2E2E2E2E2E2E2E2E2E2E2E2E2E2E2E2E2E2E2E2E2E2E2E2E2E2E2E2E2E2E2E2E2E2E2E2E2E2E2E2E2E2E2E2E2E2E2E2
310
E2E2E2E2E2E2E2E2E2E2E2E2E2E2E2E2E2E2E2E2E2E2E2E2E2E2E2E2E2E2E2E2E2E2E2E2E2E2E2E2E2E2E2E2E2E2E2E2E2E2E2E2E2E2E2E2E2E2E2E2E2E2E2E2E2E2E2E2E2E2E2E2E2E2E2E2E2E2E2E2E2E2E2E2E2E2E2E2E2E2E2E2E2E2E2E2E2E2E2E2E2E2E2E2E2E2E2E2E2E2E2E2E2E2E2E2E2E2E2E2E2E2E2E2E2E2E2
310
E2E2E2E2E2E2E2E2E2E2E2E2E2E2E2E2E2E2E2E2E2E2E2E2E2E2E2E2E2E2E2E2E2E2E2E2E2E2E2E2E2E2E2E2E2E2E2E2E2E2E2E2E2E2E2E2E2E2E2E2E2E2E2E2E2E2E2E2E2E2E2E2E2E2E2E2E2E2E2E2E2E2E2E2E2E2E2E2E2E2E2E2E2E2E2E2E2E2E2E2E2E2E2E2E2E2E2E2E2E2E2E2E2E2E2E2E2E2E2E2E2E2E2E2E2E2E2
310
E2E2E2E2E2E2E2E2E2E2E2E2E2E2E2E2E2E2E2E2E2E2E2E2E2E2E2E2E2E2E2E2E2E2E2E2E2E2E2E2E2E2E2E2E2E2E2E2E2E2E2E2E2E2E2E2E2E2E2E2E2E2E2E2E2E2E2E2E2E2E2E2E2E2E2E2E2E2E2E2E2E2E2E2E2E2E2E2E2E2E2E2E2E2E2E2E2E2E2E2E2E2E2E2E2E2E2E2E2E2E2E2E2E2E2E2E2E2E2E2E2E2E2E2E2E2E2
310
E2E2E2E2E2E2E2E2E2E2E2E2E2E2E2E2E2E2E2E2E2E2E2E2E2E2E2E2E2E2E2E2E2E2E2E2E2E2E2E2E2E2E2E2E2E2E2E2E2E2E2E2E2E2E2E2E2E2E2E2E2E2E2E2E2E2E2E2E2E2E2E2E2E2E2E2E2E2E2E2E2E2E2E2E2E2E2E2E2E2E2E2E2E2E2E2E2E2E2E2E2E2E2E2E2E2E2E2E2E2E2E2E2E2E2E2E2E2E2E2E2E2E2E2E2E2E2
310
E2E2E2E2E2E2E2E2E2E2E2E2E2E2E2E2E2E2E2E2E2E2E2E2E2E2E2E2E2E2E2E2E2E2E2E2E2E2E2E2E2E2E2E2E2E2E2E2E2E2E2E2E2E2E2E2E2E2E2E2E2E2E2E2E2E2E2E2E2E2E2E2E2E2E2E2E2E2E2E2E2E2E2E2E2E2E2E2E2E2E2E2E2E2E2E2E2E2E2E2E2E2E2E2E2E2E2E2E2E2E2E2E2E2E2E2E2E2E2E2E2E2E2E2E2E2E2
310
E2E2E2E2E2E2E2E2E2E2E2E2E2E2E2E2E2E2E2E2E2E2E2E2E2E2E2E2E2E2E2E2E2E2E2E2E2E2E2E2E2E2E2E2E2E2E2E2E2E2E2E2E2E2E2E2E2E2E2E2E2E2E2E2E2E2E2E2E2E2E2E2E2E2E2E2E2E2E2E2E2E2E2E2E2E2E2E2E2E2E2E2E2E2E2E2E2E2E2E2E2E2E2E2E2E2E2E2E2E2E2E2E2E2E2E2E2E2E2E2E2E2E2E2E2E2E2
310
E2E2E2E2E2E2E2E2E2E2E2E2E2E2E2E2E2E2E2E2E2E2E2E2E2E2E2E2E2E2E2E2E2E2E2E2E2E2E2E2E2E2E2E2E2E2E2E2E2E2E2E2E2E2E2E2E2E2E2E2E2E2E2E2E2E2E2E2E2E2E2E2E2E2E2E2E2E2E2E2E2E2E2E2E2E2E2E2E2E2E2E2E2E2E2E2E2E2E2E2E2E2E2E2E2E2E2E2E2E2E2E2E2E2E2E2E2E2E2E2E2E2E2E2E2E2E2
310
E2E2E2E2E2E2E2E2E2E2E2E2E2E2E2E2E2E2E2E2E2E2E2E2E2E2E2E2E2E2E2E2E2E2E2E2E2E2E2E2E2E2E2E2E2E2E2E2E2E2E2E2E2E2E2E2E2E2E2E2E2E2E2E2E2E2E2E2E2E2E2E2E2E2E2E2E2E2E2E2E2E2E2E2E2E2E2E2E2E2E2E2E2E2E2E2E2E2E2E2E2E2E2E2E2E2E2E2E2E2E2E2E2E2E2E2E2E2E2E2E2E2E2E2E2E2E2
310
E2E2E2E2E2E2E2E2E2E2E2E2E2E2E2E2E2E2E2E2E2E2E2E2E2E2E2E2E2E2E2E2E2E2E2E2E2E2E2E2E2E2E2E2E2E2E2E2E2E2E2E2E2E2E2E2E2E2E2E2E2E2E2E2E2E2E2E2E2E2E2E2E2E2E2E2E2E2E2E2E2E2E2E2E2E2E2E2E2E2E2E2E2E2E2E2E2E2E2E2E2E2E2E2E2E2E2E2E2E2E2E2E2E2E2E2E2E2E2E2E2E2E2E2E2E2E2
310
E2E2E2E2E2E2E2E2E2E2E2E2E2E2E2E2E2E2E2E2E2E2E2E2E2E2E2E2E2E2E2E2E2E2E2E2E2E2E2E2E2E2E2E2E2E2E2E2E2E2E2E2E2E2E2E2E2E2E2E2E2E2E2E2E2E2E2E2E2E2E2E2E2E2E2E2E2E2E2E2E2E2E2E2E2E2E2E2E2E2E2E2E2E2E2E2E2E2E2E2E2E2E2E2E2E2E2E2E2E2E2E2E2E2E2E2E2E2E2E2E2E2E2E2E2E2E2
310
E2E2E2E2E2E2E2E2E2E2E2E2E2E2E2E2E2E2E2E2E2E2E2E2E2E2E2E2E2E2E2E2E2E2E2E2E2E2E2E2E2E2E2E2E2E2E2E2E2E2E2E2E2E2E2E2E2E2E2E2E2E2E2E2E2E2E2E2E2E2E2E2E2E2E2E2E2E2E2E2E2E2E2E2E2E2E2E2E2E2E2E2E2E2E2E2E2E2E2E2E2E2E2E2E2E2E2E2E2E2E2E2E2E2E2E2E2E2E2E2E2E2E2E2E2E2E2
310
E2E2E2E2E2E2E2E2E2E2E2E2E2E2E2E2E2E2E2E2E2E2E2E2E2E2E2E2E2E2E2E2E2E2E2E2E2E2E2E2E2E2E2E2E2E2E2E2E2E2E2E2E2E2E2E2E2E2E2E2E2E2E2E2E2E2E2E2E2E2E2E2E2E2E2E2E2E2E2E2E2E2E2E2E2E2E2E2E2E2E2E2E2E2E2E2E2E2E2E2E2E2E2E2E2E2E2E2E2E2E2E2E2E2E2E2E2E2E2E2E2E2E2E2E2E2E2
310
E2E2E2E2E2E2E2E2E2E2E2E2E2E2E2E2E2E2E2E2E2E2E2E2E2E2E2E2E2E2E2E2E2E2E2E2E2E2E2E2E2E2E2E2E2E2E2E2E2E2E2E2E2E2E2E2E2E2E2E2E2E2E2E2E2E2E2E2E2E2E2E2E2E2E2E2E2E2E2E2E2E2E2E2E2E2E2E2E2E2E2E2E2E2E2E2E2E2E2E2E2E2E2E2E2E2E2E2E2E2E2E2E2E2E2E2E2E2E2E2E2E2E2E2E2E2E2
310
E2E2E2E2E2E2E2E2E2E2E2E2E2E2E2E2E2E2E2E2E2E2E2E2E2E2E2E2E2E2E2E2E2E2E2E2E2E2E2E2E2E2E2E2E2E2E2E2E2E2E2E2E2E2E2E2E2E2E2E2E2E2E2E2E2E2E2E2E2E2E2E2E2E2E2E2E2E2E2E2E2E2E2E2E2E2E2E2E2E2E2E2E2E2E2E2E2E2E2E2E2E2E2E2E2E2E2E2E2E2E2E2E2E2E2E2E2E2E2E2E2E2E2E2E2E2E2
310
E2E2E2E2E2E2E2E2E2E2E2E2E2E2E2E2E2E2E2E2E2E2E2E2E2E2E2E2E2E2E2E2E2E2E2E2E2E2E2E2E2E2E2E2E2E2E2E2E2E2E2E2E2E2E2E2E2E2E2E2E2E2E2E2E2E2E2E2E2E2E2E2E2E2E2E2E2E2E2E2E2E2E2E2E2E2E2E2E2E2E2E2E2E2E2E2E2E2E2E2E2E2E2E2E2E2E2E2E2E2E2E2E2E2E2E2E2E2E2E2E2E2E2E2E2E2E2
310
E2E2E2E2E2E2E2E2E2E2E2E2E2E2E2E2E2E2E2E2E2E2E2E2E2E2E2E2E2E2E2E2E2E2E2E2E2E2E2E2E2E2E2E2E2E2E2E2E2E2E2E2E2E2E2E2E2E2E2E2E2E2E2E2E2E2E2E2E2E2E2E2E2E2E2E2E2E2E2E2E2E2E2E2E2E2E2E2E2E2E2E2E2E2E2E2E2E2E2E2E2E2E2E2E2E2E2E2E2E2E2E2E2E2E2E2E2E2E2E2E2E2E2E2E2E2E2
310
E2E2E2E2E2E2E2E2E2E2E2E2E2E2E2E2E2E2E2E2E2E2E2E2E2E2E2E2E2E2E2E2E2E2E2E2E2E2E2E2E2E2E2E2E2E2E2E2E2E2E2E2E2E2E2E2E2E2E2E2E2E2E2E2E2E2E2E2E2E2E2E2E2E2E2E2E2E2E2E2E2E2E2E2E2E2E2E2E2E2E2E2E2E2E2E2E2E2E2E2E2E2E2E2E2E2E2E2E2E2E2E2E2E2E2E2E2E2E2E2E2E2E2E2E2E2E2
310
E2E2E2E2E2E2E2E2E2E2E2E2E2E2E2E2E2E2E2E2E2E2E2E2E2E2E2E2E2E2E2E2E2E2E2E2E2E2E2E2E2E2E2E2E2E2E2E2E2E2E2E2E2E2E2E2E2E2E2E2E2E2E2E2E2E2E2E2E2E2E2E2E2E2E2E2E2E2E2E2E2E2E2E2E2E2E2E2E2E2E2E2E2E2E2E2E2E2E2E2E2E2E2E2E2E2E2E2E2E2E2E2E2E2E2E2E2E2E2E2E2E2E2E2E2E2E2
310
E2E2E2E2E2E2E2E2E2E2E2E2E2E2E2E2E2E2E2E2E2E2E2E2E2E2E2E2E2E2E2E2E2E2E2E2E2E2E2E2E2E2E2E2E2E2E2E2E2E2E2E2E2E2E2E2E2E2E2E2E2E2E2E2E2E2E2E2E2E2E2E2E2E2E2E2E2E2E2E2E2E2E2E2E2E2E2E2E2E2E2E2E2E2E2E2E2E2E2E2E2E2E2E2E2E2E2E2E2E2E2E2E2E2E2E2E2E2E2E2E2E2E2E2E2E2E2
310
E2E2E2E2E2E2E2E2E2E2E2E2E2E2E2E2E2E2E2E2E2E2E2E2E2E2E2E2E2E2E2E2E2E2E2E2E2E2E2E2E2E2E2E2E2E2E2E2E2E2E2E2E2E2E2E2E2E2E2E2E2E2E2E2E2E2E2E2E2E2E2E2E2E2E2E2E2E2E2E2E2E2E2E2E2E2E2E2E2E2E2E2E2E2E2E2E2E2E2E2E2E2E2E2E2E2E2E2E2E2E2E2E2E2E2E2E2E2E2E2E2E2E2E2E2E2E2
310
E2E2E2E2E2E2E2E2E2E2E2E2E2E2E2E2E2E2E2E2E2E2E2E2E2E2E2E2E2E2E2E2E2E2E2E2E2E2E2E2E2E2E2E2E2E2E2E2E2E2E2E2E2E2E2E2E2E2E2E2E2E2E2E2E2E2E2E2E2E2E2E2E2E2E2E2E2E2E2E2E2E2E2E2E2E2E2E2E2E2E2E2E2E2E2E2E2E2E2E2E2E2E2E2E2E2E2E2E2E2E2E2E2E2E2E2E2E2E2E2E2E2E2E2E2E2E2
310
E2E2E2E2E2E2E2E2E2E2E2E2E2E2E2E2E2E2E2E2E2E2E2E2E2E2E2E2E2E2E2E2E2E2E2E2E2E2E2E2E2E2E2E2E2E2E2E2E2E2E2E2E2E2E2E2E2E2E2E2E2E2E2E2E2E2E2E2E2E2E2E2E2E2E2E2E2E2E2E2E2E2E2E2E2E2E2E2E2E2E2E2E2E2E2E2E2E2E2E2E2E2E2E2E2E2E2E2E2E2E2E2E2E2E2E2E2E2E2E2E2E2E2E2E2E2E2
310
E2E2E2E2E2E2E2E2E2E2E2E2E2E2E2E2E2E2E2E2E2E2E2E2E2E2E2E2E2E2E2E2E2E2E2E2E2E2E2E2E2E2E2E2E2E2E2E2E2E2E2E2E2E2E2E2E2E2E2E2E2E2E2E2E2E2E2E2E2E2E2E2E2E2E2E2E2E2E2E2E2E2E2E2E2E2E2E2E2E2E2E2E2E2E2E2E2E2E2E2E2E2E2E2E2E2E2E2E2E2E2E2E2E2E2E2E2E2E2E2E2E2E2E2E2E2E2
310
E2E2E2E2E2E2E2E2E2E2E2E2E2E2E2E2E2E2E2E2E2E2E2E2E2E2E2E2E2E2E2E2E2E2E2E2E2E2E2E2E2E2E2E2E2E2E2E2E2E2E2E2E2E2E2E2E2E2E2E2E2E2E2E2E2E2E2E2E2E2E2E2E2E2E2E2E2E2E2E2E2E2E2E2E2E2E2E2E2E2E2E2E2E2E2E2E2E2E2E2E2E2E2E2E2E2E2E2E2E2E2E2E2E2E2E2E2E2E2E2E2E2E2E2E2E2E2
310
E2E2E2E2E2E2E2E2E2E2E2E2E2E2E2E2E2E2E2E2E2E2E2E2E2E2E2E2E2E2E2E2E2E2E2E2E2E2E2E2E2E2E2E2E2E2E2E2E2E2E2E2E2E2E2E2E2E2E2E2E2E2E2E2E2E2E2E2E2E2E2E2E2E2E2E2E2E2E2E2E2E2E2E2E2E2E2E2E2E2E2E2E2E2E2E2E2E2E2E2E2E2E2E2E2E2E2E2E2E2E2E2E2E2E2E2E2E2E2E2E2E2E2E2E2E2E2
310
E2E2E2E2E2E2E2E2E2E2E2E2E2E2E2E2E2E2E2E2E2E2E2E2E2E2E2E2E2E2E2E2E2E2E2E2E2E2E2E2E2E2E2E2E2E2E2E2E2E2E2E2E2E2E2E2E2E2E2E2E2E2E2E2E2E2E2E2E2E2E2E2E2E2E2E2E2E2E2E2E2E2E2E2E2E2E2E2E2E2E2E2E2E2E2E2E2E2E2E2E2E2E2E2E2E2E2E2E2E2E2E2E2E2E2E2E2E2E2E2E2E2E2E2E2E2E2
310
E2E2E2E2E2E2E2E2E2E2E2E2E2E2E2E2E2E2E2E2E2E2E2E2E2E2E2E2E2E2E2E2E2E2E2E2E2E2E2E2E2E2E2E2E2E2E2E2E2E2E2E2E2E2E2E2E2E2E2E2E2E2E2E2E2E2E2E2E2E2E2E2E2E2E2E2E2E2E2E2E2E2E2E2E2E2E2E2E2E2E2E2E2E2E2E2E2E2E2E2E2E2E2E2E2E2E2E2E2E2E2E2E2E2E2E2E2E2E2E2E2E2E2E2E2E2E2
310
E2E2E2E2E2E2E2E2E2E2E2E2E2E2E2E2E2E2E2E2E2E2E2E2E2E2E2E2E2E2E2E2E2E2E2E2E2E2E2E2E2E2E2E2E2E2E2E2E2E2E2E2E2E2E2E2E2E2E2E2E2E2E2E2E2E2E2E2E2E2E2E2E2E2E2E2E2E2E2E2E2E2E2E2E2E2E2E2E2E2E2E2E2E2E2E2E2E2E2E2E2E2E2E2E2E2E2E2E2E2E2E2E2E2E2E2E2E2E2E2E2E2E2E2E2E2E2
310
E2E2E2E2E2E2E2E2E2E2E2E2E2E2E2E2E2E2E2E2E2E2E2E2E2E2E2E2E2E2E2E2E2E2E2E2E2E2E2E2E2E2E2E2E2E2E2E2E2E2E2E2E2E2E2E2E2E2E2E2E2E2E2E2E2E2E2E2E2E2E2E2E2E2E2E2E2E2E2E2E2E2E2E2E2E2E2E2E2E2E2E2E2E2E2E2E2E2E2E2E2E2E2E2E2E2E2E2E2E2E2E2E2E2E2E2E2E2E2E2E2E2E2E2E2E2E2
310
E2E2E2E2E2E2E2E2E2E2E2E2E2E2E2E2E2E2E2E2E2E2E2E2E2E2E2E2E2E2E2E2E2E2E2E2E2E2E2E2E2E2E2E2E2E2E2E2E2E2E2E2E2E2E2E2E2E2E2E2E2E2E2E2E2E2E2E2E2E2E2E2E2E2E2E2E2E2E2E2E2E2E2E2E2E2E2E2E2E2E2E2E2E2E2E2E2E2E2E2E2E2E2E2E2E2E2E2E2E2E2E2E2E2E2E2E2E2E2E2E2E2E2E2E2E2E2
310
E2E2E2E2E2E2E2E2E2E2E2E2E2E2E2E2E2E2E2E2E2E2E2E2E2E2E2E2E2E2E2E2E2E2E2E2E2E2E2E2E2E2E2E2E2E2E2E2E2E2E2E2E2E2E2E2E2E2E2E2E2E2E2E2E2E2E2E2E2E2E2E2E2E2E2E2E2E2E2E2E2E2E2E2E2E2E2E2E2E2E2E2E2E2E2E2E2E2E2E2E2E2E2E2E2E2E2E2E2E2E2E2E2E2E2E2E2E2E2E2E2E2E2E2E2E2E2
310
E2E2E2E2E2E2E2E2E2E2E2E2E2E2E2E2E2E2E2E2E2E2E2E2E2E2E2E2E2E2E2E2E2E2E2E2E2E2E2E2E2E2E2E2E2E2E2E2E2E2E2E2E2E2E2E2E2E2E2E2E2E2E2E2E2E2E2E2E2E2E2E2E2E2E2E2E2E2E2E2E2E2E2E2E2E2E2E2E2E2E2E2E2E2E2E2E2E2E2E2E2E2E2E2E2E2E2E2E2E2E2E2E2E2E2E2E2E2E2E2E2E2E2E2E2E2E2
310
E2E2E2E2E2E2E2E2E2E2E2E2E2E2E2E2E2E2E2E2E2E2E2E2E2E2E2E2E2E2E2E2E2E2E2E2E2E2E2E2E2E2E2E2E2E2E2E2E2E2E2E2E2E2E2E2E2E2E2E2E2E2E2E2E2E2E2E2E2E2E2E2E2E2E2E2E2E2E2E2E2E2E2E2E2E2E2E2E2E2E2E2E2E2E2E2E2E2E2E2E2E2E2E2E2E2E2E2E2E2E2E2E2E2E2E2E2E2E2E2E2E2E2E2E2E2E2
310
E2E2E2E2E2E2E2E2E2E2E2E2E2E2E2E2E2E2E2E2E2E2E2E2E2E2E2E2E2E2E2E2E2E2E2E2E2E2E2E2E2E2E2E2E2E2E2E2E2E2E2E2E2E2E2E2E2E2E2E2E2E2E2E2E2E2E2E2E2E2E2E2E2E2E2E2E2E2E2E2E2E2E2E2E2E2E2E2E2E2E2E2E2E2E2E2E2E2E2E2E2E2E2E2E2E2E2E2E2E2E2E2E2E2E2E2E2E2E2E2E2E2E2E2E2E2E2
310
E2E2E2E2E2E2E2E2E2E2E2E2E2E2E2E2E2E2E2E2E2E2E2E2E2E2E2E2E2E2E2E2E2E2E2E2E2E2E2E2E2E2E2E2E2E2E2E2E2E2E2E2E2E2E2E2E2E2E2E2E2E2E2E2E2E2E2E2E2E2E2E2E2E2E2E2E2E2E2E2E2E2E2E2E2E2E2E2E2E2E2E2E2E2E2E2E2E2E2E2E2E2E2E2E2E2E2E2E2E2E2E2E2E2E2E2E2E2E2E2E2E2E2E2E2E2E2
310
E2E2E2E2E2E2E2E2E2E2E2E2E2E2E2E2E2E2E2E2E2E2E2E2E2E2E2E2E2E2E2E2E2E2E2E2E2E2E2E2E2E2E2E2E2E2E2E2E2E2E2E2E2E2E2E2E2E2E2E2E2E2E2E2E2E2E2E2E2E2E2E2E2E2E2E2E2E2E2E2E2E2E2E2E2E2E2E2E2E2E2E2E2E2E2E2E2E2E2E2E2E2E2E2E2E2E2E2E2E2E2E2E2E2E2E2E2E2E2E2E2E2E2E2E2E2E2
310
E2E2E2E2E2E2E2E2E2E2E2E2E2E2E2E2E2E2E2E2E2E2E2E2E2E2E2E2E2E2E2E2E2E2E2E2E2E2E2E2E2E2E2E2E2E2E2E2E2E2E2E2E2E2E2E2E2E2E2E2E2E2E2E2E2E2E2E2E2E2E2E2E2E2E2E2E2E2E2E2E2E2E2E2E2E2E2E2E2E2E2E2E2E2E2E2E2E2E2E2E2E2E2E2E2E2E2E2E2E2E2E2E2E2E2E2E2E2E2E2E2E2E2E2E2E2E2
310
E2E2E2E2E2E2E2E2E2E2E2E2E2E2E2E2E2E2E2E2E2E2E2E2E2E2E2E2E2E2E2E2E2E2E2E2E2E2E2E2E2E2E2E2E2E2E2E2E2E2E2E2E2E2E2E2E2E2E2E2E2E2E2E2E2E2E2E2E2E2E2E2E2E2E2E2E2E2E2E2E2E2E2E2E2E2E2E2E2E2E2E2E2E2E2E2E2E2E2E2E2E2E2E2E2E2E2E2E2E2E2E2E2E2E2E2E2E2E2E2E2E2E2E2E2E2E2
310
E2E2E2E2E2E2E2E2E2E2E2E2E2E2E2E2E2E2E2E2E2E2E2E2E2E2E2E2E2E2E2E2E2E2E2E2E2E2E2E2E2E2E2E2E2E2E2E2E2E2E2E2E2E2E2E2E2E2E2E2E2E2E2E2E2E2E2E2E2E2E2E2E2E2E2E2E2E2E2E2E2E2E2E2E2E2E2E2E2E2E2E2E2E2E2E2E2E2E2E2E2E2E2E2E2E2E2E2E2E2E2E2E2E2E2E2E2E2E2E2E2E2E2E2E2E2E2
310
E2E2E2E2E2E2E2E2E2E2E2E2E2E2E2E2E2E2E2E2E2E2E2E2E2E2E2E2E2E2E2E2E2E2E2E2E2E2E2E2E2E2E2E2E2E2E2E2E2E2E2E2E2E2E2E2E2E2E2E2E2E2E2E2E2E2E2E2E2E2E2E2E2E2E2E2E2E2E2E2E2E2E2E2E2E2E2E2E2E2E2E2E2E2E2E2E2E2E2E2E2E2E2E2E2E2E2E2E2E2E2E2E2E2E2E2E2E2E2E2E2E2E2E2E2E2E2
310
E2E2E2E2E2E2E2E2E2E2E2E2E2E2E2E2E2E2E2E2E2E2E2E2E2E2E2E2E2E2E2E2E2E2E2E2E2E2E2E2E2E2E2E2E2E2E2E2E2E2E2E2E2E2E2E2E2E2E2E2E2E2E2E2E2E2E2E2E2E2E2E2E2E2E2E2E2E2E2E2E2E2E2E2E2E2E2E2E2E2E2E2E2E2E2E2E2E2E2E2E2E2E2E2E2E2E2E2E2E2E2E2E2E2E2E2E2E2E2E2E2E2E2E2E2E2E2
310
E2E2E2E2E2E2E2E2E2E2E2E2E2E2E2E2E2E2E2E2E2E2E2E2E2E2E2E2E2E2E2E2E2E2E2E2E2E2E2E2E2E2E2E2E2E2E2E2E2E2E2E2E2E2E2E2E2E2E2E2E2E2E2E2E2E2E2E2E2E2E2E2E2E2E2E2E2E2E2E2E2E2E2E2E2E2E2E2E2E2E2E2E2E2E2E2E2E2E2E2E2E2E2E2E2E2E2E2E2E2E2E2E2E2E2E2E2E2E2E2E2E2E2E2E2E2E2
310
E2E2E2E2E2E2E2E2E2E2E2E2E2E2E2E2E2E2E2E2E2E2E2E2E2E2E2E2E2E2E2E2E2E2E2E2E2E2E2E2E2E2E2E2E2E2E2E2E2E2E2E2E2E2E2E2E2E2E2E2E2E2E2E2E2E2E2E2E2E2E2E2E2E2E2E2E2E2E2E2E2E2E2E2E2E2E2E2E2E2E2E2E2E2E2E2E2E2E2E2E2E2E2E2E2E2E2E2E2E2E2E2E2E2E2E2E2E2E2E2E2E2E2E2E2E2E2
310
E2E2E2E2E2E2E2E2E2E2E2E2E2E2E2E2E2E2E2E2E2E2E2E2E2E2E2E2E2E2E2E2E2E2E2E2E2E2E2E2E2E2E2E2E2E2E2E2E2E2E2E2E2E2E2E2E2E2E2E2E2E2E2E2E2E2E2E2E2E2E2E2E2E2E2E2E2E2E2E2E2E2E2E2E2E2E2E2E2E2E2E2E2E2E2E2E2E2E2E2E2E2E2E2E2E2E2E2E2E2E2E2E2E2E2E2E2E2E2E2E2E2E2E2E2E2E2
310
E2E2E2E2E2E2E2E2E2E2E2E2E2E2E2E2E2E2E2E2E2E2E2E2E2E2E2E2E2E2E2E2E2E2E2E2E2E2E2E2E2E2E2E2E2E2E2E2E2E2E2E2E2E2E2E2E2E2E2E2E2E2E2E2E2E2E2E2E2E2E2E2E2E2E2E2E2E2E2E2E2E2E2E2E2E2E2E2E2E2E2E2E2E2E2E2E2E2E2E2E2E2E2E2E2E2E2E2E2E2E2E2E2E2E2E2E2E2E2E2E2E2E2E2E2E2E2
310
E2E2E2E2E2E2E2E2E2E2E2E2E2E2E2E2E2E2E2E2E2E2E2E2E2E2E2E2E2E2E2E2E2E2E2E2E2E2E2E2E2E2E2E2E2E2E2E2E2E2E2E2E2E2E2E2E2E2E2E2E2E2E2E2E2E2E2E2E2E2E2E2E2E2E2E2E2E2E2E2E2E2E2E2E2E2E2E2E2E2E2E2E2E2E2E2E2E2E2E2E2E2E2E2E2E2E2E2E2E2E2E2E2E2E2E2E2E2E2E2E2E2E2E2E2E2E2
310
E2E2E2E2E2E2E2E2E2E2E2E2E2E2E2E2E2E2E2E2E2E2E2E2E2E2E2E2E2E2E2E2E2E2E2E2E2E2E2E2E2E2E2E2E2E2E2E2E2E2E2E2E2E2E2E2E2E2E2E2E2E2E2E2E2E2E2E2E2E2E2E2E2E2E2E2E2E2E2E2E2E2E2E2E2E2E2E2E2E2E2E2E2E2E2E2E2E2E2E2E2E2E2E2E2E2E2E2E2E2E2E2E2E2E2E2E2E2E2E2E2E2E2E2E2E2E2
310
E2E2E2E2E2E2E2E2E2E2E2E2E2E2E2E2E2E2E2E2E2E2E2E2E2E2E2E2E2E2E2E2E2E2E2E2E2E2E2E2E2E2E2E2E2E2E2E2E2E2E2E2E2E2E2E2E2E2E2E2E2E2E2E2E2E2E2E2E2E2E2E2E2E2E2E2E2E2E2E2E2E2E2E2E2E2E2E2E2E2E2E2E2E2E2E2E2E2E2E2E2E2E2E2E2E2E2E2E2E2E2E2E2E2E2E2E2E2E2E2E2E2E2E2E2E2E2
310
E2E2E2E2E2E2E2E2E2E2E2E2E2E2E2E2E2E2E2E2E2E2E2E2E2E2E2E2E2E2E2E2E2E2E2E2E2E2E2E2E2E2E2E2E2E2E2E2E2E2E2E2E2E2E2E2E2E2E2E2E2E2E2E2E2E2E2E2E2E2E2E2E2E2E2E2E2E2E2E2E2E2E2E2E2E2E2E2E2E2E2E2E2E2E2E2E2E2E2E2E2E2E2E2E2E2E2E2E2E2E2E2E2E2E2E2E2E2E2E2E2E2E2E2E2E2E2
310
E2E2E2E2E2E2E2E2E2E2E2E2E2E2E2E2E2E2E2E2E2E2E2E2E2E2E2E2E2E2E2E2E2E2E2E2E2E2E2E2E2E2E2E2E2E2E2E2E2E2E2E2E2E2E2E2E2E2E2E2E2E2E2E2E2E2E2E2E2E2E2E2E2E2E2E2E2E2E2E2E2E2E2E2E2E2E2E2E2E2E2E2E2E2E2E2E2E2E2E2E2E2E2E2E2E2E2E2E2E2E2E2E2E2E2E2E2E2E2E2E2E2E2E2E2E2E2
310
E2E2E2E2E2E2E2E2E2E2E2E2E2E2E2E2E2E2E2E2E2E2E2E2E2E2E2E2E2E2E2E2E2E2E2E2E2E2E2E2E2E2E2E2E2E2E2E2E2E2E2E2E2E2E2E2E2E2E2E2E2E2E2E2E2E2E2E2E2E2E2E2E2E2E2E2E2E2E2E2E2E2E2E2E2E2E2E2E2E2E2E2E2E2E2E2E2E2E2E2E2E2E2E2E2E2E2E2E2E2E2E2E2E2E2E2E2E2E2E2E2E2E2E2E2E2E2
310
E2E2E2E2E2E2E2E2E2E2E2E2E2E2E2E2E2E2E2E2E2E2E2E2E2E2E2E2E2E2E2E2E2E2E2E2E2E2E2E2E2E2E2E2E2E2E2E2E2E2E2E2E2E2E2E2E2E2E2E2E2E2E2E2E2E2E2E2E2E2E2E2E2E2E2E2E2E2E2E2E2E2E2E2E2E2E2E2E2E2E2E2E2E2E2E2E2E2E2E2E2E2E2E2E2E2E2E2E2E2E2E2E2E2E2E2E2E2E2E2E2E2E2E2E2E2E2
310
E2E2E2E2E2E2E2E2E2E2E2E2E2E2E2E2E2E2E2E2E2E2E2E2E2E2E2E2E2E2E2E2E2E2E2E2E2E2E2E2E2E2E2E2E2E2E2E2E2E2E2E2E2E2E2E2E2E2E2E2E2E2E2E2E2E2E2E2E2E2E2E2E2E2E2E2E2E2E2E2E2E2E2E2E2E2E2E2E2E2E2E2E2E2E2E2E2E2E2E2E2E2E2E2E2E2E2E2E2E2E2E2E2E2E2E2E2E2E2E2E2E2E2E2E2E2E2
310
E2E2E2E2E2E2E2E2E2E2E2E2E2E2E2E2E2E2E2E2E2E2E2E2E2E2E2E2E2E2E2E2E2E2E2E2E2E2E2E2E2E2E2E2E2E2E2E2E2E2E2E2E2E2E2E2E2E2E2E2E2E2E2E2E2E2E2E2E2E2E2E2E2E2E2E2E2E2E2E2E2E2E2E2E2E2E2E2E2E2E2E2E2E2E2E2E2E2E2E2E2E2E2E2E2E2E2E2E2E2E2E2E2E2E2E2E2E2E2E2E2E2E2E2E2E2E2
310
E2E2E2E2E2E2E2E2E2E2E2E2E2E2E2E2E2E2E2E2E2E2E2E2E2E2E2E2E2E2E2E2E2E2E2E2E2E2E2E2E2E2E2E2E2E2E2E2E2E2E2E2E2E2E2E2E2E2E2E2E2E2E2E2E2E2E2E2E2E2E2E2E2E2E2E2E2E2E2E2E2E2E2E2E2E2E2E2E2E2E2E2E2E2E2E2E2E2E2E2E2E2E2E2E2E2E2E2E2E2E2E2E2E2E2E2E2E2E2E2E2E2E2E2E2E2E2
310
E2E2E2E2E2E2E2E2E2E2E2E2E2E2E2E2E2E2E2E2E2E2E2E2E2E2E2E2E2E2E2E2E2E2E2E2E2E2E2E2E2E2E2E2E2E2E2E2E2E2E2E2E2E2E2E2E2E2E2E2E2E2E2E2E2E2E2E2E2E2E2E2E2E2E2E2E2E2E2E2E2E2E2E2E2E2E2E2E2E2E2E2E2E2E2E2E2E2E2E2E2E2E2E2E2E2E2E2E2E2E2E2E2E2E2E2E2E2E2E2E2E2E2E2E2E2E2
310
E2E2E2E2E2E2E2E2E2E2E2E2E2E2E2E2E2E2E2E2E2E2E2E2E2E2E2E2E2E2E2E2E2E2E2E2E2E2E2E2E2E2E2E2E2E2E2E2E2E2E2E2E2E2E2E2E2E2E2E2E2E2E2E2E2E2E2E2E2E2E2E2E2E2E2E2E2E2E2E2E2E2E2E2E2E2E2E2E2E2E2E2E2E2E2E2E2E2E2E2E2E2E2E2E2E2E2E2E2E2E2E2E2E2E2E2E2E2E2E2E2E2E2E2E2E2E2
310
E2E2E2E2E2E2E2E2E2E2E2E2E2E2E2E2E2E2E2E2E2E2E2E2E2E2E2E2E2E2E2E2E2E2E2E2E2E2E2E2E2E2E2E2E2E2E2E2E2E2E2E2E2E2E2E2E2E2E2E2E2E2E2E2E2E2E2E2E2E2E2E2E2E2E2E2E2E2E2E2E2E2E2E2E2E2E2E2E2E2E2E2E2E2E2E2E2E2E2E2E2E2E2E2E2E2E2E2E2E2E2E2E2E2E2E2E2E2E2E2E2E2E2E2E2E2E2
310
E2E2E2E2E2E2E2E2E2E2E2E2E2E2E2E2E2E2E2E2E2E2E2E2E2E2E2E2E2E2E2E2E2E2E2E2E2E2E2E2E2E2E2E2E2E2E2E2E2E2E2E2E2E2E2E2E2E2E2E2E2E2E2E2E2E2E2E2E2E2E2E2E2E2E2E2E2E2E2E2E2E2E2E2E2E2E2E2E2E2E2E2E2E2E2E2E2E2E2E2E2E2E2E2E2E2E2E2E2E2E2E2E2E2E2E2E2E2E2E2E2E2E2E2E2E2E2
310
E2E2E2E2E2E2E2E2E2E2E2E2E2E2E2E2E2E2E2E2E2E2E2E2E2E2E2E2E2E2E2E2E2E2E2E2E2E2E2E2E2E2E2E2E2E2E2E2E2E2E2E2E2E2E2E2E2E2E2E2E2E2E2E2E2E2E2E2E2E2E2E2E2E2E2E2E2E2E2E2E2E2E2E2E2E2E2E2E2E2E2E2E2E2E2E2E2E2E2E2E2E2E2E2E2E2E2E2E2E2E2E2E2E2E2E2E2E2E2E2E2E2E2E2E2E2E2
310
E2E2E2E2E2E2E2E2E2E2E2E2E2E2E2E2E2E2E2E2E2E2E2E2E2E2E2E2E2E2E2E2E2E2E2E2E2E2E2E2E2E2E2E2E2E2E2E2E2E2E2E2E2E2E2E2E2E2E2E2E2E2E2E2E2E2E2E2E2E2E2E2E2E2E2E2E2E2E2E2E2E2E2E2E2E2E2E2E2E2E2E2E2E2E2E2E2E2E2E2E2E2E2E2E2E2E2E2E2E2E2E2E2E2E2E2E2E2E2E2E2E2E2E2E2E2E2
310
E2E2E2E2E2E2E2E2E2E2E2E2E2E2E2E2E2E2E2E2E2E2E2E2E2E2E2E2E2E2E2E2E2E2E2E2E2E2E2E2E2E2E2E2E2E2E2E2E2E2E2E2E2E2E2E2E2E2E2E2E2E2E2E2E2E2E2E2E2E2E2E2E2E2E2E2E2E2E2E2E2E2E2E2E2E2E2E2E2E2E2E2E2E2E2E2E2E2E2E2E2E2E2E2E2E2E2E2E2E2E2E2E2E2E2E2E2E2E2E2E2E2E2E2E2E2E2
310
E2E2E2E2E2E2E2E2E2E2E2E2E2E2E2E2E2E2E2E2E2E2E2E2E2E2E2E2E2E2E2E2E2E2E2E2E2E2E2E2E2E2E2E2E2E2E2E2E2E2E2E2E2E2E2E2E2E2E2E2E2E2E2E2E2E2E2E2E2E2E2E2E2E2E2E2E2E2E2E2E2E2E2E2E2E2E2E2E2E2E2E2E2E2E2E2E2E2E2E2E2E2E2E2E2E2E2E2E2E2E2E2E2E2E2E2E2E2E2E2E2E2E2E2E2E2E2
310
E2E2E2E2E2E2E2E2E2E2E2E2E2E2E2E2E2E2E2E2E2E2E2E2E2E2E2E2E2E2E2E2E2E2E2E2E2E2E2E2E2E2E2E2E2E2E2E2E2E2E2E2E2E2E2E2E2E2E2E2E2E2E2E2E2E2E2E2E2E2E2E2E2E2E2E2E2E2E2E2E2E2E2E2E2E2E2E2E2E2E2E2E2E2E2E2E2E2E2E2E2E2E2E2E2E2E2E2E2E2E2E2E2E2E2E2E2E2E2E2E2E2E2E2E2E2E2
310
E2E2E2E2E2E2E2E2E2E2E2E2E2E2E2E2E2E2E2E2E2E2E2E2E2E2E2E2E2E2E2E2E2E2E2E2E2E2E2E2E2E2E2E2E2E2E2E2E2E2E2E2E2E2E2E2E2E2E2E2E2E2E2E2E2E2E2E2E2E2E2E2E2E2E2E2E2E2E2E2E2E2E2E2E2E2E2E2E2E2E2E2E2E2E2E2E2E2E2E2E2E2E2E2E2E2E2E2E2E2E2E2E2E2E2E2E2E2E2E2E2E2E2E2E2E2E2
310
E2E2E2E2E2E2E2E2E2E2E2E2E2E2E2E2E2E2E2E2E2E2E2E2E2E2E2E2E2E2E2E2E2E2E2E2E2E2E2E2E2E2E2E2E2E2E2E2E2E2E2E2E2E2E2E2E2E2E2E2E2E2E2E2E2E2E2E2E2E2E2E2E2E2E2E2E2E2E2E2E2E2E2E2E2E2E2E2E2E2E2E2E2E2E2E2E2E2E2E2E2E2E2E2E2E2E2E2E2E2E2E2E2E2E2E2E2E2E2E2E2E2E2E2E2E2E2
310
E2E2E2E2E2E2E2E2E2E2E2E2E2E2E2E2E2E2E2E2E2E2E2E2E2E2E2E2E2E2E2E2E2E2E2E2E2E2E2E2E2E2E2E2E2E2E2E2E2E2E2E2E2E2E2E2E2E2E2E2E2E2E2E2E2E2E2E2E2E2E2E2E2E2E2E2E2E2E2E2E2E2E2E2E2E2E2E2E2E2E2E2E2E2E2E2E2E2E2E2E2E2E2E2E2E2E2E2E2E2E2E2E2E2E2E2E2E2E2E2E2E2E2E2E2E2E2
310
E2E2E2E2E2E2E2E2E2E2E2E2E2E2E2E2E2E2E2E2E2E2E2E2E2E2E2E2E2E2E2E2E2E2E2E2E2E2E2E2E2E2E2E2E2E2E2E2E2E2E2E2E2E2E2E2E2E2E2E2E2E2E2E2E2E2E2E2E2E2E2E2E2E2E2E2E2E2E2E2E2E2E2E2E2E2E2E2E2E2E2E2E2E2E2E2E2E2E2E2E2E2E2E2E2E2E2E2E2E2E2E2E2E2E2E2E2E2E2E2E2E2E2E2E2E2E2
310
E2E2E2E2E2E2E2E2E2E2E2E2E2E2E2E2E2E2E2E2E2E2E2E2E2E2E2E2E2E2E2E2E2E2E2E2E2E2E2E2E2E2E2E2E2E2E2E2E2E2E2E2E2E2E2E2E2E2E2E2E2E2E2E2E2E2E2E2E2E2E2E2E2E2E2E2E2E2E2E2E2E2E2E2E2E2E2E2E2E2E2E2E2E2E2E2E2E2E2E2E2E2E2E2E2E2E2E2E2E2E2E2E2E2E2E2E2E2E2E2E2E2E2E2E2E2E2
310
E2E2E2E2E2E2E2E2E2E2E2E2E2E2E2E2E2E2E2E2E2E2E2E2E2E2E2E2E2E2E2E2E2E2E2E2E2E2E2E2E2E2E2E2E2E2E2E2E2E2E2E2E2E2E2E2E2E2E2E2E2E2E2E2E2E2E2E2E2E2E2E2E2E2E2E2E2E2E2E2E2E2E2E2E2E2E2E2E2E2E2E2E2E2E2E2E2E2E2E2E2E2E2E2E2E2E2E2E2E2E2E2E2E2E2E2E2E2E2E2E2E2E2E2E2E2E2
310
E2E2E2E2E2E2E2E2E2E2E2E2E2E2E2E2E2E2E2E2E2E2E2E2E2E2E2E2E2E2E2E2E2E2E2E2E2E2E2E2E2E2E2E2E2E2E2E2E2E2E2E2E2E2E2E2E2E2E2E2E2E2E2E2E2E2E2E2E2E2E2E2E2E2E2E2E2E2E2E2E2E2E2E2E2E2E2E2E2E2E2E2E2E2E2E2E2E2E2E2E2E2E2E2E2E2E2E2E2E2E2E2E2E2E2E2E2E2E2E2E2E2E2E2E2E2E2
310
E2E2E2E2E2E2E2E2E2E2E2E2E2E2E2E2E2E2E2E2E2E2E2E2E2E2E2E2E2E2E2E2E2E2E2E2E2E2E2E2E2E2E2E2E2E2E2E2E2E2E2E2E2E2E2E2E2E2E2E2E2E2E2E2E2E2E2E2E2E2E2E2E2E2E2E2E2E2E2E2E2E2E2E2E2E2E2E2E2E2E2E2E2E2E2E2E2E2E2E2E2E2E2E2E2E2E2E2E2E2E2E2E2E2E2E2E2E2E2E2E2E2E2E2E2E2E2
310
E2E2E2E2E2E2E2E2E2E2E2E2E2E2E2E2E2E2E2E2E2E2E2E2E2E2E2E2E2E2E2E2E2E2E2E2E2E2E2E2E2E2E2E2E2E2E2E2E2E2E2E2E2E2E2E2E2E2E2E2E2E2E2E2E2E2E2E2E2E2E2E2E2E2E2E2E2E2E2E2E2E2E2E2E2E2E2E2E2E2E2E2E2E2E2E2E2E2E2E2E2E2E2E2E2E2E2E2E2E2E2E2E2E2E2E2E2E2E2E2E2E2E2E2E2E2E2
310
E2E2E2E2E2E2E2E2E2E2E2E2E2E2E2E2E2E2E2E2E2E2E2E2E2E2E2E2E2E2E2E2E2E2E2E2E2E2E2E2E2E2E2E2E2E2E2E2E2E2E2E2E2E2E2E2E2E2E2E2E2E2E2E2E2E2E2E2E2E2E2E2E2E2E2E2E2E2E2E2E2E2E2E2E2E2E2E2E2E2E2E2E2E2E2E2E2E2E2E2E2E2E2E2E2E2E2E2E2E2E2E2E2E2E2E2E2E2E2E2E2E2E2E2E2E2E2
310
E2E2E2E2E2E2E2E2E2E2E2E2E2E2E2E2E2E2E2E2E2E2E2E2E2E2E2E2E2E2E2E2E2E2E2E2E2E2E2E2E2E2E2E2E2E2E2E2E2E2E2E2E2E2E2E2E2E2E2E2E2E2E2E2E2E2E2E2E2E2E2E2E2E2E2E2E2E2E2E2E2E2E2E2E2E2E2E2E2E2E2E2E2E2E2E2E2E2E2E2E2E2E2E2E2E2E2E2E2E2E2E2E2E2E2E2E2E2E2E2E2E2E2E2E2E2E2
310
E2E2E2E2E2E2E2E2E2E2E2E2E2E2E2E2E2E2E2E2E2E2E2E2E2E2E2E2E2E2E2E2E2E2E2E2E2E2E2E2E2E2E2E2E2E2E2E2E2E2E2E2E2E2E2E2E2E2E2E2E2E2E2E2E2E2E2E2E2E2E2E2E2E2E2E2E2E2E2E2E2E2E2E2E2E2E2E2E2E2E2E2E2E2E2E2E2E2E2E2E2E2E2E2E2E2E2E2E2E2E2E2E2E2E2E2E2E2E2E2E2E2E2E2E2E2E2
310
E2E2E2E2E2E2E2E2E2E2E2E2E2E2E2E2E2E2E2E2E2E2E2E2E2E2E2E2E2E2E2E2E2E2E2E2E2E2E2E2E2E2E2E2E2E2E2E2E2E2E2E2E2E2E2E2E2E2E2E2E2E2E2E2E2E2E2E2E2E2E2E2E2E2E2E2E2E2E2E2E2E2E2E2E2E2E2E2E2E2E2E2E2E2E2E2E2E2E2E2E2E2E2E2E2E2E2E2E2E2E2E2E2E2E2E2E2E2E2E2E2E2E2E2E2E2E2
310
E2E2E2E2E2E2E2E2E2E2E2E2E2E2E2E2E2E2E2E2E2E2E2E2E2E2E2E2E2E2E2E2E2E2E2E2E2E2E2E2E2E2E2E2E2E2E2E2E2E2E2E2E2E2E2E2E2E2E2E2E2E2E2E2E2E2E2E2E2E2E2E2E2E2E2E2E2E2E2E2E2E2E2E2E2E2E2E2E2E2E2E2E2E2E2E2E2E2E2E2E2E2E2E2E2E2E2E2E2E2E2E2E2E2E2E2E2E2E2E2E2E2E2E2E2E2E2
310
E2E2E2E2E2E2E2E2E2E2E2E2E2E2E2E2E2E2E2E2E2E2E2E2E2E2E2E2E2E2E2E2E2E2E2E2E2E2E2E2E2E2E2E2E2E2E2E2E2E2E2E2E2E2E2E2E2E2E2E2E2E2E2E2E2E2E2E2E2E2E2E2E2E2E2E2E2E2E2E2E2E2E2E2E2E2E2E2E2E2E2E2E2E2E2E2E2E2E2E2E2E2E2E2E2E2E2E2E2E2E2E2E2E2E2E2E2E2E2E2E2E2E2E2E2E2E2
310
E2E2E2E2E2E2E2E2E2E2E2E2E2E2E2E2E2E2E2E2E2E2E2E2E2E2E2E2E2E2E2E2E2E2E2E2E2E2E2E2E2E2E2E2E2E2E2E2E2E2E2E2E2E2E2E2E2E2E2E2E2E2E2E2E2E2E2E2E2E2E2E2E2E2E2E2E2E2E2E2E2E2E2E2E2E2E2E2E2E2E2E2E2E2E2E2E2E2E2E2E2E2E2E2E2E2E2E2E2E2E2E2E2E2E2E2E2E2E2E2E2E2E2E2E2E2E2
310
E2E2E2E2E2E2E2E2E2E2E2E2E2E2E2E2E2E2E2E2E2E2E2E2E2E2E2E2E2E2E2E2E2E2E2E2E2E2E2E2E2E2E2E2E2E2E2E2E2E2E2E2E2E2E2E2E2E2E2E2E2E2E2E2E2E2E2E2E2E2E2E2E2E2E2E2E2E2E2E2E2E2E2E2E2E2E2E2E2E2E2E2E2E2E2E2E2E2E2E2E2E2E2E2E2E2E2E2E2E2E2E2E2E2E2E2E2E2E2E2E2E2E2E2E2E2E2
310
E2E2E2E2E2E2E2E2E2E2E2E2E2E2E2E2E2E2E2E2E2E2E2E2E2E2E2E2E2E2E2E2E2E2E2E2E2E2E2E2E2E2E2E2E2E2E2E2E2E2E2E2E2E2E2E2E2E2E2E2E2E2E2E2E2E2E2E2E2E2E2E2E2E2E2E2E2E2E2E2E2E2E2E2E2E2E2E2E2E2E2E2E2E2E2E2E2E2E2E2E2E2E2E2E2E2E2E2E2E2E2E2E2E2E2E2E2E2E2E2E2E2E2E2E2E2E2
310
E2E2E2E2E2E2E2E2E2E2E2E2E2E2E2E2E2E2E2E2E2E2E2E2E2E2E2E2E2E2E2E2E2E2E2E2E2E2E2E2E2E2E2E2E2E2E2E2E2E2E2E2E2E2E2E2E2E2E2E2E2E2E2E2E2E2E2E2E2E2E2E2E2E2E2E2E2E2E2E2E2E2E2E2E2E2E2E2E2E2E2E2E2E2E2E2E2E2E2E2E2E2E2E2E2E2E2E2E2E2E2E2E2E2E2E2E2E2E2E2E2E2E2E2E2E2E2
310
E2E2E2E2E2E2E2E2E2E2E2E2E2E2E2E2E2E2E2E2E2E2E2E2E2E2E2E2E2E2E2E2E2E2E2E2E2E2E2E2E2E2E2E2E2E2E2E2E2E2E2E2E2E2E2E2E2E2E2E2E2E2E2E2E2E2E2E2E2E2E2E2E2E2E2E2E2E2E2E2E2E2E2E2E2E2E2E2E2E2E2E2E2E2E2E2E2E2E2E2E2E2E2E2E2E2E2E2E2E2E2E2E2E2E2E2E2E2E2E2E2E2E2E2E2E2E2
310
E2E2E2E2E2E2E2E2E2E2E2E2E2E2E2E2E2E2E2E2E2E2E2E2E2E2E2E2E2E2E2E2E2E2E2E2E2E2E2E2E2E2E2E2E2E2E2E2E2E2E2E2E2E2E2E2E2E2E2E2E2E2E2E2E2E2E2E2E2E2E2E2E2E2E2E2E2E2E2E2E2E2E2E2E2E2E2E2E2E2E2E2E2E2E2E2E2E2E2E2E2E2E2E2E2E2E2E2E2E2E2E2E2E2E2E2E2E2E2E2E2E2E2E2E2E2E2
310
E2E2E2E2E2E2E2E2E2E2E2E2E2E2E2E2E2E2E2E2E2E2E2E2E2E2E2E2E2E2E2E2E2E2E2E2E2E2E2E2E2E2E2E2E2E2E2E2E2E2E2E2E2E2E2E2E2E2E2E2E2E2E2E2E2E2E2E2E2E2E2E2E2E2E2E2E2E2E2E2E2E2E2E2E2E2E2E2E2E2E2E2E2E2E2E2E2E2E2E2E2E2E2E2E2E2E2E2E2E2E2E2E2E2E2E2E2E2E2E2E2E2E2E2E2E2E2
310
E2E2E2E2E2E2E2E2E2E2E2E2E2E2E2E2E2E2E2E2E2E2E2E2E2E2E2E2E2E2E2E2E2E2E2E2E2E2E2E2E2E2E2E2E2E2E2E2E2E2E2E2E2E2E2E2E2E2E2E2E2E2E2E2E2E2E2E2E2E2E2E2E2E2E2E2E2E2E2E2E2E2E2E2E2E2E2E2E2E2E2E2E2E2E2E2E2E2E2E2E2E2E2E2E2E2E2E2E2E2E2E2E2E2E2E2E2E2E2E2E2E2E2E2E2E2E2
310
E2E2E2E2E2E2E2E2E2E2E2E2E2E2E2E2E2E2E2E2E2E2E2E2E2E2E2E2E2E2E2E2E2E2E2E2E2E2E2E2E2E2E2E2E2E2E2E2E2E2E2E2E2E2E2E2E2E2E2E2E2E2E2E2E2E2E2E2E2E2E2E2E2E2E2E2E2E2E2E2E2E2E2E2E2E2E2E2E2E2E2E2E2E2E2E2E2E2E2E2E2E2E2E2E2E2E2E2E2E2E2E2E2E2E2E2E2E2E2E2E2E2E2E2E2E2E2
310
E2E2E2E2E2E2E2E2E2E2E2E2E2E2E2E2E2E2E2E2E2E2E2E2E2E2E2E2E2E2E2E2E2E2E2E2E2E2E2E2E2E2E2E2E2E2E2E2E2E2E2E2E2E2E2E2E2E2E2E2E2E2E2E2E2E2E2E2E2E2E2E2E2E2E2E2E2E2E2E2E2E2E2E2E2E2E2E2E2E2E2E2E2E2E2E2E2E2E2E2E2E2E2E2E2E2E2E2E2E2E2E2E2E2E2E2E2E2E2E2E2E2E2E2E2E2E2
310
E2E2E2E2E2E2E2E2E2E2E2E2E2E2E2E2E2E2E2E2E2E2E2E2E2E2E2E2E2E2E2E2E2E2E2E2E2E2E2E2E2E2E2E2E2E2E2E2E2E2E2E2E2E2E2E2E2E2E2E2E2E2E2E2E2E2E2E2E2E2E2E2E2E2E2E2E2E2E2E2E2E2E2E2E2E2E2E2E2E2E2E2E2E2E2E2E2E2E2E2E2E2E2E2E2E2E2E2E2E2E2E2E2E2E2E2E2E2E2E2E2E2E2E2E2E2E2
310
E2E2E2E2E2E2E2E2E2E2E2E2E2E2E2E2E2E2E2E2E2E2E2E2E2E2E2E2E2E2E2E2E2E2E2E2E2E2E2E2E2E2E2E2E2E2E2E2E2E2E2E2E2E2E2E2E2E2E2E2E2E2E2E2E2E2E2E2E2E2E2E2E2E2E2E2E2E2E2E2E2E2E2E2E2E2E2E2E2E2E2E2E2E2E2E2E2E2E2E2E2E2E2E2E2E2E2E2E2E2E2E2E2E2E2E2E2E2E2E2E2E2E2E2E2E2E2
310
E2E2E2E2E2E2E2E2E2E2E2E2E2E2E2E2E2E2E2E2E2E2E2E2E2E2E2E2E2E2E2E2E2E2E2E2E2E2E2E2E2E2E2E2E2E2E2E2E2E2E2E2E2E2E2E2E2E2E2E2E2E2E2E2E2E2E2E2E2E2E2E2E2E2E2E2E2E2E2E2E2E2E2E2E2E2E2E2E2E2E2E2E2E2E2E2E2E2E2E2E2E2E2E2E2E2E2E2E2E2E2E2E2E2E2E2E2E2E2E2E2E2E2E2E2E2E2
310
E2E2E2E2E2E2E2E2E2E2E2E2E2E2E2E2E2E2E2E2E2E2E2E2E2E2E2E2E2E2E2E2E2E2E2E2E2E2E2E2E2E2E2E2E2E2E2E2E2E2E2E2E2E2E2E2E2E2E2E2E2E2E2E2E2E2E2E2E2E2E2E2E2E2E2E2E2E2E2E2E2E2E2E2E2E2E2E2E2E2E2E2E2E2E2E2E2E2E2E2E2E2E2E2E2E2E2E2E2E2E2E2E2E2E2E2E2E2E2E2E2E2E2E2E2E2E2
310
E2E2E2E2E2E2E2E2E2E2E2E2E2E2E2E2E2E2E2E2E2E2E2E2E2E2E2E2E2E2E2E2E2E2E2E2E2E2E2E2E2E2E2E2E2E2E2E2E2E2E2E2E2E2E2E2E2E2E2E2E2E2E2E2E2E2E2E2E2E2E2E2E2E2E2E2E2E2E2E2E2E2E2E2E2E2E2E2E2E2E2E2E2E2E2E2E2E2E2E2E2E2E2E2E2E2E2E2E2E2E2E2E2E2E2E2E2E2E2E2E2E2E2E2E2E2E2
310
E2E2E2E2E2E2E2E2E2E2E2E2E2E2E2E2E2E2E2E2E2E2E2E2E2E2E2E2E2E2E2E2E2E2E2E2E2E2E2E2E2E2E2E2E2E2E2E2E2E2E2E2E2E2E2E2E2E2E2E2E2E2E2E2E2E2E2E2E2E2E2E2E2E2E2E2E2E2E2E2E2E2E2E2E2E2E2E2E2E2E2E2E2E2E2E2E2E2E2E2E2E2E2E2E2E2E2E2E2E2E2E2E2E2E2E2E2E2E2E2E2E2E2E2E2E2E2
310
E2E2E2E2E2E2E2E2E2E2E2E2E2E2E2E2E2E2E2E2E2E2E2E2E2E2E2E2E2E2E2E2E2E2E2E2E2E2E2E2E2E2E2E2E2E2E2E2E2E2E2E2E2E2E2E2E2E2E2E2E2E2E2E2E2E2E2E2E2E2E2E2E2E2E2E2E2E2E2E2E2E2E2E2E2E2E2E2E2E2E2E2E2E2E2E2E2E2E2E2E2E2E2E2E2E2E2E2E2E2E2E2E2E2E2E2E2E2E2E2E2E2E2E2E2E2E2
310
E2E2E2E2E2E2E2E2E2E2E2E2E2E2E2E2E2E2E2E2E2E2E2E2E2E2E2E2E2E2E2E2E2E2E2E2E2E2E2E2E2E2E2E2E2E2E2E2E2E2E2E2E2E2E2E2E2E2E2E2E2E2E2E2E2E2E2E2E2E2E2E2E2E2E2E2E2E2E2E2E2E2E2E2E2E2E2E2E2E2E2E2E2E2E2E2E2E2E2E2E2E2E2E2E2E2E2E2E2E2E2E2E2E2E2E2E2E2E2E2E2E2E2E2E2E2E2
310
E2E2E2E2E2E2E2E2E2E2E2E2E2E2E2E2E2E2E2E2E2E2E2E2E2E2E2E2E2E2E2E2E2E2E2E2E2E2E2E2E2E2E2E2E2E2E2E2E2E2E2E2E2E2E2E2E2E2E2E2E2E2E2E2E2E2E2E2E2E2E2E2E2E2E2E2E2E2E2E2E2E2E2E2E2E2E2E2E2E2E2E2E2E2E2E2E2E2E2E2E2E2E2E2E2E2E2E2E2E2E2E2E2E2E2E2E2E2E2E2E2E2E2E2E2E2E2
310
E2E2E2E2E2E2E2E2E2E2E2E2E2E2E2E2E2E2E2E2E2E2E2E2E2E2E2E2E2E2E2E2E2E2E2E2E2E2E2E2E2E2E2E2E2E2E2E2E2E2E2E2E2E2E2E2E2E2E2E2E2E2E2E2E2E2E2E2E2E2E2E2E2E2E2E2E2E2E2E2E2E2E2E2E2E2E2E2E2E2E2E2E2E2E2E2E2E2E2E2E2E2E2E2E2E2E2E2E2E2E2E2E2E2E2E2E2E2E2E2E2E2E2E2E2E2E2
310
E2E2E2E2E2E2E2E2E2E2E2E2E2E2E2E2E2E2E2E2E2E2E2E2E2E2E2E2E2E2E2E2E2E2E2E2E2E2E2E2E2E2E2E2E2E2E2E2E2E2E2E2E2E2E2E2E2E2E2E2E2E2E2E2E2E2E2E2E2E2E2E2E2E2E2E2E2E2E2E2E2E2E2E2E2E2E2E2E2E2E2E2E2E2E2E2E2E2E2E2E2E2E2E2E2E2E2E2E2E2E2E2E2E2E2E2E2E2E2E2E2E2E2E2E2E2E2
310
E2E2E2E2E2E2E2E2E2E2E2E2E2E2E2E2E2E2E2E2E2E2E2E2E2E2E2E2E2E2E2E2E2E2E2E2E2E2E2E2E2E2E2E2E2E2E2E2E2E2E2E2E2E2E2E2E2E2E2E2E2E2E2E2E2E2E2E2E2E2E2E2E2E2E2E2E2E2E2E2E2E2E2E2E2E2E2E2E2E2E2E2E2E2E2E2E2E2E2E2E2E2E2E2E2E2E2E2E2E2E2E2E2E2E2E2E2E2E2E2E2E2E2E2E2E2E2
310
E2E2E2E2E2E2E2E2E2E2E2E2E2E2E2E2E2E2E2E2E2E2E2E2E2E2E2E2E2E2E2E2E2E2E2E2E2E2E2E2E2E2E2E2E2E2E2E2E2E2E2E2E2E2E2E2E2E2E2E2E2E2E2E2E2E2E2E2E2E2E2E2E2E2E2E2E2E2E2E2E2E2E2E2E2E2E2E2E2E2E2E2E2E2E2E2E2E2E2E2E2E2E2E2E2E2E2E2E2E2E2E2E2E2E2E2E2E2E2E2E2E2E2E2E2E2E2
310
E2E2E2E2E2E2E2E2E2E2E2E2E2E2E2E2E2E2E2E2E2E2E2E2E2E2E2E2E2E2E2E2E2E2E2E2E2E2E2E2E2E2E2E2E2E2E2E2E2E2E2E2E2E2E2E2E2E2E2E2E2E2E2E2E2E2E2E2E2E2E2E2E2E2E2E2E2E2E2E2E2E2E2E2E2E2E2E2E2E2E2E2E2E2E2E2E2E2E2E2E2E2E2E2E2E2E2E2E2E2E2E2E2E2E2E2E2E2E2E2E2E2E2E2E2E2E2
310
E2E2E2E2E2E2E2E2E2E2E2E2E2E2E2E2E2E2E2E2E2E2E2E2E2E2E2E2E2E2E2E2E2E2E2E2E2E2E2E2E2E2E2E2E2E2E2E2E2E2E2E2E2E2E2E2E2E2E2E2E2E2E2E2E2E2E2E2E2E2E2E2E2E2E2E2E2E2E2E2E2E2E2E2E2E2E2E2E2E2E2E2E2E2E2E2E2E2E2E2E2E2E2E2E2E2E2E2E2E2E2E2E2E2E2E2E2E2E2E2E2E2E2E2E2E2E2
310
E2E2E2E2E2E2E2E2E2E2E2E2E2E2E2E2E2E2E2E2E2E2E2E2E2E2E2E2E2E2E2E2E2E2E2E2E2E2E2E2E2E2E2E2E2E2E2E2E2E2E2E2E2E2E2E2E2E2E2E2E2E2E2E2E2E2E2E2E2E2E2E2E2E2E2E2E2E2E2E2E2E2E2E2E2E2E2E2E2E2E2E2E2E2E2E2E2E2E2E2E2E2E2E2E2E2E2E2E2E2E2E2E2E2E2E2E2E2E2E2E2E2E2E2E2E2E2
310
E2E2E2E2E2E2E2E2E2E2E2E2E2E2E2E2E2E2E2E2E2E2E2E2E2E2E2E2E2E2E2E2E2E2E2E2E2E2E2E2E2E2E2E2E2E2E2E2E2E2E2E2E2E2E2E2E2E2E2E2E2E2E2E2E2E2E2E2E2E2E2E2E2E2E2E2E2E2E2E2E2E2E2E2E2E2E2E2E2E2E2E2E2E2E2E2E2E2E2E2E2E2E2E2E2E2E2E2E2E2E2E2E2E2E2E2E2E2E2E2E2E2E2E2E2E2E2
310
E2E2E2E2E2E2E2E2E2E2E2E2E2E2E2E2E2E2E2E2E2E2E2E2E2E2E2E2E2E2E2E2E2E2E2E2E2E2E2E2E2E2E2E2E2E2E2E2E2E2E2E2E2E2E2E2E2E2E2E2E2E2E2E2E2E2E2E2E2E2E2E2E2E2E2E2E2E2E2E2E2E2E2E2E2E2E2E2E2E2E2E2E2E2E2E2E2E2E2E2E2E2E2E2E2E2E2E2E2E2E2E2E2E2E2E2E2E2E2E2E2E2E2E2E2E2E2
310
E2E2E2E2E2E2E2E2E2E2E2E2E2E2E2E2E2E2E2E2E2E2E2E2E2E2E2E2E2E2E2E2E2E2E2E2E2E2E2E2E2E2E2E2E2E2E2E2E2E2E2E2E2E2E2E2E2E2E2E2E2E2E2E2E2E2E2E2E2E2E2E2E2E2E2E2E2E2E2E2E2E2E2E2E2E2E2E2E2E2E2E2E2E2E2E2E2E2E2E2E2E2E2E2E2E2E2E2E2E2E2E2E2E2E2E2E2E2E2E2E2E2E2E2E2E2E2
310
E2E2E2E2E2E2E2E2E2E2E2E2E2E2E2E2E2E2E2E2E2E2E2E2E2E2E2E2E2E2E2E2E2E2E2E2E2E2E2E2E2E2E2E2E2E2E2E2E2E2E2E2E2E2E2E2E2E2E2E2E2E2E2E2E2E2E2E2E2E2E2E2E2E2E2E2E2E2E2E2E2E2E2E2E2E2E2E2E2E2E2E2E2E2E2E2E2E2E2E2E2E2E2E2E2E2E2E2E2E2E2E2E2E2E2E2E2E2E2E2E2E2E2E2E2E2E2
310
E2E2E2E2E2E2E2E2E2E2E2E2E2E2E2E2E2E2E2E2E2E2E2E2E2E2E2E2E2E2E2E2E2E2E2E2E2E2E2E2E2E2E2E2E2E2E2E2E2E2E2E2E2E2E2E2E2E2E2E2E2E2E2E2E2E2E2E2E2E2E2E2E2E2E2E2E2E2E2E2E2E2E2E2E2E2E2E2E2E2E2E2E2E2E2E2E2E2E2E2E2E2E2E2E2E2E2E2E2E2E2E2E2E2E2E2E2E2E2E2E2E2E2E2E2E2E2
310
E2E2E2E2E2E2E2E2E2E2E2E2E2E2E2E2E2E2E2E2E2E2E2E2E2E2E2E2E2E2E2E2E2E2E2E2E2E2E2E2E2E2E2E2E2E2E2E2E2E2E2E2E2E2E2E2E2E2E2E2E2E2E2E2E2E2E2E2E2E2E2E2E2E2E2E2E2E2E2E2E2E2E2E2E2E2E2E2E2E2E2E2E2E2E2E2E2E2E2E2E2E2E2E2E2E2E2E2E2E2E2E2E2E2E2E2E2E2E2E2E2E2E2E2E2E2E2
310
E2E2E2E2E2E2E2E2E2E2E2E2E2E2E2E2E2E2E2E2E2E2E2E2E2E2E2E2E2E2E2E2E2E2E2E2E2E2E2E2E2E2E2E2E2E2E2E2E2E2E2E2E2E2E2E2E2E2E2E2E2E2E2E2E2E2E2E2E2E2E2E2E2E2E2E2E2E2E2E2E2E2E2E2E2E2E2E2E2E2E2E2E2E2E2E2E2E2E2E2E2E2E2E2E2E2E2E2E2E2E2E2E2E2E2E2E2E2E2E2E2E2E2E2E2E2E2
310
E2E2E2E2E2E2E2E2E2E2E2E2E2E2E2E2E2E2E2E2E2E2E2E2E2E2E2E2E2E2E2E2E2E2E2E2E2E2E2E2E2E2E2E2E2E2E2E2E2E2E2E2E2E2E2E2E2E2E2E2E2E2E2E2E2E2E2E2E2E2E2E2E2E2E2E2E2E2E2E2E2E2E2E2E2E2E2E2E2E2E2E2E2E2E2E2E2E2E2E2E2E2E2E2E2E2E2E2E2E2E2E2E2E2E2E2E2E2E2E2E2E2E2E2E2E2E2
310
E2E2E2E2E2E2E2E2E2E2E2E2E2E2E2E2E2E2E2E2E2E2E2E2E2E2E2E2E2E2E2E2E2E2E2E2E2E2E2E2E2E2E2E2E2E2E2E2E2E2E2E2E2E2E2E2E2E2E2E2E2E2E2E2E2E2E2E2E2E2E2E2E2E2E2E2E2E2E2E2E2E2E2E2E2E2E2E2E2E2E2E2E2E2E2E2E2E2E2E2E2E2E2E2E2E2E2E2E2E2E2E2E2E2E2E2E2E2E2E2E2E2E2E2E2E2E2
310
E2E2E2E2E2E2E2E2E2E2E2E2E2E2E2E2E2E2E2E2E2E2E2E2E2E2E2E2E2E2E2E2E2E2E2E2E2E2E2E2E2E2E2E2E2E2E2E2E2E2E2E2E2E2E2E2E2E2E2E2E2E2E2E2E2E2E2E2E2E2E2E2E2E2E2E2E2E2E2E2E2E2E2E2E2E2E2E2E2E2E2E2E2E2E2E2E2E2E2E2E2E2E2E2E2E2E2E2E2E2E2E2E2E2E2E2E2E2E2E2E2E2E2E2E2E2E2
310
E2E2E2E2E2E2E2E2E2E2E2E2E2E2E2E2E2E2E2E2E2E2E2E2E2E2E2E2E2E2E2E2E2E2E2E2E2E2E2E2E2E2E2E2E2E2E2E2E2E2E2E2E2E2E2E2E2E2E2E2E2E2E2E2E2E2E2E2E2E2E2E2E2E2E2E2E2E2E2E2E2E2E2E2E2E2E2E2E2E2E2E2E2E2E2E2E2E2E2E2E2E2E2E2E2E2E2E2E2E2E2E2E2E2E2E2E2E2E2E2E2E2E2E2E2E2E2
310
E2E2E2E2E2E2E2E2E2E2E2E2E2E2E2E2E2E2E2E2E2E2E2E2E2E2E2E2E2E2E2E2E2E2E2E2E2E2E2E2E2E2E2E2E2E2E2E2E2E2E2E2E2E2E2E2E2E2E2E2E2E2E2E2E2E2E2E2E2E2E2E2E2E2E2E2E2E2E2E2E2E2E2E2E2E2E2E2E2E2E2E2E2E2E2E2E2E2E2E2E2E2E2E2E2E2E2E2E2E2E2E2E2E2E2E2E2E2E2E2E2E2E2E2E2E2E2
310
E2E2E2E2E2E2E2E2E2E2E2E2E2E2E2E2E2E2E2E2E2E2E2E2E2E2E2E2E2E2E2E2E2E2E2E2E2E2E2E2E2E2E2E2E2E2E2E2E2E2E2E2E2E2E2E2E2E2E2E2E2E2E2E2E2E2E2E2E2E2E2E2E2E2E2E2E2E2E2E2E2E2E2E2E2E2E2E2E2E2E2E2E2E2E2E2E2E2E2E2E2E2E2E2E2E2E2E2E2E2E2E2E2E2E2E2E2E2E2E2E2E2E2E2E2E2E2
310
E2E2E2E2E2E2E2E2E2E2E2E2E2E2E2E2E2E2E2E2E2E2E2E2E2E2E2E2E2E2E2E2E2E2E2E2E2E2E2E2E2E2E2E2E2E2E2E2E2E2E2E2E2E2E2E2E2E2E2E2E2E2E2E2E2E2E2E2E2E2E2E2E2E2E2E2E2E2E2E2E2E2E2E2E2E2E2E2E2E2E2E2E2E2E2E2E2E2E2E2E2E2E2E2E2E2E2E2E2E2E2E2E2E2E2E2E2E2E2E2E2E2E2E2E2E2E2
310
E2E2E2E2E2E2E2E2E2E2E2E2E2E2E2E2E2E2E2E2E2E2E2E2E2E2E2E2E2E2E2E2E2E2E2E2E2E2E2E2E2E2E2E2E2E2E2E2E2E2E2E2E2E2E2E2E2E2E2E2E2E2E2E2E2E2E2E2E2E2E2E2E2E2E2E2E2E2E2E2E2E2E2E2E2E2E2E2E2E2E2E2E2E2E2E2E2E2E2E2E2E2E2E2E2E2E2E2E2E2E2E2E2E2E2E2E2E2E2E2E2E2E2E2E2E2E2
310
E2E2E2E2E2E2E2E2E2E2E2E2E2E2E2E2E2E2E2E2E2E2E2E2E2E2E2E2E2E2E2E2E2E2E2E2E2E2E2E2E2E2E2E2E2E2E2E2E2E2E2E2E2E2E2E2E2E2E2E2E2E2E2E2E2E2E2E2E2E2E2E2E2E2E2E2E2E2E2E2E2E2E2E2E2E2E2E2E2E2E2E2E2E2E2E2E2E2E2E2E2E2E2E2E2E2E2E2E2E2E2E2E2E2E2E2E2E2E2E2E2E2E2E2E2E2E2
310
E2E2E2E2E2E2E2E2E2E2E2E2E2E2E2E2E2E2E2E2E2E2E2E2E2E2E2E2E2E2E2E2E2E2E2E2E2E2E2E2E2E2E2E2E2E2E2E2E2E2E2E2E2E2E2E2E2E2E2E2E2E2E2E2E2E2E2E2E2E2E2E2E2E2E2E2E2E2E2E2E2E2E2E2E2E2E2E2E2E2E2E2E2E2E2E2E2E2E2E2E2E2E2E2E2E2E2E2E2E2E2E2E2E2E2E2E2E2E2E2E2E2E2E2E2E2E2
310
E2E2E2E2E2E2E2E2E2E2E2E2E2E2E2E2E2E2E2E2E2E2E2E2E2E2E2E2E2E2E2E2E2E2E2E2E2E2E2E2E2E2E2E2E2E2E2E2E2E2E2E2E2E2E2E2E2E2E2E2E2E2E2E2E2E2E2E2E2E2E2E2E2E2E2E2E2E2E2E2E2E2E2E2E2E2E2E2E2E2E2E2E2E2E2E2E2E2E2E2E2E2E2E2E2E2E2E2E2E2E2E2E2E2E2E2E2E2E2E2E2E2E2E2E2E2E2
310
E2E2E2E2E2E2E2E2E2E2E2E2E2E2E2E2E2E2E2E2E2E2E2E2E2E2E2E2E2E2E2E2E2E2E2E2E2E2E2E2E2E2E2E2E2E2E2E2E2E2E2E2E2E2E2E2E2E2E2E2E2E2E2E2E2E2E2E2E2E2E2E2E2E2E2E2E2E2E2E2E2E2E2E2E2E2E2E2E2E2E2E2E2E2E2E2E2E2E2E2E2E2E2E2E2E2E2E2E2E2E2E2E2E2E2E2E2E2E2E2E2E2E2E2E2E2E2
310
E2E2E2E2E2E2E2E2E2E2E2E2E2E2E2E2E2E2E2E2E2E2E2E2E2E2E2E2E2E2E2E2E2E2E2E2E2E2E2E2E2E2E2E2E2E2E2E2E2E2E2E2E2E2E2E2E2E2E2E2E2E2E2E2E2E2E2E2E2E2E2E2E2E2E2E2E2E2E2E2E2E2E2E2E2E2E2E2E2E2E2E2E2E2E2E2E2E2E2E2E2E2E2E2E2E2E2E2E2E2E2E2E2E2E2E2E2E2E2E2E2E2E2E2E2E2E2
310
E2E2E2E2E2E2E2E2E2E2E2E2E2E2E2E2E2E2E2E2E2E2E2E2E2E2E2E2E2E2E2E2E2E2E2E2E2E2E2E2E2E2E2E2E2E2E2E2E2E2E2E2E2E2E2E2E2E2E2E2E2E2E2E2E2E2E2E2E2E2E2E2E2E2E2E2E2E2E2E2E2E2E2E2E2E2E2E2E2E2E2E2E2E2E2E2E2E2E2E2E2E2E2E2E2E2E2E2E2E2E2E2E2E2E2E2E2E2E2E2E2E2E2E2E2E2E2
310
E2E2E2E2E2E2E2E2E2E2E2E2E2E2E2E2E2E2E2E2E2E2E2E2E2E2E2E2E2E2E2E2E2E2E2E2E2E2E2E2E2E2E2E2E2E2E2E2E2E2E2E2E2E2E2E2E2E2E2E2E2E2E2E2E2E2E2E2E2E2E2E2E2E2E2E2E2E2E2E2E2E2E2E2E2E2E2E2E2E2E2E2E2E2E2E2E2E2E2E2E2E2E2E2E2E2E2E2E2E2E2E2E2E2E2E2E2E2E2E2E2E2E2E2E2E2E2
310
E2E2E2E2E2E2E2E2E2E2E2E2E2E2E2E2E2E2E2E2E2E2E2E2E2E2E2E2E2E2E2E2E2E2E2E2E2E2E2E2E2E2E2E2E2E2E2E2E2E2E2E2E2E2E2E2E2E2E2E2E2E2E2E2E2E2E2E2E2E2E2E2E2E2E2E2E2E2E2E2E2E2E2E2E2E2E2E2E2E2E2E2E2E2E2E2E2E2E2E2E2E2E2E2E2E2E2E2E2E2E2E2E2E2E2E2E2E2E2E2E2E2E2E2E2E2E2
310
E2E2E2E2E2E2E2E2E2E2E2E2E2E2E2E2E2E2E2E2E2E2E2E2E2E2E2E2E2E2E2E2E2E2E2E2E2E2E2E2E2E2E2E2E2E2E2E2E2E2E2E2E2E2E2E2E2E2E2E2E2E2E2E2E2E2E2E2E2E2E2E2E2E2E2E2E2E2E2E2E2E2E2E2E2E2E2E2E2E2E2E2E2E2E2E2E2E2E2E2E2E2E2E2E2E2E2E2E2E2E2E2E2E2E2E2E2E2E2E2E2E2E2E2E2E2E2
310
E2E2E2E2E2E2E2E2E2E2E2E2E2E2E2E2E2E2E2E2E2E2E2E2E2E2E2E2E2E2E2E2E2E2E2E2E2E2E2E2E2E2E2E2E2E2E2E2E2E2E2E2E2E2E2E2E2E2E2E2E2E2E2E2E2E2E2E2E2E2E2E2E2E2E2E2E2E2E2E2E2E2E2E2E2E2E2E2E2E2E2E2E2E2E2E2E2E2E2E2E2E2E2E2E2E2E2E2E2E2E2E2E2E2E2E2E2E2E2E2E2E2E2E2E2E2E2
310
E2E2E2E2E2E2E2E2E2E2E2E2E2E2E2E2E2E2E2E2E2E2E2E2E2E2E2E2E2E2E2E2E2E2E2E2E2E2E2E2E2E2E2E2E2E2E2E2E2E2E2E2E2E2E2E2E2E2E2E2E2E2E2E2E2E2E2E2E2E2E2E2E2E2E2E2E2E2E2E2E2E2E2E2E2E2E2E2E2E2E2E2E2E2E2E2E2E2E2E2E2E2E2E2E2E2E2E2E2E2E2E2E2E2E2E2E2E2E2E2E2E2E2E2E2E2E2
310
E2E2E2E2E2E2E2E2E2E2E2E2E2E2E2E2E2E2E2E2E2E2E2E2E2E2E2E2E2E2E2E2E2E2E2E2E2E2E2E2E2E2E2E2E2E2E2E2E2E2E2E2E2E2E2E2E2E2E2E2E2E2E2E2E2E2E2E2E2E2E2E2E2E2E2E2E2E2E2E2E2E2E2E2E2E2E2E2E2E2E2E2E2E2E2E2E2E2E2E2E2E2E2E2E2E2E2E2E2E2E2E2E2E2E2E2E2E2E2E2E2E2E2E2E2E2E2
310
E2E2E2E2E2E2E2E2E2E2E2E2E2E2E2E2E2E2E2E2E2E2E2E2E2E2E2E2E2E2E2E2E2E2E2E2E2E2E2E2E2E2E2E2E2E2E2E2E2E2E2E2E2E2E2E2E2E2E2E2E2E2E2E2E2E2E2E2E2E2E2E2E2E2E2E2E2E2E2E2E2E2E2E2E2E2E2E2E2E2E2E2E2E2E2E2E2E2E2E2E2E2E2E2E2E2E2E2E2E2E2E2E2E2E2E2E2E2E2E2E2E2E2E2E2E2E2
310
E2E2E2E2E2E2E2E2E2E2E2E2E2E2E2E2E2E2E2E2E2E2E2E2E2E2E2E2E2E2E2E2E2E2E2E2E2E2E2E2E2E2E2E2E2E2E2E2E2E2E2E2E2E2E2E2E2E2E2E2E2E2E2E2E2E2E2E2E2E2E2E2E2E2E2E2E2E2E2E2E2E2E2E2E2E2E2E2E2E2E2E2E2E2E2E2E2E2E2E2E2E2E2E2E2E2E2E2E2E2E2E2E2E2E2E2E2E2E2E2E2E2E2E2E2E2E2
310
E2E2E2E2E2E2E2E2E2E2E2E2E2E2E2E2E2E2E2E2E2E2E2E2E2E2E2E2E2E2E2E2E2E2E2E2E2E2E2E2E2E2E2E2E2E2E2E2E2E2E2E2E2E2E2E2E2E2E2E2E2E2E2E2E2E2E2E2E2E2E2E2E2E2E2E2E2E2E2E2E2E2E2E2E2E2E2E2E2E2E2E2E2E2E2E2E2E2E2E2E2E2E2E2E2E2E2E2E2E2E2E2E2E2E2E2E2E2E2E2E2E2E2E2E2E2E2
310
E2E2E2E2E2E2E2E2E2E2E2E2E2E2E2E2E2E2E2E2E2E2E2E2E2E2E2E2E2E2E2E2E2E2E2E2E2E2E2E2E2E2E2E2E2E2E2E2E2E2E2E2E2E2E2E2E2E2E2E2E2E2E2E2E2E2E2E2E2E2E2E2E2E2E2E2E2E2E2E2E2E2E2E2E2E2E2E2E2E2E2
  0
XRECORD
  5
B71
102
{ACAD_REACTORS
330
46
102
}
330
46
100
AcDbXrecord
280
     1
102
MATERIAL
148
0.0
149
0.0
149
0.0
 93
        0
 94
      127
282
     0
 72
     0
 77
     0
171
     0
175
     0
179
     0
273
     0
  0
XRECORD
  5
47
102
{ACAD_REACTORS
330
46
102
}
330
46
100
AcDbXrecord
280
     1
270
     1
271
     1
  0
XRECORD
  5
48
102
{ACAD_REACTORS
330
46
102
}
330
46
100
AcDbXrecord
280
     1
270
     1
271
     1
  0
XRECORD
  5
49
102
{ACAD_REACTORS
330
46
102
}
330
46
100
AcDbXrecord
280
     1
270
     1
271
     1
  0
XRECORD
  5
4A
102
{ACAD_REACTORS
330
46
102
}
330
46
100
AcDbXrecord
280
     1
270
     1
271
     1
  0
XRECORD
  5
4B
102
{ACAD_REACTORS
330
46
102
}
330
46
100
AcDbXrecord
280
     1
270
     1
271
     1
  0
XRECORD
  5
4C
102
{ACAD_REACTORS
330
46
102
}
330
46
100
AcDbXrecord
280
     1
270
     1
271
     1
  0
XRECORD
  5
B70
102
{ACAD_REACTORS
330
3E
102
}
330
3E
100
AcDbXrecord
280
     1
102
MATERIAL
148
0.0
149
0.0
149
0.0
 93
        0
 94
      127
282
     0
 72
     0
 77
     0
171
     0
175
     0
179
     0
273
     0
  0
XRECORD
  5
3F
102
{ACAD_REACTORS
330
3E
102
}
330
3E
100
AcDbXrecord
280
     1
270
     1
271
     1
  0
XRECORD
  5
40
102
{ACAD_REACTORS
330
3E
102
}
330
3E
100
AcDbXrecord
280
     1
270
     1
271
     1
  0
XRECORD
  5
41
102
{ACAD_REACTORS
330
3E
102
}
330
3E
100
AcDbXrecord
280
     1
270
     1
271
     1
  0
XRECORD
  5
42
102
{ACAD_REACTORS
330
3E
102
}
330
3E
100
AcDbXrecord
280
     1
270
     1
271
     1
  0
XRECORD
  5
43
102
{ACAD_REACTORS
330
3E
102
}
330
3E
100
AcDbXrecord
280
     1
270
     1
271
     1
  0
XRECORD
  5
44
102
{ACAD_REACTORS
330
3E
102
}
330
3E
100
AcDbXrecord
280
     1
270
     1
271
     1
  0
XRECORD
  5
B69
102
{ACAD_REACTORS
330
D
102
}
330
D
100
AcDbXrecord
280
     1
102
MATERIAL
148
0.0
149
0.0
149
0.0
 93
        0
 94
      127
282
     0
 72
     0
 77
     0
171
     0
175
     0
179
     0
273
     0
  0
XRECORD
  5
E
102
{ACAD_REACTORS
330
D
102
}
330
D
100
AcDbXrecord
280
     1
270
     1
271
     1
  0
XRECORD
  5
F
102
{ACAD_REACTORS
330
D
102
}
330
D
100
AcDbXrecord
280
     1
270
     1
271
     1
  0
XRECORD
  5
10
102
{ACAD_REACTORS
330
D
102
}
330
D
100
AcDbXrecord
280
     1
270
     1
271
     1
  0
XRECORD
  5
11
102
{ACAD_REACTORS
330
D
102
}
330
D
100
AcDbXrecord
280
     1
270
     1
271
     1
  0
XRECORD
  5
12
102
{ACAD_REACTORS
330
D
102
}
330
D
100
AcDbXrecord
280
     1
270
     1
271
     1
  0
XRECORD
  5
13
102
{ACAD_REACTORS
330
D
102
}
330
D
100
AcDbXrecord
280
     1
270
     1
271
     1
  0
CELLSTYLEMAP
  5
24AD
102
{ACAD_REACTORS
330
B00
102
}
330
B00
100
AcDbCellStyleMap
 90
        3
300
CELLSTYLE
  1
TABLEFORMAT_BEGIN
 90
        5
170
     1
 91
        0
 92
    32768
 62
   257
 93
        1
300
CONTENTFORMAT
  1
CONTENTFORMAT_BEGIN
 90
        0
 91
        0
 92
        4
 93
        0
300

 40
0.0
140
1.0
 94
        5
 62
     0
340
23
144
6.0
309
CONTENTFORMAT_END
171
     1
301
MARGIN
  1
CELLMARGIN_BEGIN
 40
1.5
 40
1.5
 40
1.5
 40
1.5
 40
0.18
 40
0.18
309
CELLMARGIN_END
 94
        6
 95
        1
302
GRIDFORMAT
  1
GRIDFORMAT_BEGIN
 90
        0
 91
        1
 62
     0
 92
       -2
340
0
 93
        0
 40
0.045
309
GRIDFORMAT_END
 95
        2
302
GRIDFORMAT
  1
GRIDFORMAT_BEGIN
 90
        0
 91
        1
 62
     0
 92
       -2
340
0
 93
        0
 40
0.045
309
GRIDFORMAT_END
 95
        4
302
GRIDFORMAT
  1
GRIDFORMAT_BEGIN
 90
        0
 91
        1
 62
     0
 92
       -2
340
0
 93
        0
 40
0.045
309
GRIDFORMAT_END
 95
        8
302
GRIDFORMAT
  1
GRIDFORMAT_BEGIN
 90
        0
 91
        1
 62
     0
 92
       -2
340
0
 93
        0
 40
0.045
309
GRIDFORMAT_END
 95
       16
302
GRIDFORMAT
  1
GRIDFORMAT_BEGIN
 90
        0
 91
        1
 62
     0
 92
       -2
340
0
 93
        0
 40
0.045
309
GRIDFORMAT_END
 95
       32
302
GRIDFORMAT
  1
GRIDFORMAT_BEGIN
 90
        0
 91
        1
 62
     0
 92
       -2
340
0
 93
        0
 40
0.045
309
GRIDFORMAT_END
309
TABLEFORMAT_END
  1
CELLSTYLE_BEGIN
 90
        1
 91
        1
300
_TITLE
309
CELLSTYLE_END
300
CELLSTYLE
  1
TABLEFORMAT_BEGIN
 90
        5
170
     1
 91
        0
 92
        0
 62
   257
 93
        1
300
CONTENTFORMAT
  1
CONTENTFORMAT_BEGIN
 90
        0
 91
        0
 92
        4
 93
        0
300

 40
0.0
140
1.0
 94
        5
 62
     0
340
23
144
4.5
309
CONTENTFORMAT_END
171
     1
301
MARGIN
  1
CELLMARGIN_BEGIN
 40
1.5
 40
1.5
 40
1.5
 40
1.5
 40
0.18
 40
0.18
309
CELLMARGIN_END
 94
        6
 95
        1
302
GRIDFORMAT
  1
GRIDFORMAT_BEGIN
 90
        0
 91
        1
 62
     0
 92
       -2
340
0
 93
        0
 40
0.045
309
GRIDFORMAT_END
 95
        2
302
GRIDFORMAT
  1
GRIDFORMAT_BEGIN
 90
        0
 91
        1
 62
     0
 92
       -2
340
0
 93
        0
 40
0.045
309
GRIDFORMAT_END
 95
        4
302
GRIDFORMAT
  1
GRIDFORMAT_BEGIN
 90
        0
 91
        1
 62
     0
 92
       -2
340
0
 93
        0
 40
0.045
309
GRIDFORMAT_END
 95
        8
302
GRIDFORMAT
  1
GRIDFORMAT_BEGIN
 90
        0
 91
        1
 62
     0
 92
       -2
340
0
 93
        0
 40
0.045
309
GRIDFORMAT_END
 95
       16
302
GRIDFORMAT
  1
GRIDFORMAT_BEGIN
 90
        0
 91
        1
 62
     0
 92
       -2
340
0
 93
        0
 40
0.045
309
GRIDFORMAT_END
 95
       32
302
GRIDFORMAT
  1
GRIDFORMAT_BEGIN
 90
        0
 91
        1
 62
     0
 92
       -2
340
0
 93
        0
 40
0.045
309
GRIDFORMAT_END
309
TABLEFORMAT_END
  1
CELLSTYLE_BEGIN
 90
        2
 91
        1
300
_HEADER
309
CELLSTYLE_END
300
CELLSTYLE
  1
TABLEFORMAT_BEGIN
 90
        5
170
     1
 91
        0
 92
        0
 62
   257
 93
        1
300
CONTENTFORMAT
  1
CONTENTFORMAT_BEGIN
 90
        0
 91
        0
 92
        4
 93
        0
300

 40
0.0
140
1.0
 94
        2
 62
     0
340
23
144
4.5
309
CONTENTFORMAT_END
171
     1
301
MARGIN
  1
CELLMARGIN_BEGIN
 40
1.5
 40
1.5
 40
1.5
 40
1.5
 40
0.18
 40
0.18
309
CELLMARGIN_END
 94
        6
 95
        1
302
GRIDFORMAT
  1
GRIDFORMAT_BEGIN
 90
        0
 91
        1
 62
     0
 92
       -2
340
0
 93
        0
 40
0.045
309
GRIDFORMAT_END
 95
        2
302
GRIDFORMAT
  1
GRIDFORMAT_BEGIN
 90
        0
 91
        1
 62
     0
 92
       -2
340
0
 93
        0
 40
0.045
309
GRIDFORMAT_END
 95
        4
302
GRIDFORMAT
  1
GRIDFORMAT_BEGIN
 90
        0
 91
        1
 62
     0
 92
       -2
340
0
 93
        0
 40
0.045
309
GRIDFORMAT_END
 95
        8
302
GRIDFORMAT
  1
GRIDFORMAT_BEGIN
 90
        0
 91
        1
 62
     0
 92
       -2
340
0
 93
        0
 40
0.045
309
GRIDFORMAT_END
 95
       16
302
GRIDFORMAT
  1
GRIDFORMAT_BEGIN
 90
        0
 91
        1
 62
     0
 92
       -2
340
0
 93
        0
 40
0.045
309
GRIDFORMAT_END
 95
       32
302
GRIDFORMAT
  1
GRIDFORMAT_BEGIN
 90
        0
 91
        1
 62
     0
 92
       -2
340
0
 93
        0
 40
0.045
309
GRIDFORMAT_END
309
TABLEFORMAT_END
  1
CELLSTYLE_BEGIN
 90
        3
 91
        2
300
_DATA
309
CELLSTYLE_END
  0
XRECORD
  5
24B5
102
{ACAD_REACTORS
330
B00
102
}
330
B00
100
AcDbXrecord
280
     1
102
ACAD_ROUNDTRIP_PRE2007_TABLESTYLE
 90
        4
 91
        0
  1

 92
        4
 93
        0
  2

 94
        4
 95
        0
  3

  0
ENDSEC
  0
EOF
