  0
SECTION
  2
HEADER
  9
$ACADVER
  1
AC1015
  9
$ACADMAINTVER
 70
    20
  9
$DWGCODEPAGE
  3
ANSI_932
  9
$INSBASE
 10
0.0
 20
0.0
 30
0.0
  9
$EXTMIN
 10
7496.687051608422
 20
-425.6157257408664
 30
0.0
  9
$EXTMAX
 10
9444.472748739825
 20
671.3152157103446
 30
0.0
  9
$LIMMIN
 10
0.0
 20
0.0
  9
$LIMMAX
 10
420.0
 20
297.0
  9
$ORTHOMODE
 70
     0
  9
$REGENMODE
 70
     1
  9
$FILLMODE
 70
     1
  9
$QTEXTMODE
 70
     0
  9
$MIRRTEXT
 70
     1
  9
$LTSCALE
 40
1.0
  9
$ATTMODE
 70
     1
  9
$TEXTSIZE
 40
62.5215949741746
  9
$TRACEWID
 40
1.0
  9
$TEXTSTYLE
  7
STANDARD
  9
$CLAYER
  8
SIZE
  9
$CELTYPE
  6
BYLAYER
  9
$CECOLOR
 62
   256
  9
$CELTSCALE
 40
1.0
  9
$DISPSILH
 70
     0
  9
$DIMSCALE
 40
10.0
  9
$DIMASZ
 40
2.0
  9
$DIMEXO
 40
1.0
  9
$DIMDLI
 40
3.75
  9
$DIMRND
 40
0.5
  9
$DIMDLE
 40
0.0
  9
$DIMEXE
 40
1.0
  9
$DIMTP
 40
0.0
  9
$DIMTM
 40
0.0
  9
$DIMTXT
 40
2.0
  9
$DIMCEN
 40
2.5
  9
$DIMTSZ
 40
0.0
  9
$DIMTOL
 70
     0
  9
$DIMLIM
 70
     0
  9
$DIMTIH
 70
     0
  9
$DIMTOH
 70
     0
  9
$DIMSE1
 70
     0
  9
$DIMSE2
 70
     0
  9
$DIMTAD
 70
     1
  9
$DIMZIN
 70
     8
  9
$DIMBLK
  1

  9
$DIMASO
 70
     1
  9
$DIMSHO
 70
     1
  9
$DIMPOST
  1

  9
$DIMAPOST
  1

  9
$DIMALT
 70
     0
  9
$DIMALTD
 70
     4
  9
$DIMALTF
 40
0.0394
  9
$DIMLFAC
 40
1.0
  9
$DIMTOFL
 70
     1
  9
$DIMTVP
 40
0.0
  9
$DIMTIX
 70
     0
  9
$DIMSOXD
 70
     0
  9
$DIMSAH
 70
     1
  9
$DIMBLK1
  1
OPEN30
  9
$DIMBLK2
  1
OPEN30
  9
$DIMSTYLE
  2
STANDARD
  9
$DIMCLRD
 70
     0
  9
$DIMCLRE
 70
     0
  9
$DIMCLRT
 70
     0
  9
$DIMTFAC
 40
1.0
  9
$DIMGAP
 40
1.0
  9
$DIMJUST
 70
     0
  9
$DIMSD1
 70
     0
  9
$DIMSD2
 70
     0
  9
$DIMTOLJ
 70
     1
  9
$DIMTZIN
 70
     8
  9
$DIMALTZ
 70
     0
  9
$DIMALTTZ
 70
     0
  9
$DIMUPT
 70
     0
  9
$DIMDEC
 70
     1
  9
$DIMTDEC
 70
     1
  9
$DIMALTU
 70
     8
  9
$DIMALTTD
 70
     4
  9
$DIMTXSTY
  7
STANDARD
  9
$DIMAUNIT
 70
     0
  9
$DIMADEC
 70
     0
  9
$DIMALTRND
 40
0.0
  9
$DIMAZIN
 70
     0
  9
$DIMDSEP
 70
    46
  9
$DIMATFIT
 70
     3
  9
$DIMFRAC
 70
     0
  9
$DIMLDRBLK
  1
OPEN30
  9
$DIMLUNIT
 70
     2
  9
$DIMLWD
 70
    -2
  9
$DIMLWE
 70
    -2
  9
$DIMTMOVE
 70
     0
  9
$LUNITS
 70
     2
  9
$LUPREC
 70
     2
  9
$SKETCHINC
 40
1.0
  9
$FILLETRAD
 40
10.0
  9
$AUNITS
 70
     0
  9
$AUPREC
 70
     0
  9
$MENU
  1
.
  9
$ELEVATION
 40
0.0
  9
$PELEVATION
 40
0.0
  9
$THICKNESS
 40
0.0
  9
$LIMCHECK
 70
     0
  9
$CHAMFERA
 40
10.0
  9
$CHAMFERB
 40
10.0
  9
$CHAMFERC
 40
20.0
  9
$CHAMFERD
 40
0.0
  9
$SKPOLY
 70
     0
  9
$TDCREATE
 40
2451324.468257373
  9
$TDUCREATE
 40
2451324.093257373
  9
$TDUPDATE
 40
2455894.564709225
  9
$TDUUPDATE
 40
2455894.189709225
  9
$TDINDWG
 40
1.9527481481
  9
$TDUSRTIMER
 40
1.9527472569
  9
$USRTIMER
 70
     1
  9
$ANGBASE
 50
0.0
  9
$ANGDIR
 70
     0
  9
$PDMODE
 70
     0
  9
$PDSIZE
 40
0.0
  9
$PLINEWID
 40
0.0
  9
$SPLFRAME
 70
     0
  9
$SPLINETYPE
 70
     6
  9
$SPLINESEGS
 70
     8
  9
$HANDSEED
  5
2012
  9
$SURFTAB1
 70
     6
  9
$SURFTAB2
 70
     6
  9
$SURFTYPE
 70
     6
  9
$SURFU
 70
     6
  9
$SURFV
 70
     6
  9
$UCSBASE
  2

  9
$UCSNAME
  2

  9
$UCSORG
 10
0.0
 20
0.0
 30
0.0
  9
$UCSXDIR
 10
1.0
 20
0.0
 30
0.0
  9
$UCSYDIR
 10
0.0
 20
1.0
 30
0.0
  9
$UCSORTHOREF
  2

  9
$UCSORTHOVIEW
 70
     0
  9
$UCSORGTOP
 10
0.0
 20
0.0
 30
0.0
  9
$UCSORGBOTTOM
 10
0.0
 20
0.0
 30
0.0
  9
$UCSORGLEFT
 10
0.0
 20
0.0
 30
0.0
  9
$UCSORGRIGHT
 10
0.0
 20
0.0
 30
0.0
  9
$UCSORGFRONT
 10
0.0
 20
0.0
 30
0.0
  9
$UCSORGBACK
 10
0.0
 20
0.0
 30
0.0
  9
$PUCSBASE
  2

  9
$PUCSNAME
  2

  9
$PUCSORG
 10
0.0
 20
0.0
 30
0.0
  9
$PUCSXDIR
 10
1.0
 20
0.0
 30
0.0
  9
$PUCSYDIR
 10
0.0
 20
1.0
 30
0.0
  9
$PUCSORTHOREF
  2

  9
$PUCSORTHOVIEW
 70
     0
  9
$PUCSORGTOP
 10
0.0
 20
0.0
 30
0.0
  9
$PUCSORGBOTTOM
 10
0.0
 20
0.0
 30
0.0
  9
$PUCSORGLEFT
 10
0.0
 20
0.0
 30
0.0
  9
$PUCSORGRIGHT
 10
0.0
 20
0.0
 30
0.0
  9
$PUCSORGFRONT
 10
0.0
 20
0.0
 30
0.0
  9
$PUCSORGBACK
 10
0.0
 20
0.0
 30
0.0
  9
$USERI1
 70
     0
  9
$USERI2
 70
     0
  9
$USERI3
 70
     0
  9
$USERI4
 70
     0
  9
$USERI5
 70
     0
  9
$USERR1
 40
0.0
  9
$USERR2
 40
0.0
  9
$USERR3
 40
0.0
  9
$USERR4
 40
0.0
  9
$USERR5
 40
0.0
  9
$WORLDVIEW
 70
     1
  9
$SHADEDGE
 70
     3
  9
$SHADEDIF
 70
    70
  9
$TILEMODE
 70
     1
  9
$MAXACTVP
 70
    48
  9
$PINSBASE
 10
0.0
 20
0.0
 30
0.0
  9
$PLIMCHECK
 70
     0
  9
$PEXTMIN
 10
-1439.804583653114
 20
-1400.237631316938
 30
0.0
  9
$PEXTMAX
 10
2872.968780515991
 20
1675.790811506817
 30
0.0
  9
$PLIMMIN
 10
0.0
 20
0.0
  9
$PLIMMAX
 10
12.0
 20
9.0
  9
$UNITMODE
 70
     0
  9
$VISRETAIN
 70
     1
  9
$PLINEGEN
 70
     0
  9
$PSLTSCALE
 70
     1
  9
$TREEDEPTH
 70
  3020
  9
$CMLSTYLE
  2
STANDARD
  9
$CMLJUST
 70
     0
  9
$CMLSCALE
 40
20.0
  9
$PROXYGRAPHICS
 70
     1
  9
$MEASUREMENT
 70
     1
  9
$CELWEIGHT
370
    -1
  9
$ENDCAPS
280
     0
  9
$JOINSTYLE
280
     0
  9
$LWDISPLAY
290
     0
  9
$INSUNITS
 70
     0
  9
$HYPERLINKBASE
  1

  9
$STYLESHEET
  1

  9
$XEDIT
290
     1
  9
$CEPSNTYPE
380
     0
  9
$PSTYLEMODE
290
     1
  9
$FINGERPRINTGUID
  2
{7B48495B-9D62-4076-8CB1-8ACA882609AE}
  9
$VERSIONGUID
  2
{1CDEEDAF-00E3-45A8-8B87-BB00A342C363}
  9
$EXTNAMES
290
     1
  9
$PSVPSCALE
 40
0.0
  9
$OLESTARTUP
290
     0
  0
ENDSEC
  0
SECTION
  2
CLASSES
  0
CLASS
  1
ACDBDICTIONARYWDFLT
  2
AcDbDictionaryWithDefault
  3
ObjectDBX Classes
 90
        0
280
     0
281
     0
  0
CLASS
  1
ACDBPLACEHOLDER
  2
AcDbPlaceHolder
  3
ObjectDBX Classes
 90
        0
280
     0
281
     0
  0
CLASS
  1
LAYOUT
  2
AcDbLayout
  3
ObjectDBX Classes
 90
        0
280
     0
281
     0
  0
CLASS
  1
ACME_DOCUMENT
  2
AcMeDbDoc
  3
AcMeServices
 90
     1024
280
     0
281
     0
  0
CLASS
  1
AMGSETTINGSOBJ
  2
AmgSettingsObj
  3
"AcadM|Product Description: AutoCAD Mechanical|Company: Autodesk, Inc."
 90
     1024
280
     0
281
     0
  0
CLASS
  1
ACMESCOPE
  2
AcMeScope
  3
AcMeServices
 90
     1024
280
     0
281
     0
  0
CLASS
  1
ACMECOMMANDHISTORY
  2
AcMeCommandHistory
  3
AcMeServices
 90
     1024
280
     0
281
     0
  0
CLASS
  1
DICTIONARYVAR
  2
AcDbDictionaryVar
  3
ObjectDBX Classes
 90
        0
280
     0
281
     0
  0
CLASS
  1
ACIMSYSVARMAN
  2
AcImSysVarManager
  3
AcMeServices
 90
     1024
280
     0
281
     0
  0
CLASS
  1
ACIMREALSYSVAR
  2
AcImRealSysVar
  3
AcMeServices
 90
     1024
280
     0
281
     0
  0
CLASS
  1
ACIMINTSYSVAR
  2
AcImIntSysVar
  3
AcMeServices
 90
     1024
280
     0
281
     0
  0
CLASS
  1
ACMEDRAWINGMAN
  2
AcMeDrawingMan
  3
AcMeServices
 90
     1024
280
     0
281
     0
  0
CLASS
  1
ACMEVIEW
  2
AcMeView
  3
AcMeServices
 90
     1024
280
     0
281
     0
  0
CLASS
  1
ACDBENTITYCACHE
  2
AcMeEntityCache
  3
AcMeServices
 90
     1024
280
     0
281
     0
  0
CLASS
  1
GSMANAGER
  2
AcMeGSManager
  3
AcMeServices
 90
     1024
280
     0
281
     0
  0
CLASS
  1
AMDTINTERNALREACTOR
  2
AmdtInternalReactor
  3
AcMeServices
 90
     1024
280
     0
281
     0
  0
CLASS
  1
ACMESTATEMGR
  2
AcMeStateMgr
  3
AcMeServices
 90
     1024
280
     0
281
     0
  0
CLASS
  1
ACGREFMASTER
  2
AcGrefMaster
  3
AcAttribServices
 90
     1024
280
     0
281
     0
  0
CLASS
  1
AM_DRAWING_MGR
  2
AcDmDwgMgr
  3
AcMechDwgViewMgmt
 90
     1024
280
     0
281
     0
  0
CLASS
  1
AM_DWG_DOCUMENT
  2
AcDmDwgDocument
  3
AcMechDwgViewMgmt
 90
     1024
280
     0
281
     0
  0
CLASS
  1
AM_DWG_SHEET
  2
AcDmSheet
  3
AcMechDwgViewMgmt
 90
     1024
280
     0
281
     0
  0
CLASS
  1
AM_VIEWDIMPARMAP
  2
AcDmViewDimParMap
  3
AcMechDwgViewMgmt
 90
     1024
280
     0
281
     0
  0
CLASS
  1
AM_DWGMGR_NAME
  2
AcDmDwgMgrName
  3
AcMechDwgViewMgmt
 90
     1024
280
     0
281
     0
  0
CLASS
  1
ACME_DATABASE
  2
AcMeDbDatabase
  3
AcMeServices
 90
     1024
280
     0
281
     0
  0
CLASS
  1
ACRFINSADJUSTERMGR
  2
AcRfInsAdjusterMgr
  3
AcMeServices
 90
     1024
280
     0
281
     0
  0
CLASS
  1
ACGREFACADMASTER
  2
AcGrefacadMaster
  3
AcGrefServices
 90
     1024
280
     0
281
     0
  0
CLASS
  1
AMDTMENUSTATEMGR
  2
AmdtMenuStateMgr
  3
McadcomServices
 90
     1024
280
     0
281
     0
  0
CLASS
  1
AMDTMCOMMENUSTATE
  2
AmdtMcomMenuState
  3
McadcomServices
 90
     1024
280
     0
281
     0
  0
CLASS
  1
AMIMASTER
  2
AmiMaster
  3
AmiServices
 90
     1024
280
     0
281
     0
  0
CLASS
  1
ASAPP
  2
AcAsAppObject
  3
AutoSurfServices
 90
     1024
280
     0
281
     0
  0
CLASS
  1
IM_STATIC_MAN
  2
AcImStaticVarManager
  3
AcMeServices
 90
     1024
280
     0
281
     0
  0
CLASS
  1
ACIMSTRSYSVAR
  2
AcImStrSysVar
  3
AcMeServices
 90
     1024
280
     0
281
     0
  0
CLASS
  1
ACIMDBLSTATICVAR
  2
AcImDblStaticVar
  3
AcMeServices
 90
     1024
280
     0
281
     0
  0
CLASS
  1
ACIMSTRSTATICVAR
  2
AcImStrStaticVar
  3
AcMeServices
 90
     1024
280
     0
281
     0
  0
CLASS
  1
ACIMINTSTATICVAR
  2
AcImIntStaticVar
  3
AcMeServices
 90
     1024
280
     0
281
     0
  0
CLASS
  1
ACASGREFMASTER
  2
AcAsGrefMaster
  3
AutoSurfResolverServices
 90
     1024
280
     0
281
     0
  0
CLASS
  1
ACADGREFMODULE
  2
AcAdGrefModule
  3
AdGrefServices
 90
     1024
280
     0
281
     0
  0
CLASS
  1
AMDTMAPISURFMOUDULE
  2
AmdtMApiSurfModule
  3
MApiSurfServices
 90
    33792
280
     0
281
     0
  0
CLASS
  1
MAPIAMMOUDLE
  2
MApiAmModule
  3
MApiAmServices
 90
     1024
280
     0
281
     0
  0
CLASS
  1
AMDTADMENUSTATE
  2
AmdtAdMenuState
  3
DesignerServices
 90
     1024
280
     0
281
     0
  0
CLASS
  1
ADAPPL
  2
AcAdAppl
  3
DesignerServices
 90
     1024
280
     0
281
     0
  0
CLASS
  1
DEPMGR
  2
AcAdDepMgr
  3
DesignerServices
 90
     1024
280
     0
281
     0
  0
CLASS
  1
PARAMMGR
  2
AcAdParamMgr
  3
DesignerServices
 90
     1024
280
     0
281
     0
  0
CLASS
  1
PARAMSCOPE
  2
AcAdParamScope
  3
DesignerServices
 90
     1024
280
     0
281
     0
  0
CLASS
  1
NAMEDAPPL
  2
AcAdNamedAppl
  3
DesignerServices
 90
     1024
280
     0
281
     0
  0
CLASS
  1
ADHNTMPLT
  2
AdHoleNoteTemplateMgr
  3
DesignerServices
 90
    33792
280
     0
281
     0
  0
CLASS
  1
AM_HNTEMPLATE_MGR_NAME
  2
AdHoleNoteTemplateMgrName
  3
DesignerServices
 90
    33792
280
     0
281
     0
  0
CLASS
  1
AMDTDMMENUSTATE
  2
AmdtDmMenuState
  3
AcMechDwgViewMgmt
 90
     1024
280
     0
281
     0
  0
CLASS
  1
MAPIADMODULE
  2
MApiAdModule
  3
MApiAdServices
 90
     1024
280
     0
281
     0
  0
CLASS
  1
AMDTAMMENUSTATE
  2
AmdtAmMenuState
  3
DesignerAssemblies
 90
     1024
280
     0
281
     0
  0
CLASS
  1
ACAMPROJECT
  2
AcAmProject
  3
DesignerAssemblies
 90
     1024
280
     0
281
     0
  0
CLASS
  1
ACAMGRCOMPDEF
  2
AcAmGrCompDef
  3
DesignerAssemblies
 90
     1024
280
     0
281
     0
  0
CLASS
  1
ACCMCONTEXT
  2
AcCmContext
  3
DesignerAssemblies
 90
     1024
280
     0
281
     0
  0
CLASS
  1
ACAMCOMPDEF
  2
AcAmCompDef
  3
DesignerAssemblies
 90
     1024
280
     0
281
     0
  0
CLASS
  1
ACAMCOMPDEFMGR
  2
AcAmCompDefMgr
  3
DesignerAssemblies
 90
     1024
280
     0
281
     0
  0
CLASS
  1
AMCONTEXTMGR
  2
AcAmContextMgr
  3
DesignerAssemblies
 90
     1024
280
     0
281
     0
  0
CLASS
  1
ACAMCONTEXTMODELER
  2
AcAmContextModeler
  3
DesignerAssemblies
 90
     1024
280
     0
281
     0
  0
CLASS
  1
ACMDATADICTIONARY
  2
AcmDataDictionary
  3
"AcmSymBB|Product Description: AutoCAD Mechanical|Company: Autodesk, Inc."
 90
     1024
280
     0
281
     0
  0
CLASS
  1
ACMDATAENTRYBLOCK
  2
AcmDataEntryBlock
  3
AcmSymBB|Product Description: AutoCAD Mechanical|Company: Autodesk, Inc.
 90
     1024
280
     0
281
     0
  0
CLASS
  1
CATALOGSTATE
  2
AcAmCatalogState
  3
DesignerAssemblies
 90
     1024
280
     0
281
     0
  0
CLASS
  1
ACAMGRCOMPDEFSET
  2
AcAmGrCompDefSet
  3
DesignerAssemblies
 90
     1024
280
     0
281
     0
  0
CLASS
  1
AMDTBROWSERDBTAB
  2
AmdtBrowserDbTab
  3
McadcomServices
 90
     1024
280
     0
281
     0
  0
CLASS
  1
CBROWSERAPPOBJECT
  2
CBrowserAppObject
  3
McadcomServices
 90
     1024
280
     0
281
     0
  0
CLASS
  1
DM_PLACEHOLDER
  2
AcDmSelsetPlaceholder
  3
AcMechDwgViewMgmt
 90
     1024
280
     0
281
     0
  0
CLASS
  1
ACMSTANDARDISO
  2
AcmStandardISO
  3
"Amdt_StdImp|Product Description: AutoCAD Mechanical|Company: Autodesk, Inc."
 90
     1024
280
     0
281
     0
  0
CLASS
  1
AMGOBJPROPCFG
  2
AmgObjPropCfg
  3
"AmgLay|Product Description: AutoCAD Mechanical|Company: Autodesk, Inc."
 90
     1025
280
     0
281
     0
  0
CLASS
  1
AMDTEDGESTANDARDISO
  2
AmdtEdgeStdISO
  3
"Amdt_StdImp|Product Description: AutoCAD Mechanical|Company: Autodesk, Inc."
 90
    33792
280
     0
281
     0
  0
CLASS
  1
ACMSURFSTANDARDISO
  2
AcmSurfTextStdISO
  3
"Amdt_StdImp|Product Description: AutoCAD Mechanical|Company: Autodesk, Inc."
 90
    33792
280
     0
281
     0
  0
CLASS
  1
ACMFCFSTANDARDISO
  2
AcmFCFStdISO
  3
"Amdt_StdImp|Product Description: AutoCAD Mechanical|Company: Autodesk, Inc."
 90
     1024
280
     0
281
     0
  0
CLASS
  1
ACMWELDSTANDARDISO
  2
AcmWeldingStdISO
  3
"Amdt_StdImp|Product Description: AutoCAD Mechanical|Company: Autodesk, Inc."
 90
     1024
280
     0
281
     0
  0
CLASS
  1
ACMIDSTANDARDISO
  2
AcmIdStdISO
  3
"Amdt_StdImp|Product Description: AutoCAD Mechanical|Company: Autodesk, Inc."
 90
     1024
280
     0
281
     0
  0
CLASS
  1
ACMDATUMSTANDARDISO
  2
AcmDatumStdISO
  3
"Amdt_StdImp|Product Description: AutoCAD Mechanical|Company: Autodesk, Inc."
 90
     1024
280
     0
281
     0
  0
CLASS
  1
ACMBOMSTANDARDISO
  2
AcmBOMStdISO
  3
"Amdt_StdImp|Product Description: AutoCAD Mechanical|Company: Autodesk, Inc."
 90
     1024
280
     0
281
     0
  0
CLASS
  1
ACMDETAILSTANDARDISO
  2
AmdtDetailSymStdISO
  3
"Amdt_StdImp|Product Description: AutoCAD Mechanical|Company: Autodesk, Inc."
 90
     1024
280
     0
281
     0
  0
CLASS
  1
ACMSECTIONSTANDARDISO
  2
AmdtSectionSymStdISO
  3
"Amdt_StdImp|Product Description: AutoCAD Mechanical|Company: Autodesk, Inc."
 90
    33792
280
     0
281
     0
  0
CLASS
  1
ACMCENTERLINESTANDARDISO
  2
AmdtCenterLineStdISO
  3
"Amdt_StdImp|Product Description: AutoCAD Mechanical|Company: Autodesk, Inc."
 90
     1024
280
     0
281
     0
  0
CLASS
  1
ACMTHREADLINESTANDARDISO
  2
AmdtThreadLineStdISO
  3
"Amdt_StdImp|Product Description: AutoCAD Mechanical|Company: Autodesk, Inc."
 90
     1024
280
     0
281
     0
  0
CLASS
  1
ACAMGLAYSTD
  2
AcAmgLayStd
  3
"AmgLay|Product Description: AutoCAD Mechanical|Company: Autodesk, Inc."
 90
     1024
280
     0
281
     0
  0
CLASS
  1
ACAMGDIMSTD
  2
AcAmgDimStd
  3
"AmgDim|Product Description: AutoCAD Mechanical|Company: Autodesk, Inc."
 90
     1024
280
     0
281
     0
  0
CLASS
  1
ACAMGTITLESTD
  2
AcAmgTitleStd
  3
"AmgTitle|Product Description: AutoCAD Mechanical|Company: Autodesk, Inc."
 90
     4095
280
     0
281
     0
  0
CLASS
  1
ACAMGFILTERDAT
  2
AcAmgFilterDat
  3
"AcadM|Product Description: AutoCAD Mechanical|Company: Autodesk, Inc."
 90
     1024
280
     0
281
     0
  0
CLASS
  1
AMDTFORMULAUPDATEDISPATCHER
  2
AmdtFormulaUpdateDispatcher
  3
AcMeServices
 90
    33792
280
     0
281
     0
  0
CLASS
  1
LAYER_INDEX
  2
AcDbLayerIndex
  3
ObjectDBX Classes
 90
        0
280
     0
281
     0
  0
CLASS
  1
IDBUFFER
  2
AcDbIdBuffer
  3
ObjectDBX Classes
 90
        0
280
     0
281
     0
  0
CLASS
  1
TABLESTYLE
  2
AcDbTableStyle
  3
ObjectDBX Classes
 90
     4095
280
     0
281
     0
  0
CLASS
  1
ACMNOTESTANDARDISO
  2
AmdtNoteStdISO
  3
"Amdt_StdImp|Product Description: AutoCAD Mechanical|Company: Autodesk, Inc."
 90
     1024
280
     0
281
     0
  0
CLASS
  1
AMDTNOTETEMPLATEDB
  2
AmdtNoteTemplateDB
  3
AcmSymBB|Product Description: AutoCAD Mechanical|Company: Autodesk, Inc.
 90
     1024
280
     0
281
     0
  0
CLASS
  1
ACAMEXTERNALCOMPDEF
  2
AcAmExternalCompDef
  3
DesignerAssemblies
 90
    33792
280
     0
281
     0
  0
CLASS
  1
ACCMBODY
  2
AcCmBody
  3
DesignerAssemblies
 90
    33792
280
     0
281
     0
  0
CLASS
  1
ACAMCOMPENT
  2
AcAmCompEnt
  3
DesignerAssemblies
 90
    33792
280
     0
281
     1
  0
CLASS
  1
ACAMCOMPFEEDBACK
  2
AcAmCompFeedback
  3
DesignerAssemblies
 90
    33792
280
     0
281
     0
  0
CLASS
  1
ACAMCOMP
  2
AcAmComp
  3
DesignerAssemblies
 90
    33792
280
     0
281
     0
  0
CLASS
  1
ACAMCOMPENTCLONE
  2
AcAmCompEntClone
  3
DesignerAssemblies
 90
    33792
280
     0
281
     1
  0
CLASS
  1
ACAMCLONEREACTOR
  2
AcAmGrCompCloneReactor
  3
DesignerAssemblies
 90
    33792
280
     0
281
     0
  0
CLASS
  1
EDGEID
  2
AcAdEdgeId
  3
DesignerServices
 90
    33792
280
     0
281
     0
  0
CLASS
  1
ACADPARTLINEDGRES
  2
AcAdPartLinEdgRes
  3
AdGrefServices
 90
    33792
280
     0
281
     0
  0
CLASS
  1
ACRFINSADJ
  2
AcRfInsAdjuster
  3
AcMeServices
 90
    33792
280
     0
281
     0
  0
CLASS
  1
STREFID
  2
AcAdStraightRefId
  3
DesignerServices
 90
    33792
280
     0
281
     0
  0
CLASS
  1
ACMEAXIS
  2
AcImAxisDisplay
  3
AcMeServices
 90
    33792
280
     0
281
     1
  0
CLASS
  1
FACEID
  2
AcAdFaceId
  3
DesignerServices
 90
    33792
280
     0
281
     0
  0
CLASS
  1
DEPEDGESECONDARYDEPID
  2
AcAdDepEdgeSecondaryDepId
  3
DesignerServices
 90
    33792
280
     0
281
     0
  0
CLASS
  1
ACADPARTPLANARFACERES
  2
AcAdPartPlanarFaceRes
  3
AdGrefServices
 90
    33792
280
     0
281
     0
  0
CLASS
  1
ACMEPOINT
  2
AcImPointDisplay
  3
AcMeServices
 90
    33792
280
     0
281
     1
  0
CLASS
  1
ACMELINEARARROW
  2
AcImLinearArrowDisplay
  3
AcMeServices
 90
    33792
280
     0
281
     1
  0
CLASS
  1
ACAMEXPR
  2
AcAmExpr
  3
DesignerAssemblies
 90
    33792
280
     0
281
     0
  0
CLASS
  1
ACCMDISTPLPL
  2
AcCmDistPlPl
  3
DesignerAssemblies
 90
    33792
280
     0
281
     0
  0
CLASS
  1
ACCMCONSTREACTOR
  2
AcCmConstraintReactor
  3
DesignerAssemblies
 90
    33792
280
     0
281
     0
  0
CLASS
  1
ACCMDISTPTLN
  2
AcCmDistPtLn
  3
DesignerAssemblies
 90
    33792
280
     0
281
     0
  0
CLASS
  1
AM_VIEW_SELECT_FILTER
  2
AcDmSelectViewEntFilter
  3
AcMechDwgViewMgmt
 90
    33792
280
     0
281
     0
  0
CLASS
  1
AM_GREF_PLANE
  2
AcDmGrefPlnDef
  3
AcMechDwgViewMgmt
 90
    33792
280
     0
281
     0
  0
CLASS
  1
AM_GREF_AXIS
  2
AcDmGrefAxisDef
  3
AcMechDwgViewMgmt
 90
    33792
280
     0
281
     0
  0
CLASS
  1
AM_BASE_VIEW_ORIENT
  2
AcDmBaseViewOr
  3
AcMechDwgViewMgmt
 90
    33792
280
     0
281
     0
  0
CLASS
  1
AM_DWG_VIEWPORT
  2
AcDmViewport
  3
AcMechDwgViewMgmt
 90
    33792
280
     0
281
     0
  0
CLASS
  1
AM_VIEW_DISPLAY
  2
AcDmDwgViewDisplay
  3
AcMechDwgViewMgmt
 90
    33792
280
     0
281
     0
  0
CLASS
  1
AM_CLDFLTS
  2
AcDmClDflts
  3
AcMechDwgViewMgmt
 90
    33792
280
     0
281
     0
  0
CLASS
  1
AM_BASE_VIEW
  2
AcDmBaseView
  3
AcMechDwgViewMgmt
 90
    33792
280
     0
281
     0
  0
CLASS
  1
ACMEPLINE
  2
AcImPlineDisplay
  3
AcMeServices
 90
    33792
280
     0
281
     1
  0
CLASS
  1
ACDMPARTVIEWDATA
  2
AcDmPartViewData
  3
AcMechDwgViewMgmt
 90
    33792
280
     0
281
     0
  0
CLASS
  1
ACDMDISPLAYATTRIBS
  2
AcDmDisplayAttribs
  3
AcMechDwgViewMgmt
 90
    33792
280
     0
281
     0
  0
CLASS
  1
ACDMBODYINSTANCEDATA
  2
AcDmBodyInstanceData
  3
AcMechDwgViewMgmt
 90
    33792
280
     0
281
     0
  0
CLASS
  1
ACDMVWEDLINE
  2
AcDmViewEdgeLine
  3
AcMechDwgViewMgmt
 90
    33792
280
     0
281
     1
  0
CLASS
  1
ACDMVWEDARC
  2
AcDmViewEdgeArc
  3
AcMechDwgViewMgmt
 90
    33792
280
     0
281
     1
  0
CLASS
  1
AM_ISO_VIEW_ORIENT
  2
AcDmIsoViewOr
  3
AcMechDwgViewMgmt
 90
    33792
280
     0
281
     0
  0
CLASS
  1
AM_ISO_VIEW
  2
AcDmIsoView
  3
AcMechDwgViewMgmt
 90
    33792
280
     0
281
     0
  0
CLASS
  1
AM_ORTHO_VIEW_ORIENT
  2
AcDmOrthoViewOr
  3
AcMechDwgViewMgmt
 90
    33792
280
     0
281
     0
  0
CLASS
  1
AM_ORTHO_VIEW
  2
AcDmOrthoView
  3
AcMechDwgViewMgmt
 90
    33792
280
     0
281
     0
  0
CLASS
  1
ACAMVIEWREACTOR
  2
AcAmViewReactor
  3
DesignerAssemblies
 90
    33792
280
     0
281
     0
  0
CLASS
  1
AMVIEW
  2
AcAmView
  3
DesignerAssemblies
 90
    33792
280
     0
281
     0
  0
CLASS
  1
ACAMVIEWCONTEXT
  2
AcAmViewContext
  3
DesignerAssemblies
 90
    33792
280
     0
281
     0
  0
CLASS
  1
ACAMCOMPENTVIEW
  2
AcAmCompEntView
  3
DesignerAssemblies
 90
    33792
280
     0
281
     1
  0
CLASS
  1
ACAMCOMPVIEWREACTOR
  2
AcAmGrCompViewReactor
  3
DesignerAssemblies
 90
    33792
280
     0
281
     0
  0
CLASS
  1
ACAMVIEWENTITYFILTER
  2
AcAmViewEntityFilter
  3
DesignerAssemblies
 90
    33792
280
     0
281
     0
  0
CLASS
  1
ACDMVWEDCIRC
  2
AcDmViewEdgeCircle
  3
AcMechDwgViewMgmt
 90
    33792
280
     0
281
     1
  0
CLASS
  1
AM_ADCIRCTRLINE
  2
AcAdBullsEyeCl
  3
DesignerServices
 90
    33792
280
     0
281
     0
  0
CLASS
  1
AM_ADLINCTRLINE
  2
AcAdLineCl
  3
DesignerServices
 90
    33792
280
     0
281
     0
  0
CLASS
  1
ACDMVIEWGEOM
  2
AcDmViewGeometry
  3
AcMechDwgViewMgmt
 90
    33792
280
     0
281
     1
  0
CLASS
  1
ACCMDISTLNLN
  2
AcCmDistLnLn
  3
DesignerAssemblies
 90
    33792
280
     0
281
     0
  0
CLASS
  1
ACAMXREFCONTEXTMODELER
  2
AcAmXrefContextModeler
  3
DesignerAssemblies
 90
    33792
280
     0
281
     0
  0
CLASS
  1
CNRREFID
  2
AcAdCornerId
  3
DesignerServices
 90
    33792
280
     0
281
     0
  0
CLASS
  1
ACADPARTPOINTRES
  2
AcAdPartPointRes
  3
AdGrefServices
 90
    33792
280
     0
281
     0
  0
CLASS
  1
AM_VIEWDIMLINEAR
  2
AcDmViewDimLinear
  3
AcMechDwgViewMgmt
 90
    33792
280
     0
281
     0
  0
CLASS
  1
PARAM
  2
AcAdParam
  3
DesignerServices
 90
    33792
280
     0
281
     0
  0
CLASS
  1
SORTENTSTABLE
  2
AcDbSortentsTable
  3
ObjectDBX Classes
 90
        0
280
     0
281
     0
  0
CLASS
  1
ACADPARTCIRCEDGRES
  2
AcAdPartCircEdgRes
  3
AdGrefServices
 90
    33792
280
     0
281
     0
  0
CLASS
  1
AM_VIEWDIMRADIUS
  2
AcDmViewDimRadius
  3
AcMechDwgViewMgmt
 90
    33792
280
     0
281
     0
  0
CLASS
  1
DEPEDGEPATTERNINSTANCE
  2
AcAdDepEdgePatternInstance
  3
DesignerServices
 90
    33792
280
     0
281
     0
  0
CLASS
  1
FEEDBACK
  2
AcAmFeedback
  3
DesignerAssemblies
 90
    33792
280
     0
281
     1
  0
CLASS
  1
ACAMTRIAXISSYMBOL
  2
AcAmTriAxisSymbol
  3
DesignerAssemblies
 90
    33792
280
     0
281
     0
  0
CLASS
  1
ACAMTEXTCIRCLESYMBOL
  2
AcAmTextCircleSymbol
  3
DesignerAssemblies
 90
    33792
280
     0
281
     0
  0
CLASS
  1
ACDMVISEDIT
  2
AcDmViewEntityVisEdit
  3
AcMechDwgViewMgmt
 90
    33792
280
     0
281
     0
  0
CLASS
  1
SILEDGEID
  2
AcAdSilhouetteEdgeId
  3
DesignerServices
 90
    33792
280
     0
281
     0
  0
CLASS
  1
MATERIAL
  2
AcDbMaterial
  3
ObjectDBX Classes
 90
     1153
280
     0
281
     0
  0
CLASS
  1
VISUALSTYLE
  2
AcDbVisualStyle
  3
ObjectDBX Classes
 90
     4095
280
     0
281
     0
  0
CLASS
  1
SCALE
  2
AcDbScale
  3
ObjectDBX Classes
 90
     1153
280
     0
281
     0
  0
CLASS
  1
MLEADERSTYLE
  2
AcDbMLeaderStyle
  3
ACDB_MLEADERSTYLE_CLASS
 90
     4095
280
     0
281
     0
  0
CLASS
  1
EXACTERMXREFMAP
  2
ExAcTermXrefMap
  3
EXAC_SERVICE
 90
    33793
280
     0
281
     0
  0
CLASS
  1
NPOCOLLECTION
  2
AcDbImpNonPersistentObjectsCollection
  3
ObjectDBX Classes
 90
     1153
280
     0
281
     0
  0
CLASS
  1
ACRFATTGENMGR
  2
AcRfAttGeneralMgr
  3
AcAttribServices
 90
     1024
280
     0
281
     0
  0
CLASS
  1
ACRFOBJATTMGR
  2
AcRfObjAttGroupMgr
  3
AcAttribServices
 90
     1024
280
     0
281
     0
  0
CLASS
  1
ACRFMCADAPIATTHOLDER
  2
AcRfMCADAPIAttHolder
  3
AcAttribServices
 90
     1024
280
     0
281
     0
  0
CLASS
  1
AMDTSYSATTR
  2
AmdtSystemAttribute
  3
AcAttribServices
 90
     1024
280
     0
281
     0
  0
CLASS
  1
ACMTAPERSTANDARDISO
  2
AcmTaperStdISO
  3
"Amdt_StdImp|Product Description: AutoCAD Mechanical|Company: Autodesk, Inc."
 90
     1024
280
     0
281
     0
  0
CLASS
  1
ACMANOOTATIONVIEWSTANDARDISO
  2
AmdtAnViewStdISO
  3
"Amdt_StdImp|Product Description: AutoCAD Mechanical|Company: Autodesk, Inc."
 90
     1024
280
     0
281
     0
  0
CLASS
  1
SOLID_BACKGROUND
  2
AcDbSolidBackground
  3
SCENEOE
 90
     4095
280
     0
281
     0
  0
CLASS
  1
CELLSTYLEMAP
  2
AcDbCellStyleMap
  3
ObjectDBX Classes
 90
     1152
280
     0
281
     0
  0
CLASS
  1
AM_ABS_AXIS
  2
AcDmAbsAxisDef
  3
AcMechDwgViewMgmt
 90
    33792
280
     0
281
     0
  0
CLASS
  1
AM_ABS_PLANE
  2
AcDmAbsPlnDef
  3
AcMechDwgViewMgmt
 90
    33792
280
     0
281
     0
  0
CLASS
  1
MULTILEADER
  2
AcDbMLeader
  3
ACDB_MLEADER_CLASS
 90
     1025
280
     0
281
     1
  0
CLASS
  1
AMDTEDGESTANDARDISO13715
  2
AmdtEdgeStdISO13715
  3
"Amdt_StdImp|Product Description: AutoCAD Mechanical|Company: Autodesk, Inc."
 90
     1024
280
     0
281
     0
  0
CLASS
  1
ACMSURFSTANDARDISO2002
  2
AcmSurfTextStdISO2002
  3
"Amdt_StdImp|Product Description: AutoCAD Mechanical|Company: Autodesk, Inc."
 90
     1024
280
     0
281
     0
  0
CLASS
  1
ACMSECTIONSTANDARDISO2001
  2
AmdtSectionSymStdISO2001
  3
"Amdt_StdImp|Product Description: AutoCAD Mechanical|Company: Autodesk, Inc."
 90
     1024
280
     0
281
     0
  0
CLASS
  1
ACAMGHOLECHARTSTDISO
  2
AcAmgHoleChartStdISO
  3
AmgDim|Product Description: AutoCAD Mechanical|Company: Autodesk, Inc.
 90
     1024
280
     0
281
     0
  0
ENDSEC
  0
SECTION
  2
TABLES
  0
TABLE
  2
VPORT
  5
2A
330
0
100
AcDbSymbolTable
 70
     1
  0
VPORT
  5
BB4
330
2A
100
AcDbSymbolTableRecord
100
AcDbViewportTableRecord
  2
*Active
 70
     0
 10
0.0
 20
0.0
 11
1.0
 21
1.0
 12
0.0
 22
0.0
 13
0.0
 23
0.0
 14
10.0
 24
10.0
 15
10.0
 25
10.0
 16
0.0
 26
0.0
 36
6240.838802681981
 17
8470.6332828243
 27
122.8513350433664
 37
0.0
 40
1103.945690261731
 41
1.956112852664576
 42
50.0
 43
0.0
 44
0.0
 50
0.0
 51
0.0
 71
     0
 72
  2000
 73
     1
 74
     0
 75
     0
 76
     0
 77
     0
 78
     0
281
     4
 65
     0
110
0.0
120
0.0
130
0.0
111
1.0
121
0.0
131
0.0
112
0.0
122
1.0
132
0.0
 79
     0
146
0.0
  0
ENDTAB
  0
TABLE
  2
LTYPE
  5
25
330
0
100
AcDbSymbolTable
 70
    12
  0
LTYPE
  5
26
330
25
100
AcDbSymbolTableRecord
100
AcDbLinetypeTableRecord
  2
BYBLOCK
 70
     0
  3

 72
    65
 73
     0
 40
0.0
  0
LTYPE
  5
27
330
25
100
AcDbSymbolTableRecord
100
AcDbLinetypeTableRecord
  2
BYLAYER
 70
     0
  3

 72
    65
 73
     0
 40
0.0
  0
LTYPE
  5
14
330
25
100
AcDbSymbolTableRecord
100
AcDbLinetypeTableRecord
  2
CONTINUOUS
 70
     0
  3
Solid line
 72
    65
 73
     0
 40
0.0
  0
LTYPE
  5
81
330
25
100
AcDbSymbolTableRecord
100
AcDbLinetypeTableRecord
  2
HIDDEN
 70
     0
  3
Hidden __ __ __ __ __ __ __ __ __ __ __ __ __ _
 72
    65
 73
     2
 40
0.375
 49
0.25
 74
     0
 49
-0.125
 74
     0
  0
LTYPE
  5
624
330
25
100
AcDbSymbolTableRecord
100
AcDbLinetypeTableRecord
  2
AM_ISO08W050
 70
     0
  3
____ . ____ . ____ . ____ . ____ . ____ . ____
 72
    65
 73
     4
 40
18.0
 49
12.0
 74
     0
 49
-1.5
 74
     0
 49
3.0
 74
     0
 49
-1.5
 74
     0
  0
LTYPE
  5
C0A
330
25
100
AcDbSymbolTableRecord
100
AcDbLinetypeTableRecord
  2
DASHDOT
 70
     0
  3
____ _ ____ _ ____ _ ____ _ ____ _ ____ _ ____
 72
    65
 73
     4
 40
5.5
 49
4.0
 74
     0
 49
-0.6
 74
     0
 49
0.3
 74
     0
 49
-0.6
 74
     0
  0
LTYPE
  5
11CF
330
25
100
AcDbSymbolTableRecord
100
AcDbLinetypeTableRecord
  2
PHANTOM2
 70
     0
  3
Phantom (.5x) ___ _ _ ___ _ _ ___ _ _ ___ _ _
 72
    65
 73
     6
 40
31.75
 49
15.875
 74
     0
 49
-3.174999999999998
 74
     0
 49
3.174999999999998
 74
     0
 49
-3.174999999999998
 74
     0
 49
3.174999999999998
 74
     0
 49
-3.174999999999998
 74
     0
  0
LTYPE
  5
11D0
330
25
100
AcDbSymbolTableRecord
100
AcDbLinetypeTableRecord
  2
CENTER
 70
     0
  3
Center ____ _ ____ _ ____ _ ____ _ ____ _ ____
 72
    65
 73
     4
 40
50.8
 49
31.75
 74
     0
 49
-6.349999999999997
 74
     0
 49
6.349999999999997
 74
     0
 49
-6.349999999999997
 74
     0
  0
LTYPE
  5
121E
330
25
100
AcDbSymbolTableRecord
100
AcDbLinetypeTableRecord
  2
ASULTYPE
 70
     0
  3
実線
 72
    65
 73
     2
 40
3.0
 49
2.5
 74
     0
 49
0.5
 74
     0
  0
LTYPE
  5
121F
330
25
100
AcDbSymbolTableRecord
100
AcDbLinetypeTableRecord
  2
ASVLTYPE
 70
     0
  3
__ __ __ __ __ __ __ __ __ __ __ __ __ __ __ __ __ __ __ __ __
 72
    65
 73
     2
 40
0.75
 49
0.5
 74
     0
 49
-0.25
 74
     0
  0
LTYPE
  5
1273
330
25
100
AcDbSymbolTableRecord
100
AcDbLinetypeTableRecord
  2
ACISOWELD
 70
     0
  3
_ _ _ _ _
 72
    65
 73
     2
 40
2.0
 49
2.0
 74
     0
 49
-1.0
 74
     0
  0
LTYPE
  5
1274
330
25
100
AcDbSymbolTableRecord
100
AcDbLinetypeTableRecord
  2
ACISOTGB
 70
     0
  3
__ . . __ . .
 72
    65
 73
     6
 40
9.0
 49
4.0
 74
     0
 49
-1.0
 74
     0
 49
1.0
 74
     0
 49
-1.0
 74
     0
 49
1.0
 74
     0
 49
-1.0
 74
     0
  0
LTYPE
  5
1275
330
25
100
AcDbSymbolTableRecord
100
AcDbLinetypeTableRecord
  2
ACISOTGL
 70
     0
  3
_ _ _ _ _
 72
    65
 73
     2
 40
3.0
 49
2.0
 74
     0
 49
-1.0
 74
     0
  0
LTYPE
  5
1659
330
25
100
AcDbSymbolTableRecord
100
AcDbLinetypeTableRecord
  2
DASHED
 70
     0
  3
Dashed __ __ __ __ __ __ __ __ __ __ __ __ __ _
 72
    65
 73
     2
 40
0.75
 49
0.5
 74
     0
 49
-0.25
 74
     0
  0
ENDTAB
  0
TABLE
  2
LAYER
  5
1F
102
{ACAD_XDICTIONARY
360
20
102
}
330
0
100
AcDbSymbolTable
 70
     8
  0
LAYER
  5
5
102
{ACAD_XDICTIONARY
360
6
102
}
330
1F
100
AcDbSymbolTableRecord
100
AcDbLayerTableRecord
  2
0
 70
     0
 62
     7
  6
CONTINUOUS
370
    -3
390
8
  0
LAYER
  5
B89
330
1F
100
AcDbSymbolTableRecord
100
AcDbLayerTableRecord
  2
Defpoints
 70
     0
 62
     7
  6
CONTINUOUS
290
     0
370
    -3
390
8
  0
LAYER
  5
C0B
102
{ACAD_XDICTIONARY
360
C0C
102
}
330
1F
100
AcDbSymbolTableRecord
100
AcDbLayerTableRecord
  2
SIZE
 70
     0
 62
    30
  6
CONTINUOUS
370
    -3
390
8
  0
LAYER
  5
C0D
102
{ACAD_XDICTIONARY
360
C0E
102
}
330
1F
100
AcDbSymbolTableRecord
100
AcDbLayerTableRecord
  2
OUTLINE
 70
     0
 62
     3
  6
CONTINUOUS
370
    -3
390
8
  0
LAYER
  5
C11
102
{ACAD_XDICTIONARY
360
C12
102
}
330
1F
100
AcDbSymbolTableRecord
100
AcDbLayerTableRecord
  2
BASIS
 70
     0
 62
     6
  6
DASHDOT
370
    -3
390
8
  0
LAYER
  5
C13
102
{ACAD_XDICTIONARY
360
C14
102
}
330
1F
100
AcDbSymbolTableRecord
100
AcDbLayerTableRecord
  2
NOTE
 70
     0
 62
     4
  6
CONTINUOUS
370
    -3
390
8
  0
LAYER
  5
C15
102
{ACAD_XDICTIONARY
360
C16
102
}
330
1F
100
AcDbSymbolTableRecord
100
AcDbLayerTableRecord
  2
ARRANGE
 70
     0
 62
     1
  6
CONTINUOUS
370
    -3
390
8
  0
LAYER
  5
C17
102
{ACAD_XDICTIONARY
360
C18
102
}
330
1F
100
AcDbSymbolTableRecord
100
AcDbLayerTableRecord
  2
ETC
 70
     0
 62
    61
  6
CONTINUOUS
370
    -3
390
8
  0
ENDTAB
  0
TABLE
  2
STYLE
  5
22
330
0
100
AcDbSymbolTable
 70
     4
  0
STYLE
  5
23
330
22
100
AcDbSymbolTableRecord
100
AcDbTextStyleTableRecord
  2
STANDARD
 70
     0
 40
0.0
 41
1.0
 50
0.0
 71
     0
 42
62.5215949741746
  3
romans.shx
  4
extfont.shx
  0
STYLE
  5
C19
330
22
100
AcDbSymbolTableRecord
100
AcDbTextStyleTableRecord
  2
STANDARD1
 70
     0
 40
0.0
 41
1.0
 50
0.0
 71
     0
 42
3.5
  3
MONOTXT
  4
BIGFONT
  0
STYLE
  5
1263
330
22
100
AcDbSymbolTableRecord
100
AcDbTextStyleTableRecord
  2
ACISOTS
 70
     0
 40
1.0
 41
1.0
 50
0.0
 71
     0
 42
62.5215949741746
  3
isocp.shx
  4
extfont.shx
  0
STYLE
  5
1272
330
22
100
AcDbSymbolTableRecord
100
AcDbTextStyleTableRecord
  2
ACISOGDT
 70
     0
 40
0.0
 41
1.0
 50
0.0
 71
     0
 42
62.5215949741746
  3
amgdt.shx
  4

  0
ENDTAB
  0
TABLE
  2
VIEW
  5
28
330
0
100
AcDbSymbolTable
 70
     0
  0
ENDTAB
  0
TABLE
  2
UCS
  5
29
330
0
100
AcDbSymbolTable
 70
     0
  0
ENDTAB
  0
TABLE
  2
APPID
  5
2E
330
0
100
AcDbSymbolTable
 70
    22
  0
APPID
  5
2F
330
2E
100
AcDbSymbolTableRecord
100
AcDbRegAppTableRecord
  2
ACAD
 70
     0
  0
APPID
  5
38
330
2E
100
AcDbSymbolTableRecord
100
AcDbRegAppTableRecord
  2
ACAD_DSTYLE_DIMJOGGED_JOGANGLE_SYMBOL
 70
     0
  0
APPID
  5
7C
330
2E
100
AcDbSymbolTableRecord
100
AcDbRegAppTableRecord
  2
AcAecLayerStandard
 70
     0
  0
APPID
  5
1E
330
2E
100
AcDbSymbolTableRecord
100
AcDbRegAppTableRecord
  2
ACAD_PSEXT
 70
     0
  0
APPID
  5
AFF
330
2E
100
AcDbSymbolTableRecord
100
AcDbRegAppTableRecord
  2
ACATTRIBSERVICES
 70
     0
  0
APPID
  5
B18
330
2E
100
AcDbSymbolTableRecord
100
AcDbRegAppTableRecord
  2
ACAD_MLEADERVER
 70
     0
  0
APPID
  5
B21
330
2E
100
AcDbSymbolTableRecord
100
AcDbRegAppTableRecord
  2
ACAD_EXEMPT_FROM_CAD_STANDARDS
 70
     0
  0
APPID
  5
B5E
330
2E
100
AcDbSymbolTableRecord
100
AcDbRegAppTableRecord
  2
ACAD_DSTYLE_DIMJAG
 70
     0
  0
APPID
  5
B5F
330
2E
100
AcDbSymbolTableRecord
100
AcDbRegAppTableRecord
  2
ACAD_DSTYLE_DIMTALN
 70
     0
  0
APPID
  5
B6F
330
2E
100
AcDbSymbolTableRecord
100
AcDbRegAppTableRecord
  2
ACAD_DSTYLE_DIMEXT_LENGTH
 70
     0
  0
APPID
  5
119B
330
2E
100
AcDbSymbolTableRecord
100
AcDbRegAppTableRecord
  2
GENIUS_GENDIM_13
 70
     0
  0
APPID
  5
119C
330
2E
100
AcDbSymbolTableRecord
100
AcDbRegAppTableRecord
  2
GENIUS_GENDTOL_13
 70
     0
  0
APPID
  5
119D
330
2E
100
AcDbSymbolTableRecord
100
AcDbRegAppTableRecord
  2
GENIUS_GE3DTOL_13
 70
     0
  0
APPID
  5
11A0
330
2E
100
AcDbSymbolTableRecord
100
AcDbRegAppTableRecord
  2
MCAD_NO_VIS
 70
     0
  0
APPID
  5
11A1
330
2E
100
AcDbSymbolTableRecord
100
AcDbRegAppTableRecord
  2
ACAD_TEMP_GRAPHIC
 70
     0
  0
APPID
  5
11D2
330
2E
100
AcDbSymbolTableRecord
100
AcDbRegAppTableRecord
  2
AD_DRAW
 70
     0
  0
APPID
  5
1220
330
2E
100
AcDbSymbolTableRecord
100
AcDbRegAppTableRecord
  2
ASURF_PCURVE_APPNAME
 70
     0
  0
APPID
  5
1225
330
2E
100
AcDbSymbolTableRecord
100
AcDbRegAppTableRecord
  2
AMG_3D2D_5.0
 70
     0
  0
APPID
  5
1256
330
2E
100
AcDbSymbolTableRecord
100
AcDbRegAppTableRecord
  2
DESIGNERASSEMBLIES
 70
     0
  0
APPID
  5
125A
330
2E
100
AcDbSymbolTableRecord
100
AcDbRegAppTableRecord
  2
ACADM_DIM_EDIT
 70
     0
  0
APPID
  5
125B
330
2E
100
AcDbSymbolTableRecord
100
AcDbRegAppTableRecord
  2
AMDT_DM_ADJ
 70
     0
  0
APPID
  5
148B
330
2E
100
AcDbSymbolTableRecord
100
AcDbRegAppTableRecord
  2
ACAD_DSTYLE_DIMARC_LENGTH_SYMBOL
 70
     0
  0
ENDTAB
  0
TABLE
  2
DIMSTYLE
  5
30
330
0
100
AcDbSymbolTable
 70
    10
100
AcDbDimStyleTable
 71
     1
340
31
  0
DIMSTYLE
105
31
102
{ACAD_REACTORS
330
1EDC
330
1EE9
330
1EF8
330
1F05
330
1F12
102
}
330
30
100
AcDbSymbolTableRecord
100
AcDbDimStyleTableRecord
  2
STANDARD
 70
     0
 40
0.0
 41
2.0
 42
1.0
 43
3.75
 44
1.0
 73
     0
 74
     0
 77
     1
 78
     8
140
2.0
141
2.5
143
0.0394
147
1.0
171
     4
172
     1
173
     1
271
     0
272
     0
273
     8
274
     4
284
     8
340
23
341
32
343
32
344
32
1001
ACAD_DSTYLE_DIMEXT_LENGTH
1070
   378
1040
15.0
1001
ACAD_DSTYLE_DIMJOGGED_JOGANGLE_SYMBOL
1070
   384
1040
1.570796326794896
  0
DIMSTYLE
105
1280
330
30
100
AcDbSymbolTableRecord
100
AcDbDimStyleTableRecord
  2
AM_ISO
 70
     0
  4
"
 41
2.5
 42
1.0
 43
10.0
 44
1.0
 47
0.1
 48
0.1
 73
     0
 74
     0
 77
     1
 78
     8
 79
     2
140
3.5
141
0.0
143
0.0393701
146
0.71
147
1.5
172
     1
176
   256
177
   256
178
     2
271
     2
272
     3
274
     4
283
     0
284
     8
340
23
371
    -1
372
    -1
1001
ACAD_DSTYLE_DIMARC_LENGTH_SYMBOL
1070
   379
1070
     1
  0
DIMSTYLE
105
1281
330
30
100
AcDbSymbolTableRecord
100
AcDbDimStyleTableRecord
  2
AM_ISO$3
 70
     0
  4
"
 41
2.5
 42
1.0
 43
10.0
 44
1.0
 47
0.1
 48
0.1
 73
     0
 77
     1
 78
     8
 79
     2
140
3.5
141
0.0
143
0.0393701
146
0.71
147
1.5
176
   256
177
   256
178
     2
271
     2
272
     3
274
     4
283
     0
284
     8
288
     1
289
     0
340
23
371
    -1
372
    -1
1001
ACAD_DSTYLE_DIMARC_LENGTH_SYMBOL
1070
   379
1070
     1
  0
DIMSTYLE
105
1282
330
30
100
AcDbSymbolTableRecord
100
AcDbDimStyleTableRecord
  2
AM_ISO$4
 70
     0
  4
"
 41
2.5
 42
1.0
 43
10.0
 44
1.0
 47
0.1
 48
0.1
 73
     0
 77
     1
 78
     8
 79
     2
140
3.5
141
0.0
143
0.0393701
146
0.71
147
1.5
176
   256
177
   256
178
     2
271
     2
272
     3
274
     4
283
     0
284
     8
288
     1
289
     0
340
23
371
    -1
372
    -1
1001
ACAD_DSTYLE_DIMARC_LENGTH_SYMBOL
1070
   379
1070
     1
  0
DIMSTYLE
105
1283
330
30
100
AcDbSymbolTableRecord
100
AcDbDimStyleTableRecord
  2
AM_ISO$6
 70
     0
  4
"
 41
2.5
 42
1.0
 43
10.0
 44
1.0
 47
0.1
 48
0.1
 73
     0
 74
     0
 78
     8
 79
     2
140
3.5
141
0.0
143
0.0393701
146
0.71
147
1.5
172
     1
176
   256
177
   256
178
     2
271
     2
272
     3
274
     4
283
     0
284
     8
340
23
371
    -1
372
    -1
1001
ACAD_DSTYLE_DIMARC_LENGTH_SYMBOL
1070
   379
1070
     1
  0
DIMSTYLE
105
1284
330
30
100
AcDbSymbolTableRecord
100
AcDbDimStyleTableRecord
  2
AM_ISO$7
 70
     0
  4
"
 41
2.5
 42
1.0
 43
10.0
 44
1.0
 47
0.1
 48
0.1
 73
     0
 74
     0
 77
     1
 78
     8
 79
     2
140
5.0
141
0.0
143
0.0393701
146
0.71
147
1.5
172
     1
176
   256
177
   256
178
     2
271
     2
272
     3
274
     4
283
     0
284
     8
340
23
371
    -1
372
    -1
1001
ACAD_DSTYLE_DIMARC_LENGTH_SYMBOL
1070
   379
1070
     1
  0
DIMSTYLE
105
1285
330
30
100
AcDbSymbolTableRecord
100
AcDbDimStyleTableRecord
  2
AM_ISO$SF
 70
     0
  4
"
 41
2.5
 42
1.0
 43
10.0
 44
1.0
 47
0.1
 48
0.1
 73
     0
 74
     0
 75
     1
 76
     1
 77
     1
 78
     8
 79
     2
140
3.5
141
0.0
143
0.0393701
146
0.71
147
1.5
172
     1
176
   256
177
   256
178
     2
271
     2
272
     3
274
     4
283
     0
284
     8
340
23
371
    -1
372
    -1
1001
ACAD_DSTYLE_DIMARC_LENGTH_SYMBOL
1070
   379
1070
     1
  0
DIMSTYLE
105
128A
330
30
100
AcDbSymbolTableRecord
100
AcDbDimStyleTableRecord
  2
AM_ISO$SH
 70
     0
  4
"
 41
2.5
 42
1.0
 43
10.0
 44
1.0
 47
0.1
 48
0.1
 73
     0
 74
     0
 75
     1
 76
     1
 77
     1
 78
     8
 79
     2
140
3.5
141
0.0
143
0.0393701
144
2.0
146
0.71
147
1.5
172
     1
173
     1
176
   256
177
   256
178
     2
271
     2
272
     3
274
     4
283
     0
284
     8
340
23
343
1286
371
    -1
372
    -1
1001
ACAD_DSTYLE_DIMARC_LENGTH_SYMBOL
1070
   379
1070
     1
  0
DIMSTYLE
105
1292
330
30
100
AcDbSymbolTableRecord
100
AcDbDimStyleTableRecord
  2
STANDARD1
 70
     0
 40
10.0
 41
2.5
 42
0.625
 43
3.75
 44
1.25
 77
     1
 78
     8
140
2.5
141
0.0
147
1.0
173
     1
284
     8
340
23
341
32
343
32
344
32
  0
DIMSTYLE
105
1293
330
30
100
AcDbSymbolTableRecord
100
AcDbDimStyleTableRecord
  2
AM_JIS
 70
     0
  4
"
 40
10.0
 41
2.5
 42
1.0
 43
10.0
 44
1.0
 47
0.1
 48
0.1
 73
     0
 74
     0
 77
     3
 78
     8
 79
     2
140
3.5
141
0.0
143
0.0393701
146
0.71
147
1.5
172
     1
176
   256
177
   256
178
     2
271
     2
272
     3
274
     4
283
     0
284
     8
340
23
341
32
342
32
343
32
344
32
371
    -1
372
    -1
1001
ACAD_DSTYLE_DIMJOGGED_JOGANGLE_SYMBOL
1070
   384
1040
0.7853981633974483
1001
ACAD_DSTYLE_DIMARC_LENGTH_SYMBOL
1070
   379
1070
     1
  0
ENDTAB
  0
TABLE
  2
BLOCK_RECORD
  5
1
330
0
100
AcDbSymbolTable
 70
    20
  0
BLOCK_RECORD
  5
2
102
{ACAD_XDICTIONARY
360
3
102
}
330
1
100
AcDbSymbolTableRecord
100
AcDbBlockTableRecord
  2
*MODEL_SPACE
340
16
  0
BLOCK_RECORD
  5
18
330
1
100
AcDbSymbolTableRecord
100
AcDbBlockTableRecord
  2
*Paper_Space
340
1B
  0
BLOCK_RECORD
  5
32
330
1
100
AcDbSymbolTableRecord
100
AcDbBlockTableRecord
  2
_OPEN30
340
0
102
{BLKREFS
331
1167
331
1168
331
1170
331
1171
331
1179
331
117A
331
144E
331
144F
331
145B
331
145C
331
1468
331
1469
331
19BB
331
19BC
331
19DA
331
19DB
331
19FB
331
19FC
331
1A08
331
1A09
331
1A15
331
1A16
331
1EE3
331
1EE4
331
1EF2
331
1EF3
331
1EFF
331
1F00
331
1F0C
331
1F0D
331
1F19
331
1F1A
102
}
  0
BLOCK_RECORD
  5
B8A
330
1
100
AcDbSymbolTableRecord
100
AcDbBlockTableRecord
  2
*D1
340
0
  0
BLOCK_RECORD
  5
B97
330
1
100
AcDbSymbolTableRecord
100
AcDbBlockTableRecord
  2
*D2
340
0
  0
BLOCK_RECORD
  5
BA4
330
1
100
AcDbSymbolTableRecord
100
AcDbBlockTableRecord
  2
*D3
340
0
  0
BLOCK_RECORD
  5
C05
330
1
100
AcDbSymbolTableRecord
100
AcDbBlockTableRecord
  2
_DOTBLANK
340
0
  0
BLOCK_RECORD
  5
1286
330
1
100
AcDbSymbolTableRecord
100
AcDbBlockTableRecord
  2
GENAXEH
340
0
  0
BLOCK_RECORD
  5
1448
330
1
100
AcDbSymbolTableRecord
100
AcDbBlockTableRecord
  2
*D6
340
0
  0
BLOCK_RECORD
  5
1455
330
1
100
AcDbSymbolTableRecord
100
AcDbBlockTableRecord
  2
*D7
340
0
  0
BLOCK_RECORD
  5
1462
330
1
100
AcDbSymbolTableRecord
100
AcDbBlockTableRecord
  2
*D8
340
0
  0
BLOCK_RECORD
  5
19B5
330
1
100
AcDbSymbolTableRecord
100
AcDbBlockTableRecord
  2
*D9
340
0
  0
BLOCK_RECORD
  5
19C2
330
1
100
AcDbSymbolTableRecord
100
AcDbBlockTableRecord
  2
*D10
340
0
  0
BLOCK_RECORD
  5
19D4
330
1
100
AcDbSymbolTableRecord
100
AcDbBlockTableRecord
  2
*D11
340
0
  0
BLOCK_RECORD
  5
1A02
330
1
100
AcDbSymbolTableRecord
100
AcDbBlockTableRecord
  2
*D12
340
0
  0
BLOCK_RECORD
  5
1A0F
330
1
100
AcDbSymbolTableRecord
100
AcDbBlockTableRecord
  2
*D13
340
0
  0
BLOCK_RECORD
  5
1EDD
330
1
100
AcDbSymbolTableRecord
100
AcDbBlockTableRecord
  2
*D14
340
0
  0
BLOCK_RECORD
  5
1EEA
330
1
100
AcDbSymbolTableRecord
100
AcDbBlockTableRecord
  2
*D15
340
0
  0
BLOCK_RECORD
  5
1EF9
330
1
100
AcDbSymbolTableRecord
100
AcDbBlockTableRecord
  2
*D16
340
0
  0
BLOCK_RECORD
  5
1F06
330
1
100
AcDbSymbolTableRecord
100
AcDbBlockTableRecord
  2
*D17
340
0
  0
BLOCK_RECORD
  5
1F13
330
1
100
AcDbSymbolTableRecord
100
AcDbBlockTableRecord
  2
*D18
340
0
  0
ENDTAB
  0
ENDSEC
  0
SECTION
  2
BLOCKS
  0
BLOCK
  5
4
330
2
100
AcDbEntity
  8
0
100
AcDbBlockBegin
  2
*MODEL_SPACE
 70
     0
 10
0.0
 20
0.0
 30
0.0
  3
*MODEL_SPACE
  1

  0
ENDBLK
  5
15
330
2
100
AcDbEntity
  8
0
100
AcDbBlockEnd
  0
BLOCK
  5
19
330
18
100
AcDbEntity
 67
     1
  8
0
100
AcDbBlockBegin
  2
*Paper_Space
 70
     0
 10
0.0
 20
0.0
 30
0.0
  3
*Paper_Space
  1

  0
ENDBLK
  5
1A
330
18
100
AcDbEntity
 67
     1
  8
0
100
AcDbBlockEnd
  0
BLOCK
  5
33
330
32
100
AcDbEntity
  8
0
100
AcDbBlockBegin
  2
_OPEN30
 70
     0
 10
0.0
 20
0.0
 30
0.0
  3
_OPEN30
  1

  0
LINE
  5
34
330
32
100
AcDbEntity
  8
0
  6
ByBlock
 62
     0
100
AcDbLine
 10
-1.0
 20
0.26794919
 30
0.0
 11
0.0
 21
0.0
 31
0.0
  0
LINE
  5
35
330
32
100
AcDbEntity
  8
0
  6
ByBlock
 62
     0
100
AcDbLine
 10
0.0
 20
0.0
 30
0.0
 11
-1.0
 21
-0.26794919
 31
0.0
  0
LINE
  5
36
330
32
100
AcDbEntity
  8
0
  6
ByBlock
 62
     0
100
AcDbLine
 10
0.0
 20
0.0
 30
0.0
 11
-1.0
 21
0.0
 31
0.0
  0
ENDBLK
  5
37
330
32
100
AcDbEntity
  8
0
100
AcDbBlockEnd
  0
BLOCK
  5
B94
330
B8A
100
AcDbEntity
  8
0
100
AcDbBlockBegin
  2
*D1
 70
     1
 10
0.0
 20
0.0
 30
0.0
  3
*D1
  1

  0
LINE
  5
116D
330
B8A
100
AcDbEntity
  8
SIZE
 62
     0
370
    -2
100
AcDbLine
 10
1931.668780516005
 20
-324.5556583977695
 30
0.0
 11
1931.668780516005
 21
-380.2689857515068
 31
0.0
  0
LINE
  5
116E
330
B8A
100
AcDbEntity
  8
SIZE
 62
     0
370
    -2
100
AcDbLine
 10
2810.668780515992
 20
-324.5556583977944
 30
0.0
 11
2810.668780515992
 21
-380.2689857515068
 31
0.0
  0
LINE
  5
116F
330
B8A
100
AcDbEntity
  8
SIZE
 62
     0
370
    -2
100
AcDbLine
 10
1941.668780516005
 20
-375.2689857515068
 30
0.0
 11
2800.668780515992
 21
-375.2689857515068
 31
0.0
  0
INSERT
  5
1170
330
B8A
100
AcDbEntity
  8
SIZE
 62
     0
370
    -2
100
AcDbBlockReference
  2
_OPEN30
 10
1931.668780516005
 20
-375.2689857515068
 30
0.0
 41
10.0
 42
10.0
 43
10.0
 50
180.0
  0
INSERT
  5
1171
330
B8A
100
AcDbEntity
  8
SIZE
 62
     0
370
    -2
100
AcDbBlockReference
  2
_OPEN30
 10
2810.668780515992
 20
-375.2689857515068
 30
0.0
 41
10.0
 42
10.0
 43
10.0
  0
MTEXT
  5
1172
330
B8A
100
AcDbEntity
  8
SIZE
 62
     0
100
AcDbMText
 10
2371.168780515998
 20
-365.2689857515068
 30
0.0
 40
10.0
 41
0.0
 71
     5
 72
     1
  1
\A1;879
 73
     1
 44
1.0
1001
ACAD
1000
MTEXTBEGIN
1070
    73
1070
     1
1070
    44
1040
1.0
1070
    74
1070
     0
1000
MTEXTEND
  0
POINT
  5
1173
330
B8A
100
AcDbEntity
  8
Defpoints
 62
     0
100
AcDbPoint
 10
1931.668780516005
 20
-319.5556583977695
 30
0.0
  0
POINT
  5
1174
330
B8A
100
AcDbEntity
  8
Defpoints
 62
     0
100
AcDbPoint
 10
2810.668780515992
 20
-319.5556583977944
 30
0.0
  0
POINT
  5
1175
330
B8A
100
AcDbEntity
  8
Defpoints
 62
     0
100
AcDbPoint
 10
2810.668780515992
 20
-375.2689857515068
 30
0.0
  0
ENDBLK
  5
B95
330
B8A
100
AcDbEntity
  8
0
100
AcDbBlockEnd
  0
BLOCK
  5
BA1
330
B97
100
AcDbEntity
  8
0
100
AcDbBlockBegin
  2
*D2
 70
     1
 10
0.0
 20
0.0
 30
0.0
  3
*D2
  1

  0
LINE
  5
1164
330
B97
100
AcDbEntity
  8
SIZE
 62
     0
370
    -2
100
AcDbLine
 10
1915.168780516005
 20
-324.5556583977695
 30
0.0
 11
1915.168780516005
 21
-431.0391847903698
 31
0.0
  0
LINE
  5
1165
330
B97
100
AcDbEntity
  8
SIZE
 62
     0
370
    -2
100
AcDbLine
 10
2827.168780515993
 20
-324.5556583977944
 30
0.0
 11
2827.168780515993
 21
-431.0391847903698
 31
0.0
  0
LINE
  5
1166
330
B97
100
AcDbEntity
  8
SIZE
 62
     0
370
    -2
100
AcDbLine
 10
1925.168780516005
 20
-426.0391847903697
 30
0.0
 11
2817.168780515994
 21
-426.0391847903697
 31
0.0
  0
INSERT
  5
1167
330
B97
100
AcDbEntity
  8
SIZE
 62
     0
370
    -2
100
AcDbBlockReference
  2
_OPEN30
 10
1915.168780516005
 20
-426.0391847903697
 30
0.0
 41
10.0
 42
10.0
 43
10.0
 50
180.0
  0
INSERT
  5
1168
330
B97
100
AcDbEntity
  8
SIZE
 62
     0
370
    -2
100
AcDbBlockReference
  2
_OPEN30
 10
2827.168780515993
 20
-426.0391847903697
 30
0.0
 41
10.0
 42
10.0
 43
10.0
  0
MTEXT
  5
1169
330
B97
100
AcDbEntity
  8
SIZE
 62
     0
100
AcDbMText
 10
2371.168780515999
 20
-416.0391847903698
 30
0.0
 40
10.0
 41
0.0
 71
     5
 72
     1
  1
\A1;912
 73
     1
 44
1.0
1001
ACAD
1000
MTEXTBEGIN
1070
    73
1070
     1
1070
    44
1040
1.0
1070
    74
1070
     0
1000
MTEXTEND
  0
POINT
  5
116A
330
B97
100
AcDbEntity
  8
Defpoints
 62
     0
100
AcDbPoint
 10
1915.168780516005
 20
-319.5556583977695
 30
0.0
  0
POINT
  5
116B
330
B97
100
AcDbEntity
  8
Defpoints
 62
     0
100
AcDbPoint
 10
2827.168780515993
 20
-319.5556583977944
 30
0.0
  0
POINT
  5
116C
330
B97
100
AcDbEntity
  8
Defpoints
 62
     0
100
AcDbPoint
 10
2827.168780515993
 20
-426.0391847903697
 30
0.0
  0
ENDBLK
  5
BA2
330
B97
100
AcDbEntity
  8
0
100
AcDbBlockEnd
  0
BLOCK
  5
BAE
330
BA4
100
AcDbEntity
  8
0
100
AcDbBlockBegin
  2
*D3
 70
     1
 10
0.0
 20
0.0
 30
0.0
  3
*D3
  1

  0
LINE
  5
1176
330
BA4
100
AcDbEntity
  8
SIZE
 62
     0
370
    -2
100
AcDbLine
 10
1910.168780516005
 20
-319.5556583977694
 30
0.0
 11
1876.700263935713
 21
-319.5556583977694
 31
0.0
  0
LINE
  5
1177
330
BA4
100
AcDbEntity
  8
SIZE
 62
     0
370
    -2
100
AcDbLine
 10
1951.168780516006
 20
519.2886459369551
 30
0.0
 11
1876.700263935714
 21
519.2886459369551
 31
0.0
  0
LINE
  5
1178
330
BA4
100
AcDbEntity
  8
SIZE
 62
     0
370
    -2
100
AcDbLine
 10
1881.700263935714
 20
-309.5556583977694
 30
0.0
 11
1881.700263935714
 21
509.2886459369551
 31
0.0
  0
INSERT
  5
1179
330
BA4
100
AcDbEntity
  8
SIZE
 62
     0
370
    -2
100
AcDbBlockReference
  2
_OPEN30
 10
1881.700263935714
 20
-319.5556583977694
 30
0.0
 41
10.0
 42
10.0
 43
10.0
 50
270.0
  0
INSERT
  5
117A
330
BA4
100
AcDbEntity
  8
SIZE
 62
     0
370
    -2
100
AcDbBlockReference
  2
_OPEN30
 10
1881.700263935714
 20
519.2886459369551
 30
0.0
 41
10.0
 42
10.0
 43
10.0
 50
90.0
  0
MTEXT
  5
117B
330
BA4
100
AcDbEntity
  8
SIZE
 62
     0
100
AcDbMText
 10
1871.700263935714
 20
99.8664937695932
 30
0.0
 40
10.0
 41
0.0
 71
     5
 72
     1
  1
\A1;839
 11
0.0000000000000001
 21
1.0
 31
0.0
 73
     1
 44
1.0
1001
ACAD
1000
MTEXTBEGIN
1070
    73
1070
     1
1070
    44
1040
1.0
1070
    74
1070
     0
1000
MTEXTEND
  0
POINT
  5
117C
330
BA4
100
AcDbEntity
  8
Defpoints
 62
     0
100
AcDbPoint
 10
1915.168780516005
 20
-319.5556583977694
 30
0.0
  0
POINT
  5
117D
330
BA4
100
AcDbEntity
  8
Defpoints
 62
     0
100
AcDbPoint
 10
1956.168780516006
 20
519.2886459369551
 30
0.0
  0
POINT
  5
117E
330
BA4
100
AcDbEntity
  8
Defpoints
 62
     0
100
AcDbPoint
 10
1881.700263935714
 20
519.2886459369551
 30
0.0
  0
ENDBLK
  5
BAF
330
BA4
100
AcDbEntity
  8
0
100
AcDbBlockEnd
  0
BLOCK
  5
C06
330
C05
100
AcDbEntity
  8
0
100
AcDbBlockBegin
  2
_DOTBLANK
 70
     0
 10
0.0
 20
0.0
 30
0.0
  3
_DOTBLANK
  1

  0
CIRCLE
  5
C07
330
C05
100
AcDbEntity
  8
0
  6
Continuous
 62
     7
100
AcDbCircle
 10
0.0
 20
0.0
 30
0.0
 40
0.5
  0
LINE
  5
C08
330
C05
100
AcDbEntity
  8
0
  6
Continuous
 62
     7
100
AcDbLine
 10
-0.5
 20
0.0
 30
0.0
 11
-1.0
 21
0.0
 31
0.0
  0
ENDBLK
  5
C09
330
C05
100
AcDbEntity
  8
0
100
AcDbBlockEnd
  0
BLOCK
  5
1288
330
1286
100
AcDbEntity
  8
0
100
AcDbBlockBegin
  2
GENAXEH
 70
     0
 10
0.0
 20
0.0
 30
0.0
  3
GENAXEH
  1

  0
LINE
  5
1287
330
1286
100
AcDbEntity
  8
0
100
AcDbLine
 10
-1.0
 20
0.0
 30
0.0
 11
1.0
 21
0.0
 31
0.0
  0
ENDBLK
  5
1289
330
1286
100
AcDbEntity
  8
0
100
AcDbBlockEnd
  0
BLOCK
  5
1449
330
1448
100
AcDbEntity
  8
0
100
AcDbBlockBegin
  2
*D6
 70
     1
 10
0.0
 20
0.0
 30
0.0
  3
*D6
  1

  0
LINE
  5
144B
330
1448
100
AcDbEntity
  8
SIZE
 62
     0
370
    -2
100
AcDbLine
 10
3276.577915568412
 20
-345.7119700917789
 30
0.0
 11
3276.577915568412
 21
-407.9533044267659
 31
0.0
  0
LINE
  5
144C
330
1448
100
AcDbEntity
  8
SIZE
 62
     0
370
    -2
100
AcDbLine
 10
4152.577915568391
 20
-345.7119700917789
 30
0.0
 11
4152.577915568391
 21
-407.9533044267659
 31
0.0
  0
LINE
  5
144D
330
1448
100
AcDbEntity
  8
SIZE
 62
     0
370
    -2
100
AcDbLine
 10
3296.57791556841
 20
-397.9533044267659
 30
0.0
 11
4132.577915568391
 21
-397.9533044267659
 31
0.0
  0
INSERT
  5
144E
330
1448
100
AcDbEntity
  8
SIZE
 62
     0
370
    -2
100
AcDbBlockReference
  2
_OPEN30
 10
3276.577915568412
 20
-397.9533044267659
 30
0.0
 41
20.0
 42
20.0
 43
20.0
 50
180.0
  0
INSERT
  5
144F
330
1448
100
AcDbEntity
  8
SIZE
 62
     0
370
    -2
100
AcDbBlockReference
  2
_OPEN30
 10
4152.577915568391
 20
-397.9533044267659
 30
0.0
 41
20.0
 42
20.0
 43
20.0
  0
MTEXT
  5
1450
330
1448
100
AcDbEntity
  8
SIZE
 62
     0
100
AcDbMText
 10
3714.577915568401
 20
-377.9533044267659
 30
0.0
 40
20.0
 41
0.0
 71
     5
 72
     1
  1
\A1;876
 73
     1
 44
1.0
1001
ACAD
1000
MTEXTBEGIN
1070
    73
1070
     1
1070
    44
1040
1.0
1070
    74
1070
     0
1000
MTEXTEND
  0
POINT
  5
1451
330
1448
100
AcDbEntity
  8
Defpoints
 62
     0
100
AcDbPoint
 10
3276.577915568412
 20
-335.7119700917789
 30
0.0
  0
POINT
  5
1452
330
1448
100
AcDbEntity
  8
Defpoints
 62
     0
100
AcDbPoint
 10
4152.577915568391
 20
-335.7119700917789
 30
0.0
  0
POINT
  5
1453
330
1448
100
AcDbEntity
  8
Defpoints
 62
     0
100
AcDbPoint
 10
4152.577915568391
 20
-397.9533044267659
 30
0.0
  0
ENDBLK
  5
144A
330
1448
100
AcDbEntity
  8
0
100
AcDbBlockEnd
  0
BLOCK
  5
1456
330
1455
100
AcDbEntity
  8
0
100
AcDbBlockBegin
  2
*D7
 70
     1
 10
0.0
 20
0.0
 30
0.0
  3
*D7
  1

  0
LINE
  5
1458
330
1455
100
AcDbEntity
  8
SIZE
 62
     0
370
    -2
100
AcDbLine
 10
3258.57791556839
 20
-332.2119700917785
 30
0.0
 11
3258.57791556839
 21
-457.1314945482344
 31
0.0
  0
LINE
  5
1459
330
1455
100
AcDbEntity
  8
SIZE
 62
     0
370
    -2
100
AcDbLine
 10
4170.577915568389
 20
-332.2119700917785
 30
0.0
 11
4170.577915568389
 21
-457.1314945482344
 31
0.0
  0
LINE
  5
145A
330
1455
100
AcDbEntity
  8
SIZE
 62
     0
370
    -2
100
AcDbLine
 10
3278.577915568391
 20
-447.1314945482344
 30
0.0
 11
4150.57791556839
 21
-447.1314945482344
 31
0.0
  0
INSERT
  5
145B
330
1455
100
AcDbEntity
  8
SIZE
 62
     0
370
    -2
100
AcDbBlockReference
  2
_OPEN30
 10
3258.57791556839
 20
-447.1314945482344
 30
0.0
 41
20.0
 42
20.0
 43
20.0
 50
180.0
  0
INSERT
  5
145C
330
1455
100
AcDbEntity
  8
SIZE
 62
     0
370
    -2
100
AcDbBlockReference
  2
_OPEN30
 10
4170.577915568389
 20
-447.1314945482344
 30
0.0
 41
20.0
 42
20.0
 43
20.0
  0
MTEXT
  5
145D
330
1455
100
AcDbEntity
  8
SIZE
 62
     0
100
AcDbMText
 10
3714.577915568391
 20
-427.1314945482344
 30
0.0
 40
20.0
 41
0.0
 71
     5
 72
     1
  1
\A1;912
 73
     1
 44
1.0
1001
ACAD
1000
MTEXTBEGIN
1070
    73
1070
     1
1070
    44
1040
1.0
1070
    74
1070
     0
1000
MTEXTEND
  0
POINT
  5
145E
330
1455
100
AcDbEntity
  8
Defpoints
 62
     0
100
AcDbPoint
 10
3258.57791556839
 20
-322.2119700917785
 30
0.0
  0
POINT
  5
145F
330
1455
100
AcDbEntity
  8
Defpoints
 62
     0
100
AcDbPoint
 10
4170.577915568389
 20
-322.2119700917785
 30
0.0
  0
POINT
  5
1460
330
1455
100
AcDbEntity
  8
Defpoints
 62
     0
100
AcDbPoint
 10
4170.577915568389
 20
-447.1314945482344
 30
0.0
  0
ENDBLK
  5
1457
330
1455
100
AcDbEntity
  8
0
100
AcDbBlockEnd
  0
BLOCK
  5
1463
330
1462
100
AcDbEntity
  8
0
100
AcDbBlockBegin
  2
*D8
 70
     1
 10
0.0
 20
0.0
 30
0.0
  3
*D8
  1

  0
LINE
  5
1465
330
1462
100
AcDbEntity
  8
SIZE
 62
     0
370
    -2
100
AcDbLine
 10
3248.577915568392
 20
-322.2119700917785
 30
0.0
 11
3200.16545124475
 21
-322.2119700917785
 31
0.0
  0
LINE
  5
1466
330
1462
100
AcDbEntity
  8
SIZE
 62
     0
370
    -2
100
AcDbLine
 10
3283.077915568392
 20
516.6630582210614
 30
0.0
 11
3200.16545124475
 21
516.6630582210614
 31
0.0
  0
LINE
  5
1467
330
1462
100
AcDbEntity
  8
SIZE
 62
     0
370
    -2
100
AcDbLine
 10
3210.16545124475
 20
-302.2119700917785
 30
0.0
 11
3210.16545124475
 21
496.6630582210613
 31
0.0
  0
INSERT
  5
1468
330
1462
100
AcDbEntity
  8
SIZE
 62
     0
370
    -2
100
AcDbBlockReference
  2
_OPEN30
 10
3210.16545124475
 20
-322.2119700917785
 30
0.0
 41
20.0
 42
20.0
 43
20.0
 50
270.0
  0
INSERT
  5
1469
330
1462
100
AcDbEntity
  8
SIZE
 62
     0
370
    -2
100
AcDbBlockReference
  2
_OPEN30
 10
3210.16545124475
 20
516.6630582210614
 30
0.0
 41
20.0
 42
20.0
 43
20.0
 50
90.0
  0
MTEXT
  5
146A
330
1462
100
AcDbEntity
  8
SIZE
 62
     0
100
AcDbMText
 10
3190.16545124475
 20
97.22554406464196
 30
0.0
 40
20.0
 41
0.0
 71
     5
 72
     1
  1
\A1;839
 11
0.0000000000000001
 21
1.0
 31
0.0
 73
     1
 44
1.0
1001
ACAD
1000
MTEXTBEGIN
1070
    73
1070
     1
1070
    44
1040
1.0
1070
    74
1070
     0
1000
MTEXTEND
  0
POINT
  5
146B
330
1462
100
AcDbEntity
  8
Defpoints
 62
     0
100
AcDbPoint
 10
3258.57791556839
 20
-322.2119700917785
 30
0.0
  0
POINT
  5
146C
330
1462
100
AcDbEntity
  8
Defpoints
 62
     0
100
AcDbPoint
 10
3293.077915568392
 20
516.6630582210614
 30
0.0
  0
POINT
  5
146D
330
1462
100
AcDbEntity
  8
Defpoints
 62
     0
100
AcDbPoint
 10
3210.16545124475
 20
516.6630582210614
 30
0.0
  0
ENDBLK
  5
1464
330
1462
100
AcDbEntity
  8
0
100
AcDbBlockEnd
  0
BLOCK
  5
19B6
330
19B5
100
AcDbEntity
  8
0
100
AcDbBlockBegin
  2
*D9
 70
     1
 10
0.0
 20
0.0
 30
0.0
  3
*D9
  1

  0
LINE
  5
19B8
330
19B5
100
AcDbEntity
  8
SIZE
 62
     0
370
    -2
100
AcDbLine
 10
4693.878956072942
 20
-332.211973673551
 30
0.0
 11
4693.878956072942
 21
-396.8405872373992
 31
0.0
  0
LINE
  5
19B9
330
19B5
100
AcDbEntity
  8
SIZE
 62
     0
370
    -2
100
AcDbLine
 10
5524.878956072949
 20
-332.2119736731838
 30
0.0
 11
5524.878956072949
 21
-396.8405872373992
 31
0.0
  0
LINE
  5
19BA
330
19B5
100
AcDbEntity
  8
SIZE
 62
     0
370
    -2
100
AcDbLine
 10
4713.878956072941
 20
-386.8405872373992
 30
0.0
 11
5504.87895607295
 21
-386.8405872373992
 31
0.0
  0
INSERT
  5
19BB
330
19B5
100
AcDbEntity
  8
SIZE
 62
     0
370
    -2
100
AcDbBlockReference
  2
_OPEN30
 10
4693.878956072942
 20
-386.8405872373992
 30
0.0
 41
20.0
 42
20.0
 43
20.0
 50
180.0
  0
INSERT
  5
19BC
330
19B5
100
AcDbEntity
  8
SIZE
 62
     0
370
    -2
100
AcDbBlockReference
  2
_OPEN30
 10
5524.878956072949
 20
-386.8405872373992
 30
0.0
 41
20.0
 42
20.0
 43
20.0
  0
MTEXT
  5
19BD
330
19B5
100
AcDbEntity
  8
SIZE
 62
     0
100
AcDbMText
 10
5109.378956072944
 20
-366.8405872373992
 30
0.0
 40
20.0
 41
0.0
 71
     5
 72
     1
  1
\A1;831
 73
     1
 44
1.0
1001
ACAD
1000
MTEXTBEGIN
1070
    73
1070
     1
1070
    44
1040
1.0
1070
    74
1070
     0
1000
MTEXTEND
  0
POINT
  5
19BE
330
19B5
100
AcDbEntity
  8
Defpoints
 62
     0
100
AcDbPoint
 10
4693.878956072942
 20
-322.211973673551
 30
0.0
  0
POINT
  5
19BF
330
19B5
100
AcDbEntity
  8
Defpoints
 62
     0
100
AcDbPoint
 10
5524.878956072949
 20
-322.2119736731838
 30
0.0
  0
POINT
  5
19C0
330
19B5
100
AcDbEntity
  8
Defpoints
 62
     0
100
AcDbPoint
 10
5524.878956072949
 20
-386.8405872373992
 30
0.0
  0
ENDBLK
  5
19B7
330
19B5
100
AcDbEntity
  8
0
100
AcDbBlockEnd
  0
BLOCK
  5
19C3
330
19C2
100
AcDbEntity
  8
0
100
AcDbBlockBegin
  2
*D10
 70
     1
 10
0.0
 20
0.0
 30
0.0
  3
*D10
  1

  0
LINE
  5
19F6
330
19C2
100
AcDbEntity
  8
SIZE
 62
     0
370
    -2
100
AcDbLine
 10
5524.878956072949
 20
-332.2119736731838
 30
0.0
 11
5524.878956072949
 21
-396.8405872373992
 31
0.0
  0
LINE
  5
19F7
330
19C2
100
AcDbEntity
  8
SIZE
 62
     0
370
    -2
100
AcDbLine
 10
5573.878956072935
 20
-332.2119736748571
 30
0.0
 11
5573.878956072935
 21
-396.8405872373992
 31
0.0
  0
LINE
  5
19F8
330
19C2
100
AcDbEntity
  8
SIZE
 62
     0
370
    -2
100
AcDbLine
 10
5504.87895607295
 20
-386.8405872373992
 30
0.0
 11
5484.878956072949
 21
-386.8405872373992
 31
0.0
  0
LINE
  5
19F9
330
19C2
100
AcDbEntity
  8
SIZE
 62
     0
370
    -2
100
AcDbLine
 10
5593.878956072934
 20
-386.8405872373992
 30
0.0
 11
5613.878956072935
 21
-386.8405872373992
 31
0.0
  0
LINE
  5
19FA
330
19C2
100
AcDbEntity
  8
SIZE
 62
     0
370
    -2
100
AcDbLine
 10
5524.878956072949
 20
-386.8405872373992
 30
0.0
 11
5573.878956072935
 21
-386.8405872373992
 31
0.0
  0
INSERT
  5
19FB
330
19C2
100
AcDbEntity
  8
SIZE
 62
     0
370
    -2
100
AcDbBlockReference
  2
_OPEN30
 10
5524.878956072949
 20
-386.8405872373992
 30
0.0
 41
20.0
 42
20.0
 43
20.0
  0
INSERT
  5
19FC
330
19C2
100
AcDbEntity
  8
SIZE
 62
     0
370
    -2
100
AcDbBlockReference
  2
_OPEN30
 10
5573.878956072935
 20
-386.8405872373992
 30
0.0
 41
20.0
 42
20.0
 43
20.0
 50
180.0
  0
MTEXT
  5
19FD
330
19C2
100
AcDbEntity
  8
SIZE
 62
     0
100
AcDbMText
 10
5549.378956072942
 20
-366.8405872373992
 30
0.0
 40
20.0
 41
0.0
 71
     5
 72
     1
  1
\A1;49
 73
     1
 44
1.0
1001
ACAD
1000
MTEXTBEGIN
1070
    73
1070
     1
1070
    44
1040
1.0
1070
    74
1070
     0
1000
MTEXTEND
  0
POINT
  5
19FE
330
19C2
100
AcDbEntity
  8
Defpoints
 62
     0
100
AcDbPoint
 10
5524.878956072949
 20
-322.2119736731838
 30
0.0
  0
POINT
  5
19FF
330
19C2
100
AcDbEntity
  8
Defpoints
 62
     0
100
AcDbPoint
 10
5573.878956072935
 20
-322.2119736748571
 30
0.0
  0
POINT
  5
1A00
330
19C2
100
AcDbEntity
  8
Defpoints
 62
     0
100
AcDbPoint
 10
5573.878956072935
 20
-386.8405872373992
 30
0.0
  0
ENDBLK
  5
19C4
330
19C2
100
AcDbEntity
  8
0
100
AcDbBlockEnd
  0
BLOCK
  5
19D5
330
19D4
100
AcDbEntity
  8
0
100
AcDbBlockBegin
  2
*D11
 70
     1
 10
0.0
 20
0.0
 30
0.0
  3
*D11
  1

  0
LINE
  5
19D7
330
19D4
100
AcDbEntity
  8
SIZE
 62
     0
370
    -2
100
AcDbLine
 10
5573.878956072935
 20
-332.2119736748571
 30
0.0
 11
5573.878956072935
 21
-396.8405872373992
 31
0.0
  0
LINE
  5
19D8
330
19D4
100
AcDbEntity
  8
SIZE
 62
     0
370
    -2
100
AcDbLine
 10
6404.878956072946
 20
-332.2119736748571
 30
0.0
 11
6404.878956072946
 21
-396.8405872373992
 31
0.0
  0
LINE
  5
19D9
330
19D4
100
AcDbEntity
  8
SIZE
 62
     0
370
    -2
100
AcDbLine
 10
5593.878956072934
 20
-386.8405872373992
 30
0.0
 11
6384.878956072945
 21
-386.8405872373992
 31
0.0
  0
INSERT
  5
19DA
330
19D4
100
AcDbEntity
  8
SIZE
 62
     0
370
    -2
100
AcDbBlockReference
  2
_OPEN30
 10
5573.878956072935
 20
-386.8405872373992
 30
0.0
 41
20.0
 42
20.0
 43
20.0
 50
180.0
  0
INSERT
  5
19DB
330
19D4
100
AcDbEntity
  8
SIZE
 62
     0
370
    -2
100
AcDbBlockReference
  2
_OPEN30
 10
6404.878956072946
 20
-386.8405872373992
 30
0.0
 41
20.0
 42
20.0
 43
20.0
  0
MTEXT
  5
19DC
330
19D4
100
AcDbEntity
  8
SIZE
 62
     0
100
AcDbMText
 10
5989.37895607294
 20
-366.8405872373992
 30
0.0
 40
20.0
 41
0.0
 71
     5
 72
     1
  1
\A1;831
 73
     1
 44
1.0
1001
ACAD
1000
MTEXTBEGIN
1070
    73
1070
     1
1070
    44
1040
1.0
1070
    74
1070
     0
1000
MTEXTEND
  0
POINT
  5
19DD
330
19D4
100
AcDbEntity
  8
Defpoints
 62
     0
100
AcDbPoint
 10
5573.878956072935
 20
-322.2119736748571
 30
0.0
  0
POINT
  5
19DE
330
19D4
100
AcDbEntity
  8
Defpoints
 62
     0
100
AcDbPoint
 10
6404.878956072946
 20
-322.2119736748571
 30
0.0
  0
POINT
  5
19DF
330
19D4
100
AcDbEntity
  8
Defpoints
 62
     0
100
AcDbPoint
 10
6404.878956072946
 20
-386.8405872373992
 30
0.0
  0
ENDBLK
  5
19D6
330
19D4
100
AcDbEntity
  8
0
100
AcDbBlockEnd
  0
BLOCK
  5
1A03
330
1A02
100
AcDbEntity
  8
0
100
AcDbBlockBegin
  2
*D12
 70
     1
 10
0.0
 20
0.0
 30
0.0
  3
*D12
  1

  0
LINE
  5
1A05
330
1A02
100
AcDbEntity
  8
SIZE
 62
     0
370
    -2
100
AcDbLine
 10
4677.37895607367
 20
-322.211973673544
 30
0.0
 11
4677.37895607367
 21
-451.815202363343
 31
0.0
  0
LINE
  5
1A06
330
1A02
100
AcDbEntity
  8
SIZE
 62
     0
370
    -2
100
AcDbLine
 10
6421.37895607367
 20
-322.2119736737288
 30
0.0
 11
6421.37895607367
 21
-451.815202363343
 31
0.0
  0
LINE
  5
1A07
330
1A02
100
AcDbEntity
  8
SIZE
 62
     0
370
    -2
100
AcDbLine
 10
4697.378956073668
 20
-441.8152023633431
 30
0.0
 11
6401.378956073671
 21
-441.8152023633431
 31
0.0
  0
INSERT
  5
1A08
330
1A02
100
AcDbEntity
  8
SIZE
 62
     0
370
    -2
100
AcDbBlockReference
  2
_OPEN30
 10
4677.37895607367
 20
-441.8152023633431
 30
0.0
 41
20.0
 42
20.0
 43
20.0
 50
180.0
  0
INSERT
  5
1A09
330
1A02
100
AcDbEntity
  8
SIZE
 62
     0
370
    -2
100
AcDbBlockReference
  2
_OPEN30
 10
6421.37895607367
 20
-441.8152023633431
 30
0.0
 41
20.0
 42
20.0
 43
20.0
  0
MTEXT
  5
1A0A
330
1A02
100
AcDbEntity
  8
SIZE
 62
     0
100
AcDbMText
 10
5549.37895607367
 20
-421.8152023633431
 30
0.0
 40
20.0
 41
0.0
 71
     5
 72
     1
  1
\A1;1744
 73
     1
 44
1.0
1001
ACAD
1000
MTEXTBEGIN
1070
    73
1070
     1
1070
    44
1040
1.0
1070
    74
1070
     0
1000
MTEXTEND
  0
POINT
  5
1A0B
330
1A02
100
AcDbEntity
  8
Defpoints
 62
     0
100
AcDbPoint
 10
4677.37895607367
 20
-312.211973673544
 30
0.0
  0
POINT
  5
1A0C
330
1A02
100
AcDbEntity
  8
Defpoints
 62
     0
100
AcDbPoint
 10
6421.37895607367
 20
-312.2119736737289
 30
0.0
  0
POINT
  5
1A0D
330
1A02
100
AcDbEntity
  8
Defpoints
 62
     0
100
AcDbPoint
 10
6421.37895607367
 20
-441.8152023633431
 30
0.0
  0
ENDBLK
  5
1A04
330
1A02
100
AcDbEntity
  8
0
100
AcDbBlockEnd
  0
BLOCK
  5
1A10
330
1A0F
100
AcDbEntity
  8
0
100
AcDbBlockBegin
  2
*D13
 70
     1
 10
0.0
 20
0.0
 30
0.0
  3
*D13
  1

  0
LINE
  5
1A12
330
1A0F
100
AcDbEntity
  8
SIZE
 62
     0
370
    -2
100
AcDbLine
 10
4696.378956073668
 20
526.6630546393058
 30
0.0
 11
4594.751867904106
 21
526.6630546393058
 31
0.0
  0
LINE
  5
1A13
330
1A0F
100
AcDbEntity
  8
SIZE
 62
     0
370
    -2
100
AcDbLine
 10
4667.378956073668
 20
-312.211973673544
 30
0.0
 11
4594.751867904106
 21
-312.211973673544
 31
0.0
  0
LINE
  5
1A14
330
1A0F
100
AcDbEntity
  8
SIZE
 62
     0
370
    -2
100
AcDbLine
 10
4604.751867904106
 20
506.6630546393056
 30
0.0
 11
4604.751867904106
 21
-292.2119736735441
 31
0.0
  0
INSERT
  5
1A15
330
1A0F
100
AcDbEntity
  8
SIZE
 62
     0
370
    -2
100
AcDbBlockReference
  2
_OPEN30
 10
4604.751867904106
 20
526.6630546393058
 30
0.0
 41
20.0
 42
20.0
 43
20.0
 50
90.0
  0
INSERT
  5
1A16
330
1A0F
100
AcDbEntity
  8
SIZE
 62
     0
370
    -2
100
AcDbBlockReference
  2
_OPEN30
 10
4604.751867904106
 20
-312.211973673544
 30
0.0
 41
20.0
 42
20.0
 43
20.0
 50
270.0
  0
MTEXT
  5
1A17
330
1A0F
100
AcDbEntity
  8
SIZE
 62
     0
100
AcDbMText
 10
4584.751867904105
 20
107.2255404828816
 30
0.0
 40
20.0
 41
0.0
 71
     5
 72
     1
  1
\A1;839
 11
0.0000000000000001
 21
1.0
 31
0.0
 73
     1
 44
1.0
1001
ACAD
1000
MTEXTBEGIN
1070
    73
1070
     1
1070
    44
1040
1.0
1070
    74
1070
     0
1000
MTEXTEND
  0
POINT
  5
1A18
330
1A0F
100
AcDbEntity
  8
Defpoints
 62
     0
100
AcDbPoint
 10
4706.378956073669
 20
526.6630546393058
 30
0.0
  0
POINT
  5
1A19
330
1A0F
100
AcDbEntity
  8
Defpoints
 62
     0
100
AcDbPoint
 10
4677.37895607367
 20
-312.211973673544
 30
0.0
  0
POINT
  5
1A1A
330
1A0F
100
AcDbEntity
  8
Defpoints
 62
     0
100
AcDbPoint
 10
4604.751867904106
 20
-312.211973673544
 30
0.0
  0
ENDBLK
  5
1A11
330
1A0F
100
AcDbEntity
  8
0
100
AcDbBlockEnd
  0
BLOCK
  5
1EDE
330
1EDD
100
AcDbEntity
  8
0
100
AcDbBlockBegin
  2
*D14
 70
     1
 10
0.0
 20
0.0
 30
0.0
  3
*D14
  1

  0
LINE
  5
1EE0
330
1EDD
100
AcDbEntity
  8
SIZE
 62
     0
370
    -2
100
AcDbLine
 10
7718.972748739826
 20
-310.2602173203451
 30
0.0
 11
7718.972748739826
 21
-368.5873434378093
 31
0.0
  0
LINE
  5
1EE1
330
1EDD
100
AcDbEntity
  8
SIZE
 62
     0
370
    -2
100
AcDbLine
 10
8547.972748739825
 20
-310.2602173203451
 30
0.0
 11
8547.972748739825
 21
-368.5873434378093
 31
0.0
  0
LINE
  5
1EE2
330
1EDD
100
AcDbEntity
  8
SIZE
 62
     0
370
    -2
100
AcDbLine
 10
7738.972748739826
 20
-358.5873434378092
 30
0.0
 11
8527.972748739825
 21
-358.5873434378092
 31
0.0
  0
INSERT
  5
1EE3
330
1EDD
100
AcDbEntity
  8
SIZE
 62
     0
370
    -2
100
AcDbBlockReference
  2
_OPEN30
 10
7718.972748739826
 20
-358.5873434378092
 30
0.0
 41
20.0
 42
20.0
 43
20.0
 50
180.0
  0
INSERT
  5
1EE4
330
1EDD
100
AcDbEntity
  8
SIZE
 62
     0
370
    -2
100
AcDbBlockReference
  2
_OPEN30
 10
8547.972748739825
 20
-358.5873434378092
 30
0.0
 41
20.0
 42
20.0
 43
20.0
  0
MTEXT
  5
1EE5
330
1EDD
100
AcDbEntity
  8
SIZE
 62
     0
100
AcDbMText
 10
8133.472748739825
 20
-338.5873434378092
 30
0.0
 40
20.0
 41
0.0
 71
     5
 72
     1
  1
\A1;829
 73
     1
 44
1.0
1001
ACAD
1000
MTEXTBEGIN
1070
    73
1070
     1
1070
    44
1040
1.0
1070
    74
1070
     0
1000
MTEXTEND
  0
POINT
  5
1EE6
330
1EDD
100
AcDbEntity
  8
Defpoints
 62
     0
100
AcDbPoint
 10
7718.972748739826
 20
-300.2602173203452
 30
0.0
  0
POINT
  5
1EE7
330
1EDD
100
AcDbEntity
  8
Defpoints
 62
     0
100
AcDbPoint
 10
8547.972748739825
 20
-300.2602173203452
 30
0.0
  0
POINT
  5
1EE8
330
1EDD
100
AcDbEntity
  8
Defpoints
 62
     0
100
AcDbPoint
 10
8547.972748739825
 20
-358.5873434378092
 30
0.0
  0
ENDBLK
  5
1EDF
330
1EDD
100
AcDbEntity
  8
0
100
AcDbBlockEnd
  0
BLOCK
  5
1EEB
330
1EEA
100
AcDbEntity
  8
0
100
AcDbBlockBegin
  2
*D15
 70
     1
 10
0.0
 20
0.0
 30
0.0
  3
*D15
  1

  0
LINE
  5
1EED
330
1EEA
100
AcDbEntity
  8
SIZE
 62
     0
370
    -2
100
AcDbLine
 10
8547.972748739825
 20
-310.2602173203451
 30
0.0
 11
8547.972748739825
 21
-368.5873434378093
 31
0.0
  0
LINE
  5
1EEE
330
1EEA
100
AcDbEntity
  8
SIZE
 62
     0
370
    -2
100
AcDbLine
 10
8598.972748739825
 20
-310.2602173203446
 30
0.0
 11
8598.972748739825
 21
-368.5873434378093
 31
0.0
  0
LINE
  5
1EEF
330
1EEA
100
AcDbEntity
  8
SIZE
 62
     0
370
    -2
100
AcDbLine
 10
8527.972748739825
 20
-358.5873434378092
 30
0.0
 11
8507.972748739824
 21
-358.5873434378092
 31
0.0
  0
LINE
  5
1EF0
330
1EEA
100
AcDbEntity
  8
SIZE
 62
     0
370
    -2
100
AcDbLine
 10
8618.972748739826
 20
-358.5873434378092
 30
0.0
 11
8638.972748739824
 21
-358.5873434378092
 31
0.0
  0
LINE
  5
1EF1
330
1EEA
100
AcDbEntity
  8
SIZE
 62
     0
370
    -2
100
AcDbLine
 10
8547.972748739825
 20
-358.5873434378092
 30
0.0
 11
8598.972748739825
 21
-358.5873434378092
 31
0.0
  0
INSERT
  5
1EF2
330
1EEA
100
AcDbEntity
  8
SIZE
 62
     0
370
    -2
100
AcDbBlockReference
  2
_OPEN30
 10
8547.972748739825
 20
-358.5873434378092
 30
0.0
 41
20.0
 42
20.0
 43
20.0
  0
INSERT
  5
1EF3
330
1EEA
100
AcDbEntity
  8
SIZE
 62
     0
370
    -2
100
AcDbBlockReference
  2
_OPEN30
 10
8598.972748739825
 20
-358.5873434378092
 30
0.0
 41
20.0
 42
20.0
 43
20.0
 50
180.0
  0
MTEXT
  5
1EF4
330
1EEA
100
AcDbEntity
  8
SIZE
 62
     0
100
AcDbMText
 10
8573.472748739824
 20
-338.5873434378092
 30
0.0
 40
20.0
 41
0.0
 71
     5
 72
     1
  1
\A1;51
 73
     1
 44
1.0
1001
ACAD
1000
MTEXTBEGIN
1070
    73
1070
     1
1070
    44
1040
1.0
1070
    74
1070
     0
1000
MTEXTEND
  0
POINT
  5
1EF5
330
1EEA
100
AcDbEntity
  8
Defpoints
 62
     0
100
AcDbPoint
 10
8547.972748739825
 20
-300.2602173203452
 30
0.0
  0
POINT
  5
1EF6
330
1EEA
100
AcDbEntity
  8
Defpoints
 62
     0
100
AcDbPoint
 10
8598.972748739825
 20
-300.2602173203446
 30
0.0
  0
POINT
  5
1EF7
330
1EEA
100
AcDbEntity
  8
Defpoints
 62
     0
100
AcDbPoint
 10
8598.972748739825
 20
-358.5873434378092
 30
0.0
  0
ENDBLK
  5
1EEC
330
1EEA
100
AcDbEntity
  8
0
100
AcDbBlockEnd
  0
BLOCK
  5
1EFA
330
1EF9
100
AcDbEntity
  8
0
100
AcDbBlockBegin
  2
*D16
 70
     1
 10
0.0
 20
0.0
 30
0.0
  3
*D16
  1

  0
LINE
  5
1EFC
330
1EF9
100
AcDbEntity
  8
SIZE
 62
     0
370
    -2
100
AcDbLine
 10
8598.972748739825
 20
-310.2602173203446
 30
0.0
 11
8598.972748739825
 21
-368.5873434378093
 31
0.0
  0
LINE
  5
1EFD
330
1EF9
100
AcDbEntity
  8
SIZE
 62
     0
370
    -2
100
AcDbLine
 10
9427.972748739824
 20
-310.2602173203446
 30
0.0
 11
9427.972748739824
 21
-368.5873434378093
 31
0.0
  0
LINE
  5
1EFE
330
1EF9
100
AcDbEntity
  8
SIZE
 62
     0
370
    -2
100
AcDbLine
 10
8618.972748739826
 20
-358.5873434378092
 30
0.0
 11
9407.972748739824
 21
-358.5873434378092
 31
0.0
  0
INSERT
  5
1EFF
330
1EF9
100
AcDbEntity
  8
SIZE
 62
     0
370
    -2
100
AcDbBlockReference
  2
_OPEN30
 10
8598.972748739825
 20
-358.5873434378092
 30
0.0
 41
20.0
 42
20.0
 43
20.0
 50
180.0
  0
INSERT
  5
1F00
330
1EF9
100
AcDbEntity
  8
SIZE
 62
     0
370
    -2
100
AcDbBlockReference
  2
_OPEN30
 10
9427.972748739824
 20
-358.5873434378092
 30
0.0
 41
20.0
 42
20.0
 43
20.0
  0
MTEXT
  5
1F01
330
1EF9
100
AcDbEntity
  8
SIZE
 62
     0
100
AcDbMText
 10
9013.472748739825
 20
-338.5873434378092
 30
0.0
 40
20.0
 41
0.0
 71
     5
 72
     1
  1
\A1;829
 73
     1
 44
1.0
1001
ACAD
1000
MTEXTBEGIN
1070
    73
1070
     1
1070
    44
1040
1.0
1070
    74
1070
     0
1000
MTEXTEND
  0
POINT
  5
1F02
330
1EF9
100
AcDbEntity
  8
Defpoints
 62
     0
100
AcDbPoint
 10
8598.972748739825
 20
-300.2602173203446
 30
0.0
  0
POINT
  5
1F03
330
1EF9
100
AcDbEntity
  8
Defpoints
 62
     0
100
AcDbPoint
 10
9427.972748739824
 20
-300.2602173203446
 30
0.0
  0
POINT
  5
1F04
330
1EF9
100
AcDbEntity
  8
Defpoints
 62
     0
100
AcDbPoint
 10
9427.972748739824
 20
-358.5873434378092
 30
0.0
  0
ENDBLK
  5
1EFB
330
1EF9
100
AcDbEntity
  8
0
100
AcDbBlockEnd
  0
BLOCK
  5
1F07
330
1F06
100
AcDbEntity
  8
0
100
AcDbBlockBegin
  2
*D17
 70
     1
 10
0.0
 20
0.0
 30
0.0
  3
*D17
  1

  0
LINE
  5
1F09
330
1F06
100
AcDbEntity
  8
SIZE
 62
     0
370
    -2
100
AcDbLine
 10
7702.472748739826
 20
-295.2602173203437
 30
0.0
 11
7702.472748739826
 21
-425.6157257408664
 31
0.0
  0
LINE
  5
1F0A
330
1F06
100
AcDbEntity
  8
SIZE
 62
     0
370
    -2
100
AcDbLine
 10
9444.472748739825
 20
-295.2602173203455
 30
0.0
 11
9444.472748739825
 21
-425.6157257408664
 31
0.0
  0
LINE
  5
1F0B
330
1F06
100
AcDbEntity
  8
SIZE
 62
     0
370
    -2
100
AcDbLine
 10
7722.472748739825
 20
-415.6157257408663
 30
0.0
 11
9424.472748739825
 21
-415.6157257408663
 31
0.0
  0
INSERT
  5
1F0C
330
1F06
100
AcDbEntity
  8
SIZE
 62
     0
370
    -2
100
AcDbBlockReference
  2
_OPEN30
 10
7702.472748739826
 20
-415.6157257408663
 30
0.0
 41
20.0
 42
20.0
 43
20.0
 50
180.0
  0
INSERT
  5
1F0D
330
1F06
100
AcDbEntity
  8
SIZE
 62
     0
370
    -2
100
AcDbBlockReference
  2
_OPEN30
 10
9444.472748739825
 20
-415.6157257408663
 30
0.0
 41
20.0
 42
20.0
 43
20.0
  0
MTEXT
  5
1F0E
330
1F06
100
AcDbEntity
  8
SIZE
 62
     0
100
AcDbMText
 10
8573.472748739824
 20
-395.6157257408664
 30
0.0
 40
20.0
 41
0.0
 71
     5
 72
     1
  1
\A1;1742
 73
     1
 44
1.0
1001
ACAD
1000
MTEXTBEGIN
1070
    73
1070
     1
1070
    44
1040
1.0
1070
    74
1070
     0
1000
MTEXTEND
  0
POINT
  5
1F0F
330
1F06
100
AcDbEntity
  8
Defpoints
 62
     0
100
AcDbPoint
 10
7702.472748739826
 20
-285.2602173203437
 30
0.0
  0
POINT
  5
1F10
330
1F06
100
AcDbEntity
  8
Defpoints
 62
     0
100
AcDbPoint
 10
9444.472748739825
 20
-285.2602173203455
 30
0.0
  0
POINT
  5
1F11
330
1F06
100
AcDbEntity
  8
Defpoints
 62
     0
100
AcDbPoint
 10
9444.472748739825
 20
-415.6157257408663
 30
0.0
  0
ENDBLK
  5
1F08
330
1F06
100
AcDbEntity
  8
0
100
AcDbBlockEnd
  0
BLOCK
  5
1F14
330
1F13
100
AcDbEntity
  8
0
100
AcDbBlockBegin
  2
*D18
 70
     1
 10
0.0
 20
0.0
 30
0.0
  3
*D18
  1

  0
LINE
  5
1F16
330
1F13
100
AcDbEntity
  8
SIZE
 62
     0
370
    -2
100
AcDbLine
 10
7692.472748739826
 20
-285.2602173203437
 30
0.0
 11
7636.704250498438
 21
-285.2602173203437
 31
0.0
  0
LINE
  5
1F17
330
1F13
100
AcDbEntity
  8
SIZE
 62
     0
370
    -2
100
AcDbLine
 10
7733.472748739824
 20
553.5840870143812
 30
0.0
 11
7636.704250498438
 21
553.5840870143812
 31
0.0
  0
LINE
  5
1F18
330
1F13
100
AcDbEntity
  8
SIZE
 62
     0
370
    -2
100
AcDbLine
 10
7646.704250498439
 20
-265.2602173203437
 30
0.0
 11
7646.704250498439
 21
533.5840870143812
 31
0.0
  0
INSERT
  5
1F19
330
1F13
100
AcDbEntity
  8
SIZE
 62
     0
370
    -2
100
AcDbBlockReference
  2
_OPEN30
 10
7646.704250498439
 20
-285.2602173203437
 30
0.0
 41
20.0
 42
20.0
 43
20.0
 50
270.0
  0
INSERT
  5
1F1A
330
1F13
100
AcDbEntity
  8
SIZE
 62
     0
370
    -2
100
AcDbBlockReference
  2
_OPEN30
 10
7646.704250498439
 20
553.5840870143812
 30
0.0
 41
20.0
 42
20.0
 43
20.0
 50
90.0
  0
MTEXT
  5
1F1B
330
1F13
100
AcDbEntity
  8
SIZE
 62
     0
100
AcDbMText
 10
7626.704250498439
 20
134.16193484702
 30
0.0
 40
20.0
 41
0.0
 71
     5
 72
     1
  1
\A1;839
 11
0.0000000000000001
 21
1.0
 31
0.0
 73
     1
 44
1.0
1001
ACAD
1000
MTEXTBEGIN
1070
    73
1070
     1
1070
    44
1040
1.0
1070
    74
1070
     0
1000
MTEXTEND
  0
POINT
  5
1F1C
330
1F13
100
AcDbEntity
  8
Defpoints
 62
     0
100
AcDbPoint
 10
7702.472748739826
 20
-285.2602173203437
 30
0.0
  0
POINT
  5
1F1D
330
1F13
100
AcDbEntity
  8
Defpoints
 62
     0
100
AcDbPoint
 10
7743.472748739823
 20
553.5840870143812
 30
0.0
  0
POINT
  5
1F1E
330
1F13
100
AcDbEntity
  8
Defpoints
 62
     0
100
AcDbPoint
 10
7646.704250498439
 20
553.5840870143812
 30
0.0
  0
ENDBLK
  5
1F15
330
1F13
100
AcDbEntity
  8
0
100
AcDbBlockEnd
  0
ENDSEC
  0
SECTION
  2
ENTITIES
  0
MTEXT
  5
B60
330
2
100
AcDbEntity
  8
ETC
100
AcDbMText
 10
8321.639734434608
 20
671.3152157103444
 30
0.0
 40
40.0
 41
651.9792552343242
 71
     1
 72
     5
  1
AG1T-KK77TD-5
 73
     1
 44
1.0
1001
ACAD
1000
MTEXTBEGIN
1070
    73
1070
     1
1070
    44
1040
1.0
1070
    74
1070
     0
1000
MTEXTEND
  0
MULTILEADER
  5
1A1B
330
2
100
AcDbEntity
  8
NOTE
 92
     1148
310
7C0400001C0000000C00000010000000050000000C00000016000000000000C00C00000013000000112700003C000000060000000200000004E70CAAF3B0BD400329FFD76B4A76C000000000000000007524178197B0BD400329FFD76B4A76C000000000000000000C0000001300000001000000880000001D0000006F1DF2
310
65DC1C3140BA721FE5FBB324C00000000000000000C7B80F06F926BE40BA721FE5FBB324406F1DF265DC1C31400000000000000000250CA3D929D471C00000000000000000000000000000000000000000000034400000000000000000000000000000000000000000000000000000000000000000000000000000F03F0C00
310
000016000000040000C30C00000017000000FDFFFFFF540000002000000002000000000000000000F0BF498A025C1426D13F000000000000000000000000000000000000000000000000000000000000000000000000000000000000000000000000000000000000F03F0C00000016000000040000C30C00000017000000FD
310
FFFFFF540000002000000002000000000000000000000000000000000000000000000000000000000000000000F0BF498A025C1426D1BF000000000000000000000000000000000000000000000000000000000000F03F0C00000016000000040000C30C00000017000000FDFFFFFF54000000200000000200000000000000
310
0000000000000000000000000000000000000000000000000000F0BF0000000000000000000000000000000000000000000000000000000000000000000000000000F03F080000001F0000000C00000016000000000000C00C00000013000000891300003C0000000600000002000000AAC6A929DC15BE40BB07CCB8C97972
310
C0000000000000000004E70CAAF3B0BD400329FFD76B4A76C000000000000000000C000000130000009A3A00003C0000000600000002000000D63C9DE2AF48BD400329FFD76B4A76C000000000000000007424178197B0BD400329FFD76B4A76C000000000000000000C00000016000000000000C00C00000012000000FF7F
310
00000C00000017000000FFFFFFFF0C00000016000000000000C00C00000013000000993A0000AC0000000B000000FB852F07F942BD400229FFD76B0A76C0000000000000000000000000000000000000000000000000000000000000F03F000000000000F03F000000000000000000000000000000003138817E0000410004
310
000000010000000000000000003440000000000000F03F0000000000000000000000000000F03F0000000000000000000000000000000000000000726F6D616E732E7368780000657874666F6E742E73687800B00000000B0000006861E674D445BD40577E542DC11F78C00000000000000000000000000000000000000000
310
00000000000000000000F03F000000000000F03F0000000000000000000000000000000039817E3792B78C8A0003185B08000000010000000000000000003440000000000000F03F0000000000000000000000000000F03F0000000000000000000000000000000000000000726F6D616E732E7368780048657874666F6E74
310
2E73687800
100
AcDbMLeader
300
CONTEXT_DATA{
 40
1.0
 10
7494.687051608422
 20
-344.6513290373989
 30
0.0
 41
20.0
140
20.0
145
2.0
174
     1
175
     6
176
     0
177
     0
290
     1
304
18×\P9×7長穴
 11
0.0
 21
0.0
 31
1.0
340
23
 12
7496.687051608422
 22
-332.6513290373988
 32
0.0
 13
1.0
 23
0.0
 33
0.0
 42
0.0
 43
0.0
 44
0.0
 45
1.0
170
     1
 90
-1073741824
171
     1
172
     5
 91
-1073741824
141
0.0
 92
 12836860
291
     0
292
     0
173
     0
293
     0
142
0.0
143
0.0
294
     0
295
     0
296
     0
110
7718.972748739826
120
-285.2602173203507
130
0.0
111
1.0
121
0.0
131
0.0
112
0.0
122
1.0
132
0.0
297
     0
302
LEADER{
290
     1
291
     1
 10
7600.951813513184
 20
-356.6513290373988
 30
0.0
 11
-1.0
 21
0.0
 31
0.0
 90
        0
 40
0.36
304
LEADER_LINE{
 10
7718.972748739826
 20
-285.2602173203507
 30
0.0
 91
        0
305
}
303
}
301
}
340
B17
 90
 67454208
170
     1
 91
-1056964608
341
26
171
    -2
290
     1
291
     1
 41
0.36
342
32
 42
20.0
172
     2
343
23
173
     1
 95
        6
174
     1
175
     2
 92
-1056964608
292
     0
 93
-1056964608
 10
1.0
 20
1.0
 30
1.0
 43
0.0
176
     0
293
     0
294
     0
178
     0
179
     1
 45
1.0
1001
ACAD_MLEADERVER
1070
     2
  0
ELLIPSE
  5
1D6C
330
2
100
AcDbEntity
  8
OUTLINE
100
AcDbEllipse
 10
7757.472748739826
 20
138.2537104729475
 30
0.0
 11
2.0
 21
0.0
 31
0.0
210
0.0
220
0.0
230
1.0
 40
0.4848548502614739
 41
0.8420283576869334
 42
2.299564295903753
  0
ELLIPSE
  5
1D6D
330
2
100
AcDbEntity
  8
OUTLINE
100
AcDbEllipse
 10
7757.472748739826
 20
139.1283051071503
 30
0.0
 11
-2.0
 21
0.0
 31
0.0
210
0.0
220
0.0
230
1.0
 40
0.4848548502614739
 41
3.281165439567656
 42
6.143612521203893
  0
CIRCLE
  5
1D6E
330
2
100
AcDbEntity
  8
OUTLINE
100
AcDbCircle
 10
7757.472748739826
 20
74.7397826796563
 30
0.0
 40
2.0
  0
ELLIPSE
  5
1D6F
330
2
100
AcDbEntity
  8
OUTLINE
100
AcDbEllipse
 10
7757.472748739826
 20
240.0732290278403
 30
0.0
 11
2.0
 21
0.0
 31
0.0
210
0.0
220
0.0
230
1.0
 40
0.4848548502614739
 41
0.8420283577027078
 42
2.299564295887851
  0
ELLIPSE
  5
1D70
330
2
100
AcDbEntity
  8
OUTLINE
100
AcDbEllipse
 10
7757.472748739826
 20
240.9478236620452
 30
0.0
 11
-2.0
 21
0.0
 31
0.0
210
0.0
220
0.0
230
1.0
 40
0.4848548502614739
 41
3.281165439580814
 42
6.143612521190163
  0
ELLIPSE
  5
1D71
330
2
100
AcDbEntity
  8
OUTLINE
100
AcDbEllipse
 10
7757.472748739826
 20
341.8927475827535
 30
0.0
 11
2.0
 21
0.0
 31
0.0
210
0.0
220
0.0
230
1.0
 40
0.4848548502614739
 41
0.8420283576997434
 42
2.299564295890772
  0
ELLIPSE
  5
1D72
330
2
100
AcDbEntity
  8
OUTLINE
100
AcDbEllipse
 10
7757.472748739826
 20
342.7673422169581
 30
0.0
 11
-2.0
 21
0.0
 31
0.0
210
0.0
220
0.0
230
1.0
 40
0.4848548502614739
 41
3.281165439577676
 42
6.143612521192782
  0
ELLIPSE
  5
1D73
330
2
100
AcDbEntity
  8
OUTLINE
100
AcDbEllipse
 10
7757.472748739826
 20
443.7122661376688
 30
0.0
 11
2.0
 21
0.0
 31
0.0
210
0.0
220
0.0
230
1.0
 40
0.4848548502614739
 41
0.8420283576946301
 42
2.299564295895808
  0
ELLIPSE
  5
1D74
330
2
100
AcDbEntity
  8
OUTLINE
100
AcDbEllipse
 10
7757.472748739826
 20
444.5868607718717
 30
0.0
 11
-2.0
 21
0.0
 31
0.0
210
0.0
220
0.0
230
1.0
 40
0.4848548502614739
 41
3.281165439574746
 42
6.14361252119566
  0
CIRCLE
  5
1D75
330
2
100
AcDbEntity
  8
OUTLINE
100
AcDbCircle
 10
7757.472748739826
 20
-80.2602173203437
 30
0.0
 40
2.0
  0
CIRCLE
  5
1D76
330
2
100
AcDbEntity
  8
OUTLINE
100
AcDbCircle
 10
7757.472748739826
 20
-245.2602173203437
 30
0.0
 40
2.0
  0
ELLIPSE
  5
1D77
330
2
100
AcDbEntity
  8
OUTLINE
100
AcDbEllipse
 10
7757.472748739826
 20
546.4063793267778
 30
0.0
 11
-2.0
 21
0.0
 31
0.0
210
0.0
220
0.0
230
1.0
 40
0.4848548502614739
 41
3.281165439577622
 42
6.143612521192271
  0
ELLIPSE
  5
1D78
330
2
100
AcDbEntity
  8
OUTLINE
100
AcDbEllipse
 10
7757.472748739826
 20
545.5317846925762
 30
0.0
 11
2.0
 21
0.0
 31
0.0
210
0.0
220
0.0
230
1.0
 40
0.4848548502614739
 41
0.8420283576966149
 42
2.299564295893266
  0
LINE
  5
1D79
330
2
100
AcDbEntity
  8
OUTLINE
100
AcDbLine
 10
7743.472748739826
 20
-285.2602173203437
 30
0.0
 11
7702.472748739826
 21
-285.2602173203437
 31
0.0
  0
LINE
  5
1D7A
330
2
100
AcDbEntity
  8
OUTLINE
100
AcDbLine
 10
7702.472748739826
 20
-284.2602173203437
 30
0.0
 11
7742.472748739825
 21
-284.2602173203437
 31
0.0
  0
LINE
  5
1D7B
330
2
100
AcDbEntity
  8
OUTLINE
100
AcDbLine
 10
7743.472748739826
 20
-285.2602173203437
 30
0.0
 11
7743.472748739826
 21
-284.2602173203437
 31
0.0
  0
LINE
  5
1D7C
330
2
100
AcDbEntity
  8
OUTLINE
100
AcDbLine
 10
7702.472748739826
 20
-285.2602173203437
 30
0.0
 11
7702.472748739826
 21
-284.2602173203437
 31
0.0
  0
LINE
  5
1D7D
330
2
100
AcDbEntity
  8
OUTLINE
100
AcDbLine
 10
7747.472748739825
 20
-284.2602173203437
 30
0.0
 11
7742.472748739825
 21
-284.2602173203437
 31
0.0
  0
LINE
  5
1D7E
330
2
100
AcDbEntity
  8
OUTLINE
100
AcDbLine
 10
7743.472748739823
 20
551.7397826796559
 30
0.0
 11
7742.472748739825
 21
551.7397826796559
 31
0.0
  0
LINE
  5
1D7F
330
2
100
AcDbEntity
  8
OUTLINE
100
AcDbLine
 10
7742.472748739825
 20
551.7397826796559
 30
0.0
 11
7742.472748739825
 21
133.7397826796563
 31
0.0
  0
LINE
  5
1D80
330
2
100
AcDbEntity
  8
OUTLINE
100
AcDbLine
 10
7748.272838446904
 20
133.7397826796563
 30
0.0
 11
7742.472748739825
 21
133.7397826796563
 31
0.0
  0
LINE
  5
1D81
330
2
100
AcDbEntity
  8
OUTLINE
100
AcDbLine
 10
7742.472748739825
 20
133.7397826796563
 30
0.0
 11
7742.472748739825
 21
-284.2602173203437
 31
0.0
  0
LINE
  5
1D82
330
2
100
AcDbEntity
  8
OUTLINE
100
AcDbLine
 10
7772.472748739826
 20
133.642855204518
 30
0.0
 11
7772.472748739826
 21
132.1507376632352
 31
0.0
  0
ELLIPSE
  5
1D83
330
2
100
AcDbEntity
  8
OUTLINE
100
AcDbEllipse
 10
8559.472748739825
 20
546.40637932678
 30
0.0
 11
-2.25
 21
0.0
 31
0.0
210
0.0
220
0.0
230
1.0
 40
0.4848548502614734
 41
3.398982001956936
 42
6.025795958813207
  0
ELLIPSE
  5
1D84
330
2
100
AcDbEntity
  8
OUTLINE
100
AcDbEllipse
 10
8559.472748739825
 20
444.5868607718706
 30
0.0
 11
-2.25
 21
0.0
 31
0.0
210
0.0
220
0.0
230
1.0
 40
0.4848548502614734
 41
3.398982001956693
 42
6.025795958813669
  0
ELLIPSE
  5
1D85
330
2
100
AcDbEntity
  8
OUTLINE
100
AcDbEllipse
 10
8559.472748739825
 20
342.7673422169613
 30
0.0
 11
-2.25
 21
0.0
 31
0.0
210
0.0
220
0.0
230
1.0
 40
0.4848548502614734
 41
3.398982001956473
 42
6.025795958814377
  0
ELLIPSE
  5
1D86
330
2
100
AcDbEntity
  8
OUTLINE
100
AcDbEllipse
 10
8559.472748739825
 20
240.9478236620517
 30
0.0
 11
-2.25
 21
0.0
 31
0.0
210
0.0
220
0.0
230
1.0
 40
0.4848548502614734
 41
3.398982001956693
 42
6.025795958814621
  0
ELLIPSE
  5
1D87
330
2
100
AcDbEntity
  8
OUTLINE
100
AcDbEllipse
 10
8559.472748739825
 20
139.1283051071422
 30
0.0
 11
-2.25
 21
0.0
 31
0.0
210
0.0
220
0.0
230
1.0
 40
0.4848548502614734
 41
3.39898200195623
 42
6.02579595881513
  0
ELLIPSE
  5
1D88
330
2
100
AcDbEntity
  8
OUTLINE
100
AcDbEllipse
 10
8559.472748739825
 20
138.2537104729384
 30
0.0
 11
2.25
 21
0.0
 31
0.0
210
0.0
220
0.0
230
1.0
 40
0.4848548502613886
 41
0.8162090309340348
 42
2.325383622656857
  0
ELLIPSE
  5
1D89
330
2
100
AcDbEntity
  8
OUTLINE
100
AcDbEllipse
 10
8559.472748739825
 20
240.073229027848
 30
0.0
 11
2.25
 21
0.0
 31
0.0
210
0.0
220
0.0
230
1.0
 40
0.4848548502613886
 41
0.8162090309344842
 42
2.325383622656106
  0
ELLIPSE
  5
1D8A
330
2
100
AcDbEntity
  8
OUTLINE
100
AcDbEllipse
 10
8559.472748739825
 20
341.8927475827573
 30
0.0
 11
2.25
 21
0.0
 31
0.0
210
0.0
220
0.0
230
1.0
 40
0.4848548502613886
 41
0.8162090309347124
 42
2.325383622655698
  0
ELLIPSE
  5
1D8B
330
2
100
AcDbEntity
  8
OUTLINE
100
AcDbEllipse
 10
8559.472748739825
 20
443.7122661376666
 30
0.0
 11
2.25
 21
0.0
 31
0.0
210
0.0
220
0.0
230
1.0
 40
0.4848548502613886
 41
0.8162090309350878
 42
2.325383622655201
  0
ELLIPSE
  5
1D8C
330
2
100
AcDbEntity
  8
OUTLINE
100
AcDbEllipse
 10
8559.472748739825
 20
545.531784692576
 30
0.0
 11
2.25
 21
0.0
 31
0.0
210
0.0
220
0.0
230
1.0
 40
0.4848548502613886
 41
0.8162090309353896
 42
2.325383622655019
  0
CIRCLE
  5
1D8D
330
2
100
AcDbEntity
  8
OUTLINE
100
AcDbCircle
 10
8559.472748739825
 20
74.73978267965674
 30
0.0
 40
2.25
  0
CIRCLE
  5
1D8E
330
2
100
AcDbEntity
  8
OUTLINE
100
AcDbCircle
 10
8559.472748739825
 20
-80.26021732034326
 30
0.0
 40
2.25
  0
CIRCLE
  5
1D8F
330
2
100
AcDbEntity
  8
OUTLINE
100
AcDbCircle
 10
8559.472748739825
 20
-245.2602173203433
 30
0.0
 40
2.25
  0
LINE
  5
1D90
330
2
100
AcDbEntity
  8
OUTLINE
100
AcDbLine
 10
8573.472748739824
 20
-285.2602173203433
 30
0.0
 11
8572.472748739825
 21
-285.2602173203433
 31
0.0
  0
LINE
  5
1D91
330
2
100
AcDbEntity
  8
OUTLINE
100
AcDbLine
 10
8572.472748739825
 20
-285.2602173203433
 30
0.0
 11
8568.472748739825
 21
-285.2602173203433
 31
0.0
  0
LINE
  5
1D92
330
2
100
AcDbEntity
  8
OUTLINE
100
AcDbLine
 10
8545.472748739824
 20
132.7397826796567
 30
0.0
 11
8545.472748739824
 21
133.642855204518
 31
0.0
  0
LINE
  5
1D93
330
2
100
AcDbEntity
  8
OUTLINE
100
AcDbLine
 10
8544.472748739826
 20
132.7397826796567
 30
0.0
 11
8544.472748739826
 21
133.642855204518
 31
0.0
  0
LINE
  5
1D94
330
2
100
AcDbEntity
  8
OUTLINE
100
AcDbLine
 10
8545.472748739824
 20
132.7397826796563
 30
0.0
 11
8544.472748739826
 21
132.7397826796563
 31
0.0
  0
LINE
  5
1D95
330
2
100
AcDbEntity
  8
OUTLINE
100
AcDbLine
 10
8572.472748739825
 20
132.7397826796563
 30
0.0
 11
8545.472748739824
 21
132.7397826796563
 31
0.0
  0
LINE
  5
1D96
330
2
100
AcDbEntity
  8
OUTLINE
100
AcDbLine
 10
8572.472748739825
 20
134.0253671260633
 30
0.0
 11
8569.261669220539
 21
134.0253671260633
 31
0.0
  0
LINE
  5
1D97
330
2
100
AcDbEntity
  8
OUTLINE
100
AcDbLine
 10
8572.472748739825
 20
134.0253671260633
 30
0.0
 11
8572.472748739825
 21
133.7397826796567
 31
0.0
  0
LINE
  5
1D98
330
2
100
AcDbEntity
  8
OUTLINE
100
AcDbLine
 10
8573.472748739824
 20
133.7397826796567
 30
0.0
 11
8572.472748739825
 21
133.7397826796567
 31
0.0
  0
LINE
  5
1D99
330
2
100
AcDbEntity
  8
OUTLINE
100
AcDbLine
 10
8573.472748739824
 20
136.0671294558245
 30
0.0
 11
8573.472748739824
 21
133.7397826796567
 31
0.0
  0
LINE
  5
1D9A
330
2
100
AcDbEntity
  8
OUTLINE
100
AcDbLine
 10
8572.472748739825
 20
-284.2602173203433
 30
0.0
 11
8569.472748739825
 21
-284.2602173203433
 31
0.0
  0
LINE
  5
1D9B
330
2
100
AcDbEntity
  8
OUTLINE
100
AcDbLine
 10
8544.472748739826
 20
132.7397826796563
 30
0.0
 11
8544.472748739826
 21
132.1507376632352
 31
0.0
  0
LINE
  5
1D9C
330
2
100
AcDbEntity
  8
OUTLINE
100
AcDbLine
 10
8572.472748739825
 20
133.1507724918596
 30
0.0
 11
8545.472748739824
 21
133.1507724918596
 31
0.0
  0
LINE
  5
1D9D
330
2
100
AcDbEntity
  8
OUTLINE
100
AcDbLine
 10
8572.472748739825
 20
133.7397826796567
 30
0.0
 11
8572.472748739825
 21
132.7397826796567
 31
0.0
  0
LINE
  5
1D9E
330
2
100
AcDbEntity
  8
OUTLINE
100
AcDbLine
 10
8572.472748739825
 20
-284.2602173203433
 30
0.0
 11
8572.472748739825
 21
-285.2602173203433
 31
0.0
  0
LINE
  5
1D9F
330
2
100
AcDbEntity
  8
OUTLINE
100
AcDbLine
 10
8573.472748739824
 20
-280.2602173203437
 30
0.0
 11
8573.472748739824
 21
-285.2602173203433
 31
0.0
  0
LINE
  5
1DA0
330
2
100
AcDbEntity
  8
OUTLINE
100
AcDbLine
 10
8573.472748739824
 20
133.7397826796567
 30
0.0
 11
8573.472748739824
 21
127.1507376632356
 31
0.0
  0
CIRCLE
  5
1DA1
330
2
100
AcDbEntity
  8
OUTLINE
100
AcDbCircle
 10
8520.972748739826
 20
19.73978267965583
 30
0.0
 40
2.0
  0
CIRCLE
  5
1DA2
330
2
100
AcDbEntity
  8
OUTLINE
100
AcDbCircle
 10
8488.472748739825
 20
-83.76021732034415
 30
0.0
 40
2.0
  0
CIRCLE
  5
1DA3
330
2
100
AcDbEntity
  8
OUTLINE
100
AcDbCircle
 10
8268.472748739824
 20
-83.76021732034415
 30
0.0
 40
2.0
  0
CIRCLE
  5
1DA4
330
2
100
AcDbEntity
  8
OUTLINE
100
AcDbCircle
 10
8048.472748739824
 20
-83.76021732034415
 30
0.0
 40
2.0
  0
CIRCLE
  5
1DA5
330
2
100
AcDbEntity
  8
OUTLINE
100
AcDbCircle
 10
7828.472748739826
 20
-83.76021732034372
 30
0.0
 40
2.0
  0
CIRCLE
  5
1DA6
330
2
100
AcDbEntity
  8
OUTLINE
100
AcDbCircle
 10
8488.472748739825
 20
123.2397826796558
 30
0.0
 40
2.0
  0
CIRCLE
  5
1DA7
330
2
100
AcDbEntity
  8
OUTLINE
100
AcDbCircle
 10
8268.472748739824
 20
123.2397826796558
 30
0.0
 40
2.0
  0
CIRCLE
  5
1DA8
330
2
100
AcDbEntity
  8
OUTLINE
100
AcDbCircle
 10
8048.472748739824
 20
123.2397826796558
 30
0.0
 40
2.0
  0
CIRCLE
  5
1DA9
330
2
100
AcDbEntity
  8
OUTLINE
100
AcDbCircle
 10
7828.472748739826
 20
123.2397826796563
 30
0.0
 40
2.0
  0
CIRCLE
  5
1DAA
330
2
100
AcDbEntity
  8
OUTLINE
100
AcDbCircle
 10
7795.972748739825
 20
19.73978267965629
 30
0.0
 40
2.0
  0
CIRCLE
  5
1DAB
330
2
100
AcDbEntity
  8
OUTLINE
100
AcDbCircle
 10
8440.472748739825
 20
19.73978267965583
 30
0.0
 40
25.0
  0
CIRCLE
  5
1DAC
330
2
100
AcDbEntity
  8
OUTLINE
100
AcDbCircle
 10
8346.472748739826
 20
19.73978267965583
 30
0.0
 40
25.0
  0
CIRCLE
  5
1DAD
330
2
100
AcDbEntity
  8
OUTLINE
100
AcDbCircle
 10
8252.472748739824
 20
19.73978267965583
 30
0.0
 40
25.0
  0
CIRCLE
  5
1DAE
330
2
100
AcDbEntity
  8
OUTLINE
100
AcDbCircle
 10
8158.472748739825
 20
19.73978267965583
 30
0.0
 40
25.0
  0
CIRCLE
  5
1DAF
330
2
100
AcDbEntity
  8
OUTLINE
100
AcDbCircle
 10
8064.472748739826
 20
19.73978267965583
 30
0.0
 40
25.0
  0
CIRCLE
  5
1DB0
330
2
100
AcDbEntity
  8
OUTLINE
100
AcDbCircle
 10
7970.472748739824
 20
19.73978267965583
 30
0.0
 40
25.0
  0
CIRCLE
  5
1DB1
330
2
100
AcDbEntity
  8
OUTLINE
100
AcDbCircle
 10
7876.472748739826
 20
19.73978267965629
 30
0.0
 40
25.0
  0
CIRCLE
  5
1DB2
330
2
100
AcDbEntity
  8
OUTLINE
100
AcDbCircle
 10
8487.472748739824
 20
89.73978267965582
 30
0.0
 40
25.0
  0
CIRCLE
  5
1DB3
330
2
100
AcDbEntity
  8
OUTLINE
100
AcDbCircle
 10
8393.472748739824
 20
89.73978267965582
 30
0.0
 40
25.0
  0
CIRCLE
  5
1DB4
330
2
100
AcDbEntity
  8
OUTLINE
100
AcDbCircle
 10
8299.472748739825
 20
89.73978267965582
 30
0.0
 40
25.0
  0
CIRCLE
  5
1DB5
330
2
100
AcDbEntity
  8
OUTLINE
100
AcDbCircle
 10
8205.472748739826
 20
89.73978267965582
 30
0.0
 40
25.0
  0
CIRCLE
  5
1DB6
330
2
100
AcDbEntity
  8
OUTLINE
100
AcDbCircle
 10
8111.472748739826
 20
89.73978267965582
 30
0.0
 40
25.0
  0
CIRCLE
  5
1DB7
330
2
100
AcDbEntity
  8
OUTLINE
100
AcDbCircle
 10
8017.472748739825
 20
89.73978267965582
 30
0.0
 40
25.0
  0
CIRCLE
  5
1DB8
330
2
100
AcDbEntity
  8
OUTLINE
100
AcDbCircle
 10
7923.472748739825
 20
89.7397826796563
 30
0.0
 40
25.0
  0
CIRCLE
  5
1DB9
330
2
100
AcDbEntity
  8
OUTLINE
100
AcDbCircle
 10
7829.472748739824
 20
89.7397826796563
 30
0.0
 40
25.0
  0
CIRCLE
  5
1DBA
330
2
100
AcDbEntity
  8
OUTLINE
100
AcDbCircle
 10
8487.472748739824
 20
-50.26021732034417
 30
0.0
 40
25.0
  0
CIRCLE
  5
1DBB
330
2
100
AcDbEntity
  8
OUTLINE
100
AcDbCircle
 10
8393.472748739824
 20
-50.26021732034417
 30
0.0
 40
25.0
  0
CIRCLE
  5
1DBC
330
2
100
AcDbEntity
  8
OUTLINE
100
AcDbCircle
 10
8299.472748739825
 20
-50.26021732034417
 30
0.0
 40
25.0
  0
CIRCLE
  5
1DBD
330
2
100
AcDbEntity
  8
OUTLINE
100
AcDbCircle
 10
8205.472748739826
 20
-50.26021732034417
 30
0.0
 40
25.0
  0
CIRCLE
  5
1DBE
330
2
100
AcDbEntity
  8
OUTLINE
100
AcDbCircle
 10
8111.472748739826
 20
-50.26021732034417
 30
0.0
 40
25.0
  0
CIRCLE
  5
1DBF
330
2
100
AcDbEntity
  8
OUTLINE
100
AcDbCircle
 10
8017.472748739825
 20
-50.26021732034417
 30
0.0
 40
25.0
  0
CIRCLE
  5
1DC0
330
2
100
AcDbEntity
  8
OUTLINE
100
AcDbCircle
 10
7923.472748739825
 20
-50.26021732034371
 30
0.0
 40
25.0
  0
CIRCLE
  5
1DC1
330
2
100
AcDbEntity
  8
OUTLINE
100
AcDbCircle
 10
7829.472748739824
 20
-50.26021732034371
 30
0.0
 40
25.0
  0
CIRCLE
  5
1DC2
330
2
100
AcDbEntity
  8
OUTLINE
100
AcDbCircle
 10
8559.472748739825
 20
74.73978267965583
 30
0.0
 40
2.5
  0
CIRCLE
  5
1DC3
330
2
100
AcDbEntity
  8
OUTLINE
100
AcDbCircle
 10
8559.472748739825
 20
-80.26021732034417
 30
0.0
 40
2.5
  0
CIRCLE
  5
1DC4
330
2
100
AcDbEntity
  8
OUTLINE
100
AcDbCircle
 10
8559.472748739825
 20
-245.2602173203441
 30
0.0
 40
2.5
  0
CIRCLE
  5
1DC5
330
2
100
AcDbEntity
  8
OUTLINE
100
AcDbCircle
 10
7757.472748739826
 20
74.7397826796563
 30
0.0
 40
2.5
  0
CIRCLE
  5
1DC6
330
2
100
AcDbEntity
  8
OUTLINE
100
AcDbCircle
 10
7757.472748739826
 20
-80.2602173203437
 30
0.0
 40
2.5
  0
CIRCLE
  5
1DC7
330
2
100
AcDbEntity
  8
OUTLINE
100
AcDbCircle
 10
7757.472748739826
 20
-245.2602173203437
 30
0.0
 40
2.5
  0
ELLIPSE
  5
1DC8
330
2
100
AcDbEntity
  8
OUTLINE
100
AcDbEllipse
 10
8017.472748739825
 20
144.4702130989216
 30
0.0
 11
2.0
 21
0.0
 31
0.0
210
0.0
220
0.0
230
1.0
 40
0.4848096202463372
 41
1.447936502648224
 42
1.693656150917896
  0
ELLIPSE
  5
1DC9
330
2
100
AcDbEntity
  8
OUTLINE
100
AcDbEllipse
 10
8017.472748739825
 20
145.3448328060611
 30
0.0
 11
-2.0
 21
0.0
 31
0.0
210
0.0
220
0.0
230
1.0
 40
0.4848096202463369
 41
3.615609968676573
 42
5.809167992069148
  0
ELLIPSE
  5
1DCA
330
2
100
AcDbEntity
  8
OUTLINE
100
AcDbEllipse
 10
8299.472748739825
 20
144.4702130989216
 30
0.0
 11
2.0
 21
0.0
 31
0.0
210
0.0
220
0.0
230
1.0
 40
0.4848096202463372
 41
1.447936502648336
 42
1.693656150917953
  0
ELLIPSE
  5
1DCB
330
2
100
AcDbEntity
  8
OUTLINE
100
AcDbEllipse
 10
8299.472748739825
 20
145.3448328060607
 30
0.0
 11
-2.0
 21
0.0
 31
0.0
210
0.0
220
0.0
230
1.0
 40
0.4848096202463369
 41
3.615609968676873
 42
5.80916799206882
  0
LINE
  5
1DCC
330
2
100
AcDbEntity
  8
OUTLINE
100
AcDbLine
 10
7748.472748739826
 20
132.1507376632352
 30
0.0
 11
7747.918439688373
 21
131.5964286117822
 31
0.0
  0
LINE
  5
1DCD
330
2
100
AcDbEntity
  8
OUTLINE
100
AcDbLine
 10
7747.918439688373
 20
131.5964286117822
 30
0.0
 11
7743.472748739826
 21
127.1507376632356
 31
0.0
  0
LINE
  5
1DCE
330
2
100
AcDbEntity
  8
OUTLINE
100
AcDbLine
 10
7773.472748739824
 20
131.5964286117822
 30
0.0
 11
7747.918439688373
 21
131.5964286117822
 31
0.0
  0
LINE
  5
1DCF
330
2
100
AcDbEntity
  8
OUTLINE
100
AcDbLine
 10
7773.472748739824
 20
132.1507376632356
 30
0.0
 11
7748.472748739826
 21
132.1507376632356
 31
0.0
  0
LINE
  5
1DD0
330
2
100
AcDbEntity
  8
OUTLINE
100
AcDbLine
 10
8557.972748739825
 20
-271.7602173203446
 30
0.0
 11
8557.972748739825
 21
-268.7602173203446
 31
0.0
  0
LINE
  5
1DD1
330
2
100
AcDbEntity
  8
OUTLINE
100
AcDbLine
 10
8557.972748739825
 20
-268.7602173203442
 30
0.0
 11
8560.972748739825
 21
-268.7602173203442
 31
0.0
  0
LINE
  5
1DD2
330
2
100
AcDbEntity
  8
OUTLINE
100
AcDbLine
 10
8560.972748739825
 20
-268.7602173203446
 30
0.0
 11
8560.972748739825
 21
-271.7602173203446
 31
0.0
  0
LINE
  5
1DD3
330
2
100
AcDbEntity
  8
OUTLINE
100
AcDbLine
 10
8560.972748739825
 20
-271.7602173203442
 30
0.0
 11
8557.972748739825
 21
-271.7602173203442
 31
0.0
  0
LINE
  5
1DD4
330
2
100
AcDbEntity
  8
OUTLINE
100
AcDbLine
 10
7755.972748739826
 20
-271.7602173203442
 30
0.0
 11
7755.972748739826
 21
-268.7602173203442
 31
0.0
  0
LINE
  5
1DD5
330
2
100
AcDbEntity
  8
OUTLINE
100
AcDbLine
 10
7755.972748739826
 20
-268.7602173203442
 30
0.0
 11
7758.972748739826
 21
-268.7602173203442
 31
0.0
  0
LINE
  5
1DD6
330
2
100
AcDbEntity
  8
OUTLINE
100
AcDbLine
 10
7758.972748739826
 20
-268.7602173203437
 30
0.0
 11
7758.972748739826
 21
-271.7602173203437
 31
0.0
  0
LINE
  5
1DD7
330
2
100
AcDbEntity
  8
OUTLINE
100
AcDbLine
 10
7758.972748739826
 20
-271.7602173203437
 30
0.0
 11
7755.972748739826
 21
-271.7602173203437
 31
0.0
  0
LINE
  5
1DD8
330
2
100
AcDbEntity
  8
OUTLINE
100
AcDbLine
 10
7743.472748739826
 20
127.1507376632356
 30
0.0
 11
7743.472748739826
 21
-280.2602173203437
 31
0.0
  0
LINE
  5
1DD9
330
2
100
AcDbEntity
  8
OUTLINE
100
AcDbLine
 10
7748.472748739826
 20
-285.2602173203437
 30
0.0
 11
7743.472748739826
 21
-280.2602173203442
 31
0.0
  0
LINE
  5
1DDA
330
2
100
AcDbEntity
  8
OUTLINE
100
AcDbLine
 10
8568.472748739825
 20
-285.2602173203442
 30
0.0
 11
7748.472748739826
 21
-285.2602173203437
 31
0.0
  0
LINE
  5
1DDB
330
2
100
AcDbEntity
  8
OUTLINE
100
AcDbLine
 10
8573.472748739824
 20
-280.2602173203442
 30
0.0
 11
8568.472748739825
 21
-285.2602173203442
 31
0.0
  0
LINE
  5
1DDC
330
2
100
AcDbEntity
  8
OUTLINE
100
AcDbLine
 10
8573.472748739824
 20
127.1507376632352
 30
0.0
 11
8573.472748739824
 21
-280.2602173203442
 31
0.0
  0
LINE
  5
1DDD
330
2
100
AcDbEntity
  8
OUTLINE
100
AcDbLine
 10
8573.472748739824
 20
127.1507376632352
 30
0.0
 11
8569.027057791279
 21
131.5964286117818
 31
0.0
  0
LINE
  5
1DDE
330
2
100
AcDbEntity
  8
OUTLINE
100
AcDbLine
 10
8569.027057791279
 20
131.5964286117818
 30
0.0
 11
8543.472748739825
 21
131.5964286117818
 31
0.0
  0
LINE
  5
1DDF
330
2
100
AcDbEntity
  8
OUTLINE
100
AcDbLine
 10
8543.472748739825
 20
131.5964286117818
 30
0.0
 11
8543.472748739825
 21
132.7397826796554
 31
0.0
  0
LINE
  5
1DE0
330
2
100
AcDbEntity
  8
OUTLINE
100
AcDbLine
 10
8543.472748739825
 20
132.7397826796558
 30
0.0
 11
7773.472748739824
 21
132.7397826796563
 31
0.0
  0
LINE
  5
1DE1
330
2
100
AcDbEntity
  8
OUTLINE
100
AcDbLine
 10
7773.472748739824
 20
132.7397826796558
 30
0.0
 11
7773.472748739824
 21
131.5964286117822
 31
0.0
  0
LINE
  5
1DE2
330
2
100
AcDbEntity
  8
OUTLINE
100
AcDbLine
 10
8569.027057791279
 20
131.5964286117818
 30
0.0
 11
8568.472748739825
 21
132.1507376632347
 31
0.0
  0
LINE
  5
1DE3
330
2
100
AcDbEntity
  8
OUTLINE
100
AcDbLine
 10
8568.472748739825
 20
132.1507376632352
 30
0.0
 11
8543.472748739825
 21
132.1507376632352
 31
0.0
  0
LINE
  5
1DE4
330
2
100
AcDbEntity
  8
OUTLINE
100
AcDbLine
 10
8543.472748739825
 20
132.7397826796558
 30
0.0
 11
8543.472748739825
 21
133.6428552045171
 31
0.0
  0
LINE
  5
1DE5
330
2
100
AcDbEntity
  8
OUTLINE
100
AcDbLine
 10
7773.472748739824
 20
133.6428552045175
 30
0.0
 11
7773.472748739824
 21
132.7397826796563
 31
0.0
  0
ELLIPSE
  5
1DE6
330
2
100
AcDbEntity
  8
OUTLINE
100
AcDbEllipse
 10
8528.472748739821
 20
341.3127776661753
 30
0.0
 11
2.049999999999998
 21
0.0
 31
0.0
210
0.0
220
0.0
230
1.0
 40
0.4848548502614737
 41
0.4555518899587197
 42
2.686040763631075
  0
ELLIPSE
  5
1DE7
330
2
100
AcDbEntity
  8
OUTLINE
100
AcDbEllipse
 10
8528.472748739821
 20
342.1873723003788
 30
0.0
 11
-2.049999999999998
 21
0.0
 31
0.0
210
0.0
220
0.0
230
1.0
 40
0.4848548502614757
 41
0.0000000000000011
 42
6.283185307179584
  0
ELLIPSE
  5
1DE8
330
2
100
AcDbEntity
  8
OUTLINE
100
AcDbEllipse
 10
8343.472748739825
 20
344.2219067677444
 30
0.0
 11
2.049999999999998
 21
0.0
 31
0.0
210
0.0
220
0.0
230
1.0
 40
0.4848548502614737
 41
0.4555518899587197
 42
2.686040763631075
  0
ELLIPSE
  5
1DE9
330
2
100
AcDbEntity
  8
OUTLINE
100
AcDbEllipse
 10
8343.472748739825
 20
345.0965014019479
 30
0.0
 11
-2.049999999999998
 21
0.0
 31
0.0
210
0.0
220
0.0
230
1.0
 40
0.4848548502614757
 41
0.0000000000000011
 42
6.283185307179584
  0
ELLIPSE
  5
1DEA
330
2
100
AcDbEntity
  8
OUTLINE
100
AcDbEllipse
 10
8158.472748739823
 20
341.3127776661755
 30
0.0
 11
2.049999999999998
 21
0.0
 31
0.0
210
0.0
220
0.0
230
1.0
 40
0.4848548502614737
 41
0.4555518899589911
 42
2.686040763630804
  0
ELLIPSE
  5
1DEB
330
2
100
AcDbEntity
  8
OUTLINE
100
AcDbEllipse
 10
8158.472748739823
 20
342.187372300379
 30
0.0
 11
-2.049999999999998
 21
0.0
 31
0.0
210
0.0
220
0.0
230
1.0
 40
0.4848548502614757
 41
0.0000000000000011
 42
6.283185307179584
  0
ELLIPSE
  5
1DEC
330
2
100
AcDbEntity
  8
OUTLINE
100
AcDbEllipse
 10
7973.472748739823
 20
344.2219067677444
 30
0.0
 11
2.049999999999998
 21
0.0
 31
0.0
210
0.0
220
0.0
230
1.0
 40
0.4848548502614737
 41
0.4555518899587197
 42
2.686040763631075
  0
ELLIPSE
  5
1DED
330
2
100
AcDbEntity
  8
OUTLINE
100
AcDbEllipse
 10
7973.472748739823
 20
345.0965014019479
 30
0.0
 11
-2.049999999999998
 21
0.0
 31
0.0
210
0.0
220
0.0
230
1.0
 40
0.4848548502614757
 41
0.0000000000000011
 42
6.283185307179584
  0
ELLIPSE
  5
1DEE
330
2
100
AcDbEntity
  8
OUTLINE
100
AcDbEllipse
 10
7788.472748739824
 20
341.3127776661757
 30
0.0
 11
2.049999999999998
 21
0.0
 31
0.0
210
0.0
220
0.0
230
1.0
 40
0.4848548502614737
 41
0.4555518899589911
 42
2.686040763630804
  0
ELLIPSE
  5
1DEF
330
2
100
AcDbEntity
  8
OUTLINE
100
AcDbEllipse
 10
7788.472748739824
 20
342.1873723003792
 30
0.0
 11
-2.049999999999998
 21
0.0
 31
0.0
210
0.0
220
0.0
230
1.0
 40
0.4848548502614757
 41
0.0000000000000011
 42
6.283185307179584
  0
ELLIPSE
  5
1DF0
330
2
100
AcDbEntity
  8
OUTLINE
100
AcDbEllipse
 10
8559.472748739823
 20
139.1283051071399
 30
0.0
 11
2.5
 21
0.0
 31
0.0
210
0.0
220
0.0
230
1.0
 40
0.4848548502614737
 41
0.3690885908724724
 42
2.77250406271729
  0
ELLIPSE
  5
1DF1
330
2
100
AcDbEntity
  8
OUTLINE
100
AcDbEllipse
 10
8559.472748739823
 20
140.0028997413432
 30
0.0
 11
-2.5
 21
0.0
 31
0.0
210
0.0
220
0.0
230
1.0
 40
0.4848548502614757
 41
0.0000000000000011
 42
6.283185307179584
  0
ELLIPSE
  5
1DF2
330
2
100
AcDbEntity
  8
OUTLINE
100
AcDbEllipse
 10
7757.472748739823
 20
139.1283051071403
 30
0.0
 11
2.5
 21
0.0
 31
0.0
210
0.0
220
0.0
230
1.0
 40
0.4848548502614737
 41
0.3690885908725052
 42
2.77250406271729
  0
ELLIPSE
  5
1DF3
330
2
100
AcDbEntity
  8
OUTLINE
100
AcDbEllipse
 10
7757.472748739823
 20
140.0028997413436
 30
0.0
 11
-2.5
 21
0.0
 31
0.0
210
0.0
220
0.0
230
1.0
 40
0.4848548502614757
 41
0.0000000000000011
 42
6.283185307179584
  0
ELLIPSE
  5
1DF4
330
2
100
AcDbEntity
  8
OUTLINE
100
AcDbEllipse
 10
8017.472748739823
 20
146.6388210952563
 30
0.0
 11
-2.5
 21
0.0
 31
0.0
210
0.0
220
0.0
230
1.0
 40
0.4848548502614757
 41
0.0000000000000011
 42
6.283185307179584
  0
ELLIPSE
  5
1DF5
330
2
100
AcDbEntity
  8
OUTLINE
100
AcDbEllipse
 10
8299.472748739823
 20
146.6388210952563
 30
0.0
 11
-2.5
 21
0.0
 31
0.0
210
0.0
220
0.0
230
1.0
 40
0.4848548502614757
 41
0.0000000000000011
 42
6.283185307179584
  0
ELLIPSE
  5
1DF6
330
2
100
AcDbEntity
  8
OUTLINE
100
AcDbEllipse
 10
8559.472748739823
 20
547.2809739609829
 30
0.0
 11
-2.5
 21
0.0
 31
0.0
210
0.0
220
0.0
230
1.0
 40
0.4848548502614757
 41
0.0000000000000011
 42
6.283185307179584
  0
ELLIPSE
  5
1DF7
330
2
100
AcDbEntity
  8
OUTLINE
100
AcDbEllipse
 10
8559.472748739823
 20
445.4614554060731
 30
0.0
 11
-2.5
 21
0.0
 31
0.0
210
0.0
220
0.0
230
1.0
 40
0.4848548502614757
 41
0.0000000000000011
 42
6.283185307179584
  0
ELLIPSE
  5
1DF8
330
2
100
AcDbEntity
  8
OUTLINE
100
AcDbEllipse
 10
8559.472748739823
 20
343.6419368511632
 30
0.0
 11
-2.5
 21
0.0
 31
0.0
210
0.0
220
0.0
230
1.0
 40
0.4848548502614757
 41
0.0000000000000011
 42
6.283185307179584
  0
ELLIPSE
  5
1DF9
330
2
100
AcDbEntity
  8
OUTLINE
100
AcDbEllipse
 10
8559.472748739823
 20
241.8224182962534
 30
0.0
 11
-2.5
 21
0.0
 31
0.0
210
0.0
220
0.0
230
1.0
 40
0.4848548502614757
 41
0.0000000000000011
 42
6.283185307179584
  0
ELLIPSE
  5
1DFA
330
2
100
AcDbEntity
  8
OUTLINE
100
AcDbEllipse
 10
7757.472748739823
 20
547.2809739609835
 30
0.0
 11
-2.5
 21
0.0
 31
0.0
210
0.0
220
0.0
230
1.0
 40
0.4848548502614757
 41
0.0000000000000011
 42
6.283185307179584
  0
ELLIPSE
  5
1DFB
330
2
100
AcDbEntity
  8
OUTLINE
100
AcDbEllipse
 10
7757.472748739823
 20
445.4614554060737
 30
0.0
 11
-2.5
 21
0.0
 31
0.0
210
0.0
220
0.0
230
1.0
 40
0.4848548502614757
 41
0.0000000000000011
 42
6.283185307179584
  0
ELLIPSE
  5
1DFC
330
2
100
AcDbEntity
  8
OUTLINE
100
AcDbEllipse
 10
7757.472748739823
 20
343.6419368511637
 30
0.0
 11
-2.5
 21
0.0
 31
0.0
210
0.0
220
0.0
230
1.0
 40
0.4848548502614757
 41
0.0000000000000011
 42
6.283185307179584
  0
ELLIPSE
  5
1DFD
330
2
100
AcDbEntity
  8
OUTLINE
100
AcDbEllipse
 10
7757.472748739823
 20
241.8224182962537
 30
0.0
 11
-2.5
 21
0.0
 31
0.0
210
0.0
220
0.0
230
1.0
 40
0.4848548502614757
 41
0.0000000000000011
 42
6.283185307179584
  0
ELLIPSE
  5
1DFE
330
2
100
AcDbEntity
  8
OUTLINE
100
AcDbEllipse
 10
8017.472748739823
 20
145.764226461053
 30
0.0
 11
2.5
 21
0.0
 31
0.0
210
0.0
220
0.0
230
1.0
 40
0.4848548502614737
 41
0.3690885908720771
 42
2.772504062717568
  0
ELLIPSE
  5
1DFF
330
2
100
AcDbEntity
  8
OUTLINE
100
AcDbEllipse
 10
8299.472748739823
 20
145.764226461053
 30
0.0
 11
2.5
 21
0.0
 31
0.0
210
0.0
220
0.0
230
1.0
 40
0.4848548502614737
 41
0.369088590872324
 42
2.772504062717469
  0
ELLIPSE
  5
1E00
330
2
100
AcDbEntity
  8
OUTLINE
100
AcDbEllipse
 10
7757.472748739823
 20
240.9478236620499
 30
0.0
 11
2.5
 21
0.0
 31
0.0
210
0.0
220
0.0
230
1.0
 40
0.4848548502614737
 41
0.3690885908726948
 42
2.772504062717083
  0
ELLIPSE
  5
1E01
330
2
100
AcDbEntity
  8
OUTLINE
100
AcDbEllipse
 10
7757.472748739823
 20
342.76734221696
 30
0.0
 11
2.5
 21
0.0
 31
0.0
210
0.0
220
0.0
230
1.0
 40
0.4848548502614737
 41
0.3690885908726948
 42
2.7725040627171
  0
ELLIPSE
  5
1E02
330
2
100
AcDbEntity
  8
OUTLINE
100
AcDbEllipse
 10
7757.472748739823
 20
444.58686077187
 30
0.0
 11
2.5
 21
0.0
 31
0.0
210
0.0
220
0.0
230
1.0
 40
0.4848548502614737
 41
0.3690885908724889
 42
2.772504062717306
  0
ELLIPSE
  5
1E03
330
2
100
AcDbEntity
  8
OUTLINE
100
AcDbEllipse
 10
7757.472748739823
 20
546.4063793267797
 30
0.0
 11
2.5
 21
0.0
 31
0.0
210
0.0
220
0.0
230
1.0
 40
0.4848548502614737
 41
0.3690885908724889
 42
2.772504062717306
  0
ELLIPSE
  5
1E04
330
2
100
AcDbEntity
  8
OUTLINE
100
AcDbEllipse
 10
8559.472748739823
 20
240.9478236620497
 30
0.0
 11
2.5
 21
0.0
 31
0.0
210
0.0
220
0.0
230
1.0
 40
0.4848548502614737
 41
0.3690885908725463
 42
2.7725040627171
  0
ELLIPSE
  5
1E05
330
2
100
AcDbEntity
  8
OUTLINE
100
AcDbEllipse
 10
8559.472748739823
 20
342.7673422169595
 30
0.0
 11
2.5
 21
0.0
 31
0.0
210
0.0
220
0.0
230
1.0
 40
0.4848548502614737
 41
0.3690885908724724
 42
2.77250406271729
  0
ELLIPSE
  5
1E06
330
2
100
AcDbEntity
  8
OUTLINE
100
AcDbEllipse
 10
8559.472748739823
 20
444.5868607718693
 30
0.0
 11
2.5
 21
0.0
 31
0.0
210
0.0
220
0.0
230
1.0
 40
0.4848548502614737
 41
0.3690885908725463
 42
2.7725040627171
  0
ELLIPSE
  5
1E07
330
2
100
AcDbEntity
  8
OUTLINE
100
AcDbEllipse
 10
8559.472748739823
 20
546.4063793267793
 30
0.0
 11
2.5
 21
0.0
 31
0.0
210
0.0
220
0.0
230
1.0
 40
0.4848548502614737
 41
0.3690885908724724
 42
2.77250406271729
  0
LINE
  5
1E08
330
2
100
AcDbEntity
  8
OUTLINE
100
AcDbLine
 10
7748.472748739823
 20
134.5174498387194
 30
0.0
 11
7743.472748739823
 21
136.9417240900269
 31
0.0
  0
LINE
  5
1E09
330
2
100
AcDbEntity
  8
OUTLINE
100
AcDbLine
 10
7743.472748739823
 20
136.9417240900269
 30
0.0
 11
7743.472748739823
 21
136.067129455825
 31
0.0
  0
LINE
  5
1E0A
330
2
100
AcDbEntity
  8
OUTLINE
100
AcDbLine
 10
7743.472748739823
 20
136.0671294558254
 30
0.0
 11
7748.472748739823
 21
133.642855204518
 31
0.0
  0
LINE
  5
1E0B
330
2
100
AcDbEntity
  8
OUTLINE
100
AcDbLine
 10
7748.472748739823
 20
133.642855204518
 30
0.0
 11
7748.472748739823
 21
134.5174498387199
 31
0.0
  0
LINE
  5
1E0C
330
2
100
AcDbEntity
  8
OUTLINE
100
AcDbLine
 10
7743.472748739823
 20
136.9417240900269
 30
0.0
 11
7743.472748739823
 21
553.5840870143821
 31
0.0
  0
LINE
  5
1E0D
330
2
100
AcDbEntity
  8
OUTLINE
100
AcDbLine
 10
7748.472748739823
 20
134.5174498387199
 30
0.0
 11
8568.472748739823
 21
134.5174498387194
 31
0.0
  0
LINE
  5
1E0E
330
2
100
AcDbEntity
  8
OUTLINE
100
AcDbLine
 10
8573.472748739822
 20
136.9417240900269
 30
0.0
 11
8568.472748739823
 21
134.5174498387194
 31
0.0
  0
LINE
  5
1E0F
330
2
100
AcDbEntity
  8
OUTLINE
100
AcDbLine
 10
8573.472748739822
 20
136.9417240900269
 30
0.0
 11
8573.472748739822
 21
553.5840870143819
 31
0.0
  0
LINE
  5
1E10
330
2
100
AcDbEntity
  8
OUTLINE
100
AcDbLine
 10
7743.472748739823
 20
553.5840870143812
 30
0.0
 11
8573.472748739822
 21
553.5840870143807
 31
0.0
  0
LINE
  5
1E11
330
2
100
AcDbEntity
  8
OUTLINE
100
AcDbLine
 10
8568.472748739823
 20
133.6428552045171
 30
0.0
 11
8573.472748739822
 21
136.0671294558245
 31
0.0
  0
LINE
  5
1E12
330
2
100
AcDbEntity
  8
OUTLINE
100
AcDbLine
 10
8573.472748739822
 20
136.0671294558245
 30
0.0
 11
8573.472748739822
 21
136.9417240900264
 31
0.0
  0
LINE
  5
1E13
330
2
100
AcDbEntity
  8
OUTLINE
100
AcDbLine
 10
8568.472748739823
 20
134.5174498387194
 30
0.0
 11
8568.472748739823
 21
133.6428552045175
 31
0.0
  0
LINE
  5
1E14
330
2
100
AcDbEntity
  8
OUTLINE
100
AcDbLine
 10
8568.472748739823
 20
133.6428552045175
 30
0.0
 11
7748.472748739823
 21
133.642855204518
 31
0.0
  0
ELLIPSE
  5
1E15
330
2
100
AcDbEntity
  8
OUTLINE
100
AcDbEllipse
 10
7788.47274873982
 20
340.4381830319702
 30
0.0
 11
2.049999999999998
 21
0.0
 31
0.0
210
0.0
220
0.0
230
1.0
 40
0.4848548502614739
 41
1.075685327408983
 42
2.065907326179409
  0
ELLIPSE
  5
1E16
330
2
100
AcDbEntity
  8
OUTLINE
100
AcDbEllipse
 10
7788.47274873982
 20
341.3127776661739
 30
0.0
 11
-2.049999999999998
 21
0.0
 31
0.0
210
0.0
220
0.0
230
1.0
 40
0.4848548502614739
 41
3.597144543548549
 42
5.827633417218343
  0
ELLIPSE
  5
1E17
330
2
100
AcDbEntity
  8
OUTLINE
100
AcDbEllipse
 10
8528.472748739821
 20
340.4381830319725
 30
0.0
 11
2.049999999999998
 21
0.0
 31
0.0
210
0.0
220
0.0
230
1.0
 40
0.4848548502614739
 41
1.075685327406222
 42
2.065907326182316
  0
ELLIPSE
  5
1E18
330
2
100
AcDbEntity
  8
OUTLINE
100
AcDbEllipse
 10
8343.472748739822
 20
343.3473121335406
 30
0.0
 11
2.049999999999998
 21
0.0
 31
0.0
210
0.0
220
0.0
230
1.0
 40
0.4848548502614739
 41
1.07568532740714
 42
2.06590732618149
  0
ELLIPSE
  5
1E19
330
2
100
AcDbEntity
  8
OUTLINE
100
AcDbEllipse
 10
8158.472748739821
 20
340.4381830319713
 30
0.0
 11
2.049999999999998
 21
0.0
 31
0.0
210
0.0
220
0.0
230
1.0
 40
0.4848548502614739
 41
1.075685327407648
 42
2.06590732618108
  0
ELLIPSE
  5
1E1A
330
2
100
AcDbEntity
  8
OUTLINE
100
AcDbEllipse
 10
7973.472748739822
 20
343.3473121335395
 30
0.0
 11
2.049999999999998
 21
0.0
 31
0.0
210
0.0
220
0.0
230
1.0
 40
0.4848548502614739
 41
1.075685327408205
 42
2.065907326180187
  0
ELLIPSE
  5
1E1B
330
2
100
AcDbEntity
  8
OUTLINE
100
AcDbEllipse
 10
8528.472748739821
 20
341.3127776661762
 30
0.0
 11
-2.049999999999998
 21
0.0
 31
0.0
210
0.0
220
0.0
230
1.0
 40
0.4848548502614739
 41
3.597144543547096
 42
5.827633417219549
  0
ELLIPSE
  5
1E1C
330
2
100
AcDbEntity
  8
OUTLINE
100
AcDbEllipse
 10
8343.472748739822
 20
344.2219067677444
 30
0.0
 11
-2.049999999999998
 21
0.0
 31
0.0
210
0.0
220
0.0
230
1.0
 40
0.4848548502614739
 41
3.597144543547638
 42
5.827633417219181
  0
ELLIPSE
  5
1E1D
330
2
100
AcDbEntity
  8
OUTLINE
100
AcDbEllipse
 10
8158.472748739821
 20
341.3127776661751
 30
0.0
 11
-2.049999999999998
 21
0.0
 31
0.0
210
0.0
220
0.0
230
1.0
 40
0.4848548502614739
 41
3.597144543547736
 42
5.827633417219005
  0
ELLIPSE
  5
1E1E
330
2
100
AcDbEntity
  8
OUTLINE
100
AcDbEllipse
 10
7973.472748739822
 20
344.2219067677432
 30
0.0
 11
-2.049999999999998
 21
0.0
 31
0.0
210
0.0
220
0.0
230
1.0
 40
0.4848548502614739
 41
3.597144543548206
 42
5.827633417218367
  0
ELLIPSE
  5
1E1F
330
2
100
AcDbEntity
  8
OUTLINE
100
AcDbEllipse
 10
8587.472748739825
 20
545.5317846924361
 30
0.0
 11
2.25
 21
0.0
 31
0.0
210
0.0
220
0.0
230
1.0
 40
0.4848548502613113
 41
0.8162090310365222
 42
2.325383622551989
  0
ELLIPSE
  5
1E20
330
2
100
AcDbEntity
  8
OUTLINE
100
AcDbEllipse
 10
8587.472748739825
 20
443.7122661375267
 30
0.0
 11
2.25
 21
0.0
 31
0.0
210
0.0
220
0.0
230
1.0
 40
0.4848548502613113
 41
0.8162090310362202
 42
2.325383622552291
  0
ELLIPSE
  5
1E21
330
2
100
AcDbEntity
  8
OUTLINE
100
AcDbEllipse
 10
8587.472748739825
 20
341.8927475826175
 30
0.0
 11
2.25
 21
0.0
 31
0.0
210
0.0
220
0.0
230
1.0
 40
0.4848548502613113
 41
0.8162090310359186
 42
2.325383622552787
  0
ELLIPSE
  5
1E22
330
2
100
AcDbEntity
  8
OUTLINE
100
AcDbEllipse
 10
8587.472748739825
 20
240.073229027708
 30
0.0
 11
2.25
 21
0.0
 31
0.0
210
0.0
220
0.0
230
1.0
 40
0.4848548502613113
 41
0.8162090310355431
 42
2.325383622553122
  0
ELLIPSE
  5
1E23
330
2
100
AcDbEntity
  8
OUTLINE
100
AcDbEllipse
 10
8587.472748739825
 20
138.2537104727984
 30
0.0
 11
2.25
 21
0.0
 31
0.0
210
0.0
220
0.0
230
1.0
 40
0.4848548502613113
 41
0.816209031034832
 42
2.32538362255368
  0
ELLIPSE
  5
1E24
330
2
100
AcDbEntity
  8
OUTLINE
100
AcDbEllipse
 10
8587.472748739825
 20
139.1283051071417
 30
0.0
 11
-2.25
 21
0.0
 31
0.0
210
0.0
220
0.0
230
1.0
 40
0.4848548502614734
 41
3.398982001954082
 42
6.025795958812956
  0
ELLIPSE
  5
1E25
330
2
100
AcDbEntity
  8
OUTLINE
100
AcDbEllipse
 10
8587.472748739825
 20
240.9478236620513
 30
0.0
 11
-2.25
 21
0.0
 31
0.0
210
0.0
220
0.0
230
1.0
 40
0.4848548502614734
 41
3.398982001954763
 42
6.025795958812447
  0
ELLIPSE
  5
1E26
330
2
100
AcDbEntity
  8
OUTLINE
100
AcDbEllipse
 10
8587.472748739825
 20
342.7673422169609
 30
0.0
 11
-2.25
 21
0.0
 31
0.0
210
0.0
220
0.0
230
1.0
 40
0.4848548502614734
 41
3.398982001954763
 42
6.02579595881223
  0
ELLIPSE
  5
1E27
330
2
100
AcDbEntity
  8
OUTLINE
100
AcDbEllipse
 10
8587.472748739825
 20
444.5868607718703
 30
0.0
 11
-2.25
 21
0.0
 31
0.0
210
0.0
220
0.0
230
1.0
 40
0.4848548502614734
 41
3.398982001955008
 42
6.025795958812204
  0
ELLIPSE
  5
1E28
330
2
100
AcDbEntity
  8
OUTLINE
100
AcDbEllipse
 10
8587.472748739825
 20
546.4063793267795
 30
0.0
 11
-2.25
 21
0.0
 31
0.0
210
0.0
220
0.0
230
1.0
 40
0.4848548502614734
 41
3.398982001955471
 42
6.02579595881174
  0
CIRCLE
  5
1E29
330
2
100
AcDbEntity
  8
OUTLINE
100
AcDbCircle
 10
8587.472748739825
 20
74.7397826796563
 30
0.0
 40
2.25
  0
CIRCLE
  5
1E2A
330
2
100
AcDbEntity
  8
OUTLINE
100
AcDbCircle
 10
8587.472748739825
 20
-80.2602173203437
 30
0.0
 40
2.25
  0
CIRCLE
  5
1E2B
330
2
100
AcDbEntity
  8
OUTLINE
100
AcDbCircle
 10
8587.472748739825
 20
-245.2602173203437
 30
0.0
 40
2.25
  0
LINE
  5
1E2C
330
2
100
AcDbEntity
  8
OUTLINE
100
AcDbLine
 10
8601.472748739825
 20
133.6428552045166
 30
0.0
 11
8601.472748739825
 21
132.7397826796554
 31
0.0
  0
LINE
  5
1E2D
330
2
100
AcDbEntity
  8
OUTLINE
100
AcDbLine
 10
8601.472748739825
 20
132.7397826796558
 30
0.0
 11
8602.472748739826
 21
132.7397826796558
 31
0.0
  0
LINE
  5
1E2E
330
2
100
AcDbEntity
  8
OUTLINE
100
AcDbLine
 10
8602.472748739826
 20
133.6428552045166
 30
0.0
 11
8602.472748739826
 21
132.7397826796558
 31
0.0
  0
LINE
  5
1E2F
330
2
100
AcDbEntity
  8
OUTLINE
100
AcDbLine
 10
8574.472748739825
 20
133.1507724918591
 30
0.0
 11
8601.472748739825
 21
133.1507724918591
 31
0.0
  0
LINE
  5
1E30
330
2
100
AcDbEntity
  8
OUTLINE
100
AcDbLine
 10
8574.472748739825
 20
134.0253671260628
 30
0.0
 11
8577.683828263074
 21
134.0253671260628
 31
0.0
  0
LINE
  5
1E31
330
2
100
AcDbEntity
  8
OUTLINE
100
AcDbLine
 10
8574.472748739825
 20
132.7397826796558
 30
0.0
 11
8601.472748739825
 21
132.7397826796558
 31
0.0
  0
LINE
  5
1E32
330
2
100
AcDbEntity
  8
OUTLINE
100
AcDbLine
 10
8574.472748739825
 20
-284.2602173203437
 30
0.0
 11
8577.472748739825
 21
-284.2602173203437
 31
0.0
  0
LINE
  5
1E33
330
2
100
AcDbEntity
  8
OUTLINE
100
AcDbLine
 10
8574.472748739825
 20
133.7397826796563
 30
0.0
 11
8574.472748739825
 21
132.7397826796563
 31
0.0
  0
LINE
  5
1E34
330
2
100
AcDbEntity
  8
OUTLINE
100
AcDbLine
 10
8574.472748739825
 20
133.7397826796563
 30
0.0
 11
8573.472748739824
 21
133.7397826796563
 31
0.0
  0
LINE
  5
1E35
330
2
100
AcDbEntity
  8
OUTLINE
100
AcDbLine
 10
8573.472748739824
 20
-280.2602173203437
 30
0.0
 11
8573.472748739824
 21
-285.2602173203437
 31
0.0
  0
LINE
  5
1E36
330
2
100
AcDbEntity
  8
OUTLINE
100
AcDbLine
 10
8573.472748739824
 20
133.7397826796563
 30
0.0
 11
8573.472748739824
 21
127.1507376632356
 31
0.0
  0
LINE
  5
1E37
330
2
100
AcDbEntity
  8
OUTLINE
100
AcDbLine
 10
8574.472748739825
 20
-285.2602173203437
 30
0.0
 11
8573.472748739824
 21
-285.2602173203437
 31
0.0
  0
LINE
  5
1E38
330
2
100
AcDbEntity
  8
OUTLINE
100
AcDbLine
 10
8574.472748739825
 20
-284.2602173203437
 30
0.0
 11
8574.472748739825
 21
-285.2602173203437
 31
0.0
  0
LINE
  5
1E39
330
2
100
AcDbEntity
  8
OUTLINE
100
AcDbLine
 10
8602.472748739826
 20
132.1507376632343
 30
0.0
 11
8602.472748739826
 21
132.7397826796558
 31
0.0
  0
LINE
  5
1E3A
330
2
100
AcDbEntity
  8
OUTLINE
100
AcDbLine
 10
8574.472748739825
 20
134.0253671260628
 30
0.0
 11
8574.472748739825
 21
133.7397826796563
 31
0.0
  0
LINE
  5
1E3B
330
2
100
AcDbEntity
  8
OUTLINE
100
AcDbLine
 10
8573.472748739824
 20
136.0671294558241
 30
0.0
 11
8573.472748739824
 21
133.7397826796563
 31
0.0
  0
LINE
  5
1E3C
330
2
100
AcDbEntity
  8
OUTLINE
100
AcDbLine
 10
8574.472748739825
 20
-285.2602173203437
 30
0.0
 11
8578.472748739825
 21
-285.2602173203437
 31
0.0
  0
ELLIPSE
  5
1E3D
330
2
100
AcDbEntity
  8
OUTLINE
100
AcDbEllipse
 10
9389.472748739825
 20
138.2537104729462
 30
0.0
 11
2.0
 21
0.0
 31
0.0
210
0.0
220
0.0
230
1.0
 40
0.4848548502614741
 41
0.8420283576860841
 42
2.299564295902182
  0
ELLIPSE
  5
1E3E
330
2
100
AcDbEntity
  8
OUTLINE
100
AcDbEllipse
 10
9389.472748739825
 20
139.128305107149
 30
0.0
 11
-2.0
 21
0.0
 31
0.0
210
0.0
220
0.0
230
1.0
 40
0.4848548502614741
 41
3.281165439565493
 42
6.143612521200694
  0
CIRCLE
  5
1E3F
330
2
100
AcDbEntity
  8
OUTLINE
100
AcDbCircle
 10
9389.472748739825
 20
74.73978267965492
 30
0.0
 40
2.0
  0
ELLIPSE
  5
1E40
330
2
100
AcDbEntity
  8
OUTLINE
100
AcDbEllipse
 10
9389.472748739825
 20
240.0732290278387
 30
0.0
 11
2.0
 21
0.0
 31
0.0
210
0.0
220
0.0
230
1.0
 40
0.4848548502614741
 41
0.8420283577025308
 42
2.299564295886038
  0
ELLIPSE
  5
1E41
330
2
100
AcDbEntity
  8
OUTLINE
100
AcDbEllipse
 10
9389.472748739825
 20
240.9478236620436
 30
0.0
 11
-2.0
 21
0.0
 31
0.0
210
0.0
220
0.0
230
1.0
 40
0.4848548502614741
 41
3.281165439579207
 42
6.143612521187034
  0
ELLIPSE
  5
1E42
330
2
100
AcDbEntity
  8
OUTLINE
100
AcDbEllipse
 10
9389.472748739825
 20
341.8927475827521
 30
0.0
 11
2.0
 21
0.0
 31
0.0
210
0.0
220
0.0
230
1.0
 40
0.4848548502614741
 41
0.8420283576992755
 42
2.299564295888993
  0
ELLIPSE
  5
1E43
330
2
100
AcDbEntity
  8
OUTLINE
100
AcDbEllipse
 10
9389.472748739825
 20
342.7673422169568
 30
0.0
 11
-2.0
 21
0.0
 31
0.0
210
0.0
220
0.0
230
1.0
 40
0.4848548502614741
 41
3.281165439576551
 42
6.143612521189918
  0
ELLIPSE
  5
1E44
330
2
100
AcDbEntity
  8
OUTLINE
100
AcDbEllipse
 10
9389.472748739825
 20
443.7122661376678
 30
0.0
 11
2.0
 21
0.0
 31
0.0
210
0.0
220
0.0
230
1.0
 40
0.4848548502614741
 41
0.8420283576941198
 42
2.29956429589428
  0
ELLIPSE
  5
1E45
330
2
100
AcDbEntity
  8
OUTLINE
100
AcDbEllipse
 10
9389.472748739825
 20
444.5868607718703
 30
0.0
 11
-2.0
 21
0.0
 31
0.0
210
0.0
220
0.0
230
1.0
 40
0.4848548502614741
 41
3.281165439573218
 42
6.143612521193307
  0
CIRCLE
  5
1E46
330
2
100
AcDbEntity
  8
OUTLINE
100
AcDbCircle
 10
9389.472748739825
 20
-80.26021732034505
 30
0.0
 40
2.0
  0
CIRCLE
  5
1E47
330
2
100
AcDbEntity
  8
OUTLINE
100
AcDbCircle
 10
9389.472748739825
 20
-245.2602173203451
 30
0.0
 40
2.0
  0
ELLIPSE
  5
1E48
330
2
100
AcDbEntity
  8
OUTLINE
100
AcDbEllipse
 10
9389.472748739825
 20
546.4063793267768
 30
0.0
 11
-2.0
 21
0.0
 31
0.0
210
0.0
220
0.0
230
1.0
 40
0.4848548502614741
 41
3.281165439576551
 42
6.143612521189918
  0
ELLIPSE
  5
1E49
330
2
100
AcDbEntity
  8
OUTLINE
100
AcDbEllipse
 10
9389.472748739825
 20
545.5317846925749
 30
0.0
 11
2.0
 21
0.0
 31
0.0
210
0.0
220
0.0
230
1.0
 40
0.4848548502614741
 41
0.8420283576966978
 42
2.29956429589174
  0
LINE
  5
1E4A
330
2
100
AcDbEntity
  8
OUTLINE
100
AcDbLine
 10
9444.472748739825
 20
-285.2602173203451
 30
0.0
 11
9403.472748739826
 21
-285.2602173203451
 31
0.0
  0
LINE
  5
1E4B
330
2
100
AcDbEntity
  8
OUTLINE
100
AcDbLine
 10
9444.472748739825
 20
-284.2602173203455
 30
0.0
 11
9444.472748739825
 21
-285.2602173203455
 31
0.0
  0
LINE
  5
1E4C
330
2
100
AcDbEntity
  8
OUTLINE
100
AcDbLine
 10
9404.472748739825
 20
-284.2602173203455
 30
0.0
 11
9444.472748739825
 21
-284.2602173203455
 31
0.0
  0
LINE
  5
1E4D
330
2
100
AcDbEntity
  8
OUTLINE
100
AcDbLine
 10
9403.472748739826
 20
-284.2602173203451
 30
0.0
 11
9403.472748739826
 21
-285.2602173203451
 31
0.0
  0
LINE
  5
1E4E
330
2
100
AcDbEntity
  8
OUTLINE
100
AcDbLine
 10
9404.472748739825
 20
-284.2602173203451
 30
0.0
 11
9399.472748739825
 21
-284.2602173203451
 31
0.0
  0
LINE
  5
1E4F
330
2
100
AcDbEntity
  8
OUTLINE
100
AcDbLine
 10
9404.472748739825
 20
551.7397826796545
 30
0.0
 11
9403.472748739828
 21
551.7397826796545
 31
0.0
  0
LINE
  5
1E50
330
2
100
AcDbEntity
  8
OUTLINE
100
AcDbLine
 10
9404.472748739825
 20
133.7397826796549
 30
0.0
 11
9398.672659032747
 21
133.7397826796549
 31
0.0
  0
LINE
  5
1E51
330
2
100
AcDbEntity
  8
OUTLINE
100
AcDbLine
 10
9404.472748739825
 20
551.7397826796545
 30
0.0
 11
9404.472748739825
 21
133.7397826796545
 31
0.0
  0
LINE
  5
1E52
330
2
100
AcDbEntity
  8
OUTLINE
100
AcDbLine
 10
9374.472748739824
 20
133.6428552045166
 30
0.0
 11
9374.472748739824
 21
132.1507376632343
 31
0.0
  0
LINE
  5
1E53
330
2
100
AcDbEntity
  8
OUTLINE
100
AcDbLine
 10
9404.472748739825
 20
133.7397826796549
 30
0.0
 11
9404.472748739825
 21
-284.2602173203451
 31
0.0
  0
CIRCLE
  5
1E54
330
2
100
AcDbEntity
  8
OUTLINE
100
AcDbCircle
 10
9350.972748739826
 20
19.73978267965538
 30
0.0
 40
2.0
  0
CIRCLE
  5
1E55
330
2
100
AcDbEntity
  8
OUTLINE
100
AcDbCircle
 10
9318.472748739825
 20
-83.76021732034462
 30
0.0
 40
2.0
  0
CIRCLE
  5
1E56
330
2
100
AcDbEntity
  8
OUTLINE
100
AcDbCircle
 10
9098.472748739824
 20
-83.76021732034462
 30
0.0
 40
2.0
  0
CIRCLE
  5
1E57
330
2
100
AcDbEntity
  8
OUTLINE
100
AcDbCircle
 10
8878.472748739826
 20
-83.76021732034462
 30
0.0
 40
2.0
  0
CIRCLE
  5
1E58
330
2
100
AcDbEntity
  8
OUTLINE
100
AcDbCircle
 10
8658.472748739825
 20
-83.76021732034462
 30
0.0
 40
2.0
  0
CIRCLE
  5
1E59
330
2
100
AcDbEntity
  8
OUTLINE
100
AcDbCircle
 10
9318.472748739825
 20
123.2397826796554
 30
0.0
 40
2.0
  0
CIRCLE
  5
1E5A
330
2
100
AcDbEntity
  8
OUTLINE
100
AcDbCircle
 10
9098.472748739824
 20
123.2397826796554
 30
0.0
 40
2.0
  0
CIRCLE
  5
1E5B
330
2
100
AcDbEntity
  8
OUTLINE
100
AcDbCircle
 10
8878.472748739826
 20
123.2397826796554
 30
0.0
 40
2.0
  0
CIRCLE
  5
1E5C
330
2
100
AcDbEntity
  8
OUTLINE
100
AcDbCircle
 10
8658.472748739825
 20
123.2397826796554
 30
0.0
 40
2.0
  0
CIRCLE
  5
1E5D
330
2
100
AcDbEntity
  8
OUTLINE
100
AcDbCircle
 10
8625.972748739824
 20
19.73978267965538
 30
0.0
 40
2.0
  0
CIRCLE
  5
1E5E
330
2
100
AcDbEntity
  8
OUTLINE
100
AcDbCircle
 10
9270.472748739825
 20
19.73978267965538
 30
0.0
 40
25.0
  0
CIRCLE
  5
1E5F
330
2
100
AcDbEntity
  8
OUTLINE
100
AcDbCircle
 10
9176.472748739824
 20
19.73978267965538
 30
0.0
 40
25.0
  0
CIRCLE
  5
1E60
330
2
100
AcDbEntity
  8
OUTLINE
100
AcDbCircle
 10
9082.472748739824
 20
19.73978267965538
 30
0.0
 40
25.0
  0
CIRCLE
  5
1E61
330
2
100
AcDbEntity
  8
OUTLINE
100
AcDbCircle
 10
8988.472748739825
 20
19.73978267965538
 30
0.0
 40
25.0
  0
CIRCLE
  5
1E62
330
2
100
AcDbEntity
  8
OUTLINE
100
AcDbCircle
 10
8894.472748739826
 20
19.73978267965538
 30
0.0
 40
25.0
  0
CIRCLE
  5
1E63
330
2
100
AcDbEntity
  8
OUTLINE
100
AcDbCircle
 10
8800.472748739826
 20
19.73978267965538
 30
0.0
 40
25.0
  0
CIRCLE
  5
1E64
330
2
100
AcDbEntity
  8
OUTLINE
100
AcDbCircle
 10
8706.472748739825
 20
19.73978267965538
 30
0.0
 40
25.0
  0
CIRCLE
  5
1E65
330
2
100
AcDbEntity
  8
OUTLINE
100
AcDbCircle
 10
9317.472748739826
 20
89.73978267965538
 30
0.0
 40
25.0
  0
CIRCLE
  5
1E66
330
2
100
AcDbEntity
  8
OUTLINE
100
AcDbCircle
 10
9223.472748739824
 20
89.73978267965538
 30
0.0
 40
25.0
  0
CIRCLE
  5
1E67
330
2
100
AcDbEntity
  8
OUTLINE
100
AcDbCircle
 10
9129.472748739825
 20
89.73978267965538
 30
0.0
 40
25.0
  0
CIRCLE
  5
1E68
330
2
100
AcDbEntity
  8
OUTLINE
100
AcDbCircle
 10
9035.472748739826
 20
89.73978267965538
 30
0.0
 40
25.0
  0
CIRCLE
  5
1E69
330
2
100
AcDbEntity
  8
OUTLINE
100
AcDbCircle
 10
8941.472748739824
 20
89.73978267965538
 30
0.0
 40
25.0
  0
CIRCLE
  5
1E6A
330
2
100
AcDbEntity
  8
OUTLINE
100
AcDbCircle
 10
8847.472748739825
 20
89.73978267965538
 30
0.0
 40
25.0
  0
CIRCLE
  5
1E6B
330
2
100
AcDbEntity
  8
OUTLINE
100
AcDbCircle
 10
8753.472748739826
 20
89.73978267965538
 30
0.0
 40
25.0
  0
CIRCLE
  5
1E6C
330
2
100
AcDbEntity
  8
OUTLINE
100
AcDbCircle
 10
8659.472748739824
 20
89.73978267965538
 30
0.0
 40
25.0
  0
CIRCLE
  5
1E6D
330
2
100
AcDbEntity
  8
OUTLINE
100
AcDbCircle
 10
9317.472748739826
 20
-50.26021732034462
 30
0.0
 40
25.0
  0
CIRCLE
  5
1E6E
330
2
100
AcDbEntity
  8
OUTLINE
100
AcDbCircle
 10
9223.472748739824
 20
-50.26021732034462
 30
0.0
 40
25.0
  0
CIRCLE
  5
1E6F
330
2
100
AcDbEntity
  8
OUTLINE
100
AcDbCircle
 10
9129.472748739825
 20
-50.26021732034462
 30
0.0
 40
25.0
  0
CIRCLE
  5
1E70
330
2
100
AcDbEntity
  8
OUTLINE
100
AcDbCircle
 10
9035.472748739826
 20
-50.26021732034462
 30
0.0
 40
25.0
  0
CIRCLE
  5
1E71
330
2
100
AcDbEntity
  8
OUTLINE
100
AcDbCircle
 10
8941.472748739824
 20
-50.26021732034462
 30
0.0
 40
25.0
  0
CIRCLE
  5
1E72
330
2
100
AcDbEntity
  8
OUTLINE
100
AcDbCircle
 10
8847.472748739825
 20
-50.26021732034462
 30
0.0
 40
25.0
  0
CIRCLE
  5
1E73
330
2
100
AcDbEntity
  8
OUTLINE
100
AcDbCircle
 10
8753.472748739826
 20
-50.26021732034462
 30
0.0
 40
25.0
  0
CIRCLE
  5
1E74
330
2
100
AcDbEntity
  8
OUTLINE
100
AcDbCircle
 10
8659.472748739824
 20
-50.26021732034462
 30
0.0
 40
25.0
  0
CIRCLE
  5
1E75
330
2
100
AcDbEntity
  8
OUTLINE
100
AcDbCircle
 10
9389.472748739825
 20
74.73978267965538
 30
0.0
 40
2.5
  0
CIRCLE
  5
1E76
330
2
100
AcDbEntity
  8
OUTLINE
100
AcDbCircle
 10
9389.472748739825
 20
-80.26021732034463
 30
0.0
 40
2.5
  0
CIRCLE
  5
1E77
330
2
100
AcDbEntity
  8
OUTLINE
100
AcDbCircle
 10
9389.472748739825
 20
-245.2602173203446
 30
0.0
 40
2.5
  0
CIRCLE
  5
1E78
330
2
100
AcDbEntity
  8
OUTLINE
100
AcDbCircle
 10
8587.472748739825
 20
74.73978267965538
 30
0.0
 40
2.5
  0
CIRCLE
  5
1E79
330
2
100
AcDbEntity
  8
OUTLINE
100
AcDbCircle
 10
8587.472748739825
 20
-80.26021732034463
 30
0.0
 40
2.5
  0
CIRCLE
  5
1E7A
330
2
100
AcDbEntity
  8
OUTLINE
100
AcDbCircle
 10
8587.472748739825
 20
-245.2602173203446
 30
0.0
 40
2.5
  0
ELLIPSE
  5
1E7B
330
2
100
AcDbEntity
  8
OUTLINE
100
AcDbEllipse
 10
8847.472748739825
 20
144.470213098921
 30
0.0
 11
2.0
 21
0.0
 31
0.0
210
0.0
220
0.0
230
1.0
 40
0.4848096202463369
 41
1.447936502658543
 42
1.693656150928249
  0
ELLIPSE
  5
1E7C
330
2
100
AcDbEntity
  8
OUTLINE
100
AcDbEllipse
 10
8847.472748739825
 20
145.3448328060607
 30
0.0
 11
-2.0
 21
0.0
 31
0.0
210
0.0
220
0.0
230
1.0
 40
0.4848096202463367
 41
3.615609968687062
 42
5.809167992079334
  0
ELLIPSE
  5
1E7D
330
2
100
AcDbEntity
  8
OUTLINE
100
AcDbEllipse
 10
9129.472748739825
 20
144.470213098921
 30
0.0
 11
2.0
 21
0.0
 31
0.0
210
0.0
220
0.0
230
1.0
 40
0.4848096202463369
 41
1.447936502658543
 42
1.693656150928249
  0
ELLIPSE
  5
1E7E
330
2
100
AcDbEntity
  8
OUTLINE
100
AcDbEllipse
 10
9129.472748739825
 20
145.3448328060607
 30
0.0
 11
-2.0
 21
0.0
 31
0.0
210
0.0
220
0.0
230
1.0
 40
0.4848096202463367
 41
3.615609968687062
 42
5.809167992079334
  0
LINE
  5
1E7F
330
2
100
AcDbEntity
  8
OUTLINE
100
AcDbLine
 10
8578.472748739823
 20
132.1507376632347
 30
0.0
 11
8577.918439688373
 21
131.5964286117818
 31
0.0
  0
LINE
  5
1E80
330
2
100
AcDbEntity
  8
OUTLINE
100
AcDbLine
 10
8577.918439688373
 20
131.5964286117818
 30
0.0
 11
8573.472748739824
 21
127.1507376632352
 31
0.0
  0
LINE
  5
1E81
330
2
100
AcDbEntity
  8
OUTLINE
100
AcDbLine
 10
8603.472748739825
 20
131.5964286117818
 30
0.0
 11
8577.918439688373
 21
131.5964286117818
 31
0.0
  0
LINE
  5
1E82
330
2
100
AcDbEntity
  8
OUTLINE
100
AcDbLine
 10
8603.472748739825
 20
132.1507376632347
 30
0.0
 11
8578.472748739823
 21
132.1507376632347
 31
0.0
  0
LINE
  5
1E83
330
2
100
AcDbEntity
  8
OUTLINE
100
AcDbLine
 10
9387.972748739825
 20
-271.7602173203446
 30
0.0
 11
9387.972748739825
 21
-268.7602173203446
 31
0.0
  0
LINE
  5
1E84
330
2
100
AcDbEntity
  8
OUTLINE
100
AcDbLine
 10
9387.972748739825
 20
-268.7602173203446
 30
0.0
 11
9390.972748739825
 21
-268.7602173203446
 31
0.0
  0
LINE
  5
1E85
330
2
100
AcDbEntity
  8
OUTLINE
100
AcDbLine
 10
9390.972748739825
 20
-268.7602173203446
 30
0.0
 11
9390.972748739825
 21
-271.7602173203446
 31
0.0
  0
LINE
  5
1E86
330
2
100
AcDbEntity
  8
OUTLINE
100
AcDbLine
 10
9390.972748739825
 20
-271.7602173203446
 30
0.0
 11
9387.972748739825
 21
-271.7602173203446
 31
0.0
  0
LINE
  5
1E87
330
2
100
AcDbEntity
  8
OUTLINE
100
AcDbLine
 10
8585.972748739825
 20
-271.7602173203446
 30
0.0
 11
8585.972748739825
 21
-268.7602173203446
 31
0.0
  0
LINE
  5
1E88
330
2
100
AcDbEntity
  8
OUTLINE
100
AcDbLine
 10
8585.972748739825
 20
-268.7602173203446
 30
0.0
 11
8588.972748739825
 21
-268.7602173203446
 31
0.0
  0
LINE
  5
1E89
330
2
100
AcDbEntity
  8
OUTLINE
100
AcDbLine
 10
8588.972748739825
 20
-268.7602173203446
 30
0.0
 11
8588.972748739825
 21
-271.7602173203446
 31
0.0
  0
LINE
  5
1E8A
330
2
100
AcDbEntity
  8
OUTLINE
100
AcDbLine
 10
8588.972748739825
 20
-271.7602173203446
 30
0.0
 11
8585.972748739825
 21
-271.7602173203446
 31
0.0
  0
LINE
  5
1E8B
330
2
100
AcDbEntity
  8
OUTLINE
100
AcDbLine
 10
8573.472748739824
 20
127.1507376632352
 30
0.0
 11
8573.472748739824
 21
-280.2602173203442
 31
0.0
  0
LINE
  5
1E8C
330
2
100
AcDbEntity
  8
OUTLINE
100
AcDbLine
 10
8578.472748739825
 20
-285.2602173203446
 30
0.0
 11
8573.472748739824
 21
-280.2602173203446
 31
0.0
  0
LINE
  5
1E8D
330
2
100
AcDbEntity
  8
OUTLINE
100
AcDbLine
 10
9398.472748739825
 20
-285.2602173203446
 30
0.0
 11
8578.472748739825
 21
-285.2602173203446
 31
0.0
  0
LINE
  5
1E8E
330
2
100
AcDbEntity
  8
OUTLINE
100
AcDbLine
 10
9403.472748739826
 20
-280.2602173203446
 30
0.0
 11
9398.472748739825
 21
-285.2602173203446
 31
0.0
  0
LINE
  5
1E8F
330
2
100
AcDbEntity
  8
OUTLINE
100
AcDbLine
 10
9403.472748739826
 20
127.1507376632347
 30
0.0
 11
9403.472748739826
 21
-280.2602173203446
 31
0.0
  0
LINE
  5
1E90
330
2
100
AcDbEntity
  8
OUTLINE
100
AcDbLine
 10
9403.472748739826
 20
127.1507376632352
 30
0.0
 11
9399.027057791277
 21
131.5964286117818
 31
0.0
  0
LINE
  5
1E91
330
2
100
AcDbEntity
  8
OUTLINE
100
AcDbLine
 10
9399.027057791277
 20
131.5964286117813
 30
0.0
 11
9373.472748739825
 21
131.5964286117813
 31
0.0
  0
LINE
  5
1E92
330
2
100
AcDbEntity
  8
OUTLINE
100
AcDbLine
 10
9373.472748739825
 20
131.5964286117813
 30
0.0
 11
9373.472748739825
 21
132.7397826796544
 31
0.0
  0
LINE
  5
1E93
330
2
100
AcDbEntity
  8
OUTLINE
100
AcDbLine
 10
9373.472748739825
 20
132.7397826796554
 30
0.0
 11
8603.472748739825
 21
132.7397826796554
 31
0.0
  0
LINE
  5
1E94
330
2
100
AcDbEntity
  8
OUTLINE
100
AcDbLine
 10
8603.472748739825
 20
132.7397826796549
 30
0.0
 11
8603.472748739825
 21
131.5964286117813
 31
0.0
  0
LINE
  5
1E95
330
2
100
AcDbEntity
  8
OUTLINE
100
AcDbLine
 10
9399.027057791277
 20
131.5964286117813
 30
0.0
 11
9398.472748739825
 21
132.1507376632343
 31
0.0
  0
LINE
  5
1E96
330
2
100
AcDbEntity
  8
OUTLINE
100
AcDbLine
 10
9398.472748739825
 20
132.1507376632347
 30
0.0
 11
9373.472748739825
 21
132.1507376632347
 31
0.0
  0
LINE
  5
1E97
330
2
100
AcDbEntity
  8
OUTLINE
100
AcDbLine
 10
9373.472748739825
 20
132.7397826796554
 30
0.0
 11
9373.472748739825
 21
133.6428552045166
 31
0.0
  0
LINE
  5
1E98
330
2
100
AcDbEntity
  8
OUTLINE
100
AcDbLine
 10
8603.472748739825
 20
133.6428552045166
 30
0.0
 11
8603.472748739825
 21
132.7397826796554
 31
0.0
  0
ELLIPSE
  5
1E99
330
2
100
AcDbEntity
  8
OUTLINE
100
AcDbEllipse
 10
9358.472748739826
 20
341.3127776661748
 30
0.0
 11
2.049999999999998
 21
0.0
 31
0.0
210
0.0
220
0.0
230
1.0
 40
0.4848548502614744
 41
0.4555518899592127
 42
2.686040763630483
  0
ELLIPSE
  5
1E9A
330
2
100
AcDbEntity
  8
OUTLINE
100
AcDbEllipse
 10
9358.472748739826
 20
342.1873723003786
 30
0.0
 11
-2.049999999999998
 21
0.0
 31
0.0
210
0.0
220
0.0
230
1.0
 40
0.4848548502614764
 41
0.0000000000000002
 42
6.283185307179584
  0
ELLIPSE
  5
1E9B
330
2
100
AcDbEntity
  8
OUTLINE
100
AcDbEllipse
 10
9173.472748739829
 20
344.2219067677439
 30
0.0
 11
2.049999999999998
 21
0.0
 31
0.0
210
0.0
220
0.0
230
1.0
 40
0.4848548502614744
 41
0.45555188995899
 42
2.686040763630803
  0
ELLIPSE
  5
1E9C
330
2
100
AcDbEntity
  8
OUTLINE
100
AcDbEllipse
 10
9173.472748739829
 20
345.0965014019474
 30
0.0
 11
-2.049999999999998
 21
0.0
 31
0.0
210
0.0
220
0.0
230
1.0
 40
0.4848548502614764
 41
0.0000000000000002
 42
6.283185307179584
  0
ELLIPSE
  5
1E9D
330
2
100
AcDbEntity
  8
OUTLINE
100
AcDbEllipse
 10
8988.472748739827
 20
341.3127776661751
 30
0.0
 11
2.049999999999998
 21
0.0
 31
0.0
210
0.0
220
0.0
230
1.0
 40
0.4848548502614744
 41
0.45555188995899
 42
2.686040763630803
  0
ELLIPSE
  5
1E9E
330
2
100
AcDbEntity
  8
OUTLINE
100
AcDbEllipse
 10
8988.472748739827
 20
342.1873723003786
 30
0.0
 11
-2.049999999999998
 21
0.0
 31
0.0
210
0.0
220
0.0
230
1.0
 40
0.4848548502614764
 41
0.0000000000000002
 42
6.283185307179584
  0
ELLIPSE
  5
1E9F
330
2
100
AcDbEntity
  8
OUTLINE
100
AcDbEllipse
 10
8803.472748739826
 20
344.2219067677439
 30
0.0
 11
2.049999999999998
 21
0.0
 31
0.0
210
0.0
220
0.0
230
1.0
 40
0.4848548502614744
 41
0.45555188995899
 42
2.686040763630803
  0
ELLIPSE
  5
1EA0
330
2
100
AcDbEntity
  8
OUTLINE
100
AcDbEllipse
 10
8803.472748739826
 20
345.0965014019474
 30
0.0
 11
-2.049999999999998
 21
0.0
 31
0.0
210
0.0
220
0.0
230
1.0
 40
0.4848548502614764
 41
0.0000000000000002
 42
6.283185307179584
  0
ELLIPSE
  5
1EA1
330
2
100
AcDbEntity
  8
OUTLINE
100
AcDbEllipse
 10
8618.472748739824
 20
341.3127776661751
 30
0.0
 11
2.049999999999998
 21
0.0
 31
0.0
210
0.0
220
0.0
230
1.0
 40
0.4848548502614744
 41
0.45555188995899
 42
2.686040763630803
  0
ELLIPSE
  5
1EA2
330
2
100
AcDbEntity
  8
OUTLINE
100
AcDbEllipse
 10
8618.472748739824
 20
342.1873723003786
 30
0.0
 11
-2.049999999999998
 21
0.0
 31
0.0
210
0.0
220
0.0
230
1.0
 40
0.4848548502614764
 41
0.0000000000000002
 42
6.283185307179584
  0
ELLIPSE
  5
1EA3
330
2
100
AcDbEntity
  8
OUTLINE
100
AcDbEllipse
 10
9389.472748739828
 20
139.128305107139
 30
0.0
 11
2.5
 21
0.0
 31
0.0
210
0.0
220
0.0
230
1.0
 40
0.4848548502614746
 41
0.3690885908725042
 42
2.77250406271714
  0
ELLIPSE
  5
1EA4
330
2
100
AcDbEntity
  8
OUTLINE
100
AcDbEllipse
 10
9389.472748739828
 20
140.0028997413427
 30
0.0
 11
-2.5
 21
0.0
 31
0.0
210
0.0
220
0.0
230
1.0
 40
0.4848548502614764
 41
0.0000000000000002
 42
6.283185307179584
  0
ELLIPSE
  5
1EA5
330
2
100
AcDbEntity
  8
OUTLINE
100
AcDbEllipse
 10
8587.472748739827
 20
139.128305107139
 30
0.0
 11
2.5
 21
0.0
 31
0.0
210
0.0
220
0.0
230
1.0
 40
0.4848548502614746
 41
0.3690885908726526
 42
2.77250406271714
  0
ELLIPSE
  5
1EA6
330
2
100
AcDbEntity
  8
OUTLINE
100
AcDbEllipse
 10
8587.472748739827
 20
140.0028997413427
 30
0.0
 11
-2.5
 21
0.0
 31
0.0
210
0.0
220
0.0
230
1.0
 40
0.4848548502614764
 41
0.0000000000000002
 42
6.283185307179584
  0
ELLIPSE
  5
1EA7
330
2
100
AcDbEntity
  8
OUTLINE
100
AcDbEllipse
 10
8847.472748739827
 20
146.6388210952558
 30
0.0
 11
-2.5
 21
0.0
 31
0.0
210
0.0
220
0.0
230
1.0
 40
0.4848548502614764
 41
0.0000000000000002
 42
6.283185307179584
  0
ELLIPSE
  5
1EA8
330
2
100
AcDbEntity
  8
OUTLINE
100
AcDbEllipse
 10
9129.472748739829
 20
146.6388210952558
 30
0.0
 11
-2.5
 21
0.0
 31
0.0
210
0.0
220
0.0
230
1.0
 40
0.4848548502614764
 41
0.0000000000000002
 42
6.283185307179584
  0
ELLIPSE
  5
1EA9
330
2
100
AcDbEntity
  8
OUTLINE
100
AcDbEllipse
 10
9389.472748739828
 20
547.2809739609829
 30
0.0
 11
-2.5
 21
0.0
 31
0.0
210
0.0
220
0.0
230
1.0
 40
0.4848548502614764
 41
0.0000000000000002
 42
6.283185307179584
  0
ELLIPSE
  5
1EAA
330
2
100
AcDbEntity
  8
OUTLINE
100
AcDbEllipse
 10
9389.472748739828
 20
445.461455406073
 30
0.0
 11
-2.5
 21
0.0
 31
0.0
210
0.0
220
0.0
230
1.0
 40
0.4848548502614764
 41
0.0000000000000002
 42
6.283185307179584
  0
ELLIPSE
  5
1EAB
330
2
100
AcDbEntity
  8
OUTLINE
100
AcDbEllipse
 10
9389.472748739828
 20
343.641936851163
 30
0.0
 11
-2.5
 21
0.0
 31
0.0
210
0.0
220
0.0
230
1.0
 40
0.4848548502614764
 41
0.0000000000000002
 42
6.283185307179584
  0
ELLIPSE
  5
1EAC
330
2
100
AcDbEntity
  8
OUTLINE
100
AcDbEllipse
 10
9389.472748739828
 20
241.822418296253
 30
0.0
 11
-2.5
 21
0.0
 31
0.0
210
0.0
220
0.0
230
1.0
 40
0.4848548502614764
 41
0.0000000000000002
 42
6.283185307179584
  0
ELLIPSE
  5
1EAD
330
2
100
AcDbEntity
  8
OUTLINE
100
AcDbEllipse
 10
8587.472748739827
 20
547.2809739609829
 30
0.0
 11
-2.5
 21
0.0
 31
0.0
210
0.0
220
0.0
230
1.0
 40
0.4848548502614764
 41
0.0000000000000002
 42
6.283185307179584
  0
ELLIPSE
  5
1EAE
330
2
100
AcDbEntity
  8
OUTLINE
100
AcDbEllipse
 10
8587.472748739827
 20
445.461455406073
 30
0.0
 11
-2.5
 21
0.0
 31
0.0
210
0.0
220
0.0
230
1.0
 40
0.4848548502614764
 41
0.0000000000000002
 42
6.283185307179584
  0
ELLIPSE
  5
1EAF
330
2
100
AcDbEntity
  8
OUTLINE
100
AcDbEllipse
 10
8587.472748739827
 20
343.641936851163
 30
0.0
 11
-2.5
 21
0.0
 31
0.0
210
0.0
220
0.0
230
1.0
 40
0.4848548502614764
 41
0.0000000000000002
 42
6.283185307179584
  0
ELLIPSE
  5
1EB0
330
2
100
AcDbEntity
  8
OUTLINE
100
AcDbEllipse
 10
8587.472748739827
 20
241.822418296253
 30
0.0
 11
-2.5
 21
0.0
 31
0.0
210
0.0
220
0.0
230
1.0
 40
0.4848548502614764
 41
0.0000000000000002
 42
6.283185307179584
  0
ELLIPSE
  5
1EB1
330
2
100
AcDbEntity
  8
OUTLINE
100
AcDbEllipse
 10
8847.472748739827
 20
145.7642264610521
 30
0.0
 11
2.5
 21
0.0
 31
0.0
210
0.0
220
0.0
230
1.0
 40
0.4848548502614746
 41
0.3690885908727348
 42
2.772504062717057
  0
ELLIPSE
  5
1EB2
330
2
100
AcDbEntity
  8
OUTLINE
100
AcDbEllipse
 10
9129.472748739829
 20
145.7642264610521
 30
0.0
 11
2.5
 21
0.0
 31
0.0
210
0.0
220
0.0
230
1.0
 40
0.4848548502614746
 41
0.3690885908727348
 42
2.772504062717057
  0
ELLIPSE
  5
1EB3
330
2
100
AcDbEntity
  8
OUTLINE
100
AcDbEllipse
 10
8587.472748739827
 20
240.9478236620492
 30
0.0
 11
2.5
 21
0.0
 31
0.0
210
0.0
220
0.0
230
1.0
 40
0.4848548502614746
 41
0.3690885908726936
 42
2.772504062717099
  0
ELLIPSE
  5
1EB4
330
2
100
AcDbEntity
  8
OUTLINE
100
AcDbEllipse
 10
8587.472748739827
 20
342.7673422169593
 30
0.0
 11
2.5
 21
0.0
 31
0.0
210
0.0
220
0.0
230
1.0
 40
0.4848548502614746
 41
0.3690885908726936
 42
2.772504062717099
  0
ELLIPSE
  5
1EB5
330
2
100
AcDbEntity
  8
OUTLINE
100
AcDbEllipse
 10
8587.472748739827
 20
444.5868607718693
 30
0.0
 11
2.5
 21
0.0
 31
0.0
210
0.0
220
0.0
230
1.0
 40
0.4848548502614746
 41
0.3690885908727678
 42
2.772504062717024
  0
ELLIPSE
  5
1EB6
330
2
100
AcDbEntity
  8
OUTLINE
100
AcDbEllipse
 10
8587.472748739827
 20
546.4063793267793
 30
0.0
 11
2.5
 21
0.0
 31
0.0
210
0.0
220
0.0
230
1.0
 40
0.4848548502614746
 41
0.3690885908727678
 42
2.772504062717024
  0
ELLIPSE
  5
1EB7
330
2
100
AcDbEntity
  8
OUTLINE
100
AcDbEllipse
 10
9389.472748739828
 20
240.9478236620492
 30
0.0
 11
2.5
 21
0.0
 31
0.0
210
0.0
220
0.0
230
1.0
 40
0.4848548502614746
 41
0.3690885908725454
 42
2.772504062717099
  0
ELLIPSE
  5
1EB8
330
2
100
AcDbEntity
  8
OUTLINE
100
AcDbEllipse
 10
9389.472748739828
 20
342.7673422169593
 30
0.0
 11
2.5
 21
0.0
 31
0.0
210
0.0
220
0.0
230
1.0
 40
0.4848548502614746
 41
0.3690885908725454
 42
2.772504062717099
  0
ELLIPSE
  5
1EB9
330
2
100
AcDbEntity
  8
OUTLINE
100
AcDbEllipse
 10
9389.472748739828
 20
444.5868607718693
 30
0.0
 11
2.5
 21
0.0
 31
0.0
210
0.0
220
0.0
230
1.0
 40
0.4848548502614746
 41
0.3690885908726936
 42
2.772504062717057
  0
ELLIPSE
  5
1EBA
330
2
100
AcDbEntity
  8
OUTLINE
100
AcDbEllipse
 10
9389.472748739828
 20
546.4063793267793
 30
0.0
 11
2.5
 21
0.0
 31
0.0
210
0.0
220
0.0
230
1.0
 40
0.4848548502614746
 41
0.3690885908726936
 42
2.772504062717057
  0
LINE
  5
1EBB
330
2
100
AcDbEntity
  8
OUTLINE
100
AcDbLine
 10
8578.472748739827
 20
134.5174498387184
 30
0.0
 11
8573.472748739829
 21
136.941724090026
 31
0.0
  0
LINE
  5
1EBC
330
2
100
AcDbEntity
  8
OUTLINE
100
AcDbLine
 10
8573.472748739829
 20
136.941724090026
 30
0.0
 11
8573.472748739829
 21
136.0671294558241
 31
0.0
  0
LINE
  5
1EBD
330
2
100
AcDbEntity
  8
OUTLINE
100
AcDbLine
 10
8573.472748739829
 20
136.0671294558241
 30
0.0
 11
8578.472748739827
 21
133.6428552045171
 31
0.0
  0
LINE
  5
1EBE
330
2
100
AcDbEntity
  8
OUTLINE
100
AcDbLine
 10
8578.472748739827
 20
133.6428552045166
 30
0.0
 11
8578.472748739827
 21
134.5174498387184
 31
0.0
  0
LINE
  5
1EBF
330
2
100
AcDbEntity
  8
OUTLINE
100
AcDbLine
 10
8573.472748739829
 20
136.941724090026
 30
0.0
 11
8573.472748739829
 21
553.5840870143819
 31
0.0
  0
LINE
  5
1EC0
330
2
100
AcDbEntity
  8
OUTLINE
100
AcDbLine
 10
8578.472748739827
 20
134.5174498387184
 30
0.0
 11
9398.472748739829
 21
134.5174498387184
 31
0.0
  0
LINE
  5
1EC1
330
2
100
AcDbEntity
  8
OUTLINE
100
AcDbLine
 10
9403.472748739828
 20
136.941724090026
 30
0.0
 11
9398.472748739829
 21
134.5174498387184
 31
0.0
  0
LINE
  5
1EC2
330
2
100
AcDbEntity
  8
OUTLINE
100
AcDbLine
 10
9403.472748739828
 20
136.941724090026
 30
0.0
 11
9403.472748739828
 21
553.5840870143819
 31
0.0
  0
LINE
  5
1EC3
330
2
100
AcDbEntity
  8
OUTLINE
100
AcDbLine
 10
8573.472748739829
 20
553.5840870143807
 30
0.0
 11
9403.472748739828
 21
553.5840870143807
 31
0.0
  0
LINE
  5
1EC4
330
2
100
AcDbEntity
  8
OUTLINE
100
AcDbLine
 10
9398.472748739829
 20
133.6428552045166
 30
0.0
 11
9403.472748739828
 21
136.0671294558241
 31
0.0
  0
LINE
  5
1EC5
330
2
100
AcDbEntity
  8
OUTLINE
100
AcDbLine
 10
9403.472748739828
 20
136.0671294558241
 30
0.0
 11
9403.472748739828
 21
136.941724090026
 31
0.0
  0
LINE
  5
1EC6
330
2
100
AcDbEntity
  8
OUTLINE
100
AcDbLine
 10
9398.472748739829
 20
134.5174498387184
 30
0.0
 11
9398.472748739829
 21
133.6428552045166
 31
0.0
  0
LINE
  5
1EC7
330
2
100
AcDbEntity
  8
OUTLINE
100
AcDbLine
 10
9398.472748739829
 20
133.6428552045166
 30
0.0
 11
8578.472748739827
 21
133.6428552045166
 31
0.0
  0
ELLIPSE
  5
1EC8
330
2
100
AcDbEntity
  8
OUTLINE
100
AcDbEllipse
 10
8618.472748739824
 20
340.4381830319711
 30
0.0
 11
2.049999999999999
 21
0.0
 31
0.0
210
0.0
220
0.0
230
1.0
 40
0.4848548502614744
 41
1.075685327407609
 42
2.065907326181354
  0
ELLIPSE
  5
1EC9
330
2
100
AcDbEntity
  8
OUTLINE
100
AcDbEllipse
 10
8618.472748739824
 20
341.3127776661748
 30
0.0
 11
-2.049999999999999
 21
0.0
 31
0.0
210
0.0
220
0.0
230
1.0
 40
0.4848548502614744
 41
3.597144543548239
 42
5.827633417219511
  0
ELLIPSE
  5
1ECA
330
2
100
AcDbEntity
  8
OUTLINE
100
AcDbEllipse
 10
9358.472748739826
 20
340.4381830319713
 30
0.0
 11
2.049999999999999
 21
0.0
 31
0.0
210
0.0
220
0.0
230
1.0
 40
0.4848548502614744
 41
1.075685327407224
 42
2.065907326181549
  0
ELLIPSE
  5
1ECB
330
2
100
AcDbEntity
  8
OUTLINE
100
AcDbEllipse
 10
9173.472748739824
 20
343.3473121335402
 30
0.0
 11
2.049999999999999
 21
0.0
 31
0.0
210
0.0
220
0.0
230
1.0
 40
0.4848548502614744
 41
1.075685327407005
 42
2.065907326181576
  0
ELLIPSE
  5
1ECC
330
2
100
AcDbEntity
  8
OUTLINE
100
AcDbEllipse
 10
8988.472748739825
 20
340.4381830319713
 30
0.0
 11
2.049999999999999
 21
0.0
 31
0.0
210
0.0
220
0.0
230
1.0
 40
0.4848548502614744
 41
1.075685327407199
 42
2.065907326181673
  0
ELLIPSE
  5
1ECD
330
2
100
AcDbEntity
  8
OUTLINE
100
AcDbEllipse
 10
8803.472748739826
 20
343.34731213354
 30
0.0
 11
2.049999999999999
 21
0.0
 31
0.0
210
0.0
220
0.0
230
1.0
 40
0.4848548502614744
 41
1.075685327407708
 42
2.065907326181354
  0
ELLIPSE
  5
1ECE
330
2
100
AcDbEntity
  8
OUTLINE
100
AcDbEllipse
 10
9358.472748739826
 20
341.3127776661751
 30
0.0
 11
-2.049999999999999
 21
0.0
 31
0.0
210
0.0
220
0.0
230
1.0
 40
0.4848548502614744
 41
3.597144543547697
 42
5.827633417219462
  0
ELLIPSE
  5
1ECF
330
2
100
AcDbEntity
  8
OUTLINE
100
AcDbEllipse
 10
9173.472748739824
 20
344.2219067677439
 30
0.0
 11
-2.049999999999999
 21
0.0
 31
0.0
210
0.0
220
0.0
230
1.0
 40
0.4848548502614744
 41
3.597144543547697
 42
5.827633417219511
  0
ELLIPSE
  5
1ED0
330
2
100
AcDbEntity
  8
OUTLINE
100
AcDbEllipse
 10
8988.472748739825
 20
341.3127776661751
 30
0.0
 11
-2.049999999999999
 21
0.0
 31
0.0
210
0.0
220
0.0
230
1.0
 40
0.4848548502614744
 41
3.59714454354792
 42
5.827633417219781
  0
ELLIPSE
  5
1ED1
330
2
100
AcDbEntity
  8
OUTLINE
100
AcDbEllipse
 10
8803.472748739826
 20
344.2219067677437
 30
0.0
 11
-2.049999999999999
 21
0.0
 31
0.0
210
0.0
220
0.0
230
1.0
 40
0.4848548502614744
 41
3.597144543548239
 42
5.827633417219413
  0
LINE
  5
1ED2
330
2
100
AcDbEntity
  8
NOTE
100
AcDbLine
 10
9427.972748739824
 20
-300.2602173203446
 30
0.0
 11
9427.972748739824
 21
-268.2602173203445
 31
0.0
  0
LINE
  5
1ED3
330
2
100
AcDbEntity
  8
NOTE
100
AcDbLine
 10
8598.972748739825
 20
-300.2602173203446
 30
0.0
 11
8598.972748739825
 21
-268.2602173203445
 31
0.0
  0
LINE
  5
1ED4
330
2
100
AcDbEntity
  8
NOTE
100
AcDbLine
 10
8547.972748739825
 20
-300.2602173203442
 30
0.0
 11
8547.972748739825
 21
-268.2602173203441
 31
0.0
  0
LINE
  5
1ED5
330
2
100
AcDbEntity
  8
NOTE
100
AcDbLine
 10
7718.972748739826
 20
-300.2602173203452
 30
0.0
 11
7718.972748739826
 21
-268.2602173203451
 31
0.0
  0
LINE
  5
1ED8
330
2
100
AcDbEntity
  8
BASIS
  6
DASHDOT
 62
     6
100
AcDbLine
 10
8573.472748739822
 20
-310.5544588888655
 30
0.0
 11
8573.472748739822
 21
594.5618223679697
 31
0.0
  0
LINE
  5
1ED9
330
2
100
AcDbEntity
  8
ARRANGE
  6
Continuous
 62
     1
100
AcDbLine
 10
8556.788631175415
 20
-301.9443348847428
 30
0.0
 11
8590.156866304225
 21
-268.5760997559354
 31
0.0
  0
LINE
  5
1EDA
330
2
100
AcDbEntity
  8
ARRANGE
  6
Continuous
 62
     1
100
AcDbLine
 10
8556.788631175415
 20
-268.5760997559354
 30
0.0
 11
8590.156866304225
 21
-301.9443348847428
 31
0.0
  0
CIRCLE
  5
1EDB
330
2
100
AcDbEntity
  8
ARRANGE
100
AcDbCircle
 10
8573.472748739822
 20
-285.260217320339
 30
0.0
 40
15.0
  0
DIMENSION
  5
1EDC
330
2
100
AcDbEntity
  8
SIZE
100
AcDbDimension
  2
*D14
 10
8547.972748739825
 20
-358.5873434378092
 30
0.0
 11
8133.472748739825
 21
-338.5873434378092
 31
0.0
 70
    32
 71
     5
 42
829.0
  3
STANDARD
100
AcDbAlignedDimension
 13
7718.972748739826
 23
-300.2602173203452
 33
0.0
 14
8547.972748739825
 24
-300.2602173203452
 34
0.0
100
AcDbRotatedDimension
1001
ACAD
1000
DSTYLE
1002
{
1070
    40
1040
10.0
1070
    45
1040
0.5
1070
    50
1040
0.7853981633974483
1070
    90
1070
     1
1070
   271
1070
     1
1070
   272
1070
     1
1002
}
  0
DIMENSION
  5
1EE9
330
2
100
AcDbEntity
  8
SIZE
100
AcDbDimension
  2
*D15
 10
8598.972748739825
 20
-358.5873434378092
 30
0.0
 11
8573.472748739824
 21
-338.5873434378092
 31
0.0
 70
    32
 71
     5
 42
51.0
  3
STANDARD
100
AcDbAlignedDimension
 13
8547.972748739825
 23
-300.2602173203452
 33
0.0
 14
8598.972748739825
 24
-300.2602173203446
 34
0.0
100
AcDbRotatedDimension
1001
ACAD
1000
DSTYLE
1002
{
1070
   279
1070
     1
1070
    40
1040
10.0
1070
    45
1040
0.5
1070
    50
1040
0.7853981633974483
1070
    90
1070
     1
1070
   271
1070
     1
1070
   272
1070
     1
1002
}
  0
DIMENSION
  5
1EF8
330
2
100
AcDbEntity
  8
SIZE
100
AcDbDimension
  2
*D16
 10
9427.972748739824
 20
-358.5873434378092
 30
0.0
 11
9013.472748739825
 21
-338.5873434378092
 31
0.0
 70
    32
 71
     5
 42
829.0
  3
STANDARD
100
AcDbAlignedDimension
 13
8598.972748739825
 23
-300.2602173203446
 33
0.0
 14
9427.972748739824
 24
-300.2602173203446
 34
0.0
100
AcDbRotatedDimension
1001
ACAD
1000
DSTYLE
1002
{
1070
   279
1070
     1
1070
    40
1040
10.0
1070
    45
1040
0.5
1070
    50
1040
0.7853981633974483
1070
    90
1070
     1
1070
   271
1070
     1
1070
   272
1070
     1
1002
}
  0
DIMENSION
  5
1F05
330
2
100
AcDbEntity
  8
SIZE
100
AcDbDimension
  2
*D17
 10
9444.472748739825
 20
-415.6157257408663
 30
0.0
 11
8573.472748739824
 21
-395.6157257408664
 31
0.0
 70
    32
 71
     5
 42
1742.0
  3
STANDARD
100
AcDbAlignedDimension
 13
7702.472748739826
 23
-285.2602173203437
 33
0.0
 14
9444.472748739825
 24
-285.2602173203455
 34
0.0
100
AcDbRotatedDimension
1001
ACAD
1000
DSTYLE
1002
{
1070
    40
1040
10.0
1070
    45
1040
0.5
1070
    50
1040
0.7853981633974483
1070
    90
1070
     1
1070
   271
1070
     1
1070
   272
1070
     1
1002
}
  0
DIMENSION
  5
1F12
330
2
100
AcDbEntity
  8
SIZE
100
AcDbDimension
  2
*D18
 10
7646.704250498439
 20
553.5840870143812
 30
0.0
 11
7626.704250498439
 21
134.16193484702
 31
0.0
 70
    32
 71
     5
 42
838.8443043347249
  3
STANDARD
100
AcDbAlignedDimension
 13
7702.472748739826
 23
-285.2602173203437
 33
0.0
 14
7743.472748739823
 24
553.5840870143812
 34
0.0
 50
90.0
100
AcDbRotatedDimension
1001
ACAD
1000
DSTYLE
1002
{
1070
    40
1040
10.0
1070
    45
1040
0.5
1070
    50
1040
0.7853981633974483
1070
    90
1070
     1
1070
   271
1070
     1
1070
   272
1070
     1
1002
}
  0
ENDSEC
  0
SECTION
  2
OBJECTS
  0
DICTIONARY
  5
A
330
0
100
AcDbDictionary
281
     1
  3
ACAD_2007HEADERVARS_RT
350
200B
  3
ACAD_BACKGROUND
350
B1D
  3
ACAD_COLOR
350
4D
  3
ACAD_GROUP
350
3A
  3
ACAD_LAYOUT
350
17
  3
ACAD_MATERIAL
350
C
  3
ACAD_MLEADERSTYLE
350
B16
  3
ACAD_MLINESTYLE
350
3B
  3
ACAD_PLOTSETTINGS
350
3C
  3
ACAD_PLOTSTYLENAME
350
9
  3
ACAD_SCALELIST
350
4E
  3
ACAD_TABLESTYLE
350
4F
  3
ACAD_VISUALSTYLE
350
2D
  3
ACDB_RECOMPOSE_DATA
350
B02
  3
AcDbVariableDictionary
350
B03
  3
AcmDictionary
350
AFC
  3
AMG
350
1198
  3
AMGSNAPSETTINGS
350
136A
  3
DWGPROPS
350
200A
  0
DICTIONARY
  5
20
330
1F
100
AcDbDictionary
280
     1
281
     1
  3
ACAD_LAYERFILTERS
360
1ED7
  3
ACAD_LAYERSTATES
360
21
  3
ACLYDICTIONARY
360
1ED6
  0
DICTIONARY
  5
6
330
5
100
AcDbDictionary
280
     1
281
     1
  3
ADSK_XREC_LAYER_RECONCILED
360
7
  0
DICTIONARY
  5
C0C
330
C0B
100
AcDbDictionary
280
     1
281
     1
  0
DICTIONARY
  5
C0E
330
C0D
100
AcDbDictionary
280
     1
281
     1
  0
DICTIONARY
  5
C12
330
C11
100
AcDbDictionary
280
     1
281
     1
  0
DICTIONARY
  5
C14
330
C13
100
AcDbDictionary
280
     1
281
     1
  0
DICTIONARY
  5
C16
330
C15
100
AcDbDictionary
280
     1
281
     1
  0
DICTIONARY
  5
C18
330
C17
100
AcDbDictionary
280
     1
281
     1
  0
DICTIONARY
  5
3
330
2
100
AcDbDictionary
280
     1
281
     1
  3
ACAD_INDEX
360
1477
  3
ACAD_SORTENTS
360
B34
  0
DICTIONARY
  5
200B
102
{ACAD_REACTORS
330
A
102
}
330
A
100
AcDbDictionary
281
     1
  3
DIMARCSYM
350
200D
  3
DIMFXL
350
200C
  0
DICTIONARY
  5
B1D
102
{ACAD_REACTORS
330
A
102
}
330
A
100
AcDbDictionary
281
     1
  0
DICTIONARY
  5
4D
102
{ACAD_REACTORS
330
A
102
}
330
A
100
AcDbDictionary
281
     1
  0
DICTIONARY
  5
3A
102
{ACAD_REACTORS
330
A
102
}
330
A
100
AcDbDictionary
281
     1
  0
DICTIONARY
  5
17
102
{ACAD_REACTORS
330
A
102
}
330
A
100
AcDbDictionary
281
     1
  3
Model
350
16
  3
レイアウト1
350
1B
  0
DICTIONARY
  5
C
102
{ACAD_REACTORS
330
A
102
}
330
A
100
AcDbDictionary
281
     1
  3
ByBlock
350
45
  3
ByLayer
350
3D
  3
Global
350
B
  0
DICTIONARY
  5
B16
102
{ACAD_REACTORS
330
A
102
}
330
A
100
AcDbDictionary
281
     1
  3
Standard
350
B17
  0
DICTIONARY
  5
3B
102
{ACAD_REACTORS
330
A
102
}
330
A
100
AcDbDictionary
281
     1
  3
STANDARD
350
53
  0
DICTIONARY
  5
3C
102
{ACAD_REACTORS
330
A
102
}
330
A
100
AcDbDictionary
281
     1
  0
ACDBDICTIONARYWDFLT
  5
9
102
{ACAD_REACTORS
330
A
102
}
330
A
100
AcDbDictionary
281
     1
  3
Normal
350
8
100
AcDbDictionaryWithDefault
340
8
  0
DICTIONARY
  5
4E
102
{ACAD_REACTORS
330
A
102
}
330
A
100
AcDbDictionary
281
     1
  3
*A1
350
C1A
  3
*A2
350
165E
  3
*A3
350
165F
  3
A0
350
57
  3
A1
350
58
  3
A2
350
59
  3
A3
350
5A
  3
A4
350
5B
  3
A5
350
5C
  3
A6
350
5D
  3
A7
350
5E
  3
A8
350
5F
  3
A9
350
60
  3
B0
350
61
  3
B1
350
62
  3
B2
350
63
  3
B3
350
64
  3
B4
350
65
  3
B5
350
66
  3
B6
350
67
  3
B7
350
68
  3
B8
350
69
  3
B9
350
6A
  3
C0
350
6B
  3
C1
350
6C
  3
C2
350
6D
  3
C3
350
6E
  3
C4
350
6F
  3
C5
350
70
  3
C6
350
71
  3
C7
350
72
  3
C8
350
73
  3
C9
350
74
  3
D0
350
75
  3
D1
350
76
  3
D2
350
77
  0
DICTIONARY
  5
4F
102
{ACAD_REACTORS
330
A
102
}
330
A
100
AcDbDictionary
281
     1
  3
Standard
350
54
  0
DICTIONARY
  5
2D
102
{ACAD_REACTORS
330
A
102
}
330
A
100
AcDbDictionary
281
     1
  3
2dWireframe
350
B0D
  3
3D Hidden
350
B0E
  3
3dWireframe
350
56
  3
Basic
350
B0C
  3
Brighten
350
B11
  3
ColorChange
350
B15
  3
Conceptual
350
B0F
  3
Dim
350
B10
  3
Facepattern
350
B14
  3
Flat
350
B09
  3
FlatWithEdges
350
B0A
  3
Gouraud
350
2C
  3
GouraudWithEdges
350
B0B
  3
Linepattern
350
B13
  3
Realistic
350
55
  3
Thicken
350
B12
  0
XRECORD
  5
B02
102
{ACAD_REACTORS
330
A
102
}
330
A
100
AcDbXrecord
280
     1
 90
        1
330
54
  0
DICTIONARY
  5
B03
102
{ACAD_REACTORS
330
A
102
}
330
A
100
AcDbDictionary
281
     1
  3
CANNOSCALE
350
B06
  3
CMLEADERSTYLE
350
B05
  3
CTABLESTYLE
350
B04
  3
DIMASSOC
350
B7B
  3
HIDETEXT
350
B7A
  3
INDEXCTL
350
B79
  3
LIGHTINGUNITS
350
B07
  3
MSLTSCALE
350
B77
  3
SORTENTS
350
B78
  0
DICTIONARY
  5
AFC
102
{ACAD_REACTORS
330
A
102
}
330
A
100
AcDbDictionary
281
     1
  3
AcmStdDictionary
350
1260
  3
AMDTSECTSYM_ARROWCOLOR
350
1277
  0
DICTIONARY
  5
1198
102
{ACAD_REACTORS
330
A
102
}
330
A
100
AcDbDictionary
281
     1
  3
AcMgSettings
350
1199
  0
DICTIONARY
  5
136A
102
{ACAD_REACTORS
330
A
102
}
330
A
100
AcDbDictionary
281
     1
  3
DIMENSION
350
136F
  3
FEA
350
136E
  3
HATCH (1)
350
136B
  3
HATCH (2)
350
136C
  3
SIMPLE WELD
350
1370
  3
SYMBOLS
350
136D
  0
XRECORD
  5
200A
102
{ACAD_REACTORS
330
A
102
}
330
A
100
AcDbXrecord
280
     1
  1
DWGPROPS COOKIE
  2

  3

  4

  6

  7

  8
W000135
  9

300
AmdtFileType=84
301
=
302
=
303
=
304
=
305
=
306
=
307
=
308
=
309
=
 40
1.952748032407407
 41
2451324.468257373
 42
2455894.564709225
  1

 90
        1
  0
DICTIONARY
  5
1ED7
102
{ACAD_REACTORS
330
20
102
}
330
20
100
AcDbDictionary
281
     1
  0
DICTIONARY
  5
21
102
{ACAD_REACTORS
330
20
102
}
330
20
100
AcDbDictionary
281
     1
  0
DICTIONARY
  5
1ED6
102
{ACAD_REACTORS
330
20
102
}
330
20
100
AcDbDictionary
281
     1
1001
ACAD
1000
<All
  0
XRECORD
  5
7
102
{ACAD_REACTORS
330
6
102
}
330
6
100
AcDbXrecord
280
     1
290
     1
  0
DICTIONARY
  5
1477
102
{ACAD_REACTORS
330
3
102
}
330
3
100
AcDbDictionary
281
     1
  3
*A1
350
1478
  0
SORTENTSTABLE
  5
B34
102
{ACAD_REACTORS
330
3
102
}
330
3
100
AcDbSortentsTable
330
2
  0
XRECORD
  5
200D
102
{ACAD_REACTORS
330
200B
102
}
330
200B
100
AcDbXrecord
280
     1
 70
     1
  0
XRECORD
  5
200C
102
{ACAD_REACTORS
330
200B
102
}
330
200B
100
AcDbXrecord
280
     1
 40
15.0
  0
LAYOUT
  5
16
102
{ACAD_XDICTIONARY
360
200E
102
}
102
{ACAD_REACTORS
330
17
102
}
330
17
100
AcDbPlotSettings
  1

  2
なし
  4

  6

 40
0.0
 41
0.0
 42
0.0
 43
0.0
 44
0.0
 45
0.0
 46
0.0
 47
0.0
 48
0.0
 49
0.0
140
0.0
141
0.0
142
1.0
143
1.0
 70
  1712
 72
     0
 73
     0
 74
     0
  7

 75
     0
147
1.0
148
0.0
149
0.0
100
AcDbLayout
  1
Model
 70
     1
 71
     0
 10
0.0
 20
0.0
 11
12.0
 21
9.0
 12
0.0
 22
0.0
 32
0.0
 14
0.0
 24
0.0
 34
0.0
 15
0.0
 25
0.0
 35
0.0
146
0.0
 13
0.0
 23
0.0
 33
0.0
 16
1.0
 26
0.0
 36
0.0
 17
0.0
 27
1.0
 37
0.0
 76
     0
330
2
331
BB4
  0
LAYOUT
  5
1B
102
{ACAD_XDICTIONARY
360
1C
102
}
102
{ACAD_REACTORS
330
17
102
}
330
17
100
AcDbPlotSettings
  1

  2
Microsoft XPS Document Writer
  4
A4
  6

 40
3.174999952316281
 41
3.174999952316281
 42
3.175003051757812
 43
3.17498779296875
 44
210.0156707763672
 45
297.0106506347656
 46
0.0
 47
0.0
 48
0.0
 49
0.0
140
0.0
141
0.0
142
1.0
143
1.0
 70
   688
 72
     1
 73
     1
 74
     5
  7

 75
    16
147
1.0
148
0.0
149
0.0
100
AcDbLayout
  1
レイアウト1
 70
     1
 71
     1
 10
0.0
 20
0.0
 11
12.0
 21
9.0
 12
0.0
 22
0.0
 32
0.0
 14
-1439.804583653114
 24
-1400.237631316938
 34
0.0
 15
2872.968780515991
 25
1675.790811506817
 35
0.0
146
0.0
 13
0.0
 23
0.0
 33
0.0
 16
1.0
 26
0.0
 36
0.0
 17
0.0
 27
1.0
 37
0.0
 76
     0
330
18
1001
ACAD_PSEXT
1000
Microsoft XPS Document Writer
1000
Microsoft XPS Document Writer
1000
XPSPort:
1000

1070
     0
  0
MATERIAL
  5
45
102
{ACAD_XDICTIONARY
360
46
102
}
102
{ACAD_REACTORS
330
C
102
}
330
C
100
AcDbMaterial
  1
ByBlock
 72
     0
 43
0.0208333333333333
 43
0.0
 43
0.0
 43
0.0
 43
0.0
 43
0.0208333333333333
 43
0.0
 43
0.0
 43
0.0
 43
0.0
 43
1.0
 43
0.0
 43
0.0
 43
0.0
 43
0.0
 43
1.0
 77
     0
 47
0.0208333333333333
 47
0.0
 47
0.0
 47
0.0
 47
0.0
 47
0.0208333333333333
 47
0.0
 47
0.0
 47
0.0
 47
0.0
 47
1.0
 47
0.0
 47
0.0
 47
0.0
 47
0.0
 47
1.0
171
     0
 49
0.0208333333333333
 49
0.0
 49
0.0
 49
0.0
 49
0.0
 49
0.0208333333333333
 49
0.0
 49
0.0
 49
0.0
 49
0.0
 49
1.0
 49
0.0
 49
0.0
 49
0.0
 49
0.0
 49
1.0
175
     0
142
0.0208333333333333
142
0.0
142
0.0
142
0.0
142
0.0
142
0.0208333333333333
142
0.0
142
0.0
142
0.0
142
0.0
142
1.0
142
0.0
142
0.0
142
0.0
142
0.0
142
1.0
179
     0
144
0.0208333333333333
144
0.0
144
0.0
144
0.0
144
0.0
144
0.0208333333333333
144
0.0
144
0.0
144
0.0
144
0.0
144
1.0
144
0.0
144
0.0
144
0.0
144
0.0
144
1.0
147
0.0208333333333333
147
0.0
147
0.0
147
0.0
147
0.0
147
0.0208333333333333
147
0.0
147
0.0
147
0.0
147
0.0
147
1.0
147
0.0
147
0.0
147
0.0
147
0.0
147
1.0
  0
MATERIAL
  5
3D
102
{ACAD_XDICTIONARY
360
3E
102
}
102
{ACAD_REACTORS
330
C
102
}
330
C
100
AcDbMaterial
  1
ByLayer
 72
     0
 43
0.0208333333333333
 43
0.0
 43
0.0
 43
0.0
 43
0.0
 43
0.0208333333333333
 43
0.0
 43
0.0
 43
0.0
 43
0.0
 43
1.0
 43
0.0
 43
0.0
 43
0.0
 43
0.0
 43
1.0
 77
     0
 47
0.0208333333333333
 47
0.0
 47
0.0
 47
0.0
 47
0.0
 47
0.0208333333333333
 47
0.0
 47
0.0
 47
0.0
 47
0.0
 47
1.0
 47
0.0
 47
0.0
 47
0.0
 47
0.0
 47
1.0
171
     0
 49
0.0208333333333333
 49
0.0
 49
0.0
 49
0.0
 49
0.0
 49
0.0208333333333333
 49
0.0
 49
0.0
 49
0.0
 49
0.0
 49
1.0
 49
0.0
 49
0.0
 49
0.0
 49
0.0
 49
1.0
175
     0
142
0.0208333333333333
142
0.0
142
0.0
142
0.0
142
0.0
142
0.0208333333333333
142
0.0
142
0.0
142
0.0
142
0.0
142
1.0
142
0.0
142
0.0
142
0.0
142
0.0
142
1.0
179
     0
144
0.0208333333333333
144
0.0
144
0.0
144
0.0
144
0.0
144
0.0208333333333333
144
0.0
144
0.0
144
0.0
144
0.0
144
1.0
144
0.0
144
0.0
144
0.0
144
0.0
144
1.0
147
0.0208333333333333
147
0.0
147
0.0
147
0.0
147
0.0
147
0.0208333333333333
147
0.0
147
0.0
147
0.0
147
0.0
147
1.0
147
0.0
147
0.0
147
0.0
147
0.0
147
1.0
  0
MATERIAL
  5
B
102
{ACAD_XDICTIONARY
360
D
102
}
102
{ACAD_REACTORS
330
C
102
}
330
C
100
AcDbMaterial
  1
Global
 72
     0
 43
0.0208333333333333
 43
0.0
 43
0.0
 43
0.0
 43
0.0
 43
0.0208333333333333
 43
0.0
 43
0.0
 43
0.0
 43
0.0
 43
1.0
 43
0.0
 43
0.0
 43
0.0
 43
0.0
 43
1.0
 77
     0
 47
0.0208333333333333
 47
0.0
 47
0.0
 47
0.0
 47
0.0
 47
0.0208333333333333
 47
0.0
 47
0.0
 47
0.0
 47
0.0
 47
1.0
 47
0.0
 47
0.0
 47
0.0
 47
0.0
 47
1.0
171
     0
 49
0.0208333333333333
 49
0.0
 49
0.0
 49
0.0
 49
0.0
 49
0.0208333333333333
 49
0.0
 49
0.0
 49
0.0
 49
0.0
 49
1.0
 49
0.0
 49
0.0
 49
0.0
 49
0.0
 49
1.0
175
     0
142
0.0208333333333333
142
0.0
142
0.0
142
0.0
142
0.0
142
0.0208333333333333
142
0.0
142
0.0
142
0.0
142
0.0
142
1.0
142
0.0
142
0.0
142
0.0
142
0.0
142
1.0
179
     0
144
0.0208333333333333
144
0.0
144
0.0
144
0.0
144
0.0
144
0.0208333333333333
144
0.0
144
0.0
144
0.0
144
0.0
144
1.0
144
0.0
144
0.0
144
0.0
144
0.0
144
1.0
147
0.0208333333333333
147
0.0
147
0.0
147
0.0
147
0.0
147
0.0208333333333333
147
0.0
147
0.0
147
0.0
147
0.0
147
1.0
147
0.0
147
0.0
147
0.0
147
0.0
147
1.0
  0
MLEADERSTYLE
  5
B17
102
{ACAD_REACTORS
330
B16
330
1A1B
102
}
330
B16
100
AcDbMLeaderStyle
170
     2
171
     1
172
     0
 90
        2
 40
0.0
 41
0.0
173
     1
 91
-1056964608
340
26
 92
       -2
290
     1
 42
2.0
291
     1
 43
0.36
  3
Standard
 44
4.0
300

342
23
174
     1
178
     6
175
     1
176
     0
 93
-1056964608
 45
4.0
292
     0
297
     0
 46
4.0
 94
-1056964608
 47
1.0
 49
1.0
140
1.0
293
     1
141
0.0
294
     1
177
     0
142
1.0
295
     0
296
     0
143
0.125
1001
ACAD_MLEADERVER
1070
     2
  0
MLINESTYLE
  5
53
102
{ACAD_REACTORS
330
3B
102
}
330
3B
100
AcDbMlineStyle
  2
STANDARD
 70
     0
  3

 62
   256
 51
90.0
 52
90.0
 71
     2
 49
0.5
 62
   256
  6
BYLAYER
 49
-0.5
 62
   256
  6
BYLAYER
  0
ACDBPLACEHOLDER
  5
8
102
{ACAD_REACTORS
330
9
102
}
330
9
  0
SCALE
  5
C1A
102
{ACAD_REACTORS
330
4E
102
}
330
4E
100
AcDbScale
 70
     0
300
1:5_XREF
140
1.0
141
5.0
290
     0
  0
SCALE
  5
165E
102
{ACAD_REACTORS
330
4E
102
}
330
4E
100
AcDbScale
 70
     0
300
1:5_XREF_XREF
140
1.0
141
5.0
290
     0
  0
SCALE
  5
165F
102
{ACAD_REACTORS
330
4E
102
}
330
4E
100
AcDbScale
 70
     0
300
1:5_XREF_XREF_XREF_XREF
140
1.0
141
5.0
290
     0
  0
SCALE
  5
57
102
{ACAD_REACTORS
330
4E
102
}
330
4E
100
AcDbScale
 70
     0
300
1:1
140
1.0
141
1.0
290
     1
  0
SCALE
  5
58
102
{ACAD_REACTORS
330
4E
102
}
330
4E
100
AcDbScale
 70
     0
300
1:2
140
1.0
141
2.0
290
     0
  0
SCALE
  5
59
102
{ACAD_REACTORS
330
4E
102
}
330
4E
100
AcDbScale
 70
     0
300
1:4
140
1.0
141
4.0
290
     0
  0
SCALE
  5
5A
102
{ACAD_REACTORS
330
4E
102
}
330
4E
100
AcDbScale
 70
     0
300
1:5
140
1.0
141
5.0
290
     0
  0
SCALE
  5
5B
102
{ACAD_REACTORS
330
4E
102
}
330
4E
100
AcDbScale
 70
     0
300
1:8
140
1.0
141
8.0
290
     0
  0
SCALE
  5
5C
102
{ACAD_REACTORS
330
4E
102
}
330
4E
100
AcDbScale
 70
     0
300
1:10
140
1.0
141
10.0
290
     0
  0
SCALE
  5
5D
102
{ACAD_REACTORS
330
4E
102
}
330
4E
100
AcDbScale
 70
     0
300
1:16
140
1.0
141
16.0
290
     0
  0
SCALE
  5
5E
102
{ACAD_REACTORS
330
4E
102
}
330
4E
100
AcDbScale
 70
     0
300
1:20
140
1.0
141
20.0
290
     0
  0
SCALE
  5
5F
102
{ACAD_REACTORS
330
4E
102
}
330
4E
100
AcDbScale
 70
     0
300
1:30
140
1.0
141
30.0
290
     0
  0
SCALE
  5
60
102
{ACAD_REACTORS
330
4E
102
}
330
4E
100
AcDbScale
 70
     0
300
1:40
140
1.0
141
40.0
290
     0
  0
SCALE
  5
61
102
{ACAD_REACTORS
330
4E
102
}
330
4E
100
AcDbScale
 70
     0
300
1:50
140
1.0
141
50.0
290
     0
  0
SCALE
  5
62
102
{ACAD_REACTORS
330
4E
102
}
330
4E
100
AcDbScale
 70
     0
300
1:100
140
1.0
141
100.0
290
     0
  0
SCALE
  5
63
102
{ACAD_REACTORS
330
4E
102
}
330
4E
100
AcDbScale
 70
     0
300
2:1
140
2.0
141
1.0
290
     0
  0
SCALE
  5
64
102
{ACAD_REACTORS
330
4E
102
}
330
4E
100
AcDbScale
 70
     0
300
4:1
140
4.0
141
1.0
290
     0
  0
SCALE
  5
65
102
{ACAD_REACTORS
330
4E
102
}
330
4E
100
AcDbScale
 70
     0
300
8:1
140
8.0
141
1.0
290
     0
  0
SCALE
  5
66
102
{ACAD_REACTORS
330
4E
102
}
330
4E
100
AcDbScale
 70
     0
300
10:1
140
10.0
141
1.0
290
     0
  0
SCALE
  5
67
102
{ACAD_REACTORS
330
4E
102
}
330
4E
100
AcDbScale
 70
     0
300
100:1
140
100.0
141
1.0
290
     0
  0
SCALE
  5
68
102
{ACAD_REACTORS
330
4E
102
}
330
4E
100
AcDbScale
 70
     0
300
1/128" = 1'-0"
140
0.0078125
141
12.0
290
     0
  0
SCALE
  5
69
102
{ACAD_REACTORS
330
4E
102
}
330
4E
100
AcDbScale
 70
     0
300
1/64" = 1'-0"
140
0.015625
141
12.0
290
     0
  0
SCALE
  5
6A
102
{ACAD_REACTORS
330
4E
102
}
330
4E
100
AcDbScale
 70
     0
300
1/32" = 1'-0"
140
0.03125
141
12.0
290
     0
  0
SCALE
  5
6B
102
{ACAD_REACTORS
330
4E
102
}
330
4E
100
AcDbScale
 70
     0
300
1/16" = 1'-0"
140
0.0625
141
12.0
290
     0
  0
SCALE
  5
6C
102
{ACAD_REACTORS
330
4E
102
}
330
4E
100
AcDbScale
 70
     0
300
3/32" = 1'-0"
140
0.09375
141
12.0
290
     0
  0
SCALE
  5
6D
102
{ACAD_REACTORS
330
4E
102
}
330
4E
100
AcDbScale
 70
     0
300
1/8" = 1'-0"
140
0.125
141
12.0
290
     0
  0
SCALE
  5
6E
102
{ACAD_REACTORS
330
4E
102
}
330
4E
100
AcDbScale
 70
     0
300
3/16" = 1'-0"
140
0.1875
141
12.0
290
     0
  0
SCALE
  5
6F
102
{ACAD_REACTORS
330
4E
102
}
330
4E
100
AcDbScale
 70
     0
300
1/4" = 1'-0"
140
0.25
141
12.0
290
     0
  0
SCALE
  5
70
102
{ACAD_REACTORS
330
4E
102
}
330
4E
100
AcDbScale
 70
     0
300
3/8" = 1'-0"
140
0.375
141
12.0
290
     0
  0
SCALE
  5
71
102
{ACAD_REACTORS
330
4E
102
}
330
4E
100
AcDbScale
 70
     0
300
1/2" = 1'-0"
140
0.5
141
12.0
290
     0
  0
SCALE
  5
72
102
{ACAD_REACTORS
330
4E
102
}
330
4E
100
AcDbScale
 70
     0
300
3/4" = 1'-0"
140
0.75
141
12.0
290
     0
  0
SCALE
  5
73
102
{ACAD_REACTORS
330
4E
102
}
330
4E
100
AcDbScale
 70
     0
300
1" = 1'-0"
140
1.0
141
12.0
290
     0
  0
SCALE
  5
74
102
{ACAD_REACTORS
330
4E
102
}
330
4E
100
AcDbScale
 70
     0
300
1-1/2" = 1'-0"
140
1.5
141
12.0
290
     0
  0
SCALE
  5
75
102
{ACAD_REACTORS
330
4E
102
}
330
4E
100
AcDbScale
 70
     0
300
3" = 1'-0"
140
3.0
141
12.0
290
     0
  0
SCALE
  5
76
102
{ACAD_REACTORS
330
4E
102
}
330
4E
100
AcDbScale
 70
     0
300
6" = 1'-0"
140
6.0
141
12.0
290
     0
  0
SCALE
  5
77
102
{ACAD_REACTORS
330
4E
102
}
330
4E
100
AcDbScale
 70
     0
300
1'-0" = 1'-0"
140
12.0
141
12.0
290
     0
  0
TABLESTYLE
  5
54
102
{ACAD_XDICTIONARY
360
B00
102
}
102
{ACAD_REACTORS
330
4F
102
}
330
4F
100
AcDbTableStyle
  3
Standard
 70
     0
 71
     0
 40
1.5
 41
1.5
280
     0
281
     0
  7
STANDARD
140
4.5
170
     2
 62
     0
 63
     7
283
     0
274
    -2
284
     1
 64
     0
275
    -2
285
     1
 65
     0
276
    -2
286
     1
 66
     0
277
    -2
287
     1
 67
     0
278
    -2
288
     1
 68
     0
279
    -2
289
     1
 69
     0
  7
STANDARD
140
6.0
170
     5
 62
     0
 63
     7
283
     0
274
    -2
284
     1
 64
     0
275
    -2
285
     1
 65
     0
276
    -2
286
     1
 66
     0
277
    -2
287
     1
 67
     0
278
    -2
288
     1
 68
     0
279
    -2
289
     1
 69
     0
  7
STANDARD
140
4.5
170
     5
 62
     0
 63
     7
283
     0
274
    -2
284
     1
 64
     0
275
    -2
285
     1
 65
     0
276
    -2
286
     1
 66
     0
277
    -2
287
     1
 67
     0
278
    -2
288
     1
 68
     0
279
    -2
289
     1
 69
     0
  0
VISUALSTYLE
  5
B0D
102
{ACAD_REACTORS
330
2D
102
}
330
2D
100
AcDbVisualStyle
  2
2dWireframe
 70
     4
 71
     0
 72
     2
 73
     0
 90
        0
 40
-0.6
 41
-30.0
 62
     5
 63
     7
 74
     1
 91
        4
 64
     7
 65
   257
 75
     1
175
     1
 42
1.0
 92
        0
 66
   257
 43
1.0
 76
     1
 77
     6
 78
     2
 67
     7
 79
     5
170
     0
171
     0
290
     0
174
     0
 93
        1
 44
0.0
173
     0
291
     0
 45
0.0
1001
ACAD
1000
AcDbSavedByObjectVersion
1070
     0
1000
AcDbSavedByObjectVersion
1070
     0
1000
AcDbSavedByObjectVersion
1070
     0
1000
AcDbSavedByObjectVersion
1070
     0
1000
AcDbSavedByObjectVersion
1070
     0
1000
AcDbSavedByObjectVersion
1070
     0
1000
AcDbSavedByObjectVersion
1070
     0
1000
AcDbSavedByObjectVersion
1070
     0
  0
VISUALSTYLE
  5
B0E
102
{ACAD_REACTORS
330
2D
102
}
330
2D
100
AcDbVisualStyle
  2
3D Hidden
 70
     6
 71
     1
 72
     2
 73
     2
 90
        0
 40
-0.6
 41
-30.0
 62
     5
 63
     7
 74
     2
 91
        2
 64
     7
 65
   257
 75
     2
175
     1
 42
40.0
 92
        0
 66
   257
 43
1.0
 76
     1
 77
     6
 78
     2
 67
     7
 79
     3
170
     0
171
     0
290
     0
174
     0
 93
        1
 44
0.0
173
     0
291
     0
 45
0.0
1001
ACAD
1000
AcDbSavedByObjectVersion
1070
     0
1000
AcDbSavedByObjectVersion
1070
     0
1000
AcDbSavedByObjectVersion
1070
     0
1000
AcDbSavedByObjectVersion
1070
     0
1000
AcDbSavedByObjectVersion
1070
     0
1000
AcDbSavedByObjectVersion
1070
     0
1000
AcDbSavedByObjectVersion
1070
     0
1000
AcDbSavedByObjectVersion
1070
     0
  0
VISUALSTYLE
  5
56
102
{ACAD_REACTORS
330
2D
102
}
330
2D
100
AcDbVisualStyle
  2
3dWireframe
 70
     5
 71
     0
 72
     2
 73
     0
 90
        0
 40
-0.6
 41
-30.0
 62
     5
 63
     7
 74
     1
 91
        4
 64
     7
 65
   257
 75
     1
175
     1
 42
1.0
 92
        0
 66
   257
 43
1.0
 76
     1
 77
     6
 78
     2
 67
     7
 79
     5
170
     0
171
     0
290
     0
174
     0
 93
        1
 44
0.0
173
     0
291
     0
 45
0.0
1001
ACAD
1000
AcDbSavedByObjectVersion
1070
     0
1000
AcDbSavedByObjectVersion
1070
     0
1000
AcDbSavedByObjectVersion
1070
     0
1000
AcDbSavedByObjectVersion
1070
     0
1000
AcDbSavedByObjectVersion
1070
     0
1000
AcDbSavedByObjectVersion
1070
     0
1000
AcDbSavedByObjectVersion
1070
     0
1000
AcDbSavedByObjectVersion
1070
     0
  0
VISUALSTYLE
  5
B0C
102
{ACAD_REACTORS
330
2D
102
}
330
2D
100
AcDbVisualStyle
  2
Basic
 70
     7
 71
     1
 72
     0
 73
     1
 90
        0
 40
-0.6
 41
-30.0
 62
     5
 63
     7
 74
     0
 91
        4
 64
     7
 65
   257
 75
     1
175
     1
 42
1.0
 92
        8
 66
     7
 43
1.0
 76
     1
 77
     6
 78
     2
 67
     7
 79
     5
170
     0
171
     0
290
     0
174
     0
 93
        1
 44
0.0
173
     0
291
     1
 45
0.0
1001
ACAD
1000
AcDbSavedByObjectVersion
1070
     0
1000
AcDbSavedByObjectVersion
1070
     0
1000
AcDbSavedByObjectVersion
1070
     0
1000
AcDbSavedByObjectVersion
1070
     0
1000
AcDbSavedByObjectVersion
1070
     0
1000
AcDbSavedByObjectVersion
1070
     0
1000
AcDbSavedByObjectVersion
1070
     0
1000
AcDbSavedByObjectVersion
1070
     0
  0
VISUALSTYLE
  5
B11
102
{ACAD_REACTORS
330
2D
102
}
330
2D
100
AcDbVisualStyle
  2
Brighten
 70
    12
 71
     2
 72
     2
 73
     0
 90
        0
 40
-0.6
 41
-30.0
 62
     5
 63
     7
 74
     1
 91
        4
 64
     7
 65
   257
 75
     1
175
     1
 42
1.0
 92
        8
 66
     7
 43
1.0
 76
     1
 77
     6
 78
     2
 67
     7
 79
     5
170
     0
171
     0
290
     0
174
     0
 93
        1
 44
50.0
173
     0
291
     1
 45
0.0
1001
ACAD
1000
AcDbSavedByObjectVersion
1070
     0
1000
AcDbSavedByObjectVersion
1070
     0
1000
AcDbSavedByObjectVersion
1070
     0
1000
AcDbSavedByObjectVersion
1070
     0
1000
AcDbSavedByObjectVersion
1070
     0
1000
AcDbSavedByObjectVersion
1070
     0
1000
AcDbSavedByObjectVersion
1070
     0
1000
AcDbSavedByObjectVersion
1070
     0
  0
VISUALSTYLE
  5
B15
102
{ACAD_REACTORS
330
2D
102
}
330
2D
100
AcDbVisualStyle
  2
ColorChange
 70
    16
 71
     2
 72
     2
 73
     3
 90
        0
 40
-0.6
 41
-30.0
 62
     5
 63
     8
 74
     1
 91
        4
 64
     7
 65
   257
 75
     1
175
     1
 42
1.0
 92
        8
 66
     8
 43
1.0
 76
     1
 77
     6
 78
     2
 67
     7
 79
     5
170
     0
171
     0
290
     0
174
     0
 93
        1
 44
0.0
173
     0
291
     1
 45
0.0
1001
ACAD
1000
AcDbSavedByObjectVersion
1070
     0
1000
AcDbSavedByObjectVersion
1070
     0
1000
AcDbSavedByObjectVersion
1070
     0
1000
AcDbSavedByObjectVersion
1070
     0
1000
AcDbSavedByObjectVersion
1070
     0
1000
AcDbSavedByObjectVersion
1070
     0
1000
AcDbSavedByObjectVersion
1070
     0
1000
AcDbSavedByObjectVersion
1070
     0
  0
VISUALSTYLE
  5
B0F
102
{ACAD_REACTORS
330
2D
102
}
330
2D
100
AcDbVisualStyle
  2
Conceptual
 70
     9
 71
     3
 72
     2
 73
     0
 90
        0
 40
-0.6
 41
-30.0
 62
     5
 63
     7
 74
     2
 91
        2
 64
     7
 65
   257
 75
     1
175
     1
 42
40.0
 92
        8
 66
     7
 43
1.0
 76
     1
 77
     6
 78
     2
 67
     7
 79
     3
170
     0
171
     0
290
     0
174
     0
 93
        1
 44
0.0
173
     0
291
     0
 45
0.0
1001
ACAD
1000
AcDbSavedByObjectVersion
1070
     0
1000
AcDbSavedByObjectVersion
1070
     0
1000
AcDbSavedByObjectVersion
1070
     0
1000
AcDbSavedByObjectVersion
1070
     0
1000
AcDbSavedByObjectVersion
1070
     0
1000
AcDbSavedByObjectVersion
1070
     0
1000
AcDbSavedByObjectVersion
1070
     0
1000
AcDbSavedByObjectVersion
1070
     0
  0
VISUALSTYLE
  5
B10
102
{ACAD_REACTORS
330
2D
102
}
330
2D
100
AcDbVisualStyle
  2
Dim
 70
    11
 71
     2
 72
     2
 73
     0
 90
        0
 40
-0.6
 41
-30.0
 62
     5
 63
     7
 74
     1
 91
        4
 64
     7
 65
   257
 75
     1
175
     1
 42
1.0
 92
        8
 66
     7
 43
1.0
 76
     1
 77
     6
 78
     2
 67
     7
 79
     5
170
     0
171
     0
290
     0
174
     0
 93
        1
 44
-50.0
173
     0
291
     1
 45
0.0
1001
ACAD
1000
AcDbSavedByObjectVersion
1070
     0
1000
AcDbSavedByObjectVersion
1070
     0
1000
AcDbSavedByObjectVersion
1070
     0
1000
AcDbSavedByObjectVersion
1070
     0
1000
AcDbSavedByObjectVersion
1070
     0
1000
AcDbSavedByObjectVersion
1070
     0
1000
AcDbSavedByObjectVersion
1070
     0
1000
AcDbSavedByObjectVersion
1070
     0
  0
VISUALSTYLE
  5
B14
102
{ACAD_REACTORS
330
2D
102
}
330
2D
100
AcDbVisualStyle
  2
Facepattern
 70
    15
 71
     2
 72
     2
 73
     0
 90
        0
 40
-0.6
 41
-30.0
 62
     5
 63
     7
 74
     1
 91
        4
 64
     7
 65
   257
 75
     1
175
     1
 42
1.0
 92
        8
 66
     7
 43
1.0
 76
     1
 77
     6
 78
     2
 67
     7
 79
     5
170
     0
171
     0
290
     0
174
     0
 93
        1
 44
0.0
173
     0
291
     1
 45
0.0
1001
ACAD
1000
AcDbSavedByObjectVersion
1070
     0
1000
AcDbSavedByObjectVersion
1070
     0
1000
AcDbSavedByObjectVersion
1070
     0
1000
AcDbSavedByObjectVersion
1070
     0
1000
AcDbSavedByObjectVersion
1070
     0
1000
AcDbSavedByObjectVersion
1070
     0
1000
AcDbSavedByObjectVersion
1070
     0
1000
AcDbSavedByObjectVersion
1070
     0
  0
VISUALSTYLE
  5
B09
102
{ACAD_REACTORS
330
2D
102
}
330
2D
100
AcDbVisualStyle
  2
Flat
 70
     0
 71
     2
 72
     1
 73
     1
 90
        2
 40
-0.6
 41
30.0
 62
     5
 63
     7
 74
     0
 91
        4
 64
     7
 65
   257
 75
     1
175
     1
 42
1.0
 92
        8
 66
     7
 43
1.0
 76
     1
 77
     6
 78
     2
 67
     7
 79
     5
170
     0
171
     0
290
     0
174
     0
 93
       13
 44
0.0
173
     0
291
     1
 45
0.0
1001
ACAD
1000
AcDbSavedByObjectVersion
1070
     0
1000
AcDbSavedByObjectVersion
1070
     0
1000
AcDbSavedByObjectVersion
1070
     0
1000
AcDbSavedByObjectVersion
1070
     0
1000
AcDbSavedByObjectVersion
1070
     0
1000
AcDbSavedByObjectVersion
1070
     0
1000
AcDbSavedByObjectVersion
1070
     0
1000
AcDbSavedByObjectVersion
1070
     0
  0
VISUALSTYLE
  5
B0A
102
{ACAD_REACTORS
330
2D
102
}
330
2D
100
AcDbVisualStyle
  2
FlatWithEdges
 70
     1
 71
     2
 72
     1
 73
     1
 90
        2
 40
-0.6
 41
30.0
 62
     5
 63
     7
 74
     1
 91
        4
 64
     7
 65
   257
 75
     1
175
     1
 42
1.0
 92
        0
 66
   257
 43
1.0
 76
     1
 77
     6
 78
     2
 67
     7
 79
     5
170
     0
171
     0
290
     0
174
     0
 93
       13
 44
0.0
173
     0
291
     1
 45
0.0
1001
ACAD
1000
AcDbSavedByObjectVersion
1070
     0
1000
AcDbSavedByObjectVersion
1070
     0
1000
AcDbSavedByObjectVersion
1070
     0
1000
AcDbSavedByObjectVersion
1070
     0
1000
AcDbSavedByObjectVersion
1070
     0
1000
AcDbSavedByObjectVersion
1070
     0
1000
AcDbSavedByObjectVersion
1070
     0
1000
AcDbSavedByObjectVersion
1070
     0
  0
VISUALSTYLE
  5
2C
102
{ACAD_REACTORS
330
2D
102
}
330
2D
100
AcDbVisualStyle
  2
Gouraud
 70
     2
 71
     2
 72
     2
 73
     1
 90
        2
 40
-0.6
 41
30.0
 62
     5
 63
     7
 74
     0
 91
        4
 64
     7
 65
   257
 75
     1
175
     1
 42
1.0
 92
        0
 66
     7
 43
1.0
 76
     1
 77
     6
 78
     2
 67
     7
 79
     5
170
     0
171
     0
290
     0
174
     0
 93
       13
 44
0.0
173
     0
291
     1
 45
0.0
1001
ACAD
1000
AcDbSavedByObjectVersion
1070
     0
1000
AcDbSavedByObjectVersion
1070
     0
1000
AcDbSavedByObjectVersion
1070
     0
1000
AcDbSavedByObjectVersion
1070
     0
1000
AcDbSavedByObjectVersion
1070
     0
1000
AcDbSavedByObjectVersion
1070
     0
1000
AcDbSavedByObjectVersion
1070
     0
1000
AcDbSavedByObjectVersion
1070
     0
  0
VISUALSTYLE
  5
B0B
102
{ACAD_REACTORS
330
2D
102
}
330
2D
100
AcDbVisualStyle
  2
GouraudWithEdges
 70
     3
 71
     2
 72
     2
 73
     1
 90
        2
 40
-0.6
 41
30.0
 62
     5
 63
     7
 74
     1
 91
        4
 64
     7
 65
   257
 75
     1
175
     1
 42
1.0
 92
        0
 66
   257
 43
1.0
 76
     1
 77
     6
 78
     2
 67
     7
 79
     5
170
     0
171
     0
290
     0
174
     0
 93
       13
 44
0.0
173
     0
291
     1
 45
0.0
1001
ACAD
1000
AcDbSavedByObjectVersion
1070
     0
1000
AcDbSavedByObjectVersion
1070
     0
1000
AcDbSavedByObjectVersion
1070
     0
1000
AcDbSavedByObjectVersion
1070
     0
1000
AcDbSavedByObjectVersion
1070
     0
1000
AcDbSavedByObjectVersion
1070
     0
1000
AcDbSavedByObjectVersion
1070
     0
1000
AcDbSavedByObjectVersion
1070
     0
  0
VISUALSTYLE
  5
B13
102
{ACAD_REACTORS
330
2D
102
}
330
2D
100
AcDbVisualStyle
  2
Linepattern
 70
    14
 71
     2
 72
     2
 73
     0
 90
        0
 40
-0.6
 41
-30.0
 62
     5
 63
     7
 74
     1
 91
        4
 64
     7
 65
   257
 75
     7
175
     7
 42
1.0
 92
        8
 66
     7
 43
1.0
 76
     1
 77
     6
 78
     2
 67
     7
 79
     5
170
     0
171
     0
290
     0
174
     0
 93
        1
 44
0.0
173
     0
291
     1
 45
0.0
1001
ACAD
1000
AcDbSavedByObjectVersion
1070
     0
1000
AcDbSavedByObjectVersion
1070
     0
1000
AcDbSavedByObjectVersion
1070
     0
1000
AcDbSavedByObjectVersion
1070
     0
1000
AcDbSavedByObjectVersion
1070
     0
1000
AcDbSavedByObjectVersion
1070
     0
1000
AcDbSavedByObjectVersion
1070
     0
1000
AcDbSavedByObjectVersion
1070
     0
  0
VISUALSTYLE
  5
55
102
{ACAD_REACTORS
330
2D
102
}
330
2D
100
AcDbVisualStyle
  2
Realistic
 70
     8
 71
     2
 72
     2
 73
     0
 90
        0
 40
-0.6
 41
-30.0
 62
     5
 63
     7
 74
     1
 91
        0
 64
     7
 65
   257
 75
     1
175
     1
 42
1.0
 92
        8
 66
     8
 43
1.0
 76
     1
 77
     6
 78
     2
 67
     7
 79
     5
170
     0
171
     0
290
     0
174
     0
 93
       13
 44
0.0
173
     0
291
     0
 45
0.0
1001
ACAD
1000
AcDbSavedByObjectVersion
1070
     0
1000
AcDbSavedByObjectVersion
1070
     0
1000
AcDbSavedByObjectVersion
1070
     0
1000
AcDbSavedByObjectVersion
1070
     0
1000
AcDbSavedByObjectVersion
1070
     0
1000
AcDbSavedByObjectVersion
1070
     0
1000
AcDbSavedByObjectVersion
1070
     0
1000
AcDbSavedByObjectVersion
1070
     0
  0
VISUALSTYLE
  5
B12
102
{ACAD_REACTORS
330
2D
102
}
330
2D
100
AcDbVisualStyle
  2
Thicken
 70
    13
 71
     2
 72
     2
 73
     0
 90
        0
 40
-0.6
 41
-30.0
 62
     5
 63
     7
 74
     1
 91
        4
 64
     7
 65
   257
 75
     1
175
     1
 42
1.0
 92
       12
 66
     7
 43
1.0
 76
     1
 77
     6
 78
     2
 67
     7
 79
     5
170
     0
171
     0
290
     0
174
     0
 93
        1
 44
0.0
173
     0
291
     1
 45
0.0
1001
ACAD
1000
AcDbSavedByObjectVersion
1070
     0
1000
AcDbSavedByObjectVersion
1070
     0
1000
AcDbSavedByObjectVersion
1070
     0
1000
AcDbSavedByObjectVersion
1070
     0
1000
AcDbSavedByObjectVersion
1070
     0
1000
AcDbSavedByObjectVersion
1070
     0
1000
AcDbSavedByObjectVersion
1070
     0
1000
AcDbSavedByObjectVersion
1070
     0
  0
DICTIONARYVAR
  5
B06
102
{ACAD_REACTORS
330
B03
102
}
330
B03
100
DictionaryVariables
280
     0
  1
1:1
  0
DICTIONARYVAR
  5
B05
102
{ACAD_REACTORS
330
B03
102
}
330
B03
100
DictionaryVariables
280
     0
  1
STANDARD
  0
DICTIONARYVAR
  5
B04
102
{ACAD_REACTORS
330
B03
102
}
330
B03
100
DictionaryVariables
280
     0
  1
STANDARD
  0
DICTIONARYVAR
  5
B7B
102
{ACAD_REACTORS
330
B03
102
}
330
B03
100
DictionaryVariables
280
     0
  1
1
  0
DICTIONARYVAR
  5
B7A
102
{ACAD_REACTORS
330
B03
102
}
330
B03
100
DictionaryVariables
280
     0
  1
1
  0
DICTIONARYVAR
  5
B79
102
{ACAD_REACTORS
330
B03
102
}
330
B03
100
DictionaryVariables
280
     0
  1
1
  0
DICTIONARYVAR
  5
B07
102
{ACAD_REACTORS
330
B03
102
}
330
B03
100
DictionaryVariables
280
     0
  1
0
  0
DICTIONARYVAR
  5
B77
102
{ACAD_REACTORS
330
B03
102
}
330
B03
100
DictionaryVariables
280
     0
  1
1
  0
DICTIONARYVAR
  5
B78
102
{ACAD_REACTORS
330
B03
102
}
330
B03
100
DictionaryVariables
280
     0
  1
127
  0
DICTIONARY
  5
1260
102
{ACAD_REACTORS
330
AFC
102
}
330
AFC
100
AcDbDictionary
281
     1
  0
XRECORD
  5
1277
102
{ACAD_REACTORS
330
AFC
102
}
330
AFC
100
AcDbXrecord
280
     1
 90
-1023410169
  0
DICTIONARY
  5
1199
102
{ACAD_REACTORS
330
1198
102
}
330
1198
100
AcDbDictionary
281
     1
  3
DWGSETTINGS
350
1F33
  3
TRANSSETTINGS
350
1F34
  0
ACAMGFILTERDAT
  5
136F
102
{ACAD_REACTORS
330
136A
102
}
330
136A
100
AcAmgFilterDat
 70
    15
  1
DIMENSION,AMDT_*_DIM
  2
*
  3
*
  4
*
  5
*
290
     1
  0
ACAMGFILTERDAT
  5
136E
102
{ACAD_REACTORS
330
136A
102
}
330
136A
100
AcAmgFilterDat
 70
    15
  1
*
  2
AM_FEA-AM_*
  3
*
  4
*
  5
*
290
     1
  0
ACAMGFILTERDAT
  5
136B
102
{ACAD_REACTORS
330
136A
102
}
330
136A
100
AcAmgFilterDat
 70
    15
  1
HATCH
  2
*
  3
*
  4
*
  5
*
290
     1
  0
ACAMGFILTERDAT
  5
136C
102
{ACAD_REACTORS
330
136A
102
}
330
136A
100
AcAmgFilterDat
 70
    15
  1
LINE
  2
8,8N,*-8,*-8N,AM_8,AM_8N,*-AM_8,*-AM_8N
  3
*
  4
*
  5
INSERT,STDPART2D
290
     1
  0
ACAMGFILTERDAT
  5
1370
102
{ACAD_REACTORS
330
136A
102
}
330
136A
100
AcAmgFilterDat
 70
    15
  1
ARC
  2
AM_5
  3
*
  4
2
  5
INSERT
290
     0
  0
ACAMGFILTERDAT
  5
136D
102
{ACAD_REACTORS
330
136A
102
}
330
136A
100
AcAmgFilterDat
 70
    15
  1
ACMFCFRAME,ACMDATUMTARGET,ACMDATUMID,ACMWELDSYM,ACMSURFSYM,ACMFEATID,ACMPARTREF,ACMBALLOON,AMDTEDGESYM,AMGSCREWCALCTABLE
  2
*
  3
*
  4
*
  5
*
290
     1
  0
LAYER_INDEX
  5
1478
102
{ACAD_REACTORS
330
1477
102
}
330
1477
100
AcDbIndex
 40
2455894.564709225
100
AcDbLayerIndex
  8
0
360
1479
 90
        0
  8
Defpoints
360
147A
 90
        0
  8
SIZE
360
147B
 90
        5
  8
OUTLINE
360
147C
 90
      358
  8
BASIS
360
147D
 90
        1
  8
NOTE
360
147E
 90
        5
  8
ARRANGE
360
147F
 90
        3
  8
ETC
360
1480
 90
        1
  0
DICTIONARY
  5
200E
330
16
100
AcDbDictionary
280
     1
281
     1
  3
ACAD_XREC_ROUNDTRIP
360
200F
  0
DICTIONARY
  5
1C
330
1B
100
AcDbDictionary
280
     1
281
     1
  3
ACAD_XREC_ROUNDTRIP
360
2010
  3
ADSK_XREC_LAYOUTTHUMBNAIL
360
1D
  0
DICTIONARY
  5
46
330
45
100
AcDbDictionary
280
     1
281
     1
  3
ACAD_XREC_ROUNDTRIP
360
B71
  3
BUMPTILE
360
47
  3
DIFFUSETILE
360
48
  3
OPACITYTILE
360
49
  3
REFLECTIONTILE
360
4A
  3
REFRACTIONTILE
360
4B
  3
SPECULARTILE
360
4C
  0
DICTIONARY
  5
3E
330
3D
100
AcDbDictionary
280
     1
281
     1
  3
ACAD_XREC_ROUNDTRIP
360
B70
  3
BUMPTILE
360
3F
  3
DIFFUSETILE
360
40
  3
OPACITYTILE
360
41
  3
REFLECTIONTILE
360
42
  3
REFRACTIONTILE
360
43
  3
SPECULARTILE
360
44
  0
DICTIONARY
  5
D
330
B
100
AcDbDictionary
280
     1
281
     1
  3
ACAD_XREC_ROUNDTRIP
360
B69
  3
BUMPTILE
360
E
  3
DIFFUSETILE
360
F
  3
OPACITYTILE
360
10
  3
REFLECTIONTILE
360
11
  3
REFRACTIONTILE
360
12
  3
SPECULARTILE
360
13
  0
DICTIONARY
  5
B00
330
54
100
AcDbDictionary
280
     1
281
     1
  3
ACAD_ROUNDTRIP_2008_TABLESTYLE_CELLSTYLEMAP
360
2009
  3
ACAD_XREC_ROUNDTRIP
360
2011
  0
IDBUFFER
  5
1479
330
0
100
AcDbIdBuffer
  0
IDBUFFER
  5
147A
330
0
100
AcDbIdBuffer
  0
IDBUFFER
  5
147B
330
0
100
AcDbIdBuffer
330
1EDC
330
1EE9
330
1EF8
330
1F05
330
1F12
  0
IDBUFFER
  5
147C
330
0
100
AcDbIdBuffer
330
1D6C
330
1D6D
330
1D6E
330
1D6F
330
1D70
330
1D71
330
1D72
330
1D73
330
1D74
330
1D75
330
1D76
330
1D77
330
1D78
330
1D79
330
1D7A
330
1D7B
330
1D7C
330
1D7D
330
1D7E
330
1D7F
330
1D80
330
1D81
330
1D82
330
1D83
330
1D84
330
1D85
330
1D86
330
1D87
330
1D88
330
1D89
330
1D8A
330
1D8B
330
1D8C
330
1D8D
330
1D8E
330
1D8F
330
1D90
330
1D91
330
1D92
330
1D93
330
1D94
330
1D95
330
1D96
330
1D97
330
1D98
330
1D99
330
1D9A
330
1D9B
330
1D9C
330
1D9D
330
1D9E
330
1D9F
330
1DA0
330
1DA1
330
1DA2
330
1DA3
330
1DA4
330
1DA5
330
1DA6
330
1DA7
330
1DA8
330
1DA9
330
1DAA
330
1DAB
330
1DAC
330
1DAD
330
1DAE
330
1DAF
330
1DB0
330
1DB1
330
1DB2
330
1DB3
330
1DB4
330
1DB5
330
1DB6
330
1DB7
330
1DB8
330
1DB9
330
1DBA
330
1DBB
330
1DBC
330
1DBD
330
1DBE
330
1DBF
330
1DC0
330
1DC1
330
1DC2
330
1DC3
330
1DC4
330
1DC5
330
1DC6
330
1DC7
330
1DC8
330
1DC9
330
1DCA
330
1DCB
330
1DCC
330
1DCD
330
1DCE
330
1DCF
330
1DD0
330
1DD1
330
1DD2
330
1DD3
330
1DD4
330
1DD5
330
1DD6
330
1DD7
330
1DD8
330
1DD9
330
1DDA
330
1DDB
330
1DDC
330
1DDD
330
1DDE
330
1DDF
330
1DE0
330
1DE1
330
1DE2
330
1DE3
330
1DE4
330
1DE5
330
1DE6
330
1DE7
330
1DE8
330
1DE9
330
1DEA
330
1DEB
330
1DEC
330
1DED
330
1DEE
330
1DEF
330
1DF0
330
1DF1
330
1DF2
330
1DF3
330
1DF4
330
1DF5
330
1DF6
330
1DF7
330
1DF8
330
1DF9
330
1DFA
330
1DFB
330
1DFC
330
1DFD
330
1DFE
330
1DFF
330
1E00
330
1E01
330
1E02
330
1E03
330
1E04
330
1E05
330
1E06
330
1E07
330
1E08
330
1E09
330
1E0A
330
1E0B
330
1E0C
330
1E0D
330
1E0E
330
1E0F
330
1E10
330
1E11
330
1E12
330
1E13
330
1E14
330
1E15
330
1E16
330
1E17
330
1E18
330
1E19
330
1E1A
330
1E1B
330
1E1C
330
1E1D
330
1E1E
330
1E1F
330
1E20
330
1E21
330
1E22
330
1E23
330
1E24
330
1E25
330
1E26
330
1E27
330
1E28
330
1E29
330
1E2A
330
1E2B
330
1E2C
330
1E2D
330
1E2E
330
1E2F
330
1E30
330
1E31
330
1E32
330
1E33
330
1E34
330
1E35
330
1E36
330
1E37
330
1E38
330
1E39
330
1E3A
330
1E3B
330
1E3C
330
1E3D
330
1E3E
330
1E3F
330
1E40
330
1E41
330
1E42
330
1E43
330
1E44
330
1E45
330
1E46
330
1E47
330
1E48
330
1E49
330
1E4A
330
1E4B
330
1E4C
330
1E4D
330
1E4E
330
1E4F
330
1E50
330
1E51
330
1E52
330
1E53
330
1E54
330
1E55
330
1E56
330
1E57
330
1E58
330
1E59
330
1E5A
330
1E5B
330
1E5C
330
1E5D
330
1E5E
330
1E5F
330
1E60
330
1E61
330
1E62
330
1E63
330
1E64
330
1E65
330
1E66
330
1E67
330
1E68
330
1E69
330
1E6A
330
1E6B
330
1E6C
330
1E6D
330
1E6E
330
1E6F
330
1E70
330
1E71
330
1E72
330
1E73
330
1E74
330
1E75
330
1E76
330
1E77
330
1E78
330
1E79
330
1E7A
330
1E7B
330
1E7C
330
1E7D
330
1E7E
330
1E7F
330
1E80
330
1E81
330
1E82
330
1E83
330
1E84
330
1E85
330
1E86
330
1E87
330
1E88
330
1E89
330
1E8A
330
1E8B
330
1E8C
330
1E8D
330
1E8E
330
1E8F
330
1E90
330
1E91
330
1E92
330
1E93
330
1E94
330
1E95
330
1E96
330
1E97
330
1E98
330
1E99
330
1E9A
330
1E9B
330
1E9C
330
1E9D
330
1E9E
330
1E9F
330
1EA0
330
1EA1
330
1EA2
330
1EA3
330
1EA4
330
1EA5
330
1EA6
330
1EA7
330
1EA8
330
1EA9
330
1EAA
330
1EAB
330
1EAC
330
1EAD
330
1EAE
330
1EAF
330
1EB0
330
1EB1
330
1EB2
330
1EB3
330
1EB4
330
1EB5
330
1EB6
330
1EB7
330
1EB8
330
1EB9
330
1EBA
330
1EBB
330
1EBC
330
1EBD
330
1EBE
330
1EBF
330
1EC0
330
1EC1
330
1EC2
330
1EC3
330
1EC4
330
1EC5
330
1EC6
330
1EC7
330
1EC8
330
1EC9
330
1ECA
330
1ECB
330
1ECC
330
1ECD
330
1ECE
330
1ECF
330
1ED0
330
1ED1
  0
IDBUFFER
  5
147D
330
0
100
AcDbIdBuffer
330
1ED8
  0
IDBUFFER
  5
147E
330
0
100
AcDbIdBuffer
330
1A1B
330
1ED2
330
1ED3
330
1ED4
330
1ED5
  0
IDBUFFER
  5
147F
330
0
100
AcDbIdBuffer
330
1ED9
330
1EDA
330
1EDB
  0
IDBUFFER
  5
1480
330
0
100
AcDbIdBuffer
330
B60
  0
XRECORD
  5
200F
102
{ACAD_REACTORS
330
200E
102
}
330
200E
100
AcDbXrecord
280
     1
102
SHADEPLOT
 70
     0
102
SHADEPLOTRESLEVEL
 70
     2
102
SHADEPLOTCUSTOMDPI
 70
   300
  0
XRECORD
  5
2010
102
{ACAD_REACTORS
330
1C
102
}
330
1C
100
AcDbXrecord
280
     1
102
SHADEPLOT
 70
     0
102
SHADEPLOTRESLEVEL
 70
     2
102
SHADEPLOTCUSTOMDPI
 70
   300
  0
XRECORD
  5
1D
102
{ACAD_REACTORS
330
1C
102
}
330
1C
100
AcDbXrecord
280
     1
310
28000000B4000000870000000100080000000000EC5E0000000000000000000000010000000000000000000000000000FFFFFF000000000000000000000000000000000000000000000000000000000000000000330000006600000099000000CC000000FF00000000330000333300006633000099330000CC330000FF3300
310
0000660000336600006666000099660000CC660000FF66000000990000339900006699000099990000CC990000FF99000000CC000033CC000066CC000099CC0000CCCC0000FFCC000000FF000033FF000066FF000099FF0000CCFF0000FFFF000000003300330033006600330099003300CC003300FF003300003333003333
310
33006633330099333300CC333300FF33330000663300336633006666330099663300CC663300FF66330000993300339933006699330099993300CC993300FF99330000CC330033CC330066CC330099CC3300CCCC3300FFCC330000FF330033FF330066FF330099FF3300CCFF3300FFFF330000006600330066006600660099
310
006600CC006600FF00660000336600333366006633660099336600CC336600FF33660000666600336666006666660099666600CC666600FF66660000996600339966006699660099996600CC996600FF99660000CC660033CC660066CC660099CC6600CCCC6600FFCC660000FF660033FF660066FF660099FF6600CCFF6600
310
FFFF660000009900330099006600990099009900CC009900FF00990000339900333399006633990099339900CC339900FF33990000669900336699006666990099669900CC669900FF66990000999900339999006699990099999900CC999900FF99990000CC990033CC990066CC990099CC9900CCCC9900FFCC990000FF99
310
0033FF990066FF990099FF9900CCFF9900FFFF99000000CC003300CC006600CC009900CC00CC00CC00FF00CC000033CC003333CC006633CC009933CC00CC33CC00FF33CC000066CC003366CC006666CC009966CC00CC66CC00FF66CC000099CC003399CC006699CC009999CC00CC99CC00FF99CC0000CCCC0033CCCC0066CC
310
CC0099CCCC00CCCCCC00FFCCCC0000FFCC0033FFCC0066FFCC0099FFCC00CCFFCC00FFFFCC000000FF003300FF006600FF009900FF00CC00FF00FF00FF000033FF003333FF006633FF009933FF00CC33FF00FF33FF000066FF003366FF006666FF009966FF00CC66FF00FF66FF000099FF003399FF006699FF009999FF00CC
310
99FF00FF99FF0000CCFF0033CCFF0066CCFF0099CCFF00CCCCFF00FFCCFF0000FFFF0033FFFF0066FFFF0099FFFF00CCFFFF00FFFFFF00000000000D0D0D001A1A1A00282828003535350043434300505050005D5D5D006B6B6B00787878008686860093939300A1A1A100AEAEAE00BBBBBB00C9C9C900D6D6D600E4E4E400
310
F1F1F100FFFFFF0000000000000000000000000000000000000000000000000000000000000000000000000000000000E2E2E2E2E2E2E2E2E2E2E2E2E2E2E2E2E2E2E2E2E2E2E2E2E2E2E2E2E2E2E2E2E2E2E2E2E2E2E2E2E2E2E2E2E2E2E2E2E2E2E2E2E2E2E2E2E2E2E2E2E2E2E2E2E2E2E2E2E2E2E2E2E2E2E2E2E2E2E2
310
E2E2E2E2E2E2E2E2E2E2E2E2E2E2E2E2E2E2E2E2E2E2E2E2E2E2E2E2E2E2E2E2E2E2E2E2E2E2E2E2E2E2E2E2E2E2E2E2E2E2E2E2E2E2E2E2E2E2E2E2E2E2E2E2E2E2E2E2E2E2E2E2E2E2E2E2E2E2E2E2E2E2E2E2E2E2E2E2E2E2E2E2E2E2E2E2E2E2E2E2E2E2E2E2E2E2E2E2E2E2E2E2E2E2E2E2E2E2E2E2E2E2E2E2E2E2E2
310
E2E2E2E2E2E2E2E2E2E2E2E2E2E2E2E2E2E2E2E2E2E2E2E2E2E2E2E2E2E2E2E2E2E2E2E2E2E2E2E2E2E2E2E2E2E2E2E2E2E2E2E2E2E2E2E2E2E2E2E2E2E2E2E2E2E2E2E2E2E2E2E2E2E2E2E2E2E2E2E2E2E2E2E2E2E2E2E2E2E2E2E2E2E2E2E2E2E2E2E2E2E2E2E2E2E2E2E2E2E2E2E2E2E2E2E2E2E2E2E2E2E2E2E2E2E2E2
310
E2E2E2E2E2E2E2E2E2E2E2E2E2E2E2E2E2E2E2E2E2E2E2E2E2E2E2E2E2E2E2E2E2E2E2E2E2E2E2E2E2E2E2E2E2E2E2E2E2E2E2E2E2E2E2E2E2E2E2E2E2E2E2E2E2E2E2E2E2E2E2E2E2E2E2E2E2E2E2E2E2E2E2E2E2E2E2E2E2E2E2E2E2E2E2E2E2E2E2E2E2E2E2E2E2E2E2E2E2E2E2E2E2E2E2E2E2E2E2E2E2E2E2E2E2E2E2
310
E2E2E2E2E2E2E2E2E2E2E2E2E2E2E2E2E2E2E2E2E2E2E2E2E2E2E2E2E2E2E2E2E2E2E2E2E2E2E2E2E2E2E2E2E2E2E2E2E2E2E2E2E2E2E2E2E2E2E2E2E2E2E2E2E2E2E2E2E2E2E2E2E2E2E2E2E2E2E2E2E2E2E2E2E2E2E2E2E2E2E2E2E2E2E2E2E2E2E2E2E2E2E2E2E2E2E2E2E2E2E2E2E2E2E2E2E2E2E2E2E2E2E2E2E2E2E2
310
E2E2E2E2E2E2E2E2E2E2E2E2E2E2E2E2E2E2E2E2E2E2E2E2E2E2E2E2E2E2E2E2E2E2E2E2E2E2E2E2E2E2E2E2E2E2E2E2E2E2E2E2E2E2E2E2E2E2E2E2E2E2E2E2E2E2E2E2E2E2E2E2E2E2E2E2E2E2E2E2E2E2E2E2E2E2E2E2E2E2E2E2E2E2E2E2E2E2E2E2E2E2E2E2E2E2E2E2E2E2E2E2E2E2E2E2E2E2E2E2E2E2E2E2E2E2E2
310
E2E2E2E2E2E2E2E2E2E2E2E2E2E2E2E2E2E2E2E2E2E2E2E2E2E2E2E2E2E2E2E2E2E2E2E2E2E2E2E2E2E2E2E2E2E2E2E2E2E2E2E2E2E2E2E2E2E2E2E2E2E2E2E2E2E2E2E2E2E2E2E2E2E2E2E2E2E2E2E2E2E2E2E2E2E2E2E2E2E2E2E2E2E2E2E2E2E2E2E2E2E2E2E2E2E2E2E2E2E2E2E2E2E2E2E2E2E2E2E2E2E2E2E2E2E2E2
310
E2E2E2E2E2E2E2E2E2E2E2E2E2E2E2E2E2E2E2E2E2E2E2E2E2E2E2E2E2E2E2E2E2E2E2E2E2E2E2E2E2E2E2E2E2E2E2E2E2E2E2E2E2E2E2E2E2E2E2E2E2E2E2E2E2E2E2E2E2E2E2E2E2E2E2E2E2E2E2E2E2E2E2E2E2E2E2E2E2E2E2E2E2E2E2E2E2E2E2E2E2E2E2E2E2E2E2E2E2E2E2E2E2E2E2E2E2E2E2E2E2E2E2E2E2E2E2
310
E2E2E2E2E2E2E2E2E2E2E2E2E2E2E2E2E2E2E2E2E2E2E2E2E2E2E2E2E2E2E2E2E2E2E2E2E2E2E2E2E2E2E2E2E2E2E2E2E2E2E2E2E2E2E2E2E2E2E2E2E2E2E2E2E2E2E2E2E2E2E2E2E2E2E2E2E2E2E2E2E2E2E2E2E2E2E2E2E2E2E2E2E2E2E2E2E2E2E2E2E2E2E2E2E2E2E2E2E2E2E2E2E2E2E2E2E2E2E2E2E2E2E2E2E2E2E2
310
E2E2E2E2E2E2E2E2E2E2E2E2E2E2E2E2E2E2E2E2E2E2E2E2E2E2E2E2E2E2E2E2E2E2E2E2E2E2E2E2E2E2E2E2E2E2E2E2E2E2E2E2E2E2E2E2E2E2E2E2E2E2E2E2E2E2E2E2E2E2E2E2E2E2E2E2E2E2E2E2E2E2E2E2E2E2E2E2E2E2E2E2E2E2E2E2E2E2E2E2E2E2E2E2E2E2E2E2E2E2E2E2E2E2E2E2E2E2E2E2E2E2E2E2E2E2E2
310
E2E2E2E2E2E2E2E2E2E2E2E2E2E2E2E2E2E2E2E2E2E2E2E2E2E2E2E2E2E2E2E2E2E2E2E2E2E2E2E2E2E2E2E2E2E2E2E2E2E2E2E2E2E2E2E2E2E2E2E2E2E2E2E2E2E2E2E2E2E2E2E2E2E2E2E2E2E2E2E2E2E2E2E2E2E2E2E2E2E2E2E2E2E2E2E2E2E2E2E2E2E2E2E2E2E2E2E2E2E2E2E2E2E2E2E2E2E2E2E2E2E2E2E2E2E2E2
310
E2E2E2E2E2E2E2E2E2E2E2E2E2E2E2E2E2E2E2E2E2E2E2E2E2E2E2E2E2E2E2E2E2E2E2E2E2E2E2E2E2E2E2E2E2E2E2E2E2E2E2E2E2E2E2E2E2E2E2E2E2E2E2E2E2E2E2E2E2E2E2E2E2E2E2E2E2E2E2E2E2E2E2E2E2E2E2E2E2E2E2E2E2E2E2E2E2E2E2E2E2E2E2E2E2E2E2E2E2E2E2E2E2E2E2E2E2E2E2E2E2E2E2E2E2E2E2
310
E2E2E2E2E2E2E2E2E2E2E2E2E2E2E2E2E2E2E2E2E2E2E2E2E2E2E2E2E2E2E2E2E2E2E2E2E2E2E2E2E2E2E2E2E2E2E2E2E2E2E2E2E2E2E2E2E2E2E2E2E2E2E2E2E2E2E2E2E2E2E2E2E2E2E2E2E2E2E2E2E2E2E2E2E2E2E2E2E2E2E2E2E2E2E2E2E2E2E2E2E2E2E2E2E2E2E2E2E2E2E2E2E2E2E2E2E2E2E2E2E2E2E2E2E2E2E2
310
E2E2E2E2E2E2E2E2E2E2E2E2E2E2E2E2E2E2E2E2E2E2E2E2E2E2E2E2E2E2E2E2E2E2E2E2E2E2E2E2E2E2E2E2E2E2E2E2E2E2E2E2E2E2E2E2E2E2E2E2E2E2E2E2E2E2E2E2E2E2E2E2E2E2E2E2E2E2E2E2E2E2E2E2E2E2E2E2E2E2E2E2E2E2E2E2E2E2E2E2E2E2E2E2E2E2E2E2E2E2E2E2E2E2E2E2E2E2E2E2E2E2E2E2E2E2E2
310
E2E2E2E2E2E2E2E2E2E2E2E2E2E2E2E2E2E2E2E2E2E2E2E2E2E2E2E2E2E2E2E2E2E2E2E2E2E2E2E2E2E2E2E2E2E2E2E2E2E2E2E2E2E2E2E2E2E2E2E2E2E2E2E2E2E2E2E2E2E2E2E2E2E2E2E2E2E2E2E2E2E2E2E2E2E2E2E2E2E2E2E2E2E2E2E2E2E2E2E2E2E2E2E2E2E2E2E2E2E2E2E2E2E2E2E2E2E2E2E2E2E2E2E2E2E2E2
310
E2E2E2E2E2E2E2E2E2E2E2E2E2E2E2E2E2E2E2E2E2E2E2E2E2E2E2E2E2E2E2E2E2E2E2E2E2E2E2E2E2E2E2E2E2E2E2E2E2E2E2E2E2E2E2E2E2E2E2E2E2E2E2E2E2E2E2E2E2E2E2E2E2E2E2E2E2E2E2E2E2E2E2E2E2E2E2E2E2E2E2E2E2E2E2E2E2E2E2E2E2E2E2E2E2E2E2E2E2E2E2E2E2E2E2E2E2E2E2E2E2E2E2E2E2E2E2
310
E2E2E2E2E2E2E2E2E2E2E2E2E2E2E2E2E2E2E2E2E2E2E2E2E2E2E2E2E2E2E2E2E2E2E2E2E2E2E2E2E2E2E2E2E2E2E2E2E2E2E2E2E2E2E2E2E2E2E2E2E2E2E2E2E2E2E2E2E2E2E2E2E2E2E2E2E2E2E2E2E2E2E2E2E2E2E2E2E2E2E2E2E2E2E2E2E2E2E2E2E2E2E2E2E2E2E2E2E2E2E2E2E2E2E2E2E2E2E2E2E2E2E2E2E2E2E2
310
E2E2E2E2E2E2E2E2E2E2E2E2E2E2E2E2E2E2E2E2E2E2E2E2E2E2E2E2E2E2E2E2E2E2E2E2E2E2E2E2E2E2E2E2E2E2E2E2E2E2E2E2E2E2E2E2E2E2E2E2E2E2E2E2E2E2E2E2E2E2E2E2E2E2E2E2E2E2E2E2E2E2E2E2E2E2E2E2E2E2E2E2E2E2E2E2E2E2E2E2E2E2E2E2E2E2E2E2E2E2E2E2E2E2E2E2E2E2E2E2E2E2E2E2E2E2E2
310
E2E2E2E2E2E2E2E2E2E2E2E2E2E2E2E2E2E2E2E2E2E2E2E2E2E2E2E2E2E2E2E2E2E2E2E2E2E2E2E2E2E2E2E2E2E2E2E2E2E2E2E2E2E2E2E2E2E2E2E2E2E2E2E2E2E2E2E2E2E2E2E2E2E2E2E2E2E2E2E2E2E2E2E2E2E2E2E2E2E2E2E2E2E2E2E2E2E2E2E2E2E2E2E2E2E2E2E2E2E2E2E2E2E2E2E2E2E2E2E2E2E2E2E2E2E2E2
310
E2E2E2E2E2E2E2E2E2E2E2E2E2E2E2E2E2E2E2E2E2E2E2E2E2E2E2E2E2E2E2E2E2E2E2E2E2E2E2E2E2E2E2E2E2E2E2E2E2E2E2E2E2E2E2E2E2E2E2E2E2E2E2E2E2E2E2E2E2E2E2E2E2E2E2E2E2E2E2E2E2E2E2E2E2E2E2E2E2E2E2E2E2E2E2E2E2E2E2E2E2E2E2E2E2E2E2E2E2E2E2E2E2E2E2E2E2E2E2E2E2E2E2E2E2E2E2
310
E2E2E2E2E2E2E2E2E2E2E2E2E2E2E2E2E2E2E2E2E2E2E2E2E2E2E2E2E2E2E2E2E2E2E2E2E2E2E2E2E2E2E2E2E2E2E2E2E2E2E2E2E2E2E2E2E2E2E2E2E2E2E2E2E2E2E2E2E2E2E2E2E2E2E2E2E2E2E2E2E2E2E2E2E2E2E2E2E2E2E2E2E2E2E2E2E2E2E2E2E2E2E2E2E2E2E2E2E2E2E2E2E2E2E2E2E2E2E2E2E2E2E2E2E2E2E2
310
E2E2E2E2E2E2E2E2E2E2E2E2E2E2E2E2E2E2E2E2E2E2E2E2E2E2E2E2E2E2E2E2E2E2E2E2E2E2E2E2E2E2E2E2E2E2E2E2E2E2E2E2E2E2E2E2E2E2E2E2E2E2E2E2E2E2E2E2E2E2E2E2E2E2E2E2E2E2E2E2E2E2E2E2E2E2E2E2E2E2E2E2E2E2E2E2E2E2E2E2E2E2E2E2E2E2E2E2E2E2E2E2E2E2E2E2E2E2E2E2E2E2E2E2E2E2E2
310
E2E2E2E2E2E2E2E2E2E2E2E2E2E2E2E2E2E2E2E2E2E2E2E2E2E2E2E2E2E2E2E2E2E2E2E2E2E2E2E2E2E2E2E2E2E2E2E2E2E2E2E2E2E2E2E2E2E2E2E2E2E2E2E2E2E2E2E2E2E2E2E2E2E2E2E2E2E2E2E2E2E2E2E2E2E2E2E2E2E2E2E2E2E2E2E2E2E2E2E2E2E2E2E2E2E2E2E2E2E2E2E2E2E2E2E2E2E2E2E2E2E2E2E2E2E2E2
310
E2E2E2E2E2E2E2E2E2E2E2E2E2E2E2E2E2E2E2E2E2E2E2E2E2E2E2E2E2E2E2E2E2E2E2E2E2E2E2E2E2E2E2E2E2E2E2E2E2E2E2E2E2E2E2E2E2E2E2E2E2E2E2E2E2E2E2E2E2E2E2E2E2E2E2E2E2E2E2E2E2E2E2E2E2E2E2E2E2E2E2E2E2E2E2E2E2E2E2E2E2E2E2E2E2E2E2E2E2E2E2E2E2E2E2E2E2E2E2E2E2E2E2E2E2E2E2
310
E2E2E2E2E2E2E2E2E2E2E2E2E2E2E2E2E2E2E2E2E2E2E2E2E2E2E2E2E2E2E2E2E2E2E2E2E2E2E2E2E2E2E2E2E2E2E2E2E2E2E2E2E2E2E2E2E2E2E2E2E2E2E2E2E2E2E2E2E2E2E2E2E2E2E2E2E2E2E2E2E2E2E2E2E2E2E2E2E2E2E2E2E2E2E2E2E2E2E2E2E2E2E2E2E2E2E2E2E2E2E2E2E2E2E2E2E2E2E2E2E2E2E2E2E2E2E2
310
E2E2E2E2E2E2E2E2E2E2E2E2E2E2E2E2E2E2E2E2E2E2E2E2E2E2E2E2E2E2E2E2E2E2E2E2E2E2E2E2E2E2E2E2E2E2E2E2E2E2E2E2E2E2E2E2E2E2E2E2E2E2E2E2E2E2E2E2E2E2E2E2E2E2E2E2E2E2E2E2E2E2E2E2E2E2E2E2E2E2E2E2E2E2E2E2E2E2E2E2E2E2E2E2E2E2E2E2E2E2E2E2E2E2E2E2E2E2E2E2E2E2E2E2E2E2E2
310
E2E2E2E2E2E2E2E2E2E2E2E2E2E2E2E2E2E2E2E2E2E2E2E2E2E2E2E2E2E2E2E2E2E2E2E2E2E2E2E2E2E2E2E2E2E2E2E2E2E2E2E2E2E2E2E2E2E2E2E2E2E2E2E2E2E2E2E2E2E2E2E2E2E2E2E2E2E2E2E2E2E2E2E2E2E2E2E2E2E2E2E2E2E2E2E2E2E2E2E2E2E2E2E2E2E2E2E2E2E2E2E2E2E2E2E2E2E2E2E2E2E2E2E2E2E2E2
310
E2E2E2E2E2E2E2E2E2E2E2E2E2E2E2E2E2E2E2E2E2E2E2E2E2E2E2E2E2E2E2E2E2E2E2E2E2E2E2E2E2E2E2E2E2E2E2E2E2E2E2E2E2E2E2E2E2E2E2E2E2E2E2E2E2E2E2E2E2E2E2E2E2E2E2E2E2E2E2E2E2E2E2E2E2E2E2E2E2E2E2E2E2E2E2E2E2E2E2E2E2E2E2E2E2E2E2E2E2E2E2E2E2E2E2E2E2E2E2E2E2E2E2E2E2E2E2
310
E2E2E2E2E2E2E2E2E2E2E2E2E2E2E2E2E2E2E2E2E2E2E2E2E2E2E2E2E2E2E2E2E2E2E2E2E2E2E2E2E2E2E2E2E2E2E2E2E2E2E2E2E2E2E2E2E2E2E2E2E2E2E2E2E2E2E2E2E2E2E2E2E2E2E2E2E2E2E2E2E2E2E2E2E2E2E2E2E2E2E2E2E2E2E2E2E2E2E2E2E2E2E2E2E2E2E2E2E2E2E2E2E2E2E2E2E2E2E2E2E2E2E2E2E2E2E2
310
E2E2E2E2E2E2E2E2E2E2E2E2E2E2E2E2E2E2E2E2E2E2E2E2E2E2E2E2E2E2E2E2E2E2E2E2E2E2E2E2E2E2E2E2E2E2E2E2E2E2E2E2E2E2E2E2E2E2E2E2E2E2E2E2E2E2E2E2E2E2E2E2E2E2E2E2E2E2E2E2E2E2E2E2E2E2E2E2E2E2E2E2E2E2E2E2E2E2E2E2E2E2E2E2E2E2E2E2E2E2E2E2E2E2E2E2E2E2E2E2E2E2E2E2E2E2E2
310
E2E2E2E2E2E2E2E2E2E2E2E2E2E2E2E2E2E2E2E2E2E2E2E2E2E2E2E2E2E2E2E2E2E2E2E2E2E2E2E2E2E2E2E2E2E2E2E2E2E2E2E2E2E2E2E2E2E2E2E2E2E2E2E2E2E2E2E2E2E2E2E2E2E2E2E2E2E2E2E2E2E2E2E2E2E2E2E2E2E2E2E2E2E2E2E2E2E2E2E2E2E2E2E2E2E2E2E2E2E2E2E2E2E2E2E2E2E2E2E2E2E2E2E2E2E2E2
310
E2E2E2E2E2E2E2E2E2E2E2E2E2E2E2E2E2E2E2E2E2E2E2E2E2E2E2E2E2E2E2E2E2E2E2E2E2E2E2E2E2E2E2E2E2E2E2E2E2E2E2E2E2E2E2E2E2E2E2E2E2E2E2E2E2E2E2E2E2E2E2E2E2E2E2E2E2E2E2E2E2E2E2E2E2E2E2E2E2E2E2E2E2E2E2E2E2E2E2E2E2E2E2E2E2E2E2E2E2E2E2E2E2E2E2E2E2E2E2E2E2E2E2E2E2E2E2
310
E2E2E2E2E2E2E2E2E2E2E2E2E2E2E2E2E2E2E2E2E2E2E2E2E2E2E2E2E2E2E2E2E2E2E2E2E2E2E2E2E2E2E2E2E2E2E2E2E2E2E2E2E2E2E2E2E2E2E2E2E2E2E2E2E2E2E2E2E2E2E2E2E2E2E2E2E2E2E2E2E2E2E2E2E2E2E2E2E2E2E2E2E2E2E2E2E2E2E2E2E2E2E2E2E2E2E2E2E2E2E2E2E2E2E2E2E2E2E2E2E2E2E2E2E2E2E2
310
E2E2E2E2E2E2E2E2E2E2E2E2E2E2E2E2E2E2E2E2E2E2E2E2E2E2E2E2E2E2E2E2E2E2E2E2E2E2E2E2E2E2E2E2E2E2E2E2E2E2E2E2E2E2E2E2E2E2E2E2E2E2E2E2E2E2E2E2E2E2E2E2E2E2E2E2E2E2E2E2E2E2E2E2E2E2E2E2E2E2E2E2E2E2E2E2E2E2E2E2E2E2E2E2E2E2E2E2E2E2E2E2E2E2E2E2E2E2E2E2E2E2E2E2E2E2E2
310
E2E2E2E2E2E2E2E2E2E2E2E2E2E2E2E2E2E2E2E2E2E2E2E2E2E2E2E2E2E2E2E2E2E2E2E2E2E2E2E2E2E2E2E2E2E2E2E2E2E2E2E2E2E2E2E2E2E2E2E2E2E2E2E2E2E2E2E2E2E2E2E2E2E2E2E2E2E2E2E2E2E2E2E2E2E2E2E2E2E2E2E2E2E2E2E2E2E2E2E2E2E2E2E2E2E2E2E2E2E2E2E2E2E2E2E2E2E2E2E2E2E2E2E2E2E2E2
310
E2E2E2E2E2E2E2E2E2E2E2E2E2E2E2E2E2E2E2E2E2E2E2E2E2E2E2E2E2E2E2E2E2E2E2E2E2E2E2E2E2E2E2E2E2E2E2E2E2E2E2E2E2E2E2E2E2E2E2E2E2E2E2E2E2E2E2E2E2E2E2E2E2E2E2E2E2E2E2E2E2E2E2E2E2E2E2E2E2E2E2E2E2E2E2E2E2E2E2E2E2E2E2E2E2E2E2E2E2E2E2E2E2E2E2E2E2E2E2E2E2E2E2E2E2E2E2
310
E2E2E2E2E2E2E2E2E2E2E2E2E2E2E2E2E2E2E2E2E2E2E2E2E2E2E2E2E2E2E2E2E2E2E2E2E2E2E2E2E2E2E2E2E2E2E2E2E2E2E2E2E2E2E2E2E2E2E2E2E2E2E2E2E2E2E2E2E2E2E2E2E2E2E2E2E2E2E2E2E2E2E2E2E2E2E2E2E2E2E2E2E2E2E2E2E2E2E2E2E2E2E2E2E2E2E2E2E2E2E2E2E2E2E2E2E2E2E2E2E2E2E2E2E2E2E2
310
E2E2E2E2E2E2E2E2E2E2E2E2E2E2E2E2E2E2E2E2E2E2E2E2E2E2E2E2E2E2E2E2E2E2E2E2E2E2E2E2E2E2E2E2E2E2E2E2E2E2E2E2E2E2E2E2E2E2E2E2E2E2E2E2E2E2E2E2E2E2E2E2E2E2E2E2E2E2E2E2E2E2E2E2E2E2E2E2E2E2E2E2E2E2E2E2E2E2E2E2E2E2E2E2E2E2E2E2E2E2E2E2E2E2E2E2E2E2E2E2E2E2E2E2E2E2E2
310
E2E2E2E2E2E2E2E2E2E2E2E2E2E2E2E2E2E2E2E2E2E2E2E2E2E2E2E2E2E2E2E2E2E2E2E2E2E2E2E2E2E2E2E2E2E2E2E2E2E2E2E2E2E2E2E2E2E2E2E2E2E2E2E2E2E2E2E2E2E2E2E2E2E2E2E2E2E2E2E2E2E2E2E2E2E2E2E2E2E2E2E2E2E2E2E2E2E2E2E2E2E2E2E2E2E2E2E2E2E2E2E2E2E2E2E2E2E2E2E2E2E2E2E2E2E2E2
310
E2E2E2E2E2E2E2E2E2E2E2E2E2E2E2E2E2E2E2E2E2E2E2E2E2E2E2E2E2E2E2E2E2E2E2E2E2E2E2E2E2E2E2E2E2E2E2E2E2E2E2E2E2E2E2E2E2E2E2E2E2E2E2E2E2E2E2E2E2E2E2E2E2E2E2E2E2E2E2E2E2E2E2E2E2E2E2E2E2E2E2E2E2E2E2E2E2E2E2E2E2E2E2E2E2E2E2E2E2E2E2E2E2E2E2E2E2E2E2E2E2E2E2E2E2E2E2
310
E2E2E2E2E2E2E2E2E2E2E2E2E2E2E2E2E2E2E2E2E2E2E2E2E2E2E2E2E2E2E2E2E2E2E2E2E2E2E2E2E2E2E2E2E2E2E2E2E2E2E2E2E2E2E2E2E2E2E2E2E2E2E2E2E2E2E2E2E2E2E2E2E2E2E2E2E2E2E2E2E2E2E2E2E2E2E2E2E2E2E2E2E2E2E2E2E2E2E2E2E2E2E2E2E2E2E2E2E2E2E2E2E2E2E2E2E2E2E2E2E2E2E2E2E2E2E2
310
E2E2E2E2E2E2E2E2E2E2E2E2E2E2E2E2E2E2E2E2E2E2E2E2E2E2E2E2E2E2E2E2E2E2E2E2E2E2E2E2E2E2E2E2E2E2E2E2E2E2E2E2E2E2E2E2E2E2E2E2E2E2E2E2E2E2E2E2E2E2E2E2E2E2E2E2E2E2E2E2E2E2E2E2E2E2E2E2E2E2E2E2E2E2E2E2E2E2E2E2E2E2E2E2E2E2E2E2E2E2E2E2E2E2E2E2E2E2E2E2E2E2E2E2E2E2E2
310
E2E2E2E2E2E2E2E2E2E2E2E2E2E2E2E2E2E2E2E2E2E2E2E2E2E2E2E2E2E2E2E2E2E2E2E2E2E2E2E2E2E2E2E2E2E2E2E2E2E2E2E2E2E2E2E2E2E2E2E2E2E2E2E2E2E2E2E2E2E2E2E2E2E2E2E2E2E2E2E2E2E2E2E2E2E2E2E2E2E2E2E2E2E2E2E2E2E2E2E2E2E2E2E2E2E2E2E2E2E2E2E2E2E2E2E2E2E2E2E2E2E2E2E2E2E2E2
310
E2E2E2E2E2E2E2E2E2E2E2E2E2E2E2E2E2E2E2E2E2E2E2E2E2E2E2E2E2E2E2E2E2E2E2E2E2E2E2E2E2E2E2E2E2E2E2E2E2E2E2E2E2E2E2E2E2E2E2E2E2E2E2E2E2E2E2E2E2E2E2E2E2E2E2E2E2E2E2E2E2E2E2E2E2E2E2E2E2E2E2E2E2E2E2E2E2E2E2E2E2E2E2E2E2E2E2E2E2E2E2E2E2E2E2E2E2E2E2E2E2E2E2E2E2E2E2
310
E2E2E2E2E2E2E2E2E2E2E2E2E2E2E2E2E2E2E2E2E2E2E2E2E2E2E2E2E2E2E2E2E2E2E2E2E2E2E2E2E2E2E2E2E2E2E2E2E2E2E2E2E2E2E2E2E2E2E2E2E2E2E2E2E2E2E2E2E2E2E2E2E2E2E2E2E2E2E2E2E2E2E2E2E2E2E2E2E2E2E2E2E2E2E2E2E2E2E2E2E2E2E2E2E2E2E2E2E2E2E2E2E2E2E2E2E2E2E2E2E2E2E2E2E2E2E2
310
E2E2E2E2E2E2E2E2E2E2E2E2E2E2E2E2E2E2E2E2E2E2E2E2E2E2E2E2E2E2E2E2E2E2E2E2E2E2E2E2E2E2E2E2E2E2E2E2E2E2E2E2E2E2E2E2E2E2E2E2E2E2E2E2E2E2E2E2E2E2E2E2E2E2E2E2E2E2E2E2E2E2E2E2E2E2E2E2E2E2E2E2E2E2E2E2E2E2E2E2E2E2E2E2E2E2E2E2E2E2E2E2E2E2E2E2E2E2E2E2E2E2E2E2E2E2E2
310
E2E2E2E2E2E2E2E2E2E2E2E2E2E2E2E2E2E2E2E2E2E2E2E2E2E2E2E2E2E2E2E2E2E2E2E2E2E2E2E2E2E2E2E2E2E2E2E2E2E2E2E2E2E2E2E2E2E2E2E2E2E2E2E2E2E2E2E2E2E2E2E2E2E2E2E2E2E2E2E2E2E2E2E2E2E2E2E2E2E2E2E2E2E2E2E2E2E2E2E2E2E2E2E2E2E2E2E2E2E2E2E2E2E2E2E2E2E2E2E2E2E2E2E2E2E2E2
310
E2E2E2E2E2E2E2E2E2E2E2E2E2E2E2E2E2E2E2E2E2E2E2E2E2E2E2E2E2E2E2E2E2E2E2E2E2E2E2E2E2E2E2E2E2E2E2E2E2E2E2E2E2E2E2E2E2E2E2E2E2E2E2E2E2E2E2E2E2E2E2E2E2E2E2E2E2E2E2E2E2E2E2E2E2E2E2E2E2E2E2E2E2E2E2E2E2E2E2E2E2E2E2E2E2E2E2E2E2E2E2E2E2E2E2E2E2E2E2E2E2E2E2E2E2E2E2
310
E2E2E2E2E2E2E2E2E2E2E2E2E2E2E2E2E2E2E2E2E2E2E2E2E2E2E2E2E2E2E2E2E2E2E2E2E2E2E2E2E2E2E2E2E2E2E2E2E2E2E2E2E2E2E2E2E2E2E2E2E2E2E2E2E2E2E2E2E2E2E2E2E2E2E2E2E2E2E2E2E2E2E2E2E2E2E2E2E2E2E2E2E2E2E2E2E2E2E2E2E2E2E2E2E2E2E2E2E2E2E2E2E2E2E2E2E2E2E2E2E2E2E2E2E2E2E2
310
E2E2E2E2E2E2E2E2E2E2E2E2E2E2E2E2E2E2E2E2E2E2E2E2E2E2E2E2E2E2E2E2E2E2E2E2E2E2E2E2E2E2E2E2E2E2E2E2E2E2E2E2E2E2E2E2E2E2E2E2E2E2E2E2E2E2E2E2E2E2E2E2E2E2E2E2E2E2E2E2E2E2E2E2E2E2E2E2E2E2E2E2E2E2E2E2E2E2E2E2E2E2E2E2E2E2E2E2E2E2E2E2E2E2E2E2E2E2E2E2E2E2E2E2E2E2E2
310
E2E2E2E2E2E2E2E2E2E2E2E2E2E2E2E2E2E2E2E2E2E2E2E2E2E2E2E2E2E2E2E2E2E2E2E2E2E2E2E2E2E2E2E2E2E2E2E2E2E2E2E2E2E2E2E2E2E2E2E2E2E2E2E2E2E2E2E2E2E2E2E2E2E2E2E2E2E2E2E2E2E2E2E2E2E2E2E2E2E2E2E2E2E2E2E2E2E2E2E2E2E2E2E2E2E2E2E2E2E2E2E2E2E2E2E2E2E2E2E2E2E2E2E2E2E2E2
310
E2E2E2E2E2E2E2E2E2E2E2E2E2E2E2E2E2E2E2E2E2E2E2E2E2E2E2E2E2E2E2E2E2E2E2E2E2E2E2E2E2E2E2E2E2E2E2E2E2E2E2E2E2E2E2E2E2E2E2E2E2E2E2E2E2E2E2E2E2E2E2E2E2E2E2E2E2E2E2E2E2E2E2E2E2E2E2E2E2E2E2E2E2E2E2E2E2E2E2E2E2E2E2E2E2E2E2E2E2E2E2E2E2E2E2E2E2E2E2E2E2E2E2E2E2E2E2
310
E2E2E2E2E2E2E2E2E2E2E2E2E2E2E2E2E2E2E2E2E2E2E2E2E2E2E2E2E2E2E2E2E2E2E2E2E2E2E2E2E2E2E2E2E2E2E2E2E2E2E2E2E2E2E2E2E2E2E2E2E2E2E2E2E2E2E2E2E2E2E2E2E2E2E2E2E2E2E2E2E2E2E2E2E2E2E2E2E2E2E2E2E2E2E2E2E2E2E2E2E2E2E2E2E2E2E2E2E2E2E2E2E2E2E2E2E2E2E2E2E2E2E2E2E2E2E2
310
E2E2E2E2E2E2E2E2E2E2E2E2E2E2E2E2E2E2E2E2E2E2E2E2E2E2E2E2E2E2E2E2E2E2E2E2E2E2E2E2E2E2E2E2E2E2E2E2E2E2E2E2E2E2E2E2E2E2E2E2E2E2E2E2E2E2E2E2E2E2E2E2E2E2E2E2E2E2E2E2E2E2E2E2E2E2E2E2E2E2E2E2E2E2E2E2E2E2E2E2E2E2E2E2E2E2E2E2E2E2E2E2E2E2E2E2E2E2E2E2E2E2E2E2E2E2E2
310
E2E2E2E2E2E2E2E2E2E2E2E2E2E2E2E2E2E2E2E2E2E2E2E2E2E2E2E2E2E2E2E2E2E2E2E2E2E2E2E2E2E2E2E2E2E2E2E2E2E2E2E2E2E2E2E2E2E2E2E2E2E2E2E2E2E2E2E2E2E2E2E2E2E2E2E2E2E2E2E2E2E2E2E2E2E2E2E2E2E2E2E2E2E2E2E2E2E2E2E2E2E2E2E2E2E2E2E2E2E2E2E2E2E2E2E2E2E2E2E2E2E2E2E2E2E2E2
310
E2E2E2E2E2E2E2E2E2E2E2E2E2E2E2E2E2E2E2E2E2E2E2E2E2E2E2E2E2E2E2E2E2E2E2E2E2E2E2E2E2E2E2E2E2E2E2E2E2E2E2E2E2E2E2E2E2E2E2E2E2E2E2E2E2E2E2E2E2E2E2E2E2E2E2E2E2E2E2E2E2E2E2E2E2E2E2E2E2E2E2E2E2E2E2E2E2E2E2E2E2E2E2E2E2E2E2E2E2E2E2E2E2E2E2E2E2E2E2E2E2E2E2E2E2E2E2
310
E2E2E2E2E2E2E2E2E2E2E2E2E2E2E2E2E2E2E2E2E2E2E2E2E2E2E2E2E2E2E2E2E2E2E2E2E2E2E2E2E2E2E2E2E2E2E2E2E2E2E2E2E2E2E2E2E2E2E2E2E2E2E2E2E2E2E2E2E2E2E2E2E2E2E2E2E2E2E2E2E2E2E2E2E2E2E2E2E2E2E2E2E2E2E2E2E2E2E2E2E2E2E2E2E2E2E2E2E2E2E2E2E2E2E2E2E2E2E2E2E2E2E2E2E2E2E2
310
E2E2E2E2E2E2E2E2E2E2E2E2E2E2E2E2E2E2E2E2E2E2E2E2E2E2E2E2E2E2E2E2E2E2E2E2E2E2E2E2E2E2E2E2E2E2E2E2E2E2E2E2E2E2E2E2E2E2E2E2E2E2E2E2E2E2E2E2E2E2E2E2E2E2E2E2E2E2E2E2E2E2E2E2E2E2E2E2E2E2E2E2E2E2E2E2E2E2E2E2E2E2E2E2E2E2E2E2E2E2E2E2E2E2E2E2E2E2E2E2E2E2E2E2E2E2E2
310
E2E2E2E2E2E2E2E2E2E2E2E2E2E2E2E2E2E2E2E2E2E2E2E2E2E2E2E2E2E2E2E2E2E2E2E2E2E2E2E2E2E2E2E2E2E2E2E2E2E2E2E2E2E2E2E2E2E2E2E2E2E2E2E2E2E2E2E2E2E2E2E2E2E2E2E2E2E2E2E2E2E2E2E2E2E2E2E2E2E2E2E2E2E2E2E2E2E2E2E2E2E2E2E2E2E2E2E2E2E2E2E2E2E2E2E2E2E2E2E2E2E2E2E2E2E2E2
310
E2E2E2E2E2E2E2E2E2E2E2E2E2E2E2E2E2E2E2E2E2E2E2E2E2E2E2E2E2E2E2E2E2E2E2E2E2E2E2E2E2E2E2E2E2E2E2E2E2E2E2E2E2E2E2E2E2E2E2E2E2E2E2E2E2E2E2E2E2E2E2E2E2E2E2E2E2E2E2E2E2E2E2E2E2E2E2E2E2E2E2E2E2E2E2E2E2E2E2E2E2E2E2E2E2E2E2E2E2E2E2E2E2E2E2E2E2E2E2E2E2E2E2E2E2E2E2
310
E2E2E2E2E2E2E2E2E2E2E2E2E2E2E2E2E2E2E2E2E2E2E2E2E2E2E2E2E2E2E2E2E2E2E2E2E2E2E2E2E2E2E2E2E2E2E2E2E2E2E2E2E2E2E2E2E2E2E2E2E2E2E2E2E2E2E2E2E2E2E2E2E2E2E2E2E2E2E2E2E2E2E2E2E2E2E2E2E2E2E2E2E2E2E2E2E2E2E2E2E2E2E2E2E2E2E2E2E2E2E2E2E2E2E2E2E2E2E2E2E2E2E2E2E2E2E2
310
E2E2E2E2E2E2E2E2E2E2E2E2E2E2E2E2E2E2E2E2E2E2E2E2E2E2E2E2E2E2E2E2E2E2E2E2E2E2E2E2E2E2E2E2E2E2E2E2E2E2E2E2E2E2E2E2E2E2E2E2E2E2E2E2E2E2E2E2E2E2E2E2E2E2E2E2E2E2E2E2E2E2E2E2E2E2E2E2E2E2E2E2E2E2E2E2E2E2E2E2E2E2E2E2E2E2E2E2E2E2E2E2E2E2E2E2E2E2E2E2E2E2E2E2E2E2E2
310
E2E2E2E2E2E2E2E2E2E2E2E2E2E2E2E2E2E2E2E2E2E2E2E2E2E2E2E2E2E2E2E2E2E2E2E2E2E2E2E2E2E2E2E2E2E2E2E2E2E2E2E2E2E2E2E2E2E2E2E2E2E2E2E2E2E2E2E2E2E2E2E2E2E2E2E2E2E2E2E2E2E2E2E2E2E2E2E2E2E2E2E2E2E2E2E2E2E2E2E2E2E2E2E2E2E2E2E2E2E2E2E2E2E2E2E2E2E2E2E2E2E2E2E2E2E2E2
310
E2E2E2E2E2E2E2E2E2E2E2E2E2E2E2E2E2E2E2E2E2E2E2E2E2E2E2E2E2E2E2E2E2E2E2E2E2E2E2E2E2E2E2E2E2E2E2E2E2E2E2E2E2E2E2E2E2E2E2E2E2E2E2E2E2E2E2E2E2E2E2E2E2E2E2E2E2E2E2E2E2E2E2E2E2E2E2E2E2E2E2E2E2E2E2E2E2E2E2E2E2E2E2E2E2E2E2E2E2E2E2E2E2E2E2E2E2E2E2E2E2E2E2E2E2E2E2
310
E2E2E2E2E2E2E2E2E2E2E2E2E2E2E2E2E2E2E2E2E2E2E2E2E2E2E2E2E2E2E2E2E2E2E2E2E2E2E2E2E2E2E2E2E2E2E2E2E2E2E2E2E2E2E2E2E2E2E2E2E2E2E2E2E2E2E2E2E2E2E2E2E2E2E2E2E2E2E2E2E2E2E2E2E2E2E2E2E2E2E2E2E2E2E2E2E2E2E2E2E2E2E2E2E2E2E2E2E2E2E2E2E2E2E2E2E2E2E2E2E2E2E2E2E2E2E2
310
E2E2E2E2E2E2E2E2E2E2E2E2E2E2E2E2E2E2E2E2E2E2E2E2E2E2E2E2E2E2E2E2E2E2E2E2E2E2E2E2E2E2E2E2E2E2E2E2E2E2E2E2E2E2E2E2E2E2E2E2E2E2E2E2E2E2E2E2E2E2E2E2E2E2E2E2E2E2E2E2E2E2E2E2E2E2E2E2E2E2E2E2E2E2E2E2E2E2E2E2E2E2E2E2E2E2E2E2E2E2E2E2E2E2E2E2E2E2E2E2E2E2E2E2E2E2E2
310
E2E2E2E2E2E2E2E2E2E2E2E2E2E2E2E2E2E2E2E2E2E2E2E2E2E2E2E2E2E2E2E2E2E2E2E2E2E2E2E2E2E2E2E2E2E2E2E2E2E2E2E2E2E2E2E2E2E2E2E2E2E2E2E2E2E2E2E2E2E2E2E2E2E2E2E2E2E2E2E2E2E2E2E2E2E2E2E2E2E2E2E2E2E2E2E2E2E2E2E2E2E2E2E2E2E2E2E2E2E2E2E2E2E2E2E2E2E2E2E2E2E2E2E2E2E2E2
310
E2E2E2E2E2E2E2E2E2E2E2E2E2E2E2E2E2E2E2E2E2E2E2E2E2E2E2E2E2E2E2E2E2E2E2E2E2E2E2E2E2E2E2E2E2E2E2E2E2E2E2E2E2E2E2E2E2E2E2E2E2E2E2E2E2E2E2E2E2E2E2E2E2E2E2E2E2E2E2E2E2E2E2E2E2E2E2E2E2E2E2E2E2E2E2E2E2E2E2E2E2E2E2E2E2E2E2E2E2E2E2E2E2E2E2E2E2E2E2E2E2E2E2E2E2E2E2
310
E2E2E2E2E2E2E2E2E2E2E2E2E2E2E2E2E2E2E2E2E2E2E2E2E2E2E2E2E2E2E2E2E2E2E2E2E2E2E2E2E2E2E2E2E2E2E2E2E2E2E2E2E2E2E2E2E2E2E2E2E2E2E2E2E2E2E2E2E2E2E2E2E2E2E2E2E2E2E2E2E2E2E2E2E2E2E2E2E2E2E2E2E2E2E2E2E2E2E2E2E2E2E2E2E2E2E2E2E2E2E2E2E2E2E2E2E2E2E2E2E2E2E2E2E2E2E2
310
E2E2E2E2E2E2E2E2E2E2E2E2E2E2E2E2E2E2E2E2E2E2E2E2E2E2E2E2E2E2E2E2E2E2E2E2E2E2E2E2E2E2E2E2E2E2E2E2E2E2E2E2E2E2E2E2E2E2E2E2E2E2E2E2E2E2E2E2E2E2E2E2E2E2E2E2E2E2E2E2E2E2E2E2E2E2E2E2E2E2E2E2E2E2E2E2E2E2E2E2E2E2E2E2E2E2E2E2E2E2E2E2E2E2E2E2E2E2E2E2E2E2E2E2E2E2E2
310
E2E2E2E2E2E2E2E2E2E2E2E2E2E2E2E2E2E2E2E2E2E2E2E2E2E2E2E2E2E2E2E2E2E2E2E2E2E2E2E2E2E2E2E2E2E2E2E2E2E2E2E2E2E2E2E2E2E2E2E2E2E2E2E2E2E2E2E2E2E2E2E2E2E2E2E2E2E2E2E2E2E2E2E2E2E2E2E2E2E2E2E2E2E2E2E2E2E2E2E2E2E2E2E2E2E2E2E2E2E2E2E2E2E2E2E2E2E2E2E2E2E2E2E2E2E2E2
310
E2E2E2E2E2E2E2E2E2E2E2E2E2E2E2E2E2E2E2E2E2E2E2E2E2E2E2E2E2E2E2E2E2E2E2E2E2E2E2E2E2E2E2E2E2E2E2E2E2E2E2E2E2E2E2E2E2E2E2E2E2E2E2E2E2E2E2E2E2E2E2E2E2E2E2E2E2E2E2E2E2E2E2E2E2E2E2E2E2E2E2E2E2E2E2E2E2E2E2E2E2E2E2E2E2E2E2E2E2E2E2E2E2E2E2E2E2E2E2E2E2E2E2E2E2E2E2
310
E2E2E2E2E2E2E2E2E2E2E2E2E2E2E2E2E2E2E2E2E2E2E2E2E2E2E2E2E2E2E2E2E2E2E2E2E2E2E2E2E2E2E2E2E2E2E2E2E2E2E2E2E2E2E2E2E2E2E2E2E2E2E2E2E2E2E2E2E2E2E2E2E2E2E2E2E2E2E2E2E2E2E2E2E2E2E2E2E2E2E2E2E2E2E2E2E2E2E2E2E2E2E2E2E2E2E2E2E2E2E2E2E2E2E2E2E2E2E2E2E2E2E2E2E2E2E2
310
E2E2E2E2E2E2E2E2E2E2E2E2E2E2E2E2E2E2E2E2E2E2E2E2E2E2E2E2E2E2E2E2E2E2E2E2E2E2E2E2E2E2E2E2E2E2E2E2E2E2E2E2E2E2E2E2E2E2E2E2E2E2E2E2E2E2E2E2E2E2E2E2E2E2E2E2E2E2E2E2E2E2E2E2E2E2E2E2E2E2E2E2E2E2E2E2E2E2E2E2E2E2E2E2E2E2E2E2E2E2E2E2E2E2E2E2E2E2E2E2E2E2E2E2E2E2E2
310
E2E2E2E2E2E2E2E2E2E2E2E2E2E2E2E2E2E2E2E2E2E2E2E2E2E2E2E2E2E2E2E2E2E2E2E2E2E2E2E2E2E2E2E2E2E2E2E2E2E2E2E2E2E2E2E2E2E2E2E2E2E2E2E2E2E2E2E2E2E2E2E2E2E2E2E2E2E2E2E2E2E2E2E2E2E2E2E2E2E2E2E2E2E2E2E2E2E2E2E2E2E2E2E2E2E2E2E2E2E2E2E2E2E2E2E2E2E2E2E2E2E2E2E2E2E2E2
310
E2E2E2E2E2E2E2E2E2E2E2E2E2E2E2E2E2E2E2E2E2E2E2E2E2E2E2E2E2E2E2E2E2E2E2E2E2E2E2E2E2E2E2E2E2E2E2E2E2E2E2E2E2E2E2E2E2E2E2E2E2E2E2E2E2E2E2E2E2E2E2E2E2E2E2E2E2E2E2E2E2E2E2E2E2E2E2E2E2E2E2E2E2E2E2E2E2E2E2E2E2E2E2E2E2E2E2E2E2E2E2E2E2E2E2E2E2E2E2E2E2E2E2E2E2E2E2
310
E2E2E2E2E2E2E2E2E2E2E2E2E2E2E2E2E2E2E2E2E2E2E2E2E2E2E2E2E2E2E2E2E2E2E2E2E2E2E2E2E2E2E2E2E2E2E2E2E2E2E2E2E2E2E2E2E2E2E2E2E2E2E2E2E2E2E2E2E2E2E2E2E2E2E2E2E2E2E2E2E2E2E2E2E2E2E2E2E2E2E2E2E2E2E2E2E2E2E2E2E2E2E2E2E2E2E2E2E2E2E2E2E2E2E2E2E2E2E2E2E2E2E2E2E2E2E2
310
E2E2E2E2E2E2E2E2E2E2E2E2E2E2E2E2E2E2E2E2E2E2E2E2E2E2E2E2E2E2E2E2E2E2E2E2E2E2E2E2E2E2E2E2E2E2E2E2E2E2E2E2E2E2E2E2E2E2E2E2E2E2E2E2E2E2E2E2E2E2E2E2E2E2E2E2E2E2E2E2E2E2E2E2E2E2E2E2E2E2E2E2E2E2E2E2E2E2E2E2E2E2E2E2E2E2E2E2E2E2E2E2E2E2E2E2E2E2E2E2E2E2E2E2E2E2E2
310
E2E2E2E2E2E2E2E2E2E2E2E2E2E2E2E2E2E2E2E2E2E2E2E2E2E2E2E2E2E2E2E2E2E2E2E2E2E2E2E2E2E2E2E2E2E2E2E2E2E2E2E2E2E2E2E2E2E2E2E2E2E2E2E2E2E2E2E2E2E2E2E2E2E2E2E2E2E2E2E2E2E2E2E2E2E2E2E2E2E2E2E2E2E2E2E2E2E2E2E2E2E2E2E2E2E2E2E2E2E2E2E2E2E2E2E2E2E2E2E2E2E2E2E2E2E2E2
310
E2E2E2E2E2E2E2E2E2E2E2E2E2E2E2E2E2E2E2E2E2E2E2E2E2E2E2E2E2E2E2E2E2E2E2E2E2E2E2E2E2E2E2E2E2E2E2E2E2E2E2E2E2E2E2E2E2E2E2E2E2E2E2E2E2E2E2E2E2E2E2E2E2E2E2E2E2E2E2E2E2E2E2E2E2E2E2E2E2E2E2E2E2E2E2E2E2E2E2E2E2E2E2E2E2E2E2E2E2E2E2E2E2E2E2E2E2E2E2E2E2E2E2E2E2E2E2
310
E2E2E2E2E2E2E2E2E2E2E2E2E2E2E2E2E2E2E2E2E2E2E2E2E2E2E2E2E2E2E2E2E2E2E2E2E2E2E2E2E2E2E2E2E2E2E2E2E2E2E2E2E2E2E2E2E2E2E2E2E2E2E2E2E2E2E2E2E2E2E2E2E2E2E2E2E2E2E2E2E2E2E2E2E2E2E2E2E2E2E2E2E2E2E2E2E2E2E2E2E2E2E2E2E2E2E2E2E2E2E2E2E2E2E2E2E2E2E2E2E2E2E2E2E2E2E2
310
E2E2E2E2E2E2E2E2E2E2E2E2E2E2E2E2E2E2E2E2E2E2E2E2E2E2E2E2E2E2E2E2E2E2E2E2E2E2E2E2E2E2E2E2E2E2E2E2E2E2E2E2E2E2E2E2E2E2E2E2E2E2E2E2E2E2E2E2E2E2E2E2E2E2E2E2E2E2E2E2E2E2E2E2E2E2E2E2E2E2E2E2E2E2E2E2E2E2E2E2E2E2E2E2E2E2E2E2E2E2E2E2E2E2E2E2E2E2E2E2E2E2E2E2E2E2E2
310
E2E2E2E2E2E2E2E2E2E2E2E2E2E2E2E2E2E2E2E2E2E2E2E2E2E2E2E2E2E2E2E2E2E2E2E2E2E2E2E2E2E2E2E2E2E2E2E2E2E2E2E2E2E2E2E2E2E2E2E2E2E2E2E2E2E2E2E2E2E2E2E2E2E2E2E2E2E2E2E2E2E2E2E2E2E2E2E2E2E2E2E2E2E2E2E2E2E2E2E2E2E2E2E2E2E2E2E2E2E2E2E2E2E2E2E2E2E2E2E2E2E2E2E2E2E2E2
310
E2E2E2E2E2E2E2E2E2E2E2E2E2E2E2E2E2E2E2E2E2E2E2E2E2E2E2E2E2E2E2E2E2E2E2E2E2E2E2E2E2E2E2E2E2E2E2E2E2E2E2E2E2E2E2E2E2E2E2E2E2E2E2E2E2E2E2E2E2E2E2E2E2E2E2E2E2E2E2E2E2E2E2E2E2E2E2E2E2E2E2E2E2E2E2E2E2E2E2E2E2E2E2E2E2E2E2E2E2E2E2E2E2E2E2E2E2E2E2E2E2E2E2E2E2E2E2
310
E2E2E2E2E2E2E2E2E2E2E2E2E2E2E2E2E2E2E2E2E2E2E2E2E2E2E2E2E2E2E2E2E2E2E2E2E2E2E2E2E2E2E2E2E2E2E2E2E2E2E2E2E2E2E2E2E2E2E2E2E2E2E2E2E2E2E2E2E2E2E2E2E2E2E2E2E2E2E2E2E2E2E2E2E2E2E2E2E2E2E2E2E2E2E2E2E2E2E2E2E2E2E2E2E2E2E2E2E2E2E2E2E2E2E2E2E2E2E2E2E2E2E2E2E2E2E2
310
E2E2E2E2E2E2E2E2E2E2E2E2E2E2E2E2E2E2E2E2E2E2E2E2E2E2E2E2E2E2E2E2E2E2E2E2E2E2E2E2E2E2E2E2E2E2E2E2E2E2E2E2E2E2E2E2E2E2E2E2E2E2E2E2E2E2E2E2E2E2E2E2E2E2E2E2E2E2E2E2E2E2E2E2E2E2E2E2E2E2E2E2E2E2E2E2E2E2E2E2E2E2E2E2E2E2E2E2E2E2E2E2E2E2E2E2E2E2E2E2E2E2E2E2E2E2E2
310
E2E2E2E2E2E2E2E2E2E2E2E2E2E2E2E2E2E2E2E2E2E2E2E2E2E2E2E2E2E2E2E2E2E2E2E2E2E2E2E2E2E2E2E2E2E2E2E2E2E2E2E2E2E2E2E2E2E2E2E2E2E2E2E2E2E2E2E2E2E2E2E2E2E2E2E2E2E2E2E2E2E2E2E2E2E2E2E2E2E2E2E2E2E2E2E2E2E2E2E2E2E2E2E2E2E2E2E2E2E2E2E2E2E2E2E2E2E2E2E2E2E2E2E2E2E2E2
310
E2E2E2E2E2E2E2E2E2E2E2E2E2E2E2E2E2E2E2E2E2E2E2E2E2E2E2E2E2E2E2E2E2E2E2E2E2E2E2E2E2E2E2E2E2E2E2E2E2E2E2E2E2E2E2E2E2E2E2E2E2E2E2E2E2E2E2E2E2E2E2E2E2E2E2E2E2E2E2E2E2E2E2E2E2E2E2E2E2E2E2E2E2E2E2E2E2E2E2E2E2E2E2E2E2E2E2E2E2E2E2E2E2E2E2E2E2E2E2E2E2E2E2E2E2E2E2
310
E2E2E2E2E2E2E2E2E2E2E2E2E2E2E2E2E2E2E2E2E2E2E2E2E2E2E2E2E2E2E2E2E2E2E2E2E2E2E2E2E2E2E2E2E2E2E2E2E2E2E2E2E2E2E2E2E2E2E2E2E2E2E2E2E2E2E2E2E2E2E2E2E2E2E2E2E2E2E2E2E2E2E2E2E2E2E2E2E2E2E2E2E2E2E2E2E2E2E2E2E2E2E2E2E2E2E2E2E2E2E2E2E2E2E2E2E2E2E2E2E2E2E2E2E2E2E2
310
E2E2E2E2E2E2E2E2E2E2E2E2E2E2E2E2E2E2E2E2E2E2E2E2E2E2E2E2E2E2E2E2E2E2E2E2E2E2E2E2E2E2E2E2E2E2E2E2E2E2E2E2E2E2E2E2E2E2E2E2E2E2E2E2E2E2E2E2E2E2E2E2E2E2E2E2E2E2E2E2E2E2E2E2E2E2E2E2E2E2E2E2E2E2E2E2E2E2E2E2E2E2E2E2E2E2E2E2E2E2E2E2E2E2E2E2E2E2E2E2E2E2E2E2E2E2E2
310
E2E2E2E2E2E2E2E2E2E2E2E2E2E2E2E2E2E2E2E2E2E2E2E2E2E2E2E2E2E2E2E2E2E2E2E2E2E2E2E2E2E2E2E2E2E2E2E2E2E2E2E2E2E2E2E2E2E2E2E2E2E2E2E2E2E2E2E2E2E2E2E2E2E2E2E2E2E2E2E2E2E2E2E2E2E2E2E2E2E2E2E2E2E2E2E2E2E2E2E2E2E2E2E2E2E2E2E2E2E2E2E2E2E2E2E2E2E2E2E2E2E2E2E2E2E2E2
310
E2E2E2E2E2E2E2E2E2E2E2E2E2E2E2E2E2E2E2E2E2E2E2E2E2E2E2E2E2E2E2E2E2E2E2E2E2E2E2E2E2E2E2E2E2E2E2E2E2E2E2E2E2E2E2E2E2E2E2E2E2E2E2E2E2E2E2E2E2E2E2E2E2E2E2E2E2E2E2E2E2E2E2E2E2E2E2E2E2E2E2E2E2E2E2E2E2E2E2E2E2E2E2E2E2E2E2E2E2E2E2E2E2E2E2E2E2E2E2E2E2E2E2E2E2E2E2
310
E2E2E2E2E2E2E2E2E2E2E2E2E2E2E2E2E2E2E2E2E2E2E2E2E2E2E2E2E2E2E2E2E2E2E2E2E2E2E2E2E2E2E2E2E2E2E2E2E2E2E2E2E2E2E2E2E2E2E2E2E2E2E2E2E2E2E2E2E2E2E2E2E2E2E2E2E2E2E2E2E2E2E2E2E2E2E2E2E2E2E2E2E2E2E2E2E2E2E2E2E2E2E2E2E2E2E2E2E2E2E2E2E2E2E2E2E2E2E2E2E2E2E2E2E2E2E2
310
E2E2E2E2E2E2E2E2E2E2E2E2E2E2E2E2E2E2E2E2E2E2E2E2E2E2E2E2E2E2E2E2E2E2E2E2E2E2E2E2E2E2E2E2E2E2E2E2E2E2E2E2E2E2E2E2E2E2E2E2E2E2E2E2E2E2E2E2E2E2E2E2E2E2E2E2E2E2E2E2E2E2E2E2E2E2E2E2E2E2E2E2E2E2E2E2E2E2E2E2E2E2E2E2E2E2E2E2E2E2E2E2E2E2E2E2E2E2E2E2E2E2E2E2E2E2E2
310
E2E2E2E2E2E2E2E2E2E2E2E2E2E2E2E2E2E2E2E2E2E2E2E2E2E2E2E2E2E2E2E2E2E2E2E2E2E2E2E2E2E2E2E2E2E2E2E2E2E2E2E2E2E2E2E2E2E2E2E2E2E2E2E2E2E2E2E2E2E2E2E2E2E2E2E2E2E2E2E2E2E2E2E2E2E2E2E2E2E2E2E2E2E2E2E2E2E2E2E2E2E2E2E2E2E2E2E2E2E2E2E2E2E2E2E2E2E2E2E2E2E2E2E2E2E2E2
310
E2E2E2E2E2E2E2E2E2E2E2E2E2E2E2E2E2E2E2E2E2E2E2E2E2E2E2E2E2E2E2E2E2E2E2E2E2E2E2E2E2E2E2E2E2E2E2E2E2E2E2E2E2E2E2E2E2E2E2E2E2E2E2E2E2E2E2E2E2E2E2E2E2E2E2E2E2E2E2E2E2E2E2E2E2E2E2E2E2E2E2E2E2E2E2E2E2E2E2E2E2E2E2E2E2E2E2E2E2E2E2E2E2E2E2E2E2E2E2E2E2E2E2E2E2E2E2
310
E2E2E2E2E2E2E2E2E2E2E2E2E2E2E2E2E2E2E2E2E2E2E2E2E2E2E2E2E2E2E2E2E2E2E2E2E2E2E2E2E2E2E2E2E2E2E2E2E2E2E2E2E2E2E2E2E2E2E2E2E2E2E2E2E2E2E2E2E2E2E2E2E2E2E2E2E2E2E2E2E2E2E2E2E2E2E2E2E2E2E2E2E2E2E2E2E2E2E2E2E2E2E2E2E2E2E2E2E2E2E2E2E2E2E2E2E2E2E2E2E2E2E2E2E2E2E2
310
E2E2E2E2E2E2E2E2E2E2E2E2E2E2E2E2E2E2E2E2E2E2E2E2E2E2E2E2E2E2E2E2E2E2E2E2E2E2E2E2E2E2E2E2E2E2E2E2E2E2E2E2E2E2E2E2E2E2E2E2E2E2E2E2E2E2E2E2E2E2E2E2E2E2E2E2E2E2E2E2E2E2E2E2E2E2E2E2E2E2E2E2E2E2E2E2E2E2E2E2E2E2E2E2E2E2E2E2E2E2E2E2E2E2E2E2E2E2E2E2E2E2E2E2E2E2E2
310
E2E2E2E2E2E2E2E2E2E2E2E2E2E2E2E2E2E2E2E2E2E2E2E2E2E2E2E2E2E2E2E2E2E2E2E2E2E2E2E2E2E2E2E2E2E2E2E2E2E2E2E2E2E2E2E2E2E2E2E2E2E2E2E2E2E2E2E2E2E2E2E2E2E2E2E2E2E2E2E2E2E2E2E2E2E2E2E2E2E2E2E2E2E2E2E2E2E2E2E2E2E2E2E2E2E2E2E2E2E2E2E2E2E2E2E2E2E2E2E2E2E2E2E2E2E2E2
310
E2E2E2E2E2E2E2E2E2E2E2E2E2E2E2E2E2E2E2E2E2E2E2E2E2E2E2E2E2E2E2E2E2E2E2E2E2E2E2E2E2E2E2E2E2E2E2E2E2E2E2E2E2E2E2E2E2E2E2E2E2E2E2E2E2E2E2E2E2E2E2E2E2E2E2E2E2E2E2E2E2E2E2E2E2E2E2E2E2E2E2E2E2E2E2E2E2E2E2E2E2E2E2E2E2E2E2E2E2E2E2E2E2E2E2E2E2E2E2E2E2E2E2E2E2E2E2
310
E2E2E2E2E2E2E2E2E2E2E2E2E2E2E2E2E2E2E2E2E2E2E2E2E2E2E2E2E2E2E2E2E2E2E2E2E2E2E2E2E2E2E2E2E2E2E2E2E2E2E2E2E2E2E2E2E2E2E2E2E2E2E2E2E2E2E2E2E2E2E2E2E2E2E2E2E2E2E2E2E2E2E2E2E2E2E2E2E2E2E2E2E2E2E2E2E2E2E2E2E2E2E2E2E2E2E2E2E2E2E2E2E2E2E2E2E2E2E2E2E2E2E2E2E2E2E2
310
E2E2E2E2E2E2E2E2E2E2E2E2E2E2E2E2E2E2E2E2E2E2E2E2E2E2E2E2E2E2E2E2E2E2E2E2E2E2E2E2E2E2E2E2E2E2E2E2E2E2E2E2E2E2E2E2E2E2E2E2E2E2E2E2E2E2E2E2E2E2E2E2E2E2E2E2E2E2E2E2E2E2E2E2E2E2E2E2E2E2E2E2E2E2E2E2E2E2E2E2E2E2E2E2E2E2E2E2E2E2E2E2E2E2E2E2E2E2E2E2E2E2E2E2E2E2E2
310
E2E2E2E2E2E2E2E2E2E2E2E2E2E2E2E2E2E2E2E2E2E2E2E2E2E2E2E2E2E2E2E2E2E2E2E2E2E2E2E2E2E2E2E2E2E2E2E2E2E2E2E2E2E2E2E2E2E2E2E2E2E2E2E2E2E2E2E2E2E2E2E2E2E2E2E2E2E2E2E2E2E2E2E2E2E2E2E2E2E2E2E2E2E2E2E2E2E2E2E2E2E2E2E2E2E2E2E2E2E2E2E2E2E2E2E2E2E2E2E2E2E2E2E2E2E2E2
310
E2E2E2E2E2E2E2E2E2E2E2E2E2E2E2E2E2E2E2E2E2E2E2E2E2E2E2E2E2E2E2E2E2E2E2E2E2E2E2E2E2E2E2E2E2E2E2E2E2E2E2E2E2E2E2E2E2E2E2E2E2E2E2E2E2E2E2E2E2E2E2E2E2E2E2E2E2E2E2E2E2E2E2E2E2E2E2E2E2E2E2E2E2E2E2E2E2E2E2E2E2E2E2E2E2E2E2E2E2E2E2E2E2E2E2E2E2E2E2E2E2E2E2E2E2E2E2
310
E2E2E2E2E2E2E2E2E2E2E2E2E2E2E2E2E2E2E2E2E2E2E2E2E2E2E2E2E2E2E2E2E2E2E2E2E2E2E2E2E2E2E2E2E2E2E2E2E2E2E2E2E2E2E2E2E2E2E2E2E2E2E2E2E2E2E2E2E2E2E2E2E2E2E2E2E2E2E2E2E2E2E2E2E2E2E2E2E2E2E2E2E2E2E2E2E2E2E2E2E2E2E2E2E2E2E2E2E2E2E2E2E2E2E2E2E2E2E2E2E2E2E2E2E2E2E2
310
E2E2E2E2E2E2E2E2E2E2E2E2E2E2E2E2E2E2E2E2E2E2E2E2E2E2E2E2E2E2E2E2E2E2E2E2E2E2E2E2E2E2E2E2E2E2E2E2E2E2E2E2E2E2E2E2E2E2E2E2E2E2E2E2E2E2E2E2E2E2E2E2E2E2E2E2E2E2E2E2E2E2E2E2E2E2E2E2E2E2E2E2E2E2E2E2E2E2E2E2E2E2E2E2E2E2E2E2E2E2E2E2E2E2E2E2E2E2E2E2E2E2E2E2E2E2E2
310
E2E2E2E2E2E2E2E2E2E2E2E2E2E2E2E2E2E2E2E2E2E2E2E2E2E2E2E2E2E2E2E2E2E2E2E2E2E2E2E2E2E2E2E2E2E2E2E2E2E2E2E2E2E2E2E2E2E2E2E2E2E2E2E2E2E2E2E2E2E2E2E2E2E2E2E2E2E2E2E2E2E2E2E2E2E2E2E2E2E2E2E2E2E2E2E2E2E2E2E2E2E2E2E2E2E2E2E2E2E2E2E2E2E2E2E2E2E2E2E2E2E2E2E2E2E2E2
310
E2E2E2E2E2E2E2E2E2E2E2E2E2E2E2E2E2E2E2E2E2E2E2E2E2E2E2E2E2E2E2E2E2E2E2E2E2E2E2E2E2E2E2E2E2E2E2E2E2E2E2E2E2E2E2E2E2E2E2E2E2E2E2E2E2E2E2E2E2E2E2E2E2E2E2E2E2E2E2E2E2E2E2E2E2E2E2E2E2E2E2E2E2E2E2E2E2E2E2E2E2E2E2E2E2E2E2E2E2E2E2E2E2E2E2E2E2E2E2E2E2E2E2E2E2E2E2
310
E2E2E2E2E2E2E2E2E2E2E2E2E2E2E2E2E2E2E2E2E2E2E2E2E2E2E2E2E2E2E2E2E2E2E2E2E2E2E2E2E2E2E2E2E2E2E2E2E2E2E2E2E2E2E2E2E2E2E2E2E2E2E2E2E2E2E2E2E2E2E2E2E2E2E2E2E2E2E2E2E2E2E2E2E2E2E2E2E2E2E2E2E2E2E2E2E2E2E2E2E2E2E2E2E2E2E2E2E2E2E2E2E2E2E2E2E2E2E2E2E2E2E2E2E2E2E2
310
E2E2E2E2E2E2E2E2E2E2E2E2E2E2E2E2E2E2E2E2E2E2E2E2E2E2E2E2E2E2E2E2E2E2E2E2E2E2E2E2E2E2E2E2E2E2E2E2E2E2E2E2E2E2E2E2E2E2E2E2E2E2E2E2E2E2E2E2E2E2E2E2E2E2E2E2E2E2E2E2E2E2E2E2E2E2E2E2E2E2E2E2E2E2E2E2E2E2E2E2E2E2E2E2E2E2E2E2E2E2E2E2E2E2E2E2E2E2E2E2E2E2E2E2E2E2E2
310
E2E2E2E2E2E2E2E2E2E2E2E2E2E2E2E2E2E2E2E2E2E2E2E2E2E2E2E2E2E2E2E2E2E2E2E2E2E2E2E2E2E2E2E2E2E2E2E2E2E2E2E2E2E2E2E2E2E2E2E2E2E2E2E2E2E2E2E2E2E2E2E2E2E2E2E2E2E2E2E2E2E2E2E2E2E2E2E2E2E2E2E2E2E2E2E2E2E2E2E2E2E2E2E2E2E2E2E2E2E2E2E2E2E2E2E2E2E2E2E2E2E2E2E2E2E2E2
310
E2E2E2E2E2E2E2E2E2E2E2E2E2E2E2E2E2E2E2E2E2E2E2E2E2E2E2E2E2E2E2E2E2E2E2E2E2E2E2E2E2E2E2E2E2E2E2E2E2E2E2E2E2E2E2E2E2E2E2E2E2E2E2E2E2E2E2E2E2E2E2E2E2E2E2E2E2E2E2E2E2E2E2E2E2E2E2E2E2E2E2E2E2E2E2E2E2E2E2E2E2E2E2E2E2E2E2E2E2E2E2E2E2E2E2E2E2E2E2E2E2E2E2E2E2E2E2
310
E2E2E2E2E2E2E2E2E2E2E2E2E2E2E2E2E2E2E2E2E2E2E2E2E2E2E2E2E2E2E2E2E2E2E2E2E2E2E2E2E2E2E2E2E2E2E2E2E2E2E2E2E2E2E2E2E2E2E2E2E2E2E2E2E2E2E2E2E2E2E2E2E2E2E2E2E2E2E2E2E2E2E2E2E2E2E2E2E2E2E2E2E2E2E2E2E2E2E2E2E2E2E2E2E2E2E2E2E2E2E2E2E2E2E2E2E2E2E2E2E2E2E2E2E2E2E2
310
E2E2E2E2E2E2E2E2E2E2E2E2E2E2E2E2E2E2E2E2E2E2E2E2E2E2E2E2E2E2E2E2E2E2E2E2E2E2E2E2E2E2E2E2E2E2E2E2E2E2E2E2E2E2E2E2E2E2E2E2E2E2E2E2E2E2E2E2E2E2E2E2E2E2E2E2E2E2E2E2E2E2E2E2E2E2E2E2E2E2E2E2E2E2E2E2E2E2E2E2E2E2E2E2E2E2E2E2E2E2E2E2E2E2E2E2E2E2E2E2E2E2E2E2E2E2E2
310
E2E2E2E2E2E2E2E2E2E2E2E2E2E2E2E2E2E2E2E2E2E2E2E2E2E2E2E2E2E2E2E2E2E2E2E2E2E2E2E2E2E2E2E2E2E2E2E2E2E2E2E2E2E2E2E2E2E2E2E2E2E2E2E2E2E2E2E2E2E2E2E2E2E2E2E2E2E2E2E2E2E2E2E2E2E2E2E2E2E2E2E2E2E2E2E2E2E2E2E2E2E2E2E2E2E2E2E2E2E2E2E2E2E2E2E2E2E2E2E2E2E2E2E2E2E2E2
310
E2E2E2E2E2E2E2E2E2E2E2E2E2E2E2E2E2E2E2E2E2E2E2E2E2E2E2E2E2E2E2E2E2E2E2E2E2E2E2E2E2E2E2E2E2E2E2E2E2E2E2E2E2E2E2E2E2E2E2E2E2E2E2E2E2E2E2E2E2E2E2E2E2E2E2E2E2E2E2E2E2E2E2E2E2E2E2E2E2E2E2E2E2E2E2E2E2E2E2E2E2E2E2E2E2E2E2E2E2E2E2E2E2E2E2E2E2E2E2E2E2E2E2E2E2E2E2
310
E2E2E2E2E2E2E2E2E2E2E2E2E2E2E2E2E2E2E2E2E2E2E2E2E2E2E2E2E2E2E2E2E2E2E2E2E2E2E2E2E2E2E2E2E2E2E2E2E2E2E2E2E2E2E2E2E2E2E2E2E2E2E2E2E2E2E2E2E2E2E2E2E2E2E2E2E2E2E2E2E2E2E2E2E2E2E2E2E2E2E2E2E2E2E2E2E2E2E2E2E2E2E2E2E2E2E2E2E2E2E2E2E2E2E2E2E2E2E2E2E2E2E2E2E2E2E2
310
E2E2E2E2E2E2E2E2E2E2E2E2E2E2E2E2E2E2E2E2E2E2E2E2E2E2E2E2E2E2E2E2E2E2E2E2E2E2E2E2E2E2E2E2E2E2E2E2E2E2E2E2E2E2E2E2E2E2E2E2E2E2E2E2E2E2E2E2E2E2E2E2E2E2E2E2E2E2E2E2E2E2E2E2E2E2E2E2E2E2E2E2E2E2E2E2E2E2E2E2E2E2E2E2E2E2E2E2E2E2E2E2E2E2E2E2E2E2E2E2E2E2E2E2E2E2E2
310
E2E2E2E2E2E2E2E2E2E2E2E2E2E2E2E2E2E2E2E2E2E2E2E2E2E2E2E2E2E2E2E2E2E2E2E2E2E2E2E2E2E2E2E2E2E2E2E2E2E2E2E2E2E2E2E2E2E2E2E2E2E2E2E2E2E2E2E2E2E2E2E2E2E2E2E2E2E2E2E2E2E2E2E2E2E2E2E2E2E2E2E2E2E2E2E2E2E2E2E2E2E2E2E2E2E2E2E2E2E2E2E2E2E2E2E2E2E2E2E2E2E2E2E2E2E2E2
310
E2E2E2E2E2E2E2E2E2E2E2E2E2E2E2E2E2E2E2E2E2E2E2E2E2E2E2E2E2E2E2E2E2E2E2E2E2E2E2E2E2E2E2E2E2E2E2E2E2E2E2E2E2E2E2E2E2E2E2E2E2E2E2E2E2E2E2E2E2E2E2E2E2E2E2E2E2E2E2E2E2E2E2E2E2E2E2E2E2E2E2E2E2E2E2E2E2E2E2E2E2E2E2E2E2E2E2E2E2E2E2E2E2E2E2E2E2E2E2E2E2E2E2E2E2E2E2
310
E2E2E2E2E2E2E2E2E2E2E2E2E2E2E2E2E2E2E2E2E2E2E2E2E2E2E2E2E2E2E2E2E2E2E2E2E2E2E2E2E2E2E2E2E2E2E2E2E2E2E2E2E2E2E2E2E2E2E2E2E2E2E2E2E2E2E2E2E2E2E2E2E2E2E2E2E2E2E2E2E2E2E2E2E2E2E2E2E2E2E2E2E2E2E2E2E2E2E2E2E2E2E2E2E2E2E2E2E2E2E2E2E2E2E2E2E2E2E2E2E2E2E2E2E2E2E2
310
E2E2E2E2E2E2E2E2E2E2E2E2E2E2E2E2E2E2E2E2E2E2E2E2E2E2E2E2E2E2E2E2E2E2E2E2E2E2E2E2E2E2E2E2E2E2E2E2E2E2E2E2E2E2E2E2E2E2E2E2E2E2E2E2E2E2E2E2E2E2E2E2E2E2E2E2E2E2E2E2E2E2E2E2E2E2E2E2E2E2E2E2E2E2E2E2E2E2E2E2E2E2E2E2E2E2E2E2E2E2E2E2E2E2E2E2E2E2E2E2E2E2E2E2E2E2E2
310
E2E2E2E2E2E2E2E2E2E2E2E2E2E2E2E2E2E2E2E2E2E2E2E2E2E2E2E2E2E2E2E2E2E2E2E2E2E2E2E2E2E2E2E2E2E2E2E2E2E2E2E2E2E2E2E2E2E2E2E2E2E2E2E2E2E2E2E2E2E2E2E2E2E2E2E2E2E2E2E2E2E2E2E2E2E2E2E2E2E2E2E2E2E2E2E2E2E2E2E2E2E2E2E2E2E2E2E2E2E2E2E2E2E2E2E2E2E2E2E2E2E2E2E2E2E2E2
310
E2E2E2E2E2E2E2E2E2E2E2E2E2E2E2E2E2E2E2E2E2E2E2E2E2E2E2E2E2E2E2E2E2E2E2E2E2E2E2E2E2E2E2E2E2E2E2E2E2E2E2E2E2E2E2E2E2E2E2E2E2E2E2E2E2E2E2E2E2E2E2E2E2E2E2E2E2E2E2E2E2E2E2E2E2E2E2E2E2E2E2E2E2E2E2E2E2E2E2E2E2E2E2E2E2E2E2E2E2E2E2E2E2E2E2E2E2E2E2E2E2E2E2E2E2E2E2
310
E2E2E2E2E2E2E2E2E2E2E2E2E2E2E2E2E2E2E2E2E2E2E2E2E2E2E2E2E2E2E2E2E2E2E2E2E2E2E2E2E2E2E2E2E2E2E2E2E2E2E2E2E2E2E2E2E2E2E2E2E2E2E2E2E2E2E2E2E2E2E2E2E2E2E2E2E2E2E2E2E2E2E2E2E2E2E2E2E2E2E2E2E2E2E2E2E2E2E2E2E2E2E2E2E2E2E2E2E2E2E2E2E2E2E2E2E2E2E2E2E2E2E2E2E2E2E2
310
E2E2E2E2E2E2E2E2E2E2E2E2E2E2E2E2E2E2E2E2E2E2E2E2E2E2E2E2E2E2E2E2E2E2E2E2E2E2E2E2E2E2E2E2E2E2E2E2E2E2E2E2E2E2E2E2E2E2E2E2E2E2E2E2E2E2E2E2E2E2E2E2E2E2E2E2E2E2E2E2E2E2E2E2E2E2E2E2E2E2E2E2E2E2E2E2E2E2E2E2E2E2E2E2E2E2E2E2E2E2E2E2E2E2E2E2E2E2E2E2E2E2E2E2E2E2E2
310
E2E2E2E2E2E2E2E2E2E2E2E2E2E2E2E2E2E2E2E2E2E2E2E2E2E2E2E2E2E2E2E2E2E2E2E2E2E2E2E2E2E2E2E2E2E2E2E2E2E2E2E2E2E2E2E2E2E2E2E2E2E2E2E2E2E2E2E2E2E2E2E2E2E2E2E2E2E2E2E2E2E2E2E2E2E2E2E2E2E2E2E2E2E2E2E2E2E2E2E2E2E2E2E2E2E2E2E2E2E2E2E2E2E2E2E2E2E2E2E2E2E2E2E2E2E2E2
310
E2E2E2E2E2E2E2E2E2E2E2E2E2E2E2E2E2E2E2E2E2E2E2E2E2E2E2E2E2E2E2E2E2E2E2E2E2E2E2E2E2E2E2E2E2E2E2E2E2E2E2E2E2E2E2E2E2E2E2E2E2E2E2E2E2E2E2E2E2E2E2E2E2E2E2E2E2E2E2E2E2E2E2E2E2E2E2E2E2E2E2E2E2E2E2E2E2E2E2E2E2E2E2E2E2E2E2E2E2E2E2E2E2E2E2E2E2E2E2E2E2E2E2E2E2E2E2
310
E2E2E2E2E2E2E2E2E2E2E2E2E2E2E2E2E2E2E2E2E2E2E2E2E2E2E2E2E2E2E2E2E2E2E2E2E2E2E2E2E2E2E2E2E2E2E2E2E2E2E2E2E2E2E2E2E2E2E2E2E2E2E2E2E2E2E2E2E2E2E2E2E2E2E2E2E2E2E2E2E2E2E2E2E2E2E2E2E2E2E2E2E2E2E2E2E2E2E2E2E2E2E2E2E2E2E2E2E2E2E2E2E2E2E2E2E2E2E2E2E2E2E2E2E2E2E2
310
E2E2E2E2E2E2E2E2E2E2E2E2E2E2E2E2E2E2E2E2E2E2E2E2E2E2E2E2E2E2E2E2E2E2E2E2E2E2E2E2E2E2E2E2E2E2E2E2E2E2E2E2E2E2E2E2E2E2E2E2E2E2E2E2E2E2E2E2E2E2E2E2E2E2E2E2E2E2E2E2E2E2E2E2E2E2E2E2E2E2E2E2E2E2E2E2E2E2E2E2E2E2E2E2E2E2E2E2E2E2E2E2E2E2E2E2E2E2E2E2E2E2E2E2E2E2E2
310
E2E2E2E2E2E2E2E2E2E2E2E2E2E2E2E2E2E2E2E2E2E2E2E2E2E2E2E2E2E2E2E2E2E2E2E2E2E2E2E2E2E2E2E2E2E2E2E2E2E2E2E2E2E2E2E2E2E2E2E2E2E2E2E2E2E2E2E2E2E2E2E2E2E2E2E2E2E2E2E2E2E2E2E2E2E2E2E2E2E2E2E2E2E2E2E2E2E2E2E2E2E2E2E2E2E2E2E2E2E2E2E2E2E2E2E2E2E2E2E2E2E2E2E2E2E2E2
310
E2E2E2E2E2E2E2E2E2E2E2E2E2E2E2E2E2E2E2E2E2E2E2E2E2E2E2E2E2E2E2E2E2E2E2E2E2E2E2E2E2E2E2E2E2E2E2E2E2E2E2E2E2E2E2E2E2E2E2E2E2E2E2E2E2E2E2E2E2E2E2E2E2E2E2E2E2E2E2E2E2E2E2E2E2E2E2E2E2E2E2E2E2E2E2E2E2E2E2E2E2E2E2E2E2E2E2E2E2E2E2E2E2E2E2E2E2E2E2E2E2E2E2E2E2E2E2
310
E2E2E2E2E2E2E2E2E2E2E2E2E2E2E2E2E2E2E2E2E2E2E2E2E2E2E2E2E2E2E2E2E2E2E2E2E2E2E2E2E2E2E2E2E2E2E2E2E2E2E2E2E2E2E2E2E2E2E2E2E2E2E2E2E2E2E2E2E2E2E2E2E2E2E2E2E2E2E2E2E2E2E2E2E2E2E2E2E2E2E2E2E2E2E2E2E2E2E2E2E2E2E2E2E2E2E2E2E2E2E2E2E2E2E2E2E2E2E2E2E2E2E2E2E2E2E2
310
E2E2E2E2E2E2E2E2E2E2E2E2E2E2E2E2E2E2E2E2E2E2E2E2E2E2E2E2E2E2E2E2E2E2E2E2E2E2E2E2E2E2E2E2E2E2E2E2E2E2E2E2E2E2E2E2E2E2E2E2E2E2E2E2E2E2E2E2E2E2E2E2E2E2E2E2E2E2E2E2E2E2E2E2E2E2E2E2E2E2E2E2E2E2E2E2E2E2E2E2E2E2E2E2E2E2E2E2E2E2E2E2E2E2E2E2E2E2E2E2E2E2E2E2E2E2E2
310
E2E2E2E2E2E2E2E2E2E2E2E2E2E2E2E2E2E2E2E2E2E2E2E2E2E2E2E2E2E2E2E2E2E2E2E2E2E2E2E2E2E2E2E2E2E2E2E2E2E2E2E2E2E2E2E2E2E2E2E2E2E2E2E2E2E2E2E2E2E2E2E2E2E2E2E2E2E2E2E2E2E2E2E2E2E2E2E2E2E2E2E2E2E2E2E2E2E2E2E2E2E2E2E2E2E2E2E2E2E2E2E2E2E2E2E2E2E2E2E2E2E2E2E2E2E2E2
310
E2E2E2E2E2E2E2E2E2E2E2E2E2E2E2E2E2E2E2E2E2E2E2E2E2E2E2E2E2E2E2E2E2E2E2E2E2E2E2E2E2E2E2E2E2E2E2E2E2E2E2E2E2E2E2E2E2E2E2E2E2E2E2E2E2E2E2E2E2E2E2E2E2E2E2E2E2E2E2E2E2E2E2E2E2E2E2E2E2E2E2E2E2E2E2E2E2E2E2E2E2E2E2E2E2E2E2E2E2E2E2E2E2E2E2E2E2E2E2E2E2E2E2E2E2E2E2
310
E2E2E2E2E2E2E2E2E2E2E2E2E2E2E2E2E2E2E2E2E2E2E2E2E2E2E2E2E2E2E2E2E2E2E2E2E2E2E2E2E2E2E2E2E2E2E2E2E2E2E2E2E2E2E2E2E2E2E2E2E2E2E2E2E2E2E2E2E2E2E2E2E2E2E2E2E2E2E2E2E2E2E2E2E2E2E2E2E2E2E2E2E2E2E2E2E2E2E2E2E2E2E2E2E2E2E2E2E2E2E2E2E2E2E2E2E2E2E2E2E2E2E2E2E2E2E2
310
E2E2E2E2E2E2E2E2E2E2E2E2E2E2E2E2E2E2E2E2E2E2E2E2E2E2E2E2E2E2E2E2E2E2E2E2E2E2E2E2E2E2E2E2E2E2E2E2E2E2E2E2E2E2E2E2E2E2E2E2E2E2E2E2E2E2E2E2E2E2E2E2E2E2E2E2E2E2E2E2E2E2E2E2E2E2E2E2E2E2E2E2E2E2E2E2E2E2E2E2E2E2E2E2E2E2E2E2E2E2E2E2E2E2E2E2E2E2E2E2E2E2E2E2E2E2E2
310
E2E2E2E2E2E2E2E2E2E2E2E2E2E2E2E2E2E2E2E2E2E2E2E2E2E2E2E2E2E2E2E2E2E2E2E2E2E2E2E2E2E2E2E2E2E2E2E2E2E2E2E2E2E2E2E2E2E2E2E2E2E2E2E2E2E2E2E2E2E2E2E2E2E2E2E2E2E2E2E2E2E2E2E2E2E2E2E2E2E2E2E2E2E2E2E2E2E2E2E2E2E2E2E2E2E2E2E2E2E2E2E2E2E2E2E2E2E2E2E2E2E2E2E2E2E2E2
310
E2E2E2E2E2E2E2E2E2E2E2E2E2E2E2E2E2E2E2E2E2E2E2E2E2E2E2E2E2E2E2E2E2E2E2E2E2E2E2E2E2E2E2E2E2E2E2E2E2E2E2E2E2E2E2E2E2E2E2E2E2E2E2E2E2E2E2E2E2E2E2E2E2E2E2E2E2E2E2E2E2E2E2E2E2E2E2E2E2E2E2E2E2E2E2E2E2E2E2E2E2E2E2E2E2E2E2E2E2E2E2E2E2E2E2E2E2E2E2E2E2E2E2E2E2E2E2
310
E2E2E2E2E2E2E2E2E2E2E2E2E2E2E2E2E2E2E2E2E2E2E2E2E2E2E2E2E2E2E2E2E2E2E2E2E2E2E2E2E2E2E2E2E2E2E2E2E2E2E2E2E2E2E2E2E2E2E2E2E2E2E2E2E2E2E2E2E2E2E2E2E2E2E2E2E2E2E2E2E2E2E2E2E2E2E2E2E2E2E2E2E2E2E2E2E2E2E2E2E2E2E2E2E2E2E2E2E2E2E2E2E2E2E2E2E2E2E2E2E2E2E2E2E2E2E2
310
E2E2E2E2E2E2E2E2E2E2E2E2E2E2E2E2E2E2E2E2E2E2E2E2E2E2E2E2E2E2E2E2E2E2E2E2E2E2E2E2E2E2E2E2E2E2E2E2E2E2E2E2E2E2E2E2E2E2E2E2E2E2E2E2E2E2E2E2E2E2E2E2E2E2E2E2E2E2E2E2E2E2E2E2E2E2E2E2E2E2E2E2E2E2E2E2E2E2E2E2E2E2E2E2E2E2E2E2E2E2E2E2E2E2E2E2E2E2E2E2E2E2E2E2E2E2E2
310
E2E2E2E2E2E2E2E2E2E2E2E2E2E2E2E2E2E2E2E2E2E2E2E2E2E2E2E2E2E2E2E2E2E2E2E2E2E2E2E2E2E2E2E2E2E2E2E2E2E2E2E2E2E2E2E2E2E2E2E2E2E2E2E2E2E2E2E2E2E2E2E2E2E2E2E2E2E2E2E2E2E2E2E2E2E2E2E2E2E2E2E2E2E2E2E2E2E2E2E2E2E2E2E2E2E2E2E2E2E2E2E2E2E2E2E2E2E2E2E2E2E2E2E2E2E2E2
310
E2E2E2E2E2E2E2E2E2E2E2E2E2E2E2E2E2E2E2E2E2E2E2E2E2E2E2E2E2E2E2E2E2E2E2E2E2E2E2E2E2E2E2E2E2E2E2E2E2E2E2E2E2E2E2E2E2E2E2E2E2E2E2E2E2E2E2E2E2E2E2E2E2E2E2E2E2E2E2E2E2E2E2E2E2E2E2E2E2E2E2E2E2E2E2E2E2E2E2E2E2E2E2E2E2E2E2E2E2E2E2E2E2E2E2E2E2E2E2E2E2E2E2E2E2E2E2
310
E2E2E2E2E2E2E2E2E2E2E2E2E2E2E2E2E2E2E2E2E2E2E2E2E2E2E2E2E2E2E2E2E2E2E2E2E2E2E2E2E2E2E2E2E2E2E2E2E2E2E2E2E2E2E2E2E2E2E2E2E2E2E2E2E2E2E2E2E2E2E2E2E2E2E2E2E2E2E2E2E2E2E2E2E2E2E2E2E2E2E2E2E2E2E2E2E2E2E2E2E2E2E2E2E2E2E2E2E2E2E2E2E2E2E2E2E2E2E2E2E2E2E2E2E2E2E2
310
E2E2E2E2E2E2E2E2E2E2E2E2E2E2E2E2E2E2E2E2E2E2E2E2E2E2E2E2E2E2E2E2E2E2E2E2E2E2E2E2E2E2E2E2E2E2E2E2E2E2E2E2E2E2E2E2E2E2E2E2E2E2E2E2E2E2E2E2E2E2E2E2E2E2E2E2E2E2E2E2E2E2E2E2E2E2E2E2E2E2E2E2E2E2E2E2E2E2E2E2E2E2E2E2E2E2E2E2E2E2E2E2E2E2E2E2E2E2E2E2E2E2E2E2E2E2E2
310
E2E2E2E2E2E2E2E2E2E2E2E2E2E2E2E2E2E2E2E2E2E2E2E2E2E2E2E2E2E2E2E2E2E2E2E2E2E2E2E2E2E2E2E2E2E2E2E2E2E2E2E2E2E2E2E2E2E2E2E2E2E2E2E2E2E2E2E2E2E2E2E2E2E2E2E2E2E2E2E2E2E2E2E2E2E2E2E2E2E2E2E2E2E2E2E2E2E2E2E2E2E2E2E2E2E2E2E2E2E2E2E2E2E2E2E2E2E2E2E2E2E2E2E2E2E2E2
310
E2E2E2E2E2E2E2E2E2E2E2E2E2E2E2E2E2E2E2E2E2E2E2E2E2E2E2E2E2E2E2E2E2E2E2E2E2E2E2E2E2E2E2E2E2E2E2E2E2E2E2E2E2E2E2E2E2E2E2E2E2E2E2E2E2E2E2E2E2E2E2E2E2E2E2E2E2E2E2E2E2E2E2E2E2E2E2E2E2E2E2E2E2E2E2E2E2E2E2E2E2E2E2E2E2E2E2E2E2E2E2E2E2E2E2E2E2E2E2E2E2E2E2E2E2E2E2
310
E2E2E2E2E2E2E2E2E2E2E2E2E2E2E2E2E2E2E2E2E2E2E2E2E2E2E2E2E2E2E2E2E2E2E2E2E2E2E2E2E2E2E2E2E2E2E2E2E2E2E2E2E2E2E2E2E2E2E2E2E2E2E2E2E2E2E2E2E2E2E2E2E2E2E2E2E2E2E2E2E2E2E2E2E2E2E2E2E2E2E2E2E2E2E2E2E2E2E2E2E2E2E2E2E2E2E2E2E2E2E2E2E2E2E2E2E2E2E2E2E2E2E2E2E2E2E2
310
E2E2E2E2E2E2E2E2E2E2E2E2E2E2E2E2E2E2E2E2E2E2E2E2E2E2E2E2E2E2E2E2E2E2E2E2E2E2E2E2E2E2E2E2E2E2E2E2E2E2E2E2E2E2E2E2E2E2E2E2E2E2E2E2E2E2E2E2E2E2E2E2E2E2E2E2E2E2E2E2E2E2E2E2E2E2E2E2E2E2E2E2E2E2E2E2E2E2E2E2E2E2E2E2E2E2E2E2E2E2E2E2E2E2E2E2E2E2E2E2E2E2E2E2E2E2E2
310
E2E2E2E2E2E2E2E2E2E2E2E2E2E2E2E2E2E2E2E2E2E2E2E2E2E2E2E2E2E2E2E2E2E2E2E2E2E2E2E2E2E2E2E2E2E2E2E2E2E2E2E2E2E2E2E2E2E2E2E2E2E2E2E2E2E2E2E2E2E2E2E2E2E2E2E2E2E2E2E2E2E2E2E2E2E2E2E2E2E2E2E2E2E2E2E2E2E2E2E2E2E2E2E2E2E2E2E2E2E2E2E2E2E2E2E2E2E2E2E2E2E2E2E2E2E2E2
310
E2E2E2E2E2E2E2E2E2E2E2E2E2E2E2E2E2E2E2E2E2E2E2E2E2E2E2E2E2E2E2E2E2E2E2E2E2E2E2E2E2E2E2E2E2E2E2E2E2E2E2E2E2E2E2E2E2E2E2E2E2E2E2E2E2E2E2E2E2E2E2E2E2E2E2E2E2E2E2E2E2E2E2E2E2E2E2E2E2E2E2E2E2E2E2E2E2E2E2E2E2E2E2E2E2E2E2E2E2E2E2E2E2E2E2E2E2E2E2E2E2E2E2E2E2E2E2
310
E2E2E2E2E2E2E2E2E2E2E2E2E2E2E2E2E2E2E2E2E2E2E2E2E2E2E2E2E2E2E2E2E2E2E2E2E2E2E2E2E2E2E2E2E2E2E2E2E2E2E2E2E2E2E2E2E2E2E2E2E2E2E2E2E2E2E2E2E2E2E2E2E2E2E2E2E2E2E2E2E2E2E2E2E2E2E2E2E2E2E2E2E2E2E2E2E2E2E2E2E2E2E2E2E2E2E2E2E2E2E2E2E2E2E2E2E2E2E2E2E2E2E2E2E2E2E2
310
E2E2E2E2E2E2E2E2E2E2E2E2E2E2E2E2E2E2E2E2E2E2E2E2E2E2E2E2E2E2E2E2E2E2E2E2E2E2E2E2E2E2E2E2E2E2E2E2E2E2E2E2E2E2E2E2E2E2E2E2E2E2E2E2E2E2E2E2E2E2E2E2E2E2E2E2E2E2E2E2E2E2E2E2E2E2E2E2E2E2E2E2E2E2E2E2E2E2E2E2E2E2E2E2E2E2E2E2E2E2E2E2E2E2E2E2E2E2E2E2E2E2E2E2E2E2E2
310
E2E2E2E2E2E2E2E2E2E2E2E2E2E2E2E2E2E2E2E2E2E2E2E2E2E2E2E2E2E2E2E2E2E2E2E2E2E2E2E2E2E2E2E2E2E2E2E2E2E2E2E2E2E2E2E2E2E2E2E2E2E2E2E2E2E2E2E2E2E2E2E2E2E2E2E2E2E2E2E2E2E2E2E2E2E2E2E2E2E2E2E2E2E2E2E2E2E2E2E2E2E2E2E2E2E2E2E2E2E2E2E2E2E2E2E2E2E2E2E2E2E2E2E2E2E2E2
310
E2E2E2E2E2E2E2E2E2E2E2E2E2E2E2E2E2E2E2E2E2E2E2E2E2E2E2E2E2E2E2E2E2E2E2E2E2E2E2E2E2E2E2E2E2E2E2E2E2E2E2E2E2E2E2E2E2E2E2E2E2E2E2E2E2E2E2E2E2E2E2E2E2E2E2E2E2E2E2E2E2E2E2E2E2E2E2E2E2E2E2E2E2E2E2E2E2E2E2E2E2E2E2E2E2E2E2E2E2E2E2E2E2E2E2E2E2E2E2E2E2E2E2E2E2E2E2
310
E2E2E2E2E2E2E2E2E2E2E2E2E2E2E2E2E2E2E2E2E2E2E2E2E2E2E2E2E2E2E2E2E2E2E2E2E2E2E2E2E2E2E2E2E2E2E2E2E2E2E2E2E2E2E2E2E2E2E2E2E2E2E2E2E2E2E2E2E2E2E2E2E2E2E2E2E2E2E2E2E2E2E2E2E2E2E2E2E2E2E2E2E2E2E2E2E2E2E2E2E2E2E2E2E2E2E2E2E2E2E2E2E2E2E2E2E2E2E2E2E2E2E2E2E2E2E2
310
E2E2E2E2E2E2E2E2E2E2E2E2E2E2E2E2E2E2E2E2E2E2E2E2E2E2E2E2E2E2E2E2E2E2E2E2E2E2E2E2E2E2E2E2E2E2E2E2E2E2E2E2E2E2E2E2E2E2E2E2E2E2E2E2E2E2E2E2E2E2E2E2E2E2E2E2E2E2E2E2E2E2E2E2E2E2E2E2E2E2E2E2E2E2E2E2E2E2E2E2E2E2E2E2E2E2E2E2E2E2E2E2E2E2E2E2E2E2E2E2E2E2E2E2E2E2E2
310
E2E2E2E2E2E2E2E2E2E2E2E2E2E2E2E2E2E2E2E2E2E2E2E2E2E2E2E2E2E2E2E2E2E2E2E2E2E2E2E2E2E2E2E2E2E2E2E2E2E2E2E2E2E2E2E2E2E2E2E2E2E2E2E2E2E2E2E2E2E2E2E2E2E2E2E2E2E2E2E2E2E2E2E2E2E2E2E2E2E2E2E2E2E2E2E2E2E2E2E2E2E2E2E2E2E2E2E2E2E2E2E2E2E2E2E2E2E2E2E2E2E2E2E2E2E2E2
310
E2E2E2E2E2E2E2E2E2E2E2E2E2E2E2E2E2E2E2E2E2E2E2E2E2E2E2E2E2E2E2E2E2E2E2E2E2E2E2E2E2E2E2E2E2E2E2E2E2E2E2E2E2E2E2E2E2E2E2E2E2E2E2E2E2E2E2E2E2E2E2E2E2E2E2E2E2E2E2E2E2E2E2E2E2E2E2E2E2E2E2E2E2E2E2E2E2E2E2E2E2E2E2E2E2E2E2E2E2E2E2E2E2E2E2E2E2E2E2E2E2E2E2E2E2E2E2
310
E2E2E2E2E2E2E2E2E2E2E2E2E2E2E2E2E2E2E2E2E2E2E2E2E2E2E2E2E2E2E2E2E2E2E2E2E2E2E2E2E2E2E2E2E2E2E2E2E2E2E2E2E2E2E2E2E2E2E2E2E2E2E2E2E2E2E2E2E2E2E2E2E2E2E2E2E2E2E2E2E2E2E2E2E2E2E2E2E2E2E2E2E2E2E2E2E2E2E2E2E2E2E2E2E2E2E2E2E2E2E2E2E2E2E2E2E2E2E2E2E2E2E2E2E2E2E2
310
E2E2E2E2E2E2E2E2E2E2E2E2E2E2E2E2E2E2E2E2E2E2E2E2E2E2E2E2E2E2E2E2E2E2E2E2E2E2E2E2E2E2E2E2E2E2E2E2E2E2E2E2E2E2E2E2E2E2E2E2E2E2E2E2E2E2E2E2E2E2E2E2E2E2E2E2E2E2E2E2E2E2E2E2E2E2E2E2E2E2E2E2E2E2E2E2E2E2E2E2E2E2E2E2E2E2E2E2E2E2E2E2E2E2E2E2E2E2E2E2E2E2E2E2E2E2E2
310
E2E2E2E2E2E2E2E2E2E2E2E2E2E2E2E2E2E2E2E2E2E2E2E2E2E2E2E2E2E2E2E2E2E2E2E2E2E2E2E2E2E2E2E2E2E2E2E2E2E2E2E2E2E2E2E2E2E2E2E2E2E2E2E2E2E2E2E2E2E2E2E2E2E2E2E2E2E2E2E2E2E2E2E2E2E2E2E2E2E2E2E2E2E2E2E2E2E2E2E2E2E2E2E2E2E2E2E2E2E2E2E2E2E2E2E2E2E2E2E2E2E2E2E2E2E2E2
310
E2E2E2E2E2E2E2E2E2E2E2E2E2E2E2E2E2E2E2E2E2E2E2E2E2E2E2E2E2E2E2E2E2E2E2E2E2E2E2E2E2E2E2E2E2E2E2E2E2E2E2E2E2E2E2E2E2E2E2E2E2E2E2E2E2E2E2E2E2E2E2E2E2E2E2E2E2E2E2E2E2E2E2E2E2E2E2E2E2E2E2E2E2E2E2E2E2E2E2E2E2E2E2E2E2E2E2E2E2E2E2E2E2E2E2E2E2E2E2E2E2E2E2E2E2E2E2
310
E2E2E2E2E2E2E2E2E2E2E2E2E2E2E2E2E2E2E2E2E2E2E2E2E2E2E2E2E2E2E2E2E2E2E2E2E2E2E2E2E2E2E2E2E2E2E2E2E2E2E2E2E2E2E2E2E2E2E2E2E2E2E2E2E2E2E2E2E2E2E2E2E2E2E2E2E2E2E2E2E2E2E2E2E2E2E2E2E2E2E2E2E2E2E2E2E2E2E2E2E2E2E2E2E2E2E2E2E2E2E2E2E2E2E2E2E2E2E2E2E2E2E2E2E2E2E2
310
E2E2E2E2E2E2E2E2E2E2E2E2E2E2E2E2E2E2E2E2E2E2E2E2E2E2E2E2E2E2E2E2E2E2E2E2E2E2E2E2E2E2E2E2E2E2E2E2E2E2E2E2E2E2E2E2E2E2E2E2E2E2E2E2E2E2E2E2E2E2E2E2E2E2E2E2E2E2E2E2E2E2E2E2E2E2E2E2E2E2E2E2E2E2E2E2E2E2E2E2E2E2E2E2E2E2E2E2E2E2E2E2E2E2E2E2E2E2E2E2E2E2E2E2E2E2E2
310
E2E2E2E2E2E2E2E2E2E2E2E2E2E2E2E2E2E2E2E2E2E2E2E2E2E2E2E2E2E2E2E2E2E2E2E2E2E2E2E2E2E2E2E2E2E2E2E2E2E2E2E2E2E2E2E2E2E2E2E2E2E2E2E2E2E2E2E2E2E2E2E2E2E2E2E2E2E2E2E2E2E2E2E2E2E2E2E2E2E2E2E2E2E2E2E2E2E2E2E2E2E2E2E2E2E2E2E2E2E2E2E2E2E2E2E2E2E2E2E2E2E2E2E2E2E2E2
310
E2E2E2E2E2E2E2E2E2E2E2E2E2E2E2E2E2E2E2E2E2E2E2E2E2E2E2E2E2E2E2E2E2E2E2E2E2E2E2E2E2E2E2E2E2E2E2E2E2E2E2E2E2E2E2E2E2E2E2E2E2E2E2E2E2E2E2E2E2E2E2E2E2E2E2E2E2E2E2E2E2E2E2E2E2E2E2E2E2E2E2E2E2E2E2E2E2E2E2E2E2E2E2E2E2E2E2E2E2E2E2E2E2E2E2E2E2E2E2E2E2E2E2E2E2E2E2
310
E2E2E2E2E2E2E2E2E2E2E2E2E2E2E2E2E2E2E2E2E2E2E2E2E2E2E2E2E2E2E2E2E2E2E2E2E2E2E2E2E2E2E2E2E2E2E2E2E2E2E2E2E2E2E2E2E2E2E2E2E2E2E2E2E2E2E2E2E2E2E2E2E2E2E2E2E2E2E2E2E2E2E2E2E2E2E2E2E2E2E2E2E2E2E2E2E2E2E2E2E2E2E2E2E2E2E2E2E2E2E2E2E2E2E2E2E2E2E2E2E2E2E2E2E2E2E2
310
E2E2E2E2E2E2E2E2E2E2E2E2E2E2E2E2E2E2E2E2E2E2E2E2E2E2E2E2E2E2E2E2E2E2E2E2E2E2E2E2E2E2E2E2E2E2E2E2E2E2E2E2E2E2E2E2E2E2E2E2E2E2E2E2E2E2E2E2E2E2E2E2E2E2E2E2E2E2E2E2E2E2E2E2E2E2E2E2E2E2E2E2E2E2E2E2E2E2E2E2E2E2E2E2E2E2E2E2E2E2E2E2E2E2E2E2E2E2E2E2E2E2E2E2E2E2E2
310
E2E2E2E2E2E2E2E2E2E2E2E2E2E2E2E2E2E2E2E2E2E2E2E2E2E2E2E2E2E2E2E2E2E2E2E2E2E2E2E2E2E2E2E2E2E2E2E2E2E2E2E2E2E2E2E2E2E2E2E2E2E2E2E2E2E2E2E2E2E2E2E2E2E2E2E2E2E2E2E2E2E2E2E2E2E2E2E2E2E2E2E2E2E2E2E2E2E2E2E2E2E2E2E2E2E2E2E2E2E2E2E2E2E2E2E2E2E2E2E2E2E2E2E2E2E2E2
310
E2E2E2E2E2E2E2E2E2E2E2E2E2E2E2E2E2E2E2E2E2E2E2E2E2E2E2E2E2E2E2E2E2E2E2E2E2E2E2E2E2E2E2E2E2E2E2E2E2E2E2E2E2E2E2E2E2E2E2E2E2E2E2E2E2E2E2E2E2E2E2E2E2E2E2E2E2E2E2E2E2E2E2E2E2E2E2E2E2E2E2E2E2E2E2E2E2E2E2E2E2E2E2E2E2E2E2E2E2E2E2E2E2E2E2E2E2E2E2E2E2E2E2E2E2E2E2
310
E2E2E2E2E2E2E2E2E2E2E2E2E2E2E2E2E2E2E2E2E2E2E2E2E2E2E2E2E2E2E2E2E2E2E2E2E2E2E2E2E2E2E2E2E2E2E2E2E2E2E2E2E2E2E2E2E2E2E2E2E2E2E2E2E2E2E2E2E2E2E2E2E2E2E2E2E2E2E2E2E2E2E2E2E2E2E2E2E2E2E2E2E2E2E2E2E2E2E2E2E2E2E2E2E2E2E2E2E2E2E2E2E2E2E2E2E2E2E2E2E2E2E2E2E2E2E2
310
E2E2E2E2E2E2E2E2E2E2E2E2E2E2E2E2E2E2E2E2E2E2E2E2E2E2E2E2E2E2E2E2E2E2E2E2E2E2E2E2E2E2E2E2E2E2E2E2E2E2E2E2E2E2E2E2E2E2E2E2E2E2E2E2E2E2E2E2E2E2E2E2E2E2E2E2E2E2E2E2E2E2E2E2E2E2E2E2E2E2E2E2E2E2E2E2E2E2E2E2E2E2E2E2E2E2E2E2E2E2E2E2E2E2E2E2E2E2E2E2E2E2E2E2E2E2E2
310
E2E2E2E2E2E2E2E2E2E2E2E2E2E2E2E2E2E2E2E2E2E2E2E2E2E2E2E2E2E2E2E2E2E2E2E2E2E2E2E2E2E2E2E2E2E2E2E2E2E2E2E2E2E2E2E2E2E2E2E2E2E2E2E2E2E2E2E2E2E2E2E2E2E2E2E2E2E2E2E2E2E2E2E2E2E2E2E2E2E2E2E2E2E2E2E2E2E2E2E2E2E2E2E2E2E2E2E2E2E2E2E2E2E2E2E2E2E2E2E2E2E2E2E2E2E2E2
310
E2E2E2E2E2E2E2E2E2E2E2E2E2E2E2E2E2E2E2E2E2E2E2E2E2E2E2E2E2E2E2E2E2E2E2E2E2E2E2E2E2E2E2E2E2E2E2E2E2E2E2E2E2E2E2E2E2E2E2E2E2E2E2E2E2E2E2E2E2E2E2E2E2E2E2E2E2E2E2E2E2E2E2E2E2E2E2E2E2E2E2E2E2E2E2E2E2E2E2E2E2E2E2E2E2E2E2E2E2E2E2E2E2E2E2E2E2E2E2E2E2E2E2E2E2E2E2
310
E2E2E2E2E2E2E2E2E2E2E2E2E2E2E2E2E2E2E2E2E2E2E2E2E2E2E2E2E2E2E2E2E2E2E2E2E2E2E2E2E2E2E2E2E2E2E2E2E2E2E2E2E2E2E2E2E2E2E2E2E2E2E2E2E2E2E2E2E2E2E2E2E2E2E2E2E2E2E2E2E2E2E2E2E2E2E2E2E2E2E2E2E2E2E2E2E2E2E2E2E2E2E2E2E2E2E2E2E2E2E2E2E2E2E2E2E2E2E2E2E2E2E2E2E2E2E2
310
E2E2E2E2E2E2E2E2E2E2E2E2E2E2E2E2E2E2E2E2E2E2E2E2E2E2E2E2E2E2E2E2E2E2E2E2E2E2E2E2E2E2E2E2E2E2E2E2E2E2E2E2E2E2E2E2E2E2E2E2E2E2E2E2E2E2E2E2E2E2E2E2E2E2E2E2E2E2E2E2E2E2E2E2E2E2E2E2E2E2E2E2E2E2E2E2E2E2E2E2E2E2E2E2E2E2E2E2E2E2E2E2E2E2E2E2E2E2E2E2E2E2E2E2E2E2E2
310
E2E2E2E2E2E2E2E2E2E2E2E2E2E2E2E2E2E2E2E2E2E2E2E2E2E2E2E2E2E2E2E2E2E2E2E2E2E2E2E2E2E2E2E2E2E2E2E2E2E2E2E2E2E2E2E2E2E2E2E2E2E2E2E2E2E2E2E2E2E2E2E2E2E2E2E2E2E2E2E2E2E2E2E2E2E2E2E2E2E2E2E2E2E2E2E2E2E2E2E2E2E2E2E2E2E2E2E2E2E2E2E2E2E2E2E2E2E2E2E2E2E2E2E2E2E2E2
310
E2E2E2E2E2E2E2E2E2E2E2E2E2E2E2E2E2E2E2E2E2E2E2E2E2E2E2E2E2E2E2E2E2E2E2E2E2E2E2E2E2E2E2E2E2E2E2E2E2E2E2E2E2E2E2E2E2E2E2E2E2E2E2E2E2E2E2E2E2E2E2E2E2E2E2E2E2E2E2E2E2E2E2E2E2E2E2E2E2E2E2E2E2E2E2E2E2E2E2E2E2E2E2E2E2E2E2E2E2E2E2E2E2E2E2E2E2E2E2E2E2E2E2E2E2E2E2
310
E2E2E2E2E2E2E2E2E2E2E2E2E2E2E2E2E2E2E2E2E2E2E2E2E2E2E2E2E2E2E2E2E2E2E2E2E2E2E2E2E2E2E2E2E2E2E2E2E2E2E2E2E2E2E2E2E2E2E2E2E2E2E2E2E2E2E2E2E2E2E2E2E2E2E2E2E2E2E2E2E2E2E2E2E2E2E2E2E2E2E2E2E2E2E2E2E2E2E2E2E2E2E2E2E2E2E2E2E2E2E2E2E2E2E2E2E2E2E2E2E2E2E2E2E2E2E2
310
E2E2E2E2E2E2E2E2E2E2E2E2E2E2E2E2E2E2E2E2E2E2E2E2E2E2E2E2E2E2E2E2E2E2E2E2E2E2E2E2E2E2E2E2E2E2E2E2E2E2E2E2E2E2E2E2E2E2E2E2E2E2E2E2E2E2E2E2E2E2E2E2E2E2E2E2E2E2E2E2E2E2E2E2E2E2E2E2E2E2E2E2E2E2E2E2E2E2E2E2E2E2E2E2E2E2E2E2E2E2E2E2E2E2E2E2E2E2E2E2E2E2E2E2E2E2E2
310
E2E2E2E2E2E2E2E2E2E2E2E2E2E2E2E2E2E2E2E2E2E2E2E2E2E2E2E2E2E2E2E2E2E2E2E2E2E2E2E2E2E2E2E2E2E2E2E2E2E2E2E2E2E2E2E2E2E2E2E2E2E2E2E2E2E2E2E2E2E2E2E2E2E2E2E2E2E2E2E2E2E2E2E2E2E2E2E2E2E2E2E2E2E2E2E2E2E2E2E2E2E2E2E2E2E2E2E2E2E2E2E2E2E2E2E2E2E2E2E2E2E2E2E2E2E2E2
310
E2E2E2E2E2E2E2E2E2E2E2E2E2E2E2E2E2E2E2E2E2E2E2E2E2E2E2E2E2E2E2E2E2E2E2E2E2E2E2E2E2E2E2E2E2E2E2E2E2E2E2E2E2E2E2E2E2E2E2E2E2E2E2E2E2E2E2E2E2E2E2E2E2E2E2E2E2E2E2E2E2E2E2E2E2E2E2E2E2E2E2E2E2E2E2E2E2E2E2E2E2E2E2E2E2E2E2E2E2E2E2E2E2E2E2E2E2E2E2E2E2E2E2E2E2E2E2
310
E2E2E2E2E2E2E2E2E2E2E2E2E2E2E2E2E2E2E2E2E2E2E2E2E2E2E2E2E2E2E2E2E2E2E2E2E2E2E2E2E2E2E2E2E2E2E2E2E2E2E2E2E2E2E2E2E2E2E2E2E2E2E2E2E2E2E2E2E2E2E2E2E2E2E2E2E2E2E2E2E2E2E2E2E2E2E2E2E2E2E2E2E2E2E2E2E2E2E2E2E2E2E2E2E2E2E2E2E2E2E2E2E2E2E2E2E2E2E2E2E2E2E2E2E2E2E2
310
E2E2E2E2E2E2E2E2E2E2E2E2E2E2E2E2E2E2E2E2E2E2E2E2E2E2E2E2E2E2E2E2E2E2E2E2E2E2E2E2E2E2E2E2E2E2E2E2E2E2E2E2E2E2E2E2E2E2E2E2E2E2E2E2E2E2E2E2E2E2E2E2E2E2E2E2E2E2E2E2E2E2E2E2E2E2E2E2E2E2E2E2E2E2E2E2E2E2E2E2E2E2E2E2E2E2E2E2E2E2E2E2E2E2E2E2E2E2E2E2E2E2E2E2E2E2E2
310
E2E2E2E2E2E2E2E2E2E2E2E2E2E2E2E2E2E2E2E2E2E2E2E2E2E2E2E2E2E2E2E2E2E2E2E2E2E2E2E2E2E2E2E2E2E2E2E2E2E2E2E2E2E2E2E2E2E2E2E2E2E2E2E2E2E2E2E2E2E2E2E2E2E2E2E2E2E2E2E2E2E2E2E2E2E2E2E2E2E2E2E2E2E2E2E2E2E2E2E2E2E2E2E2E2E2E2E2E2E2E2E2E2E2E2E2E2E2E2E2E2E2E2E2E2E2E2
310
E2E2E2E2E2E2E2E2E2E2E2E2E2E2E2E2E2E2E2E2E2E2E2E2E2E2E2E2E2E2E2E2E2E2E2E2E2E2E2E2E2E2E2E2E2E2E2E2E2E2E2E2E2E2E2E2E2E2E2E2E2E2E2E2E2E2E2E2E2E2E2E2E2E2E2E2E2E2E2E2E2E2E2E2E2E2E2E2E2E2E2E2E2E2E2E2E2E2E2E2E2E2E2E2E2E2E2E2E2E2E2E2E2E2E2E2E2E2E2E2E2E2E2E2E2E2E2
310
E2E2E2E2E2E2E2E2E2E2E2E2E2E2E2E2E2E2E2E2E2E2E2E2E2E2E2E2E2E2E2E2E2E2E2E2E2E2E2E2E2E2E2E2E2E2E2E2E2E2E2E2E2E2E2E2E2E2E2E2E2E2E2E2E2E2E2E2E2E2E2E2E2E2E2E2E2E2E2E2E2E2E2E2E2E2E2E2E2E2E2E2E2E2E2E2E2E2E2E2E2E2E2E2E2E2E2E2E2E2E2E2E2E2E2E2E2E2E2E2E2E2E2E2E2E2E2
310
E2E2E2E2E2E2E2E2E2E2E2E2E2E2E2E2E2E2E2E2E2E2E2E2E2E2E2E2E2E2E2E2E2E2E2E2E2E2E2E2E2E2E2E2E2E2E2E2E2E2E2E2E2E2E2E2E2E2E2E2E2E2E2E2E2E2E2E2E2E2E2E2E2E2E2E2E2E2E2E2E2E2E2E2E2E2E2E2E2E2E2E2E2E2E2E2E2E2E2E2E2E2E2E2E2E2E2E2E2E2E2E2E2E2E2E2E2E2E2E2E2E2E2E2E2E2E2
310
E2E2E2E2E2E2E2E2E2E2E2E2E2E2E2E2E2E2E2E2E2E2E2E2E2E2E2E2E2E2E2E2E2E2E2E2E2E2E2E2E2E2E2E2E2E2E2E2E2E2E2E2E2E2E2E2E2E2E2E2E2E2E2E2E2E2E2E2E2E2E2E2E2E2E2E2E2E2E2E2E2E2E2E2E2E2E2E2E2E2E2E2E2E2E2E2E2E2E2E2E2E2E2E2E2E2E2E2E2E2E2E2E2E2E2E2E2E2E2E2E2E2E2E2E2E2E2
310
E2E2E2E2E2E2E2E2E2E2E2E2E2E2E2E2E2E2E2E2E2E2E2E2E2E2E2E2E2E2E2E2E2E2E2E2E2E2E2E2E2E2E2E2E2E2E2E2E2E2E2E2E2E2E2E2E2E2E2E2E2E2E2E2E2E2E2E2E2E2E2E2E2E2E2E2E2E2E2E2E2E2E2E2E2E2E2E2E2E2E2
  0
XRECORD
  5
B71
102
{ACAD_REACTORS
330
46
102
}
330
46
100
AcDbXrecord
280
     1
102
MATERIAL
148
0.0
149
0.0
149
0.0
 93
        0
 94
      127
282
     0
 72
     0
 77
     0
171
     0
175
     0
179
     0
273
     0
  0
XRECORD
  5
47
102
{ACAD_REACTORS
330
46
102
}
330
46
100
AcDbXrecord
280
     1
270
     1
271
     1
  0
XRECORD
  5
48
102
{ACAD_REACTORS
330
46
102
}
330
46
100
AcDbXrecord
280
     1
270
     1
271
     1
  0
XRECORD
  5
49
102
{ACAD_REACTORS
330
46
102
}
330
46
100
AcDbXrecord
280
     1
270
     1
271
     1
  0
XRECORD
  5
4A
102
{ACAD_REACTORS
330
46
102
}
330
46
100
AcDbXrecord
280
     1
270
     1
271
     1
  0
XRECORD
  5
4B
102
{ACAD_REACTORS
330
46
102
}
330
46
100
AcDbXrecord
280
     1
270
     1
271
     1
  0
XRECORD
  5
4C
102
{ACAD_REACTORS
330
46
102
}
330
46
100
AcDbXrecord
280
     1
270
     1
271
     1
  0
XRECORD
  5
B70
102
{ACAD_REACTORS
330
3E
102
}
330
3E
100
AcDbXrecord
280
     1
102
MATERIAL
148
0.0
149
0.0
149
0.0
 93
        0
 94
      127
282
     0
 72
     0
 77
     0
171
     0
175
     0
179
     0
273
     0
  0
XRECORD
  5
3F
102
{ACAD_REACTORS
330
3E
102
}
330
3E
100
AcDbXrecord
280
     1
270
     1
271
     1
  0
XRECORD
  5
40
102
{ACAD_REACTORS
330
3E
102
}
330
3E
100
AcDbXrecord
280
     1
270
     1
271
     1
  0
XRECORD
  5
41
102
{ACAD_REACTORS
330
3E
102
}
330
3E
100
AcDbXrecord
280
     1
270
     1
271
     1
  0
XRECORD
  5
42
102
{ACAD_REACTORS
330
3E
102
}
330
3E
100
AcDbXrecord
280
     1
270
     1
271
     1
  0
XRECORD
  5
43
102
{ACAD_REACTORS
330
3E
102
}
330
3E
100
AcDbXrecord
280
     1
270
     1
271
     1
  0
XRECORD
  5
44
102
{ACAD_REACTORS
330
3E
102
}
330
3E
100
AcDbXrecord
280
     1
270
     1
271
     1
  0
XRECORD
  5
B69
102
{ACAD_REACTORS
330
D
102
}
330
D
100
AcDbXrecord
280
     1
102
MATERIAL
148
0.0
149
0.0
149
0.0
 93
        0
 94
      127
282
     0
 72
     0
 77
     0
171
     0
175
     0
179
     0
273
     0
  0
XRECORD
  5
E
102
{ACAD_REACTORS
330
D
102
}
330
D
100
AcDbXrecord
280
     1
270
     1
271
     1
  0
XRECORD
  5
F
102
{ACAD_REACTORS
330
D
102
}
330
D
100
AcDbXrecord
280
     1
270
     1
271
     1
  0
XRECORD
  5
10
102
{ACAD_REACTORS
330
D
102
}
330
D
100
AcDbXrecord
280
     1
270
     1
271
     1
  0
XRECORD
  5
11
102
{ACAD_REACTORS
330
D
102
}
330
D
100
AcDbXrecord
280
     1
270
     1
271
     1
  0
XRECORD
  5
12
102
{ACAD_REACTORS
330
D
102
}
330
D
100
AcDbXrecord
280
     1
270
     1
271
     1
  0
XRECORD
  5
13
102
{ACAD_REACTORS
330
D
102
}
330
D
100
AcDbXrecord
280
     1
270
     1
271
     1
  0
CELLSTYLEMAP
  5
2009
102
{ACAD_REACTORS
330
B00
102
}
330
B00
100
AcDbCellStyleMap
 90
        3
300
CELLSTYLE
  1
TABLEFORMAT_BEGIN
 90
        5
170
     1
 91
        0
 92
    32768
 62
   257
 93
        1
300
CONTENTFORMAT
  1
CONTENTFORMAT_BEGIN
 90
        0
 91
        0
 92
        4
 93
        0
300

 40
0.0
140
1.0
 94
        5
 62
     0
340
23
144
6.0
309
CONTENTFORMAT_END
171
     1
301
MARGIN
  1
CELLMARGIN_BEGIN
 40
1.5
 40
1.5
 40
1.5
 40
1.5
 40
0.18
 40
0.18
309
CELLMARGIN_END
 94
        6
 95
        1
302
GRIDFORMAT
  1
GRIDFORMAT_BEGIN
 90
        0
 91
        1
 62
     0
 92
       -2
340
0
 93
        0
 40
0.045
309
GRIDFORMAT_END
 95
        2
302
GRIDFORMAT
  1
GRIDFORMAT_BEGIN
 90
        0
 91
        1
 62
     0
 92
       -2
340
0
 93
        0
 40
0.045
309
GRIDFORMAT_END
 95
        4
302
GRIDFORMAT
  1
GRIDFORMAT_BEGIN
 90
        0
 91
        1
 62
     0
 92
       -2
340
0
 93
        0
 40
0.045
309
GRIDFORMAT_END
 95
        8
302
GRIDFORMAT
  1
GRIDFORMAT_BEGIN
 90
        0
 91
        1
 62
     0
 92
       -2
340
0
 93
        0
 40
0.045
309
GRIDFORMAT_END
 95
       16
302
GRIDFORMAT
  1
GRIDFORMAT_BEGIN
 90
        0
 91
        1
 62
     0
 92
       -2
340
0
 93
        0
 40
0.045
309
GRIDFORMAT_END
 95
       32
302
GRIDFORMAT
  1
GRIDFORMAT_BEGIN
 90
        0
 91
        1
 62
     0
 92
       -2
340
0
 93
        0
 40
0.045
309
GRIDFORMAT_END
309
TABLEFORMAT_END
  1
CELLSTYLE_BEGIN
 90
        1
 91
        1
300
_TITLE
309
CELLSTYLE_END
300
CELLSTYLE
  1
TABLEFORMAT_BEGIN
 90
        5
170
     1
 91
        0
 92
        0
 62
   257
 93
        1
300
CONTENTFORMAT
  1
CONTENTFORMAT_BEGIN
 90
        0
 91
        0
 92
        4
 93
        0
300

 40
0.0
140
1.0
 94
        5
 62
     0
340
23
144
4.5
309
CONTENTFORMAT_END
171
     1
301
MARGIN
  1
CELLMARGIN_BEGIN
 40
1.5
 40
1.5
 40
1.5
 40
1.5
 40
0.18
 40
0.18
309
CELLMARGIN_END
 94
        6
 95
        1
302
GRIDFORMAT
  1
GRIDFORMAT_BEGIN
 90
        0
 91
        1
 62
     0
 92
       -2
340
0
 93
        0
 40
0.045
309
GRIDFORMAT_END
 95
        2
302
GRIDFORMAT
  1
GRIDFORMAT_BEGIN
 90
        0
 91
        1
 62
     0
 92
       -2
340
0
 93
        0
 40
0.045
309
GRIDFORMAT_END
 95
        4
302
GRIDFORMAT
  1
GRIDFORMAT_BEGIN
 90
        0
 91
        1
 62
     0
 92
       -2
340
0
 93
        0
 40
0.045
309
GRIDFORMAT_END
 95
        8
302
GRIDFORMAT
  1
GRIDFORMAT_BEGIN
 90
        0
 91
        1
 62
     0
 92
       -2
340
0
 93
        0
 40
0.045
309
GRIDFORMAT_END
 95
       16
302
GRIDFORMAT
  1
GRIDFORMAT_BEGIN
 90
        0
 91
        1
 62
     0
 92
       -2
340
0
 93
        0
 40
0.045
309
GRIDFORMAT_END
 95
       32
302
GRIDFORMAT
  1
GRIDFORMAT_BEGIN
 90
        0
 91
        1
 62
     0
 92
       -2
340
0
 93
        0
 40
0.045
309
GRIDFORMAT_END
309
TABLEFORMAT_END
  1
CELLSTYLE_BEGIN
 90
        2
 91
        1
300
_HEADER
309
CELLSTYLE_END
300
CELLSTYLE
  1
TABLEFORMAT_BEGIN
 90
        5
170
     1
 91
        0
 92
        0
 62
   257
 93
        1
300
CONTENTFORMAT
  1
CONTENTFORMAT_BEGIN
 90
        0
 91
        0
 92
        4
 93
        0
300

 40
0.0
140
1.0
 94
        2
 62
     0
340
23
144
4.5
309
CONTENTFORMAT_END
171
     1
301
MARGIN
  1
CELLMARGIN_BEGIN
 40
1.5
 40
1.5
 40
1.5
 40
1.5
 40
0.18
 40
0.18
309
CELLMARGIN_END
 94
        6
 95
        1
302
GRIDFORMAT
  1
GRIDFORMAT_BEGIN
 90
        0
 91
        1
 62
     0
 92
       -2
340
0
 93
        0
 40
0.045
309
GRIDFORMAT_END
 95
        2
302
GRIDFORMAT
  1
GRIDFORMAT_BEGIN
 90
        0
 91
        1
 62
     0
 92
       -2
340
0
 93
        0
 40
0.045
309
GRIDFORMAT_END
 95
        4
302
GRIDFORMAT
  1
GRIDFORMAT_BEGIN
 90
        0
 91
        1
 62
     0
 92
       -2
340
0
 93
        0
 40
0.045
309
GRIDFORMAT_END
 95
        8
302
GRIDFORMAT
  1
GRIDFORMAT_BEGIN
 90
        0
 91
        1
 62
     0
 92
       -2
340
0
 93
        0
 40
0.045
309
GRIDFORMAT_END
 95
       16
302
GRIDFORMAT
  1
GRIDFORMAT_BEGIN
 90
        0
 91
        1
 62
     0
 92
       -2
340
0
 93
        0
 40
0.045
309
GRIDFORMAT_END
 95
       32
302
GRIDFORMAT
  1
GRIDFORMAT_BEGIN
 90
        0
 91
        1
 62
     0
 92
       -2
340
0
 93
        0
 40
0.045
309
GRIDFORMAT_END
309
TABLEFORMAT_END
  1
CELLSTYLE_BEGIN
 90
        3
 91
        2
300
_DATA
309
CELLSTYLE_END
  0
XRECORD
  5
2011
102
{ACAD_REACTORS
330
B00
102
}
330
B00
100
AcDbXrecord
280
     1
102
ACAD_ROUNDTRIP_PRE2007_TABLESTYLE
 90
        4
 91
        0
  1

 92
        4
 93
        0
  2

 94
        4
 95
        0
  3

  0
ENDSEC
  0
EOF
