  0
SECTION
  2
HEADER
  9
$ACADVER
  1
AC1015
  9
$ACADMAINTVER
 70
    20
  9
$DWGCODEPAGE
  3
ANSI_932
  9
$INSBASE
 10
0.0
 20
0.0
 30
0.0
  9
$EXTMIN
 10
4774.417845578636
 20
-1326.754643612902
 30
0.0
  9
$EXTMAX
 10
6692.20716507258
 20
-340.8611038143843
 30
0.0
  9
$LIMMIN
 10
0.0
 20
0.0
  9
$LIMMAX
 10
420.0
 20
297.0
  9
$ORTHOMODE
 70
     1
  9
$REGENMODE
 70
     1
  9
$FILLMODE
 70
     1
  9
$QTEXTMODE
 70
     0
  9
$MIRRTEXT
 70
     1
  9
$LTSCALE
 40
1.0
  9
$ATTMODE
 70
     1
  9
$TEXTSIZE
 40
62.5215949741746
  9
$TRACEWID
 40
1.0
  9
$TEXTSTYLE
  7
STANDARD
  9
$CLAYER
  8
SIZE
  9
$CELTYPE
  6
BYLAYER
  9
$CECOLOR
 62
   256
  9
$CELTSCALE
 40
1.0
  9
$DISPSILH
 70
     0
  9
$DIMSCALE
 40
10.0
  9
$DIMASZ
 40
2.0
  9
$DIMEXO
 40
1.0
  9
$DIMDLI
 40
3.75
  9
$DIMRND
 40
0.5
  9
$DIMDLE
 40
0.0
  9
$DIMEXE
 40
1.0
  9
$DIMTP
 40
0.0
  9
$DIMTM
 40
0.0
  9
$DIMTXT
 40
2.0
  9
$DIMCEN
 40
2.5
  9
$DIMTSZ
 40
0.0
  9
$DIMTOL
 70
     0
  9
$DIMLIM
 70
     0
  9
$DIMTIH
 70
     0
  9
$DIMTOH
 70
     0
  9
$DIMSE1
 70
     0
  9
$DIMSE2
 70
     0
  9
$DIMTAD
 70
     1
  9
$DIMZIN
 70
     8
  9
$DIMBLK
  1

  9
$DIMASO
 70
     1
  9
$DIMSHO
 70
     1
  9
$DIMPOST
  1

  9
$DIMAPOST
  1

  9
$DIMALT
 70
     0
  9
$DIMALTD
 70
     4
  9
$DIMALTF
 40
0.0394
  9
$DIMLFAC
 40
1.0
  9
$DIMTOFL
 70
     1
  9
$DIMTVP
 40
0.0
  9
$DIMTIX
 70
     0
  9
$DIMSOXD
 70
     0
  9
$DIMSAH
 70
     1
  9
$DIMBLK1
  1
OPEN30
  9
$DIMBLK2
  1
OPEN30
  9
$DIMSTYLE
  2
STANDARD
  9
$DIMCLRD
 70
     0
  9
$DIMCLRE
 70
     0
  9
$DIMCLRT
 70
     0
  9
$DIMTFAC
 40
1.0
  9
$DIMGAP
 40
1.0
  9
$DIMJUST
 70
     0
  9
$DIMSD1
 70
     0
  9
$DIMSD2
 70
     0
  9
$DIMTOLJ
 70
     1
  9
$DIMTZIN
 70
     8
  9
$DIMALTZ
 70
     0
  9
$DIMALTTZ
 70
     0
  9
$DIMUPT
 70
     0
  9
$DIMDEC
 70
     1
  9
$DIMTDEC
 70
     1
  9
$DIMALTU
 70
     8
  9
$DIMALTTD
 70
     4
  9
$DIMTXSTY
  7
STANDARD
  9
$DIMAUNIT
 70
     0
  9
$DIMADEC
 70
     0
  9
$DIMALTRND
 40
0.0
  9
$DIMAZIN
 70
     0
  9
$DIMDSEP
 70
    46
  9
$DIMATFIT
 70
     3
  9
$DIMFRAC
 70
     0
  9
$DIMLDRBLK
  1
OPEN30
  9
$DIMLUNIT
 70
     2
  9
$DIMLWD
 70
    -2
  9
$DIMLWE
 70
    -2
  9
$DIMTMOVE
 70
     0
  9
$LUNITS
 70
     2
  9
$LUPREC
 70
     2
  9
$SKETCHINC
 40
1.0
  9
$FILLETRAD
 40
10.0
  9
$AUNITS
 70
     0
  9
$AUPREC
 70
     0
  9
$MENU
  1
.
  9
$ELEVATION
 40
0.0
  9
$PELEVATION
 40
0.0
  9
$THICKNESS
 40
0.0
  9
$LIMCHECK
 70
     0
  9
$CHAMFERA
 40
10.0
  9
$CHAMFERB
 40
10.0
  9
$CHAMFERC
 40
20.0
  9
$CHAMFERD
 40
0.0
  9
$SKPOLY
 70
     0
  9
$TDCREATE
 40
2451324.468257373
  9
$TDUCREATE
 40
2451324.093257373
  9
$TDUPDATE
 40
2455894.565377107
  9
$TDUUPDATE
 40
2455894.190377107
  9
$TDINDWG
 40
2.0273958218
  9
$TDUSRTIMER
 40
2.0273947338
  9
$USRTIMER
 70
     1
  9
$ANGBASE
 50
0.0
  9
$ANGDIR
 70
     0
  9
$PDMODE
 70
     0
  9
$PDSIZE
 40
0.0
  9
$PLINEWID
 40
0.0
  9
$SPLFRAME
 70
     0
  9
$SPLINETYPE
 70
     6
  9
$SPLINESEGS
 70
     8
  9
$HANDSEED
  5
277C
  9
$SURFTAB1
 70
     6
  9
$SURFTAB2
 70
     6
  9
$SURFTYPE
 70
     6
  9
$SURFU
 70
     6
  9
$SURFV
 70
     6
  9
$UCSBASE
  2

  9
$UCSNAME
  2

  9
$UCSORG
 10
0.0
 20
0.0
 30
0.0
  9
$UCSXDIR
 10
1.0
 20
0.0
 30
0.0
  9
$UCSYDIR
 10
0.0
 20
1.0
 30
0.0
  9
$UCSORTHOREF
  2

  9
$UCSORTHOVIEW
 70
     0
  9
$UCSORGTOP
 10
0.0
 20
0.0
 30
0.0
  9
$UCSORGBOTTOM
 10
0.0
 20
0.0
 30
0.0
  9
$UCSORGLEFT
 10
0.0
 20
0.0
 30
0.0
  9
$UCSORGRIGHT
 10
0.0
 20
0.0
 30
0.0
  9
$UCSORGFRONT
 10
0.0
 20
0.0
 30
0.0
  9
$UCSORGBACK
 10
0.0
 20
0.0
 30
0.0
  9
$PUCSBASE
  2

  9
$PUCSNAME
  2

  9
$PUCSORG
 10
0.0
 20
0.0
 30
0.0
  9
$PUCSXDIR
 10
1.0
 20
0.0
 30
0.0
  9
$PUCSYDIR
 10
0.0
 20
1.0
 30
0.0
  9
$PUCSORTHOREF
  2

  9
$PUCSORTHOVIEW
 70
     0
  9
$PUCSORGTOP
 10
0.0
 20
0.0
 30
0.0
  9
$PUCSORGBOTTOM
 10
0.0
 20
0.0
 30
0.0
  9
$PUCSORGLEFT
 10
0.0
 20
0.0
 30
0.0
  9
$PUCSORGRIGHT
 10
0.0
 20
0.0
 30
0.0
  9
$PUCSORGFRONT
 10
0.0
 20
0.0
 30
0.0
  9
$PUCSORGBACK
 10
0.0
 20
0.0
 30
0.0
  9
$USERI1
 70
     0
  9
$USERI2
 70
     0
  9
$USERI3
 70
     0
  9
$USERI4
 70
     0
  9
$USERI5
 70
     0
  9
$USERR1
 40
0.0
  9
$USERR2
 40
0.0
  9
$USERR3
 40
0.0
  9
$USERR4
 40
0.0
  9
$USERR5
 40
0.0
  9
$WORLDVIEW
 70
     1
  9
$SHADEDGE
 70
     3
  9
$SHADEDIF
 70
    70
  9
$TILEMODE
 70
     1
  9
$MAXACTVP
 70
    48
  9
$PINSBASE
 10
0.0
 20
0.0
 30
0.0
  9
$PLIMCHECK
 70
     0
  9
$PEXTMIN
 10
-1439.804583653114
 20
-1400.237631316938
 30
0.0
  9
$PEXTMAX
 10
2872.968780515991
 20
1675.790811506817
 30
0.0
  9
$PLIMMIN
 10
0.0
 20
0.0
  9
$PLIMMAX
 10
12.0
 20
9.0
  9
$UNITMODE
 70
     0
  9
$VISRETAIN
 70
     1
  9
$PLINEGEN
 70
     0
  9
$PSLTSCALE
 70
     1
  9
$TREEDEPTH
 70
  3020
  9
$CMLSTYLE
  2
STANDARD
  9
$CMLJUST
 70
     0
  9
$CMLSCALE
 40
20.0
  9
$PROXYGRAPHICS
 70
     1
  9
$MEASUREMENT
 70
     1
  9
$CELWEIGHT
370
    -1
  9
$ENDCAPS
280
     0
  9
$JOINSTYLE
280
     0
  9
$LWDISPLAY
290
     0
  9
$INSUNITS
 70
     0
  9
$HYPERLINKBASE
  1

  9
$STYLESHEET
  1

  9
$XEDIT
290
     1
  9
$CEPSNTYPE
380
     0
  9
$PSTYLEMODE
290
     1
  9
$FINGERPRINTGUID
  2
{7B48495B-9D62-4076-8CB1-8ACA882609AE}
  9
$VERSIONGUID
  2
{BA5CC4B3-655E-4F89-8435-3810D40D756C}
  9
$EXTNAMES
290
     1
  9
$PSVPSCALE
 40
0.0
  9
$OLESTARTUP
290
     0
  0
ENDSEC
  0
SECTION
  2
CLASSES
  0
CLASS
  1
ACDBDICTIONARYWDFLT
  2
AcDbDictionaryWithDefault
  3
ObjectDBX Classes
 90
        0
280
     0
281
     0
  0
CLASS
  1
ACDBPLACEHOLDER
  2
AcDbPlaceHolder
  3
ObjectDBX Classes
 90
        0
280
     0
281
     0
  0
CLASS
  1
LAYOUT
  2
AcDbLayout
  3
ObjectDBX Classes
 90
        0
280
     0
281
     0
  0
CLASS
  1
ACME_DOCUMENT
  2
AcMeDbDoc
  3
AcMeServices
 90
     1024
280
     0
281
     0
  0
CLASS
  1
AMGSETTINGSOBJ
  2
AmgSettingsObj
  3
"AcadM|Product Description: AutoCAD Mechanical|Company: Autodesk, Inc."
 90
     1024
280
     0
281
     0
  0
CLASS
  1
ACMESCOPE
  2
AcMeScope
  3
AcMeServices
 90
     1024
280
     0
281
     0
  0
CLASS
  1
ACMECOMMANDHISTORY
  2
AcMeCommandHistory
  3
AcMeServices
 90
     1024
280
     0
281
     0
  0
CLASS
  1
DICTIONARYVAR
  2
AcDbDictionaryVar
  3
ObjectDBX Classes
 90
        0
280
     0
281
     0
  0
CLASS
  1
ACIMSYSVARMAN
  2
AcImSysVarManager
  3
AcMeServices
 90
     1024
280
     0
281
     0
  0
CLASS
  1
ACIMREALSYSVAR
  2
AcImRealSysVar
  3
AcMeServices
 90
     1024
280
     0
281
     0
  0
CLASS
  1
ACIMINTSYSVAR
  2
AcImIntSysVar
  3
AcMeServices
 90
     1024
280
     0
281
     0
  0
CLASS
  1
ACMEDRAWINGMAN
  2
AcMeDrawingMan
  3
AcMeServices
 90
     1024
280
     0
281
     0
  0
CLASS
  1
ACMEVIEW
  2
AcMeView
  3
AcMeServices
 90
     1024
280
     0
281
     0
  0
CLASS
  1
ACDBENTITYCACHE
  2
AcMeEntityCache
  3
AcMeServices
 90
     1024
280
     0
281
     0
  0
CLASS
  1
GSMANAGER
  2
AcMeGSManager
  3
AcMeServices
 90
     1024
280
     0
281
     0
  0
CLASS
  1
AMDTINTERNALREACTOR
  2
AmdtInternalReactor
  3
AcMeServices
 90
     1024
280
     0
281
     0
  0
CLASS
  1
ACMESTATEMGR
  2
AcMeStateMgr
  3
AcMeServices
 90
     1024
280
     0
281
     0
  0
CLASS
  1
ACGREFMASTER
  2
AcGrefMaster
  3
AcAttribServices
 90
     1024
280
     0
281
     0
  0
CLASS
  1
AM_DRAWING_MGR
  2
AcDmDwgMgr
  3
AcMechDwgViewMgmt
 90
     1024
280
     0
281
     0
  0
CLASS
  1
AM_DWG_DOCUMENT
  2
AcDmDwgDocument
  3
AcMechDwgViewMgmt
 90
     1024
280
     0
281
     0
  0
CLASS
  1
AM_DWG_SHEET
  2
AcDmSheet
  3
AcMechDwgViewMgmt
 90
     1024
280
     0
281
     0
  0
CLASS
  1
AM_VIEWDIMPARMAP
  2
AcDmViewDimParMap
  3
AcMechDwgViewMgmt
 90
     1024
280
     0
281
     0
  0
CLASS
  1
AM_DWGMGR_NAME
  2
AcDmDwgMgrName
  3
AcMechDwgViewMgmt
 90
     1024
280
     0
281
     0
  0
CLASS
  1
ACME_DATABASE
  2
AcMeDbDatabase
  3
AcMeServices
 90
     1024
280
     0
281
     0
  0
CLASS
  1
ACRFINSADJUSTERMGR
  2
AcRfInsAdjusterMgr
  3
AcMeServices
 90
     1024
280
     0
281
     0
  0
CLASS
  1
ACGREFACADMASTER
  2
AcGrefacadMaster
  3
AcGrefServices
 90
     1024
280
     0
281
     0
  0
CLASS
  1
AMDTMENUSTATEMGR
  2
AmdtMenuStateMgr
  3
McadcomServices
 90
     1024
280
     0
281
     0
  0
CLASS
  1
AMDTMCOMMENUSTATE
  2
AmdtMcomMenuState
  3
McadcomServices
 90
     1024
280
     0
281
     0
  0
CLASS
  1
AMIMASTER
  2
AmiMaster
  3
AmiServices
 90
     1024
280
     0
281
     0
  0
CLASS
  1
ASAPP
  2
AcAsAppObject
  3
AutoSurfServices
 90
     1024
280
     0
281
     0
  0
CLASS
  1
IM_STATIC_MAN
  2
AcImStaticVarManager
  3
AcMeServices
 90
     1024
280
     0
281
     0
  0
CLASS
  1
ACIMSTRSYSVAR
  2
AcImStrSysVar
  3
AcMeServices
 90
     1024
280
     0
281
     0
  0
CLASS
  1
ACIMDBLSTATICVAR
  2
AcImDblStaticVar
  3
AcMeServices
 90
     1024
280
     0
281
     0
  0
CLASS
  1
ACIMSTRSTATICVAR
  2
AcImStrStaticVar
  3
AcMeServices
 90
     1024
280
     0
281
     0
  0
CLASS
  1
ACIMINTSTATICVAR
  2
AcImIntStaticVar
  3
AcMeServices
 90
     1024
280
     0
281
     0
  0
CLASS
  1
ACASGREFMASTER
  2
AcAsGrefMaster
  3
AutoSurfResolverServices
 90
     1024
280
     0
281
     0
  0
CLASS
  1
ACADGREFMODULE
  2
AcAdGrefModule
  3
AdGrefServices
 90
     1024
280
     0
281
     0
  0
CLASS
  1
AMDTMAPISURFMOUDULE
  2
AmdtMApiSurfModule
  3
MApiSurfServices
 90
    33792
280
     0
281
     0
  0
CLASS
  1
MAPIAMMOUDLE
  2
MApiAmModule
  3
MApiAmServices
 90
     1024
280
     0
281
     0
  0
CLASS
  1
AMDTADMENUSTATE
  2
AmdtAdMenuState
  3
DesignerServices
 90
     1024
280
     0
281
     0
  0
CLASS
  1
ADAPPL
  2
AcAdAppl
  3
DesignerServices
 90
     1024
280
     0
281
     0
  0
CLASS
  1
DEPMGR
  2
AcAdDepMgr
  3
DesignerServices
 90
     1024
280
     0
281
     0
  0
CLASS
  1
PARAMMGR
  2
AcAdParamMgr
  3
DesignerServices
 90
     1024
280
     0
281
     0
  0
CLASS
  1
PARAMSCOPE
  2
AcAdParamScope
  3
DesignerServices
 90
     1024
280
     0
281
     0
  0
CLASS
  1
NAMEDAPPL
  2
AcAdNamedAppl
  3
DesignerServices
 90
     1024
280
     0
281
     0
  0
CLASS
  1
ADHNTMPLT
  2
AdHoleNoteTemplateMgr
  3
DesignerServices
 90
    33792
280
     0
281
     0
  0
CLASS
  1
AM_HNTEMPLATE_MGR_NAME
  2
AdHoleNoteTemplateMgrName
  3
DesignerServices
 90
    33792
280
     0
281
     0
  0
CLASS
  1
AMDTDMMENUSTATE
  2
AmdtDmMenuState
  3
AcMechDwgViewMgmt
 90
     1024
280
     0
281
     0
  0
CLASS
  1
MAPIADMODULE
  2
MApiAdModule
  3
MApiAdServices
 90
     1024
280
     0
281
     0
  0
CLASS
  1
AMDTAMMENUSTATE
  2
AmdtAmMenuState
  3
DesignerAssemblies
 90
     1024
280
     0
281
     0
  0
CLASS
  1
ACAMPROJECT
  2
AcAmProject
  3
DesignerAssemblies
 90
     1024
280
     0
281
     0
  0
CLASS
  1
ACAMGRCOMPDEF
  2
AcAmGrCompDef
  3
DesignerAssemblies
 90
     1024
280
     0
281
     0
  0
CLASS
  1
ACCMCONTEXT
  2
AcCmContext
  3
DesignerAssemblies
 90
     1024
280
     0
281
     0
  0
CLASS
  1
ACAMCOMPDEF
  2
AcAmCompDef
  3
DesignerAssemblies
 90
     1024
280
     0
281
     0
  0
CLASS
  1
ACAMCOMPDEFMGR
  2
AcAmCompDefMgr
  3
DesignerAssemblies
 90
     1024
280
     0
281
     0
  0
CLASS
  1
AMCONTEXTMGR
  2
AcAmContextMgr
  3
DesignerAssemblies
 90
     1024
280
     0
281
     0
  0
CLASS
  1
ACAMCONTEXTMODELER
  2
AcAmContextModeler
  3
DesignerAssemblies
 90
     1024
280
     0
281
     0
  0
CLASS
  1
ACMDATADICTIONARY
  2
AcmDataDictionary
  3
"AcmSymBB|Product Description: AutoCAD Mechanical|Company: Autodesk, Inc."
 90
     1024
280
     0
281
     0
  0
CLASS
  1
ACMDATAENTRYBLOCK
  2
AcmDataEntryBlock
  3
AcmSymBB|Product Description: AutoCAD Mechanical|Company: Autodesk, Inc.
 90
     1024
280
     0
281
     0
  0
CLASS
  1
CATALOGSTATE
  2
AcAmCatalogState
  3
DesignerAssemblies
 90
     1024
280
     0
281
     0
  0
CLASS
  1
ACAMGRCOMPDEFSET
  2
AcAmGrCompDefSet
  3
DesignerAssemblies
 90
     1024
280
     0
281
     0
  0
CLASS
  1
AMDTBROWSERDBTAB
  2
AmdtBrowserDbTab
  3
McadcomServices
 90
     1024
280
     0
281
     0
  0
CLASS
  1
CBROWSERAPPOBJECT
  2
CBrowserAppObject
  3
McadcomServices
 90
     1024
280
     0
281
     0
  0
CLASS
  1
DM_PLACEHOLDER
  2
AcDmSelsetPlaceholder
  3
AcMechDwgViewMgmt
 90
     1024
280
     0
281
     0
  0
CLASS
  1
ACMSTANDARDISO
  2
AcmStandardISO
  3
"Amdt_StdImp|Product Description: AutoCAD Mechanical|Company: Autodesk, Inc."
 90
     1024
280
     0
281
     0
  0
CLASS
  1
AMGOBJPROPCFG
  2
AmgObjPropCfg
  3
"AmgLay|Product Description: AutoCAD Mechanical|Company: Autodesk, Inc."
 90
     1025
280
     0
281
     0
  0
CLASS
  1
AMDTEDGESTANDARDISO
  2
AmdtEdgeStdISO
  3
"Amdt_StdImp|Product Description: AutoCAD Mechanical|Company: Autodesk, Inc."
 90
    33792
280
     0
281
     0
  0
CLASS
  1
ACMSURFSTANDARDISO
  2
AcmSurfTextStdISO
  3
"Amdt_StdImp|Product Description: AutoCAD Mechanical|Company: Autodesk, Inc."
 90
    33792
280
     0
281
     0
  0
CLASS
  1
ACMFCFSTANDARDISO
  2
AcmFCFStdISO
  3
"Amdt_StdImp|Product Description: AutoCAD Mechanical|Company: Autodesk, Inc."
 90
     1024
280
     0
281
     0
  0
CLASS
  1
ACMWELDSTANDARDISO
  2
AcmWeldingStdISO
  3
"Amdt_StdImp|Product Description: AutoCAD Mechanical|Company: Autodesk, Inc."
 90
     1024
280
     0
281
     0
  0
CLASS
  1
ACMIDSTANDARDISO
  2
AcmIdStdISO
  3
"Amdt_StdImp|Product Description: AutoCAD Mechanical|Company: Autodesk, Inc."
 90
     1024
280
     0
281
     0
  0
CLASS
  1
ACMDATUMSTANDARDISO
  2
AcmDatumStdISO
  3
"Amdt_StdImp|Product Description: AutoCAD Mechanical|Company: Autodesk, Inc."
 90
     1024
280
     0
281
     0
  0
CLASS
  1
ACMBOMSTANDARDISO
  2
AcmBOMStdISO
  3
"Amdt_StdImp|Product Description: AutoCAD Mechanical|Company: Autodesk, Inc."
 90
     1024
280
     0
281
     0
  0
CLASS
  1
ACMDETAILSTANDARDISO
  2
AmdtDetailSymStdISO
  3
"Amdt_StdImp|Product Description: AutoCAD Mechanical|Company: Autodesk, Inc."
 90
     1024
280
     0
281
     0
  0
CLASS
  1
ACMSECTIONSTANDARDISO
  2
AmdtSectionSymStdISO
  3
"Amdt_StdImp|Product Description: AutoCAD Mechanical|Company: Autodesk, Inc."
 90
    33792
280
     0
281
     0
  0
CLASS
  1
ACMCENTERLINESTANDARDISO
  2
AmdtCenterLineStdISO
  3
"Amdt_StdImp|Product Description: AutoCAD Mechanical|Company: Autodesk, Inc."
 90
     1024
280
     0
281
     0
  0
CLASS
  1
ACMTHREADLINESTANDARDISO
  2
AmdtThreadLineStdISO
  3
"Amdt_StdImp|Product Description: AutoCAD Mechanical|Company: Autodesk, Inc."
 90
     1024
280
     0
281
     0
  0
CLASS
  1
ACAMGLAYSTD
  2
AcAmgLayStd
  3
"AmgLay|Product Description: AutoCAD Mechanical|Company: Autodesk, Inc."
 90
     1024
280
     0
281
     0
  0
CLASS
  1
ACAMGDIMSTD
  2
AcAmgDimStd
  3
"AmgDim|Product Description: AutoCAD Mechanical|Company: Autodesk, Inc."
 90
     1024
280
     0
281
     0
  0
CLASS
  1
ACAMGTITLESTD
  2
AcAmgTitleStd
  3
"AmgTitle|Product Description: AutoCAD Mechanical|Company: Autodesk, Inc."
 90
     4095
280
     0
281
     0
  0
CLASS
  1
ACAMGFILTERDAT
  2
AcAmgFilterDat
  3
"AcadM|Product Description: AutoCAD Mechanical|Company: Autodesk, Inc."
 90
     1024
280
     0
281
     0
  0
CLASS
  1
AMDTFORMULAUPDATEDISPATCHER
  2
AmdtFormulaUpdateDispatcher
  3
AcMeServices
 90
    33792
280
     0
281
     0
  0
CLASS
  1
LAYER_INDEX
  2
AcDbLayerIndex
  3
ObjectDBX Classes
 90
        0
280
     0
281
     0
  0
CLASS
  1
IDBUFFER
  2
AcDbIdBuffer
  3
ObjectDBX Classes
 90
        0
280
     0
281
     0
  0
CLASS
  1
TABLESTYLE
  2
AcDbTableStyle
  3
ObjectDBX Classes
 90
     4095
280
     0
281
     0
  0
CLASS
  1
ACMNOTESTANDARDISO
  2
AmdtNoteStdISO
  3
"Amdt_StdImp|Product Description: AutoCAD Mechanical|Company: Autodesk, Inc."
 90
     1024
280
     0
281
     0
  0
CLASS
  1
AMDTNOTETEMPLATEDB
  2
AmdtNoteTemplateDB
  3
AcmSymBB|Product Description: AutoCAD Mechanical|Company: Autodesk, Inc.
 90
     1024
280
     0
281
     0
  0
CLASS
  1
ACAMEXTERNALCOMPDEF
  2
AcAmExternalCompDef
  3
DesignerAssemblies
 90
    33792
280
     0
281
     0
  0
CLASS
  1
ACCMBODY
  2
AcCmBody
  3
DesignerAssemblies
 90
    33792
280
     0
281
     0
  0
CLASS
  1
ACAMCOMPENT
  2
AcAmCompEnt
  3
DesignerAssemblies
 90
    33792
280
     0
281
     1
  0
CLASS
  1
ACAMCOMPFEEDBACK
  2
AcAmCompFeedback
  3
DesignerAssemblies
 90
    33792
280
     0
281
     0
  0
CLASS
  1
ACAMCOMP
  2
AcAmComp
  3
DesignerAssemblies
 90
    33792
280
     0
281
     0
  0
CLASS
  1
ACAMCOMPENTCLONE
  2
AcAmCompEntClone
  3
DesignerAssemblies
 90
    33792
280
     0
281
     1
  0
CLASS
  1
ACAMCLONEREACTOR
  2
AcAmGrCompCloneReactor
  3
DesignerAssemblies
 90
    33792
280
     0
281
     0
  0
CLASS
  1
EDGEID
  2
AcAdEdgeId
  3
DesignerServices
 90
    33792
280
     0
281
     0
  0
CLASS
  1
ACADPARTLINEDGRES
  2
AcAdPartLinEdgRes
  3
AdGrefServices
 90
    33792
280
     0
281
     0
  0
CLASS
  1
ACRFINSADJ
  2
AcRfInsAdjuster
  3
AcMeServices
 90
    33792
280
     0
281
     0
  0
CLASS
  1
STREFID
  2
AcAdStraightRefId
  3
DesignerServices
 90
    33792
280
     0
281
     0
  0
CLASS
  1
ACMEAXIS
  2
AcImAxisDisplay
  3
AcMeServices
 90
    33792
280
     0
281
     1
  0
CLASS
  1
FACEID
  2
AcAdFaceId
  3
DesignerServices
 90
    33792
280
     0
281
     0
  0
CLASS
  1
DEPEDGESECONDARYDEPID
  2
AcAdDepEdgeSecondaryDepId
  3
DesignerServices
 90
    33792
280
     0
281
     0
  0
CLASS
  1
ACADPARTPLANARFACERES
  2
AcAdPartPlanarFaceRes
  3
AdGrefServices
 90
    33792
280
     0
281
     0
  0
CLASS
  1
ACMEPOINT
  2
AcImPointDisplay
  3
AcMeServices
 90
    33792
280
     0
281
     1
  0
CLASS
  1
ACMELINEARARROW
  2
AcImLinearArrowDisplay
  3
AcMeServices
 90
    33792
280
     0
281
     1
  0
CLASS
  1
ACAMEXPR
  2
AcAmExpr
  3
DesignerAssemblies
 90
    33792
280
     0
281
     0
  0
CLASS
  1
ACCMDISTPLPL
  2
AcCmDistPlPl
  3
DesignerAssemblies
 90
    33792
280
     0
281
     0
  0
CLASS
  1
ACCMCONSTREACTOR
  2
AcCmConstraintReactor
  3
DesignerAssemblies
 90
    33792
280
     0
281
     0
  0
CLASS
  1
ACCMDISTPTLN
  2
AcCmDistPtLn
  3
DesignerAssemblies
 90
    33792
280
     0
281
     0
  0
CLASS
  1
AM_VIEW_SELECT_FILTER
  2
AcDmSelectViewEntFilter
  3
AcMechDwgViewMgmt
 90
    33792
280
     0
281
     0
  0
CLASS
  1
AM_GREF_PLANE
  2
AcDmGrefPlnDef
  3
AcMechDwgViewMgmt
 90
    33792
280
     0
281
     0
  0
CLASS
  1
AM_GREF_AXIS
  2
AcDmGrefAxisDef
  3
AcMechDwgViewMgmt
 90
    33792
280
     0
281
     0
  0
CLASS
  1
AM_BASE_VIEW_ORIENT
  2
AcDmBaseViewOr
  3
AcMechDwgViewMgmt
 90
    33792
280
     0
281
     0
  0
CLASS
  1
AM_DWG_VIEWPORT
  2
AcDmViewport
  3
AcMechDwgViewMgmt
 90
    33792
280
     0
281
     0
  0
CLASS
  1
AM_VIEW_DISPLAY
  2
AcDmDwgViewDisplay
  3
AcMechDwgViewMgmt
 90
    33792
280
     0
281
     0
  0
CLASS
  1
AM_CLDFLTS
  2
AcDmClDflts
  3
AcMechDwgViewMgmt
 90
    33792
280
     0
281
     0
  0
CLASS
  1
AM_BASE_VIEW
  2
AcDmBaseView
  3
AcMechDwgViewMgmt
 90
    33792
280
     0
281
     0
  0
CLASS
  1
ACMEPLINE
  2
AcImPlineDisplay
  3
AcMeServices
 90
    33792
280
     0
281
     1
  0
CLASS
  1
ACDMPARTVIEWDATA
  2
AcDmPartViewData
  3
AcMechDwgViewMgmt
 90
    33792
280
     0
281
     0
  0
CLASS
  1
ACDMDISPLAYATTRIBS
  2
AcDmDisplayAttribs
  3
AcMechDwgViewMgmt
 90
    33792
280
     0
281
     0
  0
CLASS
  1
ACDMBODYINSTANCEDATA
  2
AcDmBodyInstanceData
  3
AcMechDwgViewMgmt
 90
    33792
280
     0
281
     0
  0
CLASS
  1
ACDMVWEDLINE
  2
AcDmViewEdgeLine
  3
AcMechDwgViewMgmt
 90
    33792
280
     0
281
     1
  0
CLASS
  1
ACDMVWEDARC
  2
AcDmViewEdgeArc
  3
AcMechDwgViewMgmt
 90
    33792
280
     0
281
     1
  0
CLASS
  1
AM_ISO_VIEW_ORIENT
  2
AcDmIsoViewOr
  3
AcMechDwgViewMgmt
 90
    33792
280
     0
281
     0
  0
CLASS
  1
AM_ISO_VIEW
  2
AcDmIsoView
  3
AcMechDwgViewMgmt
 90
    33792
280
     0
281
     0
  0
CLASS
  1
AM_ORTHO_VIEW_ORIENT
  2
AcDmOrthoViewOr
  3
AcMechDwgViewMgmt
 90
    33792
280
     0
281
     0
  0
CLASS
  1
AM_ORTHO_VIEW
  2
AcDmOrthoView
  3
AcMechDwgViewMgmt
 90
    33792
280
     0
281
     0
  0
CLASS
  1
ACAMVIEWREACTOR
  2
AcAmViewReactor
  3
DesignerAssemblies
 90
    33792
280
     0
281
     0
  0
CLASS
  1
AMVIEW
  2
AcAmView
  3
DesignerAssemblies
 90
    33792
280
     0
281
     0
  0
CLASS
  1
ACAMVIEWCONTEXT
  2
AcAmViewContext
  3
DesignerAssemblies
 90
    33792
280
     0
281
     0
  0
CLASS
  1
ACAMCOMPENTVIEW
  2
AcAmCompEntView
  3
DesignerAssemblies
 90
    33792
280
     0
281
     1
  0
CLASS
  1
ACAMCOMPVIEWREACTOR
  2
AcAmGrCompViewReactor
  3
DesignerAssemblies
 90
    33792
280
     0
281
     0
  0
CLASS
  1
ACAMVIEWENTITYFILTER
  2
AcAmViewEntityFilter
  3
DesignerAssemblies
 90
    33792
280
     0
281
     0
  0
CLASS
  1
ACDMVWEDCIRC
  2
AcDmViewEdgeCircle
  3
AcMechDwgViewMgmt
 90
    33792
280
     0
281
     1
  0
CLASS
  1
AM_ADCIRCTRLINE
  2
AcAdBullsEyeCl
  3
DesignerServices
 90
    33792
280
     0
281
     0
  0
CLASS
  1
AM_ADLINCTRLINE
  2
AcAdLineCl
  3
DesignerServices
 90
    33792
280
     0
281
     0
  0
CLASS
  1
ACDMVIEWGEOM
  2
AcDmViewGeometry
  3
AcMechDwgViewMgmt
 90
    33792
280
     0
281
     1
  0
CLASS
  1
ACCMDISTLNLN
  2
AcCmDistLnLn
  3
DesignerAssemblies
 90
    33792
280
     0
281
     0
  0
CLASS
  1
ACAMXREFCONTEXTMODELER
  2
AcAmXrefContextModeler
  3
DesignerAssemblies
 90
    33792
280
     0
281
     0
  0
CLASS
  1
CNRREFID
  2
AcAdCornerId
  3
DesignerServices
 90
    33792
280
     0
281
     0
  0
CLASS
  1
ACADPARTPOINTRES
  2
AcAdPartPointRes
  3
AdGrefServices
 90
    33792
280
     0
281
     0
  0
CLASS
  1
AM_VIEWDIMLINEAR
  2
AcDmViewDimLinear
  3
AcMechDwgViewMgmt
 90
    33792
280
     0
281
     0
  0
CLASS
  1
PARAM
  2
AcAdParam
  3
DesignerServices
 90
    33792
280
     0
281
     0
  0
CLASS
  1
SORTENTSTABLE
  2
AcDbSortentsTable
  3
ObjectDBX Classes
 90
        0
280
     0
281
     0
  0
CLASS
  1
ACADPARTCIRCEDGRES
  2
AcAdPartCircEdgRes
  3
AdGrefServices
 90
    33792
280
     0
281
     0
  0
CLASS
  1
AM_VIEWDIMRADIUS
  2
AcDmViewDimRadius
  3
AcMechDwgViewMgmt
 90
    33792
280
     0
281
     0
  0
CLASS
  1
DEPEDGEPATTERNINSTANCE
  2
AcAdDepEdgePatternInstance
  3
DesignerServices
 90
    33792
280
     0
281
     0
  0
CLASS
  1
FEEDBACK
  2
AcAmFeedback
  3
DesignerAssemblies
 90
    33792
280
     0
281
     1
  0
CLASS
  1
ACAMTRIAXISSYMBOL
  2
AcAmTriAxisSymbol
  3
DesignerAssemblies
 90
    33792
280
     0
281
     0
  0
CLASS
  1
ACAMTEXTCIRCLESYMBOL
  2
AcAmTextCircleSymbol
  3
DesignerAssemblies
 90
    33792
280
     0
281
     0
  0
CLASS
  1
ACDMVISEDIT
  2
AcDmViewEntityVisEdit
  3
AcMechDwgViewMgmt
 90
    33792
280
     0
281
     0
  0
CLASS
  1
SILEDGEID
  2
AcAdSilhouetteEdgeId
  3
DesignerServices
 90
    33792
280
     0
281
     0
  0
CLASS
  1
MATERIAL
  2
AcDbMaterial
  3
ObjectDBX Classes
 90
     1153
280
     0
281
     0
  0
CLASS
  1
VISUALSTYLE
  2
AcDbVisualStyle
  3
ObjectDBX Classes
 90
     4095
280
     0
281
     0
  0
CLASS
  1
SCALE
  2
AcDbScale
  3
ObjectDBX Classes
 90
     1153
280
     0
281
     0
  0
CLASS
  1
MLEADERSTYLE
  2
AcDbMLeaderStyle
  3
ACDB_MLEADERSTYLE_CLASS
 90
     4095
280
     0
281
     0
  0
CLASS
  1
EXACTERMXREFMAP
  2
ExAcTermXrefMap
  3
EXAC_SERVICE
 90
    33793
280
     0
281
     0
  0
CLASS
  1
NPOCOLLECTION
  2
AcDbImpNonPersistentObjectsCollection
  3
ObjectDBX Classes
 90
     1153
280
     0
281
     0
  0
CLASS
  1
ACRFATTGENMGR
  2
AcRfAttGeneralMgr
  3
AcAttribServices
 90
     1024
280
     0
281
     0
  0
CLASS
  1
ACRFOBJATTMGR
  2
AcRfObjAttGroupMgr
  3
AcAttribServices
 90
     1024
280
     0
281
     0
  0
CLASS
  1
ACRFMCADAPIATTHOLDER
  2
AcRfMCADAPIAttHolder
  3
AcAttribServices
 90
     1024
280
     0
281
     0
  0
CLASS
  1
AMDTSYSATTR
  2
AmdtSystemAttribute
  3
AcAttribServices
 90
     1024
280
     0
281
     0
  0
CLASS
  1
ACMTAPERSTANDARDISO
  2
AcmTaperStdISO
  3
"Amdt_StdImp|Product Description: AutoCAD Mechanical|Company: Autodesk, Inc."
 90
     1024
280
     0
281
     0
  0
CLASS
  1
ACMANOOTATIONVIEWSTANDARDISO
  2
AmdtAnViewStdISO
  3
"Amdt_StdImp|Product Description: AutoCAD Mechanical|Company: Autodesk, Inc."
 90
     1024
280
     0
281
     0
  0
CLASS
  1
SOLID_BACKGROUND
  2
AcDbSolidBackground
  3
SCENEOE
 90
     4095
280
     0
281
     0
  0
CLASS
  1
CELLSTYLEMAP
  2
AcDbCellStyleMap
  3
ObjectDBX Classes
 90
     1152
280
     0
281
     0
  0
CLASS
  1
AM_ABS_AXIS
  2
AcDmAbsAxisDef
  3
AcMechDwgViewMgmt
 90
    33792
280
     0
281
     0
  0
CLASS
  1
AM_ABS_PLANE
  2
AcDmAbsPlnDef
  3
AcMechDwgViewMgmt
 90
    33792
280
     0
281
     0
  0
CLASS
  1
MULTILEADER
  2
AcDbMLeader
  3
ACDB_MLEADER_CLASS
 90
     1025
280
     0
281
     1
  0
CLASS
  1
AMDTEDGESTANDARDISO13715
  2
AmdtEdgeStdISO13715
  3
"Amdt_StdImp|Product Description: AutoCAD Mechanical|Company: Autodesk, Inc."
 90
     1024
280
     0
281
     0
  0
CLASS
  1
ACMSURFSTANDARDISO2002
  2
AcmSurfTextStdISO2002
  3
"Amdt_StdImp|Product Description: AutoCAD Mechanical|Company: Autodesk, Inc."
 90
     1024
280
     0
281
     0
  0
CLASS
  1
ACMSECTIONSTANDARDISO2001
  2
AmdtSectionSymStdISO2001
  3
"Amdt_StdImp|Product Description: AutoCAD Mechanical|Company: Autodesk, Inc."
 90
     1024
280
     0
281
     0
  0
CLASS
  1
ACAMGHOLECHARTSTDISO
  2
AcAmgHoleChartStdISO
  3
AmgDim|Product Description: AutoCAD Mechanical|Company: Autodesk, Inc.
 90
     1024
280
     0
281
     0
  0
ENDSEC
  0
SECTION
  2
TABLES
  0
TABLE
  2
VPORT
  5
2A
330
0
100
AcDbSymbolTable
 70
     1
  0
VPORT
  5
BF0
330
2A
100
AcDbSymbolTableRecord
100
AcDbViewportTableRecord
  2
*Active
 70
     0
 10
0.0
 20
0.0
 11
1.0
 21
1.0
 12
0.0
 22
0.0
 13
0.0
 23
0.0
 14
10.0
 24
10.0
 15
10.0
 25
10.0
 16
0.0
 26
0.0
 36
2595.084699587832
 17
5733.293092182259
 27
-833.7907300360702
 37
0.0
 40
992.2932987303861
 41
1.956112852664576
 42
50.0
 43
0.0
 44
0.0
 50
0.0
 51
0.0
 71
     0
 72
  2000
 73
     1
 74
     0
 75
     0
 76
     0
 77
     0
 78
     0
281
     4
 65
     0
110
0.0
120
0.0
130
0.0
111
1.0
121
0.0
131
0.0
112
0.0
122
1.0
132
0.0
 79
     0
146
0.0
  0
ENDTAB
  0
TABLE
  2
LTYPE
  5
25
330
0
100
AcDbSymbolTable
 70
    12
  0
LTYPE
  5
26
330
25
100
AcDbSymbolTableRecord
100
AcDbLinetypeTableRecord
  2
BYBLOCK
 70
     0
  3

 72
    65
 73
     0
 40
0.0
  0
LTYPE
  5
27
330
25
100
AcDbSymbolTableRecord
100
AcDbLinetypeTableRecord
  2
BYLAYER
 70
     0
  3

 72
    65
 73
     0
 40
0.0
  0
LTYPE
  5
14
330
25
100
AcDbSymbolTableRecord
100
AcDbLinetypeTableRecord
  2
CONTINUOUS
 70
     0
  3
Solid line
 72
    65
 73
     0
 40
0.0
  0
LTYPE
  5
81
330
25
100
AcDbSymbolTableRecord
100
AcDbLinetypeTableRecord
  2
HIDDEN
 70
     0
  3
Hidden __ __ __ __ __ __ __ __ __ __ __ __ __ _
 72
    65
 73
     2
 40
0.375
 49
0.25
 74
     0
 49
-0.125
 74
     0
  0
LTYPE
  5
624
330
25
100
AcDbSymbolTableRecord
100
AcDbLinetypeTableRecord
  2
AM_ISO08W050
 70
     0
  3
____ . ____ . ____ . ____ . ____ . ____ . ____
 72
    65
 73
     4
 40
18.0
 49
12.0
 74
     0
 49
-1.5
 74
     0
 49
3.0
 74
     0
 49
-1.5
 74
     0
  0
LTYPE
  5
C97
330
25
100
AcDbSymbolTableRecord
100
AcDbLinetypeTableRecord
  2
DASHDOT
 70
     0
  3
____ _ ____ _ ____ _ ____ _ ____ _ ____ _ ____
 72
    65
 73
     4
 40
5.5
 49
4.0
 74
     0
 49
-0.6
 74
     0
 49
0.3
 74
     0
 49
-0.6
 74
     0
  0
LTYPE
  5
1286
330
25
100
AcDbSymbolTableRecord
100
AcDbLinetypeTableRecord
  2
PHANTOM2
 70
     0
  3
Phantom (.5x) ___ _ _ ___ _ _ ___ _ _ ___ _ _
 72
    65
 73
     6
 40
31.75
 49
15.875
 74
     0
 49
-3.174999999999998
 74
     0
 49
3.174999999999998
 74
     0
 49
-3.174999999999998
 74
     0
 49
3.174999999999998
 74
     0
 49
-3.174999999999998
 74
     0
  0
LTYPE
  5
1287
330
25
100
AcDbSymbolTableRecord
100
AcDbLinetypeTableRecord
  2
CENTER
 70
     0
  3
Center ____ _ ____ _ ____ _ ____ _ ____ _ ____
 72
    65
 73
     4
 40
50.8
 49
31.75
 74
     0
 49
-6.349999999999997
 74
     0
 49
6.349999999999997
 74
     0
 49
-6.349999999999997
 74
     0
  0
LTYPE
  5
12D5
330
25
100
AcDbSymbolTableRecord
100
AcDbLinetypeTableRecord
  2
ASULTYPE
 70
     0
  3
実線
 72
    65
 73
     2
 40
3.0
 49
2.5
 74
     0
 49
0.5
 74
     0
  0
LTYPE
  5
12D6
330
25
100
AcDbSymbolTableRecord
100
AcDbLinetypeTableRecord
  2
ASVLTYPE
 70
     0
  3
__ __ __ __ __ __ __ __ __ __ __ __ __ __ __ __ __ __ __ __ __
 72
    65
 73
     2
 40
0.75
 49
0.5
 74
     0
 49
-0.25
 74
     0
  0
LTYPE
  5
132A
330
25
100
AcDbSymbolTableRecord
100
AcDbLinetypeTableRecord
  2
ACISOWELD
 70
     0
  3
_ _ _ _ _
 72
    65
 73
     2
 40
2.0
 49
2.0
 74
     0
 49
-1.0
 74
     0
  0
LTYPE
  5
132B
330
25
100
AcDbSymbolTableRecord
100
AcDbLinetypeTableRecord
  2
ACISOTGB
 70
     0
  3
__ . . __ . .
 72
    65
 73
     6
 40
9.0
 49
4.0
 74
     0
 49
-1.0
 74
     0
 49
1.0
 74
     0
 49
-1.0
 74
     0
 49
1.0
 74
     0
 49
-1.0
 74
     0
  0
LTYPE
  5
132C
330
25
100
AcDbSymbolTableRecord
100
AcDbLinetypeTableRecord
  2
ACISOTGL
 70
     0
  3
_ _ _ _ _
 72
    65
 73
     2
 40
3.0
 49
2.0
 74
     0
 49
-1.0
 74
     0
  0
LTYPE
  5
1B0B
330
25
100
AcDbSymbolTableRecord
100
AcDbLinetypeTableRecord
  2
DASHED
 70
     0
  3
Dashed __ __ __ __ __ __ __ __ __ __ __ __ __ _
 72
    65
 73
     2
 40
0.75
 49
0.5
 74
     0
 49
-0.25
 74
     0
  0
ENDTAB
  0
TABLE
  2
LAYER
  5
1F
102
{ACAD_XDICTIONARY
360
20
102
}
330
0
100
AcDbSymbolTable
 70
     8
  0
LAYER
  5
5
102
{ACAD_XDICTIONARY
360
6
102
}
330
1F
100
AcDbSymbolTableRecord
100
AcDbLayerTableRecord
  2
0
 70
     0
 62
     7
  6
CONTINUOUS
370
    -3
390
8
  0
LAYER
  5
B88
330
1F
100
AcDbSymbolTableRecord
100
AcDbLayerTableRecord
  2
Defpoints
 70
     0
 62
     7
  6
CONTINUOUS
290
     0
370
    -3
390
8
  0
LAYER
  5
C98
102
{ACAD_XDICTIONARY
360
C99
102
}
330
1F
100
AcDbSymbolTableRecord
100
AcDbLayerTableRecord
  2
SIZE
 70
     0
 62
    30
  6
CONTINUOUS
370
    -3
390
8
  0
LAYER
  5
C9A
102
{ACAD_XDICTIONARY
360
C9B
102
}
330
1F
100
AcDbSymbolTableRecord
100
AcDbLayerTableRecord
  2
OUTLINE
 70
     0
 62
     3
  6
CONTINUOUS
370
    -3
390
8
  0
LAYER
  5
C9E
102
{ACAD_XDICTIONARY
360
C9F
102
}
330
1F
100
AcDbSymbolTableRecord
100
AcDbLayerTableRecord
  2
BASIS
 70
     0
 62
     6
  6
DASHDOT
370
    -3
390
8
  0
LAYER
  5
CA0
102
{ACAD_XDICTIONARY
360
CA1
102
}
330
1F
100
AcDbSymbolTableRecord
100
AcDbLayerTableRecord
  2
NOTE
 70
     0
 62
     4
  6
CONTINUOUS
370
    -3
390
8
  0
LAYER
  5
CA2
102
{ACAD_XDICTIONARY
360
CA3
102
}
330
1F
100
AcDbSymbolTableRecord
100
AcDbLayerTableRecord
  2
ARRANGE
 70
     0
 62
     1
  6
CONTINUOUS
370
    -3
390
8
  0
LAYER
  5
CA4
102
{ACAD_XDICTIONARY
360
CA5
102
}
330
1F
100
AcDbSymbolTableRecord
100
AcDbLayerTableRecord
  2
ETC
 70
     0
 62
    61
  6
CONTINUOUS
370
    -3
390
8
  0
ENDTAB
  0
TABLE
  2
STYLE
  5
22
330
0
100
AcDbSymbolTable
 70
     4
  0
STYLE
  5
23
330
22
100
AcDbSymbolTableRecord
100
AcDbTextStyleTableRecord
  2
STANDARD
 70
     0
 40
0.0
 41
1.0
 50
0.0
 71
     0
 42
62.5215949741746
  3
romans.shx
  4
extfont.shx
  0
STYLE
  5
CA6
330
22
100
AcDbSymbolTableRecord
100
AcDbTextStyleTableRecord
  2
STANDARD1
 70
     0
 40
0.0
 41
1.0
 50
0.0
 71
     0
 42
3.5
  3
MONOTXT
  4
BIGFONT
  0
STYLE
  5
131A
330
22
100
AcDbSymbolTableRecord
100
AcDbTextStyleTableRecord
  2
ACISOTS
 70
     0
 40
1.0
 41
1.0
 50
0.0
 71
     0
 42
62.5215949741746
  3
isocp.shx
  4
extfont.shx
  0
STYLE
  5
1329
330
22
100
AcDbSymbolTableRecord
100
AcDbTextStyleTableRecord
  2
ACISOGDT
 70
     0
 40
0.0
 41
1.0
 50
0.0
 71
     0
 42
62.5215949741746
  3
amgdt.shx
  4

  0
ENDTAB
  0
TABLE
  2
VIEW
  5
28
330
0
100
AcDbSymbolTable
 70
     0
  0
ENDTAB
  0
TABLE
  2
UCS
  5
29
330
0
100
AcDbSymbolTable
 70
     0
  0
ENDTAB
  0
TABLE
  2
APPID
  5
2E
330
0
100
AcDbSymbolTable
 70
    22
  0
APPID
  5
2F
330
2E
100
AcDbSymbolTableRecord
100
AcDbRegAppTableRecord
  2
ACAD
 70
     0
  0
APPID
  5
38
330
2E
100
AcDbSymbolTableRecord
100
AcDbRegAppTableRecord
  2
ACAD_DSTYLE_DIMJOGGED_JOGANGLE_SYMBOL
 70
     0
  0
APPID
  5
7C
330
2E
100
AcDbSymbolTableRecord
100
AcDbRegAppTableRecord
  2
AcAecLayerStandard
 70
     0
  0
APPID
  5
1E
330
2E
100
AcDbSymbolTableRecord
100
AcDbRegAppTableRecord
  2
ACAD_PSEXT
 70
     0
  0
APPID
  5
AFF
330
2E
100
AcDbSymbolTableRecord
100
AcDbRegAppTableRecord
  2
ACATTRIBSERVICES
 70
     0
  0
APPID
  5
B18
330
2E
100
AcDbSymbolTableRecord
100
AcDbRegAppTableRecord
  2
ACAD_MLEADERVER
 70
     0
  0
APPID
  5
B21
330
2E
100
AcDbSymbolTableRecord
100
AcDbRegAppTableRecord
  2
ACAD_EXEMPT_FROM_CAD_STANDARDS
 70
     0
  0
APPID
  5
B5E
330
2E
100
AcDbSymbolTableRecord
100
AcDbRegAppTableRecord
  2
ACAD_DSTYLE_DIMJAG
 70
     0
  0
APPID
  5
B5F
330
2E
100
AcDbSymbolTableRecord
100
AcDbRegAppTableRecord
  2
ACAD_DSTYLE_DIMTALN
 70
     0
  0
APPID
  5
B6F
330
2E
100
AcDbSymbolTableRecord
100
AcDbRegAppTableRecord
  2
ACAD_DSTYLE_DIMEXT_LENGTH
 70
     0
  0
APPID
  5
1252
330
2E
100
AcDbSymbolTableRecord
100
AcDbRegAppTableRecord
  2
GENIUS_GENDIM_13
 70
     0
  0
APPID
  5
1253
330
2E
100
AcDbSymbolTableRecord
100
AcDbRegAppTableRecord
  2
GENIUS_GENDTOL_13
 70
     0
  0
APPID
  5
1254
330
2E
100
AcDbSymbolTableRecord
100
AcDbRegAppTableRecord
  2
GENIUS_GE3DTOL_13
 70
     0
  0
APPID
  5
1257
330
2E
100
AcDbSymbolTableRecord
100
AcDbRegAppTableRecord
  2
MCAD_NO_VIS
 70
     0
  0
APPID
  5
1258
330
2E
100
AcDbSymbolTableRecord
100
AcDbRegAppTableRecord
  2
ACAD_TEMP_GRAPHIC
 70
     0
  0
APPID
  5
1289
330
2E
100
AcDbSymbolTableRecord
100
AcDbRegAppTableRecord
  2
AD_DRAW
 70
     0
  0
APPID
  5
12D7
330
2E
100
AcDbSymbolTableRecord
100
AcDbRegAppTableRecord
  2
ASURF_PCURVE_APPNAME
 70
     0
  0
APPID
  5
12DC
330
2E
100
AcDbSymbolTableRecord
100
AcDbRegAppTableRecord
  2
AMG_3D2D_5.0
 70
     0
  0
APPID
  5
130D
330
2E
100
AcDbSymbolTableRecord
100
AcDbRegAppTableRecord
  2
DESIGNERASSEMBLIES
 70
     0
  0
APPID
  5
1311
330
2E
100
AcDbSymbolTableRecord
100
AcDbRegAppTableRecord
  2
ACADM_DIM_EDIT
 70
     0
  0
APPID
  5
1312
330
2E
100
AcDbSymbolTableRecord
100
AcDbRegAppTableRecord
  2
AMDT_DM_ADJ
 70
     0
  0
APPID
  5
1669
330
2E
100
AcDbSymbolTableRecord
100
AcDbRegAppTableRecord
  2
ACAD_DSTYLE_DIMARC_LENGTH_SYMBOL
 70
     0
  0
ENDTAB
  0
TABLE
  2
DIMSTYLE
  5
30
330
0
100
AcDbSymbolTable
 70
    10
100
AcDbDimStyleTable
 71
     1
340
31
  0
DIMSTYLE
105
31
102
{ACAD_REACTORS
330
25C6
330
25D3
330
25E2
330
25EF
330
262D
330
263A
330
2647
330
2654
330
2661
102
}
330
30
100
AcDbSymbolTableRecord
100
AcDbDimStyleTableRecord
  2
STANDARD
 70
     0
 40
0.0
 41
2.0
 42
1.0
 43
3.75
 44
1.0
 73
     0
 74
     0
 77
     1
 78
     8
140
2.0
141
2.5
143
0.0394
147
1.0
171
     4
172
     1
173
     1
271
     0
272
     0
273
     8
274
     4
284
     8
340
23
341
32
343
32
344
32
1001
ACAD_DSTYLE_DIMEXT_LENGTH
1070
   378
1040
15.0
1001
ACAD_DSTYLE_DIMJOGGED_JOGANGLE_SYMBOL
1070
   384
1040
1.570796326794896
  0
DIMSTYLE
105
1337
330
30
100
AcDbSymbolTableRecord
100
AcDbDimStyleTableRecord
  2
AM_ISO
 70
     0
  4
"
 41
2.5
 42
1.0
 43
10.0
 44
1.0
 47
0.1
 48
0.1
 73
     0
 74
     0
 77
     1
 78
     8
 79
     2
140
3.5
141
0.0
143
0.0393701
146
0.71
147
1.5
172
     1
176
   256
177
   256
178
     2
271
     2
272
     3
274
     4
283
     0
284
     8
340
23
371
    -1
372
    -1
1001
ACAD_DSTYLE_DIMARC_LENGTH_SYMBOL
1070
   379
1070
     1
  0
DIMSTYLE
105
1338
330
30
100
AcDbSymbolTableRecord
100
AcDbDimStyleTableRecord
  2
AM_ISO$3
 70
     0
  4
"
 41
2.5
 42
1.0
 43
10.0
 44
1.0
 47
0.1
 48
0.1
 73
     0
 77
     1
 78
     8
 79
     2
140
3.5
141
0.0
143
0.0393701
146
0.71
147
1.5
176
   256
177
   256
178
     2
271
     2
272
     3
274
     4
283
     0
284
     8
288
     1
289
     0
340
23
371
    -1
372
    -1
1001
ACAD_DSTYLE_DIMARC_LENGTH_SYMBOL
1070
   379
1070
     1
  0
DIMSTYLE
105
1339
330
30
100
AcDbSymbolTableRecord
100
AcDbDimStyleTableRecord
  2
AM_ISO$4
 70
     0
  4
"
 41
2.5
 42
1.0
 43
10.0
 44
1.0
 47
0.1
 48
0.1
 73
     0
 77
     1
 78
     8
 79
     2
140
3.5
141
0.0
143
0.0393701
146
0.71
147
1.5
176
   256
177
   256
178
     2
271
     2
272
     3
274
     4
283
     0
284
     8
288
     1
289
     0
340
23
371
    -1
372
    -1
1001
ACAD_DSTYLE_DIMARC_LENGTH_SYMBOL
1070
   379
1070
     1
  0
DIMSTYLE
105
133A
330
30
100
AcDbSymbolTableRecord
100
AcDbDimStyleTableRecord
  2
AM_ISO$6
 70
     0
  4
"
 41
2.5
 42
1.0
 43
10.0
 44
1.0
 47
0.1
 48
0.1
 73
     0
 74
     0
 78
     8
 79
     2
140
3.5
141
0.0
143
0.0393701
146
0.71
147
1.5
172
     1
176
   256
177
   256
178
     2
271
     2
272
     3
274
     4
283
     0
284
     8
340
23
371
    -1
372
    -1
1001
ACAD_DSTYLE_DIMARC_LENGTH_SYMBOL
1070
   379
1070
     1
  0
DIMSTYLE
105
133B
330
30
100
AcDbSymbolTableRecord
100
AcDbDimStyleTableRecord
  2
AM_ISO$7
 70
     0
  4
"
 41
2.5
 42
1.0
 43
10.0
 44
1.0
 47
0.1
 48
0.1
 73
     0
 74
     0
 77
     1
 78
     8
 79
     2
140
5.0
141
0.0
143
0.0393701
146
0.71
147
1.5
172
     1
176
   256
177
   256
178
     2
271
     2
272
     3
274
     4
283
     0
284
     8
340
23
371
    -1
372
    -1
1001
ACAD_DSTYLE_DIMARC_LENGTH_SYMBOL
1070
   379
1070
     1
  0
DIMSTYLE
105
133C
330
30
100
AcDbSymbolTableRecord
100
AcDbDimStyleTableRecord
  2
AM_ISO$SF
 70
     0
  4
"
 41
2.5
 42
1.0
 43
10.0
 44
1.0
 47
0.1
 48
0.1
 73
     0
 74
     0
 75
     1
 76
     1
 77
     1
 78
     8
 79
     2
140
3.5
141
0.0
143
0.0393701
146
0.71
147
1.5
172
     1
176
   256
177
   256
178
     2
271
     2
272
     3
274
     4
283
     0
284
     8
340
23
371
    -1
372
    -1
1001
ACAD_DSTYLE_DIMARC_LENGTH_SYMBOL
1070
   379
1070
     1
  0
DIMSTYLE
105
1341
330
30
100
AcDbSymbolTableRecord
100
AcDbDimStyleTableRecord
  2
AM_ISO$SH
 70
     0
  4
"
 41
2.5
 42
1.0
 43
10.0
 44
1.0
 47
0.1
 48
0.1
 73
     0
 74
     0
 75
     1
 76
     1
 77
     1
 78
     8
 79
     2
140
3.5
141
0.0
143
0.0393701
144
2.0
146
0.71
147
1.5
172
     1
173
     1
176
   256
177
   256
178
     2
271
     2
272
     3
274
     4
283
     0
284
     8
340
23
343
133D
371
    -1
372
    -1
1001
ACAD_DSTYLE_DIMARC_LENGTH_SYMBOL
1070
   379
1070
     1
  0
DIMSTYLE
105
1349
330
30
100
AcDbSymbolTableRecord
100
AcDbDimStyleTableRecord
  2
STANDARD1
 70
     0
 40
10.0
 41
2.5
 42
0.625
 43
3.75
 44
1.25
 77
     1
 78
     8
140
2.5
141
0.0
147
1.0
173
     1
284
     8
340
23
341
32
343
32
344
32
  0
DIMSTYLE
105
134A
330
30
100
AcDbSymbolTableRecord
100
AcDbDimStyleTableRecord
  2
AM_JIS
 70
     0
  4
"
 40
10.0
 41
2.5
 42
1.0
 43
10.0
 44
1.0
 47
0.1
 48
0.1
 73
     0
 74
     0
 77
     3
 78
     8
 79
     2
140
3.5
141
0.0
143
0.0393701
146
0.71
147
1.5
172
     1
176
   256
177
   256
178
     2
271
     2
272
     3
274
     4
283
     0
284
     8
340
23
341
32
342
32
343
32
344
32
371
    -1
372
    -1
1001
ACAD_DSTYLE_DIMJOGGED_JOGANGLE_SYMBOL
1070
   384
1040
0.7853981633974483
1001
ACAD_DSTYLE_DIMARC_LENGTH_SYMBOL
1070
   379
1070
     1
  0
ENDTAB
  0
TABLE
  2
BLOCK_RECORD
  5
1
330
0
100
AcDbSymbolTable
 70
    36
  0
BLOCK_RECORD
  5
2
102
{ACAD_XDICTIONARY
360
3
102
}
330
1
100
AcDbSymbolTableRecord
100
AcDbBlockTableRecord
  2
*MODEL_SPACE
340
16
  0
BLOCK_RECORD
  5
18
330
1
100
AcDbSymbolTableRecord
100
AcDbBlockTableRecord
  2
*Paper_Space
340
1B
  0
BLOCK_RECORD
  5
32
330
1
100
AcDbSymbolTableRecord
100
AcDbBlockTableRecord
  2
_OPEN30
340
0
102
{BLKREFS
331
11FA
331
11FB
331
1203
331
1204
331
120C
331
120D
331
1215
331
1216
331
121E
331
121F
331
1227
331
1228
331
1230
331
1231
331
15E3
331
15E4
331
15F0
331
15F1
331
15FD
331
15FE
331
162D
331
162E
331
1636
331
1637
331
163F
331
1640
331
174E
331
174F
331
1FDE
331
1FDF
331
1FFD
331
1FFE
331
201E
331
201F
331
203D
331
203E
331
204A
331
204B
331
2057
331
2058
331
2064
331
2065
331
2071
331
2072
331
207E
331
207F
331
25CD
331
25CE
331
25DC
331
25DD
331
25E9
331
25EA
331
25F6
331
25F7
331
2634
331
2635
331
2641
331
2642
331
264E
331
264F
331
265B
331
265C
331
2668
331
2669
102
}
  0
BLOCK_RECORD
  5
B89
330
1
100
AcDbSymbolTableRecord
100
AcDbBlockTableRecord
  2
*D1
340
0
  0
BLOCK_RECORD
  5
B96
330
1
100
AcDbSymbolTableRecord
100
AcDbBlockTableRecord
  2
*D2
340
0
  0
BLOCK_RECORD
  5
BA3
330
1
100
AcDbSymbolTableRecord
100
AcDbBlockTableRecord
  2
*D3
340
0
  0
BLOCK_RECORD
  5
BB0
330
1
100
AcDbSymbolTableRecord
100
AcDbBlockTableRecord
  2
*D4
340
0
  0
BLOCK_RECORD
  5
BBD
330
1
100
AcDbSymbolTableRecord
100
AcDbBlockTableRecord
  2
*D5
340
0
  0
BLOCK_RECORD
  5
BCA
330
1
100
AcDbSymbolTableRecord
100
AcDbBlockTableRecord
  2
*D6
340
0
  0
BLOCK_RECORD
  5
BD7
330
1
100
AcDbSymbolTableRecord
100
AcDbBlockTableRecord
  2
*D7
340
0
  0
BLOCK_RECORD
  5
C92
330
1
100
AcDbSymbolTableRecord
100
AcDbBlockTableRecord
  2
_DOTBLANK
340
0
  0
BLOCK_RECORD
  5
133D
330
1
100
AcDbSymbolTableRecord
100
AcDbBlockTableRecord
  2
GENAXEH
340
0
  0
BLOCK_RECORD
  5
15DD
330
1
100
AcDbSymbolTableRecord
100
AcDbBlockTableRecord
  2
*D10
340
0
  0
BLOCK_RECORD
  5
15EA
330
1
100
AcDbSymbolTableRecord
100
AcDbBlockTableRecord
  2
*D11
340
0
  0
BLOCK_RECORD
  5
15F7
330
1
100
AcDbSymbolTableRecord
100
AcDbBlockTableRecord
  2
*D12
340
0
  0
BLOCK_RECORD
  5
1604
330
1
100
AcDbSymbolTableRecord
100
AcDbBlockTableRecord
  2
*D13
340
0
  0
BLOCK_RECORD
  5
1611
330
1
100
AcDbSymbolTableRecord
100
AcDbBlockTableRecord
  2
*D14
340
0
  0
BLOCK_RECORD
  5
161E
330
1
100
AcDbSymbolTableRecord
100
AcDbBlockTableRecord
  2
*D15
340
0
  0
BLOCK_RECORD
  5
1646
330
1
100
AcDbSymbolTableRecord
100
AcDbBlockTableRecord
  2
*D16
340
0
  0
BLOCK_RECORD
  5
1FD8
330
1
100
AcDbSymbolTableRecord
100
AcDbBlockTableRecord
  2
*D17
340
0
  0
BLOCK_RECORD
  5
1FE5
330
1
100
AcDbSymbolTableRecord
100
AcDbBlockTableRecord
  2
*D18
340
0
  0
BLOCK_RECORD
  5
1FF7
330
1
100
AcDbSymbolTableRecord
100
AcDbBlockTableRecord
  2
*D19
340
0
  0
BLOCK_RECORD
  5
2025
330
1
100
AcDbSymbolTableRecord
100
AcDbBlockTableRecord
  2
*D20
340
0
  0
BLOCK_RECORD
  5
2044
330
1
100
AcDbSymbolTableRecord
100
AcDbBlockTableRecord
  2
*D21
340
0
  0
BLOCK_RECORD
  5
2051
330
1
100
AcDbSymbolTableRecord
100
AcDbBlockTableRecord
  2
*D22
340
0
  0
BLOCK_RECORD
  5
205E
330
1
100
AcDbSymbolTableRecord
100
AcDbBlockTableRecord
  2
*D23
340
0
  0
BLOCK_RECORD
  5
206B
330
1
100
AcDbSymbolTableRecord
100
AcDbBlockTableRecord
  2
*D24
340
0
  0
BLOCK_RECORD
  5
2078
330
1
100
AcDbSymbolTableRecord
100
AcDbBlockTableRecord
  2
*D25
340
0
  0
BLOCK_RECORD
  5
25C7
330
1
100
AcDbSymbolTableRecord
100
AcDbBlockTableRecord
  2
*D26
340
0
  0
BLOCK_RECORD
  5
25D4
330
1
100
AcDbSymbolTableRecord
100
AcDbBlockTableRecord
  2
*D27
340
0
  0
BLOCK_RECORD
  5
25E3
330
1
100
AcDbSymbolTableRecord
100
AcDbBlockTableRecord
  2
*D28
340
0
  0
BLOCK_RECORD
  5
25F0
330
1
100
AcDbSymbolTableRecord
100
AcDbBlockTableRecord
  2
*D29
340
0
  0
BLOCK_RECORD
  5
262E
330
1
100
AcDbSymbolTableRecord
100
AcDbBlockTableRecord
  2
*D30
340
0
  0
BLOCK_RECORD
  5
263B
330
1
100
AcDbSymbolTableRecord
100
AcDbBlockTableRecord
  2
*D31
340
0
  0
BLOCK_RECORD
  5
2648
330
1
100
AcDbSymbolTableRecord
100
AcDbBlockTableRecord
  2
*D32
340
0
  0
BLOCK_RECORD
  5
2655
330
1
100
AcDbSymbolTableRecord
100
AcDbBlockTableRecord
  2
*D33
340
0
  0
BLOCK_RECORD
  5
2662
330
1
100
AcDbSymbolTableRecord
100
AcDbBlockTableRecord
  2
*D34
340
0
  0
ENDTAB
  0
ENDSEC
  0
SECTION
  2
BLOCKS
  0
BLOCK
  5
4
330
2
100
AcDbEntity
  8
0
100
AcDbBlockBegin
  2
*MODEL_SPACE
 70
     0
 10
0.0
 20
0.0
 30
0.0
  3
*MODEL_SPACE
  1

  0
ENDBLK
  5
15
330
2
100
AcDbEntity
  8
0
100
AcDbBlockEnd
  0
BLOCK
  5
19
330
18
100
AcDbEntity
 67
     1
  8
0
100
AcDbBlockBegin
  2
*Paper_Space
 70
     0
 10
0.0
 20
0.0
 30
0.0
  3
*Paper_Space
  1

  0
ENDBLK
  5
1A
330
18
100
AcDbEntity
 67
     1
  8
0
100
AcDbBlockEnd
  0
BLOCK
  5
33
330
32
100
AcDbEntity
  8
0
100
AcDbBlockBegin
  2
_OPEN30
 70
     0
 10
0.0
 20
0.0
 30
0.0
  3
_OPEN30
  1

  0
LINE
  5
34
330
32
100
AcDbEntity
  8
0
  6
ByBlock
 62
     0
100
AcDbLine
 10
-1.0
 20
0.26794919
 30
0.0
 11
0.0
 21
0.0
 31
0.0
  0
LINE
  5
35
330
32
100
AcDbEntity
  8
0
  6
ByBlock
 62
     0
100
AcDbLine
 10
0.0
 20
0.0
 30
0.0
 11
-1.0
 21
-0.26794919
 31
0.0
  0
LINE
  5
36
330
32
100
AcDbEntity
  8
0
  6
ByBlock
 62
     0
100
AcDbLine
 10
0.0
 20
0.0
 30
0.0
 11
-1.0
 21
0.0
 31
0.0
  0
ENDBLK
  5
37
330
32
100
AcDbEntity
  8
0
100
AcDbBlockEnd
  0
BLOCK
  5
B93
330
B89
100
AcDbEntity
  8
0
100
AcDbBlockBegin
  2
*D1
 70
     1
 10
0.0
 20
0.0
 30
0.0
  3
*D1
  1

  0
LINE
  5
122D
330
B89
100
AcDbEntity
  8
SIZE
 62
     0
370
    -2
100
AcDbLine
 10
-314.4855110895245
 20
-660.2776313169656
 30
0.0
 11
-357.4203349729813
 21
-660.2776313169656
 31
0.0
  0
LINE
  5
122E
330
B89
100
AcDbEntity
  8
SIZE
 62
     0
370
    -2
100
AcDbLine
 10
-314.4855110895245
 20
-810.2776313169655
 30
0.0
 11
-357.4203349729813
 21
-810.2776313169655
 31
0.0
  0
LINE
  5
122F
330
B89
100
AcDbEntity
  8
SIZE
 62
     0
370
    -2
100
AcDbLine
 10
-352.4203349729813
 20
-670.2776313169656
 30
0.0
 11
-352.4203349729813
 21
-800.2776313169656
 31
0.0
  0
INSERT
  5
1230
330
B89
100
AcDbEntity
  8
SIZE
 62
     0
370
    -2
100
AcDbBlockReference
  2
_OPEN30
 10
-352.4203349729813
 20
-660.2776313169656
 30
0.0
 41
10.0
 42
10.0
 43
10.0
 50
90.0
  0
INSERT
  5
1231
330
B89
100
AcDbEntity
  8
SIZE
 62
     0
370
    -2
100
AcDbBlockReference
  2
_OPEN30
 10
-352.4203349729813
 20
-810.2776313169655
 30
0.0
 41
10.0
 42
10.0
 43
10.0
 50
270.0
  0
MTEXT
  5
1232
330
B89
100
AcDbEntity
  8
SIZE
 62
     0
100
AcDbMText
 10
-362.4203349729812
 20
-735.2776313169656
 30
0.0
 40
10.0
 41
0.0
 71
     5
 72
     1
  1
\A1;150
 11
0.0000000000000001
 21
1.0
 31
0.0
 73
     1
 44
1.0
1001
ACAD
1000
MTEXTBEGIN
1070
    73
1070
     1
1070
    44
1040
1.0
1070
    74
1070
     0
1000
MTEXTEND
  0
POINT
  5
1233
330
B89
100
AcDbEntity
  8
Defpoints
 62
     0
100
AcDbPoint
 10
-309.4855110895245
 20
-660.2776313169656
 30
0.0
  0
POINT
  5
1234
330
B89
100
AcDbEntity
  8
Defpoints
 62
     0
100
AcDbPoint
 10
-309.4855110895245
 20
-810.2776313169655
 30
0.0
  0
POINT
  5
1235
330
B89
100
AcDbEntity
  8
Defpoints
 62
     0
100
AcDbPoint
 10
-352.4203349729813
 20
-810.2776313169655
 30
0.0
  0
ENDBLK
  5
B94
330
B89
100
AcDbEntity
  8
0
100
AcDbBlockEnd
  0
BLOCK
  5
BA0
330
B96
100
AcDbEntity
  8
0
100
AcDbBlockBegin
  2
*D2
 70
     1
 10
0.0
 20
0.0
 30
0.0
  3
*D2
  1

  0
LINE
  5
1224
330
B96
100
AcDbEntity
  8
SIZE
 62
     0
370
    -2
100
AcDbLine
 10
-314.4855110895245
 20
-810.2776313169655
 30
0.0
 11
-357.217762610784
 21
-810.2776313169655
 31
0.0
  0
LINE
  5
1225
330
B96
100
AcDbEntity
  8
SIZE
 62
     0
370
    -2
100
AcDbLine
 10
-314.4855110895245
 20
-960.2776313169655
 30
0.0
 11
-357.217762610784
 21
-960.2776313169655
 31
0.0
  0
LINE
  5
1226
330
B96
100
AcDbEntity
  8
SIZE
 62
     0
370
    -2
100
AcDbLine
 10
-352.2177626107839
 20
-820.2776313169655
 30
0.0
 11
-352.217762610784
 21
-950.2776313169656
 31
0.0
  0
INSERT
  5
1227
330
B96
100
AcDbEntity
  8
SIZE
 62
     0
370
    -2
100
AcDbBlockReference
  2
_OPEN30
 10
-352.2177626107839
 20
-810.2776313169655
 30
0.0
 41
10.0
 42
10.0
 43
10.0
 50
90.0
  0
INSERT
  5
1228
330
B96
100
AcDbEntity
  8
SIZE
 62
     0
370
    -2
100
AcDbBlockReference
  2
_OPEN30
 10
-352.217762610784
 20
-960.2776313169655
 30
0.0
 41
10.0
 42
10.0
 43
10.0
 50
270.0
  0
MTEXT
  5
1229
330
B96
100
AcDbEntity
  8
SIZE
 62
     0
100
AcDbMText
 10
-362.2177626107838
 20
-885.2776313169655
 30
0.0
 40
10.0
 41
0.0
 71
     5
 72
     1
  1
\A1;150
 11
0.0000000000000001
 21
1.0
 31
0.0
 73
     1
 44
1.0
1001
ACAD
1000
MTEXTBEGIN
1070
    73
1070
     1
1070
    44
1040
1.0
1070
    74
1070
     0
1000
MTEXTEND
  0
POINT
  5
122A
330
B96
100
AcDbEntity
  8
Defpoints
 62
     0
100
AcDbPoint
 10
-309.4855110895245
 20
-810.2776313169655
 30
0.0
  0
POINT
  5
122B
330
B96
100
AcDbEntity
  8
Defpoints
 62
     0
100
AcDbPoint
 10
-309.4855110895245
 20
-960.2776313169655
 30
0.0
  0
POINT
  5
122C
330
B96
100
AcDbEntity
  8
Defpoints
 62
     0
100
AcDbPoint
 10
-352.217762610784
 20
-960.2776313169655
 30
0.0
  0
ENDBLK
  5
BA1
330
B96
100
AcDbEntity
  8
0
100
AcDbBlockEnd
  0
BLOCK
  5
BAD
330
BA3
100
AcDbEntity
  8
0
100
AcDbBlockBegin
  2
*D3
 70
     1
 10
0.0
 20
0.0
 30
0.0
  3
*D3
  1

  0
LINE
  5
121B
330
BA3
100
AcDbEntity
  8
SIZE
 62
     0
370
    -2
100
AcDbLine
 10
-314.4855110895245
 20
-960.2776313169655
 30
0.0
 11
-356.9877206922773
 21
-960.2776313169655
 31
0.0
  0
LINE
  5
121C
330
BA3
100
AcDbEntity
  8
SIZE
 62
     0
370
    -2
100
AcDbLine
 10
-314.4855110895245
 20
-1110.277631316965
 30
0.0
 11
-356.9877206922773
 21
-1110.277631316965
 31
0.0
  0
LINE
  5
121D
330
BA3
100
AcDbEntity
  8
SIZE
 62
     0
370
    -2
100
AcDbLine
 10
-351.9877206922773
 20
-970.2776313169657
 30
0.0
 11
-351.9877206922773
 21
-1100.277631316965
 31
0.0
  0
INSERT
  5
121E
330
BA3
100
AcDbEntity
  8
SIZE
 62
     0
370
    -2
100
AcDbBlockReference
  2
_OPEN30
 10
-351.9877206922773
 20
-960.2776313169655
 30
0.0
 41
10.0
 42
10.0
 43
10.0
 50
90.0
  0
INSERT
  5
121F
330
BA3
100
AcDbEntity
  8
SIZE
 62
     0
370
    -2
100
AcDbBlockReference
  2
_OPEN30
 10
-351.9877206922773
 20
-1110.277631316965
 30
0.0
 41
10.0
 42
10.0
 43
10.0
 50
270.0
  0
MTEXT
  5
1220
330
BA3
100
AcDbEntity
  8
SIZE
 62
     0
100
AcDbMText
 10
-361.9877206922772
 20
-1035.277631316965
 30
0.0
 40
10.0
 41
0.0
 71
     5
 72
     1
  1
\A1;150
 11
0.0000000000000001
 21
1.0
 31
0.0
 73
     1
 44
1.0
1001
ACAD
1000
MTEXTBEGIN
1070
    73
1070
     1
1070
    44
1040
1.0
1070
    74
1070
     0
1000
MTEXTEND
  0
POINT
  5
1221
330
BA3
100
AcDbEntity
  8
Defpoints
 62
     0
100
AcDbPoint
 10
-309.4855110895245
 20
-960.2776313169655
 30
0.0
  0
POINT
  5
1222
330
BA3
100
AcDbEntity
  8
Defpoints
 62
     0
100
AcDbPoint
 10
-309.4855110895245
 20
-1110.277631316965
 30
0.0
  0
POINT
  5
1223
330
BA3
100
AcDbEntity
  8
Defpoints
 62
     0
100
AcDbPoint
 10
-351.9877206922773
 20
-1110.277631316965
 30
0.0
  0
ENDBLK
  5
BAE
330
BA3
100
AcDbEntity
  8
0
100
AcDbBlockEnd
  0
BLOCK
  5
BBA
330
BB0
100
AcDbEntity
  8
0
100
AcDbBlockBegin
  2
*D4
 70
     1
 10
0.0
 20
0.0
 30
0.0
  3
*D4
  1

  0
LINE
  5
1212
330
BB0
100
AcDbEntity
  8
SIZE
 62
     0
370
    -2
100
AcDbLine
 10
-314.4855110895245
 20
-1110.277631316965
 30
0.0
 11
-356.8250825966313
 21
-1110.277631316965
 31
0.0
  0
LINE
  5
1213
330
BB0
100
AcDbEntity
  8
SIZE
 62
     0
370
    -2
100
AcDbLine
 10
-314.4855110895245
 20
-1260.277631316965
 30
0.0
 11
-356.8250825966314
 21
-1260.277631316965
 31
0.0
  0
LINE
  5
1214
330
BB0
100
AcDbEntity
  8
SIZE
 62
     0
370
    -2
100
AcDbLine
 10
-351.8250825966313
 20
-1120.277631316965
 30
0.0
 11
-351.8250825966314
 21
-1250.277631316965
 31
0.0
  0
INSERT
  5
1215
330
BB0
100
AcDbEntity
  8
SIZE
 62
     0
370
    -2
100
AcDbBlockReference
  2
_OPEN30
 10
-351.8250825966313
 20
-1110.277631316965
 30
0.0
 41
10.0
 42
10.0
 43
10.0
 50
90.0
  0
INSERT
  5
1216
330
BB0
100
AcDbEntity
  8
SIZE
 62
     0
370
    -2
100
AcDbBlockReference
  2
_OPEN30
 10
-351.8250825966314
 20
-1260.277631316965
 30
0.0
 41
10.0
 42
10.0
 43
10.0
 50
270.0
  0
MTEXT
  5
1217
330
BB0
100
AcDbEntity
  8
SIZE
 62
     0
100
AcDbMText
 10
-361.8250825966311
 20
-1185.277631316965
 30
0.0
 40
10.0
 41
0.0
 71
     5
 72
     1
  1
\A1;150
 11
0.0000000000000001
 21
1.0
 31
0.0
 73
     1
 44
1.0
1001
ACAD
1000
MTEXTBEGIN
1070
    73
1070
     1
1070
    44
1040
1.0
1070
    74
1070
     0
1000
MTEXTEND
  0
POINT
  5
1218
330
BB0
100
AcDbEntity
  8
Defpoints
 62
     0
100
AcDbPoint
 10
-309.4855110895245
 20
-1110.277631316965
 30
0.0
  0
POINT
  5
1219
330
BB0
100
AcDbEntity
  8
Defpoints
 62
     0
100
AcDbPoint
 10
-309.4855110895245
 20
-1260.277631316965
 30
0.0
  0
POINT
  5
121A
330
BB0
100
AcDbEntity
  8
Defpoints
 62
     0
100
AcDbPoint
 10
-351.8250825966314
 20
-1260.277631316965
 30
0.0
  0
ENDBLK
  5
BBB
330
BB0
100
AcDbEntity
  8
0
100
AcDbBlockEnd
  0
BLOCK
  5
BC7
330
BBD
100
AcDbEntity
  8
0
100
AcDbBlockBegin
  2
*D5
 70
     1
 10
0.0
 20
0.0
 30
0.0
  3
*D5
  1

  0
LINE
  5
1209
330
BBD
100
AcDbEntity
  8
SIZE
 62
     0
370
    -2
100
AcDbLine
 10
-282.4855110895383
 20
-579.2776313169651
 30
0.0
 11
-398.1681945371564
 21
-579.2776313169651
 31
0.0
  0
LINE
  5
120A
330
BBD
100
AcDbEntity
  8
SIZE
 62
     0
370
    -2
100
AcDbLine
 10
-243.9855110895382
 20
-1341.277631316965
 30
0.0
 11
-398.1681945371565
 21
-1341.277631316965
 31
0.0
  0
LINE
  5
120B
330
BBD
100
AcDbEntity
  8
SIZE
 62
     0
370
    -2
100
AcDbLine
 10
-393.1681945371563
 20
-589.2776313169647
 30
0.0
 11
-393.1681945371565
 21
-1331.277631316965
 31
0.0
  0
INSERT
  5
120C
330
BBD
100
AcDbEntity
  8
SIZE
 62
     0
370
    -2
100
AcDbBlockReference
  2
_OPEN30
 10
-393.1681945371563
 20
-579.2776313169651
 30
0.0
 41
10.0
 42
10.0
 43
10.0
 50
90.0
  0
INSERT
  5
120D
330
BBD
100
AcDbEntity
  8
SIZE
 62
     0
370
    -2
100
AcDbBlockReference
  2
_OPEN30
 10
-393.1681945371565
 20
-1341.277631316965
 30
0.0
 41
10.0
 42
10.0
 43
10.0
 50
270.0
  0
MTEXT
  5
120E
330
BBD
100
AcDbEntity
  8
SIZE
 62
     0
100
AcDbMText
 10
-403.1681945371563
 20
-960.277631316965
 30
0.0
 40
10.0
 41
0.0
 71
     5
 72
     1
  1
\A1;762
 11
0.0000000000000001
 21
1.0
 31
0.0
 73
     1
 44
1.0
1001
ACAD
1000
MTEXTBEGIN
1070
    73
1070
     1
1070
    44
1040
1.0
1070
    74
1070
     0
1000
MTEXTEND
  0
POINT
  5
120F
330
BBD
100
AcDbEntity
  8
Defpoints
 62
     0
100
AcDbPoint
 10
-277.4855110895383
 20
-579.2776313169651
 30
0.0
  0
POINT
  5
1210
330
BBD
100
AcDbEntity
  8
Defpoints
 62
     0
100
AcDbPoint
 10
-238.9855110895382
 20
-1341.277631316965
 30
0.0
  0
POINT
  5
1211
330
BBD
100
AcDbEntity
  8
Defpoints
 62
     0
100
AcDbPoint
 10
-393.1681945371565
 20
-1341.277631316965
 30
0.0
  0
ENDBLK
  5
BC8
330
BBD
100
AcDbEntity
  8
0
100
AcDbBlockEnd
  0
BLOCK
  5
BD4
330
BCA
100
AcDbEntity
  8
0
100
AcDbBlockBegin
  2
*D6
 70
     1
 10
0.0
 20
0.0
 30
0.0
  3
*D6
  1

  0
LINE
  5
11F7
330
BCA
100
AcDbEntity
  8
SIZE
 62
     0
370
    -2
100
AcDbLine
 10
-309.4855110895245
 20
-655.2776313169657
 30
0.0
 11
-309.4855110895245
 21
-533.7200016120257
 31
0.0
  0
LINE
  5
11F8
330
BCA
100
AcDbEntity
  8
SIZE
 62
     0
370
    -2
100
AcDbLine
 10
569.5144889104623
 20
-655.2776313169657
 30
0.0
 11
569.5144889104623
 21
-533.7200016120257
 31
0.0
  0
LINE
  5
11F9
330
BCA
100
AcDbEntity
  8
SIZE
 62
     0
370
    -2
100
AcDbLine
 10
-299.4855110895245
 20
-538.7200016120257
 30
0.0
 11
559.5144889104623
 21
-538.7200016120257
 31
0.0
  0
INSERT
  5
11FA
330
BCA
100
AcDbEntity
  8
SIZE
 62
     0
370
    -2
100
AcDbBlockReference
  2
_OPEN30
 10
-309.4855110895245
 20
-538.7200016120257
 30
0.0
 41
10.0
 42
10.0
 43
10.0
 50
180.0
  0
INSERT
  5
11FB
330
BCA
100
AcDbEntity
  8
SIZE
 62
     0
370
    -2
100
AcDbBlockReference
  2
_OPEN30
 10
569.5144889104623
 20
-538.7200016120257
 30
0.0
 41
10.0
 42
10.0
 43
10.0
  0
MTEXT
  5
11FC
330
BCA
100
AcDbEntity
  8
SIZE
 62
     0
100
AcDbMText
 10
130.0144889104689
 20
-528.7200016120257
 30
0.0
 40
10.0
 41
0.0
 71
     5
 72
     1
  1
\A1;879
 73
     1
 44
1.0
1001
ACAD
1000
MTEXTBEGIN
1070
    73
1070
     1
1070
    44
1040
1.0
1070
    74
1070
     0
1000
MTEXTEND
  0
POINT
  5
11FD
330
BCA
100
AcDbEntity
  8
Defpoints
 62
     0
100
AcDbPoint
 10
-309.4855110895245
 20
-660.2776313169656
 30
0.0
  0
POINT
  5
11FE
330
BCA
100
AcDbEntity
  8
Defpoints
 62
     0
100
AcDbPoint
 10
569.5144889104623
 20
-660.2776313169656
 30
0.0
  0
POINT
  5
11FF
330
BCA
100
AcDbEntity
  8
Defpoints
 62
     0
100
AcDbPoint
 10
569.5144889104623
 20
-538.7200016120257
 30
0.0
  0
ENDBLK
  5
BD5
330
BCA
100
AcDbEntity
  8
0
100
AcDbBlockEnd
  0
BLOCK
  5
BE1
330
BD7
100
AcDbEntity
  8
0
100
AcDbBlockBegin
  2
*D7
 70
     1
 10
0.0
 20
0.0
 30
0.0
  3
*D7
  1

  0
LINE
  5
1200
330
BD7
100
AcDbEntity
  8
SIZE
 62
     0
370
    -2
100
AcDbLine
 10
-325.9855110895246
 20
-622.2776313169653
 30
0.0
 11
-325.9855110895246
 21
-507.1337428596361
 31
0.0
  0
LINE
  5
1201
330
BD7
100
AcDbEntity
  8
SIZE
 62
     0
370
    -2
100
AcDbLine
 10
586.0144889104623
 20
-622.2776313169653
 30
0.0
 11
586.0144889104623
 21
-507.1337428596361
 31
0.0
  0
LINE
  5
1202
330
BD7
100
AcDbEntity
  8
SIZE
 62
     0
370
    -2
100
AcDbLine
 10
-315.9855110895246
 20
-512.1337428596361
 30
0.0
 11
576.0144889104623
 21
-512.1337428596361
 31
0.0
  0
INSERT
  5
1203
330
BD7
100
AcDbEntity
  8
SIZE
 62
     0
370
    -2
100
AcDbBlockReference
  2
_OPEN30
 10
-325.9855110895246
 20
-512.1337428596361
 30
0.0
 41
10.0
 42
10.0
 43
10.0
 50
180.0
  0
INSERT
  5
1204
330
BD7
100
AcDbEntity
  8
SIZE
 62
     0
370
    -2
100
AcDbBlockReference
  2
_OPEN30
 10
586.0144889104623
 20
-512.1337428596361
 30
0.0
 41
10.0
 42
10.0
 43
10.0
  0
MTEXT
  5
1205
330
BD7
100
AcDbEntity
  8
SIZE
 62
     0
100
AcDbMText
 10
130.0144889104689
 20
-502.1337428596361
 30
0.0
 40
10.0
 41
0.0
 71
     5
 72
     1
  1
\A1;912
 73
     1
 44
1.0
1001
ACAD
1000
MTEXTBEGIN
1070
    73
1070
     1
1070
    44
1040
1.0
1070
    74
1070
     0
1000
MTEXTEND
  0
POINT
  5
1206
330
BD7
100
AcDbEntity
  8
Defpoints
 62
     0
100
AcDbPoint
 10
-325.9855110895246
 20
-627.2776313169653
 30
0.0
  0
POINT
  5
1207
330
BD7
100
AcDbEntity
  8
Defpoints
 62
     0
100
AcDbPoint
 10
586.0144889104623
 20
-627.2776313169653
 30
0.0
  0
POINT
  5
1208
330
BD7
100
AcDbEntity
  8
Defpoints
 62
     0
100
AcDbPoint
 10
586.0144889104623
 20
-512.1337428596361
 30
0.0
  0
ENDBLK
  5
BE2
330
BD7
100
AcDbEntity
  8
0
100
AcDbBlockEnd
  0
BLOCK
  5
C93
330
C92
100
AcDbEntity
  8
0
100
AcDbBlockBegin
  2
_DOTBLANK
 70
     0
 10
0.0
 20
0.0
 30
0.0
  3
_DOTBLANK
  1

  0
CIRCLE
  5
C94
330
C92
100
AcDbEntity
  8
0
  6
Continuous
 62
     7
100
AcDbCircle
 10
0.0
 20
0.0
 30
0.0
 40
0.5
  0
LINE
  5
C95
330
C92
100
AcDbEntity
  8
0
  6
Continuous
 62
     7
100
AcDbLine
 10
-0.5
 20
0.0
 30
0.0
 11
-1.0
 21
0.0
 31
0.0
  0
ENDBLK
  5
C96
330
C92
100
AcDbEntity
  8
0
100
AcDbBlockEnd
  0
BLOCK
  5
133F
330
133D
100
AcDbEntity
  8
0
100
AcDbBlockBegin
  2
GENAXEH
 70
     0
 10
0.0
 20
0.0
 30
0.0
  3
GENAXEH
  1

  0
LINE
  5
133E
330
133D
100
AcDbEntity
  8
0
100
AcDbLine
 10
-1.0
 20
0.0
 30
0.0
 11
1.0
 21
0.0
 31
0.0
  0
ENDBLK
  5
1340
330
133D
100
AcDbEntity
  8
0
100
AcDbBlockEnd
  0
BLOCK
  5
15DE
330
15DD
100
AcDbEntity
  8
0
100
AcDbBlockBegin
  2
*D10
 70
     1
 10
0.0
 20
0.0
 30
0.0
  3
*D10
  1

  0
LINE
  5
15E0
330
15DD
100
AcDbEntity
  8
SIZE
 62
     0
370
    -2
100
AcDbLine
 10
994.4274373545963
 20
-601.39918749251
 30
0.0
 11
994.4274373545963
 21
-496.9649011365581
 31
0.0
  0
LINE
  5
15E1
330
15DD
100
AcDbEntity
  8
SIZE
 62
     0
370
    -2
100
AcDbLine
 10
1870.427437354599
 20
-601.39918749251
 30
0.0
 11
1870.427437354599
 21
-496.9649011365581
 31
0.0
  0
LINE
  5
15E2
330
15DD
100
AcDbEntity
  8
SIZE
 62
     0
370
    -2
100
AcDbLine
 10
1014.427437354596
 20
-506.9649011365583
 30
0.0
 11
1850.427437354599
 21
-506.9649011365583
 31
0.0
  0
INSERT
  5
15E3
330
15DD
100
AcDbEntity
  8
SIZE
 62
     0
370
    -2
100
AcDbBlockReference
  2
_OPEN30
 10
994.4274373545963
 20
-506.9649011365583
 30
0.0
 41
20.0
 42
20.0
 43
20.0
 50
180.0
  0
INSERT
  5
15E4
330
15DD
100
AcDbEntity
  8
SIZE
 62
     0
370
    -2
100
AcDbBlockReference
  2
_OPEN30
 10
1870.427437354599
 20
-506.9649011365583
 30
0.0
 41
20.0
 42
20.0
 43
20.0
  0
MTEXT
  5
15E5
330
15DD
100
AcDbEntity
  8
SIZE
 62
     0
100
AcDbMText
 10
1432.427437354597
 20
-486.9649011365583
 30
0.0
 40
20.0
 41
0.0
 71
     5
 72
     1
  1
\A1;876
 73
     1
 44
1.0
1001
ACAD
1000
MTEXTBEGIN
1070
    73
1070
     1
1070
    44
1040
1.0
1070
    74
1070
     0
1000
MTEXTEND
  0
POINT
  5
15E6
330
15DD
100
AcDbEntity
  8
Defpoints
 62
     0
100
AcDbPoint
 10
994.4274373545963
 20
-611.3991874925098
 30
0.0
  0
POINT
  5
15E7
330
15DD
100
AcDbEntity
  8
Defpoints
 62
     0
100
AcDbPoint
 10
1870.427437354599
 20
-611.3991874925098
 30
0.0
  0
POINT
  5
15E8
330
15DD
100
AcDbEntity
  8
Defpoints
 62
     0
100
AcDbPoint
 10
1870.427437354599
 20
-506.9649011365583
 30
0.0
  0
ENDBLK
  5
15DF
330
15DD
100
AcDbEntity
  8
0
100
AcDbBlockEnd
  0
BLOCK
  5
15EB
330
15EA
100
AcDbEntity
  8
0
100
AcDbBlockBegin
  2
*D11
 70
     1
 10
0.0
 20
0.0
 30
0.0
  3
*D11
  1

  0
LINE
  5
15ED
330
15EA
100
AcDbEntity
  8
SIZE
 62
     0
370
    -2
100
AcDbLine
 10
976.4274373545964
 20
-601.89918749251
 30
0.0
 11
976.4274373545964
 21
-456.8316133035627
 31
0.0
  0
LINE
  5
15EE
330
15EA
100
AcDbEntity
  8
SIZE
 62
     0
370
    -2
100
AcDbLine
 10
1888.427437354597
 20
-601.89918749251
 30
0.0
 11
1888.427437354597
 21
-456.8316133035627
 31
0.0
  0
LINE
  5
15EF
330
15EA
100
AcDbEntity
  8
SIZE
 62
     0
370
    -2
100
AcDbLine
 10
996.4274373545963
 20
-466.8316133035624
 30
0.0
 11
1868.427437354597
 21
-466.8316133035624
 31
0.0
  0
INSERT
  5
15F0
330
15EA
100
AcDbEntity
  8
SIZE
 62
     0
370
    -2
100
AcDbBlockReference
  2
_OPEN30
 10
976.4274373545964
 20
-466.8316133035624
 30
0.0
 41
20.0
 42
20.0
 43
20.0
 50
180.0
  0
INSERT
  5
15F1
330
15EA
100
AcDbEntity
  8
SIZE
 62
     0
370
    -2
100
AcDbBlockReference
  2
_OPEN30
 10
1888.427437354597
 20
-466.8316133035624
 30
0.0
 41
20.0
 42
20.0
 43
20.0
  0
MTEXT
  5
15F2
330
15EA
100
AcDbEntity
  8
SIZE
 62
     0
100
AcDbMText
 10
1432.427437354597
 20
-446.8316133035626
 30
0.0
 40
20.0
 41
0.0
 71
     5
 72
     1
  1
\A1;912
 73
     1
 44
1.0
1001
ACAD
1000
MTEXTBEGIN
1070
    73
1070
     1
1070
    44
1040
1.0
1070
    74
1070
     0
1000
MTEXTEND
  0
POINT
  5
15F3
330
15EA
100
AcDbEntity
  8
Defpoints
 62
     0
100
AcDbPoint
 10
976.4274373545964
 20
-611.89918749251
 30
0.0
  0
POINT
  5
15F4
330
15EA
100
AcDbEntity
  8
Defpoints
 62
     0
100
AcDbPoint
 10
1888.427437354597
 20
-611.89918749251
 30
0.0
  0
POINT
  5
15F5
330
15EA
100
AcDbEntity
  8
Defpoints
 62
     0
100
AcDbPoint
 10
1888.427437354597
 20
-466.8316133035624
 30
0.0
  0
ENDBLK
  5
15EC
330
15EA
100
AcDbEntity
  8
0
100
AcDbBlockEnd
  0
BLOCK
  5
15F8
330
15F7
100
AcDbEntity
  8
0
100
AcDbBlockBegin
  2
*D12
 70
     1
 10
0.0
 20
0.0
 30
0.0
  3
*D12
  1

  0
LINE
  5
15FA
330
15F7
100
AcDbEntity
  8
SIZE
 62
     0
370
    -2
100
AcDbLine
 10
970.9274373545964
 20
-624.89918749251
 30
0.0
 11
927.4389743145887
 21
-624.89918749251
 31
0.0
  0
LINE
  5
15FB
330
15F7
100
AcDbEntity
  8
SIZE
 62
     0
370
    -2
100
AcDbLine
 10
970.9274373545964
 20
-774.8991874925097
 30
0.0
 11
927.4389743145887
 21
-774.8991874925097
 31
0.0
  0
LINE
  5
15FC
330
15F7
100
AcDbEntity
  8
SIZE
 62
     0
370
    -2
100
AcDbLine
 10
937.4389743145892
 20
-644.8991874925098
 30
0.0
 11
937.4389743145892
 21
-754.8991874925099
 31
0.0
  0
INSERT
  5
15FD
330
15F7
100
AcDbEntity
  8
SIZE
 62
     0
370
    -2
100
AcDbBlockReference
  2
_OPEN30
 10
937.4389743145892
 20
-624.89918749251
 30
0.0
 41
20.0
 42
20.0
 43
20.0
 50
90.0
  0
INSERT
  5
15FE
330
15F7
100
AcDbEntity
  8
SIZE
 62
     0
370
    -2
100
AcDbBlockReference
  2
_OPEN30
 10
937.4389743145888
 20
-774.8991874925097
 30
0.0
 41
20.0
 42
20.0
 43
20.0
 50
270.0
  0
MTEXT
  5
15FF
330
15F7
100
AcDbEntity
  8
SIZE
 62
     0
100
AcDbMText
 10
917.4389743145892
 20
-699.8991874925097
 30
0.0
 40
20.0
 41
0.0
 71
     5
 72
     1
  1
\A1;150
 11
0.0000000000000001
 21
1.0
 31
0.0
 73
     1
 44
1.0
1001
ACAD
1000
MTEXTBEGIN
1070
    73
1070
     1
1070
    44
1040
1.0
1070
    74
1070
     0
1000
MTEXTEND
  0
POINT
  5
1600
330
15F7
100
AcDbEntity
  8
Defpoints
 62
     0
100
AcDbPoint
 10
980.9274373545964
 20
-624.89918749251
 30
0.0
  0
POINT
  5
1601
330
15F7
100
AcDbEntity
  8
Defpoints
 62
     0
100
AcDbPoint
 10
980.9274373545964
 20
-774.8991874925097
 30
0.0
  0
POINT
  5
1602
330
15F7
100
AcDbEntity
  8
Defpoints
 62
     0
100
AcDbPoint
 10
937.4389743145888
 20
-774.8991874925097
 30
0.0
  0
ENDBLK
  5
15F9
330
15F7
100
AcDbEntity
  8
0
100
AcDbBlockEnd
  0
BLOCK
  5
1605
330
1604
100
AcDbEntity
  8
0
100
AcDbBlockBegin
  2
*D13
 70
     1
 10
0.0
 20
0.0
 30
0.0
  3
*D13
  1

  0
LINE
  5
162A
330
1604
100
AcDbEntity
  8
SIZE
 62
     0
370
    -2
100
AcDbLine
 10
970.9274373545964
 20
-774.8991874925097
 30
0.0
 11
927.4389743145887
 21
-774.8991874925097
 31
0.0
  0
LINE
  5
162B
330
1604
100
AcDbEntity
  8
SIZE
 62
     0
370
    -2
100
AcDbLine
 10
953.4287393207524
 20
-924.8991874925101
 30
0.0
 11
927.4389743145887
 21
-924.8991874925101
 31
0.0
  0
LINE
  5
162C
330
1604
100
AcDbEntity
  8
SIZE
 62
     0
370
    -2
100
AcDbLine
 10
937.4389743145888
 20
-794.8991874925098
 30
0.0
 11
937.4389743145888
 21
-904.8991874925098
 31
0.0
  0
INSERT
  5
162D
330
1604
100
AcDbEntity
  8
SIZE
 62
     0
370
    -2
100
AcDbBlockReference
  2
_OPEN30
 10
937.4389743145888
 20
-774.8991874925097
 30
0.0
 41
20.0
 42
20.0
 43
20.0
 50
90.0
  0
INSERT
  5
162E
330
1604
100
AcDbEntity
  8
SIZE
 62
     0
370
    -2
100
AcDbBlockReference
  2
_OPEN30
 10
937.4389743145888
 20
-924.8991874925101
 30
0.0
 41
20.0
 42
20.0
 43
20.0
 50
270.0
  0
MTEXT
  5
162F
330
1604
100
AcDbEntity
  8
SIZE
 62
     0
100
AcDbMText
 10
917.4389743145892
 20
-849.8991874925097
 30
0.0
 40
20.0
 41
0.0
 71
     5
 72
     1
  1
\A1;150
 11
0.0000000000000001
 21
1.0
 31
0.0
 73
     1
 44
1.0
1001
ACAD
1000
MTEXTBEGIN
1070
    73
1070
     1
1070
    44
1040
1.0
1070
    74
1070
     0
1000
MTEXTEND
  0
POINT
  5
1630
330
1604
100
AcDbEntity
  8
Defpoints
 62
     0
100
AcDbPoint
 10
980.9274373545964
 20
-774.8991874925097
 30
0.0
  0
POINT
  5
1631
330
1604
100
AcDbEntity
  8
Defpoints
 62
     0
100
AcDbPoint
 10
963.4287393207523
 20
-924.8991874925101
 30
0.0
  0
POINT
  5
1632
330
1604
100
AcDbEntity
  8
Defpoints
 62
     0
100
AcDbPoint
 10
937.4389743145888
 20
-924.8991874925101
 30
0.0
  0
ENDBLK
  5
1606
330
1604
100
AcDbEntity
  8
0
100
AcDbBlockEnd
  0
BLOCK
  5
1612
330
1611
100
AcDbEntity
  8
0
100
AcDbBlockBegin
  2
*D14
 70
     1
 10
0.0
 20
0.0
 30
0.0
  3
*D14
  1

  0
LINE
  5
1633
330
1611
100
AcDbEntity
  8
SIZE
 62
     0
370
    -2
100
AcDbLine
 10
953.4287393207524
 20
-924.8991874925101
 30
0.0
 11
927.4389743145887
 21
-924.8991874925101
 31
0.0
  0
LINE
  5
1634
330
1611
100
AcDbEntity
  8
SIZE
 62
     0
370
    -2
100
AcDbLine
 10
970.9274373545964
 20
-1074.89918749251
 30
0.0
 11
927.4389743145887
 21
-1074.89918749251
 31
0.0
  0
LINE
  5
1635
330
1611
100
AcDbEntity
  8
SIZE
 62
     0
370
    -2
100
AcDbLine
 10
937.4389743145888
 20
-944.8991874925097
 30
0.0
 11
937.4389743145888
 21
-1054.89918749251
 31
0.0
  0
INSERT
  5
1636
330
1611
100
AcDbEntity
  8
SIZE
 62
     0
370
    -2
100
AcDbBlockReference
  2
_OPEN30
 10
937.4389743145888
 20
-924.8991874925101
 30
0.0
 41
20.0
 42
20.0
 43
20.0
 50
90.0
  0
INSERT
  5
1637
330
1611
100
AcDbEntity
  8
SIZE
 62
     0
370
    -2
100
AcDbBlockReference
  2
_OPEN30
 10
937.4389743145888
 20
-1074.89918749251
 30
0.0
 41
20.0
 42
20.0
 43
20.0
 50
270.0
  0
MTEXT
  5
1638
330
1611
100
AcDbEntity
  8
SIZE
 62
     0
100
AcDbMText
 10
917.4389743145892
 20
-999.8991874925096
 30
0.0
 40
20.0
 41
0.0
 71
     5
 72
     1
  1
\A1;150
 11
0.0000000000000001
 21
1.0
 31
0.0
 73
     1
 44
1.0
1001
ACAD
1000
MTEXTBEGIN
1070
    73
1070
     1
1070
    44
1040
1.0
1070
    74
1070
     0
1000
MTEXTEND
  0
POINT
  5
1639
330
1611
100
AcDbEntity
  8
Defpoints
 62
     0
100
AcDbPoint
 10
963.4287393207523
 20
-924.8991874925101
 30
0.0
  0
POINT
  5
163A
330
1611
100
AcDbEntity
  8
Defpoints
 62
     0
100
AcDbPoint
 10
980.9274373545964
 20
-1074.89918749251
 30
0.0
  0
POINT
  5
163B
330
1611
100
AcDbEntity
  8
Defpoints
 62
     0
100
AcDbPoint
 10
937.4389743145888
 20
-1074.89918749251
 30
0.0
  0
ENDBLK
  5
1613
330
1611
100
AcDbEntity
  8
0
100
AcDbBlockEnd
  0
BLOCK
  5
161F
330
161E
100
AcDbEntity
  8
0
100
AcDbBlockBegin
  2
*D15
 70
     1
 10
0.0
 20
0.0
 30
0.0
  3
*D15
  1

  0
LINE
  5
163C
330
161E
100
AcDbEntity
  8
SIZE
 62
     0
370
    -2
100
AcDbLine
 10
970.9274373545964
 20
-1074.89918749251
 30
0.0
 11
927.4389743145887
 21
-1074.89918749251
 31
0.0
  0
LINE
  5
163D
330
161E
100
AcDbEntity
  8
SIZE
 62
     0
370
    -2
100
AcDbLine
 10
970.9274373545964
 20
-1224.89918749251
 30
0.0
 11
927.4389743145887
 21
-1224.89918749251
 31
0.0
  0
LINE
  5
163E
330
161E
100
AcDbEntity
  8
SIZE
 62
     0
370
    -2
100
AcDbLine
 10
937.4389743145888
 20
-1094.89918749251
 30
0.0
 11
937.4389743145888
 21
-1204.89918749251
 31
0.0
  0
INSERT
  5
163F
330
161E
100
AcDbEntity
  8
SIZE
 62
     0
370
    -2
100
AcDbBlockReference
  2
_OPEN30
 10
937.4389743145888
 20
-1074.89918749251
 30
0.0
 41
20.0
 42
20.0
 43
20.0
 50
90.0
  0
INSERT
  5
1640
330
161E
100
AcDbEntity
  8
SIZE
 62
     0
370
    -2
100
AcDbBlockReference
  2
_OPEN30
 10
937.4389743145888
 20
-1224.89918749251
 30
0.0
 41
20.0
 42
20.0
 43
20.0
 50
270.0
  0
MTEXT
  5
1641
330
161E
100
AcDbEntity
  8
SIZE
 62
     0
100
AcDbMText
 10
917.4389743145892
 20
-1149.899187492509
 30
0.0
 40
20.0
 41
0.0
 71
     5
 72
     1
  1
\A1;150
 11
0.0000000000000001
 21
1.0
 31
0.0
 73
     1
 44
1.0
1001
ACAD
1000
MTEXTBEGIN
1070
    73
1070
     1
1070
    44
1040
1.0
1070
    74
1070
     0
1000
MTEXTEND
  0
POINT
  5
1642
330
161E
100
AcDbEntity
  8
Defpoints
 62
     0
100
AcDbPoint
 10
980.9274373545964
 20
-1074.89918749251
 30
0.0
  0
POINT
  5
1643
330
161E
100
AcDbEntity
  8
Defpoints
 62
     0
100
AcDbPoint
 10
980.9274373545964
 20
-1224.89918749251
 30
0.0
  0
POINT
  5
1644
330
161E
100
AcDbEntity
  8
Defpoints
 62
     0
100
AcDbPoint
 10
937.4389743145888
 20
-1224.89918749251
 30
0.0
  0
ENDBLK
  5
1620
330
161E
100
AcDbEntity
  8
0
100
AcDbBlockEnd
  0
BLOCK
  5
1647
330
1646
100
AcDbEntity
  8
0
100
AcDbBlockBegin
  2
*D16
 70
     1
 10
0.0
 20
0.0
 30
0.0
  3
*D16
  1

  0
LINE
  5
174B
330
1646
100
AcDbEntity
  8
SIZE
 62
     0
370
    -2
100
AcDbLine
 10
1029.927437354596
 20
-1291.899187492503
 30
0.0
 11
877.332253841971
 21
-1291.899187492503
 31
0.0
  0
LINE
  5
174C
330
1646
100
AcDbEntity
  8
SIZE
 62
     0
370
    -2
100
AcDbLine
 10
1029.927437354597
 20
-557.8991874925033
 30
0.0
 11
877.3322538419712
 21
-557.8991874925033
 31
0.0
  0
LINE
  5
174D
330
1646
100
AcDbEntity
  8
SIZE
 62
     0
370
    -2
100
AcDbLine
 10
887.3322538419712
 20
-1271.899187492503
 30
0.0
 11
887.3322538419712
 21
-577.8991874925033
 31
0.0
  0
INSERT
  5
174E
330
1646
100
AcDbEntity
  8
SIZE
 62
     0
370
    -2
100
AcDbBlockReference
  2
_OPEN30
 10
887.332253841971
 20
-1291.899187492503
 30
0.0
 41
20.0
 42
20.0
 43
20.0
 50
270.0
  0
INSERT
  5
174F
330
1646
100
AcDbEntity
  8
SIZE
 62
     0
370
    -2
100
AcDbBlockReference
  2
_OPEN30
 10
887.3322538419712
 20
-557.8991874925033
 30
0.0
 41
20.0
 42
20.0
 43
20.0
 50
90.0
  0
MTEXT
  5
1750
330
1646
100
AcDbEntity
  8
SIZE
 62
     0
100
AcDbMText
 10
867.3322538419713
 20
-924.899187492503
 30
0.0
 40
20.0
 41
0.0
 71
     5
 72
     1
  1
\A1;734
 11
0.0000000000000001
 21
1.0
 31
0.0
 73
     1
 44
1.0
1001
ACAD
1000
MTEXTBEGIN
1070
    73
1070
     1
1070
    44
1040
1.0
1070
    74
1070
     0
1000
MTEXTEND
  0
POINT
  5
1751
330
1646
100
AcDbEntity
  8
Defpoints
 62
     0
100
AcDbPoint
 10
1039.927437354596
 20
-1291.899187492503
 30
0.0
  0
POINT
  5
1752
330
1646
100
AcDbEntity
  8
Defpoints
 62
     0
100
AcDbPoint
 10
1039.927437354597
 20
-557.8991874925033
 30
0.0
  0
POINT
  5
1753
330
1646
100
AcDbEntity
  8
Defpoints
 62
     0
100
AcDbPoint
 10
887.3322538419712
 20
-557.8991874925033
 30
0.0
  0
ENDBLK
  5
1648
330
1646
100
AcDbEntity
  8
0
100
AcDbBlockEnd
  0
BLOCK
  5
1FD9
330
1FD8
100
AcDbEntity
  8
0
100
AcDbBlockBegin
  2
*D17
 70
     1
 10
0.0
 20
0.0
 30
0.0
  3
*D17
  1

  0
LINE
  5
1FDB
330
1FD8
100
AcDbEntity
  8
SIZE
 62
     0
370
    -2
100
AcDbLine
 10
2466.135223066364
 20
-601.3991922930122
 30
0.0
 11
2466.135223066364
 21
-490.3263067077124
 31
0.0
  0
LINE
  5
1FDC
330
1FD8
100
AcDbEntity
  8
SIZE
 62
     0
370
    -2
100
AcDbLine
 10
3297.135223066371
 20
-601.3991922930122
 30
0.0
 11
3297.135223066371
 21
-490.3263067077124
 31
0.0
  0
LINE
  5
1FDD
330
1FD8
100
AcDbEntity
  8
SIZE
 62
     0
370
    -2
100
AcDbLine
 10
2486.135223066364
 20
-500.3263067077122
 30
0.0
 11
3277.135223066371
 21
-500.3263067077122
 31
0.0
  0
INSERT
  5
1FDE
330
1FD8
100
AcDbEntity
  8
SIZE
 62
     0
370
    -2
100
AcDbBlockReference
  2
_OPEN30
 10
2466.135223066364
 20
-500.3263067077122
 30
0.0
 41
20.0
 42
20.0
 43
20.0
 50
180.0
  0
INSERT
  5
1FDF
330
1FD8
100
AcDbEntity
  8
SIZE
 62
     0
370
    -2
100
AcDbBlockReference
  2
_OPEN30
 10
3297.135223066371
 20
-500.3263067077122
 30
0.0
 41
20.0
 42
20.0
 43
20.0
  0
MTEXT
  5
1FE0
330
1FD8
100
AcDbEntity
  8
SIZE
 62
     0
100
AcDbMText
 10
2881.635223066368
 20
-480.3263067077123
 30
0.0
 40
20.0
 41
0.0
 71
     5
 72
     1
  1
\A1;831
 73
     1
 44
1.0
1001
ACAD
1000
MTEXTBEGIN
1070
    73
1070
     1
1070
    44
1040
1.0
1070
    74
1070
     0
1000
MTEXTEND
  0
POINT
  5
1FE1
330
1FD8
100
AcDbEntity
  8
Defpoints
 62
     0
100
AcDbPoint
 10
2466.135223066364
 20
-611.3991922930122
 30
0.0
  0
POINT
  5
1FE2
330
1FD8
100
AcDbEntity
  8
Defpoints
 62
     0
100
AcDbPoint
 10
3297.135223066371
 20
-611.3991922930122
 30
0.0
  0
POINT
  5
1FE3
330
1FD8
100
AcDbEntity
  8
Defpoints
 62
     0
100
AcDbPoint
 10
3297.135223066371
 20
-500.3263067077122
 30
0.0
  0
ENDBLK
  5
1FDA
330
1FD8
100
AcDbEntity
  8
0
100
AcDbBlockEnd
  0
BLOCK
  5
1FE6
330
1FE5
100
AcDbEntity
  8
0
100
AcDbBlockBegin
  2
*D18
 70
     1
 10
0.0
 20
0.0
 30
0.0
  3
*D18
  1

  0
LINE
  5
2019
330
1FE5
100
AcDbEntity
  8
SIZE
 62
     0
370
    -2
100
AcDbLine
 10
3297.135223066371
 20
-601.3991922930122
 30
0.0
 11
3297.135223066371
 21
-490.3263067077124
 31
0.0
  0
LINE
  5
201A
330
1FE5
100
AcDbEntity
  8
SIZE
 62
     0
370
    -2
100
AcDbLine
 10
3346.135223066357
 20
-601.3991922917066
 30
0.0
 11
3346.135223066357
 21
-490.3263067077124
 31
0.0
  0
LINE
  5
201B
330
1FE5
100
AcDbEntity
  8
SIZE
 62
     0
370
    -2
100
AcDbLine
 10
3277.135223066371
 20
-500.3263067077122
 30
0.0
 11
3257.135223066371
 21
-500.3263067077122
 31
0.0
  0
LINE
  5
201C
330
1FE5
100
AcDbEntity
  8
SIZE
 62
     0
370
    -2
100
AcDbLine
 10
3366.135223066356
 20
-500.3263067077122
 30
0.0
 11
3386.135223066356
 21
-500.3263067077122
 31
0.0
  0
LINE
  5
201D
330
1FE5
100
AcDbEntity
  8
SIZE
 62
     0
370
    -2
100
AcDbLine
 10
3297.135223066371
 20
-500.3263067077122
 30
0.0
 11
3346.135223066357
 21
-500.3263067077122
 31
0.0
  0
INSERT
  5
201E
330
1FE5
100
AcDbEntity
  8
SIZE
 62
     0
370
    -2
100
AcDbBlockReference
  2
_OPEN30
 10
3297.135223066371
 20
-500.3263067077122
 30
0.0
 41
20.0
 42
20.0
 43
20.0
  0
INSERT
  5
201F
330
1FE5
100
AcDbEntity
  8
SIZE
 62
     0
370
    -2
100
AcDbBlockReference
  2
_OPEN30
 10
3346.135223066357
 20
-500.3263067077122
 30
0.0
 41
20.0
 42
20.0
 43
20.0
 50
180.0
  0
MTEXT
  5
2020
330
1FE5
100
AcDbEntity
  8
SIZE
 62
     0
100
AcDbMText
 10
3321.635223066363
 20
-480.3263067077123
 30
0.0
 40
20.0
 41
0.0
 71
     5
 72
     1
  1
\A1;49
 73
     1
 44
1.0
1001
ACAD
1000
MTEXTBEGIN
1070
    73
1070
     1
1070
    44
1040
1.0
1070
    74
1070
     0
1000
MTEXTEND
  0
POINT
  5
2021
330
1FE5
100
AcDbEntity
  8
Defpoints
 62
     0
100
AcDbPoint
 10
3297.135223066371
 20
-611.3991922930122
 30
0.0
  0
POINT
  5
2022
330
1FE5
100
AcDbEntity
  8
Defpoints
 62
     0
100
AcDbPoint
 10
3346.135223066357
 20
-611.3991922917066
 30
0.0
  0
POINT
  5
2023
330
1FE5
100
AcDbEntity
  8
Defpoints
 62
     0
100
AcDbPoint
 10
3346.135223066357
 20
-500.3263067077122
 30
0.0
  0
ENDBLK
  5
1FE7
330
1FE5
100
AcDbEntity
  8
0
100
AcDbBlockEnd
  0
BLOCK
  5
1FF8
330
1FF7
100
AcDbEntity
  8
0
100
AcDbBlockBegin
  2
*D19
 70
     1
 10
0.0
 20
0.0
 30
0.0
  3
*D19
  1

  0
LINE
  5
1FFA
330
1FF7
100
AcDbEntity
  8
SIZE
 62
     0
370
    -2
100
AcDbLine
 10
3346.135223066357
 20
-601.3991922917066
 30
0.0
 11
3346.135223066357
 21
-490.3263067077124
 31
0.0
  0
LINE
  5
1FFB
330
1FF7
100
AcDbEntity
  8
SIZE
 62
     0
370
    -2
100
AcDbLine
 10
4177.135223066367
 20
-601.3991922917064
 30
0.0
 11
4177.135223066367
 21
-490.3263067077124
 31
0.0
  0
LINE
  5
1FFC
330
1FF7
100
AcDbEntity
  8
SIZE
 62
     0
370
    -2
100
AcDbLine
 10
3366.135223066356
 20
-500.3263067077122
 30
0.0
 11
4157.135223066367
 21
-500.3263067077122
 31
0.0
  0
INSERT
  5
1FFD
330
1FF7
100
AcDbEntity
  8
SIZE
 62
     0
370
    -2
100
AcDbBlockReference
  2
_OPEN30
 10
3346.135223066357
 20
-500.3263067077122
 30
0.0
 41
20.0
 42
20.0
 43
20.0
 50
180.0
  0
INSERT
  5
1FFE
330
1FF7
100
AcDbEntity
  8
SIZE
 62
     0
370
    -2
100
AcDbBlockReference
  2
_OPEN30
 10
4177.135223066367
 20
-500.3263067077122
 30
0.0
 41
20.0
 42
20.0
 43
20.0
  0
MTEXT
  5
1FFF
330
1FF7
100
AcDbEntity
  8
SIZE
 62
     0
100
AcDbMText
 10
3761.635223066362
 20
-480.3263067077123
 30
0.0
 40
20.0
 41
0.0
 71
     5
 72
     1
  1
\A1;831
 73
     1
 44
1.0
1001
ACAD
1000
MTEXTBEGIN
1070
    73
1070
     1
1070
    44
1040
1.0
1070
    74
1070
     0
1000
MTEXTEND
  0
POINT
  5
2000
330
1FF7
100
AcDbEntity
  8
Defpoints
 62
     0
100
AcDbPoint
 10
3346.135223066357
 20
-611.3991922917066
 30
0.0
  0
POINT
  5
2001
330
1FF7
100
AcDbEntity
  8
Defpoints
 62
     0
100
AcDbPoint
 10
4177.135223066367
 20
-611.3991922917064
 30
0.0
  0
POINT
  5
2002
330
1FF7
100
AcDbEntity
  8
Defpoints
 62
     0
100
AcDbPoint
 10
4177.135223066367
 20
-500.3263067077122
 30
0.0
  0
ENDBLK
  5
1FF9
330
1FF7
100
AcDbEntity
  8
0
100
AcDbBlockEnd
  0
BLOCK
  5
2026
330
2025
100
AcDbEntity
  8
0
100
AcDbBlockBegin
  2
*D20
 70
     1
 10
0.0
 20
0.0
 30
0.0
  3
*D20
  1

  0
LINE
  5
203A
330
2025
100
AcDbEntity
  8
SIZE
 62
     0
370
    -2
100
AcDbLine
 10
2449.635223066366
 20
-601.8991922930126
 30
0.0
 11
2449.635223066366
 21
-449.9370362518513
 31
0.0
  0
LINE
  5
203B
330
2025
100
AcDbEntity
  8
SIZE
 62
     0
370
    -2
100
AcDbLine
 10
4193.635223066368
 20
-601.8991922930126
 30
0.0
 11
4193.635223066368
 21
-449.9370362518513
 31
0.0
  0
LINE
  5
203C
330
2025
100
AcDbEntity
  8
SIZE
 62
     0
370
    -2
100
AcDbLine
 10
2469.635223066366
 20
-459.9370362518513
 30
0.0
 11
4173.635223066368
 21
-459.9370362518513
 31
0.0
  0
INSERT
  5
203D
330
2025
100
AcDbEntity
  8
SIZE
 62
     0
370
    -2
100
AcDbBlockReference
  2
_OPEN30
 10
2449.635223066366
 20
-459.9370362518513
 30
0.0
 41
20.0
 42
20.0
 43
20.0
 50
180.0
  0
INSERT
  5
203E
330
2025
100
AcDbEntity
  8
SIZE
 62
     0
370
    -2
100
AcDbBlockReference
  2
_OPEN30
 10
4193.635223066368
 20
-459.9370362518513
 30
0.0
 41
20.0
 42
20.0
 43
20.0
  0
MTEXT
  5
203F
330
2025
100
AcDbEntity
  8
SIZE
 62
     0
100
AcDbMText
 10
3321.635223066368
 20
-439.9370362518513
 30
0.0
 40
20.0
 41
0.0
 71
     5
 72
     1
  1
\A1;1744
 73
     1
 44
1.0
1001
ACAD
1000
MTEXTBEGIN
1070
    73
1070
     1
1070
    44
1040
1.0
1070
    74
1070
     0
1000
MTEXTEND
  0
POINT
  5
2040
330
2025
100
AcDbEntity
  8
Defpoints
 62
     0
100
AcDbPoint
 10
2449.635223066366
 20
-611.8991922930128
 30
0.0
  0
POINT
  5
2041
330
2025
100
AcDbEntity
  8
Defpoints
 62
     0
100
AcDbPoint
 10
4193.635223066368
 20
-611.8991922930128
 30
0.0
  0
POINT
  5
2042
330
2025
100
AcDbEntity
  8
Defpoints
 62
     0
100
AcDbPoint
 10
4193.635223066368
 20
-459.9370362518513
 30
0.0
  0
ENDBLK
  5
2027
330
2025
100
AcDbEntity
  8
0
100
AcDbBlockEnd
  0
BLOCK
  5
2045
330
2044
100
AcDbEntity
  8
0
100
AcDbBlockBegin
  2
*D21
 70
     1
 10
0.0
 20
0.0
 30
0.0
  3
*D21
  1

  0
LINE
  5
2047
330
2044
100
AcDbEntity
  8
SIZE
 62
     0
370
    -2
100
AcDbLine
 10
2442.635223066365
 20
-624.8991922930122
 30
0.0
 11
2380.655241176427
 21
-624.8991922930122
 31
0.0
  0
LINE
  5
2048
330
2044
100
AcDbEntity
  8
SIZE
 62
     0
370
    -2
100
AcDbLine
 10
2442.635223066365
 20
-774.8991922930127
 30
0.0
 11
2380.655241176427
 21
-774.8991922930127
 31
0.0
  0
LINE
  5
2049
330
2044
100
AcDbEntity
  8
SIZE
 62
     0
370
    -2
100
AcDbLine
 10
2390.655241176427
 20
-644.8991922930122
 30
0.0
 11
2390.655241176427
 21
-754.8991922930126
 31
0.0
  0
INSERT
  5
204A
330
2044
100
AcDbEntity
  8
SIZE
 62
     0
370
    -2
100
AcDbBlockReference
  2
_OPEN30
 10
2390.655241176427
 20
-624.8991922930122
 30
0.0
 41
20.0
 42
20.0
 43
20.0
 50
90.0
  0
INSERT
  5
204B
330
2044
100
AcDbEntity
  8
SIZE
 62
     0
370
    -2
100
AcDbBlockReference
  2
_OPEN30
 10
2390.655241176427
 20
-774.8991922930127
 30
0.0
 41
20.0
 42
20.0
 43
20.0
 50
270.0
  0
MTEXT
  5
204C
330
2044
100
AcDbEntity
  8
SIZE
 62
     0
100
AcDbMText
 10
2370.655241176427
 20
-699.8991922930119
 30
0.0
 40
20.0
 41
0.0
 71
     5
 72
     1
  1
\A1;150
 11
0.0000000000000001
 21
1.0
 31
0.0
 73
     1
 44
1.0
1001
ACAD
1000
MTEXTBEGIN
1070
    73
1070
     1
1070
    44
1040
1.0
1070
    74
1070
     0
1000
MTEXTEND
  0
POINT
  5
204D
330
2044
100
AcDbEntity
  8
Defpoints
 62
     0
100
AcDbPoint
 10
2452.635223066364
 20
-624.8991922930122
 30
0.0
  0
POINT
  5
204E
330
2044
100
AcDbEntity
  8
Defpoints
 62
     0
100
AcDbPoint
 10
2452.635223066364
 20
-774.8991922930127
 30
0.0
  0
POINT
  5
204F
330
2044
100
AcDbEntity
  8
Defpoints
 62
     0
100
AcDbPoint
 10
2390.655241176427
 20
-774.8991922930127
 30
0.0
  0
ENDBLK
  5
2046
330
2044
100
AcDbEntity
  8
0
100
AcDbBlockEnd
  0
BLOCK
  5
2052
330
2051
100
AcDbEntity
  8
0
100
AcDbBlockBegin
  2
*D22
 70
     1
 10
0.0
 20
0.0
 30
0.0
  3
*D22
  1

  0
LINE
  5
2054
330
2051
100
AcDbEntity
  8
SIZE
 62
     0
370
    -2
100
AcDbLine
 10
2442.635223066365
 20
-774.8991922930127
 30
0.0
 11
2380.655241176427
 21
-774.8991922930127
 31
0.0
  0
LINE
  5
2055
330
2051
100
AcDbEntity
  8
SIZE
 62
     0
370
    -2
100
AcDbLine
 10
2414.589719653456
 20
-924.8991922930127
 30
0.0
 11
2380.655241176427
 21
-924.8991922930127
 31
0.0
  0
LINE
  5
2056
330
2051
100
AcDbEntity
  8
SIZE
 62
     0
370
    -2
100
AcDbLine
 10
2390.655241176427
 20
-794.8991922930127
 30
0.0
 11
2390.655241176427
 21
-904.8991922930126
 31
0.0
  0
INSERT
  5
2057
330
2051
100
AcDbEntity
  8
SIZE
 62
     0
370
    -2
100
AcDbBlockReference
  2
_OPEN30
 10
2390.655241176427
 20
-774.8991922930127
 30
0.0
 41
20.0
 42
20.0
 43
20.0
 50
90.0
  0
INSERT
  5
2058
330
2051
100
AcDbEntity
  8
SIZE
 62
     0
370
    -2
100
AcDbBlockReference
  2
_OPEN30
 10
2390.655241176427
 20
-924.8991922930127
 30
0.0
 41
20.0
 42
20.0
 43
20.0
 50
270.0
  0
MTEXT
  5
2059
330
2051
100
AcDbEntity
  8
SIZE
 62
     0
100
AcDbMText
 10
2370.655241176427
 20
-849.8991922930121
 30
0.0
 40
20.0
 41
0.0
 71
     5
 72
     1
  1
\A1;150
 11
0.0000000000000001
 21
1.0
 31
0.0
 73
     1
 44
1.0
1001
ACAD
1000
MTEXTBEGIN
1070
    73
1070
     1
1070
    44
1040
1.0
1070
    74
1070
     0
1000
MTEXTEND
  0
POINT
  5
205A
330
2051
100
AcDbEntity
  8
Defpoints
 62
     0
100
AcDbPoint
 10
2452.635223066364
 20
-774.8991922930127
 30
0.0
  0
POINT
  5
205B
330
2051
100
AcDbEntity
  8
Defpoints
 62
     0
100
AcDbPoint
 10
2424.589719653456
 20
-924.8991922930127
 30
0.0
  0
POINT
  5
205C
330
2051
100
AcDbEntity
  8
Defpoints
 62
     0
100
AcDbPoint
 10
2390.655241176427
 20
-924.8991922930127
 30
0.0
  0
ENDBLK
  5
2053
330
2051
100
AcDbEntity
  8
0
100
AcDbBlockEnd
  0
BLOCK
  5
205F
330
205E
100
AcDbEntity
  8
0
100
AcDbBlockBegin
  2
*D23
 70
     1
 10
0.0
 20
0.0
 30
0.0
  3
*D23
  1

  0
LINE
  5
2061
330
205E
100
AcDbEntity
  8
SIZE
 62
     0
370
    -2
100
AcDbLine
 10
2414.589719653456
 20
-924.8991922930127
 30
0.0
 11
2380.655241176427
 21
-924.8991922930127
 31
0.0
  0
LINE
  5
2062
330
205E
100
AcDbEntity
  8
SIZE
 62
     0
370
    -2
100
AcDbLine
 10
2442.635223066365
 20
-1074.899192293012
 30
0.0
 11
2380.655241176427
 21
-1074.899192293012
 31
0.0
  0
LINE
  5
2063
330
205E
100
AcDbEntity
  8
SIZE
 62
     0
370
    -2
100
AcDbLine
 10
2390.655241176427
 20
-944.899192293013
 30
0.0
 11
2390.655241176427
 21
-1054.899192293012
 31
0.0
  0
INSERT
  5
2064
330
205E
100
AcDbEntity
  8
SIZE
 62
     0
370
    -2
100
AcDbBlockReference
  2
_OPEN30
 10
2390.655241176427
 20
-924.8991922930127
 30
0.0
 41
20.0
 42
20.0
 43
20.0
 50
90.0
  0
INSERT
  5
2065
330
205E
100
AcDbEntity
  8
SIZE
 62
     0
370
    -2
100
AcDbBlockReference
  2
_OPEN30
 10
2390.655241176427
 20
-1074.899192293012
 30
0.0
 41
20.0
 42
20.0
 43
20.0
 50
270.0
  0
MTEXT
  5
2066
330
205E
100
AcDbEntity
  8
SIZE
 62
     0
100
AcDbMText
 10
2370.655241176427
 20
-999.8991922930123
 30
0.0
 40
20.0
 41
0.0
 71
     5
 72
     1
  1
\A1;150
 11
0.0000000000000001
 21
1.0
 31
0.0
 73
     1
 44
1.0
1001
ACAD
1000
MTEXTBEGIN
1070
    73
1070
     1
1070
    44
1040
1.0
1070
    74
1070
     0
1000
MTEXTEND
  0
POINT
  5
2067
330
205E
100
AcDbEntity
  8
Defpoints
 62
     0
100
AcDbPoint
 10
2424.589719653456
 20
-924.8991922930127
 30
0.0
  0
POINT
  5
2068
330
205E
100
AcDbEntity
  8
Defpoints
 62
     0
100
AcDbPoint
 10
2452.635223066364
 20
-1074.899192293012
 30
0.0
  0
POINT
  5
2069
330
205E
100
AcDbEntity
  8
Defpoints
 62
     0
100
AcDbPoint
 10
2390.655241176427
 20
-1074.899192293012
 30
0.0
  0
ENDBLK
  5
2060
330
205E
100
AcDbEntity
  8
0
100
AcDbBlockEnd
  0
BLOCK
  5
206C
330
206B
100
AcDbEntity
  8
0
100
AcDbBlockBegin
  2
*D24
 70
     1
 10
0.0
 20
0.0
 30
0.0
  3
*D24
  1

  0
LINE
  5
206E
330
206B
100
AcDbEntity
  8
SIZE
 62
     0
370
    -2
100
AcDbLine
 10
2442.635223066365
 20
-1074.899192293012
 30
0.0
 11
2380.655241176427
 21
-1074.899192293012
 31
0.0
  0
LINE
  5
206F
330
206B
100
AcDbEntity
  8
SIZE
 62
     0
370
    -2
100
AcDbLine
 10
2442.635223066365
 20
-1224.899192293012
 30
0.0
 11
2380.655241176427
 21
-1224.899192293012
 31
0.0
  0
LINE
  5
2070
330
206B
100
AcDbEntity
  8
SIZE
 62
     0
370
    -2
100
AcDbLine
 10
2390.655241176427
 20
-1094.899192293012
 30
0.0
 11
2390.655241176427
 21
-1204.899192293012
 31
0.0
  0
INSERT
  5
2071
330
206B
100
AcDbEntity
  8
SIZE
 62
     0
370
    -2
100
AcDbBlockReference
  2
_OPEN30
 10
2390.655241176427
 20
-1074.899192293012
 30
0.0
 41
20.0
 42
20.0
 43
20.0
 50
90.0
  0
INSERT
  5
2072
330
206B
100
AcDbEntity
  8
SIZE
 62
     0
370
    -2
100
AcDbBlockReference
  2
_OPEN30
 10
2390.655241176427
 20
-1224.899192293012
 30
0.0
 41
20.0
 42
20.0
 43
20.0
 50
270.0
  0
MTEXT
  5
2073
330
206B
100
AcDbEntity
  8
SIZE
 62
     0
100
AcDbMText
 10
2370.655241176427
 20
-1149.899192293012
 30
0.0
 40
20.0
 41
0.0
 71
     5
 72
     1
  1
\A1;150
 11
0.0000000000000001
 21
1.0
 31
0.0
 73
     1
 44
1.0
1001
ACAD
1000
MTEXTBEGIN
1070
    73
1070
     1
1070
    44
1040
1.0
1070
    74
1070
     0
1000
MTEXTEND
  0
POINT
  5
2074
330
206B
100
AcDbEntity
  8
Defpoints
 62
     0
100
AcDbPoint
 10
2452.635223066364
 20
-1074.899192293012
 30
0.0
  0
POINT
  5
2075
330
206B
100
AcDbEntity
  8
Defpoints
 62
     0
100
AcDbPoint
 10
2452.635223066364
 20
-1224.899192293012
 30
0.0
  0
POINT
  5
2076
330
206B
100
AcDbEntity
  8
Defpoints
 62
     0
100
AcDbPoint
 10
2390.655241176427
 20
-1224.899192293012
 30
0.0
  0
ENDBLK
  5
206D
330
206B
100
AcDbEntity
  8
0
100
AcDbBlockEnd
  0
BLOCK
  5
2079
330
2078
100
AcDbEntity
  8
0
100
AcDbBlockBegin
  2
*D25
 70
     1
 10
0.0
 20
0.0
 30
0.0
  3
*D25
  1

  0
LINE
  5
207B
330
2078
100
AcDbEntity
  8
SIZE
 62
     0
370
    -2
100
AcDbLine
 10
2497.63522306637
 20
-1291.899192293013
 30
0.0
 11
2330.685782408792
 21
-1291.899192293013
 31
0.0
  0
LINE
  5
207C
330
2078
100
AcDbEntity
  8
SIZE
 62
     0
370
    -2
100
AcDbLine
 10
2497.63522306637
 20
-557.8991922930127
 30
0.0
 11
2330.685782408793
 21
-557.8991922930127
 31
0.0
  0
LINE
  5
207D
330
2078
100
AcDbEntity
  8
SIZE
 62
     0
370
    -2
100
AcDbLine
 10
2340.685782408792
 20
-1271.899192293013
 30
0.0
 11
2340.685782408793
 21
-577.8991922930126
 31
0.0
  0
INSERT
  5
207E
330
2078
100
AcDbEntity
  8
SIZE
 62
     0
370
    -2
100
AcDbBlockReference
  2
_OPEN30
 10
2340.685782408792
 20
-1291.899192293013
 30
0.0
 41
20.0
 42
20.0
 43
20.0
 50
270.0
  0
INSERT
  5
207F
330
2078
100
AcDbEntity
  8
SIZE
 62
     0
370
    -2
100
AcDbBlockReference
  2
_OPEN30
 10
2340.685782408793
 20
-557.8991922930127
 30
0.0
 41
20.0
 42
20.0
 43
20.0
 50
90.0
  0
MTEXT
  5
2080
330
2078
100
AcDbEntity
  8
SIZE
 62
     0
100
AcDbMText
 10
2320.685782408793
 20
-924.8991922930123
 30
0.0
 40
20.0
 41
0.0
 71
     5
 72
     1
  1
\A1;734
 11
0.0000000000000001
 21
1.0
 31
0.0
 73
     1
 44
1.0
1001
ACAD
1000
MTEXTBEGIN
1070
    73
1070
     1
1070
    44
1040
1.0
1070
    74
1070
     0
1000
MTEXTEND
  0
POINT
  5
2081
330
2078
100
AcDbEntity
  8
Defpoints
 62
     0
100
AcDbPoint
 10
2507.63522306637
 20
-1291.899192293013
 30
0.0
  0
POINT
  5
2082
330
2078
100
AcDbEntity
  8
Defpoints
 62
     0
100
AcDbPoint
 10
2507.63522306637
 20
-557.8991922930127
 30
0.0
  0
POINT
  5
2083
330
2078
100
AcDbEntity
  8
Defpoints
 62
     0
100
AcDbPoint
 10
2340.685782408793
 20
-557.8991922930127
 30
0.0
  0
ENDBLK
  5
207A
330
2078
100
AcDbEntity
  8
0
100
AcDbBlockEnd
  0
BLOCK
  5
25C8
330
25C7
100
AcDbEntity
  8
0
100
AcDbBlockBegin
  2
*D26
 70
     1
 10
0.0
 20
0.0
 30
0.0
  3
*D26
  1

  0
LINE
  5
25CA
330
25C7
100
AcDbEntity
  8
SIZE
 62
     0
370
    -2
100
AcDbLine
 10
4949.732854880894
 20
-590.8777819187962
 30
0.0
 11
4949.732854880894
 21
-476.0592840276716
 31
0.0
  0
LINE
  5
25CB
330
25C7
100
AcDbEntity
  8
SIZE
 62
     0
370
    -2
100
AcDbLine
 10
5778.732854880893
 20
-590.8777819187962
 30
0.0
 11
5778.732854880893
 21
-476.0592840276716
 31
0.0
  0
LINE
  5
25CC
330
25C7
100
AcDbEntity
  8
SIZE
 62
     0
370
    -2
100
AcDbLine
 10
4969.732854880895
 20
-486.0592840276718
 30
0.0
 11
5758.732854880894
 21
-486.0592840276718
 31
0.0
  0
INSERT
  5
25CD
330
25C7
100
AcDbEntity
  8
SIZE
 62
     0
370
    -2
100
AcDbBlockReference
  2
_OPEN30
 10
4949.732854880894
 20
-486.0592840276718
 30
0.0
 41
20.0
 42
20.0
 43
20.0
 50
180.0
  0
INSERT
  5
25CE
330
25C7
100
AcDbEntity
  8
SIZE
 62
     0
370
    -2
100
AcDbBlockReference
  2
_OPEN30
 10
5778.732854880893
 20
-486.0592840276718
 30
0.0
 41
20.0
 42
20.0
 43
20.0
  0
MTEXT
  5
25CF
330
25C7
100
AcDbEntity
  8
SIZE
 62
     0
100
AcDbMText
 10
5364.232854880895
 20
-466.0592840276716
 30
0.0
 40
20.0
 41
0.0
 71
     5
 72
     1
  1
\A1;829
 73
     1
 44
1.0
1001
ACAD
1000
MTEXTBEGIN
1070
    73
1070
     1
1070
    44
1040
1.0
1070
    74
1070
     0
1000
MTEXTEND
  0
POINT
  5
25D0
330
25C7
100
AcDbEntity
  8
Defpoints
 62
     0
100
AcDbPoint
 10
4949.732854880894
 20
-600.8777819187962
 30
0.0
  0
POINT
  5
25D1
330
25C7
100
AcDbEntity
  8
Defpoints
 62
     0
100
AcDbPoint
 10
5778.732854880893
 20
-600.8777819187962
 30
0.0
  0
POINT
  5
25D2
330
25C7
100
AcDbEntity
  8
Defpoints
 62
     0
100
AcDbPoint
 10
5778.732854880893
 20
-486.0592840276718
 30
0.0
  0
ENDBLK
  5
25C9
330
25C7
100
AcDbEntity
  8
0
100
AcDbBlockEnd
  0
BLOCK
  5
25D5
330
25D4
100
AcDbEntity
  8
0
100
AcDbBlockBegin
  2
*D27
 70
     1
 10
0.0
 20
0.0
 30
0.0
  3
*D27
  1

  0
LINE
  5
25D7
330
25D4
100
AcDbEntity
  8
SIZE
 62
     0
370
    -2
100
AcDbLine
 10
5778.732854880893
 20
-590.8777819187962
 30
0.0
 11
5778.732854880893
 21
-476.0592840276716
 31
0.0
  0
LINE
  5
25D8
330
25D4
100
AcDbEntity
  8
SIZE
 62
     0
370
    -2
100
AcDbLine
 10
5829.732854880893
 20
-590.8777819187966
 30
0.0
 11
5829.732854880893
 21
-476.0592840276716
 31
0.0
  0
LINE
  5
25D9
330
25D4
100
AcDbEntity
  8
SIZE
 62
     0
370
    -2
100
AcDbLine
 10
5758.732854880894
 20
-486.0592840276718
 30
0.0
 11
5738.732854880893
 21
-486.0592840276718
 31
0.0
  0
LINE
  5
25DA
330
25D4
100
AcDbEntity
  8
SIZE
 62
     0
370
    -2
100
AcDbLine
 10
5849.732854880894
 20
-486.0592840276718
 30
0.0
 11
5869.732854880894
 21
-486.0592840276718
 31
0.0
  0
LINE
  5
25DB
330
25D4
100
AcDbEntity
  8
SIZE
 62
     0
370
    -2
100
AcDbLine
 10
5778.732854880893
 20
-486.0592840276718
 30
0.0
 11
5829.732854880893
 21
-486.0592840276718
 31
0.0
  0
INSERT
  5
25DC
330
25D4
100
AcDbEntity
  8
SIZE
 62
     0
370
    -2
100
AcDbBlockReference
  2
_OPEN30
 10
5778.732854880893
 20
-486.0592840276718
 30
0.0
 41
20.0
 42
20.0
 43
20.0
  0
INSERT
  5
25DD
330
25D4
100
AcDbEntity
  8
SIZE
 62
     0
370
    -2
100
AcDbBlockReference
  2
_OPEN30
 10
5829.732854880893
 20
-486.0592840276718
 30
0.0
 41
20.0
 42
20.0
 43
20.0
 50
180.0
  0
MTEXT
  5
25DE
330
25D4
100
AcDbEntity
  8
SIZE
 62
     0
100
AcDbMText
 10
5804.232854880893
 20
-466.0592840276716
 30
0.0
 40
20.0
 41
0.0
 71
     5
 72
     1
  1
\A1;51
 73
     1
 44
1.0
1001
ACAD
1000
MTEXTBEGIN
1070
    73
1070
     1
1070
    44
1040
1.0
1070
    74
1070
     0
1000
MTEXTEND
  0
POINT
  5
25DF
330
25D4
100
AcDbEntity
  8
Defpoints
 62
     0
100
AcDbPoint
 10
5778.732854880893
 20
-600.8777819187962
 30
0.0
  0
POINT
  5
25E0
330
25D4
100
AcDbEntity
  8
Defpoints
 62
     0
100
AcDbPoint
 10
5829.732854880893
 20
-600.8777819187968
 30
0.0
  0
POINT
  5
25E1
330
25D4
100
AcDbEntity
  8
Defpoints
 62
     0
100
AcDbPoint
 10
5829.732854880893
 20
-486.0592840276718
 30
0.0
  0
ENDBLK
  5
25D6
330
25D4
100
AcDbEntity
  8
0
100
AcDbBlockEnd
  0
BLOCK
  5
25E4
330
25E3
100
AcDbEntity
  8
0
100
AcDbBlockBegin
  2
*D28
 70
     1
 10
0.0
 20
0.0
 30
0.0
  3
*D28
  1

  0
LINE
  5
25E6
330
25E3
100
AcDbEntity
  8
SIZE
 62
     0
370
    -2
100
AcDbLine
 10
5829.732854880893
 20
-590.8777819187966
 30
0.0
 11
5829.732854880893
 21
-476.0592840276716
 31
0.0
  0
LINE
  5
25E7
330
25E3
100
AcDbEntity
  8
SIZE
 62
     0
370
    -2
100
AcDbLine
 10
6658.732854880894
 20
-590.8777819187966
 30
0.0
 11
6658.732854880894
 21
-476.0592840276716
 31
0.0
  0
LINE
  5
25E8
330
25E3
100
AcDbEntity
  8
SIZE
 62
     0
370
    -2
100
AcDbLine
 10
5849.732854880894
 20
-486.0592840276718
 30
0.0
 11
6638.732854880895
 21
-486.0592840276718
 31
0.0
  0
INSERT
  5
25E9
330
25E3
100
AcDbEntity
  8
SIZE
 62
     0
370
    -2
100
AcDbBlockReference
  2
_OPEN30
 10
5829.732854880893
 20
-486.0592840276718
 30
0.0
 41
20.0
 42
20.0
 43
20.0
 50
180.0
  0
INSERT
  5
25EA
330
25E3
100
AcDbEntity
  8
SIZE
 62
     0
370
    -2
100
AcDbBlockReference
  2
_OPEN30
 10
6658.732854880894
 20
-486.0592840276718
 30
0.0
 41
20.0
 42
20.0
 43
20.0
  0
MTEXT
  5
25EB
330
25E3
100
AcDbEntity
  8
SIZE
 62
     0
100
AcDbMText
 10
6244.232854880895
 20
-466.0592840276716
 30
0.0
 40
20.0
 41
0.0
 71
     5
 72
     1
  1
\A1;829
 73
     1
 44
1.0
1001
ACAD
1000
MTEXTBEGIN
1070
    73
1070
     1
1070
    44
1040
1.0
1070
    74
1070
     0
1000
MTEXTEND
  0
POINT
  5
25EC
330
25E3
100
AcDbEntity
  8
Defpoints
 62
     0
100
AcDbPoint
 10
5829.732854880893
 20
-600.8777819187968
 30
0.0
  0
POINT
  5
25ED
330
25E3
100
AcDbEntity
  8
Defpoints
 62
     0
100
AcDbPoint
 10
6658.732854880894
 20
-600.8777819187968
 30
0.0
  0
POINT
  5
25EE
330
25E3
100
AcDbEntity
  8
Defpoints
 62
     0
100
AcDbPoint
 10
6658.732854880894
 20
-486.0592840276718
 30
0.0
  0
ENDBLK
  5
25E5
330
25E3
100
AcDbEntity
  8
0
100
AcDbBlockEnd
  0
BLOCK
  5
25F1
330
25F0
100
AcDbEntity
  8
0
100
AcDbBlockBegin
  2
*D29
 70
     1
 10
0.0
 20
0.0
 30
0.0
  3
*D29
  1

  0
LINE
  5
25F3
330
25F0
100
AcDbEntity
  8
SIZE
 62
     0
370
    -2
100
AcDbLine
 10
4933.232854880895
 20
-571.3777819187965
 30
0.0
 11
4933.232854880895
 21
-424.7588863680844
 31
0.0
  0
LINE
  5
25F4
330
25F0
100
AcDbEntity
  8
SIZE
 62
     0
370
    -2
100
AcDbLine
 10
6675.232854880895
 20
-571.3777819187972
 30
0.0
 11
6675.232854880895
 21
-424.7588863680844
 31
0.0
  0
LINE
  5
25F5
330
25F0
100
AcDbEntity
  8
SIZE
 62
     0
370
    -2
100
AcDbLine
 10
4953.232854880894
 20
-434.7588863680845
 30
0.0
 11
6655.232854880894
 21
-434.7588863680845
 31
0.0
  0
INSERT
  5
25F6
330
25F0
100
AcDbEntity
  8
SIZE
 62
     0
370
    -2
100
AcDbBlockReference
  2
_OPEN30
 10
4933.232854880895
 20
-434.7588863680845
 30
0.0
 41
20.0
 42
20.0
 43
20.0
 50
180.0
  0
INSERT
  5
25F7
330
25F0
100
AcDbEntity
  8
SIZE
 62
     0
370
    -2
100
AcDbBlockReference
  2
_OPEN30
 10
6675.232854880895
 20
-434.7588863680845
 30
0.0
 41
20.0
 42
20.0
 43
20.0
  0
MTEXT
  5
25F8
330
25F0
100
AcDbEntity
  8
SIZE
 62
     0
100
AcDbMText
 10
5804.232854880893
 20
-414.7588863680844
 30
0.0
 40
20.0
 41
0.0
 71
     5
 72
     1
  1
\A1;1742
 73
     1
 44
1.0
1001
ACAD
1000
MTEXTBEGIN
1070
    73
1070
     1
1070
    44
1040
1.0
1070
    74
1070
     0
1000
MTEXTEND
  0
POINT
  5
25F9
330
25F0
100
AcDbEntity
  8
Defpoints
 62
     0
100
AcDbPoint
 10
4933.232854880895
 20
-581.3777819187968
 30
0.0
  0
POINT
  5
25FA
330
25F0
100
AcDbEntity
  8
Defpoints
 62
     0
100
AcDbPoint
 10
6675.232854880895
 20
-581.3777819187971
 30
0.0
  0
POINT
  5
25FB
330
25F0
100
AcDbEntity
  8
Defpoints
 62
     0
100
AcDbPoint
 10
6675.232854880895
 20
-434.7588863680845
 30
0.0
  0
ENDBLK
  5
25F2
330
25F0
100
AcDbEntity
  8
0
100
AcDbBlockEnd
  0
BLOCK
  5
262F
330
262E
100
AcDbEntity
  8
0
100
AcDbBlockBegin
  2
*D30
 70
     1
 10
0.0
 20
0.0
 30
0.0
  3
*D30
  1

  0
LINE
  5
2631
330
262E
100
AcDbEntity
  8
SIZE
 62
     0
370
    -2
100
AcDbLine
 10
4926.232854880893
 20
-614.3777819187962
 30
0.0
 11
4870.21554134213
 21
-614.3777819187962
 31
0.0
  0
LINE
  5
2632
330
262E
100
AcDbEntity
  8
SIZE
 62
     0
370
    -2
100
AcDbLine
 10
4926.232854880893
 20
-764.3777819187962
 30
0.0
 11
4870.21554134213
 21
-764.3777819187962
 31
0.0
  0
LINE
  5
2633
330
262E
100
AcDbEntity
  8
SIZE
 62
     0
370
    -2
100
AcDbLine
 10
4880.215541342129
 20
-634.3777819187963
 30
0.0
 11
4880.215541342129
 21
-744.3777819187962
 31
0.0
  0
INSERT
  5
2634
330
262E
100
AcDbEntity
  8
SIZE
 62
     0
370
    -2
100
AcDbBlockReference
  2
_OPEN30
 10
4880.215541342129
 20
-614.3777819187962
 30
0.0
 41
20.0
 42
20.0
 43
20.0
 50
90.0
  0
INSERT
  5
2635
330
262E
100
AcDbEntity
  8
SIZE
 62
     0
370
    -2
100
AcDbBlockReference
  2
_OPEN30
 10
4880.215541342129
 20
-764.3777819187962
 30
0.0
 41
20.0
 42
20.0
 43
20.0
 50
270.0
  0
MTEXT
  5
2636
330
262E
100
AcDbEntity
  8
SIZE
 62
     0
100
AcDbMText
 10
4860.21554134213
 20
-689.3777819187953
 30
0.0
 40
20.0
 41
0.0
 71
     5
 72
     1
  1
\A1;150
 11
0.0000000000000001
 21
1.0
 31
0.0
 73
     1
 44
1.0
1001
ACAD
1000
MTEXTBEGIN
1070
    73
1070
     1
1070
    44
1040
1.0
1070
    74
1070
     0
1000
MTEXTEND
  0
POINT
  5
2637
330
262E
100
AcDbEntity
  8
Defpoints
 62
     0
100
AcDbPoint
 10
4936.232854880895
 20
-614.3777819187962
 30
0.0
  0
POINT
  5
2638
330
262E
100
AcDbEntity
  8
Defpoints
 62
     0
100
AcDbPoint
 10
4936.232854880895
 20
-764.3777819187962
 30
0.0
  0
POINT
  5
2639
330
262E
100
AcDbEntity
  8
Defpoints
 62
     0
100
AcDbPoint
 10
4880.215541342129
 20
-764.3777819187962
 30
0.0
  0
ENDBLK
  5
2630
330
262E
100
AcDbEntity
  8
0
100
AcDbBlockEnd
  0
BLOCK
  5
263C
330
263B
100
AcDbEntity
  8
0
100
AcDbBlockBegin
  2
*D31
 70
     1
 10
0.0
 20
0.0
 30
0.0
  3
*D31
  1

  0
LINE
  5
263E
330
263B
100
AcDbEntity
  8
SIZE
 62
     0
370
    -2
100
AcDbLine
 10
4926.232854880893
 20
-764.3777819187962
 30
0.0
 11
4870.21554134213
 21
-764.3777819187962
 31
0.0
  0
LINE
  5
263F
330
263B
100
AcDbEntity
  8
SIZE
 62
     0
370
    -2
100
AcDbLine
 10
4897.187351467979
 20
-914.3777819187972
 30
0.0
 11
4870.21554134213
 21
-914.3777819187972
 31
0.0
  0
LINE
  5
2640
330
263B
100
AcDbEntity
  8
SIZE
 62
     0
370
    -2
100
AcDbLine
 10
4880.215541342129
 20
-784.3777819187963
 30
0.0
 11
4880.215541342129
 21
-894.3777819187973
 31
0.0
  0
INSERT
  5
2641
330
263B
100
AcDbEntity
  8
SIZE
 62
     0
370
    -2
100
AcDbBlockReference
  2
_OPEN30
 10
4880.215541342129
 20
-764.3777819187962
 30
0.0
 41
20.0
 42
20.0
 43
20.0
 50
90.0
  0
INSERT
  5
2642
330
263B
100
AcDbEntity
  8
SIZE
 62
     0
370
    -2
100
AcDbBlockReference
  2
_OPEN30
 10
4880.215541342129
 20
-914.3777819187972
 30
0.0
 41
20.0
 42
20.0
 43
20.0
 50
270.0
  0
MTEXT
  5
2643
330
263B
100
AcDbEntity
  8
SIZE
 62
     0
100
AcDbMText
 10
4860.21554134213
 20
-839.3777819187958
 30
0.0
 40
20.0
 41
0.0
 71
     5
 72
     1
  1
\A1;150
 11
0.0000000000000001
 21
1.0
 31
0.0
 73
     1
 44
1.0
1001
ACAD
1000
MTEXTBEGIN
1070
    73
1070
     1
1070
    44
1040
1.0
1070
    74
1070
     0
1000
MTEXTEND
  0
POINT
  5
2644
330
263B
100
AcDbEntity
  8
Defpoints
 62
     0
100
AcDbPoint
 10
4936.232854880895
 20
-764.3777819187962
 30
0.0
  0
POINT
  5
2645
330
263B
100
AcDbEntity
  8
Defpoints
 62
     0
100
AcDbPoint
 10
4907.187351467979
 20
-914.3777819187972
 30
0.0
  0
POINT
  5
2646
330
263B
100
AcDbEntity
  8
Defpoints
 62
     0
100
AcDbPoint
 10
4880.215541342129
 20
-914.3777819187972
 30
0.0
  0
ENDBLK
  5
263D
330
263B
100
AcDbEntity
  8
0
100
AcDbBlockEnd
  0
BLOCK
  5
2649
330
2648
100
AcDbEntity
  8
0
100
AcDbBlockBegin
  2
*D32
 70
     1
 10
0.0
 20
0.0
 30
0.0
  3
*D32
  1

  0
LINE
  5
264B
330
2648
100
AcDbEntity
  8
SIZE
 62
     0
370
    -2
100
AcDbLine
 10
4897.187351467979
 20
-914.3777819187972
 30
0.0
 11
4870.21554134213
 21
-914.3777819187972
 31
0.0
  0
LINE
  5
264C
330
2648
100
AcDbEntity
  8
SIZE
 62
     0
370
    -2
100
AcDbLine
 10
4926.232854880893
 20
-1064.377781918796
 30
0.0
 11
4870.21554134213
 21
-1064.377781918796
 31
0.0
  0
LINE
  5
264D
330
2648
100
AcDbEntity
  8
SIZE
 62
     0
370
    -2
100
AcDbLine
 10
4880.215541342129
 20
-934.3777819187973
 30
0.0
 11
4880.215541342129
 21
-1044.377781918796
 31
0.0
  0
INSERT
  5
264E
330
2648
100
AcDbEntity
  8
SIZE
 62
     0
370
    -2
100
AcDbBlockReference
  2
_OPEN30
 10
4880.215541342129
 20
-914.3777819187972
 30
0.0
 41
20.0
 42
20.0
 43
20.0
 50
90.0
  0
INSERT
  5
264F
330
2648
100
AcDbEntity
  8
SIZE
 62
     0
370
    -2
100
AcDbBlockReference
  2
_OPEN30
 10
4880.215541342129
 20
-1064.377781918796
 30
0.0
 41
20.0
 42
20.0
 43
20.0
 50
270.0
  0
MTEXT
  5
2650
330
2648
100
AcDbEntity
  8
SIZE
 62
     0
100
AcDbMText
 10
4860.21554134213
 20
-989.3777819187958
 30
0.0
 40
20.0
 41
0.0
 71
     5
 72
     1
  1
\A1;150
 11
0.0000000000000001
 21
1.0
 31
0.0
 73
     1
 44
1.0
1001
ACAD
1000
MTEXTBEGIN
1070
    73
1070
     1
1070
    44
1040
1.0
1070
    74
1070
     0
1000
MTEXTEND
  0
POINT
  5
2651
330
2648
100
AcDbEntity
  8
Defpoints
 62
     0
100
AcDbPoint
 10
4907.187351467979
 20
-914.3777819187972
 30
0.0
  0
POINT
  5
2652
330
2648
100
AcDbEntity
  8
Defpoints
 62
     0
100
AcDbPoint
 10
4936.232854880895
 20
-1064.377781918796
 30
0.0
  0
POINT
  5
2653
330
2648
100
AcDbEntity
  8
Defpoints
 62
     0
100
AcDbPoint
 10
4880.215541342129
 20
-1064.377781918796
 30
0.0
  0
ENDBLK
  5
264A
330
2648
100
AcDbEntity
  8
0
100
AcDbBlockEnd
  0
BLOCK
  5
2656
330
2655
100
AcDbEntity
  8
0
100
AcDbBlockBegin
  2
*D33
 70
     1
 10
0.0
 20
0.0
 30
0.0
  3
*D33
  1

  0
LINE
  5
2658
330
2655
100
AcDbEntity
  8
SIZE
 62
     0
370
    -2
100
AcDbLine
 10
4926.232854880893
 20
-1064.377781918796
 30
0.0
 11
4870.21554134213
 21
-1064.377781918796
 31
0.0
  0
LINE
  5
2659
330
2655
100
AcDbEntity
  8
SIZE
 62
     0
370
    -2
100
AcDbLine
 10
4926.232854880893
 20
-1214.377781918796
 30
0.0
 11
4870.21554134213
 21
-1214.377781918796
 31
0.0
  0
LINE
  5
265A
330
2655
100
AcDbEntity
  8
SIZE
 62
     0
370
    -2
100
AcDbLine
 10
4880.215541342129
 20
-1084.377781918796
 30
0.0
 11
4880.215541342129
 21
-1194.377781918796
 31
0.0
  0
INSERT
  5
265B
330
2655
100
AcDbEntity
  8
SIZE
 62
     0
370
    -2
100
AcDbBlockReference
  2
_OPEN30
 10
4880.215541342129
 20
-1064.377781918796
 30
0.0
 41
20.0
 42
20.0
 43
20.0
 50
90.0
  0
INSERT
  5
265C
330
2655
100
AcDbEntity
  8
SIZE
 62
     0
370
    -2
100
AcDbBlockReference
  2
_OPEN30
 10
4880.215541342129
 20
-1214.377781918796
 30
0.0
 41
20.0
 42
20.0
 43
20.0
 50
270.0
  0
MTEXT
  5
265D
330
2655
100
AcDbEntity
  8
SIZE
 62
     0
100
AcDbMText
 10
4860.21554134213
 20
-1139.377781918795
 30
0.0
 40
20.0
 41
0.0
 71
     5
 72
     1
  1
\A1;150
 11
0.0000000000000001
 21
1.0
 31
0.0
 73
     1
 44
1.0
1001
ACAD
1000
MTEXTBEGIN
1070
    73
1070
     1
1070
    44
1040
1.0
1070
    74
1070
     0
1000
MTEXTEND
  0
POINT
  5
265E
330
2655
100
AcDbEntity
  8
Defpoints
 62
     0
100
AcDbPoint
 10
4936.232854880895
 20
-1064.377781918796
 30
0.0
  0
POINT
  5
265F
330
2655
100
AcDbEntity
  8
Defpoints
 62
     0
100
AcDbPoint
 10
4936.232854880895
 20
-1214.377781918796
 30
0.0
  0
POINT
  5
2660
330
2655
100
AcDbEntity
  8
Defpoints
 62
     0
100
AcDbPoint
 10
4880.215541342129
 20
-1214.377781918796
 30
0.0
  0
ENDBLK
  5
2657
330
2655
100
AcDbEntity
  8
0
100
AcDbBlockEnd
  0
BLOCK
  5
2663
330
2662
100
AcDbEntity
  8
0
100
AcDbBlockBegin
  2
*D34
 70
     1
 10
0.0
 20
0.0
 30
0.0
  3
*D34
  1

  0
LINE
  5
2665
330
2662
100
AcDbEntity
  8
SIZE
 62
     0
370
    -2
100
AcDbLine
 10
4964.232854880894
 20
-1292.377781918797
 30
0.0
 11
4816.205965743488
 21
-1292.377781918797
 31
0.0
  0
LINE
  5
2666
330
2662
100
AcDbEntity
  8
SIZE
 62
     0
370
    -2
100
AcDbLine
 10
4964.232854880894
 20
-536.3777819187971
 30
0.0
 11
4816.205965743488
 21
-536.377781918797
 31
0.0
  0
LINE
  5
2667
330
2662
100
AcDbEntity
  8
SIZE
 62
     0
370
    -2
100
AcDbLine
 10
4826.205965743488
 20
-1272.377781918797
 30
0.0
 11
4826.205965743488
 21
-556.377781918797
 31
0.0
  0
INSERT
  5
2668
330
2662
100
AcDbEntity
  8
SIZE
 62
     0
370
    -2
100
AcDbBlockReference
  2
_OPEN30
 10
4826.205965743488
 20
-1292.377781918797
 30
0.0
 41
20.0
 42
20.0
 43
20.0
 50
270.0
  0
INSERT
  5
2669
330
2662
100
AcDbEntity
  8
SIZE
 62
     0
370
    -2
100
AcDbBlockReference
  2
_OPEN30
 10
4826.205965743488
 20
-536.377781918797
 30
0.0
 41
20.0
 42
20.0
 43
20.0
 50
90.0
  0
MTEXT
  5
266A
330
2662
100
AcDbEntity
  8
SIZE
 62
     0
100
AcDbMText
 10
4806.205965743489
 20
-914.3777819187963
 30
0.0
 40
20.0
 41
0.0
 71
     5
 72
     1
  1
\A1;756
 11
0.0000000000000001
 21
1.0
 31
0.0
 73
     1
 44
1.0
1001
ACAD
1000
MTEXTBEGIN
1070
    73
1070
     1
1070
    44
1040
1.0
1070
    74
1070
     0
1000
MTEXTEND
  0
POINT
  5
266B
330
2662
100
AcDbEntity
  8
Defpoints
 62
     0
100
AcDbPoint
 10
4974.232854880892
 20
-1292.377781918797
 30
0.0
  0
POINT
  5
266C
330
2662
100
AcDbEntity
  8
Defpoints
 62
     0
100
AcDbPoint
 10
4974.232854880892
 20
-536.3777819187971
 30
0.0
  0
POINT
  5
266D
330
2662
100
AcDbEntity
  8
Defpoints
 62
     0
100
AcDbPoint
 10
4826.205965743488
 20
-536.377781918797
 30
0.0
  0
ENDBLK
  5
2664
330
2662
100
AcDbEntity
  8
0
100
AcDbBlockEnd
  0
ENDSEC
  0
SECTION
  2
ENTITIES
  0
MTEXT
  5
B60
330
2
100
AcDbEntity
  8
ETC
100
AcDbMText
 10
5542.397530326383
 20
-340.8611038143844
 30
0.0
 40
40.0
 41
651.9792552343242
 71
     1
 72
     5
  1
AG1T-KK77TD-6
 73
     1
 44
1.0
1001
ACAD
1000
MTEXTBEGIN
1070
    73
1070
     1
1070
    44
1040
1.0
1070
    74
1070
     0
1000
MTEXTEND
  0
MULTILEADER
  5
2084
330
2
100
AcDbEntity
  8
NOTE
 92
     1148
310
7C0400001C0000000C00000010000000050000000C00000016000000000000C00C00000013000000112700003C000000060000000200000033315DBFAE0EB3404FDC89DC61957EC00000000000000000A46E6796520EB3404FDC89DC61957EC000000000000000000C0000001300000001000000880000001D0000004DCA44
310
86FC722340D13AA738047A31400000000000000000A21C10B8A952B340D13AA738047A31C04DCA4486FC7223400000000000000000DE19E342101C83C00000000000000000000000000000000000000000000034400000000000000000000000000000000000000000000000000000000000000000000000000000F03F0C00
310
000016000000040000C30C00000017000000FDFFFFFF540000002000000002000000000000000000F0BF498A025C1426D13F000000000000000000000000000000000000000000000000000000000000000000000000000000000000000000000000000000000000F03F0C00000016000000040000C30C00000017000000FD
310
FFFFFF540000002000000002000000000000000000000000000000000000000000000000000000000000000000F0BF498A025C1426D1BF000000000000000000000000000000000000000000000000000000000000F03F0C00000016000000040000C30C00000017000000FDFFFFFF54000000200000000200000000000000
310
0000000000000000000000000000000000000000000000000000F0BF0000000000000000000000000000000000000000000000000000000000000000000000000000F03F080000001F0000000C00000016000000000000C00C00000013000000891300003C00000006000000020000003DFACC39F048B34008E01D21409082
310
C0000000000000000033315DBFAE0EB3404FDC89DC61957EC000000000000000000C000000130000009A3A00003C00000006000000020000000687EDF76AA6B2404DDC89DC61957EC00000000000000000A46E6796520EB3404DDC89DC61957EC000000000000000000C00000016000000000000C00C00000012000000FF7F
310
00000C00000017000000FFFFFFFF0C00000016000000000000C00C00000013000000993A0000AC0000000B0000002AD07F1CB4A0B2404DDC89DC61557EC0000000000000000000000000000000000000000000000000000000000000F03F000000000000F03F000000000000000000000000000000003138817E0000410004
310
000000010000000000000000003440000000000000F03F0000000000000000000000000000F03F0000000000000000000000000000000000000000726F6D616E732E7368780000657874666F6E742E73687800B00000000B00000097AB368A8FA3B240D198EF985B3580C00000000000000000000000000000000000000000
310
00000000000000000000F03F000000000000F03F0000000000000000000000000000000039817E3792B78C8A0092D37C08000000010000000000000000003440000000000000F03F0000000000000000000000000000F03F0000000000000000000000000000000000000000726F6D616E732E73687800C3657874666F6E74
310
2E73687800
100
AcDbMLeader
300
CONTEXT_DATA{
 40
1.0
 10
4772.417845578637
 20
-477.3363919625452
 30
0.0
 41
20.0
140
20.0
145
2.0
174
     1
175
     6
176
     0
177
     0
290
     1
304
18×\P9×7長穴
 11
0.0
 21
0.0
 31
1.0
340
23
 12
4774.417845578636
 22
-465.3363919625451
 32
0.0
 13
1.0
 23
0.0
 33
0.0
 42
0.0
 43
0.0
 44
0.0
 45
1.0
170
     1
 90
-1073741824
171
     1
172
     5
 91
-1073741824
141
0.0
 92
  5103612
291
     0
292
     0
173
     0
293
     0
142
0.0
143
0.0
294
     0
295
     0
296
     0
110
4946.662964827528
120
-611.5079400770444
130
0.0
111
1.0
121
0.0
131
0.0
112
0.0
122
1.0
132
0.0
297
     0
302
LEADER{
290
     1
291
     1
 10
4878.682607483398
 20
-489.3363919625453
 30
0.0
 11
-1.0
 21
0.0
 31
0.0
 90
        0
 40
0.36
304
LEADER_LINE{
 10
4946.662964827528
 20
-611.5079400770444
 30
0.0
 91
        0
305
}
303
}
301
}
340
B17
 90
 67454208
170
     1
 91
-1056964608
341
26
171
    -2
290
     1
291
     1
 41
0.36
342
32
 42
20.0
172
     2
343
23
173
     1
 95
        6
174
     1
175
     2
 92
-1056964608
292
     0
 93
-1056964608
 10
1.0
 20
1.0
 30
1.0
 43
0.0
176
     0
293
     0
294
     0
178
     0
179
     1
 45
1.0
1001
ACAD_MLEADERVER
1070
     2
  0
LINE
  5
2399
330
2
100
AcDbEntity
  8
OUTLINE
100
AcDbLine
 10
6605.232854880894
 20
-1281.377781918797
 30
0.0
 11
6605.232854880894
 21
-547.3777819187971
 31
0.0
  0
LINE
  5
239A
330
2
100
AcDbEntity
  8
OUTLINE
100
AcDbLine
 10
6605.232854880894
 20
-547.3777819187971
 30
0.0
 11
6605.232854880894
 21
-537.3777819187971
 31
0.0
  0
LINE
  5
239B
330
2
100
AcDbEntity
  8
OUTLINE
100
AcDbLine
 10
6605.232854880894
 20
-537.3777819187971
 30
0.0
 11
6635.232854880894
 21
-537.3777819187971
 31
0.0
  0
LINE
  5
239C
330
2
100
AcDbEntity
  8
OUTLINE
100
AcDbLine
 10
6635.232854880894
 20
-539.426562406602
 30
0.0
 11
6635.232854880894
 21
-537.3777819187971
 31
0.0
  0
LINE
  5
239D
330
2
100
AcDbEntity
  8
OUTLINE
100
AcDbLine
 10
6606.232854880895
 20
-538.3777819187971
 30
0.0
 11
6634.232854880895
 21
-538.3777819187971
 31
0.0
  0
LINE
  5
239E
330
2
100
AcDbEntity
  8
OUTLINE
100
AcDbLine
 10
6605.232854880894
 20
-547.3777819187971
 30
0.0
 11
6606.232854880893
 21
-547.3777819187971
 31
0.0
  0
LINE
  5
239F
330
2
100
AcDbEntity
  8
OUTLINE
100
AcDbLine
 10
6635.232854880894
 20
-1291.377781918797
 30
0.0
 11
6635.232854880894
 21
-1289.329001430992
 31
0.0
  0
LINE
  5
23A0
330
2
100
AcDbEntity
  8
OUTLINE
100
AcDbLine
 10
6630.232854880894
 20
-1291.377781918797
 30
0.0
 11
6635.232854880894
 21
-1291.377781918797
 31
0.0
  0
LINE
  5
23A1
330
2
100
AcDbEntity
  8
OUTLINE
100
AcDbLine
 10
6605.232854880894
 20
-1291.377781918797
 30
0.0
 11
6605.232854880894
 21
-1281.377781918797
 31
0.0
  0
LINE
  5
23A2
330
2
100
AcDbEntity
  8
OUTLINE
100
AcDbLine
 10
6606.232854880895
 20
-1281.377781918797
 30
0.0
 11
6605.232854880894
 21
-1281.377781918797
 31
0.0
  0
LINE
  5
23A3
330
2
100
AcDbEntity
  8
OUTLINE
100
AcDbLine
 10
6606.232854880895
 20
-1290.377781918796
 30
0.0
 11
6606.232854880895
 21
-1281.377781918797
 31
0.0
  0
LINE
  5
23A4
330
2
100
AcDbEntity
  8
OUTLINE
100
AcDbLine
 10
6606.232854880895
 20
-547.3777819187967
 30
0.0
 11
6606.232854880895
 21
-1281.377781918797
 31
0.0
  0
LINE
  5
23A5
330
2
100
AcDbEntity
  8
OUTLINE
100
AcDbLine
 10
6606.232854880895
 20
-547.3777819187971
 30
0.0
 11
6606.232854880895
 21
-538.3777819187971
 31
0.0
  0
LINE
  5
23A6
330
2
100
AcDbEntity
  8
OUTLINE
100
AcDbLine
 10
6634.232854880895
 20
-1290.377781918796
 30
0.0
 11
6606.232854880895
 21
-1290.377781918796
 31
0.0
  0
LINE
  5
23A7
330
2
100
AcDbEntity
  8
OUTLINE
100
AcDbLine
 10
6659.732854880893
 20
-1217.877781918797
 30
0.0
 11
6657.732854880895
 21
-1217.877781918797
 31
0.0
  0
LINE
  5
23A8
330
2
100
AcDbEntity
  8
OUTLINE
100
AcDbLine
 10
6657.732854880895
 20
-1210.877781918797
 30
0.0
 11
6659.732854880893
 21
-1210.877781918797
 31
0.0
  0
LINE
  5
23A9
330
2
100
AcDbEntity
  8
OUTLINE
100
AcDbLine
 10
6675.232854880895
 20
-1247.377781918797
 30
0.0
 11
6675.232854880895
 21
-581.3777819187971
 31
0.0
  0
LINE
  5
23AA
330
2
100
AcDbEntity
  8
OUTLINE
100
AcDbLine
 10
6634.232854880895
 20
-1290.377781918796
 30
0.0
 11
6675.232854880895
 21
-1247.377781918797
 31
0.0
  0
LINE
  5
23AB
330
2
100
AcDbEntity
  8
OUTLINE
100
AcDbLine
 10
6634.232854880895
 20
-538.3777819187971
 30
0.0
 11
6634.232854880895
 21
-1290.377781918796
 31
0.0
  0
LINE
  5
23AC
330
2
100
AcDbEntity
  8
OUTLINE
100
AcDbLine
 10
6657.732854880895
 20
-1060.877781918797
 30
0.0
 11
6659.732854880893
 21
-1060.877781918797
 31
0.0
  0
LINE
  5
23AD
330
2
100
AcDbEntity
  8
OUTLINE
100
AcDbLine
 10
6659.732854880893
 20
-1067.877781918797
 30
0.0
 11
6657.732854880895
 21
-1067.877781918797
 31
0.0
  0
LINE
  5
23AE
330
2
100
AcDbEntity
  8
OUTLINE
100
AcDbLine
 10
6657.732854880895
 20
-910.8777819187972
 30
0.0
 11
6659.732854880893
 21
-910.8777819187972
 31
0.0
  0
LINE
  5
23AF
330
2
100
AcDbEntity
  8
OUTLINE
100
AcDbLine
 10
6659.732854880893
 20
-917.877781918797
 30
0.0
 11
6657.732854880895
 21
-917.877781918797
 31
0.0
  0
LINE
  5
23B0
330
2
100
AcDbEntity
  8
OUTLINE
100
AcDbLine
 10
6657.732854880895
 20
-760.8777819187971
 30
0.0
 11
6659.732854880893
 21
-760.8777819187971
 31
0.0
  0
LINE
  5
23B1
330
2
100
AcDbEntity
  8
OUTLINE
100
AcDbLine
 10
6659.732854880893
 20
-767.8777819187971
 30
0.0
 11
6657.732854880895
 21
-767.8777819187971
 31
0.0
  0
LINE
  5
23B2
330
2
100
AcDbEntity
  8
OUTLINE
100
AcDbLine
 10
6657.732854880895
 20
-610.8777819187971
 30
0.0
 11
6659.732854880893
 21
-610.8777819187971
 31
0.0
  0
LINE
  5
23B3
330
2
100
AcDbEntity
  8
OUTLINE
100
AcDbLine
 10
6659.732854880893
 20
-617.8777819187971
 30
0.0
 11
6657.732854880895
 21
-617.8777819187971
 31
0.0
  0
LINE
  5
23B4
330
2
100
AcDbEntity
  8
OUTLINE
100
AcDbLine
 10
6675.232854880895
 20
-581.3777819187971
 30
0.0
 11
6634.232854880895
 21
-538.3777819187971
 31
0.0
  0
ELLIPSE
  5
23B5
330
2
100
AcDbEntity
  8
OUTLINE
100
AcDbEllipse
 10
6620.232854880895
 20
-546.5134680447763
 30
0.0
 11
-2.0
 21
-0.0000000000000008
 31
0.0
210
0.0
220
0.0
230
1.0
 40
0.8745946342037116
 41
-0.0000000000000006
 42
6.283185307179584
  0
ELLIPSE
  5
23B6
330
2
100
AcDbEntity
  8
OUTLINE
100
AcDbEllipse
 10
6620.232854880895
 20
-546.9983228950362
 30
0.0
 11
2.0
 21
0.0000000000000008
 31
0.0
210
0.0
220
0.0
230
1.0
 40
0.8745946342037116
 41
0.1390417380969541
 42
3.002550915492836
  0
ELLIPSE
  5
23B7
330
2
100
AcDbEntity
  8
OUTLINE
100
AcDbEllipse
 10
6620.232854880895
 20
-730.6631960778177
 30
0.0
 11
2.0
 21
0.0000000000000008
 31
0.0
210
0.0
220
0.0
230
1.0
 40
0.8745946342037116
 41
0.1390417380972681
 42
3.002550915492522
  0
ELLIPSE
  5
23B8
330
2
100
AcDbEntity
  8
OUTLINE
100
AcDbEllipse
 10
6620.232854880895
 20
-730.1783412275567
 30
0.0
 11
-2.0
 21
-0.0000000000000008
 31
0.0
210
0.0
220
0.0
230
1.0
 40
0.8745946342037116
 41
-0.0000000000000006
 42
6.283185307179584
  0
ELLIPSE
  5
23B9
330
2
100
AcDbEntity
  8
OUTLINE
100
AcDbEllipse
 10
6620.232854880895
 20
-914.328069260595
 30
0.0
 11
2.0
 21
0.0000000000000008
 31
0.0
210
0.0
220
0.0
230
1.0
 40
0.8745946342037116
 41
0.1390417380975196
 42
3.002550915492271
  0
ELLIPSE
  5
23BA
330
2
100
AcDbEntity
  8
OUTLINE
100
AcDbEllipse
 10
6620.232854880895
 20
-913.8432144103326
 30
0.0
 11
-2.0
 21
-0.0000000000000008
 31
0.0
210
0.0
220
0.0
230
1.0
 40
0.8745946342037116
 41
-0.0000000000000006
 42
6.283185307179584
  0
ELLIPSE
  5
23BB
330
2
100
AcDbEntity
  8
OUTLINE
100
AcDbEllipse
 10
6620.232854880895
 20
-1097.992942443372
 30
0.0
 11
2.0
 21
0.0000000000000008
 31
0.0
210
0.0
220
0.0
230
1.0
 40
0.8745946342037116
 41
0.1390417380975196
 42
3.002550915492271
  0
ELLIPSE
  5
23BC
330
2
100
AcDbEntity
  8
OUTLINE
100
AcDbEllipse
 10
6620.232854880895
 20
-1097.50808759311
 30
0.0
 11
-2.0
 21
-0.0000000000000008
 31
0.0
210
0.0
220
0.0
230
1.0
 40
0.8745946342037116
 41
-0.0000000000000006
 42
6.283185307179584
  0
ELLIPSE
  5
23BD
330
2
100
AcDbEntity
  8
OUTLINE
100
AcDbEllipse
 10
6620.232854880895
 20
-1281.65781562616
 30
0.0
 11
2.0
 21
0.0000000000000008
 31
0.0
210
0.0
220
0.0
230
1.0
 40
0.8745946342037116
 41
0.1390417380975196
 42
3.002550915492271
  0
ELLIPSE
  5
23BE
330
2
100
AcDbEntity
  8
OUTLINE
100
AcDbEllipse
 10
6620.232854880895
 20
-1281.172960775899
 30
0.0
 11
-2.0
 21
-0.0000000000000008
 31
0.0
210
0.0
220
0.0
230
1.0
 40
0.8745946342037116
 41
-0.0000000000000006
 42
6.283185307179584
  0
ARC
  5
23BF
330
2
100
AcDbEntity
  8
OUTLINE
100
AcDbCircle
 10
6657.732854880895
 20
-1214.377781918797
 30
0.0
 40
3.5
100
AcDbArc
 50
90.0
 51
270.0
  0
ARC
  5
23C0
330
2
100
AcDbEntity
  8
OUTLINE
100
AcDbCircle
 10
6659.732854880893
 20
-1214.377781918797
 30
0.0
 40
3.5
100
AcDbArc
 50
270.0
 51
90.0
  0
ARC
  5
23C1
330
2
100
AcDbEntity
  8
OUTLINE
100
AcDbCircle
 10
6659.732854880893
 20
-1064.377781918797
 30
0.0
 40
3.5
100
AcDbArc
 50
270.0
 51
90.0
  0
ARC
  5
23C2
330
2
100
AcDbEntity
  8
OUTLINE
100
AcDbCircle
 10
6657.732854880895
 20
-1064.377781918797
 30
0.0
 40
3.5
100
AcDbArc
 50
90.0
 51
270.0
  0
ARC
  5
23C3
330
2
100
AcDbEntity
  8
OUTLINE
100
AcDbCircle
 10
6659.732854880893
 20
-914.3777819187972
 30
0.0
 40
3.5
100
AcDbArc
 50
270.0
 51
90.0
  0
ARC
  5
23C4
330
2
100
AcDbEntity
  8
OUTLINE
100
AcDbCircle
 10
6657.732854880895
 20
-914.3777819187972
 30
0.0
 40
3.5
100
AcDbArc
 50
90.0
 51
270.0
  0
ARC
  5
23C5
330
2
100
AcDbEntity
  8
OUTLINE
100
AcDbCircle
 10
6659.732854880893
 20
-764.3777819187971
 30
0.0
 40
3.5
100
AcDbArc
 50
270.0
 51
90.0
  0
ARC
  5
23C6
330
2
100
AcDbEntity
  8
OUTLINE
100
AcDbCircle
 10
6657.732854880895
 20
-764.3777819187971
 30
0.0
 40
3.5
100
AcDbArc
 50
90.0
 51
270.0
  0
ARC
  5
23C7
330
2
100
AcDbEntity
  8
OUTLINE
100
AcDbCircle
 10
6659.732854880893
 20
-614.3777819187971
 30
0.0
 40
3.5
100
AcDbArc
 50
270.0
 51
90.0
  0
ARC
  5
23C8
330
2
100
AcDbEntity
  8
OUTLINE
100
AcDbCircle
 10
6657.732854880895
 20
-614.3777819187971
 30
0.0
 40
3.5
100
AcDbArc
 50
90.0
 51
270.0
  0
LINE
  5
23C9
330
2
100
AcDbEntity
  8
OUTLINE
100
AcDbLine
 10
5805.232854880894
 20
-537.3777819187971
 30
0.0
 11
5833.232854880893
 21
-537.3777819187971
 31
0.0
  0
LINE
  5
23CA
330
2
100
AcDbEntity
  8
OUTLINE
100
AcDbLine
 10
5833.232854880893
 20
-542.8777819187971
 30
0.0
 11
5833.232854880893
 21
-537.3777819187971
 31
0.0
  0
LINE
  5
23CB
330
2
100
AcDbEntity
  8
OUTLINE
100
AcDbLine
 10
5833.232854880893
 20
-1291.377781918797
 30
0.0
 11
5833.232854880893
 21
-1285.877781918797
 31
0.0
  0
LINE
  5
23CC
330
2
100
AcDbEntity
  8
OUTLINE
100
AcDbLine
 10
5805.232854880894
 20
-1291.377781918797
 30
0.0
 11
5808.232854880894
 21
-1291.377781918797
 31
0.0
  0
LINE
  5
23CD
330
2
100
AcDbEntity
  8
OUTLINE
100
AcDbLine
 10
5805.232854880894
 20
-538.3777819187971
 30
0.0
 11
5832.232854880894
 21
-538.3777819187971
 31
0.0
  0
LINE
  5
23CE
330
2
100
AcDbEntity
  8
OUTLINE
100
AcDbLine
 10
5805.232854880894
 20
-1290.377781918797
 30
0.0
 11
5832.232854880894
 21
-1290.377781918797
 31
0.0
  0
LINE
  5
23CF
330
2
100
AcDbEntity
  8
OUTLINE
100
AcDbLine
 10
5832.232854880894
 20
-538.3777819187971
 30
0.0
 11
5832.232854880894
 21
-542.3777819187971
 31
0.0
  0
LINE
  5
23D0
330
2
100
AcDbEntity
  8
OUTLINE
100
AcDbLine
 10
5832.232854880894
 20
-1286.377781918798
 30
0.0
 11
5832.232854880894
 21
-1290.377781918797
 31
0.0
  0
LINE
  5
23D1
330
2
100
AcDbEntity
  8
OUTLINE
100
AcDbLine
 10
5833.232854880893
 20
-611.9282921760144
 30
0.0
 11
5833.232854880893
 21
-616.8272716615797
 31
0.0
  0
LINE
  5
23D2
330
2
100
AcDbEntity
  8
OUTLINE
100
AcDbLine
 10
5833.232854880893
 20
-761.9282921760145
 30
0.0
 11
5833.232854880893
 21
-766.8272716615797
 31
0.0
  0
LINE
  5
23D3
330
2
100
AcDbEntity
  8
OUTLINE
100
AcDbLine
 10
5833.232854880893
 20
-788.8777819187967
 30
0.0
 11
5833.232854880893
 21
-1039.877781918797
 31
0.0
  0
LINE
  5
23D4
330
2
100
AcDbEntity
  8
OUTLINE
100
AcDbLine
 10
5833.232854880893
 20
-1061.928292176014
 30
0.0
 11
5833.232854880893
 21
-1066.82727166158
 31
0.0
  0
LINE
  5
23D5
330
2
100
AcDbEntity
  8
OUTLINE
100
AcDbLine
 10
5833.232854880893
 20
-1211.928292176014
 30
0.0
 11
5833.232854880893
 21
-1216.82727166158
 31
0.0
  0
LINE
  5
23D6
330
2
100
AcDbEntity
  8
OUTLINE
100
AcDbLine
 10
5832.232854880895
 20
-611.2155042586291
 30
0.0
 11
5832.232854880895
 21
-617.5400595789652
 31
0.0
  0
LINE
  5
23D7
330
2
100
AcDbEntity
  8
OUTLINE
100
AcDbLine
 10
5832.232854880895
 20
-761.2155042586291
 30
0.0
 11
5832.232854880895
 21
-767.5400595789652
 31
0.0
  0
LINE
  5
23D8
330
2
100
AcDbEntity
  8
OUTLINE
100
AcDbLine
 10
5832.232854880895
 20
-1061.215504258629
 30
0.0
 11
5832.232854880895
 21
-1067.540059578965
 31
0.0
  0
LINE
  5
23D9
330
2
100
AcDbEntity
  8
OUTLINE
100
AcDbLine
 10
5832.232854880894
 20
-1211.215504258629
 30
0.0
 11
5832.232854880894
 21
-1217.540059578965
 31
0.0
  0
LINE
  5
23DA
330
2
100
AcDbEntity
  8
OUTLINE
100
AcDbLine
 10
5832.732854880894
 20
-789.3777819187976
 30
0.0
 11
5845.232854880894
 21
-776.8777819187976
 31
0.0
  0
LINE
  5
23DB
330
2
100
AcDbEntity
  8
OUTLINE
100
AcDbLine
 10
5832.732854880894
 20
-1039.377781918797
 30
0.0
 11
5832.732854880894
 21
-789.3777819187971
 31
0.0
  0
LINE
  5
23DC
330
2
100
AcDbEntity
  8
OUTLINE
100
AcDbLine
 10
5845.232854880894
 20
-1051.877781918797
 30
0.0
 11
5832.732854880894
 21
-1039.377781918797
 31
0.0
  0
LINE
  5
23DD
330
2
100
AcDbEntity
  8
OUTLINE
100
AcDbLine
 10
5845.232854880894
 20
-1273.877781918797
 30
0.0
 11
5845.232854880894
 21
-1051.877781918797
 31
0.0
  0
LINE
  5
23DE
330
2
100
AcDbEntity
  8
OUTLINE
100
AcDbLine
 10
5845.232854880894
 20
-1273.877781918797
 30
0.0
 11
5832.732854880894
 21
-1286.377781918797
 31
0.0
  0
LINE
  5
23DF
330
2
100
AcDbEntity
  8
OUTLINE
100
AcDbLine
 10
5805.232854880894
 20
-1286.377781918797
 30
0.0
 11
5832.732854880894
 21
-1286.377781918797
 31
0.0
  0
LINE
  5
23E0
330
2
100
AcDbEntity
  8
OUTLINE
100
AcDbLine
 10
5805.232854880894
 20
-1291.377781918797
 30
0.0
 11
5805.232854880894
 21
-1286.377781918797
 31
0.0
  0
LINE
  5
23E1
330
2
100
AcDbEntity
  8
OUTLINE
100
AcDbLine
 10
5804.232854880893
 20
-1291.377781918797
 30
0.0
 11
5805.232854880894
 21
-1291.377781918797
 31
0.0
  0
LINE
  5
23E2
330
2
100
AcDbEntity
  8
OUTLINE
100
AcDbLine
 10
5804.232854880893
 20
-1291.377781918797
 30
0.0
 11
5804.232854880893
 21
-537.3777819187971
 31
0.0
  0
LINE
  5
23E3
330
2
100
AcDbEntity
  8
OUTLINE
100
AcDbLine
 10
5804.232854880893
 20
-537.3777819187971
 30
0.0
 11
5805.232854880894
 21
-537.3777819187971
 31
0.0
  0
LINE
  5
23E4
330
2
100
AcDbEntity
  8
OUTLINE
100
AcDbLine
 10
5805.232854880894
 20
-542.3777819187971
 30
0.0
 11
5805.232854880894
 21
-537.3777819187971
 31
0.0
  0
LINE
  5
23E5
330
2
100
AcDbEntity
  8
OUTLINE
100
AcDbLine
 10
5805.232854880894
 20
-542.3777819187971
 30
0.0
 11
5832.732854880894
 21
-542.3777819187971
 31
0.0
  0
LINE
  5
23E6
330
2
100
AcDbEntity
  8
OUTLINE
100
AcDbLine
 10
5828.732854880893
 20
-610.8777819187971
 30
0.0
 11
5830.732854880894
 21
-610.8777819187971
 31
0.0
  0
LINE
  5
23E7
330
2
100
AcDbEntity
  8
OUTLINE
100
AcDbLine
 10
5830.732854880894
 20
-617.8777819187971
 30
0.0
 11
5828.732854880893
 21
-617.8777819187971
 31
0.0
  0
LINE
  5
23E8
330
2
100
AcDbEntity
  8
OUTLINE
100
AcDbLine
 10
5828.732854880893
 20
-760.8777819187971
 30
0.0
 11
5830.732854880894
 21
-760.8777819187971
 31
0.0
  0
LINE
  5
23E9
330
2
100
AcDbEntity
  8
OUTLINE
100
AcDbLine
 10
5830.732854880894
 20
-767.8777819187971
 30
0.0
 11
5828.732854880893
 21
-767.8777819187971
 31
0.0
  0
LINE
  5
23EA
330
2
100
AcDbEntity
  8
OUTLINE
100
AcDbLine
 10
5828.732854880893
 20
-1060.877781918797
 30
0.0
 11
5830.732854880894
 21
-1060.877781918797
 31
0.0
  0
LINE
  5
23EB
330
2
100
AcDbEntity
  8
OUTLINE
100
AcDbLine
 10
5830.732854880894
 20
-1067.877781918797
 30
0.0
 11
5828.732854880893
 21
-1067.877781918797
 31
0.0
  0
LINE
  5
23EC
330
2
100
AcDbEntity
  8
OUTLINE
100
AcDbLine
 10
5830.732854880894
 20
-1217.877781918797
 30
0.0
 11
5828.732854880893
 21
-1217.877781918797
 31
0.0
  0
LINE
  5
23ED
330
2
100
AcDbEntity
  8
OUTLINE
100
AcDbLine
 10
5828.732854880893
 20
-1210.877781918797
 30
0.0
 11
5830.732854880894
 21
-1210.877781918797
 31
0.0
  0
LINE
  5
23EE
330
2
100
AcDbEntity
  8
OUTLINE
100
AcDbLine
 10
5845.232854880894
 20
-776.8777819187971
 30
0.0
 11
5845.232854880894
 21
-554.8777819187971
 31
0.0
  0
LINE
  5
23EF
330
2
100
AcDbEntity
  8
OUTLINE
100
AcDbLine
 10
5832.732854880894
 20
-542.3777819187971
 30
0.0
 11
5845.232854880894
 21
-554.8777819187971
 31
0.0
  0
ARC
  5
23F0
330
2
100
AcDbEntity
  8
OUTLINE
100
AcDbCircle
 10
5828.732854880893
 20
-614.3777819187971
 30
0.0
 40
3.5
100
AcDbArc
 50
90.0
 51
270.0
  0
ARC
  5
23F1
330
2
100
AcDbEntity
  8
OUTLINE
100
AcDbCircle
 10
5830.732854880894
 20
-614.3777819187971
 30
0.0
 40
3.5
100
AcDbArc
 50
270.0
 51
90.0
  0
ARC
  5
23F2
330
2
100
AcDbEntity
  8
OUTLINE
100
AcDbCircle
 10
5828.732854880893
 20
-764.3777819187971
 30
0.0
 40
3.5
100
AcDbArc
 50
90.0
 51
270.0
  0
ARC
  5
23F3
330
2
100
AcDbEntity
  8
OUTLINE
100
AcDbCircle
 10
5830.732854880894
 20
-764.3777819187971
 30
0.0
 40
3.5
100
AcDbArc
 50
270.0
 51
90.0
  0
ARC
  5
23F4
330
2
100
AcDbEntity
  8
OUTLINE
100
AcDbCircle
 10
5828.732854880893
 20
-1064.377781918797
 30
0.0
 40
3.5
100
AcDbArc
 50
90.0
 51
270.0
  0
ARC
  5
23F5
330
2
100
AcDbEntity
  8
OUTLINE
100
AcDbCircle
 10
5830.732854880894
 20
-1064.377781918797
 30
0.0
 40
3.5
100
AcDbArc
 50
270.0
 51
90.0
  0
ARC
  5
23F6
330
2
100
AcDbEntity
  8
OUTLINE
100
AcDbCircle
 10
5828.732854880893
 20
-1214.377781918797
 30
0.0
 40
3.5
100
AcDbArc
 50
90.0
 51
270.0
  0
ARC
  5
23F7
330
2
100
AcDbEntity
  8
OUTLINE
100
AcDbCircle
 10
5830.732854880894
 20
-1214.377781918797
 30
0.0
 40
3.5
100
AcDbArc
 50
270.0
 51
90.0
  0
LINE
  5
23F8
330
2
100
AcDbEntity
  8
OUTLINE
100
AcDbLine
 10
5804.232854880893
 20
-536.3777819187971
 30
0.0
 11
5804.232854880893
 21
-537.3777819187971
 31
0.0
  0
LINE
  5
23F9
330
2
100
AcDbEntity
  8
OUTLINE
100
AcDbLine
 10
5809.232854880893
 20
-536.3777819187971
 30
0.0
 11
5804.232854880893
 21
-536.3777819187971
 31
0.0
  0
LINE
  5
23FA
330
2
100
AcDbEntity
  8
OUTLINE
100
AcDbLine
 10
6634.232854880893
 20
-537.3777819187971
 30
0.0
 11
6634.232854880893
 21
-536.3777819187971
 31
0.0
  0
LINE
  5
23FB
330
2
100
AcDbEntity
  8
OUTLINE
100
AcDbLine
 10
6634.232854880893
 20
-536.3777819187971
 30
0.0
 11
6629.232854880894
 21
-536.3777819187971
 31
0.0
  0
LINE
  5
23FC
330
2
100
AcDbEntity
  8
OUTLINE
100
AcDbLine
 10
5834.232854880894
 20
-539.3777819187971
 30
0.0
 11
5834.232854880894
 21
-543.8777819187976
 31
0.0
  0
LINE
  5
23FD
330
2
100
AcDbEntity
  8
OUTLINE
100
AcDbLine
 10
6604.232854880894
 20
-539.3777819187971
 30
0.0
 11
6604.232854880894
 21
-550.3777819187972
 31
0.0
  0
LINE
  5
23FE
330
2
100
AcDbEntity
  8
OUTLINE
100
AcDbLine
 10
5834.232854880894
 20
-537.3777819187971
 30
0.0
 11
5809.232854880893
 21
-537.3777819187971
 31
0.0
  0
LINE
  5
23FF
330
2
100
AcDbEntity
  8
OUTLINE
100
AcDbLine
 10
5809.232854880893
 20
-537.3777819187971
 30
0.0
 11
5809.232854880893
 21
-536.3777819187971
 31
0.0
  0
LINE
  5
2400
330
2
100
AcDbEntity
  8
OUTLINE
100
AcDbLine
 10
5834.232854880894
 20
-536.3777819187971
 30
0.0
 11
5809.232854880893
 21
-536.3777819187971
 31
0.0
  0
LINE
  5
2401
330
2
100
AcDbEntity
  8
OUTLINE
100
AcDbLine
 10
6629.232854880894
 20
-536.3777819187971
 30
0.0
 11
6604.232854880894
 21
-536.3777819187971
 31
0.0
  0
LINE
  5
2402
330
2
100
AcDbEntity
  8
OUTLINE
100
AcDbLine
 10
6629.232854880894
 20
-536.3777819187971
 30
0.0
 11
6629.232854880894
 21
-537.3777819187971
 31
0.0
  0
LINE
  5
2403
330
2
100
AcDbEntity
  8
OUTLINE
100
AcDbLine
 10
6629.232854880894
 20
-537.3777819187971
 30
0.0
 11
6604.232854880894
 21
-537.3777819187971
 31
0.0
  0
LINE
  5
2404
330
2
100
AcDbEntity
  8
OUTLINE
100
AcDbLine
 10
6604.232854880894
 20
-536.3777819187971
 30
0.0
 11
5834.232854880894
 21
-536.3777819187971
 31
0.0
  0
LINE
  5
2405
330
2
100
AcDbEntity
  8
OUTLINE
100
AcDbLine
 10
6604.232854880894
 20
-536.3777819187971
 30
0.0
 11
6604.232854880894
 21
-539.3777819187971
 31
0.0
  0
LINE
  5
2406
330
2
100
AcDbEntity
  8
OUTLINE
100
AcDbLine
 10
5834.232854880894
 20
-536.3777819187971
 30
0.0
 11
5834.232854880894
 21
-539.3777819187971
 31
0.0
  0
LINE
  5
2407
330
2
100
AcDbEntity
  8
OUTLINE
100
AcDbLine
 10
5839.232854880894
 20
-544.3777819187971
 30
0.0
 11
5834.232854880894
 21
-539.3777819187971
 31
0.0
  0
LINE
  5
2408
330
2
100
AcDbEntity
  8
OUTLINE
100
AcDbLine
 10
5839.232854880894
 20
-544.3777819187971
 30
0.0
 11
6599.232854880894
 21
-544.3777819187971
 31
0.0
  0
LINE
  5
2409
330
2
100
AcDbEntity
  8
OUTLINE
100
AcDbLine
 10
6604.232854880894
 20
-539.3777819187971
 30
0.0
 11
6599.232854880894
 21
-544.3777819187971
 31
0.0
  0
LINE
  5
240A
330
2
100
AcDbEntity
  8
OUTLINE
100
AcDbLine
 10
6604.232854880894
 20
-551.3777819187971
 30
0.0
 11
6604.232854880894
 21
-550.3777819187972
 31
0.0
  0
LINE
  5
240B
330
2
100
AcDbEntity
  8
OUTLINE
100
AcDbLine
 10
6599.232854880894
 20
-551.3777819187971
 30
0.0
 11
6604.232854880894
 21
-551.3777819187971
 31
0.0
  0
LINE
  5
240C
330
2
100
AcDbEntity
  8
OUTLINE
100
AcDbLine
 10
6599.232854880894
 20
-550.3777819187972
 30
0.0
 11
6599.232854880894
 21
-551.3777819187971
 31
0.0
  0
LINE
  5
240D
330
2
100
AcDbEntity
  8
OUTLINE
100
AcDbLine
 10
6599.232854880894
 20
-551.3777819187971
 30
0.0
 11
5841.732854880895
 21
-551.3777819187971
 31
0.0
  0
LINE
  5
240E
330
2
100
AcDbEntity
  8
OUTLINE
100
AcDbLine
 10
6604.232854880894
 20
-550.3777819187972
 30
0.0
 11
6599.232854880894
 21
-550.3777819187972
 31
0.0
  0
LINE
  5
240F
330
2
100
AcDbEntity
  8
OUTLINE
100
AcDbLine
 10
5840.732854880894
 20
-550.3777819187972
 30
0.0
 11
6599.232854880894
 21
-550.3777819187972
 31
0.0
  0
LINE
  5
2410
330
2
100
AcDbEntity
  8
OUTLINE
100
AcDbLine
 10
6604.232854880895
 20
-1241.249271965272
 30
0.0
 11
6604.232854880895
 21
-1240.374652258132
 31
0.0
  0
LINE
  5
2411
330
2
100
AcDbEntity
  8
OUTLINE
100
AcDbLine
 10
6604.232854880895
 20
-1240.374652258132
 30
0.0
 11
6599.232854880894
 21
-1237.950604156901
 31
0.0
  0
LINE
  5
2412
330
2
100
AcDbEntity
  8
OUTLINE
100
AcDbLine
 10
6599.232854880894
 20
-1238.82522386404
 30
0.0
 11
6604.232854880895
 21
-1241.249271965271
 31
0.0
  0
LINE
  5
2413
330
2
100
AcDbEntity
  8
OUTLINE
100
AcDbLine
 10
6604.232854880895
 20
-1248.521416268966
 30
0.0
 11
6604.232854880895
 21
-1241.249271965271
 31
0.0
  0
LINE
  5
2414
330
2
100
AcDbEntity
  8
OUTLINE
100
AcDbLine
 10
5845.232854880894
 20
-1237.950604156901
 30
0.0
 11
6599.232854880894
 21
-1237.950604156901
 31
0.0
  0
LINE
  5
2415
330
2
100
AcDbEntity
  8
OUTLINE
100
AcDbLine
 10
6599.232854880894
 20
-1237.9506041569
 30
0.0
 11
6599.232854880894
 21
-1238.82522386404
 31
0.0
  0
LINE
  5
2416
330
2
100
AcDbEntity
  8
OUTLINE
100
AcDbLine
 10
5845.232854880894
 20
-1238.82522386404
 30
0.0
 11
6599.232854880894
 21
-1238.82522386404
 31
0.0
  0
LINE
  5
2417
330
2
100
AcDbEntity
  8
OUTLINE
100
AcDbLine
 10
5809.232854880895
 20
-1291.377781918797
 30
0.0
 11
5808.232854880894
 21
-1291.377781918797
 31
0.0
  0
LINE
  5
2418
330
2
100
AcDbEntity
  8
OUTLINE
100
AcDbLine
 10
5809.232854880893
 20
-1292.377781918797
 30
0.0
 11
5809.232854880893
 21
-1291.377781918797
 31
0.0
  0
LINE
  5
2419
330
2
100
AcDbEntity
  8
OUTLINE
100
AcDbLine
 10
5834.232854880894
 20
-1291.377781918797
 30
0.0
 11
5809.232854880893
 21
-1291.377781918797
 31
0.0
  0
LINE
  5
241A
330
2
100
AcDbEntity
  8
OUTLINE
100
AcDbLine
 10
5834.232854880894
 20
-1289.377781918797
 30
0.0
 11
5834.232854880894
 21
-1291.377781918797
 31
0.0
  0
LINE
  5
241B
330
2
100
AcDbEntity
  8
OUTLINE
100
AcDbLine
 10
5834.232854880894
 20
-1289.377781918797
 30
0.0
 11
5839.232854880894
 21
-1284.377781918796
 31
0.0
  0
LINE
  5
241C
330
2
100
AcDbEntity
  8
OUTLINE
100
AcDbLine
 10
5839.232854880894
 20
-1284.377781918796
 30
0.0
 11
6599.232854880894
 21
-1284.377781918796
 31
0.0
  0
LINE
  5
241D
330
2
100
AcDbEntity
  8
OUTLINE
100
AcDbLine
 10
6599.232854880894
 20
-1284.377781918796
 30
0.0
 11
6604.232854880895
 21
-1289.377781918797
 31
0.0
  0
LINE
  5
241E
330
2
100
AcDbEntity
  8
OUTLINE
100
AcDbLine
 10
6604.232854880895
 20
-1291.377781918797
 30
0.0
 11
6604.232854880895
 21
-1289.377781918797
 31
0.0
  0
LINE
  5
241F
330
2
100
AcDbEntity
  8
OUTLINE
100
AcDbLine
 10
6629.232854880895
 20
-1291.377781918797
 30
0.0
 11
6604.232854880895
 21
-1291.377781918797
 31
0.0
  0
LINE
  5
2420
330
2
100
AcDbEntity
  8
OUTLINE
100
AcDbLine
 10
6629.232854880895
 20
-1291.377781918797
 30
0.0
 11
6629.232854880895
 21
-1292.377781918797
 31
0.0
  0
LINE
  5
2421
330
2
100
AcDbEntity
  8
OUTLINE
100
AcDbLine
 10
6630.232854880894
 20
-1291.377781918797
 30
0.0
 11
6629.232854880895
 21
-1291.377781918797
 31
0.0
  0
LINE
  5
2422
330
2
100
AcDbEntity
  8
OUTLINE
100
AcDbLine
 10
5804.232854880893
 20
-1291.377781918797
 30
0.0
 11
5804.232854880893
 21
-1292.377781918797
 31
0.0
  0
LINE
  5
2423
330
2
100
AcDbEntity
  8
OUTLINE
100
AcDbLine
 10
5834.232854880894
 20
-1284.877781918797
 30
0.0
 11
5834.232854880894
 21
-1289.377781918797
 31
0.0
  0
LINE
  5
2424
330
2
100
AcDbEntity
  8
OUTLINE
100
AcDbLine
 10
5845.232854880894
 20
-1248.521416268967
 30
0.0
 11
6604.232854880895
 21
-1248.521416268967
 31
0.0
  0
LINE
  5
2425
330
2
100
AcDbEntity
  8
OUTLINE
100
AcDbLine
 10
6604.232854880894
 20
-1289.377781918797
 30
0.0
 11
6604.232854880894
 21
-1248.521416268966
 31
0.0
  0
LINE
  5
2426
330
2
100
AcDbEntity
  8
OUTLINE
100
AcDbLine
 10
6634.232854880895
 20
-1292.377781918797
 30
0.0
 11
6634.232854880895
 21
-1291.377781918797
 31
0.0
  0
LINE
  5
2427
330
2
100
AcDbEntity
  8
OUTLINE
100
AcDbLine
 10
5804.232854880893
 20
-1292.377781918797
 30
0.0
 11
5809.232854880895
 21
-1292.377781918797
 31
0.0
  0
LINE
  5
2428
330
2
100
AcDbEntity
  8
OUTLINE
100
AcDbLine
 10
5809.232854880893
 20
-1292.377781918797
 30
0.0
 11
6629.232854880894
 21
-1292.377781918797
 31
0.0
  0
LINE
  5
2429
330
2
100
AcDbEntity
  8
OUTLINE
100
AcDbLine
 10
6629.232854880895
 20
-1292.377781918797
 30
0.0
 11
6634.232854880895
 21
-1292.377781918797
 31
0.0
  0
ELLIPSE
  5
242A
330
2
100
AcDbEntity
  8
OUTLINE
100
AcDbEllipse
 10
6078.232854880894
 20
-1269.637669533173
 30
0.0
 11
2.0
 21
-0.0000000000000021
 31
0.0
210
0.0
220
0.0
230
1.0
 40
0.8746197071393957
 41
0.1390246718225946
 42
3.002567981767201
  0
ELLIPSE
  5
242B
330
2
100
AcDbEntity
  8
OUTLINE
100
AcDbEllipse
 10
6078.232854880894
 20
-1269.152859912926
 30
0.0
 11
-2.0
 21
0.0000000000000021
 31
0.0
210
0.0
220
0.0
230
1.0
 40
0.8746197071393957
 41
0.0000000000000011
 42
6.283185307179587
  0
ELLIPSE
  5
242C
330
2
100
AcDbEntity
  8
OUTLINE
100
AcDbEllipse
 10
6360.232854880894
 20
-1269.637669533173
 30
0.0
 11
2.0
 21
-0.0000000000000021
 31
0.0
210
0.0
220
0.0
230
1.0
 40
0.8746197071393957
 41
0.1390246718226024
 42
3.002567981767192
  0
ELLIPSE
  5
242D
330
2
100
AcDbEntity
  8
OUTLINE
100
AcDbEllipse
 10
6360.232854880894
 20
-1269.152859912926
 30
0.0
 11
-2.0
 21
0.0000000000000021
 31
0.0
210
0.0
220
0.0
230
1.0
 40
0.8746197071393957
 41
0.0000000000000011
 42
6.283185307179587
  0
LINE
  5
242E
330
2
100
AcDbEntity
  8
OUTLINE
100
AcDbLine
 10
6604.232854880895
 20
-536.1118960607599
 30
0.0
 11
5834.232854880895
 21
-536.1118960607608
 31
0.0
  0
LINE
  5
242F
330
2
100
AcDbEntity
  8
OUTLINE
100
AcDbLine
 10
5834.232854880895
 20
-536.1118960607605
 30
0.0
 11
5834.232854880895
 21
-536.3777819187975
 31
0.0
  0
LINE
  5
2430
330
2
100
AcDbEntity
  8
OUTLINE
100
AcDbLine
 10
5834.232854880895
 20
-536.1118960607608
 30
0.0
 11
5809.232854880895
 21
-536.1118960607608
 31
0.0
  0
LINE
  5
2431
330
2
100
AcDbEntity
  8
OUTLINE
100
AcDbLine
 10
6629.232854880895
 20
-536.1118960607599
 30
0.0
 11
6604.232854880895
 21
-536.1118960607599
 31
0.0
  0
LINE
  5
2432
330
2
100
AcDbEntity
  8
OUTLINE
100
AcDbLine
 10
6604.232854880895
 20
-536.3777819187975
 30
0.0
 11
6604.232854880895
 21
-536.1118960607597
 31
0.0
  0
LINE
  5
2433
330
2
100
AcDbEntity
  8
OUTLINE
100
AcDbLine
 10
6629.712480919831
 20
-536.3777819187971
 30
0.0
 11
6629.232854880896
 21
-536.1118960607608
 31
0.0
  0
LINE
  5
2434
330
2
100
AcDbEntity
  8
OUTLINE
100
AcDbLine
 10
6629.232854880895
 20
-536.1118960607605
 30
0.0
 11
6634.232854880895
 21
-536.1121546340755
 31
0.0
  0
LINE
  5
2435
330
2
100
AcDbEntity
  8
OUTLINE
100
AcDbLine
 10
6634.232854880895
 20
-536.1121546340837
 30
0.0
 11
6634.232854880895
 21
-536.3777819187975
 31
0.0
  0
LINE
  5
2436
330
2
100
AcDbEntity
  8
OUTLINE
100
AcDbLine
 10
5804.232854880893
 20
-536.3777819187979
 30
0.0
 11
5804.232854880893
 21
-536.1121546340849
 31
0.0
  0
LINE
  5
2437
330
2
100
AcDbEntity
  8
OUTLINE
100
AcDbLine
 10
5804.232854880893
 20
-536.1121546340764
 30
0.0
 11
5809.232854880895
 21
-536.1118960607613
 31
0.0
  0
LINE
  5
2438
330
2
100
AcDbEntity
  8
OUTLINE
100
AcDbLine
 10
5809.232854880892
 20
-536.1118960607613
 30
0.0
 11
5808.753228841961
 21
-536.3777819187971
 31
0.0
  0
ELLIPSE
  5
2439
330
2
100
AcDbEntity
  8
OUTLINE
100
AcDbEllipse
 10
6620.232854880895
 20
-1098.477797293636
 30
0.0
 11
2.5
 21
0.0000000000000005
 31
0.0
210
0.0
220
0.0
230
1.0
 40
0.8745946342037104
 41
1.174761394219803
 42
1.966831259375134
  0
ELLIPSE
  5
243A
330
2
100
AcDbEntity
  8
OUTLINE
100
AcDbEllipse
 10
6620.232854880895
 20
-914.8129241108572
 30
0.0
 11
2.5
 21
0.0000000000000005
 31
0.0
210
0.0
220
0.0
230
1.0
 40
0.8745946342037104
 41
1.174761394226069
 42
1.96683125936781
  0
ELLIPSE
  5
243B
330
2
100
AcDbEntity
  8
OUTLINE
100
AcDbEllipse
 10
6620.232854880895
 20
-731.1480509280783
 30
0.0
 11
2.5
 21
0.0000000000000005
 31
0.0
210
0.0
220
0.0
230
1.0
 40
0.8745946342037104
 41
1.174761394232271
 42
1.966831259360404
  0
ELLIPSE
  5
243C
330
2
100
AcDbEntity
  8
OUTLINE
100
AcDbEllipse
 10
6620.232854880895
 20
-547.4831777452991
 30
0.0
 11
2.5
 21
0.0000000000000005
 31
0.0
210
0.0
220
0.0
230
1.0
 40
0.8745946342037104
 41
1.174761394223269
 42
1.966831259368494
  0
ELLIPSE
  5
243D
330
2
100
AcDbEntity
  8
OUTLINE
100
AcDbEllipse
 10
6078.232854880894
 20
-1270.172611383473
 30
0.0
 11
2.5
 21
0.0000000000000005
 31
0.0
210
0.0
220
0.0
230
1.0
 40
0.8745946342037104
 41
1.031373586824852
 42
2.110219066785039
  0
ELLIPSE
  5
243E
330
2
100
AcDbEntity
  8
OUTLINE
100
AcDbEllipse
 10
6360.232854880894
 20
-1270.172611383472
 30
0.0
 11
2.5
 21
0.0000000000000005
 31
0.0
210
0.0
220
0.0
230
1.0
 40
0.8745946342037104
 41
1.031373586825923
 42
2.110219066784089
  0
ELLIPSE
  5
243F
330
2
100
AcDbEntity
  8
OUTLINE
100
AcDbEllipse
 10
6620.232854880896
 20
-1282.142670476416
 30
0.0
 11
2.5
 21
0.0000000000000005
 31
0.0
210
0.0
220
0.0
230
1.0
 40
0.8745946342037104
 41
1.174761394251025
 42
1.966831259345026
  0
ELLIPSE
  5
2440
330
2
100
AcDbEntity
  8
OUTLINE
100
AcDbEllipse
 10
6589.232854880896
 20
-917.4367080134683
 30
0.0
 11
2.049999999999998
 21
0.0000000000000005
 31
0.0
210
0.0
220
0.0
230
1.0
 40
0.8745946342037104
 41
0.2738371920561605
 42
2.867755461528941
  0
ELLIPSE
  5
2441
330
2
100
AcDbEntity
  8
OUTLINE
100
AcDbEllipse
 10
6589.232854880896
 20
-916.9518531632068
 30
0.0
 11
-2.049999999999998
 21
-0.0000000000000005
 31
0.0
210
0.0
220
0.0
230
1.0
 40
0.8745946342037116
 41
3.277221913676517
 42
6.147556047083835
  0
ELLIPSE
  5
2442
330
2
100
AcDbEntity
  8
OUTLINE
100
AcDbEllipse
 10
6404.232854880895
 20
-912.1891402082463
 30
0.0
 11
2.049999999999998
 21
0.0000000000000005
 31
0.0
210
0.0
220
0.0
230
1.0
 40
0.8745946342037104
 41
0.2738371920561605
 42
2.867755461529194
  0
ELLIPSE
  5
2443
330
2
100
AcDbEntity
  8
OUTLINE
100
AcDbEllipse
 10
6404.232854880895
 20
-911.7042853579851
 30
0.0
 11
-2.049999999999998
 21
-0.0000000000000005
 31
0.0
210
0.0
220
0.0
230
1.0
 40
0.8745946342037116
 41
3.277221913676263
 42
6.147556047083889
  0
ELLIPSE
  5
2444
330
2
100
AcDbEntity
  8
OUTLINE
100
AcDbEllipse
 10
6219.232854880896
 20
-917.4367080134688
 30
0.0
 11
2.049999999999998
 21
0.0000000000000005
 31
0.0
210
0.0
220
0.0
230
1.0
 40
0.8745946342037104
 41
0.2738371920561087
 42
2.867755461529194
  0
ELLIPSE
  5
2445
330
2
100
AcDbEntity
  8
OUTLINE
100
AcDbEllipse
 10
6219.232854880896
 20
-916.9518531632077
 30
0.0
 11
-2.049999999999998
 21
-0.0000000000000005
 31
0.0
210
0.0
220
0.0
230
1.0
 40
0.8745946342037116
 41
3.277221913676263
 42
6.147556047083897
  0
ELLIPSE
  5
2446
330
2
100
AcDbEntity
  8
OUTLINE
100
AcDbEllipse
 10
6034.232854880897
 20
-912.189140208247
 30
0.0
 11
2.049999999999998
 21
0.0000000000000005
 31
0.0
210
0.0
220
0.0
230
1.0
 40
0.8745946342037104
 41
0.2738371920561605
 42
2.867755461529194
  0
ELLIPSE
  5
2447
330
2
100
AcDbEntity
  8
OUTLINE
100
AcDbEllipse
 10
6034.232854880897
 20
-911.7042853579857
 30
0.0
 11
-2.049999999999998
 21
-0.0000000000000005
 31
0.0
210
0.0
220
0.0
230
1.0
 40
0.8745946342037116
 41
3.277221913676263
 42
6.147556047083897
  0
ELLIPSE
  5
2448
330
2
100
AcDbEntity
  8
OUTLINE
100
AcDbEllipse
 10
5849.232854880895
 20
-917.4367080134691
 30
0.0
 11
2.049999999999998
 21
0.0000000000000005
 31
0.0
210
0.0
220
0.0
230
1.0
 40
0.8745946342037104
 41
0.2738371920561087
 42
2.867755461529194
  0
ELLIPSE
  5
2449
330
2
100
AcDbEntity
  8
OUTLINE
100
AcDbEllipse
 10
5849.232854880895
 20
-916.9518531632077
 30
0.0
 11
-2.049999999999998
 21
-0.0000000000000005
 31
0.0
210
0.0
220
0.0
230
1.0
 40
0.8745946342037116
 41
3.277221913676263
 42
6.147556047083897
  0
LINE
  5
244A
330
2
100
AcDbEntity
  8
OUTLINE
100
AcDbLine
 10
5839.232854880898
 20
-923.0740156026351
 30
0.0
 11
6599.232854880899
 21
-923.0740156026326
 31
0.0
  0
LINE
  5
244B
330
2
100
AcDbEntity
  8
OUTLINE
100
AcDbLine
 10
6599.232854880899
 20
-922.5891607523712
 30
0.0
 11
6599.232854880899
 21
-923.0740156026326
 31
0.0
  0
LINE
  5
244C
330
2
100
AcDbEntity
  8
OUTLINE
100
AcDbLine
 10
6599.232854880899
 20
-923.0740156026332
 30
0.0
 11
6604.232854880898
 21
-918.7010424316143
 31
0.0
  0
LINE
  5
244D
330
2
100
AcDbEntity
  8
OUTLINE
100
AcDbLine
 10
6604.232854880898
 20
-918.701042431614
 30
0.0
 11
6604.232854880898
 21
-918.2161875813527
 31
0.0
  0
LINE
  5
244E
330
2
100
AcDbEntity
  8
OUTLINE
100
AcDbLine
 10
6604.232854880898
 20
-905.9718627025008
 30
0.0
 11
6604.232854880898
 21
-904.6402517740316
 31
0.0
  0
LINE
  5
244F
330
2
100
AcDbEntity
  8
OUTLINE
100
AcDbLine
 10
5834.232854880898
 20
-891.0364774107165
 30
0.0
 11
6604.232854880898
 21
-891.0364774107142
 31
0.0
  0
LINE
  5
2450
330
2
100
AcDbEntity
  8
OUTLINE
100
AcDbLine
 10
6604.232854880898
 20
-904.1553969237696
 30
0.0
 11
6604.232854880898
 21
-891.0364774107142
 31
0.0
  0
LINE
  5
2451
330
2
100
AcDbEntity
  8
OUTLINE
100
AcDbLine
 10
6604.232854880898
 20
-904.6402517740316
 30
0.0
 11
6604.232854880898
 21
-904.1553969237702
 31
0.0
  0
LINE
  5
2452
330
2
100
AcDbEntity
  8
OUTLINE
100
AcDbLine
 10
6604.232854880898
 20
-904.1553969237696
 30
0.0
 11
6599.232854880899
 21
-908.5283700947883
 31
0.0
  0
LINE
  5
2453
330
2
100
AcDbEntity
  8
OUTLINE
100
AcDbLine
 10
6599.232854880899
 20
-909.0132249450498
 30
0.0
 11
6604.232854880898
 21
-904.6402517740311
 31
0.0
  0
LINE
  5
2454
330
2
100
AcDbEntity
  8
OUTLINE
100
AcDbLine
 10
5839.232854880898
 20
-908.5283700947908
 30
0.0
 11
6599.232854880899
 21
-908.5283700947883
 31
0.0
  0
LINE
  5
2455
330
2
100
AcDbEntity
  8
OUTLINE
100
AcDbLine
 10
6599.232854880899
 20
-908.5283700947888
 30
0.0
 11
6599.232854880899
 21
-909.0132249450503
 31
0.0
  0
LINE
  5
2456
330
2
100
AcDbEntity
  8
OUTLINE
100
AcDbLine
 10
5839.232854880898
 20
-909.0132249450519
 30
0.0
 11
6599.232854880899
 21
-909.0132249450498
 31
0.0
  0
LINE
  5
2457
330
2
100
AcDbEntity
  8
OUTLINE
100
AcDbLine
 10
5839.232854880898
 20
-909.0132249450519
 30
0.0
 11
5839.232854880898
 21
-908.5283700947908
 31
0.0
  0
LINE
  5
2458
330
2
100
AcDbEntity
  8
OUTLINE
100
AcDbLine
 10
5834.232854880897
 20
-904.6402517740339
 30
0.0
 11
5839.232854880897
 21
-909.0132249450519
 31
0.0
  0
LINE
  5
2459
330
2
100
AcDbEntity
  8
OUTLINE
100
AcDbLine
 10
5839.232854880898
 20
-908.5283700947908
 30
0.0
 11
5834.232854880898
 21
-904.1553969237723
 31
0.0
  0
LINE
  5
245A
330
2
100
AcDbEntity
  8
OUTLINE
100
AcDbLine
 10
5834.232854880898
 20
-905.9718627025032
 30
0.0
 11
5835.755401299995
 21
-905.9718627025032
 31
0.0
  0
LINE
  5
245B
330
2
100
AcDbEntity
  8
OUTLINE
100
AcDbLine
 10
6602.710308461799
 20
-905.9718627025008
 30
0.0
 11
6604.232854880898
 21
-905.9718627025008
 31
0.0
  0
LINE
  5
245C
330
2
100
AcDbEntity
  8
OUTLINE
100
AcDbLine
 10
6604.232854880898
 20
-918.216187581353
 30
0.0
 11
6604.232854880898
 21
-905.9718627025008
 31
0.0
  0
LINE
  5
245D
330
2
100
AcDbEntity
  8
OUTLINE
100
AcDbLine
 10
6604.232854880898
 20
-918.2161875813527
 30
0.0
 11
6599.232854880899
 21
-922.5891607523712
 31
0.0
  0
LINE
  5
245E
330
2
100
AcDbEntity
  8
OUTLINE
100
AcDbLine
 10
5839.232854880898
 20
-922.5891607523736
 30
0.0
 11
6599.232854880899
 21
-922.5891607523712
 31
0.0
  0
LINE
  5
245F
330
2
100
AcDbEntity
  8
OUTLINE
100
AcDbLine
 10
5834.232854880898
 20
-904.1553969237719
 30
0.0
 11
5834.232854880898
 21
-891.0364774107165
 31
0.0
  0
LINE
  5
2460
330
2
100
AcDbEntity
  8
OUTLINE
100
AcDbLine
 10
5834.232854880898
 20
-904.1553969237723
 30
0.0
 11
5834.232854880898
 21
-904.6402517740339
 31
0.0
  0
LINE
  5
2461
330
2
100
AcDbEntity
  8
OUTLINE
100
AcDbLine
 10
5834.232854880898
 20
-905.9718627025027
 30
0.0
 11
5834.232854880898
 21
-904.6402517740339
 31
0.0
  0
LINE
  5
2462
330
2
100
AcDbEntity
  8
OUTLINE
100
AcDbLine
 10
5834.232854880898
 20
-918.2161875813552
 30
0.0
 11
5834.232854880898
 21
-905.9718627025032
 31
0.0
  0
LINE
  5
2463
330
2
100
AcDbEntity
  8
OUTLINE
100
AcDbLine
 10
5834.232854880898
 20
-918.2161875813546
 30
0.0
 11
5834.232854880898
 21
-918.7010424316163
 31
0.0
  0
LINE
  5
2464
330
2
100
AcDbEntity
  8
OUTLINE
100
AcDbLine
 10
5839.232854880898
 20
-922.5891607523733
 30
0.0
 11
5834.232854880898
 21
-918.2161875813546
 31
0.0
  0
LINE
  5
2465
330
2
100
AcDbEntity
  8
OUTLINE
100
AcDbLine
 10
5839.232854880898
 20
-923.0740156026351
 30
0.0
 11
5839.232854880898
 21
-922.5891607523736
 31
0.0
  0
LINE
  5
2466
330
2
100
AcDbEntity
  8
OUTLINE
100
AcDbLine
 10
5834.232854880898
 20
-918.7010424316163
 30
0.0
 11
5839.232854880898
 21
-923.0740156026351
 31
0.0
  0
ELLIPSE
  5
2467
330
2
100
AcDbEntity
  8
OUTLINE
100
AcDbEllipse
 10
6404.232854880898
 20
-911.7042853579851
 30
0.0
 11
2.049999999999998
 21
0.0000000000000173
 31
0.0
210
0.0
220
0.0
230
1.0
 40
0.8745946342037116
 41
0.1356292600913163
 42
3.005963393498442
  0
ELLIPSE
  5
2468
330
2
100
AcDbEntity
  8
OUTLINE
100
AcDbEllipse
 10
6219.232854880898
 20
-916.9518531632077
 30
0.0
 11
2.049999999999998
 21
0.0000000000000173
 31
0.0
210
0.0
220
0.0
230
1.0
 40
0.8745946342037116
 41
0.1356292600913163
 42
3.005963393498442
  0
ELLIPSE
  5
2469
330
2
100
AcDbEntity
  8
OUTLINE
100
AcDbEllipse
 10
6034.232854880898
 20
-911.704285357986
 30
0.0
 11
2.049999999999998
 21
0.0000000000000173
 31
0.0
210
0.0
220
0.0
230
1.0
 40
0.8745946342037116
 41
0.1356292600913163
 42
3.005963393498442
  0
ELLIPSE
  5
246A
330
2
100
AcDbEntity
  8
OUTLINE
100
AcDbEllipse
 10
5849.232854880899
 20
-916.9518531632087
 30
0.0
 11
2.049999999999998
 21
0.0000000000000173
 31
0.0
210
0.0
220
0.0
230
1.0
 40
0.8745946342037116
 41
0.1356292600913163
 42
3.005963393498442
  0
ELLIPSE
  5
246B
330
2
100
AcDbEntity
  8
OUTLINE
100
AcDbEllipse
 10
6404.232854880898
 20
-911.2194305077236
 30
0.0
 11
-2.049999999999998
 21
-0.0000000000000173
 31
0.0
210
0.0
220
0.0
230
1.0
 40
0.8745946342037116
 41
-0.0000000000000095
 42
6.283185307179576
  0
ELLIPSE
  5
246C
330
2
100
AcDbEntity
  8
OUTLINE
100
AcDbEllipse
 10
6219.232854880898
 20
-916.4669983129464
 30
0.0
 11
-2.049999999999998
 21
-0.0000000000000173
 31
0.0
210
0.0
220
0.0
230
1.0
 40
0.8745946342037116
 41
-0.0000000000000095
 42
6.283185307179576
  0
ELLIPSE
  5
246D
330
2
100
AcDbEntity
  8
OUTLINE
100
AcDbEllipse
 10
6034.232854880898
 20
-911.2194305077242
 30
0.0
 11
-2.049999999999998
 21
-0.0000000000000173
 31
0.0
210
0.0
220
0.0
230
1.0
 40
0.8745946342037116
 41
-0.0000000000000095
 42
6.283185307179576
  0
ELLIPSE
  5
246E
330
2
100
AcDbEntity
  8
OUTLINE
100
AcDbEllipse
 10
5849.232854880899
 20
-916.4669983129472
 30
0.0
 11
-2.049999999999998
 21
-0.0000000000000173
 31
0.0
210
0.0
220
0.0
230
1.0
 40
0.8745946342037116
 41
-0.0000000000000095
 42
6.283185307179576
  0
ELLIPSE
  5
246F
330
2
100
AcDbEntity
  8
OUTLINE
100
AcDbEllipse
 10
6589.232854880899
 20
-916.9518531632068
 30
0.0
 11
2.049999999999998
 21
0.0000000000000173
 31
0.0
210
0.0
220
0.0
230
1.0
 40
0.8745946342037116
 41
0.1356292600913163
 42
3.005963393498381
  0
ELLIPSE
  5
2470
330
2
100
AcDbEntity
  8
OUTLINE
100
AcDbEllipse
 10
6589.232854880899
 20
-916.4669983129453
 30
0.0
 11
-2.049999999999998
 21
-0.0000000000000173
 31
0.0
210
0.0
220
0.0
230
1.0
 40
0.8745946342037116
 41
-0.0000000000000095
 42
6.283185307179576
  0
LINE
  5
2471
330
2
100
AcDbEntity
  8
OUTLINE
100
AcDbLine
 10
5803.232854880894
 20
-542.3777819187976
 30
0.0
 11
5775.732854880893
 21
-542.3777819187976
 31
0.0
  0
LINE
  5
2472
330
2
100
AcDbEntity
  8
OUTLINE
100
AcDbLine
 10
5803.232854880894
 20
-1286.377781918798
 30
0.0
 11
5775.732854880893
 21
-1286.377781918798
 31
0.0
  0
LINE
  5
2473
330
2
100
AcDbEntity
  8
OUTLINE
100
AcDbLine
 10
5803.232854880894
 20
-537.3777819187976
 30
0.0
 11
5804.232854880893
 21
-537.3777819187976
 31
0.0
  0
LINE
  5
2474
330
2
100
AcDbEntity
  8
OUTLINE
100
AcDbLine
 10
5804.232854880893
 20
-1291.377781918797
 30
0.0
 11
5804.232854880893
 21
-537.3777819187976
 31
0.0
  0
LINE
  5
2475
330
2
100
AcDbEntity
  8
OUTLINE
100
AcDbLine
 10
5803.232854880894
 20
-542.3777819187976
 30
0.0
 11
5803.232854880894
 21
-537.3777819187976
 31
0.0
  0
LINE
  5
2476
330
2
100
AcDbEntity
  8
OUTLINE
100
AcDbLine
 10
5803.232854880894
 20
-1291.377781918797
 30
0.0
 11
5803.232854880894
 21
-1286.377781918798
 31
0.0
  0
LINE
  5
2477
330
2
100
AcDbEntity
  8
OUTLINE
100
AcDbLine
 10
5803.232854880894
 20
-1291.377781918797
 30
0.0
 11
5804.232854880893
 21
-1291.377781918797
 31
0.0
  0
LINE
  5
2478
330
2
100
AcDbEntity
  8
OUTLINE
100
AcDbLine
 10
5775.232854880893
 20
-1285.877781918797
 30
0.0
 11
5775.232854880893
 21
-1291.377781918797
 31
0.0
  0
LINE
  5
2479
330
2
100
AcDbEntity
  8
OUTLINE
100
AcDbLine
 10
5803.232854880894
 20
-1291.377781918797
 30
0.0
 11
5800.232854880895
 21
-1291.377781918797
 31
0.0
  0
LINE
  5
247A
330
2
100
AcDbEntity
  8
OUTLINE
100
AcDbLine
 10
5763.232854880893
 20
-554.8777819187976
 30
0.0
 11
5775.732854880893
 21
-542.3777819187976
 31
0.0
  0
LINE
  5
247B
330
2
100
AcDbEntity
  8
OUTLINE
100
AcDbLine
 10
5763.232854880893
 20
-1051.877781918797
 30
0.0
 11
5763.232854880893
 21
-1273.877781918798
 31
0.0
  0
LINE
  5
247C
330
2
100
AcDbEntity
  8
OUTLINE
100
AcDbLine
 10
5775.732854880893
 20
-1286.377781918798
 30
0.0
 11
5763.232854880893
 21
-1273.877781918798
 31
0.0
  0
LINE
  5
247D
330
2
100
AcDbEntity
  8
OUTLINE
100
AcDbLine
 10
5803.232854880894
 20
-1290.377781918797
 30
0.0
 11
5776.232854880894
 21
-1290.377781918797
 31
0.0
  0
LINE
  5
247E
330
2
100
AcDbEntity
  8
OUTLINE
100
AcDbLine
 10
5775.232854880893
 20
-542.8777819187976
 30
0.0
 11
5775.232854880893
 21
-537.3777819187976
 31
0.0
  0
LINE
  5
247F
330
2
100
AcDbEntity
  8
OUTLINE
100
AcDbLine
 10
5803.232854880894
 20
-537.3777819187976
 30
0.0
 11
5775.232854880893
 21
-537.3777819187976
 31
0.0
  0
LINE
  5
2480
330
2
100
AcDbEntity
  8
OUTLINE
100
AcDbLine
 10
5803.232854880894
 20
-538.3777819187976
 30
0.0
 11
5776.232854880894
 21
-538.3777819187976
 31
0.0
  0
LINE
  5
2481
330
2
100
AcDbEntity
  8
OUTLINE
100
AcDbLine
 10
5776.232854880894
 20
-1290.377781918797
 30
0.0
 11
5776.232854880894
 21
-1286.377781918798
 31
0.0
  0
LINE
  5
2482
330
2
100
AcDbEntity
  8
OUTLINE
100
AcDbLine
 10
5776.232854880894
 20
-542.3777819187976
 30
0.0
 11
5776.232854880894
 21
-538.3777819187976
 31
0.0
  0
LINE
  5
2483
330
2
100
AcDbEntity
  8
OUTLINE
100
AcDbLine
 10
5775.232854880893
 20
-1216.82727166158
 30
0.0
 11
5775.232854880893
 21
-1211.928292176014
 31
0.0
  0
LINE
  5
2484
330
2
100
AcDbEntity
  8
OUTLINE
100
AcDbLine
 10
5775.232854880893
 20
-1066.82727166158
 30
0.0
 11
5775.232854880893
 21
-1061.928292176014
 31
0.0
  0
LINE
  5
2485
330
2
100
AcDbEntity
  8
OUTLINE
100
AcDbLine
 10
5775.232854880893
 20
-1039.877781918797
 30
0.0
 11
5775.232854880893
 21
-788.877781918798
 31
0.0
  0
LINE
  5
2486
330
2
100
AcDbEntity
  8
OUTLINE
100
AcDbLine
 10
5775.232854880893
 20
-766.8272716615811
 30
0.0
 11
5775.232854880893
 21
-761.928292176015
 31
0.0
  0
LINE
  5
2487
330
2
100
AcDbEntity
  8
OUTLINE
100
AcDbLine
 10
5775.232854880893
 20
-616.8272716615806
 30
0.0
 11
5775.232854880893
 21
-611.9282921760144
 31
0.0
  0
LINE
  5
2488
330
2
100
AcDbEntity
  8
OUTLINE
100
AcDbLine
 10
5776.232854880894
 20
-1217.540059578966
 30
0.0
 11
5776.232854880894
 21
-1211.215504258629
 31
0.0
  0
LINE
  5
2489
330
2
100
AcDbEntity
  8
OUTLINE
100
AcDbLine
 10
5776.232854880894
 20
-1067.540059578966
 30
0.0
 11
5776.232854880894
 21
-1061.215504258629
 31
0.0
  0
LINE
  5
248A
330
2
100
AcDbEntity
  8
OUTLINE
100
AcDbLine
 10
5776.232854880894
 20
-767.5400595789665
 30
0.0
 11
5776.232854880894
 21
-761.2155042586291
 31
0.0
  0
LINE
  5
248B
330
2
100
AcDbEntity
  8
OUTLINE
100
AcDbLine
 10
5776.232854880894
 20
-617.540059578966
 30
0.0
 11
5776.232854880894
 21
-611.2155042586291
 31
0.0
  0
LINE
  5
248C
330
2
100
AcDbEntity
  8
OUTLINE
100
AcDbLine
 10
5779.732854880894
 20
-1217.877781918798
 30
0.0
 11
5777.732854880894
 21
-1217.877781918798
 31
0.0
  0
LINE
  5
248D
330
2
100
AcDbEntity
  8
OUTLINE
100
AcDbLine
 10
5777.732854880894
 20
-1210.877781918797
 30
0.0
 11
5779.732854880894
 21
-1210.877781918797
 31
0.0
  0
LINE
  5
248E
330
2
100
AcDbEntity
  8
OUTLINE
100
AcDbLine
 10
5777.732854880894
 20
-1060.877781918797
 30
0.0
 11
5779.732854880894
 21
-1060.877781918797
 31
0.0
  0
LINE
  5
248F
330
2
100
AcDbEntity
  8
OUTLINE
100
AcDbLine
 10
5779.732854880894
 20
-1067.877781918797
 30
0.0
 11
5777.732854880894
 21
-1067.877781918797
 31
0.0
  0
LINE
  5
2490
330
2
100
AcDbEntity
  8
OUTLINE
100
AcDbLine
 10
5777.732854880894
 20
-610.8777819187976
 30
0.0
 11
5779.732854880894
 21
-610.8777819187976
 31
0.0
  0
LINE
  5
2491
330
2
100
AcDbEntity
  8
OUTLINE
100
AcDbLine
 10
5779.732854880894
 20
-617.8777819187976
 30
0.0
 11
5777.732854880894
 21
-617.8777819187976
 31
0.0
  0
LINE
  5
2492
330
2
100
AcDbEntity
  8
OUTLINE
100
AcDbLine
 10
5777.732854880894
 20
-760.8777819187976
 30
0.0
 11
5779.732854880894
 21
-760.8777819187976
 31
0.0
  0
LINE
  5
2493
330
2
100
AcDbEntity
  8
OUTLINE
100
AcDbLine
 10
5779.732854880894
 20
-767.8777819187976
 30
0.0
 11
5777.732854880894
 21
-767.8777819187976
 31
0.0
  0
LINE
  5
2494
330
2
100
AcDbEntity
  8
OUTLINE
100
AcDbLine
 10
5763.232854880893
 20
-554.8777819187976
 30
0.0
 11
5763.232854880893
 21
-776.8777819187976
 31
0.0
  0
LINE
  5
2495
330
2
100
AcDbEntity
  8
OUTLINE
100
AcDbLine
 10
5763.232854880893
 20
-776.8777819187976
 30
0.0
 11
5775.732854880893
 21
-789.3777819187976
 31
0.0
  0
LINE
  5
2496
330
2
100
AcDbEntity
  8
OUTLINE
100
AcDbLine
 10
5775.732854880893
 20
-1039.377781918797
 30
0.0
 11
5763.232854880893
 21
-1051.877781918797
 31
0.0
  0
LINE
  5
2497
330
2
100
AcDbEntity
  8
OUTLINE
100
AcDbLine
 10
5775.732854880893
 20
-789.3777819187976
 30
0.0
 11
5775.732854880893
 21
-1039.377781918797
 31
0.0
  0
ARC
  5
2498
330
2
100
AcDbEntity
  8
OUTLINE
100
AcDbCircle
 10
5777.732854880894
 20
-1214.377781918797
 30
0.0
 40
3.5
100
AcDbArc
 50
90.0
 51
270.0
  0
ARC
  5
2499
330
2
100
AcDbEntity
  8
OUTLINE
100
AcDbCircle
 10
5779.732854880894
 20
-1214.377781918797
 30
0.0
 40
3.5
100
AcDbArc
 50
270.0
 51
90.0
  0
ARC
  5
249A
330
2
100
AcDbEntity
  8
OUTLINE
100
AcDbCircle
 10
5777.732854880894
 20
-1064.377781918797
 30
0.0
 40
3.5
100
AcDbArc
 50
90.0
 51
270.0
  0
ARC
  5
249B
330
2
100
AcDbEntity
  8
OUTLINE
100
AcDbCircle
 10
5779.732854880894
 20
-1064.377781918797
 30
0.0
 40
3.5
100
AcDbArc
 50
270.0
 51
90.0
  0
ARC
  5
249C
330
2
100
AcDbEntity
  8
OUTLINE
100
AcDbCircle
 10
5777.732854880894
 20
-614.3777819187976
 30
0.0
 40
3.5
100
AcDbArc
 50
90.0
 51
270.0
  0
ARC
  5
249D
330
2
100
AcDbEntity
  8
OUTLINE
100
AcDbCircle
 10
5779.732854880894
 20
-614.3777819187976
 30
0.0
 40
3.5
100
AcDbArc
 50
270.0
 51
90.0
  0
ARC
  5
249E
330
2
100
AcDbEntity
  8
OUTLINE
100
AcDbCircle
 10
5777.732854880894
 20
-764.3777819187976
 30
0.0
 40
3.5
100
AcDbArc
 50
90.0
 51
270.0
  0
LINE
  5
249F
330
2
100
AcDbEntity
  8
OUTLINE
100
AcDbLine
 10
5002.232854880895
 20
-1281.377781918797
 30
0.0
 11
5002.232854880895
 21
-1290.377781918796
 31
0.0
  0
LINE
  5
24A0
330
2
100
AcDbEntity
  8
OUTLINE
100
AcDbLine
 10
5003.232854880895
 20
-1291.377781918797
 30
0.0
 11
5003.232854880895
 21
-1281.377781918797
 31
0.0
  0
LINE
  5
24A1
330
2
100
AcDbEntity
  8
OUTLINE
100
AcDbLine
 10
4973.232854880894
 20
-1291.377781918797
 30
0.0
 11
4978.232854880895
 21
-1291.377781918797
 31
0.0
  0
LINE
  5
24A2
330
2
100
AcDbEntity
  8
OUTLINE
100
AcDbLine
 10
4973.232854880894
 20
-1291.377781918797
 30
0.0
 11
4973.232854880894
 21
-1289.329001430992
 31
0.0
  0
LINE
  5
24A3
330
2
100
AcDbEntity
  8
OUTLINE
100
AcDbLine
 10
5002.232854880895
 20
-1290.377781918796
 30
0.0
 11
4974.232854880892
 21
-1290.377781918796
 31
0.0
  0
LINE
  5
24A4
330
2
100
AcDbEntity
  8
OUTLINE
100
AcDbLine
 10
5003.232854880895
 20
-547.3777819187967
 30
0.0
 11
5003.232854880895
 21
-1281.377781918797
 31
0.0
  0
LINE
  5
24A5
330
2
100
AcDbEntity
  8
OUTLINE
100
AcDbLine
 10
5002.232854880895
 20
-1281.377781918797
 30
0.0
 11
5002.232854880895
 21
-547.3777819187967
 31
0.0
  0
LINE
  5
24A6
330
2
100
AcDbEntity
  8
OUTLINE
100
AcDbLine
 10
4973.232854880894
 20
-539.4265624066015
 30
0.0
 11
4973.232854880894
 21
-537.3777819187965
 31
0.0
  0
LINE
  5
24A7
330
2
100
AcDbEntity
  8
OUTLINE
100
AcDbLine
 10
4973.232854880894
 20
-537.3777819187965
 30
0.0
 11
5003.232854880895
 21
-537.3777819187965
 31
0.0
  0
LINE
  5
24A8
330
2
100
AcDbEntity
  8
OUTLINE
100
AcDbLine
 10
5003.232854880895
 20
-547.3777819187967
 30
0.0
 11
5003.232854880895
 21
-537.3777819187965
 31
0.0
  0
LINE
  5
24A9
330
2
100
AcDbEntity
  8
OUTLINE
100
AcDbLine
 10
5002.232854880895
 20
-547.3777819187967
 30
0.0
 11
5003.232854880895
 21
-547.3777819187967
 31
0.0
  0
LINE
  5
24AA
330
2
100
AcDbEntity
  8
OUTLINE
100
AcDbLine
 10
5002.232854880895
 20
-538.3777819187967
 30
0.0
 11
5002.232854880895
 21
-547.3777819187967
 31
0.0
  0
LINE
  5
24AB
330
2
100
AcDbEntity
  8
OUTLINE
100
AcDbLine
 10
4974.232854880892
 20
-538.3777819187967
 30
0.0
 11
5002.232854880895
 21
-538.3777819187967
 31
0.0
  0
LINE
  5
24AC
330
2
100
AcDbEntity
  8
OUTLINE
100
AcDbLine
 10
5003.232854880895
 20
-1281.377781918797
 30
0.0
 11
5002.232854880895
 21
-1281.377781918797
 31
0.0
  0
LINE
  5
24AD
330
2
100
AcDbEntity
  8
OUTLINE
100
AcDbLine
 10
4974.232854880892
 20
-1290.377781918796
 30
0.0
 11
4974.232854880892
 21
-538.3777819187971
 31
0.0
  0
LINE
  5
24AE
330
2
100
AcDbEntity
  8
OUTLINE
100
AcDbLine
 10
4933.232854880895
 20
-1247.377781918797
 30
0.0
 11
4974.232854880892
 21
-1290.377781918796
 31
0.0
  0
LINE
  5
24AF
330
2
100
AcDbEntity
  8
OUTLINE
100
AcDbLine
 10
4933.232854880895
 20
-581.3777819187968
 30
0.0
 11
4933.232854880895
 21
-1247.377781918797
 31
0.0
  0
LINE
  5
24B0
330
2
100
AcDbEntity
  8
OUTLINE
100
AcDbLine
 10
4950.732854880893
 20
-1217.877781918797
 30
0.0
 11
4948.732854880894
 21
-1217.877781918797
 31
0.0
  0
LINE
  5
24B1
330
2
100
AcDbEntity
  8
OUTLINE
100
AcDbLine
 10
4948.732854880894
 20
-1210.877781918797
 30
0.0
 11
4950.732854880893
 21
-1210.877781918797
 31
0.0
  0
LINE
  5
24B2
330
2
100
AcDbEntity
  8
OUTLINE
100
AcDbLine
 10
4950.732854880893
 20
-1067.877781918797
 30
0.0
 11
4948.732854880894
 21
-1067.877781918797
 31
0.0
  0
LINE
  5
24B3
330
2
100
AcDbEntity
  8
OUTLINE
100
AcDbLine
 10
4948.732854880894
 20
-1060.877781918796
 30
0.0
 11
4950.732854880893
 21
-1060.877781918796
 31
0.0
  0
LINE
  5
24B4
330
2
100
AcDbEntity
  8
OUTLINE
100
AcDbLine
 10
4950.732854880893
 20
-917.8777819187967
 30
0.0
 11
4948.732854880894
 21
-917.8777819187967
 31
0.0
  0
LINE
  5
24B5
330
2
100
AcDbEntity
  8
OUTLINE
100
AcDbLine
 10
4948.732854880894
 20
-910.8777819187967
 30
0.0
 11
4950.732854880893
 21
-910.8777819187967
 31
0.0
  0
LINE
  5
24B6
330
2
100
AcDbEntity
  8
OUTLINE
100
AcDbLine
 10
4950.732854880893
 20
-767.8777819187967
 30
0.0
 11
4948.732854880894
 21
-767.8777819187967
 31
0.0
  0
LINE
  5
24B7
330
2
100
AcDbEntity
  8
OUTLINE
100
AcDbLine
 10
4948.732854880894
 20
-760.8777819187967
 30
0.0
 11
4950.732854880893
 21
-760.8777819187967
 31
0.0
  0
LINE
  5
24B8
330
2
100
AcDbEntity
  8
OUTLINE
100
AcDbLine
 10
4950.732854880893
 20
-617.8777819187968
 30
0.0
 11
4948.732854880894
 21
-617.8777819187968
 31
0.0
  0
LINE
  5
24B9
330
2
100
AcDbEntity
  8
OUTLINE
100
AcDbLine
 10
4948.732854880894
 20
-610.8777819187968
 30
0.0
 11
4950.732854880893
 21
-610.8777819187968
 31
0.0
  0
LINE
  5
24BA
330
2
100
AcDbEntity
  8
OUTLINE
100
AcDbLine
 10
4974.232854880892
 20
-538.3777819187967
 30
0.0
 11
4933.232854880895
 21
-581.3777819187968
 31
0.0
  0
ELLIPSE
  5
24BB
330
2
100
AcDbEntity
  8
OUTLINE
100
AcDbEllipse
 10
4988.232854880894
 20
-546.5134680447763
 30
0.0
 11
-2.0
 21
0.0
 31
0.0
210
0.0
220
0.0
230
1.0
 40
0.8745946342037115
 41
0.0000000000000002
 42
6.283185307179585
  0
ELLIPSE
  5
24BC
330
2
100
AcDbEntity
  8
OUTLINE
100
AcDbEllipse
 10
4988.232854880894
 20
-546.9983228950368
 30
0.0
 11
2.0
 21
0.0
 31
0.0
210
0.0
220
0.0
230
1.0
 40
0.8745946342037115
 41
0.1390417380972226
 42
3.002550915492569
  0
ELLIPSE
  5
24BD
330
2
100
AcDbEntity
  8
OUTLINE
100
AcDbEllipse
 10
4988.232854880894
 20
-730.6631960778177
 30
0.0
 11
2.0
 21
0.0
 31
0.0
210
0.0
220
0.0
230
1.0
 40
0.8745946342037115
 41
0.1390417380972772
 42
3.002550915492514
  0
ELLIPSE
  5
24BE
330
2
100
AcDbEntity
  8
OUTLINE
100
AcDbEllipse
 10
4988.232854880894
 20
-730.1783412275567
 30
0.0
 11
-2.0
 21
0.0
 31
0.0
210
0.0
220
0.0
230
1.0
 40
0.8745946342037115
 41
0.0000000000000002
 42
6.283185307179585
  0
ELLIPSE
  5
24BF
330
2
100
AcDbEntity
  8
OUTLINE
100
AcDbEllipse
 10
4988.232854880894
 20
-914.328069260595
 30
0.0
 11
2.0
 21
0.0
 31
0.0
210
0.0
220
0.0
230
1.0
 40
0.8745946342037115
 41
0.1390417380972772
 42
3.002550915492514
  0
ELLIPSE
  5
24C0
330
2
100
AcDbEntity
  8
OUTLINE
100
AcDbEllipse
 10
4988.232854880894
 20
-913.8432144103333
 30
0.0
 11
-2.0
 21
0.0
 31
0.0
210
0.0
220
0.0
230
1.0
 40
0.8745946342037115
 41
0.0000000000000002
 42
6.283185307179585
  0
ELLIPSE
  5
24C1
330
2
100
AcDbEntity
  8
OUTLINE
100
AcDbEllipse
 10
4988.232854880894
 20
-1097.992942443372
 30
0.0
 11
2.0
 21
0.0
 31
0.0
210
0.0
220
0.0
230
1.0
 40
0.8745946342037115
 41
0.1390417380977802
 42
3.002550915492011
  0
ELLIPSE
  5
24C2
330
2
100
AcDbEntity
  8
OUTLINE
100
AcDbEllipse
 10
4988.232854880894
 20
-1097.50808759311
 30
0.0
 11
-2.0
 21
0.0
 31
0.0
210
0.0
220
0.0
230
1.0
 40
0.8745946342037115
 41
0.0000000000000002
 42
6.283185307179585
  0
ELLIPSE
  5
24C3
330
2
100
AcDbEntity
  8
OUTLINE
100
AcDbEllipse
 10
4988.232854880894
 20
-1281.65781562616
 30
0.0
 11
2.0
 21
0.0
 31
0.0
210
0.0
220
0.0
230
1.0
 40
0.8745946342037115
 41
0.1390417380975287
 42
3.002550915492263
  0
ELLIPSE
  5
24C4
330
2
100
AcDbEntity
  8
OUTLINE
100
AcDbEllipse
 10
4988.232854880894
 20
-1281.172960775899
 30
0.0
 11
-2.0
 21
0.0
 31
0.0
210
0.0
220
0.0
230
1.0
 40
0.8745946342037115
 41
0.0000000000000002
 42
6.283185307179585
  0
ARC
  5
24C5
330
2
100
AcDbEntity
  8
OUTLINE
100
AcDbCircle
 10
4948.732854880894
 20
-1214.377781918797
 30
0.0
 40
3.5
100
AcDbArc
 50
90.0
 51
270.0
  0
ARC
  5
24C6
330
2
100
AcDbEntity
  8
OUTLINE
100
AcDbCircle
 10
4950.732854880893
 20
-1214.377781918797
 30
0.0
 40
3.5
100
AcDbArc
 50
270.0
 51
90.0
  0
ARC
  5
24C7
330
2
100
AcDbEntity
  8
OUTLINE
100
AcDbCircle
 10
4948.732854880894
 20
-1064.377781918796
 30
0.0
 40
3.5
100
AcDbArc
 50
90.0
 51
270.0
  0
ARC
  5
24C8
330
2
100
AcDbEntity
  8
OUTLINE
100
AcDbCircle
 10
4950.732854880893
 20
-1064.377781918796
 30
0.0
 40
3.5
100
AcDbArc
 50
270.0
 51
90.0
  0
ARC
  5
24C9
330
2
100
AcDbEntity
  8
OUTLINE
100
AcDbCircle
 10
4948.732854880894
 20
-914.3777819187967
 30
0.0
 40
3.5
100
AcDbArc
 50
90.0
 51
270.0
  0
ARC
  5
24CA
330
2
100
AcDbEntity
  8
OUTLINE
100
AcDbCircle
 10
4950.732854880893
 20
-914.3777819187967
 30
0.0
 40
3.5
100
AcDbArc
 50
270.0
 51
90.0
  0
ARC
  5
24CB
330
2
100
AcDbEntity
  8
OUTLINE
100
AcDbCircle
 10
4948.732854880894
 20
-764.3777819187967
 30
0.0
 40
3.5
100
AcDbArc
 50
90.0
 51
270.0
  0
ARC
  5
24CC
330
2
100
AcDbEntity
  8
OUTLINE
100
AcDbCircle
 10
4950.732854880893
 20
-764.3777819187967
 30
0.0
 40
3.5
100
AcDbArc
 50
270.0
 51
90.0
  0
ARC
  5
24CD
330
2
100
AcDbEntity
  8
OUTLINE
100
AcDbCircle
 10
4948.732854880894
 20
-614.3777819187968
 30
0.0
 40
3.5
100
AcDbArc
 50
90.0
 51
270.0
  0
ARC
  5
24CE
330
2
100
AcDbEntity
  8
OUTLINE
100
AcDbCircle
 10
4950.732854880893
 20
-614.3777819187968
 30
0.0
 40
3.5
100
AcDbArc
 50
270.0
 51
90.0
  0
LINE
  5
24CF
330
2
100
AcDbEntity
  8
OUTLINE
100
AcDbLine
 10
4974.232854880892
 20
-536.3777819187971
 30
0.0
 11
4974.232854880892
 21
-537.3777819187971
 31
0.0
  0
LINE
  5
24D0
330
2
100
AcDbEntity
  8
OUTLINE
100
AcDbLine
 10
4979.232854880893
 20
-536.3777819187971
 30
0.0
 11
4974.232854880892
 21
-536.3777819187971
 31
0.0
  0
LINE
  5
24D1
330
2
100
AcDbEntity
  8
OUTLINE
100
AcDbLine
 10
5804.232854880893
 20
-537.3777819187971
 30
0.0
 11
5804.232854880893
 21
-536.3777819187971
 31
0.0
  0
LINE
  5
24D2
330
2
100
AcDbEntity
  8
OUTLINE
100
AcDbLine
 10
5804.232854880893
 20
-536.3777819187971
 30
0.0
 11
5799.232854880894
 21
-536.3777819187971
 31
0.0
  0
LINE
  5
24D3
330
2
100
AcDbEntity
  8
OUTLINE
100
AcDbLine
 10
5004.232854880893
 20
-539.3777819187976
 30
0.0
 11
5004.232854880893
 21
-550.3777819187976
 31
0.0
  0
LINE
  5
24D4
330
2
100
AcDbEntity
  8
OUTLINE
100
AcDbLine
 10
5774.232854880892
 20
-539.3777819187976
 30
0.0
 11
5774.232854880892
 21
-543.8777819187984
 31
0.0
  0
LINE
  5
24D5
330
2
100
AcDbEntity
  8
OUTLINE
100
AcDbLine
 10
5004.232854880893
 20
-537.3777819187971
 30
0.0
 11
4979.232854880893
 21
-537.3777819187971
 31
0.0
  0
LINE
  5
24D6
330
2
100
AcDbEntity
  8
OUTLINE
100
AcDbLine
 10
4979.232854880893
 20
-537.3777819187971
 30
0.0
 11
4979.232854880893
 21
-536.3777819187971
 31
0.0
  0
LINE
  5
24D7
330
2
100
AcDbEntity
  8
OUTLINE
100
AcDbLine
 10
5004.232854880893
 20
-536.3777819187971
 30
0.0
 11
4979.232854880893
 21
-536.3777819187971
 31
0.0
  0
LINE
  5
24D8
330
2
100
AcDbEntity
  8
OUTLINE
100
AcDbLine
 10
5799.232854880894
 20
-536.3777819187971
 30
0.0
 11
5774.232854880892
 21
-536.3777819187971
 31
0.0
  0
LINE
  5
24D9
330
2
100
AcDbEntity
  8
OUTLINE
100
AcDbLine
 10
5799.232854880894
 20
-536.3777819187971
 30
0.0
 11
5799.232854880894
 21
-537.3777819187971
 31
0.0
  0
LINE
  5
24DA
330
2
100
AcDbEntity
  8
OUTLINE
100
AcDbLine
 10
5799.232854880894
 20
-537.3777819187971
 30
0.0
 11
5774.232854880892
 21
-537.3777819187971
 31
0.0
  0
LINE
  5
24DB
330
2
100
AcDbEntity
  8
OUTLINE
100
AcDbLine
 10
5774.232854880892
 20
-536.3777819187971
 30
0.0
 11
5004.232854880893
 21
-536.3777819187971
 31
0.0
  0
LINE
  5
24DC
330
2
100
AcDbEntity
  8
OUTLINE
100
AcDbLine
 10
5774.232854880892
 20
-536.3777819187971
 30
0.0
 11
5774.232854880892
 21
-539.3777819187971
 31
0.0
  0
LINE
  5
24DD
330
2
100
AcDbEntity
  8
OUTLINE
100
AcDbLine
 10
5004.232854880893
 20
-536.3777819187971
 30
0.0
 11
5004.232854880893
 21
-539.3777819187971
 31
0.0
  0
LINE
  5
24DE
330
2
100
AcDbEntity
  8
OUTLINE
100
AcDbLine
 10
5009.232854880893
 20
-544.3777819187971
 30
0.0
 11
5004.232854880893
 21
-539.3777819187971
 31
0.0
  0
LINE
  5
24DF
330
2
100
AcDbEntity
  8
OUTLINE
100
AcDbLine
 10
5009.232854880893
 20
-544.3777819187971
 30
0.0
 11
5769.232854880893
 21
-544.3777819187971
 31
0.0
  0
LINE
  5
24E0
330
2
100
AcDbEntity
  8
OUTLINE
100
AcDbLine
 10
5774.232854880892
 20
-539.3777819187971
 30
0.0
 11
5769.232854880893
 21
-544.3777819187971
 31
0.0
  0
LINE
  5
24E1
330
2
100
AcDbEntity
  8
OUTLINE
100
AcDbLine
 10
5766.732854880894
 20
-551.3777819187976
 30
0.0
 11
5009.232854880893
 21
-551.3777819187976
 31
0.0
  0
LINE
  5
24E2
330
2
100
AcDbEntity
  8
OUTLINE
100
AcDbLine
 10
5009.232854880893
 20
-550.3777819187976
 30
0.0
 11
5767.732854880893
 21
-550.3777819187976
 31
0.0
  0
LINE
  5
24E3
330
2
100
AcDbEntity
  8
OUTLINE
100
AcDbLine
 10
5004.232854880893
 20
-550.3777819187976
 30
0.0
 11
5004.232854880893
 21
-551.3777819187976
 31
0.0
  0
LINE
  5
24E4
330
2
100
AcDbEntity
  8
OUTLINE
100
AcDbLine
 10
5009.232854880893
 20
-550.3777819187976
 30
0.0
 11
5004.232854880893
 21
-550.3777819187976
 31
0.0
  0
LINE
  5
24E5
330
2
100
AcDbEntity
  8
OUTLINE
100
AcDbLine
 10
5009.232854880893
 20
-551.3777819187976
 30
0.0
 11
5009.232854880893
 21
-550.3777819187976
 31
0.0
  0
LINE
  5
24E6
330
2
100
AcDbEntity
  8
OUTLINE
100
AcDbLine
 10
5004.232854880894
 20
-551.3777819187971
 30
0.0
 11
5009.232854880893
 21
-551.3777819187971
 31
0.0
  0
LINE
  5
24E7
330
2
100
AcDbEntity
  8
OUTLINE
100
AcDbLine
 10
5009.232854880893
 20
-1237.950604156901
 30
0.0
 11
5763.232854880893
 21
-1237.950604156901
 31
0.0
  0
LINE
  5
24E8
330
2
100
AcDbEntity
  8
OUTLINE
100
AcDbLine
 10
5009.232854880893
 20
-1238.82522386404
 30
0.0
 11
5763.232854880893
 21
-1238.82522386404
 31
0.0
  0
LINE
  5
24E9
330
2
100
AcDbEntity
  8
OUTLINE
100
AcDbLine
 10
5009.232854880893
 20
-1237.9506041569
 30
0.0
 11
5004.232854880894
 21
-1240.374652258132
 31
0.0
  0
LINE
  5
24EA
330
2
100
AcDbEntity
  8
OUTLINE
100
AcDbLine
 10
5009.232854880893
 20
-1238.82522386404
 30
0.0
 11
5009.232854880893
 21
-1237.9506041569
 31
0.0
  0
LINE
  5
24EB
330
2
100
AcDbEntity
  8
OUTLINE
100
AcDbLine
 10
5004.232854880894
 20
-1241.249271965271
 30
0.0
 11
5009.232854880893
 21
-1238.82522386404
 31
0.0
  0
LINE
  5
24EC
330
2
100
AcDbEntity
  8
OUTLINE
100
AcDbLine
 10
4979.232854880894
 20
-1291.377781918797
 30
0.0
 11
4978.232854880895
 21
-1291.377781918797
 31
0.0
  0
LINE
  5
24ED
330
2
100
AcDbEntity
  8
OUTLINE
100
AcDbLine
 10
4979.232854880894
 20
-1292.377781918797
 30
0.0
 11
4979.232854880894
 21
-1291.377781918797
 31
0.0
  0
LINE
  5
24EE
330
2
100
AcDbEntity
  8
OUTLINE
100
AcDbLine
 10
5004.232854880894
 20
-1291.377781918797
 30
0.0
 11
4979.232854880894
 21
-1291.377781918797
 31
0.0
  0
LINE
  5
24EF
330
2
100
AcDbEntity
  8
OUTLINE
100
AcDbLine
 10
5004.232854880894
 20
-1289.377781918797
 30
0.0
 11
5004.232854880894
 21
-1291.377781918797
 31
0.0
  0
LINE
  5
24F0
330
2
100
AcDbEntity
  8
OUTLINE
100
AcDbLine
 10
5004.232854880894
 20
-1289.377781918797
 30
0.0
 11
5009.232854880893
 21
-1284.377781918797
 31
0.0
  0
LINE
  5
24F1
330
2
100
AcDbEntity
  8
OUTLINE
100
AcDbLine
 10
5009.232854880893
 20
-1284.377781918797
 30
0.0
 11
5769.232854880893
 21
-1284.377781918797
 31
0.0
  0
LINE
  5
24F2
330
2
100
AcDbEntity
  8
OUTLINE
100
AcDbLine
 10
5769.232854880893
 20
-1284.377781918797
 30
0.0
 11
5774.232854880893
 21
-1289.377781918797
 31
0.0
  0
LINE
  5
24F3
330
2
100
AcDbEntity
  8
OUTLINE
100
AcDbLine
 10
5774.232854880893
 20
-1291.377781918797
 30
0.0
 11
5774.232854880893
 21
-1289.377781918797
 31
0.0
  0
LINE
  5
24F4
330
2
100
AcDbEntity
  8
OUTLINE
100
AcDbLine
 10
5799.232854880894
 20
-1291.377781918797
 30
0.0
 11
5774.232854880893
 21
-1291.377781918797
 31
0.0
  0
LINE
  5
24F5
330
2
100
AcDbEntity
  8
OUTLINE
100
AcDbLine
 10
5799.232854880894
 20
-1291.377781918797
 30
0.0
 11
5799.232854880894
 21
-1292.377781918797
 31
0.0
  0
LINE
  5
24F6
330
2
100
AcDbEntity
  8
OUTLINE
100
AcDbLine
 10
5800.232854880895
 20
-1291.377781918797
 30
0.0
 11
5799.232854880894
 21
-1291.377781918797
 31
0.0
  0
LINE
  5
24F7
330
2
100
AcDbEntity
  8
OUTLINE
100
AcDbLine
 10
5004.232854880894
 20
-1240.374652258132
 30
0.0
 11
5004.232854880894
 21
-1241.249271965271
 31
0.0
  0
LINE
  5
24F8
330
2
100
AcDbEntity
  8
OUTLINE
100
AcDbLine
 10
5004.232854880894
 20
-1241.249271965271
 30
0.0
 11
5004.232854880894
 21
-1248.521416268966
 31
0.0
  0
LINE
  5
24F9
330
2
100
AcDbEntity
  8
OUTLINE
100
AcDbLine
 10
4974.232854880892
 20
-1291.377781918797
 30
0.0
 11
4974.232854880892
 21
-1292.377781918797
 31
0.0
  0
LINE
  5
24FA
330
2
100
AcDbEntity
  8
OUTLINE
100
AcDbLine
 10
5004.232854880894
 20
-1248.521416268966
 30
0.0
 11
5004.232854880894
 21
-1289.377781918797
 31
0.0
  0
LINE
  5
24FB
330
2
100
AcDbEntity
  8
OUTLINE
100
AcDbLine
 10
5004.232854880894
 20
-1248.521416268967
 30
0.0
 11
5763.232854880893
 21
-1248.521416268967
 31
0.0
  0
LINE
  5
24FC
330
2
100
AcDbEntity
  8
OUTLINE
100
AcDbLine
 10
5774.232854880893
 20
-1289.377781918797
 30
0.0
 11
5774.232854880893
 21
-1284.877781918798
 31
0.0
  0
LINE
  5
24FD
330
2
100
AcDbEntity
  8
OUTLINE
100
AcDbLine
 10
5804.232854880893
 20
-1292.377781918797
 30
0.0
 11
5804.232854880893
 21
-1291.377781918797
 31
0.0
  0
LINE
  5
24FE
330
2
100
AcDbEntity
  8
OUTLINE
100
AcDbLine
 10
4974.232854880892
 20
-1292.377781918797
 30
0.0
 11
4979.232854880894
 21
-1292.377781918797
 31
0.0
  0
LINE
  5
24FF
330
2
100
AcDbEntity
  8
OUTLINE
100
AcDbLine
 10
4979.232854880894
 20
-1292.377781918797
 30
0.0
 11
5799.232854880894
 21
-1292.377781918797
 31
0.0
  0
LINE
  5
2500
330
2
100
AcDbEntity
  8
OUTLINE
100
AcDbLine
 10
5799.232854880894
 20
-1292.377781918797
 30
0.0
 11
5804.232854880893
 21
-1292.377781918797
 31
0.0
  0
ELLIPSE
  5
2501
330
2
100
AcDbEntity
  8
OUTLINE
100
AcDbEllipse
 10
5248.232854880892
 20
-1269.637669533173
 30
0.0
 11
2.0
 21
-0.0000000000000003
 31
0.0
210
0.0
220
0.0
230
1.0
 40
0.8746197071393961
 41
0.1390246718225929
 42
3.002567981767198
  0
ELLIPSE
  5
2502
330
2
100
AcDbEntity
  8
OUTLINE
100
AcDbEllipse
 10
5248.232854880892
 20
-1269.152859912926
 30
0.0
 11
-2.0
 21
0.0000000000000003
 31
0.0
210
0.0
220
0.0
230
1.0
 40
0.8746197071393961
 41
0.0000000000000002
 42
6.283185307179585
  0
ELLIPSE
  5
2503
330
2
100
AcDbEntity
  8
OUTLINE
100
AcDbEllipse
 10
5530.232854880893
 20
-1269.637669533173
 30
0.0
 11
2.0
 21
-0.0000000000000003
 31
0.0
210
0.0
220
0.0
230
1.0
 40
0.8746197071393961
 41
0.1390246718225929
 42
3.002567981767198
  0
ELLIPSE
  5
2504
330
2
100
AcDbEntity
  8
OUTLINE
100
AcDbEllipse
 10
5530.232854880893
 20
-1269.152859912926
 30
0.0
 11
-2.0
 21
0.0000000000000003
 31
0.0
210
0.0
220
0.0
230
1.0
 40
0.8746197071393961
 41
0.0000000000000002
 42
6.283185307179585
  0
LINE
  5
2505
330
2
100
AcDbEntity
  8
OUTLINE
100
AcDbLine
 10
5774.232854880891
 20
-536.1118960607605
 30
0.0
 11
5004.232854880891
 21
-536.1118960607605
 31
0.0
  0
LINE
  5
2506
330
2
100
AcDbEntity
  8
OUTLINE
100
AcDbLine
 10
5004.232854880891
 20
-536.1118960607597
 30
0.0
 11
5004.232854880891
 21
-536.3777819187971
 31
0.0
  0
LINE
  5
2507
330
2
100
AcDbEntity
  8
OUTLINE
100
AcDbLine
 10
5004.232854880891
 20
-536.1118960607605
 30
0.0
 11
4979.232854880891
 21
-536.1118960607605
 31
0.0
  0
LINE
  5
2508
330
2
100
AcDbEntity
  8
OUTLINE
100
AcDbLine
 10
5799.232854880891
 20
-536.1118960607605
 30
0.0
 11
5774.232854880891
 21
-536.1118960607605
 31
0.0
  0
LINE
  5
2509
330
2
100
AcDbEntity
  8
OUTLINE
100
AcDbLine
 10
5774.232854880891
 20
-536.3777819187967
 30
0.0
 11
5774.232854880891
 21
-536.1118960607597
 31
0.0
  0
LINE
  5
250A
330
2
100
AcDbEntity
  8
OUTLINE
100
AcDbLine
 10
5799.712480919827
 20
-536.3777819187971
 30
0.0
 11
5799.232854880894
 21
-536.1118960607608
 31
0.0
  0
LINE
  5
250B
330
2
100
AcDbEntity
  8
OUTLINE
100
AcDbLine
 10
5799.232854880891
 20
-536.1118960607605
 30
0.0
 11
5804.232854880891
 21
-536.1121546340755
 31
0.0
  0
LINE
  5
250C
330
2
100
AcDbEntity
  8
OUTLINE
100
AcDbLine
 10
5804.232854880891
 20
-536.112154634084
 30
0.0
 11
5804.232854880891
 21
-536.3777819187971
 31
0.0
  0
LINE
  5
250D
330
2
100
AcDbEntity
  8
OUTLINE
100
AcDbLine
 10
4974.232854880892
 20
-536.3777819187971
 30
0.0
 11
4974.232854880892
 21
-536.112154634084
 31
0.0
  0
LINE
  5
250E
330
2
100
AcDbEntity
  8
OUTLINE
100
AcDbLine
 10
4974.232854880892
 20
-536.1121546340755
 30
0.0
 11
4979.232854880891
 21
-536.1118960607605
 31
0.0
  0
LINE
  5
250F
330
2
100
AcDbEntity
  8
OUTLINE
100
AcDbLine
 10
4979.232854880889
 20
-536.1118960607608
 30
0.0
 11
4978.753228841956
 21
-536.3777819187971
 31
0.0
  0
ELLIPSE
  5
2510
330
2
100
AcDbEntity
  8
OUTLINE
100
AcDbEllipse
 10
4988.232854880891
 20
-1098.477797293636
 30
0.0
 11
2.5
 21
0.0
 31
0.0
210
0.0
220
0.0
230
1.0
 40
0.8745946342037099
 41
1.174761394212396
 42
1.966831259367728
  0
ELLIPSE
  5
2511
330
2
100
AcDbEntity
  8
OUTLINE
100
AcDbEllipse
 10
4988.232854880891
 20
-914.8129241108572
 30
0.0
 11
2.5
 21
0.0
 31
0.0
210
0.0
220
0.0
230
1.0
 40
0.8745946342037099
 41
1.174761394219306
 42
1.966831259360817
  0
ELLIPSE
  5
2512
330
2
100
AcDbEntity
  8
OUTLINE
100
AcDbEllipse
 10
4988.232854880891
 20
-731.1480509280783
 30
0.0
 11
2.5
 21
0.0
 31
0.0
210
0.0
220
0.0
230
1.0
 40
0.8745946342037099
 41
1.174761394225985
 42
1.966831259354136
  0
ELLIPSE
  5
2513
330
2
100
AcDbEntity
  8
OUTLINE
100
AcDbEllipse
 10
4988.232854880891
 20
-547.4831777452991
 30
0.0
 11
2.5
 21
0.0
 31
0.0
210
0.0
220
0.0
230
1.0
 40
0.8745946342037099
 41
1.174761394219306
 42
1.966831259360817
  0
ELLIPSE
  5
2514
330
2
100
AcDbEntity
  8
OUTLINE
100
AcDbEllipse
 10
5248.232854880891
 20
-1270.172611383472
 30
0.0
 11
2.5
 21
0.0
 31
0.0
210
0.0
220
0.0
230
1.0
 40
0.8745946342037099
 41
1.031373586816271
 42
2.110219066774353
  0
ELLIPSE
  5
2515
330
2
100
AcDbEntity
  8
OUTLINE
100
AcDbEllipse
 10
5530.232854880891
 20
-1270.172611383472
 30
0.0
 11
2.5
 21
0.0
 31
0.0
210
0.0
220
0.0
230
1.0
 40
0.8745946342037099
 41
1.031373586816271
 42
2.110219066774353
  0
ELLIPSE
  5
2516
330
2
100
AcDbEntity
  8
OUTLINE
100
AcDbEllipse
 10
4988.232854880891
 20
-1282.142670476416
 30
0.0
 11
2.5
 21
0.0
 31
0.0
210
0.0
220
0.0
230
1.0
 40
0.8745946342037099
 41
1.17476139424296
 42
1.966831259337163
  0
ELLIPSE
  5
2517
330
2
100
AcDbEntity
  8
OUTLINE
100
AcDbEllipse
 10
5759.232854880891
 20
-917.4367080134683
 30
0.0
 11
2.049999999999998
 21
0.0
 31
0.0
210
0.0
220
0.0
230
1.0
 40
0.8745946342037099
 41
0.2738371920564293
 42
2.867755461530558
  0
ELLIPSE
  5
2518
330
2
100
AcDbEntity
  8
OUTLINE
100
AcDbEllipse
 10
5759.232854880891
 20
-916.9518531632068
 30
0.0
 11
-2.049999999999998
 21
0.0
 31
0.0
210
0.0
220
0.0
230
1.0
 40
0.8745946342037115
 41
3.277221913677821
 42
6.14755604708645
  0
ELLIPSE
  5
2519
330
2
100
AcDbEntity
  8
OUTLINE
100
AcDbEllipse
 10
5574.232854880891
 20
-912.1891402082461
 30
0.0
 11
2.049999999999998
 21
0.0
 31
0.0
210
0.0
220
0.0
230
1.0
 40
0.8745946342037099
 41
0.2738371920569363
 42
2.867755461530558
  0
ELLIPSE
  5
251A
330
2
100
AcDbEntity
  8
OUTLINE
100
AcDbEllipse
 10
5574.232854880891
 20
-911.7042853579846
 30
0.0
 11
-2.049999999999998
 21
0.0
 31
0.0
210
0.0
220
0.0
230
1.0
 40
0.8745946342037115
 41
3.277221913677821
 42
6.14755604708645
  0
ELLIPSE
  5
251B
330
2
100
AcDbEntity
  8
OUTLINE
100
AcDbEllipse
 10
5389.232854880891
 20
-917.4367080134683
 30
0.0
 11
2.049999999999998
 21
0.0
 31
0.0
210
0.0
220
0.0
230
1.0
 40
0.8745946342037099
 41
0.2738371920564293
 42
2.867755461530558
  0
ELLIPSE
  5
251C
330
2
100
AcDbEntity
  8
OUTLINE
100
AcDbEllipse
 10
5389.232854880891
 20
-916.9518531632068
 30
0.0
 11
-2.049999999999998
 21
0.0
 31
0.0
210
0.0
220
0.0
230
1.0
 40
0.8745946342037115
 41
3.277221913677821
 42
6.14755604708645
  0
ELLIPSE
  5
251D
330
2
100
AcDbEntity
  8
OUTLINE
100
AcDbEllipse
 10
5204.232854880891
 20
-912.1891402082461
 30
0.0
 11
2.049999999999998
 21
0.0
 31
0.0
210
0.0
220
0.0
230
1.0
 40
0.8745946342037099
 41
0.2738371920563993
 42
2.867755461530478
  0
ELLIPSE
  5
251E
330
2
100
AcDbEntity
  8
OUTLINE
100
AcDbEllipse
 10
5204.232854880891
 20
-911.7042853579846
 30
0.0
 11
-2.049999999999998
 21
0.0
 31
0.0
210
0.0
220
0.0
230
1.0
 40
0.8745946342037115
 41
3.277221913677069
 42
6.147556047085698
  0
ELLIPSE
  5
251F
330
2
100
AcDbEntity
  8
OUTLINE
100
AcDbEllipse
 10
5019.232854880891
 20
-917.4367080134683
 30
0.0
 11
2.049999999999998
 21
0.0
 31
0.0
210
0.0
220
0.0
230
1.0
 40
0.8745946342037099
 41
0.2738371920563993
 42
2.867755461530239
  0
ELLIPSE
  5
2520
330
2
100
AcDbEntity
  8
OUTLINE
100
AcDbEllipse
 10
5019.232854880891
 20
-916.9518531632068
 30
0.0
 11
-2.049999999999998
 21
0.0
 31
0.0
210
0.0
220
0.0
230
1.0
 40
0.8745946342037115
 41
3.277221913677069
 42
6.147556047085646
  0
LINE
  5
2521
330
2
100
AcDbEntity
  8
OUTLINE
100
AcDbLine
 10
5009.232854880893
 20
-923.0740156026357
 30
0.0
 11
5769.232854880893
 21
-923.0740156026357
 31
0.0
  0
LINE
  5
2522
330
2
100
AcDbEntity
  8
OUTLINE
100
AcDbLine
 10
5769.232854880893
 20
-922.5891607523744
 30
0.0
 11
5769.232854880893
 21
-923.0740156026357
 31
0.0
  0
LINE
  5
2523
330
2
100
AcDbEntity
  8
OUTLINE
100
AcDbLine
 10
5769.232854880893
 20
-923.0740156026357
 30
0.0
 11
5774.232854880892
 21
-918.7010424316172
 31
0.0
  0
LINE
  5
2524
330
2
100
AcDbEntity
  8
OUTLINE
100
AcDbLine
 10
5774.232854880892
 20
-918.7010424316172
 30
0.0
 11
5774.232854880892
 21
-918.2161875813561
 31
0.0
  0
LINE
  5
2525
330
2
100
AcDbEntity
  8
OUTLINE
100
AcDbLine
 10
5774.232854880892
 20
-905.971862702504
 30
0.0
 11
5774.232854880892
 21
-904.6402517740347
 31
0.0
  0
LINE
  5
2526
330
2
100
AcDbEntity
  8
OUTLINE
100
AcDbLine
 10
5004.232854880893
 20
-891.036477410717
 30
0.0
 11
5774.232854880892
 21
-891.0364774107174
 31
0.0
  0
LINE
  5
2527
330
2
100
AcDbEntity
  8
OUTLINE
100
AcDbLine
 10
5774.232854880892
 20
-904.155396923773
 30
0.0
 11
5774.232854880892
 21
-891.0364774107174
 31
0.0
  0
LINE
  5
2528
330
2
100
AcDbEntity
  8
OUTLINE
100
AcDbLine
 10
5774.232854880892
 20
-904.6402517740347
 30
0.0
 11
5774.232854880892
 21
-904.1553969237734
 31
0.0
  0
LINE
  5
2529
330
2
100
AcDbEntity
  8
OUTLINE
100
AcDbLine
 10
5774.232854880892
 20
-904.155396923773
 30
0.0
 11
5769.232854880893
 21
-908.5283700947915
 31
0.0
  0
LINE
  5
252A
330
2
100
AcDbEntity
  8
OUTLINE
100
AcDbLine
 10
5769.232854880893
 20
-909.0132249450535
 30
0.0
 11
5774.232854880892
 21
-904.6402517740347
 31
0.0
  0
LINE
  5
252B
330
2
100
AcDbEntity
  8
OUTLINE
100
AcDbLine
 10
5009.232854880893
 20
-908.5283700947913
 30
0.0
 11
5769.232854880893
 21
-908.5283700947915
 31
0.0
  0
LINE
  5
252C
330
2
100
AcDbEntity
  8
OUTLINE
100
AcDbLine
 10
5769.232854880893
 20
-908.5283700947915
 30
0.0
 11
5769.232854880893
 21
-909.013224945053
 31
0.0
  0
LINE
  5
252D
330
2
100
AcDbEntity
  8
OUTLINE
100
AcDbLine
 10
5009.232854880893
 20
-909.0132249450526
 30
0.0
 11
5769.232854880893
 21
-909.013224945053
 31
0.0
  0
LINE
  5
252E
330
2
100
AcDbEntity
  8
OUTLINE
100
AcDbLine
 10
5009.232854880893
 20
-909.0132249450526
 30
0.0
 11
5009.232854880893
 21
-908.5283700947913
 31
0.0
  0
LINE
  5
252F
330
2
100
AcDbEntity
  8
OUTLINE
100
AcDbLine
 10
5004.232854880893
 20
-904.6402517740343
 30
0.0
 11
5009.232854880893
 21
-909.013224945053
 31
0.0
  0
LINE
  5
2530
330
2
100
AcDbEntity
  8
OUTLINE
100
AcDbLine
 10
5009.232854880893
 20
-908.5283700947913
 30
0.0
 11
5004.232854880893
 21
-904.155396923773
 31
0.0
  0
LINE
  5
2531
330
2
100
AcDbEntity
  8
OUTLINE
100
AcDbLine
 10
5004.232854880893
 20
-905.9718627025036
 30
0.0
 11
5005.755401299991
 21
-905.9718627025036
 31
0.0
  0
LINE
  5
2532
330
2
100
AcDbEntity
  8
OUTLINE
100
AcDbLine
 10
5772.710308461795
 20
-905.971862702504
 30
0.0
 11
5774.232854880892
 21
-905.971862702504
 31
0.0
  0
LINE
  5
2533
330
2
100
AcDbEntity
  8
OUTLINE
100
AcDbLine
 10
5774.232854880892
 20
-918.2161875813561
 30
0.0
 11
5774.232854880892
 21
-905.971862702504
 31
0.0
  0
LINE
  5
2534
330
2
100
AcDbEntity
  8
OUTLINE
100
AcDbLine
 10
5774.232854880892
 20
-918.2161875813561
 30
0.0
 11
5769.232854880893
 21
-922.5891607523744
 31
0.0
  0
LINE
  5
2535
330
2
100
AcDbEntity
  8
OUTLINE
100
AcDbLine
 10
5009.232854880893
 20
-922.5891607523738
 30
0.0
 11
5769.232854880893
 21
-922.5891607523744
 31
0.0
  0
LINE
  5
2536
330
2
100
AcDbEntity
  8
OUTLINE
100
AcDbLine
 10
5004.232854880893
 20
-904.1553969237723
 30
0.0
 11
5004.232854880893
 21
-891.036477410717
 31
0.0
  0
LINE
  5
2537
330
2
100
AcDbEntity
  8
OUTLINE
100
AcDbLine
 10
5004.232854880893
 20
-904.155396923773
 30
0.0
 11
5004.232854880893
 21
-904.6402517740343
 31
0.0
  0
LINE
  5
2538
330
2
100
AcDbEntity
  8
OUTLINE
100
AcDbLine
 10
5004.232854880893
 20
-905.9718627025036
 30
0.0
 11
5004.232854880893
 21
-904.6402517740343
 31
0.0
  0
LINE
  5
2539
330
2
100
AcDbEntity
  8
OUTLINE
100
AcDbLine
 10
5004.232854880893
 20
-918.2161875813561
 30
0.0
 11
5004.232854880893
 21
-905.9718627025036
 31
0.0
  0
LINE
  5
253A
330
2
100
AcDbEntity
  8
OUTLINE
100
AcDbLine
 10
5004.232854880893
 20
-918.2161875813552
 30
0.0
 11
5004.232854880893
 21
-918.7010424316168
 31
0.0
  0
LINE
  5
253B
330
2
100
AcDbEntity
  8
OUTLINE
100
AcDbLine
 10
5009.232854880893
 20
-922.5891607523738
 30
0.0
 11
5004.232854880893
 21
-918.2161875813561
 31
0.0
  0
LINE
  5
253C
330
2
100
AcDbEntity
  8
OUTLINE
100
AcDbLine
 10
5009.232854880893
 20
-923.0740156026357
 30
0.0
 11
5009.232854880893
 21
-922.5891607523738
 31
0.0
  0
LINE
  5
253D
330
2
100
AcDbEntity
  8
OUTLINE
100
AcDbLine
 10
5004.232854880893
 20
-918.7010424316168
 30
0.0
 11
5009.232854880893
 21
-923.0740156026357
 31
0.0
  0
ELLIPSE
  5
253E
330
2
100
AcDbEntity
  8
OUTLINE
100
AcDbEllipse
 10
5574.232854880893
 20
-911.7042853579873
 30
0.0
 11
2.049999999999999
 21
0.0
 31
0.0
210
0.0
220
0.0
230
1.0
 40
0.8745946342037111
 41
0.1356292600913867
 42
3.005963393498406
  0
ELLIPSE
  5
253F
330
2
100
AcDbEntity
  8
OUTLINE
100
AcDbEllipse
 10
5389.232854880892
 20
-916.9518531632096
 30
0.0
 11
2.049999999999999
 21
0.0
 31
0.0
210
0.0
220
0.0
230
1.0
 40
0.8745946342037111
 41
0.1356292600913334
 42
3.005963393498458
  0
ELLIPSE
  5
2540
330
2
100
AcDbEntity
  8
OUTLINE
100
AcDbEllipse
 10
5204.232854880893
 20
-911.7042853579873
 30
0.0
 11
2.049999999999999
 21
0.0
 31
0.0
210
0.0
220
0.0
230
1.0
 40
0.8745946342037111
 41
0.1356292600913484
 42
3.005963393498443
  0
ELLIPSE
  5
2541
330
2
100
AcDbEntity
  8
OUTLINE
100
AcDbEllipse
 10
5019.232854880893
 20
-916.9518531632091
 30
0.0
 11
2.049999999999999
 21
0.0
 31
0.0
210
0.0
220
0.0
230
1.0
 40
0.8745946342037111
 41
0.1356292600914017
 42
3.00596339349839
  0
ELLIPSE
  5
2542
330
2
100
AcDbEntity
  8
OUTLINE
100
AcDbEllipse
 10
5574.232854880893
 20
-911.219430507726
 30
0.0
 11
-2.049999999999999
 21
0.0
 31
0.0
210
0.0
220
0.0
230
1.0
 40
0.8745946342037111
 41
0.0000000000000002
 42
6.283185307179585
  0
ELLIPSE
  5
2543
330
2
100
AcDbEntity
  8
OUTLINE
100
AcDbEllipse
 10
5389.232854880892
 20
-916.4669983129483
 30
0.0
 11
-2.049999999999999
 21
0.0
 31
0.0
210
0.0
220
0.0
230
1.0
 40
0.8745946342037111
 41
0.0000000000000002
 42
6.283185307179585
  0
ELLIPSE
  5
2544
330
2
100
AcDbEntity
  8
OUTLINE
100
AcDbEllipse
 10
5204.232854880893
 20
-911.219430507726
 30
0.0
 11
-2.049999999999999
 21
0.0
 31
0.0
210
0.0
220
0.0
230
1.0
 40
0.8745946342037111
 41
0.0000000000000002
 42
6.283185307179585
  0
ELLIPSE
  5
2545
330
2
100
AcDbEntity
  8
OUTLINE
100
AcDbEllipse
 10
5019.232854880893
 20
-916.466998312948
 30
0.0
 11
-2.049999999999999
 21
0.0
 31
0.0
210
0.0
220
0.0
230
1.0
 40
0.8745946342037111
 41
0.0000000000000002
 42
6.283185307179585
  0
ELLIPSE
  5
2546
330
2
100
AcDbEntity
  8
OUTLINE
100
AcDbEllipse
 10
5759.232854880893
 20
-916.9518531632096
 30
0.0
 11
2.049999999999999
 21
0.0
 31
0.0
210
0.0
220
0.0
230
1.0
 40
0.8745946342037111
 41
0.1356292600913867
 42
3.005963393498406
  0
ELLIPSE
  5
2547
330
2
100
AcDbEntity
  8
OUTLINE
100
AcDbEllipse
 10
5759.232854880893
 20
-916.4669983129483
 30
0.0
 11
-2.049999999999999
 21
0.0
 31
0.0
210
0.0
220
0.0
230
1.0
 40
0.8745946342037111
 41
0.0000000000000002
 42
6.283185307179585
  0
LINE
  5
2548
330
2
100
AcDbEntity
  8
NOTE
100
AcDbLine
 10
6658.232854880893
 20
-614.3777819187968
 30
0.0
 11
6659.232854880895
 21
-614.3777819187968
 31
0.0
  0
LINE
  5
2549
330
2
100
AcDbEntity
  8
NOTE
100
AcDbLine
 10
6658.732854880894
 20
-614.8777819187968
 30
0.0
 11
6658.732854880894
 21
-613.8777819187968
 31
0.0
  0
LINE
  5
254A
330
2
100
AcDbEntity
  8
NOTE
100
AcDbLine
 10
6645.232854880894
 20
-614.3777819187968
 30
0.0
 11
6657.232854880894
 21
-614.3777819187968
 31
0.0
  0
LINE
  5
254B
330
2
100
AcDbEntity
  8
NOTE
100
AcDbLine
 10
6660.232854880894
 20
-614.3777819187968
 30
0.0
 11
6672.232854880895
 21
-614.3777819187968
 31
0.0
  0
LINE
  5
254C
330
2
100
AcDbEntity
  8
NOTE
100
AcDbLine
 10
6658.732854880894
 20
-627.8777819187967
 30
0.0
 11
6658.732854880894
 21
-615.8777819187966
 31
0.0
  0
LINE
  5
254D
330
2
100
AcDbEntity
  8
NOTE
100
AcDbLine
 10
6658.732854880894
 20
-612.8777819187965
 30
0.0
 11
6658.732854880894
 21
-600.8777819187968
 31
0.0
  0
LINE
  5
254E
330
2
100
AcDbEntity
  8
NOTE
100
AcDbLine
 10
6658.232854880893
 20
-764.3777819187967
 30
0.0
 11
6659.232854880895
 21
-764.3777819187967
 31
0.0
  0
LINE
  5
254F
330
2
100
AcDbEntity
  8
NOTE
100
AcDbLine
 10
6658.732854880894
 20
-764.8777819187967
 30
0.0
 11
6658.732854880894
 21
-763.8777819187967
 31
0.0
  0
LINE
  5
2550
330
2
100
AcDbEntity
  8
NOTE
100
AcDbLine
 10
6645.232854880894
 20
-764.3777819187967
 30
0.0
 11
6657.232854880894
 21
-764.3777819187967
 31
0.0
  0
LINE
  5
2551
330
2
100
AcDbEntity
  8
NOTE
100
AcDbLine
 10
6660.232854880894
 20
-764.3777819187967
 30
0.0
 11
6672.232854880895
 21
-764.3777819187967
 31
0.0
  0
LINE
  5
2552
330
2
100
AcDbEntity
  8
NOTE
100
AcDbLine
 10
6658.732854880894
 20
-777.8777819187967
 30
0.0
 11
6658.732854880894
 21
-765.8777819187966
 31
0.0
  0
LINE
  5
2553
330
2
100
AcDbEntity
  8
NOTE
100
AcDbLine
 10
6658.732854880894
 20
-762.8777819187966
 30
0.0
 11
6658.732854880894
 21
-750.8777819187967
 31
0.0
  0
LINE
  5
2554
330
2
100
AcDbEntity
  8
NOTE
100
AcDbLine
 10
6658.232854880893
 20
-914.3777819187967
 30
0.0
 11
6659.232854880895
 21
-914.3777819187967
 31
0.0
  0
LINE
  5
2555
330
2
100
AcDbEntity
  8
NOTE
100
AcDbLine
 10
6658.732854880894
 20
-914.8777819187968
 30
0.0
 11
6658.732854880894
 21
-913.8777819187966
 31
0.0
  0
LINE
  5
2556
330
2
100
AcDbEntity
  8
NOTE
100
AcDbLine
 10
6645.232854880894
 20
-914.3777819187967
 30
0.0
 11
6657.232854880894
 21
-914.3777819187967
 31
0.0
  0
LINE
  5
2557
330
2
100
AcDbEntity
  8
NOTE
100
AcDbLine
 10
6660.232854880894
 20
-914.3777819187967
 30
0.0
 11
6672.232854880895
 21
-914.3777819187967
 31
0.0
  0
LINE
  5
2558
330
2
100
AcDbEntity
  8
NOTE
100
AcDbLine
 10
6658.732854880894
 20
-927.8777819187967
 30
0.0
 11
6658.732854880894
 21
-915.8777819187967
 31
0.0
  0
LINE
  5
2559
330
2
100
AcDbEntity
  8
NOTE
100
AcDbLine
 10
6658.732854880894
 20
-912.8777819187966
 30
0.0
 11
6658.732854880894
 21
-900.8777819187967
 31
0.0
  0
LINE
  5
255A
330
2
100
AcDbEntity
  8
NOTE
100
AcDbLine
 10
6658.232854880893
 20
-1064.377781918796
 30
0.0
 11
6659.232854880894
 21
-1064.377781918796
 31
0.0
  0
LINE
  5
255B
330
2
100
AcDbEntity
  8
NOTE
100
AcDbLine
 10
6658.732854880894
 20
-1064.877781918797
 30
0.0
 11
6658.732854880894
 21
-1063.877781918797
 31
0.0
  0
LINE
  5
255C
330
2
100
AcDbEntity
  8
NOTE
100
AcDbLine
 10
6645.232854880894
 20
-1064.377781918796
 30
0.0
 11
6657.232854880894
 21
-1064.377781918796
 31
0.0
  0
LINE
  5
255D
330
2
100
AcDbEntity
  8
NOTE
100
AcDbLine
 10
6660.232854880894
 20
-1064.377781918796
 30
0.0
 11
6672.232854880893
 21
-1064.377781918796
 31
0.0
  0
LINE
  5
255E
330
2
100
AcDbEntity
  8
NOTE
100
AcDbLine
 10
6658.732854880894
 20
-1077.877781918797
 30
0.0
 11
6658.732854880894
 21
-1065.877781918797
 31
0.0
  0
LINE
  5
255F
330
2
100
AcDbEntity
  8
NOTE
100
AcDbLine
 10
6658.732854880894
 20
-1062.877781918796
 30
0.0
 11
6658.732854880894
 21
-1050.877781918797
 31
0.0
  0
LINE
  5
2560
330
2
100
AcDbEntity
  8
NOTE
100
AcDbLine
 10
6658.232854880893
 20
-1214.377781918797
 30
0.0
 11
6659.232854880894
 21
-1214.377781918797
 31
0.0
  0
LINE
  5
2561
330
2
100
AcDbEntity
  8
NOTE
100
AcDbLine
 10
6658.732854880894
 20
-1214.877781918797
 30
0.0
 11
6658.732854880894
 21
-1213.877781918796
 31
0.0
  0
LINE
  5
2562
330
2
100
AcDbEntity
  8
NOTE
100
AcDbLine
 10
6645.232854880894
 20
-1214.377781918797
 30
0.0
 11
6657.232854880894
 21
-1214.377781918797
 31
0.0
  0
LINE
  5
2563
330
2
100
AcDbEntity
  8
NOTE
100
AcDbLine
 10
6660.232854880894
 20
-1214.377781918797
 30
0.0
 11
6672.232854880893
 21
-1214.377781918797
 31
0.0
  0
LINE
  5
2564
330
2
100
AcDbEntity
  8
NOTE
100
AcDbLine
 10
6658.732854880894
 20
-1227.877781918796
 30
0.0
 11
6658.732854880894
 21
-1215.877781918797
 31
0.0
  0
LINE
  5
2565
330
2
100
AcDbEntity
  8
NOTE
100
AcDbLine
 10
6658.732854880894
 20
-1212.877781918797
 30
0.0
 11
6658.732854880894
 21
-1200.877781918797
 31
0.0
  0
LINE
  5
2566
330
2
100
AcDbEntity
  8
NOTE
100
AcDbLine
 10
5829.232854880894
 20
-1214.377781918797
 30
0.0
 11
5830.232854880893
 21
-1214.377781918797
 31
0.0
  0
LINE
  5
2567
330
2
100
AcDbEntity
  8
NOTE
100
AcDbLine
 10
5829.732854880893
 20
-1214.877781918797
 30
0.0
 11
5829.732854880893
 21
-1213.877781918796
 31
0.0
  0
LINE
  5
2568
330
2
100
AcDbEntity
  8
NOTE
100
AcDbLine
 10
5816.232854880894
 20
-1214.377781918797
 30
0.0
 11
5828.232854880894
 21
-1214.377781918797
 31
0.0
  0
LINE
  5
2569
330
2
100
AcDbEntity
  8
NOTE
100
AcDbLine
 10
5831.232854880894
 20
-1214.377781918797
 30
0.0
 11
5843.232854880894
 21
-1214.377781918797
 31
0.0
  0
LINE
  5
256A
330
2
100
AcDbEntity
  8
NOTE
100
AcDbLine
 10
5829.732854880893
 20
-1227.877781918796
 30
0.0
 11
5829.732854880893
 21
-1215.877781918797
 31
0.0
  0
LINE
  5
256B
330
2
100
AcDbEntity
  8
NOTE
100
AcDbLine
 10
5829.732854880893
 20
-1212.877781918797
 30
0.0
 11
5829.732854880893
 21
-1200.877781918797
 31
0.0
  0
LINE
  5
256C
330
2
100
AcDbEntity
  8
NOTE
100
AcDbLine
 10
5778.232854880894
 20
-1214.377781918797
 30
0.0
 11
5779.232854880894
 21
-1214.377781918797
 31
0.0
  0
LINE
  5
256D
330
2
100
AcDbEntity
  8
NOTE
100
AcDbLine
 10
5778.732854880893
 20
-1214.877781918797
 30
0.0
 11
5778.732854880893
 21
-1213.877781918797
 31
0.0
  0
LINE
  5
256E
330
2
100
AcDbEntity
  8
NOTE
100
AcDbLine
 10
5765.232854880894
 20
-1214.377781918797
 30
0.0
 11
5777.232854880893
 21
-1214.377781918797
 31
0.0
  0
LINE
  5
256F
330
2
100
AcDbEntity
  8
NOTE
100
AcDbLine
 10
5780.232854880893
 20
-1214.377781918797
 30
0.0
 11
5792.232854880893
 21
-1214.377781918797
 31
0.0
  0
LINE
  5
2570
330
2
100
AcDbEntity
  8
NOTE
100
AcDbLine
 10
5778.732854880893
 20
-1227.877781918797
 30
0.0
 11
5778.732854880893
 21
-1215.877781918797
 31
0.0
  0
LINE
  5
2571
330
2
100
AcDbEntity
  8
NOTE
100
AcDbLine
 10
5778.732854880893
 20
-1212.877781918797
 30
0.0
 11
5778.732854880893
 21
-1200.877781918797
 31
0.0
  0
LINE
  5
2572
330
2
100
AcDbEntity
  8
NOTE
100
AcDbLine
 10
5829.232854880894
 20
-1064.377781918796
 30
0.0
 11
5830.232854880893
 21
-1064.377781918796
 31
0.0
  0
LINE
  5
2573
330
2
100
AcDbEntity
  8
NOTE
100
AcDbLine
 10
5829.732854880893
 20
-1064.877781918797
 30
0.0
 11
5829.732854880893
 21
-1063.877781918797
 31
0.0
  0
LINE
  5
2574
330
2
100
AcDbEntity
  8
NOTE
100
AcDbLine
 10
5816.232854880894
 20
-1064.377781918796
 30
0.0
 11
5828.232854880894
 21
-1064.377781918796
 31
0.0
  0
LINE
  5
2575
330
2
100
AcDbEntity
  8
NOTE
100
AcDbLine
 10
5831.232854880894
 20
-1064.377781918796
 30
0.0
 11
5843.232854880894
 21
-1064.377781918796
 31
0.0
  0
LINE
  5
2576
330
2
100
AcDbEntity
  8
NOTE
100
AcDbLine
 10
5829.732854880893
 20
-1077.877781918797
 30
0.0
 11
5829.732854880893
 21
-1065.877781918797
 31
0.0
  0
LINE
  5
2577
330
2
100
AcDbEntity
  8
NOTE
100
AcDbLine
 10
5829.732854880893
 20
-1062.877781918796
 30
0.0
 11
5829.732854880893
 21
-1050.877781918797
 31
0.0
  0
LINE
  5
2578
330
2
100
AcDbEntity
  8
NOTE
100
AcDbLine
 10
5778.232854880894
 20
-1064.377781918797
 30
0.0
 11
5779.232854880894
 21
-1064.377781918797
 31
0.0
  0
LINE
  5
2579
330
2
100
AcDbEntity
  8
NOTE
100
AcDbLine
 10
5778.732854880893
 20
-1064.877781918797
 30
0.0
 11
5778.732854880893
 21
-1063.877781918797
 31
0.0
  0
LINE
  5
257A
330
2
100
AcDbEntity
  8
NOTE
100
AcDbLine
 10
5765.232854880894
 20
-1064.377781918797
 30
0.0
 11
5777.232854880893
 21
-1064.377781918797
 31
0.0
  0
LINE
  5
257B
330
2
100
AcDbEntity
  8
NOTE
100
AcDbLine
 10
5780.232854880893
 20
-1064.377781918797
 30
0.0
 11
5792.232854880893
 21
-1064.377781918797
 31
0.0
  0
LINE
  5
257C
330
2
100
AcDbEntity
  8
NOTE
100
AcDbLine
 10
5778.732854880893
 20
-1077.877781918797
 30
0.0
 11
5778.732854880893
 21
-1065.877781918797
 31
0.0
  0
LINE
  5
257D
330
2
100
AcDbEntity
  8
NOTE
100
AcDbLine
 10
5778.732854880893
 20
-1062.877781918797
 30
0.0
 11
5778.732854880893
 21
-1050.877781918797
 31
0.0
  0
LINE
  5
257E
330
2
100
AcDbEntity
  8
NOTE
100
AcDbLine
 10
5829.232854880894
 20
-764.3777819187967
 30
0.0
 11
5830.232854880893
 21
-764.3777819187967
 31
0.0
  0
LINE
  5
257F
330
2
100
AcDbEntity
  8
NOTE
100
AcDbLine
 10
5829.732854880893
 20
-764.8777819187967
 30
0.0
 11
5829.732854880893
 21
-763.8777819187967
 31
0.0
  0
LINE
  5
2580
330
2
100
AcDbEntity
  8
NOTE
100
AcDbLine
 10
5816.232854880894
 20
-764.3777819187967
 30
0.0
 11
5828.232854880894
 21
-764.3777819187967
 31
0.0
  0
LINE
  5
2581
330
2
100
AcDbEntity
  8
NOTE
100
AcDbLine
 10
5831.232854880894
 20
-764.3777819187967
 30
0.0
 11
5843.232854880894
 21
-764.3777819187967
 31
0.0
  0
LINE
  5
2582
330
2
100
AcDbEntity
  8
NOTE
100
AcDbLine
 10
5829.732854880893
 20
-777.8777819187967
 30
0.0
 11
5829.732854880893
 21
-765.8777819187966
 31
0.0
  0
LINE
  5
2583
330
2
100
AcDbEntity
  8
NOTE
100
AcDbLine
 10
5829.732854880893
 20
-762.8777819187966
 30
0.0
 11
5829.732854880893
 21
-750.8777819187967
 31
0.0
  0
LINE
  5
2584
330
2
100
AcDbEntity
  8
NOTE
100
AcDbLine
 10
5829.232854880894
 20
-614.3777819187968
 30
0.0
 11
5830.232854880893
 21
-614.3777819187968
 31
0.0
  0
LINE
  5
2585
330
2
100
AcDbEntity
  8
NOTE
100
AcDbLine
 10
5829.732854880893
 20
-614.8777819187968
 30
0.0
 11
5829.732854880893
 21
-613.8777819187968
 31
0.0
  0
LINE
  5
2586
330
2
100
AcDbEntity
  8
NOTE
100
AcDbLine
 10
5816.232854880894
 20
-614.3777819187968
 30
0.0
 11
5828.232854880894
 21
-614.3777819187968
 31
0.0
  0
LINE
  5
2587
330
2
100
AcDbEntity
  8
NOTE
100
AcDbLine
 10
5831.232854880894
 20
-614.3777819187968
 30
0.0
 11
5843.232854880894
 21
-614.3777819187968
 31
0.0
  0
LINE
  5
2588
330
2
100
AcDbEntity
  8
NOTE
100
AcDbLine
 10
5829.732854880893
 20
-627.8777819187967
 30
0.0
 11
5829.732854880893
 21
-615.8777819187966
 31
0.0
  0
LINE
  5
2589
330
2
100
AcDbEntity
  8
NOTE
100
AcDbLine
 10
5829.732854880893
 20
-612.8777819187965
 30
0.0
 11
5829.732854880893
 21
-600.8777819187968
 31
0.0
  0
LINE
  5
258A
330
2
100
AcDbEntity
  8
NOTE
100
AcDbLine
 10
5778.232854880894
 20
-614.3777819187971
 30
0.0
 11
5779.232854880894
 21
-614.3777819187971
 31
0.0
  0
LINE
  5
258B
330
2
100
AcDbEntity
  8
NOTE
100
AcDbLine
 10
5778.732854880893
 20
-614.8777819187971
 30
0.0
 11
5778.732854880893
 21
-613.8777819187971
 31
0.0
  0
LINE
  5
258C
330
2
100
AcDbEntity
  8
NOTE
100
AcDbLine
 10
5765.232854880894
 20
-614.3777819187971
 30
0.0
 11
5777.232854880893
 21
-614.3777819187971
 31
0.0
  0
LINE
  5
258D
330
2
100
AcDbEntity
  8
NOTE
100
AcDbLine
 10
5780.232854880893
 20
-614.3777819187971
 30
0.0
 11
5792.232854880893
 21
-614.3777819187971
 31
0.0
  0
LINE
  5
258E
330
2
100
AcDbEntity
  8
NOTE
100
AcDbLine
 10
5778.732854880893
 20
-627.8777819187971
 30
0.0
 11
5778.732854880893
 21
-615.8777819187971
 31
0.0
  0
LINE
  5
258F
330
2
100
AcDbEntity
  8
NOTE
100
AcDbLine
 10
5778.732854880893
 20
-612.8777819187972
 30
0.0
 11
5778.732854880893
 21
-600.8777819187971
 31
0.0
  0
ARC
  5
2590
330
2
100
AcDbEntity
  8
OUTLINE
100
AcDbCircle
 10
5779.732854880894
 20
-764.3777819187976
 30
0.0
 40
3.5
100
AcDbArc
 50
270.0
 51
90.0
  0
LINE
  5
2591
330
2
100
AcDbEntity
  8
NOTE
100
AcDbLine
 10
5778.232854880894
 20
-764.3777819187971
 30
0.0
 11
5779.232854880894
 21
-764.3777819187971
 31
0.0
  0
LINE
  5
2592
330
2
100
AcDbEntity
  8
NOTE
100
AcDbLine
 10
5778.732854880893
 20
-764.8777819187971
 30
0.0
 11
5778.732854880893
 21
-763.8777819187971
 31
0.0
  0
LINE
  5
2593
330
2
100
AcDbEntity
  8
NOTE
100
AcDbLine
 10
5765.232854880894
 20
-764.3777819187971
 30
0.0
 11
5777.232854880893
 21
-764.3777819187971
 31
0.0
  0
LINE
  5
2594
330
2
100
AcDbEntity
  8
NOTE
100
AcDbLine
 10
5780.232854880893
 20
-764.3777819187971
 30
0.0
 11
5792.232854880893
 21
-764.3777819187971
 31
0.0
  0
LINE
  5
2595
330
2
100
AcDbEntity
  8
NOTE
100
AcDbLine
 10
5778.732854880893
 20
-777.8777819187971
 30
0.0
 11
5778.732854880893
 21
-765.8777819187971
 31
0.0
  0
LINE
  5
2596
330
2
100
AcDbEntity
  8
NOTE
100
AcDbLine
 10
5778.732854880893
 20
-762.8777819187972
 30
0.0
 11
5778.732854880893
 21
-750.8777819187971
 31
0.0
  0
LINE
  5
2597
330
2
100
AcDbEntity
  8
NOTE
100
AcDbLine
 10
4949.232854880893
 20
-614.3777819187962
 30
0.0
 11
4950.232854880894
 21
-614.3777819187962
 31
0.0
  0
LINE
  5
2598
330
2
100
AcDbEntity
  8
NOTE
100
AcDbLine
 10
4949.732854880894
 20
-614.8777819187962
 30
0.0
 11
4949.732854880894
 21
-613.8777819187962
 31
0.0
  0
LINE
  5
2599
330
2
100
AcDbEntity
  8
NOTE
100
AcDbLine
 10
4936.232854880895
 20
-614.3777819187962
 30
0.0
 11
4948.232854880894
 21
-614.3777819187962
 31
0.0
  0
LINE
  5
259A
330
2
100
AcDbEntity
  8
NOTE
100
AcDbLine
 10
4951.232854880895
 20
-614.3777819187962
 30
0.0
 11
4963.232854880892
 21
-614.3777819187962
 31
0.0
  0
LINE
  5
259B
330
2
100
AcDbEntity
  8
NOTE
100
AcDbLine
 10
4949.732854880894
 20
-627.8777819187962
 30
0.0
 11
4949.732854880894
 21
-615.8777819187962
 31
0.0
  0
LINE
  5
259C
330
2
100
AcDbEntity
  8
NOTE
100
AcDbLine
 10
4949.732854880894
 20
-612.8777819187962
 30
0.0
 11
4949.732854880894
 21
-600.8777819187962
 31
0.0
  0
LINE
  5
259D
330
2
100
AcDbEntity
  8
NOTE
100
AcDbLine
 10
4949.232854880893
 20
-764.3777819187962
 30
0.0
 11
4950.232854880894
 21
-764.3777819187962
 31
0.0
  0
LINE
  5
259E
330
2
100
AcDbEntity
  8
NOTE
100
AcDbLine
 10
4949.732854880894
 20
-764.8777819187962
 30
0.0
 11
4949.732854880894
 21
-763.8777819187962
 31
0.0
  0
LINE
  5
259F
330
2
100
AcDbEntity
  8
NOTE
100
AcDbLine
 10
4936.232854880895
 20
-764.3777819187962
 30
0.0
 11
4948.232854880894
 21
-764.3777819187962
 31
0.0
  0
LINE
  5
25A0
330
2
100
AcDbEntity
  8
NOTE
100
AcDbLine
 10
4951.232854880895
 20
-764.3777819187962
 30
0.0
 11
4963.232854880892
 21
-764.3777819187962
 31
0.0
  0
LINE
  5
25A1
330
2
100
AcDbEntity
  8
NOTE
100
AcDbLine
 10
4949.732854880894
 20
-777.8777819187962
 30
0.0
 11
4949.732854880894
 21
-765.8777819187962
 31
0.0
  0
LINE
  5
25A2
330
2
100
AcDbEntity
  8
NOTE
100
AcDbLine
 10
4949.732854880894
 20
-762.8777819187962
 30
0.0
 11
4949.732854880894
 21
-750.8777819187962
 31
0.0
  0
LINE
  5
25A3
330
2
100
AcDbEntity
  8
NOTE
100
AcDbLine
 10
4949.232854880893
 20
-914.3777819187958
 30
0.0
 11
4950.232854880894
 21
-914.3777819187958
 31
0.0
  0
LINE
  5
25A4
330
2
100
AcDbEntity
  8
NOTE
100
AcDbLine
 10
4949.732854880894
 20
-914.8777819187962
 30
0.0
 11
4949.732854880894
 21
-913.8777819187962
 31
0.0
  0
LINE
  5
25A5
330
2
100
AcDbEntity
  8
NOTE
100
AcDbLine
 10
4936.232854880895
 20
-914.3777819187958
 30
0.0
 11
4948.232854880894
 21
-914.3777819187958
 31
0.0
  0
LINE
  5
25A6
330
2
100
AcDbEntity
  8
NOTE
100
AcDbLine
 10
4951.232854880895
 20
-914.3777819187958
 30
0.0
 11
4963.232854880892
 21
-914.3777819187958
 31
0.0
  0
LINE
  5
25A7
330
2
100
AcDbEntity
  8
NOTE
100
AcDbLine
 10
4949.732854880894
 20
-927.8777819187963
 30
0.0
 11
4949.732854880894
 21
-915.8777819187962
 31
0.0
  0
LINE
  5
25A8
330
2
100
AcDbEntity
  8
NOTE
100
AcDbLine
 10
4949.732854880894
 20
-912.8777819187963
 30
0.0
 11
4949.732854880894
 21
-900.8777819187962
 31
0.0
  0
LINE
  5
25A9
330
2
100
AcDbEntity
  8
NOTE
100
AcDbLine
 10
4949.232854880893
 20
-1064.377781918796
 30
0.0
 11
4950.232854880894
 21
-1064.377781918796
 31
0.0
  0
LINE
  5
25AA
330
2
100
AcDbEntity
  8
NOTE
100
AcDbLine
 10
4949.732854880894
 20
-1064.877781918796
 30
0.0
 11
4949.732854880894
 21
-1063.877781918796
 31
0.0
  0
LINE
  5
25AB
330
2
100
AcDbEntity
  8
NOTE
100
AcDbLine
 10
4936.232854880895
 20
-1064.377781918796
 30
0.0
 11
4948.232854880894
 21
-1064.377781918796
 31
0.0
  0
LINE
  5
25AC
330
2
100
AcDbEntity
  8
NOTE
100
AcDbLine
 10
4951.232854880895
 20
-1064.377781918796
 30
0.0
 11
4963.232854880892
 21
-1064.377781918796
 31
0.0
  0
LINE
  5
25AD
330
2
100
AcDbEntity
  8
NOTE
100
AcDbLine
 10
4949.732854880894
 20
-1077.877781918796
 30
0.0
 11
4949.732854880894
 21
-1065.877781918796
 31
0.0
  0
LINE
  5
25AE
330
2
100
AcDbEntity
  8
NOTE
100
AcDbLine
 10
4949.732854880894
 20
-1062.877781918796
 30
0.0
 11
4949.732854880894
 21
-1050.877781918796
 31
0.0
  0
LINE
  5
25AF
330
2
100
AcDbEntity
  8
NOTE
100
AcDbLine
 10
4949.232854880893
 20
-1214.377781918796
 30
0.0
 11
4950.232854880894
 21
-1214.377781918796
 31
0.0
  0
LINE
  5
25B0
330
2
100
AcDbEntity
  8
NOTE
100
AcDbLine
 10
4949.732854880894
 20
-1214.877781918796
 30
0.0
 11
4949.732854880894
 21
-1213.877781918796
 31
0.0
  0
LINE
  5
25B1
330
2
100
AcDbEntity
  8
NOTE
100
AcDbLine
 10
4936.232854880895
 20
-1214.377781918796
 30
0.0
 11
4948.232854880894
 21
-1214.377781918796
 31
0.0
  0
LINE
  5
25B2
330
2
100
AcDbEntity
  8
NOTE
100
AcDbLine
 10
4951.232854880895
 20
-1214.377781918796
 30
0.0
 11
4963.232854880892
 21
-1214.377781918796
 31
0.0
  0
LINE
  5
25B3
330
2
100
AcDbEntity
  8
NOTE
100
AcDbLine
 10
4949.732854880894
 20
-1227.877781918796
 30
0.0
 11
4949.732854880894
 21
-1215.877781918796
 31
0.0
  0
LINE
  5
25B4
330
2
100
AcDbEntity
  8
NOTE
100
AcDbLine
 10
4949.732854880894
 20
-1212.877781918796
 30
0.0
 11
4949.732854880894
 21
-1200.877781918796
 31
0.0
  0
DIMENSION
  5
25C6
330
2
100
AcDbEntity
  8
SIZE
100
AcDbDimension
  2
*D26
 10
5778.732854880893
 20
-486.0592840276718
 30
0.0
 11
5364.232854880895
 21
-466.0592840276716
 31
0.0
 70
    32
 71
     5
 42
829.0
  3
STANDARD
100
AcDbAlignedDimension
 13
4949.732854880894
 23
-600.8777819187962
 33
0.0
 14
5778.732854880893
 24
-600.8777819187962
 34
0.0
100
AcDbRotatedDimension
1001
ACAD
1000
DSTYLE
1002
{
1070
    40
1040
10.0
1070
    45
1040
0.5
1070
    50
1040
0.7853981633974483
1070
    90
1070
     1
1070
   271
1070
     1
1070
   272
1070
     1
1002
}
  0
DIMENSION
  5
25D3
330
2
100
AcDbEntity
  8
SIZE
100
AcDbDimension
  2
*D27
 10
5829.732854880893
 20
-486.0592840276718
 30
0.0
 11
5804.232854880893
 21
-466.0592840276716
 31
0.0
 70
    32
 71
     5
 42
51.0
  3
STANDARD
100
AcDbAlignedDimension
 13
5778.732854880893
 23
-600.8777819187962
 33
0.0
 14
5829.732854880893
 24
-600.8777819187968
 34
0.0
100
AcDbRotatedDimension
1001
ACAD
1000
DSTYLE
1002
{
1070
   279
1070
     1
1070
    40
1040
10.0
1070
    45
1040
0.5
1070
    50
1040
0.7853981633974483
1070
    90
1070
     1
1070
   271
1070
     1
1070
   272
1070
     1
1002
}
  0
DIMENSION
  5
25E2
330
2
100
AcDbEntity
  8
SIZE
100
AcDbDimension
  2
*D28
 10
6658.732854880894
 20
-486.0592840276718
 30
0.0
 11
6244.232854880895
 21
-466.0592840276716
 31
0.0
 70
    32
 71
     5
 42
829.0000000000009
  3
STANDARD
100
AcDbAlignedDimension
 13
5829.732854880893
 23
-600.8777819187968
 33
0.0
 14
6658.732854880894
 24
-600.8777819187968
 34
0.0
100
AcDbRotatedDimension
1001
ACAD
1000
DSTYLE
1002
{
1070
   279
1070
     1
1070
    40
1040
10.0
1070
    45
1040
0.5
1070
    50
1040
0.7853981633974483
1070
    90
1070
     1
1070
   271
1070
     1
1070
   272
1070
     1
1002
}
  0
DIMENSION
  5
25EF
330
2
100
AcDbEntity
  8
SIZE
100
AcDbDimension
  2
*D29
 10
6675.232854880895
 20
-434.7588863680845
 30
0.0
 11
5804.232854880893
 21
-414.7588863680844
 31
0.0
 70
    32
 71
     5
 42
1742.000000000001
  3
STANDARD
100
AcDbAlignedDimension
 13
4933.232854880895
 23
-581.3777819187968
 33
0.0
 14
6675.232854880895
 24
-581.3777819187971
 34
0.0
100
AcDbRotatedDimension
1001
ACAD
1000
DSTYLE
1002
{
1070
    40
1040
10.0
1070
    45
1040
0.5
1070
    50
1040
0.7853981633974483
1070
    90
1070
     1
1070
   271
1070
     1
1070
   272
1070
     1
1002
}
  0
LINE
  5
2628
330
2
100
AcDbEntity
  8
BASIS
  6
DASHDOT
 62
     6
100
AcDbLine
 10
5804.232854880893
 20
-1326.754643612902
 30
0.0
 11
5804.232854880893
 21
-510.2009654683381
 31
0.0
  0
LINE
  5
2629
330
2
100
AcDbEntity
  8
ARRANGE
  6
Continuous
 62
     1
100
AcDbLine
 10
5787.54873731649
 20
-931.061899483201
 30
0.0
 11
5820.916972445298
 21
-897.693664354394
 31
0.0
  0
LINE
  5
262A
330
2
100
AcDbEntity
  8
ARRANGE
  6
Continuous
 62
     1
100
AcDbLine
 10
5787.54873731649
 20
-897.693664354394
 30
0.0
 11
5820.916972445298
 21
-931.061899483201
 31
0.0
  0
LINE
  5
262B
330
2
100
AcDbEntity
  8
BASIS
100
AcDbLine
 10
4907.187351467979
 20
-914.3777819187972
 30
0.0
 11
6692.20716507258
 21
-914.3777819187972
 31
0.0
  0
CIRCLE
  5
262C
330
2
100
AcDbEntity
  8
ARRANGE
100
AcDbCircle
 10
5804.232854880893
 20
-914.3777819187976
 30
0.0
 40
15.0
  0
DIMENSION
  5
262D
330
2
100
AcDbEntity
  8
SIZE
100
AcDbDimension
  2
*D30
 10
4880.215541342129
 20
-764.3777819187962
 30
0.0
 11
4860.21554134213
 21
-689.3777819187953
 31
0.0
 70
    32
 71
     5
 42
150.0
  3
STANDARD
100
AcDbAlignedDimension
 13
4936.232854880895
 23
-614.3777819187962
 33
0.0
 14
4936.232854880895
 24
-764.3777819187962
 34
0.0
 50
90.0
100
AcDbRotatedDimension
1001
ACAD
1000
DSTYLE
1002
{
1070
    40
1040
10.0
1070
    45
1040
0.5
1070
    50
1040
0.7853981633974483
1070
    90
1070
     1
1070
   271
1070
     1
1070
   272
1070
     1
1002
}
  0
DIMENSION
  5
263A
330
2
100
AcDbEntity
  8
SIZE
100
AcDbDimension
  2
*D31
 10
4880.215541342129
 20
-914.3777819187972
 30
0.0
 11
4860.21554134213
 21
-839.3777819187958
 31
0.0
 70
    32
 71
     5
 42
150.0000000000011
  3
STANDARD
100
AcDbAlignedDimension
 13
4936.232854880895
 23
-764.3777819187962
 33
0.0
 14
4907.187351467979
 24
-914.3777819187972
 34
0.0
 50
90.0
100
AcDbRotatedDimension
1001
ACAD
1000
DSTYLE
1002
{
1070
   279
1070
     1
1070
    40
1040
10.0
1070
    45
1040
0.5
1070
    50
1040
0.7853981633974483
1070
    90
1070
     1
1070
   271
1070
     1
1070
   272
1070
     1
1002
}
  0
DIMENSION
  5
2647
330
2
100
AcDbEntity
  8
SIZE
100
AcDbDimension
  2
*D32
 10
4880.215541342129
 20
-1064.377781918796
 30
0.0
 11
4860.21554134213
 21
-989.3777819187958
 31
0.0
 70
    32
 71
     5
 42
149.9999999999988
  3
STANDARD
100
AcDbAlignedDimension
 13
4907.187351467979
 23
-914.3777819187972
 33
0.0
 14
4936.232854880895
 24
-1064.377781918796
 34
0.0
 50
90.0
100
AcDbRotatedDimension
1001
ACAD
1000
DSTYLE
1002
{
1070
   279
1070
     1
1070
    40
1040
10.0
1070
    45
1040
0.5
1070
    50
1040
0.7853981633974483
1070
    90
1070
     1
1070
   271
1070
     1
1070
   272
1070
     1
1002
}
  0
DIMENSION
  5
2654
330
2
100
AcDbEntity
  8
SIZE
100
AcDbDimension
  2
*D33
 10
4880.215541342129
 20
-1214.377781918796
 30
0.0
 11
4860.21554134213
 21
-1139.377781918795
 31
0.0
 70
    32
 71
     5
 42
150.0
  3
STANDARD
100
AcDbAlignedDimension
 13
4936.232854880895
 23
-1064.377781918796
 33
0.0
 14
4936.232854880895
 24
-1214.377781918796
 34
0.0
 50
90.0
100
AcDbRotatedDimension
1001
ACAD
1000
DSTYLE
1002
{
1070
   279
1070
     1
1070
    40
1040
10.0
1070
    45
1040
0.5
1070
    50
1040
0.7853981633974483
1070
    90
1070
     1
1070
   271
1070
     1
1070
   272
1070
     1
1002
}
  0
DIMENSION
  5
2661
330
2
100
AcDbEntity
  8
SIZE
100
AcDbDimension
  2
*D34
 10
4826.205965743488
 20
-536.377781918797
 30
0.0
 11
4806.205965743489
 21
-914.3777819187963
 31
0.0
 70
    32
 71
     5
 42
756.0
  3
STANDARD
100
AcDbAlignedDimension
 13
4974.232854880892
 23
-1292.377781918797
 33
0.0
 14
4974.232854880892
 24
-536.3777819187971
 34
0.0
 50
90.0
100
AcDbRotatedDimension
1001
ACAD
1000
DSTYLE
1002
{
1070
    40
1040
10.0
1070
    45
1040
0.5
1070
    50
1040
0.7853981633974483
1070
    90
1070
     1
1070
   271
1070
     1
1070
   272
1070
     1
1002
}
  0
ENDSEC
  0
SECTION
  2
OBJECTS
  0
DICTIONARY
  5
A
330
0
100
AcDbDictionary
281
     1
  3
ACAD_2007HEADERVARS_RT
350
2775
  3
ACAD_BACKGROUND
350
B1D
  3
ACAD_COLOR
350
4D
  3
ACAD_GROUP
350
3A
  3
ACAD_LAYOUT
350
17
  3
ACAD_MATERIAL
350
C
  3
ACAD_MLEADERSTYLE
350
B16
  3
ACAD_MLINESTYLE
350
3B
  3
ACAD_PLOTSETTINGS
350
3C
  3
ACAD_PLOTSTYLENAME
350
9
  3
ACAD_SCALELIST
350
4E
  3
ACAD_TABLESTYLE
350
4F
  3
ACAD_VISUALSTYLE
350
2D
  3
ACDB_RECOMPOSE_DATA
350
B02
  3
AcDbVariableDictionary
350
B03
  3
AcmDictionary
350
AFC
  3
AMG
350
124F
  3
AMGSNAPSETTINGS
350
148B
  3
DWGPROPS
350
2774
  0
DICTIONARY
  5
20
330
1F
100
AcDbDictionary
280
     1
281
     1
  3
ACAD_LAYERFILTERS
360
25B6
  3
ACAD_LAYERSTATES
360
21
  3
ACLYDICTIONARY
360
25B5
  0
DICTIONARY
  5
6
330
5
100
AcDbDictionary
280
     1
281
     1
  3
ADSK_XREC_LAYER_RECONCILED
360
7
  0
DICTIONARY
  5
C99
330
C98
100
AcDbDictionary
280
     1
281
     1
  0
DICTIONARY
  5
C9B
330
C9A
100
AcDbDictionary
280
     1
281
     1
  0
DICTIONARY
  5
C9F
330
C9E
100
AcDbDictionary
280
     1
281
     1
  0
DICTIONARY
  5
CA1
330
CA0
100
AcDbDictionary
280
     1
281
     1
  0
DICTIONARY
  5
CA3
330
CA2
100
AcDbDictionary
280
     1
281
     1
  0
DICTIONARY
  5
CA5
330
CA4
100
AcDbDictionary
280
     1
281
     1
  0
DICTIONARY
  5
3
330
2
100
AcDbDictionary
280
     1
281
     1
  3
ACAD_INDEX
360
1652
  3
ACAD_SORTENTS
360
B34
  0
DICTIONARY
  5
2775
102
{ACAD_REACTORS
330
A
102
}
330
A
100
AcDbDictionary
281
     1
  3
DIMARCSYM
350
2777
  3
DIMFXL
350
2776
  0
DICTIONARY
  5
B1D
102
{ACAD_REACTORS
330
A
102
}
330
A
100
AcDbDictionary
281
     1
  0
DICTIONARY
  5
4D
102
{ACAD_REACTORS
330
A
102
}
330
A
100
AcDbDictionary
281
     1
  0
DICTIONARY
  5
3A
102
{ACAD_REACTORS
330
A
102
}
330
A
100
AcDbDictionary
281
     1
  0
DICTIONARY
  5
17
102
{ACAD_REACTORS
330
A
102
}
330
A
100
AcDbDictionary
281
     1
  3
Model
350
16
  3
レイアウト1
350
1B
  0
DICTIONARY
  5
C
102
{ACAD_REACTORS
330
A
102
}
330
A
100
AcDbDictionary
281
     1
  3
ByBlock
350
45
  3
ByLayer
350
3D
  3
Global
350
B
  0
DICTIONARY
  5
B16
102
{ACAD_REACTORS
330
A
102
}
330
A
100
AcDbDictionary
281
     1
  3
Standard
350
B17
  0
DICTIONARY
  5
3B
102
{ACAD_REACTORS
330
A
102
}
330
A
100
AcDbDictionary
281
     1
  3
STANDARD
350
53
  0
DICTIONARY
  5
3C
102
{ACAD_REACTORS
330
A
102
}
330
A
100
AcDbDictionary
281
     1
  0
ACDBDICTIONARYWDFLT
  5
9
102
{ACAD_REACTORS
330
A
102
}
330
A
100
AcDbDictionary
281
     1
  3
Normal
350
8
100
AcDbDictionaryWithDefault
340
8
  0
DICTIONARY
  5
4E
102
{ACAD_REACTORS
330
A
102
}
330
A
100
AcDbDictionary
281
     1
  3
*A1
350
CA7
  3
*A2
350
1B10
  3
*A3
350
1B11
  3
A0
350
57
  3
A1
350
58
  3
A2
350
59
  3
A3
350
5A
  3
A4
350
5B
  3
A5
350
5C
  3
A6
350
5D
  3
A7
350
5E
  3
A8
350
5F
  3
A9
350
60
  3
B0
350
61
  3
B1
350
62
  3
B2
350
63
  3
B3
350
64
  3
B4
350
65
  3
B5
350
66
  3
B6
350
67
  3
B7
350
68
  3
B8
350
69
  3
B9
350
6A
  3
C0
350
6B
  3
C1
350
6C
  3
C2
350
6D
  3
C3
350
6E
  3
C4
350
6F
  3
C5
350
70
  3
C6
350
71
  3
C7
350
72
  3
C8
350
73
  3
C9
350
74
  3
D0
350
75
  3
D1
350
76
  3
D2
350
77
  0
DICTIONARY
  5
4F
102
{ACAD_REACTORS
330
A
102
}
330
A
100
AcDbDictionary
281
     1
  3
Standard
350
54
  0
DICTIONARY
  5
2D
102
{ACAD_REACTORS
330
A
102
}
330
A
100
AcDbDictionary
281
     1
  3
2dWireframe
350
B0D
  3
3D Hidden
350
B0E
  3
3dWireframe
350
56
  3
Basic
350
B0C
  3
Brighten
350
B11
  3
ColorChange
350
B15
  3
Conceptual
350
B0F
  3
Dim
350
B10
  3
Facepattern
350
B14
  3
Flat
350
B09
  3
FlatWithEdges
350
B0A
  3
Gouraud
350
2C
  3
GouraudWithEdges
350
B0B
  3
Linepattern
350
B13
  3
Realistic
350
55
  3
Thicken
350
B12
  0
XRECORD
  5
B02
102
{ACAD_REACTORS
330
A
102
}
330
A
100
AcDbXrecord
280
     1
 90
        1
330
54
  0
DICTIONARY
  5
B03
102
{ACAD_REACTORS
330
A
102
}
330
A
100
AcDbDictionary
281
     1
  3
CANNOSCALE
350
B06
  3
CMLEADERSTYLE
350
B05
  3
CTABLESTYLE
350
B04
  3
DIMASSOC
350
B7B
  3
HIDETEXT
350
B7A
  3
INDEXCTL
350
B79
  3
LIGHTINGUNITS
350
B07
  3
MSLTSCALE
350
B77
  3
SORTENTS
350
B78
  0
DICTIONARY
  5
AFC
102
{ACAD_REACTORS
330
A
102
}
330
A
100
AcDbDictionary
281
     1
  3
AcmStdDictionary
350
1317
  3
AMDTSECTSYM_ARROWCOLOR
350
132E
  0
DICTIONARY
  5
124F
102
{ACAD_REACTORS
330
A
102
}
330
A
100
AcDbDictionary
281
     1
  3
AcMgSettings
350
1250
  0
DICTIONARY
  5
148B
102
{ACAD_REACTORS
330
A
102
}
330
A
100
AcDbDictionary
281
     1
  3
DIMENSION
350
1490
  3
FEA
350
148F
  3
HATCH (1)
350
148C
  3
HATCH (2)
350
148D
  3
SIMPLE WELD
350
1491
  3
SYMBOLS
350
148E
  0
XRECORD
  5
2774
102
{ACAD_REACTORS
330
A
102
}
330
A
100
AcDbXrecord
280
     1
  1
DWGPROPS COOKIE
  2

  3

  4

  6

  7

  8
W000135
  9

300
AmdtFileType=84
301
=
302
=
303
=
304
=
305
=
306
=
307
=
308
=
309
=
 40
2.027395706018518
 41
2451324.468257373
 42
2455894.565377107
  1

 90
        1
  0
DICTIONARY
  5
25B6
102
{ACAD_REACTORS
330
20
102
}
330
20
100
AcDbDictionary
281
     1
  0
DICTIONARY
  5
21
102
{ACAD_REACTORS
330
20
102
}
330
20
100
AcDbDictionary
281
     1
  0
DICTIONARY
  5
25B5
102
{ACAD_REACTORS
330
20
102
}
330
20
100
AcDbDictionary
281
     1
1001
ACAD
1000
<All
  0
XRECORD
  5
7
102
{ACAD_REACTORS
330
6
102
}
330
6
100
AcDbXrecord
280
     1
290
     1
  0
DICTIONARY
  5
1652
102
{ACAD_REACTORS
330
3
102
}
330
3
100
AcDbDictionary
281
     1
  3
*A1
350
1653
  0
SORTENTSTABLE
  5
B34
102
{ACAD_REACTORS
330
3
102
}
330
3
100
AcDbSortentsTable
330
2
  0
XRECORD
  5
2777
102
{ACAD_REACTORS
330
2775
102
}
330
2775
100
AcDbXrecord
280
     1
 70
     1
  0
XRECORD
  5
2776
102
{ACAD_REACTORS
330
2775
102
}
330
2775
100
AcDbXrecord
280
     1
 40
15.0
  0
LAYOUT
  5
16
102
{ACAD_XDICTIONARY
360
2778
102
}
102
{ACAD_REACTORS
330
17
102
}
330
17
100
AcDbPlotSettings
  1

  2
なし
  4

  6

 40
0.0
 41
0.0
 42
0.0
 43
0.0
 44
0.0
 45
0.0
 46
0.0
 47
0.0
 48
0.0
 49
0.0
140
0.0
141
0.0
142
1.0
143
1.0
 70
  1712
 72
     0
 73
     0
 74
     0
  7

 75
     0
147
1.0
148
0.0
149
0.0
100
AcDbLayout
  1
Model
 70
     1
 71
     0
 10
0.0
 20
0.0
 11
12.0
 21
9.0
 12
0.0
 22
0.0
 32
0.0
 14
0.0
 24
0.0
 34
0.0
 15
0.0
 25
0.0
 35
0.0
146
0.0
 13
0.0
 23
0.0
 33
0.0
 16
1.0
 26
0.0
 36
0.0
 17
0.0
 27
1.0
 37
0.0
 76
     0
330
2
331
BF0
  0
LAYOUT
  5
1B
102
{ACAD_XDICTIONARY
360
1C
102
}
102
{ACAD_REACTORS
330
17
102
}
330
17
100
AcDbPlotSettings
  1

  2
Microsoft XPS Document Writer
  4
A4
  6

 40
3.174999952316281
 41
3.174999952316281
 42
3.175003051757812
 43
3.17498779296875
 44
210.0156707763672
 45
297.0106506347656
 46
0.0
 47
0.0
 48
0.0
 49
0.0
140
0.0
141
0.0
142
1.0
143
1.0
 70
   688
 72
     1
 73
     1
 74
     5
  7

 75
    16
147
1.0
148
0.0
149
0.0
100
AcDbLayout
  1
レイアウト1
 70
     1
 71
     1
 10
0.0
 20
0.0
 11
12.0
 21
9.0
 12
0.0
 22
0.0
 32
0.0
 14
-1439.804583653114
 24
-1400.237631316938
 34
0.0
 15
2872.968780515991
 25
1675.790811506817
 35
0.0
146
0.0
 13
0.0
 23
0.0
 33
0.0
 16
1.0
 26
0.0
 36
0.0
 17
0.0
 27
1.0
 37
0.0
 76
     0
330
18
1001
ACAD_PSEXT
1000
Microsoft XPS Document Writer
1000
Microsoft XPS Document Writer
1000
XPSPort:
1000

1070
     0
  0
MATERIAL
  5
45
102
{ACAD_XDICTIONARY
360
46
102
}
102
{ACAD_REACTORS
330
C
102
}
330
C
100
AcDbMaterial
  1
ByBlock
 72
     0
 43
0.0208333333333333
 43
0.0
 43
0.0
 43
0.0
 43
0.0
 43
0.0208333333333333
 43
0.0
 43
0.0
 43
0.0
 43
0.0
 43
1.0
 43
0.0
 43
0.0
 43
0.0
 43
0.0
 43
1.0
 77
     0
 47
0.0208333333333333
 47
0.0
 47
0.0
 47
0.0
 47
0.0
 47
0.0208333333333333
 47
0.0
 47
0.0
 47
0.0
 47
0.0
 47
1.0
 47
0.0
 47
0.0
 47
0.0
 47
0.0
 47
1.0
171
     0
 49
0.0208333333333333
 49
0.0
 49
0.0
 49
0.0
 49
0.0
 49
0.0208333333333333
 49
0.0
 49
0.0
 49
0.0
 49
0.0
 49
1.0
 49
0.0
 49
0.0
 49
0.0
 49
0.0
 49
1.0
175
     0
142
0.0208333333333333
142
0.0
142
0.0
142
0.0
142
0.0
142
0.0208333333333333
142
0.0
142
0.0
142
0.0
142
0.0
142
1.0
142
0.0
142
0.0
142
0.0
142
0.0
142
1.0
179
     0
144
0.0208333333333333
144
0.0
144
0.0
144
0.0
144
0.0
144
0.0208333333333333
144
0.0
144
0.0
144
0.0
144
0.0
144
1.0
144
0.0
144
0.0
144
0.0
144
0.0
144
1.0
147
0.0208333333333333
147
0.0
147
0.0
147
0.0
147
0.0
147
0.0208333333333333
147
0.0
147
0.0
147
0.0
147
0.0
147
1.0
147
0.0
147
0.0
147
0.0
147
0.0
147
1.0
  0
MATERIAL
  5
3D
102
{ACAD_XDICTIONARY
360
3E
102
}
102
{ACAD_REACTORS
330
C
102
}
330
C
100
AcDbMaterial
  1
ByLayer
 72
     0
 43
0.0208333333333333
 43
0.0
 43
0.0
 43
0.0
 43
0.0
 43
0.0208333333333333
 43
0.0
 43
0.0
 43
0.0
 43
0.0
 43
1.0
 43
0.0
 43
0.0
 43
0.0
 43
0.0
 43
1.0
 77
     0
 47
0.0208333333333333
 47
0.0
 47
0.0
 47
0.0
 47
0.0
 47
0.0208333333333333
 47
0.0
 47
0.0
 47
0.0
 47
0.0
 47
1.0
 47
0.0
 47
0.0
 47
0.0
 47
0.0
 47
1.0
171
     0
 49
0.0208333333333333
 49
0.0
 49
0.0
 49
0.0
 49
0.0
 49
0.0208333333333333
 49
0.0
 49
0.0
 49
0.0
 49
0.0
 49
1.0
 49
0.0
 49
0.0
 49
0.0
 49
0.0
 49
1.0
175
     0
142
0.0208333333333333
142
0.0
142
0.0
142
0.0
142
0.0
142
0.0208333333333333
142
0.0
142
0.0
142
0.0
142
0.0
142
1.0
142
0.0
142
0.0
142
0.0
142
0.0
142
1.0
179
     0
144
0.0208333333333333
144
0.0
144
0.0
144
0.0
144
0.0
144
0.0208333333333333
144
0.0
144
0.0
144
0.0
144
0.0
144
1.0
144
0.0
144
0.0
144
0.0
144
0.0
144
1.0
147
0.0208333333333333
147
0.0
147
0.0
147
0.0
147
0.0
147
0.0208333333333333
147
0.0
147
0.0
147
0.0
147
0.0
147
1.0
147
0.0
147
0.0
147
0.0
147
0.0
147
1.0
  0
MATERIAL
  5
B
102
{ACAD_XDICTIONARY
360
D
102
}
102
{ACAD_REACTORS
330
C
102
}
330
C
100
AcDbMaterial
  1
Global
 72
     0
 43
0.0208333333333333
 43
0.0
 43
0.0
 43
0.0
 43
0.0
 43
0.0208333333333333
 43
0.0
 43
0.0
 43
0.0
 43
0.0
 43
1.0
 43
0.0
 43
0.0
 43
0.0
 43
0.0
 43
1.0
 77
     0
 47
0.0208333333333333
 47
0.0
 47
0.0
 47
0.0
 47
0.0
 47
0.0208333333333333
 47
0.0
 47
0.0
 47
0.0
 47
0.0
 47
1.0
 47
0.0
 47
0.0
 47
0.0
 47
0.0
 47
1.0
171
     0
 49
0.0208333333333333
 49
0.0
 49
0.0
 49
0.0
 49
0.0
 49
0.0208333333333333
 49
0.0
 49
0.0
 49
0.0
 49
0.0
 49
1.0
 49
0.0
 49
0.0
 49
0.0
 49
0.0
 49
1.0
175
     0
142
0.0208333333333333
142
0.0
142
0.0
142
0.0
142
0.0
142
0.0208333333333333
142
0.0
142
0.0
142
0.0
142
0.0
142
1.0
142
0.0
142
0.0
142
0.0
142
0.0
142
1.0
179
     0
144
0.0208333333333333
144
0.0
144
0.0
144
0.0
144
0.0
144
0.0208333333333333
144
0.0
144
0.0
144
0.0
144
0.0
144
1.0
144
0.0
144
0.0
144
0.0
144
0.0
144
1.0
147
0.0208333333333333
147
0.0
147
0.0
147
0.0
147
0.0
147
0.0208333333333333
147
0.0
147
0.0
147
0.0
147
0.0
147
1.0
147
0.0
147
0.0
147
0.0
147
0.0
147
1.0
  0
MLEADERSTYLE
  5
B17
102
{ACAD_REACTORS
330
B16
330
2084
102
}
330
B16
100
AcDbMLeaderStyle
170
     2
171
     1
172
     0
 90
        2
 40
0.0
 41
0.0
173
     1
 91
-1056964608
340
26
 92
       -2
290
     1
 42
2.0
291
     1
 43
0.36
  3
Standard
 44
4.0
300

342
23
174
     1
178
     6
175
     1
176
     0
 93
-1056964608
 45
4.0
292
     0
297
     0
 46
4.0
 94
-1056964608
 47
1.0
 49
1.0
140
1.0
293
     1
141
0.0
294
     1
177
     0
142
1.0
295
     0
296
     0
143
0.125
1001
ACAD_MLEADERVER
1070
     2
  0
MLINESTYLE
  5
53
102
{ACAD_REACTORS
330
3B
102
}
330
3B
100
AcDbMlineStyle
  2
STANDARD
 70
     0
  3

 62
   256
 51
90.0
 52
90.0
 71
     2
 49
0.5
 62
   256
  6
BYLAYER
 49
-0.5
 62
   256
  6
BYLAYER
  0
ACDBPLACEHOLDER
  5
8
102
{ACAD_REACTORS
330
9
102
}
330
9
  0
SCALE
  5
CA7
102
{ACAD_REACTORS
330
4E
102
}
330
4E
100
AcDbScale
 70
     0
300
1:5_XREF
140
1.0
141
5.0
290
     0
  0
SCALE
  5
1B10
102
{ACAD_REACTORS
330
4E
102
}
330
4E
100
AcDbScale
 70
     0
300
1:5_XREF_XREF
140
1.0
141
5.0
290
     0
  0
SCALE
  5
1B11
102
{ACAD_REACTORS
330
4E
102
}
330
4E
100
AcDbScale
 70
     0
300
1:5_XREF_XREF_XREF_XREF
140
1.0
141
5.0
290
     0
  0
SCALE
  5
57
102
{ACAD_REACTORS
330
4E
102
}
330
4E
100
AcDbScale
 70
     0
300
1:1
140
1.0
141
1.0
290
     1
  0
SCALE
  5
58
102
{ACAD_REACTORS
330
4E
102
}
330
4E
100
AcDbScale
 70
     0
300
1:2
140
1.0
141
2.0
290
     0
  0
SCALE
  5
59
102
{ACAD_REACTORS
330
4E
102
}
330
4E
100
AcDbScale
 70
     0
300
1:4
140
1.0
141
4.0
290
     0
  0
SCALE
  5
5A
102
{ACAD_REACTORS
330
4E
102
}
330
4E
100
AcDbScale
 70
     0
300
1:5
140
1.0
141
5.0
290
     0
  0
SCALE
  5
5B
102
{ACAD_REACTORS
330
4E
102
}
330
4E
100
AcDbScale
 70
     0
300
1:8
140
1.0
141
8.0
290
     0
  0
SCALE
  5
5C
102
{ACAD_REACTORS
330
4E
102
}
330
4E
100
AcDbScale
 70
     0
300
1:10
140
1.0
141
10.0
290
     0
  0
SCALE
  5
5D
102
{ACAD_REACTORS
330
4E
102
}
330
4E
100
AcDbScale
 70
     0
300
1:16
140
1.0
141
16.0
290
     0
  0
SCALE
  5
5E
102
{ACAD_REACTORS
330
4E
102
}
330
4E
100
AcDbScale
 70
     0
300
1:20
140
1.0
141
20.0
290
     0
  0
SCALE
  5
5F
102
{ACAD_REACTORS
330
4E
102
}
330
4E
100
AcDbScale
 70
     0
300
1:30
140
1.0
141
30.0
290
     0
  0
SCALE
  5
60
102
{ACAD_REACTORS
330
4E
102
}
330
4E
100
AcDbScale
 70
     0
300
1:40
140
1.0
141
40.0
290
     0
  0
SCALE
  5
61
102
{ACAD_REACTORS
330
4E
102
}
330
4E
100
AcDbScale
 70
     0
300
1:50
140
1.0
141
50.0
290
     0
  0
SCALE
  5
62
102
{ACAD_REACTORS
330
4E
102
}
330
4E
100
AcDbScale
 70
     0
300
1:100
140
1.0
141
100.0
290
     0
  0
SCALE
  5
63
102
{ACAD_REACTORS
330
4E
102
}
330
4E
100
AcDbScale
 70
     0
300
2:1
140
2.0
141
1.0
290
     0
  0
SCALE
  5
64
102
{ACAD_REACTORS
330
4E
102
}
330
4E
100
AcDbScale
 70
     0
300
4:1
140
4.0
141
1.0
290
     0
  0
SCALE
  5
65
102
{ACAD_REACTORS
330
4E
102
}
330
4E
100
AcDbScale
 70
     0
300
8:1
140
8.0
141
1.0
290
     0
  0
SCALE
  5
66
102
{ACAD_REACTORS
330
4E
102
}
330
4E
100
AcDbScale
 70
     0
300
10:1
140
10.0
141
1.0
290
     0
  0
SCALE
  5
67
102
{ACAD_REACTORS
330
4E
102
}
330
4E
100
AcDbScale
 70
     0
300
100:1
140
100.0
141
1.0
290
     0
  0
SCALE
  5
68
102
{ACAD_REACTORS
330
4E
102
}
330
4E
100
AcDbScale
 70
     0
300
1/128" = 1'-0"
140
0.0078125
141
12.0
290
     0
  0
SCALE
  5
69
102
{ACAD_REACTORS
330
4E
102
}
330
4E
100
AcDbScale
 70
     0
300
1/64" = 1'-0"
140
0.015625
141
12.0
290
     0
  0
SCALE
  5
6A
102
{ACAD_REACTORS
330
4E
102
}
330
4E
100
AcDbScale
 70
     0
300
1/32" = 1'-0"
140
0.03125
141
12.0
290
     0
  0
SCALE
  5
6B
102
{ACAD_REACTORS
330
4E
102
}
330
4E
100
AcDbScale
 70
     0
300
1/16" = 1'-0"
140
0.0625
141
12.0
290
     0
  0
SCALE
  5
6C
102
{ACAD_REACTORS
330
4E
102
}
330
4E
100
AcDbScale
 70
     0
300
3/32" = 1'-0"
140
0.09375
141
12.0
290
     0
  0
SCALE
  5
6D
102
{ACAD_REACTORS
330
4E
102
}
330
4E
100
AcDbScale
 70
     0
300
1/8" = 1'-0"
140
0.125
141
12.0
290
     0
  0
SCALE
  5
6E
102
{ACAD_REACTORS
330
4E
102
}
330
4E
100
AcDbScale
 70
     0
300
3/16" = 1'-0"
140
0.1875
141
12.0
290
     0
  0
SCALE
  5
6F
102
{ACAD_REACTORS
330
4E
102
}
330
4E
100
AcDbScale
 70
     0
300
1/4" = 1'-0"
140
0.25
141
12.0
290
     0
  0
SCALE
  5
70
102
{ACAD_REACTORS
330
4E
102
}
330
4E
100
AcDbScale
 70
     0
300
3/8" = 1'-0"
140
0.375
141
12.0
290
     0
  0
SCALE
  5
71
102
{ACAD_REACTORS
330
4E
102
}
330
4E
100
AcDbScale
 70
     0
300
1/2" = 1'-0"
140
0.5
141
12.0
290
     0
  0
SCALE
  5
72
102
{ACAD_REACTORS
330
4E
102
}
330
4E
100
AcDbScale
 70
     0
300
3/4" = 1'-0"
140
0.75
141
12.0
290
     0
  0
SCALE
  5
73
102
{ACAD_REACTORS
330
4E
102
}
330
4E
100
AcDbScale
 70
     0
300
1" = 1'-0"
140
1.0
141
12.0
290
     0
  0
SCALE
  5
74
102
{ACAD_REACTORS
330
4E
102
}
330
4E
100
AcDbScale
 70
     0
300
1-1/2" = 1'-0"
140
1.5
141
12.0
290
     0
  0
SCALE
  5
75
102
{ACAD_REACTORS
330
4E
102
}
330
4E
100
AcDbScale
 70
     0
300
3" = 1'-0"
140
3.0
141
12.0
290
     0
  0
SCALE
  5
76
102
{ACAD_REACTORS
330
4E
102
}
330
4E
100
AcDbScale
 70
     0
300
6" = 1'-0"
140
6.0
141
12.0
290
     0
  0
SCALE
  5
77
102
{ACAD_REACTORS
330
4E
102
}
330
4E
100
AcDbScale
 70
     0
300
1'-0" = 1'-0"
140
12.0
141
12.0
290
     0
  0
TABLESTYLE
  5
54
102
{ACAD_XDICTIONARY
360
B00
102
}
102
{ACAD_REACTORS
330
4F
102
}
330
4F
100
AcDbTableStyle
  3
Standard
 70
     0
 71
     0
 40
1.5
 41
1.5
280
     0
281
     0
  7
STANDARD
140
4.5
170
     2
 62
     0
 63
     7
283
     0
274
    -2
284
     1
 64
     0
275
    -2
285
     1
 65
     0
276
    -2
286
     1
 66
     0
277
    -2
287
     1
 67
     0
278
    -2
288
     1
 68
     0
279
    -2
289
     1
 69
     0
  7
STANDARD
140
6.0
170
     5
 62
     0
 63
     7
283
     0
274
    -2
284
     1
 64
     0
275
    -2
285
     1
 65
     0
276
    -2
286
     1
 66
     0
277
    -2
287
     1
 67
     0
278
    -2
288
     1
 68
     0
279
    -2
289
     1
 69
     0
  7
STANDARD
140
4.5
170
     5
 62
     0
 63
     7
283
     0
274
    -2
284
     1
 64
     0
275
    -2
285
     1
 65
     0
276
    -2
286
     1
 66
     0
277
    -2
287
     1
 67
     0
278
    -2
288
     1
 68
     0
279
    -2
289
     1
 69
     0
  0
VISUALSTYLE
  5
B0D
102
{ACAD_REACTORS
330
2D
102
}
330
2D
100
AcDbVisualStyle
  2
2dWireframe
 70
     4
 71
     0
 72
     2
 73
     0
 90
        0
 40
-0.6
 41
-30.0
 62
     5
 63
     7
 74
     1
 91
        4
 64
     7
 65
   257
 75
     1
175
     1
 42
1.0
 92
        0
 66
   257
 43
1.0
 76
     1
 77
     6
 78
     2
 67
     7
 79
     5
170
     0
171
     0
290
     0
174
     0
 93
        1
 44
0.0
173
     0
291
     0
 45
0.0
1001
ACAD
1000
AcDbSavedByObjectVersion
1070
     0
1000
AcDbSavedByObjectVersion
1070
     0
1000
AcDbSavedByObjectVersion
1070
     0
1000
AcDbSavedByObjectVersion
1070
     0
1000
AcDbSavedByObjectVersion
1070
     0
1000
AcDbSavedByObjectVersion
1070
     0
1000
AcDbSavedByObjectVersion
1070
     0
1000
AcDbSavedByObjectVersion
1070
     0
1000
AcDbSavedByObjectVersion
1070
     0
1000
AcDbSavedByObjectVersion
1070
     0
  0
VISUALSTYLE
  5
B0E
102
{ACAD_REACTORS
330
2D
102
}
330
2D
100
AcDbVisualStyle
  2
3D Hidden
 70
     6
 71
     1
 72
     2
 73
     2
 90
        0
 40
-0.6
 41
-30.0
 62
     5
 63
     7
 74
     2
 91
        2
 64
     7
 65
   257
 75
     2
175
     1
 42
40.0
 92
        0
 66
   257
 43
1.0
 76
     1
 77
     6
 78
     2
 67
     7
 79
     3
170
     0
171
     0
290
     0
174
     0
 93
        1
 44
0.0
173
     0
291
     0
 45
0.0
1001
ACAD
1000
AcDbSavedByObjectVersion
1070
     0
1000
AcDbSavedByObjectVersion
1070
     0
1000
AcDbSavedByObjectVersion
1070
     0
1000
AcDbSavedByObjectVersion
1070
     0
1000
AcDbSavedByObjectVersion
1070
     0
1000
AcDbSavedByObjectVersion
1070
     0
1000
AcDbSavedByObjectVersion
1070
     0
1000
AcDbSavedByObjectVersion
1070
     0
1000
AcDbSavedByObjectVersion
1070
     0
1000
AcDbSavedByObjectVersion
1070
     0
  0
VISUALSTYLE
  5
56
102
{ACAD_REACTORS
330
2D
102
}
330
2D
100
AcDbVisualStyle
  2
3dWireframe
 70
     5
 71
     0
 72
     2
 73
     0
 90
        0
 40
-0.6
 41
-30.0
 62
     5
 63
     7
 74
     1
 91
        4
 64
     7
 65
   257
 75
     1
175
     1
 42
1.0
 92
        0
 66
   257
 43
1.0
 76
     1
 77
     6
 78
     2
 67
     7
 79
     5
170
     0
171
     0
290
     0
174
     0
 93
        1
 44
0.0
173
     0
291
     0
 45
0.0
1001
ACAD
1000
AcDbSavedByObjectVersion
1070
     0
1000
AcDbSavedByObjectVersion
1070
     0
1000
AcDbSavedByObjectVersion
1070
     0
1000
AcDbSavedByObjectVersion
1070
     0
1000
AcDbSavedByObjectVersion
1070
     0
1000
AcDbSavedByObjectVersion
1070
     0
1000
AcDbSavedByObjectVersion
1070
     0
1000
AcDbSavedByObjectVersion
1070
     0
1000
AcDbSavedByObjectVersion
1070
     0
1000
AcDbSavedByObjectVersion
1070
     0
  0
VISUALSTYLE
  5
B0C
102
{ACAD_REACTORS
330
2D
102
}
330
2D
100
AcDbVisualStyle
  2
Basic
 70
     7
 71
     1
 72
     0
 73
     1
 90
        0
 40
-0.6
 41
-30.0
 62
     5
 63
     7
 74
     0
 91
        4
 64
     7
 65
   257
 75
     1
175
     1
 42
1.0
 92
        8
 66
     7
 43
1.0
 76
     1
 77
     6
 78
     2
 67
     7
 79
     5
170
     0
171
     0
290
     0
174
     0
 93
        1
 44
0.0
173
     0
291
     1
 45
0.0
1001
ACAD
1000
AcDbSavedByObjectVersion
1070
     0
1000
AcDbSavedByObjectVersion
1070
     0
1000
AcDbSavedByObjectVersion
1070
     0
1000
AcDbSavedByObjectVersion
1070
     0
1000
AcDbSavedByObjectVersion
1070
     0
1000
AcDbSavedByObjectVersion
1070
     0
1000
AcDbSavedByObjectVersion
1070
     0
1000
AcDbSavedByObjectVersion
1070
     0
1000
AcDbSavedByObjectVersion
1070
     0
1000
AcDbSavedByObjectVersion
1070
     0
  0
VISUALSTYLE
  5
B11
102
{ACAD_REACTORS
330
2D
102
}
330
2D
100
AcDbVisualStyle
  2
Brighten
 70
    12
 71
     2
 72
     2
 73
     0
 90
        0
 40
-0.6
 41
-30.0
 62
     5
 63
     7
 74
     1
 91
        4
 64
     7
 65
   257
 75
     1
175
     1
 42
1.0
 92
        8
 66
     7
 43
1.0
 76
     1
 77
     6
 78
     2
 67
     7
 79
     5
170
     0
171
     0
290
     0
174
     0
 93
        1
 44
50.0
173
     0
291
     1
 45
0.0
1001
ACAD
1000
AcDbSavedByObjectVersion
1070
     0
1000
AcDbSavedByObjectVersion
1070
     0
1000
AcDbSavedByObjectVersion
1070
     0
1000
AcDbSavedByObjectVersion
1070
     0
1000
AcDbSavedByObjectVersion
1070
     0
1000
AcDbSavedByObjectVersion
1070
     0
1000
AcDbSavedByObjectVersion
1070
     0
1000
AcDbSavedByObjectVersion
1070
     0
1000
AcDbSavedByObjectVersion
1070
     0
1000
AcDbSavedByObjectVersion
1070
     0
  0
VISUALSTYLE
  5
B15
102
{ACAD_REACTORS
330
2D
102
}
330
2D
100
AcDbVisualStyle
  2
ColorChange
 70
    16
 71
     2
 72
     2
 73
     3
 90
        0
 40
-0.6
 41
-30.0
 62
     5
 63
     8
 74
     1
 91
        4
 64
     7
 65
   257
 75
     1
175
     1
 42
1.0
 92
        8
 66
     8
 43
1.0
 76
     1
 77
     6
 78
     2
 67
     7
 79
     5
170
     0
171
     0
290
     0
174
     0
 93
        1
 44
0.0
173
     0
291
     1
 45
0.0
1001
ACAD
1000
AcDbSavedByObjectVersion
1070
     0
1000
AcDbSavedByObjectVersion
1070
     0
1000
AcDbSavedByObjectVersion
1070
     0
1000
AcDbSavedByObjectVersion
1070
     0
1000
AcDbSavedByObjectVersion
1070
     0
1000
AcDbSavedByObjectVersion
1070
     0
1000
AcDbSavedByObjectVersion
1070
     0
1000
AcDbSavedByObjectVersion
1070
     0
1000
AcDbSavedByObjectVersion
1070
     0
1000
AcDbSavedByObjectVersion
1070
     0
  0
VISUALSTYLE
  5
B0F
102
{ACAD_REACTORS
330
2D
102
}
330
2D
100
AcDbVisualStyle
  2
Conceptual
 70
     9
 71
     3
 72
     2
 73
     0
 90
        0
 40
-0.6
 41
-30.0
 62
     5
 63
     7
 74
     2
 91
        2
 64
     7
 65
   257
 75
     1
175
     1
 42
40.0
 92
        8
 66
     7
 43
1.0
 76
     1
 77
     6
 78
     2
 67
     7
 79
     3
170
     0
171
     0
290
     0
174
     0
 93
        1
 44
0.0
173
     0
291
     0
 45
0.0
1001
ACAD
1000
AcDbSavedByObjectVersion
1070
     0
1000
AcDbSavedByObjectVersion
1070
     0
1000
AcDbSavedByObjectVersion
1070
     0
1000
AcDbSavedByObjectVersion
1070
     0
1000
AcDbSavedByObjectVersion
1070
     0
1000
AcDbSavedByObjectVersion
1070
     0
1000
AcDbSavedByObjectVersion
1070
     0
1000
AcDbSavedByObjectVersion
1070
     0
1000
AcDbSavedByObjectVersion
1070
     0
1000
AcDbSavedByObjectVersion
1070
     0
  0
VISUALSTYLE
  5
B10
102
{ACAD_REACTORS
330
2D
102
}
330
2D
100
AcDbVisualStyle
  2
Dim
 70
    11
 71
     2
 72
     2
 73
     0
 90
        0
 40
-0.6
 41
-30.0
 62
     5
 63
     7
 74
     1
 91
        4
 64
     7
 65
   257
 75
     1
175
     1
 42
1.0
 92
        8
 66
     7
 43
1.0
 76
     1
 77
     6
 78
     2
 67
     7
 79
     5
170
     0
171
     0
290
     0
174
     0
 93
        1
 44
-50.0
173
     0
291
     1
 45
0.0
1001
ACAD
1000
AcDbSavedByObjectVersion
1070
     0
1000
AcDbSavedByObjectVersion
1070
     0
1000
AcDbSavedByObjectVersion
1070
     0
1000
AcDbSavedByObjectVersion
1070
     0
1000
AcDbSavedByObjectVersion
1070
     0
1000
AcDbSavedByObjectVersion
1070
     0
1000
AcDbSavedByObjectVersion
1070
     0
1000
AcDbSavedByObjectVersion
1070
     0
1000
AcDbSavedByObjectVersion
1070
     0
1000
AcDbSavedByObjectVersion
1070
     0
  0
VISUALSTYLE
  5
B14
102
{ACAD_REACTORS
330
2D
102
}
330
2D
100
AcDbVisualStyle
  2
Facepattern
 70
    15
 71
     2
 72
     2
 73
     0
 90
        0
 40
-0.6
 41
-30.0
 62
     5
 63
     7
 74
     1
 91
        4
 64
     7
 65
   257
 75
     1
175
     1
 42
1.0
 92
        8
 66
     7
 43
1.0
 76
     1
 77
     6
 78
     2
 67
     7
 79
     5
170
     0
171
     0
290
     0
174
     0
 93
        1
 44
0.0
173
     0
291
     1
 45
0.0
1001
ACAD
1000
AcDbSavedByObjectVersion
1070
     0
1000
AcDbSavedByObjectVersion
1070
     0
1000
AcDbSavedByObjectVersion
1070
     0
1000
AcDbSavedByObjectVersion
1070
     0
1000
AcDbSavedByObjectVersion
1070
     0
1000
AcDbSavedByObjectVersion
1070
     0
1000
AcDbSavedByObjectVersion
1070
     0
1000
AcDbSavedByObjectVersion
1070
     0
1000
AcDbSavedByObjectVersion
1070
     0
1000
AcDbSavedByObjectVersion
1070
     0
  0
VISUALSTYLE
  5
B09
102
{ACAD_REACTORS
330
2D
102
}
330
2D
100
AcDbVisualStyle
  2
Flat
 70
     0
 71
     2
 72
     1
 73
     1
 90
        2
 40
-0.6
 41
30.0
 62
     5
 63
     7
 74
     0
 91
        4
 64
     7
 65
   257
 75
     1
175
     1
 42
1.0
 92
        8
 66
     7
 43
1.0
 76
     1
 77
     6
 78
     2
 67
     7
 79
     5
170
     0
171
     0
290
     0
174
     0
 93
       13
 44
0.0
173
     0
291
     1
 45
0.0
1001
ACAD
1000
AcDbSavedByObjectVersion
1070
     0
1000
AcDbSavedByObjectVersion
1070
     0
1000
AcDbSavedByObjectVersion
1070
     0
1000
AcDbSavedByObjectVersion
1070
     0
1000
AcDbSavedByObjectVersion
1070
     0
1000
AcDbSavedByObjectVersion
1070
     0
1000
AcDbSavedByObjectVersion
1070
     0
1000
AcDbSavedByObjectVersion
1070
     0
1000
AcDbSavedByObjectVersion
1070
     0
1000
AcDbSavedByObjectVersion
1070
     0
  0
VISUALSTYLE
  5
B0A
102
{ACAD_REACTORS
330
2D
102
}
330
2D
100
AcDbVisualStyle
  2
FlatWithEdges
 70
     1
 71
     2
 72
     1
 73
     1
 90
        2
 40
-0.6
 41
30.0
 62
     5
 63
     7
 74
     1
 91
        4
 64
     7
 65
   257
 75
     1
175
     1
 42
1.0
 92
        0
 66
   257
 43
1.0
 76
     1
 77
     6
 78
     2
 67
     7
 79
     5
170
     0
171
     0
290
     0
174
     0
 93
       13
 44
0.0
173
     0
291
     1
 45
0.0
1001
ACAD
1000
AcDbSavedByObjectVersion
1070
     0
1000
AcDbSavedByObjectVersion
1070
     0
1000
AcDbSavedByObjectVersion
1070
     0
1000
AcDbSavedByObjectVersion
1070
     0
1000
AcDbSavedByObjectVersion
1070
     0
1000
AcDbSavedByObjectVersion
1070
     0
1000
AcDbSavedByObjectVersion
1070
     0
1000
AcDbSavedByObjectVersion
1070
     0
1000
AcDbSavedByObjectVersion
1070
     0
1000
AcDbSavedByObjectVersion
1070
     0
  0
VISUALSTYLE
  5
2C
102
{ACAD_REACTORS
330
2D
102
}
330
2D
100
AcDbVisualStyle
  2
Gouraud
 70
     2
 71
     2
 72
     2
 73
     1
 90
        2
 40
-0.6
 41
30.0
 62
     5
 63
     7
 74
     0
 91
        4
 64
     7
 65
   257
 75
     1
175
     1
 42
1.0
 92
        0
 66
     7
 43
1.0
 76
     1
 77
     6
 78
     2
 67
     7
 79
     5
170
     0
171
     0
290
     0
174
     0
 93
       13
 44
0.0
173
     0
291
     1
 45
0.0
1001
ACAD
1000
AcDbSavedByObjectVersion
1070
     0
1000
AcDbSavedByObjectVersion
1070
     0
1000
AcDbSavedByObjectVersion
1070
     0
1000
AcDbSavedByObjectVersion
1070
     0
1000
AcDbSavedByObjectVersion
1070
     0
1000
AcDbSavedByObjectVersion
1070
     0
1000
AcDbSavedByObjectVersion
1070
     0
1000
AcDbSavedByObjectVersion
1070
     0
1000
AcDbSavedByObjectVersion
1070
     0
1000
AcDbSavedByObjectVersion
1070
     0
  0
VISUALSTYLE
  5
B0B
102
{ACAD_REACTORS
330
2D
102
}
330
2D
100
AcDbVisualStyle
  2
GouraudWithEdges
 70
     3
 71
     2
 72
     2
 73
     1
 90
        2
 40
-0.6
 41
30.0
 62
     5
 63
     7
 74
     1
 91
        4
 64
     7
 65
   257
 75
     1
175
     1
 42
1.0
 92
        0
 66
   257
 43
1.0
 76
     1
 77
     6
 78
     2
 67
     7
 79
     5
170
     0
171
     0
290
     0
174
     0
 93
       13
 44
0.0
173
     0
291
     1
 45
0.0
1001
ACAD
1000
AcDbSavedByObjectVersion
1070
     0
1000
AcDbSavedByObjectVersion
1070
     0
1000
AcDbSavedByObjectVersion
1070
     0
1000
AcDbSavedByObjectVersion
1070
     0
1000
AcDbSavedByObjectVersion
1070
     0
1000
AcDbSavedByObjectVersion
1070
     0
1000
AcDbSavedByObjectVersion
1070
     0
1000
AcDbSavedByObjectVersion
1070
     0
1000
AcDbSavedByObjectVersion
1070
     0
1000
AcDbSavedByObjectVersion
1070
     0
  0
VISUALSTYLE
  5
B13
102
{ACAD_REACTORS
330
2D
102
}
330
2D
100
AcDbVisualStyle
  2
Linepattern
 70
    14
 71
     2
 72
     2
 73
     0
 90
        0
 40
-0.6
 41
-30.0
 62
     5
 63
     7
 74
     1
 91
        4
 64
     7
 65
   257
 75
     7
175
     7
 42
1.0
 92
        8
 66
     7
 43
1.0
 76
     1
 77
     6
 78
     2
 67
     7
 79
     5
170
     0
171
     0
290
     0
174
     0
 93
        1
 44
0.0
173
     0
291
     1
 45
0.0
1001
ACAD
1000
AcDbSavedByObjectVersion
1070
     0
1000
AcDbSavedByObjectVersion
1070
     0
1000
AcDbSavedByObjectVersion
1070
     0
1000
AcDbSavedByObjectVersion
1070
     0
1000
AcDbSavedByObjectVersion
1070
     0
1000
AcDbSavedByObjectVersion
1070
     0
1000
AcDbSavedByObjectVersion
1070
     0
1000
AcDbSavedByObjectVersion
1070
     0
1000
AcDbSavedByObjectVersion
1070
     0
1000
AcDbSavedByObjectVersion
1070
     0
  0
VISUALSTYLE
  5
55
102
{ACAD_REACTORS
330
2D
102
}
330
2D
100
AcDbVisualStyle
  2
Realistic
 70
     8
 71
     2
 72
     2
 73
     0
 90
        0
 40
-0.6
 41
-30.0
 62
     5
 63
     7
 74
     1
 91
        0
 64
     7
 65
   257
 75
     1
175
     1
 42
1.0
 92
        8
 66
     8
 43
1.0
 76
     1
 77
     6
 78
     2
 67
     7
 79
     5
170
     0
171
     0
290
     0
174
     0
 93
       13
 44
0.0
173
     0
291
     0
 45
0.0
1001
ACAD
1000
AcDbSavedByObjectVersion
1070
     0
1000
AcDbSavedByObjectVersion
1070
     0
1000
AcDbSavedByObjectVersion
1070
     0
1000
AcDbSavedByObjectVersion
1070
     0
1000
AcDbSavedByObjectVersion
1070
     0
1000
AcDbSavedByObjectVersion
1070
     0
1000
AcDbSavedByObjectVersion
1070
     0
1000
AcDbSavedByObjectVersion
1070
     0
1000
AcDbSavedByObjectVersion
1070
     0
1000
AcDbSavedByObjectVersion
1070
     0
  0
VISUALSTYLE
  5
B12
102
{ACAD_REACTORS
330
2D
102
}
330
2D
100
AcDbVisualStyle
  2
Thicken
 70
    13
 71
     2
 72
     2
 73
     0
 90
        0
 40
-0.6
 41
-30.0
 62
     5
 63
     7
 74
     1
 91
        4
 64
     7
 65
   257
 75
     1
175
     1
 42
1.0
 92
       12
 66
     7
 43
1.0
 76
     1
 77
     6
 78
     2
 67
     7
 79
     5
170
     0
171
     0
290
     0
174
     0
 93
        1
 44
0.0
173
     0
291
     1
 45
0.0
1001
ACAD
1000
AcDbSavedByObjectVersion
1070
     0
1000
AcDbSavedByObjectVersion
1070
     0
1000
AcDbSavedByObjectVersion
1070
     0
1000
AcDbSavedByObjectVersion
1070
     0
1000
AcDbSavedByObjectVersion
1070
     0
1000
AcDbSavedByObjectVersion
1070
     0
1000
AcDbSavedByObjectVersion
1070
     0
1000
AcDbSavedByObjectVersion
1070
     0
1000
AcDbSavedByObjectVersion
1070
     0
1000
AcDbSavedByObjectVersion
1070
     0
  0
DICTIONARYVAR
  5
B06
102
{ACAD_REACTORS
330
B03
102
}
330
B03
100
DictionaryVariables
280
     0
  1
1:1
  0
DICTIONARYVAR
  5
B05
102
{ACAD_REACTORS
330
B03
102
}
330
B03
100
DictionaryVariables
280
     0
  1
STANDARD
  0
DICTIONARYVAR
  5
B04
102
{ACAD_REACTORS
330
B03
102
}
330
B03
100
DictionaryVariables
280
     0
  1
STANDARD
  0
DICTIONARYVAR
  5
B7B
102
{ACAD_REACTORS
330
B03
102
}
330
B03
100
DictionaryVariables
280
     0
  1
1
  0
DICTIONARYVAR
  5
B7A
102
{ACAD_REACTORS
330
B03
102
}
330
B03
100
DictionaryVariables
280
     0
  1
1
  0
DICTIONARYVAR
  5
B79
102
{ACAD_REACTORS
330
B03
102
}
330
B03
100
DictionaryVariables
280
     0
  1
1
  0
DICTIONARYVAR
  5
B07
102
{ACAD_REACTORS
330
B03
102
}
330
B03
100
DictionaryVariables
280
     0
  1
0
  0
DICTIONARYVAR
  5
B77
102
{ACAD_REACTORS
330
B03
102
}
330
B03
100
DictionaryVariables
280
     0
  1
1
  0
DICTIONARYVAR
  5
B78
102
{ACAD_REACTORS
330
B03
102
}
330
B03
100
DictionaryVariables
280
     0
  1
127
  0
DICTIONARY
  5
1317
102
{ACAD_REACTORS
330
AFC
102
}
330
AFC
100
AcDbDictionary
281
     1
  0
XRECORD
  5
132E
102
{ACAD_REACTORS
330
AFC
102
}
330
AFC
100
AcDbXrecord
280
     1
 90
-1023410169
  0
DICTIONARY
  5
1250
102
{ACAD_REACTORS
330
124F
102
}
330
124F
100
AcDbDictionary
281
     1
  3
DWGSETTINGS
350
269D
  3
TRANSSETTINGS
350
269E
  0
ACAMGFILTERDAT
  5
1490
102
{ACAD_REACTORS
330
148B
102
}
330
148B
100
AcAmgFilterDat
 70
    15
  1
DIMENSION,AMDT_*_DIM
  2
*
  3
*
  4
*
  5
*
290
     1
  0
ACAMGFILTERDAT
  5
148F
102
{ACAD_REACTORS
330
148B
102
}
330
148B
100
AcAmgFilterDat
 70
    15
  1
*
  2
AM_FEA-AM_*
  3
*
  4
*
  5
*
290
     1
  0
ACAMGFILTERDAT
  5
148C
102
{ACAD_REACTORS
330
148B
102
}
330
148B
100
AcAmgFilterDat
 70
    15
  1
HATCH
  2
*
  3
*
  4
*
  5
*
290
     1
  0
ACAMGFILTERDAT
  5
148D
102
{ACAD_REACTORS
330
148B
102
}
330
148B
100
AcAmgFilterDat
 70
    15
  1
LINE
  2
8,8N,*-8,*-8N,AM_8,AM_8N,*-AM_8,*-AM_8N
  3
*
  4
*
  5
INSERT,STDPART2D
290
     1
  0
ACAMGFILTERDAT
  5
1491
102
{ACAD_REACTORS
330
148B
102
}
330
148B
100
AcAmgFilterDat
 70
    15
  1
ARC
  2
AM_5
  3
*
  4
2
  5
INSERT
290
     0
  0
ACAMGFILTERDAT
  5
148E
102
{ACAD_REACTORS
330
148B
102
}
330
148B
100
AcAmgFilterDat
 70
    15
  1
ACMFCFRAME,ACMDATUMTARGET,ACMDATUMID,ACMWELDSYM,ACMSURFSYM,ACMFEATID,ACMPARTREF,ACMBALLOON,AMDTEDGESYM,AMGSCREWCALCTABLE
  2
*
  3
*
  4
*
  5
*
290
     1
  0
LAYER_INDEX
  5
1653
102
{ACAD_REACTORS
330
1652
102
}
330
1652
100
AcDbIndex
 40
2455894.565377107
100
AcDbLayerIndex
  8
0
360
1654
 90
        0
  8
Defpoints
360
1655
 90
        0
  8
SIZE
360
1656
 90
        9
  8
OUTLINE
360
1657
 90
      432
  8
BASIS
360
1658
 90
        2
  8
NOTE
360
1659
 90
      109
  8
ARRANGE
360
165A
 90
        3
  8
ETC
360
165B
 90
        1
  0
DICTIONARY
  5
2778
330
16
100
AcDbDictionary
280
     1
281
     1
  3
ACAD_XREC_ROUNDTRIP
360
2779
  0
DICTIONARY
  5
1C
330
1B
100
AcDbDictionary
280
     1
281
     1
  3
ACAD_XREC_ROUNDTRIP
360
277A
  3
ADSK_XREC_LAYOUTTHUMBNAIL
360
1D
  0
DICTIONARY
  5
46
330
45
100
AcDbDictionary
280
     1
281
     1
  3
ACAD_XREC_ROUNDTRIP
360
B71
  3
BUMPTILE
360
47
  3
DIFFUSETILE
360
48
  3
OPACITYTILE
360
49
  3
REFLECTIONTILE
360
4A
  3
REFRACTIONTILE
360
4B
  3
SPECULARTILE
360
4C
  0
DICTIONARY
  5
3E
330
3D
100
AcDbDictionary
280
     1
281
     1
  3
ACAD_XREC_ROUNDTRIP
360
B70
  3
BUMPTILE
360
3F
  3
DIFFUSETILE
360
40
  3
OPACITYTILE
360
41
  3
REFLECTIONTILE
360
42
  3
REFRACTIONTILE
360
43
  3
SPECULARTILE
360
44
  0
DICTIONARY
  5
D
330
B
100
AcDbDictionary
280
     1
281
     1
  3
ACAD_XREC_ROUNDTRIP
360
B69
  3
BUMPTILE
360
E
  3
DIFFUSETILE
360
F
  3
OPACITYTILE
360
10
  3
REFLECTIONTILE
360
11
  3
REFRACTIONTILE
360
12
  3
SPECULARTILE
360
13
  0
DICTIONARY
  5
B00
330
54
100
AcDbDictionary
280
     1
281
     1
  3
ACAD_ROUNDTRIP_2008_TABLESTYLE_CELLSTYLEMAP
360
2773
  3
ACAD_XREC_ROUNDTRIP
360
277B
  0
IDBUFFER
  5
1654
330
0
100
AcDbIdBuffer
  0
IDBUFFER
  5
1655
330
0
100
AcDbIdBuffer
  0
IDBUFFER
  5
1656
330
0
100
AcDbIdBuffer
330
25C6
330
25D3
330
25E2
330
25EF
330
262D
330
263A
330
2647
330
2654
330
2661
  0
IDBUFFER
  5
1657
330
0
100
AcDbIdBuffer
330
2399
330
239A
330
239B
330
239C
330
239D
330
239E
330
239F
330
23A0
330
23A1
330
23A2
330
23A3
330
23A4
330
23A5
330
23A6
330
23A7
330
23A8
330
23A9
330
23AA
330
23AB
330
23AC
330
23AD
330
23AE
330
23AF
330
23B0
330
23B1
330
23B2
330
23B3
330
23B4
330
23B5
330
23B6
330
23B7
330
23B8
330
23B9
330
23BA
330
23BB
330
23BC
330
23BD
330
23BE
330
23BF
330
23C0
330
23C1
330
23C2
330
23C3
330
23C4
330
23C5
330
23C6
330
23C7
330
23C8
330
23C9
330
23CA
330
23CB
330
23CC
330
23CD
330
23CE
330
23CF
330
23D0
330
23D1
330
23D2
330
23D3
330
23D4
330
23D5
330
23D6
330
23D7
330
23D8
330
23D9
330
23DA
330
23DB
330
23DC
330
23DD
330
23DE
330
23DF
330
23E0
330
23E1
330
23E2
330
23E3
330
23E4
330
23E5
330
23E6
330
23E7
330
23E8
330
23E9
330
23EA
330
23EB
330
23EC
330
23ED
330
23EE
330
23EF
330
23F0
330
23F1
330
23F2
330
23F3
330
23F4
330
23F5
330
23F6
330
23F7
330
23F8
330
23F9
330
23FA
330
23FB
330
23FC
330
23FD
330
23FE
330
23FF
330
2400
330
2401
330
2402
330
2403
330
2404
330
2405
330
2406
330
2407
330
2408
330
2409
330
240A
330
240B
330
240C
330
240D
330
240E
330
240F
330
2410
330
2411
330
2412
330
2413
330
2414
330
2415
330
2416
330
2417
330
2418
330
2419
330
241A
330
241B
330
241C
330
241D
330
241E
330
241F
330
2420
330
2421
330
2422
330
2423
330
2424
330
2425
330
2426
330
2427
330
2428
330
2429
330
242A
330
242B
330
242C
330
242D
330
242E
330
242F
330
2430
330
2431
330
2432
330
2433
330
2434
330
2435
330
2436
330
2437
330
2438
330
2439
330
243A
330
243B
330
243C
330
243D
330
243E
330
243F
330
2440
330
2441
330
2442
330
2443
330
2444
330
2445
330
2446
330
2447
330
2448
330
2449
330
244A
330
244B
330
244C
330
244D
330
244E
330
244F
330
2450
330
2451
330
2452
330
2453
330
2454
330
2455
330
2456
330
2457
330
2458
330
2459
330
245A
330
245B
330
245C
330
245D
330
245E
330
245F
330
2460
330
2461
330
2462
330
2463
330
2464
330
2465
330
2466
330
2467
330
2468
330
2469
330
246A
330
246B
330
246C
330
246D
330
246E
330
246F
330
2470
330
2471
330
2472
330
2473
330
2474
330
2475
330
2476
330
2477
330
2478
330
2479
330
247A
330
247B
330
247C
330
247D
330
247E
330
247F
330
2480
330
2481
330
2482
330
2483
330
2484
330
2485
330
2486
330
2487
330
2488
330
2489
330
248A
330
248B
330
248C
330
248D
330
248E
330
248F
330
2490
330
2491
330
2492
330
2493
330
2494
330
2495
330
2496
330
2497
330
2498
330
2499
330
249A
330
249B
330
249C
330
249D
330
249E
330
249F
330
24A0
330
24A1
330
24A2
330
24A3
330
24A4
330
24A5
330
24A6
330
24A7
330
24A8
330
24A9
330
24AA
330
24AB
330
24AC
330
24AD
330
24AE
330
24AF
330
24B0
330
24B1
330
24B2
330
24B3
330
24B4
330
24B5
330
24B6
330
24B7
330
24B8
330
24B9
330
24BA
330
24BB
330
24BC
330
24BD
330
24BE
330
24BF
330
24C0
330
24C1
330
24C2
330
24C3
330
24C4
330
24C5
330
24C6
330
24C7
330
24C8
330
24C9
330
24CA
330
24CB
330
24CC
330
24CD
330
24CE
330
24CF
330
24D0
330
24D1
330
24D2
330
24D3
330
24D4
330
24D5
330
24D6
330
24D7
330
24D8
330
24D9
330
24DA
330
24DB
330
24DC
330
24DD
330
24DE
330
24DF
330
24E0
330
24E1
330
24E2
330
24E3
330
24E4
330
24E5
330
24E6
330
24E7
330
24E8
330
24E9
330
24EA
330
24EB
330
24EC
330
24ED
330
24EE
330
24EF
330
24F0
330
24F1
330
24F2
330
24F3
330
24F4
330
24F5
330
24F6
330
24F7
330
24F8
330
24F9
330
24FA
330
24FB
330
24FC
330
24FD
330
24FE
330
24FF
330
2500
330
2501
330
2502
330
2503
330
2504
330
2505
330
2506
330
2507
330
2508
330
2509
330
250A
330
250B
330
250C
330
250D
330
250E
330
250F
330
2510
330
2511
330
2512
330
2513
330
2514
330
2515
330
2516
330
2517
330
2518
330
2519
330
251A
330
251B
330
251C
330
251D
330
251E
330
251F
330
2520
330
2521
330
2522
330
2523
330
2524
330
2525
330
2526
330
2527
330
2528
330
2529
330
252A
330
252B
330
252C
330
252D
330
252E
330
252F
330
2530
330
2531
330
2532
330
2533
330
2534
330
2535
330
2536
330
2537
330
2538
330
2539
330
253A
330
253B
330
253C
330
253D
330
253E
330
253F
330
2540
330
2541
330
2542
330
2543
330
2544
330
2545
330
2546
330
2547
330
2590
  0
IDBUFFER
  5
1658
330
0
100
AcDbIdBuffer
330
2628
330
262B
  0
IDBUFFER
  5
1659
330
0
100
AcDbIdBuffer
330
2084
330
2548
330
2549
330
254A
330
254B
330
254C
330
254D
330
254E
330
254F
330
2550
330
2551
330
2552
330
2553
330
2554
330
2555
330
2556
330
2557
330
2558
330
2559
330
255A
330
255B
330
255C
330
255D
330
255E
330
255F
330
2560
330
2561
330
2562
330
2563
330
2564
330
2565
330
2566
330
2567
330
2568
330
2569
330
256A
330
256B
330
256C
330
256D
330
256E
330
256F
330
2570
330
2571
330
2572
330
2573
330
2574
330
2575
330
2576
330
2577
330
2578
330
2579
330
257A
330
257B
330
257C
330
257D
330
257E
330
257F
330
2580
330
2581
330
2582
330
2583
330
2584
330
2585
330
2586
330
2587
330
2588
330
2589
330
258A
330
258B
330
258C
330
258D
330
258E
330
258F
330
2591
330
2592
330
2593
330
2594
330
2595
330
2596
330
2597
330
2598
330
2599
330
259A
330
259B
330
259C
330
259D
330
259E
330
259F
330
25A0
330
25A1
330
25A2
330
25A3
330
25A4
330
25A5
330
25A6
330
25A7
330
25A8
330
25A9
330
25AA
330
25AB
330
25AC
330
25AD
330
25AE
330
25AF
330
25B0
330
25B1
330
25B2
330
25B3
330
25B4
  0
IDBUFFER
  5
165A
330
0
100
AcDbIdBuffer
330
2629
330
262A
330
262C
  0
IDBUFFER
  5
165B
330
0
100
AcDbIdBuffer
330
B60
  0
XRECORD
  5
2779
102
{ACAD_REACTORS
330
2778
102
}
330
2778
100
AcDbXrecord
280
     1
102
SHADEPLOT
 70
     0
102
SHADEPLOTRESLEVEL
 70
     2
102
SHADEPLOTCUSTOMDPI
 70
   300
  0
XRECORD
  5
277A
102
{ACAD_REACTORS
330
1C
102
}
330
1C
100
AcDbXrecord
280
     1
102
SHADEPLOT
 70
     0
102
SHADEPLOTRESLEVEL
 70
     2
102
SHADEPLOTCUSTOMDPI
 70
   300
  0
XRECORD
  5
1D
102
{ACAD_REACTORS
330
1C
102
}
330
1C
100
AcDbXrecord
280
     1
310
28000000B4000000870000000100080000000000EC5E0000000000000000000000010000000000000000000000000000FFFFFF000000000000000000000000000000000000000000000000000000000000000000330000006600000099000000CC000000FF00000000330000333300006633000099330000CC330000FF3300
310
0000660000336600006666000099660000CC660000FF66000000990000339900006699000099990000CC990000FF99000000CC000033CC000066CC000099CC0000CCCC0000FFCC000000FF000033FF000066FF000099FF0000CCFF0000FFFF000000003300330033006600330099003300CC003300FF003300003333003333
310
33006633330099333300CC333300FF33330000663300336633006666330099663300CC663300FF66330000993300339933006699330099993300CC993300FF99330000CC330033CC330066CC330099CC3300CCCC3300FFCC330000FF330033FF330066FF330099FF3300CCFF3300FFFF330000006600330066006600660099
310
006600CC006600FF00660000336600333366006633660099336600CC336600FF33660000666600336666006666660099666600CC666600FF66660000996600339966006699660099996600CC996600FF99660000CC660033CC660066CC660099CC6600CCCC6600FFCC660000FF660033FF660066FF660099FF6600CCFF6600
310
FFFF660000009900330099006600990099009900CC009900FF00990000339900333399006633990099339900CC339900FF33990000669900336699006666990099669900CC669900FF66990000999900339999006699990099999900CC999900FF99990000CC990033CC990066CC990099CC9900CCCC9900FFCC990000FF99
310
0033FF990066FF990099FF9900CCFF9900FFFF99000000CC003300CC006600CC009900CC00CC00CC00FF00CC000033CC003333CC006633CC009933CC00CC33CC00FF33CC000066CC003366CC006666CC009966CC00CC66CC00FF66CC000099CC003399CC006699CC009999CC00CC99CC00FF99CC0000CCCC0033CCCC0066CC
310
CC0099CCCC00CCCCCC00FFCCCC0000FFCC0033FFCC0066FFCC0099FFCC00CCFFCC00FFFFCC000000FF003300FF006600FF009900FF00CC00FF00FF00FF000033FF003333FF006633FF009933FF00CC33FF00FF33FF000066FF003366FF006666FF009966FF00CC66FF00FF66FF000099FF003399FF006699FF009999FF00CC
310
99FF00FF99FF0000CCFF0033CCFF0066CCFF0099CCFF00CCCCFF00FFCCFF0000FFFF0033FFFF0066FFFF0099FFFF00CCFFFF00FFFFFF00000000000D0D0D001A1A1A00282828003535350043434300505050005D5D5D006B6B6B00787878008686860093939300A1A1A100AEAEAE00BBBBBB00C9C9C900D6D6D600E4E4E400
310
F1F1F100FFFFFF0000000000000000000000000000000000000000000000000000000000000000000000000000000000E2E2E2E2E2E2E2E2E2E2E2E2E2E2E2E2E2E2E2E2E2E2E2E2E2E2E2E2E2E2E2E2E2E2E2E2E2E2E2E2E2E2E2E2E2E2E2E2E2E2E2E2E2E2E2E2E2E2E2E2E2E2E2E2E2E2E2E2E2E2E2E2E2E2E2E2E2E2E2
310
E2E2E2E2E2E2E2E2E2E2E2E2E2E2E2E2E2E2E2E2E2E2E2E2E2E2E2E2E2E2E2E2E2E2E2E2E2E2E2E2E2E2E2E2E2E2E2E2E2E2E2E2E2E2E2E2E2E2E2E2E2E2E2E2E2E2E2E2E2E2E2E2E2E2E2E2E2E2E2E2E2E2E2E2E2E2E2E2E2E2E2E2E2E2E2E2E2E2E2E2E2E2E2E2E2E2E2E2E2E2E2E2E2E2E2E2E2E2E2E2E2E2E2E2E2E2E2
310
E2E2E2E2E2E2E2E2E2E2E2E2E2E2E2E2E2E2E2E2E2E2E2E2E2E2E2E2E2E2E2E2E2E2E2E2E2E2E2E2E2E2E2E2E2E2E2E2E2E2E2E2E2E2E2E2E2E2E2E2E2E2E2E2E2E2E2E2E2E2E2E2E2E2E2E2E2E2E2E2E2E2E2E2E2E2E2E2E2E2E2E2E2E2E2E2E2E2E2E2E2E2E2E2E2E2E2E2E2E2E2E2E2E2E2E2E2E2E2E2E2E2E2E2E2E2E2
310
E2E2E2E2E2E2E2E2E2E2E2E2E2E2E2E2E2E2E2E2E2E2E2E2E2E2E2E2E2E2E2E2E2E2E2E2E2E2E2E2E2E2E2E2E2E2E2E2E2E2E2E2E2E2E2E2E2E2E2E2E2E2E2E2E2E2E2E2E2E2E2E2E2E2E2E2E2E2E2E2E2E2E2E2E2E2E2E2E2E2E2E2E2E2E2E2E2E2E2E2E2E2E2E2E2E2E2E2E2E2E2E2E2E2E2E2E2E2E2E2E2E2E2E2E2E2E2
310
E2E2E2E2E2E2E2E2E2E2E2E2E2E2E2E2E2E2E2E2E2E2E2E2E2E2E2E2E2E2E2E2E2E2E2E2E2E2E2E2E2E2E2E2E2E2E2E2E2E2E2E2E2E2E2E2E2E2E2E2E2E2E2E2E2E2E2E2E2E2E2E2E2E2E2E2E2E2E2E2E2E2E2E2E2E2E2E2E2E2E2E2E2E2E2E2E2E2E2E2E2E2E2E2E2E2E2E2E2E2E2E2E2E2E2E2E2E2E2E2E2E2E2E2E2E2E2
310
E2E2E2E2E2E2E2E2E2E2E2E2E2E2E2E2E2E2E2E2E2E2E2E2E2E2E2E2E2E2E2E2E2E2E2E2E2E2E2E2E2E2E2E2E2E2E2E2E2E2E2E2E2E2E2E2E2E2E2E2E2E2E2E2E2E2E2E2E2E2E2E2E2E2E2E2E2E2E2E2E2E2E2E2E2E2E2E2E2E2E2E2E2E2E2E2E2E2E2E2E2E2E2E2E2E2E2E2E2E2E2E2E2E2E2E2E2E2E2E2E2E2E2E2E2E2E2
310
E2E2E2E2E2E2E2E2E2E2E2E2E2E2E2E2E2E2E2E2E2E2E2E2E2E2E2E2E2E2E2E2E2E2E2E2E2E2E2E2E2E2E2E2E2E2E2E2E2E2E2E2E2E2E2E2E2E2E2E2E2E2E2E2E2E2E2E2E2E2E2E2E2E2E2E2E2E2E2E2E2E2E2E2E2E2E2E2E2E2E2E2E2E2E2E2E2E2E2E2E2E2E2E2E2E2E2E2E2E2E2E2E2E2E2E2E2E2E2E2E2E2E2E2E2E2E2
310
E2E2E2E2E2E2E2E2E2E2E2E2E2E2E2E2E2E2E2E2E2E2E2E2E2E2E2E2E2E2E2E2E2E2E2E2E2E2E2E2E2E2E2E2E2E2E2E2E2E2E2E2E2E2E2E2E2E2E2E2E2E2E2E2E2E2E2E2E2E2E2E2E2E2E2E2E2E2E2E2E2E2E2E2E2E2E2E2E2E2E2E2E2E2E2E2E2E2E2E2E2E2E2E2E2E2E2E2E2E2E2E2E2E2E2E2E2E2E2E2E2E2E2E2E2E2E2
310
E2E2E2E2E2E2E2E2E2E2E2E2E2E2E2E2E2E2E2E2E2E2E2E2E2E2E2E2E2E2E2E2E2E2E2E2E2E2E2E2E2E2E2E2E2E2E2E2E2E2E2E2E2E2E2E2E2E2E2E2E2E2E2E2E2E2E2E2E2E2E2E2E2E2E2E2E2E2E2E2E2E2E2E2E2E2E2E2E2E2E2E2E2E2E2E2E2E2E2E2E2E2E2E2E2E2E2E2E2E2E2E2E2E2E2E2E2E2E2E2E2E2E2E2E2E2E2
310
E2E2E2E2E2E2E2E2E2E2E2E2E2E2E2E2E2E2E2E2E2E2E2E2E2E2E2E2E2E2E2E2E2E2E2E2E2E2E2E2E2E2E2E2E2E2E2E2E2E2E2E2E2E2E2E2E2E2E2E2E2E2E2E2E2E2E2E2E2E2E2E2E2E2E2E2E2E2E2E2E2E2E2E2E2E2E2E2E2E2E2E2E2E2E2E2E2E2E2E2E2E2E2E2E2E2E2E2E2E2E2E2E2E2E2E2E2E2E2E2E2E2E2E2E2E2E2
310
E2E2E2E2E2E2E2E2E2E2E2E2E2E2E2E2E2E2E2E2E2E2E2E2E2E2E2E2E2E2E2E2E2E2E2E2E2E2E2E2E2E2E2E2E2E2E2E2E2E2E2E2E2E2E2E2E2E2E2E2E2E2E2E2E2E2E2E2E2E2E2E2E2E2E2E2E2E2E2E2E2E2E2E2E2E2E2E2E2E2E2E2E2E2E2E2E2E2E2E2E2E2E2E2E2E2E2E2E2E2E2E2E2E2E2E2E2E2E2E2E2E2E2E2E2E2E2
310
E2E2E2E2E2E2E2E2E2E2E2E2E2E2E2E2E2E2E2E2E2E2E2E2E2E2E2E2E2E2E2E2E2E2E2E2E2E2E2E2E2E2E2E2E2E2E2E2E2E2E2E2E2E2E2E2E2E2E2E2E2E2E2E2E2E2E2E2E2E2E2E2E2E2E2E2E2E2E2E2E2E2E2E2E2E2E2E2E2E2E2E2E2E2E2E2E2E2E2E2E2E2E2E2E2E2E2E2E2E2E2E2E2E2E2E2E2E2E2E2E2E2E2E2E2E2E2
310
E2E2E2E2E2E2E2E2E2E2E2E2E2E2E2E2E2E2E2E2E2E2E2E2E2E2E2E2E2E2E2E2E2E2E2E2E2E2E2E2E2E2E2E2E2E2E2E2E2E2E2E2E2E2E2E2E2E2E2E2E2E2E2E2E2E2E2E2E2E2E2E2E2E2E2E2E2E2E2E2E2E2E2E2E2E2E2E2E2E2E2E2E2E2E2E2E2E2E2E2E2E2E2E2E2E2E2E2E2E2E2E2E2E2E2E2E2E2E2E2E2E2E2E2E2E2E2
310
E2E2E2E2E2E2E2E2E2E2E2E2E2E2E2E2E2E2E2E2E2E2E2E2E2E2E2E2E2E2E2E2E2E2E2E2E2E2E2E2E2E2E2E2E2E2E2E2E2E2E2E2E2E2E2E2E2E2E2E2E2E2E2E2E2E2E2E2E2E2E2E2E2E2E2E2E2E2E2E2E2E2E2E2E2E2E2E2E2E2E2E2E2E2E2E2E2E2E2E2E2E2E2E2E2E2E2E2E2E2E2E2E2E2E2E2E2E2E2E2E2E2E2E2E2E2E2
310
E2E2E2E2E2E2E2E2E2E2E2E2E2E2E2E2E2E2E2E2E2E2E2E2E2E2E2E2E2E2E2E2E2E2E2E2E2E2E2E2E2E2E2E2E2E2E2E2E2E2E2E2E2E2E2E2E2E2E2E2E2E2E2E2E2E2E2E2E2E2E2E2E2E2E2E2E2E2E2E2E2E2E2E2E2E2E2E2E2E2E2E2E2E2E2E2E2E2E2E2E2E2E2E2E2E2E2E2E2E2E2E2E2E2E2E2E2E2E2E2E2E2E2E2E2E2E2
310
E2E2E2E2E2E2E2E2E2E2E2E2E2E2E2E2E2E2E2E2E2E2E2E2E2E2E2E2E2E2E2E2E2E2E2E2E2E2E2E2E2E2E2E2E2E2E2E2E2E2E2E2E2E2E2E2E2E2E2E2E2E2E2E2E2E2E2E2E2E2E2E2E2E2E2E2E2E2E2E2E2E2E2E2E2E2E2E2E2E2E2E2E2E2E2E2E2E2E2E2E2E2E2E2E2E2E2E2E2E2E2E2E2E2E2E2E2E2E2E2E2E2E2E2E2E2E2
310
E2E2E2E2E2E2E2E2E2E2E2E2E2E2E2E2E2E2E2E2E2E2E2E2E2E2E2E2E2E2E2E2E2E2E2E2E2E2E2E2E2E2E2E2E2E2E2E2E2E2E2E2E2E2E2E2E2E2E2E2E2E2E2E2E2E2E2E2E2E2E2E2E2E2E2E2E2E2E2E2E2E2E2E2E2E2E2E2E2E2E2E2E2E2E2E2E2E2E2E2E2E2E2E2E2E2E2E2E2E2E2E2E2E2E2E2E2E2E2E2E2E2E2E2E2E2E2
310
E2E2E2E2E2E2E2E2E2E2E2E2E2E2E2E2E2E2E2E2E2E2E2E2E2E2E2E2E2E2E2E2E2E2E2E2E2E2E2E2E2E2E2E2E2E2E2E2E2E2E2E2E2E2E2E2E2E2E2E2E2E2E2E2E2E2E2E2E2E2E2E2E2E2E2E2E2E2E2E2E2E2E2E2E2E2E2E2E2E2E2E2E2E2E2E2E2E2E2E2E2E2E2E2E2E2E2E2E2E2E2E2E2E2E2E2E2E2E2E2E2E2E2E2E2E2E2
310
E2E2E2E2E2E2E2E2E2E2E2E2E2E2E2E2E2E2E2E2E2E2E2E2E2E2E2E2E2E2E2E2E2E2E2E2E2E2E2E2E2E2E2E2E2E2E2E2E2E2E2E2E2E2E2E2E2E2E2E2E2E2E2E2E2E2E2E2E2E2E2E2E2E2E2E2E2E2E2E2E2E2E2E2E2E2E2E2E2E2E2E2E2E2E2E2E2E2E2E2E2E2E2E2E2E2E2E2E2E2E2E2E2E2E2E2E2E2E2E2E2E2E2E2E2E2E2
310
E2E2E2E2E2E2E2E2E2E2E2E2E2E2E2E2E2E2E2E2E2E2E2E2E2E2E2E2E2E2E2E2E2E2E2E2E2E2E2E2E2E2E2E2E2E2E2E2E2E2E2E2E2E2E2E2E2E2E2E2E2E2E2E2E2E2E2E2E2E2E2E2E2E2E2E2E2E2E2E2E2E2E2E2E2E2E2E2E2E2E2E2E2E2E2E2E2E2E2E2E2E2E2E2E2E2E2E2E2E2E2E2E2E2E2E2E2E2E2E2E2E2E2E2E2E2E2
310
E2E2E2E2E2E2E2E2E2E2E2E2E2E2E2E2E2E2E2E2E2E2E2E2E2E2E2E2E2E2E2E2E2E2E2E2E2E2E2E2E2E2E2E2E2E2E2E2E2E2E2E2E2E2E2E2E2E2E2E2E2E2E2E2E2E2E2E2E2E2E2E2E2E2E2E2E2E2E2E2E2E2E2E2E2E2E2E2E2E2E2E2E2E2E2E2E2E2E2E2E2E2E2E2E2E2E2E2E2E2E2E2E2E2E2E2E2E2E2E2E2E2E2E2E2E2E2
310
E2E2E2E2E2E2E2E2E2E2E2E2E2E2E2E2E2E2E2E2E2E2E2E2E2E2E2E2E2E2E2E2E2E2E2E2E2E2E2E2E2E2E2E2E2E2E2E2E2E2E2E2E2E2E2E2E2E2E2E2E2E2E2E2E2E2E2E2E2E2E2E2E2E2E2E2E2E2E2E2E2E2E2E2E2E2E2E2E2E2E2E2E2E2E2E2E2E2E2E2E2E2E2E2E2E2E2E2E2E2E2E2E2E2E2E2E2E2E2E2E2E2E2E2E2E2E2
310
E2E2E2E2E2E2E2E2E2E2E2E2E2E2E2E2E2E2E2E2E2E2E2E2E2E2E2E2E2E2E2E2E2E2E2E2E2E2E2E2E2E2E2E2E2E2E2E2E2E2E2E2E2E2E2E2E2E2E2E2E2E2E2E2E2E2E2E2E2E2E2E2E2E2E2E2E2E2E2E2E2E2E2E2E2E2E2E2E2E2E2E2E2E2E2E2E2E2E2E2E2E2E2E2E2E2E2E2E2E2E2E2E2E2E2E2E2E2E2E2E2E2E2E2E2E2E2
310
E2E2E2E2E2E2E2E2E2E2E2E2E2E2E2E2E2E2E2E2E2E2E2E2E2E2E2E2E2E2E2E2E2E2E2E2E2E2E2E2E2E2E2E2E2E2E2E2E2E2E2E2E2E2E2E2E2E2E2E2E2E2E2E2E2E2E2E2E2E2E2E2E2E2E2E2E2E2E2E2E2E2E2E2E2E2E2E2E2E2E2E2E2E2E2E2E2E2E2E2E2E2E2E2E2E2E2E2E2E2E2E2E2E2E2E2E2E2E2E2E2E2E2E2E2E2E2
310
E2E2E2E2E2E2E2E2E2E2E2E2E2E2E2E2E2E2E2E2E2E2E2E2E2E2E2E2E2E2E2E2E2E2E2E2E2E2E2E2E2E2E2E2E2E2E2E2E2E2E2E2E2E2E2E2E2E2E2E2E2E2E2E2E2E2E2E2E2E2E2E2E2E2E2E2E2E2E2E2E2E2E2E2E2E2E2E2E2E2E2E2E2E2E2E2E2E2E2E2E2E2E2E2E2E2E2E2E2E2E2E2E2E2E2E2E2E2E2E2E2E2E2E2E2E2E2
310
E2E2E2E2E2E2E2E2E2E2E2E2E2E2E2E2E2E2E2E2E2E2E2E2E2E2E2E2E2E2E2E2E2E2E2E2E2E2E2E2E2E2E2E2E2E2E2E2E2E2E2E2E2E2E2E2E2E2E2E2E2E2E2E2E2E2E2E2E2E2E2E2E2E2E2E2E2E2E2E2E2E2E2E2E2E2E2E2E2E2E2E2E2E2E2E2E2E2E2E2E2E2E2E2E2E2E2E2E2E2E2E2E2E2E2E2E2E2E2E2E2E2E2E2E2E2E2
310
E2E2E2E2E2E2E2E2E2E2E2E2E2E2E2E2E2E2E2E2E2E2E2E2E2E2E2E2E2E2E2E2E2E2E2E2E2E2E2E2E2E2E2E2E2E2E2E2E2E2E2E2E2E2E2E2E2E2E2E2E2E2E2E2E2E2E2E2E2E2E2E2E2E2E2E2E2E2E2E2E2E2E2E2E2E2E2E2E2E2E2E2E2E2E2E2E2E2E2E2E2E2E2E2E2E2E2E2E2E2E2E2E2E2E2E2E2E2E2E2E2E2E2E2E2E2E2
310
E2E2E2E2E2E2E2E2E2E2E2E2E2E2E2E2E2E2E2E2E2E2E2E2E2E2E2E2E2E2E2E2E2E2E2E2E2E2E2E2E2E2E2E2E2E2E2E2E2E2E2E2E2E2E2E2E2E2E2E2E2E2E2E2E2E2E2E2E2E2E2E2E2E2E2E2E2E2E2E2E2E2E2E2E2E2E2E2E2E2E2E2E2E2E2E2E2E2E2E2E2E2E2E2E2E2E2E2E2E2E2E2E2E2E2E2E2E2E2E2E2E2E2E2E2E2E2
310
E2E2E2E2E2E2E2E2E2E2E2E2E2E2E2E2E2E2E2E2E2E2E2E2E2E2E2E2E2E2E2E2E2E2E2E2E2E2E2E2E2E2E2E2E2E2E2E2E2E2E2E2E2E2E2E2E2E2E2E2E2E2E2E2E2E2E2E2E2E2E2E2E2E2E2E2E2E2E2E2E2E2E2E2E2E2E2E2E2E2E2E2E2E2E2E2E2E2E2E2E2E2E2E2E2E2E2E2E2E2E2E2E2E2E2E2E2E2E2E2E2E2E2E2E2E2E2
310
E2E2E2E2E2E2E2E2E2E2E2E2E2E2E2E2E2E2E2E2E2E2E2E2E2E2E2E2E2E2E2E2E2E2E2E2E2E2E2E2E2E2E2E2E2E2E2E2E2E2E2E2E2E2E2E2E2E2E2E2E2E2E2E2E2E2E2E2E2E2E2E2E2E2E2E2E2E2E2E2E2E2E2E2E2E2E2E2E2E2E2E2E2E2E2E2E2E2E2E2E2E2E2E2E2E2E2E2E2E2E2E2E2E2E2E2E2E2E2E2E2E2E2E2E2E2E2
310
E2E2E2E2E2E2E2E2E2E2E2E2E2E2E2E2E2E2E2E2E2E2E2E2E2E2E2E2E2E2E2E2E2E2E2E2E2E2E2E2E2E2E2E2E2E2E2E2E2E2E2E2E2E2E2E2E2E2E2E2E2E2E2E2E2E2E2E2E2E2E2E2E2E2E2E2E2E2E2E2E2E2E2E2E2E2E2E2E2E2E2E2E2E2E2E2E2E2E2E2E2E2E2E2E2E2E2E2E2E2E2E2E2E2E2E2E2E2E2E2E2E2E2E2E2E2E2
310
E2E2E2E2E2E2E2E2E2E2E2E2E2E2E2E2E2E2E2E2E2E2E2E2E2E2E2E2E2E2E2E2E2E2E2E2E2E2E2E2E2E2E2E2E2E2E2E2E2E2E2E2E2E2E2E2E2E2E2E2E2E2E2E2E2E2E2E2E2E2E2E2E2E2E2E2E2E2E2E2E2E2E2E2E2E2E2E2E2E2E2E2E2E2E2E2E2E2E2E2E2E2E2E2E2E2E2E2E2E2E2E2E2E2E2E2E2E2E2E2E2E2E2E2E2E2E2
310
E2E2E2E2E2E2E2E2E2E2E2E2E2E2E2E2E2E2E2E2E2E2E2E2E2E2E2E2E2E2E2E2E2E2E2E2E2E2E2E2E2E2E2E2E2E2E2E2E2E2E2E2E2E2E2E2E2E2E2E2E2E2E2E2E2E2E2E2E2E2E2E2E2E2E2E2E2E2E2E2E2E2E2E2E2E2E2E2E2E2E2E2E2E2E2E2E2E2E2E2E2E2E2E2E2E2E2E2E2E2E2E2E2E2E2E2E2E2E2E2E2E2E2E2E2E2E2
310
E2E2E2E2E2E2E2E2E2E2E2E2E2E2E2E2E2E2E2E2E2E2E2E2E2E2E2E2E2E2E2E2E2E2E2E2E2E2E2E2E2E2E2E2E2E2E2E2E2E2E2E2E2E2E2E2E2E2E2E2E2E2E2E2E2E2E2E2E2E2E2E2E2E2E2E2E2E2E2E2E2E2E2E2E2E2E2E2E2E2E2E2E2E2E2E2E2E2E2E2E2E2E2E2E2E2E2E2E2E2E2E2E2E2E2E2E2E2E2E2E2E2E2E2E2E2E2
310
E2E2E2E2E2E2E2E2E2E2E2E2E2E2E2E2E2E2E2E2E2E2E2E2E2E2E2E2E2E2E2E2E2E2E2E2E2E2E2E2E2E2E2E2E2E2E2E2E2E2E2E2E2E2E2E2E2E2E2E2E2E2E2E2E2E2E2E2E2E2E2E2E2E2E2E2E2E2E2E2E2E2E2E2E2E2E2E2E2E2E2E2E2E2E2E2E2E2E2E2E2E2E2E2E2E2E2E2E2E2E2E2E2E2E2E2E2E2E2E2E2E2E2E2E2E2E2
310
E2E2E2E2E2E2E2E2E2E2E2E2E2E2E2E2E2E2E2E2E2E2E2E2E2E2E2E2E2E2E2E2E2E2E2E2E2E2E2E2E2E2E2E2E2E2E2E2E2E2E2E2E2E2E2E2E2E2E2E2E2E2E2E2E2E2E2E2E2E2E2E2E2E2E2E2E2E2E2E2E2E2E2E2E2E2E2E2E2E2E2E2E2E2E2E2E2E2E2E2E2E2E2E2E2E2E2E2E2E2E2E2E2E2E2E2E2E2E2E2E2E2E2E2E2E2E2
310
E2E2E2E2E2E2E2E2E2E2E2E2E2E2E2E2E2E2E2E2E2E2E2E2E2E2E2E2E2E2E2E2E2E2E2E2E2E2E2E2E2E2E2E2E2E2E2E2E2E2E2E2E2E2E2E2E2E2E2E2E2E2E2E2E2E2E2E2E2E2E2E2E2E2E2E2E2E2E2E2E2E2E2E2E2E2E2E2E2E2E2E2E2E2E2E2E2E2E2E2E2E2E2E2E2E2E2E2E2E2E2E2E2E2E2E2E2E2E2E2E2E2E2E2E2E2E2
310
E2E2E2E2E2E2E2E2E2E2E2E2E2E2E2E2E2E2E2E2E2E2E2E2E2E2E2E2E2E2E2E2E2E2E2E2E2E2E2E2E2E2E2E2E2E2E2E2E2E2E2E2E2E2E2E2E2E2E2E2E2E2E2E2E2E2E2E2E2E2E2E2E2E2E2E2E2E2E2E2E2E2E2E2E2E2E2E2E2E2E2E2E2E2E2E2E2E2E2E2E2E2E2E2E2E2E2E2E2E2E2E2E2E2E2E2E2E2E2E2E2E2E2E2E2E2E2
310
E2E2E2E2E2E2E2E2E2E2E2E2E2E2E2E2E2E2E2E2E2E2E2E2E2E2E2E2E2E2E2E2E2E2E2E2E2E2E2E2E2E2E2E2E2E2E2E2E2E2E2E2E2E2E2E2E2E2E2E2E2E2E2E2E2E2E2E2E2E2E2E2E2E2E2E2E2E2E2E2E2E2E2E2E2E2E2E2E2E2E2E2E2E2E2E2E2E2E2E2E2E2E2E2E2E2E2E2E2E2E2E2E2E2E2E2E2E2E2E2E2E2E2E2E2E2E2
310
E2E2E2E2E2E2E2E2E2E2E2E2E2E2E2E2E2E2E2E2E2E2E2E2E2E2E2E2E2E2E2E2E2E2E2E2E2E2E2E2E2E2E2E2E2E2E2E2E2E2E2E2E2E2E2E2E2E2E2E2E2E2E2E2E2E2E2E2E2E2E2E2E2E2E2E2E2E2E2E2E2E2E2E2E2E2E2E2E2E2E2E2E2E2E2E2E2E2E2E2E2E2E2E2E2E2E2E2E2E2E2E2E2E2E2E2E2E2E2E2E2E2E2E2E2E2E2
310
E2E2E2E2E2E2E2E2E2E2E2E2E2E2E2E2E2E2E2E2E2E2E2E2E2E2E2E2E2E2E2E2E2E2E2E2E2E2E2E2E2E2E2E2E2E2E2E2E2E2E2E2E2E2E2E2E2E2E2E2E2E2E2E2E2E2E2E2E2E2E2E2E2E2E2E2E2E2E2E2E2E2E2E2E2E2E2E2E2E2E2E2E2E2E2E2E2E2E2E2E2E2E2E2E2E2E2E2E2E2E2E2E2E2E2E2E2E2E2E2E2E2E2E2E2E2E2
310
E2E2E2E2E2E2E2E2E2E2E2E2E2E2E2E2E2E2E2E2E2E2E2E2E2E2E2E2E2E2E2E2E2E2E2E2E2E2E2E2E2E2E2E2E2E2E2E2E2E2E2E2E2E2E2E2E2E2E2E2E2E2E2E2E2E2E2E2E2E2E2E2E2E2E2E2E2E2E2E2E2E2E2E2E2E2E2E2E2E2E2E2E2E2E2E2E2E2E2E2E2E2E2E2E2E2E2E2E2E2E2E2E2E2E2E2E2E2E2E2E2E2E2E2E2E2E2
310
E2E2E2E2E2E2E2E2E2E2E2E2E2E2E2E2E2E2E2E2E2E2E2E2E2E2E2E2E2E2E2E2E2E2E2E2E2E2E2E2E2E2E2E2E2E2E2E2E2E2E2E2E2E2E2E2E2E2E2E2E2E2E2E2E2E2E2E2E2E2E2E2E2E2E2E2E2E2E2E2E2E2E2E2E2E2E2E2E2E2E2E2E2E2E2E2E2E2E2E2E2E2E2E2E2E2E2E2E2E2E2E2E2E2E2E2E2E2E2E2E2E2E2E2E2E2E2
310
E2E2E2E2E2E2E2E2E2E2E2E2E2E2E2E2E2E2E2E2E2E2E2E2E2E2E2E2E2E2E2E2E2E2E2E2E2E2E2E2E2E2E2E2E2E2E2E2E2E2E2E2E2E2E2E2E2E2E2E2E2E2E2E2E2E2E2E2E2E2E2E2E2E2E2E2E2E2E2E2E2E2E2E2E2E2E2E2E2E2E2E2E2E2E2E2E2E2E2E2E2E2E2E2E2E2E2E2E2E2E2E2E2E2E2E2E2E2E2E2E2E2E2E2E2E2E2
310
E2E2E2E2E2E2E2E2E2E2E2E2E2E2E2E2E2E2E2E2E2E2E2E2E2E2E2E2E2E2E2E2E2E2E2E2E2E2E2E2E2E2E2E2E2E2E2E2E2E2E2E2E2E2E2E2E2E2E2E2E2E2E2E2E2E2E2E2E2E2E2E2E2E2E2E2E2E2E2E2E2E2E2E2E2E2E2E2E2E2E2E2E2E2E2E2E2E2E2E2E2E2E2E2E2E2E2E2E2E2E2E2E2E2E2E2E2E2E2E2E2E2E2E2E2E2E2
310
E2E2E2E2E2E2E2E2E2E2E2E2E2E2E2E2E2E2E2E2E2E2E2E2E2E2E2E2E2E2E2E2E2E2E2E2E2E2E2E2E2E2E2E2E2E2E2E2E2E2E2E2E2E2E2E2E2E2E2E2E2E2E2E2E2E2E2E2E2E2E2E2E2E2E2E2E2E2E2E2E2E2E2E2E2E2E2E2E2E2E2E2E2E2E2E2E2E2E2E2E2E2E2E2E2E2E2E2E2E2E2E2E2E2E2E2E2E2E2E2E2E2E2E2E2E2E2
310
E2E2E2E2E2E2E2E2E2E2E2E2E2E2E2E2E2E2E2E2E2E2E2E2E2E2E2E2E2E2E2E2E2E2E2E2E2E2E2E2E2E2E2E2E2E2E2E2E2E2E2E2E2E2E2E2E2E2E2E2E2E2E2E2E2E2E2E2E2E2E2E2E2E2E2E2E2E2E2E2E2E2E2E2E2E2E2E2E2E2E2E2E2E2E2E2E2E2E2E2E2E2E2E2E2E2E2E2E2E2E2E2E2E2E2E2E2E2E2E2E2E2E2E2E2E2E2
310
E2E2E2E2E2E2E2E2E2E2E2E2E2E2E2E2E2E2E2E2E2E2E2E2E2E2E2E2E2E2E2E2E2E2E2E2E2E2E2E2E2E2E2E2E2E2E2E2E2E2E2E2E2E2E2E2E2E2E2E2E2E2E2E2E2E2E2E2E2E2E2E2E2E2E2E2E2E2E2E2E2E2E2E2E2E2E2E2E2E2E2E2E2E2E2E2E2E2E2E2E2E2E2E2E2E2E2E2E2E2E2E2E2E2E2E2E2E2E2E2E2E2E2E2E2E2E2
310
E2E2E2E2E2E2E2E2E2E2E2E2E2E2E2E2E2E2E2E2E2E2E2E2E2E2E2E2E2E2E2E2E2E2E2E2E2E2E2E2E2E2E2E2E2E2E2E2E2E2E2E2E2E2E2E2E2E2E2E2E2E2E2E2E2E2E2E2E2E2E2E2E2E2E2E2E2E2E2E2E2E2E2E2E2E2E2E2E2E2E2E2E2E2E2E2E2E2E2E2E2E2E2E2E2E2E2E2E2E2E2E2E2E2E2E2E2E2E2E2E2E2E2E2E2E2E2
310
E2E2E2E2E2E2E2E2E2E2E2E2E2E2E2E2E2E2E2E2E2E2E2E2E2E2E2E2E2E2E2E2E2E2E2E2E2E2E2E2E2E2E2E2E2E2E2E2E2E2E2E2E2E2E2E2E2E2E2E2E2E2E2E2E2E2E2E2E2E2E2E2E2E2E2E2E2E2E2E2E2E2E2E2E2E2E2E2E2E2E2E2E2E2E2E2E2E2E2E2E2E2E2E2E2E2E2E2E2E2E2E2E2E2E2E2E2E2E2E2E2E2E2E2E2E2E2
310
E2E2E2E2E2E2E2E2E2E2E2E2E2E2E2E2E2E2E2E2E2E2E2E2E2E2E2E2E2E2E2E2E2E2E2E2E2E2E2E2E2E2E2E2E2E2E2E2E2E2E2E2E2E2E2E2E2E2E2E2E2E2E2E2E2E2E2E2E2E2E2E2E2E2E2E2E2E2E2E2E2E2E2E2E2E2E2E2E2E2E2E2E2E2E2E2E2E2E2E2E2E2E2E2E2E2E2E2E2E2E2E2E2E2E2E2E2E2E2E2E2E2E2E2E2E2E2
310
E2E2E2E2E2E2E2E2E2E2E2E2E2E2E2E2E2E2E2E2E2E2E2E2E2E2E2E2E2E2E2E2E2E2E2E2E2E2E2E2E2E2E2E2E2E2E2E2E2E2E2E2E2E2E2E2E2E2E2E2E2E2E2E2E2E2E2E2E2E2E2E2E2E2E2E2E2E2E2E2E2E2E2E2E2E2E2E2E2E2E2E2E2E2E2E2E2E2E2E2E2E2E2E2E2E2E2E2E2E2E2E2E2E2E2E2E2E2E2E2E2E2E2E2E2E2E2
310
E2E2E2E2E2E2E2E2E2E2E2E2E2E2E2E2E2E2E2E2E2E2E2E2E2E2E2E2E2E2E2E2E2E2E2E2E2E2E2E2E2E2E2E2E2E2E2E2E2E2E2E2E2E2E2E2E2E2E2E2E2E2E2E2E2E2E2E2E2E2E2E2E2E2E2E2E2E2E2E2E2E2E2E2E2E2E2E2E2E2E2E2E2E2E2E2E2E2E2E2E2E2E2E2E2E2E2E2E2E2E2E2E2E2E2E2E2E2E2E2E2E2E2E2E2E2E2
310
E2E2E2E2E2E2E2E2E2E2E2E2E2E2E2E2E2E2E2E2E2E2E2E2E2E2E2E2E2E2E2E2E2E2E2E2E2E2E2E2E2E2E2E2E2E2E2E2E2E2E2E2E2E2E2E2E2E2E2E2E2E2E2E2E2E2E2E2E2E2E2E2E2E2E2E2E2E2E2E2E2E2E2E2E2E2E2E2E2E2E2E2E2E2E2E2E2E2E2E2E2E2E2E2E2E2E2E2E2E2E2E2E2E2E2E2E2E2E2E2E2E2E2E2E2E2E2
310
E2E2E2E2E2E2E2E2E2E2E2E2E2E2E2E2E2E2E2E2E2E2E2E2E2E2E2E2E2E2E2E2E2E2E2E2E2E2E2E2E2E2E2E2E2E2E2E2E2E2E2E2E2E2E2E2E2E2E2E2E2E2E2E2E2E2E2E2E2E2E2E2E2E2E2E2E2E2E2E2E2E2E2E2E2E2E2E2E2E2E2E2E2E2E2E2E2E2E2E2E2E2E2E2E2E2E2E2E2E2E2E2E2E2E2E2E2E2E2E2E2E2E2E2E2E2E2
310
E2E2E2E2E2E2E2E2E2E2E2E2E2E2E2E2E2E2E2E2E2E2E2E2E2E2E2E2E2E2E2E2E2E2E2E2E2E2E2E2E2E2E2E2E2E2E2E2E2E2E2E2E2E2E2E2E2E2E2E2E2E2E2E2E2E2E2E2E2E2E2E2E2E2E2E2E2E2E2E2E2E2E2E2E2E2E2E2E2E2E2E2E2E2E2E2E2E2E2E2E2E2E2E2E2E2E2E2E2E2E2E2E2E2E2E2E2E2E2E2E2E2E2E2E2E2E2
310
E2E2E2E2E2E2E2E2E2E2E2E2E2E2E2E2E2E2E2E2E2E2E2E2E2E2E2E2E2E2E2E2E2E2E2E2E2E2E2E2E2E2E2E2E2E2E2E2E2E2E2E2E2E2E2E2E2E2E2E2E2E2E2E2E2E2E2E2E2E2E2E2E2E2E2E2E2E2E2E2E2E2E2E2E2E2E2E2E2E2E2E2E2E2E2E2E2E2E2E2E2E2E2E2E2E2E2E2E2E2E2E2E2E2E2E2E2E2E2E2E2E2E2E2E2E2E2
310
E2E2E2E2E2E2E2E2E2E2E2E2E2E2E2E2E2E2E2E2E2E2E2E2E2E2E2E2E2E2E2E2E2E2E2E2E2E2E2E2E2E2E2E2E2E2E2E2E2E2E2E2E2E2E2E2E2E2E2E2E2E2E2E2E2E2E2E2E2E2E2E2E2E2E2E2E2E2E2E2E2E2E2E2E2E2E2E2E2E2E2E2E2E2E2E2E2E2E2E2E2E2E2E2E2E2E2E2E2E2E2E2E2E2E2E2E2E2E2E2E2E2E2E2E2E2E2
310
E2E2E2E2E2E2E2E2E2E2E2E2E2E2E2E2E2E2E2E2E2E2E2E2E2E2E2E2E2E2E2E2E2E2E2E2E2E2E2E2E2E2E2E2E2E2E2E2E2E2E2E2E2E2E2E2E2E2E2E2E2E2E2E2E2E2E2E2E2E2E2E2E2E2E2E2E2E2E2E2E2E2E2E2E2E2E2E2E2E2E2E2E2E2E2E2E2E2E2E2E2E2E2E2E2E2E2E2E2E2E2E2E2E2E2E2E2E2E2E2E2E2E2E2E2E2E2
310
E2E2E2E2E2E2E2E2E2E2E2E2E2E2E2E2E2E2E2E2E2E2E2E2E2E2E2E2E2E2E2E2E2E2E2E2E2E2E2E2E2E2E2E2E2E2E2E2E2E2E2E2E2E2E2E2E2E2E2E2E2E2E2E2E2E2E2E2E2E2E2E2E2E2E2E2E2E2E2E2E2E2E2E2E2E2E2E2E2E2E2E2E2E2E2E2E2E2E2E2E2E2E2E2E2E2E2E2E2E2E2E2E2E2E2E2E2E2E2E2E2E2E2E2E2E2E2
310
E2E2E2E2E2E2E2E2E2E2E2E2E2E2E2E2E2E2E2E2E2E2E2E2E2E2E2E2E2E2E2E2E2E2E2E2E2E2E2E2E2E2E2E2E2E2E2E2E2E2E2E2E2E2E2E2E2E2E2E2E2E2E2E2E2E2E2E2E2E2E2E2E2E2E2E2E2E2E2E2E2E2E2E2E2E2E2E2E2E2E2E2E2E2E2E2E2E2E2E2E2E2E2E2E2E2E2E2E2E2E2E2E2E2E2E2E2E2E2E2E2E2E2E2E2E2E2
310
E2E2E2E2E2E2E2E2E2E2E2E2E2E2E2E2E2E2E2E2E2E2E2E2E2E2E2E2E2E2E2E2E2E2E2E2E2E2E2E2E2E2E2E2E2E2E2E2E2E2E2E2E2E2E2E2E2E2E2E2E2E2E2E2E2E2E2E2E2E2E2E2E2E2E2E2E2E2E2E2E2E2E2E2E2E2E2E2E2E2E2E2E2E2E2E2E2E2E2E2E2E2E2E2E2E2E2E2E2E2E2E2E2E2E2E2E2E2E2E2E2E2E2E2E2E2E2
310
E2E2E2E2E2E2E2E2E2E2E2E2E2E2E2E2E2E2E2E2E2E2E2E2E2E2E2E2E2E2E2E2E2E2E2E2E2E2E2E2E2E2E2E2E2E2E2E2E2E2E2E2E2E2E2E2E2E2E2E2E2E2E2E2E2E2E2E2E2E2E2E2E2E2E2E2E2E2E2E2E2E2E2E2E2E2E2E2E2E2E2E2E2E2E2E2E2E2E2E2E2E2E2E2E2E2E2E2E2E2E2E2E2E2E2E2E2E2E2E2E2E2E2E2E2E2E2
310
E2E2E2E2E2E2E2E2E2E2E2E2E2E2E2E2E2E2E2E2E2E2E2E2E2E2E2E2E2E2E2E2E2E2E2E2E2E2E2E2E2E2E2E2E2E2E2E2E2E2E2E2E2E2E2E2E2E2E2E2E2E2E2E2E2E2E2E2E2E2E2E2E2E2E2E2E2E2E2E2E2E2E2E2E2E2E2E2E2E2E2E2E2E2E2E2E2E2E2E2E2E2E2E2E2E2E2E2E2E2E2E2E2E2E2E2E2E2E2E2E2E2E2E2E2E2E2
310
E2E2E2E2E2E2E2E2E2E2E2E2E2E2E2E2E2E2E2E2E2E2E2E2E2E2E2E2E2E2E2E2E2E2E2E2E2E2E2E2E2E2E2E2E2E2E2E2E2E2E2E2E2E2E2E2E2E2E2E2E2E2E2E2E2E2E2E2E2E2E2E2E2E2E2E2E2E2E2E2E2E2E2E2E2E2E2E2E2E2E2E2E2E2E2E2E2E2E2E2E2E2E2E2E2E2E2E2E2E2E2E2E2E2E2E2E2E2E2E2E2E2E2E2E2E2E2
310
E2E2E2E2E2E2E2E2E2E2E2E2E2E2E2E2E2E2E2E2E2E2E2E2E2E2E2E2E2E2E2E2E2E2E2E2E2E2E2E2E2E2E2E2E2E2E2E2E2E2E2E2E2E2E2E2E2E2E2E2E2E2E2E2E2E2E2E2E2E2E2E2E2E2E2E2E2E2E2E2E2E2E2E2E2E2E2E2E2E2E2E2E2E2E2E2E2E2E2E2E2E2E2E2E2E2E2E2E2E2E2E2E2E2E2E2E2E2E2E2E2E2E2E2E2E2E2
310
E2E2E2E2E2E2E2E2E2E2E2E2E2E2E2E2E2E2E2E2E2E2E2E2E2E2E2E2E2E2E2E2E2E2E2E2E2E2E2E2E2E2E2E2E2E2E2E2E2E2E2E2E2E2E2E2E2E2E2E2E2E2E2E2E2E2E2E2E2E2E2E2E2E2E2E2E2E2E2E2E2E2E2E2E2E2E2E2E2E2E2E2E2E2E2E2E2E2E2E2E2E2E2E2E2E2E2E2E2E2E2E2E2E2E2E2E2E2E2E2E2E2E2E2E2E2E2
310
E2E2E2E2E2E2E2E2E2E2E2E2E2E2E2E2E2E2E2E2E2E2E2E2E2E2E2E2E2E2E2E2E2E2E2E2E2E2E2E2E2E2E2E2E2E2E2E2E2E2E2E2E2E2E2E2E2E2E2E2E2E2E2E2E2E2E2E2E2E2E2E2E2E2E2E2E2E2E2E2E2E2E2E2E2E2E2E2E2E2E2E2E2E2E2E2E2E2E2E2E2E2E2E2E2E2E2E2E2E2E2E2E2E2E2E2E2E2E2E2E2E2E2E2E2E2E2
310
E2E2E2E2E2E2E2E2E2E2E2E2E2E2E2E2E2E2E2E2E2E2E2E2E2E2E2E2E2E2E2E2E2E2E2E2E2E2E2E2E2E2E2E2E2E2E2E2E2E2E2E2E2E2E2E2E2E2E2E2E2E2E2E2E2E2E2E2E2E2E2E2E2E2E2E2E2E2E2E2E2E2E2E2E2E2E2E2E2E2E2E2E2E2E2E2E2E2E2E2E2E2E2E2E2E2E2E2E2E2E2E2E2E2E2E2E2E2E2E2E2E2E2E2E2E2E2
310
E2E2E2E2E2E2E2E2E2E2E2E2E2E2E2E2E2E2E2E2E2E2E2E2E2E2E2E2E2E2E2E2E2E2E2E2E2E2E2E2E2E2E2E2E2E2E2E2E2E2E2E2E2E2E2E2E2E2E2E2E2E2E2E2E2E2E2E2E2E2E2E2E2E2E2E2E2E2E2E2E2E2E2E2E2E2E2E2E2E2E2E2E2E2E2E2E2E2E2E2E2E2E2E2E2E2E2E2E2E2E2E2E2E2E2E2E2E2E2E2E2E2E2E2E2E2E2
310
E2E2E2E2E2E2E2E2E2E2E2E2E2E2E2E2E2E2E2E2E2E2E2E2E2E2E2E2E2E2E2E2E2E2E2E2E2E2E2E2E2E2E2E2E2E2E2E2E2E2E2E2E2E2E2E2E2E2E2E2E2E2E2E2E2E2E2E2E2E2E2E2E2E2E2E2E2E2E2E2E2E2E2E2E2E2E2E2E2E2E2E2E2E2E2E2E2E2E2E2E2E2E2E2E2E2E2E2E2E2E2E2E2E2E2E2E2E2E2E2E2E2E2E2E2E2E2
310
E2E2E2E2E2E2E2E2E2E2E2E2E2E2E2E2E2E2E2E2E2E2E2E2E2E2E2E2E2E2E2E2E2E2E2E2E2E2E2E2E2E2E2E2E2E2E2E2E2E2E2E2E2E2E2E2E2E2E2E2E2E2E2E2E2E2E2E2E2E2E2E2E2E2E2E2E2E2E2E2E2E2E2E2E2E2E2E2E2E2E2E2E2E2E2E2E2E2E2E2E2E2E2E2E2E2E2E2E2E2E2E2E2E2E2E2E2E2E2E2E2E2E2E2E2E2E2
310
E2E2E2E2E2E2E2E2E2E2E2E2E2E2E2E2E2E2E2E2E2E2E2E2E2E2E2E2E2E2E2E2E2E2E2E2E2E2E2E2E2E2E2E2E2E2E2E2E2E2E2E2E2E2E2E2E2E2E2E2E2E2E2E2E2E2E2E2E2E2E2E2E2E2E2E2E2E2E2E2E2E2E2E2E2E2E2E2E2E2E2E2E2E2E2E2E2E2E2E2E2E2E2E2E2E2E2E2E2E2E2E2E2E2E2E2E2E2E2E2E2E2E2E2E2E2E2
310
E2E2E2E2E2E2E2E2E2E2E2E2E2E2E2E2E2E2E2E2E2E2E2E2E2E2E2E2E2E2E2E2E2E2E2E2E2E2E2E2E2E2E2E2E2E2E2E2E2E2E2E2E2E2E2E2E2E2E2E2E2E2E2E2E2E2E2E2E2E2E2E2E2E2E2E2E2E2E2E2E2E2E2E2E2E2E2E2E2E2E2E2E2E2E2E2E2E2E2E2E2E2E2E2E2E2E2E2E2E2E2E2E2E2E2E2E2E2E2E2E2E2E2E2E2E2E2
310
E2E2E2E2E2E2E2E2E2E2E2E2E2E2E2E2E2E2E2E2E2E2E2E2E2E2E2E2E2E2E2E2E2E2E2E2E2E2E2E2E2E2E2E2E2E2E2E2E2E2E2E2E2E2E2E2E2E2E2E2E2E2E2E2E2E2E2E2E2E2E2E2E2E2E2E2E2E2E2E2E2E2E2E2E2E2E2E2E2E2E2E2E2E2E2E2E2E2E2E2E2E2E2E2E2E2E2E2E2E2E2E2E2E2E2E2E2E2E2E2E2E2E2E2E2E2E2
310
E2E2E2E2E2E2E2E2E2E2E2E2E2E2E2E2E2E2E2E2E2E2E2E2E2E2E2E2E2E2E2E2E2E2E2E2E2E2E2E2E2E2E2E2E2E2E2E2E2E2E2E2E2E2E2E2E2E2E2E2E2E2E2E2E2E2E2E2E2E2E2E2E2E2E2E2E2E2E2E2E2E2E2E2E2E2E2E2E2E2E2E2E2E2E2E2E2E2E2E2E2E2E2E2E2E2E2E2E2E2E2E2E2E2E2E2E2E2E2E2E2E2E2E2E2E2E2
310
E2E2E2E2E2E2E2E2E2E2E2E2E2E2E2E2E2E2E2E2E2E2E2E2E2E2E2E2E2E2E2E2E2E2E2E2E2E2E2E2E2E2E2E2E2E2E2E2E2E2E2E2E2E2E2E2E2E2E2E2E2E2E2E2E2E2E2E2E2E2E2E2E2E2E2E2E2E2E2E2E2E2E2E2E2E2E2E2E2E2E2E2E2E2E2E2E2E2E2E2E2E2E2E2E2E2E2E2E2E2E2E2E2E2E2E2E2E2E2E2E2E2E2E2E2E2E2
310
E2E2E2E2E2E2E2E2E2E2E2E2E2E2E2E2E2E2E2E2E2E2E2E2E2E2E2E2E2E2E2E2E2E2E2E2E2E2E2E2E2E2E2E2E2E2E2E2E2E2E2E2E2E2E2E2E2E2E2E2E2E2E2E2E2E2E2E2E2E2E2E2E2E2E2E2E2E2E2E2E2E2E2E2E2E2E2E2E2E2E2E2E2E2E2E2E2E2E2E2E2E2E2E2E2E2E2E2E2E2E2E2E2E2E2E2E2E2E2E2E2E2E2E2E2E2E2
310
E2E2E2E2E2E2E2E2E2E2E2E2E2E2E2E2E2E2E2E2E2E2E2E2E2E2E2E2E2E2E2E2E2E2E2E2E2E2E2E2E2E2E2E2E2E2E2E2E2E2E2E2E2E2E2E2E2E2E2E2E2E2E2E2E2E2E2E2E2E2E2E2E2E2E2E2E2E2E2E2E2E2E2E2E2E2E2E2E2E2E2E2E2E2E2E2E2E2E2E2E2E2E2E2E2E2E2E2E2E2E2E2E2E2E2E2E2E2E2E2E2E2E2E2E2E2E2
310
E2E2E2E2E2E2E2E2E2E2E2E2E2E2E2E2E2E2E2E2E2E2E2E2E2E2E2E2E2E2E2E2E2E2E2E2E2E2E2E2E2E2E2E2E2E2E2E2E2E2E2E2E2E2E2E2E2E2E2E2E2E2E2E2E2E2E2E2E2E2E2E2E2E2E2E2E2E2E2E2E2E2E2E2E2E2E2E2E2E2E2E2E2E2E2E2E2E2E2E2E2E2E2E2E2E2E2E2E2E2E2E2E2E2E2E2E2E2E2E2E2E2E2E2E2E2E2
310
E2E2E2E2E2E2E2E2E2E2E2E2E2E2E2E2E2E2E2E2E2E2E2E2E2E2E2E2E2E2E2E2E2E2E2E2E2E2E2E2E2E2E2E2E2E2E2E2E2E2E2E2E2E2E2E2E2E2E2E2E2E2E2E2E2E2E2E2E2E2E2E2E2E2E2E2E2E2E2E2E2E2E2E2E2E2E2E2E2E2E2E2E2E2E2E2E2E2E2E2E2E2E2E2E2E2E2E2E2E2E2E2E2E2E2E2E2E2E2E2E2E2E2E2E2E2E2
310
E2E2E2E2E2E2E2E2E2E2E2E2E2E2E2E2E2E2E2E2E2E2E2E2E2E2E2E2E2E2E2E2E2E2E2E2E2E2E2E2E2E2E2E2E2E2E2E2E2E2E2E2E2E2E2E2E2E2E2E2E2E2E2E2E2E2E2E2E2E2E2E2E2E2E2E2E2E2E2E2E2E2E2E2E2E2E2E2E2E2E2E2E2E2E2E2E2E2E2E2E2E2E2E2E2E2E2E2E2E2E2E2E2E2E2E2E2E2E2E2E2E2E2E2E2E2E2
310
E2E2E2E2E2E2E2E2E2E2E2E2E2E2E2E2E2E2E2E2E2E2E2E2E2E2E2E2E2E2E2E2E2E2E2E2E2E2E2E2E2E2E2E2E2E2E2E2E2E2E2E2E2E2E2E2E2E2E2E2E2E2E2E2E2E2E2E2E2E2E2E2E2E2E2E2E2E2E2E2E2E2E2E2E2E2E2E2E2E2E2E2E2E2E2E2E2E2E2E2E2E2E2E2E2E2E2E2E2E2E2E2E2E2E2E2E2E2E2E2E2E2E2E2E2E2E2
310
E2E2E2E2E2E2E2E2E2E2E2E2E2E2E2E2E2E2E2E2E2E2E2E2E2E2E2E2E2E2E2E2E2E2E2E2E2E2E2E2E2E2E2E2E2E2E2E2E2E2E2E2E2E2E2E2E2E2E2E2E2E2E2E2E2E2E2E2E2E2E2E2E2E2E2E2E2E2E2E2E2E2E2E2E2E2E2E2E2E2E2E2E2E2E2E2E2E2E2E2E2E2E2E2E2E2E2E2E2E2E2E2E2E2E2E2E2E2E2E2E2E2E2E2E2E2E2
310
E2E2E2E2E2E2E2E2E2E2E2E2E2E2E2E2E2E2E2E2E2E2E2E2E2E2E2E2E2E2E2E2E2E2E2E2E2E2E2E2E2E2E2E2E2E2E2E2E2E2E2E2E2E2E2E2E2E2E2E2E2E2E2E2E2E2E2E2E2E2E2E2E2E2E2E2E2E2E2E2E2E2E2E2E2E2E2E2E2E2E2E2E2E2E2E2E2E2E2E2E2E2E2E2E2E2E2E2E2E2E2E2E2E2E2E2E2E2E2E2E2E2E2E2E2E2E2
310
E2E2E2E2E2E2E2E2E2E2E2E2E2E2E2E2E2E2E2E2E2E2E2E2E2E2E2E2E2E2E2E2E2E2E2E2E2E2E2E2E2E2E2E2E2E2E2E2E2E2E2E2E2E2E2E2E2E2E2E2E2E2E2E2E2E2E2E2E2E2E2E2E2E2E2E2E2E2E2E2E2E2E2E2E2E2E2E2E2E2E2E2E2E2E2E2E2E2E2E2E2E2E2E2E2E2E2E2E2E2E2E2E2E2E2E2E2E2E2E2E2E2E2E2E2E2E2
310
E2E2E2E2E2E2E2E2E2E2E2E2E2E2E2E2E2E2E2E2E2E2E2E2E2E2E2E2E2E2E2E2E2E2E2E2E2E2E2E2E2E2E2E2E2E2E2E2E2E2E2E2E2E2E2E2E2E2E2E2E2E2E2E2E2E2E2E2E2E2E2E2E2E2E2E2E2E2E2E2E2E2E2E2E2E2E2E2E2E2E2E2E2E2E2E2E2E2E2E2E2E2E2E2E2E2E2E2E2E2E2E2E2E2E2E2E2E2E2E2E2E2E2E2E2E2E2
310
E2E2E2E2E2E2E2E2E2E2E2E2E2E2E2E2E2E2E2E2E2E2E2E2E2E2E2E2E2E2E2E2E2E2E2E2E2E2E2E2E2E2E2E2E2E2E2E2E2E2E2E2E2E2E2E2E2E2E2E2E2E2E2E2E2E2E2E2E2E2E2E2E2E2E2E2E2E2E2E2E2E2E2E2E2E2E2E2E2E2E2E2E2E2E2E2E2E2E2E2E2E2E2E2E2E2E2E2E2E2E2E2E2E2E2E2E2E2E2E2E2E2E2E2E2E2E2
310
E2E2E2E2E2E2E2E2E2E2E2E2E2E2E2E2E2E2E2E2E2E2E2E2E2E2E2E2E2E2E2E2E2E2E2E2E2E2E2E2E2E2E2E2E2E2E2E2E2E2E2E2E2E2E2E2E2E2E2E2E2E2E2E2E2E2E2E2E2E2E2E2E2E2E2E2E2E2E2E2E2E2E2E2E2E2E2E2E2E2E2E2E2E2E2E2E2E2E2E2E2E2E2E2E2E2E2E2E2E2E2E2E2E2E2E2E2E2E2E2E2E2E2E2E2E2E2
310
E2E2E2E2E2E2E2E2E2E2E2E2E2E2E2E2E2E2E2E2E2E2E2E2E2E2E2E2E2E2E2E2E2E2E2E2E2E2E2E2E2E2E2E2E2E2E2E2E2E2E2E2E2E2E2E2E2E2E2E2E2E2E2E2E2E2E2E2E2E2E2E2E2E2E2E2E2E2E2E2E2E2E2E2E2E2E2E2E2E2E2E2E2E2E2E2E2E2E2E2E2E2E2E2E2E2E2E2E2E2E2E2E2E2E2E2E2E2E2E2E2E2E2E2E2E2E2
310
E2E2E2E2E2E2E2E2E2E2E2E2E2E2E2E2E2E2E2E2E2E2E2E2E2E2E2E2E2E2E2E2E2E2E2E2E2E2E2E2E2E2E2E2E2E2E2E2E2E2E2E2E2E2E2E2E2E2E2E2E2E2E2E2E2E2E2E2E2E2E2E2E2E2E2E2E2E2E2E2E2E2E2E2E2E2E2E2E2E2E2E2E2E2E2E2E2E2E2E2E2E2E2E2E2E2E2E2E2E2E2E2E2E2E2E2E2E2E2E2E2E2E2E2E2E2E2
310
E2E2E2E2E2E2E2E2E2E2E2E2E2E2E2E2E2E2E2E2E2E2E2E2E2E2E2E2E2E2E2E2E2E2E2E2E2E2E2E2E2E2E2E2E2E2E2E2E2E2E2E2E2E2E2E2E2E2E2E2E2E2E2E2E2E2E2E2E2E2E2E2E2E2E2E2E2E2E2E2E2E2E2E2E2E2E2E2E2E2E2E2E2E2E2E2E2E2E2E2E2E2E2E2E2E2E2E2E2E2E2E2E2E2E2E2E2E2E2E2E2E2E2E2E2E2E2
310
E2E2E2E2E2E2E2E2E2E2E2E2E2E2E2E2E2E2E2E2E2E2E2E2E2E2E2E2E2E2E2E2E2E2E2E2E2E2E2E2E2E2E2E2E2E2E2E2E2E2E2E2E2E2E2E2E2E2E2E2E2E2E2E2E2E2E2E2E2E2E2E2E2E2E2E2E2E2E2E2E2E2E2E2E2E2E2E2E2E2E2E2E2E2E2E2E2E2E2E2E2E2E2E2E2E2E2E2E2E2E2E2E2E2E2E2E2E2E2E2E2E2E2E2E2E2E2
310
E2E2E2E2E2E2E2E2E2E2E2E2E2E2E2E2E2E2E2E2E2E2E2E2E2E2E2E2E2E2E2E2E2E2E2E2E2E2E2E2E2E2E2E2E2E2E2E2E2E2E2E2E2E2E2E2E2E2E2E2E2E2E2E2E2E2E2E2E2E2E2E2E2E2E2E2E2E2E2E2E2E2E2E2E2E2E2E2E2E2E2E2E2E2E2E2E2E2E2E2E2E2E2E2E2E2E2E2E2E2E2E2E2E2E2E2E2E2E2E2E2E2E2E2E2E2E2
310
E2E2E2E2E2E2E2E2E2E2E2E2E2E2E2E2E2E2E2E2E2E2E2E2E2E2E2E2E2E2E2E2E2E2E2E2E2E2E2E2E2E2E2E2E2E2E2E2E2E2E2E2E2E2E2E2E2E2E2E2E2E2E2E2E2E2E2E2E2E2E2E2E2E2E2E2E2E2E2E2E2E2E2E2E2E2E2E2E2E2E2E2E2E2E2E2E2E2E2E2E2E2E2E2E2E2E2E2E2E2E2E2E2E2E2E2E2E2E2E2E2E2E2E2E2E2E2
310
E2E2E2E2E2E2E2E2E2E2E2E2E2E2E2E2E2E2E2E2E2E2E2E2E2E2E2E2E2E2E2E2E2E2E2E2E2E2E2E2E2E2E2E2E2E2E2E2E2E2E2E2E2E2E2E2E2E2E2E2E2E2E2E2E2E2E2E2E2E2E2E2E2E2E2E2E2E2E2E2E2E2E2E2E2E2E2E2E2E2E2E2E2E2E2E2E2E2E2E2E2E2E2E2E2E2E2E2E2E2E2E2E2E2E2E2E2E2E2E2E2E2E2E2E2E2E2
310
E2E2E2E2E2E2E2E2E2E2E2E2E2E2E2E2E2E2E2E2E2E2E2E2E2E2E2E2E2E2E2E2E2E2E2E2E2E2E2E2E2E2E2E2E2E2E2E2E2E2E2E2E2E2E2E2E2E2E2E2E2E2E2E2E2E2E2E2E2E2E2E2E2E2E2E2E2E2E2E2E2E2E2E2E2E2E2E2E2E2E2E2E2E2E2E2E2E2E2E2E2E2E2E2E2E2E2E2E2E2E2E2E2E2E2E2E2E2E2E2E2E2E2E2E2E2E2
310
E2E2E2E2E2E2E2E2E2E2E2E2E2E2E2E2E2E2E2E2E2E2E2E2E2E2E2E2E2E2E2E2E2E2E2E2E2E2E2E2E2E2E2E2E2E2E2E2E2E2E2E2E2E2E2E2E2E2E2E2E2E2E2E2E2E2E2E2E2E2E2E2E2E2E2E2E2E2E2E2E2E2E2E2E2E2E2E2E2E2E2E2E2E2E2E2E2E2E2E2E2E2E2E2E2E2E2E2E2E2E2E2E2E2E2E2E2E2E2E2E2E2E2E2E2E2E2
310
E2E2E2E2E2E2E2E2E2E2E2E2E2E2E2E2E2E2E2E2E2E2E2E2E2E2E2E2E2E2E2E2E2E2E2E2E2E2E2E2E2E2E2E2E2E2E2E2E2E2E2E2E2E2E2E2E2E2E2E2E2E2E2E2E2E2E2E2E2E2E2E2E2E2E2E2E2E2E2E2E2E2E2E2E2E2E2E2E2E2E2E2E2E2E2E2E2E2E2E2E2E2E2E2E2E2E2E2E2E2E2E2E2E2E2E2E2E2E2E2E2E2E2E2E2E2E2
310
E2E2E2E2E2E2E2E2E2E2E2E2E2E2E2E2E2E2E2E2E2E2E2E2E2E2E2E2E2E2E2E2E2E2E2E2E2E2E2E2E2E2E2E2E2E2E2E2E2E2E2E2E2E2E2E2E2E2E2E2E2E2E2E2E2E2E2E2E2E2E2E2E2E2E2E2E2E2E2E2E2E2E2E2E2E2E2E2E2E2E2E2E2E2E2E2E2E2E2E2E2E2E2E2E2E2E2E2E2E2E2E2E2E2E2E2E2E2E2E2E2E2E2E2E2E2E2
310
E2E2E2E2E2E2E2E2E2E2E2E2E2E2E2E2E2E2E2E2E2E2E2E2E2E2E2E2E2E2E2E2E2E2E2E2E2E2E2E2E2E2E2E2E2E2E2E2E2E2E2E2E2E2E2E2E2E2E2E2E2E2E2E2E2E2E2E2E2E2E2E2E2E2E2E2E2E2E2E2E2E2E2E2E2E2E2E2E2E2E2E2E2E2E2E2E2E2E2E2E2E2E2E2E2E2E2E2E2E2E2E2E2E2E2E2E2E2E2E2E2E2E2E2E2E2E2
310
E2E2E2E2E2E2E2E2E2E2E2E2E2E2E2E2E2E2E2E2E2E2E2E2E2E2E2E2E2E2E2E2E2E2E2E2E2E2E2E2E2E2E2E2E2E2E2E2E2E2E2E2E2E2E2E2E2E2E2E2E2E2E2E2E2E2E2E2E2E2E2E2E2E2E2E2E2E2E2E2E2E2E2E2E2E2E2E2E2E2E2E2E2E2E2E2E2E2E2E2E2E2E2E2E2E2E2E2E2E2E2E2E2E2E2E2E2E2E2E2E2E2E2E2E2E2E2
310
E2E2E2E2E2E2E2E2E2E2E2E2E2E2E2E2E2E2E2E2E2E2E2E2E2E2E2E2E2E2E2E2E2E2E2E2E2E2E2E2E2E2E2E2E2E2E2E2E2E2E2E2E2E2E2E2E2E2E2E2E2E2E2E2E2E2E2E2E2E2E2E2E2E2E2E2E2E2E2E2E2E2E2E2E2E2E2E2E2E2E2E2E2E2E2E2E2E2E2E2E2E2E2E2E2E2E2E2E2E2E2E2E2E2E2E2E2E2E2E2E2E2E2E2E2E2E2
310
E2E2E2E2E2E2E2E2E2E2E2E2E2E2E2E2E2E2E2E2E2E2E2E2E2E2E2E2E2E2E2E2E2E2E2E2E2E2E2E2E2E2E2E2E2E2E2E2E2E2E2E2E2E2E2E2E2E2E2E2E2E2E2E2E2E2E2E2E2E2E2E2E2E2E2E2E2E2E2E2E2E2E2E2E2E2E2E2E2E2E2E2E2E2E2E2E2E2E2E2E2E2E2E2E2E2E2E2E2E2E2E2E2E2E2E2E2E2E2E2E2E2E2E2E2E2E2
310
E2E2E2E2E2E2E2E2E2E2E2E2E2E2E2E2E2E2E2E2E2E2E2E2E2E2E2E2E2E2E2E2E2E2E2E2E2E2E2E2E2E2E2E2E2E2E2E2E2E2E2E2E2E2E2E2E2E2E2E2E2E2E2E2E2E2E2E2E2E2E2E2E2E2E2E2E2E2E2E2E2E2E2E2E2E2E2E2E2E2E2E2E2E2E2E2E2E2E2E2E2E2E2E2E2E2E2E2E2E2E2E2E2E2E2E2E2E2E2E2E2E2E2E2E2E2E2
310
E2E2E2E2E2E2E2E2E2E2E2E2E2E2E2E2E2E2E2E2E2E2E2E2E2E2E2E2E2E2E2E2E2E2E2E2E2E2E2E2E2E2E2E2E2E2E2E2E2E2E2E2E2E2E2E2E2E2E2E2E2E2E2E2E2E2E2E2E2E2E2E2E2E2E2E2E2E2E2E2E2E2E2E2E2E2E2E2E2E2E2E2E2E2E2E2E2E2E2E2E2E2E2E2E2E2E2E2E2E2E2E2E2E2E2E2E2E2E2E2E2E2E2E2E2E2E2
310
E2E2E2E2E2E2E2E2E2E2E2E2E2E2E2E2E2E2E2E2E2E2E2E2E2E2E2E2E2E2E2E2E2E2E2E2E2E2E2E2E2E2E2E2E2E2E2E2E2E2E2E2E2E2E2E2E2E2E2E2E2E2E2E2E2E2E2E2E2E2E2E2E2E2E2E2E2E2E2E2E2E2E2E2E2E2E2E2E2E2E2E2E2E2E2E2E2E2E2E2E2E2E2E2E2E2E2E2E2E2E2E2E2E2E2E2E2E2E2E2E2E2E2E2E2E2E2
310
E2E2E2E2E2E2E2E2E2E2E2E2E2E2E2E2E2E2E2E2E2E2E2E2E2E2E2E2E2E2E2E2E2E2E2E2E2E2E2E2E2E2E2E2E2E2E2E2E2E2E2E2E2E2E2E2E2E2E2E2E2E2E2E2E2E2E2E2E2E2E2E2E2E2E2E2E2E2E2E2E2E2E2E2E2E2E2E2E2E2E2E2E2E2E2E2E2E2E2E2E2E2E2E2E2E2E2E2E2E2E2E2E2E2E2E2E2E2E2E2E2E2E2E2E2E2E2
310
E2E2E2E2E2E2E2E2E2E2E2E2E2E2E2E2E2E2E2E2E2E2E2E2E2E2E2E2E2E2E2E2E2E2E2E2E2E2E2E2E2E2E2E2E2E2E2E2E2E2E2E2E2E2E2E2E2E2E2E2E2E2E2E2E2E2E2E2E2E2E2E2E2E2E2E2E2E2E2E2E2E2E2E2E2E2E2E2E2E2E2E2E2E2E2E2E2E2E2E2E2E2E2E2E2E2E2E2E2E2E2E2E2E2E2E2E2E2E2E2E2E2E2E2E2E2E2
310
E2E2E2E2E2E2E2E2E2E2E2E2E2E2E2E2E2E2E2E2E2E2E2E2E2E2E2E2E2E2E2E2E2E2E2E2E2E2E2E2E2E2E2E2E2E2E2E2E2E2E2E2E2E2E2E2E2E2E2E2E2E2E2E2E2E2E2E2E2E2E2E2E2E2E2E2E2E2E2E2E2E2E2E2E2E2E2E2E2E2E2E2E2E2E2E2E2E2E2E2E2E2E2E2E2E2E2E2E2E2E2E2E2E2E2E2E2E2E2E2E2E2E2E2E2E2E2
310
E2E2E2E2E2E2E2E2E2E2E2E2E2E2E2E2E2E2E2E2E2E2E2E2E2E2E2E2E2E2E2E2E2E2E2E2E2E2E2E2E2E2E2E2E2E2E2E2E2E2E2E2E2E2E2E2E2E2E2E2E2E2E2E2E2E2E2E2E2E2E2E2E2E2E2E2E2E2E2E2E2E2E2E2E2E2E2E2E2E2E2E2E2E2E2E2E2E2E2E2E2E2E2E2E2E2E2E2E2E2E2E2E2E2E2E2E2E2E2E2E2E2E2E2E2E2E2
310
E2E2E2E2E2E2E2E2E2E2E2E2E2E2E2E2E2E2E2E2E2E2E2E2E2E2E2E2E2E2E2E2E2E2E2E2E2E2E2E2E2E2E2E2E2E2E2E2E2E2E2E2E2E2E2E2E2E2E2E2E2E2E2E2E2E2E2E2E2E2E2E2E2E2E2E2E2E2E2E2E2E2E2E2E2E2E2E2E2E2E2E2E2E2E2E2E2E2E2E2E2E2E2E2E2E2E2E2E2E2E2E2E2E2E2E2E2E2E2E2E2E2E2E2E2E2E2
310
E2E2E2E2E2E2E2E2E2E2E2E2E2E2E2E2E2E2E2E2E2E2E2E2E2E2E2E2E2E2E2E2E2E2E2E2E2E2E2E2E2E2E2E2E2E2E2E2E2E2E2E2E2E2E2E2E2E2E2E2E2E2E2E2E2E2E2E2E2E2E2E2E2E2E2E2E2E2E2E2E2E2E2E2E2E2E2E2E2E2E2E2E2E2E2E2E2E2E2E2E2E2E2E2E2E2E2E2E2E2E2E2E2E2E2E2E2E2E2E2E2E2E2E2E2E2E2
310
E2E2E2E2E2E2E2E2E2E2E2E2E2E2E2E2E2E2E2E2E2E2E2E2E2E2E2E2E2E2E2E2E2E2E2E2E2E2E2E2E2E2E2E2E2E2E2E2E2E2E2E2E2E2E2E2E2E2E2E2E2E2E2E2E2E2E2E2E2E2E2E2E2E2E2E2E2E2E2E2E2E2E2E2E2E2E2E2E2E2E2E2E2E2E2E2E2E2E2E2E2E2E2E2E2E2E2E2E2E2E2E2E2E2E2E2E2E2E2E2E2E2E2E2E2E2E2
310
E2E2E2E2E2E2E2E2E2E2E2E2E2E2E2E2E2E2E2E2E2E2E2E2E2E2E2E2E2E2E2E2E2E2E2E2E2E2E2E2E2E2E2E2E2E2E2E2E2E2E2E2E2E2E2E2E2E2E2E2E2E2E2E2E2E2E2E2E2E2E2E2E2E2E2E2E2E2E2E2E2E2E2E2E2E2E2E2E2E2E2E2E2E2E2E2E2E2E2E2E2E2E2E2E2E2E2E2E2E2E2E2E2E2E2E2E2E2E2E2E2E2E2E2E2E2E2
310
E2E2E2E2E2E2E2E2E2E2E2E2E2E2E2E2E2E2E2E2E2E2E2E2E2E2E2E2E2E2E2E2E2E2E2E2E2E2E2E2E2E2E2E2E2E2E2E2E2E2E2E2E2E2E2E2E2E2E2E2E2E2E2E2E2E2E2E2E2E2E2E2E2E2E2E2E2E2E2E2E2E2E2E2E2E2E2E2E2E2E2E2E2E2E2E2E2E2E2E2E2E2E2E2E2E2E2E2E2E2E2E2E2E2E2E2E2E2E2E2E2E2E2E2E2E2E2
310
E2E2E2E2E2E2E2E2E2E2E2E2E2E2E2E2E2E2E2E2E2E2E2E2E2E2E2E2E2E2E2E2E2E2E2E2E2E2E2E2E2E2E2E2E2E2E2E2E2E2E2E2E2E2E2E2E2E2E2E2E2E2E2E2E2E2E2E2E2E2E2E2E2E2E2E2E2E2E2E2E2E2E2E2E2E2E2E2E2E2E2E2E2E2E2E2E2E2E2E2E2E2E2E2E2E2E2E2E2E2E2E2E2E2E2E2E2E2E2E2E2E2E2E2E2E2E2
310
E2E2E2E2E2E2E2E2E2E2E2E2E2E2E2E2E2E2E2E2E2E2E2E2E2E2E2E2E2E2E2E2E2E2E2E2E2E2E2E2E2E2E2E2E2E2E2E2E2E2E2E2E2E2E2E2E2E2E2E2E2E2E2E2E2E2E2E2E2E2E2E2E2E2E2E2E2E2E2E2E2E2E2E2E2E2E2E2E2E2E2E2E2E2E2E2E2E2E2E2E2E2E2E2E2E2E2E2E2E2E2E2E2E2E2E2E2E2E2E2E2E2E2E2E2E2E2
310
E2E2E2E2E2E2E2E2E2E2E2E2E2E2E2E2E2E2E2E2E2E2E2E2E2E2E2E2E2E2E2E2E2E2E2E2E2E2E2E2E2E2E2E2E2E2E2E2E2E2E2E2E2E2E2E2E2E2E2E2E2E2E2E2E2E2E2E2E2E2E2E2E2E2E2E2E2E2E2E2E2E2E2E2E2E2E2E2E2E2E2E2E2E2E2E2E2E2E2E2E2E2E2E2E2E2E2E2E2E2E2E2E2E2E2E2E2E2E2E2E2E2E2E2E2E2E2
310
E2E2E2E2E2E2E2E2E2E2E2E2E2E2E2E2E2E2E2E2E2E2E2E2E2E2E2E2E2E2E2E2E2E2E2E2E2E2E2E2E2E2E2E2E2E2E2E2E2E2E2E2E2E2E2E2E2E2E2E2E2E2E2E2E2E2E2E2E2E2E2E2E2E2E2E2E2E2E2E2E2E2E2E2E2E2E2E2E2E2E2E2E2E2E2E2E2E2E2E2E2E2E2E2E2E2E2E2E2E2E2E2E2E2E2E2E2E2E2E2E2E2E2E2E2E2E2
310
E2E2E2E2E2E2E2E2E2E2E2E2E2E2E2E2E2E2E2E2E2E2E2E2E2E2E2E2E2E2E2E2E2E2E2E2E2E2E2E2E2E2E2E2E2E2E2E2E2E2E2E2E2E2E2E2E2E2E2E2E2E2E2E2E2E2E2E2E2E2E2E2E2E2E2E2E2E2E2E2E2E2E2E2E2E2E2E2E2E2E2E2E2E2E2E2E2E2E2E2E2E2E2E2E2E2E2E2E2E2E2E2E2E2E2E2E2E2E2E2E2E2E2E2E2E2E2
310
E2E2E2E2E2E2E2E2E2E2E2E2E2E2E2E2E2E2E2E2E2E2E2E2E2E2E2E2E2E2E2E2E2E2E2E2E2E2E2E2E2E2E2E2E2E2E2E2E2E2E2E2E2E2E2E2E2E2E2E2E2E2E2E2E2E2E2E2E2E2E2E2E2E2E2E2E2E2E2E2E2E2E2E2E2E2E2E2E2E2E2E2E2E2E2E2E2E2E2E2E2E2E2E2E2E2E2E2E2E2E2E2E2E2E2E2E2E2E2E2E2E2E2E2E2E2E2
310
E2E2E2E2E2E2E2E2E2E2E2E2E2E2E2E2E2E2E2E2E2E2E2E2E2E2E2E2E2E2E2E2E2E2E2E2E2E2E2E2E2E2E2E2E2E2E2E2E2E2E2E2E2E2E2E2E2E2E2E2E2E2E2E2E2E2E2E2E2E2E2E2E2E2E2E2E2E2E2E2E2E2E2E2E2E2E2E2E2E2E2E2E2E2E2E2E2E2E2E2E2E2E2E2E2E2E2E2E2E2E2E2E2E2E2E2E2E2E2E2E2E2E2E2E2E2E2
310
E2E2E2E2E2E2E2E2E2E2E2E2E2E2E2E2E2E2E2E2E2E2E2E2E2E2E2E2E2E2E2E2E2E2E2E2E2E2E2E2E2E2E2E2E2E2E2E2E2E2E2E2E2E2E2E2E2E2E2E2E2E2E2E2E2E2E2E2E2E2E2E2E2E2E2E2E2E2E2E2E2E2E2E2E2E2E2E2E2E2E2E2E2E2E2E2E2E2E2E2E2E2E2E2E2E2E2E2E2E2E2E2E2E2E2E2E2E2E2E2E2E2E2E2E2E2E2
310
E2E2E2E2E2E2E2E2E2E2E2E2E2E2E2E2E2E2E2E2E2E2E2E2E2E2E2E2E2E2E2E2E2E2E2E2E2E2E2E2E2E2E2E2E2E2E2E2E2E2E2E2E2E2E2E2E2E2E2E2E2E2E2E2E2E2E2E2E2E2E2E2E2E2E2E2E2E2E2E2E2E2E2E2E2E2E2E2E2E2E2E2E2E2E2E2E2E2E2E2E2E2E2E2E2E2E2E2E2E2E2E2E2E2E2E2E2E2E2E2E2E2E2E2E2E2E2
310
E2E2E2E2E2E2E2E2E2E2E2E2E2E2E2E2E2E2E2E2E2E2E2E2E2E2E2E2E2E2E2E2E2E2E2E2E2E2E2E2E2E2E2E2E2E2E2E2E2E2E2E2E2E2E2E2E2E2E2E2E2E2E2E2E2E2E2E2E2E2E2E2E2E2E2E2E2E2E2E2E2E2E2E2E2E2E2E2E2E2E2E2E2E2E2E2E2E2E2E2E2E2E2E2E2E2E2E2E2E2E2E2E2E2E2E2E2E2E2E2E2E2E2E2E2E2E2
310
E2E2E2E2E2E2E2E2E2E2E2E2E2E2E2E2E2E2E2E2E2E2E2E2E2E2E2E2E2E2E2E2E2E2E2E2E2E2E2E2E2E2E2E2E2E2E2E2E2E2E2E2E2E2E2E2E2E2E2E2E2E2E2E2E2E2E2E2E2E2E2E2E2E2E2E2E2E2E2E2E2E2E2E2E2E2E2E2E2E2E2E2E2E2E2E2E2E2E2E2E2E2E2E2E2E2E2E2E2E2E2E2E2E2E2E2E2E2E2E2E2E2E2E2E2E2E2
310
E2E2E2E2E2E2E2E2E2E2E2E2E2E2E2E2E2E2E2E2E2E2E2E2E2E2E2E2E2E2E2E2E2E2E2E2E2E2E2E2E2E2E2E2E2E2E2E2E2E2E2E2E2E2E2E2E2E2E2E2E2E2E2E2E2E2E2E2E2E2E2E2E2E2E2E2E2E2E2E2E2E2E2E2E2E2E2E2E2E2E2E2E2E2E2E2E2E2E2E2E2E2E2E2E2E2E2E2E2E2E2E2E2E2E2E2E2E2E2E2E2E2E2E2E2E2E2
310
E2E2E2E2E2E2E2E2E2E2E2E2E2E2E2E2E2E2E2E2E2E2E2E2E2E2E2E2E2E2E2E2E2E2E2E2E2E2E2E2E2E2E2E2E2E2E2E2E2E2E2E2E2E2E2E2E2E2E2E2E2E2E2E2E2E2E2E2E2E2E2E2E2E2E2E2E2E2E2E2E2E2E2E2E2E2E2E2E2E2E2E2E2E2E2E2E2E2E2E2E2E2E2E2E2E2E2E2E2E2E2E2E2E2E2E2E2E2E2E2E2E2E2E2E2E2E2
310
E2E2E2E2E2E2E2E2E2E2E2E2E2E2E2E2E2E2E2E2E2E2E2E2E2E2E2E2E2E2E2E2E2E2E2E2E2E2E2E2E2E2E2E2E2E2E2E2E2E2E2E2E2E2E2E2E2E2E2E2E2E2E2E2E2E2E2E2E2E2E2E2E2E2E2E2E2E2E2E2E2E2E2E2E2E2E2E2E2E2E2E2E2E2E2E2E2E2E2E2E2E2E2E2E2E2E2E2E2E2E2E2E2E2E2E2E2E2E2E2E2E2E2E2E2E2E2
310
E2E2E2E2E2E2E2E2E2E2E2E2E2E2E2E2E2E2E2E2E2E2E2E2E2E2E2E2E2E2E2E2E2E2E2E2E2E2E2E2E2E2E2E2E2E2E2E2E2E2E2E2E2E2E2E2E2E2E2E2E2E2E2E2E2E2E2E2E2E2E2E2E2E2E2E2E2E2E2E2E2E2E2E2E2E2E2E2E2E2E2E2E2E2E2E2E2E2E2E2E2E2E2E2E2E2E2E2E2E2E2E2E2E2E2E2E2E2E2E2E2E2E2E2E2E2E2
310
E2E2E2E2E2E2E2E2E2E2E2E2E2E2E2E2E2E2E2E2E2E2E2E2E2E2E2E2E2E2E2E2E2E2E2E2E2E2E2E2E2E2E2E2E2E2E2E2E2E2E2E2E2E2E2E2E2E2E2E2E2E2E2E2E2E2E2E2E2E2E2E2E2E2E2E2E2E2E2E2E2E2E2E2E2E2E2E2E2E2E2E2E2E2E2E2E2E2E2E2E2E2E2E2E2E2E2E2E2E2E2E2E2E2E2E2E2E2E2E2E2E2E2E2E2E2E2
310
E2E2E2E2E2E2E2E2E2E2E2E2E2E2E2E2E2E2E2E2E2E2E2E2E2E2E2E2E2E2E2E2E2E2E2E2E2E2E2E2E2E2E2E2E2E2E2E2E2E2E2E2E2E2E2E2E2E2E2E2E2E2E2E2E2E2E2E2E2E2E2E2E2E2E2E2E2E2E2E2E2E2E2E2E2E2E2E2E2E2E2E2E2E2E2E2E2E2E2E2E2E2E2E2E2E2E2E2E2E2E2E2E2E2E2E2E2E2E2E2E2E2E2E2E2E2E2
310
E2E2E2E2E2E2E2E2E2E2E2E2E2E2E2E2E2E2E2E2E2E2E2E2E2E2E2E2E2E2E2E2E2E2E2E2E2E2E2E2E2E2E2E2E2E2E2E2E2E2E2E2E2E2E2E2E2E2E2E2E2E2E2E2E2E2E2E2E2E2E2E2E2E2E2E2E2E2E2E2E2E2E2E2E2E2E2E2E2E2E2E2E2E2E2E2E2E2E2E2E2E2E2E2E2E2E2E2E2E2E2E2E2E2E2E2E2E2E2E2E2E2E2E2E2E2E2
310
E2E2E2E2E2E2E2E2E2E2E2E2E2E2E2E2E2E2E2E2E2E2E2E2E2E2E2E2E2E2E2E2E2E2E2E2E2E2E2E2E2E2E2E2E2E2E2E2E2E2E2E2E2E2E2E2E2E2E2E2E2E2E2E2E2E2E2E2E2E2E2E2E2E2E2E2E2E2E2E2E2E2E2E2E2E2E2E2E2E2E2E2E2E2E2E2E2E2E2E2E2E2E2E2E2E2E2E2E2E2E2E2E2E2E2E2E2E2E2E2E2E2E2E2E2E2E2
310
E2E2E2E2E2E2E2E2E2E2E2E2E2E2E2E2E2E2E2E2E2E2E2E2E2E2E2E2E2E2E2E2E2E2E2E2E2E2E2E2E2E2E2E2E2E2E2E2E2E2E2E2E2E2E2E2E2E2E2E2E2E2E2E2E2E2E2E2E2E2E2E2E2E2E2E2E2E2E2E2E2E2E2E2E2E2E2E2E2E2E2E2E2E2E2E2E2E2E2E2E2E2E2E2E2E2E2E2E2E2E2E2E2E2E2E2E2E2E2E2E2E2E2E2E2E2E2
310
E2E2E2E2E2E2E2E2E2E2E2E2E2E2E2E2E2E2E2E2E2E2E2E2E2E2E2E2E2E2E2E2E2E2E2E2E2E2E2E2E2E2E2E2E2E2E2E2E2E2E2E2E2E2E2E2E2E2E2E2E2E2E2E2E2E2E2E2E2E2E2E2E2E2E2E2E2E2E2E2E2E2E2E2E2E2E2E2E2E2E2E2E2E2E2E2E2E2E2E2E2E2E2E2E2E2E2E2E2E2E2E2E2E2E2E2E2E2E2E2E2E2E2E2E2E2E2
310
E2E2E2E2E2E2E2E2E2E2E2E2E2E2E2E2E2E2E2E2E2E2E2E2E2E2E2E2E2E2E2E2E2E2E2E2E2E2E2E2E2E2E2E2E2E2E2E2E2E2E2E2E2E2E2E2E2E2E2E2E2E2E2E2E2E2E2E2E2E2E2E2E2E2E2E2E2E2E2E2E2E2E2E2E2E2E2E2E2E2E2E2E2E2E2E2E2E2E2E2E2E2E2E2E2E2E2E2E2E2E2E2E2E2E2E2E2E2E2E2E2E2E2E2E2E2E2
310
E2E2E2E2E2E2E2E2E2E2E2E2E2E2E2E2E2E2E2E2E2E2E2E2E2E2E2E2E2E2E2E2E2E2E2E2E2E2E2E2E2E2E2E2E2E2E2E2E2E2E2E2E2E2E2E2E2E2E2E2E2E2E2E2E2E2E2E2E2E2E2E2E2E2E2E2E2E2E2E2E2E2E2E2E2E2E2E2E2E2E2E2E2E2E2E2E2E2E2E2E2E2E2E2E2E2E2E2E2E2E2E2E2E2E2E2E2E2E2E2E2E2E2E2E2E2E2
310
E2E2E2E2E2E2E2E2E2E2E2E2E2E2E2E2E2E2E2E2E2E2E2E2E2E2E2E2E2E2E2E2E2E2E2E2E2E2E2E2E2E2E2E2E2E2E2E2E2E2E2E2E2E2E2E2E2E2E2E2E2E2E2E2E2E2E2E2E2E2E2E2E2E2E2E2E2E2E2E2E2E2E2E2E2E2E2E2E2E2E2E2E2E2E2E2E2E2E2E2E2E2E2E2E2E2E2E2E2E2E2E2E2E2E2E2E2E2E2E2E2E2E2E2E2E2E2
310
E2E2E2E2E2E2E2E2E2E2E2E2E2E2E2E2E2E2E2E2E2E2E2E2E2E2E2E2E2E2E2E2E2E2E2E2E2E2E2E2E2E2E2E2E2E2E2E2E2E2E2E2E2E2E2E2E2E2E2E2E2E2E2E2E2E2E2E2E2E2E2E2E2E2E2E2E2E2E2E2E2E2E2E2E2E2E2E2E2E2E2E2E2E2E2E2E2E2E2E2E2E2E2E2E2E2E2E2E2E2E2E2E2E2E2E2E2E2E2E2E2E2E2E2E2E2E2
310
E2E2E2E2E2E2E2E2E2E2E2E2E2E2E2E2E2E2E2E2E2E2E2E2E2E2E2E2E2E2E2E2E2E2E2E2E2E2E2E2E2E2E2E2E2E2E2E2E2E2E2E2E2E2E2E2E2E2E2E2E2E2E2E2E2E2E2E2E2E2E2E2E2E2E2E2E2E2E2E2E2E2E2E2E2E2E2E2E2E2E2E2E2E2E2E2E2E2E2E2E2E2E2E2E2E2E2E2E2E2E2E2E2E2E2E2E2E2E2E2E2E2E2E2E2E2E2
310
E2E2E2E2E2E2E2E2E2E2E2E2E2E2E2E2E2E2E2E2E2E2E2E2E2E2E2E2E2E2E2E2E2E2E2E2E2E2E2E2E2E2E2E2E2E2E2E2E2E2E2E2E2E2E2E2E2E2E2E2E2E2E2E2E2E2E2E2E2E2E2E2E2E2E2E2E2E2E2E2E2E2E2E2E2E2E2E2E2E2E2E2E2E2E2E2E2E2E2E2E2E2E2E2E2E2E2E2E2E2E2E2E2E2E2E2E2E2E2E2E2E2E2E2E2E2E2
310
E2E2E2E2E2E2E2E2E2E2E2E2E2E2E2E2E2E2E2E2E2E2E2E2E2E2E2E2E2E2E2E2E2E2E2E2E2E2E2E2E2E2E2E2E2E2E2E2E2E2E2E2E2E2E2E2E2E2E2E2E2E2E2E2E2E2E2E2E2E2E2E2E2E2E2E2E2E2E2E2E2E2E2E2E2E2E2E2E2E2E2E2E2E2E2E2E2E2E2E2E2E2E2E2E2E2E2E2E2E2E2E2E2E2E2E2E2E2E2E2E2E2E2E2E2E2E2
310
E2E2E2E2E2E2E2E2E2E2E2E2E2E2E2E2E2E2E2E2E2E2E2E2E2E2E2E2E2E2E2E2E2E2E2E2E2E2E2E2E2E2E2E2E2E2E2E2E2E2E2E2E2E2E2E2E2E2E2E2E2E2E2E2E2E2E2E2E2E2E2E2E2E2E2E2E2E2E2E2E2E2E2E2E2E2E2E2E2E2E2E2E2E2E2E2E2E2E2E2E2E2E2E2E2E2E2E2E2E2E2E2E2E2E2E2E2E2E2E2E2E2E2E2E2E2E2
310
E2E2E2E2E2E2E2E2E2E2E2E2E2E2E2E2E2E2E2E2E2E2E2E2E2E2E2E2E2E2E2E2E2E2E2E2E2E2E2E2E2E2E2E2E2E2E2E2E2E2E2E2E2E2E2E2E2E2E2E2E2E2E2E2E2E2E2E2E2E2E2E2E2E2E2E2E2E2E2E2E2E2E2E2E2E2E2E2E2E2E2E2E2E2E2E2E2E2E2E2E2E2E2E2E2E2E2E2E2E2E2E2E2E2E2E2E2E2E2E2E2E2E2E2E2E2E2
310
E2E2E2E2E2E2E2E2E2E2E2E2E2E2E2E2E2E2E2E2E2E2E2E2E2E2E2E2E2E2E2E2E2E2E2E2E2E2E2E2E2E2E2E2E2E2E2E2E2E2E2E2E2E2E2E2E2E2E2E2E2E2E2E2E2E2E2E2E2E2E2E2E2E2E2E2E2E2E2E2E2E2E2E2E2E2E2E2E2E2E2E2E2E2E2E2E2E2E2E2E2E2E2E2E2E2E2E2E2E2E2E2E2E2E2E2E2E2E2E2E2E2E2E2E2E2E2
310
E2E2E2E2E2E2E2E2E2E2E2E2E2E2E2E2E2E2E2E2E2E2E2E2E2E2E2E2E2E2E2E2E2E2E2E2E2E2E2E2E2E2E2E2E2E2E2E2E2E2E2E2E2E2E2E2E2E2E2E2E2E2E2E2E2E2E2E2E2E2E2E2E2E2E2E2E2E2E2E2E2E2E2E2E2E2E2E2E2E2E2E2E2E2E2E2E2E2E2E2E2E2E2E2E2E2E2E2E2E2E2E2E2E2E2E2E2E2E2E2E2E2E2E2E2E2E2
310
E2E2E2E2E2E2E2E2E2E2E2E2E2E2E2E2E2E2E2E2E2E2E2E2E2E2E2E2E2E2E2E2E2E2E2E2E2E2E2E2E2E2E2E2E2E2E2E2E2E2E2E2E2E2E2E2E2E2E2E2E2E2E2E2E2E2E2E2E2E2E2E2E2E2E2E2E2E2E2E2E2E2E2E2E2E2E2E2E2E2E2E2E2E2E2E2E2E2E2E2E2E2E2E2E2E2E2E2E2E2E2E2E2E2E2E2E2E2E2E2E2E2E2E2E2E2E2
310
E2E2E2E2E2E2E2E2E2E2E2E2E2E2E2E2E2E2E2E2E2E2E2E2E2E2E2E2E2E2E2E2E2E2E2E2E2E2E2E2E2E2E2E2E2E2E2E2E2E2E2E2E2E2E2E2E2E2E2E2E2E2E2E2E2E2E2E2E2E2E2E2E2E2E2E2E2E2E2E2E2E2E2E2E2E2E2E2E2E2E2E2E2E2E2E2E2E2E2E2E2E2E2E2E2E2E2E2E2E2E2E2E2E2E2E2E2E2E2E2E2E2E2E2E2E2E2
310
E2E2E2E2E2E2E2E2E2E2E2E2E2E2E2E2E2E2E2E2E2E2E2E2E2E2E2E2E2E2E2E2E2E2E2E2E2E2E2E2E2E2E2E2E2E2E2E2E2E2E2E2E2E2E2E2E2E2E2E2E2E2E2E2E2E2E2E2E2E2E2E2E2E2E2E2E2E2E2E2E2E2E2E2E2E2E2E2E2E2E2E2E2E2E2E2E2E2E2E2E2E2E2E2E2E2E2E2E2E2E2E2E2E2E2E2E2E2E2E2E2E2E2E2E2E2E2
310
E2E2E2E2E2E2E2E2E2E2E2E2E2E2E2E2E2E2E2E2E2E2E2E2E2E2E2E2E2E2E2E2E2E2E2E2E2E2E2E2E2E2E2E2E2E2E2E2E2E2E2E2E2E2E2E2E2E2E2E2E2E2E2E2E2E2E2E2E2E2E2E2E2E2E2E2E2E2E2E2E2E2E2E2E2E2E2E2E2E2E2E2E2E2E2E2E2E2E2E2E2E2E2E2E2E2E2E2E2E2E2E2E2E2E2E2E2E2E2E2E2E2E2E2E2E2E2
310
E2E2E2E2E2E2E2E2E2E2E2E2E2E2E2E2E2E2E2E2E2E2E2E2E2E2E2E2E2E2E2E2E2E2E2E2E2E2E2E2E2E2E2E2E2E2E2E2E2E2E2E2E2E2E2E2E2E2E2E2E2E2E2E2E2E2E2E2E2E2E2E2E2E2E2E2E2E2E2E2E2E2E2E2E2E2E2E2E2E2E2E2E2E2E2E2E2E2E2E2E2E2E2E2E2E2E2E2E2E2E2E2E2E2E2E2E2E2E2E2E2E2E2E2E2E2E2
310
E2E2E2E2E2E2E2E2E2E2E2E2E2E2E2E2E2E2E2E2E2E2E2E2E2E2E2E2E2E2E2E2E2E2E2E2E2E2E2E2E2E2E2E2E2E2E2E2E2E2E2E2E2E2E2E2E2E2E2E2E2E2E2E2E2E2E2E2E2E2E2E2E2E2E2E2E2E2E2E2E2E2E2E2E2E2E2E2E2E2E2E2E2E2E2E2E2E2E2E2E2E2E2E2E2E2E2E2E2E2E2E2E2E2E2E2E2E2E2E2E2E2E2E2E2E2E2
310
E2E2E2E2E2E2E2E2E2E2E2E2E2E2E2E2E2E2E2E2E2E2E2E2E2E2E2E2E2E2E2E2E2E2E2E2E2E2E2E2E2E2E2E2E2E2E2E2E2E2E2E2E2E2E2E2E2E2E2E2E2E2E2E2E2E2E2E2E2E2E2E2E2E2E2E2E2E2E2E2E2E2E2E2E2E2E2E2E2E2E2E2E2E2E2E2E2E2E2E2E2E2E2E2E2E2E2E2E2E2E2E2E2E2E2E2E2E2E2E2E2E2E2E2E2E2E2
310
E2E2E2E2E2E2E2E2E2E2E2E2E2E2E2E2E2E2E2E2E2E2E2E2E2E2E2E2E2E2E2E2E2E2E2E2E2E2E2E2E2E2E2E2E2E2E2E2E2E2E2E2E2E2E2E2E2E2E2E2E2E2E2E2E2E2E2E2E2E2E2E2E2E2E2E2E2E2E2E2E2E2E2E2E2E2E2E2E2E2E2E2E2E2E2E2E2E2E2E2E2E2E2E2E2E2E2E2E2E2E2E2E2E2E2E2E2E2E2E2E2E2E2E2E2E2E2
310
E2E2E2E2E2E2E2E2E2E2E2E2E2E2E2E2E2E2E2E2E2E2E2E2E2E2E2E2E2E2E2E2E2E2E2E2E2E2E2E2E2E2E2E2E2E2E2E2E2E2E2E2E2E2E2E2E2E2E2E2E2E2E2E2E2E2E2E2E2E2E2E2E2E2E2E2E2E2E2E2E2E2E2E2E2E2E2E2E2E2E2E2E2E2E2E2E2E2E2E2E2E2E2E2E2E2E2E2E2E2E2E2E2E2E2E2E2E2E2E2E2E2E2E2E2E2E2
310
E2E2E2E2E2E2E2E2E2E2E2E2E2E2E2E2E2E2E2E2E2E2E2E2E2E2E2E2E2E2E2E2E2E2E2E2E2E2E2E2E2E2E2E2E2E2E2E2E2E2E2E2E2E2E2E2E2E2E2E2E2E2E2E2E2E2E2E2E2E2E2E2E2E2E2E2E2E2E2E2E2E2E2E2E2E2E2E2E2E2E2E2E2E2E2E2E2E2E2E2E2E2E2E2E2E2E2E2E2E2E2E2E2E2E2E2E2E2E2E2E2E2E2E2E2E2E2
310
E2E2E2E2E2E2E2E2E2E2E2E2E2E2E2E2E2E2E2E2E2E2E2E2E2E2E2E2E2E2E2E2E2E2E2E2E2E2E2E2E2E2E2E2E2E2E2E2E2E2E2E2E2E2E2E2E2E2E2E2E2E2E2E2E2E2E2E2E2E2E2E2E2E2E2E2E2E2E2E2E2E2E2E2E2E2E2E2E2E2E2E2E2E2E2E2E2E2E2E2E2E2E2E2E2E2E2E2E2E2E2E2E2E2E2E2E2E2E2E2E2E2E2E2E2E2E2
310
E2E2E2E2E2E2E2E2E2E2E2E2E2E2E2E2E2E2E2E2E2E2E2E2E2E2E2E2E2E2E2E2E2E2E2E2E2E2E2E2E2E2E2E2E2E2E2E2E2E2E2E2E2E2E2E2E2E2E2E2E2E2E2E2E2E2E2E2E2E2E2E2E2E2E2E2E2E2E2E2E2E2E2E2E2E2E2E2E2E2E2E2E2E2E2E2E2E2E2E2E2E2E2E2E2E2E2E2E2E2E2E2E2E2E2E2E2E2E2E2E2E2E2E2E2E2E2
310
E2E2E2E2E2E2E2E2E2E2E2E2E2E2E2E2E2E2E2E2E2E2E2E2E2E2E2E2E2E2E2E2E2E2E2E2E2E2E2E2E2E2E2E2E2E2E2E2E2E2E2E2E2E2E2E2E2E2E2E2E2E2E2E2E2E2E2E2E2E2E2E2E2E2E2E2E2E2E2E2E2E2E2E2E2E2E2E2E2E2E2E2E2E2E2E2E2E2E2E2E2E2E2E2E2E2E2E2E2E2E2E2E2E2E2E2E2E2E2E2E2E2E2E2E2E2E2
310
E2E2E2E2E2E2E2E2E2E2E2E2E2E2E2E2E2E2E2E2E2E2E2E2E2E2E2E2E2E2E2E2E2E2E2E2E2E2E2E2E2E2E2E2E2E2E2E2E2E2E2E2E2E2E2E2E2E2E2E2E2E2E2E2E2E2E2E2E2E2E2E2E2E2E2E2E2E2E2E2E2E2E2E2E2E2E2E2E2E2E2E2E2E2E2E2E2E2E2E2E2E2E2E2E2E2E2E2E2E2E2E2E2E2E2E2E2E2E2E2E2E2E2E2E2E2E2
310
E2E2E2E2E2E2E2E2E2E2E2E2E2E2E2E2E2E2E2E2E2E2E2E2E2E2E2E2E2E2E2E2E2E2E2E2E2E2E2E2E2E2E2E2E2E2E2E2E2E2E2E2E2E2E2E2E2E2E2E2E2E2E2E2E2E2E2E2E2E2E2E2E2E2E2E2E2E2E2E2E2E2E2E2E2E2E2E2E2E2E2E2E2E2E2E2E2E2E2E2E2E2E2E2E2E2E2E2E2E2E2E2E2E2E2E2E2E2E2E2E2E2E2E2E2E2E2
310
E2E2E2E2E2E2E2E2E2E2E2E2E2E2E2E2E2E2E2E2E2E2E2E2E2E2E2E2E2E2E2E2E2E2E2E2E2E2E2E2E2E2E2E2E2E2E2E2E2E2E2E2E2E2E2E2E2E2E2E2E2E2E2E2E2E2E2E2E2E2E2E2E2E2E2E2E2E2E2E2E2E2E2E2E2E2E2E2E2E2E2E2E2E2E2E2E2E2E2E2E2E2E2E2E2E2E2E2E2E2E2E2E2E2E2E2E2E2E2E2E2E2E2E2E2E2E2
310
E2E2E2E2E2E2E2E2E2E2E2E2E2E2E2E2E2E2E2E2E2E2E2E2E2E2E2E2E2E2E2E2E2E2E2E2E2E2E2E2E2E2E2E2E2E2E2E2E2E2E2E2E2E2E2E2E2E2E2E2E2E2E2E2E2E2E2E2E2E2E2E2E2E2E2E2E2E2E2E2E2E2E2E2E2E2E2E2E2E2E2E2E2E2E2E2E2E2E2E2E2E2E2E2E2E2E2E2E2E2E2E2E2E2E2E2E2E2E2E2E2E2E2E2E2E2E2
310
E2E2E2E2E2E2E2E2E2E2E2E2E2E2E2E2E2E2E2E2E2E2E2E2E2E2E2E2E2E2E2E2E2E2E2E2E2E2E2E2E2E2E2E2E2E2E2E2E2E2E2E2E2E2E2E2E2E2E2E2E2E2E2E2E2E2E2E2E2E2E2E2E2E2E2E2E2E2E2E2E2E2E2E2E2E2E2E2E2E2E2E2E2E2E2E2E2E2E2E2E2E2E2E2E2E2E2E2E2E2E2E2E2E2E2E2E2E2E2E2E2E2E2E2E2E2E2
310
E2E2E2E2E2E2E2E2E2E2E2E2E2E2E2E2E2E2E2E2E2E2E2E2E2E2E2E2E2E2E2E2E2E2E2E2E2E2E2E2E2E2E2E2E2E2E2E2E2E2E2E2E2E2E2E2E2E2E2E2E2E2E2E2E2E2E2E2E2E2E2E2E2E2E2E2E2E2E2E2E2E2E2E2E2E2E2E2E2E2E2E2E2E2E2E2E2E2E2E2E2E2E2E2E2E2E2E2E2E2E2E2E2E2E2E2E2E2E2E2E2E2E2E2E2E2E2
310
E2E2E2E2E2E2E2E2E2E2E2E2E2E2E2E2E2E2E2E2E2E2E2E2E2E2E2E2E2E2E2E2E2E2E2E2E2E2E2E2E2E2E2E2E2E2E2E2E2E2E2E2E2E2E2E2E2E2E2E2E2E2E2E2E2E2E2E2E2E2E2E2E2E2E2E2E2E2E2E2E2E2E2E2E2E2E2E2E2E2E2E2E2E2E2E2E2E2E2E2E2E2E2E2E2E2E2E2E2E2E2E2E2E2E2E2E2E2E2E2E2E2E2E2E2E2E2
310
E2E2E2E2E2E2E2E2E2E2E2E2E2E2E2E2E2E2E2E2E2E2E2E2E2E2E2E2E2E2E2E2E2E2E2E2E2E2E2E2E2E2E2E2E2E2E2E2E2E2E2E2E2E2E2E2E2E2E2E2E2E2E2E2E2E2E2E2E2E2E2E2E2E2E2E2E2E2E2E2E2E2E2E2E2E2E2E2E2E2E2E2E2E2E2E2E2E2E2E2E2E2E2E2E2E2E2E2E2E2E2E2E2E2E2E2E2E2E2E2E2E2E2E2E2E2E2
310
E2E2E2E2E2E2E2E2E2E2E2E2E2E2E2E2E2E2E2E2E2E2E2E2E2E2E2E2E2E2E2E2E2E2E2E2E2E2E2E2E2E2E2E2E2E2E2E2E2E2E2E2E2E2E2E2E2E2E2E2E2E2E2E2E2E2E2E2E2E2E2E2E2E2E2E2E2E2E2E2E2E2E2E2E2E2E2E2E2E2E2E2E2E2E2E2E2E2E2E2E2E2E2E2E2E2E2E2E2E2E2E2E2E2E2E2E2E2E2E2E2E2E2E2E2E2E2
310
E2E2E2E2E2E2E2E2E2E2E2E2E2E2E2E2E2E2E2E2E2E2E2E2E2E2E2E2E2E2E2E2E2E2E2E2E2E2E2E2E2E2E2E2E2E2E2E2E2E2E2E2E2E2E2E2E2E2E2E2E2E2E2E2E2E2E2E2E2E2E2E2E2E2E2E2E2E2E2E2E2E2E2E2E2E2E2E2E2E2E2E2E2E2E2E2E2E2E2E2E2E2E2E2E2E2E2E2E2E2E2E2E2E2E2E2E2E2E2E2E2E2E2E2E2E2E2
310
E2E2E2E2E2E2E2E2E2E2E2E2E2E2E2E2E2E2E2E2E2E2E2E2E2E2E2E2E2E2E2E2E2E2E2E2E2E2E2E2E2E2E2E2E2E2E2E2E2E2E2E2E2E2E2E2E2E2E2E2E2E2E2E2E2E2E2E2E2E2E2E2E2E2E2E2E2E2E2E2E2E2E2E2E2E2E2E2E2E2E2E2E2E2E2E2E2E2E2E2E2E2E2E2E2E2E2E2E2E2E2E2E2E2E2E2E2E2E2E2E2E2E2E2E2E2E2
310
E2E2E2E2E2E2E2E2E2E2E2E2E2E2E2E2E2E2E2E2E2E2E2E2E2E2E2E2E2E2E2E2E2E2E2E2E2E2E2E2E2E2E2E2E2E2E2E2E2E2E2E2E2E2E2E2E2E2E2E2E2E2E2E2E2E2E2E2E2E2E2E2E2E2E2E2E2E2E2E2E2E2E2E2E2E2E2E2E2E2E2E2E2E2E2E2E2E2E2E2E2E2E2E2E2E2E2E2E2E2E2E2E2E2E2E2E2E2E2E2E2E2E2E2E2E2E2
310
E2E2E2E2E2E2E2E2E2E2E2E2E2E2E2E2E2E2E2E2E2E2E2E2E2E2E2E2E2E2E2E2E2E2E2E2E2E2E2E2E2E2E2E2E2E2E2E2E2E2E2E2E2E2E2E2E2E2E2E2E2E2E2E2E2E2E2E2E2E2E2E2E2E2E2E2E2E2E2E2E2E2E2E2E2E2E2E2E2E2E2E2E2E2E2E2E2E2E2E2E2E2E2E2E2E2E2E2E2E2E2E2E2E2E2E2E2E2E2E2E2E2E2E2E2E2E2
310
E2E2E2E2E2E2E2E2E2E2E2E2E2E2E2E2E2E2E2E2E2E2E2E2E2E2E2E2E2E2E2E2E2E2E2E2E2E2E2E2E2E2E2E2E2E2E2E2E2E2E2E2E2E2E2E2E2E2E2E2E2E2E2E2E2E2E2E2E2E2E2E2E2E2E2E2E2E2E2E2E2E2E2E2E2E2E2E2E2E2E2E2E2E2E2E2E2E2E2E2E2E2E2E2E2E2E2E2E2E2E2E2E2E2E2E2E2E2E2E2E2E2E2E2E2E2E2
310
E2E2E2E2E2E2E2E2E2E2E2E2E2E2E2E2E2E2E2E2E2E2E2E2E2E2E2E2E2E2E2E2E2E2E2E2E2E2E2E2E2E2E2E2E2E2E2E2E2E2E2E2E2E2E2E2E2E2E2E2E2E2E2E2E2E2E2E2E2E2E2E2E2E2E2E2E2E2E2E2E2E2E2E2E2E2E2E2E2E2E2E2E2E2E2E2E2E2E2E2E2E2E2E2E2E2E2E2E2E2E2E2E2E2E2E2E2E2E2E2E2E2E2E2E2E2E2
310
E2E2E2E2E2E2E2E2E2E2E2E2E2E2E2E2E2E2E2E2E2E2E2E2E2E2E2E2E2E2E2E2E2E2E2E2E2E2E2E2E2E2E2E2E2E2E2E2E2E2E2E2E2E2E2E2E2E2E2E2E2E2E2E2E2E2E2E2E2E2E2E2E2E2E2E2E2E2E2E2E2E2E2E2E2E2E2E2E2E2E2E2E2E2E2E2E2E2E2E2E2E2E2E2E2E2E2E2E2E2E2E2E2E2E2E2E2E2E2E2E2E2E2E2E2E2E2
310
E2E2E2E2E2E2E2E2E2E2E2E2E2E2E2E2E2E2E2E2E2E2E2E2E2E2E2E2E2E2E2E2E2E2E2E2E2E2E2E2E2E2E2E2E2E2E2E2E2E2E2E2E2E2E2E2E2E2E2E2E2E2E2E2E2E2E2E2E2E2E2E2E2E2E2E2E2E2E2E2E2E2E2E2E2E2E2E2E2E2E2E2E2E2E2E2E2E2E2E2E2E2E2E2E2E2E2E2E2E2E2E2E2E2E2E2E2E2E2E2E2E2E2E2E2E2E2
310
E2E2E2E2E2E2E2E2E2E2E2E2E2E2E2E2E2E2E2E2E2E2E2E2E2E2E2E2E2E2E2E2E2E2E2E2E2E2E2E2E2E2E2E2E2E2E2E2E2E2E2E2E2E2E2E2E2E2E2E2E2E2E2E2E2E2E2E2E2E2E2E2E2E2E2E2E2E2E2E2E2E2E2E2E2E2E2E2E2E2E2E2E2E2E2E2E2E2E2E2E2E2E2E2E2E2E2E2E2E2E2E2E2E2E2E2E2E2E2E2E2E2E2E2E2E2E2
310
E2E2E2E2E2E2E2E2E2E2E2E2E2E2E2E2E2E2E2E2E2E2E2E2E2E2E2E2E2E2E2E2E2E2E2E2E2E2E2E2E2E2E2E2E2E2E2E2E2E2E2E2E2E2E2E2E2E2E2E2E2E2E2E2E2E2E2E2E2E2E2E2E2E2E2E2E2E2E2E2E2E2E2E2E2E2E2E2E2E2E2E2E2E2E2E2E2E2E2E2E2E2E2E2E2E2E2E2E2E2E2E2E2E2E2E2E2E2E2E2E2E2E2E2E2E2E2
310
E2E2E2E2E2E2E2E2E2E2E2E2E2E2E2E2E2E2E2E2E2E2E2E2E2E2E2E2E2E2E2E2E2E2E2E2E2E2E2E2E2E2E2E2E2E2E2E2E2E2E2E2E2E2E2E2E2E2E2E2E2E2E2E2E2E2E2E2E2E2E2E2E2E2E2E2E2E2E2E2E2E2E2E2E2E2E2E2E2E2E2E2E2E2E2E2E2E2E2E2E2E2E2E2E2E2E2E2E2E2E2E2E2E2E2E2E2E2E2E2E2E2E2E2E2E2E2
310
E2E2E2E2E2E2E2E2E2E2E2E2E2E2E2E2E2E2E2E2E2E2E2E2E2E2E2E2E2E2E2E2E2E2E2E2E2E2E2E2E2E2E2E2E2E2E2E2E2E2E2E2E2E2E2E2E2E2E2E2E2E2E2E2E2E2E2E2E2E2E2E2E2E2E2E2E2E2E2E2E2E2E2E2E2E2E2E2E2E2E2E2E2E2E2E2E2E2E2E2E2E2E2E2E2E2E2E2E2E2E2E2E2E2E2E2E2E2E2E2E2E2E2E2E2E2E2
310
E2E2E2E2E2E2E2E2E2E2E2E2E2E2E2E2E2E2E2E2E2E2E2E2E2E2E2E2E2E2E2E2E2E2E2E2E2E2E2E2E2E2E2E2E2E2E2E2E2E2E2E2E2E2E2E2E2E2E2E2E2E2E2E2E2E2E2E2E2E2E2E2E2E2E2E2E2E2E2E2E2E2E2E2E2E2E2E2E2E2E2E2E2E2E2E2E2E2E2E2E2E2E2E2E2E2E2E2E2E2E2E2E2E2E2E2E2E2E2E2E2E2E2E2E2E2E2
310
E2E2E2E2E2E2E2E2E2E2E2E2E2E2E2E2E2E2E2E2E2E2E2E2E2E2E2E2E2E2E2E2E2E2E2E2E2E2E2E2E2E2E2E2E2E2E2E2E2E2E2E2E2E2E2E2E2E2E2E2E2E2E2E2E2E2E2E2E2E2E2E2E2E2E2E2E2E2E2E2E2E2E2E2E2E2E2E2E2E2E2E2E2E2E2E2E2E2E2E2E2E2E2E2E2E2E2E2E2E2E2E2E2E2E2E2E2E2E2E2E2E2E2E2E2E2E2
310
E2E2E2E2E2E2E2E2E2E2E2E2E2E2E2E2E2E2E2E2E2E2E2E2E2E2E2E2E2E2E2E2E2E2E2E2E2E2E2E2E2E2E2E2E2E2E2E2E2E2E2E2E2E2E2E2E2E2E2E2E2E2E2E2E2E2E2E2E2E2E2E2E2E2E2E2E2E2E2E2E2E2E2E2E2E2E2E2E2E2E2E2E2E2E2E2E2E2E2E2E2E2E2E2E2E2E2E2E2E2E2E2E2E2E2E2E2E2E2E2E2E2E2E2E2E2E2
310
E2E2E2E2E2E2E2E2E2E2E2E2E2E2E2E2E2E2E2E2E2E2E2E2E2E2E2E2E2E2E2E2E2E2E2E2E2E2E2E2E2E2E2E2E2E2E2E2E2E2E2E2E2E2E2E2E2E2E2E2E2E2E2E2E2E2E2E2E2E2E2E2E2E2E2E2E2E2E2E2E2E2E2E2E2E2E2E2E2E2E2E2E2E2E2E2E2E2E2E2E2E2E2E2E2E2E2E2E2E2E2E2E2E2E2E2E2E2E2E2E2E2E2E2E2E2E2
310
E2E2E2E2E2E2E2E2E2E2E2E2E2E2E2E2E2E2E2E2E2E2E2E2E2E2E2E2E2E2E2E2E2E2E2E2E2E2E2E2E2E2E2E2E2E2E2E2E2E2E2E2E2E2E2E2E2E2E2E2E2E2E2E2E2E2E2E2E2E2E2E2E2E2E2E2E2E2E2E2E2E2E2E2E2E2E2E2E2E2E2E2E2E2E2E2E2E2E2E2E2E2E2E2E2E2E2E2E2E2E2E2E2E2E2E2E2E2E2E2E2E2E2E2E2E2E2
310
E2E2E2E2E2E2E2E2E2E2E2E2E2E2E2E2E2E2E2E2E2E2E2E2E2E2E2E2E2E2E2E2E2E2E2E2E2E2E2E2E2E2E2E2E2E2E2E2E2E2E2E2E2E2E2E2E2E2E2E2E2E2E2E2E2E2E2E2E2E2E2E2E2E2E2E2E2E2E2E2E2E2E2E2E2E2E2E2E2E2E2E2E2E2E2E2E2E2E2E2E2E2E2E2E2E2E2E2E2E2E2E2E2E2E2E2E2E2E2E2E2E2E2E2E2E2E2
310
E2E2E2E2E2E2E2E2E2E2E2E2E2E2E2E2E2E2E2E2E2E2E2E2E2E2E2E2E2E2E2E2E2E2E2E2E2E2E2E2E2E2E2E2E2E2E2E2E2E2E2E2E2E2E2E2E2E2E2E2E2E2E2E2E2E2E2E2E2E2E2E2E2E2E2E2E2E2E2E2E2E2E2E2E2E2E2E2E2E2E2E2E2E2E2E2E2E2E2E2E2E2E2E2E2E2E2E2E2E2E2E2E2E2E2E2E2E2E2E2E2E2E2E2E2E2E2
310
E2E2E2E2E2E2E2E2E2E2E2E2E2E2E2E2E2E2E2E2E2E2E2E2E2E2E2E2E2E2E2E2E2E2E2E2E2E2E2E2E2E2E2E2E2E2E2E2E2E2E2E2E2E2E2E2E2E2E2E2E2E2E2E2E2E2E2E2E2E2E2E2E2E2E2E2E2E2E2E2E2E2E2E2E2E2E2E2E2E2E2E2E2E2E2E2E2E2E2E2E2E2E2E2E2E2E2E2E2E2E2E2E2E2E2E2E2E2E2E2E2E2E2E2E2E2E2
310
E2E2E2E2E2E2E2E2E2E2E2E2E2E2E2E2E2E2E2E2E2E2E2E2E2E2E2E2E2E2E2E2E2E2E2E2E2E2E2E2E2E2E2E2E2E2E2E2E2E2E2E2E2E2E2E2E2E2E2E2E2E2E2E2E2E2E2E2E2E2E2E2E2E2E2E2E2E2E2E2E2E2E2E2E2E2E2E2E2E2E2E2E2E2E2E2E2E2E2E2E2E2E2E2E2E2E2E2E2E2E2E2E2E2E2E2E2E2E2E2E2E2E2E2E2E2E2
310
E2E2E2E2E2E2E2E2E2E2E2E2E2E2E2E2E2E2E2E2E2E2E2E2E2E2E2E2E2E2E2E2E2E2E2E2E2E2E2E2E2E2E2E2E2E2E2E2E2E2E2E2E2E2E2E2E2E2E2E2E2E2E2E2E2E2E2E2E2E2E2E2E2E2E2E2E2E2E2E2E2E2E2E2E2E2E2E2E2E2E2
  0
XRECORD
  5
B71
102
{ACAD_REACTORS
330
46
102
}
330
46
100
AcDbXrecord
280
     1
102
MATERIAL
148
0.0
149
0.0
149
0.0
 93
        0
 94
      127
282
     0
 72
     0
 77
     0
171
     0
175
     0
179
     0
273
     0
  0
XRECORD
  5
47
102
{ACAD_REACTORS
330
46
102
}
330
46
100
AcDbXrecord
280
     1
270
     1
271
     1
  0
XRECORD
  5
48
102
{ACAD_REACTORS
330
46
102
}
330
46
100
AcDbXrecord
280
     1
270
     1
271
     1
  0
XRECORD
  5
49
102
{ACAD_REACTORS
330
46
102
}
330
46
100
AcDbXrecord
280
     1
270
     1
271
     1
  0
XRECORD
  5
4A
102
{ACAD_REACTORS
330
46
102
}
330
46
100
AcDbXrecord
280
     1
270
     1
271
     1
  0
XRECORD
  5
4B
102
{ACAD_REACTORS
330
46
102
}
330
46
100
AcDbXrecord
280
     1
270
     1
271
     1
  0
XRECORD
  5
4C
102
{ACAD_REACTORS
330
46
102
}
330
46
100
AcDbXrecord
280
     1
270
     1
271
     1
  0
XRECORD
  5
B70
102
{ACAD_REACTORS
330
3E
102
}
330
3E
100
AcDbXrecord
280
     1
102
MATERIAL
148
0.0
149
0.0
149
0.0
 93
        0
 94
      127
282
     0
 72
     0
 77
     0
171
     0
175
     0
179
     0
273
     0
  0
XRECORD
  5
3F
102
{ACAD_REACTORS
330
3E
102
}
330
3E
100
AcDbXrecord
280
     1
270
     1
271
     1
  0
XRECORD
  5
40
102
{ACAD_REACTORS
330
3E
102
}
330
3E
100
AcDbXrecord
280
     1
270
     1
271
     1
  0
XRECORD
  5
41
102
{ACAD_REACTORS
330
3E
102
}
330
3E
100
AcDbXrecord
280
     1
270
     1
271
     1
  0
XRECORD
  5
42
102
{ACAD_REACTORS
330
3E
102
}
330
3E
100
AcDbXrecord
280
     1
270
     1
271
     1
  0
XRECORD
  5
43
102
{ACAD_REACTORS
330
3E
102
}
330
3E
100
AcDbXrecord
280
     1
270
     1
271
     1
  0
XRECORD
  5
44
102
{ACAD_REACTORS
330
3E
102
}
330
3E
100
AcDbXrecord
280
     1
270
     1
271
     1
  0
XRECORD
  5
B69
102
{ACAD_REACTORS
330
D
102
}
330
D
100
AcDbXrecord
280
     1
102
MATERIAL
148
0.0
149
0.0
149
0.0
 93
        0
 94
      127
282
     0
 72
     0
 77
     0
171
     0
175
     0
179
     0
273
     0
  0
XRECORD
  5
E
102
{ACAD_REACTORS
330
D
102
}
330
D
100
AcDbXrecord
280
     1
270
     1
271
     1
  0
XRECORD
  5
F
102
{ACAD_REACTORS
330
D
102
}
330
D
100
AcDbXrecord
280
     1
270
     1
271
     1
  0
XRECORD
  5
10
102
{ACAD_REACTORS
330
D
102
}
330
D
100
AcDbXrecord
280
     1
270
     1
271
     1
  0
XRECORD
  5
11
102
{ACAD_REACTORS
330
D
102
}
330
D
100
AcDbXrecord
280
     1
270
     1
271
     1
  0
XRECORD
  5
12
102
{ACAD_REACTORS
330
D
102
}
330
D
100
AcDbXrecord
280
     1
270
     1
271
     1
  0
XRECORD
  5
13
102
{ACAD_REACTORS
330
D
102
}
330
D
100
AcDbXrecord
280
     1
270
     1
271
     1
  0
CELLSTYLEMAP
  5
2773
102
{ACAD_REACTORS
330
B00
102
}
330
B00
100
AcDbCellStyleMap
 90
        3
300
CELLSTYLE
  1
TABLEFORMAT_BEGIN
 90
        5
170
     1
 91
        0
 92
    32768
 62
   257
 93
        1
300
CONTENTFORMAT
  1
CONTENTFORMAT_BEGIN
 90
        0
 91
        0
 92
        4
 93
        0
300

 40
0.0
140
1.0
 94
        5
 62
     0
340
23
144
6.0
309
CONTENTFORMAT_END
171
     1
301
MARGIN
  1
CELLMARGIN_BEGIN
 40
1.5
 40
1.5
 40
1.5
 40
1.5
 40
0.18
 40
0.18
309
CELLMARGIN_END
 94
        6
 95
        1
302
GRIDFORMAT
  1
GRIDFORMAT_BEGIN
 90
        0
 91
        1
 62
     0
 92
       -2
340
0
 93
        0
 40
0.045
309
GRIDFORMAT_END
 95
        2
302
GRIDFORMAT
  1
GRIDFORMAT_BEGIN
 90
        0
 91
        1
 62
     0
 92
       -2
340
0
 93
        0
 40
0.045
309
GRIDFORMAT_END
 95
        4
302
GRIDFORMAT
  1
GRIDFORMAT_BEGIN
 90
        0
 91
        1
 62
     0
 92
       -2
340
0
 93
        0
 40
0.045
309
GRIDFORMAT_END
 95
        8
302
GRIDFORMAT
  1
GRIDFORMAT_BEGIN
 90
        0
 91
        1
 62
     0
 92
       -2
340
0
 93
        0
 40
0.045
309
GRIDFORMAT_END
 95
       16
302
GRIDFORMAT
  1
GRIDFORMAT_BEGIN
 90
        0
 91
        1
 62
     0
 92
       -2
340
0
 93
        0
 40
0.045
309
GRIDFORMAT_END
 95
       32
302
GRIDFORMAT
  1
GRIDFORMAT_BEGIN
 90
        0
 91
        1
 62
     0
 92
       -2
340
0
 93
        0
 40
0.045
309
GRIDFORMAT_END
309
TABLEFORMAT_END
  1
CELLSTYLE_BEGIN
 90
        1
 91
        1
300
_TITLE
309
CELLSTYLE_END
300
CELLSTYLE
  1
TABLEFORMAT_BEGIN
 90
        5
170
     1
 91
        0
 92
        0
 62
   257
 93
        1
300
CONTENTFORMAT
  1
CONTENTFORMAT_BEGIN
 90
        0
 91
        0
 92
        4
 93
        0
300

 40
0.0
140
1.0
 94
        5
 62
     0
340
23
144
4.5
309
CONTENTFORMAT_END
171
     1
301
MARGIN
  1
CELLMARGIN_BEGIN
 40
1.5
 40
1.5
 40
1.5
 40
1.5
 40
0.18
 40
0.18
309
CELLMARGIN_END
 94
        6
 95
        1
302
GRIDFORMAT
  1
GRIDFORMAT_BEGIN
 90
        0
 91
        1
 62
     0
 92
       -2
340
0
 93
        0
 40
0.045
309
GRIDFORMAT_END
 95
        2
302
GRIDFORMAT
  1
GRIDFORMAT_BEGIN
 90
        0
 91
        1
 62
     0
 92
       -2
340
0
 93
        0
 40
0.045
309
GRIDFORMAT_END
 95
        4
302
GRIDFORMAT
  1
GRIDFORMAT_BEGIN
 90
        0
 91
        1
 62
     0
 92
       -2
340
0
 93
        0
 40
0.045
309
GRIDFORMAT_END
 95
        8
302
GRIDFORMAT
  1
GRIDFORMAT_BEGIN
 90
        0
 91
        1
 62
     0
 92
       -2
340
0
 93
        0
 40
0.045
309
GRIDFORMAT_END
 95
       16
302
GRIDFORMAT
  1
GRIDFORMAT_BEGIN
 90
        0
 91
        1
 62
     0
 92
       -2
340
0
 93
        0
 40
0.045
309
GRIDFORMAT_END
 95
       32
302
GRIDFORMAT
  1
GRIDFORMAT_BEGIN
 90
        0
 91
        1
 62
     0
 92
       -2
340
0
 93
        0
 40
0.045
309
GRIDFORMAT_END
309
TABLEFORMAT_END
  1
CELLSTYLE_BEGIN
 90
        2
 91
        1
300
_HEADER
309
CELLSTYLE_END
300
CELLSTYLE
  1
TABLEFORMAT_BEGIN
 90
        5
170
     1
 91
        0
 92
        0
 62
   257
 93
        1
300
CONTENTFORMAT
  1
CONTENTFORMAT_BEGIN
 90
        0
 91
        0
 92
        4
 93
        0
300

 40
0.0
140
1.0
 94
        2
 62
     0
340
23
144
4.5
309
CONTENTFORMAT_END
171
     1
301
MARGIN
  1
CELLMARGIN_BEGIN
 40
1.5
 40
1.5
 40
1.5
 40
1.5
 40
0.18
 40
0.18
309
CELLMARGIN_END
 94
        6
 95
        1
302
GRIDFORMAT
  1
GRIDFORMAT_BEGIN
 90
        0
 91
        1
 62
     0
 92
       -2
340
0
 93
        0
 40
0.045
309
GRIDFORMAT_END
 95
        2
302
GRIDFORMAT
  1
GRIDFORMAT_BEGIN
 90
        0
 91
        1
 62
     0
 92
       -2
340
0
 93
        0
 40
0.045
309
GRIDFORMAT_END
 95
        4
302
GRIDFORMAT
  1
GRIDFORMAT_BEGIN
 90
        0
 91
        1
 62
     0
 92
       -2
340
0
 93
        0
 40
0.045
309
GRIDFORMAT_END
 95
        8
302
GRIDFORMAT
  1
GRIDFORMAT_BEGIN
 90
        0
 91
        1
 62
     0
 92
       -2
340
0
 93
        0
 40
0.045
309
GRIDFORMAT_END
 95
       16
302
GRIDFORMAT
  1
GRIDFORMAT_BEGIN
 90
        0
 91
        1
 62
     0
 92
       -2
340
0
 93
        0
 40
0.045
309
GRIDFORMAT_END
 95
       32
302
GRIDFORMAT
  1
GRIDFORMAT_BEGIN
 90
        0
 91
        1
 62
     0
 92
       -2
340
0
 93
        0
 40
0.045
309
GRIDFORMAT_END
309
TABLEFORMAT_END
  1
CELLSTYLE_BEGIN
 90
        3
 91
        2
300
_DATA
309
CELLSTYLE_END
  0
XRECORD
  5
277B
102
{ACAD_REACTORS
330
B00
102
}
330
B00
100
AcDbXrecord
280
     1
102
ACAD_ROUNDTRIP_PRE2007_TABLESTYLE
 90
        4
 91
        0
  1

 92
        4
 93
        0
  2

 94
        4
 95
        0
  3

  0
ENDSEC
  0
EOF
