  0
SECTION
  2
HEADER
  9
$ACADVER
  1
AC1015
  9
$ACADMAINTVER
 70
    20
  9
$DWGCODEPAGE
  3
ANSI_932
  9
$INSBASE
 10
0.0
 20
0.0
 30
0.0
  9
$EXTMIN
 10
8029.80001729435
 20
1207.932714406419
 30
0.0
  9
$EXTMAX
 10
9767.187071906159
 20
1878.709653656349
 30
0.0
  9
$LIMMIN
 10
0.0
 20
0.0
  9
$LIMMAX
 10
420.0
 20
297.0
  9
$ORTHOMODE
 70
     0
  9
$REGENMODE
 70
     1
  9
$FILLMODE
 70
     1
  9
$QTEXTMODE
 70
     0
  9
$MIRRTEXT
 70
     1
  9
$LTSCALE
 40
1.0
  9
$ATTMODE
 70
     1
  9
$TEXTSIZE
 40
62.5215949741746
  9
$TRACEWID
 40
1.0
  9
$TEXTSTYLE
  7
STANDARD
  9
$CLAYER
  8
SIZE
  9
$CELTYPE
  6
BYLAYER
  9
$CECOLOR
 62
   256
  9
$CELTSCALE
 40
1.0
  9
$DISPSILH
 70
     0
  9
$DIMSCALE
 40
10.0
  9
$DIMASZ
 40
2.0
  9
$DIMEXO
 40
1.0
  9
$DIMDLI
 40
3.75
  9
$DIMRND
 40
0.5
  9
$DIMDLE
 40
0.0
  9
$DIMEXE
 40
1.0
  9
$DIMTP
 40
0.0
  9
$DIMTM
 40
0.0
  9
$DIMTXT
 40
2.0
  9
$DIMCEN
 40
2.5
  9
$DIMTSZ
 40
0.0
  9
$DIMTOL
 70
     0
  9
$DIMLIM
 70
     0
  9
$DIMTIH
 70
     0
  9
$DIMTOH
 70
     0
  9
$DIMSE1
 70
     0
  9
$DIMSE2
 70
     0
  9
$DIMTAD
 70
     1
  9
$DIMZIN
 70
     8
  9
$DIMBLK
  1

  9
$DIMASO
 70
     1
  9
$DIMSHO
 70
     1
  9
$DIMPOST
  1

  9
$DIMAPOST
  1

  9
$DIMALT
 70
     0
  9
$DIMALTD
 70
     4
  9
$DIMALTF
 40
0.0394
  9
$DIMLFAC
 40
1.0
  9
$DIMTOFL
 70
     1
  9
$DIMTVP
 40
0.0
  9
$DIMTIX
 70
     0
  9
$DIMSOXD
 70
     0
  9
$DIMSAH
 70
     1
  9
$DIMBLK1
  1
OPEN30
  9
$DIMBLK2
  1
OPEN30
  9
$DIMSTYLE
  2
STANDARD
  9
$DIMCLRD
 70
     0
  9
$DIMCLRE
 70
     0
  9
$DIMCLRT
 70
     0
  9
$DIMTFAC
 40
1.0
  9
$DIMGAP
 40
1.0
  9
$DIMJUST
 70
     0
  9
$DIMSD1
 70
     0
  9
$DIMSD2
 70
     0
  9
$DIMTOLJ
 70
     1
  9
$DIMTZIN
 70
     8
  9
$DIMALTZ
 70
     0
  9
$DIMALTTZ
 70
     0
  9
$DIMUPT
 70
     0
  9
$DIMDEC
 70
     1
  9
$DIMTDEC
 70
     1
  9
$DIMALTU
 70
     8
  9
$DIMALTTD
 70
     4
  9
$DIMTXSTY
  7
STANDARD
  9
$DIMAUNIT
 70
     0
  9
$DIMADEC
 70
     0
  9
$DIMALTRND
 40
0.0
  9
$DIMAZIN
 70
     0
  9
$DIMDSEP
 70
    46
  9
$DIMATFIT
 70
     3
  9
$DIMFRAC
 70
     0
  9
$DIMLDRBLK
  1
OPEN30
  9
$DIMLUNIT
 70
     2
  9
$DIMLWD
 70
    -2
  9
$DIMLWE
 70
    -2
  9
$DIMTMOVE
 70
     0
  9
$LUNITS
 70
     2
  9
$LUPREC
 70
     2
  9
$SKETCHINC
 40
1.0
  9
$FILLETRAD
 40
10.0
  9
$AUNITS
 70
     0
  9
$AUPREC
 70
     0
  9
$MENU
  1
.
  9
$ELEVATION
 40
0.0
  9
$PELEVATION
 40
0.0
  9
$THICKNESS
 40
0.0
  9
$LIMCHECK
 70
     0
  9
$CHAMFERA
 40
10.0
  9
$CHAMFERB
 40
10.0
  9
$CHAMFERC
 40
20.0
  9
$CHAMFERD
 40
0.0
  9
$SKPOLY
 70
     0
  9
$TDCREATE
 40
2451324.468257373
  9
$TDUCREATE
 40
2451324.093257373
  9
$TDUPDATE
 40
2455894.654203518
  9
$TDUUPDATE
 40
2455894.279203519
  9
$TDINDWG
 40
2.1062804745
  9
$TDUSRTIMER
 40
2.1062788310
  9
$USRTIMER
 70
     1
  9
$ANGBASE
 50
0.0
  9
$ANGDIR
 70
     0
  9
$PDMODE
 70
     0
  9
$PDSIZE
 40
0.0
  9
$PLINEWID
 40
0.0
  9
$SPLFRAME
 70
     0
  9
$SPLINETYPE
 70
     6
  9
$SPLINESEGS
 70
     8
  9
$HANDSEED
  5
2D97
  9
$SURFTAB1
 70
     6
  9
$SURFTAB2
 70
     6
  9
$SURFTYPE
 70
     6
  9
$SURFU
 70
     6
  9
$SURFV
 70
     6
  9
$UCSBASE
  2

  9
$UCSNAME
  2

  9
$UCSORG
 10
0.0
 20
0.0
 30
0.0
  9
$UCSXDIR
 10
1.0
 20
0.0
 30
0.0
  9
$UCSYDIR
 10
0.0
 20
1.0
 30
0.0
  9
$UCSORTHOREF
  2

  9
$UCSORTHOVIEW
 70
     0
  9
$UCSORGTOP
 10
0.0
 20
0.0
 30
0.0
  9
$UCSORGBOTTOM
 10
0.0
 20
0.0
 30
0.0
  9
$UCSORGLEFT
 10
0.0
 20
0.0
 30
0.0
  9
$UCSORGRIGHT
 10
0.0
 20
0.0
 30
0.0
  9
$UCSORGFRONT
 10
0.0
 20
0.0
 30
0.0
  9
$UCSORGBACK
 10
0.0
 20
0.0
 30
0.0
  9
$PUCSBASE
  2

  9
$PUCSNAME
  2

  9
$PUCSORG
 10
0.0
 20
0.0
 30
0.0
  9
$PUCSXDIR
 10
1.0
 20
0.0
 30
0.0
  9
$PUCSYDIR
 10
0.0
 20
1.0
 30
0.0
  9
$PUCSORTHOREF
  2

  9
$PUCSORTHOVIEW
 70
     0
  9
$PUCSORGTOP
 10
0.0
 20
0.0
 30
0.0
  9
$PUCSORGBOTTOM
 10
0.0
 20
0.0
 30
0.0
  9
$PUCSORGLEFT
 10
0.0
 20
0.0
 30
0.0
  9
$PUCSORGRIGHT
 10
0.0
 20
0.0
 30
0.0
  9
$PUCSORGFRONT
 10
0.0
 20
0.0
 30
0.0
  9
$PUCSORGBACK
 10
0.0
 20
0.0
 30
0.0
  9
$USERI1
 70
     0
  9
$USERI2
 70
     0
  9
$USERI3
 70
     0
  9
$USERI4
 70
     0
  9
$USERI5
 70
     0
  9
$USERR1
 40
0.0
  9
$USERR2
 40
0.0
  9
$USERR3
 40
0.0
  9
$USERR4
 40
0.0
  9
$USERR5
 40
0.0
  9
$WORLDVIEW
 70
     1
  9
$SHADEDGE
 70
     3
  9
$SHADEDIF
 70
    70
  9
$TILEMODE
 70
     1
  9
$MAXACTVP
 70
    48
  9
$PINSBASE
 10
0.0
 20
0.0
 30
0.0
  9
$PLIMCHECK
 70
     0
  9
$PEXTMIN
 10
-1439.804583653114
 20
-1400.237631316938
 30
0.0
  9
$PEXTMAX
 10
2872.968780515991
 20
1675.790811506817
 30
0.0
  9
$PLIMMIN
 10
0.0
 20
0.0
  9
$PLIMMAX
 10
12.0
 20
9.0
  9
$UNITMODE
 70
     0
  9
$VISRETAIN
 70
     1
  9
$PLINEGEN
 70
     0
  9
$PSLTSCALE
 70
     1
  9
$TREEDEPTH
 70
  3020
  9
$CMLSTYLE
  2
STANDARD
  9
$CMLJUST
 70
     0
  9
$CMLSCALE
 40
20.0
  9
$PROXYGRAPHICS
 70
     1
  9
$MEASUREMENT
 70
     1
  9
$CELWEIGHT
370
    -1
  9
$ENDCAPS
280
     0
  9
$JOINSTYLE
280
     0
  9
$LWDISPLAY
290
     0
  9
$INSUNITS
 70
     0
  9
$HYPERLINKBASE
  1

  9
$STYLESHEET
  1

  9
$XEDIT
290
     1
  9
$CEPSNTYPE
380
     0
  9
$PSTYLEMODE
290
     1
  9
$FINGERPRINTGUID
  2
{7B48495B-9D62-4076-8CB1-8ACA882609AE}
  9
$VERSIONGUID
  2
{976F766E-2C77-4154-A0C8-D41B3FE41DDF}
  9
$EXTNAMES
290
     1
  9
$PSVPSCALE
 40
0.0
  9
$OLESTARTUP
290
     0
  0
ENDSEC
  0
SECTION
  2
CLASSES
  0
CLASS
  1
ACDBDICTIONARYWDFLT
  2
AcDbDictionaryWithDefault
  3
ObjectDBX Classes
 90
        0
280
     0
281
     0
  0
CLASS
  1
ACDBPLACEHOLDER
  2
AcDbPlaceHolder
  3
ObjectDBX Classes
 90
        0
280
     0
281
     0
  0
CLASS
  1
LAYOUT
  2
AcDbLayout
  3
ObjectDBX Classes
 90
        0
280
     0
281
     0
  0
CLASS
  1
ACME_DOCUMENT
  2
AcMeDbDoc
  3
AcMeServices
 90
     1024
280
     0
281
     0
  0
CLASS
  1
AMGSETTINGSOBJ
  2
AmgSettingsObj
  3
"AcadM|Product Description: AutoCAD Mechanical|Company: Autodesk, Inc."
 90
     1024
280
     0
281
     0
  0
CLASS
  1
ACMESCOPE
  2
AcMeScope
  3
AcMeServices
 90
     1024
280
     0
281
     0
  0
CLASS
  1
ACMECOMMANDHISTORY
  2
AcMeCommandHistory
  3
AcMeServices
 90
     1024
280
     0
281
     0
  0
CLASS
  1
DICTIONARYVAR
  2
AcDbDictionaryVar
  3
ObjectDBX Classes
 90
        0
280
     0
281
     0
  0
CLASS
  1
ACIMSYSVARMAN
  2
AcImSysVarManager
  3
AcMeServices
 90
     1024
280
     0
281
     0
  0
CLASS
  1
ACIMREALSYSVAR
  2
AcImRealSysVar
  3
AcMeServices
 90
     1024
280
     0
281
     0
  0
CLASS
  1
ACIMINTSYSVAR
  2
AcImIntSysVar
  3
AcMeServices
 90
     1024
280
     0
281
     0
  0
CLASS
  1
ACMEDRAWINGMAN
  2
AcMeDrawingMan
  3
AcMeServices
 90
     1024
280
     0
281
     0
  0
CLASS
  1
ACMEVIEW
  2
AcMeView
  3
AcMeServices
 90
     1024
280
     0
281
     0
  0
CLASS
  1
ACDBENTITYCACHE
  2
AcMeEntityCache
  3
AcMeServices
 90
     1024
280
     0
281
     0
  0
CLASS
  1
GSMANAGER
  2
AcMeGSManager
  3
AcMeServices
 90
     1024
280
     0
281
     0
  0
CLASS
  1
AMDTINTERNALREACTOR
  2
AmdtInternalReactor
  3
AcMeServices
 90
     1024
280
     0
281
     0
  0
CLASS
  1
ACMESTATEMGR
  2
AcMeStateMgr
  3
AcMeServices
 90
     1024
280
     0
281
     0
  0
CLASS
  1
ACGREFMASTER
  2
AcGrefMaster
  3
AcAttribServices
 90
     1024
280
     0
281
     0
  0
CLASS
  1
AM_DRAWING_MGR
  2
AcDmDwgMgr
  3
AcMechDwgViewMgmt
 90
     1024
280
     0
281
     0
  0
CLASS
  1
AM_DWG_DOCUMENT
  2
AcDmDwgDocument
  3
AcMechDwgViewMgmt
 90
     1024
280
     0
281
     0
  0
CLASS
  1
AM_DWG_SHEET
  2
AcDmSheet
  3
AcMechDwgViewMgmt
 90
     1024
280
     0
281
     0
  0
CLASS
  1
AM_VIEWDIMPARMAP
  2
AcDmViewDimParMap
  3
AcMechDwgViewMgmt
 90
     1024
280
     0
281
     0
  0
CLASS
  1
AM_DWGMGR_NAME
  2
AcDmDwgMgrName
  3
AcMechDwgViewMgmt
 90
     1024
280
     0
281
     0
  0
CLASS
  1
ACME_DATABASE
  2
AcMeDbDatabase
  3
AcMeServices
 90
     1024
280
     0
281
     0
  0
CLASS
  1
ACRFINSADJUSTERMGR
  2
AcRfInsAdjusterMgr
  3
AcMeServices
 90
     1024
280
     0
281
     0
  0
CLASS
  1
ACGREFACADMASTER
  2
AcGrefacadMaster
  3
AcGrefServices
 90
     1024
280
     0
281
     0
  0
CLASS
  1
AMDTMENUSTATEMGR
  2
AmdtMenuStateMgr
  3
McadcomServices
 90
     1024
280
     0
281
     0
  0
CLASS
  1
AMDTMCOMMENUSTATE
  2
AmdtMcomMenuState
  3
McadcomServices
 90
     1024
280
     0
281
     0
  0
CLASS
  1
AMIMASTER
  2
AmiMaster
  3
AmiServices
 90
     1024
280
     0
281
     0
  0
CLASS
  1
ASAPP
  2
AcAsAppObject
  3
AutoSurfServices
 90
     1024
280
     0
281
     0
  0
CLASS
  1
IM_STATIC_MAN
  2
AcImStaticVarManager
  3
AcMeServices
 90
     1024
280
     0
281
     0
  0
CLASS
  1
ACIMSTRSYSVAR
  2
AcImStrSysVar
  3
AcMeServices
 90
     1024
280
     0
281
     0
  0
CLASS
  1
ACIMDBLSTATICVAR
  2
AcImDblStaticVar
  3
AcMeServices
 90
     1024
280
     0
281
     0
  0
CLASS
  1
ACIMSTRSTATICVAR
  2
AcImStrStaticVar
  3
AcMeServices
 90
     1024
280
     0
281
     0
  0
CLASS
  1
ACIMINTSTATICVAR
  2
AcImIntStaticVar
  3
AcMeServices
 90
     1024
280
     0
281
     0
  0
CLASS
  1
ACASGREFMASTER
  2
AcAsGrefMaster
  3
AutoSurfResolverServices
 90
     1024
280
     0
281
     0
  0
CLASS
  1
ACADGREFMODULE
  2
AcAdGrefModule
  3
AdGrefServices
 90
     1024
280
     0
281
     0
  0
CLASS
  1
AMDTMAPISURFMOUDULE
  2
AmdtMApiSurfModule
  3
MApiSurfServices
 90
     1024
280
     0
281
     0
  0
CLASS
  1
MAPIAMMOUDLE
  2
MApiAmModule
  3
MApiAmServices
 90
     1024
280
     0
281
     0
  0
CLASS
  1
AMDTADMENUSTATE
  2
AmdtAdMenuState
  3
DesignerServices
 90
     1024
280
     0
281
     0
  0
CLASS
  1
ADAPPL
  2
AcAdAppl
  3
DesignerServices
 90
     1024
280
     0
281
     0
  0
CLASS
  1
DEPMGR
  2
AcAdDepMgr
  3
DesignerServices
 90
     1024
280
     0
281
     0
  0
CLASS
  1
PARAMMGR
  2
AcAdParamMgr
  3
DesignerServices
 90
     1024
280
     0
281
     0
  0
CLASS
  1
PARAMSCOPE
  2
AcAdParamScope
  3
DesignerServices
 90
     1024
280
     0
281
     0
  0
CLASS
  1
NAMEDAPPL
  2
AcAdNamedAppl
  3
DesignerServices
 90
     1024
280
     0
281
     0
  0
CLASS
  1
ADHNTMPLT
  2
AdHoleNoteTemplateMgr
  3
DesignerServices
 90
    33792
280
     0
281
     0
  0
CLASS
  1
AM_HNTEMPLATE_MGR_NAME
  2
AdHoleNoteTemplateMgrName
  3
DesignerServices
 90
    33792
280
     0
281
     0
  0
CLASS
  1
AMDTDMMENUSTATE
  2
AmdtDmMenuState
  3
AcMechDwgViewMgmt
 90
     1024
280
     0
281
     0
  0
CLASS
  1
MAPIADMODULE
  2
MApiAdModule
  3
MApiAdServices
 90
     1024
280
     0
281
     0
  0
CLASS
  1
AMDTAMMENUSTATE
  2
AmdtAmMenuState
  3
DesignerAssemblies
 90
     1024
280
     0
281
     0
  0
CLASS
  1
ACAMPROJECT
  2
AcAmProject
  3
DesignerAssemblies
 90
     1024
280
     0
281
     0
  0
CLASS
  1
ACAMGRCOMPDEF
  2
AcAmGrCompDef
  3
DesignerAssemblies
 90
     1024
280
     0
281
     0
  0
CLASS
  1
ACCMCONTEXT
  2
AcCmContext
  3
DesignerAssemblies
 90
     1024
280
     0
281
     0
  0
CLASS
  1
ACAMCOMPDEF
  2
AcAmCompDef
  3
DesignerAssemblies
 90
     1024
280
     0
281
     0
  0
CLASS
  1
ACAMCOMPDEFMGR
  2
AcAmCompDefMgr
  3
DesignerAssemblies
 90
     1024
280
     0
281
     0
  0
CLASS
  1
AMCONTEXTMGR
  2
AcAmContextMgr
  3
DesignerAssemblies
 90
     1024
280
     0
281
     0
  0
CLASS
  1
ACAMCONTEXTMODELER
  2
AcAmContextModeler
  3
DesignerAssemblies
 90
     1024
280
     0
281
     0
  0
CLASS
  1
ACMDATADICTIONARY
  2
AcmDataDictionary
  3
"AcmSymBB|Product Description: AutoCAD Mechanical|Company: Autodesk, Inc."
 90
     1024
280
     0
281
     0
  0
CLASS
  1
ACMDATAENTRYBLOCK
  2
AcmDataEntryBlock
  3
AcmSymBB|Product Description: AutoCAD Mechanical|Company: Autodesk, Inc.
 90
     1024
280
     0
281
     0
  0
CLASS
  1
CATALOGSTATE
  2
AcAmCatalogState
  3
DesignerAssemblies
 90
     1024
280
     0
281
     0
  0
CLASS
  1
ACAMGRCOMPDEFSET
  2
AcAmGrCompDefSet
  3
DesignerAssemblies
 90
     1024
280
     0
281
     0
  0
CLASS
  1
AMDTBROWSERDBTAB
  2
AmdtBrowserDbTab
  3
McadcomServices
 90
     1024
280
     0
281
     0
  0
CLASS
  1
CBROWSERAPPOBJECT
  2
CBrowserAppObject
  3
McadcomServices
 90
     1024
280
     0
281
     0
  0
CLASS
  1
DM_PLACEHOLDER
  2
AcDmSelsetPlaceholder
  3
AcMechDwgViewMgmt
 90
     1024
280
     0
281
     0
  0
CLASS
  1
ACMSTANDARDISO
  2
AcmStandardISO
  3
"Amdt_StdImp|Product Description: AutoCAD Mechanical|Company: Autodesk, Inc."
 90
     1024
280
     0
281
     0
  0
CLASS
  1
AMGOBJPROPCFG
  2
AmgObjPropCfg
  3
"AmgLay|Product Description: AutoCAD Mechanical|Company: Autodesk, Inc."
 90
     1025
280
     0
281
     0
  0
CLASS
  1
AMDTEDGESTANDARDISO
  2
AmdtEdgeStdISO
  3
"Amdt_StdImp|Product Description: AutoCAD Mechanical|Company: Autodesk, Inc."
 90
    33792
280
     0
281
     0
  0
CLASS
  1
ACMSURFSTANDARDISO
  2
AcmSurfTextStdISO
  3
"Amdt_StdImp|Product Description: AutoCAD Mechanical|Company: Autodesk, Inc."
 90
    33792
280
     0
281
     0
  0
CLASS
  1
ACMFCFSTANDARDISO
  2
AcmFCFStdISO
  3
"Amdt_StdImp|Product Description: AutoCAD Mechanical|Company: Autodesk, Inc."
 90
     1024
280
     0
281
     0
  0
CLASS
  1
ACMWELDSTANDARDISO
  2
AcmWeldingStdISO
  3
"Amdt_StdImp|Product Description: AutoCAD Mechanical|Company: Autodesk, Inc."
 90
     1024
280
     0
281
     0
  0
CLASS
  1
ACMIDSTANDARDISO
  2
AcmIdStdISO
  3
"Amdt_StdImp|Product Description: AutoCAD Mechanical|Company: Autodesk, Inc."
 90
     1024
280
     0
281
     0
  0
CLASS
  1
ACMDATUMSTANDARDISO
  2
AcmDatumStdISO
  3
"Amdt_StdImp|Product Description: AutoCAD Mechanical|Company: Autodesk, Inc."
 90
     1024
280
     0
281
     0
  0
CLASS
  1
ACMBOMSTANDARDISO
  2
AcmBOMStdISO
  3
"Amdt_StdImp|Product Description: AutoCAD Mechanical|Company: Autodesk, Inc."
 90
     1024
280
     0
281
     0
  0
CLASS
  1
ACMDETAILSTANDARDISO
  2
AmdtDetailSymStdISO
  3
"Amdt_StdImp|Product Description: AutoCAD Mechanical|Company: Autodesk, Inc."
 90
     1024
280
     0
281
     0
  0
CLASS
  1
ACMSECTIONSTANDARDISO
  2
AmdtSectionSymStdISO
  3
"Amdt_StdImp|Product Description: AutoCAD Mechanical|Company: Autodesk, Inc."
 90
    33792
280
     0
281
     0
  0
CLASS
  1
ACMCENTERLINESTANDARDISO
  2
AmdtCenterLineStdISO
  3
"Amdt_StdImp|Product Description: AutoCAD Mechanical|Company: Autodesk, Inc."
 90
     1024
280
     0
281
     0
  0
CLASS
  1
ACMTHREADLINESTANDARDISO
  2
AmdtThreadLineStdISO
  3
"Amdt_StdImp|Product Description: AutoCAD Mechanical|Company: Autodesk, Inc."
 90
     1024
280
     0
281
     0
  0
CLASS
  1
ACAMGLAYSTD
  2
AcAmgLayStd
  3
"AmgLay|Product Description: AutoCAD Mechanical|Company: Autodesk, Inc."
 90
     1024
280
     0
281
     0
  0
CLASS
  1
ACAMGDIMSTD
  2
AcAmgDimStd
  3
"AmgDim|Product Description: AutoCAD Mechanical|Company: Autodesk, Inc."
 90
     1024
280
     0
281
     0
  0
CLASS
  1
ACAMGTITLESTD
  2
AcAmgTitleStd
  3
"AmgTitle|Product Description: AutoCAD Mechanical|Company: Autodesk, Inc."
 90
     4095
280
     0
281
     0
  0
CLASS
  1
ACAMGFILTERDAT
  2
AcAmgFilterDat
  3
"AcadM|Product Description: AutoCAD Mechanical|Company: Autodesk, Inc."
 90
     1024
280
     0
281
     0
  0
CLASS
  1
AMDTFORMULAUPDATEDISPATCHER
  2
AmdtFormulaUpdateDispatcher
  3
AcMeServices
 90
    33792
280
     0
281
     0
  0
CLASS
  1
LAYER_INDEX
  2
AcDbLayerIndex
  3
ObjectDBX Classes
 90
        0
280
     0
281
     0
  0
CLASS
  1
IDBUFFER
  2
AcDbIdBuffer
  3
ObjectDBX Classes
 90
        0
280
     0
281
     0
  0
CLASS
  1
TABLESTYLE
  2
AcDbTableStyle
  3
ObjectDBX Classes
 90
     4095
280
     0
281
     0
  0
CLASS
  1
ACMNOTESTANDARDISO
  2
AmdtNoteStdISO
  3
"Amdt_StdImp|Product Description: AutoCAD Mechanical|Company: Autodesk, Inc."
 90
     1024
280
     0
281
     0
  0
CLASS
  1
AMDTNOTETEMPLATEDB
  2
AmdtNoteTemplateDB
  3
AcmSymBB|Product Description: AutoCAD Mechanical|Company: Autodesk, Inc.
 90
     1024
280
     0
281
     0
  0
CLASS
  1
ACAMEXTERNALCOMPDEF
  2
AcAmExternalCompDef
  3
DesignerAssemblies
 90
    33792
280
     0
281
     0
  0
CLASS
  1
ACCMBODY
  2
AcCmBody
  3
DesignerAssemblies
 90
    33792
280
     0
281
     0
  0
CLASS
  1
ACAMCOMPENT
  2
AcAmCompEnt
  3
DesignerAssemblies
 90
    33792
280
     0
281
     1
  0
CLASS
  1
ACAMCOMPFEEDBACK
  2
AcAmCompFeedback
  3
DesignerAssemblies
 90
    33792
280
     0
281
     0
  0
CLASS
  1
ACAMCOMP
  2
AcAmComp
  3
DesignerAssemblies
 90
    33792
280
     0
281
     0
  0
CLASS
  1
ACAMCOMPENTCLONE
  2
AcAmCompEntClone
  3
DesignerAssemblies
 90
    33792
280
     0
281
     1
  0
CLASS
  1
ACAMCLONEREACTOR
  2
AcAmGrCompCloneReactor
  3
DesignerAssemblies
 90
    33792
280
     0
281
     0
  0
CLASS
  1
EDGEID
  2
AcAdEdgeId
  3
DesignerServices
 90
    33792
280
     0
281
     0
  0
CLASS
  1
ACADPARTLINEDGRES
  2
AcAdPartLinEdgRes
  3
AdGrefServices
 90
    33792
280
     0
281
     0
  0
CLASS
  1
ACRFINSADJ
  2
AcRfInsAdjuster
  3
AcMeServices
 90
    33792
280
     0
281
     0
  0
CLASS
  1
STREFID
  2
AcAdStraightRefId
  3
DesignerServices
 90
    33792
280
     0
281
     0
  0
CLASS
  1
ACMEAXIS
  2
AcImAxisDisplay
  3
AcMeServices
 90
    33792
280
     0
281
     1
  0
CLASS
  1
FACEID
  2
AcAdFaceId
  3
DesignerServices
 90
    33792
280
     0
281
     0
  0
CLASS
  1
DEPEDGESECONDARYDEPID
  2
AcAdDepEdgeSecondaryDepId
  3
DesignerServices
 90
    33792
280
     0
281
     0
  0
CLASS
  1
ACADPARTPLANARFACERES
  2
AcAdPartPlanarFaceRes
  3
AdGrefServices
 90
    33792
280
     0
281
     0
  0
CLASS
  1
ACMEPOINT
  2
AcImPointDisplay
  3
AcMeServices
 90
    33792
280
     0
281
     1
  0
CLASS
  1
ACMELINEARARROW
  2
AcImLinearArrowDisplay
  3
AcMeServices
 90
    33792
280
     0
281
     1
  0
CLASS
  1
ACAMEXPR
  2
AcAmExpr
  3
DesignerAssemblies
 90
    33792
280
     0
281
     0
  0
CLASS
  1
ACCMDISTPLPL
  2
AcCmDistPlPl
  3
DesignerAssemblies
 90
    33792
280
     0
281
     0
  0
CLASS
  1
ACCMCONSTREACTOR
  2
AcCmConstraintReactor
  3
DesignerAssemblies
 90
    33792
280
     0
281
     0
  0
CLASS
  1
ACCMDISTPTLN
  2
AcCmDistPtLn
  3
DesignerAssemblies
 90
    33792
280
     0
281
     0
  0
CLASS
  1
AM_VIEW_SELECT_FILTER
  2
AcDmSelectViewEntFilter
  3
AcMechDwgViewMgmt
 90
    33792
280
     0
281
     0
  0
CLASS
  1
AM_GREF_PLANE
  2
AcDmGrefPlnDef
  3
AcMechDwgViewMgmt
 90
    33792
280
     0
281
     0
  0
CLASS
  1
AM_GREF_AXIS
  2
AcDmGrefAxisDef
  3
AcMechDwgViewMgmt
 90
    33792
280
     0
281
     0
  0
CLASS
  1
AM_BASE_VIEW_ORIENT
  2
AcDmBaseViewOr
  3
AcMechDwgViewMgmt
 90
    33792
280
     0
281
     0
  0
CLASS
  1
AM_DWG_VIEWPORT
  2
AcDmViewport
  3
AcMechDwgViewMgmt
 90
    33792
280
     0
281
     0
  0
CLASS
  1
AM_VIEW_DISPLAY
  2
AcDmDwgViewDisplay
  3
AcMechDwgViewMgmt
 90
    33792
280
     0
281
     0
  0
CLASS
  1
AM_CLDFLTS
  2
AcDmClDflts
  3
AcMechDwgViewMgmt
 90
    33792
280
     0
281
     0
  0
CLASS
  1
AM_BASE_VIEW
  2
AcDmBaseView
  3
AcMechDwgViewMgmt
 90
    33792
280
     0
281
     0
  0
CLASS
  1
ACMEPLINE
  2
AcImPlineDisplay
  3
AcMeServices
 90
    33792
280
     0
281
     1
  0
CLASS
  1
ACDMPARTVIEWDATA
  2
AcDmPartViewData
  3
AcMechDwgViewMgmt
 90
    33792
280
     0
281
     0
  0
CLASS
  1
ACDMDISPLAYATTRIBS
  2
AcDmDisplayAttribs
  3
AcMechDwgViewMgmt
 90
    33792
280
     0
281
     0
  0
CLASS
  1
ACDMBODYINSTANCEDATA
  2
AcDmBodyInstanceData
  3
AcMechDwgViewMgmt
 90
    33792
280
     0
281
     0
  0
CLASS
  1
ACDMVWEDLINE
  2
AcDmViewEdgeLine
  3
AcMechDwgViewMgmt
 90
    33792
280
     0
281
     1
  0
CLASS
  1
ACDMVWEDARC
  2
AcDmViewEdgeArc
  3
AcMechDwgViewMgmt
 90
    33792
280
     0
281
     1
  0
CLASS
  1
AM_ISO_VIEW_ORIENT
  2
AcDmIsoViewOr
  3
AcMechDwgViewMgmt
 90
    33792
280
     0
281
     0
  0
CLASS
  1
AM_ISO_VIEW
  2
AcDmIsoView
  3
AcMechDwgViewMgmt
 90
    33792
280
     0
281
     0
  0
CLASS
  1
AM_ORTHO_VIEW_ORIENT
  2
AcDmOrthoViewOr
  3
AcMechDwgViewMgmt
 90
    33792
280
     0
281
     0
  0
CLASS
  1
AM_ORTHO_VIEW
  2
AcDmOrthoView
  3
AcMechDwgViewMgmt
 90
    33792
280
     0
281
     0
  0
CLASS
  1
ACAMVIEWREACTOR
  2
AcAmViewReactor
  3
DesignerAssemblies
 90
    33792
280
     0
281
     0
  0
CLASS
  1
AMVIEW
  2
AcAmView
  3
DesignerAssemblies
 90
    33792
280
     0
281
     0
  0
CLASS
  1
ACAMVIEWCONTEXT
  2
AcAmViewContext
  3
DesignerAssemblies
 90
    33792
280
     0
281
     0
  0
CLASS
  1
ACAMCOMPENTVIEW
  2
AcAmCompEntView
  3
DesignerAssemblies
 90
    33792
280
     0
281
     1
  0
CLASS
  1
ACAMCOMPVIEWREACTOR
  2
AcAmGrCompViewReactor
  3
DesignerAssemblies
 90
    33792
280
     0
281
     0
  0
CLASS
  1
ACAMVIEWENTITYFILTER
  2
AcAmViewEntityFilter
  3
DesignerAssemblies
 90
    33792
280
     0
281
     0
  0
CLASS
  1
ACDMVWEDCIRC
  2
AcDmViewEdgeCircle
  3
AcMechDwgViewMgmt
 90
    33792
280
     0
281
     1
  0
CLASS
  1
AM_ADCIRCTRLINE
  2
AcAdBullsEyeCl
  3
DesignerServices
 90
    33792
280
     0
281
     0
  0
CLASS
  1
AM_ADLINCTRLINE
  2
AcAdLineCl
  3
DesignerServices
 90
    33792
280
     0
281
     0
  0
CLASS
  1
ACDMVIEWGEOM
  2
AcDmViewGeometry
  3
AcMechDwgViewMgmt
 90
    33792
280
     0
281
     1
  0
CLASS
  1
ACCMDISTLNLN
  2
AcCmDistLnLn
  3
DesignerAssemblies
 90
    33792
280
     0
281
     0
  0
CLASS
  1
ACAMXREFCONTEXTMODELER
  2
AcAmXrefContextModeler
  3
DesignerAssemblies
 90
    33792
280
     0
281
     0
  0
CLASS
  1
CNRREFID
  2
AcAdCornerId
  3
DesignerServices
 90
    33792
280
     0
281
     0
  0
CLASS
  1
ACADPARTPOINTRES
  2
AcAdPartPointRes
  3
AdGrefServices
 90
    33792
280
     0
281
     0
  0
CLASS
  1
AM_VIEWDIMLINEAR
  2
AcDmViewDimLinear
  3
AcMechDwgViewMgmt
 90
    33792
280
     0
281
     0
  0
CLASS
  1
PARAM
  2
AcAdParam
  3
DesignerServices
 90
    33792
280
     0
281
     0
  0
CLASS
  1
SORTENTSTABLE
  2
AcDbSortentsTable
  3
ObjectDBX Classes
 90
        0
280
     0
281
     0
  0
CLASS
  1
ACADPARTCIRCEDGRES
  2
AcAdPartCircEdgRes
  3
AdGrefServices
 90
    33792
280
     0
281
     0
  0
CLASS
  1
AM_VIEWDIMRADIUS
  2
AcDmViewDimRadius
  3
AcMechDwgViewMgmt
 90
    33792
280
     0
281
     0
  0
CLASS
  1
DEPEDGEPATTERNINSTANCE
  2
AcAdDepEdgePatternInstance
  3
DesignerServices
 90
    33792
280
     0
281
     0
  0
CLASS
  1
FEEDBACK
  2
AcAmFeedback
  3
DesignerAssemblies
 90
    33792
280
     0
281
     1
  0
CLASS
  1
ACAMTRIAXISSYMBOL
  2
AcAmTriAxisSymbol
  3
DesignerAssemblies
 90
    33792
280
     0
281
     0
  0
CLASS
  1
ACAMTEXTCIRCLESYMBOL
  2
AcAmTextCircleSymbol
  3
DesignerAssemblies
 90
    33792
280
     0
281
     0
  0
CLASS
  1
ACDMVISEDIT
  2
AcDmViewEntityVisEdit
  3
AcMechDwgViewMgmt
 90
    33792
280
     0
281
     0
  0
CLASS
  1
SILEDGEID
  2
AcAdSilhouetteEdgeId
  3
DesignerServices
 90
    33792
280
     0
281
     0
  0
CLASS
  1
MATERIAL
  2
AcDbMaterial
  3
ObjectDBX Classes
 90
     1153
280
     0
281
     0
  0
CLASS
  1
VISUALSTYLE
  2
AcDbVisualStyle
  3
ObjectDBX Classes
 90
     4095
280
     0
281
     0
  0
CLASS
  1
SCALE
  2
AcDbScale
  3
ObjectDBX Classes
 90
     1153
280
     0
281
     0
  0
CLASS
  1
MLEADERSTYLE
  2
AcDbMLeaderStyle
  3
ACDB_MLEADERSTYLE_CLASS
 90
     4095
280
     0
281
     0
  0
CLASS
  1
EXACTERMXREFMAP
  2
ExAcTermXrefMap
  3
EXAC_SERVICE
 90
    33793
280
     0
281
     0
  0
CLASS
  1
NPOCOLLECTION
  2
AcDbImpNonPersistentObjectsCollection
  3
ObjectDBX Classes
 90
     1153
280
     0
281
     0
  0
CLASS
  1
ACRFATTGENMGR
  2
AcRfAttGeneralMgr
  3
AcAttribServices
 90
     1024
280
     0
281
     0
  0
CLASS
  1
ACRFOBJATTMGR
  2
AcRfObjAttGroupMgr
  3
AcAttribServices
 90
     1024
280
     0
281
     0
  0
CLASS
  1
ACRFMCADAPIATTHOLDER
  2
AcRfMCADAPIAttHolder
  3
AcAttribServices
 90
     1024
280
     0
281
     0
  0
CLASS
  1
AMDTSYSATTR
  2
AmdtSystemAttribute
  3
AcAttribServices
 90
     1024
280
     0
281
     0
  0
CLASS
  1
ACMTAPERSTANDARDISO
  2
AcmTaperStdISO
  3
"Amdt_StdImp|Product Description: AutoCAD Mechanical|Company: Autodesk, Inc."
 90
     1024
280
     0
281
     0
  0
CLASS
  1
ACMANOOTATIONVIEWSTANDARDISO
  2
AmdtAnViewStdISO
  3
"Amdt_StdImp|Product Description: AutoCAD Mechanical|Company: Autodesk, Inc."
 90
     1024
280
     0
281
     0
  0
CLASS
  1
SOLID_BACKGROUND
  2
AcDbSolidBackground
  3
SCENEOE
 90
     4095
280
     0
281
     0
  0
CLASS
  1
CELLSTYLEMAP
  2
AcDbCellStyleMap
  3
ObjectDBX Classes
 90
     1152
280
     0
281
     0
  0
CLASS
  1
AM_ABS_AXIS
  2
AcDmAbsAxisDef
  3
AcMechDwgViewMgmt
 90
    33792
280
     0
281
     0
  0
CLASS
  1
AM_ABS_PLANE
  2
AcDmAbsPlnDef
  3
AcMechDwgViewMgmt
 90
    33792
280
     0
281
     0
  0
CLASS
  1
MULTILEADER
  2
AcDbMLeader
  3
ACDB_MLEADER_CLASS
 90
     1025
280
     0
281
     1
  0
CLASS
  1
AMDTEDGESTANDARDISO13715
  2
AmdtEdgeStdISO13715
  3
"Amdt_StdImp|Product Description: AutoCAD Mechanical|Company: Autodesk, Inc."
 90
     1024
280
     0
281
     0
  0
CLASS
  1
ACMSURFSTANDARDISO2002
  2
AcmSurfTextStdISO2002
  3
"Amdt_StdImp|Product Description: AutoCAD Mechanical|Company: Autodesk, Inc."
 90
     1024
280
     0
281
     0
  0
CLASS
  1
ACMSECTIONSTANDARDISO2001
  2
AmdtSectionSymStdISO2001
  3
"Amdt_StdImp|Product Description: AutoCAD Mechanical|Company: Autodesk, Inc."
 90
     1024
280
     0
281
     0
  0
CLASS
  1
ACAMGHOLECHARTSTDISO
  2
AcAmgHoleChartStdISO
  3
AmgDim|Product Description: AutoCAD Mechanical|Company: Autodesk, Inc.
 90
     1024
280
     0
281
     0
  0
ENDSEC
  0
SECTION
  2
TABLES
  0
TABLE
  2
VPORT
  5
2A
330
0
100
AcDbSymbolTable
 70
     1
  0
VPORT
  5
C17
330
2A
100
AcDbSymbolTableRecord
100
AcDbViewportTableRecord
  2
*Active
 70
     0
 10
0.0
 20
0.0
 11
1.0
 21
1.0
 12
0.0
 22
0.0
 13
0.0
 23
0.0
 14
10.0
 24
10.0
 15
10.0
 25
10.0
 16
0.0
 26
0.0
 36
5211.95715117173
 17
9071.414296270544
 27
1543.333667955641
 37
0.0
 40
1505.096507265782
 41
1.672936259143155
 42
50.0
 43
0.0
 44
0.0
 50
0.0
 51
0.0
 71
     0
 72
  2000
 73
     1
 74
     0
 75
     0
 76
     0
 77
     0
 78
     0
281
     4
 65
     0
110
0.0
120
0.0
130
0.0
111
1.0
121
0.0
131
0.0
112
0.0
122
1.0
132
0.0
 79
     0
146
0.0
  0
ENDTAB
  0
TABLE
  2
LTYPE
  5
25
330
0
100
AcDbSymbolTable
 70
    12
  0
LTYPE
  5
26
330
25
100
AcDbSymbolTableRecord
100
AcDbLinetypeTableRecord
  2
BYBLOCK
 70
     0
  3

 72
    65
 73
     0
 40
0.0
  0
LTYPE
  5
27
330
25
100
AcDbSymbolTableRecord
100
AcDbLinetypeTableRecord
  2
BYLAYER
 70
     0
  3

 72
    65
 73
     0
 40
0.0
  0
LTYPE
  5
14
330
25
100
AcDbSymbolTableRecord
100
AcDbLinetypeTableRecord
  2
CONTINUOUS
 70
     0
  3
Solid line
 72
    65
 73
     0
 40
0.0
  0
LTYPE
  5
81
330
25
100
AcDbSymbolTableRecord
100
AcDbLinetypeTableRecord
  2
HIDDEN
 70
     0
  3
Hidden __ __ __ __ __ __ __ __ __ __ __ __ __ _
 72
    65
 73
     2
 40
0.375
 49
0.25
 74
     0
 49
-0.125
 74
     0
  0
LTYPE
  5
624
330
25
100
AcDbSymbolTableRecord
100
AcDbLinetypeTableRecord
  2
AM_ISO08W050
 70
     0
  3
____ . ____ . ____ . ____ . ____ . ____ . ____
 72
    65
 73
     4
 40
18.0
 49
12.0
 74
     0
 49
-1.5
 74
     0
 49
3.0
 74
     0
 49
-1.5
 74
     0
  0
LTYPE
  5
CB5
330
25
100
AcDbSymbolTableRecord
100
AcDbLinetypeTableRecord
  2
DASHDOT
 70
     0
  3
____ _ ____ _ ____ _ ____ _ ____ _ ____ _ ____
 72
    65
 73
     4
 40
5.5
 49
4.0
 74
     0
 49
-0.6
 74
     0
 49
0.3
 74
     0
 49
-0.6
 74
     0
  0
LTYPE
  5
12A4
330
25
100
AcDbSymbolTableRecord
100
AcDbLinetypeTableRecord
  2
PHANTOM2
 70
     0
  3
Phantom (.5x) ___ _ _ ___ _ _ ___ _ _ ___ _ _
 72
    65
 73
     6
 40
31.75
 49
15.875
 74
     0
 49
-3.174999999999998
 74
     0
 49
3.174999999999998
 74
     0
 49
-3.174999999999998
 74
     0
 49
3.174999999999998
 74
     0
 49
-3.174999999999998
 74
     0
  0
LTYPE
  5
12A5
330
25
100
AcDbSymbolTableRecord
100
AcDbLinetypeTableRecord
  2
CENTER
 70
     0
  3
Center ____ _ ____ _ ____ _ ____ _ ____ _ ____
 72
    65
 73
     4
 40
50.8
 49
31.75
 74
     0
 49
-6.349999999999997
 74
     0
 49
6.349999999999997
 74
     0
 49
-6.349999999999997
 74
     0
  0
LTYPE
  5
12F3
330
25
100
AcDbSymbolTableRecord
100
AcDbLinetypeTableRecord
  2
ASULTYPE
 70
     0
  3
実線
 72
    65
 73
     2
 40
3.0
 49
2.5
 74
     0
 49
0.5
 74
     0
  0
LTYPE
  5
12F4
330
25
100
AcDbSymbolTableRecord
100
AcDbLinetypeTableRecord
  2
ASVLTYPE
 70
     0
  3
__ __ __ __ __ __ __ __ __ __ __ __ __ __ __ __ __ __ __ __ __
 72
    65
 73
     2
 40
0.75
 49
0.5
 74
     0
 49
-0.25
 74
     0
  0
LTYPE
  5
1348
330
25
100
AcDbSymbolTableRecord
100
AcDbLinetypeTableRecord
  2
ACISOWELD
 70
     0
  3
_ _ _ _ _
 72
    65
 73
     2
 40
2.0
 49
2.0
 74
     0
 49
-1.0
 74
     0
  0
LTYPE
  5
1349
330
25
100
AcDbSymbolTableRecord
100
AcDbLinetypeTableRecord
  2
ACISOTGB
 70
     0
  3
__ . . __ . .
 72
    65
 73
     6
 40
9.0
 49
4.0
 74
     0
 49
-1.0
 74
     0
 49
1.0
 74
     0
 49
-1.0
 74
     0
 49
1.0
 74
     0
 49
-1.0
 74
     0
  0
LTYPE
  5
134A
330
25
100
AcDbSymbolTableRecord
100
AcDbLinetypeTableRecord
  2
ACISOTGL
 70
     0
  3
_ _ _ _ _
 72
    65
 73
     2
 40
3.0
 49
2.0
 74
     0
 49
-1.0
 74
     0
  0
LTYPE
  5
2390
330
25
100
AcDbSymbolTableRecord
100
AcDbLinetypeTableRecord
  2
DASHED
 70
     0
  3
Dashed __ __ __ __ __ __ __ __ __ __ __ __ __ _
 72
    65
 73
     2
 40
0.75
 49
0.5
 74
     0
 49
-0.25
 74
     0
  0
ENDTAB
  0
TABLE
  2
LAYER
  5
1F
102
{ACAD_XDICTIONARY
360
20
102
}
330
0
100
AcDbSymbolTable
 70
     8
  0
LAYER
  5
5
102
{ACAD_XDICTIONARY
360
6
102
}
330
1F
100
AcDbSymbolTableRecord
100
AcDbLayerTableRecord
  2
0
 70
     0
 62
     7
  6
CONTINUOUS
370
    -3
390
8
  0
LAYER
  5
B88
330
1F
100
AcDbSymbolTableRecord
100
AcDbLayerTableRecord
  2
Defpoints
 70
     0
 62
     7
  6
CONTINUOUS
290
     0
370
    -3
390
8
  0
LAYER
  5
CB6
102
{ACAD_XDICTIONARY
360
CB7
102
}
330
1F
100
AcDbSymbolTableRecord
100
AcDbLayerTableRecord
  2
SIZE
 70
     0
 62
    30
  6
CONTINUOUS
370
    -3
390
8
  0
LAYER
  5
CB8
102
{ACAD_XDICTIONARY
360
CB9
102
}
330
1F
100
AcDbSymbolTableRecord
100
AcDbLayerTableRecord
  2
OUTLINE
 70
     0
 62
     3
  6
CONTINUOUS
370
    -3
390
8
  0
LAYER
  5
CBC
102
{ACAD_XDICTIONARY
360
CBD
102
}
330
1F
100
AcDbSymbolTableRecord
100
AcDbLayerTableRecord
  2
BASIS
 70
     0
 62
     6
  6
DASHDOT
370
    -3
390
8
  0
LAYER
  5
CBE
102
{ACAD_XDICTIONARY
360
CBF
102
}
330
1F
100
AcDbSymbolTableRecord
100
AcDbLayerTableRecord
  2
NOTE
 70
     0
 62
     4
  6
CONTINUOUS
370
    -3
390
8
  0
LAYER
  5
CC0
102
{ACAD_XDICTIONARY
360
CC1
102
}
330
1F
100
AcDbSymbolTableRecord
100
AcDbLayerTableRecord
  2
ARRANGE
 70
     0
 62
     1
  6
CONTINUOUS
370
    -3
390
8
  0
LAYER
  5
CC2
102
{ACAD_XDICTIONARY
360
CC3
102
}
330
1F
100
AcDbSymbolTableRecord
100
AcDbLayerTableRecord
  2
ETC
 70
     0
 62
    61
  6
CONTINUOUS
370
    -3
390
8
  0
ENDTAB
  0
TABLE
  2
STYLE
  5
22
330
0
100
AcDbSymbolTable
 70
     4
  0
STYLE
  5
23
330
22
100
AcDbSymbolTableRecord
100
AcDbTextStyleTableRecord
  2
STANDARD
 70
     0
 40
0.0
 41
1.0
 50
0.0
 71
     0
 42
62.5215949741746
  3
romans.shx
  4
extfont.shx
  0
STYLE
  5
CC4
330
22
100
AcDbSymbolTableRecord
100
AcDbTextStyleTableRecord
  2
STANDARD1
 70
     0
 40
0.0
 41
1.0
 50
0.0
 71
     0
 42
3.5
  3
MONOTXT
  4
BIGFONT
  0
STYLE
  5
1338
330
22
100
AcDbSymbolTableRecord
100
AcDbTextStyleTableRecord
  2
ACISOTS
 70
     0
 40
1.0
 41
1.0
 50
0.0
 71
     0
 42
62.5215949741746
  3
isocp.shx
  4
extfont.shx
  0
STYLE
  5
1347
330
22
100
AcDbSymbolTableRecord
100
AcDbTextStyleTableRecord
  2
ACISOGDT
 70
     0
 40
0.0
 41
1.0
 50
0.0
 71
     0
 42
62.5215949741746
  3
amgdt.shx
  4

  0
ENDTAB
  0
TABLE
  2
VIEW
  5
28
330
0
100
AcDbSymbolTable
 70
     0
  0
ENDTAB
  0
TABLE
  2
UCS
  5
29
330
0
100
AcDbSymbolTable
 70
     0
  0
ENDTAB
  0
TABLE
  2
APPID
  5
2E
330
0
100
AcDbSymbolTable
 70
    24
  0
APPID
  5
2F
330
2E
100
AcDbSymbolTableRecord
100
AcDbRegAppTableRecord
  2
ACAD
 70
     0
  0
APPID
  5
38
330
2E
100
AcDbSymbolTableRecord
100
AcDbRegAppTableRecord
  2
ACAD_DSTYLE_DIMJOGGED_JOGANGLE_SYMBOL
 70
     0
  0
APPID
  5
7C
330
2E
100
AcDbSymbolTableRecord
100
AcDbRegAppTableRecord
  2
AcAecLayerStandard
 70
     0
  0
APPID
  5
1E
330
2E
100
AcDbSymbolTableRecord
100
AcDbRegAppTableRecord
  2
ACAD_PSEXT
 70
     0
  0
APPID
  5
AFF
330
2E
100
AcDbSymbolTableRecord
100
AcDbRegAppTableRecord
  2
ACATTRIBSERVICES
 70
     0
  0
APPID
  5
B18
330
2E
100
AcDbSymbolTableRecord
100
AcDbRegAppTableRecord
  2
ACAD_MLEADERVER
 70
     0
  0
APPID
  5
B21
330
2E
100
AcDbSymbolTableRecord
100
AcDbRegAppTableRecord
  2
ACAD_EXEMPT_FROM_CAD_STANDARDS
 70
     0
  0
APPID
  5
B5E
330
2E
100
AcDbSymbolTableRecord
100
AcDbRegAppTableRecord
  2
ACAD_DSTYLE_DIMJAG
 70
     0
  0
APPID
  5
B5F
330
2E
100
AcDbSymbolTableRecord
100
AcDbRegAppTableRecord
  2
ACAD_DSTYLE_DIMTALN
 70
     0
  0
APPID
  5
B6F
330
2E
100
AcDbSymbolTableRecord
100
AcDbRegAppTableRecord
  2
ACAD_DSTYLE_DIMEXT_LENGTH
 70
     0
  0
APPID
  5
1270
330
2E
100
AcDbSymbolTableRecord
100
AcDbRegAppTableRecord
  2
GENIUS_GENDIM_13
 70
     0
  0
APPID
  5
1271
330
2E
100
AcDbSymbolTableRecord
100
AcDbRegAppTableRecord
  2
GENIUS_GENDTOL_13
 70
     0
  0
APPID
  5
1272
330
2E
100
AcDbSymbolTableRecord
100
AcDbRegAppTableRecord
  2
GENIUS_GE3DTOL_13
 70
     0
  0
APPID
  5
1275
330
2E
100
AcDbSymbolTableRecord
100
AcDbRegAppTableRecord
  2
MCAD_NO_VIS
 70
     0
  0
APPID
  5
1276
330
2E
100
AcDbSymbolTableRecord
100
AcDbRegAppTableRecord
  2
ACAD_TEMP_GRAPHIC
 70
     0
  0
APPID
  5
12A7
330
2E
100
AcDbSymbolTableRecord
100
AcDbRegAppTableRecord
  2
AD_DRAW
 70
     0
  0
APPID
  5
12F5
330
2E
100
AcDbSymbolTableRecord
100
AcDbRegAppTableRecord
  2
ASURF_PCURVE_APPNAME
 70
     0
  0
APPID
  5
12FA
330
2E
100
AcDbSymbolTableRecord
100
AcDbRegAppTableRecord
  2
AMG_3D2D_5.0
 70
     0
  0
APPID
  5
132B
330
2E
100
AcDbSymbolTableRecord
100
AcDbRegAppTableRecord
  2
DESIGNERASSEMBLIES
 70
     0
  0
APPID
  5
132F
330
2E
100
AcDbSymbolTableRecord
100
AcDbRegAppTableRecord
  2
ACADM_DIM_EDIT
 70
     0
  0
APPID
  5
1330
330
2E
100
AcDbSymbolTableRecord
100
AcDbRegAppTableRecord
  2
AMDT_DM_ADJ
 70
     0
  0
APPID
  5
15D5
330
2E
100
AcDbSymbolTableRecord
100
AcDbRegAppTableRecord
  2
ACAD_DSTYLE_DIMRADIAL_EXTENSION
 70
     0
  0
APPID
  5
1668
330
2E
100
AcDbSymbolTableRecord
100
AcDbRegAppTableRecord
  2
ACAD_DSTYLE_DIMINSPECT
 70
     0
  0
APPID
  5
16AA
330
2E
100
AcDbSymbolTableRecord
100
AcDbRegAppTableRecord
  2
ACAD_DSTYLE_DIMARC_LENGTH_SYMBOL
 70
     0
  0
ENDTAB
  0
TABLE
  2
DIMSTYLE
  5
30
330
0
100
AcDbSymbolTable
 70
    10
100
AcDbDimStyleTable
 71
     3
340
31
340
136E
340
1355
  0
DIMSTYLE
105
31
102
{ACAD_REACTORS
330
2C53
330
2C60
330
2C6D
330
2C7A
330
2C87
102
}
330
30
100
AcDbSymbolTableRecord
100
AcDbDimStyleTableRecord
  2
STANDARD
 70
     0
 40
0.0
 41
2.0
 42
1.0
 43
3.75
 44
1.0
 73
     0
 74
     0
 77
     1
 78
     8
140
2.0
141
2.5
143
0.0394
147
1.0
171
     4
172
     1
173
     1
271
     0
272
     0
273
     8
274
     4
284
     8
340
23
341
32
343
32
344
32
1001
ACAD_DSTYLE_DIMEXT_LENGTH
1070
   378
1040
15.0
1001
ACAD_DSTYLE_DIMJOGGED_JOGANGLE_SYMBOL
1070
   384
1040
1.570796326794896
  0
DIMSTYLE
105
1355
330
30
100
AcDbSymbolTableRecord
100
AcDbDimStyleTableRecord
  2
AM_ISO
 70
     0
  4
"
 41
2.5
 42
1.0
 43
10.0
 44
1.0
 47
0.1
 48
0.1
 73
     0
 74
     0
 77
     1
 78
     8
 79
     2
140
3.5
141
0.0
143
0.0393701
146
0.71
147
1.5
172
     1
176
   256
177
   256
178
     2
271
     2
272
     3
274
     4
283
     0
284
     8
340
23
371
    -1
372
    -1
1001
ACAD_DSTYLE_DIMARC_LENGTH_SYMBOL
1070
   379
1070
     1
  0
DIMSTYLE
105
1356
330
30
100
AcDbSymbolTableRecord
100
AcDbDimStyleTableRecord
  2
AM_ISO$3
 70
     0
  4
"
 41
2.5
 42
1.0
 43
10.0
 44
1.0
 47
0.1
 48
0.1
 73
     0
 77
     1
 78
     8
 79
     2
140
3.5
141
0.0
143
0.0393701
146
0.71
147
1.5
176
   256
177
   256
178
     2
271
     2
272
     3
274
     4
283
     0
284
     8
288
     1
289
     0
340
23
371
    -1
372
    -1
1001
ACAD_DSTYLE_DIMARC_LENGTH_SYMBOL
1070
   379
1070
     1
  0
DIMSTYLE
105
1357
330
30
100
AcDbSymbolTableRecord
100
AcDbDimStyleTableRecord
  2
AM_ISO$4
 70
     0
  4
"
 41
2.5
 42
1.0
 43
10.0
 44
1.0
 47
0.1
 48
0.1
 73
     0
 77
     1
 78
     8
 79
     2
140
3.5
141
0.0
143
0.0393701
146
0.71
147
1.5
176
   256
177
   256
178
     2
271
     2
272
     3
274
     4
283
     0
284
     8
288
     1
289
     0
340
23
371
    -1
372
    -1
1001
ACAD_DSTYLE_DIMARC_LENGTH_SYMBOL
1070
   379
1070
     1
  0
DIMSTYLE
105
1358
330
30
100
AcDbSymbolTableRecord
100
AcDbDimStyleTableRecord
  2
AM_ISO$6
 70
     0
  4
"
 41
2.5
 42
1.0
 43
10.0
 44
1.0
 47
0.1
 48
0.1
 73
     0
 74
     0
 78
     8
 79
     2
140
3.5
141
0.0
143
0.0393701
146
0.71
147
1.5
172
     1
176
   256
177
   256
178
     2
271
     2
272
     3
274
     4
283
     0
284
     8
340
23
371
    -1
372
    -1
1001
ACAD_DSTYLE_DIMARC_LENGTH_SYMBOL
1070
   379
1070
     1
  0
DIMSTYLE
105
1359
330
30
100
AcDbSymbolTableRecord
100
AcDbDimStyleTableRecord
  2
AM_ISO$7
 70
     0
  4
"
 41
2.5
 42
1.0
 43
10.0
 44
1.0
 47
0.1
 48
0.1
 73
     0
 74
     0
 77
     1
 78
     8
 79
     2
140
5.0
141
0.0
143
0.0393701
146
0.71
147
1.5
172
     1
176
   256
177
   256
178
     2
271
     2
272
     3
274
     4
283
     0
284
     8
340
23
371
    -1
372
    -1
1001
ACAD_DSTYLE_DIMARC_LENGTH_SYMBOL
1070
   379
1070
     1
  0
DIMSTYLE
105
135A
330
30
100
AcDbSymbolTableRecord
100
AcDbDimStyleTableRecord
  2
AM_ISO$SF
 70
     0
  4
"
 41
2.5
 42
1.0
 43
10.0
 44
1.0
 47
0.1
 48
0.1
 73
     0
 74
     0
 75
     1
 76
     1
 77
     1
 78
     8
 79
     2
140
3.5
141
0.0
143
0.0393701
146
0.71
147
1.5
172
     1
176
   256
177
   256
178
     2
271
     2
272
     3
274
     4
283
     0
284
     8
340
23
371
    -1
372
    -1
1001
ACAD_DSTYLE_DIMARC_LENGTH_SYMBOL
1070
   379
1070
     1
  0
DIMSTYLE
105
135F
330
30
100
AcDbSymbolTableRecord
100
AcDbDimStyleTableRecord
  2
AM_ISO$SH
 70
     0
  4
"
 41
2.5
 42
1.0
 43
10.0
 44
1.0
 47
0.1
 48
0.1
 73
     0
 74
     0
 75
     1
 76
     1
 77
     1
 78
     8
 79
     2
140
3.5
141
0.0
143
0.0393701
144
2.0
146
0.71
147
1.5
172
     1
173
     1
176
   256
177
   256
178
     2
271
     2
272
     3
274
     4
283
     0
284
     8
340
23
343
135B
371
    -1
372
    -1
1001
ACAD_DSTYLE_DIMARC_LENGTH_SYMBOL
1070
   379
1070
     1
  0
DIMSTYLE
105
136E
330
30
100
AcDbSymbolTableRecord
100
AcDbDimStyleTableRecord
  2
STANDARD1
 70
     0
 40
10.0
 41
2.0
 42
0.625
 43
3.75
 44
1.25
 77
     1
 78
     8
140
2.0
141
0.0
147
1.0
173
     1
284
     8
340
23
341
32
343
32
344
32
1001
ACAD_DSTYLE_DIMJAG
1070
   388
1040
1.5
1001
ACAD_DSTYLE_DIMTALN
1070
   392
1070
     0
  0
DIMSTYLE
105
136F
330
30
100
AcDbSymbolTableRecord
100
AcDbDimStyleTableRecord
  2
AM_JIS
 70
     0
  4
"
 40
10.0
 41
2.5
 42
1.0
 43
10.0
 44
1.0
 47
0.1
 48
0.1
 73
     0
 74
     0
 77
     3
 78
     8
 79
     2
140
3.5
141
0.0
143
0.0393701
146
0.71
147
1.5
172
     1
176
   256
177
   256
178
     2
271
     2
272
     3
274
     4
283
     0
284
     8
340
23
341
32
342
32
343
32
344
32
371
    -1
372
    -1
1001
ACAD_DSTYLE_DIMJOGGED_JOGANGLE_SYMBOL
1070
   384
1040
0.7853981633974483
1001
ACAD_DSTYLE_DIMARC_LENGTH_SYMBOL
1070
   379
1070
     1
  0
ENDTAB
  0
TABLE
  2
BLOCK_RECORD
  5
1
330
0
100
AcDbSymbolTable
 70
    53
  0
BLOCK_RECORD
  5
2
102
{ACAD_XDICTIONARY
360
3
102
}
330
1
100
AcDbSymbolTableRecord
100
AcDbBlockTableRecord
  2
*MODEL_SPACE
340
16
  0
BLOCK_RECORD
  5
18
330
1
100
AcDbSymbolTableRecord
100
AcDbBlockTableRecord
  2
*Paper_Space
340
1B
  0
BLOCK_RECORD
  5
32
330
1
100
AcDbSymbolTableRecord
100
AcDbBlockTableRecord
  2
_OPEN30
340
0
102
{BLKREFS
331
1218
331
1219
331
1221
331
1222
331
122A
331
122B
331
1233
331
1234
331
123C
331
123D
331
1245
331
1246
331
124E
331
124F
331
1566
331
1567
331
1573
331
1574
331
1580
331
1581
331
15BD
331
15BE
331
15C6
331
15C7
331
15CF
331
15D0
331
1690
331
188E
331
188F
331
1C51
331
1C52
331
1C5E
331
1C5F
331
1C6B
331
1C6C
331
1D7C
331
1D7D
331
1F5C
331
1F5D
331
1F69
331
1F6A
331
1F76
331
1F77
331
1F83
331
1F84
331
217A
331
217B
331
2187
331
2188
331
2194
331
2195
331
21A1
331
21A2
331
259D
331
259E
331
25BC
331
25BD
331
26DD
331
26DE
331
26EF
331
26F0
331
26FE
331
26FF
331
270A
331
270B
331
2722
331
2723
331
2927
331
2928
331
2930
331
2931
331
2939
331
293A
331
2959
331
295A
331
2961
331
2962
331
2980
331
2981
331
298F
331
2990
331
29A5
331
29A6
331
29CA
331
29CB
331
2C5A
331
2C5B
331
2C67
331
2C68
331
2C74
331
2C75
331
2C81
331
2C82
331
2C8E
331
2C8F
102
}
  0
BLOCK_RECORD
  5
B89
330
1
100
AcDbSymbolTableRecord
100
AcDbBlockTableRecord
  2
*D1
340
0
  0
BLOCK_RECORD
  5
B96
330
1
100
AcDbSymbolTableRecord
100
AcDbBlockTableRecord
  2
*D2
340
0
  0
BLOCK_RECORD
  5
BA3
330
1
100
AcDbSymbolTableRecord
100
AcDbBlockTableRecord
  2
*D3
340
0
  0
BLOCK_RECORD
  5
BB0
330
1
100
AcDbSymbolTableRecord
100
AcDbBlockTableRecord
  2
*D4
340
0
  0
BLOCK_RECORD
  5
BCF
330
1
100
AcDbSymbolTableRecord
100
AcDbBlockTableRecord
  2
*D5
340
0
  0
BLOCK_RECORD
  5
BF9
330
1
100
AcDbSymbolTableRecord
100
AcDbBlockTableRecord
  2
*D6
340
0
  0
BLOCK_RECORD
  5
C06
330
1
100
AcDbSymbolTableRecord
100
AcDbBlockTableRecord
  2
*D7
340
0
  0
BLOCK_RECORD
  5
CB0
330
1
100
AcDbSymbolTableRecord
100
AcDbBlockTableRecord
  2
_DOTBLANK
340
0
  0
BLOCK_RECORD
  5
135B
330
1
100
AcDbSymbolTableRecord
100
AcDbBlockTableRecord
  2
GENAXEH
340
0
  0
BLOCK_RECORD
  5
1560
330
1
100
AcDbSymbolTableRecord
100
AcDbBlockTableRecord
  2
*D10
340
0
  0
BLOCK_RECORD
  5
156D
330
1
100
AcDbSymbolTableRecord
100
AcDbBlockTableRecord
  2
*D11
340
0
  0
BLOCK_RECORD
  5
157A
330
1
100
AcDbSymbolTableRecord
100
AcDbBlockTableRecord
  2
*D12
340
0
  0
BLOCK_RECORD
  5
1587
330
1
100
AcDbSymbolTableRecord
100
AcDbBlockTableRecord
  2
*D13
340
0
  0
BLOCK_RECORD
  5
1594
330
1
100
AcDbSymbolTableRecord
100
AcDbBlockTableRecord
  2
*D14
340
0
  0
BLOCK_RECORD
  5
15A1
330
1
100
AcDbSymbolTableRecord
100
AcDbBlockTableRecord
  2
*D15
340
0
  0
BLOCK_RECORD
  5
15AE
330
1
100
AcDbSymbolTableRecord
100
AcDbBlockTableRecord
  2
*D16
340
0
  0
BLOCK_RECORD
  5
15D7
330
1
100
AcDbSymbolTableRecord
100
AcDbBlockTableRecord
  2
*D17
340
0
  0
BLOCK_RECORD
  5
160A
330
1
100
AcDbSymbolTableRecord
100
AcDbBlockTableRecord
  2
*D18
340
0
  0
BLOCK_RECORD
  5
1C4B
330
1
100
AcDbSymbolTableRecord
100
AcDbBlockTableRecord
  2
*D19
340
0
  0
BLOCK_RECORD
  5
1C58
330
1
100
AcDbSymbolTableRecord
100
AcDbBlockTableRecord
  2
*D20
340
0
  0
BLOCK_RECORD
  5
1C65
330
1
100
AcDbSymbolTableRecord
100
AcDbBlockTableRecord
  2
*D21
340
0
  0
BLOCK_RECORD
  5
1D76
330
1
100
AcDbSymbolTableRecord
100
AcDbBlockTableRecord
  2
*D22
340
0
  0
BLOCK_RECORD
  5
1F56
330
1
100
AcDbSymbolTableRecord
100
AcDbBlockTableRecord
  2
*D23
340
0
  0
BLOCK_RECORD
  5
1F63
330
1
100
AcDbSymbolTableRecord
100
AcDbBlockTableRecord
  2
*D24
340
0
  0
BLOCK_RECORD
  5
1F70
330
1
100
AcDbSymbolTableRecord
100
AcDbBlockTableRecord
  2
*D25
340
0
  0
BLOCK_RECORD
  5
1F7D
330
1
100
AcDbSymbolTableRecord
100
AcDbBlockTableRecord
  2
*D26
340
0
  0
BLOCK_RECORD
  5
2174
330
1
100
AcDbSymbolTableRecord
100
AcDbBlockTableRecord
  2
*D27
340
0
  0
BLOCK_RECORD
  5
2181
330
1
100
AcDbSymbolTableRecord
100
AcDbBlockTableRecord
  2
*D28
340
0
  0
BLOCK_RECORD
  5
218E
330
1
100
AcDbSymbolTableRecord
100
AcDbBlockTableRecord
  2
*D29
340
0
  0
BLOCK_RECORD
  5
219B
330
1
100
AcDbSymbolTableRecord
100
AcDbBlockTableRecord
  2
*D30
340
0
  0
BLOCK_RECORD
  5
255A
330
1
100
AcDbSymbolTableRecord
100
AcDbBlockTableRecord
  2
*D31
340
0
  0
BLOCK_RECORD
  5
2567
330
1
100
AcDbSymbolTableRecord
100
AcDbBlockTableRecord
  2
*D32
340
0
  0
BLOCK_RECORD
  5
2574
330
1
100
AcDbSymbolTableRecord
100
AcDbBlockTableRecord
  2
*D33
340
0
  0
BLOCK_RECORD
  5
2581
330
1
100
AcDbSymbolTableRecord
100
AcDbBlockTableRecord
  2
*D34
340
0
  0
BLOCK_RECORD
  5
258E
330
1
100
AcDbSymbolTableRecord
100
AcDbBlockTableRecord
  2
*D35
340
0
  0
BLOCK_RECORD
  5
25A4
330
1
100
AcDbSymbolTableRecord
100
AcDbBlockTableRecord
  2
*D36
340
0
  0
BLOCK_RECORD
  5
25C3
330
1
100
AcDbSymbolTableRecord
100
AcDbBlockTableRecord
  2
*D37
340
0
  0
BLOCK_RECORD
  5
25F7
330
1
100
AcDbSymbolTableRecord
100
AcDbBlockTableRecord
  2
*D38
340
0
  0
BLOCK_RECORD
  5
2604
330
1
100
AcDbSymbolTableRecord
100
AcDbBlockTableRecord
  2
*D39
340
0
  0
BLOCK_RECORD
  5
2616
330
1
100
AcDbSymbolTableRecord
100
AcDbBlockTableRecord
  2
*D40
340
0
  0
BLOCK_RECORD
  5
2704
330
1
100
AcDbSymbolTableRecord
100
AcDbBlockTableRecord
  2
*D41
340
0
  0
BLOCK_RECORD
  5
271C
330
1
100
AcDbSymbolTableRecord
100
AcDbBlockTableRecord
  2
*D42
340
0
  0
BLOCK_RECORD
  5
2968
330
1
100
AcDbSymbolTableRecord
100
AcDbBlockTableRecord
  2
*D43
340
0
  0
BLOCK_RECORD
  5
2987
330
1
100
AcDbSymbolTableRecord
100
AcDbBlockTableRecord
  2
*D44
340
0
  0
BLOCK_RECORD
  5
2996
330
1
100
AcDbSymbolTableRecord
100
AcDbBlockTableRecord
  2
*D45
340
0
  0
BLOCK_RECORD
  5
29AC
330
1
100
AcDbSymbolTableRecord
100
AcDbBlockTableRecord
  2
*D46
340
0
  0
BLOCK_RECORD
  5
2C54
330
1
100
AcDbSymbolTableRecord
100
AcDbBlockTableRecord
  2
*D47
340
0
  0
BLOCK_RECORD
  5
2C61
330
1
100
AcDbSymbolTableRecord
100
AcDbBlockTableRecord
  2
*D48
340
0
  0
BLOCK_RECORD
  5
2C6E
330
1
100
AcDbSymbolTableRecord
100
AcDbBlockTableRecord
  2
*D49
340
0
  0
BLOCK_RECORD
  5
2C7B
330
1
100
AcDbSymbolTableRecord
100
AcDbBlockTableRecord
  2
*D50
340
0
  0
BLOCK_RECORD
  5
2C88
330
1
100
AcDbSymbolTableRecord
100
AcDbBlockTableRecord
  2
*D51
340
0
  0
ENDTAB
  0
ENDSEC
  0
SECTION
  2
BLOCKS
  0
BLOCK
  5
4
330
2
100
AcDbEntity
  8
0
100
AcDbBlockBegin
  2
*MODEL_SPACE
 70
     0
 10
0.0
 20
0.0
 30
0.0
  3
*MODEL_SPACE
  1

  0
ENDBLK
  5
15
330
2
100
AcDbEntity
  8
0
100
AcDbBlockEnd
  0
BLOCK
  5
19
330
18
100
AcDbEntity
 67
     1
  8
0
100
AcDbBlockBegin
  2
*Paper_Space
 70
     0
 10
0.0
 20
0.0
 30
0.0
  3
*Paper_Space
  1

  0
ENDBLK
  5
1A
330
18
100
AcDbEntity
 67
     1
  8
0
100
AcDbBlockEnd
  0
BLOCK
  5
33
330
32
100
AcDbEntity
  8
0
100
AcDbBlockBegin
  2
_OPEN30
 70
     0
 10
0.0
 20
0.0
 30
0.0
  3
_OPEN30
  1

  0
LINE
  5
34
330
32
100
AcDbEntity
  8
0
  6
ByBlock
 62
     0
100
AcDbLine
 10
-1.0
 20
0.26794919
 30
0.0
 11
0.0
 21
0.0
 31
0.0
  0
LINE
  5
35
330
32
100
AcDbEntity
  8
0
  6
ByBlock
 62
     0
100
AcDbLine
 10
0.0
 20
0.0
 30
0.0
 11
-1.0
 21
-0.26794919
 31
0.0
  0
LINE
  5
36
330
32
100
AcDbEntity
  8
0
  6
ByBlock
 62
     0
100
AcDbLine
 10
0.0
 20
0.0
 30
0.0
 11
-1.0
 21
0.0
 31
0.0
  0
ENDBLK
  5
37
330
32
100
AcDbEntity
  8
0
100
AcDbBlockEnd
  0
BLOCK
  5
B93
330
B89
100
AcDbEntity
  8
0
100
AcDbBlockBegin
  2
*D1
 70
     1
 10
0.0
 20
0.0
 30
0.0
  3
*D1
  1

  0
LINE
  5
124B
330
B89
100
AcDbEntity
  8
SIZE
 62
     0
370
    -2
100
AcDbLine
 10
-314.4855110895245
 20
1535.830811506845
 30
0.0
 11
-361.7170233088361
 21
1535.830811506845
 31
0.0
  0
LINE
  5
124C
330
B89
100
AcDbEntity
  8
SIZE
 62
     0
370
    -2
100
AcDbLine
 10
-314.4855110895245
 20
1385.830811506845
 30
0.0
 11
-361.7170233088362
 21
1385.830811506845
 31
0.0
  0
LINE
  5
124D
330
B89
100
AcDbEntity
  8
SIZE
 62
     0
370
    -2
100
AcDbLine
 10
-356.7170233088361
 20
1525.830811506845
 30
0.0
 11
-356.7170233088362
 21
1395.830811506845
 31
0.0
  0
INSERT
  5
124E
330
B89
100
AcDbEntity
  8
SIZE
 62
     0
370
    -2
100
AcDbBlockReference
  2
_OPEN30
 10
-356.7170233088361
 20
1535.830811506845
 30
0.0
 41
10.0
 42
10.0
 43
10.0
 50
90.0
  0
INSERT
  5
124F
330
B89
100
AcDbEntity
  8
SIZE
 62
     0
370
    -2
100
AcDbBlockReference
  2
_OPEN30
 10
-356.7170233088362
 20
1385.830811506845
 30
0.0
 41
10.0
 42
10.0
 43
10.0
 50
270.0
  0
MTEXT
  5
1250
330
B89
100
AcDbEntity
  8
SIZE
 62
     0
100
AcDbMText
 10
-366.7170233088364
 20
1460.830811506845
 30
0.0
 40
10.0
 41
0.0
 71
     5
 72
     1
  1
\A1;150
 11
0.0000000000000001
 21
1.0
 31
0.0
 73
     1
 44
1.0
1001
ACAD
1000
MTEXTBEGIN
1070
    73
1070
     1
1070
    44
1040
1.0
1070
    74
1070
     0
1000
MTEXTEND
  0
POINT
  5
1251
330
B89
100
AcDbEntity
  8
Defpoints
 62
     0
100
AcDbPoint
 10
-309.4855110895245
 20
1535.830811506845
 30
0.0
  0
POINT
  5
1252
330
B89
100
AcDbEntity
  8
Defpoints
 62
     0
100
AcDbPoint
 10
-309.4855110895245
 20
1385.830811506845
 30
0.0
  0
POINT
  5
1253
330
B89
100
AcDbEntity
  8
Defpoints
 62
     0
100
AcDbPoint
 10
-356.7170233088362
 20
1385.830811506845
 30
0.0
  0
ENDBLK
  5
B94
330
B89
100
AcDbEntity
  8
0
100
AcDbBlockEnd
  0
BLOCK
  5
BA0
330
B96
100
AcDbEntity
  8
0
100
AcDbBlockBegin
  2
*D2
 70
     1
 10
0.0
 20
0.0
 30
0.0
  3
*D2
  1

  0
LINE
  5
1242
330
B96
100
AcDbEntity
  8
SIZE
 62
     0
370
    -2
100
AcDbLine
 10
-314.4855110895245
 20
1385.830811506845
 30
0.0
 11
-361.388124300869
 21
1385.830811506845
 31
0.0
  0
LINE
  5
1243
330
B96
100
AcDbEntity
  8
SIZE
 62
     0
370
    -2
100
AcDbLine
 10
-314.4855110895245
 20
1235.830811506845
 30
0.0
 11
-361.388124300869
 21
1235.830811506845
 31
0.0
  0
LINE
  5
1244
330
B96
100
AcDbEntity
  8
SIZE
 62
     0
370
    -2
100
AcDbLine
 10
-356.388124300869
 20
1375.830811506845
 30
0.0
 11
-356.388124300869
 21
1245.830811506845
 31
0.0
  0
INSERT
  5
1245
330
B96
100
AcDbEntity
  8
SIZE
 62
     0
370
    -2
100
AcDbBlockReference
  2
_OPEN30
 10
-356.388124300869
 20
1385.830811506845
 30
0.0
 41
10.0
 42
10.0
 43
10.0
 50
90.0
  0
INSERT
  5
1246
330
B96
100
AcDbEntity
  8
SIZE
 62
     0
370
    -2
100
AcDbBlockReference
  2
_OPEN30
 10
-356.388124300869
 20
1235.830811506845
 30
0.0
 41
10.0
 42
10.0
 43
10.0
 50
270.0
  0
MTEXT
  5
1247
330
B96
100
AcDbEntity
  8
SIZE
 62
     0
100
AcDbMText
 10
-366.3881243008692
 20
1310.830811506845
 30
0.0
 40
10.0
 41
0.0
 71
     5
 72
     1
  1
\A1;150
 11
0.0000000000000001
 21
1.0
 31
0.0
 73
     1
 44
1.0
1001
ACAD
1000
MTEXTBEGIN
1070
    73
1070
     1
1070
    44
1040
1.0
1070
    74
1070
     0
1000
MTEXTEND
  0
POINT
  5
1248
330
B96
100
AcDbEntity
  8
Defpoints
 62
     0
100
AcDbPoint
 10
-309.4855110895245
 20
1385.830811506845
 30
0.0
  0
POINT
  5
1249
330
B96
100
AcDbEntity
  8
Defpoints
 62
     0
100
AcDbPoint
 10
-309.4855110895245
 20
1235.830811506845
 30
0.0
  0
POINT
  5
124A
330
B96
100
AcDbEntity
  8
Defpoints
 62
     0
100
AcDbPoint
 10
-356.388124300869
 20
1235.830811506845
 30
0.0
  0
ENDBLK
  5
BA1
330
B96
100
AcDbEntity
  8
0
100
AcDbBlockEnd
  0
BLOCK
  5
BAD
330
BA3
100
AcDbEntity
  8
0
100
AcDbBlockBegin
  2
*D3
 70
     1
 10
0.0
 20
0.0
 30
0.0
  3
*D3
  1

  0
LINE
  5
1239
330
BA3
100
AcDbEntity
  8
SIZE
 62
     0
370
    -2
100
AcDbLine
 10
-314.4855110895245
 20
1235.830811506845
 30
0.0
 11
-361.2300528975047
 21
1235.830811506845
 31
0.0
  0
LINE
  5
123A
330
BA3
100
AcDbEntity
  8
SIZE
 62
     0
370
    -2
100
AcDbLine
 10
-314.4855110895245
 20
1085.830811506845
 30
0.0
 11
-361.2300528975047
 21
1085.830811506845
 31
0.0
  0
LINE
  5
123B
330
BA3
100
AcDbEntity
  8
SIZE
 62
     0
370
    -2
100
AcDbLine
 10
-356.2300528975047
 20
1225.830811506845
 30
0.0
 11
-356.2300528975047
 21
1095.830811506845
 31
0.0
  0
INSERT
  5
123C
330
BA3
100
AcDbEntity
  8
SIZE
 62
     0
370
    -2
100
AcDbBlockReference
  2
_OPEN30
 10
-356.2300528975047
 20
1235.830811506845
 30
0.0
 41
10.0
 42
10.0
 43
10.0
 50
90.0
  0
INSERT
  5
123D
330
BA3
100
AcDbEntity
  8
SIZE
 62
     0
370
    -2
100
AcDbBlockReference
  2
_OPEN30
 10
-356.2300528975047
 20
1085.830811506845
 30
0.0
 41
10.0
 42
10.0
 43
10.0
 50
270.0
  0
MTEXT
  5
123E
330
BA3
100
AcDbEntity
  8
SIZE
 62
     0
100
AcDbMText
 10
-366.2300528975048
 20
1160.830811506845
 30
0.0
 40
10.0
 41
0.0
 71
     5
 72
     1
  1
\A1;150
 11
0.0000000000000001
 21
1.0
 31
0.0
 73
     1
 44
1.0
1001
ACAD
1000
MTEXTBEGIN
1070
    73
1070
     1
1070
    44
1040
1.0
1070
    74
1070
     0
1000
MTEXTEND
  0
POINT
  5
123F
330
BA3
100
AcDbEntity
  8
Defpoints
 62
     0
100
AcDbPoint
 10
-309.4855110895245
 20
1235.830811506845
 30
0.0
  0
POINT
  5
1240
330
BA3
100
AcDbEntity
  8
Defpoints
 62
     0
100
AcDbPoint
 10
-309.4855110895245
 20
1085.830811506845
 30
0.0
  0
POINT
  5
1241
330
BA3
100
AcDbEntity
  8
Defpoints
 62
     0
100
AcDbPoint
 10
-356.2300528975047
 20
1085.830811506845
 30
0.0
  0
ENDBLK
  5
BAE
330
BA3
100
AcDbEntity
  8
0
100
AcDbBlockEnd
  0
BLOCK
  5
BBA
330
BB0
100
AcDbEntity
  8
0
100
AcDbBlockBegin
  2
*D4
 70
     1
 10
0.0
 20
0.0
 30
0.0
  3
*D4
  1

  0
LINE
  5
1230
330
BB0
100
AcDbEntity
  8
SIZE
 62
     0
370
    -2
100
AcDbLine
 10
-314.4855110895245
 20
1085.830811506845
 30
0.0
 11
-361.4686313380586
 21
1085.830811506845
 31
0.0
  0
LINE
  5
1231
330
BB0
100
AcDbEntity
  8
SIZE
 62
     0
370
    -2
100
AcDbLine
 10
-314.4855110895245
 20
935.8308115068448
 30
0.0
 11
-361.4686313380586
 21
935.8308115068448
 31
0.0
  0
LINE
  5
1232
330
BB0
100
AcDbEntity
  8
SIZE
 62
     0
370
    -2
100
AcDbLine
 10
-356.4686313380586
 20
1075.830811506845
 30
0.0
 11
-356.4686313380586
 21
945.8308115068447
 31
0.0
  0
INSERT
  5
1233
330
BB0
100
AcDbEntity
  8
SIZE
 62
     0
370
    -2
100
AcDbBlockReference
  2
_OPEN30
 10
-356.4686313380586
 20
1085.830811506845
 30
0.0
 41
10.0
 42
10.0
 43
10.0
 50
90.0
  0
INSERT
  5
1234
330
BB0
100
AcDbEntity
  8
SIZE
 62
     0
370
    -2
100
AcDbBlockReference
  2
_OPEN30
 10
-356.4686313380586
 20
935.8308115068448
 30
0.0
 41
10.0
 42
10.0
 43
10.0
 50
270.0
  0
MTEXT
  5
1235
330
BB0
100
AcDbEntity
  8
SIZE
 62
     0
100
AcDbMText
 10
-366.4686313380588
 20
1010.830811506845
 30
0.0
 40
10.0
 41
0.0
 71
     5
 72
     1
  1
\A1;150
 11
0.0000000000000001
 21
1.0
 31
0.0
 73
     1
 44
1.0
1001
ACAD
1000
MTEXTBEGIN
1070
    73
1070
     1
1070
    44
1040
1.0
1070
    74
1070
     0
1000
MTEXTEND
  0
POINT
  5
1236
330
BB0
100
AcDbEntity
  8
Defpoints
 62
     0
100
AcDbPoint
 10
-309.4855110895245
 20
1085.830811506845
 30
0.0
  0
POINT
  5
1237
330
BB0
100
AcDbEntity
  8
Defpoints
 62
     0
100
AcDbPoint
 10
-309.4855110895245
 20
935.8308115068448
 30
0.0
  0
POINT
  5
1238
330
BB0
100
AcDbEntity
  8
Defpoints
 62
     0
100
AcDbPoint
 10
-356.4686313380586
 20
935.8308115068448
 30
0.0
  0
ENDBLK
  5
BBB
330
BB0
100
AcDbEntity
  8
0
100
AcDbBlockEnd
  0
BLOCK
  5
BD9
330
BCF
100
AcDbEntity
  8
0
100
AcDbBlockBegin
  2
*D5
 70
     1
 10
0.0
 20
0.0
 30
0.0
  3
*D5
  1

  0
LINE
  5
1227
330
BCF
100
AcDbEntity
  8
SIZE
 62
     0
370
    -2
100
AcDbLine
 10
-243.9855110895382
 20
1616.830811506845
 30
0.0
 11
-410.8898055096611
 21
1616.830811506845
 31
0.0
  0
LINE
  5
1228
330
BCF
100
AcDbEntity
  8
SIZE
 62
     0
370
    -2
100
AcDbLine
 10
-282.4855110895383
 20
854.8308115068449
 30
0.0
 11
-410.8898055096613
 21
854.8308115068449
 31
0.0
  0
LINE
  5
1229
330
BCF
100
AcDbEntity
  8
SIZE
 62
     0
370
    -2
100
AcDbLine
 10
-405.889805509661
 20
1606.830811506845
 30
0.0
 11
-405.889805509661
 21
864.8308115068449
 31
0.0
  0
INSERT
  5
122A
330
BCF
100
AcDbEntity
  8
SIZE
 62
     0
370
    -2
100
AcDbBlockReference
  2
_OPEN30
 10
-405.889805509661
 20
1616.830811506845
 30
0.0
 41
10.0
 42
10.0
 43
10.0
 50
90.0
  0
INSERT
  5
122B
330
BCF
100
AcDbEntity
  8
SIZE
 62
     0
370
    -2
100
AcDbBlockReference
  2
_OPEN30
 10
-405.889805509661
 20
854.8308115068449
 30
0.0
 41
10.0
 42
10.0
 43
10.0
 50
270.0
  0
MTEXT
  5
122C
330
BCF
100
AcDbEntity
  8
SIZE
 62
     0
100
AcDbMText
 10
-415.8898055096614
 20
1235.830811506845
 30
0.0
 40
10.0
 41
0.0
 71
     5
 72
     1
  1
\A1;762
 11
0.0000000000000001
 21
1.0
 31
0.0
 73
     1
 44
1.0
1001
ACAD
1000
MTEXTBEGIN
1070
    73
1070
     1
1070
    44
1040
1.0
1070
    74
1070
     0
1000
MTEXTEND
  0
POINT
  5
122D
330
BCF
100
AcDbEntity
  8
Defpoints
 62
     0
100
AcDbPoint
 10
-238.9855110895382
 20
1616.830811506845
 30
0.0
  0
POINT
  5
122E
330
BCF
100
AcDbEntity
  8
Defpoints
 62
     0
100
AcDbPoint
 10
-277.4855110895383
 20
854.8308115068449
 30
0.0
  0
POINT
  5
122F
330
BCF
100
AcDbEntity
  8
Defpoints
 62
     0
100
AcDbPoint
 10
-405.889805509661
 20
854.8308115068449
 30
0.0
  0
ENDBLK
  5
BDA
330
BCF
100
AcDbEntity
  8
0
100
AcDbBlockEnd
  0
BLOCK
  5
C03
330
BF9
100
AcDbEntity
  8
0
100
AcDbBlockBegin
  2
*D6
 70
     1
 10
0.0
 20
0.0
 30
0.0
  3
*D6
  1

  0
LINE
  5
121E
330
BF9
100
AcDbEntity
  8
SIZE
 62
     0
370
    -2
100
AcDbLine
 10
-325.9855110895246
 20
1573.830811506845
 30
0.0
 11
-325.9855110895246
 21
1706.751057515776
 31
0.0
  0
LINE
  5
121F
330
BF9
100
AcDbEntity
  8
SIZE
 62
     0
370
    -2
100
AcDbLine
 10
586.0144889104623
 20
1573.830811506845
 30
0.0
 11
586.0144889104623
 21
1706.751057515776
 31
0.0
  0
LINE
  5
1220
330
BF9
100
AcDbEntity
  8
SIZE
 62
     0
370
    -2
100
AcDbLine
 10
-315.9855110895246
 20
1701.751057515776
 30
0.0
 11
576.0144889104623
 21
1701.751057515776
 31
0.0
  0
INSERT
  5
1221
330
BF9
100
AcDbEntity
  8
SIZE
 62
     0
370
    -2
100
AcDbBlockReference
  2
_OPEN30
 10
-325.9855110895246
 20
1701.751057515776
 30
0.0
 41
10.0
 42
10.0
 43
10.0
 50
180.0
  0
INSERT
  5
1222
330
BF9
100
AcDbEntity
  8
SIZE
 62
     0
370
    -2
100
AcDbBlockReference
  2
_OPEN30
 10
586.0144889104623
 20
1701.751057515776
 30
0.0
 41
10.0
 42
10.0
 43
10.0
  0
MTEXT
  5
1223
330
BF9
100
AcDbEntity
  8
SIZE
 62
     0
100
AcDbMText
 10
130.0144889104688
 20
1711.751057515776
 30
0.0
 40
10.0
 41
0.0
 71
     5
 72
     1
  1
\A1;912
 73
     1
 44
1.0
1001
ACAD
1000
MTEXTBEGIN
1070
    73
1070
     1
1070
    44
1040
1.0
1070
    74
1070
     0
1000
MTEXTEND
  0
POINT
  5
1224
330
BF9
100
AcDbEntity
  8
Defpoints
 62
     0
100
AcDbPoint
 10
-325.9855110895246
 20
1568.830811506845
 30
0.0
  0
POINT
  5
1225
330
BF9
100
AcDbEntity
  8
Defpoints
 62
     0
100
AcDbPoint
 10
586.0144889104623
 20
1568.830811506845
 30
0.0
  0
POINT
  5
1226
330
BF9
100
AcDbEntity
  8
Defpoints
 62
     0
100
AcDbPoint
 10
586.0144889104623
 20
1701.751057515776
 30
0.0
  0
ENDBLK
  5
C04
330
BF9
100
AcDbEntity
  8
0
100
AcDbBlockEnd
  0
BLOCK
  5
C10
330
C06
100
AcDbEntity
  8
0
100
AcDbBlockBegin
  2
*D7
 70
     1
 10
0.0
 20
0.0
 30
0.0
  3
*D7
  1

  0
LINE
  5
1215
330
C06
100
AcDbEntity
  8
SIZE
 62
     0
370
    -2
100
AcDbLine
 10
-309.4855110895245
 20
1540.830811506845
 30
0.0
 11
-309.4855110895245
 21
1659.422882102099
 31
0.0
  0
LINE
  5
1216
330
C06
100
AcDbEntity
  8
SIZE
 62
     0
370
    -2
100
AcDbLine
 10
569.5144889104623
 20
1540.830811506845
 30
0.0
 11
569.5144889104623
 21
1659.422882102099
 31
0.0
  0
LINE
  5
1217
330
C06
100
AcDbEntity
  8
SIZE
 62
     0
370
    -2
100
AcDbLine
 10
-299.4855110895245
 20
1654.422882102099
 30
0.0
 11
559.5144889104623
 21
1654.422882102099
 31
0.0
  0
INSERT
  5
1218
330
C06
100
AcDbEntity
  8
SIZE
 62
     0
370
    -2
100
AcDbBlockReference
  2
_OPEN30
 10
-309.4855110895245
 20
1654.422882102099
 30
0.0
 41
10.0
 42
10.0
 43
10.0
 50
180.0
  0
INSERT
  5
1219
330
C06
100
AcDbEntity
  8
SIZE
 62
     0
370
    -2
100
AcDbBlockReference
  2
_OPEN30
 10
569.5144889104623
 20
1654.422882102099
 30
0.0
 41
10.0
 42
10.0
 43
10.0
  0
MTEXT
  5
121A
330
C06
100
AcDbEntity
  8
SIZE
 62
     0
100
AcDbMText
 10
130.0144889104689
 20
1664.422882102099
 30
0.0
 40
10.0
 41
0.0
 71
     5
 72
     1
  1
\A1;879
 73
     1
 44
1.0
1001
ACAD
1000
MTEXTBEGIN
1070
    73
1070
     1
1070
    44
1040
1.0
1070
    74
1070
     0
1000
MTEXTEND
  0
POINT
  5
121B
330
C06
100
AcDbEntity
  8
Defpoints
 62
     0
100
AcDbPoint
 10
-309.4855110895245
 20
1535.830811506845
 30
0.0
  0
POINT
  5
121C
330
C06
100
AcDbEntity
  8
Defpoints
 62
     0
100
AcDbPoint
 10
569.5144889104623
 20
1535.830811506845
 30
0.0
  0
POINT
  5
121D
330
C06
100
AcDbEntity
  8
Defpoints
 62
     0
100
AcDbPoint
 10
569.5144889104623
 20
1654.422882102099
 30
0.0
  0
ENDBLK
  5
C11
330
C06
100
AcDbEntity
  8
0
100
AcDbBlockEnd
  0
BLOCK
  5
CB1
330
CB0
100
AcDbEntity
  8
0
100
AcDbBlockBegin
  2
_DOTBLANK
 70
     0
 10
0.0
 20
0.0
 30
0.0
  3
_DOTBLANK
  1

  0
CIRCLE
  5
CB2
330
CB0
100
AcDbEntity
  8
0
  6
Continuous
 62
     7
100
AcDbCircle
 10
0.0
 20
0.0
 30
0.0
 40
0.5
  0
LINE
  5
CB3
330
CB0
100
AcDbEntity
  8
0
  6
Continuous
 62
     7
100
AcDbLine
 10
-0.5
 20
0.0
 30
0.0
 11
-1.0
 21
0.0
 31
0.0
  0
ENDBLK
  5
CB4
330
CB0
100
AcDbEntity
  8
0
100
AcDbBlockEnd
  0
BLOCK
  5
135D
330
135B
100
AcDbEntity
  8
0
100
AcDbBlockBegin
  2
GENAXEH
 70
     0
 10
0.0
 20
0.0
 30
0.0
  3
GENAXEH
  1

  0
LINE
  5
135C
330
135B
100
AcDbEntity
  8
0
100
AcDbLine
 10
-1.0
 20
0.0
 30
0.0
 11
1.0
 21
0.0
 31
0.0
  0
ENDBLK
  5
135E
330
135B
100
AcDbEntity
  8
0
100
AcDbBlockEnd
  0
BLOCK
  5
1561
330
1560
100
AcDbEntity
  8
0
100
AcDbBlockBegin
  2
*D10
 70
     1
 10
0.0
 20
0.0
 30
0.0
  3
*D10
  1

  0
LINE
  5
1563
330
1560
100
AcDbEntity
  8
SIZE
 62
     0
370
    -2
100
AcDbLine
 10
1073.918421634096
 20
1586.498912144865
 30
0.0
 11
1073.918421634096
 21
1691.476658569712
 31
0.0
  0
LINE
  5
1564
330
1560
100
AcDbEntity
  8
SIZE
 62
     0
370
    -2
100
AcDbLine
 10
1949.918421634099
 20
1586.498912144858
 30
0.0
 11
1949.918421634099
 21
1691.476658569712
 31
0.0
  0
LINE
  5
1565
330
1560
100
AcDbEntity
  8
SIZE
 62
     0
370
    -2
100
AcDbLine
 10
1093.918421634096
 20
1681.476658569712
 30
0.0
 11
1929.918421634099
 21
1681.476658569712
 31
0.0
  0
INSERT
  5
1566
330
1560
100
AcDbEntity
  8
SIZE
 62
     0
370
    -2
100
AcDbBlockReference
  2
_OPEN30
 10
1073.918421634096
 20
1681.476658569712
 30
0.0
 41
20.0
 42
20.0
 43
20.0
 50
180.0
  0
INSERT
  5
1567
330
1560
100
AcDbEntity
  8
SIZE
 62
     0
370
    -2
100
AcDbBlockReference
  2
_OPEN30
 10
1949.918421634099
 20
1681.476658569712
 30
0.0
 41
20.0
 42
20.0
 43
20.0
  0
MTEXT
  5
1568
330
1560
100
AcDbEntity
  8
SIZE
 62
     0
100
AcDbMText
 10
1511.918421634098
 20
1701.476658569712
 30
0.0
 40
20.0
 41
0.0
 71
     5
 72
     1
  1
\A1;876
 73
     1
 44
1.0
1001
ACAD
1000
MTEXTBEGIN
1070
    73
1070
     1
1070
    44
1040
1.0
1070
    74
1070
     0
1000
MTEXTEND
  0
POINT
  5
1569
330
1560
100
AcDbEntity
  8
Defpoints
 62
     0
100
AcDbPoint
 10
1073.918421634096
 20
1576.498912144865
 30
0.0
  0
POINT
  5
156A
330
1560
100
AcDbEntity
  8
Defpoints
 62
     0
100
AcDbPoint
 10
1949.918421634099
 20
1576.498912144858
 30
0.0
  0
POINT
  5
156B
330
1560
100
AcDbEntity
  8
Defpoints
 62
     0
100
AcDbPoint
 10
1949.918421634099
 20
1681.476658569712
 30
0.0
  0
ENDBLK
  5
1562
330
1560
100
AcDbEntity
  8
0
100
AcDbBlockEnd
  0
BLOCK
  5
156E
330
156D
100
AcDbEntity
  8
0
100
AcDbBlockBegin
  2
*D11
 70
     1
 10
0.0
 20
0.0
 30
0.0
  3
*D11
  1

  0
LINE
  5
1570
330
156D
100
AcDbEntity
  8
SIZE
 62
     0
370
    -2
100
AcDbLine
 10
1055.918421634096
 20
1585.998912144865
 30
0.0
 11
1055.918421634096
 21
1735.910474793192
 31
0.0
  0
LINE
  5
1571
330
156D
100
AcDbEntity
  8
SIZE
 62
     0
370
    -2
100
AcDbLine
 10
1967.918421634097
 20
1585.998912144858
 30
0.0
 11
1967.918421634097
 21
1735.910474793192
 31
0.0
  0
LINE
  5
1572
330
156D
100
AcDbEntity
  8
SIZE
 62
     0
370
    -2
100
AcDbLine
 10
1075.918421634096
 20
1725.910474793192
 30
0.0
 11
1947.918421634097
 21
1725.910474793192
 31
0.0
  0
INSERT
  5
1573
330
156D
100
AcDbEntity
  8
SIZE
 62
     0
370
    -2
100
AcDbBlockReference
  2
_OPEN30
 10
1055.918421634096
 20
1725.910474793192
 30
0.0
 41
20.0
 42
20.0
 43
20.0
 50
180.0
  0
INSERT
  5
1574
330
156D
100
AcDbEntity
  8
SIZE
 62
     0
370
    -2
100
AcDbBlockReference
  2
_OPEN30
 10
1967.918421634097
 20
1725.910474793192
 30
0.0
 41
20.0
 42
20.0
 43
20.0
  0
MTEXT
  5
1575
330
156D
100
AcDbEntity
  8
SIZE
 62
     0
100
AcDbMText
 10
1511.918421634097
 20
1745.910474793192
 30
0.0
 40
20.0
 41
0.0
 71
     5
 72
     1
  1
\A1;912
 73
     1
 44
1.0
1001
ACAD
1000
MTEXTBEGIN
1070
    73
1070
     1
1070
    44
1040
1.0
1070
    74
1070
     0
1000
MTEXTEND
  0
POINT
  5
1576
330
156D
100
AcDbEntity
  8
Defpoints
 62
     0
100
AcDbPoint
 10
1055.918421634096
 20
1575.998912144865
 30
0.0
  0
POINT
  5
1577
330
156D
100
AcDbEntity
  8
Defpoints
 62
     0
100
AcDbPoint
 10
1967.918421634097
 20
1575.998912144858
 30
0.0
  0
POINT
  5
1578
330
156D
100
AcDbEntity
  8
Defpoints
 62
     0
100
AcDbPoint
 10
1967.918421634097
 20
1725.910474793192
 30
0.0
  0
ENDBLK
  5
156F
330
156D
100
AcDbEntity
  8
0
100
AcDbBlockEnd
  0
BLOCK
  5
157B
330
157A
100
AcDbEntity
  8
0
100
AcDbBlockBegin
  2
*D12
 70
     1
 10
0.0
 20
0.0
 30
0.0
  3
*D12
  1

  0
LINE
  5
157D
330
157A
100
AcDbEntity
  8
SIZE
 62
     0
370
    -2
100
AcDbLine
 10
1050.418421634096
 20
1562.998912144865
 30
0.0
 11
1001.578957738109
 21
1562.998912144865
 31
0.0
  0
LINE
  5
157E
330
157A
100
AcDbEntity
  8
SIZE
 62
     0
370
    -2
100
AcDbLine
 10
1050.418421634096
 20
1412.998912144865
 30
0.0
 11
1001.578957738109
 21
1412.998912144865
 31
0.0
  0
LINE
  5
157F
330
157A
100
AcDbEntity
  8
SIZE
 62
     0
370
    -2
100
AcDbLine
 10
1011.578957738109
 20
1542.998912144865
 30
0.0
 11
1011.578957738109
 21
1432.998912144865
 31
0.0
  0
INSERT
  5
1580
330
157A
100
AcDbEntity
  8
SIZE
 62
     0
370
    -2
100
AcDbBlockReference
  2
_OPEN30
 10
1011.578957738109
 20
1562.998912144865
 30
0.0
 41
20.0
 42
20.0
 43
20.0
 50
90.0
  0
INSERT
  5
1581
330
157A
100
AcDbEntity
  8
SIZE
 62
     0
370
    -2
100
AcDbBlockReference
  2
_OPEN30
 10
1011.578957738109
 20
1412.998912144865
 30
0.0
 41
20.0
 42
20.0
 43
20.0
 50
270.0
  0
MTEXT
  5
1582
330
157A
100
AcDbEntity
  8
SIZE
 62
     0
100
AcDbMText
 10
991.578957738109
 20
1487.998912144865
 30
0.0
 40
20.0
 41
0.0
 71
     5
 72
     1
  1
\A1;150
 11
0.0000000000000001
 21
1.0
 31
0.0
 73
     1
 44
1.0
1001
ACAD
1000
MTEXTBEGIN
1070
    73
1070
     1
1070
    44
1040
1.0
1070
    74
1070
     0
1000
MTEXTEND
  0
POINT
  5
1583
330
157A
100
AcDbEntity
  8
Defpoints
 62
     0
100
AcDbPoint
 10
1060.418421634096
 20
1562.998912144865
 30
0.0
  0
POINT
  5
1584
330
157A
100
AcDbEntity
  8
Defpoints
 62
     0
100
AcDbPoint
 10
1060.418421634096
 20
1412.998912144865
 30
0.0
  0
POINT
  5
1585
330
157A
100
AcDbEntity
  8
Defpoints
 62
     0
100
AcDbPoint
 10
1011.578957738109
 20
1412.998912144865
 30
0.0
  0
ENDBLK
  5
157C
330
157A
100
AcDbEntity
  8
0
100
AcDbBlockEnd
  0
BLOCK
  5
1588
330
1587
100
AcDbEntity
  8
0
100
AcDbBlockBegin
  2
*D13
 70
     1
 10
0.0
 20
0.0
 30
0.0
  3
*D13
  1

  0
LINE
  5
15BA
330
1587
100
AcDbEntity
  8
SIZE
 62
     0
370
    -2
100
AcDbLine
 10
1050.418421634096
 20
1412.998912144865
 30
0.0
 11
1001.578957738109
 21
1412.998912144865
 31
0.0
  0
LINE
  5
15BB
330
1587
100
AcDbEntity
  8
SIZE
 62
     0
370
    -2
100
AcDbLine
 10
1030.595420559354
 20
1263.003295767508
 30
0.0
 11
1001.578957738109
 21
1263.003295767508
 31
0.0
  0
LINE
  5
15BC
330
1587
100
AcDbEntity
  8
SIZE
 62
     0
370
    -2
100
AcDbLine
 10
1011.578957738109
 20
1392.998912144865
 30
0.0
 11
1011.578957738109
 21
1283.003295767508
 31
0.0
  0
INSERT
  5
15BD
330
1587
100
AcDbEntity
  8
SIZE
 62
     0
370
    -2
100
AcDbBlockReference
  2
_OPEN30
 10
1011.578957738109
 20
1412.998912144865
 30
0.0
 41
20.0
 42
20.0
 43
20.0
 50
90.0
  0
INSERT
  5
15BE
330
1587
100
AcDbEntity
  8
SIZE
 62
     0
370
    -2
100
AcDbBlockReference
  2
_OPEN30
 10
1011.578957738109
 20
1263.003295767508
 30
0.0
 41
20.0
 42
20.0
 43
20.0
 50
270.0
  0
MTEXT
  5
15BF
330
1587
100
AcDbEntity
  8
SIZE
 62
     0
100
AcDbMText
 10
991.578957738109
 20
1338.001103956187
 30
0.0
 40
20.0
 41
0.0
 71
     5
 72
     1
  1
\A1;150
 11
0.0000000000000001
 21
1.0
 31
0.0
 73
     1
 44
1.0
1001
ACAD
1000
MTEXTBEGIN
1070
    73
1070
     1
1070
    44
1040
1.0
1070
    74
1070
     0
1000
MTEXTEND
  0
POINT
  5
15C0
330
1587
100
AcDbEntity
  8
Defpoints
 62
     0
100
AcDbPoint
 10
1060.418421634096
 20
1412.998912144865
 30
0.0
  0
POINT
  5
15C1
330
1587
100
AcDbEntity
  8
Defpoints
 62
     0
100
AcDbPoint
 10
1040.595420559354
 20
1263.003295767508
 30
0.0
  0
POINT
  5
15C2
330
1587
100
AcDbEntity
  8
Defpoints
 62
     0
100
AcDbPoint
 10
1011.578957738109
 20
1263.003295767508
 30
0.0
  0
ENDBLK
  5
1589
330
1587
100
AcDbEntity
  8
0
100
AcDbBlockEnd
  0
BLOCK
  5
1595
330
1594
100
AcDbEntity
  8
0
100
AcDbBlockBegin
  2
*D14
 70
     1
 10
0.0
 20
0.0
 30
0.0
  3
*D14
  1

  0
LINE
  5
15C3
330
1594
100
AcDbEntity
  8
SIZE
 62
     0
370
    -2
100
AcDbLine
 10
1030.595420559354
 20
1263.003295767508
 30
0.0
 11
1001.578957738109
 21
1263.003295767508
 31
0.0
  0
LINE
  5
15C4
330
1594
100
AcDbEntity
  8
SIZE
 62
     0
370
    -2
100
AcDbLine
 10
1050.418421634096
 20
1112.998912144865
 30
0.0
 11
1001.578957738109
 21
1112.998912144865
 31
0.0
  0
LINE
  5
15C5
330
1594
100
AcDbEntity
  8
SIZE
 62
     0
370
    -2
100
AcDbLine
 10
1011.578957738109
 20
1243.003295767508
 30
0.0
 11
1011.578957738109
 21
1132.998912144865
 31
0.0
  0
INSERT
  5
15C6
330
1594
100
AcDbEntity
  8
SIZE
 62
     0
370
    -2
100
AcDbBlockReference
  2
_OPEN30
 10
1011.578957738109
 20
1263.003295767508
 30
0.0
 41
20.0
 42
20.0
 43
20.0
 50
90.0
  0
INSERT
  5
15C7
330
1594
100
AcDbEntity
  8
SIZE
 62
     0
370
    -2
100
AcDbBlockReference
  2
_OPEN30
 10
1011.578957738109
 20
1112.998912144865
 30
0.0
 41
20.0
 42
20.0
 43
20.0
 50
270.0
  0
MTEXT
  5
15C8
330
1594
100
AcDbEntity
  8
SIZE
 62
     0
100
AcDbMText
 10
991.578957738109
 20
1188.001103956187
 30
0.0
 40
20.0
 41
0.0
 71
     5
 72
     1
  1
\A1;150
 11
0.0000000000000001
 21
1.0
 31
0.0
 73
     1
 44
1.0
1001
ACAD
1000
MTEXTBEGIN
1070
    73
1070
     1
1070
    44
1040
1.0
1070
    74
1070
     0
1000
MTEXTEND
  0
POINT
  5
15C9
330
1594
100
AcDbEntity
  8
Defpoints
 62
     0
100
AcDbPoint
 10
1040.595420559354
 20
1263.003295767508
 30
0.0
  0
POINT
  5
15CA
330
1594
100
AcDbEntity
  8
Defpoints
 62
     0
100
AcDbPoint
 10
1060.418421634096
 20
1112.998912144865
 30
0.0
  0
POINT
  5
15CB
330
1594
100
AcDbEntity
  8
Defpoints
 62
     0
100
AcDbPoint
 10
1011.578957738109
 20
1112.998912144865
 30
0.0
  0
ENDBLK
  5
1596
330
1594
100
AcDbEntity
  8
0
100
AcDbBlockEnd
  0
BLOCK
  5
15A2
330
15A1
100
AcDbEntity
  8
0
100
AcDbBlockBegin
  2
*D15
 70
     1
 10
0.0
 20
0.0
 30
0.0
  3
*D15
  1

  0
LINE
  5
15CC
330
15A1
100
AcDbEntity
  8
SIZE
 62
     0
370
    -2
100
AcDbLine
 10
1050.418421634096
 20
1112.998912144865
 30
0.0
 11
1001.578957738109
 21
1112.998912144865
 31
0.0
  0
LINE
  5
15CD
330
15A1
100
AcDbEntity
  8
SIZE
 62
     0
370
    -2
100
AcDbLine
 10
1050.418421634096
 20
962.9989121448652
 30
0.0
 11
1001.578957738109
 21
962.9989121448652
 31
0.0
  0
LINE
  5
15CE
330
15A1
100
AcDbEntity
  8
SIZE
 62
     0
370
    -2
100
AcDbLine
 10
1011.578957738109
 20
1092.998912144865
 30
0.0
 11
1011.578957738109
 21
982.9989121448653
 31
0.0
  0
INSERT
  5
15CF
330
15A1
100
AcDbEntity
  8
SIZE
 62
     0
370
    -2
100
AcDbBlockReference
  2
_OPEN30
 10
1011.578957738109
 20
1112.998912144865
 30
0.0
 41
20.0
 42
20.0
 43
20.0
 50
90.0
  0
INSERT
  5
15D0
330
15A1
100
AcDbEntity
  8
SIZE
 62
     0
370
    -2
100
AcDbBlockReference
  2
_OPEN30
 10
1011.578957738109
 20
962.9989121448652
 30
0.0
 41
20.0
 42
20.0
 43
20.0
 50
270.0
  0
MTEXT
  5
15D1
330
15A1
100
AcDbEntity
  8
SIZE
 62
     0
100
AcDbMText
 10
991.578957738109
 20
1037.998912144865
 30
0.0
 40
20.0
 41
0.0
 71
     5
 72
     1
  1
\A1;150
 11
0.0000000000000001
 21
1.0
 31
0.0
 73
     1
 44
1.0
1001
ACAD
1000
MTEXTBEGIN
1070
    73
1070
     1
1070
    44
1040
1.0
1070
    74
1070
     0
1000
MTEXTEND
  0
POINT
  5
15D2
330
15A1
100
AcDbEntity
  8
Defpoints
 62
     0
100
AcDbPoint
 10
1060.418421634096
 20
1112.998912144865
 30
0.0
  0
POINT
  5
15D3
330
15A1
100
AcDbEntity
  8
Defpoints
 62
     0
100
AcDbPoint
 10
1060.418421634096
 20
962.9989121448652
 30
0.0
  0
POINT
  5
15D4
330
15A1
100
AcDbEntity
  8
Defpoints
 62
     0
100
AcDbPoint
 10
1011.578957738109
 20
962.9989121448652
 30
0.0
  0
ENDBLK
  5
15A3
330
15A1
100
AcDbEntity
  8
0
100
AcDbBlockEnd
  0
BLOCK
  5
15AF
330
15AE
100
AcDbEntity
  8
0
100
AcDbBlockBegin
  2
*D16
 70
     1
 10
0.0
 20
0.0
 30
0.0
  3
*D16
  1

  0
LINE
  5
188B
330
15AE
100
AcDbEntity
  8
SIZE
 62
     0
370
    -2
100
AcDbLine
 10
1080.418421634095
 20
895.9989121448582
 30
0.0
 11
953.9033259226302
 21
895.9989121448582
 31
0.0
  0
LINE
  5
188C
330
15AE
100
AcDbEntity
  8
SIZE
 62
     0
370
    -2
100
AcDbLine
 10
1110.418421634099
 20
1629.998912144858
 30
0.0
 11
953.9033259226302
 21
1629.998912144858
 31
0.0
  0
LINE
  5
188D
330
15AE
100
AcDbEntity
  8
SIZE
 62
     0
370
    -2
100
AcDbLine
 10
963.9033259226303
 20
915.9989121448582
 30
0.0
 11
963.9033259226303
 21
1609.998912144858
 31
0.0
  0
INSERT
  5
188E
330
15AE
100
AcDbEntity
  8
SIZE
 62
     0
370
    -2
100
AcDbBlockReference
  2
_OPEN30
 10
963.9033259226303
 20
895.9989121448582
 30
0.0
 41
20.0
 42
20.0
 43
20.0
 50
270.0
  0
INSERT
  5
188F
330
15AE
100
AcDbEntity
  8
SIZE
 62
     0
370
    -2
100
AcDbBlockReference
  2
_OPEN30
 10
963.9033259226303
 20
1629.998912144858
 30
0.0
 41
20.0
 42
20.0
 43
20.0
 50
90.0
  0
MTEXT
  5
1890
330
15AE
100
AcDbEntity
  8
SIZE
 62
     0
100
AcDbMText
 10
943.9033259226299
 20
1262.998912144858
 30
0.0
 40
20.0
 41
0.0
 71
     5
 72
     1
  1
\A1;734
 11
0.0000000000000001
 21
1.0
 31
0.0
 73
     1
 44
1.0
1001
ACAD
1000
MTEXTBEGIN
1070
    73
1070
     1
1070
    44
1040
1.0
1070
    74
1070
     0
1000
MTEXTEND
  0
POINT
  5
1891
330
15AE
100
AcDbEntity
  8
Defpoints
 62
     0
100
AcDbPoint
 10
1090.418421634095
 20
895.9989121448582
 30
0.0
  0
POINT
  5
1892
330
15AE
100
AcDbEntity
  8
Defpoints
 62
     0
100
AcDbPoint
 10
1120.418421634099
 20
1629.998912144858
 30
0.0
  0
POINT
  5
1893
330
15AE
100
AcDbEntity
  8
Defpoints
 62
     0
100
AcDbPoint
 10
963.9033259226303
 20
1629.998912144858
 30
0.0
  0
ENDBLK
  5
15B0
330
15AE
100
AcDbEntity
  8
0
100
AcDbBlockEnd
  0
BLOCK
  5
15D8
330
15D7
100
AcDbEntity
  8
0
100
AcDbBlockBegin
  2
*D17
 70
     1
 10
0.0
 20
0.0
 30
0.0
  3
*D17
  1

  0
LINE
  5
1602
330
15D7
100
AcDbEntity
  8
SIZE
100
AcDbLine
 10
1061.720804107804
 20
1589.206990321924
 30
0.0
 11
1023.385329793412
 21
1678.931354047263
 31
0.0
  0
LINE
  5
1603
330
15D7
100
AcDbEntity
  8
SIZE
100
AcDbLine
 10
1023.385329793412
 20
1678.931354047263
 30
0.0
 11
981.9567583648407
 21
1678.931354047263
 31
0.0
  0
SOLID
  5
1604
330
15D7
100
AcDbEntity
  8
SIZE
100
AcDbTrace
 10
1065.552394484567
 20
1590.844068907639
 30
0.0
 11
1057.889213731041
 21
1587.569911736209
 31
0.0
 12
1071.543275622095
 22
1566.217448061345
 32
0.0
 13
1071.543275622095
 23
1566.217448061345
 33
0.0
  0
MTEXT
  5
1605
102
{ACAD_XDICTIONARY
360
2D95
102
}
330
15D7
100
AcDbEntity
  8
SIZE
 62
     2
100
AcDbMText
 10
997.6710440791277
 20
1698.931354047264
 30
0.0
 40
20.0
 41
0.0
 71
     5
 72
     1
  1
\U+22057
 73
     1
 44
1.0
1001
ACAD
1000
MTEXTBEGIN
1070
    73
1070
     1
1070
    44
1040
1.0
1070
    74
1070
     0
1000
MTEXTEND
  0
ARC
  5
1606
330
15D7
100
AcDbEntity
  8
SIZE
100
AcDbCircle
 10
1014.316363944915
 20
1601.649728461688
 30
0.0
 40
3.499999999999771
100
AcDbArc
 50
270.0000000000001
 51
328.2361070036568
  0
POINT
  5
1607
330
15D7
100
AcDbEntity
  8
Defpoints
 62
     0
100
AcDbPoint
 10
1071.543275622095
 20
1566.217448061345
 30
0.0
  0
POINT
  5
1608
330
15D7
100
AcDbEntity
  8
Defpoints
 62
     0
100
AcDbPoint
 10
1074.293567646096
 20
1559.780376228384
 30
0.0
  0
ENDBLK
  5
15D9
330
15D7
100
AcDbEntity
  8
0
100
AcDbBlockEnd
  0
BLOCK
  5
160B
330
160A
100
AcDbEntity
  8
0
100
AcDbBlockBegin
  2
*D18
 70
     1
 10
0.0
 20
0.0
 30
0.0
  3
*D18
  1

  0
LINE
  5
168D
330
160A
100
AcDbEntity
  8
NOTE
 62
     0
370
    -2
100
AcDbLine
 10
886.0409392145001
 20
1711.64293990896
 30
0.0
 11
953.3742725478335
 21
1711.64293990896
 31
0.0
  0
LINE
  5
168E
330
160A
100
AcDbEntity
  8
NOTE
 62
     0
370
    -2
100
AcDbLine
 10
953.3742725478335
 20
1711.64293990896
 30
0.0
 11
1058.190891449092
 21
1581.311472169334
 31
0.0
  0
MTEXT
  5
168F
330
160A
100
AcDbEntity
  8
NOTE
 62
     0
100
AcDbMText
 10
909.5647487383097
 20
1731.64293990896
 30
0.0
 40
20.0
 41
0.0
 71
     5
 72
     1
  1
\A1;10×
 73
     1
 44
1.0
1001
ACAD
1000
MTEXTBEGIN
1070
    73
1070
     1
1070
    44
1040
1.0
1070
    74
1070
     0
1000
MTEXTEND
  0
INSERT
  5
1690
330
160A
100
AcDbEntity
  8
NOTE
 62
     0
370
    -2
100
AcDbBlockReference
  2
_OPEN30
 10
1070.724959691648
 20
1565.726314701701
 30
0.0
 41
20.0
 42
20.0
 43
20.0
 50
308.8073228777204
  0
POINT
  5
1691
330
160A
100
AcDbEntity
  8
Defpoints
 62
     0
100
AcDbPoint
 10
1070.724959691648
 20
1565.726314701701
 30
0.0
  0
POINT
  5
1692
330
160A
100
AcDbEntity
  8
Defpoints
 62
     0
100
AcDbPoint
 10
1072.918421634096
 20
1562.998912144865
 30
0.0
  0
ENDBLK
  5
160C
330
160A
100
AcDbEntity
  8
0
100
AcDbBlockEnd
  0
BLOCK
  5
1C4C
330
1C4B
100
AcDbEntity
  8
0
100
AcDbBlockBegin
  2
*D19
 70
     1
 10
0.0
 20
0.0
 30
0.0
  3
*D19
  1

  0
LINE
  5
1C4E
330
1C4B
100
AcDbEntity
  8
SIZE
 62
     0
370
    -2
100
AcDbLine
 10
2582.596297744664
 20
1657.836891923287
 30
0.0
 11
2582.596297744664
 21
1694.104458386181
 31
0.0
  0
LINE
  5
1C4F
330
1C4B
100
AcDbEntity
  8
SIZE
 62
     0
370
    -2
100
AcDbLine
 10
3013.596297697394
 20
1657.836891923287
 30
0.0
 11
3013.596297697394
 21
1694.104458386181
 31
0.0
  0
LINE
  5
1C50
330
1C4B
100
AcDbEntity
  8
SIZE
 62
     0
370
    -2
100
AcDbLine
 10
2602.596297744664
 20
1684.104458386181
 30
0.0
 11
2993.596297697394
 21
1684.104458386181
 31
0.0
  0
INSERT
  5
1C51
330
1C4B
100
AcDbEntity
  8
SIZE
 62
     0
370
    -2
100
AcDbBlockReference
  2
_OPEN30
 10
2582.596297744664
 20
1684.104458386181
 30
0.0
 41
20.0
 42
20.0
 43
20.0
 50
180.0
  0
INSERT
  5
1C52
330
1C4B
100
AcDbEntity
  8
SIZE
 62
     0
370
    -2
100
AcDbBlockReference
  2
_OPEN30
 10
3013.596297697394
 20
1684.104458386181
 30
0.0
 41
20.0
 42
20.0
 43
20.0
  0
MTEXT
  5
1C53
330
1C4B
100
AcDbEntity
  8
SIZE
 62
     0
100
AcDbMText
 10
2798.096297721029
 20
1704.104458386181
 30
0.0
 40
20.0
 41
0.0
 71
     5
 72
     1
  1
\A1;431
 73
     1
 44
1.0
1001
ACAD
1000
MTEXTBEGIN
1070
    73
1070
     1
1070
    44
1040
1.0
1070
    74
1070
     0
1000
MTEXTEND
  0
POINT
  5
1C54
330
1C4B
100
AcDbEntity
  8
Defpoints
 62
     0
100
AcDbPoint
 10
2582.596297744664
 20
1647.836891923287
 30
0.0
  0
POINT
  5
1C55
330
1C4B
100
AcDbEntity
  8
Defpoints
 62
     0
100
AcDbPoint
 10
3013.596297697394
 20
1647.836891923287
 30
0.0
  0
POINT
  5
1C56
330
1C4B
100
AcDbEntity
  8
Defpoints
 62
     0
100
AcDbPoint
 10
3013.596297697394
 20
1684.104458386181
 30
0.0
  0
ENDBLK
  5
1C4D
330
1C4B
100
AcDbEntity
  8
0
100
AcDbBlockEnd
  0
BLOCK
  5
1C59
330
1C58
100
AcDbEntity
  8
0
100
AcDbBlockBegin
  2
*D20
 70
     1
 10
0.0
 20
0.0
 30
0.0
  3
*D20
  1

  0
LINE
  5
1C5B
330
1C58
100
AcDbEntity
  8
SIZE
 62
     0
370
    -2
100
AcDbLine
 10
3019.096298984524
 20
1657.836891923291
 30
0.0
 11
3019.096298984524
 21
1735.937481640759
 31
0.0
  0
LINE
  5
1C5C
330
1C58
100
AcDbEntity
  8
SIZE
 62
     0
370
    -2
100
AcDbLine
 10
2546.096298984523
 20
1657.836891923291
 30
0.0
 11
2546.096298984523
 21
1735.937481640759
 31
0.0
  0
LINE
  5
1C5D
330
1C58
100
AcDbEntity
  8
SIZE
 62
     0
370
    -2
100
AcDbLine
 10
2999.096298984524
 20
1725.937481640758
 30
0.0
 11
2566.096298984523
 21
1725.937481640758
 31
0.0
  0
INSERT
  5
1C5E
330
1C58
100
AcDbEntity
  8
SIZE
 62
     0
370
    -2
100
AcDbBlockReference
  2
_OPEN30
 10
3019.096298984524
 20
1725.937481640758
 30
0.0
 41
20.0
 42
20.0
 43
20.0
  0
INSERT
  5
1C5F
330
1C58
100
AcDbEntity
  8
SIZE
 62
     0
370
    -2
100
AcDbBlockReference
  2
_OPEN30
 10
2546.096298984523
 20
1725.937481640758
 30
0.0
 41
20.0
 42
20.0
 43
20.0
 50
180.0
  0
MTEXT
  5
1C60
330
1C58
100
AcDbEntity
  8
SIZE
 62
     0
100
AcDbMText
 10
2782.596298984523
 20
1745.937481640759
 30
0.0
 40
20.0
 41
0.0
 71
     5
 72
     1
  1
\A1;473
 73
     1
 44
1.0
1001
ACAD
1000
MTEXTBEGIN
1070
    73
1070
     1
1070
    44
1040
1.0
1070
    74
1070
     0
1000
MTEXTEND
  0
POINT
  5
1C61
330
1C58
100
AcDbEntity
  8
Defpoints
 62
     0
100
AcDbPoint
 10
3019.096298984524
 20
1647.83689192329
 30
0.0
  0
POINT
  5
1C62
330
1C58
100
AcDbEntity
  8
Defpoints
 62
     0
100
AcDbPoint
 10
2546.096298984523
 20
1647.836891923291
 30
0.0
  0
POINT
  5
1C63
330
1C58
100
AcDbEntity
  8
Defpoints
 62
     0
100
AcDbPoint
 10
2546.096298984523
 20
1725.937481640758
 30
0.0
  0
ENDBLK
  5
1C5A
330
1C58
100
AcDbEntity
  8
0
100
AcDbBlockEnd
  0
BLOCK
  5
1C66
330
1C65
100
AcDbEntity
  8
0
100
AcDbBlockBegin
  2
*D21
 70
     1
 10
0.0
 20
0.0
 30
0.0
  3
*D21
  1

  0
LINE
  5
1C68
330
1C65
100
AcDbEntity
  8
SIZE
 62
     0
370
    -2
100
AcDbLine
 10
2528.096298992569
 20
1637.836891923288
 30
0.0
 11
2472.104357673866
 21
1637.836891923288
 31
0.0
  0
LINE
  5
1C69
330
1C65
100
AcDbEntity
  8
SIZE
 62
     0
370
    -2
100
AcDbLine
 10
2529.096298181358
 20
1191.232532402897
 30
0.0
 11
2472.104357673866
 21
1191.232532402897
 31
0.0
  0
LINE
  5
1C6A
330
1C65
100
AcDbEntity
  8
SIZE
 62
     0
370
    -2
100
AcDbLine
 10
2482.104357673867
 20
1617.836891923287
 30
0.0
 11
2482.104357673867
 21
1211.232532402897
 31
0.0
  0
INSERT
  5
1C6B
330
1C65
100
AcDbEntity
  8
SIZE
 62
     0
370
    -2
100
AcDbBlockReference
  2
_OPEN30
 10
2482.104357673867
 20
1637.836891923288
 30
0.0
 41
20.0
 42
20.0
 43
20.0
 50
90.0
  0
INSERT
  5
1C6C
330
1C65
100
AcDbEntity
  8
SIZE
 62
     0
370
    -2
100
AcDbBlockReference
  2
_OPEN30
 10
2482.104357673867
 20
1191.232532402897
 30
0.0
 41
20.0
 42
20.0
 43
20.0
 50
270.0
  0
MTEXT
  5
1C6D
330
1C65
100
AcDbEntity
  8
SIZE
 62
     0
100
AcDbMText
 10
2462.104357673866
 20
1414.534712163093
 30
0.0
 40
20.0
 41
0.0
 71
     5
 72
     1
  1
\A1;446.5
 11
0.0000000000000001
 21
1.0
 31
0.0
 73
     1
 44
1.0
1001
ACAD
1000
MTEXTBEGIN
1070
    73
1070
     1
1070
    44
1040
1.0
1070
    74
1070
     0
1000
MTEXTEND
  0
POINT
  5
1C6E
330
1C65
100
AcDbEntity
  8
Defpoints
 62
     0
100
AcDbPoint
 10
2538.096298992569
 20
1637.836891923288
 30
0.0
  0
POINT
  5
1C6F
330
1C65
100
AcDbEntity
  8
Defpoints
 62
     0
100
AcDbPoint
 10
2539.096298181358
 20
1191.232532402897
 30
0.0
  0
POINT
  5
1C70
330
1C65
100
AcDbEntity
  8
Defpoints
 62
     0
100
AcDbPoint
 10
2482.104357673867
 20
1191.232532402897
 30
0.0
  0
ENDBLK
  5
1C67
330
1C65
100
AcDbEntity
  8
0
100
AcDbBlockEnd
  0
BLOCK
  5
1D77
330
1D76
100
AcDbEntity
  8
0
100
AcDbBlockBegin
  2
*D22
 70
     1
 10
0.0
 20
0.0
 30
0.0
  3
*D22
  1

  0
LINE
  5
1D79
330
1D76
100
AcDbEntity
  8
SIZE
 62
     0
370
    -2
100
AcDbLine
 10
2538.096298992569
 20
1647.836891923288
 30
0.0
 11
2538.096298992569
 21
1777.810051332952
 31
0.0
  0
LINE
  5
1D7A
330
1D76
100
AcDbEntity
  8
SIZE
 62
     0
370
    -2
100
AcDbLine
 10
3027.09629899257
 20
1647.836891923291
 30
0.0
 11
3027.09629899257
 21
1777.810051332952
 31
0.0
  0
LINE
  5
1D7B
330
1D76
100
AcDbEntity
  8
SIZE
 62
     0
370
    -2
100
AcDbLine
 10
2558.096298992569
 20
1767.810051332952
 30
0.0
 11
3007.09629899257
 21
1767.810051332952
 31
0.0
  0
INSERT
  5
1D7C
330
1D76
100
AcDbEntity
  8
SIZE
 62
     0
370
    -2
100
AcDbBlockReference
  2
_OPEN30
 10
2538.096298992569
 20
1767.810051332952
 30
0.0
 41
20.0
 42
20.0
 43
20.0
 50
180.0
  0
INSERT
  5
1D7D
330
1D76
100
AcDbEntity
  8
SIZE
 62
     0
370
    -2
100
AcDbBlockReference
  2
_OPEN30
 10
3027.09629899257
 20
1767.810051332952
 30
0.0
 41
20.0
 42
20.0
 43
20.0
  0
MTEXT
  5
1D7E
330
1D76
100
AcDbEntity
  8
SIZE
 62
     0
100
AcDbMText
 10
2782.596298992569
 20
1787.810051332952
 30
0.0
 40
20.0
 41
0.0
 71
     5
 72
     1
  1
\A1;489
 73
     1
 44
1.0
1001
ACAD
1000
MTEXTBEGIN
1070
    73
1070
     1
1070
    44
1040
1.0
1070
    74
1070
     0
1000
MTEXTEND
  0
POINT
  5
1D7F
330
1D76
100
AcDbEntity
  8
Defpoints
 62
     0
100
AcDbPoint
 10
2538.096298992569
 20
1637.836891923288
 30
0.0
  0
POINT
  5
1D80
330
1D76
100
AcDbEntity
  8
Defpoints
 62
     0
100
AcDbPoint
 10
3027.09629899257
 20
1637.836891923291
 30
0.0
  0
POINT
  5
1D81
330
1D76
100
AcDbEntity
  8
Defpoints
 62
     0
100
AcDbPoint
 10
3027.09629899257
 20
1767.810051332952
 30
0.0
  0
ENDBLK
  5
1D78
330
1D76
100
AcDbEntity
  8
0
100
AcDbBlockEnd
  0
BLOCK
  5
1F57
330
1F56
100
AcDbEntity
  8
0
100
AcDbBlockBegin
  2
*D23
 70
     1
 10
0.0
 20
0.0
 30
0.0
  3
*D23
  1

  0
LINE
  5
1F59
330
1F56
100
AcDbEntity
  8
SIZE
 62
     0
370
    -2
100
AcDbLine
 10
3330.955079088778
 20
1659.76926214341
 30
0.0
 11
3330.955079088778
 21
1691.200095026314
 31
0.0
  0
LINE
  5
1F5A
330
1F56
100
AcDbEntity
  8
SIZE
 62
     0
370
    -2
100
AcDbLine
 10
4119.95507908878
 20
1659.769262143407
 30
0.0
 11
4119.95507908878
 21
1691.200095026314
 31
0.0
  0
LINE
  5
1F5B
330
1F56
100
AcDbEntity
  8
SIZE
 62
     0
370
    -2
100
AcDbLine
 10
3350.955079088778
 20
1681.200095026314
 30
0.0
 11
4099.955079088778
 21
1681.200095026314
 31
0.0
  0
INSERT
  5
1F5C
330
1F56
100
AcDbEntity
  8
SIZE
 62
     0
370
    -2
100
AcDbBlockReference
  2
_OPEN30
 10
3330.955079088778
 20
1681.200095026314
 30
0.0
 41
20.0
 42
20.0
 43
20.0
 50
180.0
  0
INSERT
  5
1F5D
330
1F56
100
AcDbEntity
  8
SIZE
 62
     0
370
    -2
100
AcDbBlockReference
  2
_OPEN30
 10
4119.95507908878
 20
1681.200095026314
 30
0.0
 41
20.0
 42
20.0
 43
20.0
  0
MTEXT
  5
1F5E
330
1F56
100
AcDbEntity
  8
SIZE
 62
     0
100
AcDbMText
 10
3725.455079088778
 20
1701.200095026314
 30
0.0
 40
20.0
 41
0.0
 71
     5
 72
     1
  1
\A1;789
 73
     1
 44
1.0
1001
ACAD
1000
MTEXTBEGIN
1070
    73
1070
     1
1070
    44
1040
1.0
1070
    74
1070
     0
1000
MTEXTEND
  0
POINT
  5
1F5F
330
1F56
100
AcDbEntity
  8
Defpoints
 62
     0
100
AcDbPoint
 10
3330.955079088778
 20
1649.769262143411
 30
0.0
  0
POINT
  5
1F60
330
1F56
100
AcDbEntity
  8
Defpoints
 62
     0
100
AcDbPoint
 10
4119.95507908878
 20
1649.769262143407
 30
0.0
  0
POINT
  5
1F61
330
1F56
100
AcDbEntity
  8
Defpoints
 62
     0
100
AcDbPoint
 10
4119.95507908878
 20
1681.200095026314
 30
0.0
  0
ENDBLK
  5
1F58
330
1F56
100
AcDbEntity
  8
0
100
AcDbBlockEnd
  0
BLOCK
  5
1F64
330
1F63
100
AcDbEntity
  8
0
100
AcDbBlockBegin
  2
*D24
 70
     1
 10
0.0
 20
0.0
 30
0.0
  3
*D24
  1

  0
LINE
  5
1F66
330
1F63
100
AcDbEntity
  8
SIZE
 62
     0
370
    -2
100
AcDbLine
 10
3328.455079088778
 20
1659.76926214341
 30
0.0
 11
3328.455079088778
 21
1731.584245788479
 31
0.0
  0
LINE
  5
1F67
330
1F63
100
AcDbEntity
  8
SIZE
 62
     0
370
    -2
100
AcDbLine
 10
4122.455079088779
 20
1659.76926214341
 30
0.0
 11
4122.455079088779
 21
1731.584245788479
 31
0.0
  0
LINE
  5
1F68
330
1F63
100
AcDbEntity
  8
SIZE
 62
     0
370
    -2
100
AcDbLine
 10
3348.455079088778
 20
1721.584245788479
 30
0.0
 11
4102.455079088779
 21
1721.584245788479
 31
0.0
  0
INSERT
  5
1F69
330
1F63
100
AcDbEntity
  8
SIZE
 62
     0
370
    -2
100
AcDbBlockReference
  2
_OPEN30
 10
3328.455079088778
 20
1721.584245788479
 30
0.0
 41
20.0
 42
20.0
 43
20.0
 50
180.0
  0
INSERT
  5
1F6A
330
1F63
100
AcDbEntity
  8
SIZE
 62
     0
370
    -2
100
AcDbBlockReference
  2
_OPEN30
 10
4122.455079088779
 20
1721.584245788479
 30
0.0
 41
20.0
 42
20.0
 43
20.0
  0
MTEXT
  5
1F6B
330
1F63
100
AcDbEntity
  8
SIZE
 62
     0
100
AcDbMText
 10
3725.455079088778
 20
1741.584245788479
 30
0.0
 40
20.0
 41
0.0
 71
     5
 72
     1
  1
\A1;794
 73
     1
 44
1.0
1001
ACAD
1000
MTEXTBEGIN
1070
    73
1070
     1
1070
    44
1040
1.0
1070
    74
1070
     0
1000
MTEXTEND
  0
POINT
  5
1F6C
330
1F63
100
AcDbEntity
  8
Defpoints
 62
     0
100
AcDbPoint
 10
3328.455079088778
 20
1649.76926214341
 30
0.0
  0
POINT
  5
1F6D
330
1F63
100
AcDbEntity
  8
Defpoints
 62
     0
100
AcDbPoint
 10
4122.455079088779
 20
1649.76926214341
 30
0.0
  0
POINT
  5
1F6E
330
1F63
100
AcDbEntity
  8
Defpoints
 62
     0
100
AcDbPoint
 10
4122.455079088779
 20
1721.584245788479
 30
0.0
  0
ENDBLK
  5
1F65
330
1F63
100
AcDbEntity
  8
0
100
AcDbBlockEnd
  0
BLOCK
  5
1F71
330
1F70
100
AcDbEntity
  8
0
100
AcDbBlockBegin
  2
*D25
 70
     1
 10
0.0
 20
0.0
 30
0.0
  3
*D25
  1

  0
LINE
  5
1F73
330
1F70
100
AcDbEntity
  8
SIZE
 62
     0
370
    -2
100
AcDbLine
 10
3320.455079088778
 20
1649.76926214341
 30
0.0
 11
3320.455079088778
 21
1774.58279419447
 31
0.0
  0
LINE
  5
1F74
330
1F70
100
AcDbEntity
  8
SIZE
 62
     0
370
    -2
100
AcDbLine
 10
4130.455079088778
 20
1649.76926214342
 30
0.0
 11
4130.455079088778
 21
1774.58279419447
 31
0.0
  0
LINE
  5
1F75
330
1F70
100
AcDbEntity
  8
SIZE
 62
     0
370
    -2
100
AcDbLine
 10
3340.45507908878
 20
1764.58279419447
 30
0.0
 11
4110.455079088779
 21
1764.58279419447
 31
0.0
  0
INSERT
  5
1F76
330
1F70
100
AcDbEntity
  8
SIZE
 62
     0
370
    -2
100
AcDbBlockReference
  2
_OPEN30
 10
3320.455079088778
 20
1764.58279419447
 30
0.0
 41
20.0
 42
20.0
 43
20.0
 50
180.0
  0
INSERT
  5
1F77
330
1F70
100
AcDbEntity
  8
SIZE
 62
     0
370
    -2
100
AcDbBlockReference
  2
_OPEN30
 10
4130.455079088778
 20
1764.58279419447
 30
0.0
 41
20.0
 42
20.0
 43
20.0
  0
MTEXT
  5
1F78
330
1F70
100
AcDbEntity
  8
SIZE
 62
     0
100
AcDbMText
 10
3725.455079088778
 20
1784.58279419447
 30
0.0
 40
20.0
 41
0.0
 71
     5
 72
     1
  1
\A1;810
 73
     1
 44
1.0
1001
ACAD
1000
MTEXTBEGIN
1070
    73
1070
     1
1070
    44
1040
1.0
1070
    74
1070
     0
1000
MTEXTEND
  0
POINT
  5
1F79
330
1F70
100
AcDbEntity
  8
Defpoints
 62
     0
100
AcDbPoint
 10
3320.455079088778
 20
1639.76926214341
 30
0.0
  0
POINT
  5
1F7A
330
1F70
100
AcDbEntity
  8
Defpoints
 62
     0
100
AcDbPoint
 10
4130.455079088778
 20
1639.76926214342
 30
0.0
  0
POINT
  5
1F7B
330
1F70
100
AcDbEntity
  8
Defpoints
 62
     0
100
AcDbPoint
 10
4130.455079088778
 20
1764.58279419447
 30
0.0
  0
ENDBLK
  5
1F72
330
1F70
100
AcDbEntity
  8
0
100
AcDbBlockEnd
  0
BLOCK
  5
1F7E
330
1F7D
100
AcDbEntity
  8
0
100
AcDbBlockBegin
  2
*D26
 70
     1
 10
0.0
 20
0.0
 30
0.0
  3
*D26
  1

  0
LINE
  5
1F80
330
1F7D
100
AcDbEntity
  8
SIZE
 62
     0
370
    -2
100
AcDbLine
 10
3310.455079088778
 20
1639.76926214341
 30
0.0
 11
3266.006973620219
 21
1639.76926214341
 31
0.0
  0
LINE
  5
1F81
330
1F7D
100
AcDbEntity
  8
SIZE
 62
     0
370
    -2
100
AcDbLine
 10
3311.455079088778
 20
1192.777211736463
 30
0.0
 11
3266.006973620219
 21
1192.777211736463
 31
0.0
  0
LINE
  5
1F82
330
1F7D
100
AcDbEntity
  8
SIZE
 62
     0
370
    -2
100
AcDbLine
 10
3276.006973620218
 20
1619.76926214341
 30
0.0
 11
3276.006973620218
 21
1212.777211736464
 31
0.0
  0
INSERT
  5
1F83
330
1F7D
100
AcDbEntity
  8
SIZE
 62
     0
370
    -2
100
AcDbBlockReference
  2
_OPEN30
 10
3276.006973620218
 20
1639.76926214341
 30
0.0
 41
20.0
 42
20.0
 43
20.0
 50
90.0
  0
INSERT
  5
1F84
330
1F7D
100
AcDbEntity
  8
SIZE
 62
     0
370
    -2
100
AcDbBlockReference
  2
_OPEN30
 10
3276.006973620218
 20
1192.777211736463
 30
0.0
 41
20.0
 42
20.0
 43
20.0
 50
270.0
  0
MTEXT
  5
1F85
330
1F7D
100
AcDbEntity
  8
SIZE
 62
     0
100
AcDbMText
 10
3256.006973620218
 20
1416.273236939937
 30
0.0
 40
20.0
 41
0.0
 71
     5
 72
     1
  1
\A1;447
 11
0.0000000000000001
 21
1.0
 31
0.0
 73
     1
 44
1.0
1001
ACAD
1000
MTEXTBEGIN
1070
    73
1070
     1
1070
    44
1040
1.0
1070
    74
1070
     0
1000
MTEXTEND
  0
POINT
  5
1F86
330
1F7D
100
AcDbEntity
  8
Defpoints
 62
     0
100
AcDbPoint
 10
3320.455079088778
 20
1639.76926214341
 30
0.0
  0
POINT
  5
1F87
330
1F7D
100
AcDbEntity
  8
Defpoints
 62
     0
100
AcDbPoint
 10
3321.455079088778
 20
1192.777211736463
 30
0.0
  0
POINT
  5
1F88
330
1F7D
100
AcDbEntity
  8
Defpoints
 62
     0
100
AcDbPoint
 10
3276.006973620218
 20
1192.777211736463
 30
0.0
  0
ENDBLK
  5
1F7F
330
1F7D
100
AcDbEntity
  8
0
100
AcDbBlockEnd
  0
BLOCK
  5
2175
330
2174
100
AcDbEntity
  8
0
100
AcDbBlockBegin
  2
*D27
 70
     1
 10
0.0
 20
0.0
 30
0.0
  3
*D27
  1

  0
LINE
  5
2177
330
2174
100
AcDbEntity
  8
SIZE
 62
     0
370
    -2
100
AcDbLine
 10
4476.759656679549
 20
1655.277950805426
 30
0.0
 11
4408.895754641284
 21
1655.277950805426
 31
0.0
  0
LINE
  5
2178
330
2174
100
AcDbEntity
  8
SIZE
 62
     0
370
    -2
100
AcDbLine
 10
4477.759656679549
 20
1208.28590039848
 30
0.0
 11
4408.895754641284
 21
1208.28590039848
 31
0.0
  0
LINE
  5
2179
330
2174
100
AcDbEntity
  8
SIZE
 62
     0
370
    -2
100
AcDbLine
 10
4418.895754641286
 20
1635.277950805425
 30
0.0
 11
4418.895754641286
 21
1228.28590039848
 31
0.0
  0
INSERT
  5
217A
330
2174
100
AcDbEntity
  8
SIZE
 62
     0
370
    -2
100
AcDbBlockReference
  2
_OPEN30
 10
4418.895754641286
 20
1655.277950805426
 30
0.0
 41
20.0
 42
20.0
 43
20.0
 50
90.0
  0
INSERT
  5
217B
330
2174
100
AcDbEntity
  8
SIZE
 62
     0
370
    -2
100
AcDbBlockReference
  2
_OPEN30
 10
4418.895754641286
 20
1208.28590039848
 30
0.0
 41
20.0
 42
20.0
 43
20.0
 50
270.0
  0
MTEXT
  5
217C
330
2174
100
AcDbEntity
  8
SIZE
 62
     0
100
AcDbMText
 10
4398.895754641285
 20
1431.781925601953
 30
0.0
 40
20.0
 41
0.0
 71
     5
 72
     1
  1
\A1;447
 11
0.0000000000000001
 21
1.0
 31
0.0
 73
     1
 44
1.0
1001
ACAD
1000
MTEXTBEGIN
1070
    73
1070
     1
1070
    44
1040
1.0
1070
    74
1070
     0
1000
MTEXTEND
  0
POINT
  5
217D
330
2174
100
AcDbEntity
  8
Defpoints
 62
     0
100
AcDbPoint
 10
4486.759656679549
 20
1655.277950805426
 30
0.0
  0
POINT
  5
217E
330
2174
100
AcDbEntity
  8
Defpoints
 62
     0
100
AcDbPoint
 10
4487.759656679549
 20
1208.28590039848
 30
0.0
  0
POINT
  5
217F
330
2174
100
AcDbEntity
  8
Defpoints
 62
     0
100
AcDbPoint
 10
4418.895754641286
 20
1208.28590039848
 30
0.0
  0
ENDBLK
  5
2176
330
2174
100
AcDbEntity
  8
0
100
AcDbBlockEnd
  0
BLOCK
  5
2182
330
2181
100
AcDbEntity
  8
0
100
AcDbBlockBegin
  2
*D28
 70
     1
 10
0.0
 20
0.0
 30
0.0
  3
*D28
  1

  0
LINE
  5
2184
330
2181
100
AcDbEntity
  8
SIZE
 62
     0
370
    -2
100
AcDbLine
 10
4497.259656679549
 20
1675.277950805426
 30
0.0
 11
4497.259656679549
 21
1709.20254425975
 31
0.0
  0
LINE
  5
2185
330
2181
100
AcDbEntity
  8
SIZE
 62
     0
370
    -2
100
AcDbLine
 10
5586.259656679549
 20
1675.277950805422
 30
0.0
 11
5586.259656679549
 21
1709.20254425975
 31
0.0
  0
LINE
  5
2186
330
2181
100
AcDbEntity
  8
SIZE
 62
     0
370
    -2
100
AcDbLine
 10
4517.259656679549
 20
1699.20254425975
 30
0.0
 11
5566.259656679549
 21
1699.20254425975
 31
0.0
  0
INSERT
  5
2187
330
2181
100
AcDbEntity
  8
SIZE
 62
     0
370
    -2
100
AcDbBlockReference
  2
_OPEN30
 10
4497.259656679549
 20
1699.20254425975
 30
0.0
 41
20.0
 42
20.0
 43
20.0
 50
180.0
  0
INSERT
  5
2188
330
2181
100
AcDbEntity
  8
SIZE
 62
     0
370
    -2
100
AcDbBlockReference
  2
_OPEN30
 10
5586.259656679549
 20
1699.20254425975
 30
0.0
 41
20.0
 42
20.0
 43
20.0
  0
MTEXT
  5
2189
330
2181
100
AcDbEntity
  8
SIZE
 62
     0
100
AcDbMText
 10
5041.759656679549
 20
1719.20254425975
 30
0.0
 40
20.0
 41
0.0
 71
     5
 72
     1
  1
\A1;1089
 73
     1
 44
1.0
1001
ACAD
1000
MTEXTBEGIN
1070
    73
1070
     1
1070
    44
1040
1.0
1070
    74
1070
     0
1000
MTEXTEND
  0
POINT
  5
218A
330
2181
100
AcDbEntity
  8
Defpoints
 62
     0
100
AcDbPoint
 10
4497.259656679549
 20
1665.277950805427
 30
0.0
  0
POINT
  5
218B
330
2181
100
AcDbEntity
  8
Defpoints
 62
     0
100
AcDbPoint
 10
5586.259656679549
 20
1665.277950805422
 30
0.0
  0
POINT
  5
218C
330
2181
100
AcDbEntity
  8
Defpoints
 62
     0
100
AcDbPoint
 10
5586.259656679549
 20
1699.20254425975
 30
0.0
  0
ENDBLK
  5
2183
330
2181
100
AcDbEntity
  8
0
100
AcDbBlockEnd
  0
BLOCK
  5
218F
330
218E
100
AcDbEntity
  8
0
100
AcDbBlockBegin
  2
*D29
 70
     1
 10
0.0
 20
0.0
 30
0.0
  3
*D29
  1

  0
LINE
  5
2191
330
218E
100
AcDbEntity
  8
SIZE
 62
     0
370
    -2
100
AcDbLine
 10
5588.759656679549
 20
1675.277950805433
 30
0.0
 11
5588.759656679549
 21
1750.302067505392
 31
0.0
  0
LINE
  5
2192
330
218E
100
AcDbEntity
  8
SIZE
 62
     0
370
    -2
100
AcDbLine
 10
4494.759656679549
 20
1675.277950805426
 30
0.0
 11
4494.759656679549
 21
1750.302067505392
 31
0.0
  0
LINE
  5
2193
330
218E
100
AcDbEntity
  8
SIZE
 62
     0
370
    -2
100
AcDbLine
 10
5568.759656679549
 20
1740.302067505392
 30
0.0
 11
4514.759656679549
 21
1740.302067505392
 31
0.0
  0
INSERT
  5
2194
330
218E
100
AcDbEntity
  8
SIZE
 62
     0
370
    -2
100
AcDbBlockReference
  2
_OPEN30
 10
5588.759656679549
 20
1740.302067505392
 30
0.0
 41
20.0
 42
20.0
 43
20.0
  0
INSERT
  5
2195
330
218E
100
AcDbEntity
  8
SIZE
 62
     0
370
    -2
100
AcDbBlockReference
  2
_OPEN30
 10
4494.759656679549
 20
1740.302067505392
 30
0.0
 41
20.0
 42
20.0
 43
20.0
 50
180.0
  0
MTEXT
  5
2196
330
218E
100
AcDbEntity
  8
SIZE
 62
     0
100
AcDbMText
 10
5041.759656679549
 20
1760.302067505392
 30
0.0
 40
20.0
 41
0.0
 71
     5
 72
     1
  1
\A1;1094
 73
     1
 44
1.0
1001
ACAD
1000
MTEXTBEGIN
1070
    73
1070
     1
1070
    44
1040
1.0
1070
    74
1070
     0
1000
MTEXTEND
  0
POINT
  5
2197
330
218E
100
AcDbEntity
  8
Defpoints
 62
     0
100
AcDbPoint
 10
5588.759656679549
 20
1665.277950805433
 30
0.0
  0
POINT
  5
2198
330
218E
100
AcDbEntity
  8
Defpoints
 62
     0
100
AcDbPoint
 10
4494.759656679549
 20
1665.277950805426
 30
0.0
  0
POINT
  5
2199
330
218E
100
AcDbEntity
  8
Defpoints
 62
     0
100
AcDbPoint
 10
4494.759656679549
 20
1740.302067505392
 30
0.0
  0
ENDBLK
  5
2190
330
218E
100
AcDbEntity
  8
0
100
AcDbBlockEnd
  0
BLOCK
  5
219C
330
219B
100
AcDbEntity
  8
0
100
AcDbBlockBegin
  2
*D30
 70
     1
 10
0.0
 20
0.0
 30
0.0
  3
*D30
  1

  0
LINE
  5
219E
330
219B
100
AcDbEntity
  8
SIZE
 62
     0
370
    -2
100
AcDbLine
 10
4486.759656679549
 20
1665.277950805426
 30
0.0
 11
4486.759656679549
 21
1792.045229679077
 31
0.0
  0
LINE
  5
219F
330
219B
100
AcDbEntity
  8
SIZE
 62
     0
370
    -2
100
AcDbLine
 10
5596.759656679549
 20
1665.277950805426
 30
0.0
 11
5596.759656679549
 21
1792.045229679077
 31
0.0
  0
LINE
  5
21A0
330
219B
100
AcDbEntity
  8
SIZE
 62
     0
370
    -2
100
AcDbLine
 10
4506.759656679549
 20
1782.045229679077
 30
0.0
 11
5576.759656679548
 21
1782.045229679077
 31
0.0
  0
INSERT
  5
21A1
330
219B
100
AcDbEntity
  8
SIZE
 62
     0
370
    -2
100
AcDbBlockReference
  2
_OPEN30
 10
4486.759656679549
 20
1782.045229679077
 30
0.0
 41
20.0
 42
20.0
 43
20.0
 50
180.0
  0
INSERT
  5
21A2
330
219B
100
AcDbEntity
  8
SIZE
 62
     0
370
    -2
100
AcDbBlockReference
  2
_OPEN30
 10
5596.759656679549
 20
1782.045229679077
 30
0.0
 41
20.0
 42
20.0
 43
20.0
  0
MTEXT
  5
21A3
330
219B
100
AcDbEntity
  8
SIZE
 62
     0
100
AcDbMText
 10
5041.759656679549
 20
1802.045229679077
 30
0.0
 40
20.0
 41
0.0
 71
     5
 72
     1
  1
\A1;1110
 73
     1
 44
1.0
1001
ACAD
1000
MTEXTBEGIN
1070
    73
1070
     1
1070
    44
1040
1.0
1070
    74
1070
     0
1000
MTEXTEND
  0
POINT
  5
21A4
330
219B
100
AcDbEntity
  8
Defpoints
 62
     0
100
AcDbPoint
 10
4486.759656679549
 20
1655.277950805426
 30
0.0
  0
POINT
  5
21A5
330
219B
100
AcDbEntity
  8
Defpoints
 62
     0
100
AcDbPoint
 10
5596.759656679549
 20
1655.277950805426
 30
0.0
  0
POINT
  5
21A6
330
219B
100
AcDbEntity
  8
Defpoints
 62
     0
100
AcDbPoint
 10
5596.759656679549
 20
1782.045229679077
 30
0.0
  0
ENDBLK
  5
219D
330
219B
100
AcDbEntity
  8
0
100
AcDbBlockEnd
  0
BLOCK
  5
255B
330
255A
100
AcDbEntity
  8
0
100
AcDbBlockBegin
  2
*D31
 70
     1
 10
0.0
 20
0.0
 30
0.0
  3
*D31
  1

  0
LINE
  5
295E
330
255A
100
AcDbEntity
  8
SIZE
 62
     0
370
    -2
100
AcDbLine
 10
6860.601231462965
 20
1682.692607490241
 30
0.0
 11
6860.601231462965
 21
1707.310063424244
 31
0.0
  0
LINE
  5
295F
330
255A
100
AcDbEntity
  8
SIZE
 62
     0
370
    -2
100
AcDbLine
 10
6084.101231462965
 20
1682.692607490275
 30
0.0
 11
6084.101231462965
 21
1707.310063424244
 31
0.0
  0
LINE
  5
2960
330
255A
100
AcDbEntity
  8
SIZE
 62
     0
370
    -2
100
AcDbLine
 10
6840.601231462965
 20
1697.310063424244
 30
0.0
 11
6104.101231462966
 21
1697.310063424244
 31
0.0
  0
INSERT
  5
2961
330
255A
100
AcDbEntity
  8
SIZE
 62
     0
370
    -2
100
AcDbBlockReference
  2
_OPEN30
 10
6860.601231462965
 20
1697.310063424244
 30
0.0
 41
20.0
 42
20.0
 43
20.0
  0
INSERT
  5
2962
330
255A
100
AcDbEntity
  8
SIZE
 62
     0
370
    -2
100
AcDbBlockReference
  2
_OPEN30
 10
6084.101231462965
 20
1697.310063424244
 30
0.0
 41
20.0
 42
20.0
 43
20.0
 50
180.0
  0
MTEXT
  5
2963
330
255A
100
AcDbEntity
  8
SIZE
 62
     0
100
AcDbMText
 10
6473.983793597162
 20
1717.310063424244
 30
0.0
 40
20.0
 41
0.0
 71
     5
 72
     1
  1
\A1;776.5
 73
     1
 44
1.0
1001
ACAD
1000
MTEXTBEGIN
1070
    73
1070
     1
1070
    44
1040
1.0
1070
    74
1070
     0
1000
MTEXTEND
  0
POINT
  5
2964
330
255A
100
AcDbEntity
  8
Defpoints
 62
     0
100
AcDbPoint
 10
6860.601231462965
 20
1672.692607490241
 30
0.0
  0
POINT
  5
2965
330
255A
100
AcDbEntity
  8
Defpoints
 62
     0
100
AcDbPoint
 10
6084.101231462965
 20
1672.692607490275
 30
0.0
  0
POINT
  5
2966
330
255A
100
AcDbEntity
  8
Defpoints
 62
     0
100
AcDbPoint
 10
6084.101231462965
 20
1697.310063424244
 30
0.0
  0
ENDBLK
  5
255C
330
255A
100
AcDbEntity
  8
0
100
AcDbBlockEnd
  0
BLOCK
  5
2568
330
2567
100
AcDbEntity
  8
0
100
AcDbBlockBegin
  2
*D32
 70
     1
 10
0.0
 20
0.0
 30
0.0
  3
*D32
  1

  0
LINE
  5
2936
330
2567
100
AcDbEntity
  8
SIZE
 62
     0
370
    -2
100
AcDbLine
 10
6081.601231462965
 20
1682.692607490548
 30
0.0
 11
6081.601231462965
 21
1845.139444221835
 31
0.0
  0
LINE
  5
2937
330
2567
100
AcDbEntity
  8
SIZE
 62
     0
370
    -2
100
AcDbLine
 10
6874.601231462965
 20
1682.692607490548
 30
0.0
 11
6874.601231462965
 21
1845.139444221835
 31
0.0
  0
LINE
  5
2938
330
2567
100
AcDbEntity
  8
SIZE
 62
     0
370
    -2
100
AcDbLine
 10
6101.601231462965
 20
1835.139444221835
 30
0.0
 11
6854.601231462964
 21
1835.139444221835
 31
0.0
  0
INSERT
  5
2939
330
2567
100
AcDbEntity
  8
SIZE
 62
     0
370
    -2
100
AcDbBlockReference
  2
_OPEN30
 10
6081.601231462965
 20
1835.139444221835
 30
0.0
 41
20.0
 42
20.0
 43
20.0
 50
180.0
  0
INSERT
  5
293A
330
2567
100
AcDbEntity
  8
SIZE
 62
     0
370
    -2
100
AcDbBlockReference
  2
_OPEN30
 10
6874.601231462965
 20
1835.139444221835
 30
0.0
 41
20.0
 42
20.0
 43
20.0
  0
MTEXT
  5
293B
330
2567
100
AcDbEntity
  8
SIZE
 62
     0
100
AcDbMText
 10
6478.101231462964
 20
1855.139444221835
 30
0.0
 40
20.0
 41
0.0
 71
     5
 72
     1
  1
\A1;793
 73
     1
 44
1.0
1001
ACAD
1000
MTEXTBEGIN
1070
    73
1070
     1
1070
    44
1040
1.0
1070
    74
1070
     0
1000
MTEXTEND
  0
POINT
  5
293C
330
2567
100
AcDbEntity
  8
Defpoints
 62
     0
100
AcDbPoint
 10
6081.601231462965
 20
1672.692607490548
 30
0.0
  0
POINT
  5
293D
330
2567
100
AcDbEntity
  8
Defpoints
 62
     0
100
AcDbPoint
 10
6874.601231462965
 20
1672.692607490548
 30
0.0
  0
POINT
  5
293E
330
2567
100
AcDbEntity
  8
Defpoints
 62
     0
100
AcDbPoint
 10
6874.601231462965
 20
1835.139444221835
 30
0.0
  0
ENDBLK
  5
2569
330
2567
100
AcDbEntity
  8
0
100
AcDbBlockEnd
  0
BLOCK
  5
2575
330
2574
100
AcDbEntity
  8
0
100
AcDbBlockBegin
  2
*D33
 70
     1
 10
0.0
 20
0.0
 30
0.0
  3
*D33
  1

  0
LINE
  5
25B9
330
2574
100
AcDbEntity
  8
SIZE
 62
     0
370
    -2
100
AcDbLine
 10
6926.601231462965
 20
1682.692607490406
 30
0.0
 11
6926.601231462965
 21
1734.626717784925
 31
0.0
  0
LINE
  5
25BA
330
2574
100
AcDbEntity
  8
SIZE
 62
     0
370
    -2
100
AcDbLine
 10
7703.101231462962
 20
1682.692607490279
 30
0.0
 11
7703.101231462962
 21
1734.626717784925
 31
0.0
  0
LINE
  5
25BB
330
2574
100
AcDbEntity
  8
SIZE
 62
     0
370
    -2
100
AcDbLine
 10
6946.601231462962
 20
1724.626717784926
 30
0.0
 11
7683.101231462963
 21
1724.626717784926
 31
0.0
  0
INSERT
  5
25BC
330
2574
100
AcDbEntity
  8
SIZE
 62
     0
370
    -2
100
AcDbBlockReference
  2
_OPEN30
 10
6926.601231462965
 20
1724.626717784926
 30
0.0
 41
20.0
 42
20.0
 43
20.0
 50
180.0
  0
INSERT
  5
25BD
330
2574
100
AcDbEntity
  8
SIZE
 62
     0
370
    -2
100
AcDbBlockReference
  2
_OPEN30
 10
7703.101231462962
 20
1724.626717784926
 30
0.0
 41
20.0
 42
20.0
 43
20.0
  0
MTEXT
  5
25BE
330
2574
100
AcDbEntity
  8
SIZE
 62
     0
100
AcDbMText
 10
7314.851231462964
 20
1744.626717784926
 30
0.0
 40
20.0
 41
0.0
 71
     5
 72
     1
  1
\A1;776.5
 73
     1
 44
1.0
1001
ACAD
1000
MTEXTBEGIN
1070
    73
1070
     1
1070
    44
1040
1.0
1070
    74
1070
     0
1000
MTEXTEND
  0
POINT
  5
25BF
330
2574
100
AcDbEntity
  8
Defpoints
 62
     0
100
AcDbPoint
 10
6926.601231462965
 20
1672.692607490406
 30
0.0
  0
POINT
  5
25C0
330
2574
100
AcDbEntity
  8
Defpoints
 62
     0
100
AcDbPoint
 10
7703.101231462962
 20
1672.692607490279
 30
0.0
  0
POINT
  5
25C1
330
2574
100
AcDbEntity
  8
Defpoints
 62
     0
100
AcDbPoint
 10
7703.101231462962
 20
1724.626717784926
 30
0.0
  0
ENDBLK
  5
2576
330
2574
100
AcDbEntity
  8
0
100
AcDbBlockEnd
  0
BLOCK
  5
2582
330
2581
100
AcDbEntity
  8
0
100
AcDbBlockBegin
  2
*D34
 70
     1
 10
0.0
 20
0.0
 30
0.0
  3
*D34
  1

  0
LINE
  5
292D
330
2581
100
AcDbEntity
  8
SIZE
 62
     0
370
    -2
100
AcDbLine
 10
6912.601231462962
 20
1682.692607490532
 30
0.0
 11
6912.601231462962
 21
1845.139444221835
 31
0.0
  0
LINE
  5
292E
330
2581
100
AcDbEntity
  8
SIZE
 62
     0
370
    -2
100
AcDbLine
 10
7705.601231462964
 20
1682.692607490532
 30
0.0
 11
7705.601231462964
 21
1845.139444221835
 31
0.0
  0
LINE
  5
292F
330
2581
100
AcDbEntity
  8
SIZE
 62
     0
370
    -2
100
AcDbLine
 10
6932.601231462962
 20
1835.139444221835
 30
0.0
 11
7685.601231462964
 21
1835.139444221835
 31
0.0
  0
INSERT
  5
2930
330
2581
100
AcDbEntity
  8
SIZE
 62
     0
370
    -2
100
AcDbBlockReference
  2
_OPEN30
 10
6912.601231462962
 20
1835.139444221835
 30
0.0
 41
20.0
 42
20.0
 43
20.0
 50
180.0
  0
INSERT
  5
2931
330
2581
100
AcDbEntity
  8
SIZE
 62
     0
370
    -2
100
AcDbBlockReference
  2
_OPEN30
 10
7705.601231462964
 20
1835.139444221835
 30
0.0
 41
20.0
 42
20.0
 43
20.0
  0
MTEXT
  5
2932
330
2581
100
AcDbEntity
  8
SIZE
 62
     0
100
AcDbMText
 10
7309.101231462962
 20
1855.139444221835
 30
0.0
 40
20.0
 41
0.0
 71
     5
 72
     1
  1
\A1;793
 73
     1
 44
1.0
1001
ACAD
1000
MTEXTBEGIN
1070
    73
1070
     1
1070
    44
1040
1.0
1070
    74
1070
     0
1000
MTEXTEND
  0
POINT
  5
2933
330
2581
100
AcDbEntity
  8
Defpoints
 62
     0
100
AcDbPoint
 10
6912.601231462962
 20
1672.692607490532
 30
0.0
  0
POINT
  5
2934
330
2581
100
AcDbEntity
  8
Defpoints
 62
     0
100
AcDbPoint
 10
7705.601231462964
 20
1672.692607490532
 30
0.0
  0
POINT
  5
2935
330
2581
100
AcDbEntity
  8
Defpoints
 62
     0
100
AcDbPoint
 10
7705.601231462964
 20
1835.139444221835
 30
0.0
  0
ENDBLK
  5
2583
330
2581
100
AcDbEntity
  8
0
100
AcDbBlockEnd
  0
BLOCK
  5
258F
330
258E
100
AcDbEntity
  8
0
100
AcDbBlockBegin
  2
*D35
 70
     1
 10
0.0
 20
0.0
 30
0.0
  3
*D35
  1

  0
LINE
  5
259A
330
258E
100
AcDbEntity
  8
SIZE
 62
     0
370
    -2
100
AcDbLine
 10
6860.601231462965
 20
1682.692607490241
 30
0.0
 11
6860.601231462965
 21
1731.778174082478
 31
0.0
  0
LINE
  5
259B
330
258E
100
AcDbEntity
  8
SIZE
 62
     0
370
    -2
100
AcDbLine
 10
6926.601231462965
 20
1682.692607490241
 30
0.0
 11
6926.601231462965
 21
1731.778174082478
 31
0.0
  0
LINE
  5
259C
330
258E
100
AcDbEntity
  8
SIZE
 62
     0
370
    -2
100
AcDbLine
 10
6880.601231462965
 20
1721.778174082478
 30
0.0
 11
6906.601231462963
 21
1721.778174082478
 31
0.0
  0
INSERT
  5
259D
330
258E
100
AcDbEntity
  8
SIZE
 62
     0
370
    -2
100
AcDbBlockReference
  2
_OPEN30
 10
6860.601231462965
 20
1721.778174082478
 30
0.0
 41
20.0
 42
20.0
 43
20.0
 50
180.0
  0
INSERT
  5
259E
330
258E
100
AcDbEntity
  8
SIZE
 62
     0
370
    -2
100
AcDbBlockReference
  2
_OPEN30
 10
6926.601231462965
 20
1721.778174082478
 30
0.0
 41
20.0
 42
20.0
 43
20.0
  0
MTEXT
  5
259F
330
258E
100
AcDbEntity
  8
SIZE
 62
     0
100
AcDbMText
 10
6893.601231462965
 20
1741.778174082478
 30
0.0
 40
20.0
 41
0.0
 71
     5
 72
     1
  1
\A1;66
 73
     1
 44
1.0
1001
ACAD
1000
MTEXTBEGIN
1070
    73
1070
     1
1070
    44
1040
1.0
1070
    74
1070
     0
1000
MTEXTEND
  0
POINT
  5
25A0
330
258E
100
AcDbEntity
  8
Defpoints
 62
     0
100
AcDbPoint
 10
6860.601231462965
 20
1672.692607490241
 30
0.0
  0
POINT
  5
25A1
330
258E
100
AcDbEntity
  8
Defpoints
 62
     0
100
AcDbPoint
 10
6926.601231462965
 20
1672.692607490241
 30
0.0
  0
POINT
  5
25A2
330
258E
100
AcDbEntity
  8
Defpoints
 62
     0
100
AcDbPoint
 10
6926.601231462965
 20
1721.778174082478
 30
0.0
  0
ENDBLK
  5
2590
330
258E
100
AcDbEntity
  8
0
100
AcDbBlockEnd
  0
BLOCK
  5
25A5
330
25A4
100
AcDbEntity
  8
0
100
AcDbBlockBegin
  2
*D36
 70
     1
 10
0.0
 20
0.0
 30
0.0
  3
*D36
  1

  0
LINE
  5
2953
330
25A4
100
AcDbEntity
  8
SIZE
 62
     0
370
    -2
100
AcDbLine
 10
6860.601231462965
 20
1682.692607490241
 30
0.0
 11
6860.601231462965
 21
1766.761407080041
 31
0.0
  0
LINE
  5
2954
330
25A4
100
AcDbEntity
  8
SIZE
 62
     0
370
    -2
100
AcDbLine
 10
6926.601231462965
 20
1682.692607490241
 30
0.0
 11
6926.601231462965
 21
1766.761407080041
 31
0.0
  0
LINE
  5
2955
330
25A4
100
AcDbEntity
  8
SIZE
 62
     0
370
    -2
100
AcDbLine
 10
6880.601231462965
 20
1756.761407080041
 30
0.0
 11
6906.601231462966
 21
1756.761407080041
 31
0.0
  0
LINE
  5
2956
330
25A4
100
AcDbEntity
  8
SIZE
 62
     0
370
    -2
100
AcDbLine
 10
6893.601231462965
 20
1756.761407080041
 30
0.0
 11
6925.999904278886
 21
1794.756104932087
 31
0.0
  0
LINE
  5
2957
330
25A4
100
AcDbEntity
  8
SIZE
 62
     0
370
    -2
100
AcDbLine
 10
6925.999904278886
 20
1794.756104932087
 30
0.0
 11
6977.428475707458
 21
1794.756104932087
 31
0.0
  0
MTEXT
  5
2958
330
25A4
100
AcDbEntity
  8
SIZE
 62
     0
100
AcDbMText
 10
6951.714189993173
 20
1814.756104932087
 30
0.0
 40
20.0
 41
0.0
 71
     5
 72
     1
  1
\A1;66
 73
     1
 44
1.0
1001
ACAD
1000
MTEXTBEGIN
1070
    73
1070
     1
1070
    44
1040
1.0
1070
    74
1070
     0
1000
MTEXTEND
  0
INSERT
  5
2959
330
25A4
100
AcDbEntity
  8
SIZE
 62
     0
370
    -2
100
AcDbBlockReference
  2
_OPEN30
 10
6860.601231462965
 20
1756.761407080041
 30
0.0
 41
20.0
 42
20.0
 43
20.0
 50
180.0
  0
INSERT
  5
295A
330
25A4
100
AcDbEntity
  8
SIZE
 62
     0
370
    -2
100
AcDbBlockReference
  2
_OPEN30
 10
6926.601231462965
 20
1756.761407080041
 30
0.0
 41
20.0
 42
20.0
 43
20.0
  0
POINT
  5
295B
330
25A4
100
AcDbEntity
  8
Defpoints
 62
     0
100
AcDbPoint
 10
6860.601231462965
 20
1672.692607490241
 30
0.0
  0
POINT
  5
295C
330
25A4
100
AcDbEntity
  8
Defpoints
 62
     0
100
AcDbPoint
 10
6926.601231462965
 20
1672.692607490241
 30
0.0
  0
POINT
  5
295D
330
25A4
100
AcDbEntity
  8
Defpoints
 62
     0
100
AcDbPoint
 10
6926.601231462965
 20
1756.761407080041
 30
0.0
  0
ENDBLK
  5
25A6
330
25A4
100
AcDbEntity
  8
0
100
AcDbBlockEnd
  0
BLOCK
  5
25C4
330
25C3
100
AcDbEntity
  8
0
100
AcDbBlockBegin
  2
*D37
 70
     1
 10
0.0
 20
0.0
 30
0.0
  3
*D37
  1

  0
LINE
  5
2922
330
25C3
100
AcDbEntity
  8
SIZE
 62
     0
370
    -2
100
AcDbLine
 10
6874.601231462965
 20
1682.692607490368
 30
0.0
 11
6874.601231462965
 21
1845.139444221835
 31
0.0
  0
LINE
  5
2923
330
25C3
100
AcDbEntity
  8
SIZE
 62
     0
370
    -2
100
AcDbLine
 10
6912.601231462962
 20
1682.692607490368
 30
0.0
 11
6912.601231462962
 21
1845.139444221835
 31
0.0
  0
LINE
  5
2924
330
25C3
100
AcDbEntity
  8
SIZE
 62
     0
370
    -2
100
AcDbLine
 10
6854.601231462964
 20
1835.139444221835
 30
0.0
 11
6834.601231462965
 21
1835.139444221835
 31
0.0
  0
LINE
  5
2925
330
25C3
100
AcDbEntity
  8
SIZE
 62
     0
370
    -2
100
AcDbLine
 10
6932.601231462962
 20
1835.139444221835
 30
0.0
 11
6952.601231462961
 21
1835.139444221835
 31
0.0
  0
LINE
  5
2926
330
25C3
100
AcDbEntity
  8
SIZE
 62
     0
370
    -2
100
AcDbLine
 10
6874.601231462965
 20
1835.139444221835
 30
0.0
 11
6912.601231462962
 21
1835.139444221835
 31
0.0
  0
INSERT
  5
2927
330
25C3
100
AcDbEntity
  8
SIZE
 62
     0
370
    -2
100
AcDbBlockReference
  2
_OPEN30
 10
6874.601231462965
 20
1835.139444221835
 30
0.0
 41
20.0
 42
20.0
 43
20.0
  0
INSERT
  5
2928
330
25C3
100
AcDbEntity
  8
SIZE
 62
     0
370
    -2
100
AcDbBlockReference
  2
_OPEN30
 10
6912.601231462962
 20
1835.139444221835
 30
0.0
 41
20.0
 42
20.0
 43
20.0
 50
180.0
  0
MTEXT
  5
2929
330
25C3
100
AcDbEntity
  8
SIZE
 62
     0
100
AcDbMText
 10
6893.601231462962
 20
1855.139444221835
 30
0.0
 40
20.0
 41
0.0
 71
     5
 72
     1
  1
\A1;38
 73
     1
 44
1.0
1001
ACAD
1000
MTEXTBEGIN
1070
    73
1070
     1
1070
    44
1040
1.0
1070
    74
1070
     0
1000
MTEXTEND
  0
POINT
  5
292A
330
25C3
100
AcDbEntity
  8
Defpoints
 62
     0
100
AcDbPoint
 10
6874.601231462965
 20
1672.692607490368
 30
0.0
  0
POINT
  5
292B
330
25C3
100
AcDbEntity
  8
Defpoints
 62
     0
100
AcDbPoint
 10
6912.601231462962
 20
1672.692607490368
 30
0.0
  0
POINT
  5
292C
330
25C3
100
AcDbEntity
  8
Defpoints
 62
     0
100
AcDbPoint
 10
6912.601231462962
 20
1835.139444221835
 30
0.0
  0
ENDBLK
  5
25C5
330
25C3
100
AcDbEntity
  8
0
100
AcDbBlockEnd
  0
BLOCK
  5
25F8
330
25F7
100
AcDbEntity
  8
0
100
AcDbBlockBegin
  2
*D38
 70
     1
 10
0.0
 20
0.0
 30
0.0
  3
*D38
  1

  0
LINE
  5
26EC
330
25F7
100
AcDbEntity
  8
SIZE
 62
     0
370
    -2
100
AcDbLine
 10
6073.601231462966
 20
1672.69260749055
 30
0.0
 11
6073.601231462966
 21
1898.693147256696
 31
0.0
  0
LINE
  5
26ED
330
25F7
100
AcDbEntity
  8
SIZE
 62
     0
370
    -2
100
AcDbLine
 10
6883.601231462965
 20
1672.692607490371
 30
0.0
 11
6883.601231462965
 21
1898.693147256696
 31
0.0
  0
LINE
  5
26EE
330
25F7
100
AcDbEntity
  8
SIZE
 62
     0
370
    -2
100
AcDbLine
 10
6093.601231462965
 20
1888.693147256695
 30
0.0
 11
6863.601231462965
 21
1888.693147256695
 31
0.0
  0
INSERT
  5
26EF
330
25F7
100
AcDbEntity
  8
SIZE
 62
     0
370
    -2
100
AcDbBlockReference
  2
_OPEN30
 10
6073.601231462966
 20
1888.693147256695
 30
0.0
 41
20.0
 42
20.0
 43
20.0
 50
180.0
  0
INSERT
  5
26F0
330
25F7
100
AcDbEntity
  8
SIZE
 62
     0
370
    -2
100
AcDbBlockReference
  2
_OPEN30
 10
6883.601231462965
 20
1888.693147256695
 30
0.0
 41
20.0
 42
20.0
 43
20.0
  0
MTEXT
  5
26F1
330
25F7
100
AcDbEntity
  8
SIZE
 62
     0
100
AcDbMText
 10
6478.601231462966
 20
1908.693147256695
 30
0.0
 40
20.0
 41
0.0
 71
     5
 72
     1
  1
\A1;810
 73
     1
 44
1.0
1001
ACAD
1000
MTEXTBEGIN
1070
    73
1070
     1
1070
    44
1040
1.0
1070
    74
1070
     0
1000
MTEXTEND
  0
POINT
  5
26F2
330
25F7
100
AcDbEntity
  8
Defpoints
 62
     0
100
AcDbPoint
 10
6073.601231462966
 20
1662.69260749055
 30
0.0
  0
POINT
  5
26F3
330
25F7
100
AcDbEntity
  8
Defpoints
 62
     0
100
AcDbPoint
 10
6883.601231462965
 20
1662.692607490371
 30
0.0
  0
POINT
  5
26F4
330
25F7
100
AcDbEntity
  8
Defpoints
 62
     0
100
AcDbPoint
 10
6883.601231462965
 20
1888.693147256695
 30
0.0
  0
ENDBLK
  5
25F9
330
25F7
100
AcDbEntity
  8
0
100
AcDbBlockEnd
  0
BLOCK
  5
2605
330
2604
100
AcDbEntity
  8
0
100
AcDbBlockBegin
  2
*D39
 70
     1
 10
0.0
 20
0.0
 30
0.0
  3
*D39
  1

  0
LINE
  5
26F5
330
2604
100
AcDbEntity
  8
SIZE
 62
     0
370
    -2
100
AcDbLine
 10
6883.601231462965
 20
1672.692607490371
 30
0.0
 11
6883.601231462965
 21
1898.693147256696
 31
0.0
  0
LINE
  5
26F6
330
2604
100
AcDbEntity
  8
SIZE
 62
     0
370
    -2
100
AcDbLine
 10
6903.601231462963
 20
1672.692607490534
 30
0.0
 11
6903.601231462963
 21
1898.693147256696
 31
0.0
  0
LINE
  5
26F7
330
2604
100
AcDbEntity
  8
SIZE
 62
     0
370
    -2
100
AcDbLine
 10
6863.601231462965
 20
1888.693147256695
 30
0.0
 11
6843.601231462965
 21
1888.693147256695
 31
0.0
  0
LINE
  5
26F8
330
2604
100
AcDbEntity
  8
SIZE
 62
     0
370
    -2
100
AcDbLine
 10
6923.601231462964
 20
1888.693147256695
 30
0.0
 11
6943.601231462962
 21
1888.693147256695
 31
0.0
  0
LINE
  5
26F9
330
2604
100
AcDbEntity
  8
SIZE
 62
     0
370
    -2
100
AcDbLine
 10
6893.601231462965
 20
1888.693147256695
 30
0.0
 11
6921.645715649782
 21
1934.864576205502
 31
0.0
  0
LINE
  5
26FA
330
2604
100
AcDbEntity
  8
SIZE
 62
     0
370
    -2
100
AcDbLine
 10
6921.645715649782
 20
1934.864576205502
 30
0.0
 11
6974.026668030735
 21
1934.864576205502
 31
0.0
  0
MTEXT
  5
26FB
330
2604
100
AcDbEntity
  8
SIZE
 62
     0
100
AcDbMText
 10
6947.836191840258
 20
1954.864576205503
 30
0.0
 40
20.0
 41
0.0
 71
     5
 72
     1
  1
\A1;20
 73
     1
 44
1.0
1001
ACAD
1000
MTEXTBEGIN
1070
    73
1070
     1
1070
    44
1040
1.0
1070
    74
1070
     0
1000
MTEXTEND
  0
LINE
  5
26FC
330
2604
100
AcDbEntity
  8
SIZE
 62
     0
370
    -2
100
AcDbLine
 10
6883.601231462965
 20
1888.693147256695
 30
0.0
 11
6903.601231462963
 21
1888.693147256695
 31
0.0
  0
LINE
  5
26FD
330
2604
100
AcDbEntity
  8
SIZE
 62
     0
370
    -2
100
AcDbLine
 10
6883.601231462965
 20
1888.693147256695
 30
0.0
 11
6903.601231462963
 21
1888.693147256695
 31
0.0
  0
INSERT
  5
26FE
330
2604
100
AcDbEntity
  8
SIZE
 62
     0
370
    -2
100
AcDbBlockReference
  2
_OPEN30
 10
6883.601231462965
 20
1888.693147256695
 30
0.0
 41
20.0
 42
20.0
 43
20.0
  0
INSERT
  5
26FF
330
2604
100
AcDbEntity
  8
SIZE
 62
     0
370
    -2
100
AcDbBlockReference
  2
_OPEN30
 10
6903.601231462963
 20
1888.693147256695
 30
0.0
 41
20.0
 42
20.0
 43
20.0
 50
180.0
  0
POINT
  5
2700
330
2604
100
AcDbEntity
  8
Defpoints
 62
     0
100
AcDbPoint
 10
6883.601231462965
 20
1662.692607490371
 30
0.0
  0
POINT
  5
2701
330
2604
100
AcDbEntity
  8
Defpoints
 62
     0
100
AcDbPoint
 10
6903.601231462963
 20
1662.692607490534
 30
0.0
  0
POINT
  5
2702
330
2604
100
AcDbEntity
  8
Defpoints
 62
     0
100
AcDbPoint
 10
6903.601231462963
 20
1888.693147256695
 30
0.0
  0
ENDBLK
  5
2606
330
2604
100
AcDbEntity
  8
0
100
AcDbBlockEnd
  0
BLOCK
  5
2617
330
2616
100
AcDbEntity
  8
0
100
AcDbBlockBegin
  2
*D40
 70
     1
 10
0.0
 20
0.0
 30
0.0
  3
*D40
  1

  0
LINE
  5
26DA
330
2616
100
AcDbEntity
  8
SIZE
 62
     0
370
    -2
100
AcDbLine
 10
6903.601231462963
 20
1672.692607490534
 30
0.0
 11
6903.601231462963
 21
1898.693147256696
 31
0.0
  0
LINE
  5
26DB
330
2616
100
AcDbEntity
  8
SIZE
 62
     0
370
    -2
100
AcDbLine
 10
7713.601231462964
 20
1672.692607490534
 30
0.0
 11
7713.601231462964
 21
1898.693147256696
 31
0.0
  0
LINE
  5
26DC
330
2616
100
AcDbEntity
  8
SIZE
 62
     0
370
    -2
100
AcDbLine
 10
6923.601231462964
 20
1888.693147256695
 30
0.0
 11
7693.601231462962
 21
1888.693147256695
 31
0.0
  0
INSERT
  5
26DD
330
2616
100
AcDbEntity
  8
SIZE
 62
     0
370
    -2
100
AcDbBlockReference
  2
_OPEN30
 10
6903.601231462963
 20
1888.693147256695
 30
0.0
 41
20.0
 42
20.0
 43
20.0
 50
180.0
  0
INSERT
  5
26DE
330
2616
100
AcDbEntity
  8
SIZE
 62
     0
370
    -2
100
AcDbBlockReference
  2
_OPEN30
 10
7713.601231462964
 20
1888.693147256695
 30
0.0
 41
20.0
 42
20.0
 43
20.0
  0
MTEXT
  5
26DF
330
2616
100
AcDbEntity
  8
SIZE
 62
     0
100
AcDbMText
 10
7308.601231462964
 20
1908.693147256695
 30
0.0
 40
20.0
 41
0.0
 71
     5
 72
     1
  1
\A1;810
 73
     1
 44
1.0
1001
ACAD
1000
MTEXTBEGIN
1070
    73
1070
     1
1070
    44
1040
1.0
1070
    74
1070
     0
1000
MTEXTEND
  0
POINT
  5
26E0
330
2616
100
AcDbEntity
  8
Defpoints
 62
     0
100
AcDbPoint
 10
6903.601231462963
 20
1662.692607490534
 30
0.0
  0
POINT
  5
26E1
330
2616
100
AcDbEntity
  8
Defpoints
 62
     0
100
AcDbPoint
 10
7713.601231462964
 20
1662.692607490534
 30
0.0
  0
POINT
  5
26E2
330
2616
100
AcDbEntity
  8
Defpoints
 62
     0
100
AcDbPoint
 10
7713.601231462964
 20
1888.693147256695
 30
0.0
  0
ENDBLK
  5
2618
330
2616
100
AcDbEntity
  8
0
100
AcDbBlockEnd
  0
BLOCK
  5
2705
330
2704
100
AcDbEntity
  8
0
100
AcDbBlockBegin
  2
*D41
 70
     1
 10
0.0
 20
0.0
 30
0.0
  3
*D41
  1

  0
LINE
  5
2707
330
2704
100
AcDbEntity
  8
SIZE
 62
     0
370
    -2
100
AcDbLine
 10
6063.601231462965
 20
1662.69260749055
 30
0.0
 11
6005.524273872246
 21
1662.69260749055
 31
0.0
  0
LINE
  5
2708
330
2704
100
AcDbEntity
  8
SIZE
 62
     0
370
    -2
100
AcDbLine
 10
6064.601231462965
 20
1215.70055708342
 30
0.0
 11
6005.524273872246
 21
1215.70055708342
 31
0.0
  0
LINE
  5
2709
330
2704
100
AcDbEntity
  8
SIZE
 62
     0
370
    -2
100
AcDbLine
 10
6015.524273872246
 20
1642.69260749055
 30
0.0
 11
6015.524273872246
 21
1235.70055708342
 31
0.0
  0
INSERT
  5
270A
330
2704
100
AcDbEntity
  8
SIZE
 62
     0
370
    -2
100
AcDbBlockReference
  2
_OPEN30
 10
6015.524273872246
 20
1662.69260749055
 30
0.0
 41
20.0
 42
20.0
 43
20.0
 50
90.0
  0
INSERT
  5
270B
330
2704
100
AcDbEntity
  8
SIZE
 62
     0
370
    -2
100
AcDbBlockReference
  2
_OPEN30
 10
6015.524273872246
 20
1215.70055708342
 30
0.0
 41
20.0
 42
20.0
 43
20.0
 50
270.0
  0
MTEXT
  5
270C
330
2704
100
AcDbEntity
  8
SIZE
 62
     0
100
AcDbMText
 10
5995.524273872246
 20
1439.196582286986
 30
0.0
 40
20.0
 41
0.0
 71
     5
 72
     1
  1
\A1;447
 11
0.0000000000000001
 21
1.0
 31
0.0
 73
     1
 44
1.0
1001
ACAD
1000
MTEXTBEGIN
1070
    73
1070
     1
1070
    44
1040
1.0
1070
    74
1070
     0
1000
MTEXTEND
  0
POINT
  5
270D
330
2704
100
AcDbEntity
  8
Defpoints
 62
     0
100
AcDbPoint
 10
6073.601231462966
 20
1662.69260749055
 30
0.0
  0
POINT
  5
270E
330
2704
100
AcDbEntity
  8
Defpoints
 62
     0
100
AcDbPoint
 10
6074.601231462965
 20
1215.70055708342
 30
0.0
  0
POINT
  5
270F
330
2704
100
AcDbEntity
  8
Defpoints
 62
     0
100
AcDbPoint
 10
6015.524273872246
 20
1215.70055708342
 30
0.0
  0
ENDBLK
  5
2706
330
2704
100
AcDbEntity
  8
0
100
AcDbBlockEnd
  0
BLOCK
  5
271D
330
271C
100
AcDbEntity
  8
0
100
AcDbBlockBegin
  2
*D42
 70
     1
 10
0.0
 20
0.0
 30
0.0
  3
*D42
  1

  0
LINE
  5
271F
330
271C
100
AcDbEntity
  8
SIZE
 62
     0
370
    -2
100
AcDbLine
 10
6073.601231462966
 20
1672.69260749055
 30
0.0
 11
6073.601231462966
 21
1891.473830444721
 31
0.0
  0
LINE
  5
2720
330
271C
100
AcDbEntity
  8
SIZE
 62
     0
370
    -2
100
AcDbLine
 10
7713.601231462964
 20
1672.69260749055
 30
0.0
 11
7713.601231462964
 21
1891.473830444721
 31
0.0
  0
LINE
  5
2721
330
271C
100
AcDbEntity
  8
SIZE
 62
     0
370
    -2
100
AcDbLine
 10
6093.601231462965
 20
1881.473830444721
 30
0.0
 11
7693.601231462962
 21
1881.473830444721
 31
0.0
  0
INSERT
  5
2722
330
271C
100
AcDbEntity
  8
SIZE
 62
     0
370
    -2
100
AcDbBlockReference
  2
_OPEN30
 10
6073.601231462966
 20
1881.473830444721
 30
0.0
 41
20.0
 42
20.0
 43
20.0
 50
180.0
  0
INSERT
  5
2723
330
271C
100
AcDbEntity
  8
SIZE
 62
     0
370
    -2
100
AcDbBlockReference
  2
_OPEN30
 10
7713.601231462964
 20
1881.473830444721
 30
0.0
 41
20.0
 42
20.0
 43
20.0
  0
MTEXT
  5
2724
330
271C
100
AcDbEntity
  8
SIZE
 62
     0
100
AcDbMText
 10
6893.601231462965
 20
1901.473830444721
 30
0.0
 40
20.0
 41
0.0
 71
     5
 72
     1
  1
\A1;1640
 73
     1
 44
1.0
1001
ACAD
1000
MTEXTBEGIN
1070
    73
1070
     1
1070
    44
1040
1.0
1070
    74
1070
     0
1000
MTEXTEND
  0
POINT
  5
2725
330
271C
100
AcDbEntity
  8
Defpoints
 62
     0
100
AcDbPoint
 10
6073.601231462966
 20
1662.69260749055
 30
0.0
  0
POINT
  5
2726
330
271C
100
AcDbEntity
  8
Defpoints
 62
     0
100
AcDbPoint
 10
7713.601231462964
 20
1662.69260749055
 30
0.0
  0
POINT
  5
2727
330
271C
100
AcDbEntity
  8
Defpoints
 62
     0
100
AcDbPoint
 10
7713.601231462964
 20
1881.473830444721
 30
0.0
  0
ENDBLK
  5
271E
330
271C
100
AcDbEntity
  8
0
100
AcDbBlockEnd
  0
BLOCK
  5
2969
330
2968
100
AcDbEntity
  8
0
100
AcDbBlockBegin
  2
*D43
 70
     1
 10
0.0
 20
0.0
 30
0.0
  3
*D43
  1

  0
LINE
  5
297D
330
2968
100
AcDbEntity
  8
SIZE
 62
     0
370
    -2
100
AcDbLine
 10
6081.601231462965
 20
1682.692607490548
 30
0.0
 11
6081.601231462965
 21
1766.761407080041
 31
0.0
  0
LINE
  5
297E
330
2968
100
AcDbEntity
  8
SIZE
 62
     0
370
    -2
100
AcDbLine
 10
6860.601231462965
 20
1682.692607490241
 30
0.0
 11
6860.601231462965
 21
1766.761407080041
 31
0.0
  0
LINE
  5
297F
330
2968
100
AcDbEntity
  8
SIZE
 62
     0
370
    -2
100
AcDbLine
 10
6101.601231462965
 20
1756.761407080041
 30
0.0
 11
6840.601231462965
 21
1756.761407080041
 31
0.0
  0
INSERT
  5
2980
330
2968
100
AcDbEntity
  8
SIZE
 62
     0
370
    -2
100
AcDbBlockReference
  2
_OPEN30
 10
6081.601231462965
 20
1756.761407080041
 30
0.0
 41
20.0
 42
20.0
 43
20.0
 50
180.0
  0
INSERT
  5
2981
330
2968
100
AcDbEntity
  8
SIZE
 62
     0
370
    -2
100
AcDbBlockReference
  2
_OPEN30
 10
6860.601231462965
 20
1756.761407080041
 30
0.0
 41
20.0
 42
20.0
 43
20.0
  0
MTEXT
  5
2982
330
2968
100
AcDbEntity
  8
SIZE
 62
     0
100
AcDbMText
 10
6471.101231462966
 20
1776.761407080041
 30
0.0
 40
20.0
 41
0.0
 71
     5
 72
     1
  1
\A1;779
 73
     1
 44
1.0
1001
ACAD
1000
MTEXTBEGIN
1070
    73
1070
     1
1070
    44
1040
1.0
1070
    74
1070
     0
1000
MTEXTEND
  0
POINT
  5
2983
330
2968
100
AcDbEntity
  8
Defpoints
 62
     0
100
AcDbPoint
 10
6081.601231462965
 20
1672.692607490548
 30
0.0
  0
POINT
  5
2984
330
2968
100
AcDbEntity
  8
Defpoints
 62
     0
100
AcDbPoint
 10
6860.601231462965
 20
1672.692607490241
 30
0.0
  0
POINT
  5
2985
330
2968
100
AcDbEntity
  8
Defpoints
 62
     0
100
AcDbPoint
 10
6860.601231462965
 20
1756.761407080041
 30
0.0
  0
ENDBLK
  5
296A
330
2968
100
AcDbEntity
  8
0
100
AcDbBlockEnd
  0
BLOCK
  5
2988
330
2987
100
AcDbEntity
  8
0
100
AcDbBlockBegin
  2
*D44
 70
     1
 10
0.0
 20
0.0
 30
0.0
  3
*D44
  1

  0
LINE
  5
298A
330
2987
100
AcDbEntity
  8
SIZE
 62
     0
370
    -2
100
AcDbLine
 10
6081.601231462965
 20
1682.692607490548
 30
0.0
 11
6081.601231462965
 21
1721.496644960082
 31
0.0
  0
LINE
  5
298B
330
2987
100
AcDbEntity
  8
SIZE
 62
     0
370
    -2
100
AcDbLine
 10
6084.101231462965
 20
1682.692607490275
 30
0.0
 11
6084.101231462965
 21
1721.496644960082
 31
0.0
  0
LINE
  5
298C
330
2987
100
AcDbEntity
  8
SIZE
 62
     0
370
    -2
100
AcDbLine
 10
6061.601231462965
 20
1711.496644960082
 30
0.0
 11
6041.601231462966
 21
1711.496644960082
 31
0.0
  0
LINE
  5
298D
330
2987
100
AcDbEntity
  8
SIZE
 62
     0
370
    -2
100
AcDbLine
 10
6104.101231462966
 20
1711.496644960082
 30
0.0
 11
6186.005993367727
 21
1711.496644960082
 31
0.0
  0
LINE
  5
298E
330
2987
100
AcDbEntity
  8
SIZE
 62
     0
370
    -2
100
AcDbLine
 10
6081.601231462965
 20
1711.496644960082
 30
0.0
 11
6084.101231462965
 21
1711.496644960082
 31
0.0
  0
INSERT
  5
298F
330
2987
100
AcDbEntity
  8
SIZE
 62
     0
370
    -2
100
AcDbBlockReference
  2
_OPEN30
 10
6081.601231462965
 20
1711.496644960082
 30
0.0
 41
20.0
 42
20.0
 43
20.0
  0
INSERT
  5
2990
330
2987
100
AcDbEntity
  8
SIZE
 62
     0
370
    -2
100
AcDbBlockReference
  2
_OPEN30
 10
6084.101231462965
 20
1711.496644960082
 30
0.0
 41
20.0
 42
20.0
 43
20.0
 50
180.0
  0
MTEXT
  5
2991
330
2987
100
AcDbEntity
  8
SIZE
 62
     0
100
AcDbMText
 10
6155.053612415345
 20
1731.496644960082
 30
0.0
 40
20.0
 41
0.0
 71
     5
 72
     1
  1
\A1;2.5
 73
     1
 44
1.0
1001
ACAD
1000
MTEXTBEGIN
1070
    73
1070
     1
1070
    44
1040
1.0
1070
    74
1070
     0
1000
MTEXTEND
  0
POINT
  5
2992
330
2987
100
AcDbEntity
  8
Defpoints
 62
     0
100
AcDbPoint
 10
6081.601231462965
 20
1672.692607490548
 30
0.0
  0
POINT
  5
2993
330
2987
100
AcDbEntity
  8
Defpoints
 62
     0
100
AcDbPoint
 10
6084.101231462965
 20
1672.692607490275
 30
0.0
  0
POINT
  5
2994
330
2987
100
AcDbEntity
  8
Defpoints
 62
     0
100
AcDbPoint
 10
6084.101231462965
 20
1711.496644960082
 30
0.0
  0
ENDBLK
  5
2989
330
2987
100
AcDbEntity
  8
0
100
AcDbBlockEnd
  0
BLOCK
  5
2997
330
2996
100
AcDbEntity
  8
0
100
AcDbBlockBegin
  2
*D45
 70
     1
 10
0.0
 20
0.0
 30
0.0
  3
*D45
  1

  0
LINE
  5
29A2
330
2996
100
AcDbEntity
  8
SIZE
 62
     0
370
    -2
100
AcDbLine
 10
6926.601231462965
 20
1682.692607490406
 30
0.0
 11
6926.601231462965
 21
1766.761407080041
 31
0.0
  0
LINE
  5
29A3
330
2996
100
AcDbEntity
  8
SIZE
 62
     0
370
    -2
100
AcDbLine
 10
7705.601231462964
 20
1682.692607490551
 30
0.0
 11
7705.601231462964
 21
1766.761407080041
 31
0.0
  0
LINE
  5
29A4
330
2996
100
AcDbEntity
  8
SIZE
 62
     0
370
    -2
100
AcDbLine
 10
6946.601231462965
 20
1756.761407080041
 30
0.0
 11
7685.601231462964
 21
1756.761407080041
 31
0.0
  0
INSERT
  5
29A5
330
2996
100
AcDbEntity
  8
SIZE
 62
     0
370
    -2
100
AcDbBlockReference
  2
_OPEN30
 10
6926.601231462965
 20
1756.761407080041
 30
0.0
 41
20.0
 42
20.0
 43
20.0
 50
180.0
  0
INSERT
  5
29A6
330
2996
100
AcDbEntity
  8
SIZE
 62
     0
370
    -2
100
AcDbBlockReference
  2
_OPEN30
 10
7705.601231462964
 20
1756.761407080041
 30
0.0
 41
20.0
 42
20.0
 43
20.0
  0
MTEXT
  5
29A7
330
2996
100
AcDbEntity
  8
SIZE
 62
     0
100
AcDbMText
 10
7316.101231462964
 20
1776.761407080041
 30
0.0
 40
20.0
 41
0.0
 71
     5
 72
     1
  1
\A1;779
 73
     1
 44
1.0
1001
ACAD
1000
MTEXTBEGIN
1070
    73
1070
     1
1070
    44
1040
1.0
1070
    74
1070
     0
1000
MTEXTEND
  0
POINT
  5
29A8
330
2996
100
AcDbEntity
  8
Defpoints
 62
     0
100
AcDbPoint
 10
6926.601231462965
 20
1672.692607490406
 30
0.0
  0
POINT
  5
29A9
330
2996
100
AcDbEntity
  8
Defpoints
 62
     0
100
AcDbPoint
 10
7705.601231462964
 20
1672.692607490551
 30
0.0
  0
POINT
  5
29AA
330
2996
100
AcDbEntity
  8
Defpoints
 62
     0
100
AcDbPoint
 10
7705.601231462964
 20
1756.761407080041
 30
0.0
  0
ENDBLK
  5
2998
330
2996
100
AcDbEntity
  8
0
100
AcDbBlockEnd
  0
BLOCK
  5
29AD
330
29AC
100
AcDbEntity
  8
0
100
AcDbBlockBegin
  2
*D46
 70
     1
 10
0.0
 20
0.0
 30
0.0
  3
*D46
  1

  0
LINE
  5
29C5
330
29AC
100
AcDbEntity
  8
SIZE
 62
     0
370
    -2
100
AcDbLine
 10
7703.101231462962
 20
1682.692607490279
 30
0.0
 11
7703.101231462962
 21
1722.441694500572
 31
0.0
  0
LINE
  5
29C6
330
29AC
100
AcDbEntity
  8
SIZE
 62
     0
370
    -2
100
AcDbLine
 10
7705.601231462964
 20
1682.692607490279
 30
0.0
 11
7705.601231462964
 21
1722.441694500572
 31
0.0
  0
LINE
  5
29C7
330
29AC
100
AcDbEntity
  8
SIZE
 62
     0
370
    -2
100
AcDbLine
 10
7725.601231462964
 20
1712.441694500572
 30
0.0
 11
7745.601231462964
 21
1712.441694500572
 31
0.0
  0
LINE
  5
29C8
330
29AC
100
AcDbEntity
  8
SIZE
 62
     0
370
    -2
100
AcDbLine
 10
7683.101231462962
 20
1712.441694500572
 30
0.0
 11
7601.196469558201
 21
1712.441694500572
 31
0.0
  0
LINE
  5
29C9
330
29AC
100
AcDbEntity
  8
SIZE
 62
     0
370
    -2
100
AcDbLine
 10
7705.601231462964
 20
1712.441694500572
 30
0.0
 11
7703.101231462962
 21
1712.441694500572
 31
0.0
  0
INSERT
  5
29CA
330
29AC
100
AcDbEntity
  8
SIZE
 62
     0
370
    -2
100
AcDbBlockReference
  2
_OPEN30
 10
7705.601231462964
 20
1712.441694500572
 30
0.0
 41
20.0
 42
20.0
 43
20.0
 50
180.0
  0
INSERT
  5
29CB
330
29AC
100
AcDbEntity
  8
SIZE
 62
     0
370
    -2
100
AcDbBlockReference
  2
_OPEN30
 10
7703.101231462962
 20
1712.441694500572
 30
0.0
 41
20.0
 42
20.0
 43
20.0
  0
MTEXT
  5
29CC
330
29AC
100
AcDbEntity
  8
SIZE
 62
     0
100
AcDbMText
 10
7632.148850510581
 20
1732.441694500572
 30
0.0
 40
20.0
 41
0.0
 71
     5
 72
     1
  1
\A1;2.5
 73
     1
 44
1.0
1001
ACAD
1000
MTEXTBEGIN
1070
    73
1070
     1
1070
    44
1040
1.0
1070
    74
1070
     0
1000
MTEXTEND
  0
POINT
  5
29CD
330
29AC
100
AcDbEntity
  8
Defpoints
 62
     0
100
AcDbPoint
 10
7703.101231462962
 20
1672.692607490279
 30
0.0
  0
POINT
  5
29CE
330
29AC
100
AcDbEntity
  8
Defpoints
 62
     0
100
AcDbPoint
 10
7705.601231462964
 20
1672.692607490279
 30
0.0
  0
POINT
  5
29CF
330
29AC
100
AcDbEntity
  8
Defpoints
 62
     0
100
AcDbPoint
 10
7705.601231462964
 20
1712.441694500572
 30
0.0
  0
ENDBLK
  5
29AE
330
29AC
100
AcDbEntity
  8
0
100
AcDbBlockEnd
  0
BLOCK
  5
2C55
330
2C54
100
AcDbEntity
  8
0
100
AcDbBlockBegin
  2
*D47
 70
     1
 10
0.0
 20
0.0
 30
0.0
  3
*D47
  1

  0
LINE
  5
2C57
330
2C54
100
AcDbEntity
  8
SIZE
 62
     0
370
    -2
100
AcDbLine
 10
8171.187071903956
 20
1693.907008282921
 30
0.0
 11
8171.187071903956
 21
1735.49755031942
 31
0.0
  0
LINE
  5
2C58
330
2C54
100
AcDbEntity
  8
SIZE
 62
     0
370
    -2
100
AcDbLine
 10
8929.187071903958
 20
1693.907008281476
 30
0.0
 11
8929.187071903958
 21
1735.49755031942
 31
0.0
  0
LINE
  5
2C59
330
2C54
100
AcDbEntity
  8
SIZE
 62
     0
370
    -2
100
AcDbLine
 10
8191.187071903957
 20
1725.49755031942
 30
0.0
 11
8909.187071903957
 21
1725.49755031942
 31
0.0
  0
INSERT
  5
2C5A
330
2C54
100
AcDbEntity
  8
SIZE
 62
     0
370
    -2
100
AcDbBlockReference
  2
_OPEN30
 10
8171.187071903956
 20
1725.49755031942
 30
0.0
 41
20.0
 42
20.0
 43
20.0
 50
180.0
  0
INSERT
  5
2C5B
330
2C54
100
AcDbEntity
  8
SIZE
 62
     0
370
    -2
100
AcDbBlockReference
  2
_OPEN30
 10
8929.187071903958
 20
1725.49755031942
 30
0.0
 41
20.0
 42
20.0
 43
20.0
  0
MTEXT
  5
2C5C
330
2C54
100
AcDbEntity
  8
SIZE
 62
     0
100
AcDbMText
 10
8550.187071903959
 20
1745.49755031942
 30
0.0
 40
20.0
 41
0.0
 71
     5
 72
     1
  1
\A1;758
 73
     1
 44
1.0
1001
ACAD
1000
MTEXTBEGIN
1070
    73
1070
     1
1070
    44
1040
1.0
1070
    74
1070
     0
1000
MTEXTEND
  0
POINT
  5
2C5D
330
2C54
100
AcDbEntity
  8
Defpoints
 62
     0
100
AcDbPoint
 10
8171.187071903956
 20
1683.907008282921
 30
0.0
  0
POINT
  5
2C5E
330
2C54
100
AcDbEntity
  8
Defpoints
 62
     0
100
AcDbPoint
 10
8929.187071903958
 20
1683.907008281477
 30
0.0
  0
POINT
  5
2C5F
330
2C54
100
AcDbEntity
  8
Defpoints
 62
     0
100
AcDbPoint
 10
8929.187071903958
 20
1725.49755031942
 30
0.0
  0
ENDBLK
  5
2C56
330
2C54
100
AcDbEntity
  8
0
100
AcDbBlockEnd
  0
BLOCK
  5
2C62
330
2C61
100
AcDbEntity
  8
0
100
AcDbBlockBegin
  2
*D48
 70
     1
 10
0.0
 20
0.0
 30
0.0
  3
*D48
  1

  0
LINE
  5
2C64
330
2C61
100
AcDbEntity
  8
SIZE
 62
     0
370
    -2
100
AcDbLine
 10
8929.187071903958
 20
1693.907008281476
 30
0.0
 11
8929.187071903958
 21
1735.49755031942
 31
0.0
  0
LINE
  5
2C65
330
2C61
100
AcDbEntity
  8
SIZE
 62
     0
370
    -2
100
AcDbLine
 10
9001.187071904624
 20
1693.907008279916
 30
0.0
 11
9001.187071904624
 21
1735.49755031942
 31
0.0
  0
LINE
  5
2C66
330
2C61
100
AcDbEntity
  8
SIZE
 62
     0
370
    -2
100
AcDbLine
 10
8949.187071903958
 20
1725.49755031942
 30
0.0
 11
8981.187071904624
 21
1725.49755031942
 31
0.0
  0
INSERT
  5
2C67
330
2C61
100
AcDbEntity
  8
SIZE
 62
     0
370
    -2
100
AcDbBlockReference
  2
_OPEN30
 10
8929.187071903958
 20
1725.49755031942
 30
0.0
 41
20.0
 42
20.0
 43
20.0
 50
180.0
  0
INSERT
  5
2C68
330
2C61
100
AcDbEntity
  8
SIZE
 62
     0
370
    -2
100
AcDbBlockReference
  2
_OPEN30
 10
9001.187071904624
 20
1725.49755031942
 30
0.0
 41
20.0
 42
20.0
 43
20.0
  0
MTEXT
  5
2C69
330
2C61
100
AcDbEntity
  8
SIZE
 62
     0
100
AcDbMText
 10
8965.18707190429
 20
1745.49755031942
 30
0.0
 40
20.0
 41
0.0
 71
     5
 72
     1
  1
\A1;72
 73
     1
 44
1.0
1001
ACAD
1000
MTEXTBEGIN
1070
    73
1070
     1
1070
    44
1040
1.0
1070
    74
1070
     0
1000
MTEXTEND
  0
POINT
  5
2C6A
330
2C61
100
AcDbEntity
  8
Defpoints
 62
     0
100
AcDbPoint
 10
8929.187071903958
 20
1683.907008281477
 30
0.0
  0
POINT
  5
2C6B
330
2C61
100
AcDbEntity
  8
Defpoints
 62
     0
100
AcDbPoint
 10
9001.187071904624
 20
1683.907008279916
 30
0.0
  0
POINT
  5
2C6C
330
2C61
100
AcDbEntity
  8
Defpoints
 62
     0
100
AcDbPoint
 10
9001.187071904624
 20
1725.49755031942
 30
0.0
  0
ENDBLK
  5
2C63
330
2C61
100
AcDbEntity
  8
0
100
AcDbBlockEnd
  0
BLOCK
  5
2C6F
330
2C6E
100
AcDbEntity
  8
0
100
AcDbBlockBegin
  2
*D49
 70
     1
 10
0.0
 20
0.0
 30
0.0
  3
*D49
  1

  0
LINE
  5
2C71
330
2C6E
100
AcDbEntity
  8
SIZE
 62
     0
370
    -2
100
AcDbLine
 10
9001.187071904624
 20
1693.907008279916
 30
0.0
 11
9001.187071904624
 21
1735.49755031942
 31
0.0
  0
LINE
  5
2C72
330
2C6E
100
AcDbEntity
  8
SIZE
 62
     0
370
    -2
100
AcDbLine
 10
9759.187071904625
 20
1693.907008279916
 30
0.0
 11
9759.187071904625
 21
1735.49755031942
 31
0.0
  0
LINE
  5
2C73
330
2C6E
100
AcDbEntity
  8
SIZE
 62
     0
370
    -2
100
AcDbLine
 10
9021.187071904625
 20
1725.49755031942
 30
0.0
 11
9739.187071904623
 21
1725.49755031942
 31
0.0
  0
INSERT
  5
2C74
330
2C6E
100
AcDbEntity
  8
SIZE
 62
     0
370
    -2
100
AcDbBlockReference
  2
_OPEN30
 10
9001.187071904624
 20
1725.49755031942
 30
0.0
 41
20.0
 42
20.0
 43
20.0
 50
180.0
  0
INSERT
  5
2C75
330
2C6E
100
AcDbEntity
  8
SIZE
 62
     0
370
    -2
100
AcDbBlockReference
  2
_OPEN30
 10
9759.187071904625
 20
1725.49755031942
 30
0.0
 41
20.0
 42
20.0
 43
20.0
  0
MTEXT
  5
2C76
330
2C6E
100
AcDbEntity
  8
SIZE
 62
     0
100
AcDbMText
 10
9380.187071904623
 20
1745.49755031942
 30
0.0
 40
20.0
 41
0.0
 71
     5
 72
     1
  1
\A1;758
 73
     1
 44
1.0
1001
ACAD
1000
MTEXTBEGIN
1070
    73
1070
     1
1070
    44
1040
1.0
1070
    74
1070
     0
1000
MTEXTEND
  0
POINT
  5
2C77
330
2C6E
100
AcDbEntity
  8
Defpoints
 62
     0
100
AcDbPoint
 10
9001.187071904624
 20
1683.907008279916
 30
0.0
  0
POINT
  5
2C78
330
2C6E
100
AcDbEntity
  8
Defpoints
 62
     0
100
AcDbPoint
 10
9759.187071904625
 20
1683.907008279916
 30
0.0
  0
POINT
  5
2C79
330
2C6E
100
AcDbEntity
  8
Defpoints
 62
     0
100
AcDbPoint
 10
9759.187071904625
 20
1725.49755031942
 30
0.0
  0
ENDBLK
  5
2C70
330
2C6E
100
AcDbEntity
  8
0
100
AcDbBlockEnd
  0
BLOCK
  5
2C7C
330
2C7B
100
AcDbEntity
  8
0
100
AcDbBlockBegin
  2
*D50
 70
     1
 10
0.0
 20
0.0
 30
0.0
  3
*D50
  1

  0
LINE
  5
2C7E
330
2C7B
100
AcDbEntity
  8
SIZE
 62
     0
370
    -2
100
AcDbLine
 10
9767.187071904579
 20
1683.907008278541
 30
0.0
 11
9767.187071904579
 21
1783.426361763028
 31
0.0
  0
LINE
  5
2C7F
330
2C7B
100
AcDbEntity
  8
SIZE
 62
     0
370
    -2
100
AcDbLine
 10
8163.187071903891
 20
1683.907008282936
 30
0.0
 11
8163.187071903891
 21
1783.426361763028
 31
0.0
  0
LINE
  5
2C80
330
2C7B
100
AcDbEntity
  8
SIZE
 62
     0
370
    -2
100
AcDbLine
 10
9747.187071904576
 20
1773.426361763029
 30
0.0
 11
8183.187071903892
 21
1773.426361763029
 31
0.0
  0
INSERT
  5
2C81
330
2C7B
100
AcDbEntity
  8
SIZE
 62
     0
370
    -2
100
AcDbBlockReference
  2
_OPEN30
 10
9767.187071904579
 20
1773.426361763029
 30
0.0
 41
20.0
 42
20.0
 43
20.0
  0
INSERT
  5
2C82
330
2C7B
100
AcDbEntity
  8
SIZE
 62
     0
370
    -2
100
AcDbBlockReference
  2
_OPEN30
 10
8163.187071903891
 20
1773.426361763029
 30
0.0
 41
20.0
 42
20.0
 43
20.0
 50
180.0
  0
MTEXT
  5
2C83
330
2C7B
100
AcDbEntity
  8
SIZE
 62
     0
100
AcDbMText
 10
8965.187071904235
 20
1793.426361763029
 30
0.0
 40
20.0
 41
0.0
 71
     5
 72
     1
  1
\A1;1604
 73
     1
 44
1.0
1001
ACAD
1000
MTEXTBEGIN
1070
    73
1070
     1
1070
    44
1040
1.0
1070
    74
1070
     0
1000
MTEXTEND
  0
POINT
  5
2C84
330
2C7B
100
AcDbEntity
  8
Defpoints
 62
     0
100
AcDbPoint
 10
9767.187071904579
 20
1673.907008278541
 30
0.0
  0
POINT
  5
2C85
330
2C7B
100
AcDbEntity
  8
Defpoints
 62
     0
100
AcDbPoint
 10
8163.187071903891
 20
1673.907008282936
 30
0.0
  0
POINT
  5
2C86
330
2C7B
100
AcDbEntity
  8
Defpoints
 62
     0
100
AcDbPoint
 10
8163.187071903891
 20
1773.426361763029
 30
0.0
  0
ENDBLK
  5
2C7D
330
2C7B
100
AcDbEntity
  8
0
100
AcDbBlockEnd
  0
BLOCK
  5
2C89
330
2C88
100
AcDbEntity
  8
0
100
AcDbBlockBegin
  2
*D51
 70
     1
 10
0.0
 20
0.0
 30
0.0
  3
*D51
  1

  0
LINE
  5
2C8B
330
2C88
100
AcDbEntity
  8
SIZE
 62
     0
370
    -2
100
AcDbLine
 10
8153.187071903891
 20
1673.907008282936
 30
0.0
 11
8102.579103991137
 21
1673.907008282936
 31
0.0
  0
LINE
  5
2C8C
330
2C88
100
AcDbEntity
  8
SIZE
 62
     0
370
    -2
100
AcDbLine
 10
8154.187071904507
 20
1215.70055747632
 30
0.0
 11
8102.579103991137
 21
1215.70055747632
 31
0.0
  0
LINE
  5
2C8D
330
2C88
100
AcDbEntity
  8
SIZE
 62
     0
370
    -2
100
AcDbLine
 10
8112.579103991135
 20
1653.907008282936
 30
0.0
 11
8112.579103991135
 21
1235.70055747632
 31
0.0
  0
INSERT
  5
2C8E
330
2C88
100
AcDbEntity
  8
SIZE
 62
     0
370
    -2
100
AcDbBlockReference
  2
_OPEN30
 10
8112.579103991135
 20
1673.907008282936
 30
0.0
 41
20.0
 42
20.0
 43
20.0
 50
90.0
  0
INSERT
  5
2C8F
330
2C88
100
AcDbEntity
  8
SIZE
 62
     0
370
    -2
100
AcDbBlockReference
  2
_OPEN30
 10
8112.579103991135
 20
1215.70055747632
 30
0.0
 41
20.0
 42
20.0
 43
20.0
 50
270.0
  0
MTEXT
  5
2C90
330
2C88
100
AcDbEntity
  8
SIZE
 62
     0
100
AcDbMText
 10
8092.579103991138
 20
1444.80378287963
 30
0.0
 40
20.0
 41
0.0
 71
     5
 72
     1
  1
\A1;458
 11
0.0000000000000001
 21
1.0
 31
0.0
 73
     1
 44
1.0
1001
ACAD
1000
MTEXTBEGIN
1070
    73
1070
     1
1070
    44
1040
1.0
1070
    74
1070
     0
1000
MTEXTEND
  0
POINT
  5
2C91
330
2C88
100
AcDbEntity
  8
Defpoints
 62
     0
100
AcDbPoint
 10
8163.187071903891
 20
1673.907008282936
 30
0.0
  0
POINT
  5
2C92
330
2C88
100
AcDbEntity
  8
Defpoints
 62
     0
100
AcDbPoint
 10
8164.187071904509
 20
1215.70055747632
 30
0.0
  0
POINT
  5
2C93
330
2C88
100
AcDbEntity
  8
Defpoints
 62
     0
100
AcDbPoint
 10
8112.579103991135
 20
1215.70055747632
 30
0.0
  0
ENDBLK
  5
2C8A
330
2C88
100
AcDbEntity
  8
0
100
AcDbBlockEnd
  0
ENDSEC
  0
SECTION
  2
ENTITIES
  0
MTEXT
  5
B60
330
2
100
AcDbEntity
  8
ETC
100
AcDbMText
 10
8710.58534227234
 20
1878.709653656349
 30
0.0
 40
40.0
 41
651.9792552343242
 71
     1
 72
     5
  1
AG1T-KK89SD-1
 73
     1
 44
1.0
1001
ACAD
1000
MTEXTBEGIN
1070
    73
1070
     1
1070
    44
1040
1.0
1070
    74
1070
     0
1000
MTEXTEND
  0
MULTILEADER
  5
2172
330
2
100
AcDbEntity
  8
NOTE
 92
      980
310
D40300001B0000000C00000010000000050000000C00000016000000000000C00C00000013000000112700003C0000000600000002000000B5608FA1D3BABF40FEA91F5B32F09A400000000000000000269E997877BABF40FEA91F5B32F09A4000000000000000000C0000001300000001000000880000001D00000027FBAA
310
78A2C42B400CF0252B8BCA2C4000000000000000006DBDF1E32FEBBF400CF0252B8BCA2CC027FBAA78A2C42B4000000000000000006481C7C6A0279A400000000000000000000000000000000000000000000034400000000000000000000000000000000000000000000000000000000000000000000000000000F03F0C00
310
000016000000040000C30C00000017000000FDFFFFFF540000002000000002000000000000000000F0BF498A025C1426D13F000000000000000000000000000000000000000000000000000000000000000000000000000000000000000000000000000000000000F03F0C00000016000000040000C30C00000017000000FD
310
FFFFFF540000002000000002000000000000000000000000000000000000000000000000000000000000000000F0BF498A025C1426D1BF000000000000000000000000000000000000000000000000000000000000F03F0C00000016000000040000C30C00000017000000FDFFFFFF54000000200000000200000000000000
310
0000000000000000000000000000000000000000000000000000F0BF0000000000000000000000000000000000000000000000000000000000000000000000000000F03F080000001F0000000C00000016000000000000C00C00000013000000891300003C0000000600000002000000EF67B5924DDDBF4044CD1DDD35619A
310
400000000000000000B5608FA1D3BABF40FEA91F5B32F09A4000000000000000000C000000130000009A3A00003C000000060000000200000078F3EECDCC5DBF40FAA91F5B32F09A400000000000000000239E997877BABF40FAA91F5B32F09A4000000000000000000C00000016000000000000C00C00000012000000FF7F
310
00000C00000017000000FFFFFFFF0C00000016000000000000C00C00000013000000993A0000B40000000B0000009D3C81F21558BF40FEA91F5B32009B40000000000000000000000000000000000000000000000000000000000000F03F000000000000F03F000000000000000000000000000000003132817E5C552B3232
310
303537000000000C000000010000000000000000003440000000000000F03F0000000000000000000000000000F03F0000000000000000000000000000000000000000726F6D616E732E7368780000657874666F6E742E73687800
100
AcDbMLeader
300
CONTEXT_DATA{
 40
1.0
 10
8027.800017294351
 20
1736.049175734281
 30
0.0
 41
20.0
140
20.0
145
2.0
174
     1
175
     6
176
     0
177
     0
290
     1
304
12×%%C7
 11
0.0
 21
0.0
 31
1.0
340
23
 12
8029.80001729435
 22
1748.049175734282
 32
0.0
 13
1.0
 23
0.0
 33
0.0
 42
0.0
 43
0.0
 44
0.0
 45
1.0
170
     1
 90
-1073741824
171
     1
172
     5
 91
-1073741824
141
0.0
 92
 12640252
291
     0
292
     0
173
     0
293
     0
142
0.0
143
0.0
294
     0
295
     0
296
     0
110
8171.187071903942
120
1673.907008282921
130
0.0
111
1.0
121
0.0
131
0.0
112
0.0
122
1.0
132
0.0
297
     0
302
LEADER{
290
     1
291
     1
 10
8122.826683961021
 20
1724.049175734282
 30
0.0
 11
-1.0
 21
0.0
 31
0.0
 90
        0
 40
0.359999999999998
304
LEADER_LINE{
 10
8171.187071903942
 20
1673.907008282921
 30
0.0
 91
        0
305
}
303
}
301
}
340
B17
 90
 67454336
170
     1
 91
-1056964608
341
26
171
    -2
290
     1
291
     1
 41
0.36
342
32
 42
20.0
172
     2
343
23
173
     1
 95
        6
174
     1
175
     2
 92
-1056964608
292
     0
 93
-1056964608
 10
1.0
 20
1.0
 30
1.0
 43
0.0
176
     0
293
     0
294
     0
178
     0
179
     1
 45
1.0
1001
ACAD_MLEADERVER
1070
     2
  0
LINE
  5
2555
330
2
100
AcDbEntity
  8
BASIS
  6
DASHDOT
 62
     6
100
AcDbLine
 10
8965.187071904235
 20
1207.932714406419
 30
0.0
 11
8965.187071904235
 21
1706.513946921166
 31
0.0
  0
LINE
  5
2556
330
2
100
AcDbEntity
  8
ARRANGE
  6
Continuous
 62
     1
100
AcDbLine
 10
8948.502954339833
 20
1657.22289071562
 30
0.0
 11
8981.871189468639
 21
1690.591125844427
 31
0.0
  0
LINE
  5
2557
330
2
100
AcDbEntity
  8
ARRANGE
  6
Continuous
 62
     1
100
AcDbLine
 10
8948.502954339833
 20
1690.591125844427
 30
0.0
 11
8981.871189468639
 21
1657.22289071562
 31
0.0
  0
CIRCLE
  5
2558
330
2
100
AcDbEntity
  8
ARRANGE
100
AcDbCircle
 10
8965.187071904235
 20
1673.907008280024
 30
0.0
 40
15.0
  0
LINE
  5
2B88
330
2
100
AcDbEntity
  8
NOTE
100
AcDbLine
 10
9001.187071904624
 20
1683.907008279916
 30
0.0
 11
9001.187071904624
 21
1662.907008279917
 31
0.0
  0
LINE
  5
2B89
330
2
100
AcDbEntity
  8
NOTE
100
AcDbLine
 10
8171.187071903956
 20
1683.907008282921
 30
0.0
 11
8171.18707190392
 21
1662.907008282922
 31
0.0
  0
LINE
  5
2B8A
330
2
100
AcDbEntity
  8
NOTE
100
AcDbLine
 10
9759.187071904625
 20
1683.907008278541
 30
0.0
 11
9759.187071904625
 21
1662.907008278541
 31
0.0
  0
LINE
  5
2B8B
330
2
100
AcDbEntity
  8
NOTE
100
AcDbLine
 10
8929.187071903958
 20
1683.907008280143
 30
0.0
 11
8929.187071903918
 21
1662.907008280143
 31
0.0
  0
ELLIPSE
  5
2B8C
330
2
100
AcDbEntity
  8
OUTLINE
100
AcDbEllipse
 10
9005.103980437532
 20
1490.757875427656
 30
0.0
 11
2.000000000002879
 21
-0.0000000000036552
 31
0.0
210
0.0
220
0.0
230
1.0
 40
0.6704266189587994
 41
3.483598248117556
 42
6.002847293924267
  0
ELLIPSE
  5
2B8D
330
2
100
AcDbEntity
  8
OUTLINE
100
AcDbEllipse
 10
9005.187071904678
 20
1604.730400650652
 30
0.0
 11
2.000000000000644
 21
-0.0000000000036552
 31
0.0
210
0.0
220
0.0
230
1.0
 40
0.6704266189587993
 41
3.445480419242236
 42
5.979297541526343
  0
ELLIPSE
  5
2B8E
330
2
100
AcDbEntity
  8
OUTLINE
100
AcDbEllipse
 10
9005.187071904678
 20
1603.988424809676
 30
0.0
 11
-2.0
 21
0.0000000000036552
 31
0.0
210
0.0
220
0.0
230
1.0
 40
0.6704266189587993
 41
6.049486592544877
 42
9.658476675403337
  0
ELLIPSE
  5
2B8F
330
2
100
AcDbEntity
  8
OUTLINE
100
AcDbEllipse
 10
9005.103980437532
 20
1490.015899586681
 30
0.0
 11
-2.0
 21
0.0000000000036552
 31
0.0
210
0.0
220
0.0
230
1.0
 40
0.6704266189587993
 41
6.126691072586496
 42
9.731148810616014
  0
ELLIPSE
  5
2B90
330
2
100
AcDbEntity
  8
OUTLINE
100
AcDbEllipse
 10
9005.384976417467
 20
1236.385715533947
 30
0.0
 11
-2.0
 21
0.0000000000017003
 31
0.0
210
0.0
220
0.0
230
1.0
 40
0.3875155864521035
 41
0.286491679450552
 42
2.689100429857349
  0
ELLIPSE
  5
2B91
330
2
100
AcDbEntity
  8
OUTLINE
100
AcDbEllipse
 10
9005.354567141992
 20
1313.888832824368
 30
0.0
 11
-2.0
 21
0.0000000000017003
 31
0.0
210
0.0
220
0.0
230
1.0
 40
0.3875155864521035
 41
0.2983285924611382
 42
2.702679036678227
  0
ELLIPSE
  5
2B92
330
2
100
AcDbEntity
  8
OUTLINE
100
AcDbEllipse
 10
9005.187071905323
 20
1391.391950114788
 30
0.0
 11
-2.0
 21
0.0000000000017003
 31
0.0
210
0.0
220
0.0
230
1.0
 40
0.3875155864521035
 41
0.3664177307346388
 42
2.775174922854806
  0
LINE
  5
2B93
330
2
100
AcDbEntity
  8
OUTLINE
100
AcDbLine
 10
9008.187071904577
 20
1672.907008279917
 30
0.0
 11
9008.687072739837
 21
1672.407007444654
 31
0.0
  0
LINE
  5
2B94
330
2
100
AcDbEntity
  8
OUTLINE
100
AcDbLine
 10
9008.187071904577
 20
1672.907008279917
 30
0.0
 11
9008.187071904577
 21
1673.907008279918
 31
0.0
  0
LINE
  5
2B95
330
2
100
AcDbEntity
  8
OUTLINE
100
AcDbLine
 10
9008.187071904577
 20
1673.907008279917
 30
0.0
 11
8993.187071904577
 21
1673.907008279917
 31
0.0
  0
LINE
  5
2B96
330
2
100
AcDbEntity
  8
OUTLINE
100
AcDbLine
 10
8993.187071904577
 20
1673.907008279917
 30
0.0
 11
8993.187071904577
 21
1648.907008279916
 31
0.0
  0
LINE
  5
2B97
330
2
100
AcDbEntity
  8
OUTLINE
100
AcDbLine
 10
8994.187071904759
 20
1648.907008279917
 30
0.0
 11
8993.187071904577
 21
1648.907008279917
 31
0.0
  0
LINE
  5
2B98
330
2
100
AcDbEntity
  8
OUTLINE
100
AcDbLine
 10
8994.187071906038
 20
1217.009936211342
 30
0.0
 11
8993.187071906159
 21
1217.009936211342
 31
0.0
  0
LINE
  5
2B99
330
2
100
AcDbEntity
  8
OUTLINE
100
AcDbLine
 10
8993.187071904577
 20
1648.907008279917
 30
0.0
 11
8993.18707190501
 21
1456.494568638742
 31
0.0
  0
LINE
  5
2B9A
330
2
100
AcDbEntity
  8
OUTLINE
100
AcDbLine
 10
8994.187071905006
 20
1456.494568638741
 30
0.0
 11
8993.187071905005
 21
1456.494568638741
 31
0.0
  0
LINE
  5
2B9B
330
2
100
AcDbEntity
  8
OUTLINE
100
AcDbLine
 10
8993.187071905005
 20
1456.49456863874
 30
0.0
 11
8993.187071906159
 21
1217.009936211341
 31
0.0
  0
ELLIPSE
  5
2B9C
330
2
100
AcDbEntity
  8
OUTLINE
100
AcDbEllipse
 10
9755.187071905325
 20
1391.39195011341
 30
0.0
 11
-2.0
 21
0.0000000000017003
 31
0.0
210
0.0
220
0.0
230
1.0
 40
0.387515586452107
 41
0.3664177294793691
 42
2.775174924110354
  0
ELLIPSE
  5
2B9D
330
2
100
AcDbEntity
  8
OUTLINE
100
AcDbEllipse
 10
9755.187071905695
 20
1313.888832822989
 30
0.0
 11
-2.0
 21
0.0000000000017003
 31
0.0
210
0.0
220
0.0
230
1.0
 40
0.387515586452107
 41
0.3664177294560904
 42
2.775174924089409
  0
ELLIPSE
  5
2B9E
330
2
100
AcDbEntity
  8
OUTLINE
100
AcDbEllipse
 10
9755.187071906069
 20
1236.385715532567
 30
0.0
 11
-2.0
 21
0.0000000000017003
 31
0.0
210
0.0
220
0.0
230
1.0
 40
0.387515586452107
 41
0.3664177294326159
 42
2.775174924067794
  0
ELLIPSE
  5
2B9F
330
2
100
AcDbEntity
  8
OUTLINE
100
AcDbEllipse
 10
9755.187071904678
 20
1603.9884248083
 30
0.0
 11
-2.0
 21
0.0000000000036553
 31
0.0
210
0.0
220
0.0
230
1.0
 40
0.6704266189588021
 41
6.04948659255749
 42
9.658476675390597
  0
ELLIPSE
  5
2BA0
330
2
100
AcDbEntity
  8
OUTLINE
100
AcDbEllipse
 10
9755.187071904934
 20
1490.015899585304
 30
0.0
 11
-2.0
 21
0.0000000000036553
 31
0.0
210
0.0
220
0.0
230
1.0
 40
0.6704266189588021
 41
6.049486592157647
 42
9.658476674948296
  0
ELLIPSE
  5
2BA1
330
2
100
AcDbEntity
  8
OUTLINE
100
AcDbEllipse
 10
9755.187071904934
 20
1490.75787542628
 30
0.0
 11
2.0
 21
-0.0000000000036553
 31
0.0
210
0.0
220
0.0
230
1.0
 40
0.6704266189588021
 41
3.445480419049022
 42
5.979297541298157
  0
ELLIPSE
  5
2BA2
330
2
100
AcDbEntity
  8
OUTLINE
100
AcDbEllipse
 10
9755.187071904678
 20
1604.730400649276
 30
0.0
 11
2.0
 21
-0.0000000000036553
 31
0.0
210
0.0
220
0.0
230
1.0
 40
0.6704266189588021
 41
3.445480419248933
 42
5.97929754152002
  0
LINE
  5
2BA3
330
2
100
AcDbEntity
  8
OUTLINE
100
AcDbLine
 10
9751.687071069317
 20
1672.407007443278
 30
0.0
 11
9752.187071904577
 21
1672.90700827854
 31
0.0
  0
LINE
  5
2BA4
330
2
100
AcDbEntity
  8
OUTLINE
100
AcDbLine
 10
9767.187071904579
 20
1648.90700827854
 30
0.0
 11
9766.187071904759
 21
1648.90700827854
 31
0.0
  0
LINE
  5
2BA5
330
2
100
AcDbEntity
  8
OUTLINE
100
AcDbLine
 10
9767.187071904579
 20
1673.907008278541
 30
0.0
 11
9767.187071904579
 21
1648.90700827854
 31
0.0
  0
LINE
  5
2BA6
330
2
100
AcDbEntity
  8
OUTLINE
100
AcDbLine
 10
9767.187071904579
 20
1673.907008278541
 30
0.0
 11
9752.187071904577
 21
1673.907008278541
 31
0.0
  0
LINE
  5
2BA7
330
2
100
AcDbEntity
  8
OUTLINE
100
AcDbLine
 10
9752.187071904577
 20
1673.90700827854
 30
0.0
 11
9752.187071904577
 21
1672.90700827854
 31
0.0
  0
LINE
  5
2BA8
330
2
100
AcDbEntity
  8
OUTLINE
100
AcDbLine
 10
9767.187071906159
 20
1217.009936209964
 30
0.0
 11
9766.187071906038
 21
1217.009936209964
 31
0.0
  0
LINE
  5
2BA9
330
2
100
AcDbEntity
  8
OUTLINE
100
AcDbLine
 10
9767.187071905006
 20
1456.494568637365
 30
0.0
 11
9767.187071906159
 21
1217.009936209963
 31
0.0
  0
LINE
  5
2BAA
330
2
100
AcDbEntity
  8
OUTLINE
100
AcDbLine
 10
9767.187071905006
 20
1456.494568637364
 30
0.0
 11
9766.187071905006
 21
1456.494568637364
 31
0.0
  0
LINE
  5
2BAB
330
2
100
AcDbEntity
  8
OUTLINE
100
AcDbLine
 10
9767.187071904579
 20
1648.90700827854
 30
0.0
 11
9767.187071905006
 21
1456.494568637364
 31
0.0
  0
ELLIPSE
  5
2BAC
330
2
100
AcDbEntity
  8
OUTLINE
100
AcDbEllipse
 10
9755.187071905325
 20
1391.39195011471
 30
0.0
 11
2.5
 21
-0.0000000000021254
 31
0.0
210
0.0
220
0.0
230
1.0
 40
0.3875155864521033
 41
3.637444638583262
 42
5.787333322186302
  0
ELLIPSE
  5
2BAD
330
2
100
AcDbEntity
  8
OUTLINE
100
AcDbEllipse
 10
9755.187071905318
 20
1390.470086963121
 30
0.0
 11
-2.5
 21
0.0000000000021254
 31
0.0
210
0.0
220
0.0
230
1.0
 40
0.3875155864521026
 41
0.0000000000002321
 42
6.283185307179817
  0
ELLIPSE
  5
2BAE
330
2
100
AcDbEntity
  8
OUTLINE
100
AcDbEllipse
 10
9755.187071905645
 20
1313.88883282429
 30
0.0
 11
2.5
 21
-0.0000000000021254
 31
0.0
210
0.0
220
0.0
230
1.0
 40
0.3875155864521033
 41
3.637444638583408
 42
5.787333322186535
  0
ELLIPSE
  5
2BAF
330
2
100
AcDbEntity
  8
OUTLINE
100
AcDbEllipse
 10
9755.187071905641
 20
1312.966969672701
 30
0.0
 11
-2.5
 21
0.0000000000021254
 31
0.0
210
0.0
220
0.0
230
1.0
 40
0.3875155864521026
 41
0.0000000000002321
 42
6.283185307179817
  0
ELLIPSE
  5
2BB0
330
2
100
AcDbEntity
  8
OUTLINE
100
AcDbEllipse
 10
9755.187071905959
 20
1236.385715533869
 30
0.0
 11
2.5
 21
-0.0000000000021254
 31
0.0
210
0.0
220
0.0
230
1.0
 40
0.3875155864521033
 41
3.637444638583408
 42
5.787333322186535
  0
ELLIPSE
  5
2BB1
330
2
100
AcDbEntity
  8
OUTLINE
100
AcDbEllipse
 10
9755.187071905959
 20
1235.463852382281
 30
0.0
 11
-2.5
 21
0.0000000000021254
 31
0.0
210
0.0
220
0.0
230
1.0
 40
0.3875155864521026
 41
0.0000000000002321
 42
6.283185307179817
  0
ELLIPSE
  5
2BB2
330
2
100
AcDbEntity
  8
OUTLINE
100
AcDbEllipse
 10
9005.187071905323
 20
1391.391950114788
 30
0.0
 11
2.5
 21
-0.0000000000021254
 31
0.0
210
0.0
220
0.0
230
1.0
 40
0.3875155864521033
 41
3.637444638582965
 42
5.787333322186978
  0
ELLIPSE
  5
2BB3
330
2
100
AcDbEntity
  8
OUTLINE
100
AcDbEllipse
 10
9005.187071905318
 20
1390.470086963199
 30
0.0
 11
-2.5
 21
0.0000000000021254
 31
0.0
210
0.0
220
0.0
230
1.0
 40
0.3875155864521026
 41
0.0000000000002321
 42
6.283185307179817
  0
ELLIPSE
  5
2BB4
330
2
100
AcDbEntity
  8
OUTLINE
100
AcDbEllipse
 10
9005.187071905643
 20
1313.888832824367
 30
0.0
 11
2.5
 21
-0.0000000000021254
 31
0.0
210
0.0
220
0.0
230
1.0
 40
0.3875155864521033
 41
3.637444638583156
 42
5.787333322186873
  0
ELLIPSE
  5
2BB5
330
2
100
AcDbEntity
  8
OUTLINE
100
AcDbEllipse
 10
9005.187071905639
 20
1312.966969672779
 30
0.0
 11
-2.5
 21
0.0000000000021254
 31
0.0
210
0.0
220
0.0
230
1.0
 40
0.3875155864521026
 41
0.0000000000002321
 42
6.283185307179817
  0
ELLIPSE
  5
2BB6
330
2
100
AcDbEntity
  8
OUTLINE
100
AcDbEllipse
 10
9005.187071905959
 20
1236.385715533947
 30
0.0
 11
2.5
 21
-0.0000000000021254
 31
0.0
210
0.0
220
0.0
230
1.0
 40
0.3875155864521033
 41
3.637444638583156
 42
5.787333322186727
  0
ELLIPSE
  5
2BB7
330
2
100
AcDbEntity
  8
OUTLINE
100
AcDbEllipse
 10
9005.187071905959
 20
1235.463852382359
 30
0.0
 11
-2.5
 21
0.0000000000021254
 31
0.0
210
0.0
220
0.0
230
1.0
 40
0.3875155864521026
 41
0.0000000000002321
 42
6.283185307179817
  0
ELLIPSE
  5
2BB8
330
2
100
AcDbEntity
  8
OUTLINE
100
AcDbEllipse
 10
9380.187071905071
 20
1450.535002863237
 30
0.0
 11
-2.0
 21
0.0000000000017003
 31
0.0
210
0.0
220
0.0
230
1.0
 40
0.3875155864521026
 41
0.3019971078692234
 42
2.839595543311653
  0
ELLIPSE
  5
2BB9
330
2
100
AcDbEntity
  8
OUTLINE
100
AcDbEllipse
 10
9646.187071905071
 20
1450.53500286321
 30
0.0
 11
-2.0
 21
0.0000000000017003
 31
0.0
210
0.0
220
0.0
230
1.0
 40
0.3875155864521026
 41
0.3019971083291259
 42
2.839595542852303
  0
ELLIPSE
  5
2BBA
330
2
100
AcDbEntity
  8
OUTLINE
100
AcDbEllipse
 10
9114.187071905071
 20
1450.535002863265
 30
0.0
 11
-2.0
 21
0.0000000000017003
 31
0.0
210
0.0
220
0.0
230
1.0
 40
0.3875155864521026
 41
0.3019971074103573
 42
2.839595543770718
  0
LINE
  5
2BBB
330
2
100
AcDbEntity
  8
OUTLINE
100
AcDbLine
 10
8994.187071906043
 20
1215.700557473303
 30
0.0
 11
9766.187071906045
 21
1215.700557473223
 31
0.0
  0
LINE
  5
2BBC
330
2
100
AcDbEntity
  8
OUTLINE
100
AcDbLine
 10
9766.187071906045
 20
1215.700557473222
 30
0.0
 11
9766.187071905086
 21
1447.746270070176
 31
0.0
  0
LINE
  5
2BBD
330
2
100
AcDbEntity
  8
OUTLINE
100
AcDbLine
 10
8994.187071905082
 20
1447.746270071606
 30
0.0
 11
8994.187071906038
 21
1215.700557473302
 31
0.0
  0
ELLIPSE
  5
2BBE
330
2
100
AcDbEntity
  8
OUTLINE
100
AcDbEllipse
 10
9380.187071904392
 20
1449.680314690329
 30
0.0
 11
-2.5
 21
0.0000000000046273
 31
0.0
210
0.0
220
0.0
230
1.0
 40
0.3868089238877543
 41
0.0000000000000002
 42
6.283185307179584
  0
ELLIPSE
  5
2BBF
330
2
100
AcDbEntity
  8
OUTLINE
100
AcDbEllipse
 10
9755.187071904467
 20
1490.015899585305
 30
0.0
 11
2.5
 21
-0.0000000000046273
 31
0.0
210
0.0
220
0.0
230
1.0
 40
0.6704266189589171
 41
3.364785489424173
 42
6.059992471345074
  0
ELLIPSE
  5
2BC0
330
2
100
AcDbEntity
  8
OUTLINE
100
AcDbEllipse
 10
9755.187071904465
 20
1489.27392374433
 30
0.0
 11
-2.5
 21
0.0000000000046273
 31
0.0
210
0.0
220
0.0
230
1.0
 40
0.6704266189589171
 41
0.0000000000000002
 42
6.283185307179585
  0
ELLIPSE
  5
2BC1
330
2
100
AcDbEntity
  8
OUTLINE
100
AcDbEllipse
 10
9755.187071904678
 20
1603.988424808321
 30
0.0
 11
2.5
 21
-0.0000000000046273
 31
0.0
210
0.0
220
0.0
230
1.0
 40
0.6704266189589171
 41
3.364785489424303
 42
6.059992471345074
  0
ELLIPSE
  5
2BC2
330
2
100
AcDbEntity
  8
OUTLINE
100
AcDbEllipse
 10
9755.187071904677
 20
1603.246448967346
 30
0.0
 11
-2.5
 21
0.0000000000046273
 31
0.0
210
0.0
220
0.0
230
1.0
 40
0.6704266189589171
 41
0.0000000000000002
 42
6.283185307179585
  0
ELLIPSE
  5
2BC3
330
2
100
AcDbEntity
  8
OUTLINE
100
AcDbEllipse
 10
9005.187071904467
 20
1490.015899586694
 30
0.0
 11
2.5
 21
-0.0000000000046273
 31
0.0
210
0.0
220
0.0
230
1.0
 40
0.6704266189589171
 41
3.364785489424173
 42
6.059992471345204
  0
ELLIPSE
  5
2BC4
330
2
100
AcDbEntity
  8
OUTLINE
100
AcDbEllipse
 10
9005.187071904463
 20
1489.273923745719
 30
0.0
 11
-2.5
 21
0.0000000000046273
 31
0.0
210
0.0
220
0.0
230
1.0
 40
0.6704266189589171
 41
0.0000000000000002
 42
6.283185307179585
  0
ELLIPSE
  5
2BC5
330
2
100
AcDbEntity
  8
OUTLINE
100
AcDbEllipse
 10
9005.187071904678
 20
1603.98842480971
 30
0.0
 11
2.5
 21
-0.0000000000046273
 31
0.0
210
0.0
220
0.0
230
1.0
 40
0.6704266189589171
 41
3.364785489424303
 42
6.059992471345074
  0
ELLIPSE
  5
2BC6
330
2
100
AcDbEntity
  8
OUTLINE
100
AcDbEllipse
 10
9005.187071904675
 20
1603.246448968734
 30
0.0
 11
-2.5
 21
0.0000000000046273
 31
0.0
210
0.0
220
0.0
230
1.0
 40
0.6704266189589171
 41
0.0000000000000002
 42
6.283185307179585
  0
ELLIPSE
  5
2BC7
330
2
100
AcDbEntity
  8
OUTLINE
100
AcDbEllipse
 10
9114.187071904392
 20
1449.680314690822
 30
0.0
 11
-2.5
 21
0.0000000000046273
 31
0.0
210
0.0
220
0.0
230
1.0
 40
0.3868089238877543
 41
0.0000000000000002
 42
6.283185307179584
  0
ELLIPSE
  5
2BC8
330
2
100
AcDbEntity
  8
OUTLINE
100
AcDbEllipse
 10
9646.187071904392
 20
1449.680314689837
 30
0.0
 11
-2.5
 21
0.0000000000046273
 31
0.0
210
0.0
220
0.0
230
1.0
 40
0.3868089238877543
 41
0.0000000000000002
 42
6.283185307179584
  0
LINE
  5
2BC9
330
2
100
AcDbEntity
  8
OUTLINE
100
AcDbLine
 10
9753.687071904721
 20
1626.338639409557
 30
0.0
 11
9753.687071904721
 21
1628.349919266434
 31
0.0
  0
LINE
  5
2BCA
330
2
100
AcDbEntity
  8
OUTLINE
100
AcDbLine
 10
9753.687071904721
 20
1627.080615250531
 30
0.0
 11
9756.687071904721
 21
1627.080615250526
 31
0.0
  0
LINE
  5
2BCB
330
2
100
AcDbEntity
  8
OUTLINE
100
AcDbLine
 10
9756.687071904721
 20
1626.338639409551
 30
0.0
 11
9753.687071904721
 21
1626.338639409557
 31
0.0
  0
LINE
  5
2BCC
330
2
100
AcDbEntity
  8
OUTLINE
100
AcDbLine
 10
9756.687071904721
 20
1628.349919266428
 30
0.0
 11
9756.687071904721
 21
1626.338639409551
 31
0.0
  0
LINE
  5
2BCD
330
2
100
AcDbEntity
  8
OUTLINE
100
AcDbLine
 10
9753.687071904721
 20
1628.349919266433
 30
0.0
 11
9756.687071904721
 21
1628.349919266427
 31
0.0
  0
LINE
  5
2BCE
330
2
100
AcDbEntity
  8
OUTLINE
100
AcDbLine
 10
9003.687071904719
 20
1626.338639410945
 30
0.0
 11
9003.687071904719
 21
1628.349919267822
 31
0.0
  0
LINE
  5
2BCF
330
2
100
AcDbEntity
  8
OUTLINE
100
AcDbLine
 10
9003.687071904719
 20
1627.080615251919
 30
0.0
 11
9006.687071904719
 21
1627.080615251914
 31
0.0
  0
LINE
  5
2BD0
330
2
100
AcDbEntity
  8
OUTLINE
100
AcDbLine
 10
9006.687071904719
 20
1626.33863941094
 30
0.0
 11
9003.687071904719
 21
1626.338639410945
 31
0.0
  0
LINE
  5
2BD1
330
2
100
AcDbEntity
  8
OUTLINE
100
AcDbLine
 10
9006.687071904719
 20
1628.349919267816
 30
0.0
 11
9006.687071904719
 21
1626.338639410939
 31
0.0
  0
LINE
  5
2BD2
330
2
100
AcDbEntity
  8
OUTLINE
100
AcDbLine
 10
9003.687071904719
 20
1628.349919267821
 30
0.0
 11
9006.687071904719
 21
1628.349919267815
 31
0.0
  0
LINE
  5
2BD3
330
2
100
AcDbEntity
  8
OUTLINE
100
AcDbLine
 10
8999.187071904383
 20
1445.812225452157
 30
0.0
 11
8994.18707190439
 21
1447.746270071606
 31
0.0
  0
LINE
  5
2BD4
330
2
100
AcDbEntity
  8
OUTLINE
100
AcDbLine
 10
8999.187071904383
 20
1445.812225452157
 30
0.0
 11
9761.187071904384
 21
1445.812225450747
 31
0.0
  0
LINE
  5
2BD5
330
2
100
AcDbEntity
  8
OUTLINE
100
AcDbLine
 10
9766.18707190439
 20
1447.746270070177
 30
0.0
 11
9761.187071904384
 21
1445.812225450747
 31
0.0
  0
LINE
  5
2BD6
330
2
100
AcDbEntity
  8
OUTLINE
100
AcDbLine
 10
9766.187071904802
 20
1672.405940941674
 30
0.0
 11
9761.187071904805
 21
1672.404607814711
 31
0.0
  0
LINE
  5
2BD7
330
2
100
AcDbEntity
  8
OUTLINE
100
AcDbLine
 10
9761.187071904805
 20
1672.404607814712
 30
0.0
 11
9761.187071904805
 21
1671.404607850256
 31
0.0
  0
LINE
  5
2BD8
330
2
100
AcDbEntity
  8
OUTLINE
100
AcDbLine
 10
9761.187071904805
 20
1671.404607850256
 30
0.0
 11
9766.187071904802
 21
1671.405940977219
 31
0.0
  0
LINE
  5
2BD9
330
2
100
AcDbEntity
  8
OUTLINE
100
AcDbLine
 10
9766.187071904802
 20
1671.405940977218
 30
0.0
 11
9766.187071904802
 21
1672.405940941673
 31
0.0
  0
LINE
  5
2BDA
330
2
100
AcDbEntity
  8
OUTLINE
100
AcDbLine
 10
8999.187071904804
 20
1671.404607851666
 30
0.0
 11
9761.187071904805
 21
1671.404607850255
 31
0.0
  0
LINE
  5
2BDB
330
2
100
AcDbEntity
  8
OUTLINE
100
AcDbLine
 10
8994.187071904802
 20
1671.405940978647
 30
0.0
 11
8999.187071904804
 21
1671.404607851666
 31
0.0
  0
LINE
  5
2BDC
330
2
100
AcDbEntity
  8
OUTLINE
100
AcDbLine
 10
8999.187071904804
 20
1672.404607816121
 30
0.0
 11
9761.187071904805
 21
1672.404607814711
 31
0.0
  0
LINE
  5
2BDD
330
2
100
AcDbEntity
  8
OUTLINE
100
AcDbLine
 10
8999.187071904804
 20
1671.404607851666
 30
0.0
 11
8999.187071904804
 21
1672.404607816122
 31
0.0
  0
LINE
  5
2BDE
330
2
100
AcDbEntity
  8
OUTLINE
100
AcDbLine
 10
8999.187071904804
 20
1672.404607816121
 30
0.0
 11
8994.187071904804
 21
1672.405940943103
 31
0.0
  0
LINE
  5
2BDF
330
2
100
AcDbEntity
  8
OUTLINE
100
AcDbLine
 10
8994.187071904802
 20
1672.405940943103
 30
0.0
 11
8994.187071904802
 21
1671.405940978648
 31
0.0
  0
LINE
  5
2BE0
330
2
100
AcDbEntity
  8
OUTLINE
100
AcDbLine
 10
9766.18707190439
 20
1447.746270070177
 30
0.0
 11
9766.187071904401
 21
1453.614327550954
 31
0.0
  0
LINE
  5
2BE1
330
2
100
AcDbEntity
  8
OUTLINE
100
AcDbLine
 10
8994.1870719044
 20
1453.614327552383
 30
0.0
 11
9766.187071904401
 21
1453.614327550954
 31
0.0
  0
LINE
  5
2BE2
330
2
100
AcDbEntity
  8
OUTLINE
100
AcDbLine
 10
8994.1870719044
 20
1453.614327552383
 30
0.0
 11
8994.18707190439
 21
1447.746270071606
 31
0.0
  0
LINE
  5
2BE3
330
2
100
AcDbEntity
  8
OUTLINE
100
AcDbLine
 10
9766.187071904401
 20
1453.614327550954
 30
0.0
 11
9766.187071904759
 21
1648.462717835178
 31
0.0
  0
LINE
  5
2BE4
330
2
100
AcDbEntity
  8
OUTLINE
100
AcDbLine
 10
8994.187071904759
 20
1648.462717836607
 30
0.0
 11
9766.187071904759
 21
1648.462717835178
 31
0.0
  0
LINE
  5
2BE5
330
2
100
AcDbEntity
  8
OUTLINE
100
AcDbLine
 10
8994.187071904759
 20
1648.462717836607
 30
0.0
 11
8994.1870719044
 21
1453.614327552383
 31
0.0
  0
LINE
  5
2BE6
330
2
100
AcDbEntity
  8
OUTLINE
100
AcDbLine
 10
9766.187071904759
 20
1648.462717835178
 30
0.0
 11
9766.187071904802
 21
1671.405940977218
 31
0.0
  0
LINE
  5
2BE7
330
2
100
AcDbEntity
  8
OUTLINE
100
AcDbLine
 10
8994.187071904802
 20
1671.405940978647
 30
0.0
 11
8994.187071904759
 21
1648.462717836607
 31
0.0
  0
LINE
  5
2BE8
330
2
100
AcDbEntity
  8
OUTLINE
100
AcDbLine
 10
9766.187071904802
 20
1672.405940941674
 30
0.0
 11
9766.187071904802
 21
1672.407007443251
 31
0.0
  0
LINE
  5
2BE9
330
2
100
AcDbEntity
  8
OUTLINE
100
AcDbLine
 10
8994.187071904802
 20
1672.407007444681
 30
0.0
 11
9766.187071904802
 21
1672.407007443251
 31
0.0
  0
LINE
  5
2BEA
330
2
100
AcDbEntity
  8
OUTLINE
100
AcDbLine
 10
8994.187071904802
 20
1672.407007444681
 30
0.0
 11
8994.187071904802
 21
1672.405940943103
 31
0.0
  0
ELLIPSE
  5
2BEB
330
2
100
AcDbEntity
  8
OUTLINE
100
AcDbEllipse
 10
8175.103980436508
 20
1490.757875430655
 30
0.0
 11
2.000000000002879
 21
-0.0000000000073572
 31
0.0
210
0.0
220
0.0
230
1.0
 40
0.6704266189587994
 41
3.483598248118101
 42
6.002847293924437
  0
ELLIPSE
  5
2BEC
330
2
100
AcDbEntity
  8
OUTLINE
100
AcDbEllipse
 10
8175.187071903868
 20
1604.73040065365
 30
0.0
 11
2.000000000000644
 21
-0.0000000000073572
 31
0.0
210
0.0
220
0.0
230
1.0
 40
0.6704266189587993
 41
3.445480419242278
 42
5.979297541526528
  0
ELLIPSE
  5
2BED
330
2
100
AcDbEntity
  8
OUTLINE
100
AcDbEllipse
 10
8175.187071903863
 20
1603.988424812674
 30
0.0
 11
-2.0
 21
0.0000000000073572
 31
0.0
210
0.0
220
0.0
230
1.0
 40
0.6704266189587993
 41
6.049486592545227
 42
9.658476675403358
  0
ELLIPSE
  5
2BEE
330
2
100
AcDbEntity
  8
OUTLINE
100
AcDbEllipse
 10
8175.103980436508
 20
1490.015899589679
 30
0.0
 11
-2.0
 21
0.0000000000073572
 31
0.0
210
0.0
220
0.0
230
1.0
 40
0.6704266189587993
 41
6.126691072587187
 42
9.731148810616039
  0
ELLIPSE
  5
2BEF
330
2
100
AcDbEntity
  8
OUTLINE
100
AcDbEllipse
 10
8175.384976415971
 20
1236.385715536945
 30
0.0
 11
-2.0
 21
0.0000000000054022
 31
0.0
210
0.0
220
0.0
230
1.0
 40
0.3875155864521035
 41
0.2864916794511653
 42
2.689100429857423
  0
ELLIPSE
  5
2BF0
330
2
100
AcDbEntity
  8
OUTLINE
100
AcDbEllipse
 10
8175.354567140642
 20
1313.888832827366
 30
0.0
 11
-2.0
 21
0.0000000000054022
 31
0.0
210
0.0
220
0.0
230
1.0
 40
0.3875155864521035
 41
0.2983285924616179
 42
2.702679036678115
  0
ELLIPSE
  5
2BF1
330
2
100
AcDbEntity
  8
OUTLINE
100
AcDbEllipse
 10
8175.187071904112
 20
1391.391950117786
 30
0.0
 11
-2.0
 21
0.0000000000054022
 31
0.0
210
0.0
220
0.0
230
1.0
 40
0.3875155864521035
 41
0.3664177307349588
 42
2.775174922854335
  0
LINE
  5
2BF2
330
2
100
AcDbEntity
  8
OUTLINE
100
AcDbLine
 10
8178.18707190389
 20
1672.90700828291
 30
0.0
 11
8178.687072739153
 21
1672.407007447645
 31
0.0
  0
LINE
  5
2BF3
330
2
100
AcDbEntity
  8
OUTLINE
100
AcDbLine
 10
8178.18707190389
 20
1672.90700828291
 30
0.0
 11
8178.187071903892
 21
1673.90700828291
 31
0.0
  0
LINE
  5
2BF4
330
2
100
AcDbEntity
  8
OUTLINE
100
AcDbLine
 10
8178.187071903892
 20
1673.907008282909
 30
0.0
 11
8163.187071903891
 21
1673.907008282936
 31
0.0
  0
LINE
  5
2BF5
330
2
100
AcDbEntity
  8
OUTLINE
100
AcDbLine
 10
8163.187071903891
 20
1673.907008282936
 30
0.0
 11
8163.187071903847
 21
1648.907008282936
 31
0.0
  0
LINE
  5
2BF6
330
2
100
AcDbEntity
  8
OUTLINE
100
AcDbLine
 10
8164.187071904029
 20
1648.907008282935
 30
0.0
 11
8163.187071903847
 21
1648.907008282937
 31
0.0
  0
LINE
  5
2BF7
330
2
100
AcDbEntity
  8
OUTLINE
100
AcDbLine
 10
8164.187071904505
 20
1217.00993621436
 30
0.0
 11
8163.187071904628
 21
1217.009936214362
 31
0.0
  0
LINE
  5
2BF8
330
2
100
AcDbEntity
  8
OUTLINE
100
AcDbLine
 10
8163.187071903847
 20
1648.907008282937
 30
0.0
 11
8163.187071903921
 21
1456.494568641762
 31
0.0
  0
LINE
  5
2BF9
330
2
100
AcDbEntity
  8
OUTLINE
100
AcDbLine
 10
8164.187071903921
 20
1456.49456864176
 30
0.0
 11
8163.187071903918
 21
1456.494568641761
 31
0.0
  0
LINE
  5
2BFA
330
2
100
AcDbEntity
  8
OUTLINE
100
AcDbLine
 10
8163.187071903918
 20
1456.49456864176
 30
0.0
 11
8163.187071904628
 21
1217.009936214361
 31
0.0
  0
ELLIPSE
  5
2BFB
330
2
100
AcDbEntity
  8
OUTLINE
100
AcDbEllipse
 10
8925.187071904115
 20
1391.39195011502
 30
0.0
 11
-2.0
 21
0.0000000000054022
 31
0.0
210
0.0
220
0.0
230
1.0
 40
0.387515586452107
 41
0.3664177294799468
 42
2.775174924109903
  0
ELLIPSE
  5
2BFC
330
2
100
AcDbEntity
  8
OUTLINE
100
AcDbEllipse
 10
8925.187071904344
 20
1313.888832824599
 30
0.0
 11
-2.0
 21
0.0000000000054022
 31
0.0
210
0.0
220
0.0
230
1.0
 40
0.387515586452107
 41
0.3664177294561536
 42
2.77517492408872
  0
ELLIPSE
  5
2BFD
330
2
100
AcDbEntity
  8
OUTLINE
100
AcDbEllipse
 10
8925.187071904572
 20
1236.385715534178
 30
0.0
 11
-2.0
 21
0.0000000000054022
 31
0.0
210
0.0
220
0.0
230
1.0
 40
0.387515586452107
 41
0.3664177294329156
 42
2.775174924066984
  0
ELLIPSE
  5
2BFE
330
2
100
AcDbEntity
  8
OUTLINE
100
AcDbEllipse
 10
8925.187071903863
 20
1603.988424809911
 30
0.0
 11
-2.0
 21
0.0000000000073572
 31
0.0
210
0.0
220
0.0
230
1.0
 40
0.6704266189588021
 41
6.049486592558139
 42
9.65847667539046
  0
ELLIPSE
  5
2BFF
330
2
100
AcDbEntity
  8
OUTLINE
100
AcDbEllipse
 10
8925.187071903907
 20
1490.015899586914
 30
0.0
 11
-2.0
 21
0.0000000000073572
 31
0.0
210
0.0
220
0.0
230
1.0
 40
0.6704266189588021
 41
6.049486592158173
 42
9.658476674948293
  0
ELLIPSE
  5
2C00
330
2
100
AcDbEntity
  8
OUTLINE
100
AcDbEllipse
 10
8925.187071903911
 20
1490.75787542789
 30
0.0
 11
2.0
 21
-0.0000000000073572
 31
0.0
210
0.0
220
0.0
230
1.0
 40
0.6704266189588021
 41
3.445480419049694
 42
5.979297541297841
  0
ELLIPSE
  5
2C01
330
2
100
AcDbEntity
  8
OUTLINE
100
AcDbEllipse
 10
8925.187071903868
 20
1604.730400650887
 30
0.0
 11
2.0
 21
-0.0000000000073572
 31
0.0
210
0.0
220
0.0
230
1.0
 40
0.6704266189588021
 41
3.445480419249265
 42
5.979297541519849
  0
LINE
  5
2C02
330
2
100
AcDbEntity
  8
OUTLINE
100
AcDbLine
 10
8921.687071068628
 20
1672.407007444895
 30
0.0
 11
8922.18707190389
 21
1672.907008280156
 31
0.0
  0
LINE
  5
2C03
330
2
100
AcDbEntity
  8
OUTLINE
100
AcDbLine
 10
8937.187071903847
 20
1648.907008280128
 30
0.0
 11
8936.187071904031
 21
1648.907008280129
 31
0.0
  0
LINE
  5
2C04
330
2
100
AcDbEntity
  8
OUTLINE
100
AcDbLine
 10
8937.187071903892
 20
1673.907008280129
 30
0.0
 11
8937.187071903847
 21
1648.907008280128
 31
0.0
  0
LINE
  5
2C05
330
2
100
AcDbEntity
  8
OUTLINE
100
AcDbLine
 10
8937.187071903892
 20
1673.907008280129
 30
0.0
 11
8922.187071903893
 21
1673.907008280156
 31
0.0
  0
LINE
  5
2C06
330
2
100
AcDbEntity
  8
OUTLINE
100
AcDbLine
 10
8922.187071903893
 20
1673.907008280156
 30
0.0
 11
8922.18707190389
 21
1672.907008280156
 31
0.0
  0
LINE
  5
2C07
330
2
100
AcDbEntity
  8
OUTLINE
100
AcDbLine
 10
8937.187071904627
 20
1217.009936211552
 30
0.0
 11
8936.187071904504
 21
1217.009936211553
 31
0.0
  0
LINE
  5
2C08
330
2
100
AcDbEntity
  8
OUTLINE
100
AcDbLine
 10
8937.187071903922
 20
1456.494568638953
 30
0.0
 11
8937.187071904631
 21
1217.009936211551
 31
0.0
  0
LINE
  5
2C09
330
2
100
AcDbEntity
  8
OUTLINE
100
AcDbLine
 10
8937.187071903922
 20
1456.494568638952
 30
0.0
 11
8936.187071903921
 21
1456.494568638953
 31
0.0
  0
LINE
  5
2C0A
330
2
100
AcDbEntity
  8
OUTLINE
100
AcDbLine
 10
8937.187071903847
 20
1648.907008280128
 30
0.0
 11
8937.187071903922
 21
1456.494568638952
 31
0.0
  0
ELLIPSE
  5
2C0B
330
2
100
AcDbEntity
  8
OUTLINE
100
AcDbEllipse
 10
8925.187071904115
 20
1391.39195011632
 30
0.0
 11
2.5
 21
-0.0000000000067527
 31
0.0
210
0.0
220
0.0
230
1.0
 40
0.3875155864521033
 41
3.637444638582924
 42
5.7873333221862
  0
ELLIPSE
  5
2C0C
330
2
100
AcDbEntity
  8
OUTLINE
100
AcDbEllipse
 10
8925.18707190411
 20
1390.470086964731
 30
0.0
 11
-2.5
 21
0.0000000000067527
 31
0.0
210
0.0
220
0.0
230
1.0
 40
0.3875155864521026
 41
-0.0000000000001516
 42
6.283185307179433
  0
ELLIPSE
  5
2C0D
330
2
100
AcDbEntity
  8
OUTLINE
100
AcDbEllipse
 10
8925.187071904289
 20
1313.8888328259
 30
0.0
 11
2.5
 21
-0.0000000000067527
 31
0.0
210
0.0
220
0.0
230
1.0
 40
0.3875155864521033
 41
3.637444638582881
 42
5.7873333221862
  0
ELLIPSE
  5
2C0E
330
2
100
AcDbEntity
  8
OUTLINE
100
AcDbEllipse
 10
8925.187071904286
 20
1312.966969674311
 30
0.0
 11
-2.5
 21
0.0000000000067527
 31
0.0
210
0.0
220
0.0
230
1.0
 40
0.3875155864521026
 41
-0.0000000000001516
 42
6.283185307179433
  0
ELLIPSE
  5
2C0F
330
2
100
AcDbEntity
  8
OUTLINE
100
AcDbEllipse
 10
8925.187071904463
 20
1236.385715535479
 30
0.0
 11
2.5
 21
-0.0000000000067527
 31
0.0
210
0.0
220
0.0
230
1.0
 40
0.3875155864521033
 41
3.637444638583073
 42
5.787333322186391
  0
ELLIPSE
  5
2C10
330
2
100
AcDbEntity
  8
OUTLINE
100
AcDbEllipse
 10
8925.187071904463
 20
1235.463852383891
 30
0.0
 11
-2.5
 21
0.0000000000067527
 31
0.0
210
0.0
220
0.0
230
1.0
 40
0.3875155864521026
 41
-0.0000000000001516
 42
6.283185307179433
  0
ELLIPSE
  5
2C11
330
2
100
AcDbEntity
  8
OUTLINE
100
AcDbEllipse
 10
8175.187071904112
 20
1391.391950117785
 30
0.0
 11
2.5
 21
-0.0000000000067527
 31
0.0
210
0.0
220
0.0
230
1.0
 40
0.3875155864521033
 41
3.637444638582461
 42
5.787333322186665
  0
ELLIPSE
  5
2C12
330
2
100
AcDbEntity
  8
OUTLINE
100
AcDbEllipse
 10
8175.18707190411
 20
1390.470086966197
 30
0.0
 11
-2.5
 21
0.0000000000067527
 31
0.0
210
0.0
220
0.0
230
1.0
 40
0.3875155864521026
 41
-0.0000000000001516
 42
6.283185307179433
  0
ELLIPSE
  5
2C13
330
2
100
AcDbEntity
  8
OUTLINE
100
AcDbEllipse
 10
8175.187071904289
 20
1313.888832827365
 30
0.0
 11
2.5
 21
-0.0000000000067527
 31
0.0
210
0.0
220
0.0
230
1.0
 40
0.3875155864521033
 41
3.637444638582672
 42
5.787333322186665
  0
ELLIPSE
  5
2C14
330
2
100
AcDbEntity
  8
OUTLINE
100
AcDbEllipse
 10
8175.187071904288
 20
1312.966969675777
 30
0.0
 11
-2.5
 21
0.0000000000067527
 31
0.0
210
0.0
220
0.0
230
1.0
 40
0.3875155864521026
 41
-0.0000000000001516
 42
6.283185307179433
  0
ELLIPSE
  5
2C15
330
2
100
AcDbEntity
  8
OUTLINE
100
AcDbEllipse
 10
8175.187071904465
 20
1236.385715536945
 30
0.0
 11
2.5
 21
-0.0000000000067527
 31
0.0
210
0.0
220
0.0
230
1.0
 40
0.3875155864521033
 41
3.637444638582903
 42
5.787333322186412
  0
ELLIPSE
  5
2C16
330
2
100
AcDbEntity
  8
OUTLINE
100
AcDbEllipse
 10
8175.187071904463
 20
1235.463852385356
 30
0.0
 11
-2.5
 21
0.0000000000067527
 31
0.0
210
0.0
220
0.0
230
1.0
 40
0.3875155864521026
 41
-0.0000000000001516
 42
6.283185307179433
  0
ELLIPSE
  5
2C17
330
2
100
AcDbEntity
  8
OUTLINE
100
AcDbEllipse
 10
8550.187071903975
 20
1450.53500286554
 30
0.0
 11
-2.0
 21
0.0000000000054022
 31
0.0
210
0.0
220
0.0
230
1.0
 40
0.3875155864521026
 41
0.3019971078688178
 42
2.839595543312233
  0
ELLIPSE
  5
2C18
330
2
100
AcDbEntity
  8
OUTLINE
100
AcDbEllipse
 10
8816.187071903973
 20
1450.535002865021
 30
0.0
 11
-2.0
 21
0.0000000000054022
 31
0.0
210
0.0
220
0.0
230
1.0
 40
0.3875155864521026
 41
0.3019971083287202
 42
2.839595542852448
  0
ELLIPSE
  5
2C19
330
2
100
AcDbEntity
  8
OUTLINE
100
AcDbEllipse
 10
8284.187071903975
 20
1450.535002866061
 30
0.0
 11
-2.0
 21
0.0000000000054022
 31
0.0
210
0.0
220
0.0
230
1.0
 40
0.3875155864521026
 41
0.3019971074097516
 42
2.839595543771401
  0
LINE
  5
2C1A
330
2
100
AcDbEntity
  8
OUTLINE
100
AcDbLine
 10
8164.187071904509
 20
1215.70055747632
 30
0.0
 11
8936.187071904507
 21
1215.700557474812
 31
0.0
  0
LINE
  5
2C1B
330
2
100
AcDbEntity
  8
OUTLINE
100
AcDbLine
 10
8936.187071904507
 20
1215.700557474811
 30
0.0
 11
8936.187071903979
 21
1447.746270071766
 31
0.0
  0
LINE
  5
2C1C
330
2
100
AcDbEntity
  8
OUTLINE
100
AcDbLine
 10
8164.187071903981
 20
1447.746270074624
 30
0.0
 11
8164.187071904509
 21
1215.70055747632
 31
0.0
  0
ELLIPSE
  5
2C1D
330
2
100
AcDbEntity
  8
OUTLINE
100
AcDbEllipse
 10
8550.187071903293
 20
1449.680314692634
 30
0.0
 11
-2.5
 21
0.0000000000092547
 31
0.0
210
0.0
220
0.0
230
1.0
 40
0.3868089238877543
 41
0.0000000000000855
 42
6.28318530717967
  0
ELLIPSE
  5
2C1E
330
2
100
AcDbEntity
  8
OUTLINE
100
AcDbEllipse
 10
8925.187071903442
 20
1490.015899586916
 30
0.0
 11
2.5
 21
-0.0000000000092547
 31
0.0
210
0.0
220
0.0
230
1.0
 40
0.6704266189589171
 41
3.364785489424213
 42
6.059992471345244
  0
ELLIPSE
  5
2C1F
330
2
100
AcDbEntity
  8
OUTLINE
100
AcDbEllipse
 10
8925.187071903438
 20
1489.27392374594
 30
0.0
 11
-2.5
 21
0.0000000000092547
 31
0.0
210
0.0
220
0.0
230
1.0
 40
0.6704266189589171
 41
0.0000000000000482
 42
6.283185307179633
  0
ELLIPSE
  5
2C20
330
2
100
AcDbEntity
  8
OUTLINE
100
AcDbEllipse
 10
8925.187071903863
 20
1603.988424809931
 30
0.0
 11
2.5
 21
-0.0000000000092547
 31
0.0
210
0.0
220
0.0
230
1.0
 40
0.6704266189589171
 41
3.364785489424213
 42
6.059992471345244
  0
ELLIPSE
  5
2C21
330
2
100
AcDbEntity
  8
OUTLINE
100
AcDbEllipse
 10
8925.187071903858
 20
1603.246448968956
 30
0.0
 11
-2.5
 21
0.0000000000092547
 31
0.0
210
0.0
220
0.0
230
1.0
 40
0.6704266189589171
 41
0.0000000000000482
 42
6.283185307179633
  0
ELLIPSE
  5
2C22
330
2
100
AcDbEntity
  8
OUTLINE
100
AcDbEllipse
 10
8175.187071903442
 20
1490.015899589691
 30
0.0
 11
2.5
 21
-0.0000000000092547
 31
0.0
210
0.0
220
0.0
230
1.0
 40
0.6704266189589171
 41
3.364785489424213
 42
6.059992471345244
  0
ELLIPSE
  5
2C23
330
2
100
AcDbEntity
  8
OUTLINE
100
AcDbEllipse
 10
8175.187071903438
 20
1489.273923748716
 30
0.0
 11
-2.5
 21
0.0000000000092547
 31
0.0
210
0.0
220
0.0
230
1.0
 40
0.6704266189589171
 41
0.0000000000000482
 42
6.283185307179633
  0
ELLIPSE
  5
2C24
330
2
100
AcDbEntity
  8
OUTLINE
100
AcDbEllipse
 10
8175.187071903861
 20
1603.988424812708
 30
0.0
 11
2.5
 21
-0.0000000000092547
 31
0.0
210
0.0
220
0.0
230
1.0
 40
0.6704266189589171
 41
3.364785489424355
 42
6.059992471345102
  0
ELLIPSE
  5
2C25
330
2
100
AcDbEntity
  8
OUTLINE
100
AcDbEllipse
 10
8175.187071903859
 20
1603.246448971732
 30
0.0
 11
-2.5
 21
0.0000000000092547
 31
0.0
210
0.0
220
0.0
230
1.0
 40
0.6704266189589171
 41
0.0000000000000482
 42
6.283185307179633
  0
ELLIPSE
  5
2C26
330
2
100
AcDbEntity
  8
OUTLINE
100
AcDbEllipse
 10
8284.187071903295
 20
1449.680314693619
 30
0.0
 11
-2.5
 21
0.0000000000092547
 31
0.0
210
0.0
220
0.0
230
1.0
 40
0.3868089238877543
 41
0.0000000000000855
 42
6.28318530717967
  0
ELLIPSE
  5
2C27
330
2
100
AcDbEntity
  8
OUTLINE
100
AcDbEllipse
 10
8816.187071903291
 20
1449.680314691649
 30
0.0
 11
-2.5
 21
0.0000000000092547
 31
0.0
210
0.0
220
0.0
230
1.0
 40
0.3868089238877543
 41
0.0000000000000855
 42
6.28318530717967
  0
LINE
  5
2C28
330
2
100
AcDbEntity
  8
OUTLINE
100
AcDbLine
 10
8923.687071903946
 20
1626.33863941117
 30
0.0
 11
8923.687071903954
 21
1628.349919268046
 31
0.0
  0
LINE
  5
2C29
330
2
100
AcDbEntity
  8
OUTLINE
100
AcDbLine
 10
8923.687071903946
 20
1627.080615252143
 30
0.0
 11
8926.687071903947
 21
1627.080615252133
 31
0.0
  0
LINE
  5
2C2A
330
2
100
AcDbEntity
  8
OUTLINE
100
AcDbLine
 10
8926.687071903947
 20
1626.338639411158
 30
0.0
 11
8923.687071903946
 21
1626.338639411169
 31
0.0
  0
LINE
  5
2C2B
330
2
100
AcDbEntity
  8
OUTLINE
100
AcDbLine
 10
8926.687071903954
 20
1628.349919268034
 30
0.0
 11
8926.687071903947
 21
1626.338639411158
 31
0.0
  0
LINE
  5
2C2C
330
2
100
AcDbEntity
  8
OUTLINE
100
AcDbLine
 10
8923.687071903954
 20
1628.349919268046
 30
0.0
 11
8926.687071903954
 21
1628.349919268034
 31
0.0
  0
LINE
  5
2C2D
330
2
100
AcDbEntity
  8
OUTLINE
100
AcDbLine
 10
8173.687071903946
 20
1626.338639413946
 30
0.0
 11
8173.687071903954
 21
1628.349919270823
 31
0.0
  0
LINE
  5
2C2E
330
2
100
AcDbEntity
  8
OUTLINE
100
AcDbLine
 10
8173.687071903948
 20
1627.080615254921
 30
0.0
 11
8176.687071903948
 21
1627.080615254909
 31
0.0
  0
LINE
  5
2C2F
330
2
100
AcDbEntity
  8
OUTLINE
100
AcDbLine
 10
8176.687071903947
 20
1626.338639413934
 30
0.0
 11
8173.687071903946
 21
1626.338639413946
 31
0.0
  0
LINE
  5
2C30
330
2
100
AcDbEntity
  8
OUTLINE
100
AcDbLine
 10
8176.687071903954
 20
1628.349919270811
 30
0.0
 11
8176.687071903947
 21
1626.338639413934
 31
0.0
  0
LINE
  5
2C31
330
2
100
AcDbEntity
  8
OUTLINE
100
AcDbLine
 10
8173.687071903954
 20
1628.349919270823
 30
0.0
 11
8176.687071903954
 21
1628.349919270811
 31
0.0
  0
LINE
  5
2C32
330
2
100
AcDbEntity
  8
OUTLINE
100
AcDbLine
 10
8169.187071903278
 20
1445.812225455167
 30
0.0
 11
8164.187071903283
 21
1447.746270074624
 31
0.0
  0
LINE
  5
2C33
330
2
100
AcDbEntity
  8
OUTLINE
100
AcDbLine
 10
8169.187071903278
 20
1445.812225455167
 30
0.0
 11
8931.187071903279
 21
1445.812225452346
 31
0.0
  0
LINE
  5
2C34
330
2
100
AcDbEntity
  8
OUTLINE
100
AcDbLine
 10
8936.187071903285
 20
1447.746270071767
 30
0.0
 11
8931.187071903279
 21
1445.812225452346
 31
0.0
  0
LINE
  5
2C35
330
2
100
AcDbEntity
  8
OUTLINE
100
AcDbLine
 10
8936.187071904114
 20
1672.405940943264
 30
0.0
 11
8931.187071904115
 21
1672.40460781631
 31
0.0
  0
LINE
  5
2C36
330
2
100
AcDbEntity
  8
OUTLINE
100
AcDbLine
 10
8931.187071904117
 20
1672.40460781631
 30
0.0
 11
8931.187071904115
 21
1671.404607851855
 31
0.0
  0
LINE
  5
2C37
330
2
100
AcDbEntity
  8
OUTLINE
100
AcDbLine
 10
8931.18707190411
 20
1671.404607851854
 30
0.0
 11
8936.187071904111
 21
1671.405940978808
 31
0.0
  0
LINE
  5
2C38
330
2
100
AcDbEntity
  8
OUTLINE
100
AcDbLine
 10
8936.187071904114
 20
1671.405940978808
 30
0.0
 11
8936.187071904118
 21
1672.405940943263
 31
0.0
  0
LINE
  5
2C39
330
2
100
AcDbEntity
  8
OUTLINE
100
AcDbLine
 10
8169.187071904113
 20
1671.404607854675
 30
0.0
 11
8931.187071904115
 21
1671.404607851854
 31
0.0
  0
LINE
  5
2C3A
330
2
100
AcDbEntity
  8
OUTLINE
100
AcDbLine
 10
8164.187071904112
 20
1671.405940981665
 30
0.0
 11
8169.187071904113
 21
1671.404607854675
 31
0.0
  0
LINE
  5
2C3B
330
2
100
AcDbEntity
  8
OUTLINE
100
AcDbLine
 10
8169.187071904117
 20
1672.404607819131
 30
0.0
 11
8931.187071904117
 21
1672.40460781631
 31
0.0
  0
LINE
  5
2C3C
330
2
100
AcDbEntity
  8
OUTLINE
100
AcDbLine
 10
8169.187071904113
 20
1671.404607854675
 30
0.0
 11
8169.187071904117
 21
1672.404607819131
 31
0.0
  0
LINE
  5
2C3D
330
2
100
AcDbEntity
  8
OUTLINE
100
AcDbLine
 10
8169.187071904117
 20
1672.404607819131
 30
0.0
 11
8164.187071904116
 21
1672.405940946121
 31
0.0
  0
LINE
  5
2C3E
330
2
100
AcDbEntity
  8
OUTLINE
100
AcDbLine
 10
8164.187071904116
 20
1672.405940946121
 30
0.0
 11
8164.187071904112
 21
1671.405940981666
 31
0.0
  0
LINE
  5
2C3F
330
2
100
AcDbEntity
  8
OUTLINE
100
AcDbLine
 10
8936.187071903285
 20
1447.746270071767
 30
0.0
 11
8936.187071903304
 21
1453.614327552543
 31
0.0
  0
LINE
  5
2C40
330
2
100
AcDbEntity
  8
OUTLINE
100
AcDbLine
 10
8164.187071903306
 20
1453.614327555401
 30
0.0
 11
8936.187071903304
 21
1453.614327552543
 31
0.0
  0
LINE
  5
2C41
330
2
100
AcDbEntity
  8
OUTLINE
100
AcDbLine
 10
8164.187071903306
 20
1453.614327555401
 30
0.0
 11
8164.187071903283
 21
1447.746270074624
 31
0.0
  0
LINE
  5
2C42
330
2
100
AcDbEntity
  8
OUTLINE
100
AcDbLine
 10
8936.187071903304
 20
1453.614327552543
 30
0.0
 11
8936.187071904027
 21
1648.462717836767
 31
0.0
  0
LINE
  5
2C43
330
2
100
AcDbEntity
  8
OUTLINE
100
AcDbLine
 10
8164.187071904027
 20
1648.462717839625
 30
0.0
 11
8936.187071904027
 21
1648.462717836767
 31
0.0
  0
LINE
  5
2C44
330
2
100
AcDbEntity
  8
OUTLINE
100
AcDbLine
 10
8164.187071904027
 20
1648.462717839625
 30
0.0
 11
8164.187071903306
 21
1453.614327555401
 31
0.0
  0
LINE
  5
2C45
330
2
100
AcDbEntity
  8
OUTLINE
100
AcDbLine
 10
8936.187071904027
 20
1648.462717836767
 30
0.0
 11
8936.187071904114
 21
1671.405940978809
 31
0.0
  0
LINE
  5
2C46
330
2
100
AcDbEntity
  8
OUTLINE
100
AcDbLine
 10
8164.187071904112
 20
1671.405940981665
 30
0.0
 11
8164.187071904029
 21
1648.462717839625
 31
0.0
  0
LINE
  5
2C47
330
2
100
AcDbEntity
  8
OUTLINE
100
AcDbLine
 10
8936.187071904114
 20
1672.405940943264
 30
0.0
 11
8936.187071904114
 21
1672.407007444841
 31
0.0
  0
LINE
  5
2C48
330
2
100
AcDbEntity
  8
OUTLINE
100
AcDbLine
 10
8164.187071904116
 20
1672.407007447699
 30
0.0
 11
8936.187071904118
 21
1672.407007444841
 31
0.0
  0
LINE
  5
2C49
330
2
100
AcDbEntity
  8
OUTLINE
100
AcDbLine
 10
8164.187071904116
 20
1672.407007447699
 30
0.0
 11
8164.187071904116
 21
1672.405940946121
 31
0.0
  0
DIMENSION
  5
2C53
330
2
100
AcDbEntity
  8
SIZE
100
AcDbDimension
  2
*D47
 10
8929.187071903958
 20
1725.49755031942
 30
0.0
 11
8550.187071903959
 21
1745.49755031942
 31
0.0
 70
    32
 71
     5
 42
758.0000000000008
  3
STANDARD
100
AcDbAlignedDimension
 13
8171.187071903956
 23
1683.907008282921
 33
0.0
 14
8929.187071903958
 24
1683.907008281477
 34
0.0
100
AcDbRotatedDimension
1001
ACAD
1000
DSTYLE
1002
{
1070
    40
1040
10.0
1070
    45
1040
0.5
1070
    50
1040
0.7853981633974483
1070
    90
1070
     1
1070
   271
1070
     1
1070
   272
1070
     1
1002
}
  0
DIMENSION
  5
2C60
330
2
100
AcDbEntity
  8
SIZE
100
AcDbDimension
  2
*D48
 10
9001.187071904624
 20
1725.49755031942
 30
0.0
 11
8965.18707190429
 21
1745.49755031942
 31
0.0
 70
    32
 71
     5
 42
72.00000000066575
  3
STANDARD
100
AcDbAlignedDimension
 13
8929.187071903958
 23
1683.907008281477
 33
0.0
 14
9001.187071904624
 24
1683.907008279916
 34
0.0
100
AcDbRotatedDimension
1001
ACAD
1000
DSTYLE
1002
{
1070
   279
1070
     1
1070
    40
1040
10.0
1070
    45
1040
0.5
1070
    50
1040
0.7853981633974483
1070
    90
1070
     1
1070
   271
1070
     1
1070
   272
1070
     1
1002
}
  0
DIMENSION
  5
2C6D
330
2
100
AcDbEntity
  8
SIZE
100
AcDbDimension
  2
*D49
 10
9759.187071904625
 20
1725.49755031942
 30
0.0
 11
9380.187071904623
 21
1745.49755031942
 31
0.0
 70
    32
 71
     5
 42
758.0
  3
STANDARD
100
AcDbAlignedDimension
 13
9001.187071904624
 23
1683.907008279916
 33
0.0
 14
9759.187071904625
 24
1683.907008279916
 34
0.0
100
AcDbRotatedDimension
1001
ACAD
1000
DSTYLE
1002
{
1070
   279
1070
     1
1070
    40
1040
10.0
1070
    45
1040
0.5
1070
    50
1040
0.7853981633974483
1070
    90
1070
     1
1070
   271
1070
     1
1070
   272
1070
     1
1002
}
  0
DIMENSION
  5
2C7A
330
2
100
AcDbEntity
  8
SIZE
100
AcDbDimension
  2
*D50
 10
8163.187071903891
 20
1773.426361763029
 30
0.0
 11
8965.187071904235
 21
1793.426361763029
 31
0.0
 70
    32
 71
     5
 42
1604.000000000685
  3
STANDARD
100
AcDbAlignedDimension
 13
9767.187071904579
 23
1673.907008278541
 33
0.0
 14
8163.187071903891
 24
1673.907008282936
 34
0.0
100
AcDbRotatedDimension
1001
ACAD
1000
DSTYLE
1002
{
1070
    40
1040
10.0
1070
    45
1040
0.5
1070
    50
1040
0.7853981633974483
1070
    90
1070
     1
1070
   271
1070
     1
1070
   272
1070
     1
1002
}
  0
DIMENSION
  5
2C87
330
2
100
AcDbEntity
  8
SIZE
100
AcDbDimension
  2
*D51
 10
8112.579103991135
 20
1215.70055747632
 30
0.0
 11
8092.579103991138
 21
1444.80378287963
 31
0.0
 70
    32
 71
     5
 42
458.2064508066159
  3
STANDARD
100
AcDbAlignedDimension
 13
8163.187071903891
 23
1673.907008282936
 33
0.0
 14
8164.187071904509
 24
1215.70055747632
 34
0.0
 50
90.0
100
AcDbRotatedDimension
1001
ACAD
1000
DSTYLE
1002
{
1070
    40
1040
10.0
1070
    45
1040
0.5
1070
    50
1040
0.7853981633974483
1070
    90
1070
     1
1070
   271
1070
     1
1070
   272
1070
     1
1002
}
  0
ENDSEC
  0
SECTION
  2
OBJECTS
  0
DICTIONARY
  5
A
330
0
100
AcDbDictionary
281
     1
  3
ACAD_2007HEADERVARS_RT
350
2D8E
  3
ACAD_BACKGROUND
350
B1D
  3
ACAD_COLOR
350
4D
  3
ACAD_GROUP
350
3A
  3
ACAD_LAYOUT
350
17
  3
ACAD_MATERIAL
350
C
  3
ACAD_MLEADERSTYLE
350
B16
  3
ACAD_MLINESTYLE
350
3B
  3
ACAD_PLOTSETTINGS
350
3C
  3
ACAD_PLOTSTYLENAME
350
9
  3
ACAD_SCALELIST
350
4E
  3
ACAD_TABLESTYLE
350
4F
  3
ACAD_VISUALSTYLE
350
2D
  3
ACDB_RECOMPOSE_DATA
350
B02
  3
AcDbVariableDictionary
350
B03
  3
AcmDictionary
350
AFC
  3
AMG
350
126D
  3
AMGSNAPSETTINGS
350
1362
  3
DWGPROPS
350
2D8D
  3
MAPISURF_MODULE
350
2D33
  0
DICTIONARY
  5
20
330
1F
100
AcDbDictionary
280
     1
281
     1
  3
ACAD_LAYERFILTERS
360
2C4B
  3
ACAD_LAYERSTATES
360
21
  3
ACLYDICTIONARY
360
2C4A
  0
DICTIONARY
  5
6
330
5
100
AcDbDictionary
280
     1
281
     1
  3
ADSK_XREC_LAYER_RECONCILED
360
7
  0
DICTIONARY
  5
CB7
330
CB6
100
AcDbDictionary
280
     1
281
     1
  0
DICTIONARY
  5
CB9
330
CB8
100
AcDbDictionary
280
     1
281
     1
  0
DICTIONARY
  5
CBD
330
CBC
100
AcDbDictionary
280
     1
281
     1
  0
DICTIONARY
  5
CBF
330
CBE
100
AcDbDictionary
280
     1
281
     1
  0
DICTIONARY
  5
CC1
330
CC0
100
AcDbDictionary
280
     1
281
     1
  0
DICTIONARY
  5
CC3
330
CC2
100
AcDbDictionary
280
     1
281
     1
  0
DICTIONARY
  5
3
330
2
100
AcDbDictionary
280
     1
281
     1
  3
ACAD_INDEX
360
1547
  3
ACAD_SORTENTS
360
B34
  0
DICTIONARY
  5
2D95
330
1605
100
AcDbDictionary
280
     1
281
     1
  3
ACAD_MTEXT_RT
360
2D96
  0
DICTIONARY
  5
2D8E
102
{ACAD_REACTORS
330
A
102
}
330
A
100
AcDbDictionary
281
     1
  3
DIMARCSYM
350
2D90
  3
DIMFXL
350
2D8F
  0
DICTIONARY
  5
B1D
102
{ACAD_REACTORS
330
A
102
}
330
A
100
AcDbDictionary
281
     1
  0
DICTIONARY
  5
4D
102
{ACAD_REACTORS
330
A
102
}
330
A
100
AcDbDictionary
281
     1
  0
DICTIONARY
  5
3A
102
{ACAD_REACTORS
330
A
102
}
330
A
100
AcDbDictionary
281
     1
  0
DICTIONARY
  5
17
102
{ACAD_REACTORS
330
A
102
}
330
A
100
AcDbDictionary
281
     1
  3
Model
350
16
  3
レイアウト1
350
1B
  0
DICTIONARY
  5
C
102
{ACAD_REACTORS
330
A
102
}
330
A
100
AcDbDictionary
281
     1
  3
ByBlock
350
45
  3
ByLayer
350
3D
  3
Global
350
B
  0
DICTIONARY
  5
B16
102
{ACAD_REACTORS
330
A
102
}
330
A
100
AcDbDictionary
281
     1
  3
Standard
350
B17
  0
DICTIONARY
  5
3B
102
{ACAD_REACTORS
330
A
102
}
330
A
100
AcDbDictionary
281
     1
  3
STANDARD
350
53
  0
DICTIONARY
  5
3C
102
{ACAD_REACTORS
330
A
102
}
330
A
100
AcDbDictionary
281
     1
  0
ACDBDICTIONARYWDFLT
  5
9
102
{ACAD_REACTORS
330
A
102
}
330
A
100
AcDbDictionary
281
     1
  3
Normal
350
8
100
AcDbDictionaryWithDefault
340
8
  0
DICTIONARY
  5
4E
102
{ACAD_REACTORS
330
A
102
}
330
A
100
AcDbDictionary
281
     1
  3
*A1
350
CC5
  3
*A2
350
2395
  3
*A3
350
2396
  3
A0
350
57
  3
A1
350
58
  3
A2
350
59
  3
A3
350
5A
  3
A4
350
5B
  3
A5
350
5C
  3
A6
350
5D
  3
A7
350
5E
  3
A8
350
5F
  3
A9
350
60
  3
B0
350
61
  3
B1
350
62
  3
B2
350
63
  3
B3
350
64
  3
B4
350
65
  3
B5
350
66
  3
B6
350
67
  3
B7
350
68
  3
B8
350
69
  3
B9
350
6A
  3
C0
350
6B
  3
C1
350
6C
  3
C2
350
6D
  3
C3
350
6E
  3
C4
350
6F
  3
C5
350
70
  3
C6
350
71
  3
C7
350
72
  3
C8
350
73
  3
C9
350
74
  3
D0
350
75
  3
D1
350
76
  3
D2
350
77
  0
DICTIONARY
  5
4F
102
{ACAD_REACTORS
330
A
102
}
330
A
100
AcDbDictionary
281
     1
  3
Standard
350
54
  0
DICTIONARY
  5
2D
102
{ACAD_REACTORS
330
A
102
}
330
A
100
AcDbDictionary
281
     1
  3
2dWireframe
350
B0D
  3
3D Hidden
350
B0E
  3
3dWireframe
350
56
  3
Basic
350
B0C
  3
Brighten
350
B11
  3
ColorChange
350
B15
  3
Conceptual
350
B0F
  3
Dim
350
B10
  3
Facepattern
350
B14
  3
Flat
350
B09
  3
FlatWithEdges
350
B0A
  3
Gouraud
350
2C
  3
GouraudWithEdges
350
B0B
  3
Linepattern
350
B13
  3
Realistic
350
55
  3
Thicken
350
B12
  0
XRECORD
  5
B02
102
{ACAD_REACTORS
330
A
102
}
330
A
100
AcDbXrecord
280
     1
 90
        1
330
54
  0
DICTIONARY
  5
B03
102
{ACAD_REACTORS
330
A
102
}
330
A
100
AcDbDictionary
281
     1
  3
CANNOSCALE
350
B06
  3
CMLEADERSTYLE
350
B05
  3
CTABLESTYLE
350
B04
  3
DIMASSOC
350
B7B
  3
HIDETEXT
350
B7A
  3
INDEXCTL
350
B79
  3
LIGHTINGUNITS
350
B07
  3
MSLTSCALE
350
B77
  3
SORTENTS
350
B78
  0
DICTIONARY
  5
AFC
102
{ACAD_REACTORS
330
A
102
}
330
A
100
AcDbDictionary
281
     1
  3
AcmStdDictionary
350
1335
  3
AMDTSECTSYM_ARROWCOLOR
350
134C
  0
DICTIONARY
  5
126D
102
{ACAD_REACTORS
330
A
102
}
330
A
100
AcDbDictionary
281
     1
  3
AcMgSettings
350
126E
  0
DICTIONARY
  5
1362
102
{ACAD_REACTORS
330
A
102
}
330
A
100
AcDbDictionary
281
     1
  3
DIMENSION
350
1367
  3
FEA
350
1366
  3
HATCH (1)
350
1363
  3
HATCH (2)
350
1364
  3
SIMPLE WELD
350
1368
  3
SYMBOLS
350
1365
  0
XRECORD
  5
2D8D
102
{ACAD_REACTORS
330
A
102
}
330
A
100
AcDbXrecord
280
     1
  1
DWGPROPS COOKIE
  2

  3

  4

  6

  7

  8
W000135
  9

300
AmdtFileType=84
301
=
302
=
303
=
304
=
305
=
306
=
307
=
308
=
309
=
 40
2.106280358796296
 41
2451324.468257373
 42
2455894.654203518
  1

 90
        1
  0
DICTIONARY
  5
2C4B
102
{ACAD_REACTORS
330
20
102
}
330
20
100
AcDbDictionary
281
     1
  0
DICTIONARY
  5
21
102
{ACAD_REACTORS
330
20
102
}
330
20
100
AcDbDictionary
281
     1
  0
DICTIONARY
  5
2C4A
102
{ACAD_REACTORS
330
20
102
}
330
20
100
AcDbDictionary
281
     1
1001
ACAD
1000
<All
  0
XRECORD
  5
7
102
{ACAD_REACTORS
330
6
102
}
330
6
100
AcDbXrecord
280
     1
290
     1
  0
DICTIONARY
  5
1547
102
{ACAD_REACTORS
330
3
102
}
330
3
100
AcDbDictionary
281
     1
  3
*A1
350
1548
  0
SORTENTSTABLE
  5
B34
102
{ACAD_REACTORS
330
3
102
}
330
3
100
AcDbSortentsTable
330
2
331
B60
  5
B60
  0
XRECORD
  5
2D96
102
{ACAD_REACTORS
330
2D95
102
}
330
2D95
100
AcDbXrecord
280
     1
 40
1940.0
  1
\U+22057
  0
XRECORD
  5
2D90
102
{ACAD_REACTORS
330
2D8E
102
}
330
2D8E
100
AcDbXrecord
280
     1
 70
     1
  0
XRECORD
  5
2D8F
102
{ACAD_REACTORS
330
2D8E
102
}
330
2D8E
100
AcDbXrecord
280
     1
 40
15.0
  0
LAYOUT
  5
16
102
{ACAD_XDICTIONARY
360
2D91
102
}
102
{ACAD_REACTORS
330
17
102
}
330
17
100
AcDbPlotSettings
  1

  2
なし
  4

  6

 40
0.0
 41
0.0
 42
0.0
 43
0.0
 44
0.0
 45
0.0
 46
0.0
 47
0.0
 48
0.0
 49
0.0
140
0.0
141
0.0
142
1.0
143
1.0
 70
  1712
 72
     0
 73
     0
 74
     0
  7

 75
     0
147
1.0
148
0.0
149
0.0
100
AcDbLayout
  1
Model
 70
     1
 71
     0
 10
0.0
 20
0.0
 11
12.0
 21
9.0
 12
0.0
 22
0.0
 32
0.0
 14
0.0
 24
0.0
 34
0.0
 15
0.0
 25
0.0
 35
0.0
146
0.0
 13
0.0
 23
0.0
 33
0.0
 16
1.0
 26
0.0
 36
0.0
 17
0.0
 27
1.0
 37
0.0
 76
     0
330
2
331
C17
  0
LAYOUT
  5
1B
102
{ACAD_XDICTIONARY
360
1C
102
}
102
{ACAD_REACTORS
330
17
102
}
330
17
100
AcDbPlotSettings
  1

  2
Microsoft XPS Document Writer
  4
A4
  6

 40
3.174999952316281
 41
3.174999952316281
 42
3.175003051757812
 43
3.17498779296875
 44
210.0156707763672
 45
297.0106506347656
 46
0.0
 47
0.0
 48
0.0
 49
0.0
140
0.0
141
0.0
142
1.0
143
1.0
 70
   688
 72
     1
 73
     1
 74
     5
  7

 75
    16
147
1.0
148
0.0
149
0.0
100
AcDbLayout
  1
レイアウト1
 70
     1
 71
     1
 10
0.0
 20
0.0
 11
12.0
 21
9.0
 12
0.0
 22
0.0
 32
0.0
 14
-1439.804583653114
 24
-1400.237631316938
 34
0.0
 15
2872.968780515991
 25
1675.790811506817
 35
0.0
146
0.0
 13
0.0
 23
0.0
 33
0.0
 16
1.0
 26
0.0
 36
0.0
 17
0.0
 27
1.0
 37
0.0
 76
     0
330
18
1001
ACAD_PSEXT
1000
Microsoft XPS Document Writer
1000
Microsoft XPS Document Writer
1000
XPSPort:
1000

1070
     0
  0
MATERIAL
  5
45
102
{ACAD_XDICTIONARY
360
46
102
}
102
{ACAD_REACTORS
330
C
102
}
330
C
100
AcDbMaterial
  1
ByBlock
 72
     0
 43
0.0208333333333333
 43
0.0
 43
0.0
 43
0.0
 43
0.0
 43
0.0208333333333333
 43
0.0
 43
0.0
 43
0.0
 43
0.0
 43
1.0
 43
0.0
 43
0.0
 43
0.0
 43
0.0
 43
1.0
 77
     0
 47
0.0208333333333333
 47
0.0
 47
0.0
 47
0.0
 47
0.0
 47
0.0208333333333333
 47
0.0
 47
0.0
 47
0.0
 47
0.0
 47
1.0
 47
0.0
 47
0.0
 47
0.0
 47
0.0
 47
1.0
171
     0
 49
0.0208333333333333
 49
0.0
 49
0.0
 49
0.0
 49
0.0
 49
0.0208333333333333
 49
0.0
 49
0.0
 49
0.0
 49
0.0
 49
1.0
 49
0.0
 49
0.0
 49
0.0
 49
0.0
 49
1.0
175
     0
142
0.0208333333333333
142
0.0
142
0.0
142
0.0
142
0.0
142
0.0208333333333333
142
0.0
142
0.0
142
0.0
142
0.0
142
1.0
142
0.0
142
0.0
142
0.0
142
0.0
142
1.0
179
     0
144
0.0208333333333333
144
0.0
144
0.0
144
0.0
144
0.0
144
0.0208333333333333
144
0.0
144
0.0
144
0.0
144
0.0
144
1.0
144
0.0
144
0.0
144
0.0
144
0.0
144
1.0
147
0.0208333333333333
147
0.0
147
0.0
147
0.0
147
0.0
147
0.0208333333333333
147
0.0
147
0.0
147
0.0
147
0.0
147
1.0
147
0.0
147
0.0
147
0.0
147
0.0
147
1.0
  0
MATERIAL
  5
3D
102
{ACAD_XDICTIONARY
360
3E
102
}
102
{ACAD_REACTORS
330
C
102
}
330
C
100
AcDbMaterial
  1
ByLayer
 72
     0
 43
0.0208333333333333
 43
0.0
 43
0.0
 43
0.0
 43
0.0
 43
0.0208333333333333
 43
0.0
 43
0.0
 43
0.0
 43
0.0
 43
1.0
 43
0.0
 43
0.0
 43
0.0
 43
0.0
 43
1.0
 77
     0
 47
0.0208333333333333
 47
0.0
 47
0.0
 47
0.0
 47
0.0
 47
0.0208333333333333
 47
0.0
 47
0.0
 47
0.0
 47
0.0
 47
1.0
 47
0.0
 47
0.0
 47
0.0
 47
0.0
 47
1.0
171
     0
 49
0.0208333333333333
 49
0.0
 49
0.0
 49
0.0
 49
0.0
 49
0.0208333333333333
 49
0.0
 49
0.0
 49
0.0
 49
0.0
 49
1.0
 49
0.0
 49
0.0
 49
0.0
 49
0.0
 49
1.0
175
     0
142
0.0208333333333333
142
0.0
142
0.0
142
0.0
142
0.0
142
0.0208333333333333
142
0.0
142
0.0
142
0.0
142
0.0
142
1.0
142
0.0
142
0.0
142
0.0
142
0.0
142
1.0
179
     0
144
0.0208333333333333
144
0.0
144
0.0
144
0.0
144
0.0
144
0.0208333333333333
144
0.0
144
0.0
144
0.0
144
0.0
144
1.0
144
0.0
144
0.0
144
0.0
144
0.0
144
1.0
147
0.0208333333333333
147
0.0
147
0.0
147
0.0
147
0.0
147
0.0208333333333333
147
0.0
147
0.0
147
0.0
147
0.0
147
1.0
147
0.0
147
0.0
147
0.0
147
0.0
147
1.0
  0
MATERIAL
  5
B
102
{ACAD_XDICTIONARY
360
D
102
}
102
{ACAD_REACTORS
330
C
102
}
330
C
100
AcDbMaterial
  1
Global
 72
     0
 43
0.0208333333333333
 43
0.0
 43
0.0
 43
0.0
 43
0.0
 43
0.0208333333333333
 43
0.0
 43
0.0
 43
0.0
 43
0.0
 43
1.0
 43
0.0
 43
0.0
 43
0.0
 43
0.0
 43
1.0
 77
     0
 47
0.0208333333333333
 47
0.0
 47
0.0
 47
0.0
 47
0.0
 47
0.0208333333333333
 47
0.0
 47
0.0
 47
0.0
 47
0.0
 47
1.0
 47
0.0
 47
0.0
 47
0.0
 47
0.0
 47
1.0
171
     0
 49
0.0208333333333333
 49
0.0
 49
0.0
 49
0.0
 49
0.0
 49
0.0208333333333333
 49
0.0
 49
0.0
 49
0.0
 49
0.0
 49
1.0
 49
0.0
 49
0.0
 49
0.0
 49
0.0
 49
1.0
175
     0
142
0.0208333333333333
142
0.0
142
0.0
142
0.0
142
0.0
142
0.0208333333333333
142
0.0
142
0.0
142
0.0
142
0.0
142
1.0
142
0.0
142
0.0
142
0.0
142
0.0
142
1.0
179
     0
144
0.0208333333333333
144
0.0
144
0.0
144
0.0
144
0.0
144
0.0208333333333333
144
0.0
144
0.0
144
0.0
144
0.0
144
1.0
144
0.0
144
0.0
144
0.0
144
0.0
144
1.0
147
0.0208333333333333
147
0.0
147
0.0
147
0.0
147
0.0
147
0.0208333333333333
147
0.0
147
0.0
147
0.0
147
0.0
147
1.0
147
0.0
147
0.0
147
0.0
147
0.0
147
1.0
  0
MLEADERSTYLE
  5
B17
102
{ACAD_REACTORS
330
B16
330
2172
102
}
330
B16
100
AcDbMLeaderStyle
170
     2
171
     1
172
     0
 90
        2
 40
0.0
 41
0.0
173
     1
 91
-1056964608
340
26
 92
       -2
290
     1
 42
2.0
291
     1
 43
0.36
  3
Standard
 44
4.0
300

342
23
174
     1
178
     6
175
     1
176
     0
 93
-1056964608
 45
4.0
292
     0
297
     0
 46
4.0
 94
-1056964608
 47
1.0
 49
1.0
140
1.0
293
     1
141
0.0
294
     1
177
     0
142
1.0
295
     0
296
     0
143
0.125
1001
ACAD_MLEADERVER
1070
     2
  0
MLINESTYLE
  5
53
102
{ACAD_REACTORS
330
3B
102
}
330
3B
100
AcDbMlineStyle
  2
STANDARD
 70
     0
  3

 62
   256
 51
90.0
 52
90.0
 71
     2
 49
0.5
 62
   256
  6
BYLAYER
 49
-0.5
 62
   256
  6
BYLAYER
  0
ACDBPLACEHOLDER
  5
8
102
{ACAD_REACTORS
330
9
102
}
330
9
  0
SCALE
  5
CC5
102
{ACAD_REACTORS
330
4E
102
}
330
4E
100
AcDbScale
 70
     0
300
1:5_XREF
140
1.0
141
5.0
290
     0
  0
SCALE
  5
2395
102
{ACAD_REACTORS
330
4E
102
}
330
4E
100
AcDbScale
 70
     0
300
1:5_XREF_XREF
140
1.0
141
5.0
290
     0
  0
SCALE
  5
2396
102
{ACAD_REACTORS
330
4E
102
}
330
4E
100
AcDbScale
 70
     0
300
1:5_XREF_XREF_XREF_XREF
140
1.0
141
5.0
290
     0
  0
SCALE
  5
57
102
{ACAD_REACTORS
330
4E
102
}
330
4E
100
AcDbScale
 70
     0
300
1:1
140
1.0
141
1.0
290
     1
  0
SCALE
  5
58
102
{ACAD_REACTORS
330
4E
102
}
330
4E
100
AcDbScale
 70
     0
300
1:2
140
1.0
141
2.0
290
     0
  0
SCALE
  5
59
102
{ACAD_REACTORS
330
4E
102
}
330
4E
100
AcDbScale
 70
     0
300
1:4
140
1.0
141
4.0
290
     0
  0
SCALE
  5
5A
102
{ACAD_REACTORS
330
4E
102
}
330
4E
100
AcDbScale
 70
     0
300
1:5
140
1.0
141
5.0
290
     0
  0
SCALE
  5
5B
102
{ACAD_REACTORS
330
4E
102
}
330
4E
100
AcDbScale
 70
     0
300
1:8
140
1.0
141
8.0
290
     0
  0
SCALE
  5
5C
102
{ACAD_REACTORS
330
4E
102
}
330
4E
100
AcDbScale
 70
     0
300
1:10
140
1.0
141
10.0
290
     0
  0
SCALE
  5
5D
102
{ACAD_REACTORS
330
4E
102
}
330
4E
100
AcDbScale
 70
     0
300
1:16
140
1.0
141
16.0
290
     0
  0
SCALE
  5
5E
102
{ACAD_REACTORS
330
4E
102
}
330
4E
100
AcDbScale
 70
     0
300
1:20
140
1.0
141
20.0
290
     0
  0
SCALE
  5
5F
102
{ACAD_REACTORS
330
4E
102
}
330
4E
100
AcDbScale
 70
     0
300
1:30
140
1.0
141
30.0
290
     0
  0
SCALE
  5
60
102
{ACAD_REACTORS
330
4E
102
}
330
4E
100
AcDbScale
 70
     0
300
1:40
140
1.0
141
40.0
290
     0
  0
SCALE
  5
61
102
{ACAD_REACTORS
330
4E
102
}
330
4E
100
AcDbScale
 70
     0
300
1:50
140
1.0
141
50.0
290
     0
  0
SCALE
  5
62
102
{ACAD_REACTORS
330
4E
102
}
330
4E
100
AcDbScale
 70
     0
300
1:100
140
1.0
141
100.0
290
     0
  0
SCALE
  5
63
102
{ACAD_REACTORS
330
4E
102
}
330
4E
100
AcDbScale
 70
     0
300
2:1
140
2.0
141
1.0
290
     0
  0
SCALE
  5
64
102
{ACAD_REACTORS
330
4E
102
}
330
4E
100
AcDbScale
 70
     0
300
4:1
140
4.0
141
1.0
290
     0
  0
SCALE
  5
65
102
{ACAD_REACTORS
330
4E
102
}
330
4E
100
AcDbScale
 70
     0
300
8:1
140
8.0
141
1.0
290
     0
  0
SCALE
  5
66
102
{ACAD_REACTORS
330
4E
102
}
330
4E
100
AcDbScale
 70
     0
300
10:1
140
10.0
141
1.0
290
     0
  0
SCALE
  5
67
102
{ACAD_REACTORS
330
4E
102
}
330
4E
100
AcDbScale
 70
     0
300
100:1
140
100.0
141
1.0
290
     0
  0
SCALE
  5
68
102
{ACAD_REACTORS
330
4E
102
}
330
4E
100
AcDbScale
 70
     0
300
1/128" = 1'-0"
140
0.0078125
141
12.0
290
     0
  0
SCALE
  5
69
102
{ACAD_REACTORS
330
4E
102
}
330
4E
100
AcDbScale
 70
     0
300
1/64" = 1'-0"
140
0.015625
141
12.0
290
     0
  0
SCALE
  5
6A
102
{ACAD_REACTORS
330
4E
102
}
330
4E
100
AcDbScale
 70
     0
300
1/32" = 1'-0"
140
0.03125
141
12.0
290
     0
  0
SCALE
  5
6B
102
{ACAD_REACTORS
330
4E
102
}
330
4E
100
AcDbScale
 70
     0
300
1/16" = 1'-0"
140
0.0625
141
12.0
290
     0
  0
SCALE
  5
6C
102
{ACAD_REACTORS
330
4E
102
}
330
4E
100
AcDbScale
 70
     0
300
3/32" = 1'-0"
140
0.09375
141
12.0
290
     0
  0
SCALE
  5
6D
102
{ACAD_REACTORS
330
4E
102
}
330
4E
100
AcDbScale
 70
     0
300
1/8" = 1'-0"
140
0.125
141
12.0
290
     0
  0
SCALE
  5
6E
102
{ACAD_REACTORS
330
4E
102
}
330
4E
100
AcDbScale
 70
     0
300
3/16" = 1'-0"
140
0.1875
141
12.0
290
     0
  0
SCALE
  5
6F
102
{ACAD_REACTORS
330
4E
102
}
330
4E
100
AcDbScale
 70
     0
300
1/4" = 1'-0"
140
0.25
141
12.0
290
     0
  0
SCALE
  5
70
102
{ACAD_REACTORS
330
4E
102
}
330
4E
100
AcDbScale
 70
     0
300
3/8" = 1'-0"
140
0.375
141
12.0
290
     0
  0
SCALE
  5
71
102
{ACAD_REACTORS
330
4E
102
}
330
4E
100
AcDbScale
 70
     0
300
1/2" = 1'-0"
140
0.5
141
12.0
290
     0
  0
SCALE
  5
72
102
{ACAD_REACTORS
330
4E
102
}
330
4E
100
AcDbScale
 70
     0
300
3/4" = 1'-0"
140
0.75
141
12.0
290
     0
  0
SCALE
  5
73
102
{ACAD_REACTORS
330
4E
102
}
330
4E
100
AcDbScale
 70
     0
300
1" = 1'-0"
140
1.0
141
12.0
290
     0
  0
SCALE
  5
74
102
{ACAD_REACTORS
330
4E
102
}
330
4E
100
AcDbScale
 70
     0
300
1-1/2" = 1'-0"
140
1.5
141
12.0
290
     0
  0
SCALE
  5
75
102
{ACAD_REACTORS
330
4E
102
}
330
4E
100
AcDbScale
 70
     0
300
3" = 1'-0"
140
3.0
141
12.0
290
     0
  0
SCALE
  5
76
102
{ACAD_REACTORS
330
4E
102
}
330
4E
100
AcDbScale
 70
     0
300
6" = 1'-0"
140
6.0
141
12.0
290
     0
  0
SCALE
  5
77
102
{ACAD_REACTORS
330
4E
102
}
330
4E
100
AcDbScale
 70
     0
300
1'-0" = 1'-0"
140
12.0
141
12.0
290
     0
  0
TABLESTYLE
  5
54
102
{ACAD_XDICTIONARY
360
B00
102
}
102
{ACAD_REACTORS
330
4F
102
}
330
4F
100
AcDbTableStyle
  3
Standard
 70
     0
 71
     0
 40
1.5
 41
1.5
280
     0
281
     0
  7
STANDARD
140
4.5
170
     2
 62
     0
 63
     7
283
     0
274
    -2
284
     1
 64
     0
275
    -2
285
     1
 65
     0
276
    -2
286
     1
 66
     0
277
    -2
287
     1
 67
     0
278
    -2
288
     1
 68
     0
279
    -2
289
     1
 69
     0
  7
STANDARD
140
6.0
170
     5
 62
     0
 63
     7
283
     0
274
    -2
284
     1
 64
     0
275
    -2
285
     1
 65
     0
276
    -2
286
     1
 66
     0
277
    -2
287
     1
 67
     0
278
    -2
288
     1
 68
     0
279
    -2
289
     1
 69
     0
  7
STANDARD
140
4.5
170
     5
 62
     0
 63
     7
283
     0
274
    -2
284
     1
 64
     0
275
    -2
285
     1
 65
     0
276
    -2
286
     1
 66
     0
277
    -2
287
     1
 67
     0
278
    -2
288
     1
 68
     0
279
    -2
289
     1
 69
     0
  0
VISUALSTYLE
  5
B0D
102
{ACAD_REACTORS
330
2D
102
}
330
2D
100
AcDbVisualStyle
  2
2dWireframe
 70
     4
 71
     0
 72
     2
 73
     0
 90
        0
 40
-0.6
 41
-30.0
 62
     5
 63
     7
 74
     1
 91
        4
 64
     7
 65
   257
 75
     1
175
     1
 42
1.0
 92
        0
 66
   257
 43
1.0
 76
     1
 77
     6
 78
     2
 67
     7
 79
     5
170
     0
171
     0
290
     0
174
     0
 93
        1
 44
0.0
173
     0
291
     0
 45
0.0
1001
ACAD
1000
AcDbSavedByObjectVersion
1070
     0
1000
AcDbSavedByObjectVersion
1070
     0
1000
AcDbSavedByObjectVersion
1070
     0
1000
AcDbSavedByObjectVersion
1070
     0
1000
AcDbSavedByObjectVersion
1070
     0
1000
AcDbSavedByObjectVersion
1070
     0
1000
AcDbSavedByObjectVersion
1070
     0
1000
AcDbSavedByObjectVersion
1070
     0
1000
AcDbSavedByObjectVersion
1070
     0
1000
AcDbSavedByObjectVersion
1070
     0
1000
AcDbSavedByObjectVersion
1070
     0
1000
AcDbSavedByObjectVersion
1070
     0
1000
AcDbSavedByObjectVersion
1070
     0
1000
AcDbSavedByObjectVersion
1070
     0
1000
AcDbSavedByObjectVersion
1070
     0
1000
AcDbSavedByObjectVersion
1070
     0
1000
AcDbSavedByObjectVersion
1070
     0
  0
VISUALSTYLE
  5
B0E
102
{ACAD_REACTORS
330
2D
102
}
330
2D
100
AcDbVisualStyle
  2
3D Hidden
 70
     6
 71
     1
 72
     2
 73
     2
 90
        0
 40
-0.6
 41
-30.0
 62
     5
 63
     7
 74
     2
 91
        2
 64
     7
 65
   257
 75
     2
175
     1
 42
40.0
 92
        0
 66
   257
 43
1.0
 76
     1
 77
     6
 78
     2
 67
     7
 79
     3
170
     0
171
     0
290
     0
174
     0
 93
        1
 44
0.0
173
     0
291
     0
 45
0.0
1001
ACAD
1000
AcDbSavedByObjectVersion
1070
     0
1000
AcDbSavedByObjectVersion
1070
     0
1000
AcDbSavedByObjectVersion
1070
     0
1000
AcDbSavedByObjectVersion
1070
     0
1000
AcDbSavedByObjectVersion
1070
     0
1000
AcDbSavedByObjectVersion
1070
     0
1000
AcDbSavedByObjectVersion
1070
     0
1000
AcDbSavedByObjectVersion
1070
     0
1000
AcDbSavedByObjectVersion
1070
     0
1000
AcDbSavedByObjectVersion
1070
     0
1000
AcDbSavedByObjectVersion
1070
     0
1000
AcDbSavedByObjectVersion
1070
     0
1000
AcDbSavedByObjectVersion
1070
     0
1000
AcDbSavedByObjectVersion
1070
     0
1000
AcDbSavedByObjectVersion
1070
     0
1000
AcDbSavedByObjectVersion
1070
     0
1000
AcDbSavedByObjectVersion
1070
     0
  0
VISUALSTYLE
  5
56
102
{ACAD_REACTORS
330
2D
102
}
330
2D
100
AcDbVisualStyle
  2
3dWireframe
 70
     5
 71
     0
 72
     2
 73
     0
 90
        0
 40
-0.6
 41
-30.0
 62
     5
 63
     7
 74
     1
 91
        4
 64
     7
 65
   257
 75
     1
175
     1
 42
1.0
 92
        0
 66
   257
 43
1.0
 76
     1
 77
     6
 78
     2
 67
     7
 79
     5
170
     0
171
     0
290
     0
174
     0
 93
        1
 44
0.0
173
     0
291
     0
 45
0.0
1001
ACAD
1000
AcDbSavedByObjectVersion
1070
     0
1000
AcDbSavedByObjectVersion
1070
     0
1000
AcDbSavedByObjectVersion
1070
     0
1000
AcDbSavedByObjectVersion
1070
     0
1000
AcDbSavedByObjectVersion
1070
     0
1000
AcDbSavedByObjectVersion
1070
     0
1000
AcDbSavedByObjectVersion
1070
     0
1000
AcDbSavedByObjectVersion
1070
     0
1000
AcDbSavedByObjectVersion
1070
     0
1000
AcDbSavedByObjectVersion
1070
     0
1000
AcDbSavedByObjectVersion
1070
     0
1000
AcDbSavedByObjectVersion
1070
     0
1000
AcDbSavedByObjectVersion
1070
     0
1000
AcDbSavedByObjectVersion
1070
     0
1000
AcDbSavedByObjectVersion
1070
     0
1000
AcDbSavedByObjectVersion
1070
     0
1000
AcDbSavedByObjectVersion
1070
     0
  0
VISUALSTYLE
  5
B0C
102
{ACAD_REACTORS
330
2D
102
}
330
2D
100
AcDbVisualStyle
  2
Basic
 70
     7
 71
     1
 72
     0
 73
     1
 90
        0
 40
-0.6
 41
-30.0
 62
     5
 63
     7
 74
     0
 91
        4
 64
     7
 65
   257
 75
     1
175
     1
 42
1.0
 92
        8
 66
     7
 43
1.0
 76
     1
 77
     6
 78
     2
 67
     7
 79
     5
170
     0
171
     0
290
     0
174
     0
 93
        1
 44
0.0
173
     0
291
     1
 45
0.0
1001
ACAD
1000
AcDbSavedByObjectVersion
1070
     0
1000
AcDbSavedByObjectVersion
1070
     0
1000
AcDbSavedByObjectVersion
1070
     0
1000
AcDbSavedByObjectVersion
1070
     0
1000
AcDbSavedByObjectVersion
1070
     0
1000
AcDbSavedByObjectVersion
1070
     0
1000
AcDbSavedByObjectVersion
1070
     0
1000
AcDbSavedByObjectVersion
1070
     0
1000
AcDbSavedByObjectVersion
1070
     0
1000
AcDbSavedByObjectVersion
1070
     0
1000
AcDbSavedByObjectVersion
1070
     0
1000
AcDbSavedByObjectVersion
1070
     0
1000
AcDbSavedByObjectVersion
1070
     0
1000
AcDbSavedByObjectVersion
1070
     0
1000
AcDbSavedByObjectVersion
1070
     0
1000
AcDbSavedByObjectVersion
1070
     0
1000
AcDbSavedByObjectVersion
1070
     0
  0
VISUALSTYLE
  5
B11
102
{ACAD_REACTORS
330
2D
102
}
330
2D
100
AcDbVisualStyle
  2
Brighten
 70
    12
 71
     2
 72
     2
 73
     0
 90
        0
 40
-0.6
 41
-30.0
 62
     5
 63
     7
 74
     1
 91
        4
 64
     7
 65
   257
 75
     1
175
     1
 42
1.0
 92
        8
 66
     7
 43
1.0
 76
     1
 77
     6
 78
     2
 67
     7
 79
     5
170
     0
171
     0
290
     0
174
     0
 93
        1
 44
50.0
173
     0
291
     1
 45
0.0
1001
ACAD
1000
AcDbSavedByObjectVersion
1070
     0
1000
AcDbSavedByObjectVersion
1070
     0
1000
AcDbSavedByObjectVersion
1070
     0
1000
AcDbSavedByObjectVersion
1070
     0
1000
AcDbSavedByObjectVersion
1070
     0
1000
AcDbSavedByObjectVersion
1070
     0
1000
AcDbSavedByObjectVersion
1070
     0
1000
AcDbSavedByObjectVersion
1070
     0
1000
AcDbSavedByObjectVersion
1070
     0
1000
AcDbSavedByObjectVersion
1070
     0
1000
AcDbSavedByObjectVersion
1070
     0
1000
AcDbSavedByObjectVersion
1070
     0
1000
AcDbSavedByObjectVersion
1070
     0
1000
AcDbSavedByObjectVersion
1070
     0
1000
AcDbSavedByObjectVersion
1070
     0
1000
AcDbSavedByObjectVersion
1070
     0
1000
AcDbSavedByObjectVersion
1070
     0
  0
VISUALSTYLE
  5
B15
102
{ACAD_REACTORS
330
2D
102
}
330
2D
100
AcDbVisualStyle
  2
ColorChange
 70
    16
 71
     2
 72
     2
 73
     3
 90
        0
 40
-0.6
 41
-30.0
 62
     5
 63
     8
 74
     1
 91
        4
 64
     7
 65
   257
 75
     1
175
     1
 42
1.0
 92
        8
 66
     8
 43
1.0
 76
     1
 77
     6
 78
     2
 67
     7
 79
     5
170
     0
171
     0
290
     0
174
     0
 93
        1
 44
0.0
173
     0
291
     1
 45
0.0
1001
ACAD
1000
AcDbSavedByObjectVersion
1070
     0
1000
AcDbSavedByObjectVersion
1070
     0
1000
AcDbSavedByObjectVersion
1070
     0
1000
AcDbSavedByObjectVersion
1070
     0
1000
AcDbSavedByObjectVersion
1070
     0
1000
AcDbSavedByObjectVersion
1070
     0
1000
AcDbSavedByObjectVersion
1070
     0
1000
AcDbSavedByObjectVersion
1070
     0
1000
AcDbSavedByObjectVersion
1070
     0
1000
AcDbSavedByObjectVersion
1070
     0
1000
AcDbSavedByObjectVersion
1070
     0
1000
AcDbSavedByObjectVersion
1070
     0
1000
AcDbSavedByObjectVersion
1070
     0
1000
AcDbSavedByObjectVersion
1070
     0
1000
AcDbSavedByObjectVersion
1070
     0
1000
AcDbSavedByObjectVersion
1070
     0
1000
AcDbSavedByObjectVersion
1070
     0
  0
VISUALSTYLE
  5
B0F
102
{ACAD_REACTORS
330
2D
102
}
330
2D
100
AcDbVisualStyle
  2
Conceptual
 70
     9
 71
     3
 72
     2
 73
     0
 90
        0
 40
-0.6
 41
-30.0
 62
     5
 63
     7
 74
     2
 91
        2
 64
     7
 65
   257
 75
     1
175
     1
 42
40.0
 92
        8
 66
     7
 43
1.0
 76
     1
 77
     6
 78
     2
 67
     7
 79
     3
170
     0
171
     0
290
     0
174
     0
 93
        1
 44
0.0
173
     0
291
     0
 45
0.0
1001
ACAD
1000
AcDbSavedByObjectVersion
1070
     0
1000
AcDbSavedByObjectVersion
1070
     0
1000
AcDbSavedByObjectVersion
1070
     0
1000
AcDbSavedByObjectVersion
1070
     0
1000
AcDbSavedByObjectVersion
1070
     0
1000
AcDbSavedByObjectVersion
1070
     0
1000
AcDbSavedByObjectVersion
1070
     0
1000
AcDbSavedByObjectVersion
1070
     0
1000
AcDbSavedByObjectVersion
1070
     0
1000
AcDbSavedByObjectVersion
1070
     0
1000
AcDbSavedByObjectVersion
1070
     0
1000
AcDbSavedByObjectVersion
1070
     0
1000
AcDbSavedByObjectVersion
1070
     0
1000
AcDbSavedByObjectVersion
1070
     0
1000
AcDbSavedByObjectVersion
1070
     0
1000
AcDbSavedByObjectVersion
1070
     0
1000
AcDbSavedByObjectVersion
1070
     0
  0
VISUALSTYLE
  5
B10
102
{ACAD_REACTORS
330
2D
102
}
330
2D
100
AcDbVisualStyle
  2
Dim
 70
    11
 71
     2
 72
     2
 73
     0
 90
        0
 40
-0.6
 41
-30.0
 62
     5
 63
     7
 74
     1
 91
        4
 64
     7
 65
   257
 75
     1
175
     1
 42
1.0
 92
        8
 66
     7
 43
1.0
 76
     1
 77
     6
 78
     2
 67
     7
 79
     5
170
     0
171
     0
290
     0
174
     0
 93
        1
 44
-50.0
173
     0
291
     1
 45
0.0
1001
ACAD
1000
AcDbSavedByObjectVersion
1070
     0
1000
AcDbSavedByObjectVersion
1070
     0
1000
AcDbSavedByObjectVersion
1070
     0
1000
AcDbSavedByObjectVersion
1070
     0
1000
AcDbSavedByObjectVersion
1070
     0
1000
AcDbSavedByObjectVersion
1070
     0
1000
AcDbSavedByObjectVersion
1070
     0
1000
AcDbSavedByObjectVersion
1070
     0
1000
AcDbSavedByObjectVersion
1070
     0
1000
AcDbSavedByObjectVersion
1070
     0
1000
AcDbSavedByObjectVersion
1070
     0
1000
AcDbSavedByObjectVersion
1070
     0
1000
AcDbSavedByObjectVersion
1070
     0
1000
AcDbSavedByObjectVersion
1070
     0
1000
AcDbSavedByObjectVersion
1070
     0
1000
AcDbSavedByObjectVersion
1070
     0
1000
AcDbSavedByObjectVersion
1070
     0
  0
VISUALSTYLE
  5
B14
102
{ACAD_REACTORS
330
2D
102
}
330
2D
100
AcDbVisualStyle
  2
Facepattern
 70
    15
 71
     2
 72
     2
 73
     0
 90
        0
 40
-0.6
 41
-30.0
 62
     5
 63
     7
 74
     1
 91
        4
 64
     7
 65
   257
 75
     1
175
     1
 42
1.0
 92
        8
 66
     7
 43
1.0
 76
     1
 77
     6
 78
     2
 67
     7
 79
     5
170
     0
171
     0
290
     0
174
     0
 93
        1
 44
0.0
173
     0
291
     1
 45
0.0
1001
ACAD
1000
AcDbSavedByObjectVersion
1070
     0
1000
AcDbSavedByObjectVersion
1070
     0
1000
AcDbSavedByObjectVersion
1070
     0
1000
AcDbSavedByObjectVersion
1070
     0
1000
AcDbSavedByObjectVersion
1070
     0
1000
AcDbSavedByObjectVersion
1070
     0
1000
AcDbSavedByObjectVersion
1070
     0
1000
AcDbSavedByObjectVersion
1070
     0
1000
AcDbSavedByObjectVersion
1070
     0
1000
AcDbSavedByObjectVersion
1070
     0
1000
AcDbSavedByObjectVersion
1070
     0
1000
AcDbSavedByObjectVersion
1070
     0
1000
AcDbSavedByObjectVersion
1070
     0
1000
AcDbSavedByObjectVersion
1070
     0
1000
AcDbSavedByObjectVersion
1070
     0
1000
AcDbSavedByObjectVersion
1070
     0
1000
AcDbSavedByObjectVersion
1070
     0
  0
VISUALSTYLE
  5
B09
102
{ACAD_REACTORS
330
2D
102
}
330
2D
100
AcDbVisualStyle
  2
Flat
 70
     0
 71
     2
 72
     1
 73
     1
 90
        2
 40
-0.6
 41
30.0
 62
     5
 63
     7
 74
     0
 91
        4
 64
     7
 65
   257
 75
     1
175
     1
 42
1.0
 92
        8
 66
     7
 43
1.0
 76
     1
 77
     6
 78
     2
 67
     7
 79
     5
170
     0
171
     0
290
     0
174
     0
 93
       13
 44
0.0
173
     0
291
     1
 45
0.0
1001
ACAD
1000
AcDbSavedByObjectVersion
1070
     0
1000
AcDbSavedByObjectVersion
1070
     0
1000
AcDbSavedByObjectVersion
1070
     0
1000
AcDbSavedByObjectVersion
1070
     0
1000
AcDbSavedByObjectVersion
1070
     0
1000
AcDbSavedByObjectVersion
1070
     0
1000
AcDbSavedByObjectVersion
1070
     0
1000
AcDbSavedByObjectVersion
1070
     0
1000
AcDbSavedByObjectVersion
1070
     0
1000
AcDbSavedByObjectVersion
1070
     0
1000
AcDbSavedByObjectVersion
1070
     0
1000
AcDbSavedByObjectVersion
1070
     0
1000
AcDbSavedByObjectVersion
1070
     0
1000
AcDbSavedByObjectVersion
1070
     0
1000
AcDbSavedByObjectVersion
1070
     0
1000
AcDbSavedByObjectVersion
1070
     0
1000
AcDbSavedByObjectVersion
1070
     0
  0
VISUALSTYLE
  5
B0A
102
{ACAD_REACTORS
330
2D
102
}
330
2D
100
AcDbVisualStyle
  2
FlatWithEdges
 70
     1
 71
     2
 72
     1
 73
     1
 90
        2
 40
-0.6
 41
30.0
 62
     5
 63
     7
 74
     1
 91
        4
 64
     7
 65
   257
 75
     1
175
     1
 42
1.0
 92
        0
 66
   257
 43
1.0
 76
     1
 77
     6
 78
     2
 67
     7
 79
     5
170
     0
171
     0
290
     0
174
     0
 93
       13
 44
0.0
173
     0
291
     1
 45
0.0
1001
ACAD
1000
AcDbSavedByObjectVersion
1070
     0
1000
AcDbSavedByObjectVersion
1070
     0
1000
AcDbSavedByObjectVersion
1070
     0
1000
AcDbSavedByObjectVersion
1070
     0
1000
AcDbSavedByObjectVersion
1070
     0
1000
AcDbSavedByObjectVersion
1070
     0
1000
AcDbSavedByObjectVersion
1070
     0
1000
AcDbSavedByObjectVersion
1070
     0
1000
AcDbSavedByObjectVersion
1070
     0
1000
AcDbSavedByObjectVersion
1070
     0
1000
AcDbSavedByObjectVersion
1070
     0
1000
AcDbSavedByObjectVersion
1070
     0
1000
AcDbSavedByObjectVersion
1070
     0
1000
AcDbSavedByObjectVersion
1070
     0
1000
AcDbSavedByObjectVersion
1070
     0
1000
AcDbSavedByObjectVersion
1070
     0
1000
AcDbSavedByObjectVersion
1070
     0
  0
VISUALSTYLE
  5
2C
102
{ACAD_REACTORS
330
2D
102
}
330
2D
100
AcDbVisualStyle
  2
Gouraud
 70
     2
 71
     2
 72
     2
 73
     1
 90
        2
 40
-0.6
 41
30.0
 62
     5
 63
     7
 74
     0
 91
        4
 64
     7
 65
   257
 75
     1
175
     1
 42
1.0
 92
        0
 66
     7
 43
1.0
 76
     1
 77
     6
 78
     2
 67
     7
 79
     5
170
     0
171
     0
290
     0
174
     0
 93
       13
 44
0.0
173
     0
291
     1
 45
0.0
1001
ACAD
1000
AcDbSavedByObjectVersion
1070
     0
1000
AcDbSavedByObjectVersion
1070
     0
1000
AcDbSavedByObjectVersion
1070
     0
1000
AcDbSavedByObjectVersion
1070
     0
1000
AcDbSavedByObjectVersion
1070
     0
1000
AcDbSavedByObjectVersion
1070
     0
1000
AcDbSavedByObjectVersion
1070
     0
1000
AcDbSavedByObjectVersion
1070
     0
1000
AcDbSavedByObjectVersion
1070
     0
1000
AcDbSavedByObjectVersion
1070
     0
1000
AcDbSavedByObjectVersion
1070
     0
1000
AcDbSavedByObjectVersion
1070
     0
1000
AcDbSavedByObjectVersion
1070
     0
1000
AcDbSavedByObjectVersion
1070
     0
1000
AcDbSavedByObjectVersion
1070
     0
1000
AcDbSavedByObjectVersion
1070
     0
1000
AcDbSavedByObjectVersion
1070
     0
  0
VISUALSTYLE
  5
B0B
102
{ACAD_REACTORS
330
2D
102
}
330
2D
100
AcDbVisualStyle
  2
GouraudWithEdges
 70
     3
 71
     2
 72
     2
 73
     1
 90
        2
 40
-0.6
 41
30.0
 62
     5
 63
     7
 74
     1
 91
        4
 64
     7
 65
   257
 75
     1
175
     1
 42
1.0
 92
        0
 66
   257
 43
1.0
 76
     1
 77
     6
 78
     2
 67
     7
 79
     5
170
     0
171
     0
290
     0
174
     0
 93
       13
 44
0.0
173
     0
291
     1
 45
0.0
1001
ACAD
1000
AcDbSavedByObjectVersion
1070
     0
1000
AcDbSavedByObjectVersion
1070
     0
1000
AcDbSavedByObjectVersion
1070
     0
1000
AcDbSavedByObjectVersion
1070
     0
1000
AcDbSavedByObjectVersion
1070
     0
1000
AcDbSavedByObjectVersion
1070
     0
1000
AcDbSavedByObjectVersion
1070
     0
1000
AcDbSavedByObjectVersion
1070
     0
1000
AcDbSavedByObjectVersion
1070
     0
1000
AcDbSavedByObjectVersion
1070
     0
1000
AcDbSavedByObjectVersion
1070
     0
1000
AcDbSavedByObjectVersion
1070
     0
1000
AcDbSavedByObjectVersion
1070
     0
1000
AcDbSavedByObjectVersion
1070
     0
1000
AcDbSavedByObjectVersion
1070
     0
1000
AcDbSavedByObjectVersion
1070
     0
1000
AcDbSavedByObjectVersion
1070
     0
  0
VISUALSTYLE
  5
B13
102
{ACAD_REACTORS
330
2D
102
}
330
2D
100
AcDbVisualStyle
  2
Linepattern
 70
    14
 71
     2
 72
     2
 73
     0
 90
        0
 40
-0.6
 41
-30.0
 62
     5
 63
     7
 74
     1
 91
        4
 64
     7
 65
   257
 75
     7
175
     7
 42
1.0
 92
        8
 66
     7
 43
1.0
 76
     1
 77
     6
 78
     2
 67
     7
 79
     5
170
     0
171
     0
290
     0
174
     0
 93
        1
 44
0.0
173
     0
291
     1
 45
0.0
1001
ACAD
1000
AcDbSavedByObjectVersion
1070
     0
1000
AcDbSavedByObjectVersion
1070
     0
1000
AcDbSavedByObjectVersion
1070
     0
1000
AcDbSavedByObjectVersion
1070
     0
1000
AcDbSavedByObjectVersion
1070
     0
1000
AcDbSavedByObjectVersion
1070
     0
1000
AcDbSavedByObjectVersion
1070
     0
1000
AcDbSavedByObjectVersion
1070
     0
1000
AcDbSavedByObjectVersion
1070
     0
1000
AcDbSavedByObjectVersion
1070
     0
1000
AcDbSavedByObjectVersion
1070
     0
1000
AcDbSavedByObjectVersion
1070
     0
1000
AcDbSavedByObjectVersion
1070
     0
1000
AcDbSavedByObjectVersion
1070
     0
1000
AcDbSavedByObjectVersion
1070
     0
1000
AcDbSavedByObjectVersion
1070
     0
1000
AcDbSavedByObjectVersion
1070
     0
  0
VISUALSTYLE
  5
55
102
{ACAD_REACTORS
330
2D
102
}
330
2D
100
AcDbVisualStyle
  2
Realistic
 70
     8
 71
     2
 72
     2
 73
     0
 90
        0
 40
-0.6
 41
-30.0
 62
     5
 63
     7
 74
     1
 91
        0
 64
     7
 65
   257
 75
     1
175
     1
 42
1.0
 92
        8
 66
     8
 43
1.0
 76
     1
 77
     6
 78
     2
 67
     7
 79
     5
170
     0
171
     0
290
     0
174
     0
 93
       13
 44
0.0
173
     0
291
     0
 45
0.0
1001
ACAD
1000
AcDbSavedByObjectVersion
1070
     0
1000
AcDbSavedByObjectVersion
1070
     0
1000
AcDbSavedByObjectVersion
1070
     0
1000
AcDbSavedByObjectVersion
1070
     0
1000
AcDbSavedByObjectVersion
1070
     0
1000
AcDbSavedByObjectVersion
1070
     0
1000
AcDbSavedByObjectVersion
1070
     0
1000
AcDbSavedByObjectVersion
1070
     0
1000
AcDbSavedByObjectVersion
1070
     0
1000
AcDbSavedByObjectVersion
1070
     0
1000
AcDbSavedByObjectVersion
1070
     0
1000
AcDbSavedByObjectVersion
1070
     0
1000
AcDbSavedByObjectVersion
1070
     0
1000
AcDbSavedByObjectVersion
1070
     0
1000
AcDbSavedByObjectVersion
1070
     0
1000
AcDbSavedByObjectVersion
1070
     0
1000
AcDbSavedByObjectVersion
1070
     0
  0
VISUALSTYLE
  5
B12
102
{ACAD_REACTORS
330
2D
102
}
330
2D
100
AcDbVisualStyle
  2
Thicken
 70
    13
 71
     2
 72
     2
 73
     0
 90
        0
 40
-0.6
 41
-30.0
 62
     5
 63
     7
 74
     1
 91
        4
 64
     7
 65
   257
 75
     1
175
     1
 42
1.0
 92
       12
 66
     7
 43
1.0
 76
     1
 77
     6
 78
     2
 67
     7
 79
     5
170
     0
171
     0
290
     0
174
     0
 93
        1
 44
0.0
173
     0
291
     1
 45
0.0
1001
ACAD
1000
AcDbSavedByObjectVersion
1070
     0
1000
AcDbSavedByObjectVersion
1070
     0
1000
AcDbSavedByObjectVersion
1070
     0
1000
AcDbSavedByObjectVersion
1070
     0
1000
AcDbSavedByObjectVersion
1070
     0
1000
AcDbSavedByObjectVersion
1070
     0
1000
AcDbSavedByObjectVersion
1070
     0
1000
AcDbSavedByObjectVersion
1070
     0
1000
AcDbSavedByObjectVersion
1070
     0
1000
AcDbSavedByObjectVersion
1070
     0
1000
AcDbSavedByObjectVersion
1070
     0
1000
AcDbSavedByObjectVersion
1070
     0
1000
AcDbSavedByObjectVersion
1070
     0
1000
AcDbSavedByObjectVersion
1070
     0
1000
AcDbSavedByObjectVersion
1070
     0
1000
AcDbSavedByObjectVersion
1070
     0
1000
AcDbSavedByObjectVersion
1070
     0
  0
DICTIONARYVAR
  5
B06
102
{ACAD_REACTORS
330
B03
102
}
330
B03
100
DictionaryVariables
280
     0
  1
1:1
  0
DICTIONARYVAR
  5
B05
102
{ACAD_REACTORS
330
B03
102
}
330
B03
100
DictionaryVariables
280
     0
  1
STANDARD
  0
DICTIONARYVAR
  5
B04
102
{ACAD_REACTORS
330
B03
102
}
330
B03
100
DictionaryVariables
280
     0
  1
STANDARD
  0
DICTIONARYVAR
  5
B7B
102
{ACAD_REACTORS
330
B03
102
}
330
B03
100
DictionaryVariables
280
     0
  1
1
  0
DICTIONARYVAR
  5
B7A
102
{ACAD_REACTORS
330
B03
102
}
330
B03
100
DictionaryVariables
280
     0
  1
1
  0
DICTIONARYVAR
  5
B79
102
{ACAD_REACTORS
330
B03
102
}
330
B03
100
DictionaryVariables
280
     0
  1
1
  0
DICTIONARYVAR
  5
B07
102
{ACAD_REACTORS
330
B03
102
}
330
B03
100
DictionaryVariables
280
     0
  1
0
  0
DICTIONARYVAR
  5
B77
102
{ACAD_REACTORS
330
B03
102
}
330
B03
100
DictionaryVariables
280
     0
  1
1
  0
DICTIONARYVAR
  5
B78
102
{ACAD_REACTORS
330
B03
102
}
330
B03
100
DictionaryVariables
280
     0
  1
127
  0
DICTIONARY
  5
1335
102
{ACAD_REACTORS
330
AFC
102
}
330
AFC
100
AcDbDictionary
281
     1
  0
XRECORD
  5
134C
102
{ACAD_REACTORS
330
AFC
102
}
330
AFC
100
AcDbXrecord
280
     1
 90
-1023410169
  0
DICTIONARY
  5
126E
102
{ACAD_REACTORS
330
126D
102
}
330
126D
100
AcDbDictionary
281
     1
  3
DWGSETTINGS
350
2CB5
  3
TRANSSETTINGS
350
2CB6
  0
ACAMGFILTERDAT
  5
1367
102
{ACAD_REACTORS
330
1362
102
}
330
1362
100
AcAmgFilterDat
 70
    15
  1
DIMENSION,AMDT_*_DIM
  2
*
  3
*
  4
*
  5
*
290
     1
  0
ACAMGFILTERDAT
  5
1366
102
{ACAD_REACTORS
330
1362
102
}
330
1362
100
AcAmgFilterDat
 70
    15
  1
*
  2
AM_FEA-AM_*
  3
*
  4
*
  5
*
290
     1
  0
ACAMGFILTERDAT
  5
1363
102
{ACAD_REACTORS
330
1362
102
}
330
1362
100
AcAmgFilterDat
 70
    15
  1
HATCH
  2
*
  3
*
  4
*
  5
*
290
     1
  0
ACAMGFILTERDAT
  5
1364
102
{ACAD_REACTORS
330
1362
102
}
330
1362
100
AcAmgFilterDat
 70
    15
  1
LINE
  2
8,8N,*-8,*-8N,AM_8,AM_8N,*-AM_8,*-AM_8N
  3
*
  4
*
  5
INSERT,STDPART2D
290
     1
  0
ACAMGFILTERDAT
  5
1368
102
{ACAD_REACTORS
330
1362
102
}
330
1362
100
AcAmgFilterDat
 70
    15
  1
ARC
  2
AM_5
  3
*
  4
2
  5
INSERT
290
     0
  0
ACAMGFILTERDAT
  5
1365
102
{ACAD_REACTORS
330
1362
102
}
330
1362
100
AcAmgFilterDat
 70
    15
  1
ACMFCFRAME,ACMDATUMTARGET,ACMDATUMID,ACMWELDSYM,ACMSURFSYM,ACMFEATID,ACMPARTREF,ACMBALLOON,AMDTEDGESYM,AMGSCREWCALCTABLE
  2
*
  3
*
  4
*
  5
*
290
     1
  0
LAYER_INDEX
  5
1548
102
{ACAD_REACTORS
330
1547
102
}
330
1547
100
AcDbIndex
 40
2455894.654203518
100
AcDbLayerIndex
  8
0
360
1549
 90
        0
  8
Defpoints
360
154A
 90
        0
  8
SIZE
360
154B
 90
        5
  8
OUTLINE
360
154C
 90
      190
  8
BASIS
360
154D
 90
        1
  8
NOTE
360
154E
 90
        5
  8
ARRANGE
360
154F
 90
        3
  8
ETC
360
1550
 90
        1
  0
DICTIONARY
  5
2D91
330
16
100
AcDbDictionary
280
     1
281
     1
  3
ACAD_XREC_ROUNDTRIP
360
2D92
  0
DICTIONARY
  5
1C
330
1B
100
AcDbDictionary
280
     1
281
     1
  3
ACAD_XREC_ROUNDTRIP
360
2D93
  3
ADSK_XREC_LAYOUTTHUMBNAIL
360
1D
  0
DICTIONARY
  5
46
330
45
100
AcDbDictionary
280
     1
281
     1
  3
ACAD_XREC_ROUNDTRIP
360
B71
  3
BUMPTILE
360
47
  3
DIFFUSETILE
360
48
  3
OPACITYTILE
360
49
  3
REFLECTIONTILE
360
4A
  3
REFRACTIONTILE
360
4B
  3
SPECULARTILE
360
4C
  0
DICTIONARY
  5
3E
330
3D
100
AcDbDictionary
280
     1
281
     1
  3
ACAD_XREC_ROUNDTRIP
360
B70
  3
BUMPTILE
360
3F
  3
DIFFUSETILE
360
40
  3
OPACITYTILE
360
41
  3
REFLECTIONTILE
360
42
  3
REFRACTIONTILE
360
43
  3
SPECULARTILE
360
44
  0
DICTIONARY
  5
D
330
B
100
AcDbDictionary
280
     1
281
     1
  3
ACAD_XREC_ROUNDTRIP
360
B69
  3
BUMPTILE
360
E
  3
DIFFUSETILE
360
F
  3
OPACITYTILE
360
10
  3
REFLECTIONTILE
360
11
  3
REFRACTIONTILE
360
12
  3
SPECULARTILE
360
13
  0
DICTIONARY
  5
B00
330
54
100
AcDbDictionary
280
     1
281
     1
  3
ACAD_ROUNDTRIP_2008_TABLESTYLE_CELLSTYLEMAP
360
2D8C
  3
ACAD_XREC_ROUNDTRIP
360
2D94
  0
IDBUFFER
  5
1549
330
0
100
AcDbIdBuffer
  0
IDBUFFER
  5
154A
330
0
100
AcDbIdBuffer
  0
IDBUFFER
  5
154B
330
0
100
AcDbIdBuffer
330
2C53
330
2C60
330
2C6D
330
2C7A
330
2C87
  0
IDBUFFER
  5
154C
330
0
100
AcDbIdBuffer
330
2B8C
330
2B8D
330
2B8E
330
2B8F
330
2B90
330
2B91
330
2B92
330
2B93
330
2B94
330
2B95
330
2B96
330
2B97
330
2B98
330
2B99
330
2B9A
330
2B9B
330
2B9C
330
2B9D
330
2B9E
330
2B9F
330
2BA0
330
2BA1
330
2BA2
330
2BA3
330
2BA4
330
2BA5
330
2BA6
330
2BA7
330
2BA8
330
2BA9
330
2BAA
330
2BAB
330
2BAC
330
2BAD
330
2BAE
330
2BAF
330
2BB0
330
2BB1
330
2BB2
330
2BB3
330
2BB4
330
2BB5
330
2BB6
330
2BB7
330
2BB8
330
2BB9
330
2BBA
330
2BBB
330
2BBC
330
2BBD
330
2BBE
330
2BBF
330
2BC0
330
2BC1
330
2BC2
330
2BC3
330
2BC4
330
2BC5
330
2BC6
330
2BC7
330
2BC8
330
2BC9
330
2BCA
330
2BCB
330
2BCC
330
2BCD
330
2BCE
330
2BCF
330
2BD0
330
2BD1
330
2BD2
330
2BD3
330
2BD4
330
2BD5
330
2BD6
330
2BD7
330
2BD8
330
2BD9
330
2BDA
330
2BDB
330
2BDC
330
2BDD
330
2BDE
330
2BDF
330
2BE0
330
2BE1
330
2BE2
330
2BE3
330
2BE4
330
2BE5
330
2BE6
330
2BE7
330
2BE8
330
2BE9
330
2BEA
330
2BEB
330
2BEC
330
2BED
330
2BEE
330
2BEF
330
2BF0
330
2BF1
330
2BF2
330
2BF3
330
2BF4
330
2BF5
330
2BF6
330
2BF7
330
2BF8
330
2BF9
330
2BFA
330
2BFB
330
2BFC
330
2BFD
330
2BFE
330
2BFF
330
2C00
330
2C01
330
2C02
330
2C03
330
2C04
330
2C05
330
2C06
330
2C07
330
2C08
330
2C09
330
2C0A
330
2C0B
330
2C0C
330
2C0D
330
2C0E
330
2C0F
330
2C10
330
2C11
330
2C12
330
2C13
330
2C14
330
2C15
330
2C16
330
2C17
330
2C18
330
2C19
330
2C1A
330
2C1B
330
2C1C
330
2C1D
330
2C1E
330
2C1F
330
2C20
330
2C21
330
2C22
330
2C23
330
2C24
330
2C25
330
2C26
330
2C27
330
2C28
330
2C29
330
2C2A
330
2C2B
330
2C2C
330
2C2D
330
2C2E
330
2C2F
330
2C30
330
2C31
330
2C32
330
2C33
330
2C34
330
2C35
330
2C36
330
2C37
330
2C38
330
2C39
330
2C3A
330
2C3B
330
2C3C
330
2C3D
330
2C3E
330
2C3F
330
2C40
330
2C41
330
2C42
330
2C43
330
2C44
330
2C45
330
2C46
330
2C47
330
2C48
330
2C49
  0
IDBUFFER
  5
154D
330
0
100
AcDbIdBuffer
330
2555
  0
IDBUFFER
  5
154E
330
0
100
AcDbIdBuffer
330
2172
330
2B88
330
2B89
330
2B8A
330
2B8B
  0
IDBUFFER
  5
154F
330
0
100
AcDbIdBuffer
330
2556
330
2557
330
2558
  0
IDBUFFER
  5
1550
330
0
100
AcDbIdBuffer
330
B60
  0
XRECORD
  5
2D92
102
{ACAD_REACTORS
330
2D91
102
}
330
2D91
100
AcDbXrecord
280
     1
102
SHADEPLOT
 70
     0
102
SHADEPLOTRESLEVEL
 70
     2
102
SHADEPLOTCUSTOMDPI
 70
   300
  0
XRECORD
  5
2D93
102
{ACAD_REACTORS
330
1C
102
}
330
1C
100
AcDbXrecord
280
     1
102
SHADEPLOT
 70
     0
102
SHADEPLOTRESLEVEL
 70
     2
102
SHADEPLOTCUSTOMDPI
 70
   300
  0
XRECORD
  5
1D
102
{ACAD_REACTORS
330
1C
102
}
330
1C
100
AcDbXrecord
280
     1
310
28000000B4000000870000000100080000000000EC5E0000000000000000000000010000000000000000000000000000FFFFFF000000000000000000000000000000000000000000000000000000000000000000330000006600000099000000CC000000FF00000000330000333300006633000099330000CC330000FF3300
310
0000660000336600006666000099660000CC660000FF66000000990000339900006699000099990000CC990000FF99000000CC000033CC000066CC000099CC0000CCCC0000FFCC000000FF000033FF000066FF000099FF0000CCFF0000FFFF000000003300330033006600330099003300CC003300FF003300003333003333
310
33006633330099333300CC333300FF33330000663300336633006666330099663300CC663300FF66330000993300339933006699330099993300CC993300FF99330000CC330033CC330066CC330099CC3300CCCC3300FFCC330000FF330033FF330066FF330099FF3300CCFF3300FFFF330000006600330066006600660099
310
006600CC006600FF00660000336600333366006633660099336600CC336600FF33660000666600336666006666660099666600CC666600FF66660000996600339966006699660099996600CC996600FF99660000CC660033CC660066CC660099CC6600CCCC6600FFCC660000FF660033FF660066FF660099FF6600CCFF6600
310
FFFF660000009900330099006600990099009900CC009900FF00990000339900333399006633990099339900CC339900FF33990000669900336699006666990099669900CC669900FF66990000999900339999006699990099999900CC999900FF99990000CC990033CC990066CC990099CC9900CCCC9900FFCC990000FF99
310
0033FF990066FF990099FF9900CCFF9900FFFF99000000CC003300CC006600CC009900CC00CC00CC00FF00CC000033CC003333CC006633CC009933CC00CC33CC00FF33CC000066CC003366CC006666CC009966CC00CC66CC00FF66CC000099CC003399CC006699CC009999CC00CC99CC00FF99CC0000CCCC0033CCCC0066CC
310
CC0099CCCC00CCCCCC00FFCCCC0000FFCC0033FFCC0066FFCC0099FFCC00CCFFCC00FFFFCC000000FF003300FF006600FF009900FF00CC00FF00FF00FF000033FF003333FF006633FF009933FF00CC33FF00FF33FF000066FF003366FF006666FF009966FF00CC66FF00FF66FF000099FF003399FF006699FF009999FF00CC
310
99FF00FF99FF0000CCFF0033CCFF0066CCFF0099CCFF00CCCCFF00FFCCFF0000FFFF0033FFFF0066FFFF0099FFFF00CCFFFF00FFFFFF00000000000D0D0D001A1A1A00282828003535350043434300505050005D5D5D006B6B6B00787878008686860093939300A1A1A100AEAEAE00BBBBBB00C9C9C900D6D6D600E4E4E400
310
F1F1F100FFFFFF0000000000000000000000000000000000000000000000000000000000000000000000000000000000E2E2E2E2E2E2E2E2E2E2E2E2E2E2E2E2E2E2E2E2E2E2E2E2E2E2E2E2E2E2E2E2E2E2E2E2E2E2E2E2E2E2E2E2E2E2E2E2E2E2E2E2E2E2E2E2E2E2E2E2E2E2E2E2E2E2E2E2E2E2E2E2E2E2E2E2E2E2E2
310
E2E2E2E2E2E2E2E2E2E2E2E2E2E2E2E2E2E2E2E2E2E2E2E2E2E2E2E2E2E2E2E2E2E2E2E2E2E2E2E2E2E2E2E2E2E2E2E2E2E2E2E2E2E2E2E2E2E2E2E2E2E2E2E2E2E2E2E2E2E2E2E2E2E2E2E2E2E2E2E2E2E2E2E2E2E2E2E2E2E2E2E2E2E2E2E2E2E2E2E2E2E2E2E2E2E2E2E2E2E2E2E2E2E2E2E2E2E2E2E2E2E2E2E2E2E2E2
310
E2E2E2E2E2E2E2E2E2E2E2E2E2E2E2E2E2E2E2E2E2E2E2E2E2E2E2E2E2E2E2E2E2E2E2E2E2E2E2E2E2E2E2E2E2E2E2E2E2E2E2E2E2E2E2E2E2E2E2E2E2E2E2E2E2E2E2E2E2E2E2E2E2E2E2E2E2E2E2E2E2E2E2E2E2E2E2E2E2E2E2E2E2E2E2E2E2E2E2E2E2E2E2E2E2E2E2E2E2E2E2E2E2E2E2E2E2E2E2E2E2E2E2E2E2E2E2
310
E2E2E2E2E2E2E2E2E2E2E2E2E2E2E2E2E2E2E2E2E2E2E2E2E2E2E2E2E2E2E2E2E2E2E2E2E2E2E2E2E2E2E2E2E2E2E2E2E2E2E2E2E2E2E2E2E2E2E2E2E2E2E2E2E2E2E2E2E2E2E2E2E2E2E2E2E2E2E2E2E2E2E2E2E2E2E2E2E2E2E2E2E2E2E2E2E2E2E2E2E2E2E2E2E2E2E2E2E2E2E2E2E2E2E2E2E2E2E2E2E2E2E2E2E2E2E2
310
E2E2E2E2E2E2E2E2E2E2E2E2E2E2E2E2E2E2E2E2E2E2E2E2E2E2E2E2E2E2E2E2E2E2E2E2E2E2E2E2E2E2E2E2E2E2E2E2E2E2E2E2E2E2E2E2E2E2E2E2E2E2E2E2E2E2E2E2E2E2E2E2E2E2E2E2E2E2E2E2E2E2E2E2E2E2E2E2E2E2E2E2E2E2E2E2E2E2E2E2E2E2E2E2E2E2E2E2E2E2E2E2E2E2E2E2E2E2E2E2E2E2E2E2E2E2E2
310
E2E2E2E2E2E2E2E2E2E2E2E2E2E2E2E2E2E2E2E2E2E2E2E2E2E2E2E2E2E2E2E2E2E2E2E2E2E2E2E2E2E2E2E2E2E2E2E2E2E2E2E2E2E2E2E2E2E2E2E2E2E2E2E2E2E2E2E2E2E2E2E2E2E2E2E2E2E2E2E2E2E2E2E2E2E2E2E2E2E2E2E2E2E2E2E2E2E2E2E2E2E2E2E2E2E2E2E2E2E2E2E2E2E2E2E2E2E2E2E2E2E2E2E2E2E2E2
310
E2E2E2E2E2E2E2E2E2E2E2E2E2E2E2E2E2E2E2E2E2E2E2E2E2E2E2E2E2E2E2E2E2E2E2E2E2E2E2E2E2E2E2E2E2E2E2E2E2E2E2E2E2E2E2E2E2E2E2E2E2E2E2E2E2E2E2E2E2E2E2E2E2E2E2E2E2E2E2E2E2E2E2E2E2E2E2E2E2E2E2E2E2E2E2E2E2E2E2E2E2E2E2E2E2E2E2E2E2E2E2E2E2E2E2E2E2E2E2E2E2E2E2E2E2E2E2
310
E2E2E2E2E2E2E2E2E2E2E2E2E2E2E2E2E2E2E2E2E2E2E2E2E2E2E2E2E2E2E2E2E2E2E2E2E2E2E2E2E2E2E2E2E2E2E2E2E2E2E2E2E2E2E2E2E2E2E2E2E2E2E2E2E2E2E2E2E2E2E2E2E2E2E2E2E2E2E2E2E2E2E2E2E2E2E2E2E2E2E2E2E2E2E2E2E2E2E2E2E2E2E2E2E2E2E2E2E2E2E2E2E2E2E2E2E2E2E2E2E2E2E2E2E2E2E2
310
E2E2E2E2E2E2E2E2E2E2E2E2E2E2E2E2E2E2E2E2E2E2E2E2E2E2E2E2E2E2E2E2E2E2E2E2E2E2E2E2E2E2E2E2E2E2E2E2E2E2E2E2E2E2E2E2E2E2E2E2E2E2E2E2E2E2E2E2E2E2E2E2E2E2E2E2E2E2E2E2E2E2E2E2E2E2E2E2E2E2E2E2E2E2E2E2E2E2E2E2E2E2E2E2E2E2E2E2E2E2E2E2E2E2E2E2E2E2E2E2E2E2E2E2E2E2E2
310
E2E2E2E2E2E2E2E2E2E2E2E2E2E2E2E2E2E2E2E2E2E2E2E2E2E2E2E2E2E2E2E2E2E2E2E2E2E2E2E2E2E2E2E2E2E2E2E2E2E2E2E2E2E2E2E2E2E2E2E2E2E2E2E2E2E2E2E2E2E2E2E2E2E2E2E2E2E2E2E2E2E2E2E2E2E2E2E2E2E2E2E2E2E2E2E2E2E2E2E2E2E2E2E2E2E2E2E2E2E2E2E2E2E2E2E2E2E2E2E2E2E2E2E2E2E2E2
310
E2E2E2E2E2E2E2E2E2E2E2E2E2E2E2E2E2E2E2E2E2E2E2E2E2E2E2E2E2E2E2E2E2E2E2E2E2E2E2E2E2E2E2E2E2E2E2E2E2E2E2E2E2E2E2E2E2E2E2E2E2E2E2E2E2E2E2E2E2E2E2E2E2E2E2E2E2E2E2E2E2E2E2E2E2E2E2E2E2E2E2E2E2E2E2E2E2E2E2E2E2E2E2E2E2E2E2E2E2E2E2E2E2E2E2E2E2E2E2E2E2E2E2E2E2E2E2
310
E2E2E2E2E2E2E2E2E2E2E2E2E2E2E2E2E2E2E2E2E2E2E2E2E2E2E2E2E2E2E2E2E2E2E2E2E2E2E2E2E2E2E2E2E2E2E2E2E2E2E2E2E2E2E2E2E2E2E2E2E2E2E2E2E2E2E2E2E2E2E2E2E2E2E2E2E2E2E2E2E2E2E2E2E2E2E2E2E2E2E2E2E2E2E2E2E2E2E2E2E2E2E2E2E2E2E2E2E2E2E2E2E2E2E2E2E2E2E2E2E2E2E2E2E2E2E2
310
E2E2E2E2E2E2E2E2E2E2E2E2E2E2E2E2E2E2E2E2E2E2E2E2E2E2E2E2E2E2E2E2E2E2E2E2E2E2E2E2E2E2E2E2E2E2E2E2E2E2E2E2E2E2E2E2E2E2E2E2E2E2E2E2E2E2E2E2E2E2E2E2E2E2E2E2E2E2E2E2E2E2E2E2E2E2E2E2E2E2E2E2E2E2E2E2E2E2E2E2E2E2E2E2E2E2E2E2E2E2E2E2E2E2E2E2E2E2E2E2E2E2E2E2E2E2E2
310
E2E2E2E2E2E2E2E2E2E2E2E2E2E2E2E2E2E2E2E2E2E2E2E2E2E2E2E2E2E2E2E2E2E2E2E2E2E2E2E2E2E2E2E2E2E2E2E2E2E2E2E2E2E2E2E2E2E2E2E2E2E2E2E2E2E2E2E2E2E2E2E2E2E2E2E2E2E2E2E2E2E2E2E2E2E2E2E2E2E2E2E2E2E2E2E2E2E2E2E2E2E2E2E2E2E2E2E2E2E2E2E2E2E2E2E2E2E2E2E2E2E2E2E2E2E2E2
310
E2E2E2E2E2E2E2E2E2E2E2E2E2E2E2E2E2E2E2E2E2E2E2E2E2E2E2E2E2E2E2E2E2E2E2E2E2E2E2E2E2E2E2E2E2E2E2E2E2E2E2E2E2E2E2E2E2E2E2E2E2E2E2E2E2E2E2E2E2E2E2E2E2E2E2E2E2E2E2E2E2E2E2E2E2E2E2E2E2E2E2E2E2E2E2E2E2E2E2E2E2E2E2E2E2E2E2E2E2E2E2E2E2E2E2E2E2E2E2E2E2E2E2E2E2E2E2
310
E2E2E2E2E2E2E2E2E2E2E2E2E2E2E2E2E2E2E2E2E2E2E2E2E2E2E2E2E2E2E2E2E2E2E2E2E2E2E2E2E2E2E2E2E2E2E2E2E2E2E2E2E2E2E2E2E2E2E2E2E2E2E2E2E2E2E2E2E2E2E2E2E2E2E2E2E2E2E2E2E2E2E2E2E2E2E2E2E2E2E2E2E2E2E2E2E2E2E2E2E2E2E2E2E2E2E2E2E2E2E2E2E2E2E2E2E2E2E2E2E2E2E2E2E2E2E2
310
E2E2E2E2E2E2E2E2E2E2E2E2E2E2E2E2E2E2E2E2E2E2E2E2E2E2E2E2E2E2E2E2E2E2E2E2E2E2E2E2E2E2E2E2E2E2E2E2E2E2E2E2E2E2E2E2E2E2E2E2E2E2E2E2E2E2E2E2E2E2E2E2E2E2E2E2E2E2E2E2E2E2E2E2E2E2E2E2E2E2E2E2E2E2E2E2E2E2E2E2E2E2E2E2E2E2E2E2E2E2E2E2E2E2E2E2E2E2E2E2E2E2E2E2E2E2E2
310
E2E2E2E2E2E2E2E2E2E2E2E2E2E2E2E2E2E2E2E2E2E2E2E2E2E2E2E2E2E2E2E2E2E2E2E2E2E2E2E2E2E2E2E2E2E2E2E2E2E2E2E2E2E2E2E2E2E2E2E2E2E2E2E2E2E2E2E2E2E2E2E2E2E2E2E2E2E2E2E2E2E2E2E2E2E2E2E2E2E2E2E2E2E2E2E2E2E2E2E2E2E2E2E2E2E2E2E2E2E2E2E2E2E2E2E2E2E2E2E2E2E2E2E2E2E2E2
310
E2E2E2E2E2E2E2E2E2E2E2E2E2E2E2E2E2E2E2E2E2E2E2E2E2E2E2E2E2E2E2E2E2E2E2E2E2E2E2E2E2E2E2E2E2E2E2E2E2E2E2E2E2E2E2E2E2E2E2E2E2E2E2E2E2E2E2E2E2E2E2E2E2E2E2E2E2E2E2E2E2E2E2E2E2E2E2E2E2E2E2E2E2E2E2E2E2E2E2E2E2E2E2E2E2E2E2E2E2E2E2E2E2E2E2E2E2E2E2E2E2E2E2E2E2E2E2
310
E2E2E2E2E2E2E2E2E2E2E2E2E2E2E2E2E2E2E2E2E2E2E2E2E2E2E2E2E2E2E2E2E2E2E2E2E2E2E2E2E2E2E2E2E2E2E2E2E2E2E2E2E2E2E2E2E2E2E2E2E2E2E2E2E2E2E2E2E2E2E2E2E2E2E2E2E2E2E2E2E2E2E2E2E2E2E2E2E2E2E2E2E2E2E2E2E2E2E2E2E2E2E2E2E2E2E2E2E2E2E2E2E2E2E2E2E2E2E2E2E2E2E2E2E2E2E2
310
E2E2E2E2E2E2E2E2E2E2E2E2E2E2E2E2E2E2E2E2E2E2E2E2E2E2E2E2E2E2E2E2E2E2E2E2E2E2E2E2E2E2E2E2E2E2E2E2E2E2E2E2E2E2E2E2E2E2E2E2E2E2E2E2E2E2E2E2E2E2E2E2E2E2E2E2E2E2E2E2E2E2E2E2E2E2E2E2E2E2E2E2E2E2E2E2E2E2E2E2E2E2E2E2E2E2E2E2E2E2E2E2E2E2E2E2E2E2E2E2E2E2E2E2E2E2E2
310
E2E2E2E2E2E2E2E2E2E2E2E2E2E2E2E2E2E2E2E2E2E2E2E2E2E2E2E2E2E2E2E2E2E2E2E2E2E2E2E2E2E2E2E2E2E2E2E2E2E2E2E2E2E2E2E2E2E2E2E2E2E2E2E2E2E2E2E2E2E2E2E2E2E2E2E2E2E2E2E2E2E2E2E2E2E2E2E2E2E2E2E2E2E2E2E2E2E2E2E2E2E2E2E2E2E2E2E2E2E2E2E2E2E2E2E2E2E2E2E2E2E2E2E2E2E2E2
310
E2E2E2E2E2E2E2E2E2E2E2E2E2E2E2E2E2E2E2E2E2E2E2E2E2E2E2E2E2E2E2E2E2E2E2E2E2E2E2E2E2E2E2E2E2E2E2E2E2E2E2E2E2E2E2E2E2E2E2E2E2E2E2E2E2E2E2E2E2E2E2E2E2E2E2E2E2E2E2E2E2E2E2E2E2E2E2E2E2E2E2E2E2E2E2E2E2E2E2E2E2E2E2E2E2E2E2E2E2E2E2E2E2E2E2E2E2E2E2E2E2E2E2E2E2E2E2
310
E2E2E2E2E2E2E2E2E2E2E2E2E2E2E2E2E2E2E2E2E2E2E2E2E2E2E2E2E2E2E2E2E2E2E2E2E2E2E2E2E2E2E2E2E2E2E2E2E2E2E2E2E2E2E2E2E2E2E2E2E2E2E2E2E2E2E2E2E2E2E2E2E2E2E2E2E2E2E2E2E2E2E2E2E2E2E2E2E2E2E2E2E2E2E2E2E2E2E2E2E2E2E2E2E2E2E2E2E2E2E2E2E2E2E2E2E2E2E2E2E2E2E2E2E2E2E2
310
E2E2E2E2E2E2E2E2E2E2E2E2E2E2E2E2E2E2E2E2E2E2E2E2E2E2E2E2E2E2E2E2E2E2E2E2E2E2E2E2E2E2E2E2E2E2E2E2E2E2E2E2E2E2E2E2E2E2E2E2E2E2E2E2E2E2E2E2E2E2E2E2E2E2E2E2E2E2E2E2E2E2E2E2E2E2E2E2E2E2E2E2E2E2E2E2E2E2E2E2E2E2E2E2E2E2E2E2E2E2E2E2E2E2E2E2E2E2E2E2E2E2E2E2E2E2E2
310
E2E2E2E2E2E2E2E2E2E2E2E2E2E2E2E2E2E2E2E2E2E2E2E2E2E2E2E2E2E2E2E2E2E2E2E2E2E2E2E2E2E2E2E2E2E2E2E2E2E2E2E2E2E2E2E2E2E2E2E2E2E2E2E2E2E2E2E2E2E2E2E2E2E2E2E2E2E2E2E2E2E2E2E2E2E2E2E2E2E2E2E2E2E2E2E2E2E2E2E2E2E2E2E2E2E2E2E2E2E2E2E2E2E2E2E2E2E2E2E2E2E2E2E2E2E2E2
310
E2E2E2E2E2E2E2E2E2E2E2E2E2E2E2E2E2E2E2E2E2E2E2E2E2E2E2E2E2E2E2E2E2E2E2E2E2E2E2E2E2E2E2E2E2E2E2E2E2E2E2E2E2E2E2E2E2E2E2E2E2E2E2E2E2E2E2E2E2E2E2E2E2E2E2E2E2E2E2E2E2E2E2E2E2E2E2E2E2E2E2E2E2E2E2E2E2E2E2E2E2E2E2E2E2E2E2E2E2E2E2E2E2E2E2E2E2E2E2E2E2E2E2E2E2E2E2
310
E2E2E2E2E2E2E2E2E2E2E2E2E2E2E2E2E2E2E2E2E2E2E2E2E2E2E2E2E2E2E2E2E2E2E2E2E2E2E2E2E2E2E2E2E2E2E2E2E2E2E2E2E2E2E2E2E2E2E2E2E2E2E2E2E2E2E2E2E2E2E2E2E2E2E2E2E2E2E2E2E2E2E2E2E2E2E2E2E2E2E2E2E2E2E2E2E2E2E2E2E2E2E2E2E2E2E2E2E2E2E2E2E2E2E2E2E2E2E2E2E2E2E2E2E2E2E2
310
E2E2E2E2E2E2E2E2E2E2E2E2E2E2E2E2E2E2E2E2E2E2E2E2E2E2E2E2E2E2E2E2E2E2E2E2E2E2E2E2E2E2E2E2E2E2E2E2E2E2E2E2E2E2E2E2E2E2E2E2E2E2E2E2E2E2E2E2E2E2E2E2E2E2E2E2E2E2E2E2E2E2E2E2E2E2E2E2E2E2E2E2E2E2E2E2E2E2E2E2E2E2E2E2E2E2E2E2E2E2E2E2E2E2E2E2E2E2E2E2E2E2E2E2E2E2E2
310
E2E2E2E2E2E2E2E2E2E2E2E2E2E2E2E2E2E2E2E2E2E2E2E2E2E2E2E2E2E2E2E2E2E2E2E2E2E2E2E2E2E2E2E2E2E2E2E2E2E2E2E2E2E2E2E2E2E2E2E2E2E2E2E2E2E2E2E2E2E2E2E2E2E2E2E2E2E2E2E2E2E2E2E2E2E2E2E2E2E2E2E2E2E2E2E2E2E2E2E2E2E2E2E2E2E2E2E2E2E2E2E2E2E2E2E2E2E2E2E2E2E2E2E2E2E2E2
310
E2E2E2E2E2E2E2E2E2E2E2E2E2E2E2E2E2E2E2E2E2E2E2E2E2E2E2E2E2E2E2E2E2E2E2E2E2E2E2E2E2E2E2E2E2E2E2E2E2E2E2E2E2E2E2E2E2E2E2E2E2E2E2E2E2E2E2E2E2E2E2E2E2E2E2E2E2E2E2E2E2E2E2E2E2E2E2E2E2E2E2E2E2E2E2E2E2E2E2E2E2E2E2E2E2E2E2E2E2E2E2E2E2E2E2E2E2E2E2E2E2E2E2E2E2E2E2
310
E2E2E2E2E2E2E2E2E2E2E2E2E2E2E2E2E2E2E2E2E2E2E2E2E2E2E2E2E2E2E2E2E2E2E2E2E2E2E2E2E2E2E2E2E2E2E2E2E2E2E2E2E2E2E2E2E2E2E2E2E2E2E2E2E2E2E2E2E2E2E2E2E2E2E2E2E2E2E2E2E2E2E2E2E2E2E2E2E2E2E2E2E2E2E2E2E2E2E2E2E2E2E2E2E2E2E2E2E2E2E2E2E2E2E2E2E2E2E2E2E2E2E2E2E2E2E2
310
E2E2E2E2E2E2E2E2E2E2E2E2E2E2E2E2E2E2E2E2E2E2E2E2E2E2E2E2E2E2E2E2E2E2E2E2E2E2E2E2E2E2E2E2E2E2E2E2E2E2E2E2E2E2E2E2E2E2E2E2E2E2E2E2E2E2E2E2E2E2E2E2E2E2E2E2E2E2E2E2E2E2E2E2E2E2E2E2E2E2E2E2E2E2E2E2E2E2E2E2E2E2E2E2E2E2E2E2E2E2E2E2E2E2E2E2E2E2E2E2E2E2E2E2E2E2E2
310
E2E2E2E2E2E2E2E2E2E2E2E2E2E2E2E2E2E2E2E2E2E2E2E2E2E2E2E2E2E2E2E2E2E2E2E2E2E2E2E2E2E2E2E2E2E2E2E2E2E2E2E2E2E2E2E2E2E2E2E2E2E2E2E2E2E2E2E2E2E2E2E2E2E2E2E2E2E2E2E2E2E2E2E2E2E2E2E2E2E2E2E2E2E2E2E2E2E2E2E2E2E2E2E2E2E2E2E2E2E2E2E2E2E2E2E2E2E2E2E2E2E2E2E2E2E2E2
310
E2E2E2E2E2E2E2E2E2E2E2E2E2E2E2E2E2E2E2E2E2E2E2E2E2E2E2E2E2E2E2E2E2E2E2E2E2E2E2E2E2E2E2E2E2E2E2E2E2E2E2E2E2E2E2E2E2E2E2E2E2E2E2E2E2E2E2E2E2E2E2E2E2E2E2E2E2E2E2E2E2E2E2E2E2E2E2E2E2E2E2E2E2E2E2E2E2E2E2E2E2E2E2E2E2E2E2E2E2E2E2E2E2E2E2E2E2E2E2E2E2E2E2E2E2E2E2
310
E2E2E2E2E2E2E2E2E2E2E2E2E2E2E2E2E2E2E2E2E2E2E2E2E2E2E2E2E2E2E2E2E2E2E2E2E2E2E2E2E2E2E2E2E2E2E2E2E2E2E2E2E2E2E2E2E2E2E2E2E2E2E2E2E2E2E2E2E2E2E2E2E2E2E2E2E2E2E2E2E2E2E2E2E2E2E2E2E2E2E2E2E2E2E2E2E2E2E2E2E2E2E2E2E2E2E2E2E2E2E2E2E2E2E2E2E2E2E2E2E2E2E2E2E2E2E2
310
E2E2E2E2E2E2E2E2E2E2E2E2E2E2E2E2E2E2E2E2E2E2E2E2E2E2E2E2E2E2E2E2E2E2E2E2E2E2E2E2E2E2E2E2E2E2E2E2E2E2E2E2E2E2E2E2E2E2E2E2E2E2E2E2E2E2E2E2E2E2E2E2E2E2E2E2E2E2E2E2E2E2E2E2E2E2E2E2E2E2E2E2E2E2E2E2E2E2E2E2E2E2E2E2E2E2E2E2E2E2E2E2E2E2E2E2E2E2E2E2E2E2E2E2E2E2E2
310
E2E2E2E2E2E2E2E2E2E2E2E2E2E2E2E2E2E2E2E2E2E2E2E2E2E2E2E2E2E2E2E2E2E2E2E2E2E2E2E2E2E2E2E2E2E2E2E2E2E2E2E2E2E2E2E2E2E2E2E2E2E2E2E2E2E2E2E2E2E2E2E2E2E2E2E2E2E2E2E2E2E2E2E2E2E2E2E2E2E2E2E2E2E2E2E2E2E2E2E2E2E2E2E2E2E2E2E2E2E2E2E2E2E2E2E2E2E2E2E2E2E2E2E2E2E2E2
310
E2E2E2E2E2E2E2E2E2E2E2E2E2E2E2E2E2E2E2E2E2E2E2E2E2E2E2E2E2E2E2E2E2E2E2E2E2E2E2E2E2E2E2E2E2E2E2E2E2E2E2E2E2E2E2E2E2E2E2E2E2E2E2E2E2E2E2E2E2E2E2E2E2E2E2E2E2E2E2E2E2E2E2E2E2E2E2E2E2E2E2E2E2E2E2E2E2E2E2E2E2E2E2E2E2E2E2E2E2E2E2E2E2E2E2E2E2E2E2E2E2E2E2E2E2E2E2
310
E2E2E2E2E2E2E2E2E2E2E2E2E2E2E2E2E2E2E2E2E2E2E2E2E2E2E2E2E2E2E2E2E2E2E2E2E2E2E2E2E2E2E2E2E2E2E2E2E2E2E2E2E2E2E2E2E2E2E2E2E2E2E2E2E2E2E2E2E2E2E2E2E2E2E2E2E2E2E2E2E2E2E2E2E2E2E2E2E2E2E2E2E2E2E2E2E2E2E2E2E2E2E2E2E2E2E2E2E2E2E2E2E2E2E2E2E2E2E2E2E2E2E2E2E2E2E2
310
E2E2E2E2E2E2E2E2E2E2E2E2E2E2E2E2E2E2E2E2E2E2E2E2E2E2E2E2E2E2E2E2E2E2E2E2E2E2E2E2E2E2E2E2E2E2E2E2E2E2E2E2E2E2E2E2E2E2E2E2E2E2E2E2E2E2E2E2E2E2E2E2E2E2E2E2E2E2E2E2E2E2E2E2E2E2E2E2E2E2E2E2E2E2E2E2E2E2E2E2E2E2E2E2E2E2E2E2E2E2E2E2E2E2E2E2E2E2E2E2E2E2E2E2E2E2E2
310
E2E2E2E2E2E2E2E2E2E2E2E2E2E2E2E2E2E2E2E2E2E2E2E2E2E2E2E2E2E2E2E2E2E2E2E2E2E2E2E2E2E2E2E2E2E2E2E2E2E2E2E2E2E2E2E2E2E2E2E2E2E2E2E2E2E2E2E2E2E2E2E2E2E2E2E2E2E2E2E2E2E2E2E2E2E2E2E2E2E2E2E2E2E2E2E2E2E2E2E2E2E2E2E2E2E2E2E2E2E2E2E2E2E2E2E2E2E2E2E2E2E2E2E2E2E2E2
310
E2E2E2E2E2E2E2E2E2E2E2E2E2E2E2E2E2E2E2E2E2E2E2E2E2E2E2E2E2E2E2E2E2E2E2E2E2E2E2E2E2E2E2E2E2E2E2E2E2E2E2E2E2E2E2E2E2E2E2E2E2E2E2E2E2E2E2E2E2E2E2E2E2E2E2E2E2E2E2E2E2E2E2E2E2E2E2E2E2E2E2E2E2E2E2E2E2E2E2E2E2E2E2E2E2E2E2E2E2E2E2E2E2E2E2E2E2E2E2E2E2E2E2E2E2E2E2
310
E2E2E2E2E2E2E2E2E2E2E2E2E2E2E2E2E2E2E2E2E2E2E2E2E2E2E2E2E2E2E2E2E2E2E2E2E2E2E2E2E2E2E2E2E2E2E2E2E2E2E2E2E2E2E2E2E2E2E2E2E2E2E2E2E2E2E2E2E2E2E2E2E2E2E2E2E2E2E2E2E2E2E2E2E2E2E2E2E2E2E2E2E2E2E2E2E2E2E2E2E2E2E2E2E2E2E2E2E2E2E2E2E2E2E2E2E2E2E2E2E2E2E2E2E2E2E2
310
E2E2E2E2E2E2E2E2E2E2E2E2E2E2E2E2E2E2E2E2E2E2E2E2E2E2E2E2E2E2E2E2E2E2E2E2E2E2E2E2E2E2E2E2E2E2E2E2E2E2E2E2E2E2E2E2E2E2E2E2E2E2E2E2E2E2E2E2E2E2E2E2E2E2E2E2E2E2E2E2E2E2E2E2E2E2E2E2E2E2E2E2E2E2E2E2E2E2E2E2E2E2E2E2E2E2E2E2E2E2E2E2E2E2E2E2E2E2E2E2E2E2E2E2E2E2E2
310
E2E2E2E2E2E2E2E2E2E2E2E2E2E2E2E2E2E2E2E2E2E2E2E2E2E2E2E2E2E2E2E2E2E2E2E2E2E2E2E2E2E2E2E2E2E2E2E2E2E2E2E2E2E2E2E2E2E2E2E2E2E2E2E2E2E2E2E2E2E2E2E2E2E2E2E2E2E2E2E2E2E2E2E2E2E2E2E2E2E2E2E2E2E2E2E2E2E2E2E2E2E2E2E2E2E2E2E2E2E2E2E2E2E2E2E2E2E2E2E2E2E2E2E2E2E2E2
310
E2E2E2E2E2E2E2E2E2E2E2E2E2E2E2E2E2E2E2E2E2E2E2E2E2E2E2E2E2E2E2E2E2E2E2E2E2E2E2E2E2E2E2E2E2E2E2E2E2E2E2E2E2E2E2E2E2E2E2E2E2E2E2E2E2E2E2E2E2E2E2E2E2E2E2E2E2E2E2E2E2E2E2E2E2E2E2E2E2E2E2E2E2E2E2E2E2E2E2E2E2E2E2E2E2E2E2E2E2E2E2E2E2E2E2E2E2E2E2E2E2E2E2E2E2E2E2
310
E2E2E2E2E2E2E2E2E2E2E2E2E2E2E2E2E2E2E2E2E2E2E2E2E2E2E2E2E2E2E2E2E2E2E2E2E2E2E2E2E2E2E2E2E2E2E2E2E2E2E2E2E2E2E2E2E2E2E2E2E2E2E2E2E2E2E2E2E2E2E2E2E2E2E2E2E2E2E2E2E2E2E2E2E2E2E2E2E2E2E2E2E2E2E2E2E2E2E2E2E2E2E2E2E2E2E2E2E2E2E2E2E2E2E2E2E2E2E2E2E2E2E2E2E2E2E2
310
E2E2E2E2E2E2E2E2E2E2E2E2E2E2E2E2E2E2E2E2E2E2E2E2E2E2E2E2E2E2E2E2E2E2E2E2E2E2E2E2E2E2E2E2E2E2E2E2E2E2E2E2E2E2E2E2E2E2E2E2E2E2E2E2E2E2E2E2E2E2E2E2E2E2E2E2E2E2E2E2E2E2E2E2E2E2E2E2E2E2E2E2E2E2E2E2E2E2E2E2E2E2E2E2E2E2E2E2E2E2E2E2E2E2E2E2E2E2E2E2E2E2E2E2E2E2E2
310
E2E2E2E2E2E2E2E2E2E2E2E2E2E2E2E2E2E2E2E2E2E2E2E2E2E2E2E2E2E2E2E2E2E2E2E2E2E2E2E2E2E2E2E2E2E2E2E2E2E2E2E2E2E2E2E2E2E2E2E2E2E2E2E2E2E2E2E2E2E2E2E2E2E2E2E2E2E2E2E2E2E2E2E2E2E2E2E2E2E2E2E2E2E2E2E2E2E2E2E2E2E2E2E2E2E2E2E2E2E2E2E2E2E2E2E2E2E2E2E2E2E2E2E2E2E2E2
310
E2E2E2E2E2E2E2E2E2E2E2E2E2E2E2E2E2E2E2E2E2E2E2E2E2E2E2E2E2E2E2E2E2E2E2E2E2E2E2E2E2E2E2E2E2E2E2E2E2E2E2E2E2E2E2E2E2E2E2E2E2E2E2E2E2E2E2E2E2E2E2E2E2E2E2E2E2E2E2E2E2E2E2E2E2E2E2E2E2E2E2E2E2E2E2E2E2E2E2E2E2E2E2E2E2E2E2E2E2E2E2E2E2E2E2E2E2E2E2E2E2E2E2E2E2E2E2
310
E2E2E2E2E2E2E2E2E2E2E2E2E2E2E2E2E2E2E2E2E2E2E2E2E2E2E2E2E2E2E2E2E2E2E2E2E2E2E2E2E2E2E2E2E2E2E2E2E2E2E2E2E2E2E2E2E2E2E2E2E2E2E2E2E2E2E2E2E2E2E2E2E2E2E2E2E2E2E2E2E2E2E2E2E2E2E2E2E2E2E2E2E2E2E2E2E2E2E2E2E2E2E2E2E2E2E2E2E2E2E2E2E2E2E2E2E2E2E2E2E2E2E2E2E2E2E2
310
E2E2E2E2E2E2E2E2E2E2E2E2E2E2E2E2E2E2E2E2E2E2E2E2E2E2E2E2E2E2E2E2E2E2E2E2E2E2E2E2E2E2E2E2E2E2E2E2E2E2E2E2E2E2E2E2E2E2E2E2E2E2E2E2E2E2E2E2E2E2E2E2E2E2E2E2E2E2E2E2E2E2E2E2E2E2E2E2E2E2E2E2E2E2E2E2E2E2E2E2E2E2E2E2E2E2E2E2E2E2E2E2E2E2E2E2E2E2E2E2E2E2E2E2E2E2E2
310
E2E2E2E2E2E2E2E2E2E2E2E2E2E2E2E2E2E2E2E2E2E2E2E2E2E2E2E2E2E2E2E2E2E2E2E2E2E2E2E2E2E2E2E2E2E2E2E2E2E2E2E2E2E2E2E2E2E2E2E2E2E2E2E2E2E2E2E2E2E2E2E2E2E2E2E2E2E2E2E2E2E2E2E2E2E2E2E2E2E2E2E2E2E2E2E2E2E2E2E2E2E2E2E2E2E2E2E2E2E2E2E2E2E2E2E2E2E2E2E2E2E2E2E2E2E2E2
310
E2E2E2E2E2E2E2E2E2E2E2E2E2E2E2E2E2E2E2E2E2E2E2E2E2E2E2E2E2E2E2E2E2E2E2E2E2E2E2E2E2E2E2E2E2E2E2E2E2E2E2E2E2E2E2E2E2E2E2E2E2E2E2E2E2E2E2E2E2E2E2E2E2E2E2E2E2E2E2E2E2E2E2E2E2E2E2E2E2E2E2E2E2E2E2E2E2E2E2E2E2E2E2E2E2E2E2E2E2E2E2E2E2E2E2E2E2E2E2E2E2E2E2E2E2E2E2
310
E2E2E2E2E2E2E2E2E2E2E2E2E2E2E2E2E2E2E2E2E2E2E2E2E2E2E2E2E2E2E2E2E2E2E2E2E2E2E2E2E2E2E2E2E2E2E2E2E2E2E2E2E2E2E2E2E2E2E2E2E2E2E2E2E2E2E2E2E2E2E2E2E2E2E2E2E2E2E2E2E2E2E2E2E2E2E2E2E2E2E2E2E2E2E2E2E2E2E2E2E2E2E2E2E2E2E2E2E2E2E2E2E2E2E2E2E2E2E2E2E2E2E2E2E2E2E2
310
E2E2E2E2E2E2E2E2E2E2E2E2E2E2E2E2E2E2E2E2E2E2E2E2E2E2E2E2E2E2E2E2E2E2E2E2E2E2E2E2E2E2E2E2E2E2E2E2E2E2E2E2E2E2E2E2E2E2E2E2E2E2E2E2E2E2E2E2E2E2E2E2E2E2E2E2E2E2E2E2E2E2E2E2E2E2E2E2E2E2E2E2E2E2E2E2E2E2E2E2E2E2E2E2E2E2E2E2E2E2E2E2E2E2E2E2E2E2E2E2E2E2E2E2E2E2E2
310
E2E2E2E2E2E2E2E2E2E2E2E2E2E2E2E2E2E2E2E2E2E2E2E2E2E2E2E2E2E2E2E2E2E2E2E2E2E2E2E2E2E2E2E2E2E2E2E2E2E2E2E2E2E2E2E2E2E2E2E2E2E2E2E2E2E2E2E2E2E2E2E2E2E2E2E2E2E2E2E2E2E2E2E2E2E2E2E2E2E2E2E2E2E2E2E2E2E2E2E2E2E2E2E2E2E2E2E2E2E2E2E2E2E2E2E2E2E2E2E2E2E2E2E2E2E2E2
310
E2E2E2E2E2E2E2E2E2E2E2E2E2E2E2E2E2E2E2E2E2E2E2E2E2E2E2E2E2E2E2E2E2E2E2E2E2E2E2E2E2E2E2E2E2E2E2E2E2E2E2E2E2E2E2E2E2E2E2E2E2E2E2E2E2E2E2E2E2E2E2E2E2E2E2E2E2E2E2E2E2E2E2E2E2E2E2E2E2E2E2E2E2E2E2E2E2E2E2E2E2E2E2E2E2E2E2E2E2E2E2E2E2E2E2E2E2E2E2E2E2E2E2E2E2E2E2
310
E2E2E2E2E2E2E2E2E2E2E2E2E2E2E2E2E2E2E2E2E2E2E2E2E2E2E2E2E2E2E2E2E2E2E2E2E2E2E2E2E2E2E2E2E2E2E2E2E2E2E2E2E2E2E2E2E2E2E2E2E2E2E2E2E2E2E2E2E2E2E2E2E2E2E2E2E2E2E2E2E2E2E2E2E2E2E2E2E2E2E2E2E2E2E2E2E2E2E2E2E2E2E2E2E2E2E2E2E2E2E2E2E2E2E2E2E2E2E2E2E2E2E2E2E2E2E2
310
E2E2E2E2E2E2E2E2E2E2E2E2E2E2E2E2E2E2E2E2E2E2E2E2E2E2E2E2E2E2E2E2E2E2E2E2E2E2E2E2E2E2E2E2E2E2E2E2E2E2E2E2E2E2E2E2E2E2E2E2E2E2E2E2E2E2E2E2E2E2E2E2E2E2E2E2E2E2E2E2E2E2E2E2E2E2E2E2E2E2E2E2E2E2E2E2E2E2E2E2E2E2E2E2E2E2E2E2E2E2E2E2E2E2E2E2E2E2E2E2E2E2E2E2E2E2E2
310
E2E2E2E2E2E2E2E2E2E2E2E2E2E2E2E2E2E2E2E2E2E2E2E2E2E2E2E2E2E2E2E2E2E2E2E2E2E2E2E2E2E2E2E2E2E2E2E2E2E2E2E2E2E2E2E2E2E2E2E2E2E2E2E2E2E2E2E2E2E2E2E2E2E2E2E2E2E2E2E2E2E2E2E2E2E2E2E2E2E2E2E2E2E2E2E2E2E2E2E2E2E2E2E2E2E2E2E2E2E2E2E2E2E2E2E2E2E2E2E2E2E2E2E2E2E2E2
310
E2E2E2E2E2E2E2E2E2E2E2E2E2E2E2E2E2E2E2E2E2E2E2E2E2E2E2E2E2E2E2E2E2E2E2E2E2E2E2E2E2E2E2E2E2E2E2E2E2E2E2E2E2E2E2E2E2E2E2E2E2E2E2E2E2E2E2E2E2E2E2E2E2E2E2E2E2E2E2E2E2E2E2E2E2E2E2E2E2E2E2E2E2E2E2E2E2E2E2E2E2E2E2E2E2E2E2E2E2E2E2E2E2E2E2E2E2E2E2E2E2E2E2E2E2E2E2
310
E2E2E2E2E2E2E2E2E2E2E2E2E2E2E2E2E2E2E2E2E2E2E2E2E2E2E2E2E2E2E2E2E2E2E2E2E2E2E2E2E2E2E2E2E2E2E2E2E2E2E2E2E2E2E2E2E2E2E2E2E2E2E2E2E2E2E2E2E2E2E2E2E2E2E2E2E2E2E2E2E2E2E2E2E2E2E2E2E2E2E2E2E2E2E2E2E2E2E2E2E2E2E2E2E2E2E2E2E2E2E2E2E2E2E2E2E2E2E2E2E2E2E2E2E2E2E2
310
E2E2E2E2E2E2E2E2E2E2E2E2E2E2E2E2E2E2E2E2E2E2E2E2E2E2E2E2E2E2E2E2E2E2E2E2E2E2E2E2E2E2E2E2E2E2E2E2E2E2E2E2E2E2E2E2E2E2E2E2E2E2E2E2E2E2E2E2E2E2E2E2E2E2E2E2E2E2E2E2E2E2E2E2E2E2E2E2E2E2E2E2E2E2E2E2E2E2E2E2E2E2E2E2E2E2E2E2E2E2E2E2E2E2E2E2E2E2E2E2E2E2E2E2E2E2E2
310
E2E2E2E2E2E2E2E2E2E2E2E2E2E2E2E2E2E2E2E2E2E2E2E2E2E2E2E2E2E2E2E2E2E2E2E2E2E2E2E2E2E2E2E2E2E2E2E2E2E2E2E2E2E2E2E2E2E2E2E2E2E2E2E2E2E2E2E2E2E2E2E2E2E2E2E2E2E2E2E2E2E2E2E2E2E2E2E2E2E2E2E2E2E2E2E2E2E2E2E2E2E2E2E2E2E2E2E2E2E2E2E2E2E2E2E2E2E2E2E2E2E2E2E2E2E2E2
310
E2E2E2E2E2E2E2E2E2E2E2E2E2E2E2E2E2E2E2E2E2E2E2E2E2E2E2E2E2E2E2E2E2E2E2E2E2E2E2E2E2E2E2E2E2E2E2E2E2E2E2E2E2E2E2E2E2E2E2E2E2E2E2E2E2E2E2E2E2E2E2E2E2E2E2E2E2E2E2E2E2E2E2E2E2E2E2E2E2E2E2E2E2E2E2E2E2E2E2E2E2E2E2E2E2E2E2E2E2E2E2E2E2E2E2E2E2E2E2E2E2E2E2E2E2E2E2
310
E2E2E2E2E2E2E2E2E2E2E2E2E2E2E2E2E2E2E2E2E2E2E2E2E2E2E2E2E2E2E2E2E2E2E2E2E2E2E2E2E2E2E2E2E2E2E2E2E2E2E2E2E2E2E2E2E2E2E2E2E2E2E2E2E2E2E2E2E2E2E2E2E2E2E2E2E2E2E2E2E2E2E2E2E2E2E2E2E2E2E2E2E2E2E2E2E2E2E2E2E2E2E2E2E2E2E2E2E2E2E2E2E2E2E2E2E2E2E2E2E2E2E2E2E2E2E2
310
E2E2E2E2E2E2E2E2E2E2E2E2E2E2E2E2E2E2E2E2E2E2E2E2E2E2E2E2E2E2E2E2E2E2E2E2E2E2E2E2E2E2E2E2E2E2E2E2E2E2E2E2E2E2E2E2E2E2E2E2E2E2E2E2E2E2E2E2E2E2E2E2E2E2E2E2E2E2E2E2E2E2E2E2E2E2E2E2E2E2E2E2E2E2E2E2E2E2E2E2E2E2E2E2E2E2E2E2E2E2E2E2E2E2E2E2E2E2E2E2E2E2E2E2E2E2E2
310
E2E2E2E2E2E2E2E2E2E2E2E2E2E2E2E2E2E2E2E2E2E2E2E2E2E2E2E2E2E2E2E2E2E2E2E2E2E2E2E2E2E2E2E2E2E2E2E2E2E2E2E2E2E2E2E2E2E2E2E2E2E2E2E2E2E2E2E2E2E2E2E2E2E2E2E2E2E2E2E2E2E2E2E2E2E2E2E2E2E2E2E2E2E2E2E2E2E2E2E2E2E2E2E2E2E2E2E2E2E2E2E2E2E2E2E2E2E2E2E2E2E2E2E2E2E2E2
310
E2E2E2E2E2E2E2E2E2E2E2E2E2E2E2E2E2E2E2E2E2E2E2E2E2E2E2E2E2E2E2E2E2E2E2E2E2E2E2E2E2E2E2E2E2E2E2E2E2E2E2E2E2E2E2E2E2E2E2E2E2E2E2E2E2E2E2E2E2E2E2E2E2E2E2E2E2E2E2E2E2E2E2E2E2E2E2E2E2E2E2E2E2E2E2E2E2E2E2E2E2E2E2E2E2E2E2E2E2E2E2E2E2E2E2E2E2E2E2E2E2E2E2E2E2E2E2
310
E2E2E2E2E2E2E2E2E2E2E2E2E2E2E2E2E2E2E2E2E2E2E2E2E2E2E2E2E2E2E2E2E2E2E2E2E2E2E2E2E2E2E2E2E2E2E2E2E2E2E2E2E2E2E2E2E2E2E2E2E2E2E2E2E2E2E2E2E2E2E2E2E2E2E2E2E2E2E2E2E2E2E2E2E2E2E2E2E2E2E2E2E2E2E2E2E2E2E2E2E2E2E2E2E2E2E2E2E2E2E2E2E2E2E2E2E2E2E2E2E2E2E2E2E2E2E2
310
E2E2E2E2E2E2E2E2E2E2E2E2E2E2E2E2E2E2E2E2E2E2E2E2E2E2E2E2E2E2E2E2E2E2E2E2E2E2E2E2E2E2E2E2E2E2E2E2E2E2E2E2E2E2E2E2E2E2E2E2E2E2E2E2E2E2E2E2E2E2E2E2E2E2E2E2E2E2E2E2E2E2E2E2E2E2E2E2E2E2E2E2E2E2E2E2E2E2E2E2E2E2E2E2E2E2E2E2E2E2E2E2E2E2E2E2E2E2E2E2E2E2E2E2E2E2E2
310
E2E2E2E2E2E2E2E2E2E2E2E2E2E2E2E2E2E2E2E2E2E2E2E2E2E2E2E2E2E2E2E2E2E2E2E2E2E2E2E2E2E2E2E2E2E2E2E2E2E2E2E2E2E2E2E2E2E2E2E2E2E2E2E2E2E2E2E2E2E2E2E2E2E2E2E2E2E2E2E2E2E2E2E2E2E2E2E2E2E2E2E2E2E2E2E2E2E2E2E2E2E2E2E2E2E2E2E2E2E2E2E2E2E2E2E2E2E2E2E2E2E2E2E2E2E2E2
310
E2E2E2E2E2E2E2E2E2E2E2E2E2E2E2E2E2E2E2E2E2E2E2E2E2E2E2E2E2E2E2E2E2E2E2E2E2E2E2E2E2E2E2E2E2E2E2E2E2E2E2E2E2E2E2E2E2E2E2E2E2E2E2E2E2E2E2E2E2E2E2E2E2E2E2E2E2E2E2E2E2E2E2E2E2E2E2E2E2E2E2E2E2E2E2E2E2E2E2E2E2E2E2E2E2E2E2E2E2E2E2E2E2E2E2E2E2E2E2E2E2E2E2E2E2E2E2
310
E2E2E2E2E2E2E2E2E2E2E2E2E2E2E2E2E2E2E2E2E2E2E2E2E2E2E2E2E2E2E2E2E2E2E2E2E2E2E2E2E2E2E2E2E2E2E2E2E2E2E2E2E2E2E2E2E2E2E2E2E2E2E2E2E2E2E2E2E2E2E2E2E2E2E2E2E2E2E2E2E2E2E2E2E2E2E2E2E2E2E2E2E2E2E2E2E2E2E2E2E2E2E2E2E2E2E2E2E2E2E2E2E2E2E2E2E2E2E2E2E2E2E2E2E2E2E2
310
E2E2E2E2E2E2E2E2E2E2E2E2E2E2E2E2E2E2E2E2E2E2E2E2E2E2E2E2E2E2E2E2E2E2E2E2E2E2E2E2E2E2E2E2E2E2E2E2E2E2E2E2E2E2E2E2E2E2E2E2E2E2E2E2E2E2E2E2E2E2E2E2E2E2E2E2E2E2E2E2E2E2E2E2E2E2E2E2E2E2E2E2E2E2E2E2E2E2E2E2E2E2E2E2E2E2E2E2E2E2E2E2E2E2E2E2E2E2E2E2E2E2E2E2E2E2E2
310
E2E2E2E2E2E2E2E2E2E2E2E2E2E2E2E2E2E2E2E2E2E2E2E2E2E2E2E2E2E2E2E2E2E2E2E2E2E2E2E2E2E2E2E2E2E2E2E2E2E2E2E2E2E2E2E2E2E2E2E2E2E2E2E2E2E2E2E2E2E2E2E2E2E2E2E2E2E2E2E2E2E2E2E2E2E2E2E2E2E2E2E2E2E2E2E2E2E2E2E2E2E2E2E2E2E2E2E2E2E2E2E2E2E2E2E2E2E2E2E2E2E2E2E2E2E2E2
310
E2E2E2E2E2E2E2E2E2E2E2E2E2E2E2E2E2E2E2E2E2E2E2E2E2E2E2E2E2E2E2E2E2E2E2E2E2E2E2E2E2E2E2E2E2E2E2E2E2E2E2E2E2E2E2E2E2E2E2E2E2E2E2E2E2E2E2E2E2E2E2E2E2E2E2E2E2E2E2E2E2E2E2E2E2E2E2E2E2E2E2E2E2E2E2E2E2E2E2E2E2E2E2E2E2E2E2E2E2E2E2E2E2E2E2E2E2E2E2E2E2E2E2E2E2E2E2
310
E2E2E2E2E2E2E2E2E2E2E2E2E2E2E2E2E2E2E2E2E2E2E2E2E2E2E2E2E2E2E2E2E2E2E2E2E2E2E2E2E2E2E2E2E2E2E2E2E2E2E2E2E2E2E2E2E2E2E2E2E2E2E2E2E2E2E2E2E2E2E2E2E2E2E2E2E2E2E2E2E2E2E2E2E2E2E2E2E2E2E2E2E2E2E2E2E2E2E2E2E2E2E2E2E2E2E2E2E2E2E2E2E2E2E2E2E2E2E2E2E2E2E2E2E2E2E2
310
E2E2E2E2E2E2E2E2E2E2E2E2E2E2E2E2E2E2E2E2E2E2E2E2E2E2E2E2E2E2E2E2E2E2E2E2E2E2E2E2E2E2E2E2E2E2E2E2E2E2E2E2E2E2E2E2E2E2E2E2E2E2E2E2E2E2E2E2E2E2E2E2E2E2E2E2E2E2E2E2E2E2E2E2E2E2E2E2E2E2E2E2E2E2E2E2E2E2E2E2E2E2E2E2E2E2E2E2E2E2E2E2E2E2E2E2E2E2E2E2E2E2E2E2E2E2E2
310
E2E2E2E2E2E2E2E2E2E2E2E2E2E2E2E2E2E2E2E2E2E2E2E2E2E2E2E2E2E2E2E2E2E2E2E2E2E2E2E2E2E2E2E2E2E2E2E2E2E2E2E2E2E2E2E2E2E2E2E2E2E2E2E2E2E2E2E2E2E2E2E2E2E2E2E2E2E2E2E2E2E2E2E2E2E2E2E2E2E2E2E2E2E2E2E2E2E2E2E2E2E2E2E2E2E2E2E2E2E2E2E2E2E2E2E2E2E2E2E2E2E2E2E2E2E2E2
310
E2E2E2E2E2E2E2E2E2E2E2E2E2E2E2E2E2E2E2E2E2E2E2E2E2E2E2E2E2E2E2E2E2E2E2E2E2E2E2E2E2E2E2E2E2E2E2E2E2E2E2E2E2E2E2E2E2E2E2E2E2E2E2E2E2E2E2E2E2E2E2E2E2E2E2E2E2E2E2E2E2E2E2E2E2E2E2E2E2E2E2E2E2E2E2E2E2E2E2E2E2E2E2E2E2E2E2E2E2E2E2E2E2E2E2E2E2E2E2E2E2E2E2E2E2E2E2
310
E2E2E2E2E2E2E2E2E2E2E2E2E2E2E2E2E2E2E2E2E2E2E2E2E2E2E2E2E2E2E2E2E2E2E2E2E2E2E2E2E2E2E2E2E2E2E2E2E2E2E2E2E2E2E2E2E2E2E2E2E2E2E2E2E2E2E2E2E2E2E2E2E2E2E2E2E2E2E2E2E2E2E2E2E2E2E2E2E2E2E2E2E2E2E2E2E2E2E2E2E2E2E2E2E2E2E2E2E2E2E2E2E2E2E2E2E2E2E2E2E2E2E2E2E2E2E2
310
E2E2E2E2E2E2E2E2E2E2E2E2E2E2E2E2E2E2E2E2E2E2E2E2E2E2E2E2E2E2E2E2E2E2E2E2E2E2E2E2E2E2E2E2E2E2E2E2E2E2E2E2E2E2E2E2E2E2E2E2E2E2E2E2E2E2E2E2E2E2E2E2E2E2E2E2E2E2E2E2E2E2E2E2E2E2E2E2E2E2E2E2E2E2E2E2E2E2E2E2E2E2E2E2E2E2E2E2E2E2E2E2E2E2E2E2E2E2E2E2E2E2E2E2E2E2E2
310
E2E2E2E2E2E2E2E2E2E2E2E2E2E2E2E2E2E2E2E2E2E2E2E2E2E2E2E2E2E2E2E2E2E2E2E2E2E2E2E2E2E2E2E2E2E2E2E2E2E2E2E2E2E2E2E2E2E2E2E2E2E2E2E2E2E2E2E2E2E2E2E2E2E2E2E2E2E2E2E2E2E2E2E2E2E2E2E2E2E2E2E2E2E2E2E2E2E2E2E2E2E2E2E2E2E2E2E2E2E2E2E2E2E2E2E2E2E2E2E2E2E2E2E2E2E2E2
310
E2E2E2E2E2E2E2E2E2E2E2E2E2E2E2E2E2E2E2E2E2E2E2E2E2E2E2E2E2E2E2E2E2E2E2E2E2E2E2E2E2E2E2E2E2E2E2E2E2E2E2E2E2E2E2E2E2E2E2E2E2E2E2E2E2E2E2E2E2E2E2E2E2E2E2E2E2E2E2E2E2E2E2E2E2E2E2E2E2E2E2E2E2E2E2E2E2E2E2E2E2E2E2E2E2E2E2E2E2E2E2E2E2E2E2E2E2E2E2E2E2E2E2E2E2E2E2
310
E2E2E2E2E2E2E2E2E2E2E2E2E2E2E2E2E2E2E2E2E2E2E2E2E2E2E2E2E2E2E2E2E2E2E2E2E2E2E2E2E2E2E2E2E2E2E2E2E2E2E2E2E2E2E2E2E2E2E2E2E2E2E2E2E2E2E2E2E2E2E2E2E2E2E2E2E2E2E2E2E2E2E2E2E2E2E2E2E2E2E2E2E2E2E2E2E2E2E2E2E2E2E2E2E2E2E2E2E2E2E2E2E2E2E2E2E2E2E2E2E2E2E2E2E2E2E2
310
E2E2E2E2E2E2E2E2E2E2E2E2E2E2E2E2E2E2E2E2E2E2E2E2E2E2E2E2E2E2E2E2E2E2E2E2E2E2E2E2E2E2E2E2E2E2E2E2E2E2E2E2E2E2E2E2E2E2E2E2E2E2E2E2E2E2E2E2E2E2E2E2E2E2E2E2E2E2E2E2E2E2E2E2E2E2E2E2E2E2E2E2E2E2E2E2E2E2E2E2E2E2E2E2E2E2E2E2E2E2E2E2E2E2E2E2E2E2E2E2E2E2E2E2E2E2E2
310
E2E2E2E2E2E2E2E2E2E2E2E2E2E2E2E2E2E2E2E2E2E2E2E2E2E2E2E2E2E2E2E2E2E2E2E2E2E2E2E2E2E2E2E2E2E2E2E2E2E2E2E2E2E2E2E2E2E2E2E2E2E2E2E2E2E2E2E2E2E2E2E2E2E2E2E2E2E2E2E2E2E2E2E2E2E2E2E2E2E2E2E2E2E2E2E2E2E2E2E2E2E2E2E2E2E2E2E2E2E2E2E2E2E2E2E2E2E2E2E2E2E2E2E2E2E2E2
310
E2E2E2E2E2E2E2E2E2E2E2E2E2E2E2E2E2E2E2E2E2E2E2E2E2E2E2E2E2E2E2E2E2E2E2E2E2E2E2E2E2E2E2E2E2E2E2E2E2E2E2E2E2E2E2E2E2E2E2E2E2E2E2E2E2E2E2E2E2E2E2E2E2E2E2E2E2E2E2E2E2E2E2E2E2E2E2E2E2E2E2E2E2E2E2E2E2E2E2E2E2E2E2E2E2E2E2E2E2E2E2E2E2E2E2E2E2E2E2E2E2E2E2E2E2E2E2
310
E2E2E2E2E2E2E2E2E2E2E2E2E2E2E2E2E2E2E2E2E2E2E2E2E2E2E2E2E2E2E2E2E2E2E2E2E2E2E2E2E2E2E2E2E2E2E2E2E2E2E2E2E2E2E2E2E2E2E2E2E2E2E2E2E2E2E2E2E2E2E2E2E2E2E2E2E2E2E2E2E2E2E2E2E2E2E2E2E2E2E2E2E2E2E2E2E2E2E2E2E2E2E2E2E2E2E2E2E2E2E2E2E2E2E2E2E2E2E2E2E2E2E2E2E2E2E2
310
E2E2E2E2E2E2E2E2E2E2E2E2E2E2E2E2E2E2E2E2E2E2E2E2E2E2E2E2E2E2E2E2E2E2E2E2E2E2E2E2E2E2E2E2E2E2E2E2E2E2E2E2E2E2E2E2E2E2E2E2E2E2E2E2E2E2E2E2E2E2E2E2E2E2E2E2E2E2E2E2E2E2E2E2E2E2E2E2E2E2E2E2E2E2E2E2E2E2E2E2E2E2E2E2E2E2E2E2E2E2E2E2E2E2E2E2E2E2E2E2E2E2E2E2E2E2E2
310
E2E2E2E2E2E2E2E2E2E2E2E2E2E2E2E2E2E2E2E2E2E2E2E2E2E2E2E2E2E2E2E2E2E2E2E2E2E2E2E2E2E2E2E2E2E2E2E2E2E2E2E2E2E2E2E2E2E2E2E2E2E2E2E2E2E2E2E2E2E2E2E2E2E2E2E2E2E2E2E2E2E2E2E2E2E2E2E2E2E2E2E2E2E2E2E2E2E2E2E2E2E2E2E2E2E2E2E2E2E2E2E2E2E2E2E2E2E2E2E2E2E2E2E2E2E2E2
310
E2E2E2E2E2E2E2E2E2E2E2E2E2E2E2E2E2E2E2E2E2E2E2E2E2E2E2E2E2E2E2E2E2E2E2E2E2E2E2E2E2E2E2E2E2E2E2E2E2E2E2E2E2E2E2E2E2E2E2E2E2E2E2E2E2E2E2E2E2E2E2E2E2E2E2E2E2E2E2E2E2E2E2E2E2E2E2E2E2E2E2E2E2E2E2E2E2E2E2E2E2E2E2E2E2E2E2E2E2E2E2E2E2E2E2E2E2E2E2E2E2E2E2E2E2E2E2
310
E2E2E2E2E2E2E2E2E2E2E2E2E2E2E2E2E2E2E2E2E2E2E2E2E2E2E2E2E2E2E2E2E2E2E2E2E2E2E2E2E2E2E2E2E2E2E2E2E2E2E2E2E2E2E2E2E2E2E2E2E2E2E2E2E2E2E2E2E2E2E2E2E2E2E2E2E2E2E2E2E2E2E2E2E2E2E2E2E2E2E2E2E2E2E2E2E2E2E2E2E2E2E2E2E2E2E2E2E2E2E2E2E2E2E2E2E2E2E2E2E2E2E2E2E2E2E2
310
E2E2E2E2E2E2E2E2E2E2E2E2E2E2E2E2E2E2E2E2E2E2E2E2E2E2E2E2E2E2E2E2E2E2E2E2E2E2E2E2E2E2E2E2E2E2E2E2E2E2E2E2E2E2E2E2E2E2E2E2E2E2E2E2E2E2E2E2E2E2E2E2E2E2E2E2E2E2E2E2E2E2E2E2E2E2E2E2E2E2E2E2E2E2E2E2E2E2E2E2E2E2E2E2E2E2E2E2E2E2E2E2E2E2E2E2E2E2E2E2E2E2E2E2E2E2E2
310
E2E2E2E2E2E2E2E2E2E2E2E2E2E2E2E2E2E2E2E2E2E2E2E2E2E2E2E2E2E2E2E2E2E2E2E2E2E2E2E2E2E2E2E2E2E2E2E2E2E2E2E2E2E2E2E2E2E2E2E2E2E2E2E2E2E2E2E2E2E2E2E2E2E2E2E2E2E2E2E2E2E2E2E2E2E2E2E2E2E2E2E2E2E2E2E2E2E2E2E2E2E2E2E2E2E2E2E2E2E2E2E2E2E2E2E2E2E2E2E2E2E2E2E2E2E2E2
310
E2E2E2E2E2E2E2E2E2E2E2E2E2E2E2E2E2E2E2E2E2E2E2E2E2E2E2E2E2E2E2E2E2E2E2E2E2E2E2E2E2E2E2E2E2E2E2E2E2E2E2E2E2E2E2E2E2E2E2E2E2E2E2E2E2E2E2E2E2E2E2E2E2E2E2E2E2E2E2E2E2E2E2E2E2E2E2E2E2E2E2E2E2E2E2E2E2E2E2E2E2E2E2E2E2E2E2E2E2E2E2E2E2E2E2E2E2E2E2E2E2E2E2E2E2E2E2
310
E2E2E2E2E2E2E2E2E2E2E2E2E2E2E2E2E2E2E2E2E2E2E2E2E2E2E2E2E2E2E2E2E2E2E2E2E2E2E2E2E2E2E2E2E2E2E2E2E2E2E2E2E2E2E2E2E2E2E2E2E2E2E2E2E2E2E2E2E2E2E2E2E2E2E2E2E2E2E2E2E2E2E2E2E2E2E2E2E2E2E2E2E2E2E2E2E2E2E2E2E2E2E2E2E2E2E2E2E2E2E2E2E2E2E2E2E2E2E2E2E2E2E2E2E2E2E2
310
E2E2E2E2E2E2E2E2E2E2E2E2E2E2E2E2E2E2E2E2E2E2E2E2E2E2E2E2E2E2E2E2E2E2E2E2E2E2E2E2E2E2E2E2E2E2E2E2E2E2E2E2E2E2E2E2E2E2E2E2E2E2E2E2E2E2E2E2E2E2E2E2E2E2E2E2E2E2E2E2E2E2E2E2E2E2E2E2E2E2E2E2E2E2E2E2E2E2E2E2E2E2E2E2E2E2E2E2E2E2E2E2E2E2E2E2E2E2E2E2E2E2E2E2E2E2E2
310
E2E2E2E2E2E2E2E2E2E2E2E2E2E2E2E2E2E2E2E2E2E2E2E2E2E2E2E2E2E2E2E2E2E2E2E2E2E2E2E2E2E2E2E2E2E2E2E2E2E2E2E2E2E2E2E2E2E2E2E2E2E2E2E2E2E2E2E2E2E2E2E2E2E2E2E2E2E2E2E2E2E2E2E2E2E2E2E2E2E2E2E2E2E2E2E2E2E2E2E2E2E2E2E2E2E2E2E2E2E2E2E2E2E2E2E2E2E2E2E2E2E2E2E2E2E2E2
310
E2E2E2E2E2E2E2E2E2E2E2E2E2E2E2E2E2E2E2E2E2E2E2E2E2E2E2E2E2E2E2E2E2E2E2E2E2E2E2E2E2E2E2E2E2E2E2E2E2E2E2E2E2E2E2E2E2E2E2E2E2E2E2E2E2E2E2E2E2E2E2E2E2E2E2E2E2E2E2E2E2E2E2E2E2E2E2E2E2E2E2E2E2E2E2E2E2E2E2E2E2E2E2E2E2E2E2E2E2E2E2E2E2E2E2E2E2E2E2E2E2E2E2E2E2E2E2
310
E2E2E2E2E2E2E2E2E2E2E2E2E2E2E2E2E2E2E2E2E2E2E2E2E2E2E2E2E2E2E2E2E2E2E2E2E2E2E2E2E2E2E2E2E2E2E2E2E2E2E2E2E2E2E2E2E2E2E2E2E2E2E2E2E2E2E2E2E2E2E2E2E2E2E2E2E2E2E2E2E2E2E2E2E2E2E2E2E2E2E2E2E2E2E2E2E2E2E2E2E2E2E2E2E2E2E2E2E2E2E2E2E2E2E2E2E2E2E2E2E2E2E2E2E2E2E2
310
E2E2E2E2E2E2E2E2E2E2E2E2E2E2E2E2E2E2E2E2E2E2E2E2E2E2E2E2E2E2E2E2E2E2E2E2E2E2E2E2E2E2E2E2E2E2E2E2E2E2E2E2E2E2E2E2E2E2E2E2E2E2E2E2E2E2E2E2E2E2E2E2E2E2E2E2E2E2E2E2E2E2E2E2E2E2E2E2E2E2E2E2E2E2E2E2E2E2E2E2E2E2E2E2E2E2E2E2E2E2E2E2E2E2E2E2E2E2E2E2E2E2E2E2E2E2E2
310
E2E2E2E2E2E2E2E2E2E2E2E2E2E2E2E2E2E2E2E2E2E2E2E2E2E2E2E2E2E2E2E2E2E2E2E2E2E2E2E2E2E2E2E2E2E2E2E2E2E2E2E2E2E2E2E2E2E2E2E2E2E2E2E2E2E2E2E2E2E2E2E2E2E2E2E2E2E2E2E2E2E2E2E2E2E2E2E2E2E2E2E2E2E2E2E2E2E2E2E2E2E2E2E2E2E2E2E2E2E2E2E2E2E2E2E2E2E2E2E2E2E2E2E2E2E2E2
310
E2E2E2E2E2E2E2E2E2E2E2E2E2E2E2E2E2E2E2E2E2E2E2E2E2E2E2E2E2E2E2E2E2E2E2E2E2E2E2E2E2E2E2E2E2E2E2E2E2E2E2E2E2E2E2E2E2E2E2E2E2E2E2E2E2E2E2E2E2E2E2E2E2E2E2E2E2E2E2E2E2E2E2E2E2E2E2E2E2E2E2E2E2E2E2E2E2E2E2E2E2E2E2E2E2E2E2E2E2E2E2E2E2E2E2E2E2E2E2E2E2E2E2E2E2E2E2
310
E2E2E2E2E2E2E2E2E2E2E2E2E2E2E2E2E2E2E2E2E2E2E2E2E2E2E2E2E2E2E2E2E2E2E2E2E2E2E2E2E2E2E2E2E2E2E2E2E2E2E2E2E2E2E2E2E2E2E2E2E2E2E2E2E2E2E2E2E2E2E2E2E2E2E2E2E2E2E2E2E2E2E2E2E2E2E2E2E2E2E2E2E2E2E2E2E2E2E2E2E2E2E2E2E2E2E2E2E2E2E2E2E2E2E2E2E2E2E2E2E2E2E2E2E2E2E2
310
E2E2E2E2E2E2E2E2E2E2E2E2E2E2E2E2E2E2E2E2E2E2E2E2E2E2E2E2E2E2E2E2E2E2E2E2E2E2E2E2E2E2E2E2E2E2E2E2E2E2E2E2E2E2E2E2E2E2E2E2E2E2E2E2E2E2E2E2E2E2E2E2E2E2E2E2E2E2E2E2E2E2E2E2E2E2E2E2E2E2E2E2E2E2E2E2E2E2E2E2E2E2E2E2E2E2E2E2E2E2E2E2E2E2E2E2E2E2E2E2E2E2E2E2E2E2E2
310
E2E2E2E2E2E2E2E2E2E2E2E2E2E2E2E2E2E2E2E2E2E2E2E2E2E2E2E2E2E2E2E2E2E2E2E2E2E2E2E2E2E2E2E2E2E2E2E2E2E2E2E2E2E2E2E2E2E2E2E2E2E2E2E2E2E2E2E2E2E2E2E2E2E2E2E2E2E2E2E2E2E2E2E2E2E2E2E2E2E2E2E2E2E2E2E2E2E2E2E2E2E2E2E2E2E2E2E2E2E2E2E2E2E2E2E2E2E2E2E2E2E2E2E2E2E2E2
310
E2E2E2E2E2E2E2E2E2E2E2E2E2E2E2E2E2E2E2E2E2E2E2E2E2E2E2E2E2E2E2E2E2E2E2E2E2E2E2E2E2E2E2E2E2E2E2E2E2E2E2E2E2E2E2E2E2E2E2E2E2E2E2E2E2E2E2E2E2E2E2E2E2E2E2E2E2E2E2E2E2E2E2E2E2E2E2E2E2E2E2E2E2E2E2E2E2E2E2E2E2E2E2E2E2E2E2E2E2E2E2E2E2E2E2E2E2E2E2E2E2E2E2E2E2E2E2
310
E2E2E2E2E2E2E2E2E2E2E2E2E2E2E2E2E2E2E2E2E2E2E2E2E2E2E2E2E2E2E2E2E2E2E2E2E2E2E2E2E2E2E2E2E2E2E2E2E2E2E2E2E2E2E2E2E2E2E2E2E2E2E2E2E2E2E2E2E2E2E2E2E2E2E2E2E2E2E2E2E2E2E2E2E2E2E2E2E2E2E2E2E2E2E2E2E2E2E2E2E2E2E2E2E2E2E2E2E2E2E2E2E2E2E2E2E2E2E2E2E2E2E2E2E2E2E2
310
E2E2E2E2E2E2E2E2E2E2E2E2E2E2E2E2E2E2E2E2E2E2E2E2E2E2E2E2E2E2E2E2E2E2E2E2E2E2E2E2E2E2E2E2E2E2E2E2E2E2E2E2E2E2E2E2E2E2E2E2E2E2E2E2E2E2E2E2E2E2E2E2E2E2E2E2E2E2E2E2E2E2E2E2E2E2E2E2E2E2E2E2E2E2E2E2E2E2E2E2E2E2E2E2E2E2E2E2E2E2E2E2E2E2E2E2E2E2E2E2E2E2E2E2E2E2E2
310
E2E2E2E2E2E2E2E2E2E2E2E2E2E2E2E2E2E2E2E2E2E2E2E2E2E2E2E2E2E2E2E2E2E2E2E2E2E2E2E2E2E2E2E2E2E2E2E2E2E2E2E2E2E2E2E2E2E2E2E2E2E2E2E2E2E2E2E2E2E2E2E2E2E2E2E2E2E2E2E2E2E2E2E2E2E2E2E2E2E2E2E2E2E2E2E2E2E2E2E2E2E2E2E2E2E2E2E2E2E2E2E2E2E2E2E2E2E2E2E2E2E2E2E2E2E2E2
310
E2E2E2E2E2E2E2E2E2E2E2E2E2E2E2E2E2E2E2E2E2E2E2E2E2E2E2E2E2E2E2E2E2E2E2E2E2E2E2E2E2E2E2E2E2E2E2E2E2E2E2E2E2E2E2E2E2E2E2E2E2E2E2E2E2E2E2E2E2E2E2E2E2E2E2E2E2E2E2E2E2E2E2E2E2E2E2E2E2E2E2E2E2E2E2E2E2E2E2E2E2E2E2E2E2E2E2E2E2E2E2E2E2E2E2E2E2E2E2E2E2E2E2E2E2E2E2
310
E2E2E2E2E2E2E2E2E2E2E2E2E2E2E2E2E2E2E2E2E2E2E2E2E2E2E2E2E2E2E2E2E2E2E2E2E2E2E2E2E2E2E2E2E2E2E2E2E2E2E2E2E2E2E2E2E2E2E2E2E2E2E2E2E2E2E2E2E2E2E2E2E2E2E2E2E2E2E2E2E2E2E2E2E2E2E2E2E2E2E2E2E2E2E2E2E2E2E2E2E2E2E2E2E2E2E2E2E2E2E2E2E2E2E2E2E2E2E2E2E2E2E2E2E2E2E2
310
E2E2E2E2E2E2E2E2E2E2E2E2E2E2E2E2E2E2E2E2E2E2E2E2E2E2E2E2E2E2E2E2E2E2E2E2E2E2E2E2E2E2E2E2E2E2E2E2E2E2E2E2E2E2E2E2E2E2E2E2E2E2E2E2E2E2E2E2E2E2E2E2E2E2E2E2E2E2E2E2E2E2E2E2E2E2E2E2E2E2E2E2E2E2E2E2E2E2E2E2E2E2E2E2E2E2E2E2E2E2E2E2E2E2E2E2E2E2E2E2E2E2E2E2E2E2E2
310
E2E2E2E2E2E2E2E2E2E2E2E2E2E2E2E2E2E2E2E2E2E2E2E2E2E2E2E2E2E2E2E2E2E2E2E2E2E2E2E2E2E2E2E2E2E2E2E2E2E2E2E2E2E2E2E2E2E2E2E2E2E2E2E2E2E2E2E2E2E2E2E2E2E2E2E2E2E2E2E2E2E2E2E2E2E2E2E2E2E2E2E2E2E2E2E2E2E2E2E2E2E2E2E2E2E2E2E2E2E2E2E2E2E2E2E2E2E2E2E2E2E2E2E2E2E2E2
310
E2E2E2E2E2E2E2E2E2E2E2E2E2E2E2E2E2E2E2E2E2E2E2E2E2E2E2E2E2E2E2E2E2E2E2E2E2E2E2E2E2E2E2E2E2E2E2E2E2E2E2E2E2E2E2E2E2E2E2E2E2E2E2E2E2E2E2E2E2E2E2E2E2E2E2E2E2E2E2E2E2E2E2E2E2E2E2E2E2E2E2E2E2E2E2E2E2E2E2E2E2E2E2E2E2E2E2E2E2E2E2E2E2E2E2E2E2E2E2E2E2E2E2E2E2E2E2
310
E2E2E2E2E2E2E2E2E2E2E2E2E2E2E2E2E2E2E2E2E2E2E2E2E2E2E2E2E2E2E2E2E2E2E2E2E2E2E2E2E2E2E2E2E2E2E2E2E2E2E2E2E2E2E2E2E2E2E2E2E2E2E2E2E2E2E2E2E2E2E2E2E2E2E2E2E2E2E2E2E2E2E2E2E2E2E2E2E2E2E2E2E2E2E2E2E2E2E2E2E2E2E2E2E2E2E2E2E2E2E2E2E2E2E2E2E2E2E2E2E2E2E2E2E2E2E2
310
E2E2E2E2E2E2E2E2E2E2E2E2E2E2E2E2E2E2E2E2E2E2E2E2E2E2E2E2E2E2E2E2E2E2E2E2E2E2E2E2E2E2E2E2E2E2E2E2E2E2E2E2E2E2E2E2E2E2E2E2E2E2E2E2E2E2E2E2E2E2E2E2E2E2E2E2E2E2E2E2E2E2E2E2E2E2E2E2E2E2E2E2E2E2E2E2E2E2E2E2E2E2E2E2E2E2E2E2E2E2E2E2E2E2E2E2E2E2E2E2E2E2E2E2E2E2E2
310
E2E2E2E2E2E2E2E2E2E2E2E2E2E2E2E2E2E2E2E2E2E2E2E2E2E2E2E2E2E2E2E2E2E2E2E2E2E2E2E2E2E2E2E2E2E2E2E2E2E2E2E2E2E2E2E2E2E2E2E2E2E2E2E2E2E2E2E2E2E2E2E2E2E2E2E2E2E2E2E2E2E2E2E2E2E2E2E2E2E2E2E2E2E2E2E2E2E2E2E2E2E2E2E2E2E2E2E2E2E2E2E2E2E2E2E2E2E2E2E2E2E2E2E2E2E2E2
310
E2E2E2E2E2E2E2E2E2E2E2E2E2E2E2E2E2E2E2E2E2E2E2E2E2E2E2E2E2E2E2E2E2E2E2E2E2E2E2E2E2E2E2E2E2E2E2E2E2E2E2E2E2E2E2E2E2E2E2E2E2E2E2E2E2E2E2E2E2E2E2E2E2E2E2E2E2E2E2E2E2E2E2E2E2E2E2E2E2E2E2E2E2E2E2E2E2E2E2E2E2E2E2E2E2E2E2E2E2E2E2E2E2E2E2E2E2E2E2E2E2E2E2E2E2E2E2
310
E2E2E2E2E2E2E2E2E2E2E2E2E2E2E2E2E2E2E2E2E2E2E2E2E2E2E2E2E2E2E2E2E2E2E2E2E2E2E2E2E2E2E2E2E2E2E2E2E2E2E2E2E2E2E2E2E2E2E2E2E2E2E2E2E2E2E2E2E2E2E2E2E2E2E2E2E2E2E2E2E2E2E2E2E2E2E2E2E2E2E2E2E2E2E2E2E2E2E2E2E2E2E2E2E2E2E2E2E2E2E2E2E2E2E2E2E2E2E2E2E2E2E2E2E2E2E2
310
E2E2E2E2E2E2E2E2E2E2E2E2E2E2E2E2E2E2E2E2E2E2E2E2E2E2E2E2E2E2E2E2E2E2E2E2E2E2E2E2E2E2E2E2E2E2E2E2E2E2E2E2E2E2E2E2E2E2E2E2E2E2E2E2E2E2E2E2E2E2E2E2E2E2E2E2E2E2E2E2E2E2E2E2E2E2E2E2E2E2E2E2E2E2E2E2E2E2E2E2E2E2E2E2E2E2E2E2E2E2E2E2E2E2E2E2E2E2E2E2E2E2E2E2E2E2E2
310
E2E2E2E2E2E2E2E2E2E2E2E2E2E2E2E2E2E2E2E2E2E2E2E2E2E2E2E2E2E2E2E2E2E2E2E2E2E2E2E2E2E2E2E2E2E2E2E2E2E2E2E2E2E2E2E2E2E2E2E2E2E2E2E2E2E2E2E2E2E2E2E2E2E2E2E2E2E2E2E2E2E2E2E2E2E2E2E2E2E2E2E2E2E2E2E2E2E2E2E2E2E2E2E2E2E2E2E2E2E2E2E2E2E2E2E2E2E2E2E2E2E2E2E2E2E2E2
310
E2E2E2E2E2E2E2E2E2E2E2E2E2E2E2E2E2E2E2E2E2E2E2E2E2E2E2E2E2E2E2E2E2E2E2E2E2E2E2E2E2E2E2E2E2E2E2E2E2E2E2E2E2E2E2E2E2E2E2E2E2E2E2E2E2E2E2E2E2E2E2E2E2E2E2E2E2E2E2E2E2E2E2E2E2E2E2E2E2E2E2E2E2E2E2E2E2E2E2E2E2E2E2E2E2E2E2E2E2E2E2E2E2E2E2E2E2E2E2E2E2E2E2E2E2E2E2
310
E2E2E2E2E2E2E2E2E2E2E2E2E2E2E2E2E2E2E2E2E2E2E2E2E2E2E2E2E2E2E2E2E2E2E2E2E2E2E2E2E2E2E2E2E2E2E2E2E2E2E2E2E2E2E2E2E2E2E2E2E2E2E2E2E2E2E2E2E2E2E2E2E2E2E2E2E2E2E2E2E2E2E2E2E2E2E2E2E2E2E2E2E2E2E2E2E2E2E2E2E2E2E2E2E2E2E2E2E2E2E2E2E2E2E2E2E2E2E2E2E2E2E2E2E2E2E2
310
E2E2E2E2E2E2E2E2E2E2E2E2E2E2E2E2E2E2E2E2E2E2E2E2E2E2E2E2E2E2E2E2E2E2E2E2E2E2E2E2E2E2E2E2E2E2E2E2E2E2E2E2E2E2E2E2E2E2E2E2E2E2E2E2E2E2E2E2E2E2E2E2E2E2E2E2E2E2E2E2E2E2E2E2E2E2E2E2E2E2E2E2E2E2E2E2E2E2E2E2E2E2E2E2E2E2E2E2E2E2E2E2E2E2E2E2E2E2E2E2E2E2E2E2E2E2E2
310
E2E2E2E2E2E2E2E2E2E2E2E2E2E2E2E2E2E2E2E2E2E2E2E2E2E2E2E2E2E2E2E2E2E2E2E2E2E2E2E2E2E2E2E2E2E2E2E2E2E2E2E2E2E2E2E2E2E2E2E2E2E2E2E2E2E2E2E2E2E2E2E2E2E2E2E2E2E2E2E2E2E2E2E2E2E2E2E2E2E2E2E2E2E2E2E2E2E2E2E2E2E2E2E2E2E2E2E2E2E2E2E2E2E2E2E2E2E2E2E2E2E2E2E2E2E2E2
310
E2E2E2E2E2E2E2E2E2E2E2E2E2E2E2E2E2E2E2E2E2E2E2E2E2E2E2E2E2E2E2E2E2E2E2E2E2E2E2E2E2E2E2E2E2E2E2E2E2E2E2E2E2E2E2E2E2E2E2E2E2E2E2E2E2E2E2E2E2E2E2E2E2E2E2E2E2E2E2E2E2E2E2E2E2E2E2E2E2E2E2E2E2E2E2E2E2E2E2E2E2E2E2E2E2E2E2E2E2E2E2E2E2E2E2E2E2E2E2E2E2E2E2E2E2E2E2
310
E2E2E2E2E2E2E2E2E2E2E2E2E2E2E2E2E2E2E2E2E2E2E2E2E2E2E2E2E2E2E2E2E2E2E2E2E2E2E2E2E2E2E2E2E2E2E2E2E2E2E2E2E2E2E2E2E2E2E2E2E2E2E2E2E2E2E2E2E2E2E2E2E2E2E2E2E2E2E2E2E2E2E2E2E2E2E2E2E2E2E2E2E2E2E2E2E2E2E2E2E2E2E2E2E2E2E2E2E2E2E2E2E2E2E2E2E2E2E2E2E2E2E2E2E2E2E2
310
E2E2E2E2E2E2E2E2E2E2E2E2E2E2E2E2E2E2E2E2E2E2E2E2E2E2E2E2E2E2E2E2E2E2E2E2E2E2E2E2E2E2E2E2E2E2E2E2E2E2E2E2E2E2E2E2E2E2E2E2E2E2E2E2E2E2E2E2E2E2E2E2E2E2E2E2E2E2E2E2E2E2E2E2E2E2E2E2E2E2E2E2E2E2E2E2E2E2E2E2E2E2E2E2E2E2E2E2E2E2E2E2E2E2E2E2E2E2E2E2E2E2E2E2E2E2E2
310
E2E2E2E2E2E2E2E2E2E2E2E2E2E2E2E2E2E2E2E2E2E2E2E2E2E2E2E2E2E2E2E2E2E2E2E2E2E2E2E2E2E2E2E2E2E2E2E2E2E2E2E2E2E2E2E2E2E2E2E2E2E2E2E2E2E2E2E2E2E2E2E2E2E2E2E2E2E2E2E2E2E2E2E2E2E2E2E2E2E2E2E2E2E2E2E2E2E2E2E2E2E2E2E2E2E2E2E2E2E2E2E2E2E2E2E2E2E2E2E2E2E2E2E2E2E2E2
310
E2E2E2E2E2E2E2E2E2E2E2E2E2E2E2E2E2E2E2E2E2E2E2E2E2E2E2E2E2E2E2E2E2E2E2E2E2E2E2E2E2E2E2E2E2E2E2E2E2E2E2E2E2E2E2E2E2E2E2E2E2E2E2E2E2E2E2E2E2E2E2E2E2E2E2E2E2E2E2E2E2E2E2E2E2E2E2E2E2E2E2E2E2E2E2E2E2E2E2E2E2E2E2E2E2E2E2E2E2E2E2E2E2E2E2E2E2E2E2E2E2E2E2E2E2E2E2
310
E2E2E2E2E2E2E2E2E2E2E2E2E2E2E2E2E2E2E2E2E2E2E2E2E2E2E2E2E2E2E2E2E2E2E2E2E2E2E2E2E2E2E2E2E2E2E2E2E2E2E2E2E2E2E2E2E2E2E2E2E2E2E2E2E2E2E2E2E2E2E2E2E2E2E2E2E2E2E2E2E2E2E2E2E2E2E2E2E2E2E2E2E2E2E2E2E2E2E2E2E2E2E2E2E2E2E2E2E2E2E2E2E2E2E2E2E2E2E2E2E2E2E2E2E2E2E2
310
E2E2E2E2E2E2E2E2E2E2E2E2E2E2E2E2E2E2E2E2E2E2E2E2E2E2E2E2E2E2E2E2E2E2E2E2E2E2E2E2E2E2E2E2E2E2E2E2E2E2E2E2E2E2E2E2E2E2E2E2E2E2E2E2E2E2E2E2E2E2E2E2E2E2E2E2E2E2E2E2E2E2E2E2E2E2E2E2E2E2E2E2E2E2E2E2E2E2E2E2E2E2E2E2E2E2E2E2E2E2E2E2E2E2E2E2E2E2E2E2E2E2E2E2E2E2E2
310
E2E2E2E2E2E2E2E2E2E2E2E2E2E2E2E2E2E2E2E2E2E2E2E2E2E2E2E2E2E2E2E2E2E2E2E2E2E2E2E2E2E2E2E2E2E2E2E2E2E2E2E2E2E2E2E2E2E2E2E2E2E2E2E2E2E2E2E2E2E2E2E2E2E2E2E2E2E2E2E2E2E2E2E2E2E2E2E2E2E2E2E2E2E2E2E2E2E2E2E2E2E2E2E2E2E2E2E2E2E2E2E2E2E2E2E2E2E2E2E2E2E2E2E2E2E2E2
310
E2E2E2E2E2E2E2E2E2E2E2E2E2E2E2E2E2E2E2E2E2E2E2E2E2E2E2E2E2E2E2E2E2E2E2E2E2E2E2E2E2E2E2E2E2E2E2E2E2E2E2E2E2E2E2E2E2E2E2E2E2E2E2E2E2E2E2E2E2E2E2E2E2E2E2E2E2E2E2E2E2E2E2E2E2E2E2E2E2E2E2E2E2E2E2E2E2E2E2E2E2E2E2E2E2E2E2E2E2E2E2E2E2E2E2E2E2E2E2E2E2E2E2E2E2E2E2
310
E2E2E2E2E2E2E2E2E2E2E2E2E2E2E2E2E2E2E2E2E2E2E2E2E2E2E2E2E2E2E2E2E2E2E2E2E2E2E2E2E2E2E2E2E2E2E2E2E2E2E2E2E2E2E2E2E2E2E2E2E2E2E2E2E2E2E2E2E2E2E2E2E2E2E2E2E2E2E2E2E2E2E2E2E2E2E2E2E2E2E2E2E2E2E2E2E2E2E2E2E2E2E2E2E2E2E2E2E2E2E2E2E2E2E2E2E2E2E2E2E2E2E2E2E2E2E2
310
E2E2E2E2E2E2E2E2E2E2E2E2E2E2E2E2E2E2E2E2E2E2E2E2E2E2E2E2E2E2E2E2E2E2E2E2E2E2E2E2E2E2E2E2E2E2E2E2E2E2E2E2E2E2E2E2E2E2E2E2E2E2E2E2E2E2E2E2E2E2E2E2E2E2E2E2E2E2E2E2E2E2E2E2E2E2E2E2E2E2E2E2E2E2E2E2E2E2E2E2E2E2E2E2E2E2E2E2E2E2E2E2E2E2E2E2E2E2E2E2E2E2E2E2E2E2E2
310
E2E2E2E2E2E2E2E2E2E2E2E2E2E2E2E2E2E2E2E2E2E2E2E2E2E2E2E2E2E2E2E2E2E2E2E2E2E2E2E2E2E2E2E2E2E2E2E2E2E2E2E2E2E2E2E2E2E2E2E2E2E2E2E2E2E2E2E2E2E2E2E2E2E2E2E2E2E2E2E2E2E2E2E2E2E2E2E2E2E2E2E2E2E2E2E2E2E2E2E2E2E2E2E2E2E2E2E2E2E2E2E2E2E2E2E2E2E2E2E2E2E2E2E2E2E2E2
310
E2E2E2E2E2E2E2E2E2E2E2E2E2E2E2E2E2E2E2E2E2E2E2E2E2E2E2E2E2E2E2E2E2E2E2E2E2E2E2E2E2E2E2E2E2E2E2E2E2E2E2E2E2E2E2E2E2E2E2E2E2E2E2E2E2E2E2E2E2E2E2E2E2E2E2E2E2E2E2E2E2E2E2E2E2E2E2E2E2E2E2E2E2E2E2E2E2E2E2E2E2E2E2E2E2E2E2E2E2E2E2E2E2E2E2E2E2E2E2E2E2E2E2E2E2E2E2
310
E2E2E2E2E2E2E2E2E2E2E2E2E2E2E2E2E2E2E2E2E2E2E2E2E2E2E2E2E2E2E2E2E2E2E2E2E2E2E2E2E2E2E2E2E2E2E2E2E2E2E2E2E2E2E2E2E2E2E2E2E2E2E2E2E2E2E2E2E2E2E2E2E2E2E2E2E2E2E2E2E2E2E2E2E2E2E2E2E2E2E2E2E2E2E2E2E2E2E2E2E2E2E2E2E2E2E2E2E2E2E2E2E2E2E2E2E2E2E2E2E2E2E2E2E2E2E2
310
E2E2E2E2E2E2E2E2E2E2E2E2E2E2E2E2E2E2E2E2E2E2E2E2E2E2E2E2E2E2E2E2E2E2E2E2E2E2E2E2E2E2E2E2E2E2E2E2E2E2E2E2E2E2E2E2E2E2E2E2E2E2E2E2E2E2E2E2E2E2E2E2E2E2E2E2E2E2E2E2E2E2E2E2E2E2E2E2E2E2E2E2E2E2E2E2E2E2E2E2E2E2E2E2E2E2E2E2E2E2E2E2E2E2E2E2E2E2E2E2E2E2E2E2E2E2E2
310
E2E2E2E2E2E2E2E2E2E2E2E2E2E2E2E2E2E2E2E2E2E2E2E2E2E2E2E2E2E2E2E2E2E2E2E2E2E2E2E2E2E2E2E2E2E2E2E2E2E2E2E2E2E2E2E2E2E2E2E2E2E2E2E2E2E2E2E2E2E2E2E2E2E2E2E2E2E2E2E2E2E2E2E2E2E2E2E2E2E2E2E2E2E2E2E2E2E2E2E2E2E2E2E2E2E2E2E2E2E2E2E2E2E2E2E2E2E2E2E2E2E2E2E2E2E2E2
310
E2E2E2E2E2E2E2E2E2E2E2E2E2E2E2E2E2E2E2E2E2E2E2E2E2E2E2E2E2E2E2E2E2E2E2E2E2E2E2E2E2E2E2E2E2E2E2E2E2E2E2E2E2E2E2E2E2E2E2E2E2E2E2E2E2E2E2E2E2E2E2E2E2E2E2E2E2E2E2E2E2E2E2E2E2E2E2E2E2E2E2E2E2E2E2E2E2E2E2E2E2E2E2E2E2E2E2E2E2E2E2E2E2E2E2E2E2E2E2E2E2E2E2E2E2E2E2
310
E2E2E2E2E2E2E2E2E2E2E2E2E2E2E2E2E2E2E2E2E2E2E2E2E2E2E2E2E2E2E2E2E2E2E2E2E2E2E2E2E2E2E2E2E2E2E2E2E2E2E2E2E2E2E2E2E2E2E2E2E2E2E2E2E2E2E2E2E2E2E2E2E2E2E2E2E2E2E2E2E2E2E2E2E2E2E2E2E2E2E2E2E2E2E2E2E2E2E2E2E2E2E2E2E2E2E2E2E2E2E2E2E2E2E2E2E2E2E2E2E2E2E2E2E2E2E2
310
E2E2E2E2E2E2E2E2E2E2E2E2E2E2E2E2E2E2E2E2E2E2E2E2E2E2E2E2E2E2E2E2E2E2E2E2E2E2E2E2E2E2E2E2E2E2E2E2E2E2E2E2E2E2E2E2E2E2E2E2E2E2E2E2E2E2E2E2E2E2E2E2E2E2E2E2E2E2E2E2E2E2E2E2E2E2E2E2E2E2E2E2E2E2E2E2E2E2E2E2E2E2E2E2E2E2E2E2E2E2E2E2E2E2E2E2E2E2E2E2E2E2E2E2E2E2E2
310
E2E2E2E2E2E2E2E2E2E2E2E2E2E2E2E2E2E2E2E2E2E2E2E2E2E2E2E2E2E2E2E2E2E2E2E2E2E2E2E2E2E2E2E2E2E2E2E2E2E2E2E2E2E2E2E2E2E2E2E2E2E2E2E2E2E2E2E2E2E2E2E2E2E2E2E2E2E2E2E2E2E2E2E2E2E2E2E2E2E2E2E2E2E2E2E2E2E2E2E2E2E2E2E2E2E2E2E2E2E2E2E2E2E2E2E2E2E2E2E2E2E2E2E2E2E2E2
310
E2E2E2E2E2E2E2E2E2E2E2E2E2E2E2E2E2E2E2E2E2E2E2E2E2E2E2E2E2E2E2E2E2E2E2E2E2E2E2E2E2E2E2E2E2E2E2E2E2E2E2E2E2E2E2E2E2E2E2E2E2E2E2E2E2E2E2E2E2E2E2E2E2E2E2E2E2E2E2E2E2E2E2E2E2E2E2E2E2E2E2E2E2E2E2E2E2E2E2E2E2E2E2E2E2E2E2E2E2E2E2E2E2E2E2E2E2E2E2E2E2E2E2E2E2E2E2
310
E2E2E2E2E2E2E2E2E2E2E2E2E2E2E2E2E2E2E2E2E2E2E2E2E2E2E2E2E2E2E2E2E2E2E2E2E2E2E2E2E2E2E2E2E2E2E2E2E2E2E2E2E2E2E2E2E2E2E2E2E2E2E2E2E2E2E2E2E2E2E2E2E2E2E2E2E2E2E2E2E2E2E2E2E2E2E2E2E2E2E2E2E2E2E2E2E2E2E2E2E2E2E2E2E2E2E2E2E2E2E2E2E2E2E2E2E2E2E2E2E2E2E2E2E2E2E2
310
E2E2E2E2E2E2E2E2E2E2E2E2E2E2E2E2E2E2E2E2E2E2E2E2E2E2E2E2E2E2E2E2E2E2E2E2E2E2E2E2E2E2E2E2E2E2E2E2E2E2E2E2E2E2E2E2E2E2E2E2E2E2E2E2E2E2E2E2E2E2E2E2E2E2E2E2E2E2E2E2E2E2E2E2E2E2E2E2E2E2E2E2E2E2E2E2E2E2E2E2E2E2E2E2E2E2E2E2E2E2E2E2E2E2E2E2E2E2E2E2E2E2E2E2E2E2E2
310
E2E2E2E2E2E2E2E2E2E2E2E2E2E2E2E2E2E2E2E2E2E2E2E2E2E2E2E2E2E2E2E2E2E2E2E2E2E2E2E2E2E2E2E2E2E2E2E2E2E2E2E2E2E2E2E2E2E2E2E2E2E2E2E2E2E2E2E2E2E2E2E2E2E2E2E2E2E2E2E2E2E2E2E2E2E2E2E2E2E2E2E2E2E2E2E2E2E2E2E2E2E2E2E2E2E2E2E2E2E2E2E2E2E2E2E2E2E2E2E2E2E2E2E2E2E2E2
310
E2E2E2E2E2E2E2E2E2E2E2E2E2E2E2E2E2E2E2E2E2E2E2E2E2E2E2E2E2E2E2E2E2E2E2E2E2E2E2E2E2E2E2E2E2E2E2E2E2E2E2E2E2E2E2E2E2E2E2E2E2E2E2E2E2E2E2E2E2E2E2E2E2E2E2E2E2E2E2E2E2E2E2E2E2E2E2E2E2E2E2E2E2E2E2E2E2E2E2E2E2E2E2E2E2E2E2E2E2E2E2E2E2E2E2E2E2E2E2E2E2E2E2E2E2E2E2
310
E2E2E2E2E2E2E2E2E2E2E2E2E2E2E2E2E2E2E2E2E2E2E2E2E2E2E2E2E2E2E2E2E2E2E2E2E2E2E2E2E2E2E2E2E2E2E2E2E2E2E2E2E2E2E2E2E2E2E2E2E2E2E2E2E2E2E2E2E2E2E2E2E2E2E2E2E2E2E2E2E2E2E2E2E2E2E2E2E2E2E2E2E2E2E2E2E2E2E2E2E2E2E2E2E2E2E2E2E2E2E2E2E2E2E2E2E2E2E2E2E2E2E2E2E2E2E2
310
E2E2E2E2E2E2E2E2E2E2E2E2E2E2E2E2E2E2E2E2E2E2E2E2E2E2E2E2E2E2E2E2E2E2E2E2E2E2E2E2E2E2E2E2E2E2E2E2E2E2E2E2E2E2E2E2E2E2E2E2E2E2E2E2E2E2E2E2E2E2E2E2E2E2E2E2E2E2E2E2E2E2E2E2E2E2E2E2E2E2E2E2E2E2E2E2E2E2E2E2E2E2E2E2E2E2E2E2E2E2E2E2E2E2E2E2E2E2E2E2E2E2E2E2E2E2E2
310
E2E2E2E2E2E2E2E2E2E2E2E2E2E2E2E2E2E2E2E2E2E2E2E2E2E2E2E2E2E2E2E2E2E2E2E2E2E2E2E2E2E2E2E2E2E2E2E2E2E2E2E2E2E2E2E2E2E2E2E2E2E2E2E2E2E2E2E2E2E2E2E2E2E2E2E2E2E2E2E2E2E2E2E2E2E2E2E2E2E2E2E2E2E2E2E2E2E2E2E2E2E2E2E2E2E2E2E2E2E2E2E2E2E2E2E2E2E2E2E2E2E2E2E2E2E2E2
310
E2E2E2E2E2E2E2E2E2E2E2E2E2E2E2E2E2E2E2E2E2E2E2E2E2E2E2E2E2E2E2E2E2E2E2E2E2E2E2E2E2E2E2E2E2E2E2E2E2E2E2E2E2E2E2E2E2E2E2E2E2E2E2E2E2E2E2E2E2E2E2E2E2E2E2E2E2E2E2E2E2E2E2E2E2E2E2E2E2E2E2E2E2E2E2E2E2E2E2E2E2E2E2E2E2E2E2E2E2E2E2E2E2E2E2E2E2E2E2E2E2E2E2E2E2E2E2
310
E2E2E2E2E2E2E2E2E2E2E2E2E2E2E2E2E2E2E2E2E2E2E2E2E2E2E2E2E2E2E2E2E2E2E2E2E2E2E2E2E2E2E2E2E2E2E2E2E2E2E2E2E2E2E2E2E2E2E2E2E2E2E2E2E2E2E2E2E2E2E2E2E2E2E2E2E2E2E2E2E2E2E2E2E2E2E2E2E2E2E2E2E2E2E2E2E2E2E2E2E2E2E2E2E2E2E2E2E2E2E2E2E2E2E2E2E2E2E2E2E2E2E2E2E2E2E2
310
E2E2E2E2E2E2E2E2E2E2E2E2E2E2E2E2E2E2E2E2E2E2E2E2E2E2E2E2E2E2E2E2E2E2E2E2E2E2E2E2E2E2E2E2E2E2E2E2E2E2E2E2E2E2E2E2E2E2E2E2E2E2E2E2E2E2E2E2E2E2E2E2E2E2E2E2E2E2E2E2E2E2E2E2E2E2E2E2E2E2E2E2E2E2E2E2E2E2E2E2E2E2E2E2E2E2E2E2E2E2E2E2E2E2E2E2E2E2E2E2E2E2E2E2E2E2E2
310
E2E2E2E2E2E2E2E2E2E2E2E2E2E2E2E2E2E2E2E2E2E2E2E2E2E2E2E2E2E2E2E2E2E2E2E2E2E2E2E2E2E2E2E2E2E2E2E2E2E2E2E2E2E2E2E2E2E2E2E2E2E2E2E2E2E2E2E2E2E2E2E2E2E2E2E2E2E2E2E2E2E2E2E2E2E2E2E2E2E2E2E2E2E2E2E2E2E2E2E2E2E2E2E2E2E2E2E2E2E2E2E2E2E2E2E2E2E2E2E2E2E2E2E2E2E2E2
310
E2E2E2E2E2E2E2E2E2E2E2E2E2E2E2E2E2E2E2E2E2E2E2E2E2E2E2E2E2E2E2E2E2E2E2E2E2E2E2E2E2E2E2E2E2E2E2E2E2E2E2E2E2E2E2E2E2E2E2E2E2E2E2E2E2E2E2E2E2E2E2E2E2E2E2E2E2E2E2E2E2E2E2E2E2E2E2E2E2E2E2E2E2E2E2E2E2E2E2E2E2E2E2E2E2E2E2E2E2E2E2E2E2E2E2E2E2E2E2E2E2E2E2E2E2E2E2
310
E2E2E2E2E2E2E2E2E2E2E2E2E2E2E2E2E2E2E2E2E2E2E2E2E2E2E2E2E2E2E2E2E2E2E2E2E2E2E2E2E2E2E2E2E2E2E2E2E2E2E2E2E2E2E2E2E2E2E2E2E2E2E2E2E2E2E2E2E2E2E2E2E2E2E2E2E2E2E2E2E2E2E2E2E2E2E2E2E2E2E2E2E2E2E2E2E2E2E2E2E2E2E2E2E2E2E2E2E2E2E2E2E2E2E2E2E2E2E2E2E2E2E2E2E2E2E2
310
E2E2E2E2E2E2E2E2E2E2E2E2E2E2E2E2E2E2E2E2E2E2E2E2E2E2E2E2E2E2E2E2E2E2E2E2E2E2E2E2E2E2E2E2E2E2E2E2E2E2E2E2E2E2E2E2E2E2E2E2E2E2E2E2E2E2E2E2E2E2E2E2E2E2E2E2E2E2E2E2E2E2E2E2E2E2E2E2E2E2E2E2E2E2E2E2E2E2E2E2E2E2E2E2E2E2E2E2E2E2E2E2E2E2E2E2E2E2E2E2E2E2E2E2E2E2E2
310
E2E2E2E2E2E2E2E2E2E2E2E2E2E2E2E2E2E2E2E2E2E2E2E2E2E2E2E2E2E2E2E2E2E2E2E2E2E2E2E2E2E2E2E2E2E2E2E2E2E2E2E2E2E2E2E2E2E2E2E2E2E2E2E2E2E2E2E2E2E2E2E2E2E2E2E2E2E2E2E2E2E2E2E2E2E2E2E2E2E2E2E2E2E2E2E2E2E2E2E2E2E2E2E2E2E2E2E2E2E2E2E2E2E2E2E2E2E2E2E2E2E2E2E2E2E2E2
310
E2E2E2E2E2E2E2E2E2E2E2E2E2E2E2E2E2E2E2E2E2E2E2E2E2E2E2E2E2E2E2E2E2E2E2E2E2E2E2E2E2E2E2E2E2E2E2E2E2E2E2E2E2E2E2E2E2E2E2E2E2E2E2E2E2E2E2E2E2E2E2E2E2E2E2E2E2E2E2E2E2E2E2E2E2E2E2E2E2E2E2E2E2E2E2E2E2E2E2E2E2E2E2E2E2E2E2E2E2E2E2E2E2E2E2E2E2E2E2E2E2E2E2E2E2E2E2
310
E2E2E2E2E2E2E2E2E2E2E2E2E2E2E2E2E2E2E2E2E2E2E2E2E2E2E2E2E2E2E2E2E2E2E2E2E2E2E2E2E2E2E2E2E2E2E2E2E2E2E2E2E2E2E2E2E2E2E2E2E2E2E2E2E2E2E2E2E2E2E2E2E2E2E2E2E2E2E2E2E2E2E2E2E2E2E2E2E2E2E2E2E2E2E2E2E2E2E2E2E2E2E2E2E2E2E2E2E2E2E2E2E2E2E2E2E2E2E2E2E2E2E2E2E2E2E2
310
E2E2E2E2E2E2E2E2E2E2E2E2E2E2E2E2E2E2E2E2E2E2E2E2E2E2E2E2E2E2E2E2E2E2E2E2E2E2E2E2E2E2E2E2E2E2E2E2E2E2E2E2E2E2E2E2E2E2E2E2E2E2E2E2E2E2E2E2E2E2E2E2E2E2E2E2E2E2E2E2E2E2E2E2E2E2E2E2E2E2E2E2E2E2E2E2E2E2E2E2E2E2E2E2E2E2E2E2E2E2E2E2E2E2E2E2E2E2E2E2E2E2E2E2E2E2E2
310
E2E2E2E2E2E2E2E2E2E2E2E2E2E2E2E2E2E2E2E2E2E2E2E2E2E2E2E2E2E2E2E2E2E2E2E2E2E2E2E2E2E2E2E2E2E2E2E2E2E2E2E2E2E2E2E2E2E2E2E2E2E2E2E2E2E2E2E2E2E2E2E2E2E2E2E2E2E2E2E2E2E2E2E2E2E2E2E2E2E2E2E2E2E2E2E2E2E2E2E2E2E2E2E2E2E2E2E2E2E2E2E2E2E2E2E2E2E2E2E2E2E2E2E2E2E2E2
310
E2E2E2E2E2E2E2E2E2E2E2E2E2E2E2E2E2E2E2E2E2E2E2E2E2E2E2E2E2E2E2E2E2E2E2E2E2E2E2E2E2E2E2E2E2E2E2E2E2E2E2E2E2E2E2E2E2E2E2E2E2E2E2E2E2E2E2E2E2E2E2E2E2E2E2E2E2E2E2E2E2E2E2E2E2E2E2E2E2E2E2E2E2E2E2E2E2E2E2E2E2E2E2E2E2E2E2E2E2E2E2E2E2E2E2E2E2E2E2E2E2E2E2E2E2E2E2
310
E2E2E2E2E2E2E2E2E2E2E2E2E2E2E2E2E2E2E2E2E2E2E2E2E2E2E2E2E2E2E2E2E2E2E2E2E2E2E2E2E2E2E2E2E2E2E2E2E2E2E2E2E2E2E2E2E2E2E2E2E2E2E2E2E2E2E2E2E2E2E2E2E2E2E2E2E2E2E2E2E2E2E2E2E2E2E2E2E2E2E2E2E2E2E2E2E2E2E2E2E2E2E2E2E2E2E2E2E2E2E2E2E2E2E2E2E2E2E2E2E2E2E2E2E2E2E2
310
E2E2E2E2E2E2E2E2E2E2E2E2E2E2E2E2E2E2E2E2E2E2E2E2E2E2E2E2E2E2E2E2E2E2E2E2E2E2E2E2E2E2E2E2E2E2E2E2E2E2E2E2E2E2E2E2E2E2E2E2E2E2E2E2E2E2E2E2E2E2E2E2E2E2E2E2E2E2E2E2E2E2E2E2E2E2E2E2E2E2E2E2E2E2E2E2E2E2E2E2E2E2E2E2E2E2E2E2E2E2E2E2E2E2E2E2E2E2E2E2E2E2E2E2E2E2E2
310
E2E2E2E2E2E2E2E2E2E2E2E2E2E2E2E2E2E2E2E2E2E2E2E2E2E2E2E2E2E2E2E2E2E2E2E2E2E2E2E2E2E2E2E2E2E2E2E2E2E2E2E2E2E2E2E2E2E2E2E2E2E2E2E2E2E2E2E2E2E2E2E2E2E2E2E2E2E2E2E2E2E2E2E2E2E2E2E2E2E2E2E2E2E2E2E2E2E2E2E2E2E2E2E2E2E2E2E2E2E2E2E2E2E2E2E2E2E2E2E2E2E2E2E2E2E2E2
310
E2E2E2E2E2E2E2E2E2E2E2E2E2E2E2E2E2E2E2E2E2E2E2E2E2E2E2E2E2E2E2E2E2E2E2E2E2E2E2E2E2E2E2E2E2E2E2E2E2E2E2E2E2E2E2E2E2E2E2E2E2E2E2E2E2E2E2E2E2E2E2E2E2E2E2E2E2E2E2E2E2E2E2E2E2E2E2E2E2E2E2E2E2E2E2E2E2E2E2E2E2E2E2E2E2E2E2E2E2E2E2E2E2E2E2E2E2E2E2E2E2E2E2E2E2E2E2
310
E2E2E2E2E2E2E2E2E2E2E2E2E2E2E2E2E2E2E2E2E2E2E2E2E2E2E2E2E2E2E2E2E2E2E2E2E2E2E2E2E2E2E2E2E2E2E2E2E2E2E2E2E2E2E2E2E2E2E2E2E2E2E2E2E2E2E2E2E2E2E2E2E2E2E2E2E2E2E2E2E2E2E2E2E2E2E2E2E2E2E2E2E2E2E2E2E2E2E2E2E2E2E2E2E2E2E2E2E2E2E2E2E2E2E2E2E2E2E2E2E2E2E2E2E2E2E2
310
E2E2E2E2E2E2E2E2E2E2E2E2E2E2E2E2E2E2E2E2E2E2E2E2E2E2E2E2E2E2E2E2E2E2E2E2E2E2E2E2E2E2E2E2E2E2E2E2E2E2E2E2E2E2E2E2E2E2E2E2E2E2E2E2E2E2E2E2E2E2E2E2E2E2E2E2E2E2E2E2E2E2E2E2E2E2E2E2E2E2E2E2E2E2E2E2E2E2E2E2E2E2E2E2E2E2E2E2E2E2E2E2E2E2E2E2E2E2E2E2E2E2E2E2E2E2E2
310
E2E2E2E2E2E2E2E2E2E2E2E2E2E2E2E2E2E2E2E2E2E2E2E2E2E2E2E2E2E2E2E2E2E2E2E2E2E2E2E2E2E2E2E2E2E2E2E2E2E2E2E2E2E2E2E2E2E2E2E2E2E2E2E2E2E2E2E2E2E2E2E2E2E2E2E2E2E2E2E2E2E2E2E2E2E2E2E2E2E2E2E2E2E2E2E2E2E2E2E2E2E2E2E2E2E2E2E2E2E2E2E2E2E2E2E2E2E2E2E2E2E2E2E2E2E2E2
310
E2E2E2E2E2E2E2E2E2E2E2E2E2E2E2E2E2E2E2E2E2E2E2E2E2E2E2E2E2E2E2E2E2E2E2E2E2E2E2E2E2E2E2E2E2E2E2E2E2E2E2E2E2E2E2E2E2E2E2E2E2E2E2E2E2E2E2E2E2E2E2E2E2E2E2E2E2E2E2E2E2E2E2E2E2E2E2E2E2E2E2E2E2E2E2E2E2E2E2E2E2E2E2E2E2E2E2E2E2E2E2E2E2E2E2E2E2E2E2E2E2E2E2E2E2E2E2
310
E2E2E2E2E2E2E2E2E2E2E2E2E2E2E2E2E2E2E2E2E2E2E2E2E2E2E2E2E2E2E2E2E2E2E2E2E2E2E2E2E2E2E2E2E2E2E2E2E2E2E2E2E2E2E2E2E2E2E2E2E2E2E2E2E2E2E2E2E2E2E2E2E2E2E2E2E2E2E2E2E2E2E2E2E2E2E2E2E2E2E2E2E2E2E2E2E2E2E2E2E2E2E2E2E2E2E2E2E2E2E2E2E2E2E2E2E2E2E2E2E2E2E2E2E2E2E2
310
E2E2E2E2E2E2E2E2E2E2E2E2E2E2E2E2E2E2E2E2E2E2E2E2E2E2E2E2E2E2E2E2E2E2E2E2E2E2E2E2E2E2E2E2E2E2E2E2E2E2E2E2E2E2E2E2E2E2E2E2E2E2E2E2E2E2E2E2E2E2E2E2E2E2E2E2E2E2E2E2E2E2E2E2E2E2E2E2E2E2E2E2E2E2E2E2E2E2E2E2E2E2E2E2E2E2E2E2E2E2E2E2E2E2E2E2E2E2E2E2E2E2E2E2E2E2E2
310
E2E2E2E2E2E2E2E2E2E2E2E2E2E2E2E2E2E2E2E2E2E2E2E2E2E2E2E2E2E2E2E2E2E2E2E2E2E2E2E2E2E2E2E2E2E2E2E2E2E2E2E2E2E2E2E2E2E2E2E2E2E2E2E2E2E2E2E2E2E2E2E2E2E2E2E2E2E2E2E2E2E2E2E2E2E2E2E2E2E2E2E2E2E2E2E2E2E2E2E2E2E2E2E2E2E2E2E2E2E2E2E2E2E2E2E2E2E2E2E2E2E2E2E2E2E2E2
310
E2E2E2E2E2E2E2E2E2E2E2E2E2E2E2E2E2E2E2E2E2E2E2E2E2E2E2E2E2E2E2E2E2E2E2E2E2E2E2E2E2E2E2E2E2E2E2E2E2E2E2E2E2E2E2E2E2E2E2E2E2E2E2E2E2E2E2E2E2E2E2E2E2E2E2E2E2E2E2E2E2E2E2E2E2E2E2E2E2E2E2E2E2E2E2E2E2E2E2E2E2E2E2E2E2E2E2E2E2E2E2E2E2E2E2E2E2E2E2E2E2E2E2E2E2E2E2
310
E2E2E2E2E2E2E2E2E2E2E2E2E2E2E2E2E2E2E2E2E2E2E2E2E2E2E2E2E2E2E2E2E2E2E2E2E2E2E2E2E2E2E2E2E2E2E2E2E2E2E2E2E2E2E2E2E2E2E2E2E2E2E2E2E2E2E2E2E2E2E2E2E2E2E2E2E2E2E2E2E2E2E2E2E2E2E2E2E2E2E2E2E2E2E2E2E2E2E2E2E2E2E2E2E2E2E2E2E2E2E2E2E2E2E2E2E2E2E2E2E2E2E2E2E2E2E2
310
E2E2E2E2E2E2E2E2E2E2E2E2E2E2E2E2E2E2E2E2E2E2E2E2E2E2E2E2E2E2E2E2E2E2E2E2E2E2E2E2E2E2E2E2E2E2E2E2E2E2E2E2E2E2E2E2E2E2E2E2E2E2E2E2E2E2E2E2E2E2E2E2E2E2E2E2E2E2E2E2E2E2E2E2E2E2E2E2E2E2E2E2E2E2E2E2E2E2E2E2E2E2E2E2E2E2E2E2E2E2E2E2E2E2E2E2E2E2E2E2E2E2E2E2E2E2E2
310
E2E2E2E2E2E2E2E2E2E2E2E2E2E2E2E2E2E2E2E2E2E2E2E2E2E2E2E2E2E2E2E2E2E2E2E2E2E2E2E2E2E2E2E2E2E2E2E2E2E2E2E2E2E2E2E2E2E2E2E2E2E2E2E2E2E2E2E2E2E2E2E2E2E2E2E2E2E2E2E2E2E2E2E2E2E2E2E2E2E2E2E2E2E2E2E2E2E2E2E2E2E2E2E2E2E2E2E2E2E2E2E2E2E2E2E2E2E2E2E2E2E2E2E2E2E2E2
310
E2E2E2E2E2E2E2E2E2E2E2E2E2E2E2E2E2E2E2E2E2E2E2E2E2E2E2E2E2E2E2E2E2E2E2E2E2E2E2E2E2E2E2E2E2E2E2E2E2E2E2E2E2E2E2E2E2E2E2E2E2E2E2E2E2E2E2E2E2E2E2E2E2E2E2E2E2E2E2E2E2E2E2E2E2E2E2E2E2E2E2E2E2E2E2E2E2E2E2E2E2E2E2E2E2E2E2E2E2E2E2E2E2E2E2E2E2E2E2E2E2E2E2E2E2E2E2
310
E2E2E2E2E2E2E2E2E2E2E2E2E2E2E2E2E2E2E2E2E2E2E2E2E2E2E2E2E2E2E2E2E2E2E2E2E2E2E2E2E2E2E2E2E2E2E2E2E2E2E2E2E2E2E2E2E2E2E2E2E2E2E2E2E2E2E2E2E2E2E2E2E2E2E2E2E2E2E2E2E2E2E2E2E2E2E2E2E2E2E2E2E2E2E2E2E2E2E2E2E2E2E2E2E2E2E2E2E2E2E2E2E2E2E2E2E2E2E2E2E2E2E2E2E2E2E2
310
E2E2E2E2E2E2E2E2E2E2E2E2E2E2E2E2E2E2E2E2E2E2E2E2E2E2E2E2E2E2E2E2E2E2E2E2E2E2E2E2E2E2E2E2E2E2E2E2E2E2E2E2E2E2E2E2E2E2E2E2E2E2E2E2E2E2E2E2E2E2E2E2E2E2E2E2E2E2E2E2E2E2E2E2E2E2E2E2E2E2E2E2E2E2E2E2E2E2E2E2E2E2E2E2E2E2E2E2E2E2E2E2E2E2E2E2E2E2E2E2E2E2E2E2E2E2E2
310
E2E2E2E2E2E2E2E2E2E2E2E2E2E2E2E2E2E2E2E2E2E2E2E2E2E2E2E2E2E2E2E2E2E2E2E2E2E2E2E2E2E2E2E2E2E2E2E2E2E2E2E2E2E2E2E2E2E2E2E2E2E2E2E2E2E2E2E2E2E2E2E2E2E2E2E2E2E2E2E2E2E2E2E2E2E2E2E2E2E2E2E2E2E2E2E2E2E2E2E2E2E2E2E2E2E2E2E2E2E2E2E2E2E2E2E2E2E2E2E2E2E2E2E2E2E2E2
310
E2E2E2E2E2E2E2E2E2E2E2E2E2E2E2E2E2E2E2E2E2E2E2E2E2E2E2E2E2E2E2E2E2E2E2E2E2E2E2E2E2E2E2E2E2E2E2E2E2E2E2E2E2E2E2E2E2E2E2E2E2E2E2E2E2E2E2E2E2E2E2E2E2E2E2E2E2E2E2E2E2E2E2E2E2E2E2E2E2E2E2E2E2E2E2E2E2E2E2E2E2E2E2E2E2E2E2E2E2E2E2E2E2E2E2E2E2E2E2E2E2E2E2E2E2E2E2
310
E2E2E2E2E2E2E2E2E2E2E2E2E2E2E2E2E2E2E2E2E2E2E2E2E2E2E2E2E2E2E2E2E2E2E2E2E2E2E2E2E2E2E2E2E2E2E2E2E2E2E2E2E2E2E2E2E2E2E2E2E2E2E2E2E2E2E2E2E2E2E2E2E2E2E2E2E2E2E2E2E2E2E2E2E2E2E2E2E2E2E2
  0
XRECORD
  5
B71
102
{ACAD_REACTORS
330
46
102
}
330
46
100
AcDbXrecord
280
     1
102
MATERIAL
148
0.0
149
0.0
149
0.0
 93
        0
 94
      127
282
     0
 72
     0
 77
     0
171
     0
175
     0
179
     0
273
     0
  0
XRECORD
  5
47
102
{ACAD_REACTORS
330
46
102
}
330
46
100
AcDbXrecord
280
     1
270
     1
271
     1
  0
XRECORD
  5
48
102
{ACAD_REACTORS
330
46
102
}
330
46
100
AcDbXrecord
280
     1
270
     1
271
     1
  0
XRECORD
  5
49
102
{ACAD_REACTORS
330
46
102
}
330
46
100
AcDbXrecord
280
     1
270
     1
271
     1
  0
XRECORD
  5
4A
102
{ACAD_REACTORS
330
46
102
}
330
46
100
AcDbXrecord
280
     1
270
     1
271
     1
  0
XRECORD
  5
4B
102
{ACAD_REACTORS
330
46
102
}
330
46
100
AcDbXrecord
280
     1
270
     1
271
     1
  0
XRECORD
  5
4C
102
{ACAD_REACTORS
330
46
102
}
330
46
100
AcDbXrecord
280
     1
270
     1
271
     1
  0
XRECORD
  5
B70
102
{ACAD_REACTORS
330
3E
102
}
330
3E
100
AcDbXrecord
280
     1
102
MATERIAL
148
0.0
149
0.0
149
0.0
 93
        0
 94
      127
282
     0
 72
     0
 77
     0
171
     0
175
     0
179
     0
273
     0
  0
XRECORD
  5
3F
102
{ACAD_REACTORS
330
3E
102
}
330
3E
100
AcDbXrecord
280
     1
270
     1
271
     1
  0
XRECORD
  5
40
102
{ACAD_REACTORS
330
3E
102
}
330
3E
100
AcDbXrecord
280
     1
270
     1
271
     1
  0
XRECORD
  5
41
102
{ACAD_REACTORS
330
3E
102
}
330
3E
100
AcDbXrecord
280
     1
270
     1
271
     1
  0
XRECORD
  5
42
102
{ACAD_REACTORS
330
3E
102
}
330
3E
100
AcDbXrecord
280
     1
270
     1
271
     1
  0
XRECORD
  5
43
102
{ACAD_REACTORS
330
3E
102
}
330
3E
100
AcDbXrecord
280
     1
270
     1
271
     1
  0
XRECORD
  5
44
102
{ACAD_REACTORS
330
3E
102
}
330
3E
100
AcDbXrecord
280
     1
270
     1
271
     1
  0
XRECORD
  5
B69
102
{ACAD_REACTORS
330
D
102
}
330
D
100
AcDbXrecord
280
     1
102
MATERIAL
148
0.0
149
0.0
149
0.0
 93
        0
 94
      127
282
     0
 72
     0
 77
     0
171
     0
175
     0
179
     0
273
     0
  0
XRECORD
  5
E
102
{ACAD_REACTORS
330
D
102
}
330
D
100
AcDbXrecord
280
     1
270
     1
271
     1
  0
XRECORD
  5
F
102
{ACAD_REACTORS
330
D
102
}
330
D
100
AcDbXrecord
280
     1
270
     1
271
     1
  0
XRECORD
  5
10
102
{ACAD_REACTORS
330
D
102
}
330
D
100
AcDbXrecord
280
     1
270
     1
271
     1
  0
XRECORD
  5
11
102
{ACAD_REACTORS
330
D
102
}
330
D
100
AcDbXrecord
280
     1
270
     1
271
     1
  0
XRECORD
  5
12
102
{ACAD_REACTORS
330
D
102
}
330
D
100
AcDbXrecord
280
     1
270
     1
271
     1
  0
XRECORD
  5
13
102
{ACAD_REACTORS
330
D
102
}
330
D
100
AcDbXrecord
280
     1
270
     1
271
     1
  0
CELLSTYLEMAP
  5
2D8C
102
{ACAD_REACTORS
330
B00
102
}
330
B00
100
AcDbCellStyleMap
 90
        3
300
CELLSTYLE
  1
TABLEFORMAT_BEGIN
 90
        5
170
     1
 91
        0
 92
    32768
 62
   257
 93
        1
300
CONTENTFORMAT
  1
CONTENTFORMAT_BEGIN
 90
        0
 91
        0
 92
        4
 93
        0
300

 40
0.0
140
1.0
 94
        5
 62
     0
340
23
144
6.0
309
CONTENTFORMAT_END
171
     1
301
MARGIN
  1
CELLMARGIN_BEGIN
 40
1.5
 40
1.5
 40
1.5
 40
1.5
 40
0.18
 40
0.18
309
CELLMARGIN_END
 94
        6
 95
        1
302
GRIDFORMAT
  1
GRIDFORMAT_BEGIN
 90
        0
 91
        1
 62
     0
 92
       -2
340
0
 93
        0
 40
0.045
309
GRIDFORMAT_END
 95
        2
302
GRIDFORMAT
  1
GRIDFORMAT_BEGIN
 90
        0
 91
        1
 62
     0
 92
       -2
340
0
 93
        0
 40
0.045
309
GRIDFORMAT_END
 95
        4
302
GRIDFORMAT
  1
GRIDFORMAT_BEGIN
 90
        0
 91
        1
 62
     0
 92
       -2
340
0
 93
        0
 40
0.045
309
GRIDFORMAT_END
 95
        8
302
GRIDFORMAT
  1
GRIDFORMAT_BEGIN
 90
        0
 91
        1
 62
     0
 92
       -2
340
0
 93
        0
 40
0.045
309
GRIDFORMAT_END
 95
       16
302
GRIDFORMAT
  1
GRIDFORMAT_BEGIN
 90
        0
 91
        1
 62
     0
 92
       -2
340
0
 93
        0
 40
0.045
309
GRIDFORMAT_END
 95
       32
302
GRIDFORMAT
  1
GRIDFORMAT_BEGIN
 90
        0
 91
        1
 62
     0
 92
       -2
340
0
 93
        0
 40
0.045
309
GRIDFORMAT_END
309
TABLEFORMAT_END
  1
CELLSTYLE_BEGIN
 90
        1
 91
        1
300
_TITLE
309
CELLSTYLE_END
300
CELLSTYLE
  1
TABLEFORMAT_BEGIN
 90
        5
170
     1
 91
        0
 92
        0
 62
   257
 93
        1
300
CONTENTFORMAT
  1
CONTENTFORMAT_BEGIN
 90
        0
 91
        0
 92
        4
 93
        0
300

 40
0.0
140
1.0
 94
        5
 62
     0
340
23
144
4.5
309
CONTENTFORMAT_END
171
     1
301
MARGIN
  1
CELLMARGIN_BEGIN
 40
1.5
 40
1.5
 40
1.5
 40
1.5
 40
0.18
 40
0.18
309
CELLMARGIN_END
 94
        6
 95
        1
302
GRIDFORMAT
  1
GRIDFORMAT_BEGIN
 90
        0
 91
        1
 62
     0
 92
       -2
340
0
 93
        0
 40
0.045
309
GRIDFORMAT_END
 95
        2
302
GRIDFORMAT
  1
GRIDFORMAT_BEGIN
 90
        0
 91
        1
 62
     0
 92
       -2
340
0
 93
        0
 40
0.045
309
GRIDFORMAT_END
 95
        4
302
GRIDFORMAT
  1
GRIDFORMAT_BEGIN
 90
        0
 91
        1
 62
     0
 92
       -2
340
0
 93
        0
 40
0.045
309
GRIDFORMAT_END
 95
        8
302
GRIDFORMAT
  1
GRIDFORMAT_BEGIN
 90
        0
 91
        1
 62
     0
 92
       -2
340
0
 93
        0
 40
0.045
309
GRIDFORMAT_END
 95
       16
302
GRIDFORMAT
  1
GRIDFORMAT_BEGIN
 90
        0
 91
        1
 62
     0
 92
       -2
340
0
 93
        0
 40
0.045
309
GRIDFORMAT_END
 95
       32
302
GRIDFORMAT
  1
GRIDFORMAT_BEGIN
 90
        0
 91
        1
 62
     0
 92
       -2
340
0
 93
        0
 40
0.045
309
GRIDFORMAT_END
309
TABLEFORMAT_END
  1
CELLSTYLE_BEGIN
 90
        2
 91
        1
300
_HEADER
309
CELLSTYLE_END
300
CELLSTYLE
  1
TABLEFORMAT_BEGIN
 90
        5
170
     1
 91
        0
 92
        0
 62
   257
 93
        1
300
CONTENTFORMAT
  1
CONTENTFORMAT_BEGIN
 90
        0
 91
        0
 92
        4
 93
        0
300

 40
0.0
140
1.0
 94
        2
 62
     0
340
23
144
4.5
309
CONTENTFORMAT_END
171
     1
301
MARGIN
  1
CELLMARGIN_BEGIN
 40
1.5
 40
1.5
 40
1.5
 40
1.5
 40
0.18
 40
0.18
309
CELLMARGIN_END
 94
        6
 95
        1
302
GRIDFORMAT
  1
GRIDFORMAT_BEGIN
 90
        0
 91
        1
 62
     0
 92
       -2
340
0
 93
        0
 40
0.045
309
GRIDFORMAT_END
 95
        2
302
GRIDFORMAT
  1
GRIDFORMAT_BEGIN
 90
        0
 91
        1
 62
     0
 92
       -2
340
0
 93
        0
 40
0.045
309
GRIDFORMAT_END
 95
        4
302
GRIDFORMAT
  1
GRIDFORMAT_BEGIN
 90
        0
 91
        1
 62
     0
 92
       -2
340
0
 93
        0
 40
0.045
309
GRIDFORMAT_END
 95
        8
302
GRIDFORMAT
  1
GRIDFORMAT_BEGIN
 90
        0
 91
        1
 62
     0
 92
       -2
340
0
 93
        0
 40
0.045
309
GRIDFORMAT_END
 95
       16
302
GRIDFORMAT
  1
GRIDFORMAT_BEGIN
 90
        0
 91
        1
 62
     0
 92
       -2
340
0
 93
        0
 40
0.045
309
GRIDFORMAT_END
 95
       32
302
GRIDFORMAT
  1
GRIDFORMAT_BEGIN
 90
        0
 91
        1
 62
     0
 92
       -2
340
0
 93
        0
 40
0.045
309
GRIDFORMAT_END
309
TABLEFORMAT_END
  1
CELLSTYLE_BEGIN
 90
        3
 91
        2
300
_DATA
309
CELLSTYLE_END
  0
XRECORD
  5
2D94
102
{ACAD_REACTORS
330
B00
102
}
330
B00
100
AcDbXrecord
280
     1
102
ACAD_ROUNDTRIP_PRE2007_TABLESTYLE
 90
        4
 91
        0
  1

 92
        4
 93
        0
  2

 94
        4
 95
        0
  3

  0
ENDSEC
  0
EOF
