  0
SECTION
  2
HEADER
  9
$ACADVER
  1
AC1015
  9
$ACADMAINTVER
 70
    20
  9
$DWGCODEPAGE
  3
ANSI_932
  9
$INSBASE
 10
0.0
 20
0.0
 30
0.0
  9
$EXTMIN
 10
2106.832400013118
 20
-1336.054756418973
 30
0.0
  9
$EXTMAX
 10
3497.530585343162
 20
-352.3578618332289
 30
0.0
  9
$LIMMIN
 10
0.0
 20
0.0
  9
$LIMMAX
 10
420.0
 20
297.0
  9
$ORTHOMODE
 70
     0
  9
$REGENMODE
 70
     1
  9
$FILLMODE
 70
     1
  9
$QTEXTMODE
 70
     0
  9
$MIRRTEXT
 70
     1
  9
$LTSCALE
 40
1.0
  9
$ATTMODE
 70
     1
  9
$TEXTSIZE
 40
62.5215949741746
  9
$TRACEWID
 40
1.0
  9
$TEXTSTYLE
  7
STANDARD
  9
$CLAYER
  8
SIZE
  9
$CELTYPE
  6
BYLAYER
  9
$CECOLOR
 62
   256
  9
$CELTSCALE
 40
1.0
  9
$DISPSILH
 70
     0
  9
$DIMSCALE
 40
10.0
  9
$DIMASZ
 40
2.0
  9
$DIMEXO
 40
1.0
  9
$DIMDLI
 40
3.75
  9
$DIMRND
 40
0.5
  9
$DIMDLE
 40
0.0
  9
$DIMEXE
 40
1.0
  9
$DIMTP
 40
0.0
  9
$DIMTM
 40
0.0
  9
$DIMTXT
 40
2.0
  9
$DIMCEN
 40
2.5
  9
$DIMTSZ
 40
0.0
  9
$DIMTOL
 70
     0
  9
$DIMLIM
 70
     0
  9
$DIMTIH
 70
     0
  9
$DIMTOH
 70
     0
  9
$DIMSE1
 70
     0
  9
$DIMSE2
 70
     0
  9
$DIMTAD
 70
     1
  9
$DIMZIN
 70
     8
  9
$DIMBLK
  1

  9
$DIMASO
 70
     1
  9
$DIMSHO
 70
     1
  9
$DIMPOST
  1

  9
$DIMAPOST
  1

  9
$DIMALT
 70
     0
  9
$DIMALTD
 70
     4
  9
$DIMALTF
 40
0.0394
  9
$DIMLFAC
 40
1.0
  9
$DIMTOFL
 70
     1
  9
$DIMTVP
 40
0.0
  9
$DIMTIX
 70
     0
  9
$DIMSOXD
 70
     0
  9
$DIMSAH
 70
     1
  9
$DIMBLK1
  1
OPEN30
  9
$DIMBLK2
  1
OPEN30
  9
$DIMSTYLE
  2
STANDARD
  9
$DIMCLRD
 70
     0
  9
$DIMCLRE
 70
     0
  9
$DIMCLRT
 70
     0
  9
$DIMTFAC
 40
1.0
  9
$DIMGAP
 40
1.0
  9
$DIMJUST
 70
     0
  9
$DIMSD1
 70
     0
  9
$DIMSD2
 70
     0
  9
$DIMTOLJ
 70
     1
  9
$DIMTZIN
 70
     8
  9
$DIMALTZ
 70
     0
  9
$DIMALTTZ
 70
     0
  9
$DIMUPT
 70
     0
  9
$DIMDEC
 70
     1
  9
$DIMTDEC
 70
     1
  9
$DIMALTU
 70
     8
  9
$DIMALTTD
 70
     4
  9
$DIMTXSTY
  7
STANDARD
  9
$DIMAUNIT
 70
     0
  9
$DIMADEC
 70
     0
  9
$DIMALTRND
 40
0.0
  9
$DIMAZIN
 70
     0
  9
$DIMDSEP
 70
    46
  9
$DIMATFIT
 70
     3
  9
$DIMFRAC
 70
     0
  9
$DIMLDRBLK
  1
OPEN30
  9
$DIMLUNIT
 70
     2
  9
$DIMLWD
 70
    -2
  9
$DIMLWE
 70
    -2
  9
$DIMTMOVE
 70
     0
  9
$LUNITS
 70
     2
  9
$LUPREC
 70
     2
  9
$SKETCHINC
 40
1.0
  9
$FILLETRAD
 40
10.0
  9
$AUNITS
 70
     0
  9
$AUPREC
 70
     0
  9
$MENU
  1
.
  9
$ELEVATION
 40
0.0
  9
$PELEVATION
 40
0.0
  9
$THICKNESS
 40
0.0
  9
$LIMCHECK
 70
     0
  9
$CHAMFERA
 40
10.0
  9
$CHAMFERB
 40
10.0
  9
$CHAMFERC
 40
20.0
  9
$CHAMFERD
 40
0.0
  9
$SKPOLY
 70
     0
  9
$TDCREATE
 40
2451324.468257373
  9
$TDUCREATE
 40
2451324.093257373
  9
$TDUPDATE
 40
2455888.763959595
  9
$TDUUPDATE
 40
2455888.388959595
  9
$TDINDWG
 40
1.9925871644
  9
$TDUSRTIMER
 40
1.9925864236
  9
$USRTIMER
 70
     1
  9
$ANGBASE
 50
0.0
  9
$ANGDIR
 70
     0
  9
$PDMODE
 70
     0
  9
$PDSIZE
 40
0.0
  9
$PLINEWID
 40
0.0
  9
$SPLFRAME
 70
     0
  9
$SPLINETYPE
 70
     6
  9
$SPLINESEGS
 70
     8
  9
$HANDSEED
  5
1F62
  9
$SURFTAB1
 70
     6
  9
$SURFTAB2
 70
     6
  9
$SURFTYPE
 70
     6
  9
$SURFU
 70
     6
  9
$SURFV
 70
     6
  9
$UCSBASE
  2

  9
$UCSNAME
  2

  9
$UCSORG
 10
0.0
 20
0.0
 30
0.0
  9
$UCSXDIR
 10
1.0
 20
0.0
 30
0.0
  9
$UCSYDIR
 10
0.0
 20
1.0
 30
0.0
  9
$UCSORTHOREF
  2

  9
$UCSORTHOVIEW
 70
     0
  9
$UCSORGTOP
 10
0.0
 20
0.0
 30
0.0
  9
$UCSORGBOTTOM
 10
0.0
 20
0.0
 30
0.0
  9
$UCSORGLEFT
 10
0.0
 20
0.0
 30
0.0
  9
$UCSORGRIGHT
 10
0.0
 20
0.0
 30
0.0
  9
$UCSORGFRONT
 10
0.0
 20
0.0
 30
0.0
  9
$UCSORGBACK
 10
0.0
 20
0.0
 30
0.0
  9
$PUCSBASE
  2

  9
$PUCSNAME
  2

  9
$PUCSORG
 10
0.0
 20
0.0
 30
0.0
  9
$PUCSXDIR
 10
1.0
 20
0.0
 30
0.0
  9
$PUCSYDIR
 10
0.0
 20
1.0
 30
0.0
  9
$PUCSORTHOREF
  2

  9
$PUCSORTHOVIEW
 70
     0
  9
$PUCSORGTOP
 10
0.0
 20
0.0
 30
0.0
  9
$PUCSORGBOTTOM
 10
0.0
 20
0.0
 30
0.0
  9
$PUCSORGLEFT
 10
0.0
 20
0.0
 30
0.0
  9
$PUCSORGRIGHT
 10
0.0
 20
0.0
 30
0.0
  9
$PUCSORGFRONT
 10
0.0
 20
0.0
 30
0.0
  9
$PUCSORGBACK
 10
0.0
 20
0.0
 30
0.0
  9
$USERI1
 70
     0
  9
$USERI2
 70
     0
  9
$USERI3
 70
     0
  9
$USERI4
 70
     0
  9
$USERI5
 70
     0
  9
$USERR1
 40
0.0
  9
$USERR2
 40
0.0
  9
$USERR3
 40
0.0
  9
$USERR4
 40
0.0
  9
$USERR5
 40
0.0
  9
$WORLDVIEW
 70
     1
  9
$SHADEDGE
 70
     3
  9
$SHADEDIF
 70
    70
  9
$TILEMODE
 70
     1
  9
$MAXACTVP
 70
    48
  9
$PINSBASE
 10
0.0
 20
0.0
 30
0.0
  9
$PLIMCHECK
 70
     0
  9
$PEXTMIN
 10
-1439.804583653114
 20
-1400.237631316938
 30
0.0
  9
$PEXTMAX
 10
2872.968780515991
 20
1675.790811506817
 30
0.0
  9
$PLIMMIN
 10
0.0
 20
0.0
  9
$PLIMMAX
 10
12.0
 20
9.0
  9
$UNITMODE
 70
     0
  9
$VISRETAIN
 70
     1
  9
$PLINEGEN
 70
     0
  9
$PSLTSCALE
 70
     1
  9
$TREEDEPTH
 70
  3020
  9
$CMLSTYLE
  2
STANDARD
  9
$CMLJUST
 70
     0
  9
$CMLSCALE
 40
20.0
  9
$PROXYGRAPHICS
 70
     1
  9
$MEASUREMENT
 70
     1
  9
$CELWEIGHT
370
    -1
  9
$ENDCAPS
280
     0
  9
$JOINSTYLE
280
     0
  9
$LWDISPLAY
290
     0
  9
$INSUNITS
 70
     0
  9
$HYPERLINKBASE
  1

  9
$STYLESHEET
  1

  9
$XEDIT
290
     1
  9
$CEPSNTYPE
380
     0
  9
$PSTYLEMODE
290
     1
  9
$FINGERPRINTGUID
  2
{7B48495B-9D62-4076-8CB1-8ACA882609AE}
  9
$VERSIONGUID
  2
{27DA578F-4274-4B83-960F-14BC2EAE2EAE}
  9
$EXTNAMES
290
     1
  9
$PSVPSCALE
 40
0.0
  9
$OLESTARTUP
290
     0
  0
ENDSEC
  0
SECTION
  2
CLASSES
  0
CLASS
  1
ACDBDICTIONARYWDFLT
  2
AcDbDictionaryWithDefault
  3
ObjectDBX Classes
 90
        0
280
     0
281
     0
  0
CLASS
  1
ACDBPLACEHOLDER
  2
AcDbPlaceHolder
  3
ObjectDBX Classes
 90
        0
280
     0
281
     0
  0
CLASS
  1
LAYOUT
  2
AcDbLayout
  3
ObjectDBX Classes
 90
        0
280
     0
281
     0
  0
CLASS
  1
ACME_DOCUMENT
  2
AcMeDbDoc
  3
AcMeServices
 90
     1024
280
     0
281
     0
  0
CLASS
  1
AMGSETTINGSOBJ
  2
AmgSettingsObj
  3
"AcadM|Product Description: AutoCAD Mechanical|Company: Autodesk, Inc."
 90
     1024
280
     0
281
     0
  0
CLASS
  1
ACMESCOPE
  2
AcMeScope
  3
AcMeServices
 90
     1024
280
     0
281
     0
  0
CLASS
  1
ACMECOMMANDHISTORY
  2
AcMeCommandHistory
  3
AcMeServices
 90
     1024
280
     0
281
     0
  0
CLASS
  1
DICTIONARYVAR
  2
AcDbDictionaryVar
  3
ObjectDBX Classes
 90
        0
280
     0
281
     0
  0
CLASS
  1
ACIMSYSVARMAN
  2
AcImSysVarManager
  3
AcMeServices
 90
     1024
280
     0
281
     0
  0
CLASS
  1
ACIMREALSYSVAR
  2
AcImRealSysVar
  3
AcMeServices
 90
     1024
280
     0
281
     0
  0
CLASS
  1
ACIMINTSYSVAR
  2
AcImIntSysVar
  3
AcMeServices
 90
     1024
280
     0
281
     0
  0
CLASS
  1
ACMEDRAWINGMAN
  2
AcMeDrawingMan
  3
AcMeServices
 90
     1024
280
     0
281
     0
  0
CLASS
  1
ACMEVIEW
  2
AcMeView
  3
AcMeServices
 90
     1024
280
     0
281
     0
  0
CLASS
  1
ACDBENTITYCACHE
  2
AcMeEntityCache
  3
AcMeServices
 90
     1024
280
     0
281
     0
  0
CLASS
  1
GSMANAGER
  2
AcMeGSManager
  3
AcMeServices
 90
     1024
280
     0
281
     0
  0
CLASS
  1
AMDTINTERNALREACTOR
  2
AmdtInternalReactor
  3
AcMeServices
 90
     1024
280
     0
281
     0
  0
CLASS
  1
ACMESTATEMGR
  2
AcMeStateMgr
  3
AcMeServices
 90
     1024
280
     0
281
     0
  0
CLASS
  1
ACGREFMASTER
  2
AcGrefMaster
  3
AcAttribServices
 90
     1024
280
     0
281
     0
  0
CLASS
  1
AM_DRAWING_MGR
  2
AcDmDwgMgr
  3
AcMechDwgViewMgmt
 90
     1024
280
     0
281
     0
  0
CLASS
  1
AM_DWG_DOCUMENT
  2
AcDmDwgDocument
  3
AcMechDwgViewMgmt
 90
     1024
280
     0
281
     0
  0
CLASS
  1
AM_DWG_SHEET
  2
AcDmSheet
  3
AcMechDwgViewMgmt
 90
     1024
280
     0
281
     0
  0
CLASS
  1
AM_VIEWDIMPARMAP
  2
AcDmViewDimParMap
  3
AcMechDwgViewMgmt
 90
     1024
280
     0
281
     0
  0
CLASS
  1
AM_DWGMGR_NAME
  2
AcDmDwgMgrName
  3
AcMechDwgViewMgmt
 90
     1024
280
     0
281
     0
  0
CLASS
  1
ACME_DATABASE
  2
AcMeDbDatabase
  3
AcMeServices
 90
     1024
280
     0
281
     0
  0
CLASS
  1
ACRFINSADJUSTERMGR
  2
AcRfInsAdjusterMgr
  3
AcMeServices
 90
     1024
280
     0
281
     0
  0
CLASS
  1
ACGREFACADMASTER
  2
AcGrefacadMaster
  3
AcGrefServices
 90
     1024
280
     0
281
     0
  0
CLASS
  1
AMDTMENUSTATEMGR
  2
AmdtMenuStateMgr
  3
McadcomServices
 90
     1024
280
     0
281
     0
  0
CLASS
  1
AMDTMCOMMENUSTATE
  2
AmdtMcomMenuState
  3
McadcomServices
 90
     1024
280
     0
281
     0
  0
CLASS
  1
AMIMASTER
  2
AmiMaster
  3
AmiServices
 90
     1024
280
     0
281
     0
  0
CLASS
  1
ASAPP
  2
AcAsAppObject
  3
AutoSurfServices
 90
     1024
280
     0
281
     0
  0
CLASS
  1
IM_STATIC_MAN
  2
AcImStaticVarManager
  3
AcMeServices
 90
     1024
280
     0
281
     0
  0
CLASS
  1
ACIMSTRSYSVAR
  2
AcImStrSysVar
  3
AcMeServices
 90
     1024
280
     0
281
     0
  0
CLASS
  1
ACIMDBLSTATICVAR
  2
AcImDblStaticVar
  3
AcMeServices
 90
     1024
280
     0
281
     0
  0
CLASS
  1
ACIMSTRSTATICVAR
  2
AcImStrStaticVar
  3
AcMeServices
 90
     1024
280
     0
281
     0
  0
CLASS
  1
ACIMINTSTATICVAR
  2
AcImIntStaticVar
  3
AcMeServices
 90
     1024
280
     0
281
     0
  0
CLASS
  1
ACASGREFMASTER
  2
AcAsGrefMaster
  3
AutoSurfResolverServices
 90
     1024
280
     0
281
     0
  0
CLASS
  1
ACADGREFMODULE
  2
AcAdGrefModule
  3
AdGrefServices
 90
     1024
280
     0
281
     0
  0
CLASS
  1
AMDTMAPISURFMOUDULE
  2
AmdtMApiSurfModule
  3
MApiSurfServices
 90
     1024
280
     0
281
     0
  0
CLASS
  1
MAPIAMMOUDLE
  2
MApiAmModule
  3
MApiAmServices
 90
     1024
280
     0
281
     0
  0
CLASS
  1
AMDTADMENUSTATE
  2
AmdtAdMenuState
  3
DesignerServices
 90
     1024
280
     0
281
     0
  0
CLASS
  1
ADAPPL
  2
AcAdAppl
  3
DesignerServices
 90
     1024
280
     0
281
     0
  0
CLASS
  1
DEPMGR
  2
AcAdDepMgr
  3
DesignerServices
 90
     1024
280
     0
281
     0
  0
CLASS
  1
PARAMMGR
  2
AcAdParamMgr
  3
DesignerServices
 90
     1024
280
     0
281
     0
  0
CLASS
  1
PARAMSCOPE
  2
AcAdParamScope
  3
DesignerServices
 90
     1024
280
     0
281
     0
  0
CLASS
  1
NAMEDAPPL
  2
AcAdNamedAppl
  3
DesignerServices
 90
     1024
280
     0
281
     0
  0
CLASS
  1
ADHNTMPLT
  2
AdHoleNoteTemplateMgr
  3
DesignerServices
 90
    33792
280
     0
281
     0
  0
CLASS
  1
AM_HNTEMPLATE_MGR_NAME
  2
AdHoleNoteTemplateMgrName
  3
DesignerServices
 90
    33792
280
     0
281
     0
  0
CLASS
  1
AMDTDMMENUSTATE
  2
AmdtDmMenuState
  3
AcMechDwgViewMgmt
 90
     1024
280
     0
281
     0
  0
CLASS
  1
MAPIADMODULE
  2
MApiAdModule
  3
MApiAdServices
 90
     1024
280
     0
281
     0
  0
CLASS
  1
AMDTAMMENUSTATE
  2
AmdtAmMenuState
  3
DesignerAssemblies
 90
     1024
280
     0
281
     0
  0
CLASS
  1
ACAMPROJECT
  2
AcAmProject
  3
DesignerAssemblies
 90
     1024
280
     0
281
     0
  0
CLASS
  1
ACAMGRCOMPDEF
  2
AcAmGrCompDef
  3
DesignerAssemblies
 90
     1024
280
     0
281
     0
  0
CLASS
  1
ACCMCONTEXT
  2
AcCmContext
  3
DesignerAssemblies
 90
     1024
280
     0
281
     0
  0
CLASS
  1
ACAMCOMPDEF
  2
AcAmCompDef
  3
DesignerAssemblies
 90
     1024
280
     0
281
     0
  0
CLASS
  1
ACAMCOMPDEFMGR
  2
AcAmCompDefMgr
  3
DesignerAssemblies
 90
     1024
280
     0
281
     0
  0
CLASS
  1
AMCONTEXTMGR
  2
AcAmContextMgr
  3
DesignerAssemblies
 90
     1024
280
     0
281
     0
  0
CLASS
  1
ACAMCONTEXTMODELER
  2
AcAmContextModeler
  3
DesignerAssemblies
 90
     1024
280
     0
281
     0
  0
CLASS
  1
ACMDATADICTIONARY
  2
AcmDataDictionary
  3
"AcmSymBB|Product Description: AutoCAD Mechanical|Company: Autodesk, Inc."
 90
     1024
280
     0
281
     0
  0
CLASS
  1
ACMDATAENTRYBLOCK
  2
AcmDataEntryBlock
  3
AcmSymBB|Product Description: AutoCAD Mechanical|Company: Autodesk, Inc.
 90
     1024
280
     0
281
     0
  0
CLASS
  1
CATALOGSTATE
  2
AcAmCatalogState
  3
DesignerAssemblies
 90
     1024
280
     0
281
     0
  0
CLASS
  1
ACAMGRCOMPDEFSET
  2
AcAmGrCompDefSet
  3
DesignerAssemblies
 90
     1024
280
     0
281
     0
  0
CLASS
  1
AMDTBROWSERDBTAB
  2
AmdtBrowserDbTab
  3
McadcomServices
 90
     1024
280
     0
281
     0
  0
CLASS
  1
CBROWSERAPPOBJECT
  2
CBrowserAppObject
  3
McadcomServices
 90
     1024
280
     0
281
     0
  0
CLASS
  1
DM_PLACEHOLDER
  2
AcDmSelsetPlaceholder
  3
AcMechDwgViewMgmt
 90
     1024
280
     0
281
     0
  0
CLASS
  1
ACMSTANDARDISO
  2
AcmStandardISO
  3
"Amdt_StdImp|Product Description: AutoCAD Mechanical|Company: Autodesk, Inc."
 90
     1024
280
     0
281
     0
  0
CLASS
  1
AMGOBJPROPCFG
  2
AmgObjPropCfg
  3
"AmgLay|Product Description: AutoCAD Mechanical|Company: Autodesk, Inc."
 90
     1025
280
     0
281
     0
  0
CLASS
  1
AMDTEDGESTANDARDISO
  2
AmdtEdgeStdISO
  3
"Amdt_StdImp|Product Description: AutoCAD Mechanical|Company: Autodesk, Inc."
 90
    33792
280
     0
281
     0
  0
CLASS
  1
ACMSURFSTANDARDISO
  2
AcmSurfTextStdISO
  3
"Amdt_StdImp|Product Description: AutoCAD Mechanical|Company: Autodesk, Inc."
 90
    33792
280
     0
281
     0
  0
CLASS
  1
ACMFCFSTANDARDISO
  2
AcmFCFStdISO
  3
"Amdt_StdImp|Product Description: AutoCAD Mechanical|Company: Autodesk, Inc."
 90
     1024
280
     0
281
     0
  0
CLASS
  1
ACMWELDSTANDARDISO
  2
AcmWeldingStdISO
  3
"Amdt_StdImp|Product Description: AutoCAD Mechanical|Company: Autodesk, Inc."
 90
     1024
280
     0
281
     0
  0
CLASS
  1
ACMIDSTANDARDISO
  2
AcmIdStdISO
  3
"Amdt_StdImp|Product Description: AutoCAD Mechanical|Company: Autodesk, Inc."
 90
     1024
280
     0
281
     0
  0
CLASS
  1
ACMDATUMSTANDARDISO
  2
AcmDatumStdISO
  3
"Amdt_StdImp|Product Description: AutoCAD Mechanical|Company: Autodesk, Inc."
 90
     1024
280
     0
281
     0
  0
CLASS
  1
ACMBOMSTANDARDISO
  2
AcmBOMStdISO
  3
"Amdt_StdImp|Product Description: AutoCAD Mechanical|Company: Autodesk, Inc."
 90
     1024
280
     0
281
     0
  0
CLASS
  1
ACMDETAILSTANDARDISO
  2
AmdtDetailSymStdISO
  3
"Amdt_StdImp|Product Description: AutoCAD Mechanical|Company: Autodesk, Inc."
 90
     1024
280
     0
281
     0
  0
CLASS
  1
ACMSECTIONSTANDARDISO
  2
AmdtSectionSymStdISO
  3
"Amdt_StdImp|Product Description: AutoCAD Mechanical|Company: Autodesk, Inc."
 90
    33792
280
     0
281
     0
  0
CLASS
  1
ACMCENTERLINESTANDARDISO
  2
AmdtCenterLineStdISO
  3
"Amdt_StdImp|Product Description: AutoCAD Mechanical|Company: Autodesk, Inc."
 90
     1024
280
     0
281
     0
  0
CLASS
  1
ACMTHREADLINESTANDARDISO
  2
AmdtThreadLineStdISO
  3
"Amdt_StdImp|Product Description: AutoCAD Mechanical|Company: Autodesk, Inc."
 90
     1024
280
     0
281
     0
  0
CLASS
  1
ACAMGLAYSTD
  2
AcAmgLayStd
  3
"AmgLay|Product Description: AutoCAD Mechanical|Company: Autodesk, Inc."
 90
     1024
280
     0
281
     0
  0
CLASS
  1
ACAMGDIMSTD
  2
AcAmgDimStd
  3
"AmgDim|Product Description: AutoCAD Mechanical|Company: Autodesk, Inc."
 90
     1024
280
     0
281
     0
  0
CLASS
  1
ACAMGTITLESTD
  2
AcAmgTitleStd
  3
"AmgTitle|Product Description: AutoCAD Mechanical|Company: Autodesk, Inc."
 90
     4095
280
     0
281
     0
  0
CLASS
  1
ACAMGFILTERDAT
  2
AcAmgFilterDat
  3
"AcadM|Product Description: AutoCAD Mechanical|Company: Autodesk, Inc."
 90
     1024
280
     0
281
     0
  0
CLASS
  1
AMDTFORMULAUPDATEDISPATCHER
  2
AmdtFormulaUpdateDispatcher
  3
AcMeServices
 90
    33792
280
     0
281
     0
  0
CLASS
  1
LAYER_INDEX
  2
AcDbLayerIndex
  3
ObjectDBX Classes
 90
        0
280
     0
281
     0
  0
CLASS
  1
IDBUFFER
  2
AcDbIdBuffer
  3
ObjectDBX Classes
 90
        0
280
     0
281
     0
  0
CLASS
  1
TABLESTYLE
  2
AcDbTableStyle
  3
ObjectDBX Classes
 90
     4095
280
     0
281
     0
  0
CLASS
  1
ACMNOTESTANDARDISO
  2
AmdtNoteStdISO
  3
"Amdt_StdImp|Product Description: AutoCAD Mechanical|Company: Autodesk, Inc."
 90
     1024
280
     0
281
     0
  0
CLASS
  1
AMDTNOTETEMPLATEDB
  2
AmdtNoteTemplateDB
  3
AcmSymBB|Product Description: AutoCAD Mechanical|Company: Autodesk, Inc.
 90
     1024
280
     0
281
     0
  0
CLASS
  1
ACAMEXTERNALCOMPDEF
  2
AcAmExternalCompDef
  3
DesignerAssemblies
 90
    33792
280
     0
281
     0
  0
CLASS
  1
ACCMBODY
  2
AcCmBody
  3
DesignerAssemblies
 90
    33792
280
     0
281
     0
  0
CLASS
  1
ACAMCOMPENT
  2
AcAmCompEnt
  3
DesignerAssemblies
 90
    33792
280
     0
281
     1
  0
CLASS
  1
ACAMCOMPFEEDBACK
  2
AcAmCompFeedback
  3
DesignerAssemblies
 90
    33792
280
     0
281
     0
  0
CLASS
  1
ACAMCOMP
  2
AcAmComp
  3
DesignerAssemblies
 90
    33792
280
     0
281
     0
  0
CLASS
  1
ACAMCOMPENTCLONE
  2
AcAmCompEntClone
  3
DesignerAssemblies
 90
    33792
280
     0
281
     1
  0
CLASS
  1
ACAMCLONEREACTOR
  2
AcAmGrCompCloneReactor
  3
DesignerAssemblies
 90
    33792
280
     0
281
     0
  0
CLASS
  1
EDGEID
  2
AcAdEdgeId
  3
DesignerServices
 90
    33792
280
     0
281
     0
  0
CLASS
  1
ACADPARTLINEDGRES
  2
AcAdPartLinEdgRes
  3
AdGrefServices
 90
    33792
280
     0
281
     0
  0
CLASS
  1
ACRFINSADJ
  2
AcRfInsAdjuster
  3
AcMeServices
 90
    33792
280
     0
281
     0
  0
CLASS
  1
STREFID
  2
AcAdStraightRefId
  3
DesignerServices
 90
    33792
280
     0
281
     0
  0
CLASS
  1
ACMEAXIS
  2
AcImAxisDisplay
  3
AcMeServices
 90
    33792
280
     0
281
     1
  0
CLASS
  1
FACEID
  2
AcAdFaceId
  3
DesignerServices
 90
    33792
280
     0
281
     0
  0
CLASS
  1
DEPEDGESECONDARYDEPID
  2
AcAdDepEdgeSecondaryDepId
  3
DesignerServices
 90
    33792
280
     0
281
     0
  0
CLASS
  1
ACADPARTPLANARFACERES
  2
AcAdPartPlanarFaceRes
  3
AdGrefServices
 90
    33792
280
     0
281
     0
  0
CLASS
  1
ACMEPOINT
  2
AcImPointDisplay
  3
AcMeServices
 90
    33792
280
     0
281
     1
  0
CLASS
  1
ACMELINEARARROW
  2
AcImLinearArrowDisplay
  3
AcMeServices
 90
    33792
280
     0
281
     1
  0
CLASS
  1
ACAMEXPR
  2
AcAmExpr
  3
DesignerAssemblies
 90
    33792
280
     0
281
     0
  0
CLASS
  1
ACCMDISTPLPL
  2
AcCmDistPlPl
  3
DesignerAssemblies
 90
    33792
280
     0
281
     0
  0
CLASS
  1
ACCMCONSTREACTOR
  2
AcCmConstraintReactor
  3
DesignerAssemblies
 90
    33792
280
     0
281
     0
  0
CLASS
  1
ACCMDISTPTLN
  2
AcCmDistPtLn
  3
DesignerAssemblies
 90
    33792
280
     0
281
     0
  0
CLASS
  1
AM_VIEW_SELECT_FILTER
  2
AcDmSelectViewEntFilter
  3
AcMechDwgViewMgmt
 90
    33792
280
     0
281
     0
  0
CLASS
  1
AM_GREF_PLANE
  2
AcDmGrefPlnDef
  3
AcMechDwgViewMgmt
 90
    33792
280
     0
281
     0
  0
CLASS
  1
AM_GREF_AXIS
  2
AcDmGrefAxisDef
  3
AcMechDwgViewMgmt
 90
    33792
280
     0
281
     0
  0
CLASS
  1
AM_BASE_VIEW_ORIENT
  2
AcDmBaseViewOr
  3
AcMechDwgViewMgmt
 90
    33792
280
     0
281
     0
  0
CLASS
  1
AM_DWG_VIEWPORT
  2
AcDmViewport
  3
AcMechDwgViewMgmt
 90
    33792
280
     0
281
     0
  0
CLASS
  1
AM_VIEW_DISPLAY
  2
AcDmDwgViewDisplay
  3
AcMechDwgViewMgmt
 90
    33792
280
     0
281
     0
  0
CLASS
  1
AM_CLDFLTS
  2
AcDmClDflts
  3
AcMechDwgViewMgmt
 90
    33792
280
     0
281
     0
  0
CLASS
  1
AM_BASE_VIEW
  2
AcDmBaseView
  3
AcMechDwgViewMgmt
 90
    33792
280
     0
281
     0
  0
CLASS
  1
ACMEPLINE
  2
AcImPlineDisplay
  3
AcMeServices
 90
    33792
280
     0
281
     1
  0
CLASS
  1
ACDMPARTVIEWDATA
  2
AcDmPartViewData
  3
AcMechDwgViewMgmt
 90
    33792
280
     0
281
     0
  0
CLASS
  1
ACDMDISPLAYATTRIBS
  2
AcDmDisplayAttribs
  3
AcMechDwgViewMgmt
 90
    33792
280
     0
281
     0
  0
CLASS
  1
ACDMBODYINSTANCEDATA
  2
AcDmBodyInstanceData
  3
AcMechDwgViewMgmt
 90
    33792
280
     0
281
     0
  0
CLASS
  1
ACDMVWEDLINE
  2
AcDmViewEdgeLine
  3
AcMechDwgViewMgmt
 90
    33792
280
     0
281
     1
  0
CLASS
  1
ACDMVWEDARC
  2
AcDmViewEdgeArc
  3
AcMechDwgViewMgmt
 90
    33792
280
     0
281
     1
  0
CLASS
  1
AM_ISO_VIEW_ORIENT
  2
AcDmIsoViewOr
  3
AcMechDwgViewMgmt
 90
    33792
280
     0
281
     0
  0
CLASS
  1
AM_ISO_VIEW
  2
AcDmIsoView
  3
AcMechDwgViewMgmt
 90
    33792
280
     0
281
     0
  0
CLASS
  1
AM_ORTHO_VIEW_ORIENT
  2
AcDmOrthoViewOr
  3
AcMechDwgViewMgmt
 90
    33792
280
     0
281
     0
  0
CLASS
  1
AM_ORTHO_VIEW
  2
AcDmOrthoView
  3
AcMechDwgViewMgmt
 90
    33792
280
     0
281
     0
  0
CLASS
  1
ACAMVIEWREACTOR
  2
AcAmViewReactor
  3
DesignerAssemblies
 90
    33792
280
     0
281
     0
  0
CLASS
  1
AMVIEW
  2
AcAmView
  3
DesignerAssemblies
 90
    33792
280
     0
281
     0
  0
CLASS
  1
ACAMVIEWCONTEXT
  2
AcAmViewContext
  3
DesignerAssemblies
 90
    33792
280
     0
281
     0
  0
CLASS
  1
ACAMCOMPENTVIEW
  2
AcAmCompEntView
  3
DesignerAssemblies
 90
    33792
280
     0
281
     1
  0
CLASS
  1
ACAMCOMPVIEWREACTOR
  2
AcAmGrCompViewReactor
  3
DesignerAssemblies
 90
    33792
280
     0
281
     0
  0
CLASS
  1
ACAMVIEWENTITYFILTER
  2
AcAmViewEntityFilter
  3
DesignerAssemblies
 90
    33792
280
     0
281
     0
  0
CLASS
  1
ACDMVWEDCIRC
  2
AcDmViewEdgeCircle
  3
AcMechDwgViewMgmt
 90
    33792
280
     0
281
     1
  0
CLASS
  1
AM_ADCIRCTRLINE
  2
AcAdBullsEyeCl
  3
DesignerServices
 90
    33792
280
     0
281
     0
  0
CLASS
  1
AM_ADLINCTRLINE
  2
AcAdLineCl
  3
DesignerServices
 90
    33792
280
     0
281
     0
  0
CLASS
  1
ACDMVIEWGEOM
  2
AcDmViewGeometry
  3
AcMechDwgViewMgmt
 90
    33792
280
     0
281
     1
  0
CLASS
  1
ACCMDISTLNLN
  2
AcCmDistLnLn
  3
DesignerAssemblies
 90
    33792
280
     0
281
     0
  0
CLASS
  1
ACAMXREFCONTEXTMODELER
  2
AcAmXrefContextModeler
  3
DesignerAssemblies
 90
    33792
280
     0
281
     0
  0
CLASS
  1
CNRREFID
  2
AcAdCornerId
  3
DesignerServices
 90
    33792
280
     0
281
     0
  0
CLASS
  1
ACADPARTPOINTRES
  2
AcAdPartPointRes
  3
AdGrefServices
 90
    33792
280
     0
281
     0
  0
CLASS
  1
AM_VIEWDIMLINEAR
  2
AcDmViewDimLinear
  3
AcMechDwgViewMgmt
 90
    33792
280
     0
281
     0
  0
CLASS
  1
PARAM
  2
AcAdParam
  3
DesignerServices
 90
    33792
280
     0
281
     0
  0
CLASS
  1
SORTENTSTABLE
  2
AcDbSortentsTable
  3
ObjectDBX Classes
 90
        0
280
     0
281
     0
  0
CLASS
  1
ACADPARTCIRCEDGRES
  2
AcAdPartCircEdgRes
  3
AdGrefServices
 90
    33792
280
     0
281
     0
  0
CLASS
  1
AM_VIEWDIMRADIUS
  2
AcDmViewDimRadius
  3
AcMechDwgViewMgmt
 90
    33792
280
     0
281
     0
  0
CLASS
  1
DEPEDGEPATTERNINSTANCE
  2
AcAdDepEdgePatternInstance
  3
DesignerServices
 90
    33792
280
     0
281
     0
  0
CLASS
  1
FEEDBACK
  2
AcAmFeedback
  3
DesignerAssemblies
 90
    33792
280
     0
281
     1
  0
CLASS
  1
ACAMTRIAXISSYMBOL
  2
AcAmTriAxisSymbol
  3
DesignerAssemblies
 90
    33792
280
     0
281
     0
  0
CLASS
  1
ACAMTEXTCIRCLESYMBOL
  2
AcAmTextCircleSymbol
  3
DesignerAssemblies
 90
    33792
280
     0
281
     0
  0
CLASS
  1
ACDMVISEDIT
  2
AcDmViewEntityVisEdit
  3
AcMechDwgViewMgmt
 90
    33792
280
     0
281
     0
  0
CLASS
  1
SILEDGEID
  2
AcAdSilhouetteEdgeId
  3
DesignerServices
 90
    33792
280
     0
281
     0
  0
CLASS
  1
MATERIAL
  2
AcDbMaterial
  3
ObjectDBX Classes
 90
     1153
280
     0
281
     0
  0
CLASS
  1
VISUALSTYLE
  2
AcDbVisualStyle
  3
ObjectDBX Classes
 90
     4095
280
     0
281
     0
  0
CLASS
  1
SCALE
  2
AcDbScale
  3
ObjectDBX Classes
 90
     1153
280
     0
281
     0
  0
CLASS
  1
MLEADERSTYLE
  2
AcDbMLeaderStyle
  3
ACDB_MLEADERSTYLE_CLASS
 90
     4095
280
     0
281
     0
  0
CLASS
  1
EXACTERMXREFMAP
  2
ExAcTermXrefMap
  3
EXAC_SERVICE
 90
    33793
280
     0
281
     0
  0
CLASS
  1
NPOCOLLECTION
  2
AcDbImpNonPersistentObjectsCollection
  3
ObjectDBX Classes
 90
     1153
280
     0
281
     0
  0
CLASS
  1
ACRFATTGENMGR
  2
AcRfAttGeneralMgr
  3
AcAttribServices
 90
     1024
280
     0
281
     0
  0
CLASS
  1
ACRFOBJATTMGR
  2
AcRfObjAttGroupMgr
  3
AcAttribServices
 90
     1024
280
     0
281
     0
  0
CLASS
  1
ACRFMCADAPIATTHOLDER
  2
AcRfMCADAPIAttHolder
  3
AcAttribServices
 90
     1024
280
     0
281
     0
  0
CLASS
  1
AMDTSYSATTR
  2
AmdtSystemAttribute
  3
AcAttribServices
 90
     1024
280
     0
281
     0
  0
CLASS
  1
ACMTAPERSTANDARDISO
  2
AcmTaperStdISO
  3
"Amdt_StdImp|Product Description: AutoCAD Mechanical|Company: Autodesk, Inc."
 90
     1024
280
     0
281
     0
  0
CLASS
  1
ACMANOOTATIONVIEWSTANDARDISO
  2
AmdtAnViewStdISO
  3
"Amdt_StdImp|Product Description: AutoCAD Mechanical|Company: Autodesk, Inc."
 90
     1024
280
     0
281
     0
  0
CLASS
  1
SOLID_BACKGROUND
  2
AcDbSolidBackground
  3
SCENEOE
 90
     4095
280
     0
281
     0
  0
CLASS
  1
CELLSTYLEMAP
  2
AcDbCellStyleMap
  3
ObjectDBX Classes
 90
     1152
280
     0
281
     0
  0
CLASS
  1
AM_ABS_AXIS
  2
AcDmAbsAxisDef
  3
AcMechDwgViewMgmt
 90
    33792
280
     0
281
     0
  0
CLASS
  1
AM_ABS_PLANE
  2
AcDmAbsPlnDef
  3
AcMechDwgViewMgmt
 90
    33792
280
     0
281
     0
  0
CLASS
  1
MULTILEADER
  2
AcDbMLeader
  3
ACDB_MLEADER_CLASS
 90
     1025
280
     0
281
     1
  0
CLASS
  1
AMDTEDGESTANDARDISO13715
  2
AmdtEdgeStdISO13715
  3
"Amdt_StdImp|Product Description: AutoCAD Mechanical|Company: Autodesk, Inc."
 90
     1024
280
     0
281
     0
  0
CLASS
  1
ACMSURFSTANDARDISO2002
  2
AcmSurfTextStdISO2002
  3
"Amdt_StdImp|Product Description: AutoCAD Mechanical|Company: Autodesk, Inc."
 90
     1024
280
     0
281
     0
  0
CLASS
  1
ACMSECTIONSTANDARDISO2001
  2
AmdtSectionSymStdISO2001
  3
"Amdt_StdImp|Product Description: AutoCAD Mechanical|Company: Autodesk, Inc."
 90
     1024
280
     0
281
     0
  0
CLASS
  1
ACAMGHOLECHARTSTDISO
  2
AcAmgHoleChartStdISO
  3
AmgDim|Product Description: AutoCAD Mechanical|Company: Autodesk, Inc.
 90
     1024
280
     0
281
     0
  0
ENDSEC
  0
SECTION
  2
TABLES
  0
TABLE
  2
VPORT
  5
2A
330
0
100
AcDbSymbolTable
 70
     1
  0
VPORT
  5
BF0
330
2A
100
AcDbSymbolTableRecord
100
AcDbViewportTableRecord
  2
*Active
 70
     0
 10
0.0
 20
0.0
 11
1.0
 21
1.0
 12
0.0
 22
0.0
 13
0.0
 23
0.0
 14
10.0
 24
10.0
 15
10.0
 25
10.0
 16
0.0
 26
0.0
 36
3614.416172496793
 17
2818.727096665394
 27
-862.9762818769323
 37
0.0
 40
1221.332382828435
 41
1.672936259143155
 42
50.0
 43
0.0
 44
0.0
 50
0.0
 51
0.0
 71
     0
 72
  2000
 73
     1
 74
     0
 75
     0
 76
     0
 77
     0
 78
     0
281
     4
 65
     0
110
0.0
120
0.0
130
0.0
111
1.0
121
0.0
131
0.0
112
0.0
122
1.0
132
0.0
 79
     0
146
0.0
  0
ENDTAB
  0
TABLE
  2
LTYPE
  5
25
330
0
100
AcDbSymbolTable
 70
    11
  0
LTYPE
  5
26
330
25
100
AcDbSymbolTableRecord
100
AcDbLinetypeTableRecord
  2
BYBLOCK
 70
     0
  3

 72
    65
 73
     0
 40
0.0
  0
LTYPE
  5
27
330
25
100
AcDbSymbolTableRecord
100
AcDbLinetypeTableRecord
  2
BYLAYER
 70
     0
  3

 72
    65
 73
     0
 40
0.0
  0
LTYPE
  5
14
330
25
100
AcDbSymbolTableRecord
100
AcDbLinetypeTableRecord
  2
CONTINUOUS
 70
     0
  3
Solid line
 72
    65
 73
     0
 40
0.0
  0
LTYPE
  5
81
330
25
100
AcDbSymbolTableRecord
100
AcDbLinetypeTableRecord
  2
HIDDEN
 70
     0
  3
Hidden __ __ __ __ __ __ __ __ __ __ __ __ __ _
 72
    65
 73
     2
 40
0.375
 49
0.25
 74
     0
 49
-0.125
 74
     0
  0
LTYPE
  5
624
330
25
100
AcDbSymbolTableRecord
100
AcDbLinetypeTableRecord
  2
AM_ISO08W050
 70
     0
  3
____ . ____ . ____ . ____ . ____ . ____ . ____
 72
    65
 73
     4
 40
18.0
 49
12.0
 74
     0
 49
-1.5
 74
     0
 49
3.0
 74
     0
 49
-1.5
 74
     0
  0
LTYPE
  5
C97
330
25
100
AcDbSymbolTableRecord
100
AcDbLinetypeTableRecord
  2
DASHDOT
 70
     0
  3
____ _ ____ _ ____ _ ____ _ ____ _ ____ _ ____
 72
    65
 73
     4
 40
5.5
 49
4.0
 74
     0
 49
-0.6
 74
     0
 49
0.3
 74
     0
 49
-0.6
 74
     0
  0
LTYPE
  5
1286
330
25
100
AcDbSymbolTableRecord
100
AcDbLinetypeTableRecord
  2
PHANTOM2
 70
     0
  3
Phantom (.5x) ___ _ _ ___ _ _ ___ _ _ ___ _ _
 72
    65
 73
     6
 40
31.75
 49
15.875
 74
     0
 49
-3.174999999999998
 74
     0
 49
3.174999999999998
 74
     0
 49
-3.174999999999998
 74
     0
 49
3.174999999999998
 74
     0
 49
-3.174999999999998
 74
     0
  0
LTYPE
  5
1287
330
25
100
AcDbSymbolTableRecord
100
AcDbLinetypeTableRecord
  2
CENTER
 70
     0
  3
Center ____ _ ____ _ ____ _ ____ _ ____ _ ____
 72
    65
 73
     4
 40
50.8
 49
31.75
 74
     0
 49
-6.349999999999997
 74
     0
 49
6.349999999999997
 74
     0
 49
-6.349999999999997
 74
     0
  0
LTYPE
  5
12D5
330
25
100
AcDbSymbolTableRecord
100
AcDbLinetypeTableRecord
  2
ASULTYPE
 70
     0
  3
実線
 72
    65
 73
     2
 40
3.0
 49
2.5
 74
     0
 49
0.5
 74
     0
  0
LTYPE
  5
12D6
330
25
100
AcDbSymbolTableRecord
100
AcDbLinetypeTableRecord
  2
ASVLTYPE
 70
     0
  3
__ __ __ __ __ __ __ __ __ __ __ __ __ __ __ __ __ __ __ __ __
 72
    65
 73
     2
 40
0.75
 49
0.5
 74
     0
 49
-0.25
 74
     0
  0
LTYPE
  5
132A
330
25
100
AcDbSymbolTableRecord
100
AcDbLinetypeTableRecord
  2
ACISOWELD
 70
     0
  3
_ _ _ _ _
 72
    65
 73
     2
 40
2.0
 49
2.0
 74
     0
 49
-1.0
 74
     0
  0
LTYPE
  5
132B
330
25
100
AcDbSymbolTableRecord
100
AcDbLinetypeTableRecord
  2
ACISOTGB
 70
     0
  3
__ . . __ . .
 72
    65
 73
     6
 40
9.0
 49
4.0
 74
     0
 49
-1.0
 74
     0
 49
1.0
 74
     0
 49
-1.0
 74
     0
 49
1.0
 74
     0
 49
-1.0
 74
     0
  0
LTYPE
  5
132C
330
25
100
AcDbSymbolTableRecord
100
AcDbLinetypeTableRecord
  2
ACISOTGL
 70
     0
  3
_ _ _ _ _
 72
    65
 73
     2
 40
3.0
 49
2.0
 74
     0
 49
-1.0
 74
     0
  0
ENDTAB
  0
TABLE
  2
LAYER
  5
1F
102
{ACAD_XDICTIONARY
360
20
102
}
330
0
100
AcDbSymbolTable
 70
     8
  0
LAYER
  5
5
102
{ACAD_XDICTIONARY
360
6
102
}
330
1F
100
AcDbSymbolTableRecord
100
AcDbLayerTableRecord
  2
0
 70
     0
 62
     7
  6
CONTINUOUS
370
    -3
390
8
  0
LAYER
  5
B88
330
1F
100
AcDbSymbolTableRecord
100
AcDbLayerTableRecord
  2
Defpoints
 70
     0
 62
     7
  6
CONTINUOUS
290
     0
370
    -3
390
8
  0
LAYER
  5
C98
102
{ACAD_XDICTIONARY
360
C99
102
}
330
1F
100
AcDbSymbolTableRecord
100
AcDbLayerTableRecord
  2
SIZE
 70
     0
 62
    30
  6
CONTINUOUS
370
    -3
390
8
  0
LAYER
  5
C9A
102
{ACAD_XDICTIONARY
360
C9B
102
}
330
1F
100
AcDbSymbolTableRecord
100
AcDbLayerTableRecord
  2
OUTLINE
 70
     0
 62
     3
  6
CONTINUOUS
370
    -3
390
8
  0
LAYER
  5
C9E
102
{ACAD_XDICTIONARY
360
C9F
102
}
330
1F
100
AcDbSymbolTableRecord
100
AcDbLayerTableRecord
  2
BASIS
 70
     0
 62
     6
  6
DASHDOT
370
    -3
390
8
  0
LAYER
  5
CA0
102
{ACAD_XDICTIONARY
360
CA1
102
}
330
1F
100
AcDbSymbolTableRecord
100
AcDbLayerTableRecord
  2
NOTE
 70
     0
 62
     4
  6
CONTINUOUS
370
    -3
390
8
  0
LAYER
  5
CA2
102
{ACAD_XDICTIONARY
360
CA3
102
}
330
1F
100
AcDbSymbolTableRecord
100
AcDbLayerTableRecord
  2
ARRANGE
 70
     0
 62
     1
  6
CONTINUOUS
370
    -3
390
8
  0
LAYER
  5
CA4
102
{ACAD_XDICTIONARY
360
CA5
102
}
330
1F
100
AcDbSymbolTableRecord
100
AcDbLayerTableRecord
  2
ETC
 70
     0
 62
    61
  6
CONTINUOUS
370
    -3
390
8
  0
ENDTAB
  0
TABLE
  2
STYLE
  5
22
330
0
100
AcDbSymbolTable
 70
     4
  0
STYLE
  5
23
330
22
100
AcDbSymbolTableRecord
100
AcDbTextStyleTableRecord
  2
STANDARD
 70
     0
 40
0.0
 41
1.0
 50
0.0
 71
     0
 42
62.5215949741746
  3
romans.shx
  4
extfont.shx
  0
STYLE
  5
CA6
330
22
100
AcDbSymbolTableRecord
100
AcDbTextStyleTableRecord
  2
STANDARD1
 70
     0
 40
0.0
 41
1.0
 50
0.0
 71
     0
 42
3.5
  3
MONOTXT
  4
BIGFONT
  0
STYLE
  5
131A
330
22
100
AcDbSymbolTableRecord
100
AcDbTextStyleTableRecord
  2
ACISOTS
 70
     0
 40
1.0
 41
1.0
 50
0.0
 71
     0
 42
62.5215949741746
  3
isocp.shx
  4
extfont.shx
  0
STYLE
  5
1329
330
22
100
AcDbSymbolTableRecord
100
AcDbTextStyleTableRecord
  2
ACISOGDT
 70
     0
 40
0.0
 41
1.0
 50
0.0
 71
     0
 42
62.5215949741746
  3
amgdt.shx
  4

  0
ENDTAB
  0
TABLE
  2
VIEW
  5
28
330
0
100
AcDbSymbolTable
 70
     0
  0
ENDTAB
  0
TABLE
  2
UCS
  5
29
330
0
100
AcDbSymbolTable
 70
     0
  0
ENDTAB
  0
TABLE
  2
APPID
  5
2E
330
0
100
AcDbSymbolTable
 70
    22
  0
APPID
  5
2F
330
2E
100
AcDbSymbolTableRecord
100
AcDbRegAppTableRecord
  2
ACAD
 70
     0
  0
APPID
  5
38
330
2E
100
AcDbSymbolTableRecord
100
AcDbRegAppTableRecord
  2
ACAD_DSTYLE_DIMJOGGED_JOGANGLE_SYMBOL
 70
     0
  0
APPID
  5
7C
330
2E
100
AcDbSymbolTableRecord
100
AcDbRegAppTableRecord
  2
AcAecLayerStandard
 70
     0
  0
APPID
  5
1E
330
2E
100
AcDbSymbolTableRecord
100
AcDbRegAppTableRecord
  2
ACAD_PSEXT
 70
     0
  0
APPID
  5
AFF
330
2E
100
AcDbSymbolTableRecord
100
AcDbRegAppTableRecord
  2
ACATTRIBSERVICES
 70
     0
  0
APPID
  5
B18
330
2E
100
AcDbSymbolTableRecord
100
AcDbRegAppTableRecord
  2
ACAD_MLEADERVER
 70
     0
  0
APPID
  5
B21
330
2E
100
AcDbSymbolTableRecord
100
AcDbRegAppTableRecord
  2
ACAD_EXEMPT_FROM_CAD_STANDARDS
 70
     0
  0
APPID
  5
B5E
330
2E
100
AcDbSymbolTableRecord
100
AcDbRegAppTableRecord
  2
ACAD_DSTYLE_DIMJAG
 70
     0
  0
APPID
  5
B5F
330
2E
100
AcDbSymbolTableRecord
100
AcDbRegAppTableRecord
  2
ACAD_DSTYLE_DIMTALN
 70
     0
  0
APPID
  5
B6F
330
2E
100
AcDbSymbolTableRecord
100
AcDbRegAppTableRecord
  2
ACAD_DSTYLE_DIMEXT_LENGTH
 70
     0
  0
APPID
  5
1252
330
2E
100
AcDbSymbolTableRecord
100
AcDbRegAppTableRecord
  2
GENIUS_GENDIM_13
 70
     0
  0
APPID
  5
1253
330
2E
100
AcDbSymbolTableRecord
100
AcDbRegAppTableRecord
  2
GENIUS_GENDTOL_13
 70
     0
  0
APPID
  5
1254
330
2E
100
AcDbSymbolTableRecord
100
AcDbRegAppTableRecord
  2
GENIUS_GE3DTOL_13
 70
     0
  0
APPID
  5
1257
330
2E
100
AcDbSymbolTableRecord
100
AcDbRegAppTableRecord
  2
MCAD_NO_VIS
 70
     0
  0
APPID
  5
1258
330
2E
100
AcDbSymbolTableRecord
100
AcDbRegAppTableRecord
  2
ACAD_TEMP_GRAPHIC
 70
     0
  0
APPID
  5
1289
330
2E
100
AcDbSymbolTableRecord
100
AcDbRegAppTableRecord
  2
AD_DRAW
 70
     0
  0
APPID
  5
12D7
330
2E
100
AcDbSymbolTableRecord
100
AcDbRegAppTableRecord
  2
ASURF_PCURVE_APPNAME
 70
     0
  0
APPID
  5
12DC
330
2E
100
AcDbSymbolTableRecord
100
AcDbRegAppTableRecord
  2
AMG_3D2D_5.0
 70
     0
  0
APPID
  5
130D
330
2E
100
AcDbSymbolTableRecord
100
AcDbRegAppTableRecord
  2
DESIGNERASSEMBLIES
 70
     0
  0
APPID
  5
1311
330
2E
100
AcDbSymbolTableRecord
100
AcDbRegAppTableRecord
  2
ACADM_DIM_EDIT
 70
     0
  0
APPID
  5
1312
330
2E
100
AcDbSymbolTableRecord
100
AcDbRegAppTableRecord
  2
AMDT_DM_ADJ
 70
     0
  0
APPID
  5
1669
330
2E
100
AcDbSymbolTableRecord
100
AcDbRegAppTableRecord
  2
ACAD_DSTYLE_DIMARC_LENGTH_SYMBOL
 70
     0
  0
ENDTAB
  0
TABLE
  2
DIMSTYLE
  5
30
330
0
100
AcDbSymbolTable
 70
    10
100
AcDbDimStyleTable
 71
     1
340
31
  0
DIMSTYLE
105
31
102
{ACAD_REACTORS
330
1D1F
330
1D2C
330
1D39
330
1D46
330
1D53
330
1D60
330
1D6D
102
}
330
30
100
AcDbSymbolTableRecord
100
AcDbDimStyleTableRecord
  2
STANDARD
 70
     0
 40
0.0
 41
2.0
 42
1.0
 43
3.75
 44
1.0
 73
     0
 74
     0
 77
     1
 78
     8
140
2.0
141
2.5
143
0.0394
147
1.0
171
     4
172
     1
173
     1
271
     0
272
     0
273
     8
274
     4
284
     8
340
23
341
32
343
32
344
32
1001
ACAD_DSTYLE_DIMEXT_LENGTH
1070
   378
1040
15.0
1001
ACAD_DSTYLE_DIMJOGGED_JOGANGLE_SYMBOL
1070
   384
1040
1.570796326794896
  0
DIMSTYLE
105
1337
330
30
100
AcDbSymbolTableRecord
100
AcDbDimStyleTableRecord
  2
AM_ISO
 70
     0
  4
"
 41
2.5
 42
1.0
 43
10.0
 44
1.0
 47
0.1
 48
0.1
 73
     0
 74
     0
 77
     1
 78
     8
 79
     2
140
3.5
141
0.0
143
0.0393701
146
0.71
147
1.5
172
     1
176
   256
177
   256
178
     2
271
     2
272
     3
274
     4
283
     0
284
     8
340
23
371
    -1
372
    -1
1001
ACAD_DSTYLE_DIMARC_LENGTH_SYMBOL
1070
   379
1070
     1
  0
DIMSTYLE
105
1338
330
30
100
AcDbSymbolTableRecord
100
AcDbDimStyleTableRecord
  2
AM_ISO$3
 70
     0
  4
"
 41
2.5
 42
1.0
 43
10.0
 44
1.0
 47
0.1
 48
0.1
 73
     0
 77
     1
 78
     8
 79
     2
140
3.5
141
0.0
143
0.0393701
146
0.71
147
1.5
176
   256
177
   256
178
     2
271
     2
272
     3
274
     4
283
     0
284
     8
288
     1
289
     0
340
23
371
    -1
372
    -1
1001
ACAD_DSTYLE_DIMARC_LENGTH_SYMBOL
1070
   379
1070
     1
  0
DIMSTYLE
105
1339
330
30
100
AcDbSymbolTableRecord
100
AcDbDimStyleTableRecord
  2
AM_ISO$4
 70
     0
  4
"
 41
2.5
 42
1.0
 43
10.0
 44
1.0
 47
0.1
 48
0.1
 73
     0
 77
     1
 78
     8
 79
     2
140
3.5
141
0.0
143
0.0393701
146
0.71
147
1.5
176
   256
177
   256
178
     2
271
     2
272
     3
274
     4
283
     0
284
     8
288
     1
289
     0
340
23
371
    -1
372
    -1
1001
ACAD_DSTYLE_DIMARC_LENGTH_SYMBOL
1070
   379
1070
     1
  0
DIMSTYLE
105
133A
330
30
100
AcDbSymbolTableRecord
100
AcDbDimStyleTableRecord
  2
AM_ISO$6
 70
     0
  4
"
 41
2.5
 42
1.0
 43
10.0
 44
1.0
 47
0.1
 48
0.1
 73
     0
 74
     0
 78
     8
 79
     2
140
3.5
141
0.0
143
0.0393701
146
0.71
147
1.5
172
     1
176
   256
177
   256
178
     2
271
     2
272
     3
274
     4
283
     0
284
     8
340
23
371
    -1
372
    -1
1001
ACAD_DSTYLE_DIMARC_LENGTH_SYMBOL
1070
   379
1070
     1
  0
DIMSTYLE
105
133B
330
30
100
AcDbSymbolTableRecord
100
AcDbDimStyleTableRecord
  2
AM_ISO$7
 70
     0
  4
"
 41
2.5
 42
1.0
 43
10.0
 44
1.0
 47
0.1
 48
0.1
 73
     0
 74
     0
 77
     1
 78
     8
 79
     2
140
5.0
141
0.0
143
0.0393701
146
0.71
147
1.5
172
     1
176
   256
177
   256
178
     2
271
     2
272
     3
274
     4
283
     0
284
     8
340
23
371
    -1
372
    -1
1001
ACAD_DSTYLE_DIMARC_LENGTH_SYMBOL
1070
   379
1070
     1
  0
DIMSTYLE
105
133C
330
30
100
AcDbSymbolTableRecord
100
AcDbDimStyleTableRecord
  2
AM_ISO$SF
 70
     0
  4
"
 41
2.5
 42
1.0
 43
10.0
 44
1.0
 47
0.1
 48
0.1
 73
     0
 74
     0
 75
     1
 76
     1
 77
     1
 78
     8
 79
     2
140
3.5
141
0.0
143
0.0393701
146
0.71
147
1.5
172
     1
176
   256
177
   256
178
     2
271
     2
272
     3
274
     4
283
     0
284
     8
340
23
371
    -1
372
    -1
1001
ACAD_DSTYLE_DIMARC_LENGTH_SYMBOL
1070
   379
1070
     1
  0
DIMSTYLE
105
1341
330
30
100
AcDbSymbolTableRecord
100
AcDbDimStyleTableRecord
  2
AM_ISO$SH
 70
     0
  4
"
 41
2.5
 42
1.0
 43
10.0
 44
1.0
 47
0.1
 48
0.1
 73
     0
 74
     0
 75
     1
 76
     1
 77
     1
 78
     8
 79
     2
140
3.5
141
0.0
143
0.0393701
144
2.0
146
0.71
147
1.5
172
     1
173
     1
176
   256
177
   256
178
     2
271
     2
272
     3
274
     4
283
     0
284
     8
340
23
343
133D
371
    -1
372
    -1
1001
ACAD_DSTYLE_DIMARC_LENGTH_SYMBOL
1070
   379
1070
     1
  0
DIMSTYLE
105
1349
330
30
100
AcDbSymbolTableRecord
100
AcDbDimStyleTableRecord
  2
STANDARD1
 70
     0
 40
10.0
 41
2.5
 42
0.625
 43
3.75
 44
1.25
 77
     1
 78
     8
140
2.5
141
0.0
147
1.0
173
     1
284
     8
340
23
341
32
343
32
344
32
  0
DIMSTYLE
105
134A
330
30
100
AcDbSymbolTableRecord
100
AcDbDimStyleTableRecord
  2
AM_JIS
 70
     0
  4
"
 40
10.0
 41
2.5
 42
1.0
 43
10.0
 44
1.0
 47
0.1
 48
0.1
 73
     0
 74
     0
 77
     3
 78
     8
 79
     2
140
3.5
141
0.0
143
0.0393701
146
0.71
147
1.5
172
     1
176
   256
177
   256
178
     2
271
     2
272
     3
274
     4
283
     0
284
     8
340
23
341
32
342
32
343
32
344
32
371
    -1
372
    -1
1001
ACAD_DSTYLE_DIMJOGGED_JOGANGLE_SYMBOL
1070
   384
1040
0.7853981633974483
1001
ACAD_DSTYLE_DIMARC_LENGTH_SYMBOL
1070
   379
1070
     1
  0
ENDTAB
  0
TABLE
  2
BLOCK_RECORD
  5
1
330
0
100
AcDbSymbolTable
 70
    25
  0
BLOCK_RECORD
  5
2
102
{ACAD_XDICTIONARY
360
3
102
}
330
1
100
AcDbSymbolTableRecord
100
AcDbBlockTableRecord
  2
*MODEL_SPACE
340
16
  0
BLOCK_RECORD
  5
18
330
1
100
AcDbSymbolTableRecord
100
AcDbBlockTableRecord
  2
*Paper_Space
340
1B
  0
BLOCK_RECORD
  5
32
330
1
100
AcDbSymbolTableRecord
100
AcDbBlockTableRecord
  2
_OPEN30
340
0
102
{BLKREFS
331
11FA
331
11FB
331
1203
331
1204
331
120C
331
120D
331
1215
331
1216
331
121E
331
121F
331
1227
331
1228
331
1230
331
1231
331
15E3
331
15E4
331
15F0
331
15F1
331
15FD
331
15FE
331
162D
331
162E
331
1636
331
1637
331
163F
331
1640
331
174E
331
174F
331
1D26
331
1D27
331
1D33
331
1D34
331
1D40
331
1D41
331
1D4D
331
1D4E
331
1D5A
331
1D5B
331
1D67
331
1D68
331
1D74
331
1D75
102
}
  0
BLOCK_RECORD
  5
B89
330
1
100
AcDbSymbolTableRecord
100
AcDbBlockTableRecord
  2
*D1
340
0
  0
BLOCK_RECORD
  5
B96
330
1
100
AcDbSymbolTableRecord
100
AcDbBlockTableRecord
  2
*D2
340
0
  0
BLOCK_RECORD
  5
BA3
330
1
100
AcDbSymbolTableRecord
100
AcDbBlockTableRecord
  2
*D3
340
0
  0
BLOCK_RECORD
  5
BB0
330
1
100
AcDbSymbolTableRecord
100
AcDbBlockTableRecord
  2
*D4
340
0
  0
BLOCK_RECORD
  5
BBD
330
1
100
AcDbSymbolTableRecord
100
AcDbBlockTableRecord
  2
*D5
340
0
  0
BLOCK_RECORD
  5
BCA
330
1
100
AcDbSymbolTableRecord
100
AcDbBlockTableRecord
  2
*D6
340
0
  0
BLOCK_RECORD
  5
BD7
330
1
100
AcDbSymbolTableRecord
100
AcDbBlockTableRecord
  2
*D7
340
0
  0
BLOCK_RECORD
  5
C92
330
1
100
AcDbSymbolTableRecord
100
AcDbBlockTableRecord
  2
_DOTBLANK
340
0
  0
BLOCK_RECORD
  5
133D
330
1
100
AcDbSymbolTableRecord
100
AcDbBlockTableRecord
  2
GENAXEH
340
0
  0
BLOCK_RECORD
  5
15DD
330
1
100
AcDbSymbolTableRecord
100
AcDbBlockTableRecord
  2
*D10
340
0
  0
BLOCK_RECORD
  5
15EA
330
1
100
AcDbSymbolTableRecord
100
AcDbBlockTableRecord
  2
*D11
340
0
  0
BLOCK_RECORD
  5
15F7
330
1
100
AcDbSymbolTableRecord
100
AcDbBlockTableRecord
  2
*D12
340
0
  0
BLOCK_RECORD
  5
1604
330
1
100
AcDbSymbolTableRecord
100
AcDbBlockTableRecord
  2
*D13
340
0
  0
BLOCK_RECORD
  5
1611
330
1
100
AcDbSymbolTableRecord
100
AcDbBlockTableRecord
  2
*D14
340
0
  0
BLOCK_RECORD
  5
161E
330
1
100
AcDbSymbolTableRecord
100
AcDbBlockTableRecord
  2
*D15
340
0
  0
BLOCK_RECORD
  5
1646
330
1
100
AcDbSymbolTableRecord
100
AcDbBlockTableRecord
  2
*D16
340
0
  0
BLOCK_RECORD
  5
1D20
330
1
100
AcDbSymbolTableRecord
100
AcDbBlockTableRecord
  2
*D17
340
0
  0
BLOCK_RECORD
  5
1D2D
330
1
100
AcDbSymbolTableRecord
100
AcDbBlockTableRecord
  2
*D18
340
0
  0
BLOCK_RECORD
  5
1D3A
330
1
100
AcDbSymbolTableRecord
100
AcDbBlockTableRecord
  2
*D19
340
0
  0
BLOCK_RECORD
  5
1D47
330
1
100
AcDbSymbolTableRecord
100
AcDbBlockTableRecord
  2
*D20
340
0
  0
BLOCK_RECORD
  5
1D54
330
1
100
AcDbSymbolTableRecord
100
AcDbBlockTableRecord
  2
*D21
340
0
  0
BLOCK_RECORD
  5
1D61
330
1
100
AcDbSymbolTableRecord
100
AcDbBlockTableRecord
  2
*D22
340
0
  0
BLOCK_RECORD
  5
1D6E
330
1
100
AcDbSymbolTableRecord
100
AcDbBlockTableRecord
  2
*D23
340
0
  0
ENDTAB
  0
ENDSEC
  0
SECTION
  2
BLOCKS
  0
BLOCK
  5
4
330
2
100
AcDbEntity
  8
0
100
AcDbBlockBegin
  2
*MODEL_SPACE
 70
     0
 10
0.0
 20
0.0
 30
0.0
  3
*MODEL_SPACE
  1

  0
ENDBLK
  5
15
330
2
100
AcDbEntity
  8
0
100
AcDbBlockEnd
  0
BLOCK
  5
19
330
18
100
AcDbEntity
 67
     1
  8
0
100
AcDbBlockBegin
  2
*Paper_Space
 70
     0
 10
0.0
 20
0.0
 30
0.0
  3
*Paper_Space
  1

  0
ENDBLK
  5
1A
330
18
100
AcDbEntity
 67
     1
  8
0
100
AcDbBlockEnd
  0
BLOCK
  5
33
330
32
100
AcDbEntity
  8
0
100
AcDbBlockBegin
  2
_OPEN30
 70
     0
 10
0.0
 20
0.0
 30
0.0
  3
_OPEN30
  1

  0
LINE
  5
34
330
32
100
AcDbEntity
  8
0
  6
ByBlock
 62
     0
100
AcDbLine
 10
-1.0
 20
0.26794919
 30
0.0
 11
0.0
 21
0.0
 31
0.0
  0
LINE
  5
35
330
32
100
AcDbEntity
  8
0
  6
ByBlock
 62
     0
100
AcDbLine
 10
0.0
 20
0.0
 30
0.0
 11
-1.0
 21
-0.26794919
 31
0.0
  0
LINE
  5
36
330
32
100
AcDbEntity
  8
0
  6
ByBlock
 62
     0
100
AcDbLine
 10
0.0
 20
0.0
 30
0.0
 11
-1.0
 21
0.0
 31
0.0
  0
ENDBLK
  5
37
330
32
100
AcDbEntity
  8
0
100
AcDbBlockEnd
  0
BLOCK
  5
B93
330
B89
100
AcDbEntity
  8
0
100
AcDbBlockBegin
  2
*D1
 70
     1
 10
0.0
 20
0.0
 30
0.0
  3
*D1
  1

  0
LINE
  5
122D
330
B89
100
AcDbEntity
  8
SIZE
 62
     0
370
    -2
100
AcDbLine
 10
-314.4855110895245
 20
-660.2776313169656
 30
0.0
 11
-357.4203349729813
 21
-660.2776313169656
 31
0.0
  0
LINE
  5
122E
330
B89
100
AcDbEntity
  8
SIZE
 62
     0
370
    -2
100
AcDbLine
 10
-314.4855110895245
 20
-810.2776313169655
 30
0.0
 11
-357.4203349729813
 21
-810.2776313169655
 31
0.0
  0
LINE
  5
122F
330
B89
100
AcDbEntity
  8
SIZE
 62
     0
370
    -2
100
AcDbLine
 10
-352.4203349729813
 20
-670.2776313169656
 30
0.0
 11
-352.4203349729813
 21
-800.2776313169656
 31
0.0
  0
INSERT
  5
1230
330
B89
100
AcDbEntity
  8
SIZE
 62
     0
370
    -2
100
AcDbBlockReference
  2
_OPEN30
 10
-352.4203349729813
 20
-660.2776313169656
 30
0.0
 41
10.0
 42
10.0
 43
10.0
 50
90.0
  0
INSERT
  5
1231
330
B89
100
AcDbEntity
  8
SIZE
 62
     0
370
    -2
100
AcDbBlockReference
  2
_OPEN30
 10
-352.4203349729813
 20
-810.2776313169655
 30
0.0
 41
10.0
 42
10.0
 43
10.0
 50
270.0
  0
MTEXT
  5
1232
330
B89
100
AcDbEntity
  8
SIZE
 62
     0
100
AcDbMText
 10
-362.4203349729812
 20
-735.2776313169656
 30
0.0
 40
10.0
 41
0.0
 71
     5
 72
     1
  1
\A1;150
 11
0.0000000000000001
 21
1.0
 31
0.0
 73
     1
 44
1.0
1001
ACAD
1000
MTEXTBEGIN
1070
    73
1070
     1
1070
    44
1040
1.0
1070
    74
1070
     0
1000
MTEXTEND
  0
POINT
  5
1233
330
B89
100
AcDbEntity
  8
Defpoints
 62
     0
100
AcDbPoint
 10
-309.4855110895245
 20
-660.2776313169656
 30
0.0
  0
POINT
  5
1234
330
B89
100
AcDbEntity
  8
Defpoints
 62
     0
100
AcDbPoint
 10
-309.4855110895245
 20
-810.2776313169655
 30
0.0
  0
POINT
  5
1235
330
B89
100
AcDbEntity
  8
Defpoints
 62
     0
100
AcDbPoint
 10
-352.4203349729813
 20
-810.2776313169655
 30
0.0
  0
ENDBLK
  5
B94
330
B89
100
AcDbEntity
  8
0
100
AcDbBlockEnd
  0
BLOCK
  5
BA0
330
B96
100
AcDbEntity
  8
0
100
AcDbBlockBegin
  2
*D2
 70
     1
 10
0.0
 20
0.0
 30
0.0
  3
*D2
  1

  0
LINE
  5
1224
330
B96
100
AcDbEntity
  8
SIZE
 62
     0
370
    -2
100
AcDbLine
 10
-314.4855110895245
 20
-810.2776313169655
 30
0.0
 11
-357.217762610784
 21
-810.2776313169655
 31
0.0
  0
LINE
  5
1225
330
B96
100
AcDbEntity
  8
SIZE
 62
     0
370
    -2
100
AcDbLine
 10
-314.4855110895245
 20
-960.2776313169655
 30
0.0
 11
-357.217762610784
 21
-960.2776313169655
 31
0.0
  0
LINE
  5
1226
330
B96
100
AcDbEntity
  8
SIZE
 62
     0
370
    -2
100
AcDbLine
 10
-352.2177626107839
 20
-820.2776313169655
 30
0.0
 11
-352.217762610784
 21
-950.2776313169656
 31
0.0
  0
INSERT
  5
1227
330
B96
100
AcDbEntity
  8
SIZE
 62
     0
370
    -2
100
AcDbBlockReference
  2
_OPEN30
 10
-352.2177626107839
 20
-810.2776313169655
 30
0.0
 41
10.0
 42
10.0
 43
10.0
 50
90.0
  0
INSERT
  5
1228
330
B96
100
AcDbEntity
  8
SIZE
 62
     0
370
    -2
100
AcDbBlockReference
  2
_OPEN30
 10
-352.217762610784
 20
-960.2776313169655
 30
0.0
 41
10.0
 42
10.0
 43
10.0
 50
270.0
  0
MTEXT
  5
1229
330
B96
100
AcDbEntity
  8
SIZE
 62
     0
100
AcDbMText
 10
-362.2177626107838
 20
-885.2776313169655
 30
0.0
 40
10.0
 41
0.0
 71
     5
 72
     1
  1
\A1;150
 11
0.0000000000000001
 21
1.0
 31
0.0
 73
     1
 44
1.0
1001
ACAD
1000
MTEXTBEGIN
1070
    73
1070
     1
1070
    44
1040
1.0
1070
    74
1070
     0
1000
MTEXTEND
  0
POINT
  5
122A
330
B96
100
AcDbEntity
  8
Defpoints
 62
     0
100
AcDbPoint
 10
-309.4855110895245
 20
-810.2776313169655
 30
0.0
  0
POINT
  5
122B
330
B96
100
AcDbEntity
  8
Defpoints
 62
     0
100
AcDbPoint
 10
-309.4855110895245
 20
-960.2776313169655
 30
0.0
  0
POINT
  5
122C
330
B96
100
AcDbEntity
  8
Defpoints
 62
     0
100
AcDbPoint
 10
-352.217762610784
 20
-960.2776313169655
 30
0.0
  0
ENDBLK
  5
BA1
330
B96
100
AcDbEntity
  8
0
100
AcDbBlockEnd
  0
BLOCK
  5
BAD
330
BA3
100
AcDbEntity
  8
0
100
AcDbBlockBegin
  2
*D3
 70
     1
 10
0.0
 20
0.0
 30
0.0
  3
*D3
  1

  0
LINE
  5
121B
330
BA3
100
AcDbEntity
  8
SIZE
 62
     0
370
    -2
100
AcDbLine
 10
-314.4855110895245
 20
-960.2776313169655
 30
0.0
 11
-356.9877206922773
 21
-960.2776313169655
 31
0.0
  0
LINE
  5
121C
330
BA3
100
AcDbEntity
  8
SIZE
 62
     0
370
    -2
100
AcDbLine
 10
-314.4855110895245
 20
-1110.277631316965
 30
0.0
 11
-356.9877206922773
 21
-1110.277631316965
 31
0.0
  0
LINE
  5
121D
330
BA3
100
AcDbEntity
  8
SIZE
 62
     0
370
    -2
100
AcDbLine
 10
-351.9877206922773
 20
-970.2776313169657
 30
0.0
 11
-351.9877206922773
 21
-1100.277631316965
 31
0.0
  0
INSERT
  5
121E
330
BA3
100
AcDbEntity
  8
SIZE
 62
     0
370
    -2
100
AcDbBlockReference
  2
_OPEN30
 10
-351.9877206922773
 20
-960.2776313169655
 30
0.0
 41
10.0
 42
10.0
 43
10.0
 50
90.0
  0
INSERT
  5
121F
330
BA3
100
AcDbEntity
  8
SIZE
 62
     0
370
    -2
100
AcDbBlockReference
  2
_OPEN30
 10
-351.9877206922773
 20
-1110.277631316965
 30
0.0
 41
10.0
 42
10.0
 43
10.0
 50
270.0
  0
MTEXT
  5
1220
330
BA3
100
AcDbEntity
  8
SIZE
 62
     0
100
AcDbMText
 10
-361.9877206922772
 20
-1035.277631316965
 30
0.0
 40
10.0
 41
0.0
 71
     5
 72
     1
  1
\A1;150
 11
0.0000000000000001
 21
1.0
 31
0.0
 73
     1
 44
1.0
1001
ACAD
1000
MTEXTBEGIN
1070
    73
1070
     1
1070
    44
1040
1.0
1070
    74
1070
     0
1000
MTEXTEND
  0
POINT
  5
1221
330
BA3
100
AcDbEntity
  8
Defpoints
 62
     0
100
AcDbPoint
 10
-309.4855110895245
 20
-960.2776313169655
 30
0.0
  0
POINT
  5
1222
330
BA3
100
AcDbEntity
  8
Defpoints
 62
     0
100
AcDbPoint
 10
-309.4855110895245
 20
-1110.277631316965
 30
0.0
  0
POINT
  5
1223
330
BA3
100
AcDbEntity
  8
Defpoints
 62
     0
100
AcDbPoint
 10
-351.9877206922773
 20
-1110.277631316965
 30
0.0
  0
ENDBLK
  5
BAE
330
BA3
100
AcDbEntity
  8
0
100
AcDbBlockEnd
  0
BLOCK
  5
BBA
330
BB0
100
AcDbEntity
  8
0
100
AcDbBlockBegin
  2
*D4
 70
     1
 10
0.0
 20
0.0
 30
0.0
  3
*D4
  1

  0
LINE
  5
1212
330
BB0
100
AcDbEntity
  8
SIZE
 62
     0
370
    -2
100
AcDbLine
 10
-314.4855110895245
 20
-1110.277631316965
 30
0.0
 11
-356.8250825966313
 21
-1110.277631316965
 31
0.0
  0
LINE
  5
1213
330
BB0
100
AcDbEntity
  8
SIZE
 62
     0
370
    -2
100
AcDbLine
 10
-314.4855110895245
 20
-1260.277631316965
 30
0.0
 11
-356.8250825966314
 21
-1260.277631316965
 31
0.0
  0
LINE
  5
1214
330
BB0
100
AcDbEntity
  8
SIZE
 62
     0
370
    -2
100
AcDbLine
 10
-351.8250825966313
 20
-1120.277631316965
 30
0.0
 11
-351.8250825966314
 21
-1250.277631316965
 31
0.0
  0
INSERT
  5
1215
330
BB0
100
AcDbEntity
  8
SIZE
 62
     0
370
    -2
100
AcDbBlockReference
  2
_OPEN30
 10
-351.8250825966313
 20
-1110.277631316965
 30
0.0
 41
10.0
 42
10.0
 43
10.0
 50
90.0
  0
INSERT
  5
1216
330
BB0
100
AcDbEntity
  8
SIZE
 62
     0
370
    -2
100
AcDbBlockReference
  2
_OPEN30
 10
-351.8250825966314
 20
-1260.277631316965
 30
0.0
 41
10.0
 42
10.0
 43
10.0
 50
270.0
  0
MTEXT
  5
1217
330
BB0
100
AcDbEntity
  8
SIZE
 62
     0
100
AcDbMText
 10
-361.8250825966311
 20
-1185.277631316965
 30
0.0
 40
10.0
 41
0.0
 71
     5
 72
     1
  1
\A1;150
 11
0.0000000000000001
 21
1.0
 31
0.0
 73
     1
 44
1.0
1001
ACAD
1000
MTEXTBEGIN
1070
    73
1070
     1
1070
    44
1040
1.0
1070
    74
1070
     0
1000
MTEXTEND
  0
POINT
  5
1218
330
BB0
100
AcDbEntity
  8
Defpoints
 62
     0
100
AcDbPoint
 10
-309.4855110895245
 20
-1110.277631316965
 30
0.0
  0
POINT
  5
1219
330
BB0
100
AcDbEntity
  8
Defpoints
 62
     0
100
AcDbPoint
 10
-309.4855110895245
 20
-1260.277631316965
 30
0.0
  0
POINT
  5
121A
330
BB0
100
AcDbEntity
  8
Defpoints
 62
     0
100
AcDbPoint
 10
-351.8250825966314
 20
-1260.277631316965
 30
0.0
  0
ENDBLK
  5
BBB
330
BB0
100
AcDbEntity
  8
0
100
AcDbBlockEnd
  0
BLOCK
  5
BC7
330
BBD
100
AcDbEntity
  8
0
100
AcDbBlockBegin
  2
*D5
 70
     1
 10
0.0
 20
0.0
 30
0.0
  3
*D5
  1

  0
LINE
  5
1209
330
BBD
100
AcDbEntity
  8
SIZE
 62
     0
370
    -2
100
AcDbLine
 10
-282.4855110895383
 20
-579.2776313169651
 30
0.0
 11
-398.1681945371564
 21
-579.2776313169651
 31
0.0
  0
LINE
  5
120A
330
BBD
100
AcDbEntity
  8
SIZE
 62
     0
370
    -2
100
AcDbLine
 10
-243.9855110895382
 20
-1341.277631316965
 30
0.0
 11
-398.1681945371565
 21
-1341.277631316965
 31
0.0
  0
LINE
  5
120B
330
BBD
100
AcDbEntity
  8
SIZE
 62
     0
370
    -2
100
AcDbLine
 10
-393.1681945371563
 20
-589.2776313169647
 30
0.0
 11
-393.1681945371565
 21
-1331.277631316965
 31
0.0
  0
INSERT
  5
120C
330
BBD
100
AcDbEntity
  8
SIZE
 62
     0
370
    -2
100
AcDbBlockReference
  2
_OPEN30
 10
-393.1681945371563
 20
-579.2776313169651
 30
0.0
 41
10.0
 42
10.0
 43
10.0
 50
90.0
  0
INSERT
  5
120D
330
BBD
100
AcDbEntity
  8
SIZE
 62
     0
370
    -2
100
AcDbBlockReference
  2
_OPEN30
 10
-393.1681945371565
 20
-1341.277631316965
 30
0.0
 41
10.0
 42
10.0
 43
10.0
 50
270.0
  0
MTEXT
  5
120E
330
BBD
100
AcDbEntity
  8
SIZE
 62
     0
100
AcDbMText
 10
-403.1681945371563
 20
-960.277631316965
 30
0.0
 40
10.0
 41
0.0
 71
     5
 72
     1
  1
\A1;762
 11
0.0000000000000001
 21
1.0
 31
0.0
 73
     1
 44
1.0
1001
ACAD
1000
MTEXTBEGIN
1070
    73
1070
     1
1070
    44
1040
1.0
1070
    74
1070
     0
1000
MTEXTEND
  0
POINT
  5
120F
330
BBD
100
AcDbEntity
  8
Defpoints
 62
     0
100
AcDbPoint
 10
-277.4855110895383
 20
-579.2776313169651
 30
0.0
  0
POINT
  5
1210
330
BBD
100
AcDbEntity
  8
Defpoints
 62
     0
100
AcDbPoint
 10
-238.9855110895382
 20
-1341.277631316965
 30
0.0
  0
POINT
  5
1211
330
BBD
100
AcDbEntity
  8
Defpoints
 62
     0
100
AcDbPoint
 10
-393.1681945371565
 20
-1341.277631316965
 30
0.0
  0
ENDBLK
  5
BC8
330
BBD
100
AcDbEntity
  8
0
100
AcDbBlockEnd
  0
BLOCK
  5
BD4
330
BCA
100
AcDbEntity
  8
0
100
AcDbBlockBegin
  2
*D6
 70
     1
 10
0.0
 20
0.0
 30
0.0
  3
*D6
  1

  0
LINE
  5
11F7
330
BCA
100
AcDbEntity
  8
SIZE
 62
     0
370
    -2
100
AcDbLine
 10
-309.4855110895245
 20
-655.2776313169657
 30
0.0
 11
-309.4855110895245
 21
-533.7200016120257
 31
0.0
  0
LINE
  5
11F8
330
BCA
100
AcDbEntity
  8
SIZE
 62
     0
370
    -2
100
AcDbLine
 10
569.5144889104623
 20
-655.2776313169657
 30
0.0
 11
569.5144889104623
 21
-533.7200016120257
 31
0.0
  0
LINE
  5
11F9
330
BCA
100
AcDbEntity
  8
SIZE
 62
     0
370
    -2
100
AcDbLine
 10
-299.4855110895245
 20
-538.7200016120257
 30
0.0
 11
559.5144889104623
 21
-538.7200016120257
 31
0.0
  0
INSERT
  5
11FA
330
BCA
100
AcDbEntity
  8
SIZE
 62
     0
370
    -2
100
AcDbBlockReference
  2
_OPEN30
 10
-309.4855110895245
 20
-538.7200016120257
 30
0.0
 41
10.0
 42
10.0
 43
10.0
 50
180.0
  0
INSERT
  5
11FB
330
BCA
100
AcDbEntity
  8
SIZE
 62
     0
370
    -2
100
AcDbBlockReference
  2
_OPEN30
 10
569.5144889104623
 20
-538.7200016120257
 30
0.0
 41
10.0
 42
10.0
 43
10.0
  0
MTEXT
  5
11FC
330
BCA
100
AcDbEntity
  8
SIZE
 62
     0
100
AcDbMText
 10
130.0144889104689
 20
-528.7200016120257
 30
0.0
 40
10.0
 41
0.0
 71
     5
 72
     1
  1
\A1;879
 73
     1
 44
1.0
1001
ACAD
1000
MTEXTBEGIN
1070
    73
1070
     1
1070
    44
1040
1.0
1070
    74
1070
     0
1000
MTEXTEND
  0
POINT
  5
11FD
330
BCA
100
AcDbEntity
  8
Defpoints
 62
     0
100
AcDbPoint
 10
-309.4855110895245
 20
-660.2776313169656
 30
0.0
  0
POINT
  5
11FE
330
BCA
100
AcDbEntity
  8
Defpoints
 62
     0
100
AcDbPoint
 10
569.5144889104623
 20
-660.2776313169656
 30
0.0
  0
POINT
  5
11FF
330
BCA
100
AcDbEntity
  8
Defpoints
 62
     0
100
AcDbPoint
 10
569.5144889104623
 20
-538.7200016120257
 30
0.0
  0
ENDBLK
  5
BD5
330
BCA
100
AcDbEntity
  8
0
100
AcDbBlockEnd
  0
BLOCK
  5
BE1
330
BD7
100
AcDbEntity
  8
0
100
AcDbBlockBegin
  2
*D7
 70
     1
 10
0.0
 20
0.0
 30
0.0
  3
*D7
  1

  0
LINE
  5
1200
330
BD7
100
AcDbEntity
  8
SIZE
 62
     0
370
    -2
100
AcDbLine
 10
-325.9855110895246
 20
-622.2776313169653
 30
0.0
 11
-325.9855110895246
 21
-507.1337428596361
 31
0.0
  0
LINE
  5
1201
330
BD7
100
AcDbEntity
  8
SIZE
 62
     0
370
    -2
100
AcDbLine
 10
586.0144889104623
 20
-622.2776313169653
 30
0.0
 11
586.0144889104623
 21
-507.1337428596361
 31
0.0
  0
LINE
  5
1202
330
BD7
100
AcDbEntity
  8
SIZE
 62
     0
370
    -2
100
AcDbLine
 10
-315.9855110895246
 20
-512.1337428596361
 30
0.0
 11
576.0144889104623
 21
-512.1337428596361
 31
0.0
  0
INSERT
  5
1203
330
BD7
100
AcDbEntity
  8
SIZE
 62
     0
370
    -2
100
AcDbBlockReference
  2
_OPEN30
 10
-325.9855110895246
 20
-512.1337428596361
 30
0.0
 41
10.0
 42
10.0
 43
10.0
 50
180.0
  0
INSERT
  5
1204
330
BD7
100
AcDbEntity
  8
SIZE
 62
     0
370
    -2
100
AcDbBlockReference
  2
_OPEN30
 10
586.0144889104623
 20
-512.1337428596361
 30
0.0
 41
10.0
 42
10.0
 43
10.0
  0
MTEXT
  5
1205
330
BD7
100
AcDbEntity
  8
SIZE
 62
     0
100
AcDbMText
 10
130.0144889104689
 20
-502.1337428596361
 30
0.0
 40
10.0
 41
0.0
 71
     5
 72
     1
  1
\A1;912
 73
     1
 44
1.0
1001
ACAD
1000
MTEXTBEGIN
1070
    73
1070
     1
1070
    44
1040
1.0
1070
    74
1070
     0
1000
MTEXTEND
  0
POINT
  5
1206
330
BD7
100
AcDbEntity
  8
Defpoints
 62
     0
100
AcDbPoint
 10
-325.9855110895246
 20
-627.2776313169653
 30
0.0
  0
POINT
  5
1207
330
BD7
100
AcDbEntity
  8
Defpoints
 62
     0
100
AcDbPoint
 10
586.0144889104623
 20
-627.2776313169653
 30
0.0
  0
POINT
  5
1208
330
BD7
100
AcDbEntity
  8
Defpoints
 62
     0
100
AcDbPoint
 10
586.0144889104623
 20
-512.1337428596361
 30
0.0
  0
ENDBLK
  5
BE2
330
BD7
100
AcDbEntity
  8
0
100
AcDbBlockEnd
  0
BLOCK
  5
C93
330
C92
100
AcDbEntity
  8
0
100
AcDbBlockBegin
  2
_DOTBLANK
 70
     0
 10
0.0
 20
0.0
 30
0.0
  3
_DOTBLANK
  1

  0
CIRCLE
  5
C94
330
C92
100
AcDbEntity
  8
0
  6
Continuous
 62
     7
100
AcDbCircle
 10
0.0
 20
0.0
 30
0.0
 40
0.5
  0
LINE
  5
C95
330
C92
100
AcDbEntity
  8
0
  6
Continuous
 62
     7
100
AcDbLine
 10
-0.5
 20
0.0
 30
0.0
 11
-1.0
 21
0.0
 31
0.0
  0
ENDBLK
  5
C96
330
C92
100
AcDbEntity
  8
0
100
AcDbBlockEnd
  0
BLOCK
  5
133F
330
133D
100
AcDbEntity
  8
0
100
AcDbBlockBegin
  2
GENAXEH
 70
     0
 10
0.0
 20
0.0
 30
0.0
  3
GENAXEH
  1

  0
LINE
  5
133E
330
133D
100
AcDbEntity
  8
0
100
AcDbLine
 10
-1.0
 20
0.0
 30
0.0
 11
1.0
 21
0.0
 31
0.0
  0
ENDBLK
  5
1340
330
133D
100
AcDbEntity
  8
0
100
AcDbBlockEnd
  0
BLOCK
  5
15DE
330
15DD
100
AcDbEntity
  8
0
100
AcDbBlockBegin
  2
*D10
 70
     1
 10
0.0
 20
0.0
 30
0.0
  3
*D10
  1

  0
LINE
  5
15E0
330
15DD
100
AcDbEntity
  8
SIZE
 62
     0
370
    -2
100
AcDbLine
 10
994.4274373545963
 20
-601.39918749251
 30
0.0
 11
994.4274373545963
 21
-496.9649011365581
 31
0.0
  0
LINE
  5
15E1
330
15DD
100
AcDbEntity
  8
SIZE
 62
     0
370
    -2
100
AcDbLine
 10
1870.427437354599
 20
-601.39918749251
 30
0.0
 11
1870.427437354599
 21
-496.9649011365581
 31
0.0
  0
LINE
  5
15E2
330
15DD
100
AcDbEntity
  8
SIZE
 62
     0
370
    -2
100
AcDbLine
 10
1014.427437354596
 20
-506.9649011365583
 30
0.0
 11
1850.427437354599
 21
-506.9649011365583
 31
0.0
  0
INSERT
  5
15E3
330
15DD
100
AcDbEntity
  8
SIZE
 62
     0
370
    -2
100
AcDbBlockReference
  2
_OPEN30
 10
994.4274373545963
 20
-506.9649011365583
 30
0.0
 41
20.0
 42
20.0
 43
20.0
 50
180.0
  0
INSERT
  5
15E4
330
15DD
100
AcDbEntity
  8
SIZE
 62
     0
370
    -2
100
AcDbBlockReference
  2
_OPEN30
 10
1870.427437354599
 20
-506.9649011365583
 30
0.0
 41
20.0
 42
20.0
 43
20.0
  0
MTEXT
  5
15E5
330
15DD
100
AcDbEntity
  8
SIZE
 62
     0
100
AcDbMText
 10
1432.427437354597
 20
-486.9649011365583
 30
0.0
 40
20.0
 41
0.0
 71
     5
 72
     1
  1
\A1;876
 73
     1
 44
1.0
1001
ACAD
1000
MTEXTBEGIN
1070
    73
1070
     1
1070
    44
1040
1.0
1070
    74
1070
     0
1000
MTEXTEND
  0
POINT
  5
15E6
330
15DD
100
AcDbEntity
  8
Defpoints
 62
     0
100
AcDbPoint
 10
994.4274373545963
 20
-611.3991874925098
 30
0.0
  0
POINT
  5
15E7
330
15DD
100
AcDbEntity
  8
Defpoints
 62
     0
100
AcDbPoint
 10
1870.427437354599
 20
-611.3991874925098
 30
0.0
  0
POINT
  5
15E8
330
15DD
100
AcDbEntity
  8
Defpoints
 62
     0
100
AcDbPoint
 10
1870.427437354599
 20
-506.9649011365583
 30
0.0
  0
ENDBLK
  5
15DF
330
15DD
100
AcDbEntity
  8
0
100
AcDbBlockEnd
  0
BLOCK
  5
15EB
330
15EA
100
AcDbEntity
  8
0
100
AcDbBlockBegin
  2
*D11
 70
     1
 10
0.0
 20
0.0
 30
0.0
  3
*D11
  1

  0
LINE
  5
15ED
330
15EA
100
AcDbEntity
  8
SIZE
 62
     0
370
    -2
100
AcDbLine
 10
976.4274373545964
 20
-601.89918749251
 30
0.0
 11
976.4274373545964
 21
-456.8316133035627
 31
0.0
  0
LINE
  5
15EE
330
15EA
100
AcDbEntity
  8
SIZE
 62
     0
370
    -2
100
AcDbLine
 10
1888.427437354597
 20
-601.89918749251
 30
0.0
 11
1888.427437354597
 21
-456.8316133035627
 31
0.0
  0
LINE
  5
15EF
330
15EA
100
AcDbEntity
  8
SIZE
 62
     0
370
    -2
100
AcDbLine
 10
996.4274373545963
 20
-466.8316133035624
 30
0.0
 11
1868.427437354597
 21
-466.8316133035624
 31
0.0
  0
INSERT
  5
15F0
330
15EA
100
AcDbEntity
  8
SIZE
 62
     0
370
    -2
100
AcDbBlockReference
  2
_OPEN30
 10
976.4274373545964
 20
-466.8316133035624
 30
0.0
 41
20.0
 42
20.0
 43
20.0
 50
180.0
  0
INSERT
  5
15F1
330
15EA
100
AcDbEntity
  8
SIZE
 62
     0
370
    -2
100
AcDbBlockReference
  2
_OPEN30
 10
1888.427437354597
 20
-466.8316133035624
 30
0.0
 41
20.0
 42
20.0
 43
20.0
  0
MTEXT
  5
15F2
330
15EA
100
AcDbEntity
  8
SIZE
 62
     0
100
AcDbMText
 10
1432.427437354597
 20
-446.8316133035626
 30
0.0
 40
20.0
 41
0.0
 71
     5
 72
     1
  1
\A1;912
 73
     1
 44
1.0
1001
ACAD
1000
MTEXTBEGIN
1070
    73
1070
     1
1070
    44
1040
1.0
1070
    74
1070
     0
1000
MTEXTEND
  0
POINT
  5
15F3
330
15EA
100
AcDbEntity
  8
Defpoints
 62
     0
100
AcDbPoint
 10
976.4274373545964
 20
-611.89918749251
 30
0.0
  0
POINT
  5
15F4
330
15EA
100
AcDbEntity
  8
Defpoints
 62
     0
100
AcDbPoint
 10
1888.427437354597
 20
-611.89918749251
 30
0.0
  0
POINT
  5
15F5
330
15EA
100
AcDbEntity
  8
Defpoints
 62
     0
100
AcDbPoint
 10
1888.427437354597
 20
-466.8316133035624
 30
0.0
  0
ENDBLK
  5
15EC
330
15EA
100
AcDbEntity
  8
0
100
AcDbBlockEnd
  0
BLOCK
  5
15F8
330
15F7
100
AcDbEntity
  8
0
100
AcDbBlockBegin
  2
*D12
 70
     1
 10
0.0
 20
0.0
 30
0.0
  3
*D12
  1

  0
LINE
  5
15FA
330
15F7
100
AcDbEntity
  8
SIZE
 62
     0
370
    -2
100
AcDbLine
 10
970.9274373545964
 20
-624.89918749251
 30
0.0
 11
927.4389743145887
 21
-624.89918749251
 31
0.0
  0
LINE
  5
15FB
330
15F7
100
AcDbEntity
  8
SIZE
 62
     0
370
    -2
100
AcDbLine
 10
970.9274373545964
 20
-774.8991874925097
 30
0.0
 11
927.4389743145887
 21
-774.8991874925097
 31
0.0
  0
LINE
  5
15FC
330
15F7
100
AcDbEntity
  8
SIZE
 62
     0
370
    -2
100
AcDbLine
 10
937.4389743145892
 20
-644.8991874925098
 30
0.0
 11
937.4389743145892
 21
-754.8991874925099
 31
0.0
  0
INSERT
  5
15FD
330
15F7
100
AcDbEntity
  8
SIZE
 62
     0
370
    -2
100
AcDbBlockReference
  2
_OPEN30
 10
937.4389743145892
 20
-624.89918749251
 30
0.0
 41
20.0
 42
20.0
 43
20.0
 50
90.0
  0
INSERT
  5
15FE
330
15F7
100
AcDbEntity
  8
SIZE
 62
     0
370
    -2
100
AcDbBlockReference
  2
_OPEN30
 10
937.4389743145888
 20
-774.8991874925097
 30
0.0
 41
20.0
 42
20.0
 43
20.0
 50
270.0
  0
MTEXT
  5
15FF
330
15F7
100
AcDbEntity
  8
SIZE
 62
     0
100
AcDbMText
 10
917.4389743145892
 20
-699.8991874925097
 30
0.0
 40
20.0
 41
0.0
 71
     5
 72
     1
  1
\A1;150
 11
0.0000000000000001
 21
1.0
 31
0.0
 73
     1
 44
1.0
1001
ACAD
1000
MTEXTBEGIN
1070
    73
1070
     1
1070
    44
1040
1.0
1070
    74
1070
     0
1000
MTEXTEND
  0
POINT
  5
1600
330
15F7
100
AcDbEntity
  8
Defpoints
 62
     0
100
AcDbPoint
 10
980.9274373545964
 20
-624.89918749251
 30
0.0
  0
POINT
  5
1601
330
15F7
100
AcDbEntity
  8
Defpoints
 62
     0
100
AcDbPoint
 10
980.9274373545964
 20
-774.8991874925097
 30
0.0
  0
POINT
  5
1602
330
15F7
100
AcDbEntity
  8
Defpoints
 62
     0
100
AcDbPoint
 10
937.4389743145888
 20
-774.8991874925097
 30
0.0
  0
ENDBLK
  5
15F9
330
15F7
100
AcDbEntity
  8
0
100
AcDbBlockEnd
  0
BLOCK
  5
1605
330
1604
100
AcDbEntity
  8
0
100
AcDbBlockBegin
  2
*D13
 70
     1
 10
0.0
 20
0.0
 30
0.0
  3
*D13
  1

  0
LINE
  5
162A
330
1604
100
AcDbEntity
  8
SIZE
 62
     0
370
    -2
100
AcDbLine
 10
970.9274373545964
 20
-774.8991874925097
 30
0.0
 11
927.4389743145887
 21
-774.8991874925097
 31
0.0
  0
LINE
  5
162B
330
1604
100
AcDbEntity
  8
SIZE
 62
     0
370
    -2
100
AcDbLine
 10
953.4287393207524
 20
-924.8991874925101
 30
0.0
 11
927.4389743145887
 21
-924.8991874925101
 31
0.0
  0
LINE
  5
162C
330
1604
100
AcDbEntity
  8
SIZE
 62
     0
370
    -2
100
AcDbLine
 10
937.4389743145888
 20
-794.8991874925098
 30
0.0
 11
937.4389743145888
 21
-904.8991874925098
 31
0.0
  0
INSERT
  5
162D
330
1604
100
AcDbEntity
  8
SIZE
 62
     0
370
    -2
100
AcDbBlockReference
  2
_OPEN30
 10
937.4389743145888
 20
-774.8991874925097
 30
0.0
 41
20.0
 42
20.0
 43
20.0
 50
90.0
  0
INSERT
  5
162E
330
1604
100
AcDbEntity
  8
SIZE
 62
     0
370
    -2
100
AcDbBlockReference
  2
_OPEN30
 10
937.4389743145888
 20
-924.8991874925101
 30
0.0
 41
20.0
 42
20.0
 43
20.0
 50
270.0
  0
MTEXT
  5
162F
330
1604
100
AcDbEntity
  8
SIZE
 62
     0
100
AcDbMText
 10
917.4389743145892
 20
-849.8991874925097
 30
0.0
 40
20.0
 41
0.0
 71
     5
 72
     1
  1
\A1;150
 11
0.0000000000000001
 21
1.0
 31
0.0
 73
     1
 44
1.0
1001
ACAD
1000
MTEXTBEGIN
1070
    73
1070
     1
1070
    44
1040
1.0
1070
    74
1070
     0
1000
MTEXTEND
  0
POINT
  5
1630
330
1604
100
AcDbEntity
  8
Defpoints
 62
     0
100
AcDbPoint
 10
980.9274373545964
 20
-774.8991874925097
 30
0.0
  0
POINT
  5
1631
330
1604
100
AcDbEntity
  8
Defpoints
 62
     0
100
AcDbPoint
 10
963.4287393207523
 20
-924.8991874925101
 30
0.0
  0
POINT
  5
1632
330
1604
100
AcDbEntity
  8
Defpoints
 62
     0
100
AcDbPoint
 10
937.4389743145888
 20
-924.8991874925101
 30
0.0
  0
ENDBLK
  5
1606
330
1604
100
AcDbEntity
  8
0
100
AcDbBlockEnd
  0
BLOCK
  5
1612
330
1611
100
AcDbEntity
  8
0
100
AcDbBlockBegin
  2
*D14
 70
     1
 10
0.0
 20
0.0
 30
0.0
  3
*D14
  1

  0
LINE
  5
1633
330
1611
100
AcDbEntity
  8
SIZE
 62
     0
370
    -2
100
AcDbLine
 10
953.4287393207524
 20
-924.8991874925101
 30
0.0
 11
927.4389743145887
 21
-924.8991874925101
 31
0.0
  0
LINE
  5
1634
330
1611
100
AcDbEntity
  8
SIZE
 62
     0
370
    -2
100
AcDbLine
 10
970.9274373545964
 20
-1074.89918749251
 30
0.0
 11
927.4389743145887
 21
-1074.89918749251
 31
0.0
  0
LINE
  5
1635
330
1611
100
AcDbEntity
  8
SIZE
 62
     0
370
    -2
100
AcDbLine
 10
937.4389743145888
 20
-944.8991874925097
 30
0.0
 11
937.4389743145888
 21
-1054.89918749251
 31
0.0
  0
INSERT
  5
1636
330
1611
100
AcDbEntity
  8
SIZE
 62
     0
370
    -2
100
AcDbBlockReference
  2
_OPEN30
 10
937.4389743145888
 20
-924.8991874925101
 30
0.0
 41
20.0
 42
20.0
 43
20.0
 50
90.0
  0
INSERT
  5
1637
330
1611
100
AcDbEntity
  8
SIZE
 62
     0
370
    -2
100
AcDbBlockReference
  2
_OPEN30
 10
937.4389743145888
 20
-1074.89918749251
 30
0.0
 41
20.0
 42
20.0
 43
20.0
 50
270.0
  0
MTEXT
  5
1638
330
1611
100
AcDbEntity
  8
SIZE
 62
     0
100
AcDbMText
 10
917.4389743145892
 20
-999.8991874925096
 30
0.0
 40
20.0
 41
0.0
 71
     5
 72
     1
  1
\A1;150
 11
0.0000000000000001
 21
1.0
 31
0.0
 73
     1
 44
1.0
1001
ACAD
1000
MTEXTBEGIN
1070
    73
1070
     1
1070
    44
1040
1.0
1070
    74
1070
     0
1000
MTEXTEND
  0
POINT
  5
1639
330
1611
100
AcDbEntity
  8
Defpoints
 62
     0
100
AcDbPoint
 10
963.4287393207523
 20
-924.8991874925101
 30
0.0
  0
POINT
  5
163A
330
1611
100
AcDbEntity
  8
Defpoints
 62
     0
100
AcDbPoint
 10
980.9274373545964
 20
-1074.89918749251
 30
0.0
  0
POINT
  5
163B
330
1611
100
AcDbEntity
  8
Defpoints
 62
     0
100
AcDbPoint
 10
937.4389743145888
 20
-1074.89918749251
 30
0.0
  0
ENDBLK
  5
1613
330
1611
100
AcDbEntity
  8
0
100
AcDbBlockEnd
  0
BLOCK
  5
161F
330
161E
100
AcDbEntity
  8
0
100
AcDbBlockBegin
  2
*D15
 70
     1
 10
0.0
 20
0.0
 30
0.0
  3
*D15
  1

  0
LINE
  5
163C
330
161E
100
AcDbEntity
  8
SIZE
 62
     0
370
    -2
100
AcDbLine
 10
970.9274373545964
 20
-1074.89918749251
 30
0.0
 11
927.4389743145887
 21
-1074.89918749251
 31
0.0
  0
LINE
  5
163D
330
161E
100
AcDbEntity
  8
SIZE
 62
     0
370
    -2
100
AcDbLine
 10
970.9274373545964
 20
-1224.89918749251
 30
0.0
 11
927.4389743145887
 21
-1224.89918749251
 31
0.0
  0
LINE
  5
163E
330
161E
100
AcDbEntity
  8
SIZE
 62
     0
370
    -2
100
AcDbLine
 10
937.4389743145888
 20
-1094.89918749251
 30
0.0
 11
937.4389743145888
 21
-1204.89918749251
 31
0.0
  0
INSERT
  5
163F
330
161E
100
AcDbEntity
  8
SIZE
 62
     0
370
    -2
100
AcDbBlockReference
  2
_OPEN30
 10
937.4389743145888
 20
-1074.89918749251
 30
0.0
 41
20.0
 42
20.0
 43
20.0
 50
90.0
  0
INSERT
  5
1640
330
161E
100
AcDbEntity
  8
SIZE
 62
     0
370
    -2
100
AcDbBlockReference
  2
_OPEN30
 10
937.4389743145888
 20
-1224.89918749251
 30
0.0
 41
20.0
 42
20.0
 43
20.0
 50
270.0
  0
MTEXT
  5
1641
330
161E
100
AcDbEntity
  8
SIZE
 62
     0
100
AcDbMText
 10
917.4389743145892
 20
-1149.899187492509
 30
0.0
 40
20.0
 41
0.0
 71
     5
 72
     1
  1
\A1;150
 11
0.0000000000000001
 21
1.0
 31
0.0
 73
     1
 44
1.0
1001
ACAD
1000
MTEXTBEGIN
1070
    73
1070
     1
1070
    44
1040
1.0
1070
    74
1070
     0
1000
MTEXTEND
  0
POINT
  5
1642
330
161E
100
AcDbEntity
  8
Defpoints
 62
     0
100
AcDbPoint
 10
980.9274373545964
 20
-1074.89918749251
 30
0.0
  0
POINT
  5
1643
330
161E
100
AcDbEntity
  8
Defpoints
 62
     0
100
AcDbPoint
 10
980.9274373545964
 20
-1224.89918749251
 30
0.0
  0
POINT
  5
1644
330
161E
100
AcDbEntity
  8
Defpoints
 62
     0
100
AcDbPoint
 10
937.4389743145888
 20
-1224.89918749251
 30
0.0
  0
ENDBLK
  5
1620
330
161E
100
AcDbEntity
  8
0
100
AcDbBlockEnd
  0
BLOCK
  5
1647
330
1646
100
AcDbEntity
  8
0
100
AcDbBlockBegin
  2
*D16
 70
     1
 10
0.0
 20
0.0
 30
0.0
  3
*D16
  1

  0
LINE
  5
174B
330
1646
100
AcDbEntity
  8
SIZE
 62
     0
370
    -2
100
AcDbLine
 10
1029.927437354596
 20
-1291.899187492503
 30
0.0
 11
877.332253841971
 21
-1291.899187492503
 31
0.0
  0
LINE
  5
174C
330
1646
100
AcDbEntity
  8
SIZE
 62
     0
370
    -2
100
AcDbLine
 10
1029.927437354597
 20
-557.8991874925033
 30
0.0
 11
877.3322538419712
 21
-557.8991874925033
 31
0.0
  0
LINE
  5
174D
330
1646
100
AcDbEntity
  8
SIZE
 62
     0
370
    -2
100
AcDbLine
 10
887.3322538419712
 20
-1271.899187492503
 30
0.0
 11
887.3322538419712
 21
-577.8991874925033
 31
0.0
  0
INSERT
  5
174E
330
1646
100
AcDbEntity
  8
SIZE
 62
     0
370
    -2
100
AcDbBlockReference
  2
_OPEN30
 10
887.332253841971
 20
-1291.899187492503
 30
0.0
 41
20.0
 42
20.0
 43
20.0
 50
270.0
  0
INSERT
  5
174F
330
1646
100
AcDbEntity
  8
SIZE
 62
     0
370
    -2
100
AcDbBlockReference
  2
_OPEN30
 10
887.3322538419712
 20
-557.8991874925033
 30
0.0
 41
20.0
 42
20.0
 43
20.0
 50
90.0
  0
MTEXT
  5
1750
330
1646
100
AcDbEntity
  8
SIZE
 62
     0
100
AcDbMText
 10
867.3322538419713
 20
-924.899187492503
 30
0.0
 40
20.0
 41
0.0
 71
     5
 72
     1
  1
\A1;734
 11
0.0000000000000001
 21
1.0
 31
0.0
 73
     1
 44
1.0
1001
ACAD
1000
MTEXTBEGIN
1070
    73
1070
     1
1070
    44
1040
1.0
1070
    74
1070
     0
1000
MTEXTEND
  0
POINT
  5
1751
330
1646
100
AcDbEntity
  8
Defpoints
 62
     0
100
AcDbPoint
 10
1039.927437354596
 20
-1291.899187492503
 30
0.0
  0
POINT
  5
1752
330
1646
100
AcDbEntity
  8
Defpoints
 62
     0
100
AcDbPoint
 10
1039.927437354597
 20
-557.8991874925033
 30
0.0
  0
POINT
  5
1753
330
1646
100
AcDbEntity
  8
Defpoints
 62
     0
100
AcDbPoint
 10
887.3322538419712
 20
-557.8991874925033
 30
0.0
  0
ENDBLK
  5
1648
330
1646
100
AcDbEntity
  8
0
100
AcDbBlockEnd
  0
BLOCK
  5
1D21
330
1D20
100
AcDbEntity
  8
0
100
AcDbBlockBegin
  2
*D17
 70
     1
 10
0.0
 20
0.0
 30
0.0
  3
*D17
  1

  0
LINE
  5
1D23
330
1D20
100
AcDbEntity
  8
SIZE
 62
     0
370
    -2
100
AcDbLine
 10
2282.147409315376
 20
-600.1778947248704
 30
0.0
 11
2282.147409315376
 21
-498.2307361433411
 31
0.0
  0
LINE
  5
1D24
330
1D20
100
AcDbEntity
  8
SIZE
 62
     0
370
    -2
100
AcDbLine
 10
3458.147406128964
 20
-600.1778947248704
 30
0.0
 11
3458.147406128964
 21
-498.2307361433411
 31
0.0
  0
LINE
  5
1D25
330
1D20
100
AcDbEntity
  8
SIZE
 62
     0
370
    -2
100
AcDbLine
 10
2302.147409315375
 20
-508.2307361433411
 30
0.0
 11
3438.147406128963
 21
-508.2307361433411
 31
0.0
  0
INSERT
  5
1D26
330
1D20
100
AcDbEntity
  8
SIZE
 62
     0
370
    -2
100
AcDbBlockReference
  2
_OPEN30
 10
2282.147409315376
 20
-508.2307361433411
 30
0.0
 41
20.0
 42
20.0
 43
20.0
 50
180.0
  0
INSERT
  5
1D27
330
1D20
100
AcDbEntity
  8
SIZE
 62
     0
370
    -2
100
AcDbBlockReference
  2
_OPEN30
 10
3458.147406128964
 20
-508.2307361433411
 30
0.0
 41
20.0
 42
20.0
 43
20.0
  0
MTEXT
  5
1D28
330
1D20
100
AcDbEntity
  8
SIZE
 62
     0
100
AcDbMText
 10
2870.14740772217
 20
-488.2307361433411
 30
0.0
 40
20.0
 41
0.0
 71
     5
 72
     1
  1
\A1;1176
 73
     1
 44
1.0
1001
ACAD
1000
MTEXTBEGIN
1070
    73
1070
     1
1070
    44
1040
1.0
1070
    74
1070
     0
1000
MTEXTEND
  0
POINT
  5
1D29
330
1D20
100
AcDbEntity
  8
Defpoints
 62
     0
100
AcDbPoint
 10
2282.147409315376
 20
-610.1778947248702
 30
0.0
  0
POINT
  5
1D2A
330
1D20
100
AcDbEntity
  8
Defpoints
 62
     0
100
AcDbPoint
 10
3458.147406128964
 20
-610.1778947248702
 30
0.0
  0
POINT
  5
1D2B
330
1D20
100
AcDbEntity
  8
Defpoints
 62
     0
100
AcDbPoint
 10
3458.147406128964
 20
-508.2307361433411
 30
0.0
  0
ENDBLK
  5
1D22
330
1D20
100
AcDbEntity
  8
0
100
AcDbBlockEnd
  0
BLOCK
  5
1D2E
330
1D2D
100
AcDbEntity
  8
0
100
AcDbBlockBegin
  2
*D18
 70
     1
 10
0.0
 20
0.0
 30
0.0
  3
*D18
  1

  0
LINE
  5
1D30
330
1D2D
100
AcDbEntity
  8
SIZE
 62
     0
370
    -2
100
AcDbLine
 10
2264.147410255628
 20
-600.6778947248704
 30
0.0
 11
2264.147410255628
 21
-451.5479295910329
 31
0.0
  0
LINE
  5
1D31
330
1D2D
100
AcDbEntity
  8
SIZE
 62
     0
370
    -2
100
AcDbLine
 10
3476.147405188711
 20
-600.6778947248704
 30
0.0
 11
3476.147405188711
 21
-451.5479295910329
 31
0.0
  0
LINE
  5
1D32
330
1D2D
100
AcDbEntity
  8
SIZE
 62
     0
370
    -2
100
AcDbLine
 10
2284.147410255629
 20
-461.5479295910327
 30
0.0
 11
3456.147405188711
 21
-461.5479295910327
 31
0.0
  0
INSERT
  5
1D33
330
1D2D
100
AcDbEntity
  8
SIZE
 62
     0
370
    -2
100
AcDbBlockReference
  2
_OPEN30
 10
2264.147410255628
 20
-461.5479295910327
 30
0.0
 41
20.0
 42
20.0
 43
20.0
 50
180.0
  0
INSERT
  5
1D34
330
1D2D
100
AcDbEntity
  8
SIZE
 62
     0
370
    -2
100
AcDbBlockReference
  2
_OPEN30
 10
3476.147405188711
 20
-461.5479295910327
 30
0.0
 41
20.0
 42
20.0
 43
20.0
  0
MTEXT
  5
1D35
330
1D2D
100
AcDbEntity
  8
SIZE
 62
     0
100
AcDbMText
 10
2870.14740772217
 20
-441.5479295910328
 30
0.0
 40
20.0
 41
0.0
 71
     5
 72
     1
  1
\A1;1212
 73
     1
 44
1.0
1001
ACAD
1000
MTEXTBEGIN
1070
    73
1070
     1
1070
    44
1040
1.0
1070
    74
1070
     0
1000
MTEXTEND
  0
POINT
  5
1D36
330
1D2D
100
AcDbEntity
  8
Defpoints
 62
     0
100
AcDbPoint
 10
2264.147410255628
 20
-610.6778947248702
 30
0.0
  0
POINT
  5
1D37
330
1D2D
100
AcDbEntity
  8
Defpoints
 62
     0
100
AcDbPoint
 10
3476.147405188711
 20
-610.6778947248702
 30
0.0
  0
POINT
  5
1D38
330
1D2D
100
AcDbEntity
  8
Defpoints
 62
     0
100
AcDbPoint
 10
3476.147405188711
 20
-461.5479295910327
 30
0.0
  0
ENDBLK
  5
1D2F
330
1D2D
100
AcDbEntity
  8
0
100
AcDbBlockEnd
  0
BLOCK
  5
1D3B
330
1D3A
100
AcDbEntity
  8
0
100
AcDbBlockBegin
  2
*D19
 70
     1
 10
0.0
 20
0.0
 30
0.0
  3
*D19
  1

  0
LINE
  5
1D3D
330
1D3A
100
AcDbEntity
  8
SIZE
 62
     0
370
    -2
100
AcDbLine
 10
2258.647409315376
 20
-623.6778947248702
 30
0.0
 11
2204.522281377347
 21
-623.6778947248702
 31
0.0
  0
LINE
  5
1D3E
330
1D3A
100
AcDbEntity
  8
SIZE
 62
     0
370
    -2
100
AcDbLine
 10
2258.647409315376
 20
-773.6778947248702
 30
0.0
 11
2204.522281377347
 21
-773.6778947248702
 31
0.0
  0
LINE
  5
1D3F
330
1D3A
100
AcDbEntity
  8
SIZE
 62
     0
370
    -2
100
AcDbLine
 10
2214.522281377346
 20
-643.6778947248702
 30
0.0
 11
2214.522281377346
 21
-753.6778947248702
 31
0.0
  0
INSERT
  5
1D40
330
1D3A
100
AcDbEntity
  8
SIZE
 62
     0
370
    -2
100
AcDbBlockReference
  2
_OPEN30
 10
2214.522281377346
 20
-623.6778947248702
 30
0.0
 41
20.0
 42
20.0
 43
20.0
 50
90.0
  0
INSERT
  5
1D41
330
1D3A
100
AcDbEntity
  8
SIZE
 62
     0
370
    -2
100
AcDbBlockReference
  2
_OPEN30
 10
2214.522281377346
 20
-773.6778947248702
 30
0.0
 41
20.0
 42
20.0
 43
20.0
 50
270.0
  0
MTEXT
  5
1D42
330
1D3A
100
AcDbEntity
  8
SIZE
 62
     0
100
AcDbMText
 10
2194.522281377346
 20
-698.67789472487
 30
0.0
 40
20.0
 41
0.0
 71
     5
 72
     1
  1
\A1;150
 11
0.0000000000000001
 21
1.0
 31
0.0
 73
     1
 44
1.0
1001
ACAD
1000
MTEXTBEGIN
1070
    73
1070
     1
1070
    44
1040
1.0
1070
    74
1070
     0
1000
MTEXTEND
  0
POINT
  5
1D43
330
1D3A
100
AcDbEntity
  8
Defpoints
 62
     0
100
AcDbPoint
 10
2268.647409315375
 20
-623.6778947248702
 30
0.0
  0
POINT
  5
1D44
330
1D3A
100
AcDbEntity
  8
Defpoints
 62
     0
100
AcDbPoint
 10
2268.647409315375
 20
-773.6778947248702
 30
0.0
  0
POINT
  5
1D45
330
1D3A
100
AcDbEntity
  8
Defpoints
 62
     0
100
AcDbPoint
 10
2214.522281377346
 20
-773.6778947248702
 30
0.0
  0
ENDBLK
  5
1D3C
330
1D3A
100
AcDbEntity
  8
0
100
AcDbBlockEnd
  0
BLOCK
  5
1D48
330
1D47
100
AcDbEntity
  8
0
100
AcDbBlockBegin
  2
*D20
 70
     1
 10
0.0
 20
0.0
 30
0.0
  3
*D20
  1

  0
LINE
  5
1D4A
330
1D47
100
AcDbEntity
  8
SIZE
 62
     0
370
    -2
100
AcDbLine
 10
2258.647409315376
 20
-773.6778947248702
 30
0.0
 11
2204.522281377347
 21
-773.6778947248702
 31
0.0
  0
LINE
  5
1D4B
330
1D47
100
AcDbEntity
  8
SIZE
 62
     0
370
    -2
100
AcDbLine
 10
2224.081567278233
 20
-923.6778947248692
 30
0.0
 11
2204.522281377347
 21
-923.6778947248692
 31
0.0
  0
LINE
  5
1D4C
330
1D47
100
AcDbEntity
  8
SIZE
 62
     0
370
    -2
100
AcDbLine
 10
2214.522281377346
 20
-793.6778947248702
 30
0.0
 11
2214.522281377346
 21
-903.6778947248691
 31
0.0
  0
INSERT
  5
1D4D
330
1D47
100
AcDbEntity
  8
SIZE
 62
     0
370
    -2
100
AcDbBlockReference
  2
_OPEN30
 10
2214.522281377346
 20
-773.6778947248702
 30
0.0
 41
20.0
 42
20.0
 43
20.0
 50
90.0
  0
INSERT
  5
1D4E
330
1D47
100
AcDbEntity
  8
SIZE
 62
     0
370
    -2
100
AcDbBlockReference
  2
_OPEN30
 10
2214.522281377346
 20
-923.6778947248692
 30
0.0
 41
20.0
 42
20.0
 43
20.0
 50
270.0
  0
MTEXT
  5
1D4F
330
1D47
100
AcDbEntity
  8
SIZE
 62
     0
100
AcDbMText
 10
2194.522281377346
 20
-848.6778947248696
 30
0.0
 40
20.0
 41
0.0
 71
     5
 72
     1
  1
\A1;150
 11
0.0000000000000001
 21
1.0
 31
0.0
 73
     1
 44
1.0
1001
ACAD
1000
MTEXTBEGIN
1070
    73
1070
     1
1070
    44
1040
1.0
1070
    74
1070
     0
1000
MTEXTEND
  0
POINT
  5
1D50
330
1D47
100
AcDbEntity
  8
Defpoints
 62
     0
100
AcDbPoint
 10
2268.647409315375
 20
-773.6778947248702
 30
0.0
  0
POINT
  5
1D51
330
1D47
100
AcDbEntity
  8
Defpoints
 62
     0
100
AcDbPoint
 10
2234.081567278233
 20
-923.6778947248692
 30
0.0
  0
POINT
  5
1D52
330
1D47
100
AcDbEntity
  8
Defpoints
 62
     0
100
AcDbPoint
 10
2214.522281377346
 20
-923.6778947248692
 30
0.0
  0
ENDBLK
  5
1D49
330
1D47
100
AcDbEntity
  8
0
100
AcDbBlockEnd
  0
BLOCK
  5
1D55
330
1D54
100
AcDbEntity
  8
0
100
AcDbBlockBegin
  2
*D21
 70
     1
 10
0.0
 20
0.0
 30
0.0
  3
*D21
  1

  0
LINE
  5
1D57
330
1D54
100
AcDbEntity
  8
SIZE
 62
     0
370
    -2
100
AcDbLine
 10
2224.081567278233
 20
-923.6778947248692
 30
0.0
 11
2204.522281377347
 21
-923.6778947248692
 31
0.0
  0
LINE
  5
1D58
330
1D54
100
AcDbEntity
  8
SIZE
 62
     0
370
    -2
100
AcDbLine
 10
2258.647409315376
 20
-1073.67789472487
 30
0.0
 11
2204.522281377346
 21
-1073.67789472487
 31
0.0
  0
LINE
  5
1D59
330
1D54
100
AcDbEntity
  8
SIZE
 62
     0
370
    -2
100
AcDbLine
 10
2214.522281377346
 20
-943.6778947248694
 30
0.0
 11
2214.522281377346
 21
-1053.67789472487
 31
0.0
  0
INSERT
  5
1D5A
330
1D54
100
AcDbEntity
  8
SIZE
 62
     0
370
    -2
100
AcDbBlockReference
  2
_OPEN30
 10
2214.522281377346
 20
-923.6778947248692
 30
0.0
 41
20.0
 42
20.0
 43
20.0
 50
90.0
  0
INSERT
  5
1D5B
330
1D54
100
AcDbEntity
  8
SIZE
 62
     0
370
    -2
100
AcDbBlockReference
  2
_OPEN30
 10
2214.522281377346
 20
-1073.67789472487
 30
0.0
 41
20.0
 42
20.0
 43
20.0
 50
270.0
  0
MTEXT
  5
1D5C
330
1D54
100
AcDbEntity
  8
SIZE
 62
     0
100
AcDbMText
 10
2194.522281377346
 20
-998.6778947248696
 30
0.0
 40
20.0
 41
0.0
 71
     5
 72
     1
  1
\A1;150
 11
0.0000000000000001
 21
1.0
 31
0.0
 73
     1
 44
1.0
1001
ACAD
1000
MTEXTBEGIN
1070
    73
1070
     1
1070
    44
1040
1.0
1070
    74
1070
     0
1000
MTEXTEND
  0
POINT
  5
1D5D
330
1D54
100
AcDbEntity
  8
Defpoints
 62
     0
100
AcDbPoint
 10
2234.081567278233
 20
-923.6778947248692
 30
0.0
  0
POINT
  5
1D5E
330
1D54
100
AcDbEntity
  8
Defpoints
 62
     0
100
AcDbPoint
 10
2268.647409315375
 20
-1073.67789472487
 30
0.0
  0
POINT
  5
1D5F
330
1D54
100
AcDbEntity
  8
Defpoints
 62
     0
100
AcDbPoint
 10
2214.522281377346
 20
-1073.67789472487
 30
0.0
  0
ENDBLK
  5
1D56
330
1D54
100
AcDbEntity
  8
0
100
AcDbBlockEnd
  0
BLOCK
  5
1D62
330
1D61
100
AcDbEntity
  8
0
100
AcDbBlockBegin
  2
*D22
 70
     1
 10
0.0
 20
0.0
 30
0.0
  3
*D22
  1

  0
LINE
  5
1D64
330
1D61
100
AcDbEntity
  8
SIZE
 62
     0
370
    -2
100
AcDbLine
 10
2258.647409315376
 20
-1073.67789472487
 30
0.0
 11
2204.522281377346
 21
-1073.67789472487
 31
0.0
  0
LINE
  5
1D65
330
1D61
100
AcDbEntity
  8
SIZE
 62
     0
370
    -2
100
AcDbLine
 10
2258.647409315376
 20
-1223.67789472487
 30
0.0
 11
2204.522281377346
 21
-1223.67789472487
 31
0.0
  0
LINE
  5
1D66
330
1D61
100
AcDbEntity
  8
SIZE
 62
     0
370
    -2
100
AcDbLine
 10
2214.522281377346
 20
-1093.67789472487
 30
0.0
 11
2214.522281377346
 21
-1203.67789472487
 31
0.0
  0
INSERT
  5
1D67
330
1D61
100
AcDbEntity
  8
SIZE
 62
     0
370
    -2
100
AcDbBlockReference
  2
_OPEN30
 10
2214.522281377346
 20
-1073.67789472487
 30
0.0
 41
20.0
 42
20.0
 43
20.0
 50
90.0
  0
INSERT
  5
1D68
330
1D61
100
AcDbEntity
  8
SIZE
 62
     0
370
    -2
100
AcDbBlockReference
  2
_OPEN30
 10
2214.522281377346
 20
-1223.67789472487
 30
0.0
 41
20.0
 42
20.0
 43
20.0
 50
270.0
  0
MTEXT
  5
1D69
330
1D61
100
AcDbEntity
  8
SIZE
 62
     0
100
AcDbMText
 10
2194.522281377346
 20
-1148.67789472487
 30
0.0
 40
20.0
 41
0.0
 71
     5
 72
     1
  1
\A1;150
 11
0.0000000000000001
 21
1.0
 31
0.0
 73
     1
 44
1.0
1001
ACAD
1000
MTEXTBEGIN
1070
    73
1070
     1
1070
    44
1040
1.0
1070
    74
1070
     0
1000
MTEXTEND
  0
POINT
  5
1D6A
330
1D61
100
AcDbEntity
  8
Defpoints
 62
     0
100
AcDbPoint
 10
2268.647409315375
 20
-1073.67789472487
 30
0.0
  0
POINT
  5
1D6B
330
1D61
100
AcDbEntity
  8
Defpoints
 62
     0
100
AcDbPoint
 10
2268.647409315375
 20
-1223.67789472487
 30
0.0
  0
POINT
  5
1D6C
330
1D61
100
AcDbEntity
  8
Defpoints
 62
     0
100
AcDbPoint
 10
2214.522281377346
 20
-1223.67789472487
 30
0.0
  0
ENDBLK
  5
1D63
330
1D61
100
AcDbEntity
  8
0
100
AcDbBlockEnd
  0
BLOCK
  5
1D6F
330
1D6E
100
AcDbEntity
  8
0
100
AcDbBlockBegin
  2
*D23
 70
     1
 10
0.0
 20
0.0
 30
0.0
  3
*D23
  1

  0
LINE
  5
1D71
330
1D6E
100
AcDbEntity
  8
SIZE
 62
     0
370
    -2
100
AcDbLine
 10
2317.634478838185
 20
-1290.677894724874
 30
0.0
 11
2153.268658424486
 21
-1290.677894724874
 31
0.0
  0
LINE
  5
1D72
330
1D6E
100
AcDbEntity
  8
SIZE
 62
     0
370
    -2
100
AcDbLine
 10
2317.599570851432
 20
-556.6778947248677
 30
0.0
 11
2153.268658424487
 21
-556.6778947248674
 31
0.0
  0
LINE
  5
1D73
330
1D6E
100
AcDbEntity
  8
SIZE
 62
     0
370
    -2
100
AcDbLine
 10
2163.268658424486
 20
-1270.677894724874
 30
0.0
 11
2163.268658424486
 21
-576.6778947248674
 31
0.0
  0
INSERT
  5
1D74
330
1D6E
100
AcDbEntity
  8
SIZE
 62
     0
370
    -2
100
AcDbBlockReference
  2
_OPEN30
 10
2163.268658424486
 20
-1290.677894724874
 30
0.0
 41
20.0
 42
20.0
 43
20.0
 50
270.0
  0
INSERT
  5
1D75
330
1D6E
100
AcDbEntity
  8
SIZE
 62
     0
370
    -2
100
AcDbBlockReference
  2
_OPEN30
 10
2163.268658424486
 20
-556.6778947248674
 30
0.0
 41
20.0
 42
20.0
 43
20.0
 50
90.0
  0
MTEXT
  5
1D76
330
1D6E
100
AcDbEntity
  8
SIZE
 62
     0
100
AcDbMText
 10
2143.268658424487
 20
-923.6778947248707
 30
0.0
 40
20.0
 41
0.0
 71
     5
 72
     1
  1
\A1;734
 11
0.0000000000000001
 21
1.0
 31
0.0
 73
     1
 44
1.0
1001
ACAD
1000
MTEXTBEGIN
1070
    73
1070
     1
1070
    44
1040
1.0
1070
    74
1070
     0
1000
MTEXTEND
  0
POINT
  5
1D77
330
1D6E
100
AcDbEntity
  8
Defpoints
 62
     0
100
AcDbPoint
 10
2327.634478838185
 20
-1290.677894724874
 30
0.0
  0
POINT
  5
1D78
330
1D6E
100
AcDbEntity
  8
Defpoints
 62
     0
100
AcDbPoint
 10
2327.599570851432
 20
-556.6778947248677
 30
0.0
  0
POINT
  5
1D79
330
1D6E
100
AcDbEntity
  8
Defpoints
 62
     0
100
AcDbPoint
 10
2163.268658424486
 20
-556.6778947248674
 30
0.0
  0
ENDBLK
  5
1D70
330
1D6E
100
AcDbEntity
  8
0
100
AcDbBlockEnd
  0
ENDSEC
  0
SECTION
  2
ENTITIES
  0
MTEXT
  5
B60
330
2
100
AcDbEntity
  8
ETC
100
AcDbMText
 10
2622.792576242652
 20
-352.3578618332289
 30
0.0
 40
40.0
 41
651.9792552343242
 71
     1
 72
     5
  1
AG1T-KS76TD-6
 73
     1
 44
1.0
1001
ACAD
1000
MTEXTBEGIN
1070
    73
1070
     1
1070
    44
1040
1.0
1070
    74
1070
     0
1000
MTEXTEND
  0
LINE
  5
1B9E
330
2
100
AcDbEntity
  8
OUTLINE
100
AcDbLine
 10
2333.599570851432
 20
-557.6778947248676
 30
0.0
 11
2333.599570851432
 21
-558.6778947248676
 31
0.0
  0
LINE
  5
1B9F
330
2
100
AcDbEntity
  8
OUTLINE
100
AcDbLine
 10
2333.599570851432
 20
-558.6778947248676
 30
0.0
 11
3406.599570851432
 21
-558.6778947248673
 31
0.0
  0
LINE
  5
1BA0
330
2
100
AcDbEntity
  8
OUTLINE
100
AcDbLine
 10
3406.599570851432
 20
-558.6778947248676
 30
0.0
 11
3406.599570851432
 21
-557.6778947248676
 31
0.0
  0
LINE
  5
1BA1
330
2
100
AcDbEntity
  8
OUTLINE
100
AcDbLine
 10
3406.599570851432
 20
-557.6778947248676
 30
0.0
 11
3411.599570851433
 21
-557.6778947248676
 31
0.0
  0
LINE
  5
1BA2
330
2
100
AcDbEntity
  8
OUTLINE
100
AcDbLine
 10
2328.599570851434
 20
-557.6778947248676
 30
0.0
 11
2333.599570851433
 21
-557.6778947248676
 31
0.0
  0
LINE
  5
1BA3
330
2
100
AcDbEntity
  8
OUTLINE
100
AcDbLine
 10
3436.599570851432
 20
-571.6778947248674
 30
0.0
 11
3436.602473109824
 21
-571.6778947248674
 31
0.0
  0
LINE
  5
1BA4
330
2
100
AcDbEntity
  8
OUTLINE
100
AcDbLine
 10
3412.647083719007
 20
-571.6778947248674
 30
0.0
 11
3411.599570851432
 21
-571.6778947248674
 31
0.0
  0
LINE
  5
1BA5
330
2
100
AcDbEntity
  8
OUTLINE
100
AcDbLine
 10
3436.599570851432
 20
-571.6778947248674
 30
0.0
 11
3427.623327673956
 21
-571.6778947248674
 31
0.0
  0
LINE
  5
1BA6
330
2
100
AcDbEntity
  8
OUTLINE
100
AcDbLine
 10
2328.599570851434
 20
-571.6778947248676
 30
0.0
 11
2312.623327674556
 21
-571.6778947248676
 31
0.0
  0
LINE
  5
1BA7
330
2
100
AcDbEntity
  8
OUTLINE
100
AcDbLine
 10
3441.599570851432
 20
-571.6778947248674
 30
0.0
 11
3441.599570851432
 21
-570.6778947248676
 31
0.0
  0
LINE
  5
1BA8
330
2
100
AcDbEntity
  8
OUTLINE
100
AcDbLine
 10
3441.599570851432
 20
-570.6778947248676
 30
0.0
 11
3436.599570851432
 21
-570.6778947248676
 31
0.0
  0
LINE
  5
1BA9
330
2
100
AcDbEntity
  8
OUTLINE
100
AcDbLine
 10
3436.599570851432
 20
-570.6778947248676
 30
0.0
 11
3436.599570851432
 21
-571.6778947248676
 31
0.0
  0
LINE
  5
1BAA
330
2
100
AcDbEntity
  8
OUTLINE
100
AcDbLine
 10
3412.599570851432
 20
-570.6778947248676
 30
0.0
 11
3436.599570851433
 21
-570.6778947248676
 31
0.0
  0
LINE
  5
1BAB
330
2
100
AcDbEntity
  8
OUTLINE
100
AcDbLine
 10
3412.599570851432
 20
-556.6778947248674
 30
0.0
 11
3412.599570851432
 21
-570.6778947248672
 31
0.0
  0
LINE
  5
1BAC
330
2
100
AcDbEntity
  8
OUTLINE
100
AcDbLine
 10
3411.599570851432
 20
-556.6778947248677
 30
0.0
 11
3412.599570851432
 21
-556.6778947248677
 31
0.0
  0
LINE
  5
1BAD
330
2
100
AcDbEntity
  8
OUTLINE
100
AcDbLine
 10
3411.599570851432
 20
-571.6778947248674
 30
0.0
 11
3411.599570851432
 21
-557.6778947248676
 31
0.0
  0
LINE
  5
1BAE
330
2
100
AcDbEntity
  8
OUTLINE
100
AcDbLine
 10
2303.599570851433
 20
-570.6778947248676
 30
0.0
 11
2298.599570851433
 21
-570.6778947248676
 31
0.0
  0
LINE
  5
1BAF
330
2
100
AcDbEntity
  8
OUTLINE
100
AcDbLine
 10
2298.599570851433
 20
-570.6778947248676
 30
0.0
 11
2298.599570851433
 21
-571.6778947248676
 31
0.0
  0
LINE
  5
1BB0
330
2
100
AcDbEntity
  8
OUTLINE
100
AcDbLine
 10
2303.599570851433
 20
-571.6778947248676
 30
0.0
 11
2303.599570851433
 21
-570.6778947248676
 31
0.0
  0
LINE
  5
1BB1
330
2
100
AcDbEntity
  8
OUTLINE
100
AcDbLine
 10
3411.599570851432
 20
-557.6778947248676
 30
0.0
 11
3411.599570851432
 21
-556.6778947248674
 31
0.0
  0
LINE
  5
1BB2
330
2
100
AcDbEntity
  8
OUTLINE
100
AcDbLine
 10
2328.599570851434
 20
-556.6778947248677
 30
0.0
 11
2328.599570851434
 21
-557.6778947248676
 31
0.0
  0
LINE
  5
1BB3
330
2
100
AcDbEntity
  8
OUTLINE
100
AcDbLine
 10
2328.599570851432
 20
-557.6778947248676
 30
0.0
 11
2328.599570851432
 21
-571.6778947248672
 31
0.0
  0
LINE
  5
1BB4
330
2
100
AcDbEntity
  8
OUTLINE
100
AcDbLine
 10
2327.599570851432
 20
-556.6778947248677
 30
0.0
 11
2328.599570851432
 21
-556.6778947248677
 31
0.0
  0
LINE
  5
1BB5
330
2
100
AcDbEntity
  8
OUTLINE
100
AcDbLine
 10
2327.599570851432
 20
-570.6778947248674
 30
0.0
 11
2327.599570851432
 21
-556.6778947248677
 31
0.0
  0
LINE
  5
1BB6
330
2
100
AcDbEntity
  8
OUTLINE
100
AcDbLine
 10
2303.599570851433
 20
-570.6778947248676
 30
0.0
 11
2327.599570851432
 21
-570.6778947248676
 31
0.0
  0
LINE
  5
1BB7
330
2
100
AcDbEntity
  8
OUTLINE
100
AcDbLine
 10
2328.599570851434
 20
-556.6778947248677
 30
0.0
 11
3411.599570851433
 21
-556.6778947248677
 31
0.0
  0
ELLIPSE
  5
1BB8
330
2
100
AcDbEntity
  8
OUTLINE
100
AcDbEllipse
 10
2870.13447883819
 20
-1252.661234226471
 30
0.0
 11
-2.0
 21
0.0000000000000001
 31
0.0
210
0.0
220
0.0
230
1.0
 40
0.8660254037844477
 41
0.0000000000000074
 42
6.283185307179592
  0
ELLIPSE
  5
1BB9
330
2
100
AcDbEntity
  8
OUTLINE
100
AcDbEllipse
 10
2870.13447883819
 20
-1253.161234226471
 30
0.0
 11
2.0
 21
-0.0000000000000001
 31
0.0
210
0.0
220
0.0
230
1.0
 40
0.8660254037844477
 41
0.1448434969989048
 42
2.996749156591596
  0
ELLIPSE
  5
1BBA
330
2
100
AcDbEntity
  8
OUTLINE
100
AcDbEllipse
 10
2585.13447883819
 20
-1252.661234226472
 30
0.0
 11
-2.0
 21
0.0000000000000001
 31
0.0
210
0.0
220
0.0
230
1.0
 40
0.8660254037844477
 41
0.0000000000000074
 42
6.283185307179592
  0
ELLIPSE
  5
1BBB
330
2
100
AcDbEntity
  8
OUTLINE
100
AcDbEllipse
 10
2585.13447883819
 20
-1253.161234226471
 30
0.0
 11
2.0
 21
-0.0000000000000001
 31
0.0
210
0.0
220
0.0
230
1.0
 40
0.8660254037844477
 41
0.1448434969981407
 42
2.996749156590837
  0
ELLIPSE
  5
1BBC
330
2
100
AcDbEntity
  8
OUTLINE
100
AcDbEllipse
 10
3155.134478838191
 20
-1252.661234226472
 30
0.0
 11
-2.0
 21
0.0000000000000001
 31
0.0
210
0.0
220
0.0
230
1.0
 40
0.8660254037844477
 41
0.0000000000000074
 42
6.283185307179592
  0
ELLIPSE
  5
1BBD
330
2
100
AcDbEntity
  8
OUTLINE
100
AcDbEllipse
 10
3155.13447883819
 20
-1253.161234226471
 30
0.0
 11
2.0
 21
-0.0000000000000001
 31
0.0
210
0.0
220
0.0
230
1.0
 40
0.8660254037844477
 41
0.1448434969981243
 42
2.996749156590869
  0
LINE
  5
1BBE
330
2
100
AcDbEntity
  8
OUTLINE
100
AcDbLine
 10
2303.634478838185
 20
-1275.677894724874
 30
0.0
 11
2302.637712051518
 21
-1275.677894724874
 31
0.0
  0
LINE
  5
1BBF
330
2
100
AcDbEntity
  8
OUTLINE
100
AcDbLine
 10
2303.634478838185
 20
-1275.677894724874
 30
0.0
 11
2328.634478838186
 21
-1275.677894724874
 31
0.0
  0
LINE
  5
1BC0
330
2
100
AcDbEntity
  8
OUTLINE
100
AcDbLine
 10
3436.634478838185
 20
-1276.677894724874
 30
0.0
 11
3441.634478838185
 21
-1276.677894724874
 31
0.0
  0
LINE
  5
1BC1
330
2
100
AcDbEntity
  8
OUTLINE
100
AcDbLine
 10
3412.634478838185
 20
-1276.677894724874
 30
0.0
 11
3436.634478838185
 21
-1276.677894724874
 31
0.0
  0
LINE
  5
1BC2
330
2
100
AcDbEntity
  8
OUTLINE
100
AcDbLine
 10
2328.63447883819
 20
-1225.474700746998
 30
0.0
 11
2333.63447883819
 21
-1222.974700746998
 31
0.0
  0
LINE
  5
1BC3
330
2
100
AcDbEntity
  8
OUTLINE
100
AcDbLine
 10
2333.634478838189
 20
-1222.974700746998
 30
0.0
 11
2333.634478838189
 21
-1222.108675343214
 31
0.0
  0
LINE
  5
1BC4
330
2
100
AcDbEntity
  8
OUTLINE
100
AcDbLine
 10
2333.634478838189
 20
-1222.108675343214
 30
0.0
 11
2328.63447883819
 21
-1224.608675343214
 31
0.0
  0
LINE
  5
1BC5
330
2
100
AcDbEntity
  8
OUTLINE
100
AcDbLine
 10
2328.63447883819
 20
-1224.608675343214
 30
0.0
 11
2328.63447883819
 21
-1225.474700746998
 31
0.0
  0
LINE
  5
1BC6
330
2
100
AcDbEntity
  8
OUTLINE
100
AcDbLine
 10
2333.634478838189
 20
-1222.974700746998
 30
0.0
 11
3406.63447883819
 21
-1222.974700746998
 31
0.0
  0
LINE
  5
1BC7
330
2
100
AcDbEntity
  8
OUTLINE
100
AcDbLine
 10
3406.63447883819
 20
-1222.108675343214
 30
0.0
 11
3406.63447883819
 21
-1222.974700746998
 31
0.0
  0
LINE
  5
1BC8
330
2
100
AcDbEntity
  8
OUTLINE
100
AcDbLine
 10
2333.634478838189
 20
-1222.108675343214
 30
0.0
 11
3406.63447883819
 21
-1222.108675343214
 31
0.0
  0
LINE
  5
1BC9
330
2
100
AcDbEntity
  8
OUTLINE
100
AcDbLine
 10
2328.63447883819
 20
-1225.474700746998
 30
0.0
 11
2328.63447883819
 21
-1232.974700746998
 31
0.0
  0
LINE
  5
1BCA
330
2
100
AcDbEntity
  8
OUTLINE
100
AcDbLine
 10
2328.63447883819
 20
-1232.974700746998
 30
0.0
 11
3411.63447883819
 21
-1232.974700746998
 31
0.0
  0
LINE
  5
1BCB
330
2
100
AcDbEntity
  8
OUTLINE
100
AcDbLine
 10
3411.63447883819
 20
-1232.974700746998
 30
0.0
 11
3411.63447883819
 21
-1225.474700746998
 31
0.0
  0
LINE
  5
1BCC
330
2
100
AcDbEntity
  8
OUTLINE
100
AcDbLine
 10
3406.63447883819
 20
-1222.974700746998
 30
0.0
 11
3411.63447883819
 21
-1225.474700746998
 31
0.0
  0
LINE
  5
1BCD
330
2
100
AcDbEntity
  8
OUTLINE
100
AcDbLine
 10
3411.63447883819
 20
-1224.608675343214
 30
0.0
 11
3406.63447883819
 21
-1222.108675343214
 31
0.0
  0
LINE
  5
1BCE
330
2
100
AcDbEntity
  8
OUTLINE
100
AcDbLine
 10
3411.63447883819
 20
-1225.474700746998
 30
0.0
 11
3411.63447883819
 21
-1224.608675343214
 31
0.0
  0
LINE
  5
1BCF
330
2
100
AcDbEntity
  8
OUTLINE
100
AcDbLine
 10
3411.63447883819
 20
-1275.409945532436
 30
0.0
 11
3411.63447883819
 21
-1232.974700746998
 31
0.0
  0
LINE
  5
1BD0
330
2
100
AcDbEntity
  8
OUTLINE
100
AcDbLine
 10
3411.63447883819
 20
-1275.677894724867
 30
0.0
 11
3411.63447883819
 21
-1275.409945532436
 31
0.0
  0
LINE
  5
1BD1
330
2
100
AcDbEntity
  8
OUTLINE
100
AcDbLine
 10
2298.634478838186
 20
-1275.677894724874
 30
0.0
 11
2298.634478838186
 21
-1276.677894724874
 31
0.0
  0
LINE
  5
1BD2
330
2
100
AcDbEntity
  8
OUTLINE
100
AcDbLine
 10
2298.634478838186
 20
-1276.677894724874
 30
0.0
 11
2303.634478838186
 21
-1276.677894724874
 31
0.0
  0
LINE
  5
1BD3
330
2
100
AcDbEntity
  8
OUTLINE
100
AcDbLine
 10
2303.634478838185
 20
-1276.677894724874
 30
0.0
 11
2303.634478838185
 21
-1275.677894724874
 31
0.0
  0
LINE
  5
1BD4
330
2
100
AcDbEntity
  8
OUTLINE
100
AcDbLine
 10
3437.637710066542
 20
-1275.677894724874
 30
0.0
 11
3436.634478838185
 21
-1275.677894724874
 31
0.0
  0
LINE
  5
1BD5
330
2
100
AcDbEntity
  8
OUTLINE
100
AcDbLine
 10
3436.634478838185
 20
-1275.677894724874
 30
0.0
 11
3436.634478838185
 21
-1276.677894724874
 31
0.0
  0
LINE
  5
1BD6
330
2
100
AcDbEntity
  8
OUTLINE
100
AcDbLine
 10
3441.634478838185
 20
-1276.677894724874
 30
0.0
 11
3441.634478838185
 21
-1275.677894724874
 31
0.0
  0
LINE
  5
1BD7
330
2
100
AcDbEntity
  8
OUTLINE
100
AcDbLine
 10
3436.634478838185
 20
-1275.677894724874
 30
0.0
 11
3411.634478838185
 21
-1275.677894724874
 31
0.0
  0
LINE
  5
1BD8
330
2
100
AcDbEntity
  8
OUTLINE
100
AcDbLine
 10
3411.634478838185
 20
-1275.677894724874
 30
0.0
 11
3411.634478838185
 21
-1282.677894724874
 31
0.0
  0
LINE
  5
1BD9
330
2
100
AcDbEntity
  8
OUTLINE
100
AcDbLine
 10
3412.634478838185
 20
-1290.677894724874
 30
0.0
 11
3412.634478838185
 21
-1276.677894724874
 31
0.0
  0
LINE
  5
1BDA
330
2
100
AcDbEntity
  8
OUTLINE
100
AcDbLine
 10
2328.634478838186
 20
-1275.677894724874
 30
0.0
 11
2328.634478838186
 21
-1282.677894724874
 31
0.0
  0
LINE
  5
1BDB
330
2
100
AcDbEntity
  8
OUTLINE
100
AcDbLine
 10
2327.634478838186
 20
-1276.677894724874
 30
0.0
 11
2303.634478838185
 21
-1276.677894724874
 31
0.0
  0
LINE
  5
1BDC
330
2
100
AcDbEntity
  8
OUTLINE
100
AcDbLine
 10
2327.634478838185
 20
-1290.677894724874
 30
0.0
 11
2327.634478838185
 21
-1276.677894724874
 31
0.0
  0
LINE
  5
1BDD
330
2
100
AcDbEntity
  8
OUTLINE
100
AcDbLine
 10
2328.63447883819
 20
-1275.409945532436
 30
0.0
 11
2328.63447883819
 21
-1275.677894724867
 31
0.0
  0
LINE
  5
1BDE
330
2
100
AcDbEntity
  8
OUTLINE
100
AcDbLine
 10
2328.63447883819
 20
-1232.974700746998
 30
0.0
 11
2328.63447883819
 21
-1275.409945532436
 31
0.0
  0
LINE
  5
1BDF
330
2
100
AcDbEntity
  8
OUTLINE
100
AcDbLine
 10
2627.634478838186
 20
-1282.677894724874
 30
0.0
 11
2632.634478838185
 21
-1287.677894724874
 31
0.0
  0
LINE
  5
1BE0
330
2
100
AcDbEntity
  8
OUTLINE
100
AcDbLine
 10
2632.634478838186
 20
-1289.677894724874
 30
0.0
 11
2632.634478838186
 21
-1287.677894724874
 31
0.0
  0
LINE
  5
1BE1
330
2
100
AcDbEntity
  8
OUTLINE
100
AcDbLine
 10
2327.634478838185
 20
-1290.677894724874
 30
0.0
 11
3412.634478838185
 21
-1290.677894724875
 31
0.0
  0
LINE
  5
1BE2
330
2
100
AcDbEntity
  8
OUTLINE
100
AcDbLine
 10
3112.634478838185
 20
-1282.677894724874
 30
0.0
 11
3411.634478838185
 21
-1282.677894724874
 31
0.0
  0
LINE
  5
1BE3
330
2
100
AcDbEntity
  8
OUTLINE
100
AcDbLine
 10
3107.634478838185
 20
-1287.677894724874
 30
0.0
 11
3112.634478838185
 21
-1282.677894724874
 31
0.0
  0
LINE
  5
1BE4
330
2
100
AcDbEntity
  8
OUTLINE
100
AcDbLine
 10
3107.634478838185
 20
-1287.677894724874
 30
0.0
 11
3107.634478838185
 21
-1289.677894724874
 31
0.0
  0
LINE
  5
1BE5
330
2
100
AcDbEntity
  8
OUTLINE
100
AcDbLine
 10
3107.634478838185
 20
-1289.677894724874
 30
0.0
 11
2632.634478838185
 21
-1289.677894724874
 31
0.0
  0
LINE
  5
1BE6
330
2
100
AcDbEntity
  8
OUTLINE
100
AcDbLine
 10
2328.634478838186
 20
-1282.677894724874
 30
0.0
 11
2627.634478838186
 21
-1282.677894724874
 31
0.0
  0
LINE
  5
1BE7
330
2
100
AcDbEntity
  8
OUTLINE
100
AcDbLine
 10
2328.63447883819
 20
-1275.409945532436
 30
0.0
 11
3411.63447883819
 21
-1275.409945532436
 31
0.0
  0
ELLIPSE
  5
1BE8
330
2
100
AcDbEntity
  8
OUTLINE
100
AcDbEllipse
 10
2344.878605411403
 20
-921.4115662669799
 30
0.0
 11
-2.049999679607485
 21
0.0011461279144651
 31
0.0
210
0.0
220
0.0
230
0.9999999999999998
 40
0.8657347858913844
 41
3.283070275836939
 42
6.141707684926221
  0
ELLIPSE
  5
1BE9
330
2
100
AcDbEntity
  8
OUTLINE
100
AcDbEllipse
 10
2344.878325586773
 20
-921.9120692162178
 30
0.0
 11
2.049999679607485
 21
-0.0011461279144653
 31
0.0
210
0.0
220
0.0
230
0.9999999999999998
 40
0.8657347858913844
 41
0.285890849714368
 42
2.855701803872356
  0
ELLIPSE
  5
1BEA
330
2
100
AcDbEntity
  8
OUTLINE
100
AcDbEllipse
 10
2519.878598559956
 20
-916.2416666324499
 30
0.0
 11
-2.049999679607485
 21
0.0011461279144651
 31
0.0
210
0.0
220
0.0
230
0.9999999999999998
 40
0.8657347858913844
 41
3.283070275837038
 42
6.141707684926076
  0
ELLIPSE
  5
1BEB
330
2
100
AcDbEntity
  8
OUTLINE
100
AcDbEllipse
 10
2519.878318735326
 20
-916.7421695816878
 30
0.0
 11
2.049999679607485
 21
-0.0011461279144653
 31
0.0
210
0.0
220
0.0
230
0.9999999999999998
 40
0.8657347858913844
 41
0.2858908497144812
 42
2.855701803872252
  0
ELLIPSE
  5
1BEC
330
2
100
AcDbEntity
  8
OUTLINE
100
AcDbEllipse
 10
2312.378326861676
 20
-1263.900518807475
 30
0.0
 11
2.499999609277423
 21
-0.0013977169688602
 31
0.0
210
0.0
220
0.0
230
0.9999999999999998
 40
0.8657347858913841
 41
0.8555022232972016
 42
1.85194119467233
  0
ELLIPSE
  5
1BED
330
2
100
AcDbEntity
  8
OUTLINE
100
AcDbEllipse
 10
2312.37832686043
 20
-1093.350759309693
 30
0.0
 11
2.499999609277423
 21
-0.0013977169688602
 31
0.0
210
0.0
220
0.0
230
0.9999999999999998
 40
0.8657347858913841
 41
0.9227059293002175
 42
1.89098399393276
  0
ELLIPSE
  5
1BEE
330
2
100
AcDbEntity
  8
OUTLINE
100
AcDbEllipse
 10
2312.378326859183
 20
-922.8009998119118
 30
0.0
 11
2.499999609277423
 21
-0.0013977169688602
 31
0.0
210
0.0
220
0.0
230
0.9999999999999998
 40
0.8657347858913841
 41
0.9874040984862798
 42
1.934438170879904
  0
ELLIPSE
  5
1BEF
330
2
100
AcDbEntity
  8
OUTLINE
100
AcDbEllipse
 10
2312.378326857938
 20
-752.2512403141304
 30
0.0
 11
2.499999609277423
 21
-0.0013977169688602
 31
0.0
210
0.0
220
0.0
230
0.9999999999999998
 40
0.8657347858913841
 41
1.04876982663029
 42
1.982536311435239
  0
ELLIPSE
  5
1BF0
330
2
100
AcDbEntity
  8
OUTLINE
100
AcDbEllipse
 10
2312.378326856692
 20
-581.701480816349
 30
0.0
 11
2.499999609277423
 21
-0.0013977169688602
 31
0.0
210
0.0
220
0.0
230
0.9999999999999998
 40
0.8657347858913841
 41
1.106126047097748
 42
2.035315589846096
  0
ELLIPSE
  5
1BF1
330
2
100
AcDbEntity
  8
OUTLINE
100
AcDbEllipse
 10
3427.378283208408
 20
-1264.056677960992
 30
0.0
 11
2.499999609277423
 21
-0.0013977169688602
 31
0.0
210
0.0
220
0.0
230
0.9999999999999998
 40
0.8657347858913841
 41
0.6648794269513517
 42
2.143726890171747
  0
ELLIPSE
  5
1BF2
330
2
100
AcDbEntity
  8
OUTLINE
100
AcDbEllipse
 10
3427.378283207162
 20
-1093.506918463211
 30
0.0
 11
2.499999609277423
 21
-0.0013977169688602
 31
0.0
210
0.0
220
0.0
230
0.9999999999999998
 40
0.8657347858913841
 41
0.7099051413530276
 42
2.180930568438765
  0
ELLIPSE
  5
1BF3
330
2
100
AcDbEntity
  8
OUTLINE
100
AcDbEllipse
 10
3427.378283205916
 20
-922.9571589654296
 30
0.0
 11
2.499999609277423
 21
-0.0013977169688602
 31
0.0
210
0.0
220
0.0
230
0.9999999999999998
 40
0.8657347858913841
 41
0.7543153880160958
 42
2.219614343170225
  0
ELLIPSE
  5
1BF4
330
2
100
AcDbEntity
  8
OUTLINE
100
AcDbEllipse
 10
3427.378283204671
 20
-752.4073994676475
 30
0.0
 11
2.499999609277423
 21
-0.0013977169688602
 31
0.0
210
0.0
220
0.0
230
0.9999999999999998
 40
0.8657347858913841
 41
0.7979074907145663
 42
2.259704165811318
  0
ELLIPSE
  5
1BF5
330
2
100
AcDbEntity
  8
OUTLINE
100
AcDbEllipse
 10
3427.378283203424
 20
-581.8576399698662
 30
0.0
 11
2.499999609277423
 21
-0.0013977169688602
 31
0.0
210
0.0
220
0.0
230
0.9999999999999998
 40
0.8657347858913841
 41
0.8404967783132008
 42
2.3010958752748
  0
ELLIPSE
  5
1BF6
330
2
100
AcDbEntity
  8
OUTLINE
100
AcDbEllipse
 10
2869.878305034966
 20
-1253.562033046691
 30
0.0
 11
2.499999609277423
 21
-0.0013977169688602
 31
0.0
210
0.0
220
0.0
230
0.9999999999999998
 40
0.8657347858913841
 41
0.7668377905150569
 42
1.366379496307389
  0
ELLIPSE
  5
1BF7
330
2
100
AcDbEntity
  8
OUTLINE
100
AcDbEllipse
 10
3154.878293876957
 20
-1253.601948166649
 30
0.0
 11
2.499999609277423
 21
-0.0013977169688602
 31
0.0
210
0.0
220
0.0
230
0.9999999999999998
 40
0.8657347858913841
 41
0.6612346763071347
 42
1.549929404144853
  0
ELLIPSE
  5
1BF8
330
2
100
AcDbEntity
  8
OUTLINE
100
AcDbEllipse
 10
2694.878311883953
 20
-921.9610877845862
 30
0.0
 11
2.049999679607485
 21
-0.0011461279144653
 31
0.0
210
0.0
220
0.0
230
0.9999999999999998
 40
0.8657347858913844
 41
0.2858908497145529
 42
2.855701803872078
  0
ELLIPSE
  5
1BF9
330
2
100
AcDbEntity
  8
OUTLINE
100
AcDbEllipse
 10
2869.878305032506
 20
-916.7911881500568
 30
0.0
 11
2.049999679607485
 21
-0.0011461279144653
 31
0.0
210
0.0
220
0.0
230
0.9999999999999998
 40
0.8657347858913844
 41
0.2858908497146195
 42
2.855701803872053
  0
ELLIPSE
  5
1BFA
330
2
100
AcDbEntity
  8
OUTLINE
100
AcDbEllipse
 10
3044.878298181134
 20
-922.0101063529552
 30
0.0
 11
2.049999679607485
 21
-0.0011461279144653
 31
0.0
210
0.0
220
0.0
230
0.9999999999999998
 40
0.8657347858913844
 41
0.2858908497146957
 42
2.855701803871693
  0
ELLIPSE
  5
1BFB
330
2
100
AcDbEntity
  8
OUTLINE
100
AcDbEllipse
 10
3219.878291329687
 20
-916.8402067184254
 30
0.0
 11
2.049999679607485
 21
-0.0011461279144653
 31
0.0
210
0.0
220
0.0
230
0.9999999999999998
 40
0.8657347858913844
 41
0.2858908497148394
 42
2.855701803871806
  0
ELLIPSE
  5
1BFC
330
2
100
AcDbEntity
  8
OUTLINE
100
AcDbEllipse
 10
3394.878284478315
 20
-922.059124921324
 30
0.0
 11
2.049999679607485
 21
-0.0011461279144653
 31
0.0
210
0.0
220
0.0
230
0.9999999999999998
 40
0.8657347858913844
 41
0.2858908497151618
 42
2.855701803871832
  0
ELLIPSE
  5
1BFD
330
2
100
AcDbEntity
  8
OUTLINE
100
AcDbEllipse
 10
2694.878591708584
 20
-921.4605848353489
 30
0.0
 11
-2.049999679607485
 21
0.0011461279144651
 31
0.0
210
0.0
220
0.0
230
0.9999999999999998
 40
0.8657347858913844
 41
3.283070275837105
 42
6.141707684926011
  0
ELLIPSE
  5
1BFE
330
2
100
AcDbEntity
  8
OUTLINE
100
AcDbEllipse
 10
2869.878584857135
 20
-916.2906852008187
 30
0.0
 11
-2.049999679607485
 21
0.0011461279144651
 31
0.0
210
0.0
220
0.0
230
0.9999999999999998
 40
0.8657347858913844
 41
3.283070275837205
 42
6.141707684925906
  0
ELLIPSE
  5
1BFF
330
2
100
AcDbEntity
  8
OUTLINE
100
AcDbEllipse
 10
3044.878578005763
 20
-921.5096034037172
 30
0.0
 11
-2.049999679607485
 21
0.0011461279144651
 31
0.0
210
0.0
220
0.0
230
0.9999999999999998
 40
0.8657347858913844
 41
3.28307027583695
 42
6.1417076849254
  0
ELLIPSE
  5
1C00
330
2
100
AcDbEntity
  8
OUTLINE
100
AcDbEllipse
 10
3219.878571154316
 20
-916.3397037691876
 30
0.0
 11
-2.049999679607485
 21
0.0011461279144651
 31
0.0
210
0.0
220
0.0
230
0.9999999999999998
 40
0.8657347858913844
 41
3.283070275837441
 42
6.141707684925675
  0
ELLIPSE
  5
1C01
330
2
100
AcDbEntity
  8
OUTLINE
100
AcDbEllipse
 10
3394.878564302944
 20
-921.5586219720862
 30
0.0
 11
-2.049999679607485
 21
0.0011461279144651
 31
0.0
210
0.0
220
0.0
230
0.9999999999999998
 40
0.8657347858913844
 41
3.283070275837938
 42
6.141707684925917
  0
LINE
  5
1C02
330
2
100
AcDbEntity
  8
OUTLINE
100
AcDbLine
 10
2303.38759352802
 20
-569.1463175684463
 30
0.0
 11
2298.387593723743
 21
-564.8169432042551
 31
0.0
  0
LINE
  5
1C03
330
2
100
AcDbEntity
  8
OUTLINE
100
AcDbLine
 10
2298.387593723743
 20
-564.8169432042551
 30
0.0
 11
2298.387313899112
 21
-565.3174461534929
 31
0.0
  0
LINE
  5
1C04
330
2
100
AcDbEntity
  8
OUTLINE
100
AcDbLine
 10
2298.387313899113
 20
-565.3174461534929
 30
0.0
 11
2303.387313703391
 21
-569.6468205176837
 31
0.0
  0
LINE
  5
1C05
330
2
100
AcDbEntity
  8
OUTLINE
100
AcDbLine
 10
2303.38731370339
 20
-569.6468205176841
 30
0.0
 11
2303.38759352802
 21
-569.1463175684463
 31
0.0
  0
LINE
  5
1C06
330
2
100
AcDbEntity
  8
OUTLINE
100
AcDbLine
 10
2327.599570851432
 20
-569.1497085299097
 30
0.0
 11
2303.387593528019
 21
-569.1463175684463
 31
0.0
  0
LINE
  5
1C07
330
2
100
AcDbEntity
  8
OUTLINE
100
AcDbLine
 10
3411.599570851432
 20
-569.3015260447441
 30
0.0
 11
2328.599570851432
 21
-569.1498485829677
 31
0.0
  0
LINE
  5
1C08
330
2
100
AcDbEntity
  8
OUTLINE
100
AcDbLine
 10
3436.387549170036
 20
-569.3049976769081
 30
0.0
 11
3412.599570851432
 21
-569.3016660978021
 31
0.0
  0
LINE
  5
1C09
330
2
100
AcDbEntity
  8
OUTLINE
100
AcDbLine
 10
3441.38754897425
 20
-564.977023843242
 30
0.0
 11
3436.387549170035
 21
-569.304997676908
 31
0.0
  0
LINE
  5
1C0A
330
2
100
AcDbEntity
  8
OUTLINE
100
AcDbLine
 10
3441.387548974186
 20
-556.3196756453852
 30
0.0
 11
3441.38754897425
 21
-564.9770238432421
 31
0.0
  0
LINE
  5
1C0B
330
2
100
AcDbEntity
  8
OUTLINE
100
AcDbLine
 10
3441.387548974186
 20
-556.3196756453852
 30
0.0
 11
2298.387593723679
 21
-556.1595950063985
 31
0.0
  0
LINE
  5
1C0C
330
2
100
AcDbEntity
  8
OUTLINE
100
AcDbLine
 10
2298.387593723679
 20
-556.1595950063981
 30
0.0
 11
2298.387593723742
 21
-564.8169432042551
 31
0.0
  0
LINE
  5
1C0D
330
2
100
AcDbEntity
  8
OUTLINE
100
AcDbLine
 10
2327.599570851432
 20
-569.6502115183377
 30
0.0
 11
2303.38731370339
 21
-569.6468205176837
 31
0.0
  0
LINE
  5
1C0E
330
2
100
AcDbEntity
  8
OUTLINE
100
AcDbLine
 10
3411.599570851432
 20
-569.8020290331717
 30
0.0
 11
2328.599570851432
 21
-569.6503515713954
 31
0.0
  0
LINE
  5
1C0F
330
2
100
AcDbEntity
  8
OUTLINE
100
AcDbLine
 10
3436.387269345406
 20
-569.8055006261458
 30
0.0
 11
3412.599570851432
 21
-569.8021690862297
 31
0.0
  0
LINE
  5
1C10
330
2
100
AcDbEntity
  8
OUTLINE
100
AcDbLine
 10
3436.387549170036
 20
-569.3049976769081
 30
0.0
 11
3436.387269345406
 21
-569.8055006261462
 31
0.0
  0
LINE
  5
1C11
330
2
100
AcDbEntity
  8
OUTLINE
100
AcDbLine
 10
3436.387269345406
 20
-569.8055006261461
 30
0.0
 11
3441.387269149621
 21
-565.4775267924797
 31
0.0
  0
LINE
  5
1C12
330
2
100
AcDbEntity
  8
OUTLINE
100
AcDbLine
 10
3441.387269149621
 20
-565.4775267924797
 30
0.0
 11
3441.38754897425
 21
-564.977023843242
 31
0.0
  0
LINE
  5
1C13
330
2
100
AcDbEntity
  8
OUTLINE
100
AcDbLine
 10
2328.63447883819
 20
-1275.12960068837
 30
0.0
 11
2327.647083716527
 21
-1275.129462400663
 31
0.0
  0
LINE
  5
1C14
330
2
100
AcDbEntity
  8
OUTLINE
100
AcDbLine
 10
3412.508348912896
 20
-1275.281400538322
 30
0.0
 11
3411.63447883819
 21
-1275.281278150146
 31
0.0
  0
LINE
  5
1C15
330
2
100
AcDbEntity
  8
OUTLINE
100
AcDbLine
 10
2328.63447883819
 20
-1274.629097699942
 30
0.0
 11
2327.647083716527
 21
-1274.628959412236
 31
0.0
  0
LINE
  5
1C16
330
2
100
AcDbEntity
  8
OUTLINE
100
AcDbLine
 10
3412.508255387515
 20
-1274.780897536796
 30
0.0
 11
3411.63447883819
 21
-1274.780775161718
 31
0.0
  0
LINE
  5
1C17
330
2
100
AcDbEntity
  8
OUTLINE
100
AcDbLine
 10
2298.378327404732
 20
-571.6778947248704
 30
0.0
 11
2298.378327404723
 21
-570.4449674164002
 31
0.0
  0
LINE
  5
1C18
330
2
100
AcDbEntity
  8
OUTLINE
100
AcDbLine
 10
2298.378327404723
 20
-570.4449674164
 30
0.0
 11
2298.380323666445
 21
-556.177020770883
 31
0.0
  0
LINE
  5
1C19
330
2
100
AcDbEntity
  8
OUTLINE
100
AcDbLine
 10
2298.380323666444
 20
-556.177020770883
 30
0.0
 11
2298.387593723679
 21
-556.1595950063981
 31
0.0
  0
LINE
  5
1C1A
330
2
100
AcDbEntity
  8
OUTLINE
100
AcDbLine
 10
2298.387313899113
 20
-565.3174461534929
 30
0.0
 11
2298.387313899053
 21
-557.1599301868864
 31
0.0
  0
LINE
  5
1C1B
330
2
100
AcDbEntity
  8
OUTLINE
100
AcDbLine
 10
2298.387313899053
 20
-557.1599301868864
 30
0.0
 11
2298.380426089376
 21
-557.1764397335611
 31
0.0
  0
LINE
  5
1C1C
330
2
100
AcDbEntity
  8
OUTLINE
100
AcDbLine
 10
2298.387313899053
 20
-557.1764406982199
 30
0.0
 11
2298.380426089376
 21
-557.1764397335611
 31
0.0
  0
LINE
  5
1C1D
330
2
100
AcDbEntity
  8
OUTLINE
100
AcDbLine
 10
2298.380426089376
 20
-557.1764397335607
 30
0.0
 11
2298.378607229354
 21
-570.1764374129838
 31
0.0
  0
LINE
  5
1C1E
330
2
100
AcDbEntity
  8
OUTLINE
100
AcDbLine
 10
2327.599570851432
 20
-570.1805298982958
 30
0.0
 11
2298.378607229354
 21
-570.1764374129841
 31
0.0
  0
LINE
  5
1C1F
330
2
100
AcDbEntity
  8
OUTLINE
100
AcDbLine
 10
3411.599570851432
 20
-570.3323474131302
 30
0.0
 11
2328.599570851432
 21
-570.1806699513539
 31
0.0
  0
LINE
  5
1C20
330
2
100
AcDbEntity
  8
OUTLINE
100
AcDbLine
 10
3441.378562479862
 20
-570.3365180519709
 30
0.0
 11
3412.599570851432
 21
-570.332487466188
 31
0.0
  0
LINE
  5
1C21
330
2
100
AcDbEntity
  8
OUTLINE
100
AcDbLine
 10
3441.379241340444
 20
-565.4844756223631
 30
0.0
 11
3441.378562479862
 21
-570.3365180519709
 31
0.0
  0
LINE
  5
1C22
330
2
100
AcDbEntity
  8
OUTLINE
100
AcDbLine
 10
3441.378562479862
 20
-570.3365180519709
 30
0.0
 11
3441.378562479864
 21
-570.6778947248674
 31
0.0
  0
LINE
  5
1C23
330
2
100
AcDbEntity
  8
OUTLINE
100
AcDbLine
 10
2298.378607229354
 20
-570.1764374129838
 30
0.0
 11
2298.378607229366
 21
-571.6778947248704
 31
0.0
  0
ELLIPSE
  5
1C24
330
2
100
AcDbEntity
  8
OUTLINE
100
AcDbEllipse
 10
3394.878844127577
 20
-921.058119022849
 30
0.0
 11
-2.049999679607485
 21
0.0011461279144411
 31
0.0
210
0.0
220
0.0
230
0.9999999999999998
 40
0.8657347858913793
 41
0.0006457945392751
 42
6.283831101718861
  0
ELLIPSE
  5
1C25
330
2
100
AcDbEntity
  8
OUTLINE
100
AcDbEllipse
 10
3394.878564302946
 20
-921.5586219720869
 30
0.0
 11
2.049999679607485
 21
-0.0011461279144413
 31
0.0
210
0.0
220
0.0
230
0.9999999999999998
 40
0.8657347858913793
 41
0.1414776222511223
 42
3.000115031338653
  0
ELLIPSE
  5
1C26
330
2
100
AcDbEntity
  8
OUTLINE
100
AcDbEllipse
 10
3219.878850978947
 20
-915.8392008199507
 30
0.0
 11
-2.049999679607485
 21
0.0011461279144411
 31
0.0
210
0.0
220
0.0
230
0.9999999999999998
 40
0.8657347858913793
 41
0.0006457945392751
 42
6.283831101718861
  0
ELLIPSE
  5
1C27
330
2
100
AcDbEntity
  8
OUTLINE
100
AcDbEllipse
 10
3219.878571154318
 20
-916.3397037691886
 30
0.0
 11
2.049999679607485
 21
-0.0011461279144413
 31
0.0
210
0.0
220
0.0
230
0.9999999999999998
 40
0.8657347858913793
 41
0.1414776222511223
 42
3.000115031338653
  0
ELLIPSE
  5
1C28
330
2
100
AcDbEntity
  8
OUTLINE
100
AcDbEllipse
 10
3044.878857830396
 20
-921.009100454481
 30
0.0
 11
-2.049999679607485
 21
0.0011461279144411
 31
0.0
210
0.0
220
0.0
230
0.9999999999999998
 40
0.8657347858913793
 41
0.0006457945392751
 42
6.283831101718861
  0
ELLIPSE
  5
1C29
330
2
100
AcDbEntity
  8
OUTLINE
100
AcDbEllipse
 10
3044.878578005768
 20
-921.5096034037188
 30
0.0
 11
2.049999679607485
 21
-0.0011461279144413
 31
0.0
210
0.0
220
0.0
230
0.9999999999999998
 40
0.8657347858913793
 41
0.1414776222511223
 42
3.000115031338653
  0
ELLIPSE
  5
1C2A
330
2
100
AcDbEntity
  8
OUTLINE
100
AcDbEllipse
 10
2344.878885236034
 20
-920.9110633177452
 30
0.0
 11
-2.049999679607485
 21
0.0011461279144411
 31
0.0
210
0.0
220
0.0
230
0.9999999999999998
 40
0.8657347858913793
 41
0.0006457945392751
 42
6.283831101718861
  0
ELLIPSE
  5
1C2B
330
2
100
AcDbEntity
  8
OUTLINE
100
AcDbEllipse
 10
2519.878878384586
 20
-915.7411636832151
 30
0.0
 11
-2.049999679607485
 21
0.0011461279144411
 31
0.0
210
0.0
220
0.0
230
0.9999999999999998
 40
0.8657347858913793
 41
0.0006457945392751
 42
6.283831101718861
  0
ELLIPSE
  5
1C2C
330
2
100
AcDbEntity
  8
OUTLINE
100
AcDbEllipse
 10
2694.878871533215
 20
-920.9600818861131
 30
0.0
 11
-2.049999679607485
 21
0.0011461279144411
 31
0.0
210
0.0
220
0.0
230
0.9999999999999998
 40
0.8657347858913793
 41
0.0006457945392751
 42
6.283831101718861
  0
ELLIPSE
  5
1C2D
330
2
100
AcDbEntity
  8
OUTLINE
100
AcDbEllipse
 10
2869.878864681767
 20
-915.7901822515828
 30
0.0
 11
-2.049999679607485
 21
0.0011461279144411
 31
0.0
210
0.0
220
0.0
230
0.9999999999999998
 40
0.8657347858913793
 41
0.0006457945392751
 42
6.283831101718861
  0
ELLIPSE
  5
1C2E
330
2
100
AcDbEntity
  8
OUTLINE
100
AcDbEllipse
 10
2344.878605411405
 20
-921.4115662669831
 30
0.0
 11
2.049999679607485
 21
-0.0011461279144413
 31
0.0
210
0.0
220
0.0
230
0.9999999999999998
 40
0.8657347858913793
 41
0.1414776222511497
 42
3.000115031338632
  0
ELLIPSE
  5
1C2F
330
2
100
AcDbEntity
  8
OUTLINE
100
AcDbEllipse
 10
2519.878598559957
 20
-916.241666632453
 30
0.0
 11
2.049999679607485
 21
-0.0011461279144413
 31
0.0
210
0.0
220
0.0
230
0.9999999999999998
 40
0.8657347858913793
 41
0.141477622251126
 42
3.000115031338673
  0
ELLIPSE
  5
1C30
330
2
100
AcDbEntity
  8
OUTLINE
100
AcDbEllipse
 10
2694.878591708585
 20
-921.4605848353508
 30
0.0
 11
2.049999679607485
 21
-0.0011461279144413
 31
0.0
210
0.0
220
0.0
230
0.9999999999999998
 40
0.8657347858913793
 41
0.1414776222511104
 42
3.000115031338653
  0
ELLIPSE
  5
1C31
330
2
100
AcDbEntity
  8
OUTLINE
100
AcDbEllipse
 10
2869.878584857137
 20
-916.2906852008207
 30
0.0
 11
2.049999679607485
 21
-0.0011461279144413
 31
0.0
210
0.0
220
0.0
230
0.9999999999999998
 40
0.8657347858913793
 41
0.1414776222511119
 42
3.000115031338653
  0
LINE
  5
1C32
330
2
100
AcDbEntity
  8
OUTLINE
100
AcDbLine
 10
2334.878605802927
 20
-923.1416353760296
 30
0.0
 11
2339.878605607204
 21
-927.4710097402206
 31
0.0
  0
LINE
  5
1C33
330
2
100
AcDbEntity
  8
OUTLINE
100
AcDbLine
 10
2339.878605607203
 20
-927.4710097402206
 30
0.0
 11
2339.878885431833
 21
-926.9705067909827
 31
0.0
  0
LINE
  5
1C34
330
2
100
AcDbEntity
  8
OUTLINE
100
AcDbLine
 10
2339.878885431834
 20
-926.9705067909827
 30
0.0
 11
2334.878885627556
 21
-922.6411324267917
 31
0.0
  0
LINE
  5
1C35
330
2
100
AcDbEntity
  8
OUTLINE
100
AcDbLine
 10
2334.878885627556
 20
-922.6411324267917
 30
0.0
 11
2334.878605802926
 21
-923.1416353760296
 31
0.0
  0
LINE
  5
1C36
330
2
100
AcDbEntity
  8
OUTLINE
100
AcDbLine
 10
2334.878885627556
 20
-922.6411324267917
 30
0.0
 11
2334.878885627468
 21
-910.520844949792
 31
0.0
  0
LINE
  5
1C37
330
2
100
AcDbEntity
  8
OUTLINE
100
AcDbLine
 10
2334.878885627468
 20
-910.520844949792
 30
0.0
 11
2334.886720717102
 21
-896.5067623711325
 31
0.0
  0
LINE
  5
1C38
330
2
100
AcDbEntity
  8
OUTLINE
100
AcDbLine
 10
2334.886720717101
 20
-896.5067623711325
 30
0.0
 11
2334.88672071719
 21
-908.6270498481322
 31
0.0
  0
LINE
  5
1C39
330
2
100
AcDbEntity
  8
OUTLINE
100
AcDbLine
 10
2334.88700054182
 20
-908.1265468988943
 30
0.0
 11
2334.886720717189
 21
-908.6270498481322
 31
0.0
  0
LINE
  5
1C3A
330
2
100
AcDbEntity
  8
OUTLINE
100
AcDbLine
 10
2334.88700054182
 20
-908.1265468988943
 30
0.0
 11
2334.887000541725
 21
-895.140524602109
 31
0.0
  0
LINE
  5
1C3B
330
2
100
AcDbEntity
  8
OUTLINE
100
AcDbLine
 10
2334.887000541725
 20
-895.140524602109
 30
0.0
 11
2334.878605802833
 21
-910.1556130792443
 31
0.0
  0
LINE
  5
1C3C
330
2
100
AcDbEntity
  8
OUTLINE
100
AcDbLine
 10
2334.878605802833
 20
-910.1556130792443
 30
0.0
 11
2334.878605802926
 21
-923.1416353760296
 31
0.0
  0
LINE
  5
1C3D
330
2
100
AcDbEntity
  8
OUTLINE
100
AcDbLine
 10
2339.878885431834
 20
-926.9705067909827
 30
0.0
 11
3399.878843931866
 21
-927.118963026611
 31
0.0
  0
LINE
  5
1C3E
330
2
100
AcDbEntity
  8
OUTLINE
100
AcDbLine
 10
3404.878843736081
 20
-922.7909891929453
 30
0.0
 11
3399.878843931866
 21
-927.118963026611
 31
0.0
  0
LINE
  5
1C3F
330
2
100
AcDbEntity
  8
OUTLINE
100
AcDbLine
 10
3404.878843736081
 20
-922.7909891929453
 30
0.0
 11
3404.878843735991
 21
-910.6707017159456
 31
0.0
  0
LINE
  5
1C40
330
2
100
AcDbEntity
  8
OUTLINE
100
AcDbLine
 10
3402.699177432039
 20
-910.6703964470144
 30
0.0
 11
3404.878843735991
 21
-910.6707017159456
 31
0.0
  0
LINE
  5
1C41
330
2
100
AcDbEntity
  8
OUTLINE
100
AcDbLine
 10
2334.878885627468
 20
-910.520844949792
 30
0.0
 11
2337.074222110891
 21
-910.52115241338
 31
0.0
  0
LINE
  5
1C42
330
2
100
AcDbEntity
  8
OUTLINE
100
AcDbLine
 10
2339.887000346097
 20
-912.4559212630853
 30
0.0
 11
2334.88700054182
 21
-908.1265468988943
 31
0.0
  0
LINE
  5
1C43
330
2
100
AcDbEntity
  8
OUTLINE
100
AcDbLine
 10
2334.886720717189
 20
-908.6270498481322
 30
0.0
 11
2339.886720521466
 21
-912.9564242123233
 31
0.0
  0
LINE
  5
1C44
330
2
100
AcDbEntity
  8
OUTLINE
100
AcDbLine
 10
2339.886720521466
 20
-912.9564242123226
 30
0.0
 11
2339.887000346097
 21
-912.4559212630847
 31
0.0
  0
LINE
  5
1C45
330
2
100
AcDbEntity
  8
OUTLINE
100
AcDbLine
 10
2339.886720521466
 20
-912.9564242123226
 30
0.0
 11
3399.886679021499
 21
-913.1048804479517
 31
0.0
  0
LINE
  5
1C46
330
2
100
AcDbEntity
  8
OUTLINE
100
AcDbLine
 10
3399.88695884613
 20
-912.6043774987136
 30
0.0
 11
3399.886679021499
 21
-913.1048804479517
 31
0.0
  0
LINE
  5
1C47
330
2
100
AcDbEntity
  8
OUTLINE
100
AcDbLine
 10
2339.887000346096
 20
-912.4559212630853
 30
0.0
 11
3399.88695884613
 21
-912.6043774987136
 31
0.0
  0
LINE
  5
1C48
330
2
100
AcDbEntity
  8
OUTLINE
100
AcDbLine
 10
3399.886679021499
 20
-913.1048804479517
 30
0.0
 11
3404.886678825715
 21
-908.7769066142854
 31
0.0
  0
LINE
  5
1C49
330
2
100
AcDbEntity
  8
OUTLINE
100
AcDbLine
 10
3404.886958650343
 20
-908.2764036650475
 30
0.0
 11
3399.88695884613
 21
-912.6043774987136
 31
0.0
  0
LINE
  5
1C4A
330
2
100
AcDbEntity
  8
OUTLINE
100
AcDbLine
 10
3404.886678825713
 20
-908.7769066142854
 30
0.0
 11
3404.886958650343
 21
-908.2764036650475
 31
0.0
  0
LINE
  5
1C4B
330
2
100
AcDbEntity
  8
OUTLINE
100
AcDbLine
 10
3404.886958650343
 20
-908.2764036650475
 30
0.0
 11
3404.886958650248
 21
-895.2903813682622
 31
0.0
  0
LINE
  5
1C4C
330
2
100
AcDbEntity
  8
OUTLINE
100
AcDbLine
 10
2334.887000541725
 20
-895.140524602109
 30
0.0
 11
3404.886958650248
 21
-895.2903813682622
 31
0.0
  0
LINE
  5
1C4D
330
2
100
AcDbEntity
  8
OUTLINE
100
AcDbLine
 10
3404.878843735991
 20
-910.6707017159456
 30
0.0
 11
3404.879899251053
 21
-908.7827749788637
 31
0.0
  0
LINE
  5
1C4E
330
2
100
AcDbEntity
  8
OUTLINE
100
AcDbLine
 10
3404.878563911449
 20
-923.2914921421832
 30
0.0
 11
3404.878843736079
 21
-922.7909891929453
 31
0.0
  0
LINE
  5
1C4F
330
2
100
AcDbEntity
  8
OUTLINE
100
AcDbLine
 10
3399.878564107236
 20
-927.6194659758493
 30
0.0
 11
3404.878563911449
 21
-923.2914921421832
 31
0.0
  0
LINE
  5
1C50
330
2
100
AcDbEntity
  8
OUTLINE
100
AcDbLine
 10
3399.878843931866
 20
-927.118963026611
 30
0.0
 11
3399.878564107236
 21
-927.6194659758493
 31
0.0
  0
LINE
  5
1C51
330
2
100
AcDbEntity
  8
OUTLINE
100
AcDbLine
 10
2339.878605607203
 20
-927.4710097402206
 30
0.0
 11
3399.878564107235
 21
-927.6194659758493
 31
0.0
  0
ELLIPSE
  5
1C52
330
2
100
AcDbEntity
  8
OUTLINE
100
AcDbEllipse
 10
3457.147406181199
 20
-623.6778947248674
 30
0.0
 11
0.0000000000000002
 21
3.5
 31
0.0
210
0.0
220
0.0
230
1.0
 40
0.9999999477637356
 41
0.0
 42
3.141592653589792
  0
ELLIPSE
  5
1C53
330
2
100
AcDbEntity
  8
OUTLINE
100
AcDbEllipse
 10
3459.147406076727
 20
-623.6778947248674
 30
0.0
 11
0.0000000000000002
 21
3.5
 31
0.0
210
0.0
220
0.0
230
1.0
 40
0.9999999477637356
 41
3.141592653589792
 42
6.283185307179584
  0
ELLIPSE
  5
1C54
330
2
100
AcDbEntity
  8
OUTLINE
100
AcDbEllipse
 10
3457.147406181199
 20
-773.6778947248674
 30
0.0
 11
0.0000000000000002
 21
3.5
 31
0.0
210
0.0
220
0.0
230
1.0
 40
0.9999999477637356
 41
0.0
 42
3.141592653589792
  0
ELLIPSE
  5
1C55
330
2
100
AcDbEntity
  8
OUTLINE
100
AcDbEllipse
 10
3459.147406076727
 20
-773.6778947248674
 30
0.0
 11
0.0000000000000002
 21
3.5
 31
0.0
210
0.0
220
0.0
230
1.0
 40
0.9999999477637356
 41
3.141592653589792
 42
6.283185307179584
  0
ELLIPSE
  5
1C56
330
2
100
AcDbEntity
  8
OUTLINE
100
AcDbEllipse
 10
3457.147406181199
 20
-923.6778947248675
 30
0.0
 11
0.0000000000000002
 21
3.5
 31
0.0
210
0.0
220
0.0
230
1.0
 40
0.9999999477637356
 41
0.0
 42
3.141592653589792
  0
ELLIPSE
  5
1C57
330
2
100
AcDbEntity
  8
OUTLINE
100
AcDbEllipse
 10
3459.147406076727
 20
-923.6778947248675
 30
0.0
 11
0.0000000000000002
 21
3.5
 31
0.0
210
0.0
220
0.0
230
1.0
 40
0.9999999477637356
 41
3.141592653589792
 42
6.283185307179584
  0
ELLIPSE
  5
1C58
330
2
100
AcDbEntity
  8
OUTLINE
100
AcDbEllipse
 10
3457.147406181199
 20
-1073.677894724867
 30
0.0
 11
0.0000000000000002
 21
3.5
 31
0.0
210
0.0
220
0.0
230
1.0
 40
0.9999999477637356
 41
0.0
 42
3.141592653589792
  0
ELLIPSE
  5
1C59
330
2
100
AcDbEntity
  8
OUTLINE
100
AcDbEllipse
 10
3459.147406076727
 20
-1073.677894724867
 30
0.0
 11
0.0000000000000002
 21
3.5
 31
0.0
210
0.0
220
0.0
230
1.0
 40
0.9999999477637356
 41
3.141592653589792
 42
6.283185307179584
  0
ELLIPSE
  5
1C5A
330
2
100
AcDbEntity
  8
OUTLINE
100
AcDbEllipse
 10
3459.147406076727
 20
-1223.677894724867
 30
0.0
 11
0.0000000000000002
 21
3.5
 31
0.0
210
0.0
220
0.0
230
1.0
 40
0.9999999477637356
 41
3.141592653589792
 42
6.283185307179584
  0
ELLIPSE
  5
1C5B
330
2
100
AcDbEntity
  8
OUTLINE
100
AcDbEllipse
 10
3457.147406181199
 20
-1223.677894724867
 30
0.0
 11
0.0000000000000002
 21
3.5
 31
0.0
210
0.0
220
0.0
230
1.0
 40
0.9999999477637356
 41
0.0
 42
3.141592653589792
  0
ELLIPSE
  5
1C5C
330
2
100
AcDbEntity
  8
OUTLINE
100
AcDbEllipse
 10
3459.147082854627
 20
-623.6778947248674
 30
0.0
 11
0.0000000000000002
 21
3.5
 31
0.0
210
0.0
220
0.0
230
1.0
 40
0.9999999477637356
 41
3.141592653589792
 42
6.283185307179584
  0
ELLIPSE
  5
1C5D
330
2
100
AcDbEntity
  8
OUTLINE
100
AcDbEllipse
 10
3459.147082854627
 20
-773.6778947248674
 30
0.0
 11
0.0000000000000002
 21
3.5
 31
0.0
210
0.0
220
0.0
230
1.0
 40
0.9999999477637356
 41
3.141592653589792
 42
6.283185307179584
  0
ELLIPSE
  5
1C5E
330
2
100
AcDbEntity
  8
OUTLINE
100
AcDbEllipse
 10
3459.147082854627
 20
-923.6778947248675
 30
0.0
 11
0.0000000000000002
 21
3.5
 31
0.0
210
0.0
220
0.0
230
1.0
 40
0.9999999477637356
 41
3.141592653589792
 42
6.283185307179584
  0
ELLIPSE
  5
1C5F
330
2
100
AcDbEntity
  8
OUTLINE
100
AcDbEllipse
 10
3459.147082854627
 20
-1073.677894724867
 30
0.0
 11
0.0000000000000002
 21
3.5
 31
0.0
210
0.0
220
0.0
230
1.0
 40
0.9999999477637356
 41
3.141592653589792
 42
6.283185307179584
  0
ELLIPSE
  5
1C60
330
2
100
AcDbEntity
  8
OUTLINE
100
AcDbEllipse
 10
3459.147082854627
 20
-1223.677894724867
 30
0.0
 11
0.0000000000000002
 21
3.5
 31
0.0
210
0.0
220
0.0
230
1.0
 40
0.9999999477637356
 41
3.141592653589792
 42
6.283185307179584
  0
ELLIPSE
  5
1C61
330
2
100
AcDbEntity
  8
OUTLINE
100
AcDbEllipse
 10
3427.506407767122
 20
-1262.89952183582
 30
0.0
 11
-1.999999687421939
 21
0.0011181735750877
 31
0.0
210
0.0
220
0.0
230
1.0
 40
0.865734785891375
 41
0.0006457945392884
 42
6.283831101718874
  0
ELLIPSE
  5
1C62
330
2
100
AcDbEntity
  8
OUTLINE
100
AcDbEllipse
 10
3427.506127942493
 20
-1263.400024785058
 30
0.0
 11
1.999999687421939
 21
-0.0011181735750877
 31
0.0
210
0.0
220
0.0
230
1.0
 40
0.865734785891375
 41
0.145039262564292
 42
2.996553391025493
  0
ELLIPSE
  5
1C63
330
2
100
AcDbEntity
  8
OUTLINE
100
AcDbEllipse
 10
3427.474538365146
 20
-1092.349760106332
 30
0.0
 11
-1.999999687421939
 21
0.0011181735750877
 31
0.0
210
0.0
220
0.0
230
1.0
 40
0.865734785891375
 41
0.0006457945392884
 42
6.283831101718874
  0
ELLIPSE
  5
1C64
330
2
100
AcDbEntity
  8
OUTLINE
100
AcDbEllipse
 10
3427.474258540517
 20
-1092.85026305557
 30
0.0
 11
1.999999687421939
 21
-0.0011181735750877
 31
0.0
210
0.0
220
0.0
230
1.0
 40
0.865734785891375
 41
0.1450392625643931
 42
2.99655339102541
  0
ELLIPSE
  5
1C65
330
2
100
AcDbEntity
  8
OUTLINE
100
AcDbEllipse
 10
3427.44266896317
 20
-921.7999983768487
 30
0.0
 11
-1.999999687421939
 21
0.0011181735750877
 31
0.0
210
0.0
220
0.0
230
1.0
 40
0.865734785891375
 41
0.0006457945392884
 42
6.283831101718874
  0
ELLIPSE
  5
1C66
330
2
100
AcDbEntity
  8
OUTLINE
100
AcDbEllipse
 10
3427.442389138542
 20
-922.300501326087
 30
0.0
 11
1.999999687421939
 21
-0.0011181735750877
 31
0.0
210
0.0
220
0.0
230
1.0
 40
0.865734785891375
 41
0.1450392625644154
 42
2.996553391025381
  0
ELLIPSE
  5
1C67
330
2
100
AcDbEntity
  8
OUTLINE
100
AcDbEllipse
 10
3427.410799561194
 20
-751.2502366473697
 30
0.0
 11
-1.999999687421939
 21
0.0011181735750877
 31
0.0
210
0.0
220
0.0
230
1.0
 40
0.865734785891375
 41
0.0006457945392884
 42
6.283831101718874
  0
ELLIPSE
  5
1C68
330
2
100
AcDbEntity
  8
OUTLINE
100
AcDbEllipse
 10
3427.410519736564
 20
-751.7507395966072
 30
0.0
 11
1.999999687421939
 21
-0.0011181735750877
 31
0.0
210
0.0
220
0.0
230
1.0
 40
0.865734785891375
 41
0.1450392625642099
 42
2.99655339102561
  0
ELLIPSE
  5
1C69
330
2
100
AcDbEntity
  8
OUTLINE
100
AcDbEllipse
 10
3427.378650334588
 20
-581.2009778671222
 30
0.0
 11
1.999999687421939
 21
-0.0011181735750877
 31
0.0
210
0.0
220
0.0
230
1.0
 40
0.865734785891375
 41
0.145039262564208
 42
2.996553391025596
  0
ELLIPSE
  5
1C6A
330
2
100
AcDbEntity
  8
OUTLINE
100
AcDbEllipse
 10
3427.378930159218
 20
-580.7004749178847
 30
0.0
 11
-1.999999687421939
 21
0.0011181735750877
 31
0.0
210
0.0
220
0.0
230
1.0
 40
0.865734785891375
 41
0.0006457945392884
 42
6.283831101718874
  0
LINE
  5
1C6B
330
2
100
AcDbEntity
  8
OUTLINE
100
AcDbLine
 10
3476.147405188711
 20
-610.6778947248669
 30
0.0
 11
3441.647406990862
 21
-572.677894724867
 31
0.0
  0
LINE
  5
1C6C
330
2
100
AcDbEntity
  8
OUTLINE
100
AcDbLine
 10
3441.647083768762
 20
-572.677894724867
 30
0.0
 11
3441.647406990862
 21
-572.677894724867
 31
0.0
  0
LINE
  5
1C6D
330
2
100
AcDbEntity
  8
OUTLINE
100
AcDbLine
 10
3459.147406076727
 20
-627.1778947248674
 30
0.0
 11
3457.147406181199
 21
-627.1778947248674
 31
0.0
  0
LINE
  5
1C6E
330
2
100
AcDbEntity
  8
OUTLINE
100
AcDbLine
 10
3457.147406181199
 20
-620.1778947248674
 30
0.0
 11
3459.147406076727
 21
-620.1778947248674
 31
0.0
  0
LINE
  5
1C6F
330
2
100
AcDbEntity
  8
OUTLINE
100
AcDbLine
 10
3459.147406076727
 20
-777.1778947248674
 30
0.0
 11
3457.147406181199
 21
-777.1778947248674
 31
0.0
  0
LINE
  5
1C70
330
2
100
AcDbEntity
  8
OUTLINE
100
AcDbLine
 10
3457.147406181199
 20
-770.1778947248674
 30
0.0
 11
3459.147406076727
 21
-770.1778947248674
 31
0.0
  0
LINE
  5
1C71
330
2
100
AcDbEntity
  8
OUTLINE
100
AcDbLine
 10
3459.147406076727
 20
-927.1778947248675
 30
0.0
 11
3457.147406181199
 21
-927.1778947248675
 31
0.0
  0
LINE
  5
1C72
330
2
100
AcDbEntity
  8
OUTLINE
100
AcDbLine
 10
3457.147406181199
 20
-920.1778947248675
 30
0.0
 11
3459.147406076727
 21
-920.1778947248675
 31
0.0
  0
LINE
  5
1C73
330
2
100
AcDbEntity
  8
OUTLINE
100
AcDbLine
 10
3459.147406076727
 20
-1077.177894724867
 30
0.0
 11
3457.147406181199
 21
-1077.177894724867
 31
0.0
  0
LINE
  5
1C74
330
2
100
AcDbEntity
  8
OUTLINE
100
AcDbLine
 10
3457.147406181199
 20
-1070.177894724867
 30
0.0
 11
3459.147406076727
 21
-1070.177894724867
 31
0.0
  0
LINE
  5
1C75
330
2
100
AcDbEntity
  8
OUTLINE
100
AcDbLine
 10
3441.647406990862
 20
-572.6778947248674
 30
0.0
 11
3441.647406990862
 21
-1274.677894724867
 31
0.0
  0
LINE
  5
1C76
330
2
100
AcDbEntity
  8
OUTLINE
100
AcDbLine
 10
3441.647406990862
 20
-1274.677894724867
 30
0.0
 11
3476.147405188711
 21
-1236.677894724867
 31
0.0
  0
LINE
  5
1C77
330
2
100
AcDbEntity
  8
OUTLINE
100
AcDbLine
 10
3476.147405188711
 20
-1236.677894724867
 30
0.0
 11
3476.147405188711
 21
-610.6778947248669
 31
0.0
  0
LINE
  5
1C78
330
2
100
AcDbEntity
  8
OUTLINE
100
AcDbLine
 10
3457.147406181199
 20
-1220.177894724867
 30
0.0
 11
3459.147406076727
 21
-1220.177894724867
 31
0.0
  0
LINE
  5
1C79
330
2
100
AcDbEntity
  8
OUTLINE
100
AcDbLine
 10
3459.147406076727
 20
-1227.177894724867
 30
0.0
 11
3457.147406181199
 21
-1227.177894724867
 31
0.0
  0
LINE
  5
1C7A
330
2
100
AcDbEntity
  8
OUTLINE
100
AcDbLine
 10
3441.647406990862
 20
-1274.677894724867
 30
0.0
 11
3441.647083768762
 21
-1274.677894724867
 31
0.0
  0
LINE
  5
1C7B
330
2
100
AcDbEntity
  8
OUTLINE
100
AcDbLine
 10
3441.647083768762
 20
-1274.677894724867
 30
0.0
 11
3413.647085231377
 21
-1274.677894724867
 31
0.0
  0
LINE
  5
1C7C
330
2
100
AcDbEntity
  8
OUTLINE
100
AcDbLine
 10
3413.647085231377
 20
-581.6778947248674
 30
0.0
 11
3413.647085231377
 21
-572.677894724867
 31
0.0
  0
LINE
  5
1C7D
330
2
100
AcDbEntity
  8
OUTLINE
100
AcDbLine
 10
3413.382473683908
 20
-581.6778947248669
 30
0.0
 11
3413.510287822905
 21
-1265.677894724867
 31
0.0
  0
LINE
  5
1C7E
330
2
100
AcDbEntity
  8
OUTLINE
100
AcDbLine
 10
3413.647085231377
 20
-1274.677894724867
 30
0.0
 11
3413.647085231377
 21
-1265.677894724867
 31
0.0
  0
LINE
  5
1C7F
330
2
100
AcDbEntity
  8
OUTLINE
100
AcDbLine
 10
3413.647085231377
 20
-1265.677894724867
 30
0.0
 11
3412.647085283614
 21
-1265.677894724867
 31
0.0
  0
LINE
  5
1C80
330
2
100
AcDbEntity
  8
OUTLINE
100
AcDbLine
 10
3412.647085283614
 20
-1275.677894724867
 30
0.0
 11
3412.647085283614
 21
-1265.677894724867
 31
0.0
  0
LINE
  5
1C81
330
2
100
AcDbEntity
  8
OUTLINE
100
AcDbLine
 10
3437.637710066542
 20
-1275.677894724867
 30
0.0
 11
3442.647083716526
 21
-1275.677894724867
 31
0.0
  0
LINE
  5
1C82
330
2
100
AcDbEntity
  8
OUTLINE
100
AcDbLine
 10
3442.647083716526
 20
-1275.677894724867
 30
0.0
 11
3442.647083716526
 21
-1273.576801462271
 31
0.0
  0
LINE
  5
1C83
330
2
100
AcDbEntity
  8
OUTLINE
100
AcDbLine
 10
3412.647085283614
 20
-581.6778947248674
 30
0.0
 11
3413.647085231377
 21
-581.6778947248674
 31
0.0
  0
LINE
  5
1C84
330
2
100
AcDbEntity
  8
OUTLINE
100
AcDbLine
 10
3412.382473736145
 20
-581.677894724867
 30
0.0
 11
3412.647085283614
 21
-581.677894724867
 31
0.0
  0
LINE
  5
1C85
330
2
100
AcDbEntity
  8
OUTLINE
100
AcDbLine
 10
3413.647085231377
 20
-572.677894724867
 30
0.0
 11
3441.647083768762
 21
-572.677894724867
 31
0.0
  0
LINE
  5
1C86
330
2
100
AcDbEntity
  8
OUTLINE
100
AcDbLine
 10
3442.647083716526
 20
-573.778987987464
 30
0.0
 11
3442.647083716526
 21
-571.6778947248674
 31
0.0
  0
LINE
  5
1C87
330
2
100
AcDbEntity
  8
OUTLINE
100
AcDbLine
 10
3436.602473109824
 20
-571.6778947248674
 30
0.0
 11
3442.647083716526
 21
-571.6778947248674
 31
0.0
  0
LINE
  5
1C88
330
2
100
AcDbEntity
  8
OUTLINE
100
AcDbLine
 10
3412.647085283614
 20
-571.6778947248674
 30
0.0
 11
3427.623327673956
 21
-571.6778947248674
 31
0.0
  0
LINE
  5
1C89
330
2
100
AcDbEntity
  8
OUTLINE
100
AcDbLine
 10
3412.647085283614
 20
-581.6778947248674
 30
0.0
 11
3412.647085283614
 21
-571.6778947248674
 31
0.0
  0
LINE
  5
1C8A
330
2
100
AcDbEntity
  8
OUTLINE
100
AcDbLine
 10
3441.377430306302
 20
-572.6778947248674
 30
0.0
 11
3441.508607975273
 21
-1274.677894724867
 31
0.0
  0
LINE
  5
1C8B
330
2
100
AcDbEntity
  8
OUTLINE
100
AcDbLine
 10
3412.647085283614
 20
-1265.677894724867
 30
0.0
 11
3412.510287875142
 21
-1265.677894724867
 31
0.0
  0
LINE
  5
1C8C
330
2
100
AcDbEntity
  8
OUTLINE
100
AcDbLine
 10
3412.510287875142
 20
-1265.677894724867
 30
0.0
 11
3412.382473736145
 21
-581.6778947248669
 31
0.0
  0
LINE
  5
1C8D
330
2
100
AcDbEntity
  8
OUTLINE
100
AcDbLine
 10
3412.647085283614
 20
-571.6778947248672
 30
0.0
 11
3412.647083719007
 21
-571.6778947248672
 31
0.0
  0
LINE
  5
1C8E
330
2
100
AcDbEntity
  8
OUTLINE
100
AcDbLine
 10
3412.376871608377
 20
-571.6778947248672
 30
0.0
 11
3412.5084230029
 21
-1275.677894724867
 31
0.0
  0
ELLIPSE
  5
1C8F
330
2
100
AcDbEntity
  8
OUTLINE
100
AcDbEllipse
 10
2283.14740926314
 20
-773.6778947248702
 30
0.0
 11
0.0000000000000002
 21
3.5
 31
0.0
210
0.0
220
0.0
230
1.0
 40
0.9999999477637356
 41
3.141592653589792
 42
6.283185307179584
  0
ELLIPSE
  5
1C90
330
2
100
AcDbEntity
  8
OUTLINE
100
AcDbEllipse
 10
2283.14708604104
 20
-773.6778947248702
 30
0.0
 11
0.0000000000000002
 21
3.5
 31
0.0
210
0.0
220
0.0
230
1.0
 40
0.9999999477637356
 41
3.141592653589792
 42
6.283185307179584
  0
ELLIPSE
  5
1C91
330
2
100
AcDbEntity
  8
OUTLINE
100
AcDbEllipse
 10
2281.147409367612
 20
-773.6778947248702
 30
0.0
 11
0.0000000000000002
 21
3.5
 31
0.0
210
0.0
220
0.0
230
1.0
 40
0.9999999477637356
 41
0.0
 42
3.141592653589792
  0
ELLIPSE
  5
1C92
330
2
100
AcDbEntity
  8
OUTLINE
100
AcDbEllipse
 10
2283.14740926314
 20
-1073.67789472487
 30
0.0
 11
0.0000000000000002
 21
3.5
 31
0.0
210
0.0
220
0.0
230
1.0
 40
0.9999999477637356
 41
3.141592653589792
 42
6.283185307179584
  0
ELLIPSE
  5
1C93
330
2
100
AcDbEntity
  8
OUTLINE
100
AcDbEllipse
 10
2283.14708604104
 20
-1073.67789472487
 30
0.0
 11
0.0000000000000002
 21
3.5
 31
0.0
210
0.0
220
0.0
230
1.0
 40
0.9999999477637356
 41
3.141592653589792
 42
6.283185307179584
  0
ELLIPSE
  5
1C94
330
2
100
AcDbEntity
  8
OUTLINE
100
AcDbEllipse
 10
2281.147409367612
 20
-1073.67789472487
 30
0.0
 11
0.0000000000000002
 21
3.5
 31
0.0
210
0.0
220
0.0
230
1.0
 40
0.9999999477637356
 41
0.0
 42
3.141592653589792
  0
ELLIPSE
  5
1C95
330
2
100
AcDbEntity
  8
OUTLINE
100
AcDbEllipse
 10
2283.14740926314
 20
-1223.67789472487
 30
0.0
 11
0.0000000000000002
 21
3.5
 31
0.0
210
0.0
220
0.0
230
1.0
 40
0.9999999477637356
 41
3.141592653589792
 42
6.283185307179584
  0
ELLIPSE
  5
1C96
330
2
100
AcDbEntity
  8
OUTLINE
100
AcDbEllipse
 10
2283.14708604104
 20
-1223.67789472487
 30
0.0
 11
0.0000000000000002
 21
3.5
 31
0.0
210
0.0
220
0.0
230
1.0
 40
0.9999999477637356
 41
3.141592653589792
 42
6.283185307179584
  0
ELLIPSE
  5
1C97
330
2
100
AcDbEntity
  8
OUTLINE
100
AcDbEllipse
 10
2281.147409367612
 20
-1223.67789472487
 30
0.0
 11
0.0000000000000002
 21
3.5
 31
0.0
210
0.0
220
0.0
230
1.0
 40
0.9999999477637356
 41
0.0
 42
3.141592653589792
  0
ELLIPSE
  5
1C98
330
2
100
AcDbEntity
  8
OUTLINE
100
AcDbEllipse
 10
2283.14740926314
 20
-923.6778947248703
 30
0.0
 11
0.0000000000000002
 21
3.5
 31
0.0
210
0.0
220
0.0
230
1.0
 40
0.9999999477637356
 41
3.141592653589792
 42
6.283185307179584
  0
ELLIPSE
  5
1C99
330
2
100
AcDbEntity
  8
OUTLINE
100
AcDbEllipse
 10
2283.14708604104
 20
-923.6778947248703
 30
0.0
 11
0.0000000000000002
 21
3.5
 31
0.0
210
0.0
220
0.0
230
1.0
 40
0.9999999477637356
 41
3.141592653589792
 42
6.283185307179584
  0
ELLIPSE
  5
1C9A
330
2
100
AcDbEntity
  8
OUTLINE
100
AcDbEllipse
 10
2281.147409367612
 20
-923.6778947248703
 30
0.0
 11
0.0000000000000002
 21
3.5
 31
0.0
210
0.0
220
0.0
230
1.0
 40
0.9999999477637356
 41
0.0
 42
3.141592653589792
  0
ELLIPSE
  5
1C9B
330
2
100
AcDbEntity
  8
OUTLINE
100
AcDbEllipse
 10
2283.14740926314
 20
-623.6778947248702
 30
0.0
 11
0.0000000000000002
 21
3.5
 31
0.0
210
0.0
220
0.0
230
1.0
 40
0.9999999477637356
 41
3.141592653589792
 42
6.283185307179584
  0
ELLIPSE
  5
1C9C
330
2
100
AcDbEntity
  8
OUTLINE
100
AcDbEllipse
 10
2283.14708604104
 20
-623.6778947248702
 30
0.0
 11
0.0000000000000002
 21
3.5
 31
0.0
210
0.0
220
0.0
230
1.0
 40
0.9999999477637356
 41
3.141592653589792
 42
6.283185307179584
  0
ELLIPSE
  5
1C9D
330
2
100
AcDbEntity
  8
OUTLINE
100
AcDbEllipse
 10
2281.147409367612
 20
-623.6778947248702
 30
0.0
 11
0.0000000000000002
 21
3.5
 31
0.0
210
0.0
220
0.0
230
1.0
 40
0.9999999477637356
 41
0.0
 42
3.141592653589792
  0
ELLIPSE
  5
1C9E
330
2
100
AcDbEntity
  8
OUTLINE
100
AcDbEllipse
 10
2312.506407767124
 20
-1262.899521835815
 30
0.0
 11
-1.999999687421939
 21
0.0011181735750877
 31
0.0
210
0.0
220
0.0
230
1.0
 40
0.8657347858913841
 41
0.0006457945392884
 42
6.283831101718874
  0
ELLIPSE
  5
1C9F
330
2
100
AcDbEntity
  8
OUTLINE
100
AcDbEllipse
 10
2312.506127942492
 20
-1263.400024785053
 30
0.0
 11
1.999999687421939
 21
-0.0011181735750879
 31
0.0
210
0.0
220
0.0
230
1.0
 40
0.8657347858913841
 41
0.1450392625642606
 42
2.996553391025516
  0
ELLIPSE
  5
1CA0
330
2
100
AcDbEntity
  8
OUTLINE
100
AcDbEllipse
 10
2312.474538365147
 20
-1092.349760106326
 30
0.0
 11
-1.999999687421939
 21
0.0011181735750877
 31
0.0
210
0.0
220
0.0
230
1.0
 40
0.8657347858913841
 41
0.0006457945392884
 42
6.283831101718874
  0
ELLIPSE
  5
1CA1
330
2
100
AcDbEntity
  8
OUTLINE
100
AcDbEllipse
 10
2312.474258540518
 20
-1092.850263055564
 30
0.0
 11
1.999999687421939
 21
-0.0011181735750879
 31
0.0
210
0.0
220
0.0
230
1.0
 40
0.8657347858913841
 41
0.1450392625643739
 42
2.996553391025459
  0
ELLIPSE
  5
1CA2
330
2
100
AcDbEntity
  8
OUTLINE
100
AcDbEllipse
 10
2312.442668963171
 20
-921.7999983768407
 30
0.0
 11
-1.999999687421939
 21
0.0011181735750877
 31
0.0
210
0.0
220
0.0
230
1.0
 40
0.8657347858913841
 41
0.0006457945392884
 42
6.283831101718874
  0
ELLIPSE
  5
1CA3
330
2
100
AcDbEntity
  8
OUTLINE
100
AcDbEllipse
 10
2312.442389138542
 20
-922.3005013260788
 30
0.0
 11
1.999999687421939
 21
-0.0011181735750879
 31
0.0
210
0.0
220
0.0
230
1.0
 40
0.8657347858913841
 41
0.1450392625643907
 42
2.996553391025435
  0
ELLIPSE
  5
1CA4
330
2
100
AcDbEntity
  8
OUTLINE
100
AcDbEllipse
 10
2312.410799561195
 20
-751.2502366473602
 30
0.0
 11
-1.999999687421939
 21
0.0011181735750877
 31
0.0
210
0.0
220
0.0
230
1.0
 40
0.8657347858913841
 41
0.0006457945392884
 42
6.283831101718874
  0
ELLIPSE
  5
1CA5
330
2
100
AcDbEntity
  8
OUTLINE
100
AcDbEllipse
 10
2312.410519736565
 20
-751.7507395965974
 30
0.0
 11
1.999999687421939
 21
-0.0011181735750879
 31
0.0
210
0.0
220
0.0
230
1.0
 40
0.8657347858913841
 41
0.1450392625642099
 42
2.996553391025623
  0
ELLIPSE
  5
1CA6
330
2
100
AcDbEntity
  8
OUTLINE
100
AcDbEllipse
 10
2312.378650334589
 20
-581.2009778671107
 30
0.0
 11
1.999999687421939
 21
-0.0011181735750879
 31
0.0
210
0.0
220
0.0
230
1.0
 40
0.8657347858913841
 41
0.1450392625642362
 42
2.996553391025571
  0
ELLIPSE
  5
1CA7
330
2
100
AcDbEntity
  8
OUTLINE
100
AcDbEllipse
 10
2312.378930159219
 20
-580.7004749178734
 30
0.0
 11
-1.999999687421939
 21
0.0011181735750877
 31
0.0
210
0.0
220
0.0
230
1.0
 40
0.8657347858913841
 41
0.0006457945392884
 42
6.283831101718874
  0
LINE
  5
1CA8
330
2
100
AcDbEntity
  8
OUTLINE
100
AcDbLine
 10
2281.147409367612
 20
-770.1778947248702
 30
0.0
 11
2283.14740926314
 21
-770.1778947248702
 31
0.0
  0
LINE
  5
1CA9
330
2
100
AcDbEntity
  8
OUTLINE
100
AcDbLine
 10
2283.14740926314
 20
-777.1778947248702
 30
0.0
 11
2281.147409367612
 21
-777.1778947248702
 31
0.0
  0
LINE
  5
1CAA
330
2
100
AcDbEntity
  8
OUTLINE
100
AcDbLine
 10
2281.147409367612
 20
-1070.17789472487
 30
0.0
 11
2283.14740926314
 21
-1070.17789472487
 31
0.0
  0
LINE
  5
1CAB
330
2
100
AcDbEntity
  8
OUTLINE
100
AcDbLine
 10
2283.14740926314
 20
-1077.17789472487
 30
0.0
 11
2281.147409367612
 21
-1077.17789472487
 31
0.0
  0
LINE
  5
1CAC
330
2
100
AcDbEntity
  8
OUTLINE
100
AcDbLine
 10
2281.147409367612
 20
-1220.17789472487
 30
0.0
 11
2283.14740926314
 21
-1220.17789472487
 31
0.0
  0
LINE
  5
1CAD
330
2
100
AcDbEntity
  8
OUTLINE
100
AcDbLine
 10
2283.14740926314
 20
-1227.17789472487
 30
0.0
 11
2281.147409367612
 21
-1227.17789472487
 31
0.0
  0
LINE
  5
1CAE
330
2
100
AcDbEntity
  8
OUTLINE
100
AcDbLine
 10
2281.147409367612
 20
-920.1778947248703
 30
0.0
 11
2283.14740926314
 21
-920.1778947248703
 31
0.0
  0
LINE
  5
1CAF
330
2
100
AcDbEntity
  8
OUTLINE
100
AcDbLine
 10
2283.14740926314
 20
-927.1778947248703
 30
0.0
 11
2281.147409367612
 21
-927.1778947248703
 31
0.0
  0
LINE
  5
1CB0
330
2
100
AcDbEntity
  8
OUTLINE
100
AcDbLine
 10
2281.147409367612
 20
-620.1778947248704
 30
0.0
 11
2283.14740926314
 21
-620.1778947248704
 31
0.0
  0
LINE
  5
1CB1
330
2
100
AcDbEntity
  8
OUTLINE
100
AcDbLine
 10
2283.14740926314
 20
-627.1778947248702
 30
0.0
 11
2281.147409367612
 21
-627.1778947248702
 31
0.0
  0
LINE
  5
1CB2
330
2
100
AcDbEntity
  8
OUTLINE
100
AcDbLine
 10
2298.647408453478
 20
-572.6778947248702
 30
0.0
 11
2264.147410255629
 21
-610.6778947248702
 31
0.0
  0
LINE
  5
1CB3
330
2
100
AcDbEntity
  8
OUTLINE
100
AcDbLine
 10
2298.647408453478
 20
-572.6778947248706
 30
0.0
 11
2298.64708523138
 21
-572.6778947248706
 31
0.0
  0
LINE
  5
1CB4
330
2
100
AcDbEntity
  8
OUTLINE
100
AcDbLine
 10
2298.647085231378
 20
-572.6778947248702
 30
0.0
 11
2297.647085283614
 21
-573.7793440002327
 31
0.0
  0
LINE
  5
1CB5
330
2
100
AcDbEntity
  8
OUTLINE
100
AcDbLine
 10
2264.14708703353
 20
-610.6778947248701
 30
0.0
 11
2297.647085283615
 21
-573.7793440002324
 31
0.0
  0
LINE
  5
1CB6
330
2
100
AcDbEntity
  8
OUTLINE
100
AcDbLine
 10
2264.147410255628
 20
-610.6778947248702
 30
0.0
 11
2264.14708703353
 21
-610.6778947248702
 31
0.0
  0
LINE
  5
1CB7
330
2
100
AcDbEntity
  8
OUTLINE
100
AcDbLine
 10
2264.147410255628
 20
-610.6778947248702
 30
0.0
 11
2264.147410255628
 21
-1236.67789472487
 31
0.0
  0
LINE
  5
1CB8
330
2
100
AcDbEntity
  8
OUTLINE
100
AcDbLine
 10
2264.147410255628
 20
-1236.67789472487
 30
0.0
 11
2298.647408453478
 21
-1274.67789472487
 31
0.0
  0
LINE
  5
1CB9
330
2
100
AcDbEntity
  8
OUTLINE
100
AcDbLine
 10
2298.647408453478
 20
-1274.67789472487
 30
0.0
 11
2298.647408453478
 21
-572.6778947248702
 31
0.0
  0
LINE
  5
1CBA
330
2
100
AcDbEntity
  8
OUTLINE
100
AcDbLine
 10
2264.14708703353
 20
-1236.67789472487
 30
0.0
 11
2264.14708703353
 21
-610.6778947248702
 31
0.0
  0
LINE
  5
1CBB
330
2
100
AcDbEntity
  8
OUTLINE
100
AcDbLine
 10
2264.14708703353
 20
-1236.67789472487
 30
0.0
 11
2264.147410255629
 21
-1236.67789472487
 31
0.0
  0
LINE
  5
1CBC
330
2
100
AcDbEntity
  8
OUTLINE
100
AcDbLine
 10
2297.647085283615
 20
-1273.576445449508
 30
0.0
 11
2264.14708703353
 21
-1236.67789472487
 31
0.0
  0
LINE
  5
1CBD
330
2
100
AcDbEntity
  8
OUTLINE
100
AcDbLine
 10
2297.647085283615
 20
-1273.576445449508
 30
0.0
 11
2298.647085231378
 21
-1274.67789472487
 31
0.0
  0
LINE
  5
1CBE
330
2
100
AcDbEntity
  8
OUTLINE
100
AcDbLine
 10
2298.647085231378
 20
-1274.67789472487
 30
0.0
 11
2298.647408453478
 21
-1274.67789472487
 31
0.0
  0
LINE
  5
1CBF
330
2
100
AcDbEntity
  8
OUTLINE
100
AcDbLine
 10
2326.647083768763
 20
-1265.67789472487
 30
0.0
 11
2326.51028636029
 21
-1265.677894724863
 31
0.0
  0
LINE
  5
1CC0
330
2
100
AcDbEntity
  8
OUTLINE
100
AcDbLine
 10
2327.647083716525
 20
-1265.67789472487
 30
0.0
 11
2326.647083768762
 21
-1265.67789472487
 31
0.0
  0
LINE
  5
1CC1
330
2
100
AcDbEntity
  8
OUTLINE
100
AcDbLine
 10
2298.647408453478
 20
-572.6778947248706
 30
0.0
 11
2326.647083768763
 21
-572.6778947248706
 31
0.0
  0
LINE
  5
1CC2
330
2
100
AcDbEntity
  8
OUTLINE
100
AcDbLine
 10
2326.647083768763
 20
-572.6778947248706
 30
0.0
 11
2326.647083768763
 21
-581.6778947248705
 31
0.0
  0
LINE
  5
1CC3
330
2
100
AcDbEntity
  8
OUTLINE
100
AcDbLine
 10
2326.647083768763
 20
-581.6778947248705
 30
0.0
 11
2327.647083716527
 21
-581.6778947248705
 31
0.0
  0
LINE
  5
1CC4
330
2
100
AcDbEntity
  8
OUTLINE
100
AcDbLine
 10
2327.647083716525
 20
-581.6778947248706
 30
0.0
 11
2327.647083716525
 21
-571.6778947248704
 31
0.0
  0
LINE
  5
1CC5
330
2
100
AcDbEntity
  8
OUTLINE
100
AcDbLine
 10
2297.647085283615
 20
-571.6778947248704
 30
0.0
 11
2312.623327674557
 21
-571.6778947248704
 31
0.0
  0
LINE
  5
1CC6
330
2
100
AcDbEntity
  8
OUTLINE
100
AcDbLine
 10
2297.647085283615
 20
-573.7793440002326
 30
0.0
 11
2297.647085283615
 21
-571.6778947248704
 31
0.0
  0
LINE
  5
1CC7
330
2
100
AcDbEntity
  8
OUTLINE
100
AcDbLine
 10
2326.51028636029
 20
-1265.677894724863
 30
0.0
 11
2326.382472221294
 21
-581.6778947248555
 31
0.0
  0
LINE
  5
1CC8
330
2
100
AcDbEntity
  8
OUTLINE
100
AcDbLine
 10
2327.382472169058
 20
-581.6778947248556
 30
0.0
 11
2327.510286308055
 21
-1265.677894724863
 31
0.0
  0
LINE
  5
1CC9
330
2
100
AcDbEntity
  8
OUTLINE
100
AcDbLine
 10
2326.647083768763
 20
-581.6778947248705
 30
0.0
 11
2326.382472221294
 21
-581.6778947248557
 31
0.0
  0
LINE
  5
1CCA
330
2
100
AcDbEntity
  8
OUTLINE
100
AcDbLine
 10
2326.647083768763
 20
-1274.67789472487
 30
0.0
 11
2298.647408453478
 21
-1274.67789472487
 31
0.0
  0
LINE
  5
1CCB
330
2
100
AcDbEntity
  8
OUTLINE
100
AcDbLine
 10
2297.647085283615
 20
-1275.67789472487
 30
0.0
 11
2297.647085283615
 21
-1273.576445449508
 31
0.0
  0
LINE
  5
1CCC
330
2
100
AcDbEntity
  8
OUTLINE
100
AcDbLine
 10
2297.647085283615
 20
-1275.67789472487
 30
0.0
 11
2302.637712051518
 21
-1275.67789472487
 31
0.0
  0
LINE
  5
1CCD
330
2
100
AcDbEntity
  8
OUTLINE
100
AcDbLine
 10
2327.647083716525
 20
-1275.67789472487
 30
0.0
 11
2327.647083716525
 21
-1265.67789472487
 31
0.0
  0
LINE
  5
1CCE
330
2
100
AcDbEntity
  8
OUTLINE
100
AcDbLine
 10
2326.647083768763
 20
-1265.67789472487
 30
0.0
 11
2326.647083768763
 21
-1274.67789472487
 31
0.0
  0
LINE
  5
1CCF
330
2
100
AcDbEntity
  8
OUTLINE
100
AcDbLine
 10
2326.377430306304
 20
-572.6778947248552
 30
0.0
 11
2326.508607975274
 21
-1274.677894724862
 31
0.0
  0
LINE
  5
1CD0
330
2
100
AcDbEntity
  8
OUTLINE
100
AcDbLine
 10
2297.647085283615
 20
-571.6778947248704
 30
0.0
 11
2297.37687160838
 21
-571.6778947248553
 31
0.0
  0
LINE
  5
1CD1
330
2
100
AcDbEntity
  8
OUTLINE
100
AcDbLine
 10
2297.508001694088
 20
-1273.423251922606
 30
0.0
 11
2297.508423002901
 21
-1275.677894724863
 31
0.0
  0
LINE
  5
1CD2
330
2
100
AcDbEntity
  8
OUTLINE
100
AcDbLine
 10
2297.37687160838
 20
-571.6778947248553
 30
0.0
 11
2297.377319814121
 21
-574.0764769966452
 31
0.0
  0
LINE
  5
1CD3
330
2
100
AcDbEntity
  8
OUTLINE
100
AcDbLine
 10
2297.508423002901
 20
-1275.677894724863
 30
0.0
 11
2297.647085283614
 21
-1275.67789472487
 31
0.0
  0
LINE
  5
1CD4
330
2
100
AcDbEntity
  8
NOTE
100
AcDbLine
 10
3457.647406128963
 20
-623.6778947248676
 30
0.0
 11
3458.647406128964
 21
-623.6778947248676
 31
0.0
  0
LINE
  5
1CD5
330
2
100
AcDbEntity
  8
NOTE
100
AcDbLine
 10
3458.147406128964
 20
-624.1778947248676
 30
0.0
 11
3458.147406128964
 21
-623.1778947248677
 31
0.0
  0
LINE
  5
1CD6
330
2
100
AcDbEntity
  8
NOTE
100
AcDbLine
 10
3444.647406128964
 20
-623.6778947248676
 30
0.0
 11
3456.647406128964
 21
-623.6778947248676
 31
0.0
  0
LINE
  5
1CD7
330
2
100
AcDbEntity
  8
NOTE
100
AcDbLine
 10
3459.647406128964
 20
-623.6778947248676
 30
0.0
 11
3471.647406128963
 21
-623.6778947248676
 31
0.0
  0
LINE
  5
1CD8
330
2
100
AcDbEntity
  8
NOTE
100
AcDbLine
 10
3458.147406128964
 20
-637.1778947248676
 30
0.0
 11
3458.147406128964
 21
-625.1778947248676
 31
0.0
  0
LINE
  5
1CD9
330
2
100
AcDbEntity
  8
NOTE
100
AcDbLine
 10
3458.147406128964
 20
-622.1778947248676
 30
0.0
 11
3458.147406128964
 21
-610.1778947248676
 31
0.0
  0
LINE
  5
1CDA
330
2
100
AcDbEntity
  8
NOTE
100
AcDbLine
 10
3457.647082906863
 20
-773.6778947248675
 30
0.0
 11
3458.647082906863
 21
-773.6778947248675
 31
0.0
  0
LINE
  5
1CDB
330
2
100
AcDbEntity
  8
NOTE
100
AcDbLine
 10
3458.147082906863
 20
-774.1778947248675
 30
0.0
 11
3458.147082906863
 21
-773.1778947248677
 31
0.0
  0
LINE
  5
1CDC
330
2
100
AcDbEntity
  8
NOTE
100
AcDbLine
 10
3444.647082906862
 20
-773.6778947248675
 30
0.0
 11
3456.647082906863
 21
-773.6778947248675
 31
0.0
  0
LINE
  5
1CDD
330
2
100
AcDbEntity
  8
NOTE
100
AcDbLine
 10
3459.647082906863
 20
-773.6778947248675
 30
0.0
 11
3471.647082906863
 21
-773.6778947248675
 31
0.0
  0
LINE
  5
1CDE
330
2
100
AcDbEntity
  8
NOTE
100
AcDbLine
 10
3458.147082906863
 20
-787.1778947248675
 30
0.0
 11
3458.147082906863
 21
-775.1778947248675
 31
0.0
  0
LINE
  5
1CDF
330
2
100
AcDbEntity
  8
NOTE
100
AcDbLine
 10
3458.147082906863
 20
-772.1778947248675
 30
0.0
 11
3458.147082906863
 21
-760.1778947248675
 31
0.0
  0
LINE
  5
1CE0
330
2
100
AcDbEntity
  8
NOTE
100
AcDbLine
 10
3457.647406128963
 20
-923.6778947248675
 30
0.0
 11
3458.647406128964
 21
-923.6778947248675
 31
0.0
  0
LINE
  5
1CE1
330
2
100
AcDbEntity
  8
NOTE
100
AcDbLine
 10
3458.147406128964
 20
-924.1778947248675
 30
0.0
 11
3458.147406128964
 21
-923.1778947248676
 31
0.0
  0
LINE
  5
1CE2
330
2
100
AcDbEntity
  8
NOTE
100
AcDbLine
 10
3444.647406128964
 20
-923.6778947248675
 30
0.0
 11
3456.647406128964
 21
-923.6778947248675
 31
0.0
  0
LINE
  5
1CE3
330
2
100
AcDbEntity
  8
NOTE
100
AcDbLine
 10
3459.647406128964
 20
-923.6778947248675
 30
0.0
 11
3471.647406128963
 21
-923.6778947248675
 31
0.0
  0
LINE
  5
1CE4
330
2
100
AcDbEntity
  8
NOTE
100
AcDbLine
 10
3458.147406128964
 20
-937.1778947248674
 30
0.0
 11
3458.147406128964
 21
-925.1778947248675
 31
0.0
  0
LINE
  5
1CE5
330
2
100
AcDbEntity
  8
NOTE
100
AcDbLine
 10
3458.147406128964
 20
-922.1778947248676
 30
0.0
 11
3458.147406128964
 21
-910.1778947248675
 31
0.0
  0
LINE
  5
1CE6
330
2
100
AcDbEntity
  8
NOTE
100
AcDbLine
 10
3457.647082906863
 20
-1073.677894724867
 30
0.0
 11
3458.647082906863
 21
-1073.677894724867
 31
0.0
  0
LINE
  5
1CE7
330
2
100
AcDbEntity
  8
NOTE
100
AcDbLine
 10
3458.147082906863
 20
-1074.177894724867
 30
0.0
 11
3458.147082906863
 21
-1073.177894724867
 31
0.0
  0
LINE
  5
1CE8
330
2
100
AcDbEntity
  8
NOTE
100
AcDbLine
 10
3444.647082906862
 20
-1073.677894724867
 30
0.0
 11
3456.647082906863
 21
-1073.677894724867
 31
0.0
  0
LINE
  5
1CE9
330
2
100
AcDbEntity
  8
NOTE
100
AcDbLine
 10
3459.647082906863
 20
-1073.677894724867
 30
0.0
 11
3471.647082906863
 21
-1073.677894724867
 31
0.0
  0
LINE
  5
1CEA
330
2
100
AcDbEntity
  8
NOTE
100
AcDbLine
 10
3458.147082906863
 20
-1087.177894724868
 30
0.0
 11
3458.147082906863
 21
-1075.177894724868
 31
0.0
  0
LINE
  5
1CEB
330
2
100
AcDbEntity
  8
NOTE
100
AcDbLine
 10
3458.147082906863
 20
-1072.177894724867
 30
0.0
 11
3458.147082906863
 21
-1060.177894724867
 31
0.0
  0
LINE
  5
1CEC
330
2
100
AcDbEntity
  8
NOTE
100
AcDbLine
 10
3457.647082906863
 20
-1223.677894724868
 30
0.0
 11
3458.647082906863
 21
-1223.677894724868
 31
0.0
  0
LINE
  5
1CED
330
2
100
AcDbEntity
  8
NOTE
100
AcDbLine
 10
3458.147082906863
 20
-1224.177894724867
 30
0.0
 11
3458.147082906863
 21
-1223.177894724867
 31
0.0
  0
LINE
  5
1CEE
330
2
100
AcDbEntity
  8
NOTE
100
AcDbLine
 10
3444.647082906862
 20
-1223.677894724868
 30
0.0
 11
3456.647082906863
 21
-1223.677894724868
 31
0.0
  0
LINE
  5
1CEF
330
2
100
AcDbEntity
  8
NOTE
100
AcDbLine
 10
3459.647082906863
 20
-1223.677894724868
 30
0.0
 11
3471.647082906863
 21
-1223.677894724868
 31
0.0
  0
LINE
  5
1CF0
330
2
100
AcDbEntity
  8
NOTE
100
AcDbLine
 10
3458.147082906863
 20
-1237.177894724867
 30
0.0
 11
3458.147082906863
 21
-1225.177894724868
 31
0.0
  0
LINE
  5
1CF1
330
2
100
AcDbEntity
  8
NOTE
100
AcDbLine
 10
3458.147082906863
 20
-1222.177894724868
 30
0.0
 11
3458.147082906863
 21
-1210.177894724868
 31
0.0
  0
LINE
  5
1CF2
330
2
100
AcDbEntity
  8
NOTE
100
AcDbLine
 10
2281.647409315376
 20
-1223.67789472487
 30
0.0
 11
2282.647409315376
 21
-1223.67789472487
 31
0.0
  0
LINE
  5
1CF3
330
2
100
AcDbEntity
  8
NOTE
100
AcDbLine
 10
2282.147409315376
 20
-1224.17789472487
 30
0.0
 11
2282.147409315376
 21
-1223.17789472487
 31
0.0
  0
LINE
  5
1CF4
330
2
100
AcDbEntity
  8
NOTE
100
AcDbLine
 10
2268.647409315375
 20
-1223.67789472487
 30
0.0
 11
2280.647409315376
 21
-1223.67789472487
 31
0.0
  0
LINE
  5
1CF5
330
2
100
AcDbEntity
  8
NOTE
100
AcDbLine
 10
2283.647409315376
 20
-1223.67789472487
 30
0.0
 11
2295.647409315376
 21
-1223.67789472487
 31
0.0
  0
LINE
  5
1CF6
330
2
100
AcDbEntity
  8
NOTE
100
AcDbLine
 10
2282.147409315376
 20
-1237.17789472487
 30
0.0
 11
2282.147409315376
 21
-1225.17789472487
 31
0.0
  0
LINE
  5
1CF7
330
2
100
AcDbEntity
  8
NOTE
100
AcDbLine
 10
2282.147409315376
 20
-1222.17789472487
 30
0.0
 11
2282.147409315376
 21
-1210.17789472487
 31
0.0
  0
LINE
  5
1CF8
330
2
100
AcDbEntity
  8
NOTE
100
AcDbLine
 10
2281.647409315376
 20
-1073.67789472487
 30
0.0
 11
2282.647409315376
 21
-1073.67789472487
 31
0.0
  0
LINE
  5
1CF9
330
2
100
AcDbEntity
  8
NOTE
100
AcDbLine
 10
2282.147409315376
 20
-1074.17789472487
 30
0.0
 11
2282.147409315376
 21
-1073.17789472487
 31
0.0
  0
LINE
  5
1CFA
330
2
100
AcDbEntity
  8
NOTE
100
AcDbLine
 10
2268.647409315375
 20
-1073.67789472487
 30
0.0
 11
2280.647409315376
 21
-1073.67789472487
 31
0.0
  0
LINE
  5
1CFB
330
2
100
AcDbEntity
  8
NOTE
100
AcDbLine
 10
2283.647409315376
 20
-1073.67789472487
 30
0.0
 11
2295.647409315376
 21
-1073.67789472487
 31
0.0
  0
LINE
  5
1CFC
330
2
100
AcDbEntity
  8
NOTE
100
AcDbLine
 10
2282.147409315376
 20
-1087.17789472487
 30
0.0
 11
2282.147409315376
 21
-1075.17789472487
 31
0.0
  0
LINE
  5
1CFD
330
2
100
AcDbEntity
  8
NOTE
100
AcDbLine
 10
2282.147409315376
 20
-1072.17789472487
 30
0.0
 11
2282.147409315376
 21
-1060.17789472487
 31
0.0
  0
LINE
  5
1CFE
330
2
100
AcDbEntity
  8
NOTE
100
AcDbLine
 10
2281.647409315376
 20
-923.6778947248703
 30
0.0
 11
2282.647409315376
 21
-923.6778947248703
 31
0.0
  0
LINE
  5
1CFF
330
2
100
AcDbEntity
  8
NOTE
100
AcDbLine
 10
2282.147409315376
 20
-924.1778947248702
 30
0.0
 11
2282.147409315376
 21
-923.1778947248702
 31
0.0
  0
LINE
  5
1D00
330
2
100
AcDbEntity
  8
NOTE
100
AcDbLine
 10
2268.647409315375
 20
-923.6778947248703
 30
0.0
 11
2280.647409315376
 21
-923.6778947248703
 31
0.0
  0
LINE
  5
1D01
330
2
100
AcDbEntity
  8
NOTE
100
AcDbLine
 10
2283.647409315376
 20
-923.6778947248703
 30
0.0
 11
2295.647409315376
 21
-923.6778947248703
 31
0.0
  0
LINE
  5
1D02
330
2
100
AcDbEntity
  8
NOTE
100
AcDbLine
 10
2282.147409315376
 20
-937.1778947248703
 30
0.0
 11
2282.147409315376
 21
-925.1778947248702
 31
0.0
  0
LINE
  5
1D03
330
2
100
AcDbEntity
  8
NOTE
100
AcDbLine
 10
2282.147409315376
 20
-922.1778947248703
 30
0.0
 11
2282.147409315376
 21
-910.1778947248702
 31
0.0
  0
LINE
  5
1D04
330
2
100
AcDbEntity
  8
NOTE
100
AcDbLine
 10
2281.647409315376
 20
-773.6778947248702
 30
0.0
 11
2282.647409315376
 21
-773.6778947248702
 31
0.0
  0
LINE
  5
1D05
330
2
100
AcDbEntity
  8
NOTE
100
AcDbLine
 10
2282.147409315376
 20
-774.1778947248702
 30
0.0
 11
2282.147409315376
 21
-773.1778947248702
 31
0.0
  0
LINE
  5
1D06
330
2
100
AcDbEntity
  8
NOTE
100
AcDbLine
 10
2268.647409315375
 20
-773.6778947248702
 30
0.0
 11
2280.647409315376
 21
-773.6778947248702
 31
0.0
  0
LINE
  5
1D07
330
2
100
AcDbEntity
  8
NOTE
100
AcDbLine
 10
2283.647409315376
 20
-773.6778947248702
 30
0.0
 11
2295.647409315376
 21
-773.6778947248702
 31
0.0
  0
LINE
  5
1D08
330
2
100
AcDbEntity
  8
NOTE
100
AcDbLine
 10
2282.147409315376
 20
-787.1778947248702
 30
0.0
 11
2282.147409315376
 21
-775.1778947248703
 31
0.0
  0
LINE
  5
1D09
330
2
100
AcDbEntity
  8
NOTE
100
AcDbLine
 10
2282.147409315376
 20
-772.1778947248703
 30
0.0
 11
2282.147409315376
 21
-760.1778947248702
 31
0.0
  0
LINE
  5
1D0A
330
2
100
AcDbEntity
  8
NOTE
100
AcDbLine
 10
2281.647409315376
 20
-623.6778947248702
 30
0.0
 11
2282.647409315376
 21
-623.6778947248702
 31
0.0
  0
LINE
  5
1D0B
330
2
100
AcDbEntity
  8
NOTE
100
AcDbLine
 10
2282.147409315376
 20
-624.1778947248704
 30
0.0
 11
2282.147409315376
 21
-623.1778947248702
 31
0.0
  0
LINE
  5
1D0C
330
2
100
AcDbEntity
  8
NOTE
100
AcDbLine
 10
2268.647409315375
 20
-623.6778947248702
 30
0.0
 11
2280.647409315376
 21
-623.6778947248702
 31
0.0
  0
LINE
  5
1D0D
330
2
100
AcDbEntity
  8
NOTE
100
AcDbLine
 10
2283.647409315376
 20
-623.6778947248702
 30
0.0
 11
2295.647409315376
 21
-623.6778947248702
 31
0.0
  0
LINE
  5
1D0E
330
2
100
AcDbEntity
  8
NOTE
100
AcDbLine
 10
2282.147409315376
 20
-637.1778947248704
 30
0.0
 11
2282.147409315376
 21
-625.1778947248704
 31
0.0
  0
LINE
  5
1D0F
330
2
100
AcDbEntity
  8
NOTE
100
AcDbLine
 10
2282.147409315376
 20
-622.1778947248703
 30
0.0
 11
2282.147409315376
 21
-610.1778947248702
 31
0.0
  0
LINE
  5
1D1A
330
2
100
AcDbEntity
  8
BASIS
  6
DASHDOT
 62
     6
100
AcDbLine
 10
2870.134478838185
 20
-1336.054756418973
 30
0.0
 11
2870.134478838185
 21
-519.5010782744096
 31
0.0
  0
LINE
  5
1D1B
330
2
100
AcDbEntity
  8
ARRANGE
  6
Continuous
 62
     1
100
AcDbLine
 10
2853.450361273781
 20
-940.3620122892728
 30
0.0
 11
2886.818596402589
 21
-906.9937771604656
 31
0.0
  0
LINE
  5
1D1C
330
2
100
AcDbEntity
  8
ARRANGE
  6
Continuous
 62
     1
100
AcDbLine
 10
2853.450361273781
 20
-906.9937771604656
 30
0.0
 11
2886.818596402589
 21
-940.3620122892728
 31
0.0
  0
LINE
  5
1D1D
330
2
100
AcDbEntity
  8
BASIS
100
AcDbLine
 10
2234.081567278233
 20
-923.6778947248692
 30
0.0
 11
3497.530585343162
 21
-923.6778947248692
 31
0.0
  0
CIRCLE
  5
1D1E
330
2
100
AcDbEntity
  8
ARRANGE
100
AcDbCircle
 10
2870.117453751113
 20
-923.6778947248692
 30
0.0
 40
15.0
  0
DIMENSION
  5
1D1F
330
2
100
AcDbEntity
  8
SIZE
100
AcDbDimension
  2
*D17
 10
3458.147406128964
 20
-508.2307361433411
 30
0.0
 11
2870.14740772217
 21
-488.2307361433411
 31
0.0
 70
    32
 71
     5
 42
1175.999996813587
  3
STANDARD
100
AcDbAlignedDimension
 13
2282.147409315376
 23
-610.1778947248702
 33
0.0
 14
3458.147406128964
 24
-610.1778947248702
 34
0.0
100
AcDbRotatedDimension
1001
ACAD
1000
DSTYLE
1002
{
1070
    40
1040
10.0
1070
    45
1040
0.5
1070
    50
1040
0.7853981633974483
1070
    90
1070
     1
1070
   271
1070
     1
1070
   272
1070
     1
1002
}
  0
DIMENSION
  5
1D2C
330
2
100
AcDbEntity
  8
SIZE
100
AcDbDimension
  2
*D18
 10
3476.147405188711
 20
-461.5479295910327
 30
0.0
 11
2870.14740772217
 21
-441.5479295910328
 31
0.0
 70
    32
 71
     5
 42
1211.999994933081
  3
STANDARD
100
AcDbAlignedDimension
 13
2264.147410255628
 23
-610.6778947248702
 33
0.0
 14
3476.147405188711
 24
-610.6778947248702
 34
0.0
100
AcDbRotatedDimension
1001
ACAD
1000
DSTYLE
1002
{
1070
    40
1040
10.0
1070
    45
1040
0.5
1070
    50
1040
0.7853981633974483
1070
    90
1070
     1
1070
   271
1070
     1
1070
   272
1070
     1
1002
}
  0
DIMENSION
  5
1D39
330
2
100
AcDbEntity
  8
SIZE
100
AcDbDimension
  2
*D19
 10
2214.522281377346
 20
-773.6778947248702
 30
0.0
 11
2194.522281377346
 21
-698.67789472487
 31
0.0
 70
    32
 71
     5
 42
150.0
  3
STANDARD
100
AcDbAlignedDimension
 13
2268.647409315375
 23
-623.6778947248702
 33
0.0
 14
2268.647409315375
 24
-773.6778947248702
 34
0.0
 50
90.0
100
AcDbRotatedDimension
1001
ACAD
1000
DSTYLE
1002
{
1070
    40
1040
10.0
1070
    45
1040
0.5
1070
    50
1040
0.7853981633974483
1070
    90
1070
     1
1070
   271
1070
     1
1070
   272
1070
     1
1002
}
  0
DIMENSION
  5
1D46
330
2
100
AcDbEntity
  8
SIZE
100
AcDbDimension
  2
*D20
 10
2214.522281377346
 20
-923.6778947248692
 30
0.0
 11
2194.522281377346
 21
-848.6778947248696
 31
0.0
 70
    32
 71
     5
 42
149.999999999999
  3
STANDARD
100
AcDbAlignedDimension
 13
2268.647409315375
 23
-773.6778947248702
 33
0.0
 14
2234.081567278233
 24
-923.6778947248692
 34
0.0
 50
90.0
100
AcDbRotatedDimension
1001
ACAD
1000
DSTYLE
1002
{
1070
   279
1070
     1
1070
    40
1040
10.0
1070
    45
1040
0.5
1070
    50
1040
0.7853981633974483
1070
    90
1070
     1
1070
   271
1070
     1
1070
   272
1070
     1
1002
}
  0
DIMENSION
  5
1D53
330
2
100
AcDbEntity
  8
SIZE
100
AcDbDimension
  2
*D21
 10
2214.522281377346
 20
-1073.67789472487
 30
0.0
 11
2194.522281377346
 21
-998.6778947248696
 31
0.0
 70
    32
 71
     5
 42
150.000000000001
  3
STANDARD
100
AcDbAlignedDimension
 13
2234.081567278233
 23
-923.6778947248692
 33
0.0
 14
2268.647409315375
 24
-1073.67789472487
 34
0.0
 50
90.0
100
AcDbRotatedDimension
1001
ACAD
1000
DSTYLE
1002
{
1070
   279
1070
     1
1070
    40
1040
10.0
1070
    45
1040
0.5
1070
    50
1040
0.7853981633974483
1070
    90
1070
     1
1070
   271
1070
     1
1070
   272
1070
     1
1002
}
  0
DIMENSION
  5
1D60
330
2
100
AcDbEntity
  8
SIZE
100
AcDbDimension
  2
*D22
 10
2214.522281377346
 20
-1223.67789472487
 30
0.0
 11
2194.522281377346
 21
-1148.67789472487
 31
0.0
 70
    32
 71
     5
 42
150.0
  3
STANDARD
100
AcDbAlignedDimension
 13
2268.647409315375
 23
-1073.67789472487
 33
0.0
 14
2268.647409315375
 24
-1223.67789472487
 34
0.0
 50
90.0
100
AcDbRotatedDimension
1001
ACAD
1000
DSTYLE
1002
{
1070
   279
1070
     1
1070
    40
1040
10.0
1070
    45
1040
0.5
1070
    50
1040
0.7853981633974483
1070
    90
1070
     1
1070
   271
1070
     1
1070
   272
1070
     1
1002
}
  0
DIMENSION
  5
1D6D
330
2
100
AcDbEntity
  8
SIZE
100
AcDbDimension
  2
*D23
 10
2163.268658424486
 20
-556.6778947248674
 30
0.0
 11
2143.268658424487
 21
-923.6778947248707
 31
0.0
 70
    32
 71
     5
 42
734.0000000000067
  3
STANDARD
100
AcDbAlignedDimension
 13
2327.634478838185
 23
-1290.677894724874
 33
0.0
 14
2327.599570851432
 24
-556.6778947248677
 34
0.0
 50
90.0
100
AcDbRotatedDimension
1001
ACAD
1000
DSTYLE
1002
{
1070
    40
1040
10.0
1070
    45
1040
0.5
1070
    50
1040
0.7853981633974483
1070
    90
1070
     1
1070
   271
1070
     1
1070
   272
1070
     1
1002
}
  0
MULTILEADER
  5
1D7A
330
2
100
AcDbEntity
  8
NOTE
 92
     1148
310
7C0400001C0000000C00000010000000050000000C00000016000000000000C00C00000013000000112700003C00000006000000020000006CF734BF3146A1405E0194B4AC307FC000000000000000004D72496D7945A1405E0194B4AC307FC000000000000000000C0000001300000001000000880000001D0000004DCA44
310
86FC722340D13AA738047A314000000000000000004ACE9AB027CEA140D13AA738047A31C04DCA4486FC7223400000000000000000642CE8AEB56983C00000000000000000000000000000000000000000000034400000000000000000000000000000000000000000000000000000000000000000000000000000F03F0C00
310
000016000000040000C30C00000017000000FDFFFFFF540000002000000002000000000000000000F0BF498A025C1426D13F000000000000000000000000000000000000000000000000000000000000000000000000000000000000000000000000000000000000F03F0C00000016000000040000C30C00000017000000FD
310
FFFFFF540000002000000002000000000000000000000000000000000000000000000000000000000000000000F0BF498A025C1426D1BF000000000000000000000000000000000000000000000000000000000000F03F0C00000016000000040000C30C00000017000000FDFFFFFF54000000200000000200000000000000
310
0000000000000000000000000000000000000000000000000000F0BF0000000000000000000000000000000000000000000000000000000000000000000000000000F03F080000001F0000000C00000016000000000000C00C00000013000000891300003C0000000600000002000000808914B4B4BAA1408EF2228DE5DD82
310
C000000000000000006CF734BF3146A1405E0194B4AC307FC000000000000000000C000000130000009A3A00003C000000060000000200000012A35530AA75A0405E0194B4AC307FC000000000000000004F72496D7945A1405E0194B4AC307FC000000000000000000C00000016000000000000C00C00000012000000FF7F
310
00000C00000017000000FFFFFFFF0C00000016000000000000C00C00000013000000993A0000AC0000000B00000059357A793C6AA0405F0194B4ACF07EC0000000000000000000000000000000000000000000000000000000000000F03F000000000000F03F000000000000000000000000000000003130817E005BDC5F04
310
000000010000000000000000003440000000000000F03F0000000000000000000000000000F03F0000000000000000000000000000000000000000726F6D616E732E7368780000657874666F6E742E73687800B00000000B00000035ECE754F36FA0405AABF404018380C00000000000000000000000000000000000000000
310
00000000000000000000F03F000000000000F03F0000000000000000000000000000000039817E3792B78C8A008D446808000000010000000000000000003440000000000000F03F0000000000000000000000000000F03F0000000000000000000000000000000000000000726F6D616E732E7368780000657874666F6E74
310
2E73687800
100
AcDbMLeader
300
CONTEXT_DATA{
 40
1.0
 10
2104.832400013119
 20
-487.0421644002398
 30
0.0
 41
20.0
140
20.0
145
2.0
174
     1
175
     6
176
     0
177
     0
290
     1
304
10×\P9×7長穴
 11
0.0
 21
0.0
 31
1.0
340
23
 12
2106.832400013118
 22
-475.0421644002399
 32
0.0
 13
1.0
 23
0.0
 33
0.0
 42
0.0
 43
0.0
 44
0.0
 45
1.0
170
     1
 90
-1073741824
171
     1
172
     5
 91
-1073741824
141
0.0
 92
  5103612
291
     0
292
     0
173
     0
293
     0
142
0.0
143
0.0
294
     0
295
     0
296
     0
110
2279.07751926201
120
-621.2137125147387
130
0.0
111
1.0
121
0.0
131
0.0
112
0.0
122
1.0
132
0.0
297
     0
302
LEADER{
290
     1
291
     1
 10
2211.09716191788
 20
-499.0421644002398
 30
0.0
 11
-1.0
 21
0.0
 31
0.0
 90
        0
 40
0.36
304
LEADER_LINE{
 10
2279.07751926201
 20
-621.2137125147387
 30
0.0
 91
        0
305
}
303
}
301
}
340
B17
 90
 67454208
170
     1
 91
-1056964608
341
26
171
    -2
290
     1
291
     1
 41
0.36
342
32
 42
20.0
172
     2
343
23
173
     1
 95
        6
174
     1
175
     2
 92
-1056964608
292
     0
 93
-1056964608
 10
1.0
 20
1.0
 30
1.0
 43
0.0
176
     0
293
     0
294
     0
178
     0
179
     1
 45
1.0
1001
ACAD_MLEADERVER
1070
     2
  0
ENDSEC
  0
SECTION
  2
OBJECTS
  0
DICTIONARY
  5
A
330
0
100
AcDbDictionary
281
     1
  3
ACAD_2007HEADERVARS_RT
350
1F5B
  3
ACAD_BACKGROUND
350
B1D
  3
ACAD_COLOR
350
4D
  3
ACAD_GROUP
350
3A
  3
ACAD_LAYOUT
350
17
  3
ACAD_MATERIAL
350
C
  3
ACAD_MLEADERSTYLE
350
B16
  3
ACAD_MLINESTYLE
350
3B
  3
ACAD_PLOTSETTINGS
350
3C
  3
ACAD_PLOTSTYLENAME
350
9
  3
ACAD_SCALELIST
350
4E
  3
ACAD_TABLESTYLE
350
4F
  3
ACAD_VISUALSTYLE
350
2D
  3
ACDB_RECOMPOSE_DATA
350
B02
  3
AcDbVariableDictionary
350
B03
  3
AcmDictionary
350
AFC
  3
AMG
350
124F
  3
AMGSNAPSETTINGS
350
148B
  3
DWGPROPS
350
1F5A
  3
MAPISURF_MODULE
350
1F00
  0
DICTIONARY
  5
20
330
1F
100
AcDbDictionary
280
     1
281
     1
  3
ACAD_LAYERFILTERS
360
1D11
  3
ACAD_LAYERSTATES
360
21
  3
ACLYDICTIONARY
360
1D10
  0
DICTIONARY
  5
6
330
5
100
AcDbDictionary
280
     1
281
     1
  3
ADSK_XREC_LAYER_RECONCILED
360
7
  0
DICTIONARY
  5
C99
330
C98
100
AcDbDictionary
280
     1
281
     1
  0
DICTIONARY
  5
C9B
330
C9A
100
AcDbDictionary
280
     1
281
     1
  0
DICTIONARY
  5
C9F
330
C9E
100
AcDbDictionary
280
     1
281
     1
  0
DICTIONARY
  5
CA1
330
CA0
100
AcDbDictionary
280
     1
281
     1
  0
DICTIONARY
  5
CA3
330
CA2
100
AcDbDictionary
280
     1
281
     1
  0
DICTIONARY
  5
CA5
330
CA4
100
AcDbDictionary
280
     1
281
     1
  0
DICTIONARY
  5
3
330
2
100
AcDbDictionary
280
     1
281
     1
  3
ACAD_INDEX
360
1652
  3
ACAD_SORTENTS
360
B34
  0
DICTIONARY
  5
1F5B
102
{ACAD_REACTORS
330
A
102
}
330
A
100
AcDbDictionary
281
     1
  3
DIMARCSYM
350
1F5D
  3
DIMFXL
350
1F5C
  0
DICTIONARY
  5
B1D
102
{ACAD_REACTORS
330
A
102
}
330
A
100
AcDbDictionary
281
     1
  0
DICTIONARY
  5
4D
102
{ACAD_REACTORS
330
A
102
}
330
A
100
AcDbDictionary
281
     1
  0
DICTIONARY
  5
3A
102
{ACAD_REACTORS
330
A
102
}
330
A
100
AcDbDictionary
281
     1
  0
DICTIONARY
  5
17
102
{ACAD_REACTORS
330
A
102
}
330
A
100
AcDbDictionary
281
     1
  3
Model
350
16
  3
レイアウト1
350
1B
  0
DICTIONARY
  5
C
102
{ACAD_REACTORS
330
A
102
}
330
A
100
AcDbDictionary
281
     1
  3
ByBlock
350
45
  3
ByLayer
350
3D
  3
Global
350
B
  0
DICTIONARY
  5
B16
102
{ACAD_REACTORS
330
A
102
}
330
A
100
AcDbDictionary
281
     1
  3
Standard
350
B17
  0
DICTIONARY
  5
3B
102
{ACAD_REACTORS
330
A
102
}
330
A
100
AcDbDictionary
281
     1
  3
STANDARD
350
53
  0
DICTIONARY
  5
3C
102
{ACAD_REACTORS
330
A
102
}
330
A
100
AcDbDictionary
281
     1
  0
ACDBDICTIONARYWDFLT
  5
9
102
{ACAD_REACTORS
330
A
102
}
330
A
100
AcDbDictionary
281
     1
  3
Normal
350
8
100
AcDbDictionaryWithDefault
340
8
  0
DICTIONARY
  5
4E
102
{ACAD_REACTORS
330
A
102
}
330
A
100
AcDbDictionary
281
     1
  3
*A1
350
CA7
  3
A0
350
57
  3
A1
350
58
  3
A2
350
59
  3
A3
350
5A
  3
A4
350
5B
  3
A5
350
5C
  3
A6
350
5D
  3
A7
350
5E
  3
A8
350
5F
  3
A9
350
60
  3
B0
350
61
  3
B1
350
62
  3
B2
350
63
  3
B3
350
64
  3
B4
350
65
  3
B5
350
66
  3
B6
350
67
  3
B7
350
68
  3
B8
350
69
  3
B9
350
6A
  3
C0
350
6B
  3
C1
350
6C
  3
C2
350
6D
  3
C3
350
6E
  3
C4
350
6F
  3
C5
350
70
  3
C6
350
71
  3
C7
350
72
  3
C8
350
73
  3
C9
350
74
  3
D0
350
75
  3
D1
350
76
  3
D2
350
77
  0
DICTIONARY
  5
4F
102
{ACAD_REACTORS
330
A
102
}
330
A
100
AcDbDictionary
281
     1
  3
Standard
350
54
  0
DICTIONARY
  5
2D
102
{ACAD_REACTORS
330
A
102
}
330
A
100
AcDbDictionary
281
     1
  3
2dWireframe
350
B0D
  3
3D Hidden
350
B0E
  3
3dWireframe
350
56
  3
Basic
350
B0C
  3
Brighten
350
B11
  3
ColorChange
350
B15
  3
Conceptual
350
B0F
  3
Dim
350
B10
  3
Facepattern
350
B14
  3
Flat
350
B09
  3
FlatWithEdges
350
B0A
  3
Gouraud
350
2C
  3
GouraudWithEdges
350
B0B
  3
Linepattern
350
B13
  3
Realistic
350
55
  3
Thicken
350
B12
  0
XRECORD
  5
B02
102
{ACAD_REACTORS
330
A
102
}
330
A
100
AcDbXrecord
280
     1
 90
        1
330
54
  0
DICTIONARY
  5
B03
102
{ACAD_REACTORS
330
A
102
}
330
A
100
AcDbDictionary
281
     1
  3
CANNOSCALE
350
B06
  3
CMLEADERSTYLE
350
B05
  3
CTABLESTYLE
350
B04
  3
DIMASSOC
350
B7B
  3
HIDETEXT
350
B7A
  3
INDEXCTL
350
B79
  3
LIGHTINGUNITS
350
B07
  3
MSLTSCALE
350
B77
  3
SORTENTS
350
B78
  0
DICTIONARY
  5
AFC
102
{ACAD_REACTORS
330
A
102
}
330
A
100
AcDbDictionary
281
     1
  3
AcmStdDictionary
350
1317
  3
AMDTSECTSYM_ARROWCOLOR
350
132E
  0
DICTIONARY
  5
124F
102
{ACAD_REACTORS
330
A
102
}
330
A
100
AcDbDictionary
281
     1
  3
AcMgSettings
350
1250
  0
DICTIONARY
  5
148B
102
{ACAD_REACTORS
330
A
102
}
330
A
100
AcDbDictionary
281
     1
  3
DIMENSION
350
1490
  3
FEA
350
148F
  3
HATCH (1)
350
148C
  3
HATCH (2)
350
148D
  3
SIMPLE WELD
350
1491
  3
SYMBOLS
350
148E
  0
XRECORD
  5
1F5A
102
{ACAD_REACTORS
330
A
102
}
330
A
100
AcDbXrecord
280
     1
  1
DWGPROPS COOKIE
  2

  3

  4

  6

  7

  8
W000135
  9

300
AmdtFileType=84
301
=
302
=
303
=
304
=
305
=
306
=
307
=
308
=
309
=
 40
1.992587048611111
 41
2451324.468257373
 42
2455888.763959595
  1

 90
        1
  0
DICTIONARY
  5
1D11
102
{ACAD_REACTORS
330
20
102
}
330
20
100
AcDbDictionary
281
     1
  0
DICTIONARY
  5
21
102
{ACAD_REACTORS
330
20
102
}
330
20
100
AcDbDictionary
281
     1
  0
DICTIONARY
  5
1D10
102
{ACAD_REACTORS
330
20
102
}
330
20
100
AcDbDictionary
281
     1
1001
ACAD
1000
<All
  0
XRECORD
  5
7
102
{ACAD_REACTORS
330
6
102
}
330
6
100
AcDbXrecord
280
     1
290
     1
  0
DICTIONARY
  5
1652
102
{ACAD_REACTORS
330
3
102
}
330
3
100
AcDbDictionary
281
     1
  3
*A1
350
1653
  0
SORTENTSTABLE
  5
B34
102
{ACAD_REACTORS
330
3
102
}
330
3
100
AcDbSortentsTable
330
2
  0
XRECORD
  5
1F5D
102
{ACAD_REACTORS
330
1F5B
102
}
330
1F5B
100
AcDbXrecord
280
     1
 70
     1
  0
XRECORD
  5
1F5C
102
{ACAD_REACTORS
330
1F5B
102
}
330
1F5B
100
AcDbXrecord
280
     1
 40
15.0
  0
LAYOUT
  5
16
102
{ACAD_XDICTIONARY
360
1F5E
102
}
102
{ACAD_REACTORS
330
17
102
}
330
17
100
AcDbPlotSettings
  1

  2
なし
  4

  6

 40
0.0
 41
0.0
 42
0.0
 43
0.0
 44
0.0
 45
0.0
 46
0.0
 47
0.0
 48
0.0
 49
0.0
140
0.0
141
0.0
142
1.0
143
1.0
 70
  1712
 72
     0
 73
     0
 74
     0
  7

 75
     0
147
1.0
148
0.0
149
0.0
100
AcDbLayout
  1
Model
 70
     1
 71
     0
 10
0.0
 20
0.0
 11
12.0
 21
9.0
 12
0.0
 22
0.0
 32
0.0
 14
0.0
 24
0.0
 34
0.0
 15
0.0
 25
0.0
 35
0.0
146
0.0
 13
0.0
 23
0.0
 33
0.0
 16
1.0
 26
0.0
 36
0.0
 17
0.0
 27
1.0
 37
0.0
 76
     0
330
2
331
BF0
  0
LAYOUT
  5
1B
102
{ACAD_XDICTIONARY
360
1C
102
}
102
{ACAD_REACTORS
330
17
102
}
330
17
100
AcDbPlotSettings
  1

  2
Microsoft XPS Document Writer
  4
A4
  6

 40
3.174999952316281
 41
3.174999952316281
 42
3.175003051757812
 43
3.17498779296875
 44
210.0156707763672
 45
297.0106506347656
 46
0.0
 47
0.0
 48
0.0
 49
0.0
140
0.0
141
0.0
142
1.0
143
1.0
 70
   688
 72
     1
 73
     1
 74
     5
  7

 75
    16
147
1.0
148
0.0
149
0.0
100
AcDbLayout
  1
レイアウト1
 70
     1
 71
     1
 10
0.0
 20
0.0
 11
12.0
 21
9.0
 12
0.0
 22
0.0
 32
0.0
 14
-1439.804583653114
 24
-1400.237631316938
 34
0.0
 15
2872.968780515991
 25
1675.790811506817
 35
0.0
146
0.0
 13
0.0
 23
0.0
 33
0.0
 16
1.0
 26
0.0
 36
0.0
 17
0.0
 27
1.0
 37
0.0
 76
     0
330
18
1001
ACAD_PSEXT
1000
Microsoft XPS Document Writer
1000
Microsoft XPS Document Writer
1000
XPSPort:
1000

1070
     0
  0
MATERIAL
  5
45
102
{ACAD_XDICTIONARY
360
46
102
}
102
{ACAD_REACTORS
330
C
102
}
330
C
100
AcDbMaterial
  1
ByBlock
 72
     0
 43
0.0208333333333333
 43
0.0
 43
0.0
 43
0.0
 43
0.0
 43
0.0208333333333333
 43
0.0
 43
0.0
 43
0.0
 43
0.0
 43
1.0
 43
0.0
 43
0.0
 43
0.0
 43
0.0
 43
1.0
 77
     0
 47
0.0208333333333333
 47
0.0
 47
0.0
 47
0.0
 47
0.0
 47
0.0208333333333333
 47
0.0
 47
0.0
 47
0.0
 47
0.0
 47
1.0
 47
0.0
 47
0.0
 47
0.0
 47
0.0
 47
1.0
171
     0
 49
0.0208333333333333
 49
0.0
 49
0.0
 49
0.0
 49
0.0
 49
0.0208333333333333
 49
0.0
 49
0.0
 49
0.0
 49
0.0
 49
1.0
 49
0.0
 49
0.0
 49
0.0
 49
0.0
 49
1.0
175
     0
142
0.0208333333333333
142
0.0
142
0.0
142
0.0
142
0.0
142
0.0208333333333333
142
0.0
142
0.0
142
0.0
142
0.0
142
1.0
142
0.0
142
0.0
142
0.0
142
0.0
142
1.0
179
     0
144
0.0208333333333333
144
0.0
144
0.0
144
0.0
144
0.0
144
0.0208333333333333
144
0.0
144
0.0
144
0.0
144
0.0
144
1.0
144
0.0
144
0.0
144
0.0
144
0.0
144
1.0
147
0.0208333333333333
147
0.0
147
0.0
147
0.0
147
0.0
147
0.0208333333333333
147
0.0
147
0.0
147
0.0
147
0.0
147
1.0
147
0.0
147
0.0
147
0.0
147
0.0
147
1.0
  0
MATERIAL
  5
3D
102
{ACAD_XDICTIONARY
360
3E
102
}
102
{ACAD_REACTORS
330
C
102
}
330
C
100
AcDbMaterial
  1
ByLayer
 72
     0
 43
0.0208333333333333
 43
0.0
 43
0.0
 43
0.0
 43
0.0
 43
0.0208333333333333
 43
0.0
 43
0.0
 43
0.0
 43
0.0
 43
1.0
 43
0.0
 43
0.0
 43
0.0
 43
0.0
 43
1.0
 77
     0
 47
0.0208333333333333
 47
0.0
 47
0.0
 47
0.0
 47
0.0
 47
0.0208333333333333
 47
0.0
 47
0.0
 47
0.0
 47
0.0
 47
1.0
 47
0.0
 47
0.0
 47
0.0
 47
0.0
 47
1.0
171
     0
 49
0.0208333333333333
 49
0.0
 49
0.0
 49
0.0
 49
0.0
 49
0.0208333333333333
 49
0.0
 49
0.0
 49
0.0
 49
0.0
 49
1.0
 49
0.0
 49
0.0
 49
0.0
 49
0.0
 49
1.0
175
     0
142
0.0208333333333333
142
0.0
142
0.0
142
0.0
142
0.0
142
0.0208333333333333
142
0.0
142
0.0
142
0.0
142
0.0
142
1.0
142
0.0
142
0.0
142
0.0
142
0.0
142
1.0
179
     0
144
0.0208333333333333
144
0.0
144
0.0
144
0.0
144
0.0
144
0.0208333333333333
144
0.0
144
0.0
144
0.0
144
0.0
144
1.0
144
0.0
144
0.0
144
0.0
144
0.0
144
1.0
147
0.0208333333333333
147
0.0
147
0.0
147
0.0
147
0.0
147
0.0208333333333333
147
0.0
147
0.0
147
0.0
147
0.0
147
1.0
147
0.0
147
0.0
147
0.0
147
0.0
147
1.0
  0
MATERIAL
  5
B
102
{ACAD_XDICTIONARY
360
D
102
}
102
{ACAD_REACTORS
330
C
102
}
330
C
100
AcDbMaterial
  1
Global
 72
     0
 43
0.0208333333333333
 43
0.0
 43
0.0
 43
0.0
 43
0.0
 43
0.0208333333333333
 43
0.0
 43
0.0
 43
0.0
 43
0.0
 43
1.0
 43
0.0
 43
0.0
 43
0.0
 43
0.0
 43
1.0
 77
     0
 47
0.0208333333333333
 47
0.0
 47
0.0
 47
0.0
 47
0.0
 47
0.0208333333333333
 47
0.0
 47
0.0
 47
0.0
 47
0.0
 47
1.0
 47
0.0
 47
0.0
 47
0.0
 47
0.0
 47
1.0
171
     0
 49
0.0208333333333333
 49
0.0
 49
0.0
 49
0.0
 49
0.0
 49
0.0208333333333333
 49
0.0
 49
0.0
 49
0.0
 49
0.0
 49
1.0
 49
0.0
 49
0.0
 49
0.0
 49
0.0
 49
1.0
175
     0
142
0.0208333333333333
142
0.0
142
0.0
142
0.0
142
0.0
142
0.0208333333333333
142
0.0
142
0.0
142
0.0
142
0.0
142
1.0
142
0.0
142
0.0
142
0.0
142
0.0
142
1.0
179
     0
144
0.0208333333333333
144
0.0
144
0.0
144
0.0
144
0.0
144
0.0208333333333333
144
0.0
144
0.0
144
0.0
144
0.0
144
1.0
144
0.0
144
0.0
144
0.0
144
0.0
144
1.0
147
0.0208333333333333
147
0.0
147
0.0
147
0.0
147
0.0
147
0.0208333333333333
147
0.0
147
0.0
147
0.0
147
0.0
147
1.0
147
0.0
147
0.0
147
0.0
147
0.0
147
1.0
  0
MLEADERSTYLE
  5
B17
102
{ACAD_REACTORS
330
B16
330
1D7A
102
}
330
B16
100
AcDbMLeaderStyle
170
     2
171
     1
172
     0
 90
        2
 40
0.0
 41
0.0
173
     1
 91
-1056964608
340
26
 92
       -2
290
     1
 42
2.0
291
     1
 43
0.36
  3
Standard
 44
4.0
300

342
23
174
     1
178
     6
175
     1
176
     0
 93
-1056964608
 45
4.0
292
     0
297
     0
 46
4.0
 94
-1056964608
 47
1.0
 49
1.0
140
1.0
293
     1
141
0.0
294
     1
177
     0
142
1.0
295
     0
296
     0
143
0.125
1001
ACAD_MLEADERVER
1070
     2
  0
MLINESTYLE
  5
53
102
{ACAD_REACTORS
330
3B
102
}
330
3B
100
AcDbMlineStyle
  2
STANDARD
 70
     0
  3

 62
   256
 51
90.0
 52
90.0
 71
     2
 49
0.5
 62
   256
  6
BYLAYER
 49
-0.5
 62
   256
  6
BYLAYER
  0
ACDBPLACEHOLDER
  5
8
102
{ACAD_REACTORS
330
9
102
}
330
9
  0
SCALE
  5
CA7
102
{ACAD_REACTORS
330
4E
102
}
330
4E
100
AcDbScale
 70
     0
300
1:5_XREF
140
1.0
141
5.0
290
     0
  0
SCALE
  5
57
102
{ACAD_REACTORS
330
4E
102
}
330
4E
100
AcDbScale
 70
     0
300
1:1
140
1.0
141
1.0
290
     1
  0
SCALE
  5
58
102
{ACAD_REACTORS
330
4E
102
}
330
4E
100
AcDbScale
 70
     0
300
1:2
140
1.0
141
2.0
290
     0
  0
SCALE
  5
59
102
{ACAD_REACTORS
330
4E
102
}
330
4E
100
AcDbScale
 70
     0
300
1:4
140
1.0
141
4.0
290
     0
  0
SCALE
  5
5A
102
{ACAD_REACTORS
330
4E
102
}
330
4E
100
AcDbScale
 70
     0
300
1:5
140
1.0
141
5.0
290
     0
  0
SCALE
  5
5B
102
{ACAD_REACTORS
330
4E
102
}
330
4E
100
AcDbScale
 70
     0
300
1:8
140
1.0
141
8.0
290
     0
  0
SCALE
  5
5C
102
{ACAD_REACTORS
330
4E
102
}
330
4E
100
AcDbScale
 70
     0
300
1:10
140
1.0
141
10.0
290
     0
  0
SCALE
  5
5D
102
{ACAD_REACTORS
330
4E
102
}
330
4E
100
AcDbScale
 70
     0
300
1:16
140
1.0
141
16.0
290
     0
  0
SCALE
  5
5E
102
{ACAD_REACTORS
330
4E
102
}
330
4E
100
AcDbScale
 70
     0
300
1:20
140
1.0
141
20.0
290
     0
  0
SCALE
  5
5F
102
{ACAD_REACTORS
330
4E
102
}
330
4E
100
AcDbScale
 70
     0
300
1:30
140
1.0
141
30.0
290
     0
  0
SCALE
  5
60
102
{ACAD_REACTORS
330
4E
102
}
330
4E
100
AcDbScale
 70
     0
300
1:40
140
1.0
141
40.0
290
     0
  0
SCALE
  5
61
102
{ACAD_REACTORS
330
4E
102
}
330
4E
100
AcDbScale
 70
     0
300
1:50
140
1.0
141
50.0
290
     0
  0
SCALE
  5
62
102
{ACAD_REACTORS
330
4E
102
}
330
4E
100
AcDbScale
 70
     0
300
1:100
140
1.0
141
100.0
290
     0
  0
SCALE
  5
63
102
{ACAD_REACTORS
330
4E
102
}
330
4E
100
AcDbScale
 70
     0
300
2:1
140
2.0
141
1.0
290
     0
  0
SCALE
  5
64
102
{ACAD_REACTORS
330
4E
102
}
330
4E
100
AcDbScale
 70
     0
300
4:1
140
4.0
141
1.0
290
     0
  0
SCALE
  5
65
102
{ACAD_REACTORS
330
4E
102
}
330
4E
100
AcDbScale
 70
     0
300
8:1
140
8.0
141
1.0
290
     0
  0
SCALE
  5
66
102
{ACAD_REACTORS
330
4E
102
}
330
4E
100
AcDbScale
 70
     0
300
10:1
140
10.0
141
1.0
290
     0
  0
SCALE
  5
67
102
{ACAD_REACTORS
330
4E
102
}
330
4E
100
AcDbScale
 70
     0
300
100:1
140
100.0
141
1.0
290
     0
  0
SCALE
  5
68
102
{ACAD_REACTORS
330
4E
102
}
330
4E
100
AcDbScale
 70
     0
300
1/128" = 1'-0"
140
0.0078125
141
12.0
290
     0
  0
SCALE
  5
69
102
{ACAD_REACTORS
330
4E
102
}
330
4E
100
AcDbScale
 70
     0
300
1/64" = 1'-0"
140
0.015625
141
12.0
290
     0
  0
SCALE
  5
6A
102
{ACAD_REACTORS
330
4E
102
}
330
4E
100
AcDbScale
 70
     0
300
1/32" = 1'-0"
140
0.03125
141
12.0
290
     0
  0
SCALE
  5
6B
102
{ACAD_REACTORS
330
4E
102
}
330
4E
100
AcDbScale
 70
     0
300
1/16" = 1'-0"
140
0.0625
141
12.0
290
     0
  0
SCALE
  5
6C
102
{ACAD_REACTORS
330
4E
102
}
330
4E
100
AcDbScale
 70
     0
300
3/32" = 1'-0"
140
0.09375
141
12.0
290
     0
  0
SCALE
  5
6D
102
{ACAD_REACTORS
330
4E
102
}
330
4E
100
AcDbScale
 70
     0
300
1/8" = 1'-0"
140
0.125
141
12.0
290
     0
  0
SCALE
  5
6E
102
{ACAD_REACTORS
330
4E
102
}
330
4E
100
AcDbScale
 70
     0
300
3/16" = 1'-0"
140
0.1875
141
12.0
290
     0
  0
SCALE
  5
6F
102
{ACAD_REACTORS
330
4E
102
}
330
4E
100
AcDbScale
 70
     0
300
1/4" = 1'-0"
140
0.25
141
12.0
290
     0
  0
SCALE
  5
70
102
{ACAD_REACTORS
330
4E
102
}
330
4E
100
AcDbScale
 70
     0
300
3/8" = 1'-0"
140
0.375
141
12.0
290
     0
  0
SCALE
  5
71
102
{ACAD_REACTORS
330
4E
102
}
330
4E
100
AcDbScale
 70
     0
300
1/2" = 1'-0"
140
0.5
141
12.0
290
     0
  0
SCALE
  5
72
102
{ACAD_REACTORS
330
4E
102
}
330
4E
100
AcDbScale
 70
     0
300
3/4" = 1'-0"
140
0.75
141
12.0
290
     0
  0
SCALE
  5
73
102
{ACAD_REACTORS
330
4E
102
}
330
4E
100
AcDbScale
 70
     0
300
1" = 1'-0"
140
1.0
141
12.0
290
     0
  0
SCALE
  5
74
102
{ACAD_REACTORS
330
4E
102
}
330
4E
100
AcDbScale
 70
     0
300
1-1/2" = 1'-0"
140
1.5
141
12.0
290
     0
  0
SCALE
  5
75
102
{ACAD_REACTORS
330
4E
102
}
330
4E
100
AcDbScale
 70
     0
300
3" = 1'-0"
140
3.0
141
12.0
290
     0
  0
SCALE
  5
76
102
{ACAD_REACTORS
330
4E
102
}
330
4E
100
AcDbScale
 70
     0
300
6" = 1'-0"
140
6.0
141
12.0
290
     0
  0
SCALE
  5
77
102
{ACAD_REACTORS
330
4E
102
}
330
4E
100
AcDbScale
 70
     0
300
1'-0" = 1'-0"
140
12.0
141
12.0
290
     0
  0
TABLESTYLE
  5
54
102
{ACAD_XDICTIONARY
360
B00
102
}
102
{ACAD_REACTORS
330
4F
102
}
330
4F
100
AcDbTableStyle
  3
Standard
 70
     0
 71
     0
 40
1.5
 41
1.5
280
     0
281
     0
  7
STANDARD
140
4.5
170
     2
 62
     0
 63
     7
283
     0
274
    -2
284
     1
 64
     0
275
    -2
285
     1
 65
     0
276
    -2
286
     1
 66
     0
277
    -2
287
     1
 67
     0
278
    -2
288
     1
 68
     0
279
    -2
289
     1
 69
     0
  7
STANDARD
140
6.0
170
     5
 62
     0
 63
     7
283
     0
274
    -2
284
     1
 64
     0
275
    -2
285
     1
 65
     0
276
    -2
286
     1
 66
     0
277
    -2
287
     1
 67
     0
278
    -2
288
     1
 68
     0
279
    -2
289
     1
 69
     0
  7
STANDARD
140
4.5
170
     5
 62
     0
 63
     7
283
     0
274
    -2
284
     1
 64
     0
275
    -2
285
     1
 65
     0
276
    -2
286
     1
 66
     0
277
    -2
287
     1
 67
     0
278
    -2
288
     1
 68
     0
279
    -2
289
     1
 69
     0
  0
VISUALSTYLE
  5
B0D
102
{ACAD_REACTORS
330
2D
102
}
330
2D
100
AcDbVisualStyle
  2
2dWireframe
 70
     4
 71
     0
 72
     2
 73
     0
 90
        0
 40
-0.6
 41
-30.0
 62
     5
 63
     7
 74
     1
 91
        4
 64
     7
 65
   257
 75
     1
175
     1
 42
1.0
 92
        0
 66
   257
 43
1.0
 76
     1
 77
     6
 78
     2
 67
     7
 79
     5
170
     0
171
     0
290
     0
174
     0
 93
        1
 44
0.0
173
     0
291
     0
 45
0.0
1001
ACAD
1000
AcDbSavedByObjectVersion
1070
     0
1000
AcDbSavedByObjectVersion
1070
     0
1000
AcDbSavedByObjectVersion
1070
     0
1000
AcDbSavedByObjectVersion
1070
     0
1000
AcDbSavedByObjectVersion
1070
     0
1000
AcDbSavedByObjectVersion
1070
     0
1000
AcDbSavedByObjectVersion
1070
     0
1000
AcDbSavedByObjectVersion
1070
     0
1000
AcDbSavedByObjectVersion
1070
     0
  0
VISUALSTYLE
  5
B0E
102
{ACAD_REACTORS
330
2D
102
}
330
2D
100
AcDbVisualStyle
  2
3D Hidden
 70
     6
 71
     1
 72
     2
 73
     2
 90
        0
 40
-0.6
 41
-30.0
 62
     5
 63
     7
 74
     2
 91
        2
 64
     7
 65
   257
 75
     2
175
     1
 42
40.0
 92
        0
 66
   257
 43
1.0
 76
     1
 77
     6
 78
     2
 67
     7
 79
     3
170
     0
171
     0
290
     0
174
     0
 93
        1
 44
0.0
173
     0
291
     0
 45
0.0
1001
ACAD
1000
AcDbSavedByObjectVersion
1070
     0
1000
AcDbSavedByObjectVersion
1070
     0
1000
AcDbSavedByObjectVersion
1070
     0
1000
AcDbSavedByObjectVersion
1070
     0
1000
AcDbSavedByObjectVersion
1070
     0
1000
AcDbSavedByObjectVersion
1070
     0
1000
AcDbSavedByObjectVersion
1070
     0
1000
AcDbSavedByObjectVersion
1070
     0
1000
AcDbSavedByObjectVersion
1070
     0
  0
VISUALSTYLE
  5
56
102
{ACAD_REACTORS
330
2D
102
}
330
2D
100
AcDbVisualStyle
  2
3dWireframe
 70
     5
 71
     0
 72
     2
 73
     0
 90
        0
 40
-0.6
 41
-30.0
 62
     5
 63
     7
 74
     1
 91
        4
 64
     7
 65
   257
 75
     1
175
     1
 42
1.0
 92
        0
 66
   257
 43
1.0
 76
     1
 77
     6
 78
     2
 67
     7
 79
     5
170
     0
171
     0
290
     0
174
     0
 93
        1
 44
0.0
173
     0
291
     0
 45
0.0
1001
ACAD
1000
AcDbSavedByObjectVersion
1070
     0
1000
AcDbSavedByObjectVersion
1070
     0
1000
AcDbSavedByObjectVersion
1070
     0
1000
AcDbSavedByObjectVersion
1070
     0
1000
AcDbSavedByObjectVersion
1070
     0
1000
AcDbSavedByObjectVersion
1070
     0
1000
AcDbSavedByObjectVersion
1070
     0
1000
AcDbSavedByObjectVersion
1070
     0
1000
AcDbSavedByObjectVersion
1070
     0
  0
VISUALSTYLE
  5
B0C
102
{ACAD_REACTORS
330
2D
102
}
330
2D
100
AcDbVisualStyle
  2
Basic
 70
     7
 71
     1
 72
     0
 73
     1
 90
        0
 40
-0.6
 41
-30.0
 62
     5
 63
     7
 74
     0
 91
        4
 64
     7
 65
   257
 75
     1
175
     1
 42
1.0
 92
        8
 66
     7
 43
1.0
 76
     1
 77
     6
 78
     2
 67
     7
 79
     5
170
     0
171
     0
290
     0
174
     0
 93
        1
 44
0.0
173
     0
291
     1
 45
0.0
1001
ACAD
1000
AcDbSavedByObjectVersion
1070
     0
1000
AcDbSavedByObjectVersion
1070
     0
1000
AcDbSavedByObjectVersion
1070
     0
1000
AcDbSavedByObjectVersion
1070
     0
1000
AcDbSavedByObjectVersion
1070
     0
1000
AcDbSavedByObjectVersion
1070
     0
1000
AcDbSavedByObjectVersion
1070
     0
1000
AcDbSavedByObjectVersion
1070
     0
1000
AcDbSavedByObjectVersion
1070
     0
  0
VISUALSTYLE
  5
B11
102
{ACAD_REACTORS
330
2D
102
}
330
2D
100
AcDbVisualStyle
  2
Brighten
 70
    12
 71
     2
 72
     2
 73
     0
 90
        0
 40
-0.6
 41
-30.0
 62
     5
 63
     7
 74
     1
 91
        4
 64
     7
 65
   257
 75
     1
175
     1
 42
1.0
 92
        8
 66
     7
 43
1.0
 76
     1
 77
     6
 78
     2
 67
     7
 79
     5
170
     0
171
     0
290
     0
174
     0
 93
        1
 44
50.0
173
     0
291
     1
 45
0.0
1001
ACAD
1000
AcDbSavedByObjectVersion
1070
     0
1000
AcDbSavedByObjectVersion
1070
     0
1000
AcDbSavedByObjectVersion
1070
     0
1000
AcDbSavedByObjectVersion
1070
     0
1000
AcDbSavedByObjectVersion
1070
     0
1000
AcDbSavedByObjectVersion
1070
     0
1000
AcDbSavedByObjectVersion
1070
     0
1000
AcDbSavedByObjectVersion
1070
     0
1000
AcDbSavedByObjectVersion
1070
     0
  0
VISUALSTYLE
  5
B15
102
{ACAD_REACTORS
330
2D
102
}
330
2D
100
AcDbVisualStyle
  2
ColorChange
 70
    16
 71
     2
 72
     2
 73
     3
 90
        0
 40
-0.6
 41
-30.0
 62
     5
 63
     8
 74
     1
 91
        4
 64
     7
 65
   257
 75
     1
175
     1
 42
1.0
 92
        8
 66
     8
 43
1.0
 76
     1
 77
     6
 78
     2
 67
     7
 79
     5
170
     0
171
     0
290
     0
174
     0
 93
        1
 44
0.0
173
     0
291
     1
 45
0.0
1001
ACAD
1000
AcDbSavedByObjectVersion
1070
     0
1000
AcDbSavedByObjectVersion
1070
     0
1000
AcDbSavedByObjectVersion
1070
     0
1000
AcDbSavedByObjectVersion
1070
     0
1000
AcDbSavedByObjectVersion
1070
     0
1000
AcDbSavedByObjectVersion
1070
     0
1000
AcDbSavedByObjectVersion
1070
     0
1000
AcDbSavedByObjectVersion
1070
     0
1000
AcDbSavedByObjectVersion
1070
     0
  0
VISUALSTYLE
  5
B0F
102
{ACAD_REACTORS
330
2D
102
}
330
2D
100
AcDbVisualStyle
  2
Conceptual
 70
     9
 71
     3
 72
     2
 73
     0
 90
        0
 40
-0.6
 41
-30.0
 62
     5
 63
     7
 74
     2
 91
        2
 64
     7
 65
   257
 75
     1
175
     1
 42
40.0
 92
        8
 66
     7
 43
1.0
 76
     1
 77
     6
 78
     2
 67
     7
 79
     3
170
     0
171
     0
290
     0
174
     0
 93
        1
 44
0.0
173
     0
291
     0
 45
0.0
1001
ACAD
1000
AcDbSavedByObjectVersion
1070
     0
1000
AcDbSavedByObjectVersion
1070
     0
1000
AcDbSavedByObjectVersion
1070
     0
1000
AcDbSavedByObjectVersion
1070
     0
1000
AcDbSavedByObjectVersion
1070
     0
1000
AcDbSavedByObjectVersion
1070
     0
1000
AcDbSavedByObjectVersion
1070
     0
1000
AcDbSavedByObjectVersion
1070
     0
1000
AcDbSavedByObjectVersion
1070
     0
  0
VISUALSTYLE
  5
B10
102
{ACAD_REACTORS
330
2D
102
}
330
2D
100
AcDbVisualStyle
  2
Dim
 70
    11
 71
     2
 72
     2
 73
     0
 90
        0
 40
-0.6
 41
-30.0
 62
     5
 63
     7
 74
     1
 91
        4
 64
     7
 65
   257
 75
     1
175
     1
 42
1.0
 92
        8
 66
     7
 43
1.0
 76
     1
 77
     6
 78
     2
 67
     7
 79
     5
170
     0
171
     0
290
     0
174
     0
 93
        1
 44
-50.0
173
     0
291
     1
 45
0.0
1001
ACAD
1000
AcDbSavedByObjectVersion
1070
     0
1000
AcDbSavedByObjectVersion
1070
     0
1000
AcDbSavedByObjectVersion
1070
     0
1000
AcDbSavedByObjectVersion
1070
     0
1000
AcDbSavedByObjectVersion
1070
     0
1000
AcDbSavedByObjectVersion
1070
     0
1000
AcDbSavedByObjectVersion
1070
     0
1000
AcDbSavedByObjectVersion
1070
     0
1000
AcDbSavedByObjectVersion
1070
     0
  0
VISUALSTYLE
  5
B14
102
{ACAD_REACTORS
330
2D
102
}
330
2D
100
AcDbVisualStyle
  2
Facepattern
 70
    15
 71
     2
 72
     2
 73
     0
 90
        0
 40
-0.6
 41
-30.0
 62
     5
 63
     7
 74
     1
 91
        4
 64
     7
 65
   257
 75
     1
175
     1
 42
1.0
 92
        8
 66
     7
 43
1.0
 76
     1
 77
     6
 78
     2
 67
     7
 79
     5
170
     0
171
     0
290
     0
174
     0
 93
        1
 44
0.0
173
     0
291
     1
 45
0.0
1001
ACAD
1000
AcDbSavedByObjectVersion
1070
     0
1000
AcDbSavedByObjectVersion
1070
     0
1000
AcDbSavedByObjectVersion
1070
     0
1000
AcDbSavedByObjectVersion
1070
     0
1000
AcDbSavedByObjectVersion
1070
     0
1000
AcDbSavedByObjectVersion
1070
     0
1000
AcDbSavedByObjectVersion
1070
     0
1000
AcDbSavedByObjectVersion
1070
     0
1000
AcDbSavedByObjectVersion
1070
     0
  0
VISUALSTYLE
  5
B09
102
{ACAD_REACTORS
330
2D
102
}
330
2D
100
AcDbVisualStyle
  2
Flat
 70
     0
 71
     2
 72
     1
 73
     1
 90
        2
 40
-0.6
 41
30.0
 62
     5
 63
     7
 74
     0
 91
        4
 64
     7
 65
   257
 75
     1
175
     1
 42
1.0
 92
        8
 66
     7
 43
1.0
 76
     1
 77
     6
 78
     2
 67
     7
 79
     5
170
     0
171
     0
290
     0
174
     0
 93
       13
 44
0.0
173
     0
291
     1
 45
0.0
1001
ACAD
1000
AcDbSavedByObjectVersion
1070
     0
1000
AcDbSavedByObjectVersion
1070
     0
1000
AcDbSavedByObjectVersion
1070
     0
1000
AcDbSavedByObjectVersion
1070
     0
1000
AcDbSavedByObjectVersion
1070
     0
1000
AcDbSavedByObjectVersion
1070
     0
1000
AcDbSavedByObjectVersion
1070
     0
1000
AcDbSavedByObjectVersion
1070
     0
1000
AcDbSavedByObjectVersion
1070
     0
  0
VISUALSTYLE
  5
B0A
102
{ACAD_REACTORS
330
2D
102
}
330
2D
100
AcDbVisualStyle
  2
FlatWithEdges
 70
     1
 71
     2
 72
     1
 73
     1
 90
        2
 40
-0.6
 41
30.0
 62
     5
 63
     7
 74
     1
 91
        4
 64
     7
 65
   257
 75
     1
175
     1
 42
1.0
 92
        0
 66
   257
 43
1.0
 76
     1
 77
     6
 78
     2
 67
     7
 79
     5
170
     0
171
     0
290
     0
174
     0
 93
       13
 44
0.0
173
     0
291
     1
 45
0.0
1001
ACAD
1000
AcDbSavedByObjectVersion
1070
     0
1000
AcDbSavedByObjectVersion
1070
     0
1000
AcDbSavedByObjectVersion
1070
     0
1000
AcDbSavedByObjectVersion
1070
     0
1000
AcDbSavedByObjectVersion
1070
     0
1000
AcDbSavedByObjectVersion
1070
     0
1000
AcDbSavedByObjectVersion
1070
     0
1000
AcDbSavedByObjectVersion
1070
     0
1000
AcDbSavedByObjectVersion
1070
     0
  0
VISUALSTYLE
  5
2C
102
{ACAD_REACTORS
330
2D
102
}
330
2D
100
AcDbVisualStyle
  2
Gouraud
 70
     2
 71
     2
 72
     2
 73
     1
 90
        2
 40
-0.6
 41
30.0
 62
     5
 63
     7
 74
     0
 91
        4
 64
     7
 65
   257
 75
     1
175
     1
 42
1.0
 92
        0
 66
     7
 43
1.0
 76
     1
 77
     6
 78
     2
 67
     7
 79
     5
170
     0
171
     0
290
     0
174
     0
 93
       13
 44
0.0
173
     0
291
     1
 45
0.0
1001
ACAD
1000
AcDbSavedByObjectVersion
1070
     0
1000
AcDbSavedByObjectVersion
1070
     0
1000
AcDbSavedByObjectVersion
1070
     0
1000
AcDbSavedByObjectVersion
1070
     0
1000
AcDbSavedByObjectVersion
1070
     0
1000
AcDbSavedByObjectVersion
1070
     0
1000
AcDbSavedByObjectVersion
1070
     0
1000
AcDbSavedByObjectVersion
1070
     0
1000
AcDbSavedByObjectVersion
1070
     0
  0
VISUALSTYLE
  5
B0B
102
{ACAD_REACTORS
330
2D
102
}
330
2D
100
AcDbVisualStyle
  2
GouraudWithEdges
 70
     3
 71
     2
 72
     2
 73
     1
 90
        2
 40
-0.6
 41
30.0
 62
     5
 63
     7
 74
     1
 91
        4
 64
     7
 65
   257
 75
     1
175
     1
 42
1.0
 92
        0
 66
   257
 43
1.0
 76
     1
 77
     6
 78
     2
 67
     7
 79
     5
170
     0
171
     0
290
     0
174
     0
 93
       13
 44
0.0
173
     0
291
     1
 45
0.0
1001
ACAD
1000
AcDbSavedByObjectVersion
1070
     0
1000
AcDbSavedByObjectVersion
1070
     0
1000
AcDbSavedByObjectVersion
1070
     0
1000
AcDbSavedByObjectVersion
1070
     0
1000
AcDbSavedByObjectVersion
1070
     0
1000
AcDbSavedByObjectVersion
1070
     0
1000
AcDbSavedByObjectVersion
1070
     0
1000
AcDbSavedByObjectVersion
1070
     0
1000
AcDbSavedByObjectVersion
1070
     0
  0
VISUALSTYLE
  5
B13
102
{ACAD_REACTORS
330
2D
102
}
330
2D
100
AcDbVisualStyle
  2
Linepattern
 70
    14
 71
     2
 72
     2
 73
     0
 90
        0
 40
-0.6
 41
-30.0
 62
     5
 63
     7
 74
     1
 91
        4
 64
     7
 65
   257
 75
     7
175
     7
 42
1.0
 92
        8
 66
     7
 43
1.0
 76
     1
 77
     6
 78
     2
 67
     7
 79
     5
170
     0
171
     0
290
     0
174
     0
 93
        1
 44
0.0
173
     0
291
     1
 45
0.0
1001
ACAD
1000
AcDbSavedByObjectVersion
1070
     0
1000
AcDbSavedByObjectVersion
1070
     0
1000
AcDbSavedByObjectVersion
1070
     0
1000
AcDbSavedByObjectVersion
1070
     0
1000
AcDbSavedByObjectVersion
1070
     0
1000
AcDbSavedByObjectVersion
1070
     0
1000
AcDbSavedByObjectVersion
1070
     0
1000
AcDbSavedByObjectVersion
1070
     0
1000
AcDbSavedByObjectVersion
1070
     0
  0
VISUALSTYLE
  5
55
102
{ACAD_REACTORS
330
2D
102
}
330
2D
100
AcDbVisualStyle
  2
Realistic
 70
     8
 71
     2
 72
     2
 73
     0
 90
        0
 40
-0.6
 41
-30.0
 62
     5
 63
     7
 74
     1
 91
        0
 64
     7
 65
   257
 75
     1
175
     1
 42
1.0
 92
        8
 66
     8
 43
1.0
 76
     1
 77
     6
 78
     2
 67
     7
 79
     5
170
     0
171
     0
290
     0
174
     0
 93
       13
 44
0.0
173
     0
291
     0
 45
0.0
1001
ACAD
1000
AcDbSavedByObjectVersion
1070
     0
1000
AcDbSavedByObjectVersion
1070
     0
1000
AcDbSavedByObjectVersion
1070
     0
1000
AcDbSavedByObjectVersion
1070
     0
1000
AcDbSavedByObjectVersion
1070
     0
1000
AcDbSavedByObjectVersion
1070
     0
1000
AcDbSavedByObjectVersion
1070
     0
1000
AcDbSavedByObjectVersion
1070
     0
1000
AcDbSavedByObjectVersion
1070
     0
  0
VISUALSTYLE
  5
B12
102
{ACAD_REACTORS
330
2D
102
}
330
2D
100
AcDbVisualStyle
  2
Thicken
 70
    13
 71
     2
 72
     2
 73
     0
 90
        0
 40
-0.6
 41
-30.0
 62
     5
 63
     7
 74
     1
 91
        4
 64
     7
 65
   257
 75
     1
175
     1
 42
1.0
 92
       12
 66
     7
 43
1.0
 76
     1
 77
     6
 78
     2
 67
     7
 79
     5
170
     0
171
     0
290
     0
174
     0
 93
        1
 44
0.0
173
     0
291
     1
 45
0.0
1001
ACAD
1000
AcDbSavedByObjectVersion
1070
     0
1000
AcDbSavedByObjectVersion
1070
     0
1000
AcDbSavedByObjectVersion
1070
     0
1000
AcDbSavedByObjectVersion
1070
     0
1000
AcDbSavedByObjectVersion
1070
     0
1000
AcDbSavedByObjectVersion
1070
     0
1000
AcDbSavedByObjectVersion
1070
     0
1000
AcDbSavedByObjectVersion
1070
     0
1000
AcDbSavedByObjectVersion
1070
     0
  0
DICTIONARYVAR
  5
B06
102
{ACAD_REACTORS
330
B03
102
}
330
B03
100
DictionaryVariables
280
     0
  1
1:1
  0
DICTIONARYVAR
  5
B05
102
{ACAD_REACTORS
330
B03
102
}
330
B03
100
DictionaryVariables
280
     0
  1
STANDARD
  0
DICTIONARYVAR
  5
B04
102
{ACAD_REACTORS
330
B03
102
}
330
B03
100
DictionaryVariables
280
     0
  1
STANDARD
  0
DICTIONARYVAR
  5
B7B
102
{ACAD_REACTORS
330
B03
102
}
330
B03
100
DictionaryVariables
280
     0
  1
1
  0
DICTIONARYVAR
  5
B7A
102
{ACAD_REACTORS
330
B03
102
}
330
B03
100
DictionaryVariables
280
     0
  1
1
  0
DICTIONARYVAR
  5
B79
102
{ACAD_REACTORS
330
B03
102
}
330
B03
100
DictionaryVariables
280
     0
  1
1
  0
DICTIONARYVAR
  5
B07
102
{ACAD_REACTORS
330
B03
102
}
330
B03
100
DictionaryVariables
280
     0
  1
0
  0
DICTIONARYVAR
  5
B77
102
{ACAD_REACTORS
330
B03
102
}
330
B03
100
DictionaryVariables
280
     0
  1
1
  0
DICTIONARYVAR
  5
B78
102
{ACAD_REACTORS
330
B03
102
}
330
B03
100
DictionaryVariables
280
     0
  1
127
  0
DICTIONARY
  5
1317
102
{ACAD_REACTORS
330
AFC
102
}
330
AFC
100
AcDbDictionary
281
     1
  0
XRECORD
  5
132E
102
{ACAD_REACTORS
330
AFC
102
}
330
AFC
100
AcDbXrecord
280
     1
 90
-1023410169
  0
DICTIONARY
  5
1250
102
{ACAD_REACTORS
330
124F
102
}
330
124F
100
AcDbDictionary
281
     1
  3
DWGSETTINGS
350
1E82
  3
TRANSSETTINGS
350
1E83
  0
ACAMGFILTERDAT
  5
1490
102
{ACAD_REACTORS
330
148B
102
}
330
148B
100
AcAmgFilterDat
 70
    15
  1
DIMENSION,AMDT_*_DIM
  2
*
  3
*
  4
*
  5
*
290
     1
  0
ACAMGFILTERDAT
  5
148F
102
{ACAD_REACTORS
330
148B
102
}
330
148B
100
AcAmgFilterDat
 70
    15
  1
*
  2
AM_FEA-AM_*
  3
*
  4
*
  5
*
290
     1
  0
ACAMGFILTERDAT
  5
148C
102
{ACAD_REACTORS
330
148B
102
}
330
148B
100
AcAmgFilterDat
 70
    15
  1
HATCH
  2
*
  3
*
  4
*
  5
*
290
     1
  0
ACAMGFILTERDAT
  5
148D
102
{ACAD_REACTORS
330
148B
102
}
330
148B
100
AcAmgFilterDat
 70
    15
  1
LINE
  2
8,8N,*-8,*-8N,AM_8,AM_8N,*-AM_8,*-AM_8N
  3
*
  4
*
  5
INSERT,STDPART2D
290
     1
  0
ACAMGFILTERDAT
  5
1491
102
{ACAD_REACTORS
330
148B
102
}
330
148B
100
AcAmgFilterDat
 70
    15
  1
ARC
  2
AM_5
  3
*
  4
2
  5
INSERT
290
     0
  0
ACAMGFILTERDAT
  5
148E
102
{ACAD_REACTORS
330
148B
102
}
330
148B
100
AcAmgFilterDat
 70
    15
  1
ACMFCFRAME,ACMDATUMTARGET,ACMDATUMID,ACMWELDSYM,ACMSURFSYM,ACMFEATID,ACMPARTREF,ACMBALLOON,AMDTEDGESYM,AMGSCREWCALCTABLE
  2
*
  3
*
  4
*
  5
*
290
     1
  0
LAYER_INDEX
  5
1653
102
{ACAD_REACTORS
330
1652
102
}
330
1652
100
AcDbIndex
 40
2455888.763959595
100
AcDbLayerIndex
  8
0
360
1654
 90
        0
  8
Defpoints
360
1655
 90
        0
  8
SIZE
360
1656
 90
        7
  8
OUTLINE
360
1657
 90
      310
  8
BASIS
360
1658
 90
        2
  8
NOTE
360
1659
 90
       61
  8
ARRANGE
360
165A
 90
        3
  8
ETC
360
165B
 90
        1
  0
DICTIONARY
  5
1F5E
330
16
100
AcDbDictionary
280
     1
281
     1
  3
ACAD_XREC_ROUNDTRIP
360
1F5F
  0
DICTIONARY
  5
1C
330
1B
100
AcDbDictionary
280
     1
281
     1
  3
ACAD_XREC_ROUNDTRIP
360
1F60
  3
ADSK_XREC_LAYOUTTHUMBNAIL
360
1D
  0
DICTIONARY
  5
46
330
45
100
AcDbDictionary
280
     1
281
     1
  3
ACAD_XREC_ROUNDTRIP
360
B71
  3
BUMPTILE
360
47
  3
DIFFUSETILE
360
48
  3
OPACITYTILE
360
49
  3
REFLECTIONTILE
360
4A
  3
REFRACTIONTILE
360
4B
  3
SPECULARTILE
360
4C
  0
DICTIONARY
  5
3E
330
3D
100
AcDbDictionary
280
     1
281
     1
  3
ACAD_XREC_ROUNDTRIP
360
B70
  3
BUMPTILE
360
3F
  3
DIFFUSETILE
360
40
  3
OPACITYTILE
360
41
  3
REFLECTIONTILE
360
42
  3
REFRACTIONTILE
360
43
  3
SPECULARTILE
360
44
  0
DICTIONARY
  5
D
330
B
100
AcDbDictionary
280
     1
281
     1
  3
ACAD_XREC_ROUNDTRIP
360
B69
  3
BUMPTILE
360
E
  3
DIFFUSETILE
360
F
  3
OPACITYTILE
360
10
  3
REFLECTIONTILE
360
11
  3
REFRACTIONTILE
360
12
  3
SPECULARTILE
360
13
  0
DICTIONARY
  5
B00
330
54
100
AcDbDictionary
280
     1
281
     1
  3
ACAD_ROUNDTRIP_2008_TABLESTYLE_CELLSTYLEMAP
360
1F59
  3
ACAD_XREC_ROUNDTRIP
360
1F61
  0
IDBUFFER
  5
1654
330
0
100
AcDbIdBuffer
  0
IDBUFFER
  5
1655
330
0
100
AcDbIdBuffer
  0
IDBUFFER
  5
1656
330
0
100
AcDbIdBuffer
330
1D1F
330
1D2C
330
1D39
330
1D46
330
1D53
330
1D60
330
1D6D
  0
IDBUFFER
  5
1657
330
0
100
AcDbIdBuffer
330
1B9E
330
1B9F
330
1BA0
330
1BA1
330
1BA2
330
1BA3
330
1BA4
330
1BA5
330
1BA6
330
1BA7
330
1BA8
330
1BA9
330
1BAA
330
1BAB
330
1BAC
330
1BAD
330
1BAE
330
1BAF
330
1BB0
330
1BB1
330
1BB2
330
1BB3
330
1BB4
330
1BB5
330
1BB6
330
1BB7
330
1BB8
330
1BB9
330
1BBA
330
1BBB
330
1BBC
330
1BBD
330
1BBE
330
1BBF
330
1BC0
330
1BC1
330
1BC2
330
1BC3
330
1BC4
330
1BC5
330
1BC6
330
1BC7
330
1BC8
330
1BC9
330
1BCA
330
1BCB
330
1BCC
330
1BCD
330
1BCE
330
1BCF
330
1BD0
330
1BD1
330
1BD2
330
1BD3
330
1BD4
330
1BD5
330
1BD6
330
1BD7
330
1BD8
330
1BD9
330
1BDA
330
1BDB
330
1BDC
330
1BDD
330
1BDE
330
1BDF
330
1BE0
330
1BE1
330
1BE2
330
1BE3
330
1BE4
330
1BE5
330
1BE6
330
1BE7
330
1BE8
330
1BE9
330
1BEA
330
1BEB
330
1BEC
330
1BED
330
1BEE
330
1BEF
330
1BF0
330
1BF1
330
1BF2
330
1BF3
330
1BF4
330
1BF5
330
1BF6
330
1BF7
330
1BF8
330
1BF9
330
1BFA
330
1BFB
330
1BFC
330
1BFD
330
1BFE
330
1BFF
330
1C00
330
1C01
330
1C02
330
1C03
330
1C04
330
1C05
330
1C06
330
1C07
330
1C08
330
1C09
330
1C0A
330
1C0B
330
1C0C
330
1C0D
330
1C0E
330
1C0F
330
1C10
330
1C11
330
1C12
330
1C13
330
1C14
330
1C15
330
1C16
330
1C17
330
1C18
330
1C19
330
1C1A
330
1C1B
330
1C1C
330
1C1D
330
1C1E
330
1C1F
330
1C20
330
1C21
330
1C22
330
1C23
330
1C24
330
1C25
330
1C26
330
1C27
330
1C28
330
1C29
330
1C2A
330
1C2B
330
1C2C
330
1C2D
330
1C2E
330
1C2F
330
1C30
330
1C31
330
1C32
330
1C33
330
1C34
330
1C35
330
1C36
330
1C37
330
1C38
330
1C39
330
1C3A
330
1C3B
330
1C3C
330
1C3D
330
1C3E
330
1C3F
330
1C40
330
1C41
330
1C42
330
1C43
330
1C44
330
1C45
330
1C46
330
1C47
330
1C48
330
1C49
330
1C4A
330
1C4B
330
1C4C
330
1C4D
330
1C4E
330
1C4F
330
1C50
330
1C51
330
1C52
330
1C53
330
1C54
330
1C55
330
1C56
330
1C57
330
1C58
330
1C59
330
1C5A
330
1C5B
330
1C5C
330
1C5D
330
1C5E
330
1C5F
330
1C60
330
1C61
330
1C62
330
1C63
330
1C64
330
1C65
330
1C66
330
1C67
330
1C68
330
1C69
330
1C6A
330
1C6B
330
1C6C
330
1C6D
330
1C6E
330
1C6F
330
1C70
330
1C71
330
1C72
330
1C73
330
1C74
330
1C75
330
1C76
330
1C77
330
1C78
330
1C79
330
1C7A
330
1C7B
330
1C7C
330
1C7D
330
1C7E
330
1C7F
330
1C80
330
1C81
330
1C82
330
1C83
330
1C84
330
1C85
330
1C86
330
1C87
330
1C88
330
1C89
330
1C8A
330
1C8B
330
1C8C
330
1C8D
330
1C8E
330
1C8F
330
1C90
330
1C91
330
1C92
330
1C93
330
1C94
330
1C95
330
1C96
330
1C97
330
1C98
330
1C99
330
1C9A
330
1C9B
330
1C9C
330
1C9D
330
1C9E
330
1C9F
330
1CA0
330
1CA1
330
1CA2
330
1CA3
330
1CA4
330
1CA5
330
1CA6
330
1CA7
330
1CA8
330
1CA9
330
1CAA
330
1CAB
330
1CAC
330
1CAD
330
1CAE
330
1CAF
330
1CB0
330
1CB1
330
1CB2
330
1CB3
330
1CB4
330
1CB5
330
1CB6
330
1CB7
330
1CB8
330
1CB9
330
1CBA
330
1CBB
330
1CBC
330
1CBD
330
1CBE
330
1CBF
330
1CC0
330
1CC1
330
1CC2
330
1CC3
330
1CC4
330
1CC5
330
1CC6
330
1CC7
330
1CC8
330
1CC9
330
1CCA
330
1CCB
330
1CCC
330
1CCD
330
1CCE
330
1CCF
330
1CD0
330
1CD1
330
1CD2
330
1CD3
  0
IDBUFFER
  5
1658
330
0
100
AcDbIdBuffer
330
1D1A
330
1D1D
  0
IDBUFFER
  5
1659
330
0
100
AcDbIdBuffer
330
1CD4
330
1CD5
330
1CD6
330
1CD7
330
1CD8
330
1CD9
330
1CDA
330
1CDB
330
1CDC
330
1CDD
330
1CDE
330
1CDF
330
1CE0
330
1CE1
330
1CE2
330
1CE3
330
1CE4
330
1CE5
330
1CE6
330
1CE7
330
1CE8
330
1CE9
330
1CEA
330
1CEB
330
1CEC
330
1CED
330
1CEE
330
1CEF
330
1CF0
330
1CF1
330
1CF2
330
1CF3
330
1CF4
330
1CF5
330
1CF6
330
1CF7
330
1CF8
330
1CF9
330
1CFA
330
1CFB
330
1CFC
330
1CFD
330
1CFE
330
1CFF
330
1D00
330
1D01
330
1D02
330
1D03
330
1D04
330
1D05
330
1D06
330
1D07
330
1D08
330
1D09
330
1D0A
330
1D0B
330
1D0C
330
1D0D
330
1D0E
330
1D0F
330
1D7A
  0
IDBUFFER
  5
165A
330
0
100
AcDbIdBuffer
330
1D1B
330
1D1C
330
1D1E
  0
IDBUFFER
  5
165B
330
0
100
AcDbIdBuffer
330
B60
  0
XRECORD
  5
1F5F
102
{ACAD_REACTORS
330
1F5E
102
}
330
1F5E
100
AcDbXrecord
280
     1
102
SHADEPLOT
 70
     0
102
SHADEPLOTRESLEVEL
 70
     2
102
SHADEPLOTCUSTOMDPI
 70
   300
  0
XRECORD
  5
1F60
102
{ACAD_REACTORS
330
1C
102
}
330
1C
100
AcDbXrecord
280
     1
102
SHADEPLOT
 70
     0
102
SHADEPLOTRESLEVEL
 70
     2
102
SHADEPLOTCUSTOMDPI
 70
   300
  0
XRECORD
  5
1D
102
{ACAD_REACTORS
330
1C
102
}
330
1C
100
AcDbXrecord
280
     1
310
28000000B4000000870000000100080000000000EC5E0000000000000000000000010000000000000000000000000000FFFFFF000000000000000000000000000000000000000000000000000000000000000000330000006600000099000000CC000000FF00000000330000333300006633000099330000CC330000FF3300
310
0000660000336600006666000099660000CC660000FF66000000990000339900006699000099990000CC990000FF99000000CC000033CC000066CC000099CC0000CCCC0000FFCC000000FF000033FF000066FF000099FF0000CCFF0000FFFF000000003300330033006600330099003300CC003300FF003300003333003333
310
33006633330099333300CC333300FF33330000663300336633006666330099663300CC663300FF66330000993300339933006699330099993300CC993300FF99330000CC330033CC330066CC330099CC3300CCCC3300FFCC330000FF330033FF330066FF330099FF3300CCFF3300FFFF330000006600330066006600660099
310
006600CC006600FF00660000336600333366006633660099336600CC336600FF33660000666600336666006666660099666600CC666600FF66660000996600339966006699660099996600CC996600FF99660000CC660033CC660066CC660099CC6600CCCC6600FFCC660000FF660033FF660066FF660099FF6600CCFF6600
310
FFFF660000009900330099006600990099009900CC009900FF00990000339900333399006633990099339900CC339900FF33990000669900336699006666990099669900CC669900FF66990000999900339999006699990099999900CC999900FF99990000CC990033CC990066CC990099CC9900CCCC9900FFCC990000FF99
310
0033FF990066FF990099FF9900CCFF9900FFFF99000000CC003300CC006600CC009900CC00CC00CC00FF00CC000033CC003333CC006633CC009933CC00CC33CC00FF33CC000066CC003366CC006666CC009966CC00CC66CC00FF66CC000099CC003399CC006699CC009999CC00CC99CC00FF99CC0000CCCC0033CCCC0066CC
310
CC0099CCCC00CCCCCC00FFCCCC0000FFCC0033FFCC0066FFCC0099FFCC00CCFFCC00FFFFCC000000FF003300FF006600FF009900FF00CC00FF00FF00FF000033FF003333FF006633FF009933FF00CC33FF00FF33FF000066FF003366FF006666FF009966FF00CC66FF00FF66FF000099FF003399FF006699FF009999FF00CC
310
99FF00FF99FF0000CCFF0033CCFF0066CCFF0099CCFF00CCCCFF00FFCCFF0000FFFF0033FFFF0066FFFF0099FFFF00CCFFFF00FFFFFF00000000000D0D0D001A1A1A00282828003535350043434300505050005D5D5D006B6B6B00787878008686860093939300A1A1A100AEAEAE00BBBBBB00C9C9C900D6D6D600E4E4E400
310
F1F1F100FFFFFF0000000000000000000000000000000000000000000000000000000000000000000000000000000000E2E2E2E2E2E2E2E2E2E2E2E2E2E2E2E2E2E2E2E2E2E2E2E2E2E2E2E2E2E2E2E2E2E2E2E2E2E2E2E2E2E2E2E2E2E2E2E2E2E2E2E2E2E2E2E2E2E2E2E2E2E2E2E2E2E2E2E2E2E2E2E2E2E2E2E2E2E2E2
310
E2E2E2E2E2E2E2E2E2E2E2E2E2E2E2E2E2E2E2E2E2E2E2E2E2E2E2E2E2E2E2E2E2E2E2E2E2E2E2E2E2E2E2E2E2E2E2E2E2E2E2E2E2E2E2E2E2E2E2E2E2E2E2E2E2E2E2E2E2E2E2E2E2E2E2E2E2E2E2E2E2E2E2E2E2E2E2E2E2E2E2E2E2E2E2E2E2E2E2E2E2E2E2E2E2E2E2E2E2E2E2E2E2E2E2E2E2E2E2E2E2E2E2E2E2E2E2
310
E2E2E2E2E2E2E2E2E2E2E2E2E2E2E2E2E2E2E2E2E2E2E2E2E2E2E2E2E2E2E2E2E2E2E2E2E2E2E2E2E2E2E2E2E2E2E2E2E2E2E2E2E2E2E2E2E2E2E2E2E2E2E2E2E2E2E2E2E2E2E2E2E2E2E2E2E2E2E2E2E2E2E2E2E2E2E2E2E2E2E2E2E2E2E2E2E2E2E2E2E2E2E2E2E2E2E2E2E2E2E2E2E2E2E2E2E2E2E2E2E2E2E2E2E2E2E2
310
E2E2E2E2E2E2E2E2E2E2E2E2E2E2E2E2E2E2E2E2E2E2E2E2E2E2E2E2E2E2E2E2E2E2E2E2E2E2E2E2E2E2E2E2E2E2E2E2E2E2E2E2E2E2E2E2E2E2E2E2E2E2E2E2E2E2E2E2E2E2E2E2E2E2E2E2E2E2E2E2E2E2E2E2E2E2E2E2E2E2E2E2E2E2E2E2E2E2E2E2E2E2E2E2E2E2E2E2E2E2E2E2E2E2E2E2E2E2E2E2E2E2E2E2E2E2E2
310
E2E2E2E2E2E2E2E2E2E2E2E2E2E2E2E2E2E2E2E2E2E2E2E2E2E2E2E2E2E2E2E2E2E2E2E2E2E2E2E2E2E2E2E2E2E2E2E2E2E2E2E2E2E2E2E2E2E2E2E2E2E2E2E2E2E2E2E2E2E2E2E2E2E2E2E2E2E2E2E2E2E2E2E2E2E2E2E2E2E2E2E2E2E2E2E2E2E2E2E2E2E2E2E2E2E2E2E2E2E2E2E2E2E2E2E2E2E2E2E2E2E2E2E2E2E2E2
310
E2E2E2E2E2E2E2E2E2E2E2E2E2E2E2E2E2E2E2E2E2E2E2E2E2E2E2E2E2E2E2E2E2E2E2E2E2E2E2E2E2E2E2E2E2E2E2E2E2E2E2E2E2E2E2E2E2E2E2E2E2E2E2E2E2E2E2E2E2E2E2E2E2E2E2E2E2E2E2E2E2E2E2E2E2E2E2E2E2E2E2E2E2E2E2E2E2E2E2E2E2E2E2E2E2E2E2E2E2E2E2E2E2E2E2E2E2E2E2E2E2E2E2E2E2E2E2
310
E2E2E2E2E2E2E2E2E2E2E2E2E2E2E2E2E2E2E2E2E2E2E2E2E2E2E2E2E2E2E2E2E2E2E2E2E2E2E2E2E2E2E2E2E2E2E2E2E2E2E2E2E2E2E2E2E2E2E2E2E2E2E2E2E2E2E2E2E2E2E2E2E2E2E2E2E2E2E2E2E2E2E2E2E2E2E2E2E2E2E2E2E2E2E2E2E2E2E2E2E2E2E2E2E2E2E2E2E2E2E2E2E2E2E2E2E2E2E2E2E2E2E2E2E2E2E2
310
E2E2E2E2E2E2E2E2E2E2E2E2E2E2E2E2E2E2E2E2E2E2E2E2E2E2E2E2E2E2E2E2E2E2E2E2E2E2E2E2E2E2E2E2E2E2E2E2E2E2E2E2E2E2E2E2E2E2E2E2E2E2E2E2E2E2E2E2E2E2E2E2E2E2E2E2E2E2E2E2E2E2E2E2E2E2E2E2E2E2E2E2E2E2E2E2E2E2E2E2E2E2E2E2E2E2E2E2E2E2E2E2E2E2E2E2E2E2E2E2E2E2E2E2E2E2E2
310
E2E2E2E2E2E2E2E2E2E2E2E2E2E2E2E2E2E2E2E2E2E2E2E2E2E2E2E2E2E2E2E2E2E2E2E2E2E2E2E2E2E2E2E2E2E2E2E2E2E2E2E2E2E2E2E2E2E2E2E2E2E2E2E2E2E2E2E2E2E2E2E2E2E2E2E2E2E2E2E2E2E2E2E2E2E2E2E2E2E2E2E2E2E2E2E2E2E2E2E2E2E2E2E2E2E2E2E2E2E2E2E2E2E2E2E2E2E2E2E2E2E2E2E2E2E2E2
310
E2E2E2E2E2E2E2E2E2E2E2E2E2E2E2E2E2E2E2E2E2E2E2E2E2E2E2E2E2E2E2E2E2E2E2E2E2E2E2E2E2E2E2E2E2E2E2E2E2E2E2E2E2E2E2E2E2E2E2E2E2E2E2E2E2E2E2E2E2E2E2E2E2E2E2E2E2E2E2E2E2E2E2E2E2E2E2E2E2E2E2E2E2E2E2E2E2E2E2E2E2E2E2E2E2E2E2E2E2E2E2E2E2E2E2E2E2E2E2E2E2E2E2E2E2E2E2
310
E2E2E2E2E2E2E2E2E2E2E2E2E2E2E2E2E2E2E2E2E2E2E2E2E2E2E2E2E2E2E2E2E2E2E2E2E2E2E2E2E2E2E2E2E2E2E2E2E2E2E2E2E2E2E2E2E2E2E2E2E2E2E2E2E2E2E2E2E2E2E2E2E2E2E2E2E2E2E2E2E2E2E2E2E2E2E2E2E2E2E2E2E2E2E2E2E2E2E2E2E2E2E2E2E2E2E2E2E2E2E2E2E2E2E2E2E2E2E2E2E2E2E2E2E2E2E2
310
E2E2E2E2E2E2E2E2E2E2E2E2E2E2E2E2E2E2E2E2E2E2E2E2E2E2E2E2E2E2E2E2E2E2E2E2E2E2E2E2E2E2E2E2E2E2E2E2E2E2E2E2E2E2E2E2E2E2E2E2E2E2E2E2E2E2E2E2E2E2E2E2E2E2E2E2E2E2E2E2E2E2E2E2E2E2E2E2E2E2E2E2E2E2E2E2E2E2E2E2E2E2E2E2E2E2E2E2E2E2E2E2E2E2E2E2E2E2E2E2E2E2E2E2E2E2E2
310
E2E2E2E2E2E2E2E2E2E2E2E2E2E2E2E2E2E2E2E2E2E2E2E2E2E2E2E2E2E2E2E2E2E2E2E2E2E2E2E2E2E2E2E2E2E2E2E2E2E2E2E2E2E2E2E2E2E2E2E2E2E2E2E2E2E2E2E2E2E2E2E2E2E2E2E2E2E2E2E2E2E2E2E2E2E2E2E2E2E2E2E2E2E2E2E2E2E2E2E2E2E2E2E2E2E2E2E2E2E2E2E2E2E2E2E2E2E2E2E2E2E2E2E2E2E2E2
310
E2E2E2E2E2E2E2E2E2E2E2E2E2E2E2E2E2E2E2E2E2E2E2E2E2E2E2E2E2E2E2E2E2E2E2E2E2E2E2E2E2E2E2E2E2E2E2E2E2E2E2E2E2E2E2E2E2E2E2E2E2E2E2E2E2E2E2E2E2E2E2E2E2E2E2E2E2E2E2E2E2E2E2E2E2E2E2E2E2E2E2E2E2E2E2E2E2E2E2E2E2E2E2E2E2E2E2E2E2E2E2E2E2E2E2E2E2E2E2E2E2E2E2E2E2E2E2
310
E2E2E2E2E2E2E2E2E2E2E2E2E2E2E2E2E2E2E2E2E2E2E2E2E2E2E2E2E2E2E2E2E2E2E2E2E2E2E2E2E2E2E2E2E2E2E2E2E2E2E2E2E2E2E2E2E2E2E2E2E2E2E2E2E2E2E2E2E2E2E2E2E2E2E2E2E2E2E2E2E2E2E2E2E2E2E2E2E2E2E2E2E2E2E2E2E2E2E2E2E2E2E2E2E2E2E2E2E2E2E2E2E2E2E2E2E2E2E2E2E2E2E2E2E2E2E2
310
E2E2E2E2E2E2E2E2E2E2E2E2E2E2E2E2E2E2E2E2E2E2E2E2E2E2E2E2E2E2E2E2E2E2E2E2E2E2E2E2E2E2E2E2E2E2E2E2E2E2E2E2E2E2E2E2E2E2E2E2E2E2E2E2E2E2E2E2E2E2E2E2E2E2E2E2E2E2E2E2E2E2E2E2E2E2E2E2E2E2E2E2E2E2E2E2E2E2E2E2E2E2E2E2E2E2E2E2E2E2E2E2E2E2E2E2E2E2E2E2E2E2E2E2E2E2E2
310
E2E2E2E2E2E2E2E2E2E2E2E2E2E2E2E2E2E2E2E2E2E2E2E2E2E2E2E2E2E2E2E2E2E2E2E2E2E2E2E2E2E2E2E2E2E2E2E2E2E2E2E2E2E2E2E2E2E2E2E2E2E2E2E2E2E2E2E2E2E2E2E2E2E2E2E2E2E2E2E2E2E2E2E2E2E2E2E2E2E2E2E2E2E2E2E2E2E2E2E2E2E2E2E2E2E2E2E2E2E2E2E2E2E2E2E2E2E2E2E2E2E2E2E2E2E2E2
310
E2E2E2E2E2E2E2E2E2E2E2E2E2E2E2E2E2E2E2E2E2E2E2E2E2E2E2E2E2E2E2E2E2E2E2E2E2E2E2E2E2E2E2E2E2E2E2E2E2E2E2E2E2E2E2E2E2E2E2E2E2E2E2E2E2E2E2E2E2E2E2E2E2E2E2E2E2E2E2E2E2E2E2E2E2E2E2E2E2E2E2E2E2E2E2E2E2E2E2E2E2E2E2E2E2E2E2E2E2E2E2E2E2E2E2E2E2E2E2E2E2E2E2E2E2E2E2
310
E2E2E2E2E2E2E2E2E2E2E2E2E2E2E2E2E2E2E2E2E2E2E2E2E2E2E2E2E2E2E2E2E2E2E2E2E2E2E2E2E2E2E2E2E2E2E2E2E2E2E2E2E2E2E2E2E2E2E2E2E2E2E2E2E2E2E2E2E2E2E2E2E2E2E2E2E2E2E2E2E2E2E2E2E2E2E2E2E2E2E2E2E2E2E2E2E2E2E2E2E2E2E2E2E2E2E2E2E2E2E2E2E2E2E2E2E2E2E2E2E2E2E2E2E2E2E2
310
E2E2E2E2E2E2E2E2E2E2E2E2E2E2E2E2E2E2E2E2E2E2E2E2E2E2E2E2E2E2E2E2E2E2E2E2E2E2E2E2E2E2E2E2E2E2E2E2E2E2E2E2E2E2E2E2E2E2E2E2E2E2E2E2E2E2E2E2E2E2E2E2E2E2E2E2E2E2E2E2E2E2E2E2E2E2E2E2E2E2E2E2E2E2E2E2E2E2E2E2E2E2E2E2E2E2E2E2E2E2E2E2E2E2E2E2E2E2E2E2E2E2E2E2E2E2E2
310
E2E2E2E2E2E2E2E2E2E2E2E2E2E2E2E2E2E2E2E2E2E2E2E2E2E2E2E2E2E2E2E2E2E2E2E2E2E2E2E2E2E2E2E2E2E2E2E2E2E2E2E2E2E2E2E2E2E2E2E2E2E2E2E2E2E2E2E2E2E2E2E2E2E2E2E2E2E2E2E2E2E2E2E2E2E2E2E2E2E2E2E2E2E2E2E2E2E2E2E2E2E2E2E2E2E2E2E2E2E2E2E2E2E2E2E2E2E2E2E2E2E2E2E2E2E2E2
310
E2E2E2E2E2E2E2E2E2E2E2E2E2E2E2E2E2E2E2E2E2E2E2E2E2E2E2E2E2E2E2E2E2E2E2E2E2E2E2E2E2E2E2E2E2E2E2E2E2E2E2E2E2E2E2E2E2E2E2E2E2E2E2E2E2E2E2E2E2E2E2E2E2E2E2E2E2E2E2E2E2E2E2E2E2E2E2E2E2E2E2E2E2E2E2E2E2E2E2E2E2E2E2E2E2E2E2E2E2E2E2E2E2E2E2E2E2E2E2E2E2E2E2E2E2E2E2
310
E2E2E2E2E2E2E2E2E2E2E2E2E2E2E2E2E2E2E2E2E2E2E2E2E2E2E2E2E2E2E2E2E2E2E2E2E2E2E2E2E2E2E2E2E2E2E2E2E2E2E2E2E2E2E2E2E2E2E2E2E2E2E2E2E2E2E2E2E2E2E2E2E2E2E2E2E2E2E2E2E2E2E2E2E2E2E2E2E2E2E2E2E2E2E2E2E2E2E2E2E2E2E2E2E2E2E2E2E2E2E2E2E2E2E2E2E2E2E2E2E2E2E2E2E2E2E2
310
E2E2E2E2E2E2E2E2E2E2E2E2E2E2E2E2E2E2E2E2E2E2E2E2E2E2E2E2E2E2E2E2E2E2E2E2E2E2E2E2E2E2E2E2E2E2E2E2E2E2E2E2E2E2E2E2E2E2E2E2E2E2E2E2E2E2E2E2E2E2E2E2E2E2E2E2E2E2E2E2E2E2E2E2E2E2E2E2E2E2E2E2E2E2E2E2E2E2E2E2E2E2E2E2E2E2E2E2E2E2E2E2E2E2E2E2E2E2E2E2E2E2E2E2E2E2E2
310
E2E2E2E2E2E2E2E2E2E2E2E2E2E2E2E2E2E2E2E2E2E2E2E2E2E2E2E2E2E2E2E2E2E2E2E2E2E2E2E2E2E2E2E2E2E2E2E2E2E2E2E2E2E2E2E2E2E2E2E2E2E2E2E2E2E2E2E2E2E2E2E2E2E2E2E2E2E2E2E2E2E2E2E2E2E2E2E2E2E2E2E2E2E2E2E2E2E2E2E2E2E2E2E2E2E2E2E2E2E2E2E2E2E2E2E2E2E2E2E2E2E2E2E2E2E2E2
310
E2E2E2E2E2E2E2E2E2E2E2E2E2E2E2E2E2E2E2E2E2E2E2E2E2E2E2E2E2E2E2E2E2E2E2E2E2E2E2E2E2E2E2E2E2E2E2E2E2E2E2E2E2E2E2E2E2E2E2E2E2E2E2E2E2E2E2E2E2E2E2E2E2E2E2E2E2E2E2E2E2E2E2E2E2E2E2E2E2E2E2E2E2E2E2E2E2E2E2E2E2E2E2E2E2E2E2E2E2E2E2E2E2E2E2E2E2E2E2E2E2E2E2E2E2E2E2
310
E2E2E2E2E2E2E2E2E2E2E2E2E2E2E2E2E2E2E2E2E2E2E2E2E2E2E2E2E2E2E2E2E2E2E2E2E2E2E2E2E2E2E2E2E2E2E2E2E2E2E2E2E2E2E2E2E2E2E2E2E2E2E2E2E2E2E2E2E2E2E2E2E2E2E2E2E2E2E2E2E2E2E2E2E2E2E2E2E2E2E2E2E2E2E2E2E2E2E2E2E2E2E2E2E2E2E2E2E2E2E2E2E2E2E2E2E2E2E2E2E2E2E2E2E2E2E2
310
E2E2E2E2E2E2E2E2E2E2E2E2E2E2E2E2E2E2E2E2E2E2E2E2E2E2E2E2E2E2E2E2E2E2E2E2E2E2E2E2E2E2E2E2E2E2E2E2E2E2E2E2E2E2E2E2E2E2E2E2E2E2E2E2E2E2E2E2E2E2E2E2E2E2E2E2E2E2E2E2E2E2E2E2E2E2E2E2E2E2E2E2E2E2E2E2E2E2E2E2E2E2E2E2E2E2E2E2E2E2E2E2E2E2E2E2E2E2E2E2E2E2E2E2E2E2E2
310
E2E2E2E2E2E2E2E2E2E2E2E2E2E2E2E2E2E2E2E2E2E2E2E2E2E2E2E2E2E2E2E2E2E2E2E2E2E2E2E2E2E2E2E2E2E2E2E2E2E2E2E2E2E2E2E2E2E2E2E2E2E2E2E2E2E2E2E2E2E2E2E2E2E2E2E2E2E2E2E2E2E2E2E2E2E2E2E2E2E2E2E2E2E2E2E2E2E2E2E2E2E2E2E2E2E2E2E2E2E2E2E2E2E2E2E2E2E2E2E2E2E2E2E2E2E2E2
310
E2E2E2E2E2E2E2E2E2E2E2E2E2E2E2E2E2E2E2E2E2E2E2E2E2E2E2E2E2E2E2E2E2E2E2E2E2E2E2E2E2E2E2E2E2E2E2E2E2E2E2E2E2E2E2E2E2E2E2E2E2E2E2E2E2E2E2E2E2E2E2E2E2E2E2E2E2E2E2E2E2E2E2E2E2E2E2E2E2E2E2E2E2E2E2E2E2E2E2E2E2E2E2E2E2E2E2E2E2E2E2E2E2E2E2E2E2E2E2E2E2E2E2E2E2E2E2
310
E2E2E2E2E2E2E2E2E2E2E2E2E2E2E2E2E2E2E2E2E2E2E2E2E2E2E2E2E2E2E2E2E2E2E2E2E2E2E2E2E2E2E2E2E2E2E2E2E2E2E2E2E2E2E2E2E2E2E2E2E2E2E2E2E2E2E2E2E2E2E2E2E2E2E2E2E2E2E2E2E2E2E2E2E2E2E2E2E2E2E2E2E2E2E2E2E2E2E2E2E2E2E2E2E2E2E2E2E2E2E2E2E2E2E2E2E2E2E2E2E2E2E2E2E2E2E2
310
E2E2E2E2E2E2E2E2E2E2E2E2E2E2E2E2E2E2E2E2E2E2E2E2E2E2E2E2E2E2E2E2E2E2E2E2E2E2E2E2E2E2E2E2E2E2E2E2E2E2E2E2E2E2E2E2E2E2E2E2E2E2E2E2E2E2E2E2E2E2E2E2E2E2E2E2E2E2E2E2E2E2E2E2E2E2E2E2E2E2E2E2E2E2E2E2E2E2E2E2E2E2E2E2E2E2E2E2E2E2E2E2E2E2E2E2E2E2E2E2E2E2E2E2E2E2E2
310
E2E2E2E2E2E2E2E2E2E2E2E2E2E2E2E2E2E2E2E2E2E2E2E2E2E2E2E2E2E2E2E2E2E2E2E2E2E2E2E2E2E2E2E2E2E2E2E2E2E2E2E2E2E2E2E2E2E2E2E2E2E2E2E2E2E2E2E2E2E2E2E2E2E2E2E2E2E2E2E2E2E2E2E2E2E2E2E2E2E2E2E2E2E2E2E2E2E2E2E2E2E2E2E2E2E2E2E2E2E2E2E2E2E2E2E2E2E2E2E2E2E2E2E2E2E2E2
310
E2E2E2E2E2E2E2E2E2E2E2E2E2E2E2E2E2E2E2E2E2E2E2E2E2E2E2E2E2E2E2E2E2E2E2E2E2E2E2E2E2E2E2E2E2E2E2E2E2E2E2E2E2E2E2E2E2E2E2E2E2E2E2E2E2E2E2E2E2E2E2E2E2E2E2E2E2E2E2E2E2E2E2E2E2E2E2E2E2E2E2E2E2E2E2E2E2E2E2E2E2E2E2E2E2E2E2E2E2E2E2E2E2E2E2E2E2E2E2E2E2E2E2E2E2E2E2
310
E2E2E2E2E2E2E2E2E2E2E2E2E2E2E2E2E2E2E2E2E2E2E2E2E2E2E2E2E2E2E2E2E2E2E2E2E2E2E2E2E2E2E2E2E2E2E2E2E2E2E2E2E2E2E2E2E2E2E2E2E2E2E2E2E2E2E2E2E2E2E2E2E2E2E2E2E2E2E2E2E2E2E2E2E2E2E2E2E2E2E2E2E2E2E2E2E2E2E2E2E2E2E2E2E2E2E2E2E2E2E2E2E2E2E2E2E2E2E2E2E2E2E2E2E2E2E2
310
E2E2E2E2E2E2E2E2E2E2E2E2E2E2E2E2E2E2E2E2E2E2E2E2E2E2E2E2E2E2E2E2E2E2E2E2E2E2E2E2E2E2E2E2E2E2E2E2E2E2E2E2E2E2E2E2E2E2E2E2E2E2E2E2E2E2E2E2E2E2E2E2E2E2E2E2E2E2E2E2E2E2E2E2E2E2E2E2E2E2E2E2E2E2E2E2E2E2E2E2E2E2E2E2E2E2E2E2E2E2E2E2E2E2E2E2E2E2E2E2E2E2E2E2E2E2E2
310
E2E2E2E2E2E2E2E2E2E2E2E2E2E2E2E2E2E2E2E2E2E2E2E2E2E2E2E2E2E2E2E2E2E2E2E2E2E2E2E2E2E2E2E2E2E2E2E2E2E2E2E2E2E2E2E2E2E2E2E2E2E2E2E2E2E2E2E2E2E2E2E2E2E2E2E2E2E2E2E2E2E2E2E2E2E2E2E2E2E2E2E2E2E2E2E2E2E2E2E2E2E2E2E2E2E2E2E2E2E2E2E2E2E2E2E2E2E2E2E2E2E2E2E2E2E2E2
310
E2E2E2E2E2E2E2E2E2E2E2E2E2E2E2E2E2E2E2E2E2E2E2E2E2E2E2E2E2E2E2E2E2E2E2E2E2E2E2E2E2E2E2E2E2E2E2E2E2E2E2E2E2E2E2E2E2E2E2E2E2E2E2E2E2E2E2E2E2E2E2E2E2E2E2E2E2E2E2E2E2E2E2E2E2E2E2E2E2E2E2E2E2E2E2E2E2E2E2E2E2E2E2E2E2E2E2E2E2E2E2E2E2E2E2E2E2E2E2E2E2E2E2E2E2E2E2
310
E2E2E2E2E2E2E2E2E2E2E2E2E2E2E2E2E2E2E2E2E2E2E2E2E2E2E2E2E2E2E2E2E2E2E2E2E2E2E2E2E2E2E2E2E2E2E2E2E2E2E2E2E2E2E2E2E2E2E2E2E2E2E2E2E2E2E2E2E2E2E2E2E2E2E2E2E2E2E2E2E2E2E2E2E2E2E2E2E2E2E2E2E2E2E2E2E2E2E2E2E2E2E2E2E2E2E2E2E2E2E2E2E2E2E2E2E2E2E2E2E2E2E2E2E2E2E2
310
E2E2E2E2E2E2E2E2E2E2E2E2E2E2E2E2E2E2E2E2E2E2E2E2E2E2E2E2E2E2E2E2E2E2E2E2E2E2E2E2E2E2E2E2E2E2E2E2E2E2E2E2E2E2E2E2E2E2E2E2E2E2E2E2E2E2E2E2E2E2E2E2E2E2E2E2E2E2E2E2E2E2E2E2E2E2E2E2E2E2E2E2E2E2E2E2E2E2E2E2E2E2E2E2E2E2E2E2E2E2E2E2E2E2E2E2E2E2E2E2E2E2E2E2E2E2E2
310
E2E2E2E2E2E2E2E2E2E2E2E2E2E2E2E2E2E2E2E2E2E2E2E2E2E2E2E2E2E2E2E2E2E2E2E2E2E2E2E2E2E2E2E2E2E2E2E2E2E2E2E2E2E2E2E2E2E2E2E2E2E2E2E2E2E2E2E2E2E2E2E2E2E2E2E2E2E2E2E2E2E2E2E2E2E2E2E2E2E2E2E2E2E2E2E2E2E2E2E2E2E2E2E2E2E2E2E2E2E2E2E2E2E2E2E2E2E2E2E2E2E2E2E2E2E2E2
310
E2E2E2E2E2E2E2E2E2E2E2E2E2E2E2E2E2E2E2E2E2E2E2E2E2E2E2E2E2E2E2E2E2E2E2E2E2E2E2E2E2E2E2E2E2E2E2E2E2E2E2E2E2E2E2E2E2E2E2E2E2E2E2E2E2E2E2E2E2E2E2E2E2E2E2E2E2E2E2E2E2E2E2E2E2E2E2E2E2E2E2E2E2E2E2E2E2E2E2E2E2E2E2E2E2E2E2E2E2E2E2E2E2E2E2E2E2E2E2E2E2E2E2E2E2E2E2
310
E2E2E2E2E2E2E2E2E2E2E2E2E2E2E2E2E2E2E2E2E2E2E2E2E2E2E2E2E2E2E2E2E2E2E2E2E2E2E2E2E2E2E2E2E2E2E2E2E2E2E2E2E2E2E2E2E2E2E2E2E2E2E2E2E2E2E2E2E2E2E2E2E2E2E2E2E2E2E2E2E2E2E2E2E2E2E2E2E2E2E2E2E2E2E2E2E2E2E2E2E2E2E2E2E2E2E2E2E2E2E2E2E2E2E2E2E2E2E2E2E2E2E2E2E2E2E2
310
E2E2E2E2E2E2E2E2E2E2E2E2E2E2E2E2E2E2E2E2E2E2E2E2E2E2E2E2E2E2E2E2E2E2E2E2E2E2E2E2E2E2E2E2E2E2E2E2E2E2E2E2E2E2E2E2E2E2E2E2E2E2E2E2E2E2E2E2E2E2E2E2E2E2E2E2E2E2E2E2E2E2E2E2E2E2E2E2E2E2E2E2E2E2E2E2E2E2E2E2E2E2E2E2E2E2E2E2E2E2E2E2E2E2E2E2E2E2E2E2E2E2E2E2E2E2E2
310
E2E2E2E2E2E2E2E2E2E2E2E2E2E2E2E2E2E2E2E2E2E2E2E2E2E2E2E2E2E2E2E2E2E2E2E2E2E2E2E2E2E2E2E2E2E2E2E2E2E2E2E2E2E2E2E2E2E2E2E2E2E2E2E2E2E2E2E2E2E2E2E2E2E2E2E2E2E2E2E2E2E2E2E2E2E2E2E2E2E2E2E2E2E2E2E2E2E2E2E2E2E2E2E2E2E2E2E2E2E2E2E2E2E2E2E2E2E2E2E2E2E2E2E2E2E2E2
310
E2E2E2E2E2E2E2E2E2E2E2E2E2E2E2E2E2E2E2E2E2E2E2E2E2E2E2E2E2E2E2E2E2E2E2E2E2E2E2E2E2E2E2E2E2E2E2E2E2E2E2E2E2E2E2E2E2E2E2E2E2E2E2E2E2E2E2E2E2E2E2E2E2E2E2E2E2E2E2E2E2E2E2E2E2E2E2E2E2E2E2E2E2E2E2E2E2E2E2E2E2E2E2E2E2E2E2E2E2E2E2E2E2E2E2E2E2E2E2E2E2E2E2E2E2E2E2
310
E2E2E2E2E2E2E2E2E2E2E2E2E2E2E2E2E2E2E2E2E2E2E2E2E2E2E2E2E2E2E2E2E2E2E2E2E2E2E2E2E2E2E2E2E2E2E2E2E2E2E2E2E2E2E2E2E2E2E2E2E2E2E2E2E2E2E2E2E2E2E2E2E2E2E2E2E2E2E2E2E2E2E2E2E2E2E2E2E2E2E2E2E2E2E2E2E2E2E2E2E2E2E2E2E2E2E2E2E2E2E2E2E2E2E2E2E2E2E2E2E2E2E2E2E2E2E2
310
E2E2E2E2E2E2E2E2E2E2E2E2E2E2E2E2E2E2E2E2E2E2E2E2E2E2E2E2E2E2E2E2E2E2E2E2E2E2E2E2E2E2E2E2E2E2E2E2E2E2E2E2E2E2E2E2E2E2E2E2E2E2E2E2E2E2E2E2E2E2E2E2E2E2E2E2E2E2E2E2E2E2E2E2E2E2E2E2E2E2E2E2E2E2E2E2E2E2E2E2E2E2E2E2E2E2E2E2E2E2E2E2E2E2E2E2E2E2E2E2E2E2E2E2E2E2E2
310
E2E2E2E2E2E2E2E2E2E2E2E2E2E2E2E2E2E2E2E2E2E2E2E2E2E2E2E2E2E2E2E2E2E2E2E2E2E2E2E2E2E2E2E2E2E2E2E2E2E2E2E2E2E2E2E2E2E2E2E2E2E2E2E2E2E2E2E2E2E2E2E2E2E2E2E2E2E2E2E2E2E2E2E2E2E2E2E2E2E2E2E2E2E2E2E2E2E2E2E2E2E2E2E2E2E2E2E2E2E2E2E2E2E2E2E2E2E2E2E2E2E2E2E2E2E2E2
310
E2E2E2E2E2E2E2E2E2E2E2E2E2E2E2E2E2E2E2E2E2E2E2E2E2E2E2E2E2E2E2E2E2E2E2E2E2E2E2E2E2E2E2E2E2E2E2E2E2E2E2E2E2E2E2E2E2E2E2E2E2E2E2E2E2E2E2E2E2E2E2E2E2E2E2E2E2E2E2E2E2E2E2E2E2E2E2E2E2E2E2E2E2E2E2E2E2E2E2E2E2E2E2E2E2E2E2E2E2E2E2E2E2E2E2E2E2E2E2E2E2E2E2E2E2E2E2
310
E2E2E2E2E2E2E2E2E2E2E2E2E2E2E2E2E2E2E2E2E2E2E2E2E2E2E2E2E2E2E2E2E2E2E2E2E2E2E2E2E2E2E2E2E2E2E2E2E2E2E2E2E2E2E2E2E2E2E2E2E2E2E2E2E2E2E2E2E2E2E2E2E2E2E2E2E2E2E2E2E2E2E2E2E2E2E2E2E2E2E2E2E2E2E2E2E2E2E2E2E2E2E2E2E2E2E2E2E2E2E2E2E2E2E2E2E2E2E2E2E2E2E2E2E2E2E2
310
E2E2E2E2E2E2E2E2E2E2E2E2E2E2E2E2E2E2E2E2E2E2E2E2E2E2E2E2E2E2E2E2E2E2E2E2E2E2E2E2E2E2E2E2E2E2E2E2E2E2E2E2E2E2E2E2E2E2E2E2E2E2E2E2E2E2E2E2E2E2E2E2E2E2E2E2E2E2E2E2E2E2E2E2E2E2E2E2E2E2E2E2E2E2E2E2E2E2E2E2E2E2E2E2E2E2E2E2E2E2E2E2E2E2E2E2E2E2E2E2E2E2E2E2E2E2E2
310
E2E2E2E2E2E2E2E2E2E2E2E2E2E2E2E2E2E2E2E2E2E2E2E2E2E2E2E2E2E2E2E2E2E2E2E2E2E2E2E2E2E2E2E2E2E2E2E2E2E2E2E2E2E2E2E2E2E2E2E2E2E2E2E2E2E2E2E2E2E2E2E2E2E2E2E2E2E2E2E2E2E2E2E2E2E2E2E2E2E2E2E2E2E2E2E2E2E2E2E2E2E2E2E2E2E2E2E2E2E2E2E2E2E2E2E2E2E2E2E2E2E2E2E2E2E2E2
310
E2E2E2E2E2E2E2E2E2E2E2E2E2E2E2E2E2E2E2E2E2E2E2E2E2E2E2E2E2E2E2E2E2E2E2E2E2E2E2E2E2E2E2E2E2E2E2E2E2E2E2E2E2E2E2E2E2E2E2E2E2E2E2E2E2E2E2E2E2E2E2E2E2E2E2E2E2E2E2E2E2E2E2E2E2E2E2E2E2E2E2E2E2E2E2E2E2E2E2E2E2E2E2E2E2E2E2E2E2E2E2E2E2E2E2E2E2E2E2E2E2E2E2E2E2E2E2
310
E2E2E2E2E2E2E2E2E2E2E2E2E2E2E2E2E2E2E2E2E2E2E2E2E2E2E2E2E2E2E2E2E2E2E2E2E2E2E2E2E2E2E2E2E2E2E2E2E2E2E2E2E2E2E2E2E2E2E2E2E2E2E2E2E2E2E2E2E2E2E2E2E2E2E2E2E2E2E2E2E2E2E2E2E2E2E2E2E2E2E2E2E2E2E2E2E2E2E2E2E2E2E2E2E2E2E2E2E2E2E2E2E2E2E2E2E2E2E2E2E2E2E2E2E2E2E2
310
E2E2E2E2E2E2E2E2E2E2E2E2E2E2E2E2E2E2E2E2E2E2E2E2E2E2E2E2E2E2E2E2E2E2E2E2E2E2E2E2E2E2E2E2E2E2E2E2E2E2E2E2E2E2E2E2E2E2E2E2E2E2E2E2E2E2E2E2E2E2E2E2E2E2E2E2E2E2E2E2E2E2E2E2E2E2E2E2E2E2E2E2E2E2E2E2E2E2E2E2E2E2E2E2E2E2E2E2E2E2E2E2E2E2E2E2E2E2E2E2E2E2E2E2E2E2E2
310
E2E2E2E2E2E2E2E2E2E2E2E2E2E2E2E2E2E2E2E2E2E2E2E2E2E2E2E2E2E2E2E2E2E2E2E2E2E2E2E2E2E2E2E2E2E2E2E2E2E2E2E2E2E2E2E2E2E2E2E2E2E2E2E2E2E2E2E2E2E2E2E2E2E2E2E2E2E2E2E2E2E2E2E2E2E2E2E2E2E2E2E2E2E2E2E2E2E2E2E2E2E2E2E2E2E2E2E2E2E2E2E2E2E2E2E2E2E2E2E2E2E2E2E2E2E2E2
310
E2E2E2E2E2E2E2E2E2E2E2E2E2E2E2E2E2E2E2E2E2E2E2E2E2E2E2E2E2E2E2E2E2E2E2E2E2E2E2E2E2E2E2E2E2E2E2E2E2E2E2E2E2E2E2E2E2E2E2E2E2E2E2E2E2E2E2E2E2E2E2E2E2E2E2E2E2E2E2E2E2E2E2E2E2E2E2E2E2E2E2E2E2E2E2E2E2E2E2E2E2E2E2E2E2E2E2E2E2E2E2E2E2E2E2E2E2E2E2E2E2E2E2E2E2E2E2
310
E2E2E2E2E2E2E2E2E2E2E2E2E2E2E2E2E2E2E2E2E2E2E2E2E2E2E2E2E2E2E2E2E2E2E2E2E2E2E2E2E2E2E2E2E2E2E2E2E2E2E2E2E2E2E2E2E2E2E2E2E2E2E2E2E2E2E2E2E2E2E2E2E2E2E2E2E2E2E2E2E2E2E2E2E2E2E2E2E2E2E2E2E2E2E2E2E2E2E2E2E2E2E2E2E2E2E2E2E2E2E2E2E2E2E2E2E2E2E2E2E2E2E2E2E2E2E2
310
E2E2E2E2E2E2E2E2E2E2E2E2E2E2E2E2E2E2E2E2E2E2E2E2E2E2E2E2E2E2E2E2E2E2E2E2E2E2E2E2E2E2E2E2E2E2E2E2E2E2E2E2E2E2E2E2E2E2E2E2E2E2E2E2E2E2E2E2E2E2E2E2E2E2E2E2E2E2E2E2E2E2E2E2E2E2E2E2E2E2E2E2E2E2E2E2E2E2E2E2E2E2E2E2E2E2E2E2E2E2E2E2E2E2E2E2E2E2E2E2E2E2E2E2E2E2E2
310
E2E2E2E2E2E2E2E2E2E2E2E2E2E2E2E2E2E2E2E2E2E2E2E2E2E2E2E2E2E2E2E2E2E2E2E2E2E2E2E2E2E2E2E2E2E2E2E2E2E2E2E2E2E2E2E2E2E2E2E2E2E2E2E2E2E2E2E2E2E2E2E2E2E2E2E2E2E2E2E2E2E2E2E2E2E2E2E2E2E2E2E2E2E2E2E2E2E2E2E2E2E2E2E2E2E2E2E2E2E2E2E2E2E2E2E2E2E2E2E2E2E2E2E2E2E2E2
310
E2E2E2E2E2E2E2E2E2E2E2E2E2E2E2E2E2E2E2E2E2E2E2E2E2E2E2E2E2E2E2E2E2E2E2E2E2E2E2E2E2E2E2E2E2E2E2E2E2E2E2E2E2E2E2E2E2E2E2E2E2E2E2E2E2E2E2E2E2E2E2E2E2E2E2E2E2E2E2E2E2E2E2E2E2E2E2E2E2E2E2E2E2E2E2E2E2E2E2E2E2E2E2E2E2E2E2E2E2E2E2E2E2E2E2E2E2E2E2E2E2E2E2E2E2E2E2
310
E2E2E2E2E2E2E2E2E2E2E2E2E2E2E2E2E2E2E2E2E2E2E2E2E2E2E2E2E2E2E2E2E2E2E2E2E2E2E2E2E2E2E2E2E2E2E2E2E2E2E2E2E2E2E2E2E2E2E2E2E2E2E2E2E2E2E2E2E2E2E2E2E2E2E2E2E2E2E2E2E2E2E2E2E2E2E2E2E2E2E2E2E2E2E2E2E2E2E2E2E2E2E2E2E2E2E2E2E2E2E2E2E2E2E2E2E2E2E2E2E2E2E2E2E2E2E2
310
E2E2E2E2E2E2E2E2E2E2E2E2E2E2E2E2E2E2E2E2E2E2E2E2E2E2E2E2E2E2E2E2E2E2E2E2E2E2E2E2E2E2E2E2E2E2E2E2E2E2E2E2E2E2E2E2E2E2E2E2E2E2E2E2E2E2E2E2E2E2E2E2E2E2E2E2E2E2E2E2E2E2E2E2E2E2E2E2E2E2E2E2E2E2E2E2E2E2E2E2E2E2E2E2E2E2E2E2E2E2E2E2E2E2E2E2E2E2E2E2E2E2E2E2E2E2E2
310
E2E2E2E2E2E2E2E2E2E2E2E2E2E2E2E2E2E2E2E2E2E2E2E2E2E2E2E2E2E2E2E2E2E2E2E2E2E2E2E2E2E2E2E2E2E2E2E2E2E2E2E2E2E2E2E2E2E2E2E2E2E2E2E2E2E2E2E2E2E2E2E2E2E2E2E2E2E2E2E2E2E2E2E2E2E2E2E2E2E2E2E2E2E2E2E2E2E2E2E2E2E2E2E2E2E2E2E2E2E2E2E2E2E2E2E2E2E2E2E2E2E2E2E2E2E2E2
310
E2E2E2E2E2E2E2E2E2E2E2E2E2E2E2E2E2E2E2E2E2E2E2E2E2E2E2E2E2E2E2E2E2E2E2E2E2E2E2E2E2E2E2E2E2E2E2E2E2E2E2E2E2E2E2E2E2E2E2E2E2E2E2E2E2E2E2E2E2E2E2E2E2E2E2E2E2E2E2E2E2E2E2E2E2E2E2E2E2E2E2E2E2E2E2E2E2E2E2E2E2E2E2E2E2E2E2E2E2E2E2E2E2E2E2E2E2E2E2E2E2E2E2E2E2E2E2
310
E2E2E2E2E2E2E2E2E2E2E2E2E2E2E2E2E2E2E2E2E2E2E2E2E2E2E2E2E2E2E2E2E2E2E2E2E2E2E2E2E2E2E2E2E2E2E2E2E2E2E2E2E2E2E2E2E2E2E2E2E2E2E2E2E2E2E2E2E2E2E2E2E2E2E2E2E2E2E2E2E2E2E2E2E2E2E2E2E2E2E2E2E2E2E2E2E2E2E2E2E2E2E2E2E2E2E2E2E2E2E2E2E2E2E2E2E2E2E2E2E2E2E2E2E2E2E2
310
E2E2E2E2E2E2E2E2E2E2E2E2E2E2E2E2E2E2E2E2E2E2E2E2E2E2E2E2E2E2E2E2E2E2E2E2E2E2E2E2E2E2E2E2E2E2E2E2E2E2E2E2E2E2E2E2E2E2E2E2E2E2E2E2E2E2E2E2E2E2E2E2E2E2E2E2E2E2E2E2E2E2E2E2E2E2E2E2E2E2E2E2E2E2E2E2E2E2E2E2E2E2E2E2E2E2E2E2E2E2E2E2E2E2E2E2E2E2E2E2E2E2E2E2E2E2E2
310
E2E2E2E2E2E2E2E2E2E2E2E2E2E2E2E2E2E2E2E2E2E2E2E2E2E2E2E2E2E2E2E2E2E2E2E2E2E2E2E2E2E2E2E2E2E2E2E2E2E2E2E2E2E2E2E2E2E2E2E2E2E2E2E2E2E2E2E2E2E2E2E2E2E2E2E2E2E2E2E2E2E2E2E2E2E2E2E2E2E2E2E2E2E2E2E2E2E2E2E2E2E2E2E2E2E2E2E2E2E2E2E2E2E2E2E2E2E2E2E2E2E2E2E2E2E2E2
310
E2E2E2E2E2E2E2E2E2E2E2E2E2E2E2E2E2E2E2E2E2E2E2E2E2E2E2E2E2E2E2E2E2E2E2E2E2E2E2E2E2E2E2E2E2E2E2E2E2E2E2E2E2E2E2E2E2E2E2E2E2E2E2E2E2E2E2E2E2E2E2E2E2E2E2E2E2E2E2E2E2E2E2E2E2E2E2E2E2E2E2E2E2E2E2E2E2E2E2E2E2E2E2E2E2E2E2E2E2E2E2E2E2E2E2E2E2E2E2E2E2E2E2E2E2E2E2
310
E2E2E2E2E2E2E2E2E2E2E2E2E2E2E2E2E2E2E2E2E2E2E2E2E2E2E2E2E2E2E2E2E2E2E2E2E2E2E2E2E2E2E2E2E2E2E2E2E2E2E2E2E2E2E2E2E2E2E2E2E2E2E2E2E2E2E2E2E2E2E2E2E2E2E2E2E2E2E2E2E2E2E2E2E2E2E2E2E2E2E2E2E2E2E2E2E2E2E2E2E2E2E2E2E2E2E2E2E2E2E2E2E2E2E2E2E2E2E2E2E2E2E2E2E2E2E2
310
E2E2E2E2E2E2E2E2E2E2E2E2E2E2E2E2E2E2E2E2E2E2E2E2E2E2E2E2E2E2E2E2E2E2E2E2E2E2E2E2E2E2E2E2E2E2E2E2E2E2E2E2E2E2E2E2E2E2E2E2E2E2E2E2E2E2E2E2E2E2E2E2E2E2E2E2E2E2E2E2E2E2E2E2E2E2E2E2E2E2E2E2E2E2E2E2E2E2E2E2E2E2E2E2E2E2E2E2E2E2E2E2E2E2E2E2E2E2E2E2E2E2E2E2E2E2E2
310
E2E2E2E2E2E2E2E2E2E2E2E2E2E2E2E2E2E2E2E2E2E2E2E2E2E2E2E2E2E2E2E2E2E2E2E2E2E2E2E2E2E2E2E2E2E2E2E2E2E2E2E2E2E2E2E2E2E2E2E2E2E2E2E2E2E2E2E2E2E2E2E2E2E2E2E2E2E2E2E2E2E2E2E2E2E2E2E2E2E2E2E2E2E2E2E2E2E2E2E2E2E2E2E2E2E2E2E2E2E2E2E2E2E2E2E2E2E2E2E2E2E2E2E2E2E2E2
310
E2E2E2E2E2E2E2E2E2E2E2E2E2E2E2E2E2E2E2E2E2E2E2E2E2E2E2E2E2E2E2E2E2E2E2E2E2E2E2E2E2E2E2E2E2E2E2E2E2E2E2E2E2E2E2E2E2E2E2E2E2E2E2E2E2E2E2E2E2E2E2E2E2E2E2E2E2E2E2E2E2E2E2E2E2E2E2E2E2E2E2E2E2E2E2E2E2E2E2E2E2E2E2E2E2E2E2E2E2E2E2E2E2E2E2E2E2E2E2E2E2E2E2E2E2E2E2
310
E2E2E2E2E2E2E2E2E2E2E2E2E2E2E2E2E2E2E2E2E2E2E2E2E2E2E2E2E2E2E2E2E2E2E2E2E2E2E2E2E2E2E2E2E2E2E2E2E2E2E2E2E2E2E2E2E2E2E2E2E2E2E2E2E2E2E2E2E2E2E2E2E2E2E2E2E2E2E2E2E2E2E2E2E2E2E2E2E2E2E2E2E2E2E2E2E2E2E2E2E2E2E2E2E2E2E2E2E2E2E2E2E2E2E2E2E2E2E2E2E2E2E2E2E2E2E2
310
E2E2E2E2E2E2E2E2E2E2E2E2E2E2E2E2E2E2E2E2E2E2E2E2E2E2E2E2E2E2E2E2E2E2E2E2E2E2E2E2E2E2E2E2E2E2E2E2E2E2E2E2E2E2E2E2E2E2E2E2E2E2E2E2E2E2E2E2E2E2E2E2E2E2E2E2E2E2E2E2E2E2E2E2E2E2E2E2E2E2E2E2E2E2E2E2E2E2E2E2E2E2E2E2E2E2E2E2E2E2E2E2E2E2E2E2E2E2E2E2E2E2E2E2E2E2E2
310
E2E2E2E2E2E2E2E2E2E2E2E2E2E2E2E2E2E2E2E2E2E2E2E2E2E2E2E2E2E2E2E2E2E2E2E2E2E2E2E2E2E2E2E2E2E2E2E2E2E2E2E2E2E2E2E2E2E2E2E2E2E2E2E2E2E2E2E2E2E2E2E2E2E2E2E2E2E2E2E2E2E2E2E2E2E2E2E2E2E2E2E2E2E2E2E2E2E2E2E2E2E2E2E2E2E2E2E2E2E2E2E2E2E2E2E2E2E2E2E2E2E2E2E2E2E2E2
310
E2E2E2E2E2E2E2E2E2E2E2E2E2E2E2E2E2E2E2E2E2E2E2E2E2E2E2E2E2E2E2E2E2E2E2E2E2E2E2E2E2E2E2E2E2E2E2E2E2E2E2E2E2E2E2E2E2E2E2E2E2E2E2E2E2E2E2E2E2E2E2E2E2E2E2E2E2E2E2E2E2E2E2E2E2E2E2E2E2E2E2E2E2E2E2E2E2E2E2E2E2E2E2E2E2E2E2E2E2E2E2E2E2E2E2E2E2E2E2E2E2E2E2E2E2E2E2
310
E2E2E2E2E2E2E2E2E2E2E2E2E2E2E2E2E2E2E2E2E2E2E2E2E2E2E2E2E2E2E2E2E2E2E2E2E2E2E2E2E2E2E2E2E2E2E2E2E2E2E2E2E2E2E2E2E2E2E2E2E2E2E2E2E2E2E2E2E2E2E2E2E2E2E2E2E2E2E2E2E2E2E2E2E2E2E2E2E2E2E2E2E2E2E2E2E2E2E2E2E2E2E2E2E2E2E2E2E2E2E2E2E2E2E2E2E2E2E2E2E2E2E2E2E2E2E2
310
E2E2E2E2E2E2E2E2E2E2E2E2E2E2E2E2E2E2E2E2E2E2E2E2E2E2E2E2E2E2E2E2E2E2E2E2E2E2E2E2E2E2E2E2E2E2E2E2E2E2E2E2E2E2E2E2E2E2E2E2E2E2E2E2E2E2E2E2E2E2E2E2E2E2E2E2E2E2E2E2E2E2E2E2E2E2E2E2E2E2E2E2E2E2E2E2E2E2E2E2E2E2E2E2E2E2E2E2E2E2E2E2E2E2E2E2E2E2E2E2E2E2E2E2E2E2E2
310
E2E2E2E2E2E2E2E2E2E2E2E2E2E2E2E2E2E2E2E2E2E2E2E2E2E2E2E2E2E2E2E2E2E2E2E2E2E2E2E2E2E2E2E2E2E2E2E2E2E2E2E2E2E2E2E2E2E2E2E2E2E2E2E2E2E2E2E2E2E2E2E2E2E2E2E2E2E2E2E2E2E2E2E2E2E2E2E2E2E2E2E2E2E2E2E2E2E2E2E2E2E2E2E2E2E2E2E2E2E2E2E2E2E2E2E2E2E2E2E2E2E2E2E2E2E2E2
310
E2E2E2E2E2E2E2E2E2E2E2E2E2E2E2E2E2E2E2E2E2E2E2E2E2E2E2E2E2E2E2E2E2E2E2E2E2E2E2E2E2E2E2E2E2E2E2E2E2E2E2E2E2E2E2E2E2E2E2E2E2E2E2E2E2E2E2E2E2E2E2E2E2E2E2E2E2E2E2E2E2E2E2E2E2E2E2E2E2E2E2E2E2E2E2E2E2E2E2E2E2E2E2E2E2E2E2E2E2E2E2E2E2E2E2E2E2E2E2E2E2E2E2E2E2E2E2
310
E2E2E2E2E2E2E2E2E2E2E2E2E2E2E2E2E2E2E2E2E2E2E2E2E2E2E2E2E2E2E2E2E2E2E2E2E2E2E2E2E2E2E2E2E2E2E2E2E2E2E2E2E2E2E2E2E2E2E2E2E2E2E2E2E2E2E2E2E2E2E2E2E2E2E2E2E2E2E2E2E2E2E2E2E2E2E2E2E2E2E2E2E2E2E2E2E2E2E2E2E2E2E2E2E2E2E2E2E2E2E2E2E2E2E2E2E2E2E2E2E2E2E2E2E2E2E2
310
E2E2E2E2E2E2E2E2E2E2E2E2E2E2E2E2E2E2E2E2E2E2E2E2E2E2E2E2E2E2E2E2E2E2E2E2E2E2E2E2E2E2E2E2E2E2E2E2E2E2E2E2E2E2E2E2E2E2E2E2E2E2E2E2E2E2E2E2E2E2E2E2E2E2E2E2E2E2E2E2E2E2E2E2E2E2E2E2E2E2E2E2E2E2E2E2E2E2E2E2E2E2E2E2E2E2E2E2E2E2E2E2E2E2E2E2E2E2E2E2E2E2E2E2E2E2E2
310
E2E2E2E2E2E2E2E2E2E2E2E2E2E2E2E2E2E2E2E2E2E2E2E2E2E2E2E2E2E2E2E2E2E2E2E2E2E2E2E2E2E2E2E2E2E2E2E2E2E2E2E2E2E2E2E2E2E2E2E2E2E2E2E2E2E2E2E2E2E2E2E2E2E2E2E2E2E2E2E2E2E2E2E2E2E2E2E2E2E2E2E2E2E2E2E2E2E2E2E2E2E2E2E2E2E2E2E2E2E2E2E2E2E2E2E2E2E2E2E2E2E2E2E2E2E2E2
310
E2E2E2E2E2E2E2E2E2E2E2E2E2E2E2E2E2E2E2E2E2E2E2E2E2E2E2E2E2E2E2E2E2E2E2E2E2E2E2E2E2E2E2E2E2E2E2E2E2E2E2E2E2E2E2E2E2E2E2E2E2E2E2E2E2E2E2E2E2E2E2E2E2E2E2E2E2E2E2E2E2E2E2E2E2E2E2E2E2E2E2E2E2E2E2E2E2E2E2E2E2E2E2E2E2E2E2E2E2E2E2E2E2E2E2E2E2E2E2E2E2E2E2E2E2E2E2
310
E2E2E2E2E2E2E2E2E2E2E2E2E2E2E2E2E2E2E2E2E2E2E2E2E2E2E2E2E2E2E2E2E2E2E2E2E2E2E2E2E2E2E2E2E2E2E2E2E2E2E2E2E2E2E2E2E2E2E2E2E2E2E2E2E2E2E2E2E2E2E2E2E2E2E2E2E2E2E2E2E2E2E2E2E2E2E2E2E2E2E2E2E2E2E2E2E2E2E2E2E2E2E2E2E2E2E2E2E2E2E2E2E2E2E2E2E2E2E2E2E2E2E2E2E2E2E2
310
E2E2E2E2E2E2E2E2E2E2E2E2E2E2E2E2E2E2E2E2E2E2E2E2E2E2E2E2E2E2E2E2E2E2E2E2E2E2E2E2E2E2E2E2E2E2E2E2E2E2E2E2E2E2E2E2E2E2E2E2E2E2E2E2E2E2E2E2E2E2E2E2E2E2E2E2E2E2E2E2E2E2E2E2E2E2E2E2E2E2E2E2E2E2E2E2E2E2E2E2E2E2E2E2E2E2E2E2E2E2E2E2E2E2E2E2E2E2E2E2E2E2E2E2E2E2E2
310
E2E2E2E2E2E2E2E2E2E2E2E2E2E2E2E2E2E2E2E2E2E2E2E2E2E2E2E2E2E2E2E2E2E2E2E2E2E2E2E2E2E2E2E2E2E2E2E2E2E2E2E2E2E2E2E2E2E2E2E2E2E2E2E2E2E2E2E2E2E2E2E2E2E2E2E2E2E2E2E2E2E2E2E2E2E2E2E2E2E2E2E2E2E2E2E2E2E2E2E2E2E2E2E2E2E2E2E2E2E2E2E2E2E2E2E2E2E2E2E2E2E2E2E2E2E2E2
310
E2E2E2E2E2E2E2E2E2E2E2E2E2E2E2E2E2E2E2E2E2E2E2E2E2E2E2E2E2E2E2E2E2E2E2E2E2E2E2E2E2E2E2E2E2E2E2E2E2E2E2E2E2E2E2E2E2E2E2E2E2E2E2E2E2E2E2E2E2E2E2E2E2E2E2E2E2E2E2E2E2E2E2E2E2E2E2E2E2E2E2E2E2E2E2E2E2E2E2E2E2E2E2E2E2E2E2E2E2E2E2E2E2E2E2E2E2E2E2E2E2E2E2E2E2E2E2
310
E2E2E2E2E2E2E2E2E2E2E2E2E2E2E2E2E2E2E2E2E2E2E2E2E2E2E2E2E2E2E2E2E2E2E2E2E2E2E2E2E2E2E2E2E2E2E2E2E2E2E2E2E2E2E2E2E2E2E2E2E2E2E2E2E2E2E2E2E2E2E2E2E2E2E2E2E2E2E2E2E2E2E2E2E2E2E2E2E2E2E2E2E2E2E2E2E2E2E2E2E2E2E2E2E2E2E2E2E2E2E2E2E2E2E2E2E2E2E2E2E2E2E2E2E2E2E2
310
E2E2E2E2E2E2E2E2E2E2E2E2E2E2E2E2E2E2E2E2E2E2E2E2E2E2E2E2E2E2E2E2E2E2E2E2E2E2E2E2E2E2E2E2E2E2E2E2E2E2E2E2E2E2E2E2E2E2E2E2E2E2E2E2E2E2E2E2E2E2E2E2E2E2E2E2E2E2E2E2E2E2E2E2E2E2E2E2E2E2E2E2E2E2E2E2E2E2E2E2E2E2E2E2E2E2E2E2E2E2E2E2E2E2E2E2E2E2E2E2E2E2E2E2E2E2E2
310
E2E2E2E2E2E2E2E2E2E2E2E2E2E2E2E2E2E2E2E2E2E2E2E2E2E2E2E2E2E2E2E2E2E2E2E2E2E2E2E2E2E2E2E2E2E2E2E2E2E2E2E2E2E2E2E2E2E2E2E2E2E2E2E2E2E2E2E2E2E2E2E2E2E2E2E2E2E2E2E2E2E2E2E2E2E2E2E2E2E2E2E2E2E2E2E2E2E2E2E2E2E2E2E2E2E2E2E2E2E2E2E2E2E2E2E2E2E2E2E2E2E2E2E2E2E2E2
310
E2E2E2E2E2E2E2E2E2E2E2E2E2E2E2E2E2E2E2E2E2E2E2E2E2E2E2E2E2E2E2E2E2E2E2E2E2E2E2E2E2E2E2E2E2E2E2E2E2E2E2E2E2E2E2E2E2E2E2E2E2E2E2E2E2E2E2E2E2E2E2E2E2E2E2E2E2E2E2E2E2E2E2E2E2E2E2E2E2E2E2E2E2E2E2E2E2E2E2E2E2E2E2E2E2E2E2E2E2E2E2E2E2E2E2E2E2E2E2E2E2E2E2E2E2E2E2
310
E2E2E2E2E2E2E2E2E2E2E2E2E2E2E2E2E2E2E2E2E2E2E2E2E2E2E2E2E2E2E2E2E2E2E2E2E2E2E2E2E2E2E2E2E2E2E2E2E2E2E2E2E2E2E2E2E2E2E2E2E2E2E2E2E2E2E2E2E2E2E2E2E2E2E2E2E2E2E2E2E2E2E2E2E2E2E2E2E2E2E2E2E2E2E2E2E2E2E2E2E2E2E2E2E2E2E2E2E2E2E2E2E2E2E2E2E2E2E2E2E2E2E2E2E2E2E2
310
E2E2E2E2E2E2E2E2E2E2E2E2E2E2E2E2E2E2E2E2E2E2E2E2E2E2E2E2E2E2E2E2E2E2E2E2E2E2E2E2E2E2E2E2E2E2E2E2E2E2E2E2E2E2E2E2E2E2E2E2E2E2E2E2E2E2E2E2E2E2E2E2E2E2E2E2E2E2E2E2E2E2E2E2E2E2E2E2E2E2E2E2E2E2E2E2E2E2E2E2E2E2E2E2E2E2E2E2E2E2E2E2E2E2E2E2E2E2E2E2E2E2E2E2E2E2E2
310
E2E2E2E2E2E2E2E2E2E2E2E2E2E2E2E2E2E2E2E2E2E2E2E2E2E2E2E2E2E2E2E2E2E2E2E2E2E2E2E2E2E2E2E2E2E2E2E2E2E2E2E2E2E2E2E2E2E2E2E2E2E2E2E2E2E2E2E2E2E2E2E2E2E2E2E2E2E2E2E2E2E2E2E2E2E2E2E2E2E2E2E2E2E2E2E2E2E2E2E2E2E2E2E2E2E2E2E2E2E2E2E2E2E2E2E2E2E2E2E2E2E2E2E2E2E2E2
310
E2E2E2E2E2E2E2E2E2E2E2E2E2E2E2E2E2E2E2E2E2E2E2E2E2E2E2E2E2E2E2E2E2E2E2E2E2E2E2E2E2E2E2E2E2E2E2E2E2E2E2E2E2E2E2E2E2E2E2E2E2E2E2E2E2E2E2E2E2E2E2E2E2E2E2E2E2E2E2E2E2E2E2E2E2E2E2E2E2E2E2E2E2E2E2E2E2E2E2E2E2E2E2E2E2E2E2E2E2E2E2E2E2E2E2E2E2E2E2E2E2E2E2E2E2E2E2
310
E2E2E2E2E2E2E2E2E2E2E2E2E2E2E2E2E2E2E2E2E2E2E2E2E2E2E2E2E2E2E2E2E2E2E2E2E2E2E2E2E2E2E2E2E2E2E2E2E2E2E2E2E2E2E2E2E2E2E2E2E2E2E2E2E2E2E2E2E2E2E2E2E2E2E2E2E2E2E2E2E2E2E2E2E2E2E2E2E2E2E2E2E2E2E2E2E2E2E2E2E2E2E2E2E2E2E2E2E2E2E2E2E2E2E2E2E2E2E2E2E2E2E2E2E2E2E2
310
E2E2E2E2E2E2E2E2E2E2E2E2E2E2E2E2E2E2E2E2E2E2E2E2E2E2E2E2E2E2E2E2E2E2E2E2E2E2E2E2E2E2E2E2E2E2E2E2E2E2E2E2E2E2E2E2E2E2E2E2E2E2E2E2E2E2E2E2E2E2E2E2E2E2E2E2E2E2E2E2E2E2E2E2E2E2E2E2E2E2E2E2E2E2E2E2E2E2E2E2E2E2E2E2E2E2E2E2E2E2E2E2E2E2E2E2E2E2E2E2E2E2E2E2E2E2E2
310
E2E2E2E2E2E2E2E2E2E2E2E2E2E2E2E2E2E2E2E2E2E2E2E2E2E2E2E2E2E2E2E2E2E2E2E2E2E2E2E2E2E2E2E2E2E2E2E2E2E2E2E2E2E2E2E2E2E2E2E2E2E2E2E2E2E2E2E2E2E2E2E2E2E2E2E2E2E2E2E2E2E2E2E2E2E2E2E2E2E2E2E2E2E2E2E2E2E2E2E2E2E2E2E2E2E2E2E2E2E2E2E2E2E2E2E2E2E2E2E2E2E2E2E2E2E2E2
310
E2E2E2E2E2E2E2E2E2E2E2E2E2E2E2E2E2E2E2E2E2E2E2E2E2E2E2E2E2E2E2E2E2E2E2E2E2E2E2E2E2E2E2E2E2E2E2E2E2E2E2E2E2E2E2E2E2E2E2E2E2E2E2E2E2E2E2E2E2E2E2E2E2E2E2E2E2E2E2E2E2E2E2E2E2E2E2E2E2E2E2E2E2E2E2E2E2E2E2E2E2E2E2E2E2E2E2E2E2E2E2E2E2E2E2E2E2E2E2E2E2E2E2E2E2E2E2
310
E2E2E2E2E2E2E2E2E2E2E2E2E2E2E2E2E2E2E2E2E2E2E2E2E2E2E2E2E2E2E2E2E2E2E2E2E2E2E2E2E2E2E2E2E2E2E2E2E2E2E2E2E2E2E2E2E2E2E2E2E2E2E2E2E2E2E2E2E2E2E2E2E2E2E2E2E2E2E2E2E2E2E2E2E2E2E2E2E2E2E2E2E2E2E2E2E2E2E2E2E2E2E2E2E2E2E2E2E2E2E2E2E2E2E2E2E2E2E2E2E2E2E2E2E2E2E2
310
E2E2E2E2E2E2E2E2E2E2E2E2E2E2E2E2E2E2E2E2E2E2E2E2E2E2E2E2E2E2E2E2E2E2E2E2E2E2E2E2E2E2E2E2E2E2E2E2E2E2E2E2E2E2E2E2E2E2E2E2E2E2E2E2E2E2E2E2E2E2E2E2E2E2E2E2E2E2E2E2E2E2E2E2E2E2E2E2E2E2E2E2E2E2E2E2E2E2E2E2E2E2E2E2E2E2E2E2E2E2E2E2E2E2E2E2E2E2E2E2E2E2E2E2E2E2E2
310
E2E2E2E2E2E2E2E2E2E2E2E2E2E2E2E2E2E2E2E2E2E2E2E2E2E2E2E2E2E2E2E2E2E2E2E2E2E2E2E2E2E2E2E2E2E2E2E2E2E2E2E2E2E2E2E2E2E2E2E2E2E2E2E2E2E2E2E2E2E2E2E2E2E2E2E2E2E2E2E2E2E2E2E2E2E2E2E2E2E2E2E2E2E2E2E2E2E2E2E2E2E2E2E2E2E2E2E2E2E2E2E2E2E2E2E2E2E2E2E2E2E2E2E2E2E2E2
310
E2E2E2E2E2E2E2E2E2E2E2E2E2E2E2E2E2E2E2E2E2E2E2E2E2E2E2E2E2E2E2E2E2E2E2E2E2E2E2E2E2E2E2E2E2E2E2E2E2E2E2E2E2E2E2E2E2E2E2E2E2E2E2E2E2E2E2E2E2E2E2E2E2E2E2E2E2E2E2E2E2E2E2E2E2E2E2E2E2E2E2E2E2E2E2E2E2E2E2E2E2E2E2E2E2E2E2E2E2E2E2E2E2E2E2E2E2E2E2E2E2E2E2E2E2E2E2
310
E2E2E2E2E2E2E2E2E2E2E2E2E2E2E2E2E2E2E2E2E2E2E2E2E2E2E2E2E2E2E2E2E2E2E2E2E2E2E2E2E2E2E2E2E2E2E2E2E2E2E2E2E2E2E2E2E2E2E2E2E2E2E2E2E2E2E2E2E2E2E2E2E2E2E2E2E2E2E2E2E2E2E2E2E2E2E2E2E2E2E2E2E2E2E2E2E2E2E2E2E2E2E2E2E2E2E2E2E2E2E2E2E2E2E2E2E2E2E2E2E2E2E2E2E2E2E2
310
E2E2E2E2E2E2E2E2E2E2E2E2E2E2E2E2E2E2E2E2E2E2E2E2E2E2E2E2E2E2E2E2E2E2E2E2E2E2E2E2E2E2E2E2E2E2E2E2E2E2E2E2E2E2E2E2E2E2E2E2E2E2E2E2E2E2E2E2E2E2E2E2E2E2E2E2E2E2E2E2E2E2E2E2E2E2E2E2E2E2E2E2E2E2E2E2E2E2E2E2E2E2E2E2E2E2E2E2E2E2E2E2E2E2E2E2E2E2E2E2E2E2E2E2E2E2E2
310
E2E2E2E2E2E2E2E2E2E2E2E2E2E2E2E2E2E2E2E2E2E2E2E2E2E2E2E2E2E2E2E2E2E2E2E2E2E2E2E2E2E2E2E2E2E2E2E2E2E2E2E2E2E2E2E2E2E2E2E2E2E2E2E2E2E2E2E2E2E2E2E2E2E2E2E2E2E2E2E2E2E2E2E2E2E2E2E2E2E2E2E2E2E2E2E2E2E2E2E2E2E2E2E2E2E2E2E2E2E2E2E2E2E2E2E2E2E2E2E2E2E2E2E2E2E2E2
310
E2E2E2E2E2E2E2E2E2E2E2E2E2E2E2E2E2E2E2E2E2E2E2E2E2E2E2E2E2E2E2E2E2E2E2E2E2E2E2E2E2E2E2E2E2E2E2E2E2E2E2E2E2E2E2E2E2E2E2E2E2E2E2E2E2E2E2E2E2E2E2E2E2E2E2E2E2E2E2E2E2E2E2E2E2E2E2E2E2E2E2E2E2E2E2E2E2E2E2E2E2E2E2E2E2E2E2E2E2E2E2E2E2E2E2E2E2E2E2E2E2E2E2E2E2E2E2
310
E2E2E2E2E2E2E2E2E2E2E2E2E2E2E2E2E2E2E2E2E2E2E2E2E2E2E2E2E2E2E2E2E2E2E2E2E2E2E2E2E2E2E2E2E2E2E2E2E2E2E2E2E2E2E2E2E2E2E2E2E2E2E2E2E2E2E2E2E2E2E2E2E2E2E2E2E2E2E2E2E2E2E2E2E2E2E2E2E2E2E2E2E2E2E2E2E2E2E2E2E2E2E2E2E2E2E2E2E2E2E2E2E2E2E2E2E2E2E2E2E2E2E2E2E2E2E2
310
E2E2E2E2E2E2E2E2E2E2E2E2E2E2E2E2E2E2E2E2E2E2E2E2E2E2E2E2E2E2E2E2E2E2E2E2E2E2E2E2E2E2E2E2E2E2E2E2E2E2E2E2E2E2E2E2E2E2E2E2E2E2E2E2E2E2E2E2E2E2E2E2E2E2E2E2E2E2E2E2E2E2E2E2E2E2E2E2E2E2E2E2E2E2E2E2E2E2E2E2E2E2E2E2E2E2E2E2E2E2E2E2E2E2E2E2E2E2E2E2E2E2E2E2E2E2E2
310
E2E2E2E2E2E2E2E2E2E2E2E2E2E2E2E2E2E2E2E2E2E2E2E2E2E2E2E2E2E2E2E2E2E2E2E2E2E2E2E2E2E2E2E2E2E2E2E2E2E2E2E2E2E2E2E2E2E2E2E2E2E2E2E2E2E2E2E2E2E2E2E2E2E2E2E2E2E2E2E2E2E2E2E2E2E2E2E2E2E2E2E2E2E2E2E2E2E2E2E2E2E2E2E2E2E2E2E2E2E2E2E2E2E2E2E2E2E2E2E2E2E2E2E2E2E2E2
310
E2E2E2E2E2E2E2E2E2E2E2E2E2E2E2E2E2E2E2E2E2E2E2E2E2E2E2E2E2E2E2E2E2E2E2E2E2E2E2E2E2E2E2E2E2E2E2E2E2E2E2E2E2E2E2E2E2E2E2E2E2E2E2E2E2E2E2E2E2E2E2E2E2E2E2E2E2E2E2E2E2E2E2E2E2E2E2E2E2E2E2E2E2E2E2E2E2E2E2E2E2E2E2E2E2E2E2E2E2E2E2E2E2E2E2E2E2E2E2E2E2E2E2E2E2E2E2
310
E2E2E2E2E2E2E2E2E2E2E2E2E2E2E2E2E2E2E2E2E2E2E2E2E2E2E2E2E2E2E2E2E2E2E2E2E2E2E2E2E2E2E2E2E2E2E2E2E2E2E2E2E2E2E2E2E2E2E2E2E2E2E2E2E2E2E2E2E2E2E2E2E2E2E2E2E2E2E2E2E2E2E2E2E2E2E2E2E2E2E2E2E2E2E2E2E2E2E2E2E2E2E2E2E2E2E2E2E2E2E2E2E2E2E2E2E2E2E2E2E2E2E2E2E2E2E2
310
E2E2E2E2E2E2E2E2E2E2E2E2E2E2E2E2E2E2E2E2E2E2E2E2E2E2E2E2E2E2E2E2E2E2E2E2E2E2E2E2E2E2E2E2E2E2E2E2E2E2E2E2E2E2E2E2E2E2E2E2E2E2E2E2E2E2E2E2E2E2E2E2E2E2E2E2E2E2E2E2E2E2E2E2E2E2E2E2E2E2E2E2E2E2E2E2E2E2E2E2E2E2E2E2E2E2E2E2E2E2E2E2E2E2E2E2E2E2E2E2E2E2E2E2E2E2E2
310
E2E2E2E2E2E2E2E2E2E2E2E2E2E2E2E2E2E2E2E2E2E2E2E2E2E2E2E2E2E2E2E2E2E2E2E2E2E2E2E2E2E2E2E2E2E2E2E2E2E2E2E2E2E2E2E2E2E2E2E2E2E2E2E2E2E2E2E2E2E2E2E2E2E2E2E2E2E2E2E2E2E2E2E2E2E2E2E2E2E2E2E2E2E2E2E2E2E2E2E2E2E2E2E2E2E2E2E2E2E2E2E2E2E2E2E2E2E2E2E2E2E2E2E2E2E2E2
310
E2E2E2E2E2E2E2E2E2E2E2E2E2E2E2E2E2E2E2E2E2E2E2E2E2E2E2E2E2E2E2E2E2E2E2E2E2E2E2E2E2E2E2E2E2E2E2E2E2E2E2E2E2E2E2E2E2E2E2E2E2E2E2E2E2E2E2E2E2E2E2E2E2E2E2E2E2E2E2E2E2E2E2E2E2E2E2E2E2E2E2E2E2E2E2E2E2E2E2E2E2E2E2E2E2E2E2E2E2E2E2E2E2E2E2E2E2E2E2E2E2E2E2E2E2E2E2
310
E2E2E2E2E2E2E2E2E2E2E2E2E2E2E2E2E2E2E2E2E2E2E2E2E2E2E2E2E2E2E2E2E2E2E2E2E2E2E2E2E2E2E2E2E2E2E2E2E2E2E2E2E2E2E2E2E2E2E2E2E2E2E2E2E2E2E2E2E2E2E2E2E2E2E2E2E2E2E2E2E2E2E2E2E2E2E2E2E2E2E2E2E2E2E2E2E2E2E2E2E2E2E2E2E2E2E2E2E2E2E2E2E2E2E2E2E2E2E2E2E2E2E2E2E2E2E2
310
E2E2E2E2E2E2E2E2E2E2E2E2E2E2E2E2E2E2E2E2E2E2E2E2E2E2E2E2E2E2E2E2E2E2E2E2E2E2E2E2E2E2E2E2E2E2E2E2E2E2E2E2E2E2E2E2E2E2E2E2E2E2E2E2E2E2E2E2E2E2E2E2E2E2E2E2E2E2E2E2E2E2E2E2E2E2E2E2E2E2E2E2E2E2E2E2E2E2E2E2E2E2E2E2E2E2E2E2E2E2E2E2E2E2E2E2E2E2E2E2E2E2E2E2E2E2E2
310
E2E2E2E2E2E2E2E2E2E2E2E2E2E2E2E2E2E2E2E2E2E2E2E2E2E2E2E2E2E2E2E2E2E2E2E2E2E2E2E2E2E2E2E2E2E2E2E2E2E2E2E2E2E2E2E2E2E2E2E2E2E2E2E2E2E2E2E2E2E2E2E2E2E2E2E2E2E2E2E2E2E2E2E2E2E2E2E2E2E2E2E2E2E2E2E2E2E2E2E2E2E2E2E2E2E2E2E2E2E2E2E2E2E2E2E2E2E2E2E2E2E2E2E2E2E2E2
310
E2E2E2E2E2E2E2E2E2E2E2E2E2E2E2E2E2E2E2E2E2E2E2E2E2E2E2E2E2E2E2E2E2E2E2E2E2E2E2E2E2E2E2E2E2E2E2E2E2E2E2E2E2E2E2E2E2E2E2E2E2E2E2E2E2E2E2E2E2E2E2E2E2E2E2E2E2E2E2E2E2E2E2E2E2E2E2E2E2E2E2E2E2E2E2E2E2E2E2E2E2E2E2E2E2E2E2E2E2E2E2E2E2E2E2E2E2E2E2E2E2E2E2E2E2E2E2
310
E2E2E2E2E2E2E2E2E2E2E2E2E2E2E2E2E2E2E2E2E2E2E2E2E2E2E2E2E2E2E2E2E2E2E2E2E2E2E2E2E2E2E2E2E2E2E2E2E2E2E2E2E2E2E2E2E2E2E2E2E2E2E2E2E2E2E2E2E2E2E2E2E2E2E2E2E2E2E2E2E2E2E2E2E2E2E2E2E2E2E2E2E2E2E2E2E2E2E2E2E2E2E2E2E2E2E2E2E2E2E2E2E2E2E2E2E2E2E2E2E2E2E2E2E2E2E2
310
E2E2E2E2E2E2E2E2E2E2E2E2E2E2E2E2E2E2E2E2E2E2E2E2E2E2E2E2E2E2E2E2E2E2E2E2E2E2E2E2E2E2E2E2E2E2E2E2E2E2E2E2E2E2E2E2E2E2E2E2E2E2E2E2E2E2E2E2E2E2E2E2E2E2E2E2E2E2E2E2E2E2E2E2E2E2E2E2E2E2E2E2E2E2E2E2E2E2E2E2E2E2E2E2E2E2E2E2E2E2E2E2E2E2E2E2E2E2E2E2E2E2E2E2E2E2E2
310
E2E2E2E2E2E2E2E2E2E2E2E2E2E2E2E2E2E2E2E2E2E2E2E2E2E2E2E2E2E2E2E2E2E2E2E2E2E2E2E2E2E2E2E2E2E2E2E2E2E2E2E2E2E2E2E2E2E2E2E2E2E2E2E2E2E2E2E2E2E2E2E2E2E2E2E2E2E2E2E2E2E2E2E2E2E2E2E2E2E2E2E2E2E2E2E2E2E2E2E2E2E2E2E2E2E2E2E2E2E2E2E2E2E2E2E2E2E2E2E2E2E2E2E2E2E2E2
310
E2E2E2E2E2E2E2E2E2E2E2E2E2E2E2E2E2E2E2E2E2E2E2E2E2E2E2E2E2E2E2E2E2E2E2E2E2E2E2E2E2E2E2E2E2E2E2E2E2E2E2E2E2E2E2E2E2E2E2E2E2E2E2E2E2E2E2E2E2E2E2E2E2E2E2E2E2E2E2E2E2E2E2E2E2E2E2E2E2E2E2E2E2E2E2E2E2E2E2E2E2E2E2E2E2E2E2E2E2E2E2E2E2E2E2E2E2E2E2E2E2E2E2E2E2E2E2
310
E2E2E2E2E2E2E2E2E2E2E2E2E2E2E2E2E2E2E2E2E2E2E2E2E2E2E2E2E2E2E2E2E2E2E2E2E2E2E2E2E2E2E2E2E2E2E2E2E2E2E2E2E2E2E2E2E2E2E2E2E2E2E2E2E2E2E2E2E2E2E2E2E2E2E2E2E2E2E2E2E2E2E2E2E2E2E2E2E2E2E2E2E2E2E2E2E2E2E2E2E2E2E2E2E2E2E2E2E2E2E2E2E2E2E2E2E2E2E2E2E2E2E2E2E2E2E2
310
E2E2E2E2E2E2E2E2E2E2E2E2E2E2E2E2E2E2E2E2E2E2E2E2E2E2E2E2E2E2E2E2E2E2E2E2E2E2E2E2E2E2E2E2E2E2E2E2E2E2E2E2E2E2E2E2E2E2E2E2E2E2E2E2E2E2E2E2E2E2E2E2E2E2E2E2E2E2E2E2E2E2E2E2E2E2E2E2E2E2E2E2E2E2E2E2E2E2E2E2E2E2E2E2E2E2E2E2E2E2E2E2E2E2E2E2E2E2E2E2E2E2E2E2E2E2E2
310
E2E2E2E2E2E2E2E2E2E2E2E2E2E2E2E2E2E2E2E2E2E2E2E2E2E2E2E2E2E2E2E2E2E2E2E2E2E2E2E2E2E2E2E2E2E2E2E2E2E2E2E2E2E2E2E2E2E2E2E2E2E2E2E2E2E2E2E2E2E2E2E2E2E2E2E2E2E2E2E2E2E2E2E2E2E2E2E2E2E2E2E2E2E2E2E2E2E2E2E2E2E2E2E2E2E2E2E2E2E2E2E2E2E2E2E2E2E2E2E2E2E2E2E2E2E2E2
310
E2E2E2E2E2E2E2E2E2E2E2E2E2E2E2E2E2E2E2E2E2E2E2E2E2E2E2E2E2E2E2E2E2E2E2E2E2E2E2E2E2E2E2E2E2E2E2E2E2E2E2E2E2E2E2E2E2E2E2E2E2E2E2E2E2E2E2E2E2E2E2E2E2E2E2E2E2E2E2E2E2E2E2E2E2E2E2E2E2E2E2E2E2E2E2E2E2E2E2E2E2E2E2E2E2E2E2E2E2E2E2E2E2E2E2E2E2E2E2E2E2E2E2E2E2E2E2
310
E2E2E2E2E2E2E2E2E2E2E2E2E2E2E2E2E2E2E2E2E2E2E2E2E2E2E2E2E2E2E2E2E2E2E2E2E2E2E2E2E2E2E2E2E2E2E2E2E2E2E2E2E2E2E2E2E2E2E2E2E2E2E2E2E2E2E2E2E2E2E2E2E2E2E2E2E2E2E2E2E2E2E2E2E2E2E2E2E2E2E2E2E2E2E2E2E2E2E2E2E2E2E2E2E2E2E2E2E2E2E2E2E2E2E2E2E2E2E2E2E2E2E2E2E2E2E2
310
E2E2E2E2E2E2E2E2E2E2E2E2E2E2E2E2E2E2E2E2E2E2E2E2E2E2E2E2E2E2E2E2E2E2E2E2E2E2E2E2E2E2E2E2E2E2E2E2E2E2E2E2E2E2E2E2E2E2E2E2E2E2E2E2E2E2E2E2E2E2E2E2E2E2E2E2E2E2E2E2E2E2E2E2E2E2E2E2E2E2E2E2E2E2E2E2E2E2E2E2E2E2E2E2E2E2E2E2E2E2E2E2E2E2E2E2E2E2E2E2E2E2E2E2E2E2E2
310
E2E2E2E2E2E2E2E2E2E2E2E2E2E2E2E2E2E2E2E2E2E2E2E2E2E2E2E2E2E2E2E2E2E2E2E2E2E2E2E2E2E2E2E2E2E2E2E2E2E2E2E2E2E2E2E2E2E2E2E2E2E2E2E2E2E2E2E2E2E2E2E2E2E2E2E2E2E2E2E2E2E2E2E2E2E2E2E2E2E2E2E2E2E2E2E2E2E2E2E2E2E2E2E2E2E2E2E2E2E2E2E2E2E2E2E2E2E2E2E2E2E2E2E2E2E2E2
310
E2E2E2E2E2E2E2E2E2E2E2E2E2E2E2E2E2E2E2E2E2E2E2E2E2E2E2E2E2E2E2E2E2E2E2E2E2E2E2E2E2E2E2E2E2E2E2E2E2E2E2E2E2E2E2E2E2E2E2E2E2E2E2E2E2E2E2E2E2E2E2E2E2E2E2E2E2E2E2E2E2E2E2E2E2E2E2E2E2E2E2E2E2E2E2E2E2E2E2E2E2E2E2E2E2E2E2E2E2E2E2E2E2E2E2E2E2E2E2E2E2E2E2E2E2E2E2
310
E2E2E2E2E2E2E2E2E2E2E2E2E2E2E2E2E2E2E2E2E2E2E2E2E2E2E2E2E2E2E2E2E2E2E2E2E2E2E2E2E2E2E2E2E2E2E2E2E2E2E2E2E2E2E2E2E2E2E2E2E2E2E2E2E2E2E2E2E2E2E2E2E2E2E2E2E2E2E2E2E2E2E2E2E2E2E2E2E2E2E2E2E2E2E2E2E2E2E2E2E2E2E2E2E2E2E2E2E2E2E2E2E2E2E2E2E2E2E2E2E2E2E2E2E2E2E2
310
E2E2E2E2E2E2E2E2E2E2E2E2E2E2E2E2E2E2E2E2E2E2E2E2E2E2E2E2E2E2E2E2E2E2E2E2E2E2E2E2E2E2E2E2E2E2E2E2E2E2E2E2E2E2E2E2E2E2E2E2E2E2E2E2E2E2E2E2E2E2E2E2E2E2E2E2E2E2E2E2E2E2E2E2E2E2E2E2E2E2E2E2E2E2E2E2E2E2E2E2E2E2E2E2E2E2E2E2E2E2E2E2E2E2E2E2E2E2E2E2E2E2E2E2E2E2E2
310
E2E2E2E2E2E2E2E2E2E2E2E2E2E2E2E2E2E2E2E2E2E2E2E2E2E2E2E2E2E2E2E2E2E2E2E2E2E2E2E2E2E2E2E2E2E2E2E2E2E2E2E2E2E2E2E2E2E2E2E2E2E2E2E2E2E2E2E2E2E2E2E2E2E2E2E2E2E2E2E2E2E2E2E2E2E2E2E2E2E2E2E2E2E2E2E2E2E2E2E2E2E2E2E2E2E2E2E2E2E2E2E2E2E2E2E2E2E2E2E2E2E2E2E2E2E2E2
310
E2E2E2E2E2E2E2E2E2E2E2E2E2E2E2E2E2E2E2E2E2E2E2E2E2E2E2E2E2E2E2E2E2E2E2E2E2E2E2E2E2E2E2E2E2E2E2E2E2E2E2E2E2E2E2E2E2E2E2E2E2E2E2E2E2E2E2E2E2E2E2E2E2E2E2E2E2E2E2E2E2E2E2E2E2E2E2E2E2E2E2E2E2E2E2E2E2E2E2E2E2E2E2E2E2E2E2E2E2E2E2E2E2E2E2E2E2E2E2E2E2E2E2E2E2E2E2
310
E2E2E2E2E2E2E2E2E2E2E2E2E2E2E2E2E2E2E2E2E2E2E2E2E2E2E2E2E2E2E2E2E2E2E2E2E2E2E2E2E2E2E2E2E2E2E2E2E2E2E2E2E2E2E2E2E2E2E2E2E2E2E2E2E2E2E2E2E2E2E2E2E2E2E2E2E2E2E2E2E2E2E2E2E2E2E2E2E2E2E2E2E2E2E2E2E2E2E2E2E2E2E2E2E2E2E2E2E2E2E2E2E2E2E2E2E2E2E2E2E2E2E2E2E2E2E2
310
E2E2E2E2E2E2E2E2E2E2E2E2E2E2E2E2E2E2E2E2E2E2E2E2E2E2E2E2E2E2E2E2E2E2E2E2E2E2E2E2E2E2E2E2E2E2E2E2E2E2E2E2E2E2E2E2E2E2E2E2E2E2E2E2E2E2E2E2E2E2E2E2E2E2E2E2E2E2E2E2E2E2E2E2E2E2E2E2E2E2E2E2E2E2E2E2E2E2E2E2E2E2E2E2E2E2E2E2E2E2E2E2E2E2E2E2E2E2E2E2E2E2E2E2E2E2E2
310
E2E2E2E2E2E2E2E2E2E2E2E2E2E2E2E2E2E2E2E2E2E2E2E2E2E2E2E2E2E2E2E2E2E2E2E2E2E2E2E2E2E2E2E2E2E2E2E2E2E2E2E2E2E2E2E2E2E2E2E2E2E2E2E2E2E2E2E2E2E2E2E2E2E2E2E2E2E2E2E2E2E2E2E2E2E2E2E2E2E2E2E2E2E2E2E2E2E2E2E2E2E2E2E2E2E2E2E2E2E2E2E2E2E2E2E2E2E2E2E2E2E2E2E2E2E2E2
310
E2E2E2E2E2E2E2E2E2E2E2E2E2E2E2E2E2E2E2E2E2E2E2E2E2E2E2E2E2E2E2E2E2E2E2E2E2E2E2E2E2E2E2E2E2E2E2E2E2E2E2E2E2E2E2E2E2E2E2E2E2E2E2E2E2E2E2E2E2E2E2E2E2E2E2E2E2E2E2E2E2E2E2E2E2E2E2E2E2E2E2E2E2E2E2E2E2E2E2E2E2E2E2E2E2E2E2E2E2E2E2E2E2E2E2E2E2E2E2E2E2E2E2E2E2E2E2
310
E2E2E2E2E2E2E2E2E2E2E2E2E2E2E2E2E2E2E2E2E2E2E2E2E2E2E2E2E2E2E2E2E2E2E2E2E2E2E2E2E2E2E2E2E2E2E2E2E2E2E2E2E2E2E2E2E2E2E2E2E2E2E2E2E2E2E2E2E2E2E2E2E2E2E2E2E2E2E2E2E2E2E2E2E2E2E2E2E2E2E2E2E2E2E2E2E2E2E2E2E2E2E2E2E2E2E2E2E2E2E2E2E2E2E2E2E2E2E2E2E2E2E2E2E2E2E2
310
E2E2E2E2E2E2E2E2E2E2E2E2E2E2E2E2E2E2E2E2E2E2E2E2E2E2E2E2E2E2E2E2E2E2E2E2E2E2E2E2E2E2E2E2E2E2E2E2E2E2E2E2E2E2E2E2E2E2E2E2E2E2E2E2E2E2E2E2E2E2E2E2E2E2E2E2E2E2E2E2E2E2E2E2E2E2E2E2E2E2E2E2E2E2E2E2E2E2E2E2E2E2E2E2E2E2E2E2E2E2E2E2E2E2E2E2E2E2E2E2E2E2E2E2E2E2E2
310
E2E2E2E2E2E2E2E2E2E2E2E2E2E2E2E2E2E2E2E2E2E2E2E2E2E2E2E2E2E2E2E2E2E2E2E2E2E2E2E2E2E2E2E2E2E2E2E2E2E2E2E2E2E2E2E2E2E2E2E2E2E2E2E2E2E2E2E2E2E2E2E2E2E2E2E2E2E2E2E2E2E2E2E2E2E2E2E2E2E2E2E2E2E2E2E2E2E2E2E2E2E2E2E2E2E2E2E2E2E2E2E2E2E2E2E2E2E2E2E2E2E2E2E2E2E2E2
310
E2E2E2E2E2E2E2E2E2E2E2E2E2E2E2E2E2E2E2E2E2E2E2E2E2E2E2E2E2E2E2E2E2E2E2E2E2E2E2E2E2E2E2E2E2E2E2E2E2E2E2E2E2E2E2E2E2E2E2E2E2E2E2E2E2E2E2E2E2E2E2E2E2E2E2E2E2E2E2E2E2E2E2E2E2E2E2E2E2E2E2E2E2E2E2E2E2E2E2E2E2E2E2E2E2E2E2E2E2E2E2E2E2E2E2E2E2E2E2E2E2E2E2E2E2E2E2
310
E2E2E2E2E2E2E2E2E2E2E2E2E2E2E2E2E2E2E2E2E2E2E2E2E2E2E2E2E2E2E2E2E2E2E2E2E2E2E2E2E2E2E2E2E2E2E2E2E2E2E2E2E2E2E2E2E2E2E2E2E2E2E2E2E2E2E2E2E2E2E2E2E2E2E2E2E2E2E2E2E2E2E2E2E2E2E2E2E2E2E2E2E2E2E2E2E2E2E2E2E2E2E2E2E2E2E2E2E2E2E2E2E2E2E2E2E2E2E2E2E2E2E2E2E2E2E2
310
E2E2E2E2E2E2E2E2E2E2E2E2E2E2E2E2E2E2E2E2E2E2E2E2E2E2E2E2E2E2E2E2E2E2E2E2E2E2E2E2E2E2E2E2E2E2E2E2E2E2E2E2E2E2E2E2E2E2E2E2E2E2E2E2E2E2E2E2E2E2E2E2E2E2E2E2E2E2E2E2E2E2E2E2E2E2E2E2E2E2E2E2E2E2E2E2E2E2E2E2E2E2E2E2E2E2E2E2E2E2E2E2E2E2E2E2E2E2E2E2E2E2E2E2E2E2E2
310
E2E2E2E2E2E2E2E2E2E2E2E2E2E2E2E2E2E2E2E2E2E2E2E2E2E2E2E2E2E2E2E2E2E2E2E2E2E2E2E2E2E2E2E2E2E2E2E2E2E2E2E2E2E2E2E2E2E2E2E2E2E2E2E2E2E2E2E2E2E2E2E2E2E2E2E2E2E2E2E2E2E2E2E2E2E2E2E2E2E2E2E2E2E2E2E2E2E2E2E2E2E2E2E2E2E2E2E2E2E2E2E2E2E2E2E2E2E2E2E2E2E2E2E2E2E2E2
310
E2E2E2E2E2E2E2E2E2E2E2E2E2E2E2E2E2E2E2E2E2E2E2E2E2E2E2E2E2E2E2E2E2E2E2E2E2E2E2E2E2E2E2E2E2E2E2E2E2E2E2E2E2E2E2E2E2E2E2E2E2E2E2E2E2E2E2E2E2E2E2E2E2E2E2E2E2E2E2E2E2E2E2E2E2E2E2E2E2E2E2E2E2E2E2E2E2E2E2E2E2E2E2E2E2E2E2E2E2E2E2E2E2E2E2E2E2E2E2E2E2E2E2E2E2E2E2
310
E2E2E2E2E2E2E2E2E2E2E2E2E2E2E2E2E2E2E2E2E2E2E2E2E2E2E2E2E2E2E2E2E2E2E2E2E2E2E2E2E2E2E2E2E2E2E2E2E2E2E2E2E2E2E2E2E2E2E2E2E2E2E2E2E2E2E2E2E2E2E2E2E2E2E2E2E2E2E2E2E2E2E2E2E2E2E2E2E2E2E2E2E2E2E2E2E2E2E2E2E2E2E2E2E2E2E2E2E2E2E2E2E2E2E2E2E2E2E2E2E2E2E2E2E2E2E2
310
E2E2E2E2E2E2E2E2E2E2E2E2E2E2E2E2E2E2E2E2E2E2E2E2E2E2E2E2E2E2E2E2E2E2E2E2E2E2E2E2E2E2E2E2E2E2E2E2E2E2E2E2E2E2E2E2E2E2E2E2E2E2E2E2E2E2E2E2E2E2E2E2E2E2E2E2E2E2E2E2E2E2E2E2E2E2E2E2E2E2E2E2E2E2E2E2E2E2E2E2E2E2E2E2E2E2E2E2E2E2E2E2E2E2E2E2E2E2E2E2E2E2E2E2E2E2E2
310
E2E2E2E2E2E2E2E2E2E2E2E2E2E2E2E2E2E2E2E2E2E2E2E2E2E2E2E2E2E2E2E2E2E2E2E2E2E2E2E2E2E2E2E2E2E2E2E2E2E2E2E2E2E2E2E2E2E2E2E2E2E2E2E2E2E2E2E2E2E2E2E2E2E2E2E2E2E2E2E2E2E2E2E2E2E2E2E2E2E2E2E2E2E2E2E2E2E2E2E2E2E2E2E2E2E2E2E2E2E2E2E2E2E2E2E2E2E2E2E2E2E2E2E2E2E2E2
310
E2E2E2E2E2E2E2E2E2E2E2E2E2E2E2E2E2E2E2E2E2E2E2E2E2E2E2E2E2E2E2E2E2E2E2E2E2E2E2E2E2E2E2E2E2E2E2E2E2E2E2E2E2E2E2E2E2E2E2E2E2E2E2E2E2E2E2E2E2E2E2E2E2E2E2E2E2E2E2E2E2E2E2E2E2E2E2E2E2E2E2E2E2E2E2E2E2E2E2E2E2E2E2E2E2E2E2E2E2E2E2E2E2E2E2E2E2E2E2E2E2E2E2E2E2E2E2
310
E2E2E2E2E2E2E2E2E2E2E2E2E2E2E2E2E2E2E2E2E2E2E2E2E2E2E2E2E2E2E2E2E2E2E2E2E2E2E2E2E2E2E2E2E2E2E2E2E2E2E2E2E2E2E2E2E2E2E2E2E2E2E2E2E2E2E2E2E2E2E2E2E2E2E2E2E2E2E2E2E2E2E2E2E2E2E2E2E2E2E2E2E2E2E2E2E2E2E2E2E2E2E2E2E2E2E2E2E2E2E2E2E2E2E2E2E2E2E2E2E2E2E2E2E2E2E2
310
E2E2E2E2E2E2E2E2E2E2E2E2E2E2E2E2E2E2E2E2E2E2E2E2E2E2E2E2E2E2E2E2E2E2E2E2E2E2E2E2E2E2E2E2E2E2E2E2E2E2E2E2E2E2E2E2E2E2E2E2E2E2E2E2E2E2E2E2E2E2E2E2E2E2E2E2E2E2E2E2E2E2E2E2E2E2E2E2E2E2E2E2E2E2E2E2E2E2E2E2E2E2E2E2E2E2E2E2E2E2E2E2E2E2E2E2E2E2E2E2E2E2E2E2E2E2E2
310
E2E2E2E2E2E2E2E2E2E2E2E2E2E2E2E2E2E2E2E2E2E2E2E2E2E2E2E2E2E2E2E2E2E2E2E2E2E2E2E2E2E2E2E2E2E2E2E2E2E2E2E2E2E2E2E2E2E2E2E2E2E2E2E2E2E2E2E2E2E2E2E2E2E2E2E2E2E2E2E2E2E2E2E2E2E2E2E2E2E2E2E2E2E2E2E2E2E2E2E2E2E2E2E2E2E2E2E2E2E2E2E2E2E2E2E2E2E2E2E2E2E2E2E2E2E2E2
310
E2E2E2E2E2E2E2E2E2E2E2E2E2E2E2E2E2E2E2E2E2E2E2E2E2E2E2E2E2E2E2E2E2E2E2E2E2E2E2E2E2E2E2E2E2E2E2E2E2E2E2E2E2E2E2E2E2E2E2E2E2E2E2E2E2E2E2E2E2E2E2E2E2E2E2E2E2E2E2E2E2E2E2E2E2E2E2E2E2E2E2E2E2E2E2E2E2E2E2E2E2E2E2E2E2E2E2E2E2E2E2E2E2E2E2E2E2E2E2E2E2E2E2E2E2E2E2
310
E2E2E2E2E2E2E2E2E2E2E2E2E2E2E2E2E2E2E2E2E2E2E2E2E2E2E2E2E2E2E2E2E2E2E2E2E2E2E2E2E2E2E2E2E2E2E2E2E2E2E2E2E2E2E2E2E2E2E2E2E2E2E2E2E2E2E2E2E2E2E2E2E2E2E2E2E2E2E2E2E2E2E2E2E2E2E2E2E2E2E2E2E2E2E2E2E2E2E2E2E2E2E2E2E2E2E2E2E2E2E2E2E2E2E2E2E2E2E2E2E2E2E2E2E2E2E2
310
E2E2E2E2E2E2E2E2E2E2E2E2E2E2E2E2E2E2E2E2E2E2E2E2E2E2E2E2E2E2E2E2E2E2E2E2E2E2E2E2E2E2E2E2E2E2E2E2E2E2E2E2E2E2E2E2E2E2E2E2E2E2E2E2E2E2E2E2E2E2E2E2E2E2E2E2E2E2E2E2E2E2E2E2E2E2E2E2E2E2E2E2E2E2E2E2E2E2E2E2E2E2E2E2E2E2E2E2E2E2E2E2E2E2E2E2E2E2E2E2E2E2E2E2E2E2E2
310
E2E2E2E2E2E2E2E2E2E2E2E2E2E2E2E2E2E2E2E2E2E2E2E2E2E2E2E2E2E2E2E2E2E2E2E2E2E2E2E2E2E2E2E2E2E2E2E2E2E2E2E2E2E2E2E2E2E2E2E2E2E2E2E2E2E2E2E2E2E2E2E2E2E2E2E2E2E2E2E2E2E2E2E2E2E2E2E2E2E2E2E2E2E2E2E2E2E2E2E2E2E2E2E2E2E2E2E2E2E2E2E2E2E2E2E2E2E2E2E2E2E2E2E2E2E2E2
310
E2E2E2E2E2E2E2E2E2E2E2E2E2E2E2E2E2E2E2E2E2E2E2E2E2E2E2E2E2E2E2E2E2E2E2E2E2E2E2E2E2E2E2E2E2E2E2E2E2E2E2E2E2E2E2E2E2E2E2E2E2E2E2E2E2E2E2E2E2E2E2E2E2E2E2E2E2E2E2E2E2E2E2E2E2E2E2E2E2E2E2E2E2E2E2E2E2E2E2E2E2E2E2E2E2E2E2E2E2E2E2E2E2E2E2E2E2E2E2E2E2E2E2E2E2E2E2
310
E2E2E2E2E2E2E2E2E2E2E2E2E2E2E2E2E2E2E2E2E2E2E2E2E2E2E2E2E2E2E2E2E2E2E2E2E2E2E2E2E2E2E2E2E2E2E2E2E2E2E2E2E2E2E2E2E2E2E2E2E2E2E2E2E2E2E2E2E2E2E2E2E2E2E2E2E2E2E2E2E2E2E2E2E2E2E2E2E2E2E2E2E2E2E2E2E2E2E2E2E2E2E2E2E2E2E2E2E2E2E2E2E2E2E2E2E2E2E2E2E2E2E2E2E2E2E2
310
E2E2E2E2E2E2E2E2E2E2E2E2E2E2E2E2E2E2E2E2E2E2E2E2E2E2E2E2E2E2E2E2E2E2E2E2E2E2E2E2E2E2E2E2E2E2E2E2E2E2E2E2E2E2E2E2E2E2E2E2E2E2E2E2E2E2E2E2E2E2E2E2E2E2E2E2E2E2E2E2E2E2E2E2E2E2E2E2E2E2E2E2E2E2E2E2E2E2E2E2E2E2E2E2E2E2E2E2E2E2E2E2E2E2E2E2E2E2E2E2E2E2E2E2E2E2E2
310
E2E2E2E2E2E2E2E2E2E2E2E2E2E2E2E2E2E2E2E2E2E2E2E2E2E2E2E2E2E2E2E2E2E2E2E2E2E2E2E2E2E2E2E2E2E2E2E2E2E2E2E2E2E2E2E2E2E2E2E2E2E2E2E2E2E2E2E2E2E2E2E2E2E2E2E2E2E2E2E2E2E2E2E2E2E2E2E2E2E2E2E2E2E2E2E2E2E2E2E2E2E2E2E2E2E2E2E2E2E2E2E2E2E2E2E2E2E2E2E2E2E2E2E2E2E2E2
310
E2E2E2E2E2E2E2E2E2E2E2E2E2E2E2E2E2E2E2E2E2E2E2E2E2E2E2E2E2E2E2E2E2E2E2E2E2E2E2E2E2E2E2E2E2E2E2E2E2E2E2E2E2E2E2E2E2E2E2E2E2E2E2E2E2E2E2E2E2E2E2E2E2E2E2E2E2E2E2E2E2E2E2E2E2E2E2E2E2E2E2E2E2E2E2E2E2E2E2E2E2E2E2E2E2E2E2E2E2E2E2E2E2E2E2E2E2E2E2E2E2E2E2E2E2E2E2
310
E2E2E2E2E2E2E2E2E2E2E2E2E2E2E2E2E2E2E2E2E2E2E2E2E2E2E2E2E2E2E2E2E2E2E2E2E2E2E2E2E2E2E2E2E2E2E2E2E2E2E2E2E2E2E2E2E2E2E2E2E2E2E2E2E2E2E2E2E2E2E2E2E2E2E2E2E2E2E2E2E2E2E2E2E2E2E2E2E2E2E2E2E2E2E2E2E2E2E2E2E2E2E2E2E2E2E2E2E2E2E2E2E2E2E2E2E2E2E2E2E2E2E2E2E2E2E2
310
E2E2E2E2E2E2E2E2E2E2E2E2E2E2E2E2E2E2E2E2E2E2E2E2E2E2E2E2E2E2E2E2E2E2E2E2E2E2E2E2E2E2E2E2E2E2E2E2E2E2E2E2E2E2E2E2E2E2E2E2E2E2E2E2E2E2E2E2E2E2E2E2E2E2E2E2E2E2E2E2E2E2E2E2E2E2E2E2E2E2E2E2E2E2E2E2E2E2E2E2E2E2E2E2E2E2E2E2E2E2E2E2E2E2E2E2E2E2E2E2E2E2E2E2E2E2E2
310
E2E2E2E2E2E2E2E2E2E2E2E2E2E2E2E2E2E2E2E2E2E2E2E2E2E2E2E2E2E2E2E2E2E2E2E2E2E2E2E2E2E2E2E2E2E2E2E2E2E2E2E2E2E2E2E2E2E2E2E2E2E2E2E2E2E2E2E2E2E2E2E2E2E2E2E2E2E2E2E2E2E2E2E2E2E2E2E2E2E2E2E2E2E2E2E2E2E2E2E2E2E2E2E2E2E2E2E2E2E2E2E2E2E2E2E2E2E2E2E2E2E2E2E2E2E2E2
310
E2E2E2E2E2E2E2E2E2E2E2E2E2E2E2E2E2E2E2E2E2E2E2E2E2E2E2E2E2E2E2E2E2E2E2E2E2E2E2E2E2E2E2E2E2E2E2E2E2E2E2E2E2E2E2E2E2E2E2E2E2E2E2E2E2E2E2E2E2E2E2E2E2E2E2E2E2E2E2E2E2E2E2E2E2E2E2E2E2E2E2E2E2E2E2E2E2E2E2E2E2E2E2E2E2E2E2E2E2E2E2E2E2E2E2E2E2E2E2E2E2E2E2E2E2E2E2
310
E2E2E2E2E2E2E2E2E2E2E2E2E2E2E2E2E2E2E2E2E2E2E2E2E2E2E2E2E2E2E2E2E2E2E2E2E2E2E2E2E2E2E2E2E2E2E2E2E2E2E2E2E2E2E2E2E2E2E2E2E2E2E2E2E2E2E2E2E2E2E2E2E2E2E2E2E2E2E2E2E2E2E2E2E2E2E2E2E2E2E2E2E2E2E2E2E2E2E2E2E2E2E2E2E2E2E2E2E2E2E2E2E2E2E2E2E2E2E2E2E2E2E2E2E2E2E2
310
E2E2E2E2E2E2E2E2E2E2E2E2E2E2E2E2E2E2E2E2E2E2E2E2E2E2E2E2E2E2E2E2E2E2E2E2E2E2E2E2E2E2E2E2E2E2E2E2E2E2E2E2E2E2E2E2E2E2E2E2E2E2E2E2E2E2E2E2E2E2E2E2E2E2E2E2E2E2E2E2E2E2E2E2E2E2E2E2E2E2E2E2E2E2E2E2E2E2E2E2E2E2E2E2E2E2E2E2E2E2E2E2E2E2E2E2E2E2E2E2E2E2E2E2E2E2E2
310
E2E2E2E2E2E2E2E2E2E2E2E2E2E2E2E2E2E2E2E2E2E2E2E2E2E2E2E2E2E2E2E2E2E2E2E2E2E2E2E2E2E2E2E2E2E2E2E2E2E2E2E2E2E2E2E2E2E2E2E2E2E2E2E2E2E2E2E2E2E2E2E2E2E2E2E2E2E2E2E2E2E2E2E2E2E2E2E2E2E2E2E2E2E2E2E2E2E2E2E2E2E2E2E2E2E2E2E2E2E2E2E2E2E2E2E2E2E2E2E2E2E2E2E2E2E2E2
310
E2E2E2E2E2E2E2E2E2E2E2E2E2E2E2E2E2E2E2E2E2E2E2E2E2E2E2E2E2E2E2E2E2E2E2E2E2E2E2E2E2E2E2E2E2E2E2E2E2E2E2E2E2E2E2E2E2E2E2E2E2E2E2E2E2E2E2E2E2E2E2E2E2E2E2E2E2E2E2E2E2E2E2E2E2E2E2E2E2E2E2E2E2E2E2E2E2E2E2E2E2E2E2E2E2E2E2E2E2E2E2E2E2E2E2E2E2E2E2E2E2E2E2E2E2E2E2
310
E2E2E2E2E2E2E2E2E2E2E2E2E2E2E2E2E2E2E2E2E2E2E2E2E2E2E2E2E2E2E2E2E2E2E2E2E2E2E2E2E2E2E2E2E2E2E2E2E2E2E2E2E2E2E2E2E2E2E2E2E2E2E2E2E2E2E2E2E2E2E2E2E2E2E2E2E2E2E2E2E2E2E2E2E2E2E2E2E2E2E2E2E2E2E2E2E2E2E2E2E2E2E2E2E2E2E2E2E2E2E2E2E2E2E2E2E2E2E2E2E2E2E2E2E2E2E2
310
E2E2E2E2E2E2E2E2E2E2E2E2E2E2E2E2E2E2E2E2E2E2E2E2E2E2E2E2E2E2E2E2E2E2E2E2E2E2E2E2E2E2E2E2E2E2E2E2E2E2E2E2E2E2E2E2E2E2E2E2E2E2E2E2E2E2E2E2E2E2E2E2E2E2E2E2E2E2E2E2E2E2E2E2E2E2E2E2E2E2E2E2E2E2E2E2E2E2E2E2E2E2E2E2E2E2E2E2E2E2E2E2E2E2E2E2E2E2E2E2E2E2E2E2E2E2E2
310
E2E2E2E2E2E2E2E2E2E2E2E2E2E2E2E2E2E2E2E2E2E2E2E2E2E2E2E2E2E2E2E2E2E2E2E2E2E2E2E2E2E2E2E2E2E2E2E2E2E2E2E2E2E2E2E2E2E2E2E2E2E2E2E2E2E2E2E2E2E2E2E2E2E2E2E2E2E2E2E2E2E2E2E2E2E2E2E2E2E2E2E2E2E2E2E2E2E2E2E2E2E2E2E2E2E2E2E2E2E2E2E2E2E2E2E2E2E2E2E2E2E2E2E2E2E2E2
310
E2E2E2E2E2E2E2E2E2E2E2E2E2E2E2E2E2E2E2E2E2E2E2E2E2E2E2E2E2E2E2E2E2E2E2E2E2E2E2E2E2E2E2E2E2E2E2E2E2E2E2E2E2E2E2E2E2E2E2E2E2E2E2E2E2E2E2E2E2E2E2E2E2E2E2E2E2E2E2E2E2E2E2E2E2E2E2E2E2E2E2E2E2E2E2E2E2E2E2E2E2E2E2E2E2E2E2E2E2E2E2E2E2E2E2E2E2E2E2E2E2E2E2E2E2E2E2
310
E2E2E2E2E2E2E2E2E2E2E2E2E2E2E2E2E2E2E2E2E2E2E2E2E2E2E2E2E2E2E2E2E2E2E2E2E2E2E2E2E2E2E2E2E2E2E2E2E2E2E2E2E2E2E2E2E2E2E2E2E2E2E2E2E2E2E2E2E2E2E2E2E2E2E2E2E2E2E2E2E2E2E2E2E2E2E2E2E2E2E2E2E2E2E2E2E2E2E2E2E2E2E2E2E2E2E2E2E2E2E2E2E2E2E2E2E2E2E2E2E2E2E2E2E2E2E2
310
E2E2E2E2E2E2E2E2E2E2E2E2E2E2E2E2E2E2E2E2E2E2E2E2E2E2E2E2E2E2E2E2E2E2E2E2E2E2E2E2E2E2E2E2E2E2E2E2E2E2E2E2E2E2E2E2E2E2E2E2E2E2E2E2E2E2E2E2E2E2E2E2E2E2E2E2E2E2E2E2E2E2E2E2E2E2E2E2E2E2E2E2E2E2E2E2E2E2E2E2E2E2E2E2E2E2E2E2E2E2E2E2E2E2E2E2E2E2E2E2E2E2E2E2E2E2E2
310
E2E2E2E2E2E2E2E2E2E2E2E2E2E2E2E2E2E2E2E2E2E2E2E2E2E2E2E2E2E2E2E2E2E2E2E2E2E2E2E2E2E2E2E2E2E2E2E2E2E2E2E2E2E2E2E2E2E2E2E2E2E2E2E2E2E2E2E2E2E2E2E2E2E2E2E2E2E2E2E2E2E2E2E2E2E2E2E2E2E2E2E2E2E2E2E2E2E2E2E2E2E2E2E2E2E2E2E2E2E2E2E2E2E2E2E2E2E2E2E2E2E2E2E2E2E2E2
310
E2E2E2E2E2E2E2E2E2E2E2E2E2E2E2E2E2E2E2E2E2E2E2E2E2E2E2E2E2E2E2E2E2E2E2E2E2E2E2E2E2E2E2E2E2E2E2E2E2E2E2E2E2E2E2E2E2E2E2E2E2E2E2E2E2E2E2E2E2E2E2E2E2E2E2E2E2E2E2E2E2E2E2E2E2E2E2E2E2E2E2E2E2E2E2E2E2E2E2E2E2E2E2E2E2E2E2E2E2E2E2E2E2E2E2E2E2E2E2E2E2E2E2E2E2E2E2
310
E2E2E2E2E2E2E2E2E2E2E2E2E2E2E2E2E2E2E2E2E2E2E2E2E2E2E2E2E2E2E2E2E2E2E2E2E2E2E2E2E2E2E2E2E2E2E2E2E2E2E2E2E2E2E2E2E2E2E2E2E2E2E2E2E2E2E2E2E2E2E2E2E2E2E2E2E2E2E2E2E2E2E2E2E2E2E2E2E2E2E2E2E2E2E2E2E2E2E2E2E2E2E2E2E2E2E2E2E2E2E2E2E2E2E2E2E2E2E2E2E2E2E2E2E2E2E2
310
E2E2E2E2E2E2E2E2E2E2E2E2E2E2E2E2E2E2E2E2E2E2E2E2E2E2E2E2E2E2E2E2E2E2E2E2E2E2E2E2E2E2E2E2E2E2E2E2E2E2E2E2E2E2E2E2E2E2E2E2E2E2E2E2E2E2E2E2E2E2E2E2E2E2E2E2E2E2E2E2E2E2E2E2E2E2E2E2E2E2E2E2E2E2E2E2E2E2E2E2E2E2E2E2E2E2E2E2E2E2E2E2E2E2E2E2E2E2E2E2E2E2E2E2E2E2E2
310
E2E2E2E2E2E2E2E2E2E2E2E2E2E2E2E2E2E2E2E2E2E2E2E2E2E2E2E2E2E2E2E2E2E2E2E2E2E2E2E2E2E2E2E2E2E2E2E2E2E2E2E2E2E2E2E2E2E2E2E2E2E2E2E2E2E2E2E2E2E2E2E2E2E2E2E2E2E2E2E2E2E2E2E2E2E2E2E2E2E2E2E2E2E2E2E2E2E2E2E2E2E2E2E2E2E2E2E2E2E2E2E2E2E2E2E2E2E2E2E2E2E2E2E2E2E2E2
310
E2E2E2E2E2E2E2E2E2E2E2E2E2E2E2E2E2E2E2E2E2E2E2E2E2E2E2E2E2E2E2E2E2E2E2E2E2E2E2E2E2E2E2E2E2E2E2E2E2E2E2E2E2E2E2E2E2E2E2E2E2E2E2E2E2E2E2E2E2E2E2E2E2E2E2E2E2E2E2E2E2E2E2E2E2E2E2E2E2E2E2E2E2E2E2E2E2E2E2E2E2E2E2E2E2E2E2E2E2E2E2E2E2E2E2E2E2E2E2E2E2E2E2E2E2E2E2
310
E2E2E2E2E2E2E2E2E2E2E2E2E2E2E2E2E2E2E2E2E2E2E2E2E2E2E2E2E2E2E2E2E2E2E2E2E2E2E2E2E2E2E2E2E2E2E2E2E2E2E2E2E2E2E2E2E2E2E2E2E2E2E2E2E2E2E2E2E2E2E2E2E2E2E2E2E2E2E2E2E2E2E2E2E2E2E2E2E2E2E2E2E2E2E2E2E2E2E2E2E2E2E2E2E2E2E2E2E2E2E2E2E2E2E2E2E2E2E2E2E2E2E2E2E2E2E2
310
E2E2E2E2E2E2E2E2E2E2E2E2E2E2E2E2E2E2E2E2E2E2E2E2E2E2E2E2E2E2E2E2E2E2E2E2E2E2E2E2E2E2E2E2E2E2E2E2E2E2E2E2E2E2E2E2E2E2E2E2E2E2E2E2E2E2E2E2E2E2E2E2E2E2E2E2E2E2E2E2E2E2E2E2E2E2E2E2E2E2E2E2E2E2E2E2E2E2E2E2E2E2E2E2E2E2E2E2E2E2E2E2E2E2E2E2E2E2E2E2E2E2E2E2E2E2E2
310
E2E2E2E2E2E2E2E2E2E2E2E2E2E2E2E2E2E2E2E2E2E2E2E2E2E2E2E2E2E2E2E2E2E2E2E2E2E2E2E2E2E2E2E2E2E2E2E2E2E2E2E2E2E2E2E2E2E2E2E2E2E2E2E2E2E2E2E2E2E2E2E2E2E2E2E2E2E2E2E2E2E2E2E2E2E2E2E2E2E2E2E2E2E2E2E2E2E2E2E2E2E2E2E2E2E2E2E2E2E2E2E2E2E2E2E2E2E2E2E2E2E2E2E2E2E2E2
310
E2E2E2E2E2E2E2E2E2E2E2E2E2E2E2E2E2E2E2E2E2E2E2E2E2E2E2E2E2E2E2E2E2E2E2E2E2E2E2E2E2E2E2E2E2E2E2E2E2E2E2E2E2E2E2E2E2E2E2E2E2E2E2E2E2E2E2E2E2E2E2E2E2E2E2E2E2E2E2E2E2E2E2E2E2E2E2E2E2E2E2E2E2E2E2E2E2E2E2E2E2E2E2E2E2E2E2E2E2E2E2E2E2E2E2E2E2E2E2E2E2E2E2E2E2E2E2
310
E2E2E2E2E2E2E2E2E2E2E2E2E2E2E2E2E2E2E2E2E2E2E2E2E2E2E2E2E2E2E2E2E2E2E2E2E2E2E2E2E2E2E2E2E2E2E2E2E2E2E2E2E2E2E2E2E2E2E2E2E2E2E2E2E2E2E2E2E2E2E2E2E2E2E2E2E2E2E2E2E2E2E2E2E2E2E2E2E2E2E2E2E2E2E2E2E2E2E2E2E2E2E2E2E2E2E2E2E2E2E2E2E2E2E2E2E2E2E2E2E2E2E2E2E2E2E2
310
E2E2E2E2E2E2E2E2E2E2E2E2E2E2E2E2E2E2E2E2E2E2E2E2E2E2E2E2E2E2E2E2E2E2E2E2E2E2E2E2E2E2E2E2E2E2E2E2E2E2E2E2E2E2E2E2E2E2E2E2E2E2E2E2E2E2E2E2E2E2E2E2E2E2E2E2E2E2E2E2E2E2E2E2E2E2E2E2E2E2E2
  0
XRECORD
  5
B71
102
{ACAD_REACTORS
330
46
102
}
330
46
100
AcDbXrecord
280
     1
102
MATERIAL
148
0.0
149
0.0
149
0.0
 93
        0
 94
      127
282
     0
 72
     0
 77
     0
171
     0
175
     0
179
     0
273
     0
  0
XRECORD
  5
47
102
{ACAD_REACTORS
330
46
102
}
330
46
100
AcDbXrecord
280
     1
270
     1
271
     1
  0
XRECORD
  5
48
102
{ACAD_REACTORS
330
46
102
}
330
46
100
AcDbXrecord
280
     1
270
     1
271
     1
  0
XRECORD
  5
49
102
{ACAD_REACTORS
330
46
102
}
330
46
100
AcDbXrecord
280
     1
270
     1
271
     1
  0
XRECORD
  5
4A
102
{ACAD_REACTORS
330
46
102
}
330
46
100
AcDbXrecord
280
     1
270
     1
271
     1
  0
XRECORD
  5
4B
102
{ACAD_REACTORS
330
46
102
}
330
46
100
AcDbXrecord
280
     1
270
     1
271
     1
  0
XRECORD
  5
4C
102
{ACAD_REACTORS
330
46
102
}
330
46
100
AcDbXrecord
280
     1
270
     1
271
     1
  0
XRECORD
  5
B70
102
{ACAD_REACTORS
330
3E
102
}
330
3E
100
AcDbXrecord
280
     1
102
MATERIAL
148
0.0
149
0.0
149
0.0
 93
        0
 94
      127
282
     0
 72
     0
 77
     0
171
     0
175
     0
179
     0
273
     0
  0
XRECORD
  5
3F
102
{ACAD_REACTORS
330
3E
102
}
330
3E
100
AcDbXrecord
280
     1
270
     1
271
     1
  0
XRECORD
  5
40
102
{ACAD_REACTORS
330
3E
102
}
330
3E
100
AcDbXrecord
280
     1
270
     1
271
     1
  0
XRECORD
  5
41
102
{ACAD_REACTORS
330
3E
102
}
330
3E
100
AcDbXrecord
280
     1
270
     1
271
     1
  0
XRECORD
  5
42
102
{ACAD_REACTORS
330
3E
102
}
330
3E
100
AcDbXrecord
280
     1
270
     1
271
     1
  0
XRECORD
  5
43
102
{ACAD_REACTORS
330
3E
102
}
330
3E
100
AcDbXrecord
280
     1
270
     1
271
     1
  0
XRECORD
  5
44
102
{ACAD_REACTORS
330
3E
102
}
330
3E
100
AcDbXrecord
280
     1
270
     1
271
     1
  0
XRECORD
  5
B69
102
{ACAD_REACTORS
330
D
102
}
330
D
100
AcDbXrecord
280
     1
102
MATERIAL
148
0.0
149
0.0
149
0.0
 93
        0
 94
      127
282
     0
 72
     0
 77
     0
171
     0
175
     0
179
     0
273
     0
  0
XRECORD
  5
E
102
{ACAD_REACTORS
330
D
102
}
330
D
100
AcDbXrecord
280
     1
270
     1
271
     1
  0
XRECORD
  5
F
102
{ACAD_REACTORS
330
D
102
}
330
D
100
AcDbXrecord
280
     1
270
     1
271
     1
  0
XRECORD
  5
10
102
{ACAD_REACTORS
330
D
102
}
330
D
100
AcDbXrecord
280
     1
270
     1
271
     1
  0
XRECORD
  5
11
102
{ACAD_REACTORS
330
D
102
}
330
D
100
AcDbXrecord
280
     1
270
     1
271
     1
  0
XRECORD
  5
12
102
{ACAD_REACTORS
330
D
102
}
330
D
100
AcDbXrecord
280
     1
270
     1
271
     1
  0
XRECORD
  5
13
102
{ACAD_REACTORS
330
D
102
}
330
D
100
AcDbXrecord
280
     1
270
     1
271
     1
  0
CELLSTYLEMAP
  5
1F59
102
{ACAD_REACTORS
330
B00
102
}
330
B00
100
AcDbCellStyleMap
 90
        3
300
CELLSTYLE
  1
TABLEFORMAT_BEGIN
 90
        5
170
     1
 91
        0
 92
    32768
 62
   257
 93
        1
300
CONTENTFORMAT
  1
CONTENTFORMAT_BEGIN
 90
        0
 91
        0
 92
        4
 93
        0
300

 40
0.0
140
1.0
 94
        5
 62
     0
340
23
144
6.0
309
CONTENTFORMAT_END
171
     1
301
MARGIN
  1
CELLMARGIN_BEGIN
 40
1.5
 40
1.5
 40
1.5
 40
1.5
 40
0.18
 40
0.18
309
CELLMARGIN_END
 94
        6
 95
        1
302
GRIDFORMAT
  1
GRIDFORMAT_BEGIN
 90
        0
 91
        1
 62
     0
 92
       -2
340
0
 93
        0
 40
0.045
309
GRIDFORMAT_END
 95
        2
302
GRIDFORMAT
  1
GRIDFORMAT_BEGIN
 90
        0
 91
        1
 62
     0
 92
       -2
340
0
 93
        0
 40
0.045
309
GRIDFORMAT_END
 95
        4
302
GRIDFORMAT
  1
GRIDFORMAT_BEGIN
 90
        0
 91
        1
 62
     0
 92
       -2
340
0
 93
        0
 40
0.045
309
GRIDFORMAT_END
 95
        8
302
GRIDFORMAT
  1
GRIDFORMAT_BEGIN
 90
        0
 91
        1
 62
     0
 92
       -2
340
0
 93
        0
 40
0.045
309
GRIDFORMAT_END
 95
       16
302
GRIDFORMAT
  1
GRIDFORMAT_BEGIN
 90
        0
 91
        1
 62
     0
 92
       -2
340
0
 93
        0
 40
0.045
309
GRIDFORMAT_END
 95
       32
302
GRIDFORMAT
  1
GRIDFORMAT_BEGIN
 90
        0
 91
        1
 62
     0
 92
       -2
340
0
 93
        0
 40
0.045
309
GRIDFORMAT_END
309
TABLEFORMAT_END
  1
CELLSTYLE_BEGIN
 90
        1
 91
        1
300
_TITLE
309
CELLSTYLE_END
300
CELLSTYLE
  1
TABLEFORMAT_BEGIN
 90
        5
170
     1
 91
        0
 92
        0
 62
   257
 93
        1
300
CONTENTFORMAT
  1
CONTENTFORMAT_BEGIN
 90
        0
 91
        0
 92
        4
 93
        0
300

 40
0.0
140
1.0
 94
        5
 62
     0
340
23
144
4.5
309
CONTENTFORMAT_END
171
     1
301
MARGIN
  1
CELLMARGIN_BEGIN
 40
1.5
 40
1.5
 40
1.5
 40
1.5
 40
0.18
 40
0.18
309
CELLMARGIN_END
 94
        6
 95
        1
302
GRIDFORMAT
  1
GRIDFORMAT_BEGIN
 90
        0
 91
        1
 62
     0
 92
       -2
340
0
 93
        0
 40
0.045
309
GRIDFORMAT_END
 95
        2
302
GRIDFORMAT
  1
GRIDFORMAT_BEGIN
 90
        0
 91
        1
 62
     0
 92
       -2
340
0
 93
        0
 40
0.045
309
GRIDFORMAT_END
 95
        4
302
GRIDFORMAT
  1
GRIDFORMAT_BEGIN
 90
        0
 91
        1
 62
     0
 92
       -2
340
0
 93
        0
 40
0.045
309
GRIDFORMAT_END
 95
        8
302
GRIDFORMAT
  1
GRIDFORMAT_BEGIN
 90
        0
 91
        1
 62
     0
 92
       -2
340
0
 93
        0
 40
0.045
309
GRIDFORMAT_END
 95
       16
302
GRIDFORMAT
  1
GRIDFORMAT_BEGIN
 90
        0
 91
        1
 62
     0
 92
       -2
340
0
 93
        0
 40
0.045
309
GRIDFORMAT_END
 95
       32
302
GRIDFORMAT
  1
GRIDFORMAT_BEGIN
 90
        0
 91
        1
 62
     0
 92
       -2
340
0
 93
        0
 40
0.045
309
GRIDFORMAT_END
309
TABLEFORMAT_END
  1
CELLSTYLE_BEGIN
 90
        2
 91
        1
300
_HEADER
309
CELLSTYLE_END
300
CELLSTYLE
  1
TABLEFORMAT_BEGIN
 90
        5
170
     1
 91
        0
 92
        0
 62
   257
 93
        1
300
CONTENTFORMAT
  1
CONTENTFORMAT_BEGIN
 90
        0
 91
        0
 92
        4
 93
        0
300

 40
0.0
140
1.0
 94
        2
 62
     0
340
23
144
4.5
309
CONTENTFORMAT_END
171
     1
301
MARGIN
  1
CELLMARGIN_BEGIN
 40
1.5
 40
1.5
 40
1.5
 40
1.5
 40
0.18
 40
0.18
309
CELLMARGIN_END
 94
        6
 95
        1
302
GRIDFORMAT
  1
GRIDFORMAT_BEGIN
 90
        0
 91
        1
 62
     0
 92
       -2
340
0
 93
        0
 40
0.045
309
GRIDFORMAT_END
 95
        2
302
GRIDFORMAT
  1
GRIDFORMAT_BEGIN
 90
        0
 91
        1
 62
     0
 92
       -2
340
0
 93
        0
 40
0.045
309
GRIDFORMAT_END
 95
        4
302
GRIDFORMAT
  1
GRIDFORMAT_BEGIN
 90
        0
 91
        1
 62
     0
 92
       -2
340
0
 93
        0
 40
0.045
309
GRIDFORMAT_END
 95
        8
302
GRIDFORMAT
  1
GRIDFORMAT_BEGIN
 90
        0
 91
        1
 62
     0
 92
       -2
340
0
 93
        0
 40
0.045
309
GRIDFORMAT_END
 95
       16
302
GRIDFORMAT
  1
GRIDFORMAT_BEGIN
 90
        0
 91
        1
 62
     0
 92
       -2
340
0
 93
        0
 40
0.045
309
GRIDFORMAT_END
 95
       32
302
GRIDFORMAT
  1
GRIDFORMAT_BEGIN
 90
        0
 91
        1
 62
     0
 92
       -2
340
0
 93
        0
 40
0.045
309
GRIDFORMAT_END
309
TABLEFORMAT_END
  1
CELLSTYLE_BEGIN
 90
        3
 91
        2
300
_DATA
309
CELLSTYLE_END
  0
XRECORD
  5
1F61
102
{ACAD_REACTORS
330
B00
102
}
330
B00
100
AcDbXrecord
280
     1
102
ACAD_ROUNDTRIP_PRE2007_TABLESTYLE
 90
        4
 91
        0
  1

 92
        4
 93
        0
  2

 94
        4
 95
        0
  3

  0
ENDSEC
  0
EOF
