  0
SECTION
  2
HEADER
  9
$ACADVER
  1
AC1015
  9
$ACADMAINTVER
 70
    20
  9
$DWGCODEPAGE
  3
ANSI_932
  9
$INSBASE
 10
0.0
 20
0.0
 30
0.0
  9
$EXTMIN
 10
4471.593258941537
 20
-484.2571046404008
 30
0.0
  9
$EXTMAX
 10
6421.37895607367
 20
637.1323495235444
 30
0.0
  9
$LIMMIN
 10
0.0
 20
0.0
  9
$LIMMAX
 10
420.0
 20
297.0
  9
$ORTHOMODE
 70
     0
  9
$REGENMODE
 70
     1
  9
$FILLMODE
 70
     1
  9
$QTEXTMODE
 70
     0
  9
$MIRRTEXT
 70
     1
  9
$LTSCALE
 40
1.0
  9
$ATTMODE
 70
     1
  9
$TEXTSIZE
 40
62.5215949741746
  9
$TRACEWID
 40
1.0
  9
$TEXTSTYLE
  7
STANDARD
  9
$CLAYER
  8
SIZE
  9
$CELTYPE
  6
BYLAYER
  9
$CECOLOR
 62
   256
  9
$CELTSCALE
 40
1.0
  9
$DISPSILH
 70
     0
  9
$DIMSCALE
 40
10.0
  9
$DIMASZ
 40
2.0
  9
$DIMEXO
 40
1.0
  9
$DIMDLI
 40
3.75
  9
$DIMRND
 40
0.5
  9
$DIMDLE
 40
0.0
  9
$DIMEXE
 40
1.0
  9
$DIMTP
 40
0.0
  9
$DIMTM
 40
0.0
  9
$DIMTXT
 40
2.0
  9
$DIMCEN
 40
2.5
  9
$DIMTSZ
 40
0.0
  9
$DIMTOL
 70
     0
  9
$DIMLIM
 70
     0
  9
$DIMTIH
 70
     0
  9
$DIMTOH
 70
     0
  9
$DIMSE1
 70
     0
  9
$DIMSE2
 70
     0
  9
$DIMTAD
 70
     1
  9
$DIMZIN
 70
     8
  9
$DIMBLK
  1

  9
$DIMASO
 70
     1
  9
$DIMSHO
 70
     1
  9
$DIMPOST
  1

  9
$DIMAPOST
  1

  9
$DIMALT
 70
     0
  9
$DIMALTD
 70
     4
  9
$DIMALTF
 40
0.0394
  9
$DIMLFAC
 40
1.0
  9
$DIMTOFL
 70
     1
  9
$DIMTVP
 40
0.0
  9
$DIMTIX
 70
     0
  9
$DIMSOXD
 70
     0
  9
$DIMSAH
 70
     1
  9
$DIMBLK1
  1
OPEN30
  9
$DIMBLK2
  1
OPEN30
  9
$DIMSTYLE
  2
STANDARD
  9
$DIMCLRD
 70
     0
  9
$DIMCLRE
 70
     0
  9
$DIMCLRT
 70
     0
  9
$DIMTFAC
 40
1.0
  9
$DIMGAP
 40
1.0
  9
$DIMJUST
 70
     0
  9
$DIMSD1
 70
     0
  9
$DIMSD2
 70
     0
  9
$DIMTOLJ
 70
     1
  9
$DIMTZIN
 70
     8
  9
$DIMALTZ
 70
     0
  9
$DIMALTTZ
 70
     0
  9
$DIMUPT
 70
     0
  9
$DIMDEC
 70
     1
  9
$DIMTDEC
 70
     1
  9
$DIMALTU
 70
     8
  9
$DIMALTTD
 70
     4
  9
$DIMTXSTY
  7
STANDARD
  9
$DIMAUNIT
 70
     0
  9
$DIMADEC
 70
     0
  9
$DIMALTRND
 40
0.0
  9
$DIMAZIN
 70
     0
  9
$DIMDSEP
 70
    46
  9
$DIMATFIT
 70
     3
  9
$DIMFRAC
 70
     0
  9
$DIMLDRBLK
  1
OPEN30
  9
$DIMLUNIT
 70
     2
  9
$DIMLWD
 70
    -2
  9
$DIMLWE
 70
    -2
  9
$DIMTMOVE
 70
     0
  9
$LUNITS
 70
     2
  9
$LUPREC
 70
     2
  9
$SKETCHINC
 40
1.0
  9
$FILLETRAD
 40
10.0
  9
$AUNITS
 70
     0
  9
$AUPREC
 70
     0
  9
$MENU
  1
.
  9
$ELEVATION
 40
0.0
  9
$PELEVATION
 40
0.0
  9
$THICKNESS
 40
0.0
  9
$LIMCHECK
 70
     0
  9
$CHAMFERA
 40
10.0
  9
$CHAMFERB
 40
10.0
  9
$CHAMFERC
 40
20.0
  9
$CHAMFERD
 40
0.0
  9
$SKPOLY
 70
     0
  9
$TDCREATE
 40
2451324.468257373
  9
$TDUCREATE
 40
2451324.093257373
  9
$TDUPDATE
 40
2455890.453329399
  9
$TDUUPDATE
 40
2455890.078329399
  9
$TDINDWG
 40
1.9501147222
  9
$TDUSRTIMER
 40
1.9501138194
  9
$USRTIMER
 70
     1
  9
$ANGBASE
 50
0.0
  9
$ANGDIR
 70
     0
  9
$PDMODE
 70
     0
  9
$PDSIZE
 40
0.0
  9
$PLINEWID
 40
0.0
  9
$SPLFRAME
 70
     0
  9
$SPLINETYPE
 70
     6
  9
$SPLINESEGS
 70
     8
  9
$HANDSEED
  5
1C08
  9
$SURFTAB1
 70
     6
  9
$SURFTAB2
 70
     6
  9
$SURFTYPE
 70
     6
  9
$SURFU
 70
     6
  9
$SURFV
 70
     6
  9
$UCSBASE
  2

  9
$UCSNAME
  2

  9
$UCSORG
 10
0.0
 20
0.0
 30
0.0
  9
$UCSXDIR
 10
1.0
 20
0.0
 30
0.0
  9
$UCSYDIR
 10
0.0
 20
1.0
 30
0.0
  9
$UCSORTHOREF
  2

  9
$UCSORTHOVIEW
 70
     0
  9
$UCSORGTOP
 10
0.0
 20
0.0
 30
0.0
  9
$UCSORGBOTTOM
 10
0.0
 20
0.0
 30
0.0
  9
$UCSORGLEFT
 10
0.0
 20
0.0
 30
0.0
  9
$UCSORGRIGHT
 10
0.0
 20
0.0
 30
0.0
  9
$UCSORGFRONT
 10
0.0
 20
0.0
 30
0.0
  9
$UCSORGBACK
 10
0.0
 20
0.0
 30
0.0
  9
$PUCSBASE
  2

  9
$PUCSNAME
  2

  9
$PUCSORG
 10
0.0
 20
0.0
 30
0.0
  9
$PUCSXDIR
 10
1.0
 20
0.0
 30
0.0
  9
$PUCSYDIR
 10
0.0
 20
1.0
 30
0.0
  9
$PUCSORTHOREF
  2

  9
$PUCSORTHOVIEW
 70
     0
  9
$PUCSORGTOP
 10
0.0
 20
0.0
 30
0.0
  9
$PUCSORGBOTTOM
 10
0.0
 20
0.0
 30
0.0
  9
$PUCSORGLEFT
 10
0.0
 20
0.0
 30
0.0
  9
$PUCSORGRIGHT
 10
0.0
 20
0.0
 30
0.0
  9
$PUCSORGFRONT
 10
0.0
 20
0.0
 30
0.0
  9
$PUCSORGBACK
 10
0.0
 20
0.0
 30
0.0
  9
$USERI1
 70
     0
  9
$USERI2
 70
     0
  9
$USERI3
 70
     0
  9
$USERI4
 70
     0
  9
$USERI5
 70
     0
  9
$USERR1
 40
0.0
  9
$USERR2
 40
0.0
  9
$USERR3
 40
0.0
  9
$USERR4
 40
0.0
  9
$USERR5
 40
0.0
  9
$WORLDVIEW
 70
     1
  9
$SHADEDGE
 70
     3
  9
$SHADEDIF
 70
    70
  9
$TILEMODE
 70
     1
  9
$MAXACTVP
 70
    48
  9
$PINSBASE
 10
0.0
 20
0.0
 30
0.0
  9
$PLIMCHECK
 70
     0
  9
$PEXTMIN
 10
-1439.804583653114
 20
-1400.237631316938
 30
0.0
  9
$PEXTMAX
 10
2872.968780515991
 20
1675.790811506817
 30
0.0
  9
$PLIMMIN
 10
0.0
 20
0.0
  9
$PLIMMAX
 10
12.0
 20
9.0
  9
$UNITMODE
 70
     0
  9
$VISRETAIN
 70
     1
  9
$PLINEGEN
 70
     0
  9
$PSLTSCALE
 70
     1
  9
$TREEDEPTH
 70
  3020
  9
$CMLSTYLE
  2
STANDARD
  9
$CMLJUST
 70
     0
  9
$CMLSCALE
 40
20.0
  9
$PROXYGRAPHICS
 70
     1
  9
$MEASUREMENT
 70
     1
  9
$CELWEIGHT
370
    -1
  9
$ENDCAPS
280
     0
  9
$JOINSTYLE
280
     0
  9
$LWDISPLAY
290
     0
  9
$INSUNITS
 70
     0
  9
$HYPERLINKBASE
  1

  9
$STYLESHEET
  1

  9
$XEDIT
290
     1
  9
$CEPSNTYPE
380
     0
  9
$PSTYLEMODE
290
     1
  9
$FINGERPRINTGUID
  2
{7B48495B-9D62-4076-8CB1-8ACA882609AE}
  9
$VERSIONGUID
  2
{8763BB5E-C775-47D5-9795-66745EEED389}
  9
$EXTNAMES
290
     1
  9
$PSVPSCALE
 40
0.0
  9
$OLESTARTUP
290
     0
  0
ENDSEC
  0
SECTION
  2
CLASSES
  0
CLASS
  1
ACDBDICTIONARYWDFLT
  2
AcDbDictionaryWithDefault
  3
ObjectDBX Classes
 90
        0
280
     0
281
     0
  0
CLASS
  1
ACDBPLACEHOLDER
  2
AcDbPlaceHolder
  3
ObjectDBX Classes
 90
        0
280
     0
281
     0
  0
CLASS
  1
LAYOUT
  2
AcDbLayout
  3
ObjectDBX Classes
 90
        0
280
     0
281
     0
  0
CLASS
  1
ACME_DOCUMENT
  2
AcMeDbDoc
  3
AcMeServices
 90
     1024
280
     0
281
     0
  0
CLASS
  1
AMGSETTINGSOBJ
  2
AmgSettingsObj
  3
"AcadM|Product Description: AutoCAD Mechanical|Company: Autodesk, Inc."
 90
     1024
280
     0
281
     0
  0
CLASS
  1
ACMESCOPE
  2
AcMeScope
  3
AcMeServices
 90
     1024
280
     0
281
     0
  0
CLASS
  1
ACMECOMMANDHISTORY
  2
AcMeCommandHistory
  3
AcMeServices
 90
     1024
280
     0
281
     0
  0
CLASS
  1
DICTIONARYVAR
  2
AcDbDictionaryVar
  3
ObjectDBX Classes
 90
        0
280
     0
281
     0
  0
CLASS
  1
ACIMSYSVARMAN
  2
AcImSysVarManager
  3
AcMeServices
 90
     1024
280
     0
281
     0
  0
CLASS
  1
ACIMREALSYSVAR
  2
AcImRealSysVar
  3
AcMeServices
 90
     1024
280
     0
281
     0
  0
CLASS
  1
ACIMINTSYSVAR
  2
AcImIntSysVar
  3
AcMeServices
 90
     1024
280
     0
281
     0
  0
CLASS
  1
ACMEDRAWINGMAN
  2
AcMeDrawingMan
  3
AcMeServices
 90
     1024
280
     0
281
     0
  0
CLASS
  1
ACMEVIEW
  2
AcMeView
  3
AcMeServices
 90
     1024
280
     0
281
     0
  0
CLASS
  1
ACDBENTITYCACHE
  2
AcMeEntityCache
  3
AcMeServices
 90
     1024
280
     0
281
     0
  0
CLASS
  1
GSMANAGER
  2
AcMeGSManager
  3
AcMeServices
 90
     1024
280
     0
281
     0
  0
CLASS
  1
AMDTINTERNALREACTOR
  2
AmdtInternalReactor
  3
AcMeServices
 90
     1024
280
     0
281
     0
  0
CLASS
  1
ACMESTATEMGR
  2
AcMeStateMgr
  3
AcMeServices
 90
     1024
280
     0
281
     0
  0
CLASS
  1
ACGREFMASTER
  2
AcGrefMaster
  3
AcAttribServices
 90
     1024
280
     0
281
     0
  0
CLASS
  1
AM_DRAWING_MGR
  2
AcDmDwgMgr
  3
AcMechDwgViewMgmt
 90
     1024
280
     0
281
     0
  0
CLASS
  1
AM_DWG_DOCUMENT
  2
AcDmDwgDocument
  3
AcMechDwgViewMgmt
 90
     1024
280
     0
281
     0
  0
CLASS
  1
AM_DWG_SHEET
  2
AcDmSheet
  3
AcMechDwgViewMgmt
 90
     1024
280
     0
281
     0
  0
CLASS
  1
AM_VIEWDIMPARMAP
  2
AcDmViewDimParMap
  3
AcMechDwgViewMgmt
 90
     1024
280
     0
281
     0
  0
CLASS
  1
AM_DWGMGR_NAME
  2
AcDmDwgMgrName
  3
AcMechDwgViewMgmt
 90
     1024
280
     0
281
     0
  0
CLASS
  1
ACME_DATABASE
  2
AcMeDbDatabase
  3
AcMeServices
 90
     1024
280
     0
281
     0
  0
CLASS
  1
ACRFINSADJUSTERMGR
  2
AcRfInsAdjusterMgr
  3
AcMeServices
 90
     1024
280
     0
281
     0
  0
CLASS
  1
ACGREFACADMASTER
  2
AcGrefacadMaster
  3
AcGrefServices
 90
     1024
280
     0
281
     0
  0
CLASS
  1
AMDTMENUSTATEMGR
  2
AmdtMenuStateMgr
  3
McadcomServices
 90
     1024
280
     0
281
     0
  0
CLASS
  1
AMDTMCOMMENUSTATE
  2
AmdtMcomMenuState
  3
McadcomServices
 90
     1024
280
     0
281
     0
  0
CLASS
  1
AMIMASTER
  2
AmiMaster
  3
AmiServices
 90
     1024
280
     0
281
     0
  0
CLASS
  1
ASAPP
  2
AcAsAppObject
  3
AutoSurfServices
 90
     1024
280
     0
281
     0
  0
CLASS
  1
IM_STATIC_MAN
  2
AcImStaticVarManager
  3
AcMeServices
 90
     1024
280
     0
281
     0
  0
CLASS
  1
ACIMSTRSYSVAR
  2
AcImStrSysVar
  3
AcMeServices
 90
     1024
280
     0
281
     0
  0
CLASS
  1
ACIMDBLSTATICVAR
  2
AcImDblStaticVar
  3
AcMeServices
 90
     1024
280
     0
281
     0
  0
CLASS
  1
ACIMSTRSTATICVAR
  2
AcImStrStaticVar
  3
AcMeServices
 90
     1024
280
     0
281
     0
  0
CLASS
  1
ACIMINTSTATICVAR
  2
AcImIntStaticVar
  3
AcMeServices
 90
     1024
280
     0
281
     0
  0
CLASS
  1
ACASGREFMASTER
  2
AcAsGrefMaster
  3
AutoSurfResolverServices
 90
     1024
280
     0
281
     0
  0
CLASS
  1
ACADGREFMODULE
  2
AcAdGrefModule
  3
AdGrefServices
 90
     1024
280
     0
281
     0
  0
CLASS
  1
AMDTMAPISURFMOUDULE
  2
AmdtMApiSurfModule
  3
MApiSurfServices
 90
     1024
280
     0
281
     0
  0
CLASS
  1
MAPIAMMOUDLE
  2
MApiAmModule
  3
MApiAmServices
 90
     1024
280
     0
281
     0
  0
CLASS
  1
AMDTADMENUSTATE
  2
AmdtAdMenuState
  3
DesignerServices
 90
     1024
280
     0
281
     0
  0
CLASS
  1
ADAPPL
  2
AcAdAppl
  3
DesignerServices
 90
     1024
280
     0
281
     0
  0
CLASS
  1
DEPMGR
  2
AcAdDepMgr
  3
DesignerServices
 90
     1024
280
     0
281
     0
  0
CLASS
  1
PARAMMGR
  2
AcAdParamMgr
  3
DesignerServices
 90
     1024
280
     0
281
     0
  0
CLASS
  1
PARAMSCOPE
  2
AcAdParamScope
  3
DesignerServices
 90
     1024
280
     0
281
     0
  0
CLASS
  1
NAMEDAPPL
  2
AcAdNamedAppl
  3
DesignerServices
 90
     1024
280
     0
281
     0
  0
CLASS
  1
ADHNTMPLT
  2
AdHoleNoteTemplateMgr
  3
DesignerServices
 90
    33792
280
     0
281
     0
  0
CLASS
  1
AM_HNTEMPLATE_MGR_NAME
  2
AdHoleNoteTemplateMgrName
  3
DesignerServices
 90
    33792
280
     0
281
     0
  0
CLASS
  1
AMDTDMMENUSTATE
  2
AmdtDmMenuState
  3
AcMechDwgViewMgmt
 90
     1024
280
     0
281
     0
  0
CLASS
  1
MAPIADMODULE
  2
MApiAdModule
  3
MApiAdServices
 90
     1024
280
     0
281
     0
  0
CLASS
  1
AMDTAMMENUSTATE
  2
AmdtAmMenuState
  3
DesignerAssemblies
 90
     1024
280
     0
281
     0
  0
CLASS
  1
ACAMPROJECT
  2
AcAmProject
  3
DesignerAssemblies
 90
     1024
280
     0
281
     0
  0
CLASS
  1
ACAMGRCOMPDEF
  2
AcAmGrCompDef
  3
DesignerAssemblies
 90
     1024
280
     0
281
     0
  0
CLASS
  1
ACCMCONTEXT
  2
AcCmContext
  3
DesignerAssemblies
 90
     1024
280
     0
281
     0
  0
CLASS
  1
ACAMCOMPDEF
  2
AcAmCompDef
  3
DesignerAssemblies
 90
     1024
280
     0
281
     0
  0
CLASS
  1
ACAMCOMPDEFMGR
  2
AcAmCompDefMgr
  3
DesignerAssemblies
 90
     1024
280
     0
281
     0
  0
CLASS
  1
AMCONTEXTMGR
  2
AcAmContextMgr
  3
DesignerAssemblies
 90
     1024
280
     0
281
     0
  0
CLASS
  1
ACAMCONTEXTMODELER
  2
AcAmContextModeler
  3
DesignerAssemblies
 90
     1024
280
     0
281
     0
  0
CLASS
  1
ACMDATADICTIONARY
  2
AcmDataDictionary
  3
"AcmSymBB|Product Description: AutoCAD Mechanical|Company: Autodesk, Inc."
 90
     1024
280
     0
281
     0
  0
CLASS
  1
ACMDATAENTRYBLOCK
  2
AcmDataEntryBlock
  3
AcmSymBB|Product Description: AutoCAD Mechanical|Company: Autodesk, Inc.
 90
     1024
280
     0
281
     0
  0
CLASS
  1
CATALOGSTATE
  2
AcAmCatalogState
  3
DesignerAssemblies
 90
     1024
280
     0
281
     0
  0
CLASS
  1
ACAMGRCOMPDEFSET
  2
AcAmGrCompDefSet
  3
DesignerAssemblies
 90
     1024
280
     0
281
     0
  0
CLASS
  1
AMDTBROWSERDBTAB
  2
AmdtBrowserDbTab
  3
McadcomServices
 90
     1024
280
     0
281
     0
  0
CLASS
  1
CBROWSERAPPOBJECT
  2
CBrowserAppObject
  3
McadcomServices
 90
     1024
280
     0
281
     0
  0
CLASS
  1
DM_PLACEHOLDER
  2
AcDmSelsetPlaceholder
  3
AcMechDwgViewMgmt
 90
     1024
280
     0
281
     0
  0
CLASS
  1
ACMSTANDARDISO
  2
AcmStandardISO
  3
"Amdt_StdImp|Product Description: AutoCAD Mechanical|Company: Autodesk, Inc."
 90
     1024
280
     0
281
     0
  0
CLASS
  1
AMGOBJPROPCFG
  2
AmgObjPropCfg
  3
"AmgLay|Product Description: AutoCAD Mechanical|Company: Autodesk, Inc."
 90
     1025
280
     0
281
     0
  0
CLASS
  1
AMDTEDGESTANDARDISO
  2
AmdtEdgeStdISO
  3
"Amdt_StdImp|Product Description: AutoCAD Mechanical|Company: Autodesk, Inc."
 90
    33792
280
     0
281
     0
  0
CLASS
  1
ACMSURFSTANDARDISO
  2
AcmSurfTextStdISO
  3
"Amdt_StdImp|Product Description: AutoCAD Mechanical|Company: Autodesk, Inc."
 90
    33792
280
     0
281
     0
  0
CLASS
  1
ACMFCFSTANDARDISO
  2
AcmFCFStdISO
  3
"Amdt_StdImp|Product Description: AutoCAD Mechanical|Company: Autodesk, Inc."
 90
     1024
280
     0
281
     0
  0
CLASS
  1
ACMWELDSTANDARDISO
  2
AcmWeldingStdISO
  3
"Amdt_StdImp|Product Description: AutoCAD Mechanical|Company: Autodesk, Inc."
 90
     1024
280
     0
281
     0
  0
CLASS
  1
ACMIDSTANDARDISO
  2
AcmIdStdISO
  3
"Amdt_StdImp|Product Description: AutoCAD Mechanical|Company: Autodesk, Inc."
 90
     1024
280
     0
281
     0
  0
CLASS
  1
ACMDATUMSTANDARDISO
  2
AcmDatumStdISO
  3
"Amdt_StdImp|Product Description: AutoCAD Mechanical|Company: Autodesk, Inc."
 90
     1024
280
     0
281
     0
  0
CLASS
  1
ACMBOMSTANDARDISO
  2
AcmBOMStdISO
  3
"Amdt_StdImp|Product Description: AutoCAD Mechanical|Company: Autodesk, Inc."
 90
     1024
280
     0
281
     0
  0
CLASS
  1
ACMDETAILSTANDARDISO
  2
AmdtDetailSymStdISO
  3
"Amdt_StdImp|Product Description: AutoCAD Mechanical|Company: Autodesk, Inc."
 90
     1024
280
     0
281
     0
  0
CLASS
  1
ACMSECTIONSTANDARDISO
  2
AmdtSectionSymStdISO
  3
"Amdt_StdImp|Product Description: AutoCAD Mechanical|Company: Autodesk, Inc."
 90
    33792
280
     0
281
     0
  0
CLASS
  1
ACMCENTERLINESTANDARDISO
  2
AmdtCenterLineStdISO
  3
"Amdt_StdImp|Product Description: AutoCAD Mechanical|Company: Autodesk, Inc."
 90
     1024
280
     0
281
     0
  0
CLASS
  1
ACMTHREADLINESTANDARDISO
  2
AmdtThreadLineStdISO
  3
"Amdt_StdImp|Product Description: AutoCAD Mechanical|Company: Autodesk, Inc."
 90
     1024
280
     0
281
     0
  0
CLASS
  1
ACAMGLAYSTD
  2
AcAmgLayStd
  3
"AmgLay|Product Description: AutoCAD Mechanical|Company: Autodesk, Inc."
 90
     1024
280
     0
281
     0
  0
CLASS
  1
ACAMGDIMSTD
  2
AcAmgDimStd
  3
"AmgDim|Product Description: AutoCAD Mechanical|Company: Autodesk, Inc."
 90
     1024
280
     0
281
     0
  0
CLASS
  1
ACAMGTITLESTD
  2
AcAmgTitleStd
  3
"AmgTitle|Product Description: AutoCAD Mechanical|Company: Autodesk, Inc."
 90
     4095
280
     0
281
     0
  0
CLASS
  1
ACAMGFILTERDAT
  2
AcAmgFilterDat
  3
"AcadM|Product Description: AutoCAD Mechanical|Company: Autodesk, Inc."
 90
     1024
280
     0
281
     0
  0
CLASS
  1
AMDTFORMULAUPDATEDISPATCHER
  2
AmdtFormulaUpdateDispatcher
  3
AcMeServices
 90
    33792
280
     0
281
     0
  0
CLASS
  1
LAYER_INDEX
  2
AcDbLayerIndex
  3
ObjectDBX Classes
 90
        0
280
     0
281
     0
  0
CLASS
  1
IDBUFFER
  2
AcDbIdBuffer
  3
ObjectDBX Classes
 90
        0
280
     0
281
     0
  0
CLASS
  1
TABLESTYLE
  2
AcDbTableStyle
  3
ObjectDBX Classes
 90
     4095
280
     0
281
     0
  0
CLASS
  1
ACMNOTESTANDARDISO
  2
AmdtNoteStdISO
  3
"Amdt_StdImp|Product Description: AutoCAD Mechanical|Company: Autodesk, Inc."
 90
     1024
280
     0
281
     0
  0
CLASS
  1
AMDTNOTETEMPLATEDB
  2
AmdtNoteTemplateDB
  3
AcmSymBB|Product Description: AutoCAD Mechanical|Company: Autodesk, Inc.
 90
     1024
280
     0
281
     0
  0
CLASS
  1
ACAMEXTERNALCOMPDEF
  2
AcAmExternalCompDef
  3
DesignerAssemblies
 90
    33792
280
     0
281
     0
  0
CLASS
  1
ACCMBODY
  2
AcCmBody
  3
DesignerAssemblies
 90
    33792
280
     0
281
     0
  0
CLASS
  1
ACAMCOMPENT
  2
AcAmCompEnt
  3
DesignerAssemblies
 90
    33792
280
     0
281
     1
  0
CLASS
  1
ACAMCOMPFEEDBACK
  2
AcAmCompFeedback
  3
DesignerAssemblies
 90
    33792
280
     0
281
     0
  0
CLASS
  1
ACAMCOMP
  2
AcAmComp
  3
DesignerAssemblies
 90
    33792
280
     0
281
     0
  0
CLASS
  1
ACAMCOMPENTCLONE
  2
AcAmCompEntClone
  3
DesignerAssemblies
 90
    33792
280
     0
281
     1
  0
CLASS
  1
ACAMCLONEREACTOR
  2
AcAmGrCompCloneReactor
  3
DesignerAssemblies
 90
    33792
280
     0
281
     0
  0
CLASS
  1
EDGEID
  2
AcAdEdgeId
  3
DesignerServices
 90
    33792
280
     0
281
     0
  0
CLASS
  1
ACADPARTLINEDGRES
  2
AcAdPartLinEdgRes
  3
AdGrefServices
 90
    33792
280
     0
281
     0
  0
CLASS
  1
ACRFINSADJ
  2
AcRfInsAdjuster
  3
AcMeServices
 90
    33792
280
     0
281
     0
  0
CLASS
  1
STREFID
  2
AcAdStraightRefId
  3
DesignerServices
 90
    33792
280
     0
281
     0
  0
CLASS
  1
ACMEAXIS
  2
AcImAxisDisplay
  3
AcMeServices
 90
    33792
280
     0
281
     1
  0
CLASS
  1
FACEID
  2
AcAdFaceId
  3
DesignerServices
 90
    33792
280
     0
281
     0
  0
CLASS
  1
DEPEDGESECONDARYDEPID
  2
AcAdDepEdgeSecondaryDepId
  3
DesignerServices
 90
    33792
280
     0
281
     0
  0
CLASS
  1
ACADPARTPLANARFACERES
  2
AcAdPartPlanarFaceRes
  3
AdGrefServices
 90
    33792
280
     0
281
     0
  0
CLASS
  1
ACMEPOINT
  2
AcImPointDisplay
  3
AcMeServices
 90
    33792
280
     0
281
     1
  0
CLASS
  1
ACMELINEARARROW
  2
AcImLinearArrowDisplay
  3
AcMeServices
 90
    33792
280
     0
281
     1
  0
CLASS
  1
ACAMEXPR
  2
AcAmExpr
  3
DesignerAssemblies
 90
    33792
280
     0
281
     0
  0
CLASS
  1
ACCMDISTPLPL
  2
AcCmDistPlPl
  3
DesignerAssemblies
 90
    33792
280
     0
281
     0
  0
CLASS
  1
ACCMCONSTREACTOR
  2
AcCmConstraintReactor
  3
DesignerAssemblies
 90
    33792
280
     0
281
     0
  0
CLASS
  1
ACCMDISTPTLN
  2
AcCmDistPtLn
  3
DesignerAssemblies
 90
    33792
280
     0
281
     0
  0
CLASS
  1
AM_VIEW_SELECT_FILTER
  2
AcDmSelectViewEntFilter
  3
AcMechDwgViewMgmt
 90
    33792
280
     0
281
     0
  0
CLASS
  1
AM_GREF_PLANE
  2
AcDmGrefPlnDef
  3
AcMechDwgViewMgmt
 90
    33792
280
     0
281
     0
  0
CLASS
  1
AM_GREF_AXIS
  2
AcDmGrefAxisDef
  3
AcMechDwgViewMgmt
 90
    33792
280
     0
281
     0
  0
CLASS
  1
AM_BASE_VIEW_ORIENT
  2
AcDmBaseViewOr
  3
AcMechDwgViewMgmt
 90
    33792
280
     0
281
     0
  0
CLASS
  1
AM_DWG_VIEWPORT
  2
AcDmViewport
  3
AcMechDwgViewMgmt
 90
    33792
280
     0
281
     0
  0
CLASS
  1
AM_VIEW_DISPLAY
  2
AcDmDwgViewDisplay
  3
AcMechDwgViewMgmt
 90
    33792
280
     0
281
     0
  0
CLASS
  1
AM_CLDFLTS
  2
AcDmClDflts
  3
AcMechDwgViewMgmt
 90
    33792
280
     0
281
     0
  0
CLASS
  1
AM_BASE_VIEW
  2
AcDmBaseView
  3
AcMechDwgViewMgmt
 90
    33792
280
     0
281
     0
  0
CLASS
  1
ACMEPLINE
  2
AcImPlineDisplay
  3
AcMeServices
 90
    33792
280
     0
281
     1
  0
CLASS
  1
ACDMPARTVIEWDATA
  2
AcDmPartViewData
  3
AcMechDwgViewMgmt
 90
    33792
280
     0
281
     0
  0
CLASS
  1
ACDMDISPLAYATTRIBS
  2
AcDmDisplayAttribs
  3
AcMechDwgViewMgmt
 90
    33792
280
     0
281
     0
  0
CLASS
  1
ACDMBODYINSTANCEDATA
  2
AcDmBodyInstanceData
  3
AcMechDwgViewMgmt
 90
    33792
280
     0
281
     0
  0
CLASS
  1
ACDMVWEDLINE
  2
AcDmViewEdgeLine
  3
AcMechDwgViewMgmt
 90
    33792
280
     0
281
     1
  0
CLASS
  1
ACDMVWEDARC
  2
AcDmViewEdgeArc
  3
AcMechDwgViewMgmt
 90
    33792
280
     0
281
     1
  0
CLASS
  1
AM_ISO_VIEW_ORIENT
  2
AcDmIsoViewOr
  3
AcMechDwgViewMgmt
 90
    33792
280
     0
281
     0
  0
CLASS
  1
AM_ISO_VIEW
  2
AcDmIsoView
  3
AcMechDwgViewMgmt
 90
    33792
280
     0
281
     0
  0
CLASS
  1
AM_ORTHO_VIEW_ORIENT
  2
AcDmOrthoViewOr
  3
AcMechDwgViewMgmt
 90
    33792
280
     0
281
     0
  0
CLASS
  1
AM_ORTHO_VIEW
  2
AcDmOrthoView
  3
AcMechDwgViewMgmt
 90
    33792
280
     0
281
     0
  0
CLASS
  1
ACAMVIEWREACTOR
  2
AcAmViewReactor
  3
DesignerAssemblies
 90
    33792
280
     0
281
     0
  0
CLASS
  1
AMVIEW
  2
AcAmView
  3
DesignerAssemblies
 90
    33792
280
     0
281
     0
  0
CLASS
  1
ACAMVIEWCONTEXT
  2
AcAmViewContext
  3
DesignerAssemblies
 90
    33792
280
     0
281
     0
  0
CLASS
  1
ACAMCOMPENTVIEW
  2
AcAmCompEntView
  3
DesignerAssemblies
 90
    33792
280
     0
281
     1
  0
CLASS
  1
ACAMCOMPVIEWREACTOR
  2
AcAmGrCompViewReactor
  3
DesignerAssemblies
 90
    33792
280
     0
281
     0
  0
CLASS
  1
ACAMVIEWENTITYFILTER
  2
AcAmViewEntityFilter
  3
DesignerAssemblies
 90
    33792
280
     0
281
     0
  0
CLASS
  1
ACDMVWEDCIRC
  2
AcDmViewEdgeCircle
  3
AcMechDwgViewMgmt
 90
    33792
280
     0
281
     1
  0
CLASS
  1
AM_ADCIRCTRLINE
  2
AcAdBullsEyeCl
  3
DesignerServices
 90
    33792
280
     0
281
     0
  0
CLASS
  1
AM_ADLINCTRLINE
  2
AcAdLineCl
  3
DesignerServices
 90
    33792
280
     0
281
     0
  0
CLASS
  1
ACDMVIEWGEOM
  2
AcDmViewGeometry
  3
AcMechDwgViewMgmt
 90
    33792
280
     0
281
     1
  0
CLASS
  1
ACCMDISTLNLN
  2
AcCmDistLnLn
  3
DesignerAssemblies
 90
    33792
280
     0
281
     0
  0
CLASS
  1
ACAMXREFCONTEXTMODELER
  2
AcAmXrefContextModeler
  3
DesignerAssemblies
 90
    33792
280
     0
281
     0
  0
CLASS
  1
CNRREFID
  2
AcAdCornerId
  3
DesignerServices
 90
    33792
280
     0
281
     0
  0
CLASS
  1
ACADPARTPOINTRES
  2
AcAdPartPointRes
  3
AdGrefServices
 90
    33792
280
     0
281
     0
  0
CLASS
  1
AM_VIEWDIMLINEAR
  2
AcDmViewDimLinear
  3
AcMechDwgViewMgmt
 90
    33792
280
     0
281
     0
  0
CLASS
  1
PARAM
  2
AcAdParam
  3
DesignerServices
 90
    33792
280
     0
281
     0
  0
CLASS
  1
SORTENTSTABLE
  2
AcDbSortentsTable
  3
ObjectDBX Classes
 90
        0
280
     0
281
     0
  0
CLASS
  1
ACADPARTCIRCEDGRES
  2
AcAdPartCircEdgRes
  3
AdGrefServices
 90
    33792
280
     0
281
     0
  0
CLASS
  1
AM_VIEWDIMRADIUS
  2
AcDmViewDimRadius
  3
AcMechDwgViewMgmt
 90
    33792
280
     0
281
     0
  0
CLASS
  1
DEPEDGEPATTERNINSTANCE
  2
AcAdDepEdgePatternInstance
  3
DesignerServices
 90
    33792
280
     0
281
     0
  0
CLASS
  1
FEEDBACK
  2
AcAmFeedback
  3
DesignerAssemblies
 90
    33792
280
     0
281
     1
  0
CLASS
  1
ACAMTRIAXISSYMBOL
  2
AcAmTriAxisSymbol
  3
DesignerAssemblies
 90
    33792
280
     0
281
     0
  0
CLASS
  1
ACAMTEXTCIRCLESYMBOL
  2
AcAmTextCircleSymbol
  3
DesignerAssemblies
 90
    33792
280
     0
281
     0
  0
CLASS
  1
ACDMVISEDIT
  2
AcDmViewEntityVisEdit
  3
AcMechDwgViewMgmt
 90
    33792
280
     0
281
     0
  0
CLASS
  1
SILEDGEID
  2
AcAdSilhouetteEdgeId
  3
DesignerServices
 90
    33792
280
     0
281
     0
  0
CLASS
  1
MATERIAL
  2
AcDbMaterial
  3
ObjectDBX Classes
 90
     1153
280
     0
281
     0
  0
CLASS
  1
VISUALSTYLE
  2
AcDbVisualStyle
  3
ObjectDBX Classes
 90
     4095
280
     0
281
     0
  0
CLASS
  1
SCALE
  2
AcDbScale
  3
ObjectDBX Classes
 90
     1153
280
     0
281
     0
  0
CLASS
  1
MLEADERSTYLE
  2
AcDbMLeaderStyle
  3
ACDB_MLEADERSTYLE_CLASS
 90
     4095
280
     0
281
     0
  0
CLASS
  1
EXACTERMXREFMAP
  2
ExAcTermXrefMap
  3
EXAC_SERVICE
 90
    33793
280
     0
281
     0
  0
CLASS
  1
NPOCOLLECTION
  2
AcDbImpNonPersistentObjectsCollection
  3
ObjectDBX Classes
 90
     1153
280
     0
281
     0
  0
CLASS
  1
ACRFATTGENMGR
  2
AcRfAttGeneralMgr
  3
AcAttribServices
 90
     1024
280
     0
281
     0
  0
CLASS
  1
ACRFOBJATTMGR
  2
AcRfObjAttGroupMgr
  3
AcAttribServices
 90
     1024
280
     0
281
     0
  0
CLASS
  1
ACRFMCADAPIATTHOLDER
  2
AcRfMCADAPIAttHolder
  3
AcAttribServices
 90
     1024
280
     0
281
     0
  0
CLASS
  1
AMDTSYSATTR
  2
AmdtSystemAttribute
  3
AcAttribServices
 90
     1024
280
     0
281
     0
  0
CLASS
  1
ACMTAPERSTANDARDISO
  2
AcmTaperStdISO
  3
"Amdt_StdImp|Product Description: AutoCAD Mechanical|Company: Autodesk, Inc."
 90
     1024
280
     0
281
     0
  0
CLASS
  1
ACMANOOTATIONVIEWSTANDARDISO
  2
AmdtAnViewStdISO
  3
"Amdt_StdImp|Product Description: AutoCAD Mechanical|Company: Autodesk, Inc."
 90
     1024
280
     0
281
     0
  0
CLASS
  1
SOLID_BACKGROUND
  2
AcDbSolidBackground
  3
SCENEOE
 90
     4095
280
     0
281
     0
  0
CLASS
  1
CELLSTYLEMAP
  2
AcDbCellStyleMap
  3
ObjectDBX Classes
 90
     1152
280
     0
281
     0
  0
CLASS
  1
AM_ABS_AXIS
  2
AcDmAbsAxisDef
  3
AcMechDwgViewMgmt
 90
    33792
280
     0
281
     0
  0
CLASS
  1
AM_ABS_PLANE
  2
AcDmAbsPlnDef
  3
AcMechDwgViewMgmt
 90
    33792
280
     0
281
     0
  0
CLASS
  1
MULTILEADER
  2
AcDbMLeader
  3
ACDB_MLEADER_CLASS
 90
     1025
280
     0
281
     1
  0
CLASS
  1
AMDTEDGESTANDARDISO13715
  2
AmdtEdgeStdISO13715
  3
"Amdt_StdImp|Product Description: AutoCAD Mechanical|Company: Autodesk, Inc."
 90
     1024
280
     0
281
     0
  0
CLASS
  1
ACMSURFSTANDARDISO2002
  2
AcmSurfTextStdISO2002
  3
"Amdt_StdImp|Product Description: AutoCAD Mechanical|Company: Autodesk, Inc."
 90
     1024
280
     0
281
     0
  0
CLASS
  1
ACMSECTIONSTANDARDISO2001
  2
AmdtSectionSymStdISO2001
  3
"Amdt_StdImp|Product Description: AutoCAD Mechanical|Company: Autodesk, Inc."
 90
     1024
280
     0
281
     0
  0
CLASS
  1
ACAMGHOLECHARTSTDISO
  2
AcAmgHoleChartStdISO
  3
AmgDim|Product Description: AutoCAD Mechanical|Company: Autodesk, Inc.
 90
     1024
280
     0
281
     0
  0
ENDSEC
  0
SECTION
  2
TABLES
  0
TABLE
  2
VPORT
  5
2A
330
0
100
AcDbSymbolTable
 70
     1
  0
VPORT
  5
BB4
330
2A
100
AcDbSymbolTableRecord
100
AcDbViewportTableRecord
  2
*Active
 70
     0
 10
0.0
 20
0.0
 11
1.0
 21
1.0
 12
0.0
 22
0.0
 13
0.0
 23
0.0
 14
10.0
 24
10.0
 15
10.0
 25
10.0
 16
0.0
 26
0.0
 36
2715.094887432587
 17
5446.501630666928
 27
213.5735005827779
 37
0.0
 40
1444.910996184244
 41
1.355276907001044
 42
50.0
 43
0.0
 44
0.0
 50
0.0
 51
0.0
 71
     0
 72
  2000
 73
     1
 74
     0
 75
     0
 76
     0
 77
     0
 78
     0
281
     4
 65
     0
110
0.0
120
0.0
130
0.0
111
1.0
121
0.0
131
0.0
112
0.0
122
1.0
132
0.0
 79
     0
146
0.0
  0
ENDTAB
  0
TABLE
  2
LTYPE
  5
25
330
0
100
AcDbSymbolTable
 70
    12
  0
LTYPE
  5
26
330
25
100
AcDbSymbolTableRecord
100
AcDbLinetypeTableRecord
  2
BYBLOCK
 70
     0
  3

 72
    65
 73
     0
 40
0.0
  0
LTYPE
  5
27
330
25
100
AcDbSymbolTableRecord
100
AcDbLinetypeTableRecord
  2
BYLAYER
 70
     0
  3

 72
    65
 73
     0
 40
0.0
  0
LTYPE
  5
14
330
25
100
AcDbSymbolTableRecord
100
AcDbLinetypeTableRecord
  2
CONTINUOUS
 70
     0
  3
Solid line
 72
    65
 73
     0
 40
0.0
  0
LTYPE
  5
81
330
25
100
AcDbSymbolTableRecord
100
AcDbLinetypeTableRecord
  2
HIDDEN
 70
     0
  3
Hidden __ __ __ __ __ __ __ __ __ __ __ __ __ _
 72
    65
 73
     2
 40
0.375
 49
0.25
 74
     0
 49
-0.125
 74
     0
  0
LTYPE
  5
624
330
25
100
AcDbSymbolTableRecord
100
AcDbLinetypeTableRecord
  2
AM_ISO08W050
 70
     0
  3
____ . ____ . ____ . ____ . ____ . ____ . ____
 72
    65
 73
     4
 40
18.0
 49
12.0
 74
     0
 49
-1.5
 74
     0
 49
3.0
 74
     0
 49
-1.5
 74
     0
  0
LTYPE
  5
C0A
330
25
100
AcDbSymbolTableRecord
100
AcDbLinetypeTableRecord
  2
DASHDOT
 70
     0
  3
____ _ ____ _ ____ _ ____ _ ____ _ ____ _ ____
 72
    65
 73
     4
 40
5.5
 49
4.0
 74
     0
 49
-0.6
 74
     0
 49
0.3
 74
     0
 49
-0.6
 74
     0
  0
LTYPE
  5
11CF
330
25
100
AcDbSymbolTableRecord
100
AcDbLinetypeTableRecord
  2
PHANTOM2
 70
     0
  3
Phantom (.5x) ___ _ _ ___ _ _ ___ _ _ ___ _ _
 72
    65
 73
     6
 40
31.75
 49
15.875
 74
     0
 49
-3.174999999999998
 74
     0
 49
3.174999999999998
 74
     0
 49
-3.174999999999998
 74
     0
 49
3.174999999999998
 74
     0
 49
-3.174999999999998
 74
     0
  0
LTYPE
  5
11D0
330
25
100
AcDbSymbolTableRecord
100
AcDbLinetypeTableRecord
  2
CENTER
 70
     0
  3
Center ____ _ ____ _ ____ _ ____ _ ____ _ ____
 72
    65
 73
     4
 40
50.8
 49
31.75
 74
     0
 49
-6.349999999999997
 74
     0
 49
6.349999999999997
 74
     0
 49
-6.349999999999997
 74
     0
  0
LTYPE
  5
121E
330
25
100
AcDbSymbolTableRecord
100
AcDbLinetypeTableRecord
  2
ASULTYPE
 70
     0
  3
実線
 72
    65
 73
     2
 40
3.0
 49
2.5
 74
     0
 49
0.5
 74
     0
  0
LTYPE
  5
121F
330
25
100
AcDbSymbolTableRecord
100
AcDbLinetypeTableRecord
  2
ASVLTYPE
 70
     0
  3
__ __ __ __ __ __ __ __ __ __ __ __ __ __ __ __ __ __ __ __ __
 72
    65
 73
     2
 40
0.75
 49
0.5
 74
     0
 49
-0.25
 74
     0
  0
LTYPE
  5
1273
330
25
100
AcDbSymbolTableRecord
100
AcDbLinetypeTableRecord
  2
ACISOWELD
 70
     0
  3
_ _ _ _ _
 72
    65
 73
     2
 40
2.0
 49
2.0
 74
     0
 49
-1.0
 74
     0
  0
LTYPE
  5
1274
330
25
100
AcDbSymbolTableRecord
100
AcDbLinetypeTableRecord
  2
ACISOTGB
 70
     0
  3
__ . . __ . .
 72
    65
 73
     6
 40
9.0
 49
4.0
 74
     0
 49
-1.0
 74
     0
 49
1.0
 74
     0
 49
-1.0
 74
     0
 49
1.0
 74
     0
 49
-1.0
 74
     0
  0
LTYPE
  5
1275
330
25
100
AcDbSymbolTableRecord
100
AcDbLinetypeTableRecord
  2
ACISOTGL
 70
     0
  3
_ _ _ _ _
 72
    65
 73
     2
 40
3.0
 49
2.0
 74
     0
 49
-1.0
 74
     0
  0
LTYPE
  5
1659
330
25
100
AcDbSymbolTableRecord
100
AcDbLinetypeTableRecord
  2
DASHED
 70
     0
  3
Dashed __ __ __ __ __ __ __ __ __ __ __ __ __ _
 72
    65
 73
     2
 40
0.75
 49
0.5
 74
     0
 49
-0.25
 74
     0
  0
ENDTAB
  0
TABLE
  2
LAYER
  5
1F
102
{ACAD_XDICTIONARY
360
20
102
}
330
0
100
AcDbSymbolTable
 70
     8
  0
LAYER
  5
5
102
{ACAD_XDICTIONARY
360
6
102
}
330
1F
100
AcDbSymbolTableRecord
100
AcDbLayerTableRecord
  2
0
 70
     0
 62
     7
  6
CONTINUOUS
370
    -3
390
8
  0
LAYER
  5
B89
330
1F
100
AcDbSymbolTableRecord
100
AcDbLayerTableRecord
  2
Defpoints
 70
     0
 62
     7
  6
CONTINUOUS
290
     0
370
    -3
390
8
  0
LAYER
  5
C0B
102
{ACAD_XDICTIONARY
360
C0C
102
}
330
1F
100
AcDbSymbolTableRecord
100
AcDbLayerTableRecord
  2
SIZE
 70
     0
 62
    30
  6
CONTINUOUS
370
    -3
390
8
  0
LAYER
  5
C0D
102
{ACAD_XDICTIONARY
360
C0E
102
}
330
1F
100
AcDbSymbolTableRecord
100
AcDbLayerTableRecord
  2
OUTLINE
 70
     0
 62
     3
  6
CONTINUOUS
370
    -3
390
8
  0
LAYER
  5
C11
102
{ACAD_XDICTIONARY
360
C12
102
}
330
1F
100
AcDbSymbolTableRecord
100
AcDbLayerTableRecord
  2
BASIS
 70
     0
 62
     6
  6
DASHDOT
370
    -3
390
8
  0
LAYER
  5
C13
102
{ACAD_XDICTIONARY
360
C14
102
}
330
1F
100
AcDbSymbolTableRecord
100
AcDbLayerTableRecord
  2
NOTE
 70
     0
 62
     4
  6
CONTINUOUS
370
    -3
390
8
  0
LAYER
  5
C15
102
{ACAD_XDICTIONARY
360
C16
102
}
330
1F
100
AcDbSymbolTableRecord
100
AcDbLayerTableRecord
  2
ARRANGE
 70
     0
 62
     1
  6
CONTINUOUS
370
    -3
390
8
  0
LAYER
  5
C17
102
{ACAD_XDICTIONARY
360
C18
102
}
330
1F
100
AcDbSymbolTableRecord
100
AcDbLayerTableRecord
  2
ETC
 70
     0
 62
    61
  6
CONTINUOUS
370
    -3
390
8
  0
ENDTAB
  0
TABLE
  2
STYLE
  5
22
330
0
100
AcDbSymbolTable
 70
     4
  0
STYLE
  5
23
330
22
100
AcDbSymbolTableRecord
100
AcDbTextStyleTableRecord
  2
STANDARD
 70
     0
 40
0.0
 41
1.0
 50
0.0
 71
     0
 42
62.5215949741746
  3
romans.shx
  4
extfont.shx
  0
STYLE
  5
C19
330
22
100
AcDbSymbolTableRecord
100
AcDbTextStyleTableRecord
  2
STANDARD1
 70
     0
 40
0.0
 41
1.0
 50
0.0
 71
     0
 42
3.5
  3
MONOTXT
  4
BIGFONT
  0
STYLE
  5
1263
330
22
100
AcDbSymbolTableRecord
100
AcDbTextStyleTableRecord
  2
ACISOTS
 70
     0
 40
1.0
 41
1.0
 50
0.0
 71
     0
 42
62.5215949741746
  3
isocp.shx
  4
extfont.shx
  0
STYLE
  5
1272
330
22
100
AcDbSymbolTableRecord
100
AcDbTextStyleTableRecord
  2
ACISOGDT
 70
     0
 40
0.0
 41
1.0
 50
0.0
 71
     0
 42
62.5215949741746
  3
amgdt.shx
  4

  0
ENDTAB
  0
TABLE
  2
VIEW
  5
28
330
0
100
AcDbSymbolTable
 70
     0
  0
ENDTAB
  0
TABLE
  2
UCS
  5
29
330
0
100
AcDbSymbolTable
 70
     0
  0
ENDTAB
  0
TABLE
  2
APPID
  5
2E
330
0
100
AcDbSymbolTable
 70
    22
  0
APPID
  5
2F
330
2E
100
AcDbSymbolTableRecord
100
AcDbRegAppTableRecord
  2
ACAD
 70
     0
  0
APPID
  5
38
330
2E
100
AcDbSymbolTableRecord
100
AcDbRegAppTableRecord
  2
ACAD_DSTYLE_DIMJOGGED_JOGANGLE_SYMBOL
 70
     0
  0
APPID
  5
7C
330
2E
100
AcDbSymbolTableRecord
100
AcDbRegAppTableRecord
  2
AcAecLayerStandard
 70
     0
  0
APPID
  5
1E
330
2E
100
AcDbSymbolTableRecord
100
AcDbRegAppTableRecord
  2
ACAD_PSEXT
 70
     0
  0
APPID
  5
AFF
330
2E
100
AcDbSymbolTableRecord
100
AcDbRegAppTableRecord
  2
ACATTRIBSERVICES
 70
     0
  0
APPID
  5
B18
330
2E
100
AcDbSymbolTableRecord
100
AcDbRegAppTableRecord
  2
ACAD_MLEADERVER
 70
     0
  0
APPID
  5
B21
330
2E
100
AcDbSymbolTableRecord
100
AcDbRegAppTableRecord
  2
ACAD_EXEMPT_FROM_CAD_STANDARDS
 70
     0
  0
APPID
  5
B5E
330
2E
100
AcDbSymbolTableRecord
100
AcDbRegAppTableRecord
  2
ACAD_DSTYLE_DIMJAG
 70
     0
  0
APPID
  5
B5F
330
2E
100
AcDbSymbolTableRecord
100
AcDbRegAppTableRecord
  2
ACAD_DSTYLE_DIMTALN
 70
     0
  0
APPID
  5
B6F
330
2E
100
AcDbSymbolTableRecord
100
AcDbRegAppTableRecord
  2
ACAD_DSTYLE_DIMEXT_LENGTH
 70
     0
  0
APPID
  5
119B
330
2E
100
AcDbSymbolTableRecord
100
AcDbRegAppTableRecord
  2
GENIUS_GENDIM_13
 70
     0
  0
APPID
  5
119C
330
2E
100
AcDbSymbolTableRecord
100
AcDbRegAppTableRecord
  2
GENIUS_GENDTOL_13
 70
     0
  0
APPID
  5
119D
330
2E
100
AcDbSymbolTableRecord
100
AcDbRegAppTableRecord
  2
GENIUS_GE3DTOL_13
 70
     0
  0
APPID
  5
11A0
330
2E
100
AcDbSymbolTableRecord
100
AcDbRegAppTableRecord
  2
MCAD_NO_VIS
 70
     0
  0
APPID
  5
11A1
330
2E
100
AcDbSymbolTableRecord
100
AcDbRegAppTableRecord
  2
ACAD_TEMP_GRAPHIC
 70
     0
  0
APPID
  5
11D2
330
2E
100
AcDbSymbolTableRecord
100
AcDbRegAppTableRecord
  2
AD_DRAW
 70
     0
  0
APPID
  5
1220
330
2E
100
AcDbSymbolTableRecord
100
AcDbRegAppTableRecord
  2
ASURF_PCURVE_APPNAME
 70
     0
  0
APPID
  5
1225
330
2E
100
AcDbSymbolTableRecord
100
AcDbRegAppTableRecord
  2
AMG_3D2D_5.0
 70
     0
  0
APPID
  5
1256
330
2E
100
AcDbSymbolTableRecord
100
AcDbRegAppTableRecord
  2
DESIGNERASSEMBLIES
 70
     0
  0
APPID
  5
125A
330
2E
100
AcDbSymbolTableRecord
100
AcDbRegAppTableRecord
  2
ACADM_DIM_EDIT
 70
     0
  0
APPID
  5
125B
330
2E
100
AcDbSymbolTableRecord
100
AcDbRegAppTableRecord
  2
AMDT_DM_ADJ
 70
     0
  0
APPID
  5
148B
330
2E
100
AcDbSymbolTableRecord
100
AcDbRegAppTableRecord
  2
ACAD_DSTYLE_DIMARC_LENGTH_SYMBOL
 70
     0
  0
ENDTAB
  0
TABLE
  2
DIMSTYLE
  5
30
330
0
100
AcDbSymbolTable
 70
    10
100
AcDbDimStyleTable
 71
     1
340
31
  0
DIMSTYLE
105
31
102
{ACAD_REACTORS
330
19B4
330
19C1
330
19D3
330
1A01
330
1A0E
102
}
330
30
100
AcDbSymbolTableRecord
100
AcDbDimStyleTableRecord
  2
STANDARD
 70
     0
 40
0.0
 41
2.0
 42
1.0
 43
3.75
 44
1.0
 73
     0
 74
     0
 77
     1
 78
     8
140
2.0
141
2.5
143
0.0394
147
1.0
171
     4
172
     1
173
     1
271
     0
272
     0
273
     8
274
     4
284
     8
340
23
341
32
343
32
344
32
1001
ACAD_DSTYLE_DIMEXT_LENGTH
1070
   378
1040
15.0
1001
ACAD_DSTYLE_DIMJOGGED_JOGANGLE_SYMBOL
1070
   384
1040
1.570796326794896
  0
DIMSTYLE
105
1280
330
30
100
AcDbSymbolTableRecord
100
AcDbDimStyleTableRecord
  2
AM_ISO
 70
     0
  4
"
 41
2.5
 42
1.0
 43
10.0
 44
1.0
 47
0.1
 48
0.1
 73
     0
 74
     0
 77
     1
 78
     8
 79
     2
140
3.5
141
0.0
143
0.0393701
146
0.71
147
1.5
172
     1
176
   256
177
   256
178
     2
271
     2
272
     3
274
     4
283
     0
284
     8
340
23
371
    -1
372
    -1
1001
ACAD_DSTYLE_DIMARC_LENGTH_SYMBOL
1070
   379
1070
     1
  0
DIMSTYLE
105
1281
330
30
100
AcDbSymbolTableRecord
100
AcDbDimStyleTableRecord
  2
AM_ISO$3
 70
     0
  4
"
 41
2.5
 42
1.0
 43
10.0
 44
1.0
 47
0.1
 48
0.1
 73
     0
 77
     1
 78
     8
 79
     2
140
3.5
141
0.0
143
0.0393701
146
0.71
147
1.5
176
   256
177
   256
178
     2
271
     2
272
     3
274
     4
283
     0
284
     8
288
     1
289
     0
340
23
371
    -1
372
    -1
1001
ACAD_DSTYLE_DIMARC_LENGTH_SYMBOL
1070
   379
1070
     1
  0
DIMSTYLE
105
1282
330
30
100
AcDbSymbolTableRecord
100
AcDbDimStyleTableRecord
  2
AM_ISO$4
 70
     0
  4
"
 41
2.5
 42
1.0
 43
10.0
 44
1.0
 47
0.1
 48
0.1
 73
     0
 77
     1
 78
     8
 79
     2
140
3.5
141
0.0
143
0.0393701
146
0.71
147
1.5
176
   256
177
   256
178
     2
271
     2
272
     3
274
     4
283
     0
284
     8
288
     1
289
     0
340
23
371
    -1
372
    -1
1001
ACAD_DSTYLE_DIMARC_LENGTH_SYMBOL
1070
   379
1070
     1
  0
DIMSTYLE
105
1283
330
30
100
AcDbSymbolTableRecord
100
AcDbDimStyleTableRecord
  2
AM_ISO$6
 70
     0
  4
"
 41
2.5
 42
1.0
 43
10.0
 44
1.0
 47
0.1
 48
0.1
 73
     0
 74
     0
 78
     8
 79
     2
140
3.5
141
0.0
143
0.0393701
146
0.71
147
1.5
172
     1
176
   256
177
   256
178
     2
271
     2
272
     3
274
     4
283
     0
284
     8
340
23
371
    -1
372
    -1
1001
ACAD_DSTYLE_DIMARC_LENGTH_SYMBOL
1070
   379
1070
     1
  0
DIMSTYLE
105
1284
330
30
100
AcDbSymbolTableRecord
100
AcDbDimStyleTableRecord
  2
AM_ISO$7
 70
     0
  4
"
 41
2.5
 42
1.0
 43
10.0
 44
1.0
 47
0.1
 48
0.1
 73
     0
 74
     0
 77
     1
 78
     8
 79
     2
140
5.0
141
0.0
143
0.0393701
146
0.71
147
1.5
172
     1
176
   256
177
   256
178
     2
271
     2
272
     3
274
     4
283
     0
284
     8
340
23
371
    -1
372
    -1
1001
ACAD_DSTYLE_DIMARC_LENGTH_SYMBOL
1070
   379
1070
     1
  0
DIMSTYLE
105
1285
330
30
100
AcDbSymbolTableRecord
100
AcDbDimStyleTableRecord
  2
AM_ISO$SF
 70
     0
  4
"
 41
2.5
 42
1.0
 43
10.0
 44
1.0
 47
0.1
 48
0.1
 73
     0
 74
     0
 75
     1
 76
     1
 77
     1
 78
     8
 79
     2
140
3.5
141
0.0
143
0.0393701
146
0.71
147
1.5
172
     1
176
   256
177
   256
178
     2
271
     2
272
     3
274
     4
283
     0
284
     8
340
23
371
    -1
372
    -1
1001
ACAD_DSTYLE_DIMARC_LENGTH_SYMBOL
1070
   379
1070
     1
  0
DIMSTYLE
105
128A
330
30
100
AcDbSymbolTableRecord
100
AcDbDimStyleTableRecord
  2
AM_ISO$SH
 70
     0
  4
"
 41
2.5
 42
1.0
 43
10.0
 44
1.0
 47
0.1
 48
0.1
 73
     0
 74
     0
 75
     1
 76
     1
 77
     1
 78
     8
 79
     2
140
3.5
141
0.0
143
0.0393701
144
2.0
146
0.71
147
1.5
172
     1
173
     1
176
   256
177
   256
178
     2
271
     2
272
     3
274
     4
283
     0
284
     8
340
23
343
1286
371
    -1
372
    -1
1001
ACAD_DSTYLE_DIMARC_LENGTH_SYMBOL
1070
   379
1070
     1
  0
DIMSTYLE
105
1292
330
30
100
AcDbSymbolTableRecord
100
AcDbDimStyleTableRecord
  2
STANDARD1
 70
     0
 40
10.0
 41
2.5
 42
0.625
 43
3.75
 44
1.25
 77
     1
 78
     8
140
2.5
141
0.0
147
1.0
173
     1
284
     8
340
23
341
32
343
32
344
32
  0
DIMSTYLE
105
1293
330
30
100
AcDbSymbolTableRecord
100
AcDbDimStyleTableRecord
  2
AM_JIS
 70
     0
  4
"
 40
10.0
 41
2.5
 42
1.0
 43
10.0
 44
1.0
 47
0.1
 48
0.1
 73
     0
 74
     0
 77
     3
 78
     8
 79
     2
140
3.5
141
0.0
143
0.0393701
146
0.71
147
1.5
172
     1
176
   256
177
   256
178
     2
271
     2
272
     3
274
     4
283
     0
284
     8
340
23
341
32
342
32
343
32
344
32
371
    -1
372
    -1
1001
ACAD_DSTYLE_DIMJOGGED_JOGANGLE_SYMBOL
1070
   384
1040
0.7853981633974483
1001
ACAD_DSTYLE_DIMARC_LENGTH_SYMBOL
1070
   379
1070
     1
  0
ENDTAB
  0
TABLE
  2
BLOCK_RECORD
  5
1
330
0
100
AcDbSymbolTable
 70
    15
  0
BLOCK_RECORD
  5
2
102
{ACAD_XDICTIONARY
360
3
102
}
330
1
100
AcDbSymbolTableRecord
100
AcDbBlockTableRecord
  2
*MODEL_SPACE
340
16
  0
BLOCK_RECORD
  5
18
330
1
100
AcDbSymbolTableRecord
100
AcDbBlockTableRecord
  2
*Paper_Space
340
1B
  0
BLOCK_RECORD
  5
32
330
1
100
AcDbSymbolTableRecord
100
AcDbBlockTableRecord
  2
_OPEN30
340
0
102
{BLKREFS
331
1167
331
1168
331
1170
331
1171
331
1179
331
117A
331
144E
331
144F
331
145B
331
145C
331
1468
331
1469
331
19BB
331
19BC
331
19DA
331
19DB
331
19FB
331
19FC
331
1A08
331
1A09
331
1A15
331
1A16
102
}
  0
BLOCK_RECORD
  5
B8A
330
1
100
AcDbSymbolTableRecord
100
AcDbBlockTableRecord
  2
*D1
340
0
  0
BLOCK_RECORD
  5
B97
330
1
100
AcDbSymbolTableRecord
100
AcDbBlockTableRecord
  2
*D2
340
0
  0
BLOCK_RECORD
  5
BA4
330
1
100
AcDbSymbolTableRecord
100
AcDbBlockTableRecord
  2
*D3
340
0
  0
BLOCK_RECORD
  5
C05
330
1
100
AcDbSymbolTableRecord
100
AcDbBlockTableRecord
  2
_DOTBLANK
340
0
  0
BLOCK_RECORD
  5
1286
330
1
100
AcDbSymbolTableRecord
100
AcDbBlockTableRecord
  2
GENAXEH
340
0
  0
BLOCK_RECORD
  5
1448
330
1
100
AcDbSymbolTableRecord
100
AcDbBlockTableRecord
  2
*D6
340
0
  0
BLOCK_RECORD
  5
1455
330
1
100
AcDbSymbolTableRecord
100
AcDbBlockTableRecord
  2
*D7
340
0
  0
BLOCK_RECORD
  5
1462
330
1
100
AcDbSymbolTableRecord
100
AcDbBlockTableRecord
  2
*D8
340
0
  0
BLOCK_RECORD
  5
19B5
330
1
100
AcDbSymbolTableRecord
100
AcDbBlockTableRecord
  2
*D9
340
0
  0
BLOCK_RECORD
  5
19C2
330
1
100
AcDbSymbolTableRecord
100
AcDbBlockTableRecord
  2
*D10
340
0
  0
BLOCK_RECORD
  5
19D4
330
1
100
AcDbSymbolTableRecord
100
AcDbBlockTableRecord
  2
*D11
340
0
  0
BLOCK_RECORD
  5
1A02
330
1
100
AcDbSymbolTableRecord
100
AcDbBlockTableRecord
  2
*D12
340
0
  0
BLOCK_RECORD
  5
1A0F
330
1
100
AcDbSymbolTableRecord
100
AcDbBlockTableRecord
  2
*D13
340
0
  0
ENDTAB
  0
ENDSEC
  0
SECTION
  2
BLOCKS
  0
BLOCK
  5
4
330
2
100
AcDbEntity
  8
0
100
AcDbBlockBegin
  2
*MODEL_SPACE
 70
     0
 10
0.0
 20
0.0
 30
0.0
  3
*MODEL_SPACE
  1

  0
ENDBLK
  5
15
330
2
100
AcDbEntity
  8
0
100
AcDbBlockEnd
  0
BLOCK
  5
19
330
18
100
AcDbEntity
 67
     1
  8
0
100
AcDbBlockBegin
  2
*Paper_Space
 70
     0
 10
0.0
 20
0.0
 30
0.0
  3
*Paper_Space
  1

  0
ENDBLK
  5
1A
330
18
100
AcDbEntity
 67
     1
  8
0
100
AcDbBlockEnd
  0
BLOCK
  5
33
330
32
100
AcDbEntity
  8
0
100
AcDbBlockBegin
  2
_OPEN30
 70
     0
 10
0.0
 20
0.0
 30
0.0
  3
_OPEN30
  1

  0
LINE
  5
34
330
32
100
AcDbEntity
  8
0
  6
ByBlock
 62
     0
100
AcDbLine
 10
-1.0
 20
0.26794919
 30
0.0
 11
0.0
 21
0.0
 31
0.0
  0
LINE
  5
35
330
32
100
AcDbEntity
  8
0
  6
ByBlock
 62
     0
100
AcDbLine
 10
0.0
 20
0.0
 30
0.0
 11
-1.0
 21
-0.26794919
 31
0.0
  0
LINE
  5
36
330
32
100
AcDbEntity
  8
0
  6
ByBlock
 62
     0
100
AcDbLine
 10
0.0
 20
0.0
 30
0.0
 11
-1.0
 21
0.0
 31
0.0
  0
ENDBLK
  5
37
330
32
100
AcDbEntity
  8
0
100
AcDbBlockEnd
  0
BLOCK
  5
B94
330
B8A
100
AcDbEntity
  8
0
100
AcDbBlockBegin
  2
*D1
 70
     1
 10
0.0
 20
0.0
 30
0.0
  3
*D1
  1

  0
LINE
  5
116D
330
B8A
100
AcDbEntity
  8
SIZE
 62
     0
370
    -2
100
AcDbLine
 10
1931.668780516005
 20
-324.5556583977695
 30
0.0
 11
1931.668780516005
 21
-380.2689857515068
 31
0.0
  0
LINE
  5
116E
330
B8A
100
AcDbEntity
  8
SIZE
 62
     0
370
    -2
100
AcDbLine
 10
2810.668780515992
 20
-324.5556583977944
 30
0.0
 11
2810.668780515992
 21
-380.2689857515068
 31
0.0
  0
LINE
  5
116F
330
B8A
100
AcDbEntity
  8
SIZE
 62
     0
370
    -2
100
AcDbLine
 10
1941.668780516005
 20
-375.2689857515068
 30
0.0
 11
2800.668780515992
 21
-375.2689857515068
 31
0.0
  0
INSERT
  5
1170
330
B8A
100
AcDbEntity
  8
SIZE
 62
     0
370
    -2
100
AcDbBlockReference
  2
_OPEN30
 10
1931.668780516005
 20
-375.2689857515068
 30
0.0
 41
10.0
 42
10.0
 43
10.0
 50
180.0
  0
INSERT
  5
1171
330
B8A
100
AcDbEntity
  8
SIZE
 62
     0
370
    -2
100
AcDbBlockReference
  2
_OPEN30
 10
2810.668780515992
 20
-375.2689857515068
 30
0.0
 41
10.0
 42
10.0
 43
10.0
  0
MTEXT
  5
1172
330
B8A
100
AcDbEntity
  8
SIZE
 62
     0
100
AcDbMText
 10
2371.168780515998
 20
-365.2689857515068
 30
0.0
 40
10.0
 41
0.0
 71
     5
 72
     1
  1
\A1;879
 73
     1
 44
1.0
1001
ACAD
1000
MTEXTBEGIN
1070
    73
1070
     1
1070
    44
1040
1.0
1070
    74
1070
     0
1000
MTEXTEND
  0
POINT
  5
1173
330
B8A
100
AcDbEntity
  8
Defpoints
 62
     0
100
AcDbPoint
 10
1931.668780516005
 20
-319.5556583977695
 30
0.0
  0
POINT
  5
1174
330
B8A
100
AcDbEntity
  8
Defpoints
 62
     0
100
AcDbPoint
 10
2810.668780515992
 20
-319.5556583977944
 30
0.0
  0
POINT
  5
1175
330
B8A
100
AcDbEntity
  8
Defpoints
 62
     0
100
AcDbPoint
 10
2810.668780515992
 20
-375.2689857515068
 30
0.0
  0
ENDBLK
  5
B95
330
B8A
100
AcDbEntity
  8
0
100
AcDbBlockEnd
  0
BLOCK
  5
BA1
330
B97
100
AcDbEntity
  8
0
100
AcDbBlockBegin
  2
*D2
 70
     1
 10
0.0
 20
0.0
 30
0.0
  3
*D2
  1

  0
LINE
  5
1164
330
B97
100
AcDbEntity
  8
SIZE
 62
     0
370
    -2
100
AcDbLine
 10
1915.168780516005
 20
-324.5556583977695
 30
0.0
 11
1915.168780516005
 21
-431.0391847903698
 31
0.0
  0
LINE
  5
1165
330
B97
100
AcDbEntity
  8
SIZE
 62
     0
370
    -2
100
AcDbLine
 10
2827.168780515993
 20
-324.5556583977944
 30
0.0
 11
2827.168780515993
 21
-431.0391847903698
 31
0.0
  0
LINE
  5
1166
330
B97
100
AcDbEntity
  8
SIZE
 62
     0
370
    -2
100
AcDbLine
 10
1925.168780516005
 20
-426.0391847903697
 30
0.0
 11
2817.168780515994
 21
-426.0391847903697
 31
0.0
  0
INSERT
  5
1167
330
B97
100
AcDbEntity
  8
SIZE
 62
     0
370
    -2
100
AcDbBlockReference
  2
_OPEN30
 10
1915.168780516005
 20
-426.0391847903697
 30
0.0
 41
10.0
 42
10.0
 43
10.0
 50
180.0
  0
INSERT
  5
1168
330
B97
100
AcDbEntity
  8
SIZE
 62
     0
370
    -2
100
AcDbBlockReference
  2
_OPEN30
 10
2827.168780515993
 20
-426.0391847903697
 30
0.0
 41
10.0
 42
10.0
 43
10.0
  0
MTEXT
  5
1169
330
B97
100
AcDbEntity
  8
SIZE
 62
     0
100
AcDbMText
 10
2371.168780515999
 20
-416.0391847903698
 30
0.0
 40
10.0
 41
0.0
 71
     5
 72
     1
  1
\A1;912
 73
     1
 44
1.0
1001
ACAD
1000
MTEXTBEGIN
1070
    73
1070
     1
1070
    44
1040
1.0
1070
    74
1070
     0
1000
MTEXTEND
  0
POINT
  5
116A
330
B97
100
AcDbEntity
  8
Defpoints
 62
     0
100
AcDbPoint
 10
1915.168780516005
 20
-319.5556583977695
 30
0.0
  0
POINT
  5
116B
330
B97
100
AcDbEntity
  8
Defpoints
 62
     0
100
AcDbPoint
 10
2827.168780515993
 20
-319.5556583977944
 30
0.0
  0
POINT
  5
116C
330
B97
100
AcDbEntity
  8
Defpoints
 62
     0
100
AcDbPoint
 10
2827.168780515993
 20
-426.0391847903697
 30
0.0
  0
ENDBLK
  5
BA2
330
B97
100
AcDbEntity
  8
0
100
AcDbBlockEnd
  0
BLOCK
  5
BAE
330
BA4
100
AcDbEntity
  8
0
100
AcDbBlockBegin
  2
*D3
 70
     1
 10
0.0
 20
0.0
 30
0.0
  3
*D3
  1

  0
LINE
  5
1176
330
BA4
100
AcDbEntity
  8
SIZE
 62
     0
370
    -2
100
AcDbLine
 10
1910.168780516005
 20
-319.5556583977694
 30
0.0
 11
1876.700263935713
 21
-319.5556583977694
 31
0.0
  0
LINE
  5
1177
330
BA4
100
AcDbEntity
  8
SIZE
 62
     0
370
    -2
100
AcDbLine
 10
1951.168780516006
 20
519.2886459369551
 30
0.0
 11
1876.700263935714
 21
519.2886459369551
 31
0.0
  0
LINE
  5
1178
330
BA4
100
AcDbEntity
  8
SIZE
 62
     0
370
    -2
100
AcDbLine
 10
1881.700263935714
 20
-309.5556583977694
 30
0.0
 11
1881.700263935714
 21
509.2886459369551
 31
0.0
  0
INSERT
  5
1179
330
BA4
100
AcDbEntity
  8
SIZE
 62
     0
370
    -2
100
AcDbBlockReference
  2
_OPEN30
 10
1881.700263935714
 20
-319.5556583977694
 30
0.0
 41
10.0
 42
10.0
 43
10.0
 50
270.0
  0
INSERT
  5
117A
330
BA4
100
AcDbEntity
  8
SIZE
 62
     0
370
    -2
100
AcDbBlockReference
  2
_OPEN30
 10
1881.700263935714
 20
519.2886459369551
 30
0.0
 41
10.0
 42
10.0
 43
10.0
 50
90.0
  0
MTEXT
  5
117B
330
BA4
100
AcDbEntity
  8
SIZE
 62
     0
100
AcDbMText
 10
1871.700263935714
 20
99.8664937695932
 30
0.0
 40
10.0
 41
0.0
 71
     5
 72
     1
  1
\A1;839
 11
0.0000000000000001
 21
1.0
 31
0.0
 73
     1
 44
1.0
1001
ACAD
1000
MTEXTBEGIN
1070
    73
1070
     1
1070
    44
1040
1.0
1070
    74
1070
     0
1000
MTEXTEND
  0
POINT
  5
117C
330
BA4
100
AcDbEntity
  8
Defpoints
 62
     0
100
AcDbPoint
 10
1915.168780516005
 20
-319.5556583977694
 30
0.0
  0
POINT
  5
117D
330
BA4
100
AcDbEntity
  8
Defpoints
 62
     0
100
AcDbPoint
 10
1956.168780516006
 20
519.2886459369551
 30
0.0
  0
POINT
  5
117E
330
BA4
100
AcDbEntity
  8
Defpoints
 62
     0
100
AcDbPoint
 10
1881.700263935714
 20
519.2886459369551
 30
0.0
  0
ENDBLK
  5
BAF
330
BA4
100
AcDbEntity
  8
0
100
AcDbBlockEnd
  0
BLOCK
  5
C06
330
C05
100
AcDbEntity
  8
0
100
AcDbBlockBegin
  2
_DOTBLANK
 70
     0
 10
0.0
 20
0.0
 30
0.0
  3
_DOTBLANK
  1

  0
CIRCLE
  5
C07
330
C05
100
AcDbEntity
  8
0
  6
Continuous
 62
     7
100
AcDbCircle
 10
0.0
 20
0.0
 30
0.0
 40
0.5
  0
LINE
  5
C08
330
C05
100
AcDbEntity
  8
0
  6
Continuous
 62
     7
100
AcDbLine
 10
-0.5
 20
0.0
 30
0.0
 11
-1.0
 21
0.0
 31
0.0
  0
ENDBLK
  5
C09
330
C05
100
AcDbEntity
  8
0
100
AcDbBlockEnd
  0
BLOCK
  5
1288
330
1286
100
AcDbEntity
  8
0
100
AcDbBlockBegin
  2
GENAXEH
 70
     0
 10
0.0
 20
0.0
 30
0.0
  3
GENAXEH
  1

  0
LINE
  5
1287
330
1286
100
AcDbEntity
  8
0
100
AcDbLine
 10
-1.0
 20
0.0
 30
0.0
 11
1.0
 21
0.0
 31
0.0
  0
ENDBLK
  5
1289
330
1286
100
AcDbEntity
  8
0
100
AcDbBlockEnd
  0
BLOCK
  5
1449
330
1448
100
AcDbEntity
  8
0
100
AcDbBlockBegin
  2
*D6
 70
     1
 10
0.0
 20
0.0
 30
0.0
  3
*D6
  1

  0
LINE
  5
144B
330
1448
100
AcDbEntity
  8
SIZE
 62
     0
370
    -2
100
AcDbLine
 10
3276.577915568412
 20
-345.7119700917789
 30
0.0
 11
3276.577915568412
 21
-407.9533044267659
 31
0.0
  0
LINE
  5
144C
330
1448
100
AcDbEntity
  8
SIZE
 62
     0
370
    -2
100
AcDbLine
 10
4152.577915568391
 20
-345.7119700917789
 30
0.0
 11
4152.577915568391
 21
-407.9533044267659
 31
0.0
  0
LINE
  5
144D
330
1448
100
AcDbEntity
  8
SIZE
 62
     0
370
    -2
100
AcDbLine
 10
3296.57791556841
 20
-397.9533044267659
 30
0.0
 11
4132.577915568391
 21
-397.9533044267659
 31
0.0
  0
INSERT
  5
144E
330
1448
100
AcDbEntity
  8
SIZE
 62
     0
370
    -2
100
AcDbBlockReference
  2
_OPEN30
 10
3276.577915568412
 20
-397.9533044267659
 30
0.0
 41
20.0
 42
20.0
 43
20.0
 50
180.0
  0
INSERT
  5
144F
330
1448
100
AcDbEntity
  8
SIZE
 62
     0
370
    -2
100
AcDbBlockReference
  2
_OPEN30
 10
4152.577915568391
 20
-397.9533044267659
 30
0.0
 41
20.0
 42
20.0
 43
20.0
  0
MTEXT
  5
1450
330
1448
100
AcDbEntity
  8
SIZE
 62
     0
100
AcDbMText
 10
3714.577915568401
 20
-377.9533044267659
 30
0.0
 40
20.0
 41
0.0
 71
     5
 72
     1
  1
\A1;876
 73
     1
 44
1.0
1001
ACAD
1000
MTEXTBEGIN
1070
    73
1070
     1
1070
    44
1040
1.0
1070
    74
1070
     0
1000
MTEXTEND
  0
POINT
  5
1451
330
1448
100
AcDbEntity
  8
Defpoints
 62
     0
100
AcDbPoint
 10
3276.577915568412
 20
-335.7119700917789
 30
0.0
  0
POINT
  5
1452
330
1448
100
AcDbEntity
  8
Defpoints
 62
     0
100
AcDbPoint
 10
4152.577915568391
 20
-335.7119700917789
 30
0.0
  0
POINT
  5
1453
330
1448
100
AcDbEntity
  8
Defpoints
 62
     0
100
AcDbPoint
 10
4152.577915568391
 20
-397.9533044267659
 30
0.0
  0
ENDBLK
  5
144A
330
1448
100
AcDbEntity
  8
0
100
AcDbBlockEnd
  0
BLOCK
  5
1456
330
1455
100
AcDbEntity
  8
0
100
AcDbBlockBegin
  2
*D7
 70
     1
 10
0.0
 20
0.0
 30
0.0
  3
*D7
  1

  0
LINE
  5
1458
330
1455
100
AcDbEntity
  8
SIZE
 62
     0
370
    -2
100
AcDbLine
 10
3258.57791556839
 20
-332.2119700917785
 30
0.0
 11
3258.57791556839
 21
-457.1314945482344
 31
0.0
  0
LINE
  5
1459
330
1455
100
AcDbEntity
  8
SIZE
 62
     0
370
    -2
100
AcDbLine
 10
4170.577915568389
 20
-332.2119700917785
 30
0.0
 11
4170.577915568389
 21
-457.1314945482344
 31
0.0
  0
LINE
  5
145A
330
1455
100
AcDbEntity
  8
SIZE
 62
     0
370
    -2
100
AcDbLine
 10
3278.577915568391
 20
-447.1314945482344
 30
0.0
 11
4150.57791556839
 21
-447.1314945482344
 31
0.0
  0
INSERT
  5
145B
330
1455
100
AcDbEntity
  8
SIZE
 62
     0
370
    -2
100
AcDbBlockReference
  2
_OPEN30
 10
3258.57791556839
 20
-447.1314945482344
 30
0.0
 41
20.0
 42
20.0
 43
20.0
 50
180.0
  0
INSERT
  5
145C
330
1455
100
AcDbEntity
  8
SIZE
 62
     0
370
    -2
100
AcDbBlockReference
  2
_OPEN30
 10
4170.577915568389
 20
-447.1314945482344
 30
0.0
 41
20.0
 42
20.0
 43
20.0
  0
MTEXT
  5
145D
330
1455
100
AcDbEntity
  8
SIZE
 62
     0
100
AcDbMText
 10
3714.577915568391
 20
-427.1314945482344
 30
0.0
 40
20.0
 41
0.0
 71
     5
 72
     1
  1
\A1;912
 73
     1
 44
1.0
1001
ACAD
1000
MTEXTBEGIN
1070
    73
1070
     1
1070
    44
1040
1.0
1070
    74
1070
     0
1000
MTEXTEND
  0
POINT
  5
145E
330
1455
100
AcDbEntity
  8
Defpoints
 62
     0
100
AcDbPoint
 10
3258.57791556839
 20
-322.2119700917785
 30
0.0
  0
POINT
  5
145F
330
1455
100
AcDbEntity
  8
Defpoints
 62
     0
100
AcDbPoint
 10
4170.577915568389
 20
-322.2119700917785
 30
0.0
  0
POINT
  5
1460
330
1455
100
AcDbEntity
  8
Defpoints
 62
     0
100
AcDbPoint
 10
4170.577915568389
 20
-447.1314945482344
 30
0.0
  0
ENDBLK
  5
1457
330
1455
100
AcDbEntity
  8
0
100
AcDbBlockEnd
  0
BLOCK
  5
1463
330
1462
100
AcDbEntity
  8
0
100
AcDbBlockBegin
  2
*D8
 70
     1
 10
0.0
 20
0.0
 30
0.0
  3
*D8
  1

  0
LINE
  5
1465
330
1462
100
AcDbEntity
  8
SIZE
 62
     0
370
    -2
100
AcDbLine
 10
3248.577915568392
 20
-322.2119700917785
 30
0.0
 11
3200.16545124475
 21
-322.2119700917785
 31
0.0
  0
LINE
  5
1466
330
1462
100
AcDbEntity
  8
SIZE
 62
     0
370
    -2
100
AcDbLine
 10
3283.077915568392
 20
516.6630582210614
 30
0.0
 11
3200.16545124475
 21
516.6630582210614
 31
0.0
  0
LINE
  5
1467
330
1462
100
AcDbEntity
  8
SIZE
 62
     0
370
    -2
100
AcDbLine
 10
3210.16545124475
 20
-302.2119700917785
 30
0.0
 11
3210.16545124475
 21
496.6630582210613
 31
0.0
  0
INSERT
  5
1468
330
1462
100
AcDbEntity
  8
SIZE
 62
     0
370
    -2
100
AcDbBlockReference
  2
_OPEN30
 10
3210.16545124475
 20
-322.2119700917785
 30
0.0
 41
20.0
 42
20.0
 43
20.0
 50
270.0
  0
INSERT
  5
1469
330
1462
100
AcDbEntity
  8
SIZE
 62
     0
370
    -2
100
AcDbBlockReference
  2
_OPEN30
 10
3210.16545124475
 20
516.6630582210614
 30
0.0
 41
20.0
 42
20.0
 43
20.0
 50
90.0
  0
MTEXT
  5
146A
330
1462
100
AcDbEntity
  8
SIZE
 62
     0
100
AcDbMText
 10
3190.16545124475
 20
97.22554406464196
 30
0.0
 40
20.0
 41
0.0
 71
     5
 72
     1
  1
\A1;839
 11
0.0000000000000001
 21
1.0
 31
0.0
 73
     1
 44
1.0
1001
ACAD
1000
MTEXTBEGIN
1070
    73
1070
     1
1070
    44
1040
1.0
1070
    74
1070
     0
1000
MTEXTEND
  0
POINT
  5
146B
330
1462
100
AcDbEntity
  8
Defpoints
 62
     0
100
AcDbPoint
 10
3258.57791556839
 20
-322.2119700917785
 30
0.0
  0
POINT
  5
146C
330
1462
100
AcDbEntity
  8
Defpoints
 62
     0
100
AcDbPoint
 10
3293.077915568392
 20
516.6630582210614
 30
0.0
  0
POINT
  5
146D
330
1462
100
AcDbEntity
  8
Defpoints
 62
     0
100
AcDbPoint
 10
3210.16545124475
 20
516.6630582210614
 30
0.0
  0
ENDBLK
  5
1464
330
1462
100
AcDbEntity
  8
0
100
AcDbBlockEnd
  0
BLOCK
  5
19B6
330
19B5
100
AcDbEntity
  8
0
100
AcDbBlockBegin
  2
*D9
 70
     1
 10
0.0
 20
0.0
 30
0.0
  3
*D9
  1

  0
LINE
  5
19B8
330
19B5
100
AcDbEntity
  8
SIZE
 62
     0
370
    -2
100
AcDbLine
 10
4693.878956072942
 20
-332.211973673551
 30
0.0
 11
4693.878956072942
 21
-396.8405872373992
 31
0.0
  0
LINE
  5
19B9
330
19B5
100
AcDbEntity
  8
SIZE
 62
     0
370
    -2
100
AcDbLine
 10
5524.878956072949
 20
-332.2119736731838
 30
0.0
 11
5524.878956072949
 21
-396.8405872373992
 31
0.0
  0
LINE
  5
19BA
330
19B5
100
AcDbEntity
  8
SIZE
 62
     0
370
    -2
100
AcDbLine
 10
4713.878956072941
 20
-386.8405872373992
 30
0.0
 11
5504.87895607295
 21
-386.8405872373992
 31
0.0
  0
INSERT
  5
19BB
330
19B5
100
AcDbEntity
  8
SIZE
 62
     0
370
    -2
100
AcDbBlockReference
  2
_OPEN30
 10
4693.878956072942
 20
-386.8405872373992
 30
0.0
 41
20.0
 42
20.0
 43
20.0
 50
180.0
  0
INSERT
  5
19BC
330
19B5
100
AcDbEntity
  8
SIZE
 62
     0
370
    -2
100
AcDbBlockReference
  2
_OPEN30
 10
5524.878956072949
 20
-386.8405872373992
 30
0.0
 41
20.0
 42
20.0
 43
20.0
  0
MTEXT
  5
19BD
330
19B5
100
AcDbEntity
  8
SIZE
 62
     0
100
AcDbMText
 10
5109.378956072944
 20
-366.8405872373992
 30
0.0
 40
20.0
 41
0.0
 71
     5
 72
     1
  1
\A1;831
 73
     1
 44
1.0
1001
ACAD
1000
MTEXTBEGIN
1070
    73
1070
     1
1070
    44
1040
1.0
1070
    74
1070
     0
1000
MTEXTEND
  0
POINT
  5
19BE
330
19B5
100
AcDbEntity
  8
Defpoints
 62
     0
100
AcDbPoint
 10
4693.878956072942
 20
-322.211973673551
 30
0.0
  0
POINT
  5
19BF
330
19B5
100
AcDbEntity
  8
Defpoints
 62
     0
100
AcDbPoint
 10
5524.878956072949
 20
-322.2119736731838
 30
0.0
  0
POINT
  5
19C0
330
19B5
100
AcDbEntity
  8
Defpoints
 62
     0
100
AcDbPoint
 10
5524.878956072949
 20
-386.8405872373992
 30
0.0
  0
ENDBLK
  5
19B7
330
19B5
100
AcDbEntity
  8
0
100
AcDbBlockEnd
  0
BLOCK
  5
19C3
330
19C2
100
AcDbEntity
  8
0
100
AcDbBlockBegin
  2
*D10
 70
     1
 10
0.0
 20
0.0
 30
0.0
  3
*D10
  1

  0
LINE
  5
19F6
330
19C2
100
AcDbEntity
  8
SIZE
 62
     0
370
    -2
100
AcDbLine
 10
5524.878956072949
 20
-332.2119736731838
 30
0.0
 11
5524.878956072949
 21
-396.8405872373992
 31
0.0
  0
LINE
  5
19F7
330
19C2
100
AcDbEntity
  8
SIZE
 62
     0
370
    -2
100
AcDbLine
 10
5573.878956072935
 20
-332.2119736748571
 30
0.0
 11
5573.878956072935
 21
-396.8405872373992
 31
0.0
  0
LINE
  5
19F8
330
19C2
100
AcDbEntity
  8
SIZE
 62
     0
370
    -2
100
AcDbLine
 10
5504.87895607295
 20
-386.8405872373992
 30
0.0
 11
5484.878956072949
 21
-386.8405872373992
 31
0.0
  0
LINE
  5
19F9
330
19C2
100
AcDbEntity
  8
SIZE
 62
     0
370
    -2
100
AcDbLine
 10
5593.878956072934
 20
-386.8405872373992
 30
0.0
 11
5613.878956072935
 21
-386.8405872373992
 31
0.0
  0
LINE
  5
19FA
330
19C2
100
AcDbEntity
  8
SIZE
 62
     0
370
    -2
100
AcDbLine
 10
5524.878956072949
 20
-386.8405872373992
 30
0.0
 11
5573.878956072935
 21
-386.8405872373992
 31
0.0
  0
INSERT
  5
19FB
330
19C2
100
AcDbEntity
  8
SIZE
 62
     0
370
    -2
100
AcDbBlockReference
  2
_OPEN30
 10
5524.878956072949
 20
-386.8405872373992
 30
0.0
 41
20.0
 42
20.0
 43
20.0
  0
INSERT
  5
19FC
330
19C2
100
AcDbEntity
  8
SIZE
 62
     0
370
    -2
100
AcDbBlockReference
  2
_OPEN30
 10
5573.878956072935
 20
-386.8405872373992
 30
0.0
 41
20.0
 42
20.0
 43
20.0
 50
180.0
  0
MTEXT
  5
19FD
330
19C2
100
AcDbEntity
  8
SIZE
 62
     0
100
AcDbMText
 10
5549.378956072942
 20
-366.8405872373992
 30
0.0
 40
20.0
 41
0.0
 71
     5
 72
     1
  1
\A1;49
 73
     1
 44
1.0
1001
ACAD
1000
MTEXTBEGIN
1070
    73
1070
     1
1070
    44
1040
1.0
1070
    74
1070
     0
1000
MTEXTEND
  0
POINT
  5
19FE
330
19C2
100
AcDbEntity
  8
Defpoints
 62
     0
100
AcDbPoint
 10
5524.878956072949
 20
-322.2119736731838
 30
0.0
  0
POINT
  5
19FF
330
19C2
100
AcDbEntity
  8
Defpoints
 62
     0
100
AcDbPoint
 10
5573.878956072935
 20
-322.2119736748571
 30
0.0
  0
POINT
  5
1A00
330
19C2
100
AcDbEntity
  8
Defpoints
 62
     0
100
AcDbPoint
 10
5573.878956072935
 20
-386.8405872373992
 30
0.0
  0
ENDBLK
  5
19C4
330
19C2
100
AcDbEntity
  8
0
100
AcDbBlockEnd
  0
BLOCK
  5
19D5
330
19D4
100
AcDbEntity
  8
0
100
AcDbBlockBegin
  2
*D11
 70
     1
 10
0.0
 20
0.0
 30
0.0
  3
*D11
  1

  0
LINE
  5
19D7
330
19D4
100
AcDbEntity
  8
SIZE
 62
     0
370
    -2
100
AcDbLine
 10
5573.878956072935
 20
-332.2119736748571
 30
0.0
 11
5573.878956072935
 21
-396.8405872373992
 31
0.0
  0
LINE
  5
19D8
330
19D4
100
AcDbEntity
  8
SIZE
 62
     0
370
    -2
100
AcDbLine
 10
6404.878956072946
 20
-332.2119736748571
 30
0.0
 11
6404.878956072946
 21
-396.8405872373992
 31
0.0
  0
LINE
  5
19D9
330
19D4
100
AcDbEntity
  8
SIZE
 62
     0
370
    -2
100
AcDbLine
 10
5593.878956072934
 20
-386.8405872373992
 30
0.0
 11
6384.878956072945
 21
-386.8405872373992
 31
0.0
  0
INSERT
  5
19DA
330
19D4
100
AcDbEntity
  8
SIZE
 62
     0
370
    -2
100
AcDbBlockReference
  2
_OPEN30
 10
5573.878956072935
 20
-386.8405872373992
 30
0.0
 41
20.0
 42
20.0
 43
20.0
 50
180.0
  0
INSERT
  5
19DB
330
19D4
100
AcDbEntity
  8
SIZE
 62
     0
370
    -2
100
AcDbBlockReference
  2
_OPEN30
 10
6404.878956072946
 20
-386.8405872373992
 30
0.0
 41
20.0
 42
20.0
 43
20.0
  0
MTEXT
  5
19DC
330
19D4
100
AcDbEntity
  8
SIZE
 62
     0
100
AcDbMText
 10
5989.37895607294
 20
-366.8405872373992
 30
0.0
 40
20.0
 41
0.0
 71
     5
 72
     1
  1
\A1;831
 73
     1
 44
1.0
1001
ACAD
1000
MTEXTBEGIN
1070
    73
1070
     1
1070
    44
1040
1.0
1070
    74
1070
     0
1000
MTEXTEND
  0
POINT
  5
19DD
330
19D4
100
AcDbEntity
  8
Defpoints
 62
     0
100
AcDbPoint
 10
5573.878956072935
 20
-322.2119736748571
 30
0.0
  0
POINT
  5
19DE
330
19D4
100
AcDbEntity
  8
Defpoints
 62
     0
100
AcDbPoint
 10
6404.878956072946
 20
-322.2119736748571
 30
0.0
  0
POINT
  5
19DF
330
19D4
100
AcDbEntity
  8
Defpoints
 62
     0
100
AcDbPoint
 10
6404.878956072946
 20
-386.8405872373992
 30
0.0
  0
ENDBLK
  5
19D6
330
19D4
100
AcDbEntity
  8
0
100
AcDbBlockEnd
  0
BLOCK
  5
1A03
330
1A02
100
AcDbEntity
  8
0
100
AcDbBlockBegin
  2
*D12
 70
     1
 10
0.0
 20
0.0
 30
0.0
  3
*D12
  1

  0
LINE
  5
1A05
330
1A02
100
AcDbEntity
  8
SIZE
 62
     0
370
    -2
100
AcDbLine
 10
4677.37895607367
 20
-322.211973673544
 30
0.0
 11
4677.37895607367
 21
-451.815202363343
 31
0.0
  0
LINE
  5
1A06
330
1A02
100
AcDbEntity
  8
SIZE
 62
     0
370
    -2
100
AcDbLine
 10
6421.37895607367
 20
-322.2119736737288
 30
0.0
 11
6421.37895607367
 21
-451.815202363343
 31
0.0
  0
LINE
  5
1A07
330
1A02
100
AcDbEntity
  8
SIZE
 62
     0
370
    -2
100
AcDbLine
 10
4697.378956073668
 20
-441.8152023633431
 30
0.0
 11
6401.378956073671
 21
-441.8152023633431
 31
0.0
  0
INSERT
  5
1A08
330
1A02
100
AcDbEntity
  8
SIZE
 62
     0
370
    -2
100
AcDbBlockReference
  2
_OPEN30
 10
4677.37895607367
 20
-441.8152023633431
 30
0.0
 41
20.0
 42
20.0
 43
20.0
 50
180.0
  0
INSERT
  5
1A09
330
1A02
100
AcDbEntity
  8
SIZE
 62
     0
370
    -2
100
AcDbBlockReference
  2
_OPEN30
 10
6421.37895607367
 20
-441.8152023633431
 30
0.0
 41
20.0
 42
20.0
 43
20.0
  0
MTEXT
  5
1A0A
330
1A02
100
AcDbEntity
  8
SIZE
 62
     0
100
AcDbMText
 10
5549.37895607367
 20
-421.8152023633431
 30
0.0
 40
20.0
 41
0.0
 71
     5
 72
     1
  1
\A1;1744
 73
     1
 44
1.0
1001
ACAD
1000
MTEXTBEGIN
1070
    73
1070
     1
1070
    44
1040
1.0
1070
    74
1070
     0
1000
MTEXTEND
  0
POINT
  5
1A0B
330
1A02
100
AcDbEntity
  8
Defpoints
 62
     0
100
AcDbPoint
 10
4677.37895607367
 20
-312.211973673544
 30
0.0
  0
POINT
  5
1A0C
330
1A02
100
AcDbEntity
  8
Defpoints
 62
     0
100
AcDbPoint
 10
6421.37895607367
 20
-312.2119736737289
 30
0.0
  0
POINT
  5
1A0D
330
1A02
100
AcDbEntity
  8
Defpoints
 62
     0
100
AcDbPoint
 10
6421.37895607367
 20
-441.8152023633431
 30
0.0
  0
ENDBLK
  5
1A04
330
1A02
100
AcDbEntity
  8
0
100
AcDbBlockEnd
  0
BLOCK
  5
1A10
330
1A0F
100
AcDbEntity
  8
0
100
AcDbBlockBegin
  2
*D13
 70
     1
 10
0.0
 20
0.0
 30
0.0
  3
*D13
  1

  0
LINE
  5
1A12
330
1A0F
100
AcDbEntity
  8
SIZE
 62
     0
370
    -2
100
AcDbLine
 10
4696.378956073668
 20
526.6630546393058
 30
0.0
 11
4594.751867904106
 21
526.6630546393058
 31
0.0
  0
LINE
  5
1A13
330
1A0F
100
AcDbEntity
  8
SIZE
 62
     0
370
    -2
100
AcDbLine
 10
4667.378956073668
 20
-312.211973673544
 30
0.0
 11
4594.751867904106
 21
-312.211973673544
 31
0.0
  0
LINE
  5
1A14
330
1A0F
100
AcDbEntity
  8
SIZE
 62
     0
370
    -2
100
AcDbLine
 10
4604.751867904106
 20
506.6630546393056
 30
0.0
 11
4604.751867904106
 21
-292.2119736735441
 31
0.0
  0
INSERT
  5
1A15
330
1A0F
100
AcDbEntity
  8
SIZE
 62
     0
370
    -2
100
AcDbBlockReference
  2
_OPEN30
 10
4604.751867904106
 20
526.6630546393058
 30
0.0
 41
20.0
 42
20.0
 43
20.0
 50
90.0
  0
INSERT
  5
1A16
330
1A0F
100
AcDbEntity
  8
SIZE
 62
     0
370
    -2
100
AcDbBlockReference
  2
_OPEN30
 10
4604.751867904106
 20
-312.211973673544
 30
0.0
 41
20.0
 42
20.0
 43
20.0
 50
270.0
  0
MTEXT
  5
1A17
330
1A0F
100
AcDbEntity
  8
SIZE
 62
     0
100
AcDbMText
 10
4584.751867904105
 20
107.2255404828816
 30
0.0
 40
20.0
 41
0.0
 71
     5
 72
     1
  1
\A1;839
 11
0.0000000000000001
 21
1.0
 31
0.0
 73
     1
 44
1.0
1001
ACAD
1000
MTEXTBEGIN
1070
    73
1070
     1
1070
    44
1040
1.0
1070
    74
1070
     0
1000
MTEXTEND
  0
POINT
  5
1A18
330
1A0F
100
AcDbEntity
  8
Defpoints
 62
     0
100
AcDbPoint
 10
4706.378956073669
 20
526.6630546393058
 30
0.0
  0
POINT
  5
1A19
330
1A0F
100
AcDbEntity
  8
Defpoints
 62
     0
100
AcDbPoint
 10
4677.37895607367
 20
-312.211973673544
 30
0.0
  0
POINT
  5
1A1A
330
1A0F
100
AcDbEntity
  8
Defpoints
 62
     0
100
AcDbPoint
 10
4604.751867904106
 20
-312.211973673544
 30
0.0
  0
ENDBLK
  5
1A11
330
1A0F
100
AcDbEntity
  8
0
100
AcDbBlockEnd
  0
ENDSEC
  0
SECTION
  2
ENTITIES
  0
MTEXT
  5
B60
330
2
100
AcDbEntity
  8
ETC
100
AcDbMText
 10
5285.106527739996
 20
637.1323495235442
 30
0.0
 40
40.0
 41
651.9792552343242
 71
     1
 72
     5
  1
AG1T-KS77TD-5
 73
     1
 44
1.0
1001
ACAD
1000
MTEXTBEGIN
1070
    73
1070
     1
1070
    44
1040
1.0
1070
    74
1070
     0
1000
MTEXTEND
  0
ELLIPSE
  5
180B
330
2
100
AcDbEntity
  8
OUTLINE
100
AcDbEllipse
 10
4720.378956073669
 20
124.020435054299
 30
0.0
 11
2.0
 21
-0.0000000000000009
 31
0.0
210
0.0
220
0.0
230
1.0
 40
0.5005029492378556
 41
0.7785771841242532
 42
2.363015469466831
  0
ELLIPSE
  5
180C
330
2
100
AcDbEntity
  8
OUTLINE
100
AcDbEllipse
 10
4720.378956073669
 20
124.8861698854129
 30
0.0
 11
-2.0
 21
0.0000000000000009
 31
0.0
210
0.0
220
0.0
230
1.0
 40
0.5005029492378556
 41
3.24903637871551
 42
6.175741582055894
  0
CIRCLE
  5
180D
330
2
100
AcDbEntity
  8
OUTLINE
100
AcDbCircle
 10
4720.378956073669
 20
47.78802632645606
 30
0.0
 40
2.0
  0
ELLIPSE
  5
180E
330
2
100
AcDbEntity
  8
OUTLINE
100
AcDbEllipse
 10
4720.378956073669
 20
222.6195160541492
 30
0.0
 11
2.0
 21
-0.0000000000000009
 31
0.0
210
0.0
220
0.0
230
1.0
 40
0.5005029492378556
 41
0.7785771841295082
 42
2.363015469460377
  0
ELLIPSE
  5
180F
330
2
100
AcDbEntity
  8
OUTLINE
100
AcDbEllipse
 10
4720.378956073669
 20
223.4852508852636
 30
0.0
 11
-2.0
 21
0.0000000000000009
 31
0.0
210
0.0
220
0.0
230
1.0
 40
0.5005029492378556
 41
3.249036378720776
 42
6.175741582049617
  0
ELLIPSE
  5
1810
330
2
100
AcDbEntity
  8
OUTLINE
100
AcDbEllipse
 10
4720.378956073669
 20
321.2185970540061
 30
0.0
 11
2.0
 21
-0.0000000000000009
 31
0.0
210
0.0
220
0.0
230
1.0
 40
0.5005029492378556
 41
0.7785771841301187
 42
2.363015469459749
  0
ELLIPSE
  5
1811
330
2
100
AcDbEntity
  8
OUTLINE
100
AcDbEllipse
 10
4720.378956073669
 20
322.0843318851207
 30
0.0
 11
-2.0
 21
0.0000000000000009
 31
0.0
210
0.0
220
0.0
230
1.0
 40
0.5005029492378556
 41
3.249036378721228
 42
6.175741582049262
  0
ELLIPSE
  5
1812
330
2
100
AcDbEntity
  8
OUTLINE
100
AcDbEllipse
 10
4720.378956073669
 20
419.8176780538711
 30
0.0
 11
2.0
 21
-0.0000000000000009
 31
0.0
210
0.0
220
0.0
230
1.0
 40
0.5005029492378556
 41
0.7785771841236226
 42
2.363015469466228
  0
ELLIPSE
  5
1813
330
2
100
AcDbEntity
  8
OUTLINE
100
AcDbEllipse
 10
4720.378956073669
 20
420.6834128849846
 30
0.0
 11
-2.0
 21
0.0000000000000009
 31
0.0
210
0.0
220
0.0
230
1.0
 40
0.5005029492378556
 41
3.249036378715471
 42
6.17574158205485
  0
CIRCLE
  5
1814
330
2
100
AcDbEntity
  8
OUTLINE
100
AcDbCircle
 10
4720.378956073669
 20
-107.211973673544
 30
0.0
 40
2.0
  0
CIRCLE
  5
1815
330
2
100
AcDbEntity
  8
OUTLINE
100
AcDbCircle
 10
4720.378956073669
 20
-272.211973673544
 30
0.0
 40
2.0
  0
ELLIPSE
  5
1816
330
2
100
AcDbEntity
  8
OUTLINE
100
AcDbEllipse
 10
4720.378956073669
 20
519.2824938848391
 30
0.0
 11
-2.0
 21
0.0000000000000009
 31
0.0
210
0.0
220
0.0
230
1.0
 40
0.5005029492378556
 41
3.249036378718126
 42
6.175741582052251
  0
ELLIPSE
  5
1817
330
2
100
AcDbEntity
  8
OUTLINE
100
AcDbEllipse
 10
4720.378956073669
 20
518.4167590537255
 30
0.0
 11
2.0
 21
-0.0000000000000009
 31
0.0
210
0.0
220
0.0
230
1.0
 40
0.5005029492378556
 41
0.7785771841262426
 42
2.363015469463607
  0
LINE
  5
1818
330
2
100
AcDbEntity
  8
OUTLINE
100
AcDbLine
 10
4706.378956073669
 20
-312.211973673544
 30
0.0
 11
4677.37895607367
 21
-312.211973673544
 31
0.0
  0
LINE
  5
1819
330
2
100
AcDbEntity
  8
OUTLINE
100
AcDbLine
 10
4677.37895607367
 20
-311.211973673544
 30
0.0
 11
4705.378956073668
 21
-311.211973673544
 31
0.0
  0
LINE
  5
181A
330
2
100
AcDbEntity
  8
OUTLINE
100
AcDbLine
 10
4706.378956073669
 20
-312.211973673544
 30
0.0
 11
4706.378956073669
 21
-311.211973673544
 31
0.0
  0
LINE
  5
181B
330
2
100
AcDbEntity
  8
OUTLINE
100
AcDbLine
 10
4677.37895607367
 20
-312.211973673544
 30
0.0
 11
4677.37895607367
 21
-311.2119736735439
 31
0.0
  0
LINE
  5
181C
330
2
100
AcDbEntity
  8
OUTLINE
100
AcDbLine
 10
4710.378956073671
 20
-311.211973673544
 30
0.0
 11
4705.378956073668
 21
-311.211973673544
 31
0.0
  0
LINE
  5
181D
330
2
100
AcDbEntity
  8
OUTLINE
100
AcDbLine
 10
4706.378956073669
 20
524.788026326456
 30
0.0
 11
4705.378956073668
 21
524.788026326456
 31
0.0
  0
LINE
  5
181E
330
2
100
AcDbEntity
  8
OUTLINE
100
AcDbLine
 10
4705.378956073668
 20
524.7880263264562
 30
0.0
 11
4705.378956073668
 21
117.7880263264561
 31
0.0
  0
LINE
  5
181F
330
2
100
AcDbEntity
  8
OUTLINE
100
AcDbLine
 10
4735.378956073668
 20
117.7880263264561
 30
0.0
 11
4705.378956073668
 21
117.7880263264561
 31
0.0
  0
LINE
  5
1820
330
2
100
AcDbEntity
  8
OUTLINE
100
AcDbLine
 10
4735.378956073668
 20
118.3956730690303
 30
0.0
 11
4735.378956073668
 21
117.7880263264559
 31
0.0
  0
LINE
  5
1821
330
2
100
AcDbEntity
  8
OUTLINE
100
AcDbLine
 10
4705.378956073668
 20
117.7880263264561
 30
0.0
 11
4705.378956073668
 21
-311.211973673544
 31
0.0
  0
LINE
  5
1822
330
2
100
AcDbEntity
  8
OUTLINE
100
AcDbLine
 10
4735.378956073668
 20
117.7880263264561
 30
0.0
 11
4735.378956073668
 21
115.7880263264535
 31
0.0
  0
ELLIPSE
  5
1823
330
2
100
AcDbEntity
  8
OUTLINE
100
AcDbEllipse
 10
5535.378956073665
 20
519.2824938848441
 30
0.0
 11
-2.25
 21
0.000000000000001
 31
0.0
210
0.0
220
0.0
230
1.0
 40
0.5005029492378556
 41
3.375544610090051
 42
6.049233350673095
  0
ELLIPSE
  5
1824
330
2
100
AcDbEntity
  8
OUTLINE
100
AcDbEllipse
 10
5535.378956073665
 20
420.6834128849867
 30
0.0
 11
-2.25
 21
0.000000000000001
 31
0.0
210
0.0
220
0.0
230
1.0
 40
0.5005029492378556
 41
3.375544610090444
 42
6.049233350673691
  0
ELLIPSE
  5
1825
330
2
100
AcDbEntity
  8
OUTLINE
100
AcDbEllipse
 10
5535.378956073665
 20
322.0843318851292
 30
0.0
 11
-2.25
 21
0.000000000000001
 31
0.0
210
0.0
220
0.0
230
1.0
 40
0.5005029492378556
 41
3.375544610091301
 42
6.049233350674144
  0
ELLIPSE
  5
1826
330
2
100
AcDbEntity
  8
OUTLINE
100
AcDbEllipse
 10
5535.378956073666
 20
223.4852508852718
 30
0.0
 11
-2.25
 21
0.000000000000001
 31
0.0
210
0.0
220
0.0
230
1.0
 40
0.5005029492378556
 41
3.375544610091721
 42
6.049233350674587
  0
ELLIPSE
  5
1827
330
2
100
AcDbEntity
  8
OUTLINE
100
AcDbEllipse
 10
5535.378956073666
 20
124.8861698854142
 30
0.0
 11
-2.25
 21
0.000000000000001
 31
0.0
210
0.0
220
0.0
230
1.0
 40
0.5005029492378556
 41
3.375544610093004
 42
6.049233350675605
  0
ELLIPSE
  5
1828
330
2
100
AcDbEntity
  8
OUTLINE
100
AcDbEllipse
 10
5535.378956073666
 20
124.0204350543001
 30
0.0
 11
2.25
 21
-0.000000000000001
 31
0.0
210
0.0
220
0.0
230
1.0
 40
0.5005029492378652
 41
0.7649326152495892
 42
2.376660038340205
  0
ELLIPSE
  5
1829
330
2
100
AcDbEntity
  8
OUTLINE
100
AcDbEllipse
 10
5535.378956073666
 20
222.6195160541575
 30
0.0
 11
2.25
 21
-0.000000000000001
 31
0.0
210
0.0
220
0.0
230
1.0
 40
0.5005029492378652
 41
0.7649326152490314
 42
2.376660038339648
  0
ELLIPSE
  5
182A
330
2
100
AcDbEntity
  8
OUTLINE
100
AcDbEllipse
 10
5535.378956073665
 20
321.2185970540151
 30
0.0
 11
2.25
 21
-0.000000000000001
 31
0.0
210
0.0
220
0.0
230
1.0
 40
0.5005029492378652
 41
0.7649326152479833
 42
2.37666003833963
  0
ELLIPSE
  5
182B
330
2
100
AcDbEntity
  8
OUTLINE
100
AcDbEllipse
 10
5535.378956073665
 20
419.8176780538725
 30
0.0
 11
2.25
 21
-0.000000000000001
 31
0.0
210
0.0
220
0.0
230
1.0
 40
0.5005029492378652
 41
0.7649326152479336
 42
2.376660038339595
  0
ELLIPSE
  5
182C
330
2
100
AcDbEntity
  8
OUTLINE
100
AcDbEllipse
 10
5535.378956073665
 20
518.4167590537298
 30
0.0
 11
2.25
 21
-0.000000000000001
 31
0.0
210
0.0
220
0.0
230
1.0
 40
0.5005029492378652
 41
0.7649326152474031
 42
2.376660038339029
  0
CIRCLE
  5
182D
330
2
100
AcDbEntity
  8
OUTLINE
100
AcDbCircle
 10
5535.378956073667
 20
47.78802632646084
 30
0.0
 40
2.25
  0
CIRCLE
  5
182E
330
2
100
AcDbEntity
  8
OUTLINE
100
AcDbCircle
 10
5535.378956073667
 20
-107.2119736735392
 30
0.0
 40
2.25
  0
CIRCLE
  5
182F
330
2
100
AcDbEntity
  8
OUTLINE
100
AcDbCircle
 10
5535.378956073669
 20
-272.2119736735393
 30
0.0
 40
2.25
  0
LINE
  5
1830
330
2
100
AcDbEntity
  8
OUTLINE
100
AcDbLine
 10
5549.378956073669
 20
-312.2119736735391
 30
0.0
 11
5548.378956073669
 21
-312.2119736735391
 31
0.0
  0
LINE
  5
1831
330
2
100
AcDbEntity
  8
OUTLINE
100
AcDbLine
 10
5548.378956073669
 20
-312.2119736735391
 30
0.0
 11
5544.37895607367
 21
-312.2119736735391
 31
0.0
  0
LINE
  5
1832
330
2
100
AcDbEntity
  8
OUTLINE
100
AcDbLine
 10
5521.378956073665
 20
116.7880263264605
 30
0.0
 11
5521.378956073665
 21
118.0767980589324
 31
0.0
  0
LINE
  5
1833
330
2
100
AcDbEntity
  8
OUTLINE
100
AcDbLine
 10
5521.378956073665
 20
118.0767980589324
 30
0.0
 11
5520.378956073666
 21
118.0767980589324
 31
0.0
  0
LINE
  5
1834
330
2
100
AcDbEntity
  8
OUTLINE
100
AcDbLine
 10
5520.378956073666
 20
116.7880263264605
 30
0.0
 11
5520.378956073666
 21
118.0767980589324
 31
0.0
  0
LINE
  5
1835
330
2
100
AcDbEntity
  8
OUTLINE
100
AcDbLine
 10
5521.378956073665
 20
116.7880263264605
 30
0.0
 11
5520.378956073666
 21
116.7880263264605
 31
0.0
  0
LINE
  5
1836
330
2
100
AcDbEntity
  8
OUTLINE
100
AcDbLine
 10
5548.378956073666
 20
116.7880263264607
 30
0.0
 11
5521.378956073665
 21
116.7880263264605
 31
0.0
  0
LINE
  5
1837
330
2
100
AcDbEntity
  8
OUTLINE
100
AcDbLine
 10
5548.378956073666
 20
118.0767980589326
 30
0.0
 11
5521.378956073665
 21
118.0767980589324
 31
0.0
  0
LINE
  5
1838
330
2
100
AcDbEntity
  8
OUTLINE
100
AcDbLine
 10
5548.378956073669
 20
118.0767980589327
 30
0.0
 11
5548.378956073669
 21
117.7880263264609
 31
0.0
  0
LINE
  5
1839
330
2
100
AcDbEntity
  8
OUTLINE
100
AcDbLine
 10
5549.378956073666
 20
117.7880263264609
 30
0.0
 11
5548.378956073666
 21
117.7880263264609
 31
0.0
  0
LINE
  5
183A
330
2
100
AcDbEntity
  8
OUTLINE
100
AcDbLine
 10
5549.378956073669
 20
120.8981878151729
 30
0.0
 11
5549.378956073669
 21
117.7880263264609
 31
0.0
  0
LINE
  5
183B
330
2
100
AcDbEntity
  8
OUTLINE
100
AcDbLine
 10
5520.378956073666
 20
118.3956730690314
 30
0.0
 11
5520.378956073666
 21
118.0767980589324
 31
0.0
  0
LINE
  5
183C
330
2
100
AcDbEntity
  8
OUTLINE
100
AcDbLine
 10
5548.378956073669
 20
-311.2119736735392
 30
0.0
 11
5545.378956073669
 21
-311.2119736735392
 31
0.0
  0
LINE
  5
183D
330
2
100
AcDbEntity
  8
OUTLINE
100
AcDbLine
 10
5520.378956073666
 20
116.7880263264605
 30
0.0
 11
5520.378956073666
 21
115.7880263264581
 31
0.0
  0
LINE
  5
183E
330
2
100
AcDbEntity
  8
OUTLINE
100
AcDbLine
 10
5548.378956073666
 20
117.2110632278185
 30
0.0
 11
5521.378956073665
 21
117.2110632278183
 31
0.0
  0
LINE
  5
183F
330
2
100
AcDbEntity
  8
OUTLINE
100
AcDbLine
 10
5548.378956073666
 20
117.7880263264609
 30
0.0
 11
5548.378956073666
 21
116.7880263264607
 31
0.0
  0
LINE
  5
1840
330
2
100
AcDbEntity
  8
OUTLINE
100
AcDbLine
 10
5548.378956073669
 20
-311.2119736735392
 30
0.0
 11
5548.378956073669
 21
-312.2119736735391
 31
0.0
  0
LINE
  5
1841
330
2
100
AcDbEntity
  8
OUTLINE
100
AcDbLine
 10
5549.378956073669
 20
-307.2119736735853
 30
0.0
 11
5549.378956073669
 21
-312.2119736735391
 31
0.0
  0
LINE
  5
1842
330
2
100
AcDbEntity
  8
OUTLINE
100
AcDbLine
 10
5549.378956073666
 20
117.7880263264609
 30
0.0
 11
5549.378956073666
 21
110.7880263264147
 31
0.0
  0
CIRCLE
  5
1843
330
2
100
AcDbEntity
  8
OUTLINE
100
AcDbCircle
 10
4798.878956073671
 20
-128.2119736735453
 30
0.0
 40
2.0
  0
CIRCLE
  5
1844
330
2
100
AcDbEntity
  8
OUTLINE
100
AcDbCircle
 10
5458.878956073672
 20
-128.2119736735453
 30
0.0
 40
2.0
  0
LINE
  5
1845
330
2
100
AcDbEntity
  8
OUTLINE
100
AcDbLine
 10
5436.878956073488
 20
-122.2119736735452
 30
0.0
 11
5476.878956073846
 21
-122.2119736735452
 31
0.0
  0
LINE
  5
1846
330
2
100
AcDbEntity
  8
OUTLINE
100
AcDbLine
 10
5342.878956073487
 20
-122.2119736735452
 30
0.0
 11
5382.878956073849
 21
-122.2119736735452
 31
0.0
  0
LINE
  5
1847
330
2
100
AcDbEntity
  8
OUTLINE
100
AcDbLine
 10
5248.878956073486
 20
-122.2119736735452
 30
0.0
 11
5288.878956073848
 21
-122.2119736735452
 31
0.0
  0
LINE
  5
1848
330
2
100
AcDbEntity
  8
OUTLINE
100
AcDbLine
 10
5154.878956073486
 20
-122.2119736735452
 30
0.0
 11
5194.878956073846
 21
-122.2119736735452
 31
0.0
  0
LINE
  5
1849
330
2
100
AcDbEntity
  8
OUTLINE
100
AcDbLine
 10
5060.878956073486
 20
-122.2119736735452
 30
0.0
 11
5100.878956073851
 21
-122.2119736735452
 31
0.0
  0
LINE
  5
184A
330
2
100
AcDbEntity
  8
OUTLINE
100
AcDbLine
 10
4966.878956073486
 20
-122.2119736735452
 30
0.0
 11
5006.878956073848
 21
-122.2119736735452
 31
0.0
  0
LINE
  5
184B
330
2
100
AcDbEntity
  8
OUTLINE
100
AcDbLine
 10
4872.878956073484
 20
-122.2119736735452
 30
0.0
 11
4912.87895607385
 21
-122.2119736735452
 31
0.0
  0
LINE
  5
184C
330
2
100
AcDbEntity
  8
OUTLINE
100
AcDbLine
 10
4778.878956073484
 20
-122.2119736735452
 30
0.0
 11
4818.87895607385
 21
-122.2119736735452
 31
0.0
  0
LINE
  5
184D
330
2
100
AcDbEntity
  8
OUTLINE
100
AcDbLine
 10
4822.878956073739
 20
-114.2119736735452
 30
0.0
 11
4774.878956073597
 21
-114.2119736735452
 31
0.0
  0
LINE
  5
184E
330
2
100
AcDbEntity
  8
OUTLINE
100
AcDbLine
 10
4916.878956073738
 20
-114.2119736735452
 30
0.0
 11
4868.878956073597
 21
-114.2119736735452
 31
0.0
  0
LINE
  5
184F
330
2
100
AcDbEntity
  8
OUTLINE
100
AcDbLine
 10
5010.878956073739
 20
-114.2119736735452
 30
0.0
 11
4962.878956073597
 21
-114.2119736735452
 31
0.0
  0
LINE
  5
1850
330
2
100
AcDbEntity
  8
OUTLINE
100
AcDbLine
 10
5104.878956073739
 20
-114.2119736735452
 30
0.0
 11
5056.878956073597
 21
-114.2119736735452
 31
0.0
  0
LINE
  5
1851
330
2
100
AcDbEntity
  8
OUTLINE
100
AcDbLine
 10
5198.878956073738
 20
-114.2119736735452
 30
0.0
 11
5150.878956073597
 21
-114.2119736735452
 31
0.0
  0
LINE
  5
1852
330
2
100
AcDbEntity
  8
OUTLINE
100
AcDbLine
 10
5292.878956073737
 20
-114.2119736735452
 30
0.0
 11
5244.878956073597
 21
-114.2119736735452
 31
0.0
  0
LINE
  5
1853
330
2
100
AcDbEntity
  8
OUTLINE
100
AcDbLine
 10
5386.878956073736
 20
-114.2119736735452
 30
0.0
 11
5338.878956073597
 21
-114.2119736735452
 31
0.0
  0
LINE
  5
1854
330
2
100
AcDbEntity
  8
OUTLINE
100
AcDbLine
 10
5480.878956073737
 20
-114.2119736735452
 30
0.0
 11
5432.878956073597
 21
-114.2119736735452
 31
0.0
  0
ARC
  5
1855
330
2
100
AcDbEntity
  8
OUTLINE
100
AcDbCircle
 10
4720.378956073669
 20
36.78802632645619
 30
0.0
 40
5.5
100
AcDbArc
 50
117.0356917893912
 51
62.96430821060875
  0
ARC
  5
1856
330
2
100
AcDbEntity
  8
OUTLINE
100
AcDbCircle
 10
5535.378956073667
 20
36.78802632646096
 30
0.0
 40
5.5
100
AcDbArc
 50
117.0356917893912
 51
62.96430821060875
  0
ARC
  5
1857
330
2
100
AcDbEntity
  8
OUTLINE
100
AcDbCircle
 10
4720.378956073669
 20
47.78802632645618
 30
0.0
 40
2.5
100
AcDbArc
 50
0.0
 51
180.0
  0
CIRCLE
  5
1858
330
2
100
AcDbEntity
  8
OUTLINE
100
AcDbCircle
 10
4720.378956073669
 20
-272.2119736735438
 30
0.0
 40
2.5
  0
CIRCLE
  5
1859
330
2
100
AcDbEntity
  8
OUTLINE
100
AcDbCircle
 10
4720.378956073669
 20
-107.2119736735438
 30
0.0
 40
2.5
  0
CIRCLE
  5
185A
330
2
100
AcDbEntity
  8
OUTLINE
100
AcDbCircle
 10
5535.378956073669
 20
-272.2119736735391
 30
0.0
 40
2.5
  0
CIRCLE
  5
185B
330
2
100
AcDbEntity
  8
OUTLINE
100
AcDbCircle
 10
5535.378956073669
 20
-107.2119736735391
 30
0.0
 40
2.5
  0
ARC
  5
185C
330
2
100
AcDbEntity
  8
OUTLINE
100
AcDbCircle
 10
5535.378956073667
 20
47.78802632646097
 30
0.0
 40
2.5
100
AcDbArc
 50
0.0
 51
180.0
  0
ELLIPSE
  5
185D
330
2
100
AcDbEntity
  8
OUTLINE
100
AcDbEllipse
 10
5268.878956073669
 20
129.7880263264596
 30
0.0
 11
-2.0
 21
0.0000000000000009
 31
0.0
210
0.0
220
0.0
230
1.0
 40
0.4999999999999993
 41
4.158920285536978
 42
5.265857675250183
  0
ELLIPSE
  5
185E
330
2
100
AcDbEntity
  8
OUTLINE
100
AcDbEllipse
 10
4986.878956073669
 20
129.7880263264579
 30
0.0
 11
-2.0
 21
0.0000000000000009
 31
0.0
210
0.0
220
0.0
230
1.0
 40
0.4999999999999993
 41
4.158920285539116
 42
5.265857675248021
  0
CIRCLE
  5
185F
330
2
100
AcDbEntity
  8
OUTLINE
100
AcDbCircle
 10
5490.378956073667
 20
-37.21197367353938
 30
0.0
 40
2.0
  0
CIRCLE
  5
1860
330
2
100
AcDbEntity
  8
OUTLINE
100
AcDbCircle
 10
5457.87895607367
 20
-140.7119736735395
 30
0.0
 40
2.0
  0
CIRCLE
  5
1861
330
2
100
AcDbEntity
  8
OUTLINE
100
AcDbCircle
 10
5237.878956073672
 20
-140.7119736735408
 30
0.0
 40
2.0
  0
CIRCLE
  5
1862
330
2
100
AcDbEntity
  8
OUTLINE
100
AcDbCircle
 10
5017.878956073669
 20
-140.7119736735421
 30
0.0
 40
2.0
  0
CIRCLE
  5
1863
330
2
100
AcDbEntity
  8
OUTLINE
100
AcDbCircle
 10
4797.878956073668
 20
-140.7119736735433
 30
0.0
 40
2.0
  0
CIRCLE
  5
1864
330
2
100
AcDbEntity
  8
OUTLINE
100
AcDbCircle
 10
5457.878956073669
 20
66.28802632646039
 30
0.0
 40
2.0
  0
CIRCLE
  5
1865
330
2
100
AcDbEntity
  8
OUTLINE
100
AcDbCircle
 10
5237.878956073668
 20
66.28802632645914
 30
0.0
 40
2.0
  0
CIRCLE
  5
1866
330
2
100
AcDbEntity
  8
OUTLINE
100
AcDbCircle
 10
5017.878956073666
 20
66.2880263264579
 30
0.0
 40
2.0
  0
CIRCLE
  5
1867
330
2
100
AcDbEntity
  8
OUTLINE
100
AcDbCircle
 10
4797.878956073668
 20
66.28802632645665
 30
0.0
 40
2.0
  0
CIRCLE
  5
1868
330
2
100
AcDbEntity
  8
OUTLINE
100
AcDbCircle
 10
4765.378956073667
 20
-37.21197367354347
 30
0.0
 40
2.0
  0
CIRCLE
  5
1869
330
2
100
AcDbEntity
  8
OUTLINE
100
AcDbCircle
 10
5409.878956073669
 20
-37.21197367353983
 30
0.0
 40
25.0
  0
CIRCLE
  5
186A
330
2
100
AcDbEntity
  8
OUTLINE
100
AcDbCircle
 10
5315.878956073667
 20
-37.21197367354029
 30
0.0
 40
25.0
  0
CIRCLE
  5
186B
330
2
100
AcDbEntity
  8
OUTLINE
100
AcDbCircle
 10
5221.878956073669
 20
-37.21197367354097
 30
0.0
 40
25.0
  0
CIRCLE
  5
186C
330
2
100
AcDbEntity
  8
OUTLINE
100
AcDbCircle
 10
5127.878956073669
 20
-37.21197367354142
 30
0.0
 40
25.0
  0
CIRCLE
  5
186D
330
2
100
AcDbEntity
  8
OUTLINE
100
AcDbCircle
 10
5033.878956073667
 20
-37.21197367354199
 30
0.0
 40
25.0
  0
CIRCLE
  5
186E
330
2
100
AcDbEntity
  8
OUTLINE
100
AcDbCircle
 10
4939.878956073669
 20
-37.21197367354256
 30
0.0
 40
25.0
  0
CIRCLE
  5
186F
330
2
100
AcDbEntity
  8
OUTLINE
100
AcDbCircle
 10
4845.878956073669
 20
-37.21197367354302
 30
0.0
 40
25.0
  0
CIRCLE
  5
1870
330
2
100
AcDbEntity
  8
OUTLINE
100
AcDbCircle
 10
5456.878956073667
 20
32.7880263264604
 30
0.0
 40
25.0
  0
CIRCLE
  5
1871
330
2
100
AcDbEntity
  8
OUTLINE
100
AcDbCircle
 10
5362.878956073668
 20
32.78802632645994
 30
0.0
 40
25.0
  0
CIRCLE
  5
1872
330
2
100
AcDbEntity
  8
OUTLINE
100
AcDbCircle
 10
5268.878956073669
 20
32.78802632645938
 30
0.0
 40
25.0
  0
CIRCLE
  5
1873
330
2
100
AcDbEntity
  8
OUTLINE
100
AcDbCircle
 10
5174.878956073666
 20
32.78802632645881
 30
0.0
 40
25.0
  0
CIRCLE
  5
1874
330
2
100
AcDbEntity
  8
OUTLINE
100
AcDbCircle
 10
5080.878956073668
 20
32.78802632645835
 30
0.0
 40
25.0
  0
CIRCLE
  5
1875
330
2
100
AcDbEntity
  8
OUTLINE
100
AcDbCircle
 10
4986.878956073669
 20
32.78802632645778
 30
0.0
 40
25.0
  0
CIRCLE
  5
1876
330
2
100
AcDbEntity
  8
OUTLINE
100
AcDbCircle
 10
4892.878956073666
 20
32.7880263264571
 30
0.0
 40
25.0
  0
CIRCLE
  5
1877
330
2
100
AcDbEntity
  8
OUTLINE
100
AcDbCircle
 10
4798.878956073667
 20
32.78802632645664
 30
0.0
 40
25.0
  0
CIRCLE
  5
1878
330
2
100
AcDbEntity
  8
OUTLINE
100
AcDbCircle
 10
5456.878956073667
 20
-107.2119736735395
 30
0.0
 40
25.0
  0
CIRCLE
  5
1879
330
2
100
AcDbEntity
  8
OUTLINE
100
AcDbCircle
 10
5362.878956073668
 20
-107.2119736735401
 30
0.0
 40
25.0
  0
CIRCLE
  5
187A
330
2
100
AcDbEntity
  8
OUTLINE
100
AcDbCircle
 10
5268.878956073669
 20
-107.2119736735406
 30
0.0
 40
25.0
  0
CIRCLE
  5
187B
330
2
100
AcDbEntity
  8
OUTLINE
100
AcDbCircle
 10
5174.878956073666
 20
-107.2119736735411
 30
0.0
 40
25.0
  0
CIRCLE
  5
187C
330
2
100
AcDbEntity
  8
OUTLINE
100
AcDbCircle
 10
5080.878956073668
 20
-107.2119736735417
 30
0.0
 40
25.0
  0
CIRCLE
  5
187D
330
2
100
AcDbEntity
  8
OUTLINE
100
AcDbCircle
 10
4986.878956073669
 20
-107.2119736735422
 30
0.0
 40
25.0
  0
CIRCLE
  5
187E
330
2
100
AcDbEntity
  8
OUTLINE
100
AcDbCircle
 10
4892.878956073666
 20
-107.2119736735428
 30
0.0
 40
25.0
  0
CIRCLE
  5
187F
330
2
100
AcDbEntity
  8
OUTLINE
100
AcDbCircle
 10
4798.878956073667
 20
-107.2119736735433
 30
0.0
 40
25.0
  0
LINE
  5
1880
330
2
100
AcDbEntity
  8
OUTLINE
100
AcDbLine
 10
4717.878956073668
 20
41.68700581202261
 30
0.0
 11
4717.878956073668
 21
47.78802632645618
 31
0.0
  0
LINE
  5
1881
330
2
100
AcDbEntity
  8
OUTLINE
100
AcDbLine
 10
4722.878956073667
 20
47.78802632645628
 30
0.0
 11
4722.878956073667
 21
41.68700581202261
 31
0.0
  0
LINE
  5
1882
330
2
100
AcDbEntity
  8
OUTLINE
100
AcDbLine
 10
5532.87895607367
 20
41.68700581202739
 30
0.0
 11
5532.87895607367
 21
47.78802632646084
 31
0.0
  0
LINE
  5
1883
330
2
100
AcDbEntity
  8
OUTLINE
100
AcDbLine
 10
5537.87895607367
 20
47.78802632646097
 30
0.0
 11
5537.87895607367
 21
41.68700581202728
 31
0.0
  0
LINE
  5
1884
330
2
100
AcDbEntity
  8
OUTLINE
100
AcDbLine
 10
4711.378956073668
 20
-312.2119736735438
 30
0.0
 11
4706.378956073669
 21
-307.2119736735439
 31
0.0
  0
LINE
  5
1885
330
2
100
AcDbEntity
  8
OUTLINE
100
AcDbLine
 10
4735.378956073668
 20
-312.2119736735438
 30
0.0
 11
4711.378956073668
 21
-312.2119736735438
 31
0.0
  0
LINE
  5
1886
330
2
100
AcDbEntity
  8
OUTLINE
100
AcDbLine
 10
4735.378956073668
 20
115.7880263264563
 30
0.0
 11
4711.378956073668
 21
115.7880263264562
 31
0.0
  0
LINE
  5
1887
330
2
100
AcDbEntity
  8
OUTLINE
100
AcDbLine
 10
4706.378956073669
 20
110.7880263264561
 30
0.0
 11
4711.378956073668
 21
115.7880263264562
 31
0.0
  0
LINE
  5
1888
330
2
100
AcDbEntity
  8
OUTLINE
100
AcDbLine
 10
4706.378956073669
 20
-307.2119736735439
 30
0.0
 11
4706.378956073669
 21
110.7880263264561
 31
0.0
  0
LINE
  5
1889
330
2
100
AcDbEntity
  8
OUTLINE
100
AcDbLine
 10
4718.878956073669
 20
-295.7119736735438
 30
0.0
 11
4721.878956073669
 21
-295.7119736735438
 31
0.0
  0
LINE
  5
188A
330
2
100
AcDbEntity
  8
OUTLINE
100
AcDbLine
 10
4721.878956073669
 20
-295.7119736735437
 30
0.0
 11
4721.878956073669
 21
-298.7119736735438
 31
0.0
  0
LINE
  5
188B
330
2
100
AcDbEntity
  8
OUTLINE
100
AcDbLine
 10
4721.878956073669
 20
-298.7119736735438
 30
0.0
 11
4718.878956073669
 21
-298.7119736735438
 31
0.0
  0
LINE
  5
188C
330
2
100
AcDbEntity
  8
OUTLINE
100
AcDbLine
 10
4718.878956073669
 20
-298.7119736735439
 30
0.0
 11
4718.878956073669
 21
-295.7119736735439
 31
0.0
  0
LINE
  5
188D
330
2
100
AcDbEntity
  8
OUTLINE
100
AcDbLine
 10
5533.878956073671
 20
-295.7119736735391
 30
0.0
 11
5536.878956073669
 21
-295.7119736735391
 31
0.0
  0
LINE
  5
188E
330
2
100
AcDbEntity
  8
OUTLINE
100
AcDbLine
 10
5536.878956073669
 20
-295.7119736735391
 30
0.0
 11
5536.878956073669
 21
-298.711973673539
 31
0.0
  0
LINE
  5
188F
330
2
100
AcDbEntity
  8
OUTLINE
100
AcDbLine
 10
5536.878956073669
 20
-298.711973673539
 30
0.0
 11
5533.878956073671
 21
-298.711973673539
 31
0.0
  0
LINE
  5
1890
330
2
100
AcDbEntity
  8
OUTLINE
100
AcDbLine
 10
5533.878956073671
 20
-298.711973673539
 30
0.0
 11
5533.878956073671
 21
-295.7119736735391
 31
0.0
  0
LINE
  5
1891
330
2
100
AcDbEntity
  8
OUTLINE
100
AcDbLine
 10
5549.378956073669
 20
-307.211973673539
 30
0.0
 11
5544.37895607367
 21
-312.2119736735391
 31
0.0
  0
LINE
  5
1892
330
2
100
AcDbEntity
  8
OUTLINE
100
AcDbLine
 10
5549.378956073669
 20
-307.211973673539
 30
0.0
 11
5549.378956073669
 21
110.788026326461
 31
0.0
  0
LINE
  5
1893
330
2
100
AcDbEntity
  8
OUTLINE
100
AcDbLine
 10
5544.37895607367
 20
115.7880263264611
 30
0.0
 11
5549.378956073669
 21
110.788026326461
 31
0.0
  0
LINE
  5
1894
330
2
100
AcDbEntity
  8
OUTLINE
100
AcDbLine
 10
5544.37895607367
 20
115.7880263264609
 30
0.0
 11
5520.37895607367
 21
115.7880263264608
 31
0.0
  0
LINE
  5
1895
330
2
100
AcDbEntity
  8
OUTLINE
100
AcDbLine
 10
5520.37895607367
 20
-312.2119736735392
 30
0.0
 11
5544.37895607367
 21
-312.2119736735391
 31
0.0
  0
LINE
  5
1896
330
2
100
AcDbEntity
  8
OUTLINE
100
AcDbLine
 10
4736.378956073667
 20
116.7880263264563
 30
0.0
 11
4736.378956073667
 21
115.7880263264563
 31
0.0
  0
LINE
  5
1897
330
2
100
AcDbEntity
  8
OUTLINE
100
AcDbLine
 10
4736.378956073667
 20
118.3956730690299
 30
0.0
 11
4736.378956073667
 21
116.7880263264562
 31
0.0
  0
LINE
  5
1898
330
2
100
AcDbEntity
  8
OUTLINE
100
AcDbLine
 10
5520.37895607367
 20
115.7880263264607
 30
0.0
 11
5519.378956073667
 21
115.7880263264607
 31
0.0
  0
LINE
  5
1899
330
2
100
AcDbEntity
  8
OUTLINE
100
AcDbLine
 10
4736.378956073667
 20
115.7880263264562
 30
0.0
 11
4735.378956073668
 21
115.7880263264562
 31
0.0
  0
LINE
  5
189A
330
2
100
AcDbEntity
  8
OUTLINE
100
AcDbLine
 10
4735.378956073668
 20
-312.2119736735437
 30
0.0
 11
4735.378956073668
 21
115.7880263264563
 31
0.0
  0
LINE
  5
189B
330
2
100
AcDbEntity
  8
OUTLINE
100
AcDbLine
 10
5520.37895607367
 20
-312.2119736735392
 30
0.0
 11
5520.37895607367
 21
115.7880263264607
 31
0.0
  0
LINE
  5
189C
330
2
100
AcDbEntity
  8
OUTLINE
100
AcDbLine
 10
5519.378956073667
 20
116.7880263264607
 30
0.0
 11
5519.378956073667
 21
118.3956730690292
 31
0.0
  0
LINE
  5
189D
330
2
100
AcDbEntity
  8
OUTLINE
100
AcDbLine
 10
5519.378956073667
 20
115.7880263264607
 30
0.0
 11
5519.378956073667
 21
116.7880263264607
 31
0.0
  0
LINE
  5
189E
330
2
100
AcDbEntity
  8
OUTLINE
100
AcDbLine
 10
5520.37895607367
 20
-312.2119736735392
 30
0.0
 11
4735.378956073668
 21
-312.2119736735437
 31
0.0
  0
LINE
  5
189F
330
2
100
AcDbEntity
  8
OUTLINE
100
AcDbLine
 10
5519.378956073667
 20
116.7880263264607
 30
0.0
 11
4736.378956073667
 21
116.7880263264562
 31
0.0
  0
ELLIPSE
  5
18A0
330
2
100
AcDbEntity
  8
OUTLINE
100
AcDbEllipse
 10
5535.378956073667
 20
125.7519047165228
 30
0.0
 11
-2.5
 21
0.0000000000000011
 31
0.0
210
0.0
220
0.0
230
1.0
 40
0.500502949237855
 41
0.0000000000000011
 42
6.283185307179587
  0
ELLIPSE
  5
18A1
330
2
100
AcDbEntity
  8
OUTLINE
100
AcDbEllipse
 10
5535.378956073667
 20
224.3509857163801
 30
0.0
 11
-2.5
 21
0.0000000000000011
 31
0.0
210
0.0
220
0.0
230
1.0
 40
0.500502949237855
 41
0.0000000000000011
 42
6.283185307179587
  0
ELLIPSE
  5
18A2
330
2
100
AcDbEntity
  8
OUTLINE
100
AcDbEllipse
 10
5535.378956073667
 20
322.9500667162375
 30
0.0
 11
-2.5
 21
0.0000000000000011
 31
0.0
210
0.0
220
0.0
230
1.0
 40
0.500502949237855
 41
0.0000000000000011
 42
6.283185307179587
  0
ELLIPSE
  5
18A3
330
2
100
AcDbEntity
  8
OUTLINE
100
AcDbEllipse
 10
5535.378956073667
 20
421.5491477160945
 30
0.0
 11
-2.5
 21
0.0000000000000011
 31
0.0
210
0.0
220
0.0
230
1.0
 40
0.500502949237855
 41
0.0000000000000011
 42
6.283185307179587
  0
ELLIPSE
  5
18A4
330
2
100
AcDbEntity
  8
OUTLINE
100
AcDbEllipse
 10
5535.378956073669
 20
520.1482287159524
 30
0.0
 11
-2.5
 21
0.0000000000000011
 31
0.0
210
0.0
220
0.0
230
1.0
 40
0.500502949237855
 41
0.0000000000000011
 42
6.283185307179587
  0
ELLIPSE
  5
18A5
330
2
100
AcDbEntity
  8
OUTLINE
100
AcDbEllipse
 10
4720.378956073669
 20
125.7519047165235
 30
0.0
 11
-2.5
 21
0.0000000000000011
 31
0.0
210
0.0
220
0.0
230
1.0
 40
0.500502949237855
 41
0.0000000000000011
 42
6.283185307179587
  0
ELLIPSE
  5
18A6
330
2
100
AcDbEntity
  8
OUTLINE
100
AcDbEllipse
 10
4720.378956073669
 20
224.3509857163809
 30
0.0
 11
-2.5
 21
0.0000000000000011
 31
0.0
210
0.0
220
0.0
230
1.0
 40
0.500502949237855
 41
0.0000000000000011
 42
6.283185307179587
  0
ELLIPSE
  5
18A7
330
2
100
AcDbEntity
  8
OUTLINE
100
AcDbEllipse
 10
4720.378956073669
 20
322.9500667162383
 30
0.0
 11
-2.5
 21
0.0000000000000011
 31
0.0
210
0.0
220
0.0
230
1.0
 40
0.500502949237855
 41
0.0000000000000011
 42
6.283185307179587
  0
ELLIPSE
  5
18A8
330
2
100
AcDbEntity
  8
OUTLINE
100
AcDbEllipse
 10
4720.378956073669
 20
421.5491477160957
 30
0.0
 11
-2.5
 21
0.0000000000000011
 31
0.0
210
0.0
220
0.0
230
1.0
 40
0.500502949237855
 41
0.0000000000000011
 42
6.283185307179587
  0
ELLIPSE
  5
18A9
330
2
100
AcDbEntity
  8
OUTLINE
100
AcDbEllipse
 10
4720.378956073669
 20
520.1482287159533
 30
0.0
 11
-2.5
 21
0.0000000000000011
 31
0.0
210
0.0
220
0.0
230
1.0
 40
0.500502949237855
 41
0.0000000000000011
 42
6.283185307179587
  0
ELLIPSE
  5
18AA
330
2
100
AcDbEntity
  8
OUTLINE
100
AcDbEllipse
 10
5268.878956073669
 20
131.7739816310905
 30
0.0
 11
-2.5
 21
0.0000000000000011
 31
0.0
210
0.0
220
0.0
230
1.0
 40
0.500502949237855
 41
0.0000000000000011
 42
6.283185307179587
  0
ELLIPSE
  5
18AB
330
2
100
AcDbEntity
  8
OUTLINE
100
AcDbEllipse
 10
4986.878956073669
 20
131.7739816310908
 30
0.0
 11
-2.5
 21
0.0000000000000011
 31
0.0
210
0.0
220
0.0
230
1.0
 40
0.500502949237855
 41
0.0000000000000011
 42
6.283185307179587
  0
ELLIPSE
  5
18AC
330
2
100
AcDbEntity
  8
OUTLINE
100
AcDbEllipse
 10
5497.87895607367
 20
323.4666111891889
 30
0.0
 11
-2.049999999999998
 21
0.0000000000000009
 31
0.0
210
0.0
220
0.0
230
1.0
 40
0.500502949237855
 41
0.0000000000000011
 42
6.283185307179587
  0
ELLIPSE
  5
18AD
330
2
100
AcDbEntity
  8
OUTLINE
100
AcDbEllipse
 10
5312.878956073667
 20
326.4696288846161
 30
0.0
 11
-2.049999999999998
 21
0.0000000000000009
 31
0.0
210
0.0
220
0.0
230
1.0
 40
0.500502949237855
 41
0.0000000000000011
 42
6.283185307179587
  0
ELLIPSE
  5
18AE
330
2
100
AcDbEntity
  8
OUTLINE
100
AcDbEllipse
 10
5127.878956073669
 20
323.4666111891892
 30
0.0
 11
-2.049999999999998
 21
0.0000000000000009
 31
0.0
210
0.0
220
0.0
230
1.0
 40
0.500502949237855
 41
0.0000000000000011
 42
6.283185307179587
  0
ELLIPSE
  5
18AF
330
2
100
AcDbEntity
  8
OUTLINE
100
AcDbEllipse
 10
4942.878956073666
 20
326.4696288846165
 30
0.0
 11
-2.049999999999998
 21
0.0000000000000009
 31
0.0
210
0.0
220
0.0
230
1.0
 40
0.500502949237855
 41
0.0000000000000011
 42
6.283185307179587
  0
ELLIPSE
  5
18B0
330
2
100
AcDbEntity
  8
OUTLINE
100
AcDbEllipse
 10
4757.878956073668
 20
323.4666111891896
 30
0.0
 11
-2.049999999999998
 21
0.0000000000000009
 31
0.0
210
0.0
220
0.0
230
1.0
 40
0.500502949237855
 41
0.0000000000000011
 42
6.283185307179587
  0
ELLIPSE
  5
18B1
330
2
100
AcDbEntity
  8
OUTLINE
100
AcDbEllipse
 10
5535.378956073667
 20
124.8861698854088
 30
0.0
 11
2.5
 21
-0.0000000000000011
 31
0.0
210
0.0
220
0.0
230
1.0
 40
0.500502949237855
 41
0.3532467956172621
 42
2.788345857972533
  0
ELLIPSE
  5
18B2
330
2
100
AcDbEntity
  8
OUTLINE
100
AcDbEllipse
 10
5535.378956073667
 20
223.4852508852661
 30
0.0
 11
2.5
 21
-0.0000000000000011
 31
0.0
210
0.0
220
0.0
230
1.0
 40
0.500502949237855
 41
0.3532467956171668
 42
2.788345857972418
  0
ELLIPSE
  5
18B3
330
2
100
AcDbEntity
  8
OUTLINE
100
AcDbEllipse
 10
5535.378956073667
 20
322.0843318851237
 30
0.0
 11
2.5
 21
-0.0000000000000011
 31
0.0
210
0.0
220
0.0
230
1.0
 40
0.500502949237855
 41
0.3532467956173389
 42
2.788345857972686
  0
ELLIPSE
  5
18B4
330
2
100
AcDbEntity
  8
OUTLINE
100
AcDbEllipse
 10
5535.378956073667
 20
420.6834128849811
 30
0.0
 11
2.5
 21
-0.0000000000000011
 31
0.0
210
0.0
220
0.0
230
1.0
 40
0.500502949237855
 41
0.353246795617276
 42
2.788345857972728
  0
ELLIPSE
  5
18B5
330
2
100
AcDbEntity
  8
OUTLINE
100
AcDbEllipse
 10
5535.378956073669
 20
519.2824938848384
 30
0.0
 11
2.5
 21
-0.0000000000000011
 31
0.0
210
0.0
220
0.0
230
1.0
 40
0.500502949237855
 41
0.353246795617381
 42
2.788345857972664
  0
ELLIPSE
  5
18B6
330
2
100
AcDbEntity
  8
OUTLINE
100
AcDbEllipse
 10
4720.378956073669
 20
124.8861698854096
 30
0.0
 11
2.5
 21
-0.0000000000000011
 31
0.0
210
0.0
220
0.0
230
1.0
 40
0.500502949237855
 41
0.3532467956172621
 42
2.788345857972533
  0
ELLIPSE
  5
18B7
330
2
100
AcDbEntity
  8
OUTLINE
100
AcDbEllipse
 10
4720.378956073669
 20
223.4852508852669
 30
0.0
 11
2.5
 21
-0.0000000000000011
 31
0.0
210
0.0
220
0.0
230
1.0
 40
0.500502949237855
 41
0.3532467956171668
 42
2.788345857972418
  0
ELLIPSE
  5
18B8
330
2
100
AcDbEntity
  8
OUTLINE
100
AcDbEllipse
 10
4720.378956073669
 20
322.0843318851245
 30
0.0
 11
2.5
 21
-0.0000000000000011
 31
0.0
210
0.0
220
0.0
230
1.0
 40
0.500502949237855
 41
0.3532467956173573
 42
2.788345857972667
  0
ELLIPSE
  5
18B9
330
2
100
AcDbEntity
  8
OUTLINE
100
AcDbEllipse
 10
4720.378956073669
 20
420.6834128849821
 30
0.0
 11
2.5
 21
-0.0000000000000011
 31
0.0
210
0.0
220
0.0
230
1.0
 40
0.500502949237855
 41
0.353246795617276
 42
2.788345857972728
  0
ELLIPSE
  5
18BA
330
2
100
AcDbEntity
  8
OUTLINE
100
AcDbEllipse
 10
4720.378956073669
 20
519.2824938848393
 30
0.0
 11
2.5
 21
-0.0000000000000011
 31
0.0
210
0.0
220
0.0
230
1.0
 40
0.500502949237855
 41
0.353246795617381
 42
2.788345857972664
  0
ELLIPSE
  5
18BB
330
2
100
AcDbEntity
  8
OUTLINE
100
AcDbEllipse
 10
5268.878956073669
 20
130.9082467999769
 30
0.0
 11
2.5
 21
-0.0000000000000011
 31
0.0
210
0.0
220
0.0
230
1.0
 40
0.500502949237855
 41
0.3532467956172038
 42
2.788345857972589
  0
ELLIPSE
  5
18BC
330
2
100
AcDbEntity
  8
OUTLINE
100
AcDbEllipse
 10
4986.878956073669
 20
130.9082467999769
 30
0.0
 11
2.5
 21
-0.0000000000000011
 31
0.0
210
0.0
220
0.0
230
1.0
 40
0.500502949237855
 41
0.3532467956172621
 42
2.788345857972533
  0
ELLIPSE
  5
18BD
330
2
100
AcDbEntity
  8
OUTLINE
100
AcDbEllipse
 10
5497.87895607367
 20
322.600876358075
 30
0.0
 11
2.049999999999998
 21
-0.0000000000000009
 31
0.0
210
0.0
220
0.0
230
1.0
 40
0.500502949237855
 41
0.4355237314743399
 42
2.706068922115747
  0
ELLIPSE
  5
18BE
330
2
100
AcDbEntity
  8
OUTLINE
100
AcDbEllipse
 10
5312.878956073667
 20
325.6038940535023
 30
0.0
 11
2.049999999999998
 21
-0.0000000000000009
 31
0.0
210
0.0
220
0.0
230
1.0
 40
0.500502949237855
 41
0.4355237314743179
 42
2.70606892211579
  0
ELLIPSE
  5
18BF
330
2
100
AcDbEntity
  8
OUTLINE
100
AcDbEllipse
 10
5127.878956073669
 20
322.6008763580754
 30
0.0
 11
2.049999999999998
 21
-0.0000000000000009
 31
0.0
210
0.0
220
0.0
230
1.0
 40
0.500502949237855
 41
0.4355237314743179
 42
2.70606892211577
  0
ELLIPSE
  5
18C0
330
2
100
AcDbEntity
  8
OUTLINE
100
AcDbEllipse
 10
4942.878956073666
 20
325.6038940535026
 30
0.0
 11
2.049999999999998
 21
-0.0000000000000009
 31
0.0
210
0.0
220
0.0
230
1.0
 40
0.500502949237855
 41
0.4355237314743179
 42
2.70606892211579
  0
ELLIPSE
  5
18C1
330
2
100
AcDbEntity
  8
OUTLINE
100
AcDbEllipse
 10
4757.878956073668
 20
322.6008763580757
 30
0.0
 11
2.049999999999998
 21
-0.0000000000000009
 31
0.0
210
0.0
220
0.0
230
1.0
 40
0.500502949237855
 41
0.4355237314743179
 42
2.70606892211577
  0
LINE
  5
18C2
330
2
100
AcDbEntity
  8
OUTLINE
100
AcDbLine
 10
5549.378956073669
 20
121.7639226463332
 30
0.0
 11
5544.37895607367
 21
119.261407900144
 31
0.0
  0
LINE
  5
18C3
330
2
100
AcDbEntity
  8
OUTLINE
100
AcDbLine
 10
5544.37895607367
 20
119.2614079001439
 30
0.0
 11
5544.37895607367
 21
118.3956730690297
 31
0.0
  0
LINE
  5
18C4
330
2
100
AcDbEntity
  8
OUTLINE
100
AcDbLine
 10
5544.37895607367
 20
118.3956730690301
 30
0.0
 11
5549.378956073669
 21
120.8981878152194
 31
0.0
  0
LINE
  5
18C5
330
2
100
AcDbEntity
  8
OUTLINE
100
AcDbLine
 10
5549.378956073669
 20
120.8981878152191
 30
0.0
 11
5549.378956073669
 21
121.7639226463332
 31
0.0
  0
LINE
  5
18C6
330
2
100
AcDbEntity
  8
OUTLINE
100
AcDbLine
 10
4711.378956073668
 20
119.2614079001447
 30
0.0
 11
5544.37895607367
 21
119.261407900144
 31
0.0
  0
LINE
  5
18C7
330
2
100
AcDbEntity
  8
OUTLINE
100
AcDbLine
 10
4711.378956073668
 20
118.3956730690306
 30
0.0
 11
4711.378956073668
 21
119.2614079001447
 31
0.0
  0
LINE
  5
18C8
330
2
100
AcDbEntity
  8
OUTLINE
100
AcDbLine
 10
4711.378956073668
 20
118.3956730690306
 30
0.0
 11
5544.37895607367
 21
118.3956730690298
 31
0.0
  0
LINE
  5
18C9
330
2
100
AcDbEntity
  8
OUTLINE
100
AcDbLine
 10
5549.378956073669
 20
121.7639226463332
 30
0.0
 11
5549.378956073669
 21
526.6547670560444
 31
0.0
  0
LINE
  5
18CA
330
2
100
AcDbEntity
  8
OUTLINE
100
AcDbLine
 10
4706.378956073669
 20
526.6547670560453
 30
0.0
 11
5549.378956073669
 21
526.6547670560446
 31
0.0
  0
LINE
  5
18CB
330
2
100
AcDbEntity
  8
OUTLINE
100
AcDbLine
 10
4706.378956073669
 20
121.763922646334
 30
0.0
 11
4706.378956073669
 21
526.6547670560449
 31
0.0
  0
LINE
  5
18CC
330
2
100
AcDbEntity
  8
OUTLINE
100
AcDbLine
 10
4711.378956073668
 20
119.2614079001447
 30
0.0
 11
4706.378956073669
 21
121.763922646334
 31
0.0
  0
LINE
  5
18CD
330
2
100
AcDbEntity
  8
OUTLINE
100
AcDbLine
 10
4706.378956073669
 20
121.7639226463339
 30
0.0
 11
4706.378956073669
 21
120.8981878152199
 31
0.0
  0
LINE
  5
18CE
330
2
100
AcDbEntity
  8
OUTLINE
100
AcDbLine
 10
4706.378956073669
 20
120.8981878152201
 30
0.0
 11
4711.378956073668
 21
118.3956730690308
 31
0.0
  0
LINE
  5
18CF
330
2
100
AcDbEntity
  8
OUTLINE
100
AcDbLine
 10
5549.378956073669
 20
526.6547670560446
 30
0.0
 11
5549.378956073669
 21
526.6630546393048
 31
0.0
  0
LINE
  5
18D0
330
2
100
AcDbEntity
  8
OUTLINE
100
AcDbLine
 10
4706.378956073669
 20
526.6630546393058
 30
0.0
 11
5549.378956073669
 21
526.663054639305
 31
0.0
  0
LINE
  5
18D1
330
2
100
AcDbEntity
  8
OUTLINE
100
AcDbLine
 10
4706.378956073669
 20
526.6547670560453
 30
0.0
 11
4706.378956073669
 21
526.6630546393055
 31
0.0
  0
ELLIPSE
  5
18D2
330
2
100
AcDbEntity
  8
OUTLINE
100
AcDbEllipse
 10
4757.878956073668
 20
321.7351415269622
 30
0.0
 11
2.049999999999998
 21
-0.0000000000000009
 31
0.0
210
0.0
220
0.0
230
1.0
 40
0.5005029492378368
 41
1.004270377192366
 42
2.137322276398327
  0
ELLIPSE
  5
18D3
330
2
100
AcDbEntity
  8
OUTLINE
100
AcDbEllipse
 10
4757.878956073668
 20
322.6008763580761
 30
0.0
 11
-2.049999999999998
 21
0.0000000000000009
 31
0.0
210
0.0
220
0.0
230
1.0
 40
0.5005029492378368
 41
3.577116385064066
 42
5.847661575706384
  0
ELLIPSE
  5
18D4
330
2
100
AcDbEntity
  8
OUTLINE
100
AcDbEllipse
 10
5497.87895607367
 20
321.7351415269574
 30
0.0
 11
2.049999999999998
 21
-0.0000000000000009
 31
0.0
210
0.0
220
0.0
230
1.0
 40
0.5005029492378368
 41
1.004270377196053
 42
2.137322276394653
  0
ELLIPSE
  5
18D5
330
2
100
AcDbEntity
  8
OUTLINE
100
AcDbEllipse
 10
5312.878956073671
 20
324.7381592223856
 30
0.0
 11
2.049999999999998
 21
-0.0000000000000009
 31
0.0
210
0.0
220
0.0
230
1.0
 40
0.5005029492378368
 41
1.00427037719449
 42
2.137322276395174
  0
ELLIPSE
  5
18D6
330
2
100
AcDbEntity
  8
OUTLINE
100
AcDbEllipse
 10
5127.878956073669
 20
321.7351415269598
 30
0.0
 11
2.049999999999998
 21
-0.0000000000000009
 31
0.0
210
0.0
220
0.0
230
1.0
 40
0.5005029492378368
 41
1.004270377194461
 42
2.13732227639623
  0
ELLIPSE
  5
18D7
330
2
100
AcDbEntity
  8
OUTLINE
100
AcDbEllipse
 10
4942.87895607367
 20
324.738159222388
 30
0.0
 11
2.049999999999998
 21
-0.0000000000000009
 31
0.0
210
0.0
220
0.0
230
1.0
 40
0.5005029492378368
 41
1.004270377192914
 42
2.137322276396764
  0
ELLIPSE
  5
18D8
330
2
100
AcDbEntity
  8
OUTLINE
100
AcDbEllipse
 10
5497.87895607367
 20
322.6008763580715
 30
0.0
 11
-2.049999999999998
 21
0.0000000000000009
 31
0.0
210
0.0
220
0.0
230
1.0
 40
0.5005029492378368
 41
3.577116385066199
 42
5.84766157570423
  0
ELLIPSE
  5
18D9
330
2
100
AcDbEntity
  8
OUTLINE
100
AcDbEllipse
 10
5312.878956073671
 20
325.6038940534998
 30
0.0
 11
-2.049999999999998
 21
0.0000000000000009
 31
0.0
210
0.0
220
0.0
230
1.0
 40
0.5005029492378368
 41
3.577116385065538
 42
5.847661575704869
  0
ELLIPSE
  5
18DA
330
2
100
AcDbEntity
  8
OUTLINE
100
AcDbEllipse
 10
5127.878956073669
 20
322.6008763580739
 30
0.0
 11
-2.049999999999998
 21
0.0000000000000009
 31
0.0
210
0.0
220
0.0
230
1.0
 40
0.5005029492378368
 41
3.577116385065113
 42
5.847661575705317
  0
ELLIPSE
  5
18DB
330
2
100
AcDbEntity
  8
OUTLINE
100
AcDbEllipse
 10
4942.87895607367
 20
325.6038940535021
 30
0.0
 11
-2.049999999999998
 21
0.0000000000000009
 31
0.0
210
0.0
220
0.0
230
1.0
 40
0.5005029492378368
 41
3.577116385064841
 42
5.84766157570591
  0
ELLIPSE
  5
18DC
330
2
100
AcDbEntity
  8
OUTLINE
100
AcDbEllipse
 10
5563.37895607367
 20
518.4167590533879
 30
0.0
 11
2.25
 21
-0.000000000000001
 31
0.0
210
0.0
220
0.0
230
1.0
 40
0.5005029492376579
 41
0.7649326149840049
 42
2.376660038605788
  0
ELLIPSE
  5
18DD
330
2
100
AcDbEntity
  8
OUTLINE
100
AcDbEllipse
 10
5563.378956073666
 20
419.8176780535878
 30
0.0
 11
2.25
 21
-0.000000000000001
 31
0.0
210
0.0
220
0.0
230
1.0
 40
0.5005029492376579
 41
0.7649326150371671
 42
2.376660038552626
  0
ELLIPSE
  5
18DE
330
2
100
AcDbEntity
  8
OUTLINE
100
AcDbEllipse
 10
5563.378956073666
 20
321.2185970537875
 30
0.0
 11
2.25
 21
-0.000000000000001
 31
0.0
210
0.0
220
0.0
230
1.0
 40
0.5005029492376579
 41
0.7649326150908223
 42
2.37666003849897
  0
ELLIPSE
  5
18DF
330
2
100
AcDbEntity
  8
OUTLINE
100
AcDbEllipse
 10
5563.378956073666
 20
222.6195160539872
 30
0.0
 11
2.25
 21
-0.000000000000001
 31
0.0
210
0.0
220
0.0
230
1.0
 40
0.5005029492376579
 41
0.7649326151439767
 42
2.376660038445816
  0
ELLIPSE
  5
18E0
330
2
100
AcDbEntity
  8
OUTLINE
100
AcDbEllipse
 10
5563.378956073666
 20
124.020435054187
 30
0.0
 11
2.25
 21
-0.000000000000001
 31
0.0
210
0.0
220
0.0
230
1.0
 40
0.5005029492376579
 41
0.7649326151976715
 42
2.376660038392121
  0
ELLIPSE
  5
18E1
330
2
100
AcDbEntity
  8
OUTLINE
100
AcDbEllipse
 10
5563.378956073666
 20
124.8861698852255
 30
0.0
 11
-2.25
 21
0.000000000000001
 31
0.0
210
0.0
220
0.0
230
1.0
 40
0.5005029492375649
 41
3.37554461009229
 42
6.049233350677087
  0
ELLIPSE
  5
18E2
330
2
100
AcDbEntity
  8
OUTLINE
100
AcDbEllipse
 10
5563.378956073666
 20
223.4852508850259
 30
0.0
 11
-2.25
 21
0.000000000000001
 31
0.0
210
0.0
220
0.0
230
1.0
 40
0.5005029492375649
 41
3.375544610042142
 42
6.049233350727234
  0
ELLIPSE
  5
18E3
330
2
100
AcDbEntity
  8
OUTLINE
100
AcDbEllipse
 10
5563.378956073666
 20
322.0843318848262
 30
0.0
 11
-2.25
 21
0.000000000000001
 31
0.0
210
0.0
220
0.0
230
1.0
 40
0.5005029492375649
 41
3.375544609991746
 42
6.049233350777631
  0
ELLIPSE
  5
18E4
330
2
100
AcDbEntity
  8
OUTLINE
100
AcDbEllipse
 10
5563.378956073666
 20
420.6834128846264
 30
0.0
 11
-2.25
 21
0.000000000000001
 31
0.0
210
0.0
220
0.0
230
1.0
 40
0.5005029492375649
 41
3.375544609941345
 42
6.049233350828028
  0
ELLIPSE
  5
18E5
330
2
100
AcDbEntity
  8
OUTLINE
100
AcDbEllipse
 10
5563.37895607367
 20
519.2824938844267
 30
0.0
 11
-2.25
 21
0.000000000000001
 31
0.0
210
0.0
220
0.0
230
1.0
 40
0.5005029492375649
 41
3.375544609890948
 42
6.049233350878437
  0
CIRCLE
  5
18E6
330
2
100
AcDbEntity
  8
OUTLINE
100
AcDbCircle
 10
5563.378956073666
 20
47.78802632627633
 30
0.0
 40
2.25
  0
CIRCLE
  5
18E7
330
2
100
AcDbEntity
  8
OUTLINE
100
AcDbCircle
 10
5563.378956073666
 20
-107.2119736737236
 30
0.0
 40
2.25
  0
CIRCLE
  5
18E8
330
2
100
AcDbEntity
  8
OUTLINE
100
AcDbCircle
 10
5563.378956073666
 20
-272.2119736737237
 30
0.0
 40
2.25
  0
LINE
  5
18E9
330
2
100
AcDbEntity
  8
OUTLINE
100
AcDbLine
 10
5577.378956073665
 20
118.0767981296703
 30
0.0
 11
5577.378956073665
 21
116.7880263262758
 31
0.0
  0
LINE
  5
18EA
330
2
100
AcDbEntity
  8
OUTLINE
100
AcDbLine
 10
5577.378956073665
 20
116.7880263262762
 30
0.0
 11
5578.378956073666
 21
116.7880263262762
 31
0.0
  0
LINE
  5
18EB
330
2
100
AcDbEntity
  8
OUTLINE
100
AcDbLine
 10
5578.378956073666
 20
118.0767980680102
 30
0.0
 11
5578.378956073666
 21
116.7880263262761
 31
0.0
  0
LINE
  5
18EC
330
2
100
AcDbEntity
  8
OUTLINE
100
AcDbLine
 10
5577.378956073665
 20
118.076798058748
 30
0.0
 11
5578.378956073666
 21
118.076798058748
 31
0.0
  0
LINE
  5
18ED
330
2
100
AcDbEntity
  8
OUTLINE
100
AcDbLine
 10
5550.378956073666
 20
117.2110632276337
 30
0.0
 11
5577.378956073665
 21
117.2110632276337
 31
0.0
  0
LINE
  5
18EE
330
2
100
AcDbEntity
  8
OUTLINE
100
AcDbLine
 10
5550.378956073666
 20
118.076798058748
 30
0.0
 11
5577.378956073665
 21
118.076798058748
 31
0.0
  0
LINE
  5
18EF
330
2
100
AcDbEntity
  8
OUTLINE
100
AcDbLine
 10
5550.378956073666
 20
116.7880263262762
 30
0.0
 11
5577.378956073665
 21
116.7880263262762
 31
0.0
  0
LINE
  5
18F0
330
2
100
AcDbEntity
  8
OUTLINE
100
AcDbLine
 10
5550.378956073666
 20
-311.2119736737237
 30
0.0
 11
5553.378956073668
 21
-311.2119736737237
 31
0.0
  0
LINE
  5
18F1
330
2
100
AcDbEntity
  8
OUTLINE
100
AcDbLine
 10
5550.378956073666
 20
117.7880263262763
 30
0.0
 11
5550.378956073666
 21
116.7880263262761
 31
0.0
  0
LINE
  5
18F2
330
2
100
AcDbEntity
  8
OUTLINE
100
AcDbLine
 10
5550.378956073666
 20
117.7880263262763
 30
0.0
 11
5549.378956073666
 21
117.7880263262763
 31
0.0
  0
LINE
  5
18F3
330
2
100
AcDbEntity
  8
OUTLINE
100
AcDbLine
 10
5549.378956073666
 20
-307.2119736735853
 30
0.0
 11
5549.378956073666
 21
-312.2119736737237
 31
0.0
  0
LINE
  5
18F4
330
2
100
AcDbEntity
  8
OUTLINE
100
AcDbLine
 10
5549.378956073666
 20
117.7880263262763
 30
0.0
 11
5549.378956073666
 21
110.7880263264146
 31
0.0
  0
LINE
  5
18F5
330
2
100
AcDbEntity
  8
OUTLINE
100
AcDbLine
 10
5550.378956073666
 20
-312.2119736737237
 30
0.0
 11
5549.378956073666
 21
-312.2119736737237
 31
0.0
  0
LINE
  5
18F6
330
2
100
AcDbEntity
  8
OUTLINE
100
AcDbLine
 10
5550.378956073666
 20
-311.2119736737237
 30
0.0
 11
5550.378956073666
 21
-312.2119736737237
 31
0.0
  0
LINE
  5
18F7
330
2
100
AcDbEntity
  8
OUTLINE
100
AcDbLine
 10
5578.378956073666
 20
115.7880263262765
 30
0.0
 11
5578.378956073666
 21
116.7880263262762
 31
0.0
  0
LINE
  5
18F8
330
2
100
AcDbEntity
  8
OUTLINE
100
AcDbLine
 10
5550.378956073666
 20
118.0767980587479
 30
0.0
 11
5550.378956073666
 21
117.7880263262762
 31
0.0
  0
LINE
  5
18F9
330
2
100
AcDbEntity
  8
OUTLINE
100
AcDbLine
 10
5578.378956073666
 20
118.076798058748
 30
0.0
 11
5578.378956073666
 21
118.395673068797
 31
0.0
  0
LINE
  5
18FA
330
2
100
AcDbEntity
  8
OUTLINE
100
AcDbLine
 10
5549.378956073666
 20
120.8981878151841
 30
0.0
 11
5549.378956073666
 21
117.7880263262763
 31
0.0
  0
LINE
  5
18FB
330
2
100
AcDbEntity
  8
OUTLINE
100
AcDbLine
 10
5550.378956073666
 20
-312.2119736737253
 30
0.0
 11
5554.378956073668
 21
-312.2119736737253
 31
0.0
  0
ELLIPSE
  5
18FC
330
2
100
AcDbEntity
  8
OUTLINE
100
AcDbEllipse
 10
6378.378956073671
 20
124.0204350541231
 30
0.0
 11
2.0
 21
-0.0000000000000009
 31
0.0
210
0.0
220
0.0
230
1.0
 40
0.500502949237565
 41
0.7785771841120443
 42
2.363015469480421
  0
ELLIPSE
  5
18FD
330
2
100
AcDbEntity
  8
OUTLINE
100
AcDbEllipse
 10
6378.378956073671
 20
124.8861698852371
 30
0.0
 11
-2.0
 21
0.0000000000000009
 31
0.0
210
0.0
220
0.0
230
1.0
 40
0.500502949237565
 41
3.24903637870379
 42
6.175741582071918
  0
CIRCLE
  5
18FE
330
2
100
AcDbEntity
  8
OUTLINE
100
AcDbCircle
 10
6378.378956073671
 20
47.7880263262844
 30
0.0
 40
2.0
  0
ELLIPSE
  5
18FF
330
2
100
AcDbEntity
  8
OUTLINE
100
AcDbEllipse
 10
6378.378956073671
 20
222.619516053916
 30
0.0
 11
2.0
 21
-0.0000000000000009
 31
0.0
210
0.0
220
0.0
230
1.0
 40
0.500502949237565
 41
0.7785771840524594
 42
2.363015469539989
  0
ELLIPSE
  5
1900
330
2
100
AcDbEntity
  8
OUTLINE
100
AcDbEllipse
 10
6378.378956073671
 20
223.4852508850307
 30
0.0
 11
-2.0
 21
0.0000000000000009
 31
0.0
210
0.0
220
0.0
230
1.0
 40
0.500502949237565
 41
3.249036378640234
 42
6.175741582135469
  0
ELLIPSE
  5
1901
330
2
100
AcDbEntity
  8
OUTLINE
100
AcDbEllipse
 10
6378.378956073671
 20
321.2185970537157
 30
0.0
 11
2.0
 21
-0.0000000000000009
 31
0.0
210
0.0
220
0.0
230
1.0
 40
0.500502949237565
 41
0.7785771839870787
 42
2.363015469605384
  0
ELLIPSE
  5
1902
330
2
100
AcDbEntity
  8
OUTLINE
100
AcDbEllipse
 10
6378.378956073671
 20
322.0843318848304
 30
0.0
 11
-2.0
 21
0.0000000000000009
 31
0.0
210
0.0
220
0.0
230
1.0
 40
0.500502949237565
 41
3.249036378571216
 42
6.175741582204492
  0
ELLIPSE
  5
1903
330
2
100
AcDbEntity
  8
OUTLINE
100
AcDbEllipse
 10
6378.378956073671
 20
419.8176780535233
 30
0.0
 11
1.999999999999999
 21
-0.0000000000000009
 31
0.0
210
0.0
220
0.0
230
1.0
 40
0.500502949237565
 41
0.7785771839151645
 42
2.363015469677312
  0
ELLIPSE
  5
1904
330
2
100
AcDbEntity
  8
OUTLINE
100
AcDbEllipse
 10
6378.378956073671
 20
420.6834128846367
 30
0.0
 11
-1.999999999999999
 21
0.0000000000000009
 31
0.0
210
0.0
220
0.0
230
1.0
 40
0.500502949237565
 41
3.249036378495981
 42
6.175741582279727
  0
CIRCLE
  5
1905
330
2
100
AcDbEntity
  8
OUTLINE
100
AcDbCircle
 10
6378.378956073671
 20
-107.2119736737156
 30
0.0
 40
2.0
  0
CIRCLE
  5
1906
330
2
100
AcDbEntity
  8
OUTLINE
100
AcDbCircle
 10
6378.378956073671
 20
-272.2119736737156
 30
0.0
 40
2.0
  0
ELLIPSE
  5
1907
330
2
100
AcDbEntity
  8
OUTLINE
100
AcDbEllipse
 10
6378.378956073674
 20
519.2824938844339
 30
0.0
 11
-1.999999999999999
 21
0.0000000000000009
 31
0.0
210
0.0
220
0.0
230
1.0
 40
0.500502949237565
 41
3.249036378429281
 42
6.175741582346507
  0
ELLIPSE
  5
1908
330
2
100
AcDbEntity
  8
OUTLINE
100
AcDbEllipse
 10
6378.378956073674
 20
518.4167590533203
 30
0.0
 11
1.999999999999999
 21
-0.0000000000000009
 31
0.0
210
0.0
220
0.0
230
1.0
 40
0.500502949237565
 41
0.7785771838517249
 42
2.36301546974071
  0
LINE
  5
1909
330
2
100
AcDbEntity
  8
OUTLINE
100
AcDbLine
 10
6421.37895607367
 20
-312.2119736737289
 30
0.0
 11
6392.37895607367
 21
-312.211973673716
 31
0.0
  0
LINE
  5
190A
330
2
100
AcDbEntity
  8
OUTLINE
100
AcDbLine
 10
6421.37895607367
 20
-311.2119736737287
 30
0.0
 11
6421.37895607367
 21
-312.2119736737287
 31
0.0
  0
LINE
  5
190B
330
2
100
AcDbEntity
  8
OUTLINE
100
AcDbLine
 10
6393.378956073672
 20
-311.2119736737164
 30
0.0
 11
6421.37895607367
 21
-311.2119736737287
 31
0.0
  0
LINE
  5
190C
330
2
100
AcDbEntity
  8
OUTLINE
100
AcDbLine
 10
6392.37895607367
 20
-311.211973673716
 30
0.0
 11
6392.37895607367
 21
-312.2119736737161
 31
0.0
  0
LINE
  5
190D
330
2
100
AcDbEntity
  8
OUTLINE
100
AcDbLine
 10
6393.378956073672
 20
-311.2119736737157
 30
0.0
 11
6388.378956073673
 21
-311.2119736737157
 31
0.0
  0
LINE
  5
190E
330
2
100
AcDbEntity
  8
OUTLINE
100
AcDbLine
 10
6393.378956073673
 20
524.7880263260476
 30
0.0
 11
6392.378956073669
 21
524.7880263260476
 31
0.0
  0
LINE
  5
190F
330
2
100
AcDbEntity
  8
OUTLINE
100
AcDbLine
 10
6363.37895607367
 20
118.3956730687994
 30
0.0
 11
6363.37895607367
 21
117.7880263262843
 31
0.0
  0
LINE
  5
1910
330
2
100
AcDbEntity
  8
OUTLINE
100
AcDbLine
 10
6393.378956073672
 20
117.7880263262844
 30
0.0
 11
6363.37895607367
 21
117.7880263262844
 31
0.0
  0
LINE
  5
1911
330
2
100
AcDbEntity
  8
OUTLINE
100
AcDbLine
 10
6393.378956073673
 20
524.7880263260476
 30
0.0
 11
6393.378956073673
 21
117.7880263262842
 31
0.0
  0
LINE
  5
1912
330
2
100
AcDbEntity
  8
OUTLINE
100
AcDbLine
 10
6363.37895607367
 20
117.7880263262844
 30
0.0
 11
6363.37895607367
 21
115.7880263262781
 31
0.0
  0
LINE
  5
1913
330
2
100
AcDbEntity
  8
OUTLINE
100
AcDbLine
 10
6393.378956073672
 20
117.7880263262844
 30
0.0
 11
6393.378956073672
 21
-311.2119736737156
 31
0.0
  0
CIRCLE
  5
1914
330
2
100
AcDbEntity
  8
OUTLINE
100
AcDbCircle
 10
5641.878956073668
 20
-128.2119736739662
 30
0.0
 40
2.0
  0
CIRCLE
  5
1915
330
2
100
AcDbEntity
  8
OUTLINE
100
AcDbCircle
 10
6301.878956073668
 20
-128.2119736739663
 30
0.0
 40
2.0
  0
LINE
  5
1916
330
2
100
AcDbEntity
  8
OUTLINE
100
AcDbLine
 10
6279.87895607367
 20
-122.2119736739659
 30
0.0
 11
6319.878956073662
 21
-122.2119736739659
 31
0.0
  0
LINE
  5
1917
330
2
100
AcDbEntity
  8
OUTLINE
100
AcDbLine
 10
6185.878956073668
 20
-122.2119736739658
 30
0.0
 11
6225.878956073665
 21
-122.2119736739658
 31
0.0
  0
LINE
  5
1918
330
2
100
AcDbEntity
  8
OUTLINE
100
AcDbLine
 10
6091.878956073667
 20
-122.2119736739658
 30
0.0
 11
6131.878956073665
 21
-122.2119736739658
 31
0.0
  0
LINE
  5
1919
330
2
100
AcDbEntity
  8
OUTLINE
100
AcDbLine
 10
5997.87895607367
 20
-122.2119736739658
 30
0.0
 11
6037.878956073665
 21
-122.2119736739658
 31
0.0
  0
LINE
  5
191A
330
2
100
AcDbEntity
  8
OUTLINE
100
AcDbLine
 10
5903.878956073668
 20
-122.2119736739657
 30
0.0
 11
5943.878956073665
 21
-122.2119736739658
 31
0.0
  0
LINE
  5
191B
330
2
100
AcDbEntity
  8
OUTLINE
100
AcDbLine
 10
5809.878956073667
 20
-122.2119736739657
 30
0.0
 11
5849.878956073665
 21
-122.2119736739657
 31
0.0
  0
LINE
  5
191C
330
2
100
AcDbEntity
  8
OUTLINE
100
AcDbLine
 10
5715.87895607367
 20
-122.2119736739657
 30
0.0
 11
5755.878956073665
 21
-122.2119736739657
 31
0.0
  0
LINE
  5
191D
330
2
100
AcDbEntity
  8
OUTLINE
100
AcDbLine
 10
5621.878956073666
 20
-122.2119736739657
 30
0.0
 11
5661.878956073665
 21
-122.2119736739657
 31
0.0
  0
LINE
  5
191E
330
2
100
AcDbEntity
  8
OUTLINE
100
AcDbLine
 10
5665.878956073665
 20
-114.2119736739657
 30
0.0
 11
5617.878956073666
 21
-114.2119736739656
 31
0.0
  0
LINE
  5
191F
330
2
100
AcDbEntity
  8
OUTLINE
100
AcDbLine
 10
5759.878956073665
 20
-114.2119736739657
 30
0.0
 11
5711.878956073666
 21
-114.2119736739657
 31
0.0
  0
LINE
  5
1920
330
2
100
AcDbEntity
  8
OUTLINE
100
AcDbLine
 10
5853.878956073665
 20
-114.2119736739657
 30
0.0
 11
5805.878956073666
 21
-114.2119736739657
 31
0.0
  0
LINE
  5
1921
330
2
100
AcDbEntity
  8
OUTLINE
100
AcDbLine
 10
5947.878956073665
 20
-114.2119736739657
 30
0.0
 11
5899.878956073666
 21
-114.2119736739657
 31
0.0
  0
LINE
  5
1922
330
2
100
AcDbEntity
  8
OUTLINE
100
AcDbLine
 10
6041.878956073665
 20
-114.2119736739658
 30
0.0
 11
5993.878956073666
 21
-114.2119736739658
 31
0.0
  0
LINE
  5
1923
330
2
100
AcDbEntity
  8
OUTLINE
100
AcDbLine
 10
6135.878956073665
 20
-114.2119736739658
 30
0.0
 11
6087.878956073666
 21
-114.2119736739658
 31
0.0
  0
LINE
  5
1924
330
2
100
AcDbEntity
  8
OUTLINE
100
AcDbLine
 10
6229.878956073665
 20
-114.2119736739658
 30
0.0
 11
6181.878956073666
 21
-114.2119736739658
 31
0.0
  0
LINE
  5
1925
330
2
100
AcDbEntity
  8
OUTLINE
100
AcDbLine
 10
6323.878956073665
 20
-114.2119736739658
 30
0.0
 11
6275.878956073666
 21
-114.2119736739658
 31
0.0
  0
ARC
  5
1926
330
2
100
AcDbEntity
  8
OUTLINE
100
AcDbCircle
 10
5563.378956073666
 20
36.78802632627691
 30
0.0
 40
5.5
100
AcDbArc
 50
117.0356917893912
 51
62.96430821060875
  0
ARC
  5
1927
330
2
100
AcDbEntity
  8
OUTLINE
100
AcDbCircle
 10
6378.378956073666
 20
36.7880263262785
 30
0.0
 40
5.5
100
AcDbArc
 50
117.0356917893912
 51
62.96430821060875
  0
ARC
  5
1928
330
2
100
AcDbEntity
  8
OUTLINE
100
AcDbCircle
 10
5563.378956073666
 20
47.7880263262769
 30
0.0
 40
2.5
100
AcDbArc
 50
0.0
 51
180.0
  0
CIRCLE
  5
1929
330
2
100
AcDbEntity
  8
OUTLINE
100
AcDbCircle
 10
5563.37895607367
 20
-272.2119736737231
 30
0.0
 40
2.5
  0
CIRCLE
  5
192A
330
2
100
AcDbEntity
  8
OUTLINE
100
AcDbCircle
 10
5563.378956073666
 20
-107.2119736737231
 30
0.0
 40
2.5
  0
CIRCLE
  5
192B
330
2
100
AcDbEntity
  8
OUTLINE
100
AcDbCircle
 10
6378.378956073667
 20
-272.2119736737216
 30
0.0
 40
2.5
  0
CIRCLE
  5
192C
330
2
100
AcDbEntity
  8
OUTLINE
100
AcDbCircle
 10
6378.378956073666
 20
-107.2119736737215
 30
0.0
 40
2.5
  0
ARC
  5
192D
330
2
100
AcDbEntity
  8
OUTLINE
100
AcDbCircle
 10
6378.378956073666
 20
47.7880263262785
 30
0.0
 40
2.5
100
AcDbArc
 50
0.0
 51
180.0
  0
ELLIPSE
  5
192E
330
2
100
AcDbEntity
  8
OUTLINE
100
AcDbEllipse
 10
6111.878956073666
 20
129.7880263262703
 30
0.0
 11
-2.0
 21
0.0000000000000009
 31
0.0
210
0.0
220
0.0
230
1.0
 40
0.4999999999997084
 41
4.158920285522038
 42
5.265857675253396
  0
ELLIPSE
  5
192F
330
2
100
AcDbEntity
  8
OUTLINE
100
AcDbEllipse
 10
5829.878956073666
 20
129.7880263262697
 30
0.0
 11
-2.0
 21
0.0000000000000009
 31
0.0
210
0.0
220
0.0
230
1.0
 40
0.4999999999997084
 41
4.158920285523106
 42
5.265857675252313
  0
CIRCLE
  5
1930
330
2
100
AcDbEntity
  8
OUTLINE
100
AcDbCircle
 10
6333.378956073666
 20
-37.21197367371696
 30
0.0
 40
2.0
  0
CIRCLE
  5
1931
330
2
100
AcDbEntity
  8
OUTLINE
100
AcDbCircle
 10
6300.878956073666
 20
-140.711973673717
 30
0.0
 40
2.0
  0
CIRCLE
  5
1932
330
2
100
AcDbEntity
  8
OUTLINE
100
AcDbCircle
 10
6080.878956073666
 20
-140.7119736737174
 30
0.0
 40
2.0
  0
CIRCLE
  5
1933
330
2
100
AcDbEntity
  8
OUTLINE
100
AcDbCircle
 10
5860.878956073666
 20
-140.7119736737179
 30
0.0
 40
2.0
  0
CIRCLE
  5
1934
330
2
100
AcDbEntity
  8
OUTLINE
100
AcDbCircle
 10
5640.878956073666
 20
-140.7119736737183
 30
0.0
 40
2.0
  0
CIRCLE
  5
1935
330
2
100
AcDbEntity
  8
OUTLINE
100
AcDbCircle
 10
6300.878956073666
 20
66.28802632628293
 30
0.0
 40
2.0
  0
CIRCLE
  5
1936
330
2
100
AcDbEntity
  8
OUTLINE
100
AcDbCircle
 10
6080.878956073666
 20
66.28802632628259
 30
0.0
 40
2.0
  0
CIRCLE
  5
1937
330
2
100
AcDbEntity
  8
OUTLINE
100
AcDbCircle
 10
5860.878956073666
 20
66.28802632628214
 30
0.0
 40
2.0
  0
CIRCLE
  5
1938
330
2
100
AcDbEntity
  8
OUTLINE
100
AcDbCircle
 10
5640.878956073666
 20
66.28802632628178
 30
0.0
 40
2.0
  0
CIRCLE
  5
1939
330
2
100
AcDbEntity
  8
OUTLINE
100
AcDbCircle
 10
5608.378956073666
 20
-37.21197367371832
 30
0.0
 40
2.0
  0
CIRCLE
  5
193A
330
2
100
AcDbEntity
  8
OUTLINE
100
AcDbCircle
 10
6252.878956073666
 20
-37.21197367371718
 30
0.0
 40
25.0
  0
CIRCLE
  5
193B
330
2
100
AcDbEntity
  8
OUTLINE
100
AcDbCircle
 10
6158.878956073666
 20
-37.2119736737173
 30
0.0
 40
25.0
  0
CIRCLE
  5
193C
330
2
100
AcDbEntity
  8
OUTLINE
100
AcDbCircle
 10
6064.878956073666
 20
-37.21197367371753
 30
0.0
 40
25.0
  0
CIRCLE
  5
193D
330
2
100
AcDbEntity
  8
OUTLINE
100
AcDbCircle
 10
5970.878956073666
 20
-37.21197367371775
 30
0.0
 40
25.0
  0
CIRCLE
  5
193E
330
2
100
AcDbEntity
  8
OUTLINE
100
AcDbCircle
 10
5876.878956073666
 20
-37.21197367371775
 30
0.0
 40
25.0
  0
CIRCLE
  5
193F
330
2
100
AcDbEntity
  8
OUTLINE
100
AcDbCircle
 10
5782.878956073666
 20
-37.21197367371798
 30
0.0
 40
25.0
  0
CIRCLE
  5
1940
330
2
100
AcDbEntity
  8
OUTLINE
100
AcDbCircle
 10
5688.878956073666
 20
-37.21197367371821
 30
0.0
 40
25.0
  0
CIRCLE
  5
1941
330
2
100
AcDbEntity
  8
OUTLINE
100
AcDbCircle
 10
6299.878956073666
 20
32.78802632628293
 30
0.0
 40
25.0
  0
CIRCLE
  5
1942
330
2
100
AcDbEntity
  8
OUTLINE
100
AcDbCircle
 10
6205.878956073666
 20
32.7880263262827
 30
0.0
 40
25.0
  0
CIRCLE
  5
1943
330
2
100
AcDbEntity
  8
OUTLINE
100
AcDbCircle
 10
6111.878956073666
 20
32.78802632628259
 30
0.0
 40
25.0
  0
CIRCLE
  5
1944
330
2
100
AcDbEntity
  8
OUTLINE
100
AcDbCircle
 10
6017.878956073666
 20
32.78802632628249
 30
0.0
 40
25.0
  0
CIRCLE
  5
1945
330
2
100
AcDbEntity
  8
OUTLINE
100
AcDbCircle
 10
5923.878956073666
 20
32.78802632628225
 30
0.0
 40
25.0
  0
CIRCLE
  5
1946
330
2
100
AcDbEntity
  8
OUTLINE
100
AcDbCircle
 10
5829.878956073666
 20
32.78802632628214
 30
0.0
 40
25.0
  0
CIRCLE
  5
1947
330
2
100
AcDbEntity
  8
OUTLINE
100
AcDbCircle
 10
5735.878956073666
 20
32.78802632628191
 30
0.0
 40
25.0
  0
CIRCLE
  5
1948
330
2
100
AcDbEntity
  8
OUTLINE
100
AcDbCircle
 10
5641.878956073666
 20
32.7880263262818
 30
0.0
 40
25.0
  0
CIRCLE
  5
1949
330
2
100
AcDbEntity
  8
OUTLINE
100
AcDbCircle
 10
6299.878956073666
 20
-107.211973673717
 30
0.0
 40
25.0
  0
CIRCLE
  5
194A
330
2
100
AcDbEntity
  8
OUTLINE
100
AcDbCircle
 10
6205.878956073666
 20
-107.2119736737171
 30
0.0
 40
25.0
  0
CIRCLE
  5
194B
330
2
100
AcDbEntity
  8
OUTLINE
100
AcDbCircle
 10
6111.878956073666
 20
-107.2119736737173
 30
0.0
 40
25.0
  0
CIRCLE
  5
194C
330
2
100
AcDbEntity
  8
OUTLINE
100
AcDbCircle
 10
6017.878956073666
 20
-107.2119736737175
 30
0.0
 40
25.0
  0
CIRCLE
  5
194D
330
2
100
AcDbEntity
  8
OUTLINE
100
AcDbCircle
 10
5923.878956073666
 20
-107.2119736737177
 30
0.0
 40
25.0
  0
CIRCLE
  5
194E
330
2
100
AcDbEntity
  8
OUTLINE
100
AcDbCircle
 10
5829.878956073666
 20
-107.2119736737179
 30
0.0
 40
25.0
  0
CIRCLE
  5
194F
330
2
100
AcDbEntity
  8
OUTLINE
100
AcDbCircle
 10
5735.878956073666
 20
-107.2119736737181
 30
0.0
 40
25.0
  0
CIRCLE
  5
1950
330
2
100
AcDbEntity
  8
OUTLINE
100
AcDbCircle
 10
5641.878956073666
 20
-107.2119736737183
 30
0.0
 40
25.0
  0
LINE
  5
1951
330
2
100
AcDbEntity
  8
OUTLINE
100
AcDbLine
 10
5560.878956073666
 20
41.68700581184322
 30
0.0
 11
5560.878956073666
 21
47.7880263262769
 31
0.0
  0
LINE
  5
1952
330
2
100
AcDbEntity
  8
OUTLINE
100
AcDbLine
 10
5565.878956073666
 20
47.7880263262769
 30
0.0
 11
5565.878956073666
 21
41.68700581184322
 31
0.0
  0
LINE
  5
1953
330
2
100
AcDbEntity
  8
OUTLINE
100
AcDbLine
 10
6375.878956073666
 20
41.68700581184491
 30
0.0
 11
6375.878956073666
 21
47.7880263262785
 31
0.0
  0
LINE
  5
1954
330
2
100
AcDbEntity
  8
OUTLINE
100
AcDbLine
 10
6380.87895607367
 20
47.7880263262785
 30
0.0
 11
6380.87895607367
 21
41.68700581184481
 31
0.0
  0
LINE
  5
1955
330
2
100
AcDbEntity
  8
OUTLINE
100
AcDbLine
 10
5554.378956073668
 20
-312.2119736737232
 30
0.0
 11
5549.378956073669
 21
-307.2119736737231
 31
0.0
  0
LINE
  5
1956
330
2
100
AcDbEntity
  8
OUTLINE
100
AcDbLine
 10
5578.378956073668
 20
-312.2119736737232
 30
0.0
 11
5554.378956073668
 21
-312.2119736737232
 31
0.0
  0
LINE
  5
1957
330
2
100
AcDbEntity
  8
OUTLINE
100
AcDbLine
 10
5578.378956073666
 20
115.7880263262769
 30
0.0
 11
5554.378956073666
 21
115.7880263262769
 31
0.0
  0
LINE
  5
1958
330
2
100
AcDbEntity
  8
OUTLINE
100
AcDbLine
 10
5549.378956073666
 20
110.7880263262769
 30
0.0
 11
5554.378956073666
 21
115.7880263262769
 31
0.0
  0
LINE
  5
1959
330
2
100
AcDbEntity
  8
OUTLINE
100
AcDbLine
 10
5549.378956073669
 20
-307.2119736737231
 30
0.0
 11
5549.378956073666
 21
110.7880263262768
 31
0.0
  0
LINE
  5
195A
330
2
100
AcDbEntity
  8
OUTLINE
100
AcDbLine
 10
5561.87895607367
 20
-295.7119736737232
 30
0.0
 11
5564.87895607367
 21
-295.7119736737232
 31
0.0
  0
LINE
  5
195B
330
2
100
AcDbEntity
  8
OUTLINE
100
AcDbLine
 10
5564.87895607367
 20
-295.7119736737232
 30
0.0
 11
5564.87895607367
 21
-298.7119736737231
 31
0.0
  0
LINE
  5
195C
330
2
100
AcDbEntity
  8
OUTLINE
100
AcDbLine
 10
5564.87895607367
 20
-298.7119736737231
 30
0.0
 11
5561.87895607367
 21
-298.7119736737231
 31
0.0
  0
LINE
  5
195D
330
2
100
AcDbEntity
  8
OUTLINE
100
AcDbLine
 10
5561.87895607367
 20
-298.7119736737231
 30
0.0
 11
5561.87895607367
 21
-295.7119736737232
 31
0.0
  0
LINE
  5
195E
330
2
100
AcDbEntity
  8
OUTLINE
100
AcDbLine
 10
6376.878956073667
 20
-295.7119736737216
 30
0.0
 11
6379.878956073667
 21
-295.7119736737216
 31
0.0
  0
LINE
  5
195F
330
2
100
AcDbEntity
  8
OUTLINE
100
AcDbLine
 10
6379.878956073667
 20
-295.7119736737216
 30
0.0
 11
6379.878956073667
 21
-298.7119736737215
 31
0.0
  0
LINE
  5
1960
330
2
100
AcDbEntity
  8
OUTLINE
100
AcDbLine
 10
6379.878956073667
 20
-298.7119736737215
 30
0.0
 11
6376.878956073667
 21
-298.7119736737215
 31
0.0
  0
LINE
  5
1961
330
2
100
AcDbEntity
  8
OUTLINE
100
AcDbLine
 10
6376.878956073667
 20
-298.7119736737215
 30
0.0
 11
6376.878956073667
 21
-295.7119736737216
 31
0.0
  0
LINE
  5
1962
330
2
100
AcDbEntity
  8
OUTLINE
100
AcDbLine
 10
6392.378956073669
 20
-307.2119736737215
 30
0.0
 11
6387.37895607367
 21
-312.2119736737216
 31
0.0
  0
LINE
  5
1963
330
2
100
AcDbEntity
  8
OUTLINE
100
AcDbLine
 10
6392.378956073669
 20
-307.2119736737216
 30
0.0
 11
6392.378956073666
 21
110.7880263262783
 31
0.0
  0
LINE
  5
1964
330
2
100
AcDbEntity
  8
OUTLINE
100
AcDbLine
 10
6387.378956073666
 20
115.7880263262785
 30
0.0
 11
6392.378956073666
 21
110.7880263262785
 31
0.0
  0
LINE
  5
1965
330
2
100
AcDbEntity
  8
OUTLINE
100
AcDbLine
 10
6387.378956073666
 20
115.7880263262785
 30
0.0
 11
6363.378956073666
 21
115.7880263262785
 31
0.0
  0
LINE
  5
1966
330
2
100
AcDbEntity
  8
OUTLINE
100
AcDbLine
 10
6363.378956073669
 20
-312.2119736737216
 30
0.0
 11
6387.37895607367
 21
-312.2119736737216
 31
0.0
  0
LINE
  5
1967
330
2
100
AcDbEntity
  8
OUTLINE
100
AcDbLine
 10
5579.378956073666
 20
116.7880263262816
 30
0.0
 11
5579.378956073666
 21
115.7880263262816
 31
0.0
  0
LINE
  5
1968
330
2
100
AcDbEntity
  8
OUTLINE
100
AcDbLine
 10
5579.378956073666
 20
118.3956730688468
 30
0.0
 11
5579.378956073666
 21
116.7880263262764
 31
0.0
  0
LINE
  5
1969
330
2
100
AcDbEntity
  8
OUTLINE
100
AcDbLine
 10
6363.378956073666
 20
115.7880263262831
 30
0.0
 11
6362.378956073666
 21
115.7880263262831
 31
0.0
  0
LINE
  5
196A
330
2
100
AcDbEntity
  8
OUTLINE
100
AcDbLine
 10
5579.378956073666
 20
115.7880263262816
 30
0.0
 11
5578.378956073666
 21
115.7880263262816
 31
0.0
  0
LINE
  5
196B
330
2
100
AcDbEntity
  8
OUTLINE
100
AcDbLine
 10
5578.378956073668
 20
-312.2119736737184
 30
0.0
 11
5578.378956073666
 21
115.7880263262816
 31
0.0
  0
LINE
  5
196C
330
2
100
AcDbEntity
  8
OUTLINE
100
AcDbLine
 10
6363.378956073669
 20
-312.2119736737169
 30
0.0
 11
6363.378956073666
 21
115.7880263262831
 31
0.0
  0
LINE
  5
196D
330
2
100
AcDbEntity
  8
OUTLINE
100
AcDbLine
 10
6362.378956073666
 20
116.7880263262781
 30
0.0
 11
6362.378956073666
 21
118.3956730688465
 31
0.0
  0
LINE
  5
196E
330
2
100
AcDbEntity
  8
OUTLINE
100
AcDbLine
 10
6362.378956073666
 20
115.788026326283
 30
0.0
 11
6362.378956073666
 21
116.788026326283
 31
0.0
  0
LINE
  5
196F
330
2
100
AcDbEntity
  8
OUTLINE
100
AcDbLine
 10
6363.378956073669
 20
-312.2119736737169
 30
0.0
 11
5578.378956073668
 21
-312.2119736737184
 31
0.0
  0
LINE
  5
1970
330
2
100
AcDbEntity
  8
OUTLINE
100
AcDbLine
 10
6362.378956073666
 20
116.7880263262831
 30
0.0
 11
5579.378956073666
 21
116.7880263262817
 31
0.0
  0
ELLIPSE
  5
1971
330
2
100
AcDbEntity
  8
OUTLINE
100
AcDbEllipse
 10
6378.378956073666
 20
125.7519047163315
 30
0.0
 11
-2.5
 21
0.0000000000000011
 31
0.0
210
0.0
220
0.0
230
1.0
 40
0.5005029492371645
 41
0.0000000000000002
 42
6.283185307179584
  0
ELLIPSE
  5
1972
330
2
100
AcDbEntity
  8
OUTLINE
100
AcDbEllipse
 10
6378.378956073666
 20
224.3509857160528
 30
0.0
 11
-2.5
 21
0.0000000000000011
 31
0.0
210
0.0
220
0.0
230
1.0
 40
0.5005029492371645
 41
0.0000000000000002
 42
6.283185307179584
  0
ELLIPSE
  5
1973
330
2
100
AcDbEntity
  8
OUTLINE
100
AcDbEllipse
 10
6378.378956073666
 20
322.9500667157741
 30
0.0
 11
-2.5
 21
0.0000000000000011
 31
0.0
210
0.0
220
0.0
230
1.0
 40
0.5005029492371645
 41
0.0000000000000002
 42
6.283185307179584
  0
ELLIPSE
  5
1974
330
2
100
AcDbEntity
  8
OUTLINE
100
AcDbEllipse
 10
6378.378956073666
 20
421.5491477154952
 30
0.0
 11
-2.5
 21
0.0000000000000011
 31
0.0
210
0.0
220
0.0
230
1.0
 40
0.5005029492371645
 41
0.0000000000000002
 42
6.283185307179584
  0
ELLIPSE
  5
1975
330
2
100
AcDbEntity
  8
OUTLINE
100
AcDbEllipse
 10
6378.378956073667
 20
520.1482287152166
 30
0.0
 11
-2.5
 21
0.0000000000000011
 31
0.0
210
0.0
220
0.0
230
1.0
 40
0.5005029492371645
 41
0.0000000000000002
 42
6.283185307179584
  0
ELLIPSE
  5
1976
330
2
100
AcDbEntity
  8
OUTLINE
100
AcDbEllipse
 10
5563.378956073666
 20
125.7519047163321
 30
0.0
 11
-2.5
 21
0.0000000000000011
 31
0.0
210
0.0
220
0.0
230
1.0
 40
0.5005029492371645
 41
0.0000000000000002
 42
6.283185307179584
  0
ELLIPSE
  5
1977
330
2
100
AcDbEntity
  8
OUTLINE
100
AcDbEllipse
 10
5563.378956073666
 20
224.3509857160534
 30
0.0
 11
-2.5
 21
0.0000000000000011
 31
0.0
210
0.0
220
0.0
230
1.0
 40
0.5005029492371645
 41
0.0000000000000002
 42
6.283185307179584
  0
ELLIPSE
  5
1978
330
2
100
AcDbEntity
  8
OUTLINE
100
AcDbEllipse
 10
5563.378956073666
 20
322.9500667157747
 30
0.0
 11
-2.5
 21
0.0000000000000011
 31
0.0
210
0.0
220
0.0
230
1.0
 40
0.5005029492371645
 41
0.0000000000000002
 42
6.283185307179584
  0
ELLIPSE
  5
1979
330
2
100
AcDbEntity
  8
OUTLINE
100
AcDbEllipse
 10
5563.378956073666
 20
421.5491477154958
 30
0.0
 11
-2.5
 21
0.0000000000000011
 31
0.0
210
0.0
220
0.0
230
1.0
 40
0.5005029492371645
 41
0.0000000000000002
 42
6.283185307179584
  0
ELLIPSE
  5
197A
330
2
100
AcDbEntity
  8
OUTLINE
100
AcDbEllipse
 10
5563.37895607367
 20
520.1482287152173
 30
0.0
 11
-2.5
 21
0.0000000000000011
 31
0.0
210
0.0
220
0.0
230
1.0
 40
0.5005029492371645
 41
0.0000000000000002
 42
6.283185307179584
  0
ELLIPSE
  5
197B
330
2
100
AcDbEntity
  8
OUTLINE
100
AcDbEllipse
 10
6111.878956073666
 20
131.7739816308909
 30
0.0
 11
-2.5
 21
0.0000000000000011
 31
0.0
210
0.0
220
0.0
230
1.0
 40
0.5005029492371645
 41
0.0000000000000002
 42
6.283185307179584
  0
ELLIPSE
  5
197C
330
2
100
AcDbEntity
  8
OUTLINE
100
AcDbEllipse
 10
5829.878956073666
 20
131.7739816308912
 30
0.0
 11
-2.5
 21
0.0000000000000011
 31
0.0
210
0.0
220
0.0
230
1.0
 40
0.5005029492371645
 41
0.0000000000000002
 42
6.283185307179584
  0
ELLIPSE
  5
197D
330
2
100
AcDbEntity
  8
OUTLINE
100
AcDbEllipse
 10
6340.878956073666
 20
323.4666111887248
 30
0.0
 11
-2.049999999999998
 21
0.0000000000000009
 31
0.0
210
0.0
220
0.0
230
1.0
 40
0.5005029492371641
 41
0.0000000000000002
 42
6.283185307179584
  0
ELLIPSE
  5
197E
330
2
100
AcDbEntity
  8
OUTLINE
100
AcDbEllipse
 10
6155.878956073666
 20
326.469628884148
 30
0.0
 11
-2.049999999999998
 21
0.0000000000000009
 31
0.0
210
0.0
220
0.0
230
1.0
 40
0.5005029492371641
 41
0.0000000000000002
 42
6.283185307179584
  0
ELLIPSE
  5
197F
330
2
100
AcDbEntity
  8
OUTLINE
100
AcDbEllipse
 10
5970.878956073666
 20
323.4666111887249
 30
0.0
 11
-2.049999999999998
 21
0.0000000000000009
 31
0.0
210
0.0
220
0.0
230
1.0
 40
0.5005029492371641
 41
0.0000000000000002
 42
6.283185307179584
  0
ELLIPSE
  5
1980
330
2
100
AcDbEntity
  8
OUTLINE
100
AcDbEllipse
 10
5785.878956073666
 20
326.4696288841482
 30
0.0
 11
-2.049999999999998
 21
0.0000000000000009
 31
0.0
210
0.0
220
0.0
230
1.0
 40
0.5005029492371641
 41
0.0000000000000002
 42
6.283185307179584
  0
ELLIPSE
  5
1981
330
2
100
AcDbEntity
  8
OUTLINE
100
AcDbEllipse
 10
5600.878956073666
 20
323.4666111887253
 30
0.0
 11
-2.049999999999998
 21
0.0000000000000009
 31
0.0
210
0.0
220
0.0
230
1.0
 40
0.5005029492371641
 41
0.0000000000000002
 42
6.283185307179584
  0
ELLIPSE
  5
1982
330
2
100
AcDbEntity
  8
OUTLINE
100
AcDbEllipse
 10
6378.378956073666
 20
124.8861698852171
 30
0.0
 11
2.5
 21
-0.0000000000000011
 31
0.0
210
0.0
220
0.0
230
1.0
 40
0.5005029492371645
 41
0.3532467956177041
 42
2.788345857972086
  0
ELLIPSE
  5
1983
330
2
100
AcDbEntity
  8
OUTLINE
100
AcDbEllipse
 10
6378.378956073666
 20
223.4852508849385
 30
0.0
 11
2.5
 21
-0.0000000000000011
 31
0.0
210
0.0
220
0.0
230
1.0
 40
0.5005029492371645
 41
0.3532467956177226
 42
2.788345857972068
  0
ELLIPSE
  5
1984
330
2
100
AcDbEntity
  8
OUTLINE
100
AcDbEllipse
 10
6378.378956073666
 20
322.0843318846598
 30
0.0
 11
2.5
 21
-0.0000000000000011
 31
0.0
210
0.0
220
0.0
230
1.0
 40
0.5005029492371645
 41
0.3532467956177041
 42
2.788345857972086
  0
ELLIPSE
  5
1985
330
2
100
AcDbEntity
  8
OUTLINE
100
AcDbEllipse
 10
6378.378956073666
 20
420.683412884381
 30
0.0
 11
2.5
 21
-0.0000000000000011
 31
0.0
210
0.0
220
0.0
230
1.0
 40
0.5005029492371645
 41
0.3532467956176995
 42
2.788345857972093
  0
ELLIPSE
  5
1986
330
2
100
AcDbEntity
  8
OUTLINE
100
AcDbEllipse
 10
6378.378956073667
 20
519.2824938841024
 30
0.0
 11
2.5
 21
-0.0000000000000011
 31
0.0
210
0.0
220
0.0
230
1.0
 40
0.5005029492371645
 41
0.3532467956176972
 42
2.788345857972095
  0
ELLIPSE
  5
1987
330
2
100
AcDbEntity
  8
OUTLINE
100
AcDbEllipse
 10
5563.378956073666
 20
124.8861698852177
 30
0.0
 11
2.5
 21
-0.0000000000000011
 31
0.0
210
0.0
220
0.0
230
1.0
 40
0.5005029492371645
 41
0.3532467956177041
 42
2.788345857972086
  0
ELLIPSE
  5
1988
330
2
100
AcDbEntity
  8
OUTLINE
100
AcDbEllipse
 10
5563.378956073666
 20
223.485250884939
 30
0.0
 11
2.5
 21
-0.0000000000000011
 31
0.0
210
0.0
220
0.0
230
1.0
 40
0.5005029492371645
 41
0.353246795617741
 42
2.78834585797205
  0
ELLIPSE
  5
1989
330
2
100
AcDbEntity
  8
OUTLINE
100
AcDbEllipse
 10
5563.378956073666
 20
322.0843318846604
 30
0.0
 11
2.5
 21
-0.0000000000000011
 31
0.0
210
0.0
220
0.0
230
1.0
 40
0.5005029492371645
 41
0.3532467956177041
 42
2.788345857972086
  0
ELLIPSE
  5
198A
330
2
100
AcDbEntity
  8
OUTLINE
100
AcDbEllipse
 10
5563.378956073666
 20
420.6834128843818
 30
0.0
 11
2.5
 21
-0.0000000000000011
 31
0.0
210
0.0
220
0.0
230
1.0
 40
0.5005029492371645
 41
0.3532467956176995
 42
2.788345857972093
  0
ELLIPSE
  5
198B
330
2
100
AcDbEntity
  8
OUTLINE
100
AcDbEllipse
 10
5563.37895607367
 20
519.2824938841027
 30
0.0
 11
2.5
 21
-0.0000000000000011
 31
0.0
210
0.0
220
0.0
230
1.0
 40
0.5005029492371645
 41
0.3532467956177179
 42
2.788345857972075
  0
ELLIPSE
  5
198C
330
2
100
AcDbEntity
  8
OUTLINE
100
AcDbEllipse
 10
6111.878956073666
 20
130.9082467997768
 30
0.0
 11
2.5
 21
-0.0000000000000011
 31
0.0
210
0.0
220
0.0
230
1.0
 40
0.5005029492371645
 41
0.3532467956177041
 42
2.788345857972086
  0
ELLIPSE
  5
198D
330
2
100
AcDbEntity
  8
OUTLINE
100
AcDbEllipse
 10
5829.878956073666
 20
130.9082467997768
 30
0.0
 11
2.5
 21
-0.0000000000000011
 31
0.0
210
0.0
220
0.0
230
1.0
 40
0.5005029492371645
 41
0.3532467956177994
 42
2.788345857971993
  0
ELLIPSE
  5
198E
330
2
100
AcDbEntity
  8
OUTLINE
100
AcDbEllipse
 10
6340.878956073666
 20
322.6008763576103
 30
0.0
 11
2.049999999999998
 21
-0.0000000000000009
 31
0.0
210
0.0
220
0.0
230
1.0
 40
0.5005029492371641
 41
0.4355237314751604
 42
2.706068922114633
  0
ELLIPSE
  5
198F
330
2
100
AcDbEntity
  8
OUTLINE
100
AcDbEllipse
 10
6155.878956073666
 20
325.6038940530336
 30
0.0
 11
2.049999999999998
 21
-0.0000000000000009
 31
0.0
210
0.0
220
0.0
230
1.0
 40
0.5005029492371641
 41
0.4355237314751604
 42
2.706068922114633
  0
ELLIPSE
  5
1990
330
2
100
AcDbEntity
  8
OUTLINE
100
AcDbEllipse
 10
5970.878956073666
 20
322.6008763576105
 30
0.0
 11
2.049999999999998
 21
-0.0000000000000009
 31
0.0
210
0.0
220
0.0
230
1.0
 40
0.5005029492371641
 41
0.4355237314751384
 42
2.706068922114654
  0
ELLIPSE
  5
1991
330
2
100
AcDbEntity
  8
OUTLINE
100
AcDbEllipse
 10
5785.878956073666
 20
325.6038940530339
 30
0.0
 11
2.049999999999998
 21
-0.0000000000000009
 31
0.0
210
0.0
220
0.0
230
1.0
 40
0.5005029492371641
 41
0.4355237314751853
 42
2.706068922114607
  0
ELLIPSE
  5
1992
330
2
100
AcDbEntity
  8
OUTLINE
100
AcDbEllipse
 10
5600.878956073666
 20
322.6008763576108
 30
0.0
 11
2.049999999999998
 21
-0.0000000000000009
 31
0.0
210
0.0
220
0.0
230
1.0
 40
0.5005029492371641
 41
0.4355237314751384
 42
2.706068922114654
  0
LINE
  5
1993
330
2
100
AcDbEntity
  8
OUTLINE
100
AcDbLine
 10
6392.378956073666
 20
121.7639226461475
 30
0.0
 11
6387.378956073666
 21
119.2614078999616
 31
0.0
  0
LINE
  5
1994
330
2
100
AcDbEntity
  8
OUTLINE
100
AcDbLine
 10
6387.378956073666
 20
119.2614078999616
 30
0.0
 11
6387.378956073666
 21
118.395673068847
 31
0.0
  0
LINE
  5
1995
330
2
100
AcDbEntity
  8
OUTLINE
100
AcDbLine
 10
6387.378956073666
 20
118.3956730688473
 30
0.0
 11
6392.378956073666
 21
120.898187815033
 31
0.0
  0
LINE
  5
1996
330
2
100
AcDbEntity
  8
OUTLINE
100
AcDbLine
 10
6392.378956073666
 20
120.898187815033
 30
0.0
 11
6392.378956073666
 21
121.7639226461475
 31
0.0
  0
LINE
  5
1997
330
2
100
AcDbEntity
  8
OUTLINE
100
AcDbLine
 10
5554.378956073666
 20
119.2614078999623
 30
0.0
 11
6387.378956073666
 21
119.2614078999617
 31
0.0
  0
LINE
  5
1998
330
2
100
AcDbEntity
  8
OUTLINE
100
AcDbLine
 10
5554.378956073666
 20
118.3956730688476
 30
0.0
 11
5554.378956073666
 21
119.2614078999622
 31
0.0
  0
LINE
  5
1999
330
2
100
AcDbEntity
  8
OUTLINE
100
AcDbLine
 10
5554.378956073666
 20
118.3956730688476
 30
0.0
 11
6387.378956073666
 21
118.3956730688471
 31
0.0
  0
LINE
  5
199A
330
2
100
AcDbEntity
  8
OUTLINE
100
AcDbLine
 10
6392.378956073666
 20
121.7639226461475
 30
0.0
 11
6392.378956073666
 21
526.6547670552998
 31
0.0
  0
LINE
  5
199B
330
2
100
AcDbEntity
  8
OUTLINE
100
AcDbLine
 10
5549.378956073669
 20
526.6547670553003
 30
0.0
 11
6392.378956073669
 21
526.6547670552998
 31
0.0
  0
LINE
  5
199C
330
2
100
AcDbEntity
  8
OUTLINE
100
AcDbLine
 10
5549.378956073666
 20
121.763922646148
 30
0.0
 11
5549.378956073666
 21
526.6547670553006
 31
0.0
  0
LINE
  5
199D
330
2
100
AcDbEntity
  8
OUTLINE
100
AcDbLine
 10
5554.378956073666
 20
119.2614078999622
 30
0.0
 11
5549.378956073666
 21
121.763922646148
 31
0.0
  0
LINE
  5
199E
330
2
100
AcDbEntity
  8
OUTLINE
100
AcDbLine
 10
5549.378956073666
 20
121.763922646148
 30
0.0
 11
5549.378956073666
 21
120.8981878150335
 31
0.0
  0
LINE
  5
199F
330
2
100
AcDbEntity
  8
OUTLINE
100
AcDbLine
 10
5549.378956073666
 20
120.8981878150337
 30
0.0
 11
5554.378956073666
 21
118.3956730688479
 31
0.0
  0
LINE
  5
19A0
330
2
100
AcDbEntity
  8
OUTLINE
100
AcDbLine
 10
6392.378956073669
 20
526.6547670552998
 30
0.0
 11
6392.378956073669
 21
526.6630546385488
 31
0.0
  0
LINE
  5
19A1
330
2
100
AcDbEntity
  8
OUTLINE
100
AcDbLine
 10
5549.378956073669
 20
526.6630546385491
 30
0.0
 11
6392.378956073669
 21
526.6630546385488
 31
0.0
  0
ELLIPSE
  5
19A2
330
2
100
AcDbEntity
  8
OUTLINE
100
AcDbEllipse
 10
5600.878956073666
 20
321.7351415266177
 30
0.0
 11
2.049999999999998
 21
-0.0000000000000009
 31
0.0
210
0.0
220
0.0
230
1.0
 40
0.5005029492372798
 41
1.004270377084654
 42
2.137322276505138
  0
ELLIPSE
  5
19A3
330
2
100
AcDbEntity
  8
OUTLINE
100
AcDbEllipse
 10
5600.878956073666
 20
322.6008763577322
 30
0.0
 11
-2.049999999999998
 21
0.0000000000000009
 31
0.0
210
0.0
220
0.0
230
1.0
 40
0.5005029492372798
 41
3.577116384999211
 42
5.847661575770167
  0
ELLIPSE
  5
19A4
330
2
100
AcDbEntity
  8
OUTLINE
100
AcDbEllipse
 10
6340.878956073666
 20
321.7351415266176
 30
0.0
 11
2.049999999999998
 21
-0.0000000000000009
 31
0.0
210
0.0
220
0.0
230
1.0
 40
0.5005029492372798
 41
1.004270377084654
 42
2.137322276505138
  0
ELLIPSE
  5
19A5
330
2
100
AcDbEntity
  8
OUTLINE
100
AcDbEllipse
 10
6155.878956073666
 20
324.7381592220414
 30
0.0
 11
2.049999999999998
 21
-0.0000000000000009
 31
0.0
210
0.0
220
0.0
230
1.0
 40
0.5005029492372798
 41
1.004270377084119
 42
2.137322276505673
  0
ELLIPSE
  5
19A6
330
2
100
AcDbEntity
  8
OUTLINE
100
AcDbEllipse
 10
5970.878956073666
 20
321.7351415266176
 30
0.0
 11
2.049999999999998
 21
-0.0000000000000009
 31
0.0
210
0.0
220
0.0
230
1.0
 40
0.5005029492372798
 41
1.004270377084654
 42
2.137322276505138
  0
ELLIPSE
  5
19A7
330
2
100
AcDbEntity
  8
OUTLINE
100
AcDbEllipse
 10
5785.878956073666
 20
324.7381592220414
 30
0.0
 11
2.049999999999998
 21
-0.0000000000000009
 31
0.0
210
0.0
220
0.0
230
1.0
 40
0.5005029492372798
 41
1.004270377084119
 42
2.137322276505673
  0
ELLIPSE
  5
19A8
330
2
100
AcDbEntity
  8
OUTLINE
100
AcDbEllipse
 10
6340.878956073666
 20
322.6008763577319
 30
0.0
 11
-2.049999999999998
 21
0.0000000000000009
 31
0.0
210
0.0
220
0.0
230
1.0
 40
0.5005029492372798
 41
3.577116384999166
 42
5.847661575770208
  0
ELLIPSE
  5
19A9
330
2
100
AcDbEntity
  8
OUTLINE
100
AcDbEllipse
 10
6155.878956073666
 20
325.6038940531559
 30
0.0
 11
-2.049999999999998
 21
0.0000000000000009
 31
0.0
210
0.0
220
0.0
230
1.0
 40
0.5005029492372798
 41
3.577116384998966
 42
5.847661575770413
  0
ELLIPSE
  5
19AA
330
2
100
AcDbEntity
  8
OUTLINE
100
AcDbEllipse
 10
5970.878956073666
 20
322.600876357732
 30
0.0
 11
-2.049999999999998
 21
0.0000000000000009
 31
0.0
210
0.0
220
0.0
230
1.0
 40
0.5005029492372798
 41
3.577116384999166
 42
5.847661575770208
  0
ELLIPSE
  5
19AB
330
2
100
AcDbEntity
  8
OUTLINE
100
AcDbEllipse
 10
5785.878956073666
 20
325.6038940531559
 30
0.0
 11
-2.049999999999998
 21
0.0000000000000009
 31
0.0
210
0.0
220
0.0
230
1.0
 40
0.5005029492372798
 41
3.577116384999055
 42
5.847661575770322
  0
LINE
  5
19AC
330
2
100
AcDbEntity
  8
NOTE
100
AcDbLine
 10
6404.878956072946
 20
-322.2119736748568
 30
0.0
 11
6404.878956072946
 21
-300.2119736748568
 31
0.0
  0
LINE
  5
19AD
330
2
100
AcDbEntity
  8
NOTE
100
AcDbLine
 10
5573.878956072935
 20
-322.2119736748571
 30
0.0
 11
5573.878956072935
 21
-300.2119736748571
 31
0.0
  0
LINE
  5
19AE
330
2
100
AcDbEntity
  8
NOTE
100
AcDbLine
 10
5524.878956072949
 20
-322.2119736731838
 30
0.0
 11
5524.878956072949
 21
-300.2119736731838
 31
0.0
  0
LINE
  5
19AF
330
2
100
AcDbEntity
  8
NOTE
100
AcDbLine
 10
4693.878956072942
 20
-322.211973673551
 30
0.0
 11
4693.878956072942
 21
-300.211973673551
 31
0.0
  0
LINE
  5
19B0
330
2
100
AcDbEntity
  8
BASIS
  6
DASHDOT
 62
     6
100
AcDbLine
 10
5549.378956073666
 20
-337.5062152422497
 30
0.0
 11
5549.378956073666
 21
567.6100660145857
 31
0.0
  0
LINE
  5
19B1
330
2
100
AcDbEntity
  8
ARRANGE
  6
Continuous
 62
     1
100
AcDbLine
 10
5532.69483850926
 20
-328.896091238127
 30
0.0
 11
5566.06307363807
 21
-295.5278561093196
 31
0.0
  0
LINE
  5
19B2
330
2
100
AcDbEntity
  8
ARRANGE
  6
Continuous
 62
     1
100
AcDbLine
 10
5532.69483850926
 20
-295.5278561093196
 30
0.0
 11
5566.06307363807
 21
-328.896091238127
 31
0.0
  0
CIRCLE
  5
19B3
330
2
100
AcDbEntity
  8
ARRANGE
100
AcDbCircle
 10
5549.378956073666
 20
-312.2119736737232
 30
0.0
 40
15.0
  0
DIMENSION
  5
19B4
330
2
100
AcDbEntity
  8
SIZE
100
AcDbDimension
  2
*D9
 10
5524.878956072949
 20
-386.8405872373992
 30
0.0
 11
5109.378956072944
 21
-366.8405872373992
 31
0.0
 70
    32
 71
     5
 42
831.0000000000073
  3
STANDARD
100
AcDbAlignedDimension
 13
4693.878956072942
 23
-322.211973673551
 33
0.0
 14
5524.878956072949
 24
-322.2119736731838
 34
0.0
100
AcDbRotatedDimension
1001
ACAD
1000
DSTYLE
1002
{
1070
    40
1040
10.0
1070
    45
1040
0.5
1070
    50
1040
0.7853981633974483
1070
    90
1070
     1
1070
   271
1070
     1
1070
   272
1070
     1
1002
}
  0
DIMENSION
  5
19C1
330
2
100
AcDbEntity
  8
SIZE
100
AcDbDimension
  2
*D10
 10
5573.878956072935
 20
-386.8405872373992
 30
0.0
 11
5549.378956072942
 21
-386.8405872373992
 31
0.0
 70
   160
 71
     5
 42
48.99999999998545
  3
STANDARD
100
AcDbAlignedDimension
 13
5524.878956072949
 23
-322.2119736731838
 33
0.0
 14
5573.878956072935
 24
-322.2119736748571
 34
0.0
100
AcDbRotatedDimension
1001
ACAD
1000
DSTYLE
1002
{
1070
   279
1070
     0
1070
    40
1040
10.0
1070
    45
1040
0.5
1070
    50
1040
0.7853981633974483
1070
    90
1070
     1
1070
   271
1070
     1
1070
   272
1070
     1
1002
}
  0
DIMENSION
  5
19D3
330
2
100
AcDbEntity
  8
SIZE
100
AcDbDimension
  2
*D11
 10
6404.878956072946
 20
-386.8405872373992
 30
0.0
 11
5989.37895607294
 21
-366.8405872373992
 31
0.0
 70
    32
 71
     5
 42
831.0000000000107
  3
STANDARD
100
AcDbAlignedDimension
 13
5573.878956072935
 23
-322.2119736748571
 33
0.0
 14
6404.878956072946
 24
-322.2119736748571
 34
0.0
100
AcDbRotatedDimension
1001
ACAD
1000
DSTYLE
1002
{
1070
   279
1070
     1
1070
    40
1040
10.0
1070
    45
1040
0.5
1070
    50
1040
0.7853981633974483
1070
    90
1070
     1
1070
   271
1070
     1
1070
   272
1070
     1
1002
}
  0
DIMENSION
  5
1A01
330
2
100
AcDbEntity
  8
SIZE
100
AcDbDimension
  2
*D12
 10
6421.37895607367
 20
-441.8152023633431
 30
0.0
 11
5549.37895607367
 21
-421.8152023633431
 31
0.0
 70
    32
 71
     5
 42
1744.000000000002
  3
STANDARD
100
AcDbAlignedDimension
 13
4677.37895607367
 23
-312.211973673544
 33
0.0
 14
6421.37895607367
 24
-312.2119736737289
 34
0.0
100
AcDbRotatedDimension
1001
ACAD
1000
DSTYLE
1002
{
1070
    40
1040
10.0
1070
    45
1040
0.5
1070
    50
1040
0.7853981633974483
1070
    90
1070
     1
1070
   271
1070
     1
1070
   272
1070
     1
1002
}
  0
DIMENSION
  5
1A0E
330
2
100
AcDbEntity
  8
SIZE
100
AcDbDimension
  2
*D13
 10
4604.751867904106
 20
-312.211973673544
 30
0.0
 11
4584.751867904105
 21
107.2255404828816
 31
0.0
 70
    32
 71
     5
 42
838.8750283128498
  3
STANDARD
100
AcDbAlignedDimension
 13
4706.378956073669
 23
526.6630546393058
 33
0.0
 14
4677.37895607367
 24
-312.211973673544
 34
0.0
 50
90.0
100
AcDbRotatedDimension
1001
ACAD
1000
DSTYLE
1002
{
1070
    40
1040
10.0
1070
    45
1040
0.5
1070
    50
1040
0.7853981633974483
1070
    90
1070
     1
1070
   271
1070
     1
1070
   272
1070
     1
1002
}
  0
MULTILEADER
  5
1A1B
330
2
100
AcDbEntity
  8
NOTE
 92
     1148
310
7C0400001C0000000C00000010000000050000000C00000016000000000000C00C00000013000000112700003C0000000600000002000000251241A7DBDFB14093260BE360956BC00000000000000000964F4B7E7FDFB14093260BE360956BC000000000000000000C0000001300000001000000880000001D000000B8A5A4
310
C07EBC2F400F4E59BDFD5828400000000000000000E8E34303E155B2400F4E59BDFD5828C0B8A5A4C07EBC2F4000000000000000003BB8813E647373C00000000000000000000000000000000000000000000034400000000000000000000000000000000000000000000000000000000000000000000000000000F03F0C00
310
000016000000040000C30C00000017000000FDFFFFFF540000002000000002000000000000000000F0BF498A025C1426D13F000000000000000000000000000000000000000000000000000000000000000000000000000000000000000000000000000000000000F03F0C00000016000000040000C30C00000017000000FD
310
FFFFFF540000002000000002000000000000000000000000000000000000000000000000000000000000000000F0BF498A025C1426D1BF000000000000000000000000000000000000000000000000000000000000F03F0C00000016000000040000C30C00000017000000FDFFFFFF54000000200000000200000000000000
310
0000000000000000000000000000000000000000000000000000F0BF0000000000000000000000000000000000000000000000000000000000000000000000000000F03F080000001F0000000C00000016000000000000C00C00000013000000891300003C00000006000000020000009591E3C30246B240CBED96509CB072
310
C00000000000000000251241A7DBDFB14093260BE360956BC000000000000000000C000000130000009A3A00003C0000000600000002000000F767D1DF9777B14093260BE360956BC00000000000000000954F4B7E7FDFB14093260BE360956BC000000000000000000C00000016000000000000C00C00000012000000FF7F
310
00000C00000017000000FFFFFFFF0C00000016000000000000C00C00000013000000993A0000AC0000000B0000001BB16304E171B14097260BE360156BC0000000000000000000000000000000000000000000000000000000000000F03F000000000000F03F000000000000000000000000000000003130817E002B323204
310
000000010000000000000000003440000000000000F03F0000000000000000000000000000F03F0000000000000000000000000000000000000000726F6D616E732E7368780073657874666F6E742E73687800B00000000B000000888C1A72BC74B14042D1B58D0B406FC00000000000000000000000000000000000000000
310
00000000000000000000F03F000000000000F03F0000000000000000000000000000000039817E3792B78C8A0000000008000000010000000000000000003440000000000000F03F0000000000000000000000000000F03F0000000000000000000000000000000000000000726F6D616E732E7368780066657874666F6E74
310
2E73687800
100
AcDbMLeader
300
CONTEXT_DATA{
 40
1.0
 10
4469.593258941538
 20
-208.6680770128047
 30
0.0
 41
20.0
140
20.0
145
2.0
174
     1
175
     6
176
     0
177
     0
290
     1
304
10×\P9×7長穴
 11
0.0
 21
0.0
 31
1.0
340
23
 12
4471.593258941537
 22
-196.6680770128048
 32
0.0
 13
1.0
 23
0.0
 33
0.0
 42
0.0
 43
0.0
 44
0.0
 45
1.0
170
     1
 90
-1073741824
171
     1
172
     5
 91
-1073741824
141
0.0
 92
 12836860
291
     0
292
     0
173
     0
293
     0
142
0.0
143
0.0
294
     0
295
     0
296
     0
110
4693.878956072942
120
-311.211973673551
130
0.0
111
1.0
121
0.0
131
0.0
112
0.0
122
1.0
132
0.0
297
     0
302
LEADER{
290
     1
291
     1
 10
4575.8580208463
 20
-220.6680770128047
 30
0.0
 11
-1.0
 21
0.0
 31
0.0
 90
        0
 40
0.36
304
LEADER_LINE{
 10
4693.878956072942
 20
-311.211973673551
 30
0.0
 91
        0
305
}
303
}
301
}
340
B17
 90
 67454208
170
     1
 91
-1056964608
341
26
171
    -2
290
     1
291
     1
 41
0.36
342
32
 42
20.0
172
     2
343
23
173
     1
 95
        6
174
     1
175
     2
 92
-1056964608
292
     0
 93
-1056964608
 10
1.0
 20
1.0
 30
1.0
 43
0.0
176
     0
293
     0
294
     0
178
     0
179
     1
 45
1.0
1001
ACAD_MLEADERVER
1070
     2
  0
MULTILEADER
  5
1A1C
330
2
100
AcDbEntity
  8
NOTE
 92
      976
310
D00300001B0000000C00000010000000050000000C00000016000000000000C00C00000013000000112700003C0000000600000002000000169A1D40021CB540BE62C1191D447EC0000000000000000087D72717A61BB540BE62C1191D447EC000000000000000000C0000001300000001000000880000001D000000BEA6D7
310
B694FE2640E712F8AB715D30C00000000000000000F0E34303E194B540E712F8AB715D3040BEA6D7B694FE264000000000000000006CB7813E648373C00000000000000000000000000000000000000000000034400000000000000000000000000000000000000000000000000000000000000000000000000000F03F0C00
310
000016000000040000C30C00000017000000FDFFFFFF540000002000000002000000000000000000F0BF498A025C1426D13F000000000000000000000000000000000000000000000000000000000000000000000000000000000000000000000000000000000000F03F0C00000016000000040000C30C00000017000000FD
310
FFFFFF540000002000000002000000000000000000000000000000000000000000000000000000000000000000F0BF498A025C1426D1BF000000000000000000000000000000000000000000000000000000000000F03F0C00000016000000040000C30C00000017000000FDFFFFFF54000000200000000200000000000000
310
0000000000000000000000000000000000000000000000000000F0BF0000000000000000000000000000000000000000000000000000000000000000000000000000F03F080000001F0000000C00000016000000000000C00C00000013000000891300003C00000006000000020000001D78E8B86189B5409A3841593B8974
310
C00000000000000000169A1D40021CB540BE62C1191D447EC000000000000000000C000000130000009A3A00003C0000000600000002000000A05D892F2CCFB440BE62C1191D447EC0000000000000000088D72717A61BB540BE62C1191D447EC000000000000000000C00000016000000000000C00C00000012000000FF7F
310
00000C00000017000000FFFFFFFF0C00000016000000000000C00C00000013000000993A0000B00000000B0000003282D2C150CCB440BC62C1191D047EC0000000000000000000000000000000000000000000000000000000000000F03F000000000000F03F0000000000000000000000000000000034817E5C552B323230
310
3537000B000000010000000000000000003440000000000000F03F0000000000000000000000000000F03F0000000000000000000000000000000000000000726F6D616E732E7368780066657874666F6E742E73687800
100
AcDbMLeader
300
CONTEXT_DATA{
 40
1.0
 10
5325.172600350721
 20
-472.2571046404008
 30
0.0
 41
20.0
140
20.0
145
2.0
174
     1
175
     6
176
     0
177
     0
290
     1
304
4×%%C7
 11
0.0
 21
0.0
 31
1.0
340
23
 12
5327.172600350721
 22
-460.2571046404007
 32
0.0
 13
1.0
 23
0.0
 33
0.0
 42
0.0
 43
0.0
 44
0.0
 45
1.0
170
     1
 90
-1073741824
171
     1
172
     5
 91
-1073741824
141
0.0
 92
 12836860
291
     0
292
     0
173
     0
293
     0
142
0.0
143
0.0
294
     0
295
     0
296
     0
110
5522.029726053554
120
-574.8010013011472
130
0.0
111
1.0
121
0.0
131
0.0
112
0.0
122
1.0
132
0.0
297
     0
302
LEADER{
290
     1
291
     1
 10
5404.00879082691
 20
-484.2571046404008
 30
0.0
 11
-1.0
 21
0.0
 31
0.0
 90
        0
 40
0.36
304
LEADER_LINE{
 10
5524.878956072949
 20
-312.2119736735392
 30
0.0
 91
        0
305
}
303
}
301
}
340
B17
 90
 67454208
170
     1
 91
-1056964608
341
26
171
    -2
290
     1
291
     1
 41
0.36
342
32
 42
20.0
172
     2
343
23
173
     1
 95
        6
174
     1
175
     2
 92
-1056964608
292
     0
 93
-1056964608
 10
1.0
 20
1.0
 30
1.0
 43
0.0
176
     0
293
     0
294
     0
178
     0
179
     1
 45
1.0
1001
ACAD_MLEADERVER
1070
     2
  0
ENDSEC
  0
SECTION
  2
OBJECTS
  0
DICTIONARY
  5
A
330
0
100
AcDbDictionary
281
     1
  3
ACAD_2007HEADERVARS_RT
350
1C01
  3
ACAD_BACKGROUND
350
B1D
  3
ACAD_COLOR
350
4D
  3
ACAD_GROUP
350
3A
  3
ACAD_LAYOUT
350
17
  3
ACAD_MATERIAL
350
C
  3
ACAD_MLEADERSTYLE
350
B16
  3
ACAD_MLINESTYLE
350
3B
  3
ACAD_PLOTSETTINGS
350
3C
  3
ACAD_PLOTSTYLENAME
350
9
  3
ACAD_SCALELIST
350
4E
  3
ACAD_TABLESTYLE
350
4F
  3
ACAD_VISUALSTYLE
350
2D
  3
ACDB_RECOMPOSE_DATA
350
B02
  3
AcDbVariableDictionary
350
B03
  3
AcmDictionary
350
AFC
  3
AMG
350
1198
  3
AMGSNAPSETTINGS
350
136A
  3
DWGPROPS
350
1C00
  3
MAPISURF_MODULE
350
1B9D
  0
DICTIONARY
  5
20
330
1F
100
AcDbDictionary
280
     1
281
     1
  3
ACAD_LAYERFILTERS
360
1B0A
  3
ACAD_LAYERSTATES
360
21
  3
ACLYDICTIONARY
360
1B09
  0
DICTIONARY
  5
6
330
5
100
AcDbDictionary
280
     1
281
     1
  3
ADSK_XREC_LAYER_RECONCILED
360
7
  0
DICTIONARY
  5
C0C
330
C0B
100
AcDbDictionary
280
     1
281
     1
  0
DICTIONARY
  5
C0E
330
C0D
100
AcDbDictionary
280
     1
281
     1
  0
DICTIONARY
  5
C12
330
C11
100
AcDbDictionary
280
     1
281
     1
  0
DICTIONARY
  5
C14
330
C13
100
AcDbDictionary
280
     1
281
     1
  0
DICTIONARY
  5
C16
330
C15
100
AcDbDictionary
280
     1
281
     1
  0
DICTIONARY
  5
C18
330
C17
100
AcDbDictionary
280
     1
281
     1
  0
DICTIONARY
  5
3
330
2
100
AcDbDictionary
280
     1
281
     1
  3
ACAD_INDEX
360
1477
  3
ACAD_SORTENTS
360
B34
  0
DICTIONARY
  5
1C01
102
{ACAD_REACTORS
330
A
102
}
330
A
100
AcDbDictionary
281
     1
  3
DIMARCSYM
350
1C03
  3
DIMFXL
350
1C02
  0
DICTIONARY
  5
B1D
102
{ACAD_REACTORS
330
A
102
}
330
A
100
AcDbDictionary
281
     1
  0
DICTIONARY
  5
4D
102
{ACAD_REACTORS
330
A
102
}
330
A
100
AcDbDictionary
281
     1
  0
DICTIONARY
  5
3A
102
{ACAD_REACTORS
330
A
102
}
330
A
100
AcDbDictionary
281
     1
  0
DICTIONARY
  5
17
102
{ACAD_REACTORS
330
A
102
}
330
A
100
AcDbDictionary
281
     1
  3
Model
350
16
  3
レイアウト1
350
1B
  0
DICTIONARY
  5
C
102
{ACAD_REACTORS
330
A
102
}
330
A
100
AcDbDictionary
281
     1
  3
ByBlock
350
45
  3
ByLayer
350
3D
  3
Global
350
B
  0
DICTIONARY
  5
B16
102
{ACAD_REACTORS
330
A
102
}
330
A
100
AcDbDictionary
281
     1
  3
Standard
350
B17
  0
DICTIONARY
  5
3B
102
{ACAD_REACTORS
330
A
102
}
330
A
100
AcDbDictionary
281
     1
  3
STANDARD
350
53
  0
DICTIONARY
  5
3C
102
{ACAD_REACTORS
330
A
102
}
330
A
100
AcDbDictionary
281
     1
  0
ACDBDICTIONARYWDFLT
  5
9
102
{ACAD_REACTORS
330
A
102
}
330
A
100
AcDbDictionary
281
     1
  3
Normal
350
8
100
AcDbDictionaryWithDefault
340
8
  0
DICTIONARY
  5
4E
102
{ACAD_REACTORS
330
A
102
}
330
A
100
AcDbDictionary
281
     1
  3
*A1
350
C1A
  3
*A2
350
165E
  3
*A3
350
165F
  3
A0
350
57
  3
A1
350
58
  3
A2
350
59
  3
A3
350
5A
  3
A4
350
5B
  3
A5
350
5C
  3
A6
350
5D
  3
A7
350
5E
  3
A8
350
5F
  3
A9
350
60
  3
B0
350
61
  3
B1
350
62
  3
B2
350
63
  3
B3
350
64
  3
B4
350
65
  3
B5
350
66
  3
B6
350
67
  3
B7
350
68
  3
B8
350
69
  3
B9
350
6A
  3
C0
350
6B
  3
C1
350
6C
  3
C2
350
6D
  3
C3
350
6E
  3
C4
350
6F
  3
C5
350
70
  3
C6
350
71
  3
C7
350
72
  3
C8
350
73
  3
C9
350
74
  3
D0
350
75
  3
D1
350
76
  3
D2
350
77
  0
DICTIONARY
  5
4F
102
{ACAD_REACTORS
330
A
102
}
330
A
100
AcDbDictionary
281
     1
  3
Standard
350
54
  0
DICTIONARY
  5
2D
102
{ACAD_REACTORS
330
A
102
}
330
A
100
AcDbDictionary
281
     1
  3
2dWireframe
350
B0D
  3
3D Hidden
350
B0E
  3
3dWireframe
350
56
  3
Basic
350
B0C
  3
Brighten
350
B11
  3
ColorChange
350
B15
  3
Conceptual
350
B0F
  3
Dim
350
B10
  3
Facepattern
350
B14
  3
Flat
350
B09
  3
FlatWithEdges
350
B0A
  3
Gouraud
350
2C
  3
GouraudWithEdges
350
B0B
  3
Linepattern
350
B13
  3
Realistic
350
55
  3
Thicken
350
B12
  0
XRECORD
  5
B02
102
{ACAD_REACTORS
330
A
102
}
330
A
100
AcDbXrecord
280
     1
 90
        1
330
54
  0
DICTIONARY
  5
B03
102
{ACAD_REACTORS
330
A
102
}
330
A
100
AcDbDictionary
281
     1
  3
CANNOSCALE
350
B06
  3
CMLEADERSTYLE
350
B05
  3
CTABLESTYLE
350
B04
  3
DIMASSOC
350
B7B
  3
HIDETEXT
350
B7A
  3
INDEXCTL
350
B79
  3
LIGHTINGUNITS
350
B07
  3
MSLTSCALE
350
B77
  3
SORTENTS
350
B78
  0
DICTIONARY
  5
AFC
102
{ACAD_REACTORS
330
A
102
}
330
A
100
AcDbDictionary
281
     1
  3
AcmStdDictionary
350
1260
  3
AMDTSECTSYM_ARROWCOLOR
350
1277
  0
DICTIONARY
  5
1198
102
{ACAD_REACTORS
330
A
102
}
330
A
100
AcDbDictionary
281
     1
  3
AcMgSettings
350
1199
  0
DICTIONARY
  5
136A
102
{ACAD_REACTORS
330
A
102
}
330
A
100
AcDbDictionary
281
     1
  3
DIMENSION
350
136F
  3
FEA
350
136E
  3
HATCH (1)
350
136B
  3
HATCH (2)
350
136C
  3
SIMPLE WELD
350
1370
  3
SYMBOLS
350
136D
  0
XRECORD
  5
1C00
102
{ACAD_REACTORS
330
A
102
}
330
A
100
AcDbXrecord
280
     1
  1
DWGPROPS COOKIE
  2

  3

  4

  6

  7

  8
W000135
  9

300
AmdtFileType=84
301
=
302
=
303
=
304
=
305
=
306
=
307
=
308
=
309
=
 40
1.950114722222222
 41
2451324.468257373
 42
2455890.453329399
  1

 90
        1
  0
DICTIONARY
  5
1B0A
102
{ACAD_REACTORS
330
20
102
}
330
20
100
AcDbDictionary
281
     1
  0
DICTIONARY
  5
21
102
{ACAD_REACTORS
330
20
102
}
330
20
100
AcDbDictionary
281
     1
  0
DICTIONARY
  5
1B09
102
{ACAD_REACTORS
330
20
102
}
330
20
100
AcDbDictionary
281
     1
1001
ACAD
1000
<All
  0
XRECORD
  5
7
102
{ACAD_REACTORS
330
6
102
}
330
6
100
AcDbXrecord
280
     1
290
     1
  0
DICTIONARY
  5
1477
102
{ACAD_REACTORS
330
3
102
}
330
3
100
AcDbDictionary
281
     1
  3
*A1
350
1478
  0
SORTENTSTABLE
  5
B34
102
{ACAD_REACTORS
330
3
102
}
330
3
100
AcDbSortentsTable
330
2
  0
XRECORD
  5
1C03
102
{ACAD_REACTORS
330
1C01
102
}
330
1C01
100
AcDbXrecord
280
     1
 70
     1
  0
XRECORD
  5
1C02
102
{ACAD_REACTORS
330
1C01
102
}
330
1C01
100
AcDbXrecord
280
     1
 40
15.0
  0
LAYOUT
  5
16
102
{ACAD_XDICTIONARY
360
1C04
102
}
102
{ACAD_REACTORS
330
17
102
}
330
17
100
AcDbPlotSettings
  1

  2
なし
  4

  6

 40
0.0
 41
0.0
 42
0.0
 43
0.0
 44
0.0
 45
0.0
 46
0.0
 47
0.0
 48
0.0
 49
0.0
140
0.0
141
0.0
142
1.0
143
1.0
 70
  1712
 72
     0
 73
     0
 74
     0
  7

 75
     0
147
1.0
148
0.0
149
0.0
100
AcDbLayout
  1
Model
 70
     1
 71
     0
 10
0.0
 20
0.0
 11
12.0
 21
9.0
 12
0.0
 22
0.0
 32
0.0
 14
0.0
 24
0.0
 34
0.0
 15
0.0
 25
0.0
 35
0.0
146
0.0
 13
0.0
 23
0.0
 33
0.0
 16
1.0
 26
0.0
 36
0.0
 17
0.0
 27
1.0
 37
0.0
 76
     0
330
2
331
BB4
  0
LAYOUT
  5
1B
102
{ACAD_XDICTIONARY
360
1C
102
}
102
{ACAD_REACTORS
330
17
102
}
330
17
100
AcDbPlotSettings
  1

  2
Microsoft XPS Document Writer
  4
A4
  6

 40
3.174999952316281
 41
3.174999952316281
 42
3.175003051757812
 43
3.17498779296875
 44
210.0156707763672
 45
297.0106506347656
 46
0.0
 47
0.0
 48
0.0
 49
0.0
140
0.0
141
0.0
142
1.0
143
1.0
 70
   688
 72
     1
 73
     1
 74
     5
  7

 75
    16
147
1.0
148
0.0
149
0.0
100
AcDbLayout
  1
レイアウト1
 70
     1
 71
     1
 10
0.0
 20
0.0
 11
12.0
 21
9.0
 12
0.0
 22
0.0
 32
0.0
 14
-1439.804583653114
 24
-1400.237631316938
 34
0.0
 15
2872.968780515991
 25
1675.790811506817
 35
0.0
146
0.0
 13
0.0
 23
0.0
 33
0.0
 16
1.0
 26
0.0
 36
0.0
 17
0.0
 27
1.0
 37
0.0
 76
     0
330
18
1001
ACAD_PSEXT
1000
Microsoft XPS Document Writer
1000
Microsoft XPS Document Writer
1000
XPSPort:
1000

1070
     0
  0
MATERIAL
  5
45
102
{ACAD_XDICTIONARY
360
46
102
}
102
{ACAD_REACTORS
330
C
102
}
330
C
100
AcDbMaterial
  1
ByBlock
 72
     0
 43
0.0208333333333333
 43
0.0
 43
0.0
 43
0.0
 43
0.0
 43
0.0208333333333333
 43
0.0
 43
0.0
 43
0.0
 43
0.0
 43
1.0
 43
0.0
 43
0.0
 43
0.0
 43
0.0
 43
1.0
 77
     0
 47
0.0208333333333333
 47
0.0
 47
0.0
 47
0.0
 47
0.0
 47
0.0208333333333333
 47
0.0
 47
0.0
 47
0.0
 47
0.0
 47
1.0
 47
0.0
 47
0.0
 47
0.0
 47
0.0
 47
1.0
171
     0
 49
0.0208333333333333
 49
0.0
 49
0.0
 49
0.0
 49
0.0
 49
0.0208333333333333
 49
0.0
 49
0.0
 49
0.0
 49
0.0
 49
1.0
 49
0.0
 49
0.0
 49
0.0
 49
0.0
 49
1.0
175
     0
142
0.0208333333333333
142
0.0
142
0.0
142
0.0
142
0.0
142
0.0208333333333333
142
0.0
142
0.0
142
0.0
142
0.0
142
1.0
142
0.0
142
0.0
142
0.0
142
0.0
142
1.0
179
     0
144
0.0208333333333333
144
0.0
144
0.0
144
0.0
144
0.0
144
0.0208333333333333
144
0.0
144
0.0
144
0.0
144
0.0
144
1.0
144
0.0
144
0.0
144
0.0
144
0.0
144
1.0
147
0.0208333333333333
147
0.0
147
0.0
147
0.0
147
0.0
147
0.0208333333333333
147
0.0
147
0.0
147
0.0
147
0.0
147
1.0
147
0.0
147
0.0
147
0.0
147
0.0
147
1.0
  0
MATERIAL
  5
3D
102
{ACAD_XDICTIONARY
360
3E
102
}
102
{ACAD_REACTORS
330
C
102
}
330
C
100
AcDbMaterial
  1
ByLayer
 72
     0
 43
0.0208333333333333
 43
0.0
 43
0.0
 43
0.0
 43
0.0
 43
0.0208333333333333
 43
0.0
 43
0.0
 43
0.0
 43
0.0
 43
1.0
 43
0.0
 43
0.0
 43
0.0
 43
0.0
 43
1.0
 77
     0
 47
0.0208333333333333
 47
0.0
 47
0.0
 47
0.0
 47
0.0
 47
0.0208333333333333
 47
0.0
 47
0.0
 47
0.0
 47
0.0
 47
1.0
 47
0.0
 47
0.0
 47
0.0
 47
0.0
 47
1.0
171
     0
 49
0.0208333333333333
 49
0.0
 49
0.0
 49
0.0
 49
0.0
 49
0.0208333333333333
 49
0.0
 49
0.0
 49
0.0
 49
0.0
 49
1.0
 49
0.0
 49
0.0
 49
0.0
 49
0.0
 49
1.0
175
     0
142
0.0208333333333333
142
0.0
142
0.0
142
0.0
142
0.0
142
0.0208333333333333
142
0.0
142
0.0
142
0.0
142
0.0
142
1.0
142
0.0
142
0.0
142
0.0
142
0.0
142
1.0
179
     0
144
0.0208333333333333
144
0.0
144
0.0
144
0.0
144
0.0
144
0.0208333333333333
144
0.0
144
0.0
144
0.0
144
0.0
144
1.0
144
0.0
144
0.0
144
0.0
144
0.0
144
1.0
147
0.0208333333333333
147
0.0
147
0.0
147
0.0
147
0.0
147
0.0208333333333333
147
0.0
147
0.0
147
0.0
147
0.0
147
1.0
147
0.0
147
0.0
147
0.0
147
0.0
147
1.0
  0
MATERIAL
  5
B
102
{ACAD_XDICTIONARY
360
D
102
}
102
{ACAD_REACTORS
330
C
102
}
330
C
100
AcDbMaterial
  1
Global
 72
     0
 43
0.0208333333333333
 43
0.0
 43
0.0
 43
0.0
 43
0.0
 43
0.0208333333333333
 43
0.0
 43
0.0
 43
0.0
 43
0.0
 43
1.0
 43
0.0
 43
0.0
 43
0.0
 43
0.0
 43
1.0
 77
     0
 47
0.0208333333333333
 47
0.0
 47
0.0
 47
0.0
 47
0.0
 47
0.0208333333333333
 47
0.0
 47
0.0
 47
0.0
 47
0.0
 47
1.0
 47
0.0
 47
0.0
 47
0.0
 47
0.0
 47
1.0
171
     0
 49
0.0208333333333333
 49
0.0
 49
0.0
 49
0.0
 49
0.0
 49
0.0208333333333333
 49
0.0
 49
0.0
 49
0.0
 49
0.0
 49
1.0
 49
0.0
 49
0.0
 49
0.0
 49
0.0
 49
1.0
175
     0
142
0.0208333333333333
142
0.0
142
0.0
142
0.0
142
0.0
142
0.0208333333333333
142
0.0
142
0.0
142
0.0
142
0.0
142
1.0
142
0.0
142
0.0
142
0.0
142
0.0
142
1.0
179
     0
144
0.0208333333333333
144
0.0
144
0.0
144
0.0
144
0.0
144
0.0208333333333333
144
0.0
144
0.0
144
0.0
144
0.0
144
1.0
144
0.0
144
0.0
144
0.0
144
0.0
144
1.0
147
0.0208333333333333
147
0.0
147
0.0
147
0.0
147
0.0
147
0.0208333333333333
147
0.0
147
0.0
147
0.0
147
0.0
147
1.0
147
0.0
147
0.0
147
0.0
147
0.0
147
1.0
  0
MLEADERSTYLE
  5
B17
102
{ACAD_REACTORS
330
B16
330
1A1B
330
1A1C
102
}
330
B16
100
AcDbMLeaderStyle
170
     2
171
     1
172
     0
 90
        2
 40
0.0
 41
0.0
173
     1
 91
-1056964608
340
26
 92
       -2
290
     1
 42
2.0
291
     1
 43
0.36
  3
Standard
 44
4.0
300

342
23
174
     1
178
     6
175
     1
176
     0
 93
-1056964608
 45
4.0
292
     0
297
     0
 46
4.0
 94
-1056964608
 47
1.0
 49
1.0
140
1.0
293
     1
141
0.0
294
     1
177
     0
142
1.0
295
     0
296
     0
143
0.125
1001
ACAD_MLEADERVER
1070
     2
  0
MLINESTYLE
  5
53
102
{ACAD_REACTORS
330
3B
102
}
330
3B
100
AcDbMlineStyle
  2
STANDARD
 70
     0
  3

 62
   256
 51
90.0
 52
90.0
 71
     2
 49
0.5
 62
   256
  6
BYLAYER
 49
-0.5
 62
   256
  6
BYLAYER
  0
ACDBPLACEHOLDER
  5
8
102
{ACAD_REACTORS
330
9
102
}
330
9
  0
SCALE
  5
C1A
102
{ACAD_REACTORS
330
4E
102
}
330
4E
100
AcDbScale
 70
     0
300
1:5_XREF
140
1.0
141
5.0
290
     0
  0
SCALE
  5
165E
102
{ACAD_REACTORS
330
4E
102
}
330
4E
100
AcDbScale
 70
     0
300
1:5_XREF_XREF
140
1.0
141
5.0
290
     0
  0
SCALE
  5
165F
102
{ACAD_REACTORS
330
4E
102
}
330
4E
100
AcDbScale
 70
     0
300
1:5_XREF_XREF_XREF_XREF
140
1.0
141
5.0
290
     0
  0
SCALE
  5
57
102
{ACAD_REACTORS
330
4E
102
}
330
4E
100
AcDbScale
 70
     0
300
1:1
140
1.0
141
1.0
290
     1
  0
SCALE
  5
58
102
{ACAD_REACTORS
330
4E
102
}
330
4E
100
AcDbScale
 70
     0
300
1:2
140
1.0
141
2.0
290
     0
  0
SCALE
  5
59
102
{ACAD_REACTORS
330
4E
102
}
330
4E
100
AcDbScale
 70
     0
300
1:4
140
1.0
141
4.0
290
     0
  0
SCALE
  5
5A
102
{ACAD_REACTORS
330
4E
102
}
330
4E
100
AcDbScale
 70
     0
300
1:5
140
1.0
141
5.0
290
     0
  0
SCALE
  5
5B
102
{ACAD_REACTORS
330
4E
102
}
330
4E
100
AcDbScale
 70
     0
300
1:8
140
1.0
141
8.0
290
     0
  0
SCALE
  5
5C
102
{ACAD_REACTORS
330
4E
102
}
330
4E
100
AcDbScale
 70
     0
300
1:10
140
1.0
141
10.0
290
     0
  0
SCALE
  5
5D
102
{ACAD_REACTORS
330
4E
102
}
330
4E
100
AcDbScale
 70
     0
300
1:16
140
1.0
141
16.0
290
     0
  0
SCALE
  5
5E
102
{ACAD_REACTORS
330
4E
102
}
330
4E
100
AcDbScale
 70
     0
300
1:20
140
1.0
141
20.0
290
     0
  0
SCALE
  5
5F
102
{ACAD_REACTORS
330
4E
102
}
330
4E
100
AcDbScale
 70
     0
300
1:30
140
1.0
141
30.0
290
     0
  0
SCALE
  5
60
102
{ACAD_REACTORS
330
4E
102
}
330
4E
100
AcDbScale
 70
     0
300
1:40
140
1.0
141
40.0
290
     0
  0
SCALE
  5
61
102
{ACAD_REACTORS
330
4E
102
}
330
4E
100
AcDbScale
 70
     0
300
1:50
140
1.0
141
50.0
290
     0
  0
SCALE
  5
62
102
{ACAD_REACTORS
330
4E
102
}
330
4E
100
AcDbScale
 70
     0
300
1:100
140
1.0
141
100.0
290
     0
  0
SCALE
  5
63
102
{ACAD_REACTORS
330
4E
102
}
330
4E
100
AcDbScale
 70
     0
300
2:1
140
2.0
141
1.0
290
     0
  0
SCALE
  5
64
102
{ACAD_REACTORS
330
4E
102
}
330
4E
100
AcDbScale
 70
     0
300
4:1
140
4.0
141
1.0
290
     0
  0
SCALE
  5
65
102
{ACAD_REACTORS
330
4E
102
}
330
4E
100
AcDbScale
 70
     0
300
8:1
140
8.0
141
1.0
290
     0
  0
SCALE
  5
66
102
{ACAD_REACTORS
330
4E
102
}
330
4E
100
AcDbScale
 70
     0
300
10:1
140
10.0
141
1.0
290
     0
  0
SCALE
  5
67
102
{ACAD_REACTORS
330
4E
102
}
330
4E
100
AcDbScale
 70
     0
300
100:1
140
100.0
141
1.0
290
     0
  0
SCALE
  5
68
102
{ACAD_REACTORS
330
4E
102
}
330
4E
100
AcDbScale
 70
     0
300
1/128" = 1'-0"
140
0.0078125
141
12.0
290
     0
  0
SCALE
  5
69
102
{ACAD_REACTORS
330
4E
102
}
330
4E
100
AcDbScale
 70
     0
300
1/64" = 1'-0"
140
0.015625
141
12.0
290
     0
  0
SCALE
  5
6A
102
{ACAD_REACTORS
330
4E
102
}
330
4E
100
AcDbScale
 70
     0
300
1/32" = 1'-0"
140
0.03125
141
12.0
290
     0
  0
SCALE
  5
6B
102
{ACAD_REACTORS
330
4E
102
}
330
4E
100
AcDbScale
 70
     0
300
1/16" = 1'-0"
140
0.0625
141
12.0
290
     0
  0
SCALE
  5
6C
102
{ACAD_REACTORS
330
4E
102
}
330
4E
100
AcDbScale
 70
     0
300
3/32" = 1'-0"
140
0.09375
141
12.0
290
     0
  0
SCALE
  5
6D
102
{ACAD_REACTORS
330
4E
102
}
330
4E
100
AcDbScale
 70
     0
300
1/8" = 1'-0"
140
0.125
141
12.0
290
     0
  0
SCALE
  5
6E
102
{ACAD_REACTORS
330
4E
102
}
330
4E
100
AcDbScale
 70
     0
300
3/16" = 1'-0"
140
0.1875
141
12.0
290
     0
  0
SCALE
  5
6F
102
{ACAD_REACTORS
330
4E
102
}
330
4E
100
AcDbScale
 70
     0
300
1/4" = 1'-0"
140
0.25
141
12.0
290
     0
  0
SCALE
  5
70
102
{ACAD_REACTORS
330
4E
102
}
330
4E
100
AcDbScale
 70
     0
300
3/8" = 1'-0"
140
0.375
141
12.0
290
     0
  0
SCALE
  5
71
102
{ACAD_REACTORS
330
4E
102
}
330
4E
100
AcDbScale
 70
     0
300
1/2" = 1'-0"
140
0.5
141
12.0
290
     0
  0
SCALE
  5
72
102
{ACAD_REACTORS
330
4E
102
}
330
4E
100
AcDbScale
 70
     0
300
3/4" = 1'-0"
140
0.75
141
12.0
290
     0
  0
SCALE
  5
73
102
{ACAD_REACTORS
330
4E
102
}
330
4E
100
AcDbScale
 70
     0
300
1" = 1'-0"
140
1.0
141
12.0
290
     0
  0
SCALE
  5
74
102
{ACAD_REACTORS
330
4E
102
}
330
4E
100
AcDbScale
 70
     0
300
1-1/2" = 1'-0"
140
1.5
141
12.0
290
     0
  0
SCALE
  5
75
102
{ACAD_REACTORS
330
4E
102
}
330
4E
100
AcDbScale
 70
     0
300
3" = 1'-0"
140
3.0
141
12.0
290
     0
  0
SCALE
  5
76
102
{ACAD_REACTORS
330
4E
102
}
330
4E
100
AcDbScale
 70
     0
300
6" = 1'-0"
140
6.0
141
12.0
290
     0
  0
SCALE
  5
77
102
{ACAD_REACTORS
330
4E
102
}
330
4E
100
AcDbScale
 70
     0
300
1'-0" = 1'-0"
140
12.0
141
12.0
290
     0
  0
TABLESTYLE
  5
54
102
{ACAD_XDICTIONARY
360
B00
102
}
102
{ACAD_REACTORS
330
4F
102
}
330
4F
100
AcDbTableStyle
  3
Standard
 70
     0
 71
     0
 40
1.5
 41
1.5
280
     0
281
     0
  7
STANDARD
140
4.5
170
     2
 62
     0
 63
     7
283
     0
274
    -2
284
     1
 64
     0
275
    -2
285
     1
 65
     0
276
    -2
286
     1
 66
     0
277
    -2
287
     1
 67
     0
278
    -2
288
     1
 68
     0
279
    -2
289
     1
 69
     0
  7
STANDARD
140
6.0
170
     5
 62
     0
 63
     7
283
     0
274
    -2
284
     1
 64
     0
275
    -2
285
     1
 65
     0
276
    -2
286
     1
 66
     0
277
    -2
287
     1
 67
     0
278
    -2
288
     1
 68
     0
279
    -2
289
     1
 69
     0
  7
STANDARD
140
4.5
170
     5
 62
     0
 63
     7
283
     0
274
    -2
284
     1
 64
     0
275
    -2
285
     1
 65
     0
276
    -2
286
     1
 66
     0
277
    -2
287
     1
 67
     0
278
    -2
288
     1
 68
     0
279
    -2
289
     1
 69
     0
  0
VISUALSTYLE
  5
B0D
102
{ACAD_REACTORS
330
2D
102
}
330
2D
100
AcDbVisualStyle
  2
2dWireframe
 70
     4
 71
     0
 72
     2
 73
     0
 90
        0
 40
-0.6
 41
-30.0
 62
     5
 63
     7
 74
     1
 91
        4
 64
     7
 65
   257
 75
     1
175
     1
 42
1.0
 92
        0
 66
   257
 43
1.0
 76
     1
 77
     6
 78
     2
 67
     7
 79
     5
170
     0
171
     0
290
     0
174
     0
 93
        1
 44
0.0
173
     0
291
     0
 45
0.0
1001
ACAD
1000
AcDbSavedByObjectVersion
1070
     0
1000
AcDbSavedByObjectVersion
1070
     0
1000
AcDbSavedByObjectVersion
1070
     0
1000
AcDbSavedByObjectVersion
1070
     0
1000
AcDbSavedByObjectVersion
1070
     0
1000
AcDbSavedByObjectVersion
1070
     0
1000
AcDbSavedByObjectVersion
1070
     0
  0
VISUALSTYLE
  5
B0E
102
{ACAD_REACTORS
330
2D
102
}
330
2D
100
AcDbVisualStyle
  2
3D Hidden
 70
     6
 71
     1
 72
     2
 73
     2
 90
        0
 40
-0.6
 41
-30.0
 62
     5
 63
     7
 74
     2
 91
        2
 64
     7
 65
   257
 75
     2
175
     1
 42
40.0
 92
        0
 66
   257
 43
1.0
 76
     1
 77
     6
 78
     2
 67
     7
 79
     3
170
     0
171
     0
290
     0
174
     0
 93
        1
 44
0.0
173
     0
291
     0
 45
0.0
1001
ACAD
1000
AcDbSavedByObjectVersion
1070
     0
1000
AcDbSavedByObjectVersion
1070
     0
1000
AcDbSavedByObjectVersion
1070
     0
1000
AcDbSavedByObjectVersion
1070
     0
1000
AcDbSavedByObjectVersion
1070
     0
1000
AcDbSavedByObjectVersion
1070
     0
1000
AcDbSavedByObjectVersion
1070
     0
  0
VISUALSTYLE
  5
56
102
{ACAD_REACTORS
330
2D
102
}
330
2D
100
AcDbVisualStyle
  2
3dWireframe
 70
     5
 71
     0
 72
     2
 73
     0
 90
        0
 40
-0.6
 41
-30.0
 62
     5
 63
     7
 74
     1
 91
        4
 64
     7
 65
   257
 75
     1
175
     1
 42
1.0
 92
        0
 66
   257
 43
1.0
 76
     1
 77
     6
 78
     2
 67
     7
 79
     5
170
     0
171
     0
290
     0
174
     0
 93
        1
 44
0.0
173
     0
291
     0
 45
0.0
1001
ACAD
1000
AcDbSavedByObjectVersion
1070
     0
1000
AcDbSavedByObjectVersion
1070
     0
1000
AcDbSavedByObjectVersion
1070
     0
1000
AcDbSavedByObjectVersion
1070
     0
1000
AcDbSavedByObjectVersion
1070
     0
1000
AcDbSavedByObjectVersion
1070
     0
1000
AcDbSavedByObjectVersion
1070
     0
  0
VISUALSTYLE
  5
B0C
102
{ACAD_REACTORS
330
2D
102
}
330
2D
100
AcDbVisualStyle
  2
Basic
 70
     7
 71
     1
 72
     0
 73
     1
 90
        0
 40
-0.6
 41
-30.0
 62
     5
 63
     7
 74
     0
 91
        4
 64
     7
 65
   257
 75
     1
175
     1
 42
1.0
 92
        8
 66
     7
 43
1.0
 76
     1
 77
     6
 78
     2
 67
     7
 79
     5
170
     0
171
     0
290
     0
174
     0
 93
        1
 44
0.0
173
     0
291
     1
 45
0.0
1001
ACAD
1000
AcDbSavedByObjectVersion
1070
     0
1000
AcDbSavedByObjectVersion
1070
     0
1000
AcDbSavedByObjectVersion
1070
     0
1000
AcDbSavedByObjectVersion
1070
     0
1000
AcDbSavedByObjectVersion
1070
     0
1000
AcDbSavedByObjectVersion
1070
     0
1000
AcDbSavedByObjectVersion
1070
     0
  0
VISUALSTYLE
  5
B11
102
{ACAD_REACTORS
330
2D
102
}
330
2D
100
AcDbVisualStyle
  2
Brighten
 70
    12
 71
     2
 72
     2
 73
     0
 90
        0
 40
-0.6
 41
-30.0
 62
     5
 63
     7
 74
     1
 91
        4
 64
     7
 65
   257
 75
     1
175
     1
 42
1.0
 92
        8
 66
     7
 43
1.0
 76
     1
 77
     6
 78
     2
 67
     7
 79
     5
170
     0
171
     0
290
     0
174
     0
 93
        1
 44
50.0
173
     0
291
     1
 45
0.0
1001
ACAD
1000
AcDbSavedByObjectVersion
1070
     0
1000
AcDbSavedByObjectVersion
1070
     0
1000
AcDbSavedByObjectVersion
1070
     0
1000
AcDbSavedByObjectVersion
1070
     0
1000
AcDbSavedByObjectVersion
1070
     0
1000
AcDbSavedByObjectVersion
1070
     0
1000
AcDbSavedByObjectVersion
1070
     0
  0
VISUALSTYLE
  5
B15
102
{ACAD_REACTORS
330
2D
102
}
330
2D
100
AcDbVisualStyle
  2
ColorChange
 70
    16
 71
     2
 72
     2
 73
     3
 90
        0
 40
-0.6
 41
-30.0
 62
     5
 63
     8
 74
     1
 91
        4
 64
     7
 65
   257
 75
     1
175
     1
 42
1.0
 92
        8
 66
     8
 43
1.0
 76
     1
 77
     6
 78
     2
 67
     7
 79
     5
170
     0
171
     0
290
     0
174
     0
 93
        1
 44
0.0
173
     0
291
     1
 45
0.0
1001
ACAD
1000
AcDbSavedByObjectVersion
1070
     0
1000
AcDbSavedByObjectVersion
1070
     0
1000
AcDbSavedByObjectVersion
1070
     0
1000
AcDbSavedByObjectVersion
1070
     0
1000
AcDbSavedByObjectVersion
1070
     0
1000
AcDbSavedByObjectVersion
1070
     0
1000
AcDbSavedByObjectVersion
1070
     0
  0
VISUALSTYLE
  5
B0F
102
{ACAD_REACTORS
330
2D
102
}
330
2D
100
AcDbVisualStyle
  2
Conceptual
 70
     9
 71
     3
 72
     2
 73
     0
 90
        0
 40
-0.6
 41
-30.0
 62
     5
 63
     7
 74
     2
 91
        2
 64
     7
 65
   257
 75
     1
175
     1
 42
40.0
 92
        8
 66
     7
 43
1.0
 76
     1
 77
     6
 78
     2
 67
     7
 79
     3
170
     0
171
     0
290
     0
174
     0
 93
        1
 44
0.0
173
     0
291
     0
 45
0.0
1001
ACAD
1000
AcDbSavedByObjectVersion
1070
     0
1000
AcDbSavedByObjectVersion
1070
     0
1000
AcDbSavedByObjectVersion
1070
     0
1000
AcDbSavedByObjectVersion
1070
     0
1000
AcDbSavedByObjectVersion
1070
     0
1000
AcDbSavedByObjectVersion
1070
     0
1000
AcDbSavedByObjectVersion
1070
     0
  0
VISUALSTYLE
  5
B10
102
{ACAD_REACTORS
330
2D
102
}
330
2D
100
AcDbVisualStyle
  2
Dim
 70
    11
 71
     2
 72
     2
 73
     0
 90
        0
 40
-0.6
 41
-30.0
 62
     5
 63
     7
 74
     1
 91
        4
 64
     7
 65
   257
 75
     1
175
     1
 42
1.0
 92
        8
 66
     7
 43
1.0
 76
     1
 77
     6
 78
     2
 67
     7
 79
     5
170
     0
171
     0
290
     0
174
     0
 93
        1
 44
-50.0
173
     0
291
     1
 45
0.0
1001
ACAD
1000
AcDbSavedByObjectVersion
1070
     0
1000
AcDbSavedByObjectVersion
1070
     0
1000
AcDbSavedByObjectVersion
1070
     0
1000
AcDbSavedByObjectVersion
1070
     0
1000
AcDbSavedByObjectVersion
1070
     0
1000
AcDbSavedByObjectVersion
1070
     0
1000
AcDbSavedByObjectVersion
1070
     0
  0
VISUALSTYLE
  5
B14
102
{ACAD_REACTORS
330
2D
102
}
330
2D
100
AcDbVisualStyle
  2
Facepattern
 70
    15
 71
     2
 72
     2
 73
     0
 90
        0
 40
-0.6
 41
-30.0
 62
     5
 63
     7
 74
     1
 91
        4
 64
     7
 65
   257
 75
     1
175
     1
 42
1.0
 92
        8
 66
     7
 43
1.0
 76
     1
 77
     6
 78
     2
 67
     7
 79
     5
170
     0
171
     0
290
     0
174
     0
 93
        1
 44
0.0
173
     0
291
     1
 45
0.0
1001
ACAD
1000
AcDbSavedByObjectVersion
1070
     0
1000
AcDbSavedByObjectVersion
1070
     0
1000
AcDbSavedByObjectVersion
1070
     0
1000
AcDbSavedByObjectVersion
1070
     0
1000
AcDbSavedByObjectVersion
1070
     0
1000
AcDbSavedByObjectVersion
1070
     0
1000
AcDbSavedByObjectVersion
1070
     0
  0
VISUALSTYLE
  5
B09
102
{ACAD_REACTORS
330
2D
102
}
330
2D
100
AcDbVisualStyle
  2
Flat
 70
     0
 71
     2
 72
     1
 73
     1
 90
        2
 40
-0.6
 41
30.0
 62
     5
 63
     7
 74
     0
 91
        4
 64
     7
 65
   257
 75
     1
175
     1
 42
1.0
 92
        8
 66
     7
 43
1.0
 76
     1
 77
     6
 78
     2
 67
     7
 79
     5
170
     0
171
     0
290
     0
174
     0
 93
       13
 44
0.0
173
     0
291
     1
 45
0.0
1001
ACAD
1000
AcDbSavedByObjectVersion
1070
     0
1000
AcDbSavedByObjectVersion
1070
     0
1000
AcDbSavedByObjectVersion
1070
     0
1000
AcDbSavedByObjectVersion
1070
     0
1000
AcDbSavedByObjectVersion
1070
     0
1000
AcDbSavedByObjectVersion
1070
     0
1000
AcDbSavedByObjectVersion
1070
     0
  0
VISUALSTYLE
  5
B0A
102
{ACAD_REACTORS
330
2D
102
}
330
2D
100
AcDbVisualStyle
  2
FlatWithEdges
 70
     1
 71
     2
 72
     1
 73
     1
 90
        2
 40
-0.6
 41
30.0
 62
     5
 63
     7
 74
     1
 91
        4
 64
     7
 65
   257
 75
     1
175
     1
 42
1.0
 92
        0
 66
   257
 43
1.0
 76
     1
 77
     6
 78
     2
 67
     7
 79
     5
170
     0
171
     0
290
     0
174
     0
 93
       13
 44
0.0
173
     0
291
     1
 45
0.0
1001
ACAD
1000
AcDbSavedByObjectVersion
1070
     0
1000
AcDbSavedByObjectVersion
1070
     0
1000
AcDbSavedByObjectVersion
1070
     0
1000
AcDbSavedByObjectVersion
1070
     0
1000
AcDbSavedByObjectVersion
1070
     0
1000
AcDbSavedByObjectVersion
1070
     0
1000
AcDbSavedByObjectVersion
1070
     0
  0
VISUALSTYLE
  5
2C
102
{ACAD_REACTORS
330
2D
102
}
330
2D
100
AcDbVisualStyle
  2
Gouraud
 70
     2
 71
     2
 72
     2
 73
     1
 90
        2
 40
-0.6
 41
30.0
 62
     5
 63
     7
 74
     0
 91
        4
 64
     7
 65
   257
 75
     1
175
     1
 42
1.0
 92
        0
 66
     7
 43
1.0
 76
     1
 77
     6
 78
     2
 67
     7
 79
     5
170
     0
171
     0
290
     0
174
     0
 93
       13
 44
0.0
173
     0
291
     1
 45
0.0
1001
ACAD
1000
AcDbSavedByObjectVersion
1070
     0
1000
AcDbSavedByObjectVersion
1070
     0
1000
AcDbSavedByObjectVersion
1070
     0
1000
AcDbSavedByObjectVersion
1070
     0
1000
AcDbSavedByObjectVersion
1070
     0
1000
AcDbSavedByObjectVersion
1070
     0
1000
AcDbSavedByObjectVersion
1070
     0
  0
VISUALSTYLE
  5
B0B
102
{ACAD_REACTORS
330
2D
102
}
330
2D
100
AcDbVisualStyle
  2
GouraudWithEdges
 70
     3
 71
     2
 72
     2
 73
     1
 90
        2
 40
-0.6
 41
30.0
 62
     5
 63
     7
 74
     1
 91
        4
 64
     7
 65
   257
 75
     1
175
     1
 42
1.0
 92
        0
 66
   257
 43
1.0
 76
     1
 77
     6
 78
     2
 67
     7
 79
     5
170
     0
171
     0
290
     0
174
     0
 93
       13
 44
0.0
173
     0
291
     1
 45
0.0
1001
ACAD
1000
AcDbSavedByObjectVersion
1070
     0
1000
AcDbSavedByObjectVersion
1070
     0
1000
AcDbSavedByObjectVersion
1070
     0
1000
AcDbSavedByObjectVersion
1070
     0
1000
AcDbSavedByObjectVersion
1070
     0
1000
AcDbSavedByObjectVersion
1070
     0
1000
AcDbSavedByObjectVersion
1070
     0
  0
VISUALSTYLE
  5
B13
102
{ACAD_REACTORS
330
2D
102
}
330
2D
100
AcDbVisualStyle
  2
Linepattern
 70
    14
 71
     2
 72
     2
 73
     0
 90
        0
 40
-0.6
 41
-30.0
 62
     5
 63
     7
 74
     1
 91
        4
 64
     7
 65
   257
 75
     7
175
     7
 42
1.0
 92
        8
 66
     7
 43
1.0
 76
     1
 77
     6
 78
     2
 67
     7
 79
     5
170
     0
171
     0
290
     0
174
     0
 93
        1
 44
0.0
173
     0
291
     1
 45
0.0
1001
ACAD
1000
AcDbSavedByObjectVersion
1070
     0
1000
AcDbSavedByObjectVersion
1070
     0
1000
AcDbSavedByObjectVersion
1070
     0
1000
AcDbSavedByObjectVersion
1070
     0
1000
AcDbSavedByObjectVersion
1070
     0
1000
AcDbSavedByObjectVersion
1070
     0
1000
AcDbSavedByObjectVersion
1070
     0
  0
VISUALSTYLE
  5
55
102
{ACAD_REACTORS
330
2D
102
}
330
2D
100
AcDbVisualStyle
  2
Realistic
 70
     8
 71
     2
 72
     2
 73
     0
 90
        0
 40
-0.6
 41
-30.0
 62
     5
 63
     7
 74
     1
 91
        0
 64
     7
 65
   257
 75
     1
175
     1
 42
1.0
 92
        8
 66
     8
 43
1.0
 76
     1
 77
     6
 78
     2
 67
     7
 79
     5
170
     0
171
     0
290
     0
174
     0
 93
       13
 44
0.0
173
     0
291
     0
 45
0.0
1001
ACAD
1000
AcDbSavedByObjectVersion
1070
     0
1000
AcDbSavedByObjectVersion
1070
     0
1000
AcDbSavedByObjectVersion
1070
     0
1000
AcDbSavedByObjectVersion
1070
     0
1000
AcDbSavedByObjectVersion
1070
     0
1000
AcDbSavedByObjectVersion
1070
     0
1000
AcDbSavedByObjectVersion
1070
     0
  0
VISUALSTYLE
  5
B12
102
{ACAD_REACTORS
330
2D
102
}
330
2D
100
AcDbVisualStyle
  2
Thicken
 70
    13
 71
     2
 72
     2
 73
     0
 90
        0
 40
-0.6
 41
-30.0
 62
     5
 63
     7
 74
     1
 91
        4
 64
     7
 65
   257
 75
     1
175
     1
 42
1.0
 92
       12
 66
     7
 43
1.0
 76
     1
 77
     6
 78
     2
 67
     7
 79
     5
170
     0
171
     0
290
     0
174
     0
 93
        1
 44
0.0
173
     0
291
     1
 45
0.0
1001
ACAD
1000
AcDbSavedByObjectVersion
1070
     0
1000
AcDbSavedByObjectVersion
1070
     0
1000
AcDbSavedByObjectVersion
1070
     0
1000
AcDbSavedByObjectVersion
1070
     0
1000
AcDbSavedByObjectVersion
1070
     0
1000
AcDbSavedByObjectVersion
1070
     0
1000
AcDbSavedByObjectVersion
1070
     0
  0
DICTIONARYVAR
  5
B06
102
{ACAD_REACTORS
330
B03
102
}
330
B03
100
DictionaryVariables
280
     0
  1
1:1
  0
DICTIONARYVAR
  5
B05
102
{ACAD_REACTORS
330
B03
102
}
330
B03
100
DictionaryVariables
280
     0
  1
STANDARD
  0
DICTIONARYVAR
  5
B04
102
{ACAD_REACTORS
330
B03
102
}
330
B03
100
DictionaryVariables
280
     0
  1
STANDARD
  0
DICTIONARYVAR
  5
B7B
102
{ACAD_REACTORS
330
B03
102
}
330
B03
100
DictionaryVariables
280
     0
  1
1
  0
DICTIONARYVAR
  5
B7A
102
{ACAD_REACTORS
330
B03
102
}
330
B03
100
DictionaryVariables
280
     0
  1
1
  0
DICTIONARYVAR
  5
B79
102
{ACAD_REACTORS
330
B03
102
}
330
B03
100
DictionaryVariables
280
     0
  1
1
  0
DICTIONARYVAR
  5
B07
102
{ACAD_REACTORS
330
B03
102
}
330
B03
100
DictionaryVariables
280
     0
  1
0
  0
DICTIONARYVAR
  5
B77
102
{ACAD_REACTORS
330
B03
102
}
330
B03
100
DictionaryVariables
280
     0
  1
1
  0
DICTIONARYVAR
  5
B78
102
{ACAD_REACTORS
330
B03
102
}
330
B03
100
DictionaryVariables
280
     0
  1
127
  0
DICTIONARY
  5
1260
102
{ACAD_REACTORS
330
AFC
102
}
330
AFC
100
AcDbDictionary
281
     1
  0
XRECORD
  5
1277
102
{ACAD_REACTORS
330
AFC
102
}
330
AFC
100
AcDbXrecord
280
     1
 90
-1023410169
  0
DICTIONARY
  5
1199
102
{ACAD_REACTORS
330
1198
102
}
330
1198
100
AcDbDictionary
281
     1
  3
DWGSETTINGS
350
1B1F
  3
TRANSSETTINGS
350
1B20
  0
ACAMGFILTERDAT
  5
136F
102
{ACAD_REACTORS
330
136A
102
}
330
136A
100
AcAmgFilterDat
 70
    15
  1
DIMENSION,AMDT_*_DIM
  2
*
  3
*
  4
*
  5
*
290
     1
  0
ACAMGFILTERDAT
  5
136E
102
{ACAD_REACTORS
330
136A
102
}
330
136A
100
AcAmgFilterDat
 70
    15
  1
*
  2
AM_FEA-AM_*
  3
*
  4
*
  5
*
290
     1
  0
ACAMGFILTERDAT
  5
136B
102
{ACAD_REACTORS
330
136A
102
}
330
136A
100
AcAmgFilterDat
 70
    15
  1
HATCH
  2
*
  3
*
  4
*
  5
*
290
     1
  0
ACAMGFILTERDAT
  5
136C
102
{ACAD_REACTORS
330
136A
102
}
330
136A
100
AcAmgFilterDat
 70
    15
  1
LINE
  2
8,8N,*-8,*-8N,AM_8,AM_8N,*-AM_8,*-AM_8N
  3
*
  4
*
  5
INSERT,STDPART2D
290
     1
  0
ACAMGFILTERDAT
  5
1370
102
{ACAD_REACTORS
330
136A
102
}
330
136A
100
AcAmgFilterDat
 70
    15
  1
ARC
  2
AM_5
  3
*
  4
2
  5
INSERT
290
     0
  0
ACAMGFILTERDAT
  5
136D
102
{ACAD_REACTORS
330
136A
102
}
330
136A
100
AcAmgFilterDat
 70
    15
  1
ACMFCFRAME,ACMDATUMTARGET,ACMDATUMID,ACMWELDSYM,ACMSURFSYM,ACMFEATID,ACMPARTREF,ACMBALLOON,AMDTEDGESYM,AMGSCREWCALCTABLE
  2
*
  3
*
  4
*
  5
*
290
     1
  0
LAYER_INDEX
  5
1478
102
{ACAD_REACTORS
330
1477
102
}
330
1477
100
AcDbIndex
 40
2455890.453329399
100
AcDbLayerIndex
  8
0
360
1479
 90
        0
  8
Defpoints
360
147A
 90
        0
  8
SIZE
360
147B
 90
        5
  8
OUTLINE
360
147C
 90
      417
  8
BASIS
360
147D
 90
        1
  8
NOTE
360
147E
 90
        6
  8
ARRANGE
360
147F
 90
        3
  8
ETC
360
1480
 90
        1
  0
DICTIONARY
  5
1C04
330
16
100
AcDbDictionary
280
     1
281
     1
  3
ACAD_XREC_ROUNDTRIP
360
1C05
  0
DICTIONARY
  5
1C
330
1B
100
AcDbDictionary
280
     1
281
     1
  3
ACAD_XREC_ROUNDTRIP
360
1C06
  3
ADSK_XREC_LAYOUTTHUMBNAIL
360
1D
  0
DICTIONARY
  5
46
330
45
100
AcDbDictionary
280
     1
281
     1
  3
ACAD_XREC_ROUNDTRIP
360
B71
  3
BUMPTILE
360
47
  3
DIFFUSETILE
360
48
  3
OPACITYTILE
360
49
  3
REFLECTIONTILE
360
4A
  3
REFRACTIONTILE
360
4B
  3
SPECULARTILE
360
4C
  0
DICTIONARY
  5
3E
330
3D
100
AcDbDictionary
280
     1
281
     1
  3
ACAD_XREC_ROUNDTRIP
360
B70
  3
BUMPTILE
360
3F
  3
DIFFUSETILE
360
40
  3
OPACITYTILE
360
41
  3
REFLECTIONTILE
360
42
  3
REFRACTIONTILE
360
43
  3
SPECULARTILE
360
44
  0
DICTIONARY
  5
D
330
B
100
AcDbDictionary
280
     1
281
     1
  3
ACAD_XREC_ROUNDTRIP
360
B69
  3
BUMPTILE
360
E
  3
DIFFUSETILE
360
F
  3
OPACITYTILE
360
10
  3
REFLECTIONTILE
360
11
  3
REFRACTIONTILE
360
12
  3
SPECULARTILE
360
13
  0
DICTIONARY
  5
B00
330
54
100
AcDbDictionary
280
     1
281
     1
  3
ACAD_ROUNDTRIP_2008_TABLESTYLE_CELLSTYLEMAP
360
1BFF
  3
ACAD_XREC_ROUNDTRIP
360
1C07
  0
IDBUFFER
  5
1479
330
0
100
AcDbIdBuffer
  0
IDBUFFER
  5
147A
330
0
100
AcDbIdBuffer
  0
IDBUFFER
  5
147B
330
0
100
AcDbIdBuffer
330
19B4
330
19C1
330
19D3
330
1A01
330
1A0E
  0
IDBUFFER
  5
147C
330
0
100
AcDbIdBuffer
330
180B
330
180C
330
180D
330
180E
330
180F
330
1810
330
1811
330
1812
330
1813
330
1814
330
1815
330
1816
330
1817
330
1818
330
1819
330
181A
330
181B
330
181C
330
181D
330
181E
330
181F
330
1820
330
1821
330
1822
330
1823
330
1824
330
1825
330
1826
330
1827
330
1828
330
1829
330
182A
330
182B
330
182C
330
182D
330
182E
330
182F
330
1830
330
1831
330
1832
330
1833
330
1834
330
1835
330
1836
330
1837
330
1838
330
1839
330
183A
330
183B
330
183C
330
183D
330
183E
330
183F
330
1840
330
1841
330
1842
330
1843
330
1844
330
1845
330
1846
330
1847
330
1848
330
1849
330
184A
330
184B
330
184C
330
184D
330
184E
330
184F
330
1850
330
1851
330
1852
330
1853
330
1854
330
1855
330
1856
330
1857
330
1858
330
1859
330
185A
330
185B
330
185C
330
185D
330
185E
330
185F
330
1860
330
1861
330
1862
330
1863
330
1864
330
1865
330
1866
330
1867
330
1868
330
1869
330
186A
330
186B
330
186C
330
186D
330
186E
330
186F
330
1870
330
1871
330
1872
330
1873
330
1874
330
1875
330
1876
330
1877
330
1878
330
1879
330
187A
330
187B
330
187C
330
187D
330
187E
330
187F
330
1880
330
1881
330
1882
330
1883
330
1884
330
1885
330
1886
330
1887
330
1888
330
1889
330
188A
330
188B
330
188C
330
188D
330
188E
330
188F
330
1890
330
1891
330
1892
330
1893
330
1894
330
1895
330
1896
330
1897
330
1898
330
1899
330
189A
330
189B
330
189C
330
189D
330
189E
330
189F
330
18A0
330
18A1
330
18A2
330
18A3
330
18A4
330
18A5
330
18A6
330
18A7
330
18A8
330
18A9
330
18AA
330
18AB
330
18AC
330
18AD
330
18AE
330
18AF
330
18B0
330
18B1
330
18B2
330
18B3
330
18B4
330
18B5
330
18B6
330
18B7
330
18B8
330
18B9
330
18BA
330
18BB
330
18BC
330
18BD
330
18BE
330
18BF
330
18C0
330
18C1
330
18C2
330
18C3
330
18C4
330
18C5
330
18C6
330
18C7
330
18C8
330
18C9
330
18CA
330
18CB
330
18CC
330
18CD
330
18CE
330
18CF
330
18D0
330
18D1
330
18D2
330
18D3
330
18D4
330
18D5
330
18D6
330
18D7
330
18D8
330
18D9
330
18DA
330
18DB
330
18DC
330
18DD
330
18DE
330
18DF
330
18E0
330
18E1
330
18E2
330
18E3
330
18E4
330
18E5
330
18E6
330
18E7
330
18E8
330
18E9
330
18EA
330
18EB
330
18EC
330
18ED
330
18EE
330
18EF
330
18F0
330
18F1
330
18F2
330
18F3
330
18F4
330
18F5
330
18F6
330
18F7
330
18F8
330
18F9
330
18FA
330
18FB
330
18FC
330
18FD
330
18FE
330
18FF
330
1900
330
1901
330
1902
330
1903
330
1904
330
1905
330
1906
330
1907
330
1908
330
1909
330
190A
330
190B
330
190C
330
190D
330
190E
330
190F
330
1910
330
1911
330
1912
330
1913
330
1914
330
1915
330
1916
330
1917
330
1918
330
1919
330
191A
330
191B
330
191C
330
191D
330
191E
330
191F
330
1920
330
1921
330
1922
330
1923
330
1924
330
1925
330
1926
330
1927
330
1928
330
1929
330
192A
330
192B
330
192C
330
192D
330
192E
330
192F
330
1930
330
1931
330
1932
330
1933
330
1934
330
1935
330
1936
330
1937
330
1938
330
1939
330
193A
330
193B
330
193C
330
193D
330
193E
330
193F
330
1940
330
1941
330
1942
330
1943
330
1944
330
1945
330
1946
330
1947
330
1948
330
1949
330
194A
330
194B
330
194C
330
194D
330
194E
330
194F
330
1950
330
1951
330
1952
330
1953
330
1954
330
1955
330
1956
330
1957
330
1958
330
1959
330
195A
330
195B
330
195C
330
195D
330
195E
330
195F
330
1960
330
1961
330
1962
330
1963
330
1964
330
1965
330
1966
330
1967
330
1968
330
1969
330
196A
330
196B
330
196C
330
196D
330
196E
330
196F
330
1970
330
1971
330
1972
330
1973
330
1974
330
1975
330
1976
330
1977
330
1978
330
1979
330
197A
330
197B
330
197C
330
197D
330
197E
330
197F
330
1980
330
1981
330
1982
330
1983
330
1984
330
1985
330
1986
330
1987
330
1988
330
1989
330
198A
330
198B
330
198C
330
198D
330
198E
330
198F
330
1990
330
1991
330
1992
330
1993
330
1994
330
1995
330
1996
330
1997
330
1998
330
1999
330
199A
330
199B
330
199C
330
199D
330
199E
330
199F
330
19A0
330
19A1
330
19A2
330
19A3
330
19A4
330
19A5
330
19A6
330
19A7
330
19A8
330
19A9
330
19AA
330
19AB
  0
IDBUFFER
  5
147D
330
0
100
AcDbIdBuffer
330
19B0
  0
IDBUFFER
  5
147E
330
0
100
AcDbIdBuffer
330
19AC
330
19AD
330
19AE
330
19AF
330
1A1B
330
1A1C
  0
IDBUFFER
  5
147F
330
0
100
AcDbIdBuffer
330
19B1
330
19B2
330
19B3
  0
IDBUFFER
  5
1480
330
0
100
AcDbIdBuffer
330
B60
  0
XRECORD
  5
1C05
102
{ACAD_REACTORS
330
1C04
102
}
330
1C04
100
AcDbXrecord
280
     1
102
SHADEPLOT
 70
     0
102
SHADEPLOTRESLEVEL
 70
     2
102
SHADEPLOTCUSTOMDPI
 70
   300
  0
XRECORD
  5
1C06
102
{ACAD_REACTORS
330
1C
102
}
330
1C
100
AcDbXrecord
280
     1
102
SHADEPLOT
 70
     0
102
SHADEPLOTRESLEVEL
 70
     2
102
SHADEPLOTCUSTOMDPI
 70
   300
  0
XRECORD
  5
1D
102
{ACAD_REACTORS
330
1C
102
}
330
1C
100
AcDbXrecord
280
     1
310
28000000B4000000870000000100080000000000EC5E0000000000000000000000010000000000000000000000000000FFFFFF000000000000000000000000000000000000000000000000000000000000000000330000006600000099000000CC000000FF00000000330000333300006633000099330000CC330000FF3300
310
0000660000336600006666000099660000CC660000FF66000000990000339900006699000099990000CC990000FF99000000CC000033CC000066CC000099CC0000CCCC0000FFCC000000FF000033FF000066FF000099FF0000CCFF0000FFFF000000003300330033006600330099003300CC003300FF003300003333003333
310
33006633330099333300CC333300FF33330000663300336633006666330099663300CC663300FF66330000993300339933006699330099993300CC993300FF99330000CC330033CC330066CC330099CC3300CCCC3300FFCC330000FF330033FF330066FF330099FF3300CCFF3300FFFF330000006600330066006600660099
310
006600CC006600FF00660000336600333366006633660099336600CC336600FF33660000666600336666006666660099666600CC666600FF66660000996600339966006699660099996600CC996600FF99660000CC660033CC660066CC660099CC6600CCCC6600FFCC660000FF660033FF660066FF660099FF6600CCFF6600
310
FFFF660000009900330099006600990099009900CC009900FF00990000339900333399006633990099339900CC339900FF33990000669900336699006666990099669900CC669900FF66990000999900339999006699990099999900CC999900FF99990000CC990033CC990066CC990099CC9900CCCC9900FFCC990000FF99
310
0033FF990066FF990099FF9900CCFF9900FFFF99000000CC003300CC006600CC009900CC00CC00CC00FF00CC000033CC003333CC006633CC009933CC00CC33CC00FF33CC000066CC003366CC006666CC009966CC00CC66CC00FF66CC000099CC003399CC006699CC009999CC00CC99CC00FF99CC0000CCCC0033CCCC0066CC
310
CC0099CCCC00CCCCCC00FFCCCC0000FFCC0033FFCC0066FFCC0099FFCC00CCFFCC00FFFFCC000000FF003300FF006600FF009900FF00CC00FF00FF00FF000033FF003333FF006633FF009933FF00CC33FF00FF33FF000066FF003366FF006666FF009966FF00CC66FF00FF66FF000099FF003399FF006699FF009999FF00CC
310
99FF00FF99FF0000CCFF0033CCFF0066CCFF0099CCFF00CCCCFF00FFCCFF0000FFFF0033FFFF0066FFFF0099FFFF00CCFFFF00FFFFFF00000000000D0D0D001A1A1A00282828003535350043434300505050005D5D5D006B6B6B00787878008686860093939300A1A1A100AEAEAE00BBBBBB00C9C9C900D6D6D600E4E4E400
310
F1F1F100FFFFFF0000000000000000000000000000000000000000000000000000000000000000000000000000000000E2E2E2E2E2E2E2E2E2E2E2E2E2E2E2E2E2E2E2E2E2E2E2E2E2E2E2E2E2E2E2E2E2E2E2E2E2E2E2E2E2E2E2E2E2E2E2E2E2E2E2E2E2E2E2E2E2E2E2E2E2E2E2E2E2E2E2E2E2E2E2E2E2E2E2E2E2E2E2
310
E2E2E2E2E2E2E2E2E2E2E2E2E2E2E2E2E2E2E2E2E2E2E2E2E2E2E2E2E2E2E2E2E2E2E2E2E2E2E2E2E2E2E2E2E2E2E2E2E2E2E2E2E2E2E2E2E2E2E2E2E2E2E2E2E2E2E2E2E2E2E2E2E2E2E2E2E2E2E2E2E2E2E2E2E2E2E2E2E2E2E2E2E2E2E2E2E2E2E2E2E2E2E2E2E2E2E2E2E2E2E2E2E2E2E2E2E2E2E2E2E2E2E2E2E2E2E2
310
E2E2E2E2E2E2E2E2E2E2E2E2E2E2E2E2E2E2E2E2E2E2E2E2E2E2E2E2E2E2E2E2E2E2E2E2E2E2E2E2E2E2E2E2E2E2E2E2E2E2E2E2E2E2E2E2E2E2E2E2E2E2E2E2E2E2E2E2E2E2E2E2E2E2E2E2E2E2E2E2E2E2E2E2E2E2E2E2E2E2E2E2E2E2E2E2E2E2E2E2E2E2E2E2E2E2E2E2E2E2E2E2E2E2E2E2E2E2E2E2E2E2E2E2E2E2E2
310
E2E2E2E2E2E2E2E2E2E2E2E2E2E2E2E2E2E2E2E2E2E2E2E2E2E2E2E2E2E2E2E2E2E2E2E2E2E2E2E2E2E2E2E2E2E2E2E2E2E2E2E2E2E2E2E2E2E2E2E2E2E2E2E2E2E2E2E2E2E2E2E2E2E2E2E2E2E2E2E2E2E2E2E2E2E2E2E2E2E2E2E2E2E2E2E2E2E2E2E2E2E2E2E2E2E2E2E2E2E2E2E2E2E2E2E2E2E2E2E2E2E2E2E2E2E2E2
310
E2E2E2E2E2E2E2E2E2E2E2E2E2E2E2E2E2E2E2E2E2E2E2E2E2E2E2E2E2E2E2E2E2E2E2E2E2E2E2E2E2E2E2E2E2E2E2E2E2E2E2E2E2E2E2E2E2E2E2E2E2E2E2E2E2E2E2E2E2E2E2E2E2E2E2E2E2E2E2E2E2E2E2E2E2E2E2E2E2E2E2E2E2E2E2E2E2E2E2E2E2E2E2E2E2E2E2E2E2E2E2E2E2E2E2E2E2E2E2E2E2E2E2E2E2E2E2
310
E2E2E2E2E2E2E2E2E2E2E2E2E2E2E2E2E2E2E2E2E2E2E2E2E2E2E2E2E2E2E2E2E2E2E2E2E2E2E2E2E2E2E2E2E2E2E2E2E2E2E2E2E2E2E2E2E2E2E2E2E2E2E2E2E2E2E2E2E2E2E2E2E2E2E2E2E2E2E2E2E2E2E2E2E2E2E2E2E2E2E2E2E2E2E2E2E2E2E2E2E2E2E2E2E2E2E2E2E2E2E2E2E2E2E2E2E2E2E2E2E2E2E2E2E2E2E2
310
E2E2E2E2E2E2E2E2E2E2E2E2E2E2E2E2E2E2E2E2E2E2E2E2E2E2E2E2E2E2E2E2E2E2E2E2E2E2E2E2E2E2E2E2E2E2E2E2E2E2E2E2E2E2E2E2E2E2E2E2E2E2E2E2E2E2E2E2E2E2E2E2E2E2E2E2E2E2E2E2E2E2E2E2E2E2E2E2E2E2E2E2E2E2E2E2E2E2E2E2E2E2E2E2E2E2E2E2E2E2E2E2E2E2E2E2E2E2E2E2E2E2E2E2E2E2E2
310
E2E2E2E2E2E2E2E2E2E2E2E2E2E2E2E2E2E2E2E2E2E2E2E2E2E2E2E2E2E2E2E2E2E2E2E2E2E2E2E2E2E2E2E2E2E2E2E2E2E2E2E2E2E2E2E2E2E2E2E2E2E2E2E2E2E2E2E2E2E2E2E2E2E2E2E2E2E2E2E2E2E2E2E2E2E2E2E2E2E2E2E2E2E2E2E2E2E2E2E2E2E2E2E2E2E2E2E2E2E2E2E2E2E2E2E2E2E2E2E2E2E2E2E2E2E2E2
310
E2E2E2E2E2E2E2E2E2E2E2E2E2E2E2E2E2E2E2E2E2E2E2E2E2E2E2E2E2E2E2E2E2E2E2E2E2E2E2E2E2E2E2E2E2E2E2E2E2E2E2E2E2E2E2E2E2E2E2E2E2E2E2E2E2E2E2E2E2E2E2E2E2E2E2E2E2E2E2E2E2E2E2E2E2E2E2E2E2E2E2E2E2E2E2E2E2E2E2E2E2E2E2E2E2E2E2E2E2E2E2E2E2E2E2E2E2E2E2E2E2E2E2E2E2E2E2
310
E2E2E2E2E2E2E2E2E2E2E2E2E2E2E2E2E2E2E2E2E2E2E2E2E2E2E2E2E2E2E2E2E2E2E2E2E2E2E2E2E2E2E2E2E2E2E2E2E2E2E2E2E2E2E2E2E2E2E2E2E2E2E2E2E2E2E2E2E2E2E2E2E2E2E2E2E2E2E2E2E2E2E2E2E2E2E2E2E2E2E2E2E2E2E2E2E2E2E2E2E2E2E2E2E2E2E2E2E2E2E2E2E2E2E2E2E2E2E2E2E2E2E2E2E2E2E2
310
E2E2E2E2E2E2E2E2E2E2E2E2E2E2E2E2E2E2E2E2E2E2E2E2E2E2E2E2E2E2E2E2E2E2E2E2E2E2E2E2E2E2E2E2E2E2E2E2E2E2E2E2E2E2E2E2E2E2E2E2E2E2E2E2E2E2E2E2E2E2E2E2E2E2E2E2E2E2E2E2E2E2E2E2E2E2E2E2E2E2E2E2E2E2E2E2E2E2E2E2E2E2E2E2E2E2E2E2E2E2E2E2E2E2E2E2E2E2E2E2E2E2E2E2E2E2E2
310
E2E2E2E2E2E2E2E2E2E2E2E2E2E2E2E2E2E2E2E2E2E2E2E2E2E2E2E2E2E2E2E2E2E2E2E2E2E2E2E2E2E2E2E2E2E2E2E2E2E2E2E2E2E2E2E2E2E2E2E2E2E2E2E2E2E2E2E2E2E2E2E2E2E2E2E2E2E2E2E2E2E2E2E2E2E2E2E2E2E2E2E2E2E2E2E2E2E2E2E2E2E2E2E2E2E2E2E2E2E2E2E2E2E2E2E2E2E2E2E2E2E2E2E2E2E2E2
310
E2E2E2E2E2E2E2E2E2E2E2E2E2E2E2E2E2E2E2E2E2E2E2E2E2E2E2E2E2E2E2E2E2E2E2E2E2E2E2E2E2E2E2E2E2E2E2E2E2E2E2E2E2E2E2E2E2E2E2E2E2E2E2E2E2E2E2E2E2E2E2E2E2E2E2E2E2E2E2E2E2E2E2E2E2E2E2E2E2E2E2E2E2E2E2E2E2E2E2E2E2E2E2E2E2E2E2E2E2E2E2E2E2E2E2E2E2E2E2E2E2E2E2E2E2E2E2
310
E2E2E2E2E2E2E2E2E2E2E2E2E2E2E2E2E2E2E2E2E2E2E2E2E2E2E2E2E2E2E2E2E2E2E2E2E2E2E2E2E2E2E2E2E2E2E2E2E2E2E2E2E2E2E2E2E2E2E2E2E2E2E2E2E2E2E2E2E2E2E2E2E2E2E2E2E2E2E2E2E2E2E2E2E2E2E2E2E2E2E2E2E2E2E2E2E2E2E2E2E2E2E2E2E2E2E2E2E2E2E2E2E2E2E2E2E2E2E2E2E2E2E2E2E2E2E2
310
E2E2E2E2E2E2E2E2E2E2E2E2E2E2E2E2E2E2E2E2E2E2E2E2E2E2E2E2E2E2E2E2E2E2E2E2E2E2E2E2E2E2E2E2E2E2E2E2E2E2E2E2E2E2E2E2E2E2E2E2E2E2E2E2E2E2E2E2E2E2E2E2E2E2E2E2E2E2E2E2E2E2E2E2E2E2E2E2E2E2E2E2E2E2E2E2E2E2E2E2E2E2E2E2E2E2E2E2E2E2E2E2E2E2E2E2E2E2E2E2E2E2E2E2E2E2E2
310
E2E2E2E2E2E2E2E2E2E2E2E2E2E2E2E2E2E2E2E2E2E2E2E2E2E2E2E2E2E2E2E2E2E2E2E2E2E2E2E2E2E2E2E2E2E2E2E2E2E2E2E2E2E2E2E2E2E2E2E2E2E2E2E2E2E2E2E2E2E2E2E2E2E2E2E2E2E2E2E2E2E2E2E2E2E2E2E2E2E2E2E2E2E2E2E2E2E2E2E2E2E2E2E2E2E2E2E2E2E2E2E2E2E2E2E2E2E2E2E2E2E2E2E2E2E2E2
310
E2E2E2E2E2E2E2E2E2E2E2E2E2E2E2E2E2E2E2E2E2E2E2E2E2E2E2E2E2E2E2E2E2E2E2E2E2E2E2E2E2E2E2E2E2E2E2E2E2E2E2E2E2E2E2E2E2E2E2E2E2E2E2E2E2E2E2E2E2E2E2E2E2E2E2E2E2E2E2E2E2E2E2E2E2E2E2E2E2E2E2E2E2E2E2E2E2E2E2E2E2E2E2E2E2E2E2E2E2E2E2E2E2E2E2E2E2E2E2E2E2E2E2E2E2E2E2
310
E2E2E2E2E2E2E2E2E2E2E2E2E2E2E2E2E2E2E2E2E2E2E2E2E2E2E2E2E2E2E2E2E2E2E2E2E2E2E2E2E2E2E2E2E2E2E2E2E2E2E2E2E2E2E2E2E2E2E2E2E2E2E2E2E2E2E2E2E2E2E2E2E2E2E2E2E2E2E2E2E2E2E2E2E2E2E2E2E2E2E2E2E2E2E2E2E2E2E2E2E2E2E2E2E2E2E2E2E2E2E2E2E2E2E2E2E2E2E2E2E2E2E2E2E2E2E2
310
E2E2E2E2E2E2E2E2E2E2E2E2E2E2E2E2E2E2E2E2E2E2E2E2E2E2E2E2E2E2E2E2E2E2E2E2E2E2E2E2E2E2E2E2E2E2E2E2E2E2E2E2E2E2E2E2E2E2E2E2E2E2E2E2E2E2E2E2E2E2E2E2E2E2E2E2E2E2E2E2E2E2E2E2E2E2E2E2E2E2E2E2E2E2E2E2E2E2E2E2E2E2E2E2E2E2E2E2E2E2E2E2E2E2E2E2E2E2E2E2E2E2E2E2E2E2E2
310
E2E2E2E2E2E2E2E2E2E2E2E2E2E2E2E2E2E2E2E2E2E2E2E2E2E2E2E2E2E2E2E2E2E2E2E2E2E2E2E2E2E2E2E2E2E2E2E2E2E2E2E2E2E2E2E2E2E2E2E2E2E2E2E2E2E2E2E2E2E2E2E2E2E2E2E2E2E2E2E2E2E2E2E2E2E2E2E2E2E2E2E2E2E2E2E2E2E2E2E2E2E2E2E2E2E2E2E2E2E2E2E2E2E2E2E2E2E2E2E2E2E2E2E2E2E2E2
310
E2E2E2E2E2E2E2E2E2E2E2E2E2E2E2E2E2E2E2E2E2E2E2E2E2E2E2E2E2E2E2E2E2E2E2E2E2E2E2E2E2E2E2E2E2E2E2E2E2E2E2E2E2E2E2E2E2E2E2E2E2E2E2E2E2E2E2E2E2E2E2E2E2E2E2E2E2E2E2E2E2E2E2E2E2E2E2E2E2E2E2E2E2E2E2E2E2E2E2E2E2E2E2E2E2E2E2E2E2E2E2E2E2E2E2E2E2E2E2E2E2E2E2E2E2E2E2
310
E2E2E2E2E2E2E2E2E2E2E2E2E2E2E2E2E2E2E2E2E2E2E2E2E2E2E2E2E2E2E2E2E2E2E2E2E2E2E2E2E2E2E2E2E2E2E2E2E2E2E2E2E2E2E2E2E2E2E2E2E2E2E2E2E2E2E2E2E2E2E2E2E2E2E2E2E2E2E2E2E2E2E2E2E2E2E2E2E2E2E2E2E2E2E2E2E2E2E2E2E2E2E2E2E2E2E2E2E2E2E2E2E2E2E2E2E2E2E2E2E2E2E2E2E2E2E2
310
E2E2E2E2E2E2E2E2E2E2E2E2E2E2E2E2E2E2E2E2E2E2E2E2E2E2E2E2E2E2E2E2E2E2E2E2E2E2E2E2E2E2E2E2E2E2E2E2E2E2E2E2E2E2E2E2E2E2E2E2E2E2E2E2E2E2E2E2E2E2E2E2E2E2E2E2E2E2E2E2E2E2E2E2E2E2E2E2E2E2E2E2E2E2E2E2E2E2E2E2E2E2E2E2E2E2E2E2E2E2E2E2E2E2E2E2E2E2E2E2E2E2E2E2E2E2E2
310
E2E2E2E2E2E2E2E2E2E2E2E2E2E2E2E2E2E2E2E2E2E2E2E2E2E2E2E2E2E2E2E2E2E2E2E2E2E2E2E2E2E2E2E2E2E2E2E2E2E2E2E2E2E2E2E2E2E2E2E2E2E2E2E2E2E2E2E2E2E2E2E2E2E2E2E2E2E2E2E2E2E2E2E2E2E2E2E2E2E2E2E2E2E2E2E2E2E2E2E2E2E2E2E2E2E2E2E2E2E2E2E2E2E2E2E2E2E2E2E2E2E2E2E2E2E2E2
310
E2E2E2E2E2E2E2E2E2E2E2E2E2E2E2E2E2E2E2E2E2E2E2E2E2E2E2E2E2E2E2E2E2E2E2E2E2E2E2E2E2E2E2E2E2E2E2E2E2E2E2E2E2E2E2E2E2E2E2E2E2E2E2E2E2E2E2E2E2E2E2E2E2E2E2E2E2E2E2E2E2E2E2E2E2E2E2E2E2E2E2E2E2E2E2E2E2E2E2E2E2E2E2E2E2E2E2E2E2E2E2E2E2E2E2E2E2E2E2E2E2E2E2E2E2E2E2
310
E2E2E2E2E2E2E2E2E2E2E2E2E2E2E2E2E2E2E2E2E2E2E2E2E2E2E2E2E2E2E2E2E2E2E2E2E2E2E2E2E2E2E2E2E2E2E2E2E2E2E2E2E2E2E2E2E2E2E2E2E2E2E2E2E2E2E2E2E2E2E2E2E2E2E2E2E2E2E2E2E2E2E2E2E2E2E2E2E2E2E2E2E2E2E2E2E2E2E2E2E2E2E2E2E2E2E2E2E2E2E2E2E2E2E2E2E2E2E2E2E2E2E2E2E2E2E2
310
E2E2E2E2E2E2E2E2E2E2E2E2E2E2E2E2E2E2E2E2E2E2E2E2E2E2E2E2E2E2E2E2E2E2E2E2E2E2E2E2E2E2E2E2E2E2E2E2E2E2E2E2E2E2E2E2E2E2E2E2E2E2E2E2E2E2E2E2E2E2E2E2E2E2E2E2E2E2E2E2E2E2E2E2E2E2E2E2E2E2E2E2E2E2E2E2E2E2E2E2E2E2E2E2E2E2E2E2E2E2E2E2E2E2E2E2E2E2E2E2E2E2E2E2E2E2E2
310
E2E2E2E2E2E2E2E2E2E2E2E2E2E2E2E2E2E2E2E2E2E2E2E2E2E2E2E2E2E2E2E2E2E2E2E2E2E2E2E2E2E2E2E2E2E2E2E2E2E2E2E2E2E2E2E2E2E2E2E2E2E2E2E2E2E2E2E2E2E2E2E2E2E2E2E2E2E2E2E2E2E2E2E2E2E2E2E2E2E2E2E2E2E2E2E2E2E2E2E2E2E2E2E2E2E2E2E2E2E2E2E2E2E2E2E2E2E2E2E2E2E2E2E2E2E2E2
310
E2E2E2E2E2E2E2E2E2E2E2E2E2E2E2E2E2E2E2E2E2E2E2E2E2E2E2E2E2E2E2E2E2E2E2E2E2E2E2E2E2E2E2E2E2E2E2E2E2E2E2E2E2E2E2E2E2E2E2E2E2E2E2E2E2E2E2E2E2E2E2E2E2E2E2E2E2E2E2E2E2E2E2E2E2E2E2E2E2E2E2E2E2E2E2E2E2E2E2E2E2E2E2E2E2E2E2E2E2E2E2E2E2E2E2E2E2E2E2E2E2E2E2E2E2E2E2
310
E2E2E2E2E2E2E2E2E2E2E2E2E2E2E2E2E2E2E2E2E2E2E2E2E2E2E2E2E2E2E2E2E2E2E2E2E2E2E2E2E2E2E2E2E2E2E2E2E2E2E2E2E2E2E2E2E2E2E2E2E2E2E2E2E2E2E2E2E2E2E2E2E2E2E2E2E2E2E2E2E2E2E2E2E2E2E2E2E2E2E2E2E2E2E2E2E2E2E2E2E2E2E2E2E2E2E2E2E2E2E2E2E2E2E2E2E2E2E2E2E2E2E2E2E2E2E2
310
E2E2E2E2E2E2E2E2E2E2E2E2E2E2E2E2E2E2E2E2E2E2E2E2E2E2E2E2E2E2E2E2E2E2E2E2E2E2E2E2E2E2E2E2E2E2E2E2E2E2E2E2E2E2E2E2E2E2E2E2E2E2E2E2E2E2E2E2E2E2E2E2E2E2E2E2E2E2E2E2E2E2E2E2E2E2E2E2E2E2E2E2E2E2E2E2E2E2E2E2E2E2E2E2E2E2E2E2E2E2E2E2E2E2E2E2E2E2E2E2E2E2E2E2E2E2E2
310
E2E2E2E2E2E2E2E2E2E2E2E2E2E2E2E2E2E2E2E2E2E2E2E2E2E2E2E2E2E2E2E2E2E2E2E2E2E2E2E2E2E2E2E2E2E2E2E2E2E2E2E2E2E2E2E2E2E2E2E2E2E2E2E2E2E2E2E2E2E2E2E2E2E2E2E2E2E2E2E2E2E2E2E2E2E2E2E2E2E2E2E2E2E2E2E2E2E2E2E2E2E2E2E2E2E2E2E2E2E2E2E2E2E2E2E2E2E2E2E2E2E2E2E2E2E2E2
310
E2E2E2E2E2E2E2E2E2E2E2E2E2E2E2E2E2E2E2E2E2E2E2E2E2E2E2E2E2E2E2E2E2E2E2E2E2E2E2E2E2E2E2E2E2E2E2E2E2E2E2E2E2E2E2E2E2E2E2E2E2E2E2E2E2E2E2E2E2E2E2E2E2E2E2E2E2E2E2E2E2E2E2E2E2E2E2E2E2E2E2E2E2E2E2E2E2E2E2E2E2E2E2E2E2E2E2E2E2E2E2E2E2E2E2E2E2E2E2E2E2E2E2E2E2E2E2
310
E2E2E2E2E2E2E2E2E2E2E2E2E2E2E2E2E2E2E2E2E2E2E2E2E2E2E2E2E2E2E2E2E2E2E2E2E2E2E2E2E2E2E2E2E2E2E2E2E2E2E2E2E2E2E2E2E2E2E2E2E2E2E2E2E2E2E2E2E2E2E2E2E2E2E2E2E2E2E2E2E2E2E2E2E2E2E2E2E2E2E2E2E2E2E2E2E2E2E2E2E2E2E2E2E2E2E2E2E2E2E2E2E2E2E2E2E2E2E2E2E2E2E2E2E2E2E2
310
E2E2E2E2E2E2E2E2E2E2E2E2E2E2E2E2E2E2E2E2E2E2E2E2E2E2E2E2E2E2E2E2E2E2E2E2E2E2E2E2E2E2E2E2E2E2E2E2E2E2E2E2E2E2E2E2E2E2E2E2E2E2E2E2E2E2E2E2E2E2E2E2E2E2E2E2E2E2E2E2E2E2E2E2E2E2E2E2E2E2E2E2E2E2E2E2E2E2E2E2E2E2E2E2E2E2E2E2E2E2E2E2E2E2E2E2E2E2E2E2E2E2E2E2E2E2E2
310
E2E2E2E2E2E2E2E2E2E2E2E2E2E2E2E2E2E2E2E2E2E2E2E2E2E2E2E2E2E2E2E2E2E2E2E2E2E2E2E2E2E2E2E2E2E2E2E2E2E2E2E2E2E2E2E2E2E2E2E2E2E2E2E2E2E2E2E2E2E2E2E2E2E2E2E2E2E2E2E2E2E2E2E2E2E2E2E2E2E2E2E2E2E2E2E2E2E2E2E2E2E2E2E2E2E2E2E2E2E2E2E2E2E2E2E2E2E2E2E2E2E2E2E2E2E2E2
310
E2E2E2E2E2E2E2E2E2E2E2E2E2E2E2E2E2E2E2E2E2E2E2E2E2E2E2E2E2E2E2E2E2E2E2E2E2E2E2E2E2E2E2E2E2E2E2E2E2E2E2E2E2E2E2E2E2E2E2E2E2E2E2E2E2E2E2E2E2E2E2E2E2E2E2E2E2E2E2E2E2E2E2E2E2E2E2E2E2E2E2E2E2E2E2E2E2E2E2E2E2E2E2E2E2E2E2E2E2E2E2E2E2E2E2E2E2E2E2E2E2E2E2E2E2E2E2
310
E2E2E2E2E2E2E2E2E2E2E2E2E2E2E2E2E2E2E2E2E2E2E2E2E2E2E2E2E2E2E2E2E2E2E2E2E2E2E2E2E2E2E2E2E2E2E2E2E2E2E2E2E2E2E2E2E2E2E2E2E2E2E2E2E2E2E2E2E2E2E2E2E2E2E2E2E2E2E2E2E2E2E2E2E2E2E2E2E2E2E2E2E2E2E2E2E2E2E2E2E2E2E2E2E2E2E2E2E2E2E2E2E2E2E2E2E2E2E2E2E2E2E2E2E2E2E2
310
E2E2E2E2E2E2E2E2E2E2E2E2E2E2E2E2E2E2E2E2E2E2E2E2E2E2E2E2E2E2E2E2E2E2E2E2E2E2E2E2E2E2E2E2E2E2E2E2E2E2E2E2E2E2E2E2E2E2E2E2E2E2E2E2E2E2E2E2E2E2E2E2E2E2E2E2E2E2E2E2E2E2E2E2E2E2E2E2E2E2E2E2E2E2E2E2E2E2E2E2E2E2E2E2E2E2E2E2E2E2E2E2E2E2E2E2E2E2E2E2E2E2E2E2E2E2E2
310
E2E2E2E2E2E2E2E2E2E2E2E2E2E2E2E2E2E2E2E2E2E2E2E2E2E2E2E2E2E2E2E2E2E2E2E2E2E2E2E2E2E2E2E2E2E2E2E2E2E2E2E2E2E2E2E2E2E2E2E2E2E2E2E2E2E2E2E2E2E2E2E2E2E2E2E2E2E2E2E2E2E2E2E2E2E2E2E2E2E2E2E2E2E2E2E2E2E2E2E2E2E2E2E2E2E2E2E2E2E2E2E2E2E2E2E2E2E2E2E2E2E2E2E2E2E2E2
310
E2E2E2E2E2E2E2E2E2E2E2E2E2E2E2E2E2E2E2E2E2E2E2E2E2E2E2E2E2E2E2E2E2E2E2E2E2E2E2E2E2E2E2E2E2E2E2E2E2E2E2E2E2E2E2E2E2E2E2E2E2E2E2E2E2E2E2E2E2E2E2E2E2E2E2E2E2E2E2E2E2E2E2E2E2E2E2E2E2E2E2E2E2E2E2E2E2E2E2E2E2E2E2E2E2E2E2E2E2E2E2E2E2E2E2E2E2E2E2E2E2E2E2E2E2E2E2
310
E2E2E2E2E2E2E2E2E2E2E2E2E2E2E2E2E2E2E2E2E2E2E2E2E2E2E2E2E2E2E2E2E2E2E2E2E2E2E2E2E2E2E2E2E2E2E2E2E2E2E2E2E2E2E2E2E2E2E2E2E2E2E2E2E2E2E2E2E2E2E2E2E2E2E2E2E2E2E2E2E2E2E2E2E2E2E2E2E2E2E2E2E2E2E2E2E2E2E2E2E2E2E2E2E2E2E2E2E2E2E2E2E2E2E2E2E2E2E2E2E2E2E2E2E2E2E2
310
E2E2E2E2E2E2E2E2E2E2E2E2E2E2E2E2E2E2E2E2E2E2E2E2E2E2E2E2E2E2E2E2E2E2E2E2E2E2E2E2E2E2E2E2E2E2E2E2E2E2E2E2E2E2E2E2E2E2E2E2E2E2E2E2E2E2E2E2E2E2E2E2E2E2E2E2E2E2E2E2E2E2E2E2E2E2E2E2E2E2E2E2E2E2E2E2E2E2E2E2E2E2E2E2E2E2E2E2E2E2E2E2E2E2E2E2E2E2E2E2E2E2E2E2E2E2E2
310
E2E2E2E2E2E2E2E2E2E2E2E2E2E2E2E2E2E2E2E2E2E2E2E2E2E2E2E2E2E2E2E2E2E2E2E2E2E2E2E2E2E2E2E2E2E2E2E2E2E2E2E2E2E2E2E2E2E2E2E2E2E2E2E2E2E2E2E2E2E2E2E2E2E2E2E2E2E2E2E2E2E2E2E2E2E2E2E2E2E2E2E2E2E2E2E2E2E2E2E2E2E2E2E2E2E2E2E2E2E2E2E2E2E2E2E2E2E2E2E2E2E2E2E2E2E2E2
310
E2E2E2E2E2E2E2E2E2E2E2E2E2E2E2E2E2E2E2E2E2E2E2E2E2E2E2E2E2E2E2E2E2E2E2E2E2E2E2E2E2E2E2E2E2E2E2E2E2E2E2E2E2E2E2E2E2E2E2E2E2E2E2E2E2E2E2E2E2E2E2E2E2E2E2E2E2E2E2E2E2E2E2E2E2E2E2E2E2E2E2E2E2E2E2E2E2E2E2E2E2E2E2E2E2E2E2E2E2E2E2E2E2E2E2E2E2E2E2E2E2E2E2E2E2E2E2
310
E2E2E2E2E2E2E2E2E2E2E2E2E2E2E2E2E2E2E2E2E2E2E2E2E2E2E2E2E2E2E2E2E2E2E2E2E2E2E2E2E2E2E2E2E2E2E2E2E2E2E2E2E2E2E2E2E2E2E2E2E2E2E2E2E2E2E2E2E2E2E2E2E2E2E2E2E2E2E2E2E2E2E2E2E2E2E2E2E2E2E2E2E2E2E2E2E2E2E2E2E2E2E2E2E2E2E2E2E2E2E2E2E2E2E2E2E2E2E2E2E2E2E2E2E2E2E2
310
E2E2E2E2E2E2E2E2E2E2E2E2E2E2E2E2E2E2E2E2E2E2E2E2E2E2E2E2E2E2E2E2E2E2E2E2E2E2E2E2E2E2E2E2E2E2E2E2E2E2E2E2E2E2E2E2E2E2E2E2E2E2E2E2E2E2E2E2E2E2E2E2E2E2E2E2E2E2E2E2E2E2E2E2E2E2E2E2E2E2E2E2E2E2E2E2E2E2E2E2E2E2E2E2E2E2E2E2E2E2E2E2E2E2E2E2E2E2E2E2E2E2E2E2E2E2E2
310
E2E2E2E2E2E2E2E2E2E2E2E2E2E2E2E2E2E2E2E2E2E2E2E2E2E2E2E2E2E2E2E2E2E2E2E2E2E2E2E2E2E2E2E2E2E2E2E2E2E2E2E2E2E2E2E2E2E2E2E2E2E2E2E2E2E2E2E2E2E2E2E2E2E2E2E2E2E2E2E2E2E2E2E2E2E2E2E2E2E2E2E2E2E2E2E2E2E2E2E2E2E2E2E2E2E2E2E2E2E2E2E2E2E2E2E2E2E2E2E2E2E2E2E2E2E2E2
310
E2E2E2E2E2E2E2E2E2E2E2E2E2E2E2E2E2E2E2E2E2E2E2E2E2E2E2E2E2E2E2E2E2E2E2E2E2E2E2E2E2E2E2E2E2E2E2E2E2E2E2E2E2E2E2E2E2E2E2E2E2E2E2E2E2E2E2E2E2E2E2E2E2E2E2E2E2E2E2E2E2E2E2E2E2E2E2E2E2E2E2E2E2E2E2E2E2E2E2E2E2E2E2E2E2E2E2E2E2E2E2E2E2E2E2E2E2E2E2E2E2E2E2E2E2E2E2
310
E2E2E2E2E2E2E2E2E2E2E2E2E2E2E2E2E2E2E2E2E2E2E2E2E2E2E2E2E2E2E2E2E2E2E2E2E2E2E2E2E2E2E2E2E2E2E2E2E2E2E2E2E2E2E2E2E2E2E2E2E2E2E2E2E2E2E2E2E2E2E2E2E2E2E2E2E2E2E2E2E2E2E2E2E2E2E2E2E2E2E2E2E2E2E2E2E2E2E2E2E2E2E2E2E2E2E2E2E2E2E2E2E2E2E2E2E2E2E2E2E2E2E2E2E2E2E2
310
E2E2E2E2E2E2E2E2E2E2E2E2E2E2E2E2E2E2E2E2E2E2E2E2E2E2E2E2E2E2E2E2E2E2E2E2E2E2E2E2E2E2E2E2E2E2E2E2E2E2E2E2E2E2E2E2E2E2E2E2E2E2E2E2E2E2E2E2E2E2E2E2E2E2E2E2E2E2E2E2E2E2E2E2E2E2E2E2E2E2E2E2E2E2E2E2E2E2E2E2E2E2E2E2E2E2E2E2E2E2E2E2E2E2E2E2E2E2E2E2E2E2E2E2E2E2E2
310
E2E2E2E2E2E2E2E2E2E2E2E2E2E2E2E2E2E2E2E2E2E2E2E2E2E2E2E2E2E2E2E2E2E2E2E2E2E2E2E2E2E2E2E2E2E2E2E2E2E2E2E2E2E2E2E2E2E2E2E2E2E2E2E2E2E2E2E2E2E2E2E2E2E2E2E2E2E2E2E2E2E2E2E2E2E2E2E2E2E2E2E2E2E2E2E2E2E2E2E2E2E2E2E2E2E2E2E2E2E2E2E2E2E2E2E2E2E2E2E2E2E2E2E2E2E2E2
310
E2E2E2E2E2E2E2E2E2E2E2E2E2E2E2E2E2E2E2E2E2E2E2E2E2E2E2E2E2E2E2E2E2E2E2E2E2E2E2E2E2E2E2E2E2E2E2E2E2E2E2E2E2E2E2E2E2E2E2E2E2E2E2E2E2E2E2E2E2E2E2E2E2E2E2E2E2E2E2E2E2E2E2E2E2E2E2E2E2E2E2E2E2E2E2E2E2E2E2E2E2E2E2E2E2E2E2E2E2E2E2E2E2E2E2E2E2E2E2E2E2E2E2E2E2E2E2
310
E2E2E2E2E2E2E2E2E2E2E2E2E2E2E2E2E2E2E2E2E2E2E2E2E2E2E2E2E2E2E2E2E2E2E2E2E2E2E2E2E2E2E2E2E2E2E2E2E2E2E2E2E2E2E2E2E2E2E2E2E2E2E2E2E2E2E2E2E2E2E2E2E2E2E2E2E2E2E2E2E2E2E2E2E2E2E2E2E2E2E2E2E2E2E2E2E2E2E2E2E2E2E2E2E2E2E2E2E2E2E2E2E2E2E2E2E2E2E2E2E2E2E2E2E2E2E2
310
E2E2E2E2E2E2E2E2E2E2E2E2E2E2E2E2E2E2E2E2E2E2E2E2E2E2E2E2E2E2E2E2E2E2E2E2E2E2E2E2E2E2E2E2E2E2E2E2E2E2E2E2E2E2E2E2E2E2E2E2E2E2E2E2E2E2E2E2E2E2E2E2E2E2E2E2E2E2E2E2E2E2E2E2E2E2E2E2E2E2E2E2E2E2E2E2E2E2E2E2E2E2E2E2E2E2E2E2E2E2E2E2E2E2E2E2E2E2E2E2E2E2E2E2E2E2E2
310
E2E2E2E2E2E2E2E2E2E2E2E2E2E2E2E2E2E2E2E2E2E2E2E2E2E2E2E2E2E2E2E2E2E2E2E2E2E2E2E2E2E2E2E2E2E2E2E2E2E2E2E2E2E2E2E2E2E2E2E2E2E2E2E2E2E2E2E2E2E2E2E2E2E2E2E2E2E2E2E2E2E2E2E2E2E2E2E2E2E2E2E2E2E2E2E2E2E2E2E2E2E2E2E2E2E2E2E2E2E2E2E2E2E2E2E2E2E2E2E2E2E2E2E2E2E2E2
310
E2E2E2E2E2E2E2E2E2E2E2E2E2E2E2E2E2E2E2E2E2E2E2E2E2E2E2E2E2E2E2E2E2E2E2E2E2E2E2E2E2E2E2E2E2E2E2E2E2E2E2E2E2E2E2E2E2E2E2E2E2E2E2E2E2E2E2E2E2E2E2E2E2E2E2E2E2E2E2E2E2E2E2E2E2E2E2E2E2E2E2E2E2E2E2E2E2E2E2E2E2E2E2E2E2E2E2E2E2E2E2E2E2E2E2E2E2E2E2E2E2E2E2E2E2E2E2
310
E2E2E2E2E2E2E2E2E2E2E2E2E2E2E2E2E2E2E2E2E2E2E2E2E2E2E2E2E2E2E2E2E2E2E2E2E2E2E2E2E2E2E2E2E2E2E2E2E2E2E2E2E2E2E2E2E2E2E2E2E2E2E2E2E2E2E2E2E2E2E2E2E2E2E2E2E2E2E2E2E2E2E2E2E2E2E2E2E2E2E2E2E2E2E2E2E2E2E2E2E2E2E2E2E2E2E2E2E2E2E2E2E2E2E2E2E2E2E2E2E2E2E2E2E2E2E2
310
E2E2E2E2E2E2E2E2E2E2E2E2E2E2E2E2E2E2E2E2E2E2E2E2E2E2E2E2E2E2E2E2E2E2E2E2E2E2E2E2E2E2E2E2E2E2E2E2E2E2E2E2E2E2E2E2E2E2E2E2E2E2E2E2E2E2E2E2E2E2E2E2E2E2E2E2E2E2E2E2E2E2E2E2E2E2E2E2E2E2E2E2E2E2E2E2E2E2E2E2E2E2E2E2E2E2E2E2E2E2E2E2E2E2E2E2E2E2E2E2E2E2E2E2E2E2E2
310
E2E2E2E2E2E2E2E2E2E2E2E2E2E2E2E2E2E2E2E2E2E2E2E2E2E2E2E2E2E2E2E2E2E2E2E2E2E2E2E2E2E2E2E2E2E2E2E2E2E2E2E2E2E2E2E2E2E2E2E2E2E2E2E2E2E2E2E2E2E2E2E2E2E2E2E2E2E2E2E2E2E2E2E2E2E2E2E2E2E2E2E2E2E2E2E2E2E2E2E2E2E2E2E2E2E2E2E2E2E2E2E2E2E2E2E2E2E2E2E2E2E2E2E2E2E2E2
310
E2E2E2E2E2E2E2E2E2E2E2E2E2E2E2E2E2E2E2E2E2E2E2E2E2E2E2E2E2E2E2E2E2E2E2E2E2E2E2E2E2E2E2E2E2E2E2E2E2E2E2E2E2E2E2E2E2E2E2E2E2E2E2E2E2E2E2E2E2E2E2E2E2E2E2E2E2E2E2E2E2E2E2E2E2E2E2E2E2E2E2E2E2E2E2E2E2E2E2E2E2E2E2E2E2E2E2E2E2E2E2E2E2E2E2E2E2E2E2E2E2E2E2E2E2E2E2
310
E2E2E2E2E2E2E2E2E2E2E2E2E2E2E2E2E2E2E2E2E2E2E2E2E2E2E2E2E2E2E2E2E2E2E2E2E2E2E2E2E2E2E2E2E2E2E2E2E2E2E2E2E2E2E2E2E2E2E2E2E2E2E2E2E2E2E2E2E2E2E2E2E2E2E2E2E2E2E2E2E2E2E2E2E2E2E2E2E2E2E2E2E2E2E2E2E2E2E2E2E2E2E2E2E2E2E2E2E2E2E2E2E2E2E2E2E2E2E2E2E2E2E2E2E2E2E2
310
E2E2E2E2E2E2E2E2E2E2E2E2E2E2E2E2E2E2E2E2E2E2E2E2E2E2E2E2E2E2E2E2E2E2E2E2E2E2E2E2E2E2E2E2E2E2E2E2E2E2E2E2E2E2E2E2E2E2E2E2E2E2E2E2E2E2E2E2E2E2E2E2E2E2E2E2E2E2E2E2E2E2E2E2E2E2E2E2E2E2E2E2E2E2E2E2E2E2E2E2E2E2E2E2E2E2E2E2E2E2E2E2E2E2E2E2E2E2E2E2E2E2E2E2E2E2E2
310
E2E2E2E2E2E2E2E2E2E2E2E2E2E2E2E2E2E2E2E2E2E2E2E2E2E2E2E2E2E2E2E2E2E2E2E2E2E2E2E2E2E2E2E2E2E2E2E2E2E2E2E2E2E2E2E2E2E2E2E2E2E2E2E2E2E2E2E2E2E2E2E2E2E2E2E2E2E2E2E2E2E2E2E2E2E2E2E2E2E2E2E2E2E2E2E2E2E2E2E2E2E2E2E2E2E2E2E2E2E2E2E2E2E2E2E2E2E2E2E2E2E2E2E2E2E2E2
310
E2E2E2E2E2E2E2E2E2E2E2E2E2E2E2E2E2E2E2E2E2E2E2E2E2E2E2E2E2E2E2E2E2E2E2E2E2E2E2E2E2E2E2E2E2E2E2E2E2E2E2E2E2E2E2E2E2E2E2E2E2E2E2E2E2E2E2E2E2E2E2E2E2E2E2E2E2E2E2E2E2E2E2E2E2E2E2E2E2E2E2E2E2E2E2E2E2E2E2E2E2E2E2E2E2E2E2E2E2E2E2E2E2E2E2E2E2E2E2E2E2E2E2E2E2E2E2
310
E2E2E2E2E2E2E2E2E2E2E2E2E2E2E2E2E2E2E2E2E2E2E2E2E2E2E2E2E2E2E2E2E2E2E2E2E2E2E2E2E2E2E2E2E2E2E2E2E2E2E2E2E2E2E2E2E2E2E2E2E2E2E2E2E2E2E2E2E2E2E2E2E2E2E2E2E2E2E2E2E2E2E2E2E2E2E2E2E2E2E2E2E2E2E2E2E2E2E2E2E2E2E2E2E2E2E2E2E2E2E2E2E2E2E2E2E2E2E2E2E2E2E2E2E2E2E2
310
E2E2E2E2E2E2E2E2E2E2E2E2E2E2E2E2E2E2E2E2E2E2E2E2E2E2E2E2E2E2E2E2E2E2E2E2E2E2E2E2E2E2E2E2E2E2E2E2E2E2E2E2E2E2E2E2E2E2E2E2E2E2E2E2E2E2E2E2E2E2E2E2E2E2E2E2E2E2E2E2E2E2E2E2E2E2E2E2E2E2E2E2E2E2E2E2E2E2E2E2E2E2E2E2E2E2E2E2E2E2E2E2E2E2E2E2E2E2E2E2E2E2E2E2E2E2E2
310
E2E2E2E2E2E2E2E2E2E2E2E2E2E2E2E2E2E2E2E2E2E2E2E2E2E2E2E2E2E2E2E2E2E2E2E2E2E2E2E2E2E2E2E2E2E2E2E2E2E2E2E2E2E2E2E2E2E2E2E2E2E2E2E2E2E2E2E2E2E2E2E2E2E2E2E2E2E2E2E2E2E2E2E2E2E2E2E2E2E2E2E2E2E2E2E2E2E2E2E2E2E2E2E2E2E2E2E2E2E2E2E2E2E2E2E2E2E2E2E2E2E2E2E2E2E2E2
310
E2E2E2E2E2E2E2E2E2E2E2E2E2E2E2E2E2E2E2E2E2E2E2E2E2E2E2E2E2E2E2E2E2E2E2E2E2E2E2E2E2E2E2E2E2E2E2E2E2E2E2E2E2E2E2E2E2E2E2E2E2E2E2E2E2E2E2E2E2E2E2E2E2E2E2E2E2E2E2E2E2E2E2E2E2E2E2E2E2E2E2E2E2E2E2E2E2E2E2E2E2E2E2E2E2E2E2E2E2E2E2E2E2E2E2E2E2E2E2E2E2E2E2E2E2E2E2
310
E2E2E2E2E2E2E2E2E2E2E2E2E2E2E2E2E2E2E2E2E2E2E2E2E2E2E2E2E2E2E2E2E2E2E2E2E2E2E2E2E2E2E2E2E2E2E2E2E2E2E2E2E2E2E2E2E2E2E2E2E2E2E2E2E2E2E2E2E2E2E2E2E2E2E2E2E2E2E2E2E2E2E2E2E2E2E2E2E2E2E2E2E2E2E2E2E2E2E2E2E2E2E2E2E2E2E2E2E2E2E2E2E2E2E2E2E2E2E2E2E2E2E2E2E2E2E2
310
E2E2E2E2E2E2E2E2E2E2E2E2E2E2E2E2E2E2E2E2E2E2E2E2E2E2E2E2E2E2E2E2E2E2E2E2E2E2E2E2E2E2E2E2E2E2E2E2E2E2E2E2E2E2E2E2E2E2E2E2E2E2E2E2E2E2E2E2E2E2E2E2E2E2E2E2E2E2E2E2E2E2E2E2E2E2E2E2E2E2E2E2E2E2E2E2E2E2E2E2E2E2E2E2E2E2E2E2E2E2E2E2E2E2E2E2E2E2E2E2E2E2E2E2E2E2E2
310
E2E2E2E2E2E2E2E2E2E2E2E2E2E2E2E2E2E2E2E2E2E2E2E2E2E2E2E2E2E2E2E2E2E2E2E2E2E2E2E2E2E2E2E2E2E2E2E2E2E2E2E2E2E2E2E2E2E2E2E2E2E2E2E2E2E2E2E2E2E2E2E2E2E2E2E2E2E2E2E2E2E2E2E2E2E2E2E2E2E2E2E2E2E2E2E2E2E2E2E2E2E2E2E2E2E2E2E2E2E2E2E2E2E2E2E2E2E2E2E2E2E2E2E2E2E2E2
310
E2E2E2E2E2E2E2E2E2E2E2E2E2E2E2E2E2E2E2E2E2E2E2E2E2E2E2E2E2E2E2E2E2E2E2E2E2E2E2E2E2E2E2E2E2E2E2E2E2E2E2E2E2E2E2E2E2E2E2E2E2E2E2E2E2E2E2E2E2E2E2E2E2E2E2E2E2E2E2E2E2E2E2E2E2E2E2E2E2E2E2E2E2E2E2E2E2E2E2E2E2E2E2E2E2E2E2E2E2E2E2E2E2E2E2E2E2E2E2E2E2E2E2E2E2E2E2
310
E2E2E2E2E2E2E2E2E2E2E2E2E2E2E2E2E2E2E2E2E2E2E2E2E2E2E2E2E2E2E2E2E2E2E2E2E2E2E2E2E2E2E2E2E2E2E2E2E2E2E2E2E2E2E2E2E2E2E2E2E2E2E2E2E2E2E2E2E2E2E2E2E2E2E2E2E2E2E2E2E2E2E2E2E2E2E2E2E2E2E2E2E2E2E2E2E2E2E2E2E2E2E2E2E2E2E2E2E2E2E2E2E2E2E2E2E2E2E2E2E2E2E2E2E2E2E2
310
E2E2E2E2E2E2E2E2E2E2E2E2E2E2E2E2E2E2E2E2E2E2E2E2E2E2E2E2E2E2E2E2E2E2E2E2E2E2E2E2E2E2E2E2E2E2E2E2E2E2E2E2E2E2E2E2E2E2E2E2E2E2E2E2E2E2E2E2E2E2E2E2E2E2E2E2E2E2E2E2E2E2E2E2E2E2E2E2E2E2E2E2E2E2E2E2E2E2E2E2E2E2E2E2E2E2E2E2E2E2E2E2E2E2E2E2E2E2E2E2E2E2E2E2E2E2E2
310
E2E2E2E2E2E2E2E2E2E2E2E2E2E2E2E2E2E2E2E2E2E2E2E2E2E2E2E2E2E2E2E2E2E2E2E2E2E2E2E2E2E2E2E2E2E2E2E2E2E2E2E2E2E2E2E2E2E2E2E2E2E2E2E2E2E2E2E2E2E2E2E2E2E2E2E2E2E2E2E2E2E2E2E2E2E2E2E2E2E2E2E2E2E2E2E2E2E2E2E2E2E2E2E2E2E2E2E2E2E2E2E2E2E2E2E2E2E2E2E2E2E2E2E2E2E2E2
310
E2E2E2E2E2E2E2E2E2E2E2E2E2E2E2E2E2E2E2E2E2E2E2E2E2E2E2E2E2E2E2E2E2E2E2E2E2E2E2E2E2E2E2E2E2E2E2E2E2E2E2E2E2E2E2E2E2E2E2E2E2E2E2E2E2E2E2E2E2E2E2E2E2E2E2E2E2E2E2E2E2E2E2E2E2E2E2E2E2E2E2E2E2E2E2E2E2E2E2E2E2E2E2E2E2E2E2E2E2E2E2E2E2E2E2E2E2E2E2E2E2E2E2E2E2E2E2
310
E2E2E2E2E2E2E2E2E2E2E2E2E2E2E2E2E2E2E2E2E2E2E2E2E2E2E2E2E2E2E2E2E2E2E2E2E2E2E2E2E2E2E2E2E2E2E2E2E2E2E2E2E2E2E2E2E2E2E2E2E2E2E2E2E2E2E2E2E2E2E2E2E2E2E2E2E2E2E2E2E2E2E2E2E2E2E2E2E2E2E2E2E2E2E2E2E2E2E2E2E2E2E2E2E2E2E2E2E2E2E2E2E2E2E2E2E2E2E2E2E2E2E2E2E2E2E2
310
E2E2E2E2E2E2E2E2E2E2E2E2E2E2E2E2E2E2E2E2E2E2E2E2E2E2E2E2E2E2E2E2E2E2E2E2E2E2E2E2E2E2E2E2E2E2E2E2E2E2E2E2E2E2E2E2E2E2E2E2E2E2E2E2E2E2E2E2E2E2E2E2E2E2E2E2E2E2E2E2E2E2E2E2E2E2E2E2E2E2E2E2E2E2E2E2E2E2E2E2E2E2E2E2E2E2E2E2E2E2E2E2E2E2E2E2E2E2E2E2E2E2E2E2E2E2E2
310
E2E2E2E2E2E2E2E2E2E2E2E2E2E2E2E2E2E2E2E2E2E2E2E2E2E2E2E2E2E2E2E2E2E2E2E2E2E2E2E2E2E2E2E2E2E2E2E2E2E2E2E2E2E2E2E2E2E2E2E2E2E2E2E2E2E2E2E2E2E2E2E2E2E2E2E2E2E2E2E2E2E2E2E2E2E2E2E2E2E2E2E2E2E2E2E2E2E2E2E2E2E2E2E2E2E2E2E2E2E2E2E2E2E2E2E2E2E2E2E2E2E2E2E2E2E2E2
310
E2E2E2E2E2E2E2E2E2E2E2E2E2E2E2E2E2E2E2E2E2E2E2E2E2E2E2E2E2E2E2E2E2E2E2E2E2E2E2E2E2E2E2E2E2E2E2E2E2E2E2E2E2E2E2E2E2E2E2E2E2E2E2E2E2E2E2E2E2E2E2E2E2E2E2E2E2E2E2E2E2E2E2E2E2E2E2E2E2E2E2E2E2E2E2E2E2E2E2E2E2E2E2E2E2E2E2E2E2E2E2E2E2E2E2E2E2E2E2E2E2E2E2E2E2E2E2
310
E2E2E2E2E2E2E2E2E2E2E2E2E2E2E2E2E2E2E2E2E2E2E2E2E2E2E2E2E2E2E2E2E2E2E2E2E2E2E2E2E2E2E2E2E2E2E2E2E2E2E2E2E2E2E2E2E2E2E2E2E2E2E2E2E2E2E2E2E2E2E2E2E2E2E2E2E2E2E2E2E2E2E2E2E2E2E2E2E2E2E2E2E2E2E2E2E2E2E2E2E2E2E2E2E2E2E2E2E2E2E2E2E2E2E2E2E2E2E2E2E2E2E2E2E2E2E2
310
E2E2E2E2E2E2E2E2E2E2E2E2E2E2E2E2E2E2E2E2E2E2E2E2E2E2E2E2E2E2E2E2E2E2E2E2E2E2E2E2E2E2E2E2E2E2E2E2E2E2E2E2E2E2E2E2E2E2E2E2E2E2E2E2E2E2E2E2E2E2E2E2E2E2E2E2E2E2E2E2E2E2E2E2E2E2E2E2E2E2E2E2E2E2E2E2E2E2E2E2E2E2E2E2E2E2E2E2E2E2E2E2E2E2E2E2E2E2E2E2E2E2E2E2E2E2E2
310
E2E2E2E2E2E2E2E2E2E2E2E2E2E2E2E2E2E2E2E2E2E2E2E2E2E2E2E2E2E2E2E2E2E2E2E2E2E2E2E2E2E2E2E2E2E2E2E2E2E2E2E2E2E2E2E2E2E2E2E2E2E2E2E2E2E2E2E2E2E2E2E2E2E2E2E2E2E2E2E2E2E2E2E2E2E2E2E2E2E2E2E2E2E2E2E2E2E2E2E2E2E2E2E2E2E2E2E2E2E2E2E2E2E2E2E2E2E2E2E2E2E2E2E2E2E2E2
310
E2E2E2E2E2E2E2E2E2E2E2E2E2E2E2E2E2E2E2E2E2E2E2E2E2E2E2E2E2E2E2E2E2E2E2E2E2E2E2E2E2E2E2E2E2E2E2E2E2E2E2E2E2E2E2E2E2E2E2E2E2E2E2E2E2E2E2E2E2E2E2E2E2E2E2E2E2E2E2E2E2E2E2E2E2E2E2E2E2E2E2E2E2E2E2E2E2E2E2E2E2E2E2E2E2E2E2E2E2E2E2E2E2E2E2E2E2E2E2E2E2E2E2E2E2E2E2
310
E2E2E2E2E2E2E2E2E2E2E2E2E2E2E2E2E2E2E2E2E2E2E2E2E2E2E2E2E2E2E2E2E2E2E2E2E2E2E2E2E2E2E2E2E2E2E2E2E2E2E2E2E2E2E2E2E2E2E2E2E2E2E2E2E2E2E2E2E2E2E2E2E2E2E2E2E2E2E2E2E2E2E2E2E2E2E2E2E2E2E2E2E2E2E2E2E2E2E2E2E2E2E2E2E2E2E2E2E2E2E2E2E2E2E2E2E2E2E2E2E2E2E2E2E2E2E2
310
E2E2E2E2E2E2E2E2E2E2E2E2E2E2E2E2E2E2E2E2E2E2E2E2E2E2E2E2E2E2E2E2E2E2E2E2E2E2E2E2E2E2E2E2E2E2E2E2E2E2E2E2E2E2E2E2E2E2E2E2E2E2E2E2E2E2E2E2E2E2E2E2E2E2E2E2E2E2E2E2E2E2E2E2E2E2E2E2E2E2E2E2E2E2E2E2E2E2E2E2E2E2E2E2E2E2E2E2E2E2E2E2E2E2E2E2E2E2E2E2E2E2E2E2E2E2E2
310
E2E2E2E2E2E2E2E2E2E2E2E2E2E2E2E2E2E2E2E2E2E2E2E2E2E2E2E2E2E2E2E2E2E2E2E2E2E2E2E2E2E2E2E2E2E2E2E2E2E2E2E2E2E2E2E2E2E2E2E2E2E2E2E2E2E2E2E2E2E2E2E2E2E2E2E2E2E2E2E2E2E2E2E2E2E2E2E2E2E2E2E2E2E2E2E2E2E2E2E2E2E2E2E2E2E2E2E2E2E2E2E2E2E2E2E2E2E2E2E2E2E2E2E2E2E2E2
310
E2E2E2E2E2E2E2E2E2E2E2E2E2E2E2E2E2E2E2E2E2E2E2E2E2E2E2E2E2E2E2E2E2E2E2E2E2E2E2E2E2E2E2E2E2E2E2E2E2E2E2E2E2E2E2E2E2E2E2E2E2E2E2E2E2E2E2E2E2E2E2E2E2E2E2E2E2E2E2E2E2E2E2E2E2E2E2E2E2E2E2E2E2E2E2E2E2E2E2E2E2E2E2E2E2E2E2E2E2E2E2E2E2E2E2E2E2E2E2E2E2E2E2E2E2E2E2
310
E2E2E2E2E2E2E2E2E2E2E2E2E2E2E2E2E2E2E2E2E2E2E2E2E2E2E2E2E2E2E2E2E2E2E2E2E2E2E2E2E2E2E2E2E2E2E2E2E2E2E2E2E2E2E2E2E2E2E2E2E2E2E2E2E2E2E2E2E2E2E2E2E2E2E2E2E2E2E2E2E2E2E2E2E2E2E2E2E2E2E2E2E2E2E2E2E2E2E2E2E2E2E2E2E2E2E2E2E2E2E2E2E2E2E2E2E2E2E2E2E2E2E2E2E2E2E2
310
E2E2E2E2E2E2E2E2E2E2E2E2E2E2E2E2E2E2E2E2E2E2E2E2E2E2E2E2E2E2E2E2E2E2E2E2E2E2E2E2E2E2E2E2E2E2E2E2E2E2E2E2E2E2E2E2E2E2E2E2E2E2E2E2E2E2E2E2E2E2E2E2E2E2E2E2E2E2E2E2E2E2E2E2E2E2E2E2E2E2E2E2E2E2E2E2E2E2E2E2E2E2E2E2E2E2E2E2E2E2E2E2E2E2E2E2E2E2E2E2E2E2E2E2E2E2E2
310
E2E2E2E2E2E2E2E2E2E2E2E2E2E2E2E2E2E2E2E2E2E2E2E2E2E2E2E2E2E2E2E2E2E2E2E2E2E2E2E2E2E2E2E2E2E2E2E2E2E2E2E2E2E2E2E2E2E2E2E2E2E2E2E2E2E2E2E2E2E2E2E2E2E2E2E2E2E2E2E2E2E2E2E2E2E2E2E2E2E2E2E2E2E2E2E2E2E2E2E2E2E2E2E2E2E2E2E2E2E2E2E2E2E2E2E2E2E2E2E2E2E2E2E2E2E2E2
310
E2E2E2E2E2E2E2E2E2E2E2E2E2E2E2E2E2E2E2E2E2E2E2E2E2E2E2E2E2E2E2E2E2E2E2E2E2E2E2E2E2E2E2E2E2E2E2E2E2E2E2E2E2E2E2E2E2E2E2E2E2E2E2E2E2E2E2E2E2E2E2E2E2E2E2E2E2E2E2E2E2E2E2E2E2E2E2E2E2E2E2E2E2E2E2E2E2E2E2E2E2E2E2E2E2E2E2E2E2E2E2E2E2E2E2E2E2E2E2E2E2E2E2E2E2E2E2
310
E2E2E2E2E2E2E2E2E2E2E2E2E2E2E2E2E2E2E2E2E2E2E2E2E2E2E2E2E2E2E2E2E2E2E2E2E2E2E2E2E2E2E2E2E2E2E2E2E2E2E2E2E2E2E2E2E2E2E2E2E2E2E2E2E2E2E2E2E2E2E2E2E2E2E2E2E2E2E2E2E2E2E2E2E2E2E2E2E2E2E2E2E2E2E2E2E2E2E2E2E2E2E2E2E2E2E2E2E2E2E2E2E2E2E2E2E2E2E2E2E2E2E2E2E2E2E2
310
E2E2E2E2E2E2E2E2E2E2E2E2E2E2E2E2E2E2E2E2E2E2E2E2E2E2E2E2E2E2E2E2E2E2E2E2E2E2E2E2E2E2E2E2E2E2E2E2E2E2E2E2E2E2E2E2E2E2E2E2E2E2E2E2E2E2E2E2E2E2E2E2E2E2E2E2E2E2E2E2E2E2E2E2E2E2E2E2E2E2E2E2E2E2E2E2E2E2E2E2E2E2E2E2E2E2E2E2E2E2E2E2E2E2E2E2E2E2E2E2E2E2E2E2E2E2E2
310
E2E2E2E2E2E2E2E2E2E2E2E2E2E2E2E2E2E2E2E2E2E2E2E2E2E2E2E2E2E2E2E2E2E2E2E2E2E2E2E2E2E2E2E2E2E2E2E2E2E2E2E2E2E2E2E2E2E2E2E2E2E2E2E2E2E2E2E2E2E2E2E2E2E2E2E2E2E2E2E2E2E2E2E2E2E2E2E2E2E2E2E2E2E2E2E2E2E2E2E2E2E2E2E2E2E2E2E2E2E2E2E2E2E2E2E2E2E2E2E2E2E2E2E2E2E2E2
310
E2E2E2E2E2E2E2E2E2E2E2E2E2E2E2E2E2E2E2E2E2E2E2E2E2E2E2E2E2E2E2E2E2E2E2E2E2E2E2E2E2E2E2E2E2E2E2E2E2E2E2E2E2E2E2E2E2E2E2E2E2E2E2E2E2E2E2E2E2E2E2E2E2E2E2E2E2E2E2E2E2E2E2E2E2E2E2E2E2E2E2E2E2E2E2E2E2E2E2E2E2E2E2E2E2E2E2E2E2E2E2E2E2E2E2E2E2E2E2E2E2E2E2E2E2E2E2
310
E2E2E2E2E2E2E2E2E2E2E2E2E2E2E2E2E2E2E2E2E2E2E2E2E2E2E2E2E2E2E2E2E2E2E2E2E2E2E2E2E2E2E2E2E2E2E2E2E2E2E2E2E2E2E2E2E2E2E2E2E2E2E2E2E2E2E2E2E2E2E2E2E2E2E2E2E2E2E2E2E2E2E2E2E2E2E2E2E2E2E2E2E2E2E2E2E2E2E2E2E2E2E2E2E2E2E2E2E2E2E2E2E2E2E2E2E2E2E2E2E2E2E2E2E2E2E2
310
E2E2E2E2E2E2E2E2E2E2E2E2E2E2E2E2E2E2E2E2E2E2E2E2E2E2E2E2E2E2E2E2E2E2E2E2E2E2E2E2E2E2E2E2E2E2E2E2E2E2E2E2E2E2E2E2E2E2E2E2E2E2E2E2E2E2E2E2E2E2E2E2E2E2E2E2E2E2E2E2E2E2E2E2E2E2E2E2E2E2E2E2E2E2E2E2E2E2E2E2E2E2E2E2E2E2E2E2E2E2E2E2E2E2E2E2E2E2E2E2E2E2E2E2E2E2E2
310
E2E2E2E2E2E2E2E2E2E2E2E2E2E2E2E2E2E2E2E2E2E2E2E2E2E2E2E2E2E2E2E2E2E2E2E2E2E2E2E2E2E2E2E2E2E2E2E2E2E2E2E2E2E2E2E2E2E2E2E2E2E2E2E2E2E2E2E2E2E2E2E2E2E2E2E2E2E2E2E2E2E2E2E2E2E2E2E2E2E2E2E2E2E2E2E2E2E2E2E2E2E2E2E2E2E2E2E2E2E2E2E2E2E2E2E2E2E2E2E2E2E2E2E2E2E2E2
310
E2E2E2E2E2E2E2E2E2E2E2E2E2E2E2E2E2E2E2E2E2E2E2E2E2E2E2E2E2E2E2E2E2E2E2E2E2E2E2E2E2E2E2E2E2E2E2E2E2E2E2E2E2E2E2E2E2E2E2E2E2E2E2E2E2E2E2E2E2E2E2E2E2E2E2E2E2E2E2E2E2E2E2E2E2E2E2E2E2E2E2E2E2E2E2E2E2E2E2E2E2E2E2E2E2E2E2E2E2E2E2E2E2E2E2E2E2E2E2E2E2E2E2E2E2E2E2
310
E2E2E2E2E2E2E2E2E2E2E2E2E2E2E2E2E2E2E2E2E2E2E2E2E2E2E2E2E2E2E2E2E2E2E2E2E2E2E2E2E2E2E2E2E2E2E2E2E2E2E2E2E2E2E2E2E2E2E2E2E2E2E2E2E2E2E2E2E2E2E2E2E2E2E2E2E2E2E2E2E2E2E2E2E2E2E2E2E2E2E2E2E2E2E2E2E2E2E2E2E2E2E2E2E2E2E2E2E2E2E2E2E2E2E2E2E2E2E2E2E2E2E2E2E2E2E2
310
E2E2E2E2E2E2E2E2E2E2E2E2E2E2E2E2E2E2E2E2E2E2E2E2E2E2E2E2E2E2E2E2E2E2E2E2E2E2E2E2E2E2E2E2E2E2E2E2E2E2E2E2E2E2E2E2E2E2E2E2E2E2E2E2E2E2E2E2E2E2E2E2E2E2E2E2E2E2E2E2E2E2E2E2E2E2E2E2E2E2E2E2E2E2E2E2E2E2E2E2E2E2E2E2E2E2E2E2E2E2E2E2E2E2E2E2E2E2E2E2E2E2E2E2E2E2E2
310
E2E2E2E2E2E2E2E2E2E2E2E2E2E2E2E2E2E2E2E2E2E2E2E2E2E2E2E2E2E2E2E2E2E2E2E2E2E2E2E2E2E2E2E2E2E2E2E2E2E2E2E2E2E2E2E2E2E2E2E2E2E2E2E2E2E2E2E2E2E2E2E2E2E2E2E2E2E2E2E2E2E2E2E2E2E2E2E2E2E2E2E2E2E2E2E2E2E2E2E2E2E2E2E2E2E2E2E2E2E2E2E2E2E2E2E2E2E2E2E2E2E2E2E2E2E2E2
310
E2E2E2E2E2E2E2E2E2E2E2E2E2E2E2E2E2E2E2E2E2E2E2E2E2E2E2E2E2E2E2E2E2E2E2E2E2E2E2E2E2E2E2E2E2E2E2E2E2E2E2E2E2E2E2E2E2E2E2E2E2E2E2E2E2E2E2E2E2E2E2E2E2E2E2E2E2E2E2E2E2E2E2E2E2E2E2E2E2E2E2E2E2E2E2E2E2E2E2E2E2E2E2E2E2E2E2E2E2E2E2E2E2E2E2E2E2E2E2E2E2E2E2E2E2E2E2
310
E2E2E2E2E2E2E2E2E2E2E2E2E2E2E2E2E2E2E2E2E2E2E2E2E2E2E2E2E2E2E2E2E2E2E2E2E2E2E2E2E2E2E2E2E2E2E2E2E2E2E2E2E2E2E2E2E2E2E2E2E2E2E2E2E2E2E2E2E2E2E2E2E2E2E2E2E2E2E2E2E2E2E2E2E2E2E2E2E2E2E2E2E2E2E2E2E2E2E2E2E2E2E2E2E2E2E2E2E2E2E2E2E2E2E2E2E2E2E2E2E2E2E2E2E2E2E2
310
E2E2E2E2E2E2E2E2E2E2E2E2E2E2E2E2E2E2E2E2E2E2E2E2E2E2E2E2E2E2E2E2E2E2E2E2E2E2E2E2E2E2E2E2E2E2E2E2E2E2E2E2E2E2E2E2E2E2E2E2E2E2E2E2E2E2E2E2E2E2E2E2E2E2E2E2E2E2E2E2E2E2E2E2E2E2E2E2E2E2E2E2E2E2E2E2E2E2E2E2E2E2E2E2E2E2E2E2E2E2E2E2E2E2E2E2E2E2E2E2E2E2E2E2E2E2E2
310
E2E2E2E2E2E2E2E2E2E2E2E2E2E2E2E2E2E2E2E2E2E2E2E2E2E2E2E2E2E2E2E2E2E2E2E2E2E2E2E2E2E2E2E2E2E2E2E2E2E2E2E2E2E2E2E2E2E2E2E2E2E2E2E2E2E2E2E2E2E2E2E2E2E2E2E2E2E2E2E2E2E2E2E2E2E2E2E2E2E2E2E2E2E2E2E2E2E2E2E2E2E2E2E2E2E2E2E2E2E2E2E2E2E2E2E2E2E2E2E2E2E2E2E2E2E2E2
310
E2E2E2E2E2E2E2E2E2E2E2E2E2E2E2E2E2E2E2E2E2E2E2E2E2E2E2E2E2E2E2E2E2E2E2E2E2E2E2E2E2E2E2E2E2E2E2E2E2E2E2E2E2E2E2E2E2E2E2E2E2E2E2E2E2E2E2E2E2E2E2E2E2E2E2E2E2E2E2E2E2E2E2E2E2E2E2E2E2E2E2E2E2E2E2E2E2E2E2E2E2E2E2E2E2E2E2E2E2E2E2E2E2E2E2E2E2E2E2E2E2E2E2E2E2E2E2
310
E2E2E2E2E2E2E2E2E2E2E2E2E2E2E2E2E2E2E2E2E2E2E2E2E2E2E2E2E2E2E2E2E2E2E2E2E2E2E2E2E2E2E2E2E2E2E2E2E2E2E2E2E2E2E2E2E2E2E2E2E2E2E2E2E2E2E2E2E2E2E2E2E2E2E2E2E2E2E2E2E2E2E2E2E2E2E2E2E2E2E2E2E2E2E2E2E2E2E2E2E2E2E2E2E2E2E2E2E2E2E2E2E2E2E2E2E2E2E2E2E2E2E2E2E2E2E2
310
E2E2E2E2E2E2E2E2E2E2E2E2E2E2E2E2E2E2E2E2E2E2E2E2E2E2E2E2E2E2E2E2E2E2E2E2E2E2E2E2E2E2E2E2E2E2E2E2E2E2E2E2E2E2E2E2E2E2E2E2E2E2E2E2E2E2E2E2E2E2E2E2E2E2E2E2E2E2E2E2E2E2E2E2E2E2E2E2E2E2E2E2E2E2E2E2E2E2E2E2E2E2E2E2E2E2E2E2E2E2E2E2E2E2E2E2E2E2E2E2E2E2E2E2E2E2E2
310
E2E2E2E2E2E2E2E2E2E2E2E2E2E2E2E2E2E2E2E2E2E2E2E2E2E2E2E2E2E2E2E2E2E2E2E2E2E2E2E2E2E2E2E2E2E2E2E2E2E2E2E2E2E2E2E2E2E2E2E2E2E2E2E2E2E2E2E2E2E2E2E2E2E2E2E2E2E2E2E2E2E2E2E2E2E2E2E2E2E2E2E2E2E2E2E2E2E2E2E2E2E2E2E2E2E2E2E2E2E2E2E2E2E2E2E2E2E2E2E2E2E2E2E2E2E2E2
310
E2E2E2E2E2E2E2E2E2E2E2E2E2E2E2E2E2E2E2E2E2E2E2E2E2E2E2E2E2E2E2E2E2E2E2E2E2E2E2E2E2E2E2E2E2E2E2E2E2E2E2E2E2E2E2E2E2E2E2E2E2E2E2E2E2E2E2E2E2E2E2E2E2E2E2E2E2E2E2E2E2E2E2E2E2E2E2E2E2E2E2E2E2E2E2E2E2E2E2E2E2E2E2E2E2E2E2E2E2E2E2E2E2E2E2E2E2E2E2E2E2E2E2E2E2E2E2
310
E2E2E2E2E2E2E2E2E2E2E2E2E2E2E2E2E2E2E2E2E2E2E2E2E2E2E2E2E2E2E2E2E2E2E2E2E2E2E2E2E2E2E2E2E2E2E2E2E2E2E2E2E2E2E2E2E2E2E2E2E2E2E2E2E2E2E2E2E2E2E2E2E2E2E2E2E2E2E2E2E2E2E2E2E2E2E2E2E2E2E2E2E2E2E2E2E2E2E2E2E2E2E2E2E2E2E2E2E2E2E2E2E2E2E2E2E2E2E2E2E2E2E2E2E2E2E2
310
E2E2E2E2E2E2E2E2E2E2E2E2E2E2E2E2E2E2E2E2E2E2E2E2E2E2E2E2E2E2E2E2E2E2E2E2E2E2E2E2E2E2E2E2E2E2E2E2E2E2E2E2E2E2E2E2E2E2E2E2E2E2E2E2E2E2E2E2E2E2E2E2E2E2E2E2E2E2E2E2E2E2E2E2E2E2E2E2E2E2E2E2E2E2E2E2E2E2E2E2E2E2E2E2E2E2E2E2E2E2E2E2E2E2E2E2E2E2E2E2E2E2E2E2E2E2E2
310
E2E2E2E2E2E2E2E2E2E2E2E2E2E2E2E2E2E2E2E2E2E2E2E2E2E2E2E2E2E2E2E2E2E2E2E2E2E2E2E2E2E2E2E2E2E2E2E2E2E2E2E2E2E2E2E2E2E2E2E2E2E2E2E2E2E2E2E2E2E2E2E2E2E2E2E2E2E2E2E2E2E2E2E2E2E2E2E2E2E2E2E2E2E2E2E2E2E2E2E2E2E2E2E2E2E2E2E2E2E2E2E2E2E2E2E2E2E2E2E2E2E2E2E2E2E2E2
310
E2E2E2E2E2E2E2E2E2E2E2E2E2E2E2E2E2E2E2E2E2E2E2E2E2E2E2E2E2E2E2E2E2E2E2E2E2E2E2E2E2E2E2E2E2E2E2E2E2E2E2E2E2E2E2E2E2E2E2E2E2E2E2E2E2E2E2E2E2E2E2E2E2E2E2E2E2E2E2E2E2E2E2E2E2E2E2E2E2E2E2E2E2E2E2E2E2E2E2E2E2E2E2E2E2E2E2E2E2E2E2E2E2E2E2E2E2E2E2E2E2E2E2E2E2E2E2
310
E2E2E2E2E2E2E2E2E2E2E2E2E2E2E2E2E2E2E2E2E2E2E2E2E2E2E2E2E2E2E2E2E2E2E2E2E2E2E2E2E2E2E2E2E2E2E2E2E2E2E2E2E2E2E2E2E2E2E2E2E2E2E2E2E2E2E2E2E2E2E2E2E2E2E2E2E2E2E2E2E2E2E2E2E2E2E2E2E2E2E2E2E2E2E2E2E2E2E2E2E2E2E2E2E2E2E2E2E2E2E2E2E2E2E2E2E2E2E2E2E2E2E2E2E2E2E2
310
E2E2E2E2E2E2E2E2E2E2E2E2E2E2E2E2E2E2E2E2E2E2E2E2E2E2E2E2E2E2E2E2E2E2E2E2E2E2E2E2E2E2E2E2E2E2E2E2E2E2E2E2E2E2E2E2E2E2E2E2E2E2E2E2E2E2E2E2E2E2E2E2E2E2E2E2E2E2E2E2E2E2E2E2E2E2E2E2E2E2E2E2E2E2E2E2E2E2E2E2E2E2E2E2E2E2E2E2E2E2E2E2E2E2E2E2E2E2E2E2E2E2E2E2E2E2E2
310
E2E2E2E2E2E2E2E2E2E2E2E2E2E2E2E2E2E2E2E2E2E2E2E2E2E2E2E2E2E2E2E2E2E2E2E2E2E2E2E2E2E2E2E2E2E2E2E2E2E2E2E2E2E2E2E2E2E2E2E2E2E2E2E2E2E2E2E2E2E2E2E2E2E2E2E2E2E2E2E2E2E2E2E2E2E2E2E2E2E2E2E2E2E2E2E2E2E2E2E2E2E2E2E2E2E2E2E2E2E2E2E2E2E2E2E2E2E2E2E2E2E2E2E2E2E2E2
310
E2E2E2E2E2E2E2E2E2E2E2E2E2E2E2E2E2E2E2E2E2E2E2E2E2E2E2E2E2E2E2E2E2E2E2E2E2E2E2E2E2E2E2E2E2E2E2E2E2E2E2E2E2E2E2E2E2E2E2E2E2E2E2E2E2E2E2E2E2E2E2E2E2E2E2E2E2E2E2E2E2E2E2E2E2E2E2E2E2E2E2E2E2E2E2E2E2E2E2E2E2E2E2E2E2E2E2E2E2E2E2E2E2E2E2E2E2E2E2E2E2E2E2E2E2E2E2
310
E2E2E2E2E2E2E2E2E2E2E2E2E2E2E2E2E2E2E2E2E2E2E2E2E2E2E2E2E2E2E2E2E2E2E2E2E2E2E2E2E2E2E2E2E2E2E2E2E2E2E2E2E2E2E2E2E2E2E2E2E2E2E2E2E2E2E2E2E2E2E2E2E2E2E2E2E2E2E2E2E2E2E2E2E2E2E2E2E2E2E2E2E2E2E2E2E2E2E2E2E2E2E2E2E2E2E2E2E2E2E2E2E2E2E2E2E2E2E2E2E2E2E2E2E2E2E2
310
E2E2E2E2E2E2E2E2E2E2E2E2E2E2E2E2E2E2E2E2E2E2E2E2E2E2E2E2E2E2E2E2E2E2E2E2E2E2E2E2E2E2E2E2E2E2E2E2E2E2E2E2E2E2E2E2E2E2E2E2E2E2E2E2E2E2E2E2E2E2E2E2E2E2E2E2E2E2E2E2E2E2E2E2E2E2E2E2E2E2E2E2E2E2E2E2E2E2E2E2E2E2E2E2E2E2E2E2E2E2E2E2E2E2E2E2E2E2E2E2E2E2E2E2E2E2E2
310
E2E2E2E2E2E2E2E2E2E2E2E2E2E2E2E2E2E2E2E2E2E2E2E2E2E2E2E2E2E2E2E2E2E2E2E2E2E2E2E2E2E2E2E2E2E2E2E2E2E2E2E2E2E2E2E2E2E2E2E2E2E2E2E2E2E2E2E2E2E2E2E2E2E2E2E2E2E2E2E2E2E2E2E2E2E2E2E2E2E2E2E2E2E2E2E2E2E2E2E2E2E2E2E2E2E2E2E2E2E2E2E2E2E2E2E2E2E2E2E2E2E2E2E2E2E2E2
310
E2E2E2E2E2E2E2E2E2E2E2E2E2E2E2E2E2E2E2E2E2E2E2E2E2E2E2E2E2E2E2E2E2E2E2E2E2E2E2E2E2E2E2E2E2E2E2E2E2E2E2E2E2E2E2E2E2E2E2E2E2E2E2E2E2E2E2E2E2E2E2E2E2E2E2E2E2E2E2E2E2E2E2E2E2E2E2E2E2E2E2E2E2E2E2E2E2E2E2E2E2E2E2E2E2E2E2E2E2E2E2E2E2E2E2E2E2E2E2E2E2E2E2E2E2E2E2
310
E2E2E2E2E2E2E2E2E2E2E2E2E2E2E2E2E2E2E2E2E2E2E2E2E2E2E2E2E2E2E2E2E2E2E2E2E2E2E2E2E2E2E2E2E2E2E2E2E2E2E2E2E2E2E2E2E2E2E2E2E2E2E2E2E2E2E2E2E2E2E2E2E2E2E2E2E2E2E2E2E2E2E2E2E2E2E2E2E2E2E2E2E2E2E2E2E2E2E2E2E2E2E2E2E2E2E2E2E2E2E2E2E2E2E2E2E2E2E2E2E2E2E2E2E2E2E2
310
E2E2E2E2E2E2E2E2E2E2E2E2E2E2E2E2E2E2E2E2E2E2E2E2E2E2E2E2E2E2E2E2E2E2E2E2E2E2E2E2E2E2E2E2E2E2E2E2E2E2E2E2E2E2E2E2E2E2E2E2E2E2E2E2E2E2E2E2E2E2E2E2E2E2E2E2E2E2E2E2E2E2E2E2E2E2E2E2E2E2E2E2E2E2E2E2E2E2E2E2E2E2E2E2E2E2E2E2E2E2E2E2E2E2E2E2E2E2E2E2E2E2E2E2E2E2E2
310
E2E2E2E2E2E2E2E2E2E2E2E2E2E2E2E2E2E2E2E2E2E2E2E2E2E2E2E2E2E2E2E2E2E2E2E2E2E2E2E2E2E2E2E2E2E2E2E2E2E2E2E2E2E2E2E2E2E2E2E2E2E2E2E2E2E2E2E2E2E2E2E2E2E2E2E2E2E2E2E2E2E2E2E2E2E2E2E2E2E2E2E2E2E2E2E2E2E2E2E2E2E2E2E2E2E2E2E2E2E2E2E2E2E2E2E2E2E2E2E2E2E2E2E2E2E2E2
310
E2E2E2E2E2E2E2E2E2E2E2E2E2E2E2E2E2E2E2E2E2E2E2E2E2E2E2E2E2E2E2E2E2E2E2E2E2E2E2E2E2E2E2E2E2E2E2E2E2E2E2E2E2E2E2E2E2E2E2E2E2E2E2E2E2E2E2E2E2E2E2E2E2E2E2E2E2E2E2E2E2E2E2E2E2E2E2E2E2E2E2E2E2E2E2E2E2E2E2E2E2E2E2E2E2E2E2E2E2E2E2E2E2E2E2E2E2E2E2E2E2E2E2E2E2E2E2
310
E2E2E2E2E2E2E2E2E2E2E2E2E2E2E2E2E2E2E2E2E2E2E2E2E2E2E2E2E2E2E2E2E2E2E2E2E2E2E2E2E2E2E2E2E2E2E2E2E2E2E2E2E2E2E2E2E2E2E2E2E2E2E2E2E2E2E2E2E2E2E2E2E2E2E2E2E2E2E2E2E2E2E2E2E2E2E2E2E2E2E2E2E2E2E2E2E2E2E2E2E2E2E2E2E2E2E2E2E2E2E2E2E2E2E2E2E2E2E2E2E2E2E2E2E2E2E2
310
E2E2E2E2E2E2E2E2E2E2E2E2E2E2E2E2E2E2E2E2E2E2E2E2E2E2E2E2E2E2E2E2E2E2E2E2E2E2E2E2E2E2E2E2E2E2E2E2E2E2E2E2E2E2E2E2E2E2E2E2E2E2E2E2E2E2E2E2E2E2E2E2E2E2E2E2E2E2E2E2E2E2E2E2E2E2E2E2E2E2E2E2E2E2E2E2E2E2E2E2E2E2E2E2E2E2E2E2E2E2E2E2E2E2E2E2E2E2E2E2E2E2E2E2E2E2E2
310
E2E2E2E2E2E2E2E2E2E2E2E2E2E2E2E2E2E2E2E2E2E2E2E2E2E2E2E2E2E2E2E2E2E2E2E2E2E2E2E2E2E2E2E2E2E2E2E2E2E2E2E2E2E2E2E2E2E2E2E2E2E2E2E2E2E2E2E2E2E2E2E2E2E2E2E2E2E2E2E2E2E2E2E2E2E2E2E2E2E2E2E2E2E2E2E2E2E2E2E2E2E2E2E2E2E2E2E2E2E2E2E2E2E2E2E2E2E2E2E2E2E2E2E2E2E2E2
310
E2E2E2E2E2E2E2E2E2E2E2E2E2E2E2E2E2E2E2E2E2E2E2E2E2E2E2E2E2E2E2E2E2E2E2E2E2E2E2E2E2E2E2E2E2E2E2E2E2E2E2E2E2E2E2E2E2E2E2E2E2E2E2E2E2E2E2E2E2E2E2E2E2E2E2E2E2E2E2E2E2E2E2E2E2E2E2E2E2E2E2E2E2E2E2E2E2E2E2E2E2E2E2E2E2E2E2E2E2E2E2E2E2E2E2E2E2E2E2E2E2E2E2E2E2E2E2
310
E2E2E2E2E2E2E2E2E2E2E2E2E2E2E2E2E2E2E2E2E2E2E2E2E2E2E2E2E2E2E2E2E2E2E2E2E2E2E2E2E2E2E2E2E2E2E2E2E2E2E2E2E2E2E2E2E2E2E2E2E2E2E2E2E2E2E2E2E2E2E2E2E2E2E2E2E2E2E2E2E2E2E2E2E2E2E2E2E2E2E2E2E2E2E2E2E2E2E2E2E2E2E2E2E2E2E2E2E2E2E2E2E2E2E2E2E2E2E2E2E2E2E2E2E2E2E2
310
E2E2E2E2E2E2E2E2E2E2E2E2E2E2E2E2E2E2E2E2E2E2E2E2E2E2E2E2E2E2E2E2E2E2E2E2E2E2E2E2E2E2E2E2E2E2E2E2E2E2E2E2E2E2E2E2E2E2E2E2E2E2E2E2E2E2E2E2E2E2E2E2E2E2E2E2E2E2E2E2E2E2E2E2E2E2E2E2E2E2E2E2E2E2E2E2E2E2E2E2E2E2E2E2E2E2E2E2E2E2E2E2E2E2E2E2E2E2E2E2E2E2E2E2E2E2E2
310
E2E2E2E2E2E2E2E2E2E2E2E2E2E2E2E2E2E2E2E2E2E2E2E2E2E2E2E2E2E2E2E2E2E2E2E2E2E2E2E2E2E2E2E2E2E2E2E2E2E2E2E2E2E2E2E2E2E2E2E2E2E2E2E2E2E2E2E2E2E2E2E2E2E2E2E2E2E2E2E2E2E2E2E2E2E2E2E2E2E2E2E2E2E2E2E2E2E2E2E2E2E2E2E2E2E2E2E2E2E2E2E2E2E2E2E2E2E2E2E2E2E2E2E2E2E2E2
310
E2E2E2E2E2E2E2E2E2E2E2E2E2E2E2E2E2E2E2E2E2E2E2E2E2E2E2E2E2E2E2E2E2E2E2E2E2E2E2E2E2E2E2E2E2E2E2E2E2E2E2E2E2E2E2E2E2E2E2E2E2E2E2E2E2E2E2E2E2E2E2E2E2E2E2E2E2E2E2E2E2E2E2E2E2E2E2E2E2E2E2E2E2E2E2E2E2E2E2E2E2E2E2E2E2E2E2E2E2E2E2E2E2E2E2E2E2E2E2E2E2E2E2E2E2E2E2
310
E2E2E2E2E2E2E2E2E2E2E2E2E2E2E2E2E2E2E2E2E2E2E2E2E2E2E2E2E2E2E2E2E2E2E2E2E2E2E2E2E2E2E2E2E2E2E2E2E2E2E2E2E2E2E2E2E2E2E2E2E2E2E2E2E2E2E2E2E2E2E2E2E2E2E2E2E2E2E2E2E2E2E2E2E2E2E2E2E2E2E2E2E2E2E2E2E2E2E2E2E2E2E2E2E2E2E2E2E2E2E2E2E2E2E2E2E2E2E2E2E2E2E2E2E2E2E2
310
E2E2E2E2E2E2E2E2E2E2E2E2E2E2E2E2E2E2E2E2E2E2E2E2E2E2E2E2E2E2E2E2E2E2E2E2E2E2E2E2E2E2E2E2E2E2E2E2E2E2E2E2E2E2E2E2E2E2E2E2E2E2E2E2E2E2E2E2E2E2E2E2E2E2E2E2E2E2E2E2E2E2E2E2E2E2E2E2E2E2E2E2E2E2E2E2E2E2E2E2E2E2E2E2E2E2E2E2E2E2E2E2E2E2E2E2E2E2E2E2E2E2E2E2E2E2E2
310
E2E2E2E2E2E2E2E2E2E2E2E2E2E2E2E2E2E2E2E2E2E2E2E2E2E2E2E2E2E2E2E2E2E2E2E2E2E2E2E2E2E2E2E2E2E2E2E2E2E2E2E2E2E2E2E2E2E2E2E2E2E2E2E2E2E2E2E2E2E2E2E2E2E2E2E2E2E2E2E2E2E2E2E2E2E2E2E2E2E2E2E2E2E2E2E2E2E2E2E2E2E2E2E2E2E2E2E2E2E2E2E2E2E2E2E2E2E2E2E2E2E2E2E2E2E2E2
310
E2E2E2E2E2E2E2E2E2E2E2E2E2E2E2E2E2E2E2E2E2E2E2E2E2E2E2E2E2E2E2E2E2E2E2E2E2E2E2E2E2E2E2E2E2E2E2E2E2E2E2E2E2E2E2E2E2E2E2E2E2E2E2E2E2E2E2E2E2E2E2E2E2E2E2E2E2E2E2E2E2E2E2E2E2E2E2E2E2E2E2E2E2E2E2E2E2E2E2E2E2E2E2E2E2E2E2E2E2E2E2E2E2E2E2E2E2E2E2E2E2E2E2E2E2E2E2
310
E2E2E2E2E2E2E2E2E2E2E2E2E2E2E2E2E2E2E2E2E2E2E2E2E2E2E2E2E2E2E2E2E2E2E2E2E2E2E2E2E2E2E2E2E2E2E2E2E2E2E2E2E2E2E2E2E2E2E2E2E2E2E2E2E2E2E2E2E2E2E2E2E2E2E2E2E2E2E2E2E2E2E2E2E2E2E2E2E2E2E2E2E2E2E2E2E2E2E2E2E2E2E2E2E2E2E2E2E2E2E2E2E2E2E2E2E2E2E2E2E2E2E2E2E2E2E2
310
E2E2E2E2E2E2E2E2E2E2E2E2E2E2E2E2E2E2E2E2E2E2E2E2E2E2E2E2E2E2E2E2E2E2E2E2E2E2E2E2E2E2E2E2E2E2E2E2E2E2E2E2E2E2E2E2E2E2E2E2E2E2E2E2E2E2E2E2E2E2E2E2E2E2E2E2E2E2E2E2E2E2E2E2E2E2E2E2E2E2E2E2E2E2E2E2E2E2E2E2E2E2E2E2E2E2E2E2E2E2E2E2E2E2E2E2E2E2E2E2E2E2E2E2E2E2E2
310
E2E2E2E2E2E2E2E2E2E2E2E2E2E2E2E2E2E2E2E2E2E2E2E2E2E2E2E2E2E2E2E2E2E2E2E2E2E2E2E2E2E2E2E2E2E2E2E2E2E2E2E2E2E2E2E2E2E2E2E2E2E2E2E2E2E2E2E2E2E2E2E2E2E2E2E2E2E2E2E2E2E2E2E2E2E2E2E2E2E2E2E2E2E2E2E2E2E2E2E2E2E2E2E2E2E2E2E2E2E2E2E2E2E2E2E2E2E2E2E2E2E2E2E2E2E2E2
310
E2E2E2E2E2E2E2E2E2E2E2E2E2E2E2E2E2E2E2E2E2E2E2E2E2E2E2E2E2E2E2E2E2E2E2E2E2E2E2E2E2E2E2E2E2E2E2E2E2E2E2E2E2E2E2E2E2E2E2E2E2E2E2E2E2E2E2E2E2E2E2E2E2E2E2E2E2E2E2E2E2E2E2E2E2E2E2E2E2E2E2E2E2E2E2E2E2E2E2E2E2E2E2E2E2E2E2E2E2E2E2E2E2E2E2E2E2E2E2E2E2E2E2E2E2E2E2
310
E2E2E2E2E2E2E2E2E2E2E2E2E2E2E2E2E2E2E2E2E2E2E2E2E2E2E2E2E2E2E2E2E2E2E2E2E2E2E2E2E2E2E2E2E2E2E2E2E2E2E2E2E2E2E2E2E2E2E2E2E2E2E2E2E2E2E2E2E2E2E2E2E2E2E2E2E2E2E2E2E2E2E2E2E2E2E2E2E2E2E2E2E2E2E2E2E2E2E2E2E2E2E2E2E2E2E2E2E2E2E2E2E2E2E2E2E2E2E2E2E2E2E2E2E2E2E2
310
E2E2E2E2E2E2E2E2E2E2E2E2E2E2E2E2E2E2E2E2E2E2E2E2E2E2E2E2E2E2E2E2E2E2E2E2E2E2E2E2E2E2E2E2E2E2E2E2E2E2E2E2E2E2E2E2E2E2E2E2E2E2E2E2E2E2E2E2E2E2E2E2E2E2E2E2E2E2E2E2E2E2E2E2E2E2E2E2E2E2E2E2E2E2E2E2E2E2E2E2E2E2E2E2E2E2E2E2E2E2E2E2E2E2E2E2E2E2E2E2E2E2E2E2E2E2E2
310
E2E2E2E2E2E2E2E2E2E2E2E2E2E2E2E2E2E2E2E2E2E2E2E2E2E2E2E2E2E2E2E2E2E2E2E2E2E2E2E2E2E2E2E2E2E2E2E2E2E2E2E2E2E2E2E2E2E2E2E2E2E2E2E2E2E2E2E2E2E2E2E2E2E2E2E2E2E2E2E2E2E2E2E2E2E2E2E2E2E2E2E2E2E2E2E2E2E2E2E2E2E2E2E2E2E2E2E2E2E2E2E2E2E2E2E2E2E2E2E2E2E2E2E2E2E2E2
310
E2E2E2E2E2E2E2E2E2E2E2E2E2E2E2E2E2E2E2E2E2E2E2E2E2E2E2E2E2E2E2E2E2E2E2E2E2E2E2E2E2E2E2E2E2E2E2E2E2E2E2E2E2E2E2E2E2E2E2E2E2E2E2E2E2E2E2E2E2E2E2E2E2E2E2E2E2E2E2E2E2E2E2E2E2E2E2E2E2E2E2E2E2E2E2E2E2E2E2E2E2E2E2E2E2E2E2E2E2E2E2E2E2E2E2E2E2E2E2E2E2E2E2E2E2E2E2
310
E2E2E2E2E2E2E2E2E2E2E2E2E2E2E2E2E2E2E2E2E2E2E2E2E2E2E2E2E2E2E2E2E2E2E2E2E2E2E2E2E2E2E2E2E2E2E2E2E2E2E2E2E2E2E2E2E2E2E2E2E2E2E2E2E2E2E2E2E2E2E2E2E2E2E2E2E2E2E2E2E2E2E2E2E2E2E2E2E2E2E2E2E2E2E2E2E2E2E2E2E2E2E2E2E2E2E2E2E2E2E2E2E2E2E2E2E2E2E2E2E2E2E2E2E2E2E2
310
E2E2E2E2E2E2E2E2E2E2E2E2E2E2E2E2E2E2E2E2E2E2E2E2E2E2E2E2E2E2E2E2E2E2E2E2E2E2E2E2E2E2E2E2E2E2E2E2E2E2E2E2E2E2E2E2E2E2E2E2E2E2E2E2E2E2E2E2E2E2E2E2E2E2E2E2E2E2E2E2E2E2E2E2E2E2E2E2E2E2E2E2E2E2E2E2E2E2E2E2E2E2E2E2E2E2E2E2E2E2E2E2E2E2E2E2E2E2E2E2E2E2E2E2E2E2E2
310
E2E2E2E2E2E2E2E2E2E2E2E2E2E2E2E2E2E2E2E2E2E2E2E2E2E2E2E2E2E2E2E2E2E2E2E2E2E2E2E2E2E2E2E2E2E2E2E2E2E2E2E2E2E2E2E2E2E2E2E2E2E2E2E2E2E2E2E2E2E2E2E2E2E2E2E2E2E2E2E2E2E2E2E2E2E2E2E2E2E2E2E2E2E2E2E2E2E2E2E2E2E2E2E2E2E2E2E2E2E2E2E2E2E2E2E2E2E2E2E2E2E2E2E2E2E2E2
310
E2E2E2E2E2E2E2E2E2E2E2E2E2E2E2E2E2E2E2E2E2E2E2E2E2E2E2E2E2E2E2E2E2E2E2E2E2E2E2E2E2E2E2E2E2E2E2E2E2E2E2E2E2E2E2E2E2E2E2E2E2E2E2E2E2E2E2E2E2E2E2E2E2E2E2E2E2E2E2E2E2E2E2E2E2E2E2E2E2E2E2E2E2E2E2E2E2E2E2E2E2E2E2E2E2E2E2E2E2E2E2E2E2E2E2E2E2E2E2E2E2E2E2E2E2E2E2
310
E2E2E2E2E2E2E2E2E2E2E2E2E2E2E2E2E2E2E2E2E2E2E2E2E2E2E2E2E2E2E2E2E2E2E2E2E2E2E2E2E2E2E2E2E2E2E2E2E2E2E2E2E2E2E2E2E2E2E2E2E2E2E2E2E2E2E2E2E2E2E2E2E2E2E2E2E2E2E2E2E2E2E2E2E2E2E2E2E2E2E2E2E2E2E2E2E2E2E2E2E2E2E2E2E2E2E2E2E2E2E2E2E2E2E2E2E2E2E2E2E2E2E2E2E2E2E2
310
E2E2E2E2E2E2E2E2E2E2E2E2E2E2E2E2E2E2E2E2E2E2E2E2E2E2E2E2E2E2E2E2E2E2E2E2E2E2E2E2E2E2E2E2E2E2E2E2E2E2E2E2E2E2E2E2E2E2E2E2E2E2E2E2E2E2E2E2E2E2E2E2E2E2E2E2E2E2E2E2E2E2E2E2E2E2E2E2E2E2E2E2E2E2E2E2E2E2E2E2E2E2E2E2E2E2E2E2E2E2E2E2E2E2E2E2E2E2E2E2E2E2E2E2E2E2E2
310
E2E2E2E2E2E2E2E2E2E2E2E2E2E2E2E2E2E2E2E2E2E2E2E2E2E2E2E2E2E2E2E2E2E2E2E2E2E2E2E2E2E2E2E2E2E2E2E2E2E2E2E2E2E2E2E2E2E2E2E2E2E2E2E2E2E2E2E2E2E2E2E2E2E2E2E2E2E2E2E2E2E2E2E2E2E2E2E2E2E2E2E2E2E2E2E2E2E2E2E2E2E2E2E2E2E2E2E2E2E2E2E2E2E2E2E2E2E2E2E2E2E2E2E2E2E2E2
310
E2E2E2E2E2E2E2E2E2E2E2E2E2E2E2E2E2E2E2E2E2E2E2E2E2E2E2E2E2E2E2E2E2E2E2E2E2E2E2E2E2E2E2E2E2E2E2E2E2E2E2E2E2E2E2E2E2E2E2E2E2E2E2E2E2E2E2E2E2E2E2E2E2E2E2E2E2E2E2E2E2E2E2E2E2E2E2E2E2E2E2E2E2E2E2E2E2E2E2E2E2E2E2E2E2E2E2E2E2E2E2E2E2E2E2E2E2E2E2E2E2E2E2E2E2E2E2
310
E2E2E2E2E2E2E2E2E2E2E2E2E2E2E2E2E2E2E2E2E2E2E2E2E2E2E2E2E2E2E2E2E2E2E2E2E2E2E2E2E2E2E2E2E2E2E2E2E2E2E2E2E2E2E2E2E2E2E2E2E2E2E2E2E2E2E2E2E2E2E2E2E2E2E2E2E2E2E2E2E2E2E2E2E2E2E2E2E2E2E2E2E2E2E2E2E2E2E2E2E2E2E2E2E2E2E2E2E2E2E2E2E2E2E2E2E2E2E2E2E2E2E2E2E2E2E2
310
E2E2E2E2E2E2E2E2E2E2E2E2E2E2E2E2E2E2E2E2E2E2E2E2E2E2E2E2E2E2E2E2E2E2E2E2E2E2E2E2E2E2E2E2E2E2E2E2E2E2E2E2E2E2E2E2E2E2E2E2E2E2E2E2E2E2E2E2E2E2E2E2E2E2E2E2E2E2E2E2E2E2E2E2E2E2E2E2E2E2E2E2E2E2E2E2E2E2E2E2E2E2E2E2E2E2E2E2E2E2E2E2E2E2E2E2E2E2E2E2E2E2E2E2E2E2E2
310
E2E2E2E2E2E2E2E2E2E2E2E2E2E2E2E2E2E2E2E2E2E2E2E2E2E2E2E2E2E2E2E2E2E2E2E2E2E2E2E2E2E2E2E2E2E2E2E2E2E2E2E2E2E2E2E2E2E2E2E2E2E2E2E2E2E2E2E2E2E2E2E2E2E2E2E2E2E2E2E2E2E2E2E2E2E2E2E2E2E2E2E2E2E2E2E2E2E2E2E2E2E2E2E2E2E2E2E2E2E2E2E2E2E2E2E2E2E2E2E2E2E2E2E2E2E2E2
310
E2E2E2E2E2E2E2E2E2E2E2E2E2E2E2E2E2E2E2E2E2E2E2E2E2E2E2E2E2E2E2E2E2E2E2E2E2E2E2E2E2E2E2E2E2E2E2E2E2E2E2E2E2E2E2E2E2E2E2E2E2E2E2E2E2E2E2E2E2E2E2E2E2E2E2E2E2E2E2E2E2E2E2E2E2E2E2E2E2E2E2E2E2E2E2E2E2E2E2E2E2E2E2E2E2E2E2E2E2E2E2E2E2E2E2E2E2E2E2E2E2E2E2E2E2E2E2
310
E2E2E2E2E2E2E2E2E2E2E2E2E2E2E2E2E2E2E2E2E2E2E2E2E2E2E2E2E2E2E2E2E2E2E2E2E2E2E2E2E2E2E2E2E2E2E2E2E2E2E2E2E2E2E2E2E2E2E2E2E2E2E2E2E2E2E2E2E2E2E2E2E2E2E2E2E2E2E2E2E2E2E2E2E2E2E2E2E2E2E2E2E2E2E2E2E2E2E2E2E2E2E2E2E2E2E2E2E2E2E2E2E2E2E2E2E2E2E2E2E2E2E2E2E2E2E2
310
E2E2E2E2E2E2E2E2E2E2E2E2E2E2E2E2E2E2E2E2E2E2E2E2E2E2E2E2E2E2E2E2E2E2E2E2E2E2E2E2E2E2E2E2E2E2E2E2E2E2E2E2E2E2E2E2E2E2E2E2E2E2E2E2E2E2E2E2E2E2E2E2E2E2E2E2E2E2E2E2E2E2E2E2E2E2E2E2E2E2E2E2E2E2E2E2E2E2E2E2E2E2E2E2E2E2E2E2E2E2E2E2E2E2E2E2E2E2E2E2E2E2E2E2E2E2E2
310
E2E2E2E2E2E2E2E2E2E2E2E2E2E2E2E2E2E2E2E2E2E2E2E2E2E2E2E2E2E2E2E2E2E2E2E2E2E2E2E2E2E2E2E2E2E2E2E2E2E2E2E2E2E2E2E2E2E2E2E2E2E2E2E2E2E2E2E2E2E2E2E2E2E2E2E2E2E2E2E2E2E2E2E2E2E2E2E2E2E2E2E2E2E2E2E2E2E2E2E2E2E2E2E2E2E2E2E2E2E2E2E2E2E2E2E2E2E2E2E2E2E2E2E2E2E2E2
310
E2E2E2E2E2E2E2E2E2E2E2E2E2E2E2E2E2E2E2E2E2E2E2E2E2E2E2E2E2E2E2E2E2E2E2E2E2E2E2E2E2E2E2E2E2E2E2E2E2E2E2E2E2E2E2E2E2E2E2E2E2E2E2E2E2E2E2E2E2E2E2E2E2E2E2E2E2E2E2E2E2E2E2E2E2E2E2E2E2E2E2E2E2E2E2E2E2E2E2E2E2E2E2E2E2E2E2E2E2E2E2E2E2E2E2E2E2E2E2E2E2E2E2E2E2E2E2
310
E2E2E2E2E2E2E2E2E2E2E2E2E2E2E2E2E2E2E2E2E2E2E2E2E2E2E2E2E2E2E2E2E2E2E2E2E2E2E2E2E2E2E2E2E2E2E2E2E2E2E2E2E2E2E2E2E2E2E2E2E2E2E2E2E2E2E2E2E2E2E2E2E2E2E2E2E2E2E2E2E2E2E2E2E2E2E2E2E2E2E2E2E2E2E2E2E2E2E2E2E2E2E2E2E2E2E2E2E2E2E2E2E2E2E2E2E2E2E2E2E2E2E2E2E2E2E2
310
E2E2E2E2E2E2E2E2E2E2E2E2E2E2E2E2E2E2E2E2E2E2E2E2E2E2E2E2E2E2E2E2E2E2E2E2E2E2E2E2E2E2E2E2E2E2E2E2E2E2E2E2E2E2E2E2E2E2E2E2E2E2E2E2E2E2E2E2E2E2E2E2E2E2E2E2E2E2E2E2E2E2E2E2E2E2E2E2E2E2E2E2E2E2E2E2E2E2E2E2E2E2E2E2E2E2E2E2E2E2E2E2E2E2E2E2E2E2E2E2E2E2E2E2E2E2E2
310
E2E2E2E2E2E2E2E2E2E2E2E2E2E2E2E2E2E2E2E2E2E2E2E2E2E2E2E2E2E2E2E2E2E2E2E2E2E2E2E2E2E2E2E2E2E2E2E2E2E2E2E2E2E2E2E2E2E2E2E2E2E2E2E2E2E2E2E2E2E2E2E2E2E2E2E2E2E2E2E2E2E2E2E2E2E2E2E2E2E2E2E2E2E2E2E2E2E2E2E2E2E2E2E2E2E2E2E2E2E2E2E2E2E2E2E2E2E2E2E2E2E2E2E2E2E2E2
310
E2E2E2E2E2E2E2E2E2E2E2E2E2E2E2E2E2E2E2E2E2E2E2E2E2E2E2E2E2E2E2E2E2E2E2E2E2E2E2E2E2E2E2E2E2E2E2E2E2E2E2E2E2E2E2E2E2E2E2E2E2E2E2E2E2E2E2E2E2E2E2E2E2E2E2E2E2E2E2E2E2E2E2E2E2E2E2E2E2E2E2E2E2E2E2E2E2E2E2E2E2E2E2E2E2E2E2E2E2E2E2E2E2E2E2E2E2E2E2E2E2E2E2E2E2E2E2
310
E2E2E2E2E2E2E2E2E2E2E2E2E2E2E2E2E2E2E2E2E2E2E2E2E2E2E2E2E2E2E2E2E2E2E2E2E2E2E2E2E2E2E2E2E2E2E2E2E2E2E2E2E2E2E2E2E2E2E2E2E2E2E2E2E2E2E2E2E2E2E2E2E2E2E2E2E2E2E2E2E2E2E2E2E2E2E2E2E2E2E2E2E2E2E2E2E2E2E2E2E2E2E2E2E2E2E2E2E2E2E2E2E2E2E2E2E2E2E2E2E2E2E2E2E2E2E2
310
E2E2E2E2E2E2E2E2E2E2E2E2E2E2E2E2E2E2E2E2E2E2E2E2E2E2E2E2E2E2E2E2E2E2E2E2E2E2E2E2E2E2E2E2E2E2E2E2E2E2E2E2E2E2E2E2E2E2E2E2E2E2E2E2E2E2E2E2E2E2E2E2E2E2E2E2E2E2E2E2E2E2E2E2E2E2E2E2E2E2E2E2E2E2E2E2E2E2E2E2E2E2E2E2E2E2E2E2E2E2E2E2E2E2E2E2E2E2E2E2E2E2E2E2E2E2E2
310
E2E2E2E2E2E2E2E2E2E2E2E2E2E2E2E2E2E2E2E2E2E2E2E2E2E2E2E2E2E2E2E2E2E2E2E2E2E2E2E2E2E2E2E2E2E2E2E2E2E2E2E2E2E2E2E2E2E2E2E2E2E2E2E2E2E2E2E2E2E2E2E2E2E2E2E2E2E2E2E2E2E2E2E2E2E2E2E2E2E2E2E2E2E2E2E2E2E2E2E2E2E2E2E2E2E2E2E2E2E2E2E2E2E2E2E2E2E2E2E2E2E2E2E2E2E2E2
310
E2E2E2E2E2E2E2E2E2E2E2E2E2E2E2E2E2E2E2E2E2E2E2E2E2E2E2E2E2E2E2E2E2E2E2E2E2E2E2E2E2E2E2E2E2E2E2E2E2E2E2E2E2E2E2E2E2E2E2E2E2E2E2E2E2E2E2E2E2E2E2E2E2E2E2E2E2E2E2E2E2E2E2E2E2E2E2E2E2E2E2E2E2E2E2E2E2E2E2E2E2E2E2E2E2E2E2E2E2E2E2E2E2E2E2E2E2E2E2E2E2E2E2E2E2E2E2
310
E2E2E2E2E2E2E2E2E2E2E2E2E2E2E2E2E2E2E2E2E2E2E2E2E2E2E2E2E2E2E2E2E2E2E2E2E2E2E2E2E2E2E2E2E2E2E2E2E2E2E2E2E2E2E2E2E2E2E2E2E2E2E2E2E2E2E2E2E2E2E2E2E2E2E2E2E2E2E2E2E2E2E2E2E2E2E2E2E2E2E2E2E2E2E2E2E2E2E2E2E2E2E2E2E2E2E2E2E2E2E2E2E2E2E2E2E2E2E2E2E2E2E2E2E2E2E2
310
E2E2E2E2E2E2E2E2E2E2E2E2E2E2E2E2E2E2E2E2E2E2E2E2E2E2E2E2E2E2E2E2E2E2E2E2E2E2E2E2E2E2E2E2E2E2E2E2E2E2E2E2E2E2E2E2E2E2E2E2E2E2E2E2E2E2E2E2E2E2E2E2E2E2E2E2E2E2E2E2E2E2E2E2E2E2E2E2E2E2E2E2E2E2E2E2E2E2E2E2E2E2E2E2E2E2E2E2E2E2E2E2E2E2E2E2E2E2E2E2E2E2E2E2E2E2E2
310
E2E2E2E2E2E2E2E2E2E2E2E2E2E2E2E2E2E2E2E2E2E2E2E2E2E2E2E2E2E2E2E2E2E2E2E2E2E2E2E2E2E2E2E2E2E2E2E2E2E2E2E2E2E2E2E2E2E2E2E2E2E2E2E2E2E2E2E2E2E2E2E2E2E2E2E2E2E2E2E2E2E2E2E2E2E2E2E2E2E2E2E2E2E2E2E2E2E2E2E2E2E2E2E2E2E2E2E2E2E2E2E2E2E2E2E2E2E2E2E2E2E2E2E2E2E2E2
310
E2E2E2E2E2E2E2E2E2E2E2E2E2E2E2E2E2E2E2E2E2E2E2E2E2E2E2E2E2E2E2E2E2E2E2E2E2E2E2E2E2E2E2E2E2E2E2E2E2E2E2E2E2E2E2E2E2E2E2E2E2E2E2E2E2E2E2E2E2E2E2E2E2E2E2E2E2E2E2E2E2E2E2E2E2E2E2E2E2E2E2E2E2E2E2E2E2E2E2E2E2E2E2E2E2E2E2E2E2E2E2E2E2E2E2E2E2E2E2E2E2E2E2E2E2E2E2
310
E2E2E2E2E2E2E2E2E2E2E2E2E2E2E2E2E2E2E2E2E2E2E2E2E2E2E2E2E2E2E2E2E2E2E2E2E2E2E2E2E2E2E2E2E2E2E2E2E2E2E2E2E2E2E2E2E2E2E2E2E2E2E2E2E2E2E2E2E2E2E2E2E2E2E2E2E2E2E2E2E2E2E2E2E2E2E2E2E2E2E2E2E2E2E2E2E2E2E2E2E2E2E2E2E2E2E2E2E2E2E2E2E2E2E2E2E2E2E2E2E2E2E2E2E2E2E2
310
E2E2E2E2E2E2E2E2E2E2E2E2E2E2E2E2E2E2E2E2E2E2E2E2E2E2E2E2E2E2E2E2E2E2E2E2E2E2E2E2E2E2E2E2E2E2E2E2E2E2E2E2E2E2E2E2E2E2E2E2E2E2E2E2E2E2E2E2E2E2E2E2E2E2E2E2E2E2E2E2E2E2E2E2E2E2E2E2E2E2E2E2E2E2E2E2E2E2E2E2E2E2E2E2E2E2E2E2E2E2E2E2E2E2E2E2E2E2E2E2E2E2E2E2E2E2E2
310
E2E2E2E2E2E2E2E2E2E2E2E2E2E2E2E2E2E2E2E2E2E2E2E2E2E2E2E2E2E2E2E2E2E2E2E2E2E2E2E2E2E2E2E2E2E2E2E2E2E2E2E2E2E2E2E2E2E2E2E2E2E2E2E2E2E2E2E2E2E2E2E2E2E2E2E2E2E2E2E2E2E2E2E2E2E2E2E2E2E2E2E2E2E2E2E2E2E2E2E2E2E2E2E2E2E2E2E2E2E2E2E2E2E2E2E2E2E2E2E2E2E2E2E2E2E2E2
310
E2E2E2E2E2E2E2E2E2E2E2E2E2E2E2E2E2E2E2E2E2E2E2E2E2E2E2E2E2E2E2E2E2E2E2E2E2E2E2E2E2E2E2E2E2E2E2E2E2E2E2E2E2E2E2E2E2E2E2E2E2E2E2E2E2E2E2E2E2E2E2E2E2E2E2E2E2E2E2E2E2E2E2E2E2E2E2E2E2E2E2E2E2E2E2E2E2E2E2E2E2E2E2E2E2E2E2E2E2E2E2E2E2E2E2E2E2E2E2E2E2E2E2E2E2E2E2
310
E2E2E2E2E2E2E2E2E2E2E2E2E2E2E2E2E2E2E2E2E2E2E2E2E2E2E2E2E2E2E2E2E2E2E2E2E2E2E2E2E2E2E2E2E2E2E2E2E2E2E2E2E2E2E2E2E2E2E2E2E2E2E2E2E2E2E2E2E2E2E2E2E2E2E2E2E2E2E2E2E2E2E2E2E2E2E2E2E2E2E2E2E2E2E2E2E2E2E2E2E2E2E2E2E2E2E2E2E2E2E2E2E2E2E2E2E2E2E2E2E2E2E2E2E2E2E2
310
E2E2E2E2E2E2E2E2E2E2E2E2E2E2E2E2E2E2E2E2E2E2E2E2E2E2E2E2E2E2E2E2E2E2E2E2E2E2E2E2E2E2E2E2E2E2E2E2E2E2E2E2E2E2E2E2E2E2E2E2E2E2E2E2E2E2E2E2E2E2E2E2E2E2E2E2E2E2E2E2E2E2E2E2E2E2E2E2E2E2E2E2E2E2E2E2E2E2E2E2E2E2E2E2E2E2E2E2E2E2E2E2E2E2E2E2E2E2E2E2E2E2E2E2E2E2E2
310
E2E2E2E2E2E2E2E2E2E2E2E2E2E2E2E2E2E2E2E2E2E2E2E2E2E2E2E2E2E2E2E2E2E2E2E2E2E2E2E2E2E2E2E2E2E2E2E2E2E2E2E2E2E2E2E2E2E2E2E2E2E2E2E2E2E2E2E2E2E2E2E2E2E2E2E2E2E2E2E2E2E2E2E2E2E2E2E2E2E2E2E2E2E2E2E2E2E2E2E2E2E2E2E2E2E2E2E2E2E2E2E2E2E2E2E2E2E2E2E2E2E2E2E2E2E2E2
310
E2E2E2E2E2E2E2E2E2E2E2E2E2E2E2E2E2E2E2E2E2E2E2E2E2E2E2E2E2E2E2E2E2E2E2E2E2E2E2E2E2E2E2E2E2E2E2E2E2E2E2E2E2E2E2E2E2E2E2E2E2E2E2E2E2E2E2E2E2E2E2E2E2E2E2E2E2E2E2E2E2E2E2E2E2E2E2E2E2E2E2E2E2E2E2E2E2E2E2E2E2E2E2E2E2E2E2E2E2E2E2E2E2E2E2E2E2E2E2E2E2E2E2E2E2E2E2
310
E2E2E2E2E2E2E2E2E2E2E2E2E2E2E2E2E2E2E2E2E2E2E2E2E2E2E2E2E2E2E2E2E2E2E2E2E2E2E2E2E2E2E2E2E2E2E2E2E2E2E2E2E2E2E2E2E2E2E2E2E2E2E2E2E2E2E2E2E2E2E2E2E2E2E2E2E2E2E2E2E2E2E2E2E2E2E2E2E2E2E2E2E2E2E2E2E2E2E2E2E2E2E2E2E2E2E2E2E2E2E2E2E2E2E2E2E2E2E2E2E2E2E2E2E2E2E2
310
E2E2E2E2E2E2E2E2E2E2E2E2E2E2E2E2E2E2E2E2E2E2E2E2E2E2E2E2E2E2E2E2E2E2E2E2E2E2E2E2E2E2E2E2E2E2E2E2E2E2E2E2E2E2E2E2E2E2E2E2E2E2E2E2E2E2E2E2E2E2E2E2E2E2E2E2E2E2E2E2E2E2E2E2E2E2E2E2E2E2E2E2E2E2E2E2E2E2E2E2E2E2E2E2E2E2E2E2E2E2E2E2E2E2E2E2E2E2E2E2E2E2E2E2E2E2E2
310
E2E2E2E2E2E2E2E2E2E2E2E2E2E2E2E2E2E2E2E2E2E2E2E2E2E2E2E2E2E2E2E2E2E2E2E2E2E2E2E2E2E2E2E2E2E2E2E2E2E2E2E2E2E2E2E2E2E2E2E2E2E2E2E2E2E2E2E2E2E2E2E2E2E2E2E2E2E2E2E2E2E2E2E2E2E2E2E2E2E2E2E2E2E2E2E2E2E2E2E2E2E2E2E2E2E2E2E2E2E2E2E2E2E2E2E2E2E2E2E2E2E2E2E2E2E2E2
310
E2E2E2E2E2E2E2E2E2E2E2E2E2E2E2E2E2E2E2E2E2E2E2E2E2E2E2E2E2E2E2E2E2E2E2E2E2E2E2E2E2E2E2E2E2E2E2E2E2E2E2E2E2E2E2E2E2E2E2E2E2E2E2E2E2E2E2E2E2E2E2E2E2E2E2E2E2E2E2E2E2E2E2E2E2E2E2E2E2E2E2E2E2E2E2E2E2E2E2E2E2E2E2E2E2E2E2E2E2E2E2E2E2E2E2E2E2E2E2E2E2E2E2E2E2E2E2
310
E2E2E2E2E2E2E2E2E2E2E2E2E2E2E2E2E2E2E2E2E2E2E2E2E2E2E2E2E2E2E2E2E2E2E2E2E2E2E2E2E2E2E2E2E2E2E2E2E2E2E2E2E2E2E2E2E2E2E2E2E2E2E2E2E2E2E2E2E2E2E2E2E2E2E2E2E2E2E2E2E2E2E2E2E2E2E2E2E2E2E2E2E2E2E2E2E2E2E2E2E2E2E2E2E2E2E2E2E2E2E2E2E2E2E2E2E2E2E2E2E2E2E2E2E2E2E2
310
E2E2E2E2E2E2E2E2E2E2E2E2E2E2E2E2E2E2E2E2E2E2E2E2E2E2E2E2E2E2E2E2E2E2E2E2E2E2E2E2E2E2E2E2E2E2E2E2E2E2E2E2E2E2E2E2E2E2E2E2E2E2E2E2E2E2E2E2E2E2E2E2E2E2E2E2E2E2E2E2E2E2E2E2E2E2E2E2E2E2E2E2E2E2E2E2E2E2E2E2E2E2E2E2E2E2E2E2E2E2E2E2E2E2E2E2E2E2E2E2E2E2E2E2E2E2E2
310
E2E2E2E2E2E2E2E2E2E2E2E2E2E2E2E2E2E2E2E2E2E2E2E2E2E2E2E2E2E2E2E2E2E2E2E2E2E2E2E2E2E2E2E2E2E2E2E2E2E2E2E2E2E2E2E2E2E2E2E2E2E2E2E2E2E2E2E2E2E2E2E2E2E2E2E2E2E2E2E2E2E2E2E2E2E2E2E2E2E2E2
  0
XRECORD
  5
B71
102
{ACAD_REACTORS
330
46
102
}
330
46
100
AcDbXrecord
280
     1
102
MATERIAL
148
0.0
149
0.0
149
0.0
 93
        0
 94
      127
282
     0
 72
     0
 77
     0
171
     0
175
     0
179
     0
273
     0
  0
XRECORD
  5
47
102
{ACAD_REACTORS
330
46
102
}
330
46
100
AcDbXrecord
280
     1
270
     1
271
     1
  0
XRECORD
  5
48
102
{ACAD_REACTORS
330
46
102
}
330
46
100
AcDbXrecord
280
     1
270
     1
271
     1
  0
XRECORD
  5
49
102
{ACAD_REACTORS
330
46
102
}
330
46
100
AcDbXrecord
280
     1
270
     1
271
     1
  0
XRECORD
  5
4A
102
{ACAD_REACTORS
330
46
102
}
330
46
100
AcDbXrecord
280
     1
270
     1
271
     1
  0
XRECORD
  5
4B
102
{ACAD_REACTORS
330
46
102
}
330
46
100
AcDbXrecord
280
     1
270
     1
271
     1
  0
XRECORD
  5
4C
102
{ACAD_REACTORS
330
46
102
}
330
46
100
AcDbXrecord
280
     1
270
     1
271
     1
  0
XRECORD
  5
B70
102
{ACAD_REACTORS
330
3E
102
}
330
3E
100
AcDbXrecord
280
     1
102
MATERIAL
148
0.0
149
0.0
149
0.0
 93
        0
 94
      127
282
     0
 72
     0
 77
     0
171
     0
175
     0
179
     0
273
     0
  0
XRECORD
  5
3F
102
{ACAD_REACTORS
330
3E
102
}
330
3E
100
AcDbXrecord
280
     1
270
     1
271
     1
  0
XRECORD
  5
40
102
{ACAD_REACTORS
330
3E
102
}
330
3E
100
AcDbXrecord
280
     1
270
     1
271
     1
  0
XRECORD
  5
41
102
{ACAD_REACTORS
330
3E
102
}
330
3E
100
AcDbXrecord
280
     1
270
     1
271
     1
  0
XRECORD
  5
42
102
{ACAD_REACTORS
330
3E
102
}
330
3E
100
AcDbXrecord
280
     1
270
     1
271
     1
  0
XRECORD
  5
43
102
{ACAD_REACTORS
330
3E
102
}
330
3E
100
AcDbXrecord
280
     1
270
     1
271
     1
  0
XRECORD
  5
44
102
{ACAD_REACTORS
330
3E
102
}
330
3E
100
AcDbXrecord
280
     1
270
     1
271
     1
  0
XRECORD
  5
B69
102
{ACAD_REACTORS
330
D
102
}
330
D
100
AcDbXrecord
280
     1
102
MATERIAL
148
0.0
149
0.0
149
0.0
 93
        0
 94
      127
282
     0
 72
     0
 77
     0
171
     0
175
     0
179
     0
273
     0
  0
XRECORD
  5
E
102
{ACAD_REACTORS
330
D
102
}
330
D
100
AcDbXrecord
280
     1
270
     1
271
     1
  0
XRECORD
  5
F
102
{ACAD_REACTORS
330
D
102
}
330
D
100
AcDbXrecord
280
     1
270
     1
271
     1
  0
XRECORD
  5
10
102
{ACAD_REACTORS
330
D
102
}
330
D
100
AcDbXrecord
280
     1
270
     1
271
     1
  0
XRECORD
  5
11
102
{ACAD_REACTORS
330
D
102
}
330
D
100
AcDbXrecord
280
     1
270
     1
271
     1
  0
XRECORD
  5
12
102
{ACAD_REACTORS
330
D
102
}
330
D
100
AcDbXrecord
280
     1
270
     1
271
     1
  0
XRECORD
  5
13
102
{ACAD_REACTORS
330
D
102
}
330
D
100
AcDbXrecord
280
     1
270
     1
271
     1
  0
CELLSTYLEMAP
  5
1BFF
102
{ACAD_REACTORS
330
B00
102
}
330
B00
100
AcDbCellStyleMap
 90
        3
300
CELLSTYLE
  1
TABLEFORMAT_BEGIN
 90
        5
170
     1
 91
        0
 92
    32768
 62
   257
 93
        1
300
CONTENTFORMAT
  1
CONTENTFORMAT_BEGIN
 90
        0
 91
        0
 92
        4
 93
        0
300

 40
0.0
140
1.0
 94
        5
 62
     0
340
23
144
6.0
309
CONTENTFORMAT_END
171
     1
301
MARGIN
  1
CELLMARGIN_BEGIN
 40
1.5
 40
1.5
 40
1.5
 40
1.5
 40
0.18
 40
0.18
309
CELLMARGIN_END
 94
        6
 95
        1
302
GRIDFORMAT
  1
GRIDFORMAT_BEGIN
 90
        0
 91
        1
 62
     0
 92
       -2
340
0
 93
        0
 40
0.045
309
GRIDFORMAT_END
 95
        2
302
GRIDFORMAT
  1
GRIDFORMAT_BEGIN
 90
        0
 91
        1
 62
     0
 92
       -2
340
0
 93
        0
 40
0.045
309
GRIDFORMAT_END
 95
        4
302
GRIDFORMAT
  1
GRIDFORMAT_BEGIN
 90
        0
 91
        1
 62
     0
 92
       -2
340
0
 93
        0
 40
0.045
309
GRIDFORMAT_END
 95
        8
302
GRIDFORMAT
  1
GRIDFORMAT_BEGIN
 90
        0
 91
        1
 62
     0
 92
       -2
340
0
 93
        0
 40
0.045
309
GRIDFORMAT_END
 95
       16
302
GRIDFORMAT
  1
GRIDFORMAT_BEGIN
 90
        0
 91
        1
 62
     0
 92
       -2
340
0
 93
        0
 40
0.045
309
GRIDFORMAT_END
 95
       32
302
GRIDFORMAT
  1
GRIDFORMAT_BEGIN
 90
        0
 91
        1
 62
     0
 92
       -2
340
0
 93
        0
 40
0.045
309
GRIDFORMAT_END
309
TABLEFORMAT_END
  1
CELLSTYLE_BEGIN
 90
        1
 91
        1
300
_TITLE
309
CELLSTYLE_END
300
CELLSTYLE
  1
TABLEFORMAT_BEGIN
 90
        5
170
     1
 91
        0
 92
        0
 62
   257
 93
        1
300
CONTENTFORMAT
  1
CONTENTFORMAT_BEGIN
 90
        0
 91
        0
 92
        4
 93
        0
300

 40
0.0
140
1.0
 94
        5
 62
     0
340
23
144
4.5
309
CONTENTFORMAT_END
171
     1
301
MARGIN
  1
CELLMARGIN_BEGIN
 40
1.5
 40
1.5
 40
1.5
 40
1.5
 40
0.18
 40
0.18
309
CELLMARGIN_END
 94
        6
 95
        1
302
GRIDFORMAT
  1
GRIDFORMAT_BEGIN
 90
        0
 91
        1
 62
     0
 92
       -2
340
0
 93
        0
 40
0.045
309
GRIDFORMAT_END
 95
        2
302
GRIDFORMAT
  1
GRIDFORMAT_BEGIN
 90
        0
 91
        1
 62
     0
 92
       -2
340
0
 93
        0
 40
0.045
309
GRIDFORMAT_END
 95
        4
302
GRIDFORMAT
  1
GRIDFORMAT_BEGIN
 90
        0
 91
        1
 62
     0
 92
       -2
340
0
 93
        0
 40
0.045
309
GRIDFORMAT_END
 95
        8
302
GRIDFORMAT
  1
GRIDFORMAT_BEGIN
 90
        0
 91
        1
 62
     0
 92
       -2
340
0
 93
        0
 40
0.045
309
GRIDFORMAT_END
 95
       16
302
GRIDFORMAT
  1
GRIDFORMAT_BEGIN
 90
        0
 91
        1
 62
     0
 92
       -2
340
0
 93
        0
 40
0.045
309
GRIDFORMAT_END
 95
       32
302
GRIDFORMAT
  1
GRIDFORMAT_BEGIN
 90
        0
 91
        1
 62
     0
 92
       -2
340
0
 93
        0
 40
0.045
309
GRIDFORMAT_END
309
TABLEFORMAT_END
  1
CELLSTYLE_BEGIN
 90
        2
 91
        1
300
_HEADER
309
CELLSTYLE_END
300
CELLSTYLE
  1
TABLEFORMAT_BEGIN
 90
        5
170
     1
 91
        0
 92
        0
 62
   257
 93
        1
300
CONTENTFORMAT
  1
CONTENTFORMAT_BEGIN
 90
        0
 91
        0
 92
        4
 93
        0
300

 40
0.0
140
1.0
 94
        2
 62
     0
340
23
144
4.5
309
CONTENTFORMAT_END
171
     1
301
MARGIN
  1
CELLMARGIN_BEGIN
 40
1.5
 40
1.5
 40
1.5
 40
1.5
 40
0.18
 40
0.18
309
CELLMARGIN_END
 94
        6
 95
        1
302
GRIDFORMAT
  1
GRIDFORMAT_BEGIN
 90
        0
 91
        1
 62
     0
 92
       -2
340
0
 93
        0
 40
0.045
309
GRIDFORMAT_END
 95
        2
302
GRIDFORMAT
  1
GRIDFORMAT_BEGIN
 90
        0
 91
        1
 62
     0
 92
       -2
340
0
 93
        0
 40
0.045
309
GRIDFORMAT_END
 95
        4
302
GRIDFORMAT
  1
GRIDFORMAT_BEGIN
 90
        0
 91
        1
 62
     0
 92
       -2
340
0
 93
        0
 40
0.045
309
GRIDFORMAT_END
 95
        8
302
GRIDFORMAT
  1
GRIDFORMAT_BEGIN
 90
        0
 91
        1
 62
     0
 92
       -2
340
0
 93
        0
 40
0.045
309
GRIDFORMAT_END
 95
       16
302
GRIDFORMAT
  1
GRIDFORMAT_BEGIN
 90
        0
 91
        1
 62
     0
 92
       -2
340
0
 93
        0
 40
0.045
309
GRIDFORMAT_END
 95
       32
302
GRIDFORMAT
  1
GRIDFORMAT_BEGIN
 90
        0
 91
        1
 62
     0
 92
       -2
340
0
 93
        0
 40
0.045
309
GRIDFORMAT_END
309
TABLEFORMAT_END
  1
CELLSTYLE_BEGIN
 90
        3
 91
        2
300
_DATA
309
CELLSTYLE_END
  0
XRECORD
  5
1C07
102
{ACAD_REACTORS
330
B00
102
}
330
B00
100
AcDbXrecord
280
     1
102
ACAD_ROUNDTRIP_PRE2007_TABLESTYLE
 90
        4
 91
        0
  1

 92
        4
 93
        0
  2

 94
        4
 95
        0
  3

  0
ENDSEC
  0
EOF
