  0
SECTION
  2
HEADER
  9
$ACADVER
  1
AC1018
  9
$ACADMAINTVER
 70
   104
  9
$DWGCODEPAGE
  3
ANSI_932
  9
$LASTSAVEDBY
  1
a080061
  9
$CUSTOMPROPERTYTAG
  1
AmdtFileType
  9
$CUSTOMPROPERTY
  1
84
  9
$INSBASE
 10
0.0
 20
0.0
 30
0.0
  9
$EXTMIN
 10
-689.7491290231118
 20
-1135.299671715242
 30
-0.0015257624927045
  9
$EXTMAX
 10
974.8031731285173
 20
-439.3157890757029
 30
50.00152599532333
  9
$LIMMIN
 10
-2970.0
 20
-2100.0
  9
$LIMMAX
 10
2970.0
 20
2100.0
  9
$ORTHOMODE
 70
     0
  9
$REGENMODE
 70
     0
  9
$FILLMODE
 70
     1
  9
$QTEXTMODE
 70
     0
  9
$MIRRTEXT
 70
     0
  9
$LTSCALE
 40
20.0
  9
$ATTMODE
 70
     2
  9
$TEXTSIZE
 40
64.0
  9
$TRACEWID
 40
0.05
  9
$TEXTSTYLE
  7
STANDARD
  9
$CLAYER
  8
0
  9
$CELTYPE
  6
BYLAYER
  9
$CECOLOR
 62
   256
  9
$CELTSCALE
 40
1.0
  9
$DISPSILH
 70
     0
  9
$DIMSCALE
 40
1.0
  9
$DIMASZ
 40
0.12
  9
$DIMEXO
 40
0.05
  9
$DIMDLI
 40
0.5
  9
$DIMRND
 40
0.0
  9
$DIMDLE
 40
0.0
  9
$DIMEXE
 40
0.1
  9
$DIMTP
 40
0.1
  9
$DIMTM
 40
0.1
  9
$DIMTXT
 40
0.12
  9
$DIMCEN
 40
0.0
  9
$DIMTSZ
 40
0.0
  9
$DIMTOL
 70
     0
  9
$DIMLIM
 70
     0
  9
$DIMTIH
 70
     1
  9
$DIMTOH
 70
     1
  9
$DIMSE1
 70
     0
  9
$DIMSE2
 70
     0
  9
$DIMTAD
 70
     0
  9
$DIMZIN
 70
     7
  9
$DIMBLK
  1

  9
$DIMASO
 70
     1
  9
$DIMSHO
 70
     0
  9
$DIMPOST
  1

  9
$DIMAPOST
  1
mm
  9
$DIMALT
 70
     0
  9
$DIMALTD
 70
     2
  9
$DIMALTF
 40
25.4
  9
$DIMLFAC
 40
1.0
  9
$DIMTOFL
 70
     0
  9
$DIMTVP
 40
0.0
  9
$DIMTIX
 70
     0
  9
$DIMSOXD
 70
     0
  9
$DIMSAH
 70
     0
  9
$DIMBLK1
  1

  9
$DIMBLK2
  1

  9
$DIMSTYLE
  2
AM_ANSI
  9
$DIMCLRD
 70
   256
  9
$DIMCLRE
 70
   256
  9
$DIMCLRT
 70
     2
  9
$DIMTFAC
 40
0.71
  9
$DIMGAP
 40
0.06
  9
$DIMJUST
 70
     0
  9
$DIMSD1
 70
     0
  9
$DIMSD2
 70
     0
  9
$DIMTOLJ
 70
     1
  9
$DIMTZIN
 70
     7
  9
$DIMALTZ
 70
     0
  9
$DIMALTTZ
 70
     0
  9
$DIMUPT
 70
     0
  9
$DIMDEC
 70
     4
  9
$DIMTDEC
 70
     4
  9
$DIMALTU
 70
     2
  9
$DIMALTTD
 70
     4
  9
$DIMTXSTY
  7
STANDARD
  9
$DIMAUNIT
 70
     0
  9
$DIMADEC
 70
     0
  9
$DIMALTRND
 40
0.0
  9
$DIMAZIN
 70
     2
  9
$DIMDSEP
 70
    46
  9
$DIMATFIT
 70
     3
  9
$DIMFRAC
 70
     0
  9
$DIMLDRBLK
  1

  9
$DIMLUNIT
 70
     2
  9
$DIMLWD
 70
    -1
  9
$DIMLWE
 70
    -1
  9
$DIMTMOVE
 70
     0
  9
$LUNITS
 70
     2
  9
$LUPREC
 70
     4
  9
$SKETCHINC
 40
0.1
  9
$FILLETRAD
 40
4.0
  9
$AUNITS
 70
     1
  9
$AUPREC
 70
     3
  9
$MENU
  1
ACAD
  9
$ELEVATION
 40
0.0
  9
$PELEVATION
 40
0.0
  9
$THICKNESS
 40
50.0
  9
$LIMCHECK
 70
     0
  9
$CHAMFERA
 40
0.0
  9
$CHAMFERB
 40
0.0
  9
$CHAMFERC
 40
0.0
  9
$CHAMFERD
 40
0.0
  9
$SKPOLY
 70
     0
  9
$TDCREATE
 40
2452321.396199653
  9
$TDUCREATE
 40
2452321.021199653
  9
$TDUPDATE
 40
2456703.600846481
  9
$TDUUPDATE
 40
2456703.225846482
  9
$TDINDWG
 40
1.0167038773
  9
$TDUSRTIMER
 40
1.0166982755
  9
$USRTIMER
 70
     1
  9
$ANGBASE
 50
0.0
  9
$ANGDIR
 70
     0
  9
$PDMODE
 70
     3
  9
$PDSIZE
 40
-2.0
  9
$PLINEWID
 40
0.0
  9
$SPLFRAME
 70
     0
  9
$SPLINETYPE
 70
     6
  9
$SPLINESEGS
 70
     8
  9
$HANDSEED
  5
1EF5
  9
$SURFTAB1
 70
     6
  9
$SURFTAB2
 70
     6
  9
$SURFTYPE
 70
     6
  9
$SURFU
 70
     6
  9
$SURFV
 70
     6
  9
$UCSBASE
  2

  9
$UCSNAME
  2

  9
$UCSORG
 10
0.0
 20
0.0
 30
0.0
  9
$UCSXDIR
 10
1.0
 20
0.0
 30
0.0
  9
$UCSYDIR
 10
0.0
 20
1.0
 30
0.0
  9
$UCSORTHOREF
  2

  9
$UCSORTHOVIEW
 70
     0
  9
$UCSORGTOP
 10
0.0
 20
0.0
 30
0.0
  9
$UCSORGBOTTOM
 10
0.0
 20
0.0
 30
0.0
  9
$UCSORGLEFT
 10
0.0
 20
0.0
 30
0.0
  9
$UCSORGRIGHT
 10
0.0
 20
0.0
 30
0.0
  9
$UCSORGFRONT
 10
0.0
 20
0.0
 30
0.0
  9
$UCSORGBACK
 10
0.0
 20
0.0
 30
0.0
  9
$PUCSBASE
  2

  9
$PUCSNAME
  2

  9
$PUCSORG
 10
0.0
 20
0.0
 30
0.0
  9
$PUCSXDIR
 10
1.0
 20
0.0
 30
0.0
  9
$PUCSYDIR
 10
0.0
 20
1.0
 30
0.0
  9
$PUCSORTHOREF
  2

  9
$PUCSORTHOVIEW
 70
     0
  9
$PUCSORGTOP
 10
0.0
 20
0.0
 30
0.0
  9
$PUCSORGBOTTOM
 10
0.0
 20
0.0
 30
0.0
  9
$PUCSORGLEFT
 10
0.0
 20
0.0
 30
0.0
  9
$PUCSORGRIGHT
 10
0.0
 20
0.0
 30
0.0
  9
$PUCSORGFRONT
 10
0.0
 20
0.0
 30
0.0
  9
$PUCSORGBACK
 10
0.0
 20
0.0
 30
0.0
  9
$USERI1
 70
     0
  9
$USERI2
 70
     0
  9
$USERI3
 70
     0
  9
$USERI4
 70
     0
  9
$USERI5
 70
     0
  9
$USERR1
 40
20.0
  9
$USERR2
 40
0.0
  9
$USERR3
 40
0.0
  9
$USERR4
 40
0.0
  9
$USERR5
 40
0.0
  9
$WORLDVIEW
 70
     1
  9
$SHADEDGE
 70
     3
  9
$SHADEDIF
 70
    70
  9
$TILEMODE
 70
     1
  9
$MAXACTVP
 70
    64
  9
$PINSBASE
 10
0.0
 20
0.0
 30
0.0
  9
$PLIMCHECK
 70
     0
  9
$PEXTMIN
 10
1.000000000000000E+20
 20
1.000000000000000E+20
 30
1.000000000000000E+20
  9
$PEXTMAX
 10
-1.000000000000000E+20
 20
-1.000000000000000E+20
 30
-1.000000000000000E+20
  9
$PLIMMIN
 10
0.0
 20
0.0
  9
$PLIMMAX
 10
12.0
 20
9.0
  9
$UNITMODE
 70
     0
  9
$VISRETAIN
 70
     1
  9
$PLINEGEN
 70
     0
  9
$PSLTSCALE
 70
     1
  9
$TREEDEPTH
 70
  3020
  9
$CMLSTYLE
  2
STANDARD
  9
$CMLJUST
 70
     0
  9
$CMLSCALE
 40
1.0
  9
$PROXYGRAPHICS
 70
     1
  9
$MEASUREMENT
 70
     0
  9
$CELWEIGHT
370
    -1
  9
$ENDCAPS
280
     0
  9
$JOINSTYLE
280
     0
  9
$LWDISPLAY
290
     0
  9
$INSUNITS
 70
     0
  9
$HYPERLINKBASE
  1

  9
$STYLESHEET
  1
MONOCHROME.CTB
  9
$XEDIT
290
     1
  9
$CEPSNTYPE
380
     0
  9
$PSTYLEMODE
290
     1
  9
$FINGERPRINTGUID
  2
{68F3F60F-982D-43C0-B084-568AB2094408}
  9
$VERSIONGUID
  2
{8C816EFB-0B64-423E-8073-DADE708AE1AA}
  9
$EXTNAMES
290
     1
  9
$PSVPSCALE
 40
0.0
  9
$OLESTARTUP
290
     0
  9
$SORTENTS
280
   127
  9
$INDEXCTL
280
     1
  9
$HIDETEXT
280
     0
  9
$XCLIPFRAME
290
     0
  9
$HALOGAP
280
     0
  9
$OBSCOLOR
 70
   257
  9
$OBSLTYPE
280
     0
  9
$INTERSECTIONDISPLAY
280
     0
  9
$INTERSECTIONCOLOR
 70
   257
  9
$DIMASSOC
280
     1
  9
$PROJECTNAME
  1

  0
ENDSEC
  0
SECTION
  2
CLASSES
  0
CLASS
  1
ACDBDICTIONARYWDFLT
  2
AcDbDictionaryWithDefault
  3
ObjectDBX Classes
 90
        0
 91
        1
280
     0
281
     0
  0
CLASS
  1
DICTIONARYVAR
  2
AcDbDictionaryVar
  3
ObjectDBX Classes
 90
        0
 91
        7
280
     0
281
     0
  0
CLASS
  1
TABLESTYLE
  2
AcDbTableStyle
  3
ObjectDBX Classes
 90
     4095
 91
        1
280
     0
281
     0
  0
CLASS
  1
ACME_DOCUMENT
  2
AcMeDbDoc
  3
AcMeServices
 90
     1024
 91
        1
280
     0
281
     0
  0
CLASS
  1
AMGSETTINGSOBJ
  2
AmgSettingsObj
  3
"AcadM|Product Description: AutoCAD Mechanical|Company: Autodesk, Inc."
 90
     1024
 91
        2
280
     0
281
     0
  0
CLASS
  1
ACMESCOPE
  2
AcMeScope
  3
AcMeServices
 90
     1024
 91
        1
280
     0
281
     0
  0
CLASS
  1
ACMECOMMANDHISTORY
  2
AcMeCommandHistory
  3
AcMeServices
 90
     1024
 91
        1
280
     0
281
     0
  0
CLASS
  1
ACIMSYSVARMAN
  2
AcImSysVarManager
  3
AcMeServices
 90
     1024
 91
        6
280
     0
281
     0
  0
CLASS
  1
ACIMREALSYSVAR
  2
AcImRealSysVar
  3
AcMeServices
 90
     1024
 91
       16
280
     0
281
     0
  0
CLASS
  1
ACIMINTSYSVAR
  2
AcImIntSysVar
  3
AcMeServices
 90
     1024
 91
       45
280
     0
281
     0
  0
CLASS
  1
ACMEDRAWINGMAN
  2
AcMeDrawingMan
  3
AcMeServices
 90
     1024
 91
        1
280
     0
281
     0
  0
CLASS
  1
ACMEVIEW
  2
AcMeView
  3
AcMeServices
 90
     1024
 91
        1
280
     0
281
     0
  0
CLASS
  1
ACDBENTITYCACHE
  2
AcMeEntityCache
  3
AcMeServices
 90
     1024
 91
        1
280
     0
281
     0
  0
CLASS
  1
GSMANAGER
  2
AcMeGSManager
  3
AcMeServices
 90
     1024
 91
        1
280
     0
281
     0
  0
CLASS
  1
AMDTINTERNALREACTOR
  2
AmdtInternalReactor
  3
AcMeServices
 90
     1024
 91
        2
280
     0
281
     0
  0
CLASS
  1
ACMESTATEMGR
  2
AcMeStateMgr
  3
AcMeServices
 90
     1024
 91
        1
280
     0
281
     0
  0
CLASS
  1
ACGREFMASTER
  2
AcGrefMaster
  3
AcAttribServices
 90
     1024
 91
        1
280
     0
281
     0
  0
CLASS
  1
AM_DRAWING_MGR
  2
AcDmDwgMgr
  3
AcMechDwgViewMgmt
 90
     1024
 91
        1
280
     0
281
     0
  0
CLASS
  1
AM_DWG_DOCUMENT
  2
AcDmDwgDocument
  3
AcMechDwgViewMgmt
 90
     1024
 91
        1
280
     0
281
     0
  0
CLASS
  1
AM_DWG_SHEET
  2
AcDmSheet
  3
AcMechDwgViewMgmt
 90
     1024
 91
        1
280
     0
281
     0
  0
CLASS
  1
AM_VIEWDIMPARMAP
  2
AcDmViewDimParMap
  3
AcMechDwgViewMgmt
 90
     1024
 91
        1
280
     0
281
     0
  0
CLASS
  1
AM_DWGMGR_NAME
  2
AcDmDwgMgrName
  3
AcMechDwgViewMgmt
 90
     1024
 91
        1
280
     0
281
     0
  0
CLASS
  1
ACME_DATABASE
  2
AcMeDbDatabase
  3
AcMeServices
 90
     1024
 91
        2
280
     0
281
     0
  0
CLASS
  1
ACRFINSADJUSTERMGR
  2
AcRfInsAdjusterMgr
  3
AcMeServices
 90
     1024
 91
        1
280
     0
281
     0
  0
CLASS
  1
ACGREFACADMASTER
  2
AcGrefacadMaster
  3
AcGrefServices
 90
     1024
 91
        1
280
     0
281
     0
  0
CLASS
  1
AMDTMENUSTATEMGR
  2
AmdtMenuStateMgr
  3
McadcomServices
 90
     1024
 91
        1
280
     0
281
     0
  0
CLASS
  1
AMDTMCOMMENUSTATE
  2
AmdtMcomMenuState
  3
McadcomServices
 90
     1024
 91
        1
280
     0
281
     0
  0
CLASS
  1
AMIMASTER
  2
AmiMaster
  3
AmiServices
 90
     1024
 91
        1
280
     0
281
     0
  0
CLASS
  1
ASAPP
  2
AcAsAppObject
  3
AutoSurfServices
 90
     1024
 91
        1
280
     0
281
     0
  0
CLASS
  1
IM_STATIC_MAN
  2
AcImStaticVarManager
  3
AcMeServices
 90
     1024
 91
        1
280
     0
281
     0
  0
CLASS
  1
ACIMSTRSYSVAR
  2
AcImStrSysVar
  3
AcMeServices
 90
     1024
 91
       11
280
     0
281
     0
  0
CLASS
  1
ACIMDBLSTATICVAR
  2
AcImDblStaticVar
  3
AcMeServices
 90
     1024
 91
       20
280
     0
281
     0
  0
CLASS
  1
ACIMSTRSTATICVAR
  2
AcImStrStaticVar
  3
AcMeServices
 90
     1024
 91
       12
280
     0
281
     0
  0
CLASS
  1
ACIMINTSTATICVAR
  2
AcImIntStaticVar
  3
AcMeServices
 90
     1024
 91
       17
280
     0
281
     0
  0
CLASS
  1
ACASGREFMASTER
  2
AcAsGrefMaster
  3
AutoSurfResolverServices
 90
     1024
 91
        1
280
     0
281
     0
  0
CLASS
  1
ACADGREFMODULE
  2
AcAdGrefModule
  3
AdGrefServices
 90
     1024
 91
        1
280
     0
281
     0
  0
CLASS
  1
AMDTMAPISURFMOUDULE
  2
AmdtMApiSurfModule
  3
MApiSurfServices
 90
     1024
 91
        1
280
     0
281
     0
  0
CLASS
  1
MAPIAMMOUDLE
  2
MApiAmModule
  3
MApiAmServices
 90
     1024
 91
        1
280
     0
281
     0
  0
CLASS
  1
AMDTADMENUSTATE
  2
AmdtAdMenuState
  3
DesignerServices
 90
     1024
 91
        1
280
     0
281
     0
  0
CLASS
  1
ADAPPL
  2
AcAdAppl
  3
DesignerServices
 90
     1024
 91
        1
280
     0
281
     0
  0
CLASS
  1
DEPMGR
  2
AcAdDepMgr
  3
DesignerServices
 90
     1024
 91
        1
280
     0
281
     0
  0
CLASS
  1
PARAMMGR
  2
AcAdParamMgr
  3
DesignerServices
 90
     1024
 91
        1
280
     0
281
     0
  0
CLASS
  1
PARAMSCOPE
  2
AcAdParamScope
  3
DesignerServices
 90
     1024
 91
        1
280
     0
281
     0
  0
CLASS
  1
NAMEDAPPL
  2
AcAdNamedAppl
  3
DesignerServices
 90
     1024
 91
        1
280
     0
281
     0
  0
CLASS
  1
AMDTDMMENUSTATE
  2
AmdtDmMenuState
  3
AcMechDwgViewMgmt
 90
     1024
 91
        1
280
     0
281
     0
  0
CLASS
  1
MAPIADMODULE
  2
MApiAdModule
  3
MApiAdServices
 90
     1024
 91
        1
280
     0
281
     0
  0
CLASS
  1
AMDTAMMENUSTATE
  2
AmdtAmMenuState
  3
DesignerAssemblies
 90
     1024
 91
        1
280
     0
281
     0
  0
CLASS
  1
ACAMPROJECT
  2
AcAmProject
  3
DesignerAssemblies
 90
     1024
 91
        1
280
     0
281
     0
  0
CLASS
  1
ACAMGRCOMPDEF
  2
AcAmGrCompDef
  3
DesignerAssemblies
 90
     1024
 91
        1
280
     0
281
     0
  0
CLASS
  1
ACCMCONTEXT
  2
AcCmContext
  3
DesignerAssemblies
 90
     1024
 91
        1
280
     0
281
     0
  0
CLASS
  1
ACAMCOMPDEF
  2
AcAmCompDef
  3
DesignerAssemblies
 90
     1024
 91
        1
280
     0
281
     0
  0
CLASS
  1
ACAMCOMPDEFMGR
  2
AcAmCompDefMgr
  3
DesignerAssemblies
 90
     1024
 91
        1
280
     0
281
     0
  0
CLASS
  1
AMCONTEXTMGR
  2
AcAmContextMgr
  3
DesignerAssemblies
 90
     1024
 91
        1
280
     0
281
     0
  0
CLASS
  1
ACAMCONTEXTMODELER
  2
AcAmContextModeler
  3
DesignerAssemblies
 90
     1024
 91
        1
280
     0
281
     0
  0
CLASS
  1
ACMDATADICTIONARY
  2
AcmDataDictionary
  3
"AcmSymBB|Product Description: AutoCAD Mechanical|Company: Autodesk, Inc."
 90
     1024
 91
        1
280
     0
281
     0
  0
CLASS
  1
ACMDATAENTRYBLOCK
  2
AcmDataEntryBlock
  3
AcmSymBB|Product Description: AutoCAD Mechanical|Company: Autodesk, Inc.
 90
     1024
 91
        2
280
     0
281
     0
  0
CLASS
  1
CATALOGSTATE
  2
AcAmCatalogState
  3
DesignerAssemblies
 90
     1024
 91
        1
280
     0
281
     0
  0
CLASS
  1
ACAMGRCOMPDEFSET
  2
AcAmGrCompDefSet
  3
DesignerAssemblies
 90
     1024
 91
        1
280
     0
281
     0
  0
CLASS
  1
AMDTBROWSERDBTAB
  2
AmdtBrowserDbTab
  3
McadcomServices
 90
     1024
 91
        1
280
     0
281
     0
  0
CLASS
  1
CBROWSERAPPOBJECT
  2
CBrowserAppObject
  3
McadcomServices
 90
     1024
 91
        3
280
     0
281
     0
  0
CLASS
  1
DM_PLACEHOLDER
  2
AcDmSelsetPlaceholder
  3
AcMechDwgViewMgmt
 90
     1024
 91
        1
280
     0
281
     0
  0
CLASS
  1
ACMSTANDARDANSI
  2
AcmStandardANSI
  3
"Amdt_StdImp|Product Description: AutoCAD Mechanical|Company: Autodesk, Inc."
 90
     1024
 91
        1
280
     0
281
     0
  0
CLASS
  1
AMGOBJPROPCFG
  2
AmgObjPropCfg
  3
"AmgLay|Product Description: AutoCAD Mechanical|Company: Autodesk, Inc."
 90
     1025
 91
        1
280
     0
281
     0
  0
CLASS
  1
ACMSURFSTANDARDANSI
  2
AcmSurfTextStdANSI
  3
"Amdt_StdImp|Product Description: AutoCAD Mechanical|Company: Autodesk, Inc."
 90
     1024
 91
        1
280
     0
281
     0
  0
CLASS
  1
ACMFCFSTANDARDANSI
  2
AcmFCFStdANSI
  3
"Amdt_StdImp|Product Description: AutoCAD Mechanical|Company: Autodesk, Inc."
 90
     1024
 91
        1
280
     0
281
     0
  0
CLASS
  1
ACMWELDSTANDARDANSI
  2
AcmWeldingStdANSI
  3
"Amdt_StdImp|Product Description: AutoCAD Mechanical|Company: Autodesk, Inc."
 90
     1024
 91
        1
280
     0
281
     0
  0
CLASS
  1
ACMIDSTANDARDANSI
  2
AcmIdStdANSI
  3
"Amdt_StdImp|Product Description: AutoCAD Mechanical|Company: Autodesk, Inc."
 90
     1024
 91
        1
280
     0
281
     0
  0
CLASS
  1
ACMDATUMSTANDARDANSI
  2
AcmDatumStdANSI
  3
"Amdt_StdImp|Product Description: AutoCAD Mechanical|Company: Autodesk, Inc."
 90
     1024
 91
        1
280
     0
281
     0
  0
CLASS
  1
ACMBOMSTANDARDANSI
  2
AcmBOMStdANSI
  3
"Amdt_StdImp|Product Description: AutoCAD Mechanical|Company: Autodesk, Inc."
 90
     1024
 91
        1
280
     0
281
     0
  0
CLASS
  1
ACMDETAILSTANDARDANSI
  2
AmdtDetailSymStdANSI
  3
"Amdt_StdImp|Product Description: AutoCAD Mechanical|Company: Autodesk, Inc."
 90
     1024
 91
        1
280
     0
281
     0
  0
CLASS
  1
ACMSECTIONSTANDARDANSI
  2
AmdtSectionSymStdANSI
  3
"Amdt_StdImp|Product Description: AutoCAD Mechanical|Company: Autodesk, Inc."
 90
     1024
 91
        1
280
     0
281
     0
  0
CLASS
  1
ACMCENTERLINESTANDARDANSI
  2
AmdtCenterLineStdANSI
  3
"Amdt_StdImp|Product Description: AutoCAD Mechanical|Company: Autodesk, Inc."
 90
     1024
 91
        1
280
     0
281
     0
  0
CLASS
  1
ACMTHREADLINESTANDARDANSI
  2
AmdtThreadLineStdANSI
  3
"Amdt_StdImp|Product Description: AutoCAD Mechanical|Company: Autodesk, Inc."
 90
     1024
 91
        1
280
     0
281
     0
  0
CLASS
  1
ACMNOTESTANDARDANSI
  2
AmdtNoteStdANSI
  3
"Amdt_StdImp|Product Description: AutoCAD Mechanical|Company: Autodesk, Inc."
 90
     1024
 91
        1
280
     0
281
     0
  0
CLASS
  1
AMDTNOTETEMPLATEDB
  2
AmdtNoteTemplateDB
  3
AcmSymBB|Product Description: AutoCAD Mechanical|Company: Autodesk, Inc.
 90
     1024
 91
        6
280
     0
281
     0
  0
CLASS
  1
ACAMGLAYSTD
  2
AcAmgLayStd
  3
"AmgLay|Product Description: AutoCAD Mechanical|Company: Autodesk, Inc."
 90
     1024
 91
        1
280
     0
281
     0
  0
CLASS
  1
ACAMGDIMSTD
  2
AcAmgDimStd
  3
"AmgDim|Product Description: AutoCAD Mechanical|Company: Autodesk, Inc."
 90
     1024
 91
        1
280
     0
281
     0
  0
CLASS
  1
ACAMGHOLECHARTSTDANSI
  2
AcAmgHoleChartStdANSI
  3
AmgDim|Product Description: AutoCAD Mechanical|Company: Autodesk, Inc.
 90
     1024
 91
        1
280
     0
281
     0
  0
CLASS
  1
ACAMGTITLESTD
  2
AcAmgTitleStd
  3
"AmgTitle|Product Description: AutoCAD Mechanical|Company: Autodesk, Inc."
 90
     4095
 91
        1
280
     0
281
     0
  0
CLASS
  1
LAYER_INDEX
  2
AcDbLayerIndex
  3
ObjectDBX Classes
 90
        0
 91
        1
280
     0
281
     0
  0
CLASS
  1
IDBUFFER
  2
AcDbIdBuffer
  3
ObjectDBX Classes
 90
        0
 91
       12
280
     0
281
     0
  0
CLASS
  1
ACAMGFILTERDAT
  2
AcAmgFilterDat
  3
"AcadM|Product Description: AutoCAD Mechanical|Company: Autodesk, Inc."
 90
     1024
 91
        6
280
     0
281
     0
  0
CLASS
  1
MATERIAL
  2
AcDbMaterial
  3
ObjectDBX Classes
 90
     1153
 91
        3
280
     0
281
     0
  0
CLASS
  1
VISUALSTYLE
  2
AcDbVisualStyle
  3
ObjectDBX Classes
 90
     4095
 91
       16
280
     0
281
     0
  0
CLASS
  1
SCALE
  2
AcDbScale
  3
ObjectDBX Classes
 90
     1153
 91
       33
280
     0
281
     0
  0
CLASS
  1
MLEADERSTYLE
  2
AcDbMLeaderStyle
  3
ACDB_MLEADERSTYLE_CLASS
 90
     4095
 91
        1
280
     0
281
     0
  0
CLASS
  1
CELLSTYLEMAP
  2
AcDbCellStyleMap
  3
ObjectDBX Classes
 90
     1152
 91
        2
280
     0
281
     0
  0
CLASS
  1
SORTENTSTABLE
  2
AcDbSortentsTable
  3
ObjectDBX Classes
 90
        0
 91
        2
280
     0
281
     0
  0
CLASS
  1
ACRFATTGENMGR
  2
AcRfAttGeneralMgr
  3
AcAttribServices
 90
     1024
 91
        1
280
     0
281
     0
  0
CLASS
  1
ACRFOBJATTMGR
  2
AcRfObjAttGroupMgr
  3
AcAttribServices
 90
     1024
 91
        1
280
     0
281
     0
  0
CLASS
  1
ACRFMCADAPIATTHOLDER
  2
AcRfMCADAPIAttHolder
  3
AcAttribServices
 90
     1024
 91
        1
280
     0
281
     0
  0
CLASS
  1
AMDTSYSATTR
  2
AmdtSystemAttribute
  3
AcAttribServices
 90
     1024
 91
        1
280
     0
281
     0
  0
CLASS
  1
ACMTAPERSTANDARDANSI
  2
AcmTaperStdANSI
  3
"Amdt_StdImp|Product Description: AutoCAD Mechanical|Company: Autodesk, Inc."
 90
     1024
 91
        1
280
     0
281
     0
  0
CLASS
  1
ACMANOOTATIONVIEWSTANDARDANSI
  2
AmdtAnViewStdANSI
  3
"Amdt_StdImp|Product Description: AutoCAD Mechanical|Company: Autodesk, Inc."
 90
     1024
 91
        1
280
     0
281
     0
  0
ENDSEC
  0
SECTION
  2
TABLES
  0
TABLE
  2
VPORT
  5
849
330
0
100
AcDbSymbolTable
 70
     1
  0
VPORT
  5
114A
330
849
100
AcDbSymbolTableRecord
100
AcDbViewportTableRecord
  2
*Active
 70
     0
 10
0.0
 20
0.0
 11
1.0
 21
1.0
 12
-225.3097615770906
 22
-995.022301804474
 13
0.0
 23
0.0
 14
1.0
 24
1.0
 15
0.0
 25
0.0
 16
0.0
 26
0.0
 36
1.0
 17
367.8367836297933
 27
207.7145714090015
 37
0.0
 40
1136.68010793922
 41
1.470842332613391
 42
50.0
 43
0.0
 44
0.0
 50
0.0
 51
0.0
 71
     0
 72
   100
 73
     1
 74
     0
 75
     0
 76
     0
 77
     0
 78
     0
281
     0
 65
     0
110
0.0
120
0.0
130
0.0
111
1.0
121
0.0
131
0.0
112
0.0
122
1.0
132
0.0
 79
     0
146
0.0
  0
ENDTAB
  0
TABLE
  2
LTYPE
  5
846
330
0
100
AcDbSymbolTable
 70
    19
  0
LTYPE
  5
854
330
846
100
AcDbSymbolTableRecord
100
AcDbLinetypeTableRecord
  2
BYBLOCK
 70
     0
  3

 72
    65
 73
     0
 40
0.0
  0
LTYPE
  5
855
330
846
100
AcDbSymbolTableRecord
100
AcDbLinetypeTableRecord
  2
BYLAYER
 70
     0
  3

 72
    65
 73
     0
 40
0.0
  0
LTYPE
  5
856
330
846
100
AcDbSymbolTableRecord
100
AcDbLinetypeTableRecord
  2
CONTINUOUS
 70
     0
  3
実線
 72
    65
 73
     0
 40
0.0
  0
LTYPE
  5
865
330
846
100
AcDbSymbolTableRecord
100
AcDbLinetypeTableRecord
  2
DASHDOT
 70
     0
  3
____ _ ____ _ ____ _ ____ _ ____ _ ____ _ ____
 72
    65
 73
     4
 40
5.5
 49
4.0
 74
     0
 49
-0.6
 74
     0
 49
0.3
 74
     0
 49
-0.6
 74
     0
  0
LTYPE
  5
F06
330
846
100
AcDbSymbolTableRecord
100
AcDbLinetypeTableRecord
  2
HIDDEN
 70
     0
  3
Hidden __ __ __ __ __ __ __ __ __ __ __ __ __ _
 72
    65
 73
     2
 40
0.375
 49
0.25
 74
     0
 49
-0.125
 74
     0
  0
LTYPE
  5
F07
330
846
100
AcDbSymbolTableRecord
100
AcDbLinetypeTableRecord
  2
PHANTOM2
 70
     0
  3
Phantom (.5x) ___ _ _ ___ _ _ ___ _ _ ___ _ _
 72
    65
 73
     6
 40
1.25
 49
0.625
 74
     0
 49
-0.125
 74
     0
 49
0.125
 74
     0
 49
-0.125
 74
     0
 49
0.125
 74
     0
 49
-0.125
 74
     0
  0
LTYPE
  5
F08
330
846
100
AcDbSymbolTableRecord
100
AcDbLinetypeTableRecord
  2
CENTER
 70
     0
  3
Center ____ _ ____ _ ____ _ ____ _ ____ _ ____
 72
    65
 73
     4
 40
2.0
 49
1.25
 74
     0
 49
-0.25
 74
     0
 49
0.25
 74
     0
 49
-0.25
 74
     0
  0
LTYPE
  5
F57
330
846
100
AcDbSymbolTableRecord
100
AcDbLinetypeTableRecord
  2
ASULTYPE
 70
     0
  3
実線
 72
    65
 73
     2
 40
3.0
 49
2.5
 74
     0
 49
0.5
 74
     0
  0
LTYPE
  5
F58
330
846
100
AcDbSymbolTableRecord
100
AcDbLinetypeTableRecord
  2
ASVLTYPE
 70
     0
  3
__ __ __ __ __ __ __ __ __ __ __ __ __ __ __ __ __ __ __ __ __
 72
    65
 73
     2
 40
0.75
 49
0.5
 74
     0
 49
-0.25
 74
     0
  0
LTYPE
  5
F9F
330
846
100
AcDbSymbolTableRecord
100
AcDbLinetypeTableRecord
  2
AM_ISO02W050
 70
     0
  3
__ __ __ __ __ __ __ __ __ __ __ __ __ __ __
 72
    65
 73
     2
 40
7.5
 49
6.0
 74
     0
 49
-1.5
 74
     0
  0
LTYPE
  5
FA0
330
846
100
AcDbSymbolTableRecord
100
AcDbLinetypeTableRecord
  2
AM_ISO08W050
 70
     0
  3
____ . ____ . ____ . ____ . ____ . ____ . ____
 72
    65
 73
     4
 40
18.0
 49
12.0
 74
     0
 49
-1.5
 74
     0
 49
3.0
 74
     0
 49
-1.5
 74
     0
  0
LTYPE
  5
FA1
330
846
100
AcDbSymbolTableRecord
100
AcDbLinetypeTableRecord
  2
AM_ISO09W050
 70
     0
  3
_____ . . _____ . . _____ . . ____ .. ____
 72
    65
 73
     6
 40
22.5
 49
12.0
 74
     0
 49
-1.5
 74
     0
 49
3.0
 74
     0
 49
-1.5
 74
     0
 49
3.0
 74
     0
 49
-1.5
 74
     0
  0
LTYPE
  5
FA2
330
846
100
AcDbSymbolTableRecord
100
AcDbLinetypeTableRecord
  2
Amconstr
 70
     0
  3
_______________________
 72
    65
 73
     2
 40
9999.0
 49
9999.0
 74
     0
 49
0.0
 74
     0
  0
LTYPE
  5
FA3
330
846
100
AcDbSymbolTableRecord
100
AcDbLinetypeTableRecord
  2
AM_ISO08W050x2
 70
     0
  3
__ . __ . __ . __ . __ . __
 72
    65
 73
     4
 40
9.0
 49
6.0
 74
     0
 49
-0.75
 74
     0
 49
1.5
 74
     0
 49
-0.75
 74
     0
  0
LTYPE
  5
FA4
330
846
100
AcDbSymbolTableRecord
100
AcDbLinetypeTableRecord
  2
AM_ISO02W050x2
 70
     0
  3
 _ _ _ _ _ _ _ _ _ _ _ _
 72
    65
 73
     2
 40
3.75
 49
3.0
 74
     0
 49
-0.75
 74
     0
  0
LTYPE
  5
FA7
330
846
100
AcDbSymbolTableRecord
100
AcDbLinetypeTableRecord
  2
Amzigzag
 70
     0
  3
/\/-/\/-/\/-/\/-/\/-/\/
 72
    65
 73
     2
 40
11.0001
 49
0.0001
 74
     4
 75
   136
340
FA6
 46
0.04
 50
0.0
 44
0.0
 45
0.0
 49
-11.0
 74
     0
  0
LTYPE
  5
FA8
330
846
100
AcDbSymbolTableRecord
100
AcDbLinetypeTableRecord
  2
CENTER2
 70
     0
  3
Center (.5x) ___ _ ___ _ ___ _ ___ _ ___ _ ___
 72
    65
 73
     4
 40
1.125
 49
0.75
 74
     0
 49
-0.125
 74
     0
 49
0.125
 74
     0
 49
-0.125
 74
     0
  0
LTYPE
  5
FA9
330
846
100
AcDbSymbolTableRecord
100
AcDbLinetypeTableRecord
  2
HIDDEN2
 70
     0
  3
Hidden (.5x) _ _ _ _ _ _ _ _ _ _ _ _ _ _ _ _ _
 72
    65
 73
     2
 40
0.1875
 49
0.125
 74
     0
 49
-0.0625
 74
     0
  0
LTYPE
  5
FAA
330
846
100
AcDbSymbolTableRecord
100
AcDbLinetypeTableRecord
  2
Amzigzag2
 70
     0
  3
/\/-/\/-/\/-/\/-/\/-/\/
 72
    65
 73
     2
 40
0.4401
 49
0.0001
 74
     4
 75
   136
340
FA6
 46
0.0016
 50
0.0
 44
0.0
 45
0.0
 49
-0.4400000000000003
 74
     0
  0
LTYPE
  5
FB8
330
846
100
AcDbSymbolTableRecord
100
AcDbLinetypeTableRecord
  2
ACANSTGB
 70
     0
  3
__ . . __ . .
 72
    65
 73
     6
 40
0.35433070866
 49
0.15748031496
 74
     0
 49
-0.03937007874
 74
     0
 49
0.03937007874
 74
     0
 49
-0.03937007874
 74
     0
 49
0.03937007874
 74
     0
 49
-0.03937007874
 74
     0
  0
LTYPE
  5
FB9
330
846
100
AcDbSymbolTableRecord
100
AcDbLinetypeTableRecord
  2
ACANSTGL
 70
     0
  3
_ _ _ _ _
 72
    65
 73
     2
 40
0.11811023622
 49
0.07874015748
 74
     0
 49
-0.03937007874
 74
     0
  0
ENDTAB
  0
TABLE
  2
LAYER
  5
843
102
{ACAD_XDICTIONARY
360
14DD
102
}
330
0
100
AcDbSymbolTable
 70
    12
  0
LAYER
  5
851
102
{ACAD_XDICTIONARY
360
11FF
102
}
330
843
100
AcDbSymbolTableRecord
100
AcDbLayerTableRecord
  2
0
 70
     0
 62
     7
  6
CONTINUOUS
370
    -3
390
B83
  0
LAYER
  5
863
102
{ACAD_XDICTIONARY
360
1201
102
}
330
843
100
AcDbSymbolTableRecord
100
AcDbLayerTableRecord
  2
OUTLINE
 70
     0
 62
     3
  6
CONTINUOUS
370
    -3
390
B83
  0
LAYER
  5
866
102
{ACAD_XDICTIONARY
360
1203
102
}
330
843
100
AcDbSymbolTableRecord
100
AcDbLayerTableRecord
  2
SIZE
 70
     0
 62
    30
  6
CONTINUOUS
370
    -3
390
B83
  0
LAYER
  5
867
102
{ACAD_XDICTIONARY
360
1205
102
}
330
843
100
AcDbSymbolTableRecord
100
AcDbLayerTableRecord
  2
BASIS
 70
     0
 62
     6
  6
DASHDOT
370
    -3
390
B83
  0
LAYER
  5
868
102
{ACAD_XDICTIONARY
360
1207
102
}
330
843
100
AcDbSymbolTableRecord
100
AcDbLayerTableRecord
  2
DETAIL
 70
     0
 62
     5
  6
CONTINUOUS
370
    -3
390
B83
  0
LAYER
  5
869
102
{ACAD_XDICTIONARY
360
1209
102
}
330
843
100
AcDbSymbolTableRecord
100
AcDbLayerTableRecord
  2
ARRANGE
 70
     0
 62
     1
  6
CONTINUOUS
370
    -3
390
B83
  0
LAYER
  5
86A
330
843
100
AcDbSymbolTableRecord
100
AcDbLayerTableRecord
  2
DEFPOINTS
 70
     0
 62
     7
  6
CONTINUOUS
290
     0
370
    -3
390
B83
  0
LAYER
  5
86B
102
{ACAD_XDICTIONARY
360
120B
102
}
330
843
100
AcDbSymbolTableRecord
100
AcDbLayerTableRecord
  2
ETC
 70
     0
 62
    61
  6
CONTINUOUS
370
    -3
390
B83
  0
LAYER
  5
86C
102
{ACAD_XDICTIONARY
360
120D
102
}
330
843
100
AcDbSymbolTableRecord
100
AcDbLayerTableRecord
  2
FIX
 70
     0
 62
    11
  6
CONTINUOUS
370
    -3
390
B83
  0
LAYER
  5
86D
102
{ACAD_XDICTIONARY
360
120F
102
}
330
843
100
AcDbSymbolTableRecord
100
AcDbLayerTableRecord
  2
NOTE
 70
     0
 62
     4
  6
CONTINUOUS
370
    -3
390
B83
  0
LAYER
  5
86E
102
{ACAD_XDICTIONARY
360
1211
102
}
330
843
100
AcDbSymbolTableRecord
100
AcDbLayerTableRecord
  2
SERVICESPACE
 70
     0
 62
     2
  6
DASHDOT
370
    -3
390
B83
  0
LAYER
  5
86F
102
{ACAD_XDICTIONARY
360
1213
102
}
330
843
100
AcDbSymbolTableRecord
100
AcDbLayerTableRecord
  2
SYMBOLLINE
 70
     0
 62
    15
  6
CONTINUOUS
370
    -3
390
B83
  0
ENDTAB
  0
TABLE
  2
STYLE
  5
844
330
0
100
AcDbSymbolTable
 70
     5
  0
STYLE
  5
852
330
844
100
AcDbSymbolTableRecord
100
AcDbTextStyleTableRecord
  2
STANDARD
 70
     0
 40
64.0
 41
0.9
 50
0.0
 71
     0
 42
64.0
  3
SIMPLEX.shx
  4
BIGFONT.shx
  0
STYLE
  5
FA6
330
844
100
AcDbSymbolTableRecord
100
AcDbTextStyleTableRecord
  2

 70
     1
 40
0.0
 41
1.0
 50
0.0
 71
     0
 42
64.0
  3
genltshp.shx
  4

  0
STYLE
  5
FAB
330
844
100
AcDbSymbolTableRecord
100
AcDbTextStyleTableRecord
  2
ACANSTS
 70
     0
 40
1.0
 41
1.0
 50
0.0
 71
     0
 42
64.0
  3
romans.shx
  4
extfont.shx
  0
STYLE
  5
FB7
330
844
100
AcDbSymbolTableRecord
100
AcDbTextStyleTableRecord
  2
ACANSGDT
 70
     0
 40
0.0
 41
1.0
 50
0.0
 71
     0
 42
64.0
  3
amgdt.shx
  4

  0
STYLE
  5
14D8
330
844
100
AcDbSymbolTableRecord
100
AcDbTextStyleTableRecord
  2
ADESK1
 70
     0
 40
0.0
 41
1.0
 50
0.0
 71
     0
 42
0.12
  3
romanc.shx
  4
extfont.shx
  0
ENDTAB
  0
TABLE
  2
VIEW
  5
847
330
0
100
AcDbSymbolTable
 70
     1
  0
VIEW
  5
870
330
847
100
AcDbSymbolTableRecord
100
AcDbViewTableRecord
  2
ALL
 70
     0
 40
4282.619807999997
 10
0.0
 20
41.30990399999999
 41
5940.0
 11
0.0
 21
0.0
 31
1.0
 12
0.0
 22
0.0
 32
0.0
 42
50.0
 43
0.0
 44
0.0
 50
0.0
 71
     0
281
     0
 72
     0
  0
ENDTAB
  0
TABLE
  2
UCS
  5
848
330
0
100
AcDbSymbolTable
 70
     0
  0
ENDTAB
  0
TABLE
  2
APPID
  5
84A
330
0
100
AcDbSymbolTable
 70
    23
  0
APPID
  5
853
330
84A
100
AcDbSymbolTableRecord
100
AcDbRegAppTableRecord
  2
ACAD
 70
     0
  0
APPID
  5
ED2
330
84A
100
AcDbSymbolTableRecord
100
AcDbRegAppTableRecord
  2
GENIUS_GENDIM_13
 70
     0
  0
APPID
  5
ED3
330
84A
100
AcDbSymbolTableRecord
100
AcDbRegAppTableRecord
  2
GENIUS_GENDTOL_13
 70
     0
  0
APPID
  5
ED4
330
84A
100
AcDbSymbolTableRecord
100
AcDbRegAppTableRecord
  2
GENIUS_GE3DTOL_13
 70
     0
  0
APPID
  5
ED7
330
84A
100
AcDbSymbolTableRecord
100
AcDbRegAppTableRecord
  2
MCAD_NO_VIS
 70
     0
  0
APPID
  5
ED8
330
84A
100
AcDbSymbolTableRecord
100
AcDbRegAppTableRecord
  2
ACAD_TEMP_GRAPHIC
 70
     0
  0
APPID
  5
F0A
330
84A
100
AcDbSymbolTableRecord
100
AcDbRegAppTableRecord
  2
AD_DRAW
 70
     0
  0
APPID
  5
F0D
330
84A
100
AcDbSymbolTableRecord
100
AcDbRegAppTableRecord
  2
ACATTRIBSERVICES
 70
     0
  0
APPID
  5
F59
330
84A
100
AcDbSymbolTableRecord
100
AcDbRegAppTableRecord
  2
ASURF_PCURVE_APPNAME
 70
     0
  0
APPID
  5
F5E
330
84A
100
AcDbSymbolTableRecord
100
AcDbRegAppTableRecord
  2
AMG_3D2D_5.0
 70
     0
  0
APPID
  5
F8F
330
84A
100
AcDbSymbolTableRecord
100
AcDbRegAppTableRecord
  2
DESIGNERASSEMBLIES
 70
     0
  0
APPID
  5
F96
330
84A
100
AcDbSymbolTableRecord
100
AcDbRegAppTableRecord
  2
ACADM_DIM_EDIT
 70
     0
  0
APPID
  5
F97
330
84A
100
AcDbSymbolTableRecord
100
AcDbRegAppTableRecord
  2
AMDT_DM_ADJ
 70
     0
  0
APPID
  5
FC6
330
84A
100
AcDbSymbolTableRecord
100
AcDbRegAppTableRecord
  2
ACAD_DSTYLE_DIMARC_LENGTH_SYMBOL
 70
     0
  0
APPID
  5
FC7
330
84A
100
AcDbSymbolTableRecord
100
AcDbRegAppTableRecord
  2
ACAD_DSTYLE_DIMJOGGED_JOGANGLE_SYMBOL
 70
     0
  0
APPID
  5
1129
330
84A
100
AcDbSymbolTableRecord
100
AcDbRegAppTableRecord
  2
ACAD_PSEXT
 70
     0
  0
APPID
  5
11A2
330
84A
100
AcDbSymbolTableRecord
100
AcDbRegAppTableRecord
  2
ACAD_MLEADERVER
 70
     0
  0
APPID
  5
1229
330
84A
100
AcDbSymbolTableRecord
100
AcDbRegAppTableRecord
  2
ACAD_EXEMPT_FROM_CAD_STANDARDS
 70
     0
  0
APPID
  5
14DB
330
84A
100
AcDbSymbolTableRecord
100
AcDbRegAppTableRecord
  2
ACAD_DSTYLE_DIMJAG
 70
     0
  0
APPID
  5
14DC
330
84A
100
AcDbSymbolTableRecord
100
AcDbRegAppTableRecord
  2
ACAD_DSTYLE_DIMTALN
 70
     0
  0
APPID
  5
169B
330
84A
100
AcDbSymbolTableRecord
100
AcDbRegAppTableRecord
  2
ACAD_DSTYLE_DIM_LINETYPE
 70
     0
  0
APPID
  5
169C
330
84A
100
AcDbSymbolTableRecord
100
AcDbRegAppTableRecord
  2
ACAD_DSTYLE_DIM_EXT1_LINETYPE
 70
     0
  0
APPID
  5
169D
330
84A
100
AcDbSymbolTableRecord
100
AcDbRegAppTableRecord
  2
ACAD_DSTYLE_DIM_EXT2_LINETYPE
 70
     0
  0
ENDTAB
  0
TABLE
  2
DIMSTYLE
  5
84B
330
0
100
AcDbSymbolTable
 70
     9
100
AcDbDimStyleTable
 71
     2
340
FC5
340
871
  0
DIMSTYLE
105
871
330
84B
100
AcDbSymbolTableRecord
100
AcDbDimStyleTableRecord
  2
STANDARD
 70
     0
275
     1
284
     8
285
     8
286
     8
340
852
  0
DIMSTYLE
105
FC5
330
84B
100
AcDbSymbolTableRecord
100
AcDbDimStyleTableRecord
  2
AM_ANSI
 70
     0
  4
mm
 41
0.12
 42
0.05
 43
0.5
 44
0.1
 47
0.1
 48
0.1
 78
     7
 79
     2
140
0.12
141
0.0
146
0.71
147
0.06
176
   256
177
   256
178
     2
274
     4
284
     7
340
852
371
    -1
372
    -1
1001
ACAD_DSTYLE_DIMJOGGED_JOGANGLE_SYMBOL
1070
   384
1040
0.7853981633974483
1001
ACAD_DSTYLE_DIMARC_LENGTH_SYMBOL
1070
   379
1070
     1
1001
ACAD_DSTYLE_DIM_LINETYPE
1070
   380
1005
854
1001
ACAD_DSTYLE_DIM_EXT1_LINETYPE
1070
   381
1005
854
1001
ACAD_DSTYLE_DIM_EXT2_LINETYPE
1070
   382
1005
854
  0
DIMSTYLE
105
FCE
330
84B
100
AcDbSymbolTableRecord
100
AcDbDimStyleTableRecord
  2
AM_ANSI$3
 70
     0
  4
mm
 41
0.12
 42
0.05
 43
0.5
 44
0.1
 47
0.1
 48
0.1
 78
     7
 79
     2
140
0.12
141
0.0
146
0.71
147
0.06
176
   256
177
   256
178
     2
274
     4
284
     7
288
     1
289
     0
340
852
371
    -1
372
    -1
1001
ACAD_DSTYLE_DIMJOGGED_JOGANGLE_SYMBOL
1070
   384
1040
0.7853981633974483
1001
ACAD_DSTYLE_DIMARC_LENGTH_SYMBOL
1070
   379
1070
     1
1001
ACAD_DSTYLE_DIM_LINETYPE
1070
   380
1005
854
1001
ACAD_DSTYLE_DIM_EXT1_LINETYPE
1070
   381
1005
854
1001
ACAD_DSTYLE_DIM_EXT2_LINETYPE
1070
   382
1005
854
  0
DIMSTYLE
105
FD1
330
84B
100
AcDbSymbolTableRecord
100
AcDbDimStyleTableRecord
  2
AM_ANSI$4
 70
     0
  4
mm
 41
0.12
 42
0.05
 43
0.5
 44
0.1
 47
0.1
 48
0.1
 78
     7
 79
     2
140
0.12
141
0.0
146
0.71
147
0.06
176
   256
177
   256
178
     2
274
     4
284
     7
340
852
371
    -1
372
    -1
1001
ACAD_DSTYLE_DIMJOGGED_JOGANGLE_SYMBOL
1070
   384
1040
0.7853981633974483
1001
ACAD_DSTYLE_DIMARC_LENGTH_SYMBOL
1070
   379
1070
     1
1001
ACAD_DSTYLE_DIM_LINETYPE
1070
   380
1005
854
1001
ACAD_DSTYLE_DIM_EXT1_LINETYPE
1070
   381
1005
854
1001
ACAD_DSTYLE_DIM_EXT2_LINETYPE
1070
   382
1005
854
  0
DIMSTYLE
105
FD6
330
84B
100
AcDbSymbolTableRecord
100
AcDbDimStyleTableRecord
  2
AM_ANSI$7
 70
     0
  4
mm
 41
0.12
 42
0.05
 43
0.5
 44
0.1
 47
0.1
 48
0.1
 78
     7
 79
     2
140
0.12
141
0.0
146
0.71
147
0.06
176
   256
177
   256
178
     2
274
     4
284
     7
340
852
371
    -1
372
    -1
1001
ACAD_DSTYLE_DIMJOGGED_JOGANGLE_SYMBOL
1070
   384
1040
0.7853981633974483
1001
ACAD_DSTYLE_DIMARC_LENGTH_SYMBOL
1070
   379
1070
     1
1001
ACAD_DSTYLE_DIM_LINETYPE
1070
   380
1005
854
1001
ACAD_DSTYLE_DIM_EXT1_LINETYPE
1070
   381
1005
854
1001
ACAD_DSTYLE_DIM_EXT2_LINETYPE
1070
   382
1005
854
  0
DIMSTYLE
105
FD9
330
84B
100
AcDbSymbolTableRecord
100
AcDbDimStyleTableRecord
  2
AM_ANSI$SF
 70
     0
  4
mm
 41
0.12
 42
0.05
 43
0.5
 44
0.1
 47
0.1
 48
0.1
 75
     1
 76
     1
 78
     7
 79
     2
140
0.12
141
0.0
146
0.71
147
0.06
176
   256
177
   256
178
     2
274
     4
284
     7
340
852
371
    -1
372
    -1
1001
ACAD_DSTYLE_DIMJOGGED_JOGANGLE_SYMBOL
1070
   384
1040
0.7853981633974483
1001
ACAD_DSTYLE_DIMARC_LENGTH_SYMBOL
1070
   379
1070
     1
1001
ACAD_DSTYLE_DIM_LINETYPE
1070
   380
1005
854
1001
ACAD_DSTYLE_DIM_EXT1_LINETYPE
1070
   381
1005
854
1001
ACAD_DSTYLE_DIM_EXT2_LINETYPE
1070
   382
1005
854
  0
DIMSTYLE
105
FE0
330
84B
100
AcDbSymbolTableRecord
100
AcDbDimStyleTableRecord
  2
AM_ANSI$SH
 70
     0
  4
mm
 41
0.12
 42
0.05
 43
0.5
 44
0.1
 47
0.1
 48
0.1
 75
     1
 76
     1
 78
     7
 79
     2
140
0.12
141
0.0
146
0.71
147
0.06
173
     1
176
   256
177
   256
178
     2
274
     4
284
     7
340
852
343
FDA
371
    -1
372
    -1
1001
ACAD_DSTYLE_DIMJOGGED_JOGANGLE_SYMBOL
1070
   384
1040
0.7853981633974483
1001
ACAD_DSTYLE_DIMARC_LENGTH_SYMBOL
1070
   379
1070
     1
1001
ACAD_DSTYLE_DIM_LINETYPE
1070
   380
1005
854
1001
ACAD_DSTYLE_DIM_EXT1_LINETYPE
1070
   381
1005
854
1001
ACAD_DSTYLE_DIM_EXT2_LINETYPE
1070
   382
1005
854
  0
DIMSTYLE
105
14D9
330
84B
100
AcDbSymbolTableRecord
100
AcDbDimStyleTableRecord
  2
STANDARD1
 70
     0
 40
6.0
 41
2.5
 42
0.625
 43
6.0
 44
1.25
 47
1.0
 48
0.5
 77
     1
 78
     8
140
2.5
141
0.0
146
0.6
147
1.0
173
     1
284
     1
340
852
341
AB7
343
AB7
344
AB7
  0
DIMSTYLE
105
14DA
102
{ACAD_REACTORS
330
1EB3
330
1EB8
330
1EB9
330
1EBA
102
}
330
84B
100
AcDbSymbolTableRecord
100
AcDbDimStyleTableRecord
  2
STANDARD$0
 70
     0
 41
12.0
 42
20.0
 44
20.0
 73
     0
 74
     0
 77
     1
 78
     9
140
64.0
141
0.0
147
10.0
271
     0
272
     0
275
     1
284
     8
285
     8
286
     8
340
852
341
AB7
342
AB2
1001
ACAD_DSTYLE_DIMJAG
1070
   388
1040
1.5
1001
ACAD_DSTYLE_DIMTALN
1070
   392
1070
     0
  0
ENDTAB
  0
TABLE
  2
BLOCK_RECORD
  5
842
330
0
100
AcDbSymbolTable
 70
    40
  0
BLOCK_RECORD
  5
85F
102
{ACAD_XDICTIONARY
360
B4F
102
}
330
842
100
AcDbSymbolTableRecord
100
AcDbBlockTableRecord
  2
*MODEL_SPACE
340
B84
  0
BLOCK_RECORD
  5
85B
102
{ACAD_XDICTIONARY
360
B4D
102
}
330
842
100
AcDbSymbolTableRecord
100
AcDbBlockTableRecord
  2
*PAPER_SPACE
340
B85
  0
BLOCK_RECORD
  5
87E
330
842
100
AcDbSymbolTableRecord
100
AcDbBlockTableRecord
  2
_ORIGIN
340
0
  0
BLOCK_RECORD
  5
AB2
330
842
100
AcDbSymbolTableRecord
100
AcDbBlockTableRecord
  2
_DOTBLANK
340
0
102
{BLKREFS
331
E80
331
E81
331
1123
331
1124
331
11AA
331
11AB
331
11C2
331
11C3
331
11EC
331
11ED
331
11F9
331
11FA
331
1287
331
1288
331
1299
331
129A
331
14B9
331
14BA
331
14C5
331
14C6
331
14D1
331
14D2
331
1677
331
1678
331
1680
331
1681
331
1689
331
168A
331
178A
331
178B
331
1796
331
1797
331
17A2
331
17A3
331
17AE
331
17AF
331
17BA
331
17BB
331
17C6
331
17C7
331
1985
331
1986
331
198E
331
198F
331
1997
331
1998
331
19A0
331
19A1
331
19A9
331
19AA
331
19B2
331
19B3
331
1BBA
331
1BBB
331
1BC6
331
1BC7
331
1BD2
331
1BD3
331
1BDE
331
1BDF
331
1EC4
331
1EC5
331
1ED0
331
1ED1
331
1EDC
331
1EDD
331
1EE8
331
1EE9
102
}
  0
BLOCK_RECORD
  5
AB7
330
842
100
AcDbSymbolTableRecord
100
AcDbBlockTableRecord
  2
_OPEN30
340
0
  0
BLOCK_RECORD
  5
D67
330
842
100
AcDbSymbolTableRecord
100
AcDbBlockTableRecord
  2
*D3
340
0
  0
BLOCK_RECORD
  5
E06
330
842
100
AcDbSymbolTableRecord
100
AcDbBlockTableRecord
  2
*D4
340
0
  0
BLOCK_RECORD
  5
E71
330
842
100
AcDbSymbolTableRecord
100
AcDbBlockTableRecord
  2
*D5
340
0
  0
BLOCK_RECORD
  5
FDA
330
842
100
AcDbSymbolTableRecord
100
AcDbBlockTableRecord
  2
GENAXEH
340
0
  0
BLOCK_RECORD
  5
1114
330
842
100
AcDbSymbolTableRecord
100
AcDbBlockTableRecord
  2
*D7
340
0
  0
BLOCK_RECORD
  5
11BA
330
842
100
AcDbSymbolTableRecord
100
AcDbBlockTableRecord
  2
*D8
340
0
  0
BLOCK_RECORD
  5
11E4
330
842
100
AcDbSymbolTableRecord
100
AcDbBlockTableRecord
  2
*D9
340
0
  0
BLOCK_RECORD
  5
11F3
330
842
100
AcDbSymbolTableRecord
100
AcDbBlockTableRecord
  2
*D10
340
0
  0
BLOCK_RECORD
  5
1281
330
842
100
AcDbSymbolTableRecord
100
AcDbBlockTableRecord
  2
*D11
340
0
  0
BLOCK_RECORD
  5
14B4
330
842
100
AcDbSymbolTableRecord
100
AcDbBlockTableRecord
  2
*D12
340
0
  0
BLOCK_RECORD
  5
14C0
330
842
100
AcDbSymbolTableRecord
100
AcDbBlockTableRecord
  2
*D13
340
0
  0
BLOCK_RECORD
  5
14CC
330
842
100
AcDbSymbolTableRecord
100
AcDbBlockTableRecord
  2
*D14
340
0
  0
BLOCK_RECORD
  5
1593
330
842
100
AcDbSymbolTableRecord
100
AcDbBlockTableRecord
  2
*D15
340
0
  0
BLOCK_RECORD
  5
159F
330
842
100
AcDbSymbolTableRecord
100
AcDbBlockTableRecord
  2
*D16
340
0
  0
BLOCK_RECORD
  5
15AB
330
842
100
AcDbSymbolTableRecord
100
AcDbBlockTableRecord
  2
*D17
340
0
  0
BLOCK_RECORD
  5
1785
330
842
100
AcDbSymbolTableRecord
100
AcDbBlockTableRecord
  2
*D18
340
0
  0
BLOCK_RECORD
  5
1791
330
842
100
AcDbSymbolTableRecord
100
AcDbBlockTableRecord
  2
*D19
340
0
  0
BLOCK_RECORD
  5
179D
330
842
100
AcDbSymbolTableRecord
100
AcDbBlockTableRecord
  2
*D20
340
0
  0
BLOCK_RECORD
  5
17A9
330
842
100
AcDbSymbolTableRecord
100
AcDbBlockTableRecord
  2
*D21
340
0
  0
BLOCK_RECORD
  5
17B5
330
842
100
AcDbSymbolTableRecord
100
AcDbBlockTableRecord
  2
*D22
340
0
  0
BLOCK_RECORD
  5
17C1
330
842
100
AcDbSymbolTableRecord
100
AcDbBlockTableRecord
  2
*D23
340
0
  0
BLOCK_RECORD
  5
193A
330
842
100
AcDbSymbolTableRecord
100
AcDbBlockTableRecord
  2
*D24
340
0
  0
BLOCK_RECORD
  5
1946
330
842
100
AcDbSymbolTableRecord
100
AcDbBlockTableRecord
  2
*D25
340
0
  0
BLOCK_RECORD
  5
1952
330
842
100
AcDbSymbolTableRecord
100
AcDbBlockTableRecord
  2
*D26
340
0
  0
BLOCK_RECORD
  5
195E
330
842
100
AcDbSymbolTableRecord
100
AcDbBlockTableRecord
  2
*D27
340
0
  0
BLOCK_RECORD
  5
196A
330
842
100
AcDbSymbolTableRecord
100
AcDbBlockTableRecord
  2
*D28
340
0
  0
BLOCK_RECORD
  5
1976
330
842
100
AcDbSymbolTableRecord
100
AcDbBlockTableRecord
  2
*D29
340
0
  0
BLOCK_RECORD
  5
1BB5
330
842
100
AcDbSymbolTableRecord
100
AcDbBlockTableRecord
  2
*D31
340
0
  0
BLOCK_RECORD
  5
1BC1
330
842
100
AcDbSymbolTableRecord
100
AcDbBlockTableRecord
  2
*D32
340
0
  0
BLOCK_RECORD
  5
1BCD
330
842
100
AcDbSymbolTableRecord
100
AcDbBlockTableRecord
  2
*D33
340
0
  0
BLOCK_RECORD
  5
1BD9
330
842
100
AcDbSymbolTableRecord
100
AcDbBlockTableRecord
  2
*D34
340
0
  0
BLOCK_RECORD
  5
1EBE
330
842
100
AcDbSymbolTableRecord
100
AcDbBlockTableRecord
  2
*D36
340
0
  0
BLOCK_RECORD
  5
1ECA
330
842
100
AcDbSymbolTableRecord
100
AcDbBlockTableRecord
  2
*D37
340
0
  0
BLOCK_RECORD
  5
1ED6
330
842
100
AcDbSymbolTableRecord
100
AcDbBlockTableRecord
  2
*D38
340
0
  0
BLOCK_RECORD
  5
1EE2
330
842
100
AcDbSymbolTableRecord
100
AcDbBlockTableRecord
  2
*D39
340
0
  0
ENDTAB
  0
ENDSEC
  0
SECTION
  2
BLOCKS
  0
BLOCK
  5
860
330
85F
100
AcDbEntity
  8
0
100
AcDbBlockBegin
  2
*MODEL_SPACE
 70
     0
 10
0.0
 20
0.0
 30
0.0
  3
*MODEL_SPACE
  1

  0
ENDBLK
  5
861
330
85F
100
AcDbEntity
  8
0
100
AcDbBlockEnd
  0
BLOCK
  5
85C
330
85B
100
AcDbEntity
 67
     1
  8
0
100
AcDbBlockBegin
  2
*PAPER_SPACE
 70
     0
 10
0.0
 20
0.0
 30
0.0
  3
*PAPER_SPACE
  1

  0
ENDBLK
  5
85D
330
85B
100
AcDbEntity
 67
     1
  8
0
100
AcDbBlockEnd
  0
BLOCK
  5
87F
330
87E
100
AcDbEntity
  8
0
100
AcDbBlockBegin
  2
_ORIGIN
 70
     0
 10
0.0
 20
0.0
 30
0.0
  3
_ORIGIN
  1

  0
CIRCLE
  5
880
330
87E
100
AcDbEntity
  8
0
  6
Continuous
 62
     7
100
AcDbCircle
 10
0.0
 20
0.0
 30
0.0
 40
0.5
  0
LINE
  5
881
330
87E
100
AcDbEntity
  8
0
  6
Continuous
 62
     7
100
AcDbLine
 10
0.0
 20
0.0
 30
0.0
 11
-1.0
 21
0.0
 31
0.0
  0
ENDBLK
  5
882
330
87E
100
AcDbEntity
  8
0
100
AcDbBlockEnd
  0
BLOCK
  5
AB5
330
AB2
100
AcDbEntity
  8
0
 62
     1
100
AcDbBlockBegin
  2
_DOTBLANK
 70
     0
 10
0.0
 20
0.0
 30
0.0
  3
_DOTBLANK
  1

  0
CIRCLE
  5
AB3
330
AB2
100
AcDbEntity
  8
0
  6
ByBlock
 62
     0
100
AcDbCircle
 10
0.0
 20
0.0
 30
0.0
 40
0.5
  0
LINE
  5
AB4
330
AB2
100
AcDbEntity
  8
0
  6
ByBlock
 62
     0
100
AcDbLine
 10
-0.5
 20
0.0
 30
0.0
 11
-1.0
 21
0.0
 31
0.0
  0
ENDBLK
  5
AB6
330
AB2
100
AcDbEntity
  8
0
 62
     1
100
AcDbBlockEnd
  0
BLOCK
  5
ABB
330
AB7
100
AcDbEntity
  8
0
 62
     1
100
AcDbBlockBegin
  2
_OPEN30
 70
     0
 10
0.0
 20
0.0
 30
0.0
  3
_OPEN30
  1

  0
LINE
  5
AB8
330
AB7
100
AcDbEntity
  8
0
  6
ByBlock
 62
     0
100
AcDbLine
 10
-1.0
 20
0.26794919
 30
0.0
 11
0.0
 21
0.0
 31
0.0
  0
LINE
  5
AB9
330
AB7
100
AcDbEntity
  8
0
  6
ByBlock
 62
     0
100
AcDbLine
 10
0.0
 20
0.0
 30
0.0
 11
-1.0
 21
-0.26794919
 31
0.0
  0
LINE
  5
ABA
330
AB7
100
AcDbEntity
  8
0
  6
ByBlock
 62
     0
100
AcDbLine
 10
0.0
 20
0.0
 30
0.0
 11
-1.0
 21
0.0
 31
0.0
  0
ENDBLK
  5
ABC
330
AB7
100
AcDbEntity
  8
0
 62
     1
100
AcDbBlockEnd
  0
BLOCK
  5
D71
330
D67
100
AcDbEntity
  8
0
100
AcDbBlockBegin
  2
*D3
 70
     1
 10
0.0
 20
0.0
 30
0.0
  3
*D3
  1

  0
LINE
  5
1296
330
D67
100
AcDbEntity
  8
SIZE
 62
     0
370
    -2
100
AcDbLine
 10
-134.5
 20
-320.0
 30
0.0
 11
-134.5
 21
-468.0173952306001
 31
0.0
  0
LINE
  5
1297
330
D67
100
AcDbEntity
  8
SIZE
 62
     0
370
    -2
100
AcDbLine
 10
134.5
 20
-320.0
 30
0.0
 11
134.5
 21
-468.0173952306001
 31
0.0
  0
LINE
  5
1298
330
D67
100
AcDbEntity
  8
SIZE
 62
     0
370
    -2
100
AcDbLine
 10
-122.5
 20
-448.0173952306001
 30
0.0
 11
122.5
 21
-448.0173952306001
 31
0.0
  0
INSERT
  5
1299
330
D67
100
AcDbEntity
  8
SIZE
 62
     0
370
    -2
100
AcDbBlockReference
  2
_DOTBLANK
 10
-134.5
 20
-448.0173952306001
 30
0.0
 41
12.0
 42
12.0
 43
12.0
 50
180.0
  0
INSERT
  5
129A
330
D67
100
AcDbEntity
  8
SIZE
 62
     0
370
    -2
100
AcDbBlockReference
  2
_DOTBLANK
 10
134.5
 20
-448.0173952306001
 30
0.0
 41
12.0
 42
12.0
 43
12.0
  0
MTEXT
  5
129B
330
D67
100
AcDbEntity
  8
SIZE
 62
     0
100
AcDbMText
 10
0.0000000000000026
 20
-406.0173952306
 30
0.0
 40
64.0
 41
0.0
 71
     5
 72
     1
  1
\A1;269
 73
     1
 44
1.0
  0
POINT
  5
129C
330
D67
100
AcDbEntity
  8
DEFPOINTS
 62
     0
100
AcDbPoint
 10
-134.5
 20
-300.0
 30
0.0
  0
POINT
  5
129D
330
D67
100
AcDbEntity
  8
DEFPOINTS
 62
     0
100
AcDbPoint
 10
134.5
 20
-300.0
 30
0.0
  0
POINT
  5
129E
330
D67
100
AcDbEntity
  8
DEFPOINTS
 62
     0
100
AcDbPoint
 10
134.5
 20
-448.0173952306001
 30
0.0
  0
ENDBLK
  5
D72
330
D67
100
AcDbEntity
  8
0
100
AcDbBlockEnd
  0
BLOCK
  5
E10
330
E06
100
AcDbEntity
  8
0
100
AcDbBlockBegin
  2
*D4
 70
     1
 10
0.0
 20
0.0
 30
0.0
  3
*D4
  1

  0
LINE
  5
11A7
330
E06
100
AcDbEntity
  8
SIZE
  6
Continuous
 62
     0
370
    -2
100
AcDbLine
 10
143.5
 20
-300.0
 30
0.0
 11
304.6432844803791
 21
-300.0
 31
0.0
  0
LINE
  5
11A8
330
E06
100
AcDbEntity
  8
SIZE
  6
Continuous
 62
     0
370
    -2
100
AcDbLine
 10
177.5
 20
-0.0000000000000057
 30
0.0
 11
304.6432844803792
 21
-0.0000000000000417
 31
0.0
  0
LINE
  5
11A9
330
E06
100
AcDbEntity
  8
SIZE
  6
Continuous
 62
     0
370
    -2
100
AcDbLine
 10
284.6432844803791
 20
-288.0000000000001
 30
0.0
 11
284.6432844803792
 21
-12.00000000000003
 31
0.0
  0
INSERT
  5
11AA
330
E06
100
AcDbEntity
  8
SIZE
  6
Continuous
 62
     0
370
    -2
100
AcDbBlockReference
  2
_DOTBLANK
 10
284.6432844803791
 20
-300.0
 30
0.0
 41
12.0
 42
12.0
 43
12.0
 50
270.0
  0
INSERT
  5
11AB
330
E06
100
AcDbEntity
  8
SIZE
  6
Continuous
 62
     0
370
    -2
100
AcDbBlockReference
  2
_DOTBLANK
 10
284.6432844803792
 20
-0.000000000000036
 30
0.0
 41
12.0
 42
12.0
 43
12.0
 50
90.0
  0
MTEXT
  5
11AC
330
E06
100
AcDbEntity
  8
SIZE
  6
Continuous
 62
     0
100
AcDbMText
 10
242.6432844803792
 20
-150.0
 30
0.0
 40
64.0
 41
0.0
 71
     5
 72
     1
  1
\A1;300
 11
0.0000000000000001
 21
1.0
 31
0.0
 73
     1
 44
1.0
  0
POINT
  5
11AD
330
E06
100
AcDbEntity
  8
DEFPOINTS
  6
Continuous
 62
     0
100
AcDbPoint
 10
123.5
 20
-300.0
 30
0.0
  0
POINT
  5
11AE
330
E06
100
AcDbEntity
  8
DEFPOINTS
  6
Continuous
 62
     0
100
AcDbPoint
 10
157.5
 20
0.0
 30
0.0
  0
POINT
  5
11AF
330
E06
100
AcDbEntity
  8
DEFPOINTS
  6
Continuous
 62
     0
100
AcDbPoint
 10
284.6432844803792
 20
-0.000000000000036
 30
0.0
  0
ENDBLK
  5
E11
330
E06
100
AcDbEntity
  8
0
100
AcDbBlockEnd
  0
BLOCK
  5
E7B
330
E71
100
AcDbEntity
  8
0
100
AcDbBlockBegin
  2
*D5
 70
     1
 10
0.0
 20
0.0
 30
0.0
  3
*D5
  1

  0
LINE
  5
E7D
330
E71
100
AcDbEntity
  8
SIZE
 62
     0
370
    -2
100
AcDbLine
 10
-139.9999999999999
 20
32.46448280219374
 30
0.0
 11
-139.9999999999999
 21
136.4516878685508
 31
0.0
  0
LINE
  5
E7E
330
E71
100
AcDbEntity
  8
SIZE
 62
     0
370
    -2
100
AcDbLine
 10
140.0
 20
32.46448280219374
 30
0.0
 11
140.0
 21
136.4516878685508
 31
0.0
  0
LINE
  5
E7F
330
E71
100
AcDbEntity
  8
SIZE
 62
     0
370
    -2
100
AcDbLine
 10
-128.0
 20
116.4516878685508
 30
0.0
 11
128.0
 21
116.4516878685508
 31
0.0
  0
INSERT
  5
E80
330
E71
100
AcDbEntity
  8
SIZE
 62
     0
370
    -2
100
AcDbBlockReference
  2
_DOTBLANK
 10
-139.9999999999999
 20
116.4516878685508
 30
0.0
 41
12.0
 42
12.0
 43
12.0
 50
180.0
  0
INSERT
  5
E81
330
E71
100
AcDbEntity
  8
SIZE
 62
     0
370
    -2
100
AcDbBlockReference
  2
_DOTBLANK
 10
140.0
 20
116.4516878685508
 30
0.0
 41
12.0
 42
12.0
 43
12.0
  0
MTEXT
  5
E82
330
E71
100
AcDbEntity
  8
SIZE
 62
     0
100
AcDbMText
 10
0.0000000000000168
 20
158.4516878685508
 30
0.0
 40
64.0
 41
0.0
 71
     5
 72
     1
  1
\A1;280
 73
     1
 44
1.0
  0
POINT
  5
E83
330
E71
100
AcDbEntity
  8
DEFPOINTS
 62
     0
100
AcDbPoint
 10
-139.9999999999999
 20
12.46448280219374
 30
0.0
  0
POINT
  5
E84
330
E71
100
AcDbEntity
  8
DEFPOINTS
 62
     0
100
AcDbPoint
 10
140.0
 20
12.46448280219374
 30
0.0
  0
POINT
  5
E85
330
E71
100
AcDbEntity
  8
DEFPOINTS
 62
     0
100
AcDbPoint
 10
140.0
 20
116.4516878685508
 30
0.0
  0
ENDBLK
  5
E7C
330
E71
100
AcDbEntity
  8
0
100
AcDbBlockEnd
  0
BLOCK
  5
FDC
330
FDA
100
AcDbEntity
  8
0
100
AcDbBlockBegin
  2
GENAXEH
 70
     0
 10
0.0
 20
0.0
 30
0.0
  3
GENAXEH
  1

  0
LINE
  5
FDB
330
FDA
100
AcDbEntity
  8
0
100
AcDbLine
 10
-1.0
 20
0.0
 30
0.0
 11
1.0
 21
0.0
 31
0.0
  0
ENDBLK
  5
FDD
330
FDA
100
AcDbEntity
  8
0
100
AcDbBlockEnd
  0
BLOCK
  5
111E
330
1114
100
AcDbEntity
  8
0
100
AcDbBlockBegin
  2
*D7
 70
     1
 10
0.0
 20
0.0
 30
0.0
  3
*D7
  1

  0
LINE
  5
1120
330
1114
100
AcDbEntity
  8
SIZE
 62
     0
370
    -2
100
AcDbLine
 10
-157.5
 20
20.0
 30
0.0
 11
-157.5
 21
245.5794621189598
 31
0.0
  0
LINE
  5
1121
330
1114
100
AcDbEntity
  8
SIZE
 62
     0
370
    -2
100
AcDbLine
 10
157.5
 20
20.0
 30
0.0
 11
157.5
 21
245.5794621189598
 31
0.0
  0
LINE
  5
1122
330
1114
100
AcDbEntity
  8
SIZE
 62
     0
370
    -2
100
AcDbLine
 10
-145.5
 20
225.5794621189598
 30
0.0
 11
145.5
 21
225.5794621189598
 31
0.0
  0
INSERT
  5
1123
330
1114
100
AcDbEntity
  8
SIZE
 62
     0
370
    -2
100
AcDbBlockReference
  2
_DOTBLANK
 10
-157.5
 20
225.5794621189598
 30
0.0
 41
12.0
 42
12.0
 43
12.0
 50
180.0
  0
INSERT
  5
1124
330
1114
100
AcDbEntity
  8
SIZE
 62
     0
370
    -2
100
AcDbBlockReference
  2
_DOTBLANK
 10
157.5
 20
225.5794621189598
 30
0.0
 41
12.0
 42
12.0
 43
12.0
  0
MTEXT
  5
1125
330
1114
100
AcDbEntity
  8
SIZE
 62
     0
100
AcDbMText
 10
0.0000000000000026
 20
267.5794621189599
 30
0.0
 40
64.0
 41
0.0
 71
     5
 72
     1
  1
\A1;315
 73
     1
 44
1.0
  0
POINT
  5
1126
330
1114
100
AcDbEntity
  8
DEFPOINTS
 62
     0
100
AcDbPoint
 10
-157.5
 20
0.0
 30
0.0
  0
POINT
  5
1127
330
1114
100
AcDbEntity
  8
DEFPOINTS
 62
     0
100
AcDbPoint
 10
157.5
 20
0.0
 30
0.0
  0
POINT
  5
1128
330
1114
100
AcDbEntity
  8
DEFPOINTS
 62
     0
100
AcDbPoint
 10
157.5
 20
225.5794621189598
 30
0.0
  0
ENDBLK
  5
111F
330
1114
100
AcDbEntity
  8
0
100
AcDbBlockEnd
  0
BLOCK
  5
11BB
330
11BA
100
AcDbEntity
  8
0
100
AcDbBlockBegin
  2
*D8
 70
     1
 10
0.0
 20
0.0
 30
0.0
  3
*D8
  1

  0
LINE
  5
11BD
330
11BA
100
AcDbEntity
  8
NOTE
 62
     0
370
    -2
100
AcDbLine
 10
-123.4999999999999
 20
-320.0
 30
0.0
 11
-123.4999999999999
 21
-354.9529861856111
 31
0.0
  0
LINE
  5
11BE
330
11BA
100
AcDbEntity
  8
NOTE
 62
     0
370
    -2
100
AcDbLine
 10
-133.4999999999999
 20
-331.2126909923287
 30
0.0
 11
-133.4999999999999
 21
-354.9529861856111
 31
0.0
  0
LINE
  5
11BF
330
11BA
100
AcDbEntity
  8
NOTE
 62
     0
370
    -2
100
AcDbLine
 10
-111.4999999999999
 20
-334.9529861856112
 30
0.0
 11
-99.4999999999999
 21
-334.9529861856112
 31
0.0
  0
LINE
  5
11C0
330
11BA
100
AcDbEntity
  8
NOTE
 62
     0
370
    -2
100
AcDbLine
 10
-145.4999999999999
 20
-334.9529861856112
 30
0.0
 11
-157.4999999999999
 21
-334.9529861856112
 31
0.0
  0
LINE
  5
11C1
330
11BA
100
AcDbEntity
  8
NOTE
 62
     0
370
    -2
100
AcDbLine
 10
-123.4999999999999
 20
-334.9529861856112
 30
0.0
 11
-133.4999999999999
 21
-334.9529861856112
 31
0.0
  0
INSERT
  5
11C2
330
11BA
100
AcDbEntity
  8
NOTE
 62
     0
370
    -2
100
AcDbBlockReference
  2
_DOTBLANK
 10
-123.4999999999999
 20
-334.9529861856112
 30
0.0
 41
12.0
 42
12.0
 43
12.0
 50
180.0
  0
INSERT
  5
11C3
330
11BA
100
AcDbEntity
  8
NOTE
 62
     0
370
    -2
100
AcDbBlockReference
  2
_DOTBLANK
 10
-133.4999999999999
 20
-334.9529861856112
 30
0.0
 41
12.0
 42
12.0
 43
12.0
  0
MTEXT
  5
11C4
330
11BA
100
AcDbEntity
  8
NOTE
 62
     0
100
AcDbMText
 10
-128.4999999999999
 20
-292.9529861856112
 30
0.0
 40
64.0
 41
0.0
 71
     5
 72
     1
  1
\A1;10
 73
     1
 44
1.0
  0
POINT
  5
11C5
330
11BA
100
AcDbEntity
  8
DEFPOINTS
 62
     0
100
AcDbPoint
 10
-123.4999999999999
 20
-300.0
 30
0.0
  0
POINT
  5
11C6
330
11BA
100
AcDbEntity
  8
DEFPOINTS
 62
     0
100
AcDbPoint
 10
-133.4999999999999
 20
-311.2126909923287
 30
0.0
  0
POINT
  5
11C7
330
11BA
100
AcDbEntity
  8
DEFPOINTS
 62
     0
100
AcDbPoint
 10
-133.4999999999999
 20
-334.9529861856112
 30
0.0
  0
ENDBLK
  5
11BC
330
11BA
100
AcDbEntity
  8
0
100
AcDbBlockEnd
  0
BLOCK
  5
11E5
330
11E4
100
AcDbEntity
  8
0
100
AcDbBlockBegin
  2
*D9
 70
     1
 10
0.0
 20
0.0
 30
0.0
  3
*D9
  1

  0
LINE
  5
11E7
330
11E4
100
AcDbEntity
  8
NOTE
 62
     0
370
    -2
100
AcDbLine
 10
-135.5
 20
-333.2126909923287
 30
0.0
 11
-135.5
 21
-386.2569421441843
 31
0.0
  0
LINE
  5
11E8
330
11E4
100
AcDbEntity
  8
NOTE
 62
     0
370
    -2
100
AcDbLine
 10
-123.4999999999999
 20
-320.0
 30
0.0
 11
-123.4999999999999
 21
-386.2569421441843
 31
0.0
  0
LINE
  5
11E9
330
11E4
100
AcDbEntity
  8
NOTE
 62
     0
370
    -2
100
AcDbLine
 10
-147.5
 20
-366.2569421441844
 30
0.0
 11
-159.5
 21
-366.2569421441844
 31
0.0
  0
LINE
  5
11EA
330
11E4
100
AcDbEntity
  8
NOTE
 62
     0
370
    -2
100
AcDbLine
 10
-111.4999999999999
 20
-366.2569421441844
 30
0.0
 11
-99.4999999999999
 21
-366.2569421441844
 31
0.0
  0
LINE
  5
11EB
330
11E4
100
AcDbEntity
  8
NOTE
 62
     0
370
    -2
100
AcDbLine
 10
-135.5
 20
-366.2569421441844
 30
0.0
 11
-123.4999999999999
 21
-366.2569421441844
 31
0.0
  0
INSERT
  5
11EC
330
11E4
100
AcDbEntity
  8
NOTE
 62
     0
370
    -2
100
AcDbBlockReference
  2
_DOTBLANK
 10
-135.5
 20
-366.2569421441844
 30
0.0
 41
12.0
 42
12.0
 43
12.0
  0
INSERT
  5
11ED
330
11E4
100
AcDbEntity
  8
NOTE
 62
     0
370
    -2
100
AcDbBlockReference
  2
_DOTBLANK
 10
-123.4999999999999
 20
-366.2569421441844
 30
0.0
 41
12.0
 42
12.0
 43
12.0
 50
180.0
  0
MTEXT
  5
11EE
330
11E4
100
AcDbEntity
  8
NOTE
 62
     0
100
AcDbMText
 10
-129.4999999999999
 20
-324.2569421441844
 30
0.0
 40
64.0
 41
0.0
 71
     5
 72
     1
  1
\A1;12
 73
     1
 44
1.0
  0
POINT
  5
11EF
330
11E4
100
AcDbEntity
  8
DEFPOINTS
 62
     0
100
AcDbPoint
 10
-135.5
 20
-313.2126909923287
 30
0.0
  0
POINT
  5
11F0
330
11E4
100
AcDbEntity
  8
DEFPOINTS
 62
     0
100
AcDbPoint
 10
-123.4999999999999
 20
-300.0
 30
0.0
  0
POINT
  5
11F1
330
11E4
100
AcDbEntity
  8
DEFPOINTS
 62
     0
100
AcDbPoint
 10
-123.4999999999999
 20
-366.2569421441844
 30
0.0
  0
ENDBLK
  5
11E6
330
11E4
100
AcDbEntity
  8
0
100
AcDbBlockEnd
  0
BLOCK
  5
11F4
330
11F3
100
AcDbEntity
  8
0
100
AcDbBlockBegin
  2
*D10
 70
     1
 10
0.0
 20
0.0
 30
0.0
  3
*D10
  1

  0
LINE
  5
11F6
330
11F3
100
AcDbEntity
  8
NOTE
 62
     0
370
    -2
100
AcDbLine
 10
-123.4999999999999
 20
-320.0
 30
0.0
 11
-123.4999999999999
 21
-583.8286022818904
 31
0.0
  0
LINE
  5
11F7
330
11F3
100
AcDbEntity
  8
NOTE
 62
     0
370
    -2
100
AcDbLine
 10
123.5
 20
-320.0
 30
0.0
 11
123.5
 21
-583.8286022818904
 31
0.0
  0
LINE
  5
11F8
330
11F3
100
AcDbEntity
  8
NOTE
 62
     0
370
    -2
100
AcDbLine
 10
-111.4999999999999
 20
-563.8286022818904
 30
0.0
 11
111.5
 21
-563.8286022818904
 31
0.0
  0
INSERT
  5
11F9
330
11F3
100
AcDbEntity
  8
NOTE
 62
     0
370
    -2
100
AcDbBlockReference
  2
_DOTBLANK
 10
-123.4999999999999
 20
-563.8286022818904
 30
0.0
 41
12.0
 42
12.0
 43
12.0
 50
180.0
  0
INSERT
  5
11FA
330
11F3
100
AcDbEntity
  8
NOTE
 62
     0
370
    -2
100
AcDbBlockReference
  2
_DOTBLANK
 10
123.5
 20
-563.8286022818904
 30
0.0
 41
12.0
 42
12.0
 43
12.0
  0
MTEXT
  5
11FB
330
11F3
100
AcDbEntity
  8
NOTE
 62
     0
100
AcDbMText
 10
0.0000000000000381
 20
-521.8286022818904
 30
0.0
 40
64.0
 41
0.0
 71
     5
 72
     1
  1
\A1;247
 73
     1
 44
1.0
  0
POINT
  5
11FC
330
11F3
100
AcDbEntity
  8
DEFPOINTS
 62
     0
100
AcDbPoint
 10
-123.4999999999999
 20
-300.0
 30
0.0
  0
POINT
  5
11FD
330
11F3
100
AcDbEntity
  8
DEFPOINTS
 62
     0
100
AcDbPoint
 10
123.5
 20
-300.0
 30
0.0
  0
POINT
  5
11FE
330
11F3
100
AcDbEntity
  8
DEFPOINTS
 62
     0
100
AcDbPoint
 10
123.5
 20
-563.8286022818904
 30
0.0
  0
ENDBLK
  5
11F5
330
11F3
100
AcDbEntity
  8
0
100
AcDbBlockEnd
  0
BLOCK
  5
1282
330
1281
100
AcDbEntity
  8
0
100
AcDbBlockBegin
  2
*D11
 70
     1
 10
0.0
 20
0.0
 30
0.0
  3
*D11
  1

  0
LINE
  5
1284
330
1281
100
AcDbEntity
  8
NOTE
 62
     0
370
    -2
100
AcDbLine
 10
-123.5
 20
12.0
 30
0.0
 11
-123.5
 21
71.83630134534229
 31
0.0
  0
LINE
  5
1285
330
1281
100
AcDbEntity
  8
NOTE
 62
     0
370
    -2
100
AcDbLine
 10
123.5
 20
12.0
 30
0.0
 11
123.5
 21
71.83630134534229
 31
0.0
  0
LINE
  5
1286
330
1281
100
AcDbEntity
  8
NOTE
 62
     0
370
    -2
100
AcDbLine
 10
-111.5
 20
51.83630134534229
 30
0.0
 11
111.5
 21
51.83630134534229
 31
0.0
  0
INSERT
  5
1287
330
1281
100
AcDbEntity
  8
NOTE
 62
     0
370
    -2
100
AcDbBlockReference
  2
_DOTBLANK
 10
-123.5
 20
51.83630134534229
 30
0.0
 41
12.0
 42
12.0
 43
12.0
 50
180.0
  0
INSERT
  5
1288
330
1281
100
AcDbEntity
  8
NOTE
 62
     0
370
    -2
100
AcDbBlockReference
  2
_DOTBLANK
 10
123.5
 20
51.83630134534229
 30
0.0
 41
12.0
 42
12.0
 43
12.0
  0
MTEXT
  5
1289
330
1281
100
AcDbEntity
  8
NOTE
 62
     0
100
AcDbMText
 10
0.0000000000000026
 20
93.83630134534227
 30
0.0
 40
64.0
 41
0.0
 71
     5
 72
     1
  1
\A1;247
 73
     1
 44
1.0
  0
POINT
  5
128A
330
1281
100
AcDbEntity
  8
DEFPOINTS
 62
     0
100
AcDbPoint
 10
-123.5
 20
-8.0
 30
0.0
  0
POINT
  5
128B
330
1281
100
AcDbEntity
  8
DEFPOINTS
 62
     0
100
AcDbPoint
 10
123.5
 20
-8.0
 30
0.0
  0
POINT
  5
128C
330
1281
100
AcDbEntity
  8
DEFPOINTS
 62
     0
100
AcDbPoint
 10
123.5
 20
51.83630134534229
 30
0.0
  0
ENDBLK
  5
1283
330
1281
100
AcDbEntity
  8
0
100
AcDbBlockEnd
  0
BLOCK
  5
14B5
330
14B4
100
AcDbEntity
  8
0
100
AcDbBlockBegin
  2
*D12
 70
     1
 10
0.0
 20
0.0
 30
0.0
  3
*D12
  1

  0
LINE
  5
14B6
330
14B4
100
AcDbEntity
  8
SIZE
 62
     0
370
    -2
100
AcDbLine
 10
-43597.41081784832
 20
7136.397410243569
 30
0.0
 11
-43597.41081784832
 21
7215.570385935878
 31
0.0
  0
LINE
  5
14B7
330
14B4
100
AcDbEntity
  8
SIZE
 62
     0
370
    -2
100
AcDbLine
 10
-42959.41081784833
 20
7136.397410243569
 30
0.0
 11
-42959.41081784833
 21
7215.570385935878
 31
0.0
  0
LINE
  5
14B8
330
14B4
100
AcDbEntity
  8
SIZE
 62
     0
370
    -2
100
AcDbLine
 10
-43585.41081784832
 20
7195.570385935877
 30
0.0
 11
-42971.41081784833
 21
7195.570385935877
 31
0.0
  0
INSERT
  5
14B9
330
14B4
100
AcDbEntity
  8
SIZE
 62
     0
370
    -2
100
AcDbBlockReference
  2
_DOTBLANK
 10
-43597.41081784832
 20
7195.570385935877
 30
0.0
 41
12.0
 42
12.0
 43
12.0
 50
180.0
  0
INSERT
  5
14BA
330
14B4
100
AcDbEntity
  8
SIZE
 62
     0
370
    -2
100
AcDbBlockReference
  2
_DOTBLANK
 10
-42959.41081784833
 20
7195.570385935877
 30
0.0
 41
12.0
 42
12.0
 43
12.0
  0
MTEXT
  5
14BB
330
14B4
100
AcDbEntity
  8
SIZE
 62
     0
100
AcDbMText
 10
-43275.54854626418
 20
7237.570385935878
 30
0.0
 40
64.0
 41
0.0
 71
     5
 72
     1
  1
\A1;638
 73
     1
 44
1.0
  0
POINT
  5
14BC
330
14B4
100
AcDbEntity
  8
DEFPOINTS
 62
     0
100
AcDbPoint
 10
-43597.41081784832
 20
7116.397410243568
 30
0.0
  0
POINT
  5
14BD
330
14B4
100
AcDbEntity
  8
DEFPOINTS
 62
     0
100
AcDbPoint
 10
-42959.41081784833
 20
7116.397410243568
 30
0.0
  0
POINT
  5
14BE
330
14B4
100
AcDbEntity
  8
DEFPOINTS
 62
     0
100
AcDbPoint
 10
-42959.41081784833
 20
7195.570385935877
 30
0.0
  0
ENDBLK
  5
14BF
330
14B4
100
AcDbEntity
  8
0
100
AcDbBlockEnd
  0
BLOCK
  5
14C1
330
14C0
100
AcDbEntity
  8
0
100
AcDbBlockBegin
  2
*D13
 70
     1
 10
0.0
 20
0.0
 30
0.0
  3
*D13
  1

  0
LINE
  5
14C2
330
14C0
100
AcDbEntity
  8
SIZE
 62
     0
370
    -2
100
AcDbLine
 10
-43603.41081784833
 20
7135.597410243569
 30
0.0
 11
-43603.41081784833
 21
7327.499442094151
 31
0.0
  0
LINE
  5
14C3
330
14C0
100
AcDbEntity
  8
SIZE
 62
     0
370
    -2
100
AcDbLine
 10
-42953.41081784832
 20
7135.597410243569
 30
0.0
 11
-42953.41081784832
 21
7327.499442094151
 31
0.0
  0
LINE
  5
14C4
330
14C0
100
AcDbEntity
  8
SIZE
 62
     0
370
    -2
100
AcDbLine
 10
-43591.41081784833
 20
7307.499442094151
 30
0.0
 11
-42965.41081784833
 21
7307.499442094151
 31
0.0
  0
INSERT
  5
14C5
330
14C0
100
AcDbEntity
  8
SIZE
 62
     0
370
    -2
100
AcDbBlockReference
  2
_DOTBLANK
 10
-43603.41081784833
 20
7307.499442094151
 30
0.0
 41
12.0
 42
12.0
 43
12.0
 50
180.0
  0
INSERT
  5
14C6
330
14C0
100
AcDbEntity
  8
SIZE
 62
     0
370
    -2
100
AcDbBlockReference
  2
_DOTBLANK
 10
-42953.41081784832
 20
7307.499442094151
 30
0.0
 41
12.0
 42
12.0
 43
12.0
  0
MTEXT
  5
14C7
330
14C0
100
AcDbEntity
  8
SIZE
 62
     0
100
AcDbMText
 10
-43276.38941307551
 20
7349.499442094153
 30
0.0
 40
64.0
 41
0.0
 71
     5
 72
     1
  1
\A1;650
 73
     1
 44
1.0
  0
POINT
  5
14C8
330
14C0
100
AcDbEntity
  8
DEFPOINTS
 62
     0
100
AcDbPoint
 10
-43603.41081784833
 20
7115.597410243569
 30
0.0
  0
POINT
  5
14C9
330
14C0
100
AcDbEntity
  8
DEFPOINTS
 62
     0
100
AcDbPoint
 10
-42953.41081784832
 20
7115.597410243569
 30
0.0
  0
POINT
  5
14CA
330
14C0
100
AcDbEntity
  8
DEFPOINTS
 62
     0
100
AcDbPoint
 10
-42953.41081784832
 20
7307.499442094151
 30
0.0
  0
ENDBLK
  5
14CB
330
14C0
100
AcDbEntity
  8
0
100
AcDbBlockEnd
  0
BLOCK
  5
14CD
330
14CC
100
AcDbEntity
  8
0
100
AcDbBlockBegin
  2
*D14
 70
     1
 10
0.0
 20
0.0
 30
0.0
  3
*D14
  1

  0
LINE
  5
14CE
330
14CC
100
AcDbEntity
  8
SIZE
 62
     0
370
    -2
100
AcDbLine
 10
-43623.41081784832
 20
7115.597410243569
 30
0.0
 11
-43684.89632895276
 21
7115.597410243569
 31
0.0
  0
LINE
  5
14CF
330
14CC
100
AcDbEntity
  8
SIZE
 62
     0
370
    -2
100
AcDbLine
 10
-43619.41081784832
 20
6809.477626519205
 30
0.0
 11
-43684.89632895276
 21
6809.477626519205
 31
0.0
  0
LINE
  5
14D0
330
14CC
100
AcDbEntity
  8
SIZE
 62
     0
370
    -2
100
AcDbLine
 10
-43664.89632895277
 20
7103.59741024357
 30
0.0
 11
-43664.89632895277
 21
6821.477626519207
 31
0.0
  0
INSERT
  5
14D1
330
14CC
100
AcDbEntity
  8
SIZE
 62
     0
370
    -2
100
AcDbBlockReference
  2
_DOTBLANK
 10
-43664.89632895277
 20
7115.597410243569
 30
0.0
 41
12.0
 42
12.0
 43
12.0
 50
90.0
  0
INSERT
  5
14D2
330
14CC
100
AcDbEntity
  8
SIZE
 62
     0
370
    -2
100
AcDbBlockReference
  2
_DOTBLANK
 10
-43664.89632895277
 20
6809.477626519205
 30
0.0
 41
12.0
 42
12.0
 43
12.0
 50
270.0
  0
MTEXT
  5
14D3
330
14CC
100
AcDbEntity
  8
SIZE
 62
     0
100
AcDbMText
 10
-43706.89632895277
 20
6962.53751838138
 30
0.0
 40
64.0
 41
0.0
 71
     5
 72
     1
  1
\A1;306
 11
0.0000000000000001
 21
1.0
 31
0.0
 73
     1
 44
1.0
  0
POINT
  5
14D4
330
14CC
100
AcDbEntity
  8
DEFPOINTS
 62
     0
100
AcDbPoint
 10
-43603.41081784833
 20
7115.597410243569
 30
0.0
  0
POINT
  5
14D5
330
14CC
100
AcDbEntity
  8
DEFPOINTS
 62
     0
100
AcDbPoint
 10
-43599.41081784833
 20
6809.477626519205
 30
0.0
  0
POINT
  5
14D6
330
14CC
100
AcDbEntity
  8
DEFPOINTS
 62
     0
100
AcDbPoint
 10
-43664.89632895277
 20
6809.477626519205
 30
0.0
  0
ENDBLK
  5
14D7
330
14CC
100
AcDbEntity
  8
0
100
AcDbBlockEnd
  0
BLOCK
  5
1594
330
1593
100
AcDbEntity
  8
0
100
AcDbBlockBegin
  2
*D15
 70
     1
 10
0.0
 20
0.0
 30
0.0
  3
*D15
  1

  0
LINE
  5
1674
330
1593
100
AcDbEntity
  8
SIZE
 62
     0
370
    -2
100
AcDbLine
 10
-319.0
 20
20.80000000000382
 30
0.0
 11
-319.0
 21
99.9729756923125
 31
0.0
  0
LINE
  5
1675
330
1593
100
AcDbEntity
  8
SIZE
 62
     0
370
    -2
100
AcDbLine
 10
319.0
 20
20.80000000000382
 30
0.0
 11
319.0
 21
99.9729756923125
 31
0.0
  0
LINE
  5
1676
330
1593
100
AcDbEntity
  8
SIZE
 62
     0
370
    -2
100
AcDbLine
 10
-307.0
 20
79.9729756923125
 30
0.0
 11
307.0
 21
79.9729756923125
 31
0.0
  0
INSERT
  5
1677
330
1593
100
AcDbEntity
  8
SIZE
 62
     0
370
    -2
100
AcDbBlockReference
  2
_DOTBLANK
 10
-319.0
 20
79.9729756923125
 30
0.0
 41
12.0
 42
12.0
 43
12.0
 50
180.0
  0
INSERT
  5
1678
330
1593
100
AcDbEntity
  8
SIZE
 62
     0
370
    -2
100
AcDbBlockReference
  2
_DOTBLANK
 10
319.0
 20
79.9729756923125
 30
0.0
 41
12.0
 42
12.0
 43
12.0
  0
MTEXT
  5
1679
330
1593
100
AcDbEntity
  8
SIZE
 62
     0
100
AcDbMText
 10
2.862271584133853
 20
121.9729756923125
 30
0.0
 40
64.0
 41
0.0
 71
     5
 72
     1
  1
\A1;638
 73
     1
 44
1.0
  0
POINT
  5
167A
330
1593
100
AcDbEntity
  8
DEFPOINTS
 62
     0
100
AcDbPoint
 10
-319.0
 20
0.8000000000038197
 30
0.0
  0
POINT
  5
167B
330
1593
100
AcDbEntity
  8
DEFPOINTS
 62
     0
100
AcDbPoint
 10
319.0
 20
0.8000000000038197
 30
0.0
  0
POINT
  5
167C
330
1593
100
AcDbEntity
  8
DEFPOINTS
 62
     0
100
AcDbPoint
 10
319.0
 20
79.9729756923125
 30
0.0
  0
ENDBLK
  5
1595
330
1593
100
AcDbEntity
  8
0
100
AcDbBlockEnd
  0
BLOCK
  5
15A0
330
159F
100
AcDbEntity
  8
0
100
AcDbBlockBegin
  2
*D16
 70
     1
 10
0.0
 20
0.0
 30
0.0
  3
*D16
  1

  0
LINE
  5
167D
330
159F
100
AcDbEntity
  8
SIZE
 62
     0
370
    -2
100
AcDbLine
 10
-325.0
 20
20.00000000000455
 30
0.0
 11
-325.0
 21
211.9020318505873
 31
0.0
  0
LINE
  5
167E
330
159F
100
AcDbEntity
  8
SIZE
 62
     0
370
    -2
100
AcDbLine
 10
325.0
 20
20.00000000000455
 30
0.0
 11
325.0
 21
211.9020318505873
 31
0.0
  0
LINE
  5
167F
330
159F
100
AcDbEntity
  8
SIZE
 62
     0
370
    -2
100
AcDbLine
 10
-313.0
 20
191.9020318505872
 30
0.0
 11
313.0
 21
191.9020318505872
 31
0.0
  0
INSERT
  5
1680
330
159F
100
AcDbEntity
  8
SIZE
 62
     0
370
    -2
100
AcDbBlockReference
  2
_DOTBLANK
 10
-325.0
 20
191.9020318505872
 30
0.0
 41
12.0
 42
12.0
 43
12.0
 50
180.0
  0
INSERT
  5
1681
330
159F
100
AcDbEntity
  8
SIZE
 62
     0
370
    -2
100
AcDbBlockReference
  2
_DOTBLANK
 10
325.0
 20
191.9020318505872
 30
0.0
 41
12.0
 42
12.0
 43
12.0
  0
MTEXT
  5
1682
330
159F
100
AcDbEntity
  8
SIZE
 62
     0
100
AcDbMText
 10
2.021404772807728
 20
233.9020318505873
 30
0.0
 40
64.0
 41
0.0
 71
     5
 72
     1
  1
\A1;650
 73
     1
 44
1.0
  0
POINT
  5
1683
330
159F
100
AcDbEntity
  8
DEFPOINTS
 62
     0
100
AcDbPoint
 10
-325.0
 20
0.0000000000045475
 30
0.0
  0
POINT
  5
1684
330
159F
100
AcDbEntity
  8
DEFPOINTS
 62
     0
100
AcDbPoint
 10
325.0
 20
0.0000000000045475
 30
0.0
  0
POINT
  5
1685
330
159F
100
AcDbEntity
  8
DEFPOINTS
 62
     0
100
AcDbPoint
 10
325.0
 20
191.9020318505872
 30
0.0
  0
ENDBLK
  5
15A1
330
159F
100
AcDbEntity
  8
0
100
AcDbBlockEnd
  0
BLOCK
  5
15AC
330
15AB
100
AcDbEntity
  8
0
100
AcDbBlockBegin
  2
*D17
 70
     1
 10
0.0
 20
0.0
 30
0.0
  3
*D17
  1

  0
LINE
  5
1686
330
15AB
100
AcDbEntity
  8
SIZE
 62
     0
370
    -2
100
AcDbLine
 10
-345.0
 20
0.0000000000045531
 30
0.0
 11
-406.485511104438
 21
0.0000000000045706
 31
0.0
  0
LINE
  5
1687
330
15AB
100
AcDbEntity
  8
SIZE
 62
     0
370
    -2
100
AcDbLine
 10
-341.0
 20
-306.1197837243599
 30
0.0
 11
-406.4855111044381
 21
-306.1197837243598
 31
0.0
  0
LINE
  5
1688
330
15AB
100
AcDbEntity
  8
SIZE
 62
     0
370
    -2
100
AcDbLine
 10
-386.4855111044381
 20
-11.99999999999543
 30
0.0
 11
-386.4855111044381
 21
-294.1197837243598
 31
0.0
  0
INSERT
  5
1689
330
15AB
100
AcDbEntity
  8
SIZE
 62
     0
370
    -2
100
AcDbBlockReference
  2
_DOTBLANK
 10
-386.4855111044381
 20
0.0000000000045649
 30
0.0
 41
12.0
 42
12.0
 43
12.0
 50
90.0
  0
INSERT
  5
168A
330
15AB
100
AcDbEntity
  8
SIZE
 62
     0
370
    -2
100
AcDbBlockReference
  2
_DOTBLANK
 10
-386.4855111044381
 20
-306.1197837243598
 30
0.0
 41
12.0
 42
12.0
 43
12.0
 50
270.0
  0
MTEXT
  5
168B
330
15AB
100
AcDbEntity
  8
SIZE
 62
     0
100
AcDbMText
 10
-428.485511104438
 20
-153.0598918621845
 30
0.0
 40
64.0
 41
0.0
 71
     5
 72
     1
  1
\A1;306
 11
0.0000000000000001
 21
1.0
 31
0.0
 73
     1
 44
1.0
  0
POINT
  5
168C
330
15AB
100
AcDbEntity
  8
DEFPOINTS
 62
     0
100
AcDbPoint
 10
-325.0
 20
0.0000000000045475
 30
0.0
  0
POINT
  5
168D
330
15AB
100
AcDbEntity
  8
DEFPOINTS
 62
     0
100
AcDbPoint
 10
-321.0
 20
-306.1197837243599
 30
0.0
  0
POINT
  5
168E
330
15AB
100
AcDbEntity
  8
DEFPOINTS
 62
     0
100
AcDbPoint
 10
-386.4855111044381
 20
-306.1197837243598
 30
0.0
  0
ENDBLK
  5
15AD
330
15AB
100
AcDbEntity
  8
0
100
AcDbBlockEnd
  0
BLOCK
  5
1786
330
1785
100
AcDbEntity
  8
0
100
AcDbBlockBegin
  2
*D18
 70
     1
 10
0.0
 20
0.0
 30
0.0
  3
*D18
  1

  0
LINE
  5
1787
330
1785
100
AcDbEntity
  8
SIZE
  6
Continuous
 62
     0
370
    -2
100
AcDbLine
 10
-45358.05922524454
 20
7285.807446119601
 30
0.0
 11
-45358.05922524454
 21
7546.953386755138
 31
0.0
  0
LINE
  5
1788
330
1785
100
AcDbEntity
  8
SIZE
  6
Continuous
 62
     0
370
    -2
100
AcDbLine
 10
-44636.05922524452
 20
7279.807446119601
 30
0.0
 11
-44636.05922524452
 21
7546.953386755138
 31
0.0
  0
LINE
  5
1789
330
1785
100
AcDbEntity
  8
SIZE
  6
Continuous
 62
     0
370
    -2
100
AcDbLine
 10
-45346.05922524453
 20
7526.953386755136
 30
0.0
 11
-44648.05922524453
 21
7526.953386755136
 31
0.0
  0
INSERT
  5
178A
330
1785
100
AcDbEntity
  8
SIZE
  6
Continuous
 62
     0
370
    -2
100
AcDbBlockReference
  2
_DOTBLANK
 10
-45358.05922524454
 20
7526.953386755136
 30
0.0
 41
12.0
 42
12.0
 43
12.0
 50
180.0
  0
INSERT
  5
178B
330
1785
100
AcDbEntity
  8
SIZE
  6
Continuous
 62
     0
370
    -2
100
AcDbBlockReference
  2
_DOTBLANK
 10
-44636.05922524452
 20
7526.953386755136
 30
0.0
 41
12.0
 42
12.0
 43
12.0
  0
MTEXT
  5
178C
330
1785
100
AcDbEntity
  8
SIZE
  6
Continuous
 62
     0
100
AcDbMText
 10
-44998.11310905065
 20
7568.953386755136
 30
0.0
 40
64.0
 41
0.0
 71
     5
 72
     1
  1
\A1;722
 73
     1
 44
1.0
  0
POINT
  5
178D
330
1785
100
AcDbEntity
  8
DEFPOINTS
  6
Continuous
 62
     0
100
AcDbPoint
 10
-45358.05922524454
 20
7265.807446119601
 30
0.0
  0
POINT
  5
178E
330
1785
100
AcDbEntity
  8
DEFPOINTS
  6
Continuous
 62
     0
100
AcDbPoint
 10
-44636.05922524452
 20
7259.807446119601
 30
0.0
  0
POINT
  5
178F
330
1785
100
AcDbEntity
  8
DEFPOINTS
  6
Continuous
 62
     0
100
AcDbPoint
 10
-44636.05922524452
 20
7526.953386755136
 30
0.0
  0
ENDBLK
  5
1790
330
1785
100
AcDbEntity
  8
0
100
AcDbBlockEnd
  0
BLOCK
  5
1792
330
1791
100
AcDbEntity
  8
0
100
AcDbBlockBegin
  2
*D19
 70
     1
 10
0.0
 20
0.0
 30
0.0
  3
*D19
  1

  0
LINE
  5
1793
330
1791
100
AcDbEntity
  8
SIZE
  6
Continuous
 62
     0
370
    -2
100
AcDbLine
 10
-45366.55922524452
 20
7277.407446119602
 30
0.0
 11
-45366.55922524452
 21
7670.627983468675
 31
0.0
  0
LINE
  5
1794
330
1791
100
AcDbEntity
  8
SIZE
  6
Continuous
 62
     0
370
    -2
100
AcDbLine
 10
-44626.56479805351
 20
7271.507446119605
 30
0.0
 11
-44626.56479805351
 21
7670.627983468675
 31
0.0
  0
LINE
  5
1795
330
1791
100
AcDbEntity
  8
SIZE
  6
Continuous
 62
     0
370
    -2
100
AcDbLine
 10
-45354.55922524453
 20
7650.627983468677
 30
0.0
 11
-44638.56479805353
 21
7650.627983468677
 31
0.0
  0
INSERT
  5
1796
330
1791
100
AcDbEntity
  8
SIZE
  6
Continuous
 62
     0
370
    -2
100
AcDbBlockReference
  2
_DOTBLANK
 10
-45366.55922524452
 20
7650.627983468677
 30
0.0
 41
12.0
 42
12.0
 43
12.0
 50
180.0
  0
INSERT
  5
1797
330
1791
100
AcDbEntity
  8
SIZE
  6
Continuous
 62
     0
370
    -2
100
AcDbBlockReference
  2
_DOTBLANK
 10
-44626.56479805351
 20
7650.627983468677
 30
0.0
 41
12.0
 42
12.0
 43
12.0
  0
MTEXT
  5
1798
330
1791
100
AcDbEntity
  8
SIZE
  6
Continuous
 62
     0
100
AcDbMText
 10
-44998.11310905065
 20
7692.627983468677
 30
0.0
 40
64.0
 41
0.0
 71
     5
 72
     1
  1
\A1;740
 73
     1
 44
1.0
  0
POINT
  5
1799
330
1791
100
AcDbEntity
  8
DEFPOINTS
  6
Continuous
 62
     0
100
AcDbPoint
 10
-45366.55922524452
 20
7257.407446119602
 30
0.0
  0
POINT
  5
179A
330
1791
100
AcDbEntity
  8
DEFPOINTS
  6
Continuous
 62
     0
100
AcDbPoint
 10
-44626.56479805351
 20
7251.507446119608
 30
0.0
  0
POINT
  5
179B
330
1791
100
AcDbEntity
  8
DEFPOINTS
  6
Continuous
 62
     0
100
AcDbPoint
 10
-44626.56479805351
 20
7650.627983468677
 30
0.0
  0
ENDBLK
  5
179C
330
1791
100
AcDbEntity
  8
0
100
AcDbBlockEnd
  0
BLOCK
  5
179E
330
179D
100
AcDbEntity
  8
0
100
AcDbBlockBegin
  2
*D20
 70
     1
 10
0.0
 20
0.0
 30
0.0
  3
*D20
  1

  0
LINE
  5
179F
330
179D
100
AcDbEntity
  8
SIZE
  6
Continuous
 62
     0
370
    -2
100
AcDbLine
 10
-45385.65922524454
 20
7258.307446119601
 30
0.0
 11
-45495.92069545932
 21
7258.307446119601
 31
0.0
  0
LINE
  5
17A0
330
179D
100
AcDbEntity
  8
SIZE
  6
Continuous
 62
     0
370
    -2
100
AcDbLine
 10
-45385.55922524452
 20
6952.444433417705
 30
0.0
 11
-45495.92069545932
 21
6952.444433417705
 31
0.0
  0
LINE
  5
17A1
330
179D
100
AcDbEntity
  8
SIZE
  6
Continuous
 62
     0
370
    -2
100
AcDbLine
 10
-45475.92069545931
 20
7246.307446119601
 30
0.0
 11
-45475.92069545931
 21
6964.444433417701
 31
0.0
  0
INSERT
  5
17A2
330
179D
100
AcDbEntity
  8
SIZE
  6
Continuous
 62
     0
370
    -2
100
AcDbBlockReference
  2
_DOTBLANK
 10
-45475.92069545931
 20
7258.307446119601
 30
0.0
 41
12.0
 42
12.0
 43
12.0
 50
90.0
  0
INSERT
  5
17A3
330
179D
100
AcDbEntity
  8
SIZE
  6
Continuous
 62
     0
370
    -2
100
AcDbBlockReference
  2
_DOTBLANK
 10
-45475.92069545931
 20
6952.444433417705
 30
0.0
 41
12.0
 42
12.0
 43
12.0
 50
270.0
  0
MTEXT
  5
17A4
330
179D
100
AcDbEntity
  8
SIZE
  6
Continuous
 62
     0
100
AcDbMText
 10
-45517.92069545931
 20
7105.375939768645
 30
0.0
 40
64.0
 41
0.0
 71
     5
 72
     1
  1
\A1;306
 11
0.0000000000000001
 21
1.0
 31
0.0
 73
     1
 44
1.0
  0
POINT
  5
17A5
330
179D
100
AcDbEntity
  8
DEFPOINTS
  6
Continuous
 62
     0
100
AcDbPoint
 10
-45365.65922524454
 20
7258.307446119601
 30
0.0
  0
POINT
  5
17A6
330
179D
100
AcDbEntity
  8
DEFPOINTS
  6
Continuous
 62
     0
100
AcDbPoint
 10
-45365.55922524454
 20
6952.444433417705
 30
0.0
  0
POINT
  5
17A7
330
179D
100
AcDbEntity
  8
DEFPOINTS
  6
Continuous
 62
     0
100
AcDbPoint
 10
-45475.92069545931
 20
6952.444433417705
 30
0.0
  0
ENDBLK
  5
17A8
330
179D
100
AcDbEntity
  8
0
100
AcDbBlockEnd
  0
BLOCK
  5
17AA
330
17A9
100
AcDbEntity
  8
0
100
AcDbBlockBegin
  2
*D21
 70
     1
 10
0.0
 20
0.0
 30
0.0
  3
*D21
  1

  0
LINE
  5
17AB
330
17A9
100
AcDbEntity
  8
SIZE
  6
Continuous
 62
     0
370
    -2
100
AcDbLine
 10
-44607.45922524453
 20
7252.307446119603
 30
0.0
 11
-44431.09993777651
 21
7252.307446119603
 31
0.0
  0
LINE
  5
17AC
330
17A9
100
AcDbEntity
  8
SIZE
  6
Continuous
 62
     0
370
    -2
100
AcDbLine
 10
-44607.55922524453
 20
6952.444433417666
 30
0.0
 11
-44431.09993777651
 21
6952.444433417666
 31
0.0
  0
LINE
  5
17AD
330
17A9
100
AcDbEntity
  8
SIZE
  6
Continuous
 62
     0
370
    -2
100
AcDbLine
 10
-44451.09993777651
 20
7240.307446119603
 30
0.0
 11
-44451.09993777651
 21
6964.444433417668
 31
0.0
  0
INSERT
  5
17AE
330
17A9
100
AcDbEntity
  8
SIZE
  6
Continuous
 62
     0
370
    -2
100
AcDbBlockReference
  2
_DOTBLANK
 10
-44451.09993777651
 20
7252.307446119603
 30
0.0
 41
12.0
 42
12.0
 43
12.0
 50
90.0
  0
INSERT
  5
17AF
330
17A9
100
AcDbEntity
  8
SIZE
  6
Continuous
 62
     0
370
    -2
100
AcDbBlockReference
  2
_DOTBLANK
 10
-44451.09993777651
 20
6952.444433417666
 30
0.0
 41
12.0
 42
12.0
 43
12.0
 50
270.0
  0
MTEXT
  5
17B0
330
17A9
100
AcDbEntity
  8
SIZE
  6
Continuous
 62
     0
100
AcDbMText
 10
-44493.09993777651
 20
7102.375939768625
 30
0.0
 40
64.0
 41
0.0
 71
     5
 72
     1
  1
\A1;300
 11
0.0000000000000001
 21
1.0
 31
0.0
 73
     1
 44
1.0
  0
POINT
  5
17B1
330
17A9
100
AcDbEntity
  8
DEFPOINTS
  6
Continuous
 62
     0
100
AcDbPoint
 10
-44627.45922524453
 20
7252.307446119603
 30
0.0
  0
POINT
  5
17B2
330
17A9
100
AcDbEntity
  8
DEFPOINTS
  6
Continuous
 62
     0
100
AcDbPoint
 10
-44627.55922524451
 20
6952.444433417666
 30
0.0
  0
POINT
  5
17B3
330
17A9
100
AcDbEntity
  8
DEFPOINTS
  6
Continuous
 62
     0
100
AcDbPoint
 10
-44451.09993777651
 20
6952.444433417666
 30
0.0
  0
ENDBLK
  5
17B4
330
17A9
100
AcDbEntity
  8
0
100
AcDbBlockEnd
  0
BLOCK
  5
17B6
330
17B5
100
AcDbEntity
  8
0
100
AcDbBlockBegin
  2
*D22
 70
     1
 10
0.0
 20
0.0
 30
0.0
  3
*D22
  1

  0
LINE
  5
17B7
330
17B5
100
AcDbEntity
  8
SIZE
  6
Continuous
 62
     0
370
    -2
100
AcDbLine
 10
-45277.05922524453
 20
7279.289962951134
 30
0.0
 11
-45277.05922524453
 21
7404.811903106261
 31
0.0
  0
LINE
  5
17B8
330
17B5
100
AcDbEntity
  8
SIZE
  6
Continuous
 62
     0
370
    -2
100
AcDbLine
 10
-44973.05922524454
 20
7279.289962951118
 30
0.0
 11
-44973.05922524454
 21
7404.811903106261
 31
0.0
  0
LINE
  5
17B9
330
17B5
100
AcDbEntity
  8
SIZE
  6
Continuous
 62
     0
370
    -2
100
AcDbLine
 10
-45265.05922524452
 20
7384.81190310626
 30
0.0
 11
-44985.05922524453
 21
7384.81190310626
 31
0.0
  0
INSERT
  5
17BA
330
17B5
100
AcDbEntity
  8
SIZE
  6
Continuous
 62
     0
370
    -2
100
AcDbBlockReference
  2
_DOTBLANK
 10
-45277.05922524453
 20
7384.81190310626
 30
0.0
 41
12.0
 42
12.0
 43
12.0
 50
180.0
  0
INSERT
  5
17BB
330
17B5
100
AcDbEntity
  8
SIZE
  6
Continuous
 62
     0
370
    -2
100
AcDbBlockReference
  2
_DOTBLANK
 10
-44973.05922524454
 20
7384.81190310626
 30
0.0
 41
12.0
 42
12.0
 43
12.0
  0
MTEXT
  5
17BC
330
17B5
100
AcDbEntity
  8
SIZE
  6
Continuous
 62
     0
100
AcDbMText
 10
-45125.05922524454
 20
7426.811903106261
 30
0.0
 40
64.0
 41
0.0
 71
     5
 72
     1
  1
\A1;304
 73
     1
 44
1.0
  0
POINT
  5
17BD
330
17B5
100
AcDbEntity
  8
DEFPOINTS
  6
Continuous
 62
     0
100
AcDbPoint
 10
-45277.05922524453
 20
7259.289962951133
 30
0.0
  0
POINT
  5
17BE
330
17B5
100
AcDbEntity
  8
DEFPOINTS
  6
Continuous
 62
     0
100
AcDbPoint
 10
-44973.05922524454
 20
7259.289962951118
 30
0.0
  0
POINT
  5
17BF
330
17B5
100
AcDbEntity
  8
DEFPOINTS
  6
Continuous
 62
     0
100
AcDbPoint
 10
-44973.05922524454
 20
7384.81190310626
 30
0.0
  0
ENDBLK
  5
17C0
330
17B5
100
AcDbEntity
  8
0
100
AcDbBlockEnd
  0
BLOCK
  5
17C2
330
17C1
100
AcDbEntity
  8
0
100
AcDbBlockBegin
  2
*D23
 70
     1
 10
0.0
 20
0.0
 30
0.0
  3
*D23
  1

  0
LINE
  5
17C3
330
17C1
100
AcDbEntity
  8
SIZE
  6
Continuous
 62
     0
370
    -2
100
AcDbLine
 10
-44973.05922524454
 20
7279.807446119601
 30
0.0
 11
-44973.05922524454
 21
7404.811903106261
 31
0.0
  0
LINE
  5
17C4
330
17C1
100
AcDbEntity
  8
SIZE
  6
Continuous
 62
     0
370
    -2
100
AcDbLine
 10
-44644.25922524453
 20
7279.807446119601
 30
0.0
 11
-44644.25922524453
 21
7404.811903106261
 31
0.0
  0
LINE
  5
17C5
330
17C1
100
AcDbEntity
  8
SIZE
  6
Continuous
 62
     0
370
    -2
100
AcDbLine
 10
-44961.05922524453
 20
7384.81190310626
 30
0.0
 11
-44656.25922524453
 21
7384.81190310626
 31
0.0
  0
INSERT
  5
17C6
330
17C1
100
AcDbEntity
  8
SIZE
  6
Continuous
 62
     0
370
    -2
100
AcDbBlockReference
  2
_DOTBLANK
 10
-44973.05922524454
 20
7384.81190310626
 30
0.0
 41
12.0
 42
12.0
 43
12.0
 50
180.0
  0
INSERT
  5
17C7
330
17C1
100
AcDbEntity
  8
SIZE
  6
Continuous
 62
     0
370
    -2
100
AcDbBlockReference
  2
_DOTBLANK
 10
-44644.25922524453
 20
7384.81190310626
 30
0.0
 41
12.0
 42
12.0
 43
12.0
  0
MTEXT
  5
17C8
330
17C1
100
AcDbEntity
  8
SIZE
  6
Continuous
 62
     0
100
AcDbMText
 10
-44808.65922524453
 20
7426.811903106261
 30
0.0
 40
64.0
 41
0.0
 71
     5
 72
     1
  1
\A1;329
 73
     1
 44
1.0
  0
POINT
  5
17C9
330
17C1
100
AcDbEntity
  8
DEFPOINTS
  6
Continuous
 62
     0
100
AcDbPoint
 10
-44973.05922524454
 20
7259.807446119601
 30
0.0
  0
POINT
  5
17CA
330
17C1
100
AcDbEntity
  8
DEFPOINTS
  6
Continuous
 62
     0
100
AcDbPoint
 10
-44644.25922524453
 20
7259.807446119601
 30
0.0
  0
POINT
  5
17CB
330
17C1
100
AcDbEntity
  8
DEFPOINTS
  6
Continuous
 62
     0
100
AcDbPoint
 10
-44644.25922524453
 20
7384.81190310626
 30
0.0
  0
ENDBLK
  5
17CC
330
17C1
100
AcDbEntity
  8
0
100
AcDbBlockEnd
  0
BLOCK
  5
193B
330
193A
100
AcDbEntity
  8
0
100
AcDbBlockBegin
  2
*D24
 70
     1
 10
0.0
 20
0.0
 30
0.0
  3
*D24
  1

  0
LINE
  5
1982
330
193A
100
AcDbEntity
  8
SIZE
  6
Continuous
 62
     0
370
    -2
100
AcDbLine
 10
-361.0
 20
33.49999999999182
 30
0.0
 11
-361.0
 21
294.645940635528
 31
0.0
  0
LINE
  5
1983
330
193A
100
AcDbEntity
  8
SIZE
  6
Continuous
 62
     0
370
    -2
100
AcDbLine
 10
361.0
 20
27.49999999999181
 30
0.0
 11
361.0
 21
294.645940635528
 31
0.0
  0
LINE
  5
1984
330
193A
100
AcDbEntity
  8
SIZE
  6
Continuous
 62
     0
370
    -2
100
AcDbLine
 10
-349.0
 20
274.6459406355279
 30
0.0
 11
349.0
 21
274.6459406355279
 31
0.0
  0
INSERT
  5
1985
330
193A
100
AcDbEntity
  8
SIZE
  6
Continuous
 62
     0
370
    -2
100
AcDbBlockReference
  2
_DOTBLANK
 10
-361.0
 20
274.6459406355279
 30
0.0
 41
12.0
 42
12.0
 43
12.0
 50
180.0
  0
INSERT
  5
1986
330
193A
100
AcDbEntity
  8
SIZE
  6
Continuous
 62
     0
370
    -2
100
AcDbBlockReference
  2
_DOTBLANK
 10
361.0
 20
274.6459406355279
 30
0.0
 41
12.0
 42
12.0
 43
12.0
  0
MTEXT
  5
1987
330
193A
100
AcDbEntity
  8
SIZE
  6
Continuous
 62
     0
100
AcDbMText
 10
-1.053883806118389
 20
316.645940635528
 30
0.0
 40
64.0
 41
0.0
 71
     5
 72
     1
  1
\A1;722
 73
     1
 44
1.0
  0
POINT
  5
1988
330
193A
100
AcDbEntity
  8
DEFPOINTS
  6
Continuous
 62
     0
100
AcDbPoint
 10
-361.0
 20
13.49999999999181
 30
0.0
  0
POINT
  5
1989
330
193A
100
AcDbEntity
  8
DEFPOINTS
  6
Continuous
 62
     0
100
AcDbPoint
 10
361.0
 20
7.499999999991812
 30
0.0
  0
POINT
  5
198A
330
193A
100
AcDbEntity
  8
DEFPOINTS
  6
Continuous
 62
     0
100
AcDbPoint
 10
361.0
 20
274.6459406355279
 30
0.0
  0
ENDBLK
  5
193C
330
193A
100
AcDbEntity
  8
0
100
AcDbBlockEnd
  0
BLOCK
  5
1947
330
1946
100
AcDbEntity
  8
0
100
AcDbBlockBegin
  2
*D25
 70
     1
 10
0.0
 20
0.0
 30
0.0
  3
*D25
  1

  0
LINE
  5
198B
330
1946
100
AcDbEntity
  8
SIZE
  6
Continuous
 62
     0
370
    -2
100
AcDbLine
 10
-369.5
 20
25.09999999999218
 30
0.0
 11
-369.5
 21
418.3205373490673
 31
0.0
  0
LINE
  5
198C
330
1946
100
AcDbEntity
  8
SIZE
  6
Continuous
 62
     0
370
    -2
100
AcDbLine
 10
370.4944271910063
 20
19.19999999999709
 30
0.0
 11
370.4944271910063
 21
418.3205373490673
 31
0.0
  0
LINE
  5
198D
330
1946
100
AcDbEntity
  8
SIZE
  6
Continuous
 62
     0
370
    -2
100
AcDbLine
 10
-357.5
 20
398.3205373490673
 30
0.0
 11
358.4944271910063
 21
398.3205373490673
 31
0.0
  0
INSERT
  5
198E
330
1946
100
AcDbEntity
  8
SIZE
  6
Continuous
 62
     0
370
    -2
100
AcDbBlockReference
  2
_DOTBLANK
 10
-369.5
 20
398.3205373490673
 30
0.0
 41
12.0
 42
12.0
 43
12.0
 50
180.0
  0
INSERT
  5
198F
330
1946
100
AcDbEntity
  8
SIZE
  6
Continuous
 62
     0
370
    -2
100
AcDbBlockReference
  2
_DOTBLANK
 10
370.4944271910063
 20
398.3205373490673
 30
0.0
 41
12.0
 42
12.0
 43
12.0
  0
MTEXT
  5
1990
330
1946
100
AcDbEntity
  8
SIZE
  6
Continuous
 62
     0
100
AcDbMText
 10
-1.053883806118389
 20
440.3205373490671
 30
0.0
 40
64.0
 41
0.0
 71
     5
 72
     1
  1
\A1;740
 73
     1
 44
1.0
  0
POINT
  5
1991
330
1946
100
AcDbEntity
  8
DEFPOINTS
  6
Continuous
 62
     0
100
AcDbPoint
 10
-369.5
 20
5.099999999992176
 30
0.0
  0
POINT
  5
1992
330
1946
100
AcDbEntity
  8
DEFPOINTS
  6
Continuous
 62
     0
100
AcDbPoint
 10
370.4944271910063
 20
-0.8000000000029102
 30
0.0
  0
POINT
  5
1993
330
1946
100
AcDbEntity
  8
DEFPOINTS
  6
Continuous
 62
     0
100
AcDbPoint
 10
370.4944271910063
 20
398.3205373490673
 30
0.0
  0
ENDBLK
  5
1948
330
1946
100
AcDbEntity
  8
0
100
AcDbBlockEnd
  0
BLOCK
  5
1953
330
1952
100
AcDbEntity
  8
0
100
AcDbBlockBegin
  2
*D26
 70
     1
 10
0.0
 20
0.0
 30
0.0
  3
*D26
  1

  0
LINE
  5
1994
330
1952
100
AcDbEntity
  8
SIZE
  6
Continuous
 62
     0
370
    -2
100
AcDbLine
 10
-388.6000000000058
 20
5.999999999991817
 30
0.0
 11
-498.8614702147751
 21
5.999999999991851
 31
0.0
  0
LINE
  5
1995
330
1952
100
AcDbEntity
  8
SIZE
  6
Continuous
 62
     0
370
    -2
100
AcDbLine
 10
-388.5
 20
-299.863012701905
 30
0.0
 11
-498.8614702147751
 21
-299.863012701905
 31
0.0
  0
LINE
  5
1996
330
1952
100
AcDbEntity
  8
SIZE
  6
Continuous
 62
     0
370
    -2
100
AcDbLine
 10
-478.8614702147752
 20
-6.000000000008152
 30
0.0
 11
-478.8614702147752
 21
-287.863012701905
 31
0.0
  0
INSERT
  5
1997
330
1952
100
AcDbEntity
  8
SIZE
  6
Continuous
 62
     0
370
    -2
100
AcDbBlockReference
  2
_DOTBLANK
 10
-478.8614702147752
 20
5.999999999991846
 30
0.0
 41
12.0
 42
12.0
 43
12.0
 50
90.0
  0
INSERT
  5
1998
330
1952
100
AcDbEntity
  8
SIZE
  6
Continuous
 62
     0
370
    -2
100
AcDbBlockReference
  2
_DOTBLANK
 10
-478.8614702147752
 20
-299.863012701905
 30
0.0
 41
12.0
 42
12.0
 43
12.0
 50
270.0
  0
MTEXT
  5
1999
330
1952
100
AcDbEntity
  8
SIZE
  6
Continuous
 62
     0
100
AcDbMText
 10
-520.8614702147752
 20
-146.9315063509566
 30
0.0
 40
64.0
 41
0.0
 71
     5
 72
     1
  1
\A1;306
 11
0.0000000000000001
 21
1.0
 31
0.0
 73
     1
 44
1.0
  0
POINT
  5
199A
330
1952
100
AcDbEntity
  8
DEFPOINTS
  6
Continuous
 62
     0
100
AcDbPoint
 10
-368.6000000000058
 20
5.999999999991812
 30
0.0
  0
POINT
  5
199B
330
1952
100
AcDbEntity
  8
DEFPOINTS
  6
Continuous
 62
     0
100
AcDbPoint
 10
-368.5
 20
-299.8630127019051
 30
0.0
  0
POINT
  5
199C
330
1952
100
AcDbEntity
  8
DEFPOINTS
  6
Continuous
 62
     0
100
AcDbPoint
 10
-478.8614702147752
 20
-299.863012701905
 30
0.0
  0
ENDBLK
  5
1954
330
1952
100
AcDbEntity
  8
0
100
AcDbBlockEnd
  0
BLOCK
  5
195F
330
195E
100
AcDbEntity
  8
0
100
AcDbBlockBegin
  2
*D27
 70
     1
 10
0.0
 20
0.0
 30
0.0
  3
*D27
  1

  0
LINE
  5
199D
330
195E
100
AcDbEntity
  8
SIZE
  6
Continuous
 62
     0
370
    -2
100
AcDbLine
 10
389.6000000000058
 20
-0.0000000000063721
 30
0.0
 11
565.9592874680239
 21
-0.0000000000064221
 31
0.0
  0
LINE
  5
199E
330
195E
100
AcDbEntity
  8
SIZE
  6
Continuous
 62
     0
370
    -2
100
AcDbLine
 10
389.5
 20
-299.8630127019415
 30
0.0
 11
565.9592874680237
 21
-299.8630127019415
 31
0.0
  0
LINE
  5
199F
330
195E
100
AcDbEntity
  8
SIZE
  6
Continuous
 62
     0
370
    -2
100
AcDbLine
 10
545.9592874680239
 20
-12.00000000000641
 30
0.0
 11
545.9592874680238
 21
-287.8630127019415
 31
0.0
  0
INSERT
  5
19A0
330
195E
100
AcDbEntity
  8
SIZE
  6
Continuous
 62
     0
370
    -2
100
AcDbBlockReference
  2
_DOTBLANK
 10
545.9592874680239
 20
-0.0000000000064164
 30
0.0
 41
12.0
 42
12.0
 43
12.0
 50
90.0
  0
INSERT
  5
19A1
330
195E
100
AcDbEntity
  8
SIZE
  6
Continuous
 62
     0
370
    -2
100
AcDbBlockReference
  2
_DOTBLANK
 10
545.9592874680238
 20
-299.8630127019415
 30
0.0
 41
12.0
 42
12.0
 43
12.0
 50
270.0
  0
MTEXT
  5
19A2
330
195E
100
AcDbEntity
  8
SIZE
  6
Continuous
 62
     0
100
AcDbMText
 10
503.9592874680239
 20
-149.9315063509738
 30
0.0
 40
64.0
 41
0.0
 71
     5
 72
     1
  1
\A1;300
 11
0.0000000000000001
 21
1.0
 31
0.0
 73
     1
 44
1.0
  0
POINT
  5
19A3
330
195E
100
AcDbEntity
  8
DEFPOINTS
  6
Continuous
 62
     0
100
AcDbPoint
 10
369.6000000000058
 20
-0.0000000000063665
 30
0.0
  0
POINT
  5
19A4
330
195E
100
AcDbEntity
  8
DEFPOINTS
  6
Continuous
 62
     0
100
AcDbPoint
 10
369.5
 20
-299.8630127019414
 30
0.0
  0
POINT
  5
19A5
330
195E
100
AcDbEntity
  8
DEFPOINTS
  6
Continuous
 62
     0
100
AcDbPoint
 10
545.9592874680238
 20
-299.8630127019415
 30
0.0
  0
ENDBLK
  5
1960
330
195E
100
AcDbEntity
  8
0
100
AcDbBlockEnd
  0
BLOCK
  5
196B
330
196A
100
AcDbEntity
  8
0
100
AcDbBlockBegin
  2
*D28
 70
     1
 10
0.0
 20
0.0
 30
0.0
  3
*D28
  1

  0
LINE
  5
19A6
330
196A
100
AcDbEntity
  8
SIZE
  6
Continuous
 62
     0
370
    -2
100
AcDbLine
 10
-280.0
 20
26.98251683152466
 30
0.0
 11
-280.0
 21
152.5044569866513
 31
0.0
  0
LINE
  5
19A7
330
196A
100
AcDbEntity
  8
SIZE
  6
Continuous
 62
     0
370
    -2
100
AcDbLine
 10
24.0
 20
26.9825168315092
 30
0.0
 11
24.00000000000001
 21
152.5044569866513
 31
0.0
  0
LINE
  5
19A8
330
196A
100
AcDbEntity
  8
SIZE
  6
Continuous
 62
     0
370
    -2
100
AcDbLine
 10
-268.0
 20
132.5044569866513
 30
0.0
 11
12.00000000000001
 21
132.5044569866513
 31
0.0
  0
INSERT
  5
19A9
330
196A
100
AcDbEntity
  8
SIZE
  6
Continuous
 62
     0
370
    -2
100
AcDbBlockReference
  2
_DOTBLANK
 10
-280.0
 20
132.5044569866513
 30
0.0
 41
12.0
 42
12.0
 43
12.0
 50
180.0
  0
INSERT
  5
19AA
330
196A
100
AcDbEntity
  8
SIZE
  6
Continuous
 62
     0
370
    -2
100
AcDbBlockReference
  2
_DOTBLANK
 10
24.00000000000001
 20
132.5044569866513
 30
0.0
 41
12.0
 42
12.0
 43
12.0
  0
MTEXT
  5
19AB
330
196A
100
AcDbEntity
  8
SIZE
  6
Continuous
 62
     0
100
AcDbMText
 10
-128.0
 20
174.5044569866513
 30
0.0
 40
64.0
 41
0.0
 71
     5
 72
     1
  1
\A1;304
 73
     1
 44
1.0
  0
POINT
  5
19AC
330
196A
100
AcDbEntity
  8
DEFPOINTS
  6
Continuous
 62
     0
100
AcDbPoint
 10
-280.0
 20
6.98251683152466
 30
0.0
  0
POINT
  5
19AD
330
196A
100
AcDbEntity
  8
DEFPOINTS
  6
Continuous
 62
     0
100
AcDbPoint
 10
24.0
 20
6.982516831509201
 30
0.0
  0
POINT
  5
19AE
330
196A
100
AcDbEntity
  8
DEFPOINTS
  6
Continuous
 62
     0
100
AcDbPoint
 10
24.00000000000001
 20
132.5044569866513
 30
0.0
  0
ENDBLK
  5
196C
330
196A
100
AcDbEntity
  8
0
100
AcDbBlockEnd
  0
BLOCK
  5
1977
330
1976
100
AcDbEntity
  8
0
100
AcDbBlockBegin
  2
*D29
 70
     1
 10
0.0
 20
0.0
 30
0.0
  3
*D29
  1

  0
LINE
  5
19AF
330
1976
100
AcDbEntity
  8
SIZE
  6
Continuous
 62
     0
370
    -2
100
AcDbLine
 10
24.0
 20
27.49999999999181
 30
0.0
 11
24.00000000000001
 21
152.5044569866513
 31
0.0
  0
LINE
  5
19B0
330
1976
100
AcDbEntity
  8
SIZE
  6
Continuous
 62
     0
370
    -2
100
AcDbLine
 10
352.8000000000029
 20
27.49999999999181
 30
0.0
 11
352.8000000000029
 21
152.5044569866513
 31
0.0
  0
LINE
  5
19B1
330
1976
100
AcDbEntity
  8
SIZE
  6
Continuous
 62
     0
370
    -2
100
AcDbLine
 10
36.00000000000001
 20
132.5044569866513
 30
0.0
 11
340.8000000000029
 21
132.5044569866513
 31
0.0
  0
INSERT
  5
19B2
330
1976
100
AcDbEntity
  8
SIZE
  6
Continuous
 62
     0
370
    -2
100
AcDbBlockReference
  2
_DOTBLANK
 10
24.00000000000001
 20
132.5044569866513
 30
0.0
 41
12.0
 42
12.0
 43
12.0
 50
180.0
  0
INSERT
  5
19B3
330
1976
100
AcDbEntity
  8
SIZE
  6
Continuous
 62
     0
370
    -2
100
AcDbBlockReference
  2
_DOTBLANK
 10
352.8000000000029
 20
132.5044569866513
 30
0.0
 41
12.0
 42
12.0
 43
12.0
  0
MTEXT
  5
19B4
330
1976
100
AcDbEntity
  8
SIZE
  6
Continuous
 62
     0
100
AcDbMText
 10
188.4000000000014
 20
174.5044569866513
 30
0.0
 40
64.0
 41
0.0
 71
     5
 72
     1
  1
\A1;329
 73
     1
 44
1.0
  0
POINT
  5
19B5
330
1976
100
AcDbEntity
  8
DEFPOINTS
  6
Continuous
 62
     0
100
AcDbPoint
 10
24.0
 20
7.499999999991812
 30
0.0
  0
POINT
  5
19B6
330
1976
100
AcDbEntity
  8
DEFPOINTS
  6
Continuous
 62
     0
100
AcDbPoint
 10
352.8000000000029
 20
7.499999999991812
 30
0.0
  0
POINT
  5
19B7
330
1976
100
AcDbEntity
  8
DEFPOINTS
  6
Continuous
 62
     0
100
AcDbPoint
 10
352.8000000000029
 20
132.5044569866513
 30
0.0
  0
ENDBLK
  5
1978
330
1976
100
AcDbEntity
  8
0
100
AcDbBlockEnd
  0
BLOCK
  5
1BB6
330
1BB5
100
AcDbEntity
  8
0
100
AcDbBlockBegin
  2
*D31
 70
     1
 10
0.0
 20
0.0
 30
0.0
  3
*D31
  1

  0
LINE
  5
1BB7
330
1BB5
100
AcDbEntity
  8
SIZE
  6
Continuous
 62
     0
370
    -2
100
AcDbLine
 10
-48520.52657755362
 20
7272.752892192953
 30
0.0
 11
-48520.52657755362
 21
7364.520541901592
 31
0.0
  0
LINE
  5
1BB8
330
1BB5
100
AcDbEntity
  8
SIZE
  6
Continuous
 62
     0
370
    -2
100
AcDbLine
 10
-47903.62657755362
 20
7281.252892192921
 30
0.0
 11
-47903.62657755362
 21
7364.520541901592
 31
0.0
  0
LINE
  5
1BB9
330
1BB5
100
AcDbEntity
  8
SIZE
  6
Continuous
 62
     0
370
    -2
100
AcDbLine
 10
-48508.52657755362
 20
7344.520541901592
 30
0.0
 11
-47915.62657755362
 21
7344.520541901592
 31
0.0
  0
INSERT
  5
1BBA
330
1BB5
100
AcDbEntity
  8
SIZE
  6
Continuous
 62
     0
370
    -2
100
AcDbBlockReference
  2
_DOTBLANK
 10
-48520.52657755362
 20
7344.520541901592
 30
0.0
 41
12.0
 42
12.0
 43
12.0
 50
180.0
  0
INSERT
  5
1BBB
330
1BB5
100
AcDbEntity
  8
SIZE
  6
Continuous
 62
     0
370
    -2
100
AcDbBlockReference
  2
_DOTBLANK
 10
-47903.62657755362
 20
7344.520541901592
 30
0.0
 41
12.0
 42
12.0
 43
12.0
  0
MTEXT
  5
1BBC
330
1BB5
100
AcDbEntity
  8
SIZE
  6
Continuous
 62
     0
100
AcDbMText
 10
-48212.07657755363
 20
7386.520541901592
 30
0.0
 40
64.0
 41
0.0
 71
     5
 72
     1
  1
\A1;617
 73
     1
 44
1.0
  0
POINT
  5
1BBD
330
1BB5
100
AcDbEntity
  8
DEFPOINTS
  6
Continuous
 62
     0
100
AcDbPoint
 10
-48520.52657755362
 20
7252.752892192953
 30
0.0
  0
POINT
  5
1BBE
330
1BB5
100
AcDbEntity
  8
DEFPOINTS
  6
Continuous
 62
     0
100
AcDbPoint
 10
-47903.62657755362
 20
7261.252892192921
 30
0.0
  0
POINT
  5
1BBF
330
1BB5
100
AcDbEntity
  8
DEFPOINTS
  6
Continuous
 62
     0
100
AcDbPoint
 10
-47903.62657755362
 20
7344.520541901592
 30
0.0
  0
ENDBLK
  5
1BC0
330
1BB5
100
AcDbEntity
  8
0
100
AcDbBlockEnd
  0
BLOCK
  5
1BC2
330
1BC1
100
AcDbEntity
  8
0
100
AcDbBlockBegin
  2
*D32
 70
     1
 10
0.0
 20
0.0
 30
0.0
  3
*D32
  1

  0
LINE
  5
1BC3
330
1BC1
100
AcDbEntity
  8
SIZE
  6
Continuous
 62
     0
370
    -2
100
AcDbLine
 10
-48526.02657755362
 20
7265.252892192953
 30
0.0
 11
-48526.02657755362
 21
7481.618019836592
 31
0.0
  0
LINE
  5
1BC4
330
1BC1
100
AcDbEntity
  8
SIZE
  6
Continuous
 62
     0
370
    -2
100
AcDbLine
 10
-47896.62657755362
 20
7273.752892192927
 30
0.0
 11
-47896.62657755362
 21
7481.618019836592
 31
0.0
  0
LINE
  5
1BC5
330
1BC1
100
AcDbEntity
  8
SIZE
  6
Continuous
 62
     0
370
    -2
100
AcDbLine
 10
-48514.02657755362
 20
7461.618019836592
 30
0.0
 11
-47908.62657755362
 21
7461.618019836592
 31
0.0
  0
INSERT
  5
1BC6
330
1BC1
100
AcDbEntity
  8
SIZE
  6
Continuous
 62
     0
370
    -2
100
AcDbBlockReference
  2
_DOTBLANK
 10
-48526.02657755362
 20
7461.618019836592
 30
0.0
 41
12.0
 42
12.0
 43
12.0
 50
180.0
  0
INSERT
  5
1BC7
330
1BC1
100
AcDbEntity
  8
SIZE
  6
Continuous
 62
     0
370
    -2
100
AcDbBlockReference
  2
_DOTBLANK
 10
-47896.62657755362
 20
7461.618019836592
 30
0.0
 41
12.0
 42
12.0
 43
12.0
  0
MTEXT
  5
1BC8
330
1BC1
100
AcDbEntity
  8
SIZE
  6
Continuous
 62
     0
100
AcDbMText
 10
-48211.32657755362
 20
7503.618019836593
 30
0.0
 40
64.0
 41
0.0
 71
     5
 72
     1
  1
\A1;629
 73
     1
 44
1.0
  0
POINT
  5
1BC9
330
1BC1
100
AcDbEntity
  8
DEFPOINTS
  6
Continuous
 62
     0
100
AcDbPoint
 10
-48526.02657755362
 20
7245.252892192953
 30
0.0
  0
POINT
  5
1BCA
330
1BC1
100
AcDbEntity
  8
DEFPOINTS
  6
Continuous
 62
     0
100
AcDbPoint
 10
-47896.62657755362
 20
7253.752892192927
 30
0.0
  0
POINT
  5
1BCB
330
1BC1
100
AcDbEntity
  8
DEFPOINTS
  6
Continuous
 62
     0
100
AcDbPoint
 10
-47896.62657755362
 20
7461.618019836592
 30
0.0
  0
ENDBLK
  5
1BCC
330
1BC1
100
AcDbEntity
  8
0
100
AcDbBlockEnd
  0
BLOCK
  5
1BCE
330
1BCD
100
AcDbEntity
  8
0
100
AcDbBlockBegin
  2
*D33
 70
     1
 10
0.0
 20
0.0
 30
0.0
  3
*D33
  1

  0
LINE
  5
1BCF
330
1BCD
100
AcDbEntity
  8
SIZE
  6
Continuous
 62
     0
370
    -2
100
AcDbLine
 10
-47876.12657755362
 20
7253.75289219292
 30
0.0
 11
-47729.00299655809
 21
7253.75289219292
 31
0.0
  0
LINE
  5
1BD0
330
1BCD
100
AcDbEntity
  8
SIZE
  6
Continuous
 62
     0
370
    -2
100
AcDbLine
 10
-47892.82657755363
 20
7077.215031505687
 30
0.0
 11
-47729.00299655809
 21
7077.215031505687
 31
0.0
  0
LINE
  5
1BD1
330
1BCD
100
AcDbEntity
  8
SIZE
  6
Continuous
 62
     0
370
    -2
100
AcDbLine
 10
-47749.00299655809
 20
7241.75289219292
 30
0.0
 11
-47749.00299655809
 21
7089.215031505687
 31
0.0
  0
INSERT
  5
1BD2
330
1BCD
100
AcDbEntity
  8
SIZE
  6
Continuous
 62
     0
370
    -2
100
AcDbBlockReference
  2
_DOTBLANK
 10
-47749.00299655809
 20
7253.75289219292
 30
0.0
 41
12.0
 42
12.0
 43
12.0
 50
90.0
  0
INSERT
  5
1BD3
330
1BCD
100
AcDbEntity
  8
SIZE
  6
Continuous
 62
     0
370
    -2
100
AcDbBlockReference
  2
_DOTBLANK
 10
-47749.00299655809
 20
7077.215031505687
 30
0.0
 41
12.0
 42
12.0
 43
12.0
 50
270.0
  0
MTEXT
  5
1BD4
330
1BCD
100
AcDbEntity
  8
SIZE
  6
Continuous
 62
     0
100
AcDbMText
 10
-47791.00299655809
 20
7165.483961849296
 30
0.0
 40
64.0
 41
0.0
 71
     5
 72
     1
  1
\A1;177
 11
0.0000000000000001
 21
1.0
 31
0.0
 73
     1
 44
1.0
  0
POINT
  5
1BD5
330
1BCD
100
AcDbEntity
  8
DEFPOINTS
  6
Continuous
 62
     0
100
AcDbPoint
 10
-47896.12657755362
 20
7253.75289219292
 30
0.0
  0
POINT
  5
1BD6
330
1BCD
100
AcDbEntity
  8
DEFPOINTS
  6
Continuous
 62
     0
100
AcDbPoint
 10
-47912.82657755362
 20
7077.215031505687
 30
0.0
  0
POINT
  5
1BD7
330
1BCD
100
AcDbEntity
  8
DEFPOINTS
  6
Continuous
 62
     0
100
AcDbPoint
 10
-47749.00299655809
 20
7077.215031505687
 30
0.0
  0
ENDBLK
  5
1BD8
330
1BCD
100
AcDbEntity
  8
0
100
AcDbBlockEnd
  0
BLOCK
  5
1BDA
330
1BD9
100
AcDbEntity
  8
0
100
AcDbBlockBegin
  2
*D34
 70
     1
 10
0.0
 20
0.0
 30
0.0
  3
*D34
  1

  0
LINE
  5
1BDB
330
1BD9
100
AcDbEntity
  8
SIZE
  6
Continuous
 62
     0
370
    -2
100
AcDbLine
 10
-48532.82657755362
 20
7077.215031505691
 30
0.0
 11
-48620.81262842497
 21
7077.215031505691
 31
0.0
  0
LINE
  5
1BDC
330
1BD9
100
AcDbEntity
  8
SIZE
  6
Continuous
 62
     0
370
    -2
100
AcDbLine
 10
-48546.02657755362
 20
7245.252892192953
 30
0.0
 11
-48620.81262842497
 21
7245.252892192953
 31
0.0
  0
LINE
  5
1BDD
330
1BD9
100
AcDbEntity
  8
SIZE
  6
Continuous
 62
     0
370
    -2
100
AcDbLine
 10
-48600.81262842497
 20
7089.215031505691
 30
0.0
 11
-48600.81262842497
 21
7233.252892192952
 31
0.0
  0
INSERT
  5
1BDE
330
1BD9
100
AcDbEntity
  8
SIZE
  6
Continuous
 62
     0
370
    -2
100
AcDbBlockReference
  2
_DOTBLANK
 10
-48600.81262842497
 20
7077.215031505691
 30
0.0
 41
12.0
 42
12.0
 43
12.0
 50
270.0
  0
INSERT
  5
1BDF
330
1BD9
100
AcDbEntity
  8
SIZE
  6
Continuous
 62
     0
370
    -2
100
AcDbBlockReference
  2
_DOTBLANK
 10
-48600.81262842497
 20
7245.252892192953
 30
0.0
 41
12.0
 42
12.0
 43
12.0
 50
90.0
  0
MTEXT
  5
1BE0
330
1BD9
100
AcDbEntity
  8
SIZE
  6
Continuous
 62
     0
100
AcDbMText
 10
-48642.81262842497
 20
7161.233961849314
 30
0.0
 40
64.0
 41
0.0
 71
     5
 72
     1
  1
\A1;168
 11
0.0000000000000001
 21
1.0
 31
0.0
 73
     1
 44
1.0
  0
POINT
  5
1BE1
330
1BD9
100
AcDbEntity
  8
DEFPOINTS
  6
Continuous
 62
     0
100
AcDbPoint
 10
-48512.82657755362
 20
7077.215031505691
 30
0.0
  0
POINT
  5
1BE2
330
1BD9
100
AcDbEntity
  8
DEFPOINTS
  6
Continuous
 62
     0
100
AcDbPoint
 10
-48526.02657755362
 20
7245.252892192953
 30
0.0
  0
POINT
  5
1BE3
330
1BD9
100
AcDbEntity
  8
DEFPOINTS
  6
Continuous
 62
     0
100
AcDbPoint
 10
-48600.81262842497
 20
7245.252892192953
 30
0.0
  0
ENDBLK
  5
1BE4
330
1BD9
100
AcDbEntity
  8
0
100
AcDbBlockEnd
  0
BLOCK
  5
1EBF
330
1EBE
100
AcDbEntity
  8
0
100
AcDbBlockBegin
  2
*D36
 70
     1
 10
0.0
 20
0.0
 30
0.0
  3
*D36
  1

  0
LINE
  5
1EC1
330
1EBE
100
AcDbEntity
  8
SIZE
  6
Continuous
 62
     0
370
    -2
100
AcDbLine
 10
-307.9925375952586
 20
-898.8064629214314
 30
0.0
 11
-307.9925375952586
 21
-807.0388132127918
 31
0.0
  0
LINE
  5
1EC2
330
1EBE
100
AcDbEntity
  8
SIZE
  6
Continuous
 62
     0
370
    -2
100
AcDbLine
 10
308.9074624047429
 20
-890.3064629214632
 30
0.0
 11
308.9074624047429
 21
-807.0388132127918
 31
0.0
  0
LINE
  5
1EC3
330
1EBE
100
AcDbEntity
  8
SIZE
  6
Continuous
 62
     0
370
    -2
100
AcDbLine
 10
-295.9925375952586
 20
-827.0388132127918
 30
0.0
 11
296.9074624047429
 21
-827.0388132127918
 31
0.0
  0
INSERT
  5
1EC4
330
1EBE
100
AcDbEntity
  8
SIZE
  6
Continuous
 62
     0
370
    -2
100
AcDbBlockReference
  2
_DOTBLANK
 10
-307.9925375952586
 20
-827.0388132127918
 30
0.0
 41
12.0
 42
12.0
 43
12.0
 50
180.0
  0
INSERT
  5
1EC5
330
1EBE
100
AcDbEntity
  8
SIZE
  6
Continuous
 62
     0
370
    -2
100
AcDbBlockReference
  2
_DOTBLANK
 10
308.9074624047429
 20
-827.0388132127918
 30
0.0
 41
12.0
 42
12.0
 43
12.0
  0
MTEXT
  5
1EC6
330
1EBE
100
AcDbEntity
  8
SIZE
  6
Continuous
 62
     0
100
AcDbMText
 10
0.457462404742162
 20
-785.0388132127918
 30
0.0
 40
64.0
 41
0.0
 71
     5
 72
     1
  1
\A1;617
 73
     1
 44
1.0
  0
POINT
  5
1EC7
330
1EBE
100
AcDbEntity
  8
DEFPOINTS
  6
Continuous
 62
     0
100
AcDbPoint
 10
-307.9925375952586
 20
-918.8064629214313
 30
0.0
  0
POINT
  5
1EC8
330
1EBE
100
AcDbEntity
  8
DEFPOINTS
  6
Continuous
 62
     0
100
AcDbPoint
 10
308.9074624047429
 20
-910.3064629214632
 30
0.0
  0
POINT
  5
1EC9
330
1EBE
100
AcDbEntity
  8
DEFPOINTS
  6
Continuous
 62
     0
100
AcDbPoint
 10
308.9074624047429
 20
-827.0388132127918
 30
0.0
  0
ENDBLK
  5
1EC0
330
1EBE
100
AcDbEntity
  8
0
100
AcDbBlockEnd
  0
BLOCK
  5
1ECB
330
1ECA
100
AcDbEntity
  8
0
100
AcDbBlockBegin
  2
*D37
 70
     1
 10
0.0
 20
0.0
 30
0.0
  3
*D37
  1

  0
LINE
  5
1ECD
330
1ECA
100
AcDbEntity
  8
SIZE
  6
Continuous
 62
     0
370
    -2
100
AcDbLine
 10
-313.4925375952586
 20
-906.3064629214313
 30
0.0
 11
-313.4925375952586
 21
-689.9413352777919
 31
0.0
  0
LINE
  5
1ECE
330
1ECA
100
AcDbEntity
  8
SIZE
  6
Continuous
 62
     0
370
    -2
100
AcDbLine
 10
315.9074624047429
 20
-897.8064629214568
 30
0.0
 11
315.9074624047429
 21
-689.9413352777919
 31
0.0
  0
LINE
  5
1ECF
330
1ECA
100
AcDbEntity
  8
SIZE
  6
Continuous
 62
     0
370
    -2
100
AcDbLine
 10
-301.4925375952586
 20
-709.9413352777919
 30
0.0
 11
303.9074624047429
 21
-709.9413352777919
 31
0.0
  0
INSERT
  5
1ED0
330
1ECA
100
AcDbEntity
  8
SIZE
  6
Continuous
 62
     0
370
    -2
100
AcDbBlockReference
  2
_DOTBLANK
 10
-313.4925375952586
 20
-709.9413352777919
 30
0.0
 41
12.0
 42
12.0
 43
12.0
 50
180.0
  0
INSERT
  5
1ED1
330
1ECA
100
AcDbEntity
  8
SIZE
  6
Continuous
 62
     0
370
    -2
100
AcDbBlockReference
  2
_DOTBLANK
 10
315.9074624047429
 20
-709.9413352777919
 30
0.0
 41
12.0
 42
12.0
 43
12.0
  0
MTEXT
  5
1ED2
330
1ECA
100
AcDbEntity
  8
SIZE
  6
Continuous
 62
     0
100
AcDbMText
 10
1.207462404742162
 20
-667.941335277792
 30
0.0
 40
64.0
 41
0.0
 71
     5
 72
     1
  1
\A1;629
 73
     1
 44
1.0
  0
POINT
  5
1ED3
330
1ECA
100
AcDbEntity
  8
DEFPOINTS
  6
Continuous
 62
     0
100
AcDbPoint
 10
-313.4925375952586
 20
-926.3064629214314
 30
0.0
  0
POINT
  5
1ED4
330
1ECA
100
AcDbEntity
  8
DEFPOINTS
  6
Continuous
 62
     0
100
AcDbPoint
 10
315.9074624047429
 20
-917.8064629214569
 30
0.0
  0
POINT
  5
1ED5
330
1ECA
100
AcDbEntity
  8
DEFPOINTS
  6
Continuous
 62
     0
100
AcDbPoint
 10
315.9074624047429
 20
-709.9413352777919
 30
0.0
  0
ENDBLK
  5
1ECC
330
1ECA
100
AcDbEntity
  8
0
100
AcDbBlockEnd
  0
BLOCK
  5
1ED7
330
1ED6
100
AcDbEntity
  8
0
100
AcDbBlockBegin
  2
*D38
 70
     1
 10
0.0
 20
0.0
 30
0.0
  3
*D38
  1

  0
LINE
  5
1ED9
330
1ED6
100
AcDbEntity
  8
SIZE
  6
Continuous
 62
     0
370
    -2
100
AcDbLine
 10
336.4074624047429
 20
-917.8064629214631
 30
0.0
 11
483.5310434002752
 21
-917.8064629214631
 31
0.0
  0
LINE
  5
1EDA
330
1ED6
100
AcDbEntity
  8
SIZE
  6
Continuous
 62
     0
370
    -2
100
AcDbLine
 10
319.7074624047385
 20
-1094.344323608697
 30
0.0
 11
483.5310434002752
 21
-1094.344323608697
 31
0.0
  0
LINE
  5
1EDB
330
1ED6
100
AcDbEntity
  8
SIZE
  6
Continuous
 62
     0
370
    -2
100
AcDbLine
 10
463.5310434002753
 20
-929.8064629214632
 30
0.0
 11
463.5310434002753
 21
-1082.344323608697
 31
0.0
  0
INSERT
  5
1EDC
330
1ED6
100
AcDbEntity
  8
SIZE
  6
Continuous
 62
     0
370
    -2
100
AcDbBlockReference
  2
_DOTBLANK
 10
463.5310434002753
 20
-917.8064629214631
 30
0.0
 41
12.0
 42
12.0
 43
12.0
 50
90.0
  0
INSERT
  5
1EDD
330
1ED6
100
AcDbEntity
  8
SIZE
  6
Continuous
 62
     0
370
    -2
100
AcDbBlockReference
  2
_DOTBLANK
 10
463.5310434002753
 20
-1094.344323608697
 30
0.0
 41
12.0
 42
12.0
 43
12.0
 50
270.0
  0
MTEXT
  5
1EDE
330
1ED6
100
AcDbEntity
  8
SIZE
  6
Continuous
 62
     0
100
AcDbMText
 10
421.5310434002754
 20
-1006.07539326508
 30
0.0
 40
64.0
 41
0.0
 71
     5
 72
     1
  1
\A1;177
 11
0.0000000000000001
 21
1.0
 31
0.0
 73
     1
 44
1.0
  0
POINT
  5
1EDF
330
1ED6
100
AcDbEntity
  8
DEFPOINTS
  6
Continuous
 62
     0
100
AcDbPoint
 10
316.4074624047429
 20
-917.8064629214631
 30
0.0
  0
POINT
  5
1EE0
330
1ED6
100
AcDbEntity
  8
DEFPOINTS
  6
Continuous
 62
     0
100
AcDbPoint
 10
299.7074624047385
 20
-1094.344323608697
 30
0.0
  0
POINT
  5
1EE1
330
1ED6
100
AcDbEntity
  8
DEFPOINTS
  6
Continuous
 62
     0
100
AcDbPoint
 10
463.5310434002753
 20
-1094.344323608697
 30
0.0
  0
ENDBLK
  5
1ED8
330
1ED6
100
AcDbEntity
  8
0
100
AcDbBlockEnd
  0
BLOCK
  5
1EE3
330
1EE2
100
AcDbEntity
  8
0
100
AcDbBlockBegin
  2
*D39
 70
     1
 10
0.0
 20
0.0
 30
0.0
  3
*D39
  1

  0
LINE
  5
1EE5
330
1EE2
100
AcDbEntity
  8
SIZE
  6
Continuous
 62
     0
370
    -2
100
AcDbLine
 10
-320.2925375952542
 20
-1094.344323608693
 30
0.0
 11
-408.2785884666078
 21
-1094.344323608693
 31
0.0
  0
LINE
  5
1EE6
330
1EE2
100
AcDbEntity
  8
SIZE
  6
Continuous
 62
     0
370
    -2
100
AcDbLine
 10
-333.4925375952586
 20
-926.3064629214314
 30
0.0
 11
-408.2785884666078
 21
-926.3064629214314
 31
0.0
  0
LINE
  5
1EE7
330
1EE2
100
AcDbEntity
  8
SIZE
  6
Continuous
 62
     0
370
    -2
100
AcDbLine
 10
-388.2785884666079
 20
-1082.344323608693
 30
0.0
 11
-388.2785884666079
 21
-938.3064629214313
 31
0.0
  0
INSERT
  5
1EE8
330
1EE2
100
AcDbEntity
  8
SIZE
  6
Continuous
 62
     0
370
    -2
100
AcDbBlockReference
  2
_DOTBLANK
 10
-388.2785884666079
 20
-1094.344323608693
 30
0.0
 41
12.0
 42
12.0
 43
12.0
 50
270.0
  0
INSERT
  5
1EE9
330
1EE2
100
AcDbEntity
  8
SIZE
  6
Continuous
 62
     0
370
    -2
100
AcDbBlockReference
  2
_DOTBLANK
 10
-388.2785884666079
 20
-926.3064629214314
 30
0.0
 41
12.0
 42
12.0
 43
12.0
 50
90.0
  0
MTEXT
  5
1EEA
330
1EE2
100
AcDbEntity
  8
SIZE
  6
Continuous
 62
     0
100
AcDbMText
 10
-430.2785884666077
 20
-1010.325393265062
 30
0.0
 40
64.0
 41
0.0
 71
     5
 72
     1
  1
\A1;168
 11
0.0000000000000001
 21
1.0
 31
0.0
 73
     1
 44
1.0
  0
POINT
  5
1EEB
330
1EE2
100
AcDbEntity
  8
DEFPOINTS
  6
Continuous
 62
     0
100
AcDbPoint
 10
-300.2925375952542
 20
-1094.344323608693
 30
0.0
  0
POINT
  5
1EEC
330
1EE2
100
AcDbEntity
  8
DEFPOINTS
  6
Continuous
 62
     0
100
AcDbPoint
 10
-313.4925375952586
 20
-926.3064629214314
 30
0.0
  0
POINT
  5
1EED
330
1EE2
100
AcDbEntity
  8
DEFPOINTS
  6
Continuous
 62
     0
100
AcDbPoint
 10
-388.2785884666079
 20
-926.3064629214314
 30
0.0
  0
ENDBLK
  5
1EE4
330
1EE2
100
AcDbEntity
  8
0
100
AcDbBlockEnd
  0
ENDSEC
  0
SECTION
  2
ENTITIES
  0
TEXT
  5
953
330
85F
100
AcDbEntity
  8
OUTLINE
  6
Continuous
 62
     3
100
AcDbText
 10
-418.231467
 20
13.715189
 30
0.0
 40
64.0
  1
 
 41
0.9
100
AcDbText
  0
TEXT
  5
954
330
85F
100
AcDbEntity
  8
OUTLINE
  6
Continuous
 62
     3
100
AcDbText
 10
-418.231467
 20
13.715189
 30
0.0
 40
64.0
  1
 
 41
0.9
100
AcDbText
  0
TEXT
  5
955
330
85F
100
AcDbEntity
  8
OUTLINE
  6
Continuous
 62
     3
100
AcDbText
 10
1341.41903
 20
-706.0588199999997
 30
0.0
 40
64.0
  1
 
 41
0.9
100
AcDbText
  0
TEXT
  5
956
330
85F
100
AcDbEntity
  8
OUTLINE
  6
Continuous
 62
     3
100
AcDbText
 10
1341.41903
 20
-706.0588199999997
 30
0.0
 40
64.0
  1
 
 41
0.9
100
AcDbText
  0
TEXT
  5
957
330
85F
100
AcDbEntity
  8
OUTLINE
  6
Continuous
 62
     3
100
AcDbText
 10
1341.41903
 20
-706.0588199999997
 30
0.0
 40
64.0
  1
 
 41
0.9
100
AcDbText
  0
TEXT
  5
958
330
85F
100
AcDbEntity
  8
OUTLINE
  6
Continuous
 62
     3
100
AcDbText
 10
1341.41903
 20
-706.0588199999997
 30
0.0
 40
64.0
  1
 
 41
0.9
100
AcDbText
  0
LINE
  5
1D55
330
85F
100
AcDbEntity
  8
DETAIL
100
AcDbLine
 10
-305.4925375952586
 20
-927.1064629214215
 30
0.0
 11
-302.4925375952586
 21
-927.1064629214206
 31
0.0
  0
LINE
  5
1D56
330
85F
100
AcDbEntity
  8
DETAIL
100
AcDbLine
 10
-302.4925375952586
 20
-927.1064629214206
 30
0.0
 11
-302.4925375952586
 21
-926.3064629214204
 31
0.0
  0
LINE
  5
1D57
330
85F
100
AcDbEntity
  8
DETAIL
100
AcDbLine
 10
-302.4925375952586
 20
-926.3064629214204
 30
0.0
 11
-305.4925375952586
 21
-926.3064629214213
 31
0.0
  0
LINE
  5
1D58
330
85F
100
AcDbEntity
  8
DETAIL
100
AcDbLine
 10
-305.4925375952586
 20
-926.3064629214213
 30
0.0
 11
-305.4925375952586
 21
-927.1064629214215
 31
0.0
  0
LINE
  5
1D59
330
85F
100
AcDbEntity
  8
DETAIL
100
AcDbLine
 10
-313.4925375952586
 20
-927.1064629214315
 30
0.0
 11
-310.4925375952586
 21
-927.1064629214306
 31
0.0
  0
LINE
  5
1D5A
330
85F
100
AcDbEntity
  8
DETAIL
100
AcDbLine
 10
-310.4925375952586
 20
-926.3064629214305
 30
0.0
 11
-313.4925375952586
 21
-926.3064629214314
 31
0.0
  0
LINE
  5
1D5B
330
85F
100
AcDbEntity
  8
DETAIL
100
AcDbLine
 10
-313.4925375952586
 20
-926.3064629214314
 30
0.0
 11
-313.4925375952586
 21
-927.1064629214315
 31
0.0
  0
LINE
  5
1D5C
330
85F
100
AcDbEntity
  8
DETAIL
100
AcDbLine
 10
-310.4925375952586
 20
-927.1064629214306
 30
0.0
 11
-310.4925375952586
 21
-926.3064629214305
 31
0.0
  0
LINE
  5
1D5D
330
85F
100
AcDbEntity
  8
DETAIL
100
AcDbLine
 10
-302.4925375952586
 20
-927.1064629214206
 30
0.0
 11
-301.39253759526
 21
-927.1064629214206
 31
0.0
  0
LINE
  5
1D5E
330
85F
100
AcDbEntity
  8
DETAIL
100
AcDbLine
 10
-301.39253759526
 20
-926.3064629214204
 30
0.0
 11
-302.4925375952586
 21
-926.3064629214204
 31
0.0
  0
LINE
  5
1D5F
330
85F
100
AcDbEntity
  8
DETAIL
100
AcDbLine
 10
-301.39253759526
 20
-927.1064629214206
 30
0.0
 11
-301.39253759526
 21
-926.3064629214204
 31
0.0
  0
LINE
  5
1D60
330
85F
100
AcDbEntity
  8
DETAIL
100
AcDbLine
 10
-300.4925375952586
 20
-927.2064629214209
 30
0.0
 11
-301.2925375952542
 21
-927.2064629214209
 31
0.0
  0
ARC
  5
1D61
330
85F
100
AcDbEntity
  8
DETAIL
100
AcDbCircle
 10
-301.39253759526
 20
-927.2064629214209
 30
0.0
 40
0.1
100
AcDbArc
 50
0.0
 51
90.0
  0
ARC
  5
1D62
330
85F
100
AcDbEntity
  8
DETAIL
100
AcDbCircle
 10
-301.39253759526
 20
-927.2064629214209
 30
0.0
 40
0.9
100
AcDbArc
 50
0.0
 51
90.0
  0
LINE
  5
1D63
330
85F
100
AcDbEntity
  8
DETAIL
100
AcDbLine
 10
-305.4925375952586
 20
-927.1064629214306
 30
0.0
 11
-310.4925375952586
 21
-927.1064629214306
 31
0.0
  0
LINE
  5
1D64
330
85F
100
AcDbEntity
  8
DETAIL
100
AcDbLine
 10
-310.4925375952586
 20
-926.3064629214305
 30
0.0
 11
-305.4925375952586
 21
-926.3064629214305
 31
0.0
  0
LINE
  5
1D65
330
85F
100
AcDbEntity
  8
DETAIL
100
AcDbLine
 10
-300.39253759526
 20
-936.3064629214205
 30
0.0
 11
-300.2925375952542
 21
-936.3064629214205
 31
0.0
  0
LINE
  5
1D66
330
85F
100
AcDbEntity
  8
DETAIL
100
AcDbLine
 10
-300.2925375952542
 20
-958.3064629214204
 30
0.0
 11
-300.39253759526
 21
-958.3064629214204
 31
0.0
  0
LINE
  5
1D67
330
85F
100
AcDbEntity
  8
DETAIL
100
AcDbLine
 10
-291.2425375952586
 20
-970.4023619349772
 30
0.0
 11
-291.2425375952586
 21
-970.7093431950735
 31
0.0
  0
ELLIPSE
  5
1D68
330
85F
100
AcDbEntity
  8
DETAIL
100
AcDbEllipse
 10
-291.7925375952542
 20
-971.9179063916008
 30
0.0
 11
1.500000000000005
 21
0.0000000000000343
 31
0.0
210
0.0
220
0.0
230
1.0
 40
0.8660254037845799
 41
1.946219934776222
 42
7.478558025993557
  0
ELLIPSE
  5
1D69
330
85F
100
AcDbEntity
  8
DETAIL
100
AcDbEllipse
 10
-291.7925375952542
 20
-971.5179063916011
 30
0.0
 11
-1.500000000000001
 21
-0.0000000000000345
 31
0.0
210
0.0
220
0.0
230
1.0
 40
0.8660254037845781
 41
0.1545748900119271
 42
2.987017763578083
  0
LINE
  5
1D6A
330
85F
100
AcDbEntity
  8
DETAIL
100
AcDbLine
 10
-292.3425375952571
 20
-970.7093431950735
 30
0.0
 11
-292.3425375952571
 21
-970.4023619349772
 31
0.0
  0
ELLIPSE
  5
1D6B
330
85F
100
AcDbEntity
  8
DETAIL
100
AcDbEllipse
 10
-291.7925375952542
 20
-970.4023619349781
 30
0.0
 11
-0.5499999999999983
 21
0.0000000000000266
 31
0.0
210
0.0
220
0.0
230
1.0
 40
0.866025403784581
 41
3.141592653589878
 42
6.283185307179671
  0
LINE
  5
1D6C
330
85F
100
AcDbEntity
  8
DETAIL
100
AcDbLine
 10
-291.2425375952586
 20
-1074.325410389127
 30
0.0
 11
-291.2425375952586
 21
-1074.632391649224
 31
0.0
  0
ELLIPSE
  5
1D6D
330
85F
100
AcDbEntity
  8
DETAIL
100
AcDbEllipse
 10
-291.7925375952542
 20
-1075.84095484575
 30
0.0
 11
1.500000000000008
 21
0.000000000000067
 31
0.0
210
0.0
220
0.0
230
1.0
 40
0.8660254037845785
 41
1.946219934776202
 42
7.478558025993537
  0
ELLIPSE
  5
1D6E
330
85F
100
AcDbEntity
  8
DETAIL
100
AcDbEllipse
 10
-291.7925375952542
 20
-1075.44095484575
 30
0.0
 11
-1.5
 21
-0.0000000000000308
 31
0.0
210
0.0
220
0.0
230
1.0
 40
0.8660254037845763
 41
0.1545748900119302
 42
2.987017763578086
  0
LINE
  5
1D6F
330
85F
100
AcDbEntity
  8
DETAIL
100
AcDbLine
 10
-292.3425375952571
 20
-1074.632391649224
 30
0.0
 11
-292.3425375952571
 21
-1074.325410389127
 31
0.0
  0
ELLIPSE
  5
1D70
330
85F
100
AcDbEntity
  8
DETAIL
100
AcDbEllipse
 10
-291.7925375952542
 20
-1074.325410389127
 30
0.0
 11
-0.5500000000000006
 21
0.0000000000000178
 31
0.0
210
0.0
220
0.0
230
1.0
 40
0.8660254037845842
 41
3.141592653589851
 42
6.283185307179644
  0
LINE
  5
1D71
330
85F
100
AcDbEntity
  8
DETAIL
100
AcDbLine
 10
-300.2925375952542
 20
-935.3054990175943
 30
0.0
 11
-300.4925375952586
 21
-935.3054990175943
 31
0.0
  0
LINE
  5
1D72
330
85F
100
AcDbEntity
  8
DETAIL
100
AcDbLine
 10
-300.4925375952586
 20
-935.7822563493437
 30
0.0
 11
-300.2925375952542
 21
-935.7822563493437
 31
0.0
  0
LINE
  5
1D73
330
85F
100
AcDbEntity
  8
DETAIL
100
AcDbLine
 10
-300.39253759526
 20
-1092.706462921444
 30
0.0
 11
-300.2925375952542
 21
-1092.706462921444
 31
0.0
  0
LINE
  5
1D74
330
85F
100
AcDbEntity
  8
DETAIL
100
AcDbLine
 10
-300.2925375952542
 20
-1091.906462921443
 30
0.0
 11
-300.39253759526
 21
-1091.906462921443
 31
0.0
  0
ARC
  5
1D75
330
85F
100
AcDbEntity
  8
DETAIL
100
AcDbCircle
 10
-300.39253759526
 20
-1091.806462921449
 30
0.0
 40
0.8999999999934262
100
AcDbArc
 50
263.6206297916502
 51
270.0
  0
LINE
  5
1D76
330
85F
100
AcDbEntity
  8
DETAIL
100
AcDbLine
 10
-300.39253759526
 20
-1091.906462921443
 30
0.0
 11
-300.39253759526
 21
-1092.706462921444
 31
0.0
  0
ARC
  5
1D77
330
85F
100
AcDbEntity
  8
DETAIL
100
AcDbCircle
 10
-300.39253759526
 20
-1091.806462921444
 30
0.0
 40
0.1000000000000512
100
AcDbArc
 50
198.3395829879158
 51
270.0
  0
LINE
  5
1D78
330
85F
100
AcDbEntity
  8
DETAIL
100
AcDbLine
 10
-300.4925375952586
 20
-936.2964629214211
 30
0.0
 11
-300.4925375952586
 21
-927.2064629214209
 31
0.0
  0
LINE
  5
1D79
330
85F
100
AcDbEntity
  8
DETAIL
100
AcDbLine
 10
-300.4925375952586
 20
-959.3064629214204
 30
0.0
 11
-300.4925375952586
 21
-958.3164629214207
 31
0.0
  0
LINE
  5
1D7A
330
85F
100
AcDbEntity
  8
DETAIL
100
AcDbLine
 10
-300.4925375952586
 20
-960.1638280711668
 30
0.0
 11
-300.4925375952586
 21
-959.3064629214204
 31
0.0
  0
LINE
  5
1D7B
330
85F
100
AcDbEntity
  8
DETAIL
100
AcDbLine
 10
-300.4925375952586
 20
-959.3064629214204
 30
0.0
 11
-301.2925375952542
 21
-959.3064629214204
 31
0.0
  0
LINE
  5
1D7C
330
85F
100
AcDbEntity
  8
DETAIL
100
AcDbLine
 10
-301.2925375952542
 20
-959.3064629214204
 30
0.0
 11
-301.2925375952542
 21
-960.1638280711668
 31
0.0
  0
LINE
  5
1D7D
330
85F
100
AcDbEntity
  8
DETAIL
100
AcDbLine
 10
-301.2925375952542
 20
-958.3164629214207
 30
0.0
 11
-301.2925375952542
 21
-959.3064629214204
 31
0.0
  0
LINE
  5
1D7E
330
85F
100
AcDbEntity
  8
DETAIL
100
AcDbLine
 10
-301.2925375952542
 20
-927.2064629214209
 30
0.0
 11
-301.2925375952542
 21
-936.2964629214211
 31
0.0
  0
LINE
  5
1D7F
330
85F
100
AcDbEntity
  8
DETAIL
100
AcDbLine
 10
-300.4925375952586
 20
-936.2964629214211
 30
0.0
 11
-300.4925375952586
 21
-936.3064629214205
 31
0.0
  0
LINE
  5
1D80
330
85F
100
AcDbEntity
  8
DETAIL
100
AcDbLine
 10
-300.4925375952586
 20
-958.3064629214213
 30
0.0
 11
-300.4925375952586
 21
-958.3164629214207
 31
0.0
  0
LINE
  5
1D81
330
85F
100
AcDbEntity
  8
DETAIL
100
AcDbLine
 10
-300.39253759526
 20
-936.3064629214205
 30
0.0
 11
-300.39253759526
 21
-958.3064629214204
 31
0.0
  0
LINE
  5
1D82
330
85F
100
AcDbEntity
  8
DETAIL
100
AcDbLine
 10
-300.39253759526
 20
-936.3064629214205
 30
0.0
 11
-301.2925375952542
 21
-936.3064629214205
 31
0.0
  0
LINE
  5
1D83
330
85F
100
AcDbEntity
  8
DETAIL
100
AcDbLine
 10
-301.2925375952542
 20
-958.3064629214213
 30
0.0
 11
-301.2925375952542
 21
-936.3064629214205
 31
0.0
  0
LINE
  5
1D84
330
85F
100
AcDbEntity
  8
DETAIL
100
AcDbLine
 10
-301.2925375952542
 20
-958.3064629214213
 30
0.0
 11
-300.39253759526
 21
-958.3064629214204
 31
0.0
  0
LINE
  5
1D85
330
85F
100
AcDbEntity
  8
DETAIL
100
AcDbLine
 10
-300.4925375952586
 20
-958.3164629214207
 30
0.0
 11
-301.2925375952542
 21
-958.3164629214207
 31
0.0
  0
LINE
  5
1D86
330
85F
100
AcDbEntity
  8
DETAIL
100
AcDbLine
 10
-301.2925375952542
 20
-958.3164629214207
 30
0.0
 11
-301.2925375952542
 21
-958.3064629214213
 31
0.0
  0
LINE
  5
1D87
330
85F
100
AcDbEntity
  8
DETAIL
100
AcDbLine
 10
-301.2925375952542
 20
-936.3064629214205
 30
0.0
 11
-301.2925375952542
 21
-936.2964629214211
 31
0.0
  0
LINE
  5
1D88
330
85F
100
AcDbEntity
  8
DETAIL
100
AcDbLine
 10
-301.2925375952542
 20
-936.2964629214211
 30
0.0
 11
-300.4925375952586
 21
-936.2964629214211
 31
0.0
  0
LINE
  5
1D89
330
85F
100
AcDbEntity
  8
DETAIL
100
AcDbLine
 10
-300.4925375952586
 20
-1091.837651113157
 30
0.0
 11
-300.4925375952586
 21
-1092.706462921443
 31
0.0
  0
LINE
  5
1D8A
330
85F
100
AcDbEntity
  8
DETAIL
100
AcDbLine
 10
-300.39253759526
 20
-960.1724883252044
 30
0.0
 11
-300.39253759526
 21
-1091.840437517658
 31
0.0
  0
ELLIPSE
  5
1D8B
330
85F
100
AcDbEntity
  8
DETAIL
100
AcDbEllipse
 10
-300.39253759526
 20
-959.7224883252048
 30
0.0
 11
0.9000000000004707
 21
-0.0000000000000876
 31
0.0
210
0.0
220
0.0
230
1.0
 40
0.4999999999991041
 41
4.515884241866206
 42
4.712388980384738
  0
LINE
  5
1D8C
330
85F
100
AcDbEntity
  8
DETAIL
100
AcDbLine
 10
-301.2925375952542
 20
-1091.390437517659
 30
0.0
 11
-301.2925375952542
 21
-960.1638280711677
 31
0.0
  0
ELLIPSE
  5
1D8D
330
85F
100
AcDbEntity
  8
DETAIL
100
AcDbEllipse
 10
-300.39253759526
 20
-1091.390437517658
 30
0.0
 11
-0.8999999999999236
 21
-0.0000000000000819
 31
0.0
210
0.0
220
0.0
230
1.0
 40
0.4999999999998126
 41
0.0
 42
1.570796326794851
  0
LINE
  5
1D8E
330
85F
100
AcDbEntity
  8
DETAIL
100
AcDbLine
 10
-300.39253759526
 20
-959.7724883252048
 30
0.0
 11
-300.39253759526
 21
-960.1724883252044
 31
0.0
  0
ELLIPSE
  5
1D8F
330
85F
100
AcDbEntity
  8
DETAIL
100
AcDbEllipse
 10
-300.39253759526
 20
-959.7224883252048
 30
0.0
 11
-0.1000000000001111
 21
-0.0000000000000027
 31
0.0
210
0.0
220
0.0
230
1.0
 40
0.499999999999718
 41
0.0
 42
1.570796326794883
  0
LINE
  5
1D90
330
85F
100
AcDbEntity
  8
DETAIL
100
AcDbLine
 10
-301.2925375952542
 20
-1092.706462921443
 30
0.0
 11
-301.2925375952542
 21
-1091.390437517659
 31
0.0
  0
LINE
  5
1D91
330
85F
100
AcDbEntity
  8
DETAIL
100
AcDbLine
 10
-300.4925375952586
 20
-1092.706462921443
 30
0.0
 11
-301.2925375952542
 21
-1092.706462921443
 31
0.0
  0
LINE
  5
1D92
330
85F
100
AcDbEntity
  8
DETAIL
100
AcDbLine
 10
-301.2925375952542
 20
-960.1638280711668
 30
0.0
 11
-300.4925375952586
 21
-960.1638280711668
 31
0.0
  0
LINE
  5
1D93
330
85F
100
AcDbEntity
  8
DETAIL
100
AcDbLine
 10
-300.2925375952542
 20
-1091.840437517658
 30
0.0
 11
-300.39253759526
 21
-1091.840437517658
 31
0.0
  0
LINE
  5
1D94
330
85F
100
AcDbEntity
  8
DETAIL
100
AcDbLine
 10
-300.2925375952542
 20
-959.7724883252039
 30
0.0
 11
-300.39253759526
 21
-959.7724883252048
 31
0.0
  0
LINE
  5
1D95
330
85F
100
AcDbEntity
  8
DETAIL
100
AcDbLine
 10
-300.39253759526
 20
-960.1724883252044
 30
0.0
 11
-300.2925375952542
 21
-960.1724883252044
 31
0.0
  0
LINE
  5
1D96
330
85F
100
AcDbEntity
  8
DETAIL
100
AcDbLine
 10
290.6574624047429
 20
-970.7093431951079
 30
0.0
 11
290.6574624047429
 21
-970.4023619350119
 31
0.0
  0
ELLIPSE
  5
1D97
330
85F
100
AcDbEntity
  8
DETAIL
100
AcDbEllipse
 10
291.2074624047385
 20
-971.5179063916348
 30
0.0
 11
-1.499999999999997
 21
0.0000000000001612
 31
0.0
210
0.0
220
0.0
230
1.0
 40
0.8660254037845884
 41
0.1545748900120751
 42
2.987017763578235
  0
ELLIPSE
  5
1D98
330
85F
100
AcDbEntity
  8
DETAIL
100
AcDbEllipse
 10
291.2074624047385
 20
-971.9179063916353
 30
0.0
 11
1.500000000000005
 21
-0.0000000000001651
 31
0.0
210
0.0
220
0.0
230
1.0
 40
0.8660254037845863
 41
1.946219934776344
 42
7.478558025993674
  0
LINE
  5
1D99
330
85F
100
AcDbEntity
  8
DETAIL
100
AcDbLine
 10
291.7574624047414
 20
-970.4023619350127
 30
0.0
 11
291.7574624047414
 21
-970.7093431951079
 31
0.0
  0
ELLIPSE
  5
1D9A
330
85F
100
AcDbEntity
  8
DETAIL
100
AcDbEllipse
 10
291.2074624047385
 20
-970.4023619350119
 30
0.0
 11
-0.55
 21
0.0000000000000345
 31
0.0
210
0.0
220
0.0
230
1.0
 40
0.8660254037845847
 41
3.14159265358985
 42
6.283185307179643
  0
LINE
  5
1D9B
330
85F
100
AcDbEntity
  8
DETAIL
100
AcDbLine
 10
315.9074624047429
 20
-917.8064629214569
 30
0.0
 11
312.9074624047429
 21
-917.8064629214558
 31
0.0
  0
LINE
  5
1D9C
330
85F
100
AcDbEntity
  8
DETAIL
100
AcDbLine
 10
312.9074624047429
 20
-917.8064629214558
 30
0.0
 11
312.9074624047429
 21
-918.6064629214561
 31
0.0
  0
LINE
  5
1D9D
330
85F
100
AcDbEntity
  8
DETAIL
100
AcDbLine
 10
312.9074624047429
 20
-918.6064629214561
 30
0.0
 11
315.9074624047429
 21
-918.606462921457
 31
0.0
  0
LINE
  5
1D9E
330
85F
100
AcDbEntity
  8
DETAIL
100
AcDbLine
 10
315.9074624047429
 20
-918.606462921457
 30
0.0
 11
315.9074624047429
 21
-917.8064629214569
 31
0.0
  0
LINE
  5
1D9F
330
85F
100
AcDbEntity
  8
DETAIL
100
AcDbLine
 10
299.8074624047443
 20
-936.306462921455
 30
0.0
 11
297.734257324017
 21
-936.306462921455
 31
0.0
  0
LINE
  5
1DA0
330
85F
100
AcDbEntity
  8
DETAIL
100
AcDbLine
 10
299.8074624047443
 20
-958.306462921455
 30
0.0
 11
299.7074624047458
 21
-958.306462921455
 31
0.0
  0
LINE
  5
1DA1
330
85F
100
AcDbEntity
  8
DETAIL
100
AcDbLine
 10
299.8074624047443
 20
-958.306462921455
 30
0.0
 11
299.8074624047443
 21
-936.306462921455
 31
0.0
  0
LINE
  5
1DA2
330
85F
100
AcDbEntity
  8
DETAIL
100
AcDbLine
 10
299.9074624047429
 20
-958.3164629214552
 30
0.0
 11
299.9074624047429
 21
-958.306462921455
 31
0.0
  0
LINE
  5
1DA3
330
85F
100
AcDbEntity
  8
DETAIL
100
AcDbLine
 10
299.9074624047429
 20
-936.3064629214559
 30
0.0
 11
299.9074624047429
 21
-936.2964629214557
 31
0.0
  0
LINE
  5
1DA4
330
85F
100
AcDbEntity
  8
DETAIL
100
AcDbLine
 10
300.7074624047385
 20
-936.2964629214557
 30
0.0
 11
300.7074624047385
 21
-936.3064629214559
 31
0.0
  0
LINE
  5
1DA5
330
85F
100
AcDbEntity
  8
DETAIL
100
AcDbLine
 10
300.7074624047385
 20
-936.3064629214559
 30
0.0
 11
300.7074624047385
 21
-958.306462921455
 31
0.0
  0
LINE
  5
1DA6
330
85F
100
AcDbEntity
  8
DETAIL
100
AcDbLine
 10
300.7074624047385
 20
-958.306462921455
 30
0.0
 11
300.7074624047385
 21
-958.3164629214561
 31
0.0
  0
LINE
  5
1DA7
330
85F
100
AcDbEntity
  8
DETAIL
100
AcDbLine
 10
299.8074624047443
 20
-936.306462921455
 30
0.0
 11
300.7074624047385
 21
-936.3064629214559
 31
0.0
  0
LINE
  5
1DA8
330
85F
100
AcDbEntity
  8
DETAIL
100
AcDbLine
 10
299.8074624047443
 20
-958.306462921455
 30
0.0
 11
300.7074624047385
 21
-958.306462921455
 31
0.0
  0
LINE
  5
1DA9
330
85F
100
AcDbEntity
  8
DETAIL
100
AcDbLine
 10
300.7074624047385
 20
-958.3164629214552
 30
0.0
 11
299.9074624047429
 21
-958.3164629214552
 31
0.0
  0
LINE
  5
1DAA
330
85F
100
AcDbEntity
  8
DETAIL
100
AcDbLine
 10
299.9074624047429
 20
-936.2964629214548
 30
0.0
 11
300.7074624047385
 21
-936.2964629214548
 31
0.0
  0
LINE
  5
1DAB
330
85F
100
AcDbEntity
  8
DETAIL
100
AcDbLine
 10
312.9074624047429
 20
-918.6064629214561
 30
0.0
 11
300.8074624047444
 21
-918.6064629214552
 31
0.0
  0
LINE
  5
1DAC
330
85F
100
AcDbEntity
  8
DETAIL
100
AcDbLine
 10
312.9074624047429
 20
-917.8064629214558
 30
0.0
 11
300.8074624047444
 21
-917.8064629214549
 31
0.0
  0
LINE
  5
1DAD
330
85F
100
AcDbEntity
  8
DETAIL
100
AcDbLine
 10
290.6574624047356
 20
-1074.632391649257
 30
0.0
 11
290.6574624047356
 21
-1074.325410389162
 31
0.0
  0
ELLIPSE
  5
1DAE
330
85F
100
AcDbEntity
  8
DETAIL
100
AcDbEllipse
 10
291.2074624047312
 20
-1075.440954845786
 30
0.0
 11
-1.500000000000002
 21
0.0000000000001332
 31
0.0
210
0.0
220
0.0
230
1.0
 40
0.8660254037845895
 41
0.1545748900117832
 42
2.987017763578213
  0
ELLIPSE
  5
1DAF
330
85F
100
AcDbEntity
  8
DETAIL
100
AcDbEllipse
 10
291.2074624047312
 20
-1075.840954845785
 30
0.0
 11
1.499999999999988
 21
-0.0000000000001553
 31
0.0
210
0.0
220
0.0
230
1.0
 40
0.8660254037845904
 41
1.94621993477634
 42
7.478558025993667
  0
LINE
  5
1DB0
330
85F
100
AcDbEntity
  8
DETAIL
100
AcDbLine
 10
291.7574624047341
 20
-1074.325410389162
 30
0.0
 11
291.7574624047341
 21
-1074.632391649257
 31
0.0
  0
ELLIPSE
  5
1DB1
330
85F
100
AcDbEntity
  8
DETAIL
100
AcDbEllipse
 10
291.2074624047312
 20
-1074.325410389162
 30
0.0
 11
-0.55
 21
0.0000000000000167
 31
0.0
210
0.0
220
0.0
230
1.0
 40
0.8660254037845859
 41
3.141592653589806
 42
6.283185307179599
  0
LINE
  5
1DB2
330
85F
100
AcDbEntity
  8
DETAIL
100
AcDbLine
 10
299.1074624047472
 20
-929.9878429652418
 30
0.0
 11
299.1074624047472
 21
-930.4646002969903
 31
0.0
  0
LINE
  5
1DB3
330
85F
100
AcDbEntity
  8
DETAIL
100
AcDbLine
 10
299.1074624047472
 20
-930.4646002969903
 30
0.0
 11
299.9074624047429
 21
-930.4646002969903
 31
0.0
  0
LINE
  5
1DB4
330
85F
100
AcDbEntity
  8
DETAIL
100
AcDbLine
 10
299.9074624047429
 20
-929.9878429652418
 30
0.0
 11
299.1074624047472
 21
-929.9878429652418
 31
0.0
  0
LINE
  5
1DB5
330
85F
100
AcDbEntity
  8
DETAIL
100
AcDbLine
 10
299.1074624047472
 20
-930.4646002969903
 30
0.0
 11
299.10746240474
 21
-936.3064629215797
 31
0.0
  0
LINE
  5
1DB6
330
85F
100
AcDbEntity
  8
DETAIL
100
AcDbLine
 10
299.9074624047429
 20
-959.306462921455
 30
0.0
 11
299.9074624047429
 21
-960.1638280712021
 31
0.0
  0
LINE
  5
1DB7
330
85F
100
AcDbEntity
  8
DETAIL
100
AcDbLine
 10
299.9074624047429
 20
-958.3164629214552
 30
0.0
 11
299.9074624047429
 21
-959.306462921455
 31
0.0
  0
LINE
  5
1DB8
330
85F
100
AcDbEntity
  8
DETAIL
100
AcDbLine
 10
299.9074624047429
 20
-918.7064629214555
 30
0.0
 11
299.9074624047429
 21
-936.2964629214548
 31
0.0
  0
LINE
  5
1DB9
330
85F
100
AcDbEntity
  8
DETAIL
100
AcDbLine
 10
300.7074624047385
 20
-936.2964629214548
 30
0.0
 11
300.7074624047458
 21
-918.7064629214555
 31
0.0
  0
LINE
  5
1DBA
330
85F
100
AcDbEntity
  8
DETAIL
100
AcDbLine
 10
300.7074624047385
 20
-959.306462921455
 30
0.0
 11
300.7074624047385
 21
-958.3164629214552
 31
0.0
  0
LINE
  5
1DBB
330
85F
100
AcDbEntity
  8
DETAIL
100
AcDbLine
 10
300.7074624047385
 20
-960.1638280712021
 30
0.0
 11
300.7074624047385
 21
-959.306462921455
 31
0.0
  0
LINE
  5
1DBC
330
85F
100
AcDbEntity
  8
DETAIL
100
AcDbLine
 10
300.7074624047385
 20
-959.306462921455
 30
0.0
 11
299.9074624047429
 21
-959.306462921455
 31
0.0
  0
LINE
  5
1DBD
330
85F
100
AcDbEntity
  8
DETAIL
100
AcDbLine
 10
299.9074624047356
 20
-1092.706462921477
 30
0.0
 11
299.9074624047356
 21
-1091.837651113193
 31
0.0
  0
LINE
  5
1DBE
330
85F
100
AcDbEntity
  8
DETAIL
100
AcDbLine
 10
300.7074624047385
 20
-960.1638280712021
 30
0.0
 11
300.7074624047313
 21
-1091.390437517692
 31
0.0
  0
LINE
  5
1DBF
330
85F
100
AcDbEntity
  8
DETAIL
100
AcDbLine
 10
300.7074624047313
 20
-1091.390437517692
 30
0.0
 11
300.7074624047313
 21
-1092.706462921478
 31
0.0
  0
ELLIPSE
  5
1DC0
330
85F
100
AcDbEntity
  8
DETAIL
100
AcDbEllipse
 10
299.8074624047443
 20
-959.7224883252401
 30
0.0
 11
0.0999999999999992
 21
-0.0000000000000418
 31
0.0
210
0.0
220
0.0
230
1.0
 40
0.4999999999997156
 41
4.712388980384897
 42
6.28318530718247
  0
LINE
  5
1DC1
330
85F
100
AcDbEntity
  8
DETAIL
100
AcDbLine
 10
299.8074624047298
 20
-1091.840437517692
 30
0.0
 11
299.8074624047443
 21
-960.17248832524
 31
0.0
  0
LINE
  5
1DC2
330
85F
100
AcDbEntity
  8
DETAIL
100
AcDbLine
 10
299.8074624047443
 20
-960.17248832524
 30
0.0
 11
299.8074624047443
 21
-959.7724883252404
 31
0.0
  0
ELLIPSE
  5
1DC3
330
85F
100
AcDbEntity
  8
DETAIL
100
AcDbEllipse
 10
299.8074624047443
 20
-959.7224883252392
 30
0.0
 11
-0.899999999999742
 21
0.000000000000097
 31
0.0
210
0.0
220
0.0
230
1.0
 40
0.5000000000002199
 41
1.57079632679495
 42
1.767301065320115
  0
ELLIPSE
  5
1DC4
330
85F
100
AcDbEntity
  8
DETAIL
100
AcDbEllipse
 10
299.8074624047298
 20
-1091.390437517692
 30
0.0
 11
0.8999999999999969
 21
-0.0000000000000565
 31
0.0
210
0.0
220
0.0
230
1.0
 40
0.4999999999997261
 41
4.712388980384719
 42
6.283185307179746
  0
LINE
  5
1DC5
330
85F
100
AcDbEntity
  8
DETAIL
100
AcDbLine
 10
300.7074624047313
 20
-1092.706462921478
 30
0.0
 11
299.9074624047356
 21
-1092.706462921477
 31
0.0
  0
LINE
  5
1DC6
330
85F
100
AcDbEntity
  8
DETAIL
100
AcDbLine
 10
299.9074624047429
 20
-960.1638280712021
 30
0.0
 11
300.7074624047385
 21
-960.1638280712021
 31
0.0
  0
LINE
  5
1DC7
330
85F
100
AcDbEntity
  8
DETAIL
100
AcDbLine
 10
299.8074624047298
 20
-1091.906462921478
 30
0.0
 11
299.7074624047458
 21
-1091.906462921478
 31
0.0
  0
LINE
  5
1DC8
330
85F
100
AcDbEntity
  8
DETAIL
100
AcDbLine
 10
299.8074624047298
 20
-1092.706462921478
 30
0.0
 11
299.7074624047458
 21
-1092.706462921478
 31
0.0
  0
ARC
  5
1DC9
330
85F
100
AcDbEntity
  8
DETAIL
100
AcDbCircle
 10
299.8074624047298
 20
-1091.806462921478
 30
0.0
 40
0.0999999999999766
100
AcDbArc
 50
270.0
 51
341.6604170117835
  0
LINE
  5
1DCA
330
85F
100
AcDbEntity
  8
DETAIL
100
AcDbLine
 10
299.8074624047298
 20
-1092.706462921478
 30
0.0
 11
299.8074624047298
 21
-1091.906462921478
 31
0.0
  0
ARC
  5
1DCB
330
85F
100
AcDbEntity
  8
DETAIL
100
AcDbCircle
 10
299.8074624047298
 20
-1091.806462921484
 30
0.0
 40
0.8999999999939587
100
AcDbArc
 50
270.0
 51
276.3793702083498
  0
LINE
  5
1DCC
330
85F
100
AcDbEntity
  8
DETAIL
100
AcDbLine
 10
299.8074624047298
 20
-1091.840437517692
 30
0.0
 11
299.7074624047458
 21
-1091.840437517692
 31
0.0
  0
LINE
  5
1DCD
330
85F
100
AcDbEntity
  8
DETAIL
100
AcDbLine
 10
299.8074624047443
 20
-960.17248832524
 30
0.0
 11
299.7074624047458
 21
-960.17248832524
 31
0.0
  0
LINE
  5
1DCE
330
85F
100
AcDbEntity
  8
DETAIL
100
AcDbLine
 10
299.8074624047443
 20
-959.7724883252404
 30
0.0
 11
299.7074624047458
 21
-959.7724883252404
 31
0.0
  0
LINE
  5
1DCF
330
85F
100
AcDbEntity
  8
DETAIL
100
AcDbLine
 10
300.7074624047458
 20
-918.7064629214555
 30
0.0
 11
299.9074624047429
 21
-918.7064629214555
 31
0.0
  0
ARC
  5
1DD0
330
85F
100
AcDbEntity
  8
DETAIL
100
AcDbCircle
 10
300.8074624047444
 20
-918.7064629214555
 30
0.0
 40
0.8999999999999998
100
AcDbArc
 50
90.0
 51
180.0
  0
LINE
  5
1DD1
330
85F
100
AcDbEntity
  8
DETAIL
100
AcDbLine
 10
300.8074624047444
 20
-917.8064629214549
 30
0.0
 11
300.8074624047444
 21
-918.6064629214552
 31
0.0
  0
ARC
  5
1DD2
330
85F
100
AcDbEntity
  8
DETAIL
100
AcDbCircle
 10
300.8074624047444
 20
-918.7064629214555
 30
0.0
 40
0.1
100
AcDbArc
 50
90.0
 51
180.0
  0
LINE
  5
1DD3
330
85F
100
AcDbEntity
  8
DETAIL
100
AcDbLine
 10
296.7074624047385
 20
-935.2796680021784
 30
0.0
 11
299.7074624047385
 21
-938.2796680021783
 31
0.0
  0
LINE
  5
1DD4
330
85F
100
AcDbEntity
  8
DETAIL
100
AcDbLine
 10
-297.2925375952542
 20
-935.2796680021729
 30
0.0
 11
-300.2925375952542
 21
-935.2796680021738
 31
0.0
  0
LINE
  5
1DD5
330
85F
100
AcDbEntity
  8
DETAIL
100
AcDbLine
 10
-300.2925375952542
 20
-935.2796680021738
 30
0.0
 11
-300.2925375952542
 21
-936.079668002174
 31
0.0
  0
LINE
  5
1DD6
330
85F
100
AcDbEntity
  8
DETAIL
100
AcDbLine
 10
-300.2925375952542
 20
-936.079668002174
 30
0.0
 11
-297.2925375952542
 21
-936.0796680021731
 31
0.0
  0
LINE
  5
1DD7
330
85F
100
AcDbEntity
  8
DETAIL
100
AcDbLine
 10
-297.2925375952542
 20
-936.0796680021731
 30
0.0
 11
-297.2925375952542
 21
-935.2796680021729
 31
0.0
  0
LINE
  5
1DD8
330
85F
100
AcDbEntity
  8
DETAIL
100
AcDbLine
 10
279.7074624047385
 20
-935.2796680021766
 30
0.0
 11
279.7074624047385
 21
-936.0796680021767
 31
0.0
  0
LINE
  5
1DD9
330
85F
100
AcDbEntity
  8
DETAIL
100
AcDbLine
 10
279.7074624047385
 20
-936.0796680021767
 30
0.0
 11
282.7074624047385
 21
-936.0796680021776
 31
0.0
  0
LINE
  5
1DDA
330
85F
100
AcDbEntity
  8
DETAIL
100
AcDbLine
 10
282.7074624047385
 20
-935.2796680021775
 30
0.0
 11
279.7074624047385
 21
-935.2796680021766
 31
0.0
  0
LINE
  5
1DDB
330
85F
100
AcDbEntity
  8
DETAIL
100
AcDbLine
 10
282.7074624047385
 20
-936.0796680021776
 30
0.0
 11
282.7074624047385
 21
-935.2796680021775
 31
0.0
  0
LINE
  5
1DDC
330
85F
100
AcDbEntity
  8
DETAIL
100
AcDbLine
 10
283.5074624047414
 20
-935.2796680021784
 30
0.0
 11
296.7074624047385
 21
-935.2796680021784
 31
0.0
  0
LINE
  5
1DDD
330
85F
100
AcDbEntity
  8
DETAIL
100
AcDbLine
 10
-300.2925375952542
 20
-959.2796680021747
 30
0.0
 11
-300.2925375952542
 21
-936.1796680021743
 31
0.0
  0
LINE
  5
1DDE
330
85F
100
AcDbEntity
  8
DETAIL
100
AcDbLine
 10
299.7074624047385
 20
-938.2796680021783
 30
0.0
 11
299.7074624047385
 21
-959.2796680021784
 31
0.0
  0
LINE
  5
1DDF
330
85F
100
AcDbEntity
  8
DETAIL
100
AcDbLine
 10
-300.2925375952542
 20
-1093.894323608692
 30
0.0
 11
-300.2925375952542
 21
-959.7296680021745
 31
0.0
  0
LINE
  5
1DE0
330
85F
100
AcDbEntity
  8
DETAIL
100
AcDbLine
 10
299.7074624047385
 20
-959.7296680021782
 30
0.0
 11
299.7074624047385
 21
-1093.894323608696
 31
0.0
  0
LINE
  5
1DE1
330
85F
100
AcDbEntity
  8
DETAIL
100
AcDbLine
 10
279.7074624047385
 20
-936.0796680021767
 30
0.0
 11
-297.2925375952542
 21
-936.0796680021731
 31
0.0
  0
LINE
  5
1DE2
330
85F
100
AcDbEntity
  8
DETAIL
100
AcDbLine
 10
279.7074624047385
 20
-935.2796680021766
 30
0.0
 11
-297.2925375952542
 21
-935.2796680021729
 31
0.0
  0
LINE
  5
1DE3
330
85F
100
AcDbEntity
  8
DETAIL
100
AcDbLine
 10
282.7074624047385
 20
-936.0796680021785
 30
0.0
 11
282.7074624047385
 21
-936.1796680021789
 31
0.0
  0
LINE
  5
1DE4
330
85F
100
AcDbEntity
  8
DETAIL
100
AcDbLine
 10
-300.2925375952542
 20
-936.0796680021749
 30
0.0
 11
-300.2925375952542
 21
-936.1796680021743
 31
0.0
  0
LINE
  5
1DE5
330
85F
100
AcDbEntity
  8
DETAIL
100
AcDbLine
 10
282.7074624047385
 20
-936.1796680021789
 30
0.0
 11
-300.2925375952542
 21
-936.1796680021743
 31
0.0
  0
LINE
  5
1DE6
330
85F
100
AcDbEntity
  8
DETAIL
100
AcDbLine
 10
283.5074624047414
 20
-935.2796680021784
 30
0.0
 11
283.5074624047414
 21
-936.5796680021786
 31
0.0
  0
LINE
  5
1DE7
330
85F
100
AcDbEntity
  8
DETAIL
100
AcDbLine
 10
282.7074624047385
 20
-936.5796680021786
 30
0.0
 11
282.7074624047385
 21
-936.1796680021789
 31
0.0
  0
LINE
  5
1DE8
330
85F
100
AcDbEntity
  8
DETAIL
100
AcDbLine
 10
283.5074624047414
 20
-936.5796680021786
 30
0.0
 11
282.7074624047385
 21
-936.5796680021786
 31
0.0
  0
LINE
  5
1DE9
330
85F
100
AcDbEntity
  8
DETAIL
100
AcDbLine
 10
-300.2925375952542
 20
-959.2796680021747
 30
0.0
 11
299.7074624047385
 21
-959.2796680021784
 31
0.0
  0
LINE
  5
1DEA
330
85F
100
AcDbEntity
  8
DETAIL
100
AcDbLine
 10
299.7074624047385
 20
-959.7296680021782
 30
0.0
 11
-300.2925375952542
 21
-959.7296680021745
 31
0.0
  0
LINE
  5
1DEB
330
85F
100
AcDbEntity
  8
DETAIL
100
AcDbLine
 10
299.7074624047385
 20
-959.2796680021784
 30
0.0
 11
299.7074624047385
 21
-959.7296680021782
 31
0.0
  0
LINE
  5
1DEC
330
85F
100
AcDbEntity
  8
DETAIL
100
AcDbLine
 10
-300.2925375952542
 20
-959.7296680021745
 30
0.0
 11
-300.2925375952542
 21
-959.2796680021747
 31
0.0
  0
LINE
  5
1DED
330
85F
100
AcDbEntity
  8
DETAIL
100
AcDbLine
 10
289.7074624047385
 20
-950.7796680021783
 30
0.0
 11
289.7074624047385
 21
-947.7796680021784
 31
0.0
  0
LINE
  5
1DEE
330
85F
100
AcDbEntity
  8
DETAIL
100
AcDbLine
 10
289.7074624047385
 20
-947.7796680021784
 30
0.0
 11
292.7074624047385
 21
-947.7796680021784
 31
0.0
  0
LINE
  5
1DEF
330
85F
100
AcDbEntity
  8
DETAIL
100
AcDbLine
 10
292.7074624047385
 20
-947.7796680021784
 30
0.0
 11
292.7074624047385
 21
-950.7796680021783
 31
0.0
  0
LINE
  5
1DF0
330
85F
100
AcDbEntity
  8
DETAIL
100
AcDbLine
 10
292.7074624047385
 20
-950.7796680021783
 30
0.0
 11
289.7074624047385
 21
-950.7796680021783
 31
0.0
  0
LINE
  5
1DF1
330
85F
100
AcDbEntity
  8
DETAIL
100
AcDbLine
 10
-293.2925375952542
 20
-950.7796680021748
 30
0.0
 11
-293.2925375952542
 21
-947.7796680021747
 31
0.0
  0
LINE
  5
1DF2
330
85F
100
AcDbEntity
  8
DETAIL
100
AcDbLine
 10
-293.2925375952542
 20
-947.7796680021747
 30
0.0
 11
-290.2925375952542
 21
-947.7796680021747
 31
0.0
  0
LINE
  5
1DF3
330
85F
100
AcDbEntity
  8
DETAIL
100
AcDbLine
 10
-290.2925375952542
 20
-947.7796680021747
 30
0.0
 11
-290.2925375952542
 21
-950.7796680021748
 31
0.0
  0
LINE
  5
1DF4
330
85F
100
AcDbEntity
  8
DETAIL
100
AcDbLine
 10
-290.2925375952542
 20
-950.7796680021748
 30
0.0
 11
-293.2925375952542
 21
-950.7796680021748
 31
0.0
  0
LINE
  5
1DF5
330
85F
100
AcDbEntity
  8
DETAIL
100
AcDbLine
 10
299.7074624047385
 20
-1094.344323608696
 30
0.0
 11
-300.2925375952542
 21
-1094.344323608692
 31
0.0
  0
LINE
  5
1DF6
330
85F
100
AcDbEntity
  8
DETAIL
100
AcDbLine
 10
-300.2925375952542
 20
-1094.344323608692
 30
0.0
 11
-300.2925375952542
 21
-1093.894323608692
 31
0.0
  0
LINE
  5
1DF7
330
85F
100
AcDbEntity
  8
DETAIL
100
AcDbLine
 10
299.7074624047385
 20
-1093.894323608696
 30
0.0
 11
299.7074624047385
 21
-1094.344323608696
 31
0.0
  0
LINE
  5
1DF8
330
85F
100
AcDbEntity
  8
DETAIL
100
AcDbLine
 10
-300.2925375952542
 20
-1093.894323608692
 30
0.0
 11
299.7074624047385
 21
-1093.894323608696
 31
0.0
  0
ELLIPSE
  5
1DF9
330
85F
100
AcDbEntity
  8
DETAIL
100
AcDbEllipse
 10
291.2074624047385
 20
-971.3847416750713
 30
0.0
 11
-2.499999999999974
 21
0.0000000000000638
 31
0.0
210
0.0
220
0.0
230
1.0
 40
0.8660254037845771
 41
0.0925079294055898
 42
3.049084724184262
  0
ELLIPSE
  5
1DFA
330
85F
100
AcDbEntity
  8
DETAIL
100
AcDbEllipse
 10
291.2074624047385
 20
-971.7847416750711
 30
0.0
 11
-2.499999999999931
 21
0.0000000000000163
 31
0.0
210
0.0
220
0.0
230
1.0
 40
0.8660254037845767
 41
0.0
 42
6.283185307179586
  0
ELLIPSE
  5
1DFB
330
85F
100
AcDbEntity
  8
DETAIL
100
AcDbEllipse
 10
291.2074624047385
 20
-1075.30779012922
 30
0.0
 11
-2.499999999999983
 21
0.0000000000000845
 31
0.0
210
0.0
220
0.0
230
1.0
 40
0.8660254037845776
 41
0.0925079294055991
 42
3.049084724184271
  0
ELLIPSE
  5
1DFC
330
85F
100
AcDbEntity
  8
DETAIL
100
AcDbEllipse
 10
291.2074624047385
 20
-1075.707790129219
 30
0.0
 11
-2.499999999999924
 21
0.0000000000000163
 31
0.0
210
0.0
220
0.0
230
1.0
 40
0.8660254037845767
 41
0.0
 42
6.283185307179586
  0
ELLIPSE
  5
1DFD
330
85F
100
AcDbEntity
  8
DETAIL
100
AcDbEllipse
 10
-291.7925375952542
 20
-971.3847416750677
 30
0.0
 11
-2.499999999999992
 21
0.0000000000000594
 31
0.0
210
0.0
220
0.0
230
1.0
 40
0.8660254037845769
 41
0.0925079294054244
 42
3.04908472418426
  0
ELLIPSE
  5
1DFE
330
85F
100
AcDbEntity
  8
DETAIL
100
AcDbEllipse
 10
-291.7925375952542
 20
-971.7847416750673
 30
0.0
 11
-2.499999999999976
 21
0.0000000000000163
 31
0.0
210
0.0
220
0.0
230
1.0
 40
0.8660254037845769
 41
0.0
 42
6.283185307179586
  0
ELLIPSE
  5
1DFF
330
85F
100
AcDbEntity
  8
DETAIL
100
AcDbEllipse
 10
-291.7925375952542
 20
-1075.307790129216
 30
0.0
 11
-2.49999999999999
 21
0.0000000000000674
 31
0.0
210
0.0
220
0.0
230
1.0
 40
0.8660254037845767
 41
0.0925079294054281
 42
3.049084724184263
  0
ELLIPSE
  5
1E00
330
85F
100
AcDbEntity
  8
DETAIL
100
AcDbEllipse
 10
-291.7925375952542
 20
-1075.707790129216
 30
0.0
 11
-2.499999999999983
 21
0.0000000000000163
 31
0.0
210
0.0
220
0.0
230
1.0
 40
0.8660254037845767
 41
0.0
 42
6.283185307179586
  0
LINE
  5
1E01
330
85F
100
AcDbEntity
  8
OUTLINE
100
AcDbLine
 10
-305.4925375952586
 20
-927.1064629214224
 30
0.0
 11
-302.4925375952586
 21
-927.1064629214215
 31
0.0
  0
LINE
  5
1E02
330
85F
100
AcDbEntity
  8
OUTLINE
100
AcDbLine
 10
-302.4925375952586
 20
-927.1064629214215
 30
0.0
 11
-302.4925375952586
 21
-926.3064629214213
 31
0.0
  0
LINE
  5
1E03
330
85F
100
AcDbEntity
  8
OUTLINE
100
AcDbLine
 10
-302.4925375952586
 20
-926.3064629214213
 30
0.0
 11
-305.4925375952586
 21
-926.3064629214223
 31
0.0
  0
LINE
  5
1E04
330
85F
100
AcDbEntity
  8
OUTLINE
100
AcDbLine
 10
-305.4925375952586
 20
-926.3064629214223
 30
0.0
 11
-305.4925375952586
 21
-927.1064629214224
 31
0.0
  0
LINE
  5
1E05
330
85F
100
AcDbEntity
  8
OUTLINE
100
AcDbLine
 10
-313.4925375952586
 20
-927.1064629214324
 30
0.0
 11
-310.4925375952586
 21
-927.1064629214315
 31
0.0
  0
LINE
  5
1E06
330
85F
100
AcDbEntity
  8
OUTLINE
100
AcDbLine
 10
-310.4925375952586
 20
-926.3064629214314
 30
0.0
 11
-313.4925375952586
 21
-926.3064629214323
 31
0.0
  0
LINE
  5
1E07
330
85F
100
AcDbEntity
  8
OUTLINE
100
AcDbLine
 10
-313.4925375952586
 20
-926.3064629214323
 30
0.0
 11
-313.4925375952586
 21
-927.1064629214324
 31
0.0
  0
LINE
  5
1E08
330
85F
100
AcDbEntity
  8
OUTLINE
100
AcDbLine
 10
-310.4925375952586
 20
-927.1064629214315
 30
0.0
 11
-310.4925375952586
 21
-926.3064629214314
 31
0.0
  0
LINE
  5
1E09
330
85F
100
AcDbEntity
  8
OUTLINE
100
AcDbLine
 10
-302.4925375952586
 20
-927.1064629214215
 30
0.0
 11
-301.39253759526
 21
-927.1064629214215
 31
0.0
  0
LINE
  5
1E0A
330
85F
100
AcDbEntity
  8
OUTLINE
100
AcDbLine
 10
-301.39253759526
 20
-926.3064629214213
 30
0.0
 11
-302.4925375952586
 21
-926.3064629214213
 31
0.0
  0
LINE
  5
1E0B
330
85F
100
AcDbEntity
  8
OUTLINE
100
AcDbLine
 10
-301.39253759526
 20
-927.1064629214215
 30
0.0
 11
-301.39253759526
 21
-926.3064629214213
 31
0.0
  0
LINE
  5
1E0C
330
85F
100
AcDbEntity
  8
OUTLINE
100
AcDbLine
 10
-300.4925375952586
 20
-927.2064629214218
 30
0.0
 11
-301.2925375952542
 21
-927.2064629214218
 31
0.0
  0
ARC
  5
1E0D
330
85F
100
AcDbEntity
  8
OUTLINE
100
AcDbCircle
 10
-301.39253759526
 20
-927.2064629214218
 30
0.0
 40
0.1
100
AcDbArc
 50
0.0
 51
90.0
  0
ARC
  5
1E0E
330
85F
100
AcDbEntity
  8
OUTLINE
100
AcDbCircle
 10
-301.39253759526
 20
-927.2064629214218
 30
0.0
 40
0.9
100
AcDbArc
 50
0.0
 51
90.0
  0
LINE
  5
1E0F
330
85F
100
AcDbEntity
  8
OUTLINE
100
AcDbLine
 10
-305.4925375952586
 20
-927.1064629214315
 30
0.0
 11
-310.4925375952586
 21
-927.1064629214315
 31
0.0
  0
LINE
  5
1E10
330
85F
100
AcDbEntity
  8
OUTLINE
100
AcDbLine
 10
-310.4925375952586
 20
-926.3064629214314
 30
0.0
 11
-305.4925375952586
 21
-926.3064629214314
 31
0.0
  0
LINE
  5
1E11
330
85F
100
AcDbEntity
  8
OUTLINE
100
AcDbLine
 10
-300.39253759526
 20
-936.3064629214214
 30
0.0
 11
-300.2925375952542
 21
-936.3064629214214
 31
0.0
  0
LINE
  5
1E12
330
85F
100
AcDbEntity
  8
OUTLINE
100
AcDbLine
 10
-300.2925375952542
 20
-958.3064629214213
 30
0.0
 11
-300.39253759526
 21
-958.3064629214213
 31
0.0
  0
LINE
  5
1E13
330
85F
100
AcDbEntity
  8
OUTLINE
100
AcDbLine
 10
-291.2425375952586
 20
-970.4023619349781
 30
0.0
 11
-291.2425375952586
 21
-970.7093431950744
 31
0.0
  0
ELLIPSE
  5
1E14
330
85F
100
AcDbEntity
  8
OUTLINE
100
AcDbEllipse
 10
-291.7925375952542
 20
-971.9179063916017
 30
0.0
 11
1.500000000000005
 21
0.0000000000000343
 31
0.0
210
0.0
220
0.0
230
1.0
 40
0.8660254037845799
 41
1.946219934776222
 42
7.478558025993557
  0
ELLIPSE
  5
1E15
330
85F
100
AcDbEntity
  8
OUTLINE
100
AcDbEllipse
 10
-291.7925375952542
 20
-971.5179063916021
 30
0.0
 11
-1.500000000000001
 21
-0.0000000000000345
 31
0.0
210
0.0
220
0.0
230
1.0
 40
0.8660254037845781
 41
0.1545748900119271
 42
2.987017763578083
  0
LINE
  5
1E16
330
85F
100
AcDbEntity
  8
OUTLINE
100
AcDbLine
 10
-292.3425375952571
 20
-970.7093431950744
 30
0.0
 11
-292.3425375952571
 21
-970.4023619349781
 31
0.0
  0
ELLIPSE
  5
1E17
330
85F
100
AcDbEntity
  8
OUTLINE
100
AcDbEllipse
 10
-291.7925375952542
 20
-970.4023619349792
 30
0.0
 11
-0.5499999999999983
 21
0.0000000000000266
 31
0.0
210
0.0
220
0.0
230
1.0
 40
0.866025403784581
 41
3.141592653589878
 42
6.283185307179671
  0
LINE
  5
1E18
330
85F
100
AcDbEntity
  8
OUTLINE
100
AcDbLine
 10
-291.2425375952586
 20
-1074.325410389127
 30
0.0
 11
-291.2425375952586
 21
-1074.632391649225
 31
0.0
  0
ELLIPSE
  5
1E19
330
85F
100
AcDbEntity
  8
OUTLINE
100
AcDbEllipse
 10
-291.7925375952542
 20
-1075.840954845751
 30
0.0
 11
1.500000000000008
 21
0.000000000000067
 31
0.0
210
0.0
220
0.0
230
1.0
 40
0.8660254037845785
 41
1.946219934776202
 42
7.478558025993537
  0
ELLIPSE
  5
1E1A
330
85F
100
AcDbEntity
  8
OUTLINE
100
AcDbEllipse
 10
-291.7925375952542
 20
-1075.440954845751
 30
0.0
 11
-1.5
 21
-0.0000000000000308
 31
0.0
210
0.0
220
0.0
230
1.0
 40
0.8660254037845763
 41
0.1545748900119302
 42
2.987017763578086
  0
LINE
  5
1E1B
330
85F
100
AcDbEntity
  8
OUTLINE
100
AcDbLine
 10
-292.3425375952571
 20
-1074.632391649225
 30
0.0
 11
-292.3425375952571
 21
-1074.325410389127
 31
0.0
  0
ELLIPSE
  5
1E1C
330
85F
100
AcDbEntity
  8
OUTLINE
100
AcDbEllipse
 10
-291.7925375952542
 20
-1074.325410389127
 30
0.0
 11
-0.5500000000000006
 21
0.0000000000000178
 31
0.0
210
0.0
220
0.0
230
1.0
 40
0.8660254037845842
 41
3.141592653589851
 42
6.283185307179644
  0
LINE
  5
1E1D
330
85F
100
AcDbEntity
  8
OUTLINE
100
AcDbLine
 10
-300.2925375952542
 20
-935.3054990175952
 30
0.0
 11
-300.4925375952586
 21
-935.3054990175952
 31
0.0
  0
LINE
  5
1E1E
330
85F
100
AcDbEntity
  8
OUTLINE
100
AcDbLine
 10
-300.4925375952586
 20
-935.7822563493446
 30
0.0
 11
-300.2925375952542
 21
-935.7822563493446
 31
0.0
  0
LINE
  5
1E1F
330
85F
100
AcDbEntity
  8
OUTLINE
100
AcDbLine
 10
-300.39253759526
 20
-1092.706462921444
 30
0.0
 11
-300.2925375952542
 21
-1092.706462921444
 31
0.0
  0
LINE
  5
1E20
330
85F
100
AcDbEntity
  8
OUTLINE
100
AcDbLine
 10
-300.2925375952542
 20
-1091.906462921444
 30
0.0
 11
-300.39253759526
 21
-1091.906462921444
 31
0.0
  0
ARC
  5
1E21
330
85F
100
AcDbEntity
  8
OUTLINE
100
AcDbCircle
 10
-300.39253759526
 20
-1091.80646292145
 30
0.0
 40
0.8999999999934262
100
AcDbArc
 50
263.6206297916502
 51
270.0
  0
LINE
  5
1E22
330
85F
100
AcDbEntity
  8
OUTLINE
100
AcDbLine
 10
-300.39253759526
 20
-1091.906462921444
 30
0.0
 11
-300.39253759526
 21
-1092.706462921444
 31
0.0
  0
ARC
  5
1E23
330
85F
100
AcDbEntity
  8
OUTLINE
100
AcDbCircle
 10
-300.39253759526
 20
-1091.806462921445
 30
0.0
 40
0.1000000000000512
100
AcDbArc
 50
198.3395829879158
 51
270.0
  0
LINE
  5
1E24
330
85F
100
AcDbEntity
  8
OUTLINE
100
AcDbLine
 10
-300.4925375952586
 20
-936.296462921422
 30
0.0
 11
-300.4925375952586
 21
-927.2064629214218
 31
0.0
  0
LINE
  5
1E25
330
85F
100
AcDbEntity
  8
OUTLINE
100
AcDbLine
 10
-300.4925375952586
 20
-959.3064629214213
 30
0.0
 11
-300.4925375952586
 21
-958.3164629214216
 31
0.0
  0
LINE
  5
1E26
330
85F
100
AcDbEntity
  8
OUTLINE
100
AcDbLine
 10
-300.4925375952586
 20
-960.1638280711677
 30
0.0
 11
-300.4925375952586
 21
-959.3064629214213
 31
0.0
  0
LINE
  5
1E27
330
85F
100
AcDbEntity
  8
OUTLINE
100
AcDbLine
 10
-300.4925375952586
 20
-959.3064629214213
 30
0.0
 11
-301.2925375952542
 21
-959.3064629214213
 31
0.0
  0
LINE
  5
1E28
330
85F
100
AcDbEntity
  8
OUTLINE
100
AcDbLine
 10
-301.2925375952542
 20
-959.3064629214213
 30
0.0
 11
-301.2925375952542
 21
-960.1638280711677
 31
0.0
  0
LINE
  5
1E29
330
85F
100
AcDbEntity
  8
OUTLINE
100
AcDbLine
 10
-301.2925375952542
 20
-958.3164629214216
 30
0.0
 11
-301.2925375952542
 21
-959.3064629214213
 31
0.0
  0
LINE
  5
1E2A
330
85F
100
AcDbEntity
  8
OUTLINE
100
AcDbLine
 10
-301.2925375952542
 20
-927.2064629214218
 30
0.0
 11
-301.2925375952542
 21
-936.296462921422
 31
0.0
  0
LINE
  5
1E2B
330
85F
100
AcDbEntity
  8
OUTLINE
100
AcDbLine
 10
-300.4925375952586
 20
-936.296462921422
 30
0.0
 11
-300.4925375952586
 21
-936.3064629214214
 31
0.0
  0
LINE
  5
1E2C
330
85F
100
AcDbEntity
  8
OUTLINE
100
AcDbLine
 10
-300.4925375952586
 20
-958.3064629214222
 30
0.0
 11
-300.4925375952586
 21
-958.3164629214216
 31
0.0
  0
LINE
  5
1E2D
330
85F
100
AcDbEntity
  8
OUTLINE
100
AcDbLine
 10
-300.39253759526
 20
-936.3064629214214
 30
0.0
 11
-300.39253759526
 21
-958.3064629214213
 31
0.0
  0
LINE
  5
1E2E
330
85F
100
AcDbEntity
  8
OUTLINE
100
AcDbLine
 10
-300.39253759526
 20
-936.3064629214214
 30
0.0
 11
-301.2925375952542
 21
-936.3064629214214
 31
0.0
  0
LINE
  5
1E2F
330
85F
100
AcDbEntity
  8
OUTLINE
100
AcDbLine
 10
-301.2925375952542
 20
-958.3064629214222
 30
0.0
 11
-301.2925375952542
 21
-936.3064629214214
 31
0.0
  0
LINE
  5
1E30
330
85F
100
AcDbEntity
  8
OUTLINE
100
AcDbLine
 10
-301.2925375952542
 20
-958.3064629214222
 30
0.0
 11
-300.39253759526
 21
-958.3064629214213
 31
0.0
  0
LINE
  5
1E31
330
85F
100
AcDbEntity
  8
OUTLINE
100
AcDbLine
 10
-300.4925375952586
 20
-958.3164629214216
 30
0.0
 11
-301.2925375952542
 21
-958.3164629214216
 31
0.0
  0
LINE
  5
1E32
330
85F
100
AcDbEntity
  8
OUTLINE
100
AcDbLine
 10
-301.2925375952542
 20
-958.3164629214216
 30
0.0
 11
-301.2925375952542
 21
-958.3064629214222
 31
0.0
  0
LINE
  5
1E33
330
85F
100
AcDbEntity
  8
OUTLINE
100
AcDbLine
 10
-301.2925375952542
 20
-936.3064629214214
 30
0.0
 11
-301.2925375952542
 21
-936.296462921422
 31
0.0
  0
LINE
  5
1E34
330
85F
100
AcDbEntity
  8
OUTLINE
100
AcDbLine
 10
-301.2925375952542
 20
-936.296462921422
 30
0.0
 11
-300.4925375952586
 21
-936.296462921422
 31
0.0
  0
LINE
  5
1E35
330
85F
100
AcDbEntity
  8
OUTLINE
100
AcDbLine
 10
-300.4925375952586
 20
-1091.837651113158
 30
0.0
 11
-300.4925375952586
 21
-1092.706462921444
 31
0.0
  0
LINE
  5
1E36
330
85F
100
AcDbEntity
  8
OUTLINE
100
AcDbLine
 10
-300.39253759526
 20
-960.1724883252055
 30
0.0
 11
-300.39253759526
 21
-1091.840437517658
 31
0.0
  0
ELLIPSE
  5
1E37
330
85F
100
AcDbEntity
  8
OUTLINE
100
AcDbEllipse
 10
-300.39253759526
 20
-959.7224883252057
 30
0.0
 11
0.9000000000004707
 21
-0.0000000000000876
 31
0.0
210
0.0
220
0.0
230
1.0
 40
0.4999999999991041
 41
4.515884241866206
 42
4.712388980384738
  0
LINE
  5
1E38
330
85F
100
AcDbEntity
  8
OUTLINE
100
AcDbLine
 10
-301.2925375952542
 20
-1091.390437517659
 30
0.0
 11
-301.2925375952542
 21
-960.1638280711686
 31
0.0
  0
ELLIPSE
  5
1E39
330
85F
100
AcDbEntity
  8
OUTLINE
100
AcDbEllipse
 10
-300.39253759526
 20
-1091.390437517659
 30
0.0
 11
-0.8999999999999236
 21
-0.0000000000000819
 31
0.0
210
0.0
220
0.0
230
1.0
 40
0.4999999999998126
 41
0.0
 42
1.570796326794851
  0
LINE
  5
1E3A
330
85F
100
AcDbEntity
  8
OUTLINE
100
AcDbLine
 10
-300.39253759526
 20
-959.7724883252057
 30
0.0
 11
-300.39253759526
 21
-960.1724883252055
 31
0.0
  0
ELLIPSE
  5
1E3B
330
85F
100
AcDbEntity
  8
OUTLINE
100
AcDbEllipse
 10
-300.39253759526
 20
-959.7224883252057
 30
0.0
 11
-0.1000000000001111
 21
-0.0000000000000027
 31
0.0
210
0.0
220
0.0
230
1.0
 40
0.499999999999718
 41
0.0
 42
1.570796326794883
  0
LINE
  5
1E3C
330
85F
100
AcDbEntity
  8
OUTLINE
100
AcDbLine
 10
-301.2925375952542
 20
-1092.706462921444
 30
0.0
 11
-301.2925375952542
 21
-1091.390437517659
 31
0.0
  0
LINE
  5
1E3D
330
85F
100
AcDbEntity
  8
OUTLINE
100
AcDbLine
 10
-300.4925375952586
 20
-1092.706462921444
 30
0.0
 11
-301.2925375952542
 21
-1092.706462921444
 31
0.0
  0
LINE
  5
1E3E
330
85F
100
AcDbEntity
  8
OUTLINE
100
AcDbLine
 10
-301.2925375952542
 20
-960.1638280711677
 30
0.0
 11
-300.4925375952586
 21
-960.1638280711677
 31
0.0
  0
LINE
  5
1E3F
330
85F
100
AcDbEntity
  8
OUTLINE
100
AcDbLine
 10
-300.2925375952542
 20
-1091.840437517658
 30
0.0
 11
-300.39253759526
 21
-1091.840437517658
 31
0.0
  0
LINE
  5
1E40
330
85F
100
AcDbEntity
  8
OUTLINE
100
AcDbLine
 10
-300.2925375952542
 20
-959.7724883252048
 30
0.0
 11
-300.39253759526
 21
-959.7724883252057
 31
0.0
  0
LINE
  5
1E41
330
85F
100
AcDbEntity
  8
OUTLINE
100
AcDbLine
 10
-300.39253759526
 20
-960.1724883252055
 30
0.0
 11
-300.2925375952542
 21
-960.1724883252055
 31
0.0
  0
LINE
  5
1E42
330
85F
100
AcDbEntity
  8
OUTLINE
100
AcDbLine
 10
290.6574624047429
 20
-970.7093431951088
 30
0.0
 11
290.6574624047429
 21
-970.4023619350127
 31
0.0
  0
ELLIPSE
  5
1E43
330
85F
100
AcDbEntity
  8
OUTLINE
100
AcDbEllipse
 10
291.2074624047385
 20
-971.5179063916357
 30
0.0
 11
-1.499999999999997
 21
0.0000000000001612
 31
0.0
210
0.0
220
0.0
230
1.0
 40
0.8660254037845884
 41
0.1545748900120751
 42
2.987017763578235
  0
ELLIPSE
  5
1E44
330
85F
100
AcDbEntity
  8
OUTLINE
100
AcDbEllipse
 10
291.2074624047385
 20
-971.9179063916362
 30
0.0
 11
1.500000000000005
 21
-0.0000000000001651
 31
0.0
210
0.0
220
0.0
230
1.0
 40
0.8660254037845863
 41
1.946219934776344
 42
7.478558025993674
  0
LINE
  5
1E45
330
85F
100
AcDbEntity
  8
OUTLINE
100
AcDbLine
 10
291.7574624047414
 20
-970.4023619350136
 30
0.0
 11
291.7574624047414
 21
-970.7093431951088
 31
0.0
  0
ELLIPSE
  5
1E46
330
85F
100
AcDbEntity
  8
OUTLINE
100
AcDbEllipse
 10
291.2074624047385
 20
-970.4023619350127
 30
0.0
 11
-0.55
 21
0.0000000000000345
 31
0.0
210
0.0
220
0.0
230
1.0
 40
0.8660254037845847
 41
3.14159265358985
 42
6.283185307179643
  0
LINE
  5
1E47
330
85F
100
AcDbEntity
  8
OUTLINE
100
AcDbLine
 10
315.9074624047429
 20
-917.8064629214578
 30
0.0
 11
312.9074624047429
 21
-917.8064629214569
 31
0.0
  0
LINE
  5
1E48
330
85F
100
AcDbEntity
  8
OUTLINE
100
AcDbLine
 10
312.9074624047429
 20
-917.8064629214569
 30
0.0
 11
312.9074624047429
 21
-918.606462921457
 31
0.0
  0
LINE
  5
1E49
330
85F
100
AcDbEntity
  8
OUTLINE
100
AcDbLine
 10
312.9074624047429
 20
-918.606462921457
 30
0.0
 11
315.9074624047429
 21
-918.6064629214579
 31
0.0
  0
LINE
  5
1E4A
330
85F
100
AcDbEntity
  8
OUTLINE
100
AcDbLine
 10
315.9074624047429
 20
-918.6064629214579
 30
0.0
 11
315.9074624047429
 21
-917.8064629214578
 31
0.0
  0
LINE
  5
1E4B
330
85F
100
AcDbEntity
  8
OUTLINE
100
AcDbLine
 10
299.8074624047443
 20
-936.3064629214559
 30
0.0
 11
297.734257324017
 21
-936.3064629214559
 31
0.0
  0
LINE
  5
1E4C
330
85F
100
AcDbEntity
  8
OUTLINE
100
AcDbLine
 10
299.8074624047443
 20
-958.3064629214559
 30
0.0
 11
299.7074624047458
 21
-958.3064629214559
 31
0.0
  0
LINE
  5
1E4D
330
85F
100
AcDbEntity
  8
OUTLINE
100
AcDbLine
 10
299.8074624047443
 20
-958.3064629214559
 30
0.0
 11
299.8074624047443
 21
-936.3064629214559
 31
0.0
  0
LINE
  5
1E4E
330
85F
100
AcDbEntity
  8
OUTLINE
100
AcDbLine
 10
299.9074624047429
 20
-958.3164629214561
 30
0.0
 11
299.9074624047429
 21
-958.3064629214559
 31
0.0
  0
LINE
  5
1E4F
330
85F
100
AcDbEntity
  8
OUTLINE
100
AcDbLine
 10
299.9074624047429
 20
-936.3064629214568
 30
0.0
 11
299.9074624047429
 21
-936.2964629214566
 31
0.0
  0
LINE
  5
1E50
330
85F
100
AcDbEntity
  8
OUTLINE
100
AcDbLine
 10
300.7074624047385
 20
-936.2964629214566
 30
0.0
 11
300.7074624047385
 21
-936.3064629214568
 31
0.0
  0
LINE
  5
1E51
330
85F
100
AcDbEntity
  8
OUTLINE
100
AcDbLine
 10
300.7074624047385
 20
-936.3064629214568
 30
0.0
 11
300.7074624047385
 21
-958.3064629214559
 31
0.0
  0
LINE
  5
1E52
330
85F
100
AcDbEntity
  8
OUTLINE
100
AcDbLine
 10
300.7074624047385
 20
-958.3064629214559
 30
0.0
 11
300.7074624047385
 21
-958.316462921457
 31
0.0
  0
LINE
  5
1E53
330
85F
100
AcDbEntity
  8
OUTLINE
100
AcDbLine
 10
299.8074624047443
 20
-936.3064629214559
 30
0.0
 11
300.7074624047385
 21
-936.3064629214568
 31
0.0
  0
LINE
  5
1E54
330
85F
100
AcDbEntity
  8
OUTLINE
100
AcDbLine
 10
299.8074624047443
 20
-958.3064629214559
 30
0.0
 11
300.7074624047385
 21
-958.3064629214559
 31
0.0
  0
LINE
  5
1E55
330
85F
100
AcDbEntity
  8
OUTLINE
100
AcDbLine
 10
300.7074624047385
 20
-958.3164629214561
 30
0.0
 11
299.9074624047429
 21
-958.3164629214561
 31
0.0
  0
LINE
  5
1E56
330
85F
100
AcDbEntity
  8
OUTLINE
100
AcDbLine
 10
299.9074624047429
 20
-936.2964629214557
 30
0.0
 11
300.7074624047385
 21
-936.2964629214557
 31
0.0
  0
LINE
  5
1E57
330
85F
100
AcDbEntity
  8
OUTLINE
100
AcDbLine
 10
312.9074624047429
 20
-918.606462921457
 30
0.0
 11
300.8074624047444
 21
-918.6064629214561
 31
0.0
  0
LINE
  5
1E58
330
85F
100
AcDbEntity
  8
OUTLINE
100
AcDbLine
 10
312.9074624047429
 20
-917.8064629214569
 30
0.0
 11
300.8074624047444
 21
-917.8064629214558
 31
0.0
  0
LINE
  5
1E59
330
85F
100
AcDbEntity
  8
OUTLINE
100
AcDbLine
 10
290.6574624047356
 20
-1074.632391649258
 30
0.0
 11
290.6574624047356
 21
-1074.325410389163
 31
0.0
  0
ELLIPSE
  5
1E5A
330
85F
100
AcDbEntity
  8
OUTLINE
100
AcDbEllipse
 10
291.2074624047312
 20
-1075.440954845787
 30
0.0
 11
-1.500000000000002
 21
0.0000000000001332
 31
0.0
210
0.0
220
0.0
230
1.0
 40
0.8660254037845895
 41
0.1545748900117832
 42
2.987017763578213
  0
ELLIPSE
  5
1E5B
330
85F
100
AcDbEntity
  8
OUTLINE
100
AcDbEllipse
 10
291.2074624047312
 20
-1075.840954845786
 30
0.0
 11
1.499999999999988
 21
-0.0000000000001553
 31
0.0
210
0.0
220
0.0
230
1.0
 40
0.8660254037845904
 41
1.94621993477634
 42
7.478558025993667
  0
LINE
  5
1E5C
330
85F
100
AcDbEntity
  8
OUTLINE
100
AcDbLine
 10
291.7574624047341
 20
-1074.325410389163
 30
0.0
 11
291.7574624047341
 21
-1074.632391649258
 31
0.0
  0
ELLIPSE
  5
1E5D
330
85F
100
AcDbEntity
  8
OUTLINE
100
AcDbEllipse
 10
291.2074624047312
 20
-1074.325410389163
 30
0.0
 11
-0.55
 21
0.0000000000000167
 31
0.0
210
0.0
220
0.0
230
1.0
 40
0.8660254037845859
 41
3.141592653589806
 42
6.283185307179599
  0
LINE
  5
1E5E
330
85F
100
AcDbEntity
  8
OUTLINE
100
AcDbLine
 10
299.1074624047472
 20
-929.9878429652427
 30
0.0
 11
299.1074624047472
 21
-930.4646002969912
 31
0.0
  0
LINE
  5
1E5F
330
85F
100
AcDbEntity
  8
OUTLINE
100
AcDbLine
 10
299.1074624047472
 20
-930.4646002969912
 30
0.0
 11
299.9074624047429
 21
-930.4646002969912
 31
0.0
  0
LINE
  5
1E60
330
85F
100
AcDbEntity
  8
OUTLINE
100
AcDbLine
 10
299.9074624047429
 20
-929.9878429652427
 30
0.0
 11
299.1074624047472
 21
-929.9878429652427
 31
0.0
  0
LINE
  5
1E61
330
85F
100
AcDbEntity
  8
OUTLINE
100
AcDbLine
 10
299.1074624047472
 20
-930.4646002969912
 30
0.0
 11
299.10746240474
 21
-936.3064629215806
 31
0.0
  0
LINE
  5
1E62
330
85F
100
AcDbEntity
  8
OUTLINE
100
AcDbLine
 10
299.9074624047429
 20
-959.3064629214559
 30
0.0
 11
299.9074624047429
 21
-960.1638280712032
 31
0.0
  0
LINE
  5
1E63
330
85F
100
AcDbEntity
  8
OUTLINE
100
AcDbLine
 10
299.9074624047429
 20
-958.3164629214561
 30
0.0
 11
299.9074624047429
 21
-959.3064629214559
 31
0.0
  0
LINE
  5
1E64
330
85F
100
AcDbEntity
  8
OUTLINE
100
AcDbLine
 10
299.9074624047429
 20
-918.7064629214564
 30
0.0
 11
299.9074624047429
 21
-936.2964629214557
 31
0.0
  0
LINE
  5
1E65
330
85F
100
AcDbEntity
  8
OUTLINE
100
AcDbLine
 10
300.7074624047385
 20
-936.2964629214557
 30
0.0
 11
300.7074624047458
 21
-918.7064629214564
 31
0.0
  0
LINE
  5
1E66
330
85F
100
AcDbEntity
  8
OUTLINE
100
AcDbLine
 10
300.7074624047385
 20
-959.3064629214559
 30
0.0
 11
300.7074624047385
 21
-958.3164629214561
 31
0.0
  0
LINE
  5
1E67
330
85F
100
AcDbEntity
  8
OUTLINE
100
AcDbLine
 10
300.7074624047385
 20
-960.1638280712032
 30
0.0
 11
300.7074624047385
 21
-959.3064629214559
 31
0.0
  0
LINE
  5
1E68
330
85F
100
AcDbEntity
  8
OUTLINE
100
AcDbLine
 10
300.7074624047385
 20
-959.3064629214559
 30
0.0
 11
299.9074624047429
 21
-959.3064629214559
 31
0.0
  0
LINE
  5
1E69
330
85F
100
AcDbEntity
  8
OUTLINE
100
AcDbLine
 10
299.9074624047356
 20
-1092.706462921478
 30
0.0
 11
299.9074624047356
 21
-1091.837651113193
 31
0.0
  0
LINE
  5
1E6A
330
85F
100
AcDbEntity
  8
OUTLINE
100
AcDbLine
 10
300.7074624047385
 20
-960.1638280712032
 30
0.0
 11
300.7074624047313
 21
-1091.390437517693
 31
0.0
  0
LINE
  5
1E6B
330
85F
100
AcDbEntity
  8
OUTLINE
100
AcDbLine
 10
300.7074624047313
 20
-1091.390437517693
 30
0.0
 11
300.7074624047313
 21
-1092.706462921479
 31
0.0
  0
ELLIPSE
  5
1E6C
330
85F
100
AcDbEntity
  8
OUTLINE
100
AcDbEllipse
 10
299.8074624047443
 20
-959.722488325241
 30
0.0
 11
0.0999999999999992
 21
-0.0000000000000418
 31
0.0
210
0.0
220
0.0
230
1.0
 40
0.4999999999997156
 41
4.712388980384897
 42
6.28318530718247
  0
LINE
  5
1E6D
330
85F
100
AcDbEntity
  8
OUTLINE
100
AcDbLine
 10
299.8074624047298
 20
-1091.840437517693
 30
0.0
 11
299.8074624047443
 21
-960.1724883252408
 31
0.0
  0
LINE
  5
1E6E
330
85F
100
AcDbEntity
  8
OUTLINE
100
AcDbLine
 10
299.8074624047443
 20
-960.1724883252408
 30
0.0
 11
299.8074624047443
 21
-959.7724883252412
 31
0.0
  0
ELLIPSE
  5
1E6F
330
85F
100
AcDbEntity
  8
OUTLINE
100
AcDbEllipse
 10
299.8074624047443
 20
-959.7224883252401
 30
0.0
 11
-0.899999999999742
 21
0.000000000000097
 31
0.0
210
0.0
220
0.0
230
1.0
 40
0.5000000000002199
 41
1.57079632679495
 42
1.767301065320115
  0
ELLIPSE
  5
1E70
330
85F
100
AcDbEntity
  8
OUTLINE
100
AcDbEllipse
 10
299.8074624047298
 20
-1091.390437517693
 30
0.0
 11
0.8999999999999969
 21
-0.0000000000000565
 31
0.0
210
0.0
220
0.0
230
1.0
 40
0.4999999999997261
 41
4.712388980384719
 42
6.283185307179746
  0
LINE
  5
1E71
330
85F
100
AcDbEntity
  8
OUTLINE
100
AcDbLine
 10
300.7074624047313
 20
-1092.706462921479
 30
0.0
 11
299.9074624047356
 21
-1092.706462921478
 31
0.0
  0
LINE
  5
1E72
330
85F
100
AcDbEntity
  8
OUTLINE
100
AcDbLine
 10
299.9074624047429
 20
-960.1638280712032
 30
0.0
 11
300.7074624047385
 21
-960.1638280712032
 31
0.0
  0
LINE
  5
1E73
330
85F
100
AcDbEntity
  8
OUTLINE
100
AcDbLine
 10
299.8074624047298
 20
-1091.906462921479
 30
0.0
 11
299.7074624047458
 21
-1091.906462921479
 31
0.0
  0
LINE
  5
1E74
330
85F
100
AcDbEntity
  8
OUTLINE
100
AcDbLine
 10
299.8074624047298
 20
-1092.706462921479
 30
0.0
 11
299.7074624047458
 21
-1092.706462921479
 31
0.0
  0
ARC
  5
1E75
330
85F
100
AcDbEntity
  8
OUTLINE
100
AcDbCircle
 10
299.8074624047298
 20
-1091.806462921479
 30
0.0
 40
0.0999999999999766
100
AcDbArc
 50
270.0
 51
341.6604170117835
  0
LINE
  5
1E76
330
85F
100
AcDbEntity
  8
OUTLINE
100
AcDbLine
 10
299.8074624047298
 20
-1092.706462921479
 30
0.0
 11
299.8074624047298
 21
-1091.906462921479
 31
0.0
  0
ARC
  5
1E77
330
85F
100
AcDbEntity
  8
OUTLINE
100
AcDbCircle
 10
299.8074624047298
 20
-1091.806462921485
 30
0.0
 40
0.8999999999939587
100
AcDbArc
 50
270.0
 51
276.3793702083498
  0
LINE
  5
1E78
330
85F
100
AcDbEntity
  8
OUTLINE
100
AcDbLine
 10
299.8074624047298
 20
-1091.840437517693
 30
0.0
 11
299.7074624047458
 21
-1091.840437517693
 31
0.0
  0
LINE
  5
1E79
330
85F
100
AcDbEntity
  8
OUTLINE
100
AcDbLine
 10
299.8074624047443
 20
-960.1724883252408
 30
0.0
 11
299.7074624047458
 21
-960.1724883252408
 31
0.0
  0
LINE
  5
1E7A
330
85F
100
AcDbEntity
  8
OUTLINE
100
AcDbLine
 10
299.8074624047443
 20
-959.7724883252412
 30
0.0
 11
299.7074624047458
 21
-959.7724883252412
 31
0.0
  0
LINE
  5
1E7B
330
85F
100
AcDbEntity
  8
OUTLINE
100
AcDbLine
 10
300.7074624047458
 20
-918.7064629214564
 30
0.0
 11
299.9074624047429
 21
-918.7064629214564
 31
0.0
  0
ARC
  5
1E7C
330
85F
100
AcDbEntity
  8
OUTLINE
100
AcDbCircle
 10
300.8074624047444
 20
-918.7064629214564
 30
0.0
 40
0.8999999999999998
100
AcDbArc
 50
90.0
 51
180.0
  0
LINE
  5
1E7D
330
85F
100
AcDbEntity
  8
OUTLINE
100
AcDbLine
 10
300.8074624047444
 20
-917.8064629214558
 30
0.0
 11
300.8074624047444
 21
-918.6064629214561
 31
0.0
  0
ARC
  5
1E7E
330
85F
100
AcDbEntity
  8
OUTLINE
100
AcDbCircle
 10
300.8074624047444
 20
-918.7064629214564
 30
0.0
 40
0.1
100
AcDbArc
 50
90.0
 51
180.0
  0
LINE
  5
1E7F
330
85F
100
AcDbEntity
  8
OUTLINE
100
AcDbLine
 10
296.7074624047385
 20
-935.2796680021793
 30
0.0
 11
299.7074624047385
 21
-938.2796680021792
 31
0.0
  0
LINE
  5
1E80
330
85F
100
AcDbEntity
  8
OUTLINE
100
AcDbLine
 10
-297.2925375952542
 20
-935.2796680021738
 30
0.0
 11
-300.2925375952542
 21
-935.2796680021747
 31
0.0
  0
LINE
  5
1E81
330
85F
100
AcDbEntity
  8
OUTLINE
100
AcDbLine
 10
-300.2925375952542
 20
-935.2796680021747
 30
0.0
 11
-300.2925375952542
 21
-936.0796680021749
 31
0.0
  0
LINE
  5
1E82
330
85F
100
AcDbEntity
  8
OUTLINE
100
AcDbLine
 10
-300.2925375952542
 20
-936.0796680021749
 30
0.0
 11
-297.2925375952542
 21
-936.079668002174
 31
0.0
  0
LINE
  5
1E83
330
85F
100
AcDbEntity
  8
OUTLINE
100
AcDbLine
 10
-297.2925375952542
 20
-936.079668002174
 30
0.0
 11
-297.2925375952542
 21
-935.2796680021738
 31
0.0
  0
LINE
  5
1E84
330
85F
100
AcDbEntity
  8
OUTLINE
100
AcDbLine
 10
279.7074624047385
 20
-935.2796680021775
 30
0.0
 11
279.7074624047385
 21
-936.0796680021776
 31
0.0
  0
LINE
  5
1E85
330
85F
100
AcDbEntity
  8
OUTLINE
100
AcDbLine
 10
279.7074624047385
 20
-936.0796680021776
 30
0.0
 11
282.7074624047385
 21
-936.0796680021785
 31
0.0
  0
LINE
  5
1E86
330
85F
100
AcDbEntity
  8
OUTLINE
100
AcDbLine
 10
282.7074624047385
 20
-935.2796680021784
 30
0.0
 11
279.7074624047385
 21
-935.2796680021775
 31
0.0
  0
LINE
  5
1E87
330
85F
100
AcDbEntity
  8
OUTLINE
100
AcDbLine
 10
282.7074624047385
 20
-936.0796680021785
 30
0.0
 11
282.7074624047385
 21
-935.2796680021784
 31
0.0
  0
LINE
  5
1E88
330
85F
100
AcDbEntity
  8
OUTLINE
100
AcDbLine
 10
283.5074624047414
 20
-935.2796680021793
 30
0.0
 11
296.7074624047385
 21
-935.2796680021793
 31
0.0
  0
LINE
  5
1E89
330
85F
100
AcDbEntity
  8
OUTLINE
100
AcDbLine
 10
-300.2925375952542
 20
-959.2796680021756
 30
0.0
 11
-300.2925375952542
 21
-936.1796680021752
 31
0.0
  0
LINE
  5
1E8A
330
85F
100
AcDbEntity
  8
OUTLINE
100
AcDbLine
 10
299.7074624047385
 20
-938.2796680021792
 30
0.0
 11
299.7074624047385
 21
-959.2796680021793
 31
0.0
  0
LINE
  5
1E8B
330
85F
100
AcDbEntity
  8
OUTLINE
100
AcDbLine
 10
-300.2925375952542
 20
-1093.894323608693
 30
0.0
 11
-300.2925375952542
 21
-959.7296680021754
 31
0.0
  0
LINE
  5
1E8C
330
85F
100
AcDbEntity
  8
OUTLINE
100
AcDbLine
 10
299.7074624047385
 20
-959.7296680021791
 30
0.0
 11
299.7074624047385
 21
-1093.894323608697
 31
0.0
  0
LINE
  5
1E8D
330
85F
100
AcDbEntity
  8
OUTLINE
100
AcDbLine
 10
279.7074624047385
 20
-936.0796680021776
 30
0.0
 11
-297.2925375952542
 21
-936.079668002174
 31
0.0
  0
LINE
  5
1E8E
330
85F
100
AcDbEntity
  8
OUTLINE
100
AcDbLine
 10
279.7074624047385
 20
-935.2796680021775
 30
0.0
 11
-297.2925375952542
 21
-935.2796680021738
 31
0.0
  0
LINE
  5
1E8F
330
85F
100
AcDbEntity
  8
OUTLINE
100
AcDbLine
 10
282.7074624047385
 20
-936.0796680021794
 30
0.0
 11
282.7074624047385
 21
-936.1796680021798
 31
0.0
  0
LINE
  5
1E90
330
85F
100
AcDbEntity
  8
OUTLINE
100
AcDbLine
 10
-300.2925375952542
 20
-936.0796680021758
 30
0.0
 11
-300.2925375952542
 21
-936.1796680021752
 31
0.0
  0
LINE
  5
1E91
330
85F
100
AcDbEntity
  8
OUTLINE
100
AcDbLine
 10
282.7074624047385
 20
-936.1796680021798
 30
0.0
 11
-300.2925375952542
 21
-936.1796680021752
 31
0.0
  0
LINE
  5
1E92
330
85F
100
AcDbEntity
  8
OUTLINE
100
AcDbLine
 10
283.5074624047414
 20
-935.2796680021793
 30
0.0
 11
283.5074624047414
 21
-936.5796680021794
 31
0.0
  0
LINE
  5
1E93
330
85F
100
AcDbEntity
  8
OUTLINE
100
AcDbLine
 10
282.7074624047385
 20
-936.5796680021794
 30
0.0
 11
282.7074624047385
 21
-936.1796680021798
 31
0.0
  0
LINE
  5
1E94
330
85F
100
AcDbEntity
  8
OUTLINE
100
AcDbLine
 10
283.5074624047414
 20
-936.5796680021794
 30
0.0
 11
282.7074624047385
 21
-936.5796680021794
 31
0.0
  0
LINE
  5
1E95
330
85F
100
AcDbEntity
  8
OUTLINE
100
AcDbLine
 10
-300.2925375952542
 20
-959.2796680021756
 30
0.0
 11
299.7074624047385
 21
-959.2796680021793
 31
0.0
  0
LINE
  5
1E96
330
85F
100
AcDbEntity
  8
OUTLINE
100
AcDbLine
 10
299.7074624047385
 20
-959.7296680021791
 30
0.0
 11
-300.2925375952542
 21
-959.7296680021754
 31
0.0
  0
LINE
  5
1E97
330
85F
100
AcDbEntity
  8
OUTLINE
100
AcDbLine
 10
299.7074624047385
 20
-959.2796680021793
 30
0.0
 11
299.7074624047385
 21
-959.7296680021791
 31
0.0
  0
LINE
  5
1E98
330
85F
100
AcDbEntity
  8
OUTLINE
100
AcDbLine
 10
-300.2925375952542
 20
-959.7296680021754
 30
0.0
 11
-300.2925375952542
 21
-959.2796680021756
 31
0.0
  0
LINE
  5
1E99
330
85F
100
AcDbEntity
  8
OUTLINE
100
AcDbLine
 10
289.7074624047385
 20
-950.7796680021792
 30
0.0
 11
289.7074624047385
 21
-947.7796680021793
 31
0.0
  0
LINE
  5
1E9A
330
85F
100
AcDbEntity
  8
OUTLINE
100
AcDbLine
 10
289.7074624047385
 20
-947.7796680021793
 30
0.0
 11
292.7074624047385
 21
-947.7796680021793
 31
0.0
  0
LINE
  5
1E9B
330
85F
100
AcDbEntity
  8
OUTLINE
100
AcDbLine
 10
292.7074624047385
 20
-947.7796680021793
 30
0.0
 11
292.7074624047385
 21
-950.7796680021792
 31
0.0
  0
LINE
  5
1E9C
330
85F
100
AcDbEntity
  8
OUTLINE
100
AcDbLine
 10
292.7074624047385
 20
-950.7796680021792
 30
0.0
 11
289.7074624047385
 21
-950.7796680021792
 31
0.0
  0
LINE
  5
1E9D
330
85F
100
AcDbEntity
  8
OUTLINE
100
AcDbLine
 10
-293.2925375952542
 20
-950.7796680021757
 30
0.0
 11
-293.2925375952542
 21
-947.7796680021755
 31
0.0
  0
LINE
  5
1E9E
330
85F
100
AcDbEntity
  8
OUTLINE
100
AcDbLine
 10
-293.2925375952542
 20
-947.7796680021755
 30
0.0
 11
-290.2925375952542
 21
-947.7796680021755
 31
0.0
  0
LINE
  5
1E9F
330
85F
100
AcDbEntity
  8
OUTLINE
100
AcDbLine
 10
-290.2925375952542
 20
-947.7796680021755
 30
0.0
 11
-290.2925375952542
 21
-950.7796680021757
 31
0.0
  0
LINE
  5
1EA0
330
85F
100
AcDbEntity
  8
OUTLINE
100
AcDbLine
 10
-290.2925375952542
 20
-950.7796680021757
 30
0.0
 11
-293.2925375952542
 21
-950.7796680021757
 31
0.0
  0
LINE
  5
1EA1
330
85F
100
AcDbEntity
  8
OUTLINE
100
AcDbLine
 10
299.7074624047385
 20
-1094.344323608697
 30
0.0
 11
-300.2925375952542
 21
-1094.344323608693
 31
0.0
  0
LINE
  5
1EA2
330
85F
100
AcDbEntity
  8
OUTLINE
100
AcDbLine
 10
-300.2925375952542
 20
-1094.344323608693
 30
0.0
 11
-300.2925375952542
 21
-1093.894323608693
 31
0.0
  0
LINE
  5
1EA3
330
85F
100
AcDbEntity
  8
OUTLINE
100
AcDbLine
 10
299.7074624047385
 20
-1093.894323608697
 30
0.0
 11
299.7074624047385
 21
-1094.344323608697
 31
0.0
  0
LINE
  5
1EA4
330
85F
100
AcDbEntity
  8
OUTLINE
100
AcDbLine
 10
-300.2925375952542
 20
-1093.894323608693
 30
0.0
 11
299.7074624047385
 21
-1093.894323608697
 31
0.0
  0
ELLIPSE
  5
1EA5
330
85F
100
AcDbEntity
  8
OUTLINE
100
AcDbEllipse
 10
291.2074624047385
 20
-971.3847416750722
 30
0.0
 11
-2.499999999999974
 21
0.0000000000000638
 31
0.0
210
0.0
220
0.0
230
1.0
 40
0.8660254037845771
 41
0.0925079294055898
 42
3.049084724184262
  0
ELLIPSE
  5
1EA6
330
85F
100
AcDbEntity
  8
OUTLINE
100
AcDbEllipse
 10
291.2074624047385
 20
-971.784741675072
 30
0.0
 11
-2.499999999999931
 21
0.0000000000000163
 31
0.0
210
0.0
220
0.0
230
1.0
 40
0.8660254037845767
 41
0.0
 42
6.283185307179586
  0
ELLIPSE
  5
1EA7
330
85F
100
AcDbEntity
  8
OUTLINE
100
AcDbEllipse
 10
291.2074624047385
 20
-1075.307790129221
 30
0.0
 11
-2.499999999999983
 21
0.0000000000000845
 31
0.0
210
0.0
220
0.0
230
1.0
 40
0.8660254037845776
 41
0.0925079294055991
 42
3.049084724184271
  0
ELLIPSE
  5
1EA8
330
85F
100
AcDbEntity
  8
OUTLINE
100
AcDbEllipse
 10
291.2074624047385
 20
-1075.70779012922
 30
0.0
 11
-2.499999999999924
 21
0.0000000000000163
 31
0.0
210
0.0
220
0.0
230
1.0
 40
0.8660254037845767
 41
0.0
 42
6.283185307179586
  0
ELLIPSE
  5
1EA9
330
85F
100
AcDbEntity
  8
OUTLINE
100
AcDbEllipse
 10
-291.7925375952542
 20
-971.3847416750686
 30
0.0
 11
-2.499999999999992
 21
0.0000000000000594
 31
0.0
210
0.0
220
0.0
230
1.0
 40
0.8660254037845769
 41
0.0925079294054244
 42
3.04908472418426
  0
ELLIPSE
  5
1EAA
330
85F
100
AcDbEntity
  8
OUTLINE
100
AcDbEllipse
 10
-291.7925375952542
 20
-971.7847416750682
 30
0.0
 11
-2.499999999999976
 21
0.0000000000000163
 31
0.0
210
0.0
220
0.0
230
1.0
 40
0.8660254037845769
 41
0.0
 42
6.283185307179586
  0
ELLIPSE
  5
1EAB
330
85F
100
AcDbEntity
  8
OUTLINE
100
AcDbEllipse
 10
-291.7925375952542
 20
-1075.307790129217
 30
0.0
 11
-2.49999999999999
 21
0.0000000000000674
 31
0.0
210
0.0
220
0.0
230
1.0
 40
0.8660254037845767
 41
0.0925079294054281
 42
3.049084724184263
  0
ELLIPSE
  5
1EAC
330
85F
100
AcDbEntity
  8
OUTLINE
100
AcDbEllipse
 10
-291.7925375952542
 20
-1075.707790129217
 30
0.0
 11
-2.499999999999983
 21
0.0000000000000163
 31
0.0
210
0.0
220
0.0
230
1.0
 40
0.8660254037845767
 41
0.0
 42
6.283185307179586
  0
LINE
  5
1EAD
330
85F
100
AcDbEntity
  8
SIZE
  6
Continuous
100
AcDbLine
 39
50.0
 10
306.4074624047429
 20
-917.8064629214631
 30
0.0
 11
311.4074624047429
 21
-917.8064629214642
 31
0.0
  0
LINE
  5
1EAE
330
85F
100
AcDbEntity
  8
SIZE
  6
Continuous
100
AcDbLine
 39
50.0
 10
-310.4925375952586
 20
-926.3064629214305
 30
0.0
 11
-305.4925375952586
 21
-926.3064629214314
 31
0.0
  0
LINE
  5
1EAF
330
85F
100
AcDbEntity
  8
NOTE
100
AcDbLine
 10
308.9074624047429
 20
-925.3064629214632
 30
0.0
 11
308.9074624047429
 21
-910.3064629214632
 31
0.0
  0
LINE
  5
1EB0
330
85F
100
AcDbEntity
  8
NOTE
100
AcDbLine
 10
301.4074624047429
 20
-917.8064629214631
 30
0.0
 11
316.4074624047429
 21
-917.8064629214631
 31
0.0
  0
LINE
  5
1EB1
330
85F
100
AcDbEntity
  8
NOTE
100
AcDbLine
 10
-307.9925375952586
 20
-933.8064629214313
 30
0.0
 11
-307.9925375952586
 21
-918.8064629214313
 31
0.0
  0
LINE
  5
1EB2
330
85F
100
AcDbEntity
  8
NOTE
100
AcDbLine
 10
-315.4925375952586
 20
-926.3064629214314
 30
0.0
 11
-300.4925375952586
 21
-926.3064629214314
 31
0.0
  0
DIMENSION
  5
1EB3
330
85F
100
AcDbEntity
  8
SIZE
  6
Continuous
100
AcDbDimension
  2
*D36
 10
308.9074624047429
 20
-827.0388132127918
 30
0.0
 11
0.457462404742162
 21
-785.0388132127918
 31
0.0
 70
    32
 71
     5
 42
616.9000000000014
  3
STANDARD$0
100
AcDbAlignedDimension
 13
-307.9925375952586
 23
-918.8064629214313
 33
0.0
 14
308.9074624047429
 24
-910.3064629214632
 34
0.0
100
AcDbRotatedDimension
  0
LINE
  5
1EB4
330
85F
100
AcDbEntity
  8
BASIS
  6
DASHDOT
 62
     6
100
AcDbLine
 10
1.207462404745797
 20
-1135.279668002178
 30
0.0
 11
1.207462404745797
 21
-885.2796680021784
 31
0.0
  0
LINE
  5
1EB5
330
85F
100
AcDbEntity
  8
ARRANGE
  6
Continuous
 62
     1
100
AcDbLine
 10
-15.47665515966184
 20
-951.9637855665823
 30
0.0
 11
17.89157996914616
 21
-918.5955504377753
 31
0.0
  0
LINE
  5
1EB6
330
85F
100
AcDbEntity
  8
ARRANGE
  6
Continuous
 62
     1
100
AcDbLine
 10
-15.47665515966184
 20
-918.5955504377753
 30
0.0
 11
17.89157996914616
 21
-951.9637855665823
 31
0.0
  0
CIRCLE
  5
1EB7
330
85F
100
AcDbEntity
  8
ARRANGE
100
AcDbCircle
 10
1.207462404745797
 20
-935.2796680021784
 30
0.0
 40
15.0
  0
DIMENSION
  5
1EB8
330
85F
100
AcDbEntity
  8
SIZE
  6
Continuous
100
AcDbDimension
  2
*D37
 10
315.9074624047429
 20
-709.9413352777919
 30
0.0
 11
1.207462404742162
 21
-667.941335277792
 31
0.0
 70
    32
 71
     5
 42
629.4000000000014
  3
STANDARD$0
100
AcDbAlignedDimension
 13
-313.4925375952586
 23
-926.3064629214314
 33
0.0
 14
315.9074624047429
 24
-917.8064629214569
 34
0.0
100
AcDbRotatedDimension
  0
DIMENSION
  5
1EB9
330
85F
100
AcDbEntity
  8
SIZE
  6
Continuous
100
AcDbDimension
  2
*D38
 10
463.5310434002753
 20
-1094.344323608697
 30
0.0
 11
421.5310434002754
 21
-1006.07539326508
 31
0.0
 70
    32
 71
     5
 42
176.5378606872338
  3
STANDARD$0
100
AcDbAlignedDimension
 13
316.4074624047429
 23
-917.8064629214631
 33
0.0
 14
299.7074624047385
 24
-1094.344323608697
 34
0.0
 50
90.0
100
AcDbRotatedDimension
  0
DIMENSION
  5
1EBA
330
85F
100
AcDbEntity
  8
SIZE
  6
Continuous
100
AcDbDimension
  2
*D39
 10
-388.2785884666079
 20
-926.3064629214314
 30
0.0
 11
-430.2785884666077
 21
-1010.325393265062
 31
0.0
 70
    32
 71
     5
 42
168.0378606872617
  3
STANDARD$0
100
AcDbAlignedDimension
 13
-300.2925375952542
 23
-1094.344323608693
 33
0.0
 14
-313.4925375952586
 24
-926.3064629214314
 34
0.0
 50
90.0
100
AcDbRotatedDimension
  0
LEADER
  5
1EBB
330
85F
100
AcDbEntity
  8
NOTE
100
AcDbLeader
  3
STANDARD
 73
     0
 75
     1
 40
64.0
 41
231.4971428571428
 76
     3
 10
-307.9925375952586
 20
-926.3064629214305
 30
0.0
 10
-395.861937587513
 20
-830.7793678634171
 30
0.0
 10
-407.8619375875129
 20
-830.7793678634171
 30
0.0
340
1EBC
213
0.0
223
32.0
233
0.0
1001
ACAD
1000
DSTYLE
1002
{
1070
    41
1040
12.0
1070
    42
1040
20.0
1070
    43
1040
200.0
1070
    44
1040
20.0
1070
    73
1070
     0
1070
    74
1070
     0
1070
    77
1070
     1
1070
    78
1070
     8
1070
   140
1040
64.0
1070
   147
1040
50.0
1070
   172
1070
     1
1070
   174
1070
     1
1070
   275
1070
     0
1070
   284
1070
     0
1070
   285
1070
     0
1070
   286
1070
     0
1070
   341
1005
AB7
1070
   342
1005
AB2
1002
}
  0
MTEXT
  5
1EBC
102
{ACAD_REACTORS
330
1EBB
102
}
330
85F
100
AcDbEntity
  8
NOTE
100
AcDbMText
 10
-457.8619375875129
 20
-812.7793678634171
 30
0.0
 40
64.0
 41
0.0
 71
     9
 72
     1
  1
5×φ5
 73
     1
 44
1.0
  0
MTEXT
  5
1EBD
330
85F
100
AcDbEntity
  8
ETC
100
AcDbMText
 10
431.2673488384174
 20
-439.5892023544065
 30
0.0
 40
64.0
 41
0.0
 71
     1
 72
     5
  1
{\Fromans,extfont|c128;\W0.9;AGJS-17B-1}
  7
ADESK1
 73
     1
 44
1.0
  0
ENDSEC
  0
SECTION
  2
OBJECTS
  0
DICTIONARY
  5
84D
330
0
100
AcDbDictionary
281
     1
  3
ACAD_2007HEADERVARS_RT
350
1EEF
  3
ACAD_COLOR
350
EC9
  3
ACAD_GROUP
350
84E
  3
ACAD_LAYOUT
350
85A
  3
ACAD_MATERIAL
350
EC8
  3
ACAD_MLEADERSTYLE
350
11A0
  3
ACAD_MLINESTYLE
350
857
  3
ACAD_PLOTSETTINGS
350
859
  3
ACAD_PLOTSTYLENAME
350
B82
  3
ACAD_SCALELIST
350
117E
  3
ACAD_TABLESTYLE
350
ECA
  3
ACAD_VISUALSTYLE
350
116D
  3
AcadDim
350
D74
  3
ACDB_RECOMPOSE_DATA
350
126C
  3
AcDbVariableDictionary
350
B87
  3
AcmDictionary
350
F90
  3
AMG
350
ECF
  3
AMGSNAPSETTINGS
350
FFE
  3
MAPISURF_MODULE
350
1B5C
1001
ACAD
1000
TREAT_AS_HARD
1070
     0
  0
DICTIONARY
  5
14DD
330
843
100
AcDbDictionary
280
     1
281
     1
  3
ACAD_LAYERSTATES
360
14DE
  0
DICTIONARY
  5
11FF
330
851
100
AcDbDictionary
280
     1
281
     1
  3
ADSK_XREC_LAYER_RECONCILED
360
1200
  0
DICTIONARY
  5
1201
330
863
100
AcDbDictionary
280
     1
281
     1
  3
ADSK_XREC_LAYER_RECONCILED
360
1202
  0
DICTIONARY
  5
1203
330
866
100
AcDbDictionary
280
     1
281
     1
  3
ADSK_XREC_LAYER_RECONCILED
360
1204
  0
DICTIONARY
  5
1205
330
867
100
AcDbDictionary
280
     1
281
     1
  3
ADSK_XREC_LAYER_RECONCILED
360
1206
  0
DICTIONARY
  5
1207
330
868
100
AcDbDictionary
280
     1
281
     1
  3
ADSK_XREC_LAYER_RECONCILED
360
1208
  0
DICTIONARY
  5
1209
330
869
100
AcDbDictionary
280
     1
281
     1
  3
ADSK_XREC_LAYER_RECONCILED
360
120A
  0
DICTIONARY
  5
120B
330
86B
100
AcDbDictionary
280
     1
281
     1
  3
ADSK_XREC_LAYER_RECONCILED
360
120C
  0
DICTIONARY
  5
120D
330
86C
100
AcDbDictionary
280
     1
281
     1
  3
ADSK_XREC_LAYER_RECONCILED
360
120E
  0
DICTIONARY
  5
120F
330
86D
100
AcDbDictionary
280
     1
281
     1
  3
ADSK_XREC_LAYER_RECONCILED
360
1210
  0
DICTIONARY
  5
1211
330
86E
100
AcDbDictionary
280
     1
281
     1
  3
ADSK_XREC_LAYER_RECONCILED
360
1212
  0
DICTIONARY
  5
1213
330
86F
100
AcDbDictionary
280
     1
281
     1
  3
ADSK_XREC_LAYER_RECONCILED
360
1214
  0
DICTIONARY
  5
B4F
330
85F
100
AcDbDictionary
280
     1
281
     1
  3
ACAD_INDEX
360
FE6
  3
ACAD_LAYOUTSELFREF
360
B50
  3
ACAD_SORTENTS
360
1227
  0
DICTIONARY
  5
B4D
330
85B
100
AcDbDictionary
280
     1
281
     1
  3
ACAD_LAYOUTSELFREF
360
B4E
  0
DICTIONARY
  5
1EEF
102
{ACAD_REACTORS
330
84D
102
}
330
84D
100
AcDbDictionary
281
     1
  3
DIMARCSYM
350
1EF0
  3
DIMLTEX1
350
1EF2
  3
DIMLTEX2
350
1EF3
  3
DIMLTYPE
350
1EF1
  0
DICTIONARY
  5
EC9
102
{ACAD_REACTORS
330
84D
102
}
330
84D
100
AcDbDictionary
281
     1
  0
DICTIONARY
  5
84E
102
{ACAD_REACTORS
330
84D
102
}
330
84D
100
AcDbDictionary
281
     1
1001
ACAD
1000
TREAT_AS_HARD
1070
     0
  0
DICTIONARY
  5
85A
102
{ACAD_REACTORS
330
84D
102
}
330
84D
100
AcDbDictionary
281
     1
  3
Model
350
B84
  3
ﾚｲｱｳﾄ1
350
B85
1001
ACAD
1000
TREAT_AS_HARD
1070
     0
  0
DICTIONARY
  5
EC8
102
{ACAD_REACTORS
330
84D
102
}
330
84D
100
AcDbDictionary
281
     1
  3
ByBlock
350
115D
  3
ByLayer
350
1155
  3
Global
350
1165
  0
DICTIONARY
  5
11A0
102
{ACAD_REACTORS
330
84D
102
}
330
84D
100
AcDbDictionary
281
     1
  3
Standard
350
11A1
  0
DICTIONARY
  5
857
102
{ACAD_REACTORS
330
84D
102
}
330
84D
100
AcDbDictionary
281
     1
  3
STANDARD
350
858
1001
ACAD
1000
TREAT_AS_HARD
1070
     0
  0
DICTIONARY
  5
859
102
{ACAD_REACTORS
330
84D
102
}
330
84D
100
AcDbDictionary
281
     1
1001
ACAD
1000
TREAT_AS_HARD
1070
     0
  0
ACDBDICTIONARYWDFLT
  5
B82
102
{ACAD_REACTORS
330
84D
102
}
330
84D
100
AcDbDictionary
281
     1
  3
Normal
350
B83
100
AcDbDictionaryWithDefault
340
B83
  0
DICTIONARY
  5
117E
102
{ACAD_REACTORS
330
84D
102
}
330
84D
100
AcDbDictionary
281
     1
  3
A0
350
117F
  3
A1
350
1180
  3
A2
350
1181
  3
A3
350
1182
  3
A4
350
1183
  3
A5
350
1184
  3
A6
350
1185
  3
A7
350
1186
  3
A8
350
1187
  3
A9
350
1188
  3
B0
350
1189
  3
B1
350
118A
  3
B2
350
118B
  3
B3
350
118C
  3
B4
350
118D
  3
B5
350
118E
  3
B6
350
118F
  3
B7
350
1190
  3
B8
350
1191
  3
B9
350
1192
  3
C0
350
1193
  3
C1
350
1194
  3
C2
350
1195
  3
C3
350
1196
  3
C4
350
1197
  3
C5
350
1198
  3
C6
350
1199
  3
C7
350
119A
  3
C8
350
119B
  3
C9
350
119C
  3
D0
350
119D
  3
D1
350
119E
  3
D2
350
119F
  0
DICTIONARY
  5
ECA
102
{ACAD_REACTORS
330
84D
102
}
330
84D
100
AcDbDictionary
281
     1
  3
Standard
350
ECB
  0
DICTIONARY
  5
116D
102
{ACAD_REACTORS
330
84D
102
}
330
84D
100
AcDbDictionary
281
     1
  3
2dWireframe
350
1173
  3
3D Hidden
350
1175
  3
3dWireframe
350
1174
  3
Basic
350
1172
  3
Brighten
350
1179
  3
ColorChange
350
117D
  3
Conceptual
350
1176
  3
Dim
350
1178
  3
Facepattern
350
117C
  3
Flat
350
116E
  3
FlatWithEdges
350
116F
  3
Gouraud
350
1170
  3
GouraudWithEdges
350
1171
  3
Linepattern
350
117B
  3
Realistic
350
1177
  3
Thicken
350
117A
  0
XRECORD
  5
D74
102
{ACAD_REACTORS
330
84D
102
}
330
84D
100
AcDbXrecord
280
     1
 90
   990106
  3

 60
     0
 61
     0
 62
     1
 63
     3
 64
     0
 65
     0
 66
     0
 67
     3
 68
     1
 69
     0
 70
     0
 71
     0
 72
     0
 40
0.0
170
     0
340
D76
  0
XRECORD
  5
126C
102
{ACAD_REACTORS
330
84D
102
}
330
84D
100
AcDbXrecord
280
     1
 90
        1
330
ECB
  0
DICTIONARY
  5
B87
102
{ACAD_REACTORS
330
84D
102
}
330
84D
100
AcDbDictionary
281
     1
  3
CANNOSCALE
350
1216
  3
CMLEADERSTYLE
350
1215
  3
CTABLESTYLE
350
FF4
  3
DIMASSOC
350
B88
  3
INDEXCTL
350
FF5
  3
PROJECTNAME
350
FF6
  3
SORTENTS
350
1217
  0
DICTIONARY
  5
F90
102
{ACAD_REACTORS
330
84D
102
}
330
84D
100
AcDbDictionary
281
     1
  3
AcmStdDictionary
350
F9C
  3
AMDTSECTSYM_ARROWCOLOR
350
FBC
  0
DICTIONARY
  5
ECF
102
{ACAD_REACTORS
330
84D
102
}
330
84D
100
AcDbDictionary
281
     1
  3
AcMgSettings
350
ED0
  0
DICTIONARY
  5
FFE
102
{ACAD_REACTORS
330
84D
102
}
330
84D
100
AcDbDictionary
281
     1
  3
DIMENSION
350
1003
  3
FEA
350
1002
  3
HATCH (1)
350
FFF
  3
HATCH (2)
350
1000
  3
SIMPLE WELD
350
1004
  3
SYMBOLS
350
1001
  0
DICTIONARY
  5
14DE
102
{ACAD_REACTORS
330
14DD
102
}
330
14DD
100
AcDbDictionary
281
     1
  0
XRECORD
  5
1200
102
{ACAD_REACTORS
330
11FF
102
}
330
11FF
100
AcDbXrecord
280
     1
290
     1
  0
XRECORD
  5
1202
102
{ACAD_REACTORS
330
1201
102
}
330
1201
100
AcDbXrecord
280
     1
290
     1
  0
XRECORD
  5
1204
102
{ACAD_REACTORS
330
1203
102
}
330
1203
100
AcDbXrecord
280
     1
290
     1
  0
XRECORD
  5
1206
102
{ACAD_REACTORS
330
1205
102
}
330
1205
100
AcDbXrecord
280
     1
290
     1
  0
XRECORD
  5
1208
102
{ACAD_REACTORS
330
1207
102
}
330
1207
100
AcDbXrecord
280
     1
290
     1
  0
XRECORD
  5
120A
102
{ACAD_REACTORS
330
1209
102
}
330
1209
100
AcDbXrecord
280
     1
290
     1
  0
XRECORD
  5
120C
102
{ACAD_REACTORS
330
120B
102
}
330
120B
100
AcDbXrecord
280
     1
290
     1
  0
XRECORD
  5
120E
102
{ACAD_REACTORS
330
120D
102
}
330
120D
100
AcDbXrecord
280
     1
290
     1
  0
XRECORD
  5
1210
102
{ACAD_REACTORS
330
120F
102
}
330
120F
100
AcDbXrecord
280
     1
290
     1
  0
XRECORD
  5
1212
102
{ACAD_REACTORS
330
1211
102
}
330
1211
100
AcDbXrecord
280
     1
290
     1
  0
XRECORD
  5
1214
102
{ACAD_REACTORS
330
1213
102
}
330
1213
100
AcDbXrecord
280
     1
290
     1
  0
DICTIONARY
  5
FE6
102
{ACAD_REACTORS
330
B4F
102
}
330
B4F
100
AcDbDictionary
281
     1
  3
*A1
350
FE7
  0
XRECORD
  5
B50
102
{ACAD_REACTORS
330
B4F
102
}
330
B4F
100
AcDbXrecord
280
     1
340
85F
  0
SORTENTSTABLE
  5
1227
102
{ACAD_REACTORS
330
B4F
102
}
330
B4F
100
AcDbSortentsTable
330
85F
331
957
  5
957
331
953
  5
953
331
956
  5
956
331
955
  5
955
331
958
  5
958
331
954
  5
954
  0
XRECORD
  5
B4E
102
{ACAD_REACTORS
330
B4D
102
}
330
B4D
100
AcDbXrecord
280
     1
340
85B
  0
XRECORD
  5
1EF0
102
{ACAD_REACTORS
330
1EEF
102
}
330
1EEF
100
AcDbXrecord
280
     1
 70
     1
  0
XRECORD
  5
1EF2
102
{ACAD_REACTORS
330
1EEF
102
}
330
1EEF
100
AcDbXrecord
280
     1
340
854
  0
XRECORD
  5
1EF3
102
{ACAD_REACTORS
330
1EEF
102
}
330
1EEF
100
AcDbXrecord
280
     1
340
854
  0
XRECORD
  5
1EF1
102
{ACAD_REACTORS
330
1EEF
102
}
330
1EEF
100
AcDbXrecord
280
     1
340
854
  0
LAYOUT
  5
B84
102
{ACAD_REACTORS
330
85A
102
}
330
85A
100
AcDbPlotSettings
  1

  2
EPSON LP-9600S
  4
A4
  6

 40
5.873749732971191
 41
5.873747825622557
 42
5.873748779296875
 43
5.873748779296875
 44
209.9733276367186
 45
297.0106506347656
 46
0.0
 47
0.0
 48
0.0
 49
0.0
140
0.0
141
0.0
142
1.0
143
5.235884617788101
 70
 11952
 72
     1
 73
     1
 74
     1
  7
monochrome.ctb
 75
     0
147
0.1909896938146146
 76
     0
 77
     2
 78
   300
148
906.8967172533341
149
759.1639143246887
100
AcDbLayout
  1
Model
 70
     1
 71
     0
 10
0.0
 20
0.0
 11
12.0
 21
9.0
 12
0.0
 22
0.0
 32
0.0
 14
0.0
 24
0.0
 34
0.0
 15
0.0
 25
0.0
 35
0.0
146
0.0
 13
0.0
 23
0.0
 33
0.0
 16
1.0
 26
0.0
 36
0.0
 17
0.0
 27
1.0
 37
0.0
 76
     0
330
85F
331
114A
1001
ACAD_PSEXT
1000
EPSON LP-9600S
1000
EPSON LP-9600S
1000
IP_10.36.3.199
1000

1070
     0
  0
LAYOUT
  5
B85
102
{ACAD_REACTORS
330
85A
102
}
330
85A
100
AcDbPlotSettings
  1

  2
\\Server02\EPSON LP-9600SPD (3F)
  4

  6

 40
0.0
 41
0.0
 42
0.0
 43
0.0
 44
0.0
 45
0.0
 46
0.0
 47
0.0
 48
0.0
 49
0.0
140
0.0
141
0.0
142
1.0
143
1.0
 70
   688
 72
     0
 73
     0
 74
     5
  7
monochrome.ctb
 75
    16
147
1.0
 76
     0
 77
     2
 78
   300
148
0.0
149
0.0
100
AcDbLayout
  1
ﾚｲｱｳﾄ1
 70
     1
 71
     1
 10
0.0
 20
0.0
 11
12.0
 21
9.0
 12
0.0
 22
0.0
 32
0.0
 14
1.000000000000000E+20
 24
1.000000000000000E+20
 34
1.000000000000000E+20
 15
-1.000000000000000E+20
 25
-1.000000000000000E+20
 35
-1.000000000000000E+20
146
0.0
 13
0.0
 23
0.0
 33
0.0
 16
1.0
 26
0.0
 36
0.0
 17
0.0
 27
1.0
 37
0.0
 76
     0
330
85B
  0
MATERIAL
  5
115D
102
{ACAD_XDICTIONARY
360
115E
102
}
102
{ACAD_REACTORS
330
EC8
102
}
330
EC8
100
AcDbMaterial
  1
ByBlock
 72
     0
 43
0.0208333333333333
 43
0.0
 43
0.0
 43
0.0
 43
0.0
 43
0.0208333333333333
 43
0.0
 43
0.0
 43
0.0
 43
0.0
 43
1.0
 43
0.0
 43
0.0
 43
0.0
 43
0.0
 43
1.0
 77
     0
 47
0.0208333333333333
 47
0.0
 47
0.0
 47
0.0
 47
0.0
 47
0.0208333333333333
 47
0.0
 47
0.0
 47
0.0
 47
0.0
 47
1.0
 47
0.0
 47
0.0
 47
0.0
 47
0.0
 47
1.0
171
     0
 49
0.0208333333333333
 49
0.0
 49
0.0
 49
0.0
 49
0.0
 49
0.0208333333333333
 49
0.0
 49
0.0
 49
0.0
 49
0.0
 49
1.0
 49
0.0
 49
0.0
 49
0.0
 49
0.0
 49
1.0
175
     0
142
0.0208333333333333
142
0.0
142
0.0
142
0.0
142
0.0
142
0.0208333333333333
142
0.0
142
0.0
142
0.0
142
0.0
142
1.0
142
0.0
142
0.0
142
0.0
142
0.0
142
1.0
179
     0
144
0.0208333333333333
144
0.0
144
0.0
144
0.0
144
0.0
144
0.0208333333333333
144
0.0
144
0.0
144
0.0
144
0.0
144
1.0
144
0.0
144
0.0
144
0.0
144
0.0
144
1.0
147
0.0208333333333333
147
0.0
147
0.0
147
0.0
147
0.0
147
0.0208333333333333
147
0.0
147
0.0
147
0.0
147
0.0
147
1.0
147
0.0
147
0.0
147
0.0
147
0.0
147
1.0
  0
MATERIAL
  5
1155
102
{ACAD_XDICTIONARY
360
1156
102
}
102
{ACAD_REACTORS
330
EC8
102
}
330
EC8
100
AcDbMaterial
  1
ByLayer
 72
     0
 43
0.0208333333333333
 43
0.0
 43
0.0
 43
0.0
 43
0.0
 43
0.0208333333333333
 43
0.0
 43
0.0
 43
0.0
 43
0.0
 43
1.0
 43
0.0
 43
0.0
 43
0.0
 43
0.0
 43
1.0
 77
     0
 47
0.0208333333333333
 47
0.0
 47
0.0
 47
0.0
 47
0.0
 47
0.0208333333333333
 47
0.0
 47
0.0
 47
0.0
 47
0.0
 47
1.0
 47
0.0
 47
0.0
 47
0.0
 47
0.0
 47
1.0
171
     0
 49
0.0208333333333333
 49
0.0
 49
0.0
 49
0.0
 49
0.0
 49
0.0208333333333333
 49
0.0
 49
0.0
 49
0.0
 49
0.0
 49
1.0
 49
0.0
 49
0.0
 49
0.0
 49
0.0
 49
1.0
175
     0
142
0.0208333333333333
142
0.0
142
0.0
142
0.0
142
0.0
142
0.0208333333333333
142
0.0
142
0.0
142
0.0
142
0.0
142
1.0
142
0.0
142
0.0
142
0.0
142
0.0
142
1.0
179
     0
144
0.0208333333333333
144
0.0
144
0.0
144
0.0
144
0.0
144
0.0208333333333333
144
0.0
144
0.0
144
0.0
144
0.0
144
1.0
144
0.0
144
0.0
144
0.0
144
0.0
144
1.0
147
0.0208333333333333
147
0.0
147
0.0
147
0.0
147
0.0
147
0.0208333333333333
147
0.0
147
0.0
147
0.0
147
0.0
147
1.0
147
0.0
147
0.0
147
0.0
147
0.0
147
1.0
  0
MATERIAL
  5
1165
102
{ACAD_XDICTIONARY
360
1166
102
}
102
{ACAD_REACTORS
330
EC8
102
}
330
EC8
100
AcDbMaterial
  1
Global
 72
     0
 43
0.0208333333333333
 43
0.0
 43
0.0
 43
0.0
 43
0.0
 43
0.0208333333333333
 43
0.0
 43
0.0
 43
0.0
 43
0.0
 43
1.0
 43
0.0
 43
0.0
 43
0.0
 43
0.0
 43
1.0
 77
     0
 47
0.0208333333333333
 47
0.0
 47
0.0
 47
0.0
 47
0.0
 47
0.0208333333333333
 47
0.0
 47
0.0
 47
0.0
 47
0.0
 47
1.0
 47
0.0
 47
0.0
 47
0.0
 47
0.0
 47
1.0
171
     0
 49
0.0208333333333333
 49
0.0
 49
0.0
 49
0.0
 49
0.0
 49
0.0208333333333333
 49
0.0
 49
0.0
 49
0.0
 49
0.0
 49
1.0
 49
0.0
 49
0.0
 49
0.0
 49
0.0
 49
1.0
175
     0
142
0.0208333333333333
142
0.0
142
0.0
142
0.0
142
0.0
142
0.0208333333333333
142
0.0
142
0.0
142
0.0
142
0.0
142
1.0
142
0.0
142
0.0
142
0.0
142
0.0
142
1.0
179
     0
144
0.0208333333333333
144
0.0
144
0.0
144
0.0
144
0.0
144
0.0208333333333333
144
0.0
144
0.0
144
0.0
144
0.0
144
1.0
144
0.0
144
0.0
144
0.0
144
0.0
144
1.0
147
0.0208333333333333
147
0.0
147
0.0
147
0.0
147
0.0
147
0.0208333333333333
147
0.0
147
0.0
147
0.0
147
0.0
147
1.0
147
0.0
147
0.0
147
0.0
147
0.0
147
1.0
  0
MLEADERSTYLE
  5
11A1
102
{ACAD_REACTORS
330
11A0
102
}
330
11A0
100
AcDbMLeaderStyle
170
     2
171
     1
172
     0
 90
        2
 40
0.0
 41
0.0
173
     1
 91
-1056964608
340
854
 92
       -2
290
     1
 42
0.09
291
     1
 43
0.36
  3
Standard
 44
0.18
300

342
852
174
     1
178
     6
175
     1
176
     0
 93
-1056964608
 45
0.18
292
     0
297
     0
 46
0.18
 94
-1056964608
 47
1.0
 49
1.0
140
1.0
293
     1
141
0.0
294
     1
177
     0
142
1.0
295
     0
296
     0
143
0.125
1001
ACAD_MLEADERVER
1070
     2
  0
MLINESTYLE
  5
858
102
{ACAD_REACTORS
330
857
102
}
330
857
100
AcDbMlineStyle
  2
STANDARD
 70
     0
  3

 62
   256
 51
90.0
 52
90.0
 71
     2
 49
0.5
 62
   256
  6
BYLAYER
 49
-0.5
 62
   256
  6
BYLAYER
  0
ACDBPLACEHOLDER
  5
B83
102
{ACAD_REACTORS
330
B82
102
}
330
B82
  0
SCALE
  5
117F
102
{ACAD_REACTORS
330
117E
102
}
330
117E
100
AcDbScale
 70
     0
300
1:1
140
1.0
141
1.0
290
     1
  0
SCALE
  5
1180
102
{ACAD_REACTORS
330
117E
102
}
330
117E
100
AcDbScale
 70
     0
300
1:2
140
1.0
141
2.0
290
     0
  0
SCALE
  5
1181
102
{ACAD_REACTORS
330
117E
102
}
330
117E
100
AcDbScale
 70
     0
300
1:4
140
1.0
141
4.0
290
     0
  0
SCALE
  5
1182
102
{ACAD_REACTORS
330
117E
102
}
330
117E
100
AcDbScale
 70
     0
300
1:5
140
1.0
141
5.0
290
     0
  0
SCALE
  5
1183
102
{ACAD_REACTORS
330
117E
102
}
330
117E
100
AcDbScale
 70
     0
300
1:8
140
1.0
141
8.0
290
     0
  0
SCALE
  5
1184
102
{ACAD_REACTORS
330
117E
102
}
330
117E
100
AcDbScale
 70
     0
300
1:10
140
1.0
141
10.0
290
     0
  0
SCALE
  5
1185
102
{ACAD_REACTORS
330
117E
102
}
330
117E
100
AcDbScale
 70
     0
300
1:16
140
1.0
141
16.0
290
     0
  0
SCALE
  5
1186
102
{ACAD_REACTORS
330
117E
102
}
330
117E
100
AcDbScale
 70
     0
300
1:20
140
1.0
141
20.0
290
     0
  0
SCALE
  5
1187
102
{ACAD_REACTORS
330
117E
102
}
330
117E
100
AcDbScale
 70
     0
300
1:30
140
1.0
141
30.0
290
     0
  0
SCALE
  5
1188
102
{ACAD_REACTORS
330
117E
102
}
330
117E
100
AcDbScale
 70
     0
300
1:40
140
1.0
141
40.0
290
     0
  0
SCALE
  5
1189
102
{ACAD_REACTORS
330
117E
102
}
330
117E
100
AcDbScale
 70
     0
300
1:50
140
1.0
141
50.0
290
     0
  0
SCALE
  5
118A
102
{ACAD_REACTORS
330
117E
102
}
330
117E
100
AcDbScale
 70
     0
300
1:100
140
1.0
141
100.0
290
     0
  0
SCALE
  5
118B
102
{ACAD_REACTORS
330
117E
102
}
330
117E
100
AcDbScale
 70
     0
300
2:1
140
2.0
141
1.0
290
     0
  0
SCALE
  5
118C
102
{ACAD_REACTORS
330
117E
102
}
330
117E
100
AcDbScale
 70
     0
300
4:1
140
4.0
141
1.0
290
     0
  0
SCALE
  5
118D
102
{ACAD_REACTORS
330
117E
102
}
330
117E
100
AcDbScale
 70
     0
300
8:1
140
8.0
141
1.0
290
     0
  0
SCALE
  5
118E
102
{ACAD_REACTORS
330
117E
102
}
330
117E
100
AcDbScale
 70
     0
300
10:1
140
10.0
141
1.0
290
     0
  0
SCALE
  5
118F
102
{ACAD_REACTORS
330
117E
102
}
330
117E
100
AcDbScale
 70
     0
300
100:1
140
100.0
141
1.0
290
     0
  0
SCALE
  5
1190
102
{ACAD_REACTORS
330
117E
102
}
330
117E
100
AcDbScale
 70
     0
300
1/128" = 1'-0"
140
0.0078125
141
12.0
290
     0
  0
SCALE
  5
1191
102
{ACAD_REACTORS
330
117E
102
}
330
117E
100
AcDbScale
 70
     0
300
1/64" = 1'-0"
140
0.015625
141
12.0
290
     0
  0
SCALE
  5
1192
102
{ACAD_REACTORS
330
117E
102
}
330
117E
100
AcDbScale
 70
     0
300
1/32" = 1'-0"
140
0.03125
141
12.0
290
     0
  0
SCALE
  5
1193
102
{ACAD_REACTORS
330
117E
102
}
330
117E
100
AcDbScale
 70
     0
300
1/16" = 1'-0"
140
0.0625
141
12.0
290
     0
  0
SCALE
  5
1194
102
{ACAD_REACTORS
330
117E
102
}
330
117E
100
AcDbScale
 70
     0
300
3/32" = 1'-0"
140
0.09375
141
12.0
290
     0
  0
SCALE
  5
1195
102
{ACAD_REACTORS
330
117E
102
}
330
117E
100
AcDbScale
 70
     0
300
1/8" = 1'-0"
140
0.125
141
12.0
290
     0
  0
SCALE
  5
1196
102
{ACAD_REACTORS
330
117E
102
}
330
117E
100
AcDbScale
 70
     0
300
3/16" = 1'-0"
140
0.1875
141
12.0
290
     0
  0
SCALE
  5
1197
102
{ACAD_REACTORS
330
117E
102
}
330
117E
100
AcDbScale
 70
     0
300
1/4" = 1'-0"
140
0.25
141
12.0
290
     0
  0
SCALE
  5
1198
102
{ACAD_REACTORS
330
117E
102
}
330
117E
100
AcDbScale
 70
     0
300
3/8" = 1'-0"
140
0.375
141
12.0
290
     0
  0
SCALE
  5
1199
102
{ACAD_REACTORS
330
117E
102
}
330
117E
100
AcDbScale
 70
     0
300
1/2" = 1'-0"
140
0.5
141
12.0
290
     0
  0
SCALE
  5
119A
102
{ACAD_REACTORS
330
117E
102
}
330
117E
100
AcDbScale
 70
     0
300
3/4" = 1'-0"
140
0.75
141
12.0
290
     0
  0
SCALE
  5
119B
102
{ACAD_REACTORS
330
117E
102
}
330
117E
100
AcDbScale
 70
     0
300
1" = 1'-0"
140
1.0
141
12.0
290
     0
  0
SCALE
  5
119C
102
{ACAD_REACTORS
330
117E
102
}
330
117E
100
AcDbScale
 70
     0
300
1-1/2" = 1'-0"
140
1.5
141
12.0
290
     0
  0
SCALE
  5
119D
102
{ACAD_REACTORS
330
117E
102
}
330
117E
100
AcDbScale
 70
     0
300
3" = 1'-0"
140
3.0
141
12.0
290
     0
  0
SCALE
  5
119E
102
{ACAD_REACTORS
330
117E
102
}
330
117E
100
AcDbScale
 70
     0
300
6" = 1'-0"
140
6.0
141
12.0
290
     0
  0
SCALE
  5
119F
102
{ACAD_REACTORS
330
117E
102
}
330
117E
100
AcDbScale
 70
     0
300
1'-0" = 1'-0"
140
12.0
141
12.0
290
     0
  0
TABLESTYLE
  5
ECB
102
{ACAD_XDICTIONARY
360
126A
102
}
102
{ACAD_REACTORS
330
ECA
102
}
330
ECA
100
AcDbTableStyle
  3
Standard
 70
     0
 71
     0
 40
0.06
 41
0.06
280
     0
281
     0
  7
STANDARD
140
0.18
170
     2
 62
     0
 63
     7
283
     0
274
    -2
284
     1
 64
     0
275
    -2
285
     1
 65
     0
276
    -2
286
     1
 66
     0
277
    -2
287
     1
 67
     0
278
    -2
288
     1
 68
     0
279
    -2
289
     1
 69
     0
  7
STANDARD
140
0.25
170
     5
 62
     0
 63
     7
283
     0
274
    -2
284
     1
 64
     0
275
    -2
285
     1
 65
     0
276
    -2
286
     1
 66
     0
277
    -2
287
     1
 67
     0
278
    -2
288
     1
 68
     0
279
    -2
289
     1
 69
     0
  7
STANDARD
140
0.18
170
     5
 62
     0
 63
     7
283
     0
274
    -2
284
     1
 64
     0
275
    -2
285
     1
 65
     0
276
    -2
286
     1
 66
     0
277
    -2
287
     1
 67
     0
278
    -2
288
     1
 68
     0
279
    -2
289
     1
 69
     0
  0
VISUALSTYLE
  5
1173
102
{ACAD_REACTORS
330
116D
102
}
330
116D
100
AcDbVisualStyle
  2
2dWireframe
 70
     4
 71
     0
 72
     2
 73
     0
 90
        0
 40
-0.6
 41
-30.0
 62
     5
 63
     7
 74
     1
 91
        4
 64
     7
 65
   257
 75
     1
175
     1
 42
1.0
 92
        0
 66
   257
 43
1.0
 76
     1
 77
     6
 78
     2
 67
     7
 79
     5
170
     0
171
     0
290
     0
174
     0
 93
        1
 44
0.0
173
     0
291
     0
 45
0.0
1001
ACAD
1000
AcDbSavedByObjectVersion
1070
     0
1000
AcDbSavedByObjectVersion
1070
     0
1000
AcDbSavedByObjectVersion
1070
     0
1000
AcDbSavedByObjectVersion
1070
     0
1000
AcDbSavedByObjectVersion
1070
     0
1000
AcDbSavedByObjectVersion
1070
     0
1000
AcDbSavedByObjectVersion
1070
     0
  0
VISUALSTYLE
  5
1175
102
{ACAD_REACTORS
330
116D
102
}
330
116D
100
AcDbVisualStyle
  2
3D Hidden
 70
     6
 71
     1
 72
     2
 73
     2
 90
        0
 40
-0.6
 41
-30.0
 62
     5
 63
     7
 74
     2
 91
        2
 64
     7
 65
   257
 75
     2
175
     1
 42
40.0
 92
        0
 66
   257
 43
1.0
 76
     1
 77
     6
 78
     2
 67
     7
 79
     3
170
     0
171
     0
290
     0
174
     0
 93
        1
 44
0.0
173
     0
291
     0
 45
0.0
1001
ACAD
1000
AcDbSavedByObjectVersion
1070
     0
1000
AcDbSavedByObjectVersion
1070
     0
1000
AcDbSavedByObjectVersion
1070
     0
1000
AcDbSavedByObjectVersion
1070
     0
1000
AcDbSavedByObjectVersion
1070
     0
1000
AcDbSavedByObjectVersion
1070
     0
1000
AcDbSavedByObjectVersion
1070
     0
  0
VISUALSTYLE
  5
1174
102
{ACAD_REACTORS
330
116D
102
}
330
116D
100
AcDbVisualStyle
  2
3dWireframe
 70
     5
 71
     0
 72
     2
 73
     0
 90
        0
 40
-0.6
 41
-30.0
 62
     5
 63
     7
 74
     1
 91
        4
 64
     7
 65
   257
 75
     1
175
     1
 42
1.0
 92
        0
 66
   257
 43
1.0
 76
     1
 77
     6
 78
     2
 67
     7
 79
     5
170
     0
171
     0
290
     0
174
     0
 93
        1
 44
0.0
173
     0
291
     0
 45
0.0
1001
ACAD
1000
AcDbSavedByObjectVersion
1070
     0
1000
AcDbSavedByObjectVersion
1070
     0
1000
AcDbSavedByObjectVersion
1070
     0
1000
AcDbSavedByObjectVersion
1070
     0
1000
AcDbSavedByObjectVersion
1070
     0
1000
AcDbSavedByObjectVersion
1070
     0
1000
AcDbSavedByObjectVersion
1070
     0
  0
VISUALSTYLE
  5
1172
102
{ACAD_REACTORS
330
116D
102
}
330
116D
100
AcDbVisualStyle
  2
Basic
 70
     7
 71
     1
 72
     0
 73
     1
 90
        0
 40
-0.6
 41
-30.0
 62
     5
 63
     7
 74
     0
 91
        4
 64
     7
 65
   257
 75
     1
175
     1
 42
1.0
 92
        8
 66
     7
 43
1.0
 76
     1
 77
     6
 78
     2
 67
     7
 79
     5
170
     0
171
     0
290
     0
174
     0
 93
        1
 44
0.0
173
     0
291
     1
 45
0.0
1001
ACAD
1000
AcDbSavedByObjectVersion
1070
     0
1000
AcDbSavedByObjectVersion
1070
     0
1000
AcDbSavedByObjectVersion
1070
     0
1000
AcDbSavedByObjectVersion
1070
     0
1000
AcDbSavedByObjectVersion
1070
     0
1000
AcDbSavedByObjectVersion
1070
     0
1000
AcDbSavedByObjectVersion
1070
     0
  0
VISUALSTYLE
  5
1179
102
{ACAD_REACTORS
330
116D
102
}
330
116D
100
AcDbVisualStyle
  2
Brighten
 70
    12
 71
     2
 72
     2
 73
     0
 90
        0
 40
-0.6
 41
-30.0
 62
     5
 63
     7
 74
     1
 91
        4
 64
     7
 65
   257
 75
     1
175
     1
 42
1.0
 92
        8
 66
     7
 43
1.0
 76
     1
 77
     6
 78
     2
 67
     7
 79
     5
170
     0
171
     0
290
     0
174
     0
 93
        1
 44
50.0
173
     0
291
     1
 45
0.0
1001
ACAD
1000
AcDbSavedByObjectVersion
1070
     0
1000
AcDbSavedByObjectVersion
1070
     0
1000
AcDbSavedByObjectVersion
1070
     0
1000
AcDbSavedByObjectVersion
1070
     0
1000
AcDbSavedByObjectVersion
1070
     0
1000
AcDbSavedByObjectVersion
1070
     0
1000
AcDbSavedByObjectVersion
1070
     0
  0
VISUALSTYLE
  5
117D
102
{ACAD_REACTORS
330
116D
102
}
330
116D
100
AcDbVisualStyle
  2
ColorChange
 70
    16
 71
     2
 72
     2
 73
     3
 90
        0
 40
-0.6
 41
-30.0
 62
     5
 63
     8
 74
     1
 91
        4
 64
     7
 65
   257
 75
     1
175
     1
 42
1.0
 92
        8
 66
     8
 43
1.0
 76
     1
 77
     6
 78
     2
 67
     7
 79
     5
170
     0
171
     0
290
     0
174
     0
 93
        1
 44
0.0
173
     0
291
     1
 45
0.0
1001
ACAD
1000
AcDbSavedByObjectVersion
1070
     0
1000
AcDbSavedByObjectVersion
1070
     0
1000
AcDbSavedByObjectVersion
1070
     0
1000
AcDbSavedByObjectVersion
1070
     0
1000
AcDbSavedByObjectVersion
1070
     0
1000
AcDbSavedByObjectVersion
1070
     0
1000
AcDbSavedByObjectVersion
1070
     0
  0
VISUALSTYLE
  5
1176
102
{ACAD_REACTORS
330
116D
102
}
330
116D
100
AcDbVisualStyle
  2
Conceptual
 70
     9
 71
     3
 72
     2
 73
     0
 90
        0
 40
-0.6
 41
-30.0
 62
     5
 63
     7
 74
     2
 91
        2
 64
     7
 65
   257
 75
     1
175
     1
 42
40.0
 92
        8
 66
     7
 43
1.0
 76
     1
 77
     6
 78
     2
 67
     7
 79
     3
170
     0
171
     0
290
     0
174
     0
 93
        1
 44
0.0
173
     0
291
     0
 45
0.0
1001
ACAD
1000
AcDbSavedByObjectVersion
1070
     0
1000
AcDbSavedByObjectVersion
1070
     0
1000
AcDbSavedByObjectVersion
1070
     0
1000
AcDbSavedByObjectVersion
1070
     0
1000
AcDbSavedByObjectVersion
1070
     0
1000
AcDbSavedByObjectVersion
1070
     0
1000
AcDbSavedByObjectVersion
1070
     0
  0
VISUALSTYLE
  5
1178
102
{ACAD_REACTORS
330
116D
102
}
330
116D
100
AcDbVisualStyle
  2
Dim
 70
    11
 71
     2
 72
     2
 73
     0
 90
        0
 40
-0.6
 41
-30.0
 62
     5
 63
     7
 74
     1
 91
        4
 64
     7
 65
   257
 75
     1
175
     1
 42
1.0
 92
        8
 66
     7
 43
1.0
 76
     1
 77
     6
 78
     2
 67
     7
 79
     5
170
     0
171
     0
290
     0
174
     0
 93
        1
 44
-50.0
173
     0
291
     1
 45
0.0
1001
ACAD
1000
AcDbSavedByObjectVersion
1070
     0
1000
AcDbSavedByObjectVersion
1070
     0
1000
AcDbSavedByObjectVersion
1070
     0
1000
AcDbSavedByObjectVersion
1070
     0
1000
AcDbSavedByObjectVersion
1070
     0
1000
AcDbSavedByObjectVersion
1070
     0
1000
AcDbSavedByObjectVersion
1070
     0
  0
VISUALSTYLE
  5
117C
102
{ACAD_REACTORS
330
116D
102
}
330
116D
100
AcDbVisualStyle
  2
Facepattern
 70
    15
 71
     2
 72
     2
 73
     0
 90
        0
 40
-0.6
 41
-30.0
 62
     5
 63
     7
 74
     1
 91
        4
 64
     7
 65
   257
 75
     1
175
     1
 42
1.0
 92
        8
 66
     7
 43
1.0
 76
     1
 77
     6
 78
     2
 67
     7
 79
     5
170
     0
171
     0
290
     0
174
     0
 93
        1
 44
0.0
173
     0
291
     1
 45
0.0
1001
ACAD
1000
AcDbSavedByObjectVersion
1070
     0
1000
AcDbSavedByObjectVersion
1070
     0
1000
AcDbSavedByObjectVersion
1070
     0
1000
AcDbSavedByObjectVersion
1070
     0
1000
AcDbSavedByObjectVersion
1070
     0
1000
AcDbSavedByObjectVersion
1070
     0
1000
AcDbSavedByObjectVersion
1070
     0
  0
VISUALSTYLE
  5
116E
102
{ACAD_REACTORS
330
116D
102
}
330
116D
100
AcDbVisualStyle
  2
Flat
 70
     0
 71
     2
 72
     1
 73
     1
 90
        2
 40
-0.6
 41
30.0
 62
     5
 63
     7
 74
     0
 91
        4
 64
     7
 65
   257
 75
     1
175
     1
 42
1.0
 92
        8
 66
     7
 43
1.0
 76
     1
 77
     6
 78
     2
 67
     7
 79
     5
170
     0
171
     0
290
     0
174
     0
 93
       13
 44
0.0
173
     0
291
     1
 45
0.0
1001
ACAD
1000
AcDbSavedByObjectVersion
1070
     0
1000
AcDbSavedByObjectVersion
1070
     0
1000
AcDbSavedByObjectVersion
1070
     0
1000
AcDbSavedByObjectVersion
1070
     0
1000
AcDbSavedByObjectVersion
1070
     0
1000
AcDbSavedByObjectVersion
1070
     0
1000
AcDbSavedByObjectVersion
1070
     0
  0
VISUALSTYLE
  5
116F
102
{ACAD_REACTORS
330
116D
102
}
330
116D
100
AcDbVisualStyle
  2
FlatWithEdges
 70
     1
 71
     2
 72
     1
 73
     1
 90
        2
 40
-0.6
 41
30.0
 62
     5
 63
     7
 74
     1
 91
        4
 64
     7
 65
   257
 75
     1
175
     1
 42
1.0
 92
        0
 66
   257
 43
1.0
 76
     1
 77
     6
 78
     2
 67
     7
 79
     5
170
     0
171
     0
290
     0
174
     0
 93
       13
 44
0.0
173
     0
291
     1
 45
0.0
1001
ACAD
1000
AcDbSavedByObjectVersion
1070
     0
1000
AcDbSavedByObjectVersion
1070
     0
1000
AcDbSavedByObjectVersion
1070
     0
1000
AcDbSavedByObjectVersion
1070
     0
1000
AcDbSavedByObjectVersion
1070
     0
1000
AcDbSavedByObjectVersion
1070
     0
1000
AcDbSavedByObjectVersion
1070
     0
  0
VISUALSTYLE
  5
1170
102
{ACAD_REACTORS
330
116D
102
}
330
116D
100
AcDbVisualStyle
  2
Gouraud
 70
     2
 71
     2
 72
     2
 73
     1
 90
        2
 40
-0.6
 41
30.0
 62
     5
 63
     7
 74
     0
 91
        4
 64
     7
 65
   257
 75
     1
175
     1
 42
1.0
 92
        0
 66
     7
 43
1.0
 76
     1
 77
     6
 78
     2
 67
     7
 79
     5
170
     0
171
     0
290
     0
174
     0
 93
       13
 44
0.0
173
     0
291
     1
 45
0.0
1001
ACAD
1000
AcDbSavedByObjectVersion
1070
     0
1000
AcDbSavedByObjectVersion
1070
     0
1000
AcDbSavedByObjectVersion
1070
     0
1000
AcDbSavedByObjectVersion
1070
     0
1000
AcDbSavedByObjectVersion
1070
     0
1000
AcDbSavedByObjectVersion
1070
     0
1000
AcDbSavedByObjectVersion
1070
     0
  0
VISUALSTYLE
  5
1171
102
{ACAD_REACTORS
330
116D
102
}
330
116D
100
AcDbVisualStyle
  2
GouraudWithEdges
 70
     3
 71
     2
 72
     2
 73
     1
 90
        2
 40
-0.6
 41
30.0
 62
     5
 63
     7
 74
     1
 91
        4
 64
     7
 65
   257
 75
     1
175
     1
 42
1.0
 92
        0
 66
   257
 43
1.0
 76
     1
 77
     6
 78
     2
 67
     7
 79
     5
170
     0
171
     0
290
     0
174
     0
 93
       13
 44
0.0
173
     0
291
     1
 45
0.0
1001
ACAD
1000
AcDbSavedByObjectVersion
1070
     0
1000
AcDbSavedByObjectVersion
1070
     0
1000
AcDbSavedByObjectVersion
1070
     0
1000
AcDbSavedByObjectVersion
1070
     0
1000
AcDbSavedByObjectVersion
1070
     0
1000
AcDbSavedByObjectVersion
1070
     0
1000
AcDbSavedByObjectVersion
1070
     0
  0
VISUALSTYLE
  5
117B
102
{ACAD_REACTORS
330
116D
102
}
330
116D
100
AcDbVisualStyle
  2
Linepattern
 70
    14
 71
     2
 72
     2
 73
     0
 90
        0
 40
-0.6
 41
-30.0
 62
     5
 63
     7
 74
     1
 91
        4
 64
     7
 65
   257
 75
     7
175
     7
 42
1.0
 92
        8
 66
     7
 43
1.0
 76
     1
 77
     6
 78
     2
 67
     7
 79
     5
170
     0
171
     0
290
     0
174
     0
 93
        1
 44
0.0
173
     0
291
     1
 45
0.0
1001
ACAD
1000
AcDbSavedByObjectVersion
1070
     0
1000
AcDbSavedByObjectVersion
1070
     0
1000
AcDbSavedByObjectVersion
1070
     0
1000
AcDbSavedByObjectVersion
1070
     0
1000
AcDbSavedByObjectVersion
1070
     0
1000
AcDbSavedByObjectVersion
1070
     0
1000
AcDbSavedByObjectVersion
1070
     0
  0
VISUALSTYLE
  5
1177
102
{ACAD_REACTORS
330
116D
102
}
330
116D
100
AcDbVisualStyle
  2
Realistic
 70
     8
 71
     2
 72
     2
 73
     0
 90
        0
 40
-0.6
 41
-30.0
 62
     5
 63
     7
 74
     1
 91
        0
 64
     7
 65
   257
 75
     1
175
     1
 42
1.0
 92
        8
 66
     8
 43
1.0
 76
     1
 77
     6
 78
     2
 67
     7
 79
     5
170
     0
171
     0
290
     0
174
     0
 93
       13
 44
0.0
173
     0
291
     0
 45
0.0
1001
ACAD
1000
AcDbSavedByObjectVersion
1070
     0
1000
AcDbSavedByObjectVersion
1070
     0
1000
AcDbSavedByObjectVersion
1070
     0
1000
AcDbSavedByObjectVersion
1070
     0
1000
AcDbSavedByObjectVersion
1070
     0
1000
AcDbSavedByObjectVersion
1070
     0
1000
AcDbSavedByObjectVersion
1070
     0
  0
VISUALSTYLE
  5
117A
102
{ACAD_REACTORS
330
116D
102
}
330
116D
100
AcDbVisualStyle
  2
Thicken
 70
    13
 71
     2
 72
     2
 73
     0
 90
        0
 40
-0.6
 41
-30.0
 62
     5
 63
     7
 74
     1
 91
        4
 64
     7
 65
   257
 75
     1
175
     1
 42
1.0
 92
       12
 66
     7
 43
1.0
 76
     1
 77
     6
 78
     2
 67
     7
 79
     5
170
     0
171
     0
290
     0
174
     0
 93
        1
 44
0.0
173
     0
291
     1
 45
0.0
1001
ACAD
1000
AcDbSavedByObjectVersion
1070
     0
1000
AcDbSavedByObjectVersion
1070
     0
1000
AcDbSavedByObjectVersion
1070
     0
1000
AcDbSavedByObjectVersion
1070
     0
1000
AcDbSavedByObjectVersion
1070
     0
1000
AcDbSavedByObjectVersion
1070
     0
1000
AcDbSavedByObjectVersion
1070
     0
  0
DICTIONARYVAR
  5
1216
102
{ACAD_REACTORS
330
B87
102
}
330
B87
100
DictionaryVariables
280
     0
  1
1:1
  0
DICTIONARYVAR
  5
1215
102
{ACAD_REACTORS
330
B87
102
}
330
B87
100
DictionaryVariables
280
     0
  1
STANDARD
  0
DICTIONARYVAR
  5
FF4
102
{ACAD_REACTORS
330
B87
102
}
330
B87
100
DictionaryVariables
280
     0
  1
STANDARD
  0
DICTIONARYVAR
  5
B88
102
{ACAD_REACTORS
330
B87
102
}
330
B87
100
DictionaryVariables
280
     0
  1
1
  0
DICTIONARYVAR
  5
FF5
102
{ACAD_REACTORS
330
B87
102
}
330
B87
100
DictionaryVariables
280
     0
  1
1
  0
DICTIONARYVAR
  5
FF6
102
{ACAD_REACTORS
330
B87
102
}
330
B87
100
DictionaryVariables
280
     0
  1

  0
DICTIONARYVAR
  5
1217
102
{ACAD_REACTORS
330
B87
102
}
330
B87
100
DictionaryVariables
280
     0
  1
127
  0
DICTIONARY
  5
F9C
102
{ACAD_REACTORS
330
F90
102
}
330
F90
100
AcDbDictionary
281
     1
  0
XRECORD
  5
FBC
102
{ACAD_REACTORS
330
F90
102
}
330
F90
100
AcDbXrecord
280
     1
 90
-1023410169
  0
DICTIONARY
  5
ED0
102
{ACAD_REACTORS
330
ECF
102
}
330
ECF
100
AcDbDictionary
281
     1
  3
DWGSETTINGS
350
1ADE
  3
TRANSSETTINGS
350
1ADF
  0
ACAMGFILTERDAT
  5
1003
102
{ACAD_REACTORS
330
FFE
102
}
330
FFE
100
AcAmgFilterDat
 70
    15
  1
DIMENSION,AMDT_*_DIM
  2
*
  3
*
  4
*
  5
*
290
     1
1001
ACAD
1000
AcRTDxfName
1000
ACAMGFILTERDAT
  0
ACAMGFILTERDAT
  5
1002
102
{ACAD_REACTORS
330
FFE
102
}
330
FFE
100
AcAmgFilterDat
 70
    15
  1
*
  2
AM_FEA-AM_*
  3
*
  4
*
  5
*
290
     1
1001
ACAD
1000
AcRTDxfName
1000
ACAMGFILTERDAT
  0
ACAMGFILTERDAT
  5
FFF
102
{ACAD_REACTORS
330
FFE
102
}
330
FFE
100
AcAmgFilterDat
 70
    15
  1
HATCH
  2
*
  3
*
  4
*
  5
*
290
     1
1001
ACAD
1000
AcRTDxfName
1000
ACAMGFILTERDAT
  0
ACAMGFILTERDAT
  5
1000
102
{ACAD_REACTORS
330
FFE
102
}
330
FFE
100
AcAmgFilterDat
 70
    15
  1
LINE
  2
8,8N,*-8,*-8N,AM_8,AM_8N,*-AM_8,*-AM_8N
  3
*
  4
*
  5
INSERT,STDPART2D
290
     1
1001
ACAD
1000
AcRTDxfName
1000
ACAMGFILTERDAT
  0
ACAMGFILTERDAT
  5
1004
102
{ACAD_REACTORS
330
FFE
102
}
330
FFE
100
AcAmgFilterDat
 70
    15
  1
ARC
  2
AM_5
  3
*
  4
2
  5
INSERT
290
     0
1001
ACAD
1000
AcRTDxfName
1000
ACAMGFILTERDAT
  0
ACAMGFILTERDAT
  5
1001
102
{ACAD_REACTORS
330
FFE
102
}
330
FFE
100
AcAmgFilterDat
 70
    15
  1
ACMFCFRAME,ACMDATUMTARGET,ACMDATUMID,ACMWELDSYM,ACMSURFSYM,ACMFEATID,ACMPARTREF,ACMBALLOON,AMDTEDGESYM,AMGSCREWCALCTABLE
  2
*
  3
*
  4
*
  5
*
290
     1
1001
ACAD
1000
AcRTDxfName
1000
ACAMGFILTERDAT
  0
LAYER_INDEX
  5
FE7
102
{ACAD_REACTORS
330
FE6
102
}
330
FE6
100
AcDbIndex
 40
2456703.600846481
100
AcDbLayerIndex
  8
0
360
FE8
 90
        0
  8
OUTLINE
360
FE9
 90
      178
  8
SIZE
360
FEA
 90
        6
  8
BASIS
360
FEB
 90
        1
  8
DETAIL
360
FEC
 90
      172
  8
ARRANGE
360
FED
 90
        3
  8
DEFPOINTS
360
FEE
 90
        0
  8
ETC
360
FEF
 90
        1
  8
FIX
360
FF0
 90
        0
  8
NOTE
360
FF1
 90
        6
  8
SERVICESPACE
360
FF2
 90
        0
  8
SYMBOLLINE
360
FF3
 90
        0
  0
DICTIONARY
  5
115E
330
115D
100
AcDbDictionary
280
     1
281
     1
  3
ACAD_XREC_ROUNDTRIP
360
1276
  3
BUMPTILE
360
1160
  3
DIFFUSETILE
360
115F
  3
OPACITYTILE
360
1163
  3
REFLECTIONTILE
360
1162
  3
REFRACTIONTILE
360
1164
  3
SPECULARTILE
360
1161
  0
DICTIONARY
  5
1156
330
1155
100
AcDbDictionary
280
     1
281
     1
  3
ACAD_XREC_ROUNDTRIP
360
1275
  3
BUMPTILE
360
1158
  3
DIFFUSETILE
360
1157
  3
OPACITYTILE
360
115B
  3
REFLECTIONTILE
360
115A
  3
REFRACTIONTILE
360
115C
  3
SPECULARTILE
360
1159
  0
DICTIONARY
  5
1166
330
1165
100
AcDbDictionary
280
     1
281
     1
  3
ACAD_XREC_ROUNDTRIP
360
1277
  3
BUMPTILE
360
1168
  3
DIFFUSETILE
360
1167
  3
OPACITYTILE
360
116B
  3
REFLECTIONTILE
360
116A
  3
REFRACTIONTILE
360
116C
  3
SPECULARTILE
360
1169
  0
DICTIONARY
  5
126A
330
ECB
100
AcDbDictionary
280
     1
281
     1
  3
ACAD_ROUNDTRIP_2008_TABLESTYLE_CELLSTYLEMAP
360
1EEE
  3
ACAD_XREC_ROUNDTRIP
360
1EF4
  0
IDBUFFER
  5
FE8
330
0
100
AcDbIdBuffer
  0
IDBUFFER
  5
FE9
330
0
100
AcDbIdBuffer
330
1E4F
330
1E50
330
1E51
330
1E52
330
1E53
330
1E54
330
1E55
330
1E56
330
1E57
330
1E58
330
1E59
330
1E5A
330
1E5B
330
1E5C
330
1E5D
330
1E5E
330
1E5F
330
1E60
330
1E61
330
1E62
330
1E63
330
1E64
330
1E65
330
1E66
330
1E67
330
1E68
330
1E69
330
1E6A
330
1E6B
330
1E6C
330
1E6D
330
1E6E
330
1E6F
330
1E70
330
1E71
330
1E72
330
1E73
330
1E74
330
1E75
330
1E76
330
1E77
330
1E78
330
1E79
330
1E7A
330
1E7B
330
1E7C
330
1E7D
330
1E7E
330
1E7F
330
1E80
330
1E81
330
1E82
330
1E83
330
1E84
330
1E85
330
1E86
330
1E87
330
1E88
330
1E89
330
1E8A
330
1E8B
330
1E8C
330
1E8D
330
1E8E
330
1E8F
330
1E90
330
1E91
330
1E92
330
1E93
330
1E94
330
1E95
330
1E96
330
1E97
330
1E98
330
1E99
330
1E9A
330
1E9B
330
1E9C
330
1E9D
330
1E9E
330
1E9F
330
1EA0
330
1EA1
330
1EA2
330
1EA3
330
1EA4
330
1EA5
330
1EA6
330
1EA7
330
1EA8
330
1EA9
330
1EAA
330
1EAB
330
1EAC
330
953
330
954
330
955
330
956
330
957
330
958
330
1E01
330
1E02
330
1E03
330
1E04
330
1E05
330
1E06
330
1E07
330
1E08
330
1E09
330
1E0A
330
1E0B
330
1E0C
330
1E0D
330
1E0E
330
1E0F
330
1E10
330
1E11
330
1E12
330
1E13
330
1E14
330
1E15
330
1E16
330
1E17
330
1E18
330
1E19
330
1E1A
330
1E1B
330
1E1C
330
1E1D
330
1E1E
330
1E1F
330
1E20
330
1E21
330
1E22
330
1E23
330
1E24
330
1E25
330
1E26
330
1E27
330
1E28
330
1E29
330
1E2A
330
1E2B
330
1E2C
330
1E2D
330
1E2E
330
1E2F
330
1E30
330
1E31
330
1E32
330
1E33
330
1E34
330
1E35
330
1E36
330
1E37
330
1E38
330
1E39
330
1E3A
330
1E3B
330
1E3C
330
1E3D
330
1E3E
330
1E3F
330
1E40
330
1E41
330
1E42
330
1E43
330
1E44
330
1E45
330
1E46
330
1E47
330
1E48
330
1E49
330
1E4A
330
1E4B
330
1E4C
330
1E4D
330
1E4E
  0
IDBUFFER
  5
FEA
330
0
100
AcDbIdBuffer
330
1EAD
330
1EAE
330
1EB3
330
1EB8
330
1EB9
330
1EBA
  0
IDBUFFER
  5
FEB
330
0
100
AcDbIdBuffer
330
1EB4
  0
IDBUFFER
  5
FEC
330
0
100
AcDbIdBuffer
330
1DA3
330
1DA4
330
1DA5
330
1DA6
330
1DA7
330
1DA8
330
1DA9
330
1DAA
330
1DAB
330
1DAC
330
1DAD
330
1DAE
330
1DAF
330
1DB0
330
1DB1
330
1DB2
330
1DB3
330
1DB4
330
1DB5
330
1DB6
330
1DB7
330
1DB8
330
1DB9
330
1DBA
330
1DBB
330
1DBC
330
1DBD
330
1DBE
330
1DBF
330
1DC0
330
1DC1
330
1DC2
330
1DC3
330
1DC4
330
1DC5
330
1DC6
330
1DC7
330
1DC8
330
1DC9
330
1DCA
330
1DCB
330
1DCC
330
1DCD
330
1DCE
330
1DCF
330
1DD0
330
1DD1
330
1DD2
330
1DD3
330
1DD4
330
1DD5
330
1DD6
330
1DD7
330
1DD8
330
1DD9
330
1DDA
330
1DDB
330
1DDC
330
1DDD
330
1DDE
330
1DDF
330
1DE0
330
1DE1
330
1DE2
330
1DE3
330
1DE4
330
1DE5
330
1DE6
330
1DE7
330
1DE8
330
1DE9
330
1DEA
330
1DEB
330
1DEC
330
1DED
330
1DEE
330
1DEF
330
1DF0
330
1DF1
330
1DF2
330
1DF3
330
1DF4
330
1DF5
330
1DF6
330
1DF7
330
1DF8
330
1DF9
330
1DFA
330
1DFB
330
1DFC
330
1DFD
330
1DFE
330
1DFF
330
1E00
330
1D55
330
1D56
330
1D57
330
1D58
330
1D59
330
1D5A
330
1D5B
330
1D5C
330
1D5D
330
1D5E
330
1D5F
330
1D60
330
1D61
330
1D62
330
1D63
330
1D64
330
1D65
330
1D66
330
1D67
330
1D68
330
1D69
330
1D6A
330
1D6B
330
1D6C
330
1D6D
330
1D6E
330
1D6F
330
1D70
330
1D71
330
1D72
330
1D73
330
1D74
330
1D75
330
1D76
330
1D77
330
1D78
330
1D79
330
1D7A
330
1D7B
330
1D7C
330
1D7D
330
1D7E
330
1D7F
330
1D80
330
1D81
330
1D82
330
1D83
330
1D84
330
1D85
330
1D86
330
1D87
330
1D88
330
1D89
330
1D8A
330
1D8B
330
1D8C
330
1D8D
330
1D8E
330
1D8F
330
1D90
330
1D91
330
1D92
330
1D93
330
1D94
330
1D95
330
1D96
330
1D97
330
1D98
330
1D99
330
1D9A
330
1D9B
330
1D9C
330
1D9D
330
1D9E
330
1D9F
330
1DA0
330
1DA1
330
1DA2
  0
IDBUFFER
  5
FED
330
0
100
AcDbIdBuffer
330
1EB5
330
1EB6
330
1EB7
  0
IDBUFFER
  5
FEE
330
0
100
AcDbIdBuffer
  0
IDBUFFER
  5
FEF
330
0
100
AcDbIdBuffer
330
1EBD
  0
IDBUFFER
  5
FF0
330
0
100
AcDbIdBuffer
  0
IDBUFFER
  5
FF1
330
0
100
AcDbIdBuffer
330
1EAF
330
1EB0
330
1EB1
330
1EB2
330
1EBB
330
1EBC
  0
IDBUFFER
  5
FF2
330
0
100
AcDbIdBuffer
  0
IDBUFFER
  5
FF3
330
0
100
AcDbIdBuffer
  0
XRECORD
  5
1276
102
{ACAD_REACTORS
330
115E
102
}
330
115E
100
AcDbXrecord
280
     1
102
MATERIAL
148
0.0
149
0.0
149
0.0
 93
        0
 94
      127
282
     0
 72
     0
 77
     0
171
     0
175
     0
179
     0
273
     0
  0
XRECORD
  5
1160
102
{ACAD_REACTORS
330
115E
102
}
330
115E
100
AcDbXrecord
280
     1
270
     1
271
     1
  0
XRECORD
  5
115F
102
{ACAD_REACTORS
330
115E
102
}
330
115E
100
AcDbXrecord
280
     1
270
     1
271
     1
  0
XRECORD
  5
1163
102
{ACAD_REACTORS
330
115E
102
}
330
115E
100
AcDbXrecord
280
     1
270
     1
271
     1
  0
XRECORD
  5
1162
102
{ACAD_REACTORS
330
115E
102
}
330
115E
100
AcDbXrecord
280
     1
270
     1
271
     1
  0
XRECORD
  5
1164
102
{ACAD_REACTORS
330
115E
102
}
330
115E
100
AcDbXrecord
280
     1
270
     1
271
     1
  0
XRECORD
  5
1161
102
{ACAD_REACTORS
330
115E
102
}
330
115E
100
AcDbXrecord
280
     1
270
     1
271
     1
  0
XRECORD
  5
1275
102
{ACAD_REACTORS
330
1156
102
}
330
1156
100
AcDbXrecord
280
     1
102
MATERIAL
148
0.0
149
0.0
149
0.0
 93
        0
 94
      127
282
     0
 72
     0
 77
     0
171
     0
175
     0
179
     0
273
     0
  0
XRECORD
  5
1158
102
{ACAD_REACTORS
330
1156
102
}
330
1156
100
AcDbXrecord
280
     1
270
     1
271
     1
  0
XRECORD
  5
1157
102
{ACAD_REACTORS
330
1156
102
}
330
1156
100
AcDbXrecord
280
     1
270
     1
271
     1
  0
XRECORD
  5
115B
102
{ACAD_REACTORS
330
1156
102
}
330
1156
100
AcDbXrecord
280
     1
270
     1
271
     1
  0
XRECORD
  5
115A
102
{ACAD_REACTORS
330
1156
102
}
330
1156
100
AcDbXrecord
280
     1
270
     1
271
     1
  0
XRECORD
  5
115C
102
{ACAD_REACTORS
330
1156
102
}
330
1156
100
AcDbXrecord
280
     1
270
     1
271
     1
  0
XRECORD
  5
1159
102
{ACAD_REACTORS
330
1156
102
}
330
1156
100
AcDbXrecord
280
     1
270
     1
271
     1
  0
XRECORD
  5
1277
102
{ACAD_REACTORS
330
1166
102
}
330
1166
100
AcDbXrecord
280
     1
102
MATERIAL
148
0.0
149
0.0
149
0.0
 93
        0
 94
      127
282
     0
 72
     0
 77
     0
171
     0
175
     0
179
     0
273
     0
  0
XRECORD
  5
1168
102
{ACAD_REACTORS
330
1166
102
}
330
1166
100
AcDbXrecord
280
     1
270
     1
271
     1
  0
XRECORD
  5
1167
102
{ACAD_REACTORS
330
1166
102
}
330
1166
100
AcDbXrecord
280
     1
270
     1
271
     1
  0
XRECORD
  5
116B
102
{ACAD_REACTORS
330
1166
102
}
330
1166
100
AcDbXrecord
280
     1
270
     1
271
     1
  0
XRECORD
  5
116A
102
{ACAD_REACTORS
330
1166
102
}
330
1166
100
AcDbXrecord
280
     1
270
     1
271
     1
  0
XRECORD
  5
116C
102
{ACAD_REACTORS
330
1166
102
}
330
1166
100
AcDbXrecord
280
     1
270
     1
271
     1
  0
XRECORD
  5
1169
102
{ACAD_REACTORS
330
1166
102
}
330
1166
100
AcDbXrecord
280
     1
270
     1
271
     1
  0
CELLSTYLEMAP
  5
1EEE
102
{ACAD_REACTORS
330
126A
102
}
330
126A
100
AcDbCellStyleMap
 90
        3
300
CELLSTYLE
  1
TABLEFORMAT_BEGIN
 90
        5
170
     1
 91
        0
 92
    32768
 62
   257
 93
        1
300
CONTENTFORMAT
  1
CONTENTFORMAT_BEGIN
 90
        0
 91
        0
 92
        4
 93
        0
300

 40
0.0
140
1.0
 94
        5
 62
     0
340
852
144
0.25
309
CONTENTFORMAT_END
171
     1
301
MARGIN
  1
CELLMARGIN_BEGIN
 40
0.06
 40
0.06
 40
0.06
 40
0.06
 40
0.18
 40
0.18
309
CELLMARGIN_END
 94
        6
 95
        1
302
GRIDFORMAT
  1
GRIDFORMAT_BEGIN
 90
        0
 91
        1
 62
     0
 92
       -2
340
0
 93
        0
 40
0.045
309
GRIDFORMAT_END
 95
        2
302
GRIDFORMAT
  1
GRIDFORMAT_BEGIN
 90
        0
 91
        1
 62
     0
 92
       -2
340
0
 93
        0
 40
0.045
309
GRIDFORMAT_END
 95
        4
302
GRIDFORMAT
  1
GRIDFORMAT_BEGIN
 90
        0
 91
        1
 62
     0
 92
       -2
340
0
 93
        0
 40
0.045
309
GRIDFORMAT_END
 95
        8
302
GRIDFORMAT
  1
GRIDFORMAT_BEGIN
 90
        0
 91
        1
 62
     0
 92
       -2
340
0
 93
        0
 40
0.045
309
GRIDFORMAT_END
 95
       16
302
GRIDFORMAT
  1
GRIDFORMAT_BEGIN
 90
        0
 91
        1
 62
     0
 92
       -2
340
0
 93
        0
 40
0.045
309
GRIDFORMAT_END
 95
       32
302
GRIDFORMAT
  1
GRIDFORMAT_BEGIN
 90
        0
 91
        1
 62
     0
 92
       -2
340
0
 93
        0
 40
0.045
309
GRIDFORMAT_END
309
TABLEFORMAT_END
  1
CELLSTYLE_BEGIN
 90
        1
 91
        1
300
_TITLE
309
CELLSTYLE_END
300
CELLSTYLE
  1
TABLEFORMAT_BEGIN
 90
        5
170
     1
 91
        0
 92
        0
 62
   257
 93
        1
300
CONTENTFORMAT
  1
CONTENTFORMAT_BEGIN
 90
        0
 91
        0
 92
        4
 93
        0
300

 40
0.0
140
1.0
 94
        5
 62
     0
340
852
144
0.18
309
CONTENTFORMAT_END
171
     1
301
MARGIN
  1
CELLMARGIN_BEGIN
 40
0.06
 40
0.06
 40
0.06
 40
0.06
 40
0.18
 40
0.18
309
CELLMARGIN_END
 94
        6
 95
        1
302
GRIDFORMAT
  1
GRIDFORMAT_BEGIN
 90
        0
 91
        1
 62
     0
 92
       -2
340
0
 93
        0
 40
0.045
309
GRIDFORMAT_END
 95
        2
302
GRIDFORMAT
  1
GRIDFORMAT_BEGIN
 90
        0
 91
        1
 62
     0
 92
       -2
340
0
 93
        0
 40
0.045
309
GRIDFORMAT_END
 95
        4
302
GRIDFORMAT
  1
GRIDFORMAT_BEGIN
 90
        0
 91
        1
 62
     0
 92
       -2
340
0
 93
        0
 40
0.045
309
GRIDFORMAT_END
 95
        8
302
GRIDFORMAT
  1
GRIDFORMAT_BEGIN
 90
        0
 91
        1
 62
     0
 92
       -2
340
0
 93
        0
 40
0.045
309
GRIDFORMAT_END
 95
       16
302
GRIDFORMAT
  1
GRIDFORMAT_BEGIN
 90
        0
 91
        1
 62
     0
 92
       -2
340
0
 93
        0
 40
0.045
309
GRIDFORMAT_END
 95
       32
302
GRIDFORMAT
  1
GRIDFORMAT_BEGIN
 90
        0
 91
        1
 62
     0
 92
       -2
340
0
 93
        0
 40
0.045
309
GRIDFORMAT_END
309
TABLEFORMAT_END
  1
CELLSTYLE_BEGIN
 90
        2
 91
        1
300
_HEADER
309
CELLSTYLE_END
300
CELLSTYLE
  1
TABLEFORMAT_BEGIN
 90
        5
170
     1
 91
        0
 92
        0
 62
   257
 93
        1
300
CONTENTFORMAT
  1
CONTENTFORMAT_BEGIN
 90
        0
 91
        0
 92
        4
 93
        0
300

 40
0.0
140
1.0
 94
        2
 62
     0
340
852
144
0.18
309
CONTENTFORMAT_END
171
     1
301
MARGIN
  1
CELLMARGIN_BEGIN
 40
0.06
 40
0.06
 40
0.06
 40
0.06
 40
0.18
 40
0.18
309
CELLMARGIN_END
 94
        6
 95
        1
302
GRIDFORMAT
  1
GRIDFORMAT_BEGIN
 90
        0
 91
        1
 62
     0
 92
       -2
340
0
 93
        0
 40
0.045
309
GRIDFORMAT_END
 95
        2
302
GRIDFORMAT
  1
GRIDFORMAT_BEGIN
 90
        0
 91
        1
 62
     0
 92
       -2
340
0
 93
        0
 40
0.045
309
GRIDFORMAT_END
 95
        4
302
GRIDFORMAT
  1
GRIDFORMAT_BEGIN
 90
        0
 91
        1
 62
     0
 92
       -2
340
0
 93
        0
 40
0.045
309
GRIDFORMAT_END
 95
        8
302
GRIDFORMAT
  1
GRIDFORMAT_BEGIN
 90
        0
 91
        1
 62
     0
 92
       -2
340
0
 93
        0
 40
0.045
309
GRIDFORMAT_END
 95
       16
302
GRIDFORMAT
  1
GRIDFORMAT_BEGIN
 90
        0
 91
        1
 62
     0
 92
       -2
340
0
 93
        0
 40
0.045
309
GRIDFORMAT_END
 95
       32
302
GRIDFORMAT
  1
GRIDFORMAT_BEGIN
 90
        0
 91
        1
 62
     0
 92
       -2
340
0
 93
        0
 40
0.045
309
GRIDFORMAT_END
309
TABLEFORMAT_END
  1
CELLSTYLE_BEGIN
 90
        3
 91
        2
300
_DATA
309
CELLSTYLE_END
  0
XRECORD
  5
1EF4
102
{ACAD_REACTORS
330
126A
102
}
330
126A
100
AcDbXrecord
280
     1
102
ACAD_ROUNDTRIP_PRE2007_TABLESTYLE
 90
        4
 91
        0
  1

 92
        4
 93
        0
  2

 94
        4
 95
        0
  3

  0
ENDSEC
  0
EOF
