  0
SECTION
  2
HEADER
  9
$ACADVER
  1
AC1018
  9
$ACADMAINTVER
 70
   104
  9
$DWGCODEPAGE
  3
ANSI_932
  9
$LASTSAVEDBY
  1
a080061
  9
$CUSTOMPROPERTYTAG
  1
AmdtFileType
  9
$CUSTOMPROPERTY
  1
84
  9
$INSBASE
 10
0.0
 20
0.0
 30
0.0
  9
$EXTMIN
 10
-593.2205034224571
 20
-2091.155996070193
 30
-0.0015258207003583
  9
$EXTMAX
 10
979.3350334853567
 20
-1009.368890325269
 30
0.0000000349246037
  9
$LIMMIN
 10
-2970.0
 20
-2100.0
  9
$LIMMAX
 10
2970.0
 20
2100.0
  9
$ORTHOMODE
 70
     1
  9
$REGENMODE
 70
     0
  9
$FILLMODE
 70
     1
  9
$QTEXTMODE
 70
     0
  9
$MIRRTEXT
 70
     0
  9
$LTSCALE
 40
20.0
  9
$ATTMODE
 70
     1
  9
$TEXTSIZE
 40
64.0
  9
$TRACEWID
 40
0.05
  9
$TEXTSTYLE
  7
STANDARD
  9
$CLAYER
  8
0
  9
$CELTYPE
  6
CONTINUOUS
  9
$CECOLOR
 62
   256
  9
$CELTSCALE
 40
1.0
  9
$DISPSILH
 70
     0
  9
$DIMSCALE
 40
1.0
  9
$DIMASZ
 40
0.12
  9
$DIMEXO
 40
0.05
  9
$DIMDLI
 40
0.5
  9
$DIMRND
 40
0.0
  9
$DIMDLE
 40
0.0
  9
$DIMEXE
 40
0.1
  9
$DIMTP
 40
0.1
  9
$DIMTM
 40
0.1
  9
$DIMTXT
 40
0.12
  9
$DIMCEN
 40
0.0
  9
$DIMTSZ
 40
0.0
  9
$DIMTOL
 70
     0
  9
$DIMLIM
 70
     0
  9
$DIMTIH
 70
     1
  9
$DIMTOH
 70
     1
  9
$DIMSE1
 70
     0
  9
$DIMSE2
 70
     0
  9
$DIMTAD
 70
     0
  9
$DIMZIN
 70
     7
  9
$DIMBLK
  1

  9
$DIMASO
 70
     1
  9
$DIMSHO
 70
     0
  9
$DIMPOST
  1

  9
$DIMAPOST
  1
mm
  9
$DIMALT
 70
     0
  9
$DIMALTD
 70
     2
  9
$DIMALTF
 40
25.4
  9
$DIMLFAC
 40
1.0
  9
$DIMTOFL
 70
     0
  9
$DIMTVP
 40
0.0
  9
$DIMTIX
 70
     0
  9
$DIMSOXD
 70
     0
  9
$DIMSAH
 70
     0
  9
$DIMBLK1
  1

  9
$DIMBLK2
  1

  9
$DIMSTYLE
  2
AM_ANSI
  9
$DIMCLRD
 70
   256
  9
$DIMCLRE
 70
   256
  9
$DIMCLRT
 70
     2
  9
$DIMTFAC
 40
0.71
  9
$DIMGAP
 40
0.06
  9
$DIMJUST
 70
     0
  9
$DIMSD1
 70
     0
  9
$DIMSD2
 70
     0
  9
$DIMTOLJ
 70
     1
  9
$DIMTZIN
 70
     7
  9
$DIMALTZ
 70
     0
  9
$DIMALTTZ
 70
     0
  9
$DIMUPT
 70
     0
  9
$DIMDEC
 70
     4
  9
$DIMTDEC
 70
     4
  9
$DIMALTU
 70
     2
  9
$DIMALTTD
 70
     4
  9
$DIMTXSTY
  7
STANDARD
  9
$DIMAUNIT
 70
     0
  9
$DIMADEC
 70
     0
  9
$DIMALTRND
 40
0.0
  9
$DIMAZIN
 70
     2
  9
$DIMDSEP
 70
    46
  9
$DIMATFIT
 70
     3
  9
$DIMFRAC
 70
     0
  9
$DIMLDRBLK
  1

  9
$DIMLUNIT
 70
     2
  9
$DIMLWD
 70
    -1
  9
$DIMLWE
 70
    -1
  9
$DIMTMOVE
 70
     0
  9
$LUNITS
 70
     2
  9
$LUPREC
 70
     4
  9
$SKETCHINC
 40
0.1
  9
$FILLETRAD
 40
4.0
  9
$AUNITS
 70
     1
  9
$AUPREC
 70
     3
  9
$MENU
  1
ACAD
  9
$ELEVATION
 40
0.0
  9
$PELEVATION
 40
0.0
  9
$THICKNESS
 40
50.0
  9
$LIMCHECK
 70
     0
  9
$CHAMFERA
 40
5.0
  9
$CHAMFERB
 40
5.0
  9
$CHAMFERC
 40
0.0
  9
$CHAMFERD
 40
0.0
  9
$SKPOLY
 70
     0
  9
$TDCREATE
 40
2452321.396199653
  9
$TDUCREATE
 40
2452321.021199653
  9
$TDUPDATE
 40
2456703.607377408
  9
$TDUUPDATE
 40
2456703.232377408
  9
$TDINDWG
 40
0.8226362037
  9
$TDUSRTIMER
 40
0.8226335301
  9
$USRTIMER
 70
     1
  9
$ANGBASE
 50
0.0
  9
$ANGDIR
 70
     0
  9
$PDMODE
 70
     3
  9
$PDSIZE
 40
-2.0
  9
$PLINEWID
 40
0.0
  9
$SPLFRAME
 70
     0
  9
$SPLINETYPE
 70
     6
  9
$SPLINESEGS
 70
     8
  9
$HANDSEED
  5
2314
  9
$SURFTAB1
 70
     6
  9
$SURFTAB2
 70
     6
  9
$SURFTYPE
 70
     6
  9
$SURFU
 70
     6
  9
$SURFV
 70
     6
  9
$UCSBASE
  2

  9
$UCSNAME
  2

  9
$UCSORG
 10
0.0
 20
0.0
 30
0.0
  9
$UCSXDIR
 10
1.0
 20
0.0
 30
0.0
  9
$UCSYDIR
 10
0.0
 20
1.0
 30
0.0
  9
$UCSORTHOREF
  2

  9
$UCSORTHOVIEW
 70
     0
  9
$UCSORGTOP
 10
0.0
 20
0.0
 30
0.0
  9
$UCSORGBOTTOM
 10
0.0
 20
0.0
 30
0.0
  9
$UCSORGLEFT
 10
0.0
 20
0.0
 30
0.0
  9
$UCSORGRIGHT
 10
0.0
 20
0.0
 30
0.0
  9
$UCSORGFRONT
 10
0.0
 20
0.0
 30
0.0
  9
$UCSORGBACK
 10
0.0
 20
0.0
 30
0.0
  9
$PUCSBASE
  2

  9
$PUCSNAME
  2

  9
$PUCSORG
 10
0.0
 20
0.0
 30
0.0
  9
$PUCSXDIR
 10
1.0
 20
0.0
 30
0.0
  9
$PUCSYDIR
 10
0.0
 20
1.0
 30
0.0
  9
$PUCSORTHOREF
  2

  9
$PUCSORTHOVIEW
 70
     0
  9
$PUCSORGTOP
 10
0.0
 20
0.0
 30
0.0
  9
$PUCSORGBOTTOM
 10
0.0
 20
0.0
 30
0.0
  9
$PUCSORGLEFT
 10
0.0
 20
0.0
 30
0.0
  9
$PUCSORGRIGHT
 10
0.0
 20
0.0
 30
0.0
  9
$PUCSORGFRONT
 10
0.0
 20
0.0
 30
0.0
  9
$PUCSORGBACK
 10
0.0
 20
0.0
 30
0.0
  9
$USERI1
 70
     0
  9
$USERI2
 70
     0
  9
$USERI3
 70
     0
  9
$USERI4
 70
     0
  9
$USERI5
 70
     0
  9
$USERR1
 40
20.0
  9
$USERR2
 40
0.0
  9
$USERR3
 40
0.0
  9
$USERR4
 40
0.0
  9
$USERR5
 40
0.0
  9
$WORLDVIEW
 70
     1
  9
$SHADEDGE
 70
     3
  9
$SHADEDIF
 70
    70
  9
$TILEMODE
 70
     1
  9
$MAXACTVP
 70
    64
  9
$PINSBASE
 10
0.0
 20
0.0
 30
0.0
  9
$PLIMCHECK
 70
     0
  9
$PEXTMIN
 10
1.000000000000000E+20
 20
1.000000000000000E+20
 30
1.000000000000000E+20
  9
$PEXTMAX
 10
-1.000000000000000E+20
 20
-1.000000000000000E+20
 30
-1.000000000000000E+20
  9
$PLIMMIN
 10
0.0
 20
0.0
  9
$PLIMMAX
 10
12.0
 20
9.0
  9
$UNITMODE
 70
     0
  9
$VISRETAIN
 70
     1
  9
$PLINEGEN
 70
     0
  9
$PSLTSCALE
 70
     1
  9
$TREEDEPTH
 70
  3020
  9
$CMLSTYLE
  2
STANDARD
  9
$CMLJUST
 70
     0
  9
$CMLSCALE
 40
1.0
  9
$PROXYGRAPHICS
 70
     1
  9
$MEASUREMENT
 70
     0
  9
$CELWEIGHT
370
    -1
  9
$ENDCAPS
280
     0
  9
$JOINSTYLE
280
     0
  9
$LWDISPLAY
290
     0
  9
$INSUNITS
 70
     0
  9
$HYPERLINKBASE
  1

  9
$STYLESHEET
  1

  9
$XEDIT
290
     1
  9
$CEPSNTYPE
380
     0
  9
$PSTYLEMODE
290
     1
  9
$FINGERPRINTGUID
  2
{68F3F60F-982D-43C0-B084-568AB2094408}
  9
$VERSIONGUID
  2
{6644EB9E-4213-4687-A4C7-CA5E34EE71E2}
  9
$EXTNAMES
290
     1
  9
$PSVPSCALE
 40
0.0
  9
$OLESTARTUP
290
     0
  9
$SORTENTS
280
   127
  9
$INDEXCTL
280
     1
  9
$HIDETEXT
280
     0
  9
$XCLIPFRAME
290
     0
  9
$HALOGAP
280
     0
  9
$OBSCOLOR
 70
   257
  9
$OBSLTYPE
280
     0
  9
$INTERSECTIONDISPLAY
280
     0
  9
$INTERSECTIONCOLOR
 70
   257
  9
$DIMASSOC
280
     1
  9
$PROJECTNAME
  1

  0
ENDSEC
  0
SECTION
  2
CLASSES
  0
CLASS
  1
ACDBDICTIONARYWDFLT
  2
AcDbDictionaryWithDefault
  3
ObjectDBX Classes
 90
        0
 91
        1
280
     0
281
     0
  0
CLASS
  1
DICTIONARYVAR
  2
AcDbDictionaryVar
  3
ObjectDBX Classes
 90
        0
 91
        7
280
     0
281
     0
  0
CLASS
  1
TABLESTYLE
  2
AcDbTableStyle
  3
ObjectDBX Classes
 90
     4095
 91
        1
280
     0
281
     0
  0
CLASS
  1
ACME_DOCUMENT
  2
AcMeDbDoc
  3
AcMeServices
 90
     1024
 91
        1
280
     0
281
     0
  0
CLASS
  1
AMGSETTINGSOBJ
  2
AmgSettingsObj
  3
"AcadM|Product Description: AutoCAD Mechanical|Company: Autodesk, Inc."
 90
     1024
 91
        2
280
     0
281
     0
  0
CLASS
  1
ACMESCOPE
  2
AcMeScope
  3
AcMeServices
 90
     1024
 91
        1
280
     0
281
     0
  0
CLASS
  1
ACMECOMMANDHISTORY
  2
AcMeCommandHistory
  3
AcMeServices
 90
     1024
 91
        1
280
     0
281
     0
  0
CLASS
  1
ACIMSYSVARMAN
  2
AcImSysVarManager
  3
AcMeServices
 90
     1024
 91
        6
280
     0
281
     0
  0
CLASS
  1
ACIMREALSYSVAR
  2
AcImRealSysVar
  3
AcMeServices
 90
     1024
 91
       16
280
     0
281
     0
  0
CLASS
  1
ACIMINTSYSVAR
  2
AcImIntSysVar
  3
AcMeServices
 90
     1024
 91
       45
280
     0
281
     0
  0
CLASS
  1
ACMEDRAWINGMAN
  2
AcMeDrawingMan
  3
AcMeServices
 90
     1024
 91
        1
280
     0
281
     0
  0
CLASS
  1
ACMEVIEW
  2
AcMeView
  3
AcMeServices
 90
     1024
 91
        1
280
     0
281
     0
  0
CLASS
  1
ACDBENTITYCACHE
  2
AcMeEntityCache
  3
AcMeServices
 90
     1024
 91
        1
280
     0
281
     0
  0
CLASS
  1
GSMANAGER
  2
AcMeGSManager
  3
AcMeServices
 90
     1024
 91
        1
280
     0
281
     0
  0
CLASS
  1
AMDTINTERNALREACTOR
  2
AmdtInternalReactor
  3
AcMeServices
 90
     1024
 91
        2
280
     0
281
     0
  0
CLASS
  1
ACMESTATEMGR
  2
AcMeStateMgr
  3
AcMeServices
 90
     1024
 91
        1
280
     0
281
     0
  0
CLASS
  1
ACGREFMASTER
  2
AcGrefMaster
  3
AcAttribServices
 90
     1024
 91
        1
280
     0
281
     0
  0
CLASS
  1
AM_DRAWING_MGR
  2
AcDmDwgMgr
  3
AcMechDwgViewMgmt
 90
     1024
 91
        1
280
     0
281
     0
  0
CLASS
  1
AM_DWG_DOCUMENT
  2
AcDmDwgDocument
  3
AcMechDwgViewMgmt
 90
     1024
 91
        1
280
     0
281
     0
  0
CLASS
  1
AM_DWG_SHEET
  2
AcDmSheet
  3
AcMechDwgViewMgmt
 90
     1024
 91
        1
280
     0
281
     0
  0
CLASS
  1
AM_VIEWDIMPARMAP
  2
AcDmViewDimParMap
  3
AcMechDwgViewMgmt
 90
     1024
 91
        1
280
     0
281
     0
  0
CLASS
  1
AM_DWGMGR_NAME
  2
AcDmDwgMgrName
  3
AcMechDwgViewMgmt
 90
     1024
 91
        1
280
     0
281
     0
  0
CLASS
  1
ACME_DATABASE
  2
AcMeDbDatabase
  3
AcMeServices
 90
     1024
 91
        2
280
     0
281
     0
  0
CLASS
  1
ACRFINSADJUSTERMGR
  2
AcRfInsAdjusterMgr
  3
AcMeServices
 90
     1024
 91
        1
280
     0
281
     0
  0
CLASS
  1
ACGREFACADMASTER
  2
AcGrefacadMaster
  3
AcGrefServices
 90
     1024
 91
        1
280
     0
281
     0
  0
CLASS
  1
AMDTMENUSTATEMGR
  2
AmdtMenuStateMgr
  3
McadcomServices
 90
     1024
 91
        1
280
     0
281
     0
  0
CLASS
  1
AMDTMCOMMENUSTATE
  2
AmdtMcomMenuState
  3
McadcomServices
 90
     1024
 91
        1
280
     0
281
     0
  0
CLASS
  1
AMIMASTER
  2
AmiMaster
  3
AmiServices
 90
     1024
 91
        1
280
     0
281
     0
  0
CLASS
  1
ASAPP
  2
AcAsAppObject
  3
AutoSurfServices
 90
     1024
 91
        1
280
     0
281
     0
  0
CLASS
  1
IM_STATIC_MAN
  2
AcImStaticVarManager
  3
AcMeServices
 90
     1024
 91
        1
280
     0
281
     0
  0
CLASS
  1
ACIMSTRSYSVAR
  2
AcImStrSysVar
  3
AcMeServices
 90
     1024
 91
       11
280
     0
281
     0
  0
CLASS
  1
ACIMDBLSTATICVAR
  2
AcImDblStaticVar
  3
AcMeServices
 90
     1024
 91
       20
280
     0
281
     0
  0
CLASS
  1
ACIMSTRSTATICVAR
  2
AcImStrStaticVar
  3
AcMeServices
 90
     1024
 91
       12
280
     0
281
     0
  0
CLASS
  1
ACIMINTSTATICVAR
  2
AcImIntStaticVar
  3
AcMeServices
 90
     1024
 91
       17
280
     0
281
     0
  0
CLASS
  1
ACASGREFMASTER
  2
AcAsGrefMaster
  3
AutoSurfResolverServices
 90
     1024
 91
        1
280
     0
281
     0
  0
CLASS
  1
ACADGREFMODULE
  2
AcAdGrefModule
  3
AdGrefServices
 90
     1024
 91
        1
280
     0
281
     0
  0
CLASS
  1
AMDTMAPISURFMOUDULE
  2
AmdtMApiSurfModule
  3
MApiSurfServices
 90
     1024
 91
        0
280
     0
281
     0
  0
CLASS
  1
MAPIAMMOUDLE
  2
MApiAmModule
  3
MApiAmServices
 90
     1024
 91
        1
280
     0
281
     0
  0
CLASS
  1
AMDTADMENUSTATE
  2
AmdtAdMenuState
  3
DesignerServices
 90
     1024
 91
        1
280
     0
281
     0
  0
CLASS
  1
ADAPPL
  2
AcAdAppl
  3
DesignerServices
 90
     1024
 91
        1
280
     0
281
     0
  0
CLASS
  1
DEPMGR
  2
AcAdDepMgr
  3
DesignerServices
 90
     1024
 91
        1
280
     0
281
     0
  0
CLASS
  1
PARAMMGR
  2
AcAdParamMgr
  3
DesignerServices
 90
     1024
 91
        1
280
     0
281
     0
  0
CLASS
  1
PARAMSCOPE
  2
AcAdParamScope
  3
DesignerServices
 90
     1024
 91
        1
280
     0
281
     0
  0
CLASS
  1
NAMEDAPPL
  2
AcAdNamedAppl
  3
DesignerServices
 90
     1024
 91
        1
280
     0
281
     0
  0
CLASS
  1
AMDTDMMENUSTATE
  2
AmdtDmMenuState
  3
AcMechDwgViewMgmt
 90
     1024
 91
        1
280
     0
281
     0
  0
CLASS
  1
MAPIADMODULE
  2
MApiAdModule
  3
MApiAdServices
 90
     1024
 91
        1
280
     0
281
     0
  0
CLASS
  1
AMDTAMMENUSTATE
  2
AmdtAmMenuState
  3
DesignerAssemblies
 90
     1024
 91
        1
280
     0
281
     0
  0
CLASS
  1
ACAMPROJECT
  2
AcAmProject
  3
DesignerAssemblies
 90
     1024
 91
        1
280
     0
281
     0
  0
CLASS
  1
ACAMGRCOMPDEF
  2
AcAmGrCompDef
  3
DesignerAssemblies
 90
     1024
 91
        1
280
     0
281
     0
  0
CLASS
  1
ACCMCONTEXT
  2
AcCmContext
  3
DesignerAssemblies
 90
     1024
 91
        1
280
     0
281
     0
  0
CLASS
  1
ACAMCOMPDEF
  2
AcAmCompDef
  3
DesignerAssemblies
 90
     1024
 91
        1
280
     0
281
     0
  0
CLASS
  1
ACAMCOMPDEFMGR
  2
AcAmCompDefMgr
  3
DesignerAssemblies
 90
     1024
 91
        1
280
     0
281
     0
  0
CLASS
  1
AMCONTEXTMGR
  2
AcAmContextMgr
  3
DesignerAssemblies
 90
     1024
 91
        1
280
     0
281
     0
  0
CLASS
  1
ACAMCONTEXTMODELER
  2
AcAmContextModeler
  3
DesignerAssemblies
 90
     1024
 91
        1
280
     0
281
     0
  0
CLASS
  1
ACMDATADICTIONARY
  2
AcmDataDictionary
  3
"AcmSymBB|Product Description: AutoCAD Mechanical|Company: Autodesk, Inc."
 90
     1024
 91
        1
280
     0
281
     0
  0
CLASS
  1
ACMDATAENTRYBLOCK
  2
AcmDataEntryBlock
  3
AcmSymBB|Product Description: AutoCAD Mechanical|Company: Autodesk, Inc.
 90
     1024
 91
        2
280
     0
281
     0
  0
CLASS
  1
CATALOGSTATE
  2
AcAmCatalogState
  3
DesignerAssemblies
 90
     1024
 91
        1
280
     0
281
     0
  0
CLASS
  1
ACAMGRCOMPDEFSET
  2
AcAmGrCompDefSet
  3
DesignerAssemblies
 90
     1024
 91
        1
280
     0
281
     0
  0
CLASS
  1
AMDTBROWSERDBTAB
  2
AmdtBrowserDbTab
  3
McadcomServices
 90
     1024
 91
        1
280
     0
281
     0
  0
CLASS
  1
CBROWSERAPPOBJECT
  2
CBrowserAppObject
  3
McadcomServices
 90
     1024
 91
        3
280
     0
281
     0
  0
CLASS
  1
DM_PLACEHOLDER
  2
AcDmSelsetPlaceholder
  3
AcMechDwgViewMgmt
 90
     1024
 91
        1
280
     0
281
     0
  0
CLASS
  1
ACMSTANDARDANSI
  2
AcmStandardANSI
  3
"Amdt_StdImp|Product Description: AutoCAD Mechanical|Company: Autodesk, Inc."
 90
     1024
 91
        1
280
     0
281
     0
  0
CLASS
  1
AMGOBJPROPCFG
  2
AmgObjPropCfg
  3
"AmgLay|Product Description: AutoCAD Mechanical|Company: Autodesk, Inc."
 90
     1025
 91
        1
280
     0
281
     0
  0
CLASS
  1
ACMSURFSTANDARDANSI
  2
AcmSurfTextStdANSI
  3
"Amdt_StdImp|Product Description: AutoCAD Mechanical|Company: Autodesk, Inc."
 90
     1024
 91
        1
280
     0
281
     0
  0
CLASS
  1
ACMFCFSTANDARDANSI
  2
AcmFCFStdANSI
  3
"Amdt_StdImp|Product Description: AutoCAD Mechanical|Company: Autodesk, Inc."
 90
     1024
 91
        1
280
     0
281
     0
  0
CLASS
  1
ACMWELDSTANDARDANSI
  2
AcmWeldingStdANSI
  3
"Amdt_StdImp|Product Description: AutoCAD Mechanical|Company: Autodesk, Inc."
 90
     1024
 91
        1
280
     0
281
     0
  0
CLASS
  1
ACMIDSTANDARDANSI
  2
AcmIdStdANSI
  3
"Amdt_StdImp|Product Description: AutoCAD Mechanical|Company: Autodesk, Inc."
 90
     1024
 91
        1
280
     0
281
     0
  0
CLASS
  1
ACMDATUMSTANDARDANSI
  2
AcmDatumStdANSI
  3
"Amdt_StdImp|Product Description: AutoCAD Mechanical|Company: Autodesk, Inc."
 90
     1024
 91
        1
280
     0
281
     0
  0
CLASS
  1
ACMBOMSTANDARDANSI
  2
AcmBOMStdANSI
  3
"Amdt_StdImp|Product Description: AutoCAD Mechanical|Company: Autodesk, Inc."
 90
     1024
 91
        1
280
     0
281
     0
  0
CLASS
  1
ACMDETAILSTANDARDANSI
  2
AmdtDetailSymStdANSI
  3
"Amdt_StdImp|Product Description: AutoCAD Mechanical|Company: Autodesk, Inc."
 90
     1024
 91
        1
280
     0
281
     0
  0
CLASS
  1
ACMSECTIONSTANDARDANSI
  2
AmdtSectionSymStdANSI
  3
"Amdt_StdImp|Product Description: AutoCAD Mechanical|Company: Autodesk, Inc."
 90
     1024
 91
        1
280
     0
281
     0
  0
CLASS
  1
ACMCENTERLINESTANDARDANSI
  2
AmdtCenterLineStdANSI
  3
"Amdt_StdImp|Product Description: AutoCAD Mechanical|Company: Autodesk, Inc."
 90
     1024
 91
        1
280
     0
281
     0
  0
CLASS
  1
ACMTHREADLINESTANDARDANSI
  2
AmdtThreadLineStdANSI
  3
"Amdt_StdImp|Product Description: AutoCAD Mechanical|Company: Autodesk, Inc."
 90
     1024
 91
        1
280
     0
281
     0
  0
CLASS
  1
ACMNOTESTANDARDANSI
  2
AmdtNoteStdANSI
  3
"Amdt_StdImp|Product Description: AutoCAD Mechanical|Company: Autodesk, Inc."
 90
     1024
 91
        1
280
     0
281
     0
  0
CLASS
  1
AMDTNOTETEMPLATEDB
  2
AmdtNoteTemplateDB
  3
AcmSymBB|Product Description: AutoCAD Mechanical|Company: Autodesk, Inc.
 90
     1024
 91
        6
280
     0
281
     0
  0
CLASS
  1
ACAMGLAYSTD
  2
AcAmgLayStd
  3
"AmgLay|Product Description: AutoCAD Mechanical|Company: Autodesk, Inc."
 90
     1024
 91
        1
280
     0
281
     0
  0
CLASS
  1
ACAMGDIMSTD
  2
AcAmgDimStd
  3
"AmgDim|Product Description: AutoCAD Mechanical|Company: Autodesk, Inc."
 90
     1024
 91
        1
280
     0
281
     0
  0
CLASS
  1
ACAMGHOLECHARTSTDANSI
  2
AcAmgHoleChartStdANSI
  3
AmgDim|Product Description: AutoCAD Mechanical|Company: Autodesk, Inc.
 90
     1024
 91
        1
280
     0
281
     0
  0
CLASS
  1
ACAMGTITLESTD
  2
AcAmgTitleStd
  3
"AmgTitle|Product Description: AutoCAD Mechanical|Company: Autodesk, Inc."
 90
     4095
 91
        1
280
     0
281
     0
  0
CLASS
  1
ACAMGFILTERDAT
  2
AcAmgFilterDat
  3
"AcadM|Product Description: AutoCAD Mechanical|Company: Autodesk, Inc."
 90
     1024
 91
        6
280
     0
281
     0
  0
CLASS
  1
LAYER_INDEX
  2
AcDbLayerIndex
  3
ObjectDBX Classes
 90
        0
 91
        1
280
     0
281
     0
  0
CLASS
  1
IDBUFFER
  2
AcDbIdBuffer
  3
ObjectDBX Classes
 90
        0
 91
       12
280
     0
281
     0
  0
CLASS
  1
SORTENTSTABLE
  2
AcDbSortentsTable
  3
ObjectDBX Classes
 90
        0
 91
        2
280
     0
281
     0
  0
CLASS
  1
MATERIAL
  2
AcDbMaterial
  3
ObjectDBX Classes
 90
     1153
 91
        3
280
     0
281
     0
  0
CLASS
  1
VISUALSTYLE
  2
AcDbVisualStyle
  3
ObjectDBX Classes
 90
     4095
 91
       16
280
     0
281
     0
  0
CLASS
  1
SCALE
  2
AcDbScale
  3
ObjectDBX Classes
 90
     1153
 91
       33
280
     0
281
     0
  0
CLASS
  1
MLEADERSTYLE
  2
AcDbMLeaderStyle
  3
ACDB_MLEADERSTYLE_CLASS
 90
     4095
 91
        1
280
     0
281
     0
  0
CLASS
  1
CELLSTYLEMAP
  2
AcDbCellStyleMap
  3
ObjectDBX Classes
 90
     1152
 91
        2
280
     0
281
     0
  0
CLASS
  1
ACRFATTGENMGR
  2
AcRfAttGeneralMgr
  3
AcAttribServices
 90
     1024
 91
        1
280
     0
281
     0
  0
CLASS
  1
ACRFOBJATTMGR
  2
AcRfObjAttGroupMgr
  3
AcAttribServices
 90
     1024
 91
        1
280
     0
281
     0
  0
CLASS
  1
ACRFMCADAPIATTHOLDER
  2
AcRfMCADAPIAttHolder
  3
AcAttribServices
 90
     1024
 91
        1
280
     0
281
     0
  0
CLASS
  1
AMDTSYSATTR
  2
AmdtSystemAttribute
  3
AcAttribServices
 90
     1024
 91
        1
280
     0
281
     0
  0
CLASS
  1
ACMTAPERSTANDARDANSI
  2
AcmTaperStdANSI
  3
"Amdt_StdImp|Product Description: AutoCAD Mechanical|Company: Autodesk, Inc."
 90
     1024
 91
        1
280
     0
281
     0
  0
CLASS
  1
ACMANOOTATIONVIEWSTANDARDANSI
  2
AmdtAnViewStdANSI
  3
"Amdt_StdImp|Product Description: AutoCAD Mechanical|Company: Autodesk, Inc."
 90
     1024
 91
        1
280
     0
281
     0
  0
ENDSEC
  0
SECTION
  2
TABLES
  0
TABLE
  2
VPORT
  5
849
330
0
100
AcDbSymbolTable
 70
     1
  0
VPORT
  5
139A
330
849
100
AcDbSymbolTableRecord
100
AcDbViewportTableRecord
  2
*Active
 70
     0
 10
0.0
 20
0.0
 11
1.0
 21
1.0
 12
28.76594034766508
 22
-1551.67599417498
 13
0.0
 23
0.0
 14
1.0
 24
1.0
 15
0.0
 25
0.0
 16
0.0
 26
0.0
 36
1.0
 17
164.2913246837848
 27
1.41355097724974
 37
0.0
 40
1088.788964034534
 41
1.470842332613391
 42
50.0
 43
0.0
 44
0.0
 50
0.0
 51
0.0
 71
     0
 72
   100
 73
     1
 74
     0
 75
     0
 76
     0
 77
     0
 78
     0
281
     0
 65
     0
110
0.0
120
0.0
130
0.0
111
1.0
121
0.0
131
0.0
112
0.0
122
1.0
132
0.0
 79
     0
146
0.0
  0
ENDTAB
  0
TABLE
  2
LTYPE
  5
846
330
0
100
AcDbSymbolTable
 70
    19
  0
LTYPE
  5
854
330
846
100
AcDbSymbolTableRecord
100
AcDbLinetypeTableRecord
  2
BYBLOCK
 70
     0
  3

 72
    65
 73
     0
 40
0.0
  0
LTYPE
  5
855
330
846
100
AcDbSymbolTableRecord
100
AcDbLinetypeTableRecord
  2
BYLAYER
 70
     0
  3

 72
    65
 73
     0
 40
0.0
  0
LTYPE
  5
856
330
846
100
AcDbSymbolTableRecord
100
AcDbLinetypeTableRecord
  2
CONTINUOUS
 70
     0
  3
実線
 72
    65
 73
     0
 40
0.0
  0
LTYPE
  5
865
330
846
100
AcDbSymbolTableRecord
100
AcDbLinetypeTableRecord
  2
DASHDOT
 70
     0
  3
____ _ ____ _ ____ _ ____ _ ____ _ ____ _ ____
 72
    65
 73
     4
 40
5.5
 49
4.0
 74
     0
 49
-0.6
 74
     0
 49
0.3
 74
     0
 49
-0.6
 74
     0
  0
LTYPE
  5
11AA
330
846
100
AcDbSymbolTableRecord
100
AcDbLinetypeTableRecord
  2
HIDDEN
 70
     0
  3
Hidden __ __ __ __ __ __ __ __ __ __ __ __ __ _
 72
    65
 73
     2
 40
0.375
 49
0.25
 74
     0
 49
-0.125
 74
     0
  0
LTYPE
  5
11AB
330
846
100
AcDbSymbolTableRecord
100
AcDbLinetypeTableRecord
  2
PHANTOM2
 70
     0
  3
Phantom (.5x) ___ _ _ ___ _ _ ___ _ _ ___ _ _
 72
    65
 73
     6
 40
1.25
 49
0.625
 74
     0
 49
-0.125
 74
     0
 49
0.125
 74
     0
 49
-0.125
 74
     0
 49
0.125
 74
     0
 49
-0.125
 74
     0
  0
LTYPE
  5
11AC
330
846
100
AcDbSymbolTableRecord
100
AcDbLinetypeTableRecord
  2
CENTER
 70
     0
  3
Center ____ _ ____ _ ____ _ ____ _ ____ _ ____
 72
    65
 73
     4
 40
2.0
 49
1.25
 74
     0
 49
-0.25
 74
     0
 49
0.25
 74
     0
 49
-0.25
 74
     0
  0
LTYPE
  5
11FB
330
846
100
AcDbSymbolTableRecord
100
AcDbLinetypeTableRecord
  2
ASULTYPE
 70
     0
  3
実線
 72
    65
 73
     2
 40
3.0
 49
2.5
 74
     0
 49
0.5
 74
     0
  0
LTYPE
  5
11FC
330
846
100
AcDbSymbolTableRecord
100
AcDbLinetypeTableRecord
  2
ASVLTYPE
 70
     0
  3
__ __ __ __ __ __ __ __ __ __ __ __ __ __ __ __ __ __ __ __ __
 72
    65
 73
     2
 40
0.75
 49
0.5
 74
     0
 49
-0.25
 74
     0
  0
LTYPE
  5
1243
330
846
100
AcDbSymbolTableRecord
100
AcDbLinetypeTableRecord
  2
AM_ISO02W050
 70
     0
  3
__ __ __ __ __ __ __ __ __ __ __ __ __ __ __
 72
    65
 73
     2
 40
7.5
 49
6.0
 74
     0
 49
-1.5
 74
     0
  0
LTYPE
  5
1244
330
846
100
AcDbSymbolTableRecord
100
AcDbLinetypeTableRecord
  2
AM_ISO08W050
 70
     0
  3
____ . ____ . ____ . ____ . ____ . ____ . ____
 72
    65
 73
     4
 40
18.0
 49
12.0
 74
     0
 49
-1.5
 74
     0
 49
3.0
 74
     0
 49
-1.5
 74
     0
  0
LTYPE
  5
1245
330
846
100
AcDbSymbolTableRecord
100
AcDbLinetypeTableRecord
  2
AM_ISO09W050
 70
     0
  3
_____ . . _____ . . _____ . . ____ .. ____
 72
    65
 73
     6
 40
22.5
 49
12.0
 74
     0
 49
-1.5
 74
     0
 49
3.0
 74
     0
 49
-1.5
 74
     0
 49
3.0
 74
     0
 49
-1.5
 74
     0
  0
LTYPE
  5
1246
330
846
100
AcDbSymbolTableRecord
100
AcDbLinetypeTableRecord
  2
Amconstr
 70
     0
  3
_______________________
 72
    65
 73
     2
 40
9999.0
 49
9999.0
 74
     0
 49
0.0
 74
     0
  0
LTYPE
  5
1247
330
846
100
AcDbSymbolTableRecord
100
AcDbLinetypeTableRecord
  2
AM_ISO08W050x2
 70
     0
  3
__ . __ . __ . __ . __ . __
 72
    65
 73
     4
 40
9.0
 49
6.0
 74
     0
 49
-0.75
 74
     0
 49
1.5
 74
     0
 49
-0.75
 74
     0
  0
LTYPE
  5
1248
330
846
100
AcDbSymbolTableRecord
100
AcDbLinetypeTableRecord
  2
AM_ISO02W050x2
 70
     0
  3
 _ _ _ _ _ _ _ _ _ _ _ _
 72
    65
 73
     2
 40
3.75
 49
3.0
 74
     0
 49
-0.75
 74
     0
  0
LTYPE
  5
124B
330
846
100
AcDbSymbolTableRecord
100
AcDbLinetypeTableRecord
  2
Amzigzag
 70
     0
  3
/\/-/\/-/\/-/\/-/\/-/\/
 72
    65
 73
     2
 40
11.0001
 49
0.0001
 74
     4
 75
   136
340
124A
 46
0.04
 50
0.0
 44
0.0
 45
0.0
 49
-11.0
 74
     0
  0
LTYPE
  5
124C
330
846
100
AcDbSymbolTableRecord
100
AcDbLinetypeTableRecord
  2
CENTER2
 70
     0
  3
Center (.5x) ___ _ ___ _ ___ _ ___ _ ___ _ ___
 72
    65
 73
     4
 40
1.125
 49
0.75
 74
     0
 49
-0.125
 74
     0
 49
0.125
 74
     0
 49
-0.125
 74
     0
  0
LTYPE
  5
124D
330
846
100
AcDbSymbolTableRecord
100
AcDbLinetypeTableRecord
  2
HIDDEN2
 70
     0
  3
Hidden (.5x) _ _ _ _ _ _ _ _ _ _ _ _ _ _ _ _ _
 72
    65
 73
     2
 40
0.1875
 49
0.125
 74
     0
 49
-0.0625
 74
     0
  0
LTYPE
  5
124E
330
846
100
AcDbSymbolTableRecord
100
AcDbLinetypeTableRecord
  2
Amzigzag2
 70
     0
  3
/\/-/\/-/\/-/\/-/\/-/\/
 72
    65
 73
     2
 40
0.4401
 49
0.0001
 74
     4
 75
   136
340
124A
 46
0.0016
 50
0.0
 44
0.0
 45
0.0
 49
-0.4400000000000003
 74
     0
  0
LTYPE
  5
125C
330
846
100
AcDbSymbolTableRecord
100
AcDbLinetypeTableRecord
  2
ACANSTGB
 70
     0
  3
__ . . __ . .
 72
    65
 73
     6
 40
0.35433070866
 49
0.15748031496
 74
     0
 49
-0.03937007874
 74
     0
 49
0.03937007874
 74
     0
 49
-0.03937007874
 74
     0
 49
0.03937007874
 74
     0
 49
-0.03937007874
 74
     0
  0
LTYPE
  5
125D
330
846
100
AcDbSymbolTableRecord
100
AcDbLinetypeTableRecord
  2
ACANSTGL
 70
     0
  3
_ _ _ _ _
 72
    65
 73
     2
 40
0.11811023622
 49
0.07874015748
 74
     0
 49
-0.03937007874
 74
     0
  0
ENDTAB
  0
TABLE
  2
LAYER
  5
843
102
{ACAD_XDICTIONARY
360
15AB
102
}
330
0
100
AcDbSymbolTable
 70
    12
  0
LAYER
  5
851
102
{ACAD_XDICTIONARY
360
142F
102
}
330
843
100
AcDbSymbolTableRecord
100
AcDbLayerTableRecord
  2
0
 70
     0
 62
     7
  6
CONTINUOUS
370
    -3
390
B83
  0
LAYER
  5
863
102
{ACAD_XDICTIONARY
360
1431
102
}
330
843
100
AcDbSymbolTableRecord
100
AcDbLayerTableRecord
  2
OUTLINE
 70
     0
 62
     3
  6
CONTINUOUS
370
    -3
390
B83
  0
LAYER
  5
866
102
{ACAD_XDICTIONARY
360
1433
102
}
330
843
100
AcDbSymbolTableRecord
100
AcDbLayerTableRecord
  2
SIZE
 70
     0
 62
    30
  6
CONTINUOUS
370
    -3
390
B83
  0
LAYER
  5
867
102
{ACAD_XDICTIONARY
360
1435
102
}
330
843
100
AcDbSymbolTableRecord
100
AcDbLayerTableRecord
  2
BASIS
 70
     0
 62
     6
  6
DASHDOT
370
    -3
390
B83
  0
LAYER
  5
868
102
{ACAD_XDICTIONARY
360
1437
102
}
330
843
100
AcDbSymbolTableRecord
100
AcDbLayerTableRecord
  2
DETAIL
 70
     0
 62
     5
  6
CONTINUOUS
370
    -3
390
B83
  0
LAYER
  5
869
102
{ACAD_XDICTIONARY
360
1439
102
}
330
843
100
AcDbSymbolTableRecord
100
AcDbLayerTableRecord
  2
ARRANGE
 70
     0
 62
     1
  6
CONTINUOUS
370
    -3
390
B83
  0
LAYER
  5
86A
330
843
100
AcDbSymbolTableRecord
100
AcDbLayerTableRecord
  2
DEFPOINTS
 70
     0
 62
     7
  6
CONTINUOUS
290
     0
370
    -3
390
B83
  0
LAYER
  5
86B
102
{ACAD_XDICTIONARY
360
143B
102
}
330
843
100
AcDbSymbolTableRecord
100
AcDbLayerTableRecord
  2
ETC
 70
     0
 62
    61
  6
CONTINUOUS
370
    -3
390
B83
  0
LAYER
  5
86C
102
{ACAD_XDICTIONARY
360
143D
102
}
330
843
100
AcDbSymbolTableRecord
100
AcDbLayerTableRecord
  2
FIX
 70
     0
 62
    11
  6
CONTINUOUS
370
    -3
390
B83
  0
LAYER
  5
86D
102
{ACAD_XDICTIONARY
360
143F
102
}
330
843
100
AcDbSymbolTableRecord
100
AcDbLayerTableRecord
  2
NOTE
 70
     0
 62
     4
  6
CONTINUOUS
370
    -3
390
B83
  0
LAYER
  5
86E
102
{ACAD_XDICTIONARY
360
1441
102
}
330
843
100
AcDbSymbolTableRecord
100
AcDbLayerTableRecord
  2
SERVICESPACE
 70
     0
 62
     2
  6
DASHDOT
370
    -3
390
B83
  0
LAYER
  5
86F
102
{ACAD_XDICTIONARY
360
1443
102
}
330
843
100
AcDbSymbolTableRecord
100
AcDbLayerTableRecord
  2
SYMBOLLINE
 70
     0
 62
    15
  6
CONTINUOUS
370
    -3
390
B83
  0
ENDTAB
  0
TABLE
  2
STYLE
  5
844
330
0
100
AcDbSymbolTable
 70
     5
  0
STYLE
  5
852
330
844
100
AcDbSymbolTableRecord
100
AcDbTextStyleTableRecord
  2
STANDARD
 70
     0
 40
64.0
 41
0.9
 50
0.0
 71
     0
 42
64.0
  3
SIMPLEX.shx
  4
BIGFONT.shx
  0
STYLE
  5
124A
330
844
100
AcDbSymbolTableRecord
100
AcDbTextStyleTableRecord
  2

 70
     1
 40
0.0
 41
1.0
 50
0.0
 71
     0
 42
64.0
  3
genltshp.shx
  4

  0
STYLE
  5
124F
330
844
100
AcDbSymbolTableRecord
100
AcDbTextStyleTableRecord
  2
ACANSTS
 70
     0
 40
1.0
 41
1.0
 50
0.0
 71
     0
 42
64.0
  3
romans.shx
  4
extfont.shx
  0
STYLE
  5
125B
330
844
100
AcDbSymbolTableRecord
100
AcDbTextStyleTableRecord
  2
ACANSGDT
 70
     0
 40
0.0
 41
1.0
 50
0.0
 71
     0
 42
64.0
  3
amgdt.shx
  4

  0
STYLE
  5
15A5
330
844
100
AcDbSymbolTableRecord
100
AcDbTextStyleTableRecord
  2
ADESK1
 70
     0
 40
0.0
 41
1.0
 50
0.0
 71
     0
 42
0.12
  3
romanc.shx
  4
extfont.shx
  0
ENDTAB
  0
TABLE
  2
VIEW
  5
847
330
0
100
AcDbSymbolTable
 70
     1
  0
VIEW
  5
870
330
847
100
AcDbSymbolTableRecord
100
AcDbViewTableRecord
  2
ALL
 70
     0
 40
4282.619807999997
 10
0.0
 20
41.30990399999999
 41
5940.0
 11
0.0
 21
0.0
 31
1.0
 12
0.0
 22
0.0
 32
0.0
 42
50.0
 43
0.0
 44
0.0
 50
0.0
 71
     0
281
     0
 72
     0
  0
ENDTAB
  0
TABLE
  2
UCS
  5
848
330
0
100
AcDbSymbolTable
 70
     0
  0
ENDTAB
  0
TABLE
  2
APPID
  5
84A
330
0
100
AcDbSymbolTable
 70
    23
  0
APPID
  5
853
330
84A
100
AcDbSymbolTableRecord
100
AcDbRegAppTableRecord
  2
ACAD
 70
     0
  0
APPID
  5
1176
330
84A
100
AcDbSymbolTableRecord
100
AcDbRegAppTableRecord
  2
GENIUS_GENDIM_13
 70
     0
  0
APPID
  5
1177
330
84A
100
AcDbSymbolTableRecord
100
AcDbRegAppTableRecord
  2
GENIUS_GENDTOL_13
 70
     0
  0
APPID
  5
1178
330
84A
100
AcDbSymbolTableRecord
100
AcDbRegAppTableRecord
  2
GENIUS_GE3DTOL_13
 70
     0
  0
APPID
  5
117B
330
84A
100
AcDbSymbolTableRecord
100
AcDbRegAppTableRecord
  2
MCAD_NO_VIS
 70
     0
  0
APPID
  5
117C
330
84A
100
AcDbSymbolTableRecord
100
AcDbRegAppTableRecord
  2
ACAD_TEMP_GRAPHIC
 70
     0
  0
APPID
  5
11AE
330
84A
100
AcDbSymbolTableRecord
100
AcDbRegAppTableRecord
  2
AD_DRAW
 70
     0
  0
APPID
  5
11B1
330
84A
100
AcDbSymbolTableRecord
100
AcDbRegAppTableRecord
  2
ACATTRIBSERVICES
 70
     0
  0
APPID
  5
11FD
330
84A
100
AcDbSymbolTableRecord
100
AcDbRegAppTableRecord
  2
ASURF_PCURVE_APPNAME
 70
     0
  0
APPID
  5
1202
330
84A
100
AcDbSymbolTableRecord
100
AcDbRegAppTableRecord
  2
AMG_3D2D_5.0
 70
     0
  0
APPID
  5
1233
330
84A
100
AcDbSymbolTableRecord
100
AcDbRegAppTableRecord
  2
DESIGNERASSEMBLIES
 70
     0
  0
APPID
  5
123A
330
84A
100
AcDbSymbolTableRecord
100
AcDbRegAppTableRecord
  2
ACADM_DIM_EDIT
 70
     0
  0
APPID
  5
123B
330
84A
100
AcDbSymbolTableRecord
100
AcDbRegAppTableRecord
  2
AMDT_DM_ADJ
 70
     0
  0
APPID
  5
126A
330
84A
100
AcDbSymbolTableRecord
100
AcDbRegAppTableRecord
  2
ACAD_DSTYLE_DIMARC_LENGTH_SYMBOL
 70
     0
  0
APPID
  5
126B
330
84A
100
AcDbSymbolTableRecord
100
AcDbRegAppTableRecord
  2
ACAD_DSTYLE_DIMJOGGED_JOGANGLE_SYMBOL
 70
     0
  0
APPID
  5
13EC
330
84A
100
AcDbSymbolTableRecord
100
AcDbRegAppTableRecord
  2
ACAD_MLEADERVER
 70
     0
  0
APPID
  5
1561
330
84A
100
AcDbSymbolTableRecord
100
AcDbRegAppTableRecord
  2
ACAD_EXEMPT_FROM_CAD_STANDARDS
 70
     0
  0
APPID
  5
15A8
330
84A
100
AcDbSymbolTableRecord
100
AcDbRegAppTableRecord
  2
ACAD_PSEXT
 70
     0
  0
APPID
  5
15A9
330
84A
100
AcDbSymbolTableRecord
100
AcDbRegAppTableRecord
  2
ACAD_DSTYLE_DIMJAG
 70
     0
  0
APPID
  5
15AA
330
84A
100
AcDbSymbolTableRecord
100
AcDbRegAppTableRecord
  2
ACAD_DSTYLE_DIMTALN
 70
     0
  0
APPID
  5
1816
330
84A
100
AcDbSymbolTableRecord
100
AcDbRegAppTableRecord
  2
ACAD_DSTYLE_DIM_LINETYPE
 70
     0
  0
APPID
  5
1817
330
84A
100
AcDbSymbolTableRecord
100
AcDbRegAppTableRecord
  2
ACAD_DSTYLE_DIM_EXT1_LINETYPE
 70
     0
  0
APPID
  5
1818
330
84A
100
AcDbSymbolTableRecord
100
AcDbRegAppTableRecord
  2
ACAD_DSTYLE_DIM_EXT2_LINETYPE
 70
     0
  0
ENDTAB
  0
TABLE
  2
DIMSTYLE
  5
84B
330
0
100
AcDbSymbolTable
 70
     9
100
AcDbDimStyleTable
 71
     2
340
1269
340
871
  0
DIMSTYLE
105
871
330
84B
100
AcDbSymbolTableRecord
100
AcDbDimStyleTableRecord
  2
STANDARD
 70
     0
275
     1
284
     8
285
     8
286
     8
340
852
  0
DIMSTYLE
105
1269
330
84B
100
AcDbSymbolTableRecord
100
AcDbDimStyleTableRecord
  2
AM_ANSI
 70
     0
  4
mm
 41
0.12
 42
0.05
 43
0.5
 44
0.1
 47
0.1
 48
0.1
 78
     7
 79
     2
140
0.12
141
0.0
146
0.71
147
0.06
176
   256
177
   256
178
     2
274
     4
284
     7
340
852
371
    -1
372
    -1
1001
ACAD_DSTYLE_DIMJOGGED_JOGANGLE_SYMBOL
1070
   384
1040
0.7853981633974483
1001
ACAD_DSTYLE_DIMARC_LENGTH_SYMBOL
1070
   379
1070
     1
1001
ACAD_DSTYLE_DIM_LINETYPE
1070
   380
1005
854
1001
ACAD_DSTYLE_DIM_EXT1_LINETYPE
1070
   381
1005
854
1001
ACAD_DSTYLE_DIM_EXT2_LINETYPE
1070
   382
1005
854
  0
DIMSTYLE
105
1272
330
84B
100
AcDbSymbolTableRecord
100
AcDbDimStyleTableRecord
  2
AM_ANSI$3
 70
     0
  4
mm
 41
0.12
 42
0.05
 43
0.5
 44
0.1
 47
0.1
 48
0.1
 78
     7
 79
     2
140
0.12
141
0.0
146
0.71
147
0.06
176
   256
177
   256
178
     2
274
     4
284
     7
288
     1
289
     0
340
852
371
    -1
372
    -1
1001
ACAD_DSTYLE_DIMJOGGED_JOGANGLE_SYMBOL
1070
   384
1040
0.7853981633974483
1001
ACAD_DSTYLE_DIMARC_LENGTH_SYMBOL
1070
   379
1070
     1
1001
ACAD_DSTYLE_DIM_LINETYPE
1070
   380
1005
854
1001
ACAD_DSTYLE_DIM_EXT1_LINETYPE
1070
   381
1005
854
1001
ACAD_DSTYLE_DIM_EXT2_LINETYPE
1070
   382
1005
854
  0
DIMSTYLE
105
1275
330
84B
100
AcDbSymbolTableRecord
100
AcDbDimStyleTableRecord
  2
AM_ANSI$4
 70
     0
  4
mm
 41
0.12
 42
0.05
 43
0.5
 44
0.1
 47
0.1
 48
0.1
 78
     7
 79
     2
140
0.12
141
0.0
146
0.71
147
0.06
176
   256
177
   256
178
     2
274
     4
284
     7
340
852
371
    -1
372
    -1
1001
ACAD_DSTYLE_DIMJOGGED_JOGANGLE_SYMBOL
1070
   384
1040
0.7853981633974483
1001
ACAD_DSTYLE_DIMARC_LENGTH_SYMBOL
1070
   379
1070
     1
1001
ACAD_DSTYLE_DIM_LINETYPE
1070
   380
1005
854
1001
ACAD_DSTYLE_DIM_EXT1_LINETYPE
1070
   381
1005
854
1001
ACAD_DSTYLE_DIM_EXT2_LINETYPE
1070
   382
1005
854
  0
DIMSTYLE
105
127A
330
84B
100
AcDbSymbolTableRecord
100
AcDbDimStyleTableRecord
  2
AM_ANSI$7
 70
     0
  4
mm
 41
0.12
 42
0.05
 43
0.5
 44
0.1
 47
0.1
 48
0.1
 78
     7
 79
     2
140
0.12
141
0.0
146
0.71
147
0.06
176
   256
177
   256
178
     2
274
     4
284
     7
340
852
371
    -1
372
    -1
1001
ACAD_DSTYLE_DIMJOGGED_JOGANGLE_SYMBOL
1070
   384
1040
0.7853981633974483
1001
ACAD_DSTYLE_DIMARC_LENGTH_SYMBOL
1070
   379
1070
     1
1001
ACAD_DSTYLE_DIM_LINETYPE
1070
   380
1005
854
1001
ACAD_DSTYLE_DIM_EXT1_LINETYPE
1070
   381
1005
854
1001
ACAD_DSTYLE_DIM_EXT2_LINETYPE
1070
   382
1005
854
  0
DIMSTYLE
105
127D
330
84B
100
AcDbSymbolTableRecord
100
AcDbDimStyleTableRecord
  2
AM_ANSI$SF
 70
     0
  4
mm
 41
0.12
 42
0.05
 43
0.5
 44
0.1
 47
0.1
 48
0.1
 75
     1
 76
     1
 78
     7
 79
     2
140
0.12
141
0.0
146
0.71
147
0.06
176
   256
177
   256
178
     2
274
     4
284
     7
340
852
371
    -1
372
    -1
1001
ACAD_DSTYLE_DIMJOGGED_JOGANGLE_SYMBOL
1070
   384
1040
0.7853981633974483
1001
ACAD_DSTYLE_DIMARC_LENGTH_SYMBOL
1070
   379
1070
     1
1001
ACAD_DSTYLE_DIM_LINETYPE
1070
   380
1005
854
1001
ACAD_DSTYLE_DIM_EXT1_LINETYPE
1070
   381
1005
854
1001
ACAD_DSTYLE_DIM_EXT2_LINETYPE
1070
   382
1005
854
  0
DIMSTYLE
105
1284
330
84B
100
AcDbSymbolTableRecord
100
AcDbDimStyleTableRecord
  2
AM_ANSI$SH
 70
     0
  4
mm
 41
0.12
 42
0.05
 43
0.5
 44
0.1
 47
0.1
 48
0.1
 75
     1
 76
     1
 78
     7
 79
     2
140
0.12
141
0.0
146
0.71
147
0.06
173
     1
176
   256
177
   256
178
     2
274
     4
284
     7
340
852
343
127E
371
    -1
372
    -1
1001
ACAD_DSTYLE_DIMJOGGED_JOGANGLE_SYMBOL
1070
   384
1040
0.7853981633974483
1001
ACAD_DSTYLE_DIMARC_LENGTH_SYMBOL
1070
   379
1070
     1
1001
ACAD_DSTYLE_DIM_LINETYPE
1070
   380
1005
854
1001
ACAD_DSTYLE_DIM_EXT1_LINETYPE
1070
   381
1005
854
1001
ACAD_DSTYLE_DIM_EXT2_LINETYPE
1070
   382
1005
854
  0
DIMSTYLE
105
15A6
330
84B
100
AcDbSymbolTableRecord
100
AcDbDimStyleTableRecord
  2
STANDARD1
 70
     0
 40
6.0
 41
2.5
 42
0.625
 43
6.0
 44
1.25
 47
1.0
 48
0.5
 77
     1
 78
     8
140
2.5
141
0.0
146
0.6
147
1.0
173
     1
284
     1
340
852
341
AB7
343
AB7
344
AB7
  0
DIMSTYLE
105
15A7
102
{ACAD_REACTORS
330
22B7
330
22B8
330
22B9
330
22BA
330
22BB
330
22BC
102
}
330
84B
100
AcDbSymbolTableRecord
100
AcDbDimStyleTableRecord
  2
STANDARD$0
 70
     0
 41
12.0
 42
20.0
 44
20.0
 73
     0
 74
     0
 77
     1
 78
     9
140
64.0
141
0.0
147
10.0
271
     0
272
     0
275
     1
284
     8
285
     8
286
     8
340
852
341
AB7
342
AB2
1001
ACAD_DSTYLE_DIMJAG
1070
   388
1040
1.5
1001
ACAD_DSTYLE_DIMTALN
1070
   392
1070
     0
  0
ENDTAB
  0
TABLE
  2
BLOCK_RECORD
  5
842
330
0
100
AcDbSymbolTable
 70
    50
  0
BLOCK_RECORD
  5
85F
102
{ACAD_XDICTIONARY
360
B4F
102
}
330
842
100
AcDbSymbolTableRecord
100
AcDbBlockTableRecord
  2
*MODEL_SPACE
340
B84
  0
BLOCK_RECORD
  5
85B
102
{ACAD_XDICTIONARY
360
B4D
102
}
330
842
100
AcDbSymbolTableRecord
100
AcDbBlockTableRecord
  2
*PAPER_SPACE
340
B85
  0
BLOCK_RECORD
  5
87E
330
842
100
AcDbSymbolTableRecord
100
AcDbBlockTableRecord
  2
_ORIGIN
340
0
  0
BLOCK_RECORD
  5
AB2
330
842
100
AcDbSymbolTableRecord
100
AcDbBlockTableRecord
  2
_DOTBLANK
340
0
102
{BLKREFS
331
105B
331
105C
331
1064
331
1065
331
107F
331
1080
331
1088
331
1089
331
13FF
331
1400
331
1429
331
142A
331
146A
331
146B
331
1473
331
1474
331
156E
331
156F
331
157A
331
157B
331
1586
331
1587
331
1592
331
1593
331
159E
331
159F
331
17E0
331
17E1
331
17E9
331
17EA
331
17F2
331
17F3
331
17FB
331
17FC
331
1804
331
1805
331
1934
331
1935
331
1940
331
1941
331
194C
331
194D
331
1904
331
1905
331
1910
331
1911
331
191C
331
191D
331
1928
331
1929
331
1C21
331
1C22
331
1C2A
331
1C2B
331
1C33
331
1C34
331
1C3C
331
1C3D
331
1C45
331
1C46
331
1C4E
331
1C4F
331
1C57
331
1C58
331
1E65
331
1E66
331
1E71
331
1E72
331
1E7D
331
1E7E
331
1E89
331
1E8A
331
1E95
331
1E96
331
1EA1
331
1EA2
331
22CB
331
22CC
331
22D7
331
22D8
331
22E3
331
22E4
331
22EF
331
22F0
331
22FB
331
22FC
331
2307
331
2308
102
}
  0
BLOCK_RECORD
  5
AB7
330
842
100
AcDbSymbolTableRecord
100
AcDbBlockTableRecord
  2
_OPEN30
340
0
  0
BLOCK_RECORD
  5
EF9
330
842
100
AcDbSymbolTableRecord
100
AcDbBlockTableRecord
  2
*D3
340
0
  0
BLOCK_RECORD
  5
F05
330
842
100
AcDbSymbolTableRecord
100
AcDbBlockTableRecord
  2
*D4
340
0
  0
BLOCK_RECORD
  5
F11
330
842
100
AcDbSymbolTableRecord
100
AcDbBlockTableRecord
  2
*D5
340
0
  0
BLOCK_RECORD
  5
F1D
330
842
100
AcDbSymbolTableRecord
100
AcDbBlockTableRecord
  2
*D6
340
0
  0
BLOCK_RECORD
  5
1121
330
842
100
AcDbSymbolTableRecord
100
AcDbBlockTableRecord
  2
*D7
340
0
  0
BLOCK_RECORD
  5
113B
330
842
100
AcDbSymbolTableRecord
100
AcDbBlockTableRecord
  2
*D8
340
0
  0
BLOCK_RECORD
  5
127E
330
842
100
AcDbSymbolTableRecord
100
AcDbBlockTableRecord
  2
GENAXEH
340
0
  0
BLOCK_RECORD
  5
13F7
330
842
100
AcDbSymbolTableRecord
100
AcDbBlockTableRecord
  2
*D10
340
0
  0
BLOCK_RECORD
  5
1421
330
842
100
AcDbSymbolTableRecord
100
AcDbBlockTableRecord
  2
*D11
340
0
  0
BLOCK_RECORD
  5
1569
330
842
100
AcDbSymbolTableRecord
100
AcDbBlockTableRecord
  2
*D12
340
0
  0
BLOCK_RECORD
  5
1575
330
842
100
AcDbSymbolTableRecord
100
AcDbBlockTableRecord
  2
*D13
340
0
  0
BLOCK_RECORD
  5
1581
330
842
100
AcDbSymbolTableRecord
100
AcDbBlockTableRecord
  2
*D14
340
0
  0
BLOCK_RECORD
  5
158D
330
842
100
AcDbSymbolTableRecord
100
AcDbBlockTableRecord
  2
*D15
340
0
  0
BLOCK_RECORD
  5
1599
330
842
100
AcDbSymbolTableRecord
100
AcDbBlockTableRecord
  2
*D16
340
0
  0
BLOCK_RECORD
  5
1747
330
842
100
AcDbSymbolTableRecord
100
AcDbBlockTableRecord
  2
*D17
340
0
  0
BLOCK_RECORD
  5
1753
330
842
100
AcDbSymbolTableRecord
100
AcDbBlockTableRecord
  2
*D18
340
0
  0
BLOCK_RECORD
  5
175F
330
842
100
AcDbSymbolTableRecord
100
AcDbBlockTableRecord
  2
*D19
340
0
  0
BLOCK_RECORD
  5
176B
330
842
100
AcDbSymbolTableRecord
100
AcDbBlockTableRecord
  2
*D20
340
0
  0
BLOCK_RECORD
  5
1777
330
842
100
AcDbSymbolTableRecord
100
AcDbBlockTableRecord
  2
*D21
340
0
  0
BLOCK_RECORD
  5
18FF
330
842
100
AcDbSymbolTableRecord
100
AcDbBlockTableRecord
  2
*D22
340
0
  0
BLOCK_RECORD
  5
190B
330
842
100
AcDbSymbolTableRecord
100
AcDbBlockTableRecord
  2
*D23
340
0
  0
BLOCK_RECORD
  5
1917
330
842
100
AcDbSymbolTableRecord
100
AcDbBlockTableRecord
  2
*D24
340
0
  0
BLOCK_RECORD
  5
1923
330
842
100
AcDbSymbolTableRecord
100
AcDbBlockTableRecord
  2
*D25
340
0
  0
BLOCK_RECORD
  5
192F
330
842
100
AcDbSymbolTableRecord
100
AcDbBlockTableRecord
  2
*D26
340
0
  0
BLOCK_RECORD
  5
193B
330
842
100
AcDbSymbolTableRecord
100
AcDbBlockTableRecord
  2
*D27
340
0
  0
BLOCK_RECORD
  5
1947
330
842
100
AcDbSymbolTableRecord
100
AcDbBlockTableRecord
  2
*D28
340
0
  0
BLOCK_RECORD
  5
1BCA
330
842
100
AcDbSymbolTableRecord
100
AcDbBlockTableRecord
  2
*D29
340
0
  0
BLOCK_RECORD
  5
1BD6
330
842
100
AcDbSymbolTableRecord
100
AcDbBlockTableRecord
  2
*D30
340
0
  0
BLOCK_RECORD
  5
1BE2
330
842
100
AcDbSymbolTableRecord
100
AcDbBlockTableRecord
  2
*D31
340
0
  0
BLOCK_RECORD
  5
1BEE
330
842
100
AcDbSymbolTableRecord
100
AcDbBlockTableRecord
  2
*D32
340
0
  0
BLOCK_RECORD
  5
1BFA
330
842
100
AcDbSymbolTableRecord
100
AcDbBlockTableRecord
  2
*D33
340
0
  0
BLOCK_RECORD
  5
1C06
330
842
100
AcDbSymbolTableRecord
100
AcDbBlockTableRecord
  2
*D34
340
0
  0
BLOCK_RECORD
  5
1C12
330
842
100
AcDbSymbolTableRecord
100
AcDbBlockTableRecord
  2
*D35
340
0
  0
BLOCK_RECORD
  5
1E60
330
842
100
AcDbSymbolTableRecord
100
AcDbBlockTableRecord
  2
*D37
340
0
  0
BLOCK_RECORD
  5
1E6C
330
842
100
AcDbSymbolTableRecord
100
AcDbBlockTableRecord
  2
*D38
340
0
  0
BLOCK_RECORD
  5
1E78
330
842
100
AcDbSymbolTableRecord
100
AcDbBlockTableRecord
  2
*D39
340
0
  0
BLOCK_RECORD
  5
1E84
330
842
100
AcDbSymbolTableRecord
100
AcDbBlockTableRecord
  2
*D40
340
0
  0
BLOCK_RECORD
  5
1E90
330
842
100
AcDbSymbolTableRecord
100
AcDbBlockTableRecord
  2
*D41
340
0
  0
BLOCK_RECORD
  5
1E9C
330
842
100
AcDbSymbolTableRecord
100
AcDbBlockTableRecord
  2
*D42
340
0
  0
BLOCK_RECORD
  5
22C5
330
842
100
AcDbSymbolTableRecord
100
AcDbBlockTableRecord
  2
*D44
340
0
  0
BLOCK_RECORD
  5
22D1
330
842
100
AcDbSymbolTableRecord
100
AcDbBlockTableRecord
  2
*D45
340
0
  0
BLOCK_RECORD
  5
22DD
330
842
100
AcDbSymbolTableRecord
100
AcDbBlockTableRecord
  2
*D46
340
0
  0
BLOCK_RECORD
  5
22E9
330
842
100
AcDbSymbolTableRecord
100
AcDbBlockTableRecord
  2
*D47
340
0
  0
BLOCK_RECORD
  5
22F5
330
842
100
AcDbSymbolTableRecord
100
AcDbBlockTableRecord
  2
*D48
340
0
  0
BLOCK_RECORD
  5
2301
330
842
100
AcDbSymbolTableRecord
100
AcDbBlockTableRecord
  2
*D49
340
0
  0
ENDTAB
  0
ENDSEC
  0
SECTION
  2
BLOCKS
  0
BLOCK
  5
860
330
85F
100
AcDbEntity
  8
0
100
AcDbBlockBegin
  2
*MODEL_SPACE
 70
     0
 10
0.0
 20
0.0
 30
0.0
  3
*MODEL_SPACE
  1

  0
ENDBLK
  5
861
330
85F
100
AcDbEntity
  8
0
100
AcDbBlockEnd
  0
BLOCK
  5
85C
330
85B
100
AcDbEntity
 67
     1
  8
0
100
AcDbBlockBegin
  2
*PAPER_SPACE
 70
     0
 10
0.0
 20
0.0
 30
0.0
  3
*PAPER_SPACE
  1

  0
ENDBLK
  5
85D
330
85B
100
AcDbEntity
 67
     1
  8
0
100
AcDbBlockEnd
  0
BLOCK
  5
87F
330
87E
100
AcDbEntity
  8
0
100
AcDbBlockBegin
  2
_ORIGIN
 70
     0
 10
0.0
 20
0.0
 30
0.0
  3
_ORIGIN
  1

  0
CIRCLE
  5
880
330
87E
100
AcDbEntity
  8
0
  6
Continuous
 62
     7
100
AcDbCircle
 10
0.0
 20
0.0
 30
0.0
 40
0.5
  0
LINE
  5
881
330
87E
100
AcDbEntity
  8
0
  6
Continuous
 62
     7
100
AcDbLine
 10
0.0
 20
0.0
 30
0.0
 11
-1.0
 21
0.0
 31
0.0
  0
ENDBLK
  5
882
330
87E
100
AcDbEntity
  8
0
100
AcDbBlockEnd
  0
BLOCK
  5
AB5
330
AB2
100
AcDbEntity
  8
0
 62
     1
100
AcDbBlockBegin
  2
_DOTBLANK
 70
     0
 10
0.0
 20
0.0
 30
0.0
  3
_DOTBLANK
  1

  0
CIRCLE
  5
AB3
330
AB2
100
AcDbEntity
  8
0
  6
ByBlock
 62
     0
100
AcDbCircle
 10
0.0
 20
0.0
 30
0.0
 40
0.5
  0
LINE
  5
AB4
330
AB2
100
AcDbEntity
  8
0
  6
ByBlock
 62
     0
100
AcDbLine
 10
-0.5
 20
0.0
 30
0.0
 11
-1.0
 21
0.0
 31
0.0
  0
ENDBLK
  5
AB6
330
AB2
100
AcDbEntity
  8
0
 62
     1
100
AcDbBlockEnd
  0
BLOCK
  5
ABB
330
AB7
100
AcDbEntity
  8
0
 62
     1
100
AcDbBlockBegin
  2
_OPEN30
 70
     0
 10
0.0
 20
0.0
 30
0.0
  3
_OPEN30
  1

  0
LINE
  5
AB8
330
AB7
100
AcDbEntity
  8
0
  6
ByBlock
 62
     0
100
AcDbLine
 10
-1.0
 20
0.26794919
 30
0.0
 11
0.0
 21
0.0
 31
0.0
  0
LINE
  5
AB9
330
AB7
100
AcDbEntity
  8
0
  6
ByBlock
 62
     0
100
AcDbLine
 10
0.0
 20
0.0
 30
0.0
 11
-1.0
 21
-0.26794919
 31
0.0
  0
LINE
  5
ABA
330
AB7
100
AcDbEntity
  8
0
  6
ByBlock
 62
     0
100
AcDbLine
 10
0.0
 20
0.0
 30
0.0
 11
-1.0
 21
0.0
 31
0.0
  0
ENDBLK
  5
ABC
330
AB7
100
AcDbEntity
  8
0
 62
     1
100
AcDbBlockEnd
  0
BLOCK
  5
F03
330
EF9
100
AcDbEntity
  8
0
100
AcDbBlockBegin
  2
*D3
 70
     1
 10
0.0
 20
0.0
 30
0.0
  3
*D3
  1

  0
LINE
  5
1085
330
EF9
100
AcDbEntity
  8
SIZE
  6
Continuous
 62
     0
370
    -2
100
AcDbLine
 10
-167.5
 20
-154.0
 30
0.0
 11
-424.0027336080619
 21
-153.9999999999999
 31
0.0
  0
LINE
  5
1086
330
EF9
100
AcDbEntity
  8
SIZE
  6
Continuous
 62
     0
370
    -2
100
AcDbLine
 10
-167.5
 20
161.0
 30
0.0
 11
-424.0027336080619
 21
161.0000000000001
 31
0.0
  0
LINE
  5
1087
330
EF9
100
AcDbEntity
  8
SIZE
  6
Continuous
 62
     0
370
    -2
100
AcDbLine
 10
-404.0027336080621
 20
-141.9999999999999
 30
0.0
 11
-404.0027336080619
 21
149.0000000000001
 31
0.0
  0
INSERT
  5
1088
330
EF9
100
AcDbEntity
  8
SIZE
  6
Continuous
 62
     0
370
    -2
100
AcDbBlockReference
  2
_DOTBLANK
 10
-404.0027336080621
 20
-153.9999999999999
 30
0.0
 41
12.0
 42
12.0
 43
12.0
 50
270.0
  0
INSERT
  5
1089
330
EF9
100
AcDbEntity
  8
SIZE
  6
Continuous
 62
     0
370
    -2
100
AcDbBlockReference
  2
_DOTBLANK
 10
-404.0027336080619
 20
161.0000000000001
 30
0.0
 41
12.0
 42
12.0
 43
12.0
 50
90.0
  0
MTEXT
  5
108A
330
EF9
100
AcDbEntity
  8
SIZE
  6
Continuous
 62
     0
100
AcDbMText
 10
-446.002733608062
 20
3.500000000000028
 30
0.0
 40
64.0
 41
0.0
 71
     5
 72
     1
  1
\A1;315
 11
0.0000000000000001
 21
1.0
 31
0.0
 73
     1
 44
1.0
  0
POINT
  5
108B
330
EF9
100
AcDbEntity
  8
DEFPOINTS
  6
Continuous
 62
     0
100
AcDbPoint
 10
-147.5
 20
-154.0
 30
0.0
  0
POINT
  5
108C
330
EF9
100
AcDbEntity
  8
DEFPOINTS
  6
Continuous
 62
     0
100
AcDbPoint
 10
-147.5
 20
161.0
 30
0.0
  0
POINT
  5
108D
330
EF9
100
AcDbEntity
  8
DEFPOINTS
  6
Continuous
 62
     0
100
AcDbPoint
 10
-404.0027336080619
 20
161.0000000000001
 30
0.0
  0
ENDBLK
  5
F04
330
EF9
100
AcDbEntity
  8
0
100
AcDbBlockEnd
  0
BLOCK
  5
F0F
330
F05
100
AcDbEntity
  8
0
100
AcDbBlockBegin
  2
*D4
 70
     1
 10
0.0
 20
0.0
 30
0.0
  3
*D4
  1

  0
LINE
  5
107C
330
F05
100
AcDbEntity
  8
SIZE
  6
Continuous
 62
     0
370
    -2
100
AcDbLine
 10
-172.5
 20
143.5
 30
0.0
 11
-279.2869931611258
 21
143.5
 31
0.0
  0
LINE
  5
107D
330
F05
100
AcDbEntity
  8
SIZE
  6
Continuous
 62
     0
370
    -2
100
AcDbLine
 10
-172.5
 20
-136.5
 30
0.0
 11
-279.286993161126
 21
-136.4999999999999
 31
0.0
  0
LINE
  5
107E
330
F05
100
AcDbEntity
  8
SIZE
  6
Continuous
 62
     0
370
    -2
100
AcDbLine
 10
-259.2869931611259
 20
131.5
 30
0.0
 11
-259.2869931611259
 21
-124.4999999999999
 31
0.0
  0
INSERT
  5
107F
330
F05
100
AcDbEntity
  8
SIZE
  6
Continuous
 62
     0
370
    -2
100
AcDbBlockReference
  2
_DOTBLANK
 10
-259.2869931611259
 20
143.5
 30
0.0
 41
12.0
 42
12.0
 43
12.0
 50
90.0
  0
INSERT
  5
1080
330
F05
100
AcDbEntity
  8
SIZE
  6
Continuous
 62
     0
370
    -2
100
AcDbBlockReference
  2
_DOTBLANK
 10
-259.286993161126
 20
-136.4999999999999
 30
0.0
 41
12.0
 42
12.0
 43
12.0
 50
270.0
  0
MTEXT
  5
1081
330
F05
100
AcDbEntity
  8
SIZE
  6
Continuous
 62
     0
100
AcDbMText
 10
-301.2869931611259
 20
3.499999999999991
 30
0.0
 40
64.0
 41
0.0
 71
     5
 72
     1
  1
\A1;280
 11
0.0000000000000001
 21
1.0
 31
0.0
 73
     1
 44
1.0
  0
POINT
  5
1082
330
F05
100
AcDbEntity
  8
DEFPOINTS
  6
Continuous
 62
     0
100
AcDbPoint
 10
-152.5
 20
143.5
 30
0.0
  0
POINT
  5
1083
330
F05
100
AcDbEntity
  8
DEFPOINTS
  6
Continuous
 62
     0
100
AcDbPoint
 10
-152.5
 20
-136.5
 30
0.0
  0
POINT
  5
1084
330
F05
100
AcDbEntity
  8
DEFPOINTS
  6
Continuous
 62
     0
100
AcDbPoint
 10
-259.286993161126
 20
-136.4999999999999
 30
0.0
  0
ENDBLK
  5
F10
330
F05
100
AcDbEntity
  8
0
100
AcDbBlockEnd
  0
BLOCK
  5
F1B
330
F11
100
AcDbEntity
  8
0
100
AcDbBlockBegin
  2
*D5
 70
     1
 10
0.0
 20
0.0
 30
0.0
  3
*D5
  1

  0
LINE
  5
1061
330
F11
100
AcDbEntity
  8
SIZE
  6
Continuous
 62
     0
370
    -2
100
AcDbLine
 10
-140.0
 20
176.0
 30
0.0
 11
-140.0
 21
278.7870018026145
 31
0.0
  0
LINE
  5
1062
330
F11
100
AcDbEntity
  8
SIZE
  6
Continuous
 62
     0
370
    -2
100
AcDbLine
 10
140.0
 20
176.0
 30
0.0
 11
140.0
 21
278.7870018026145
 31
0.0
  0
LINE
  5
1063
330
F11
100
AcDbEntity
  8
SIZE
  6
Continuous
 62
     0
370
    -2
100
AcDbLine
 10
-128.0
 20
258.7870018026145
 30
0.0
 11
128.0
 21
258.7870018026145
 31
0.0
  0
INSERT
  5
1064
330
F11
100
AcDbEntity
  8
SIZE
  6
Continuous
 62
     0
370
    -2
100
AcDbBlockReference
  2
_DOTBLANK
 10
-140.0
 20
258.7870018026145
 30
0.0
 41
12.0
 42
12.0
 43
12.0
 50
180.0
  0
INSERT
  5
1065
330
F11
100
AcDbEntity
  8
SIZE
  6
Continuous
 62
     0
370
    -2
100
AcDbBlockReference
  2
_DOTBLANK
 10
140.0
 20
258.7870018026145
 30
0.0
 41
12.0
 42
12.0
 43
12.0
  0
MTEXT
  5
1066
330
F11
100
AcDbEntity
  8
SIZE
  6
Continuous
 62
     0
100
AcDbMText
 10
0.0000000000000026
 20
300.7870018026145
 30
0.0
 40
64.0
 41
0.0
 71
     5
 72
     1
  1
\A1;280
 73
     1
 44
1.0
  0
POINT
  5
1067
330
F11
100
AcDbEntity
  8
DEFPOINTS
  6
Continuous
 62
     0
100
AcDbPoint
 10
-140.0
 20
156.0
 30
0.0
  0
POINT
  5
1068
330
F11
100
AcDbEntity
  8
DEFPOINTS
  6
Continuous
 62
     0
100
AcDbPoint
 10
140.0
 20
156.0
 30
0.0
  0
POINT
  5
1069
330
F11
100
AcDbEntity
  8
DEFPOINTS
  6
Continuous
 62
     0
100
AcDbPoint
 10
140.0
 20
258.7870018026145
 30
0.0
  0
ENDBLK
  5
F1C
330
F11
100
AcDbEntity
  8
0
100
AcDbBlockEnd
  0
BLOCK
  5
F27
330
F1D
100
AcDbEntity
  8
0
100
AcDbBlockBegin
  2
*D6
 70
     1
 10
0.0
 20
0.0
 30
0.0
  3
*D6
  1

  0
LINE
  5
1058
330
F1D
100
AcDbEntity
  8
SIZE
  6
Continuous
 62
     0
370
    -2
100
AcDbLine
 10
-157.5
 20
171.0
 30
0.0
 11
-157.5
 21
380.6212162378291
 31
0.0
  0
LINE
  5
1059
330
F1D
100
AcDbEntity
  8
SIZE
  6
Continuous
 62
     0
370
    -2
100
AcDbLine
 10
157.5
 20
171.0
 30
0.0
 11
157.5
 21
380.6212162378291
 31
0.0
  0
LINE
  5
105A
330
F1D
100
AcDbEntity
  8
SIZE
  6
Continuous
 62
     0
370
    -2
100
AcDbLine
 10
-145.5
 20
360.6212162378291
 30
0.0
 11
145.5
 21
360.6212162378291
 31
0.0
  0
INSERT
  5
105B
330
F1D
100
AcDbEntity
  8
SIZE
  6
Continuous
 62
     0
370
    -2
100
AcDbBlockReference
  2
_DOTBLANK
 10
-157.5
 20
360.6212162378291
 30
0.0
 41
12.0
 42
12.0
 43
12.0
 50
180.0
  0
INSERT
  5
105C
330
F1D
100
AcDbEntity
  8
SIZE
  6
Continuous
 62
     0
370
    -2
100
AcDbBlockReference
  2
_DOTBLANK
 10
157.5
 20
360.6212162378291
 30
0.0
 41
12.0
 42
12.0
 43
12.0
  0
MTEXT
  5
105D
330
F1D
100
AcDbEntity
  8
SIZE
  6
Continuous
 62
     0
100
AcDbMText
 10
0.0000000000000026
 20
402.6212162378291
 30
0.0
 40
64.0
 41
0.0
 71
     5
 72
     1
  1
\A1;315
 73
     1
 44
1.0
  0
POINT
  5
105E
330
F1D
100
AcDbEntity
  8
DEFPOINTS
  6
Continuous
 62
     0
100
AcDbPoint
 10
-157.5
 20
151.0
 30
0.0
  0
POINT
  5
105F
330
F1D
100
AcDbEntity
  8
DEFPOINTS
  6
Continuous
 62
     0
100
AcDbPoint
 10
157.5
 20
151.0
 30
0.0
  0
POINT
  5
1060
330
F1D
100
AcDbEntity
  8
DEFPOINTS
  6
Continuous
 62
     0
100
AcDbPoint
 10
157.5
 20
360.6212162378291
 30
0.0
  0
ENDBLK
  5
F28
330
F1D
100
AcDbEntity
  8
0
100
AcDbBlockEnd
  0
BLOCK
  5
112B
330
1121
100
AcDbEntity
  8
0
100
AcDbBlockBegin
  2
*D7
 70
     1
 10
0.0
 20
0.0
 30
0.0
  3
*D7
  1

  0
LINE
  5
1470
330
1121
100
AcDbEntity
  8
SIZE
  6
Continuous
 62
     0
370
    -2
100
AcDbLine
 10
-134.5
 20
-263.0
 30
0.0
 11
-134.5
 21
-406.3942247564192
 31
0.0
  0
LINE
  5
1471
330
1121
100
AcDbEntity
  8
SIZE
  6
Continuous
 62
     0
370
    -2
100
AcDbLine
 10
134.5
 20
-263.0
 30
0.0
 11
134.5
 21
-406.3942247564192
 31
0.0
  0
LINE
  5
1472
330
1121
100
AcDbEntity
  8
SIZE
  6
Continuous
 62
     0
370
    -2
100
AcDbLine
 10
-122.5
 20
-386.3942247564192
 30
0.0
 11
122.5
 21
-386.3942247564192
 31
0.0
  0
INSERT
  5
1473
330
1121
100
AcDbEntity
  8
SIZE
  6
Continuous
 62
     0
370
    -2
100
AcDbBlockReference
  2
_DOTBLANK
 10
-134.5
 20
-386.3942247564192
 30
0.0
 41
12.0
 42
12.0
 43
12.0
 50
180.0
  0
INSERT
  5
1474
330
1121
100
AcDbEntity
  8
SIZE
  6
Continuous
 62
     0
370
    -2
100
AcDbBlockReference
  2
_DOTBLANK
 10
134.5
 20
-386.3942247564192
 30
0.0
 41
12.0
 42
12.0
 43
12.0
  0
MTEXT
  5
1475
330
1121
100
AcDbEntity
  8
SIZE
  6
Continuous
 62
     0
100
AcDbMText
 10
-0.0000000000000233
 20
-344.3942247564192
 30
0.0
 40
64.0
 41
0.0
 71
     5
 72
     1
  1
\A1;269
 73
     1
 44
1.0
  0
POINT
  5
1476
330
1121
100
AcDbEntity
  8
DEFPOINTS
  6
Continuous
 62
     0
100
AcDbPoint
 10
-134.5
 20
-243.0
 30
0.0
  0
POINT
  5
1477
330
1121
100
AcDbEntity
  8
DEFPOINTS
  6
Continuous
 62
     0
100
AcDbPoint
 10
134.5
 20
-243.0
 30
0.0
  0
POINT
  5
1478
330
1121
100
AcDbEntity
  8
DEFPOINTS
  6
Continuous
 62
     0
100
AcDbPoint
 10
134.5
 20
-386.3942247564192
 30
0.0
  0
ENDBLK
  5
112C
330
1121
100
AcDbEntity
  8
0
100
AcDbBlockEnd
  0
BLOCK
  5
1145
330
113B
100
AcDbEntity
  8
0
100
AcDbBlockBegin
  2
*D8
 70
     1
 10
0.0
 20
0.0
 30
0.0
  3
*D8
  1

  0
LINE
  5
1467
330
113B
100
AcDbEntity
  8
SIZE
  6
Continuous
 62
     0
370
    -2
100
AcDbLine
 10
-167.5
 20
161.0
 30
0.0
 11
-562.5059028843143
 21
161.0000000000001
 31
0.0
  0
LINE
  5
1468
330
113B
100
AcDbEntity
  8
SIZE
  6
Continuous
 62
     0
370
    -2
100
AcDbLine
 10
-154.5
 20
-243.0
 30
0.0
 11
-562.5059028843143
 21
-242.9999999999999
 31
0.0
  0
LINE
  5
1469
330
113B
100
AcDbEntity
  8
SIZE
  6
Continuous
 62
     0
370
    -2
100
AcDbLine
 10
-542.5059028843143
 20
149.0000000000001
 30
0.0
 11
-542.5059028843143
 21
-230.9999999999999
 31
0.0
  0
INSERT
  5
146A
330
113B
100
AcDbEntity
  8
SIZE
  6
Continuous
 62
     0
370
    -2
100
AcDbBlockReference
  2
_DOTBLANK
 10
-542.5059028843143
 20
161.0000000000001
 30
0.0
 41
12.0
 42
12.0
 43
12.0
 50
90.0
  0
INSERT
  5
146B
330
113B
100
AcDbEntity
  8
SIZE
  6
Continuous
 62
     0
370
    -2
100
AcDbBlockReference
  2
_DOTBLANK
 10
-542.5059028843143
 20
-242.9999999999999
 30
0.0
 41
12.0
 42
12.0
 43
12.0
 50
270.0
  0
MTEXT
  5
146C
330
113B
100
AcDbEntity
  8
SIZE
  6
Continuous
 62
     0
100
AcDbMText
 10
-584.5059028843142
 20
-40.99999999999996
 30
0.0
 40
64.0
 41
0.0
 71
     5
 72
     1
  1
\A1;404
 11
0.0000000000000001
 21
1.0
 31
0.0
 73
     1
 44
1.0
  0
POINT
  5
146D
330
113B
100
AcDbEntity
  8
DEFPOINTS
  6
Continuous
 62
     0
100
AcDbPoint
 10
-147.5
 20
161.0
 30
0.0
  0
POINT
  5
146E
330
113B
100
AcDbEntity
  8
DEFPOINTS
  6
Continuous
 62
     0
100
AcDbPoint
 10
-134.5
 20
-243.0
 30
0.0
  0
POINT
  5
146F
330
113B
100
AcDbEntity
  8
DEFPOINTS
  6
Continuous
 62
     0
100
AcDbPoint
 10
-542.5059028843143
 20
-242.9999999999999
 30
0.0
  0
ENDBLK
  5
1146
330
113B
100
AcDbEntity
  8
0
100
AcDbBlockEnd
  0
BLOCK
  5
1280
330
127E
100
AcDbEntity
  8
0
100
AcDbBlockBegin
  2
GENAXEH
 70
     0
 10
0.0
 20
0.0
 30
0.0
  3
GENAXEH
  1

  0
LINE
  5
127F
330
127E
100
AcDbEntity
  8
0
100
AcDbLine
 10
-1.0
 20
0.0
 30
0.0
 11
1.0
 21
0.0
 31
0.0
  0
ENDBLK
  5
1281
330
127E
100
AcDbEntity
  8
0
100
AcDbBlockEnd
  0
BLOCK
  5
13F8
330
13F7
100
AcDbEntity
  8
0
100
AcDbBlockBegin
  2
*D10
 70
     1
 10
0.0
 20
0.0
 30
0.0
  3
*D10
  1

  0
LINE
  5
13FA
330
13F7
100
AcDbEntity
  8
OUTLINE
  6
Continuous
 62
     0
370
    -2
100
AcDbLine
 10
137.9
 20
-233.5
 30
0.0
 11
200.6044516808926
 21
-233.5
 31
0.0
  0
LINE
  5
13FB
330
13F7
100
AcDbEntity
  8
OUTLINE
  6
Continuous
 62
     0
370
    -2
100
AcDbLine
 10
153.5
 20
-243.0
 30
0.0
 11
200.6044516808926
 21
-243.0
 31
0.0
  0
LINE
  5
13FC
330
13F7
100
AcDbEntity
  8
OUTLINE
  6
Continuous
 62
     0
370
    -2
100
AcDbLine
 10
180.6044516808926
 20
-221.5
 30
0.0
 11
180.6044516808926
 21
-209.5
 31
0.0
  0
LINE
  5
13FD
330
13F7
100
AcDbEntity
  8
OUTLINE
  6
Continuous
 62
     0
370
    -2
100
AcDbLine
 10
180.6044516808926
 20
-255.0
 30
0.0
 11
180.6044516808926
 21
-267.0000000000001
 31
0.0
  0
LINE
  5
13FE
330
13F7
100
AcDbEntity
  8
OUTLINE
  6
Continuous
 62
     0
370
    -2
100
AcDbLine
 10
180.6044516808926
 20
-233.5
 30
0.0
 11
180.6044516808926
 21
-243.0
 31
0.0
  0
INSERT
  5
13FF
330
13F7
100
AcDbEntity
  8
OUTLINE
  6
Continuous
 62
     0
370
    -2
100
AcDbBlockReference
  2
_DOTBLANK
 10
180.6044516808926
 20
-233.5
 30
0.0
 41
12.0
 42
12.0
 43
12.0
 50
270.0
  0
INSERT
  5
1400
330
13F7
100
AcDbEntity
  8
OUTLINE
  6
Continuous
 62
     0
370
    -2
100
AcDbBlockReference
  2
_DOTBLANK
 10
180.6044516808926
 20
-243.0
 30
0.0
 41
12.0
 42
12.0
 43
12.0
 50
90.0
  0
MTEXT
  5
1401
330
13F7
100
AcDbEntity
  8
OUTLINE
  6
Continuous
 62
     0
100
AcDbMText
 10
138.6044516808926
 20
-238.25
 30
0.0
 40
64.0
 41
0.0
 71
     5
 72
     1
  1
\A1;9.5
 11
0.0000000000000001
 21
1.0
 31
0.0
 73
     1
 44
1.0
  0
POINT
  5
1402
330
13F7
100
AcDbEntity
  8
DEFPOINTS
  6
Continuous
 62
     0
100
AcDbPoint
 10
117.9
 20
-233.5
 30
0.0
  0
POINT
  5
1403
330
13F7
100
AcDbEntity
  8
DEFPOINTS
  6
Continuous
 62
     0
100
AcDbPoint
 10
133.5
 20
-243.0
 30
0.0
  0
POINT
  5
1404
330
13F7
100
AcDbEntity
  8
DEFPOINTS
  6
Continuous
 62
     0
100
AcDbPoint
 10
180.6044516808926
 20
-243.0
 30
0.0
  0
ENDBLK
  5
13F9
330
13F7
100
AcDbEntity
  8
0
100
AcDbBlockEnd
  0
BLOCK
  5
1422
330
1421
100
AcDbEntity
  8
0
100
AcDbBlockBegin
  2
*D11
 70
     1
 10
0.0
 20
0.0
 30
0.0
  3
*D11
  1

  0
LINE
  5
1424
330
1421
100
AcDbEntity
  8
OUTLINE
  6
Continuous
 62
     0
370
    -2
100
AcDbLine
 10
-135.5
 20
-263.0
 30
0.0
 11
-135.5
 21
-275.2324432319168
 31
0.0
  0
LINE
  5
1425
330
1421
100
AcDbEntity
  8
OUTLINE
  6
Continuous
 62
     0
370
    -2
100
AcDbLine
 10
-123.5
 20
-263.0
 30
0.0
 11
-123.5
 21
-275.2324432319168
 31
0.0
  0
LINE
  5
1426
330
1421
100
AcDbEntity
  8
OUTLINE
  6
Continuous
 62
     0
370
    -2
100
AcDbLine
 10
-147.5
 20
-255.2324432319168
 30
0.0
 11
-159.5
 21
-255.2324432319168
 31
0.0
  0
LINE
  5
1427
330
1421
100
AcDbEntity
  8
OUTLINE
  6
Continuous
 62
     0
370
    -2
100
AcDbLine
 10
-111.5
 20
-255.2324432319168
 30
0.0
 11
-99.50000000000001
 21
-255.2324432319168
 31
0.0
  0
LINE
  5
1428
330
1421
100
AcDbEntity
  8
OUTLINE
  6
Continuous
 62
     0
370
    -2
100
AcDbLine
 10
-135.5
 20
-255.2324432319168
 30
0.0
 11
-123.5
 21
-255.2324432319168
 31
0.0
  0
INSERT
  5
1429
330
1421
100
AcDbEntity
  8
OUTLINE
  6
Continuous
 62
     0
370
    -2
100
AcDbBlockReference
  2
_DOTBLANK
 10
-135.5
 20
-255.2324432319168
 30
0.0
 41
12.0
 42
12.0
 43
12.0
  0
INSERT
  5
142A
330
1421
100
AcDbEntity
  8
OUTLINE
  6
Continuous
 62
     0
370
    -2
100
AcDbBlockReference
  2
_DOTBLANK
 10
-123.5
 20
-255.2324432319168
 30
0.0
 41
12.0
 42
12.0
 43
12.0
 50
180.0
  0
MTEXT
  5
142B
330
1421
100
AcDbEntity
  8
OUTLINE
  6
Continuous
 62
     0
100
AcDbMText
 10
-129.5
 20
-213.2324432319168
 30
0.0
 40
64.0
 41
0.0
 71
     5
 72
     1
  1
\A1;12
 73
     1
 44
1.0
  0
POINT
  5
142C
330
1421
100
AcDbEntity
  8
DEFPOINTS
  6
Continuous
 62
     0
100
AcDbPoint
 10
-135.5
 20
-243.0
 30
0.0
  0
POINT
  5
142D
330
1421
100
AcDbEntity
  8
DEFPOINTS
  6
Continuous
 62
     0
100
AcDbPoint
 10
-123.5
 20
-243.0
 30
0.0
  0
POINT
  5
142E
330
1421
100
AcDbEntity
  8
DEFPOINTS
  6
Continuous
 62
     0
100
AcDbPoint
 10
-123.5
 20
-255.2324432319168
 30
0.0
  0
ENDBLK
  5
1423
330
1421
100
AcDbEntity
  8
0
100
AcDbBlockEnd
  0
BLOCK
  5
156A
330
1569
100
AcDbEntity
  8
0
100
AcDbBlockBegin
  2
*D12
 70
     1
 10
0.0
 20
0.0
 30
0.0
  3
*D12
  1

  0
LINE
  5
156B
330
1569
100
AcDbEntity
  8
SIZE
 62
     0
370
    -2
100
AcDbLine
 10
-43498.31326757634
 20
4305.193042498664
 30
0.0
 11
-43542.0974700479
 21
4305.193042498664
 31
0.0
  0
LINE
  5
156C
330
1569
100
AcDbEntity
  8
SIZE
 62
     0
370
    -2
100
AcDbLine
 10
-43498.31326757634
 20
4020.193042498664
 30
0.0
 11
-43542.0974700479
 21
4020.193042498664
 31
0.0
  0
LINE
  5
156D
330
1569
100
AcDbEntity
  8
SIZE
 62
     0
370
    -2
100
AcDbLine
 10
-43522.09747004788
 20
4293.193042498663
 30
0.0
 11
-43522.09747004788
 21
4032.193042498664
 31
0.0
  0
INSERT
  5
156E
330
1569
100
AcDbEntity
  8
SIZE
 62
     0
370
    -2
100
AcDbBlockReference
  2
_DOTBLANK
 10
-43522.09747004788
 20
4305.193042498664
 30
0.0
 41
12.0
 42
12.0
 43
12.0
 50
90.0
  0
INSERT
  5
156F
330
1569
100
AcDbEntity
  8
SIZE
 62
     0
370
    -2
100
AcDbBlockReference
  2
_DOTBLANK
 10
-43522.09747004788
 20
4020.193042498664
 30
0.0
 41
12.0
 42
12.0
 43
12.0
 50
270.0
  0
MTEXT
  5
1570
330
1569
100
AcDbEntity
  8
SIZE
 62
     0
100
AcDbMText
 10
-43564.09747004788
 20
4162.693042498657
 30
0.0
 40
64.0
 41
0.0
 71
     5
 72
     1
  1
\A1;285
 11
0.0000000000000001
 21
1.0
 31
0.0
 73
     1
 44
1.0
  0
POINT
  5
1571
330
1569
100
AcDbEntity
  8
DEFPOINTS
 62
     0
100
AcDbPoint
 10
-43478.31326757634
 20
4305.193042498664
 30
0.0
  0
POINT
  5
1572
330
1569
100
AcDbEntity
  8
DEFPOINTS
 62
     0
100
AcDbPoint
 10
-43478.31326757634
 20
4020.193042498664
 30
0.0
  0
POINT
  5
1573
330
1569
100
AcDbEntity
  8
DEFPOINTS
 62
     0
100
AcDbPoint
 10
-43522.09747004788
 20
4020.193042498664
 30
0.0
  0
ENDBLK
  5
1574
330
1569
100
AcDbEntity
  8
0
100
AcDbBlockEnd
  0
BLOCK
  5
1576
330
1575
100
AcDbEntity
  8
0
100
AcDbBlockBegin
  2
*D13
 70
     1
 10
0.0
 20
0.0
 30
0.0
  3
*D13
  1

  0
LINE
  5
1577
330
1575
100
AcDbEntity
  8
SIZE
 62
     0
370
    -2
100
AcDbLine
 10
-43498.31326757634
 20
4020.193042498664
 30
0.0
 11
-43542.0974700479
 21
4020.193042498664
 31
0.0
  0
LINE
  5
1578
330
1575
100
AcDbEntity
  8
SIZE
 62
     0
370
    -2
100
AcDbLine
 10
-43498.31326757634
 20
3735.193042498663
 30
0.0
 11
-43542.0974700479
 21
3735.193042498663
 31
0.0
  0
LINE
  5
1579
330
1575
100
AcDbEntity
  8
SIZE
 62
     0
370
    -2
100
AcDbLine
 10
-43522.09747004788
 20
4008.193042498663
 30
0.0
 11
-43522.09747004788
 21
3747.193042498664
 31
0.0
  0
INSERT
  5
157A
330
1575
100
AcDbEntity
  8
SIZE
 62
     0
370
    -2
100
AcDbBlockReference
  2
_DOTBLANK
 10
-43522.09747004788
 20
4020.193042498664
 30
0.0
 41
12.0
 42
12.0
 43
12.0
 50
90.0
  0
INSERT
  5
157B
330
1575
100
AcDbEntity
  8
SIZE
 62
     0
370
    -2
100
AcDbBlockReference
  2
_DOTBLANK
 10
-43522.09747004788
 20
3735.193042498663
 30
0.0
 41
12.0
 42
12.0
 43
12.0
 50
270.0
  0
MTEXT
  5
157C
330
1575
100
AcDbEntity
  8
SIZE
 62
     0
100
AcDbMText
 10
-43564.09747004788
 20
3877.693042498658
 30
0.0
 40
64.0
 41
0.0
 71
     5
 72
     1
  1
\A1;285
 11
0.0000000000000001
 21
1.0
 31
0.0
 73
     1
 44
1.0
  0
POINT
  5
157D
330
1575
100
AcDbEntity
  8
DEFPOINTS
 62
     0
100
AcDbPoint
 10
-43478.31326757634
 20
4020.193042498664
 30
0.0
  0
POINT
  5
157E
330
1575
100
AcDbEntity
  8
DEFPOINTS
 62
     0
100
AcDbPoint
 10
-43478.31326757634
 20
3735.193042498663
 30
0.0
  0
POINT
  5
157F
330
1575
100
AcDbEntity
  8
DEFPOINTS
 62
     0
100
AcDbPoint
 10
-43522.09747004788
 20
3735.193042498663
 30
0.0
  0
ENDBLK
  5
1580
330
1575
100
AcDbEntity
  8
0
100
AcDbBlockEnd
  0
BLOCK
  5
1582
330
1581
100
AcDbEntity
  8
0
100
AcDbBlockBegin
  2
*D14
 70
     1
 10
0.0
 20
0.0
 30
0.0
  3
*D14
  1

  0
LINE
  5
1583
330
1581
100
AcDbEntity
  8
SIZE
 62
     0
370
    -2
100
AcDbLine
 10
-43501.20326757633
 20
3710.193042498663
 30
0.0
 11
-43662.43490991455
 21
3710.193042498663
 31
0.0
  0
LINE
  5
1584
330
1581
100
AcDbEntity
  8
SIZE
 62
     0
370
    -2
100
AcDbLine
 10
-43500.20326757634
 20
4330.993042498662
 30
0.0
 11
-43662.43490991455
 21
4330.993042498662
 31
0.0
  0
LINE
  5
1585
330
1581
100
AcDbEntity
  8
SIZE
 62
     0
370
    -2
100
AcDbLine
 10
-43642.43490991453
 20
3722.193042498664
 30
0.0
 11
-43642.43490991453
 21
4318.993042498664
 31
0.0
  0
INSERT
  5
1586
330
1581
100
AcDbEntity
  8
SIZE
 62
     0
370
    -2
100
AcDbBlockReference
  2
_DOTBLANK
 10
-43642.43490991453
 20
3710.193042498663
 30
0.0
 41
12.0
 42
12.0
 43
12.0
 50
270.0
  0
INSERT
  5
1587
330
1581
100
AcDbEntity
  8
SIZE
 62
     0
370
    -2
100
AcDbBlockReference
  2
_DOTBLANK
 10
-43642.43490991453
 20
4330.993042498662
 30
0.0
 41
12.0
 42
12.0
 43
12.0
 50
90.0
  0
MTEXT
  5
1588
330
1581
100
AcDbEntity
  8
SIZE
 62
     0
100
AcDbMText
 10
-43684.43490991453
 20
4020.593042498657
 30
0.0
 40
64.0
 41
0.0
 71
     5
 72
     1
  1
\A1;621
 11
0.0000000000000001
 21
1.0
 31
0.0
 73
     1
 44
1.0
  0
POINT
  5
1589
330
1581
100
AcDbEntity
  8
DEFPOINTS
 62
     0
100
AcDbPoint
 10
-43481.20326757634
 20
3710.193042498663
 30
0.0
  0
POINT
  5
158A
330
1581
100
AcDbEntity
  8
DEFPOINTS
 62
     0
100
AcDbPoint
 10
-43480.20326757634
 20
4330.993042498662
 30
0.0
  0
POINT
  5
158B
330
1581
100
AcDbEntity
  8
DEFPOINTS
 62
     0
100
AcDbPoint
 10
-43642.43490991453
 20
4330.993042498662
 30
0.0
  0
ENDBLK
  5
158C
330
1581
100
AcDbEntity
  8
0
100
AcDbBlockEnd
  0
BLOCK
  5
158E
330
158D
100
AcDbEntity
  8
0
100
AcDbBlockBegin
  2
*D15
 70
     1
 10
0.0
 20
0.0
 30
0.0
  3
*D15
  1

  0
LINE
  5
158F
330
158D
100
AcDbEntity
  8
SIZE
 62
     0
370
    -2
100
AcDbLine
 10
-43475.20326757634
 20
3707.693042498668
 30
0.0
 11
-43475.20326757634
 21
3553.77042621216
 31
0.0
  0
LINE
  5
1590
330
158D
100
AcDbEntity
  8
SIZE
 62
     0
370
    -2
100
AcDbLine
 10
-42837.20326757634
 20
3707.693042498668
 30
0.0
 11
-42837.20326757634
 21
3553.77042621216
 31
0.0
  0
LINE
  5
1591
330
158D
100
AcDbEntity
  8
SIZE
 62
     0
370
    -2
100
AcDbLine
 10
-43463.20326757633
 20
3573.77042621216
 30
0.0
 11
-42849.20326757633
 21
3573.77042621216
 31
0.0
  0
INSERT
  5
1592
330
158D
100
AcDbEntity
  8
SIZE
 62
     0
370
    -2
100
AcDbBlockReference
  2
_DOTBLANK
 10
-43475.20326757634
 20
3573.77042621216
 30
0.0
 41
12.0
 42
12.0
 43
12.0
 50
180.0
  0
INSERT
  5
1593
330
158D
100
AcDbEntity
  8
SIZE
 62
     0
370
    -2
100
AcDbBlockReference
  2
_DOTBLANK
 10
-42837.20326757634
 20
3573.77042621216
 30
0.0
 41
12.0
 42
12.0
 43
12.0
  0
MTEXT
  5
1594
330
158D
100
AcDbEntity
  8
SIZE
 62
     0
100
AcDbMText
 10
-43156.20326757634
 20
3615.770426212161
 30
0.0
 40
64.0
 41
0.0
 71
     5
 72
     1
  1
\A1;638
 73
     1
 44
1.0
  0
POINT
  5
1595
330
158D
100
AcDbEntity
  8
DEFPOINTS
 62
     0
100
AcDbPoint
 10
-43475.20326757634
 20
3727.693042498668
 30
0.0
  0
POINT
  5
1596
330
158D
100
AcDbEntity
  8
DEFPOINTS
 62
     0
100
AcDbPoint
 10
-42837.20326757634
 20
3727.693042498668
 30
0.0
  0
POINT
  5
1597
330
158D
100
AcDbEntity
  8
DEFPOINTS
 62
     0
100
AcDbPoint
 10
-42837.20326757634
 20
3573.77042621216
 30
0.0
  0
ENDBLK
  5
1598
330
158D
100
AcDbEntity
  8
0
100
AcDbBlockEnd
  0
BLOCK
  5
159A
330
1599
100
AcDbEntity
  8
0
100
AcDbBlockBegin
  2
*D16
 70
     1
 10
0.0
 20
0.0
 30
0.0
  3
*D16
  1

  0
LINE
  5
159B
330
1599
100
AcDbEntity
  8
SIZE
 62
     0
370
    -2
100
AcDbLine
 10
-43481.20326757634
 20
3690.193042498668
 30
0.0
 11
-43481.20326757634
 21
3437.284494408658
 31
0.0
  0
LINE
  5
159C
330
1599
100
AcDbEntity
  8
SIZE
 62
     0
370
    -2
100
AcDbLine
 10
-42831.20326757634
 20
3690.193042498668
 30
0.0
 11
-42831.20326757634
 21
3437.284494408658
 31
0.0
  0
LINE
  5
159D
330
1599
100
AcDbEntity
  8
SIZE
 62
     0
370
    -2
100
AcDbLine
 10
-43469.20326757634
 20
3457.284494408658
 30
0.0
 11
-42843.20326757634
 21
3457.284494408658
 31
0.0
  0
INSERT
  5
159E
330
1599
100
AcDbEntity
  8
SIZE
 62
     0
370
    -2
100
AcDbBlockReference
  2
_DOTBLANK
 10
-43481.20326757634
 20
3457.284494408658
 30
0.0
 41
12.0
 42
12.0
 43
12.0
 50
180.0
  0
INSERT
  5
159F
330
1599
100
AcDbEntity
  8
SIZE
 62
     0
370
    -2
100
AcDbBlockReference
  2
_DOTBLANK
 10
-42831.20326757634
 20
3457.284494408658
 30
0.0
 41
12.0
 42
12.0
 43
12.0
  0
MTEXT
  5
15A0
330
1599
100
AcDbEntity
  8
SIZE
 62
     0
100
AcDbMText
 10
-43156.20326757634
 20
3499.284494408659
 30
0.0
 40
64.0
 41
0.0
 71
     5
 72
     1
  1
\A1;650
 73
     1
 44
1.0
  0
POINT
  5
15A1
330
1599
100
AcDbEntity
  8
DEFPOINTS
 62
     0
100
AcDbPoint
 10
-43481.20326757634
 20
3710.193042498668
 30
0.0
  0
POINT
  5
15A2
330
1599
100
AcDbEntity
  8
DEFPOINTS
 62
     0
100
AcDbPoint
 10
-42831.20326757634
 20
3710.193042498668
 30
0.0
  0
POINT
  5
15A3
330
1599
100
AcDbEntity
  8
DEFPOINTS
 62
     0
100
AcDbPoint
 10
-42831.20326757634
 20
3457.284494408658
 30
0.0
  0
ENDBLK
  5
15A4
330
1599
100
AcDbEntity
  8
0
100
AcDbBlockEnd
  0
BLOCK
  5
1748
330
1747
100
AcDbEntity
  8
0
100
AcDbBlockBegin
  2
*D17
 70
     1
 10
0.0
 20
0.0
 30
0.0
  3
*D17
  1

  0
LINE
  5
17DD
330
1747
100
AcDbEntity
  8
SIZE
 62
     0
370
    -2
100
AcDbLine
 10
-342.1100000000006
 20
285.0
 30
0.0
 11
-385.8942024715578
 21
285.0000000000001
 31
0.0
  0
LINE
  5
17DE
330
1747
100
AcDbEntity
  8
SIZE
 62
     0
370
    -2
100
AcDbLine
 10
-342.1100000000006
 20
0.0000000000000057
 30
0.0
 11
-385.894202471558
 21
0.0000000000000181
 31
0.0
  0
LINE
  5
17DF
330
1747
100
AcDbEntity
  8
SIZE
 62
     0
370
    -2
100
AcDbLine
 10
-365.8942024715579
 20
273.0
 30
0.0
 11
-365.8942024715579
 21
12.00000000000001
 31
0.0
  0
INSERT
  5
17E0
330
1747
100
AcDbEntity
  8
SIZE
 62
     0
370
    -2
100
AcDbBlockReference
  2
_DOTBLANK
 10
-365.8942024715579
 20
285.0
 30
0.0
 41
12.0
 42
12.0
 43
12.0
 50
90.0
  0
INSERT
  5
17E1
330
1747
100
AcDbEntity
  8
SIZE
 62
     0
370
    -2
100
AcDbBlockReference
  2
_DOTBLANK
 10
-365.8942024715579
 20
0.0000000000000124
 30
0.0
 41
12.0
 42
12.0
 43
12.0
 50
270.0
  0
MTEXT
  5
17E2
330
1747
100
AcDbEntity
  8
SIZE
 62
     0
100
AcDbMText
 10
-407.8942024715578
 20
142.5
 30
0.0
 40
64.0
 41
0.0
 71
     5
 72
     1
  1
\A1;285
 11
0.0000000000000001
 21
1.0
 31
0.0
 73
     1
 44
1.0
  0
POINT
  5
17E3
330
1747
100
AcDbEntity
  8
DEFPOINTS
 62
     0
100
AcDbPoint
 10
-322.1100000000006
 20
285.0
 30
0.0
  0
POINT
  5
17E4
330
1747
100
AcDbEntity
  8
DEFPOINTS
 62
     0
100
AcDbPoint
 10
-322.1100000000006
 20
0.0
 30
0.0
  0
POINT
  5
17E5
330
1747
100
AcDbEntity
  8
DEFPOINTS
 62
     0
100
AcDbPoint
 10
-365.8942024715579
 20
0.0000000000000124
 30
0.0
  0
ENDBLK
  5
1749
330
1747
100
AcDbEntity
  8
0
100
AcDbBlockEnd
  0
BLOCK
  5
1754
330
1753
100
AcDbEntity
  8
0
100
AcDbBlockBegin
  2
*D18
 70
     1
 10
0.0
 20
0.0
 30
0.0
  3
*D18
  1

  0
LINE
  5
17E6
330
1753
100
AcDbEntity
  8
SIZE
 62
     0
370
    -2
100
AcDbLine
 10
-342.1100000000006
 20
0.0000000000000057
 30
0.0
 11
-385.8942024715578
 21
0.0000000000000181
 31
0.0
  0
LINE
  5
17E7
330
1753
100
AcDbEntity
  8
SIZE
 62
     0
370
    -2
100
AcDbLine
 10
-342.1100000000006
 20
-285.0000000000004
 30
0.0
 11
-385.894202471558
 21
-285.0000000000004
 31
0.0
  0
LINE
  5
17E8
330
1753
100
AcDbEntity
  8
SIZE
 62
     0
370
    -2
100
AcDbLine
 10
-365.8942024715579
 20
-11.99999999999999
 30
0.0
 11
-365.8942024715579
 21
-273.0000000000004
 31
0.0
  0
INSERT
  5
17E9
330
1753
100
AcDbEntity
  8
SIZE
 62
     0
370
    -2
100
AcDbBlockReference
  2
_DOTBLANK
 10
-365.8942024715579
 20
0.0000000000000124
 30
0.0
 41
12.0
 42
12.0
 43
12.0
 50
90.0
  0
INSERT
  5
17EA
330
1753
100
AcDbEntity
  8
SIZE
 62
     0
370
    -2
100
AcDbBlockReference
  2
_DOTBLANK
 10
-365.8942024715579
 20
-285.0000000000004
 30
0.0
 41
12.0
 42
12.0
 43
12.0
 50
270.0
  0
MTEXT
  5
17EB
330
1753
100
AcDbEntity
  8
SIZE
 62
     0
100
AcDbMText
 10
-407.8942024715578
 20
-142.5000000000002
 30
0.0
 40
64.0
 41
0.0
 71
     5
 72
     1
  1
\A1;285
 11
0.0000000000000001
 21
1.0
 31
0.0
 73
     1
 44
1.0
  0
POINT
  5
17EC
330
1753
100
AcDbEntity
  8
DEFPOINTS
 62
     0
100
AcDbPoint
 10
-322.1100000000006
 20
0.0
 30
0.0
  0
POINT
  5
17ED
330
1753
100
AcDbEntity
  8
DEFPOINTS
 62
     0
100
AcDbPoint
 10
-322.1100000000006
 20
-285.0000000000004
 30
0.0
  0
POINT
  5
17EE
330
1753
100
AcDbEntity
  8
DEFPOINTS
 62
     0
100
AcDbPoint
 10
-365.8942024715579
 20
-285.0000000000004
 30
0.0
  0
ENDBLK
  5
1755
330
1753
100
AcDbEntity
  8
0
100
AcDbBlockEnd
  0
BLOCK
  5
1760
330
175F
100
AcDbEntity
  8
0
100
AcDbBlockBegin
  2
*D19
 70
     1
 10
0.0
 20
0.0
 30
0.0
  3
*D19
  1

  0
LINE
  5
17EF
330
175F
100
AcDbEntity
  8
SIZE
 62
     0
370
    -2
100
AcDbLine
 10
-345.0
 20
-310.0000000000004
 30
0.0
 11
-506.2316423382069
 21
-310.0000000000004
 31
0.0
  0
LINE
  5
17F0
330
175F
100
AcDbEntity
  8
SIZE
 62
     0
370
    -2
100
AcDbLine
 10
-344.0
 20
310.7999999999993
 30
0.0
 11
-506.2316423382068
 21
310.7999999999993
 31
0.0
  0
LINE
  5
17F1
330
175F
100
AcDbEntity
  8
SIZE
 62
     0
370
    -2
100
AcDbLine
 10
-486.2316423382071
 20
-298.0000000000004
 30
0.0
 11
-486.2316423382071
 21
298.7999999999993
 31
0.0
  0
INSERT
  5
17F2
330
175F
100
AcDbEntity
  8
SIZE
 62
     0
370
    -2
100
AcDbBlockReference
  2
_DOTBLANK
 10
-486.2316423382071
 20
-310.0000000000004
 30
0.0
 41
12.0
 42
12.0
 43
12.0
 50
270.0
  0
INSERT
  5
17F3
330
175F
100
AcDbEntity
  8
SIZE
 62
     0
370
    -2
100
AcDbBlockReference
  2
_DOTBLANK
 10
-486.2316423382071
 20
310.7999999999993
 30
0.0
 41
12.0
 42
12.0
 43
12.0
 50
90.0
  0
MTEXT
  5
17F4
330
175F
100
AcDbEntity
  8
SIZE
 62
     0
100
AcDbMText
 10
-528.231642338207
 20
0.3999999999932749
 30
0.0
 40
64.0
 41
0.0
 71
     5
 72
     1
  1
\A1;621
 11
0.0000000000000001
 21
1.0
 31
0.0
 73
     1
 44
1.0
  0
POINT
  5
17F5
330
175F
100
AcDbEntity
  8
DEFPOINTS
 62
     0
100
AcDbPoint
 10
-325.0
 20
-310.0000000000004
 30
0.0
  0
POINT
  5
17F6
330
175F
100
AcDbEntity
  8
DEFPOINTS
 62
     0
100
AcDbPoint
 10
-324.0
 20
310.7999999999993
 30
0.0
  0
POINT
  5
17F7
330
175F
100
AcDbEntity
  8
DEFPOINTS
 62
     0
100
AcDbPoint
 10
-486.2316423382071
 20
310.7999999999993
 30
0.0
  0
ENDBLK
  5
1761
330
175F
100
AcDbEntity
  8
0
100
AcDbBlockEnd
  0
BLOCK
  5
176C
330
176B
100
AcDbEntity
  8
0
100
AcDbBlockBegin
  2
*D20
 70
     1
 10
0.0
 20
0.0
 30
0.0
  3
*D20
  1

  0
LINE
  5
17F8
330
176B
100
AcDbEntity
  8
SIZE
 62
     0
370
    -2
100
AcDbLine
 10
-319.0
 20
-312.4999999999964
 30
0.0
 11
-319.0
 21
-466.4226162865043
 31
0.0
  0
LINE
  5
17F9
330
176B
100
AcDbEntity
  8
SIZE
 62
     0
370
    -2
100
AcDbLine
 10
319.0
 20
-312.4999999999964
 30
0.0
 11
319.0
 21
-466.4226162865043
 31
0.0
  0
LINE
  5
17FA
330
176B
100
AcDbEntity
  8
SIZE
 62
     0
370
    -2
100
AcDbLine
 10
-307.0
 20
-446.4226162865043
 30
0.0
 11
307.0
 21
-446.4226162865043
 31
0.0
  0
INSERT
  5
17FB
330
176B
100
AcDbEntity
  8
SIZE
 62
     0
370
    -2
100
AcDbBlockReference
  2
_DOTBLANK
 10
-319.0
 20
-446.4226162865043
 30
0.0
 41
12.0
 42
12.0
 43
12.0
 50
180.0
  0
INSERT
  5
17FC
330
176B
100
AcDbEntity
  8
SIZE
 62
     0
370
    -2
100
AcDbBlockReference
  2
_DOTBLANK
 10
319.0
 20
-446.4226162865043
 30
0.0
 41
12.0
 42
12.0
 43
12.0
  0
MTEXT
  5
17FD
330
176B
100
AcDbEntity
  8
SIZE
 62
     0
100
AcDbMText
 10
0.0000000000000026
 20
-404.4226162865043
 30
0.0
 40
64.0
 41
0.0
 71
     5
 72
     1
  1
\A1;638
 73
     1
 44
1.0
  0
POINT
  5
17FE
330
176B
100
AcDbEntity
  8
DEFPOINTS
 62
     0
100
AcDbPoint
 10
-319.0
 20
-292.4999999999964
 30
0.0
  0
POINT
  5
17FF
330
176B
100
AcDbEntity
  8
DEFPOINTS
 62
     0
100
AcDbPoint
 10
319.0
 20
-292.4999999999964
 30
0.0
  0
POINT
  5
1800
330
176B
100
AcDbEntity
  8
DEFPOINTS
 62
     0
100
AcDbPoint
 10
319.0
 20
-446.4226162865043
 30
0.0
  0
ENDBLK
  5
176D
330
176B
100
AcDbEntity
  8
0
100
AcDbBlockEnd
  0
BLOCK
  5
1778
330
1777
100
AcDbEntity
  8
0
100
AcDbBlockBegin
  2
*D21
 70
     1
 10
0.0
 20
0.0
 30
0.0
  3
*D21
  1

  0
LINE
  5
1801
330
1777
100
AcDbEntity
  8
SIZE
 62
     0
370
    -2
100
AcDbLine
 10
-325.0
 20
-329.9999999999964
 30
0.0
 11
-325.0
 21
-582.9085480900057
 31
0.0
  0
LINE
  5
1802
330
1777
100
AcDbEntity
  8
SIZE
 62
     0
370
    -2
100
AcDbLine
 10
325.0
 20
-329.9999999999964
 30
0.0
 11
325.0
 21
-582.9085480900057
 31
0.0
  0
LINE
  5
1803
330
1777
100
AcDbEntity
  8
SIZE
 62
     0
370
    -2
100
AcDbLine
 10
-313.0
 20
-562.9085480900057
 30
0.0
 11
313.0
 21
-562.9085480900057
 31
0.0
  0
INSERT
  5
1804
330
1777
100
AcDbEntity
  8
SIZE
 62
     0
370
    -2
100
AcDbBlockReference
  2
_DOTBLANK
 10
-325.0
 20
-562.9085480900057
 30
0.0
 41
12.0
 42
12.0
 43
12.0
 50
180.0
  0
INSERT
  5
1805
330
1777
100
AcDbEntity
  8
SIZE
 62
     0
370
    -2
100
AcDbBlockReference
  2
_DOTBLANK
 10
325.0
 20
-562.9085480900057
 30
0.0
 41
12.0
 42
12.0
 43
12.0
  0
MTEXT
  5
1806
330
1777
100
AcDbEntity
  8
SIZE
 62
     0
100
AcDbMText
 10
0.0000000000000026
 20
-520.9085480900057
 30
0.0
 40
64.0
 41
0.0
 71
     5
 72
     1
  1
\A1;650
 73
     1
 44
1.0
  0
POINT
  5
1807
330
1777
100
AcDbEntity
  8
DEFPOINTS
 62
     0
100
AcDbPoint
 10
-325.0
 20
-309.9999999999964
 30
0.0
  0
POINT
  5
1808
330
1777
100
AcDbEntity
  8
DEFPOINTS
 62
     0
100
AcDbPoint
 10
325.0
 20
-309.9999999999964
 30
0.0
  0
POINT
  5
1809
330
1777
100
AcDbEntity
  8
DEFPOINTS
 62
     0
100
AcDbPoint
 10
325.0
 20
-562.9085480900057
 30
0.0
  0
ENDBLK
  5
1779
330
1777
100
AcDbEntity
  8
0
100
AcDbBlockEnd
  0
BLOCK
  5
1900
330
18FF
100
AcDbEntity
  8
0
100
AcDbBlockBegin
  2
*D22
 70
     1
 10
0.0
 20
0.0
 30
0.0
  3
*D22
  1

  0
LINE
  5
1901
330
18FF
100
AcDbEntity
  8
SIZE
  6
Continuous
 62
     0
370
    -2
100
AcDbLine
 10
-45355.37866409504
 20
4274.137030641877
 30
0.0
 11
-45355.37866409504
 21
4370.605303344865
 31
0.0
  0
LINE
  5
1902
330
18FF
100
AcDbEntity
  8
SIZE
  6
Continuous
 62
     0
370
    -2
100
AcDbLine
 10
-45026.57866409506
 20
4274.137030641885
 30
0.0
 11
-45026.57866409506
 21
4370.605303344865
 31
0.0
  0
LINE
  5
1903
330
18FF
100
AcDbEntity
  8
SIZE
  6
Continuous
 62
     0
370
    -2
100
AcDbLine
 10
-45343.37866409504
 20
4350.605303344867
 30
0.0
 11
-45038.57866409505
 21
4350.605303344867
 31
0.0
  0
INSERT
  5
1904
330
18FF
100
AcDbEntity
  8
SIZE
  6
Continuous
 62
     0
370
    -2
100
AcDbBlockReference
  2
_DOTBLANK
 10
-45355.37866409504
 20
4350.605303344867
 30
0.0
 41
12.0
 42
12.0
 43
12.0
 50
180.0
  0
INSERT
  5
1905
330
18FF
100
AcDbEntity
  8
SIZE
  6
Continuous
 62
     0
370
    -2
100
AcDbBlockReference
  2
_DOTBLANK
 10
-45026.57866409506
 20
4350.605303344867
 30
0.0
 41
12.0
 42
12.0
 43
12.0
  0
MTEXT
  5
1906
330
18FF
100
AcDbEntity
  8
SIZE
  6
Continuous
 62
     0
100
AcDbMText
 10
-45190.97866409505
 20
4392.605303344867
 30
0.0
 40
64.0
 41
0.0
 71
     5
 72
     1
  1
\A1;329
 73
     1
 44
1.0
  0
POINT
  5
1907
330
18FF
100
AcDbEntity
  8
DEFPOINTS
  6
Continuous
 62
     0
100
AcDbPoint
 10
-45355.37866409504
 20
4254.137030641873
 30
0.0
  0
POINT
  5
1908
330
18FF
100
AcDbEntity
  8
DEFPOINTS
  6
Continuous
 62
     0
100
AcDbPoint
 10
-45026.57866409506
 20
4254.137030641884
 30
0.0
  0
POINT
  5
1909
330
18FF
100
AcDbEntity
  8
DEFPOINTS
  6
Continuous
 62
     0
100
AcDbPoint
 10
-45026.57866409506
 20
4350.605303344867
 30
0.0
  0
ENDBLK
  5
190A
330
18FF
100
AcDbEntity
  8
0
100
AcDbBlockEnd
  0
BLOCK
  5
190C
330
190B
100
AcDbEntity
  8
0
100
AcDbBlockBegin
  2
*D23
 70
     1
 10
0.0
 20
0.0
 30
0.0
  3
*D23
  1

  0
LINE
  5
190D
330
190B
100
AcDbEntity
  8
SIZE
  6
Continuous
 62
     0
370
    -2
100
AcDbLine
 10
-45026.57866409506
 20
4274.137030641885
 30
0.0
 11
-45026.57866409506
 21
4370.605303344865
 31
0.0
  0
LINE
  5
190E
330
190B
100
AcDbEntity
  8
SIZE
  6
Continuous
 62
     0
370
    -2
100
AcDbLine
 10
-44722.57866409506
 20
4274.137030641892
 30
0.0
 11
-44722.57866409506
 21
4370.605303344865
 31
0.0
  0
LINE
  5
190F
330
190B
100
AcDbEntity
  8
SIZE
  6
Continuous
 62
     0
370
    -2
100
AcDbLine
 10
-45014.57866409506
 20
4350.605303344867
 30
0.0
 11
-44734.57866409506
 21
4350.605303344867
 31
0.0
  0
INSERT
  5
1910
330
190B
100
AcDbEntity
  8
SIZE
  6
Continuous
 62
     0
370
    -2
100
AcDbBlockReference
  2
_DOTBLANK
 10
-45026.57866409506
 20
4350.605303344867
 30
0.0
 41
12.0
 42
12.0
 43
12.0
 50
180.0
  0
INSERT
  5
1911
330
190B
100
AcDbEntity
  8
SIZE
  6
Continuous
 62
     0
370
    -2
100
AcDbBlockReference
  2
_DOTBLANK
 10
-44722.57866409506
 20
4350.605303344867
 30
0.0
 41
12.0
 42
12.0
 43
12.0
  0
MTEXT
  5
1912
330
190B
100
AcDbEntity
  8
SIZE
  6
Continuous
 62
     0
100
AcDbMText
 10
-44874.57866409505
 20
4392.605303344867
 30
0.0
 40
64.0
 41
0.0
 71
     5
 72
     1
  1
\A1;304
 73
     1
 44
1.0
  0
POINT
  5
1913
330
190B
100
AcDbEntity
  8
DEFPOINTS
  6
Continuous
 62
     0
100
AcDbPoint
 10
-45026.57866409506
 20
4254.137030641884
 30
0.0
  0
POINT
  5
1914
330
190B
100
AcDbEntity
  8
DEFPOINTS
  6
Continuous
 62
     0
100
AcDbPoint
 10
-44722.57866409506
 20
4254.137030641891
 30
0.0
  0
POINT
  5
1915
330
190B
100
AcDbEntity
  8
DEFPOINTS
  6
Continuous
 62
     0
100
AcDbPoint
 10
-44722.57866409506
 20
4350.605303344867
 30
0.0
  0
ENDBLK
  5
1916
330
190B
100
AcDbEntity
  8
0
100
AcDbBlockEnd
  0
BLOCK
  5
1918
330
1917
100
AcDbEntity
  8
0
100
AcDbBlockBegin
  2
*D24
 70
     1
 10
0.0
 20
0.0
 30
0.0
  3
*D24
  1

  0
LINE
  5
1919
330
1917
100
AcDbEntity
  8
SIZE
  6
Continuous
 62
     0
370
    -2
100
AcDbLine
 10
-45391.07866409503
 20
4074.61618444625
 30
0.0
 11
-45539.75737199871
 21
4074.61618444625
 31
0.0
  0
LINE
  5
191A
330
1917
100
AcDbEntity
  8
SIZE
  6
Continuous
 62
     0
370
    -2
100
AcDbLine
 10
-45391.07866409503
 20
3666.616184446249
 30
0.0
 11
-45539.75737199871
 21
3666.616184446249
 31
0.0
  0
LINE
  5
191B
330
1917
100
AcDbEntity
  8
SIZE
  6
Continuous
 62
     0
370
    -2
100
AcDbLine
 10
-45519.75737199871
 20
4062.616184446247
 30
0.0
 11
-45519.75737199871
 21
3678.616184446248
 31
0.0
  0
INSERT
  5
191C
330
1917
100
AcDbEntity
  8
SIZE
  6
Continuous
 62
     0
370
    -2
100
AcDbBlockReference
  2
_DOTBLANK
 10
-45519.75737199871
 20
4074.61618444625
 30
0.0
 41
12.0
 42
12.0
 43
12.0
 50
90.0
  0
INSERT
  5
191D
330
1917
100
AcDbEntity
  8
SIZE
  6
Continuous
 62
     0
370
    -2
100
AcDbBlockReference
  2
_DOTBLANK
 10
-45519.75737199871
 20
3666.616184446249
 30
0.0
 41
12.0
 42
12.0
 43
12.0
 50
270.0
  0
MTEXT
  5
191E
330
1917
100
AcDbEntity
  8
SIZE
  6
Continuous
 62
     0
100
AcDbMText
 10
-45561.75737199871
 20
3870.616184446242
 30
0.0
 40
64.0
 41
0.0
 71
     5
 72
     1
  1
\A1;408
 11
0.0000000000000001
 21
1.0
 31
0.0
 73
     1
 44
1.0
  0
POINT
  5
191F
330
1917
100
AcDbEntity
  8
DEFPOINTS
  6
Continuous
 62
     0
100
AcDbPoint
 10
-45371.07866409503
 20
4074.61618444625
 30
0.0
  0
POINT
  5
1920
330
1917
100
AcDbEntity
  8
DEFPOINTS
  6
Continuous
 62
     0
100
AcDbPoint
 10
-45371.07866409503
 20
3666.616184446249
 30
0.0
  0
POINT
  5
1921
330
1917
100
AcDbEntity
  8
DEFPOINTS
  6
Continuous
 62
     0
100
AcDbPoint
 10
-45519.75737199871
 20
3666.616184446249
 30
0.0
  0
ENDBLK
  5
1922
330
1917
100
AcDbEntity
  8
0
100
AcDbBlockEnd
  0
BLOCK
  5
1924
330
1923
100
AcDbEntity
  8
0
100
AcDbBlockBegin
  2
*D25
 70
     1
 10
0.0
 20
0.0
 30
0.0
  3
*D25
  1

  0
LINE
  5
1925
330
1923
100
AcDbEntity
  8
SIZE
  6
Continuous
 62
     0
370
    -2
100
AcDbLine
 10
-45391.07866409503
 20
3666.616184446249
 30
0.0
 11
-45539.75737199871
 21
3666.616184446249
 31
0.0
  0
LINE
  5
1926
330
1923
100
AcDbEntity
  8
SIZE
  6
Continuous
 62
     0
370
    -2
100
AcDbLine
 10
-45391.07866409503
 20
3136.216184446249
 30
0.0
 11
-45539.75737199871
 21
3136.216184446249
 31
0.0
  0
LINE
  5
1927
330
1923
100
AcDbEntity
  8
SIZE
  6
Continuous
 62
     0
370
    -2
100
AcDbLine
 10
-45519.75737199871
 20
3654.616184446249
 30
0.0
 11
-45519.75737199871
 21
3148.216184446249
 31
0.0
  0
INSERT
  5
1928
330
1923
100
AcDbEntity
  8
SIZE
  6
Continuous
 62
     0
370
    -2
100
AcDbBlockReference
  2
_DOTBLANK
 10
-45519.75737199871
 20
3666.616184446249
 30
0.0
 41
12.0
 42
12.0
 43
12.0
 50
90.0
  0
INSERT
  5
1929
330
1923
100
AcDbEntity
  8
SIZE
  6
Continuous
 62
     0
370
    -2
100
AcDbBlockReference
  2
_DOTBLANK
 10
-45519.75737199871
 20
3136.216184446249
 30
0.0
 41
12.0
 42
12.0
 43
12.0
 50
270.0
  0
MTEXT
  5
192A
330
1923
100
AcDbEntity
  8
SIZE
  6
Continuous
 62
     0
100
AcDbMText
 10
-45561.75737199871
 20
3401.416184446242
 30
0.0
 40
64.0
 41
0.0
 71
     5
 72
     1
  1
\A1;530
 11
0.0000000000000001
 21
1.0
 31
0.0
 73
     1
 44
1.0
  0
POINT
  5
192B
330
1923
100
AcDbEntity
  8
DEFPOINTS
  6
Continuous
 62
     0
100
AcDbPoint
 10
-45371.07866409503
 20
3666.616184446249
 30
0.0
  0
POINT
  5
192C
330
1923
100
AcDbEntity
  8
DEFPOINTS
  6
Continuous
 62
     0
100
AcDbPoint
 10
-45371.07866409503
 20
3136.216184446249
 30
0.0
  0
POINT
  5
192D
330
1923
100
AcDbEntity
  8
DEFPOINTS
  6
Continuous
 62
     0
100
AcDbPoint
 10
-45519.75737199871
 20
3136.216184446249
 30
0.0
  0
ENDBLK
  5
192E
330
1923
100
AcDbEntity
  8
0
100
AcDbBlockEnd
  0
BLOCK
  5
1930
330
192F
100
AcDbEntity
  8
0
100
AcDbBlockBegin
  2
*D26
 70
     1
 10
0.0
 20
0.0
 30
0.0
  3
*D26
  1

  0
LINE
  5
1931
330
192F
100
AcDbEntity
  8
SIZE
  6
Continuous
 62
     0
370
    -2
100
AcDbLine
 10
-45389.07866409505
 20
4251.637030641876
 30
0.0
 11
-45670.84006611843
 21
4251.637030641876
 31
0.0
  0
LINE
  5
1932
330
192F
100
AcDbEntity
  8
SIZE
  6
Continuous
 62
     0
370
    -2
100
AcDbLine
 10
-45392.17866409503
 20
2996.416184446248
 30
0.0
 11
-45670.84006611843
 21
2996.416184446248
 31
0.0
  0
LINE
  5
1933
330
192F
100
AcDbEntity
  8
SIZE
  6
Continuous
 62
     0
370
    -2
100
AcDbLine
 10
-45650.84006611844
 20
4239.637030641875
 30
0.0
 11
-45650.84006611844
 21
3008.416184446248
 31
0.0
  0
INSERT
  5
1934
330
192F
100
AcDbEntity
  8
SIZE
  6
Continuous
 62
     0
370
    -2
100
AcDbBlockReference
  2
_DOTBLANK
 10
-45650.84006611844
 20
4251.637030641876
 30
0.0
 41
12.0
 42
12.0
 43
12.0
 50
90.0
  0
INSERT
  5
1935
330
192F
100
AcDbEntity
  8
SIZE
  6
Continuous
 62
     0
370
    -2
100
AcDbBlockReference
  2
_DOTBLANK
 10
-45650.84006611844
 20
2996.416184446248
 30
0.0
 41
12.0
 42
12.0
 43
12.0
 50
270.0
  0
MTEXT
  5
1936
330
192F
100
AcDbEntity
  8
SIZE
  6
Continuous
 62
     0
100
AcDbMText
 10
-45692.84006611844
 20
3624.026607544055
 30
0.0
 40
64.0
 41
0.0
 71
     5
 72
     1
  1
\A1;1255
 11
0.0000000000000001
 21
1.0
 31
0.0
 73
     1
 44
1.0
  0
POINT
  5
1937
330
192F
100
AcDbEntity
  8
DEFPOINTS
  6
Continuous
 62
     0
100
AcDbPoint
 10
-45369.07866409506
 20
4251.637030641876
 30
0.0
  0
POINT
  5
1938
330
192F
100
AcDbEntity
  8
DEFPOINTS
  6
Continuous
 62
     0
100
AcDbPoint
 10
-45372.17866409505
 20
2996.416184446248
 30
0.0
  0
POINT
  5
1939
330
192F
100
AcDbEntity
  8
DEFPOINTS
  6
Continuous
 62
     0
100
AcDbPoint
 10
-45650.84006611844
 20
2996.416184446248
 30
0.0
  0
ENDBLK
  5
193A
330
192F
100
AcDbEntity
  8
0
100
AcDbBlockEnd
  0
BLOCK
  5
193C
330
193B
100
AcDbEntity
  8
0
100
AcDbBlockBegin
  2
*D27
 70
     1
 10
0.0
 20
0.0
 30
0.0
  3
*D27
  1

  0
LINE
  5
193D
330
193B
100
AcDbEntity
  8
SIZE
  6
Continuous
 62
     0
370
    -2
100
AcDbLine
 10
-45363.57866409503
 20
3108.716184446249
 30
0.0
 11
-45363.57866409503
 21
2831.807994652447
 31
0.0
  0
LINE
  5
193E
330
193B
100
AcDbEntity
  8
SIZE
  6
Continuous
 62
     0
370
    -2
100
AcDbLine
 10
-44641.57866409503
 20
3108.716184446249
 30
0.0
 11
-44641.57866409503
 21
2831.807994652447
 31
0.0
  0
LINE
  5
193F
330
193B
100
AcDbEntity
  8
SIZE
  6
Continuous
 62
     0
370
    -2
100
AcDbLine
 10
-45351.57866409504
 20
2851.807994652446
 30
0.0
 11
-44653.57866409503
 21
2851.807994652446
 31
0.0
  0
INSERT
  5
1940
330
193B
100
AcDbEntity
  8
SIZE
  6
Continuous
 62
     0
370
    -2
100
AcDbBlockReference
  2
_DOTBLANK
 10
-45363.57866409503
 20
2851.807994652446
 30
0.0
 41
12.0
 42
12.0
 43
12.0
 50
180.0
  0
INSERT
  5
1941
330
193B
100
AcDbEntity
  8
SIZE
  6
Continuous
 62
     0
370
    -2
100
AcDbBlockReference
  2
_DOTBLANK
 10
-44641.57866409503
 20
2851.807994652446
 30
0.0
 41
12.0
 42
12.0
 43
12.0
  0
MTEXT
  5
1942
330
193B
100
AcDbEntity
  8
SIZE
  6
Continuous
 62
     0
100
AcDbMText
 10
-45002.57866409504
 20
2893.807994652446
 30
0.0
 40
64.0
 41
0.0
 71
     5
 72
     1
  1
\A1;722
 73
     1
 44
1.0
  0
POINT
  5
1943
330
193B
100
AcDbEntity
  8
DEFPOINTS
  6
Continuous
 62
     0
100
AcDbPoint
 10
-45363.57866409503
 20
3128.716184446249
 30
0.0
  0
POINT
  5
1944
330
193B
100
AcDbEntity
  8
DEFPOINTS
  6
Continuous
 62
     0
100
AcDbPoint
 10
-44641.57866409503
 20
3128.716184446249
 30
0.0
  0
POINT
  5
1945
330
193B
100
AcDbEntity
  8
DEFPOINTS
  6
Continuous
 62
     0
100
AcDbPoint
 10
-44641.57866409503
 20
2851.807994652446
 30
0.0
  0
ENDBLK
  5
1946
330
193B
100
AcDbEntity
  8
0
100
AcDbBlockEnd
  0
BLOCK
  5
1948
330
1947
100
AcDbEntity
  8
0
100
AcDbBlockBegin
  2
*D28
 70
     1
 10
0.0
 20
0.0
 30
0.0
  3
*D28
  1

  0
LINE
  5
1949
330
1947
100
AcDbEntity
  8
SIZE
  6
Continuous
 62
     0
370
    -2
100
AcDbLine
 10
-45373.07866409505
 20
2977.625945461523
 30
0.0
 11
-45373.07866409505
 21
2732.634410163454
 31
0.0
  0
LINE
  5
194A
330
1947
100
AcDbEntity
  8
SIZE
  6
Continuous
 62
     0
370
    -2
100
AcDbLine
 10
-44633.07866409504
 20
2976.416184446249
 30
0.0
 11
-44633.07866409504
 21
2732.634410163454
 31
0.0
  0
LINE
  5
194B
330
1947
100
AcDbEntity
  8
SIZE
  6
Continuous
 62
     0
370
    -2
100
AcDbLine
 10
-45361.07866409504
 20
2752.634410163454
 30
0.0
 11
-44645.07866409504
 21
2752.634410163454
 31
0.0
  0
INSERT
  5
194C
330
1947
100
AcDbEntity
  8
SIZE
  6
Continuous
 62
     0
370
    -2
100
AcDbBlockReference
  2
_DOTBLANK
 10
-45373.07866409505
 20
2752.634410163454
 30
0.0
 41
12.0
 42
12.0
 43
12.0
 50
180.0
  0
INSERT
  5
194D
330
1947
100
AcDbEntity
  8
SIZE
  6
Continuous
 62
     0
370
    -2
100
AcDbBlockReference
  2
_DOTBLANK
 10
-44633.07866409504
 20
2752.634410163454
 30
0.0
 41
12.0
 42
12.0
 43
12.0
  0
MTEXT
  5
194E
330
1947
100
AcDbEntity
  8
SIZE
  6
Continuous
 62
     0
100
AcDbMText
 10
-45003.07866409504
 20
2794.634410163454
 30
0.0
 40
64.0
 41
0.0
 71
     5
 72
     1
  1
\A1;740
 73
     1
 44
1.0
  0
POINT
  5
194F
330
1947
100
AcDbEntity
  8
DEFPOINTS
  6
Continuous
 62
     0
100
AcDbPoint
 10
-45373.07866409505
 20
2997.625945461523
 30
0.0
  0
POINT
  5
1950
330
1947
100
AcDbEntity
  8
DEFPOINTS
  6
Continuous
 62
     0
100
AcDbPoint
 10
-44633.07866409504
 20
2996.416184446249
 30
0.0
  0
POINT
  5
1951
330
1947
100
AcDbEntity
  8
DEFPOINTS
  6
Continuous
 62
     0
100
AcDbPoint
 10
-44633.07866409504
 20
2752.634410163454
 30
0.0
  0
ENDBLK
  5
1952
330
1947
100
AcDbEntity
  8
0
100
AcDbBlockEnd
  0
BLOCK
  5
1BCB
330
1BCA
100
AcDbEntity
  8
0
100
AcDbBlockBegin
  2
*D29
 70
     1
 10
0.0
 20
0.0
 30
0.0
  3
*D29
  1

  0
LINE
  5
1C1E
330
1BCA
100
AcDbEntity
  8
SIZE
  6
Continuous
 62
     0
370
    -2
100
AcDbLine
 10
-352.8000000000174
 20
650.1104230978094
 30
0.0
 11
-352.8000000000174
 21
746.5786958008004
 31
0.0
  0
LINE
  5
1C1F
330
1BCA
100
AcDbEntity
  8
SIZE
  6
Continuous
 62
     0
370
    -2
100
AcDbLine
 10
-24.00000000001455
 20
650.1104230978185
 30
0.0
 11
-24.00000000001455
 21
746.5786958008004
 31
0.0
  0
LINE
  5
1C20
330
1BCA
100
AcDbEntity
  8
SIZE
  6
Continuous
 62
     0
370
    -2
100
AcDbLine
 10
-340.8000000000175
 20
726.5786958008008
 30
0.0
 11
-36.00000000001454
 21
726.5786958008008
 31
0.0
  0
INSERT
  5
1C21
330
1BCA
100
AcDbEntity
  8
SIZE
  6
Continuous
 62
     0
370
    -2
100
AcDbBlockReference
  2
_DOTBLANK
 10
-352.8000000000174
 20
726.5786958008008
 30
0.0
 41
12.0
 42
12.0
 43
12.0
 50
180.0
  0
INSERT
  5
1C22
330
1BCA
100
AcDbEntity
  8
SIZE
  6
Continuous
 62
     0
370
    -2
100
AcDbBlockReference
  2
_DOTBLANK
 10
-24.00000000001455
 20
726.5786958008008
 30
0.0
 41
12.0
 42
12.0
 43
12.0
  0
MTEXT
  5
1C23
330
1BCA
100
AcDbEntity
  8
SIZE
  6
Continuous
 62
     0
100
AcDbMText
 10
-188.400000000016
 20
768.5786958008008
 30
0.0
 40
64.0
 41
0.0
 71
     5
 72
     1
  1
\A1;329
 73
     1
 44
1.0
  0
POINT
  5
1C24
330
1BCA
100
AcDbEntity
  8
DEFPOINTS
  6
Continuous
 62
     0
100
AcDbPoint
 10
-352.8000000000174
 20
630.1104230978094
 30
0.0
  0
POINT
  5
1C25
330
1BCA
100
AcDbEntity
  8
DEFPOINTS
  6
Continuous
 62
     0
100
AcDbPoint
 10
-24.00000000001455
 20
630.1104230978185
 30
0.0
  0
POINT
  5
1C26
330
1BCA
100
AcDbEntity
  8
DEFPOINTS
  6
Continuous
 62
     0
100
AcDbPoint
 10
-24.00000000001455
 20
726.5786958008008
 30
0.0
  0
ENDBLK
  5
1BCC
330
1BCA
100
AcDbEntity
  8
0
100
AcDbBlockEnd
  0
BLOCK
  5
1BD7
330
1BD6
100
AcDbEntity
  8
0
100
AcDbBlockBegin
  2
*D30
 70
     1
 10
0.0
 20
0.0
 30
0.0
  3
*D30
  1

  0
LINE
  5
1C27
330
1BD6
100
AcDbEntity
  8
SIZE
  6
Continuous
 62
     0
370
    -2
100
AcDbLine
 10
-24.00000000001455
 20
650.1104230978185
 30
0.0
 11
-24.00000000001455
 21
746.5786958008004
 31
0.0
  0
LINE
  5
1C28
330
1BD6
100
AcDbEntity
  8
SIZE
  6
Continuous
 62
     0
370
    -2
100
AcDbLine
 10
279.9999999999855
 20
650.1104230978257
 30
0.0
 11
279.9999999999855
 21
746.5786958008004
 31
0.0
  0
LINE
  5
1C29
330
1BD6
100
AcDbEntity
  8
SIZE
  6
Continuous
 62
     0
370
    -2
100
AcDbLine
 10
-12.00000000001454
 20
726.5786958008008
 30
0.0
 11
267.9999999999854
 21
726.5786958008008
 31
0.0
  0
INSERT
  5
1C2A
330
1BD6
100
AcDbEntity
  8
SIZE
  6
Continuous
 62
     0
370
    -2
100
AcDbBlockReference
  2
_DOTBLANK
 10
-24.00000000001455
 20
726.5786958008008
 30
0.0
 41
12.0
 42
12.0
 43
12.0
 50
180.0
  0
INSERT
  5
1C2B
330
1BD6
100
AcDbEntity
  8
SIZE
  6
Continuous
 62
     0
370
    -2
100
AcDbBlockReference
  2
_DOTBLANK
 10
279.9999999999855
 20
726.5786958008008
 30
0.0
 41
12.0
 42
12.0
 43
12.0
  0
MTEXT
  5
1C2C
330
1BD6
100
AcDbEntity
  8
SIZE
  6
Continuous
 62
     0
100
AcDbMText
 10
127.9999999999854
 20
768.5786958008008
 30
0.0
 40
64.0
 41
0.0
 71
     5
 72
     1
  1
\A1;304
 73
     1
 44
1.0
  0
POINT
  5
1C2D
330
1BD6
100
AcDbEntity
  8
DEFPOINTS
  6
Continuous
 62
     0
100
AcDbPoint
 10
-24.00000000001455
 20
630.1104230978185
 30
0.0
  0
POINT
  5
1C2E
330
1BD6
100
AcDbEntity
  8
DEFPOINTS
  6
Continuous
 62
     0
100
AcDbPoint
 10
279.9999999999855
 20
630.1104230978258
 30
0.0
  0
POINT
  5
1C2F
330
1BD6
100
AcDbEntity
  8
DEFPOINTS
  6
Continuous
 62
     0
100
AcDbPoint
 10
279.9999999999855
 20
726.5786958008008
 30
0.0
  0
ENDBLK
  5
1BD8
330
1BD6
100
AcDbEntity
  8
0
100
AcDbBlockEnd
  0
BLOCK
  5
1BE3
330
1BE2
100
AcDbEntity
  8
0
100
AcDbBlockBegin
  2
*D31
 70
     1
 10
0.0
 20
0.0
 30
0.0
  3
*D31
  1

  0
LINE
  5
1C30
330
1BE2
100
AcDbEntity
  8
SIZE
  6
Continuous
 62
     0
370
    -2
100
AcDbLine
 10
-388.5
 20
450.5895769021831
 30
0.0
 11
-537.1787079036656
 21
450.5895769021831
 31
0.0
  0
LINE
  5
1C31
330
1BE2
100
AcDbEntity
  8
SIZE
  6
Continuous
 62
     0
370
    -2
100
AcDbLine
 10
-388.5
 20
42.5895769021822
 30
0.0
 11
-537.1787079036656
 21
42.58957690218226
 31
0.0
  0
LINE
  5
1C32
330
1BE2
100
AcDbEntity
  8
SIZE
  6
Continuous
 62
     0
370
    -2
100
AcDbLine
 10
-517.1787079036656
 20
438.5895769021831
 30
0.0
 11
-517.1787079036659
 21
54.58957690218224
 31
0.0
  0
INSERT
  5
1C33
330
1BE2
100
AcDbEntity
  8
SIZE
  6
Continuous
 62
     0
370
    -2
100
AcDbBlockReference
  2
_DOTBLANK
 10
-517.1787079036656
 20
450.5895769021831
 30
0.0
 41
12.0
 42
12.0
 43
12.0
 50
90.0
  0
INSERT
  5
1C34
330
1BE2
100
AcDbEntity
  8
SIZE
  6
Continuous
 62
     0
370
    -2
100
AcDbBlockReference
  2
_DOTBLANK
 10
-517.1787079036659
 20
42.58957690218225
 30
0.0
 41
12.0
 42
12.0
 43
12.0
 50
270.0
  0
MTEXT
  5
1C35
330
1BE2
100
AcDbEntity
  8
SIZE
  6
Continuous
 62
     0
100
AcDbMText
 10
-559.1787079036659
 20
246.5895769021826
 30
0.0
 40
64.0
 41
0.0
 71
     5
 72
     1
  1
\A1;408
 11
0.0000000000000001
 21
1.0
 31
0.0
 73
     1
 44
1.0
  0
POINT
  5
1C36
330
1BE2
100
AcDbEntity
  8
DEFPOINTS
  6
Continuous
 62
     0
100
AcDbPoint
 10
-368.5
 20
450.5895769021831
 30
0.0
  0
POINT
  5
1C37
330
1BE2
100
AcDbEntity
  8
DEFPOINTS
  6
Continuous
 62
     0
100
AcDbPoint
 10
-368.5
 20
42.5895769021822
 30
0.0
  0
POINT
  5
1C38
330
1BE2
100
AcDbEntity
  8
DEFPOINTS
  6
Continuous
 62
     0
100
AcDbPoint
 10
-517.1787079036659
 20
42.58957690218225
 30
0.0
  0
ENDBLK
  5
1BE4
330
1BE2
100
AcDbEntity
  8
0
100
AcDbBlockEnd
  0
BLOCK
  5
1BEF
330
1BEE
100
AcDbEntity
  8
0
100
AcDbBlockBegin
  2
*D32
 70
     1
 10
0.0
 20
0.0
 30
0.0
  3
*D32
  1

  0
LINE
  5
1C39
330
1BEE
100
AcDbEntity
  8
SIZE
  6
Continuous
 62
     0
370
    -2
100
AcDbLine
 10
-388.5
 20
42.5895769021822
 30
0.0
 11
-537.1787079036656
 21
42.58957690218226
 31
0.0
  0
LINE
  5
1C3A
330
1BEE
100
AcDbEntity
  8
SIZE
  6
Continuous
 62
     0
370
    -2
100
AcDbLine
 10
-388.5
 20
-487.8104230978178
 30
0.0
 11
-537.1787079036656
 21
-487.8104230978178
 31
0.0
  0
LINE
  5
1C3B
330
1BEE
100
AcDbEntity
  8
SIZE
  6
Continuous
 62
     0
370
    -2
100
AcDbLine
 10
-517.1787079036656
 20
30.58957690218225
 30
0.0
 11
-517.1787079036659
 21
-475.8104230978178
 31
0.0
  0
INSERT
  5
1C3C
330
1BEE
100
AcDbEntity
  8
SIZE
  6
Continuous
 62
     0
370
    -2
100
AcDbBlockReference
  2
_DOTBLANK
 10
-517.1787079036656
 20
42.58957690218225
 30
0.0
 41
12.0
 42
12.0
 43
12.0
 50
90.0
  0
INSERT
  5
1C3D
330
1BEE
100
AcDbEntity
  8
SIZE
  6
Continuous
 62
     0
370
    -2
100
AcDbBlockReference
  2
_DOTBLANK
 10
-517.1787079036659
 20
-487.8104230978178
 30
0.0
 41
12.0
 42
12.0
 43
12.0
 50
270.0
  0
MTEXT
  5
1C3E
330
1BEE
100
AcDbEntity
  8
SIZE
  6
Continuous
 62
     0
100
AcDbMText
 10
-559.1787079036656
 20
-222.6104230978179
 30
0.0
 40
64.0
 41
0.0
 71
     5
 72
     1
  1
\A1;530
 11
0.0000000000000001
 21
1.0
 31
0.0
 73
     1
 44
1.0
  0
POINT
  5
1C3F
330
1BEE
100
AcDbEntity
  8
DEFPOINTS
  6
Continuous
 62
     0
100
AcDbPoint
 10
-368.5
 20
42.5895769021822
 30
0.0
  0
POINT
  5
1C40
330
1BEE
100
AcDbEntity
  8
DEFPOINTS
  6
Continuous
 62
     0
100
AcDbPoint
 10
-368.5
 20
-487.8104230978178
 30
0.0
  0
POINT
  5
1C41
330
1BEE
100
AcDbEntity
  8
DEFPOINTS
  6
Continuous
 62
     0
100
AcDbPoint
 10
-517.1787079036659
 20
-487.8104230978178
 30
0.0
  0
ENDBLK
  5
1BF0
330
1BEE
100
AcDbEntity
  8
0
100
AcDbBlockEnd
  0
BLOCK
  5
1BFB
330
1BFA
100
AcDbEntity
  8
0
100
AcDbBlockBegin
  2
*D33
 70
     1
 10
0.0
 20
0.0
 30
0.0
  3
*D33
  1

  0
LINE
  5
1C42
330
1BFA
100
AcDbEntity
  8
SIZE
  6
Continuous
 62
     0
370
    -2
100
AcDbLine
 10
-386.5000000000145
 20
627.6104230978094
 30
0.0
 11
-668.2614020234102
 21
627.6104230978094
 31
0.0
  0
LINE
  5
1C43
330
1BFA
100
AcDbEntity
  8
SIZE
  6
Continuous
 62
     0
370
    -2
100
AcDbLine
 10
-389.5999999999986
 20
-627.6104230978178
 30
0.0
 11
-668.2614020234105
 21
-627.6104230978178
 31
0.0
  0
LINE
  5
1C44
330
1BFA
100
AcDbEntity
  8
SIZE
  6
Continuous
 62
     0
370
    -2
100
AcDbLine
 10
-648.2614020234102
 20
615.6104230978094
 30
0.0
 11
-648.2614020234104
 21
-615.6104230978178
 31
0.0
  0
INSERT
  5
1C45
330
1BFA
100
AcDbEntity
  8
SIZE
  6
Continuous
 62
     0
370
    -2
100
AcDbBlockReference
  2
_DOTBLANK
 10
-648.2614020234102
 20
627.6104230978094
 30
0.0
 41
12.0
 42
12.0
 43
12.0
 50
90.0
  0
INSERT
  5
1C46
330
1BFA
100
AcDbEntity
  8
SIZE
  6
Continuous
 62
     0
370
    -2
100
AcDbBlockReference
  2
_DOTBLANK
 10
-648.2614020234104
 20
-627.6104230978178
 30
0.0
 41
12.0
 42
12.0
 43
12.0
 50
270.0
  0
MTEXT
  5
1C47
330
1BFA
100
AcDbEntity
  8
SIZE
  6
Continuous
 62
     0
100
AcDbMText
 10
-690.2614020234101
 20
-0.0000000000043889
 30
0.0
 40
64.0
 41
0.0
 71
     5
 72
     1
  1
\A1;1255
 11
0.0000000000000001
 21
1.0
 31
0.0
 73
     1
 44
1.0
  0
POINT
  5
1C48
330
1BFA
100
AcDbEntity
  8
DEFPOINTS
  6
Continuous
 62
     0
100
AcDbPoint
 10
-366.5000000000147
 20
627.6104230978094
 30
0.0
  0
POINT
  5
1C49
330
1BFA
100
AcDbEntity
  8
DEFPOINTS
  6
Continuous
 62
     0
100
AcDbPoint
 10
-369.5999999999985
 20
-627.6104230978178
 30
0.0
  0
POINT
  5
1C4A
330
1BFA
100
AcDbEntity
  8
DEFPOINTS
  6
Continuous
 62
     0
100
AcDbPoint
 10
-648.2614020234104
 20
-627.6104230978178
 30
0.0
  0
ENDBLK
  5
1BFC
330
1BFA
100
AcDbEntity
  8
0
100
AcDbBlockEnd
  0
BLOCK
  5
1C07
330
1C06
100
AcDbEntity
  8
0
100
AcDbBlockBegin
  2
*D34
 70
     1
 10
0.0
 20
0.0
 30
0.0
  3
*D34
  1

  0
LINE
  5
1C4B
330
1C06
100
AcDbEntity
  8
SIZE
  6
Continuous
 62
     0
370
    -2
100
AcDbLine
 10
-361.0
 20
-515.3104230978178
 30
0.0
 11
-361.0
 21
-792.2186128916205
 31
0.0
  0
LINE
  5
1C4C
330
1C06
100
AcDbEntity
  8
SIZE
  6
Continuous
 62
     0
370
    -2
100
AcDbLine
 10
361.0000000000145
 20
-515.3104230978174
 30
0.0
 11
361.0000000000145
 21
-792.2186128916205
 31
0.0
  0
LINE
  5
1C4D
330
1C06
100
AcDbEntity
  8
SIZE
  6
Continuous
 62
     0
370
    -2
100
AcDbLine
 10
-349.0
 20
-772.2186128916205
 30
0.0
 11
349.0000000000145
 21
-772.2186128916205
 31
0.0
  0
INSERT
  5
1C4E
330
1C06
100
AcDbEntity
  8
SIZE
  6
Continuous
 62
     0
370
    -2
100
AcDbBlockReference
  2
_DOTBLANK
 10
-361.0
 20
-772.2186128916205
 30
0.0
 41
12.0
 42
12.0
 43
12.0
 50
180.0
  0
INSERT
  5
1C4F
330
1C06
100
AcDbEntity
  8
SIZE
  6
Continuous
 62
     0
370
    -2
100
AcDbBlockReference
  2
_DOTBLANK
 10
361.0000000000145
 20
-772.2186128916205
 30
0.0
 41
12.0
 42
12.0
 43
12.0
  0
MTEXT
  5
1C50
330
1C06
100
AcDbEntity
  8
SIZE
  6
Continuous
 62
     0
100
AcDbMText
 10
0.0000000000072785
 20
-730.2186128916205
 30
0.0
 40
64.0
 41
0.0
 71
     5
 72
     1
  1
\A1;722
 73
     1
 44
1.0
  0
POINT
  5
1C51
330
1C06
100
AcDbEntity
  8
DEFPOINTS
  6
Continuous
 62
     0
100
AcDbPoint
 10
-361.0
 20
-495.3104230978178
 30
0.0
  0
POINT
  5
1C52
330
1C06
100
AcDbEntity
  8
DEFPOINTS
  6
Continuous
 62
     0
100
AcDbPoint
 10
361.0000000000145
 20
-495.3104230978174
 30
0.0
  0
POINT
  5
1C53
330
1C06
100
AcDbEntity
  8
DEFPOINTS
  6
Continuous
 62
     0
100
AcDbPoint
 10
361.0000000000145
 20
-772.2186128916205
 30
0.0
  0
ENDBLK
  5
1C08
330
1C06
100
AcDbEntity
  8
0
100
AcDbBlockEnd
  0
BLOCK
  5
1C13
330
1C12
100
AcDbEntity
  8
0
100
AcDbBlockBegin
  2
*D35
 70
     1
 10
0.0
 20
0.0
 30
0.0
  3
*D35
  1

  0
LINE
  5
1C54
330
1C12
100
AcDbEntity
  8
SIZE
  6
Continuous
 62
     0
370
    -2
100
AcDbLine
 10
-370.5
 20
-646.400662082543
 30
0.0
 11
-370.5
 21
-891.3921973806122
 31
0.0
  0
LINE
  5
1C55
330
1C12
100
AcDbEntity
  8
SIZE
  6
Continuous
 62
     0
370
    -2
100
AcDbLine
 10
369.5000000000074
 20
-647.6104230978176
 30
0.0
 11
369.5000000000074
 21
-891.3921973806122
 31
0.0
  0
LINE
  5
1C56
330
1C12
100
AcDbEntity
  8
SIZE
  6
Continuous
 62
     0
370
    -2
100
AcDbLine
 10
-358.5
 20
-871.3921973806121
 30
0.0
 11
357.5000000000073
 21
-871.3921973806121
 31
0.0
  0
INSERT
  5
1C57
330
1C12
100
AcDbEntity
  8
SIZE
  6
Continuous
 62
     0
370
    -2
100
AcDbBlockReference
  2
_DOTBLANK
 10
-370.5
 20
-871.3921973806121
 30
0.0
 41
12.0
 42
12.0
 43
12.0
 50
180.0
  0
INSERT
  5
1C58
330
1C12
100
AcDbEntity
  8
SIZE
  6
Continuous
 62
     0
370
    -2
100
AcDbBlockReference
  2
_DOTBLANK
 10
369.5000000000074
 20
-871.3921973806121
 30
0.0
 41
12.0
 42
12.0
 43
12.0
  0
MTEXT
  5
1C59
330
1C12
100
AcDbEntity
  8
SIZE
  6
Continuous
 62
     0
100
AcDbMText
 10
-0.4999999999927215
 20
-829.3921973806121
 30
0.0
 40
64.0
 41
0.0
 71
     5
 72
     1
  1
\A1;740
 73
     1
 44
1.0
  0
POINT
  5
1C5A
330
1C12
100
AcDbEntity
  8
DEFPOINTS
  6
Continuous
 62
     0
100
AcDbPoint
 10
-370.5
 20
-626.400662082543
 30
0.0
  0
POINT
  5
1C5B
330
1C12
100
AcDbEntity
  8
DEFPOINTS
  6
Continuous
 62
     0
100
AcDbPoint
 10
369.5000000000074
 20
-627.6104230978176
 30
0.0
  0
POINT
  5
1C5C
330
1C12
100
AcDbEntity
  8
DEFPOINTS
  6
Continuous
 62
     0
100
AcDbPoint
 10
369.5000000000074
 20
-871.3921973806121
 30
0.0
  0
ENDBLK
  5
1C14
330
1C12
100
AcDbEntity
  8
0
100
AcDbBlockEnd
  0
BLOCK
  5
1E61
330
1E60
100
AcDbEntity
  8
0
100
AcDbBlockBegin
  2
*D37
 70
     1
 10
0.0
 20
0.0
 30
0.0
  3
*D37
  1

  0
LINE
  5
1E62
330
1E60
100
AcDbEntity
  8
SIZE
  6
Continuous
 62
     0
370
    -2
100
AcDbLine
 10
-48520.52657755384
 20
5691.878033027556
 30
0.0
 11
-48520.52657755384
 21
5557.828861405074
 31
0.0
  0
LINE
  5
1E63
330
1E60
100
AcDbEntity
  8
SIZE
  6
Continuous
 62
     0
370
    -2
100
AcDbLine
 10
-47903.62657755384
 20
5710.878033027555
 30
0.0
 11
-47903.62657755384
 21
5557.828861405074
 31
0.0
  0
LINE
  5
1E64
330
1E60
100
AcDbEntity
  8
SIZE
  6
Continuous
 62
     0
370
    -2
100
AcDbLine
 10
-48508.52657755384
 20
5577.828861405073
 30
0.0
 11
-47915.62657755384
 21
5577.828861405073
 31
0.0
  0
INSERT
  5
1E65
330
1E60
100
AcDbEntity
  8
SIZE
  6
Continuous
 62
     0
370
    -2
100
AcDbBlockReference
  2
_DOTBLANK
 10
-48520.52657755384
 20
5577.828861405073
 30
0.0
 41
12.0
 42
12.0
 43
12.0
 50
180.0
  0
INSERT
  5
1E66
330
1E60
100
AcDbEntity
  8
SIZE
  6
Continuous
 62
     0
370
    -2
100
AcDbBlockReference
  2
_DOTBLANK
 10
-47903.62657755384
 20
5577.828861405073
 30
0.0
 41
12.0
 42
12.0
 43
12.0
  0
MTEXT
  5
1E67
330
1E60
100
AcDbEntity
  8
SIZE
  6
Continuous
 62
     0
100
AcDbMText
 10
-48212.07657755384
 20
5619.828861405074
 30
0.0
 40
64.0
 41
0.0
 71
     5
 72
     1
  1
\A1;617
 73
     1
 44
1.0
  0
POINT
  5
1E68
330
1E60
100
AcDbEntity
  8
DEFPOINTS
  6
Continuous
 62
     0
100
AcDbPoint
 10
-48520.52657755384
 20
5711.878033027556
 30
0.0
  0
POINT
  5
1E69
330
1E60
100
AcDbEntity
  8
DEFPOINTS
  6
Continuous
 62
     0
100
AcDbPoint
 10
-47903.62657755384
 20
5730.878033027556
 30
0.0
  0
POINT
  5
1E6A
330
1E60
100
AcDbEntity
  8
DEFPOINTS
  6
Continuous
 62
     0
100
AcDbPoint
 10
-47903.62657755384
 20
5577.828861405073
 30
0.0
  0
ENDBLK
  5
1E6B
330
1E60
100
AcDbEntity
  8
0
100
AcDbBlockEnd
  0
BLOCK
  5
1E6D
330
1E6C
100
AcDbEntity
  8
0
100
AcDbBlockBegin
  2
*D38
 70
     1
 10
0.0
 20
0.0
 30
0.0
  3
*D38
  1

  0
LINE
  5
1E6E
330
1E6C
100
AcDbEntity
  8
SIZE
  6
Continuous
 62
     0
370
    -2
100
AcDbLine
 10
-48526.02657755384
 20
5674.378033027556
 30
0.0
 11
-48526.02657755384
 21
5433.187713468175
 31
0.0
  0
LINE
  5
1E6F
330
1E6C
100
AcDbEntity
  8
SIZE
  6
Continuous
 62
     0
370
    -2
100
AcDbLine
 10
-47896.62657755384
 20
5674.378033027556
 30
0.0
 11
-47896.62657755384
 21
5433.187713468175
 31
0.0
  0
LINE
  5
1E70
330
1E6C
100
AcDbEntity
  8
SIZE
  6
Continuous
 62
     0
370
    -2
100
AcDbLine
 10
-48514.02657755384
 20
5453.187713468175
 30
0.0
 11
-47908.62657755384
 21
5453.187713468175
 31
0.0
  0
INSERT
  5
1E71
330
1E6C
100
AcDbEntity
  8
SIZE
  6
Continuous
 62
     0
370
    -2
100
AcDbBlockReference
  2
_DOTBLANK
 10
-48526.02657755384
 20
5453.187713468175
 30
0.0
 41
12.0
 42
12.0
 43
12.0
 50
180.0
  0
INSERT
  5
1E72
330
1E6C
100
AcDbEntity
  8
SIZE
  6
Continuous
 62
     0
370
    -2
100
AcDbBlockReference
  2
_DOTBLANK
 10
-47896.62657755384
 20
5453.187713468175
 30
0.0
 41
12.0
 42
12.0
 43
12.0
  0
MTEXT
  5
1E73
330
1E6C
100
AcDbEntity
  8
SIZE
  6
Continuous
 62
     0
100
AcDbMText
 10
-48211.32657755384
 20
5495.187713468175
 30
0.0
 40
64.0
 41
0.0
 71
     5
 72
     1
  1
\A1;629
 73
     1
 44
1.0
  0
POINT
  5
1E74
330
1E6C
100
AcDbEntity
  8
DEFPOINTS
  6
Continuous
 62
     0
100
AcDbPoint
 10
-48526.02657755384
 20
5694.378033027556
 30
0.0
  0
POINT
  5
1E75
330
1E6C
100
AcDbEntity
  8
DEFPOINTS
  6
Continuous
 62
     0
100
AcDbPoint
 10
-47896.62657755384
 20
5694.378033027556
 30
0.0
  0
POINT
  5
1E76
330
1E6C
100
AcDbEntity
  8
DEFPOINTS
  6
Continuous
 62
     0
100
AcDbPoint
 10
-47896.62657755384
 20
5453.187713468175
 30
0.0
  0
ENDBLK
  5
1E77
330
1E6C
100
AcDbEntity
  8
0
100
AcDbBlockEnd
  0
BLOCK
  5
1E79
330
1E78
100
AcDbEntity
  8
0
100
AcDbBlockBegin
  2
*D39
 70
     1
 10
0.0
 20
0.0
 30
0.0
  3
*D39
  1

  0
LINE
  5
1E7A
330
1E78
100
AcDbEntity
  8
SIZE
  6
Continuous
 62
     0
370
    -2
100
AcDbLine
 10
-48548.02657755384
 20
5719.378033027556
 30
0.0
 11
-48623.11980450066
 21
5719.378033027556
 31
0.0
  0
LINE
  5
1E7B
330
1E78
100
AcDbEntity
  8
SIZE
  6
Continuous
 62
     0
370
    -2
100
AcDbLine
 10
-48548.02657755384
 20
6097.378033027556
 30
0.0
 11
-48623.11980450066
 21
6097.378033027556
 31
0.0
  0
LINE
  5
1E7C
330
1E78
100
AcDbEntity
  8
SIZE
  6
Continuous
 62
     0
370
    -2
100
AcDbLine
 10
-48603.11980450066
 20
5731.378033027556
 30
0.0
 11
-48603.11980450066
 21
6085.378033027556
 31
0.0
  0
INSERT
  5
1E7D
330
1E78
100
AcDbEntity
  8
SIZE
  6
Continuous
 62
     0
370
    -2
100
AcDbBlockReference
  2
_DOTBLANK
 10
-48603.11980450066
 20
5719.378033027556
 30
0.0
 41
12.0
 42
12.0
 43
12.0
 50
270.0
  0
INSERT
  5
1E7E
330
1E78
100
AcDbEntity
  8
SIZE
  6
Continuous
 62
     0
370
    -2
100
AcDbBlockReference
  2
_DOTBLANK
 10
-48603.11980450066
 20
6097.378033027556
 30
0.0
 41
12.0
 42
12.0
 43
12.0
 50
90.0
  0
MTEXT
  5
1E7F
330
1E78
100
AcDbEntity
  8
SIZE
  6
Continuous
 62
     0
100
AcDbMText
 10
-48645.11980450066
 20
5908.378033027548
 30
0.0
 40
64.0
 41
0.0
 71
     5
 72
     1
  1
\A1;378
 11
0.0000000000000001
 21
1.0
 31
0.0
 73
     1
 44
1.0
  0
POINT
  5
1E80
330
1E78
100
AcDbEntity
  8
DEFPOINTS
  6
Continuous
 62
     0
100
AcDbPoint
 10
-48528.02657755384
 20
5719.378033027556
 30
0.0
  0
POINT
  5
1E81
330
1E78
100
AcDbEntity
  8
DEFPOINTS
  6
Continuous
 62
     0
100
AcDbPoint
 10
-48528.02657755384
 20
6097.378033027556
 30
0.0
  0
POINT
  5
1E82
330
1E78
100
AcDbEntity
  8
DEFPOINTS
  6
Continuous
 62
     0
100
AcDbPoint
 10
-48603.11980450066
 20
6097.378033027556
 30
0.0
  0
ENDBLK
  5
1E83
330
1E78
100
AcDbEntity
  8
0
100
AcDbBlockEnd
  0
BLOCK
  5
1E85
330
1E84
100
AcDbEntity
  8
0
100
AcDbBlockBegin
  2
*D40
 70
     1
 10
0.0
 20
0.0
 30
0.0
  3
*D40
  1

  0
LINE
  5
1E86
330
1E84
100
AcDbEntity
  8
SIZE
  6
Continuous
 62
     0
370
    -2
100
AcDbLine
 10
-48543.02657755384
 20
5691.378033027555
 30
0.0
 11
-48739.55322220129
 21
5691.378033027555
 31
0.0
  0
LINE
  5
1E87
330
1E84
100
AcDbEntity
  8
SIZE
  6
Continuous
 62
     0
370
    -2
100
AcDbLine
 10
-48529.82657755385
 20
6149.378033027556
 30
0.0
 11
-48739.55322220129
 21
6149.378033027556
 31
0.0
  0
LINE
  5
1E88
330
1E84
100
AcDbEntity
  8
SIZE
  6
Continuous
 62
     0
370
    -2
100
AcDbLine
 10
-48719.55322220129
 20
5703.378033027554
 30
0.0
 11
-48719.55322220129
 21
6137.378033027555
 31
0.0
  0
INSERT
  5
1E89
330
1E84
100
AcDbEntity
  8
SIZE
  6
Continuous
 62
     0
370
    -2
100
AcDbBlockReference
  2
_DOTBLANK
 10
-48719.55322220129
 20
5691.378033027555
 30
0.0
 41
12.0
 42
12.0
 43
12.0
 50
270.0
  0
INSERT
  5
1E8A
330
1E84
100
AcDbEntity
  8
SIZE
  6
Continuous
 62
     0
370
    -2
100
AcDbBlockReference
  2
_DOTBLANK
 10
-48719.55322220129
 20
6149.378033027556
 30
0.0
 41
12.0
 42
12.0
 43
12.0
 50
90.0
  0
MTEXT
  5
1E8B
330
1E84
100
AcDbEntity
  8
SIZE
  6
Continuous
 62
     0
100
AcDbMText
 10
-48761.55322220129
 20
5920.378033027547
 30
0.0
 40
64.0
 41
0.0
 71
     5
 72
     1
  1
\A1;458
 11
0.0000000000000001
 21
1.0
 31
0.0
 73
     1
 44
1.0
  0
POINT
  5
1E8C
330
1E84
100
AcDbEntity
  8
DEFPOINTS
  6
Continuous
 62
     0
100
AcDbPoint
 10
-48523.02657755384
 20
5691.378033027555
 30
0.0
  0
POINT
  5
1E8D
330
1E84
100
AcDbEntity
  8
DEFPOINTS
  6
Continuous
 62
     0
100
AcDbPoint
 10
-48509.82657755384
 20
6149.378033027556
 30
0.0
  0
POINT
  5
1E8E
330
1E84
100
AcDbEntity
  8
DEFPOINTS
  6
Continuous
 62
     0
100
AcDbPoint
 10
-48719.55322220129
 20
6149.378033027556
 30
0.0
  0
ENDBLK
  5
1E8F
330
1E84
100
AcDbEntity
  8
0
100
AcDbBlockEnd
  0
BLOCK
  5
1E91
330
1E90
100
AcDbEntity
  8
0
100
AcDbBlockBegin
  2
*D41
 70
     1
 10
0.0
 20
0.0
 30
0.0
  3
*D41
  1

  0
LINE
  5
1E92
330
1E90
100
AcDbEntity
  8
SIZE
  6
Continuous
 62
     0
370
    -2
100
AcDbLine
 10
-47876.12657755384
 20
6118.378033027555
 30
0.0
 11
-47734.16189591436
 21
6118.378033027555
 31
0.0
  0
LINE
  5
1E93
330
1E90
100
AcDbEntity
  8
SIZE
  6
Continuous
 62
     0
370
    -2
100
AcDbLine
 10
-47876.12657755384
 20
5928.378033027555
 30
0.0
 11
-47734.16189591436
 21
5928.378033027555
 31
0.0
  0
LINE
  5
1E94
330
1E90
100
AcDbEntity
  8
SIZE
  6
Continuous
 62
     0
370
    -2
100
AcDbLine
 10
-47754.16189591436
 20
6106.378033027555
 30
0.0
 11
-47754.16189591436
 21
5940.378033027555
 31
0.0
  0
INSERT
  5
1E95
330
1E90
100
AcDbEntity
  8
SIZE
  6
Continuous
 62
     0
370
    -2
100
AcDbBlockReference
  2
_DOTBLANK
 10
-47754.16189591436
 20
6118.378033027555
 30
0.0
 41
12.0
 42
12.0
 43
12.0
 50
90.0
  0
INSERT
  5
1E96
330
1E90
100
AcDbEntity
  8
SIZE
  6
Continuous
 62
     0
370
    -2
100
AcDbBlockReference
  2
_DOTBLANK
 10
-47754.16189591436
 20
5928.378033027555
 30
0.0
 41
12.0
 42
12.0
 43
12.0
 50
270.0
  0
MTEXT
  5
1E97
330
1E90
100
AcDbEntity
  8
SIZE
  6
Continuous
 62
     0
100
AcDbMText
 10
-47796.16189591436
 20
6023.378033027547
 30
0.0
 40
64.0
 41
0.0
 71
     5
 72
     1
  1
\A1;190
 11
0.0000000000000001
 21
1.0
 31
0.0
 73
     1
 44
1.0
  0
POINT
  5
1E98
330
1E90
100
AcDbEntity
  8
DEFPOINTS
  6
Continuous
 62
     0
100
AcDbPoint
 10
-47896.12657755384
 20
6118.378033027555
 30
0.0
  0
POINT
  5
1E99
330
1E90
100
AcDbEntity
  8
DEFPOINTS
  6
Continuous
 62
     0
100
AcDbPoint
 10
-47896.12657755384
 20
5928.378033027555
 30
0.0
  0
POINT
  5
1E9A
330
1E90
100
AcDbEntity
  8
DEFPOINTS
  6
Continuous
 62
     0
100
AcDbPoint
 10
-47754.16189591436
 20
5928.378033027555
 30
0.0
  0
ENDBLK
  5
1E9B
330
1E90
100
AcDbEntity
  8
0
100
AcDbBlockEnd
  0
BLOCK
  5
1E9D
330
1E9C
100
AcDbEntity
  8
0
100
AcDbBlockBegin
  2
*D42
 70
     1
 10
0.0
 20
0.0
 30
0.0
  3
*D42
  1

  0
LINE
  5
1E9E
330
1E9C
100
AcDbEntity
  8
SIZE
  6
Continuous
 62
     0
370
    -2
100
AcDbLine
 10
-47876.12657755384
 20
5928.378033027555
 30
0.0
 11
-47734.02261015867
 21
5928.378033027555
 31
0.0
  0
LINE
  5
1E9F
330
1E9C
100
AcDbEntity
  8
SIZE
  6
Continuous
 62
     0
370
    -2
100
AcDbLine
 10
-47876.12657755384
 20
5738.378033027555
 30
0.0
 11
-47734.02261015867
 21
5738.378033027555
 31
0.0
  0
LINE
  5
1EA0
330
1E9C
100
AcDbEntity
  8
SIZE
  6
Continuous
 62
     0
370
    -2
100
AcDbLine
 10
-47754.02261015867
 20
5916.378033027555
 30
0.0
 11
-47754.02261015867
 21
5750.378033027556
 31
0.0
  0
INSERT
  5
1EA1
330
1E9C
100
AcDbEntity
  8
SIZE
  6
Continuous
 62
     0
370
    -2
100
AcDbBlockReference
  2
_DOTBLANK
 10
-47754.02261015867
 20
5928.378033027555
 30
0.0
 41
12.0
 42
12.0
 43
12.0
 50
90.0
  0
INSERT
  5
1EA2
330
1E9C
100
AcDbEntity
  8
SIZE
  6
Continuous
 62
     0
370
    -2
100
AcDbBlockReference
  2
_DOTBLANK
 10
-47754.02261015867
 20
5738.378033027555
 30
0.0
 41
12.0
 42
12.0
 43
12.0
 50
270.0
  0
MTEXT
  5
1EA3
330
1E9C
100
AcDbEntity
  8
SIZE
  6
Continuous
 62
     0
100
AcDbMText
 10
-47796.02261015867
 20
5833.378033027546
 30
0.0
 40
64.0
 41
0.0
 71
     5
 72
     1
  1
\A1;190
 11
0.0000000000000001
 21
1.0
 31
0.0
 73
     1
 44
1.0
  0
POINT
  5
1EA4
330
1E9C
100
AcDbEntity
  8
DEFPOINTS
  6
Continuous
 62
     0
100
AcDbPoint
 10
-47896.12657755384
 20
5928.378033027555
 30
0.0
  0
POINT
  5
1EA5
330
1E9C
100
AcDbEntity
  8
DEFPOINTS
  6
Continuous
 62
     0
100
AcDbPoint
 10
-47896.12657755384
 20
5738.378033027555
 30
0.0
  0
POINT
  5
1EA6
330
1E9C
100
AcDbEntity
  8
DEFPOINTS
  6
Continuous
 62
     0
100
AcDbPoint
 10
-47754.02261015867
 20
5738.378033027555
 30
0.0
  0
ENDBLK
  5
1EA7
330
1E9C
100
AcDbEntity
  8
0
100
AcDbBlockEnd
  0
BLOCK
  5
22C6
330
22C5
100
AcDbEntity
  8
0
100
AcDbBlockBegin
  2
*D44
 70
     1
 10
0.0
 20
0.0
 30
0.0
  3
*D44
  1

  0
LINE
  5
22C8
330
22C5
100
AcDbEntity
  8
SIZE
  6
Continuous
 62
     0
370
    -2
100
AcDbLine
 10
-319.8434955680436
 20
-1832.30919765773
 30
0.0
 11
-319.8434955680436
 21
-1966.358369280212
 31
0.0
  0
LINE
  5
22C9
330
22C5
100
AcDbEntity
  8
SIZE
  6
Continuous
 62
     0
370
    -2
100
AcDbLine
 10
297.0565044319578
 20
-1813.30919765773
 30
0.0
 11
297.0565044319578
 21
-1966.358369280212
 31
0.0
  0
LINE
  5
22CA
330
22C5
100
AcDbEntity
  8
SIZE
  6
Continuous
 62
     0
370
    -2
100
AcDbLine
 10
-307.8434955680436
 20
-1946.358369280212
 30
0.0
 11
285.0565044319578
 21
-1946.358369280212
 31
0.0
  0
INSERT
  5
22CB
330
22C5
100
AcDbEntity
  8
SIZE
  6
Continuous
 62
     0
370
    -2
100
AcDbBlockReference
  2
_DOTBLANK
 10
-319.8434955680436
 20
-1946.358369280212
 30
0.0
 41
12.0
 42
12.0
 43
12.0
 50
180.0
  0
INSERT
  5
22CC
330
22C5
100
AcDbEntity
  8
SIZE
  6
Continuous
 62
     0
370
    -2
100
AcDbBlockReference
  2
_DOTBLANK
 10
297.0565044319578
 20
-1946.358369280212
 30
0.0
 41
12.0
 42
12.0
 43
12.0
  0
MTEXT
  5
22CD
330
22C5
100
AcDbEntity
  8
SIZE
  6
Continuous
 62
     0
100
AcDbMText
 10
-11.3934955680429
 20
-1904.358369280212
 30
0.0
 40
64.0
 41
0.0
 71
     5
 72
     1
  1
\A1;617
 73
     1
 44
1.0
  0
POINT
  5
22CE
330
22C5
100
AcDbEntity
  8
DEFPOINTS
  6
Continuous
 62
     0
100
AcDbPoint
 10
-319.8434955680436
 20
-1812.30919765773
 30
0.0
  0
POINT
  5
22CF
330
22C5
100
AcDbEntity
  8
DEFPOINTS
  6
Continuous
 62
     0
100
AcDbPoint
 10
297.0565044319578
 20
-1793.30919765773
 30
0.0
  0
POINT
  5
22D0
330
22C5
100
AcDbEntity
  8
DEFPOINTS
  6
Continuous
 62
     0
100
AcDbPoint
 10
297.0565044319578
 20
-1946.358369280212
 30
0.0
  0
ENDBLK
  5
22C7
330
22C5
100
AcDbEntity
  8
0
100
AcDbBlockEnd
  0
BLOCK
  5
22D2
330
22D1
100
AcDbEntity
  8
0
100
AcDbBlockBegin
  2
*D45
 70
     1
 10
0.0
 20
0.0
 30
0.0
  3
*D45
  1

  0
LINE
  5
22D4
330
22D1
100
AcDbEntity
  8
SIZE
  6
Continuous
 62
     0
370
    -2
100
AcDbLine
 10
-325.3434955680436
 20
-1849.80919765773
 30
0.0
 11
-325.3434955680436
 21
-2090.99951721711
 31
0.0
  0
LINE
  5
22D5
330
22D1
100
AcDbEntity
  8
SIZE
  6
Continuous
 62
     0
370
    -2
100
AcDbLine
 10
304.0565044319578
 20
-1849.80919765773
 30
0.0
 11
304.0565044319578
 21
-2090.99951721711
 31
0.0
  0
LINE
  5
22D6
330
22D1
100
AcDbEntity
  8
SIZE
  6
Continuous
 62
     0
370
    -2
100
AcDbLine
 10
-313.3434955680436
 20
-2070.99951721711
 30
0.0
 11
292.0565044319578
 21
-2070.99951721711
 31
0.0
  0
INSERT
  5
22D7
330
22D1
100
AcDbEntity
  8
SIZE
  6
Continuous
 62
     0
370
    -2
100
AcDbBlockReference
  2
_DOTBLANK
 10
-325.3434955680436
 20
-2070.99951721711
 30
0.0
 41
12.0
 42
12.0
 43
12.0
 50
180.0
  0
INSERT
  5
22D8
330
22D1
100
AcDbEntity
  8
SIZE
  6
Continuous
 62
     0
370
    -2
100
AcDbBlockReference
  2
_DOTBLANK
 10
304.0565044319578
 20
-2070.99951721711
 30
0.0
 41
12.0
 42
12.0
 43
12.0
  0
MTEXT
  5
22D9
330
22D1
100
AcDbEntity
  8
SIZE
  6
Continuous
 62
     0
100
AcDbMText
 10
-10.6434955680429
 20
-2028.99951721711
 30
0.0
 40
64.0
 41
0.0
 71
     5
 72
     1
  1
\A1;629
 73
     1
 44
1.0
  0
POINT
  5
22DA
330
22D1
100
AcDbEntity
  8
DEFPOINTS
  6
Continuous
 62
     0
100
AcDbPoint
 10
-325.3434955680436
 20
-1829.80919765773
 30
0.0
  0
POINT
  5
22DB
330
22D1
100
AcDbEntity
  8
DEFPOINTS
  6
Continuous
 62
     0
100
AcDbPoint
 10
304.0565044319578
 20
-1829.80919765773
 30
0.0
  0
POINT
  5
22DC
330
22D1
100
AcDbEntity
  8
DEFPOINTS
  6
Continuous
 62
     0
100
AcDbPoint
 10
304.0565044319578
 20
-2070.99951721711
 30
0.0
  0
ENDBLK
  5
22D3
330
22D1
100
AcDbEntity
  8
0
100
AcDbBlockEnd
  0
BLOCK
  5
22DE
330
22DD
100
AcDbEntity
  8
0
100
AcDbBlockBegin
  2
*D46
 70
     1
 10
0.0
 20
0.0
 30
0.0
  3
*D46
  1

  0
LINE
  5
22E0
330
22DD
100
AcDbEntity
  8
SIZE
  6
Continuous
 62
     0
370
    -2
100
AcDbLine
 10
-347.3434955680436
 20
-1804.80919765773
 30
0.0
 11
-422.4367225148612
 21
-1804.80919765773
 31
0.0
  0
LINE
  5
22E1
330
22DD
100
AcDbEntity
  8
SIZE
  6
Continuous
 62
     0
370
    -2
100
AcDbLine
 10
-347.3434955680436
 20
-1426.809197657729
 30
0.0
 11
-422.4367225148612
 21
-1426.809197657729
 31
0.0
  0
LINE
  5
22E2
330
22DD
100
AcDbEntity
  8
SIZE
  6
Continuous
 62
     0
370
    -2
100
AcDbLine
 10
-402.4367225148613
 20
-1792.80919765773
 30
0.0
 11
-402.4367225148612
 21
-1438.80919765773
 31
0.0
  0
INSERT
  5
22E3
330
22DD
100
AcDbEntity
  8
SIZE
  6
Continuous
 62
     0
370
    -2
100
AcDbBlockReference
  2
_DOTBLANK
 10
-402.4367225148613
 20
-1804.80919765773
 30
0.0
 41
12.0
 42
12.0
 43
12.0
 50
270.0
  0
INSERT
  5
22E4
330
22DD
100
AcDbEntity
  8
SIZE
  6
Continuous
 62
     0
370
    -2
100
AcDbBlockReference
  2
_DOTBLANK
 10
-402.4367225148612
 20
-1426.809197657729
 30
0.0
 41
12.0
 42
12.0
 43
12.0
 50
90.0
  0
MTEXT
  5
22E5
330
22DD
100
AcDbEntity
  8
SIZE
  6
Continuous
 62
     0
100
AcDbMText
 10
-444.4367225148609
 20
-1615.80919765773
 30
0.0
 40
64.0
 41
0.0
 71
     5
 72
     1
  1
\A1;378
 11
0.0000000000000001
 21
1.0
 31
0.0
 73
     1
 44
1.0
  0
POINT
  5
22E6
330
22DD
100
AcDbEntity
  8
DEFPOINTS
  6
Continuous
 62
     0
100
AcDbPoint
 10
-327.3434955680436
 20
-1804.80919765773
 30
0.0
  0
POINT
  5
22E7
330
22DD
100
AcDbEntity
  8
DEFPOINTS
  6
Continuous
 62
     0
100
AcDbPoint
 10
-327.3434955680436
 20
-1426.809197657729
 30
0.0
  0
POINT
  5
22E8
330
22DD
100
AcDbEntity
  8
DEFPOINTS
  6
Continuous
 62
     0
100
AcDbPoint
 10
-402.4367225148612
 20
-1426.809197657729
 30
0.0
  0
ENDBLK
  5
22DF
330
22DD
100
AcDbEntity
  8
0
100
AcDbBlockEnd
  0
BLOCK
  5
22EA
330
22E9
100
AcDbEntity
  8
0
100
AcDbBlockBegin
  2
*D47
 70
     1
 10
0.0
 20
0.0
 30
0.0
  3
*D47
  1

  0
LINE
  5
22EC
330
22E9
100
AcDbEntity
  8
SIZE
  6
Continuous
 62
     0
370
    -2
100
AcDbLine
 10
-342.3434955680436
 20
-1832.809197657731
 30
0.0
 11
-538.8701402154926
 21
-1832.80919765773
 31
0.0
  0
LINE
  5
22ED
330
22E9
100
AcDbEntity
  8
SIZE
  6
Continuous
 62
     0
370
    -2
100
AcDbLine
 10
-329.1434955680466
 20
-1374.80919765773
 30
0.0
 11
-538.8701402154924
 21
-1374.809197657729
 31
0.0
  0
LINE
  5
22EE
330
22E9
100
AcDbEntity
  8
SIZE
  6
Continuous
 62
     0
370
    -2
100
AcDbLine
 10
-518.8701402154926
 20
-1820.80919765773
 30
0.0
 11
-518.8701402154925
 21
-1386.809197657729
 31
0.0
  0
INSERT
  5
22EF
330
22E9
100
AcDbEntity
  8
SIZE
  6
Continuous
 62
     0
370
    -2
100
AcDbBlockReference
  2
_DOTBLANK
 10
-518.8701402154926
 20
-1832.80919765773
 30
0.0
 41
12.0
 42
12.0
 43
12.0
 50
270.0
  0
INSERT
  5
22F0
330
22E9
100
AcDbEntity
  8
SIZE
  6
Continuous
 62
     0
370
    -2
100
AcDbBlockReference
  2
_DOTBLANK
 10
-518.8701402154925
 20
-1374.809197657729
 30
0.0
 41
12.0
 42
12.0
 43
12.0
 50
90.0
  0
MTEXT
  5
22F1
330
22E9
100
AcDbEntity
  8
SIZE
  6
Continuous
 62
     0
100
AcDbMText
 10
-560.8701402154922
 20
-1603.80919765773
 30
0.0
 40
64.0
 41
0.0
 71
     5
 72
     1
  1
\A1;458
 11
0.0000000000000001
 21
1.0
 31
0.0
 73
     1
 44
1.0
  0
POINT
  5
22F2
330
22E9
100
AcDbEntity
  8
DEFPOINTS
  6
Continuous
 62
     0
100
AcDbPoint
 10
-322.3434955680436
 20
-1832.809197657731
 30
0.0
  0
POINT
  5
22F3
330
22E9
100
AcDbEntity
  8
DEFPOINTS
  6
Continuous
 62
     0
100
AcDbPoint
 10
-309.1434955680465
 20
-1374.80919765773
 30
0.0
  0
POINT
  5
22F4
330
22E9
100
AcDbEntity
  8
DEFPOINTS
  6
Continuous
 62
     0
100
AcDbPoint
 10
-518.8701402154925
 20
-1374.809197657729
 30
0.0
  0
ENDBLK
  5
22EB
330
22E9
100
AcDbEntity
  8
0
100
AcDbBlockEnd
  0
BLOCK
  5
22F6
330
22F5
100
AcDbEntity
  8
0
100
AcDbBlockBegin
  2
*D48
 70
     1
 10
0.0
 20
0.0
 30
0.0
  3
*D48
  1

  0
LINE
  5
22F8
330
22F5
100
AcDbEntity
  8
SIZE
  6
Continuous
 62
     0
370
    -2
100
AcDbLine
 10
324.5565044319578
 20
-1405.80919765773
 30
0.0
 11
466.5211860714321
 21
-1405.80919765773
 31
0.0
  0
LINE
  5
22F9
330
22F5
100
AcDbEntity
  8
SIZE
  6
Continuous
 62
     0
370
    -2
100
AcDbLine
 10
324.5565044319578
 20
-1595.809197657731
 30
0.0
 11
466.5211860714321
 21
-1595.809197657731
 31
0.0
  0
LINE
  5
22FA
330
22F5
100
AcDbEntity
  8
SIZE
  6
Continuous
 62
     0
370
    -2
100
AcDbLine
 10
446.5211860714321
 20
-1417.80919765773
 30
0.0
 11
446.5211860714321
 21
-1583.80919765773
 31
0.0
  0
INSERT
  5
22FB
330
22F5
100
AcDbEntity
  8
SIZE
  6
Continuous
 62
     0
370
    -2
100
AcDbBlockReference
  2
_DOTBLANK
 10
446.5211860714322
 20
-1405.80919765773
 30
0.0
 41
12.0
 42
12.0
 43
12.0
 50
90.0
  0
INSERT
  5
22FC
330
22F5
100
AcDbEntity
  8
SIZE
  6
Continuous
 62
     0
370
    -2
100
AcDbBlockReference
  2
_DOTBLANK
 10
446.5211860714321
 20
-1595.809197657731
 30
0.0
 41
12.0
 42
12.0
 43
12.0
 50
270.0
  0
MTEXT
  5
22FD
330
22F5
100
AcDbEntity
  8
SIZE
  6
Continuous
 62
     0
100
AcDbMText
 10
404.5211860714323
 20
-1500.80919765773
 30
0.0
 40
64.0
 41
0.0
 71
     5
 72
     1
  1
\A1;190
 11
0.0000000000000001
 21
1.0
 31
0.0
 73
     1
 44
1.0
  0
POINT
  5
22FE
330
22F5
100
AcDbEntity
  8
DEFPOINTS
  6
Continuous
 62
     0
100
AcDbPoint
 10
304.5565044319578
 20
-1405.80919765773
 30
0.0
  0
POINT
  5
22FF
330
22F5
100
AcDbEntity
  8
DEFPOINTS
  6
Continuous
 62
     0
100
AcDbPoint
 10
304.5565044319578
 20
-1595.809197657731
 30
0.0
  0
POINT
  5
2300
330
22F5
100
AcDbEntity
  8
DEFPOINTS
  6
Continuous
 62
     0
100
AcDbPoint
 10
446.5211860714321
 20
-1595.809197657731
 30
0.0
  0
ENDBLK
  5
22F7
330
22F5
100
AcDbEntity
  8
0
100
AcDbBlockEnd
  0
BLOCK
  5
2302
330
2301
100
AcDbEntity
  8
0
100
AcDbBlockBegin
  2
*D49
 70
     1
 10
0.0
 20
0.0
 30
0.0
  3
*D49
  1

  0
LINE
  5
2304
330
2301
100
AcDbEntity
  8
SIZE
  6
Continuous
 62
     0
370
    -2
100
AcDbLine
 10
324.5565044319578
 20
-1595.809197657731
 30
0.0
 11
466.6604718271251
 21
-1595.809197657731
 31
0.0
  0
LINE
  5
2305
330
2301
100
AcDbEntity
  8
SIZE
  6
Continuous
 62
     0
370
    -2
100
AcDbLine
 10
324.5565044319578
 20
-1785.80919765773
 30
0.0
 11
466.660471827125
 21
-1785.80919765773
 31
0.0
  0
LINE
  5
2306
330
2301
100
AcDbEntity
  8
SIZE
  6
Continuous
 62
     0
370
    -2
100
AcDbLine
 10
446.6604718271251
 20
-1607.809197657731
 30
0.0
 11
446.660471827125
 21
-1773.80919765773
 31
0.0
  0
INSERT
  5
2307
330
2301
100
AcDbEntity
  8
SIZE
  6
Continuous
 62
     0
370
    -2
100
AcDbBlockReference
  2
_DOTBLANK
 10
446.6604718271251
 20
-1595.809197657731
 30
0.0
 41
12.0
 42
12.0
 43
12.0
 50
90.0
  0
INSERT
  5
2308
330
2301
100
AcDbEntity
  8
SIZE
  6
Continuous
 62
     0
370
    -2
100
AcDbBlockReference
  2
_DOTBLANK
 10
446.660471827125
 20
-1785.80919765773
 30
0.0
 41
12.0
 42
12.0
 43
12.0
 50
270.0
  0
MTEXT
  5
2309
330
2301
100
AcDbEntity
  8
SIZE
  6
Continuous
 62
     0
100
AcDbMText
 10
404.6604718271253
 20
-1690.80919765773
 30
0.0
 40
64.0
 41
0.0
 71
     5
 72
     1
  1
\A1;190
 11
0.0000000000000001
 21
1.0
 31
0.0
 73
     1
 44
1.0
  0
POINT
  5
230A
330
2301
100
AcDbEntity
  8
DEFPOINTS
  6
Continuous
 62
     0
100
AcDbPoint
 10
304.5565044319578
 20
-1595.809197657731
 30
0.0
  0
POINT
  5
230B
330
2301
100
AcDbEntity
  8
DEFPOINTS
  6
Continuous
 62
     0
100
AcDbPoint
 10
304.5565044319578
 20
-1785.80919765773
 30
0.0
  0
POINT
  5
230C
330
2301
100
AcDbEntity
  8
DEFPOINTS
  6
Continuous
 62
     0
100
AcDbPoint
 10
446.660471827125
 20
-1785.80919765773
 30
0.0
  0
ENDBLK
  5
2303
330
2301
100
AcDbEntity
  8
0
100
AcDbBlockEnd
  0
ENDSEC
  0
SECTION
  2
ENTITIES
  0
TEXT
  5
953
330
85F
100
AcDbEntity
  8
OUTLINE
  6
Continuous
 62
     3
100
AcDbText
 10
-418.231467
 20
13.715189
 30
0.0
 40
64.0
  1
 
 41
0.9
100
AcDbText
  0
TEXT
  5
954
330
85F
100
AcDbEntity
  8
OUTLINE
  6
Continuous
 62
     3
100
AcDbText
 10
-418.231467
 20
13.715189
 30
0.0
 40
64.0
  1
 
 41
0.9
100
AcDbText
  0
TEXT
  5
955
330
85F
100
AcDbEntity
  8
OUTLINE
  6
Continuous
 62
     3
100
AcDbText
 10
1341.41903
 20
-706.0588199999997
 30
0.0
 40
64.0
  1
 
 41
0.9
100
AcDbText
  0
TEXT
  5
956
330
85F
100
AcDbEntity
  8
OUTLINE
  6
Continuous
 62
     3
100
AcDbText
 10
1341.41903
 20
-706.0588199999997
 30
0.0
 40
64.0
  1
 
 41
0.9
100
AcDbText
  0
TEXT
  5
957
330
85F
100
AcDbEntity
  8
OUTLINE
  6
Continuous
 62
     3
100
AcDbText
 10
1341.41903
 20
-706.0588199999997
 30
0.0
 40
64.0
  1
 
 41
0.9
100
AcDbText
  0
TEXT
  5
958
330
85F
100
AcDbEntity
  8
OUTLINE
  6
Continuous
 62
     3
100
AcDbText
 10
1341.41903
 20
-706.0588199999997
 30
0.0
 40
64.0
  1
 
 41
0.9
100
AcDbText
  0
LINE
  5
20BA
330
85F
100
AcDbEntity
  8
DETAIL
100
AcDbLine
 10
-317.3434955680436
 20
-1384.80919765773
 30
0.0
 11
-314.3434955680437
 21
-1381.80919765773
 31
0.0
  0
LINE
  5
20BB
330
85F
100
AcDbEntity
  8
DETAIL
100
AcDbLine
 10
-325.3434955680436
 20
-1418.809197657729
 30
0.0
 11
-322.3434955680436
 21
-1415.80919765773
 31
0.0
  0
LINE
  5
20BC
330
85F
100
AcDbEntity
  8
DETAIL
100
AcDbLine
 10
-322.3434955680436
 20
-1441.80919765773
 30
0.0
 11
-325.3434955680436
 21
-1438.80919765773
 31
0.0
  0
LINE
  5
20BD
330
85F
100
AcDbEntity
  8
DETAIL
100
AcDbLine
 10
-325.3434955680436
 20
-1794.80919765773
 30
0.0
 11
-322.3434955680436
 21
-1791.80919765773
 31
0.0
  0
LINE
  5
20BE
330
85F
100
AcDbEntity
  8
DETAIL
100
AcDbLine
 10
-322.3434955680436
 20
-1832.80919765773
 30
0.0
 11
-325.3434955680436
 21
-1829.80919765773
 31
0.0
  0
LINE
  5
20BF
330
85F
100
AcDbEntity
  8
DETAIL
100
AcDbLine
 10
-314.3434955680437
 20
-1381.80919765773
 30
0.0
 11
-313.2434955680451
 21
-1381.80919765773
 31
0.0
  0
LINE
  5
20C0
330
85F
100
AcDbEntity
  8
DETAIL
100
AcDbLine
 10
-325.3434955680436
 20
-1438.80919765773
 30
0.0
 11
-325.3434955680436
 21
-1418.809197657729
 31
0.0
  0
LINE
  5
20C1
330
85F
100
AcDbEntity
  8
DETAIL
100
AcDbLine
 10
-325.3434955680436
 20
-1829.80919765773
 30
0.0
 11
-325.3434955680436
 21
-1794.80919765773
 31
0.0
  0
LINE
  5
20C2
330
85F
100
AcDbEntity
  8
DETAIL
100
AcDbLine
 10
-313.2434955680451
 20
-1832.80919765773
 30
0.0
 11
-322.3434955680436
 21
-1832.80919765773
 31
0.0
  0
LINE
  5
20C3
330
85F
100
AcDbEntity
  8
DETAIL
100
AcDbLine
 10
-317.3434955680436
 20
-1384.80919765773
 30
0.0
 11
-317.3434955680436
 21
-1415.80919765773
 31
0.0
  0
LINE
  5
20C4
330
85F
100
AcDbEntity
  8
DETAIL
100
AcDbLine
 10
-317.3434955680436
 20
-1415.80919765773
 30
0.0
 11
-322.3434955680436
 21
-1415.80919765773
 31
0.0
  0
LINE
  5
20C5
330
85F
100
AcDbEntity
  8
DETAIL
100
AcDbLine
 10
-322.3434955680436
 20
-1441.80919765773
 30
0.0
 11
-317.3434955680436
 21
-1441.80919765773
 31
0.0
  0
LINE
  5
20C6
330
85F
100
AcDbEntity
  8
DETAIL
100
AcDbLine
 10
-317.3434955680436
 20
-1441.80919765773
 30
0.0
 11
-317.3434955680436
 21
-1791.80919765773
 31
0.0
  0
LINE
  5
20C7
330
85F
100
AcDbEntity
  8
DETAIL
100
AcDbLine
 10
-317.3434955680436
 20
-1791.80919765773
 30
0.0
 11
-322.3434955680436
 21
-1791.80919765773
 31
0.0
  0
LINE
  5
20C8
330
85F
100
AcDbEntity
  8
DETAIL
100
AcDbLine
 10
-313.2434955680451
 20
-1832.80919765773
 30
0.0
 11
-313.2434955680451
 21
-1381.80919765773
 31
0.0
  0
LINE
  5
20C9
330
85F
100
AcDbEntity
  8
DETAIL
100
AcDbLine
 10
-313.1434955680465
 20
-1831.982044252195
 30
0.0
 11
-312.6705377729172
 21
-1831.982044252195
 31
0.0
  0
LINE
  5
20CA
330
85F
100
AcDbEntity
  8
DETAIL
100
AcDbLine
 10
-312.6705377729172
 20
-1831.982044252195
 30
0.0
 11
-312.3434955680437
 21
-1831.982044252195
 31
0.0
  0
SPLINE
  5
20CB
330
85F
100
AcDbEntity
  8
DETAIL
100
AcDbSpline
210
0.0
220
0.0
230
1.0
 70
     8
 71
     3
 72
     8
 73
     4
 74
     0
 42
0.0000000001
 43
0.0000000001
 40
0.0
 40
0.0
 40
0.0
 40
0.0
 40
1.570796326794896
 40
1.570796326794896
 40
1.570796326794896
 40
1.570796326794896
 10
-313.1434955680465
 20
-1831.982044252195
 30
0.0
 10
-313.1434955680465
 20
-1832.257762054039
 30
0.0
 10
-313.1911356904834
 20
-1832.533479855884
 30
0.0
 10
-313.2434955680451
 20
-1832.80919765773
 30
0.0
  0
LINE
  5
20CC
330
85F
100
AcDbEntity
  8
DETAIL
100
AcDbLine
 10
-313.2434955680451
 20
-1381.80919765773
 30
0.0
 11
-313.1434955680465
 21
-1381.80919765773
 31
0.0
  0
SPLINE
  5
20CD
330
85F
100
AcDbEntity
  8
DETAIL
100
AcDbSpline
210
0.0
220
0.0
230
1.0
 70
     8
 71
     3
 72
    11
 73
     7
 74
     0
 42
0.0000000001
 43
0.0000000001
 40
0.0
 40
0.0
 40
0.0
 40
0.0
 40
1.437607986812995
 40
1.437607986812995
 40
1.437607986812995
 40
1.570796326794896
 40
1.570796326794896
 40
1.570796326794896
 40
1.570796326794896
 10
-312.3434955680437
 20
-1831.982044252195
 30
0.0
 10
-312.3434955680437
 20
-1832.234383850446
 30
0.0
 10
-312.69651738534
 20
-1832.486723448698
 30
0.0
 10
-313.1239801447314
 20
-1832.73906304695
 30
0.0
 10
-313.1635827734367
 20
-1832.762441250544
 30
0.0
 10
-313.2035390660544
 20
-1832.785819454137
 30
0.0
 10
-313.2434955680451
 20
-1832.80919765773
 30
0.0
  0
CIRCLE
  5
20CE
330
85F
100
AcDbEntity
  8
DETAIL
100
AcDbCircle
 10
-319.8434955680436
 20
-1426.809197657729
 30
0.0
 40
2.5
  0
CIRCLE
  5
20CF
330
85F
100
AcDbEntity
  8
DETAIL
100
AcDbCircle
 10
-319.8434955680436
 20
-1804.80919765773
 30
0.0
 40
2.5
  0
LINE
  5
20D0
330
85F
100
AcDbEntity
  8
DETAIL
100
AcDbLine
 10
-312.1434955680466
 20
-1381.80919765773
 30
0.0
 11
-312.2434955680451
 21
-1381.80919765773
 31
0.0
  0
LINE
  5
20D1
330
85F
100
AcDbEntity
  8
DETAIL
100
AcDbLine
 10
-303.0934955680436
 20
-1388.215417940108
 30
0.0
 11
-303.0934955680436
 21
-1388.392653653261
 31
0.0
  0
LINE
  5
20D2
330
85F
100
AcDbEntity
  8
DETAIL
100
AcDbLine
 10
-303.0934955680436
 20
-1389.085473976288
 30
0.0
 11
-303.0934955680436
 21
-1388.392653653261
 31
0.0
  0
ELLIPSE
  5
20D3
330
85F
100
AcDbEntity
  8
DETAIL
100
AcDbEllipse
 10
-303.6434955680466
 20
-1389.090417940108
 30
0.0
 11
1.499999999999995
 21
-0.0000000000000219
 31
0.0
210
0.0
220
0.0
230
1.0
 40
0.500000000000008
 41
0.0008572120716055
 42
1.195372718814051
  0
ELLIPSE
  5
20D4
330
85F
100
AcDbEntity
  8
DETAIL
100
AcDbEllipse
 10
-303.6434955680466
 20
-1389.090417940108
 30
0.0
 11
-1.499999999999992
 21
-0.0000000000000019
 31
0.0
210
0.0
220
0.0
230
1.0
 40
0.4999999999999965
 41
5.087812588365622
 42
6.282328095109664
  0
ELLIPSE
  5
20D5
330
85F
100
AcDbEntity
  8
DETAIL
100
AcDbEllipse
 10
-303.6434955680466
 20
-1389.783238263136
 30
0.0
 11
-1.499999999999997
 21
-0.0000000000000137
 31
0.0
210
0.0
220
0.0
230
1.0
 40
0.4999999999999786
 41
5.087812588365604
 42
5.457068582172198
  0
ELLIPSE
  5
20D6
330
85F
100
AcDbEntity
  8
DETAIL
100
AcDbEllipse
 10
-303.6434955680466
 20
-1389.783238263136
 30
0.0
 11
-1.499999999999972
 21
-0.0000000000000482
 31
0.0
210
0.0
220
0.0
230
1.0
 40
0.500000000000001
 41
3.967709378597636
 42
4.336965372403688
  0
LINE
  5
20D7
330
85F
100
AcDbEntity
  8
DETAIL
100
AcDbLine
 10
-304.1934955680422
 20
-1389.085473976288
 30
0.0
 11
-304.1934955680422
 21
-1388.392653653261
 31
0.0
  0
LINE
  5
20D8
330
85F
100
AcDbEntity
  8
DETAIL
100
AcDbLine
 10
-304.1934955680422
 20
-1388.392653653261
 30
0.0
 11
-304.1934955680422
 21
-1388.215417940108
 31
0.0
  0
ELLIPSE
  5
20D9
330
85F
100
AcDbEntity
  8
DETAIL
100
AcDbEllipse
 10
-303.6434955680466
 20
-1388.215417940108
 30
0.0
 11
-0.5499999999999983
 21
0.0000000000000244
 31
0.0
210
0.0
220
0.0
230
1.0
 40
0.5000000000000036
 41
3.141592653590049
 42
6.283185307179842
  0
ELLIPSE
  5
20DA
330
85F
100
AcDbEntity
  8
DETAIL
100
AcDbEllipse
 10
-303.6434955680466
 20
-1388.908238263136
 30
0.0
 11
0.5500000000000027
 21
-0.0000000000000089
 31
0.0
210
0.0
220
0.0
230
1.0
 40
0.5000000000000023
 41
0.0000000000000323
 42
3.141592653589825
  0
LINE
  5
20DB
330
85F
100
AcDbEntity
  8
DETAIL
100
AcDbLine
 10
-303.0934955680436
 20
-1448.215417940108
 30
0.0
 11
-303.0934955680436
 21
-1448.392653653261
 31
0.0
  0
LINE
  5
20DC
330
85F
100
AcDbEntity
  8
DETAIL
100
AcDbLine
 10
-303.0934955680436
 20
-1449.085473976288
 30
0.0
 11
-303.0934955680436
 21
-1448.392653653261
 31
0.0
  0
ELLIPSE
  5
20DD
330
85F
100
AcDbEntity
  8
DETAIL
100
AcDbEllipse
 10
-303.6434955680466
 20
-1449.090417940108
 30
0.0
 11
1.499999999999965
 21
-0.0000000000000526
 31
0.0
210
0.0
220
0.0
230
1.0
 40
0.499999999999996
 41
0.0008572120723569
 42
1.195372718813987
  0
ELLIPSE
  5
20DE
330
85F
100
AcDbEntity
  8
DETAIL
100
AcDbEllipse
 10
-303.6434955680466
 20
-1449.090417940108
 30
0.0
 11
-1.500000000000006
 21
-0.0000000000000252
 31
0.0
210
0.0
220
0.0
230
1.0
 40
0.4999999999999901
 41
5.087812588365608
 42
6.282328095107976
  0
ELLIPSE
  5
20DF
330
85F
100
AcDbEntity
  8
DETAIL
100
AcDbEllipse
 10
-303.6434955680466
 20
-1449.783238263137
 30
0.0
 11
-1.500000000000723
 21
0.0000000000001616
 31
0.0
210
0.0
220
0.0
230
1.0
 40
0.5000000000001318
 41
5.087812588365971
 42
5.457068582171017
  0
ELLIPSE
  5
20E0
330
85F
100
AcDbEntity
  8
DETAIL
100
AcDbEllipse
 10
-303.6434955680466
 20
-1449.783238263136
 30
0.0
 11
-1.500000000000206
 21
0.0000000000001247
 31
0.0
210
0.0
220
0.0
230
1.0
 40
0.4999999999998302
 41
3.967709378598452
 42
4.336965372403358
  0
LINE
  5
20E1
330
85F
100
AcDbEntity
  8
DETAIL
100
AcDbLine
 10
-304.1934955680495
 20
-1449.085473976288
 30
0.0
 11
-304.1934955680495
 21
-1448.392653653261
 31
0.0
  0
LINE
  5
20E2
330
85F
100
AcDbEntity
  8
DETAIL
100
AcDbLine
 10
-304.1934955680495
 20
-1448.392653653261
 30
0.0
 11
-304.1934955680495
 21
-1448.215417940108
 31
0.0
  0
ELLIPSE
  5
20E3
330
85F
100
AcDbEntity
  8
DETAIL
100
AcDbEllipse
 10
-303.6434955680466
 20
-1448.215417940108
 30
0.0
 11
-0.5500000000000006
 21
0.0000000000000178
 31
0.0
210
0.0
220
0.0
230
1.0
 40
0.4999999999999967
 41
3.141592653589968
 42
6.283185307179762
  0
ELLIPSE
  5
20E4
330
85F
100
AcDbEntity
  8
DETAIL
100
AcDbEllipse
 10
-303.6434955680466
 20
-1448.908238263137
 30
0.0
 11
0.5500000000000006
 21
0.0
 31
0.0
210
0.0
220
0.0
230
1.0
 40
0.4999999999999967
 41
0.0
 42
3.141592653589681
  0
LINE
  5
20E5
330
85F
100
AcDbEntity
  8
DETAIL
100
AcDbLine
 10
-303.0934955680436
 20
-1648.128501057551
 30
0.0
 11
-303.0934955680436
 21
-1648.482972483855
 31
0.0
  0
ARC
  5
20E6
330
85F
100
AcDbEntity
  8
DETAIL
100
AcDbCircle
 10
-303.6434955680466
 20
-1649.878501057551
 30
0.0
 40
1.500000000000017
100
AcDbArc
 50
111.5101882670052
 51
68.48981173299477
  0
LINE
  5
20E7
330
85F
100
AcDbEntity
  8
DETAIL
100
AcDbLine
 10
-304.1934955680495
 20
-1648.482972483855
 30
0.0
 11
-304.1934955680495
 21
-1648.128501057551
 31
0.0
  0
ARC
  5
20E8
330
85F
100
AcDbEntity
  8
DETAIL
100
AcDbCircle
 10
-303.6434955680466
 20
-1648.128501057551
 30
0.0
 40
0.5500000000000006
100
AcDbArc
 50
0.0
 51
180.0
  0
LINE
  5
20E9
330
85F
100
AcDbEntity
  8
DETAIL
100
AcDbLine
 10
-311.543495568048
 20
-1824.538549487305
 30
0.0
 11
-312.3434955680437
 21
-1824.538549487305
 31
0.0
  0
LINE
  5
20EA
330
85F
100
AcDbEntity
  8
DETAIL
100
AcDbLine
 10
-311.543495568048
 20
-1683.261130278939
 30
0.0
 11
-311.543495568048
 21
-1682.784372947187
 31
0.0
  0
LINE
  5
20EB
330
85F
100
AcDbEntity
  8
DETAIL
100
AcDbLine
 10
-311.543495568048
 20
-1682.784372947187
 30
0.0
 11
-312.3434955680437
 21
-1682.784372947187
 31
0.0
  0
LINE
  5
20EC
330
85F
100
AcDbEntity
  8
DETAIL
100
AcDbLine
 10
-311.543495568048
 20
-1683.261130278939
 30
0.0
 11
-312.3434955680437
 21
-1683.261130278939
 31
0.0
  0
LINE
  5
20ED
330
85F
100
AcDbEntity
  8
DETAIL
100
AcDbLine
 10
-311.543495568048
 20
-1683.261130278939
 30
0.0
 11
-311.543495568048
 21
-1824.538549487305
 31
0.0
  0
LINE
  5
20EE
330
85F
100
AcDbEntity
  8
DETAIL
100
AcDbLine
 10
-312.3434955680437
 20
-1683.261130278939
 30
0.0
 11
-312.3434955680437
 21
-1680.704876973162
 31
0.0
  0
LINE
  5
20EF
330
85F
100
AcDbEntity
  8
DETAIL
100
AcDbLine
 10
-313.1434955680465
 20
-1680.704876973162
 30
0.0
 11
-313.1434955680465
 21
-1831.982044252195
 31
0.0
  0
LINE
  5
20F0
330
85F
100
AcDbEntity
  8
DETAIL
100
AcDbLine
 10
-312.3434955680437
 20
-1831.982044252195
 30
0.0
 11
-312.3434955680437
 21
-1824.538549487305
 31
0.0
  0
LINE
  5
20F1
330
85F
100
AcDbEntity
  8
DETAIL
100
AcDbLine
 10
-312.3434955680437
 20
-1382.304197657729
 30
0.0
 11
-312.3434955680437
 21
-1381.80919765773
 31
0.0
  0
LINE
  5
20F2
330
85F
100
AcDbEntity
  8
DETAIL
100
AcDbLine
 10
-312.3434955680437
 20
-1461.867723567627
 30
0.0
 11
-312.3434955680437
 21
-1459.878501057551
 31
0.0
  0
LINE
  5
20F3
330
85F
100
AcDbEntity
  8
DETAIL
100
AcDbLine
 10
-313.1434955680465
 20
-1459.878501057551
 30
0.0
 11
-313.1434955680465
 21
-1461.867723567627
 31
0.0
  0
LINE
  5
20F4
330
85F
100
AcDbEntity
  8
DETAIL
100
AcDbLine
 10
-312.3434955680437
 20
-1381.80919765773
 30
0.0
 11
-313.1434955680465
 21
-1381.80919765773
 31
0.0
  0
LINE
  5
20F5
330
85F
100
AcDbEntity
  8
DETAIL
100
AcDbLine
 10
-313.1434955680465
 20
-1381.80919765773
 30
0.0
 11
-313.1434955680465
 21
-1382.304197657729
 31
0.0
  0
LINE
  5
20F6
330
85F
100
AcDbEntity
  8
DETAIL
100
AcDbLine
 10
-312.3434955680437
 20
-1680.704876973162
 30
0.0
 11
-312.8164533631803
 21
-1680.704876973162
 31
0.0
  0
LINE
  5
20F7
330
85F
100
AcDbEntity
  8
DETAIL
100
AcDbLine
 10
-312.8164533631803
 20
-1680.704876973162
 30
0.0
 11
-313.1434955680465
 21
-1680.704876973162
 31
0.0
  0
LINE
  5
20F8
330
85F
100
AcDbEntity
  8
DETAIL
100
AcDbLine
 10
-312.2434955680451
 20
-1461.877723567627
 30
0.0
 11
-312.2434955680451
 21
-1679.877723567626
 31
0.0
  0
LINE
  5
20F9
330
85F
100
AcDbEntity
  8
DETAIL
100
AcDbLine
 10
-312.2434955680451
 20
-1461.877723567627
 30
0.0
 11
-313.1434955680465
 21
-1461.877723567627
 31
0.0
  0
LINE
  5
20FA
330
85F
100
AcDbEntity
  8
DETAIL
100
AcDbLine
 10
-313.1434955680465
 20
-1680.704876973162
 30
0.0
 11
-313.1434955680465
 21
-1461.877723567627
 31
0.0
  0
SPLINE
  5
20FB
330
85F
100
AcDbEntity
  8
DETAIL
100
AcDbSpline
210
0.0
220
0.0
230
1.0
 70
     8
 71
     3
 72
    11
 73
     7
 74
     0
 42
0.0000000001
 43
0.0000000001
 40
0.0
 40
0.0
 40
0.0
 40
0.0
 40
1.437607986812809
 40
1.437607986812809
 40
1.437607986812809
 40
1.570796326794893
 40
1.570796326794893
 40
1.570796326794893
 40
1.570796326794893
 10
-312.2434955680451
 20
-1679.877723567626
 30
0.0
 10
-312.6747779640878
 20
-1680.130063165878
 30
0.0
 10
-313.0782526421622
 20
-1680.38240276413
 30
0.0
 10
-313.1355247511979
 20
-1680.634742362382
 30
0.0
 10
-313.140830771475
 20
-1680.658120565975
 30
0.0
 10
-313.1434955680465
 20
-1680.681498769568
 30
0.0
 10
-313.1434955680465
 20
-1680.704876973162
 30
0.0
  0
SPLINE
  5
20FC
330
85F
100
AcDbEntity
  8
DETAIL
100
AcDbSpline
210
0.0
220
0.0
230
1.0
 70
     8
 71
     3
 72
     8
 73
     4
 74
     0
 42
0.0000000001
 43
0.0000000001
 40
0.0
 40
0.0
 40
0.0
 40
0.0
 40
1.570796326794893
 40
1.570796326794893
 40
1.570796326794893
 40
1.570796326794893
 10
-312.3434955680437
 20
-1680.704876973162
 30
0.0
 10
-312.3434955680437
 20
-1680.429159171316
 30
0.0
 10
-312.2958554456068
 20
-1680.15344136947
 30
0.0
 10
-312.2434955680451
 20
-1679.877723567626
 30
0.0
  0
LINE
  5
20FD
330
85F
100
AcDbEntity
  8
DETAIL
100
AcDbLine
 10
-313.1434955680465
 20
-1461.867723567627
 30
0.0
 11
-312.3434955680437
 21
-1461.867723567627
 31
0.0
  0
LINE
  5
20FE
330
85F
100
AcDbEntity
  8
DETAIL
100
AcDbLine
 10
-313.1434955680465
 20
-1461.877723567627
 30
0.0
 11
-313.1434955680465
 21
-1461.867723567627
 31
0.0
  0
LINE
  5
20FF
330
85F
100
AcDbEntity
  8
DETAIL
100
AcDbLine
 10
-312.3434955680437
 20
-1461.867723567627
 30
0.0
 11
-312.3434955680437
 21
-1461.877723567627
 31
0.0
  0
LINE
  5
2100
330
85F
100
AcDbEntity
  8
DETAIL
100
AcDbLine
 10
-312.1434955680466
 20
-1679.788319594116
 30
0.0
 11
-312.2434955680451
 21
-1679.877723567626
 31
0.0
  0
LINE
  5
2101
330
85F
100
AcDbEntity
  8
DETAIL
100
AcDbLine
 10
-312.2434955680451
 20
-1461.877723567627
 30
0.0
 11
-312.1434955680466
 21
-1461.877723567627
 31
0.0
  0
LINE
  5
2102
330
85F
100
AcDbEntity
  8
DETAIL
100
AcDbLine
 10
-303.0934955680436
 20
-1498.128501057551
 30
0.0
 11
-303.0934955680436
 21
-1498.482972483855
 31
0.0
  0
ARC
  5
2103
330
85F
100
AcDbEntity
  8
DETAIL
100
AcDbCircle
 10
-303.6434955680466
 20
-1499.878501057551
 30
0.0
 40
1.499999999999984
100
AcDbArc
 50
111.5101882670052
 51
68.48981173299477
  0
LINE
  5
2104
330
85F
100
AcDbEntity
  8
DETAIL
100
AcDbLine
 10
-304.1934955680495
 20
-1498.482972483855
 30
0.0
 11
-304.1934955680495
 21
-1498.128501057551
 31
0.0
  0
ARC
  5
2105
330
85F
100
AcDbEntity
  8
DETAIL
100
AcDbCircle
 10
-303.6434955680466
 20
-1498.128501057551
 30
0.0
 40
0.5500000000000006
100
AcDbArc
 50
0.0
 51
180.0
  0
LINE
  5
2106
330
85F
100
AcDbEntity
  8
DETAIL
100
AcDbLine
 10
-312.3434955680437
 20
-1382.304197657729
 30
0.0
 11
-312.3434955680437
 21
-1382.314023851895
 31
0.0
  0
LINE
  5
2107
330
85F
100
AcDbEntity
  8
DETAIL
100
AcDbLine
 10
-312.3434955680437
 20
-1459.107146431032
 30
0.0
 11
-312.3434955680437
 21
-1459.11580668507
 31
0.0
  0
LINE
  5
2108
330
85F
100
AcDbEntity
  8
DETAIL
100
AcDbLine
 10
-312.3434955680437
 20
-1459.11580668507
 30
0.0
 11
-312.3434955680437
 21
-1459.878501057551
 31
0.0
  0
LINE
  5
2109
330
85F
100
AcDbEntity
  8
DETAIL
100
AcDbLine
 10
-312.2434955680451
 20
-1382.309197657731
 30
0.0
 11
-312.2434955680451
 21
-1458.327723567627
 31
0.0
  0
ELLIPSE
  5
210A
330
85F
100
AcDbEntity
  8
DETAIL
100
AcDbEllipse
 10
-312.2434955680451
 20
-1383.088620521137
 30
0.0
 11
-0.9000000000001138
 21
0.0000000000009917
 31
0.0
210
0.0
220
0.0
230
1.0
 40
0.8660254037844424
 41
4.712388980385643
 42
6.283185307180136
  0
LINE
  5
210B
330
85F
100
AcDbEntity
  8
DETAIL
100
AcDbLine
 10
-313.1434955680465
 20
-1459.107146431032
 30
0.0
 11
-313.1434955680465
 21
-1383.088620521135
 31
0.0
  0
ELLIPSE
  5
210C
330
85F
100
AcDbEntity
  8
DETAIL
100
AcDbEllipse
 10
-312.2434955680451
 20
-1459.107146431033
 30
0.0
 11
-0.8999999999999234
 21
0.0000000000000181
 31
0.0
210
0.0
220
0.0
230
1.0
 40
0.8660254037844026
 41
4.712388980384707
 42
6.283185307179897
  0
LINE
  5
210D
330
85F
100
AcDbEntity
  8
DETAIL
100
AcDbLine
 10
-312.2434955680451
 20
-1458.327723567627
 30
0.0
 11
-312.2434955680451
 21
-1459.020543890655
 31
0.0
  0
LINE
  5
210E
330
85F
100
AcDbEntity
  8
DETAIL
100
AcDbLine
 10
-313.1434955680465
 20
-1459.107146431032
 30
0.0
 11
-312.3434955680437
 21
-1459.107146431032
 31
0.0
  0
ELLIPSE
  5
210F
330
85F
100
AcDbEntity
  8
DETAIL
100
AcDbEllipse
 10
-312.2434955680451
 20
-1459.107146431033
 30
0.0
 11
-0.0999999999999608
 21
0.0000000000000128
 31
0.0
210
0.0
220
0.0
230
1.0
 40
0.8660254037843822
 41
4.7123889803848
 42
6.283185307179786
  0
LINE
  5
2110
330
85F
100
AcDbEntity
  8
DETAIL
100
AcDbLine
 10
-313.1434955680465
 20
-1459.878501057551
 30
0.0
 11
-313.1434955680465
 21
-1459.11580668507
 31
0.0
  0
LINE
  5
2111
330
85F
100
AcDbEntity
  8
DETAIL
100
AcDbLine
 10
-312.3434955680437
 20
-1459.878501057551
 30
0.0
 11
-313.1434955680465
 21
-1459.878501057551
 31
0.0
  0
LINE
  5
2112
330
85F
100
AcDbEntity
  8
DETAIL
100
AcDbLine
 10
-312.3434955680437
 20
-1459.11580668507
 30
0.0
 11
-313.1434955680465
 21
-1459.11580668507
 31
0.0
  0
LINE
  5
2113
330
85F
100
AcDbEntity
  8
DETAIL
100
AcDbLine
 10
-313.1434955680465
 20
-1459.11580668507
 30
0.0
 11
-313.1434955680465
 21
-1459.107146431032
 31
0.0
  0
LINE
  5
2114
330
85F
100
AcDbEntity
  8
DETAIL
100
AcDbLine
 10
-313.1434955680465
 20
-1383.088620521136
 30
0.0
 11
-313.1434955680465
 21
-1382.304197657729
 31
0.0
  0
LINE
  5
2115
330
85F
100
AcDbEntity
  8
DETAIL
100
AcDbLine
 10
-313.1434955680465
 20
-1382.304197657729
 30
0.0
 11
-312.3434955680437
 21
-1382.304197657729
 31
0.0
  0
LINE
  5
2116
330
85F
100
AcDbEntity
  8
DETAIL
100
AcDbLine
 10
-312.1434955680466
 20
-1459.020543890654
 30
0.0
 11
-312.2434955680451
 21
-1459.020543890655
 31
0.0
  0
LINE
  5
2117
330
85F
100
AcDbEntity
  8
DETAIL
100
AcDbLine
 10
-312.1434955680466
 20
-1458.327723567626
 30
0.0
 11
-312.2434955680451
 21
-1458.327723567627
 31
0.0
  0
LINE
  5
2118
330
85F
100
AcDbEntity
  8
DETAIL
100
AcDbLine
 10
-312.2434955680451
 20
-1382.309197657731
 30
0.0
 11
-312.1434955680466
 21
-1382.309197657731
 31
0.0
  0
ARC
  5
2119
330
85F
100
AcDbEntity
  8
DETAIL
100
AcDbCircle
 10
-312.2434955680451
 20
-1382.709197657729
 30
0.0
 40
0.899999999999976
100
AcDbArc
 50
90.0
 51
96.37937020834836
  0
LINE
  5
211A
330
85F
100
AcDbEntity
  8
DETAIL
100
AcDbLine
 10
-312.2434955680451
 20
-1381.80919765773
 30
0.0
 11
-312.2434955680451
 21
-1382.309197657731
 31
0.0
  0
LINE
  5
211B
330
85F
100
AcDbEntity
  8
DETAIL
100
AcDbLine
 10
278.8065044319505
 20
-1388.39265365326
 30
0.0
 11
278.8065044319505
 21
-1388.215417940108
 31
0.0
  0
LINE
  5
211C
330
85F
100
AcDbEntity
  8
DETAIL
100
AcDbLine
 10
278.8065044319505
 20
-1388.39265365326
 30
0.0
 11
278.8065044319505
 21
-1389.085473976288
 31
0.0
  0
ELLIPSE
  5
211D
330
85F
100
AcDbEntity
  8
DETAIL
100
AcDbEllipse
 10
279.3565044319535
 20
-1389.783238263136
 30
0.0
 11
-1.500000000000058
 21
-0.0000000000001014
 31
0.0
210
0.0
220
0.0
230
1.0
 40
0.4999999999999919
 41
5.087812588365485
 42
5.457068582163091
  0
ELLIPSE
  5
211E
330
85F
100
AcDbEntity
  8
DETAIL
100
AcDbEllipse
 10
279.3565044319535
 20
-1389.783238263136
 30
0.0
 11
-1.499999999999981
 21
-0.0000000000001588
 31
0.0
210
0.0
220
0.0
230
1.0
 40
0.4999999999999914
 41
3.967709378604252
 42
4.336965372403202
  0
ELLIPSE
  5
211F
330
85F
100
AcDbEntity
  8
DETAIL
100
AcDbEllipse
 10
279.3565044319535
 20
-1389.090417940108
 30
0.0
 11
1.499999999999993
 21
0.0000000000000798
 31
0.0
210
0.0
220
0.0
230
1.0
 40
0.4999999999999911
 41
0.000857212077392
 42
1.195372718813929
  0
ELLIPSE
  5
2120
330
85F
100
AcDbEntity
  8
DETAIL
100
AcDbEllipse
 10
279.3565044319535
 20
-1389.090417940108
 30
0.0
 11
-1.499999999999985
 21
-0.0000000000000951
 31
0.0
210
0.0
220
0.0
230
1.0
 40
0.4999999999999896
 41
5.087812588365574
 42
6.282328095099593
  0
LINE
  5
2121
330
85F
100
AcDbEntity
  8
DETAIL
100
AcDbLine
 10
279.9065044319491
 20
-1388.39265365326
 30
0.0
 11
279.9065044319491
 21
-1389.085473976288
 31
0.0
  0
LINE
  5
2122
330
85F
100
AcDbEntity
  8
DETAIL
100
AcDbLine
 10
279.9065044319491
 20
-1388.215417940108
 30
0.0
 11
279.9065044319491
 21
-1388.39265365326
 31
0.0
  0
ELLIPSE
  5
2123
330
85F
100
AcDbEntity
  8
DETAIL
100
AcDbEllipse
 10
279.3565044319535
 20
-1388.908238263136
 30
0.0
 11
0.5499999999999979
 21
0.0000000000000067
 31
0.0
210
0.0
220
0.0
230
1.0
 40
0.4999999999999984
 41
0.0000000000002491
 42
3.141592653590042
  0
ELLIPSE
  5
2124
330
85F
100
AcDbEntity
  8
DETAIL
100
AcDbEllipse
 10
279.3565044319535
 20
-1388.215417940108
 30
0.0
 11
-0.55
 21
-0.0000000000000122
 31
0.0
210
0.0
220
0.0
230
1.0
 40
0.4999999999999975
 41
3.141592653589965
 42
6.283185307179759
  0
CIRCLE
  5
2125
330
85F
100
AcDbEntity
  8
DETAIL
100
AcDbCircle
 10
297.0565044319578
 20
-1405.80919765773
 30
0.0
 40
2.499999999999998
  0
CIRCLE
  5
2126
330
85F
100
AcDbEntity
  8
DETAIL
100
AcDbCircle
 10
297.0565044319578
 20
-1595.80919765773
 30
0.0
 40
2.499999999999998
  0
LINE
  5
2127
330
85F
100
AcDbEntity
  8
DETAIL
100
AcDbLine
 10
301.0565044319578
 20
-1381.80919765773
 30
0.0
 11
304.0565044319578
 21
-1384.80919765773
 31
0.0
  0
LINE
  5
2128
330
85F
100
AcDbEntity
  8
DETAIL
100
AcDbLine
 10
304.0565044319578
 20
-1829.80919765773
 30
0.0
 11
301.0565044319578
 21
-1832.80919765773
 31
0.0
  0
LINE
  5
2129
330
85F
100
AcDbEntity
  8
DETAIL
100
AcDbLine
 10
287.956504431952
 20
-1381.80919765773
 30
0.0
 11
287.8565044319535
 21
-1381.80919765773
 31
0.0
  0
LINE
  5
212A
330
85F
100
AcDbEntity
  8
DETAIL
100
AcDbLine
 10
304.0565044319578
 20
-1829.80919765773
 30
0.0
 11
304.0565044319578
 21
-1384.80919765773
 31
0.0
  0
LINE
  5
212B
330
85F
100
AcDbEntity
  8
DETAIL
100
AcDbLine
 10
301.0565044319578
 20
-1381.80919765773
 30
0.0
 11
288.956504431952
 21
-1381.80919765773
 31
0.0
  0
LINE
  5
212C
330
85F
100
AcDbEntity
  8
DETAIL
100
AcDbLine
 10
301.0565044319578
 20
-1832.80919765773
 30
0.0
 11
288.956504431952
 21
-1832.80919765773
 31
0.0
  0
CIRCLE
  5
212D
330
85F
100
AcDbEntity
  8
DETAIL
100
AcDbCircle
 10
297.0565044319578
 20
-1785.80919765773
 30
0.0
 40
2.499999999999998
  0
LINE
  5
212E
330
85F
100
AcDbEntity
  8
DETAIL
100
AcDbLine
 10
288.956504431952
 20
-1381.80919765773
 30
0.0
 11
288.956504431952
 21
-1832.80919765773
 31
0.0
  0
LINE
  5
212F
330
85F
100
AcDbEntity
  8
DETAIL
100
AcDbLine
 10
288.956504431952
 20
-1832.80919765773
 30
0.0
 11
288.8565044319534
 21
-1832.80919765773
 31
0.0
  0
LINE
  5
2130
330
85F
100
AcDbEntity
  8
DETAIL
100
AcDbLine
 10
288.956504431952
 20
-1381.80919765773
 30
0.0
 11
288.8565044319534
 21
-1381.80919765773
 31
0.0
  0
LINE
  5
2131
330
85F
100
AcDbEntity
  8
DETAIL
100
AcDbLine
 10
278.8065044319433
 20
-1448.39265365326
 30
0.0
 11
278.8065044319433
 21
-1448.215417940108
 31
0.0
  0
LINE
  5
2132
330
85F
100
AcDbEntity
  8
DETAIL
100
AcDbLine
 10
278.8065044319433
 20
-1448.39265365326
 30
0.0
 11
278.8065044319433
 21
-1449.085473976287
 31
0.0
  0
ELLIPSE
  5
2133
330
85F
100
AcDbEntity
  8
DETAIL
100
AcDbEllipse
 10
279.3565044319462
 20
-1449.783238263134
 30
0.0
 11
-1.500000000000323
 21
-0.0000000000003427
 31
0.0
210
0.0
220
0.0
230
1.0
 40
0.499999999999784
 41
5.087812588365405
 42
5.457068582162692
  0
ELLIPSE
  5
2134
330
85F
100
AcDbEntity
  8
DETAIL
100
AcDbEllipse
 10
279.3565044319462
 20
-1449.783238263135
 30
0.0
 11
-1.500000000000225
 21
-0.0000000000003689
 31
0.0
210
0.0
220
0.0
230
1.0
 40
0.5000000000001626
 41
3.967709378600542
 42
4.336965372403247
  0
ELLIPSE
  5
2135
330
85F
100
AcDbEntity
  8
DETAIL
100
AcDbEllipse
 10
279.3565044319462
 20
-1449.090417940107
 30
0.0
 11
1.500000000000013
 21
0.0000000000000917
 31
0.0
210
0.0
220
0.0
230
1.0
 40
0.5000000000000017
 41
0.0008572120728747
 42
1.195372718813915
  0
ELLIPSE
  5
2136
330
85F
100
AcDbEntity
  8
DETAIL
100
AcDbEllipse
 10
279.3565044319462
 20
-1449.090417940107
 30
0.0
 11
-1.500000000000015
 21
-0.0000000000000906
 31
0.0
210
0.0
220
0.0
230
1.0
 40
0.4999999999999931
 41
5.087812588365579
 42
6.282328095097941
  0
LINE
  5
2137
330
85F
100
AcDbEntity
  8
DETAIL
100
AcDbLine
 10
279.9065044319418
 20
-1448.39265365326
 30
0.0
 11
279.9065044319418
 21
-1449.085473976287
 31
0.0
  0
LINE
  5
2138
330
85F
100
AcDbEntity
  8
DETAIL
100
AcDbLine
 10
279.9065044319418
 20
-1448.215417940108
 30
0.0
 11
279.9065044319418
 21
-1448.39265365326
 31
0.0
  0
ELLIPSE
  5
2139
330
85F
100
AcDbEntity
  8
DETAIL
100
AcDbEllipse
 10
279.3565044319462
 20
-1448.908238263134
 30
0.0
 11
0.55
 21
0.0000000000000089
 31
0.0
210
0.0
220
0.0
230
1.0
 40
0.4999999999999952
 41
0.000000000000297
 42
3.141592653590089
  0
ELLIPSE
  5
213A
330
85F
100
AcDbEntity
  8
DETAIL
100
AcDbEllipse
 10
279.3565044319462
 20
-1448.215417940106
 30
0.0
 11
-0.55
 21
-0.0000000000000178
 31
0.0
210
0.0
220
0.0
230
1.0
 40
0.4999999999999952
 41
3.141592653589833
 42
6.283185307179627
  0
LINE
  5
213B
330
85F
100
AcDbEntity
  8
DETAIL
100
AcDbLine
 10
278.8065044319433
 20
-1648.482972483855
 30
0.0
 11
278.8065044319433
 21
-1648.128501057551
 31
0.0
  0
ARC
  5
213C
330
85F
100
AcDbEntity
  8
DETAIL
100
AcDbCircle
 10
279.3565044319462
 20
-1649.878501057551
 30
0.0
 40
1.500000000000016
100
AcDbArc
 50
111.5101882670052
 51
68.48981173299477
  0
LINE
  5
213D
330
85F
100
AcDbEntity
  8
DETAIL
100
AcDbLine
 10
279.9065044319418
 20
-1648.128501057551
 30
0.0
 11
279.9065044319418
 21
-1648.482972483855
 31
0.0
  0
ARC
  5
213E
330
85F
100
AcDbEntity
  8
DETAIL
100
AcDbCircle
 10
279.3565044319462
 20
-1648.128501057551
 30
0.0
 40
0.55
100
AcDbArc
 50
0.0
 51
180.0
  0
LINE
  5
213F
330
85F
100
AcDbEntity
  8
DETAIL
100
AcDbLine
 10
288.0565044319506
 20
-1829.425790946417
 30
0.0
 11
287.2565044319549
 21
-1829.425790946417
 31
0.0
  0
LINE
  5
2140
330
85F
100
AcDbEntity
  8
DETAIL
100
AcDbLine
 10
287.2565044319476
 20
-1682.784372947187
 30
0.0
 11
287.2565044319476
 21
-1683.261130278938
 31
0.0
  0
LINE
  5
2141
330
85F
100
AcDbEntity
  8
DETAIL
100
AcDbLine
 10
288.0565044319433
 20
-1683.261130278938
 30
0.0
 11
287.2565044319476
 21
-1683.261130278938
 31
0.0
  0
LINE
  5
2142
330
85F
100
AcDbEntity
  8
DETAIL
100
AcDbLine
 10
288.0565044319433
 20
-1682.784372947187
 30
0.0
 11
287.2565044319476
 21
-1682.784372947187
 31
0.0
  0
LINE
  5
2143
330
85F
100
AcDbEntity
  8
DETAIL
100
AcDbLine
 10
287.2565044319476
 20
-1683.261130278938
 30
0.0
 11
287.2565044319549
 21
-1829.425790946417
 31
0.0
  0
LINE
  5
2144
330
85F
100
AcDbEntity
  8
DETAIL
100
AcDbLine
 10
288.0565044319506
 20
-1829.425790946417
 30
0.0
 11
288.0565044319506
 21
-1832.80919765773
 31
0.0
  0
LINE
  5
2145
330
85F
100
AcDbEntity
  8
DETAIL
100
AcDbLine
 10
288.8565044319534
 20
-1832.80919765773
 30
0.0
 11
288.0565044319506
 21
-1832.80919765773
 31
0.0
  0
LINE
  5
2146
330
85F
100
AcDbEntity
  8
DETAIL
100
AcDbLine
 10
288.8565044319534
 20
-1832.80919765773
 30
0.0
 11
288.8565044319462
 21
-1680.704876973162
 31
0.0
  0
LINE
  5
2147
330
85F
100
AcDbEntity
  8
DETAIL
100
AcDbLine
 10
288.0565044319433
 20
-1680.704876973162
 30
0.0
 11
288.0565044319433
 21
-1683.261130278938
 31
0.0
  0
LINE
  5
2148
330
85F
100
AcDbEntity
  8
DETAIL
100
AcDbLine
 10
288.0565044319433
 20
-1459.878501057551
 30
0.0
 11
288.0565044319433
 21
-1461.868501057551
 31
0.0
  0
LINE
  5
2149
330
85F
100
AcDbEntity
  8
DETAIL
100
AcDbLine
 10
288.0565044319506
 20
-1381.80919765773
 30
0.0
 11
288.0565044319506
 21
-1382.30419765773
 31
0.0
  0
LINE
  5
214A
330
85F
100
AcDbEntity
  8
DETAIL
100
AcDbLine
 10
288.8565044319534
 20
-1382.30419765773
 30
0.0
 11
288.8565044319534
 21
-1381.80919765773
 31
0.0
  0
LINE
  5
214B
330
85F
100
AcDbEntity
  8
DETAIL
100
AcDbLine
 10
288.8565044319462
 20
-1461.868501057551
 30
0.0
 11
288.8565044319462
 21
-1459.878501057551
 31
0.0
  0
LINE
  5
214C
330
85F
100
AcDbEntity
  8
DETAIL
100
AcDbLine
 10
288.8565044319534
 20
-1381.80919765773
 30
0.0
 11
288.0565044319506
 21
-1381.80919765773
 31
0.0
  0
LINE
  5
214D
330
85F
100
AcDbEntity
  8
DETAIL
100
AcDbLine
 10
288.8565044319462
 20
-1680.704876973162
 30
0.0
 11
288.5294622270726
 21
-1680.704876973162
 31
0.0
  0
LINE
  5
214E
330
85F
100
AcDbEntity
  8
DETAIL
100
AcDbLine
 10
288.5294622270726
 20
-1680.704876973162
 30
0.0
 11
288.0565044319433
 21
-1680.704876973162
 31
0.0
  0
LINE
  5
214F
330
85F
100
AcDbEntity
  8
DETAIL
100
AcDbLine
 10
288.0565044319433
 20
-1461.878501057551
 30
0.0
 11
288.0565044319433
 21
-1461.868501057551
 31
0.0
  0
LINE
  5
2150
330
85F
100
AcDbEntity
  8
DETAIL
100
AcDbLine
 10
287.9565044319447
 20
-1679.877723567626
 30
0.0
 11
287.9565044319447
 21
-1461.878501057551
 31
0.0
  0
SPLINE
  5
2151
330
85F
100
AcDbEntity
  8
DETAIL
100
AcDbSpline
210
0.0
220
0.0
230
1.0
 70
     8
 71
     3
 72
     8
 73
     4
 74
     0
 42
0.0000000001
 43
0.0000000001
 40
0.0
 40
0.0
 40
0.0
 40
0.0
 40
1.570796326794875
 40
1.570796326794875
 40
1.570796326794875
 40
1.570796326794875
 10
287.9565044319447
 20
-1679.877723567626
 30
0.0
 10
288.0088643095064
 20
-1680.15344136947
 30
0.0
 10
288.0565044319433
 20
-1680.429159171316
 30
0.0
 10
288.0565044319433
 20
-1680.704876973162
 30
0.0
  0
LINE
  5
2152
330
85F
100
AcDbEntity
  8
DETAIL
100
AcDbLine
 10
287.9565044319447
 20
-1461.878501057551
 30
0.0
 11
288.8565044319462
 21
-1461.878501057551
 31
0.0
  0
SPLINE
  5
2153
330
85F
100
AcDbEntity
  8
DETAIL
100
AcDbSpline
210
0.0
220
0.0
230
1.0
 70
     8
 71
     3
 72
    11
 73
     7
 74
     0
 42
0.0000000001
 43
0.0000000001
 40
0.0
 40
0.0
 40
0.0
 40
0.0
 40
1.437607986812799
 40
1.437607986812799
 40
1.437607986812799
 40
1.570796326794875
 40
1.570796326794875
 40
1.570796326794875
 40
1.570796326794875
 10
288.8565044319462
 20
-1680.704876973162
 30
0.0
 10
288.8565044319462
 20
-1680.452537374909
 30
0.0
 10
288.5034826146498
 20
-1680.200197776657
 30
0.0
 10
288.0760198552584
 20
-1679.947858178405
 30
0.0
 10
288.0364172265531
 20
-1679.924479974812
 30
0.0
 10
287.9964609339354
 20
-1679.901101771219
 30
0.0
 10
287.9565044319447
 20
-1679.877723567626
 30
0.0
  0
LINE
  5
2154
330
85F
100
AcDbEntity
  8
DETAIL
100
AcDbLine
 10
288.8565044319462
 20
-1461.878501057551
 30
0.0
 11
288.8565044319462
 21
-1680.704876973162
 31
0.0
  0
LINE
  5
2155
330
85F
100
AcDbEntity
  8
DETAIL
100
AcDbLine
 10
288.0565044319433
 20
-1461.868501057551
 30
0.0
 11
288.8565044319462
 21
-1461.868501057551
 31
0.0
  0
LINE
  5
2156
330
85F
100
AcDbEntity
  8
DETAIL
100
AcDbLine
 10
288.8565044319462
 20
-1461.868501057551
 30
0.0
 11
288.8565044319462
 21
-1461.878501057551
 31
0.0
  0
LINE
  5
2157
330
85F
100
AcDbEntity
  8
DETAIL
100
AcDbLine
 10
288.0565044319433
 20
-1459.878501057551
 30
0.0
 11
288.0565044319433
 21
-1459.11580668507
 31
0.0
  0
LINE
  5
2158
330
85F
100
AcDbEntity
  8
DETAIL
100
AcDbLine
 10
288.0565044319433
 20
-1459.11580668507
 30
0.0
 11
288.0565044319433
 21
-1459.107146431032
 31
0.0
  0
LINE
  5
2159
330
85F
100
AcDbEntity
  8
DETAIL
100
AcDbLine
 10
288.0565044319506
 20
-1382.314023851894
 30
0.0
 11
288.0565044319506
 21
-1382.30419765773
 31
0.0
  0
LINE
  5
215A
330
85F
100
AcDbEntity
  8
DETAIL
100
AcDbLine
 10
288.8565044319534
 20
-1382.30419765773
 30
0.0
 11
288.8565044319534
 21
-1383.088620521136
 31
0.0
  0
LINE
  5
215B
330
85F
100
AcDbEntity
  8
DETAIL
100
AcDbLine
 10
288.8565044319534
 20
-1383.088620521136
 30
0.0
 11
288.8565044319462
 21
-1459.107146431032
 31
0.0
  0
LINE
  5
215C
330
85F
100
AcDbEntity
  8
DETAIL
100
AcDbLine
 10
288.8565044319462
 20
-1459.107146431032
 30
0.0
 11
288.8565044319462
 21
-1459.11580668507
 31
0.0
  0
LINE
  5
215D
330
85F
100
AcDbEntity
  8
DETAIL
100
AcDbLine
 10
288.8565044319462
 20
-1459.11580668507
 30
0.0
 11
288.8565044319462
 21
-1459.878501057551
 31
0.0
  0
ELLIPSE
  5
215E
330
85F
100
AcDbEntity
  8
DETAIL
100
AcDbEllipse
 10
287.9565044319447
 20
-1459.107146431033
 30
0.0
 11
0.0999999999999915
 21
0.000000000000004
 31
0.0
210
0.0
220
0.0
230
1.0
 40
0.8660254037844714
 41
0.0
 42
1.570796326794861
  0
LINE
  5
215F
330
85F
100
AcDbEntity
  8
DETAIL
100
AcDbLine
 10
287.9565044319447
 20
-1459.020543890653
 30
0.0
 11
287.9565044319447
 21
-1458.327723567626
 31
0.0
  0
LINE
  5
2160
330
85F
100
AcDbEntity
  8
DETAIL
100
AcDbLine
 10
287.9565044319447
 20
-1458.327723567626
 30
0.0
 11
287.956504431952
 21
-1382.30919765773
 31
0.0
  0
ELLIPSE
  5
2161
330
85F
100
AcDbEntity
  8
DETAIL
100
AcDbEllipse
 10
287.956504431952
 20
-1383.088620521136
 30
0.0
 11
0.8999999999999957
 21
0.0000000000000616
 31
0.0
210
0.0
220
0.0
230
1.0
 40
0.8660254037844412
 41
0.0
 42
1.570796326794837
  0
LINE
  5
2162
330
85F
100
AcDbEntity
  8
DETAIL
100
AcDbLine
 10
288.0565044319433
 20
-1459.107146431032
 30
0.0
 11
288.8565044319462
 21
-1459.107146431032
 31
0.0
  0
ELLIPSE
  5
2163
330
85F
100
AcDbEntity
  8
DETAIL
100
AcDbEllipse
 10
287.9565044319447
 20
-1459.107146431033
 30
0.0
 11
0.8999999999999969
 21
0.0000000000000089
 31
0.0
210
0.0
220
0.0
230
1.0
 40
0.8660254037844532
 41
0.0
 42
1.570796326794887
  0
LINE
  5
2164
330
85F
100
AcDbEntity
  8
DETAIL
100
AcDbLine
 10
288.8565044319462
 20
-1459.878501057551
 30
0.0
 11
288.0565044319433
 21
-1459.878501057551
 31
0.0
  0
LINE
  5
2165
330
85F
100
AcDbEntity
  8
DETAIL
100
AcDbLine
 10
288.8565044319462
 20
-1459.11580668507
 30
0.0
 11
288.0565044319433
 21
-1459.11580668507
 31
0.0
  0
LINE
  5
2166
330
85F
100
AcDbEntity
  8
DETAIL
100
AcDbLine
 10
288.0565044319506
 20
-1382.30419765773
 30
0.0
 11
288.8565044319534
 21
-1382.30419765773
 31
0.0
  0
LINE
  5
2167
330
85F
100
AcDbEntity
  8
DETAIL
100
AcDbLine
 10
287.9565044319447
 20
-1679.877723567626
 30
0.0
 11
287.8565044319535
 21
-1679.788319594126
 31
0.0
  0
LINE
  5
2168
330
85F
100
AcDbEntity
  8
DETAIL
100
AcDbLine
 10
287.9565044319447
 20
-1461.878501057551
 30
0.0
 11
287.8565044319535
 21
-1461.878501057551
 31
0.0
  0
LINE
  5
2169
330
85F
100
AcDbEntity
  8
DETAIL
100
AcDbLine
 10
278.8065044319433
 20
-1498.482972483855
 30
0.0
 11
278.8065044319433
 21
-1498.128501057551
 31
0.0
  0
ARC
  5
216A
330
85F
100
AcDbEntity
  8
DETAIL
100
AcDbCircle
 10
279.3565044319462
 20
-1498.128501057551
 30
0.0
 40
0.55
100
AcDbArc
 50
0.0
 51
180.0
  0
LINE
  5
216B
330
85F
100
AcDbEntity
  8
DETAIL
100
AcDbLine
 10
279.9065044319418
 20
-1498.128501057551
 30
0.0
 11
279.9065044319418
 21
-1498.482972483855
 31
0.0
  0
ARC
  5
216C
330
85F
100
AcDbEntity
  8
DETAIL
100
AcDbCircle
 10
279.3565044319462
 20
-1499.878501057551
 30
0.0
 40
1.499999999999999
100
AcDbArc
 50
111.5101882670052
 51
68.48981173299477
  0
LINE
  5
216D
330
85F
100
AcDbEntity
  8
DETAIL
100
AcDbLine
 10
287.9565044319447
 20
-1458.327723567626
 30
0.0
 11
287.8565044319535
 21
-1458.327723567626
 31
0.0
  0
LINE
  5
216E
330
85F
100
AcDbEntity
  8
DETAIL
100
AcDbLine
 10
287.8565044319535
 20
-1459.020543890653
 30
0.0
 11
287.9565044319447
 21
-1459.020543890653
 31
0.0
  0
LINE
  5
216F
330
85F
100
AcDbEntity
  8
DETAIL
100
AcDbLine
 10
287.956504431952
 20
-1382.30919765773
 30
0.0
 11
287.8565044319535
 21
-1382.30919765773
 31
0.0
  0
LINE
  5
2170
330
85F
100
AcDbEntity
  8
DETAIL
100
AcDbLine
 10
287.956504431952
 20
-1382.30919765773
 30
0.0
 11
287.956504431952
 21
-1381.80919765773
 31
0.0
  0
ARC
  5
2171
330
85F
100
AcDbEntity
  8
DETAIL
100
AcDbCircle
 10
287.956504431952
 20
-1382.70919765773
 30
0.0
 40
0.9000000000000005
100
AcDbArc
 50
83.62062979165164
 51
90.0
  0
LINE
  5
2172
330
85F
100
AcDbEntity
  8
DETAIL
100
AcDbLine
 10
-312.1434955680466
 20
-1679.777723567602
 30
0.0
 11
-312.1434955680466
 21
-1476.369197687873
 31
0.0
  0
LINE
  5
2173
330
85F
100
AcDbEntity
  8
DETAIL
100
AcDbLine
 10
287.8565044319535
 20
-1476.369197687868
 30
0.0
 11
287.8565044319535
 21
-1679.777723567602
 31
0.0
  0
CIRCLE
  5
2174
330
85F
100
AcDbEntity
  8
DETAIL
100
AcDbCircle
 10
279.3565044319535
 20
-1649.677723567602
 30
0.0
 40
2.5
  0
CIRCLE
  5
2175
330
85F
100
AcDbEntity
  8
DETAIL
100
AcDbCircle
 10
-303.6434955680466
 20
-1649.677723567602
 30
0.0
 40
2.5
  0
LINE
  5
2176
330
85F
100
AcDbEntity
  8
DETAIL
100
AcDbLine
 10
276.8565044319534
 20
-1505.778744082036
 30
0.0
 11
276.8565044319534
 21
-1499.677723567603
 31
0.0
  0
ARC
  5
2177
330
85F
100
AcDbEntity
  8
DETAIL
100
AcDbCircle
 10
279.3565044319535
 20
-1510.677723567602
 30
0.0
 40
5.500000000000001
100
AcDbArc
 50
117.0356917893314
 51
62.9643082106686
  0
LINE
  5
2178
330
85F
100
AcDbEntity
  8
DETAIL
100
AcDbLine
 10
281.8565044319535
 20
-1499.677723567603
 30
0.0
 11
281.8565044319535
 21
-1505.778744082036
 31
0.0
  0
ARC
  5
2179
330
85F
100
AcDbEntity
  8
DETAIL
100
AcDbCircle
 10
279.3565044319535
 20
-1499.677723567603
 30
0.0
 40
2.5
100
AcDbArc
 50
0.0
 51
180.0
  0
LINE
  5
217A
330
85F
100
AcDbEntity
  8
DETAIL
100
AcDbLine
 10
-306.1434955680466
 20
-1505.778744082036
 30
0.0
 11
-306.1434955680466
 21
-1499.677723567602
 31
0.0
  0
ARC
  5
217B
330
85F
100
AcDbEntity
  8
DETAIL
100
AcDbCircle
 10
-303.6434955680466
 20
-1510.677723567602
 30
0.0
 40
5.499999999999997
100
AcDbArc
 50
117.0356917893314
 51
62.9643082106686
  0
LINE
  5
217C
330
85F
100
AcDbEntity
  8
DETAIL
100
AcDbLine
 10
-301.1434955680465
 20
-1499.677723567603
 30
0.0
 11
-301.1434955680465
 21
-1505.778744082036
 31
0.0
  0
ARC
  5
217D
330
85F
100
AcDbEntity
  8
DETAIL
100
AcDbCircle
 10
-303.6434955680466
 20
-1499.677723567603
 30
0.0
 40
2.5
100
AcDbArc
 50
0.0
 51
180.0
  0
LINE
  5
217E
330
85F
100
AcDbEntity
  8
DETAIL
100
AcDbLine
 10
107.3065044319505
 20
-1468.282194993907
 30
0.0
 11
107.3065044319505
 21
-1467.927723567602
 31
0.0
  0
ARC
  5
217F
330
85F
100
AcDbEntity
  8
DETAIL
100
AcDbCircle
 10
107.8565044319534
 20
-1469.677723567603
 30
0.0
 40
1.49999999999999
100
AcDbArc
 50
111.5101882670052
 51
68.48981173299477
  0
LINE
  5
2180
330
85F
100
AcDbEntity
  8
DETAIL
100
AcDbLine
 10
108.4065044319563
 20
-1467.927723567602
 30
0.0
 11
108.4065044319563
 21
-1468.282194993907
 31
0.0
  0
ARC
  5
2181
330
85F
100
AcDbEntity
  8
DETAIL
100
AcDbCircle
 10
107.8565044319534
 20
-1467.927723567602
 30
0.0
 40
0.5499999999999972
100
AcDbArc
 50
0.0
 51
180.0
  0
LINE
  5
2182
330
85F
100
AcDbEntity
  8
DETAIL
100
AcDbLine
 10
-132.6934955680494
 20
-1468.282194993907
 30
0.0
 11
-132.6934955680494
 21
-1467.927723567602
 31
0.0
  0
ARC
  5
2183
330
85F
100
AcDbEntity
  8
DETAIL
100
AcDbCircle
 10
-132.1434955680465
 20
-1469.677723567603
 30
0.0
 40
1.499999999999989
100
AcDbArc
 50
111.5101882670052
 51
68.48981173299477
  0
LINE
  5
2184
330
85F
100
AcDbEntity
  8
DETAIL
100
AcDbLine
 10
-131.5934955680436
 20
-1467.927723567602
 30
0.0
 11
-131.5934955680436
 21
-1468.282194993907
 31
0.0
  0
ARC
  5
2185
330
85F
100
AcDbEntity
  8
DETAIL
100
AcDbCircle
 10
-132.1434955680465
 20
-1467.927723567602
 30
0.0
 40
0.5499999999999972
100
AcDbArc
 50
0.0
 51
180.0
  0
LINE
  5
2186
330
85F
100
AcDbEntity
  8
DETAIL
100
AcDbLine
 10
287.8565044319535
 20
-1680.677723567602
 30
0.0
 11
-312.1434955680466
 21
-1680.677723567602
 31
0.0
  0
LINE
  5
2187
330
85F
100
AcDbEntity
  8
DETAIL
100
AcDbLine
 10
-312.1434955680466
 20
-1680.677723567602
 30
0.0
 11
-312.1434955680466
 21
-1679.777723567602
 31
0.0
  0
LINE
  5
2188
330
85F
100
AcDbEntity
  8
DETAIL
100
AcDbLine
 10
287.8565044319535
 20
-1680.677723567602
 30
0.0
 11
287.8565044319535
 21
-1679.777723567602
 31
0.0
  0
LINE
  5
2189
330
85F
100
AcDbEntity
  8
DETAIL
100
AcDbLine
 10
-312.1434955680466
 20
-1679.777723567602
 30
0.0
 11
287.8565044319535
 21
-1679.777723567602
 31
0.0
  0
LINE
  5
218A
330
85F
100
AcDbEntity
  8
DETAIL
100
AcDbLine
 10
-312.1434955680466
 20
-1377.80919765773
 30
0.0
 11
-309.1434955680465
 21
-1374.80919765773
 31
0.0
  0
LINE
  5
218B
330
85F
100
AcDbEntity
  8
DETAIL
100
AcDbLine
 10
267.8565044319535
 20
-1374.809197657724
 30
0.0
 11
270.8565044319534
 21
-1377.809197657724
 31
0.0
  0
LINE
  5
218C
330
85F
100
AcDbEntity
  8
DETAIL
100
AcDbLine
 10
-312.1434955680466
 20
-1381.00919765773
 30
0.0
 11
287.8565044319535
 21
-1381.009197657723
 31
0.0
  0
LINE
  5
218D
330
85F
100
AcDbEntity
  8
DETAIL
100
AcDbLine
 10
287.8565044319535
 20
-1381.129774794318
 30
0.0
 11
-312.1434955680466
 21
-1381.129774794323
 31
0.0
  0
LINE
  5
218E
330
85F
100
AcDbEntity
  8
DETAIL
100
AcDbLine
 10
287.8565044319535
 20
-1381.009197657723
 30
0.0
 11
287.8565044319535
 21
-1381.129774794318
 31
0.0
  0
LINE
  5
218F
330
85F
100
AcDbEntity
  8
DETAIL
100
AcDbLine
 10
-312.1434955680466
 20
-1381.129774794323
 30
0.0
 11
-312.1434955680466
 21
-1381.00919765773
 31
0.0
  0
LINE
  5
2190
330
85F
100
AcDbEntity
  8
DETAIL
100
AcDbLine
 10
267.8565044319535
 20
-1374.809197657724
 30
0.0
 11
-309.1434955680465
 21
-1374.80919765773
 31
0.0
  0
LINE
  5
2191
330
85F
100
AcDbEntity
  8
DETAIL
100
AcDbLine
 10
-312.1434955680466
 20
-1377.80919765773
 30
0.0
 11
-312.1434955680466
 21
-1380.90919765773
 31
0.0
  0
LINE
  5
2192
330
85F
100
AcDbEntity
  8
DETAIL
100
AcDbLine
 10
270.8565044319534
 20
-1377.809197657724
 30
0.0
 11
270.8565044319534
 21
-1380.909197657724
 31
0.0
  0
LINE
  5
2193
330
85F
100
AcDbEntity
  8
DETAIL
100
AcDbLine
 10
-312.1434955680466
 20
-1380.90919765773
 30
0.0
 11
270.8565044319534
 21
-1380.909197657724
 31
0.0
  0
LINE
  5
2194
330
85F
100
AcDbEntity
  8
DETAIL
100
AcDbLine
 10
270.8565044319534
 20
-1380.909197657724
 30
0.0
 11
270.8565044319534
 21
-1381.009197657724
 31
0.0
  0
LINE
  5
2195
330
85F
100
AcDbEntity
  8
DETAIL
100
AcDbLine
 10
-312.1434955680466
 20
-1380.90919765773
 30
0.0
 11
-312.1434955680466
 21
-1381.00919765773
 31
0.0
  0
LINE
  5
2196
330
85F
100
AcDbEntity
  8
DETAIL
100
AcDbLine
 10
287.8565044319535
 20
-1476.369197687867
 30
0.0
 11
284.8565044319535
 21
-1479.369197687867
 31
0.0
  0
LINE
  5
2197
330
85F
100
AcDbEntity
  8
DETAIL
100
AcDbLine
 10
-309.1434955680465
 20
-1479.369197687873
 30
0.0
 11
-312.1434955680466
 21
-1476.369197687873
 31
0.0
  0
LINE
  5
2198
330
85F
100
AcDbEntity
  8
DETAIL
100
AcDbLine
 10
284.8565044319535
 20
-1479.369197687867
 30
0.0
 11
-309.1434955680465
 21
-1479.369197687873
 31
0.0
  0
LINE
  5
2199
330
85F
100
AcDbEntity
  8
DETAIL
100
AcDbLine
 10
287.8565044319535
 20
-1459.369197687867
 30
0.0
 11
287.8565044319535
 21
-1476.369197687867
 31
0.0
  0
LINE
  5
219A
330
85F
100
AcDbEntity
  8
DETAIL
100
AcDbLine
 10
-312.1434955680466
 20
-1476.369197687873
 30
0.0
 11
-312.1434955680466
 21
-1459.369197687873
 31
0.0
  0
LINE
  5
219B
330
85F
100
AcDbEntity
  8
DETAIL
100
AcDbLine
 10
-312.1434955680466
 20
-1458.589774824467
 30
0.0
 11
-312.1434955680466
 21
-1381.129774794323
 31
0.0
  0
LINE
  5
219C
330
85F
100
AcDbEntity
  8
DETAIL
100
AcDbLine
 10
287.8565044319535
 20
-1381.129774794318
 30
0.0
 11
287.8565044319535
 21
-1458.589774824461
 31
0.0
  0
LINE
  5
219D
330
85F
100
AcDbEntity
  8
DETAIL
100
AcDbLine
 10
104.8565044319534
 20
-1470.369197687869
 30
0.0
 11
104.8565044319534
 21
-1468.369197687869
 31
0.0
  0
ARC
  5
219E
330
85F
100
AcDbEntity
  8
DETAIL
100
AcDbCircle
 10
107.8565044319534
 20
-1468.369197687869
 30
0.0
 40
2.99999999999996
100
AcDbArc
 50
0.0
 51
180.0
  0
LINE
  5
219F
330
85F
100
AcDbEntity
  8
DETAIL
100
AcDbLine
 10
110.8565044319534
 20
-1468.36919768787
 30
0.0
 11
110.8565044319534
 21
-1470.369197687869
 31
0.0
  0
ARC
  5
21A0
330
85F
100
AcDbEntity
  8
DETAIL
100
AcDbCircle
 10
107.8565044319534
 20
-1470.369197687869
 30
0.0
 40
2.99999999999996
100
AcDbArc
 50
180.0
 51
0.0
  0
LINE
  5
21A1
330
85F
100
AcDbEntity
  8
DETAIL
100
AcDbLine
 10
-135.1434955680465
 20
-1470.369197687872
 30
0.0
 11
-135.1434955680465
 21
-1468.369197687872
 31
0.0
  0
ARC
  5
21A2
330
85F
100
AcDbEntity
  8
DETAIL
100
AcDbCircle
 10
-132.1434955680465
 20
-1468.369197687872
 30
0.0
 40
2.999999999999995
100
AcDbArc
 50
0.0
 51
180.0
  0
LINE
  5
21A3
330
85F
100
AcDbEntity
  8
DETAIL
100
AcDbLine
 10
-129.1434955680465
 20
-1468.369197687872
 30
0.0
 11
-129.1434955680465
 21
-1470.369197687872
 31
0.0
  0
ARC
  5
21A4
330
85F
100
AcDbEntity
  8
DETAIL
100
AcDbCircle
 10
-132.1434955680465
 20
-1470.369197687872
 30
0.0
 40
2.999999999999995
100
AcDbArc
 50
180.0
 51
0.0
  0
LINE
  5
21A5
330
85F
100
AcDbEntity
  8
DETAIL
100
AcDbLine
 10
287.8565044319535
 20
-1459.369197687867
 30
0.0
 11
-312.1434955680466
 21
-1459.369197687873
 31
0.0
  0
LINE
  5
21A6
330
85F
100
AcDbEntity
  8
DETAIL
100
AcDbLine
 10
-312.1434955680466
 20
-1459.369197687873
 30
0.0
 11
-312.1434955680466
 21
-1458.589774824467
 31
0.0
  0
LINE
  5
21A7
330
85F
100
AcDbEntity
  8
DETAIL
100
AcDbLine
 10
287.8565044319535
 20
-1458.589774824461
 30
0.0
 11
287.8565044319535
 21
-1459.369197687866
 31
0.0
  0
LINE
  5
21A8
330
85F
100
AcDbEntity
  8
DETAIL
100
AcDbLine
 10
-312.1434955680466
 20
-1458.589774824467
 30
0.0
 11
287.8565044319535
 21
-1458.589774824461
 31
0.0
  0
ELLIPSE
  5
21A9
330
85F
100
AcDbEntity
  8
DETAIL
100
AcDbEllipse
 10
279.3565044319535
 20
-1388.782595147489
 30
0.0
 11
2.500000000000023
 21
0.0000000000000317
 31
0.0
210
0.0
220
0.0
230
1.0
 40
0.4999999999999971
 41
0.2808038766467544
 42
2.860788776942991
  0
ELLIPSE
  5
21AA
330
85F
100
AcDbEntity
  8
DETAIL
100
AcDbEllipse
 10
279.3565044319535
 20
-1388.089774824462
 30
0.0
 11
-2.499999999999931
 21
-0.0000000000000248
 31
0.0
210
0.0
220
0.0
230
1.0
 40
0.4999999999999978
 41
0.0
 42
6.283185307179585
  0
ELLIPSE
  5
21AB
330
85F
100
AcDbEntity
  8
DETAIL
100
AcDbEllipse
 10
279.3565044319535
 20
-1448.782595147489
 30
0.0
 11
2.499999999999925
 21
0.0000000000000328
 31
0.0
210
0.0
220
0.0
230
1.0
 40
0.4999999999999977
 41
0.2808038766467533
 42
2.86078877694299
  0
ELLIPSE
  5
21AC
330
85F
100
AcDbEntity
  8
DETAIL
100
AcDbEllipse
 10
279.3565044319535
 20
-1448.089774824461
 30
0.0
 11
-2.499999999999924
 21
-0.0000000000000248
 31
0.0
210
0.0
220
0.0
230
1.0
 40
0.4999999999999978
 41
0.0
 42
6.283185307179585
  0
ELLIPSE
  5
21AD
330
85F
100
AcDbEntity
  8
DETAIL
100
AcDbEllipse
 10
-303.6434955680466
 20
-1388.782595147495
 30
0.0
 11
2.499999999999989
 21
0.0000000000000324
 31
0.0
210
0.0
220
0.0
230
1.0
 40
0.4999999999999975
 41
0.2808038766467535
 42
2.86078877694299
  0
ELLIPSE
  5
21AE
330
85F
100
AcDbEntity
  8
DETAIL
100
AcDbEllipse
 10
-303.6434955680466
 20
-1388.089774824468
 30
0.0
 11
-2.499999999999976
 21
-0.0000000000000248
 31
0.0
210
0.0
220
0.0
230
1.0
 40
0.4999999999999978
 41
0.0
 42
6.283185307179585
  0
ELLIPSE
  5
21AF
330
85F
100
AcDbEntity
  8
DETAIL
100
AcDbEllipse
 10
-303.6434955680466
 20
-1448.782595147495
 30
0.0
 11
2.499999999999992
 21
0.0000000000000258
 31
0.0
210
0.0
220
0.0
230
1.0
 40
0.4999999999999957
 41
0.2808038766467597
 42
2.860788776942994
  0
ELLIPSE
  5
21B0
330
85F
100
AcDbEntity
  8
DETAIL
100
AcDbEllipse
 10
-303.6434955680466
 20
-1448.089774824467
 30
0.0
 11
-2.499999999999983
 21
-0.0000000000000248
 31
0.0
210
0.0
220
0.0
230
1.0
 40
0.4999999999999978
 41
0.0
 42
6.283185307179585
  0
LINE
  5
21B1
330
85F
100
AcDbEntity
  8
OUTLINE
100
AcDbLine
 10
-317.3434955680436
 20
-1384.809197657731
 30
0.0
 11
-314.3434955680437
 21
-1381.80919765773
 31
0.0
  0
LINE
  5
21B2
330
85F
100
AcDbEntity
  8
OUTLINE
100
AcDbLine
 10
-325.3434955680436
 20
-1418.809197657731
 30
0.0
 11
-322.3434955680436
 21
-1415.80919765773
 31
0.0
  0
LINE
  5
21B3
330
85F
100
AcDbEntity
  8
OUTLINE
100
AcDbLine
 10
-322.3434955680436
 20
-1441.809197657731
 30
0.0
 11
-325.3434955680436
 21
-1438.809197657731
 31
0.0
  0
LINE
  5
21B4
330
85F
100
AcDbEntity
  8
OUTLINE
100
AcDbLine
 10
-325.3434955680436
 20
-1794.80919765773
 30
0.0
 11
-322.3434955680436
 21
-1791.809197657731
 31
0.0
  0
LINE
  5
21B5
330
85F
100
AcDbEntity
  8
OUTLINE
100
AcDbLine
 10
-322.3434955680436
 20
-1832.809197657731
 30
0.0
 11
-325.3434955680436
 21
-1829.809197657731
 31
0.0
  0
LINE
  5
21B6
330
85F
100
AcDbEntity
  8
OUTLINE
100
AcDbLine
 10
-314.3434955680437
 20
-1381.80919765773
 30
0.0
 11
-313.2434955680451
 21
-1381.80919765773
 31
0.0
  0
LINE
  5
21B7
330
85F
100
AcDbEntity
  8
OUTLINE
100
AcDbLine
 10
-325.3434955680436
 20
-1438.809197657731
 30
0.0
 11
-325.3434955680436
 21
-1418.809197657731
 31
0.0
  0
LINE
  5
21B8
330
85F
100
AcDbEntity
  8
OUTLINE
100
AcDbLine
 10
-325.3434955680436
 20
-1829.809197657731
 30
0.0
 11
-325.3434955680436
 21
-1794.80919765773
 31
0.0
  0
LINE
  5
21B9
330
85F
100
AcDbEntity
  8
OUTLINE
100
AcDbLine
 10
-313.2434955680451
 20
-1832.809197657731
 30
0.0
 11
-322.3434955680436
 21
-1832.809197657731
 31
0.0
  0
LINE
  5
21BA
330
85F
100
AcDbEntity
  8
OUTLINE
100
AcDbLine
 10
-317.3434955680436
 20
-1384.809197657731
 30
0.0
 11
-317.3434955680436
 21
-1415.80919765773
 31
0.0
  0
LINE
  5
21BB
330
85F
100
AcDbEntity
  8
OUTLINE
100
AcDbLine
 10
-317.3434955680436
 20
-1415.80919765773
 30
0.0
 11
-322.3434955680436
 21
-1415.80919765773
 31
0.0
  0
LINE
  5
21BC
330
85F
100
AcDbEntity
  8
OUTLINE
100
AcDbLine
 10
-322.3434955680436
 20
-1441.809197657731
 30
0.0
 11
-317.3434955680436
 21
-1441.809197657731
 31
0.0
  0
LINE
  5
21BD
330
85F
100
AcDbEntity
  8
OUTLINE
100
AcDbLine
 10
-317.3434955680436
 20
-1441.809197657731
 30
0.0
 11
-317.3434955680436
 21
-1791.809197657731
 31
0.0
  0
LINE
  5
21BE
330
85F
100
AcDbEntity
  8
OUTLINE
100
AcDbLine
 10
-317.3434955680436
 20
-1791.809197657731
 30
0.0
 11
-322.3434955680436
 21
-1791.809197657731
 31
0.0
  0
LINE
  5
21BF
330
85F
100
AcDbEntity
  8
OUTLINE
100
AcDbLine
 10
-313.2434955680451
 20
-1832.809197657731
 30
0.0
 11
-313.2434955680451
 21
-1381.80919765773
 31
0.0
  0
LINE
  5
21C0
330
85F
100
AcDbEntity
  8
OUTLINE
100
AcDbLine
 10
-313.1434955680465
 20
-1831.982044252196
 30
0.0
 11
-312.6705377729172
 21
-1831.982044252196
 31
0.0
  0
LINE
  5
21C1
330
85F
100
AcDbEntity
  8
OUTLINE
100
AcDbLine
 10
-312.6705377729172
 20
-1831.982044252196
 30
0.0
 11
-312.3434955680437
 21
-1831.982044252196
 31
0.0
  0
SPLINE
  5
21C2
330
85F
100
AcDbEntity
  8
OUTLINE
100
AcDbSpline
210
0.0
220
0.0
230
1.0
 70
     8
 71
     3
 72
     8
 73
     4
 74
     0
 42
0.0000000001
 43
0.0000000001
 40
0.0
 40
0.0
 40
0.0
 40
0.0
 40
1.570796326794896
 40
1.570796326794896
 40
1.570796326794896
 40
1.570796326794896
 10
-313.1434955680465
 20
-1831.982044252196
 30
0.0
 10
-313.1434955680465
 20
-1832.257762054041
 30
0.0
 10
-313.1911356904834
 20
-1832.533479855885
 30
0.0
 10
-313.2434955680451
 20
-1832.809197657731
 30
0.0
  0
LINE
  5
21C3
330
85F
100
AcDbEntity
  8
OUTLINE
100
AcDbLine
 10
-313.2434955680451
 20
-1381.80919765773
 30
0.0
 11
-313.1434955680465
 21
-1381.80919765773
 31
0.0
  0
SPLINE
  5
21C4
330
85F
100
AcDbEntity
  8
OUTLINE
100
AcDbSpline
210
0.0
220
0.0
230
1.0
 70
     8
 71
     3
 72
    11
 73
     7
 74
     0
 42
0.0000000001
 43
0.0000000001
 40
0.0
 40
0.0
 40
0.0
 40
0.0
 40
1.437607986812995
 40
1.437607986812995
 40
1.437607986812995
 40
1.570796326794896
 40
1.570796326794896
 40
1.570796326794896
 40
1.570796326794896
 10
-312.3434955680437
 20
-1831.982044252196
 30
0.0
 10
-312.3434955680437
 20
-1832.234383850448
 30
0.0
 10
-312.69651738534
 20
-1832.486723448699
 30
0.0
 10
-313.1239801447314
 20
-1832.739063046951
 30
0.0
 10
-313.1635827734367
 20
-1832.762441250545
 30
0.0
 10
-313.2035390660544
 20
-1832.785819454137
 30
0.0
 10
-313.2434955680451
 20
-1832.809197657731
 30
0.0
  0
CIRCLE
  5
21C5
330
85F
100
AcDbEntity
  8
OUTLINE
100
AcDbCircle
 10
-319.8434955680436
 20
-1426.809197657731
 30
0.0
 40
2.5
  0
CIRCLE
  5
21C6
330
85F
100
AcDbEntity
  8
OUTLINE
100
AcDbCircle
 10
-319.8434955680436
 20
-1804.80919765773
 30
0.0
 40
2.5
  0
LINE
  5
21C7
330
85F
100
AcDbEntity
  8
OUTLINE
100
AcDbLine
 10
-312.1434955680466
 20
-1381.80919765773
 30
0.0
 11
-312.2434955680451
 21
-1381.80919765773
 31
0.0
  0
LINE
  5
21C8
330
85F
100
AcDbEntity
  8
OUTLINE
100
AcDbLine
 10
-303.0934955680436
 20
-1388.21541794011
 30
0.0
 11
-303.0934955680436
 21
-1388.392653653262
 31
0.0
  0
LINE
  5
21C9
330
85F
100
AcDbEntity
  8
OUTLINE
100
AcDbLine
 10
-303.0934955680436
 20
-1389.085473976289
 30
0.0
 11
-303.0934955680436
 21
-1388.392653653262
 31
0.0
  0
ELLIPSE
  5
21CA
330
85F
100
AcDbEntity
  8
OUTLINE
100
AcDbEllipse
 10
-303.6434955680466
 20
-1389.090417940108
 30
0.0
 11
1.499999999999995
 21
-0.0000000000000219
 31
0.0
210
0.0
220
0.0
230
1.0
 40
0.500000000000008
 41
0.0008572120716055
 42
1.195372718814051
  0
ELLIPSE
  5
21CB
330
85F
100
AcDbEntity
  8
OUTLINE
100
AcDbEllipse
 10
-303.6434955680466
 20
-1389.090417940108
 30
0.0
 11
-1.499999999999992
 21
-0.0000000000000019
 31
0.0
210
0.0
220
0.0
230
1.0
 40
0.4999999999999965
 41
5.087812588365622
 42
6.282328095109664
  0
ELLIPSE
  5
21CC
330
85F
100
AcDbEntity
  8
OUTLINE
100
AcDbEllipse
 10
-303.6434955680466
 20
-1389.783238263136
 30
0.0
 11
-1.499999999999997
 21
-0.0000000000000137
 31
0.0
210
0.0
220
0.0
230
1.0
 40
0.4999999999999786
 41
5.087812588365604
 42
5.457068582172198
  0
ELLIPSE
  5
21CD
330
85F
100
AcDbEntity
  8
OUTLINE
100
AcDbEllipse
 10
-303.6434955680466
 20
-1389.783238263136
 30
0.0
 11
-1.499999999999972
 21
-0.0000000000000482
 31
0.0
210
0.0
220
0.0
230
1.0
 40
0.500000000000001
 41
3.967709378597636
 42
4.336965372403688
  0
LINE
  5
21CE
330
85F
100
AcDbEntity
  8
OUTLINE
100
AcDbLine
 10
-304.1934955680422
 20
-1389.085473976289
 30
0.0
 11
-304.1934955680422
 21
-1388.392653653262
 31
0.0
  0
LINE
  5
21CF
330
85F
100
AcDbEntity
  8
OUTLINE
100
AcDbLine
 10
-304.1934955680422
 20
-1388.392653653262
 30
0.0
 11
-304.1934955680422
 21
-1388.21541794011
 31
0.0
  0
ELLIPSE
  5
21D0
330
85F
100
AcDbEntity
  8
OUTLINE
100
AcDbEllipse
 10
-303.6434955680466
 20
-1388.21541794011
 30
0.0
 11
-0.5499999999999983
 21
0.0000000000000244
 31
0.0
210
0.0
220
0.0
230
1.0
 40
0.5000000000000036
 41
3.141592653590049
 42
6.283185307179842
  0
ELLIPSE
  5
21D1
330
85F
100
AcDbEntity
  8
OUTLINE
100
AcDbEllipse
 10
-303.6434955680466
 20
-1388.908238263137
 30
0.0
 11
0.5500000000000027
 21
-0.0000000000000089
 31
0.0
210
0.0
220
0.0
230
1.0
 40
0.5000000000000023
 41
0.0000000000000323
 42
3.141592653589825
  0
LINE
  5
21D2
330
85F
100
AcDbEntity
  8
OUTLINE
100
AcDbLine
 10
-303.0934955680436
 20
-1448.215417940109
 30
0.0
 11
-303.0934955680436
 21
-1448.392653653262
 31
0.0
  0
LINE
  5
21D3
330
85F
100
AcDbEntity
  8
OUTLINE
100
AcDbLine
 10
-303.0934955680436
 20
-1449.085473976289
 30
0.0
 11
-303.0934955680436
 21
-1448.392653653262
 31
0.0
  0
ELLIPSE
  5
21D4
330
85F
100
AcDbEntity
  8
OUTLINE
100
AcDbEllipse
 10
-303.6434955680466
 20
-1449.090417940109
 30
0.0
 11
1.499999999999965
 21
-0.0000000000000526
 31
0.0
210
0.0
220
0.0
230
1.0
 40
0.499999999999996
 41
0.0008572120723569
 42
1.195372718813987
  0
ELLIPSE
  5
21D5
330
85F
100
AcDbEntity
  8
OUTLINE
100
AcDbEllipse
 10
-303.6434955680466
 20
-1449.090417940109
 30
0.0
 11
-1.500000000000006
 21
-0.0000000000000252
 31
0.0
210
0.0
220
0.0
230
1.0
 40
0.4999999999999901
 41
5.087812588365608
 42
6.282328095107976
  0
ELLIPSE
  5
21D6
330
85F
100
AcDbEntity
  8
OUTLINE
100
AcDbEllipse
 10
-303.6434955680466
 20
-1449.783238263138
 30
0.0
 11
-1.500000000000723
 21
0.0000000000001616
 31
0.0
210
0.0
220
0.0
230
1.0
 40
0.5000000000001318
 41
5.087812588365971
 42
5.457068582171017
  0
ELLIPSE
  5
21D7
330
85F
100
AcDbEntity
  8
OUTLINE
100
AcDbEllipse
 10
-303.6434955680466
 20
-1449.783238263137
 30
0.0
 11
-1.500000000000206
 21
0.0000000000001247
 31
0.0
210
0.0
220
0.0
230
1.0
 40
0.4999999999998302
 41
3.967709378598452
 42
4.336965372403358
  0
LINE
  5
21D8
330
85F
100
AcDbEntity
  8
OUTLINE
100
AcDbLine
 10
-304.1934955680495
 20
-1449.085473976289
 30
0.0
 11
-304.1934955680495
 21
-1448.392653653262
 31
0.0
  0
LINE
  5
21D9
330
85F
100
AcDbEntity
  8
OUTLINE
100
AcDbLine
 10
-304.1934955680495
 20
-1448.392653653262
 30
0.0
 11
-304.1934955680495
 21
-1448.215417940109
 31
0.0
  0
ELLIPSE
  5
21DA
330
85F
100
AcDbEntity
  8
OUTLINE
100
AcDbEllipse
 10
-303.6434955680466
 20
-1448.215417940109
 30
0.0
 11
-0.5500000000000006
 21
0.0000000000000178
 31
0.0
210
0.0
220
0.0
230
1.0
 40
0.4999999999999967
 41
3.141592653589968
 42
6.283185307179762
  0
ELLIPSE
  5
21DB
330
85F
100
AcDbEntity
  8
OUTLINE
100
AcDbEllipse
 10
-303.6434955680466
 20
-1448.908238263137
 30
0.0
 11
0.5500000000000006
 21
0.0
 31
0.0
210
0.0
220
0.0
230
1.0
 40
0.4999999999999967
 41
0.0
 42
3.141592653589681
  0
LINE
  5
21DC
330
85F
100
AcDbEntity
  8
OUTLINE
100
AcDbLine
 10
-303.0934955680436
 20
-1648.128501057552
 30
0.0
 11
-303.0934955680436
 21
-1648.482972483856
 31
0.0
  0
ARC
  5
21DD
330
85F
100
AcDbEntity
  8
OUTLINE
100
AcDbCircle
 10
-303.6434955680466
 20
-1649.878501057552
 30
0.0
 40
1.500000000000017
100
AcDbArc
 50
111.5101882670052
 51
68.48981173299477
  0
LINE
  5
21DE
330
85F
100
AcDbEntity
  8
OUTLINE
100
AcDbLine
 10
-304.1934955680495
 20
-1648.482972483856
 30
0.0
 11
-304.1934955680495
 21
-1648.128501057552
 31
0.0
  0
ARC
  5
21DF
330
85F
100
AcDbEntity
  8
OUTLINE
100
AcDbCircle
 10
-303.6434955680466
 20
-1648.128501057552
 30
0.0
 40
0.5500000000000006
100
AcDbArc
 50
0.0
 51
180.0
  0
LINE
  5
21E0
330
85F
100
AcDbEntity
  8
OUTLINE
100
AcDbLine
 10
-311.543495568048
 20
-1824.538549487306
 30
0.0
 11
-312.3434955680437
 21
-1824.538549487306
 31
0.0
  0
LINE
  5
21E1
330
85F
100
AcDbEntity
  8
OUTLINE
100
AcDbLine
 10
-311.543495568048
 20
-1683.26113027894
 30
0.0
 11
-311.543495568048
 21
-1682.784372947188
 31
0.0
  0
LINE
  5
21E2
330
85F
100
AcDbEntity
  8
OUTLINE
100
AcDbLine
 10
-311.543495568048
 20
-1682.784372947188
 30
0.0
 11
-312.3434955680437
 21
-1682.784372947188
 31
0.0
  0
LINE
  5
21E3
330
85F
100
AcDbEntity
  8
OUTLINE
100
AcDbLine
 10
-311.543495568048
 20
-1683.26113027894
 30
0.0
 11
-312.3434955680437
 21
-1683.26113027894
 31
0.0
  0
LINE
  5
21E4
330
85F
100
AcDbEntity
  8
OUTLINE
100
AcDbLine
 10
-311.543495568048
 20
-1683.26113027894
 30
0.0
 11
-311.543495568048
 21
-1824.538549487306
 31
0.0
  0
LINE
  5
21E5
330
85F
100
AcDbEntity
  8
OUTLINE
100
AcDbLine
 10
-312.3434955680437
 20
-1683.26113027894
 30
0.0
 11
-312.3434955680437
 21
-1680.704876973163
 31
0.0
  0
LINE
  5
21E6
330
85F
100
AcDbEntity
  8
OUTLINE
100
AcDbLine
 10
-313.1434955680465
 20
-1680.704876973163
 30
0.0
 11
-313.1434955680465
 21
-1831.982044252196
 31
0.0
  0
LINE
  5
21E7
330
85F
100
AcDbEntity
  8
OUTLINE
100
AcDbLine
 10
-312.3434955680437
 20
-1831.982044252196
 30
0.0
 11
-312.3434955680437
 21
-1824.538549487306
 31
0.0
  0
LINE
  5
21E8
330
85F
100
AcDbEntity
  8
OUTLINE
100
AcDbLine
 10
-312.3434955680437
 20
-1382.30419765773
 30
0.0
 11
-312.3434955680437
 21
-1381.80919765773
 31
0.0
  0
LINE
  5
21E9
330
85F
100
AcDbEntity
  8
OUTLINE
100
AcDbLine
 10
-312.3434955680437
 20
-1461.867723567628
 30
0.0
 11
-312.3434955680437
 21
-1459.878501057552
 31
0.0
  0
LINE
  5
21EA
330
85F
100
AcDbEntity
  8
OUTLINE
100
AcDbLine
 10
-313.1434955680465
 20
-1459.878501057552
 30
0.0
 11
-313.1434955680465
 21
-1461.867723567628
 31
0.0
  0
LINE
  5
21EB
330
85F
100
AcDbEntity
  8
OUTLINE
100
AcDbLine
 10
-312.3434955680437
 20
-1381.80919765773
 30
0.0
 11
-313.1434955680465
 21
-1381.80919765773
 31
0.0
  0
LINE
  5
21EC
330
85F
100
AcDbEntity
  8
OUTLINE
100
AcDbLine
 10
-313.1434955680465
 20
-1381.80919765773
 30
0.0
 11
-313.1434955680465
 21
-1382.30419765773
 31
0.0
  0
LINE
  5
21ED
330
85F
100
AcDbEntity
  8
OUTLINE
100
AcDbLine
 10
-312.3434955680437
 20
-1680.704876973163
 30
0.0
 11
-312.8164533631803
 21
-1680.704876973163
 31
0.0
  0
LINE
  5
21EE
330
85F
100
AcDbEntity
  8
OUTLINE
100
AcDbLine
 10
-312.8164533631803
 20
-1680.704876973163
 30
0.0
 11
-313.1434955680465
 21
-1680.704876973163
 31
0.0
  0
LINE
  5
21EF
330
85F
100
AcDbEntity
  8
OUTLINE
100
AcDbLine
 10
-312.2434955680451
 20
-1461.877723567628
 30
0.0
 11
-312.2434955680451
 21
-1679.877723567627
 31
0.0
  0
LINE
  5
21F0
330
85F
100
AcDbEntity
  8
OUTLINE
100
AcDbLine
 10
-312.2434955680451
 20
-1461.877723567628
 30
0.0
 11
-313.1434955680465
 21
-1461.877723567628
 31
0.0
  0
LINE
  5
21F1
330
85F
100
AcDbEntity
  8
OUTLINE
100
AcDbLine
 10
-313.1434955680465
 20
-1680.704876973163
 30
0.0
 11
-313.1434955680465
 21
-1461.877723567628
 31
0.0
  0
SPLINE
  5
21F2
330
85F
100
AcDbEntity
  8
OUTLINE
100
AcDbSpline
210
0.0
220
0.0
230
1.0
 70
     8
 71
     3
 72
    11
 73
     7
 74
     0
 42
0.0000000001
 43
0.0000000001
 40
0.0
 40
0.0
 40
0.0
 40
0.0
 40
1.437607986812809
 40
1.437607986812809
 40
1.437607986812809
 40
1.570796326794893
 40
1.570796326794893
 40
1.570796326794893
 40
1.570796326794893
 10
-312.2434955680451
 20
-1679.877723567627
 30
0.0
 10
-312.6747779640878
 20
-1680.130063165879
 30
0.0
 10
-313.0782526421622
 20
-1680.382402764131
 30
0.0
 10
-313.1355247511979
 20
-1680.634742362383
 30
0.0
 10
-313.140830771475
 20
-1680.658120565976
 30
0.0
 10
-313.1434955680465
 20
-1680.681498769569
 30
0.0
 10
-313.1434955680465
 20
-1680.704876973163
 30
0.0
  0
SPLINE
  5
21F3
330
85F
100
AcDbEntity
  8
OUTLINE
100
AcDbSpline
210
0.0
220
0.0
230
1.0
 70
     8
 71
     3
 72
     8
 73
     4
 74
     0
 42
0.0000000001
 43
0.0000000001
 40
0.0
 40
0.0
 40
0.0
 40
0.0
 40
1.570796326794893
 40
1.570796326794893
 40
1.570796326794893
 40
1.570796326794893
 10
-312.3434955680437
 20
-1680.704876973163
 30
0.0
 10
-312.3434955680437
 20
-1680.429159171317
 30
0.0
 10
-312.2958554456068
 20
-1680.153441369472
 30
0.0
 10
-312.2434955680451
 20
-1679.877723567627
 30
0.0
  0
LINE
  5
21F4
330
85F
100
AcDbEntity
  8
OUTLINE
100
AcDbLine
 10
-313.1434955680465
 20
-1461.867723567628
 30
0.0
 11
-312.3434955680437
 21
-1461.867723567628
 31
0.0
  0
LINE
  5
21F5
330
85F
100
AcDbEntity
  8
OUTLINE
100
AcDbLine
 10
-313.1434955680465
 20
-1461.877723567628
 30
0.0
 11
-313.1434955680465
 21
-1461.867723567628
 31
0.0
  0
LINE
  5
21F6
330
85F
100
AcDbEntity
  8
OUTLINE
100
AcDbLine
 10
-312.3434955680437
 20
-1461.867723567628
 30
0.0
 11
-312.3434955680437
 21
-1461.877723567628
 31
0.0
  0
LINE
  5
21F7
330
85F
100
AcDbEntity
  8
OUTLINE
100
AcDbLine
 10
-312.1434955680466
 20
-1679.788319594116
 30
0.0
 11
-312.2434955680451
 21
-1679.877723567627
 31
0.0
  0
LINE
  5
21F8
330
85F
100
AcDbEntity
  8
OUTLINE
100
AcDbLine
 10
-312.2434955680451
 20
-1461.877723567628
 30
0.0
 11
-312.1434955680466
 21
-1461.877723567628
 31
0.0
  0
LINE
  5
21F9
330
85F
100
AcDbEntity
  8
OUTLINE
100
AcDbLine
 10
-303.0934955680436
 20
-1498.128501057552
 30
0.0
 11
-303.0934955680436
 21
-1498.482972483856
 31
0.0
  0
ARC
  5
21FA
330
85F
100
AcDbEntity
  8
OUTLINE
100
AcDbCircle
 10
-303.6434955680466
 20
-1499.878501057552
 30
0.0
 40
1.499999999999984
100
AcDbArc
 50
111.5101882670052
 51
68.48981173299477
  0
LINE
  5
21FB
330
85F
100
AcDbEntity
  8
OUTLINE
100
AcDbLine
 10
-304.1934955680495
 20
-1498.482972483856
 30
0.0
 11
-304.1934955680495
 21
-1498.128501057552
 31
0.0
  0
ARC
  5
21FC
330
85F
100
AcDbEntity
  8
OUTLINE
100
AcDbCircle
 10
-303.6434955680466
 20
-1498.128501057552
 30
0.0
 40
0.5500000000000006
100
AcDbArc
 50
0.0
 51
180.0
  0
LINE
  5
21FD
330
85F
100
AcDbEntity
  8
OUTLINE
100
AcDbLine
 10
-312.3434955680437
 20
-1382.30419765773
 30
0.0
 11
-312.3434955680437
 21
-1382.314023851896
 31
0.0
  0
LINE
  5
21FE
330
85F
100
AcDbEntity
  8
OUTLINE
100
AcDbLine
 10
-312.3434955680437
 20
-1459.107146431033
 30
0.0
 11
-312.3434955680437
 21
-1459.115806685071
 31
0.0
  0
LINE
  5
21FF
330
85F
100
AcDbEntity
  8
OUTLINE
100
AcDbLine
 10
-312.3434955680437
 20
-1459.115806685071
 30
0.0
 11
-312.3434955680437
 21
-1459.878501057552
 31
0.0
  0
LINE
  5
2200
330
85F
100
AcDbEntity
  8
OUTLINE
100
AcDbLine
 10
-312.2434955680451
 20
-1382.309197657731
 30
0.0
 11
-312.2434955680451
 21
-1458.327723567629
 31
0.0
  0
ELLIPSE
  5
2201
330
85F
100
AcDbEntity
  8
OUTLINE
100
AcDbEllipse
 10
-312.2434955680451
 20
-1383.088620521138
 30
0.0
 11
-0.9000000000001138
 21
0.0000000000009917
 31
0.0
210
0.0
220
0.0
230
1.0
 40
0.8660254037844424
 41
4.712388980385643
 42
6.283185307180136
  0
LINE
  5
2202
330
85F
100
AcDbEntity
  8
OUTLINE
100
AcDbLine
 10
-313.1434955680465
 20
-1459.107146431033
 30
0.0
 11
-313.1434955680465
 21
-1383.088620521136
 31
0.0
  0
ELLIPSE
  5
2203
330
85F
100
AcDbEntity
  8
OUTLINE
100
AcDbEllipse
 10
-312.2434955680451
 20
-1459.107146431033
 30
0.0
 11
-0.8999999999999234
 21
0.0000000000000181
 31
0.0
210
0.0
220
0.0
230
1.0
 40
0.8660254037844026
 41
4.712388980384707
 42
6.283185307179897
  0
LINE
  5
2204
330
85F
100
AcDbEntity
  8
OUTLINE
100
AcDbLine
 10
-312.2434955680451
 20
-1458.327723567627
 30
0.0
 11
-312.2434955680451
 21
-1459.020543890656
 31
0.0
  0
LINE
  5
2205
330
85F
100
AcDbEntity
  8
OUTLINE
100
AcDbLine
 10
-313.1434955680465
 20
-1459.107146431033
 30
0.0
 11
-312.3434955680437
 21
-1459.107146431033
 31
0.0
  0
ELLIPSE
  5
2206
330
85F
100
AcDbEntity
  8
OUTLINE
100
AcDbEllipse
 10
-312.2434955680451
 20
-1459.107146431033
 30
0.0
 11
-0.0999999999999608
 21
0.0000000000000128
 31
0.0
210
0.0
220
0.0
230
1.0
 40
0.8660254037843822
 41
4.7123889803848
 42
6.283185307179786
  0
LINE
  5
2207
330
85F
100
AcDbEntity
  8
OUTLINE
100
AcDbLine
 10
-313.1434955680465
 20
-1459.878501057552
 30
0.0
 11
-313.1434955680465
 21
-1459.115806685071
 31
0.0
  0
LINE
  5
2208
330
85F
100
AcDbEntity
  8
OUTLINE
100
AcDbLine
 10
-312.3434955680437
 20
-1459.878501057552
 30
0.0
 11
-313.1434955680465
 21
-1459.878501057552
 31
0.0
  0
LINE
  5
2209
330
85F
100
AcDbEntity
  8
OUTLINE
100
AcDbLine
 10
-312.3434955680437
 20
-1459.115806685071
 30
0.0
 11
-313.1434955680465
 21
-1459.115806685071
 31
0.0
  0
LINE
  5
220A
330
85F
100
AcDbEntity
  8
OUTLINE
100
AcDbLine
 10
-313.1434955680465
 20
-1459.115806685071
 30
0.0
 11
-313.1434955680465
 21
-1459.107146431033
 31
0.0
  0
LINE
  5
220B
330
85F
100
AcDbEntity
  8
OUTLINE
100
AcDbLine
 10
-313.1434955680465
 20
-1383.088620521137
 30
0.0
 11
-313.1434955680465
 21
-1382.30419765773
 31
0.0
  0
LINE
  5
220C
330
85F
100
AcDbEntity
  8
OUTLINE
100
AcDbLine
 10
-313.1434955680465
 20
-1382.30419765773
 30
0.0
 11
-312.3434955680437
 21
-1382.30419765773
 31
0.0
  0
LINE
  5
220D
330
85F
100
AcDbEntity
  8
OUTLINE
100
AcDbLine
 10
-312.1434955680466
 20
-1459.020543890655
 30
0.0
 11
-312.2434955680451
 21
-1459.020543890656
 31
0.0
  0
LINE
  5
220E
330
85F
100
AcDbEntity
  8
OUTLINE
100
AcDbLine
 10
-312.1434955680466
 20
-1458.327723567627
 30
0.0
 11
-312.2434955680451
 21
-1458.327723567627
 31
0.0
  0
LINE
  5
220F
330
85F
100
AcDbEntity
  8
OUTLINE
100
AcDbLine
 10
-312.2434955680451
 20
-1382.309197657731
 30
0.0
 11
-312.1434955680466
 21
-1382.309197657731
 31
0.0
  0
ARC
  5
2210
330
85F
100
AcDbEntity
  8
OUTLINE
100
AcDbCircle
 10
-312.2434955680451
 20
-1382.70919765773
 30
0.0
 40
0.899999999999976
100
AcDbArc
 50
90.0
 51
96.37937020834836
  0
LINE
  5
2211
330
85F
100
AcDbEntity
  8
OUTLINE
100
AcDbLine
 10
-312.2434955680451
 20
-1381.80919765773
 30
0.0
 11
-312.2434955680451
 21
-1382.309197657731
 31
0.0
  0
LINE
  5
2212
330
85F
100
AcDbEntity
  8
OUTLINE
100
AcDbLine
 10
278.8065044319505
 20
-1388.392653653261
 30
0.0
 11
278.8065044319505
 21
-1388.215417940108
 31
0.0
  0
LINE
  5
2213
330
85F
100
AcDbEntity
  8
OUTLINE
100
AcDbLine
 10
278.8065044319505
 20
-1388.392653653261
 30
0.0
 11
278.8065044319505
 21
-1389.085473976289
 31
0.0
  0
ELLIPSE
  5
2214
330
85F
100
AcDbEntity
  8
OUTLINE
100
AcDbEllipse
 10
279.3565044319535
 20
-1389.783238263136
 30
0.0
 11
-1.500000000000058
 21
-0.0000000000001014
 31
0.0
210
0.0
220
0.0
230
1.0
 40
0.4999999999999919
 41
5.087812588365485
 42
5.457068582163091
  0
ELLIPSE
  5
2215
330
85F
100
AcDbEntity
  8
OUTLINE
100
AcDbEllipse
 10
279.3565044319535
 20
-1389.783238263136
 30
0.0
 11
-1.499999999999981
 21
-0.0000000000001588
 31
0.0
210
0.0
220
0.0
230
1.0
 40
0.4999999999999914
 41
3.967709378604252
 42
4.336965372403202
  0
ELLIPSE
  5
2216
330
85F
100
AcDbEntity
  8
OUTLINE
100
AcDbEllipse
 10
279.3565044319535
 20
-1389.090417940109
 30
0.0
 11
1.499999999999993
 21
0.0000000000000798
 31
0.0
210
0.0
220
0.0
230
1.0
 40
0.4999999999999911
 41
0.000857212077392
 42
1.195372718813929
  0
ELLIPSE
  5
2217
330
85F
100
AcDbEntity
  8
OUTLINE
100
AcDbEllipse
 10
279.3565044319535
 20
-1389.090417940109
 30
0.0
 11
-1.499999999999985
 21
-0.0000000000000951
 31
0.0
210
0.0
220
0.0
230
1.0
 40
0.4999999999999896
 41
5.087812588365574
 42
6.282328095099593
  0
LINE
  5
2218
330
85F
100
AcDbEntity
  8
OUTLINE
100
AcDbLine
 10
279.9065044319491
 20
-1388.392653653261
 30
0.0
 11
279.9065044319491
 21
-1389.085473976289
 31
0.0
  0
LINE
  5
2219
330
85F
100
AcDbEntity
  8
OUTLINE
100
AcDbLine
 10
279.9065044319491
 20
-1388.215417940108
 30
0.0
 11
279.9065044319491
 21
-1388.392653653261
 31
0.0
  0
ELLIPSE
  5
221A
330
85F
100
AcDbEntity
  8
OUTLINE
100
AcDbEllipse
 10
279.3565044319535
 20
-1388.908238263137
 30
0.0
 11
0.5499999999999979
 21
0.0000000000000067
 31
0.0
210
0.0
220
0.0
230
1.0
 40
0.4999999999999984
 41
0.0000000000002491
 42
3.141592653590042
  0
ELLIPSE
  5
221B
330
85F
100
AcDbEntity
  8
OUTLINE
100
AcDbEllipse
 10
279.3565044319535
 20
-1388.21541794011
 30
0.0
 11
-0.55
 21
-0.0000000000000122
 31
0.0
210
0.0
220
0.0
230
1.0
 40
0.4999999999999975
 41
3.141592653589965
 42
6.283185307179759
  0
CIRCLE
  5
221C
330
85F
100
AcDbEntity
  8
OUTLINE
100
AcDbCircle
 10
297.0565044319578
 20
-1405.80919765773
 30
0.0
 40
2.499999999999998
  0
CIRCLE
  5
221D
330
85F
100
AcDbEntity
  8
OUTLINE
100
AcDbCircle
 10
297.0565044319578
 20
-1595.809197657731
 30
0.0
 40
2.499999999999998
  0
LINE
  5
221E
330
85F
100
AcDbEntity
  8
OUTLINE
100
AcDbLine
 10
301.0565044319578
 20
-1381.80919765773
 30
0.0
 11
304.0565044319578
 21
-1384.809197657731
 31
0.0
  0
LINE
  5
221F
330
85F
100
AcDbEntity
  8
OUTLINE
100
AcDbLine
 10
304.0565044319578
 20
-1829.809197657731
 30
0.0
 11
301.0565044319578
 21
-1832.809197657731
 31
0.0
  0
LINE
  5
2220
330
85F
100
AcDbEntity
  8
OUTLINE
100
AcDbLine
 10
287.956504431952
 20
-1381.80919765773
 30
0.0
 11
287.8565044319535
 21
-1381.80919765773
 31
0.0
  0
LINE
  5
2221
330
85F
100
AcDbEntity
  8
OUTLINE
100
AcDbLine
 10
304.0565044319578
 20
-1829.809197657731
 30
0.0
 11
304.0565044319578
 21
-1384.809197657731
 31
0.0
  0
LINE
  5
2222
330
85F
100
AcDbEntity
  8
OUTLINE
100
AcDbLine
 10
301.0565044319578
 20
-1381.80919765773
 30
0.0
 11
288.956504431952
 21
-1381.80919765773
 31
0.0
  0
LINE
  5
2223
330
85F
100
AcDbEntity
  8
OUTLINE
100
AcDbLine
 10
301.0565044319578
 20
-1832.809197657731
 30
0.0
 11
288.956504431952
 21
-1832.809197657731
 31
0.0
  0
CIRCLE
  5
2224
330
85F
100
AcDbEntity
  8
OUTLINE
100
AcDbCircle
 10
297.0565044319578
 20
-1785.80919765773
 30
0.0
 40
2.499999999999998
  0
LINE
  5
2225
330
85F
100
AcDbEntity
  8
OUTLINE
100
AcDbLine
 10
288.956504431952
 20
-1381.80919765773
 30
0.0
 11
288.956504431952
 21
-1832.809197657731
 31
0.0
  0
LINE
  5
2226
330
85F
100
AcDbEntity
  8
OUTLINE
100
AcDbLine
 10
288.956504431952
 20
-1832.809197657731
 30
0.0
 11
288.8565044319534
 21
-1832.809197657731
 31
0.0
  0
LINE
  5
2227
330
85F
100
AcDbEntity
  8
OUTLINE
100
AcDbLine
 10
288.956504431952
 20
-1381.80919765773
 30
0.0
 11
288.8565044319534
 21
-1381.80919765773
 31
0.0
  0
LINE
  5
2228
330
85F
100
AcDbEntity
  8
OUTLINE
100
AcDbLine
 10
278.8065044319433
 20
-1448.392653653261
 30
0.0
 11
278.8065044319433
 21
-1448.215417940108
 31
0.0
  0
LINE
  5
2229
330
85F
100
AcDbEntity
  8
OUTLINE
100
AcDbLine
 10
278.8065044319433
 20
-1448.392653653261
 30
0.0
 11
278.8065044319433
 21
-1449.085473976288
 31
0.0
  0
ELLIPSE
  5
222A
330
85F
100
AcDbEntity
  8
OUTLINE
100
AcDbEllipse
 10
279.3565044319462
 20
-1449.783238263135
 30
0.0
 11
-1.500000000000323
 21
-0.0000000000003427
 31
0.0
210
0.0
220
0.0
230
1.0
 40
0.499999999999784
 41
5.087812588365405
 42
5.457068582162692
  0
ELLIPSE
  5
222B
330
85F
100
AcDbEntity
  8
OUTLINE
100
AcDbEllipse
 10
279.3565044319462
 20
-1449.783238263136
 30
0.0
 11
-1.500000000000225
 21
-0.0000000000003689
 31
0.0
210
0.0
220
0.0
230
1.0
 40
0.5000000000001626
 41
3.967709378600542
 42
4.336965372403247
  0
ELLIPSE
  5
222C
330
85F
100
AcDbEntity
  8
OUTLINE
100
AcDbEllipse
 10
279.3565044319462
 20
-1449.090417940108
 30
0.0
 11
1.500000000000013
 21
0.0000000000000917
 31
0.0
210
0.0
220
0.0
230
1.0
 40
0.5000000000000017
 41
0.0008572120728747
 42
1.195372718813915
  0
ELLIPSE
  5
222D
330
85F
100
AcDbEntity
  8
OUTLINE
100
AcDbEllipse
 10
279.3565044319462
 20
-1449.090417940108
 30
0.0
 11
-1.500000000000015
 21
-0.0000000000000906
 31
0.0
210
0.0
220
0.0
230
1.0
 40
0.4999999999999931
 41
5.087812588365579
 42
6.282328095097941
  0
LINE
  5
222E
330
85F
100
AcDbEntity
  8
OUTLINE
100
AcDbLine
 10
279.9065044319418
 20
-1448.392653653261
 30
0.0
 11
279.9065044319418
 21
-1449.085473976288
 31
0.0
  0
LINE
  5
222F
330
85F
100
AcDbEntity
  8
OUTLINE
100
AcDbLine
 10
279.9065044319418
 20
-1448.215417940108
 30
0.0
 11
279.9065044319418
 21
-1448.392653653261
 31
0.0
  0
ELLIPSE
  5
2230
330
85F
100
AcDbEntity
  8
OUTLINE
100
AcDbEllipse
 10
279.3565044319462
 20
-1448.908238263135
 30
0.0
 11
0.55
 21
0.0000000000000089
 31
0.0
210
0.0
220
0.0
230
1.0
 40
0.4999999999999952
 41
0.000000000000297
 42
3.141592653590089
  0
ELLIPSE
  5
2231
330
85F
100
AcDbEntity
  8
OUTLINE
100
AcDbEllipse
 10
279.3565044319462
 20
-1448.215417940108
 30
0.0
 11
-0.55
 21
-0.0000000000000178
 31
0.0
210
0.0
220
0.0
230
1.0
 40
0.4999999999999952
 41
3.141592653589833
 42
6.283185307179627
  0
LINE
  5
2232
330
85F
100
AcDbEntity
  8
OUTLINE
100
AcDbLine
 10
278.8065044319433
 20
-1648.482972483856
 30
0.0
 11
278.8065044319433
 21
-1648.128501057552
 31
0.0
  0
ARC
  5
2233
330
85F
100
AcDbEntity
  8
OUTLINE
100
AcDbCircle
 10
279.3565044319462
 20
-1649.878501057552
 30
0.0
 40
1.500000000000016
100
AcDbArc
 50
111.5101882670052
 51
68.48981173299477
  0
LINE
  5
2234
330
85F
100
AcDbEntity
  8
OUTLINE
100
AcDbLine
 10
279.9065044319418
 20
-1648.128501057552
 30
0.0
 11
279.9065044319418
 21
-1648.482972483856
 31
0.0
  0
ARC
  5
2235
330
85F
100
AcDbEntity
  8
OUTLINE
100
AcDbCircle
 10
279.3565044319462
 20
-1648.128501057552
 30
0.0
 40
0.55
100
AcDbArc
 50
0.0
 51
180.0
  0
LINE
  5
2236
330
85F
100
AcDbEntity
  8
OUTLINE
100
AcDbLine
 10
288.0565044319506
 20
-1829.425790946418
 30
0.0
 11
287.2565044319549
 21
-1829.425790946418
 31
0.0
  0
LINE
  5
2237
330
85F
100
AcDbEntity
  8
OUTLINE
100
AcDbLine
 10
287.2565044319476
 20
-1682.784372947188
 30
0.0
 11
287.2565044319476
 21
-1683.261130278939
 31
0.0
  0
LINE
  5
2238
330
85F
100
AcDbEntity
  8
OUTLINE
100
AcDbLine
 10
288.0565044319433
 20
-1683.261130278939
 30
0.0
 11
287.2565044319476
 21
-1683.261130278939
 31
0.0
  0
LINE
  5
2239
330
85F
100
AcDbEntity
  8
OUTLINE
100
AcDbLine
 10
288.0565044319433
 20
-1682.784372947188
 30
0.0
 11
287.2565044319476
 21
-1682.784372947188
 31
0.0
  0
LINE
  5
223A
330
85F
100
AcDbEntity
  8
OUTLINE
100
AcDbLine
 10
287.2565044319476
 20
-1683.261130278939
 30
0.0
 11
287.2565044319549
 21
-1829.425790946418
 31
0.0
  0
LINE
  5
223B
330
85F
100
AcDbEntity
  8
OUTLINE
100
AcDbLine
 10
288.0565044319506
 20
-1829.425790946418
 30
0.0
 11
288.0565044319506
 21
-1832.809197657731
 31
0.0
  0
LINE
  5
223C
330
85F
100
AcDbEntity
  8
OUTLINE
100
AcDbLine
 10
288.8565044319534
 20
-1832.809197657731
 30
0.0
 11
288.0565044319506
 21
-1832.809197657731
 31
0.0
  0
LINE
  5
223D
330
85F
100
AcDbEntity
  8
OUTLINE
100
AcDbLine
 10
288.8565044319534
 20
-1832.809197657731
 30
0.0
 11
288.8565044319462
 21
-1680.704876973163
 31
0.0
  0
LINE
  5
223E
330
85F
100
AcDbEntity
  8
OUTLINE
100
AcDbLine
 10
288.0565044319433
 20
-1680.704876973163
 30
0.0
 11
288.0565044319433
 21
-1683.261130278939
 31
0.0
  0
LINE
  5
223F
330
85F
100
AcDbEntity
  8
OUTLINE
100
AcDbLine
 10
288.0565044319433
 20
-1459.878501057552
 30
0.0
 11
288.0565044319433
 21
-1461.868501057552
 31
0.0
  0
LINE
  5
2240
330
85F
100
AcDbEntity
  8
OUTLINE
100
AcDbLine
 10
288.0565044319506
 20
-1381.80919765773
 30
0.0
 11
288.0565044319506
 21
-1382.304197657731
 31
0.0
  0
LINE
  5
2241
330
85F
100
AcDbEntity
  8
OUTLINE
100
AcDbLine
 10
288.8565044319534
 20
-1382.304197657731
 30
0.0
 11
288.8565044319534
 21
-1381.80919765773
 31
0.0
  0
LINE
  5
2242
330
85F
100
AcDbEntity
  8
OUTLINE
100
AcDbLine
 10
288.8565044319462
 20
-1461.868501057552
 30
0.0
 11
288.8565044319462
 21
-1459.878501057552
 31
0.0
  0
LINE
  5
2243
330
85F
100
AcDbEntity
  8
OUTLINE
100
AcDbLine
 10
288.8565044319534
 20
-1381.80919765773
 30
0.0
 11
288.0565044319506
 21
-1381.80919765773
 31
0.0
  0
LINE
  5
2244
330
85F
100
AcDbEntity
  8
OUTLINE
100
AcDbLine
 10
288.8565044319462
 20
-1680.704876973163
 30
0.0
 11
288.5294622270726
 21
-1680.704876973163
 31
0.0
  0
LINE
  5
2245
330
85F
100
AcDbEntity
  8
OUTLINE
100
AcDbLine
 10
288.5294622270726
 20
-1680.704876973163
 30
0.0
 11
288.0565044319433
 21
-1680.704876973163
 31
0.0
  0
LINE
  5
2246
330
85F
100
AcDbEntity
  8
OUTLINE
100
AcDbLine
 10
288.0565044319433
 20
-1461.878501057552
 30
0.0
 11
288.0565044319433
 21
-1461.868501057552
 31
0.0
  0
LINE
  5
2247
330
85F
100
AcDbEntity
  8
OUTLINE
100
AcDbLine
 10
287.9565044319447
 20
-1679.877723567627
 30
0.0
 11
287.9565044319447
 21
-1461.878501057552
 31
0.0
  0
SPLINE
  5
2248
330
85F
100
AcDbEntity
  8
OUTLINE
100
AcDbSpline
210
0.0
220
0.0
230
1.0
 70
     8
 71
     3
 72
     8
 73
     4
 74
     0
 42
0.0000000001
 43
0.0000000001
 40
0.0
 40
0.0
 40
0.0
 40
0.0
 40
1.570796326794875
 40
1.570796326794875
 40
1.570796326794875
 40
1.570796326794875
 10
287.9565044319447
 20
-1679.877723567627
 30
0.0
 10
288.0088643095064
 20
-1680.153441369472
 30
0.0
 10
288.0565044319433
 20
-1680.429159171317
 30
0.0
 10
288.0565044319433
 20
-1680.704876973163
 30
0.0
  0
LINE
  5
2249
330
85F
100
AcDbEntity
  8
OUTLINE
100
AcDbLine
 10
287.9565044319447
 20
-1461.878501057552
 30
0.0
 11
288.8565044319462
 21
-1461.878501057552
 31
0.0
  0
SPLINE
  5
224A
330
85F
100
AcDbEntity
  8
OUTLINE
100
AcDbSpline
210
0.0
220
0.0
230
1.0
 70
     8
 71
     3
 72
    11
 73
     7
 74
     0
 42
0.0000000001
 43
0.0000000001
 40
0.0
 40
0.0
 40
0.0
 40
0.0
 40
1.437607986812799
 40
1.437607986812799
 40
1.437607986812799
 40
1.570796326794875
 40
1.570796326794875
 40
1.570796326794875
 40
1.570796326794875
 10
288.8565044319462
 20
-1680.704876973163
 30
0.0
 10
288.8565044319462
 20
-1680.45253737491
 30
0.0
 10
288.5034826146498
 20
-1680.200197776659
 30
0.0
 10
288.0760198552584
 20
-1679.947858178406
 30
0.0
 10
288.0364172265531
 20
-1679.924479974813
 30
0.0
 10
287.9964609339354
 20
-1679.90110177122
 30
0.0
 10
287.9565044319447
 20
-1679.877723567627
 30
0.0
  0
LINE
  5
224B
330
85F
100
AcDbEntity
  8
OUTLINE
100
AcDbLine
 10
288.8565044319462
 20
-1461.878501057552
 30
0.0
 11
288.8565044319462
 21
-1680.704876973163
 31
0.0
  0
LINE
  5
224C
330
85F
100
AcDbEntity
  8
OUTLINE
100
AcDbLine
 10
288.0565044319433
 20
-1461.868501057552
 30
0.0
 11
288.8565044319462
 21
-1461.868501057552
 31
0.0
  0
LINE
  5
224D
330
85F
100
AcDbEntity
  8
OUTLINE
100
AcDbLine
 10
288.8565044319462
 20
-1461.868501057552
 30
0.0
 11
288.8565044319462
 21
-1461.878501057552
 31
0.0
  0
LINE
  5
224E
330
85F
100
AcDbEntity
  8
OUTLINE
100
AcDbLine
 10
288.0565044319433
 20
-1459.878501057552
 30
0.0
 11
288.0565044319433
 21
-1459.115806685071
 31
0.0
  0
LINE
  5
224F
330
85F
100
AcDbEntity
  8
OUTLINE
100
AcDbLine
 10
288.0565044319433
 20
-1459.115806685071
 30
0.0
 11
288.0565044319433
 21
-1459.107146431033
 31
0.0
  0
LINE
  5
2250
330
85F
100
AcDbEntity
  8
OUTLINE
100
AcDbLine
 10
288.0565044319506
 20
-1382.314023851895
 30
0.0
 11
288.0565044319506
 21
-1382.304197657731
 31
0.0
  0
LINE
  5
2251
330
85F
100
AcDbEntity
  8
OUTLINE
100
AcDbLine
 10
288.8565044319534
 20
-1382.304197657731
 30
0.0
 11
288.8565044319534
 21
-1383.088620521137
 31
0.0
  0
LINE
  5
2252
330
85F
100
AcDbEntity
  8
OUTLINE
100
AcDbLine
 10
288.8565044319534
 20
-1383.088620521137
 30
0.0
 11
288.8565044319462
 21
-1459.107146431033
 31
0.0
  0
LINE
  5
2253
330
85F
100
AcDbEntity
  8
OUTLINE
100
AcDbLine
 10
288.8565044319462
 20
-1459.107146431033
 30
0.0
 11
288.8565044319462
 21
-1459.115806685071
 31
0.0
  0
LINE
  5
2254
330
85F
100
AcDbEntity
  8
OUTLINE
100
AcDbLine
 10
288.8565044319462
 20
-1459.115806685071
 30
0.0
 11
288.8565044319462
 21
-1459.878501057552
 31
0.0
  0
ELLIPSE
  5
2255
330
85F
100
AcDbEntity
  8
OUTLINE
100
AcDbEllipse
 10
287.9565044319447
 20
-1459.107146431033
 30
0.0
 11
0.0999999999999915
 21
0.000000000000004
 31
0.0
210
0.0
220
0.0
230
1.0
 40
0.8660254037844714
 41
0.0
 42
1.570796326794861
  0
LINE
  5
2256
330
85F
100
AcDbEntity
  8
OUTLINE
100
AcDbLine
 10
287.9565044319447
 20
-1459.020543890654
 30
0.0
 11
287.9565044319447
 21
-1458.327723567627
 31
0.0
  0
LINE
  5
2257
330
85F
100
AcDbEntity
  8
OUTLINE
100
AcDbLine
 10
287.9565044319447
 20
-1458.327723567627
 30
0.0
 11
287.956504431952
 21
-1382.309197657731
 31
0.0
  0
ELLIPSE
  5
2258
330
85F
100
AcDbEntity
  8
OUTLINE
100
AcDbEllipse
 10
287.956504431952
 20
-1383.088620521137
 30
0.0
 11
0.8999999999999957
 21
0.0000000000000616
 31
0.0
210
0.0
220
0.0
230
1.0
 40
0.8660254037844412
 41
0.0
 42
1.570796326794837
  0
LINE
  5
2259
330
85F
100
AcDbEntity
  8
OUTLINE
100
AcDbLine
 10
288.0565044319433
 20
-1459.107146431033
 30
0.0
 11
288.8565044319462
 21
-1459.107146431033
 31
0.0
  0
ELLIPSE
  5
225A
330
85F
100
AcDbEntity
  8
OUTLINE
100
AcDbEllipse
 10
287.9565044319447
 20
-1459.107146431033
 30
0.0
 11
0.8999999999999969
 21
0.0000000000000089
 31
0.0
210
0.0
220
0.0
230
1.0
 40
0.8660254037844532
 41
0.0
 42
1.570796326794887
  0
LINE
  5
225B
330
85F
100
AcDbEntity
  8
OUTLINE
100
AcDbLine
 10
288.8565044319462
 20
-1459.878501057552
 30
0.0
 11
288.0565044319433
 21
-1459.878501057552
 31
0.0
  0
LINE
  5
225C
330
85F
100
AcDbEntity
  8
OUTLINE
100
AcDbLine
 10
288.8565044319462
 20
-1459.115806685071
 30
0.0
 11
288.0565044319433
 21
-1459.115806685071
 31
0.0
  0
LINE
  5
225D
330
85F
100
AcDbEntity
  8
OUTLINE
100
AcDbLine
 10
288.0565044319506
 20
-1382.304197657731
 30
0.0
 11
288.8565044319534
 21
-1382.304197657731
 31
0.0
  0
LINE
  5
225E
330
85F
100
AcDbEntity
  8
OUTLINE
100
AcDbLine
 10
287.9565044319447
 20
-1679.877723567627
 30
0.0
 11
287.8565044319535
 21
-1679.788319594126
 31
0.0
  0
LINE
  5
225F
330
85F
100
AcDbEntity
  8
OUTLINE
100
AcDbLine
 10
287.9565044319447
 20
-1461.878501057552
 30
0.0
 11
287.8565044319535
 21
-1461.878501057552
 31
0.0
  0
LINE
  5
2260
330
85F
100
AcDbEntity
  8
OUTLINE
100
AcDbLine
 10
278.8065044319433
 20
-1498.482972483856
 30
0.0
 11
278.8065044319433
 21
-1498.128501057552
 31
0.0
  0
ARC
  5
2261
330
85F
100
AcDbEntity
  8
OUTLINE
100
AcDbCircle
 10
279.3565044319462
 20
-1498.128501057552
 30
0.0
 40
0.55
100
AcDbArc
 50
0.0
 51
180.0
  0
LINE
  5
2262
330
85F
100
AcDbEntity
  8
OUTLINE
100
AcDbLine
 10
279.9065044319418
 20
-1498.128501057552
 30
0.0
 11
279.9065044319418
 21
-1498.482972483856
 31
0.0
  0
ARC
  5
2263
330
85F
100
AcDbEntity
  8
OUTLINE
100
AcDbCircle
 10
279.3565044319462
 20
-1499.878501057552
 30
0.0
 40
1.499999999999999
100
AcDbArc
 50
111.5101882670052
 51
68.48981173299477
  0
LINE
  5
2264
330
85F
100
AcDbEntity
  8
OUTLINE
100
AcDbLine
 10
287.9565044319447
 20
-1458.327723567627
 30
0.0
 11
287.8565044319535
 21
-1458.327723567627
 31
0.0
  0
LINE
  5
2265
330
85F
100
AcDbEntity
  8
OUTLINE
100
AcDbLine
 10
287.8565044319535
 20
-1459.020543890654
 30
0.0
 11
287.9565044319447
 21
-1459.020543890654
 31
0.0
  0
LINE
  5
2266
330
85F
100
AcDbEntity
  8
OUTLINE
100
AcDbLine
 10
287.956504431952
 20
-1382.309197657731
 30
0.0
 11
287.8565044319535
 21
-1382.309197657731
 31
0.0
  0
LINE
  5
2267
330
85F
100
AcDbEntity
  8
OUTLINE
100
AcDbLine
 10
287.956504431952
 20
-1382.309197657731
 30
0.0
 11
287.956504431952
 21
-1381.80919765773
 31
0.0
  0
ARC
  5
2268
330
85F
100
AcDbEntity
  8
OUTLINE
100
AcDbCircle
 10
287.956504431952
 20
-1382.709197657731
 30
0.0
 40
0.9000000000000005
100
AcDbArc
 50
83.62062979165164
 51
90.0
  0
LINE
  5
2269
330
85F
100
AcDbEntity
  8
OUTLINE
100
AcDbLine
 10
-312.1434955680466
 20
-1679.777723567603
 30
0.0
 11
-312.1434955680466
 21
-1476.369197687874
 31
0.0
  0
LINE
  5
226A
330
85F
100
AcDbEntity
  8
OUTLINE
100
AcDbLine
 10
287.8565044319535
 20
-1476.369197687869
 30
0.0
 11
287.8565044319535
 21
-1679.777723567603
 31
0.0
  0
CIRCLE
  5
226B
330
85F
100
AcDbEntity
  8
OUTLINE
100
AcDbCircle
 10
279.3565044319535
 20
-1649.677723567603
 30
0.0
 40
2.5
  0
CIRCLE
  5
226C
330
85F
100
AcDbEntity
  8
OUTLINE
100
AcDbCircle
 10
-303.6434955680466
 20
-1649.677723567603
 30
0.0
 40
2.5
  0
LINE
  5
226D
330
85F
100
AcDbEntity
  8
OUTLINE
100
AcDbLine
 10
276.8565044319534
 20
-1505.778744082036
 30
0.0
 11
276.8565044319534
 21
-1499.677723567604
 31
0.0
  0
ARC
  5
226E
330
85F
100
AcDbEntity
  8
OUTLINE
100
AcDbCircle
 10
279.3565044319535
 20
-1510.677723567603
 30
0.0
 40
5.500000000000001
100
AcDbArc
 50
117.0356917893314
 51
62.9643082106686
  0
LINE
  5
226F
330
85F
100
AcDbEntity
  8
OUTLINE
100
AcDbLine
 10
281.8565044319535
 20
-1499.677723567604
 30
0.0
 11
281.8565044319535
 21
-1505.778744082036
 31
0.0
  0
ARC
  5
2270
330
85F
100
AcDbEntity
  8
OUTLINE
100
AcDbCircle
 10
279.3565044319535
 20
-1499.677723567604
 30
0.0
 40
2.5
100
AcDbArc
 50
0.0
 51
180.0
  0
LINE
  5
2271
330
85F
100
AcDbEntity
  8
OUTLINE
100
AcDbLine
 10
-306.1434955680466
 20
-1505.778744082036
 30
0.0
 11
-306.1434955680466
 21
-1499.677723567603
 31
0.0
  0
ARC
  5
2272
330
85F
100
AcDbEntity
  8
OUTLINE
100
AcDbCircle
 10
-303.6434955680466
 20
-1510.677723567603
 30
0.0
 40
5.499999999999997
100
AcDbArc
 50
117.0356917893314
 51
62.9643082106686
  0
LINE
  5
2273
330
85F
100
AcDbEntity
  8
OUTLINE
100
AcDbLine
 10
-301.1434955680465
 20
-1499.677723567604
 30
0.0
 11
-301.1434955680465
 21
-1505.778744082036
 31
0.0
  0
ARC
  5
2274
330
85F
100
AcDbEntity
  8
OUTLINE
100
AcDbCircle
 10
-303.6434955680466
 20
-1499.677723567604
 30
0.0
 40
2.5
100
AcDbArc
 50
0.0
 51
180.0
  0
LINE
  5
2275
330
85F
100
AcDbEntity
  8
OUTLINE
100
AcDbLine
 10
107.3065044319505
 20
-1468.282194993908
 30
0.0
 11
107.3065044319505
 21
-1467.927723567603
 31
0.0
  0
ARC
  5
2276
330
85F
100
AcDbEntity
  8
OUTLINE
100
AcDbCircle
 10
107.8565044319534
 20
-1469.677723567603
 30
0.0
 40
1.49999999999999
100
AcDbArc
 50
111.5101882670052
 51
68.48981173299477
  0
LINE
  5
2277
330
85F
100
AcDbEntity
  8
OUTLINE
100
AcDbLine
 10
108.4065044319563
 20
-1467.927723567603
 30
0.0
 11
108.4065044319563
 21
-1468.282194993908
 31
0.0
  0
ARC
  5
2278
330
85F
100
AcDbEntity
  8
OUTLINE
100
AcDbCircle
 10
107.8565044319534
 20
-1467.927723567603
 30
0.0
 40
0.5499999999999972
100
AcDbArc
 50
0.0
 51
180.0
  0
LINE
  5
2279
330
85F
100
AcDbEntity
  8
OUTLINE
100
AcDbLine
 10
-132.6934955680494
 20
-1468.282194993908
 30
0.0
 11
-132.6934955680494
 21
-1467.927723567603
 31
0.0
  0
ARC
  5
227A
330
85F
100
AcDbEntity
  8
OUTLINE
100
AcDbCircle
 10
-132.1434955680465
 20
-1469.677723567603
 30
0.0
 40
1.499999999999989
100
AcDbArc
 50
111.5101882670052
 51
68.48981173299477
  0
LINE
  5
227B
330
85F
100
AcDbEntity
  8
OUTLINE
100
AcDbLine
 10
-131.5934955680436
 20
-1467.927723567603
 30
0.0
 11
-131.5934955680436
 21
-1468.282194993908
 31
0.0
  0
ARC
  5
227C
330
85F
100
AcDbEntity
  8
OUTLINE
100
AcDbCircle
 10
-132.1434955680465
 20
-1467.927723567603
 30
0.0
 40
0.5499999999999972
100
AcDbArc
 50
0.0
 51
180.0
  0
LINE
  5
227D
330
85F
100
AcDbEntity
  8
OUTLINE
100
AcDbLine
 10
287.8565044319535
 20
-1680.677723567604
 30
0.0
 11
-312.1434955680466
 21
-1680.677723567604
 31
0.0
  0
LINE
  5
227E
330
85F
100
AcDbEntity
  8
OUTLINE
100
AcDbLine
 10
-312.1434955680466
 20
-1680.677723567604
 30
0.0
 11
-312.1434955680466
 21
-1679.777723567603
 31
0.0
  0
LINE
  5
227F
330
85F
100
AcDbEntity
  8
OUTLINE
100
AcDbLine
 10
287.8565044319535
 20
-1680.677723567604
 30
0.0
 11
287.8565044319535
 21
-1679.777723567603
 31
0.0
  0
LINE
  5
2280
330
85F
100
AcDbEntity
  8
OUTLINE
100
AcDbLine
 10
-312.1434955680466
 20
-1679.777723567603
 30
0.0
 11
287.8565044319535
 21
-1679.777723567603
 31
0.0
  0
LINE
  5
2281
330
85F
100
AcDbEntity
  8
OUTLINE
100
AcDbLine
 10
-312.1434955680466
 20
-1377.809197657731
 30
0.0
 11
-309.1434955680465
 21
-1374.809197657731
 31
0.0
  0
LINE
  5
2282
330
85F
100
AcDbEntity
  8
OUTLINE
100
AcDbLine
 10
267.8565044319535
 20
-1374.809197657725
 30
0.0
 11
270.8565044319534
 21
-1377.809197657725
 31
0.0
  0
LINE
  5
2283
330
85F
100
AcDbEntity
  8
OUTLINE
100
AcDbLine
 10
-312.1434955680466
 20
-1381.00919765773
 30
0.0
 11
287.8565044319535
 21
-1381.009197657724
 31
0.0
  0
LINE
  5
2284
330
85F
100
AcDbEntity
  8
OUTLINE
100
AcDbLine
 10
287.8565044319535
 20
-1381.129774794319
 30
0.0
 11
-312.1434955680466
 21
-1381.129774794324
 31
0.0
  0
LINE
  5
2285
330
85F
100
AcDbEntity
  8
OUTLINE
100
AcDbLine
 10
287.8565044319535
 20
-1381.009197657724
 30
0.0
 11
287.8565044319535
 21
-1381.129774794319
 31
0.0
  0
LINE
  5
2286
330
85F
100
AcDbEntity
  8
OUTLINE
100
AcDbLine
 10
-312.1434955680466
 20
-1381.129774794324
 30
0.0
 11
-312.1434955680466
 21
-1381.00919765773
 31
0.0
  0
LINE
  5
2287
330
85F
100
AcDbEntity
  8
OUTLINE
100
AcDbLine
 10
267.8565044319535
 20
-1374.809197657725
 30
0.0
 11
-309.1434955680465
 21
-1374.809197657731
 31
0.0
  0
LINE
  5
2288
330
85F
100
AcDbEntity
  8
OUTLINE
100
AcDbLine
 10
-312.1434955680466
 20
-1377.809197657731
 30
0.0
 11
-312.1434955680466
 21
-1380.909197657731
 31
0.0
  0
LINE
  5
2289
330
85F
100
AcDbEntity
  8
OUTLINE
100
AcDbLine
 10
270.8565044319534
 20
-1377.809197657725
 30
0.0
 11
270.8565044319534
 21
-1380.909197657725
 31
0.0
  0
LINE
  5
228A
330
85F
100
AcDbEntity
  8
OUTLINE
100
AcDbLine
 10
-312.1434955680466
 20
-1380.909197657731
 30
0.0
 11
270.8565044319534
 21
-1380.909197657725
 31
0.0
  0
LINE
  5
228B
330
85F
100
AcDbEntity
  8
OUTLINE
100
AcDbLine
 10
270.8565044319534
 20
-1380.909197657725
 30
0.0
 11
270.8565044319534
 21
-1381.009197657725
 31
0.0
  0
LINE
  5
228C
330
85F
100
AcDbEntity
  8
OUTLINE
100
AcDbLine
 10
-312.1434955680466
 20
-1380.909197657731
 30
0.0
 11
-312.1434955680466
 21
-1381.00919765773
 31
0.0
  0
LINE
  5
228D
330
85F
100
AcDbEntity
  8
OUTLINE
100
AcDbLine
 10
287.8565044319535
 20
-1476.369197687868
 30
0.0
 11
284.8565044319535
 21
-1479.369197687868
 31
0.0
  0
LINE
  5
228E
330
85F
100
AcDbEntity
  8
OUTLINE
100
AcDbLine
 10
-309.1434955680465
 20
-1479.369197687874
 30
0.0
 11
-312.1434955680466
 21
-1476.369197687874
 31
0.0
  0
LINE
  5
228F
330
85F
100
AcDbEntity
  8
OUTLINE
100
AcDbLine
 10
284.8565044319535
 20
-1479.369197687868
 30
0.0
 11
-309.1434955680465
 21
-1479.369197687874
 31
0.0
  0
LINE
  5
2290
330
85F
100
AcDbEntity
  8
OUTLINE
100
AcDbLine
 10
287.8565044319535
 20
-1459.369197687868
 30
0.0
 11
287.8565044319535
 21
-1476.369197687868
 31
0.0
  0
LINE
  5
2291
330
85F
100
AcDbEntity
  8
OUTLINE
100
AcDbLine
 10
-312.1434955680466
 20
-1476.369197687874
 30
0.0
 11
-312.1434955680466
 21
-1459.369197687874
 31
0.0
  0
LINE
  5
2292
330
85F
100
AcDbEntity
  8
OUTLINE
100
AcDbLine
 10
-312.1434955680466
 20
-1458.589774824468
 30
0.0
 11
-312.1434955680466
 21
-1381.129774794324
 31
0.0
  0
LINE
  5
2293
330
85F
100
AcDbEntity
  8
OUTLINE
100
AcDbLine
 10
287.8565044319535
 20
-1381.129774794319
 30
0.0
 11
287.8565044319535
 21
-1458.589774824462
 31
0.0
  0
LINE
  5
2294
330
85F
100
AcDbEntity
  8
OUTLINE
100
AcDbLine
 10
104.8565044319534
 20
-1470.36919768787
 30
0.0
 11
104.8565044319534
 21
-1468.36919768787
 31
0.0
  0
ARC
  5
2295
330
85F
100
AcDbEntity
  8
OUTLINE
100
AcDbCircle
 10
107.8565044319534
 20
-1468.36919768787
 30
0.0
 40
2.99999999999996
100
AcDbArc
 50
0.0
 51
180.0
  0
LINE
  5
2296
330
85F
100
AcDbEntity
  8
OUTLINE
100
AcDbLine
 10
110.8565044319534
 20
-1468.369197687871
 30
0.0
 11
110.8565044319534
 21
-1470.36919768787
 31
0.0
  0
ARC
  5
2297
330
85F
100
AcDbEntity
  8
OUTLINE
100
AcDbCircle
 10
107.8565044319534
 20
-1470.36919768787
 30
0.0
 40
2.99999999999996
100
AcDbArc
 50
180.0
 51
0.0
  0
LINE
  5
2298
330
85F
100
AcDbEntity
  8
OUTLINE
100
AcDbLine
 10
-135.1434955680465
 20
-1470.369197687872
 30
0.0
 11
-135.1434955680465
 21
-1468.369197687873
 31
0.0
  0
ARC
  5
2299
330
85F
100
AcDbEntity
  8
OUTLINE
100
AcDbCircle
 10
-132.1434955680465
 20
-1468.369197687873
 30
0.0
 40
2.999999999999995
100
AcDbArc
 50
0.0
 51
180.0
  0
LINE
  5
229A
330
85F
100
AcDbEntity
  8
OUTLINE
100
AcDbLine
 10
-129.1434955680465
 20
-1468.369197687873
 30
0.0
 11
-129.1434955680465
 21
-1470.369197687872
 31
0.0
  0
ARC
  5
229B
330
85F
100
AcDbEntity
  8
OUTLINE
100
AcDbCircle
 10
-132.1434955680465
 20
-1470.369197687872
 30
0.0
 40
2.999999999999995
100
AcDbArc
 50
180.0
 51
0.0
  0
LINE
  5
229C
330
85F
100
AcDbEntity
  8
OUTLINE
100
AcDbLine
 10
287.8565044319535
 20
-1459.369197687868
 30
0.0
 11
-312.1434955680466
 21
-1459.369197687874
 31
0.0
  0
LINE
  5
229D
330
85F
100
AcDbEntity
  8
OUTLINE
100
AcDbLine
 10
-312.1434955680466
 20
-1459.369197687874
 30
0.0
 11
-312.1434955680466
 21
-1458.589774824468
 31
0.0
  0
LINE
  5
229E
330
85F
100
AcDbEntity
  8
OUTLINE
100
AcDbLine
 10
287.8565044319535
 20
-1458.589774824462
 30
0.0
 11
287.8565044319535
 21
-1459.369197687867
 31
0.0
  0
LINE
  5
229F
330
85F
100
AcDbEntity
  8
OUTLINE
100
AcDbLine
 10
-312.1434955680466
 20
-1458.589774824468
 30
0.0
 11
287.8565044319535
 21
-1458.589774824462
 31
0.0
  0
ELLIPSE
  5
22A0
330
85F
100
AcDbEntity
  8
OUTLINE
100
AcDbEllipse
 10
279.3565044319535
 20
-1388.782595147491
 30
0.0
 11
2.500000000000023
 21
0.0000000000000317
 31
0.0
210
0.0
220
0.0
230
1.0
 40
0.4999999999999971
 41
0.2808038766467544
 42
2.860788776942991
  0
ELLIPSE
  5
22A1
330
85F
100
AcDbEntity
  8
OUTLINE
100
AcDbEllipse
 10
279.3565044319535
 20
-1388.089774824463
 30
0.0
 11
-2.499999999999931
 21
-0.0000000000000248
 31
0.0
210
0.0
220
0.0
230
1.0
 40
0.4999999999999978
 41
0.0
 42
6.283185307179585
  0
ELLIPSE
  5
22A2
330
85F
100
AcDbEntity
  8
OUTLINE
100
AcDbEllipse
 10
279.3565044319535
 20
-1448.78259514749
 30
0.0
 11
2.499999999999925
 21
0.0000000000000328
 31
0.0
210
0.0
220
0.0
230
1.0
 40
0.4999999999999977
 41
0.2808038766467533
 42
2.86078877694299
  0
ELLIPSE
  5
22A3
330
85F
100
AcDbEntity
  8
OUTLINE
100
AcDbEllipse
 10
279.3565044319535
 20
-1448.089774824462
 30
0.0
 11
-2.499999999999924
 21
-0.0000000000000248
 31
0.0
210
0.0
220
0.0
230
1.0
 40
0.4999999999999978
 41
0.0
 42
6.283185307179585
  0
ELLIPSE
  5
22A4
330
85F
100
AcDbEntity
  8
OUTLINE
100
AcDbEllipse
 10
-303.6434955680466
 20
-1388.782595147496
 30
0.0
 11
2.499999999999989
 21
0.0000000000000324
 31
0.0
210
0.0
220
0.0
230
1.0
 40
0.4999999999999975
 41
0.2808038766467535
 42
2.86078877694299
  0
ELLIPSE
  5
22A5
330
85F
100
AcDbEntity
  8
OUTLINE
100
AcDbEllipse
 10
-303.6434955680466
 20
-1388.089774824469
 30
0.0
 11
-2.499999999999976
 21
-0.0000000000000248
 31
0.0
210
0.0
220
0.0
230
1.0
 40
0.4999999999999978
 41
0.0
 42
6.283185307179585
  0
ELLIPSE
  5
22A6
330
85F
100
AcDbEntity
  8
OUTLINE
100
AcDbEllipse
 10
-303.6434955680466
 20
-1448.782595147496
 30
0.0
 11
2.499999999999992
 21
0.0000000000000258
 31
0.0
210
0.0
220
0.0
230
1.0
 40
0.4999999999999957
 41
0.2808038766467597
 42
2.860788776942994
  0
ELLIPSE
  5
22A7
330
85F
100
AcDbEntity
  8
OUTLINE
100
AcDbEllipse
 10
-303.6434955680466
 20
-1448.089774824468
 30
0.0
 11
-2.499999999999983
 21
-0.0000000000000248
 31
0.0
210
0.0
220
0.0
230
1.0
 40
0.4999999999999978
 41
0.0
 42
6.283185307179585
  0
LINE
  5
22A8
330
85F
100
AcDbEntity
  8
NOTE
100
AcDbLine
 10
297.0565044319578
 20
-1413.30919765773
 30
0.0
 11
297.0565044319578
 21
-1398.309197657731
 31
0.0
  0
CIRCLE
  5
22A9
330
85F
100
AcDbEntity
  8
FIX
100
AcDbCircle
 10
297.0565044319578
 20
-1405.80919765773
 30
0.0
 40
2.5
  0
LINE
  5
22AA
330
85F
100
AcDbEntity
  8
NOTE
100
AcDbLine
 10
289.5565044319578
 20
-1405.80919765773
 30
0.0
 11
304.5565044319578
 21
-1405.80919765773
 31
0.0
  0
LINE
  5
22AB
330
85F
100
AcDbEntity
  8
NOTE
100
AcDbLine
 10
-319.8434955680436
 20
-1434.30919765773
 30
0.0
 11
-319.8434955680436
 21
-1419.30919765773
 31
0.0
  0
CIRCLE
  5
22AC
330
85F
100
AcDbEntity
  8
FIX
100
AcDbCircle
 10
-319.8434955680436
 20
-1426.809197657729
 30
0.0
 40
2.5
  0
LINE
  5
22AD
330
85F
100
AcDbEntity
  8
NOTE
100
AcDbLine
 10
-327.3434955680436
 20
-1426.809197657729
 30
0.0
 11
-312.3434955680437
 21
-1426.809197657729
 31
0.0
  0
LINE
  5
22AE
330
85F
100
AcDbEntity
  8
NOTE
100
AcDbLine
 10
-319.8434955680436
 20
-1812.30919765773
 30
0.0
 11
-319.8434955680436
 21
-1797.30919765773
 31
0.0
  0
CIRCLE
  5
22AF
330
85F
100
AcDbEntity
  8
FIX
100
AcDbCircle
 10
-319.8434955680436
 20
-1804.80919765773
 30
0.0
 40
2.5
  0
LINE
  5
22B0
330
85F
100
AcDbEntity
  8
NOTE
100
AcDbLine
 10
-327.3434955680436
 20
-1804.80919765773
 30
0.0
 11
-312.3434955680437
 21
-1804.80919765773
 31
0.0
  0
LINE
  5
22B1
330
85F
100
AcDbEntity
  8
NOTE
100
AcDbLine
 10
297.0565044319578
 20
-1793.30919765773
 30
0.0
 11
297.0565044319578
 21
-1778.30919765773
 31
0.0
  0
CIRCLE
  5
22B2
330
85F
100
AcDbEntity
  8
FIX
100
AcDbCircle
 10
297.0565044319578
 20
-1785.80919765773
 30
0.0
 40
2.5
  0
LINE
  5
22B3
330
85F
100
AcDbEntity
  8
NOTE
100
AcDbLine
 10
289.5565044319578
 20
-1785.80919765773
 30
0.0
 11
304.5565044319578
 21
-1785.80919765773
 31
0.0
  0
LINE
  5
22B4
330
85F
100
AcDbEntity
  8
NOTE
100
AcDbLine
 10
297.0565044319578
 20
-1603.30919765773
 30
0.0
 11
297.0565044319578
 21
-1588.30919765773
 31
0.0
  0
CIRCLE
  5
22B5
330
85F
100
AcDbEntity
  8
FIX
100
AcDbCircle
 10
297.0565044319578
 20
-1595.809197657731
 30
0.0
 40
2.5
  0
LINE
  5
22B6
330
85F
100
AcDbEntity
  8
NOTE
100
AcDbLine
 10
289.5565044319578
 20
-1595.809197657731
 30
0.0
 11
304.5565044319578
 21
-1595.809197657731
 31
0.0
  0
DIMENSION
  5
22B7
330
85F
100
AcDbEntity
  8
SIZE
  6
Continuous
100
AcDbDimension
  2
*D44
 10
297.0565044319578
 20
-1946.358369280212
 30
0.0
 11
-11.3934955680429
 21
-1904.358369280212
 31
0.0
 70
    32
 71
     5
 42
616.9000000000014
  3
STANDARD$0
100
AcDbAlignedDimension
 13
-319.8434955680436
 23
-1812.30919765773
 33
0.0
 14
297.0565044319578
 24
-1793.30919765773
 34
0.0
100
AcDbRotatedDimension
  0
DIMENSION
  5
22B8
330
85F
100
AcDbEntity
  8
SIZE
  6
Continuous
100
AcDbDimension
  2
*D45
 10
304.0565044319578
 20
-2070.99951721711
 30
0.0
 11
-10.6434955680429
 21
-2028.99951721711
 31
0.0
 70
    32
 71
     5
 42
629.4000000000014
  3
STANDARD$0
100
AcDbAlignedDimension
 13
-325.3434955680436
 23
-1829.80919765773
 33
0.0
 14
304.0565044319578
 24
-1829.80919765773
 34
0.0
100
AcDbRotatedDimension
  0
DIMENSION
  5
22B9
330
85F
100
AcDbEntity
  8
SIZE
  6
Continuous
100
AcDbDimension
  2
*D46
 10
-402.4367225148612
 20
-1426.809197657729
 30
0.0
 11
-444.4367225148609
 21
-1615.80919765773
 31
0.0
 70
    32
 71
     5
 42
378.0
  3
STANDARD$0
100
AcDbAlignedDimension
 13
-327.3434955680436
 23
-1804.80919765773
 33
0.0
 14
-327.3434955680436
 24
-1426.809197657729
 34
0.0
 50
90.0
100
AcDbRotatedDimension
  0
DIMENSION
  5
22BA
330
85F
100
AcDbEntity
  8
SIZE
  6
Continuous
100
AcDbDimension
  2
*D47
 10
-518.8701402154925
 20
-1374.809197657729
 30
0.0
 11
-560.8701402154922
 21
-1603.80919765773
 31
0.0
 70
    32
 71
     5
 42
458.0000000000008
  3
STANDARD$0
100
AcDbAlignedDimension
 13
-322.3434955680436
 23
-1832.809197657731
 33
0.0
 14
-309.1434955680465
 24
-1374.80919765773
 34
0.0
 50
90.0
100
AcDbRotatedDimension
  0
DIMENSION
  5
22BB
330
85F
100
AcDbEntity
  8
SIZE
  6
Continuous
100
AcDbDimension
  2
*D48
 10
446.5211860714321
 20
-1595.809197657731
 30
0.0
 11
404.5211860714323
 21
-1500.80919765773
 31
0.0
 70
    32
 71
     5
 42
190.0
  3
STANDARD$0
100
AcDbAlignedDimension
 13
304.5565044319578
 23
-1405.80919765773
 33
0.0
 14
304.5565044319578
 24
-1595.809197657731
 34
0.0
 50
90.0
100
AcDbRotatedDimension
  0
DIMENSION
  5
22BC
330
85F
100
AcDbEntity
  8
SIZE
  6
Continuous
100
AcDbDimension
  2
*D49
 10
446.660471827125
 20
-1785.80919765773
 30
0.0
 11
404.6604718271253
 21
-1690.80919765773
 31
0.0
 70
    32
 71
     5
 42
189.9999999999991
  3
STANDARD$0
100
AcDbAlignedDimension
 13
304.5565044319578
 23
-1595.809197657731
 33
0.0
 14
304.5565044319578
 24
-1785.80919765773
 34
0.0
 50
90.0
100
AcDbRotatedDimension
  0
LINE
  5
22BD
330
85F
100
AcDbEntity
  8
BASIS
  6
DASHDOT
 62
     6
100
AcDbLine
 10
-10.64349556803927
 20
-1853.809197657729
 30
0.0
 11
-10.64349556804654
 21
-1353.809197657729
 31
0.0
  0
LINE
  5
22BE
330
85F
100
AcDbEntity
  8
ARRANGE
  6
Continuous
 62
     1
100
AcDbLine
 10
-27.32761313245419
 20
-1620.493315222127
 30
0.0
 11
6.04062199635382
 21
-1587.12508009332
 31
0.0
  0
LINE
  5
22BF
330
85F
100
AcDbEntity
  8
ARRANGE
  6
Continuous
 62
     1
100
AcDbLine
 10
-27.32761313245419
 20
-1587.12508009332
 30
0.0
 11
6.04062199635382
 21
-1620.493315222127
 31
0.0
  0
CIRCLE
  5
22C0
330
85F
100
AcDbEntity
  8
ARRANGE
100
AcDbCircle
 10
-10.64349556804654
 20
-1603.809197657723
 30
0.0
 40
15.0
  0
LINE
  5
22C1
330
85F
100
AcDbEntity
  8
BASIS
  6
DASHDOT
 62
     6
100
AcDbLine
 10
324.3565044319316
 20
-1603.80919765773
 30
0.0
 11
-345.6434955680466
 21
-1603.80919765773
 31
0.0
  0
LEADER
  5
22C2
330
85F
100
AcDbEntity
  8
NOTE
100
AcDbLeader
  3
STANDARD
 73
     0
 74
     0
 75
     1
 40
64.0
 41
231.4971428571428
 76
     3
 10
297.0565044319578
 20
-1405.80919765773
 30
0.0
 10
370.8193052191696
 20
-1310.282102599717
 30
0.0
 10
382.8193052191696
 20
-1310.282102599717
 30
0.0
340
22C3
213
0.0
223
32.0
233
0.0
1001
ACAD
1000
DSTYLE
1002
{
1070
    41
1040
12.0
1070
    42
1040
20.0
1070
    43
1040
200.0
1070
    44
1040
20.0
1070
    73
1070
     0
1070
    74
1070
     0
1070
    77
1070
     1
1070
    78
1070
     8
1070
   140
1040
64.0
1070
   147
1040
50.0
1070
   172
1070
     1
1070
   174
1070
     1
1070
   275
1070
     0
1070
   284
1070
     0
1070
   285
1070
     0
1070
   286
1070
     0
1070
   341
1005
AB7
1070
   342
1005
AB2
1002
}
  0
MTEXT
  5
22C3
102
{ACAD_REACTORS
330
22C2
102
}
330
85F
100
AcDbEntity
  8
NOTE
100
AcDbMText
 10
432.8193052191696
 20
-1292.282102599717
 30
0.0
 40
64.0
 41
0.0
 71
     7
 72
     1
  1
5×φ5
 73
     1
 44
1.0
  0
MTEXT
  5
22C4
330
85F
100
AcDbEntity
  8
ETC
100
AcDbMText
 10
419.4163908658506
 20
-1009.642274236472
 30
0.0
 40
64.0
 41
0.0
 71
     1
 72
     5
  1
{\Fromans,extfont|c128;\W0.9;AGJS-17B-3}
  7
ADESK1
 73
     1
 44
1.0
  0
ENDSEC
  0
SECTION
  2
OBJECTS
  0
DICTIONARY
  5
84D
330
0
100
AcDbDictionary
281
     1
  3
ACAD_2007HEADERVARS_RT
350
230E
  3
ACAD_COLOR
350
116D
  3
ACAD_GROUP
350
84E
  3
ACAD_LAYOUT
350
85A
  3
ACAD_MATERIAL
350
116C
  3
ACAD_MLEADERSTYLE
350
13EA
  3
ACAD_MLINESTYLE
350
857
  3
ACAD_PLOTSETTINGS
350
859
  3
ACAD_PLOTSTYLENAME
350
B82
  3
ACAD_SCALELIST
350
13C8
  3
ACAD_TABLESTYLE
350
116E
  3
ACAD_VISUALSTYLE
350
13B7
  3
AcadDim
350
1003
  3
ACDB_RECOMPOSE_DATA
350
144A
  3
AcDbVariableDictionary
350
B87
  3
AcmDictionary
350
1234
  3
AMG
350
1173
  3
AMGSNAPSETTINGS
350
128A
1001
ACAD
1000
TREAT_AS_HARD
1070
     0
  0
DICTIONARY
  5
15AB
330
843
100
AcDbDictionary
280
     1
281
     1
  3
ACAD_LAYERSTATES
360
15AC
  0
DICTIONARY
  5
142F
330
851
100
AcDbDictionary
280
     1
281
     1
  3
ADSK_XREC_LAYER_RECONCILED
360
1430
  0
DICTIONARY
  5
1431
330
863
100
AcDbDictionary
280
     1
281
     1
  3
ADSK_XREC_LAYER_RECONCILED
360
1432
  0
DICTIONARY
  5
1433
330
866
100
AcDbDictionary
280
     1
281
     1
  3
ADSK_XREC_LAYER_RECONCILED
360
1434
  0
DICTIONARY
  5
1435
330
867
100
AcDbDictionary
280
     1
281
     1
  3
ADSK_XREC_LAYER_RECONCILED
360
1436
  0
DICTIONARY
  5
1437
330
868
100
AcDbDictionary
280
     1
281
     1
  3
ADSK_XREC_LAYER_RECONCILED
360
1438
  0
DICTIONARY
  5
1439
330
869
100
AcDbDictionary
280
     1
281
     1
  3
ADSK_XREC_LAYER_RECONCILED
360
143A
  0
DICTIONARY
  5
143B
330
86B
100
AcDbDictionary
280
     1
281
     1
  3
ADSK_XREC_LAYER_RECONCILED
360
143C
  0
DICTIONARY
  5
143D
330
86C
100
AcDbDictionary
280
     1
281
     1
  3
ADSK_XREC_LAYER_RECONCILED
360
143E
  0
DICTIONARY
  5
143F
330
86D
100
AcDbDictionary
280
     1
281
     1
  3
ADSK_XREC_LAYER_RECONCILED
360
1440
  0
DICTIONARY
  5
1441
330
86E
100
AcDbDictionary
280
     1
281
     1
  3
ADSK_XREC_LAYER_RECONCILED
360
1442
  0
DICTIONARY
  5
1443
330
86F
100
AcDbDictionary
280
     1
281
     1
  3
ADSK_XREC_LAYER_RECONCILED
360
1444
  0
DICTIONARY
  5
B4F
330
85F
100
AcDbDictionary
280
     1
281
     1
  3
ACAD_INDEX
360
1291
  3
ACAD_LAYOUTSELFREF
360
B50
  3
ACAD_SORTENTS
360
1399
  0
DICTIONARY
  5
B4D
330
85B
100
AcDbDictionary
280
     1
281
     1
  3
ACAD_LAYOUTSELFREF
360
B4E
  0
DICTIONARY
  5
230E
102
{ACAD_REACTORS
330
84D
102
}
330
84D
100
AcDbDictionary
281
     1
  3
DIMARCSYM
350
230F
  3
DIMLTEX1
350
2311
  3
DIMLTEX2
350
2312
  3
DIMLTYPE
350
2310
  0
DICTIONARY
  5
116D
102
{ACAD_REACTORS
330
84D
102
}
330
84D
100
AcDbDictionary
281
     1
  0
DICTIONARY
  5
84E
102
{ACAD_REACTORS
330
84D
102
}
330
84D
100
AcDbDictionary
281
     1
1001
ACAD
1000
TREAT_AS_HARD
1070
     0
  0
DICTIONARY
  5
85A
102
{ACAD_REACTORS
330
84D
102
}
330
84D
100
AcDbDictionary
281
     1
  3
Model
350
B84
  3
ﾚｲｱｳﾄ1
350
B85
1001
ACAD
1000
TREAT_AS_HARD
1070
     0
  0
DICTIONARY
  5
116C
102
{ACAD_REACTORS
330
84D
102
}
330
84D
100
AcDbDictionary
281
     1
  3
ByBlock
350
13A7
  3
ByLayer
350
139F
  3
Global
350
13AF
  0
DICTIONARY
  5
13EA
102
{ACAD_REACTORS
330
84D
102
}
330
84D
100
AcDbDictionary
281
     1
  3
Standard
350
13EB
  0
DICTIONARY
  5
857
102
{ACAD_REACTORS
330
84D
102
}
330
84D
100
AcDbDictionary
281
     1
  3
STANDARD
350
858
1001
ACAD
1000
TREAT_AS_HARD
1070
     0
  0
DICTIONARY
  5
859
102
{ACAD_REACTORS
330
84D
102
}
330
84D
100
AcDbDictionary
281
     1
1001
ACAD
1000
TREAT_AS_HARD
1070
     0
  0
ACDBDICTIONARYWDFLT
  5
B82
102
{ACAD_REACTORS
330
84D
102
}
330
84D
100
AcDbDictionary
281
     1
  3
Normal
350
B83
100
AcDbDictionaryWithDefault
340
B83
  0
DICTIONARY
  5
13C8
102
{ACAD_REACTORS
330
84D
102
}
330
84D
100
AcDbDictionary
281
     1
  3
A0
350
13C9
  3
A1
350
13CA
  3
A2
350
13CB
  3
A3
350
13CC
  3
A4
350
13CD
  3
A5
350
13CE
  3
A6
350
13CF
  3
A7
350
13D0
  3
A8
350
13D1
  3
A9
350
13D2
  3
B0
350
13D3
  3
B1
350
13D4
  3
B2
350
13D5
  3
B3
350
13D6
  3
B4
350
13D7
  3
B5
350
13D8
  3
B6
350
13D9
  3
B7
350
13DA
  3
B8
350
13DB
  3
B9
350
13DC
  3
C0
350
13DD
  3
C1
350
13DE
  3
C2
350
13DF
  3
C3
350
13E0
  3
C4
350
13E1
  3
C5
350
13E2
  3
C6
350
13E3
  3
C7
350
13E4
  3
C8
350
13E5
  3
C9
350
13E6
  3
D0
350
13E7
  3
D1
350
13E8
  3
D2
350
13E9
  0
DICTIONARY
  5
116E
102
{ACAD_REACTORS
330
84D
102
}
330
84D
100
AcDbDictionary
281
     1
  3
Standard
350
116F
  0
DICTIONARY
  5
13B7
102
{ACAD_REACTORS
330
84D
102
}
330
84D
100
AcDbDictionary
281
     1
  3
2dWireframe
350
13BD
  3
3D Hidden
350
13BF
  3
3dWireframe
350
13BE
  3
Basic
350
13BC
  3
Brighten
350
13C3
  3
ColorChange
350
13C7
  3
Conceptual
350
13C0
  3
Dim
350
13C2
  3
Facepattern
350
13C6
  3
Flat
350
13B8
  3
FlatWithEdges
350
13B9
  3
Gouraud
350
13BA
  3
GouraudWithEdges
350
13BB
  3
Linepattern
350
13C5
  3
Realistic
350
13C1
  3
Thicken
350
13C4
  0
XRECORD
  5
1003
102
{ACAD_REACTORS
330
84D
102
}
330
84D
100
AcDbXrecord
280
     1
 90
   990106
  3

 60
     0
 61
     0
 62
     1
 63
     3
 64
     0
 65
     0
 66
     0
 67
     3
 68
     1
 69
     0
 70
     0
 71
     0
 72
     0
 40
0.0
170
     0
340
1002
  0
XRECORD
  5
144A
102
{ACAD_REACTORS
330
84D
102
}
330
84D
100
AcDbXrecord
280
     1
 90
        1
330
116F
  0
DICTIONARY
  5
B87
102
{ACAD_REACTORS
330
84D
102
}
330
84D
100
AcDbDictionary
281
     1
  3
CANNOSCALE
350
1446
  3
CMLEADERSTYLE
350
1445
  3
CTABLESTYLE
350
129F
  3
DIMASSOC
350
B88
  3
INDEXCTL
350
12A0
  3
PROJECTNAME
350
12A1
  3
SORTENTS
350
1447
  0
DICTIONARY
  5
1234
102
{ACAD_REACTORS
330
84D
102
}
330
84D
100
AcDbDictionary
281
     1
  3
AcmStdDictionary
350
1240
  3
AMDTSECTSYM_ARROWCOLOR
350
1260
  0
DICTIONARY
  5
1173
102
{ACAD_REACTORS
330
84D
102
}
330
84D
100
AcDbDictionary
281
     1
  3
AcMgSettings
350
1174
  0
DICTIONARY
  5
128A
102
{ACAD_REACTORS
330
84D
102
}
330
84D
100
AcDbDictionary
281
     1
  3
DIMENSION
350
128F
  3
FEA
350
128E
  3
HATCH (1)
350
128B
  3
HATCH (2)
350
128C
  3
SIMPLE WELD
350
1290
  3
SYMBOLS
350
128D
  0
DICTIONARY
  5
15AC
102
{ACAD_REACTORS
330
15AB
102
}
330
15AB
100
AcDbDictionary
281
     1
  0
XRECORD
  5
1430
102
{ACAD_REACTORS
330
142F
102
}
330
142F
100
AcDbXrecord
280
     1
290
     1
  0
XRECORD
  5
1432
102
{ACAD_REACTORS
330
1431
102
}
330
1431
100
AcDbXrecord
280
     1
290
     1
  0
XRECORD
  5
1434
102
{ACAD_REACTORS
330
1433
102
}
330
1433
100
AcDbXrecord
280
     1
290
     1
  0
XRECORD
  5
1436
102
{ACAD_REACTORS
330
1435
102
}
330
1435
100
AcDbXrecord
280
     1
290
     1
  0
XRECORD
  5
1438
102
{ACAD_REACTORS
330
1437
102
}
330
1437
100
AcDbXrecord
280
     1
290
     1
  0
XRECORD
  5
143A
102
{ACAD_REACTORS
330
1439
102
}
330
1439
100
AcDbXrecord
280
     1
290
     1
  0
XRECORD
  5
143C
102
{ACAD_REACTORS
330
143B
102
}
330
143B
100
AcDbXrecord
280
     1
290
     1
  0
XRECORD
  5
143E
102
{ACAD_REACTORS
330
143D
102
}
330
143D
100
AcDbXrecord
280
     1
290
     1
  0
XRECORD
  5
1440
102
{ACAD_REACTORS
330
143F
102
}
330
143F
100
AcDbXrecord
280
     1
290
     1
  0
XRECORD
  5
1442
102
{ACAD_REACTORS
330
1441
102
}
330
1441
100
AcDbXrecord
280
     1
290
     1
  0
XRECORD
  5
1444
102
{ACAD_REACTORS
330
1443
102
}
330
1443
100
AcDbXrecord
280
     1
290
     1
  0
DICTIONARY
  5
1291
102
{ACAD_REACTORS
330
B4F
102
}
330
B4F
100
AcDbDictionary
281
     1
  3
*A1
350
1292
  0
XRECORD
  5
B50
102
{ACAD_REACTORS
330
B4F
102
}
330
B4F
100
AcDbXrecord
280
     1
340
85F
  0
SORTENTSTABLE
  5
1399
102
{ACAD_REACTORS
330
B4F
102
}
330
B4F
100
AcDbSortentsTable
330
85F
331
2237
  5
2237
331
21BD
  5
21BD
331
2233
  5
2233
331
21B9
  5
21B9
331
21F4
  5
21F4
331
226E
  5
226E
331
222F
  5
222F
331
21B5
  5
21B5
331
21F0
  5
21F0
331
226A
  5
226A
331
222B
  5
222B
331
21B1
  5
21B1
331
20CF
  5
1AA1
331
20CB
  5
1A9D
331
2145
  5
1B17
331
22AC
  5
22AC
331
2106
  5
1AD8
331
2141
  5
1B13
331
22A8
  5
22A8
331
20C7
  5
1A99
331
2102
  5
1AD4
331
217C
  5
1B53
331
213D
  5
1B0F
331
22A4
  5
22A4
331
20C3
  5
1A95
331
2178
  5
1B4F
331
2139
  5
1B0B
331
22A0
  5
22A0
331
21AD
  5
1B88
331
21EC
  5
21EC
331
2227
  5
2227
331
2266
  5
2266
331
21A9
  5
1B84
331
21E8
  5
21E8
331
2223
  5
2223
331
2262
  5
2262
331
21A5
  5
1B80
331
21E4
  5
21E4
331
221F
  5
221F
331
225E
  5
225E
331
21A1
  5
1B7C
331
21E0
  5
21E0
331
221B
  5
221B
331
225A
  5
225A
331
20FE
  5
1AD0
331
20BF
  5
958
331
20FA
  5
1ACC
331
2174
  5
1B4B
331
2135
  5
1B07
331
229C
  5
229C
331
20BB
  5
954
331
20F6
  5
1AC8
331
2131
  5
1B03
331
2298
  5
2298
331
2170
  5
1B47
331
20F2
  5
1AC4
331
212D
  5
1AFF
331
2294
  5
2294
331
216C
  5
1B40
331
2168
  5
1B3C
331
2129
  5
1AFB
331
2290
  5
2290
331
219D
  5
1B78
331
21DC
  5
21DC
331
2217
  5
2217
331
2256
  5
2256
331
2199
  5
1B74
331
21D8
  5
21D8
331
2213
  5
2213
331
2252
  5
2252
331
2195
  5
1B70
331
21D4
  5
21D4
331
220F
  5
220F
331
224E
  5
224E
331
2191
  5
1B6C
331
21D0
  5
21D0
331
220B
  5
220B
331
224A
  5
224A
331
20EE
  5
1AC0
331
20EA
  5
1ABC
331
2125
  5
1AF7
331
228C
  5
228C
331
2164
  5
1B38
331
20E6
  5
1AB8
331
2121
  5
1AF3
331
2288
  5
2288
331
2160
  5
1B32
331
20E2
  5
1AB4
331
215C
  5
1B2E
331
211D
  5
1AEF
331
2284
  5
2284
331
22C3
  5
22C3
331
2158
  5
1B2A
331
2119
  5
1AEB
331
2280
  5
2280
331
218D
  5
1B68
331
21CC
  5
21CC
331
2207
  5
2207
331
2246
  5
2246
331
2189
  5
1B64
331
21C8
  5
21C8
331
2203
  5
2203
331
2242
  5
2242
331
2185
  5
1B5F
331
21C4
  5
21C4
331
21FF
  5
21FF
331
223E
  5
223E
331
2181
  5
1B59
331
21C0
  5
21C0
331
21FB
  5
21FB
331
223A
  5
223A
331
22BF
  5
22BF
331
20DE
  5
1AB0
331
20DA
  5
1AAC
331
2154
  5
1B26
331
2115
  5
1AE7
331
227C
  5
227C
331
22BB
  5
22BB
331
2150
  5
1B22
331
2111
  5
1AE3
331
2278
  5
2278
331
22B7
  5
22B7
331
20D6
  5
1AA8
331
20D2
  5
1AA4
331
214C
  5
1B1E
331
210D
  5
1ADF
331
2274
  5
2274
331
22B3
  5
22B3
331
2148
  5
1B1A
331
2109
  5
1ADB
331
2270
  5
2270
331
956
  5
1B8F
331
2236
  5
2236
331
21BC
  5
21BC
331
21F7
  5
21F7
331
2232
  5
2232
331
21B8
  5
21B8
331
21F3
  5
21F3
331
226D
  5
226D
331
222E
  5
222E
331
21B4
  5
21B4
331
21B0
  5
1B8B
331
2269
  5
2269
331
222A
  5
222A
331
20CE
  5
1AA0
331
22AF
  5
22AF
331
20CA
  5
1A9C
331
2144
  5
1B16
331
22AB
  5
22AB
331
2105
  5
1AD7
331
217F
  5
1B56
331
2140
  5
1B12
331
22A7
  5
22A7
331
20C6
  5
1A98
331
2101
  5
1AD3
331
217B
  5
1B52
331
213C
  5
1B0E
331
22A3
  5
22A3
331
20C2
  5
1A94
331
2138
  5
1B0A
331
21EF
  5
21EF
331
21AC
  5
1B87
331
21EB
  5
21EB
331
2226
  5
2226
331
2265
  5
2265
331
21A8
  5
1B83
331
21E7
  5
21E7
331
2222
  5
2222
331
2261
  5
2261
331
21A4
  5
1B7F
331
21E3
  5
21E3
331
221E
  5
221E
331
225D
  5
225D
331
21A0
  5
1B7B
331
2259
  5
2259
331
221A
  5
221A
331
20FD
  5
1ACF
331
2177
  5
1B4E
331
229F
  5
229F
331
20BE
  5
957
331
20F9
  5
1ACB
331
2173
  5
1B4A
331
2134
  5
1B06
331
229B
  5
229B
331
20BA
  5
953
331
20F5
  5
1AC7
331
2130
  5
1B02
331
2297
  5
2297
331
216F
  5
1B46
331
20F1
  5
1AC3
331
212C
  5
1AFE
331
2293
  5
2293
331
216B
  5
1B3F
331
2128
  5
1AFA
331
21DF
  5
21DF
331
219C
  5
1B77
331
21DB
  5
21DB
331
2216
  5
2216
331
2255
  5
2255
331
2198
  5
1B73
331
21D7
  5
21D7
331
2212
  5
2212
331
2251
  5
2251
331
2194
  5
1B6F
331
21D3
  5
21D3
331
220E
  5
220E
331
224D
  5
224D
331
2190
  5
1B6B
331
2249
  5
2249
331
220A
  5
220A
331
20ED
  5
1ABF
331
228F
  5
228F
331
2167
  5
1B3B
331
20E9
  5
1ABB
331
2124
  5
1AF6
331
228B
  5
228B
331
2163
  5
1B37
331
20E5
  5
1AB7
331
2120
  5
1AF2
331
2287
  5
2287
331
215F
  5
1B31
331
20E1
  5
1AB3
331
215B
  5
1B2D
331
211C
  5
1AEE
331
2283
  5
2283
331
22C2
  5
22C2
331
2118
  5
1AEA
331
21CF
  5
21CF
331
218C
  5
1B67
331
21CB
  5
21CB
331
2206
  5
2206
331
2245
  5
2245
331
2188
  5
1B63
331
21C7
  5
21C7
331
2202
  5
2202
331
2241
  5
2241
331
2184
  5
1B5E
331
21C3
  5
21C3
331
21FE
  5
21FE
331
223D
  5
223D
331
2180
  5
1B57
331
2239
  5
2239
331
21FA
  5
21FA
331
2157
  5
1B29
331
227F
  5
227F
331
22BE
  5
22BE
331
20DD
  5
1AAF
331
20D9
  5
1AAB
331
2153
  5
1B25
331
2114
  5
1AE6
331
227B
  5
227B
331
22BA
  5
22BA
331
214F
  5
1B21
331
2110
  5
1AE2
331
2277
  5
2277
331
22B6
  5
22B6
331
20D5
  5
1AA7
331
20D1
  5
1AA3
331
214B
  5
1B1D
331
210C
  5
1ADE
331
2273
  5
2273
331
22B2
  5
22B2
331
2108
  5
1ADA
331
955
  5
1B8E
331
21BF
  5
21BF
331
2235
  5
2235
331
21BB
  5
21BB
331
21F6
  5
21F6
331
2231
  5
2231
331
21B7
  5
21B7
331
21F2
  5
21F2
331
226C
  5
226C
331
222D
  5
222D
331
21B3
  5
21B3
331
2268
  5
2268
331
2229
  5
2229
331
20CD
  5
1A9F
331
2147
  5
1B19
331
22AE
  5
22AE
331
2143
  5
1B15
331
22AA
  5
22AA
331
20C9
  5
1A9B
331
2104
  5
1AD6
331
217E
  5
1B55
331
213F
  5
1B11
331
22A6
  5
22A6
331
20C5
  5
1A97
331
2100
  5
1AD2
331
217A
  5
1B51
331
213B
  5
1B0D
331
22A2
  5
22A2
331
20C1
  5
1A93
331
21AF
  5
1B8A
331
21EE
  5
21EE
331
21AB
  5
1B86
331
21EA
  5
21EA
331
2225
  5
2225
331
2264
  5
2264
331
21A7
  5
1B82
331
21E6
  5
21E6
331
2221
  5
2221
331
2260
  5
2260
331
21A3
  5
1B7E
331
21E2
  5
21E2
331
221D
  5
221D
331
225C
  5
225C
331
2258
  5
2258
331
2219
  5
2219
331
20FC
  5
1ACE
331
2176
  5
1B4D
331
2137
  5
1B09
331
229E
  5
229E
331
20BD
  5
956
331
20F8
  5
1ACA
331
2133
  5
1B05
331
229A
  5
229A
331
2172
  5
1B49
331
20F4
  5
1AC6
331
212F
  5
1B01
331
2296
  5
2296
331
216E
  5
1B42
331
20F0
  5
1AC2
331
212B
  5
1AFD
331
2292
  5
2292
331
216A
  5
1B3E
331
219F
  5
1B7A
331
21DE
  5
21DE
331
219B
  5
1B76
331
21DA
  5
21DA
331
2215
  5
2215
331
2254
  5
2254
331
2197
  5
1B72
331
21D6
  5
21D6
331
2211
  5
2211
331
2250
  5
2250
331
2193
  5
1B6E
331
21D2
  5
21D2
331
220D
  5
220D
331
224C
  5
224C
331
2248
  5
2248
331
2209
  5
2209
331
20EC
  5
1ABE
331
2127
  5
1AF9
331
228E
  5
228E
331
2166
  5
1B3A
331
20E8
  5
1ABA
331
2123
  5
1AF5
331
228A
  5
228A
331
2162
  5
1B34
331
20E4
  5
1AB6
331
211F
  5
1AF1
331
2286
  5
2286
331
215E
  5
1B30
331
20E0
  5
1AB2
331
215A
  5
1B2C
331
211B
  5
1AED
331
2282
  5
2282
331
22C1
  5
22C1
331
218F
  5
1B6A
331
21CE
  5
21CE
331
218B
  5
1B66
331
21CA
  5
21CA
331
2205
  5
2205
331
2244
  5
2244
331
2187
  5
1B62
331
21C6
  5
21C6
331
2201
  5
2201
331
2240
  5
2240
331
2183
  5
1B5D
331
21C2
  5
21C2
331
21FD
  5
21FD
331
223C
  5
223C
331
2238
  5
2238
331
21F9
  5
21F9
331
2156
  5
1B28
331
2117
  5
1AE9
331
227E
  5
227E
331
22BD
  5
22BD
331
20DC
  5
1AAE
331
20D8
  5
1AAA
331
2152
  5
1B24
331
2113
  5
1AE5
331
227A
  5
227A
331
22B9
  5
22B9
331
20D4
  5
1AA6
331
214E
  5
1B20
331
210F
  5
1AE1
331
2276
  5
2276
331
22B5
  5
22B5
331
20D0
  5
1AA2
331
214A
  5
1B1C
331
210B
  5
1ADD
331
2272
  5
2272
331
22B1
  5
22B1
331
958
  5
1B91
331
954
  5
1B8D
331
21BE
  5
21BE
331
2234
  5
2234
331
21BA
  5
21BA
331
21F5
  5
21F5
331
226F
  5
226F
331
2230
  5
2230
331
21B6
  5
21B6
331
21F1
  5
21F1
331
226B
  5
226B
331
222C
  5
222C
331
21B2
  5
21B2
331
2228
  5
2228
331
20CC
  5
1A9E
331
2146
  5
1B18
331
22AD
  5
22AD
331
2107
  5
1AD9
331
2142
  5
1B14
331
22A9
  5
22A9
331
20C8
  5
1A9A
331
2103
  5
1AD5
331
217D
  5
1B54
331
213E
  5
1B10
331
22A5
  5
22A5
331
20C4
  5
1A96
331
2179
  5
1B50
331
20C0
  5
1A92
331
213A
  5
1B0C
331
22A1
  5
22A1
331
21AE
  5
1B89
331
21ED
  5
21ED
331
2267
  5
2267
331
21AA
  5
1B85
331
21E9
  5
21E9
331
2224
  5
2224
331
2263
  5
2263
331
21A6
  5
1B81
331
21E5
  5
21E5
331
2220
  5
2220
331
225F
  5
225F
331
21A2
  5
1B7D
331
21E1
  5
21E1
331
221C
  5
221C
331
225B
  5
225B
331
2218
  5
2218
331
20FF
  5
1AD1
331
20FB
  5
1ACD
331
2175
  5
1B4C
331
2136
  5
1B08
331
229D
  5
229D
331
20BC
  5
955
331
20F7
  5
1AC9
331
2132
  5
1B04
331
2299
  5
2299
331
2171
  5
1B48
331
20F3
  5
1AC5
331
212E
  5
1B00
331
2295
  5
2295
331
216D
  5
1B41
331
2169
  5
1B3D
331
212A
  5
1AFC
331
2291
  5
2291
331
219E
  5
1B79
331
21DD
  5
21DD
331
2257
  5
2257
331
219A
  5
1B75
331
21D9
  5
21D9
331
2214
  5
2214
331
2253
  5
2253
331
2196
  5
1B71
331
21D5
  5
21D5
331
2210
  5
2210
331
224F
  5
224F
331
2192
  5
1B6D
331
21D1
  5
21D1
331
220C
  5
220C
331
224B
  5
224B
331
2208
  5
2208
331
20EF
  5
1AC1
331
20EB
  5
1ABD
331
2126
  5
1AF8
331
228D
  5
228D
331
2165
  5
1B39
331
20E7
  5
1AB9
331
2122
  5
1AF4
331
2289
  5
2289
331
2161
  5
1B33
331
20E3
  5
1AB5
331
215D
  5
1B2F
331
211E
  5
1AF0
331
2285
  5
2285
331
22C4
  5
22C4
331
2159
  5
1B2B
331
22C0
  5
22C0
331
211A
  5
1AEC
331
2281
  5
2281
331
218E
  5
1B69
331
21CD
  5
21CD
331
2247
  5
2247
331
218A
  5
1B65
331
21C9
  5
21C9
331
2204
  5
2204
331
2243
  5
2243
331
2186
  5
1B60
331
21C5
  5
21C5
331
2200
  5
2200
331
223F
  5
223F
331
2182
  5
1B5C
331
21C1
  5
21C1
331
21FC
  5
21FC
331
223B
  5
223B
331
21F8
  5
21F8
331
20DF
  5
1AB1
331
20DB
  5
1AAD
331
2155
  5
1B27
331
2116
  5
1AE8
331
227D
  5
227D
331
22BC
  5
22BC
331
20D7
  5
1AA9
331
2151
  5
1B23
331
2112
  5
1AE4
331
2279
  5
2279
331
22B8
  5
22B8
331
20D3
  5
1AA5
331
214D
  5
1B1F
331
210E
  5
1AE0
331
2275
  5
2275
331
22B4
  5
22B4
331
2149
  5
1B1B
331
22B0
  5
22B0
331
210A
  5
1ADC
331
2271
  5
2271
331
957
  5
1B90
331
953
  5
1B8C
  0
XRECORD
  5
B4E
102
{ACAD_REACTORS
330
B4D
102
}
330
B4D
100
AcDbXrecord
280
     1
340
85B
  0
XRECORD
  5
230F
102
{ACAD_REACTORS
330
230E
102
}
330
230E
100
AcDbXrecord
280
     1
 70
     1
  0
XRECORD
  5
2311
102
{ACAD_REACTORS
330
230E
102
}
330
230E
100
AcDbXrecord
280
     1
340
854
  0
XRECORD
  5
2312
102
{ACAD_REACTORS
330
230E
102
}
330
230E
100
AcDbXrecord
280
     1
340
854
  0
XRECORD
  5
2310
102
{ACAD_REACTORS
330
230E
102
}
330
230E
100
AcDbXrecord
280
     1
340
854
  0
LAYOUT
  5
B84
102
{ACAD_REACTORS
330
85A
102
}
330
85A
100
AcDbPlotSettings
  1

  2
\\Server02\EPSON LP-9600SPD (3F)
  4

  6

 40
0.0
 41
0.0
 42
0.0
 43
0.0
 44
0.0
 45
0.0
 46
0.0
 47
0.0
 48
0.0
 49
0.0
140
0.0
141
0.0
142
1.0
143
1.0
 70
  1712
 72
     0
 73
     0
 74
     0
  7

 75
     0
147
1.0
 76
     0
 77
     2
 78
   300
148
0.0
149
0.0
100
AcDbLayout
  1
Model
 70
     1
 71
     0
 10
0.0
 20
0.0
 11
12.0
 21
9.0
 12
0.0
 22
0.0
 32
0.0
 14
0.0
 24
0.0
 34
0.0
 15
0.0
 25
0.0
 35
0.0
146
0.0
 13
0.0
 23
0.0
 33
0.0
 16
1.0
 26
0.0
 36
0.0
 17
0.0
 27
1.0
 37
0.0
 76
     0
330
85F
331
139A
  0
LAYOUT
  5
B85
102
{ACAD_REACTORS
330
85A
102
}
330
85A
100
AcDbPlotSettings
  1

  2
\\Server02\EPSON LP-9600SPD (3F)
  4

  6

 40
0.0
 41
0.0
 42
0.0
 43
0.0
 44
0.0
 45
0.0
 46
0.0
 47
0.0
 48
0.0
 49
0.0
140
0.0
141
0.0
142
1.0
143
1.0
 70
   688
 72
     0
 73
     0
 74
     5
  7

 75
    16
147
1.0
 76
     0
 77
     2
 78
   300
148
0.0
149
0.0
100
AcDbLayout
  1
ﾚｲｱｳﾄ1
 70
     1
 71
     1
 10
0.0
 20
0.0
 11
12.0
 21
9.0
 12
0.0
 22
0.0
 32
0.0
 14
1.000000000000000E+20
 24
1.000000000000000E+20
 34
1.000000000000000E+20
 15
-1.000000000000000E+20
 25
-1.000000000000000E+20
 35
-1.000000000000000E+20
146
0.0
 13
0.0
 23
0.0
 33
0.0
 16
1.0
 26
0.0
 36
0.0
 17
0.0
 27
1.0
 37
0.0
 76
     0
330
85B
  0
MATERIAL
  5
13A7
102
{ACAD_XDICTIONARY
360
13A8
102
}
102
{ACAD_REACTORS
330
116C
102
}
330
116C
100
AcDbMaterial
  1
ByBlock
 72
     0
 43
0.0208333333333333
 43
0.0
 43
0.0
 43
0.0
 43
0.0
 43
0.0208333333333333
 43
0.0
 43
0.0
 43
0.0
 43
0.0
 43
1.0
 43
0.0
 43
0.0
 43
0.0
 43
0.0
 43
1.0
 77
     0
 47
0.0208333333333333
 47
0.0
 47
0.0
 47
0.0
 47
0.0
 47
0.0208333333333333
 47
0.0
 47
0.0
 47
0.0
 47
0.0
 47
1.0
 47
0.0
 47
0.0
 47
0.0
 47
0.0
 47
1.0
171
     0
 49
0.0208333333333333
 49
0.0
 49
0.0
 49
0.0
 49
0.0
 49
0.0208333333333333
 49
0.0
 49
0.0
 49
0.0
 49
0.0
 49
1.0
 49
0.0
 49
0.0
 49
0.0
 49
0.0
 49
1.0
175
     0
142
0.0208333333333333
142
0.0
142
0.0
142
0.0
142
0.0
142
0.0208333333333333
142
0.0
142
0.0
142
0.0
142
0.0
142
1.0
142
0.0
142
0.0
142
0.0
142
0.0
142
1.0
179
     0
144
0.0208333333333333
144
0.0
144
0.0
144
0.0
144
0.0
144
0.0208333333333333
144
0.0
144
0.0
144
0.0
144
0.0
144
1.0
144
0.0
144
0.0
144
0.0
144
0.0
144
1.0
147
0.0208333333333333
147
0.0
147
0.0
147
0.0
147
0.0
147
0.0208333333333333
147
0.0
147
0.0
147
0.0
147
0.0
147
1.0
147
0.0
147
0.0
147
0.0
147
0.0
147
1.0
  0
MATERIAL
  5
139F
102
{ACAD_XDICTIONARY
360
13A0
102
}
102
{ACAD_REACTORS
330
116C
102
}
330
116C
100
AcDbMaterial
  1
ByLayer
 72
     0
 43
0.0208333333333333
 43
0.0
 43
0.0
 43
0.0
 43
0.0
 43
0.0208333333333333
 43
0.0
 43
0.0
 43
0.0
 43
0.0
 43
1.0
 43
0.0
 43
0.0
 43
0.0
 43
0.0
 43
1.0
 77
     0
 47
0.0208333333333333
 47
0.0
 47
0.0
 47
0.0
 47
0.0
 47
0.0208333333333333
 47
0.0
 47
0.0
 47
0.0
 47
0.0
 47
1.0
 47
0.0
 47
0.0
 47
0.0
 47
0.0
 47
1.0
171
     0
 49
0.0208333333333333
 49
0.0
 49
0.0
 49
0.0
 49
0.0
 49
0.0208333333333333
 49
0.0
 49
0.0
 49
0.0
 49
0.0
 49
1.0
 49
0.0
 49
0.0
 49
0.0
 49
0.0
 49
1.0
175
     0
142
0.0208333333333333
142
0.0
142
0.0
142
0.0
142
0.0
142
0.0208333333333333
142
0.0
142
0.0
142
0.0
142
0.0
142
1.0
142
0.0
142
0.0
142
0.0
142
0.0
142
1.0
179
     0
144
0.0208333333333333
144
0.0
144
0.0
144
0.0
144
0.0
144
0.0208333333333333
144
0.0
144
0.0
144
0.0
144
0.0
144
1.0
144
0.0
144
0.0
144
0.0
144
0.0
144
1.0
147
0.0208333333333333
147
0.0
147
0.0
147
0.0
147
0.0
147
0.0208333333333333
147
0.0
147
0.0
147
0.0
147
0.0
147
1.0
147
0.0
147
0.0
147
0.0
147
0.0
147
1.0
  0
MATERIAL
  5
13AF
102
{ACAD_XDICTIONARY
360
13B0
102
}
102
{ACAD_REACTORS
330
116C
102
}
330
116C
100
AcDbMaterial
  1
Global
 72
     0
 43
0.0208333333333333
 43
0.0
 43
0.0
 43
0.0
 43
0.0
 43
0.0208333333333333
 43
0.0
 43
0.0
 43
0.0
 43
0.0
 43
1.0
 43
0.0
 43
0.0
 43
0.0
 43
0.0
 43
1.0
 77
     0
 47
0.0208333333333333
 47
0.0
 47
0.0
 47
0.0
 47
0.0
 47
0.0208333333333333
 47
0.0
 47
0.0
 47
0.0
 47
0.0
 47
1.0
 47
0.0
 47
0.0
 47
0.0
 47
0.0
 47
1.0
171
     0
 49
0.0208333333333333
 49
0.0
 49
0.0
 49
0.0
 49
0.0
 49
0.0208333333333333
 49
0.0
 49
0.0
 49
0.0
 49
0.0
 49
1.0
 49
0.0
 49
0.0
 49
0.0
 49
0.0
 49
1.0
175
     0
142
0.0208333333333333
142
0.0
142
0.0
142
0.0
142
0.0
142
0.0208333333333333
142
0.0
142
0.0
142
0.0
142
0.0
142
1.0
142
0.0
142
0.0
142
0.0
142
0.0
142
1.0
179
     0
144
0.0208333333333333
144
0.0
144
0.0
144
0.0
144
0.0
144
0.0208333333333333
144
0.0
144
0.0
144
0.0
144
0.0
144
1.0
144
0.0
144
0.0
144
0.0
144
0.0
144
1.0
147
0.0208333333333333
147
0.0
147
0.0
147
0.0
147
0.0
147
0.0208333333333333
147
0.0
147
0.0
147
0.0
147
0.0
147
1.0
147
0.0
147
0.0
147
0.0
147
0.0
147
1.0
  0
MLEADERSTYLE
  5
13EB
102
{ACAD_REACTORS
330
13EA
102
}
330
13EA
100
AcDbMLeaderStyle
170
     2
171
     1
172
     0
 90
        2
 40
0.0
 41
0.0
173
     1
 91
-1056964608
340
854
 92
       -2
290
     1
 42
0.09
291
     1
 43
0.36
  3
Standard
 44
0.18
300

342
852
174
     1
178
     6
175
     1
176
     0
 93
-1056964608
 45
0.18
292
     0
297
     0
 46
0.18
 94
-1056964608
 47
1.0
 49
1.0
140
1.0
293
     1
141
0.0
294
     1
177
     0
142
1.0
295
     0
296
     0
143
0.125
1001
ACAD_MLEADERVER
1070
     2
  0
MLINESTYLE
  5
858
102
{ACAD_REACTORS
330
857
102
}
330
857
100
AcDbMlineStyle
  2
STANDARD
 70
     0
  3

 62
   256
 51
90.0
 52
90.0
 71
     2
 49
0.5
 62
   256
  6
BYLAYER
 49
-0.5
 62
   256
  6
BYLAYER
  0
ACDBPLACEHOLDER
  5
B83
102
{ACAD_REACTORS
330
B82
102
}
330
B82
  0
SCALE
  5
13C9
102
{ACAD_REACTORS
330
13C8
102
}
330
13C8
100
AcDbScale
 70
     0
300
1:1
140
1.0
141
1.0
290
     1
  0
SCALE
  5
13CA
102
{ACAD_REACTORS
330
13C8
102
}
330
13C8
100
AcDbScale
 70
     0
300
1:2
140
1.0
141
2.0
290
     0
  0
SCALE
  5
13CB
102
{ACAD_REACTORS
330
13C8
102
}
330
13C8
100
AcDbScale
 70
     0
300
1:4
140
1.0
141
4.0
290
     0
  0
SCALE
  5
13CC
102
{ACAD_REACTORS
330
13C8
102
}
330
13C8
100
AcDbScale
 70
     0
300
1:5
140
1.0
141
5.0
290
     0
  0
SCALE
  5
13CD
102
{ACAD_REACTORS
330
13C8
102
}
330
13C8
100
AcDbScale
 70
     0
300
1:8
140
1.0
141
8.0
290
     0
  0
SCALE
  5
13CE
102
{ACAD_REACTORS
330
13C8
102
}
330
13C8
100
AcDbScale
 70
     0
300
1:10
140
1.0
141
10.0
290
     0
  0
SCALE
  5
13CF
102
{ACAD_REACTORS
330
13C8
102
}
330
13C8
100
AcDbScale
 70
     0
300
1:16
140
1.0
141
16.0
290
     0
  0
SCALE
  5
13D0
102
{ACAD_REACTORS
330
13C8
102
}
330
13C8
100
AcDbScale
 70
     0
300
1:20
140
1.0
141
20.0
290
     0
  0
SCALE
  5
13D1
102
{ACAD_REACTORS
330
13C8
102
}
330
13C8
100
AcDbScale
 70
     0
300
1:30
140
1.0
141
30.0
290
     0
  0
SCALE
  5
13D2
102
{ACAD_REACTORS
330
13C8
102
}
330
13C8
100
AcDbScale
 70
     0
300
1:40
140
1.0
141
40.0
290
     0
  0
SCALE
  5
13D3
102
{ACAD_REACTORS
330
13C8
102
}
330
13C8
100
AcDbScale
 70
     0
300
1:50
140
1.0
141
50.0
290
     0
  0
SCALE
  5
13D4
102
{ACAD_REACTORS
330
13C8
102
}
330
13C8
100
AcDbScale
 70
     0
300
1:100
140
1.0
141
100.0
290
     0
  0
SCALE
  5
13D5
102
{ACAD_REACTORS
330
13C8
102
}
330
13C8
100
AcDbScale
 70
     0
300
2:1
140
2.0
141
1.0
290
     0
  0
SCALE
  5
13D6
102
{ACAD_REACTORS
330
13C8
102
}
330
13C8
100
AcDbScale
 70
     0
300
4:1
140
4.0
141
1.0
290
     0
  0
SCALE
  5
13D7
102
{ACAD_REACTORS
330
13C8
102
}
330
13C8
100
AcDbScale
 70
     0
300
8:1
140
8.0
141
1.0
290
     0
  0
SCALE
  5
13D8
102
{ACAD_REACTORS
330
13C8
102
}
330
13C8
100
AcDbScale
 70
     0
300
10:1
140
10.0
141
1.0
290
     0
  0
SCALE
  5
13D9
102
{ACAD_REACTORS
330
13C8
102
}
330
13C8
100
AcDbScale
 70
     0
300
100:1
140
100.0
141
1.0
290
     0
  0
SCALE
  5
13DA
102
{ACAD_REACTORS
330
13C8
102
}
330
13C8
100
AcDbScale
 70
     0
300
1/128" = 1'-0"
140
0.0078125
141
12.0
290
     0
  0
SCALE
  5
13DB
102
{ACAD_REACTORS
330
13C8
102
}
330
13C8
100
AcDbScale
 70
     0
300
1/64" = 1'-0"
140
0.015625
141
12.0
290
     0
  0
SCALE
  5
13DC
102
{ACAD_REACTORS
330
13C8
102
}
330
13C8
100
AcDbScale
 70
     0
300
1/32" = 1'-0"
140
0.03125
141
12.0
290
     0
  0
SCALE
  5
13DD
102
{ACAD_REACTORS
330
13C8
102
}
330
13C8
100
AcDbScale
 70
     0
300
1/16" = 1'-0"
140
0.0625
141
12.0
290
     0
  0
SCALE
  5
13DE
102
{ACAD_REACTORS
330
13C8
102
}
330
13C8
100
AcDbScale
 70
     0
300
3/32" = 1'-0"
140
0.09375
141
12.0
290
     0
  0
SCALE
  5
13DF
102
{ACAD_REACTORS
330
13C8
102
}
330
13C8
100
AcDbScale
 70
     0
300
1/8" = 1'-0"
140
0.125
141
12.0
290
     0
  0
SCALE
  5
13E0
102
{ACAD_REACTORS
330
13C8
102
}
330
13C8
100
AcDbScale
 70
     0
300
3/16" = 1'-0"
140
0.1875
141
12.0
290
     0
  0
SCALE
  5
13E1
102
{ACAD_REACTORS
330
13C8
102
}
330
13C8
100
AcDbScale
 70
     0
300
1/4" = 1'-0"
140
0.25
141
12.0
290
     0
  0
SCALE
  5
13E2
102
{ACAD_REACTORS
330
13C8
102
}
330
13C8
100
AcDbScale
 70
     0
300
3/8" = 1'-0"
140
0.375
141
12.0
290
     0
  0
SCALE
  5
13E3
102
{ACAD_REACTORS
330
13C8
102
}
330
13C8
100
AcDbScale
 70
     0
300
1/2" = 1'-0"
140
0.5
141
12.0
290
     0
  0
SCALE
  5
13E4
102
{ACAD_REACTORS
330
13C8
102
}
330
13C8
100
AcDbScale
 70
     0
300
3/4" = 1'-0"
140
0.75
141
12.0
290
     0
  0
SCALE
  5
13E5
102
{ACAD_REACTORS
330
13C8
102
}
330
13C8
100
AcDbScale
 70
     0
300
1" = 1'-0"
140
1.0
141
12.0
290
     0
  0
SCALE
  5
13E6
102
{ACAD_REACTORS
330
13C8
102
}
330
13C8
100
AcDbScale
 70
     0
300
1-1/2" = 1'-0"
140
1.5
141
12.0
290
     0
  0
SCALE
  5
13E7
102
{ACAD_REACTORS
330
13C8
102
}
330
13C8
100
AcDbScale
 70
     0
300
3" = 1'-0"
140
3.0
141
12.0
290
     0
  0
SCALE
  5
13E8
102
{ACAD_REACTORS
330
13C8
102
}
330
13C8
100
AcDbScale
 70
     0
300
6" = 1'-0"
140
6.0
141
12.0
290
     0
  0
SCALE
  5
13E9
102
{ACAD_REACTORS
330
13C8
102
}
330
13C8
100
AcDbScale
 70
     0
300
1'-0" = 1'-0"
140
12.0
141
12.0
290
     0
  0
TABLESTYLE
  5
116F
102
{ACAD_XDICTIONARY
360
1448
102
}
102
{ACAD_REACTORS
330
116E
102
}
330
116E
100
AcDbTableStyle
  3
Standard
 70
     0
 71
     0
 40
0.06
 41
0.06
280
     0
281
     0
  7
STANDARD
140
0.18
170
     2
 62
     0
 63
     7
283
     0
274
    -2
284
     1
 64
     0
275
    -2
285
     1
 65
     0
276
    -2
286
     1
 66
     0
277
    -2
287
     1
 67
     0
278
    -2
288
     1
 68
     0
279
    -2
289
     1
 69
     0
  7
STANDARD
140
0.25
170
     5
 62
     0
 63
     7
283
     0
274
    -2
284
     1
 64
     0
275
    -2
285
     1
 65
     0
276
    -2
286
     1
 66
     0
277
    -2
287
     1
 67
     0
278
    -2
288
     1
 68
     0
279
    -2
289
     1
 69
     0
  7
STANDARD
140
0.18
170
     5
 62
     0
 63
     7
283
     0
274
    -2
284
     1
 64
     0
275
    -2
285
     1
 65
     0
276
    -2
286
     1
 66
     0
277
    -2
287
     1
 67
     0
278
    -2
288
     1
 68
     0
279
    -2
289
     1
 69
     0
  0
VISUALSTYLE
  5
13BD
102
{ACAD_REACTORS
330
13B7
102
}
330
13B7
100
AcDbVisualStyle
  2
2dWireframe
 70
     4
 71
     0
 72
     2
 73
     0
 90
        0
 40
-0.6
 41
-30.0
 62
     5
 63
     7
 74
     1
 91
        4
 64
     7
 65
   257
 75
     1
175
     1
 42
1.0
 92
        0
 66
   257
 43
1.0
 76
     1
 77
     6
 78
     2
 67
     7
 79
     5
170
     0
171
     0
290
     0
174
     0
 93
        1
 44
0.0
173
     0
291
     0
 45
0.0
1001
ACAD
1000
AcDbSavedByObjectVersion
1070
     0
1000
AcDbSavedByObjectVersion
1070
     0
1000
AcDbSavedByObjectVersion
1070
     0
1000
AcDbSavedByObjectVersion
1070
     0
1000
AcDbSavedByObjectVersion
1070
     0
1000
AcDbSavedByObjectVersion
1070
     0
  0
VISUALSTYLE
  5
13BF
102
{ACAD_REACTORS
330
13B7
102
}
330
13B7
100
AcDbVisualStyle
  2
3D Hidden
 70
     6
 71
     1
 72
     2
 73
     2
 90
        0
 40
-0.6
 41
-30.0
 62
     5
 63
     7
 74
     2
 91
        2
 64
     7
 65
   257
 75
     2
175
     1
 42
40.0
 92
        0
 66
   257
 43
1.0
 76
     1
 77
     6
 78
     2
 67
     7
 79
     3
170
     0
171
     0
290
     0
174
     0
 93
        1
 44
0.0
173
     0
291
     0
 45
0.0
1001
ACAD
1000
AcDbSavedByObjectVersion
1070
     0
1000
AcDbSavedByObjectVersion
1070
     0
1000
AcDbSavedByObjectVersion
1070
     0
1000
AcDbSavedByObjectVersion
1070
     0
1000
AcDbSavedByObjectVersion
1070
     0
1000
AcDbSavedByObjectVersion
1070
     0
  0
VISUALSTYLE
  5
13BE
102
{ACAD_REACTORS
330
13B7
102
}
330
13B7
100
AcDbVisualStyle
  2
3dWireframe
 70
     5
 71
     0
 72
     2
 73
     0
 90
        0
 40
-0.6
 41
-30.0
 62
     5
 63
     7
 74
     1
 91
        4
 64
     7
 65
   257
 75
     1
175
     1
 42
1.0
 92
        0
 66
   257
 43
1.0
 76
     1
 77
     6
 78
     2
 67
     7
 79
     5
170
     0
171
     0
290
     0
174
     0
 93
        1
 44
0.0
173
     0
291
     0
 45
0.0
1001
ACAD
1000
AcDbSavedByObjectVersion
1070
     0
1000
AcDbSavedByObjectVersion
1070
     0
1000
AcDbSavedByObjectVersion
1070
     0
1000
AcDbSavedByObjectVersion
1070
     0
1000
AcDbSavedByObjectVersion
1070
     0
1000
AcDbSavedByObjectVersion
1070
     0
  0
VISUALSTYLE
  5
13BC
102
{ACAD_REACTORS
330
13B7
102
}
330
13B7
100
AcDbVisualStyle
  2
Basic
 70
     7
 71
     1
 72
     0
 73
     1
 90
        0
 40
-0.6
 41
-30.0
 62
     5
 63
     7
 74
     0
 91
        4
 64
     7
 65
   257
 75
     1
175
     1
 42
1.0
 92
        8
 66
     7
 43
1.0
 76
     1
 77
     6
 78
     2
 67
     7
 79
     5
170
     0
171
     0
290
     0
174
     0
 93
        1
 44
0.0
173
     0
291
     1
 45
0.0
1001
ACAD
1000
AcDbSavedByObjectVersion
1070
     0
1000
AcDbSavedByObjectVersion
1070
     0
1000
AcDbSavedByObjectVersion
1070
     0
1000
AcDbSavedByObjectVersion
1070
     0
1000
AcDbSavedByObjectVersion
1070
     0
1000
AcDbSavedByObjectVersion
1070
     0
  0
VISUALSTYLE
  5
13C3
102
{ACAD_REACTORS
330
13B7
102
}
330
13B7
100
AcDbVisualStyle
  2
Brighten
 70
    12
 71
     2
 72
     2
 73
     0
 90
        0
 40
-0.6
 41
-30.0
 62
     5
 63
     7
 74
     1
 91
        4
 64
     7
 65
   257
 75
     1
175
     1
 42
1.0
 92
        8
 66
     7
 43
1.0
 76
     1
 77
     6
 78
     2
 67
     7
 79
     5
170
     0
171
     0
290
     0
174
     0
 93
        1
 44
50.0
173
     0
291
     1
 45
0.0
1001
ACAD
1000
AcDbSavedByObjectVersion
1070
     0
1000
AcDbSavedByObjectVersion
1070
     0
1000
AcDbSavedByObjectVersion
1070
     0
1000
AcDbSavedByObjectVersion
1070
     0
1000
AcDbSavedByObjectVersion
1070
     0
1000
AcDbSavedByObjectVersion
1070
     0
  0
VISUALSTYLE
  5
13C7
102
{ACAD_REACTORS
330
13B7
102
}
330
13B7
100
AcDbVisualStyle
  2
ColorChange
 70
    16
 71
     2
 72
     2
 73
     3
 90
        0
 40
-0.6
 41
-30.0
 62
     5
 63
     8
 74
     1
 91
        4
 64
     7
 65
   257
 75
     1
175
     1
 42
1.0
 92
        8
 66
     8
 43
1.0
 76
     1
 77
     6
 78
     2
 67
     7
 79
     5
170
     0
171
     0
290
     0
174
     0
 93
        1
 44
0.0
173
     0
291
     1
 45
0.0
1001
ACAD
1000
AcDbSavedByObjectVersion
1070
     0
1000
AcDbSavedByObjectVersion
1070
     0
1000
AcDbSavedByObjectVersion
1070
     0
1000
AcDbSavedByObjectVersion
1070
     0
1000
AcDbSavedByObjectVersion
1070
     0
1000
AcDbSavedByObjectVersion
1070
     0
  0
VISUALSTYLE
  5
13C0
102
{ACAD_REACTORS
330
13B7
102
}
330
13B7
100
AcDbVisualStyle
  2
Conceptual
 70
     9
 71
     3
 72
     2
 73
     0
 90
        0
 40
-0.6
 41
-30.0
 62
     5
 63
     7
 74
     2
 91
        2
 64
     7
 65
   257
 75
     1
175
     1
 42
40.0
 92
        8
 66
     7
 43
1.0
 76
     1
 77
     6
 78
     2
 67
     7
 79
     3
170
     0
171
     0
290
     0
174
     0
 93
        1
 44
0.0
173
     0
291
     0
 45
0.0
1001
ACAD
1000
AcDbSavedByObjectVersion
1070
     0
1000
AcDbSavedByObjectVersion
1070
     0
1000
AcDbSavedByObjectVersion
1070
     0
1000
AcDbSavedByObjectVersion
1070
     0
1000
AcDbSavedByObjectVersion
1070
     0
1000
AcDbSavedByObjectVersion
1070
     0
  0
VISUALSTYLE
  5
13C2
102
{ACAD_REACTORS
330
13B7
102
}
330
13B7
100
AcDbVisualStyle
  2
Dim
 70
    11
 71
     2
 72
     2
 73
     0
 90
        0
 40
-0.6
 41
-30.0
 62
     5
 63
     7
 74
     1
 91
        4
 64
     7
 65
   257
 75
     1
175
     1
 42
1.0
 92
        8
 66
     7
 43
1.0
 76
     1
 77
     6
 78
     2
 67
     7
 79
     5
170
     0
171
     0
290
     0
174
     0
 93
        1
 44
-50.0
173
     0
291
     1
 45
0.0
1001
ACAD
1000
AcDbSavedByObjectVersion
1070
     0
1000
AcDbSavedByObjectVersion
1070
     0
1000
AcDbSavedByObjectVersion
1070
     0
1000
AcDbSavedByObjectVersion
1070
     0
1000
AcDbSavedByObjectVersion
1070
     0
1000
AcDbSavedByObjectVersion
1070
     0
  0
VISUALSTYLE
  5
13C6
102
{ACAD_REACTORS
330
13B7
102
}
330
13B7
100
AcDbVisualStyle
  2
Facepattern
 70
    15
 71
     2
 72
     2
 73
     0
 90
        0
 40
-0.6
 41
-30.0
 62
     5
 63
     7
 74
     1
 91
        4
 64
     7
 65
   257
 75
     1
175
     1
 42
1.0
 92
        8
 66
     7
 43
1.0
 76
     1
 77
     6
 78
     2
 67
     7
 79
     5
170
     0
171
     0
290
     0
174
     0
 93
        1
 44
0.0
173
     0
291
     1
 45
0.0
1001
ACAD
1000
AcDbSavedByObjectVersion
1070
     0
1000
AcDbSavedByObjectVersion
1070
     0
1000
AcDbSavedByObjectVersion
1070
     0
1000
AcDbSavedByObjectVersion
1070
     0
1000
AcDbSavedByObjectVersion
1070
     0
1000
AcDbSavedByObjectVersion
1070
     0
  0
VISUALSTYLE
  5
13B8
102
{ACAD_REACTORS
330
13B7
102
}
330
13B7
100
AcDbVisualStyle
  2
Flat
 70
     0
 71
     2
 72
     1
 73
     1
 90
        2
 40
-0.6
 41
30.0
 62
     5
 63
     7
 74
     0
 91
        4
 64
     7
 65
   257
 75
     1
175
     1
 42
1.0
 92
        8
 66
     7
 43
1.0
 76
     1
 77
     6
 78
     2
 67
     7
 79
     5
170
     0
171
     0
290
     0
174
     0
 93
       13
 44
0.0
173
     0
291
     1
 45
0.0
1001
ACAD
1000
AcDbSavedByObjectVersion
1070
     0
1000
AcDbSavedByObjectVersion
1070
     0
1000
AcDbSavedByObjectVersion
1070
     0
1000
AcDbSavedByObjectVersion
1070
     0
1000
AcDbSavedByObjectVersion
1070
     0
1000
AcDbSavedByObjectVersion
1070
     0
  0
VISUALSTYLE
  5
13B9
102
{ACAD_REACTORS
330
13B7
102
}
330
13B7
100
AcDbVisualStyle
  2
FlatWithEdges
 70
     1
 71
     2
 72
     1
 73
     1
 90
        2
 40
-0.6
 41
30.0
 62
     5
 63
     7
 74
     1
 91
        4
 64
     7
 65
   257
 75
     1
175
     1
 42
1.0
 92
        0
 66
   257
 43
1.0
 76
     1
 77
     6
 78
     2
 67
     7
 79
     5
170
     0
171
     0
290
     0
174
     0
 93
       13
 44
0.0
173
     0
291
     1
 45
0.0
1001
ACAD
1000
AcDbSavedByObjectVersion
1070
     0
1000
AcDbSavedByObjectVersion
1070
     0
1000
AcDbSavedByObjectVersion
1070
     0
1000
AcDbSavedByObjectVersion
1070
     0
1000
AcDbSavedByObjectVersion
1070
     0
1000
AcDbSavedByObjectVersion
1070
     0
  0
VISUALSTYLE
  5
13BA
102
{ACAD_REACTORS
330
13B7
102
}
330
13B7
100
AcDbVisualStyle
  2
Gouraud
 70
     2
 71
     2
 72
     2
 73
     1
 90
        2
 40
-0.6
 41
30.0
 62
     5
 63
     7
 74
     0
 91
        4
 64
     7
 65
   257
 75
     1
175
     1
 42
1.0
 92
        0
 66
     7
 43
1.0
 76
     1
 77
     6
 78
     2
 67
     7
 79
     5
170
     0
171
     0
290
     0
174
     0
 93
       13
 44
0.0
173
     0
291
     1
 45
0.0
1001
ACAD
1000
AcDbSavedByObjectVersion
1070
     0
1000
AcDbSavedByObjectVersion
1070
     0
1000
AcDbSavedByObjectVersion
1070
     0
1000
AcDbSavedByObjectVersion
1070
     0
1000
AcDbSavedByObjectVersion
1070
     0
1000
AcDbSavedByObjectVersion
1070
     0
  0
VISUALSTYLE
  5
13BB
102
{ACAD_REACTORS
330
13B7
102
}
330
13B7
100
AcDbVisualStyle
  2
GouraudWithEdges
 70
     3
 71
     2
 72
     2
 73
     1
 90
        2
 40
-0.6
 41
30.0
 62
     5
 63
     7
 74
     1
 91
        4
 64
     7
 65
   257
 75
     1
175
     1
 42
1.0
 92
        0
 66
   257
 43
1.0
 76
     1
 77
     6
 78
     2
 67
     7
 79
     5
170
     0
171
     0
290
     0
174
     0
 93
       13
 44
0.0
173
     0
291
     1
 45
0.0
1001
ACAD
1000
AcDbSavedByObjectVersion
1070
     0
1000
AcDbSavedByObjectVersion
1070
     0
1000
AcDbSavedByObjectVersion
1070
     0
1000
AcDbSavedByObjectVersion
1070
     0
1000
AcDbSavedByObjectVersion
1070
     0
1000
AcDbSavedByObjectVersion
1070
     0
  0
VISUALSTYLE
  5
13C5
102
{ACAD_REACTORS
330
13B7
102
}
330
13B7
100
AcDbVisualStyle
  2
Linepattern
 70
    14
 71
     2
 72
     2
 73
     0
 90
        0
 40
-0.6
 41
-30.0
 62
     5
 63
     7
 74
     1
 91
        4
 64
     7
 65
   257
 75
     7
175
     7
 42
1.0
 92
        8
 66
     7
 43
1.0
 76
     1
 77
     6
 78
     2
 67
     7
 79
     5
170
     0
171
     0
290
     0
174
     0
 93
        1
 44
0.0
173
     0
291
     1
 45
0.0
1001
ACAD
1000
AcDbSavedByObjectVersion
1070
     0
1000
AcDbSavedByObjectVersion
1070
     0
1000
AcDbSavedByObjectVersion
1070
     0
1000
AcDbSavedByObjectVersion
1070
     0
1000
AcDbSavedByObjectVersion
1070
     0
1000
AcDbSavedByObjectVersion
1070
     0
  0
VISUALSTYLE
  5
13C1
102
{ACAD_REACTORS
330
13B7
102
}
330
13B7
100
AcDbVisualStyle
  2
Realistic
 70
     8
 71
     2
 72
     2
 73
     0
 90
        0
 40
-0.6
 41
-30.0
 62
     5
 63
     7
 74
     1
 91
        0
 64
     7
 65
   257
 75
     1
175
     1
 42
1.0
 92
        8
 66
     8
 43
1.0
 76
     1
 77
     6
 78
     2
 67
     7
 79
     5
170
     0
171
     0
290
     0
174
     0
 93
       13
 44
0.0
173
     0
291
     0
 45
0.0
1001
ACAD
1000
AcDbSavedByObjectVersion
1070
     0
1000
AcDbSavedByObjectVersion
1070
     0
1000
AcDbSavedByObjectVersion
1070
     0
1000
AcDbSavedByObjectVersion
1070
     0
1000
AcDbSavedByObjectVersion
1070
     0
1000
AcDbSavedByObjectVersion
1070
     0
  0
VISUALSTYLE
  5
13C4
102
{ACAD_REACTORS
330
13B7
102
}
330
13B7
100
AcDbVisualStyle
  2
Thicken
 70
    13
 71
     2
 72
     2
 73
     0
 90
        0
 40
-0.6
 41
-30.0
 62
     5
 63
     7
 74
     1
 91
        4
 64
     7
 65
   257
 75
     1
175
     1
 42
1.0
 92
       12
 66
     7
 43
1.0
 76
     1
 77
     6
 78
     2
 67
     7
 79
     5
170
     0
171
     0
290
     0
174
     0
 93
        1
 44
0.0
173
     0
291
     1
 45
0.0
1001
ACAD
1000
AcDbSavedByObjectVersion
1070
     0
1000
AcDbSavedByObjectVersion
1070
     0
1000
AcDbSavedByObjectVersion
1070
     0
1000
AcDbSavedByObjectVersion
1070
     0
1000
AcDbSavedByObjectVersion
1070
     0
1000
AcDbSavedByObjectVersion
1070
     0
  0
DICTIONARYVAR
  5
1446
102
{ACAD_REACTORS
330
B87
102
}
330
B87
100
DictionaryVariables
280
     0
  1
1:1
  0
DICTIONARYVAR
  5
1445
102
{ACAD_REACTORS
330
B87
102
}
330
B87
100
DictionaryVariables
280
     0
  1
STANDARD
  0
DICTIONARYVAR
  5
129F
102
{ACAD_REACTORS
330
B87
102
}
330
B87
100
DictionaryVariables
280
     0
  1
STANDARD
  0
DICTIONARYVAR
  5
B88
102
{ACAD_REACTORS
330
B87
102
}
330
B87
100
DictionaryVariables
280
     0
  1
1
  0
DICTIONARYVAR
  5
12A0
102
{ACAD_REACTORS
330
B87
102
}
330
B87
100
DictionaryVariables
280
     0
  1
1
  0
DICTIONARYVAR
  5
12A1
102
{ACAD_REACTORS
330
B87
102
}
330
B87
100
DictionaryVariables
280
     0
  1

  0
DICTIONARYVAR
  5
1447
102
{ACAD_REACTORS
330
B87
102
}
330
B87
100
DictionaryVariables
280
     0
  1
127
  0
DICTIONARY
  5
1240
102
{ACAD_REACTORS
330
1234
102
}
330
1234
100
AcDbDictionary
281
     1
  0
XRECORD
  5
1260
102
{ACAD_REACTORS
330
1234
102
}
330
1234
100
AcDbXrecord
280
     1
 90
-1023410169
  0
DICTIONARY
  5
1174
102
{ACAD_REACTORS
330
1173
102
}
330
1173
100
AcDbDictionary
281
     1
  3
DWGSETTINGS
350
1D8A
  3
TRANSSETTINGS
350
1D8B
  0
ACAMGFILTERDAT
  5
128F
102
{ACAD_REACTORS
330
128A
102
}
330
128A
100
AcAmgFilterDat
 70
    15
  1
DIMENSION,AMDT_*_DIM
  2
*
  3
*
  4
*
  5
*
290
     1
1001
ACAD
1000
AcRTDxfName
1000
ACAMGFILTERDAT
  0
ACAMGFILTERDAT
  5
128E
102
{ACAD_REACTORS
330
128A
102
}
330
128A
100
AcAmgFilterDat
 70
    15
  1
*
  2
AM_FEA-AM_*
  3
*
  4
*
  5
*
290
     1
1001
ACAD
1000
AcRTDxfName
1000
ACAMGFILTERDAT
  0
ACAMGFILTERDAT
  5
128B
102
{ACAD_REACTORS
330
128A
102
}
330
128A
100
AcAmgFilterDat
 70
    15
  1
HATCH
  2
*
  3
*
  4
*
  5
*
290
     1
1001
ACAD
1000
AcRTDxfName
1000
ACAMGFILTERDAT
  0
ACAMGFILTERDAT
  5
128C
102
{ACAD_REACTORS
330
128A
102
}
330
128A
100
AcAmgFilterDat
 70
    15
  1
LINE
  2
8,8N,*-8,*-8N,AM_8,AM_8N,*-AM_8,*-AM_8N
  3
*
  4
*
  5
INSERT,STDPART2D
290
     1
1001
ACAD
1000
AcRTDxfName
1000
ACAMGFILTERDAT
  0
ACAMGFILTERDAT
  5
1290
102
{ACAD_REACTORS
330
128A
102
}
330
128A
100
AcAmgFilterDat
 70
    15
  1
ARC
  2
AM_5
  3
*
  4
2
  5
INSERT
290
     0
1001
ACAD
1000
AcRTDxfName
1000
ACAMGFILTERDAT
  0
ACAMGFILTERDAT
  5
128D
102
{ACAD_REACTORS
330
128A
102
}
330
128A
100
AcAmgFilterDat
 70
    15
  1
ACMFCFRAME,ACMDATUMTARGET,ACMDATUMID,ACMWELDSYM,ACMSURFSYM,ACMFEATID,ACMPARTREF,ACMBALLOON,AMDTEDGESYM,AMGSCREWCALCTABLE
  2
*
  3
*
  4
*
  5
*
290
     1
1001
ACAD
1000
AcRTDxfName
1000
ACAMGFILTERDAT
  0
LAYER_INDEX
  5
1292
102
{ACAD_REACTORS
330
1291
102
}
330
1291
100
AcDbIndex
 40
2456703.607377408
100
AcDbLayerIndex
  8
0
360
1293
 90
        0
  8
OUTLINE
360
1294
 90
      253
  8
SIZE
360
1295
 90
        6
  8
BASIS
360
1296
 90
        2
  8
DETAIL
360
1297
 90
      247
  8
ARRANGE
360
1298
 90
        3
  8
DEFPOINTS
360
1299
 90
        0
  8
ETC
360
129A
 90
        1
  8
FIX
360
129B
 90
        5
  8
NOTE
360
129C
 90
       12
  8
SERVICESPACE
360
129D
 90
        0
  8
SYMBOLLINE
360
129E
 90
        0
  0
DICTIONARY
  5
13A8
330
13A7
100
AcDbDictionary
280
     1
281
     1
  3
ACAD_XREC_ROUNDTRIP
360
1454
  3
BUMPTILE
360
13AA
  3
DIFFUSETILE
360
13A9
  3
OPACITYTILE
360
13AD
  3
REFLECTIONTILE
360
13AC
  3
REFRACTIONTILE
360
13AE
  3
SPECULARTILE
360
13AB
  0
DICTIONARY
  5
13A0
330
139F
100
AcDbDictionary
280
     1
281
     1
  3
ACAD_XREC_ROUNDTRIP
360
1453
  3
BUMPTILE
360
13A2
  3
DIFFUSETILE
360
13A1
  3
OPACITYTILE
360
13A5
  3
REFLECTIONTILE
360
13A4
  3
REFRACTIONTILE
360
13A6
  3
SPECULARTILE
360
13A3
  0
DICTIONARY
  5
13B0
330
13AF
100
AcDbDictionary
280
     1
281
     1
  3
ACAD_XREC_ROUNDTRIP
360
1455
  3
BUMPTILE
360
13B2
  3
DIFFUSETILE
360
13B1
  3
OPACITYTILE
360
13B5
  3
REFLECTIONTILE
360
13B4
  3
REFRACTIONTILE
360
13B6
  3
SPECULARTILE
360
13B3
  0
DICTIONARY
  5
1448
330
116F
100
AcDbDictionary
280
     1
281
     1
  3
ACAD_ROUNDTRIP_2008_TABLESTYLE_CELLSTYLEMAP
360
230D
  3
ACAD_XREC_ROUNDTRIP
360
2313
  0
IDBUFFER
  5
1293
330
0
100
AcDbIdBuffer
  0
IDBUFFER
  5
1294
330
0
100
AcDbIdBuffer
330
2238
330
2239
330
223A
330
223B
330
223C
330
223D
330
223E
330
223F
330
2240
330
2241
330
2242
330
2243
330
2244
330
2245
330
2246
330
2247
330
2248
330
2249
330
224A
330
224B
330
224C
330
224D
330
224E
330
224F
330
2250
330
2251
330
2252
330
2253
330
2254
330
2255
330
2256
330
2257
330
2258
330
2259
330
225A
330
225B
330
225C
330
225D
330
225E
330
225F
330
2260
330
2261
330
2262
330
2263
330
2264
330
2265
330
2266
330
2267
330
2268
330
2269
330
226A
330
226B
330
226C
330
226D
330
226E
330
226F
330
2270
330
2271
330
2272
330
2273
330
2274
330
2275
330
2276
330
2277
330
2278
330
2279
330
227A
330
227B
330
227C
330
227D
330
227E
330
227F
330
2280
330
2281
330
2282
330
2283
330
2284
330
2285
330
2286
330
2287
330
2288
330
2289
330
228A
330
228B
330
228C
330
228D
330
228E
330
228F
330
2290
330
2291
330
2292
330
2293
330
2294
330
2295
330
2296
330
2297
330
2298
330
2299
330
229A
330
229B
330
229C
330
229D
330
229E
330
229F
330
22A0
330
22A1
330
22A2
330
22A3
330
22A4
330
22A5
330
22A6
330
22A7
330
953
330
954
330
955
330
956
330
957
330
958
330
21B1
330
21B2
330
21B3
330
21B4
330
21B5
330
21B6
330
21B7
330
21B8
330
21B9
330
21BA
330
21BB
330
21BC
330
21BD
330
21BE
330
21BF
330
21C0
330
21C1
330
21C2
330
21C3
330
21C4
330
21C5
330
21C6
330
21C7
330
21C8
330
21C9
330
21CA
330
21CB
330
21CC
330
21CD
330
21CE
330
21CF
330
21D0
330
21D1
330
21D2
330
21D3
330
21D4
330
21D5
330
21D6
330
21D7
330
21D8
330
21D9
330
21DA
330
21DB
330
21DC
330
21DD
330
21DE
330
21DF
330
21E0
330
21E1
330
21E2
330
21E3
330
21E4
330
21E5
330
21E6
330
21E7
330
21E8
330
21E9
330
21EA
330
21EB
330
21EC
330
21ED
330
21EE
330
21EF
330
21F0
330
21F1
330
21F2
330
21F3
330
21F4
330
21F5
330
21F6
330
21F7
330
21F8
330
21F9
330
21FA
330
21FB
330
21FC
330
21FD
330
21FE
330
21FF
330
2200
330
2201
330
2202
330
2203
330
2204
330
2205
330
2206
330
2207
330
2208
330
2209
330
220A
330
220B
330
220C
330
220D
330
220E
330
220F
330
2210
330
2211
330
2212
330
2213
330
2214
330
2215
330
2216
330
2217
330
2218
330
2219
330
221A
330
221B
330
221C
330
221D
330
221E
330
221F
330
2220
330
2221
330
2222
330
2223
330
2224
330
2225
330
2226
330
2227
330
2228
330
2229
330
222A
330
222B
330
222C
330
222D
330
222E
330
222F
330
2230
330
2231
330
2232
330
2233
330
2234
330
2235
330
2236
330
2237
  0
IDBUFFER
  5
1295
330
0
100
AcDbIdBuffer
330
22B7
330
22B8
330
22B9
330
22BA
330
22BB
330
22BC
  0
IDBUFFER
  5
1296
330
0
100
AcDbIdBuffer
330
22BD
330
22C1
  0
IDBUFFER
  5
1297
330
0
100
AcDbIdBuffer
330
2141
330
2142
330
2143
330
2144
330
2145
330
2146
330
2147
330
2148
330
2149
330
214A
330
214B
330
214C
330
214D
330
214E
330
214F
330
2150
330
2151
330
2152
330
2153
330
2154
330
2155
330
2156
330
2157
330
2158
330
2159
330
215A
330
215B
330
215C
330
215D
330
215E
330
215F
330
2160
330
2161
330
2162
330
2163
330
2164
330
2165
330
2166
330
2167
330
2168
330
2169
330
216A
330
216B
330
216C
330
216D
330
216E
330
216F
330
2170
330
2171
330
2172
330
2173
330
2174
330
2175
330
2176
330
2177
330
2178
330
2179
330
217A
330
217B
330
217C
330
217D
330
217E
330
217F
330
2180
330
2181
330
2182
330
2183
330
2184
330
2185
330
2186
330
2187
330
2188
330
2189
330
218A
330
218B
330
218C
330
218D
330
218E
330
218F
330
2190
330
2191
330
2192
330
2193
330
2194
330
2195
330
2196
330
2197
330
2198
330
2199
330
219A
330
219B
330
219C
330
219D
330
219E
330
219F
330
21A0
330
21A1
330
21A2
330
21A3
330
21A4
330
21A5
330
21A6
330
21A7
330
21A8
330
21A9
330
21AA
330
21AB
330
21AC
330
21AD
330
21AE
330
21AF
330
21B0
330
20BA
330
20BB
330
20BC
330
20BD
330
20BE
330
20BF
330
20C0
330
20C1
330
20C2
330
20C3
330
20C4
330
20C5
330
20C6
330
20C7
330
20C8
330
20C9
330
20CA
330
20CB
330
20CC
330
20CD
330
20CE
330
20CF
330
20D0
330
20D1
330
20D2
330
20D3
330
20D4
330
20D5
330
20D6
330
20D7
330
20D8
330
20D9
330
20DA
330
20DB
330
20DC
330
20DD
330
20DE
330
20DF
330
20E0
330
20E1
330
20E2
330
20E3
330
20E4
330
20E5
330
20E6
330
20E7
330
20E8
330
20E9
330
20EA
330
20EB
330
20EC
330
20ED
330
20EE
330
20EF
330
20F0
330
20F1
330
20F2
330
20F3
330
20F4
330
20F5
330
20F6
330
20F7
330
20F8
330
20F9
330
20FA
330
20FB
330
20FC
330
20FD
330
20FE
330
20FF
330
2100
330
2101
330
2102
330
2103
330
2104
330
2105
330
2106
330
2107
330
2108
330
2109
330
210A
330
210B
330
210C
330
210D
330
210E
330
210F
330
2110
330
2111
330
2112
330
2113
330
2114
330
2115
330
2116
330
2117
330
2118
330
2119
330
211A
330
211B
330
211C
330
211D
330
211E
330
211F
330
2120
330
2121
330
2122
330
2123
330
2124
330
2125
330
2126
330
2127
330
2128
330
2129
330
212A
330
212B
330
212C
330
212D
330
212E
330
212F
330
2130
330
2131
330
2132
330
2133
330
2134
330
2135
330
2136
330
2137
330
2138
330
2139
330
213A
330
213B
330
213C
330
213D
330
213E
330
213F
330
2140
  0
IDBUFFER
  5
1298
330
0
100
AcDbIdBuffer
330
22BE
330
22BF
330
22C0
  0
IDBUFFER
  5
1299
330
0
100
AcDbIdBuffer
  0
IDBUFFER
  5
129A
330
0
100
AcDbIdBuffer
330
22C4
  0
IDBUFFER
  5
129B
330
0
100
AcDbIdBuffer
330
22A9
330
22AC
330
22AF
330
22B2
330
22B5
  0
IDBUFFER
  5
129C
330
0
100
AcDbIdBuffer
330
22A8
330
22AA
330
22AB
330
22AD
330
22AE
330
22B0
330
22B1
330
22B3
330
22B4
330
22B6
330
22C2
330
22C3
  0
IDBUFFER
  5
129D
330
0
100
AcDbIdBuffer
  0
IDBUFFER
  5
129E
330
0
100
AcDbIdBuffer
  0
XRECORD
  5
1454
102
{ACAD_REACTORS
330
13A8
102
}
330
13A8
100
AcDbXrecord
280
     1
102
MATERIAL
148
0.0
149
0.0
149
0.0
 93
        0
 94
      127
282
     0
 72
     0
 77
     0
171
     0
175
     0
179
     0
273
     0
  0
XRECORD
  5
13AA
102
{ACAD_REACTORS
330
13A8
102
}
330
13A8
100
AcDbXrecord
280
     1
270
     1
271
     1
  0
XRECORD
  5
13A9
102
{ACAD_REACTORS
330
13A8
102
}
330
13A8
100
AcDbXrecord
280
     1
270
     1
271
     1
  0
XRECORD
  5
13AD
102
{ACAD_REACTORS
330
13A8
102
}
330
13A8
100
AcDbXrecord
280
     1
270
     1
271
     1
  0
XRECORD
  5
13AC
102
{ACAD_REACTORS
330
13A8
102
}
330
13A8
100
AcDbXrecord
280
     1
270
     1
271
     1
  0
XRECORD
  5
13AE
102
{ACAD_REACTORS
330
13A8
102
}
330
13A8
100
AcDbXrecord
280
     1
270
     1
271
     1
  0
XRECORD
  5
13AB
102
{ACAD_REACTORS
330
13A8
102
}
330
13A8
100
AcDbXrecord
280
     1
270
     1
271
     1
  0
XRECORD
  5
1453
102
{ACAD_REACTORS
330
13A0
102
}
330
13A0
100
AcDbXrecord
280
     1
102
MATERIAL
148
0.0
149
0.0
149
0.0
 93
        0
 94
      127
282
     0
 72
     0
 77
     0
171
     0
175
     0
179
     0
273
     0
  0
XRECORD
  5
13A2
102
{ACAD_REACTORS
330
13A0
102
}
330
13A0
100
AcDbXrecord
280
     1
270
     1
271
     1
  0
XRECORD
  5
13A1
102
{ACAD_REACTORS
330
13A0
102
}
330
13A0
100
AcDbXrecord
280
     1
270
     1
271
     1
  0
XRECORD
  5
13A5
102
{ACAD_REACTORS
330
13A0
102
}
330
13A0
100
AcDbXrecord
280
     1
270
     1
271
     1
  0
XRECORD
  5
13A4
102
{ACAD_REACTORS
330
13A0
102
}
330
13A0
100
AcDbXrecord
280
     1
270
     1
271
     1
  0
XRECORD
  5
13A6
102
{ACAD_REACTORS
330
13A0
102
}
330
13A0
100
AcDbXrecord
280
     1
270
     1
271
     1
  0
XRECORD
  5
13A3
102
{ACAD_REACTORS
330
13A0
102
}
330
13A0
100
AcDbXrecord
280
     1
270
     1
271
     1
  0
XRECORD
  5
1455
102
{ACAD_REACTORS
330
13B0
102
}
330
13B0
100
AcDbXrecord
280
     1
102
MATERIAL
148
0.0
149
0.0
149
0.0
 93
        0
 94
      127
282
     0
 72
     0
 77
     0
171
     0
175
     0
179
     0
273
     0
  0
XRECORD
  5
13B2
102
{ACAD_REACTORS
330
13B0
102
}
330
13B0
100
AcDbXrecord
280
     1
270
     1
271
     1
  0
XRECORD
  5
13B1
102
{ACAD_REACTORS
330
13B0
102
}
330
13B0
100
AcDbXrecord
280
     1
270
     1
271
     1
  0
XRECORD
  5
13B5
102
{ACAD_REACTORS
330
13B0
102
}
330
13B0
100
AcDbXrecord
280
     1
270
     1
271
     1
  0
XRECORD
  5
13B4
102
{ACAD_REACTORS
330
13B0
102
}
330
13B0
100
AcDbXrecord
280
     1
270
     1
271
     1
  0
XRECORD
  5
13B6
102
{ACAD_REACTORS
330
13B0
102
}
330
13B0
100
AcDbXrecord
280
     1
270
     1
271
     1
  0
XRECORD
  5
13B3
102
{ACAD_REACTORS
330
13B0
102
}
330
13B0
100
AcDbXrecord
280
     1
270
     1
271
     1
  0
CELLSTYLEMAP
  5
230D
102
{ACAD_REACTORS
330
1448
102
}
330
1448
100
AcDbCellStyleMap
 90
        3
300
CELLSTYLE
  1
TABLEFORMAT_BEGIN
 90
        5
170
     1
 91
        0
 92
    32768
 62
   257
 93
        1
300
CONTENTFORMAT
  1
CONTENTFORMAT_BEGIN
 90
        0
 91
        0
 92
        4
 93
        0
300

 40
0.0
140
1.0
 94
        5
 62
     0
340
852
144
0.25
309
CONTENTFORMAT_END
171
     1
301
MARGIN
  1
CELLMARGIN_BEGIN
 40
0.06
 40
0.06
 40
0.06
 40
0.06
 40
0.18
 40
0.18
309
CELLMARGIN_END
 94
        6
 95
        1
302
GRIDFORMAT
  1
GRIDFORMAT_BEGIN
 90
        0
 91
        1
 62
     0
 92
       -2
340
0
 93
        0
 40
0.045
309
GRIDFORMAT_END
 95
        2
302
GRIDFORMAT
  1
GRIDFORMAT_BEGIN
 90
        0
 91
        1
 62
     0
 92
       -2
340
0
 93
        0
 40
0.045
309
GRIDFORMAT_END
 95
        4
302
GRIDFORMAT
  1
GRIDFORMAT_BEGIN
 90
        0
 91
        1
 62
     0
 92
       -2
340
0
 93
        0
 40
0.045
309
GRIDFORMAT_END
 95
        8
302
GRIDFORMAT
  1
GRIDFORMAT_BEGIN
 90
        0
 91
        1
 62
     0
 92
       -2
340
0
 93
        0
 40
0.045
309
GRIDFORMAT_END
 95
       16
302
GRIDFORMAT
  1
GRIDFORMAT_BEGIN
 90
        0
 91
        1
 62
     0
 92
       -2
340
0
 93
        0
 40
0.045
309
GRIDFORMAT_END
 95
       32
302
GRIDFORMAT
  1
GRIDFORMAT_BEGIN
 90
        0
 91
        1
 62
     0
 92
       -2
340
0
 93
        0
 40
0.045
309
GRIDFORMAT_END
309
TABLEFORMAT_END
  1
CELLSTYLE_BEGIN
 90
        1
 91
        1
300
_TITLE
309
CELLSTYLE_END
300
CELLSTYLE
  1
TABLEFORMAT_BEGIN
 90
        5
170
     1
 91
        0
 92
        0
 62
   257
 93
        1
300
CONTENTFORMAT
  1
CONTENTFORMAT_BEGIN
 90
        0
 91
        0
 92
        4
 93
        0
300

 40
0.0
140
1.0
 94
        5
 62
     0
340
852
144
0.18
309
CONTENTFORMAT_END
171
     1
301
MARGIN
  1
CELLMARGIN_BEGIN
 40
0.06
 40
0.06
 40
0.06
 40
0.06
 40
0.18
 40
0.18
309
CELLMARGIN_END
 94
        6
 95
        1
302
GRIDFORMAT
  1
GRIDFORMAT_BEGIN
 90
        0
 91
        1
 62
     0
 92
       -2
340
0
 93
        0
 40
0.045
309
GRIDFORMAT_END
 95
        2
302
GRIDFORMAT
  1
GRIDFORMAT_BEGIN
 90
        0
 91
        1
 62
     0
 92
       -2
340
0
 93
        0
 40
0.045
309
GRIDFORMAT_END
 95
        4
302
GRIDFORMAT
  1
GRIDFORMAT_BEGIN
 90
        0
 91
        1
 62
     0
 92
       -2
340
0
 93
        0
 40
0.045
309
GRIDFORMAT_END
 95
        8
302
GRIDFORMAT
  1
GRIDFORMAT_BEGIN
 90
        0
 91
        1
 62
     0
 92
       -2
340
0
 93
        0
 40
0.045
309
GRIDFORMAT_END
 95
       16
302
GRIDFORMAT
  1
GRIDFORMAT_BEGIN
 90
        0
 91
        1
 62
     0
 92
       -2
340
0
 93
        0
 40
0.045
309
GRIDFORMAT_END
 95
       32
302
GRIDFORMAT
  1
GRIDFORMAT_BEGIN
 90
        0
 91
        1
 62
     0
 92
       -2
340
0
 93
        0
 40
0.045
309
GRIDFORMAT_END
309
TABLEFORMAT_END
  1
CELLSTYLE_BEGIN
 90
        2
 91
        1
300
_HEADER
309
CELLSTYLE_END
300
CELLSTYLE
  1
TABLEFORMAT_BEGIN
 90
        5
170
     1
 91
        0
 92
        0
 62
   257
 93
        1
300
CONTENTFORMAT
  1
CONTENTFORMAT_BEGIN
 90
        0
 91
        0
 92
        4
 93
        0
300

 40
0.0
140
1.0
 94
        2
 62
     0
340
852
144
0.18
309
CONTENTFORMAT_END
171
     1
301
MARGIN
  1
CELLMARGIN_BEGIN
 40
0.06
 40
0.06
 40
0.06
 40
0.06
 40
0.18
 40
0.18
309
CELLMARGIN_END
 94
        6
 95
        1
302
GRIDFORMAT
  1
GRIDFORMAT_BEGIN
 90
        0
 91
        1
 62
     0
 92
       -2
340
0
 93
        0
 40
0.045
309
GRIDFORMAT_END
 95
        2
302
GRIDFORMAT
  1
GRIDFORMAT_BEGIN
 90
        0
 91
        1
 62
     0
 92
       -2
340
0
 93
        0
 40
0.045
309
GRIDFORMAT_END
 95
        4
302
GRIDFORMAT
  1
GRIDFORMAT_BEGIN
 90
        0
 91
        1
 62
     0
 92
       -2
340
0
 93
        0
 40
0.045
309
GRIDFORMAT_END
 95
        8
302
GRIDFORMAT
  1
GRIDFORMAT_BEGIN
 90
        0
 91
        1
 62
     0
 92
       -2
340
0
 93
        0
 40
0.045
309
GRIDFORMAT_END
 95
       16
302
GRIDFORMAT
  1
GRIDFORMAT_BEGIN
 90
        0
 91
        1
 62
     0
 92
       -2
340
0
 93
        0
 40
0.045
309
GRIDFORMAT_END
 95
       32
302
GRIDFORMAT
  1
GRIDFORMAT_BEGIN
 90
        0
 91
        1
 62
     0
 92
       -2
340
0
 93
        0
 40
0.045
309
GRIDFORMAT_END
309
TABLEFORMAT_END
  1
CELLSTYLE_BEGIN
 90
        3
 91
        2
300
_DATA
309
CELLSTYLE_END
  0
XRECORD
  5
2313
102
{ACAD_REACTORS
330
1448
102
}
330
1448
100
AcDbXrecord
280
     1
102
ACAD_ROUNDTRIP_PRE2007_TABLESTYLE
 90
        4
 91
        0
  1

 92
        4
 93
        0
  2

 94
        4
 95
        0
  3

  0
ENDSEC
  0
EOF
