  0
SECTION
  2
HEADER
  9
$ACADVER
  1
AC1018
  9
$ACADMAINTVER
 70
   104
  9
$DWGCODEPAGE
  3
ANSI_932
  9
$LASTSAVEDBY
  1
a080061
  9
$CUSTOMPROPERTYTAG
  1
AmdtFileType
  9
$CUSTOMPROPERTY
  1
84
  9
$INSBASE
 10
0.0
 20
0.0
 30
0.0
  9
$EXTMIN
 10
-631.2881304198981
 20
-1488.418568610701
 30
-0.0000000000000015
  9
$EXTMAX
 10
846.0983389943104
 20
-636.7034846179921
 30
0.0000000000000138
  9
$LIMMIN
 10
-2970.0
 20
-2100.0
  9
$LIMMAX
 10
2970.0
 20
2100.0
  9
$ORTHOMODE
 70
     0
  9
$REGENMODE
 70
     0
  9
$FILLMODE
 70
     1
  9
$QTEXTMODE
 70
     0
  9
$MIRRTEXT
 70
     0
  9
$LTSCALE
 40
20.0
  9
$ATTMODE
 70
     2
  9
$TEXTSIZE
 40
64.0
  9
$TRACEWID
 40
0.05
  9
$TEXTSTYLE
  7
STANDARD
  9
$CLAYER
  8
0
  9
$CELTYPE
  6
BYLAYER
  9
$CECOLOR
 62
   256
  9
$CELTSCALE
 40
1.0
  9
$DISPSILH
 70
     0
  9
$DIMSCALE
 40
1.0
  9
$DIMASZ
 40
0.12
  9
$DIMEXO
 40
0.05
  9
$DIMDLI
 40
0.5
  9
$DIMRND
 40
0.0
  9
$DIMDLE
 40
0.0
  9
$DIMEXE
 40
0.1
  9
$DIMTP
 40
0.1
  9
$DIMTM
 40
0.1
  9
$DIMTXT
 40
0.12
  9
$DIMCEN
 40
0.0
  9
$DIMTSZ
 40
0.0
  9
$DIMTOL
 70
     0
  9
$DIMLIM
 70
     0
  9
$DIMTIH
 70
     1
  9
$DIMTOH
 70
     1
  9
$DIMSE1
 70
     0
  9
$DIMSE2
 70
     0
  9
$DIMTAD
 70
     0
  9
$DIMZIN
 70
     7
  9
$DIMBLK
  1

  9
$DIMASO
 70
     1
  9
$DIMSHO
 70
     0
  9
$DIMPOST
  1

  9
$DIMAPOST
  1
mm
  9
$DIMALT
 70
     0
  9
$DIMALTD
 70
     2
  9
$DIMALTF
 40
25.4
  9
$DIMLFAC
 40
1.0
  9
$DIMTOFL
 70
     0
  9
$DIMTVP
 40
0.0
  9
$DIMTIX
 70
     0
  9
$DIMSOXD
 70
     0
  9
$DIMSAH
 70
     0
  9
$DIMBLK1
  1

  9
$DIMBLK2
  1

  9
$DIMSTYLE
  2
AM_ANSI
  9
$DIMCLRD
 70
   256
  9
$DIMCLRE
 70
   256
  9
$DIMCLRT
 70
     2
  9
$DIMTFAC
 40
0.71
  9
$DIMGAP
 40
0.06
  9
$DIMJUST
 70
     0
  9
$DIMSD1
 70
     0
  9
$DIMSD2
 70
     0
  9
$DIMTOLJ
 70
     1
  9
$DIMTZIN
 70
     7
  9
$DIMALTZ
 70
     0
  9
$DIMALTTZ
 70
     0
  9
$DIMUPT
 70
     0
  9
$DIMDEC
 70
     4
  9
$DIMTDEC
 70
     4
  9
$DIMALTU
 70
     2
  9
$DIMALTTD
 70
     4
  9
$DIMTXSTY
  7
STANDARD
  9
$DIMAUNIT
 70
     0
  9
$DIMADEC
 70
     0
  9
$DIMALTRND
 40
0.0
  9
$DIMAZIN
 70
     2
  9
$DIMDSEP
 70
    46
  9
$DIMATFIT
 70
     3
  9
$DIMFRAC
 70
     0
  9
$DIMLDRBLK
  1

  9
$DIMLUNIT
 70
     2
  9
$DIMLWD
 70
    -1
  9
$DIMLWE
 70
    -1
  9
$DIMTMOVE
 70
     0
  9
$LUNITS
 70
     2
  9
$LUPREC
 70
     4
  9
$SKETCHINC
 40
0.1
  9
$FILLETRAD
 40
4.0
  9
$AUNITS
 70
     1
  9
$AUPREC
 70
     3
  9
$MENU
  1
ACAD
  9
$ELEVATION
 40
0.0
  9
$PELEVATION
 40
0.0
  9
$THICKNESS
 40
50.0
  9
$LIMCHECK
 70
     0
  9
$CHAMFERA
 40
0.0
  9
$CHAMFERB
 40
0.0
  9
$CHAMFERC
 40
0.0
  9
$CHAMFERD
 40
0.0
  9
$SKPOLY
 70
     0
  9
$TDCREATE
 40
2452321.396199653
  9
$TDUCREATE
 40
2452321.021199653
  9
$TDUPDATE
 40
2456703.572936065
  9
$TDUUPDATE
 40
2456703.197936065
  9
$TDINDWG
 40
1.0188485532
  9
$TDUSRTIMER
 40
1.0188431481
  9
$USRTIMER
 70
     1
  9
$ANGBASE
 50
0.0
  9
$ANGDIR
 70
     0
  9
$PDMODE
 70
     3
  9
$PDSIZE
 40
-2.0
  9
$PLINEWID
 40
0.0
  9
$SPLFRAME
 70
     0
  9
$SPLINETYPE
 70
     6
  9
$SPLINESEGS
 70
     8
  9
$HANDSEED
  5
1BE9
  9
$SURFTAB1
 70
     6
  9
$SURFTAB2
 70
     6
  9
$SURFTYPE
 70
     6
  9
$SURFU
 70
     6
  9
$SURFV
 70
     6
  9
$UCSBASE
  2

  9
$UCSNAME
  2

  9
$UCSORG
 10
0.0
 20
0.0
 30
0.0
  9
$UCSXDIR
 10
1.0
 20
0.0
 30
0.0
  9
$UCSYDIR
 10
0.0
 20
1.0
 30
0.0
  9
$UCSORTHOREF
  2

  9
$UCSORTHOVIEW
 70
     0
  9
$UCSORGTOP
 10
0.0
 20
0.0
 30
0.0
  9
$UCSORGBOTTOM
 10
0.0
 20
0.0
 30
0.0
  9
$UCSORGLEFT
 10
0.0
 20
0.0
 30
0.0
  9
$UCSORGRIGHT
 10
0.0
 20
0.0
 30
0.0
  9
$UCSORGFRONT
 10
0.0
 20
0.0
 30
0.0
  9
$UCSORGBACK
 10
0.0
 20
0.0
 30
0.0
  9
$PUCSBASE
  2

  9
$PUCSNAME
  2

  9
$PUCSORG
 10
0.0
 20
0.0
 30
0.0
  9
$PUCSXDIR
 10
1.0
 20
0.0
 30
0.0
  9
$PUCSYDIR
 10
0.0
 20
1.0
 30
0.0
  9
$PUCSORTHOREF
  2

  9
$PUCSORTHOVIEW
 70
     0
  9
$PUCSORGTOP
 10
0.0
 20
0.0
 30
0.0
  9
$PUCSORGBOTTOM
 10
0.0
 20
0.0
 30
0.0
  9
$PUCSORGLEFT
 10
0.0
 20
0.0
 30
0.0
  9
$PUCSORGRIGHT
 10
0.0
 20
0.0
 30
0.0
  9
$PUCSORGFRONT
 10
0.0
 20
0.0
 30
0.0
  9
$PUCSORGBACK
 10
0.0
 20
0.0
 30
0.0
  9
$USERI1
 70
     0
  9
$USERI2
 70
     0
  9
$USERI3
 70
     0
  9
$USERI4
 70
     0
  9
$USERI5
 70
     0
  9
$USERR1
 40
20.0
  9
$USERR2
 40
0.0
  9
$USERR3
 40
0.0
  9
$USERR4
 40
0.0
  9
$USERR5
 40
0.0
  9
$WORLDVIEW
 70
     1
  9
$SHADEDGE
 70
     3
  9
$SHADEDIF
 70
    70
  9
$TILEMODE
 70
     1
  9
$MAXACTVP
 70
    64
  9
$PINSBASE
 10
0.0
 20
0.0
 30
0.0
  9
$PLIMCHECK
 70
     0
  9
$PEXTMIN
 10
1.000000000000000E+20
 20
1.000000000000000E+20
 30
1.000000000000000E+20
  9
$PEXTMAX
 10
-1.000000000000000E+20
 20
-1.000000000000000E+20
 30
-1.000000000000000E+20
  9
$PLIMMIN
 10
0.0
 20
0.0
  9
$PLIMMAX
 10
12.0
 20
9.0
  9
$UNITMODE
 70
     0
  9
$VISRETAIN
 70
     1
  9
$PLINEGEN
 70
     0
  9
$PSLTSCALE
 70
     1
  9
$TREEDEPTH
 70
  3020
  9
$CMLSTYLE
  2
STANDARD
  9
$CMLJUST
 70
     0
  9
$CMLSCALE
 40
1.0
  9
$PROXYGRAPHICS
 70
     1
  9
$MEASUREMENT
 70
     0
  9
$CELWEIGHT
370
    -1
  9
$ENDCAPS
280
     0
  9
$JOINSTYLE
280
     0
  9
$LWDISPLAY
290
     0
  9
$INSUNITS
 70
     0
  9
$HYPERLINKBASE
  1

  9
$STYLESHEET
  1
MONOCHROME.CTB
  9
$XEDIT
290
     1
  9
$CEPSNTYPE
380
     0
  9
$PSTYLEMODE
290
     1
  9
$FINGERPRINTGUID
  2
{68F3F60F-982D-43C0-B084-568AB2094408}
  9
$VERSIONGUID
  2
{7F96A440-ACE8-462C-9D40-873B00F57F55}
  9
$EXTNAMES
290
     1
  9
$PSVPSCALE
 40
0.0
  9
$OLESTARTUP
290
     0
  9
$SORTENTS
280
   127
  9
$INDEXCTL
280
     1
  9
$HIDETEXT
280
     0
  9
$XCLIPFRAME
290
     0
  9
$HALOGAP
280
     0
  9
$OBSCOLOR
 70
   257
  9
$OBSLTYPE
280
     0
  9
$INTERSECTIONDISPLAY
280
     0
  9
$INTERSECTIONCOLOR
 70
   257
  9
$DIMASSOC
280
     1
  9
$PROJECTNAME
  1

  0
ENDSEC
  0
SECTION
  2
CLASSES
  0
CLASS
  1
ACDBDICTIONARYWDFLT
  2
AcDbDictionaryWithDefault
  3
ObjectDBX Classes
 90
        0
 91
        1
280
     0
281
     0
  0
CLASS
  1
DICTIONARYVAR
  2
AcDbDictionaryVar
  3
ObjectDBX Classes
 90
        0
 91
        7
280
     0
281
     0
  0
CLASS
  1
TABLESTYLE
  2
AcDbTableStyle
  3
ObjectDBX Classes
 90
     4095
 91
        1
280
     0
281
     0
  0
CLASS
  1
ACME_DOCUMENT
  2
AcMeDbDoc
  3
AcMeServices
 90
     1024
 91
        1
280
     0
281
     0
  0
CLASS
  1
AMGSETTINGSOBJ
  2
AmgSettingsObj
  3
"AcadM|Product Description: AutoCAD Mechanical|Company: Autodesk, Inc."
 90
     1024
 91
        2
280
     0
281
     0
  0
CLASS
  1
ACMESCOPE
  2
AcMeScope
  3
AcMeServices
 90
     1024
 91
        1
280
     0
281
     0
  0
CLASS
  1
ACMECOMMANDHISTORY
  2
AcMeCommandHistory
  3
AcMeServices
 90
     1024
 91
        1
280
     0
281
     0
  0
CLASS
  1
ACIMSYSVARMAN
  2
AcImSysVarManager
  3
AcMeServices
 90
     1024
 91
        6
280
     0
281
     0
  0
CLASS
  1
ACIMREALSYSVAR
  2
AcImRealSysVar
  3
AcMeServices
 90
     1024
 91
       16
280
     0
281
     0
  0
CLASS
  1
ACIMINTSYSVAR
  2
AcImIntSysVar
  3
AcMeServices
 90
     1024
 91
       45
280
     0
281
     0
  0
CLASS
  1
ACMEDRAWINGMAN
  2
AcMeDrawingMan
  3
AcMeServices
 90
     1024
 91
        1
280
     0
281
     0
  0
CLASS
  1
ACMEVIEW
  2
AcMeView
  3
AcMeServices
 90
     1024
 91
        1
280
     0
281
     0
  0
CLASS
  1
ACDBENTITYCACHE
  2
AcMeEntityCache
  3
AcMeServices
 90
     1024
 91
        1
280
     0
281
     0
  0
CLASS
  1
GSMANAGER
  2
AcMeGSManager
  3
AcMeServices
 90
     1024
 91
        1
280
     0
281
     0
  0
CLASS
  1
AMDTINTERNALREACTOR
  2
AmdtInternalReactor
  3
AcMeServices
 90
     1024
 91
        2
280
     0
281
     0
  0
CLASS
  1
ACMESTATEMGR
  2
AcMeStateMgr
  3
AcMeServices
 90
     1024
 91
        1
280
     0
281
     0
  0
CLASS
  1
ACGREFMASTER
  2
AcGrefMaster
  3
AcAttribServices
 90
     1024
 91
        1
280
     0
281
     0
  0
CLASS
  1
AM_DRAWING_MGR
  2
AcDmDwgMgr
  3
AcMechDwgViewMgmt
 90
     1024
 91
        1
280
     0
281
     0
  0
CLASS
  1
AM_DWG_DOCUMENT
  2
AcDmDwgDocument
  3
AcMechDwgViewMgmt
 90
     1024
 91
        1
280
     0
281
     0
  0
CLASS
  1
AM_DWG_SHEET
  2
AcDmSheet
  3
AcMechDwgViewMgmt
 90
     1024
 91
        1
280
     0
281
     0
  0
CLASS
  1
AM_VIEWDIMPARMAP
  2
AcDmViewDimParMap
  3
AcMechDwgViewMgmt
 90
     1024
 91
        1
280
     0
281
     0
  0
CLASS
  1
AM_DWGMGR_NAME
  2
AcDmDwgMgrName
  3
AcMechDwgViewMgmt
 90
     1024
 91
        1
280
     0
281
     0
  0
CLASS
  1
ACME_DATABASE
  2
AcMeDbDatabase
  3
AcMeServices
 90
     1024
 91
        1
280
     0
281
     0
  0
CLASS
  1
ACRFINSADJUSTERMGR
  2
AcRfInsAdjusterMgr
  3
AcMeServices
 90
     1024
 91
        1
280
     0
281
     0
  0
CLASS
  1
ACGREFACADMASTER
  2
AcGrefacadMaster
  3
AcGrefServices
 90
     1024
 91
        1
280
     0
281
     0
  0
CLASS
  1
AMDTMENUSTATEMGR
  2
AmdtMenuStateMgr
  3
McadcomServices
 90
     1024
 91
        1
280
     0
281
     0
  0
CLASS
  1
AMDTMCOMMENUSTATE
  2
AmdtMcomMenuState
  3
McadcomServices
 90
     1024
 91
        1
280
     0
281
     0
  0
CLASS
  1
AMIMASTER
  2
AmiMaster
  3
AmiServices
 90
     1024
 91
        1
280
     0
281
     0
  0
CLASS
  1
ASAPP
  2
AcAsAppObject
  3
AutoSurfServices
 90
     1024
 91
        1
280
     0
281
     0
  0
CLASS
  1
IM_STATIC_MAN
  2
AcImStaticVarManager
  3
AcMeServices
 90
     1024
 91
        1
280
     0
281
     0
  0
CLASS
  1
ACIMSTRSYSVAR
  2
AcImStrSysVar
  3
AcMeServices
 90
     1024
 91
       11
280
     0
281
     0
  0
CLASS
  1
ACIMDBLSTATICVAR
  2
AcImDblStaticVar
  3
AcMeServices
 90
     1024
 91
       20
280
     0
281
     0
  0
CLASS
  1
ACIMSTRSTATICVAR
  2
AcImStrStaticVar
  3
AcMeServices
 90
     1024
 91
       12
280
     0
281
     0
  0
CLASS
  1
ACIMINTSTATICVAR
  2
AcImIntStaticVar
  3
AcMeServices
 90
     1024
 91
       17
280
     0
281
     0
  0
CLASS
  1
ACASGREFMASTER
  2
AcAsGrefMaster
  3
AutoSurfResolverServices
 90
     1024
 91
        1
280
     0
281
     0
  0
CLASS
  1
ACADGREFMODULE
  2
AcAdGrefModule
  3
AdGrefServices
 90
     1024
 91
        1
280
     0
281
     0
  0
CLASS
  1
AMDTMAPISURFMOUDULE
  2
AmdtMApiSurfModule
  3
MApiSurfServices
 90
     1024
 91
        0
280
     0
281
     0
  0
CLASS
  1
MAPIAMMOUDLE
  2
MApiAmModule
  3
MApiAmServices
 90
     1024
 91
        1
280
     0
281
     0
  0
CLASS
  1
AMDTADMENUSTATE
  2
AmdtAdMenuState
  3
DesignerServices
 90
     1024
 91
        1
280
     0
281
     0
  0
CLASS
  1
ADAPPL
  2
AcAdAppl
  3
DesignerServices
 90
     1024
 91
        1
280
     0
281
     0
  0
CLASS
  1
DEPMGR
  2
AcAdDepMgr
  3
DesignerServices
 90
     1024
 91
        1
280
     0
281
     0
  0
CLASS
  1
PARAMMGR
  2
AcAdParamMgr
  3
DesignerServices
 90
     1024
 91
        1
280
     0
281
     0
  0
CLASS
  1
PARAMSCOPE
  2
AcAdParamScope
  3
DesignerServices
 90
     1024
 91
        1
280
     0
281
     0
  0
CLASS
  1
NAMEDAPPL
  2
AcAdNamedAppl
  3
DesignerServices
 90
     1024
 91
        1
280
     0
281
     0
  0
CLASS
  1
AMDTDMMENUSTATE
  2
AmdtDmMenuState
  3
AcMechDwgViewMgmt
 90
     1024
 91
        1
280
     0
281
     0
  0
CLASS
  1
MAPIADMODULE
  2
MApiAdModule
  3
MApiAdServices
 90
     1024
 91
        1
280
     0
281
     0
  0
CLASS
  1
AMDTAMMENUSTATE
  2
AmdtAmMenuState
  3
DesignerAssemblies
 90
     1024
 91
        1
280
     0
281
     0
  0
CLASS
  1
ACAMPROJECT
  2
AcAmProject
  3
DesignerAssemblies
 90
     1024
 91
        1
280
     0
281
     0
  0
CLASS
  1
ACAMGRCOMPDEF
  2
AcAmGrCompDef
  3
DesignerAssemblies
 90
     1024
 91
        1
280
     0
281
     0
  0
CLASS
  1
ACCMCONTEXT
  2
AcCmContext
  3
DesignerAssemblies
 90
     1024
 91
        1
280
     0
281
     0
  0
CLASS
  1
ACAMCOMPDEF
  2
AcAmCompDef
  3
DesignerAssemblies
 90
     1024
 91
        1
280
     0
281
     0
  0
CLASS
  1
ACAMCOMPDEFMGR
  2
AcAmCompDefMgr
  3
DesignerAssemblies
 90
     1024
 91
        1
280
     0
281
     0
  0
CLASS
  1
AMCONTEXTMGR
  2
AcAmContextMgr
  3
DesignerAssemblies
 90
     1024
 91
        1
280
     0
281
     0
  0
CLASS
  1
ACAMCONTEXTMODELER
  2
AcAmContextModeler
  3
DesignerAssemblies
 90
     1024
 91
        1
280
     0
281
     0
  0
CLASS
  1
ACMDATADICTIONARY
  2
AcmDataDictionary
  3
"AcmSymBB|Product Description: AutoCAD Mechanical|Company: Autodesk, Inc."
 90
     1024
 91
        1
280
     0
281
     0
  0
CLASS
  1
ACMDATAENTRYBLOCK
  2
AcmDataEntryBlock
  3
AcmSymBB|Product Description: AutoCAD Mechanical|Company: Autodesk, Inc.
 90
     1024
 91
        1
280
     0
281
     0
  0
CLASS
  1
CATALOGSTATE
  2
AcAmCatalogState
  3
DesignerAssemblies
 90
     1024
 91
        1
280
     0
281
     0
  0
CLASS
  1
ACAMGRCOMPDEFSET
  2
AcAmGrCompDefSet
  3
DesignerAssemblies
 90
     1024
 91
        1
280
     0
281
     0
  0
CLASS
  1
AMDTBROWSERDBTAB
  2
AmdtBrowserDbTab
  3
McadcomServices
 90
     1024
 91
        1
280
     0
281
     0
  0
CLASS
  1
CBROWSERAPPOBJECT
  2
CBrowserAppObject
  3
McadcomServices
 90
     1024
 91
        3
280
     0
281
     0
  0
CLASS
  1
DM_PLACEHOLDER
  2
AcDmSelsetPlaceholder
  3
AcMechDwgViewMgmt
 90
     1024
 91
        1
280
     0
281
     0
  0
CLASS
  1
ACMSTANDARDANSI
  2
AcmStandardANSI
  3
"Amdt_StdImp|Product Description: AutoCAD Mechanical|Company: Autodesk, Inc."
 90
     1024
 91
        1
280
     0
281
     0
  0
CLASS
  1
AMGOBJPROPCFG
  2
AmgObjPropCfg
  3
"AmgLay|Product Description: AutoCAD Mechanical|Company: Autodesk, Inc."
 90
     1025
 91
        1
280
     0
281
     0
  0
CLASS
  1
ACMSURFSTANDARDANSI
  2
AcmSurfTextStdANSI
  3
"Amdt_StdImp|Product Description: AutoCAD Mechanical|Company: Autodesk, Inc."
 90
     1024
 91
        1
280
     0
281
     0
  0
CLASS
  1
ACMFCFSTANDARDANSI
  2
AcmFCFStdANSI
  3
"Amdt_StdImp|Product Description: AutoCAD Mechanical|Company: Autodesk, Inc."
 90
     1024
 91
        1
280
     0
281
     0
  0
CLASS
  1
ACMWELDSTANDARDANSI
  2
AcmWeldingStdANSI
  3
"Amdt_StdImp|Product Description: AutoCAD Mechanical|Company: Autodesk, Inc."
 90
     1024
 91
        1
280
     0
281
     0
  0
CLASS
  1
ACMIDSTANDARDANSI
  2
AcmIdStdANSI
  3
"Amdt_StdImp|Product Description: AutoCAD Mechanical|Company: Autodesk, Inc."
 90
     1024
 91
        1
280
     0
281
     0
  0
CLASS
  1
ACMDATUMSTANDARDANSI
  2
AcmDatumStdANSI
  3
"Amdt_StdImp|Product Description: AutoCAD Mechanical|Company: Autodesk, Inc."
 90
     1024
 91
        1
280
     0
281
     0
  0
CLASS
  1
ACMBOMSTANDARDANSI
  2
AcmBOMStdANSI
  3
"Amdt_StdImp|Product Description: AutoCAD Mechanical|Company: Autodesk, Inc."
 90
     1024
 91
        1
280
     0
281
     0
  0
CLASS
  1
ACMDETAILSTANDARDANSI
  2
AmdtDetailSymStdANSI
  3
"Amdt_StdImp|Product Description: AutoCAD Mechanical|Company: Autodesk, Inc."
 90
     1024
 91
        1
280
     0
281
     0
  0
CLASS
  1
ACMSECTIONSTANDARDANSI
  2
AmdtSectionSymStdANSI
  3
"Amdt_StdImp|Product Description: AutoCAD Mechanical|Company: Autodesk, Inc."
 90
     1024
 91
        1
280
     0
281
     0
  0
CLASS
  1
ACMCENTERLINESTANDARDANSI
  2
AmdtCenterLineStdANSI
  3
"Amdt_StdImp|Product Description: AutoCAD Mechanical|Company: Autodesk, Inc."
 90
     1024
 91
        1
280
     0
281
     0
  0
CLASS
  1
ACMTHREADLINESTANDARDANSI
  2
AmdtThreadLineStdANSI
  3
"Amdt_StdImp|Product Description: AutoCAD Mechanical|Company: Autodesk, Inc."
 90
     1024
 91
        1
280
     0
281
     0
  0
CLASS
  1
ACMNOTESTANDARDANSI
  2
AmdtNoteStdANSI
  3
"Amdt_StdImp|Product Description: AutoCAD Mechanical|Company: Autodesk, Inc."
 90
     1024
 91
        1
280
     0
281
     0
  0
CLASS
  1
AMDTNOTETEMPLATEDB
  2
AmdtNoteTemplateDB
  3
AcmSymBB|Product Description: AutoCAD Mechanical|Company: Autodesk, Inc.
 90
     1024
 91
        6
280
     0
281
     0
  0
CLASS
  1
ACAMGLAYSTD
  2
AcAmgLayStd
  3
"AmgLay|Product Description: AutoCAD Mechanical|Company: Autodesk, Inc."
 90
     1024
 91
        1
280
     0
281
     0
  0
CLASS
  1
ACAMGDIMSTD
  2
AcAmgDimStd
  3
"AmgDim|Product Description: AutoCAD Mechanical|Company: Autodesk, Inc."
 90
     1024
 91
        1
280
     0
281
     0
  0
CLASS
  1
ACAMGHOLECHARTSTDANSI
  2
AcAmgHoleChartStdANSI
  3
AmgDim|Product Description: AutoCAD Mechanical|Company: Autodesk, Inc.
 90
     1024
 91
        1
280
     0
281
     0
  0
CLASS
  1
ACAMGTITLESTD
  2
AcAmgTitleStd
  3
"AmgTitle|Product Description: AutoCAD Mechanical|Company: Autodesk, Inc."
 90
     4095
 91
        1
280
     0
281
     0
  0
CLASS
  1
LAYER_INDEX
  2
AcDbLayerIndex
  3
ObjectDBX Classes
 90
        0
 91
        1
280
     0
281
     0
  0
CLASS
  1
IDBUFFER
  2
AcDbIdBuffer
  3
ObjectDBX Classes
 90
        0
 91
       12
280
     0
281
     0
  0
CLASS
  1
ACAMGFILTERDAT
  2
AcAmgFilterDat
  3
"AcadM|Product Description: AutoCAD Mechanical|Company: Autodesk, Inc."
 90
     1024
 91
        6
280
     0
281
     0
  0
CLASS
  1
MATERIAL
  2
AcDbMaterial
  3
ObjectDBX Classes
 90
     1153
 91
        3
280
     0
281
     0
  0
CLASS
  1
VISUALSTYLE
  2
AcDbVisualStyle
  3
ObjectDBX Classes
 90
     4095
 91
       16
280
     0
281
     0
  0
CLASS
  1
SCALE
  2
AcDbScale
  3
ObjectDBX Classes
 90
     1153
 91
       33
280
     0
281
     0
  0
CLASS
  1
MLEADERSTYLE
  2
AcDbMLeaderStyle
  3
ACDB_MLEADERSTYLE_CLASS
 90
     4095
 91
        1
280
     0
281
     0
  0
CLASS
  1
CELLSTYLEMAP
  2
AcDbCellStyleMap
  3
ObjectDBX Classes
 90
     1152
 91
        2
280
     0
281
     0
  0
CLASS
  1
SORTENTSTABLE
  2
AcDbSortentsTable
  3
ObjectDBX Classes
 90
        0
 91
        1
280
     0
281
     0
  0
CLASS
  1
ACRFATTGENMGR
  2
AcRfAttGeneralMgr
  3
AcAttribServices
 90
     1024
 91
        1
280
     0
281
     0
  0
CLASS
  1
ACRFOBJATTMGR
  2
AcRfObjAttGroupMgr
  3
AcAttribServices
 90
     1024
 91
        1
280
     0
281
     0
  0
CLASS
  1
ACRFMCADAPIATTHOLDER
  2
AcRfMCADAPIAttHolder
  3
AcAttribServices
 90
     1024
 91
        1
280
     0
281
     0
  0
CLASS
  1
AMDTSYSATTR
  2
AmdtSystemAttribute
  3
AcAttribServices
 90
     1024
 91
        1
280
     0
281
     0
  0
CLASS
  1
ACMTAPERSTANDARDANSI
  2
AcmTaperStdANSI
  3
"Amdt_StdImp|Product Description: AutoCAD Mechanical|Company: Autodesk, Inc."
 90
     1024
 91
        1
280
     0
281
     0
  0
CLASS
  1
ACMANOOTATIONVIEWSTANDARDANSI
  2
AmdtAnViewStdANSI
  3
"Amdt_StdImp|Product Description: AutoCAD Mechanical|Company: Autodesk, Inc."
 90
     1024
 91
        1
280
     0
281
     0
  0
ENDSEC
  0
SECTION
  2
TABLES
  0
TABLE
  2
VPORT
  5
849
330
0
100
AcDbSymbolTable
 70
     1
  0
VPORT
  5
114A
330
849
100
AcDbSymbolTableRecord
100
AcDbViewportTableRecord
  2
*Active
 70
     0
 10
0.0
 20
0.0
 11
1.0
 21
1.0
 12
-826.8812407652834
 22
62.09786239583627
 13
0.0
 23
0.0
 14
1.0
 24
1.0
 15
0.0
 25
0.0
 16
0.0
 26
0.0
 36
1.0
 17
934.2863508782066
 27
-1122.921835849267
 37
0.0
 40
1005.75380510481
 41
1.474093264248704
 42
50.0
 43
0.0
 44
0.0
 50
0.0
 51
0.0
 71
     0
 72
   100
 73
     1
 74
     0
 75
     0
 76
     0
 77
     0
 78
     0
281
     0
 65
     0
110
0.0
120
0.0
130
0.0
111
1.0
121
0.0
131
0.0
112
0.0
122
1.0
132
0.0
 79
     0
146
0.0
  0
ENDTAB
  0
TABLE
  2
LTYPE
  5
846
330
0
100
AcDbSymbolTable
 70
    19
  0
LTYPE
  5
854
330
846
100
AcDbSymbolTableRecord
100
AcDbLinetypeTableRecord
  2
BYBLOCK
 70
     0
  3

 72
    65
 73
     0
 40
0.0
  0
LTYPE
  5
855
330
846
100
AcDbSymbolTableRecord
100
AcDbLinetypeTableRecord
  2
BYLAYER
 70
     0
  3

 72
    65
 73
     0
 40
0.0
  0
LTYPE
  5
856
330
846
100
AcDbSymbolTableRecord
100
AcDbLinetypeTableRecord
  2
CONTINUOUS
 70
     0
  3
実線
 72
    65
 73
     0
 40
0.0
  0
LTYPE
  5
865
330
846
100
AcDbSymbolTableRecord
100
AcDbLinetypeTableRecord
  2
DASHDOT
 70
     0
  3
____ _ ____ _ ____ _ ____ _ ____ _ ____ _ ____
 72
    65
 73
     4
 40
5.5
 49
4.0
 74
     0
 49
-0.6
 74
     0
 49
0.3
 74
     0
 49
-0.6
 74
     0
  0
LTYPE
  5
F06
330
846
100
AcDbSymbolTableRecord
100
AcDbLinetypeTableRecord
  2
HIDDEN
 70
     0
  3
Hidden __ __ __ __ __ __ __ __ __ __ __ __ __ _
 72
    65
 73
     2
 40
0.375
 49
0.25
 74
     0
 49
-0.125
 74
     0
  0
LTYPE
  5
F07
330
846
100
AcDbSymbolTableRecord
100
AcDbLinetypeTableRecord
  2
PHANTOM2
 70
     0
  3
Phantom (.5x) ___ _ _ ___ _ _ ___ _ _ ___ _ _
 72
    65
 73
     6
 40
1.25
 49
0.625
 74
     0
 49
-0.125
 74
     0
 49
0.125
 74
     0
 49
-0.125
 74
     0
 49
0.125
 74
     0
 49
-0.125
 74
     0
  0
LTYPE
  5
F08
330
846
100
AcDbSymbolTableRecord
100
AcDbLinetypeTableRecord
  2
CENTER
 70
     0
  3
Center ____ _ ____ _ ____ _ ____ _ ____ _ ____
 72
    65
 73
     4
 40
2.0
 49
1.25
 74
     0
 49
-0.25
 74
     0
 49
0.25
 74
     0
 49
-0.25
 74
     0
  0
LTYPE
  5
F57
330
846
100
AcDbSymbolTableRecord
100
AcDbLinetypeTableRecord
  2
ASULTYPE
 70
     0
  3
実線
 72
    65
 73
     2
 40
3.0
 49
2.5
 74
     0
 49
0.5
 74
     0
  0
LTYPE
  5
F58
330
846
100
AcDbSymbolTableRecord
100
AcDbLinetypeTableRecord
  2
ASVLTYPE
 70
     0
  3
__ __ __ __ __ __ __ __ __ __ __ __ __ __ __ __ __ __ __ __ __
 72
    65
 73
     2
 40
0.75
 49
0.5
 74
     0
 49
-0.25
 74
     0
  0
LTYPE
  5
F9F
330
846
100
AcDbSymbolTableRecord
100
AcDbLinetypeTableRecord
  2
AM_ISO02W050
 70
     0
  3
__ __ __ __ __ __ __ __ __ __ __ __ __ __ __
 72
    65
 73
     2
 40
7.5
 49
6.0
 74
     0
 49
-1.5
 74
     0
  0
LTYPE
  5
FA0
330
846
100
AcDbSymbolTableRecord
100
AcDbLinetypeTableRecord
  2
AM_ISO08W050
 70
     0
  3
____ . ____ . ____ . ____ . ____ . ____ . ____
 72
    65
 73
     4
 40
18.0
 49
12.0
 74
     0
 49
-1.5
 74
     0
 49
3.0
 74
     0
 49
-1.5
 74
     0
  0
LTYPE
  5
FA1
330
846
100
AcDbSymbolTableRecord
100
AcDbLinetypeTableRecord
  2
AM_ISO09W050
 70
     0
  3
_____ . . _____ . . _____ . . ____ .. ____
 72
    65
 73
     6
 40
22.5
 49
12.0
 74
     0
 49
-1.5
 74
     0
 49
3.0
 74
     0
 49
-1.5
 74
     0
 49
3.0
 74
     0
 49
-1.5
 74
     0
  0
LTYPE
  5
FA2
330
846
100
AcDbSymbolTableRecord
100
AcDbLinetypeTableRecord
  2
Amconstr
 70
     0
  3
_______________________
 72
    65
 73
     2
 40
9999.0
 49
9999.0
 74
     0
 49
0.0
 74
     0
  0
LTYPE
  5
FA3
330
846
100
AcDbSymbolTableRecord
100
AcDbLinetypeTableRecord
  2
AM_ISO08W050x2
 70
     0
  3
__ . __ . __ . __ . __ . __
 72
    65
 73
     4
 40
9.0
 49
6.0
 74
     0
 49
-0.75
 74
     0
 49
1.5
 74
     0
 49
-0.75
 74
     0
  0
LTYPE
  5
FA4
330
846
100
AcDbSymbolTableRecord
100
AcDbLinetypeTableRecord
  2
AM_ISO02W050x2
 70
     0
  3
 _ _ _ _ _ _ _ _ _ _ _ _
 72
    65
 73
     2
 40
3.75
 49
3.0
 74
     0
 49
-0.75
 74
     0
  0
LTYPE
  5
FA7
330
846
100
AcDbSymbolTableRecord
100
AcDbLinetypeTableRecord
  2
Amzigzag
 70
     0
  3
/\/-/\/-/\/-/\/-/\/-/\/
 72
    65
 73
     2
 40
11.0001
 49
0.0001
 74
     4
 75
   136
340
FA6
 46
0.04
 50
0.0
 44
0.0
 45
0.0
 49
-11.0
 74
     0
  0
LTYPE
  5
FA8
330
846
100
AcDbSymbolTableRecord
100
AcDbLinetypeTableRecord
  2
CENTER2
 70
     0
  3
Center (.5x) ___ _ ___ _ ___ _ ___ _ ___ _ ___
 72
    65
 73
     4
 40
1.125
 49
0.75
 74
     0
 49
-0.125
 74
     0
 49
0.125
 74
     0
 49
-0.125
 74
     0
  0
LTYPE
  5
FA9
330
846
100
AcDbSymbolTableRecord
100
AcDbLinetypeTableRecord
  2
HIDDEN2
 70
     0
  3
Hidden (.5x) _ _ _ _ _ _ _ _ _ _ _ _ _ _ _ _ _
 72
    65
 73
     2
 40
0.1875
 49
0.125
 74
     0
 49
-0.0625
 74
     0
  0
LTYPE
  5
FAA
330
846
100
AcDbSymbolTableRecord
100
AcDbLinetypeTableRecord
  2
Amzigzag2
 70
     0
  3
/\/-/\/-/\/-/\/-/\/-/\/
 72
    65
 73
     2
 40
0.4401
 49
0.0001
 74
     4
 75
   136
340
FA6
 46
0.0016
 50
0.0
 44
0.0
 45
0.0
 49
-0.4400000000000003
 74
     0
  0
LTYPE
  5
FB8
330
846
100
AcDbSymbolTableRecord
100
AcDbLinetypeTableRecord
  2
ACANSTGB
 70
     0
  3
__ . . __ . .
 72
    65
 73
     6
 40
0.35433070866
 49
0.15748031496
 74
     0
 49
-0.03937007874
 74
     0
 49
0.03937007874
 74
     0
 49
-0.03937007874
 74
     0
 49
0.03937007874
 74
     0
 49
-0.03937007874
 74
     0
  0
LTYPE
  5
FB9
330
846
100
AcDbSymbolTableRecord
100
AcDbLinetypeTableRecord
  2
ACANSTGL
 70
     0
  3
_ _ _ _ _
 72
    65
 73
     2
 40
0.11811023622
 49
0.07874015748
 74
     0
 49
-0.03937007874
 74
     0
  0
ENDTAB
  0
TABLE
  2
LAYER
  5
843
102
{ACAD_XDICTIONARY
360
14DD
102
}
330
0
100
AcDbSymbolTable
 70
    12
  0
LAYER
  5
851
102
{ACAD_XDICTIONARY
360
11FF
102
}
330
843
100
AcDbSymbolTableRecord
100
AcDbLayerTableRecord
  2
0
 70
     0
 62
     7
  6
CONTINUOUS
370
    -3
390
B83
  0
LAYER
  5
863
102
{ACAD_XDICTIONARY
360
1201
102
}
330
843
100
AcDbSymbolTableRecord
100
AcDbLayerTableRecord
  2
OUTLINE
 70
     0
 62
     3
  6
CONTINUOUS
370
    -3
390
B83
  0
LAYER
  5
866
102
{ACAD_XDICTIONARY
360
1203
102
}
330
843
100
AcDbSymbolTableRecord
100
AcDbLayerTableRecord
  2
SIZE
 70
     0
 62
    30
  6
CONTINUOUS
370
    -3
390
B83
  0
LAYER
  5
867
102
{ACAD_XDICTIONARY
360
1205
102
}
330
843
100
AcDbSymbolTableRecord
100
AcDbLayerTableRecord
  2
BASIS
 70
     0
 62
     6
  6
DASHDOT
370
    -3
390
B83
  0
LAYER
  5
868
102
{ACAD_XDICTIONARY
360
1207
102
}
330
843
100
AcDbSymbolTableRecord
100
AcDbLayerTableRecord
  2
DETAIL
 70
     0
 62
     5
  6
CONTINUOUS
370
    -3
390
B83
  0
LAYER
  5
869
102
{ACAD_XDICTIONARY
360
1209
102
}
330
843
100
AcDbSymbolTableRecord
100
AcDbLayerTableRecord
  2
ARRANGE
 70
     0
 62
     1
  6
CONTINUOUS
370
    -3
390
B83
  0
LAYER
  5
86A
330
843
100
AcDbSymbolTableRecord
100
AcDbLayerTableRecord
  2
DEFPOINTS
 70
     0
 62
     7
  6
CONTINUOUS
290
     0
370
    -3
390
B83
  0
LAYER
  5
86B
102
{ACAD_XDICTIONARY
360
120B
102
}
330
843
100
AcDbSymbolTableRecord
100
AcDbLayerTableRecord
  2
ETC
 70
     0
 62
    61
  6
CONTINUOUS
370
    -3
390
B83
  0
LAYER
  5
86C
102
{ACAD_XDICTIONARY
360
120D
102
}
330
843
100
AcDbSymbolTableRecord
100
AcDbLayerTableRecord
  2
FIX
 70
     0
 62
    11
  6
CONTINUOUS
370
    -3
390
B83
  0
LAYER
  5
86D
102
{ACAD_XDICTIONARY
360
120F
102
}
330
843
100
AcDbSymbolTableRecord
100
AcDbLayerTableRecord
  2
NOTE
 70
     0
 62
     4
  6
CONTINUOUS
370
    -3
390
B83
  0
LAYER
  5
86E
102
{ACAD_XDICTIONARY
360
1211
102
}
330
843
100
AcDbSymbolTableRecord
100
AcDbLayerTableRecord
  2
SERVICESPACE
 70
     0
 62
     2
  6
DASHDOT
370
    -3
390
B83
  0
LAYER
  5
86F
102
{ACAD_XDICTIONARY
360
1213
102
}
330
843
100
AcDbSymbolTableRecord
100
AcDbLayerTableRecord
  2
SYMBOLLINE
 70
     0
 62
    15
  6
CONTINUOUS
370
    -3
390
B83
  0
ENDTAB
  0
TABLE
  2
STYLE
  5
844
330
0
100
AcDbSymbolTable
 70
     5
  0
STYLE
  5
852
330
844
100
AcDbSymbolTableRecord
100
AcDbTextStyleTableRecord
  2
STANDARD
 70
     0
 40
64.0
 41
0.9
 50
0.0
 71
     0
 42
64.0
  3
SIMPLEX.shx
  4
BIGFONT.shx
  0
STYLE
  5
FA6
330
844
100
AcDbSymbolTableRecord
100
AcDbTextStyleTableRecord
  2

 70
     1
 40
0.0
 41
1.0
 50
0.0
 71
     0
 42
64.0
  3
genltshp.shx
  4

  0
STYLE
  5
FAB
330
844
100
AcDbSymbolTableRecord
100
AcDbTextStyleTableRecord
  2
ACANSTS
 70
     0
 40
1.0
 41
1.0
 50
0.0
 71
     0
 42
64.0
  3
romans.shx
  4
extfont.shx
  0
STYLE
  5
FB7
330
844
100
AcDbSymbolTableRecord
100
AcDbTextStyleTableRecord
  2
ACANSGDT
 70
     0
 40
0.0
 41
1.0
 50
0.0
 71
     0
 42
64.0
  3
amgdt.shx
  4

  0
STYLE
  5
14D8
330
844
100
AcDbSymbolTableRecord
100
AcDbTextStyleTableRecord
  2
ADESK1
 70
     0
 40
0.0
 41
1.0
 50
0.0
 71
     0
 42
0.12
  3
romanc.shx
  4
extfont.shx
  0
ENDTAB
  0
TABLE
  2
VIEW
  5
847
330
0
100
AcDbSymbolTable
 70
     2
  0
VIEW
  5
870
330
847
100
AcDbSymbolTableRecord
100
AcDbViewTableRecord
  2
ALL
 70
     0
 40
4282.619807999997
 10
0.0
 20
41.30990399999999
 41
5940.0
 11
0.0
 21
0.0
 31
1.0
 12
0.0
 22
0.0
 32
0.0
 42
50.0
 43
0.0
 44
0.0
 50
0.0
 71
     0
281
     0
 72
     0
  0
ENDTAB
  0
TABLE
  2
UCS
  5
848
330
0
100
AcDbSymbolTable
 70
     0
  0
ENDTAB
  0
TABLE
  2
APPID
  5
84A
330
0
100
AcDbSymbolTable
 70
    26
  0
APPID
  5
853
330
84A
100
AcDbSymbolTableRecord
100
AcDbRegAppTableRecord
  2
ACAD
 70
     0
  0
APPID
  5
ED2
330
84A
100
AcDbSymbolTableRecord
100
AcDbRegAppTableRecord
  2
GENIUS_GENDIM_13
 70
     0
  0
APPID
  5
ED3
330
84A
100
AcDbSymbolTableRecord
100
AcDbRegAppTableRecord
  2
GENIUS_GENDTOL_13
 70
     0
  0
APPID
  5
ED4
330
84A
100
AcDbSymbolTableRecord
100
AcDbRegAppTableRecord
  2
GENIUS_GE3DTOL_13
 70
     0
  0
APPID
  5
ED7
330
84A
100
AcDbSymbolTableRecord
100
AcDbRegAppTableRecord
  2
MCAD_NO_VIS
 70
     0
  0
APPID
  5
ED8
330
84A
100
AcDbSymbolTableRecord
100
AcDbRegAppTableRecord
  2
ACAD_TEMP_GRAPHIC
 70
     0
  0
APPID
  5
F0A
330
84A
100
AcDbSymbolTableRecord
100
AcDbRegAppTableRecord
  2
AD_DRAW
 70
     0
  0
APPID
  5
F0D
330
84A
100
AcDbSymbolTableRecord
100
AcDbRegAppTableRecord
  2
ACATTRIBSERVICES
 70
     0
  0
APPID
  5
F59
330
84A
100
AcDbSymbolTableRecord
100
AcDbRegAppTableRecord
  2
ASURF_PCURVE_APPNAME
 70
     0
  0
APPID
  5
F5E
330
84A
100
AcDbSymbolTableRecord
100
AcDbRegAppTableRecord
  2
AMG_3D2D_5.0
 70
     0
  0
APPID
  5
F8F
330
84A
100
AcDbSymbolTableRecord
100
AcDbRegAppTableRecord
  2
DESIGNERASSEMBLIES
 70
     0
  0
APPID
  5
F96
330
84A
100
AcDbSymbolTableRecord
100
AcDbRegAppTableRecord
  2
ACADM_DIM_EDIT
 70
     0
  0
APPID
  5
F97
330
84A
100
AcDbSymbolTableRecord
100
AcDbRegAppTableRecord
  2
AMDT_DM_ADJ
 70
     0
  0
APPID
  5
FC6
330
84A
100
AcDbSymbolTableRecord
100
AcDbRegAppTableRecord
  2
ACAD_DSTYLE_DIMARC_LENGTH_SYMBOL
 70
     0
  0
APPID
  5
FC7
330
84A
100
AcDbSymbolTableRecord
100
AcDbRegAppTableRecord
  2
ACAD_DSTYLE_DIMJOGGED_JOGANGLE_SYMBOL
 70
     0
  0
APPID
  5
1129
330
84A
100
AcDbSymbolTableRecord
100
AcDbRegAppTableRecord
  2
ACAD_PSEXT
 70
     0
  0
APPID
  5
11A2
330
84A
100
AcDbSymbolTableRecord
100
AcDbRegAppTableRecord
  2
ACAD_MLEADERVER
 70
     0
  0
APPID
  5
1229
330
84A
100
AcDbSymbolTableRecord
100
AcDbRegAppTableRecord
  2
ACAD_EXEMPT_FROM_CAD_STANDARDS
 70
     0
  0
APPID
  5
14DB
330
84A
100
AcDbSymbolTableRecord
100
AcDbRegAppTableRecord
  2
ACAD_DSTYLE_DIMJAG
 70
     0
  0
APPID
  5
14DC
330
84A
100
AcDbSymbolTableRecord
100
AcDbRegAppTableRecord
  2
ACAD_DSTYLE_DIMTALN
 70
     0
  0
APPID
  5
169B
330
84A
100
AcDbSymbolTableRecord
100
AcDbRegAppTableRecord
  2
ACAD_DSTYLE_DIM_LINETYPE
 70
     0
  0
APPID
  5
169C
330
84A
100
AcDbSymbolTableRecord
100
AcDbRegAppTableRecord
  2
ACAD_DSTYLE_DIM_EXT1_LINETYPE
 70
     0
  0
APPID
  5
169D
330
84A
100
AcDbSymbolTableRecord
100
AcDbRegAppTableRecord
  2
ACAD_DSTYLE_DIM_EXT2_LINETYPE
 70
     0
  0
APPID
  5
1BD7
330
84A
100
AcDbSymbolTableRecord
100
AcDbRegAppTableRecord
  2
GENIUS_GENSCREG_15
 70
     0
  0
APPID
  5
1BD8
330
84A
100
AcDbSymbolTableRecord
100
AcDbRegAppTableRecord
  2
GENIUS_GENODEF_13
 70
     0
  0
APPID
  5
1BD9
330
84A
100
AcDbSymbolTableRecord
100
AcDbRegAppTableRecord
  2
GENIUS_GENOBJ-N-SDF_13
 70
     0
  0
ENDTAB
  0
TABLE
  2
DIMSTYLE
  5
84B
330
0
100
AcDbSymbolTable
 70
     9
100
AcDbDimStyleTable
 71
     2
340
FC5
340
871
  0
DIMSTYLE
105
871
330
84B
100
AcDbSymbolTableRecord
100
AcDbDimStyleTableRecord
  2
STANDARD
 70
     0
275
     1
284
     8
285
     8
286
     8
340
852
  0
DIMSTYLE
105
FC5
330
84B
100
AcDbSymbolTableRecord
100
AcDbDimStyleTableRecord
  2
AM_ANSI
 70
     0
  4
mm
 41
0.12
 42
0.05
 43
0.5
 44
0.1
 47
0.1
 48
0.1
 78
     7
 79
     2
140
0.12
141
0.0
146
0.71
147
0.06
176
   256
177
   256
178
     2
274
     4
284
     7
340
852
371
    -1
372
    -1
1001
ACAD_DSTYLE_DIMJOGGED_JOGANGLE_SYMBOL
1070
   384
1040
0.7853981633974483
1001
ACAD_DSTYLE_DIMARC_LENGTH_SYMBOL
1070
   379
1070
     1
1001
ACAD_DSTYLE_DIM_LINETYPE
1070
   380
1005
854
1001
ACAD_DSTYLE_DIM_EXT1_LINETYPE
1070
   381
1005
854
1001
ACAD_DSTYLE_DIM_EXT2_LINETYPE
1070
   382
1005
854
  0
DIMSTYLE
105
FCE
330
84B
100
AcDbSymbolTableRecord
100
AcDbDimStyleTableRecord
  2
AM_ANSI$3
 70
     0
  4
mm
 41
0.12
 42
0.05
 43
0.5
 44
0.1
 47
0.1
 48
0.1
 78
     7
 79
     2
140
0.12
141
0.0
146
0.71
147
0.06
176
   256
177
   256
178
     2
274
     4
284
     7
288
     1
289
     0
340
852
371
    -1
372
    -1
1001
ACAD_DSTYLE_DIMJOGGED_JOGANGLE_SYMBOL
1070
   384
1040
0.7853981633974483
1001
ACAD_DSTYLE_DIMARC_LENGTH_SYMBOL
1070
   379
1070
     1
1001
ACAD_DSTYLE_DIM_LINETYPE
1070
   380
1005
854
1001
ACAD_DSTYLE_DIM_EXT1_LINETYPE
1070
   381
1005
854
1001
ACAD_DSTYLE_DIM_EXT2_LINETYPE
1070
   382
1005
854
  0
DIMSTYLE
105
FD1
330
84B
100
AcDbSymbolTableRecord
100
AcDbDimStyleTableRecord
  2
AM_ANSI$4
 70
     0
  4
mm
 41
0.12
 42
0.05
 43
0.5
 44
0.1
 47
0.1
 48
0.1
 78
     7
 79
     2
140
0.12
141
0.0
146
0.71
147
0.06
176
   256
177
   256
178
     2
274
     4
284
     7
340
852
371
    -1
372
    -1
1001
ACAD_DSTYLE_DIMJOGGED_JOGANGLE_SYMBOL
1070
   384
1040
0.7853981633974483
1001
ACAD_DSTYLE_DIMARC_LENGTH_SYMBOL
1070
   379
1070
     1
1001
ACAD_DSTYLE_DIM_LINETYPE
1070
   380
1005
854
1001
ACAD_DSTYLE_DIM_EXT1_LINETYPE
1070
   381
1005
854
1001
ACAD_DSTYLE_DIM_EXT2_LINETYPE
1070
   382
1005
854
  0
DIMSTYLE
105
FD6
330
84B
100
AcDbSymbolTableRecord
100
AcDbDimStyleTableRecord
  2
AM_ANSI$7
 70
     0
  4
mm
 41
0.12
 42
0.05
 43
0.5
 44
0.1
 47
0.1
 48
0.1
 78
     7
 79
     2
140
0.12
141
0.0
146
0.71
147
0.06
176
   256
177
   256
178
     2
274
     4
284
     7
340
852
371
    -1
372
    -1
1001
ACAD_DSTYLE_DIMJOGGED_JOGANGLE_SYMBOL
1070
   384
1040
0.7853981633974483
1001
ACAD_DSTYLE_DIMARC_LENGTH_SYMBOL
1070
   379
1070
     1
1001
ACAD_DSTYLE_DIM_LINETYPE
1070
   380
1005
854
1001
ACAD_DSTYLE_DIM_EXT1_LINETYPE
1070
   381
1005
854
1001
ACAD_DSTYLE_DIM_EXT2_LINETYPE
1070
   382
1005
854
  0
DIMSTYLE
105
FD9
330
84B
100
AcDbSymbolTableRecord
100
AcDbDimStyleTableRecord
  2
AM_ANSI$SF
 70
     0
  4
mm
 41
0.12
 42
0.05
 43
0.5
 44
0.1
 47
0.1
 48
0.1
 75
     1
 76
     1
 78
     7
 79
     2
140
0.12
141
0.0
146
0.71
147
0.06
176
   256
177
   256
178
     2
274
     4
284
     7
340
852
371
    -1
372
    -1
1001
ACAD_DSTYLE_DIMJOGGED_JOGANGLE_SYMBOL
1070
   384
1040
0.7853981633974483
1001
ACAD_DSTYLE_DIMARC_LENGTH_SYMBOL
1070
   379
1070
     1
1001
ACAD_DSTYLE_DIM_LINETYPE
1070
   380
1005
854
1001
ACAD_DSTYLE_DIM_EXT1_LINETYPE
1070
   381
1005
854
1001
ACAD_DSTYLE_DIM_EXT2_LINETYPE
1070
   382
1005
854
  0
DIMSTYLE
105
FE0
330
84B
100
AcDbSymbolTableRecord
100
AcDbDimStyleTableRecord
  2
AM_ANSI$SH
 70
     0
  4
mm
 41
0.12
 42
0.05
 43
0.5
 44
0.1
 47
0.1
 48
0.1
 75
     1
 76
     1
 78
     7
 79
     2
140
0.12
141
0.0
146
0.71
147
0.06
173
     1
176
   256
177
   256
178
     2
274
     4
284
     7
340
852
343
FDA
371
    -1
372
    -1
1001
ACAD_DSTYLE_DIMJOGGED_JOGANGLE_SYMBOL
1070
   384
1040
0.7853981633974483
1001
ACAD_DSTYLE_DIMARC_LENGTH_SYMBOL
1070
   379
1070
     1
1001
ACAD_DSTYLE_DIM_LINETYPE
1070
   380
1005
854
1001
ACAD_DSTYLE_DIM_EXT1_LINETYPE
1070
   381
1005
854
1001
ACAD_DSTYLE_DIM_EXT2_LINETYPE
1070
   382
1005
854
  0
DIMSTYLE
105
14D9
330
84B
100
AcDbSymbolTableRecord
100
AcDbDimStyleTableRecord
  2
STANDARD1
 70
     0
 40
6.0
 41
2.5
 42
0.625
 43
6.0
 44
1.25
 47
1.0
 48
0.5
 77
     1
 78
     8
140
2.5
141
0.0
146
0.6
147
1.0
173
     1
284
     1
340
852
341
AB7
343
AB7
344
AB7
  0
DIMSTYLE
105
14DA
102
{ACAD_REACTORS
330
1AB3
330
1AB4
330
1ABB
102
}
330
84B
100
AcDbSymbolTableRecord
100
AcDbDimStyleTableRecord
  2
STANDARD$0
 70
     0
 41
12.0
 42
20.0
 44
20.0
 73
     0
 74
     0
 77
     1
 78
     9
140
64.0
141
0.0
147
10.0
271
     0
272
     0
275
     1
284
     8
285
     8
286
     8
340
852
341
AB7
342
AB2
1001
ACAD_DSTYLE_DIMJAG
1070
   388
1040
1.5
1001
ACAD_DSTYLE_DIMTALN
1070
   392
1070
     0
  0
ENDTAB
  0
TABLE
  2
BLOCK_RECORD
  5
842
330
0
100
AcDbSymbolTable
 70
    25
  0
BLOCK_RECORD
  5
85F
102
{ACAD_XDICTIONARY
360
B4F
102
}
330
842
100
AcDbSymbolTableRecord
100
AcDbBlockTableRecord
  2
*MODEL_SPACE
340
B84
  0
BLOCK_RECORD
  5
85B
102
{ACAD_XDICTIONARY
360
B4D
102
}
330
842
100
AcDbSymbolTableRecord
100
AcDbBlockTableRecord
  2
*PAPER_SPACE
340
B85
  0
BLOCK_RECORD
  5
87E
330
842
100
AcDbSymbolTableRecord
100
AcDbBlockTableRecord
  2
_ORIGIN
340
0
  0
BLOCK_RECORD
  5
AB2
330
842
100
AcDbSymbolTableRecord
100
AcDbBlockTableRecord
  2
_DOTBLANK
340
0
102
{BLKREFS
331
E80
331
E81
331
1123
331
1124
331
11AA
331
11AB
331
11C2
331
11C3
331
11EC
331
11ED
331
11F9
331
11FA
331
1287
331
1288
331
1299
331
129A
331
14B9
331
14BA
331
14C5
331
14C6
331
14D1
331
14D2
331
1677
331
1678
331
1680
331
1681
331
1689
331
168A
331
1783
331
1784
331
178F
331
1790
331
179B
331
179C
331
1AC3
331
1AC4
331
1ACF
331
1AD0
331
1ADB
331
1ADC
102
}
  0
BLOCK_RECORD
  5
AB7
330
842
100
AcDbSymbolTableRecord
100
AcDbBlockTableRecord
  2
_OPEN30
340
0
  0
BLOCK_RECORD
  5
D67
330
842
100
AcDbSymbolTableRecord
100
AcDbBlockTableRecord
  2
*D3
340
0
  0
BLOCK_RECORD
  5
E06
330
842
100
AcDbSymbolTableRecord
100
AcDbBlockTableRecord
  2
*D4
340
0
  0
BLOCK_RECORD
  5
E71
330
842
100
AcDbSymbolTableRecord
100
AcDbBlockTableRecord
  2
*D5
340
0
  0
BLOCK_RECORD
  5
FDA
330
842
100
AcDbSymbolTableRecord
100
AcDbBlockTableRecord
  2
GENAXEH
340
0
  0
BLOCK_RECORD
  5
1114
330
842
100
AcDbSymbolTableRecord
100
AcDbBlockTableRecord
  2
*D7
340
0
  0
BLOCK_RECORD
  5
11BA
330
842
100
AcDbSymbolTableRecord
100
AcDbBlockTableRecord
  2
*D8
340
0
  0
BLOCK_RECORD
  5
11E4
330
842
100
AcDbSymbolTableRecord
100
AcDbBlockTableRecord
  2
*D9
340
0
  0
BLOCK_RECORD
  5
11F3
330
842
100
AcDbSymbolTableRecord
100
AcDbBlockTableRecord
  2
*D10
340
0
  0
BLOCK_RECORD
  5
1281
330
842
100
AcDbSymbolTableRecord
100
AcDbBlockTableRecord
  2
*D11
340
0
  0
BLOCK_RECORD
  5
14B4
330
842
100
AcDbSymbolTableRecord
100
AcDbBlockTableRecord
  2
*D12
340
0
  0
BLOCK_RECORD
  5
14C0
330
842
100
AcDbSymbolTableRecord
100
AcDbBlockTableRecord
  2
*D13
340
0
  0
BLOCK_RECORD
  5
14CC
330
842
100
AcDbSymbolTableRecord
100
AcDbBlockTableRecord
  2
*D14
340
0
  0
BLOCK_RECORD
  5
1593
330
842
100
AcDbSymbolTableRecord
100
AcDbBlockTableRecord
  2
*D15
340
0
  0
BLOCK_RECORD
  5
159F
330
842
100
AcDbSymbolTableRecord
100
AcDbBlockTableRecord
  2
*D16
340
0
  0
BLOCK_RECORD
  5
15AB
330
842
100
AcDbSymbolTableRecord
100
AcDbBlockTableRecord
  2
*D17
340
0
  0
BLOCK_RECORD
  5
177E
330
842
100
AcDbSymbolTableRecord
100
AcDbBlockTableRecord
  2
*D18
340
0
  0
BLOCK_RECORD
  5
178A
330
842
100
AcDbSymbolTableRecord
100
AcDbBlockTableRecord
  2
*D19
340
0
  0
BLOCK_RECORD
  5
1796
330
842
100
AcDbSymbolTableRecord
100
AcDbBlockTableRecord
  2
*D20
340
0
  0
BLOCK_RECORD
  5
1ABD
330
842
100
AcDbSymbolTableRecord
100
AcDbBlockTableRecord
  2
*D21
340
0
  0
BLOCK_RECORD
  5
1AC9
330
842
100
AcDbSymbolTableRecord
100
AcDbBlockTableRecord
  2
*D22
340
0
  0
BLOCK_RECORD
  5
1AD5
330
842
100
AcDbSymbolTableRecord
100
AcDbBlockTableRecord
  2
*D23
340
0
  0
ENDTAB
  0
ENDSEC
  0
SECTION
  2
BLOCKS
  0
BLOCK
  5
860
330
85F
100
AcDbEntity
  8
0
100
AcDbBlockBegin
  2
*MODEL_SPACE
 70
     0
 10
0.0
 20
0.0
 30
0.0
  3
*MODEL_SPACE
  1

  0
ENDBLK
  5
861
330
85F
100
AcDbEntity
  8
0
100
AcDbBlockEnd
  0
BLOCK
  5
85C
330
85B
100
AcDbEntity
 67
     1
  8
0
100
AcDbBlockBegin
  2
*PAPER_SPACE
 70
     0
 10
0.0
 20
0.0
 30
0.0
  3
*PAPER_SPACE
  1

  0
ENDBLK
  5
85D
330
85B
100
AcDbEntity
 67
     1
  8
0
100
AcDbBlockEnd
  0
BLOCK
  5
87F
330
87E
100
AcDbEntity
  8
0
100
AcDbBlockBegin
  2
_ORIGIN
 70
     0
 10
0.0
 20
0.0
 30
0.0
  3
_ORIGIN
  1

  0
CIRCLE
  5
880
330
87E
100
AcDbEntity
  8
0
  6
Continuous
 62
     7
100
AcDbCircle
 10
0.0
 20
0.0
 30
0.0
 40
0.5
  0
LINE
  5
881
330
87E
100
AcDbEntity
  8
0
  6
Continuous
 62
     7
100
AcDbLine
 10
0.0
 20
0.0
 30
0.0
 11
-1.0
 21
0.0
 31
0.0
  0
ENDBLK
  5
882
330
87E
100
AcDbEntity
  8
0
100
AcDbBlockEnd
  0
BLOCK
  5
AB5
330
AB2
100
AcDbEntity
  8
0
 62
     1
100
AcDbBlockBegin
  2
_DOTBLANK
 70
     0
 10
0.0
 20
0.0
 30
0.0
  3
_DOTBLANK
  1

  0
CIRCLE
  5
AB3
330
AB2
100
AcDbEntity
  8
0
  6
ByBlock
 62
     0
100
AcDbCircle
 10
0.0
 20
0.0
 30
0.0
 40
0.5
  0
LINE
  5
AB4
330
AB2
100
AcDbEntity
  8
0
  6
ByBlock
 62
     0
100
AcDbLine
 10
-0.5
 20
0.0
 30
0.0
 11
-1.0
 21
0.0
 31
0.0
  0
ENDBLK
  5
AB6
330
AB2
100
AcDbEntity
  8
0
 62
     1
100
AcDbBlockEnd
  0
BLOCK
  5
ABB
330
AB7
100
AcDbEntity
  8
0
 62
     1
100
AcDbBlockBegin
  2
_OPEN30
 70
     0
 10
0.0
 20
0.0
 30
0.0
  3
_OPEN30
  1

  0
LINE
  5
AB8
330
AB7
100
AcDbEntity
  8
0
  6
ByBlock
 62
     0
100
AcDbLine
 10
-1.0
 20
0.26794919
 30
0.0
 11
0.0
 21
0.0
 31
0.0
  0
LINE
  5
AB9
330
AB7
100
AcDbEntity
  8
0
  6
ByBlock
 62
     0
100
AcDbLine
 10
0.0
 20
0.0
 30
0.0
 11
-1.0
 21
-0.26794919
 31
0.0
  0
LINE
  5
ABA
330
AB7
100
AcDbEntity
  8
0
  6
ByBlock
 62
     0
100
AcDbLine
 10
0.0
 20
0.0
 30
0.0
 11
-1.0
 21
0.0
 31
0.0
  0
ENDBLK
  5
ABC
330
AB7
100
AcDbEntity
  8
0
 62
     1
100
AcDbBlockEnd
  0
BLOCK
  5
D71
330
D67
100
AcDbEntity
  8
0
100
AcDbBlockBegin
  2
*D3
 70
     1
 10
0.0
 20
0.0
 30
0.0
  3
*D3
  1

  0
LINE
  5
1296
330
D67
100
AcDbEntity
  8
SIZE
 62
     0
370
    -2
100
AcDbLine
 10
-134.5
 20
-320.0
 30
0.0
 11
-134.5
 21
-468.0173952306001
 31
0.0
  0
LINE
  5
1297
330
D67
100
AcDbEntity
  8
SIZE
 62
     0
370
    -2
100
AcDbLine
 10
134.5
 20
-320.0
 30
0.0
 11
134.5
 21
-468.0173952306001
 31
0.0
  0
LINE
  5
1298
330
D67
100
AcDbEntity
  8
SIZE
 62
     0
370
    -2
100
AcDbLine
 10
-122.5
 20
-448.0173952306001
 30
0.0
 11
122.5
 21
-448.0173952306001
 31
0.0
  0
INSERT
  5
1299
330
D67
100
AcDbEntity
  8
SIZE
 62
     0
370
    -2
100
AcDbBlockReference
  2
_DOTBLANK
 10
-134.5
 20
-448.0173952306001
 30
0.0
 41
12.0
 42
12.0
 43
12.0
 50
180.0
  0
INSERT
  5
129A
330
D67
100
AcDbEntity
  8
SIZE
 62
     0
370
    -2
100
AcDbBlockReference
  2
_DOTBLANK
 10
134.5
 20
-448.0173952306001
 30
0.0
 41
12.0
 42
12.0
 43
12.0
  0
MTEXT
  5
129B
330
D67
100
AcDbEntity
  8
SIZE
 62
     0
100
AcDbMText
 10
0.0000000000000026
 20
-406.0173952306
 30
0.0
 40
64.0
 41
0.0
 71
     5
 72
     1
  1
\A1;269
 73
     1
 44
1.0
  0
POINT
  5
129C
330
D67
100
AcDbEntity
  8
DEFPOINTS
 62
     0
100
AcDbPoint
 10
-134.5
 20
-300.0
 30
0.0
  0
POINT
  5
129D
330
D67
100
AcDbEntity
  8
DEFPOINTS
 62
     0
100
AcDbPoint
 10
134.5
 20
-300.0
 30
0.0
  0
POINT
  5
129E
330
D67
100
AcDbEntity
  8
DEFPOINTS
 62
     0
100
AcDbPoint
 10
134.5
 20
-448.0173952306001
 30
0.0
  0
ENDBLK
  5
D72
330
D67
100
AcDbEntity
  8
0
100
AcDbBlockEnd
  0
BLOCK
  5
E10
330
E06
100
AcDbEntity
  8
0
100
AcDbBlockBegin
  2
*D4
 70
     1
 10
0.0
 20
0.0
 30
0.0
  3
*D4
  1

  0
LINE
  5
11A7
330
E06
100
AcDbEntity
  8
SIZE
  6
Continuous
 62
     0
370
    -2
100
AcDbLine
 10
143.5
 20
-300.0
 30
0.0
 11
304.6432844803791
 21
-300.0
 31
0.0
  0
LINE
  5
11A8
330
E06
100
AcDbEntity
  8
SIZE
  6
Continuous
 62
     0
370
    -2
100
AcDbLine
 10
177.5
 20
-0.0000000000000057
 30
0.0
 11
304.6432844803792
 21
-0.0000000000000417
 31
0.0
  0
LINE
  5
11A9
330
E06
100
AcDbEntity
  8
SIZE
  6
Continuous
 62
     0
370
    -2
100
AcDbLine
 10
284.6432844803791
 20
-288.0000000000001
 30
0.0
 11
284.6432844803792
 21
-12.00000000000003
 31
0.0
  0
INSERT
  5
11AA
330
E06
100
AcDbEntity
  8
SIZE
  6
Continuous
 62
     0
370
    -2
100
AcDbBlockReference
  2
_DOTBLANK
 10
284.6432844803791
 20
-300.0
 30
0.0
 41
12.0
 42
12.0
 43
12.0
 50
270.0
  0
INSERT
  5
11AB
330
E06
100
AcDbEntity
  8
SIZE
  6
Continuous
 62
     0
370
    -2
100
AcDbBlockReference
  2
_DOTBLANK
 10
284.6432844803792
 20
-0.000000000000036
 30
0.0
 41
12.0
 42
12.0
 43
12.0
 50
90.0
  0
MTEXT
  5
11AC
330
E06
100
AcDbEntity
  8
SIZE
  6
Continuous
 62
     0
100
AcDbMText
 10
242.6432844803792
 20
-150.0
 30
0.0
 40
64.0
 41
0.0
 71
     5
 72
     1
  1
\A1;300
 11
0.0000000000000001
 21
1.0
 31
0.0
 73
     1
 44
1.0
  0
POINT
  5
11AD
330
E06
100
AcDbEntity
  8
DEFPOINTS
  6
Continuous
 62
     0
100
AcDbPoint
 10
123.5
 20
-300.0
 30
0.0
  0
POINT
  5
11AE
330
E06
100
AcDbEntity
  8
DEFPOINTS
  6
Continuous
 62
     0
100
AcDbPoint
 10
157.5
 20
0.0
 30
0.0
  0
POINT
  5
11AF
330
E06
100
AcDbEntity
  8
DEFPOINTS
  6
Continuous
 62
     0
100
AcDbPoint
 10
284.6432844803792
 20
-0.000000000000036
 30
0.0
  0
ENDBLK
  5
E11
330
E06
100
AcDbEntity
  8
0
100
AcDbBlockEnd
  0
BLOCK
  5
E7B
330
E71
100
AcDbEntity
  8
0
100
AcDbBlockBegin
  2
*D5
 70
     1
 10
0.0
 20
0.0
 30
0.0
  3
*D5
  1

  0
LINE
  5
E7D
330
E71
100
AcDbEntity
  8
SIZE
 62
     0
370
    -2
100
AcDbLine
 10
-139.9999999999999
 20
32.46448280219374
 30
0.0
 11
-139.9999999999999
 21
136.4516878685508
 31
0.0
  0
LINE
  5
E7E
330
E71
100
AcDbEntity
  8
SIZE
 62
     0
370
    -2
100
AcDbLine
 10
140.0
 20
32.46448280219374
 30
0.0
 11
140.0
 21
136.4516878685508
 31
0.0
  0
LINE
  5
E7F
330
E71
100
AcDbEntity
  8
SIZE
 62
     0
370
    -2
100
AcDbLine
 10
-128.0
 20
116.4516878685508
 30
0.0
 11
128.0
 21
116.4516878685508
 31
0.0
  0
INSERT
  5
E80
330
E71
100
AcDbEntity
  8
SIZE
 62
     0
370
    -2
100
AcDbBlockReference
  2
_DOTBLANK
 10
-139.9999999999999
 20
116.4516878685508
 30
0.0
 41
12.0
 42
12.0
 43
12.0
 50
180.0
  0
INSERT
  5
E81
330
E71
100
AcDbEntity
  8
SIZE
 62
     0
370
    -2
100
AcDbBlockReference
  2
_DOTBLANK
 10
140.0
 20
116.4516878685508
 30
0.0
 41
12.0
 42
12.0
 43
12.0
  0
MTEXT
  5
E82
330
E71
100
AcDbEntity
  8
SIZE
 62
     0
100
AcDbMText
 10
0.0000000000000168
 20
158.4516878685508
 30
0.0
 40
64.0
 41
0.0
 71
     5
 72
     1
  1
\A1;280
 73
     1
 44
1.0
  0
POINT
  5
E83
330
E71
100
AcDbEntity
  8
DEFPOINTS
 62
     0
100
AcDbPoint
 10
-139.9999999999999
 20
12.46448280219374
 30
0.0
  0
POINT
  5
E84
330
E71
100
AcDbEntity
  8
DEFPOINTS
 62
     0
100
AcDbPoint
 10
140.0
 20
12.46448280219374
 30
0.0
  0
POINT
  5
E85
330
E71
100
AcDbEntity
  8
DEFPOINTS
 62
     0
100
AcDbPoint
 10
140.0
 20
116.4516878685508
 30
0.0
  0
ENDBLK
  5
E7C
330
E71
100
AcDbEntity
  8
0
100
AcDbBlockEnd
  0
BLOCK
  5
FDC
330
FDA
100
AcDbEntity
  8
0
100
AcDbBlockBegin
  2
GENAXEH
 70
     0
 10
0.0
 20
0.0
 30
0.0
  3
GENAXEH
  1

  0
LINE
  5
FDB
330
FDA
100
AcDbEntity
  8
0
100
AcDbLine
 10
-1.0
 20
0.0
 30
0.0
 11
1.0
 21
0.0
 31
0.0
  0
ENDBLK
  5
FDD
330
FDA
100
AcDbEntity
  8
0
100
AcDbBlockEnd
  0
BLOCK
  5
111E
330
1114
100
AcDbEntity
  8
0
100
AcDbBlockBegin
  2
*D7
 70
     1
 10
0.0
 20
0.0
 30
0.0
  3
*D7
  1

  0
LINE
  5
1120
330
1114
100
AcDbEntity
  8
SIZE
 62
     0
370
    -2
100
AcDbLine
 10
-157.5
 20
20.0
 30
0.0
 11
-157.5
 21
245.5794621189598
 31
0.0
  0
LINE
  5
1121
330
1114
100
AcDbEntity
  8
SIZE
 62
     0
370
    -2
100
AcDbLine
 10
157.5
 20
20.0
 30
0.0
 11
157.5
 21
245.5794621189598
 31
0.0
  0
LINE
  5
1122
330
1114
100
AcDbEntity
  8
SIZE
 62
     0
370
    -2
100
AcDbLine
 10
-145.5
 20
225.5794621189598
 30
0.0
 11
145.5
 21
225.5794621189598
 31
0.0
  0
INSERT
  5
1123
330
1114
100
AcDbEntity
  8
SIZE
 62
     0
370
    -2
100
AcDbBlockReference
  2
_DOTBLANK
 10
-157.5
 20
225.5794621189598
 30
0.0
 41
12.0
 42
12.0
 43
12.0
 50
180.0
  0
INSERT
  5
1124
330
1114
100
AcDbEntity
  8
SIZE
 62
     0
370
    -2
100
AcDbBlockReference
  2
_DOTBLANK
 10
157.5
 20
225.5794621189598
 30
0.0
 41
12.0
 42
12.0
 43
12.0
  0
MTEXT
  5
1125
330
1114
100
AcDbEntity
  8
SIZE
 62
     0
100
AcDbMText
 10
0.0000000000000026
 20
267.5794621189599
 30
0.0
 40
64.0
 41
0.0
 71
     5
 72
     1
  1
\A1;315
 73
     1
 44
1.0
  0
POINT
  5
1126
330
1114
100
AcDbEntity
  8
DEFPOINTS
 62
     0
100
AcDbPoint
 10
-157.5
 20
0.0
 30
0.0
  0
POINT
  5
1127
330
1114
100
AcDbEntity
  8
DEFPOINTS
 62
     0
100
AcDbPoint
 10
157.5
 20
0.0
 30
0.0
  0
POINT
  5
1128
330
1114
100
AcDbEntity
  8
DEFPOINTS
 62
     0
100
AcDbPoint
 10
157.5
 20
225.5794621189598
 30
0.0
  0
ENDBLK
  5
111F
330
1114
100
AcDbEntity
  8
0
100
AcDbBlockEnd
  0
BLOCK
  5
11BB
330
11BA
100
AcDbEntity
  8
0
100
AcDbBlockBegin
  2
*D8
 70
     1
 10
0.0
 20
0.0
 30
0.0
  3
*D8
  1

  0
LINE
  5
11BD
330
11BA
100
AcDbEntity
  8
NOTE
 62
     0
370
    -2
100
AcDbLine
 10
-123.4999999999999
 20
-320.0
 30
0.0
 11
-123.4999999999999
 21
-354.9529861856111
 31
0.0
  0
LINE
  5
11BE
330
11BA
100
AcDbEntity
  8
NOTE
 62
     0
370
    -2
100
AcDbLine
 10
-133.4999999999999
 20
-331.2126909923287
 30
0.0
 11
-133.4999999999999
 21
-354.9529861856111
 31
0.0
  0
LINE
  5
11BF
330
11BA
100
AcDbEntity
  8
NOTE
 62
     0
370
    -2
100
AcDbLine
 10
-111.4999999999999
 20
-334.9529861856112
 30
0.0
 11
-99.4999999999999
 21
-334.9529861856112
 31
0.0
  0
LINE
  5
11C0
330
11BA
100
AcDbEntity
  8
NOTE
 62
     0
370
    -2
100
AcDbLine
 10
-145.4999999999999
 20
-334.9529861856112
 30
0.0
 11
-157.4999999999999
 21
-334.9529861856112
 31
0.0
  0
LINE
  5
11C1
330
11BA
100
AcDbEntity
  8
NOTE
 62
     0
370
    -2
100
AcDbLine
 10
-123.4999999999999
 20
-334.9529861856112
 30
0.0
 11
-133.4999999999999
 21
-334.9529861856112
 31
0.0
  0
INSERT
  5
11C2
330
11BA
100
AcDbEntity
  8
NOTE
 62
     0
370
    -2
100
AcDbBlockReference
  2
_DOTBLANK
 10
-123.4999999999999
 20
-334.9529861856112
 30
0.0
 41
12.0
 42
12.0
 43
12.0
 50
180.0
  0
INSERT
  5
11C3
330
11BA
100
AcDbEntity
  8
NOTE
 62
     0
370
    -2
100
AcDbBlockReference
  2
_DOTBLANK
 10
-133.4999999999999
 20
-334.9529861856112
 30
0.0
 41
12.0
 42
12.0
 43
12.0
  0
MTEXT
  5
11C4
330
11BA
100
AcDbEntity
  8
NOTE
 62
     0
100
AcDbMText
 10
-128.4999999999999
 20
-292.9529861856112
 30
0.0
 40
64.0
 41
0.0
 71
     5
 72
     1
  1
\A1;10
 73
     1
 44
1.0
  0
POINT
  5
11C5
330
11BA
100
AcDbEntity
  8
DEFPOINTS
 62
     0
100
AcDbPoint
 10
-123.4999999999999
 20
-300.0
 30
0.0
  0
POINT
  5
11C6
330
11BA
100
AcDbEntity
  8
DEFPOINTS
 62
     0
100
AcDbPoint
 10
-133.4999999999999
 20
-311.2126909923287
 30
0.0
  0
POINT
  5
11C7
330
11BA
100
AcDbEntity
  8
DEFPOINTS
 62
     0
100
AcDbPoint
 10
-133.4999999999999
 20
-334.9529861856112
 30
0.0
  0
ENDBLK
  5
11BC
330
11BA
100
AcDbEntity
  8
0
100
AcDbBlockEnd
  0
BLOCK
  5
11E5
330
11E4
100
AcDbEntity
  8
0
100
AcDbBlockBegin
  2
*D9
 70
     1
 10
0.0
 20
0.0
 30
0.0
  3
*D9
  1

  0
LINE
  5
11E7
330
11E4
100
AcDbEntity
  8
NOTE
 62
     0
370
    -2
100
AcDbLine
 10
-135.5
 20
-333.2126909923287
 30
0.0
 11
-135.5
 21
-386.2569421441843
 31
0.0
  0
LINE
  5
11E8
330
11E4
100
AcDbEntity
  8
NOTE
 62
     0
370
    -2
100
AcDbLine
 10
-123.4999999999999
 20
-320.0
 30
0.0
 11
-123.4999999999999
 21
-386.2569421441843
 31
0.0
  0
LINE
  5
11E9
330
11E4
100
AcDbEntity
  8
NOTE
 62
     0
370
    -2
100
AcDbLine
 10
-147.5
 20
-366.2569421441844
 30
0.0
 11
-159.5
 21
-366.2569421441844
 31
0.0
  0
LINE
  5
11EA
330
11E4
100
AcDbEntity
  8
NOTE
 62
     0
370
    -2
100
AcDbLine
 10
-111.4999999999999
 20
-366.2569421441844
 30
0.0
 11
-99.4999999999999
 21
-366.2569421441844
 31
0.0
  0
LINE
  5
11EB
330
11E4
100
AcDbEntity
  8
NOTE
 62
     0
370
    -2
100
AcDbLine
 10
-135.5
 20
-366.2569421441844
 30
0.0
 11
-123.4999999999999
 21
-366.2569421441844
 31
0.0
  0
INSERT
  5
11EC
330
11E4
100
AcDbEntity
  8
NOTE
 62
     0
370
    -2
100
AcDbBlockReference
  2
_DOTBLANK
 10
-135.5
 20
-366.2569421441844
 30
0.0
 41
12.0
 42
12.0
 43
12.0
  0
INSERT
  5
11ED
330
11E4
100
AcDbEntity
  8
NOTE
 62
     0
370
    -2
100
AcDbBlockReference
  2
_DOTBLANK
 10
-123.4999999999999
 20
-366.2569421441844
 30
0.0
 41
12.0
 42
12.0
 43
12.0
 50
180.0
  0
MTEXT
  5
11EE
330
11E4
100
AcDbEntity
  8
NOTE
 62
     0
100
AcDbMText
 10
-129.4999999999999
 20
-324.2569421441844
 30
0.0
 40
64.0
 41
0.0
 71
     5
 72
     1
  1
\A1;12
 73
     1
 44
1.0
  0
POINT
  5
11EF
330
11E4
100
AcDbEntity
  8
DEFPOINTS
 62
     0
100
AcDbPoint
 10
-135.5
 20
-313.2126909923287
 30
0.0
  0
POINT
  5
11F0
330
11E4
100
AcDbEntity
  8
DEFPOINTS
 62
     0
100
AcDbPoint
 10
-123.4999999999999
 20
-300.0
 30
0.0
  0
POINT
  5
11F1
330
11E4
100
AcDbEntity
  8
DEFPOINTS
 62
     0
100
AcDbPoint
 10
-123.4999999999999
 20
-366.2569421441844
 30
0.0
  0
ENDBLK
  5
11E6
330
11E4
100
AcDbEntity
  8
0
100
AcDbBlockEnd
  0
BLOCK
  5
11F4
330
11F3
100
AcDbEntity
  8
0
100
AcDbBlockBegin
  2
*D10
 70
     1
 10
0.0
 20
0.0
 30
0.0
  3
*D10
  1

  0
LINE
  5
11F6
330
11F3
100
AcDbEntity
  8
NOTE
 62
     0
370
    -2
100
AcDbLine
 10
-123.4999999999999
 20
-320.0
 30
0.0
 11
-123.4999999999999
 21
-583.8286022818904
 31
0.0
  0
LINE
  5
11F7
330
11F3
100
AcDbEntity
  8
NOTE
 62
     0
370
    -2
100
AcDbLine
 10
123.5
 20
-320.0
 30
0.0
 11
123.5
 21
-583.8286022818904
 31
0.0
  0
LINE
  5
11F8
330
11F3
100
AcDbEntity
  8
NOTE
 62
     0
370
    -2
100
AcDbLine
 10
-111.4999999999999
 20
-563.8286022818904
 30
0.0
 11
111.5
 21
-563.8286022818904
 31
0.0
  0
INSERT
  5
11F9
330
11F3
100
AcDbEntity
  8
NOTE
 62
     0
370
    -2
100
AcDbBlockReference
  2
_DOTBLANK
 10
-123.4999999999999
 20
-563.8286022818904
 30
0.0
 41
12.0
 42
12.0
 43
12.0
 50
180.0
  0
INSERT
  5
11FA
330
11F3
100
AcDbEntity
  8
NOTE
 62
     0
370
    -2
100
AcDbBlockReference
  2
_DOTBLANK
 10
123.5
 20
-563.8286022818904
 30
0.0
 41
12.0
 42
12.0
 43
12.0
  0
MTEXT
  5
11FB
330
11F3
100
AcDbEntity
  8
NOTE
 62
     0
100
AcDbMText
 10
0.0000000000000381
 20
-521.8286022818904
 30
0.0
 40
64.0
 41
0.0
 71
     5
 72
     1
  1
\A1;247
 73
     1
 44
1.0
  0
POINT
  5
11FC
330
11F3
100
AcDbEntity
  8
DEFPOINTS
 62
     0
100
AcDbPoint
 10
-123.4999999999999
 20
-300.0
 30
0.0
  0
POINT
  5
11FD
330
11F3
100
AcDbEntity
  8
DEFPOINTS
 62
     0
100
AcDbPoint
 10
123.5
 20
-300.0
 30
0.0
  0
POINT
  5
11FE
330
11F3
100
AcDbEntity
  8
DEFPOINTS
 62
     0
100
AcDbPoint
 10
123.5
 20
-563.8286022818904
 30
0.0
  0
ENDBLK
  5
11F5
330
11F3
100
AcDbEntity
  8
0
100
AcDbBlockEnd
  0
BLOCK
  5
1282
330
1281
100
AcDbEntity
  8
0
100
AcDbBlockBegin
  2
*D11
 70
     1
 10
0.0
 20
0.0
 30
0.0
  3
*D11
  1

  0
LINE
  5
1284
330
1281
100
AcDbEntity
  8
NOTE
 62
     0
370
    -2
100
AcDbLine
 10
-123.5
 20
12.0
 30
0.0
 11
-123.5
 21
71.83630134534229
 31
0.0
  0
LINE
  5
1285
330
1281
100
AcDbEntity
  8
NOTE
 62
     0
370
    -2
100
AcDbLine
 10
123.5
 20
12.0
 30
0.0
 11
123.5
 21
71.83630134534229
 31
0.0
  0
LINE
  5
1286
330
1281
100
AcDbEntity
  8
NOTE
 62
     0
370
    -2
100
AcDbLine
 10
-111.5
 20
51.83630134534229
 30
0.0
 11
111.5
 21
51.83630134534229
 31
0.0
  0
INSERT
  5
1287
330
1281
100
AcDbEntity
  8
NOTE
 62
     0
370
    -2
100
AcDbBlockReference
  2
_DOTBLANK
 10
-123.5
 20
51.83630134534229
 30
0.0
 41
12.0
 42
12.0
 43
12.0
 50
180.0
  0
INSERT
  5
1288
330
1281
100
AcDbEntity
  8
NOTE
 62
     0
370
    -2
100
AcDbBlockReference
  2
_DOTBLANK
 10
123.5
 20
51.83630134534229
 30
0.0
 41
12.0
 42
12.0
 43
12.0
  0
MTEXT
  5
1289
330
1281
100
AcDbEntity
  8
NOTE
 62
     0
100
AcDbMText
 10
0.0000000000000026
 20
93.83630134534227
 30
0.0
 40
64.0
 41
0.0
 71
     5
 72
     1
  1
\A1;247
 73
     1
 44
1.0
  0
POINT
  5
128A
330
1281
100
AcDbEntity
  8
DEFPOINTS
 62
     0
100
AcDbPoint
 10
-123.5
 20
-8.0
 30
0.0
  0
POINT
  5
128B
330
1281
100
AcDbEntity
  8
DEFPOINTS
 62
     0
100
AcDbPoint
 10
123.5
 20
-8.0
 30
0.0
  0
POINT
  5
128C
330
1281
100
AcDbEntity
  8
DEFPOINTS
 62
     0
100
AcDbPoint
 10
123.5
 20
51.83630134534229
 30
0.0
  0
ENDBLK
  5
1283
330
1281
100
AcDbEntity
  8
0
100
AcDbBlockEnd
  0
BLOCK
  5
14B5
330
14B4
100
AcDbEntity
  8
0
100
AcDbBlockBegin
  2
*D12
 70
     1
 10
0.0
 20
0.0
 30
0.0
  3
*D12
  1

  0
LINE
  5
14B6
330
14B4
100
AcDbEntity
  8
SIZE
 62
     0
370
    -2
100
AcDbLine
 10
-43597.41081784832
 20
7136.397410243569
 30
0.0
 11
-43597.41081784832
 21
7215.570385935878
 31
0.0
  0
LINE
  5
14B7
330
14B4
100
AcDbEntity
  8
SIZE
 62
     0
370
    -2
100
AcDbLine
 10
-42959.41081784833
 20
7136.397410243569
 30
0.0
 11
-42959.41081784833
 21
7215.570385935878
 31
0.0
  0
LINE
  5
14B8
330
14B4
100
AcDbEntity
  8
SIZE
 62
     0
370
    -2
100
AcDbLine
 10
-43585.41081784832
 20
7195.570385935877
 30
0.0
 11
-42971.41081784833
 21
7195.570385935877
 31
0.0
  0
INSERT
  5
14B9
330
14B4
100
AcDbEntity
  8
SIZE
 62
     0
370
    -2
100
AcDbBlockReference
  2
_DOTBLANK
 10
-43597.41081784832
 20
7195.570385935877
 30
0.0
 41
12.0
 42
12.0
 43
12.0
 50
180.0
  0
INSERT
  5
14BA
330
14B4
100
AcDbEntity
  8
SIZE
 62
     0
370
    -2
100
AcDbBlockReference
  2
_DOTBLANK
 10
-42959.41081784833
 20
7195.570385935877
 30
0.0
 41
12.0
 42
12.0
 43
12.0
  0
MTEXT
  5
14BB
330
14B4
100
AcDbEntity
  8
SIZE
 62
     0
100
AcDbMText
 10
-43275.54854626418
 20
7237.570385935878
 30
0.0
 40
64.0
 41
0.0
 71
     5
 72
     1
  1
\A1;638
 73
     1
 44
1.0
  0
POINT
  5
14BC
330
14B4
100
AcDbEntity
  8
DEFPOINTS
 62
     0
100
AcDbPoint
 10
-43597.41081784832
 20
7116.397410243568
 30
0.0
  0
POINT
  5
14BD
330
14B4
100
AcDbEntity
  8
DEFPOINTS
 62
     0
100
AcDbPoint
 10
-42959.41081784833
 20
7116.397410243568
 30
0.0
  0
POINT
  5
14BE
330
14B4
100
AcDbEntity
  8
DEFPOINTS
 62
     0
100
AcDbPoint
 10
-42959.41081784833
 20
7195.570385935877
 30
0.0
  0
ENDBLK
  5
14BF
330
14B4
100
AcDbEntity
  8
0
100
AcDbBlockEnd
  0
BLOCK
  5
14C1
330
14C0
100
AcDbEntity
  8
0
100
AcDbBlockBegin
  2
*D13
 70
     1
 10
0.0
 20
0.0
 30
0.0
  3
*D13
  1

  0
LINE
  5
14C2
330
14C0
100
AcDbEntity
  8
SIZE
 62
     0
370
    -2
100
AcDbLine
 10
-43603.41081784833
 20
7135.597410243569
 30
0.0
 11
-43603.41081784833
 21
7327.499442094151
 31
0.0
  0
LINE
  5
14C3
330
14C0
100
AcDbEntity
  8
SIZE
 62
     0
370
    -2
100
AcDbLine
 10
-42953.41081784832
 20
7135.597410243569
 30
0.0
 11
-42953.41081784832
 21
7327.499442094151
 31
0.0
  0
LINE
  5
14C4
330
14C0
100
AcDbEntity
  8
SIZE
 62
     0
370
    -2
100
AcDbLine
 10
-43591.41081784833
 20
7307.499442094151
 30
0.0
 11
-42965.41081784833
 21
7307.499442094151
 31
0.0
  0
INSERT
  5
14C5
330
14C0
100
AcDbEntity
  8
SIZE
 62
     0
370
    -2
100
AcDbBlockReference
  2
_DOTBLANK
 10
-43603.41081784833
 20
7307.499442094151
 30
0.0
 41
12.0
 42
12.0
 43
12.0
 50
180.0
  0
INSERT
  5
14C6
330
14C0
100
AcDbEntity
  8
SIZE
 62
     0
370
    -2
100
AcDbBlockReference
  2
_DOTBLANK
 10
-42953.41081784832
 20
7307.499442094151
 30
0.0
 41
12.0
 42
12.0
 43
12.0
  0
MTEXT
  5
14C7
330
14C0
100
AcDbEntity
  8
SIZE
 62
     0
100
AcDbMText
 10
-43276.38941307551
 20
7349.499442094153
 30
0.0
 40
64.0
 41
0.0
 71
     5
 72
     1
  1
\A1;650
 73
     1
 44
1.0
  0
POINT
  5
14C8
330
14C0
100
AcDbEntity
  8
DEFPOINTS
 62
     0
100
AcDbPoint
 10
-43603.41081784833
 20
7115.597410243569
 30
0.0
  0
POINT
  5
14C9
330
14C0
100
AcDbEntity
  8
DEFPOINTS
 62
     0
100
AcDbPoint
 10
-42953.41081784832
 20
7115.597410243569
 30
0.0
  0
POINT
  5
14CA
330
14C0
100
AcDbEntity
  8
DEFPOINTS
 62
     0
100
AcDbPoint
 10
-42953.41081784832
 20
7307.499442094151
 30
0.0
  0
ENDBLK
  5
14CB
330
14C0
100
AcDbEntity
  8
0
100
AcDbBlockEnd
  0
BLOCK
  5
14CD
330
14CC
100
AcDbEntity
  8
0
100
AcDbBlockBegin
  2
*D14
 70
     1
 10
0.0
 20
0.0
 30
0.0
  3
*D14
  1

  0
LINE
  5
14CE
330
14CC
100
AcDbEntity
  8
SIZE
 62
     0
370
    -2
100
AcDbLine
 10
-43623.41081784832
 20
7115.597410243569
 30
0.0
 11
-43684.89632895276
 21
7115.597410243569
 31
0.0
  0
LINE
  5
14CF
330
14CC
100
AcDbEntity
  8
SIZE
 62
     0
370
    -2
100
AcDbLine
 10
-43619.41081784832
 20
6809.477626519205
 30
0.0
 11
-43684.89632895276
 21
6809.477626519205
 31
0.0
  0
LINE
  5
14D0
330
14CC
100
AcDbEntity
  8
SIZE
 62
     0
370
    -2
100
AcDbLine
 10
-43664.89632895277
 20
7103.59741024357
 30
0.0
 11
-43664.89632895277
 21
6821.477626519207
 31
0.0
  0
INSERT
  5
14D1
330
14CC
100
AcDbEntity
  8
SIZE
 62
     0
370
    -2
100
AcDbBlockReference
  2
_DOTBLANK
 10
-43664.89632895277
 20
7115.597410243569
 30
0.0
 41
12.0
 42
12.0
 43
12.0
 50
90.0
  0
INSERT
  5
14D2
330
14CC
100
AcDbEntity
  8
SIZE
 62
     0
370
    -2
100
AcDbBlockReference
  2
_DOTBLANK
 10
-43664.89632895277
 20
6809.477626519205
 30
0.0
 41
12.0
 42
12.0
 43
12.0
 50
270.0
  0
MTEXT
  5
14D3
330
14CC
100
AcDbEntity
  8
SIZE
 62
     0
100
AcDbMText
 10
-43706.89632895277
 20
6962.53751838138
 30
0.0
 40
64.0
 41
0.0
 71
     5
 72
     1
  1
\A1;306
 11
0.0000000000000001
 21
1.0
 31
0.0
 73
     1
 44
1.0
  0
POINT
  5
14D4
330
14CC
100
AcDbEntity
  8
DEFPOINTS
 62
     0
100
AcDbPoint
 10
-43603.41081784833
 20
7115.597410243569
 30
0.0
  0
POINT
  5
14D5
330
14CC
100
AcDbEntity
  8
DEFPOINTS
 62
     0
100
AcDbPoint
 10
-43599.41081784833
 20
6809.477626519205
 30
0.0
  0
POINT
  5
14D6
330
14CC
100
AcDbEntity
  8
DEFPOINTS
 62
     0
100
AcDbPoint
 10
-43664.89632895277
 20
6809.477626519205
 30
0.0
  0
ENDBLK
  5
14D7
330
14CC
100
AcDbEntity
  8
0
100
AcDbBlockEnd
  0
BLOCK
  5
1594
330
1593
100
AcDbEntity
  8
0
100
AcDbBlockBegin
  2
*D15
 70
     1
 10
0.0
 20
0.0
 30
0.0
  3
*D15
  1

  0
LINE
  5
1674
330
1593
100
AcDbEntity
  8
SIZE
 62
     0
370
    -2
100
AcDbLine
 10
-319.0
 20
20.80000000000382
 30
0.0
 11
-319.0
 21
99.9729756923125
 31
0.0
  0
LINE
  5
1675
330
1593
100
AcDbEntity
  8
SIZE
 62
     0
370
    -2
100
AcDbLine
 10
319.0
 20
20.80000000000382
 30
0.0
 11
319.0
 21
99.9729756923125
 31
0.0
  0
LINE
  5
1676
330
1593
100
AcDbEntity
  8
SIZE
 62
     0
370
    -2
100
AcDbLine
 10
-307.0
 20
79.9729756923125
 30
0.0
 11
307.0
 21
79.9729756923125
 31
0.0
  0
INSERT
  5
1677
330
1593
100
AcDbEntity
  8
SIZE
 62
     0
370
    -2
100
AcDbBlockReference
  2
_DOTBLANK
 10
-319.0
 20
79.9729756923125
 30
0.0
 41
12.0
 42
12.0
 43
12.0
 50
180.0
  0
INSERT
  5
1678
330
1593
100
AcDbEntity
  8
SIZE
 62
     0
370
    -2
100
AcDbBlockReference
  2
_DOTBLANK
 10
319.0
 20
79.9729756923125
 30
0.0
 41
12.0
 42
12.0
 43
12.0
  0
MTEXT
  5
1679
330
1593
100
AcDbEntity
  8
SIZE
 62
     0
100
AcDbMText
 10
2.862271584133853
 20
121.9729756923125
 30
0.0
 40
64.0
 41
0.0
 71
     5
 72
     1
  1
\A1;638
 73
     1
 44
1.0
  0
POINT
  5
167A
330
1593
100
AcDbEntity
  8
DEFPOINTS
 62
     0
100
AcDbPoint
 10
-319.0
 20
0.8000000000038197
 30
0.0
  0
POINT
  5
167B
330
1593
100
AcDbEntity
  8
DEFPOINTS
 62
     0
100
AcDbPoint
 10
319.0
 20
0.8000000000038197
 30
0.0
  0
POINT
  5
167C
330
1593
100
AcDbEntity
  8
DEFPOINTS
 62
     0
100
AcDbPoint
 10
319.0
 20
79.9729756923125
 30
0.0
  0
ENDBLK
  5
1595
330
1593
100
AcDbEntity
  8
0
100
AcDbBlockEnd
  0
BLOCK
  5
15A0
330
159F
100
AcDbEntity
  8
0
100
AcDbBlockBegin
  2
*D16
 70
     1
 10
0.0
 20
0.0
 30
0.0
  3
*D16
  1

  0
LINE
  5
167D
330
159F
100
AcDbEntity
  8
SIZE
 62
     0
370
    -2
100
AcDbLine
 10
-325.0
 20
20.00000000000455
 30
0.0
 11
-325.0
 21
211.9020318505873
 31
0.0
  0
LINE
  5
167E
330
159F
100
AcDbEntity
  8
SIZE
 62
     0
370
    -2
100
AcDbLine
 10
325.0
 20
20.00000000000455
 30
0.0
 11
325.0
 21
211.9020318505873
 31
0.0
  0
LINE
  5
167F
330
159F
100
AcDbEntity
  8
SIZE
 62
     0
370
    -2
100
AcDbLine
 10
-313.0
 20
191.9020318505872
 30
0.0
 11
313.0
 21
191.9020318505872
 31
0.0
  0
INSERT
  5
1680
330
159F
100
AcDbEntity
  8
SIZE
 62
     0
370
    -2
100
AcDbBlockReference
  2
_DOTBLANK
 10
-325.0
 20
191.9020318505872
 30
0.0
 41
12.0
 42
12.0
 43
12.0
 50
180.0
  0
INSERT
  5
1681
330
159F
100
AcDbEntity
  8
SIZE
 62
     0
370
    -2
100
AcDbBlockReference
  2
_DOTBLANK
 10
325.0
 20
191.9020318505872
 30
0.0
 41
12.0
 42
12.0
 43
12.0
  0
MTEXT
  5
1682
330
159F
100
AcDbEntity
  8
SIZE
 62
     0
100
AcDbMText
 10
2.021404772807728
 20
233.9020318505873
 30
0.0
 40
64.0
 41
0.0
 71
     5
 72
     1
  1
\A1;650
 73
     1
 44
1.0
  0
POINT
  5
1683
330
159F
100
AcDbEntity
  8
DEFPOINTS
 62
     0
100
AcDbPoint
 10
-325.0
 20
0.0000000000045475
 30
0.0
  0
POINT
  5
1684
330
159F
100
AcDbEntity
  8
DEFPOINTS
 62
     0
100
AcDbPoint
 10
325.0
 20
0.0000000000045475
 30
0.0
  0
POINT
  5
1685
330
159F
100
AcDbEntity
  8
DEFPOINTS
 62
     0
100
AcDbPoint
 10
325.0
 20
191.9020318505872
 30
0.0
  0
ENDBLK
  5
15A1
330
159F
100
AcDbEntity
  8
0
100
AcDbBlockEnd
  0
BLOCK
  5
15AC
330
15AB
100
AcDbEntity
  8
0
100
AcDbBlockBegin
  2
*D17
 70
     1
 10
0.0
 20
0.0
 30
0.0
  3
*D17
  1

  0
LINE
  5
1686
330
15AB
100
AcDbEntity
  8
SIZE
 62
     0
370
    -2
100
AcDbLine
 10
-345.0
 20
0.0000000000045531
 30
0.0
 11
-406.485511104438
 21
0.0000000000045706
 31
0.0
  0
LINE
  5
1687
330
15AB
100
AcDbEntity
  8
SIZE
 62
     0
370
    -2
100
AcDbLine
 10
-341.0
 20
-306.1197837243599
 30
0.0
 11
-406.4855111044381
 21
-306.1197837243598
 31
0.0
  0
LINE
  5
1688
330
15AB
100
AcDbEntity
  8
SIZE
 62
     0
370
    -2
100
AcDbLine
 10
-386.4855111044381
 20
-11.99999999999543
 30
0.0
 11
-386.4855111044381
 21
-294.1197837243598
 31
0.0
  0
INSERT
  5
1689
330
15AB
100
AcDbEntity
  8
SIZE
 62
     0
370
    -2
100
AcDbBlockReference
  2
_DOTBLANK
 10
-386.4855111044381
 20
0.0000000000045649
 30
0.0
 41
12.0
 42
12.0
 43
12.0
 50
90.0
  0
INSERT
  5
168A
330
15AB
100
AcDbEntity
  8
SIZE
 62
     0
370
    -2
100
AcDbBlockReference
  2
_DOTBLANK
 10
-386.4855111044381
 20
-306.1197837243598
 30
0.0
 41
12.0
 42
12.0
 43
12.0
 50
270.0
  0
MTEXT
  5
168B
330
15AB
100
AcDbEntity
  8
SIZE
 62
     0
100
AcDbMText
 10
-428.485511104438
 20
-153.0598918621845
 30
0.0
 40
64.0
 41
0.0
 71
     5
 72
     1
  1
\A1;306
 11
0.0000000000000001
 21
1.0
 31
0.0
 73
     1
 44
1.0
  0
POINT
  5
168C
330
15AB
100
AcDbEntity
  8
DEFPOINTS
 62
     0
100
AcDbPoint
 10
-325.0
 20
0.0000000000045475
 30
0.0
  0
POINT
  5
168D
330
15AB
100
AcDbEntity
  8
DEFPOINTS
 62
     0
100
AcDbPoint
 10
-321.0
 20
-306.1197837243599
 30
0.0
  0
POINT
  5
168E
330
15AB
100
AcDbEntity
  8
DEFPOINTS
 62
     0
100
AcDbPoint
 10
-386.4855111044381
 20
-306.1197837243598
 30
0.0
  0
ENDBLK
  5
15AD
330
15AB
100
AcDbEntity
  8
0
100
AcDbBlockEnd
  0
BLOCK
  5
177F
330
177E
100
AcDbEntity
  8
0
100
AcDbBlockBegin
  2
*D18
 70
     1
 10
0.0
 20
0.0
 30
0.0
  3
*D18
  1

  0
LINE
  5
1780
330
177E
100
AcDbEntity
  8
SIZE
  6
Continuous
 62
     0
370
    -2
100
AcDbLine
 10
-46039.64203334903
 20
7134.549776501159
 30
0.0
 11
-46039.64203334903
 21
7213.802514983759
 31
0.0
  0
LINE
  5
1781
330
177E
100
AcDbEntity
  8
SIZE
  6
Continuous
 62
     0
370
    -2
100
AcDbLine
 10
-45581.64203334903
 20
7134.549776501159
 30
0.0
 11
-45581.64203334903
 21
7213.802514983759
 31
0.0
  0
LINE
  5
1782
330
177E
100
AcDbEntity
  8
SIZE
  6
Continuous
 62
     0
370
    -2
100
AcDbLine
 10
-46027.64203334903
 20
7193.802514983757
 30
0.0
 11
-45593.64203334903
 21
7193.802514983757
 31
0.0
  0
INSERT
  5
1783
330
177E
100
AcDbEntity
  8
SIZE
  6
Continuous
 62
     0
370
    -2
100
AcDbBlockReference
  2
_DOTBLANK
 10
-46039.64203334903
 20
7193.802514983757
 30
0.0
 41
12.0
 42
12.0
 43
12.0
 50
180.0
  0
INSERT
  5
1784
330
177E
100
AcDbEntity
  8
SIZE
  6
Continuous
 62
     0
370
    -2
100
AcDbBlockReference
  2
_DOTBLANK
 10
-45581.64203334903
 20
7193.802514983757
 30
0.0
 41
12.0
 42
12.0
 43
12.0
  0
MTEXT
  5
1785
330
177E
100
AcDbEntity
  8
SIZE
  6
Continuous
 62
     0
100
AcDbMText
 10
-45810.64203334903
 20
7235.802514983757
 30
0.0
 40
64.0
 41
0.0
 71
     5
 72
     1
  1
\A1;458
 73
     1
 44
1.0
  0
POINT
  5
1786
330
177E
100
AcDbEntity
  8
DEFPOINTS
  6
Continuous
 62
     0
100
AcDbPoint
 10
-46039.64203334903
 20
7114.549776501158
 30
0.0
  0
POINT
  5
1787
330
177E
100
AcDbEntity
  8
DEFPOINTS
  6
Continuous
 62
     0
100
AcDbPoint
 10
-45581.64203334903
 20
7114.549776501158
 30
0.0
  0
POINT
  5
1788
330
177E
100
AcDbEntity
  8
DEFPOINTS
  6
Continuous
 62
     0
100
AcDbPoint
 10
-45581.64203334903
 20
7193.802514983757
 30
0.0
  0
ENDBLK
  5
1789
330
177E
100
AcDbEntity
  8
0
100
AcDbBlockEnd
  0
BLOCK
  5
178B
330
178A
100
AcDbEntity
  8
0
100
AcDbBlockBegin
  2
*D19
 70
     1
 10
0.0
 20
0.0
 30
0.0
  3
*D19
  1

  0
LINE
  5
178C
330
178A
100
AcDbEntity
  8
SIZE
  6
Continuous
 62
     0
370
    -2
100
AcDbLine
 10
-46049.14203334876
 20
7126.149776501158
 30
0.0
 11
-46049.14203334876
 21
7338.838220439656
 31
0.0
  0
LINE
  5
178D
330
178A
100
AcDbEntity
  8
SIZE
  6
Continuous
 62
     0
370
    -2
100
AcDbLine
 10
-45572.14203334877
 20
7126.139776501159
 30
0.0
 11
-45572.14203334877
 21
7338.838220439656
 31
0.0
  0
LINE
  5
178E
330
178A
100
AcDbEntity
  8
SIZE
  6
Continuous
 62
     0
370
    -2
100
AcDbLine
 10
-46037.14203334877
 20
7318.838220439656
 30
0.0
 11
-45584.14203334876
 21
7318.838220439656
 31
0.0
  0
INSERT
  5
178F
330
178A
100
AcDbEntity
  8
SIZE
  6
Continuous
 62
     0
370
    -2
100
AcDbBlockReference
  2
_DOTBLANK
 10
-46049.14203334876
 20
7318.838220439656
 30
0.0
 41
12.0
 42
12.0
 43
12.0
 50
180.0
  0
INSERT
  5
1790
330
178A
100
AcDbEntity
  8
SIZE
  6
Continuous
 62
     0
370
    -2
100
AcDbBlockReference
  2
_DOTBLANK
 10
-45572.14203334877
 20
7318.838220439656
 30
0.0
 41
12.0
 42
12.0
 43
12.0
  0
MTEXT
  5
1791
330
178A
100
AcDbEntity
  8
SIZE
  6
Continuous
 62
     0
100
AcDbMText
 10
-45810.64203334878
 20
7360.838220439656
 30
0.0
 40
64.0
 41
0.0
 71
     5
 72
     1
  1
\A1;477
 73
     1
 44
1.0
  0
POINT
  5
1792
330
178A
100
AcDbEntity
  8
DEFPOINTS
  6
Continuous
 62
     0
100
AcDbPoint
 10
-46049.14203334876
 20
7106.149776501158
 30
0.0
  0
POINT
  5
1793
330
178A
100
AcDbEntity
  8
DEFPOINTS
  6
Continuous
 62
     0
100
AcDbPoint
 10
-45572.14203334877
 20
7106.139776501159
 30
0.0
  0
POINT
  5
1794
330
178A
100
AcDbEntity
  8
DEFPOINTS
  6
Continuous
 62
     0
100
AcDbPoint
 10
-45572.14203334877
 20
7318.838220439656
 30
0.0
  0
ENDBLK
  5
1795
330
178A
100
AcDbEntity
  8
0
100
AcDbBlockEnd
  0
BLOCK
  5
1797
330
1796
100
AcDbEntity
  8
0
100
AcDbBlockBegin
  2
*D20
 70
     1
 10
0.0
 20
0.0
 30
0.0
  3
*D20
  1

  0
LINE
  5
1798
330
1796
100
AcDbEntity
  8
SIZE
  6
Continuous
 62
     0
370
    -2
100
AcDbLine
 10
-46068.2448107129
 20
7107.04977650116
 30
0.0
 11
-46163.69918682766
 21
7107.04977650116
 31
0.0
  0
LINE
  5
1799
330
1796
100
AcDbEntity
  8
SIZE
  6
Continuous
 62
     0
370
    -2
100
AcDbLine
 10
-46065.14203334877
 20
6827.105465368518
 30
0.0
 11
-46163.69918682766
 21
6827.105465368518
 31
0.0
  0
LINE
  5
179A
330
1796
100
AcDbEntity
  8
SIZE
  6
Continuous
 62
     0
370
    -2
100
AcDbLine
 10
-46143.69918682767
 20
7095.049776501159
 30
0.0
 11
-46143.69918682767
 21
6839.105465368517
 31
0.0
  0
INSERT
  5
179B
330
1796
100
AcDbEntity
  8
SIZE
  6
Continuous
 62
     0
370
    -2
100
AcDbBlockReference
  2
_DOTBLANK
 10
-46143.69918682767
 20
7107.04977650116
 30
0.0
 41
12.0
 42
12.0
 43
12.0
 50
90.0
  0
INSERT
  5
179C
330
1796
100
AcDbEntity
  8
SIZE
  6
Continuous
 62
     0
370
    -2
100
AcDbBlockReference
  2
_DOTBLANK
 10
-46143.69918682767
 20
6827.105465368518
 30
0.0
 41
12.0
 42
12.0
 43
12.0
 50
270.0
  0
MTEXT
  5
179D
330
1796
100
AcDbEntity
  8
SIZE
  6
Continuous
 62
     0
100
AcDbMText
 10
-46185.69918682767
 20
6967.077620934829
 30
0.0
 40
64.0
 41
0.0
 71
     5
 72
     1
  1
\A1;280
 11
0.0000000000000001
 21
1.0
 31
0.0
 73
     1
 44
1.0
  0
POINT
  5
179E
330
1796
100
AcDbEntity
  8
DEFPOINTS
  6
Continuous
 62
     0
100
AcDbPoint
 10
-46048.24481071291
 20
7107.04977650116
 30
0.0
  0
POINT
  5
179F
330
1796
100
AcDbEntity
  8
DEFPOINTS
  6
Continuous
 62
     0
100
AcDbPoint
 10
-46045.14203334876
 20
6827.105465368518
 30
0.0
  0
POINT
  5
17A0
330
1796
100
AcDbEntity
  8
DEFPOINTS
  6
Continuous
 62
     0
100
AcDbPoint
 10
-46143.69918682767
 20
6827.105465368518
 30
0.0
  0
ENDBLK
  5
17A1
330
1796
100
AcDbEntity
  8
0
100
AcDbBlockEnd
  0
BLOCK
  5
1ABE
330
1ABD
100
AcDbEntity
  8
0
100
AcDbBlockBegin
  2
*D21
 70
     1
 10
0.0
 20
0.0
 30
0.0
  3
*D21
  1

  0
LINE
  5
1AC0
330
1ABD
100
AcDbEntity
  8
SIZE
  6
Continuous
 62
     0
370
    -2
100
AcDbLine
 10
-252.3107583254375
 20
-1096.650596193697
 30
0.0
 11
-252.3107583254375
 21
-1017.397857711099
 31
0.0
  0
LINE
  5
1AC1
330
1ABD
100
AcDbEntity
  8
SIZE
  6
Continuous
 62
     0
370
    -2
100
AcDbLine
 10
205.6892416745625
 20
-1096.650596193697
 30
0.0
 11
205.6892416745625
 21
-1017.397857711099
 31
0.0
  0
LINE
  5
1AC2
330
1ABD
100
AcDbEntity
  8
SIZE
  6
Continuous
 62
     0
370
    -2
100
AcDbLine
 10
-240.3107583254375
 20
-1037.397857711098
 30
0.0
 11
193.6892416745625
 21
-1037.397857711098
 31
0.0
  0
INSERT
  5
1AC3
330
1ABD
100
AcDbEntity
  8
SIZE
  6
Continuous
 62
     0
370
    -2
100
AcDbBlockReference
  2
_DOTBLANK
 10
-252.3107583254375
 20
-1037.397857711098
 30
0.0
 41
12.0
 42
12.0
 43
12.0
 50
180.0
  0
INSERT
  5
1AC4
330
1ABD
100
AcDbEntity
  8
SIZE
  6
Continuous
 62
     0
370
    -2
100
AcDbBlockReference
  2
_DOTBLANK
 10
205.6892416745625
 20
-1037.397857711098
 30
0.0
 41
12.0
 42
12.0
 43
12.0
  0
MTEXT
  5
1AC5
330
1ABD
100
AcDbEntity
  8
SIZE
  6
Continuous
 62
     0
100
AcDbMText
 10
-23.31075832543751
 20
-995.3978577110987
 30
0.0
 40
64.0
 41
0.0
 71
     5
 72
     1
  1
\A1;458
 73
     1
 44
1.0
  0
POINT
  5
1AC6
330
1ABD
100
AcDbEntity
  8
DEFPOINTS
  6
Continuous
 62
     0
100
AcDbPoint
 10
-252.3107583254375
 20
-1116.650596193696
 30
0.0
  0
POINT
  5
1AC7
330
1ABD
100
AcDbEntity
  8
DEFPOINTS
  6
Continuous
 62
     0
100
AcDbPoint
 10
205.6892416745625
 20
-1116.650596193696
 30
0.0
  0
POINT
  5
1AC8
330
1ABD
100
AcDbEntity
  8
DEFPOINTS
  6
Continuous
 62
     0
100
AcDbPoint
 10
205.6892416745625
 20
-1037.397857711098
 30
0.0
  0
ENDBLK
  5
1ABF
330
1ABD
100
AcDbEntity
  8
0
100
AcDbBlockEnd
  0
BLOCK
  5
1ACA
330
1AC9
100
AcDbEntity
  8
0
100
AcDbBlockBegin
  2
*D22
 70
     1
 10
0.0
 20
0.0
 30
0.0
  3
*D22
  1

  0
LINE
  5
1ACC
330
1AC9
100
AcDbEntity
  8
SIZE
  6
Continuous
 62
     0
370
    -2
100
AcDbLine
 10
-261.8107583251756
 20
-1105.050596193697
 30
0.0
 11
-261.8107583251756
 21
-892.3621522551997
 31
0.0
  0
LINE
  5
1ACD
330
1AC9
100
AcDbEntity
  8
SIZE
  6
Continuous
 62
     0
370
    -2
100
AcDbLine
 10
215.1892416748244
 20
-1105.060596193697
 30
0.0
 11
215.1892416748244
 21
-892.3621522551997
 31
0.0
  0
LINE
  5
1ACE
330
1AC9
100
AcDbEntity
  8
SIZE
  6
Continuous
 62
     0
370
    -2
100
AcDbLine
 10
-249.8107583251756
 20
-912.3621522551998
 30
0.0
 11
203.1892416748244
 21
-912.3621522551998
 31
0.0
  0
INSERT
  5
1ACF
330
1AC9
100
AcDbEntity
  8
SIZE
  6
Continuous
 62
     0
370
    -2
100
AcDbBlockReference
  2
_DOTBLANK
 10
-261.8107583251756
 20
-912.3621522551998
 30
0.0
 41
12.0
 42
12.0
 43
12.0
 50
180.0
  0
INSERT
  5
1AD0
330
1AC9
100
AcDbEntity
  8
SIZE
  6
Continuous
 62
     0
370
    -2
100
AcDbBlockReference
  2
_DOTBLANK
 10
215.1892416748244
 20
-912.3621522551998
 30
0.0
 41
12.0
 42
12.0
 43
12.0
  0
MTEXT
  5
1AD1
330
1AC9
100
AcDbEntity
  8
SIZE
  6
Continuous
 62
     0
100
AcDbMText
 10
-23.31075832517558
 20
-870.3621522551996
 30
0.0
 40
64.0
 41
0.0
 71
     5
 72
     1
  1
\A1;477
 73
     1
 44
1.0
  0
POINT
  5
1AD2
330
1AC9
100
AcDbEntity
  8
DEFPOINTS
  6
Continuous
 62
     0
100
AcDbPoint
 10
-261.8107583251756
 20
-1125.050596193697
 30
0.0
  0
POINT
  5
1AD3
330
1AC9
100
AcDbEntity
  8
DEFPOINTS
  6
Continuous
 62
     0
100
AcDbPoint
 10
215.1892416748244
 20
-1125.060596193697
 30
0.0
  0
POINT
  5
1AD4
330
1AC9
100
AcDbEntity
  8
DEFPOINTS
  6
Continuous
 62
     0
100
AcDbPoint
 10
215.1892416748244
 20
-912.3621522551998
 30
0.0
  0
ENDBLK
  5
1ACB
330
1AC9
100
AcDbEntity
  8
0
100
AcDbBlockEnd
  0
BLOCK
  5
1AD6
330
1AD5
100
AcDbEntity
  8
0
100
AcDbBlockBegin
  2
*D23
 70
     1
 10
0.0
 20
0.0
 30
0.0
  3
*D23
  1

  0
LINE
  5
1AD8
330
1AD5
100
AcDbEntity
  8
SIZE
  6
Continuous
 62
     0
370
    -2
100
AcDbLine
 10
-280.9135356893082
 20
-1124.150596193697
 30
0.0
 11
-376.3679118040662
 21
-1124.150596193697
 31
0.0
  0
LINE
  5
1AD9
330
1AD5
100
AcDbEntity
  8
SIZE
  6
Continuous
 62
     0
370
    -2
100
AcDbLine
 10
-277.8107583251756
 20
-1404.094907326338
 30
0.0
 11
-376.3679118040662
 21
-1404.094907326338
 31
0.0
  0
LINE
  5
1ADA
330
1AD5
100
AcDbEntity
  8
SIZE
  6
Continuous
 62
     0
370
    -2
100
AcDbLine
 10
-356.3679118040662
 20
-1136.150596193697
 30
0.0
 11
-356.3679118040662
 21
-1392.094907326337
 31
0.0
  0
INSERT
  5
1ADB
330
1AD5
100
AcDbEntity
  8
SIZE
  6
Continuous
 62
     0
370
    -2
100
AcDbBlockReference
  2
_DOTBLANK
 10
-356.3679118040662
 20
-1124.150596193697
 30
0.0
 41
12.0
 42
12.0
 43
12.0
 50
90.0
  0
INSERT
  5
1ADC
330
1AD5
100
AcDbEntity
  8
SIZE
  6
Continuous
 62
     0
370
    -2
100
AcDbBlockReference
  2
_DOTBLANK
 10
-356.3679118040662
 20
-1404.094907326338
 30
0.0
 41
12.0
 42
12.0
 43
12.0
 50
270.0
  0
MTEXT
  5
1ADD
330
1AD5
100
AcDbEntity
  8
SIZE
  6
Continuous
 62
     0
100
AcDbMText
 10
-398.3679118040658
 20
-1264.122751760017
 30
0.0
 40
64.0
 41
0.0
 71
     5
 72
     1
  1
\A1;280
 11
0.0000000000000001
 21
1.0
 31
0.0
 73
     1
 44
1.0
  0
POINT
  5
1ADE
330
1AD5
100
AcDbEntity
  8
DEFPOINTS
  6
Continuous
 62
     0
100
AcDbPoint
 10
-260.9135356893082
 20
-1124.150596193697
 30
0.0
  0
POINT
  5
1ADF
330
1AD5
100
AcDbEntity
  8
DEFPOINTS
  6
Continuous
 62
     0
100
AcDbPoint
 10
-257.8107583251756
 20
-1404.094907326338
 30
0.0
  0
POINT
  5
1AE0
330
1AD5
100
AcDbEntity
  8
DEFPOINTS
  6
Continuous
 62
     0
100
AcDbPoint
 10
-356.3679118040662
 20
-1404.094907326338
 30
0.0
  0
ENDBLK
  5
1AD7
330
1AD5
100
AcDbEntity
  8
0
100
AcDbBlockEnd
  0
ENDSEC
  0
SECTION
  2
ENTITIES
  0
TEXT
  5
953
330
85F
100
AcDbEntity
  8
OUTLINE
  6
Continuous
 62
     3
100
AcDbText
 10
-418.231467
 20
13.715189
 30
0.0
 40
64.0
  1
 
 41
0.9
100
AcDbText
  0
TEXT
  5
954
330
85F
100
AcDbEntity
  8
OUTLINE
  6
Continuous
 62
     3
100
AcDbText
 10
-418.231467
 20
13.715189
 30
0.0
 40
64.0
  1
 
 41
0.9
100
AcDbText
  0
TEXT
  5
955
330
85F
100
AcDbEntity
  8
OUTLINE
  6
Continuous
 62
     3
100
AcDbText
 10
1341.41903
 20
-706.0588199999997
 30
0.0
 40
64.0
  1
 
 41
0.9
100
AcDbText
  0
TEXT
  5
956
330
85F
100
AcDbEntity
  8
OUTLINE
  6
Continuous
 62
     3
100
AcDbText
 10
1341.41903
 20
-706.0588199999997
 30
0.0
 40
64.0
  1
 
 41
0.9
100
AcDbText
  0
TEXT
  5
957
330
85F
100
AcDbEntity
  8
OUTLINE
  6
Continuous
 62
     3
100
AcDbText
 10
1341.41903
 20
-706.0588199999997
 30
0.0
 40
64.0
  1
 
 41
0.9
100
AcDbText
  0
TEXT
  5
958
330
85F
100
AcDbEntity
  8
OUTLINE
  6
Continuous
 62
     3
100
AcDbText
 10
1341.41903
 20
-706.0588199999997
 30
0.0
 40
64.0
  1
 
 41
0.9
100
AcDbText
  0
LINE
  5
1933
330
85F
100
AcDbEntity
  8
DETAIL
100
AcDbLine
 10
-260.9107583251741
 20
-1124.950596193697
 30
0.0
 11
-245.8107583251756
 21
-1124.950596193697
 31
0.0
  0
LINE
  5
1934
330
85F
100
AcDbEntity
  8
DETAIL
100
AcDbLine
 10
-245.8107583251756
 20
-1124.150596193697
 30
0.0
 11
-245.8107583251756
 21
-1124.950596193697
 31
0.0
  0
LINE
  5
1935
330
85F
100
AcDbEntity
  8
DETAIL
100
AcDbLine
 10
-260.9107583251741
 20
-1124.150596193697
 30
0.0
 11
-245.8107583251756
 21
-1124.150596193697
 31
0.0
  0
LINE
  5
1936
330
85F
100
AcDbEntity
  8
DETAIL
100
AcDbLine
 10
-260.9107583251741
 20
-1159.150596193697
 30
0.0
 11
-260.8107583251756
 21
-1159.150596193697
 31
0.0
  0
LINE
  5
1937
330
85F
100
AcDbEntity
  8
DETAIL
100
AcDbLine
 10
-260.9107583251741
 20
-1290.707563103738
 30
0.0
 11
-260.8107583251756
 21
-1290.707563103738
 31
0.0
  0
LINE
  5
1938
330
85F
100
AcDbEntity
  8
DETAIL
100
AcDbLine
 10
-260.8107583251756
 20
-1158.876980079036
 30
0.0
 11
-260.9107583251741
 21
-1158.876980079036
 31
0.0
  0
LINE
  5
1939
330
85F
100
AcDbEntity
  8
DETAIL
100
AcDbLine
 10
-260.9107583251741
 20
-1159.150596193697
 30
0.0
 11
-260.9107583251741
 21
-1290.707563103738
 31
0.0
  0
LINE
  5
193A
330
85F
100
AcDbEntity
  8
DETAIL
100
AcDbLine
 10
-261.8107583251756
 20
-1290.603024302895
 30
0.0
 11
-261.8107583251756
 21
-1290.40572169952
 31
0.0
  0
LINE
  5
193B
330
85F
100
AcDbEntity
  8
DETAIL
100
AcDbLine
 10
-261.8107583251756
 20
-1290.40572169952
 30
0.0
 11
-261.8107583251756
 21
-1290.399744974745
 31
0.0
  0
LINE
  5
193C
330
85F
100
AcDbEntity
  8
DETAIL
100
AcDbLine
 10
-261.8107583251756
 20
-1290.399744974745
 30
0.0
 11
-261.8107583251756
 21
-1158.160596193697
 31
0.0
  0
LINE
  5
193D
330
85F
100
AcDbEntity
  8
DETAIL
100
AcDbLine
 10
-261.8107583251756
 20
-1290.40572169952
 30
0.0
 11
-261.8105886604451
 21
-1290.40572169952
 31
0.0
  0
SPLINE
  5
193E
330
85F
100
AcDbEntity
  8
DETAIL
100
AcDbSpline
210
0.0
220
0.0
230
1.0
 70
     8
 71
     3
 72
     8
 73
     4
 74
     0
 42
0.0000000001
 43
0.0000000001
 40
0.0
 40
0.0
 40
0.0
 40
0.0
 40
1.570796326794666
 40
1.570796326794666
 40
1.570796326794666
 40
1.570796326794666
 10
-260.9107583251741
 20
-1158.876980079036
 30
0.0
 10
-260.9631182027358
 20
-1158.649586122034
 30
0.0
 10
-261.0107583251727
 20
-1158.405898283526
 30
0.0
 10
-261.0107583251727
 20
-1158.160596193697
 30
0.0
  0
ELLIPSE
  5
193F
330
85F
100
AcDbEntity
  8
DETAIL
100
AcDbEllipse
 10
-260.9107583251741
 20
-1290.399744974745
 30
0.0
 11
-0.8999999999999925
 21
0.0000000000001066
 31
0.0
210
0.0
220
0.0
230
1.0
 40
0.3420201433254729
 41
0.0000000000080115
 42
1.570796326798884
  0
LINE
  5
1940
330
85F
100
AcDbEntity
  8
DETAIL
100
AcDbLine
 10
-260.9107583251741
 20
-1159.150596193697
 30
0.0
 11
-260.9107583251741
 21
-1158.876980079036
 31
0.0
  0
LINE
  5
1941
330
85F
100
AcDbEntity
  8
DETAIL
100
AcDbLine
 10
-261.8107583251756
 20
-1158.160596193697
 30
0.0
 11
-261.0107583251727
 21
-1158.160596193697
 31
0.0
  0
SPLINE
  5
1942
330
85F
100
AcDbEntity
  8
DETAIL
100
AcDbSpline
210
0.0
220
0.0
230
1.0
 70
     8
 71
     3
 72
    11
 73
     7
 74
     0
 42
0.0000000001
 43
0.0000000001
 40
0.0
 40
0.0
 40
0.0
 40
0.0
 40
1.437607986812991
 40
1.437607986812991
 40
1.437607986812991
 40
1.570796326794666
 40
1.570796326794666
 40
1.570796326794666
 40
1.570796326794666
 10
-261.8107583251756
 20
-1158.160596193697
 30
0.0
 10
-261.8107583251756
 20
-1158.516216608799
 30
0.0
 10
-261.4577365078792
 20
-1158.862326224213
 30
0.0
 10
-261.0302737484878
 20
-1159.090027587348
 30
0.0
 10
-260.9906711197825
 20
-1159.111123161972
 30
0.0
 10
-260.9507148271721
 20
-1159.131315384887
 30
0.0
 10
-260.9107583251741
 20
-1159.150596193697
 30
0.0
  0
LINE
  5
1943
330
85F
100
AcDbEntity
  8
DETAIL
100
AcDbLine
 10
-252.8607583251785
 20
-1266.631236741462
 30
0.0
 11
-252.8607583251785
 21
-1266.298142557884
 31
0.0
  0
ELLIPSE
  5
1944
330
85F
100
AcDbEntity
  8
DETAIL
100
AcDbEllipse
 10
-252.3107583251756
 20
-1266.298142557884
 30
0.0
 11
-0.549999999999996
 21
0.0000000000000178
 31
0.0
210
0.0
220
0.0
230
1.0
 40
0.9396926207860095
 41
3.141592653589838
 42
6.283185307179633
  0
LINE
  5
1945
330
85F
100
AcDbEntity
  8
DETAIL
100
AcDbLine
 10
-251.76075832518
 20
-1266.298142557884
 30
0.0
 11
-251.76075832518
 21
-1266.631236741462
 31
0.0
  0
ELLIPSE
  5
1946
330
85F
100
AcDbEntity
  8
DETAIL
100
AcDbEllipse
 10
-252.3107583251756
 20
-1267.94260464426
 30
0.0
 11
1.500000000000001
 21
0.0000000000000001
 31
0.0
210
0.0
220
0.0
230
0.9999999999999998
 40
0.9396926207860087
 41
1.946219934775776
 42
7.478558025993335
  0
ELLIPSE
  5
1947
330
85F
100
AcDbEntity
  8
DETAIL
100
AcDbEllipse
 10
-252.3107583251756
 20
-1267.668988529599
 30
0.0
 11
-1.5
 21
-0.0000000000000232
 31
0.0
210
0.0
220
0.0
230
1.0
 40
0.9396926207860104
 41
0.097211767411169
 42
3.044380886178466
  0
LINE
  5
1948
330
85F
100
AcDbEntity
  8
DETAIL
100
AcDbLine
 10
-252.8607583251785
 20
-1167.963511558931
 30
0.0
 11
-252.8607583251785
 21
-1167.923432305261
 31
0.0
  0
LINE
  5
1949
330
85F
100
AcDbEntity
  8
DETAIL
100
AcDbLine
 10
-251.7607583251727
 20
-1167.92343230526
 30
0.0
 11
-251.7607583251727
 21
-1167.963511558931
 31
0.0
  0
ELLIPSE
  5
194A
330
85F
100
AcDbEntity
  8
DETAIL
100
AcDbEllipse
 10
-252.3107583251756
 20
-1169.274879461728
 30
0.0
 11
1.5
 21
0.0000000000000097
 31
0.0
210
0.0
220
0.0
230
1.0
 40
0.9396926207860088
 41
1.946219934775772
 42
7.478558025993327
  0
ELLIPSE
  5
194B
330
85F
100
AcDbEntity
  8
DETAIL
100
AcDbEllipse
 10
-252.3107583251756
 20
-1169.001263347068
 30
0.0
 11
-1.499999999999999
 21
-0.0000000000000042
 31
0.0
210
0.0
220
0.0
230
1.0
 40
0.9396926207860083
 41
0.0972117674111825
 42
3.044380886178478
  0
LINE
  5
194C
330
85F
100
AcDbEntity
  8
DETAIL
100
AcDbLine
 10
-260.9107583251741
 20
-1403.757064917857
 30
0.0
 11
-258.530381056901
 21
-1403.757064917857
 31
0.0
  0
LINE
  5
194D
330
85F
100
AcDbEntity
  8
DETAIL
100
AcDbLine
 10
-260.9107583251741
 20
-1292.116727287309
 30
0.0
 11
-260.8107583251756
 21
-1292.116727287309
 31
0.0
  0
LINE
  5
194E
330
85F
100
AcDbEntity
  8
DETAIL
100
AcDbLine
 10
-260.8107583251756
 20
-1291.410369213023
 30
0.0
 11
-260.9107583251741
 21
-1291.410369213022
 31
0.0
  0
LINE
  5
194F
330
85F
100
AcDbEntity
  8
DETAIL
100
AcDbLine
 10
-260.9107583251741
 20
-1292.116727287309
 30
0.0
 11
-260.9107583251741
 21
-1403.757064917857
 31
0.0
  0
LINE
  5
1950
330
85F
100
AcDbEntity
  8
DETAIL
100
AcDbLine
 10
-261.0107583251727
 20
-1290.705657090805
 30
0.0
 11
-261.0107583251727
 21
-1291.313244977809
 31
0.0
  0
LINE
  5
1951
330
85F
100
AcDbEntity
  8
DETAIL
100
AcDbLine
 10
-261.0107583251727
 20
-1291.313244977809
 30
0.0
 11
-261.0107583251727
 21
-1291.322074453737
 31
0.0
  0
ELLIPSE
  5
1952
330
85F
100
AcDbEntity
  8
DETAIL
100
AcDbEllipse
 10
-260.9107583251741
 20
-1291.322074453737
 30
0.0
 11
-0.1000000000000055
 21
0.0000000000000076
 31
0.0
210
0.0
220
0.0
230
0.9999999999999998
 40
0.8829475928587518
 41
0.0
 42
1.570796326794964
  0
LINE
  5
1953
330
85F
100
AcDbEntity
  8
DETAIL
100
AcDbLine
 10
-260.9107583251741
 20
-1291.410369213022
 30
0.0
 11
-260.9107583251741
 21
-1292.116727287309
 31
0.0
  0
LINE
  5
1954
330
85F
100
AcDbEntity
  8
DETAIL
100
AcDbLine
 10
-261.0107583251727
 20
-1291.322074453737
 30
0.0
 11
-261.8107583251756
 21
-1291.322074453737
 31
0.0
  0
ELLIPSE
  5
1955
330
85F
100
AcDbEntity
  8
DETAIL
100
AcDbEllipse
 10
-260.9107583251741
 20
-1291.322074453737
 30
0.0
 11
-0.899999999999992
 21
0.0000000000000355
 31
0.0
210
0.0
220
0.0
230
0.9999999999999998
 40
0.8829475928587907
 41
0.0000000000000864
 42
1.570796326795325
  0
SPLINE
  5
1956
330
85F
100
AcDbEntity
  8
DETAIL
100
AcDbSpline
210
0.0
220
0.0
230
1.0
 70
     8
 71
     3
 72
    11
 73
     7
 74
     0
 42
0.0000000001
 43
0.0000000001
 40
0.0
 40
0.0
 40
0.0
 40
0.0
 40
1.437607986813545
 40
1.437607986813545
 40
1.437607986813545
 40
1.570796326794014
 40
1.570796326794014
 40
1.570796326794014
 40
1.570796326794014
 10
-261.8107583251756
 20
-1403.070466776628
 30
0.0
 10
-261.8107583251756
 20
-1403.418302296975
 30
0.0
 10
-261.4577365078792
 20
-1403.741585059673
 30
0.0
 10
-261.0302737484878
 20
-1403.759189097401
 30
0.0
 10
-260.9906711197825
 20
-1403.760820037534
 30
0.0
 10
-260.9507148271721
 20
-1403.760118915555
 30
0.0
 10
-260.9107583251741
 20
-1403.757064917857
 30
0.0
  0
LINE
  5
1957
330
85F
100
AcDbEntity
  8
DETAIL
100
AcDbLine
 10
-261.8107583251756
 20
-1403.070466776627
 30
0.0
 11
-261.8107583251756
 21
-1291.322074453737
 31
0.0
  0
LINE
  5
1958
330
85F
100
AcDbEntity
  8
DETAIL
100
AcDbLine
 10
-261.8107583251756
 20
-1290.603024302895
 30
0.0
 11
-261.586590607031
 21
-1290.603024302895
 31
0.0
  0
LINE
  5
1959
330
85F
100
AcDbEntity
  8
DETAIL
100
AcDbLine
 10
-261.8107583251756
 20
-1291.313244977809
 30
0.0
 11
-261.8107583251756
 21
-1290.603024302895
 31
0.0
  0
LINE
  5
195A
330
85F
100
AcDbEntity
  8
DETAIL
100
AcDbLine
 10
-261.8107583251756
 20
-1291.313244977809
 30
0.0
 11
-261.0107583251727
 21
-1291.313244977809
 31
0.0
  0
LINE
  5
195B
330
85F
100
AcDbEntity
  8
DETAIL
100
AcDbLine
 10
-261.8107583251756
 20
-1291.322074453737
 30
0.0
 11
-261.8107583251756
 21
-1291.313244977809
 31
0.0
  0
LINE
  5
195C
330
85F
100
AcDbEntity
  8
DETAIL
100
AcDbLine
 10
-252.8607583251785
 20
-1314.224923771299
 30
0.0
 11
-252.8607583251785
 21
-1314.058509516828
 31
0.0
  0
ELLIPSE
  5
195D
330
85F
100
AcDbEntity
  8
DETAIL
100
AcDbEllipse
 10
-252.3107583251756
 20
-1314.058509516828
 30
0.0
 11
-0.5500000000000007
 21
0.0
 31
0.0
210
0.0
220
0.0
230
1.0
 40
0.4694715627861576
 41
3.141592653589921
 42
6.283185307179714
  0
LINE
  5
195E
330
85F
100
AcDbEntity
  8
DETAIL
100
AcDbLine
 10
-251.76075832518
 20
-1314.058509516828
 30
0.0
 11
-251.76075832518
 21
-1314.224923771299
 31
0.0
  0
ELLIPSE
  5
195F
330
85F
100
AcDbEntity
  8
DETAIL
100
AcDbEllipse
 10
-252.3107583251756
 20
-1314.880084751705
 30
0.0
 11
1.499999999999987
 21
-0.0000000000000018
 31
0.0
210
0.0
220
0.0
230
0.9999999999999998
 40
0.4694715627861469
 41
1.946219934775809
 42
7.478558025993349
  0
ELLIPSE
  5
1960
330
85F
100
AcDbEntity
  8
DETAIL
100
AcDbEllipse
 10
-252.3107583251756
 20
-1314.173726677417
 30
0.0
 11
1.500000000000006
 21
0.0000000000000672
 31
0.0
210
0.0
220
0.0
230
1.0
 40
0.4694715627861225
 41
3.666955622600276
 42
5.757822338167844
  0
LINE
  5
1961
330
85F
100
AcDbEntity
  8
DETAIL
100
AcDbLine
 10
-252.8607583251785
 20
-1389.340373817083
 30
0.0
 11
-252.8607583251785
 21
-1389.173959562613
 31
0.0
  0
ELLIPSE
  5
1962
330
85F
100
AcDbEntity
  8
DETAIL
100
AcDbEllipse
 10
-252.3107583251756
 20
-1389.173959562613
 30
0.0
 11
-0.5500000000000007
 21
0.0000000000000355
 31
0.0
210
0.0
220
0.0
230
1.0
 40
0.4694715627861576
 41
3.141592653589928
 42
6.283185307179723
  0
LINE
  5
1963
330
85F
100
AcDbEntity
  8
DETAIL
100
AcDbLine
 10
-251.76075832518
 20
-1389.173959562613
 30
0.0
 11
-251.76075832518
 21
-1389.340373817083
 31
0.0
  0
ELLIPSE
  5
1964
330
85F
100
AcDbEntity
  8
DETAIL
100
AcDbEllipse
 10
-252.3107583251756
 20
-1389.995534797489
 30
0.0
 11
1.499999999999988
 21
0.0
 31
0.0
210
0.0
220
0.0
230
1.0
 40
0.4694715627861463
 41
1.946219934775809
 42
7.478558025993348
  0
ELLIPSE
  5
1965
330
85F
100
AcDbEntity
  8
DETAIL
100
AcDbEllipse
 10
-252.3107583251756
 20
-1389.289176723202
 30
0.0
 11
1.499999999999981
 21
0.0000000000000586
 31
0.0
210
0.0
220
0.0
230
1.0
 40
0.4694715627861132
 41
3.666955622600293
 42
5.757822338168063
  0
LINE
  5
1966
330
85F
100
AcDbEntity
  8
DETAIL
100
AcDbLine
 10
-261.0107583251727
 20
-1125.050596193697
 30
0.0
 11
-261.0107583251727
 21
-1125.060596193697
 31
0.0
  0
LINE
  5
1967
330
85F
100
AcDbEntity
  8
DETAIL
100
AcDbLine
 10
-261.8107583251756
 20
-1125.060596193697
 30
0.0
 11
-261.8107583251756
 21
-1125.050596193697
 31
0.0
  0
ARC
  5
1968
330
85F
100
AcDbEntity
  8
DETAIL
100
AcDbCircle
 10
-260.9107583251741
 20
-1125.050596193697
 30
0.0
 40
0.1000000000000001
100
AcDbArc
 50
90.0
 51
180.0
  0
LINE
  5
1969
330
85F
100
AcDbEntity
  8
DETAIL
100
AcDbLine
 10
-260.9107583251741
 20
-1124.150596193697
 30
0.0
 11
-260.9107583251741
 21
-1124.950596193697
 31
0.0
  0
ARC
  5
196A
330
85F
100
AcDbEntity
  8
DETAIL
100
AcDbCircle
 10
-260.9107583251741
 20
-1125.050596193697
 30
0.0
 40
0.9000000000000001
100
AcDbArc
 50
90.0
 51
180.0
  0
LINE
  5
196B
330
85F
100
AcDbEntity
  8
DETAIL
100
AcDbLine
 10
-261.8107583251756
 20
-1125.050596193697
 30
0.0
 11
-261.0107583251727
 21
-1125.050596193697
 31
0.0
  0
LINE
  5
196C
330
85F
100
AcDbEntity
  8
DETAIL
100
AcDbLine
 10
-261.0107583251727
 20
-1158.150596193697
 30
0.0
 11
-261.0107583251727
 21
-1158.160596193697
 31
0.0
  0
LINE
  5
196D
330
85F
100
AcDbEntity
  8
DETAIL
100
AcDbLine
 10
-261.8107583251756
 20
-1158.160596193697
 30
0.0
 11
-261.8107583251756
 21
-1158.150596193697
 31
0.0
  0
LINE
  5
196E
330
85F
100
AcDbEntity
  8
DETAIL
100
AcDbLine
 10
-261.8107583251756
 20
-1158.150596193697
 30
0.0
 11
-261.8107583251756
 21
-1125.060596193697
 31
0.0
  0
LINE
  5
196F
330
85F
100
AcDbEntity
  8
DETAIL
100
AcDbLine
 10
-260.9107583251741
 20
-1125.060596193697
 30
0.0
 11
-260.9107583251741
 21
-1158.150596193697
 31
0.0
  0
LINE
  5
1970
330
85F
100
AcDbEntity
  8
DETAIL
100
AcDbLine
 10
-260.9107583251741
 20
-1158.150596193697
 30
0.0
 11
-261.8107583251756
 21
-1158.150596193697
 31
0.0
  0
LINE
  5
1971
330
85F
100
AcDbEntity
  8
DETAIL
100
AcDbLine
 10
-260.9107583251741
 20
-1125.060596193697
 30
0.0
 11
-261.8107583251756
 21
-1125.060596193697
 31
0.0
  0
LINE
  5
1972
330
85F
100
AcDbEntity
  8
DETAIL
100
AcDbLine
 10
-260.9107583251741
 20
-1125.060596193697
 30
0.0
 11
-245.8107583251756
 21
-1125.060596193697
 31
0.0
  0
LINE
  5
1973
330
85F
100
AcDbEntity
  8
DETAIL
100
AcDbLine
 10
-260.9107583251741
 20
-1158.150596193697
 30
0.0
 11
-260.8107583251756
 21
-1158.150596193697
 31
0.0
  0
LINE
  5
1974
330
85F
100
AcDbEntity
  8
DETAIL
100
AcDbLine
 10
-245.8107583251756
 20
-1132.131657778263
 30
0.0
 11
-245.8107583251756
 21
-1125.060596193697
 31
0.0
  0
LINE
  5
1975
330
85F
100
AcDbEntity
  8
DETAIL
100
AcDbLine
 10
205.1392416748288
 20
-1389.340373817081
 30
0.0
 11
205.1392416748288
 21
-1389.173959562612
 31
0.0
  0
ELLIPSE
  5
1976
330
85F
100
AcDbEntity
  8
DETAIL
100
AcDbEllipse
 10
205.6892416748244
 20
-1389.2891767232
 30
0.0
 11
1.500000000000017
 21
0.0000000000000618
 31
0.0
210
0.0
220
0.0
230
1.0
 40
0.4694715627861499
 41
3.666955622600258
 42
5.757822338168096
  0
ELLIPSE
  5
1977
330
85F
100
AcDbEntity
  8
DETAIL
100
AcDbEllipse
 10
205.6892416748244
 20
-1389.995534797487
 30
0.0
 11
1.499999999999991
 21
0.0000000000000489
 31
0.0
210
0.0
220
0.0
230
0.9999999999999998
 40
0.4694715627861472
 41
1.946219934775785
 42
7.478558025993325
  0
LINE
  5
1978
330
85F
100
AcDbEntity
  8
DETAIL
100
AcDbLine
 10
206.2392416748273
 20
-1389.173959562612
 30
0.0
 11
206.2392416748273
 21
-1389.340373817081
 31
0.0
  0
ELLIPSE
  5
1979
330
85F
100
AcDbEntity
  8
DETAIL
100
AcDbEllipse
 10
205.6892416748244
 20
-1389.173959562611
 30
0.0
 11
-0.5499999999999905
 21
0.0000000000000355
 31
0.0
210
0.0
220
0.0
230
1.0
 40
0.4694715627861443
 41
3.141592653589929
 42
6.283185307179723
  0
LINE
  5
197A
330
85F
100
AcDbEntity
  8
DETAIL
100
AcDbLine
 10
205.1392416748215
 20
-1314.224923771297
 30
0.0
 11
205.1392416748215
 21
-1314.058509516827
 31
0.0
  0
ELLIPSE
  5
197B
330
85F
100
AcDbEntity
  8
DETAIL
100
AcDbEllipse
 10
205.6892416748244
 20
-1314.173726677416
 30
0.0
 11
1.500000000000001
 21
0.0000000000000804
 31
0.0
210
0.0
220
0.0
230
0.9999999999999998
 40
0.4694715627861332
 41
3.666955622600251
 42
5.757822338168057
  0
ELLIPSE
  5
197C
330
85F
100
AcDbEntity
  8
DETAIL
100
AcDbEllipse
 10
205.6892416748244
 20
-1314.880084751703
 30
0.0
 11
1.500000000000006
 21
0.0000000000000107
 31
0.0
210
0.0
220
0.0
230
1.0
 40
0.4694715627861444
 41
1.946219934775801
 42
7.478558025993344
  0
LINE
  5
197D
330
85F
100
AcDbEntity
  8
DETAIL
100
AcDbLine
 10
206.2392416748273
 20
-1314.058509516827
 30
0.0
 11
206.2392416748273
 21
-1314.224923771297
 31
0.0
  0
ELLIPSE
  5
197E
330
85F
100
AcDbEntity
  8
DETAIL
100
AcDbEllipse
 10
205.6892416748244
 20
-1314.058509516828
 30
0.0
 11
-0.5499999999999994
 21
-0.0000000000000356
 31
0.0
210
0.0
220
0.0
230
1.0
 40
0.4694715627861445
 41
3.141592653589785
 42
6.283185307179577
  0
LINE
  5
197F
330
85F
100
AcDbEntity
  8
DETAIL
100
AcDbLine
 10
205.1392416748142
 20
-1266.631236741463
 30
0.0
 11
205.1392416748142
 21
-1266.298142557885
 31
0.0
  0
ELLIPSE
  5
1980
330
85F
100
AcDbEntity
  8
DETAIL
100
AcDbEllipse
 10
205.6892416748171
 20
-1267.6689885296
 30
0.0
 11
-1.500000000000004
 21
-0.0000000000000458
 31
0.0
210
0.0
220
0.0
230
1.0
 40
0.9396926207860103
 41
0.0972117674112783
 42
3.044380886178575
  0
ELLIPSE
  5
1981
330
85F
100
AcDbEntity
  8
DETAIL
100
AcDbEllipse
 10
205.6892416748171
 20
-1267.942604644261
 30
0.0
 11
1.499999999999985
 21
0.0
 31
0.0
210
0.0
220
0.0
230
1.0
 40
0.9396926207860099
 41
1.946219934775776
 42
7.478558025993335
  0
LINE
  5
1982
330
85F
100
AcDbEntity
  8
DETAIL
100
AcDbLine
 10
206.2392416748128
 20
-1266.298142557885
 30
0.0
 11
206.2392416748128
 21
-1266.631236741463
 31
0.0
  0
ELLIPSE
  5
1983
330
85F
100
AcDbEntity
  8
DETAIL
100
AcDbEllipse
 10
205.6892416748171
 20
-1266.298142557885
 30
0.0
 11
-0.5499999999999951
 21
0.0000000000000177
 31
0.0
210
0.0
220
0.0
230
1.0
 40
0.9396926207860113
 41
3.141592653589832
 42
6.283185307179627
  0
LINE
  5
1984
330
85F
100
AcDbEntity
  8
DETAIL
100
AcDbLine
 10
205.1392416748215
 20
-1167.963511558932
 30
0.0
 11
205.1392416748215
 21
-1167.923432305261
 31
0.0
  0
ELLIPSE
  5
1985
330
85F
100
AcDbEntity
  8
DETAIL
100
AcDbEllipse
 10
205.6892416748244
 20
-1169.001263347069
 30
0.0
 11
-1.5
 21
-0.00000000000003
 31
0.0
210
0.0
220
0.0
230
1.0
 40
0.9396926207860095
 41
0.0972117674111641
 42
3.044380886178461
  0
ELLIPSE
  5
1986
330
85F
100
AcDbEntity
  8
DETAIL
100
AcDbEllipse
 10
205.6892416748244
 20
-1169.274879461729
 30
0.0
 11
1.500000000000003
 21
0.0000000000000263
 31
0.0
210
0.0
220
0.0
230
0.9999999999999998
 40
0.939692620786009
 41
1.946219934775761
 42
7.478558025993317
  0
LINE
  5
1987
330
85F
100
AcDbEntity
  8
DETAIL
100
AcDbLine
 10
206.2392416748273
 20
-1167.92343230526
 30
0.0
 11
206.2392416748273
 21
-1167.963511558932
 31
0.0
  0
LINE
  5
1988
330
85F
100
AcDbEntity
  8
DETAIL
100
AcDbLine
 10
214.2892416748229
 20
-1158.876980079037
 30
0.0
 11
214.1892416748244
 21
-1158.876980079037
 31
0.0
  0
LINE
  5
1989
330
85F
100
AcDbEntity
  8
DETAIL
100
AcDbLine
 10
214.2892416748229
 20
-1290.707563103739
 30
0.0
 11
214.1892416748244
 21
-1290.707563103739
 31
0.0
  0
LINE
  5
198A
330
85F
100
AcDbEntity
  8
DETAIL
100
AcDbLine
 10
214.1892416748244
 20
-1159.150596193698
 30
0.0
 11
214.2892416748229
 21
-1159.150596193698
 31
0.0
  0
LINE
  5
198B
330
85F
100
AcDbEntity
  8
DETAIL
100
AcDbLine
 10
214.2892416748302
 20
-1403.757064917852
 30
0.0
 11
211.9088644065571
 21
-1403.757064917852
 31
0.0
  0
LINE
  5
198C
330
85F
100
AcDbEntity
  8
DETAIL
100
AcDbLine
 10
214.1892416748244
 20
-1291.41036921302
 30
0.0
 11
214.2892416748229
 21
-1291.410369213018
 31
0.0
  0
LINE
  5
198D
330
85F
100
AcDbEntity
  8
DETAIL
100
AcDbLine
 10
214.1892416748244
 20
-1292.116727287307
 30
0.0
 11
214.2892416748229
 21
-1292.116727287305
 31
0.0
  0
LINE
  5
198E
330
85F
100
AcDbEntity
  8
DETAIL
100
AcDbLine
 10
214.2892416748229
 20
-1290.707563103739
 30
0.0
 11
214.2892416748229
 21
-1159.150596193698
 31
0.0
  0
LINE
  5
198F
330
85F
100
AcDbEntity
  8
DETAIL
100
AcDbLine
 10
215.1892416748244
 20
-1158.160596193697
 30
0.0
 11
215.1892416748244
 21
-1290.399744974745
 31
0.0
  0
LINE
  5
1990
330
85F
100
AcDbEntity
  8
DETAIL
100
AcDbLine
 10
215.1892416748244
 20
-1290.399744974745
 30
0.0
 11
215.1892416748244
 21
-1290.40572169952
 31
0.0
  0
LINE
  5
1991
330
85F
100
AcDbEntity
  8
DETAIL
100
AcDbLine
 10
215.1892416748244
 20
-1290.40572169952
 30
0.0
 11
215.1892416748244
 21
-1290.603024302895
 31
0.0
  0
LINE
  5
1992
330
85F
100
AcDbEntity
  8
DETAIL
100
AcDbLine
 10
215.1890720100939
 20
-1290.40572169952
 30
0.0
 11
215.1892416748244
 21
-1290.40572169952
 31
0.0
  0
ELLIPSE
  5
1993
330
85F
100
AcDbEntity
  8
DETAIL
100
AcDbEllipse
 10
214.2892416748229
 20
-1290.399744974746
 30
0.0
 11
0.9000000000001048
 21
-0.0000000000039789
 31
0.0
210
0.0
220
0.0
230
1.0
 40
0.3420201433253951
 41
4.712388980484887
 42
6.283185307376798
  0
SPLINE
  5
1994
330
85F
100
AcDbEntity
  8
DETAIL
100
AcDbSpline
210
0.0
220
0.0
230
1.0
 70
     8
 71
     3
 72
    11
 73
     7
 74
     0
 42
0.0000000001
 43
0.0000000001
 40
0.0
 40
0.0
 40
0.0
 40
0.0
 40
1.437607986813014
 40
1.437607986813014
 40
1.437607986813014
 40
1.570796326800899
 40
1.570796326800899
 40
1.570796326800899
 40
1.570796326800899
 10
214.2892416748229
 20
-1159.150596193698
 30
0.0
 10
214.7205240708656
 20
-1158.942483045505
 30
0.0
 10
215.12399874894
 20
-1158.613629324764
 30
0.0
 10
215.1812708579758
 20
-1158.259315302339
 30
0.0
 10
215.1865768782529
 20
-1158.226489596783
 30
0.0
 10
215.1892416748244
 20
-1158.193542931045
 30
0.0
 10
215.1892416748244
 20
-1158.160596193696
 30
0.0
  0
LINE
  5
1995
330
85F
100
AcDbEntity
  8
DETAIL
100
AcDbLine
 10
214.2892416748229
 20
-1158.876980079037
 30
0.0
 11
214.2892416748229
 21
-1159.150596193698
 31
0.0
  0
LINE
  5
1996
330
85F
100
AcDbEntity
  8
DETAIL
100
AcDbLine
 10
214.3892416748215
 20
-1158.160596193697
 30
0.0
 11
215.1892416748244
 21
-1158.160596193697
 31
0.0
  0
SPLINE
  5
1997
330
85F
100
AcDbEntity
  8
DETAIL
100
AcDbSpline
210
0.0
220
0.0
230
1.0
 70
     8
 71
     3
 72
     8
 73
     4
 74
     0
 42
0.0000000001
 43
0.0000000001
 40
0.0
 40
0.0
 40
0.0
 40
0.0
 40
1.570796326800899
 40
1.570796326800899
 40
1.570796326800899
 40
1.570796326800899
 10
214.3892416748215
 20
-1158.160596193698
 30
0.0
 10
214.3892416748288
 20
-1158.405898283527
 30
0.0
 10
214.3416015523846
 20
-1158.649586122035
 30
0.0
 10
214.2892416748229
 20
-1158.876980079037
 30
0.0
  0
LINE
  5
1998
330
85F
100
AcDbEntity
  8
DETAIL
100
AcDbLine
 10
199.1892416748244
 20
-1124.950596193697
 30
0.0
 11
199.1892416748244
 21
-1124.150596193697
 31
0.0
  0
LINE
  5
1999
330
85F
100
AcDbEntity
  8
DETAIL
100
AcDbLine
 10
199.1892416748244
 20
-1124.950596193697
 30
0.0
 11
214.2892416748229
 21
-1124.950596193697
 31
0.0
  0
LINE
  5
199A
330
85F
100
AcDbEntity
  8
DETAIL
100
AcDbLine
 10
214.2892416748229
 20
-1124.150596193697
 30
0.0
 11
199.1892416748244
 21
-1124.150596193697
 31
0.0
  0
LINE
  5
199B
330
85F
100
AcDbEntity
  8
DETAIL
100
AcDbLine
 10
214.3892416748215
 20
-1291.322074453737
 30
0.0
 11
214.3892416748215
 21
-1291.313244977809
 31
0.0
  0
LINE
  5
199C
330
85F
100
AcDbEntity
  8
DETAIL
100
AcDbLine
 10
214.3892416748215
 20
-1291.313244977809
 30
0.0
 11
214.3892416748215
 21
-1290.705657090806
 31
0.0
  0
LINE
  5
199D
330
85F
100
AcDbEntity
  8
DETAIL
100
AcDbLine
 10
214.2892416748302
 20
-1403.757064917852
 30
0.0
 11
214.2892416748229
 21
-1292.116727287305
 31
0.0
  0
SPLINE
  5
199E
330
85F
100
AcDbEntity
  8
DETAIL
100
AcDbSpline
210
0.0
220
0.0
230
1.0
 70
     8
 71
     3
 72
    11
 73
     7
 74
     0
 42
0.0000000001
 43
0.0000000001
 40
0.0
 40
0.0
 40
0.0
 40
0.0
 40
1.437607986812543
 40
1.437607986812543
 40
1.437607986812543
 40
1.570796326781739
 40
1.570796326781739
 40
1.570796326781739
 40
1.570796326781739
 10
215.1892416748244
 20
-1403.07046677663
 30
0.0
 10
215.1892416748244
 20
-1403.418302296975
 30
0.0
 10
214.836219857528
 20
-1403.74158505967
 30
0.0
 10
214.4087570981367
 20
-1403.759189097396
 30
0.0
 10
214.3691544694386
 20
-1403.760820037529
 30
0.0
 10
214.3291981768209
 20
-1403.76011891555
 30
0.0
 10
214.2892416748302
 20
-1403.757064917852
 30
0.0
  0
LINE
  5
199F
330
85F
100
AcDbEntity
  8
DETAIL
100
AcDbLine
 10
215.1892416748244
 20
-1291.322074453737
 30
0.0
 11
215.1892416748244
 21
-1403.070466776628
 31
0.0
  0
ELLIPSE
  5
19A0
330
85F
100
AcDbEntity
  8
DETAIL
100
AcDbEllipse
 10
214.2892416748229
 20
-1291.322074453731
 30
0.0
 11
0.9000000000000747
 21
0.0000000000000252
 31
0.0
210
0.0
220
0.0
230
1.0
 40
0.8829475928588067
 41
4.712388980384663
 42
6.283185307179556
  0
LINE
  5
19A1
330
85F
100
AcDbEntity
  8
DETAIL
100
AcDbLine
 10
214.2892416748229
 20
-1292.116727287305
 30
0.0
 11
214.2892416748229
 21
-1291.410369213018
 31
0.0
  0
LINE
  5
19A2
330
85F
100
AcDbEntity
  8
DETAIL
100
AcDbLine
 10
215.1892416748244
 20
-1291.322074453737
 30
0.0
 11
214.3892416748215
 21
-1291.322074453737
 31
0.0
  0
ELLIPSE
  5
19A3
330
85F
100
AcDbEntity
  8
DETAIL
100
AcDbEllipse
 10
214.2892416748229
 20
-1291.322074453731
 30
0.0
 11
0.1000000000000557
 21
0.0000000000000162
 31
0.0
210
0.0
220
0.0
230
1.0
 40
0.8829475928590195
 41
4.712388980384545
 42
6.283185307179302
  0
LINE
  5
19A4
330
85F
100
AcDbEntity
  8
DETAIL
100
AcDbLine
 10
215.1892416748244
 20
-1290.603024302895
 30
0.0
 11
215.1892416748244
 21
-1291.313244977809
 31
0.0
  0
LINE
  5
19A5
330
85F
100
AcDbEntity
  8
DETAIL
100
AcDbLine
 10
214.9650739566871
 20
-1290.603024302895
 30
0.0
 11
215.1892416748244
 21
-1290.603024302895
 31
0.0
  0
LINE
  5
19A6
330
85F
100
AcDbEntity
  8
DETAIL
100
AcDbLine
 10
214.3892416748215
 20
-1291.313244977809
 30
0.0
 11
215.1892416748244
 21
-1291.313244977809
 31
0.0
  0
LINE
  5
19A7
330
85F
100
AcDbEntity
  8
DETAIL
100
AcDbLine
 10
215.1892416748244
 20
-1291.313244977809
 30
0.0
 11
215.1892416748244
 21
-1291.322074453737
 31
0.0
  0
LINE
  5
19A8
330
85F
100
AcDbEntity
  8
DETAIL
100
AcDbLine
 10
214.3892416748215
 20
-1158.160596193697
 30
0.0
 11
214.3892416748215
 21
-1158.150596193697
 31
0.0
  0
LINE
  5
19A9
330
85F
100
AcDbEntity
  8
DETAIL
100
AcDbLine
 10
215.1892416748244
 20
-1125.060596193697
 30
0.0
 11
215.1892416748244
 21
-1158.150596193697
 31
0.0
  0
LINE
  5
19AA
330
85F
100
AcDbEntity
  8
DETAIL
100
AcDbLine
 10
215.1892416748244
 20
-1158.150596193697
 30
0.0
 11
215.1892416748244
 21
-1158.160596193697
 31
0.0
  0
LINE
  5
19AB
330
85F
100
AcDbEntity
  8
DETAIL
100
AcDbLine
 10
214.2892416748229
 20
-1158.150596193697
 30
0.0
 11
214.2892416748229
 21
-1125.060596193697
 31
0.0
  0
LINE
  5
19AC
330
85F
100
AcDbEntity
  8
DETAIL
100
AcDbLine
 10
214.2892416748229
 20
-1158.150596193697
 30
0.0
 11
215.1892416748244
 21
-1158.150596193697
 31
0.0
  0
LINE
  5
19AD
330
85F
100
AcDbEntity
  8
DETAIL
100
AcDbLine
 10
215.1892416748244
 20
-1125.060596193697
 30
0.0
 11
214.2892416748229
 21
-1125.060596193697
 31
0.0
  0
LINE
  5
19AE
330
85F
100
AcDbEntity
  8
DETAIL
100
AcDbLine
 10
214.3892416748215
 20
-1125.060596193697
 30
0.0
 11
214.3892416748215
 21
-1125.050596193697
 31
0.0
  0
LINE
  5
19AF
330
85F
100
AcDbEntity
  8
DETAIL
100
AcDbLine
 10
215.1892416748244
 20
-1125.050596193697
 30
0.0
 11
215.1892416748244
 21
-1125.060596193697
 31
0.0
  0
ARC
  5
19B0
330
85F
100
AcDbEntity
  8
DETAIL
100
AcDbCircle
 10
214.2892416748229
 20
-1125.050596193697
 30
0.0
 40
0.9000000000000005
100
AcDbArc
 50
0.0
 51
90.0
  0
LINE
  5
19B1
330
85F
100
AcDbEntity
  8
DETAIL
100
AcDbLine
 10
214.2892416748229
 20
-1124.950596193697
 30
0.0
 11
214.2892416748229
 21
-1124.150596193697
 31
0.0
  0
ARC
  5
19B2
330
85F
100
AcDbEntity
  8
DETAIL
100
AcDbCircle
 10
214.2892416748229
 20
-1125.050596193697
 30
0.0
 40
0.0999999999999999
100
AcDbArc
 50
0.0
 51
90.0
  0
LINE
  5
19B3
330
85F
100
AcDbEntity
  8
DETAIL
100
AcDbLine
 10
214.3892416748215
 20
-1125.050596193697
 30
0.0
 11
215.1892416748244
 21
-1125.050596193697
 31
0.0
  0
LINE
  5
19B4
330
85F
100
AcDbEntity
  8
DETAIL
100
AcDbLine
 10
199.1892416748244
 20
-1125.060596193697
 30
0.0
 11
214.2892416748229
 21
-1125.060596193697
 31
0.0
  0
LINE
  5
19B5
330
85F
100
AcDbEntity
  8
DETAIL
100
AcDbLine
 10
214.2892416748229
 20
-1158.150596193697
 30
0.0
 11
214.1892416748244
 21
-1158.150596193697
 31
0.0
  0
LINE
  5
19B6
330
85F
100
AcDbEntity
  8
DETAIL
100
AcDbLine
 10
199.1892416748244
 20
-1132.131657778263
 30
0.0
 11
199.1892416748244
 21
-1125.060596193697
 31
0.0
  0
LINE
  5
19B7
330
85F
100
AcDbEntity
  8
DETAIL
100
AcDbLine
 10
-249.8107583251756
 20
-1263.14974860903
 30
0.0
 11
-249.8107583251756
 21
-1268.882832565706
 31
0.0
  0
LINE
  5
19B8
330
85F
100
AcDbEntity
  8
DETAIL
100
AcDbLine
 10
-249.8107583251756
 20
-1263.14974860903
 30
0.0
 11
-249.8107583251756
 21
-1262.876132494369
 31
0.0
  0
ELLIPSE
  5
19B9
330
85F
100
AcDbEntity
  8
DETAIL
100
AcDbEllipse
 10
-252.3107583251756
 20
-1258.2725976224
 30
0.0
 11
5.500000000000174
 21
-0.0000000000000028
 31
0.0
210
0.0
220
0.0
230
0.9999999999999998
 40
0.9396926207860332
 41
5.184250817664358
 42
6.256711652432961
  0
ELLIPSE
  5
19BA
330
85F
100
AcDbEntity
  8
DETAIL
100
AcDbEllipse
 10
-252.3107583251756
 20
-1258.2725976224
 30
0.0
 11
-5.500000000000258
 21
-0.0000000000000232
 31
0.0
210
0.0
220
0.0
230
1.0
 40
0.939692620786033
 41
0.0264736547466216
 42
1.098934489515221
  0
ELLIPSE
  5
19BB
330
85F
100
AcDbEntity
  8
DETAIL
100
AcDbEllipse
 10
-252.3107583251756
 20
-1258.546213737061
 30
0.0
 11
-5.499999999999992
 21
-0.0000000000000104
 31
0.0
210
0.0
220
0.0
230
1.0
 40
0.939692620786033
 41
2.04265816407458
 42
7.382119796694868
  0
LINE
  5
19BC
330
85F
100
AcDbEntity
  8
DETAIL
100
AcDbLine
 10
-254.8107583251756
 20
-1263.14974860903
 30
0.0
 11
-254.8107583251756
 21
-1262.876132494369
 31
0.0
  0
LINE
  5
19BD
330
85F
100
AcDbEntity
  8
DETAIL
100
AcDbLine
 10
-254.8107583251756
 20
-1268.882832565706
 30
0.0
 11
-254.8107583251756
 21
-1263.14974860903
 31
0.0
  0
LINE
  5
19BE
330
85F
100
AcDbEntity
  8
DETAIL
100
AcDbLine
 10
-260.8107583251756
 20
-1290.965637439079
 30
0.0
 11
214.1892416748244
 21
-1290.965637439079
 31
0.0
  0
LINE
  5
19BF
330
85F
100
AcDbEntity
  8
DETAIL
100
AcDbLine
 10
214.1892416748244
 20
-1291.452472143659
 30
0.0
 11
-260.8107583251756
 21
-1291.45247214366
 31
0.0
  0
LINE
  5
19C0
330
85F
100
AcDbEntity
  8
DETAIL
100
AcDbLine
 10
-260.8107583251756
 20
-1291.45247214366
 30
0.0
 11
-260.8107583251756
 21
-1290.965637439079
 31
0.0
  0
LINE
  5
19C1
330
85F
100
AcDbEntity
  8
DETAIL
100
AcDbLine
 10
214.1892416748244
 20
-1291.452472143659
 30
0.0
 11
214.1892416748244
 21
-1290.965637439079
 31
0.0
  0
LINE
  5
19C2
330
85F
100
AcDbEntity
  8
DETAIL
100
AcDbLine
 10
214.1892416748244
 20
-1159.440781624618
 30
0.0
 11
214.1892416748244
 21
-1290.965637439079
 31
0.0
  0
LINE
  5
19C3
330
85F
100
AcDbEntity
  8
DETAIL
100
AcDbLine
 10
-260.8107583251756
 20
-1159.440781624618
 30
0.0
 11
-260.8107583251756
 21
-1290.965637439079
 31
0.0
  0
LINE
  5
19C4
330
85F
100
AcDbEntity
  8
DETAIL
100
AcDbLine
 10
214.1892416748244
 20
-1159.440781624618
 30
0.0
 11
-260.8107583251756
 21
-1159.440781624618
 31
0.0
  0
LINE
  5
19C5
330
85F
100
AcDbEntity
  8
DETAIL
100
AcDbLine
 10
-260.8107583251756
 20
-1159.440781624618
 30
0.0
 11
-260.8107583251756
 21
-1159.132963495625
 31
0.0
  0
LINE
  5
19C6
330
85F
100
AcDbEntity
  8
DETAIL
100
AcDbLine
 10
214.1892416748244
 20
-1159.440781624618
 30
0.0
 11
214.1892416748244
 21
-1159.132963495625
 31
0.0
  0
LINE
  5
19C7
330
85F
100
AcDbEntity
  8
DETAIL
100
AcDbLine
 10
-260.8107583251756
 20
-1159.132963495625
 30
0.0
 11
214.1892416748244
 21
-1159.132963495625
 31
0.0
  0
ELLIPSE
  5
19C8
330
85F
100
AcDbEntity
  8
DETAIL
100
AcDbEllipse
 10
205.6892416748244
 20
-1170.215107383173
 30
0.0
 11
-2.499999999999994
 21
-0.0000000000000002
 31
0.0
210
0.0
220
0.0
230
1.0
 40
0.9396926207860339
 41
0.0
 42
6.283185307179585
  0
ELLIPSE
  5
19C9
330
85F
100
AcDbEntity
  8
DETAIL
100
AcDbEllipse
 10
205.6892416748244
 20
-1169.941491268513
 30
0.0
 11
-2.499999999999996
 21
-0.0000000000000031
 31
0.0
210
0.0
220
0.0
230
1.0
 40
0.9396926207860339
 41
0.058268203760402
 42
3.083324449829313
  0
ELLIPSE
  5
19CA
330
85F
100
AcDbEntity
  8
DETAIL
100
AcDbEllipse
 10
-252.3107583251756
 20
-1170.215107383173
 30
0.0
 11
-2.499999999999964
 21
-0.0000000000000002
 31
0.0
210
0.0
220
0.0
230
1.0
 40
0.9396926207860339
 41
0.0
 42
6.283185307179585
  0
ELLIPSE
  5
19CB
330
85F
100
AcDbEntity
  8
DETAIL
100
AcDbEllipse
 10
-252.3107583251756
 20
-1268.882832565706
 30
0.0
 11
2.499999999999996
 21
-0.0000000000000889
 31
0.0
210
0.0
220
0.0
230
1.0
 40
0.9396926207860346
 41
3.141592653589759
 42
6.283185307179552
  0
ELLIPSE
  5
19CC
330
85F
100
AcDbEntity
  8
DETAIL
100
AcDbEllipse
 10
205.6892416748244
 20
-1268.882832565706
 30
0.0
 11
2.500000000000016
 21
-0.0000000000000179
 31
0.0
210
0.0
220
0.0
230
1.0
 40
0.9396926207860335
 41
3.141592653589801
 42
6.283185307179594
  0
ELLIPSE
  5
19CD
330
85F
100
AcDbEntity
  8
DETAIL
100
AcDbEllipse
 10
-252.3107583251756
 20
-1268.609216451047
 30
0.0
 11
-2.500000000000066
 21
0.0000000000000001
 31
0.0
210
0.0
220
0.0
230
1.0
 40
0.9396926207860339
 41
0.0000000000000001
 42
3.141592653589792
  0
ELLIPSE
  5
19CE
330
85F
100
AcDbEntity
  8
DETAIL
100
AcDbEllipse
 10
205.6892416748244
 20
-1268.609216451047
 30
0.0
 11
-2.499999999999991
 21
0.0000000000000001
 31
0.0
210
0.0
220
0.0
230
1.0
 40
0.9396926207860332
 41
0.0
 42
3.14159265358979
  0
ELLIPSE
  5
19CF
330
85F
100
AcDbEntity
  8
DETAIL
100
AcDbEllipse
 10
-252.3107583251756
 20
-1169.941491268513
 30
0.0
 11
-2.49999999999999
 21
-0.0000000000000017
 31
0.0
210
0.0
220
0.0
230
0.9999999999999998
 40
0.9396926207860341
 41
0.0582682037605535
 42
3.083324449829313
  0
LINE
  5
19D0
330
85F
100
AcDbEntity
  8
DETAIL
100
AcDbLine
 10
208.1892416748244
 20
-1263.14974860903
 30
0.0
 11
208.1892416748244
 21
-1268.882832565706
 31
0.0
  0
LINE
  5
19D1
330
85F
100
AcDbEntity
  8
DETAIL
100
AcDbLine
 10
203.1892416748244
 20
-1268.882832565706
 30
0.0
 11
203.1892416748244
 21
-1263.14974860903
 31
0.0
  0
ELLIPSE
  5
19D2
330
85F
100
AcDbEntity
  8
DETAIL
100
AcDbEllipse
 10
205.6892416748244
 20
-1258.546213737061
 30
0.0
 11
-5.500000000000011
 21
-0.0000000000000319
 31
0.0
210
0.0
220
0.0
230
1.0
 40
0.9396926207860339
 41
2.042658164074576
 42
7.382119796694865
  0
LINE
  5
19D3
330
85F
100
AcDbEntity
  8
DETAIL
100
AcDbLine
 10
208.1892416748244
 20
-1263.14974860903
 30
0.0
 11
208.1892416748244
 21
-1262.876132494369
 31
0.0
  0
ELLIPSE
  5
19D4
330
85F
100
AcDbEntity
  8
DETAIL
100
AcDbEllipse
 10
205.6892416748244
 20
-1258.2725976224
 30
0.0
 11
5.499999999999999
 21
-0.0000000000000045
 31
0.0
210
0.0
220
0.0
230
1.0
 40
0.9396926207860332
 41
5.184250817664302
 42
6.256711652432961
  0
ELLIPSE
  5
19D5
330
85F
100
AcDbEntity
  8
DETAIL
100
AcDbEllipse
 10
205.6892416748244
 20
-1258.2725976224
 30
0.0
 11
-5.500000000000018
 21
-0.0000000000000453
 31
0.0
210
0.0
220
0.0
230
1.0
 40
0.9396926207860335
 41
0.0264736547465828
 42
1.098934489515202
  0
LINE
  5
19D6
330
85F
100
AcDbEntity
  8
DETAIL
100
AcDbLine
 10
203.1892416748244
 20
-1263.14974860903
 30
0.0
 11
203.1892416748244
 21
-1262.876132494369
 31
0.0
  0
LINE
  5
19D7
330
85F
100
AcDbEntity
  8
DETAIL
100
AcDbLine
 10
214.1892416748244
 20
-1402.686492637982
 30
0.0
 11
211.1892416748244
 21
-1404.094907326337
 31
0.0
  0
LINE
  5
19D8
330
85F
100
AcDbEntity
  8
DETAIL
100
AcDbLine
 10
-257.8107583251756
 20
-1404.094907326338
 30
0.0
 11
-260.8107583251756
 21
-1402.686492637982
 31
0.0
  0
LINE
  5
19D9
330
85F
100
AcDbEntity
  8
DETAIL
100
AcDbLine
 10
-260.8107583251756
 20
-1135.131657778263
 30
0.0
 11
-257.8107583251756
 21
-1132.131657778263
 31
0.0
  0
LINE
  5
19DA
330
85F
100
AcDbEntity
  8
DETAIL
100
AcDbLine
 10
211.1892416748244
 20
-1132.131657778263
 30
0.0
 11
214.1892416748244
 21
-1135.131657778263
 31
0.0
  0
LINE
  5
19DB
330
85F
100
AcDbEntity
  8
DETAIL
100
AcDbLine
 10
-257.8107583251756
 20
-1404.094907326338
 30
0.0
 11
211.1892416748244
 21
-1404.094907326337
 31
0.0
  0
LINE
  5
19DC
330
85F
100
AcDbEntity
  8
DETAIL
100
AcDbLine
 10
214.1892416748244
 20
-1291.452472143659
 30
0.0
 11
214.1892416748244
 21
-1402.686492637982
 31
0.0
  0
LINE
  5
19DD
330
85F
100
AcDbEntity
  8
DETAIL
100
AcDbLine
 10
-260.8107583251756
 20
-1291.45247214366
 30
0.0
 11
-260.8107583251756
 21
-1402.686492637982
 31
0.0
  0
ELLIPSE
  5
19DE
330
85F
100
AcDbEntity
  8
DETAIL
100
AcDbEllipse
 10
-252.3107583251756
 20
-1390.010086549607
 30
0.0
 11
-2.499999999999931
 21
-0.0000000000000002
 31
0.0
210
0.0
220
0.0
230
1.0
 40
0.4694715627861674
 41
0.0
 42
6.283185307179584
  0
ELLIPSE
  5
19DF
330
85F
100
AcDbEntity
  8
DETAIL
100
AcDbEllipse
 10
-252.3107583251756
 20
-1314.89463650382
 30
0.0
 11
-2.499999999999976
 21
-0.0000000000000002
 31
0.0
210
0.0
220
0.0
230
1.0
 40
0.4694715627861675
 41
0.0
 42
6.283185307179584
  0
ELLIPSE
  5
19E0
330
85F
100
AcDbEntity
  8
DETAIL
100
AcDbEllipse
 10
205.6892416748244
 20
-1390.010086549607
 30
0.0
 11
-2.499999999999893
 21
-0.0000000000000002
 31
0.0
210
0.0
220
0.0
230
1.0
 40
0.4694715627861675
 41
0.0
 42
6.283185307179584
  0
ELLIPSE
  5
19E1
330
85F
100
AcDbEntity
  8
DETAIL
100
AcDbEllipse
 10
205.6892416748244
 20
-1314.89463650382
 30
0.0
 11
-2.499999999999944
 21
-0.0000000000000002
 31
0.0
210
0.0
220
0.0
230
1.0
 40
0.4694715627861675
 41
0.0
 42
6.283185307179584
  0
LINE
  5
19E2
330
85F
100
AcDbEntity
  8
DETAIL
100
AcDbLine
 10
-260.8107583251756
 20
-1159.132963495625
 30
0.0
 11
-260.8107583251756
 21
-1135.131657778263
 31
0.0
  0
LINE
  5
19E3
330
85F
100
AcDbEntity
  8
DETAIL
100
AcDbLine
 10
214.1892416748244
 20
-1135.131657778263
 30
0.0
 11
214.1892416748244
 21
-1159.132963495625
 31
0.0
  0
LINE
  5
19E4
330
85F
100
AcDbEntity
  8
DETAIL
100
AcDbLine
 10
-257.8107583251756
 20
-1132.131657778263
 30
0.0
 11
211.1892416748244
 21
-1132.131657778263
 31
0.0
  0
LINE
  5
19E5
330
85F
100
AcDbEntity
  8
DETAIL
100
AcDbLine
 10
207.1892416748244
 20
-1147.631657778263
 30
0.0
 11
207.1892416748244
 21
-1150.631657778263
 31
0.0
  0
LINE
  5
19E6
330
85F
100
AcDbEntity
  8
DETAIL
100
AcDbLine
 10
204.1892416748244
 20
-1147.631657778263
 30
0.0
 11
207.1892416748244
 21
-1147.631657778263
 31
0.0
  0
LINE
  5
19E7
330
85F
100
AcDbEntity
  8
DETAIL
100
AcDbLine
 10
204.1892416748244
 20
-1150.631657778263
 30
0.0
 11
204.1892416748244
 21
-1147.631657778263
 31
0.0
  0
LINE
  5
19E8
330
85F
100
AcDbEntity
  8
DETAIL
100
AcDbLine
 10
207.1892416748244
 20
-1150.631657778263
 30
0.0
 11
204.1892416748244
 21
-1150.631657778263
 31
0.0
  0
LINE
  5
19E9
330
85F
100
AcDbEntity
  8
DETAIL
100
AcDbLine
 10
-250.8107583251756
 20
-1147.631657778263
 30
0.0
 11
-250.8107583251756
 21
-1150.631657778263
 31
0.0
  0
LINE
  5
19EA
330
85F
100
AcDbEntity
  8
DETAIL
100
AcDbLine
 10
-253.8107583251756
 20
-1147.631657778263
 30
0.0
 11
-250.8107583251756
 21
-1147.631657778263
 31
0.0
  0
LINE
  5
19EB
330
85F
100
AcDbEntity
  8
DETAIL
100
AcDbLine
 10
-253.8107583251756
 20
-1150.631657778263
 30
0.0
 11
-253.8107583251756
 21
-1147.631657778263
 31
0.0
  0
LINE
  5
19EC
330
85F
100
AcDbEntity
  8
DETAIL
100
AcDbLine
 10
-250.8107583251756
 20
-1150.631657778263
 30
0.0
 11
-253.8107583251756
 21
-1150.631657778263
 31
0.0
  0
ELLIPSE
  5
19ED
330
85F
100
AcDbEntity
  8
DETAIL
100
AcDbEllipse
 10
-252.3107583251756
 20
-1389.881628256614
 30
0.0
 11
-2.500000000000002
 21
0.0000000000000028
 31
0.0
210
0.0
220
0.0
230
1.0
 40
0.469471562786154
 41
0.0547519838241837
 42
3.086840669765462
  0
ELLIPSE
  5
19EE
330
85F
100
AcDbEntity
  8
DETAIL
100
AcDbEllipse
 10
-252.3107583251756
 20
-1314.766178210828
 30
0.0
 11
-2.499999999999995
 21
0.0000000000000227
 31
0.0
210
0.0
220
0.0
230
1.0
 40
0.469471562786142
 41
0.0547519838240511
 42
3.086840669765781
  0
ELLIPSE
  5
19EF
330
85F
100
AcDbEntity
  8
DETAIL
100
AcDbEllipse
 10
205.6892416748244
 20
-1389.881628256613
 30
0.0
 11
-2.49999999999997
 21
-0.0000000000000302
 31
0.0
210
0.0
220
0.0
230
1.0
 40
0.4694715627861451
 41
0.0547519838250635
 42
3.086840669764678
  0
ELLIPSE
  5
19F0
330
85F
100
AcDbEntity
  8
DETAIL
100
AcDbEllipse
 10
205.6892416748244
 20
-1314.766178210827
 30
0.0
 11
-2.50000000000002
 21
0.0000000000000138
 31
0.0
210
0.0
220
0.0
230
0.9999999999999998
 40
0.4694715627861492
 41
0.0547519838249494
 42
3.086840669764866
  0
LINE
  5
19F1
330
85F
100
AcDbEntity
  8
OUTLINE
100
AcDbLine
 10
-260.9107583251741
 20
-1124.950596193697
 30
0.0
 11
-245.8107583251756
 21
-1124.950596193697
 31
0.0
  0
LINE
  5
19F2
330
85F
100
AcDbEntity
  8
OUTLINE
100
AcDbLine
 10
-245.8107583251756
 20
-1124.150596193697
 30
0.0
 11
-245.8107583251756
 21
-1124.950596193697
 31
0.0
  0
LINE
  5
19F3
330
85F
100
AcDbEntity
  8
OUTLINE
100
AcDbLine
 10
-260.9107583251741
 20
-1124.150596193697
 30
0.0
 11
-245.8107583251756
 21
-1124.150596193697
 31
0.0
  0
LINE
  5
19F4
330
85F
100
AcDbEntity
  8
OUTLINE
100
AcDbLine
 10
-260.9107583251741
 20
-1159.150596193697
 30
0.0
 11
-260.8107583251756
 21
-1159.150596193697
 31
0.0
  0
LINE
  5
19F5
330
85F
100
AcDbEntity
  8
OUTLINE
100
AcDbLine
 10
-260.9107583251741
 20
-1290.707563103738
 30
0.0
 11
-260.8107583251756
 21
-1290.707563103738
 31
0.0
  0
LINE
  5
19F6
330
85F
100
AcDbEntity
  8
OUTLINE
100
AcDbLine
 10
-260.8107583251756
 20
-1158.876980079036
 30
0.0
 11
-260.9107583251741
 21
-1158.876980079036
 31
0.0
  0
LINE
  5
19F7
330
85F
100
AcDbEntity
  8
OUTLINE
100
AcDbLine
 10
-260.9107583251741
 20
-1159.150596193697
 30
0.0
 11
-260.9107583251741
 21
-1290.707563103738
 31
0.0
  0
LINE
  5
19F8
330
85F
100
AcDbEntity
  8
OUTLINE
100
AcDbLine
 10
-261.8107583251756
 20
-1290.603024302895
 30
0.0
 11
-261.8107583251756
 21
-1290.40572169952
 31
0.0
  0
LINE
  5
19F9
330
85F
100
AcDbEntity
  8
OUTLINE
100
AcDbLine
 10
-261.8107583251756
 20
-1290.40572169952
 30
0.0
 11
-261.8107583251756
 21
-1290.399744974745
 31
0.0
  0
LINE
  5
19FA
330
85F
100
AcDbEntity
  8
OUTLINE
100
AcDbLine
 10
-261.8107583251756
 20
-1290.399744974745
 30
0.0
 11
-261.8107583251756
 21
-1158.160596193697
 31
0.0
  0
LINE
  5
19FB
330
85F
100
AcDbEntity
  8
OUTLINE
100
AcDbLine
 10
-261.8107583251756
 20
-1290.40572169952
 30
0.0
 11
-261.8105886604451
 21
-1290.40572169952
 31
0.0
  0
SPLINE
  5
19FC
330
85F
100
AcDbEntity
  8
OUTLINE
100
AcDbSpline
210
0.0
220
0.0
230
1.0
 70
     8
 71
     3
 72
     8
 73
     4
 74
     0
 42
0.0000000001
 43
0.0000000001
 40
0.0
 40
0.0
 40
0.0
 40
0.0
 40
1.570796326794666
 40
1.570796326794666
 40
1.570796326794666
 40
1.570796326794666
 10
-260.9107583251741
 20
-1158.876980079036
 30
0.0
 10
-260.9631182027358
 20
-1158.649586122034
 30
0.0
 10
-261.0107583251727
 20
-1158.405898283526
 30
0.0
 10
-261.0107583251727
 20
-1158.160596193697
 30
0.0
  0
ELLIPSE
  5
19FD
330
85F
100
AcDbEntity
  8
OUTLINE
100
AcDbEllipse
 10
-260.9107583251741
 20
-1290.399744974745
 30
0.0
 11
-0.8999999999999925
 21
0.0000000000001066
 31
0.0
210
0.0
220
0.0
230
1.0
 40
0.3420201433254729
 41
0.0000000000080115
 42
1.570796326798884
  0
LINE
  5
19FE
330
85F
100
AcDbEntity
  8
OUTLINE
100
AcDbLine
 10
-260.9107583251741
 20
-1159.150596193697
 30
0.0
 11
-260.9107583251741
 21
-1158.876980079036
 31
0.0
  0
LINE
  5
19FF
330
85F
100
AcDbEntity
  8
OUTLINE
100
AcDbLine
 10
-261.8107583251756
 20
-1158.160596193697
 30
0.0
 11
-261.0107583251727
 21
-1158.160596193697
 31
0.0
  0
SPLINE
  5
1A00
330
85F
100
AcDbEntity
  8
OUTLINE
100
AcDbSpline
210
0.0
220
0.0
230
1.0
 70
     8
 71
     3
 72
    11
 73
     7
 74
     0
 42
0.0000000001
 43
0.0000000001
 40
0.0
 40
0.0
 40
0.0
 40
0.0
 40
1.437607986812991
 40
1.437607986812991
 40
1.437607986812991
 40
1.570796326794666
 40
1.570796326794666
 40
1.570796326794666
 40
1.570796326794666
 10
-261.8107583251756
 20
-1158.160596193697
 30
0.0
 10
-261.8107583251756
 20
-1158.516216608799
 30
0.0
 10
-261.4577365078792
 20
-1158.862326224213
 30
0.0
 10
-261.0302737484878
 20
-1159.090027587348
 30
0.0
 10
-260.9906711197825
 20
-1159.111123161972
 30
0.0
 10
-260.9507148271721
 20
-1159.131315384887
 30
0.0
 10
-260.9107583251741
 20
-1159.150596193697
 30
0.0
  0
LINE
  5
1A01
330
85F
100
AcDbEntity
  8
OUTLINE
100
AcDbLine
 10
-252.8607583251785
 20
-1266.631236741462
 30
0.0
 11
-252.8607583251785
 21
-1266.298142557884
 31
0.0
  0
ELLIPSE
  5
1A02
330
85F
100
AcDbEntity
  8
OUTLINE
100
AcDbEllipse
 10
-252.3107583251756
 20
-1266.298142557884
 30
0.0
 11
-0.549999999999996
 21
0.0000000000000178
 31
0.0
210
0.0
220
0.0
230
1.0
 40
0.9396926207860095
 41
3.141592653589838
 42
6.283185307179633
  0
LINE
  5
1A03
330
85F
100
AcDbEntity
  8
OUTLINE
100
AcDbLine
 10
-251.76075832518
 20
-1266.298142557884
 30
0.0
 11
-251.76075832518
 21
-1266.631236741462
 31
0.0
  0
ELLIPSE
  5
1A04
330
85F
100
AcDbEntity
  8
OUTLINE
100
AcDbEllipse
 10
-252.3107583251756
 20
-1267.94260464426
 30
0.0
 11
1.500000000000001
 21
0.0000000000000001
 31
0.0
210
0.0
220
0.0
230
0.9999999999999998
 40
0.9396926207860087
 41
1.946219934775776
 42
7.478558025993335
  0
ELLIPSE
  5
1A05
330
85F
100
AcDbEntity
  8
OUTLINE
100
AcDbEllipse
 10
-252.3107583251756
 20
-1267.668988529599
 30
0.0
 11
-1.5
 21
-0.0000000000000232
 31
0.0
210
0.0
220
0.0
230
1.0
 40
0.9396926207860104
 41
0.097211767411169
 42
3.044380886178466
  0
LINE
  5
1A06
330
85F
100
AcDbEntity
  8
OUTLINE
100
AcDbLine
 10
-252.8607583251785
 20
-1167.963511558931
 30
0.0
 11
-252.8607583251785
 21
-1167.923432305261
 31
0.0
  0
LINE
  5
1A07
330
85F
100
AcDbEntity
  8
OUTLINE
100
AcDbLine
 10
-251.7607583251727
 20
-1167.92343230526
 30
0.0
 11
-251.7607583251727
 21
-1167.963511558931
 31
0.0
  0
ELLIPSE
  5
1A08
330
85F
100
AcDbEntity
  8
OUTLINE
100
AcDbEllipse
 10
-252.3107583251756
 20
-1169.274879461728
 30
0.0
 11
1.5
 21
0.0000000000000097
 31
0.0
210
0.0
220
0.0
230
1.0
 40
0.9396926207860088
 41
1.946219934775772
 42
7.478558025993327
  0
ELLIPSE
  5
1A09
330
85F
100
AcDbEntity
  8
OUTLINE
100
AcDbEllipse
 10
-252.3107583251756
 20
-1169.001263347068
 30
0.0
 11
-1.499999999999999
 21
-0.0000000000000042
 31
0.0
210
0.0
220
0.0
230
1.0
 40
0.9396926207860083
 41
0.0972117674111825
 42
3.044380886178478
  0
LINE
  5
1A0A
330
85F
100
AcDbEntity
  8
OUTLINE
100
AcDbLine
 10
-260.9107583251741
 20
-1403.757064917857
 30
0.0
 11
-258.530381056901
 21
-1403.757064917857
 31
0.0
  0
LINE
  5
1A0B
330
85F
100
AcDbEntity
  8
OUTLINE
100
AcDbLine
 10
-260.9107583251741
 20
-1292.116727287309
 30
0.0
 11
-260.8107583251756
 21
-1292.116727287309
 31
0.0
  0
LINE
  5
1A0C
330
85F
100
AcDbEntity
  8
OUTLINE
100
AcDbLine
 10
-260.8107583251756
 20
-1291.410369213023
 30
0.0
 11
-260.9107583251741
 21
-1291.410369213022
 31
0.0
  0
LINE
  5
1A0D
330
85F
100
AcDbEntity
  8
OUTLINE
100
AcDbLine
 10
-260.9107583251741
 20
-1292.116727287309
 30
0.0
 11
-260.9107583251741
 21
-1403.757064917857
 31
0.0
  0
LINE
  5
1A0E
330
85F
100
AcDbEntity
  8
OUTLINE
100
AcDbLine
 10
-261.0107583251727
 20
-1290.705657090805
 30
0.0
 11
-261.0107583251727
 21
-1291.313244977809
 31
0.0
  0
LINE
  5
1A0F
330
85F
100
AcDbEntity
  8
OUTLINE
100
AcDbLine
 10
-261.0107583251727
 20
-1291.313244977809
 30
0.0
 11
-261.0107583251727
 21
-1291.322074453737
 31
0.0
  0
ELLIPSE
  5
1A10
330
85F
100
AcDbEntity
  8
OUTLINE
100
AcDbEllipse
 10
-260.9107583251741
 20
-1291.322074453737
 30
0.0
 11
-0.1000000000000055
 21
0.0000000000000076
 31
0.0
210
0.0
220
0.0
230
0.9999999999999998
 40
0.8829475928587518
 41
0.0
 42
1.570796326794964
  0
LINE
  5
1A11
330
85F
100
AcDbEntity
  8
OUTLINE
100
AcDbLine
 10
-260.9107583251741
 20
-1291.410369213022
 30
0.0
 11
-260.9107583251741
 21
-1292.116727287309
 31
0.0
  0
LINE
  5
1A12
330
85F
100
AcDbEntity
  8
OUTLINE
100
AcDbLine
 10
-261.0107583251727
 20
-1291.322074453737
 30
0.0
 11
-261.8107583251756
 21
-1291.322074453737
 31
0.0
  0
ELLIPSE
  5
1A13
330
85F
100
AcDbEntity
  8
OUTLINE
100
AcDbEllipse
 10
-260.9107583251741
 20
-1291.322074453737
 30
0.0
 11
-0.899999999999992
 21
0.0000000000000355
 31
0.0
210
0.0
220
0.0
230
0.9999999999999998
 40
0.8829475928587907
 41
0.0000000000000864
 42
1.570796326795325
  0
SPLINE
  5
1A14
330
85F
100
AcDbEntity
  8
OUTLINE
100
AcDbSpline
210
0.0
220
0.0
230
1.0
 70
     8
 71
     3
 72
    11
 73
     7
 74
     0
 42
0.0000000001
 43
0.0000000001
 40
0.0
 40
0.0
 40
0.0
 40
0.0
 40
1.437607986813545
 40
1.437607986813545
 40
1.437607986813545
 40
1.570796326794014
 40
1.570796326794014
 40
1.570796326794014
 40
1.570796326794014
 10
-261.8107583251756
 20
-1403.070466776628
 30
0.0
 10
-261.8107583251756
 20
-1403.418302296975
 30
0.0
 10
-261.4577365078792
 20
-1403.741585059673
 30
0.0
 10
-261.0302737484878
 20
-1403.759189097401
 30
0.0
 10
-260.9906711197825
 20
-1403.760820037534
 30
0.0
 10
-260.9507148271721
 20
-1403.760118915555
 30
0.0
 10
-260.9107583251741
 20
-1403.757064917857
 30
0.0
  0
LINE
  5
1A15
330
85F
100
AcDbEntity
  8
OUTLINE
100
AcDbLine
 10
-261.8107583251756
 20
-1403.070466776627
 30
0.0
 11
-261.8107583251756
 21
-1291.322074453737
 31
0.0
  0
LINE
  5
1A16
330
85F
100
AcDbEntity
  8
OUTLINE
100
AcDbLine
 10
-261.8107583251756
 20
-1290.603024302895
 30
0.0
 11
-261.586590607031
 21
-1290.603024302895
 31
0.0
  0
LINE
  5
1A17
330
85F
100
AcDbEntity
  8
OUTLINE
100
AcDbLine
 10
-261.8107583251756
 20
-1291.313244977809
 30
0.0
 11
-261.8107583251756
 21
-1290.603024302895
 31
0.0
  0
LINE
  5
1A18
330
85F
100
AcDbEntity
  8
OUTLINE
100
AcDbLine
 10
-261.8107583251756
 20
-1291.313244977809
 30
0.0
 11
-261.0107583251727
 21
-1291.313244977809
 31
0.0
  0
LINE
  5
1A19
330
85F
100
AcDbEntity
  8
OUTLINE
100
AcDbLine
 10
-261.8107583251756
 20
-1291.322074453737
 30
0.0
 11
-261.8107583251756
 21
-1291.313244977809
 31
0.0
  0
LINE
  5
1A1A
330
85F
100
AcDbEntity
  8
OUTLINE
100
AcDbLine
 10
-252.8607583251785
 20
-1314.224923771299
 30
0.0
 11
-252.8607583251785
 21
-1314.058509516828
 31
0.0
  0
ELLIPSE
  5
1A1B
330
85F
100
AcDbEntity
  8
OUTLINE
100
AcDbEllipse
 10
-252.3107583251756
 20
-1314.058509516828
 30
0.0
 11
-0.5500000000000007
 21
0.0
 31
0.0
210
0.0
220
0.0
230
1.0
 40
0.4694715627861576
 41
3.141592653589921
 42
6.283185307179714
  0
LINE
  5
1A1C
330
85F
100
AcDbEntity
  8
OUTLINE
100
AcDbLine
 10
-251.76075832518
 20
-1314.058509516828
 30
0.0
 11
-251.76075832518
 21
-1314.224923771299
 31
0.0
  0
ELLIPSE
  5
1A1D
330
85F
100
AcDbEntity
  8
OUTLINE
100
AcDbEllipse
 10
-252.3107583251756
 20
-1314.880084751705
 30
0.0
 11
1.499999999999987
 21
-0.0000000000000018
 31
0.0
210
0.0
220
0.0
230
0.9999999999999998
 40
0.4694715627861469
 41
1.946219934775809
 42
7.478558025993349
  0
ELLIPSE
  5
1A1E
330
85F
100
AcDbEntity
  8
OUTLINE
100
AcDbEllipse
 10
-252.3107583251756
 20
-1314.173726677417
 30
0.0
 11
1.500000000000006
 21
0.0000000000000672
 31
0.0
210
0.0
220
0.0
230
1.0
 40
0.4694715627861225
 41
3.666955622600276
 42
5.757822338167844
  0
LINE
  5
1A1F
330
85F
100
AcDbEntity
  8
OUTLINE
100
AcDbLine
 10
-252.8607583251785
 20
-1389.340373817083
 30
0.0
 11
-252.8607583251785
 21
-1389.173959562613
 31
0.0
  0
ELLIPSE
  5
1A20
330
85F
100
AcDbEntity
  8
OUTLINE
100
AcDbEllipse
 10
-252.3107583251756
 20
-1389.173959562613
 30
0.0
 11
-0.5500000000000007
 21
0.0000000000000355
 31
0.0
210
0.0
220
0.0
230
1.0
 40
0.4694715627861576
 41
3.141592653589928
 42
6.283185307179723
  0
LINE
  5
1A21
330
85F
100
AcDbEntity
  8
OUTLINE
100
AcDbLine
 10
-251.76075832518
 20
-1389.173959562613
 30
0.0
 11
-251.76075832518
 21
-1389.340373817083
 31
0.0
  0
ELLIPSE
  5
1A22
330
85F
100
AcDbEntity
  8
OUTLINE
100
AcDbEllipse
 10
-252.3107583251756
 20
-1389.995534797489
 30
0.0
 11
1.499999999999988
 21
0.0
 31
0.0
210
0.0
220
0.0
230
1.0
 40
0.4694715627861463
 41
1.946219934775809
 42
7.478558025993348
  0
ELLIPSE
  5
1A23
330
85F
100
AcDbEntity
  8
OUTLINE
100
AcDbEllipse
 10
-252.3107583251756
 20
-1389.289176723202
 30
0.0
 11
1.499999999999981
 21
0.0000000000000586
 31
0.0
210
0.0
220
0.0
230
1.0
 40
0.4694715627861132
 41
3.666955622600293
 42
5.757822338168063
  0
LINE
  5
1A24
330
85F
100
AcDbEntity
  8
OUTLINE
100
AcDbLine
 10
-261.0107583251727
 20
-1125.050596193697
 30
0.0
 11
-261.0107583251727
 21
-1125.060596193697
 31
0.0
  0
LINE
  5
1A25
330
85F
100
AcDbEntity
  8
OUTLINE
100
AcDbLine
 10
-261.8107583251756
 20
-1125.060596193697
 30
0.0
 11
-261.8107583251756
 21
-1125.050596193697
 31
0.0
  0
ARC
  5
1A26
330
85F
100
AcDbEntity
  8
OUTLINE
100
AcDbCircle
 10
-260.9107583251741
 20
-1125.050596193697
 30
0.0
 40
0.1000000000000001
100
AcDbArc
 50
90.0
 51
180.0
  0
LINE
  5
1A27
330
85F
100
AcDbEntity
  8
OUTLINE
100
AcDbLine
 10
-260.9107583251741
 20
-1124.150596193697
 30
0.0
 11
-260.9107583251741
 21
-1124.950596193697
 31
0.0
  0
ARC
  5
1A28
330
85F
100
AcDbEntity
  8
OUTLINE
100
AcDbCircle
 10
-260.9107583251741
 20
-1125.050596193697
 30
0.0
 40
0.9000000000000001
100
AcDbArc
 50
90.0
 51
180.0
  0
LINE
  5
1A29
330
85F
100
AcDbEntity
  8
OUTLINE
100
AcDbLine
 10
-261.8107583251756
 20
-1125.050596193697
 30
0.0
 11
-261.0107583251727
 21
-1125.050596193697
 31
0.0
  0
LINE
  5
1A2A
330
85F
100
AcDbEntity
  8
OUTLINE
100
AcDbLine
 10
-261.0107583251727
 20
-1158.150596193697
 30
0.0
 11
-261.0107583251727
 21
-1158.160596193697
 31
0.0
  0
LINE
  5
1A2B
330
85F
100
AcDbEntity
  8
OUTLINE
100
AcDbLine
 10
-261.8107583251756
 20
-1158.160596193697
 30
0.0
 11
-261.8107583251756
 21
-1158.150596193697
 31
0.0
  0
LINE
  5
1A2C
330
85F
100
AcDbEntity
  8
OUTLINE
100
AcDbLine
 10
-261.8107583251756
 20
-1158.150596193697
 30
0.0
 11
-261.8107583251756
 21
-1125.060596193697
 31
0.0
  0
LINE
  5
1A2D
330
85F
100
AcDbEntity
  8
OUTLINE
100
AcDbLine
 10
-260.9107583251741
 20
-1125.060596193697
 30
0.0
 11
-260.9107583251741
 21
-1158.150596193697
 31
0.0
  0
LINE
  5
1A2E
330
85F
100
AcDbEntity
  8
OUTLINE
100
AcDbLine
 10
-260.9107583251741
 20
-1158.150596193697
 30
0.0
 11
-261.8107583251756
 21
-1158.150596193697
 31
0.0
  0
LINE
  5
1A2F
330
85F
100
AcDbEntity
  8
OUTLINE
100
AcDbLine
 10
-260.9107583251741
 20
-1125.060596193697
 30
0.0
 11
-261.8107583251756
 21
-1125.060596193697
 31
0.0
  0
LINE
  5
1A30
330
85F
100
AcDbEntity
  8
OUTLINE
100
AcDbLine
 10
-260.9107583251741
 20
-1125.060596193697
 30
0.0
 11
-245.8107583251756
 21
-1125.060596193697
 31
0.0
  0
LINE
  5
1A31
330
85F
100
AcDbEntity
  8
OUTLINE
100
AcDbLine
 10
-260.9107583251741
 20
-1158.150596193697
 30
0.0
 11
-260.8107583251756
 21
-1158.150596193697
 31
0.0
  0
LINE
  5
1A32
330
85F
100
AcDbEntity
  8
OUTLINE
100
AcDbLine
 10
-245.8107583251756
 20
-1132.131657778263
 30
0.0
 11
-245.8107583251756
 21
-1125.060596193697
 31
0.0
  0
LINE
  5
1A33
330
85F
100
AcDbEntity
  8
OUTLINE
100
AcDbLine
 10
205.1392416748288
 20
-1389.340373817081
 30
0.0
 11
205.1392416748288
 21
-1389.173959562612
 31
0.0
  0
ELLIPSE
  5
1A34
330
85F
100
AcDbEntity
  8
OUTLINE
100
AcDbEllipse
 10
205.6892416748244
 20
-1389.2891767232
 30
0.0
 11
1.500000000000017
 21
0.0000000000000618
 31
0.0
210
0.0
220
0.0
230
1.0
 40
0.4694715627861499
 41
3.666955622600258
 42
5.757822338168096
  0
ELLIPSE
  5
1A35
330
85F
100
AcDbEntity
  8
OUTLINE
100
AcDbEllipse
 10
205.6892416748244
 20
-1389.995534797487
 30
0.0
 11
1.499999999999991
 21
0.0000000000000489
 31
0.0
210
0.0
220
0.0
230
0.9999999999999998
 40
0.4694715627861472
 41
1.946219934775785
 42
7.478558025993325
  0
LINE
  5
1A36
330
85F
100
AcDbEntity
  8
OUTLINE
100
AcDbLine
 10
206.2392416748273
 20
-1389.173959562612
 30
0.0
 11
206.2392416748273
 21
-1389.340373817081
 31
0.0
  0
ELLIPSE
  5
1A37
330
85F
100
AcDbEntity
  8
OUTLINE
100
AcDbEllipse
 10
205.6892416748244
 20
-1389.173959562611
 30
0.0
 11
-0.5499999999999905
 21
0.0000000000000355
 31
0.0
210
0.0
220
0.0
230
1.0
 40
0.4694715627861443
 41
3.141592653589929
 42
6.283185307179723
  0
LINE
  5
1A38
330
85F
100
AcDbEntity
  8
OUTLINE
100
AcDbLine
 10
205.1392416748215
 20
-1314.224923771297
 30
0.0
 11
205.1392416748215
 21
-1314.058509516827
 31
0.0
  0
ELLIPSE
  5
1A39
330
85F
100
AcDbEntity
  8
OUTLINE
100
AcDbEllipse
 10
205.6892416748244
 20
-1314.173726677416
 30
0.0
 11
1.500000000000001
 21
0.0000000000000804
 31
0.0
210
0.0
220
0.0
230
0.9999999999999998
 40
0.4694715627861332
 41
3.666955622600251
 42
5.757822338168057
  0
ELLIPSE
  5
1A3A
330
85F
100
AcDbEntity
  8
OUTLINE
100
AcDbEllipse
 10
205.6892416748244
 20
-1314.880084751703
 30
0.0
 11
1.500000000000006
 21
0.0000000000000107
 31
0.0
210
0.0
220
0.0
230
1.0
 40
0.4694715627861444
 41
1.946219934775801
 42
7.478558025993344
  0
LINE
  5
1A3B
330
85F
100
AcDbEntity
  8
OUTLINE
100
AcDbLine
 10
206.2392416748273
 20
-1314.058509516827
 30
0.0
 11
206.2392416748273
 21
-1314.224923771297
 31
0.0
  0
ELLIPSE
  5
1A3C
330
85F
100
AcDbEntity
  8
OUTLINE
100
AcDbEllipse
 10
205.6892416748244
 20
-1314.058509516828
 30
0.0
 11
-0.5499999999999994
 21
-0.0000000000000356
 31
0.0
210
0.0
220
0.0
230
1.0
 40
0.4694715627861445
 41
3.141592653589785
 42
6.283185307179577
  0
LINE
  5
1A3D
330
85F
100
AcDbEntity
  8
OUTLINE
100
AcDbLine
 10
205.1392416748142
 20
-1266.631236741463
 30
0.0
 11
205.1392416748142
 21
-1266.298142557885
 31
0.0
  0
ELLIPSE
  5
1A3E
330
85F
100
AcDbEntity
  8
OUTLINE
100
AcDbEllipse
 10
205.6892416748171
 20
-1267.6689885296
 30
0.0
 11
-1.500000000000004
 21
-0.0000000000000458
 31
0.0
210
0.0
220
0.0
230
1.0
 40
0.9396926207860103
 41
0.0972117674112783
 42
3.044380886178575
  0
ELLIPSE
  5
1A3F
330
85F
100
AcDbEntity
  8
OUTLINE
100
AcDbEllipse
 10
205.6892416748171
 20
-1267.942604644261
 30
0.0
 11
1.499999999999985
 21
0.0
 31
0.0
210
0.0
220
0.0
230
1.0
 40
0.9396926207860099
 41
1.946219934775776
 42
7.478558025993335
  0
LINE
  5
1A40
330
85F
100
AcDbEntity
  8
OUTLINE
100
AcDbLine
 10
206.2392416748128
 20
-1266.298142557885
 30
0.0
 11
206.2392416748128
 21
-1266.631236741463
 31
0.0
  0
ELLIPSE
  5
1A41
330
85F
100
AcDbEntity
  8
OUTLINE
100
AcDbEllipse
 10
205.6892416748171
 20
-1266.298142557885
 30
0.0
 11
-0.5499999999999951
 21
0.0000000000000177
 31
0.0
210
0.0
220
0.0
230
1.0
 40
0.9396926207860113
 41
3.141592653589832
 42
6.283185307179627
  0
LINE
  5
1A42
330
85F
100
AcDbEntity
  8
OUTLINE
100
AcDbLine
 10
205.1392416748215
 20
-1167.963511558932
 30
0.0
 11
205.1392416748215
 21
-1167.923432305261
 31
0.0
  0
ELLIPSE
  5
1A43
330
85F
100
AcDbEntity
  8
OUTLINE
100
AcDbEllipse
 10
205.6892416748244
 20
-1169.001263347069
 30
0.0
 11
-1.5
 21
-0.00000000000003
 31
0.0
210
0.0
220
0.0
230
1.0
 40
0.9396926207860095
 41
0.0972117674111641
 42
3.044380886178461
  0
ELLIPSE
  5
1A44
330
85F
100
AcDbEntity
  8
OUTLINE
100
AcDbEllipse
 10
205.6892416748244
 20
-1169.274879461729
 30
0.0
 11
1.500000000000003
 21
0.0000000000000263
 31
0.0
210
0.0
220
0.0
230
0.9999999999999998
 40
0.939692620786009
 41
1.946219934775761
 42
7.478558025993317
  0
LINE
  5
1A45
330
85F
100
AcDbEntity
  8
OUTLINE
100
AcDbLine
 10
206.2392416748273
 20
-1167.92343230526
 30
0.0
 11
206.2392416748273
 21
-1167.963511558932
 31
0.0
  0
LINE
  5
1A46
330
85F
100
AcDbEntity
  8
OUTLINE
100
AcDbLine
 10
214.2892416748229
 20
-1158.876980079037
 30
0.0
 11
214.1892416748244
 21
-1158.876980079037
 31
0.0
  0
LINE
  5
1A47
330
85F
100
AcDbEntity
  8
OUTLINE
100
AcDbLine
 10
214.2892416748229
 20
-1290.707563103739
 30
0.0
 11
214.1892416748244
 21
-1290.707563103739
 31
0.0
  0
LINE
  5
1A48
330
85F
100
AcDbEntity
  8
OUTLINE
100
AcDbLine
 10
214.1892416748244
 20
-1159.150596193698
 30
0.0
 11
214.2892416748229
 21
-1159.150596193698
 31
0.0
  0
LINE
  5
1A49
330
85F
100
AcDbEntity
  8
OUTLINE
100
AcDbLine
 10
214.2892416748302
 20
-1403.757064917852
 30
0.0
 11
211.9088644065571
 21
-1403.757064917852
 31
0.0
  0
LINE
  5
1A4A
330
85F
100
AcDbEntity
  8
OUTLINE
100
AcDbLine
 10
214.1892416748244
 20
-1291.41036921302
 30
0.0
 11
214.2892416748229
 21
-1291.410369213018
 31
0.0
  0
LINE
  5
1A4B
330
85F
100
AcDbEntity
  8
OUTLINE
100
AcDbLine
 10
214.1892416748244
 20
-1292.116727287307
 30
0.0
 11
214.2892416748229
 21
-1292.116727287305
 31
0.0
  0
LINE
  5
1A4C
330
85F
100
AcDbEntity
  8
OUTLINE
100
AcDbLine
 10
214.2892416748229
 20
-1290.707563103739
 30
0.0
 11
214.2892416748229
 21
-1159.150596193698
 31
0.0
  0
LINE
  5
1A4D
330
85F
100
AcDbEntity
  8
OUTLINE
100
AcDbLine
 10
215.1892416748244
 20
-1158.160596193697
 30
0.0
 11
215.1892416748244
 21
-1290.399744974745
 31
0.0
  0
LINE
  5
1A4E
330
85F
100
AcDbEntity
  8
OUTLINE
100
AcDbLine
 10
215.1892416748244
 20
-1290.399744974745
 30
0.0
 11
215.1892416748244
 21
-1290.40572169952
 31
0.0
  0
LINE
  5
1A4F
330
85F
100
AcDbEntity
  8
OUTLINE
100
AcDbLine
 10
215.1892416748244
 20
-1290.40572169952
 30
0.0
 11
215.1892416748244
 21
-1290.603024302895
 31
0.0
  0
LINE
  5
1A50
330
85F
100
AcDbEntity
  8
OUTLINE
100
AcDbLine
 10
215.1890720100939
 20
-1290.40572169952
 30
0.0
 11
215.1892416748244
 21
-1290.40572169952
 31
0.0
  0
ELLIPSE
  5
1A51
330
85F
100
AcDbEntity
  8
OUTLINE
100
AcDbEllipse
 10
214.2892416748229
 20
-1290.399744974746
 30
0.0
 11
0.9000000000001048
 21
-0.0000000000039789
 31
0.0
210
0.0
220
0.0
230
1.0
 40
0.3420201433253951
 41
4.712388980484887
 42
6.283185307376798
  0
SPLINE
  5
1A52
330
85F
100
AcDbEntity
  8
OUTLINE
100
AcDbSpline
210
0.0
220
0.0
230
1.0
 70
     8
 71
     3
 72
    11
 73
     7
 74
     0
 42
0.0000000001
 43
0.0000000001
 40
0.0
 40
0.0
 40
0.0
 40
0.0
 40
1.437607986813014
 40
1.437607986813014
 40
1.437607986813014
 40
1.570796326800899
 40
1.570796326800899
 40
1.570796326800899
 40
1.570796326800899
 10
214.2892416748229
 20
-1159.150596193698
 30
0.0
 10
214.7205240708656
 20
-1158.942483045505
 30
0.0
 10
215.12399874894
 20
-1158.613629324764
 30
0.0
 10
215.1812708579758
 20
-1158.259315302339
 30
0.0
 10
215.1865768782529
 20
-1158.226489596783
 30
0.0
 10
215.1892416748244
 20
-1158.193542931045
 30
0.0
 10
215.1892416748244
 20
-1158.160596193696
 30
0.0
  0
LINE
  5
1A53
330
85F
100
AcDbEntity
  8
OUTLINE
100
AcDbLine
 10
214.2892416748229
 20
-1158.876980079037
 30
0.0
 11
214.2892416748229
 21
-1159.150596193698
 31
0.0
  0
LINE
  5
1A54
330
85F
100
AcDbEntity
  8
OUTLINE
100
AcDbLine
 10
214.3892416748215
 20
-1158.160596193697
 30
0.0
 11
215.1892416748244
 21
-1158.160596193697
 31
0.0
  0
SPLINE
  5
1A55
330
85F
100
AcDbEntity
  8
OUTLINE
100
AcDbSpline
210
0.0
220
0.0
230
1.0
 70
     8
 71
     3
 72
     8
 73
     4
 74
     0
 42
0.0000000001
 43
0.0000000001
 40
0.0
 40
0.0
 40
0.0
 40
0.0
 40
1.570796326800899
 40
1.570796326800899
 40
1.570796326800899
 40
1.570796326800899
 10
214.3892416748215
 20
-1158.160596193698
 30
0.0
 10
214.3892416748288
 20
-1158.405898283527
 30
0.0
 10
214.3416015523846
 20
-1158.649586122035
 30
0.0
 10
214.2892416748229
 20
-1158.876980079037
 30
0.0
  0
LINE
  5
1A56
330
85F
100
AcDbEntity
  8
OUTLINE
100
AcDbLine
 10
199.1892416748244
 20
-1124.950596193697
 30
0.0
 11
199.1892416748244
 21
-1124.150596193697
 31
0.0
  0
LINE
  5
1A57
330
85F
100
AcDbEntity
  8
OUTLINE
100
AcDbLine
 10
199.1892416748244
 20
-1124.950596193697
 30
0.0
 11
214.2892416748229
 21
-1124.950596193697
 31
0.0
  0
LINE
  5
1A58
330
85F
100
AcDbEntity
  8
OUTLINE
100
AcDbLine
 10
214.2892416748229
 20
-1124.150596193697
 30
0.0
 11
199.1892416748244
 21
-1124.150596193697
 31
0.0
  0
LINE
  5
1A59
330
85F
100
AcDbEntity
  8
OUTLINE
100
AcDbLine
 10
214.3892416748215
 20
-1291.322074453737
 30
0.0
 11
214.3892416748215
 21
-1291.313244977809
 31
0.0
  0
LINE
  5
1A5A
330
85F
100
AcDbEntity
  8
OUTLINE
100
AcDbLine
 10
214.3892416748215
 20
-1291.313244977809
 30
0.0
 11
214.3892416748215
 21
-1290.705657090806
 31
0.0
  0
LINE
  5
1A5B
330
85F
100
AcDbEntity
  8
OUTLINE
100
AcDbLine
 10
214.2892416748302
 20
-1403.757064917852
 30
0.0
 11
214.2892416748229
 21
-1292.116727287305
 31
0.0
  0
SPLINE
  5
1A5C
330
85F
100
AcDbEntity
  8
OUTLINE
100
AcDbSpline
210
0.0
220
0.0
230
1.0
 70
     8
 71
     3
 72
    11
 73
     7
 74
     0
 42
0.0000000001
 43
0.0000000001
 40
0.0
 40
0.0
 40
0.0
 40
0.0
 40
1.437607986812543
 40
1.437607986812543
 40
1.437607986812543
 40
1.570796326781739
 40
1.570796326781739
 40
1.570796326781739
 40
1.570796326781739
 10
215.1892416748244
 20
-1403.07046677663
 30
0.0
 10
215.1892416748244
 20
-1403.418302296975
 30
0.0
 10
214.836219857528
 20
-1403.74158505967
 30
0.0
 10
214.4087570981367
 20
-1403.759189097396
 30
0.0
 10
214.3691544694386
 20
-1403.760820037529
 30
0.0
 10
214.3291981768209
 20
-1403.76011891555
 30
0.0
 10
214.2892416748302
 20
-1403.757064917852
 30
0.0
  0
LINE
  5
1A5D
330
85F
100
AcDbEntity
  8
OUTLINE
100
AcDbLine
 10
215.1892416748244
 20
-1291.322074453737
 30
0.0
 11
215.1892416748244
 21
-1403.070466776628
 31
0.0
  0
ELLIPSE
  5
1A5E
330
85F
100
AcDbEntity
  8
OUTLINE
100
AcDbEllipse
 10
214.2892416748229
 20
-1291.322074453731
 30
0.0
 11
0.9000000000000747
 21
0.0000000000000252
 31
0.0
210
0.0
220
0.0
230
1.0
 40
0.8829475928588067
 41
4.712388980384663
 42
6.283185307179556
  0
LINE
  5
1A5F
330
85F
100
AcDbEntity
  8
OUTLINE
100
AcDbLine
 10
214.2892416748229
 20
-1292.116727287305
 30
0.0
 11
214.2892416748229
 21
-1291.410369213018
 31
0.0
  0
LINE
  5
1A60
330
85F
100
AcDbEntity
  8
OUTLINE
100
AcDbLine
 10
215.1892416748244
 20
-1291.322074453737
 30
0.0
 11
214.3892416748215
 21
-1291.322074453737
 31
0.0
  0
ELLIPSE
  5
1A61
330
85F
100
AcDbEntity
  8
OUTLINE
100
AcDbEllipse
 10
214.2892416748229
 20
-1291.322074453731
 30
0.0
 11
0.1000000000000557
 21
0.0000000000000162
 31
0.0
210
0.0
220
0.0
230
1.0
 40
0.8829475928590195
 41
4.712388980384545
 42
6.283185307179302
  0
LINE
  5
1A62
330
85F
100
AcDbEntity
  8
OUTLINE
100
AcDbLine
 10
215.1892416748244
 20
-1290.603024302895
 30
0.0
 11
215.1892416748244
 21
-1291.313244977809
 31
0.0
  0
LINE
  5
1A63
330
85F
100
AcDbEntity
  8
OUTLINE
100
AcDbLine
 10
214.9650739566871
 20
-1290.603024302895
 30
0.0
 11
215.1892416748244
 21
-1290.603024302895
 31
0.0
  0
LINE
  5
1A64
330
85F
100
AcDbEntity
  8
OUTLINE
100
AcDbLine
 10
214.3892416748215
 20
-1291.313244977809
 30
0.0
 11
215.1892416748244
 21
-1291.313244977809
 31
0.0
  0
LINE
  5
1A65
330
85F
100
AcDbEntity
  8
OUTLINE
100
AcDbLine
 10
215.1892416748244
 20
-1291.313244977809
 30
0.0
 11
215.1892416748244
 21
-1291.322074453737
 31
0.0
  0
LINE
  5
1A66
330
85F
100
AcDbEntity
  8
OUTLINE
100
AcDbLine
 10
214.3892416748215
 20
-1158.160596193697
 30
0.0
 11
214.3892416748215
 21
-1158.150596193697
 31
0.0
  0
LINE
  5
1A67
330
85F
100
AcDbEntity
  8
OUTLINE
100
AcDbLine
 10
215.1892416748244
 20
-1125.060596193697
 30
0.0
 11
215.1892416748244
 21
-1158.150596193697
 31
0.0
  0
LINE
  5
1A68
330
85F
100
AcDbEntity
  8
OUTLINE
100
AcDbLine
 10
215.1892416748244
 20
-1158.150596193697
 30
0.0
 11
215.1892416748244
 21
-1158.160596193697
 31
0.0
  0
LINE
  5
1A69
330
85F
100
AcDbEntity
  8
OUTLINE
100
AcDbLine
 10
214.2892416748229
 20
-1158.150596193697
 30
0.0
 11
214.2892416748229
 21
-1125.060596193697
 31
0.0
  0
LINE
  5
1A6A
330
85F
100
AcDbEntity
  8
OUTLINE
100
AcDbLine
 10
214.2892416748229
 20
-1158.150596193697
 30
0.0
 11
215.1892416748244
 21
-1158.150596193697
 31
0.0
  0
LINE
  5
1A6B
330
85F
100
AcDbEntity
  8
OUTLINE
100
AcDbLine
 10
215.1892416748244
 20
-1125.060596193697
 30
0.0
 11
214.2892416748229
 21
-1125.060596193697
 31
0.0
  0
LINE
  5
1A6C
330
85F
100
AcDbEntity
  8
OUTLINE
100
AcDbLine
 10
214.3892416748215
 20
-1125.060596193697
 30
0.0
 11
214.3892416748215
 21
-1125.050596193697
 31
0.0
  0
LINE
  5
1A6D
330
85F
100
AcDbEntity
  8
OUTLINE
100
AcDbLine
 10
215.1892416748244
 20
-1125.050596193697
 30
0.0
 11
215.1892416748244
 21
-1125.060596193697
 31
0.0
  0
ARC
  5
1A6E
330
85F
100
AcDbEntity
  8
OUTLINE
100
AcDbCircle
 10
214.2892416748229
 20
-1125.050596193697
 30
0.0
 40
0.9000000000000005
100
AcDbArc
 50
0.0
 51
90.0
  0
LINE
  5
1A6F
330
85F
100
AcDbEntity
  8
OUTLINE
100
AcDbLine
 10
214.2892416748229
 20
-1124.950596193697
 30
0.0
 11
214.2892416748229
 21
-1124.150596193697
 31
0.0
  0
ARC
  5
1A70
330
85F
100
AcDbEntity
  8
OUTLINE
100
AcDbCircle
 10
214.2892416748229
 20
-1125.050596193697
 30
0.0
 40
0.0999999999999999
100
AcDbArc
 50
0.0
 51
90.0
  0
LINE
  5
1A71
330
85F
100
AcDbEntity
  8
OUTLINE
100
AcDbLine
 10
214.3892416748215
 20
-1125.050596193697
 30
0.0
 11
215.1892416748244
 21
-1125.050596193697
 31
0.0
  0
LINE
  5
1A72
330
85F
100
AcDbEntity
  8
OUTLINE
100
AcDbLine
 10
199.1892416748244
 20
-1125.060596193697
 30
0.0
 11
214.2892416748229
 21
-1125.060596193697
 31
0.0
  0
LINE
  5
1A73
330
85F
100
AcDbEntity
  8
OUTLINE
100
AcDbLine
 10
214.2892416748229
 20
-1158.150596193697
 30
0.0
 11
214.1892416748244
 21
-1158.150596193697
 31
0.0
  0
LINE
  5
1A74
330
85F
100
AcDbEntity
  8
OUTLINE
100
AcDbLine
 10
199.1892416748244
 20
-1132.131657778263
 30
0.0
 11
199.1892416748244
 21
-1125.060596193697
 31
0.0
  0
LINE
  5
1A75
330
85F
100
AcDbEntity
  8
OUTLINE
100
AcDbLine
 10
-249.8107583251756
 20
-1263.14974860903
 30
0.0
 11
-249.8107583251756
 21
-1268.882832565706
 31
0.0
  0
LINE
  5
1A76
330
85F
100
AcDbEntity
  8
OUTLINE
100
AcDbLine
 10
-249.8107583251756
 20
-1263.14974860903
 30
0.0
 11
-249.8107583251756
 21
-1262.876132494369
 31
0.0
  0
ELLIPSE
  5
1A77
330
85F
100
AcDbEntity
  8
OUTLINE
100
AcDbEllipse
 10
-252.3107583251756
 20
-1258.2725976224
 30
0.0
 11
5.500000000000174
 21
-0.0000000000000028
 31
0.0
210
0.0
220
0.0
230
0.9999999999999998
 40
0.9396926207860332
 41
5.184250817664358
 42
6.256711652432961
  0
ELLIPSE
  5
1A78
330
85F
100
AcDbEntity
  8
OUTLINE
100
AcDbEllipse
 10
-252.3107583251756
 20
-1258.2725976224
 30
0.0
 11
-5.500000000000258
 21
-0.0000000000000232
 31
0.0
210
0.0
220
0.0
230
1.0
 40
0.939692620786033
 41
0.0264736547466216
 42
1.098934489515221
  0
ELLIPSE
  5
1A79
330
85F
100
AcDbEntity
  8
OUTLINE
100
AcDbEllipse
 10
-252.3107583251756
 20
-1258.546213737061
 30
0.0
 11
-5.499999999999992
 21
-0.0000000000000104
 31
0.0
210
0.0
220
0.0
230
1.0
 40
0.939692620786033
 41
2.04265816407458
 42
7.382119796694868
  0
LINE
  5
1A7A
330
85F
100
AcDbEntity
  8
OUTLINE
100
AcDbLine
 10
-254.8107583251756
 20
-1263.14974860903
 30
0.0
 11
-254.8107583251756
 21
-1262.876132494369
 31
0.0
  0
LINE
  5
1A7B
330
85F
100
AcDbEntity
  8
OUTLINE
100
AcDbLine
 10
-254.8107583251756
 20
-1268.882832565706
 30
0.0
 11
-254.8107583251756
 21
-1263.14974860903
 31
0.0
  0
LINE
  5
1A7C
330
85F
100
AcDbEntity
  8
OUTLINE
100
AcDbLine
 10
-260.8107583251756
 20
-1290.965637439079
 30
0.0
 11
214.1892416748244
 21
-1290.965637439079
 31
0.0
  0
LINE
  5
1A7D
330
85F
100
AcDbEntity
  8
OUTLINE
100
AcDbLine
 10
214.1892416748244
 20
-1291.452472143659
 30
0.0
 11
-260.8107583251756
 21
-1291.45247214366
 31
0.0
  0
LINE
  5
1A7E
330
85F
100
AcDbEntity
  8
OUTLINE
100
AcDbLine
 10
-260.8107583251756
 20
-1291.45247214366
 30
0.0
 11
-260.8107583251756
 21
-1290.965637439079
 31
0.0
  0
LINE
  5
1A7F
330
85F
100
AcDbEntity
  8
OUTLINE
100
AcDbLine
 10
214.1892416748244
 20
-1291.452472143659
 30
0.0
 11
214.1892416748244
 21
-1290.965637439079
 31
0.0
  0
LINE
  5
1A80
330
85F
100
AcDbEntity
  8
OUTLINE
100
AcDbLine
 10
214.1892416748244
 20
-1159.440781624618
 30
0.0
 11
214.1892416748244
 21
-1290.965637439079
 31
0.0
  0
LINE
  5
1A81
330
85F
100
AcDbEntity
  8
OUTLINE
100
AcDbLine
 10
-260.8107583251756
 20
-1159.440781624618
 30
0.0
 11
-260.8107583251756
 21
-1290.965637439079
 31
0.0
  0
LINE
  5
1A82
330
85F
100
AcDbEntity
  8
OUTLINE
100
AcDbLine
 10
214.1892416748244
 20
-1159.440781624618
 30
0.0
 11
-260.8107583251756
 21
-1159.440781624618
 31
0.0
  0
LINE
  5
1A83
330
85F
100
AcDbEntity
  8
OUTLINE
100
AcDbLine
 10
-260.8107583251756
 20
-1159.440781624618
 30
0.0
 11
-260.8107583251756
 21
-1159.132963495625
 31
0.0
  0
LINE
  5
1A84
330
85F
100
AcDbEntity
  8
OUTLINE
100
AcDbLine
 10
214.1892416748244
 20
-1159.440781624618
 30
0.0
 11
214.1892416748244
 21
-1159.132963495625
 31
0.0
  0
LINE
  5
1A85
330
85F
100
AcDbEntity
  8
OUTLINE
100
AcDbLine
 10
-260.8107583251756
 20
-1159.132963495625
 30
0.0
 11
214.1892416748244
 21
-1159.132963495625
 31
0.0
  0
ELLIPSE
  5
1A86
330
85F
100
AcDbEntity
  8
OUTLINE
100
AcDbEllipse
 10
205.6892416748244
 20
-1170.215107383173
 30
0.0
 11
-2.499999999999994
 21
-0.0000000000000002
 31
0.0
210
0.0
220
0.0
230
1.0
 40
0.9396926207860339
 41
0.0
 42
6.283185307179585
  0
ELLIPSE
  5
1A87
330
85F
100
AcDbEntity
  8
OUTLINE
100
AcDbEllipse
 10
205.6892416748244
 20
-1169.941491268513
 30
0.0
 11
-2.499999999999996
 21
-0.0000000000000031
 31
0.0
210
0.0
220
0.0
230
1.0
 40
0.9396926207860339
 41
0.058268203760402
 42
3.083324449829313
  0
ELLIPSE
  5
1A88
330
85F
100
AcDbEntity
  8
OUTLINE
100
AcDbEllipse
 10
-252.3107583251756
 20
-1170.215107383173
 30
0.0
 11
-2.499999999999964
 21
-0.0000000000000002
 31
0.0
210
0.0
220
0.0
230
1.0
 40
0.9396926207860339
 41
0.0
 42
6.283185307179585
  0
ELLIPSE
  5
1A89
330
85F
100
AcDbEntity
  8
OUTLINE
100
AcDbEllipse
 10
-252.3107583251756
 20
-1268.882832565706
 30
0.0
 11
2.499999999999996
 21
-0.0000000000000889
 31
0.0
210
0.0
220
0.0
230
1.0
 40
0.9396926207860346
 41
3.141592653589759
 42
6.283185307179552
  0
ELLIPSE
  5
1A8A
330
85F
100
AcDbEntity
  8
OUTLINE
100
AcDbEllipse
 10
205.6892416748244
 20
-1268.882832565706
 30
0.0
 11
2.500000000000016
 21
-0.0000000000000179
 31
0.0
210
0.0
220
0.0
230
1.0
 40
0.9396926207860335
 41
3.141592653589801
 42
6.283185307179594
  0
ELLIPSE
  5
1A8B
330
85F
100
AcDbEntity
  8
OUTLINE
100
AcDbEllipse
 10
-252.3107583251756
 20
-1268.609216451047
 30
0.0
 11
-2.500000000000066
 21
0.0000000000000001
 31
0.0
210
0.0
220
0.0
230
1.0
 40
0.9396926207860339
 41
0.0000000000000001
 42
3.141592653589792
  0
ELLIPSE
  5
1A8C
330
85F
100
AcDbEntity
  8
OUTLINE
100
AcDbEllipse
 10
205.6892416748244
 20
-1268.609216451047
 30
0.0
 11
-2.499999999999991
 21
0.0000000000000001
 31
0.0
210
0.0
220
0.0
230
1.0
 40
0.9396926207860332
 41
0.0
 42
3.14159265358979
  0
ELLIPSE
  5
1A8D
330
85F
100
AcDbEntity
  8
OUTLINE
100
AcDbEllipse
 10
-252.3107583251756
 20
-1169.941491268513
 30
0.0
 11
-2.49999999999999
 21
-0.0000000000000017
 31
0.0
210
0.0
220
0.0
230
0.9999999999999998
 40
0.9396926207860341
 41
0.0582682037605535
 42
3.083324449829313
  0
LINE
  5
1A8E
330
85F
100
AcDbEntity
  8
OUTLINE
100
AcDbLine
 10
208.1892416748244
 20
-1263.14974860903
 30
0.0
 11
208.1892416748244
 21
-1268.882832565706
 31
0.0
  0
LINE
  5
1A8F
330
85F
100
AcDbEntity
  8
OUTLINE
100
AcDbLine
 10
203.1892416748244
 20
-1268.882832565706
 30
0.0
 11
203.1892416748244
 21
-1263.14974860903
 31
0.0
  0
ELLIPSE
  5
1A90
330
85F
100
AcDbEntity
  8
OUTLINE
100
AcDbEllipse
 10
205.6892416748244
 20
-1258.546213737061
 30
0.0
 11
-5.500000000000011
 21
-0.0000000000000319
 31
0.0
210
0.0
220
0.0
230
1.0
 40
0.9396926207860339
 41
2.042658164074576
 42
7.382119796694865
  0
LINE
  5
1A91
330
85F
100
AcDbEntity
  8
OUTLINE
100
AcDbLine
 10
208.1892416748244
 20
-1263.14974860903
 30
0.0
 11
208.1892416748244
 21
-1262.876132494369
 31
0.0
  0
ELLIPSE
  5
1A92
330
85F
100
AcDbEntity
  8
OUTLINE
100
AcDbEllipse
 10
205.6892416748244
 20
-1258.2725976224
 30
0.0
 11
5.499999999999999
 21
-0.0000000000000045
 31
0.0
210
0.0
220
0.0
230
1.0
 40
0.9396926207860332
 41
5.184250817664302
 42
6.256711652432961
  0
ELLIPSE
  5
1A93
330
85F
100
AcDbEntity
  8
OUTLINE
100
AcDbEllipse
 10
205.6892416748244
 20
-1258.2725976224
 30
0.0
 11
-5.500000000000018
 21
-0.0000000000000453
 31
0.0
210
0.0
220
0.0
230
1.0
 40
0.9396926207860335
 41
0.0264736547465828
 42
1.098934489515202
  0
LINE
  5
1A94
330
85F
100
AcDbEntity
  8
OUTLINE
100
AcDbLine
 10
203.1892416748244
 20
-1263.14974860903
 30
0.0
 11
203.1892416748244
 21
-1262.876132494369
 31
0.0
  0
LINE
  5
1A95
330
85F
100
AcDbEntity
  8
OUTLINE
100
AcDbLine
 10
214.1892416748244
 20
-1402.686492637982
 30
0.0
 11
211.1892416748244
 21
-1404.094907326337
 31
0.0
  0
LINE
  5
1A96
330
85F
100
AcDbEntity
  8
OUTLINE
100
AcDbLine
 10
-257.8107583251756
 20
-1404.094907326338
 30
0.0
 11
-260.8107583251756
 21
-1402.686492637982
 31
0.0
  0
LINE
  5
1A97
330
85F
100
AcDbEntity
  8
OUTLINE
100
AcDbLine
 10
-260.8107583251756
 20
-1135.131657778263
 30
0.0
 11
-257.8107583251756
 21
-1132.131657778263
 31
0.0
  0
LINE
  5
1A98
330
85F
100
AcDbEntity
  8
OUTLINE
100
AcDbLine
 10
211.1892416748244
 20
-1132.131657778263
 30
0.0
 11
214.1892416748244
 21
-1135.131657778263
 31
0.0
  0
LINE
  5
1A99
330
85F
100
AcDbEntity
  8
OUTLINE
100
AcDbLine
 10
-257.8107583251756
 20
-1404.094907326338
 30
0.0
 11
211.1892416748244
 21
-1404.094907326337
 31
0.0
  0
LINE
  5
1A9A
330
85F
100
AcDbEntity
  8
OUTLINE
100
AcDbLine
 10
214.1892416748244
 20
-1291.452472143659
 30
0.0
 11
214.1892416748244
 21
-1402.686492637982
 31
0.0
  0
LINE
  5
1A9B
330
85F
100
AcDbEntity
  8
OUTLINE
100
AcDbLine
 10
-260.8107583251756
 20
-1291.45247214366
 30
0.0
 11
-260.8107583251756
 21
-1402.686492637982
 31
0.0
  0
ELLIPSE
  5
1A9C
330
85F
100
AcDbEntity
  8
OUTLINE
100
AcDbEllipse
 10
-252.3107583251756
 20
-1390.010086549607
 30
0.0
 11
-2.499999999999931
 21
-0.0000000000000002
 31
0.0
210
0.0
220
0.0
230
1.0
 40
0.4694715627861674
 41
0.0
 42
6.283185307179584
  0
ELLIPSE
  5
1A9D
330
85F
100
AcDbEntity
  8
OUTLINE
100
AcDbEllipse
 10
-252.3107583251756
 20
-1314.89463650382
 30
0.0
 11
-2.499999999999976
 21
-0.0000000000000002
 31
0.0
210
0.0
220
0.0
230
1.0
 40
0.4694715627861675
 41
0.0
 42
6.283185307179584
  0
ELLIPSE
  5
1A9E
330
85F
100
AcDbEntity
  8
OUTLINE
100
AcDbEllipse
 10
205.6892416748244
 20
-1390.010086549607
 30
0.0
 11
-2.499999999999893
 21
-0.0000000000000002
 31
0.0
210
0.0
220
0.0
230
1.0
 40
0.4694715627861675
 41
0.0
 42
6.283185307179584
  0
ELLIPSE
  5
1A9F
330
85F
100
AcDbEntity
  8
OUTLINE
100
AcDbEllipse
 10
205.6892416748244
 20
-1314.89463650382
 30
0.0
 11
-2.499999999999944
 21
-0.0000000000000002
 31
0.0
210
0.0
220
0.0
230
1.0
 40
0.4694715627861675
 41
0.0
 42
6.283185307179584
  0
LINE
  5
1AA0
330
85F
100
AcDbEntity
  8
OUTLINE
100
AcDbLine
 10
-260.8107583251756
 20
-1159.132963495625
 30
0.0
 11
-260.8107583251756
 21
-1135.131657778263
 31
0.0
  0
LINE
  5
1AA1
330
85F
100
AcDbEntity
  8
OUTLINE
100
AcDbLine
 10
214.1892416748244
 20
-1135.131657778263
 30
0.0
 11
214.1892416748244
 21
-1159.132963495625
 31
0.0
  0
LINE
  5
1AA2
330
85F
100
AcDbEntity
  8
OUTLINE
100
AcDbLine
 10
-257.8107583251756
 20
-1132.131657778263
 30
0.0
 11
211.1892416748244
 21
-1132.131657778263
 31
0.0
  0
LINE
  5
1AA3
330
85F
100
AcDbEntity
  8
OUTLINE
100
AcDbLine
 10
207.1892416748244
 20
-1147.631657778263
 30
0.0
 11
207.1892416748244
 21
-1150.631657778263
 31
0.0
  0
LINE
  5
1AA4
330
85F
100
AcDbEntity
  8
OUTLINE
100
AcDbLine
 10
204.1892416748244
 20
-1147.631657778263
 30
0.0
 11
207.1892416748244
 21
-1147.631657778263
 31
0.0
  0
LINE
  5
1AA5
330
85F
100
AcDbEntity
  8
OUTLINE
100
AcDbLine
 10
204.1892416748244
 20
-1150.631657778263
 30
0.0
 11
204.1892416748244
 21
-1147.631657778263
 31
0.0
  0
LINE
  5
1AA6
330
85F
100
AcDbEntity
  8
OUTLINE
100
AcDbLine
 10
207.1892416748244
 20
-1150.631657778263
 30
0.0
 11
204.1892416748244
 21
-1150.631657778263
 31
0.0
  0
LINE
  5
1AA7
330
85F
100
AcDbEntity
  8
OUTLINE
100
AcDbLine
 10
-250.8107583251756
 20
-1147.631657778263
 30
0.0
 11
-250.8107583251756
 21
-1150.631657778263
 31
0.0
  0
LINE
  5
1AA8
330
85F
100
AcDbEntity
  8
OUTLINE
100
AcDbLine
 10
-253.8107583251756
 20
-1147.631657778263
 30
0.0
 11
-250.8107583251756
 21
-1147.631657778263
 31
0.0
  0
LINE
  5
1AA9
330
85F
100
AcDbEntity
  8
OUTLINE
100
AcDbLine
 10
-253.8107583251756
 20
-1150.631657778263
 30
0.0
 11
-253.8107583251756
 21
-1147.631657778263
 31
0.0
  0
LINE
  5
1AAA
330
85F
100
AcDbEntity
  8
OUTLINE
100
AcDbLine
 10
-250.8107583251756
 20
-1150.631657778263
 30
0.0
 11
-253.8107583251756
 21
-1150.631657778263
 31
0.0
  0
ELLIPSE
  5
1AAB
330
85F
100
AcDbEntity
  8
OUTLINE
100
AcDbEllipse
 10
-252.3107583251756
 20
-1389.881628256614
 30
0.0
 11
-2.500000000000002
 21
0.0000000000000028
 31
0.0
210
0.0
220
0.0
230
1.0
 40
0.469471562786154
 41
0.0547519838241837
 42
3.086840669765462
  0
ELLIPSE
  5
1AAC
330
85F
100
AcDbEntity
  8
OUTLINE
100
AcDbEllipse
 10
-252.3107583251756
 20
-1314.766178210828
 30
0.0
 11
-2.499999999999995
 21
0.0000000000000227
 31
0.0
210
0.0
220
0.0
230
1.0
 40
0.469471562786142
 41
0.0547519838240511
 42
3.086840669765781
  0
ELLIPSE
  5
1AAD
330
85F
100
AcDbEntity
  8
OUTLINE
100
AcDbEllipse
 10
205.6892416748244
 20
-1389.881628256613
 30
0.0
 11
-2.49999999999997
 21
-0.0000000000000302
 31
0.0
210
0.0
220
0.0
230
1.0
 40
0.4694715627861451
 41
0.0547519838250635
 42
3.086840669764678
  0
ELLIPSE
  5
1AAE
330
85F
100
AcDbEntity
  8
OUTLINE
100
AcDbEllipse
 10
205.6892416748244
 20
-1314.766178210827
 30
0.0
 11
-2.50000000000002
 21
0.0000000000000138
 31
0.0
210
0.0
220
0.0
230
0.9999999999999998
 40
0.4694715627861492
 41
0.0547519838249494
 42
3.086840669764866
  0
LINE
  5
1AAF
330
85F
100
AcDbEntity
  8
NOTE
100
AcDbLine
 10
-252.3107583254375
 20
-1131.650596193697
 30
0.0
 11
-252.3107583254375
 21
-1116.650596193696
 31
0.0
  0
LINE
  5
1AB0
330
85F
100
AcDbEntity
  8
NOTE
100
AcDbLine
 10
-259.8107583254375
 20
-1124.150596193697
 30
0.0
 11
-244.8107583254375
 21
-1124.150596193697
 31
0.0
  0
LINE
  5
1AB1
330
85F
100
AcDbEntity
  8
NOTE
100
AcDbLine
 10
205.6892416745625
 20
-1131.650596193697
 30
0.0
 11
205.6892416745625
 21
-1116.650596193696
 31
0.0
  0
LINE
  5
1AB2
330
85F
100
AcDbEntity
  8
NOTE
100
AcDbLine
 10
198.1892416745625
 20
-1124.150596193697
 30
0.0
 11
213.1892416745625
 21
-1124.150596193697
 31
0.0
  0
DIMENSION
  5
1AB3
330
85F
100
AcDbEntity
  8
SIZE
  6
Continuous
100
AcDbDimension
  2
*D21
 10
205.6892416745625
 20
-1037.397857711098
 30
0.0
 11
-23.31075832543752
 21
-1037.397857711098
 31
0.0
 70
   160
 71
     5
 42
458.0
  3
STANDARD$0
100
AcDbAlignedDimension
 13
-252.3107583254375
 23
-1116.650596193696
 33
0.0
 14
205.6892416745625
 24
-1116.650596193696
 34
0.0
100
AcDbRotatedDimension
  0
DIMENSION
  5
1AB4
330
85F
100
AcDbEntity
  8
SIZE
  6
Continuous
100
AcDbDimension
  2
*D22
 10
215.1892416748244
 20
-912.3621522551998
 30
0.0
 11
-23.31075832517559
 21
-912.3621522551998
 31
0.0
 70
   160
 71
     5
 42
477.0
  3
STANDARD$0
100
AcDbAlignedDimension
 13
-261.8107583251756
 23
-1125.050596193697
 33
0.0
 14
215.1892416748244
 24
-1125.060596193697
 34
0.0
100
AcDbRotatedDimension
  0
LEADER
  5
1AB5
330
85F
100
AcDbEntity
  8
NOTE
100
AcDbLeader
  3
STANDARD
 73
     0
 75
     1
 40
64.00000000000002
 41
228.7542857142856
 76
     3
 10
-252.3107583254375
 20
-1124.150596193697
 30
0.0
 10
-340.1801583176919
 20
-1028.623501135683
 30
0.0
 10
-352.1801583176919
 20
-1028.623501135683
 30
0.0
340
1AB6
213
0.0
223
32.0
233
0.0
1001
ACAD
1000
DSTYLE
1002
{
1070
    41
1040
12.0
1070
    42
1040
20.0
1070
    43
1040
200.0
1070
    44
1040
20.0
1070
    73
1070
     0
1070
    74
1070
     0
1070
    77
1070
     1
1070
    78
1070
     8
1070
   140
1040
64.0
1070
   147
1040
50.0
1070
   172
1070
     1
1070
   174
1070
     1
1070
   275
1070
     0
1070
   284
1070
     0
1070
   285
1070
     0
1070
   286
1070
     0
1070
   341
1005
AB7
1070
   342
1005
AB2
1002
}
  0
MTEXT
  5
1AB6
102
{ACAD_REACTORS
330
1AB5
102
}
330
85F
100
AcDbEntity
  8
NOTE
100
AcDbMText
 10
-402.1801583176918
 20
-1010.623501135683
 30
0.0
 40
64.0
 41
0.0
 71
     9
 72
     1
  1
4×φ6
 73
     1
 44
1.0
  0
LINE
  5
1AB7
330
85F
100
AcDbEntity
  8
BASIS
  6
DASHDOT
 62
     6
100
AcDbLine
 10
-23.31075832518286
 20
-1082.131657778258
 30
0.0
 11
-23.31075832517559
 21
-1488.251441502623
 31
0.0
  0
LINE
  5
1AB8
330
85F
100
AcDbEntity
  8
ARRANGE
  6
Continuous
 62
     1
100
AcDbLine
 10
-39.99487588958323
 20
-1115.447540213859
 30
0.0
 11
-6.626640760775218
 21
-1148.815775342666
 31
0.0
  0
LINE
  5
1AB9
330
85F
100
AcDbEntity
  8
ARRANGE
  6
Continuous
 62
     1
100
AcDbLine
 10
-39.99487588958323
 20
-1148.815775342666
 30
0.0
 11
-6.626640760775218
 21
-1115.447540213859
 31
0.0
  0
CIRCLE
  5
1ABA
330
85F
100
AcDbEntity
  8
ARRANGE
100
AcDbCircle
 10
-23.31075832517559
 20
-1132.131657778263
 30
0.0
 40
15.0
  0
DIMENSION
  5
1ABB
330
85F
100
AcDbEntity
  8
SIZE
  6
Continuous
100
AcDbDimension
  2
*D23
 10
-356.3679118040662
 20
-1404.094907326338
 30
0.0
 11
-398.3679118040658
 21
-1264.122751760017
 31
0.0
 70
    32
 71
     5
 42
279.9443111326409
  3
STANDARD$0
100
AcDbAlignedDimension
 13
-260.9135356893082
 23
-1124.150596193697
 33
0.0
 14
-257.8107583251756
 24
-1404.094907326338
 34
0.0
 50
90.0
100
AcDbRotatedDimension
  0
MTEXT
  5
1ABC
330
85F
100
AcDbEntity
  8
ETC
100
AcDbMText
 10
311.0946915681718
 20
-636.9915539607794
 30
0.0
 40
64.0
 41
0.0
 71
     1
 72
     5
  1
{\Fromans,extfont|c128;\W0.9;AGJS-17F-1}
  7
ADESK1
 73
     1
 44
1.0
  0
VIEWPORT
  5
1AE3
102
{ACAD_XDICTIONARY
360
1AE4
102
}
330
85B
100
AcDbEntity
 67
     1
  8
0
100
AcDbViewport
 10
15.39899459464
 20
6.955743774112857
 30
0.0
 40
35.80171118176877
 41
24.28727682981151
 68
     1
 69
     1
 12
15.39899459464
 22
6.955743774112857
 13
0.0
 23
0.0
 14
10.0
 24
10.0
 15
10.0
 25
10.0
 16
0.0
 26
0.0
 36
1.0
 17
0.0
 27
0.0
 37
0.0
 42
50.0
 43
0.0
 44
0.0
 45
24.28727682981151
 50
0.0
 51
0.0
 72
   100
 90
   819232
  1

281
     0
 71
     1
 74
     0
110
0.0
120
0.0
130
0.0
111
1.0
121
0.0
131
0.0
112
0.0
122
1.0
132
0.0
 79
     0
146
0.0
170
     0
1001
GENIUS_GENODEF_13
1002
{
1000
HIER
1070
     0
1002
}
1002
{
1000
MANEDIT
1070
     0
1002
}
1002
{
1000
NOSEL
1070
     0
1002
}
1002
{
1000
BEHIND
1070
     0
1002
}
1002
{
1000
OTHER
1070
     0
1002
}
1002
{
1000
REACTOR
1002
}
1001
GENIUS_GENOBJ-N-SDF_13
1002
{
1000
OWNER
1000
GEN
1002
}
1001
GENIUS_GENSCREG_15
1000
PF
1040
1.0
1000
DF
1040
1.0
1000
MIN
1011
-2.501860996244378
1021
-5.187894640792894
1031
0.0
1000
MAX
1011
16.10532689756281
1021
19.0993821890186
1031
0.0
1000
FLAGS
1070
     4
  0
ENDSEC
  0
SECTION
  2
OBJECTS
  0
DICTIONARY
  5
84D
330
0
100
AcDbDictionary
281
     1
  3
ACAD_2007HEADERVARS_RT
350
1BE3
  3
ACAD_COLOR
350
EC9
  3
ACAD_GROUP
350
84E
  3
ACAD_LAYOUT
350
85A
  3
ACAD_MATERIAL
350
EC8
  3
ACAD_MLEADERSTYLE
350
11A0
  3
ACAD_MLINESTYLE
350
857
  3
ACAD_PLOTSETTINGS
350
859
  3
ACAD_PLOTSTYLENAME
350
B82
  3
ACAD_SCALELIST
350
117E
  3
ACAD_TABLESTYLE
350
ECA
  3
ACAD_VISUALSTYLE
350
116D
  3
AcadDim
350
D74
  3
ACDB_RECOMPOSE_DATA
350
126C
  3
AcDbVariableDictionary
350
B87
  3
AcmDictionary
350
F90
  3
AMG
350
ECF
  3
AMGSNAPSETTINGS
350
FFE
1001
ACAD
1000
TREAT_AS_HARD
1070
     0
  0
DICTIONARY
  5
14DD
330
843
100
AcDbDictionary
280
     1
281
     1
  3
ACAD_LAYERSTATES
360
14DE
  0
DICTIONARY
  5
11FF
330
851
100
AcDbDictionary
280
     1
281
     1
  3
ADSK_XREC_LAYER_RECONCILED
360
1200
  0
DICTIONARY
  5
1201
330
863
100
AcDbDictionary
280
     1
281
     1
  3
ADSK_XREC_LAYER_RECONCILED
360
1202
  0
DICTIONARY
  5
1203
330
866
100
AcDbDictionary
280
     1
281
     1
  3
ADSK_XREC_LAYER_RECONCILED
360
1204
  0
DICTIONARY
  5
1205
330
867
100
AcDbDictionary
280
     1
281
     1
  3
ADSK_XREC_LAYER_RECONCILED
360
1206
  0
DICTIONARY
  5
1207
330
868
100
AcDbDictionary
280
     1
281
     1
  3
ADSK_XREC_LAYER_RECONCILED
360
1208
  0
DICTIONARY
  5
1209
330
869
100
AcDbDictionary
280
     1
281
     1
  3
ADSK_XREC_LAYER_RECONCILED
360
120A
  0
DICTIONARY
  5
120B
330
86B
100
AcDbDictionary
280
     1
281
     1
  3
ADSK_XREC_LAYER_RECONCILED
360
120C
  0
DICTIONARY
  5
120D
330
86C
100
AcDbDictionary
280
     1
281
     1
  3
ADSK_XREC_LAYER_RECONCILED
360
120E
  0
DICTIONARY
  5
120F
330
86D
100
AcDbDictionary
280
     1
281
     1
  3
ADSK_XREC_LAYER_RECONCILED
360
1210
  0
DICTIONARY
  5
1211
330
86E
100
AcDbDictionary
280
     1
281
     1
  3
ADSK_XREC_LAYER_RECONCILED
360
1212
  0
DICTIONARY
  5
1213
330
86F
100
AcDbDictionary
280
     1
281
     1
  3
ADSK_XREC_LAYER_RECONCILED
360
1214
  0
DICTIONARY
  5
B4F
330
85F
100
AcDbDictionary
280
     1
281
     1
  3
ACAD_INDEX
360
FE6
  3
ACAD_LAYOUTSELFREF
360
B50
  3
ACAD_SORTENTS
360
1227
  0
DICTIONARY
  5
B4D
330
85B
100
AcDbDictionary
280
     1
281
     1
  3
ACAD_LAYOUTSELFREF
360
B4E
  0
DICTIONARY
  5
1AE4
330
1AE3
100
AcDbDictionary
280
     1
281
     1
  3
ASDK_XREC_ANNOTATION_SCALE_INFO
360
1AE5
  0
DICTIONARY
  5
1BE3
102
{ACAD_REACTORS
330
84D
102
}
330
84D
100
AcDbDictionary
281
     1
  3
DIMARCSYM
350
1BE4
  3
DIMLTEX1
350
1BE6
  3
DIMLTEX2
350
1BE7
  3
DIMLTYPE
350
1BE5
  0
DICTIONARY
  5
EC9
102
{ACAD_REACTORS
330
84D
102
}
330
84D
100
AcDbDictionary
281
     1
  0
DICTIONARY
  5
84E
102
{ACAD_REACTORS
330
84D
102
}
330
84D
100
AcDbDictionary
281
     1
1001
ACAD
1000
TREAT_AS_HARD
1070
     0
  0
DICTIONARY
  5
85A
102
{ACAD_REACTORS
330
84D
102
}
330
84D
100
AcDbDictionary
281
     1
  3
Model
350
B84
  3
ﾚｲｱｳﾄ1
350
B85
1001
ACAD
1000
TREAT_AS_HARD
1070
     0
  0
DICTIONARY
  5
EC8
102
{ACAD_REACTORS
330
84D
102
}
330
84D
100
AcDbDictionary
281
     1
  3
ByBlock
350
115D
  3
ByLayer
350
1155
  3
Global
350
1165
  0
DICTIONARY
  5
11A0
102
{ACAD_REACTORS
330
84D
102
}
330
84D
100
AcDbDictionary
281
     1
  3
Standard
350
11A1
  0
DICTIONARY
  5
857
102
{ACAD_REACTORS
330
84D
102
}
330
84D
100
AcDbDictionary
281
     1
  3
STANDARD
350
858
1001
ACAD
1000
TREAT_AS_HARD
1070
     0
  0
DICTIONARY
  5
859
102
{ACAD_REACTORS
330
84D
102
}
330
84D
100
AcDbDictionary
281
     1
1001
ACAD
1000
TREAT_AS_HARD
1070
     0
  0
ACDBDICTIONARYWDFLT
  5
B82
102
{ACAD_REACTORS
330
84D
102
}
330
84D
100
AcDbDictionary
281
     1
  3
Normal
350
B83
100
AcDbDictionaryWithDefault
340
B83
  0
DICTIONARY
  5
117E
102
{ACAD_REACTORS
330
84D
102
}
330
84D
100
AcDbDictionary
281
     1
  3
A0
350
117F
  3
A1
350
1180
  3
A2
350
1181
  3
A3
350
1182
  3
A4
350
1183
  3
A5
350
1184
  3
A6
350
1185
  3
A7
350
1186
  3
A8
350
1187
  3
A9
350
1188
  3
B0
350
1189
  3
B1
350
118A
  3
B2
350
118B
  3
B3
350
118C
  3
B4
350
118D
  3
B5
350
118E
  3
B6
350
118F
  3
B7
350
1190
  3
B8
350
1191
  3
B9
350
1192
  3
C0
350
1193
  3
C1
350
1194
  3
C2
350
1195
  3
C3
350
1196
  3
C4
350
1197
  3
C5
350
1198
  3
C6
350
1199
  3
C7
350
119A
  3
C8
350
119B
  3
C9
350
119C
  3
D0
350
119D
  3
D1
350
119E
  3
D2
350
119F
  0
DICTIONARY
  5
ECA
102
{ACAD_REACTORS
330
84D
102
}
330
84D
100
AcDbDictionary
281
     1
  3
Standard
350
ECB
  0
DICTIONARY
  5
116D
102
{ACAD_REACTORS
330
84D
102
}
330
84D
100
AcDbDictionary
281
     1
  3
2dWireframe
350
1173
  3
3D Hidden
350
1175
  3
3dWireframe
350
1174
  3
Basic
350
1172
  3
Brighten
350
1179
  3
ColorChange
350
117D
  3
Conceptual
350
1176
  3
Dim
350
1178
  3
Facepattern
350
117C
  3
Flat
350
116E
  3
FlatWithEdges
350
116F
  3
Gouraud
350
1170
  3
GouraudWithEdges
350
1171
  3
Linepattern
350
117B
  3
Realistic
350
1177
  3
Thicken
350
117A
  0
XRECORD
  5
D74
102
{ACAD_REACTORS
330
84D
102
}
330
84D
100
AcDbXrecord
280
     1
 90
   990106
  3

 60
     0
 61
     0
 62
     1
 63
     3
 64
     0
 65
     0
 66
     0
 67
     3
 68
     1
 69
     0
 70
     0
 71
     0
 72
     0
 40
0.0
170
     0
340
D76
  0
XRECORD
  5
126C
102
{ACAD_REACTORS
330
84D
102
}
330
84D
100
AcDbXrecord
280
     1
 90
        1
330
ECB
  0
DICTIONARY
  5
B87
102
{ACAD_REACTORS
330
84D
102
}
330
84D
100
AcDbDictionary
281
     1
  3
CANNOSCALE
350
1216
  3
CMLEADERSTYLE
350
1215
  3
CTABLESTYLE
350
FF4
  3
DIMASSOC
350
B88
  3
INDEXCTL
350
FF5
  3
PROJECTNAME
350
FF6
  3
SORTENTS
350
1217
  0
DICTIONARY
  5
F90
102
{ACAD_REACTORS
330
84D
102
}
330
84D
100
AcDbDictionary
281
     1
  3
AcmStdDictionary
350
F9C
  3
AMDTSECTSYM_ARROWCOLOR
350
FBC
  0
DICTIONARY
  5
ECF
102
{ACAD_REACTORS
330
84D
102
}
330
84D
100
AcDbDictionary
281
     1
  3
AcMgSettings
350
ED0
  0
DICTIONARY
  5
FFE
102
{ACAD_REACTORS
330
84D
102
}
330
84D
100
AcDbDictionary
281
     1
  3
DIMENSION
350
1003
  3
FEA
350
1002
  3
HATCH (1)
350
FFF
  3
HATCH (2)
350
1000
  3
SIMPLE WELD
350
1004
  3
SYMBOLS
350
1001
  0
DICTIONARY
  5
14DE
102
{ACAD_REACTORS
330
14DD
102
}
330
14DD
100
AcDbDictionary
281
     1
  0
XRECORD
  5
1200
102
{ACAD_REACTORS
330
11FF
102
}
330
11FF
100
AcDbXrecord
280
     1
290
     1
  0
XRECORD
  5
1202
102
{ACAD_REACTORS
330
1201
102
}
330
1201
100
AcDbXrecord
280
     1
290
     1
  0
XRECORD
  5
1204
102
{ACAD_REACTORS
330
1203
102
}
330
1203
100
AcDbXrecord
280
     1
290
     1
  0
XRECORD
  5
1206
102
{ACAD_REACTORS
330
1205
102
}
330
1205
100
AcDbXrecord
280
     1
290
     1
  0
XRECORD
  5
1208
102
{ACAD_REACTORS
330
1207
102
}
330
1207
100
AcDbXrecord
280
     1
290
     1
  0
XRECORD
  5
120A
102
{ACAD_REACTORS
330
1209
102
}
330
1209
100
AcDbXrecord
280
     1
290
     1
  0
XRECORD
  5
120C
102
{ACAD_REACTORS
330
120B
102
}
330
120B
100
AcDbXrecord
280
     1
290
     1
  0
XRECORD
  5
120E
102
{ACAD_REACTORS
330
120D
102
}
330
120D
100
AcDbXrecord
280
     1
290
     1
  0
XRECORD
  5
1210
102
{ACAD_REACTORS
330
120F
102
}
330
120F
100
AcDbXrecord
280
     1
290
     1
  0
XRECORD
  5
1212
102
{ACAD_REACTORS
330
1211
102
}
330
1211
100
AcDbXrecord
280
     1
290
     1
  0
XRECORD
  5
1214
102
{ACAD_REACTORS
330
1213
102
}
330
1213
100
AcDbXrecord
280
     1
290
     1
  0
DICTIONARY
  5
FE6
102
{ACAD_REACTORS
330
B4F
102
}
330
B4F
100
AcDbDictionary
281
     1
  3
*A1
350
FE7
  0
XRECORD
  5
B50
102
{ACAD_REACTORS
330
B4F
102
}
330
B4F
100
AcDbXrecord
280
     1
340
85F
  0
SORTENTSTABLE
  5
1227
102
{ACAD_REACTORS
330
B4F
102
}
330
B4F
100
AcDbSortentsTable
330
85F
331
1AB9
  5
1AB9
331
1AB5
  5
1AB5
331
1A0E
  5
1A0E
331
1A0A
  5
1A0A
331
1A84
  5
1A84
331
1AB1
  5
1AB1
331
1996
  5
193A
331
1947
  5
154B
331
1A06
  5
1A06
331
1A45
  5
1A45
331
1992
  5
1936
331
1A80
  5
1A80
331
1943
  5
1547
331
1A02
  5
1A02
331
1A41
  5
1A41
331
198E
  5
1592
331
19CD
  5
1971
331
1A7C
  5
1A7C
331
1A78
  5
1A78
331
198A
  5
158E
331
19C9
  5
196D
331
1956
  5
155A
331
1952
  5
1556
331
1A3D
  5
1A3D
331
193F
  5
1543
331
19FE
  5
19FE
331
1A39
  5
1A39
331
19C5
  5
1969
331
1A74
  5
1A74
331
193B
  5
153F
331
1986
  5
158A
331
19FA
  5
19FA
331
19F6
  5
19F6
331
1A35
  5
1A35
331
1982
  5
1586
331
19C1
  5
1965
331
1A70
  5
1A70
331
1AAF
  5
1AAF
331
1937
  5
957
331
1AAB
  5
1AAB
331
1933
  5
953
331
19F2
  5
19F2
331
1A31
  5
1A31
331
197E
  5
1582
331
19BD
  5
1961
331
1A6C
  5
1A6C
331
1A68
  5
1A68
331
197A
  5
157E
331
19B9
  5
195D
331
194E
  5
1552
331
194A
  5
154E
331
1AA7
  5
1AA7
331
19EE
  5
1992
331
1A2D
  5
1A2D
331
1A29
  5
1A29
331
19B5
  5
1959
331
1A64
  5
1A64
331
1AA3
  5
1AA3
331
1976
  5
157A
331
19EA
  5
198E
331
19E6
  5
198A
331
1A25
  5
1A25
331
1972
  5
1576
331
19B1
  5
1955
331
1A60
  5
1A60
331
1A9F
  5
1A9F
331
957
  5
1999
331
1A9B
  5
1A9B
331
953
  5
1995
331
19E2
  5
1986
331
1A21
  5
1A21
331
196E
  5
1572
331
19AD
  5
1951
331
1A5C
  5
1A5C
331
1A58
  5
1A58
331
196A
  5
156E
331
19A9
  5
194D
331
1A97
  5
1A97
331
19DE
  5
1982
331
1A1D
  5
1A1D
331
1A19
  5
1A19
331
19A5
  5
1949
331
1A54
  5
1A54
331
1A93
  5
1A93
331
1966
  5
156A
331
19DA
  5
197E
331
19D6
  5
197A
331
1A15
  5
1A15
331
19A1
  5
1945
331
1A50
  5
1A50
331
1A8F
  5
1A8F
331
1962
  5
1566
331
1A8B
  5
1A8B
331
19D2
  5
1976
331
1A11
  5
1A11
331
195E
  5
1562
331
199D
  5
1941
331
1A4C
  5
1A4C
331
195A
  5
155E
331
1999
  5
193D
331
1A48
  5
1A48
331
1ABC
  5
1ABC
331
1AB8
  5
1AB8
331
1AB4
  5
1AB4
331
1A87
  5
1A87
331
1A0D
  5
1A0D
331
1A09
  5
1A09
331
1A83
  5
1A83
331
1AB0
  5
1AB0
331
1995
  5
1939
331
1946
  5
154A
331
1A05
  5
1A05
331
1A44
  5
1A44
331
1991
  5
1935
331
1A7F
  5
1A7F
331
1942
  5
1546
331
1A01
  5
1A01
331
1A40
  5
1A40
331
198D
  5
1591
331
19CC
  5
1970
331
1A7B
  5
1A7B
331
1989
  5
158D
331
19C8
  5
196C
331
1955
  5
1559
331
1951
  5
1555
331
1A3C
  5
1A3C
331
1A77
  5
1A77
331
193E
  5
1542
331
19FD
  5
19FD
331
19F9
  5
19F9
331
1A38
  5
1A38
331
19C4
  5
1968
331
1A73
  5
1A73
331
193A
  5
153E
331
1985
  5
1589
331
1936
  5
956
331
19F5
  5
19F5
331
1A34
  5
1A34
331
1981
  5
1585
331
19C0
  5
1964
331
1A6F
  5
1A6F
331
1AAE
  5
1AAE
331
1AAA
  5
1AAA
331
19F1
  5
19F1
331
1A30
  5
1A30
331
197D
  5
1581
331
19BC
  5
1960
331
1A6B
  5
1A6B
331
1979
  5
157D
331
19B8
  5
195C
331
194D
  5
1551
331
1949
  5
154D
331
1A2C
  5
1A2C
331
1A67
  5
1A67
331
1AA6
  5
1AA6
331
19ED
  5
1991
331
1A28
  5
1A28
331
19B4
  5
1958
331
1A63
  5
1A63
331
1AA2
  5
1AA2
331
1975
  5
1579
331
19E9
  5
198D
331
19E5
  5
1989
331
1A24
  5
1A24
331
1971
  5
1575
331
19B0
  5
1954
331
1A5F
  5
1A5F
331
1A9E
  5
1A9E
331
956
  5
1998
331
1A9A
  5
1A9A
331
19E1
  5
1985
331
1A20
  5
1A20
331
196D
  5
1571
331
19AC
  5
1950
331
1A5B
  5
1A5B
331
1969
  5
156D
331
19A8
  5
194C
331
1A57
  5
1A57
331
1A96
  5
1A96
331
19DD
  5
1981
331
1A1C
  5
1A1C
331
1A18
  5
1A18
331
19A4
  5
1948
331
1A53
  5
1A53
331
1A92
  5
1A92
331
1965
  5
1569
331
19D9
  5
197D
331
19D5
  5
1979
331
1A14
  5
1A14
331
1961
  5
1565
331
19A0
  5
1944
331
1A4F
  5
1A4F
331
1A8E
  5
1A8E
331
1A8A
  5
1A8A
331
19D1
  5
1975
331
1A10
  5
1A10
331
195D
  5
1561
331
199C
  5
1940
331
1A4B
  5
1A4B
331
1959
  5
155D
331
1998
  5
193C
331
1ABB
  5
1ABB
331
1AB7
  5
1AB7
331
1AB3
  5
1AB3
331
1A86
  5
1A86
331
1A0C
  5
1A0C
331
1A08
  5
1A08
331
1A47
  5
1A47
331
1994
  5
1938
331
1A82
  5
1A82
331
1945
  5
1549
331
1A04
  5
1A04
331
1A43
  5
1A43
331
1990
  5
1934
331
19CF
  5
1973
331
1A7E
  5
1A7E
331
1A7A
  5
1A7A
331
1941
  5
1545
331
1A00
  5
1A00
331
198C
  5
1590
331
19CB
  5
196F
331
1988
  5
158C
331
1954
  5
1558
331
1950
  5
1554
331
1A3F
  5
1A3F
331
1A3B
  5
1A3B
331
19C7
  5
196B
331
1A76
  5
1A76
331
193D
  5
1541
331
19FC
  5
19FC
331
19F8
  5
19F8
331
1A37
  5
1A37
331
19C3
  5
1967
331
1A72
  5
1A72
331
1939
  5
153D
331
1984
  5
1588
331
1AAD
  5
1AAD
331
1935
  5
955
331
19F4
  5
19F4
331
1A33
  5
1A33
331
1980
  5
1584
331
19BF
  5
1963
331
1A6E
  5
1A6E
331
1AA9
  5
1AA9
331
19F0
  5
1994
331
197C
  5
1580
331
19BB
  5
195F
331
1A6A
  5
1A6A
331
1978
  5
157C
331
194C
  5
1550
331
1948
  5
154C
331
1A2F
  5
1A2F
331
1A2B
  5
1A2B
331
1A66
  5
1A66
331
1AA5
  5
1AA5
331
19EC
  5
1990
331
19B7
  5
195B
331
19E8
  5
198C
331
1A27
  5
1A27
331
19B3
  5
1957
331
1A62
  5
1A62
331
1AA1
  5
1AA1
331
1974
  5
1578
331
955
  5
1997
331
19E4
  5
1988
331
1A23
  5
1A23
331
1970
  5
1574
331
19AF
  5
1953
331
1A5E
  5
1A5E
331
1A9D
  5
1A9D
331
1A99
  5
1A99
331
19E0
  5
1984
331
196C
  5
1570
331
19AB
  5
194F
331
1A5A
  5
1A5A
331
1968
  5
156C
331
1A1F
  5
1A1F
331
1A1B
  5
1A1B
331
1A56
  5
1A56
331
1A95
  5
1A95
331
19DC
  5
1980
331
19A7
  5
194B
331
1A17
  5
1A17
331
19A3
  5
1947
331
1A52
  5
1A52
331
1A91
  5
1A91
331
1964
  5
1568
331
19D8
  5
197C
331
19D4
  5
1978
331
1A13
  5
1A13
331
1960
  5
1564
331
199F
  5
1943
331
1A4E
  5
1A4E
331
1A8D
  5
1A8D
331
1A89
  5
1A89
331
19D0
  5
1974
331
195C
  5
1560
331
199B
  5
193F
331
1A4A
  5
1A4A
331
1958
  5
155C
331
1ABA
  5
1ABA
331
1AB6
  5
1AB6
331
1A0F
  5
1A0F
331
1AB2
  5
1AB2
331
1A85
  5
1A85
331
1997
  5
193B
331
1A0B
  5
1A0B
331
1A07
  5
1A07
331
1A46
  5
1A46
331
1993
  5
1937
331
1A81
  5
1A81
331
1944
  5
1548
331
1A03
  5
1A03
331
1A42
  5
1A42
331
198F
  5
1933
331
19CE
  5
1972
331
1A7D
  5
1A7D
331
1A79
  5
1A79
331
1940
  5
1544
331
198B
  5
158F
331
19CA
  5
196E
331
1957
  5
155B
331
1953
  5
1557
331
19FF
  5
19FF
331
1A3E
  5
1A3E
331
1A3A
  5
1A3A
331
19C6
  5
196A
331
1A75
  5
1A75
331
193C
  5
1540
331
1987
  5
158B
331
19FB
  5
19FB
331
19F7
  5
19F7
331
1A36
  5
1A36
331
1983
  5
1587
331
19C2
  5
1966
331
1A71
  5
1A71
331
1938
  5
958
331
1AAC
  5
1AAC
331
1934
  5
954
331
19F3
  5
19F3
331
1A32
  5
1A32
331
197F
  5
1583
331
19BE
  5
1962
331
1A6D
  5
1A6D
331
1A69
  5
1A69
331
1AA8
  5
1AA8
331
197B
  5
157F
331
19BA
  5
195E
331
194F
  5
1553
331
194B
  5
154F
331
19EF
  5
1993
331
1A2E
  5
1A2E
331
1A2A
  5
1A2A
331
19B6
  5
195A
331
1A65
  5
1A65
331
1AA4
  5
1AA4
331
1977
  5
157B
331
19EB
  5
198F
331
19E7
  5
198B
331
1A26
  5
1A26
331
19B2
  5
1956
331
1A61
  5
1A61
331
1AA0
  5
1AA0
331
958
  5
199A
331
1973
  5
1577
331
1A9C
  5
1A9C
331
954
  5
1996
331
19E3
  5
1987
331
1A22
  5
1A22
331
196F
  5
1573
331
19AE
  5
1952
331
1A5D
  5
1A5D
331
1A98
  5
1A98
331
196B
  5
156F
331
19AA
  5
194E
331
1A59
  5
1A59
331
19DF
  5
1983
331
1A1E
  5
1A1E
331
1A1A
  5
1A1A
331
1A55
  5
1A55
331
1A94
  5
1A94
331
19DB
  5
197F
331
1967
  5
156B
331
19A6
  5
194A
331
19D7
  5
197B
331
1A16
  5
1A16
331
19A2
  5
1946
331
1A51
  5
1A51
331
1A90
  5
1A90
331
1963
  5
1567
331
19D3
  5
1977
331
1A12
  5
1A12
331
195F
  5
1563
331
199E
  5
1942
331
1A4D
  5
1A4D
331
1A8C
  5
1A8C
331
1A88
  5
1A88
331
195B
  5
155F
331
199A
  5
193E
331
1A49
  5
1A49
  0
XRECORD
  5
B4E
102
{ACAD_REACTORS
330
B4D
102
}
330
B4D
100
AcDbXrecord
280
     1
340
85B
  0
XRECORD
  5
1AE5
102
{ACAD_REACTORS
330
1AE4
102
}
330
1AE4
100
AcDbXrecord
280
     1
 90
        1
340
117F
  0
XRECORD
  5
1BE4
102
{ACAD_REACTORS
330
1BE3
102
}
330
1BE3
100
AcDbXrecord
280
     1
 70
     1
  0
XRECORD
  5
1BE6
102
{ACAD_REACTORS
330
1BE3
102
}
330
1BE3
100
AcDbXrecord
280
     1
340
854
  0
XRECORD
  5
1BE7
102
{ACAD_REACTORS
330
1BE3
102
}
330
1BE3
100
AcDbXrecord
280
     1
340
854
  0
XRECORD
  5
1BE5
102
{ACAD_REACTORS
330
1BE3
102
}
330
1BE3
100
AcDbXrecord
280
     1
340
854
  0
LAYOUT
  5
B84
102
{ACAD_REACTORS
330
85A
102
}
330
85A
100
AcDbPlotSettings
  1

  2
EPSON LP-9600S
  4
A4
  6

 40
5.873749732971191
 41
5.873747825622557
 42
5.873748779296875
 43
5.873748779296875
 44
209.9733276367186
 45
297.0106506347656
 46
0.0
 47
0.0
 48
0.0
 49
0.0
140
0.0
141
0.0
142
1.0
143
5.235884617788101
 70
 11952
 72
     1
 73
     1
 74
     1
  7
monochrome.ctb
 75
     0
147
0.1909896938146146
 76
     0
 77
     2
 78
   300
148
906.8967172533341
149
759.1639143246887
100
AcDbLayout
  1
Model
 70
     1
 71
     0
 10
0.0
 20
0.0
 11
12.0
 21
9.0
 12
0.0
 22
0.0
 32
0.0
 14
0.0
 24
0.0
 34
0.0
 15
0.0
 25
0.0
 35
0.0
146
0.0
 13
0.0
 23
0.0
 33
0.0
 16
1.0
 26
0.0
 36
0.0
 17
0.0
 27
1.0
 37
0.0
 76
     0
330
85F
331
114A
1001
ACAD_PSEXT
1000
EPSON LP-9600S
1000
EPSON LP-9600S
1000
IP_10.36.3.199
1000

1070
     0
  0
LAYOUT
  5
B85
102
{ACAD_XDICTIONARY
360
1AED
102
}
102
{ACAD_REACTORS
330
85A
102
}
330
85A
100
AcDbPlotSettings
  1

  2
none_device
  4
Letter_(8.50_x_11.00_Inches)
  6

 40
6.349999904632567
 41
6.349999904632567
 42
6.350006103515625
 43
6.350006103515625
 44
215.8999938964844
 45
279.3999938964844
 46
0.0
 47
0.0
 48
0.0
 49
0.0
140
0.0
141
0.0
142
1.0
143
1.0
 70
   688
 72
     0
 73
     1
 74
     5
  7
monochrome.ctb
 75
    16
147
1.0
 76
     0
 77
     2
 78
   300
148
0.0
149
0.0
100
AcDbLayout
  1
ﾚｲｱｳﾄ1
 70
     1
 71
     1
 10
0.0
 20
0.0
 11
12.0
 21
9.0
 12
0.0
 22
0.0
 32
0.0
 14
1.000000000000000E+20
 24
1.000000000000000E+20
 34
1.000000000000000E+20
 15
-1.000000000000000E+20
 25
-1.000000000000000E+20
 35
-1.000000000000000E+20
146
0.0
 13
0.0
 23
0.0
 33
0.0
 16
1.0
 26
0.0
 36
0.0
 17
0.0
 27
1.0
 37
0.0
 76
     0
330
85B
331
1AE3
1001
ACAD_PSEXT
1000
なし
1000
なし
1000
適切ではありません
1000
新しいプロッタ環境設定名を選択しない限り、レイアウトは印刷されません。
1070
     0
  0
MATERIAL
  5
115D
102
{ACAD_XDICTIONARY
360
115E
102
}
102
{ACAD_REACTORS
330
EC8
102
}
330
EC8
100
AcDbMaterial
  1
ByBlock
 72
     0
 43
0.0208333333333333
 43
0.0
 43
0.0
 43
0.0
 43
0.0
 43
0.0208333333333333
 43
0.0
 43
0.0
 43
0.0
 43
0.0
 43
1.0
 43
0.0
 43
0.0
 43
0.0
 43
0.0
 43
1.0
 77
     0
 47
0.0208333333333333
 47
0.0
 47
0.0
 47
0.0
 47
0.0
 47
0.0208333333333333
 47
0.0
 47
0.0
 47
0.0
 47
0.0
 47
1.0
 47
0.0
 47
0.0
 47
0.0
 47
0.0
 47
1.0
171
     0
 49
0.0208333333333333
 49
0.0
 49
0.0
 49
0.0
 49
0.0
 49
0.0208333333333333
 49
0.0
 49
0.0
 49
0.0
 49
0.0
 49
1.0
 49
0.0
 49
0.0
 49
0.0
 49
0.0
 49
1.0
175
     0
142
0.0208333333333333
142
0.0
142
0.0
142
0.0
142
0.0
142
0.0208333333333333
142
0.0
142
0.0
142
0.0
142
0.0
142
1.0
142
0.0
142
0.0
142
0.0
142
0.0
142
1.0
179
     0
144
0.0208333333333333
144
0.0
144
0.0
144
0.0
144
0.0
144
0.0208333333333333
144
0.0
144
0.0
144
0.0
144
0.0
144
1.0
144
0.0
144
0.0
144
0.0
144
0.0
144
1.0
147
0.0208333333333333
147
0.0
147
0.0
147
0.0
147
0.0
147
0.0208333333333333
147
0.0
147
0.0
147
0.0
147
0.0
147
1.0
147
0.0
147
0.0
147
0.0
147
0.0
147
1.0
  0
MATERIAL
  5
1155
102
{ACAD_XDICTIONARY
360
1156
102
}
102
{ACAD_REACTORS
330
EC8
102
}
330
EC8
100
AcDbMaterial
  1
ByLayer
 72
     0
 43
0.0208333333333333
 43
0.0
 43
0.0
 43
0.0
 43
0.0
 43
0.0208333333333333
 43
0.0
 43
0.0
 43
0.0
 43
0.0
 43
1.0
 43
0.0
 43
0.0
 43
0.0
 43
0.0
 43
1.0
 77
     0
 47
0.0208333333333333
 47
0.0
 47
0.0
 47
0.0
 47
0.0
 47
0.0208333333333333
 47
0.0
 47
0.0
 47
0.0
 47
0.0
 47
1.0
 47
0.0
 47
0.0
 47
0.0
 47
0.0
 47
1.0
171
     0
 49
0.0208333333333333
 49
0.0
 49
0.0
 49
0.0
 49
0.0
 49
0.0208333333333333
 49
0.0
 49
0.0
 49
0.0
 49
0.0
 49
1.0
 49
0.0
 49
0.0
 49
0.0
 49
0.0
 49
1.0
175
     0
142
0.0208333333333333
142
0.0
142
0.0
142
0.0
142
0.0
142
0.0208333333333333
142
0.0
142
0.0
142
0.0
142
0.0
142
1.0
142
0.0
142
0.0
142
0.0
142
0.0
142
1.0
179
     0
144
0.0208333333333333
144
0.0
144
0.0
144
0.0
144
0.0
144
0.0208333333333333
144
0.0
144
0.0
144
0.0
144
0.0
144
1.0
144
0.0
144
0.0
144
0.0
144
0.0
144
1.0
147
0.0208333333333333
147
0.0
147
0.0
147
0.0
147
0.0
147
0.0208333333333333
147
0.0
147
0.0
147
0.0
147
0.0
147
1.0
147
0.0
147
0.0
147
0.0
147
0.0
147
1.0
  0
MATERIAL
  5
1165
102
{ACAD_XDICTIONARY
360
1166
102
}
102
{ACAD_REACTORS
330
EC8
102
}
330
EC8
100
AcDbMaterial
  1
Global
 72
     0
 43
0.0208333333333333
 43
0.0
 43
0.0
 43
0.0
 43
0.0
 43
0.0208333333333333
 43
0.0
 43
0.0
 43
0.0
 43
0.0
 43
1.0
 43
0.0
 43
0.0
 43
0.0
 43
0.0
 43
1.0
 77
     0
 47
0.0208333333333333
 47
0.0
 47
0.0
 47
0.0
 47
0.0
 47
0.0208333333333333
 47
0.0
 47
0.0
 47
0.0
 47
0.0
 47
1.0
 47
0.0
 47
0.0
 47
0.0
 47
0.0
 47
1.0
171
     0
 49
0.0208333333333333
 49
0.0
 49
0.0
 49
0.0
 49
0.0
 49
0.0208333333333333
 49
0.0
 49
0.0
 49
0.0
 49
0.0
 49
1.0
 49
0.0
 49
0.0
 49
0.0
 49
0.0
 49
1.0
175
     0
142
0.0208333333333333
142
0.0
142
0.0
142
0.0
142
0.0
142
0.0208333333333333
142
0.0
142
0.0
142
0.0
142
0.0
142
1.0
142
0.0
142
0.0
142
0.0
142
0.0
142
1.0
179
     0
144
0.0208333333333333
144
0.0
144
0.0
144
0.0
144
0.0
144
0.0208333333333333
144
0.0
144
0.0
144
0.0
144
0.0
144
1.0
144
0.0
144
0.0
144
0.0
144
0.0
144
1.0
147
0.0208333333333333
147
0.0
147
0.0
147
0.0
147
0.0
147
0.0208333333333333
147
0.0
147
0.0
147
0.0
147
0.0
147
1.0
147
0.0
147
0.0
147
0.0
147
0.0
147
1.0
  0
MLEADERSTYLE
  5
11A1
102
{ACAD_REACTORS
330
11A0
102
}
330
11A0
100
AcDbMLeaderStyle
170
     2
171
     1
172
     0
 90
        2
 40
0.0
 41
0.0
173
     1
 91
-1056964608
340
854
 92
       -2
290
     1
 42
0.09
291
     1
 43
0.36
  3
Standard
 44
0.18
300

342
852
174
     1
178
     6
175
     1
176
     0
 93
-1056964608
 45
0.18
292
     0
297
     0
 46
0.18
 94
-1056964608
 47
1.0
 49
1.0
140
1.0
293
     1
141
0.0
294
     1
177
     0
142
1.0
295
     0
296
     0
143
0.125
1001
ACAD_MLEADERVER
1070
     2
  0
MLINESTYLE
  5
858
102
{ACAD_REACTORS
330
857
102
}
330
857
100
AcDbMlineStyle
  2
STANDARD
 70
     0
  3

 62
   256
 51
90.0
 52
90.0
 71
     2
 49
0.5
 62
   256
  6
BYLAYER
 49
-0.5
 62
   256
  6
BYLAYER
  0
ACDBPLACEHOLDER
  5
B83
102
{ACAD_REACTORS
330
B82
102
}
330
B82
  0
SCALE
  5
117F
102
{ACAD_REACTORS
330
117E
102
}
330
117E
100
AcDbScale
 70
     0
300
1:1
140
1.0
141
1.0
290
     1
  0
SCALE
  5
1180
102
{ACAD_REACTORS
330
117E
102
}
330
117E
100
AcDbScale
 70
     0
300
1:2
140
1.0
141
2.0
290
     0
  0
SCALE
  5
1181
102
{ACAD_REACTORS
330
117E
102
}
330
117E
100
AcDbScale
 70
     0
300
1:4
140
1.0
141
4.0
290
     0
  0
SCALE
  5
1182
102
{ACAD_REACTORS
330
117E
102
}
330
117E
100
AcDbScale
 70
     0
300
1:5
140
1.0
141
5.0
290
     0
  0
SCALE
  5
1183
102
{ACAD_REACTORS
330
117E
102
}
330
117E
100
AcDbScale
 70
     0
300
1:8
140
1.0
141
8.0
290
     0
  0
SCALE
  5
1184
102
{ACAD_REACTORS
330
117E
102
}
330
117E
100
AcDbScale
 70
     0
300
1:10
140
1.0
141
10.0
290
     0
  0
SCALE
  5
1185
102
{ACAD_REACTORS
330
117E
102
}
330
117E
100
AcDbScale
 70
     0
300
1:16
140
1.0
141
16.0
290
     0
  0
SCALE
  5
1186
102
{ACAD_REACTORS
330
117E
102
}
330
117E
100
AcDbScale
 70
     0
300
1:20
140
1.0
141
20.0
290
     0
  0
SCALE
  5
1187
102
{ACAD_REACTORS
330
117E
102
}
330
117E
100
AcDbScale
 70
     0
300
1:30
140
1.0
141
30.0
290
     0
  0
SCALE
  5
1188
102
{ACAD_REACTORS
330
117E
102
}
330
117E
100
AcDbScale
 70
     0
300
1:40
140
1.0
141
40.0
290
     0
  0
SCALE
  5
1189
102
{ACAD_REACTORS
330
117E
102
}
330
117E
100
AcDbScale
 70
     0
300
1:50
140
1.0
141
50.0
290
     0
  0
SCALE
  5
118A
102
{ACAD_REACTORS
330
117E
102
}
330
117E
100
AcDbScale
 70
     0
300
1:100
140
1.0
141
100.0
290
     0
  0
SCALE
  5
118B
102
{ACAD_REACTORS
330
117E
102
}
330
117E
100
AcDbScale
 70
     0
300
2:1
140
2.0
141
1.0
290
     0
  0
SCALE
  5
118C
102
{ACAD_REACTORS
330
117E
102
}
330
117E
100
AcDbScale
 70
     0
300
4:1
140
4.0
141
1.0
290
     0
  0
SCALE
  5
118D
102
{ACAD_REACTORS
330
117E
102
}
330
117E
100
AcDbScale
 70
     0
300
8:1
140
8.0
141
1.0
290
     0
  0
SCALE
  5
118E
102
{ACAD_REACTORS
330
117E
102
}
330
117E
100
AcDbScale
 70
     0
300
10:1
140
10.0
141
1.0
290
     0
  0
SCALE
  5
118F
102
{ACAD_REACTORS
330
117E
102
}
330
117E
100
AcDbScale
 70
     0
300
100:1
140
100.0
141
1.0
290
     0
  0
SCALE
  5
1190
102
{ACAD_REACTORS
330
117E
102
}
330
117E
100
AcDbScale
 70
     0
300
1/128" = 1'-0"
140
0.0078125
141
12.0
290
     0
  0
SCALE
  5
1191
102
{ACAD_REACTORS
330
117E
102
}
330
117E
100
AcDbScale
 70
     0
300
1/64" = 1'-0"
140
0.015625
141
12.0
290
     0
  0
SCALE
  5
1192
102
{ACAD_REACTORS
330
117E
102
}
330
117E
100
AcDbScale
 70
     0
300
1/32" = 1'-0"
140
0.03125
141
12.0
290
     0
  0
SCALE
  5
1193
102
{ACAD_REACTORS
330
117E
102
}
330
117E
100
AcDbScale
 70
     0
300
1/16" = 1'-0"
140
0.0625
141
12.0
290
     0
  0
SCALE
  5
1194
102
{ACAD_REACTORS
330
117E
102
}
330
117E
100
AcDbScale
 70
     0
300
3/32" = 1'-0"
140
0.09375
141
12.0
290
     0
  0
SCALE
  5
1195
102
{ACAD_REACTORS
330
117E
102
}
330
117E
100
AcDbScale
 70
     0
300
1/8" = 1'-0"
140
0.125
141
12.0
290
     0
  0
SCALE
  5
1196
102
{ACAD_REACTORS
330
117E
102
}
330
117E
100
AcDbScale
 70
     0
300
3/16" = 1'-0"
140
0.1875
141
12.0
290
     0
  0
SCALE
  5
1197
102
{ACAD_REACTORS
330
117E
102
}
330
117E
100
AcDbScale
 70
     0
300
1/4" = 1'-0"
140
0.25
141
12.0
290
     0
  0
SCALE
  5
1198
102
{ACAD_REACTORS
330
117E
102
}
330
117E
100
AcDbScale
 70
     0
300
3/8" = 1'-0"
140
0.375
141
12.0
290
     0
  0
SCALE
  5
1199
102
{ACAD_REACTORS
330
117E
102
}
330
117E
100
AcDbScale
 70
     0
300
1/2" = 1'-0"
140
0.5
141
12.0
290
     0
  0
SCALE
  5
119A
102
{ACAD_REACTORS
330
117E
102
}
330
117E
100
AcDbScale
 70
     0
300
3/4" = 1'-0"
140
0.75
141
12.0
290
     0
  0
SCALE
  5
119B
102
{ACAD_REACTORS
330
117E
102
}
330
117E
100
AcDbScale
 70
     0
300
1" = 1'-0"
140
1.0
141
12.0
290
     0
  0
SCALE
  5
119C
102
{ACAD_REACTORS
330
117E
102
}
330
117E
100
AcDbScale
 70
     0
300
1-1/2" = 1'-0"
140
1.5
141
12.0
290
     0
  0
SCALE
  5
119D
102
{ACAD_REACTORS
330
117E
102
}
330
117E
100
AcDbScale
 70
     0
300
3" = 1'-0"
140
3.0
141
12.0
290
     0
  0
SCALE
  5
119E
102
{ACAD_REACTORS
330
117E
102
}
330
117E
100
AcDbScale
 70
     0
300
6" = 1'-0"
140
6.0
141
12.0
290
     0
  0
SCALE
  5
119F
102
{ACAD_REACTORS
330
117E
102
}
330
117E
100
AcDbScale
 70
     0
300
1'-0" = 1'-0"
140
12.0
141
12.0
290
     0
  0
TABLESTYLE
  5
ECB
102
{ACAD_XDICTIONARY
360
126A
102
}
102
{ACAD_REACTORS
330
ECA
102
}
330
ECA
100
AcDbTableStyle
  3
Standard
 70
     0
 71
     0
 40
0.06
 41
0.06
280
     0
281
     0
  7
STANDARD
140
0.18
170
     2
 62
     0
 63
     7
283
     0
274
    -2
284
     1
 64
     0
275
    -2
285
     1
 65
     0
276
    -2
286
     1
 66
     0
277
    -2
287
     1
 67
     0
278
    -2
288
     1
 68
     0
279
    -2
289
     1
 69
     0
  7
STANDARD
140
0.25
170
     5
 62
     0
 63
     7
283
     0
274
    -2
284
     1
 64
     0
275
    -2
285
     1
 65
     0
276
    -2
286
     1
 66
     0
277
    -2
287
     1
 67
     0
278
    -2
288
     1
 68
     0
279
    -2
289
     1
 69
     0
  7
STANDARD
140
0.18
170
     5
 62
     0
 63
     7
283
     0
274
    -2
284
     1
 64
     0
275
    -2
285
     1
 65
     0
276
    -2
286
     1
 66
     0
277
    -2
287
     1
 67
     0
278
    -2
288
     1
 68
     0
279
    -2
289
     1
 69
     0
  0
VISUALSTYLE
  5
1173
102
{ACAD_REACTORS
330
116D
102
}
330
116D
100
AcDbVisualStyle
  2
2dWireframe
 70
     4
 71
     0
 72
     2
 73
     0
 90
        0
 40
-0.6
 41
-30.0
 62
     5
 63
     7
 74
     1
 91
        4
 64
     7
 65
   257
 75
     1
175
     1
 42
1.0
 92
        0
 66
   257
 43
1.0
 76
     1
 77
     6
 78
     2
 67
     7
 79
     5
170
     0
171
     0
290
     0
174
     0
 93
        1
 44
0.0
173
     0
291
     0
 45
0.0
1001
ACAD
1000
AcDbSavedByObjectVersion
1070
     0
1000
AcDbSavedByObjectVersion
1070
     0
1000
AcDbSavedByObjectVersion
1070
     0
1000
AcDbSavedByObjectVersion
1070
     0
1000
AcDbSavedByObjectVersion
1070
     0
1000
AcDbSavedByObjectVersion
1070
     0
  0
VISUALSTYLE
  5
1175
102
{ACAD_REACTORS
330
116D
102
}
330
116D
100
AcDbVisualStyle
  2
3D Hidden
 70
     6
 71
     1
 72
     2
 73
     2
 90
        0
 40
-0.6
 41
-30.0
 62
     5
 63
     7
 74
     2
 91
        2
 64
     7
 65
   257
 75
     2
175
     1
 42
40.0
 92
        0
 66
   257
 43
1.0
 76
     1
 77
     6
 78
     2
 67
     7
 79
     3
170
     0
171
     0
290
     0
174
     0
 93
        1
 44
0.0
173
     0
291
     0
 45
0.0
1001
ACAD
1000
AcDbSavedByObjectVersion
1070
     0
1000
AcDbSavedByObjectVersion
1070
     0
1000
AcDbSavedByObjectVersion
1070
     0
1000
AcDbSavedByObjectVersion
1070
     0
1000
AcDbSavedByObjectVersion
1070
     0
1000
AcDbSavedByObjectVersion
1070
     0
  0
VISUALSTYLE
  5
1174
102
{ACAD_REACTORS
330
116D
102
}
330
116D
100
AcDbVisualStyle
  2
3dWireframe
 70
     5
 71
     0
 72
     2
 73
     0
 90
        0
 40
-0.6
 41
-30.0
 62
     5
 63
     7
 74
     1
 91
        4
 64
     7
 65
   257
 75
     1
175
     1
 42
1.0
 92
        0
 66
   257
 43
1.0
 76
     1
 77
     6
 78
     2
 67
     7
 79
     5
170
     0
171
     0
290
     0
174
     0
 93
        1
 44
0.0
173
     0
291
     0
 45
0.0
1001
ACAD
1000
AcDbSavedByObjectVersion
1070
     0
1000
AcDbSavedByObjectVersion
1070
     0
1000
AcDbSavedByObjectVersion
1070
     0
1000
AcDbSavedByObjectVersion
1070
     0
1000
AcDbSavedByObjectVersion
1070
     0
1000
AcDbSavedByObjectVersion
1070
     0
  0
VISUALSTYLE
  5
1172
102
{ACAD_REACTORS
330
116D
102
}
330
116D
100
AcDbVisualStyle
  2
Basic
 70
     7
 71
     1
 72
     0
 73
     1
 90
        0
 40
-0.6
 41
-30.0
 62
     5
 63
     7
 74
     0
 91
        4
 64
     7
 65
   257
 75
     1
175
     1
 42
1.0
 92
        8
 66
     7
 43
1.0
 76
     1
 77
     6
 78
     2
 67
     7
 79
     5
170
     0
171
     0
290
     0
174
     0
 93
        1
 44
0.0
173
     0
291
     1
 45
0.0
1001
ACAD
1000
AcDbSavedByObjectVersion
1070
     0
1000
AcDbSavedByObjectVersion
1070
     0
1000
AcDbSavedByObjectVersion
1070
     0
1000
AcDbSavedByObjectVersion
1070
     0
1000
AcDbSavedByObjectVersion
1070
     0
1000
AcDbSavedByObjectVersion
1070
     0
  0
VISUALSTYLE
  5
1179
102
{ACAD_REACTORS
330
116D
102
}
330
116D
100
AcDbVisualStyle
  2
Brighten
 70
    12
 71
     2
 72
     2
 73
     0
 90
        0
 40
-0.6
 41
-30.0
 62
     5
 63
     7
 74
     1
 91
        4
 64
     7
 65
   257
 75
     1
175
     1
 42
1.0
 92
        8
 66
     7
 43
1.0
 76
     1
 77
     6
 78
     2
 67
     7
 79
     5
170
     0
171
     0
290
     0
174
     0
 93
        1
 44
50.0
173
     0
291
     1
 45
0.0
1001
ACAD
1000
AcDbSavedByObjectVersion
1070
     0
1000
AcDbSavedByObjectVersion
1070
     0
1000
AcDbSavedByObjectVersion
1070
     0
1000
AcDbSavedByObjectVersion
1070
     0
1000
AcDbSavedByObjectVersion
1070
     0
1000
AcDbSavedByObjectVersion
1070
     0
  0
VISUALSTYLE
  5
117D
102
{ACAD_REACTORS
330
116D
102
}
330
116D
100
AcDbVisualStyle
  2
ColorChange
 70
    16
 71
     2
 72
     2
 73
     3
 90
        0
 40
-0.6
 41
-30.0
 62
     5
 63
     8
 74
     1
 91
        4
 64
     7
 65
   257
 75
     1
175
     1
 42
1.0
 92
        8
 66
     8
 43
1.0
 76
     1
 77
     6
 78
     2
 67
     7
 79
     5
170
     0
171
     0
290
     0
174
     0
 93
        1
 44
0.0
173
     0
291
     1
 45
0.0
1001
ACAD
1000
AcDbSavedByObjectVersion
1070
     0
1000
AcDbSavedByObjectVersion
1070
     0
1000
AcDbSavedByObjectVersion
1070
     0
1000
AcDbSavedByObjectVersion
1070
     0
1000
AcDbSavedByObjectVersion
1070
     0
1000
AcDbSavedByObjectVersion
1070
     0
  0
VISUALSTYLE
  5
1176
102
{ACAD_REACTORS
330
116D
102
}
330
116D
100
AcDbVisualStyle
  2
Conceptual
 70
     9
 71
     3
 72
     2
 73
     0
 90
        0
 40
-0.6
 41
-30.0
 62
     5
 63
     7
 74
     2
 91
        2
 64
     7
 65
   257
 75
     1
175
     1
 42
40.0
 92
        8
 66
     7
 43
1.0
 76
     1
 77
     6
 78
     2
 67
     7
 79
     3
170
     0
171
     0
290
     0
174
     0
 93
        1
 44
0.0
173
     0
291
     0
 45
0.0
1001
ACAD
1000
AcDbSavedByObjectVersion
1070
     0
1000
AcDbSavedByObjectVersion
1070
     0
1000
AcDbSavedByObjectVersion
1070
     0
1000
AcDbSavedByObjectVersion
1070
     0
1000
AcDbSavedByObjectVersion
1070
     0
1000
AcDbSavedByObjectVersion
1070
     0
  0
VISUALSTYLE
  5
1178
102
{ACAD_REACTORS
330
116D
102
}
330
116D
100
AcDbVisualStyle
  2
Dim
 70
    11
 71
     2
 72
     2
 73
     0
 90
        0
 40
-0.6
 41
-30.0
 62
     5
 63
     7
 74
     1
 91
        4
 64
     7
 65
   257
 75
     1
175
     1
 42
1.0
 92
        8
 66
     7
 43
1.0
 76
     1
 77
     6
 78
     2
 67
     7
 79
     5
170
     0
171
     0
290
     0
174
     0
 93
        1
 44
-50.0
173
     0
291
     1
 45
0.0
1001
ACAD
1000
AcDbSavedByObjectVersion
1070
     0
1000
AcDbSavedByObjectVersion
1070
     0
1000
AcDbSavedByObjectVersion
1070
     0
1000
AcDbSavedByObjectVersion
1070
     0
1000
AcDbSavedByObjectVersion
1070
     0
1000
AcDbSavedByObjectVersion
1070
     0
  0
VISUALSTYLE
  5
117C
102
{ACAD_REACTORS
330
116D
102
}
330
116D
100
AcDbVisualStyle
  2
Facepattern
 70
    15
 71
     2
 72
     2
 73
     0
 90
        0
 40
-0.6
 41
-30.0
 62
     5
 63
     7
 74
     1
 91
        4
 64
     7
 65
   257
 75
     1
175
     1
 42
1.0
 92
        8
 66
     7
 43
1.0
 76
     1
 77
     6
 78
     2
 67
     7
 79
     5
170
     0
171
     0
290
     0
174
     0
 93
        1
 44
0.0
173
     0
291
     1
 45
0.0
1001
ACAD
1000
AcDbSavedByObjectVersion
1070
     0
1000
AcDbSavedByObjectVersion
1070
     0
1000
AcDbSavedByObjectVersion
1070
     0
1000
AcDbSavedByObjectVersion
1070
     0
1000
AcDbSavedByObjectVersion
1070
     0
1000
AcDbSavedByObjectVersion
1070
     0
  0
VISUALSTYLE
  5
116E
102
{ACAD_REACTORS
330
116D
102
}
330
116D
100
AcDbVisualStyle
  2
Flat
 70
     0
 71
     2
 72
     1
 73
     1
 90
        2
 40
-0.6
 41
30.0
 62
     5
 63
     7
 74
     0
 91
        4
 64
     7
 65
   257
 75
     1
175
     1
 42
1.0
 92
        8
 66
     7
 43
1.0
 76
     1
 77
     6
 78
     2
 67
     7
 79
     5
170
     0
171
     0
290
     0
174
     0
 93
       13
 44
0.0
173
     0
291
     1
 45
0.0
1001
ACAD
1000
AcDbSavedByObjectVersion
1070
     0
1000
AcDbSavedByObjectVersion
1070
     0
1000
AcDbSavedByObjectVersion
1070
     0
1000
AcDbSavedByObjectVersion
1070
     0
1000
AcDbSavedByObjectVersion
1070
     0
1000
AcDbSavedByObjectVersion
1070
     0
  0
VISUALSTYLE
  5
116F
102
{ACAD_REACTORS
330
116D
102
}
330
116D
100
AcDbVisualStyle
  2
FlatWithEdges
 70
     1
 71
     2
 72
     1
 73
     1
 90
        2
 40
-0.6
 41
30.0
 62
     5
 63
     7
 74
     1
 91
        4
 64
     7
 65
   257
 75
     1
175
     1
 42
1.0
 92
        0
 66
   257
 43
1.0
 76
     1
 77
     6
 78
     2
 67
     7
 79
     5
170
     0
171
     0
290
     0
174
     0
 93
       13
 44
0.0
173
     0
291
     1
 45
0.0
1001
ACAD
1000
AcDbSavedByObjectVersion
1070
     0
1000
AcDbSavedByObjectVersion
1070
     0
1000
AcDbSavedByObjectVersion
1070
     0
1000
AcDbSavedByObjectVersion
1070
     0
1000
AcDbSavedByObjectVersion
1070
     0
1000
AcDbSavedByObjectVersion
1070
     0
  0
VISUALSTYLE
  5
1170
102
{ACAD_REACTORS
330
116D
102
}
330
116D
100
AcDbVisualStyle
  2
Gouraud
 70
     2
 71
     2
 72
     2
 73
     1
 90
        2
 40
-0.6
 41
30.0
 62
     5
 63
     7
 74
     0
 91
        4
 64
     7
 65
   257
 75
     1
175
     1
 42
1.0
 92
        0
 66
     7
 43
1.0
 76
     1
 77
     6
 78
     2
 67
     7
 79
     5
170
     0
171
     0
290
     0
174
     0
 93
       13
 44
0.0
173
     0
291
     1
 45
0.0
1001
ACAD
1000
AcDbSavedByObjectVersion
1070
     0
1000
AcDbSavedByObjectVersion
1070
     0
1000
AcDbSavedByObjectVersion
1070
     0
1000
AcDbSavedByObjectVersion
1070
     0
1000
AcDbSavedByObjectVersion
1070
     0
1000
AcDbSavedByObjectVersion
1070
     0
  0
VISUALSTYLE
  5
1171
102
{ACAD_REACTORS
330
116D
102
}
330
116D
100
AcDbVisualStyle
  2
GouraudWithEdges
 70
     3
 71
     2
 72
     2
 73
     1
 90
        2
 40
-0.6
 41
30.0
 62
     5
 63
     7
 74
     1
 91
        4
 64
     7
 65
   257
 75
     1
175
     1
 42
1.0
 92
        0
 66
   257
 43
1.0
 76
     1
 77
     6
 78
     2
 67
     7
 79
     5
170
     0
171
     0
290
     0
174
     0
 93
       13
 44
0.0
173
     0
291
     1
 45
0.0
1001
ACAD
1000
AcDbSavedByObjectVersion
1070
     0
1000
AcDbSavedByObjectVersion
1070
     0
1000
AcDbSavedByObjectVersion
1070
     0
1000
AcDbSavedByObjectVersion
1070
     0
1000
AcDbSavedByObjectVersion
1070
     0
1000
AcDbSavedByObjectVersion
1070
     0
  0
VISUALSTYLE
  5
117B
102
{ACAD_REACTORS
330
116D
102
}
330
116D
100
AcDbVisualStyle
  2
Linepattern
 70
    14
 71
     2
 72
     2
 73
     0
 90
        0
 40
-0.6
 41
-30.0
 62
     5
 63
     7
 74
     1
 91
        4
 64
     7
 65
   257
 75
     7
175
     7
 42
1.0
 92
        8
 66
     7
 43
1.0
 76
     1
 77
     6
 78
     2
 67
     7
 79
     5
170
     0
171
     0
290
     0
174
     0
 93
        1
 44
0.0
173
     0
291
     1
 45
0.0
1001
ACAD
1000
AcDbSavedByObjectVersion
1070
     0
1000
AcDbSavedByObjectVersion
1070
     0
1000
AcDbSavedByObjectVersion
1070
     0
1000
AcDbSavedByObjectVersion
1070
     0
1000
AcDbSavedByObjectVersion
1070
     0
1000
AcDbSavedByObjectVersion
1070
     0
  0
VISUALSTYLE
  5
1177
102
{ACAD_REACTORS
330
116D
102
}
330
116D
100
AcDbVisualStyle
  2
Realistic
 70
     8
 71
     2
 72
     2
 73
     0
 90
        0
 40
-0.6
 41
-30.0
 62
     5
 63
     7
 74
     1
 91
        0
 64
     7
 65
   257
 75
     1
175
     1
 42
1.0
 92
        8
 66
     8
 43
1.0
 76
     1
 77
     6
 78
     2
 67
     7
 79
     5
170
     0
171
     0
290
     0
174
     0
 93
       13
 44
0.0
173
     0
291
     0
 45
0.0
1001
ACAD
1000
AcDbSavedByObjectVersion
1070
     0
1000
AcDbSavedByObjectVersion
1070
     0
1000
AcDbSavedByObjectVersion
1070
     0
1000
AcDbSavedByObjectVersion
1070
     0
1000
AcDbSavedByObjectVersion
1070
     0
1000
AcDbSavedByObjectVersion
1070
     0
  0
VISUALSTYLE
  5
117A
102
{ACAD_REACTORS
330
116D
102
}
330
116D
100
AcDbVisualStyle
  2
Thicken
 70
    13
 71
     2
 72
     2
 73
     0
 90
        0
 40
-0.6
 41
-30.0
 62
     5
 63
     7
 74
     1
 91
        4
 64
     7
 65
   257
 75
     1
175
     1
 42
1.0
 92
       12
 66
     7
 43
1.0
 76
     1
 77
     6
 78
     2
 67
     7
 79
     5
170
     0
171
     0
290
     0
174
     0
 93
        1
 44
0.0
173
     0
291
     1
 45
0.0
1001
ACAD
1000
AcDbSavedByObjectVersion
1070
     0
1000
AcDbSavedByObjectVersion
1070
     0
1000
AcDbSavedByObjectVersion
1070
     0
1000
AcDbSavedByObjectVersion
1070
     0
1000
AcDbSavedByObjectVersion
1070
     0
1000
AcDbSavedByObjectVersion
1070
     0
  0
DICTIONARYVAR
  5
1216
102
{ACAD_REACTORS
330
B87
102
}
330
B87
100
DictionaryVariables
280
     0
  1
1:1
  0
DICTIONARYVAR
  5
1215
102
{ACAD_REACTORS
330
B87
102
}
330
B87
100
DictionaryVariables
280
     0
  1
STANDARD
  0
DICTIONARYVAR
  5
FF4
102
{ACAD_REACTORS
330
B87
102
}
330
B87
100
DictionaryVariables
280
     0
  1
STANDARD
  0
DICTIONARYVAR
  5
B88
102
{ACAD_REACTORS
330
B87
102
}
330
B87
100
DictionaryVariables
280
     0
  1
1
  0
DICTIONARYVAR
  5
FF5
102
{ACAD_REACTORS
330
B87
102
}
330
B87
100
DictionaryVariables
280
     0
  1
1
  0
DICTIONARYVAR
  5
FF6
102
{ACAD_REACTORS
330
B87
102
}
330
B87
100
DictionaryVariables
280
     0
  1

  0
DICTIONARYVAR
  5
1217
102
{ACAD_REACTORS
330
B87
102
}
330
B87
100
DictionaryVariables
280
     0
  1
127
  0
DICTIONARY
  5
F9C
102
{ACAD_REACTORS
330
F90
102
}
330
F90
100
AcDbDictionary
281
     1
  0
XRECORD
  5
FBC
102
{ACAD_REACTORS
330
F90
102
}
330
F90
100
AcDbXrecord
280
     1
 90
-1023410169
  0
DICTIONARY
  5
ED0
102
{ACAD_REACTORS
330
ECF
102
}
330
ECF
100
AcDbDictionary
281
     1
  3
DWGSETTINGS
350
1B02
  3
TRANSSETTINGS
350
1B03
  0
ACAMGFILTERDAT
  5
1003
102
{ACAD_REACTORS
330
FFE
102
}
330
FFE
100
AcAmgFilterDat
 70
    15
  1
DIMENSION,AMDT_*_DIM
  2
*
  3
*
  4
*
  5
*
290
     1
1001
ACAD
1000
AcRTDxfName
1000
ACAMGFILTERDAT
  0
ACAMGFILTERDAT
  5
1002
102
{ACAD_REACTORS
330
FFE
102
}
330
FFE
100
AcAmgFilterDat
 70
    15
  1
*
  2
AM_FEA-AM_*
  3
*
  4
*
  5
*
290
     1
1001
ACAD
1000
AcRTDxfName
1000
ACAMGFILTERDAT
  0
ACAMGFILTERDAT
  5
FFF
102
{ACAD_REACTORS
330
FFE
102
}
330
FFE
100
AcAmgFilterDat
 70
    15
  1
HATCH
  2
*
  3
*
  4
*
  5
*
290
     1
1001
ACAD
1000
AcRTDxfName
1000
ACAMGFILTERDAT
  0
ACAMGFILTERDAT
  5
1000
102
{ACAD_REACTORS
330
FFE
102
}
330
FFE
100
AcAmgFilterDat
 70
    15
  1
LINE
  2
8,8N,*-8,*-8N,AM_8,AM_8N,*-AM_8,*-AM_8N
  3
*
  4
*
  5
INSERT,STDPART2D
290
     1
1001
ACAD
1000
AcRTDxfName
1000
ACAMGFILTERDAT
  0
ACAMGFILTERDAT
  5
1004
102
{ACAD_REACTORS
330
FFE
102
}
330
FFE
100
AcAmgFilterDat
 70
    15
  1
ARC
  2
AM_5
  3
*
  4
2
  5
INSERT
290
     0
1001
ACAD
1000
AcRTDxfName
1000
ACAMGFILTERDAT
  0
ACAMGFILTERDAT
  5
1001
102
{ACAD_REACTORS
330
FFE
102
}
330
FFE
100
AcAmgFilterDat
 70
    15
  1
ACMFCFRAME,ACMDATUMTARGET,ACMDATUMID,ACMWELDSYM,ACMSURFSYM,ACMFEATID,ACMPARTREF,ACMBALLOON,AMDTEDGESYM,AMGSCREWCALCTABLE
  2
*
  3
*
  4
*
  5
*
290
     1
1001
ACAD
1000
AcRTDxfName
1000
ACAMGFILTERDAT
  0
LAYER_INDEX
  5
FE7
102
{ACAD_REACTORS
330
FE6
102
}
330
FE6
100
AcDbIndex
 40
2456703.572936065
100
AcDbLayerIndex
  8
0
360
FE8
 90
        0
  8
OUTLINE
360
FE9
 90
      196
  8
SIZE
360
FEA
 90
        3
  8
BASIS
360
FEB
 90
        1
  8
DETAIL
360
FEC
 90
      190
  8
ARRANGE
360
FED
 90
        3
  8
DEFPOINTS
360
FEE
 90
        0
  8
ETC
360
FEF
 90
        1
  8
FIX
360
FF0
 90
        0
  8
NOTE
360
FF1
 90
        6
  8
SERVICESPACE
360
FF2
 90
        0
  8
SYMBOLLINE
360
FF3
 90
        0
  0
DICTIONARY
  5
1AED
330
B85
100
AcDbDictionary
280
     1
281
     1
  3
ADSK_XREC_LAYOUTTHUMBNAIL
360
1AEE
  0
DICTIONARY
  5
115E
330
115D
100
AcDbDictionary
280
     1
281
     1
  3
ACAD_XREC_ROUNDTRIP
360
1276
  3
BUMPTILE
360
1160
  3
DIFFUSETILE
360
115F
  3
OPACITYTILE
360
1163
  3
REFLECTIONTILE
360
1162
  3
REFRACTIONTILE
360
1164
  3
SPECULARTILE
360
1161
  0
DICTIONARY
  5
1156
330
1155
100
AcDbDictionary
280
     1
281
     1
  3
ACAD_XREC_ROUNDTRIP
360
1275
  3
BUMPTILE
360
1158
  3
DIFFUSETILE
360
1157
  3
OPACITYTILE
360
115B
  3
REFLECTIONTILE
360
115A
  3
REFRACTIONTILE
360
115C
  3
SPECULARTILE
360
1159
  0
DICTIONARY
  5
1166
330
1165
100
AcDbDictionary
280
     1
281
     1
  3
ACAD_XREC_ROUNDTRIP
360
1277
  3
BUMPTILE
360
1168
  3
DIFFUSETILE
360
1167
  3
OPACITYTILE
360
116B
  3
REFLECTIONTILE
360
116A
  3
REFRACTIONTILE
360
116C
  3
SPECULARTILE
360
1169
  0
DICTIONARY
  5
126A
330
ECB
100
AcDbDictionary
280
     1
281
     1
  3
ACAD_ROUNDTRIP_2008_TABLESTYLE_CELLSTYLEMAP
360
1BE2
  3
ACAD_XREC_ROUNDTRIP
360
1BE8
  0
IDBUFFER
  5
FE8
330
0
100
AcDbIdBuffer
  0
IDBUFFER
  5
FE9
330
0
100
AcDbIdBuffer
330
953
330
954
330
955
330
956
330
957
330
958
330
19F1
330
19F2
330
19F3
330
19F4
330
19F5
330
19F6
330
19F7
330
19F8
330
19F9
330
19FA
330
19FB
330
19FC
330
19FD
330
19FE
330
19FF
330
1A00
330
1A01
330
1A02
330
1A03
330
1A04
330
1A05
330
1A06
330
1A07
330
1A08
330
1A09
330
1A0A
330
1A0B
330
1A0C
330
1A0D
330
1A0E
330
1A0F
330
1A10
330
1A11
330
1A12
330
1A13
330
1A14
330
1A15
330
1A16
330
1A17
330
1A18
330
1A19
330
1A1A
330
1A1B
330
1A1C
330
1A1D
330
1A1E
330
1A1F
330
1A20
330
1A21
330
1A22
330
1A23
330
1A24
330
1A25
330
1A26
330
1A27
330
1A28
330
1A29
330
1A2A
330
1A2B
330
1A2C
330
1A2D
330
1A2E
330
1A2F
330
1A30
330
1A31
330
1A32
330
1A33
330
1A34
330
1A35
330
1A36
330
1A37
330
1A38
330
1A39
330
1A3A
330
1A3B
330
1A3C
330
1A3D
330
1A3E
330
1A3F
330
1A40
330
1A41
330
1A42
330
1A43
330
1A44
330
1A45
330
1A46
330
1A47
330
1A48
330
1A49
330
1A4A
330
1A4B
330
1A4C
330
1A4D
330
1A4E
330
1A4F
330
1A50
330
1A51
330
1A52
330
1A53
330
1A54
330
1A55
330
1A56
330
1A57
330
1A58
330
1A59
330
1A5A
330
1A5B
330
1A5C
330
1A5D
330
1A5E
330
1A5F
330
1A60
330
1A61
330
1A62
330
1A63
330
1A64
330
1A65
330
1A66
330
1A67
330
1A68
330
1A69
330
1A6A
330
1A6B
330
1A6C
330
1A6D
330
1A6E
330
1A6F
330
1A70
330
1A71
330
1A72
330
1A73
330
1A74
330
1A75
330
1A76
330
1A77
330
1A78
330
1A79
330
1A7A
330
1A7B
330
1A7C
330
1A7D
330
1A7E
330
1A7F
330
1A80
330
1A81
330
1A82
330
1A83
330
1A84
330
1A85
330
1A86
330
1A87
330
1A88
330
1A89
330
1A8A
330
1A8B
330
1A8C
330
1A8D
330
1A8E
330
1A8F
330
1A90
330
1A91
330
1A92
330
1A93
330
1A94
330
1A95
330
1A96
330
1A97
330
1A98
330
1A99
330
1A9A
330
1A9B
330
1A9C
330
1A9D
330
1A9E
330
1A9F
330
1AA0
330
1AA1
330
1AA2
330
1AA3
330
1AA4
330
1AA5
330
1AA6
330
1AA7
330
1AA8
330
1AA9
330
1AAA
330
1AAB
330
1AAC
330
1AAD
330
1AAE
  0
IDBUFFER
  5
FEA
330
0
100
AcDbIdBuffer
330
1AB3
330
1AB4
330
1ABB
  0
IDBUFFER
  5
FEB
330
0
100
AcDbIdBuffer
330
1AB7
  0
IDBUFFER
  5
FEC
330
0
100
AcDbIdBuffer
330
1933
330
1934
330
1935
330
1936
330
1937
330
1938
330
1939
330
193A
330
193B
330
193C
330
193D
330
193E
330
193F
330
1940
330
1941
330
1942
330
1943
330
1944
330
1945
330
1946
330
1947
330
1948
330
1949
330
194A
330
194B
330
194C
330
194D
330
194E
330
194F
330
1950
330
1951
330
1952
330
1953
330
1954
330
1955
330
1956
330
1957
330
1958
330
1959
330
195A
330
195B
330
195C
330
195D
330
195E
330
195F
330
1960
330
1961
330
1962
330
1963
330
1964
330
1965
330
1966
330
1967
330
1968
330
1969
330
196A
330
196B
330
196C
330
196D
330
196E
330
196F
330
1970
330
1971
330
1972
330
1973
330
1974
330
1975
330
1976
330
1977
330
1978
330
1979
330
197A
330
197B
330
197C
330
197D
330
197E
330
197F
330
1980
330
1981
330
1982
330
1983
330
1984
330
1985
330
1986
330
1987
330
1988
330
1989
330
198A
330
198B
330
198C
330
198D
330
198E
330
198F
330
1990
330
1991
330
1992
330
1993
330
1994
330
1995
330
1996
330
1997
330
1998
330
1999
330
199A
330
199B
330
199C
330
199D
330
199E
330
199F
330
19A0
330
19A1
330
19A2
330
19A3
330
19A4
330
19A5
330
19A6
330
19A7
330
19A8
330
19A9
330
19AA
330
19AB
330
19AC
330
19AD
330
19AE
330
19AF
330
19B0
330
19B1
330
19B2
330
19B3
330
19B4
330
19B5
330
19B6
330
19B7
330
19B8
330
19B9
330
19BA
330
19BB
330
19BC
330
19BD
330
19BE
330
19BF
330
19C0
330
19C1
330
19C2
330
19C3
330
19C4
330
19C5
330
19C6
330
19C7
330
19C8
330
19C9
330
19CA
330
19CB
330
19CC
330
19CD
330
19CE
330
19CF
330
19D0
330
19D1
330
19D2
330
19D3
330
19D4
330
19D5
330
19D6
330
19D7
330
19D8
330
19D9
330
19DA
330
19DB
330
19DC
330
19DD
330
19DE
330
19DF
330
19E0
330
19E1
330
19E2
330
19E3
330
19E4
330
19E5
330
19E6
330
19E7
330
19E8
330
19E9
330
19EA
330
19EB
330
19EC
330
19ED
330
19EE
330
19EF
330
19F0
  0
IDBUFFER
  5
FED
330
0
100
AcDbIdBuffer
330
1AB8
330
1AB9
330
1ABA
  0
IDBUFFER
  5
FEE
330
0
100
AcDbIdBuffer
  0
IDBUFFER
  5
FEF
330
0
100
AcDbIdBuffer
330
1ABC
  0
IDBUFFER
  5
FF0
330
0
100
AcDbIdBuffer
  0
IDBUFFER
  5
FF1
330
0
100
AcDbIdBuffer
330
1AAF
330
1AB0
330
1AB1
330
1AB2
330
1AB5
330
1AB6
  0
IDBUFFER
  5
FF2
330
0
100
AcDbIdBuffer
  0
IDBUFFER
  5
FF3
330
0
100
AcDbIdBuffer
  0
XRECORD
  5
1AEE
102
{ACAD_REACTORS
330
1AED
102
}
330
1AED
100
AcDbXrecord
280
     1
310
2800000000010000BF000000010008000000000000BF0000000000000000000000010000000000000000000000000000FFFFFF000000000000000000000000000000000000000000000000000000000000000000330000006600000099000000CC000000FF00000000330000333300006633000099330000CC330000FF3300
310
0000660000336600006666000099660000CC660000FF66000000990000339900006699000099990000CC990000FF99000000CC000033CC000066CC000099CC0000CCCC0000FFCC000000FF000033FF000066FF000099FF0000CCFF0000FFFF000000003300330033006600330099003300CC003300FF003300003333003333
310
33006633330099333300CC333300FF33330000663300336633006666330099663300CC663300FF66330000993300339933006699330099993300CC993300FF99330000CC330033CC330066CC330099CC3300CCCC3300FFCC330000FF330033FF330066FF330099FF3300CCFF3300FFFF330000006600330066006600660099
310
006600CC006600FF00660000336600333366006633660099336600CC336600FF33660000666600336666006666660099666600CC666600FF66660000996600339966006699660099996600CC996600FF99660000CC660033CC660066CC660099CC6600CCCC6600FFCC660000FF660033FF660066FF660099FF6600CCFF6600
310
FFFF660000009900330099006600990099009900CC009900FF00990000339900333399006633990099339900CC339900FF33990000669900336699006666990099669900CC669900FF66990000999900339999006699990099999900CC999900FF99990000CC990033CC990066CC990099CC9900CCCC9900FFCC990000FF99
310
0033FF990066FF990099FF9900CCFF9900FFFF99000000CC003300CC006600CC009900CC00CC00CC00FF00CC000033CC003333CC006633CC009933CC00CC33CC00FF33CC000066CC003366CC006666CC009966CC00CC66CC00FF66CC000099CC003399CC006699CC009999CC00CC99CC00FF99CC0000CCCC0033CCCC0066CC
310
CC0099CCCC00CCCCCC00FFCCCC0000FFCC0033FFCC0066FFCC0099FFCC00CCFFCC00FFFFCC000000FF003300FF006600FF009900FF00CC00FF00FF00FF000033FF003333FF006633FF009933FF00CC33FF00FF33FF000066FF003366FF006666FF009966FF00CC66FF00FF66FF000099FF003399FF006699FF009999FF00CC
310
99FF00FF99FF0000CCFF0033CCFF0066CCFF0099CCFF00CCCCFF00FFCCFF0000FFFF0033FFFF0066FFFF0099FFFF00CCFFFF00FFFFFF00000000000D0D0D001A1A1A00282828003535350043434300505050005D5D5D006B6B6B00787878008686860093939300A1A1A100AEAEAE00BBBBBB00C9C9C900D6D6D600E4E4E400
310
F1F1F100FFFFFF0000000000000000000000000000000000000000000000000000000000000000000000000000000000E2E2E2E2E2E2E2E2E2E2E2E2E2E2E2E2E2E2E2E2E2E2E2E2E2E2E2E2E2E2E2E2E2E2E2E2E2E2E2E2E2E2E2E2E2E2E2E2E2E2E2E2E2E2E2E2E2E2E2E2E2E2E2E2E2E2E2E2E2E2E2E2E2E2E2E2E2E2E2
310
E2E2E2E2E2E2E2E2E2E2E2E2E2E2E2E2E2E2E2E2E2E2E2E2E2E2E2E2E2E2E2E2E2E2E2E2E2E2E2E2E2E2E2E2E2E2E2E2E2E2E2E2E2E2E2E2E2E2E2E2E2E2E2E2E2E2E2E2E2E2E2E2E2E2E2E2E2E2E2E2E2E2E2E2E2E2E2E2E2E2E2E2E2E2E2E2E2E2E2E2E2E2E2E2E2E2E2E2E2E2E2E2E2E2E2E2E2E2E2E2E2E2E2E2E2E2E2
310
E2E2E2E2E2E2E2E2E2E2E2E2E2E2E2E2E2E2E2E2E2E2E2E2E2E2E2E2E2E2E2E2E2E2E2E2E2E2E2E2E2E2E2E2E2E2E2E2E2E2E2E2E2E2E2E2E2E2E2E2E2E2E2E2E2E2E2E2E2E2E2E2E2E2E2E2E2E2E2E2E2E2E2E2E2E2E2E2E2E2E2E2E2E2E2E2E2E2E2E2E2E2E2E2E2E2E2E2E2E2E2E2E2E2E2E2E2E2E2E2E2E2E2E2E2E2E2
310
E2E2E2E2E2E2E2E2E2E2E2E2E2E2E2E2E2E2E2E2E2E2E2E2E2E2E2E2E2E2E2E2E2E2E2E2E2E2E2E2E2E2E2E2E2E2E2E2E2E2E2E2E2E2E2E2E2E2E2E2E2E2E2E2E2E2E2E2E2E2E2E2E2E2E2E2E2E2E2E2E2E2E2E2E2E2E2E2E2E2E2E2E2E2E2E2E2E2E2E2E2E2E2E2E2E2E2E2E2E2E2E2E2E2E2E2E2E2E2E2E2E2E2E2E2E2E2
310
E2E2E2E2E2E2E2E2E2E2E2E2E2E2E2E2E2E2E2E2E2E2E2E2E2E2E2E2E2E2E2E2E2E2E2E2E2E2E2E2E2E2E2E2E2E2E2E2E2E2E2E2E2E2E2E2E2E2E2E2E2E2E2E2E2E2E2E2E2E2E2E2E2E2E2E2E2E2E2E2E2E2E2E2E2E2E2E2E2E2E2E2E2E2E2E2E2E2E2E2E2E2E2E2E2E2E2E2E2E2E2E2E2E2E2E2E2E2E2E2E2E2E2E2E2E2E2
310
E2E2E2E2E2E2E2E2E2E2E2E2E2E2E2E2E2E2E2E2E2E2E2E2E2E2E2E2E2E2E2E2E2E2E2E2E2E2E2E2E2E2E2E2E2E2E2E2E2E2E2E2E2E2E2E2E2E2E2E2E2E2E2E2E2E2E2E2E2E2E2E2E2E2E2E2E2E2E2E2E2E2E2E2E2E2E2E2E2E2E2E2E2E2E2E2E2E2E2E2E2E2E2E2E2E2E2E2E2E2E2E2E2E2E2E2E2E2E2E2E2E2E2E2E2E2E2
310
E2E2E2E2E2E2E2E2E2E2E2E2E2E2E2E2E2E2E2E2E2E2E2E2E2E2E2E2E2E2E2E2E2E2E2E2E2E2E2E2E2E2E2E2E2E2E2E2E2E2E2E2E2E2E2E2E2E2E2E2E2E2E2E2E2E2E2E2E2E2E2E2E2E2E2E2E2E2E2E2E2E2E2E2E2E2E2E2E2E2E2E2E2E2E2E2E2E2E2E2E2E2E2E2E2E2E2E2E2E2E2E2E2E2E2E2E2E2E2E2E2E2E2E2E2E2E2
310
E2E2E2E2E2E2E2E2E2E2E2E2E2E2E2E2E2E2E2E2E2E2E2E2E2E2E2E2E2E2E2E2E2E2E2E2E2E2E2E2E2E2E2E2E2E2E2E2E2E2E2E2E2E2E2E2E2E2E2E2E2E2E2E2E2E2E2E2E2E2E2E2E2E2E2E2E2E2E2E2E2E2E2E2E2E2E2E2E2E2E2E2E2E2E2E2E2E2E2E2E2E2E2E2E2E2E2E2E2E2E2E2E2E2E2E2E2E2E2E2E2E2E2E2E2E2E2
310
E2E2E2E2E2E2E2E2E2E2E2E2E2E2E2E2E2E2E2E2E2E2E2E2E2E2E2E2E2E2E2E2E2E2E2E2E2E2E2E2E2E2E2E2E2E2E2E2E2E2E2E2E2E2E2E2E2E2E2E2E2E2E2E2E2E2E2E2E2E2E2E2E2E2E2E2E2E2E2E2E2E2E2E2E2E2E2E2E2E2E2E2E2E2E2E2E2E2E2E2E2E2E2E2E2E2E2E2E2E2E2E2E2E2E2E2E2E2E2E2E2E2E2E2E2E2E2
310
E2E2E2E2E2E2E2E2E2E2E2E2E2E2E2E2E2E2E2E2E2E2E2E2E2E2E2E2E2E2E2E2E2E2E2E2E2E2E2E2E2E2E2E2E2E2E2E2E2E2E2E2E2E2E2E2E2E2E2E2E2E2E2E2E2E2E2E2E2E2E2E2E2E2E2E2E2E2E2E2E2E2E2E2E2E2E2E2E2E2E2E2E2E2E2E2E2E2E2E2E2E2E2E2E2E2E2E2E2E2E2E2E2E2E2E2E2E2E2E2E2E2E2E2E2E2E2
310
E2E2E2E2E2E2E2E2E2E2E2E2E2E2E2E2E2E2E2E2E2E2E2E2E2E2E2E2E2E2E2E2E2E2E2E2E2E2E2E2E2E2E2E2E2E2E2E2E2E2E2E2E2E2E2E2E2E2E2E2E2E2E2E2E2E2E2E2E2E2E2E2E2E2E2E2E2E2E2E2E2E2E2E2E2E2E2E2E2E2E2E2E2E2E2E2E2E2E2E2E2E2E2E2E2E2E2E2E2E2E2E2E2E2E2E2E2E2E2E2E2E2E2E2E2E2E2
310
E2E2E2E2E2E2E2E2E2E2E2E2E2E2E2E2E2E2E2E2E2E2E2E2E2E2E2E2E2E2E2E2E2E2E2E2E2E2E2E2E2E2E2E2E2E2E2E2E2E2E2E2E2E2E2E2E2E2E2E2E2E2E2E2E2E2E2E2E2E2E2E2E2E2E2E2E2E2E2E2E2E2E2E2E2E2E2E2E2E2E2E2E2E2E2E2E2E2E2E2E2E2E2E2E2E2E2E2E2E2E2E2E2E2E2E2E2E2E2E2E2E2E2E2E2E2E2
310
E2E2E2E2E2E2E2E2E2E2E2E2E2E2E2E2E2E2E2E2E2E2E2E2E2E2E2E2E2E2E2E2E2E2E2E2E2E2E2E2E2E2E2E2E2E2E2E2E2E2E2E2E2E2E2E2E2E2E2E2E2E2E2E2E2E2E2E2E2E2E2E2E2E2E2E2E2E2E2E2E2E2E2E2E2E2E2E2E2E2E2E2E2E2E2E2E2E2E2E2E2E2E2E2E2E2E2E2E2E2E2E2E2E2E2E2E2E2E2E2E2E2E2E2E2E2E2
310
E2E2E2E2E2E2E2E2E2E2E2E2E2E2E2E2E2E2E2E2E2E2E2E2E2E2E2E2E2E2E2E2E2E2E2E2E2E2E2E2E2E2E2E2E2E2E2E2E2E2E2E2E2E2E2E2E2E2E2E2E2E2E2E2E2E2E2E2E2E2E2E2E2E2E2E2E2E2E2E2E2E2E2E2E2E2E2E2E2E2E2E2E2E2E2E2E2E2E2E2E2E2E2E2E2E2E2E2E2E2E2E2E2E2E2E2E2E2E2E2E2E2E2E2E2E2E2
310
E2E2E2E2E2E2E2E2E2E2E2E2E2E2E2E2E2E2E2E2E2E2E2E2E2E2E2E2E2E2E2E2E2E2E2E2E2E2E2E2E2E2E2E2E2E2E2E2E2E2E2E2E2E2E2E2E2E2E2E2E2E2E2E2E2E2E2E2E2E2E2E2E2E2E2E2E2E2E2E2E2E2E2E2E2E2E2E2E2E2E2E2E2E2E2E2E2E2E2E2E2E2E2E2E2E2E2E2E2E2E2E2E2E2E2E2E2E2E2E2E2E2E2E2E2E2E2
310
E2E2E2E2E2E2E2E2E2E2E2E2E2E2E2E2E2E2E2E2E2E2E2E2E2E2E2E2E2E2E2E2E2E2E2E2E2E2E2E2E2E2E2E2E2E2E2E2E2E2E2E2E2E2E2E2E2E2E2E2E2E2E2E2E2E2E2E2E2E2E2E2E2E2E2E2E2E2E2E2E2E2E2E2E2E2E2E2E2E2E2E2E2E2E2E2E2E2E2E2E2E2E2E2E2E2E2E2E2E2E2E2E2E2E2E2E2E2E2E2E2E2E2E2E2E2E2
310
E2E2E2E2E2E2E2E2E2E2E2E2E2E2E2E2E2E2E2E2E2E2E2E2E2E2E2E2E2E2E2E2E2E2E2E2E2E2E2E2E2E2E2E2E2E2E2E2E2E2E2E2E2E2E2E2E2E2E2E2E2E2E2E2E2E2E2E2E2E2E2E2E2E2E2E2E2E2E2E2E2E2E2E2E2E2E2E2E2E2E2E2E2E2E2E2E2E2E2E2E2E2E2E2E2E2E2E2E2E2E2E2E2E2E2E2E2E2E2E2E2E2E2E2E2E2E2
310
E2E2E2E2E2E2E2E2E2E2E2E2E2E2E2E2E2E2E2E2E2E2E2E2E2E2E2E2E2E2E2E2E2E2E2E2E2E2E2E2E2E2E2E2E2E2E2E2E2E2E2E2E2E2E2E2E2E2E2E2E2E2E2E2E2E2E2E2E2E2E2E2E2E2E2E2E2E2E2E2E2E2E2E2E2E2E2E2E2E2E2E2E2E2E2E2E2E2E2E2E2E2E2E2E2E2E2E2E2E2E2E2E2E2E2E2E2E2E2E2E2E2E2E2E2E2E2
310
E2E2E2E2E2E2E2E2E2E2E2E2E2E2E2E2E2E2E2E2E2E2E2E2E2E2E2E2E2E2E2E2E2E2E2E2E2E2E2E2E2E2E2E2E2E2E2E2E2E2E2E2E2E2E2E2E2E2E2E2E2E2E2E2E2E2E2E2E2E2E2E2E2E2E2E2E2E2E2E2E2E2E2E2E2E2E2E2E2E2E2E2E2E2E2E2E2E2E2E2E2E2E2E2E2E2E2E2E2E2E2E2E2E2E2E2E2E2E2E2E2E2E2E2E2E2E2
310
E2E2E2E2E2E2E2E2E2E2E2E2E2E2E2E2E2E2E2E2E2E2E2E2E2E2E2E2E2E2E2E2E2E2E2E2E2E2E2E2E2E2E2E2E2E2E2E2E2E2E2E2E2E2E2E2E2E2E2E2E2E2E2E2E2E2E2E2E2E2E2E2E2E2E2E2E2E2E2E2E2E2E2E2E2E2E2E2E2E2E2E2E2E2E2E2E2E2E2E2E2E2E2E2E2E2E2E2E2E2E2E2E2E2E2E2E2E2E2E2E2E2E2E2E2E2E2
310
E2E2E2E2E2E2E2E2E2E2E2E2E2E2E2E2E2E2E2E2E2E2E2E2E2E2E2E2E2E2E2E2E2E2E2E2E2E2E2E2E2E2E2E2E2E2E2E2E2E2E2E2E2E2E2E2E2E2E2E2E2E2E2E2E2E2E2E2E2E2E2E2E2E2E2E2E2E2E2E2E2E2E2E2E2E2E2E2E2E2E2E2E2E2E2E2E2E2E2E2E2E2E2E2E2E2E2E2E2E2E2E2E2E2E2E2E2E2E2E2E2E2E2E2E2E2E2
310
E2E2E2E2E2E2E2E2E2E2E2E2E2E2E2E2E2E2E2E2E2E2E2E2E2E2E2E2E2E2E2E2E2E2E2E2E2E2E2E2E2E2E2E2E2E2E2E2E2E2E2E2E2E2E2E2E2E2E2E2E2E2E2E2E2E2E2E2E2E2E2E2E2E2E2E2E2E2E2E2E2E2E2E2E2E2E2E2E2E2E2E2E2E2E2E2E2E2E2E2E2E2E2E2E2E2E2E2E2E2E2E2E2E2E2E2E2E2E2E2E2E2E2E2E2E2E2
310
E2E2E2E2E2E2E2E2E2E2E2E2E2E2E2E2E2E2E2E2E2E2E2E2E2E2E2E2E2E2E2E2E2E2E2E2E2E2E2E2E2E2E2E2E2E2E2E2E2E2E2E2E2E2E2E2E2E2E2E2E2E2E2E2E2E2E2E2E2E2E2E2E2E2E2E2E2E2E2E2E2E2E2E2E2E2E2E2E2E2E2E2E2E2E2E2E2E2E2E2E2E2E2E2E2E2E2E2E2E2E2E2E2E2E2E2E2E2E2E2E2E2E2E2E2E2E2
310
E2E2E2E2E2E2E2E2E2E2E2E2E2E2E2E2E2E2E2E2E2E2E2E2E2E2E2E2E2E2E2E2E2E2E2E2E2E2E2E2E2E2E2E2E2E2E2E2E2E2E2E2E2E2E2E2E2E2E2E2E2E2E2E2E2E2E2E2E2E2E2E2E2E2E2E2E2E2E2E2E2E2E2E2E2E2E2E2E2E2E2E2E2E2E2E2E2E2E2E2E2E2E2E2E2E2E2E2E2E2E2E2E2E2E2E2E2E2E2E2E2E2E2E2E2E2E2
310
E2E2E2E2E2E2E2E2E2E2E2E2E2E2E2E2E2E2E2E2E2E2E2E2E2E2E2E2E2E2E2E2E2E2E2E2E2E2E2E2E2E2E2E2E2E2E2E2E2E2E2E2E2E2E2E2E2E2E2E2E2E2E2E2E2E2E2E2E2E2E2E2E2E2E2E2E2E2E2E2E2E2E2E2E2E2E2E2E2E2E2E2E2E2E2E2E2E2E2E2E2E2E2E2E2E2E2E2E2E2E2E2E2E2E2E2E2E2E2E2E2E2E2E2E2E2E2
310
E2E2E2E2E2E2E2E2E2E2E2E2E2E2E2E2E2E2E2E2E2E2E2E2E2E2E2E2E2E2E2E2E2E2E2E2E2E2E2E2E2E2E2E2E2E2E2E2E2E2E2E2E2E2E2E2E2E2E2E2E2E2E2E2E2E2E2E2E2E2E2E2E2E2E2E2E2E2E2E2E2E2E2E2E2E2E2E2E2E2E2E2E2E2E2E2E2E2E2E2E2E2E2E2E2E2E2E2E2E2E2E2E2E2E2E2E2E2E2E2E2E2E2E2E2E2E2
310
E2E2E2E2E2E2E2E2E2E2E2E2E2E2E2E2E2E2E2E2E2E2E2E2E2E2E2E2E2E2E2E2E2E2E2E2E2E2E2E2E2E2E2E2E2E2E2E2E2E2E2E2E2E2E2E2E2E2E2E2E2E2E2E2E2E2E2E2E2E2E2E2E2E2E2E2E2E2E2E2E2E2E2E2E2E2E2E2E2E2E2E2E2E2E2E2E2E2E2E2E2E2E2E2E2E2E2E2E2E2E2E2E2E2E2E2E2E2E2E2E2E2E2E2E2E2E2
310
E2E2E2E2E2E2E2E2E2E2E2E2E2E2E2E2E2E2E2E2E2E2E2E2E2E2E2E2E2E2E2E2E2E2E2E2E2E2E2E2E2E2E2E2E2E2E2E2E2E2E2E2E2E2E2E2E2E2E2E2E2E2E2E2E2E2E2E2E2E2E2E2E2E2E2E2E2E2E2E2E2E2E2E2E2E2E2E2E2E2E2E2E2E2E2E2E2E2E2E2E2E2E2E2E2E2E2E2E2E2E2E2E2E2E2E2E2E2E2E2E2E2E2E2E2E2E2
310
E2E2E2E2E2E2E2E2E2E2E2E2E2E2E2E2E2E2E2E2E2E2E2E2E2E2E2E2E2E2E2E2E2E2E2E2E2E2E2E2E2E2E2E2E2E2E2E2E2E2E2E2E2E2E2E2E2E2E2E2E2E2E2E2E2E2E2E2E2E2E2E2E2E2E2E2E2E2E2E2E2E2E2E2E2E2E2E2E2E2E2E2E2E2E2E2E2E2E2E2E2E2E2E2E2E2E2E2E2E2E2E2E2E2E2E2E2E2E2E2E2E2E2E2E2E2E2
310
E2E2E2E2E2E2E2E2E2E2E2E2E2E2E2E2E2E2E2E2E2E2E2E2E2E2E2E2E2E2E2E2E2E2E2E2E2E2E2E2E2E2E2E2E2E2E2E2E2E2E2E2E2E2E2E2E2E2E2E2E2E2E2E2E2E2E2E2E2E2E2E2E2E2E2E2E2E2E2E2E2E2E2E2E2E2E2E2E2E2E2E2E2E2E2E2E2E2E2E2E2E2E2E2E2E2E2E2E2E2E2E2E2E2E2E2E2E2E2E2E2E2E2E2E2E2E2
310
E2E2E2E2E2E2E2E2E2E2E2E2E2E2E2E2E2E2E2E2E2E2E2E2E2E2E2E2E2E2E2E2E2E2E2E2E2E2E2E2E2E2E2E2E2E2E2E2E2E2E2E2E2E2E2E2E2E2E2E2E2E2E2E2E2E2E2E2E2E2E2E2E2E2E2E2E2E2E2E2E2E2E2E2E2E2E2E2E2E2E2E2E2E2E2E2E2E2E2E2E2E2E2E2E2E2E2E2E2E2E2E2E2E2E2E2E2E2E2E2E2E2E2E2E2E2E2
310
E2E2E2E2E2E2E2E2E2E2E2E2E2E2E2E2E2E2E2E2E2E2E2E2E2E2E2E2E2E2E2E2E2E2E2E2E2E2E2E2E2E2E2E2E2E2E2E2E2E2E2E2E2E2E2E2E2E2E2E2E2E2E2E2E2E2E2E2E2E2E2E2E2E2E2E2E2E2E2E2E2E2E2E2E2E2E2E2E2E2E2E2E2E2E2E2E2E2E2E2E2E2E2E2E2E2E2E2E2E2E2E2E2E2E2E2E2E2E2E2E2E2E2E2E2E2E2
310
E2E2E2E2E2E2E2E2E2E2E2E2E2E2E2E2E2E2E2E2E2E2E2E2E2E2E2E2E2E2E2E2E2E2E2E2E2E2E2E2E2E2E2E2E2E2E2E2E2E2E2E2E2E2E2E2E2E2E2E2E2E2E2E2E2E2E2E2E2E2E2E2E2E2E2E2E2E2E2E2E2E2E2E2E2E2E2E2E2E2E2E2E2E2E2E2E2E2E2E2E2E2E2E2E2E2E2E2E2E2E2E2E2E2E2E2E2E2E2E2E2E2E2E2E2E2E2
310
E2E2E2E2E2E2E2E2E2E2E2E2E2E2E2E2E2E2E2E2E2E2E2E2E2E2E2E2E2E2E2E2E2E2E2E2E2E2E2E2E2E2E2E2E2E2E2E2E2E2E2E2E2E2E2E2E2E2E2E2E2E2E2E2E2E2E2E2E2E2E2E2E2E2E2E2E2E2E2E2E2E2E2E2E2E2E2E2E2E2E2E2E2E2E2E2E2E2E2E2E2E2E2E2E2E2E2E2E2E2E2E2E2E2E2E2E2E2E2E2E2E2E2E2E2E2E2
310
E2E2E2E2E2E2E2E2E2E2E2E2E2E2E2E2E2E2E2E2E2E2E2E2E2E2E2E2E2E2E2E2E2E2E2E2E2E2E2E2E2E2E2E2E2E2E2E2E2E2E2E2E2E2E2E2E2E2E2E2E2E2E2E2E2E2E2E2E2E2E2E2E2E2E2E2E2E2E2E2E2E2E2E2E2E2E2E2E2E2E2E2E2E2E2E2E2E2E2E2E2E2E2E2E2E2E2E2E2E2E2E2E2E2E2E2E2E2E2E2E2E2E2E2E2E2E2
310
E2E2E2E2E2E2E2E2E2E2E2E2E2E2E2E2E2E2E2E2E2E2E2E2E2E2E2E2E2E2E2E2E2E2E2E2E2E2E2E2E2E2E2E2E2E2E2E2E2E2E2E2E2E2E2E2E2E2E2E2E2E2E2E2E2E2E2E2E2E2E2E2E2E2E2E2E2E2E2E2E2E2E2E2E2E2E2E2E2E2E2E2E2E2E2E2E2E2E2E2E2E2E2E2E2E2E2E2E2E2E2E2E2E2E2E2E2E2E2E2E2E2E2E2E2E2E2
310
E2E2E2E2E2E2E2E2E2E2E2E2E2E2E2E2E2E2E2E2E2E2E2E2E2E2E2E2E2E2E2E2E2E2E2E2E2E2E2E2E2E2E2E2E2E2E2E2E2E2E2E2E2E2E2E2E2E2E2E2E2E2E2E2E2E2E2E2E2E2E2E2E2E2E2E2E2E2E2E2E2E2E2E2E2E2E2E2E2E2E2E2E2E2E2E2E2E2E2E2E2E2E2E2E2E2E2E2E2E2E2E2E2E2E2E2E2E2E2E2E2E2E2E2E2E2E2
310
E2E2E2E2E2E2E2E2E2E2E2E2E2E2E2E2E2E2E2E2E2E2E2E2E2E2E2E2E2E2E2E2E2E2E2E2E2E2E2E2E2E2E2E2E2E2E2E2E2E2E2E2E2E2E2E2E2E2E2E2E2E2E2E2E2E2E2E2E2E2E2E2E2E2E2E2E2E2E2E2E2E2E2E2E2E2E2E2E2E2E2E2E2E2E2E2E2E2E2E2E2E2E2E2E2E2E2E2E2E2E2E2E2E2E2E2E2E2E2E2E2E2E2E2E2E2E2
310
E2E2E2E2E2E2E2E2E2E2E2E2E2E2E2E2E2E2E2E2E2E2E2E2E2E2E2E2E2E2E2E2E2E2E2E2E2E2E2E2E2E2E2E2E2E2E2E2E2E2E2E2E2E2E2E2E2E2E2E2E2E2E2E2E2E2E2E2E2E2E2E2E2E2E2E2E2E2E2E2E2E2E2E2E2E2E2E2E2E2E2E2E2E2E2E2E2E2E2E2E2E2E2E2E2E2E2E2E2E2E2E2E2E2E2E2E2E2E2E2E2E2E2E2E2E2E2
310
E2E2E2E2E2E2E2E2E2E2E2E2E2E2E2E2E2E2E2E2E2E2E2E2E2E2E2E2E2E2E2E2E2E2E2E2E2E2E2E2E2E2E2E2E2E2E2E2E2E2E2E2E2E2E2E2E2E2E2E2E2E2E2E2E2E2E2E2E2E2E2E2E2E2E2E2E2E2E2E2E2E2E2E2E2E2E2E2E2E2E2E2E2E2E2E2E2E2E2E2E2E2E2E2E2E2E2E2E2E2E2E2E2E2E2E2E2E2E2E2E2E2E2E2E2E2E2
310
E2E2E2E2E2E2E2E2E2E2E2E2E2E2E2E2E2E2E2E2E2E2E2E2E2E2E2E2E2E2E2E2E2E2E2E2E2E2E2E2E2E2E2E2E2E2E2E2E2E2E2E2E2E2E2E2E2E2E2E2E2E2E2E2E2E2E2E2E2E2E2E2E2E2E2E2E2E2E2E2E2E2E2E2E2E2E2E2E2E2E2E2E2E2E2E2E2E2E2E2E2E2E2E2E2E2E2E2E2E2E2E2E2E2E2E2E2E2E2E2E2E2E2E2E2E2E2
310
E2E2E2E2E2E2E2E2E2E2E2E2E2E2E2E2E2E2E2E2E2E2E2E2E2E2E2E2E2E2E2E2E2E2E2E2E2E2E2E2E2E2E2E2E2E2E2E2E2E2E2E2E2E2E2E2E2E2E2E2E2E2E2E2E2E2E2E2E2E2E2E2E2E2E2E2E2E2E2E2E2E2E2E2E2E2E2E2E2E2E2E2E2E2E2E2E2E2E2E2E2E2E2E2E2E2E2E2E2E2E2E2E2E2E2E2E2E2E2E2E2E2E2E2E2E2E2
310
E2E2E2E2E2E2E2E2E2E2E2E2E2E2E2E2E2E2E2E2E2E2E2E2E2E2E2E2E2E2E2E2E2E2E2E2E2E2E2E2E2E2E2E2E2E2E2E2E2E2E2E2E2E2E2E2E2E2E2E2E2E2E2E2E2E2E2E2E2E2E2E2E2E2E2E2E2E2E2E2E2E2E2E2E2E2E2E2E2E2E2E2E2E2E2E2E2E2E2E2E2E2E2E2E2E2E2E2E2E2E2E2E2E2E2E2E2E2E2E2E2E2E2E2E2E2E2
310
E2E2E2E2E2E2E2E2E2E2E2E2E2E2E2E2E2E2E2E2E2E2E2E2E2E2E2E2E2E2E2E2E2E2E2E2E2E2E2E2E2E2E2E2E2E2E2E2E2E2E2E2E2E2E2E2E2E2E2E2E2E2E2E2E2E2E2E2E2E2E2E2E2E2E2E2E2E2E2E2E2E2E2E2E2E2E2E2E2E2E2E2E2E2E2E2E2E2E2E2E2E2E2E2E2E2E2E2E2E2E2E2E2E2E2E2E2E2E2E2E2E2E2E2E2E2E2
310
E2E2E2E2E2E2E2E2E2E2E2E2E2E2E2E2E2E2E2E2E2E2E2E2E2E2E2E2E2E2E2E2E2E2E2E2E2E2E2E2E2E2E2E2E2E2E2E2E2E2E2E2E2E2E2E2E2E2E2E2E2E2E2E2E2E2E2E2E2E2E2E2E2E2E2E2E2E2E2E2E2E2E2E2E2E2E2E2E2E2E2E2E2E2E2E2E2E2E2E2E2E2E2E2E2E2E2E2E2E2E2E2E2E2E2E2E2E2E2E2E2E2E2E2E2E2E2
310
E2E2E2E2E2E2E2E2E2E2E2E2E2E2E2E2E2E2E2E2E2E2E2E2E2E2E2E2E2E2E2E2E2E2E2E2E2E2E2E2E2E2E2E2E2E2E2E2E2E2E2E2E2E2E2E2E2E2E2E2E2E2E2E2E2E2E2E2E2E2E2E2E2E2E2E2E2E2E2E2E2E2E2E2E2E2E2E2E2E2E2E2E2E2E2E2E2E2E2E2E2E2E2E2E2E2E2E2E2E2E2E2E2E2E2E2E2E2E2E2E2E2E2E2E2E2E2
310
E2E2E2E2E2E2E2E2E2E2E2E2E2E2E2E2E2E2E2E2E2E2E2E2E2E2E2E2E2E2E2E2E2E2E2E2E2E2E2E2E2E2E2E2E2E2E2E2E2E2E2E2E2E2E2E2E2E2E2E2E2E2E2E2E2E2E2E2E2E2E2E2E2E2E2E2E2E2E2E2E2E2E2E2E2E2E2E2E2E2E2E2E2E2E2E2E2E2E2E2E2E2E2E2E2E2E2E2E2E2E2E2E2E2E2E2E2E2E2E2E2E2E2E2E2E2E2
310
E2E2E2E2E2E2E2E2E2E2E2E2E2E2E2E2E2E2E2E2E2E2E2E2E2E2E2E2E2E2E2E2E2E2E2E2E2E2E2E2E2E2E2E2E2E2E2E2E2E2E2E2E2E2E2E2E2E2E2E2E2E2E2E2E2E2E2E2E2E2E2E2E2E2E2E2E2E2E2E2E2E2E2E2E2E2E2E2E2E2E2E2E2E2E2E2E2E2E2E2E2E2E2E2E2E2E2E2E2E2E2E2E2E2E2E2E2E2E2E2E2E2E2E2E2E2E2
310
E2E2E2E2E2E2E2E2E2E2E2E2E2E2E2E2E2E2E2E2E2E2E2E2E2E2E2E2E2E2E2E2E2E2E2E2E2E2E2E2E2E2E2E2E2E2E2E2E2E2E2E2E2E2E2E2E2E2E2E2E2E2E2E2E2E2E2E2E2E2E2E2E2E2E2E2E2E2E2E2E2E2E2E2E2E2E2E2E2E2E2E2E2E2E2E2E2E2E2E2E2E2E2E2E2E2E2E2E2E2E2E2E2E2E2E2E2E2E2E2E2E2E2E2E2E2E2
310
E2E2E2E2E2E2E2E2E2E2E2E2E2E2E2E2E2E2E2E2E2E2E2E2E2E2E2E2E2E2E2E2E2E2E2E2E2E2E2E2E2E2E2E2E2E2E2E2E2E2E2E2E2E2E2E2E2E2E2E2E2E2E2E2E2E2E2E2E2E2E2E2E2E2E2E2E2E2E2E2E2E2E2E2E2E2E2E2E2E2E2E2E2E2E2E2E2E2E2E2E2E2E2E2E2E2E2E2E2E2E2E2E2E2E2E2E2E2E2E2E2E2E2E2E2E2E2
310
E2E2E2E2E2E2E2E2E2E2E2E2E2E2E2E2E2E2E2E2E2E2E2E2E2E2E2E2E2E2E2E2E2E2E2E2E2E2E2E2E2E2E2E2E2E2E2E2E2E2E2E2E2E2E2E2E2E2E2E2E2E2E2E2E2E2E2E2E2E2E2E2E2E2E2E2E2E2E2E2E2E2E2E2E2E2E2E2E2E2E2E2E2E2E2E2E2E2E2E2E2E2E2E2E2E2E2E2E2E2E2E2E2E2E2E2E2E2E2E2E2E2E2E2E2E2E2
310
E2E2E2E2E2E2E2E2E2E2E2E2E2E2E2E2E2E2E2E2E2E2E2E2E2E2E2E2E2E2E2E2E2E2E2E2E2E2E2E2E2E2E2E2E2E2E2E2E2E2E2E2E2E2E2E2E2E2E2E2E2E2E2E2E2E2E2E2E2E2E2E2E2E2E2E2E2E2E2E2E2E2E2E2E2E2E2E2E2E2E2E2E2E2E2E2E2E2E2E2E2E2E2E2E2E2E2E2E2E2E2E2E2E2E2E2E2E2E2E2E2E2E2E2E2E2E2
310
E2E2E2E2E2E2E2E2E2E2E2E2E2E2E2E2E2E2E2E2E2E2E2E2E2E2E2E2E2E2E2E2E2E2E2E2E2E2E2E2E2E2E2E2E2E2E2E2E2E2E2E2E2E2E2E2E2E2E2E2E2E2E2E2E2E2E2E2E2E2E2E2E2E2E2E2E2E2E2E2E2E2E2E2E2E2E2E2E2E2E2E2E2E2E2E2E2E2E2E2E2E2E2E2E2E2E2E2E2E2E2E2E2E2E2E2E2E2E2E2E2E2E2E2E2E2E2
310
E2E2E2E2E2E2E2E2E2E2E2E2E2E2E2E2E2E2E2E2E2E2E2E2E2E2E2E2E2E2E2E2E2E2E2E2E2E2E2E2E2E2E2E2E2E2E2E2E2E2E2E2E2E2E2E2E2E2E2E2E2E2E2E2E2E2E2E2E2E2E2E2E2E2E2E2E2E2E2E2E2E2E2E2E2E2E2E2E2E2E2E2E2E2E2E2E2E2E2E2E2E2E2E2E2E2E2E2E2E2E2E2E2E2E2E2E2E2E2E2E2E2E2E2E2E2E2
310
E2E2E2E2E2E2E2E2E2E2E2E2E2E2E2E2E2E2E2E2E2E2E2E2E2E2E2E2E2E2E2E2E2E2E2E2E2E2E2E2E2E2E2E2E2E2E2E2E2E2E2E2E2E2E2E2E2E2E2E2E2E2E2E2E2E2E2E2E2E2E2E2E2E2E2E2E2E2E2E2E2E2E2E2E2E2E2E2E2E2E2E2E2E2E2E2E2E2E2E2E2E2E2E2E2E2E2E2E2E2E2E2E2E2E2E2E2E2E2E2E2E2E2E2E2E2E2
310
E2E2E2E2E2E2E2E2E2E2E2E2E2E2E2E2E2E2E2E2E2E2E2E2E2E2E2E2E2E2E2E2E2E2E2E2E2E2E2E2E2E2E2E2E2E2E2E2E2E2E2E2E2E2E2E2E2E2E2E2E2E2E2E2E2E2E2E2E2E2E2E2E2E2E2E2E2E2E2E2E2E2E2E2E2E2E2E2E2E2E2E2E2E2E2E2E2E2E2E2E2E2E2E2E2E2E2E2E2E2E2E2E2E2E2E2E2E2E2E2E2E2E2E2E2E2E2
310
E2E2E2E2E2E2E2E2E2E2E2E2E2E2E2E2E2E2E2E2E2E2E2E2E2E2E2E2E2E2E2E2E2E2E2E2E2E2E2E2E2E2E2E2E2E2E2E2E2E2E2E2E2E2E2E2E2E2E2E2E2E2E2E2E2E2E2E2E2E2E2E2E2E2E2E2E2E2E2E2E2E2E2E2E2E2E2E2E2E2E2E2E2E2E2E2E2E2E2E2E2E2E2E2E2E2E2E2E2E2E2E2E2E2E2E2E2E2E2E2E2E2E2E2E2E2E2
310
E2E2E2E2E2E2E2E2E2E2E2E2E2E2E2E2E2E2E2E2E2E2E2E2E2E2E2E2E2E2E2E2E2E2E2E2E2E2E2E2E2E2E2E2E2E2E2E2E2E2E2E2E2E2E2E2E2E2E2E2E2E2E2E2E2E2E2E2E2E2E2E2E2E2E2E2E2E2E2E2E2E2E2E2E2E2E2E2E2E2E2E2E2E2E2E2E2E2E2E2E2E2E2E2E2E2E2E2E2E2E2E2E2E2E2E2E2E2E2E2E2E2E2E2E2E2E2
310
E2E2E2E2E2E2E2E2E2E2E2E2E2E2E2E2E2E2E2E2E2E2E2E2E2E2E2E2E2E2E2E2E2E2E2E2E2E2E2E2E2E2E2E2E2E2E2E2E2E2E2E2E2E2E2E2E2E2E2E2E2E2E2E2E2E2E2E2E2E2E2E2E2E2E2E2E2E2E2E2E2E2E2E2E2E2E2E2E2E2E2E2E2E2E2E2E2E2E2E2E2E2E2E2E2E2E2E2E2E2E2E2E2E2E2E2E2E2E2E2E2E2E2E2E2E2E2
310
E2E2E2E2E2E2E2E2E2E2E2E2E2E2E2E2E2E2E2E2E2E2E2E2E2E2E2E2E2E2E2E2E2E2E2E2E2E2E2E2E2E2E2E2E2E2E2E2E2E2E2E2E2E2E2E2E2E2E2E2E2E2E2E2E2E2E2E2E2E2E2E2E2E2E2E2E2E2E2E2E2E2E2E2E2E2E2E2E2E2E2E2E2E2E2E2E2E2E2E2E2E2E2E2E2E2E2E2E2E2E2E2E2E2E2E2E2E2E2E2E2E2E2E2E2E2E2
310
E2E2E2E2E2E2E2E2E2E2E2E2E2E2E2E2E2E2E2E2E2E2E2E2E2E2E2E2E2E2E2E2E2E2E2E2E2E2E2E2E2E2E2E2E2E2E2E2E2E2E2E2E2E2E2E2E2E2E2E2E2E2E2E2E2E2E2E2E2E2E2E2E2E2E2E2E2E2E2E2E2E2E2E2E2E2E2E2E2E2E2E2E2E2E2E2E2E2E2E2E2E2E2E2E2E2E2E2E2E2E2E2E2E2E2E2E2E2E2E2E2E2E2E2E2E2E2
310
E2E2E2E2E2E2E2E2E2E2E2E2E2E2E2E2E2E2E2E2E2E2E2E2E2E2E2E2E2E2E2E2E2E2E2E2E2E2E2E2E2E2E2E2E2E2E2E2E2E2E2E2E2E2E2E2E2E2E2E2E2E2E2E2E2E2E2E2E2E2E2E2E2E2E2E2E2E2E2E2E2E2E2E2E2E2E2E2E2E2E2E2E2E2E2E2E2E2E2E2E2E2E2E2E2E2E2E2E2E2E2E2E2E2E2E2E2E2E2E2E2E2E2E2E2E2E2
310
E2E2E2E2E2E2E2E2E2E2E2E2E2E2E2E2E2E2E2E2E2E2E2E2E2E2E2E2E2E2E2E2E2E2E2E2E2E2E2E2E2E2E2E2E2E2E2E2E2E2E2E2E2E2E2E2E2E2E2E2E2E2E2E2E2E2E2E2E2E2E2E2E2E2E2E2E2E2E2E2E2E2E2E2E2E2E2E2E2E2E2E2E2E2E2E2E2E2E2E2E2E2E2E2E2E2E2E2E2E2E2E2E2E2E2E2E2E2E2E2E2E2E2E2E2E2E2
310
E2E2E2E2E2E2E2E2E2E2E2E2E2E2E2E2E2E2E2E2E2E2E2E2E2E2E2E2E2E2E2E2E2E2E2E2E2E2E2E2E2E2E2E2E2E2E2E2E2E2E2E2E2E2E2E2E2E2E2E2E2E2E2E2E2E2E2E2E2E2E2E2E2E2E2E2E2E2E2E2E2E2E2E2E2E2E2E2E2E2E2E2E2E2E2E2E2E2E2E2E2E2E2E2E2E2E2E2E2E2E2E2E2E2E2E2E2E2E2E2E2E2E2E2E2E2E2
310
E2E2E2E2E2E2E2E2E2E2E2E2E2E2E2E2E2E2E2E2E2E2E2E2E2E2E2E2E2E2E2E2E2E2E2E2E2E2E2E2E2E2E2E2E2E2E2E2E2E2E2E2E2E2E2E2E2E2E2E2E2E2E2E2E2E2E2E2E2E2E2E2E2E2E2E2E2E2E2E2E2E2E2E2E2E2E2E2E2E2E2E2E2E2E2E2E2E2E2E2E2E2E2E2E2E2E2E2E2E2E2E2E2E2E2E2E2E2E2E2E2E2E2E2E2E2E2
310
E2E2E2E2E2E2E2E2E2E2E2E2E2E2E2E2E2E2E2E2E2E2E2E2E2E2E2E2E2E2E2E2E2E2E2E2E2E2E2E2E2E2E2E2E2E2E2E2E2E2E2E2E2E2E2E2E2E2E2E2E2E2E2E2E2E2E2E2E2E2E2E2E2E2E2E2E2E2E2E2E2E2E2E2E2E2E2E2E2E2E2E2E2E2E2E2E2E2E2E2E2E2E2E2E2E2E2E2E2E2E2E2E2E2E2E2E2E2E2E2E2E2E2E2E2E2E2
310
E2E2E2E2E2E2E2E2E2E2E2E2E2E2E2E2E2E2E2E2E2E2E2E2E2E2E2E2E2E2E2E2E2E2E2E2E2E2E2E2E2E2E2E2E2E2E2E2E2E2E2E2E2E2E2E2E2E2E2E2E2E2E2E2E2E2E2E2E2E2E2E2E2E2E2E2E2E2E2E2E2E2E2E2E2E2E2E2E2E2E2E2E2E2E2E2E2E2E2E2E2E2E2E2E2E2E2E2E2E2E2E2E2E2E2E2E2E2E2E2E2E2E2E2E2E2E2
310
E2E2E2E2E2E2E2E2E2E2E2E2E2E2E2E2E2E2E2E2E2E2E2E2E2E2E2E2E2E2E2E2E2E2E2E2E2E2E2E2E2E2E2E2E2E2E2E2E2E2E2E2E2E2E2E2E2E2E2E2E2E2E2E2E2E2E2E2E2E2E2E2E2E2E2E2E2E2E2E2E2E2E2E2E2E2E2E2E2E2E2E2E2E2E2E2E2E2E2E2E2E2E2E2E2E2E2E2E2E2E2E2E2E2E2E2E2E2E2E2E2E2E2E2E2E2E2
310
E2E2E2E2E2E2E2E2E2E2E2E2E2E2E2E2E2E2E2E2E2E2E2E2E2E2E2E2E2E2E2E2E2E2E2E2E2E2E2E2E2E2E2E2E2E2E2E2E2E2E2E2E2E2E2E2E2E2E2E2E2E2E2E2E2E2E2E2E2E2E2E2E2E2E2E2E2E2E2E2E2E2E2E2E2E2E2E2E2E2E2E2E2E2E2E2E2E2E2E2E2E2E2E2E2E2E2E2E2E2E2E2E2E2E2E2E2E2E2E2E2E2E2E2E2E2E2
310
E2E2E2E2E2E2E2E2E2E2E2E2E2E2E2E2E2E2E2E2E2E2E2E2E2E2E2E2E2E2E2E2E2E2E2E2E2E2E2E2E2E2E2E2E2E2E2E2E2E2E2E2E2E2E2E2E2E2E2E2E2E2E2E2E2E2E2E2E2E2E2E2E2E2E2E2E2E2E2E2E2E2E2E2E2E2E2E2E2E2E2E2E2E2E2E2E2E2E2E2E2E2E2E2E2E2E2E2E2E2E2E2E2E2E2E2E2E2E2E2E2E2E2E2E2E2E2
310
E2E2E2E2E2E2E2E2E2E2E2E2E2E2E2E2E2E2E2E2E2E2E2E2E2E2E2E2E2E2E2E2E2E2E2E2E2E2E2E2E2E2E2E2E2E2E2E2E2E2E2E2E2E2E2E2E2E2E2E2E2E2E2E2E2E2E2E2E2E2E2E2E2E2E2E2E2E2E2E2E2E2E2E2E2E2E2E2E2E2E2E2E2E2E2E2E2E2E2E2E2E2E2E2E2E2E2E2E2E2E2E2E2E2E2E2E2E2E2E2E2E2E2E2E2E2E2
310
E2E2E2E2E2E2E2E2E2E2E2E2E2E2E2E2E2E2E2E2E2E2E2E2E2E2E2E2E2E2E2E2E2E2E2E2E2E2E2E2E2E2E2E2E2E2E2E2E2E2E2E2E2E2E2E2E2E2E2E2E2E2E2E2E2E2E2E2E2E2E2E2E2E2E2E2E2E2E2E2E2E2E2E2E2E2E2E2E2E2E2E2E2E2E2E2E2E2E2E2E2E2E2E2E2E2E2E2E2E2E2E2E2E2E2E2E2E2E2E2E2E2E2E2E2E2E2
310
E2E2E2E2E2E2E2E2E2E2E2E2E2E2E2E2E2E2E2E2E2E2E2E2E2E2E2E2E2E2E2E2E2E2E2E2E2E2E2E2E2E2E2E2E2E2E2E2E2E2E2E2E2E2E2E2E2E2E2E2E2E2E2E2E2E2E2E2E2E2E2E2E2E2E2E2E2E2E2E2E2E2E2E2E2E2E2E2E2E2E2E2E2E2E2E2E2E2E2E2E2E2E2E2E2E2E2E2E2E2E2E2E2E2E2E2E2E2E2E2E2E2E2E2E2E2E2
310
E2E2E2E2E2E2E2E2E2E2E2E2E2E2E2E2E2E2E2E2E2E2E2E2E2E2E2E2E2E2E2E2E2E2E2E2E2E2E2E2E2E2E2E2E2E2E2E2E2E2E2E2E2E2E2E2E2E2E2E2E2E2E2E2E2E2E2E2E2E2E2E2E2E2E2E2E2E2E2E2E2E2E2E2E2E2E2E2E2E2E2E2E2E2E2E2E2E2E2E2E2E2E2E2E2E2E2E2E2E2E2E2E2E2E2E2E2E2E2E2E2E2E2E2E2E2E2
310
E2E2E2E2E2E2E2E2E2E2E2E2E2E2E2E2E2E2E2E2E2E2E2E2E2E2E2E2E2E2E2E2E2E2E2E2E2E2E2E2E2E2E2E2E2E2E2E2E2E2E2E2E2E2E2E2E2E2E2E2E2E2E2E2E2E2E2E2E2E2E2E2E2E2E2E2E2E2E2E2E2E2E2E2E2E2E2E2E2E2E2E2E2E2E2E2E2E2E2E2E2E2E2E2E2E2E2E2E2E2E2E2E2E2E2E2E2E2E2E2E2E2E2E2E2E2E2
310
E2E2E2E2E2E2E2E2E2E2E2E2E2E2E2E2E2E2E2E2E2E2E2E2E2E2E2E2E2E2E2E2E2E2E2E2E2E2E2E2E2E2E2E2E2E2E2E2E2E2E2E2E2E2E2E2E2E2E2E2E2E2E2E2E2E2E2E2E2E2E2E2E2E2E2E2E2E2E2E2E2E2E2E2E2E2E2E2E2E2E2E2E2E2E2E2E2E2E2E2E2E2E2E2E2E2E2E2E2E2E2E2E2E2E2E2E2E2E2E2E2E2E2E2E2E2E2
310
E2E2E2E2E2E2E2E2E2E2E2E2E2E2E2E2E2E2E2E2E2E2E2E2E2E2E2E2E2E2E2E2E2E2E2E2E2E2E2E2E2E2E2E2E2E2E2E2E2E2E2E2E2E2E2E2E2E2E2E2E2E2E2E2E2E2E2E2E2E2E2E2E2E2E2E2E2E2E2E2E2E2E2E2E2E2E2E2E2E2E2E2E2E2E2E2E2E2E2E2E2E2E2E2E2E2E2E2E2E2E2E2E2E2E2E2E2E2E2E2E2E2E2E2E2E2E2
310
E2E2E2E2E2E2E2E2E2E2E2E2E2E2E2E2E2E2E2E2E2E2E2E2E2E2E2E2E2E2E2E2E2E2E2E2E2E2E2E2E2E2E2E2E2E2E2E2E2E2E2E2E2E2E2E2E2E2E2E2E2E2E2E2E2E2E2E2E2E2E2E2E2E2E2E2E2E2E2E2E2E2E2E2E2E2E2E2E2E2E2E2E2E2E2E2E2E2E2E2E2E2E2E2E2E2E2E2E2E2E2E2E2E2E2E2E2E2E2E2E2E2E2E2E2E2E2
310
E2E2E2E2E2E2E2E2E2E2E2E2E2E2E2E2E2E2E2E2E2E2E2E2E2E2E2E2E2E2E2E2E2E2E2E2E2E2E2E2E2E2E2E2E2E2E2E2E2E2E2E2E2E2E2E2E2E2E2E2E2E2E2E2E2E2E2E2E2E2E2E2E2E2E2E2E2E2E2E2E2E2E2E2E2E2E2E2E2E2E2E2E2E2E2E2E2E2E2E2E2E2E2E2E2E2E2E2E2E2E2E2E2E2E2E2E2E2E2E2E2E2E2E2E2E2E2
310
E2E2E2E2E2E2E2E2E2E2E2E2E2E2E2E2E2E2E2E2E2E2E2E2E2E2E2E2E2E2E2E2E2E2E2E2E2E2E2E2E2E2E2E2E2E2E2E2E2E2E2E2E2E2E2E2E2E2E2E2E2E2E2E2E2E2E2E2E2E2E2E2E2E2E2E2E2E2E2E2E2E2E2E2E2E2E2E2E2E2E2E2E2E2E2E2E2E2E2E2E2E2E2E2E2E2E2E2E2E2E2E2E2E2E2E2E2E2E2E2E2E2E2E2E2E2E2
310
E2E2E2E2E2E2E2E2E2E2E2E2E2E2E2E2E2E2E2E2E2E2E2E2E2E2E2E2E2E2E2E2E2E2E2E2E2E2E2E2E2E2E2E2E2E2E2E2E2E2E2E2E2E2E2E2E2E2E2E2E2E2E2E2E2E2E2E2E2E2E2E2E2E2E2E2E2E2E2E2E2E2E2E2E2E2E2E2E2E2E2E2E2E2E2E2E2E2E2E2E2E2E2E2E2E2E2E2E2E2E2E2E2E2E2E2E2E2E2E2E2E2E2E2E2E2E2
310
E2E2E2E2E2E2E2E2E2E2E2E2E2E2E2E2E2E2E2E2E2E2E2E2E2E2E2E2E2E2E2E2E2E2E2E2E2E2E2E2E2E2E2E2E2E2E2E2E2E2E2E2E2E2E2E2E2E2E2E2E2E2E2E2E2E2E2E2E2E2E2E2E2E2E2E2E2E2E2E2E2E2E2E2E2E2E2E2E2E2E2E2E2E2E2E2E2E2E2E2E2E2E2E2E2E2E2E2E2E2E2E2E2E2E2E2E2E2E2E2E2E2E2E2E2E2E2
310
E2E2E2E2E2E2E2E2E2E2E2E2E2E2E2E2E2E2E2E2E2E2E2E2E2E2E2E2E2E2E2E2E2E2E2E2E2E2E2E2E2E2E2E2E2E2E2E2E2E2E2E2E2E2E2E2E2E2E2E2E2E2E2E2E2E2E2E2E2E2E2E2E2E2E2E2E2E2E2E2E2E2E2E2E2E2E2E2E2E2E2E2E2E2E2E2E2E2E2E2E2E2E2E2E2E2E2E2E2E2E2E2E2E2E2E2E2E2E2E2E2E2E2E2E2E2E2
310
E2E2E2E2E2E2E2E2E2E2E2E2E2E2E2E2E2E2E2E2E2E2E2E2E2E2E2E2E2E2E2E2E2E2E2E2E2E2E2E2E2E2E2E2E2E2E2E2E2E2E2E2E2E2E2E2E2E2E2E2E2E2E2E2E2E2E2E2E2E2E2E2E2E2E2E2E2E2E2E2E2E2E2E2E2E2E2E2E2E2E2E2E2E2E2E2E2E2E2E2E2E2E2E2E2E2E2E2E2E2E2E2E2E2E2E2E2E2E2E2E2E2E2E2E2E2E2
310
E2E2E2E2E2E2E2E2E2E2E2E2E2E2E2E2E2E2E2E2E2E2E2E2E2E2E2E2E2E2E2E2E2E2E2E2E2E2E2E2E2E2E2E2E2E2E2E2E2E2E2E2E2E2E2E2E2E2E2E2E2E2E2E2E2E2E2E2E2E2E2E2E2E2E2E2E2E2E2E2E2E2E2E2E2E2E2E2E2E2E2E2E2E2E2E2E2E2E2E2E2E2E2E2E2E2E2E2E2E2E2E2E2E2E2E2E2E2E2E2E2E2E2E2E2E2E2
310
E2E2E2E2E2E2E2E2E2E2E2E2E2E2E2E2E2E2E2E2E2E2E2E2E2E2E2E2E2E2E2E2E2E2E2E2E2E2E2E2E2E2E2E2E2E2E2E2E2E2E2E2E2E2E2E2E2E2E2E2E2E2E2E2E2E2E2E2E2E2E2E2E2E2E2E2E2E2E2E2E2E2E2E2E2E2E2E2E2E2E2E2E2E2E2E2E2E2E2E2E2E2E2E2E2E2E2E2E2E2E2E2E2E2E2E2E2E2E2E2E2E2E2E2E2E2E2
310
E2E2E2E2E2E2E2E2E2E2E2E2E2E2E2E2E2E2E2E2E2E2E2E2E2E2E2E2E2E2E2E2E2E2E2E2E2E2E2E2E2E2E2E2E2E2E2E2E2E2E2E2E2E2E2E2E2E2E2E2E2E2E2E2E2E2E2E2E2E2E2E2E2E2E2E2E2E2E2E2E2E2E2E2E2E2E2E2E2E2E2E2E2E2E2E2E2E2E2E2E2E2E2E2E2E2E2E2E2E2E2E2E2E2E2E2E2E2E2E2E2E2E2E2E2E2E2
310
E2E2E2E2E2E2E2E2E2E2E2E2E2E2E2E2E2E2E2E2E2E2E2E2E2E2E2E2E2E2E2E2E2E2E2E2E2E2E2E2E2E2E2E2E2E2E2E2E2E2E2E2E2E2E2E2E2E2E2E2E2E2E2E2E2E2E2E2E2E2E2E2E2E2E2E2E2E2E2E2E2E2E2E2E2E2E2E2E2E2E2E2E2E2E2E2E2E2E2E2E2E2E2E2E2E2E2E2E2E2E2E2E2E2E2E2E2E2E2E2E2E2E2E2E2E2E2
310
E2E2E2E2E2E2E2E2E2E2E2E2E2E2E2E2E2E2E2E2E2E2E2E2E2E2E2E2E2E2E2E2E2E2E2E2E2E2E2E2E2E2E2E2E2E2E2E2E2E2E2E2E2E2E2E2E2E2E2E2E2E2E2E2E2E2E2E2E2E2E2E2E2E2E2E2E2E2E2E2E2E2E2E2E2E2E2E2E2E2E2E2E2E2E2E2E2E2E2E2E2E2E2E2E2E2E2E2E2E2E2E2E2E2E2E2E2E2E2E2E2E2E2E2E2E2E2
310
E2E2E2E2E2E2E2E2E2E2E2E2E2E2E2E2E2E2E2E2E2E2E2E2E2E2E2E2E2E2E2E2E2E2E2E2E2E2E2E2E2E2E2E2E2E2E2E2E2E2E2E2E2E2E2E2E2E2E2E2E2E2E2E2E2E2E2E2E2E2E2E2E2E2E2E2E2E2E2E2E2E2E2E2E2E2E2E2E2E2E2E2E2E2E2E2E2E2E2E2E2E2E2E2E2E2E2E2E2E2E2E2E2E2E2E2E2E2E2E2E2E2E2E2E2E2E2
310
E2E2E2E2E2E2E2E2E2E2E2E2E2E2E2E2E2E2E2E2E2E2E2E2E2E2E2E2E2E2E2E2E2E2E2E2E2E2E2E2E2E2E2E2E2E2E2E2E2E2E2E2E2E2E2E2E2E2E2E2E2E2E2E2E2E2E2E2E2E2E2E2E2E2E2E2E2E2E2E2E2E2E2E2E2E2E2E2E2E2E2E2E2E2E2E2E2E2E2E2E2E2E2E2E2E2E2E2E2E2E2E2E2E2E2E2E2E2E2E2E2E2E2E2E2E2E2
310
E2E2E2E2E2E2E2E2E2E2E2E2E2E2E2E2E2E2E2E2E2E2E2E2E2E2E2E2E2E2E2E2E2E2E2E2E2E2E2E2E2E2E2E2E2E2E2E2E2E2E2E2E2E2E2E2E2E2E2E2E2E2E2E2E2E2E2E2E2E2E2E2E2E2E2E2E2E2E2E2E2E2E2E2E2E2E2E2E2E2E2E2E2E2E2E2E2E2E2E2E2E2E2E2E2E2E2E2E2E2E2E2E2E2E2E2E2E2E2E2E2E2E2E2E2E2E2
310
E2E2E2E2E2E2E2E2E2E2E2E2E2E2E2E2E2E2E2E2E2E2E2E2E2E2E2E2E2E2E2E2E2E2E2E2E2E2E2E2E2E2E2E2E2E2E2E2E2E2E2E2E2E2E2E2E2E2E2E2E2E2E2E2E2E2E2E2E2E2E2E2E2E2E2E2E2E2E2E2E2E2E2E2E2E2E2E2E2E2E2E2E2E2E2E2E2E2E2E2E2E2E2E2E2E2E2E2E2E2E2E2E2E2E2E2E2E2E2E2E2E2E2E2E2E2E2
310
E2E2E2E2E2E2E2E2E2E2E2E2E2E2E2E2E2E2E2E2E2E2E2E2E2E2E2E2E2E2E2E2E2E2E2E2E2E2E2E2E2E2E2E2E2E2E2E2E2E2E2E2E2E2E2E2E2E2E2E2E2E2E2E2E2E2E2E2E2E2E2E2E2E2E2E2E2E2E2E2E2E2E2E2E2E2E2E2E2E2E2E2E2E2E2E2E2E2E2E2E2E2E2E2E2E2E2E2E2E2E2E2E2E2E2E2E2E2E2E2E2E2E2E2E2E2E2
310
E2E2E2E2E2E2E2E2E2E2E2E2E2E2E2E2E2E2E2E2E2E2E2E2E2E2E2E2E2E2E2E2E2E2E2E2E2E2E2E2E2E2E2E2E2E2E2E2E2E2E2E2E2E2E2E2E2E2E2E2E2E2E2E2E2E2E2E2E2E2E2E2E2E2E2E2E2E2E2E2E2E2E2E2E2E2E2E2E2E2E2E2E2E2E2E2E2E2E2E2E2E2E2E2E2E2E2E2E2E2E2E2E2E2E2E2E2E2E2E2E2E2E2E2E2E2E2
310
E2E2E2E2E2E2E2E2E2E2E2E2E2E2E2E2E2E2E2E2E2E2E2E2E2E2E2E2E2E2E2E2E2E2E2E2E2E2E2E2E2E2E2E2E2E2E2E2E2E2E2E2E2E2E2E2E2E2E2E2E2E2E2E2E2E2E2E2E2E2E2E2E2E2E2E2E2E2E2E2E2E2E2E2E2E2E2E2E2E2E2E2E2E2E2E2E2E2E2E2E2E2E2E2E2E2E2E2E2E2E2E2E2E2E2E2E2E2E2E2E2E2E2E2E2E2E2
310
E2E2E2E2E2E2E2E2E2E2E2E2E2E2E2E2E2E2E2E2E2E2E2E2E2E2E2E2E2E2E2E2E2E2E2E2E2E2E2E2E2E2E2E2E2E2E2E2E2E2E2E2E2E2E2E2E2E2E2E2E2E2E2E2E2E2E2E2E2E2E2E2E2E2E2E2E2E2E2E2E2E2E2E2E2E2E2E2E2E2E2E2E2E2E2E2E2E2E2E2E2E2E2E2E2E2E2E2E2E2E2E2E2E2E2E2E2E2E2E2E2E2E2E2E2E2E2
310
E2E2E2E2E2E2E2E2E2E2E2E2E2E2E2E2E2E2E2E2E2E2E2E2E2E2E2E2E2E2E2E2E2E2E2E2E2E2E2E2E2E2E2E2E2E2E2E2E2E2E2E2E2E2E2E2E2E2E2E2E2E2E2E2E2E2E2E2E2E2E2E2E2E2E2E2E2E2E2E2E2E2E2E2E2E2E2E2E2E2E2E2E2E2E2E2E2E2E2E2E2E2E2E2E2E2E2E2E2E2E2E2E2E2E2E2E2E2E2E2E2E2E2E2E2E2E2
310
E2E2E2E2E2E2E2E2E2E2E2E2E2E2E2E2E2E2E2E2E2E2E2E2E2E2E2E2E2E2E2E2E2E2E2E2E2E2E2E2E2E2E2E2E2E2E2E2E2E2E2E2E2E2E2E2E2E2E2E2E2E2E2E2E2E2E2E2E2E2E2E2E2E2E2E2E2E2E2E2E2E2E2E2E2E2E2E2E2E2E2E2E2E2E2E2E2E2E2E2E2E2E2E2E2E2E2E2E2E2E2E2E2E2E2E2E2E2E2E2E2E2E2E2E2E2E2
310
E2E2E2E2E2E2E2E2E2E2E2E2E2E2E2E2E2E2E2E2E2E2E2E2E2E2E2E2E2E2E2E2E2E2E2E2E2E2E2E2E2E2E2E2E2E2E2E2E2E2E2E2E2E2E2E2E2E2E2E2E2E2E2E2E2E2E2E2E2E2E2E2E2E2E2E2E2E2E2E2E2E2E2E2E2E2E2E2E2E2E2E2E2E2E2E2E2E2E2E2E2E2E2E2E2E2E2E2E2E2E2E2E2E2E2E2E2E2E2E2E2E2E2E2E2E2E2
310
E2E2E2E2E2E2E2E2E2E2E2E2E2E2E2E2E2E2E2E2E2E2E2E2E2E2E2E2E2E2E2E2E2E2E2E2E2E2E2E2E2E2E2E2E2E2E2E2E2E2E2E2E2E2E2E2E2E2E2E2E2E2E2E2E2E2E2E2E2E2E2E2E2E2E2E2E2E2E2E2E2E2E2E2E2E2E2E2E2E2E2E2E2E2E2E2E2E2E2E2E2E2E2E2E2E2E2E2E2E2E2E2E2E2E2E2E2E2E2E2E2E2E2E2E2E2E2
310
E2E2E2E2E2E2E2E2E2E2E2E2E2E2E2E2E2E2E2E2E2E2E2E2E2E2E2E2E2E2E2E2E2E2E2E2E2E2E2E2E2E2E2E2E2E2E2E2E2E2E2E2E2E2E2E2E2E2E2E2E2E2E2E2E2E2E2E2E2E2E2E2E2E2E2E2E2E2E2E2E2E2E2E2E2E2E2E2E2E2E2E2E2E2E2E2E2E2E2E2E2E2E2E2E2E2E2E2E2E2E2E2E2E2E2E2E2E2E2E2E2E2E2E2E2E2E2
310
E2E2E2E2E2E2E2E2E2E2E2E2E2E2E2E2E2E2E2E2E2E2E2E2E2E2E2E2E2E2E2E2E2E2E2E2E2E2E2E2E2E2E2E2E2E2E2E2E2E2E2E2E2E2E2E2E2E2E2E2E2E2E2E2E2E2E2E2E2E2E2E2E2E2E2E2E2E2E2E2E2E2E2E2E2E2E2E2E2E2E2E2E2E2E2E2E2E2E2E2E2E2E2E2E2E2E2E2E2E2E2E2E2E2E2E2E2E2E2E2E2E2E2E2E2E2E2
310
E2E2E2E2E2E2E2E2E2E2E2E2E2E2E2E2E2E2E2E2E2E2E2E2E2E2E2E2E2E2E2E2E2E2E2E2E2E2E2E2E2E2E2E2E2E2E2E2E2E2E2E2E2E2E2E2E2E2E2E2E2E2E2E2E2E2E2E2E2E2E2E2E2E2E2E2E2E2E2E2E2E2E2E2E2E2E2E2E2E2E2E2E2E2E2E2E2E2E2E2E2E2E2E2E2E2E2E2E2E2E2E2E2E2E2E2E2E2E2E2E2E2E2E2E2E2E2
310
E2E2E2E2E2E2E2E2E2E2E2E2E2E2E2E2E2E2E2E2E2E2E2E2E2E2E2E2E2E2E2E2E2E2E2E2E2E2E2E2E2E2E2E2E2E2E2E2E2E2E2E2E2E2E2E2E2E2E2E2E2E2E2E2E2E2E2E2E2E2E2E2E2E2E2E2E2E2E2E2E2E2E2E2E2E2E2E2E2E2E2E2E2E2E2E2E2E2E2E2E2E2E2E2E2E2E2E2E2E2E2E2E2E2E2E2E2E2E2E2E2E2E2E2E2E2E2
310
E2E2E2E2E2E2E2E2E2E2E2E2E2E2E2E2E2E2E2E2E2E2E2E2E2E2E2E2E2E2E2E2E2E2E2E2E2E2E2E2E2E2E2E2E2E2E2E2E2E2E2E2E2E2E2E2E2E2E2E2E2E2E2E2E2E2E2E2E2E2E2E2E2E2E2E2E2E2E2E2E2E2E2E2E2E2E2E2E2E2E2E2E2E2E2E2E2E2E2E2E2E2E2E2E2E2E2E2E2E2E2E2E2E2E2E2E2E2E2E2E2E2E2E2E2E2E2
310
E2E2E2E2E2E2E2E2E2E2E2E2E2E2E2E2E2E2E2E2E2E2E2E2E2E2E2E2E2E2E2E2E2E2E2E2E2E2E2E2E2E2E2E2E2E2E2E2E2E2E2E2E2E2E2E2E2E2E2E2E2E2E2E2E2E2E2E2E2E2E2E2E2E2E2E2E2E2E2E2E2E2E2E2E2E2E2E2E2E2E2E2E2E2E2E2E2E2E2E2E2E2E2E2E2E2E2E2E2E2E2E2E2E2E2E2E2E2E2E2E2E2E2E2E2E2E2
310
E2E2E2E2E2E2E2E2E2E2E2E2E2E2E2E2E2E2E2E2E2E2E2E2E2E2E2E2E2E2E2E2E2E2E2E2E2E2E2E2E2E2E2E2E2E2E2E2E2E2E2E2E2E2E2E2E2E2E2E2E2E2E2E2E2E2E2E2E2E2E2E2E2E2E2E2E2E2E2E2E2E2E2E2E2E2E2E2E2E2E2E2E2E2E2E2E2E2E2E2E2E2E2E2E2E2E2E2E2E2E2E2E2E2E2E2E2E2E2E2E2E2E2E2E2E2E2
310
E2E2E2E2E2E2E2E2E2E2E2E2E2E2E2E2E2E2E2E2E2E2E2E2E2E2E2E2E2E2E2E2E2E2E2E2E2E2E2E2E2E2E2E2E2E2E2E2E2E2E2E2E2E2E2E2E2E2E2E2E2E2E2E2E2E2E2E2E2E2E2E2E2E2E2E2E2E2E2E2E2E2E2E2E2E2E2E2E2E2E2E2E2E2E2E2E2E2E2E2E2E2E2E2E2E2E2E2E2E2E2E2E2E2E2E2E2E2E2E2E2E2E2E2E2E2E2
310
E2E2E2E2E2E2E2E2E2E2E2E2E2E2E2E2E2E2E2E2E2E2E2E2E2E2E2E2E2E2E2E2E2E2E2E2E2E2E2E2E2E2E2E2E2E2E2E2E2E2E2E2E2E2E2E2E2E2E2E2E2E2E2E2E2E2E2E2E2E2E2E2E2E2E2E2E2E2E2E2E2E2E2E2E2E2E2E2E2E2E2E2E2E2E2E2E2E2E2E2E2E2E2E2E2E2E2E2E2E2E2E2E2E2E2E2E2E2E2E2E2E2E2E2E2E2E2
310
E2E2E2E2E2E2E2E2E2E2E2E2E2E2E2E2E2E2E2E2E2E2E2E2E2E2E2E2E2E2E2E2E2E2E2E2E2E2E2E2E2E2E2E2E2E2E2E2E2E2E2E2E2E2E2E2E2E2E2E2E2E2E2E2E2E2E2E2E2E2E2E2E2E2E2E2E2E2E2E2E2E2E2E2E2E2E2E2E2E2E2E2E2E2E2E2E2E2E2E2E2E2E2E2E2E2E2E2E2E2E2E2E2E2E2E2E2E2E2E2E2E2E2E2E2E2E2
310
E2E2E2E2E2E2E2E2E2E2E2E2E2E2E2E2E2E2E2E2E2E2E2E2E2E2E2E2E2E2E2E2E2E2E2E2E2E2E2E2E2E2E2E2E2E2E2E2E2E2E2E2E2E2E2E2E2E2E2E2E2E2E2E2E2E2E2E2E2E2E2E2E2E2E2E2E2E2E2E2E2E2E2E2E2E2E2E2E2E2E2E2E2E2E2E2E2E2E2E2E2E2E2E2E2E2E2E2E2E2E2E2E2E2E2E2E2E2E2E2E2E2E2E2E2E2E2
310
E2E2E2E2E2E2E2E2E2E2E2E2E2E2E2E2E2E2E2E2E2E2E2E2E2E2E2E2E2E2E2E2E2E2E2E2E2E2E2E2E2E2E2E2E2E2E2E2E2E2E2E2E2E2E2E2E2E2E2E2E2E2E2E2E2E2E2E2E2E2E2E2E2E2E2E2E2E2E2E2E2E2E2E2E2E2E2E2E2E2E2E2E2E2E2E2E2E2E2E2E2E2E2E2E2E2E2E2E2E2E2E2E2E2E2E2E2E2E2E2E2E2E2E2E2E2E2
310
E2E2E2E2E2E2E2E2E2E2E2E2E2E2E2E2E2E2E2E2E2E2E2E2E2E2E2E2E2E2E2E2E2E2E2E2E2E2E2E2E2E2E2E2E2E2E2E2E2E2E2E2E2E2E2E2E2E2E2E2E2E2E2E2E2E2E2E2E2E2E2E2E2E2E2E2E2E2E2E2E2E2E2E2E2E2E2E2E2E2E2E2E2E2E2E2E2E2E2E2E2E2E2E2E2E2E2E2E2E2E2E2E2E2E2E2E2E2E2E2E2E2E2E2E2E2E2
310
E2E2E2E2E2E2E2E2E2E2E2E2E2E2E2E2E2E2E2E2E2E2E2E2E2E2E2E2E2E2E2E2E2E2E2E2E2E2E2E2E2E2E2E2E2E2E2E2E2E2E2E2E2E2E2E2E2E2E2E2E2E2E2E2E2E2E2E2E2E2E2E2E2E2E2E2E2E2E2E2E2E2E2E2E2E2E2E2E2E2E2E2E2E2E2E2E2E2E2E2E2E2E2E2E2E2E2E2E2E2E2E2E2E2E2E2E2E2E2E2E2E2E2E2E2E2E2
310
E2E2E2E2E2E2E2E2E2E2E2E2E2E2E2E2E2E2E2E2E2E2E2E2E2E2E2E2E2E2E2E2E2E2E2E2E2E2E2E2E2E2E2E2E2E2E2E2E2E2E2E2E2E2E2E2E2E2E2E2E2E2E2E2E2E2E2E2E2E2E2E2E2E2E2E2E2E2E2E2E2E2E2E2E2E2E2E2E2E2E2E2E2E2E2E2E2E2E2E2E2E2E2E2E2E2E2E2E2E2E2E2E2E2E2E2E2E2E2E2E2E2E2E2E2E2E2
310
E2E2E2E2E2E2E2E2E2E2E2E2E2E2E2E2E2E2E2E2E2E2E2E2E2E2E2E2E2E2E2E2E2E2E2E2E2E2E2E2E2E2E2E2E2E2E2E2E2E2E2E2E2E2E2E2E2E2E2E2E2E2E2E2E2E2E2E2E2E2E2E2E2E2E2E2E2E2E2E2E2E2E2E2E2E2E2E2E2E2E2E2E2E2E2E2E2E2E2E2E2E2E2E2E2E2E2E2E2E2E2E2E2E2E2E2E2E2E2E2E2E2E2E2E2E2E2
310
E2E2E2E2E2E2E2E2E2E2E2E2E2E2E2E2E2E2E2E2E2E2E2E2E2E2E2E2E2E2E2E2E2E2E2E2E2E2E2E2E2E2E2E2E2E2E2E2E2E2E2E2E2E2E2E2E2E2E2E2E2E2E2E2E2E2E2E2E2E2E2E2E2E2E2E2E2E2E2E2E2E2E2E2E2E2E2E2E2E2E2E2E2E2E2E2E2E2E2E2E2E2E2E2E2E2E2E2E2E2E2E2E2E2E2E2E2E2E2E2E2E2E2E2E2E2E2
310
E2E2E2E2E2E2E2E2E2E2E2E2E2E2E2E2E2E2E2E2E2E2E2E2E2E2E2E2E2E2E2E2E2E2E2E2E2E2E2E2E2E2E2E2E2E2E2E2E2E2E2E2E2E2E2E2E2E2E2E2E2E2E2E2E2E2E2E2E2E2E2E2E2E2E2E2E2E2E2E2E2E2E2E2E2E2E2E2E2E2E2E2E2E2E2E2E2E2E2E2E2E2E2E2E2E2E2E2E2E2E2E2E2E2E2E2E2E2E2E2E2E2E2E2E2E2E2
310
E2E2E2E2E2E2E2E2E2E2E2E2E2E2E2E2E2E2E2E2E2E2E2E2E2E2E2E2E2E2E2E2E2E2E2E2E2E2E2E2E2E2E2E2E2E2E2E2E2E2E2E2E2E2E2E2E2E2E2E2E2E2E2E2E2E2E2E2E2E2E2E2E2E2E2E2E2E2E2E2E2E2E2E2E2E2E2E2E2E2E2E2E2E2E2E2E2E2E2E2E2E2E2E2E2E2E2E2E2E2E2E2E2E2E2E2E2E2E2E2E2E2E2E2E2E2E2
310
E2E2E2E2E2E2E2E2E2E2E2E2E2E2E2E2E2E2E2E2E2E2E2E2E2E2E2E2E2E2E2E2E2E2E2E2E2E2E2E2E2E2E2E2E2E2E2E2E2E2E2E2E2E2E2E2E2E2E2E2E2E2E2E2E2E2E2E2E2E2E2E2E2E2E2E2E2E2E2E2E2E2E2E2E2E2E2E2E2E2E2E2E2E2E2E2E2E2E2E2E2E2E2E2E2E2E2E2E2E2E2E2E2E2E2E2E2E2E2E2E2E2E2E2E2E2E2
310
E2E2E2E2E2E2E2E2E2E2E2E2E2E2E2E2E2E2E2E2E2E2E2E2E2E2E2E2E2E2E2E2E2E2E2E2E2E2E2E2E2E2E2E2E2E2E2E2E2E2E2E2E2E2E2E2E2E2E2E2E2E2E2E2E2E2E2E2E2E2E2E2E2E2E2E2E2E2E2E2E2E2E2E2E2E2E2E2E2E2E2E2E2E2E2E2E2E2E2E2E2E2E2E2E2E2E2E2E2E2E2E2E2E2E2E2E2E2E2E2E2E2E2E2E2E2E2
310
E2E2E2E2E2E2E2E2E2E2E2E2E2E2E2E2E2E2E2E2E2E2E2E2E2E2E2E2E2E2E2E2E2E2E2E2E2E2E2E2E2E2E2E2E2E2E2E2E2E2E2E2E2E2E2E2E2E2E2E2E2E2E2E2E2E2E2E2E2E2E2E2E2E2E2E2E2E2E2E2E2E2E2E2E2E2E2E2E2E2E2E2E2E2E2E2E2E2E2E2E2E2E2E2E2E2E2E2E2E2E2E2E2E2E2E2E2E2E2E2E2E2E2E2E2E2E2
310
E2E2E2E2E2E2E2E2E2E2E2E2E2E2E2E2E2E2E2E2E2E2E2E2E2E2E2E2E2E2E2E2E2E2E2E2E2E2E2E2E2E2E2E2E2E2E2E2E2E2E2E2E2E2E2E2E2E2E2E2E2E2E2E2E2E2E2E2E2E2E2E2E2E2E2E2E2E2E2E2E2E2E2E2E2E2E2E2E2E2E2E2E2E2E2E2E2E2E2E2E2E2E2E2E2E2E2E2E2E2E2E2E2E2E2E2E2E2E2E2E2E2E2E2E2E2E2
310
E2E2E2E2E2E2E2E2E2E2E2E2E2E2E2E2E2E2E2E2E2E2E2E2E2E2E2E2E2E2E2E2E2E2E2E2E2E2E2E2E2E2E2E2E2E2E2E2E2E2E2E2E2E2E2E2E2E2E2E2E2E2E2E2E2E2E2E2E2E2E2E2E2E2E2E2E2E2E2E2E2E2E2E2E2E2E2E2E2E2E2E2E2E2E2E2E2E2E2E2E2E2E2E2E2E2E2E2E2E2E2E2E2E2E2E2E2E2E2E2E2E2E2E2E2E2E2
310
E2E2E2E2E2E2E2E2E2E2E2E2E2E2E2E2E2E2E2E2E2E2E2E2E2E2E2E2E2E2E2E2E2E2E2E2E2E2E2E2E2E2E2E2E2E2E2E2E2E2E2E2E2E2E2E2E2E2E2E2E2E2E2E2E2E2E2E2E2E2E2E2E2E2E2E2E2E2E2E2E2E2E2E2E2E2E2E2E2E2E2E2E2E2E2E2E2E2E2E2E2E2E2E2E2E2E2E2E2E2E2E2E2E2E2E2E2E2E2E2E2E2E2E2E2E2E2
310
E2E2E2E2E2E2E2E2E2E2E2E2E2E2E2E2E2E2E2E2E2E2E2E2E2E2E2E2E2E2E2E2E2E2E2E2E2E2E2E2E2E2E2E2E2E2E2E2E2E2E2E2E2E2E2E2E2E2E2E2E2E2E2E2E2E2E2E2E2E2E2E2E2E2E2E2E2E2E2E2E2E2E2E2E2E2E2E2E2E2E2E2E2E2E2E2E2E2E2E2E2E2E2E2E2E2E2E2E2E2E2E2E2E2E2E2E2E2E2E2E2E2E2E2E2E2E2
310
E2E2E2E2E2E2E2E2E2E2E2E2E2E2E2E2E2E2E2E2E2E2E2E2E2E2E2E2E2E2E2E2E2E2E2E2E2E2E2E2E2E2E2E2E2E2E2E2E2E2E2E2E2E2E2E2E2E2E2E2E2E2E2E2E2E2E2E2E2E2E2E2E2E2E2E2E2E2E2E2E2E2E2E2E2E2E2E2E2E2E2E2E2E2E2E2E2E2E2E2E2E2E2E2E2E2E2E2E2E2E2E2E2E2E2E2E2E2E2E2E2E2E2E2E2E2E2
310
E2E2E2E2E2E2E2E2E2E2E2E2E2E2E2E2E2E2E2E2E2E2E2E2E2E2E2E2E2E2E2E2E2E2E2E2E2E2E2E2E2E2E2E2E2E2E2E2E2E2E2E2E2E2E2E2E2E2E2E2E2E2E2E2E2E2E2E2E2E2E2E2E2E2E2E2E2E2E2E2E2E2E2E2E2E2E2E2E2E2E2E2E2E2E2E2E2E2E2E2E2E2E2E2E2E2E2E2E2E2E2E2E2E2E2E2E2E2E2E2E2E2E2E2E2E2E2
310
E2E2E2E2E2E2E2E2E2E2E2E2E2E2E2E2E2E2E2E2E2E2E2E2E2E2E2E2E2E2E2E2E2E2E2E2E2E2E2E2E2E2E2E2E2E2E2E2E2E2E2E2E2E2E2E2E2E2E2E2E2E2E2E2E2E2E2E2E2E2E2E2E2E2E2E2E2E2E2E2E2E2E2E2E2E2E2E2E2E2E2E2E2E2E2E2E2E2E2E2E2E2E2E2E2E2E2E2E2E2E2E2E2E2E2E2E2E2E2E2E2E2E2E2E2E2E2
310
E2E2E2E2E2E2E2E2E2E2E2E2E2E2E2E2E2E2E2E2E2E2E2E2E2E2E2E2E2E2E2E2E2E2E2E2E2E2E2E2E2E2E2E2E2E2E2E2E2E2E2E2E2E2E2E2E2E2E2E2E2E2E2E2E2E2E2E2E2E2E2E2E2E2E2E2E2E2E2E2E2E2E2E2E2E2E2E2E2E2E2E2E2E2E2E2E2E2E2E2E2E2E2E2E2E2E2E2E2E2E2E2E2E2E2E2E2E2E2E2E2E2E2E2E2E2E2
310
E2E2E2E2E2E2E2E2E2E2E2E2E2E2E2E2E2E2E2E2E2E2E2E2E2E2E2E2E2E2E2E2E2E2E2E2E2E2E2E2E2E2E2E2E2E2E2E2E2E2E2E2E2E2E2E2E2E2E2E2E2E2E2E2E2E2E2E2E2E2E2E2E2E2E2E2E2E2E2E2E2E2E2E2E2E2E2E2E2E2E2E2E2E2E2E2E2E2E2E2E2E2E2E2E2E2E2E2E2E2E2E2E2E2E2E2E2E2E2E2E2E2E2E2E2E2E2
310
E2E2E2E2E2E2E2E2E2E2E2E2E2E2E2E2E2E2E2E2E2E2E2E2E2E2E2E2E2E2E2E2E2E2E2E2E2E2E2E2E2E2E2E2E2E2E2E2E2E2E2E2E2E2E2E2E2E2E2E2E2E2E2E2E2E2E2E2E2E2E2E2E2E2E2E2E2E2E2E2E2E2E2E2E2E2E2E2E2E2E2E2E2E2E2E2E2E2E2E2E2E2E2E2E2E2E2E2E2E2E2E2E2E2E2E2E2E2E2E2E2E2E2E2E2E2E2
310
E2E2E2E2E2E2E2E2E2E2E2E2E2E2E2E2E2E2E2E2E2E2E2E2E2E2E2E2E2E2E2E2E2E2E2E2E2E2E2E2E2E2E2E2E2E2E2E2E2E2E2E2E2E2E2E2E2E2E2E2E2E2E2E2E2E2E2E2E2E2E2E2E2E2E2E2E2E2E2E2E2E2E2E2E2E2E2E2E2E2E2E2E2E2E2E2E2E2E2E2E2E2E2E2E2E2E2E2E2E2E2E2E2E2E2E2E2E2E2E2E2E2E2E2E2E2E2
310
E2E2E2E2E2E2E2E2E2E2E2E2E2E2E2E2E2E2E2E2E2E2E2E2E2E2E2E2E2E2E2E2E2E2E2E2E2E2E2E2E2E2E2E2E2E2E2E2E2E2E2E2E2E2E2E2E2E2E2E2E2E2E2E2E2E2E2E2E2E2E2E2E2E2E2E2E2E2E2E2E2E2E2E2E2E2E2E2E2E2E2E2E2E2E2E2E2E2E2E2E2E2E2E2E2E2E2E2E2E2E2E2E2E2E2E2E2E2E2E2E2E2E2E2E2E2E2
310
E2E2E2E2E2E2E2E2E2E2E2E2E2E2E2E2E2E2E2E2E2E2E2E2E2E2E2E2E2E2E2E2E2E2E2E2E2E2E2E2E2E2E2E2E2E2E2E2E2E2E2E2E2E2E2E2E2E2E2E2E2E2E2E2E2E2E2E2E2E2E2E2E2E2E2E2E2E2E2E2E2E2E2E2E2E2E2E2E2E2E2E2E2E2E2E2E2E2E2E2E2E2E2E2E2E2E2E2E2E2E2E2E2E2E2E2E2E2E2E2E2E2E2E2E2E2E2
310
E2E2E2E2E2E2E2E2E2E2E2E2E2E2E2E2E2E2E2E2E2E2E2E2E2E2E2E2E2E2E2E2E2E2E2E2E2E2E2E2E2E2E2E2E2E2E2E2E2E2E2E2E2E2E2E2E2E2E2E2E2E2E2E2E2E2E2E2E2E2E2E2E2E2E2E2E2E2E2E2E2E2E2E2E2E2E2E2E2E2E2E2E2E2E2E2E2E2E2E2E2E2E2E2E2E2E2E2E2E2E2E2E2E2E2E2E2E2E2E2E2E2E2E2E2E2E2
310
E2E2E2E2E2E2E2E2E2E2E2E2E2E2E2E2E2E2E2E2E2E2E2E2E2E2E2E2E2E2E2E2E2E2E2E2E2E2E2E2E2E2E2E2E2E2E2E2E2E2E2E2E2E2E2E2E2E2E2E2E2E2E2E2E2E2E2E2E2E2E2E2E2E2E2E2E2E2E2E2E2E2E2E2E2E2E2E2E2E2E2E2E2E2E2E2E2E2E2E2E2E2E2E2E2E2E2E2E2E2E2E2E2E2E2E2E2E2E2E2E2E2E2E2E2E2E2
310
E2E2E2E2E2E2E2E2E2E2E2E2E2E2E2E2E2E2E2E2E2E2E2E2E2E2E2E2E2E2E2E2E2E2E2E2E2E2E2E2E2E2E2E2E2E2E2E2E2E2E2E2E2E2E2E2E2E2E2E2E2E2E2E2E2E2E2E2E2E2E2E2E2E2E2E2E2E2E2E2E2E2E2E2E2E2E2E2E2E2E2E2E2E2E2E2E2E2E2E2E2E2E2E2E2E2E2E2E2E2E2E2E2E2E2E2E2E2E2E2E2E2E2E2E2E2E2
310
E2E2E2E2E2E2E2E2E2E2E2E2E2E2E2E2E2E2E2E2E2E2E2E2E2E2E2E2E2E2E2E2E2E2E2E2E2E2E2E2E2E2E2E2E2E2E2E2E2E2E2E2E2E2E2E2E2E2E2E2E2E2E2E2E2E2E2E2E2E2E2E2E2E2E2E2E2E2E2E2E2E2E2E2E2E2E2E2E2E2E2E2E2E2E2E2E2E2E2E2E2E2E2E2E2E2E2E2E2E2E2E2E2E2E2E2E2E2E2E2E2E2E2E2E2E2E2
310
E2E2E2E2E2E2E2E2E2E2E2E2E2E2E2E2E2E2E2E2E2E2E2E2E2E2E2E2E2E2E2E2E2E2E2E2E2E2E2E2E2E2E2E2E2E2E2E2E2E2E2E2E2E2E2E2E2E2E2E2E2E2E2E2E2E2E2E2E2E2E2E2E2E2E2E2E2E2E2E2E2E2E2E2E2E2E2E2E2E2E2E2E2E2E2E2E2E2E2E2E2E2E2E2E2E2E2E2E2E2E2E2E2E2E2E2E2E2E2E2E2E2E2E2E2E2E2
310
E2E2E2E2E2E2E2E2E2E2E2E2E2E2E2E2E2E2E2E2E2E2E2E2E2E2E2E2E2E2E2E2E2E2E2E2E2E2E2E2E2E2E2E2E2E2E2E2E2E2E2E2E2E2E2E2E2E2E2E2E2E2E2E2E2E2E2E2E2E2E2E2E2E2E2E2E2E2E2E2E2E2E2E2E2E2E2E2E2E2E2E2E2E2E2E2E2E2E2E2E2E2E2E2E2E2E2E2E2E2E2E2E2E2E2E2E2E2E2E2E2E2E2E2E2E2E2
310
E2E2E2E2E2E2E2E2E2E2E2E2E2E2E2E2E2E2E2E2E2E2E2E2E2E2E2E2E2E2E2E2E2E2E2E2E2E2E2E2E2E2E2E2E2E2E2E2E2E2E2E2E2E2E2E2E2E2E2E2E2E2E2E2E2E2E2E2E2E2E2E2E2E2E2E2E2E2E2E2E2E2E2E2E2E2E2E2E2E2E2E2E2E2E2E2E2E2E2E2E2E2E2E2E2E2E2E2E2E2E2E2E2E2E2E2E2E2E2E2E2E2E2E2E2E2E2
310
E2E2E2E2E2E2E2E2E2E2E2E2E2E2E2E2E2E2E2E2E2E2E2E2E2E2E2E2E2E2E2E2E2E2E2E2E2E2E2E2E2E2E2E2E2E2E2E2E2E2E2E2E2E2E2E2E2E2E2E2E2E2E2E2E2E2E2E2E2E2E2E2E2E2E2E2E2E2E2E2E2E2E2E2E2E2E2E2E2E2E2E2E2E2E2E2E2E2E2E2E2E2E2E2E2E2E2E2E2E2E2E2E2E2E2E2E2E2E2E2E2E2E2E2E2E2E2
310
E2E2E2E2E2E2E2E2E2E2E2E2E2E2E2E2E2E2E2E2E2E2E2E2E2E2E2E2E2E2E2E2E2E2E2E2E2E2E2E2E2E2E2E2E2E2E2E2E2E2E2E2E2E2E2E2E2E2E2E2E2E2E2E2E2E2E2E2E2E2E2E2E2E2E2E2E2E2E2E2E2E2E2E2E2E2E2E2E2E2E2E2E2E2E2E2E2E2E2E2E2E2E2E2E2E2E2E2E2E2E2E2E2E2E2E2E2E2E2E2E2E2E2E2E2E2E2
310
E2E2E2E2E2E2E2E2E2E2E2E2E2E2E2E2E2E2E2E2E2E2E2E2E2E2E2E2E2E2E2E2E2E2E2E2E2E2E2E2E2E2E2E2E2E2E2E2E2E2E2E2E2E2E2E2E2E2E2E2E2E2E2E2E2E2E2E2E2E2E2E2E2E2E2E2E2E2E2E2E2E2E2E2E2E2E2E2E2E2E2E2E2E2E2E2E2E2E2E2E2E2E2E2E2E2E2E2E2E2E2E2E2E2E2E2E2E2E2E2E2E2E2E2E2E2E2
310
E2E2E2E2E2E2E2E2E2E2E2E2E2E2E2E2E2E2E2E2E2E2E2E2E2E2E2E2E2E2E2E2E2E2E2E2E2E2E2E2E2E2E2E2E2E2E2E2E2E2E2E2E2E2E2E2E2E2E2E2E2E2E2E2E2E2E2E2E2E2E2E2E2E2E2E2E2E2E2E2E2E2E2E2E2E2E2E2E2E2E2E2E2E2E2E2E2E2E2E2E2E2E2E2E2E2E2E2E2E2E2E2E2E2E2E2E2E2E2E2E2E2E2E2E2E2E2
310
E2E2E2E2E2E2E2E2E2E2E2E2E2E2E2E2E2E2E2E2E2E2E2E2E2E2E2E2E2E2E2E2E2E2E2E2E2E2E2E2E2E2E2E2E2E2E2E2E2E2E2E2E2E2E2E2E2E2E2E2E2E2E2E2E2E2E2E2E2E2E2E2E2E2E2E2E2E2E2E2E2E2E2E2E2E2E2E2E2E2E2E2E2E2E2E2E2E2E2E2E2E2E2E2E2E2E2E2E2E2E2E2E2E2E2E2E2E2E2E2E2E2E2E2E2E2E2
310
E2E2E2E2E2E2E2E2E2E2E2E2E2E2E2E2E2E2E2E2E2E2E2E2E2E2E2E2E2E2E2E2E2E2E2E2E2E2E2E2E2E2E2E2E2E2E2E2E2E2E2E2E2E2E2E2E2E2E2E2E2E2E2E2E2E2E2E2E2E2E2E2E2E2E2E2E2E2E2E2E2E2E2E2E2E2E2E2E2E2E2E2E2E2E2E2E2E2E2E2E2E2E2E2E2E2E2E2E2E2E2E2E2E2E2E2E2E2E2E2E2E2E2E2E2E2E2
310
E2E2E2E2E2E2E2E2E2E2E2E2E2E2E2E2E2E2E2E2E2E2E2E2E2E2E2E2E2E2E2E2E2E2E2E2E2E2E2E2E2E2E2E2E2E2E2E2E2E2E2E2E2E2E2E2E2E2E2E2E2E2E2E2E2E2E2E2E2E2E2E2E2E2E2E2E2E2E2E2E2E2E2E2E2E2E2E2E2E2E2E2E2E2E2E2E2E2E2E2E2E2E2E2E2E2E2E2E2E2E2E2E2E2E2E2E2E2E2E2E2E2E2E2E2E2E2
310
E2E2E2E2E2E2E2E2E2E2E2E2E2E2E2E2E2E2E2E2E2E2E2E2E2E2E2E2E2E2E2E2E2E2E2E2E2E2E2E2E2E2E2E2E2E2E2E2E2E2E2E2E2E2E2E2E2E2E2E2E2E2E2E2E2E2E2E2E2E2E2E2E2E2E2E2E2E2E2E2E2E2E2E2E2E2E2E2E2E2E2E2E2E2E2E2E2E2E2E2E2E2E2E2E2E2E2E2E2E2E2E2E2E2E2E2E2E2E2E2E2E2E2E2E2E2E2
310
E2E2E2E2E2E2E2E2E2E2E2E2E2E2E2E2E2E2E2E2E2E2E2E2E2E2E2E2E2E2E2E2E2E2E2E2E2E2E2E2E2E2E2E2E2E2E2E2E2E2E2E2E2E2E2E2E2E2E2E2E2E2E2E2E2E2E2E2E2E2E2E2E2E2E2E2E2E2E2E2E2E2E2E2E2E2E2E2E2E2E2E2E2E2E2E2E2E2E2E2E2E2E2E2E2E2E2E2E2E2E2E2E2E2E2E2E2E2E2E2E2E2E2E2E2E2E2
310
E2E2E2E2E2E2E2E2E2E2E2E2E2E2E2E2E2E2E2E2E2E2E2E2E2E2E2E2E2E2E2E2E2E2E2E2E2E2E2E2E2E2E2E2E2E2E2E2E2E2E2E2E2E2E2E2E2E2E2E2E2E2E2E2E2E2E2E2E2E2E2E2E2E2E2E2E2E2E2E2E2E2E2E2E2E2E2E2E2E2E2E2E2E2E2E2E2E2E2E2E2E2E2E2E2E2E2E2E2E2E2E2E2E2E2E2E2E2E2E2E2E2E2E2E2E2E2
310
E2E2E2E2E2E2E2E2E2E2E2E2E2E2E2E2E2E2E2E2E2E2E2E2E2E2E2E2E2E2E2E2E2E2E2E2E2E2E2E2E2E2E2E2E2E2E2E2E2E2E2E2E2E2E2E2E2E2E2E2E2E2E2E2E2E2E2E2E2E2E2E2E2E2E2E2E2E2E2E2E2E2E2E2E2E2E2E2E2E2E2E2E2E2E2E2E2E2E2E2E2E2E2E2E2E2E2E2E2E2E2E2E2E2E2E2E2E2E2E2E2E2E2E2E2E2E2
310
E2E2E2E2E2E2E2E2E2E2E2E2E2E2E2E2E2E2E2E2E2E2E2E2E2E2E2E2E2E2E2E2E2E2E2E2E2E2E2E2E2E2E2E2E2E2E2E2E2E2E2E2E2E2E2E2E2E2E2E2E2E2E2E2E2E2E2E2E2E2E2E2E2E2E2E2E2E2E2E2E2E2E2E2E2E2E2E2E2E2E2E2E2E2E2E2E2E2E2E2E2E2E2E2E2E2E2E2E2E2E2E2E2E2E2E2E2E2E2E2E2E2E2E2E2E2E2
310
E2E2E2E2E2E2E2E2E2E2E2E2E2E2E2E2E2E2E2E2E2E2E2E2E2E2E2E2E2E2E2E2E2E2E2E2E2E2E2E2E2E2E2E2E2E2E2E2E2E2E2E2E2E2E2E2E2E2E2E2E2E2E2E2E2E2E2E2E2E2E2E2E2E2E2E2E2E2E2E2E2E2E2E2E2E2E2E2E2E2E2E2E2E2E2E2E2E2E2E2E2E2E2E2E2E2E2E2E2E2E2E2E2E2E2E2E2E2E2E2E2E2E2E2E2E2E2
310
E2E2E2E2E2E2E2E2E2E2E2E2E2E2E2E2E2E2E2E2E2E2E2E2E2E2E2E2E2E2E2E2E2E2E2E2E2E2E2E2E2E2E2E2E2E2E2E2E2E2E2E2E2E2E2E2E2E2E2E2E2E2E2E2E2E2E2E2E2E2E2E2E2E2E2E2E2E2E2E2E2E2E2E2E2E2E2E2E2E2E2E2E2E2E2E2E2E2E2E2E2E2E2E2E2E2E2E2E2E2E2E2E2E2E2E2E2E2E2E2E2E2E2E2E2E2E2
310
E2E2E2E2E2E2E2E2E2E2E2E2E2E2E2E2E2E2E2E2E2E2E2E2E2E2E2E2E2E2E2E2E2E2E2E2E2E2E2E2E2E2E2E2E2E2E2E2E2E2E2E2E2E2E2E2E2E2E2E2E2E2E2E2E2E2E2E2E2E2E2E2E2E2E2E2E2E2E2E2E2E2E2E2E2E2E2E2E2E2E2E2E2E2E2E2E2E2E2E2E2E2E2E2E2E2E2E2E2E2E2E2E2E2E2E2E2E2E2E2E2E2E2E2E2E2E2
310
E2E2E2E2E2E2E2E2E2E2E2E2E2E2E2E2E2E2E2E2E2E2E2E2E2E2E2E2E2E2E2E2E2E2E2E2E2E2E2E2E2E2E2E2E2E2E2E2E2E2E2E2E2E2E2E2E2E2E2E2E2E2E2E2E2E2E2E2E2E2E2E2E2E2E2E2E2E2E2E2E2E2E2E2E2E2E2E2E2E2E2E2E2E2E2E2E2E2E2E2E2E2E2E2E2E2E2E2E2E2E2E2E2E2E2E2E2E2E2E2E2E2E2E2E2E2E2
310
E2E2E2E2E2E2E2E2E2E2E2E2E2E2E2E2E2E2E2E2E2E2E2E2E2E2E2E2E2E2E2E2E2E2E2E2E2E2E2E2E2E2E2E2E2E2E2E2E2E2E2E2E2E2E2E2E2E2E2E2E2E2E2E2E2E2E2E2E2E2E2E2E2E2E2E2E2E2E2E2E2E2E2E2E2E2E2E2E2E2E2E2E2E2E2E2E2E2E2E2E2E2E2E2E2E2E2E2E2E2E2E2E2E2E2E2E2E2E2E2E2E2E2E2E2E2E2
310
E2E2E2E2E2E2E2E2E2E2E2E2E2E2E2E2E2E2E2E2E2E2E2E2E2E2E2E2E2E2E2E2E2E2E2E2E2E2E2E2E2E2E2E2E2E2E2E2E2E2E2E2E2E2E2E2E2E2E2E2E2E2E2E2E2E2E2E2E2E2E2E2E2E2E2E2E2E2E2E2E2E2E2E2E2E2E2E2E2E2E2E2E2E2E2E2E2E2E2E2E2E2E2E2E2E2E2E2E2E2E2E2E2E2E2E2E2E2E2E2E2E2E2E2E2E2E2
310
E2E2E2E2E2E2E2E2E2E2E2E2E2E2E2E2E2E2E2E2E2E2E2E2E2E2E2E2E2E2E2E2E2E2E2E2E2E2E2E2E2E2E2E2E2E2E2E2E2E2E2E2E2E2E2E2E2E2E2E2E2E2E2E2E2E2E2E2E2E2E2E2E2E2E2E2E2E2E2E2E2E2E2E2E2E2E2E2E2E2E2E2E2E2E2E2E2E2E2E2E2E2E2E2E2E2E2E2E2E2E2E2E2E2E2E2E2E2E2E2E2E2E2E2E2E2E2
310
E2E2E2E2E2E2E2E2E2E2E2E2E2E2E2E2E2E2E2E2E2E2E2E2E2E2E2E2E2E2E2E2E2E2E2E2E2E2E2E2E2E2E2E2E2E2E2E2E2E2E2E2E2E2E2E2E2E2E2E2E2E2E2E2E2E2E2E2E2E2E2E2E2E2E2E2E2E2E2E2E2E2E2E2E2E2E2E2E2E2E2E2E2E2E2E2E2E2E2E2E2E2E2E2E2E2E2E2E2E2E2E2E2E2E2E2E2E2E2E2E2E2E2E2E2E2E2
310
E2E2E2E2E2E2E2E2E2E2E2E2E2E2E2E2E2E2E2E2E2E2E2E2E2E2E2E2E2E2E2E2E2E2E2E2E2E2E2E2E2E2E2E2E2E2E2E2E2E2E2E2E2E2E2E2E2E2E2E2E2E2E2E2E2E2E2E2E2E2E2E2E2E2E2E2E2E2E2E2E2E2E2E2E2E2E2E2E2E2E2E2E2E2E2E2E2E2E2E2E2E2E2E2E2E2E2E2E2E2E2E2E2E2E2E2E2E2E2E2E2E2E2E2E2E2E2
310
E2E2E2E2E2E2E2E2E2E2E2E2E2E2E2E2E2E2E2E2E2E2E2E2E2E2E2E2E2E2E2E2E2E2E2E2E2E2E2E2E2E2E2E2E2E2E2E2E2E2E2E2E2E2E2E2E2E2E2E2E2E2E2E2E2E2E2E2E2E2E2E2E2E2E2E2E2E2E2E2E2E2E2E2E2E2E2E2E2E2E2E2E2E2E2E2E2E2E2E2E2E2E2E2E2E2E2E2E2E2E2E2E2E2E2E2E2E2E2E2E2E2E2E2E2E2E2
310
E2E2E2E2E2E2E2E2E2E2E2E2E2E2E2E2E2E2E2E2E2E2E2E2E2E2E2E2E2E2E2E2E2E2E2E2E2E2E2E2E2E2E2E2E2E2E2E2E2E2E2E2E2E2E2E2E2E2E2E2E2E2E2E2E2E2E2E2E2E2E2E2E2E2E2E2E2E2E2E2E2E2E2E2E2E2E2E2E2E2E2E2E2E2E2E2E2E2E2E2E2E2E2E2E2E2E2E2E2E2E2E2E2E2E2E2E2E2E2E2E2E2E2E2E2E2E2
310
E2E2E2E2E2E2E2E2E2E2E2E2E2E2E2E2E2E2E2E2E2E2E2E2E2E2E2E2E2E2E2E2E2E2E2E2E2E2E2E2E2E2E2E2E2E2E2E2E2E2E2E2E2E2E2E2E2E2E2E2E2E2E2E2E2E2E2E2E2E2E2E2E2E2E2E2E2E2E2E2E2E2E2E2E2E2E2E2E2E2E2E2E2E2E2E2E2E2E2E2E2E2E2E2E2E2E2E2E2E2E2E2E2E2E2E2E2E2E2E2E2E2E2E2E2E2E2
310
E2E2E2E2E2E2E2E2E2E2E2E2E2E2E2E2E2E2E2E2E2E2E2E2E2E2E2E2E2E2E2E2E2E2E2E2E2E2E2E2E2E2E2E2E2E2E2E2E2E2E2E2E2E2E2E2E2E2E2E2E2E2E2E2E2E2E2E2E2E2E2E2E2E2E2E2E2E2E2E2E2E2E2E2E2E2E2E2E2E2E2E2E2E2E2E2E2E2E2E2E2E2E2E2E2E2E2E2E2E2E2E2E2E2E2E2E2E2E2E2E2E2E2E2E2E2E2
310
E2E2E2E2E2E2E2E2E2E2E2E2E2E2E2E2E2E2E2E2E2E2E2E2E2E2E2E2E2E2E2E2E2E2E2E2E2E2E2E2E2E2E2E2E2E2E2E2E2E2E2E2E2E2E2E2E2E2E2E2E2E2E2E2E2E2E2E2E2E2E2E2E2E2E2E2E2E2E2E2E2E2E2E2E2E2E2E2E2E2E2E2E2E2E2E2E2E2E2E2E2E2E2E2E2E2E2E2E2E2E2E2E2E2E2E2E2E2E2E2E2E2E2E2E2E2E2
310
E2E2E2E2E2E2E2E2E2E2E2E2E2E2E2E2E2E2E2E2E2E2E2E2E2E2E2E2E2E2E2E2E2E2E2E2E2E2E2E2E2E2E2E2E2E2E2E2E2E2E2E2E2E2E2E2E2E2E2E2E2E2E2E2E2E2E2E2E2E2E2E2E2E2E2E2E2E2E2E2E2E2E2E2E2E2E2E2E2E2E2E2E2E2E2E2E2E2E2E2E2E2E2E2E2E2E2E2E2E2E2E2E2E2E2E2E2E2E2E2E2E2E2E2E2E2E2
310
E2E2E2E2E2E2E2E2E2E2E2E2E2E2E2E2E2E2E2E2E2E2E2E2E2E2E2E2E2E2E2E2E2E2E2E2E2E2E2E2E2E2E2E2E2E2E2E2E2E2E2E2E2E2E2E2E2E2E2E2E2E2E2E2E2E2E2E2E2E2E2E2E2E2E2E2E2E2E2E2E2E2E2E2E2E2E2E2E2E2E2E2E2E2E2E2E2E2E2E2E2E2E2E2E2E2E2E2E2E2E2E2E2E2E2E2E2E2E2E2E2E2E2E2E2E2E2
310
E2E2E2E2E2E2E2E2E2E2E2E2E2E2E2E2E2E2E2E2E2E2E2E2E2E2E2E2E2E2E2E2E2E2E2E2E2E2E2E2E2E2E2E2E2E2E2E2E2E2E2E2E2E2E2E2E2E2E2E2E2E2E2E2E2E2E2E2E2E2E2E2E2E2E2E2E2E2E2E2E2E2E2E2E2E2E2E2E2E2E2E2E2E2E2E2E2E2E2E2E2E2E2E2E2E2E2E2E2E2E2E2E2E2E2E2E2E2E2E2E2E2E2E2E2E2E2
310
E2E2E2E2E2E2E2E2E2E2E2E2E2E2E2E2E2E2E2E2E2E2E2E2E2E2E2E2E2E2E2E2E2E2E2E2E2E2E2E2E2E2E2E2E2E2E2E2E2E2E2E2E2E2E2E2E2E2E2E2E2E2E2E2E2E2E2E2E2E2E2E2E2E2E2E2E2E2E2E2E2E2E2E2E2E2E2E2E2E2E2E2E2E2E2E2E2E2E2E2E2E2E2E2E2E2E2E2E2E2E2E2E2E2E2E2E2E2E2E2E2E2E2E2E2E2E2
310
E2E2E2E2E2E2E2E2E2E2E2E2E2E2E2E2E2E2E2E2E2E2E2E2E2E2E2E2E2E2E2E2E2E2E2E2E2E2E2E2E2E2E2E2E2E2E2E2E2E2E2E2E2E2E2E2E2E2E2E2E2E2E2E2E2E2E2E2E2E2E2E2E2E2E2E2E2E2E2E2E2E2E2E2E2E2E2E2E2E2E2E2E2E2E2E2E2E2E2E2E2E2E2E2E2E2E2E2E2E2E2E2E2E2E2E2E2E2E2E2E2E2E2E2E2E2E2
310
E2E2E2E2E2E2E2E2E2E2E2E2E2E2E2E2E2E2E2E2E2E2E2E2E2E2E2E2E2E2E2E2E2E2E2E2E2E2E2E2E2E2E2E2E2E2E2E2E2E2E2E2E2E2E2E2E2E2E2E2E2E2E2E2E2E2E2E2E2E2E2E2E2E2E2E2E2E2E2E2E2E2E2E2E2E2E2E2E2E2E2E2E2E2E2E2E2E2E2E2E2E2E2E2E2E2E2E2E2E2E2E2E2E2E2E2E2E2E2E2E2E2E2E2E2E2E2
310
E2E2E2E2E2E2E2E2E2E2E2E2E2E2E2E2E2E2E2E2E2E2E2E2E2E2E2E2E2E2E2E2E2E2E2E2E2E2E2E2E2E2E2E2E2E2E2E2E2E2E2E2E2E2E2E2E2E2E2E2E2E2E2E2E2E2E2E2E2E2E2E2E2E2E2E2E2E2E2E2E2E2E2E2E2E2E2E2E2E2E2E2E2E2E2E2E2E2E2E2E2E2E2E2E2E2E2E2E2E2E2E2E2E2E2E2E2E2E2E2E2E2E2E2E2E2E2
310
E2E2E2E2E2E2E2E2E2E2E2E2E2E2E2E2E2E2E2E2E2E2E2E2E2E2E2E2E2E2E2E2E2E2E2E2E2E2E2E2E2E2E2E2E2E2E2E2E2E2E2E2E2E2E2E2E2E2E2E2E2E2E2E2E2E2E2E2E2E2E2E2E2E2E2E2E2E2E2E2E2E2E2E2E2E2E2E2E2E2E2E2E2E2E2E2E2E2E2E2E2E2E2E2E2E2E2E2E2E2E2E2E2E2E2E2E2E2E2E2E2E2E2E2E2E2E2
310
E2E2E2E2E2E2E2E2E2E2E2E2E2E2E2E2E2E2E2E2E2E2E2E2E2E2E2E2E2E2E2E2E2E2E2E2E2E2E2E2E2E2E2E2E2E2E2E2E2E2E2E2E2E2E2E2E2E2E2E2E2E2E2E2E2E2E2E2E2E2E2E2E2E2E2E2E2E2E2E2E2E2E2E2E2E2E2E2E2E2E2E2E2E2E2E2E2E2E2E2E2E2E2E2E2E2E2E2E2E2E2E2E2E2E2E2E2E2E2E2E2E2E2E2E2E2E2
310
E2E2E2E2E2E2E2E2E2E2E2E2E2E2E2E2E2E2E2E2E2E2E2E2E2E2E2E2E2E2E2E2E2E2E2E2E2E2E2E2E2E2E2E2E2E2E2E2E2E2E2E2E2E2E2E2E2E2E2E2E2E2E2E2E2E2E2E2E2E2E2E2E2E2E2E2E2E2E2E2E2E2E2E2E2E2E2E2E2E2E2E2E2E2E2E2E2E2E2E2E2E2E2E2E2E2E2E2E2E2E2E2E2E2E2E2E2E2E2E2E2E2E2E2E2E2E2
310
E2E2E2E2E2E2E2E2E2E2E2E2E2E2E2E2E2E2E2E2E2E2E2E2E2E2E2E2E2E2E2E2E2E2E2E2E2E2E2E2E2E2E2E2E2E2E2E2E2E2E2E2E2E2E2E2E2E2E2E2E2E2E2E2E2E2E2E2E2E2E2E2E2E2E2E2E2E2E2E2E2E2E2E2E2E2E2E2E2E2E2E2E2E2E2E2E2E2E2E2E2E2E2E2E2E2E2E2E2E2E2E2E2E2E2E2E2E2E2E2E2E2E2E2E2E2E2
310
E2E2E2E2E2E2E2E2E2E2E2E2E2E2E2E2E2E2E2E2E2E2E2E2E2E2E2E2E2E2E2E2E2E2E2E2E2E2E2E2E2E2E2E2E2E2E2E2E2E2E2E2E2E2E2E2E2E2E2E2E2E2E2E2E2E2E2E2E2E2E2E2E2E2E2E2E2E2E2E2E2E2E2E2E2E2E2E2E2E2E2E2E2E2E2E2E2E2E2E2E2E2E2E2E2E2E2E2E2E2E2E2E2E2E2E2E2E2E2E2E2E2E2E2E2E2E2
310
E2E2E2E2E2E2E2E2E2E2E2E2E2E2E2E2E2E2E2E2E2E2E2E2E2E2E2E2E2E2E2E2E2E2E2E2E2E2E2E2E2E2E2E2E2E2E2E2E2E2E2E2E2E2E2E2E2E2E2E2E2E2E2E2E2E2E2E2E2E2E2E2E2E2E2E2E2E2E2E2E2E2E2E2E2E2E2E2E2E2E2E2E2E2E2E2E2E2E2E2E2E2E2E2E2E2E2E2E2E2E2E2E2E2E2E2E2E2E2E2E2E2E2E2E2E2E2
310
E2E2E2E2E2E2E2E2E2E2E2E2E2E2E2E2E2E2E2E2E2E2E2E2E2E2E2E2E2E2E2E2E2E2E2E2E2E2E2E2E2E2E2E2E2E2E2E2E2E2E2E2E2E2E2E2E2E2E2E2E2E2E2E2E2E2E2E2E2E2E2E2E2E2E2E2E2E2E2E2E2E2E2E2E2E2E2E2E2E2E2E2E2E2E2E2E2E2E2E2E2E2E2E2E2E2E2E2E2E2E2E2E2E2E2E2E2E2E2E2E2E2E2E2E2E2E2
310
E2E2E2E2E2E2E2E2E2E2E2E2E2E2E2E2E2E2E2E2E2E2E2E2E2E2E2E2E2E2E2E2E2E2E2E2E2E2E2E2E2E2E2E2E2E2E2E2E2E2E2E2E2E2E2E2E2E2E2E2E2E2E2E2E2E2E2E2E2E2E2E2E2E2E2E2E2E2E2E2E2E2E2E2E2E2E2E2E2E2E2E2E2E2E2E2E2E2E2E2E2E2E2E2E2E2E2E2E2E2E2E2E2E2E2E2E2E2E2E2E2E2E2E2E2E2E2
310
E2E2E2E2E2E2E2E2E2E2E2E2E2E2E2E2E2E2E2E2E2E2E2E2E2E2E2E2E2E2E2E2E2E2E2E2E2E2E2E2E2E2E2E2E2E2E2E2E2E2E2E2E2E2E2E2E2E2E2E2E2E2E2E2E2E2E2E2E2E2E2E2E2E2E2E2E2E2E2E2E2E2E2E2E2E2E2E2E2E2E2E2E2E2E2E2E2E2E2E2E2E2E2E2E2E2E2E2E2E2E2E2E2E2E2E2E2E2E2E2E2E2E2E2E2E2E2
310
E2E2E2E2E2E2E2E2E2E2E2E2E2E2E2E2E2E2E2E2E2E2E2E2E2E2E2E2E2E2E2E2E2E2E2E2E2E2E2E2E2E2E2E2E2E2E2E2E2E2E2E2E2E2E2E2E2E2E2E2E2E2E2E2E2E2E2E2E2E2E2E2E2E2E2E2E2E2E2E2E2E2E2E2E2E2E2E2E2E2E2E2E2E2E2E2E2E2E2E2E2E2E2E2E2E2E2E2E2E2E2E2E2E2E2E2E2E2E2E2E2E2E2E2E2E2E2
310
E2E2E2E2E2E2E2E2E2E2E2E2E2E2E2E2E2E2E2E2E2E2E2E2E2E2E2E2E2E2E2E2E2E2E2E2E2E2E2E2E2E2E2E2E2E2E2E2E2E2E2E2E2E2E2E2E2E2E2E2E2E2E2E2E2E2E2E2E2E2E2E2E2E2E2E2E2E2E2E2E2E2E2E2E2E2E2E2E2E2E2E2E2E2E2E2E2E2E2E2E2E2E2E2E2E2E2E2E2E2E2E2E2E2E2E2E2E2E2E2E2E2E2E2E2E2E2
310
E2E2E2E2E2E2E2E2E2E2E2E2E2E2E2E2E2E2E2E2E2E2E2E2E2E2E2E2E2E2E2E2E2E2E2E2E2E2E2E2E2E2E2E2E2E2E2E2E2E2E2E2E2E2E2E2E2E2E2E2E2E2E2E2E2E2E2E2E2E2E2E2E2E2E2E2E2E2E2E2E2E2E2E2E2E2E2E2E2E2E2E2E2E2E2E2E2E2E2E2E2E2E2E2E2E2E2E2E2E2E2E2E2E2E2E2E2E2E2E2E2E2E2E2E2E2E2
310
E2E2E2E2E2E2E2E2E2E2E2E2E2E2E2E2E2E2E2E2E2E2E2E2E2E2E2E2E2E2E2E2E2E2E2E2E2E2E2E2E2E2E2E2E2E2E2E2E2E2E2E2E2E2E2E2E2E2E2E2E2E2E2E2E2E2E2E2E2E2E2E2E2E2E2E2E2E2E2E2E2E2E2E2E2E2E2E2E2E2E2E2E2E2E2E2E2E2E2E2E2E2E2E2E2E2E2E2E2E2E2E2E2E2E2E2E2E2E2E2E2E2E2E2E2E2E2
310
E2E2E2E2E2E2E2E2E2E2E2E2E2E2E2E2E2E2E2E2E2E2E2E2E2E2E2E2E2E2E2E2E2E2E2E2E2E2E2E2E2E2E2E2E2E2E2E2E2E2E2E2E2E2E2E2E2E2E2E2E2E2E2E2E2E2E2E2E2E2E2E2E2E2E2E2E2E2E2E2E2E2E2E2E2E2E2E2E2E2E2E2E2E2E2E2E2E2E2E2E2E2E2E2E2E2E2E2E2E2E2E2E2E2E2E2E2E2E2E2E2E2E2E2E2E2E2
310
E2E2E2E2E2E2E2E2E2E2E2E2E2E2E2E2E2E2E2E2E2E2E2E2E2E2E2E2E2E2E2E2E2E2E2E2E2E2E2E2E2E2E2E2E2E2E2E2E2E2E2E2E2E2E2E2E2E2E2E2E2E2E2E2E2E2E2E2E2E2E2E2E2E2E2E2E2E2E2E2E2E2E2E2E2E2E2E2E2E2E2E2E2E2E2E2E2E2E2E2E2E2E2E2E2E2E2E2E2E2E2E2E2E2E2E2E2E2E2E2E2E2E2E2E2E2E2
310
E2E2E2E2E2E2E2E2E2E2E2E2E2E2E2E2E2E2E2E2E2E2E2E2E2E2E2E2E2E2E2E2E2E2E2E2E2E2E2E2E2E2E2E2E2E2E2E2E2E2E2E2E2E2E2E2E2E2E2E2E2E2E2E2E2E2E2E2E2E2E2E2E2E2E2E2E2E2E2E2E2E2E2E2E2E2E2E2E2E2E2E2E2E2E2E2E2E2E2E2E2E2E2E2E2E2E2E2E2E2E2E2E2E2E2E2E2E2E2E2E2E2E2E2E2E2E2
310
E2E2E2E2E2E2E2E2E2E2E2E2E2E2E2E2E2E2E2E2E2E2E2E2E2E2E2E2E2E2E2E2E2E2E2E2E2E2E2E2E2E2E2E2E2E2E2E2E2E2E2E2E2E2E2E2E2E2E2E2E2E2E2E2E2E2E2E2E2E2E2E2E2E2E2E2E2E2E2E2E2E2E2E2E2E2E2E2E2E2E2E2E2E2E2E2E2E2E2E2E2E2E2E2E2E2E2E2E2E2E2E2E2E2E2E2E2E2E2E2E2E2E2E2E2E2E2
310
E2E2E2E2E2E2E2E2E2E2E2E2E2E2E2E2E2E2E2E2E2E2E2E2E2E2E2E2E2E2E2E2E2E2E2E2E2E2E2E2E2E2E2E2E2E2E2E2E2E2E2E2E2E2E2E2E2E2E2E2E2E2E2E2E2E2E2E2E2E2E2E2E2E2E2E2E2E2E2E2E2E2E2E2E2E2E2E2E2E2E2E2E2E2E2E2E2E2E2E2E2E2E2E2E2E2E2E2E2E2E2E2E2E2E2E2E2E2E2E2E2E2E2E2E2E2E2
310
E2E2E2E2E2E2E2E2E2E2E2E2E2E2E2E2E2E2E2E2E2E2E2E2E2E2E2E2E2E2E2E2E2E2E2E2E2E2E2E2E2E2E2E2E2E2E2E2E2E2E2E2E2E2E2E2E2E2E2E2E2E2E2E2E2E2E2E2E2E2E2E2E2E2E2E2E2E2E2E2E2E2E2E2E2E2E2E2E2E2E2E2E2E2E2E2E2E2E2E2E2E2E2E2E2E2E2E2E2E2E2E2E2E2E2E2E2E2E2E2E2E2E2E2E2E2E2
310
E2E2E2E2E2E2E2E2E2E2E2E2E2E2E2E2E2E2E2E2E2E2E2E2E2E2E2E2E2E2E2E2E2E2E2E2E2E2E2E2E2E2E2E2E2E2E2E2E2E2E2E2E2E2E2E2E2E2E2E2E2E2E2E2E2E2E2E2E2E2E2E2E2E2E2E2E2E2E2E2E2E2E2E2E2E2E2E2E2E2E2E2E2E2E2E2E2E2E2E2E2E2E2E2E2E2E2E2E2E2E2E2E2E2E2E2E2E2E2E2E2E2E2E2E2E2E2
310
E2E2E2E2E2E2E2E2E2E2E2E2E2E2E2E2E2E2E2E2E2E2E2E2E2E2E2E2E2E2E2E2E2E2E2E2E2E2E2E2E2E2E2E2E2E2E2E2E2E2E2E2E2E2E2E2E2E2E2E2E2E2E2E2E2E2E2E2E2E2E2E2E2E2E2E2E2E2E2E2E2E2E2E2E2E2E2E2E2E2E2E2E2E2E2E2E2E2E2E2E2E2E2E2E2E2E2E2E2E2E2E2E2E2E2E2E2E2E2E2E2E2E2E2E2E2E2
310
E2E2E2E2E2E2E2E2E2E2E2E2E2E2E2E2E2E2E2E2E2E2E2E2E2E2E2E2E2E2E2E2E2E2E2E2E2E2E2E2E2E2E2E2E2E2E2E2E2E2E2E2E2E2E2E2E2E2E2E2E2E2E2E2E2E2E2E2E2E2E2E2E2E2E2E2E2E2E2E2E2E2E2E2E2E2E2E2E2E2E2E2E2E2E2E2E2E2E2E2E2E2E2E2E2E2E2E2E2E2E2E2E2E2E2E2E2E2E2E2E2E2E2E2E2E2E2
310
E2E2E2E2E2E2E2E2E2E2E2E2E2E2E2E2E2E2E2E2E2E2E2E2E2E2E2E2E2E2E2E2E2E2E2E2E2E2E2E2E2E2E2E2E2E2E2E2E2E2E2E2E2E2E2E2E2E2E2E2E2E2E2E2E2E2E2E2E2E2E2E2E2E2E2E2E2E2E2E2E2E2E2E2E2E2E2E2E2E2E2E2E2E2E2E2E2E2E2E2E2E2E2E2E2E2E2E2E2E2E2E2E2E2E2E2E2E2E2E2E2E2E2E2E2E2E2
310
E2E2E2E2E2E2E2E2E2E2E2E2E2E2E2E2E2E2E2E2E2E2E2E2E2E2E2E2E2E2E2E2E2E2E2E2E2E2E2E2E2E2E2E2E2E2E2E2E2E2E2E2E2E2E2E2E2E2E2E2E2E2E2E2E2E2E2E2E2E2E2E2E2E2E2E2E2E2E2E2E2E2E2E2E2E2E2E2E2E2E2E2E2E2E2E2E2E2E2E2E2E2E2E2E2E2E2E2E2E2E2E2E2E2E2E2E2E2E2E2E2E2E2E2E2E2E2
310
E2E2E2E2E2E2E2E2E2E2E2E2E2E2E2E2E2E2E2E2E2E2E2E2E2E2E2E2E2E2E2E2E2E2E2E2E2E2E2E2E2E2E2E2E2E2E2E2E2E2E2E2E2E2E2E2E2E2E2E2E2E2E2E2E2E2E2E2E2E2E2E2E2E2E2E2E2E2E2E2E2E2E2E2E2E2E2E2E2E2E2E2E2E2E2E2E2E2E2E2E2E2E2E2E2E2E2E2E2E2E2E2E2E2E2E2E2E2E2E2E2E2E2E2E2E2E2
310
E2E2E2E2E2E2E2E2E2E2E2E2E2E2E2E2E2E2E2E2E2E2E2E2E2E2E2E2E2E2E2E2E2E2E2E2E2E2E2E2E2E2E2E2E2E2E2E2E2E2E2E2E2E2E2E2E2E2E2E2E2E2E2E2E2E2E2E2E2E2E2E2E2E2E2E2E2E2E2E2E2E2E2E2E2E2E2E2E2E2E2E2E2E2E2E2E2E2E2E2E2E2E2E2E2E2E2E2E2E2E2E2E2E2E2E2E2E2E2E2E2E2E2E2E2E2E2
310
E2E2E2E2E2E2E2E2E2E2E2E2E2E2E2E2E2E2E2E2E2E2E2E2E2E2E2E2E2E2E2E2E2E2E2E2E2E2E2E2E2E2E2E2E2E2E2E2E2E2E2E2E2E2E2E2E2E2E2E2E2E2E2E2E2E2E2E2E2E2E2E2E2E2E2E2E2E2E2E2E2E2E2E2E2E2E2E2E2E2E2E2E2E2E2E2E2E2E2E2E2E2E2E2E2E2E2E2E2E2E2E2E2E2E2E2E2E2E2E2E2E2E2E2E2E2E2
310
E2E2E2E2E2E2E2E2E2E2E2E2E2E2E2E2E2E2E2E2E2E2E2E2E2E2E2E2E2E2E2E2E2E2E2E2E2E2E2E2E2E2E2E2E2E2E2E2E2E2E2E2E2E2E2E2E2E2E2E2E2E2E2E2E2E2E2E2E2E2E2E2E2E2E2E2E2E2E2E2E2E2E2E2E2E2E2E2E2E2E2E2E2E2E2E2E2E2E2E2E2E2E2E2E2E2E2E2E2E2E2E2E2E2E2E2E2E2E2E2E2E2E2E2E2E2E2
310
E2E2E2E2E2E2E2E2E2E2E2E2E2E2E2E2E2E2E2E2E2E2E2E2E2E2E2E2E2E2E2E2E2E2E2E2E2E2E2E2E2E2E2E2E2E2E2E2E2E2E2E2E2E2E2E2E2E2E2E2E2E2E2E2E2E2E2E2E2E2E2E2E2E2E2E2E2E2E2E2E2E2E2E2E2E2E2E2E2E2E2E2E2E2E2E2E2E2E2E2E2E2E2E2E2E2E2E2E2E2E2E2E2E2E2E2E2E2E2E2E2E2E2E2E2E2E2
310
E2E2E2E2E2E2E2E2E2E2E2E2E2E2E2E2E2E2E2E2E2E2E2E2E2E2E2E2E2E2E2E2E2E2E2E2E2E2E2E2E2E2E2E2E2E2E2E2E2E2E2E2E2E2E2E2E2E2E2E2E2E2E2E2E2E2E2E2E2E2E2E2E2E2E2E2E2E2E2E2E2E2E2E2E2E2E2E2E2E2E2E2E2E2E2E2E2E2E2E2E2E2E2E2E2E2E2E2E2E2E2E2E2E2E2E2E2E2E2E2E2E2E2E2E2E2E2
310
E2E2E2E2E2E2E2E2E2E2E2E2E2E2E2E2E2E2E2E2E2E2E2E2E2E2E2E2E2E2E2E2E2E2E2E2E2E2E2E2E2E2E2E2E2E2E2E2E2E2E2E2E2E2E2E2E2E2E2E2E2E2E2E2E2E2E2E2E2E2E2E2E2E2E2E2E2E2E2E2E2E2E2E2E2E2E2E2E2E2E2E2E2E2E2E2E2E2E2E2E2E2E2E2E2E2E2E2E2E2E2E2E2E2E2E2E2E2E2E2E2E2E2E2E2E2E2
310
E2E2E2E2E2E2E2E2E2E2E2E2E2E2E2E2E2E2E2E2E2E2E2E2E2E2E2E2E2E2E2E2E2E2E2E2E2E2E2E2E2E2E2E2E2E2E2E2E2E2E2E2E2E2E2E2E2E2E2E2E2E2E2E2E2E2E2E2E2E2E2E2E2E2E2E2E2E2E2E2E2E2E2E2E2E2E2E2E2E2E2E2E2E2E2E2E2E2E2E2E2E2E2E2E2E2E2E2E2E2E2E2E2E2E2E2E2E2E2E2E2E2E2E2E2E2E2
310
E2E2E2E2E2E2E2E2E2E2E2E2E2E2E2E2E2E2E2E2E2E2E2E2E2E2E2E2E2E2E2E2E2E2E2E2E2E2E2E2E2E2E2E2E2E2E2E2E2E2E2E2E2E2E2E2E2E2E2E2E2E2E2E2E2E2E2E2E2E2E2E2E2E2E2E2E2E2E2E2E2E2E2E2E2E2E2E2E2E2E2E2E2E2E2E2E2E2E2E2E2E2E2E2E2E2E2E2E2E2E2E2E2E2E2E2E2E2E2E2E2E2E2E2E2E2E2
310
E2E2E2E2E2E2E2E2E2E2E2E2E2E2E2E2E2E2E2E2E2E2E2E2E2E2E2E2E2E2E2E2E2E2E2E2E2E2E2E2E2E2E2E2E2E2E2E2E2E2E2E2E2E2E2E2E2E2E2E2E2E2E2E2E2E2E2E2E2E2E2E2E2E2E2E2E2E2E2E2E2E2E2E2E2E2E2E2E2E2E2E2E2E2E2E2E2E2E2E2E2E2E2E2E2E2E2E2E2E2E2E2E2E2E2E2E2E2E2E2E2E2E2E2E2E2E2
310
E2E2E2E2E2E2E2E2E2E2E2E2E2E2E2E2E2E2E2E2E2E2E2E2E2E2E2E2E2E2E2E2E2E2E2E2E2E2E2E2E2E2E2E2E2E2E2E2E2E2E2E2E2E2E2E2E2E2E2E2E2E2E2E2E2E2E2E2E2E2E2E2E2E2E2E2E2E2E2E2E2E2E2E2E2E2E2E2E2E2E2E2E2E2E2E2E2E2E2E2E2E2E2E2E2E2E2E2E2E2E2E2E2E2E2E2E2E2E2E2E2E2E2E2E2E2E2
310
E2E2E2E2E2E2E2E2E2E2E2E2E2E2E2E2E2E2E2E2E2E2E2E2E2E2E2E2E2E2E2E2E2E2E2E2E2E2E2E2E2E2E2E2E2E2E2E2E2E2E2E2E2E2E2E2E2E2E2E2E2E2E2E2E2E2E2E2E2E2E2E2E2E2E2E2E2E2E2E2E2E2E2E2E2E2E2E2E2E2E2E2E2E2E2E2E2E2E2E2E2E2E2E2E2E2E2E2E2E2E2E2E2E2E2E2E2E2E2E2E2E2E2E2E2E2E2
310
E2E2E2E2E2E2E2E2E2E2E2E2E2E2E2E2E2E2E2E2E2E2E2E2E2E2E2E2E2E2E2E2E2E2E2E2E2E2E2E2E2E2E2E2E2E2E2E2E2E2E2E2E2E2E2E2E2E2E2E2E2E2E2E2E2E2E2E2E2E2E2E2E2E2E2E2E2E2E2E2E2E2E2E2E2E2E2E2E2E2E2E2E2E2E2E2E2E2E2E2E2E2E2E2E2E2E2E2E2E2E2E2E2E2E2E2E2E2E2E2E2E2E2E2E2E2E2
310
E2E2E2E2E2E2E2E2E2E2E2E2E2E2E2E2E2E2E2E2E2E2E2E2E2E2E2E2E2E2E2E2E2E2E2E2E2E2E2E2E2E2E2E2E2E2E2E2E2E2E2E2E2E2E2E2E2E2E2E2E2E2E2E2E2E2E2E2E2E2E2E2E2E2E2E2E2E2E2E2E2E2E2E2E2E2E2E2E2E2E2E2E2E2E2E2E2E2E2E2E2E2E2E2E2E2E2E2E2E2E2E2E2E2E2E2E2E2E2E2E2E2E2E2E2E2E2
310
E2E2E2E2E2E2E2E2E2E2E2E2E2E2E2E2E2E2E2E2E2E2E2E2E2E2E2E2E2E2E2E2E2E2E2E2E2E2E2E2E2E2E2E2E2E2E2E2E2E2E2E2E2E2E2E2E2E2E2E2E2E2E2E2E2E2E2E2E2E2E2E2E2E2E2E2E2E2E2E2E2E2E2E2E2E2E2E2E2E2E2E2E2E2E2E2E2E2E2E2E2E2E2E2E2E2E2E2E2E2E2E2E2E2E2E2E2E2E2E2E2E2E2E2E2E2E2
310
E2E2E2E2E2E2E2E2E2E2E2E2E2E2E2E2E2E2E2E2E2E2E2E2E2E2E2E2E2E2E2E2E2E2E2E2E2E2E2E2E2E2E2E2E2E2E2E2E2E2E2E2E2E2E2E2E2E2E2E2E2E2E2E2E2E2E2E2E2E2E2E2E2E2E2E2E2E2E2E2E2E2E2E2E2E2E2E2E2E2E2E2E2E2E2E2E2E2E2E2E2E2E2E2E2E2E2E2E2E2E2E2E2E2E2E2E2E2E2E2E2E2E2E2E2E2E2
310
E2E2E2E2E2E2E2E2E2E2E2E2E2E2E2E2E2E2E2E2E2E2E2E2E2E2E2E2E2E2E2E2E2E2E2E2E2E2E2E2E2E2E2E2E2E2E2E2E2E2E2E2E2E2E2E2E2E2E2E2E2E2E2E2E2E2E2E2E2E2E2E2E2E2E2E2E2E2E2E2E2E2E2E2E2E2E2E2E2E2E2E2E2E2E2E2E2E2E2E2E2E2E2E2E2E2E2E2E2E2E2E2E2E2E2E2E2E2E2E2E2E2E2E2E2E2E2
310
E2E2E2E2E2E2E2E2E2E2E2E2E2E2E2E2E2E2E2E2E2E2E2E2E2E2E2E2E2E2E2E2E2E2E2E2E2E2E2E2E2E2E2E2E2E2E2E2E2E2E2E2E2E2E2E2E2E2E2E2E2E2E2E2E2E2E2E2E2E2E2E2E2E2E2E2E2E2E2E2E2E2E2E2E2E2E2E2E2E2E2E2E2E2E2E2E2E2E2E2E2E2E2E2E2E2E2E2E2E2E2E2E2E2E2E2E2E2E2E2E2E2E2E2E2E2E2
310
E2E2E2E2E2E2E2E2E2E2E2E2E2E2E2E2E2E2E2E2E2E2E2E2E2E2E2E2E2E2E2E2E2E2E2E2E2E2E2E2E2E2E2E2E2E2E2E2E2E2E2E2E2E2E2E2E2E2E2E2E2E2E2E2E2E2E2E2E2E2E2E2E2E2E2E2E2E2E2E2E2E2E2E2E2E2E2E2E2E2E2E2E2E2E2E2E2E2E2E2E2E2E2E2E2E2E2E2E2E2E2E2E2E2E2E2E2E2E2E2E2E2E2E2E2E2E2
310
E2E2E2E2E2E2E2E2E2E2E2E2E2E2E2E2E2E2E2E2E2E2E2E2E2E2E2E2E2E2E2E2E2E2E2E2E2E2E2E2E2E2E2E2E2E2E2E2E2E2E2E2E2E2E2E2E2E2E2E2E2E2E2E2E2E2E2E2E2E2E2E2E2E2E2E2E2E2E2E2E2E2E2E2E2E2E2E2E2E2E2E2E2E2E2E2E2E2E2E2E2E2E2E2E2E2E2E2E2E2E2E2E2E2E2E2E2E2E2E2E2E2E2E2E2E2E2
310
E2E2E2E2E2E2E2E2E2E2E2E2E2E2E2E2E2E2E2E2E2E2E2E2E2E2E2E2E2E2E2E2E2E2E2E2E2E2E2E2E2E2E2E2E2E2E2E2E2E2E2E2E2E2E2E2E2E2E2E2E2E2E2E2E2E2E2E2E2E2E2E2E2E2E2E2E2E2E2E2E2E2E2E2E2E2E2E2E2E2E2E2E2E2E2E2E2E2E2E2E2E2E2E2E2E2E2E2E2E2E2E2E2E2E2E2E2E2E2E2E2E2E2E2E2E2E2
310
E2E2E2E2E2E2E2E2E2E2E2E2E2E2E2E2E2E2E2E2E2E2E2E2E2E2E2E2E2E2E2E2E2E2E2E2E2E2E2E2E2E2E2E2E2E2E2E2E2E2E2E2E2E2E2E2E2E2E2E2E2E2E2E2E2E2E2E2E2E2E2E2E2E2E2E2E2E2E2E2E2E2E2E2E2E2E2E2E2E2E2E2E2E2E2E2E2E2E2E2E2E2E2E2E2E2E2E2E2E2E2E2E2E2E2E2E2E2E2E2E2E2E2E2E2E2E2
310
E2E2E2E2E2E2E2E2E2E2E2E2E2E2E2E2E2E2E2E2E2E2E2E2E2E2E2E2E2E2E2E2E2E2E2E2E2E2E2E2E2E2E2E2E2E2E2E2E2E2E2E2E2E2E2E2E2E2E2E2E2E2E2E2E2E2E2E2E2E2E2E2E2E2E2E2E2E2E2E2E2E2E2E2E2E2E2E2E2E2E2E2E2E2E2E2E2E2E2E2E2E2E2E2E2E2E2E2E2E2E2E2E2E2E2E2E2E2E2E2E2E2E2E2E2E2E2
310
E2E2E2E2E2E2E2E2E2E2E2E2E2E2E2E2E2E2E2E2E2E2E2E2E2E2E2E2E2E2E2E2E2E2E2E2E2E2E2E2E2E2E2E2E2E2E2E2E2E2E2E2E2E2E2E2E2E2E2E2E2E2E2E2E2E2E2E2E2E2E2E2E2E2E2E2E2E2E2E2E2E2E2E2E2E2E2E2E2E2E2E2E2E2E2E2E2E2E2E2E2E2E2E2E2E2E2E2E2E2E2E2E2E2E2E2E2E2E2E2E2E2E2E2E2E2E2
310
E2E2E2E2E2E2E2E2E2E2E2E2E2E2E2E2E2E2E2E2E2E2E2E2E2E2E2E2E2E2E2E2E2E2E2E2E2E2E2E2E2E2E2E2E2E2E2E2E2E2E2E2E2E2E2E2E2E2E2E2E2E2E2E2E2E2E2E2E2E2E2E2E2E2E2E2E2E2E2E2E2E2E2E2E2E2E2E2E2E2E2E2E2E2E2E2E2E2E2E2E2E2E2E2E2E2E2E2E2E2E2E2E2E2E2E2E2E2E2E2E2E2E2E2E2E2E2
310
E2E2E2E2E2E2E2E2E2E2E2E2E2E2E2E2E2E2E2E2E2E2E2E2E2E2E2E2E2E2E2E2E2E2E2E2E2E2E2E2E2E2E2E2E2E2E2E2E2E2E2E2E2E2E2E2E2E2E2E2E2E2E2E2E2E2E2E2E2E2E2E2E2E2E2E2E2E2E2E2E2E2E2E2E2E2E2E2E2E2E2E2E2E2E2E2E2E2E2E2E2E2E2E2E2E2E2E2E2E2E2E2E2E2E2E2E2E2E2E2E2E2E2E2E2E2E2
310
E2E2E2E2E2E2E2E2E2E2E2E2E2E2E2E2E2E2E2E2E2E2E2E2E2E2E2E2E2E2E2E2E2E2E2E2E2E2E2E2E2E2E2E2E2E2E2E2E2E2E2E2E2E2E2E2E2E2E2E2E2E2E2E2E2E2E2E2E2E2E2E2E2E2E2E2E2E2E2E2E2E2E2E2E2E2E2E2E2E2E2E2E2E2E2E2E2E2E2E2E2E2E2E2E2E2E2E2E2E2E2E2E2E2E2E2E2E2E2E2E2E2E2E2E2E2E2
310
E2E2E2E2E2E2E2E2E2E2E2E2E2E2E2E2E2E2E2E2E2E2E2E2E2E2E2E2E2E2E2E2E2E2E2E2E2E2E2E2E2E2E2E2E2E2E2E2E2E2E2E2E2E2E2E2E2E2E2E2E2E2E2E2E2E2E2E2E2E2E2E2E2E2E2E2E2E2E2E2E2E2E2E2E2E2E2E2E2E2E2E2E2E2E2E2E2E2E2E2E2E2E2E2E2E2E2E2E2E2E2E2E2E2E2E2E2E2E2E2E2E2E2E2E2E2E2
310
E2E2E2E2E2E2E2E2E2E2E2E2E2E2E2E2E2E2E2E2E2E2E2E2E2E2E2E2E2E2E2E2E2E2E2E2E2E2E2E2E2E2E2E2E2E2E2E2E2E2E2E2E2E2E2E2E2E2E2E2E2E2E2E2E2E2E2E2E2E2E2E2E2E2E2E2E2E2E2E2E2E2E2E2E2E2E2E2E2E2E2E2E2E2E2E2E2E2E2E2E2E2E2E2E2E2E2E2E2E2E2E2E2E2E2E2E2E2E2E2E2E2E2E2E2E2E2
310
E2E2E2E2E2E2E2E2E2E2E2E2E2E2E2E2E2E2E2E2E2E2E2E2E2E2E2E2E2E2E2E2E2E2E2E2E2E2E2E2E2E2E2E2E2E2E2E2E2E2E2E2E2E2E2E2E2E2E2E2E2E2E2E2E2E2E2E2E2E2E2E2E2E2E2E2E2E2E2E2E2E2E2E2E2E2E2E2E2E2E2E2E2E2E2E2E2E2E2E2E2E2E2E2E2E2E2E2E2E2E2E2E2E2E2E2E2E2E2E2E2E2E2E2E2E2E2
310
E2E2E2E2E2E2E2E2E2E2E2E2E2E2E2E2E2E2E2E2E2E2E2E2E2E2E2E2E2E2E2E2E2E2E2E2E2E2E2E2E2E2E2E2E2E2E2E2E2E2E2E2E2E2E2E2E2E2E2E2E2E2E2E2E2E2E2E2E2E2E2E2E2E2E2E2E2E2E2E2E2E2E2E2E2E2E2E2E2E2E2E2E2E2E2E2E2E2E2E2E2E2E2E2E2E2E2E2E2E2E2E2E2E2E2E2E2E2E2E2E2E2E2E2E2E2E2
310
E2E2E2E2E2E2E2E2E2E2E2E2E2E2E2E2E2E2E2E2E2E2E2E2E2E2E2E2E2E2E2E2E2E2E2E2E2E2E2E2E2E2E2E2E2E2E2E2E2E2E2E2E2E2E2E2E2E2E2E2E2E2E2E2E2E2E2E2E2E2E2E2E2E2E2E2E2E2E2E2E2E2E2E2E2E2E2E2E2E2E2E2E2E2E2E2E2E2E2E2E2E2E2E2E2E2E2E2E2E2E2E2E2E2E2E2E2E2E2E2E2E2E2E2E2E2E2
310
E2E2E2E2E2E2E2E2E2E2E2E2E2E2E2E2E2E2E2E2E2E2E2E2E2E2E2E2E2E2E2E2E2E2E2E2E2E2E2E2E2E2E2E2E2E2E2E2E2E2E2E2E2E2E2E2E2E2E2E2E2E2E2E2E2E2E2E2E2E2E2E2E2E2E2E2E2E2E2E2E2E2E2E2E2E2E2E2E2E2E2E2E2E2E2E2E2E2E2E2E2E2E2E2E2E2E2E2E2E2E2E2E2E2E2E2E2E2E2E2E2E2E2E2E2E2E2
310
E2E2E2E2E2E2E2E2E2E2E2E2E2E2E2E2E2E2E2E2E2E2E2E2E2E2E2E2E2E2E2E2E2E2E2E2E2E2E2E2E2E2E2E2E2E2E2E2E2E2E2E2E2E2E2E2E2E2E2E2E2E2E2E2E2E2E2E2E2E2E2E2E2E2E2E2E2E2E2E2E2E2E2E2E2E2E2E2E2E2E2E2E2E2E2E2E2E2E2E2E2E2E2E2E2E2E2E2E2E2E2E2E2E2E2E2E2E2E2E2E2E2E2E2E2E2E2
310
E2E2E2E2E2E2E2E2E2E2E2E2E2E2E2E2E2E2E2E2E2E2E2E2E2E2E2E2E2E2E2E2E2E2E2E2E2E2E2E2E2E2E2E2E2E2E2E2E2E2E2E2E2E2E2E2E2E2E2E2E2E2E2E2E2E2E2E2E2E2E2E2E2E2E2E2E2E2E2E2E2E2E2E2E2E2E2E2E2E2E2E2E2E2E2E2E2E2E2E2E2E2E2E2E2E2E2E2E2E2E2E2E2E2E2E2E2E2E2E2E2E2E2E2E2E2E2
310
E2E2E2E2E2E2E2E2E2E2E2E2E2E2E2E2E2E2E2E2E2E2E2E2E2E2E2E2E2E2E2E2E2E2E2E2E2E2E2E2E2E2E2E2E2E2E2E2E2E2E2E2E2E2E2E2E2E2E2E2E2E2E2E2E2E2E2E2E2E2E2E2E2E2E2E2E2E2E2E2E2E2E2E2E2E2E2E2E2E2E2E2E2E2E2E2E2E2E2E2E2E2E2E2E2E2E2E2E2E2E2E2E2E2E2E2E2E2E2E2E2E2E2E2E2E2E2
310
E2E2E2E2E2E2E2E2E2E2E2E2E2E2E2E2E2E2E2E2E2E2E2E2E2E2E2E2E2E2E2E2E2E2E2E2E2E2E2E2E2E2E2E2E2E2E2E2E2E2E2E2E2E2E2E2E2E2E2E2E2E2E2E2E2E2E2E2E2E2E2E2E2E2E2E2E2E2E2E2E2E2E2E2E2E2E2E2E2E2E2E2E2E2E2E2E2E2E2E2E2E2E2E2E2E2E2E2E2E2E2E2E2E2E2E2E2E2E2E2E2E2E2E2E2E2E2
310
E2E2E2E2E2E2E2E2E2E2E2E2E2E2E2E2E2E2E2E2E2E2E2E2E2E2E2E2E2E2E2E2E2E2E2E2E2E2E2E2E2E2E2E2E2E2E2E2E2E2E2E2E2E2E2E2E2E2E2E2E2E2E2E2E2E2E2E2E2E2E2E2E2E2E2E2E2E2E2E2E2E2E2E2E2E2E2E2E2E2E2E2E2E2E2E2E2E2E2E2E2E2E2E2E2E2E2E2E2E2E2E2E2E2E2E2E2E2E2E2E2E2E2E2E2E2E2
310
E2E2E2E2E2E2E2E2E2E2E2E2E2E2E2E2E2E2E2E2E2E2E2E2E2E2E2E2E2E2E2E2E2E2E2E2E2E2E2E2E2E2E2E2E2E2E2E2E2E2E2E2E2E2E2E2E2E2E2E2E2E2E2E2E2E2E2E2E2E2E2E2E2E2E2E2E2E2E2E2E2E2E2E2E2E2E2E2E2E2E2E2E2E2E2E2E2E2E2E2E2E2E2E2E2E2E2E2E2E2E2E2E2E2E2E2E2E2E2E2E2E2E2E2E2E2E2
310
E2E2E2E2E2E2E2E2E2E2E2E2E2E2E2E2E2E2E2E2E2E2E2E2E2E2E2E2E2E2E2E2E2E2E2E2E2E2E2E2E2E2E2E2E2E2E2E2E2E2E2E2E2E2E2E2E2E2E2E2E2E2E2E2E2E2E2E2E2E2E2E2E2E2E2E2E2E2E2E2E2E2E2E2E2E2E2E2E2E2E2E2E2E2E2E2E2E2E2E2E2E2E2E2E2E2E2E2E2E2E2E2E2E2E2E2E2E2E2E2E2E2E2E2E2E2E2
310
E2E2E2E2E2E2E2E2E2E2E2E2E2E2E2E2E2E2E2E2E2E2E2E2E2E2E2E2E2E2E2E2E2E2E2E2E2E2E2E2E2E2E2E2E2E2E2E2E2E2E2E2E2E2E2E2E2E2E2E2E2E2E2E2E2E2E2E2E2E2E2E2E2E2E2E2E2E2E2E2E2E2E2E2E2E2E2E2E2E2E2E2E2E2E2E2E2E2E2E2E2E2E2E2E2E2E2E2E2E2E2E2E2E2E2E2E2E2E2E2E2E2E2E2E2E2E2
310
E2E2E2E2E2E2E2E2E2E2E2E2E2E2E2E2E2E2E2E2E2E2E2E2E2E2E2E2E2E2E2E2E2E2E2E2E2E2E2E2E2E2E2E2E2E2E2E2E2E2E2E2E2E2E2E2E2E2E2E2E2E2E2E2E2E2E2E2E2E2E2E2E2E2E2E2E2E2E2E2E2E2E2E2E2E2E2E2E2E2E2E2E2E2E2E2E2E2E2E2E2E2E2E2E2E2E2E2E2E2E2E2E2E2E2E2E2E2E2E2E2E2E2E2E2E2E2
310
E2E2E2E2E2E2E2E2E2E2E2E2E2E2E2E2E2E2E2E2E2E2E2E2E2E2E2E2E2E2E2E2E2E2E2E2E2E2E2E2E2E2E2E2E2E2E2E2E2E2E2E2E2E2E2E2E2E2E2E2E2E2E2E2E2E2E2E2E2E2E2E2E2E2E2E2E2E2E2E2E2E2E2E2E2E2E2E2E2E2E2E2E2E2E2E2E2E2E2E2E2E2E2E2E2E2E2E2E2E2E2E2E2E2E2E2E2E2E2E2E2E2E2E2E2E2E2
310
E2E2E2E2E2E2E2E2E2E2E2E2E2E2E2E2E2E2E2E2E2E2E2E2E2E2E2E2E2E2E2E2E2E2E2E2E2E2E2E2E2E2E2E2E2E2E2E2E2E2E2E2E2E2E2E2E2E2E2E2E2E2E2E2E2E2E2E2E2E2E2E2E2E2E2E2E2E2E2E2E2E2E2E2E2E2E2E2E2E2E2E2E2E2E2E2E2E2E2E2E2E2E2E2E2E2E2E2E2E2E2E2E2E2E2E2E2E2E2E2E2E2E2E2E2E2E2
310
E2E2E2E2E2E2E2E2E2E2E2E2E2E2E2E2E2E2E2E2E2E2E2E2E2E2E2E2E2E2E2E2E2E2E2E2E2E2E2E2E2E2E2E2E2E2E2E2E2E2E2E2E2E2E2E2E2E2E2E2E2E2E2E2E2E2E2E2E2E2E2E2E2E2E2E2E2E2E2E2E2E2E2E2E2E2E2E2E2E2E2E2E2E2E2E2E2E2E2E2E2E2E2E2E2E2E2E2E2E2E2E2E2E2E2E2E2E2E2E2E2E2E2E2E2E2E2
310
E2E2E2E2E2E2E2E2E2E2E2E2E2E2E2E2E2E2E2E2E2E2E2E2E2E2E2E2E2E2E2E2E2E2E2E2E2E2E2E2E2E2E2E2E2E2E2E2E2E2E2E2E2E2E2E2E2E2E2E2E2E2E2E2E2E2E2E2E2E2E2E2E2E2E2E2E2E2E2E2E2E2E2E2E2E2E2E2E2E2E2E2E2E2E2E2E2E2E2E2E2E2E2E2E2E2E2E2E2E2E2E2E2E2E2E2E2E2E2E2E2E2E2E2E2E2E2
310
E2E2E2E2E2E2E2E2E2E2E2E2E2E2E2E2E2E2E2E2E2E2E2E2E2E2E2E2E2E2E2E2E2E2E2E2E2E2E2E2E2E2E2E2E2E2E2E2E2E2E2E2E2E2E2E2E2E2E2E2E2E2E2E2E2E2E2E2E2E2E2E2E2E2E2E2E2E2E2E2E2E2E2E2E2E2E2E2E2E2E2E2E2E2E2E2E2E2E2E2E2E2E2E2E2E2E2E2E2E2E2E2E2E2E2E2E2E2E2E2E2E2E2E2E2E2E2
310
E2E2E2E2E2E2E2E2E2E2E2E2E2E2E2E2E2E2E2E2E2E2E2E2E2E2E2E2E2E2E2E2E2E2E2E2E2E2E2E2E2E2E2E2E2E2E2E2E2E2E2E2E2E2E2E2E2E2E2E2E2E2E2E2E2E2E2E2E2E2E2E2E2E2E2E2E2E2E2E2E2E2E2E2E2E2E2E2E2E2E2E2E2E2E2E2E2E2E2E2E2E2E2E2E2E2E2E2E2E2E2E2E2E2E2E2E2E2E2E2E2E2E2E2E2E2E2
310
E2E2E2E2E2E2E2E2E2E2E2E2E2E2E2E2E2E2E2E2E2E2E2E2E2E2E2E2E2E2E2E2E2E2E2E2E2E2E2E2E2E2E2E2E2E2E2E2E2E2E2E2E2E2E2E2E2E2E2E2E2E2E2E2E2E2E2E2E2E2E2E2E2E2E2E2E2E2E2E2E2E2E2E2E2E2E2E2E2E2E2E2E2E2E2E2E2E2E2E2E2E2E2E2E2E2E2E2E2E2E2E2E2E2E2E2E2E2E2E2E2E2E2E2E2E2E2
310
E2E2E2E2E2E2E2E2E2E2E2E2E2E2E2E2E2E2E2E2E2E2E2E2E2E2E2E2E2E2E2E2E2E2E2E2E2E2E2E2E2E2E2E2E2E2E2E2E2E2E2E2E2E2E2E2E2E2E2E2E2E2E2E2E2E2E2E2E2E2E2E2E2E2E2E2E2E2E2E2E2E2E2E2E2E2E2E2E2E2E2E2E2E2E2E2E2E2E2E2E2E2E2E2E2E2E2E2E2E2E2E2E2E2E2E2E2E2E2E2E2E2E2E2E2E2E2
310
E2E2E2E2E2E2E2E2E2E2E2E2E2E2E2E2E2E2E2E2E2E2E2E2E2E2E2E2E2E2E2E2E2E2E2E2E2E2E2E2E2E2E2E2E2E2E2E2E2E2E2E2E2E2E2E2E2E2E2E2E2E2E2E2E2E2E2E2E2E2E2E2E2E2E2E2E2E2E2E2E2E2E2E2E2E2E2E2E2E2E2E2E2E2E2E2E2E2E2E2E2E2E2E2E2E2E2E2E2E2E2E2E2E2E2E2E2E2E2E2E2E2E2E2E2E2E2
310
E2E2E2E2E2E2E2E2E2E2E2E2E2E2E2E2E2E2E2E2E2E2E2E2E2E2E2E2E2E2E2E2E2E2E2E2E2E2E2E2E2E2E2E2E2E2E2E2E2E2E2E2E2E2E2E2E2E2E2E2E2E2E2E2E2E2E2E2E2E2E2E2E2E2E2E2E2E2E2E2E2E2E2E2E2E2E2E2E2E2E2E2E2E2E2E2E2E2E2E2E2E2E2E2E2E2E2E2E2E2E2E2E2E2E2E2E2E2E2E2E2E2E2E2E2E2E2
310
E2E2E2E2E2E2E2E2E2E2E2E2E2E2E2E2E2E2E2E2E2E2E2E2E2E2E2E2E2E2E2E2E2E2E2E2E2E2E2E2E2E2E2E2E2E2E2E2E2E2E2E2E2E2E2E2E2E2E2E2E2E2E2E2E2E2E2E2E2E2E2E2E2E2E2E2E2E2E2E2E2E2E2E2E2E2E2E2E2E2E2E2E2E2E2E2E2E2E2E2E2E2E2E2E2E2E2E2E2E2E2E2E2E2E2E2E2E2E2E2E2E2E2E2E2E2E2
310
E2E2E2E2E2E2E2E2E2E2E2E2E2E2E2E2E2E2E2E2E2E2E2E2E2E2E2E2E2E2E2E2E2E2E2E2E2E2E2E2E2E2E2E2E2E2E2E2E2E2E2E2E2E2E2E2E2E2E2E2E2E2E2E2E2E2E2E2E2E2E2E2E2E2E2E2E2E2E2E2E2E2E2E2E2E2E2E2E2E2E2E2E2E2E2E2E2E2E2E2E2E2E2E2E2E2E2E2E2E2E2E2E2E2E2E2E2E2E2E2E2E2E2E2E2E2E2
310
E2E2E2E2E2E2E2E2E2E2E2E2E2E2E2E2E2E2E2E2E2E2E2E2E2E2E2E2E2E2E2E2E2E2E2E2E2E2E2E2E2E2E2E2E2E2E2E2E2E2E2E2E2E2E2E2E2E2E2E2E2E2E2E2E2E2E2E2E2E2E2E2E2E2E2E2E2E2E2E2E2E2E2E2E2E2E2E2E2E2E2E2E2E2E2E2E2E2E2E2E2E2E2E2E2E2E2E2E2E2E2E2E2E2E2E2E2E2E2E2E2E2E2E2E2E2E2
310
E2E2E2E2E2E2E2E2E2E2E2E2E2E2E2E2E2E2E2E2E2E2E2E2E2E2E2E2E2E2E2E2E2E2E2E2E2E2E2E2E2E2E2E2E2E2E2E2E2E2E2E2E2E2E2E2E2E2E2E2E2E2E2E2E2E2E2E2E2E2E2E2E2E2E2E2E2E2E2E2E2E2E2E2E2E2E2E2E2E2E2E2E2E2E2E2E2E2E2E2E2E2E2E2E2E2E2E2E2E2E2E2E2E2E2E2E2E2E2E2E2E2E2E2E2E2E2
310
E2E2E2E2E2E2E2E2E2E2E2E2E2E2E2E2E2E2E2E2E2E2E2E2E2E2E2E2E2E2E2E2E2E2E2E2E2E2E2E2E2E2E2E2E2E2E2E2E2E2E2E2E2E2E2E2E2E2E2E2E2E2E2E2E2E2E2E2E2E2E2E2E2E2E2E2E2E2E2E2E2E2E2E2E2E2E2E2E2E2E2E2E2E2E2E2E2E2E2E2E2E2E2E2E2E2E2E2E2E2E2E2E2E2E2E2E2E2E2E2E2E2E2E2E2E2E2
310
E2E2E2E2E2E2E2E2E2E2E2E2E2E2E2E2E2E2E2E2E2E2E2E2E2E2E2E2E2E2E2E2E2E2E2E2E2E2E2E2E2E2E2E2E2E2E2E2E2E2E2E2E2E2E2E2E2E2E2E2E2E2E2E2E2E2E2E2E2E2E2E2E2E2E2E2E2E2E2E2E2E2E2E2E2E2E2E2E2E2E2E2E2E2E2E2E2E2E2E2E2E2E2E2E2E2E2E2E2E2E2E2E2E2E2E2E2E2E2E2E2E2E2E2E2E2E2
310
E2E2E2E2E2E2E2E2E2E2E2E2E2E2E2E2E2E2E2E2E2E2E2E2E2E2E2E2E2E2E2E2E2E2E2E2E2E2E2E2E2E2E2E2E2E2E2E2E2E2E2E2E2E2E2E2E2E2E2E2E2E2E2E2E2E2E2E2E2E2E2E2E2E2E2E2E2E2E2E2E2E2E2E2E2E2E2E2E2E2E2E2E2E2E2E2E2E2E2E2E2E2E2E2E2E2E2E2E2E2E2E2E2E2E2E2E2E2E2E2E2E2E2E2E2E2E2
310
E2E2E2E2E2E2E2E2E2E2E2E2E2E2E2E2E2E2E2E2E2E2E2E2E2E2E2E2E2E2E2E2E2E2E2E2E2E2E2E2E2E2E2E2E2E2E2E2E2E2E2E2E2E2E2E2E2E2E2E2E2E2E2E2E2E2E2E2E2E2E2E2E2E2E2E2E2E2E2E2E2E2E2E2E2E2E2E2E2E2E2E2E2E2E2E2E2E2E2E2E2E2E2E2E2E2E2E2E2E2E2E2E2E2E2E2E2E2E2E2E2E2E2E2E2E2E2
310
E2E2E2E2E2E2E2E2E2E2E2E2E2E2E2E2E2E2E2E2E2E2E2E2E2E2E2E2E2E2E2E2E2E2E2E2E2E2E2E2E2E2E2E2E2E2E2E2E2E2E2E2E2E2E2E2E2E2E2E2E2E2E2E2E2E2E2E2E2E2E2E2E2E2E2E2E2E2E2E2E2E2E2E2E2E2E2E2E2E2E2E2E2E2E2E2E2E2E2E2E2E2E2E2E2E2E2E2E2E2E2E2E2E2E2E2E2E2E2E2E2E2E2E2E2E2E2
310
E2E2E2E2E2E2E2E2E2E2E2E2E2E2E2E2E2E2E2E2E2E2E2E2E2E2E2E2E2E2E2E2E2E2E2E2E2E2E2E2E2E2E2E2E2E2E2E2E2E2E2E2E2E2E2E2E2E2E2E2E2E2E2E2E2E2E2E2E2E2E2E2E2E2E2E2E2E2E2E2E2E2E2E2E2E2E2E2E2E2E2E2E2E2E2E2E2E2E2E2E2E2E2E2E2E2E2E2E2E2E2E2E2E2E2E2E2E2E2E2E2E2E2E2E2E2E2
310
E2E2E2E2E2E2E2E2E2E2E2E2E2E2E2E2E2E2E2E2E2E2E2E2E2E2E2E2E2E2E2E2E2E2E2E2E2E2E2E2E2E2E2E2E2E2E2E2E2E2E2E2E2E2E2E2E2E2E2E2E2E2E2E2E2E2E2E2E2E2E2E2E2E2E2E2E2E2E2E2E2E2E2E2E2E2E2E2E2E2E2E2E2E2E2E2E2E2E2E2E2E2E2E2E2E2E2E2E2E2E2E2E2E2E2E2E2E2E2E2E2E2E2E2E2E2E2
310
E2E2E2E2E2E2E2E2E2E2E2E2E2E2E2E2E2E2E2E2E2E2E2E2E2E2E2E2E2E2E2E2E2E2E2E2E2E2E2E2E2E2E2E2E2E2E2E2E2E2E2E2E2E2E2E2E2E2E2E2E2E2E2E2E2E2E2E2E2E2E2E2E2E2E2E2E2E2E2E2E2E2E2E2E2E2E2E2E2E2E2E2E2E2E2E2E2E2E2E2E2E2E2E2E2E2E2E2E2E2E2E2E2E2E2E2E2E2E2E2E2E2E2E2E2E2E2
310
E2E2E2E2E2E2E2E2E2E2E2E2E2E2E2E2E2E2E2E2E2E2E2E2E2E2E2E2E2E2E2E2E2E2E2E2E2E2E2E2E2E2E2E2E2E2E2E2E2E2E2E2E2E2E2E2E2E2E2E2E2E2E2E2E2E2E2E2E2E2E2E2E2E2E2E2E2E2E2E2E2E2E2E2E2E2E2E2E2E2E2E2E2E2E2E2E2E2E2E2E2E2E2E2E2E2E2E2E2E2E2E2E2E2E2E2E2E2E2E2E2E2E2E2E2E2E2
310
E2E2E2E2E2E2E2E2E2E2E2E2E2E2E2E2E2E2E2E2E2E2E2E2E2E2E2E2E2E2E2E2E2E2E2E2E2E2E2E2E2E2E2E2E2E2E2E2E2E2E2E2E2E2E2E2E2E2E2E2E2E2E2E2E2E2E2E2E2E2E2E2E2E2E2E2E2E2E2E2E2E2E2E2E2E2E2E2E2E2E2E2E2E2E2E2E2E2E2E2E2E2E2E2E2E2E2E2E2E2E2E2E2E2E2E2E2E2E2E2E2E2E2E2E2E2E2
310
E2E2E2E2E2E2E2E2E2E2E2E2E2E2E2E2E2E2E2E2E2E2E2E2E2E2E2E2E2E2E2E2E2E2E2E2E2E2E2E2E2E2E2E2E2E2E2E2E2E2E2E2E2E2E2E2E2E2E2E2E2E2E2E2E2E2E2E2E2E2E2E2E2E2E2E2E2E2E2E2E2E2E2E2E2E2E2E2E2E2E2E2E2E2E2E2E2E2E2E2E2E2E2E2E2E2E2E2E2E2E2E2E2E2E2E2E2E2E2E2E2E2E2E2E2E2E2
310
E2E2E2E2E2E2E2E2E2E2E2E2E2E2E2E2E2E2E2E2E2E2E2E2E2E2E2E2E2E2E2E2E2E2E2E2E2E2E2E2E2E2E2E2E2E2E2E2E2E2E2E2E2E2E2E2E2E2E2E2E2E2E2E2E2E2E2E2E2E2E2E2E2E2E2E2E2E2E2E2E2E2E2E2E2E2E2E2E2E2E2E2E2E2E2E2E2E2E2E2E2E2E2E2E2E2E2E2E2E2E2E2E2E2E2E2E2E2E2E2E2E2E2E2E2E2E2
310
E2E2E2E2E2E2E2E2E2E2E2E2E2E2E2E2E2E2E2E2E2E2E2E2E2E2E2E2E2E2E2E2E2E2E2E2E2E2E2E2E2E2E2E2E2E2E2E2E2E2E2E2E2E2E2E2E2E2E2E2E2E2E2E2E2E2E2E2E2E2E2E2E2E2E2E2E2E2E2E2E2E2E2E2E2E2E2E2E2E2E2E2E2E2E2E2E2E2E2E2E2E2E2E2E2E2E2E2E2E2E2E2E2E2E2E2E2E2E2E2E2E2E2E2E2E2E2
310
E2E2E2E2E2E2E2E2E2E2E2E2E2E2E2E2E2E2E2E2E2E2E2E2E2E2E2E2E2E2E2E2E2E2E2E2E2E2E2E2E2E2E2E2E2E2E2E2E2E2E2E2E2E2E2E2E2E2E2E2E2E2E2E2E2E2E2E2E2E2E2E2E2E2E2E2E2E2E2E2E2E2E2E2E2E2E2E2E2E2E2E2E2E2E2E2E2E2E2E2E2E2E2E2E2E2E2E2E2E2E2E2E2E2E2E2E2E2E2E2E2E2E2E2E2E2E2
310
E2E2E2E2E2E2E2E2E2E2E2E2E2E2E2E2E2E2E2E2E2E2E2E2E2E2E2E2E2E2E2E2E2E2E2E2E2E2E2E2E2E2E2E2E2E2E2E2E2E2E2E2E2E2E2E2E2E2E2E2E2E2E2E2E2E2E2E2E2E2E2E2E2E2E2E2E2E2E2E2E2E2E2E2E2E2E2E2E2E2E2E2E2E2E2E2E2E2E2E2E2E2E2E2E2E2E2E2E2E2E2E2E2E2E2E2E2E2E2E2E2E2E2E2E2E2E2
310
E2E2E2E2E2E2E2E2E2E2E2E2E2E2E2E2E2E2E2E2E2E2E2E2E2E2E2E2E2E2E2E2E2E2E2E2E2E2E2E2E2E2E2E2E2E2E2E2E2E2E2E2E2E2E2E2E2E2E2E2E2E2E2E2E2E2E2E2E2E2E2E2E2E2E2E2E2E2E2E2E2E2E2E2E2E2E2E2E2E2E2E2E2E2E2E2E2E2E2E2E2E2E2E2E2E2E2E2E2E2E2E2E2E2E2E2E2E2E2E2E2E2E2E2E2E2E2
310
E2E2E2E2E2E2E2E2E2E2E2E2E2E2E2E2E2E2E2E2E2E2E2E2E2E2E2E2E2E2E2E2E2E2E2E2E2E2E2E2E2E2E2E2E2E2E2E2E2E2E2E2E2E2E2E2E2E2E2E2E2E2E2E2E2E2E2E2E2E2E2E2E2E2E2E2E2E2E2E2E2E2E2E2E2E2E2E2E2E2E2E2E2E2E2E2E2E2E2E2E2E2E2E2E2E2E2E2E2E2E2E2E2E2E2E2E2E2E2E2E2E2E2E2E2E2E2
310
E2E2E2E2E2E2E2E2E2E2E2E2E2E2E2E2E2E2E2E2E2E2E2E2E2E2E2E2E2E2E2E2E2E2E2E2E2E2E2E2E2E2E2E2E2E2E2E2E2E2E2E2E2E2E2E2E2E2E2E2E2E2E2E2E2E2E2E2E2E2E2E2E2E2E2E2E2E2E2E2E2E2E2E2E2E2E2E2E2E2E2E2E2E2E2E2E2E2E2E2E2E2E2E2E2E2E2E2E2E2E2E2E2E2E2E2E2E2E2E2E2E2E2E2E2E2E2
310
E2E2E2E2E2E2E2E2E2E2E2E2E2E2E2E2E2E2E2E2E2E2E2E2E2E2E2E2E2E2E2E2E2E2E2E2E2E2E2E2E2E2E2E2E2E2E2E2E2E2E2E2E2E2E2E2E2E2E2E2E2E2E2E2E2E2E2E2E2E2E2E2E2E2E2E2E2E2E2E2E2E2E2E2E2E2E2E2E2E2E2E2E2E2E2E2E2E2E2E2E2E2E2E2E2E2E2E2E2E2E2E2E2E2E2E2E2E2E2E2E2E2E2E2E2E2E2
310
E2E2E2E2E2E2E2E2E2E2E2E2E2E2E2E2E2E2E2E2E2E2E2E2E2E2E2E2E2E2E2E2E2E2E2E2E2E2E2E2E2E2E2E2E2E2E2E2E2E2E2E2E2E2E2E2E2E2E2E2E2E2E2E2E2E2E2E2E2E2E2E2E2E2E2E2E2E2E2E2E2E2E2E2E2E2E2E2E2E2E2E2E2E2E2E2E2E2E2E2E2E2E2E2E2E2E2E2E2E2E2E2E2E2E2E2E2E2E2E2E2E2E2E2E2E2E2
310
E2E2E2E2E2E2E2E2E2E2E2E2E2E2E2E2E2E2E2E2E2E2E2E2E2E2E2E2E2E2E2E2E2E2E2E2E2E2E2E2E2E2E2E2E2E2E2E2E2E2E2E2E2E2E2E2E2E2E2E2E2E2E2E2E2E2E2E2E2E2E2E2E2E2E2E2E2E2E2E2E2E2E2E2E2E2E2E2E2E2E2E2E2E2E2E2E2E2E2E2E2E2E2E2E2E2E2E2E2E2E2E2E2E2E2E2E2E2E2E2E2E2E2E2E2E2E2
310
E2E2E2E2E2E2E2E2E2E2E2E2E2E2E2E2E2E2E2E2E2E2E2E2E2E2E2E2E2E2E2E2E2E2E2E2E2E2E2E2E2E2E2E2E2E2E2E2E2E2E2E2E2E2E2E2E2E2E2E2E2E2E2E2E2E2E2E2E2E2E2E2E2E2E2E2E2E2E2E2E2E2E2E2E2E2E2E2E2E2E2E2E2E2E2E2E2E2E2E2E2E2E2E2E2E2E2E2E2E2E2E2E2E2E2E2E2E2E2E2E2E2E2E2E2E2E2
310
E2E2E2E2E2E2E2E2E2E2E2E2E2E2E2E2E2E2E2E2E2E2E2E2E2E2E2E2E2E2E2E2E2E2E2E2E2E2E2E2E2E2E2E2E2E2E2E2E2E2E2E2E2E2E2E2E2E2E2E2E2E2E2E2E2E2E2E2E2E2E2E2E2E2E2E2E2E2E2E2E2E2E2E2E2E2E2E2E2E2E2E2E2E2E2E2E2E2E2E2E2E2E2E2E2E2E2E2E2E2E2E2E2E2E2E2E2E2E2E2E2E2E2E2E2E2E2
310
E2E2E2E2E2E2E2E2E2E2E2E2E2E2E2E2E2E2E2E2E2E2E2E2E2E2E2E2E2E2E2E2E2E2E2E2E2E2E2E2E2E2E2E2E2E2E2E2E2E2E2E2E2E2E2E2E2E2E2E2E2E2E2E2E2E2E2E2E2E2E2E2E2E2E2E2E2E2E2E2E2E2E2E2E2E2E2E2E2E2E2E2E2E2E2E2E2E2E2E2E2E2E2E2E2E2E2E2E2E2E2E2E2E2E2E2E2E2E2E2E2E2E2E2E2E2E2
310
E2E2E2E2E2E2E2E2E2E2E2E2E2E2E2E2E2E2E2E2E2E2E2E2E2E2E2E2E2E2E2E2E2E2E2E2E2E2E2E2E2E2E2E2E2E2E2E2E2E2E2E2E2E2E2E2E2E2E2E2E2E2E2E2E2E2E2E2E2E2E2E2E2E2E2E2E2E2E2E2E2E2E2E2E2E2E2E2E2E2E2E2E2E2E2E2E2E2E2E2E2E2E2E2E2E2E2E2E2E2E2E2E2E2E2E2E2E2E2E2E2E2E2E2E2E2E2
310
E2E2E2E2E2E2E2E2E2E2E2E2E2E2E2E2E2E2E2E2E2E2E2E2E2E2E2E2E2E2E2E2E2E2E2E2E2E2E2E2E2E2E2E2E2E2E2E2E2E2E2E2E2E2E2E2E2E2E2E2E2E2E2E2E2E2E2E2E2E2E2E2E2E2E2E2E2E2E2E2E2E2E2E2E2E2E2E2E2E2E2E2E2E2E2E2E2E2E2E2E2E2E2E2E2E2E2E2E2E2E2E2E2E2E2E2E2E2E2E2E2E2E2E2E2E2E2
310
E2E2E2E2E2E2E2E2E2E2E2E2E2E2E2E2E2E2E2E2E2E2E2E2E2E2E2E2E2E2E2E2E2E2E2E2E2E2E2E2E2E2E2E2E2E2E2E2E2E2E2E2E2E2E2E2E2E2E2E2E2E2E2E2E2E2E2E2E2E2E2E2E2E2E2E2E2E2E2E2E2E2E2E2E2E2E2E2E2E2E2E2E2E2E2E2E2E2E2E2E2E2E2E2E2E2E2E2E2E2E2E2E2E2E2E2E2E2E2E2E2E2E2E2E2E2E2
310
E2E2E2E2E2E2E2E2E2E2E2E2E2E2E2E2E2E2E2E2E2E2E2E2E2E2E2E2E2E2E2E2E2E2E2E2E2E2E2E2E2E2E2E2E2E2E2E2E2E2E2E2E2E2E2E2E2E2E2E2E2E2E2E2E2E2E2E2E2E2E2E2E2E2E2E2E2E2E2E2E2E2E2E2E2E2E2E2E2E2E2E2E2E2E2E2E2E2E2E2E2E2E2E2E2E2E2E2E2E2E2E2E2E2E2E2E2E2E2E2E2E2E2E2E2E2E2
310
E2E2E2E2E2E2E2E2E2E2E2E2E2E2E2E2E2E2E2E2E2E2E2E2E2E2E2E2E2E2E2E2E2E2E2E2E2E2E2E2E2E2E2E2E2E2E2E2E2E2E2E2E2E2E2E2E2E2E2E2E2E2E2E2E2E2E2E2E2E2E2E2E2E2E2E2E2E2E2E2E2E2E2E2E2E2E2E2E2E2E2E2E2E2E2E2E2E2E2E2E2E2E2E2E2E2E2E2E2E2E2E2E2E2E2E2E2E2E2E2E2E2E2E2E2E2E2
310
E2E2E2E2E2E2E2E2E2E2E2E2E2E2E2E2E2E2E2E2E2E2E2E2E2E2E2E2E2E2E2E2E2E2E2E2E2E2E2E2E2E2E2E2E2E2E2E2E2E2E2E2E2E2E2E2E2E2E2E2E2E2E2E2E2E2E2E2E2E2E2E2E2E2E2E2E2E2E2E2E2E2E2E2E2E2E2E2E2E2E2E2E2E2E2E2E2E2E2E2E2E2E2E2E2E2E2E2E2E2E2E2E2E2E2E2E2E2E2E2E2E2E2E2E2E2E2
310
E2E2E2E2E2E2E2E2E2E2E2E2E2E2E2E2E2E2E2E2E2E2E2E2E2E2E2E2E2E2E2E2E2E2E2E2E2E2E2E2E2E2E2E2E2E2E2E2E2E2E2E2E2E2E2E2E2E2E2E2E2E2E2E2E2E2E2E2E2E2E2E2E2E2E2E2E2E2E2E2E2E2E2E2E2E2E2E2E2E2E2E2E2E2E2E2E2E2E2E2E2E2E2E2E2E2E2E2E2E2E2E2E2E2E2E2E2E2E2E2E2E2E2E2E2E2E2
310
E2E2E2E2E2E2E2E2E2E2E2E2E2E2E2E2E2E2E2E2E2E2E2E2E2E2E2E2E2E2E2E2E2E2E2E2E2E2E2E2E2E2E2E2E2E2E2E2E2E2E2E2E2E2E2E2E2E2E2E2E2E2E2E2E2E2E2E2E2E2E2E2E2E2E2E2E2E2E2E2E2E2E2E2E2E2E2E2E2E2E2E2E2E2E2E2E2E2E2E2E2E2E2E2E2E2E2E2E2E2E2E2E2E2E2E2E2E2E2E2E2E2E2E2E2E2E2
310
E2E2E2E2E2E2E2E2E2E2E2E2E2E2E2E2E2E2E2E2E2E2E2E2E2E2E2E2E2E2E2E2E2E2E2E2E2E2E2E2E2E2E2E2E2E2E2E2E2E2E2E2E2E2E2E2E2E2E2E2E2E2E2E2E2E2E2E2E2E2E2E2E2E2E2E2E2E2E2E2E2E2E2E2E2E2E2E2E2E2E2E2E2E2E2E2E2E2E2E2E2E2E2E2E2E2E2E2E2E2E2E2E2E2E2E2E2E2E2E2E2E2E2E2E2E2E2
310
E2E2E2E2E2E2E2E2E2E2E2E2E2E2E2E2E2E2E2E2E2E2E2E2E2E2E2E2E2E2E2E2E2E2E2E2E2E2E2E2E2E2E2E2E2E2E2E2E2E2E2E2E2E2E2E2E2E2E2E2E2E2E2E2E2E2E2E2E2E2E2E2E2E2E2E2E2E2E2E2E2E2E2E2E2E2E2E2E2E2E2E2E2E2E2E2E2E2E2E2E2E2E2E2E2E2E2E2E2E2E2E2E2E2E2E2E2E2E2E2E2E2E2E2E2E2E2
310
E2E2E2E2E2E2E2E2E2E2E2E2E2E2E2E2E2E2E2E2E2E2E2E2E2E2E2E2E2E2E2E2E2E2E2E2E2E2E2E2E2E2E2E2E2E2E2E2E2E2E2E2E2E2E2E2E2E2E2E2E2E2E2E2E2E2E2E2E2E2E2E2E2E2E2E2E2E2E2E2E2E2E2E2E2E2E2E2E2E2E2E2E2E2E2E2E2E2E2E2E2E2E2E2E2E2E2E2E2E2E2E2E2E2E2E2E2E2E2E2E2E2E2E2E2E2E2
310
E2E2E2E2E2E2E2E2E2E2E2E2E2E2E2E2E2E2E2E2E2E2E2E2E2E2E2E2E2E2E2E2E2E2E2E2E2E2E2E2E2E2E2E2E2E2E2E2E2E2E2E2E2E2E2E2E2E2E2E2E2E2E2E2E2E2E2E2E2E2E2E2E2E2E2E2E2E2E2E2E2E2E2E2E2E2E2E2E2E2E2E2E2E2E2E2E2E2E2E2E2E2E2E2E2E2E2E2E2E2E2E2E2E2E2E2E2E2E2E2E2E2E2E2E2E2E2
310
E2E2E2E2E2E2E2E2E2E2E2E2E2E2E2E2E2E2E2E2E2E2E2E2E2E2E2E2E2E2E2E2E2E2E2E2E2E2E2E2E2E2E2E2E2E2E2E2E2E2E2E2E2E2E2E2E2E2E2E2E2E2E2E2E2E2E2E2E2E2E2E2E2E2E2E2E2E2E2E2E2E2E2E2E2E2E2E2E2E2E2E2E2E2E2E2E2E2E2E2E2E2E2E2E2E2E2E2E2E2E2E2E2E2E2E2E2E2E2E2E2E2E2E2E2E2E2
310
E2E2E2E2E2E2E2E2E2E2E2E2E2E2E2E2E2E2E2E2E2E2E2E2E2E2E2E2E2E2E2E2E2E2E2E2E2E2E2E2E2E2E2E2E2E2E2E2E2E2E2E2E2E2E2E2E2E2E2E2E2E2E2E2E2E2E2E2E2E2E2E2E2E2E2E2E2E2E2E2E2E2E2E2E2E2E2E2E2E2E2E2E2E2E2E2E2E2E2E2E2E2E2E2E2E2E2E2E2E2E2E2E2E2E2E2E2E2E2E2E2E2E2E2E2E2E2
310
E2E2E2E2E2E2E2E2E2E2E2E2E2E2E2E2E2E2E2E2E2E2E2E2E2E2E2E2E2E2E2E2E2E2E2E2E2E2E2E2E2E2E2E2E2E2E2E2E2E2E2E2E2E2E2E2E2E2E2E2E2E2E2E2E2E2E2E2E2E2E2E2E2E2E2E2E2E2E2E2E2E2E2E2E2E2E2E2E2E2E2E2E2E2E2E2E2E2E2E2E2E2E2E2E2E2E2E2E2E2E2E2E2E2E2E2E2E2E2E2E2E2E2E2E2E2E2
310
E2E2E2E2E2E2E2E2E2E2E2E2E2E2E2E2E2E2E2E2E2E2E2E2E2E2E2E2E2E2E2E2E2E2E2E2E2E2E2E2E2E2E2E2E2E2E2E2E2E2E2E2E2E2E2E2E2E2E2E2E2E2E2E2E2E2E2E2E2E2E2E2E2E2E2E2E2E2E2E2E2E2E2E2E2E2E2E2E2E2E2E2E2E2E2E2E2E2E2E2E2E2E2E2E2E2E2E2E2E2E2E2E2E2E2E2E2E2E2E2E2E2E2E2E2E2E2
310
E2E2E2E2E2E2E2E2E2E2E2E2E2E2E2E2E2E2E2E2E2E2E2E2E2E2E2E2E2E2E2E2E2E2E2E2E2E2E2E2E2E2E2E2E2E2E2E2E2E2E2E2E2E2E2E2E2E2E2E2E2E2E2E2E2E2E2E2E2E2E2E2E2E2E2E2E2E2E2E2E2E2E2E2E2E2E2E2E2E2E2E2E2E2E2E2E2E2E2E2E2E2E2E2E2E2E2E2E2E2E2E2E2E2E2E2E2E2E2E2E2E2E2E2E2E2E2
310
E2E2E2E2E2E2E2E2E2E2E2E2E2E2E2E2E2E2E2E2E2E2E2E2E2E2E2E2E2E2E2E2E2E2E2E2E2E2E2E2E2E2E2E2E2E2E2E2E2E2E2E2E2E2E2E2E2E2E2E2E2E2E2E2E2E2E2E2E2E2E2E2E2E2E2E2E2E2E2E2E2E2E2E2E2E2E2E2E2E2E2E2E2E2E2E2E2E2E2E2E2E2E2E2E2E2E2E2E2E2E2E2E2E2E2E2E2E2E2E2E2E2E2E2E2E2E2
310
E2E2E2E2E2E2E2E2E2E2E2E2E2E2E2E2E2E2E2E2E2E2E2E2E2E2E2E2E2E2E2E2E2E2E2E2E2E2E2E2E2E2E2E2E2E2E2E2E2E2E2E2E2E2E2E2E2E2E2E2E2E2E2E2E2E2E2E2E2E2E2E2E2E2E2E2E2E2E2E2E2E2E2E2E2E2E2E2E2E2E2E2E2E2E2E2E2E2E2E2E2E2E2E2E2E2E2E2E2E2E2E2E2E2E2E2E2E2E2E2E2E2E2E2E2E2E2
310
E2E2E2E2E2E2E2E2E2E2E2E2E2E2E2E2E2E2E2E2E2E2E2E2E2E2E2E2E2E2E2E2E2E2E2E2E2E2E2E2E2E2E2E2E2E2E2E2E2E2E2E2E2E2E2E2E2E2E2E2E2E2E2E2E2E2E2E2E2E2E2E2E2E2E2E2E2E2E2E2E2E2E2E2E2E2E2E2E2E2E2E2E2E2E2E2E2E2E2E2E2E2E2E2E2E2E2E2E2E2E2E2E2E2E2E2E2E2E2E2E2E2E2E2E2E2E2
310
E2E2E2E2E2E2E2E2E2E2E2E2E2E2E2E2E2E2E2E2E2E2E2E2E2E2E2E2E2E2E2E2E2E2E2E2E2E2E2E2E2E2E2E2E2E2E2E2E2E2E2E2E2E2E2E2E2E2E2E2E2E2E2E2E2E2E2E2E2E2E2E2E2E2E2E2E2E2E2E2E2E2E2E2E2E2E2E2E2E2E2E2E2E2E2E2E2E2E2E2E2E2E2E2E2E2E2E2E2E2E2E2E2E2E2E2E2E2E2E2E2E2E2E2E2E2E2
310
E2E2E2E2E2E2E2E2E2E2E2E2E2E2E2E2E2E2E2E2E2E2E2E2E2E2E2E2E2E2E2E2E2E2E2E2E2E2E2E2E2E2E2E2E2E2E2E2E2E2E2E2E2E2E2E2E2E2E2E2E2E2E2E2E2E2E2E2E2E2E2E2E2E2E2E2E2E2E2E2E2E2E2E2E2E2E2E2E2E2E2E2E2E2E2E2E2E2E2E2E2E2E2E2E2E2E2E2E2E2E2E2E2E2E2E2E2E2E2E2E2E2E2E2E2E2E2
310
E2E2E2E2E2E2E2E2E2E2E2E2E2E2E2E2E2E2E2E2E2E2E2E2E2E2E2E2E2E2E2E2E2E2E2E2E2E2E2E2E2E2E2E2E2E2E2E2E2E2E2E2E2E2E2E2E2E2E2E2E2E2E2E2E2E2E2E2E2E2E2E2E2E2E2E2E2E2E2E2E2E2E2E2E2E2E2E2E2E2E2E2E2E2E2E2E2E2E2E2E2E2E2E2E2E2E2E2E2E2E2E2E2E2E2E2E2E2E2E2E2E2E2E2E2E2E2
310
E2E2E2E2E2E2E2E2E2E2E2E2E2E2E2E2E2E2E2E2E2E2E2E2E2E2E2E2E2E2E2E2E2E2E2E2E2E2E2E2E2E2E2E2E2E2E2E2E2E2E2E2E2E2E2E2E2E2E2E2E2E2E2E2E2E2E2E2E2E2E2E2E2E2E2E2E2E2E2E2E2E2E2E2E2E2E2E2E2E2E2E2E2E2E2E2E2E2E2E2E2E2E2E2E2E2E2E2E2E2E2E2E2E2E2E2E2E2E2E2E2E2E2E2E2E2E2
310
E2E2E2E2E2E2E2E2E2E2E2E2E2E2E2E2E2E2E2E2E2E2E2E2E2E2E2E2E2E2E2E2E2E2E2E2E2E2E2E2E2E2E2E2E2E2E2E2E2E2E2E2E2E2E2E2E2E2E2E2E2E2E2E2E2E2E2E2E2E2E2E2E2E2E2E2E2E2E2E2E2E2E2E2E2E2E2E2E2E2E2E2E2E2E2E2E2E2E2E2E2E2E2E2E2E2E2E2E2E2E2E2E2E2E2E2E2E2E2E2E2E2E2E2E2E2E2
310
E2E2E2E2E2E2E2E2E2E2E2E2E2E2E2E2E2E2E2E2E2E2E2E2E2E2E2E2E2E2E2E2E2E2E2E2E2E2E2E2E2E2E2E2E2E2E2E2E2E2E2E2E2E2E2E2E2E2E2E2E2E2E2E2E2E2E2E2E2E2E2E2E2E2E2E2E2E2E2E2E2E2E2E2E2E2E2E2E2E2E2E2E2E2E2E2E2E2E2E2E2E2E2E2E2E2E2E2E2E2E2E2E2E2E2E2E2E2E2E2E2E2E2E2E2E2E2
310
E2E2E2E2E2E2E2E2E2E2E2E2E2E2E2E2E2E2E2E2E2E2E2E2E2E2E2E2E2E2E2E2E2E2E2E2E2E2E2E2E2E2E2E2E2E2E2E2E2E2E2E2E2E2E2E2E2E2E2E2E2E2E2E2E2E2E2E2E2E2E2E2E2E2E2E2E2E2E2E2E2E2E2E2E2E2E2E2E2E2E2E2E2E2E2E2E2E2E2E2E2E2E2E2E2E2E2E2E2E2E2E2E2E2E2E2E2E2E2E2E2E2E2E2E2E2E2
310
E2E2E2E2E2E2E2E2E2E2E2E2E2E2E2E2E2E2E2E2E2E2E2E2E2E2E2E2E2E2E2E2E2E2E2E2E2E2E2E2E2E2E2E2E2E2E2E2E2E2E2E2E2E2E2E2E2E2E2E2E2E2E2E2E2E2E2E2E2E2E2E2E2E2E2E2E2E2E2E2E2E2E2E2E2E2E2E2E2E2E2E2E2E2E2E2E2E2E2E2E2E2E2E2E2E2E2E2E2E2E2E2E2E2E2E2E2E2E2E2E2E2E2E2E2E2E2
310
E2E2E2E2E2E2E2E2E2E2E2E2E2E2E2E2E2E2E2E2E2E2E2E2E2E2E2E2E2E2E2E2E2E2E2E2E2E2E2E2E2E2E2E2E2E2E2E2E2E2E2E2E2E2E2E2E2E2E2E2E2E2E2E2E2E2E2E2E2E2E2E2E2E2E2E2E2E2E2E2E2E2E2E2E2E2E2E2E2E2E2E2E2E2E2E2E2E2E2E2E2E2E2E2E2E2E2E2E2E2E2E2E2E2E2E2E2E2E2E2E2E2E2E2E2E2E2
310
E2E2E2E2E2E2E2E2E2E2E2E2E2E2E2E2E2E2E2E2E2E2E2E2E2E2E2E2E2E2E2E2E2E2E2E2E2E2E2E2E2E2E2E2E2E2E2E2E2E2E2E2E2E2E2E2E2E2E2E2E2E2E2E2E2E2E2E2E2E2E2E2E2E2E2E2E2E2E2E2E2E2E2E2E2E2E2E2E2E2E2E2E2E2E2E2E2E2E2E2E2E2E2E2E2E2E2E2E2E2E2E2E2E2E2E2E2E2E2E2E2E2E2E2E2E2E2
310
E2E2E2E2E2E2E2E2E2E2E2E2E2E2E2E2E2E2E2E2E2E2E2E2E2E2E2E2E2E2E2E2E2E2E2E2E2E2E2E2E2E2E2E2E2E2E2E2E2E2E2E2E2E2E2E2E2E2E2E2E2E2E2E2E2E2E2E2E2E2E2E2E2E2E2E2E2E2E2E2E2E2E2E2E2E2E2E2E2E2E2E2E2E2E2E2E2E2E2E2E2E2E2E2E2E2E2E2E2E2E2E2E2E2E2E2E2E2E2E2E2E2E2E2E2E2E2
310
E2E2E2E2E2E2E2E2E2E2E2E2E2E2E2E2E2E2E2E2E2E2E2E2E2E2E2E2E2E2E2E2E2E2E2E2E2E2E2E2E2E2E2E2E2E2E2E2E2E2E2E2E2E2E2E2E2E2E2E2E2E2E2E2E2E2E2E2E2E2E2E2E2E2E2E2E2E2E2E2E2E2E2E2E2E2E2E2E2E2E2E2E2E2E2E2E2E2E2E2E2E2E2E2E2E2E2E2E2E2E2E2E2E2E2E2E2E2E2E2E2E2E2E2E2E2E2
310
E2E2E2E2E2E2E2E2E2E2E2E2E2E2E2E2E2E2E2E2E2E2E2E2E2E2E2E2E2E2E2E2E2E2E2E2E2E2E2E2E2E2E2E2E2E2E2E2E2E2E2E2E2E2E2E2E2E2E2E2E2E2E2E2E2E2E2E2E2E2E2E2E2E2E2E2E2E2E2E2E2E2E2E2E2E2E2E2E2E2E2E2E2E2E2E2E2E2E2E2E2E2E2E2E2E2E2E2E2E2E2E2E2E2E2E2E2E2E2E2E2E2E2E2E2E2E2
310
E2E2E2E2E2E2E2E2E2E2E2E2E2E2E2E2E2E2E2E2E2E2E2E2E2E2E2E2E2E2E2E2E2E2E2E2E2E2E2E2E2E2E2E2E2E2E2E2E2E2E2E2E2E2E2E2E2E2E2E2E2E2E2E2E2E2E2E2E2E2E2E2E2E2E2E2E2E2E2E2E2E2E2E2E2E2E2E2E2E2E2E2E2E2E2E2E2E2E2E2E2E2E2E2E2E2E2E2E2E2E2E2E2E2E2E2E2E2E2E2E2E2E2E2E2E2E2
310
E2E2E2E2E2E2E2E2E2E2E2E2E2E2E2E2E2E2E2E2E2E2E2E2E2E2E2E2E2E2E2E2E2E2E2E2E2E2E2E2E2E2E2E2E2E2E2E2E2E2E2E2E2E2E2E2E2E2E2E2E2E2E2E2E2E2E2E2E2E2E2E2E2E2E2E2E2E2E2E2E2E2E2E2E2E2E2E2E2E2E2E2E2E2E2E2E2E2E2E2E2E2E2E2E2E2E2E2E2E2E2E2E2E2E2E2E2E2E2E2E2E2E2E2E2E2E2
310
E2E2E2E2E2E2E2E2E2E2E2E2E2E2E2E2E2E2E2E2E2E2E2E2E2E2E2E2E2E2E2E2E2E2E2E2E2E2E2E2E2E2E2E2E2E2E2E2E2E2E2E2E2E2E2E2E2E2E2E2E2E2E2E2E2E2E2E2E2E2E2E2E2E2E2E2E2E2E2E2E2E2E2E2E2E2E2E2E2E2E2E2E2E2E2E2E2E2E2E2E2E2E2E2E2E2E2E2E2E2E2E2E2E2E2E2E2E2E2E2E2E2E2E2E2E2E2
310
E2E2E2E2E2E2E2E2E2E2E2E2E2E2E2E2E2E2E2E2E2E2E2E2E2E2E2E2E2E2E2E2E2E2E2E2E2E2E2E2E2E2E2E2E2E2E2E2E2E2E2E2E2E2E2E2E2E2E2E2E2E2E2E2E2E2E2E2E2E2E2E2E2E2E2E2E2E2E2E2E2E2E2E2E2E2E2E2E2E2E2E2E2E2E2E2E2E2E2E2E2E2E2E2E2E2E2E2E2E2E2E2E2E2E2E2E2E2E2E2E2E2E2E2E2E2E2
310
E2E2E2E2E2E2E2E2E2E2E2E2E2E2E2E2E2E2E2E2E2E2E2E2E2E2E2E2E2E2E2E2E2E2E2E2E2E2E2E2E2E2E2E2E2E2E2E2E2E2E2E2E2E2E2E2E2E2E2E2E2E2E2E2E2E2E2E2E2E2E2E2E2E2E2E2E2E2E2E2E2E2E2E2E2E2E2E2E2E2E2E2E2E2E2E2E2E2E2E2E2E2E2E2E2E2E2E2E2E2E2E2E2E2E2E2E2E2E2E2E2E2E2E2E2E2E2
310
E2E2E2E2E2E2E2E2E2E2E2E2E2E2E2E2E2E2E2E2E2E2E2E2E2E2E2E2E2E2E2E2E2E2E2E2E2E2E2E2E2E2E2E2E2E2E2E2E2E2E2E2E2E2E2E2E2E2E2E2E2E2E2E2E2E2E2E2E2E2E2E2E2E2E2E2E2E2E2E2E2E2E2E2E2E2E2E2E2E2E2E2E2E2E2E2E2E2E2E2E2E2E2E2E2E2E2E2E2E2E2E2E2E2E2E2E2E2E2E2E2E2E2E2E2E2E2
310
E2E2E2E2E2E2E2E2E2E2E2E2E2E2E2E2E2E2E2E2E2E2E2E2E2E2E2E2E2E2E2E2E2E2E2E2E2E2E2E2E2E2E2E2E2E2E2E2E2E2E2E2E2E2E2E2E2E2E2E2E2E2E2E2E2E2E2E2E2E2E2E2E2E2E2E2E2E2E2E2E2E2E2E2E2E2E2E2E2E2E2E2E2E2E2E2E2E2E2E2E2E2E2E2E2E2E2E2E2E2E2E2E2E2E2E2E2E2E2E2E2E2E2E2E2E2E2
310
E2E2E2E2E2E2E2E2E2E2E2E2E2E2E2E2E2E2E2E2E2E2E2E2E2E2E2E2E2E2E2E2E2E2E2E2E2E2E2E2E2E2E2E2E2E2E2E2E2E2E2E2E2E2E2E2E2E2E2E2E2E2E2E2E2E2E2E2E2E2E2E2E2E2E2E2E2E2E2E2E2E2E2E2E2E2E2E2E2E2E2E2E2E2E2E2E2E2E2E2E2E2E2E2E2E2E2E2E2E2E2E2E2E2E2E2E2E2E2E2E2E2E2E2E2E2E2
310
E2E2E2E2E2E2E2E2E2E2E2E2E2E2E2E2E2E2E2E2E2E2E2E2E2E2E2E2E2E2E2E2E2E2E2E2E2E2E2E2E2E2E2E2E2E2E2E2E2E2E2E2E2E2E2E2E2E2E2E2E2E2E2E2E2E2E2E2E2E2E2E2E2E2E2E2E2E2E2E2E2E2E2E2E2E2E2E2E2E2E2E2E2E2E2E2E2E2E2E2E2E2E2E2E2E2E2E2E2E2E2E2E2E2E2E2E2E2E2E2E2E2E2E2E2E2E2
310
E2E2E2E2E2E2E2E2E2E2E2E2E2E2E2E2E2E2E2E2E2E2E2E2E2E2E2E2E2E2E2E2E2E2E2E2E2E2E2E2E2E2E2E2E2E2E2E2E2E2E2E2E2E2E2E2E2E2E2E2E2E2E2E2E2E2E2E2E2E2E2E2E2E2E2E2E2E2E2E2E2E2E2E2E2E2E2E2E2E2E2E2E2E2E2E2E2E2E2E2E2E2E2E2E2E2E2E2E2E2E2E2E2E2E2E2E2E2E2E2E2E2E2E2E2E2E2
310
E2E2E2E2E2E2E2E2E2E2E2E2E2E2E2E2E2E2E2E2E2E2E2E2E2E2E2E2E2E2E2E2E2E2E2E2E2E2E2E2E2E2E2E2E2E2E2E2E2E2E2E2E2E2E2E2E2E2E2E2E2E2E2E2E2E2E2E2E2E2E2E2E2E2E2E2E2E2E2E2E2E2E2E2E2E2E2E2E2E2E2E2E2E2E2E2E2E2E2E2E2E2E2E2E2E2E2E2E2E2E2E2E2E2E2E2E2E2E2E2E2E2E2E2E2E2E2
310
E2E2E2E2E2E2E2E2E2E2E2E2E2E2E2E2E2E2E2E2E2E2E2E2E2E2E2E2E2E2E2E2E2E2E2E2E2E2E2E2E2E2E2E2E2E2E2E2E2E2E2E2E2E2E2E2E2E2E2E2E2E2E2E2E2E2E2E2E2E2E2E2E2E2E2E2E2E2E2E2E2E2E2E2E2E2E2E2E2E2E2E2E2E2E2E2E2E2E2E2E2E2E2E2E2E2E2E2E2E2E2E2E2E2E2E2E2E2E2E2E2E2E2E2E2E2E2
310
E2E2E2E2E2E2E2E2E2E2E2E2E2E2E2E2E2E2E2E2E2E2E2E2E2E2E2E2E2E2E2E2E2E2E2E2E2E2E2E2E2E2E2E2E2E2E2E2E2E2E2E2E2E2E2E2E2E2E2E2E2E2E2E2E2E2E2E2E2E2E2E2E2E2E2E2E2E2E2E2E2E2E2E2E2E2E2E2E2E2E2E2E2E2E2E2E2E2E2E2E2E2E2E2E2E2E2E2E2E2E2E2E2E2E2E2E2E2E2E2E2E2E2E2E2E2E2
310
E2E2E2E2E2E2E2E2E2E2E2E2E2E2E2E2E2E2E2E2E2E2E2E2E2E2E2E2E2E2E2E2E2E2E2E2E2E2E2E2E2E2E2E2E2E2E2E2E2E2E2E2E2E2E2E2E2E2E2E2E2E2E2E2E2E2E2E2E2E2E2E2E2E2E2E2E2E2E2E2E2E2E2E2E2E2E2E2E2E2E2E2E2E2E2E2E2E2E2E2E2E2E2E2E2E2E2E2E2E2E2E2E2E2E2E2E2E2E2E2E2E2E2E2E2E2E2
310
E2E2E2E2E2E2E2E2E2E2E2E2E2E2E2E2E2E2E2E2E2E2E2E2E2E2E2E2E2E2E2E2E2E2E2E2E2E2E2E2E2E2E2E2E2E2E2E2E2E2E2E2E2E2E2E2E2E2E2E2E2E2E2E2E2E2E2E2E2E2E2E2E2E2E2E2E2E2E2E2E2E2E2E2E2E2E2E2E2E2E2E2E2E2E2E2E2E2E2E2E2E2E2E2E2E2E2E2E2E2E2E2E2E2E2E2E2E2E2E2E2E2E2E2E2E2E2
310
E2E2E2E2E2E2E2E2E2E2E2E2E2E2E2E2E2E2E2E2E2E2E2E2E2E2E2E2E2E2E2E2E2E2E2E2E2E2E2E2E2E2E2E2E2E2E2E2E2E2E2E2E2E2E2E2E2E2E2E2E2E2E2E2E2E2E2E2E2E2E2E2E2E2E2E2E2E2E2E2E2E2E2E2E2E2E2E2E2E2E2E2E2E2E2E2E2E2E2E2E2E2E2E2E2E2E2E2E2E2E2E2E2E2E2E2E2E2E2E2E2E2E2E2E2E2E2
310
E2E2E2E2E2E2E2E2E2E2E2E2E2E2E2E2E2E2E2E2E2E2E2E2E2E2E2E2E2E2E2E2E2E2E2E2E2E2E2E2E2E2E2E2E2E2E2E2E2E2E2E2E2E2E2E2E2E2E2E2E2E2E2E2E2E2E2E2E2E2E2E2E2E2E2E2E2E2E2E2E2E2E2E2E2E2E2E2E2E2E2E2E2E2E2E2E2E2E2E2E2E2E2E2E2E2E2E2E2E2E2E2E2E2E2E2E2E2E2E2E2E2E2E2E2E2E2
310
E2E2E2E2E2E2E2E2E2E2E2E2E2E2E2E2E2E2E2E2E2E2E2E2E2E2E2E2E2E2E2E2E2E2E2E2E2E2E2E2E2E2E2E2E2E2E2E2E2E2E2E2E2E2E2E2E2E2E2E2E2E2E2E2E2E2E2E2E2E2E2E2E2E2E2E2E2E2E2E2E2E2E2E2E2E2E2E2E2E2E2E2E2E2E2E2E2E2E2E2E2E2E2E2E2E2E2E2E2E2E2E2E2E2E2E2E2E2E2E2E2E2E2E2E2E2E2
310
E2E2E2E2E2E2E2E2E2E2E2E2E2E2E2E2E2E2E2E2E2E2E2E2E2E2E2E2E2E2E2E2E2E2E2E2E2E2E2E2E2E2E2E2E2E2E2E2E2E2E2E2E2E2E2E2E2E2E2E2E2E2E2E2E2E2E2E2E2E2E2E2E2E2E2E2E2E2E2E2E2E2E2E2E2E2E2E2E2E2E2E2E2E2E2E2E2E2E2E2E2E2E2E2E2E2E2E2E2E2E2E2E2E2E2E2E2E2E2E2E2E2E2E2E2E2E2
310
E2E2E2E2E2E2E2E2E2E2E2E2E2E2E2E2E2E2E2E2E2E2E2E2E2E2E2E2E2E2E2E2E2E2E2E2E2E2E2E2E2E2E2E2E2E2E2E2E2E2E2E2E2E2E2E2E2E2E2E2E2E2E2E2E2E2E2E2E2E2E2E2E2E2E2E2E2E2E2E2E2E2E2E2E2E2E2E2E2E2E2E2E2E2E2E2E2E2E2E2E2E2E2E2E2E2E2E2E2E2E2E2E2E2E2E2E2E2E2E2E2E2E2E2E2E2E2
310
E2E2E2E2E2E2E2E2E2E2E2E2E2E2E2E2E2E2E2E2E2E2E2E2E2E2E2E2E2E2E2E2E2E2E2E2E2E2E2E2E2E2E2E2E2E2E2E2E2E2E2E2E2E2E2E2E2E2E2E2E2E2E2E2E2E2E2E2E2E2E2E2E2E2E2E2E2E2E2E2E2E2E2E2E2E2E2E2E2E2E2E2E2E2E2E2E2E2E2E2E2E2E2E2E2E2E2E2E2E2E2E2E2E2E2E2E2E2E2E2E2E2E2E2E2E2E2
310
E2E2E2E2E2E2E2E2E2E2E2E2E2E2E2E2E2E2E2E2E2E2E2E2E2E2E2E2E2E2E2E2E2E2E2E2E2E2E2E2E2E2E2E2E2E2E2E2E2E2E2E2E2E2E2E2E2E2E2E2E2E2E2E2E2E2E2E2E2E2E2E2E2E2E2E2E2E2E2E2E2E2E2E2E2E2E2E2E2E2E2E2E2E2E2E2E2E2E2E2E2E2E2E2E2E2E2E2E2E2E2E2E2E2E2E2E2E2E2E2E2E2E2E2E2E2E2
310
E2E2E2E2E2E2E2E2E2E2E2E2E2E2E2E2E2E2E2E2E2E2E2E2E2E2E2E2E2E2E2E2E2E2E2E2E2E2E2E2E2E2E2E2E2E2E2E2E2E2E2E2E2E2E2E2E2E2E2E2E2E2E2E2E2E2E2E2E2E2E2E2E2E2E2E2E2E2E2E2E2E2E2E2E2E2E2E2E2E2E2E2E2E2E2E2E2E2E2E2E2E2E2E2E2E2E2E2E2E2E2E2E2E2E2E2E2E2E2E2E2E2E2E2E2E2E2
310
E2E2E2E2E2E2E2E2E2E2E2E2E2E2E2E2E2E2E2E2E2E2E2E2E2E2E2E2E2E2E2E2E2E2E2E2E2E2E2E2E2E2E2E2E2E2E2E2E2E2E2E2E2E2E2E2E2E2E2E2E2E2E2E2E2E2E2E2E2E2E2E2E2E2E2E2E2E2E2E2E2E2E2E2E2E2E2E2E2E2E2E2E2E2E2E2E2E2E2E2E2E2E2E2E2E2E2E2E2E2E2E2E2E2E2E2E2E2E2E2E2E2E2E2E2E2E2
310
E2E2E2E2E2E2E2E2E2E2E2E2E2E2E2E2E2E2E2E2E2E2E2E2E2E2E2E2E2E2E2E2E2E2E2E2E2E2E2E2E2E2E2E2E2E2E2E2E2E2E2E2E2E2E2E2E2E2E2E2E2E2E2E2E2E2E2E2E2E2E2E2E2E2E2E2E2E2E2E2E2E2E2E2E2E2E2E2E2E2E2E2E2E2E2E2E2E2E2E2E2E2E2E2E2E2E2E2E2E2E2E2E2E2E2E2E2E2E2E2E2E2E2E2E2E2E2
310
E2E2E2E2E2E2E2E2E2E2E2E2E2E2E2E2E2E2E2E2E2E2E2E2E2E2E2E2E2E2E2E2E2E2E2E2E2E2E2E2E2E2E2E2E2E2E2E2E2E2E2E2E2E2E2E2E2E2E2E2E2E2E2E2E2E2E2E2E2E2E2E2E2E2E2E2E2E2E2E2E2E2E2E2E2E2E2E2E2E2E2E2E2E2E2E2E2E2E2E2E2E2E2E2E2E2E2E2E2E2E2E2E2E2E2E2E2E2E2E2E2E2E2E2E2E2E2
310
E2E2E2E2E2E2E2E2E2E2E2E2E2E2E2E2E2E2E2E2E2E2E2E2E2E2E2E2E2E2E2E2E2E2E2E2E2E2E2E2E2E2E2E2E2E2E2E2E2E2E2E2E2E2E2E2E2E2E2E2E2E2E2E2E2E2E2E2E2E2E2E2E2E2E2E2E2E2E2E2E2E2E2E2E2E2E2E2E2E2E2E2E2E2E2E2E2E2E2E2E2E2E2E2E2E2E2E2E2E2E2E2E2E2E2E2E2E2E2E2E2E2E2E2E2E2E2
310
E2E2E2E2E2E2E2E2E2E2E2E2E2E2E2E2E2E2E2E2E2E2E2E2E2E2E2E2E2E2E2E2E2E2E2E2E2E2E2E2E2E2E2E2E2E2E2E2E2E2E2E2E2E2E2E2E2E2E2E2E2E2E2E2E2E2E2E2E2E2E2E2E2E2E2E2E2E2E2E2E2E2E2E2E2E2E2E2E2E2E2E2E2E2E2E2E2E2E2E2E2E2E2E2E2E2E2E2E2E2E2E2E2E2E2E2E2E2E2E2E2E2E2E2E2E2E2
310
E2E2E2E2E2E2E2E2E2E2E2E2E2E2E2E2E2E2E2E2E2E2E2E2E2E2E2E2E2E2E2E2E2E2E2E2E2E2E2E2E2E2E2E2E2E2E2E2E2E2E2E2E2E2E2E2E2E2E2E2E2E2E2E2E2E2E2E2E2E2E2E2E2E2E2E2E2E2E2E2E2E2E2E2E2E2E2E2E2E2E2E2E2E2E2E2E2E2E2E2E2E2E2E2E2E2E2E2E2E2E2E2E2E2E2E2E2E2E2E2E2E2E2E2E2E2E2
310
E2E2E2E2E2E2E2E2E2E2E2E2E2E2E2E2E2E2E2E2E2E2E2E2E2E2E2E2E2E2E2E2E2E2E2E2E2E2E2E2E2E2E2E2E2E2E2E2E2E2E2E2E2E2E2E2E2E2E2E2E2E2E2E2E2E2E2E2E2E2E2E2E2E2E2E2E2E2E2E2E2E2E2E2E2E2E2E2E2E2E2E2E2E2E2E2E2E2E2E2E2E2E2E2E2E2E2E2E2E2E2E2E2E2E2E2E2E2E2E2E2E2E2E2E2E2E2
310
E2E2E2E2E2E2E2E2E2E2E2E2E2E2E2E2E2E2E2E2E2E2E2E2E2E2E2E2E2E2E2E2E2E2E2E2E2E2E2E2E2E2E2E2E2E2E2E2E2E2E2E2E2E2E2E2E2E2E2E2E2E2E2E2E2E2E2E2E2E2E2E2E2E2E2E2E2E2E2E2E2E2E2E2E2E2E2E2E2E2E2E2E2E2E2E2E2E2E2E2E2E2E2E2E2E2E2E2E2E2E2E2E2E2E2E2E2E2E2E2E2E2E2E2E2E2E2
310
E2E2E2E2E2E2E2E2E2E2E2E2E2E2E2E2E2E2E2E2E2E2E2E2E2E2E2E2E2E2E2E2E2E2E2E2E2E2E2E2E2E2E2E2E2E2E2E2E2E2E2E2E2E2E2E2E2E2E2E2E2E2E2E2E2E2E2E2E2E2E2E2E2E2E2E2E2E2E2E2E2E2E2E2E2E2E2E2E2E2E2E2E2E2E2E2E2E2E2E2E2E2E2E2E2E2E2E2E2E2E2E2E2E2E2E2E2E2E2E2E2E2E2E2E2E2E2
310
E2E2E2E2E2E2E2E2E2E2E2E2E2E2E2E2E2E2E2E2E2E2E2E2E2E2E2E2E2E2E2E2E2E2E2E2E2E2E2E2E2E2E2E2E2E2E2E2E2E2E2E2E2E2E2E2E2E2E2E2E2E2E2E2E2E2E2E2E2E2E2E2E2E2E2E2E2E2E2E2E2E2E2E2E2E2E2E2E2E2E2E2E2E2E2E2E2E2E2E2E2E2E2E2E2E2E2E2E2E2E2E2E2E2E2E2E2E2E2E2E2E2E2E2E2E2E2
310
E2E2E2E2E2E2E2E2E2E2E2E2E2E2E2E2E2E2E2E2E2E2E2E2E2E2E2E2E2E2E2E2E2E2E2E2E2E2E2E2E2E2E2E2E2E2E2E2E2E2E2E2E2E2E2E2E2E2E2E2E2E2E2E2E2E2E2E2E2E2E2E2E2E2E2E2E2E2E2E2E2E2E2E2E2E2E2E2E2E2E2E2E2E2E2E2E2E2E2E2E2E2E2E2E2E2E2E2E2E2E2E2E2E2E2E2E2E2E2E2E2E2E2E2E2E2E2
310
E2E2E2E2E2E2E2E2E2E2E2E2E2E2E2E2E2E2E2E2E2E2E2E2E2E2E2E2E2E2E2E2E2E2E2E2E2E2E2E2E2E2E2E2E2E2E2E2E2E2E2E2E2E2E2E2E2E2E2E2E2E2E2E2E2E2E2E2E2E2E2E2E2E2E2E2E2E2E2E2E2E2E2E2E2E2E2E2E2E2E2E2E2E2E2E2E2E2E2E2E2E2E2E2E2E2E2E2E2E2E2E2E2E2E2E2E2E2E2E2E2E2E2E2E2E2E2
310
E2E2E2E2E2E2E2E2E2E2E2E2E2E2E2E2E2E2E2E2E2E2E2E2E2E2E2E2E2E2E2E2E2E2E2E2E2E2E2E2E2E2E2E2E2E2E2E2E2E2E2E2E2E2E2E2E2E2E2E2E2E2E2E2E2E2E2E2E2E2E2E2E2E2E2E2E2E2E2E2E2E2E2E2E2E2E2E2E2E2E2E2E2E2E2E2E2E2E2E2E2E2E2E2E2E2E2E2E2E2E2E2E2E2E2E2E2E2E2E2E2E2E2E2E2E2E2
310
E2E2E2E2E2E2E2E2E2E2E2E2E2E2E2E2E2E2E2E2E2E2E2E2E2E2E2E2E2E2E2E2E2E2E2E2E2E2E2E2E2E2E2E2E2E2E2E2E2E2E2E2E2E2E2E2E2E2E2E2E2E2E2E2E2E2E2E2E2E2E2E2E2E2E2E2E2E2E2E2E2E2E2E2E2E2E2E2E2E2E2E2E2E2E2E2E2E2E2E2E2E2E2E2E2E2E2E2E2E2E2E2E2E2E2E2E2E2E2E2E2E2E2E2E2E2E2
310
E2E2E2E2E2E2E2E2E2E2E2E2E2E2E2E2E2E2E2E2E2E2E2E2E2E2E2E2E2E2E2E2E2E2E2E2E2E2E2E2E2E2E2E2E2E2E2E2E2E2E2E2E2E2E2E2E2E2E2E2E2E2E2E2E2E2E2E2E2E2E2E2E2E2E2E2E2E2E2E2E2E2E2E2E2E2E2E2E2E2E2E2E2E2E2E2E2E2E2E2E2E2E2E2E2E2E2E2E2E2E2E2E2E2E2E2E2E2E2E2E2E2E2E2E2E2E2
310
E2E2E2E2E2E2E2E2E2E2E2E2E2E2E2E2E2E2E2E2E2E2E2E2E2E2E2E2E2E2E2E2E2E2E2E2E2E2E2E2E2E2E2E2E2E2E2E2E2E2E2E2E2E2E2E2E2E2E2E2E2E2E2E2E2E2E2E2E2E2E2E2E2E2E2E2E2E2E2E2E2E2E2E2E2E2E2E2E2E2E2E2E2E2E2E2E2E2E2E2E2E2E2E2E2E2E2E2E2E2E2E2E2E2E2E2E2E2E2E2E2E2E2E2E2E2E2
310
E2E2E2E2E2E2E2E2E2E2E2E2E2E2E2E2E2E2E2E2E2E2E2E2E2E2E2E2E2E2E2E2E2E2E2E2E2E2E2E2E2E2E2E2E2E2E2E2E2E2E2E2E2E2E2E2E2E2E2E2E2E2E2E2E2E2E2E2E2E2E2E2E2E2E2E2E2E2E2E2E2E2E2E2E2E2E2E2E2E2E2E2E2E2E2E2E2E2E2E2E2E2E2E2E2E2E2E2E2E2E2E2E2E2E2E2E2E2E2E2E2E2E2E2E2E2E2
310
E2E2E2E2E2E2E2E2E2E2E2E2E2E2E2E2E2E2E2E2E2E2E2E2E2E2E2E2E2E2E2E2E2E2E2E2E2E2E2E2E2E2E2E2E2E2E2E2E2E2E2E2E2E2E2E2E2E2E2E2E2E2E2E2E2E2E2E2E2E2E2E2E2E2E2E2E2E2E2E2E2E2E2E2E2E2E2E2E2E2E2E2E2E2E2E2E2E2E2E2E2E2E2E2E2E2E2E2E2E2E2E2E2E2E2E2E2E2E2E2E2E2E2E2E2E2E2
310
E2E2E2E2E2E2E2E2E2E2E2E2E2E2E2E2E2E2E2E2E2E2E2E2E2E2E2E2E2E2E2E2E2E2E2E2E2E2E2E2E2E2E2E2E2E2E2E2E2E2E2E2E2E2E2E2E2E2E2E2E2E2E2E2E2E2E2E2E2E2E2E2E2E2E2E2E2E2E2E2E2E2E2E2E2E2E2E2E2E2E2E2E2E2E2E2E2E2E2E2E2E2E2E2E2E2E2E2E2E2E2E2E2E2E2E2E2E2E2E2E2E2E2E2E2E2E2
310
E2E2E2E2E2E2E2E2E2E2E2E2E2E2E2E2E2E2E2E2E2E2E2E2E2E2E2E2E2E2E2E2E2E2E2E2E2E2E2E2E2E2E2E2E2E2E2E2E2E2E2E2E2E2E2E2E2E2E2E2E2E2E2E2E2E2E2E2E2E2E2E2E2E2E2E2E2E2E2E2E2E2E2E2E2E2E2E2E2E2E2E2E2E2E2E2E2E2E2E2E2E2E2E2E2E2E2E2E2E2E2E2E2E2E2E2E2E2E2E2E2E2E2E2E2E2E2
310
E2E2E2E2E2E2E2E2E2E2E2E2E2E2E2E2E2E2E2E2E2E2E2E2E2E2E2E2E2E2E2E2E2E2E2E2E2E2E2E2E2E2E2E2E2E2E2E2E2E2E2E2E2E2E2E2E2E2E2E2E2E2E2E2E2E2E2E2E2E2E2E2E2E2E2E2E2E2E2E2E2E2E2E2E2E2E2E2E2E2E2E2E2E2E2E2E2E2E2E2E2E2E2E2E2E2E2E2E2E2E2E2E2E2E2E2E2E2E2E2E2E2E2E2E2E2E2
310
E2E2E2E2E2E2E2E2E2E2E2E2E2E2E2E2E2E2E2E2E2E2E2E2E2E2E2E2E2E2E2E2E2E2E2E2E2E2E2E2E2E2E2E2E2E2E2E2E2E2E2E2E2E2E2E2E2E2E2E2E2E2E2E2E2E2E2E2E2E2E2E2E2E2E2E2E2E2E2E2E2E2E2E2E2E2E2E2E2E2E2E2E2E2E2E2E2E2E2E2E2E2E2E2E2E2E2E2E2E2E2E2E2E2E2E2E2E2E2E2E2E2E2E2E2E2E2
310
E2E2E2E2E2E2E2E2E2E2E2E2E2E2E2E2E2E2E2E2E2E2E2E2E2E2E2E2E2E2E2E2E2E2E2E2E2E2E2E2E2E2E2E2E2E2E2E2E2E2E2E2E2E2E2E2E2E2E2E2E2E2E2E2E2E2E2E2E2E2E2E2E2E2E2E2E2E2E2E2E2E2E2E2E2E2E2E2E2E2E2E2E2E2E2E2E2E2E2E2E2E2E2E2E2E2E2E2E2E2E2E2E2E2E2E2E2E2E2E2E2E2E2E2E2E2E2
310
E2E2E2E2E2E2E2E2E2E2E2E2E2E2E2E2E2E2E2E2E2E2E2E2E2E2E2E2E2E2E2E2E2E2E2E2E2E2E2E2E2E2E2E2E2E2E2E2E2E2E2E2E2E2E2E2E2E2E2E2E2E2E2E2E2E2E2E2E2E2E2E2E2E2E2E2E2E2E2E2E2E2E2E2E2E2E2E2E2E2E2E2E2E2E2E2E2E2E2E2E2E2E2E2E2E2E2E2E2E2E2E2E2E2E2E2E2E2E2E2E2E2E2E2E2E2E2
310
E2E2E2E2E2E2E2E2E2E2E2E2E2E2E2E2E2E2E2E2E2E2E2E2E2E2E2E2E2E2E2E2E2E2E2E2E2E2E2E2E2E2E2E2E2E2E2E2E2E2E2E2E2E2E2E2E2E2E2E2E2E2E2E2E2E2E2E2E2E2E2E2E2E2E2E2E2E2E2E2E2E2E2E2E2E2E2E2E2E2E2E2E2E2E2E2E2E2E2E2E2E2E2E2E2E2E2E2E2E2E2E2E2E2E2E2E2E2E2E2E2E2E2E2E2E2E2
310
E2E2E2E2E2E2E2E2E2E2E2E2E2E2E2E2E2E2E2E2E2E2E2E2E2E2E2E2E2E2E2E2E2E2E2E2E2E2E2E2E2E2E2E2E2E2E2E2E2E2E2E2E2E2E2E2E2E2E2E2E2E2E2E2E2E2E2E2E2E2E2E2E2E2E2E2E2E2E2E2E2E2E2E2E2E2E2E2E2E2E2E2E2E2E2E2E2E2E2E2E2E2E2E2E2E2E2E2E2E2E2E2E2E2E2E2E2E2E2E2E2E2E2E2E2E2E2
310
E2E2E2E2E2E2E2E2E2E2E2E2E2E2E2E2E2E2E2E2E2E2E2E2E2E2E2E2E2E2E2E2E2E2E2E2E2E2E2E2E2E2E2E2E2E2E2E2E2E2E2E2E2E2E2E2E2E2E2E2E2E2E2E2E2E2E2E2E2E2E2E2E2E2E2E2E2E2E2E2E2E2E2E2E2E2E2E2E2E2E2E2E2E2E2E2E2E2E2E2E2E2E2E2E2E2E2E2E2E2E2E2E2E2E2E2E2E2E2E2E2E2E2E2E2E2E2
310
E2E2E2E2E2E2E2E2E2E2E2E2E2E2E2E2E2E2E2E2E2E2E2E2E2E2E2E2E2E2E2E2E2E2E2E2E2E2E2E2E2E2E2E2E2E2E2E2E2E2E2E2E2E2E2E2E2E2E2E2E2E2E2E2E2E2E2E2E2E2E2E2E2E2E2E2E2E2E2E2E2E2E2E2E2E2E2E2E2E2E2E2E2E2E2E2E2E2E2E2E2E2E2E2E2E2E2E2E2E2E2E2E2E2E2E2E2E2E2E2E2E2E2E2E2E2E2
310
E2E2E2E2E2E2E2E2E2E2E2E2E2E2E2E2E2E2E2E2E2E2E2E2E2E2E2E2E2E2E2E2E2E2E2E2E2E2E2E2E2E2E2E2E2E2E2E2E2E2E2E2E2E2E2E2E2E2E2E2E2E2E2E2E2E2E2E2E2E2E2E2E2E2E2E2E2E2E2E2E2E2E2E2E2E2E2E2E2E2E2E2E2E2E2E2E2E2E2E2E2E2E2E2E2E2E2E2E2E2E2E2E2E2E2E2E2E2E2E2E2E2E2E2E2E2E2
310
E2E2E2E2E2E2E2E2E2E2E2E2E2E2E2E2E2E2E2E2E2E2E2E2E2E2E2E2E2E2E2E2E2E2E2E2E2E2E2E2E2E2E2E2E2E2E2E2E2E2E2E2E2E2E2E2E2E2E2E2E2E2E2E2E2E2E2E2E2E2E2E2E2E2E2E2E2E2E2E2E2E2E2E2E2E2E2E2E2E2E2E2E2E2E2E2E2E2E2E2E2E2E2E2E2E2E2E2E2E2E2E2E2E2E2E2E2E2E2E2E2E2E2E2E2E2E2
310
E2E2E2E2E2E2E2E2E2E2E2E2E2E2E2E2E2E2E2E2E2E2E2E2E2E2E2E2E2E2E2E2E2E2E2E2E2E2E2E2E2E2E2E2E2E2E2E2E2E2E2E2E2E2E2E2E2E2E2E2E2E2E2E2E2E2E2E2E2E2E2E2E2E2E2E2E2E2E2E2E2E2E2E2E2E2E2E2E2E2E2E2E2E2E2E2E2E2E2E2E2E2E2E2E2E2E2E2E2E2E2E2E2E2E2E2E2E2E2E2E2E2E2E2E2E2E2
310
E2E2E2E2E2E2E2E2E2E2E2E2E2E2E2E2E2E2E2E2E2E2E2E2E2E2E2E2E2E2E2E2E2E2E2E2E2E2E2E2E2E2E2E2E2E2E2E2E2E2E2E2E2E2E2E2E2E2E2E2E2E2E2E2E2E2E2E2E2E2E2E2E2E2E2E2E2E2E2E2E2E2E2E2E2E2E2E2E2E2E2E2E2E2E2E2E2E2E2E2E2E2E2E2E2E2E2E2E2E2E2E2E2E2E2E2E2E2E2E2E2E2E2E2E2E2E2
310
E2E2E2E2E2E2E2E2E2E2E2E2E2E2E2E2E2E2E2E2E2E2E2E2E2E2E2E2E2E2E2E2E2E2E2E2E2E2E2E2E2E2E2E2E2E2E2E2E2E2E2E2E2E2E2E2E2E2E2E2E2E2E2E2E2E2E2E2E2E2E2E2E2E2E2E2E2E2E2E2E2E2E2E2E2E2E2E2E2E2E2E2E2E2E2E2E2E2E2E2E2E2E2E2E2E2E2E2E2E2E2E2E2E2E2E2E2E2E2E2E2E2E2E2E2E2E2
310
E2E2E2E2E2E2E2E2E2E2E2E2E2E2E2E2E2E2E2E2E2E2E2E2E2E2E2E2E2E2E2E2E2E2E2E2E2E2E2E2E2E2E2E2E2E2E2E2E2E2E2E2E2E2E2E2E2E2E2E2E2E2E2E2E2E2E2E2E2E2E2E2E2E2E2E2E2E2E2E2E2E2E2E2E2E2E2E2E2E2E2E2E2E2E2E2E2E2E2E2E2E2E2E2E2E2E2E2E2E2E2E2E2E2E2E2E2E2E2E2E2E2E2E2E2E2E2
310
E2E2E2E2E2E2E2E2E2E2E2E2E2E2E2E2E2E2E2E2E2E2E2E2E2E2E2E2E2E2E2E2E2E2E2E2E2E2E2E2E2E2E2E2E2E2E2E2E2E2E2E2E2E2E2E2E2E2E2E2E2E2E2E2E2E2E2E2E2E2E2E2E2E2E2E2E2E2E2E2E2E2E2E2E2E2E2E2E2E2E2E2E2E2E2E2E2E2E2E2E2E2E2E2E2E2E2E2E2E2E2E2E2E2E2E2E2E2E2E2E2E2E2E2E2E2E2
310
E2E2E2E2E2E2E2E2E2E2E2E2E2E2E2E2E2E2E2E2E2E2E2E2E2E2E2E2E2E2E2E2E2E2E2E2E2E2E2E2E2E2E2E2E2E2E2E2E2E2E2E2E2E2E2E2E2E2E2E2E2E2E2E2E2E2E2E2E2E2E2E2E2E2E2E2E2E2E2E2E2E2E2E2E2E2E2E2E2E2E2E2E2E2E2E2E2E2E2E2E2E2E2E2E2E2E2E2E2E2E2E2E2E2E2E2E2E2E2E2E2E2E2E2E2E2E2
310
E2E2E2E2E2E2E2E2E2E2E2E2E2E2E2E2E2E2E2E2E2E2E2E2E2E2E2E2E2E2E2E2E2E2E2E2E2E2E2E2E2E2E2E2E2E2E2E2E2E2E2E2E2E2E2E2E2E2E2E2E2E2E2E2E2E2E2E2E2E2E2E2E2E2E2E2E2E2E2E2E2E2E2E2E2E2E2E2E2E2E2E2E2E2E2E2E2E2E2E2E2E2E2E2E2E2E2E2E2E2E2E2E2E2E2E2E2E2E2E2E2E2E2E2E2E2E2
310
E2E2E2E2E2E2E2E2E2E2E2E2E2E2E2E2E2E2E2E2E2E2E2E2E2E2E2E2E2E2E2E2E2E2E2E2E2E2E2E2E2E2E2E2E2E2E2E2E2E2E2E2E2E2E2E2E2E2E2E2E2E2E2E2E2E2E2E2E2E2E2E2E2E2E2E2E2E2E2E2E2E2E2E2E2E2E2E2E2E2E2E2E2E2E2E2E2E2E2E2E2E2E2E2E2E2E2E2E2E2E2E2E2E2E2E2E2E2E2E2E2E2E2E2E2E2E2
310
E2E2E2E2E2E2E2E2E2E2E2E2E2E2E2E2E2E2E2E2E2E2E2E2E2E2E2E2E2E2E2E2E2E2E2E2E2E2E2E2E2E2E2E2E2E2E2E2E2E2E2E2E2E2E2E2E2E2E2E2E2E2E2E2E2E2E2E2E2E2E2E2E2E2E2E2E2E2E2E2E2E2E2E2E2E2E2E2E2E2E2E2E2E2E2E2E2E2E2E2E2E2E2E2E2E2E2E2E2E2E2E2E2E2E2E2E2E2E2E2E2E2E2E2E2E2E2
310
E2E2E2E2E2E2E2E2E2E2E2E2E2E2E2E2E2E2E2E2E2E2E2E2E2E2E2E2E2E2E2E2E2E2E2E2E2E2E2E2E2E2E2E2E2E2E2E2E2E2E2E2E2E2E2E2E2E2E2E2E2E2E2E2E2E2E2E2E2E2E2E2E2E2E2E2E2E2E2E2E2E2E2E2E2E2E2E2E2E2E2E2E2E2E2E2E2E2E2E2E2E2E2E2E2E2E2E2E2E2E2E2E2E2E2E2E2E2E2E2E2E2E2E2E2E2E2
310
E2E2E2E2E2E2E2E2E2E2E2E2E2E2E2E2E2E2E2E2E2E2E2E2E2E2E2E2E2E2E2E2E2E2E2E2E2E2E2E2E2E2E2E2E2E2E2E2E2E2E2E2E2E2E2E2E2E2E2E2E2E2E2E2E2E2E2E2E2E2E2E2E2E2E2E2E2E2E2E2E2E2E2E2E2E2E2E2E2E2E2E2E2E2E2E2E2E2E2E2E2E2E2E2E2E2E2E2E2E2E2E2E2E2E2E2E2E2E2E2E2E2E2E2E2E2E2
310
E2E2E2E2E2E2E2E2E2E2E2E2E2E2E2E2E2E2E2E2E2E2E2E2E2E2E2E2E2E2E2E2E2E2E2E2E2E2E2E2E2E2E2E2E2E2E2E2E2E2E2E2E2E2E2E2E2E2E2E2E2E2E2E2E2E2E2E2E2E2E2E2E2E2E2E2E2E2E2E2E2E2E2E2E2E2E2E2E2E2E2E2E2E2E2E2E2E2E2E2E2E2E2E2E2E2E2E2E2E2E2E2E2E2E2E2E2E2E2E2E2E2E2E2E2E2E2
310
E2E2E2E2E2E2E2E2E2E2E2E2E2E2E2E2E2E2E2E2E2E2E2E2E2E2E2E2E2E2E2E2E2E2E2E2E2E2E2E2E2E2E2E2E2E2E2E2E2E2E2E2E2E2E2E2E2E2E2E2E2E2E2E2E2E2E2E2E2E2E2E2E2E2E2E2E2E2E2E2E2E2E2E2E2E2E2E2E2E2E2E2E2E2E2E2E2E2E2E2E2E2E2E2E2E2E2E2E2E2E2E2E2E2E2E2E2E2E2E2E2E2E2E2E2E2E2
310
E2E2E2E2E2E2E2E2E2E2E2E2E2E2E2E2E2E2E2E2E2E2E2E2E2E2E2E2E2E2E2E2E2E2E2E2E2E2E2E2E2E2E2E2E2E2E2E2E2E2E2E2E2E2E2E2E2E2E2E2E2E2E2E2E2E2E2E2E2E2E2E2E2E2E2E2E2E2E2E2E2E2E2E2E2E2E2E2E2E2E2E2E2E2E2E2E2E2E2E2E2E2E2E2E2E2E2E2E2E2E2E2E2E2E2E2E2E2E2E2E2E2E2E2E2E2E2
310
E2E2E2E2E2E2E2E2E2E2E2E2E2E2E2E2E2E2E2E2E2E2E2E2E2E2E2E2E2E2E2E2E2E2E2E2E2E2E2E2E2E2E2E2E2E2E2E2E2E2E2E2E2E2E2E2E2E2E2E2E2E2E2E2E2E2E2E2E2E2E2E2E2E2E2E2E2E2E2E2E2E2E2E2E2E2E2E2E2E2E2E2E2E2E2E2E2E2E2E2E2E2E2E2E2E2E2E2E2E2E2E2E2E2E2E2E2E2E2E2E2E2E2E2E2E2E2
310
E2E2E2E2E2E2E2E2E2E2E2E2E2E2E2E2E2E2E2E2E2E2E2E2E2E2E2E2E2E2E2E2E2E2E2E2E2E2E2E2E2E2E2E2E2E2E2E2E2E2E2E2E2E2E2E2E2E2E2E2E2E2E2E2E2E2E2E2E2E2E2E2E2E2E2E2E2E2E2E2E2E2E2E2E2E2E2E2E2E2E2E2E2E2E2E2E2E2E2E2E2E2E2E2E2E2E2E2E2E2E2E2E2E2E2E2E2E2E2E2E2E2E2E2E2E2E2
310
E2E2E2E2E2E2E2E2E2E2E2E2E2E2E2E2E2E2E2E2E2E2E2E2E2E2E2E2E2E2E2E2E2E2E2E2E2E2E2E2E2E2E2E2E2E2E2E2E2E2E2E2E2E2E2E2E2E2E2E2E2E2E2E2E2E2E2E2E2E2E2E2E2E2E2E2E2E2E2E2E2E2E2E2E2E2E2E2E2E2E2E2E2E2E2E2E2E2E2E2E2E2E2E2E2E2E2E2E2E2E2E2E2E2E2E2E2E2E2E2E2E2E2E2E2E2E2
310
E2E2E2E2E2E2E2E2E2E2E2E2E2E2E2E2E2E2E2E2E2E2E2E2E2E2E2E2E2E2E2E2E2E2E2E2E2E2E2E2E2E2E2E2E2E2E2E2E2E2E2E2E2E2E2E2E2E2E2E2E2E2E2E2E2E2E2E2E2E2E2E2E2E2E2E2E2E2E2E2E2E2E2E2E2E2E2E2E2E2E2E2E2E2E2E2E2E2E2E2E2E2E2E2E2E2E2E2E2E2E2E2E2E2E2E2E2E2E2E2E2E2E2E2E2E2E2
310
E2E2E2E2E2E2E2E2E2E2E2E2E2E2E2E2E2E2E2E2E2E2E2E2E2E2E2E2E2E2E2E2E2E2E2E2E2E2E2E2E2E2E2E2E2E2E2E2E2E2E2E2E2E2E2E2E2E2E2E2E2E2E2E2E2E2E2E2E2E2E2E2E2E2E2E2E2E2E2E2E2E2E2E2E2E2E2E2E2E2E2E2E2E2E2E2E2E2E2E2E2E2E2E2E2E2E2E2E2E2E2E2E2E2E2E2E2E2E2E2E2E2E2E2E2E2E2
310
E2E2E2E2E2E2E2E2E2E2E2E2E2E2E2E2E2E2E2E2E2E2E2E2E2E2E2E2E2E2E2E2E2E2E2E2E2E2E2E2E2E2E2E2E2E2E2E2E2
  0
XRECORD
  5
1276
102
{ACAD_REACTORS
330
115E
102
}
330
115E
100
AcDbXrecord
280
     1
102
MATERIAL
148
0.0
149
0.0
149
0.0
 93
        0
 94
      127
282
     0
 72
     0
 77
     0
171
     0
175
     0
179
     0
273
     0
  0
XRECORD
  5
1160
102
{ACAD_REACTORS
330
115E
102
}
330
115E
100
AcDbXrecord
280
     1
270
     1
271
     1
  0
XRECORD
  5
115F
102
{ACAD_REACTORS
330
115E
102
}
330
115E
100
AcDbXrecord
280
     1
270
     1
271
     1
  0
XRECORD
  5
1163
102
{ACAD_REACTORS
330
115E
102
}
330
115E
100
AcDbXrecord
280
     1
270
     1
271
     1
  0
XRECORD
  5
1162
102
{ACAD_REACTORS
330
115E
102
}
330
115E
100
AcDbXrecord
280
     1
270
     1
271
     1
  0
XRECORD
  5
1164
102
{ACAD_REACTORS
330
115E
102
}
330
115E
100
AcDbXrecord
280
     1
270
     1
271
     1
  0
XRECORD
  5
1161
102
{ACAD_REACTORS
330
115E
102
}
330
115E
100
AcDbXrecord
280
     1
270
     1
271
     1
  0
XRECORD
  5
1275
102
{ACAD_REACTORS
330
1156
102
}
330
1156
100
AcDbXrecord
280
     1
102
MATERIAL
148
0.0
149
0.0
149
0.0
 93
        0
 94
      127
282
     0
 72
     0
 77
     0
171
     0
175
     0
179
     0
273
     0
  0
XRECORD
  5
1158
102
{ACAD_REACTORS
330
1156
102
}
330
1156
100
AcDbXrecord
280
     1
270
     1
271
     1
  0
XRECORD
  5
1157
102
{ACAD_REACTORS
330
1156
102
}
330
1156
100
AcDbXrecord
280
     1
270
     1
271
     1
  0
XRECORD
  5
115B
102
{ACAD_REACTORS
330
1156
102
}
330
1156
100
AcDbXrecord
280
     1
270
     1
271
     1
  0
XRECORD
  5
115A
102
{ACAD_REACTORS
330
1156
102
}
330
1156
100
AcDbXrecord
280
     1
270
     1
271
     1
  0
XRECORD
  5
115C
102
{ACAD_REACTORS
330
1156
102
}
330
1156
100
AcDbXrecord
280
     1
270
     1
271
     1
  0
XRECORD
  5
1159
102
{ACAD_REACTORS
330
1156
102
}
330
1156
100
AcDbXrecord
280
     1
270
     1
271
     1
  0
XRECORD
  5
1277
102
{ACAD_REACTORS
330
1166
102
}
330
1166
100
AcDbXrecord
280
     1
102
MATERIAL
148
0.0
149
0.0
149
0.0
 93
        0
 94
      127
282
     0
 72
     0
 77
     0
171
     0
175
     0
179
     0
273
     0
  0
XRECORD
  5
1168
102
{ACAD_REACTORS
330
1166
102
}
330
1166
100
AcDbXrecord
280
     1
270
     1
271
     1
  0
XRECORD
  5
1167
102
{ACAD_REACTORS
330
1166
102
}
330
1166
100
AcDbXrecord
280
     1
270
     1
271
     1
  0
XRECORD
  5
116B
102
{ACAD_REACTORS
330
1166
102
}
330
1166
100
AcDbXrecord
280
     1
270
     1
271
     1
  0
XRECORD
  5
116A
102
{ACAD_REACTORS
330
1166
102
}
330
1166
100
AcDbXrecord
280
     1
270
     1
271
     1
  0
XRECORD
  5
116C
102
{ACAD_REACTORS
330
1166
102
}
330
1166
100
AcDbXrecord
280
     1
270
     1
271
     1
  0
XRECORD
  5
1169
102
{ACAD_REACTORS
330
1166
102
}
330
1166
100
AcDbXrecord
280
     1
270
     1
271
     1
  0
CELLSTYLEMAP
  5
1BE2
102
{ACAD_REACTORS
330
126A
102
}
330
126A
100
AcDbCellStyleMap
 90
        3
300
CELLSTYLE
  1
TABLEFORMAT_BEGIN
 90
        5
170
     1
 91
        0
 92
    32768
 62
   257
 93
        1
300
CONTENTFORMAT
  1
CONTENTFORMAT_BEGIN
 90
        0
 91
        0
 92
        4
 93
        0
300

 40
0.0
140
1.0
 94
        5
 62
     0
340
852
144
0.25
309
CONTENTFORMAT_END
171
     1
301
MARGIN
  1
CELLMARGIN_BEGIN
 40
0.06
 40
0.06
 40
0.06
 40
0.06
 40
0.18
 40
0.18
309
CELLMARGIN_END
 94
        6
 95
        1
302
GRIDFORMAT
  1
GRIDFORMAT_BEGIN
 90
        0
 91
        1
 62
     0
 92
       -2
340
0
 93
        0
 40
0.045
309
GRIDFORMAT_END
 95
        2
302
GRIDFORMAT
  1
GRIDFORMAT_BEGIN
 90
        0
 91
        1
 62
     0
 92
       -2
340
0
 93
        0
 40
0.045
309
GRIDFORMAT_END
 95
        4
302
GRIDFORMAT
  1
GRIDFORMAT_BEGIN
 90
        0
 91
        1
 62
     0
 92
       -2
340
0
 93
        0
 40
0.045
309
GRIDFORMAT_END
 95
        8
302
GRIDFORMAT
  1
GRIDFORMAT_BEGIN
 90
        0
 91
        1
 62
     0
 92
       -2
340
0
 93
        0
 40
0.045
309
GRIDFORMAT_END
 95
       16
302
GRIDFORMAT
  1
GRIDFORMAT_BEGIN
 90
        0
 91
        1
 62
     0
 92
       -2
340
0
 93
        0
 40
0.045
309
GRIDFORMAT_END
 95
       32
302
GRIDFORMAT
  1
GRIDFORMAT_BEGIN
 90
        0
 91
        1
 62
     0
 92
       -2
340
0
 93
        0
 40
0.045
309
GRIDFORMAT_END
309
TABLEFORMAT_END
  1
CELLSTYLE_BEGIN
 90
        1
 91
        1
300
_TITLE
309
CELLSTYLE_END
300
CELLSTYLE
  1
TABLEFORMAT_BEGIN
 90
        5
170
     1
 91
        0
 92
        0
 62
   257
 93
        1
300
CONTENTFORMAT
  1
CONTENTFORMAT_BEGIN
 90
        0
 91
        0
 92
        4
 93
        0
300

 40
0.0
140
1.0
 94
        5
 62
     0
340
852
144
0.18
309
CONTENTFORMAT_END
171
     1
301
MARGIN
  1
CELLMARGIN_BEGIN
 40
0.06
 40
0.06
 40
0.06
 40
0.06
 40
0.18
 40
0.18
309
CELLMARGIN_END
 94
        6
 95
        1
302
GRIDFORMAT
  1
GRIDFORMAT_BEGIN
 90
        0
 91
        1
 62
     0
 92
       -2
340
0
 93
        0
 40
0.045
309
GRIDFORMAT_END
 95
        2
302
GRIDFORMAT
  1
GRIDFORMAT_BEGIN
 90
        0
 91
        1
 62
     0
 92
       -2
340
0
 93
        0
 40
0.045
309
GRIDFORMAT_END
 95
        4
302
GRIDFORMAT
  1
GRIDFORMAT_BEGIN
 90
        0
 91
        1
 62
     0
 92
       -2
340
0
 93
        0
 40
0.045
309
GRIDFORMAT_END
 95
        8
302
GRIDFORMAT
  1
GRIDFORMAT_BEGIN
 90
        0
 91
        1
 62
     0
 92
       -2
340
0
 93
        0
 40
0.045
309
GRIDFORMAT_END
 95
       16
302
GRIDFORMAT
  1
GRIDFORMAT_BEGIN
 90
        0
 91
        1
 62
     0
 92
       -2
340
0
 93
        0
 40
0.045
309
GRIDFORMAT_END
 95
       32
302
GRIDFORMAT
  1
GRIDFORMAT_BEGIN
 90
        0
 91
        1
 62
     0
 92
       -2
340
0
 93
        0
 40
0.045
309
GRIDFORMAT_END
309
TABLEFORMAT_END
  1
CELLSTYLE_BEGIN
 90
        2
 91
        1
300
_HEADER
309
CELLSTYLE_END
300
CELLSTYLE
  1
TABLEFORMAT_BEGIN
 90
        5
170
     1
 91
        0
 92
        0
 62
   257
 93
        1
300
CONTENTFORMAT
  1
CONTENTFORMAT_BEGIN
 90
        0
 91
        0
 92
        4
 93
        0
300

 40
0.0
140
1.0
 94
        2
 62
     0
340
852
144
0.18
309
CONTENTFORMAT_END
171
     1
301
MARGIN
  1
CELLMARGIN_BEGIN
 40
0.06
 40
0.06
 40
0.06
 40
0.06
 40
0.18
 40
0.18
309
CELLMARGIN_END
 94
        6
 95
        1
302
GRIDFORMAT
  1
GRIDFORMAT_BEGIN
 90
        0
 91
        1
 62
     0
 92
       -2
340
0
 93
        0
 40
0.045
309
GRIDFORMAT_END
 95
        2
302
GRIDFORMAT
  1
GRIDFORMAT_BEGIN
 90
        0
 91
        1
 62
     0
 92
       -2
340
0
 93
        0
 40
0.045
309
GRIDFORMAT_END
 95
        4
302
GRIDFORMAT
  1
GRIDFORMAT_BEGIN
 90
        0
 91
        1
 62
     0
 92
       -2
340
0
 93
        0
 40
0.045
309
GRIDFORMAT_END
 95
        8
302
GRIDFORMAT
  1
GRIDFORMAT_BEGIN
 90
        0
 91
        1
 62
     0
 92
       -2
340
0
 93
        0
 40
0.045
309
GRIDFORMAT_END
 95
       16
302
GRIDFORMAT
  1
GRIDFORMAT_BEGIN
 90
        0
 91
        1
 62
     0
 92
       -2
340
0
 93
        0
 40
0.045
309
GRIDFORMAT_END
 95
       32
302
GRIDFORMAT
  1
GRIDFORMAT_BEGIN
 90
        0
 91
        1
 62
     0
 92
       -2
340
0
 93
        0
 40
0.045
309
GRIDFORMAT_END
309
TABLEFORMAT_END
  1
CELLSTYLE_BEGIN
 90
        3
 91
        2
300
_DATA
309
CELLSTYLE_END
  0
XRECORD
  5
1BE8
102
{ACAD_REACTORS
330
126A
102
}
330
126A
100
AcDbXrecord
280
     1
102
ACAD_ROUNDTRIP_PRE2007_TABLESTYLE
 90
        4
 91
        0
  1

 92
        4
 93
        0
  2

 94
        4
 95
        0
  3

  0
ENDSEC
  0
EOF
