  0
SECTION
  2
HEADER
  9
$ACADVER
  1
AC1018
  9
$ACADMAINTVER
 70
   104
  9
$DWGCODEPAGE
  3
ANSI_932
  9
$LASTSAVEDBY
  1
a080061
  9
$CUSTOMPROPERTYTAG
  1
AmdtFileType
  9
$CUSTOMPROPERTY
  1
84
  9
$INSBASE
 10
0.0
 20
0.0
 30
0.0
  9
$EXTMIN
 10
-575.9994340664706
 20
-1930.61827615674
 30
-0.0000000000018346
  9
$EXTMAX
 10
825.2517813528537
 20
-956.8176207328415
 30
0.0000000000416835
  9
$LIMMIN
 10
-2970.0
 20
-2100.0
  9
$LIMMAX
 10
2970.0
 20
2100.0
  9
$ORTHOMODE
 70
     0
  9
$REGENMODE
 70
     0
  9
$FILLMODE
 70
     1
  9
$QTEXTMODE
 70
     0
  9
$MIRRTEXT
 70
     0
  9
$LTSCALE
 40
20.0
  9
$ATTMODE
 70
     1
  9
$TEXTSIZE
 40
64.0
  9
$TRACEWID
 40
0.05
  9
$TEXTSTYLE
  7
STANDARD
  9
$CLAYER
  8
0
  9
$CELTYPE
  6
CONTINUOUS
  9
$CECOLOR
 62
   256
  9
$CELTSCALE
 40
1.0
  9
$DISPSILH
 70
     0
  9
$DIMSCALE
 40
1.0
  9
$DIMASZ
 40
0.12
  9
$DIMEXO
 40
0.05
  9
$DIMDLI
 40
0.5
  9
$DIMRND
 40
0.0
  9
$DIMDLE
 40
0.0
  9
$DIMEXE
 40
0.1
  9
$DIMTP
 40
0.1
  9
$DIMTM
 40
0.1
  9
$DIMTXT
 40
0.12
  9
$DIMCEN
 40
0.0
  9
$DIMTSZ
 40
0.0
  9
$DIMTOL
 70
     0
  9
$DIMLIM
 70
     0
  9
$DIMTIH
 70
     1
  9
$DIMTOH
 70
     1
  9
$DIMSE1
 70
     0
  9
$DIMSE2
 70
     0
  9
$DIMTAD
 70
     0
  9
$DIMZIN
 70
     7
  9
$DIMBLK
  1

  9
$DIMASO
 70
     1
  9
$DIMSHO
 70
     0
  9
$DIMPOST
  1

  9
$DIMAPOST
  1
mm
  9
$DIMALT
 70
     0
  9
$DIMALTD
 70
     2
  9
$DIMALTF
 40
25.4
  9
$DIMLFAC
 40
1.0
  9
$DIMTOFL
 70
     0
  9
$DIMTVP
 40
0.0
  9
$DIMTIX
 70
     0
  9
$DIMSOXD
 70
     0
  9
$DIMSAH
 70
     0
  9
$DIMBLK1
  1

  9
$DIMBLK2
  1

  9
$DIMSTYLE
  2
AM_ANSI
  9
$DIMCLRD
 70
   256
  9
$DIMCLRE
 70
   256
  9
$DIMCLRT
 70
     2
  9
$DIMTFAC
 40
0.71
  9
$DIMGAP
 40
0.06
  9
$DIMJUST
 70
     0
  9
$DIMSD1
 70
     0
  9
$DIMSD2
 70
     0
  9
$DIMTOLJ
 70
     1
  9
$DIMTZIN
 70
     7
  9
$DIMALTZ
 70
     0
  9
$DIMALTTZ
 70
     0
  9
$DIMUPT
 70
     0
  9
$DIMDEC
 70
     4
  9
$DIMTDEC
 70
     4
  9
$DIMALTU
 70
     2
  9
$DIMALTTD
 70
     4
  9
$DIMTXSTY
  7
STANDARD
  9
$DIMAUNIT
 70
     0
  9
$DIMADEC
 70
     0
  9
$DIMALTRND
 40
0.0
  9
$DIMAZIN
 70
     2
  9
$DIMDSEP
 70
    46
  9
$DIMATFIT
 70
     3
  9
$DIMFRAC
 70
     0
  9
$DIMLDRBLK
  1

  9
$DIMLUNIT
 70
     2
  9
$DIMLWD
 70
    -1
  9
$DIMLWE
 70
    -1
  9
$DIMTMOVE
 70
     0
  9
$LUNITS
 70
     2
  9
$LUPREC
 70
     4
  9
$SKETCHINC
 40
0.1
  9
$FILLETRAD
 40
4.0
  9
$AUNITS
 70
     1
  9
$AUPREC
 70
     3
  9
$MENU
  1
ACAD
  9
$ELEVATION
 40
0.0
  9
$PELEVATION
 40
0.0
  9
$THICKNESS
 40
50.0
  9
$LIMCHECK
 70
     0
  9
$CHAMFERA
 40
5.0
  9
$CHAMFERB
 40
5.0
  9
$CHAMFERC
 40
0.0
  9
$CHAMFERD
 40
0.0
  9
$SKPOLY
 70
     0
  9
$TDCREATE
 40
2452321.396199653
  9
$TDUCREATE
 40
2452321.021199653
  9
$TDUPDATE
 40
2456703.579369907
  9
$TDUUPDATE
 40
2456703.204369908
  9
$TDINDWG
 40
0.8445465278
  9
$TDUSRTIMER
 40
0.8445422454
  9
$USRTIMER
 70
     1
  9
$ANGBASE
 50
0.0
  9
$ANGDIR
 70
     0
  9
$PDMODE
 70
     3
  9
$PDSIZE
 40
-2.0
  9
$PLINEWID
 40
0.0
  9
$SPLFRAME
 70
     0
  9
$SPLINETYPE
 70
     6
  9
$SPLINESEGS
 70
     8
  9
$HANDSEED
  5
1D61
  9
$SURFTAB1
 70
     6
  9
$SURFTAB2
 70
     6
  9
$SURFTYPE
 70
     6
  9
$SURFU
 70
     6
  9
$SURFV
 70
     6
  9
$UCSBASE
  2

  9
$UCSNAME
  2

  9
$UCSORG
 10
0.0
 20
0.0
 30
0.0
  9
$UCSXDIR
 10
1.0
 20
0.0
 30
0.0
  9
$UCSYDIR
 10
0.0
 20
1.0
 30
0.0
  9
$UCSORTHOREF
  2

  9
$UCSORTHOVIEW
 70
     0
  9
$UCSORGTOP
 10
0.0
 20
0.0
 30
0.0
  9
$UCSORGBOTTOM
 10
0.0
 20
0.0
 30
0.0
  9
$UCSORGLEFT
 10
0.0
 20
0.0
 30
0.0
  9
$UCSORGRIGHT
 10
0.0
 20
0.0
 30
0.0
  9
$UCSORGFRONT
 10
0.0
 20
0.0
 30
0.0
  9
$UCSORGBACK
 10
0.0
 20
0.0
 30
0.0
  9
$PUCSBASE
  2

  9
$PUCSNAME
  2

  9
$PUCSORG
 10
0.0
 20
0.0
 30
0.0
  9
$PUCSXDIR
 10
1.0
 20
0.0
 30
0.0
  9
$PUCSYDIR
 10
0.0
 20
1.0
 30
0.0
  9
$PUCSORTHOREF
  2

  9
$PUCSORTHOVIEW
 70
     0
  9
$PUCSORGTOP
 10
0.0
 20
0.0
 30
0.0
  9
$PUCSORGBOTTOM
 10
0.0
 20
0.0
 30
0.0
  9
$PUCSORGLEFT
 10
0.0
 20
0.0
 30
0.0
  9
$PUCSORGRIGHT
 10
0.0
 20
0.0
 30
0.0
  9
$PUCSORGFRONT
 10
0.0
 20
0.0
 30
0.0
  9
$PUCSORGBACK
 10
0.0
 20
0.0
 30
0.0
  9
$USERI1
 70
     0
  9
$USERI2
 70
     0
  9
$USERI3
 70
     0
  9
$USERI4
 70
     0
  9
$USERI5
 70
     0
  9
$USERR1
 40
20.0
  9
$USERR2
 40
0.0
  9
$USERR3
 40
0.0
  9
$USERR4
 40
0.0
  9
$USERR5
 40
0.0
  9
$WORLDVIEW
 70
     1
  9
$SHADEDGE
 70
     3
  9
$SHADEDIF
 70
    70
  9
$TILEMODE
 70
     1
  9
$MAXACTVP
 70
    64
  9
$PINSBASE
 10
0.0
 20
0.0
 30
0.0
  9
$PLIMCHECK
 70
     0
  9
$PEXTMIN
 10
1.000000000000000E+20
 20
1.000000000000000E+20
 30
1.000000000000000E+20
  9
$PEXTMAX
 10
-1.000000000000000E+20
 20
-1.000000000000000E+20
 30
-1.000000000000000E+20
  9
$PLIMMIN
 10
0.0
 20
0.0
  9
$PLIMMAX
 10
12.0
 20
9.0
  9
$UNITMODE
 70
     0
  9
$VISRETAIN
 70
     1
  9
$PLINEGEN
 70
     0
  9
$PSLTSCALE
 70
     1
  9
$TREEDEPTH
 70
  3020
  9
$CMLSTYLE
  2
STANDARD
  9
$CMLJUST
 70
     0
  9
$CMLSCALE
 40
1.0
  9
$PROXYGRAPHICS
 70
     1
  9
$MEASUREMENT
 70
     0
  9
$CELWEIGHT
370
    -1
  9
$ENDCAPS
280
     0
  9
$JOINSTYLE
280
     0
  9
$LWDISPLAY
290
     0
  9
$INSUNITS
 70
     0
  9
$HYPERLINKBASE
  1

  9
$STYLESHEET
  1
MONOCHROME.CTB
  9
$XEDIT
290
     1
  9
$CEPSNTYPE
380
     0
  9
$PSTYLEMODE
290
     1
  9
$FINGERPRINTGUID
  2
{68F3F60F-982D-43C0-B084-568AB2094408}
  9
$VERSIONGUID
  2
{F54A94AD-BF73-4C6B-9853-093228E64855}
  9
$EXTNAMES
290
     1
  9
$PSVPSCALE
 40
0.0
  9
$OLESTARTUP
290
     0
  9
$SORTENTS
280
   127
  9
$INDEXCTL
280
     1
  9
$HIDETEXT
280
     0
  9
$XCLIPFRAME
290
     0
  9
$HALOGAP
280
     0
  9
$OBSCOLOR
 70
   257
  9
$OBSLTYPE
280
     0
  9
$INTERSECTIONDISPLAY
280
     0
  9
$INTERSECTIONCOLOR
 70
   257
  9
$DIMASSOC
280
     1
  9
$PROJECTNAME
  1

  0
ENDSEC
  0
SECTION
  2
CLASSES
  0
CLASS
  1
ACDBDICTIONARYWDFLT
  2
AcDbDictionaryWithDefault
  3
ObjectDBX Classes
 90
        0
 91
        1
280
     0
281
     0
  0
CLASS
  1
DICTIONARYVAR
  2
AcDbDictionaryVar
  3
ObjectDBX Classes
 90
        0
 91
        7
280
     0
281
     0
  0
CLASS
  1
TABLESTYLE
  2
AcDbTableStyle
  3
ObjectDBX Classes
 90
     4095
 91
        1
280
     0
281
     0
  0
CLASS
  1
ACME_DOCUMENT
  2
AcMeDbDoc
  3
AcMeServices
 90
     1024
 91
        1
280
     0
281
     0
  0
CLASS
  1
AMGSETTINGSOBJ
  2
AmgSettingsObj
  3
"AcadM|Product Description: AutoCAD Mechanical|Company: Autodesk, Inc."
 90
     1024
 91
        2
280
     0
281
     0
  0
CLASS
  1
ACMESCOPE
  2
AcMeScope
  3
AcMeServices
 90
     1024
 91
        1
280
     0
281
     0
  0
CLASS
  1
ACMECOMMANDHISTORY
  2
AcMeCommandHistory
  3
AcMeServices
 90
     1024
 91
        1
280
     0
281
     0
  0
CLASS
  1
ACIMSYSVARMAN
  2
AcImSysVarManager
  3
AcMeServices
 90
     1024
 91
        6
280
     0
281
     0
  0
CLASS
  1
ACIMREALSYSVAR
  2
AcImRealSysVar
  3
AcMeServices
 90
     1024
 91
       16
280
     0
281
     0
  0
CLASS
  1
ACIMINTSYSVAR
  2
AcImIntSysVar
  3
AcMeServices
 90
     1024
 91
       45
280
     0
281
     0
  0
CLASS
  1
ACMEDRAWINGMAN
  2
AcMeDrawingMan
  3
AcMeServices
 90
     1024
 91
        1
280
     0
281
     0
  0
CLASS
  1
ACMEVIEW
  2
AcMeView
  3
AcMeServices
 90
     1024
 91
        1
280
     0
281
     0
  0
CLASS
  1
ACDBENTITYCACHE
  2
AcMeEntityCache
  3
AcMeServices
 90
     1024
 91
        1
280
     0
281
     0
  0
CLASS
  1
GSMANAGER
  2
AcMeGSManager
  3
AcMeServices
 90
     1024
 91
        1
280
     0
281
     0
  0
CLASS
  1
AMDTINTERNALREACTOR
  2
AmdtInternalReactor
  3
AcMeServices
 90
     1024
 91
        2
280
     0
281
     0
  0
CLASS
  1
ACMESTATEMGR
  2
AcMeStateMgr
  3
AcMeServices
 90
     1024
 91
        1
280
     0
281
     0
  0
CLASS
  1
ACGREFMASTER
  2
AcGrefMaster
  3
AcAttribServices
 90
     1024
 91
        1
280
     0
281
     0
  0
CLASS
  1
AM_DRAWING_MGR
  2
AcDmDwgMgr
  3
AcMechDwgViewMgmt
 90
     1024
 91
        1
280
     0
281
     0
  0
CLASS
  1
AM_DWG_DOCUMENT
  2
AcDmDwgDocument
  3
AcMechDwgViewMgmt
 90
     1024
 91
        1
280
     0
281
     0
  0
CLASS
  1
AM_DWG_SHEET
  2
AcDmSheet
  3
AcMechDwgViewMgmt
 90
     1024
 91
        1
280
     0
281
     0
  0
CLASS
  1
AM_VIEWDIMPARMAP
  2
AcDmViewDimParMap
  3
AcMechDwgViewMgmt
 90
     1024
 91
        1
280
     0
281
     0
  0
CLASS
  1
AM_DWGMGR_NAME
  2
AcDmDwgMgrName
  3
AcMechDwgViewMgmt
 90
     1024
 91
        1
280
     0
281
     0
  0
CLASS
  1
ACME_DATABASE
  2
AcMeDbDatabase
  3
AcMeServices
 90
     1024
 91
        2
280
     0
281
     0
  0
CLASS
  1
ACRFINSADJUSTERMGR
  2
AcRfInsAdjusterMgr
  3
AcMeServices
 90
     1024
 91
        1
280
     0
281
     0
  0
CLASS
  1
ACGREFACADMASTER
  2
AcGrefacadMaster
  3
AcGrefServices
 90
     1024
 91
        1
280
     0
281
     0
  0
CLASS
  1
AMDTMENUSTATEMGR
  2
AmdtMenuStateMgr
  3
McadcomServices
 90
     1024
 91
        1
280
     0
281
     0
  0
CLASS
  1
AMDTMCOMMENUSTATE
  2
AmdtMcomMenuState
  3
McadcomServices
 90
     1024
 91
        1
280
     0
281
     0
  0
CLASS
  1
AMIMASTER
  2
AmiMaster
  3
AmiServices
 90
     1024
 91
        1
280
     0
281
     0
  0
CLASS
  1
ASAPP
  2
AcAsAppObject
  3
AutoSurfServices
 90
     1024
 91
        1
280
     0
281
     0
  0
CLASS
  1
IM_STATIC_MAN
  2
AcImStaticVarManager
  3
AcMeServices
 90
     1024
 91
        1
280
     0
281
     0
  0
CLASS
  1
ACIMSTRSYSVAR
  2
AcImStrSysVar
  3
AcMeServices
 90
     1024
 91
       11
280
     0
281
     0
  0
CLASS
  1
ACIMDBLSTATICVAR
  2
AcImDblStaticVar
  3
AcMeServices
 90
     1024
 91
       20
280
     0
281
     0
  0
CLASS
  1
ACIMSTRSTATICVAR
  2
AcImStrStaticVar
  3
AcMeServices
 90
     1024
 91
       12
280
     0
281
     0
  0
CLASS
  1
ACIMINTSTATICVAR
  2
AcImIntStaticVar
  3
AcMeServices
 90
     1024
 91
       17
280
     0
281
     0
  0
CLASS
  1
ACASGREFMASTER
  2
AcAsGrefMaster
  3
AutoSurfResolverServices
 90
     1024
 91
        1
280
     0
281
     0
  0
CLASS
  1
ACADGREFMODULE
  2
AcAdGrefModule
  3
AdGrefServices
 90
     1024
 91
        1
280
     0
281
     0
  0
CLASS
  1
AMDTMAPISURFMOUDULE
  2
AmdtMApiSurfModule
  3
MApiSurfServices
 90
     1024
 91
        0
280
     0
281
     0
  0
CLASS
  1
MAPIAMMOUDLE
  2
MApiAmModule
  3
MApiAmServices
 90
     1024
 91
        1
280
     0
281
     0
  0
CLASS
  1
AMDTADMENUSTATE
  2
AmdtAdMenuState
  3
DesignerServices
 90
     1024
 91
        1
280
     0
281
     0
  0
CLASS
  1
ADAPPL
  2
AcAdAppl
  3
DesignerServices
 90
     1024
 91
        1
280
     0
281
     0
  0
CLASS
  1
DEPMGR
  2
AcAdDepMgr
  3
DesignerServices
 90
     1024
 91
        1
280
     0
281
     0
  0
CLASS
  1
PARAMMGR
  2
AcAdParamMgr
  3
DesignerServices
 90
     1024
 91
        1
280
     0
281
     0
  0
CLASS
  1
PARAMSCOPE
  2
AcAdParamScope
  3
DesignerServices
 90
     1024
 91
        1
280
     0
281
     0
  0
CLASS
  1
NAMEDAPPL
  2
AcAdNamedAppl
  3
DesignerServices
 90
     1024
 91
        1
280
     0
281
     0
  0
CLASS
  1
AMDTDMMENUSTATE
  2
AmdtDmMenuState
  3
AcMechDwgViewMgmt
 90
     1024
 91
        1
280
     0
281
     0
  0
CLASS
  1
MAPIADMODULE
  2
MApiAdModule
  3
MApiAdServices
 90
     1024
 91
        1
280
     0
281
     0
  0
CLASS
  1
AMDTAMMENUSTATE
  2
AmdtAmMenuState
  3
DesignerAssemblies
 90
     1024
 91
        1
280
     0
281
     0
  0
CLASS
  1
ACAMPROJECT
  2
AcAmProject
  3
DesignerAssemblies
 90
     1024
 91
        1
280
     0
281
     0
  0
CLASS
  1
ACAMGRCOMPDEF
  2
AcAmGrCompDef
  3
DesignerAssemblies
 90
     1024
 91
        1
280
     0
281
     0
  0
CLASS
  1
ACCMCONTEXT
  2
AcCmContext
  3
DesignerAssemblies
 90
     1024
 91
        1
280
     0
281
     0
  0
CLASS
  1
ACAMCOMPDEF
  2
AcAmCompDef
  3
DesignerAssemblies
 90
     1024
 91
        1
280
     0
281
     0
  0
CLASS
  1
ACAMCOMPDEFMGR
  2
AcAmCompDefMgr
  3
DesignerAssemblies
 90
     1024
 91
        1
280
     0
281
     0
  0
CLASS
  1
AMCONTEXTMGR
  2
AcAmContextMgr
  3
DesignerAssemblies
 90
     1024
 91
        1
280
     0
281
     0
  0
CLASS
  1
ACAMCONTEXTMODELER
  2
AcAmContextModeler
  3
DesignerAssemblies
 90
     1024
 91
        1
280
     0
281
     0
  0
CLASS
  1
ACMDATADICTIONARY
  2
AcmDataDictionary
  3
"AcmSymBB|Product Description: AutoCAD Mechanical|Company: Autodesk, Inc."
 90
     1024
 91
        1
280
     0
281
     0
  0
CLASS
  1
ACMDATAENTRYBLOCK
  2
AcmDataEntryBlock
  3
AcmSymBB|Product Description: AutoCAD Mechanical|Company: Autodesk, Inc.
 90
     1024
 91
        2
280
     0
281
     0
  0
CLASS
  1
CATALOGSTATE
  2
AcAmCatalogState
  3
DesignerAssemblies
 90
     1024
 91
        1
280
     0
281
     0
  0
CLASS
  1
ACAMGRCOMPDEFSET
  2
AcAmGrCompDefSet
  3
DesignerAssemblies
 90
     1024
 91
        1
280
     0
281
     0
  0
CLASS
  1
AMDTBROWSERDBTAB
  2
AmdtBrowserDbTab
  3
McadcomServices
 90
     1024
 91
        1
280
     0
281
     0
  0
CLASS
  1
CBROWSERAPPOBJECT
  2
CBrowserAppObject
  3
McadcomServices
 90
     1024
 91
        3
280
     0
281
     0
  0
CLASS
  1
DM_PLACEHOLDER
  2
AcDmSelsetPlaceholder
  3
AcMechDwgViewMgmt
 90
     1024
 91
        1
280
     0
281
     0
  0
CLASS
  1
ACMSTANDARDANSI
  2
AcmStandardANSI
  3
"Amdt_StdImp|Product Description: AutoCAD Mechanical|Company: Autodesk, Inc."
 90
     1024
 91
        1
280
     0
281
     0
  0
CLASS
  1
AMGOBJPROPCFG
  2
AmgObjPropCfg
  3
"AmgLay|Product Description: AutoCAD Mechanical|Company: Autodesk, Inc."
 90
     1025
 91
        1
280
     0
281
     0
  0
CLASS
  1
ACMSURFSTANDARDANSI
  2
AcmSurfTextStdANSI
  3
"Amdt_StdImp|Product Description: AutoCAD Mechanical|Company: Autodesk, Inc."
 90
     1024
 91
        1
280
     0
281
     0
  0
CLASS
  1
ACMFCFSTANDARDANSI
  2
AcmFCFStdANSI
  3
"Amdt_StdImp|Product Description: AutoCAD Mechanical|Company: Autodesk, Inc."
 90
     1024
 91
        1
280
     0
281
     0
  0
CLASS
  1
ACMWELDSTANDARDANSI
  2
AcmWeldingStdANSI
  3
"Amdt_StdImp|Product Description: AutoCAD Mechanical|Company: Autodesk, Inc."
 90
     1024
 91
        1
280
     0
281
     0
  0
CLASS
  1
ACMIDSTANDARDANSI
  2
AcmIdStdANSI
  3
"Amdt_StdImp|Product Description: AutoCAD Mechanical|Company: Autodesk, Inc."
 90
     1024
 91
        1
280
     0
281
     0
  0
CLASS
  1
ACMDATUMSTANDARDANSI
  2
AcmDatumStdANSI
  3
"Amdt_StdImp|Product Description: AutoCAD Mechanical|Company: Autodesk, Inc."
 90
     1024
 91
        1
280
     0
281
     0
  0
CLASS
  1
ACMBOMSTANDARDANSI
  2
AcmBOMStdANSI
  3
"Amdt_StdImp|Product Description: AutoCAD Mechanical|Company: Autodesk, Inc."
 90
     1024
 91
        1
280
     0
281
     0
  0
CLASS
  1
ACMDETAILSTANDARDANSI
  2
AmdtDetailSymStdANSI
  3
"Amdt_StdImp|Product Description: AutoCAD Mechanical|Company: Autodesk, Inc."
 90
     1024
 91
        1
280
     0
281
     0
  0
CLASS
  1
ACMSECTIONSTANDARDANSI
  2
AmdtSectionSymStdANSI
  3
"Amdt_StdImp|Product Description: AutoCAD Mechanical|Company: Autodesk, Inc."
 90
     1024
 91
        1
280
     0
281
     0
  0
CLASS
  1
ACMCENTERLINESTANDARDANSI
  2
AmdtCenterLineStdANSI
  3
"Amdt_StdImp|Product Description: AutoCAD Mechanical|Company: Autodesk, Inc."
 90
     1024
 91
        1
280
     0
281
     0
  0
CLASS
  1
ACMTHREADLINESTANDARDANSI
  2
AmdtThreadLineStdANSI
  3
"Amdt_StdImp|Product Description: AutoCAD Mechanical|Company: Autodesk, Inc."
 90
     1024
 91
        1
280
     0
281
     0
  0
CLASS
  1
ACMNOTESTANDARDANSI
  2
AmdtNoteStdANSI
  3
"Amdt_StdImp|Product Description: AutoCAD Mechanical|Company: Autodesk, Inc."
 90
     1024
 91
        1
280
     0
281
     0
  0
CLASS
  1
AMDTNOTETEMPLATEDB
  2
AmdtNoteTemplateDB
  3
AcmSymBB|Product Description: AutoCAD Mechanical|Company: Autodesk, Inc.
 90
     1024
 91
        6
280
     0
281
     0
  0
CLASS
  1
ACAMGLAYSTD
  2
AcAmgLayStd
  3
"AmgLay|Product Description: AutoCAD Mechanical|Company: Autodesk, Inc."
 90
     1024
 91
        1
280
     0
281
     0
  0
CLASS
  1
ACAMGDIMSTD
  2
AcAmgDimStd
  3
"AmgDim|Product Description: AutoCAD Mechanical|Company: Autodesk, Inc."
 90
     1024
 91
        1
280
     0
281
     0
  0
CLASS
  1
ACAMGHOLECHARTSTDANSI
  2
AcAmgHoleChartStdANSI
  3
AmgDim|Product Description: AutoCAD Mechanical|Company: Autodesk, Inc.
 90
     1024
 91
        1
280
     0
281
     0
  0
CLASS
  1
ACAMGTITLESTD
  2
AcAmgTitleStd
  3
"AmgTitle|Product Description: AutoCAD Mechanical|Company: Autodesk, Inc."
 90
     4095
 91
        1
280
     0
281
     0
  0
CLASS
  1
ACAMGFILTERDAT
  2
AcAmgFilterDat
  3
"AcadM|Product Description: AutoCAD Mechanical|Company: Autodesk, Inc."
 90
     1024
 91
        6
280
     0
281
     0
  0
CLASS
  1
LAYER_INDEX
  2
AcDbLayerIndex
  3
ObjectDBX Classes
 90
        0
 91
        1
280
     0
281
     0
  0
CLASS
  1
IDBUFFER
  2
AcDbIdBuffer
  3
ObjectDBX Classes
 90
        0
 91
       12
280
     0
281
     0
  0
CLASS
  1
SORTENTSTABLE
  2
AcDbSortentsTable
  3
ObjectDBX Classes
 90
        0
 91
        2
280
     0
281
     0
  0
CLASS
  1
MATERIAL
  2
AcDbMaterial
  3
ObjectDBX Classes
 90
     1153
 91
        3
280
     0
281
     0
  0
CLASS
  1
VISUALSTYLE
  2
AcDbVisualStyle
  3
ObjectDBX Classes
 90
     4095
 91
       16
280
     0
281
     0
  0
CLASS
  1
SCALE
  2
AcDbScale
  3
ObjectDBX Classes
 90
     1153
 91
       33
280
     0
281
     0
  0
CLASS
  1
MLEADERSTYLE
  2
AcDbMLeaderStyle
  3
ACDB_MLEADERSTYLE_CLASS
 90
     4095
 91
        1
280
     0
281
     0
  0
CLASS
  1
CELLSTYLEMAP
  2
AcDbCellStyleMap
  3
ObjectDBX Classes
 90
     1152
 91
        3
280
     0
281
     0
  0
CLASS
  1
ACRFATTGENMGR
  2
AcRfAttGeneralMgr
  3
AcAttribServices
 90
     1024
 91
        1
280
     0
281
     0
  0
CLASS
  1
ACRFOBJATTMGR
  2
AcRfObjAttGroupMgr
  3
AcAttribServices
 90
     1024
 91
        1
280
     0
281
     0
  0
CLASS
  1
ACRFMCADAPIATTHOLDER
  2
AcRfMCADAPIAttHolder
  3
AcAttribServices
 90
     1024
 91
        1
280
     0
281
     0
  0
CLASS
  1
AMDTSYSATTR
  2
AmdtSystemAttribute
  3
AcAttribServices
 90
     1024
 91
        1
280
     0
281
     0
  0
CLASS
  1
ACMTAPERSTANDARDANSI
  2
AcmTaperStdANSI
  3
"Amdt_StdImp|Product Description: AutoCAD Mechanical|Company: Autodesk, Inc."
 90
     1024
 91
        1
280
     0
281
     0
  0
CLASS
  1
ACMANOOTATIONVIEWSTANDARDANSI
  2
AmdtAnViewStdANSI
  3
"Amdt_StdImp|Product Description: AutoCAD Mechanical|Company: Autodesk, Inc."
 90
     1024
 91
        1
280
     0
281
     0
  0
ENDSEC
  0
SECTION
  2
TABLES
  0
TABLE
  2
VPORT
  5
849
330
0
100
AcDbSymbolTable
 70
     1
  0
VPORT
  5
136E
330
849
100
AcDbSymbolTableRecord
100
AcDbViewportTableRecord
  2
*Active
 70
     0
 10
0.0
 20
0.0
 11
1.0
 21
1.0
 12
48.44128389869609
 22
-1476.722719004287
 13
0.0
 23
0.0
 14
1.0
 24
1.0
 15
0.0
 25
0.0
 16
0.0
 26
0.0
 36
1.0
 17
76.18488974449554
 27
33.00477055949705
 37
0.0
 40
980.3878075462694
 41
1.46726862302483
 42
50.0
 43
0.0
 44
0.0
 50
0.0
 51
0.0
 71
     0
 72
   100
 73
     1
 74
     0
 75
     0
 76
     0
 77
     0
 78
     0
281
     0
 65
     0
110
0.0
120
0.0
130
0.0
111
1.0
121
0.0
131
0.0
112
0.0
122
1.0
132
0.0
 79
     0
146
0.0
  0
ENDTAB
  0
TABLE
  2
LTYPE
  5
846
330
0
100
AcDbSymbolTable
 70
    19
  0
LTYPE
  5
854
330
846
100
AcDbSymbolTableRecord
100
AcDbLinetypeTableRecord
  2
BYBLOCK
 70
     0
  3

 72
    65
 73
     0
 40
0.0
  0
LTYPE
  5
855
330
846
100
AcDbSymbolTableRecord
100
AcDbLinetypeTableRecord
  2
BYLAYER
 70
     0
  3

 72
    65
 73
     0
 40
0.0
  0
LTYPE
  5
856
330
846
100
AcDbSymbolTableRecord
100
AcDbLinetypeTableRecord
  2
CONTINUOUS
 70
     0
  3
実線
 72
    65
 73
     0
 40
0.0
  0
LTYPE
  5
865
330
846
100
AcDbSymbolTableRecord
100
AcDbLinetypeTableRecord
  2
DASHDOT
 70
     0
  3
____ _ ____ _ ____ _ ____ _ ____ _ ____ _ ____
 72
    65
 73
     4
 40
5.5
 49
4.0
 74
     0
 49
-0.6
 74
     0
 49
0.3
 74
     0
 49
-0.6
 74
     0
  0
LTYPE
  5
1073
330
846
100
AcDbSymbolTableRecord
100
AcDbLinetypeTableRecord
  2
HIDDEN
 70
     0
  3
Hidden __ __ __ __ __ __ __ __ __ __ __ __ __ _
 72
    65
 73
     2
 40
0.375
 49
0.25
 74
     0
 49
-0.125
 74
     0
  0
LTYPE
  5
1074
330
846
100
AcDbSymbolTableRecord
100
AcDbLinetypeTableRecord
  2
PHANTOM2
 70
     0
  3
Phantom (.5x) ___ _ _ ___ _ _ ___ _ _ ___ _ _
 72
    65
 73
     6
 40
1.25
 49
0.625
 74
     0
 49
-0.125
 74
     0
 49
0.125
 74
     0
 49
-0.125
 74
     0
 49
0.125
 74
     0
 49
-0.125
 74
     0
  0
LTYPE
  5
1075
330
846
100
AcDbSymbolTableRecord
100
AcDbLinetypeTableRecord
  2
CENTER
 70
     0
  3
Center ____ _ ____ _ ____ _ ____ _ ____ _ ____
 72
    65
 73
     4
 40
2.0
 49
1.25
 74
     0
 49
-0.25
 74
     0
 49
0.25
 74
     0
 49
-0.25
 74
     0
  0
LTYPE
  5
10C4
330
846
100
AcDbSymbolTableRecord
100
AcDbLinetypeTableRecord
  2
ASULTYPE
 70
     0
  3
実線
 72
    65
 73
     2
 40
3.0
 49
2.5
 74
     0
 49
0.5
 74
     0
  0
LTYPE
  5
10C5
330
846
100
AcDbSymbolTableRecord
100
AcDbLinetypeTableRecord
  2
ASVLTYPE
 70
     0
  3
__ __ __ __ __ __ __ __ __ __ __ __ __ __ __ __ __ __ __ __ __
 72
    65
 73
     2
 40
0.75
 49
0.5
 74
     0
 49
-0.25
 74
     0
  0
LTYPE
  5
110C
330
846
100
AcDbSymbolTableRecord
100
AcDbLinetypeTableRecord
  2
AM_ISO02W050
 70
     0
  3
__ __ __ __ __ __ __ __ __ __ __ __ __ __ __
 72
    65
 73
     2
 40
7.5
 49
6.0
 74
     0
 49
-1.5
 74
     0
  0
LTYPE
  5
110D
330
846
100
AcDbSymbolTableRecord
100
AcDbLinetypeTableRecord
  2
AM_ISO08W050
 70
     0
  3
____ . ____ . ____ . ____ . ____ . ____ . ____
 72
    65
 73
     4
 40
18.0
 49
12.0
 74
     0
 49
-1.5
 74
     0
 49
3.0
 74
     0
 49
-1.5
 74
     0
  0
LTYPE
  5
110E
330
846
100
AcDbSymbolTableRecord
100
AcDbLinetypeTableRecord
  2
AM_ISO09W050
 70
     0
  3
_____ . . _____ . . _____ . . ____ .. ____
 72
    65
 73
     6
 40
22.5
 49
12.0
 74
     0
 49
-1.5
 74
     0
 49
3.0
 74
     0
 49
-1.5
 74
     0
 49
3.0
 74
     0
 49
-1.5
 74
     0
  0
LTYPE
  5
110F
330
846
100
AcDbSymbolTableRecord
100
AcDbLinetypeTableRecord
  2
Amconstr
 70
     0
  3
_______________________
 72
    65
 73
     2
 40
9999.0
 49
9999.0
 74
     0
 49
0.0
 74
     0
  0
LTYPE
  5
1110
330
846
100
AcDbSymbolTableRecord
100
AcDbLinetypeTableRecord
  2
AM_ISO08W050x2
 70
     0
  3
__ . __ . __ . __ . __ . __
 72
    65
 73
     4
 40
9.0
 49
6.0
 74
     0
 49
-0.75
 74
     0
 49
1.5
 74
     0
 49
-0.75
 74
     0
  0
LTYPE
  5
1111
330
846
100
AcDbSymbolTableRecord
100
AcDbLinetypeTableRecord
  2
AM_ISO02W050x2
 70
     0
  3
 _ _ _ _ _ _ _ _ _ _ _ _
 72
    65
 73
     2
 40
3.75
 49
3.0
 74
     0
 49
-0.75
 74
     0
  0
LTYPE
  5
1114
330
846
100
AcDbSymbolTableRecord
100
AcDbLinetypeTableRecord
  2
Amzigzag
 70
     0
  3
/\/-/\/-/\/-/\/-/\/-/\/
 72
    65
 73
     2
 40
11.0001
 49
0.0001
 74
     4
 75
   136
340
1113
 46
0.04
 50
0.0
 44
0.0
 45
0.0
 49
-11.0
 74
     0
  0
LTYPE
  5
1115
330
846
100
AcDbSymbolTableRecord
100
AcDbLinetypeTableRecord
  2
CENTER2
 70
     0
  3
Center (.5x) ___ _ ___ _ ___ _ ___ _ ___ _ ___
 72
    65
 73
     4
 40
1.125
 49
0.75
 74
     0
 49
-0.125
 74
     0
 49
0.125
 74
     0
 49
-0.125
 74
     0
  0
LTYPE
  5
1116
330
846
100
AcDbSymbolTableRecord
100
AcDbLinetypeTableRecord
  2
HIDDEN2
 70
     0
  3
Hidden (.5x) _ _ _ _ _ _ _ _ _ _ _ _ _ _ _ _ _
 72
    65
 73
     2
 40
0.1875
 49
0.125
 74
     0
 49
-0.0625
 74
     0
  0
LTYPE
  5
1117
330
846
100
AcDbSymbolTableRecord
100
AcDbLinetypeTableRecord
  2
Amzigzag2
 70
     0
  3
/\/-/\/-/\/-/\/-/\/-/\/
 72
    65
 73
     2
 40
0.4401
 49
0.0001
 74
     4
 75
   136
340
1113
 46
0.0016
 50
0.0
 44
0.0
 45
0.0
 49
-0.4400000000000003
 74
     0
  0
LTYPE
  5
1125
330
846
100
AcDbSymbolTableRecord
100
AcDbLinetypeTableRecord
  2
ACANSTGB
 70
     0
  3
__ . . __ . .
 72
    65
 73
     6
 40
0.35433070866
 49
0.15748031496
 74
     0
 49
-0.03937007874
 74
     0
 49
0.03937007874
 74
     0
 49
-0.03937007874
 74
     0
 49
0.03937007874
 74
     0
 49
-0.03937007874
 74
     0
  0
LTYPE
  5
1126
330
846
100
AcDbSymbolTableRecord
100
AcDbLinetypeTableRecord
  2
ACANSTGL
 70
     0
  3
_ _ _ _ _
 72
    65
 73
     2
 40
0.11811023622
 49
0.07874015748
 74
     0
 49
-0.03937007874
 74
     0
  0
ENDTAB
  0
TABLE
  2
LAYER
  5
843
102
{ACAD_XDICTIONARY
360
16C2
102
}
330
0
100
AcDbSymbolTable
 70
    12
  0
LAYER
  5
851
102
{ACAD_XDICTIONARY
360
14FD
102
}
330
843
100
AcDbSymbolTableRecord
100
AcDbLayerTableRecord
  2
0
 70
     0
 62
     7
  6
CONTINUOUS
370
    -3
390
B83
  0
LAYER
  5
863
102
{ACAD_XDICTIONARY
360
14FF
102
}
330
843
100
AcDbSymbolTableRecord
100
AcDbLayerTableRecord
  2
OUTLINE
 70
     0
 62
     3
  6
CONTINUOUS
370
    -3
390
B83
  0
LAYER
  5
866
102
{ACAD_XDICTIONARY
360
1501
102
}
330
843
100
AcDbSymbolTableRecord
100
AcDbLayerTableRecord
  2
SIZE
 70
     0
 62
    30
  6
CONTINUOUS
370
    -3
390
B83
  0
LAYER
  5
867
102
{ACAD_XDICTIONARY
360
1503
102
}
330
843
100
AcDbSymbolTableRecord
100
AcDbLayerTableRecord
  2
BASIS
 70
     0
 62
     6
  6
DASHDOT
370
    -3
390
B83
  0
LAYER
  5
868
102
{ACAD_XDICTIONARY
360
1505
102
}
330
843
100
AcDbSymbolTableRecord
100
AcDbLayerTableRecord
  2
DETAIL
 70
     0
 62
     5
  6
CONTINUOUS
370
    -3
390
B83
  0
LAYER
  5
869
102
{ACAD_XDICTIONARY
360
1507
102
}
330
843
100
AcDbSymbolTableRecord
100
AcDbLayerTableRecord
  2
ARRANGE
 70
     0
 62
     1
  6
CONTINUOUS
370
    -3
390
B83
  0
LAYER
  5
86A
330
843
100
AcDbSymbolTableRecord
100
AcDbLayerTableRecord
  2
DEFPOINTS
 70
     0
 62
     7
  6
CONTINUOUS
290
     0
370
    -3
390
B83
  0
LAYER
  5
86B
102
{ACAD_XDICTIONARY
360
1509
102
}
330
843
100
AcDbSymbolTableRecord
100
AcDbLayerTableRecord
  2
ETC
 70
     0
 62
    61
  6
CONTINUOUS
370
    -3
390
B83
  0
LAYER
  5
86C
102
{ACAD_XDICTIONARY
360
150B
102
}
330
843
100
AcDbSymbolTableRecord
100
AcDbLayerTableRecord
  2
FIX
 70
     0
 62
    11
  6
CONTINUOUS
370
    -3
390
B83
  0
LAYER
  5
86D
102
{ACAD_XDICTIONARY
360
150D
102
}
330
843
100
AcDbSymbolTableRecord
100
AcDbLayerTableRecord
  2
NOTE
 70
     0
 62
     4
  6
CONTINUOUS
370
    -3
390
B83
  0
LAYER
  5
86E
102
{ACAD_XDICTIONARY
360
150F
102
}
330
843
100
AcDbSymbolTableRecord
100
AcDbLayerTableRecord
  2
SERVICESPACE
 70
     0
 62
     2
  6
DASHDOT
370
    -3
390
B83
  0
LAYER
  5
86F
102
{ACAD_XDICTIONARY
360
1511
102
}
330
843
100
AcDbSymbolTableRecord
100
AcDbLayerTableRecord
  2
SYMBOLLINE
 70
     0
 62
    15
  6
CONTINUOUS
370
    -3
390
B83
  0
ENDTAB
  0
TABLE
  2
STYLE
  5
844
330
0
100
AcDbSymbolTable
 70
     5
  0
STYLE
  5
852
330
844
100
AcDbSymbolTableRecord
100
AcDbTextStyleTableRecord
  2
STANDARD
 70
     0
 40
64.0
 41
0.9
 50
0.0
 71
     0
 42
64.0
  3
SIMPLEX.shx
  4
BIGFONT.shx
  0
STYLE
  5
1113
330
844
100
AcDbSymbolTableRecord
100
AcDbTextStyleTableRecord
  2

 70
     1
 40
0.0
 41
1.0
 50
0.0
 71
     0
 42
64.0
  3
genltshp.shx
  4

  0
STYLE
  5
1118
330
844
100
AcDbSymbolTableRecord
100
AcDbTextStyleTableRecord
  2
ACANSTS
 70
     0
 40
1.0
 41
1.0
 50
0.0
 71
     0
 42
64.0
  3
romans.shx
  4
extfont.shx
  0
STYLE
  5
1124
330
844
100
AcDbSymbolTableRecord
100
AcDbTextStyleTableRecord
  2
ACANSGDT
 70
     0
 40
0.0
 41
1.0
 50
0.0
 71
     0
 42
64.0
  3
amgdt.shx
  4

  0
STYLE
  5
16BD
330
844
100
AcDbSymbolTableRecord
100
AcDbTextStyleTableRecord
  2
ADESK1
 70
     0
 40
0.0
 41
1.0
 50
0.0
 71
     0
 42
0.12
  3
romanc.shx
  4
extfont.shx
  0
ENDTAB
  0
TABLE
  2
VIEW
  5
847
330
0
100
AcDbSymbolTable
 70
     2
  0
VIEW
  5
870
330
847
100
AcDbSymbolTableRecord
100
AcDbViewTableRecord
  2
ALL
 70
     0
 40
4282.619807999997
 10
0.0
 20
41.30990399999999
 41
5940.0
 11
0.0
 21
0.0
 31
1.0
 12
0.0
 22
0.0
 32
0.0
 42
50.0
 43
0.0
 44
0.0
 50
0.0
 71
     0
281
     0
 72
     0
  0
ENDTAB
  0
TABLE
  2
UCS
  5
848
330
0
100
AcDbSymbolTable
 70
     0
  0
ENDTAB
  0
TABLE
  2
APPID
  5
84A
330
0
100
AcDbSymbolTable
 70
    23
  0
APPID
  5
853
330
84A
100
AcDbSymbolTableRecord
100
AcDbRegAppTableRecord
  2
ACAD
 70
     0
  0
APPID
  5
103F
330
84A
100
AcDbSymbolTableRecord
100
AcDbRegAppTableRecord
  2
GENIUS_GENDIM_13
 70
     0
  0
APPID
  5
1040
330
84A
100
AcDbSymbolTableRecord
100
AcDbRegAppTableRecord
  2
GENIUS_GENDTOL_13
 70
     0
  0
APPID
  5
1041
330
84A
100
AcDbSymbolTableRecord
100
AcDbRegAppTableRecord
  2
GENIUS_GE3DTOL_13
 70
     0
  0
APPID
  5
1044
330
84A
100
AcDbSymbolTableRecord
100
AcDbRegAppTableRecord
  2
MCAD_NO_VIS
 70
     0
  0
APPID
  5
1045
330
84A
100
AcDbSymbolTableRecord
100
AcDbRegAppTableRecord
  2
ACAD_TEMP_GRAPHIC
 70
     0
  0
APPID
  5
1077
330
84A
100
AcDbSymbolTableRecord
100
AcDbRegAppTableRecord
  2
AD_DRAW
 70
     0
  0
APPID
  5
107A
330
84A
100
AcDbSymbolTableRecord
100
AcDbRegAppTableRecord
  2
ACATTRIBSERVICES
 70
     0
  0
APPID
  5
10C6
330
84A
100
AcDbSymbolTableRecord
100
AcDbRegAppTableRecord
  2
ASURF_PCURVE_APPNAME
 70
     0
  0
APPID
  5
10CB
330
84A
100
AcDbSymbolTableRecord
100
AcDbRegAppTableRecord
  2
AMG_3D2D_5.0
 70
     0
  0
APPID
  5
10FC
330
84A
100
AcDbSymbolTableRecord
100
AcDbRegAppTableRecord
  2
DESIGNERASSEMBLIES
 70
     0
  0
APPID
  5
1103
330
84A
100
AcDbSymbolTableRecord
100
AcDbRegAppTableRecord
  2
ACADM_DIM_EDIT
 70
     0
  0
APPID
  5
1104
330
84A
100
AcDbSymbolTableRecord
100
AcDbRegAppTableRecord
  2
AMDT_DM_ADJ
 70
     0
  0
APPID
  5
1133
330
84A
100
AcDbSymbolTableRecord
100
AcDbRegAppTableRecord
  2
ACAD_DSTYLE_DIMARC_LENGTH_SYMBOL
 70
     0
  0
APPID
  5
1134
330
84A
100
AcDbSymbolTableRecord
100
AcDbRegAppTableRecord
  2
ACAD_DSTYLE_DIMJOGGED_JOGANGLE_SYMBOL
 70
     0
  0
APPID
  5
134C
330
84A
100
AcDbSymbolTableRecord
100
AcDbRegAppTableRecord
  2
ACAD_PSEXT
 70
     0
  0
APPID
  5
1368
330
84A
100
AcDbSymbolTableRecord
100
AcDbRegAppTableRecord
  2
ACAD_EXEMPT_FROM_CAD_STANDARDS
 70
     0
  0
APPID
  5
13C0
330
84A
100
AcDbSymbolTableRecord
100
AcDbRegAppTableRecord
  2
ACAD_MLEADERVER
 70
     0
  0
APPID
  5
16C0
330
84A
100
AcDbSymbolTableRecord
100
AcDbRegAppTableRecord
  2
ACAD_DSTYLE_DIMJAG
 70
     0
  0
APPID
  5
16C1
330
84A
100
AcDbSymbolTableRecord
100
AcDbRegAppTableRecord
  2
ACAD_DSTYLE_DIMTALN
 70
     0
  0
APPID
  5
18B3
330
84A
100
AcDbSymbolTableRecord
100
AcDbRegAppTableRecord
  2
ACAD_DSTYLE_DIM_LINETYPE
 70
     0
  0
APPID
  5
18B4
330
84A
100
AcDbSymbolTableRecord
100
AcDbRegAppTableRecord
  2
ACAD_DSTYLE_DIM_EXT1_LINETYPE
 70
     0
  0
APPID
  5
18B5
330
84A
100
AcDbSymbolTableRecord
100
AcDbRegAppTableRecord
  2
ACAD_DSTYLE_DIM_EXT2_LINETYPE
 70
     0
  0
ENDTAB
  0
TABLE
  2
DIMSTYLE
  5
84B
330
0
100
AcDbSymbolTable
 70
     9
100
AcDbDimStyleTable
 71
     2
340
1132
340
871
  0
DIMSTYLE
105
871
330
84B
100
AcDbSymbolTableRecord
100
AcDbDimStyleTableRecord
  2
STANDARD
 70
     0
275
     1
284
     8
285
     8
286
     8
340
852
  0
DIMSTYLE
105
1132
330
84B
100
AcDbSymbolTableRecord
100
AcDbDimStyleTableRecord
  2
AM_ANSI
 70
     0
  4
mm
 41
0.12
 42
0.05
 43
0.5
 44
0.1
 47
0.1
 48
0.1
 78
     7
 79
     2
140
0.12
141
0.0
146
0.71
147
0.06
176
   256
177
   256
178
     2
274
     4
284
     7
340
852
371
    -1
372
    -1
1001
ACAD_DSTYLE_DIMJOGGED_JOGANGLE_SYMBOL
1070
   384
1040
0.7853981633974483
1001
ACAD_DSTYLE_DIMARC_LENGTH_SYMBOL
1070
   379
1070
     1
1001
ACAD_DSTYLE_DIM_LINETYPE
1070
   380
1005
854
1001
ACAD_DSTYLE_DIM_EXT1_LINETYPE
1070
   381
1005
854
1001
ACAD_DSTYLE_DIM_EXT2_LINETYPE
1070
   382
1005
854
  0
DIMSTYLE
105
113B
330
84B
100
AcDbSymbolTableRecord
100
AcDbDimStyleTableRecord
  2
AM_ANSI$3
 70
     0
  4
mm
 41
0.12
 42
0.05
 43
0.5
 44
0.1
 47
0.1
 48
0.1
 78
     7
 79
     2
140
0.12
141
0.0
146
0.71
147
0.06
176
   256
177
   256
178
     2
274
     4
284
     7
288
     1
289
     0
340
852
371
    -1
372
    -1
1001
ACAD_DSTYLE_DIMJOGGED_JOGANGLE_SYMBOL
1070
   384
1040
0.7853981633974483
1001
ACAD_DSTYLE_DIMARC_LENGTH_SYMBOL
1070
   379
1070
     1
1001
ACAD_DSTYLE_DIM_LINETYPE
1070
   380
1005
854
1001
ACAD_DSTYLE_DIM_EXT1_LINETYPE
1070
   381
1005
854
1001
ACAD_DSTYLE_DIM_EXT2_LINETYPE
1070
   382
1005
854
  0
DIMSTYLE
105
113E
330
84B
100
AcDbSymbolTableRecord
100
AcDbDimStyleTableRecord
  2
AM_ANSI$4
 70
     0
  4
mm
 41
0.12
 42
0.05
 43
0.5
 44
0.1
 47
0.1
 48
0.1
 78
     7
 79
     2
140
0.12
141
0.0
146
0.71
147
0.06
176
   256
177
   256
178
     2
274
     4
284
     7
340
852
371
    -1
372
    -1
1001
ACAD_DSTYLE_DIMJOGGED_JOGANGLE_SYMBOL
1070
   384
1040
0.7853981633974483
1001
ACAD_DSTYLE_DIMARC_LENGTH_SYMBOL
1070
   379
1070
     1
1001
ACAD_DSTYLE_DIM_LINETYPE
1070
   380
1005
854
1001
ACAD_DSTYLE_DIM_EXT1_LINETYPE
1070
   381
1005
854
1001
ACAD_DSTYLE_DIM_EXT2_LINETYPE
1070
   382
1005
854
  0
DIMSTYLE
105
1143
330
84B
100
AcDbSymbolTableRecord
100
AcDbDimStyleTableRecord
  2
AM_ANSI$7
 70
     0
  4
mm
 41
0.12
 42
0.05
 43
0.5
 44
0.1
 47
0.1
 48
0.1
 78
     7
 79
     2
140
0.12
141
0.0
146
0.71
147
0.06
176
   256
177
   256
178
     2
274
     4
284
     7
340
852
371
    -1
372
    -1
1001
ACAD_DSTYLE_DIMJOGGED_JOGANGLE_SYMBOL
1070
   384
1040
0.7853981633974483
1001
ACAD_DSTYLE_DIMARC_LENGTH_SYMBOL
1070
   379
1070
     1
1001
ACAD_DSTYLE_DIM_LINETYPE
1070
   380
1005
854
1001
ACAD_DSTYLE_DIM_EXT1_LINETYPE
1070
   381
1005
854
1001
ACAD_DSTYLE_DIM_EXT2_LINETYPE
1070
   382
1005
854
  0
DIMSTYLE
105
1146
330
84B
100
AcDbSymbolTableRecord
100
AcDbDimStyleTableRecord
  2
AM_ANSI$SF
 70
     0
  4
mm
 41
0.12
 42
0.05
 43
0.5
 44
0.1
 47
0.1
 48
0.1
 75
     1
 76
     1
 78
     7
 79
     2
140
0.12
141
0.0
146
0.71
147
0.06
176
   256
177
   256
178
     2
274
     4
284
     7
340
852
371
    -1
372
    -1
1001
ACAD_DSTYLE_DIMJOGGED_JOGANGLE_SYMBOL
1070
   384
1040
0.7853981633974483
1001
ACAD_DSTYLE_DIMARC_LENGTH_SYMBOL
1070
   379
1070
     1
1001
ACAD_DSTYLE_DIM_LINETYPE
1070
   380
1005
854
1001
ACAD_DSTYLE_DIM_EXT1_LINETYPE
1070
   381
1005
854
1001
ACAD_DSTYLE_DIM_EXT2_LINETYPE
1070
   382
1005
854
  0
DIMSTYLE
105
114D
330
84B
100
AcDbSymbolTableRecord
100
AcDbDimStyleTableRecord
  2
AM_ANSI$SH
 70
     0
  4
mm
 41
0.12
 42
0.05
 43
0.5
 44
0.1
 47
0.1
 48
0.1
 75
     1
 76
     1
 78
     7
 79
     2
140
0.12
141
0.0
146
0.71
147
0.06
173
     1
176
   256
177
   256
178
     2
274
     4
284
     7
340
852
343
1147
371
    -1
372
    -1
1001
ACAD_DSTYLE_DIMJOGGED_JOGANGLE_SYMBOL
1070
   384
1040
0.7853981633974483
1001
ACAD_DSTYLE_DIMARC_LENGTH_SYMBOL
1070
   379
1070
     1
1001
ACAD_DSTYLE_DIM_LINETYPE
1070
   380
1005
854
1001
ACAD_DSTYLE_DIM_EXT1_LINETYPE
1070
   381
1005
854
1001
ACAD_DSTYLE_DIM_EXT2_LINETYPE
1070
   382
1005
854
  0
DIMSTYLE
105
16BE
330
84B
100
AcDbSymbolTableRecord
100
AcDbDimStyleTableRecord
  2
STANDARD1
 70
     0
 40
6.0
 41
2.5
 42
0.625
 43
6.0
 44
1.25
 47
1.0
 48
0.5
 77
     1
 78
     8
140
2.5
141
0.0
146
0.6
147
1.0
173
     1
284
     1
340
852
341
AB7
343
AB7
344
AB7
  0
DIMSTYLE
105
16BF
102
{ACAD_REACTORS
330
1D0D
330
1D14
330
1D19
330
1D1A
102
}
330
84B
100
AcDbSymbolTableRecord
100
AcDbDimStyleTableRecord
  2
STANDARD$0
 70
     0
 41
12.0
 42
20.0
 44
20.0
 73
     0
 74
     0
 77
     1
 78
     9
140
64.0
141
0.0
147
10.0
271
     0
272
     0
275
     1
284
     8
285
     8
286
     8
340
852
341
AB7
342
AB2
1001
ACAD_DSTYLE_DIMJAG
1070
   388
1040
1.5
1001
ACAD_DSTYLE_DIMTALN
1070
   392
1070
     0
  0
ENDTAB
  0
TABLE
  2
BLOCK_RECORD
  5
842
330
0
100
AcDbSymbolTable
 70
    37
  0
BLOCK_RECORD
  5
85F
102
{ACAD_XDICTIONARY
360
B4F
102
}
330
842
100
AcDbSymbolTableRecord
100
AcDbBlockTableRecord
  2
*MODEL_SPACE
340
B84
  0
BLOCK_RECORD
  5
85B
102
{ACAD_XDICTIONARY
360
B4D
102
}
330
842
100
AcDbSymbolTableRecord
100
AcDbBlockTableRecord
  2
*PAPER_SPACE
340
B85
  0
BLOCK_RECORD
  5
87E
330
842
100
AcDbSymbolTableRecord
100
AcDbBlockTableRecord
  2
_ORIGIN
340
0
  0
BLOCK_RECORD
  5
AB2
330
842
100
AcDbSymbolTableRecord
100
AcDbBlockTableRecord
  2
_DOTBLANK
340
0
102
{BLKREFS
331
102D
331
102E
331
13F0
331
13F1
331
1400
331
1401
331
1416
331
1417
331
1436
331
1437
331
146E
331
146F
331
148F
331
1490
331
14B7
331
14B8
331
14CA
331
14CB
331
14F7
331
14F8
331
1546
331
1547
331
1561
331
1562
331
158C
331
158D
331
1686
331
1687
331
1692
331
1693
331
169E
331
169F
331
16AA
331
16AB
331
16B6
331
16B7
331
187D
331
187E
331
1886
331
1887
331
188F
331
1890
331
1898
331
1899
331
18A1
331
18A2
331
19A9
331
19AA
331
19B5
331
19B6
331
19C1
331
19C2
331
19CD
331
19CE
331
1D29
331
1D2A
331
1D35
331
1D36
331
1D41
331
1D42
331
1D4D
331
1D4E
102
}
  0
BLOCK_RECORD
  5
AB7
330
842
100
AcDbSymbolTableRecord
100
AcDbBlockTableRecord
  2
_OPEN30
340
0
  0
BLOCK_RECORD
  5
C78
330
842
100
AcDbSymbolTableRecord
100
AcDbBlockTableRecord
  2
*D3
340
0
  0
BLOCK_RECORD
  5
C84
330
842
100
AcDbSymbolTableRecord
100
AcDbBlockTableRecord
  2
*D4
340
0
  0
BLOCK_RECORD
  5
E5F
330
842
100
AcDbSymbolTableRecord
100
AcDbBlockTableRecord
  2
*D5
340
0
  0
BLOCK_RECORD
  5
E95
330
842
100
AcDbSymbolTableRecord
100
AcDbBlockTableRecord
  2
*D6
340
0
  0
BLOCK_RECORD
  5
FA1
330
842
100
AcDbSymbolTableRecord
100
AcDbBlockTableRecord
  2
*D7
340
0
  0
BLOCK_RECORD
  5
FDA
330
842
100
AcDbSymbolTableRecord
100
AcDbBlockTableRecord
  2
*D8
340
0
  0
BLOCK_RECORD
  5
1147
330
842
100
AcDbSymbolTableRecord
100
AcDbBlockTableRecord
  2
GENAXEH
340
0
  0
BLOCK_RECORD
  5
13F8
330
842
100
AcDbSymbolTableRecord
100
AcDbBlockTableRecord
  2
*D10
340
0
  0
BLOCK_RECORD
  5
140E
330
842
100
AcDbSymbolTableRecord
100
AcDbBlockTableRecord
  2
*D11
340
0
  0
BLOCK_RECORD
  5
1466
330
842
100
AcDbSymbolTableRecord
100
AcDbBlockTableRecord
  2
*D12
340
0
  0
BLOCK_RECORD
  5
1487
330
842
100
AcDbSymbolTableRecord
100
AcDbBlockTableRecord
  2
*D13
340
0
  0
BLOCK_RECORD
  5
14B2
330
842
100
AcDbSymbolTableRecord
100
AcDbBlockTableRecord
  2
*D14
340
0
  0
BLOCK_RECORD
  5
14C2
330
842
100
AcDbSymbolTableRecord
100
AcDbBlockTableRecord
  2
*D15
340
0
  0
BLOCK_RECORD
  5
1579
330
842
100
AcDbSymbolTableRecord
100
AcDbBlockTableRecord
  2
*D16
340
0
  0
BLOCK_RECORD
  5
1681
330
842
100
AcDbSymbolTableRecord
100
AcDbBlockTableRecord
  2
*D17
340
0
  0
BLOCK_RECORD
  5
168D
330
842
100
AcDbSymbolTableRecord
100
AcDbBlockTableRecord
  2
*D18
340
0
  0
BLOCK_RECORD
  5
1699
330
842
100
AcDbSymbolTableRecord
100
AcDbBlockTableRecord
  2
*D19
340
0
  0
BLOCK_RECORD
  5
16A5
330
842
100
AcDbSymbolTableRecord
100
AcDbBlockTableRecord
  2
*D20
340
0
  0
BLOCK_RECORD
  5
16B1
330
842
100
AcDbSymbolTableRecord
100
AcDbBlockTableRecord
  2
*D21
340
0
  0
BLOCK_RECORD
  5
183E
330
842
100
AcDbSymbolTableRecord
100
AcDbBlockTableRecord
  2
*D22
340
0
  0
BLOCK_RECORD
  5
184A
330
842
100
AcDbSymbolTableRecord
100
AcDbBlockTableRecord
  2
*D23
340
0
  0
BLOCK_RECORD
  5
1856
330
842
100
AcDbSymbolTableRecord
100
AcDbBlockTableRecord
  2
*D24
340
0
  0
BLOCK_RECORD
  5
1862
330
842
100
AcDbSymbolTableRecord
100
AcDbBlockTableRecord
  2
*D25
340
0
  0
BLOCK_RECORD
  5
186E
330
842
100
AcDbSymbolTableRecord
100
AcDbBlockTableRecord
  2
*D26
340
0
  0
BLOCK_RECORD
  5
19A4
330
842
100
AcDbSymbolTableRecord
100
AcDbBlockTableRecord
  2
*D28
340
0
  0
BLOCK_RECORD
  5
19B0
330
842
100
AcDbSymbolTableRecord
100
AcDbBlockTableRecord
  2
*D29
340
0
  0
BLOCK_RECORD
  5
19BC
330
842
100
AcDbSymbolTableRecord
100
AcDbBlockTableRecord
  2
*D30
340
0
  0
BLOCK_RECORD
  5
19C8
330
842
100
AcDbSymbolTableRecord
100
AcDbBlockTableRecord
  2
*D31
340
0
  0
BLOCK_RECORD
  5
1D23
330
842
100
AcDbSymbolTableRecord
100
AcDbBlockTableRecord
  2
*D33
340
0
  0
BLOCK_RECORD
  5
1D2F
330
842
100
AcDbSymbolTableRecord
100
AcDbBlockTableRecord
  2
*D34
340
0
  0
BLOCK_RECORD
  5
1D3B
330
842
100
AcDbSymbolTableRecord
100
AcDbBlockTableRecord
  2
*D35
340
0
  0
BLOCK_RECORD
  5
1D47
330
842
100
AcDbSymbolTableRecord
100
AcDbBlockTableRecord
  2
*D36
340
0
  0
ENDTAB
  0
ENDSEC
  0
SECTION
  2
BLOCKS
  0
BLOCK
  5
860
330
85F
100
AcDbEntity
  8
0
100
AcDbBlockBegin
  2
*MODEL_SPACE
 70
     0
 10
0.0
 20
0.0
 30
0.0
  3
*MODEL_SPACE
  1

  0
ENDBLK
  5
861
330
85F
100
AcDbEntity
  8
0
100
AcDbBlockEnd
  0
BLOCK
  5
85C
330
85B
100
AcDbEntity
 67
     1
  8
0
100
AcDbBlockBegin
  2
*PAPER_SPACE
 70
     0
 10
0.0
 20
0.0
 30
0.0
  3
*PAPER_SPACE
  1

  0
ENDBLK
  5
85D
330
85B
100
AcDbEntity
 67
     1
  8
0
100
AcDbBlockEnd
  0
BLOCK
  5
87F
330
87E
100
AcDbEntity
  8
0
100
AcDbBlockBegin
  2
_ORIGIN
 70
     0
 10
0.0
 20
0.0
 30
0.0
  3
_ORIGIN
  1

  0
CIRCLE
  5
880
330
87E
100
AcDbEntity
  8
0
  6
Continuous
 62
     7
100
AcDbCircle
 10
0.0
 20
0.0
 30
0.0
 40
0.5
  0
LINE
  5
881
330
87E
100
AcDbEntity
  8
0
  6
Continuous
 62
     7
100
AcDbLine
 10
0.0
 20
0.0
 30
0.0
 11
-1.0
 21
0.0
 31
0.0
  0
ENDBLK
  5
882
330
87E
100
AcDbEntity
  8
0
100
AcDbBlockEnd
  0
BLOCK
  5
AB5
330
AB2
100
AcDbEntity
  8
0
 62
     1
100
AcDbBlockBegin
  2
_DOTBLANK
 70
     0
 10
0.0
 20
0.0
 30
0.0
  3
_DOTBLANK
  1

  0
CIRCLE
  5
AB3
330
AB2
100
AcDbEntity
  8
0
  6
ByBlock
 62
     0
100
AcDbCircle
 10
0.0
 20
0.0
 30
0.0
 40
0.5
  0
LINE
  5
AB4
330
AB2
100
AcDbEntity
  8
0
  6
ByBlock
 62
     0
100
AcDbLine
 10
-0.5
 20
0.0
 30
0.0
 11
-1.0
 21
0.0
 31
0.0
  0
ENDBLK
  5
AB6
330
AB2
100
AcDbEntity
  8
0
 62
     1
100
AcDbBlockEnd
  0
BLOCK
  5
ABB
330
AB7
100
AcDbEntity
  8
0
 62
     1
100
AcDbBlockBegin
  2
_OPEN30
 70
     0
 10
0.0
 20
0.0
 30
0.0
  3
_OPEN30
  1

  0
LINE
  5
AB8
330
AB7
100
AcDbEntity
  8
0
  6
ByBlock
 62
     0
100
AcDbLine
 10
-1.0
 20
0.26794919
 30
0.0
 11
0.0
 21
0.0
 31
0.0
  0
LINE
  5
AB9
330
AB7
100
AcDbEntity
  8
0
  6
ByBlock
 62
     0
100
AcDbLine
 10
0.0
 20
0.0
 30
0.0
 11
-1.0
 21
-0.26794919
 31
0.0
  0
LINE
  5
ABA
330
AB7
100
AcDbEntity
  8
0
  6
ByBlock
 62
     0
100
AcDbLine
 10
0.0
 20
0.0
 30
0.0
 11
-1.0
 21
0.0
 31
0.0
  0
ENDBLK
  5
ABC
330
AB7
100
AcDbEntity
  8
0
 62
     1
100
AcDbBlockEnd
  0
BLOCK
  5
C82
330
C78
100
AcDbEntity
  8
0
100
AcDbBlockBegin
  2
*D3
 70
     1
 10
0.0
 20
0.0
 30
0.0
  3
*D3
  1

  0
LINE
  5
13ED
330
C78
100
AcDbEntity
  8
SIZE
  6
Continuous
 62
     0
370
    -2
100
AcDbLine
 10
300.0
 20
-263.3121218469543
 30
0.0
 11
300.0
 21
-544.1924168160427
 31
0.0
  0
LINE
  5
13EE
330
C78
100
AcDbEntity
  8
SIZE
  6
Continuous
 62
     0
370
    -2
100
AcDbLine
 10
-0.0000000000000012
 20
-177.5
 30
0.0
 11
-0.0000000000000237
 21
-544.1924168160427
 31
0.0
  0
LINE
  5
13EF
330
C78
100
AcDbEntity
  8
SIZE
  6
Continuous
 62
     0
370
    -2
100
AcDbLine
 10
288.0
 20
-524.1924168160427
 30
0.0
 11
11.99999999999997
 21
-524.1924168160427
 31
0.0
  0
INSERT
  5
13F0
330
C78
100
AcDbEntity
  8
SIZE
  6
Continuous
 62
     0
370
    -2
100
AcDbBlockReference
  2
_DOTBLANK
 10
300.0
 20
-524.1924168160427
 30
0.0
 41
12.0
 42
12.0
 43
12.0
  0
INSERT
  5
13F1
330
C78
100
AcDbEntity
  8
SIZE
  6
Continuous
 62
     0
370
    -2
100
AcDbBlockReference
  2
_DOTBLANK
 10
-0.0000000000000225
 20
-524.1924168160427
 30
0.0
 41
12.0
 42
12.0
 43
12.0
 50
180.0
  0
MTEXT
  5
13F2
330
C78
100
AcDbEntity
  8
SIZE
  6
Continuous
 62
     0
100
AcDbMText
 10
150.0
 20
-482.1924168160427
 30
0.0
 40
64.0
 41
0.0
 71
     5
 72
     1
  1
\A1;300
 73
     1
 44
1.0
  0
POINT
  5
13F3
330
C78
100
AcDbEntity
  8
DEFPOINTS
  6
Continuous
 62
     0
100
AcDbPoint
 10
300.0
 20
-243.3121218469543
 30
0.0
  0
POINT
  5
13F4
330
C78
100
AcDbEntity
  8
DEFPOINTS
  6
Continuous
 62
     0
100
AcDbPoint
 10
0.0
 20
-157.5
 30
0.0
  0
POINT
  5
13F5
330
C78
100
AcDbEntity
  8
DEFPOINTS
  6
Continuous
 62
     0
100
AcDbPoint
 10
-0.0000000000000225
 20
-524.1924168160427
 30
0.0
  0
ENDBLK
  5
C83
330
C78
100
AcDbEntity
  8
0
100
AcDbBlockEnd
  0
BLOCK
  5
C8E
330
C84
100
AcDbEntity
  8
0
100
AcDbBlockBegin
  2
*D4
 70
     1
 10
0.0
 20
0.0
 30
0.0
  3
*D4
  1

  0
LINE
  5
102A
330
C84
100
AcDbEntity
  8
SIZE
  6
Continuous
 62
     0
370
    -2
100
AcDbLine
 10
-20.0
 20
-123.5
 30
0.0
 11
-166.0601444877647
 21
-123.4999999999999
 31
0.0
  0
LINE
  5
102B
330
C84
100
AcDbEntity
  8
SIZE
  6
Continuous
 62
     0
370
    -2
100
AcDbLine
 10
-19.39999999999997
 20
121.5
 30
0.0
 11
-166.0601444877647
 21
121.5
 31
0.0
  0
LINE
  5
102C
330
C84
100
AcDbEntity
  8
SIZE
  6
Continuous
 62
     0
370
    -2
100
AcDbLine
 10
-146.0601444877647
 20
-111.4999999999999
 30
0.0
 11
-146.0601444877647
 21
109.5
 31
0.0
  0
INSERT
  5
102D
330
C84
100
AcDbEntity
  8
SIZE
  6
Continuous
 62
     0
370
    -2
100
AcDbBlockReference
  2
_DOTBLANK
 10
-146.0601444877647
 20
-123.4999999999999
 30
0.0
 41
12.0
 42
12.0
 43
12.0
 50
270.0
  0
INSERT
  5
102E
330
C84
100
AcDbEntity
  8
SIZE
  6
Continuous
 62
     0
370
    -2
100
AcDbBlockReference
  2
_DOTBLANK
 10
-146.0601444877647
 20
121.5
 30
0.0
 41
12.0
 42
12.0
 43
12.0
 50
90.0
  0
MTEXT
  5
102F
330
C84
100
AcDbEntity
  8
SIZE
  6
Continuous
 62
     0
100
AcDbMText
 10
-188.0601444877647
 20
-0.9999999999999715
 30
0.0
 40
64.0
 41
0.0
 71
     5
 72
     1
  1
\A1;□245
 11
0.0000000000000001
 21
1.0
 31
0.0
 73
     1
 44
1.0
  0
POINT
  5
1030
330
C84
100
AcDbEntity
  8
DEFPOINTS
  6
Continuous
 62
     0
100
AcDbPoint
 10
0.0
 20
-123.5
 30
0.0
  0
POINT
  5
1031
330
C84
100
AcDbEntity
  8
DEFPOINTS
  6
Continuous
 62
     0
100
AcDbPoint
 10
0.6000000000000229
 20
121.5
 30
0.0
  0
POINT
  5
1032
330
C84
100
AcDbEntity
  8
DEFPOINTS
  6
Continuous
 62
     0
100
AcDbPoint
 10
-146.0601444877647
 20
121.5
 30
0.0
  0
ENDBLK
  5
C8F
330
C84
100
AcDbEntity
  8
0
100
AcDbBlockEnd
  0
BLOCK
  5
E69
330
E5F
100
AcDbEntity
  8
0
100
AcDbBlockBegin
  2
*D5
 70
     1
 10
0.0
 20
0.0
 30
0.0
  3
*D5
  1

  0
LINE
  5
14F4
330
E5F
100
AcDbEntity
  8
SIZE
  6
Continuous
 62
     0
370
    -2
100
AcDbLine
 10
75.0
 20
-232.8816215723389
 30
0.0
 11
74.99999999999999
 21
-436.9419318706101
 31
0.0
  0
LINE
  5
14F5
330
E5F
100
AcDbEntity
  8
SIZE
  6
Continuous
 62
     0
370
    -2
100
AcDbLine
 10
300.0
 20
-266.5
 30
0.0
 11
300.0
 21
-436.9419318706101
 31
0.0
  0
LINE
  5
14F6
330
E5F
100
AcDbEntity
  8
SIZE
  6
Continuous
 62
     0
370
    -2
100
AcDbLine
 10
86.99999999999999
 20
-416.9419318706101
 30
0.0
 11
288.0
 21
-416.9419318706101
 31
0.0
  0
INSERT
  5
14F7
330
E5F
100
AcDbEntity
  8
SIZE
  6
Continuous
 62
     0
370
    -2
100
AcDbBlockReference
  2
_DOTBLANK
 10
74.99999999999999
 20
-416.9419318706101
 30
0.0
 41
12.0
 42
12.0
 43
12.0
 50
180.0
  0
INSERT
  5
14F8
330
E5F
100
AcDbEntity
  8
SIZE
  6
Continuous
 62
     0
370
    -2
100
AcDbBlockReference
  2
_DOTBLANK
 10
300.0
 20
-416.9419318706101
 30
0.0
 41
12.0
 42
12.0
 43
12.0
  0
MTEXT
  5
14F9
330
E5F
100
AcDbEntity
  8
SIZE
  6
Continuous
 62
     0
100
AcDbMText
 10
187.5
 20
-374.9419318706101
 30
0.0
 40
64.0
 41
0.0
 71
     5
 72
     1
  1
\A1;225
 73
     1
 44
1.0
  0
POINT
  5
14FA
330
E5F
100
AcDbEntity
  8
DEFPOINTS
  6
Continuous
 62
     0
100
AcDbPoint
 10
75.0
 20
-212.8816215723389
 30
0.0
  0
POINT
  5
14FB
330
E5F
100
AcDbEntity
  8
DEFPOINTS
  6
Continuous
 62
     0
100
AcDbPoint
 10
300.0
 20
-246.5
 30
0.0
  0
POINT
  5
14FC
330
E5F
100
AcDbEntity
  8
DEFPOINTS
  6
Continuous
 62
     0
100
AcDbPoint
 10
300.0
 20
-416.9419318706101
 30
0.0
  0
ENDBLK
  5
E6A
330
E5F
100
AcDbEntity
  8
0
100
AcDbBlockEnd
  0
BLOCK
  5
EA1
330
E95
100
AcDbEntity
  8
0
100
AcDbBlockBegin
  2
*D6
 70
     1
 10
0.0
 20
0.0
 30
0.0
  3
*D6
  1

  0
LINE
  5
1431
330
E95
100
AcDbEntity
  8
SIZE
  6
Continuous
 62
     0
370
    -2
100
AcDbLine
 10
300.0
 20
-266.5
 30
0.0
 11
300.0
 21
-544.1924168160427
 31
0.0
  0
LINE
  5
1432
330
E95
100
AcDbEntity
  8
SIZE
  6
Continuous
 62
     0
370
    -2
100
AcDbLine
 10
312.0
 20
-266.5
 30
0.0
 11
312.0
 21
-544.1924168160427
 31
0.0
  0
LINE
  5
1433
330
E95
100
AcDbEntity
  8
SIZE
  6
Continuous
 62
     0
370
    -2
100
AcDbLine
 10
288.0
 20
-524.1924168160427
 30
0.0
 11
276.0
 21
-524.1924168160427
 31
0.0
  0
LINE
  5
1434
330
E95
100
AcDbEntity
  8
SIZE
  6
Continuous
 62
     0
370
    -2
100
AcDbLine
 10
324.0
 20
-524.1924168160427
 30
0.0
 11
438.285714285714
 21
-524.1924168160427
 31
0.0
  0
LINE
  5
1435
330
E95
100
AcDbEntity
  8
SIZE
  6
Continuous
 62
     0
370
    -2
100
AcDbLine
 10
300.0
 20
-524.1924168160427
 30
0.0
 11
312.0
 21
-524.1924168160427
 31
0.0
  0
INSERT
  5
1436
330
E95
100
AcDbEntity
  8
SIZE
  6
Continuous
 62
     0
370
    -2
100
AcDbBlockReference
  2
_DOTBLANK
 10
300.0
 20
-524.1924168160427
 30
0.0
 41
12.0
 42
12.0
 43
12.0
  0
INSERT
  5
1437
330
E95
100
AcDbEntity
  8
SIZE
  6
Continuous
 62
     0
370
    -2
100
AcDbBlockReference
  2
_DOTBLANK
 10
312.0
 20
-524.1924168160427
 30
0.0
 41
12.0
 42
12.0
 43
12.0
 50
180.0
  0
MTEXT
  5
1438
330
E95
100
AcDbEntity
  8
SIZE
  6
Continuous
 62
     0
100
AcDbMText
 10
387.1428571428571
 20
-482.1924168160427
 30
0.0
 40
64.0
 41
0.0
 71
     5
 72
     1
  1
\A1;12
 73
     1
 44
1.0
  0
POINT
  5
1439
330
E95
100
AcDbEntity
  8
DEFPOINTS
  6
Continuous
 62
     0
100
AcDbPoint
 10
300.0
 20
-246.5
 30
0.0
  0
POINT
  5
143A
330
E95
100
AcDbEntity
  8
DEFPOINTS
  6
Continuous
 62
     0
100
AcDbPoint
 10
312.0
 20
-246.5000000000001
 30
0.0
  0
POINT
  5
143B
330
E95
100
AcDbEntity
  8
DEFPOINTS
  6
Continuous
 62
     0
100
AcDbPoint
 10
312.0
 20
-524.1924168160427
 30
0.0
  0
ENDBLK
  5
EA2
330
E95
100
AcDbEntity
  8
0
100
AcDbBlockEnd
  0
BLOCK
  5
FAD
330
FA1
100
AcDbEntity
  8
0
100
AcDbBlockBegin
  2
*D7
 70
     1
 10
0.0
 20
0.0
 30
0.0
  3
*D7
  1

  0
LINE
  5
1543
330
FA1
100
AcDbEntity
  8
SIZE
  6
Continuous
 62
     0
370
    -2
100
AcDbLine
 10
-12.0
 20
-124.0828571428571
 30
0.0
 11
-166.0601444877647
 21
-124.082857142857
 31
0.0
  0
LINE
  5
1544
330
FA1
100
AcDbEntity
  8
SIZE
  6
Continuous
 62
     0
370
    -2
100
AcDbLine
 10
54.99999999999998
 20
-220.0828571428571
 30
0.0
 11
-166.0601444877647
 21
-220.082857142857
 31
0.0
  0
LINE
  5
1545
330
FA1
100
AcDbEntity
  8
SIZE
  6
Continuous
 62
     0
370
    -2
100
AcDbLine
 10
-146.0601444877647
 20
-136.082857142857
 30
0.0
 11
-146.0601444877647
 21
-208.0828571428571
 31
0.0
  0
INSERT
  5
1546
330
FA1
100
AcDbEntity
  8
SIZE
  6
Continuous
 62
     0
370
    -2
100
AcDbBlockReference
  2
_DOTBLANK
 10
-146.0601444877647
 20
-124.082857142857
 30
0.0
 41
12.0
 42
12.0
 43
12.0
 50
90.0
  0
INSERT
  5
1547
330
FA1
100
AcDbEntity
  8
SIZE
  6
Continuous
 62
     0
370
    -2
100
AcDbBlockReference
  2
_DOTBLANK
 10
-146.0601444877647
 20
-220.0828571428571
 30
0.0
 41
12.0
 42
12.0
 43
12.0
 50
270.0
  0
MTEXT
  5
1548
330
FA1
100
AcDbEntity
  8
SIZE
  6
Continuous
 62
     0
100
AcDbMText
 10
-188.0601444877647
 20
-172.0828571428571
 30
0.0
 40
64.0
 41
0.0
 71
     5
 72
     1
  1
\A1;96
 11
0.0000000000000001
 21
1.0
 31
0.0
 73
     1
 44
1.0
  0
POINT
  5
1549
330
FA1
100
AcDbEntity
  8
DEFPOINTS
  6
Continuous
 62
     0
100
AcDbPoint
 10
8.0
 20
-124.0828571428571
 30
0.0
  0
POINT
  5
154A
330
FA1
100
AcDbEntity
  8
DEFPOINTS
  6
Continuous
 62
     0
100
AcDbPoint
 10
74.99999999999999
 20
-220.0828571428571
 30
0.0
  0
POINT
  5
154B
330
FA1
100
AcDbEntity
  8
DEFPOINTS
  6
Continuous
 62
     0
100
AcDbPoint
 10
-146.0601444877647
 20
-220.0828571428571
 30
0.0
  0
ENDBLK
  5
FAE
330
FA1
100
AcDbEntity
  8
0
100
AcDbBlockEnd
  0
BLOCK
  5
FE6
330
FDA
100
AcDbEntity
  8
0
100
AcDbBlockBegin
  2
*D8
 70
     1
 10
0.0
 20
0.0
 30
0.0
  3
*D8
  1

  0
LINE
  5
155D
330
FDA
100
AcDbEntity
  8
SIZE
  6
Continuous
 62
     0
370
    -2
100
AcDbLine
 10
64.0
 20
-238.7913523809523
 30
0.0
 11
63.99999999999999
 21
-358.0949273793144
 31
0.0
  0
LINE
  5
155E
330
FDA
100
AcDbEntity
  8
SIZE
  6
Continuous
 62
     0
370
    -2
100
AcDbLine
 10
-0.0000000000000012
 20
-177.5
 30
0.0
 11
-0.0000000000000123
 21
-358.0949273793144
 31
0.0
  0
LINE
  5
155F
330
FDA
100
AcDbEntity
  8
SIZE
  6
Continuous
 62
     0
370
    -2
100
AcDbLine
 10
51.99999999999999
 20
-338.0949273793143
 30
0.0
 11
11.99999999999999
 21
-338.0949273793143
 31
0.0
  0
LINE
  5
1560
330
FDA
100
AcDbEntity
  8
SIZE
  6
Continuous
 62
     0
370
    -2
100
AcDbLine
 10
-0.0000000000000111
 20
-338.0949273793143
 30
0.0
 11
-128.0
 21
-338.0949273793143
 31
0.0
  0
INSERT
  5
1561
330
FDA
100
AcDbEntity
  8
SIZE
  6
Continuous
 62
     0
370
    -2
100
AcDbBlockReference
  2
_DOTBLANK
 10
63.99999999999999
 20
-338.0949273793143
 30
0.0
 41
12.0
 42
12.0
 43
12.0
  0
INSERT
  5
1562
330
FDA
100
AcDbEntity
  8
SIZE
  6
Continuous
 62
     0
370
    -2
100
AcDbBlockReference
  2
_DOTBLANK
 10
-0.0000000000000111
 20
-338.0949273793143
 30
0.0
 41
12.0
 42
12.0
 43
12.0
 50
180.0
  0
MTEXT
  5
1563
330
FDA
100
AcDbEntity
  8
SIZE
  6
Continuous
 62
     0
100
AcDbMText
 10
-70.00000000000001
 20
-296.0949273793143
 30
0.0
 40
64.0
 41
0.0
 71
     5
 72
     1
  1
\A1;64
 73
     1
 44
1.0
  0
POINT
  5
1564
330
FDA
100
AcDbEntity
  8
DEFPOINTS
  6
Continuous
 62
     0
100
AcDbPoint
 10
64.0
 20
-218.7913523809523
 30
0.0
  0
POINT
  5
1565
330
FDA
100
AcDbEntity
  8
DEFPOINTS
  6
Continuous
 62
     0
100
AcDbPoint
 10
0.0
 20
-157.5
 30
0.0
  0
POINT
  5
1566
330
FDA
100
AcDbEntity
  8
DEFPOINTS
  6
Continuous
 62
     0
100
AcDbPoint
 10
-0.0000000000000111
 20
-338.0949273793143
 30
0.0
  0
ENDBLK
  5
FE7
330
FDA
100
AcDbEntity
  8
0
100
AcDbBlockEnd
  0
BLOCK
  5
1149
330
1147
100
AcDbEntity
  8
0
100
AcDbBlockBegin
  2
GENAXEH
 70
     0
 10
0.0
 20
0.0
 30
0.0
  3
GENAXEH
  1

  0
LINE
  5
1148
330
1147
100
AcDbEntity
  8
0
100
AcDbLine
 10
-1.0
 20
0.0
 30
0.0
 11
1.0
 21
0.0
 31
0.0
  0
ENDBLK
  5
114A
330
1147
100
AcDbEntity
  8
0
100
AcDbBlockEnd
  0
BLOCK
  5
13F9
330
13F8
100
AcDbEntity
  8
0
100
AcDbBlockBegin
  2
*D10
 70
     1
 10
0.0
 20
0.0
 30
0.0
  3
*D10
  1

  0
LINE
  5
13FB
330
13F8
100
AcDbEntity
  8
0
  6
Continuous
 62
     0
370
    -2
100
AcDbLine
 10
314.1371921368456
 20
-217.1672874507571
 30
0.0
 11
317.2283557487135
 21
-188.2649411122338
 31
0.0
  0
LINE
  5
13FC
330
13F8
100
AcDbEntity
  8
0
  6
Continuous
 62
     0
370
    -2
100
AcDbLine
 10
302.1269099232851
 20
-215.8827638030234
 30
0.0
 11
305.2180735351531
 21
-186.9804174645001
 31
0.0
  0
LINE
  5
13FD
330
13F8
100
AcDbEntity
  8
0
  6
Continuous
 62
     0
370
    -2
100
AcDbLine
 10
327.033396692917
 20
-209.4276718453527
 30
0.0
 11
338.9653475604057
 21
-210.7038177993238
 31
0.0
  0
LINE
  5
13FE
330
13F8
100
AcDbEntity
  8
0
  6
Continuous
 62
     0
370
    -2
100
AcDbLine
 10
291.1592127443793
 20
-205.5908562896768
 30
0.0
 11
279.2272618768907
 21
-204.3147103357057
 31
0.0
  0
LINE
  5
13FF
330
13F8
100
AcDbEntity
  8
0
  6
Continuous
 62
     0
370
    -2
100
AcDbLine
 10
315.1014458254284
 20
-208.1515258913816
 30
0.0
 11
303.091163611868
 21
-206.8670022436479
 31
0.0
  0
INSERT
  5
1400
330
13F8
100
AcDbEntity
  8
0
  6
Continuous
 62
     0
370
    -2
100
AcDbBlockReference
  2
_DOTBLANK
 10
315.1014458254284
 20
-208.1515258913816
 30
0.0
 41
12.0
 42
12.0
 43
12.0
 50
173.8953081148717
  0
INSERT
  5
1401
330
13F8
100
AcDbEntity
  8
0
  6
Continuous
 62
     0
370
    -2
100
AcDbBlockReference
  2
_DOTBLANK
 10
303.091163611868
 20
-206.8670022436479
 30
0.0
 41
12.0
 42
12.0
 43
12.0
 50
353.8953081148717
  0
MTEXT
  5
1402
330
13F8
100
AcDbEntity
  8
0
  6
Continuous
 62
     0
100
AcDbMText
 10
313.562815557547
 20
-165.7474360313044
 30
0.0
 40
64.0
 41
0.0
 71
     5
 72
     1
  1
\A1;12.0788
 11
0.9943292389573878
 21
-0.106345496164257
 31
0.0
 73
     1
 44
1.0
  0
POINT
  5
1403
330
13F8
100
AcDbEntity
  8
DEFPOINTS
  6
Continuous
 62
     0
100
AcDbPoint
 10
312.0102822135603
 20
-237.0538722299048
 30
0.0
  0
POINT
  5
1404
330
13F8
100
AcDbEntity
  8
DEFPOINTS
  6
Continuous
 62
     0
100
AcDbPoint
 10
300.0
 20
-235.7693485821711
 30
0.0
  0
POINT
  5
1405
330
13F8
100
AcDbEntity
  8
DEFPOINTS
  6
Continuous
 62
     0
100
AcDbPoint
 10
303.091163611868
 20
-206.8670022436479
 30
0.0
  0
ENDBLK
  5
13FA
330
13F8
100
AcDbEntity
  8
0
100
AcDbBlockEnd
  0
BLOCK
  5
140F
330
140E
100
AcDbEntity
  8
0
100
AcDbBlockBegin
  2
*D11
 70
     1
 10
0.0
 20
0.0
 30
0.0
  3
*D11
  1

  0
LINE
  5
1411
330
140E
100
AcDbEntity
  8
0
  6
Continuous
 62
     0
370
    -2
100
AcDbLine
 10
67.13719213684547
 20
-190.7501445936143
 30
0.0
 11
70.67403290694463
 21
-157.6807216458441
 31
0.0
  0
LINE
  5
1412
330
140E
100
AcDbEntity
  8
0
  6
Continuous
 62
     0
370
    -2
100
AcDbLine
 10
77.12690992328507
 20
-191.8185648440875
 30
0.0
 11
80.66375069338425
 21
-158.7491418963174
 31
0.0
  0
LINE
  5
1413
330
140E
100
AcDbEntity
  8
0
  6
Continuous
 62
     0
370
    -2
100
AcDbLine
 10
56.6151721161709
 20
-176.2911604710208
 30
0.0
 11
44.68322124868224
 21
-175.0150145170498
 31
0.0
  0
LINE
  5
1414
330
140E
100
AcDbEntity
  8
0
  6
Continuous
 62
     0
370
    -2
100
AcDbLine
 10
90.46879163758786
 20
-179.9118726294361
 30
0.0
 11
102.4007425050765
 21
-181.1880185834073
 31
0.0
  0
LINE
  5
1415
330
140E
100
AcDbEntity
  8
0
  6
Continuous
 62
     0
370
    -2
100
AcDbLine
 10
68.54712298365956
 20
-177.5673064249919
 30
0.0
 11
78.53684077009917
 21
-178.6357266754652
 31
0.0
  0
INSERT
  5
1416
330
140E
100
AcDbEntity
  8
0
  6
Continuous
 62
     0
370
    -2
100
AcDbBlockReference
  2
_DOTBLANK
 10
68.54712298365956
 20
-177.5673064249919
 30
0.0
 41
12.0
 42
12.0
 43
12.0
 50
353.8953081148719
  0
INSERT
  5
1417
330
140E
100
AcDbEntity
  8
0
  6
Continuous
 62
     0
370
    -2
100
AcDbBlockReference
  2
_DOTBLANK
 10
78.53684077009917
 20
-178.6357266754652
 30
0.0
 41
12.0
 42
12.0
 43
12.0
 50
173.8953081148719
  0
MTEXT
  5
1418
330
140E
100
AcDbEntity
  8
0
  6
Continuous
 62
     0
100
AcDbMText
 10
78.008492715778
 20
-136.3396885140182
 30
0.0
 40
64.0
 41
0.0
 71
     5
 72
     1
  1
\A1;10.0467
 11
0.9943292389573882
 21
-0.1063454961642535
 31
0.0
 73
     1
 44
1.0
  0
POINT
  5
1419
330
140E
100
AcDbEntity
  8
DEFPOINTS
  6
Continuous
 62
     0
100
AcDbPoint
 10
65.0102822135604
 20
-210.636729372762
 30
0.0
  0
POINT
  5
141A
330
140E
100
AcDbEntity
  8
DEFPOINTS
  6
Continuous
 62
     0
100
AcDbPoint
 10
75.0
 20
-211.7051496232353
 30
0.0
  0
POINT
  5
141B
330
140E
100
AcDbEntity
  8
DEFPOINTS
  6
Continuous
 62
     0
100
AcDbPoint
 10
78.53684077009917
 20
-178.6357266754652
 30
0.0
  0
ENDBLK
  5
1410
330
140E
100
AcDbEntity
  8
0
100
AcDbBlockEnd
  0
BLOCK
  5
1467
330
1466
100
AcDbEntity
  8
0
100
AcDbBlockBegin
  2
*D12
 70
     1
 10
0.0
 20
0.0
 30
0.0
  3
*D12
  1

  0
LINE
  5
1469
330
1466
100
AcDbEntity
  8
OUTLINE
  6
Continuous
 62
     0
370
    -2
100
AcDbLine
 10
40.60000000000002
 20
-144.0828571428571
 30
0.0
 11
40.60000000000001
 21
-215.1556128200372
 31
0.0
  0
LINE
  5
146A
330
1466
100
AcDbEntity
  8
OUTLINE
  6
Continuous
 62
     0
370
    -2
100
AcDbLine
 10
-0.0000000000000012
 20
-177.5
 30
0.0
 11
-0.0000000000000035
 21
-215.1556128200372
 31
0.0
  0
LINE
  5
146B
330
1466
100
AcDbEntity
  8
OUTLINE
  6
Continuous
 62
     0
370
    -2
100
AcDbLine
 10
52.60000000000001
 20
-195.1556128200371
 30
0.0
 11
64.60000000000002
 21
-195.1556128200371
 31
0.0
  0
LINE
  5
146C
330
1466
100
AcDbEntity
  8
OUTLINE
  6
Continuous
 62
     0
370
    -2
100
AcDbLine
 10
-12.0
 20
-195.1556128200371
 30
0.0
 11
-24.0
 21
-195.1556128200371
 31
0.0
  0
LINE
  5
146D
330
1466
100
AcDbEntity
  8
OUTLINE
  6
Continuous
 62
     0
370
    -2
100
AcDbLine
 10
40.60000000000001
 20
-195.1556128200371
 30
0.0
 11
-0.0000000000000023
 21
-195.1556128200371
 31
0.0
  0
INSERT
  5
146E
330
1466
100
AcDbEntity
  8
OUTLINE
  6
Continuous
 62
     0
370
    -2
100
AcDbBlockReference
  2
_DOTBLANK
 10
40.60000000000001
 20
-195.1556128200371
 30
0.0
 41
12.0
 42
12.0
 43
12.0
 50
180.0
  0
INSERT
  5
146F
330
1466
100
AcDbEntity
  8
OUTLINE
  6
Continuous
 62
     0
370
    -2
100
AcDbBlockReference
  2
_DOTBLANK
 10
-0.0000000000000023
 20
-195.1556128200371
 30
0.0
 41
12.0
 42
12.0
 43
12.0
  0
MTEXT
  5
1470
330
1466
100
AcDbEntity
  8
OUTLINE
  6
Continuous
 62
     0
100
AcDbMText
 10
20.30000000000001
 20
-153.1556128200371
 30
0.0
 40
64.0
 41
0.0
 71
     5
 72
     1
  1
\A1;40.6
 73
     1
 44
1.0
  0
POINT
  5
1471
330
1466
100
AcDbEntity
  8
DEFPOINTS
  6
Continuous
 62
     0
100
AcDbPoint
 10
40.60000000000002
 20
-124.0828571428571
 30
0.0
  0
POINT
  5
1472
330
1466
100
AcDbEntity
  8
DEFPOINTS
  6
Continuous
 62
     0
100
AcDbPoint
 10
0.0
 20
-157.5
 30
0.0
  0
POINT
  5
1473
330
1466
100
AcDbEntity
  8
DEFPOINTS
  6
Continuous
 62
     0
100
AcDbPoint
 10
-0.0000000000000023
 20
-195.1556128200371
 30
0.0
  0
ENDBLK
  5
1468
330
1466
100
AcDbEntity
  8
0
100
AcDbBlockEnd
  0
BLOCK
  5
1488
330
1487
100
AcDbEntity
  8
0
100
AcDbBlockBegin
  2
*D13
 70
     1
 10
0.0
 20
0.0
 30
0.0
  3
*D13
  1

  0
LINE
  5
148A
330
1487
100
AcDbEntity
  8
OUTLINE
  6
Continuous
 62
     0
370
    -2
100
AcDbLine
 10
42.08253325689566
 20
123.5
 30
0.0
 11
419.3096423671558
 21
123.4999999999998
 31
0.0
  0
LINE
  5
148B
330
1487
100
AcDbEntity
  8
OUTLINE
  6
Continuous
 62
     0
370
    -2
100
AcDbLine
 10
60.60000000000002
 20
-124.0828571428571
 30
0.0
 11
419.3096423671558
 21
-124.0828571428572
 31
0.0
  0
LINE
  5
148C
330
1487
100
AcDbEntity
  8
OUTLINE
  6
Continuous
 62
     0
370
    -2
100
AcDbLine
 10
399.3096423671559
 20
135.4999999999999
 30
0.0
 11
399.3096423671559
 21
147.4999999999999
 31
0.0
  0
LINE
  5
148D
330
1487
100
AcDbEntity
  8
OUTLINE
  6
Continuous
 62
     0
370
    -2
100
AcDbLine
 10
399.3096423671559
 20
-136.0828571428572
 30
0.0
 11
399.3096423671559
 21
-148.0828571428572
 31
0.0
  0
LINE
  5
148E
330
1487
100
AcDbEntity
  8
OUTLINE
  6
Continuous
 62
     0
370
    -2
100
AcDbLine
 10
399.3096423671559
 20
123.4999999999999
 30
0.0
 11
399.3096423671559
 21
-124.0828571428572
 31
0.0
  0
INSERT
  5
148F
330
1487
100
AcDbEntity
  8
OUTLINE
  6
Continuous
 62
     0
370
    -2
100
AcDbBlockReference
  2
_DOTBLANK
 10
399.3096423671559
 20
123.4999999999999
 30
0.0
 41
12.0
 42
12.0
 43
12.0
 50
270.0
  0
INSERT
  5
1490
330
1487
100
AcDbEntity
  8
OUTLINE
  6
Continuous
 62
     0
370
    -2
100
AcDbBlockReference
  2
_DOTBLANK
 10
399.3096423671559
 20
-124.0828571428572
 30
0.0
 41
12.0
 42
12.0
 43
12.0
 50
90.0
  0
MTEXT
  5
1491
330
1487
100
AcDbEntity
  8
OUTLINE
  6
Continuous
 62
     0
100
AcDbMText
 10
357.3096423671558
 20
-0.2914285714285876
 30
0.0
 40
64.0
 41
0.0
 71
     5
 72
     1
  1
\A1;247.5829
 11
0.0000000000000001
 21
1.0
 31
0.0
 73
     1
 44
1.0
  0
POINT
  5
1492
330
1487
100
AcDbEntity
  8
DEFPOINTS
  6
Continuous
 62
     0
100
AcDbPoint
 10
22.08253325689566
 20
123.5
 30
0.0
  0
POINT
  5
1493
330
1487
100
AcDbEntity
  8
DEFPOINTS
  6
Continuous
 62
     0
100
AcDbPoint
 10
40.60000000000002
 20
-124.0828571428571
 30
0.0
  0
POINT
  5
1494
330
1487
100
AcDbEntity
  8
DEFPOINTS
  6
Continuous
 62
     0
100
AcDbPoint
 10
399.3096423671559
 20
-124.0828571428572
 30
0.0
  0
ENDBLK
  5
1489
330
1487
100
AcDbEntity
  8
0
100
AcDbBlockEnd
  0
BLOCK
  5
14B3
330
14B2
100
AcDbEntity
  8
0
100
AcDbBlockBegin
  2
*D14
 70
     1
 10
0.0
 20
0.0
 30
0.0
  3
*D14
  1

  0
LINE
  5
14B5
330
14B2
100
AcDbEntity
  8
OUTLINE
  6
Continuous
 62
     0
370
    -2
100
AcDbLine
 10
216.1447614348681
 20
-246.5000000000001
 30
0.0
 11
165.2443564611486
 21
-246.5000000000001
 31
0.0
  0
ARC
  5
14B6
330
14B2
100
AcDbEntity
  8
OUTLINE
  6
Continuous
 62
     0
370
    -2
100
AcDbCircle
 10
300.0000000000002
 20
-246.5000000000001
 30
0.0
 40
114.7556435388515
100
AcDbArc
 50
179.8894621315228
 51
174.0058459833489
  0
INSERT
  5
14B7
330
14B2
100
AcDbEntity
  8
OUTLINE
  6
Continuous
 62
     0
370
    -2
100
AcDbBlockReference
  2
_DOTBLANK
 10
185.8951082939487
 20
-234.2962541502124
 30
0.0
 41
12.0
 42
12.0
 43
12.0
 50
86.89238512319729
  0
INSERT
  5
14B8
330
14B2
100
AcDbEntity
  8
OUTLINE
  6
Continuous
 62
     0
370
    -2
100
AcDbBlockReference
  2
_DOTBLANK
 10
185.2443564611487
 20
-246.5
 30
0.0
 41
12.0
 42
12.0
 43
12.0
 50
267.0029229916744
  0
MTEXT
  5
14B9
330
14B2
100
AcDbEntity
  8
OUTLINE
  6
Continuous
 62
     0
100
AcDbMText
 10
143.4667451613437
 20
-238.1530298373776
 30
0.0
 40
64.0
 41
0.0
 71
     5
 72
     1
  1
\A1;6°
 11
0.053248291252453
 21
0.9985813033893103
 31
0.0
 73
     1
 44
1.0
  0
POINT
  5
14BA
330
14B2
100
AcDbEntity
  8
DEFPOINTS
  6
Continuous
 62
     0
100
AcDbPoint
 10
185.5337315649086
 20
-238.3556083983204
 30
0.0
  0
POINT
  5
14BB
330
14B2
100
AcDbEntity
  8
DEFPOINTS
  6
Continuous
 62
     0
100
AcDbPoint
 10
62.05776691895094
 20
-221.0516033884629
 30
0.0
  0
POINT
  5
14BC
330
14B2
100
AcDbEntity
  8
DEFPOINTS
  6
Continuous
 62
     0
100
AcDbPoint
 10
300.0000000000002
 20
-246.5000000000001
 30
0.0
  0
POINT
  5
14BD
330
14B2
100
AcDbEntity
  8
DEFPOINTS
  6
Continuous
 62
     0
100
AcDbPoint
 10
236.1447614348681
 20
-246.5000000000001
 30
0.0
  0
POINT
  5
14BE
330
14B2
100
AcDbEntity
  8
DEFPOINTS
  6
Continuous
 62
     0
100
AcDbPoint
 10
300.0
 20
-246.5
 30
0.0
  0
ENDBLK
  5
14B4
330
14B2
100
AcDbEntity
  8
0
100
AcDbBlockEnd
  0
BLOCK
  5
14C3
330
14C2
100
AcDbEntity
  8
0
100
AcDbBlockBegin
  2
*D15
 70
     1
 10
0.0
 20
0.0
 30
0.0
  3
*D15
  1

  0
LINE
  5
14C5
330
14C2
100
AcDbEntity
  8
OUTLINE
  6
Continuous
 62
     0
370
    -2
100
AcDbLine
 10
-0.0000000000000012
 20
-177.5
 30
0.0
 11
-0.0000000000000023
 21
-195.4340082521925
 31
0.0
  0
LINE
  5
14C6
330
14C2
100
AcDbEntity
  8
OUTLINE
  6
Continuous
 62
     0
370
    -2
100
AcDbLine
 10
40.0
 20
-144.0828571428571
 30
0.0
 11
40.0
 21
-195.4340082521925
 31
0.0
  0
LINE
  5
14C7
330
14C2
100
AcDbEntity
  8
OUTLINE
  6
Continuous
 62
     0
370
    -2
100
AcDbLine
 10
-12.0
 20
-175.4340082521925
 30
0.0
 11
-24.0
 21
-175.4340082521925
 31
0.0
  0
LINE
  5
14C8
330
14C2
100
AcDbEntity
  8
OUTLINE
  6
Continuous
 62
     0
370
    -2
100
AcDbLine
 10
52.0
 20
-175.4340082521925
 30
0.0
 11
64.0
 21
-175.4340082521925
 31
0.0
  0
LINE
  5
14C9
330
14C2
100
AcDbEntity
  8
OUTLINE
  6
Continuous
 62
     0
370
    -2
100
AcDbLine
 10
-0.0000000000000011
 20
-175.4340082521925
 30
0.0
 11
40.0
 21
-175.4340082521925
 31
0.0
  0
INSERT
  5
14CA
330
14C2
100
AcDbEntity
  8
OUTLINE
  6
Continuous
 62
     0
370
    -2
100
AcDbBlockReference
  2
_DOTBLANK
 10
-0.0000000000000011
 20
-175.4340082521925
 30
0.0
 41
12.0
 42
12.0
 43
12.0
  0
INSERT
  5
14CB
330
14C2
100
AcDbEntity
  8
OUTLINE
  6
Continuous
 62
     0
370
    -2
100
AcDbBlockReference
  2
_DOTBLANK
 10
40.0
 20
-175.4340082521925
 30
0.0
 41
12.0
 42
12.0
 43
12.0
 50
180.0
  0
MTEXT
  5
14CC
330
14C2
100
AcDbEntity
  8
OUTLINE
  6
Continuous
 62
     0
100
AcDbMText
 10
20.0
 20
-133.4340082521925
 30
0.0
 40
64.0
 41
0.0
 71
     5
 72
     1
  1
\A1;40
 73
     1
 44
1.0
  0
POINT
  5
14CD
330
14C2
100
AcDbEntity
  8
DEFPOINTS
  6
Continuous
 62
     0
100
AcDbPoint
 10
0.0
 20
-157.5
 30
0.0
  0
POINT
  5
14CE
330
14C2
100
AcDbEntity
  8
DEFPOINTS
  6
Continuous
 62
     0
100
AcDbPoint
 10
40.0
 20
-124.0828571428571
 30
0.0
  0
POINT
  5
14CF
330
14C2
100
AcDbEntity
  8
DEFPOINTS
  6
Continuous
 62
     0
100
AcDbPoint
 10
40.0
 20
-175.4340082521925
 30
0.0
  0
ENDBLK
  5
14C4
330
14C2
100
AcDbEntity
  8
0
100
AcDbBlockEnd
  0
BLOCK
  5
157A
330
1579
100
AcDbEntity
  8
0
100
AcDbBlockBegin
  2
*D16
 70
     1
 10
0.0
 20
0.0
 30
0.0
  3
*D16
  1

  0
LINE
  5
1587
330
1579
100
AcDbEntity
  8
SIZE
  6
Continuous
 62
     0
370
    -2
100
AcDbLine
 10
0.0000000000000012
 20
177.5
 30
0.0
 11
0.0000000000000066
 21
265.7692974037192
 31
0.0
  0
LINE
  5
1588
330
1579
100
AcDbEntity
  8
SIZE
  6
Continuous
 62
     0
370
    -2
100
AcDbLine
 10
8.000000000000001
 20
177.5
 30
0.0
 11
8.000000000000008
 21
265.7692974037192
 31
0.0
  0
LINE
  5
1589
330
1579
100
AcDbEntity
  8
SIZE
  6
Continuous
 62
     0
370
    -2
100
AcDbLine
 10
20.00000000000001
 20
245.7692974037192
 30
0.0
 11
32.00000000000001
 21
245.7692974037192
 31
0.0
  0
LINE
  5
158A
330
1579
100
AcDbEntity
  8
SIZE
  6
Continuous
 62
     0
370
    -2
100
AcDbLine
 10
-11.99999999999999
 20
245.7692974037192
 30
0.0
 11
-100.5754142431145
 21
245.7692974037192
 31
0.0
  0
LINE
  5
158B
330
1579
100
AcDbEntity
  8
SIZE
  6
Continuous
 62
     0
370
    -2
100
AcDbLine
 10
8.000000000000005
 20
245.7692974037192
 30
0.0
 11
0.0000000000000054
 21
245.7692974037192
 31
0.0
  0
INSERT
  5
158C
330
1579
100
AcDbEntity
  8
SIZE
  6
Continuous
 62
     0
370
    -2
100
AcDbBlockReference
  2
_DOTBLANK
 10
8.000000000000005
 20
245.7692974037192
 30
0.0
 41
12.0
 42
12.0
 43
12.0
 50
180.0
  0
INSERT
  5
158D
330
1579
100
AcDbEntity
  8
SIZE
  6
Continuous
 62
     0
370
    -2
100
AcDbBlockReference
  2
_DOTBLANK
 10
0.0000000000000054
 20
245.7692974037192
 30
0.0
 41
12.0
 42
12.0
 43
12.0
  0
MTEXT
  5
158E
330
1579
100
AcDbEntity
  8
SIZE
  6
Continuous
 62
     0
100
AcDbMText
 10
-71.3754142431145
 20
287.7692974037192
 30
0.0
 40
64.0
 41
0.0
 71
     5
 72
     1
  1
\A1;8
 73
     1
 44
1.0
  0
POINT
  5
158F
330
1579
100
AcDbEntity
  8
DEFPOINTS
  6
Continuous
 62
     0
100
AcDbPoint
 10
0.0
 20
157.5
 30
0.0
  0
POINT
  5
1590
330
1579
100
AcDbEntity
  8
DEFPOINTS
  6
Continuous
 62
     0
100
AcDbPoint
 10
8.0
 20
157.5
 30
0.0
  0
POINT
  5
1591
330
1579
100
AcDbEntity
  8
DEFPOINTS
  6
Continuous
 62
     0
100
AcDbPoint
 10
8.000000000000005
 20
245.7692974037192
 30
0.0
  0
ENDBLK
  5
157B
330
1579
100
AcDbEntity
  8
0
100
AcDbBlockEnd
  0
BLOCK
  5
1682
330
1681
100
AcDbEntity
  8
0
100
AcDbBlockBegin
  2
*D17
 70
     1
 10
0.0
 20
0.0
 30
0.0
  3
*D17
  1

  0
LINE
  5
1683
330
1681
100
AcDbEntity
  8
SIZE
 62
     0
370
    -2
100
AcDbLine
 10
-43474.9202001316
 20
5342.487522592179
 30
0.0
 11
-43474.9202001316
 21
5188.564906305671
 31
0.0
  0
LINE
  5
1684
330
1681
100
AcDbEntity
  8
SIZE
 62
     0
370
    -2
100
AcDbLine
 10
-42836.92020013162
 20
5342.487522592179
 30
0.0
 11
-42836.92020013162
 21
5188.564906305671
 31
0.0
  0
LINE
  5
1685
330
1681
100
AcDbEntity
  8
SIZE
 62
     0
370
    -2
100
AcDbLine
 10
-43462.9202001316
 20
5208.564906305671
 30
0.0
 11
-42848.92020013161
 21
5208.564906305671
 31
0.0
  0
INSERT
  5
1686
330
1681
100
AcDbEntity
  8
SIZE
 62
     0
370
    -2
100
AcDbBlockReference
  2
_DOTBLANK
 10
-43474.9202001316
 20
5208.564906305671
 30
0.0
 41
12.0
 42
12.0
 43
12.0
 50
180.0
  0
INSERT
  5
1687
330
1681
100
AcDbEntity
  8
SIZE
 62
     0
370
    -2
100
AcDbBlockReference
  2
_DOTBLANK
 10
-42836.92020013162
 20
5208.564906305671
 30
0.0
 41
12.0
 42
12.0
 43
12.0
  0
MTEXT
  5
1688
330
1681
100
AcDbEntity
  8
SIZE
 62
     0
100
AcDbMText
 10
-43155.92020013161
 20
5250.564906305671
 30
0.0
 40
64.0
 41
0.0
 71
     5
 72
     1
  1
\A1;638
 73
     1
 44
1.0
  0
POINT
  5
1689
330
1681
100
AcDbEntity
  8
DEFPOINTS
 62
     0
100
AcDbPoint
 10
-43474.9202001316
 20
5362.487522592179
 30
0.0
  0
POINT
  5
168A
330
1681
100
AcDbEntity
  8
DEFPOINTS
 62
     0
100
AcDbPoint
 10
-42836.92020013162
 20
5362.487522592179
 30
0.0
  0
POINT
  5
168B
330
1681
100
AcDbEntity
  8
DEFPOINTS
 62
     0
100
AcDbPoint
 10
-42836.92020013162
 20
5208.564906305671
 30
0.0
  0
ENDBLK
  5
168C
330
1681
100
AcDbEntity
  8
0
100
AcDbBlockEnd
  0
BLOCK
  5
168E
330
168D
100
AcDbEntity
  8
0
100
AcDbBlockBegin
  2
*D18
 70
     1
 10
0.0
 20
0.0
 30
0.0
  3
*D18
  1

  0
LINE
  5
168F
330
168D
100
AcDbEntity
  8
SIZE
 62
     0
370
    -2
100
AcDbLine
 10
-43480.92020013162
 20
5324.987522592179
 30
0.0
 11
-43480.92020013162
 21
5072.078974502169
 31
0.0
  0
LINE
  5
1690
330
168D
100
AcDbEntity
  8
SIZE
 62
     0
370
    -2
100
AcDbLine
 10
-42830.9202001316
 20
5324.987522592179
 30
0.0
 11
-42830.9202001316
 21
5072.078974502169
 31
0.0
  0
LINE
  5
1691
330
168D
100
AcDbEntity
  8
SIZE
 62
     0
370
    -2
100
AcDbLine
 10
-43468.92020013161
 20
5092.078974502169
 30
0.0
 11
-42842.9202001316
 21
5092.078974502169
 31
0.0
  0
INSERT
  5
1692
330
168D
100
AcDbEntity
  8
SIZE
 62
     0
370
    -2
100
AcDbBlockReference
  2
_DOTBLANK
 10
-43480.92020013162
 20
5092.078974502169
 30
0.0
 41
12.0
 42
12.0
 43
12.0
 50
180.0
  0
INSERT
  5
1693
330
168D
100
AcDbEntity
  8
SIZE
 62
     0
370
    -2
100
AcDbBlockReference
  2
_DOTBLANK
 10
-42830.9202001316
 20
5092.078974502169
 30
0.0
 41
12.0
 42
12.0
 43
12.0
  0
MTEXT
  5
1694
330
168D
100
AcDbEntity
  8
SIZE
 62
     0
100
AcDbMText
 10
-43155.92020013161
 20
5134.07897450217
 30
0.0
 40
64.0
 41
0.0
 71
     5
 72
     1
  1
\A1;650
 73
     1
 44
1.0
  0
POINT
  5
1695
330
168D
100
AcDbEntity
  8
DEFPOINTS
 62
     0
100
AcDbPoint
 10
-43480.92020013162
 20
5344.987522592179
 30
0.0
  0
POINT
  5
1696
330
168D
100
AcDbEntity
  8
DEFPOINTS
 62
     0
100
AcDbPoint
 10
-42830.9202001316
 20
5344.987522592179
 30
0.0
  0
POINT
  5
1697
330
168D
100
AcDbEntity
  8
DEFPOINTS
 62
     0
100
AcDbPoint
 10
-42830.9202001316
 20
5092.078974502169
 30
0.0
  0
ENDBLK
  5
1698
330
168D
100
AcDbEntity
  8
0
100
AcDbBlockEnd
  0
BLOCK
  5
169A
330
1699
100
AcDbEntity
  8
0
100
AcDbBlockBegin
  2
*D19
 70
     1
 10
0.0
 20
0.0
 30
0.0
  3
*D19
  1

  0
LINE
  5
169B
330
1699
100
AcDbEntity
  8
SIZE
 62
     0
370
    -2
100
AcDbLine
 10
-43500.9202001316
 20
5344.987522592179
 30
0.0
 11
-43720.25058092126
 21
5344.987522592179
 31
0.0
  0
LINE
  5
169C
330
1699
100
AcDbEntity
  8
SIZE
 62
     0
370
    -2
100
AcDbLine
 10
-43499.92020013162
 20
5965.787522592178
 30
0.0
 11
-43720.25058092126
 21
5965.787522592178
 31
0.0
  0
LINE
  5
169D
330
1699
100
AcDbEntity
  8
SIZE
 62
     0
370
    -2
100
AcDbLine
 10
-43700.25058092126
 20
5356.987522592179
 30
0.0
 11
-43700.25058092126
 21
5953.787522592178
 31
0.0
  0
INSERT
  5
169E
330
1699
100
AcDbEntity
  8
SIZE
 62
     0
370
    -2
100
AcDbBlockReference
  2
_DOTBLANK
 10
-43700.25058092126
 20
5344.987522592179
 30
0.0
 41
12.0
 42
12.0
 43
12.0
 50
270.0
  0
INSERT
  5
169F
330
1699
100
AcDbEntity
  8
SIZE
 62
     0
370
    -2
100
AcDbBlockReference
  2
_DOTBLANK
 10
-43700.25058092126
 20
5965.787522592178
 30
0.0
 41
12.0
 42
12.0
 43
12.0
 50
90.0
  0
MTEXT
  5
16A0
330
1699
100
AcDbEntity
  8
SIZE
 62
     0
100
AcDbMText
 10
-43742.25058092126
 20
5655.387522592172
 30
0.0
 40
64.0
 41
0.0
 71
     5
 72
     1
  1
\A1;621
 11
0.0000000000000001
 21
1.0
 31
0.0
 73
     1
 44
1.0
  0
POINT
  5
16A1
330
1699
100
AcDbEntity
  8
DEFPOINTS
 62
     0
100
AcDbPoint
 10
-43480.92020013162
 20
5344.987522592179
 30
0.0
  0
POINT
  5
16A2
330
1699
100
AcDbEntity
  8
DEFPOINTS
 62
     0
100
AcDbPoint
 10
-43479.92020013161
 20
5965.787522592178
 30
0.0
  0
POINT
  5
16A3
330
1699
100
AcDbEntity
  8
DEFPOINTS
 62
     0
100
AcDbPoint
 10
-43700.25058092126
 20
5965.787522592178
 30
0.0
  0
ENDBLK
  5
16A4
330
1699
100
AcDbEntity
  8
0
100
AcDbBlockEnd
  0
BLOCK
  5
16A6
330
16A5
100
AcDbEntity
  8
0
100
AcDbBlockBegin
  2
*D20
 70
     1
 10
0.0
 20
0.0
 30
0.0
  3
*D20
  1

  0
LINE
  5
16A7
330
16A5
100
AcDbEntity
  8
SIZE
  6
Continuous
 62
     0
370
    -2
100
AcDbLine
 10
-43499.42020013161
 20
5939.987522592179
 30
0.0
 11
-43613.00786530768
 21
5939.987522592179
 31
0.0
  0
LINE
  5
16A8
330
16A5
100
AcDbEntity
  8
SIZE
  6
Continuous
 62
     0
370
    -2
100
AcDbLine
 10
-43502.4202001316
 20
5654.987522592179
 30
0.0
 11
-43613.00786530768
 21
5654.987522592179
 31
0.0
  0
LINE
  5
16A9
330
16A5
100
AcDbEntity
  8
SIZE
  6
Continuous
 62
     0
370
    -2
100
AcDbLine
 10
-43593.00786530768
 20
5927.987522592179
 30
0.0
 11
-43593.00786530768
 21
5666.987522592179
 31
0.0
  0
INSERT
  5
16AA
330
16A5
100
AcDbEntity
  8
SIZE
  6
Continuous
 62
     0
370
    -2
100
AcDbBlockReference
  2
_DOTBLANK
 10
-43593.00786530768
 20
5939.987522592179
 30
0.0
 41
12.0
 42
12.0
 43
12.0
 50
90.0
  0
INSERT
  5
16AB
330
16A5
100
AcDbEntity
  8
SIZE
  6
Continuous
 62
     0
370
    -2
100
AcDbBlockReference
  2
_DOTBLANK
 10
-43593.00786530768
 20
5654.987522592179
 30
0.0
 41
12.0
 42
12.0
 43
12.0
 50
270.0
  0
MTEXT
  5
16AC
330
16A5
100
AcDbEntity
  8
SIZE
  6
Continuous
 62
     0
100
AcDbMText
 10
-43635.00786530768
 20
5797.48752259217
 30
0.0
 40
64.0
 41
0.0
 71
     5
 72
     1
  1
\A1;285
 11
0.0000000000000001
 21
1.0
 31
0.0
 73
     1
 44
1.0
  0
POINT
  5
16AD
330
16A5
100
AcDbEntity
  8
DEFPOINTS
  6
Continuous
 62
     0
100
AcDbPoint
 10
-43479.4202001316
 20
5939.987522592179
 30
0.0
  0
POINT
  5
16AE
330
16A5
100
AcDbEntity
  8
DEFPOINTS
  6
Continuous
 62
     0
100
AcDbPoint
 10
-43482.4202001316
 20
5654.987522592179
 30
0.0
  0
POINT
  5
16AF
330
16A5
100
AcDbEntity
  8
DEFPOINTS
  6
Continuous
 62
     0
100
AcDbPoint
 10
-43593.00786530768
 20
5654.987522592179
 30
0.0
  0
ENDBLK
  5
16B0
330
16A5
100
AcDbEntity
  8
0
100
AcDbBlockEnd
  0
BLOCK
  5
16B2
330
16B1
100
AcDbEntity
  8
0
100
AcDbBlockBegin
  2
*D21
 70
     1
 10
0.0
 20
0.0
 30
0.0
  3
*D21
  1

  0
LINE
  5
16B3
330
16B1
100
AcDbEntity
  8
SIZE
  6
Continuous
 62
     0
370
    -2
100
AcDbLine
 10
-43522.42020013161
 20
5654.987522592179
 30
0.0
 11
-43613.00786530768
 21
5654.987522592179
 31
0.0
  0
LINE
  5
16B4
330
16B1
100
AcDbEntity
  8
SIZE
  6
Continuous
 62
     0
370
    -2
100
AcDbLine
 10
-43502.4202001316
 20
5369.987522592179
 30
0.0
 11
-43613.00786530768
 21
5369.987522592179
 31
0.0
  0
LINE
  5
16B5
330
16B1
100
AcDbEntity
  8
SIZE
  6
Continuous
 62
     0
370
    -2
100
AcDbLine
 10
-43593.00786530768
 20
5642.987522592179
 30
0.0
 11
-43593.00786530768
 21
5381.987522592179
 31
0.0
  0
INSERT
  5
16B6
330
16B1
100
AcDbEntity
  8
SIZE
  6
Continuous
 62
     0
370
    -2
100
AcDbBlockReference
  2
_DOTBLANK
 10
-43593.00786530768
 20
5654.987522592179
 30
0.0
 41
12.0
 42
12.0
 43
12.0
 50
90.0
  0
INSERT
  5
16B7
330
16B1
100
AcDbEntity
  8
SIZE
  6
Continuous
 62
     0
370
    -2
100
AcDbBlockReference
  2
_DOTBLANK
 10
-43593.00786530768
 20
5369.987522592179
 30
0.0
 41
12.0
 42
12.0
 43
12.0
 50
270.0
  0
MTEXT
  5
16B8
330
16B1
100
AcDbEntity
  8
SIZE
  6
Continuous
 62
     0
100
AcDbMText
 10
-43635.00786530768
 20
5512.48752259217
 30
0.0
 40
64.0
 41
0.0
 71
     5
 72
     1
  1
\A1;285
 11
0.0000000000000001
 21
1.0
 31
0.0
 73
     1
 44
1.0
  0
POINT
  5
16B9
330
16B1
100
AcDbEntity
  8
DEFPOINTS
  6
Continuous
 62
     0
100
AcDbPoint
 10
-43502.4202001316
 20
5654.987522592179
 30
0.0
  0
POINT
  5
16BA
330
16B1
100
AcDbEntity
  8
DEFPOINTS
  6
Continuous
 62
     0
100
AcDbPoint
 10
-43482.4202001316
 20
5369.987522592179
 30
0.0
  0
POINT
  5
16BB
330
16B1
100
AcDbEntity
  8
DEFPOINTS
  6
Continuous
 62
     0
100
AcDbPoint
 10
-43593.00786530768
 20
5369.987522592179
 30
0.0
  0
ENDBLK
  5
16BC
330
16B1
100
AcDbEntity
  8
0
100
AcDbBlockEnd
  0
BLOCK
  5
183F
330
183E
100
AcDbEntity
  8
0
100
AcDbBlockBegin
  2
*D22
 70
     1
 10
0.0
 20
0.0
 30
0.0
  3
*D22
  1

  0
LINE
  5
187A
330
183E
100
AcDbEntity
  8
SIZE
 62
     0
370
    -2
100
AcDbLine
 10
-319.0
 20
-312.5000000000001
 30
0.0
 11
-319.0
 21
-466.4226162865079
 31
0.0
  0
LINE
  5
187B
330
183E
100
AcDbEntity
  8
SIZE
 62
     0
370
    -2
100
AcDbLine
 10
319.0
 20
-312.5000000000001
 30
0.0
 11
319.0
 21
-466.4226162865079
 31
0.0
  0
LINE
  5
187C
330
183E
100
AcDbEntity
  8
SIZE
 62
     0
370
    -2
100
AcDbLine
 10
-307.0
 20
-446.422616286508
 30
0.0
 11
307.0
 21
-446.422616286508
 31
0.0
  0
INSERT
  5
187D
330
183E
100
AcDbEntity
  8
SIZE
 62
     0
370
    -2
100
AcDbBlockReference
  2
_DOTBLANK
 10
-319.0
 20
-446.422616286508
 30
0.0
 41
12.0
 42
12.0
 43
12.0
 50
180.0
  0
INSERT
  5
187E
330
183E
100
AcDbEntity
  8
SIZE
 62
     0
370
    -2
100
AcDbBlockReference
  2
_DOTBLANK
 10
319.0
 20
-446.422616286508
 30
0.0
 41
12.0
 42
12.0
 43
12.0
  0
MTEXT
  5
187F
330
183E
100
AcDbEntity
  8
SIZE
 62
     0
100
AcDbMText
 10
0.0000000000000026
 20
-404.4226162865079
 30
0.0
 40
64.0
 41
0.0
 71
     5
 72
     1
  1
\A1;638
 73
     1
 44
1.0
  0
POINT
  5
1880
330
183E
100
AcDbEntity
  8
DEFPOINTS
 62
     0
100
AcDbPoint
 10
-319.0
 20
-292.5000000000001
 30
0.0
  0
POINT
  5
1881
330
183E
100
AcDbEntity
  8
DEFPOINTS
 62
     0
100
AcDbPoint
 10
319.0
 20
-292.5000000000001
 30
0.0
  0
POINT
  5
1882
330
183E
100
AcDbEntity
  8
DEFPOINTS
 62
     0
100
AcDbPoint
 10
319.0
 20
-446.422616286508
 30
0.0
  0
ENDBLK
  5
1840
330
183E
100
AcDbEntity
  8
0
100
AcDbBlockEnd
  0
BLOCK
  5
184B
330
184A
100
AcDbEntity
  8
0
100
AcDbBlockBegin
  2
*D23
 70
     1
 10
0.0
 20
0.0
 30
0.0
  3
*D23
  1

  0
LINE
  5
1883
330
184A
100
AcDbEntity
  8
SIZE
 62
     0
370
    -2
100
AcDbLine
 10
-325.0
 20
-330.0000000000001
 30
0.0
 11
-325.0
 21
-582.9085480900094
 31
0.0
  0
LINE
  5
1884
330
184A
100
AcDbEntity
  8
SIZE
 62
     0
370
    -2
100
AcDbLine
 10
325.0
 20
-330.0000000000001
 30
0.0
 11
325.0
 21
-582.9085480900094
 31
0.0
  0
LINE
  5
1885
330
184A
100
AcDbEntity
  8
SIZE
 62
     0
370
    -2
100
AcDbLine
 10
-313.0
 20
-562.9085480900093
 30
0.0
 11
313.0
 21
-562.9085480900093
 31
0.0
  0
INSERT
  5
1886
330
184A
100
AcDbEntity
  8
SIZE
 62
     0
370
    -2
100
AcDbBlockReference
  2
_DOTBLANK
 10
-325.0
 20
-562.9085480900093
 30
0.0
 41
12.0
 42
12.0
 43
12.0
 50
180.0
  0
INSERT
  5
1887
330
184A
100
AcDbEntity
  8
SIZE
 62
     0
370
    -2
100
AcDbBlockReference
  2
_DOTBLANK
 10
325.0
 20
-562.9085480900093
 30
0.0
 41
12.0
 42
12.0
 43
12.0
  0
MTEXT
  5
1888
330
184A
100
AcDbEntity
  8
SIZE
 62
     0
100
AcDbMText
 10
0.0000000000000026
 20
-520.9085480900093
 30
0.0
 40
64.0
 41
0.0
 71
     5
 72
     1
  1
\A1;650
 73
     1
 44
1.0
  0
POINT
  5
1889
330
184A
100
AcDbEntity
  8
DEFPOINTS
 62
     0
100
AcDbPoint
 10
-325.0
 20
-310.0000000000001
 30
0.0
  0
POINT
  5
188A
330
184A
100
AcDbEntity
  8
DEFPOINTS
 62
     0
100
AcDbPoint
 10
325.0
 20
-310.0000000000001
 30
0.0
  0
POINT
  5
188B
330
184A
100
AcDbEntity
  8
DEFPOINTS
 62
     0
100
AcDbPoint
 10
325.0
 20
-562.9085480900093
 30
0.0
  0
ENDBLK
  5
184C
330
184A
100
AcDbEntity
  8
0
100
AcDbBlockEnd
  0
BLOCK
  5
1857
330
1856
100
AcDbEntity
  8
0
100
AcDbBlockBegin
  2
*D24
 70
     1
 10
0.0
 20
0.0
 30
0.0
  3
*D24
  1

  0
LINE
  5
188C
330
1856
100
AcDbEntity
  8
SIZE
 62
     0
370
    -2
100
AcDbLine
 10
-345.0
 20
-310.0000000000001
 30
0.0
 11
-564.3303807896592
 21
-310.0
 31
0.0
  0
LINE
  5
188D
330
1856
100
AcDbEntity
  8
SIZE
 62
     0
370
    -2
100
AcDbLine
 10
-344.0
 20
310.7999999999993
 30
0.0
 11
-564.330380789659
 21
310.7999999999993
 31
0.0
  0
LINE
  5
188E
330
1856
100
AcDbEntity
  8
SIZE
 62
     0
370
    -2
100
AcDbLine
 10
-544.3303807896592
 20
-298.0
 30
0.0
 11
-544.3303807896588
 21
298.7999999999993
 31
0.0
  0
INSERT
  5
188F
330
1856
100
AcDbEntity
  8
SIZE
 62
     0
370
    -2
100
AcDbBlockReference
  2
_DOTBLANK
 10
-544.3303807896592
 20
-310.0
 30
0.0
 41
12.0
 42
12.0
 43
12.0
 50
270.0
  0
INSERT
  5
1890
330
1856
100
AcDbEntity
  8
SIZE
 62
     0
370
    -2
100
AcDbBlockReference
  2
_DOTBLANK
 10
-544.3303807896588
 20
310.7999999999993
 30
0.0
 41
12.0
 42
12.0
 43
12.0
 50
90.0
  0
MTEXT
  5
1891
330
1856
100
AcDbEntity
  8
SIZE
 62
     0
100
AcDbMText
 10
-586.3303807896591
 20
0.3999999999932749
 30
0.0
 40
64.0
 41
0.0
 71
     5
 72
     1
  1
\A1;621
 11
0.0000000000000001
 21
1.0
 31
0.0
 73
     1
 44
1.0
  0
POINT
  5
1892
330
1856
100
AcDbEntity
  8
DEFPOINTS
 62
     0
100
AcDbPoint
 10
-325.0
 20
-310.0000000000001
 30
0.0
  0
POINT
  5
1893
330
1856
100
AcDbEntity
  8
DEFPOINTS
 62
     0
100
AcDbPoint
 10
-324.0
 20
310.7999999999993
 30
0.0
  0
POINT
  5
1894
330
1856
100
AcDbEntity
  8
DEFPOINTS
 62
     0
100
AcDbPoint
 10
-544.3303807896588
 20
310.7999999999993
 30
0.0
  0
ENDBLK
  5
1858
330
1856
100
AcDbEntity
  8
0
100
AcDbBlockEnd
  0
BLOCK
  5
1863
330
1862
100
AcDbEntity
  8
0
100
AcDbBlockBegin
  2
*D25
 70
     1
 10
0.0
 20
0.0
 30
0.0
  3
*D25
  1

  0
LINE
  5
1895
330
1862
100
AcDbEntity
  8
SIZE
  6
Continuous
 62
     0
370
    -2
100
AcDbLine
 10
-343.5
 20
285.0
 30
0.0
 11
-457.0876651760771
 21
285.0000000000001
 31
0.0
  0
LINE
  5
1896
330
1862
100
AcDbEntity
  8
SIZE
  6
Continuous
 62
     0
370
    -2
100
AcDbLine
 10
-346.5
 20
0.0000000000000057
 30
0.0
 11
-457.0876651760771
 21
0.000000000000037
 31
0.0
  0
LINE
  5
1897
330
1862
100
AcDbEntity
  8
SIZE
  6
Continuous
 62
     0
370
    -2
100
AcDbLine
 10
-437.0876651760771
 20
273.0
 30
0.0
 11
-437.0876651760773
 21
12.00000000000003
 31
0.0
  0
INSERT
  5
1898
330
1862
100
AcDbEntity
  8
SIZE
  6
Continuous
 62
     0
370
    -2
100
AcDbBlockReference
  2
_DOTBLANK
 10
-437.0876651760771
 20
285.0000000000001
 30
0.0
 41
12.0
 42
12.0
 43
12.0
 50
90.0
  0
INSERT
  5
1899
330
1862
100
AcDbEntity
  8
SIZE
  6
Continuous
 62
     0
370
    -2
100
AcDbBlockReference
  2
_DOTBLANK
 10
-437.0876651760773
 20
0.0000000000000313
 30
0.0
 41
12.0
 42
12.0
 43
12.0
 50
270.0
  0
MTEXT
  5
189A
330
1862
100
AcDbEntity
  8
SIZE
  6
Continuous
 62
     0
100
AcDbMText
 10
-479.0876651760773
 20
142.5
 30
0.0
 40
64.0
 41
0.0
 71
     5
 72
     1
  1
\A1;285
 11
0.0000000000000001
 21
1.0
 31
0.0
 73
     1
 44
1.0
  0
POINT
  5
189B
330
1862
100
AcDbEntity
  8
DEFPOINTS
  6
Continuous
 62
     0
100
AcDbPoint
 10
-323.5
 20
285.0
 30
0.0
  0
POINT
  5
189C
330
1862
100
AcDbEntity
  8
DEFPOINTS
  6
Continuous
 62
     0
100
AcDbPoint
 10
-326.5
 20
0.0
 30
0.0
  0
POINT
  5
189D
330
1862
100
AcDbEntity
  8
DEFPOINTS
  6
Continuous
 62
     0
100
AcDbPoint
 10
-437.0876651760773
 20
0.0000000000000313
 30
0.0
  0
ENDBLK
  5
1864
330
1862
100
AcDbEntity
  8
0
100
AcDbBlockEnd
  0
BLOCK
  5
186F
330
186E
100
AcDbEntity
  8
0
100
AcDbBlockBegin
  2
*D26
 70
     1
 10
0.0
 20
0.0
 30
0.0
  3
*D26
  1

  0
LINE
  5
189E
330
186E
100
AcDbEntity
  8
SIZE
  6
Continuous
 62
     0
370
    -2
100
AcDbLine
 10
-366.5
 20
0.0000000000000057
 30
0.0
 11
-457.0876651760771
 21
0.0000000000000313
 31
0.0
  0
LINE
  5
189F
330
186E
100
AcDbEntity
  8
SIZE
  6
Continuous
 62
     0
370
    -2
100
AcDbLine
 10
-346.5
 20
-285.0000000000001
 30
0.0
 11
-457.0876651760771
 21
-285.0000000000001
 31
0.0
  0
LINE
  5
18A0
330
186E
100
AcDbEntity
  8
SIZE
  6
Continuous
 62
     0
370
    -2
100
AcDbLine
 10
-437.0876651760771
 20
-11.99999999999997
 30
0.0
 11
-437.0876651760773
 21
-273.0
 31
0.0
  0
INSERT
  5
18A1
330
186E
100
AcDbEntity
  8
SIZE
  6
Continuous
 62
     0
370
    -2
100
AcDbBlockReference
  2
_DOTBLANK
 10
-437.0876651760771
 20
0.0000000000000257
 30
0.0
 41
12.0
 42
12.0
 43
12.0
 50
90.0
  0
INSERT
  5
18A2
330
186E
100
AcDbEntity
  8
SIZE
  6
Continuous
 62
     0
370
    -2
100
AcDbBlockReference
  2
_DOTBLANK
 10
-437.0876651760773
 20
-285.0000000000001
 30
0.0
 41
12.0
 42
12.0
 43
12.0
 50
270.0
  0
MTEXT
  5
18A3
330
186E
100
AcDbEntity
  8
SIZE
  6
Continuous
 62
     0
100
AcDbMText
 10
-479.0876651760771
 20
-142.5000000000001
 30
0.0
 40
64.0
 41
0.0
 71
     5
 72
     1
  1
\A1;285
 11
0.0000000000000001
 21
1.0
 31
0.0
 73
     1
 44
1.0
  0
POINT
  5
18A4
330
186E
100
AcDbEntity
  8
DEFPOINTS
  6
Continuous
 62
     0
100
AcDbPoint
 10
-346.5
 20
0.0
 30
0.0
  0
POINT
  5
18A5
330
186E
100
AcDbEntity
  8
DEFPOINTS
  6
Continuous
 62
     0
100
AcDbPoint
 10
-326.5
 20
-285.0000000000001
 30
0.0
  0
POINT
  5
18A6
330
186E
100
AcDbEntity
  8
DEFPOINTS
  6
Continuous
 62
     0
100
AcDbPoint
 10
-437.0876651760773
 20
-285.0000000000001
 30
0.0
  0
ENDBLK
  5
1870
330
186E
100
AcDbEntity
  8
0
100
AcDbBlockEnd
  0
BLOCK
  5
19A5
330
19A4
100
AcDbEntity
  8
0
100
AcDbBlockBegin
  2
*D28
 70
     1
 10
0.0
 20
0.0
 30
0.0
  3
*D28
  1

  0
LINE
  5
19A6
330
19A4
100
AcDbEntity
  8
SIZE
  6
Continuous
 62
     0
370
    -2
100
AcDbLine
 10
-46039.64203334903
 20
5322.337581957586
 30
0.0
 11
-46039.64203334903
 21
5185.911205967973
 31
0.0
  0
LINE
  5
19A7
330
19A4
100
AcDbEntity
  8
SIZE
  6
Continuous
 62
     0
370
    -2
100
AcDbLine
 10
-45581.64203334904
 20
5322.337581957585
 30
0.0
 11
-45581.64203334904
 21
5185.911205967973
 31
0.0
  0
LINE
  5
19A8
330
19A4
100
AcDbEntity
  8
SIZE
  6
Continuous
 62
     0
370
    -2
100
AcDbLine
 10
-46027.64203334904
 20
5205.911205967972
 30
0.0
 11
-45593.64203334903
 21
5205.911205967972
 31
0.0
  0
INSERT
  5
19A9
330
19A4
100
AcDbEntity
  8
SIZE
  6
Continuous
 62
     0
370
    -2
100
AcDbBlockReference
  2
_DOTBLANK
 10
-46039.64203334903
 20
5205.911205967972
 30
0.0
 41
12.0
 42
12.0
 43
12.0
 50
180.0
  0
INSERT
  5
19AA
330
19A4
100
AcDbEntity
  8
SIZE
  6
Continuous
 62
     0
370
    -2
100
AcDbBlockReference
  2
_DOTBLANK
 10
-45581.64203334904
 20
5205.911205967972
 30
0.0
 41
12.0
 42
12.0
 43
12.0
  0
MTEXT
  5
19AB
330
19A4
100
AcDbEntity
  8
SIZE
  6
Continuous
 62
     0
100
AcDbMText
 10
-45810.64203334904
 20
5247.911205967973
 30
0.0
 40
64.0
 41
0.0
 71
     5
 72
     1
  1
\A1;458
 73
     1
 44
1.0
  0
POINT
  5
19AC
330
19A4
100
AcDbEntity
  8
DEFPOINTS
  6
Continuous
 62
     0
100
AcDbPoint
 10
-46039.64203334903
 20
5342.337581957586
 30
0.0
  0
POINT
  5
19AD
330
19A4
100
AcDbEntity
  8
DEFPOINTS
  6
Continuous
 62
     0
100
AcDbPoint
 10
-45581.64203334904
 20
5342.337581957585
 30
0.0
  0
POINT
  5
19AE
330
19A4
100
AcDbEntity
  8
DEFPOINTS
  6
Continuous
 62
     0
100
AcDbPoint
 10
-45581.64203334904
 20
5205.911205967972
 30
0.0
  0
ENDBLK
  5
19AF
330
19A4
100
AcDbEntity
  8
0
100
AcDbBlockEnd
  0
BLOCK
  5
19B1
330
19B0
100
AcDbEntity
  8
0
100
AcDbBlockBegin
  2
*D29
 70
     1
 10
0.0
 20
0.0
 30
0.0
  3
*D29
  1

  0
LINE
  5
19B2
330
19B0
100
AcDbEntity
  8
SIZE
  6
Continuous
 62
     0
370
    -2
100
AcDbLine
 10
-46049.14203334904
 20
5312.337581957586
 30
0.0
 11
-46049.14203334904
 21
5073.04638850347
 31
0.0
  0
LINE
  5
19B3
330
19B0
100
AcDbEntity
  8
SIZE
  6
Continuous
 62
     0
370
    -2
100
AcDbLine
 10
-45572.14203334903
 20
5312.337581957585
 30
0.0
 11
-45572.14203334903
 21
5073.04638850347
 31
0.0
  0
LINE
  5
19B4
330
19B0
100
AcDbEntity
  8
SIZE
  6
Continuous
 62
     0
370
    -2
100
AcDbLine
 10
-46037.14203334903
 20
5093.04638850347
 30
0.0
 11
-45584.14203334904
 21
5093.04638850347
 31
0.0
  0
INSERT
  5
19B5
330
19B0
100
AcDbEntity
  8
SIZE
  6
Continuous
 62
     0
370
    -2
100
AcDbBlockReference
  2
_DOTBLANK
 10
-46049.14203334904
 20
5093.04638850347
 30
0.0
 41
12.0
 42
12.0
 43
12.0
 50
180.0
  0
INSERT
  5
19B6
330
19B0
100
AcDbEntity
  8
SIZE
  6
Continuous
 62
     0
370
    -2
100
AcDbBlockReference
  2
_DOTBLANK
 10
-45572.14203334903
 20
5093.04638850347
 30
0.0
 41
12.0
 42
12.0
 43
12.0
  0
MTEXT
  5
19B7
330
19B0
100
AcDbEntity
  8
SIZE
  6
Continuous
 62
     0
100
AcDbMText
 10
-45810.64203334904
 20
5135.046388503471
 30
0.0
 40
64.0
 41
0.0
 71
     5
 72
     1
  1
\A1;477
 73
     1
 44
1.0
  0
POINT
  5
19B8
330
19B0
100
AcDbEntity
  8
DEFPOINTS
  6
Continuous
 62
     0
100
AcDbPoint
 10
-46049.14203334904
 20
5332.337581957586
 30
0.0
  0
POINT
  5
19B9
330
19B0
100
AcDbEntity
  8
DEFPOINTS
  6
Continuous
 62
     0
100
AcDbPoint
 10
-45572.14203334903
 20
5332.337581957585
 30
0.0
  0
POINT
  5
19BA
330
19B0
100
AcDbEntity
  8
DEFPOINTS
  6
Continuous
 62
     0
100
AcDbPoint
 10
-45572.14203334903
 20
5093.04638850347
 30
0.0
  0
ENDBLK
  5
19BB
330
19B0
100
AcDbEntity
  8
0
100
AcDbBlockEnd
  0
BLOCK
  5
19BD
330
19BC
100
AcDbEntity
  8
0
100
AcDbBlockBegin
  2
*D30
 70
     1
 10
0.0
 20
0.0
 30
0.0
  3
*D30
  1

  0
LINE
  5
19BE
330
19BC
100
AcDbEntity
  8
SIZE
  6
Continuous
 62
     0
370
    -2
100
AcDbLine
 10
-46067.14203334903
 20
5800.337581957585
 30
0.0
 11
-46166.97254588389
 21
5800.337581957585
 31
0.0
  0
LINE
  5
19BF
330
19BC
100
AcDbEntity
  8
SIZE
  6
Continuous
 62
     0
370
    -2
100
AcDbLine
 10
-46067.14203334903
 20
5342.337581957586
 30
0.0
 11
-46166.97254588389
 21
5342.337581957586
 31
0.0
  0
LINE
  5
19C0
330
19BC
100
AcDbEntity
  8
SIZE
  6
Continuous
 62
     0
370
    -2
100
AcDbLine
 10
-46146.97254588389
 20
5788.337581957586
 30
0.0
 11
-46146.97254588389
 21
5354.337581957586
 31
0.0
  0
INSERT
  5
19C1
330
19BC
100
AcDbEntity
  8
SIZE
  6
Continuous
 62
     0
370
    -2
100
AcDbBlockReference
  2
_DOTBLANK
 10
-46146.97254588389
 20
5800.337581957585
 30
0.0
 41
12.0
 42
12.0
 43
12.0
 50
90.0
  0
INSERT
  5
19C2
330
19BC
100
AcDbEntity
  8
SIZE
  6
Continuous
 62
     0
370
    -2
100
AcDbBlockReference
  2
_DOTBLANK
 10
-46146.97254588389
 20
5342.337581957586
 30
0.0
 41
12.0
 42
12.0
 43
12.0
 50
270.0
  0
MTEXT
  5
19C3
330
19BC
100
AcDbEntity
  8
SIZE
  6
Continuous
 62
     0
100
AcDbMText
 10
-46188.97254588389
 20
5571.337581957578
 30
0.0
 40
64.0
 41
0.0
 71
     5
 72
     1
  1
\A1;458
 11
0.0000000000000001
 21
1.0
 31
0.0
 73
     1
 44
1.0
  0
POINT
  5
19C4
330
19BC
100
AcDbEntity
  8
DEFPOINTS
  6
Continuous
 62
     0
100
AcDbPoint
 10
-46047.14203334903
 20
5800.337581957585
 30
0.0
  0
POINT
  5
19C5
330
19BC
100
AcDbEntity
  8
DEFPOINTS
  6
Continuous
 62
     0
100
AcDbPoint
 10
-46047.14203334903
 20
5342.337581957586
 30
0.0
  0
POINT
  5
19C6
330
19BC
100
AcDbEntity
  8
DEFPOINTS
  6
Continuous
 62
     0
100
AcDbPoint
 10
-46146.97254588389
 20
5342.337581957586
 30
0.0
  0
ENDBLK
  5
19C7
330
19BC
100
AcDbEntity
  8
0
100
AcDbBlockEnd
  0
BLOCK
  5
19C9
330
19C8
100
AcDbEntity
  8
0
100
AcDbBlockBegin
  2
*D31
 70
     1
 10
0.0
 20
0.0
 30
0.0
  3
*D31
  1

  0
LINE
  5
19CA
330
19C8
100
AcDbEntity
  8
SIZE
  6
Continuous
 62
     0
370
    -2
100
AcDbLine
 10
-46068.14203334904
 20
5815.137581957588
 30
0.0
 11
-46271.78449563164
 21
5815.137581957588
 31
0.0
  0
LINE
  5
19CB
330
19C8
100
AcDbEntity
  8
SIZE
  6
Continuous
 62
     0
370
    -2
100
AcDbLine
 10
-46069.14203334904
 20
5332.337581957586
 30
0.0
 11
-46271.78449563164
 21
5332.337581957586
 31
0.0
  0
LINE
  5
19CC
330
19C8
100
AcDbEntity
  8
SIZE
  6
Continuous
 62
     0
370
    -2
100
AcDbLine
 10
-46251.78449563164
 20
5803.137581957588
 30
0.0
 11
-46251.78449563164
 21
5344.337581957586
 31
0.0
  0
INSERT
  5
19CD
330
19C8
100
AcDbEntity
  8
SIZE
  6
Continuous
 62
     0
370
    -2
100
AcDbBlockReference
  2
_DOTBLANK
 10
-46251.78449563164
 20
5815.137581957588
 30
0.0
 41
12.0
 42
12.0
 43
12.0
 50
90.0
  0
INSERT
  5
19CE
330
19C8
100
AcDbEntity
  8
SIZE
  6
Continuous
 62
     0
370
    -2
100
AcDbBlockReference
  2
_DOTBLANK
 10
-46251.78449563164
 20
5332.337581957586
 30
0.0
 41
12.0
 42
12.0
 43
12.0
 50
270.0
  0
MTEXT
  5
19CF
330
19C8
100
AcDbEntity
  8
SIZE
  6
Continuous
 62
     0
100
AcDbMText
 10
-46293.78449563164
 20
5573.73758195758
 30
0.0
 40
64.0
 41
0.0
 71
     5
 72
     1
  1
\A1;483
 11
0.0000000000000001
 21
1.0
 31
0.0
 73
     1
 44
1.0
  0
POINT
  5
19D0
330
19C8
100
AcDbEntity
  8
DEFPOINTS
  6
Continuous
 62
     0
100
AcDbPoint
 10
-46048.14203334903
 20
5815.137581957588
 30
0.0
  0
POINT
  5
19D1
330
19C8
100
AcDbEntity
  8
DEFPOINTS
  6
Continuous
 62
     0
100
AcDbPoint
 10
-46049.14203334904
 20
5332.337581957586
 30
0.0
  0
POINT
  5
19D2
330
19C8
100
AcDbEntity
  8
DEFPOINTS
  6
Continuous
 62
     0
100
AcDbPoint
 10
-46251.78449563164
 20
5332.337581957586
 30
0.0
  0
ENDBLK
  5
19D3
330
19C8
100
AcDbEntity
  8
0
100
AcDbBlockEnd
  0
BLOCK
  5
1D24
330
1D23
100
AcDbEntity
  8
0
100
AcDbBlockBegin
  2
*D33
 70
     1
 10
0.0
 20
0.0
 30
0.0
  3
*D33
  1

  0
LINE
  5
1D26
330
1D23
100
AcDbEntity
  8
SIZE
  6
Continuous
 62
     0
370
    -2
100
AcDbLine
 10
-289.4765271966713
 20
-1681.198610375719
 30
0.0
 11
-289.4765271966713
 21
-1817.624986365332
 31
0.0
  0
LINE
  5
1D27
330
1D23
100
AcDbEntity
  8
SIZE
  6
Continuous
 62
     0
370
    -2
100
AcDbLine
 10
168.5234728033286
 20
-1681.19861037572
 30
0.0
 11
168.5234728033286
 21
-1817.624986365332
 31
0.0
  0
LINE
  5
1D28
330
1D23
100
AcDbEntity
  8
SIZE
  6
Continuous
 62
     0
370
    -2
100
AcDbLine
 10
-277.4765271966713
 20
-1797.624986365332
 30
0.0
 11
156.5234728033287
 21
-1797.624986365332
 31
0.0
  0
INSERT
  5
1D29
330
1D23
100
AcDbEntity
  8
SIZE
  6
Continuous
 62
     0
370
    -2
100
AcDbBlockReference
  2
_DOTBLANK
 10
-289.4765271966713
 20
-1797.624986365332
 30
0.0
 41
12.0
 42
12.0
 43
12.0
 50
180.0
  0
INSERT
  5
1D2A
330
1D23
100
AcDbEntity
  8
SIZE
  6
Continuous
 62
     0
370
    -2
100
AcDbBlockReference
  2
_DOTBLANK
 10
168.5234728033286
 20
-1797.624986365332
 30
0.0
 41
12.0
 42
12.0
 43
12.0
  0
MTEXT
  5
1D2B
330
1D23
100
AcDbEntity
  8
SIZE
  6
Continuous
 62
     0
100
AcDbMText
 10
-60.47652719667133
 20
-1755.624986365332
 30
0.0
 40
64.0
 41
0.0
 71
     5
 72
     1
  1
\A1;458
 73
     1
 44
1.0
  0
POINT
  5
1D2C
330
1D23
100
AcDbEntity
  8
DEFPOINTS
  6
Continuous
 62
     0
100
AcDbPoint
 10
-289.4765271966713
 20
-1661.198610375719
 30
0.0
  0
POINT
  5
1D2D
330
1D23
100
AcDbEntity
  8
DEFPOINTS
  6
Continuous
 62
     0
100
AcDbPoint
 10
168.5234728033286
 20
-1661.19861037572
 30
0.0
  0
POINT
  5
1D2E
330
1D23
100
AcDbEntity
  8
DEFPOINTS
  6
Continuous
 62
     0
100
AcDbPoint
 10
168.5234728033286
 20
-1797.624986365332
 30
0.0
  0
ENDBLK
  5
1D25
330
1D23
100
AcDbEntity
  8
0
100
AcDbBlockEnd
  0
BLOCK
  5
1D30
330
1D2F
100
AcDbEntity
  8
0
100
AcDbBlockBegin
  2
*D34
 70
     1
 10
0.0
 20
0.0
 30
0.0
  3
*D34
  1

  0
LINE
  5
1D32
330
1D2F
100
AcDbEntity
  8
SIZE
  6
Continuous
 62
     0
370
    -2
100
AcDbLine
 10
-298.9765271966713
 20
-1691.198610375719
 30
0.0
 11
-298.9765271966713
 21
-1930.489803829834
 31
0.0
  0
LINE
  5
1D33
330
1D2F
100
AcDbEntity
  8
SIZE
  6
Continuous
 62
     0
370
    -2
100
AcDbLine
 10
178.0234728033287
 20
-1691.19861037572
 30
0.0
 11
178.0234728033286
 21
-1930.489803829834
 31
0.0
  0
LINE
  5
1D34
330
1D2F
100
AcDbEntity
  8
SIZE
  6
Continuous
 62
     0
370
    -2
100
AcDbLine
 10
-286.9765271966713
 20
-1910.489803829834
 30
0.0
 11
166.0234728033286
 21
-1910.489803829834
 31
0.0
  0
INSERT
  5
1D35
330
1D2F
100
AcDbEntity
  8
SIZE
  6
Continuous
 62
     0
370
    -2
100
AcDbBlockReference
  2
_DOTBLANK
 10
-298.9765271966713
 20
-1910.489803829834
 30
0.0
 41
12.0
 42
12.0
 43
12.0
 50
180.0
  0
INSERT
  5
1D36
330
1D2F
100
AcDbEntity
  8
SIZE
  6
Continuous
 62
     0
370
    -2
100
AcDbBlockReference
  2
_DOTBLANK
 10
178.0234728033286
 20
-1910.489803829834
 30
0.0
 41
12.0
 42
12.0
 43
12.0
  0
MTEXT
  5
1D37
330
1D2F
100
AcDbEntity
  8
SIZE
  6
Continuous
 62
     0
100
AcDbMText
 10
-60.47652719667134
 20
-1868.489803829834
 30
0.0
 40
64.0
 41
0.0
 71
     5
 72
     1
  1
\A1;477
 73
     1
 44
1.0
  0
POINT
  5
1D38
330
1D2F
100
AcDbEntity
  8
DEFPOINTS
  6
Continuous
 62
     0
100
AcDbPoint
 10
-298.9765271966713
 20
-1671.198610375719
 30
0.0
  0
POINT
  5
1D39
330
1D2F
100
AcDbEntity
  8
DEFPOINTS
  6
Continuous
 62
     0
100
AcDbPoint
 10
178.0234728033287
 20
-1671.19861037572
 30
0.0
  0
POINT
  5
1D3A
330
1D2F
100
AcDbEntity
  8
DEFPOINTS
  6
Continuous
 62
     0
100
AcDbPoint
 10
178.0234728033286
 20
-1910.489803829834
 30
0.0
  0
ENDBLK
  5
1D31
330
1D2F
100
AcDbEntity
  8
0
100
AcDbBlockEnd
  0
BLOCK
  5
1D3C
330
1D3B
100
AcDbEntity
  8
0
100
AcDbBlockBegin
  2
*D35
 70
     1
 10
0.0
 20
0.0
 30
0.0
  3
*D35
  1

  0
LINE
  5
1D3E
330
1D3B
100
AcDbEntity
  8
SIZE
  6
Continuous
 62
     0
370
    -2
100
AcDbLine
 10
-316.9765271966713
 20
-1203.198610375719
 30
0.0
 11
-416.8070397315275
 21
-1203.198610375719
 31
0.0
  0
LINE
  5
1D3F
330
1D3B
100
AcDbEntity
  8
SIZE
  6
Continuous
 62
     0
370
    -2
100
AcDbLine
 10
-316.9765271966713
 20
-1661.198610375719
 30
0.0
 11
-416.8070397315276
 21
-1661.198610375719
 31
0.0
  0
LINE
  5
1D40
330
1D3B
100
AcDbEntity
  8
SIZE
  6
Continuous
 62
     0
370
    -2
100
AcDbLine
 10
-396.8070397315276
 20
-1215.198610375719
 30
0.0
 11
-396.8070397315277
 21
-1649.198610375719
 31
0.0
  0
INSERT
  5
1D41
330
1D3B
100
AcDbEntity
  8
SIZE
  6
Continuous
 62
     0
370
    -2
100
AcDbBlockReference
  2
_DOTBLANK
 10
-396.8070397315276
 20
-1203.198610375719
 30
0.0
 41
12.0
 42
12.0
 43
12.0
 50
90.0
  0
INSERT
  5
1D42
330
1D3B
100
AcDbEntity
  8
SIZE
  6
Continuous
 62
     0
370
    -2
100
AcDbBlockReference
  2
_DOTBLANK
 10
-396.8070397315277
 20
-1661.198610375719
 30
0.0
 41
12.0
 42
12.0
 43
12.0
 50
270.0
  0
MTEXT
  5
1D43
330
1D3B
100
AcDbEntity
  8
SIZE
  6
Continuous
 62
     0
100
AcDbMText
 10
-438.8070397315273
 20
-1432.198610375726
 30
0.0
 40
64.0
 41
0.0
 71
     5
 72
     1
  1
\A1;458
 11
0.0000000000000001
 21
1.0
 31
0.0
 73
     1
 44
1.0
  0
POINT
  5
1D44
330
1D3B
100
AcDbEntity
  8
DEFPOINTS
  6
Continuous
 62
     0
100
AcDbPoint
 10
-296.9765271966713
 20
-1203.198610375719
 30
0.0
  0
POINT
  5
1D45
330
1D3B
100
AcDbEntity
  8
DEFPOINTS
  6
Continuous
 62
     0
100
AcDbPoint
 10
-296.9765271966713
 20
-1661.198610375719
 30
0.0
  0
POINT
  5
1D46
330
1D3B
100
AcDbEntity
  8
DEFPOINTS
  6
Continuous
 62
     0
100
AcDbPoint
 10
-396.8070397315277
 20
-1661.198610375719
 30
0.0
  0
ENDBLK
  5
1D3D
330
1D3B
100
AcDbEntity
  8
0
100
AcDbBlockEnd
  0
BLOCK
  5
1D48
330
1D47
100
AcDbEntity
  8
0
100
AcDbBlockBegin
  2
*D36
 70
     1
 10
0.0
 20
0.0
 30
0.0
  3
*D36
  1

  0
LINE
  5
1D4A
330
1D47
100
AcDbEntity
  8
SIZE
  6
Continuous
 62
     0
370
    -2
100
AcDbLine
 10
-317.9765271966713
 20
-1188.398610375717
 30
0.0
 11
-521.6189894792728
 21
-1188.398610375717
 31
0.0
  0
LINE
  5
1D4B
330
1D47
100
AcDbEntity
  8
SIZE
  6
Continuous
 62
     0
370
    -2
100
AcDbLine
 10
-318.9765271966713
 20
-1671.198610375719
 30
0.0
 11
-521.6189894792729
 21
-1671.198610375719
 31
0.0
  0
LINE
  5
1D4C
330
1D47
100
AcDbEntity
  8
SIZE
  6
Continuous
 62
     0
370
    -2
100
AcDbLine
 10
-501.6189894792728
 20
-1200.398610375717
 30
0.0
 11
-501.6189894792729
 21
-1659.198610375719
 31
0.0
  0
INSERT
  5
1D4D
330
1D47
100
AcDbEntity
  8
SIZE
  6
Continuous
 62
     0
370
    -2
100
AcDbBlockReference
  2
_DOTBLANK
 10
-501.6189894792728
 20
-1188.398610375717
 30
0.0
 41
12.0
 42
12.0
 43
12.0
 50
90.0
  0
INSERT
  5
1D4E
330
1D47
100
AcDbEntity
  8
SIZE
  6
Continuous
 62
     0
370
    -2
100
AcDbBlockReference
  2
_DOTBLANK
 10
-501.6189894792729
 20
-1671.198610375719
 30
0.0
 41
12.0
 42
12.0
 43
12.0
 50
270.0
  0
MTEXT
  5
1D4F
330
1D47
100
AcDbEntity
  8
SIZE
  6
Continuous
 62
     0
100
AcDbMText
 10
-543.6189894792727
 20
-1429.798610375718
 30
0.0
 40
64.0
 41
0.0
 71
     5
 72
     1
  1
\A1;483
 11
0.0000000000000001
 21
1.0
 31
0.0
 73
     1
 44
1.0
  0
POINT
  5
1D50
330
1D47
100
AcDbEntity
  8
DEFPOINTS
  6
Continuous
 62
     0
100
AcDbPoint
 10
-297.9765271966713
 20
-1188.398610375717
 30
0.0
  0
POINT
  5
1D51
330
1D47
100
AcDbEntity
  8
DEFPOINTS
  6
Continuous
 62
     0
100
AcDbPoint
 10
-298.9765271966713
 20
-1671.198610375719
 30
0.0
  0
POINT
  5
1D52
330
1D47
100
AcDbEntity
  8
DEFPOINTS
  6
Continuous
 62
     0
100
AcDbPoint
 10
-501.6189894792729
 20
-1671.198610375719
 30
0.0
  0
ENDBLK
  5
1D49
330
1D47
100
AcDbEntity
  8
0
100
AcDbBlockEnd
  0
ENDSEC
  0
SECTION
  2
ENTITIES
  0
TEXT
  5
953
330
85F
100
AcDbEntity
  8
OUTLINE
  6
Continuous
 62
     3
100
AcDbText
 10
-418.231467
 20
13.715189
 30
0.0
 40
64.0
  1
 
 41
0.9
100
AcDbText
  0
TEXT
  5
954
330
85F
100
AcDbEntity
  8
OUTLINE
  6
Continuous
 62
     3
100
AcDbText
 10
-418.231467
 20
13.715189
 30
0.0
 40
64.0
  1
 
 41
0.9
100
AcDbText
  0
TEXT
  5
955
330
85F
100
AcDbEntity
  8
OUTLINE
  6
Continuous
 62
     3
100
AcDbText
 10
1341.41903
 20
-706.0588199999997
 30
0.0
 40
64.0
  1
 
 41
0.9
100
AcDbText
  0
TEXT
  5
956
330
85F
100
AcDbEntity
  8
OUTLINE
  6
Continuous
 62
     3
100
AcDbText
 10
1341.41903
 20
-706.0588199999997
 30
0.0
 40
64.0
  1
 
 41
0.9
100
AcDbText
  0
TEXT
  5
957
330
85F
100
AcDbEntity
  8
OUTLINE
  6
Continuous
 62
     3
100
AcDbText
 10
1341.41903
 20
-706.0588199999997
 30
0.0
 40
64.0
  1
 
 41
0.9
100
AcDbText
  0
TEXT
  5
958
330
85F
100
AcDbEntity
  8
OUTLINE
  6
Continuous
 62
     3
100
AcDbText
 10
1341.41903
 20
-706.0588199999997
 30
0.0
 40
64.0
  1
 
 41
0.9
100
AcDbText
  0
LINE
  5
1B7F
330
85F
100
AcDbEntity
  8
DETAIL
100
AcDbLine
 10
-282.9765271966713
 20
-1448.972404771036
 30
0.0
 11
-282.9765271966713
 21
-1668.19861037572
 31
0.0
  0
LINE
  5
1B80
330
85F
100
AcDbEntity
  8
DETAIL
100
AcDbLine
 10
-285.9765271966713
 20
-1671.198610375719
 30
0.0
 11
-297.3765271966728
 21
-1671.198610375719
 31
0.0
  0
CIRCLE
  5
1B81
330
85F
100
AcDbEntity
  8
DETAIL
100
AcDbCircle
 10
-289.4765271966713
 20
-1661.198610375719
 30
0.0
 40
3.0
  0
LINE
  5
1B82
330
85F
100
AcDbEntity
  8
DETAIL
100
AcDbLine
 10
-298.0765271966699
 20
-1237.833184537941
 30
0.0
 11
-298.0765271966699
 21
-1238.306398177497
 31
0.0
  0
LINE
  5
1B83
330
85F
100
AcDbEntity
  8
DETAIL
100
AcDbLine
 10
-298.0765271966699
 20
-1448.646913009578
 30
0.0
 11
-298.0765271966699
 21
-1455.108986260283
 31
0.0
  0
LINE
  5
1B84
330
85F
100
AcDbEntity
  8
DETAIL
100
AcDbLine
 10
-282.9765271966713
 20
-1668.19861037572
 30
0.0
 11
-285.9765271966713
 21
-1671.198610375719
 31
0.0
  0
LINE
  5
1B85
330
85F
100
AcDbEntity
  8
DETAIL
100
AcDbLine
 10
-297.3765271966728
 20
-1455.633031486509
 30
0.0
 11
-297.3765271966728
 21
-1455.108986260283
 31
0.0
  0
LINE
  5
1B86
330
85F
100
AcDbEntity
  8
DETAIL
100
AcDbLine
 10
-297.3765271966728
 20
-1455.108986260283
 30
0.0
 11
-298.1765271966684
 21
-1455.108986260283
 31
0.0
  0
LINE
  5
1B87
330
85F
100
AcDbEntity
  8
DETAIL
100
AcDbLine
 10
-298.1765271966684
 20
-1455.633031486509
 30
0.0
 11
-297.3765271966728
 21
-1455.633031486509
 31
0.0
  0
LINE
  5
1B88
330
85F
100
AcDbEntity
  8
DETAIL
100
AcDbLine
 10
-298.1765271966684
 20
-1671.198610375719
 30
0.0
 11
-297.3765271966728
 21
-1671.198610375719
 31
0.0
  0
LINE
  5
1B89
330
85F
100
AcDbEntity
  8
DETAIL
100
AcDbLine
 10
-297.3765271966728
 20
-1671.198610375719
 30
0.0
 11
-297.3765271966728
 21
-1455.633031486509
 31
0.0
  0
LINE
  5
1B8A
330
85F
100
AcDbEntity
  8
DETAIL
100
AcDbLine
 10
-298.0765271966699
 20
-1189.198610375719
 30
0.0
 11
-297.9765271966713
 21
-1189.198610375719
 31
0.0
  0
LINE
  5
1B8B
330
85F
100
AcDbEntity
  8
DETAIL
100
AcDbLine
 10
-298.0765271966699
 20
-1237.081430441313
 30
0.0
 11
-297.9765271966713
 21
-1237.081430441313
 31
0.0
  0
LINE
  5
1B8C
330
85F
100
AcDbEntity
  8
DETAIL
100
AcDbLine
 10
-298.0765271966699
 20
-1237.833184537941
 30
0.0
 11
-297.9765271966713
 21
-1237.833184537941
 31
0.0
  0
LINE
  5
1B8D
330
85F
100
AcDbEntity
  8
DETAIL
100
AcDbLine
 10
-298.0765271966699
 20
-1189.198610375719
 30
0.0
 11
-298.0765271966699
 21
-1237.081430441313
 31
0.0
  0
LINE
  5
1B8E
330
85F
100
AcDbEntity
  8
DETAIL
100
AcDbLine
 10
-298.9765271966713
 20
-1237.397886480087
 30
0.0
 11
-298.9765271966713
 21
-1189.796039839024
 31
0.0
  0
ELLIPSE
  5
1B8F
330
85F
100
AcDbEntity
  8
DETAIL
100
AcDbEllipse
 10
-298.0765271966699
 20
-1237.92715380002
 30
0.0
 11
-0.1000000000000102
 21
-0.0000000000004263
 31
0.0
210
0.0
220
0.0
230
1.0
 40
0.9396926207859664
 41
4.712388980380683
 42
6.283185307178142
  0
LINE
  5
1B90
330
85F
100
AcDbEntity
  8
DETAIL
100
AcDbLine
 10
-298.0765271966699
 20
-1237.081430441313
 30
0.0
 11
-298.0765271966699
 21
-1237.833184537941
 31
0.0
  0
ELLIPSE
  5
1B91
330
85F
100
AcDbEntity
  8
DETAIL
100
AcDbEllipse
 10
-298.0765271966699
 20
-1237.92715380002
 30
0.0
 11
0.9000000000000047
 21
0.0000000000000209
 31
0.0
210
0.0
220
0.0
230
1.0
 40
0.9396926207858824
 41
1.570796326794875
 42
2.465415198597264
  0
SPLINE
  5
1B92
330
85F
100
AcDbEntity
  8
DETAIL
100
AcDbSpline
210
0.0
220
0.0
230
1.0
 70
     8
 71
     3
 72
    11
 73
     7
 74
     0
 42
0.0000000001
 43
0.0000000001
 40
0.0
 40
0.0
 40
0.0
 40
0.0
 40
1.437607986812991
 40
1.437607986812991
 40
1.437607986812991
 40
1.570796326794666
 40
1.570796326794666
 40
1.570796326794666
 40
1.570796326794666
 10
-298.9765271966713
 20
-1189.796039839024
 30
0.0
 10
-298.9765271966713
 20
-1189.466513945288
 30
0.0
 10
-298.6235053793749
 20
-1189.163118758934
 30
0.0
 10
-298.1960426199909
 20
-1189.185047571998
 30
0.0
 10
-298.1564399912782
 20
-1189.187079184397
 30
0.0
 10
-298.1164836986678
 20
-1189.19159273522
 30
0.0
 10
-298.0765271966699
 20
-1189.198610375719
 30
0.0
  0
LINE
  5
1B93
330
85F
100
AcDbEntity
  8
DETAIL
100
AcDbLine
 10
-290.0265271966743
 20
-1228.318364294967
 30
0.0
 11
-290.0265271966743
 21
-1228.197127926937
 31
0.0
  0
ELLIPSE
  5
1B94
330
85F
100
AcDbEntity
  8
DETAIL
100
AcDbEllipse
 10
-289.4765271966713
 20
-1228.197127926937
 30
0.0
 11
-0.549999999999996
 21
0.0000000000000177
 31
0.0
210
0.0
220
0.0
230
1.0
 40
0.3420201433256687
 41
3.141592653590618
 42
6.283185307180412
  0
LINE
  5
1B95
330
85F
100
AcDbEntity
  8
DETAIL
100
AcDbLine
 10
-288.9265271966757
 20
-1228.197127926937
 30
0.0
 11
-288.9265271966757
 21
-1228.318364294967
 31
0.0
  0
ELLIPSE
  5
1B96
330
85F
100
AcDbEntity
  8
DETAIL
100
AcDbEllipse
 10
-289.4765271966713
 20
-1228.795663177757
 30
0.0
 11
1.500000000000024
 21
-0.0000000000000008
 31
0.0
210
0.0
220
0.0
230
1.0
 40
0.3420201433256705
 41
5.872206345676293
 42
7.478558025993343
  0
ELLIPSE
  5
1B97
330
85F
100
AcDbEntity
  8
DETAIL
100
AcDbEllipse
 10
-289.4765271966713
 20
-1228.795663177757
 30
0.0
 11
-1.499999999999991
 21
-0.0000000000000015
 31
0.0
210
0.0
220
0.0
230
1.0
 40
0.3420201433256722
 41
5.08781258836561
 42
6.694164268680592
  0
ELLIPSE
  5
1B98
330
85F
100
AcDbEntity
  8
DETAIL
100
AcDbEllipse
 10
-289.4765271966786
 20
-1229.547417274382
 30
0.0
 11
-1.499999999995895
 21
-0.0000000000009348
 31
0.0
210
0.0
220
0.0
230
1.0
 40
0.3420201433244792
 41
5.087812588365395
 42
5.233666485749875
  0
ELLIPSE
  5
1B99
330
85F
100
AcDbEntity
  8
DETAIL
100
AcDbEllipse
 10
-289.4765271966713
 20
-1229.547417274382
 30
0.0
 11
-1.499999999993738
 21
0.0000000000006209
 31
0.0
210
0.0
220
0.0
230
1.0
 40
0.3420201433247966
 41
4.19111147501836
 42
4.336965372403668
  0
ELLIPSE
  5
1B9A
330
85F
100
AcDbEntity
  8
DETAIL
100
AcDbEllipse
 10
-289.4765271966713
 20
-1228.948882023566
 30
0.0
 11
0.5500000000000051
 21
0.0000000000000001
 31
0.0
210
0.0
220
0.0
230
1.0
 40
0.3420201433256689
 41
0.0
 42
3.141592653589061
  0
LINE
  5
1B9B
330
85F
100
AcDbEntity
  8
DETAIL
100
AcDbLine
 10
-290.0265271966743
 20
-1228.318364294967
 30
0.0
 11
-290.0265271966743
 21
-1229.070118391595
 31
0.0
  0
LINE
  5
1B9C
330
85F
100
AcDbEntity
  8
DETAIL
100
AcDbLine
 10
-288.9265271966757
 20
-1228.318364294967
 30
0.0
 11
-288.9265271966757
 21
-1229.070118391595
 31
0.0
  0
LINE
  5
1B9D
330
85F
100
AcDbEntity
  8
DETAIL
100
AcDbLine
 10
-290.0265271966743
 20
-1192.406249245771
 30
0.0
 11
-290.0265271966743
 21
-1192.29207346907
 31
0.0
  0
LINE
  5
1B9E
330
85F
100
AcDbEntity
  8
DETAIL
100
AcDbLine
 10
-288.9265271966757
 20
-1192.29207346907
 30
0.0
 11
-288.9265271966757
 21
-1192.406249245771
 31
0.0
  0
ELLIPSE
  5
1B9F
330
85F
100
AcDbEntity
  8
DETAIL
100
AcDbEllipse
 10
-289.4765271966713
 20
-1192.883548128561
 30
0.0
 11
1.499999999999997
 21
-0.0000000000000099
 31
0.0
210
0.0
220
0.0
230
1.0
 40
0.3420201433256689
 41
5.872206345657566
 42
7.478558025993349
  0
ELLIPSE
  5
1BA0
330
85F
100
AcDbEntity
  8
DETAIL
100
AcDbEllipse
 10
-289.4765271966713
 20
-1192.883548128561
 30
0.0
 11
-1.500000000000007
 21
0.0000000000000018
 31
0.0
210
0.0
220
0.0
230
1.0
 40
0.3420201433256691
 41
5.087812588365608
 42
6.694164268699911
  0
ELLIPSE
  5
1BA1
330
85F
100
AcDbEntity
  8
DETAIL
100
AcDbEllipse
 10
-289.4765271966713
 20
-1193.63530222519
 30
0.0
 11
-1.50000000000098
 21
0.0000000000001907
 31
0.0
210
0.0
220
0.0
230
1.0
 40
0.3420201433259171
 41
5.087812588365874
 42
5.233666485766036
  0
ELLIPSE
  5
1BA2
330
85F
100
AcDbEntity
  8
DETAIL
100
AcDbEllipse
 10
-289.4765271966713
 20
-1193.63530222519
 30
0.0
 11
-1.500000000000341
 21
-0.0000000000000733
 31
0.0
210
0.0
220
0.0
230
1.0
 40
0.342020143325708
 41
4.191111475002099
 42
4.336965372403217
  0
ELLIPSE
  5
1BA3
330
85F
100
AcDbEntity
  8
DETAIL
100
AcDbEllipse
 10
-289.4765271966713
 20
-1193.036766974371
 30
0.0
 11
0.5499999999999983
 21
0.0000000000000034
 31
0.0
210
0.0
220
0.0
230
1.0
 40
0.3420201433256679
 41
0.0
 42
3.141592653589645
  0
LINE
  5
1BA4
330
85F
100
AcDbEntity
  8
DETAIL
100
AcDbLine
 10
-290.0265271966743
 20
-1192.406249245771
 30
0.0
 11
-290.0265271966743
 21
-1193.1580033424
 31
0.0
  0
LINE
  5
1BA5
330
85F
100
AcDbEntity
  8
DETAIL
100
AcDbLine
 10
-288.9265271966757
 20
-1192.406249245771
 30
0.0
 11
-288.9265271966757
 21
-1193.1580033424
 31
0.0
  0
LINE
  5
1BA6
330
85F
100
AcDbEntity
  8
DETAIL
100
AcDbLine
 10
-298.0765271966699
 20
-1448.27133575935
 30
0.0
 11
-295.4225267674297
 21
-1448.27133575935
 31
0.0
  0
LINE
  5
1BA7
330
85F
100
AcDbEntity
  8
DETAIL
100
AcDbLine
 10
-298.0765271966699
 20
-1448.646913009578
 30
0.0
 11
-295.345169417447
 21
-1448.646913009578
 31
0.0
  0
LINE
  5
1BA8
330
85F
100
AcDbEntity
  8
DETAIL
100
AcDbLine
 10
-298.0765271966699
 20
-1238.306398177497
 30
0.0
 11
-297.9765271966713
 21
-1238.306398177497
 31
0.0
  0
LINE
  5
1BA9
330
85F
100
AcDbEntity
  8
DETAIL
100
AcDbLine
 10
-298.0765271966699
 20
-1448.27133575935
 30
0.0
 11
-298.0765271966699
 21
-1448.646913009578
 31
0.0
  0
LINE
  5
1BAA
330
85F
100
AcDbEntity
  8
DETAIL
100
AcDbLine
 10
-298.0765271966699
 20
-1238.306398177497
 30
0.0
 11
-298.0765271966699
 21
-1448.27133575935
 31
0.0
  0
LINE
  5
1BAB
330
85F
100
AcDbEntity
  8
DETAIL
100
AcDbLine
 10
-298.1765271966684
 20
-1448.897081485452
 30
0.0
 11
-298.649484991805
 21
-1448.897081485452
 31
0.0
  0
LINE
  5
1BAC
330
85F
100
AcDbEntity
  8
DETAIL
100
AcDbLine
 10
-298.649484991805
 20
-1448.897081485452
 30
0.0
 11
-298.9765271966713
 21
-1448.897081485452
 31
0.0
  0
LINE
  5
1BAD
330
85F
100
AcDbEntity
  8
DETAIL
100
AcDbLine
 10
-298.1765271966684
 20
-1237.397886480087
 30
0.0
 11
-298.1765271966684
 21
-1238.309014452848
 31
0.0
  0
SPLINE
  5
1BAE
330
85F
100
AcDbEntity
  8
DETAIL
100
AcDbSpline
210
0.0
220
0.0
230
1.0
 70
     8
 71
     3
 72
     8
 73
     4
 74
     0
 42
0.0000000001
 43
0.0000000001
 40
0.0
 40
0.0
 40
0.0
 40
0.0
 40
1.570796326794014
 40
1.570796326794014
 40
1.570796326794014
 40
1.570796326794014
 10
-298.1765271966684
 20
-1448.897081485452
 30
0.0
 10
-298.1765271966684
 20
-1448.804759572042
 30
0.0
 10
-298.1288870742316
 20
-1448.714653449443
 30
0.0
 10
-298.0765271966699
 20
-1448.646913009578
 30
0.0
  0
ELLIPSE
  5
1BAF
330
85F
100
AcDbEntity
  8
DETAIL
100
AcDbEllipse
 10
-298.0765271966699
 20
-1238.728922584004
 30
0.0
 11
-0.899999999999992
 21
-0.0000000000000623
 31
0.0
210
0.0
220
0.0
230
1.0
 40
0.4694715627858855
 41
4.712388980384261
 42
6.283185307179491
  0
SPLINE
  5
1BB0
330
85F
100
AcDbEntity
  8
DETAIL
100
AcDbSpline
210
0.0
220
0.0
230
1.0
 70
     8
 71
     3
 72
    11
 73
     7
 74
     0
 42
0.0000000001
 43
0.0000000001
 40
0.0
 40
0.0
 40
0.0
 40
0.0
 40
1.437607986813546
 40
1.437607986813546
 40
1.437607986813546
 40
1.570796326794014
 40
1.570796326794014
 40
1.570796326794014
 40
1.570796326794014
 10
-298.9765271966713
 20
-1448.897081485452
 30
0.0
 10
-298.9765271966713
 20
-1448.632609959411
 30
0.0
 10
-298.6235053793749
 20
-1448.381193366184
 30
0.0
 10
-298.1960426199909
 20
-1448.292309034084
 30
0.0
 10
-298.1564399912782
 20
-1448.284074274154
 30
0.0
 10
-298.1164836986678
 20
-1448.277079493647
 30
0.0
 10
-298.0765271966699
 20
-1448.27133575935
 30
0.0
  0
LINE
  5
1BB1
330
85F
100
AcDbEntity
  8
DETAIL
100
AcDbLine
 10
-298.9765271966713
 20
-1448.897081485452
 30
0.0
 11
-298.9765271966713
 21
-1238.728922584004
 31
0.0
  0
LINE
  5
1BB2
330
85F
100
AcDbEntity
  8
DETAIL
100
AcDbLine
 10
-298.9765271966713
 20
-1237.397886480087
 30
0.0
 11
-298.1765271966684
 21
-1237.397886480087
 31
0.0
  0
LINE
  5
1BB3
330
85F
100
AcDbEntity
  8
DETAIL
100
AcDbLine
 10
-298.9765271966713
 20
-1238.728922584004
 30
0.0
 11
-298.9765271966713
 21
-1237.397886480087
 31
0.0
  0
LINE
  5
1BB4
330
85F
100
AcDbEntity
  8
DETAIL
100
AcDbLine
 10
-290.0265271966743
 20
-1279.885868405988
 30
0.0
 11
-290.0265271966743
 21
-1279.572888713395
 31
0.0
  0
ELLIPSE
  5
1BB5
330
85F
100
AcDbEntity
  8
DETAIL
100
AcDbEllipse
 10
-289.4765271966713
 20
-1279.572888713395
 30
0.0
 11
-0.5500000000000006
 21
0.0000000000000177
 31
0.0
210
0.0
220
0.0
230
1.0
 40
0.8829475928589243
 41
3.141592653589829
 42
6.283185307179622
  0
LINE
  5
1BB6
330
85F
100
AcDbEntity
  8
DETAIL
100
AcDbLine
 10
-288.9265271966757
 20
-1279.572888713395
 30
0.0
 11
-288.9265271966757
 21
-1279.885868405988
 31
0.0
  0
ELLIPSE
  5
1BB7
330
85F
100
AcDbEntity
  8
DETAIL
100
AcDbEllipse
 10
-289.4765271966713
 20
-1281.118047000898
 30
0.0
 11
1.499999999999988
 21
0.0000000000000034
 31
0.0
210
0.0
220
0.0
230
1.0
 40
0.88294759285893
 41
1.946219934775792
 42
7.478558025993338
  0
LINE
  5
1BB8
330
85F
100
AcDbEntity
  8
DETAIL
100
AcDbLine
 10
-290.0265271966743
 20
-1279.885868405988
 30
0.0
 11
-290.0265271966743
 21
-1280.261445656217
 31
0.0
  0
ELLIPSE
  5
1BB9
330
85F
100
AcDbEntity
  8
DETAIL
100
AcDbEllipse
 10
-289.4765271966713
 20
-1281.493624251127
 30
0.0
 11
-1.499999999999937
 21
-0.0000000000002998
 31
0.0
210
0.0
220
0.0
230
1.0
 40
0.8829475928589021
 41
5.087812588365417
 42
6.140916682800618
  0
ELLIPSE
  5
1BBA
330
85F
100
AcDbEntity
  8
DETAIL
100
AcDbEllipse
 10
-289.4765271966713
 20
-1281.493624251127
 30
0.0
 11
1.500000000000042
 21
0.0000000000000879
 31
0.0
210
0.0
220
0.0
230
1.0
 40
0.8829475928589468
 41
0.1422686243786355
 42
1.195372718813718
  0
LINE
  5
1BBB
330
85F
100
AcDbEntity
  8
DETAIL
100
AcDbLine
 10
-288.9265271966757
 20
-1279.885868405988
 30
0.0
 11
-288.9265271966757
 21
-1280.261445656217
 31
0.0
  0
ELLIPSE
  5
1BBC
330
85F
100
AcDbEntity
  8
DETAIL
100
AcDbEllipse
 10
-289.4765271966713
 20
-1279.948465963623
 30
0.0
 11
0.5500000000000006
 21
-0.0000000000000177
 31
0.0
210
0.0
220
0.0
230
1.0
 40
0.8829475928589312
 41
0.0000000000000364
 42
3.141592653589829
  0
LINE
  5
1BBD
330
85F
100
AcDbEntity
  8
DETAIL
100
AcDbLine
 10
-290.0265271966743
 20
-1421.157483263417
 30
0.0
 11
-290.0265271966743
 21
-1420.844503570824
 31
0.0
  0
ELLIPSE
  5
1BBE
330
85F
100
AcDbEntity
  8
DETAIL
100
AcDbEllipse
 10
-289.4765271966713
 20
-1420.844503570824
 30
0.0
 11
-0.5500000000000006
 21
-0.0000000000000001
 31
0.0
210
0.0
220
0.0
230
1.0
 40
0.8829475928589243
 41
3.141592653589832
 42
6.283185307179625
  0
LINE
  5
1BBF
330
85F
100
AcDbEntity
  8
DETAIL
100
AcDbLine
 10
-288.9265271966757
 20
-1420.844503570824
 30
0.0
 11
-288.9265271966757
 21
-1421.157483263417
 31
0.0
  0
ELLIPSE
  5
1BC0
330
85F
100
AcDbEntity
  8
DETAIL
100
AcDbEllipse
 10
-289.4765271966713
 20
-1422.389661858327
 30
0.0
 11
1.499999999999989
 21
0.0000000000000001
 31
0.0
210
0.0
220
0.0
230
1.0
 40
0.8829475928589301
 41
1.946219934775793
 42
7.47855802599334
  0
LINE
  5
1BC1
330
85F
100
AcDbEntity
  8
DETAIL
100
AcDbLine
 10
-290.0265271966743
 20
-1421.157483263417
 30
0.0
 11
-290.0265271966743
 21
-1421.533060513645
 31
0.0
  0
ELLIPSE
  5
1BC2
330
85F
100
AcDbEntity
  8
DETAIL
100
AcDbEllipse
 10
-289.4765271966713
 20
-1422.765239108556
 30
0.0
 11
-1.499999999999997
 21
0.0000000000001691
 31
0.0
210
0.0
220
0.0
230
1.0
 40
0.8829475928589635
 41
5.087812588365923
 42
6.140916682801081
  0
ELLIPSE
  5
1BC3
330
85F
100
AcDbEntity
  8
DETAIL
100
AcDbEllipse
 10
-289.4765271966713
 20
-1422.765239108556
 30
0.0
 11
1.4999999999999
 21
0.000000000000246
 31
0.0
210
0.0
220
0.0
230
1.0
 40
0.8829475928589557
 41
0.1422686243785484
 42
1.195372718813838
  0
LINE
  5
1BC4
330
85F
100
AcDbEntity
  8
DETAIL
100
AcDbLine
 10
-288.9265271966757
 20
-1421.157483263417
 30
0.0
 11
-288.9265271966757
 21
-1421.533060513645
 31
0.0
  0
ELLIPSE
  5
1BC5
330
85F
100
AcDbEntity
  8
DETAIL
100
AcDbEllipse
 10
-289.4765271966713
 20
-1421.220080821052
 30
0.0
 11
0.5500000000000105
 21
0.0000000000000356
 31
0.0
210
0.0
220
0.0
230
1.0
 40
0.8829475928589312
 41
0.0
 42
3.141592653589759
  0
LINE
  5
1BC6
330
85F
100
AcDbEntity
  8
DETAIL
100
AcDbLine
 10
-298.1765271966684
 20
-1455.633031486509
 30
0.0
 11
-298.1765271966684
 21
-1448.897081485452
 31
0.0
  0
LINE
  5
1BC7
330
85F
100
AcDbEntity
  8
DETAIL
100
AcDbLine
 10
-298.9765271966713
 20
-1448.897081485452
 30
0.0
 11
-298.9765271966713
 21
-1671.198610375719
 31
0.0
  0
LINE
  5
1BC8
330
85F
100
AcDbEntity
  8
DETAIL
100
AcDbLine
 10
-298.1765271966684
 20
-1671.198610375719
 30
0.0
 11
-298.9765271966713
 21
-1671.198610375719
 31
0.0
  0
LINE
  5
1BC9
330
85F
100
AcDbEntity
  8
DETAIL
100
AcDbLine
 10
177.2234728033257
 20
-1671.19861037572
 30
0.0
 11
176.4234728033301
 21
-1671.198610375719
 31
0.0
  0
LINE
  5
1BCA
330
85F
100
AcDbEntity
  8
DETAIL
100
AcDbLine
 10
176.4234728033301
 20
-1455.108986260284
 30
0.0
 11
176.4234728033301
 21
-1455.633031486509
 31
0.0
  0
LINE
  5
1BCB
330
85F
100
AcDbEntity
  8
DETAIL
100
AcDbLine
 10
177.2234728033257
 20
-1455.633031486509
 30
0.0
 11
176.4234728033301
 21
-1455.633031486509
 31
0.0
  0
LINE
  5
1BCC
330
85F
100
AcDbEntity
  8
DETAIL
100
AcDbLine
 10
177.2234728033257
 20
-1455.108986260284
 30
0.0
 11
176.4234728033301
 21
-1455.108986260284
 31
0.0
  0
LINE
  5
1BCD
330
85F
100
AcDbEntity
  8
DETAIL
100
AcDbLine
 10
176.4234728033301
 20
-1455.633031486509
 30
0.0
 11
176.4234728033301
 21
-1671.198610375719
 31
0.0
  0
LINE
  5
1BCE
330
85F
100
AcDbEntity
  8
DETAIL
100
AcDbLine
 10
167.9734728033257
 20
-1421.157483263418
 30
0.0
 11
167.9734728033257
 21
-1420.844503570825
 31
0.0
  0
LINE
  5
1BCF
330
85F
100
AcDbEntity
  8
DETAIL
100
AcDbLine
 10
167.9734728033257
 20
-1421.157483263418
 30
0.0
 11
167.9734728033257
 21
-1421.533060513647
 31
0.0
  0
ELLIPSE
  5
1BD0
330
85F
100
AcDbEntity
  8
DETAIL
100
AcDbEllipse
 10
168.5234728033286
 20
-1422.765239108557
 30
0.0
 11
-1.500000000000062
 21
0.000000000000096
 31
0.0
210
0.0
220
0.0
230
1.0
 40
0.8829475928589522
 41
5.087812588365874
 42
6.140916682801024
  0
ELLIPSE
  5
1BD1
330
85F
100
AcDbEntity
  8
DETAIL
100
AcDbEllipse
 10
168.5234728033286
 20
-1422.765239108557
 30
0.0
 11
1.499999999999958
 21
0.000000000000152
 31
0.0
210
0.0
220
0.0
230
1.0
 40
0.8829475928589486
 41
0.1422686243786867
 42
1.195372718813678
  0
ELLIPSE
  5
1BD2
330
85F
100
AcDbEntity
  8
DETAIL
100
AcDbEllipse
 10
168.5234728033286
 20
-1422.389661858328
 30
0.0
 11
1.499999999999992
 21
-0.0000000000000886
 31
0.0
210
0.0
220
0.0
230
1.0
 40
0.8829475928589305
 41
1.946219934775848
 42
7.478558025993394
  0
LINE
  5
1BD3
330
85F
100
AcDbEntity
  8
DETAIL
100
AcDbLine
 10
169.0734728033316
 20
-1421.157483263418
 30
0.0
 11
169.0734728033316
 21
-1421.533060513647
 31
0.0
  0
LINE
  5
1BD4
330
85F
100
AcDbEntity
  8
DETAIL
100
AcDbLine
 10
169.0734728033316
 20
-1420.844503570825
 30
0.0
 11
169.0734728033316
 21
-1421.157483263418
 31
0.0
  0
ELLIPSE
  5
1BD5
330
85F
100
AcDbEntity
  8
DETAIL
100
AcDbEllipse
 10
168.5234728033286
 20
-1421.220080821053
 30
0.0
 11
0.5500000000000095
 21
0.0000000000000357
 31
0.0
210
0.0
220
0.0
230
1.0
 40
0.8829475928589177
 41
0.0
 42
3.14159265358972
  0
ELLIPSE
  5
1BD6
330
85F
100
AcDbEntity
  8
DETAIL
100
AcDbEllipse
 10
168.5234728033286
 20
-1420.844503570825
 30
0.0
 11
-0.5499999999999905
 21
-0.0000000000000002
 31
0.0
210
0.0
220
0.0
230
1.0
 40
0.8829475928589319
 41
3.141592653589832
 42
6.283185307179625
  0
LINE
  5
1BD7
330
85F
100
AcDbEntity
  8
DETAIL
100
AcDbLine
 10
167.9734728033257
 20
-1279.885868405989
 30
0.0
 11
167.9734728033257
 21
-1279.572888713396
 31
0.0
  0
LINE
  5
1BD8
330
85F
100
AcDbEntity
  8
DETAIL
100
AcDbLine
 10
167.9734728033257
 20
-1279.885868405989
 30
0.0
 11
167.9734728033257
 21
-1280.261445656218
 31
0.0
  0
ELLIPSE
  5
1BD9
330
85F
100
AcDbEntity
  8
DETAIL
100
AcDbEllipse
 10
168.5234728033286
 20
-1281.493624251128
 30
0.0
 11
-1.499999999999967
 21
-0.0000000000001785
 31
0.0
210
0.0
220
0.0
230
1.0
 40
0.882947592858901
 41
5.08781258836549
 42
6.14091668280071
  0
ELLIPSE
  5
1BDA
330
85F
100
AcDbEntity
  8
DETAIL
100
AcDbEllipse
 10
168.5234728033286
 20
-1281.493624251128
 30
0.0
 11
1.500000000000022
 21
0.00000000000004
 31
0.0
210
0.0
220
0.0
230
1.0
 40
0.8829475928589435
 41
0.1422686243786053
 42
1.195372718813749
  0
ELLIPSE
  5
1BDB
330
85F
100
AcDbEntity
  8
DETAIL
100
AcDbEllipse
 10
168.5234728033286
 20
-1281.118047000899
 30
0.0
 11
1.500000000000007
 21
-0.0000000000000179
 31
0.0
210
0.0
220
0.0
230
1.0
 40
0.8829475928589317
 41
1.946219934775806
 42
7.478558025993351
  0
LINE
  5
1BDC
330
85F
100
AcDbEntity
  8
DETAIL
100
AcDbLine
 10
169.0734728033243
 20
-1279.885868405989
 30
0.0
 11
169.0734728033243
 21
-1280.261445656218
 31
0.0
  0
LINE
  5
1BDD
330
85F
100
AcDbEntity
  8
DETAIL
100
AcDbLine
 10
169.0734728033243
 20
-1279.572888713396
 30
0.0
 11
169.0734728033243
 21
-1279.885868405989
 31
0.0
  0
ELLIPSE
  5
1BDE
330
85F
100
AcDbEntity
  8
DETAIL
100
AcDbEllipse
 10
168.5234728033286
 20
-1279.948465963625
 30
0.0
 11
0.5500000000000006
 21
-0.0000000000000176
 31
0.0
210
0.0
220
0.0
230
1.0
 40
0.8829475928589321
 41
0.0000000000000367
 42
3.141592653589829
  0
ELLIPSE
  5
1BDF
330
85F
100
AcDbEntity
  8
DETAIL
100
AcDbEllipse
 10
168.5234728033286
 20
-1279.572888713396
 30
0.0
 11
-0.5499999999999994
 21
0.0000000000000176
 31
0.0
210
0.0
220
0.0
230
1.0
 40
0.8829475928589319
 41
3.14159265358979
 42
6.283185307179584
  0
LINE
  5
1BE0
330
85F
100
AcDbEntity
  8
DETAIL
100
AcDbLine
 10
167.9734728033185
 20
-1228.318364294964
 30
0.0
 11
167.9734728033185
 21
-1228.197127926934
 31
0.0
  0
LINE
  5
1BE1
330
85F
100
AcDbEntity
  8
DETAIL
100
AcDbLine
 10
167.9734728033185
 20
-1228.318364294964
 30
0.0
 11
167.9734728033185
 21
-1229.070118391592
 31
0.0
  0
ELLIPSE
  5
1BE2
330
85F
100
AcDbEntity
  8
DETAIL
100
AcDbEllipse
 10
168.5234728033141
 20
-1229.547417274382
 30
0.0
 11
-1.499999999999178
 21
-0.0000000000002312
 31
0.0
210
0.0
220
0.0
230
1.0
 40
0.3420201433254019
 41
5.087812588365459
 42
5.233666485754315
  0
ELLIPSE
  5
1BE3
330
85F
100
AcDbEntity
  8
DETAIL
100
AcDbEllipse
 10
168.5234728033141
 20
-1229.547417274384
 30
0.0
 11
-1.500000000000495
 21
-0.0000000000005833
 31
0.0
210
0.0
220
0.0
230
1.0
 40
0.3420201433263108
 41
4.191111475009392
 42
4.336965372403144
  0
ELLIPSE
  5
1BE4
330
85F
100
AcDbEntity
  8
DETAIL
100
AcDbEllipse
 10
168.5234728033141
 20
-1228.795663177755
 30
0.0
 11
1.500000000000003
 21
-0.0000000000000216
 31
0.0
210
0.0
220
0.0
230
1.0
 40
0.3420201433256687
 41
5.872206345663134
 42
7.478558025993355
  0
ELLIPSE
  5
1BE5
330
85F
100
AcDbEntity
  8
DETAIL
100
AcDbEllipse
 10
168.5234728033141
 20
-1228.795663177755
 30
0.0
 11
-1.499999999999991
 21
0.000000000000016
 31
0.0
210
0.0
220
0.0
230
1.0
 40
0.3420201433256754
 41
5.087812588365558
 42
6.694164268683472
  0
LINE
  5
1BE6
330
85F
100
AcDbEntity
  8
DETAIL
100
AcDbLine
 10
169.073472803317
 20
-1228.318364294964
 30
0.0
 11
169.073472803317
 21
-1229.070118391592
 31
0.0
  0
LINE
  5
1BE7
330
85F
100
AcDbEntity
  8
DETAIL
100
AcDbLine
 10
169.073472803317
 20
-1228.197127926934
 30
0.0
 11
169.073472803317
 21
-1228.318364294964
 31
0.0
  0
ELLIPSE
  5
1BE8
330
85F
100
AcDbEntity
  8
DETAIL
100
AcDbEllipse
 10
168.5234728033214
 20
-1228.948882023563
 30
0.0
 11
0.5500000000000006
 21
-0.0000000000000176
 31
0.0
210
0.0
220
0.0
230
1.0
 40
0.3420201433256715
 41
0.0000000000010863
 42
3.141592653590879
  0
ELLIPSE
  5
1BE9
330
85F
100
AcDbEntity
  8
DETAIL
100
AcDbEllipse
 10
168.5234728033214
 20
-1228.197127926934
 30
0.0
 11
-0.549999999999995
 21
0.0000000000000087
 31
0.0
210
0.0
220
0.0
230
1.0
 40
0.3420201433256663
 41
3.141592653590572
 42
6.283185307180366
  0
LINE
  5
1BEA
330
85F
100
AcDbEntity
  8
DETAIL
100
AcDbLine
 10
167.9734728033257
 20
-1192.406249245768
 30
0.0
 11
167.9734728033257
 21
-1192.29207346907
 31
0.0
  0
LINE
  5
1BEB
330
85F
100
AcDbEntity
  8
DETAIL
100
AcDbLine
 10
167.9734728033257
 20
-1192.406249245768
 30
0.0
 11
167.9734728033257
 21
-1193.158003342397
 31
0.0
  0
ELLIPSE
  5
1BEC
330
85F
100
AcDbEntity
  8
DETAIL
100
AcDbEllipse
 10
168.5234728033286
 20
-1193.635302225187
 30
0.0
 11
-1.49999999999942
 21
-0.0000000000001548
 31
0.0
210
0.0
220
0.0
230
1.0
 40
0.3420201433254737
 41
5.087812588365721
 42
5.23366648577311
  0
ELLIPSE
  5
1BED
330
85F
100
AcDbEntity
  8
DETAIL
100
AcDbEllipse
 10
168.5234728033286
 20
-1193.635302225188
 30
0.0
 11
-1.500000000000351
 21
-0.0000000000000386
 31
0.0
210
0.0
220
0.0
230
1.0
 40
0.3420201433256395
 41
4.191111474995553
 42
4.336965372403238
  0
ELLIPSE
  5
1BEE
330
85F
100
AcDbEntity
  8
DETAIL
100
AcDbEllipse
 10
168.5234728033286
 20
-1192.883548128559
 30
0.0
 11
1.500000000000005
 21
-0.0000000000000018
 31
0.0
210
0.0
220
0.0
230
1.0
 40
0.3420201433256723
 41
5.872206345650073
 42
7.478558025993342
  0
ELLIPSE
  5
1BEF
330
85F
100
AcDbEntity
  8
DETAIL
100
AcDbEllipse
 10
168.5234728033286
 20
-1192.883548128559
 30
0.0
 11
-1.500000000000001
 21
0.0000000000000052
 31
0.0
210
0.0
220
0.0
230
1.0
 40
0.3420201433256724
 41
5.087812588365549
 42
6.694164268708381
  0
LINE
  5
1BF0
330
85F
100
AcDbEntity
  8
DETAIL
100
AcDbLine
 10
169.0734728033243
 20
-1192.406249245768
 30
0.0
 11
169.0734728033243
 21
-1193.158003342398
 31
0.0
  0
LINE
  5
1BF1
330
85F
100
AcDbEntity
  8
DETAIL
100
AcDbLine
 10
169.0734728033243
 20
-1192.29207346907
 30
0.0
 11
169.0734728033243
 21
-1192.406249245768
 31
0.0
  0
ELLIPSE
  5
1BF2
330
85F
100
AcDbEntity
  8
DETAIL
100
AcDbEllipse
 10
168.5234728033286
 20
-1193.036766974367
 30
0.0
 11
0.5500000000000006
 21
-0.0000000000000143
 31
0.0
210
0.0
220
0.0
230
1.0
 40
0.3420201433256675
 41
0.0000000000010686
 42
3.141592653590861
  0
LINE
  5
1BF3
330
85F
100
AcDbEntity
  8
DETAIL
100
AcDbLine
 10
177.0234728033287
 20
-1237.83318453794
 30
0.0
 11
177.1234728033272
 21
-1237.833184537939
 31
0.0
  0
LINE
  5
1BF4
330
85F
100
AcDbEntity
  8
DETAIL
100
AcDbLine
 10
177.1234728033272
 20
-1237.08143044131
 30
0.0
 11
177.0234728033287
 21
-1237.08143044131
 31
0.0
  0
LINE
  5
1BF5
330
85F
100
AcDbEntity
  8
DETAIL
100
AcDbLine
 10
177.0234728033287
 20
-1189.198610375716
 30
0.0
 11
177.1234728033272
 21
-1189.198610375716
 31
0.0
  0
LINE
  5
1BF6
330
85F
100
AcDbEntity
  8
DETAIL
100
AcDbLine
 10
177.1234728033345
 20
-1448.646913009573
 30
0.0
 11
174.392115024097
 21
-1448.646913009573
 31
0.0
  0
LINE
  5
1BF7
330
85F
100
AcDbEntity
  8
DETAIL
100
AcDbLine
 10
177.1234728033345
 20
-1448.271335759345
 30
0.0
 11
174.4694723740871
 21
-1448.271335759345
 31
0.0
  0
LINE
  5
1BF8
330
85F
100
AcDbEntity
  8
DETAIL
100
AcDbLine
 10
177.0234728033287
 20
-1238.306398177498
 30
0.0
 11
177.1234728033272
 21
-1238.306398177491
 31
0.0
  0
LINE
  5
1BF9
330
85F
100
AcDbEntity
  8
DETAIL
100
AcDbLine
 10
177.1234728033345
 20
-1448.646913009573
 30
0.0
 11
177.1234728033345
 21
-1448.271335759345
 31
0.0
  0
LINE
  5
1BFA
330
85F
100
AcDbEntity
  8
DETAIL
100
AcDbLine
 10
178.0234728033287
 20
-1448.897081485452
 30
0.0
 11
177.6964305984842
 21
-1448.897081485452
 31
0.0
  0
LINE
  5
1BFB
330
85F
100
AcDbEntity
  8
DETAIL
100
AcDbLine
 10
177.6964305984842
 20
-1448.897081485452
 30
0.0
 11
177.2234728033257
 21
-1448.897081485452
 31
0.0
  0
LINE
  5
1BFC
330
85F
100
AcDbEntity
  8
DETAIL
100
AcDbLine
 10
177.2234728033257
 20
-1238.309014452842
 30
0.0
 11
177.2234728033257
 21
-1237.397886480087
 31
0.0
  0
LINE
  5
1BFD
330
85F
100
AcDbEntity
  8
DETAIL
100
AcDbLine
 10
177.1234728033345
 20
-1448.271335759345
 30
0.0
 11
177.1234728033272
 21
-1238.306398177491
 31
0.0
  0
SPLINE
  5
1BFE
330
85F
100
AcDbEntity
  8
DETAIL
100
AcDbSpline
210
0.0
220
0.0
230
1.0
 70
     8
 71
     3
 72
    11
 73
     7
 74
     0
 42
0.0000000001
 43
0.0000000001
 40
0.0
 40
0.0
 40
0.0
 40
0.0
 40
1.437607986812543
 40
1.437607986812543
 40
1.437607986812543
 40
1.570796326781739
 40
1.570796326781739
 40
1.570796326781739
 40
1.570796326781739
 10
178.0234728033287
 20
-1448.897081485452
 30
0.0
 10
178.0234728033287
 20
-1448.632609959408
 30
0.0
 10
177.6704509860323
 20
-1448.38119336618
 30
0.0
 10
177.2429882266409
 20
-1448.292309034077
 30
0.0
 10
177.2033855979356
 20
-1448.284074274149
 30
0.0
 10
177.1634293053251
 20
-1448.277079493641
 30
0.0
 10
177.1234728033345
 20
-1448.271335759345
 30
0.0
  0
LINE
  5
1BFF
330
85F
100
AcDbEntity
  8
DETAIL
100
AcDbLine
 10
178.0234728033287
 20
-1238.728922584005
 30
0.0
 11
178.0234728033287
 21
-1448.897081485452
 31
0.0
  0
ELLIPSE
  5
1C00
330
85F
100
AcDbEntity
  8
DETAIL
100
AcDbEllipse
 10
177.1234728033272
 20
-1238.728922583998
 30
0.0
 11
0.9000000000000749
 21
0.0000000000000066
 31
0.0
210
0.0
220
0.0
230
1.0
 40
0.4694715627858555
 41
0.0
 42
1.570796326794893
  0
SPLINE
  5
1C01
330
85F
100
AcDbEntity
  8
DETAIL
100
AcDbSpline
210
0.0
220
0.0
230
1.0
 70
     8
 71
     3
 72
     8
 73
     4
 74
     0
 42
0.0000000001
 43
0.0000000001
 40
0.0
 40
0.0
 40
0.0
 40
0.0
 40
1.570796326781739
 40
1.570796326781739
 40
1.570796326781739
 40
1.570796326781739
 10
177.2234728033257
 20
-1448.897081485454
 30
0.0
 10
177.2234728033257
 20
-1448.804759572041
 30
0.0
 10
177.1758326808889
 20
-1448.714653449441
 30
0.0
 10
177.1234728033272
 20
-1448.646913009573
 30
0.0
  0
LINE
  5
1C02
330
85F
100
AcDbEntity
  8
DETAIL
100
AcDbLine
 10
178.0234728033287
 20
-1237.397886480087
 30
0.0
 11
178.0234728033287
 21
-1238.728922584005
 31
0.0
  0
LINE
  5
1C03
330
85F
100
AcDbEntity
  8
DETAIL
100
AcDbLine
 10
177.2234728033257
 20
-1237.397886480087
 30
0.0
 11
178.0234728033287
 21
-1237.397886480087
 31
0.0
  0
LINE
  5
1C04
330
85F
100
AcDbEntity
  8
DETAIL
100
AcDbLine
 10
177.1234728033272
 20
-1237.08143044131
 30
0.0
 11
177.1234728033272
 21
-1189.198610375716
 31
0.0
  0
LINE
  5
1C05
330
85F
100
AcDbEntity
  8
DETAIL
100
AcDbLine
 10
178.0234728033287
 20
-1189.796039839024
 30
0.0
 11
178.0234728033287
 21
-1237.397886480087
 31
0.0
  0
ELLIPSE
  5
1C06
330
85F
100
AcDbEntity
  8
DETAIL
100
AcDbEllipse
 10
177.1234728033272
 20
-1237.927153800017
 30
0.0
 11
-0.9000000000000929
 21
-0.0000000000000873
 31
0.0
210
0.0
220
0.0
230
1.0
 40
0.939692620785909
 41
3.817770108578409
 42
4.712388980384598
  0
SPLINE
  5
1C07
330
85F
100
AcDbEntity
  8
DETAIL
100
AcDbSpline
210
0.0
220
0.0
230
1.0
 70
     8
 71
     3
 72
    11
 73
     7
 74
     0
 42
0.0000000001
 43
0.0000000001
 40
0.0
 40
0.0
 40
0.0
 40
0.0
 40
1.437607986813015
 40
1.437607986813015
 40
1.437607986813015
 40
1.570796326800899
 40
1.570796326800899
 40
1.570796326800899
 40
1.570796326800899
 10
177.1234728033272
 20
-1189.198610375716
 30
0.0
 10
177.5547551993699
 20
-1189.122863384415
 30
0.0
 10
177.9582298774443
 20
-1189.378848389803
 30
0.0
 10
178.01550198648
 20
-1189.704784999159
 30
0.0
 10
178.0208080067572
 20
-1189.734981656621
 30
0.0
 10
178.0234728033287
 20
-1189.765510649447
 30
0.0
 10
178.0234728033287
 20
-1189.796039839027
 30
0.0
  0
LINE
  5
1C08
330
85F
100
AcDbEntity
  8
DETAIL
100
AcDbLine
 10
177.1234728033272
 20
-1237.833184537939
 30
0.0
 11
177.1234728033272
 21
-1237.08143044131
 31
0.0
  0
ELLIPSE
  5
1C09
330
85F
100
AcDbEntity
  8
DETAIL
100
AcDbEllipse
 10
177.1234728033272
 20
-1237.927153800017
 30
0.0
 11
0.1000000000001199
 21
-0.0000000000000112
 31
0.0
210
0.0
220
0.0
230
1.0
 40
0.9396926207858868
 41
0.0
 42
1.570796326795002
  0
LINE
  5
1C0A
330
85F
100
AcDbEntity
  8
DETAIL
100
AcDbLine
 10
162.0234728033286
 20
-1448.972404771036
 30
0.0
 11
162.0234728033286
 21
-1671.19861037572
 31
0.0
  0
LINE
  5
1C0B
330
85F
100
AcDbEntity
  8
DETAIL
100
AcDbLine
 10
162.0234728033286
 20
-1671.19861037572
 30
0.0
 11
176.4234728033301
 21
-1671.19861037572
 31
0.0
  0
LINE
  5
1C0C
330
85F
100
AcDbEntity
  8
DETAIL
100
AcDbLine
 10
177.1234728033272
 20
-1455.108986260283
 30
0.0
 11
177.1234728033272
 21
-1448.646913009573
 31
0.0
  0
LINE
  5
1C0D
330
85F
100
AcDbEntity
  8
DETAIL
100
AcDbLine
 10
177.1234728033272
 20
-1238.306398177491
 30
0.0
 11
177.1234728033272
 21
-1237.833184537939
 31
0.0
  0
CIRCLE
  5
1C0E
330
85F
100
AcDbEntity
  8
DETAIL
100
AcDbCircle
 10
168.5234728033286
 20
-1661.19861037572
 30
0.0
 40
3.000000000000001
  0
LINE
  5
1C0F
330
85F
100
AcDbEntity
  8
DETAIL
100
AcDbLine
 10
178.0234728033287
 20
-1671.19861037572
 30
0.0
 11
177.2234728033257
 21
-1671.19861037572
 31
0.0
  0
LINE
  5
1C10
330
85F
100
AcDbEntity
  8
DETAIL
100
AcDbLine
 10
178.0234728033287
 20
-1671.19861037572
 30
0.0
 11
178.0234728033287
 21
-1448.897081485452
 31
0.0
  0
LINE
  5
1C11
330
85F
100
AcDbEntity
  8
DETAIL
100
AcDbLine
 10
177.2234728033257
 20
-1448.897081485452
 30
0.0
 11
177.2234728033257
 21
-1455.633031486509
 31
0.0
  0
LINE
  5
1C12
330
85F
100
AcDbEntity
  8
DETAIL
100
AcDbLine
 10
-286.9765271966713
 20
-1226.19986402582
 30
0.0
 11
-286.9765271966713
 21
-1228.286535936599
 31
0.0
  0
ELLIPSE
  5
1C13
330
85F
100
AcDbEntity
  8
DETAIL
100
AcDbEllipse
 10
-289.4765271966713
 20
-1225.276068456646
 30
0.0
 11
5.500000000000033
 21
-0.0000000000000109
 31
0.0
210
0.0
220
0.0
230
1.0
 40
0.3420201433256125
 41
0.2011706808773968
 42
2.940421972712361
  0
ELLIPSE
  5
1C14
330
85F
100
AcDbEntity
  8
DETAIL
100
AcDbEllipse
 10
-289.4765271966713
 20
-1224.524314360017
 30
0.0
 11
-5.499999999999992
 21
0.0000000000000032
 31
0.0
210
0.0
220
0.0
230
1.0
 40
0.3420201433256127
 41
2.04265816407457
 42
7.382119796694867
  0
LINE
  5
1C15
330
85F
100
AcDbEntity
  8
DETAIL
100
AcDbLine
 10
-291.9765271966713
 20
-1228.286535936599
 30
0.0
 11
-291.9765271966713
 21
-1226.19986402582
 31
0.0
  0
LINE
  5
1C16
330
85F
100
AcDbEntity
  8
DETAIL
100
AcDbLine
 10
-297.9765271966713
 20
-1236.324019599613
 30
0.0
 11
177.0234728033287
 21
-1236.324019599613
 31
0.0
  0
LINE
  5
1C17
330
85F
100
AcDbEntity
  8
DETAIL
100
AcDbLine
 10
177.0234728033287
 20
-1236.747218551814
 30
0.0
 11
-297.9765271966713
 21
-1236.747218551814
 31
0.0
  0
LINE
  5
1C18
330
85F
100
AcDbEntity
  8
DETAIL
100
AcDbLine
 10
-297.9765271966713
 20
-1236.747218551814
 30
0.0
 11
-297.9765271966713
 21
-1236.324019599613
 31
0.0
  0
LINE
  5
1C19
330
85F
100
AcDbEntity
  8
DETAIL
100
AcDbLine
 10
177.0234728033287
 20
-1236.747218551814
 30
0.0
 11
177.0234728033287
 21
-1236.324019599613
 31
0.0
  0
LINE
  5
1C1A
330
85F
100
AcDbEntity
  8
DETAIL
100
AcDbLine
 10
177.0234728033287
 20
-1188.452887017009
 30
0.0
 11
177.0234728033287
 21
-1236.324019599613
 31
0.0
  0
LINE
  5
1C1B
330
85F
100
AcDbEntity
  8
DETAIL
100
AcDbLine
 10
-297.9765271966713
 20
-1188.452887017009
 30
0.0
 11
-297.9765271966713
 21
-1236.324019599613
 31
0.0
  0
LINE
  5
1C1C
330
85F
100
AcDbEntity
  8
DETAIL
100
AcDbLine
 10
177.0234728033287
 20
-1188.452887017009
 30
0.0
 11
-297.9765271966713
 21
-1188.452887017009
 31
0.0
  0
LINE
  5
1C1D
330
85F
100
AcDbEntity
  8
DETAIL
100
AcDbLine
 10
-297.9765271966713
 20
-1188.452887017009
 30
0.0
 11
-297.9765271966713
 21
-1188.398610375717
 31
0.0
  0
LINE
  5
1C1E
330
85F
100
AcDbEntity
  8
DETAIL
100
AcDbLine
 10
177.0234728033287
 20
-1188.452887017009
 30
0.0
 11
177.0234728033287
 21
-1188.398610375717
 31
0.0
  0
LINE
  5
1C1F
330
85F
100
AcDbEntity
  8
DETAIL
100
AcDbLine
 10
-297.9765271966713
 20
-1188.398610375717
 30
0.0
 11
177.0234728033287
 21
-1188.398610375717
 31
0.0
  0
ELLIPSE
  5
1C20
330
85F
100
AcDbEntity
  8
DETAIL
100
AcDbEllipse
 10
168.5234728033286
 20
-1192.374420887409
 30
0.0
 11
-2.499999999999994
 21
-0.0000000000000006
 31
0.0
210
0.0
220
0.0
230
1.0
 40
0.3420201433256107
 41
0.0
 42
6.283185307179585
  0
ELLIPSE
  5
1C21
330
85F
100
AcDbEntity
  8
DETAIL
100
AcDbEllipse
 10
168.5234728033286
 20
-1193.126174984038
 30
0.0
 11
-2.499999999999995
 21
-0.0000000000000898
 31
0.0
210
0.0
220
0.0
230
1.0
 40
0.3420201433256107
 41
3.596741917776469
 42
5.828036042990139
  0
ELLIPSE
  5
1C22
330
85F
100
AcDbEntity
  8
DETAIL
100
AcDbEllipse
 10
-289.4765271966713
 20
-1192.37442088741
 30
0.0
 11
-2.499999999999964
 21
-0.0000000000000006
 31
0.0
210
0.0
220
0.0
230
1.0
 40
0.3420201433256106
 41
0.0
 42
6.283185307179585
  0
ELLIPSE
  5
1C23
330
85F
100
AcDbEntity
  8
DETAIL
100
AcDbEllipse
 10
-289.4765271966713
 20
-1228.286535936599
 30
0.0
 11
2.499999999999997
 21
-0.0000000000000305
 31
0.0
210
0.0
220
0.0
230
1.0
 40
0.3420201433256092
 41
3.141592653590427
 42
6.28318530718022
  0
ELLIPSE
  5
1C24
330
85F
100
AcDbEntity
  8
DETAIL
100
AcDbEllipse
 10
168.5234728033286
 20
-1228.286535936599
 30
0.0
 11
2.500000000000017
 21
-0.0000000000000039
 31
0.0
210
0.0
220
0.0
230
1.0
 40
0.3420201433256114
 41
3.14159265358996
 42
6.283185307179753
  0
ELLIPSE
  5
1C25
330
85F
100
AcDbEntity
  8
DETAIL
100
AcDbEllipse
 10
-289.4765271966713
 20
-1193.126174984038
 30
0.0
 11
-2.499999999999977
 21
-0.0000000000000905
 31
0.0
210
0.0
220
0.0
230
1.0
 40
0.3420201433256107
 41
3.59674191777653
 42
5.828036042990138
  0
LINE
  5
1C26
330
85F
100
AcDbEntity
  8
DETAIL
100
AcDbLine
 10
171.0234728033286
 20
-1226.19986402582
 30
0.0
 11
171.0234728033286
 21
-1228.286535936599
 31
0.0
  0
LINE
  5
1C27
330
85F
100
AcDbEntity
  8
DETAIL
100
AcDbLine
 10
166.0234728033286
 20
-1228.286535936599
 30
0.0
 11
166.0234728033286
 21
-1226.19986402582
 31
0.0
  0
ELLIPSE
  5
1C28
330
85F
100
AcDbEntity
  8
DETAIL
100
AcDbEllipse
 10
168.5234728033286
 20
-1224.524314360017
 30
0.0
 11
-5.500000000000012
 21
0.0000000000000115
 31
0.0
210
0.0
220
0.0
230
1.0
 40
0.3420201433256115
 41
2.04265816407457
 42
7.382119796694871
  0
ELLIPSE
  5
1C29
330
85F
100
AcDbEntity
  8
DETAIL
100
AcDbEllipse
 10
168.5234728033286
 20
-1225.276068456646
 30
0.0
 11
5.499999999999997
 21
-0.0000000000000132
 31
0.0
210
0.0
220
0.0
230
1.0
 40
0.3420201433256125
 41
0.2011706808773976
 42
2.940421972712362
  0
LINE
  5
1C2A
330
85F
100
AcDbEntity
  8
DETAIL
100
AcDbLine
 10
174.0234728033287
 20
-1448.972404771035
 30
0.0
 11
174.4694723740944
 21
-1448.578610523612
 31
0.0
  0
LINE
  5
1C2B
330
85F
100
AcDbEntity
  8
DETAIL
100
AcDbLine
 10
177.0234728033287
 20
-1446.01628722819
 30
0.0
 11
177.0234728033287
 21
-1445.947984742229
 31
0.0
  0
LINE
  5
1C2C
330
85F
100
AcDbEntity
  8
DETAIL
100
AcDbLine
 10
177.0234728033287
 20
-1445.947984742229
 30
0.0
 11
174.0234728033287
 21
-1448.596827520806
 31
0.0
  0
LINE
  5
1C2D
330
85F
100
AcDbEntity
  8
DETAIL
100
AcDbLine
 10
174.0234728033287
 20
-1448.596827520806
 30
0.0
 11
174.0234728033287
 21
-1448.972404771036
 31
0.0
  0
LINE
  5
1C2E
330
85F
100
AcDbEntity
  8
DETAIL
100
AcDbLine
 10
-294.9765271966713
 20
-1448.972404771036
 30
0.0
 11
-294.9765271966713
 21
-1448.596827520806
 31
0.0
  0
LINE
  5
1C2F
330
85F
100
AcDbEntity
  8
DETAIL
100
AcDbLine
 10
-294.9765271966713
 20
-1448.596827520807
 30
0.0
 11
-297.9765271966713
 21
-1445.947984742229
 31
0.0
  0
LINE
  5
1C30
330
85F
100
AcDbEntity
  8
DETAIL
100
AcDbLine
 10
-295.4225267674297
 20
-1448.578610523618
 30
0.0
 11
-294.9765271966713
 21
-1448.972404771036
 31
0.0
  0
LINE
  5
1C31
330
85F
100
AcDbEntity
  8
DETAIL
100
AcDbLine
 10
-297.9765271966713
 20
-1445.947984742229
 30
0.0
 11
-297.9765271966713
 21
-1446.01628722819
 31
0.0
  0
LINE
  5
1C32
330
85F
100
AcDbEntity
  8
DETAIL
100
AcDbLine
 10
-294.9765271966713
 20
-1448.596827520807
 30
0.0
 11
174.0234728033287
 21
-1448.596827520806
 31
0.0
  0
LINE
  5
1C33
330
85F
100
AcDbEntity
  8
DETAIL
100
AcDbLine
 10
-294.9765271966713
 20
-1448.972404771036
 30
0.0
 11
-280.9765271966713
 21
-1448.972404771036
 31
0.0
  0
LINE
  5
1C34
330
85F
100
AcDbEntity
  8
DETAIL
100
AcDbLine
 10
160.0234728033286
 20
-1448.972404771036
 30
0.0
 11
174.0234728033287
 21
-1448.972404771035
 31
0.0
  0
LINE
  5
1C35
330
85F
100
AcDbEntity
  8
DETAIL
100
AcDbLine
 10
177.0234728033287
 20
-1236.747218551814
 30
0.0
 11
177.0234728033287
 21
-1445.947984742229
 31
0.0
  0
LINE
  5
1C36
330
85F
100
AcDbEntity
  8
DETAIL
100
AcDbLine
 10
-297.9765271966713
 20
-1236.747218551814
 30
0.0
 11
-297.9765271966713
 21
-1445.947984742229
 31
0.0
  0
LINE
  5
1C37
330
85F
100
AcDbEntity
  8
DETAIL
100
AcDbLine
 10
-280.9765271966713
 20
-1448.972404771036
 30
0.0
 11
-280.9765271966713
 21
-1449.347982021264
 31
0.0
  0
LINE
  5
1C38
330
85F
100
AcDbEntity
  8
DETAIL
100
AcDbLine
 10
160.0234728033286
 20
-1448.972404771036
 30
0.0
 11
160.0234728033286
 21
-1449.347982021264
 31
0.0
  0
LINE
  5
1C39
330
85F
100
AcDbEntity
  8
DETAIL
100
AcDbLine
 10
-280.9765271966713
 20
-1449.347982021264
 30
0.0
 11
160.0234728033286
 21
-1449.347982021264
 31
0.0
  0
ELLIPSE
  5
1C3A
330
85F
100
AcDbEntity
  8
DETAIL
100
AcDbEllipse
 10
-289.4765271966713
 20
-1422.107132326367
 30
0.0
 11
-2.499999999999931
 21
-0.0000000000000006
 31
0.0
210
0.0
220
0.0
230
1.0
 40
0.8829475928589205
 41
0.0
 42
6.283185307179586
  0
ELLIPSE
  5
1C3B
330
85F
100
AcDbEntity
  8
DETAIL
100
AcDbEllipse
 10
-289.4765271966713
 20
-1280.835517468939
 30
0.0
 11
-2.499999999999976
 21
-0.0000000000000006
 31
0.0
210
0.0
220
0.0
230
1.0
 40
0.8829475928589205
 41
0.0
 42
6.283185307179586
  0
ELLIPSE
  5
1C3C
330
85F
100
AcDbEntity
  8
DETAIL
100
AcDbEllipse
 10
168.5234728033286
 20
-1422.107132326367
 30
0.0
 11
-2.499999999999894
 21
-0.0000000000000006
 31
0.0
210
0.0
220
0.0
230
1.0
 40
0.8829475928589205
 41
0.0
 42
6.283185307179586
  0
ELLIPSE
  5
1C3D
330
85F
100
AcDbEntity
  8
DETAIL
100
AcDbEllipse
 10
168.5234728033286
 20
-1280.835517468939
 30
0.0
 11
-2.499999999999945
 21
-0.0000000000000006
 31
0.0
210
0.0
220
0.0
230
1.0
 40
0.8829475928589205
 41
0.0
 42
6.283185307179586
  0
ELLIPSE
  5
1C3E
330
85F
100
AcDbEntity
  8
DETAIL
100
AcDbEllipse
 10
-289.4765271966713
 20
-1422.175434812326
 30
0.0
 11
2.5
 21
0.000000000000018
 31
0.0
210
0.0
220
0.0
230
1.0
 40
0.8829475928589276
 41
0.0154720872892655
 42
3.126120566300511
  0
ELLIPSE
  5
1C3F
330
85F
100
AcDbEntity
  8
DETAIL
100
AcDbEllipse
 10
-289.4765271966713
 20
-1280.903819954898
 30
0.0
 11
2.5
 21
-0.0000000000000095
 31
0.0
210
0.0
220
0.0
230
1.0
 40
0.8829475928589303
 41
0.0154720872887147
 42
3.126120566301127
  0
LINE
  5
1C40
330
85F
100
AcDbEntity
  8
DETAIL
100
AcDbLine
 10
-295.4225267674297
 20
-1448.27133575935
 30
0.0
 11
-297.9765271966713
 21
-1446.01628722819
 31
0.0
  0
LINE
  5
1C41
330
85F
100
AcDbEntity
  8
DETAIL
100
AcDbLine
 10
-295.4225267674297
 20
-1448.578610523618
 30
0.0
 11
-295.4225267674297
 21
-1448.27133575935
 31
0.0
  0
ELLIPSE
  5
1C42
330
85F
100
AcDbEntity
  8
DETAIL
100
AcDbEllipse
 10
168.5234728033286
 20
-1422.175434812326
 30
0.0
 11
2.500000000000029
 21
0.0000000000000083
 31
0.0
210
0.0
220
0.0
230
1.0
 40
0.8829475928589317
 41
0.0154720872899538
 42
3.126120566299791
  0
ELLIPSE
  5
1C43
330
85F
100
AcDbEntity
  8
DETAIL
100
AcDbEllipse
 10
168.5234728033286
 20
-1280.9038199549
 30
0.0
 11
2.500000000000003
 21
0.0000000000000221
 31
0.0
210
0.0
220
0.0
230
1.0
 40
0.8829475928589289
 41
0.0154720872893039
 42
3.126120566300469
  0
LINE
  5
1C44
330
85F
100
AcDbEntity
  8
DETAIL
100
AcDbLine
 10
177.0234728033287
 20
-1446.01628722819
 30
0.0
 11
174.4694723740871
 21
-1448.271335759351
 31
0.0
  0
LINE
  5
1C45
330
85F
100
AcDbEntity
  8
DETAIL
100
AcDbLine
 10
174.4694723740944
 20
-1448.271335759345
 30
0.0
 11
174.4694723740944
 21
-1448.578610523612
 31
0.0
  0
LINE
  5
1C46
330
85F
100
AcDbEntity
  8
OUTLINE
100
AcDbLine
 10
-282.9765271966713
 20
-1448.972404771036
 30
0.0
 11
-282.9765271966713
 21
-1668.19861037572
 31
0.0
  0
LINE
  5
1C47
330
85F
100
AcDbEntity
  8
OUTLINE
100
AcDbLine
 10
-285.9765271966713
 20
-1671.198610375719
 30
0.0
 11
-297.3765271966728
 21
-1671.198610375719
 31
0.0
  0
CIRCLE
  5
1C48
330
85F
100
AcDbEntity
  8
OUTLINE
100
AcDbCircle
 10
-289.4765271966713
 20
-1661.198610375719
 30
0.0
 40
3.0
  0
LINE
  5
1C49
330
85F
100
AcDbEntity
  8
OUTLINE
100
AcDbLine
 10
-298.0765271966699
 20
-1237.833184537941
 30
0.0
 11
-298.0765271966699
 21
-1238.306398177497
 31
0.0
  0
LINE
  5
1C4A
330
85F
100
AcDbEntity
  8
OUTLINE
100
AcDbLine
 10
-298.0765271966699
 20
-1448.646913009578
 30
0.0
 11
-298.0765271966699
 21
-1455.108986260283
 31
0.0
  0
LINE
  5
1C4B
330
85F
100
AcDbEntity
  8
OUTLINE
100
AcDbLine
 10
-282.9765271966713
 20
-1668.19861037572
 30
0.0
 11
-285.9765271966713
 21
-1671.198610375719
 31
0.0
  0
LINE
  5
1C4C
330
85F
100
AcDbEntity
  8
OUTLINE
100
AcDbLine
 10
-297.3765271966728
 20
-1455.633031486509
 30
0.0
 11
-297.3765271966728
 21
-1455.108986260283
 31
0.0
  0
LINE
  5
1C4D
330
85F
100
AcDbEntity
  8
OUTLINE
100
AcDbLine
 10
-297.3765271966728
 20
-1455.108986260283
 30
0.0
 11
-298.1765271966684
 21
-1455.108986260283
 31
0.0
  0
LINE
  5
1C4E
330
85F
100
AcDbEntity
  8
OUTLINE
100
AcDbLine
 10
-298.1765271966684
 20
-1455.633031486509
 30
0.0
 11
-297.3765271966728
 21
-1455.633031486509
 31
0.0
  0
LINE
  5
1C4F
330
85F
100
AcDbEntity
  8
OUTLINE
100
AcDbLine
 10
-298.1765271966684
 20
-1671.198610375719
 30
0.0
 11
-297.3765271966728
 21
-1671.198610375719
 31
0.0
  0
LINE
  5
1C50
330
85F
100
AcDbEntity
  8
OUTLINE
100
AcDbLine
 10
-297.3765271966728
 20
-1671.198610375719
 30
0.0
 11
-297.3765271966728
 21
-1455.633031486509
 31
0.0
  0
LINE
  5
1C51
330
85F
100
AcDbEntity
  8
OUTLINE
100
AcDbLine
 10
-298.0765271966699
 20
-1189.198610375719
 30
0.0
 11
-297.9765271966713
 21
-1189.198610375719
 31
0.0
  0
LINE
  5
1C52
330
85F
100
AcDbEntity
  8
OUTLINE
100
AcDbLine
 10
-298.0765271966699
 20
-1237.081430441313
 30
0.0
 11
-297.9765271966713
 21
-1237.081430441313
 31
0.0
  0
LINE
  5
1C53
330
85F
100
AcDbEntity
  8
OUTLINE
100
AcDbLine
 10
-298.0765271966699
 20
-1237.833184537941
 30
0.0
 11
-297.9765271966713
 21
-1237.833184537941
 31
0.0
  0
LINE
  5
1C54
330
85F
100
AcDbEntity
  8
OUTLINE
100
AcDbLine
 10
-298.0765271966699
 20
-1189.198610375719
 30
0.0
 11
-298.0765271966699
 21
-1237.081430441313
 31
0.0
  0
LINE
  5
1C55
330
85F
100
AcDbEntity
  8
OUTLINE
100
AcDbLine
 10
-298.9765271966713
 20
-1237.397886480087
 30
0.0
 11
-298.9765271966713
 21
-1189.796039839024
 31
0.0
  0
ELLIPSE
  5
1C56
330
85F
100
AcDbEntity
  8
OUTLINE
100
AcDbEllipse
 10
-298.0765271966699
 20
-1237.92715380002
 30
0.0
 11
-0.1000000000000102
 21
-0.0000000000004263
 31
0.0
210
0.0
220
0.0
230
1.0
 40
0.9396926207859664
 41
4.712388980380683
 42
6.283185307178142
  0
LINE
  5
1C57
330
85F
100
AcDbEntity
  8
OUTLINE
100
AcDbLine
 10
-298.0765271966699
 20
-1237.081430441313
 30
0.0
 11
-298.0765271966699
 21
-1237.833184537941
 31
0.0
  0
ELLIPSE
  5
1C58
330
85F
100
AcDbEntity
  8
OUTLINE
100
AcDbEllipse
 10
-298.0765271966699
 20
-1237.92715380002
 30
0.0
 11
0.9000000000000047
 21
0.0000000000000209
 31
0.0
210
0.0
220
0.0
230
1.0
 40
0.9396926207858824
 41
1.570796326794875
 42
2.465415198597264
  0
SPLINE
  5
1C59
330
85F
100
AcDbEntity
  8
OUTLINE
100
AcDbSpline
210
0.0
220
0.0
230
1.0
 70
     8
 71
     3
 72
    11
 73
     7
 74
     0
 42
0.0000000001
 43
0.0000000001
 40
0.0
 40
0.0
 40
0.0
 40
0.0
 40
1.437607986812991
 40
1.437607986812991
 40
1.437607986812991
 40
1.570796326794666
 40
1.570796326794666
 40
1.570796326794666
 40
1.570796326794666
 10
-298.9765271966713
 20
-1189.796039839024
 30
0.0
 10
-298.9765271966713
 20
-1189.466513945288
 30
0.0
 10
-298.6235053793749
 20
-1189.163118758934
 30
0.0
 10
-298.1960426199909
 20
-1189.185047571998
 30
0.0
 10
-298.1564399912782
 20
-1189.187079184397
 30
0.0
 10
-298.1164836986678
 20
-1189.19159273522
 30
0.0
 10
-298.0765271966699
 20
-1189.198610375719
 30
0.0
  0
LINE
  5
1C5A
330
85F
100
AcDbEntity
  8
OUTLINE
100
AcDbLine
 10
-290.0265271966743
 20
-1228.318364294967
 30
0.0
 11
-290.0265271966743
 21
-1228.197127926937
 31
0.0
  0
ELLIPSE
  5
1C5B
330
85F
100
AcDbEntity
  8
OUTLINE
100
AcDbEllipse
 10
-289.4765271966713
 20
-1228.197127926937
 30
0.0
 11
-0.549999999999996
 21
0.0000000000000177
 31
0.0
210
0.0
220
0.0
230
1.0
 40
0.3420201433256687
 41
3.141592653590618
 42
6.283185307180412
  0
LINE
  5
1C5C
330
85F
100
AcDbEntity
  8
OUTLINE
100
AcDbLine
 10
-288.9265271966757
 20
-1228.197127926937
 30
0.0
 11
-288.9265271966757
 21
-1228.318364294967
 31
0.0
  0
ELLIPSE
  5
1C5D
330
85F
100
AcDbEntity
  8
OUTLINE
100
AcDbEllipse
 10
-289.4765271966713
 20
-1228.795663177757
 30
0.0
 11
1.500000000000024
 21
-0.0000000000000008
 31
0.0
210
0.0
220
0.0
230
1.0
 40
0.3420201433256705
 41
5.872206345676293
 42
7.478558025993343
  0
ELLIPSE
  5
1C5E
330
85F
100
AcDbEntity
  8
OUTLINE
100
AcDbEllipse
 10
-289.4765271966713
 20
-1228.795663177757
 30
0.0
 11
-1.499999999999991
 21
-0.0000000000000015
 31
0.0
210
0.0
220
0.0
230
1.0
 40
0.3420201433256722
 41
5.08781258836561
 42
6.694164268680592
  0
ELLIPSE
  5
1C5F
330
85F
100
AcDbEntity
  8
OUTLINE
100
AcDbEllipse
 10
-289.4765271966786
 20
-1229.547417274382
 30
0.0
 11
-1.499999999995895
 21
-0.0000000000009348
 31
0.0
210
0.0
220
0.0
230
1.0
 40
0.3420201433244792
 41
5.087812588365395
 42
5.233666485749875
  0
ELLIPSE
  5
1C60
330
85F
100
AcDbEntity
  8
OUTLINE
100
AcDbEllipse
 10
-289.4765271966713
 20
-1229.547417274382
 30
0.0
 11
-1.499999999993738
 21
0.0000000000006209
 31
0.0
210
0.0
220
0.0
230
1.0
 40
0.3420201433247966
 41
4.19111147501836
 42
4.336965372403668
  0
ELLIPSE
  5
1C61
330
85F
100
AcDbEntity
  8
OUTLINE
100
AcDbEllipse
 10
-289.4765271966713
 20
-1228.948882023566
 30
0.0
 11
0.5500000000000051
 21
0.0000000000000001
 31
0.0
210
0.0
220
0.0
230
1.0
 40
0.3420201433256689
 41
0.0
 42
3.141592653589061
  0
LINE
  5
1C62
330
85F
100
AcDbEntity
  8
OUTLINE
100
AcDbLine
 10
-290.0265271966743
 20
-1228.318364294967
 30
0.0
 11
-290.0265271966743
 21
-1229.070118391595
 31
0.0
  0
LINE
  5
1C63
330
85F
100
AcDbEntity
  8
OUTLINE
100
AcDbLine
 10
-288.9265271966757
 20
-1228.318364294967
 30
0.0
 11
-288.9265271966757
 21
-1229.070118391595
 31
0.0
  0
LINE
  5
1C64
330
85F
100
AcDbEntity
  8
OUTLINE
100
AcDbLine
 10
-290.0265271966743
 20
-1192.406249245771
 30
0.0
 11
-290.0265271966743
 21
-1192.29207346907
 31
0.0
  0
LINE
  5
1C65
330
85F
100
AcDbEntity
  8
OUTLINE
100
AcDbLine
 10
-288.9265271966757
 20
-1192.29207346907
 30
0.0
 11
-288.9265271966757
 21
-1192.406249245771
 31
0.0
  0
ELLIPSE
  5
1C66
330
85F
100
AcDbEntity
  8
OUTLINE
100
AcDbEllipse
 10
-289.4765271966713
 20
-1192.883548128561
 30
0.0
 11
1.499999999999997
 21
-0.0000000000000099
 31
0.0
210
0.0
220
0.0
230
1.0
 40
0.3420201433256689
 41
5.872206345657566
 42
7.478558025993349
  0
ELLIPSE
  5
1C67
330
85F
100
AcDbEntity
  8
OUTLINE
100
AcDbEllipse
 10
-289.4765271966713
 20
-1192.883548128561
 30
0.0
 11
-1.500000000000007
 21
0.0000000000000018
 31
0.0
210
0.0
220
0.0
230
1.0
 40
0.3420201433256691
 41
5.087812588365608
 42
6.694164268699911
  0
ELLIPSE
  5
1C68
330
85F
100
AcDbEntity
  8
OUTLINE
100
AcDbEllipse
 10
-289.4765271966713
 20
-1193.63530222519
 30
0.0
 11
-1.50000000000098
 21
0.0000000000001907
 31
0.0
210
0.0
220
0.0
230
1.0
 40
0.3420201433259171
 41
5.087812588365874
 42
5.233666485766036
  0
ELLIPSE
  5
1C69
330
85F
100
AcDbEntity
  8
OUTLINE
100
AcDbEllipse
 10
-289.4765271966713
 20
-1193.63530222519
 30
0.0
 11
-1.500000000000341
 21
-0.0000000000000733
 31
0.0
210
0.0
220
0.0
230
1.0
 40
0.342020143325708
 41
4.191111475002099
 42
4.336965372403217
  0
ELLIPSE
  5
1C6A
330
85F
100
AcDbEntity
  8
OUTLINE
100
AcDbEllipse
 10
-289.4765271966713
 20
-1193.036766974371
 30
0.0
 11
0.5499999999999983
 21
0.0000000000000034
 31
0.0
210
0.0
220
0.0
230
1.0
 40
0.3420201433256679
 41
0.0
 42
3.141592653589645
  0
LINE
  5
1C6B
330
85F
100
AcDbEntity
  8
OUTLINE
100
AcDbLine
 10
-290.0265271966743
 20
-1192.406249245771
 30
0.0
 11
-290.0265271966743
 21
-1193.1580033424
 31
0.0
  0
LINE
  5
1C6C
330
85F
100
AcDbEntity
  8
OUTLINE
100
AcDbLine
 10
-288.9265271966757
 20
-1192.406249245771
 30
0.0
 11
-288.9265271966757
 21
-1193.1580033424
 31
0.0
  0
LINE
  5
1C6D
330
85F
100
AcDbEntity
  8
OUTLINE
100
AcDbLine
 10
-298.0765271966699
 20
-1448.27133575935
 30
0.0
 11
-295.4225267674297
 21
-1448.27133575935
 31
0.0
  0
LINE
  5
1C6E
330
85F
100
AcDbEntity
  8
OUTLINE
100
AcDbLine
 10
-298.0765271966699
 20
-1448.646913009578
 30
0.0
 11
-295.345169417447
 21
-1448.646913009578
 31
0.0
  0
LINE
  5
1C6F
330
85F
100
AcDbEntity
  8
OUTLINE
100
AcDbLine
 10
-298.0765271966699
 20
-1238.306398177497
 30
0.0
 11
-297.9765271966713
 21
-1238.306398177497
 31
0.0
  0
LINE
  5
1C70
330
85F
100
AcDbEntity
  8
OUTLINE
100
AcDbLine
 10
-298.0765271966699
 20
-1448.27133575935
 30
0.0
 11
-298.0765271966699
 21
-1448.646913009578
 31
0.0
  0
LINE
  5
1C71
330
85F
100
AcDbEntity
  8
OUTLINE
100
AcDbLine
 10
-298.0765271966699
 20
-1238.306398177497
 30
0.0
 11
-298.0765271966699
 21
-1448.27133575935
 31
0.0
  0
LINE
  5
1C72
330
85F
100
AcDbEntity
  8
OUTLINE
100
AcDbLine
 10
-298.1765271966684
 20
-1448.897081485452
 30
0.0
 11
-298.649484991805
 21
-1448.897081485452
 31
0.0
  0
LINE
  5
1C73
330
85F
100
AcDbEntity
  8
OUTLINE
100
AcDbLine
 10
-298.649484991805
 20
-1448.897081485452
 30
0.0
 11
-298.9765271966713
 21
-1448.897081485452
 31
0.0
  0
LINE
  5
1C74
330
85F
100
AcDbEntity
  8
OUTLINE
100
AcDbLine
 10
-298.1765271966684
 20
-1237.397886480087
 30
0.0
 11
-298.1765271966684
 21
-1238.309014452848
 31
0.0
  0
SPLINE
  5
1C75
330
85F
100
AcDbEntity
  8
OUTLINE
100
AcDbSpline
210
0.0
220
0.0
230
1.0
 70
     8
 71
     3
 72
     8
 73
     4
 74
     0
 42
0.0000000001
 43
0.0000000001
 40
0.0
 40
0.0
 40
0.0
 40
0.0
 40
1.570796326794014
 40
1.570796326794014
 40
1.570796326794014
 40
1.570796326794014
 10
-298.1765271966684
 20
-1448.897081485452
 30
0.0
 10
-298.1765271966684
 20
-1448.804759572042
 30
0.0
 10
-298.1288870742316
 20
-1448.714653449443
 30
0.0
 10
-298.0765271966699
 20
-1448.646913009578
 30
0.0
  0
ELLIPSE
  5
1C76
330
85F
100
AcDbEntity
  8
OUTLINE
100
AcDbEllipse
 10
-298.0765271966699
 20
-1238.728922584004
 30
0.0
 11
-0.899999999999992
 21
-0.0000000000000623
 31
0.0
210
0.0
220
0.0
230
1.0
 40
0.4694715627858855
 41
4.712388980384261
 42
6.283185307179491
  0
SPLINE
  5
1C77
330
85F
100
AcDbEntity
  8
OUTLINE
100
AcDbSpline
210
0.0
220
0.0
230
1.0
 70
     8
 71
     3
 72
    11
 73
     7
 74
     0
 42
0.0000000001
 43
0.0000000001
 40
0.0
 40
0.0
 40
0.0
 40
0.0
 40
1.437607986813546
 40
1.437607986813546
 40
1.437607986813546
 40
1.570796326794014
 40
1.570796326794014
 40
1.570796326794014
 40
1.570796326794014
 10
-298.9765271966713
 20
-1448.897081485452
 30
0.0
 10
-298.9765271966713
 20
-1448.632609959411
 30
0.0
 10
-298.6235053793749
 20
-1448.381193366184
 30
0.0
 10
-298.1960426199909
 20
-1448.292309034084
 30
0.0
 10
-298.1564399912782
 20
-1448.284074274154
 30
0.0
 10
-298.1164836986678
 20
-1448.277079493647
 30
0.0
 10
-298.0765271966699
 20
-1448.27133575935
 30
0.0
  0
LINE
  5
1C78
330
85F
100
AcDbEntity
  8
OUTLINE
100
AcDbLine
 10
-298.9765271966713
 20
-1448.897081485452
 30
0.0
 11
-298.9765271966713
 21
-1238.728922584004
 31
0.0
  0
LINE
  5
1C79
330
85F
100
AcDbEntity
  8
OUTLINE
100
AcDbLine
 10
-298.9765271966713
 20
-1237.397886480087
 30
0.0
 11
-298.1765271966684
 21
-1237.397886480087
 31
0.0
  0
LINE
  5
1C7A
330
85F
100
AcDbEntity
  8
OUTLINE
100
AcDbLine
 10
-298.9765271966713
 20
-1238.728922584004
 30
0.0
 11
-298.9765271966713
 21
-1237.397886480087
 31
0.0
  0
LINE
  5
1C7B
330
85F
100
AcDbEntity
  8
OUTLINE
100
AcDbLine
 10
-290.0265271966743
 20
-1279.885868405988
 30
0.0
 11
-290.0265271966743
 21
-1279.572888713395
 31
0.0
  0
ELLIPSE
  5
1C7C
330
85F
100
AcDbEntity
  8
OUTLINE
100
AcDbEllipse
 10
-289.4765271966713
 20
-1279.572888713395
 30
0.0
 11
-0.5500000000000006
 21
0.0000000000000177
 31
0.0
210
0.0
220
0.0
230
1.0
 40
0.8829475928589243
 41
3.141592653589829
 42
6.283185307179622
  0
LINE
  5
1C7D
330
85F
100
AcDbEntity
  8
OUTLINE
100
AcDbLine
 10
-288.9265271966757
 20
-1279.572888713395
 30
0.0
 11
-288.9265271966757
 21
-1279.885868405988
 31
0.0
  0
ELLIPSE
  5
1C7E
330
85F
100
AcDbEntity
  8
OUTLINE
100
AcDbEllipse
 10
-289.4765271966713
 20
-1281.118047000898
 30
0.0
 11
1.499999999999988
 21
0.0000000000000034
 31
0.0
210
0.0
220
0.0
230
1.0
 40
0.88294759285893
 41
1.946219934775792
 42
7.478558025993338
  0
LINE
  5
1C7F
330
85F
100
AcDbEntity
  8
OUTLINE
100
AcDbLine
 10
-290.0265271966743
 20
-1279.885868405988
 30
0.0
 11
-290.0265271966743
 21
-1280.261445656217
 31
0.0
  0
ELLIPSE
  5
1C80
330
85F
100
AcDbEntity
  8
OUTLINE
100
AcDbEllipse
 10
-289.4765271966713
 20
-1281.493624251127
 30
0.0
 11
-1.499999999999937
 21
-0.0000000000002998
 31
0.0
210
0.0
220
0.0
230
1.0
 40
0.8829475928589021
 41
5.087812588365417
 42
6.140916682800618
  0
ELLIPSE
  5
1C81
330
85F
100
AcDbEntity
  8
OUTLINE
100
AcDbEllipse
 10
-289.4765271966713
 20
-1281.493624251127
 30
0.0
 11
1.500000000000042
 21
0.0000000000000879
 31
0.0
210
0.0
220
0.0
230
1.0
 40
0.8829475928589468
 41
0.1422686243786355
 42
1.195372718813718
  0
LINE
  5
1C82
330
85F
100
AcDbEntity
  8
OUTLINE
100
AcDbLine
 10
-288.9265271966757
 20
-1279.885868405988
 30
0.0
 11
-288.9265271966757
 21
-1280.261445656217
 31
0.0
  0
ELLIPSE
  5
1C83
330
85F
100
AcDbEntity
  8
OUTLINE
100
AcDbEllipse
 10
-289.4765271966713
 20
-1279.948465963623
 30
0.0
 11
0.5500000000000006
 21
-0.0000000000000177
 31
0.0
210
0.0
220
0.0
230
1.0
 40
0.8829475928589312
 41
0.0000000000000364
 42
3.141592653589829
  0
LINE
  5
1C84
330
85F
100
AcDbEntity
  8
OUTLINE
100
AcDbLine
 10
-290.0265271966743
 20
-1421.157483263417
 30
0.0
 11
-290.0265271966743
 21
-1420.844503570824
 31
0.0
  0
ELLIPSE
  5
1C85
330
85F
100
AcDbEntity
  8
OUTLINE
100
AcDbEllipse
 10
-289.4765271966713
 20
-1420.844503570824
 30
0.0
 11
-0.5500000000000006
 21
-0.0000000000000001
 31
0.0
210
0.0
220
0.0
230
1.0
 40
0.8829475928589243
 41
3.141592653589832
 42
6.283185307179625
  0
LINE
  5
1C86
330
85F
100
AcDbEntity
  8
OUTLINE
100
AcDbLine
 10
-288.9265271966757
 20
-1420.844503570824
 30
0.0
 11
-288.9265271966757
 21
-1421.157483263417
 31
0.0
  0
ELLIPSE
  5
1C87
330
85F
100
AcDbEntity
  8
OUTLINE
100
AcDbEllipse
 10
-289.4765271966713
 20
-1422.389661858327
 30
0.0
 11
1.499999999999989
 21
0.0000000000000001
 31
0.0
210
0.0
220
0.0
230
1.0
 40
0.8829475928589301
 41
1.946219934775793
 42
7.47855802599334
  0
LINE
  5
1C88
330
85F
100
AcDbEntity
  8
OUTLINE
100
AcDbLine
 10
-290.0265271966743
 20
-1421.157483263417
 30
0.0
 11
-290.0265271966743
 21
-1421.533060513645
 31
0.0
  0
ELLIPSE
  5
1C89
330
85F
100
AcDbEntity
  8
OUTLINE
100
AcDbEllipse
 10
-289.4765271966713
 20
-1422.765239108556
 30
0.0
 11
-1.499999999999997
 21
0.0000000000001691
 31
0.0
210
0.0
220
0.0
230
1.0
 40
0.8829475928589635
 41
5.087812588365923
 42
6.140916682801081
  0
ELLIPSE
  5
1C8A
330
85F
100
AcDbEntity
  8
OUTLINE
100
AcDbEllipse
 10
-289.4765271966713
 20
-1422.765239108556
 30
0.0
 11
1.4999999999999
 21
0.000000000000246
 31
0.0
210
0.0
220
0.0
230
1.0
 40
0.8829475928589557
 41
0.1422686243785484
 42
1.195372718813838
  0
LINE
  5
1C8B
330
85F
100
AcDbEntity
  8
OUTLINE
100
AcDbLine
 10
-288.9265271966757
 20
-1421.157483263417
 30
0.0
 11
-288.9265271966757
 21
-1421.533060513645
 31
0.0
  0
ELLIPSE
  5
1C8C
330
85F
100
AcDbEntity
  8
OUTLINE
100
AcDbEllipse
 10
-289.4765271966713
 20
-1421.220080821052
 30
0.0
 11
0.5500000000000105
 21
0.0000000000000356
 31
0.0
210
0.0
220
0.0
230
1.0
 40
0.8829475928589312
 41
0.0
 42
3.141592653589759
  0
LINE
  5
1C8D
330
85F
100
AcDbEntity
  8
OUTLINE
100
AcDbLine
 10
-298.1765271966684
 20
-1455.633031486509
 30
0.0
 11
-298.1765271966684
 21
-1448.897081485452
 31
0.0
  0
LINE
  5
1C8E
330
85F
100
AcDbEntity
  8
OUTLINE
100
AcDbLine
 10
-298.9765271966713
 20
-1448.897081485452
 30
0.0
 11
-298.9765271966713
 21
-1671.198610375719
 31
0.0
  0
LINE
  5
1C8F
330
85F
100
AcDbEntity
  8
OUTLINE
100
AcDbLine
 10
-298.1765271966684
 20
-1671.198610375719
 30
0.0
 11
-298.9765271966713
 21
-1671.198610375719
 31
0.0
  0
LINE
  5
1C90
330
85F
100
AcDbEntity
  8
OUTLINE
100
AcDbLine
 10
177.2234728033257
 20
-1671.19861037572
 30
0.0
 11
176.4234728033301
 21
-1671.198610375719
 31
0.0
  0
LINE
  5
1C91
330
85F
100
AcDbEntity
  8
OUTLINE
100
AcDbLine
 10
176.4234728033301
 20
-1455.108986260284
 30
0.0
 11
176.4234728033301
 21
-1455.633031486509
 31
0.0
  0
LINE
  5
1C92
330
85F
100
AcDbEntity
  8
OUTLINE
100
AcDbLine
 10
177.2234728033257
 20
-1455.633031486509
 30
0.0
 11
176.4234728033301
 21
-1455.633031486509
 31
0.0
  0
LINE
  5
1C93
330
85F
100
AcDbEntity
  8
OUTLINE
100
AcDbLine
 10
177.2234728033257
 20
-1455.108986260284
 30
0.0
 11
176.4234728033301
 21
-1455.108986260284
 31
0.0
  0
LINE
  5
1C94
330
85F
100
AcDbEntity
  8
OUTLINE
100
AcDbLine
 10
176.4234728033301
 20
-1455.633031486509
 30
0.0
 11
176.4234728033301
 21
-1671.198610375719
 31
0.0
  0
LINE
  5
1C95
330
85F
100
AcDbEntity
  8
OUTLINE
100
AcDbLine
 10
167.9734728033257
 20
-1421.157483263418
 30
0.0
 11
167.9734728033257
 21
-1420.844503570825
 31
0.0
  0
LINE
  5
1C96
330
85F
100
AcDbEntity
  8
OUTLINE
100
AcDbLine
 10
167.9734728033257
 20
-1421.157483263418
 30
0.0
 11
167.9734728033257
 21
-1421.533060513647
 31
0.0
  0
ELLIPSE
  5
1C97
330
85F
100
AcDbEntity
  8
OUTLINE
100
AcDbEllipse
 10
168.5234728033286
 20
-1422.765239108557
 30
0.0
 11
-1.500000000000062
 21
0.000000000000096
 31
0.0
210
0.0
220
0.0
230
1.0
 40
0.8829475928589522
 41
5.087812588365874
 42
6.140916682801024
  0
ELLIPSE
  5
1C98
330
85F
100
AcDbEntity
  8
OUTLINE
100
AcDbEllipse
 10
168.5234728033286
 20
-1422.765239108557
 30
0.0
 11
1.499999999999958
 21
0.000000000000152
 31
0.0
210
0.0
220
0.0
230
1.0
 40
0.8829475928589486
 41
0.1422686243786867
 42
1.195372718813678
  0
ELLIPSE
  5
1C99
330
85F
100
AcDbEntity
  8
OUTLINE
100
AcDbEllipse
 10
168.5234728033286
 20
-1422.389661858328
 30
0.0
 11
1.499999999999992
 21
-0.0000000000000886
 31
0.0
210
0.0
220
0.0
230
1.0
 40
0.8829475928589305
 41
1.946219934775848
 42
7.478558025993394
  0
LINE
  5
1C9A
330
85F
100
AcDbEntity
  8
OUTLINE
100
AcDbLine
 10
169.0734728033316
 20
-1421.157483263418
 30
0.0
 11
169.0734728033316
 21
-1421.533060513647
 31
0.0
  0
LINE
  5
1C9B
330
85F
100
AcDbEntity
  8
OUTLINE
100
AcDbLine
 10
169.0734728033316
 20
-1420.844503570825
 30
0.0
 11
169.0734728033316
 21
-1421.157483263418
 31
0.0
  0
ELLIPSE
  5
1C9C
330
85F
100
AcDbEntity
  8
OUTLINE
100
AcDbEllipse
 10
168.5234728033286
 20
-1421.220080821053
 30
0.0
 11
0.5500000000000095
 21
0.0000000000000357
 31
0.0
210
0.0
220
0.0
230
1.0
 40
0.8829475928589177
 41
0.0
 42
3.14159265358972
  0
ELLIPSE
  5
1C9D
330
85F
100
AcDbEntity
  8
OUTLINE
100
AcDbEllipse
 10
168.5234728033286
 20
-1420.844503570825
 30
0.0
 11
-0.5499999999999905
 21
-0.0000000000000002
 31
0.0
210
0.0
220
0.0
230
1.0
 40
0.8829475928589319
 41
3.141592653589832
 42
6.283185307179625
  0
LINE
  5
1C9E
330
85F
100
AcDbEntity
  8
OUTLINE
100
AcDbLine
 10
167.9734728033257
 20
-1279.885868405989
 30
0.0
 11
167.9734728033257
 21
-1279.572888713396
 31
0.0
  0
LINE
  5
1C9F
330
85F
100
AcDbEntity
  8
OUTLINE
100
AcDbLine
 10
167.9734728033257
 20
-1279.885868405989
 30
0.0
 11
167.9734728033257
 21
-1280.261445656218
 31
0.0
  0
ELLIPSE
  5
1CA0
330
85F
100
AcDbEntity
  8
OUTLINE
100
AcDbEllipse
 10
168.5234728033286
 20
-1281.493624251128
 30
0.0
 11
-1.499999999999967
 21
-0.0000000000001785
 31
0.0
210
0.0
220
0.0
230
1.0
 40
0.882947592858901
 41
5.08781258836549
 42
6.14091668280071
  0
ELLIPSE
  5
1CA1
330
85F
100
AcDbEntity
  8
OUTLINE
100
AcDbEllipse
 10
168.5234728033286
 20
-1281.493624251128
 30
0.0
 11
1.500000000000022
 21
0.00000000000004
 31
0.0
210
0.0
220
0.0
230
1.0
 40
0.8829475928589435
 41
0.1422686243786053
 42
1.195372718813749
  0
ELLIPSE
  5
1CA2
330
85F
100
AcDbEntity
  8
OUTLINE
100
AcDbEllipse
 10
168.5234728033286
 20
-1281.118047000899
 30
0.0
 11
1.500000000000007
 21
-0.0000000000000179
 31
0.0
210
0.0
220
0.0
230
1.0
 40
0.8829475928589317
 41
1.946219934775806
 42
7.478558025993351
  0
LINE
  5
1CA3
330
85F
100
AcDbEntity
  8
OUTLINE
100
AcDbLine
 10
169.0734728033243
 20
-1279.885868405989
 30
0.0
 11
169.0734728033243
 21
-1280.261445656218
 31
0.0
  0
LINE
  5
1CA4
330
85F
100
AcDbEntity
  8
OUTLINE
100
AcDbLine
 10
169.0734728033243
 20
-1279.572888713396
 30
0.0
 11
169.0734728033243
 21
-1279.885868405989
 31
0.0
  0
ELLIPSE
  5
1CA5
330
85F
100
AcDbEntity
  8
OUTLINE
100
AcDbEllipse
 10
168.5234728033286
 20
-1279.948465963625
 30
0.0
 11
0.5500000000000006
 21
-0.0000000000000176
 31
0.0
210
0.0
220
0.0
230
1.0
 40
0.8829475928589321
 41
0.0000000000000367
 42
3.141592653589829
  0
ELLIPSE
  5
1CA6
330
85F
100
AcDbEntity
  8
OUTLINE
100
AcDbEllipse
 10
168.5234728033286
 20
-1279.572888713396
 30
0.0
 11
-0.5499999999999994
 21
0.0000000000000176
 31
0.0
210
0.0
220
0.0
230
1.0
 40
0.8829475928589319
 41
3.14159265358979
 42
6.283185307179584
  0
LINE
  5
1CA7
330
85F
100
AcDbEntity
  8
OUTLINE
100
AcDbLine
 10
167.9734728033185
 20
-1228.318364294964
 30
0.0
 11
167.9734728033185
 21
-1228.197127926934
 31
0.0
  0
LINE
  5
1CA8
330
85F
100
AcDbEntity
  8
OUTLINE
100
AcDbLine
 10
167.9734728033185
 20
-1228.318364294964
 30
0.0
 11
167.9734728033185
 21
-1229.070118391592
 31
0.0
  0
ELLIPSE
  5
1CA9
330
85F
100
AcDbEntity
  8
OUTLINE
100
AcDbEllipse
 10
168.5234728033141
 20
-1229.547417274382
 30
0.0
 11
-1.499999999999178
 21
-0.0000000000002312
 31
0.0
210
0.0
220
0.0
230
1.0
 40
0.3420201433254019
 41
5.087812588365459
 42
5.233666485754315
  0
ELLIPSE
  5
1CAA
330
85F
100
AcDbEntity
  8
OUTLINE
100
AcDbEllipse
 10
168.5234728033141
 20
-1229.547417274384
 30
0.0
 11
-1.500000000000495
 21
-0.0000000000005833
 31
0.0
210
0.0
220
0.0
230
1.0
 40
0.3420201433263108
 41
4.191111475009392
 42
4.336965372403144
  0
ELLIPSE
  5
1CAB
330
85F
100
AcDbEntity
  8
OUTLINE
100
AcDbEllipse
 10
168.5234728033141
 20
-1228.795663177755
 30
0.0
 11
1.500000000000003
 21
-0.0000000000000216
 31
0.0
210
0.0
220
0.0
230
1.0
 40
0.3420201433256687
 41
5.872206345663134
 42
7.478558025993355
  0
ELLIPSE
  5
1CAC
330
85F
100
AcDbEntity
  8
OUTLINE
100
AcDbEllipse
 10
168.5234728033141
 20
-1228.795663177755
 30
0.0
 11
-1.499999999999991
 21
0.000000000000016
 31
0.0
210
0.0
220
0.0
230
1.0
 40
0.3420201433256754
 41
5.087812588365558
 42
6.694164268683472
  0
LINE
  5
1CAD
330
85F
100
AcDbEntity
  8
OUTLINE
100
AcDbLine
 10
169.073472803317
 20
-1228.318364294964
 30
0.0
 11
169.073472803317
 21
-1229.070118391592
 31
0.0
  0
LINE
  5
1CAE
330
85F
100
AcDbEntity
  8
OUTLINE
100
AcDbLine
 10
169.073472803317
 20
-1228.197127926934
 30
0.0
 11
169.073472803317
 21
-1228.318364294964
 31
0.0
  0
ELLIPSE
  5
1CAF
330
85F
100
AcDbEntity
  8
OUTLINE
100
AcDbEllipse
 10
168.5234728033214
 20
-1228.948882023563
 30
0.0
 11
0.5500000000000006
 21
-0.0000000000000176
 31
0.0
210
0.0
220
0.0
230
1.0
 40
0.3420201433256715
 41
0.0000000000010863
 42
3.141592653590879
  0
ELLIPSE
  5
1CB0
330
85F
100
AcDbEntity
  8
OUTLINE
100
AcDbEllipse
 10
168.5234728033214
 20
-1228.197127926934
 30
0.0
 11
-0.549999999999995
 21
0.0000000000000087
 31
0.0
210
0.0
220
0.0
230
1.0
 40
0.3420201433256663
 41
3.141592653590572
 42
6.283185307180366
  0
LINE
  5
1CB1
330
85F
100
AcDbEntity
  8
OUTLINE
100
AcDbLine
 10
167.9734728033257
 20
-1192.406249245768
 30
0.0
 11
167.9734728033257
 21
-1192.29207346907
 31
0.0
  0
LINE
  5
1CB2
330
85F
100
AcDbEntity
  8
OUTLINE
100
AcDbLine
 10
167.9734728033257
 20
-1192.406249245768
 30
0.0
 11
167.9734728033257
 21
-1193.158003342397
 31
0.0
  0
ELLIPSE
  5
1CB3
330
85F
100
AcDbEntity
  8
OUTLINE
100
AcDbEllipse
 10
168.5234728033286
 20
-1193.635302225187
 30
0.0
 11
-1.49999999999942
 21
-0.0000000000001548
 31
0.0
210
0.0
220
0.0
230
1.0
 40
0.3420201433254737
 41
5.087812588365721
 42
5.23366648577311
  0
ELLIPSE
  5
1CB4
330
85F
100
AcDbEntity
  8
OUTLINE
100
AcDbEllipse
 10
168.5234728033286
 20
-1193.635302225188
 30
0.0
 11
-1.500000000000351
 21
-0.0000000000000386
 31
0.0
210
0.0
220
0.0
230
1.0
 40
0.3420201433256395
 41
4.191111474995553
 42
4.336965372403238
  0
ELLIPSE
  5
1CB5
330
85F
100
AcDbEntity
  8
OUTLINE
100
AcDbEllipse
 10
168.5234728033286
 20
-1192.883548128559
 30
0.0
 11
1.500000000000005
 21
-0.0000000000000018
 31
0.0
210
0.0
220
0.0
230
1.0
 40
0.3420201433256723
 41
5.872206345650073
 42
7.478558025993342
  0
ELLIPSE
  5
1CB6
330
85F
100
AcDbEntity
  8
OUTLINE
100
AcDbEllipse
 10
168.5234728033286
 20
-1192.883548128559
 30
0.0
 11
-1.500000000000001
 21
0.0000000000000052
 31
0.0
210
0.0
220
0.0
230
1.0
 40
0.3420201433256724
 41
5.087812588365549
 42
6.694164268708381
  0
LINE
  5
1CB7
330
85F
100
AcDbEntity
  8
OUTLINE
100
AcDbLine
 10
169.0734728033243
 20
-1192.406249245768
 30
0.0
 11
169.0734728033243
 21
-1193.158003342398
 31
0.0
  0
LINE
  5
1CB8
330
85F
100
AcDbEntity
  8
OUTLINE
100
AcDbLine
 10
169.0734728033243
 20
-1192.29207346907
 30
0.0
 11
169.0734728033243
 21
-1192.406249245768
 31
0.0
  0
ELLIPSE
  5
1CB9
330
85F
100
AcDbEntity
  8
OUTLINE
100
AcDbEllipse
 10
168.5234728033286
 20
-1193.036766974367
 30
0.0
 11
0.5500000000000006
 21
-0.0000000000000143
 31
0.0
210
0.0
220
0.0
230
1.0
 40
0.3420201433256675
 41
0.0000000000010686
 42
3.141592653590861
  0
LINE
  5
1CBA
330
85F
100
AcDbEntity
  8
OUTLINE
100
AcDbLine
 10
177.0234728033287
 20
-1237.83318453794
 30
0.0
 11
177.1234728033272
 21
-1237.833184537939
 31
0.0
  0
LINE
  5
1CBB
330
85F
100
AcDbEntity
  8
OUTLINE
100
AcDbLine
 10
177.1234728033272
 20
-1237.08143044131
 30
0.0
 11
177.0234728033287
 21
-1237.08143044131
 31
0.0
  0
LINE
  5
1CBC
330
85F
100
AcDbEntity
  8
OUTLINE
100
AcDbLine
 10
177.0234728033287
 20
-1189.198610375716
 30
0.0
 11
177.1234728033272
 21
-1189.198610375716
 31
0.0
  0
LINE
  5
1CBD
330
85F
100
AcDbEntity
  8
OUTLINE
100
AcDbLine
 10
177.1234728033345
 20
-1448.646913009573
 30
0.0
 11
174.392115024097
 21
-1448.646913009573
 31
0.0
  0
LINE
  5
1CBE
330
85F
100
AcDbEntity
  8
OUTLINE
100
AcDbLine
 10
177.1234728033345
 20
-1448.271335759345
 30
0.0
 11
174.4694723740871
 21
-1448.271335759345
 31
0.0
  0
LINE
  5
1CBF
330
85F
100
AcDbEntity
  8
OUTLINE
100
AcDbLine
 10
177.0234728033287
 20
-1238.306398177498
 30
0.0
 11
177.1234728033272
 21
-1238.306398177491
 31
0.0
  0
LINE
  5
1CC0
330
85F
100
AcDbEntity
  8
OUTLINE
100
AcDbLine
 10
177.1234728033345
 20
-1448.646913009573
 30
0.0
 11
177.1234728033345
 21
-1448.271335759345
 31
0.0
  0
LINE
  5
1CC1
330
85F
100
AcDbEntity
  8
OUTLINE
100
AcDbLine
 10
178.0234728033287
 20
-1448.897081485452
 30
0.0
 11
177.6964305984842
 21
-1448.897081485452
 31
0.0
  0
LINE
  5
1CC2
330
85F
100
AcDbEntity
  8
OUTLINE
100
AcDbLine
 10
177.6964305984842
 20
-1448.897081485452
 30
0.0
 11
177.2234728033257
 21
-1448.897081485452
 31
0.0
  0
LINE
  5
1CC3
330
85F
100
AcDbEntity
  8
OUTLINE
100
AcDbLine
 10
177.2234728033257
 20
-1238.309014452842
 30
0.0
 11
177.2234728033257
 21
-1237.397886480087
 31
0.0
  0
LINE
  5
1CC4
330
85F
100
AcDbEntity
  8
OUTLINE
100
AcDbLine
 10
177.1234728033345
 20
-1448.271335759345
 30
0.0
 11
177.1234728033272
 21
-1238.306398177491
 31
0.0
  0
SPLINE
  5
1CC5
330
85F
100
AcDbEntity
  8
OUTLINE
100
AcDbSpline
210
0.0
220
0.0
230
1.0
 70
     8
 71
     3
 72
    11
 73
     7
 74
     0
 42
0.0000000001
 43
0.0000000001
 40
0.0
 40
0.0
 40
0.0
 40
0.0
 40
1.437607986812543
 40
1.437607986812543
 40
1.437607986812543
 40
1.570796326781739
 40
1.570796326781739
 40
1.570796326781739
 40
1.570796326781739
 10
178.0234728033287
 20
-1448.897081485452
 30
0.0
 10
178.0234728033287
 20
-1448.632609959408
 30
0.0
 10
177.6704509860323
 20
-1448.38119336618
 30
0.0
 10
177.2429882266409
 20
-1448.292309034077
 30
0.0
 10
177.2033855979356
 20
-1448.284074274149
 30
0.0
 10
177.1634293053251
 20
-1448.277079493641
 30
0.0
 10
177.1234728033345
 20
-1448.271335759345
 30
0.0
  0
LINE
  5
1CC6
330
85F
100
AcDbEntity
  8
OUTLINE
100
AcDbLine
 10
178.0234728033287
 20
-1238.728922584005
 30
0.0
 11
178.0234728033287
 21
-1448.897081485452
 31
0.0
  0
ELLIPSE
  5
1CC7
330
85F
100
AcDbEntity
  8
OUTLINE
100
AcDbEllipse
 10
177.1234728033272
 20
-1238.728922583998
 30
0.0
 11
0.9000000000000749
 21
0.0000000000000066
 31
0.0
210
0.0
220
0.0
230
1.0
 40
0.4694715627858555
 41
0.0
 42
1.570796326794893
  0
SPLINE
  5
1CC8
330
85F
100
AcDbEntity
  8
OUTLINE
100
AcDbSpline
210
0.0
220
0.0
230
1.0
 70
     8
 71
     3
 72
     8
 73
     4
 74
     0
 42
0.0000000001
 43
0.0000000001
 40
0.0
 40
0.0
 40
0.0
 40
0.0
 40
1.570796326781739
 40
1.570796326781739
 40
1.570796326781739
 40
1.570796326781739
 10
177.2234728033257
 20
-1448.897081485454
 30
0.0
 10
177.2234728033257
 20
-1448.804759572041
 30
0.0
 10
177.1758326808889
 20
-1448.714653449441
 30
0.0
 10
177.1234728033272
 20
-1448.646913009573
 30
0.0
  0
LINE
  5
1CC9
330
85F
100
AcDbEntity
  8
OUTLINE
100
AcDbLine
 10
178.0234728033287
 20
-1237.397886480087
 30
0.0
 11
178.0234728033287
 21
-1238.728922584005
 31
0.0
  0
LINE
  5
1CCA
330
85F
100
AcDbEntity
  8
OUTLINE
100
AcDbLine
 10
177.2234728033257
 20
-1237.397886480087
 30
0.0
 11
178.0234728033287
 21
-1237.397886480087
 31
0.0
  0
LINE
  5
1CCB
330
85F
100
AcDbEntity
  8
OUTLINE
100
AcDbLine
 10
177.1234728033272
 20
-1237.08143044131
 30
0.0
 11
177.1234728033272
 21
-1189.198610375716
 31
0.0
  0
LINE
  5
1CCC
330
85F
100
AcDbEntity
  8
OUTLINE
100
AcDbLine
 10
178.0234728033287
 20
-1189.796039839024
 30
0.0
 11
178.0234728033287
 21
-1237.397886480087
 31
0.0
  0
ELLIPSE
  5
1CCD
330
85F
100
AcDbEntity
  8
OUTLINE
100
AcDbEllipse
 10
177.1234728033272
 20
-1237.927153800017
 30
0.0
 11
-0.9000000000000929
 21
-0.0000000000000873
 31
0.0
210
0.0
220
0.0
230
1.0
 40
0.939692620785909
 41
3.817770108578409
 42
4.712388980384598
  0
SPLINE
  5
1CCE
330
85F
100
AcDbEntity
  8
OUTLINE
100
AcDbSpline
210
0.0
220
0.0
230
1.0
 70
     8
 71
     3
 72
    11
 73
     7
 74
     0
 42
0.0000000001
 43
0.0000000001
 40
0.0
 40
0.0
 40
0.0
 40
0.0
 40
1.437607986813015
 40
1.437607986813015
 40
1.437607986813015
 40
1.570796326800899
 40
1.570796326800899
 40
1.570796326800899
 40
1.570796326800899
 10
177.1234728033272
 20
-1189.198610375716
 30
0.0
 10
177.5547551993699
 20
-1189.122863384415
 30
0.0
 10
177.9582298774443
 20
-1189.378848389803
 30
0.0
 10
178.01550198648
 20
-1189.704784999159
 30
0.0
 10
178.0208080067572
 20
-1189.734981656621
 30
0.0
 10
178.0234728033287
 20
-1189.765510649447
 30
0.0
 10
178.0234728033287
 20
-1189.796039839027
 30
0.0
  0
LINE
  5
1CCF
330
85F
100
AcDbEntity
  8
OUTLINE
100
AcDbLine
 10
177.1234728033272
 20
-1237.833184537939
 30
0.0
 11
177.1234728033272
 21
-1237.08143044131
 31
0.0
  0
ELLIPSE
  5
1CD0
330
85F
100
AcDbEntity
  8
OUTLINE
100
AcDbEllipse
 10
177.1234728033272
 20
-1237.927153800017
 30
0.0
 11
0.1000000000001199
 21
-0.0000000000000112
 31
0.0
210
0.0
220
0.0
230
1.0
 40
0.9396926207858868
 41
0.0
 42
1.570796326795002
  0
LINE
  5
1CD1
330
85F
100
AcDbEntity
  8
OUTLINE
100
AcDbLine
 10
162.0234728033286
 20
-1448.972404771036
 30
0.0
 11
162.0234728033286
 21
-1671.19861037572
 31
0.0
  0
LINE
  5
1CD2
330
85F
100
AcDbEntity
  8
OUTLINE
100
AcDbLine
 10
162.0234728033286
 20
-1671.19861037572
 30
0.0
 11
176.4234728033301
 21
-1671.19861037572
 31
0.0
  0
LINE
  5
1CD3
330
85F
100
AcDbEntity
  8
OUTLINE
100
AcDbLine
 10
177.1234728033272
 20
-1455.108986260283
 30
0.0
 11
177.1234728033272
 21
-1448.646913009573
 31
0.0
  0
LINE
  5
1CD4
330
85F
100
AcDbEntity
  8
OUTLINE
100
AcDbLine
 10
177.1234728033272
 20
-1238.306398177491
 30
0.0
 11
177.1234728033272
 21
-1237.833184537939
 31
0.0
  0
CIRCLE
  5
1CD5
330
85F
100
AcDbEntity
  8
OUTLINE
100
AcDbCircle
 10
168.5234728033286
 20
-1661.19861037572
 30
0.0
 40
3.000000000000001
  0
LINE
  5
1CD6
330
85F
100
AcDbEntity
  8
OUTLINE
100
AcDbLine
 10
178.0234728033287
 20
-1671.19861037572
 30
0.0
 11
177.2234728033257
 21
-1671.19861037572
 31
0.0
  0
LINE
  5
1CD7
330
85F
100
AcDbEntity
  8
OUTLINE
100
AcDbLine
 10
178.0234728033287
 20
-1671.19861037572
 30
0.0
 11
178.0234728033287
 21
-1448.897081485452
 31
0.0
  0
LINE
  5
1CD8
330
85F
100
AcDbEntity
  8
OUTLINE
100
AcDbLine
 10
177.2234728033257
 20
-1448.897081485452
 30
0.0
 11
177.2234728033257
 21
-1455.633031486509
 31
0.0
  0
LINE
  5
1CD9
330
85F
100
AcDbEntity
  8
OUTLINE
100
AcDbLine
 10
-286.9765271966713
 20
-1226.19986402582
 30
0.0
 11
-286.9765271966713
 21
-1228.286535936599
 31
0.0
  0
ELLIPSE
  5
1CDA
330
85F
100
AcDbEntity
  8
OUTLINE
100
AcDbEllipse
 10
-289.4765271966713
 20
-1225.276068456646
 30
0.0
 11
5.500000000000033
 21
-0.0000000000000109
 31
0.0
210
0.0
220
0.0
230
1.0
 40
0.3420201433256125
 41
0.2011706808773968
 42
2.940421972712361
  0
ELLIPSE
  5
1CDB
330
85F
100
AcDbEntity
  8
OUTLINE
100
AcDbEllipse
 10
-289.4765271966713
 20
-1224.524314360017
 30
0.0
 11
-5.499999999999992
 21
0.0000000000000032
 31
0.0
210
0.0
220
0.0
230
1.0
 40
0.3420201433256127
 41
2.04265816407457
 42
7.382119796694867
  0
LINE
  5
1CDC
330
85F
100
AcDbEntity
  8
OUTLINE
100
AcDbLine
 10
-291.9765271966713
 20
-1228.286535936599
 30
0.0
 11
-291.9765271966713
 21
-1226.19986402582
 31
0.0
  0
LINE
  5
1CDD
330
85F
100
AcDbEntity
  8
OUTLINE
100
AcDbLine
 10
-297.9765271966713
 20
-1236.324019599613
 30
0.0
 11
177.0234728033287
 21
-1236.324019599613
 31
0.0
  0
LINE
  5
1CDE
330
85F
100
AcDbEntity
  8
OUTLINE
100
AcDbLine
 10
177.0234728033287
 20
-1236.747218551814
 30
0.0
 11
-297.9765271966713
 21
-1236.747218551814
 31
0.0
  0
LINE
  5
1CDF
330
85F
100
AcDbEntity
  8
OUTLINE
100
AcDbLine
 10
-297.9765271966713
 20
-1236.747218551814
 30
0.0
 11
-297.9765271966713
 21
-1236.324019599613
 31
0.0
  0
LINE
  5
1CE0
330
85F
100
AcDbEntity
  8
OUTLINE
100
AcDbLine
 10
177.0234728033287
 20
-1236.747218551814
 30
0.0
 11
177.0234728033287
 21
-1236.324019599613
 31
0.0
  0
LINE
  5
1CE1
330
85F
100
AcDbEntity
  8
OUTLINE
100
AcDbLine
 10
177.0234728033287
 20
-1188.452887017009
 30
0.0
 11
177.0234728033287
 21
-1236.324019599613
 31
0.0
  0
LINE
  5
1CE2
330
85F
100
AcDbEntity
  8
OUTLINE
100
AcDbLine
 10
-297.9765271966713
 20
-1188.452887017009
 30
0.0
 11
-297.9765271966713
 21
-1236.324019599613
 31
0.0
  0
LINE
  5
1CE3
330
85F
100
AcDbEntity
  8
OUTLINE
100
AcDbLine
 10
177.0234728033287
 20
-1188.452887017009
 30
0.0
 11
-297.9765271966713
 21
-1188.452887017009
 31
0.0
  0
LINE
  5
1CE4
330
85F
100
AcDbEntity
  8
OUTLINE
100
AcDbLine
 10
-297.9765271966713
 20
-1188.452887017009
 30
0.0
 11
-297.9765271966713
 21
-1188.398610375717
 31
0.0
  0
LINE
  5
1CE5
330
85F
100
AcDbEntity
  8
OUTLINE
100
AcDbLine
 10
177.0234728033287
 20
-1188.452887017009
 30
0.0
 11
177.0234728033287
 21
-1188.398610375717
 31
0.0
  0
LINE
  5
1CE6
330
85F
100
AcDbEntity
  8
OUTLINE
100
AcDbLine
 10
-297.9765271966713
 20
-1188.398610375717
 30
0.0
 11
177.0234728033287
 21
-1188.398610375717
 31
0.0
  0
ELLIPSE
  5
1CE7
330
85F
100
AcDbEntity
  8
OUTLINE
100
AcDbEllipse
 10
168.5234728033286
 20
-1192.374420887409
 30
0.0
 11
-2.499999999999994
 21
-0.0000000000000006
 31
0.0
210
0.0
220
0.0
230
1.0
 40
0.3420201433256107
 41
0.0
 42
6.283185307179585
  0
ELLIPSE
  5
1CE8
330
85F
100
AcDbEntity
  8
OUTLINE
100
AcDbEllipse
 10
168.5234728033286
 20
-1193.126174984038
 30
0.0
 11
-2.499999999999995
 21
-0.0000000000000898
 31
0.0
210
0.0
220
0.0
230
1.0
 40
0.3420201433256107
 41
3.596741917776469
 42
5.828036042990139
  0
ELLIPSE
  5
1CE9
330
85F
100
AcDbEntity
  8
OUTLINE
100
AcDbEllipse
 10
-289.4765271966713
 20
-1192.37442088741
 30
0.0
 11
-2.499999999999964
 21
-0.0000000000000006
 31
0.0
210
0.0
220
0.0
230
1.0
 40
0.3420201433256106
 41
0.0
 42
6.283185307179585
  0
ELLIPSE
  5
1CEA
330
85F
100
AcDbEntity
  8
OUTLINE
100
AcDbEllipse
 10
-289.4765271966713
 20
-1228.286535936599
 30
0.0
 11
2.499999999999997
 21
-0.0000000000000305
 31
0.0
210
0.0
220
0.0
230
1.0
 40
0.3420201433256092
 41
3.141592653590427
 42
6.28318530718022
  0
ELLIPSE
  5
1CEB
330
85F
100
AcDbEntity
  8
OUTLINE
100
AcDbEllipse
 10
168.5234728033286
 20
-1228.286535936599
 30
0.0
 11
2.500000000000017
 21
-0.0000000000000039
 31
0.0
210
0.0
220
0.0
230
1.0
 40
0.3420201433256114
 41
3.14159265358996
 42
6.283185307179753
  0
ELLIPSE
  5
1CEC
330
85F
100
AcDbEntity
  8
OUTLINE
100
AcDbEllipse
 10
-289.4765271966713
 20
-1193.126174984038
 30
0.0
 11
-2.499999999999977
 21
-0.0000000000000905
 31
0.0
210
0.0
220
0.0
230
1.0
 40
0.3420201433256107
 41
3.59674191777653
 42
5.828036042990138
  0
LINE
  5
1CED
330
85F
100
AcDbEntity
  8
OUTLINE
100
AcDbLine
 10
171.0234728033286
 20
-1226.19986402582
 30
0.0
 11
171.0234728033286
 21
-1228.286535936599
 31
0.0
  0
LINE
  5
1CEE
330
85F
100
AcDbEntity
  8
OUTLINE
100
AcDbLine
 10
166.0234728033286
 20
-1228.286535936599
 30
0.0
 11
166.0234728033286
 21
-1226.19986402582
 31
0.0
  0
ELLIPSE
  5
1CEF
330
85F
100
AcDbEntity
  8
OUTLINE
100
AcDbEllipse
 10
168.5234728033286
 20
-1224.524314360017
 30
0.0
 11
-5.500000000000012
 21
0.0000000000000115
 31
0.0
210
0.0
220
0.0
230
1.0
 40
0.3420201433256115
 41
2.04265816407457
 42
7.382119796694871
  0
ELLIPSE
  5
1CF0
330
85F
100
AcDbEntity
  8
OUTLINE
100
AcDbEllipse
 10
168.5234728033286
 20
-1225.276068456646
 30
0.0
 11
5.499999999999997
 21
-0.0000000000000132
 31
0.0
210
0.0
220
0.0
230
1.0
 40
0.3420201433256125
 41
0.2011706808773976
 42
2.940421972712362
  0
LINE
  5
1CF1
330
85F
100
AcDbEntity
  8
OUTLINE
100
AcDbLine
 10
174.0234728033287
 20
-1448.972404771035
 30
0.0
 11
174.4694723740944
 21
-1448.578610523612
 31
0.0
  0
LINE
  5
1CF2
330
85F
100
AcDbEntity
  8
OUTLINE
100
AcDbLine
 10
177.0234728033287
 20
-1446.01628722819
 30
0.0
 11
177.0234728033287
 21
-1445.947984742229
 31
0.0
  0
LINE
  5
1CF3
330
85F
100
AcDbEntity
  8
OUTLINE
100
AcDbLine
 10
177.0234728033287
 20
-1445.947984742229
 30
0.0
 11
174.0234728033287
 21
-1448.596827520806
 31
0.0
  0
LINE
  5
1CF4
330
85F
100
AcDbEntity
  8
OUTLINE
100
AcDbLine
 10
174.0234728033287
 20
-1448.596827520806
 30
0.0
 11
174.0234728033287
 21
-1448.972404771036
 31
0.0
  0
LINE
  5
1CF5
330
85F
100
AcDbEntity
  8
OUTLINE
100
AcDbLine
 10
-294.9765271966713
 20
-1448.972404771036
 30
0.0
 11
-294.9765271966713
 21
-1448.596827520806
 31
0.0
  0
LINE
  5
1CF6
330
85F
100
AcDbEntity
  8
OUTLINE
100
AcDbLine
 10
-294.9765271966713
 20
-1448.596827520807
 30
0.0
 11
-297.9765271966713
 21
-1445.947984742229
 31
0.0
  0
LINE
  5
1CF7
330
85F
100
AcDbEntity
  8
OUTLINE
100
AcDbLine
 10
-295.4225267674297
 20
-1448.578610523618
 30
0.0
 11
-294.9765271966713
 21
-1448.972404771036
 31
0.0
  0
LINE
  5
1CF8
330
85F
100
AcDbEntity
  8
OUTLINE
100
AcDbLine
 10
-297.9765271966713
 20
-1445.947984742229
 30
0.0
 11
-297.9765271966713
 21
-1446.01628722819
 31
0.0
  0
LINE
  5
1CF9
330
85F
100
AcDbEntity
  8
OUTLINE
100
AcDbLine
 10
-294.9765271966713
 20
-1448.596827520807
 30
0.0
 11
174.0234728033287
 21
-1448.596827520806
 31
0.0
  0
LINE
  5
1CFA
330
85F
100
AcDbEntity
  8
OUTLINE
100
AcDbLine
 10
-294.9765271966713
 20
-1448.972404771036
 30
0.0
 11
-280.9765271966713
 21
-1448.972404771036
 31
0.0
  0
LINE
  5
1CFB
330
85F
100
AcDbEntity
  8
OUTLINE
100
AcDbLine
 10
160.0234728033286
 20
-1448.972404771036
 30
0.0
 11
174.0234728033287
 21
-1448.972404771035
 31
0.0
  0
LINE
  5
1CFC
330
85F
100
AcDbEntity
  8
OUTLINE
100
AcDbLine
 10
177.0234728033287
 20
-1236.747218551814
 30
0.0
 11
177.0234728033287
 21
-1445.947984742229
 31
0.0
  0
LINE
  5
1CFD
330
85F
100
AcDbEntity
  8
OUTLINE
100
AcDbLine
 10
-297.9765271966713
 20
-1236.747218551814
 30
0.0
 11
-297.9765271966713
 21
-1445.947984742229
 31
0.0
  0
LINE
  5
1CFE
330
85F
100
AcDbEntity
  8
OUTLINE
100
AcDbLine
 10
-280.9765271966713
 20
-1448.972404771036
 30
0.0
 11
-280.9765271966713
 21
-1449.347982021264
 31
0.0
  0
LINE
  5
1CFF
330
85F
100
AcDbEntity
  8
OUTLINE
100
AcDbLine
 10
160.0234728033286
 20
-1448.972404771036
 30
0.0
 11
160.0234728033286
 21
-1449.347982021264
 31
0.0
  0
LINE
  5
1D00
330
85F
100
AcDbEntity
  8
OUTLINE
100
AcDbLine
 10
-280.9765271966713
 20
-1449.347982021264
 30
0.0
 11
160.0234728033286
 21
-1449.347982021264
 31
0.0
  0
ELLIPSE
  5
1D01
330
85F
100
AcDbEntity
  8
OUTLINE
100
AcDbEllipse
 10
-289.4765271966713
 20
-1422.107132326367
 30
0.0
 11
-2.499999999999931
 21
-0.0000000000000006
 31
0.0
210
0.0
220
0.0
230
1.0
 40
0.8829475928589205
 41
0.0
 42
6.283185307179586
  0
ELLIPSE
  5
1D02
330
85F
100
AcDbEntity
  8
OUTLINE
100
AcDbEllipse
 10
-289.4765271966713
 20
-1280.835517468939
 30
0.0
 11
-2.499999999999976
 21
-0.0000000000000006
 31
0.0
210
0.0
220
0.0
230
1.0
 40
0.8829475928589205
 41
0.0
 42
6.283185307179586
  0
ELLIPSE
  5
1D03
330
85F
100
AcDbEntity
  8
OUTLINE
100
AcDbEllipse
 10
168.5234728033286
 20
-1422.107132326367
 30
0.0
 11
-2.499999999999894
 21
-0.0000000000000006
 31
0.0
210
0.0
220
0.0
230
1.0
 40
0.8829475928589205
 41
0.0
 42
6.283185307179586
  0
ELLIPSE
  5
1D04
330
85F
100
AcDbEntity
  8
OUTLINE
100
AcDbEllipse
 10
168.5234728033286
 20
-1280.835517468939
 30
0.0
 11
-2.499999999999945
 21
-0.0000000000000006
 31
0.0
210
0.0
220
0.0
230
1.0
 40
0.8829475928589205
 41
0.0
 42
6.283185307179586
  0
ELLIPSE
  5
1D05
330
85F
100
AcDbEntity
  8
OUTLINE
100
AcDbEllipse
 10
-289.4765271966713
 20
-1422.175434812326
 30
0.0
 11
2.5
 21
0.000000000000018
 31
0.0
210
0.0
220
0.0
230
1.0
 40
0.8829475928589276
 41
0.0154720872892655
 42
3.126120566300511
  0
ELLIPSE
  5
1D06
330
85F
100
AcDbEntity
  8
OUTLINE
100
AcDbEllipse
 10
-289.4765271966713
 20
-1280.903819954898
 30
0.0
 11
2.5
 21
-0.0000000000000095
 31
0.0
210
0.0
220
0.0
230
1.0
 40
0.8829475928589303
 41
0.0154720872887147
 42
3.126120566301127
  0
LINE
  5
1D07
330
85F
100
AcDbEntity
  8
OUTLINE
100
AcDbLine
 10
-295.4225267674297
 20
-1448.27133575935
 30
0.0
 11
-297.9765271966713
 21
-1446.01628722819
 31
0.0
  0
LINE
  5
1D08
330
85F
100
AcDbEntity
  8
OUTLINE
100
AcDbLine
 10
-295.4225267674297
 20
-1448.578610523618
 30
0.0
 11
-295.4225267674297
 21
-1448.27133575935
 31
0.0
  0
ELLIPSE
  5
1D09
330
85F
100
AcDbEntity
  8
OUTLINE
100
AcDbEllipse
 10
168.5234728033286
 20
-1422.175434812326
 30
0.0
 11
2.500000000000029
 21
0.0000000000000083
 31
0.0
210
0.0
220
0.0
230
1.0
 40
0.8829475928589317
 41
0.0154720872899538
 42
3.126120566299791
  0
ELLIPSE
  5
1D0A
330
85F
100
AcDbEntity
  8
OUTLINE
100
AcDbEllipse
 10
168.5234728033286
 20
-1280.9038199549
 30
0.0
 11
2.500000000000003
 21
0.0000000000000221
 31
0.0
210
0.0
220
0.0
230
1.0
 40
0.8829475928589289
 41
0.0154720872893039
 42
3.126120566300469
  0
LINE
  5
1D0B
330
85F
100
AcDbEntity
  8
OUTLINE
100
AcDbLine
 10
177.0234728033287
 20
-1446.01628722819
 30
0.0
 11
174.4694723740871
 21
-1448.271335759351
 31
0.0
  0
LINE
  5
1D0C
330
85F
100
AcDbEntity
  8
OUTLINE
100
AcDbLine
 10
174.4694723740944
 20
-1448.271335759345
 30
0.0
 11
174.4694723740944
 21
-1448.578610523612
 31
0.0
  0
DIMENSION
  5
1D0D
330
85F
100
AcDbEntity
  8
SIZE
  6
Continuous
100
AcDbDimension
  2
*D33
 10
168.5234728033286
 20
-1797.624986365332
 30
0.0
 11
-60.47652719667133
 21
-1797.624986365332
 31
0.0
 70
   160
 71
     5
 42
458.0
  3
STANDARD$0
100
AcDbAlignedDimension
 13
-289.4765271966713
 23
-1661.198610375719
 33
0.0
 14
168.5234728033286
 24
-1661.19861037572
 34
0.0
100
AcDbRotatedDimension
  0
LINE
  5
1D0E
330
85F
100
AcDbEntity
  8
NOTE
100
AcDbLine
 10
-289.4765271966713
 20
-1668.698610375719
 30
0.0
 11
-289.4765271966713
 21
-1653.698610375719
 31
0.0
  0
CIRCLE
  5
1D0F
330
85F
100
AcDbEntity
  8
FIX
100
AcDbCircle
 10
-289.4765271966713
 20
-1661.198610375719
 30
0.0
 40
3.0
  0
LINE
  5
1D10
330
85F
100
AcDbEntity
  8
NOTE
100
AcDbLine
 10
-296.9765271966713
 20
-1661.198610375719
 30
0.0
 11
-281.9765271966713
 21
-1661.198610375719
 31
0.0
  0
LINE
  5
1D11
330
85F
100
AcDbEntity
  8
NOTE
100
AcDbLine
 10
168.5234728033286
 20
-1668.69861037572
 30
0.0
 11
168.5234728033286
 21
-1653.69861037572
 31
0.0
  0
CIRCLE
  5
1D12
330
85F
100
AcDbEntity
  8
FIX
100
AcDbCircle
 10
168.5234728033286
 20
-1661.19861037572
 30
0.0
 40
3.0
  0
LINE
  5
1D13
330
85F
100
AcDbEntity
  8
NOTE
100
AcDbLine
 10
161.0234728033286
 20
-1661.19861037572
 30
0.0
 11
176.0234728033287
 21
-1661.19861037572
 31
0.0
  0
DIMENSION
  5
1D14
330
85F
100
AcDbEntity
  8
SIZE
  6
Continuous
100
AcDbDimension
  2
*D34
 10
178.0234728033286
 20
-1910.489803829834
 30
0.0
 11
-60.47652719667134
 21
-1868.489803829834
 31
0.0
 70
    32
 71
     5
 42
477.0
  3
STANDARD$0
100
AcDbAlignedDimension
 13
-298.9765271966713
 23
-1671.198610375719
 33
0.0
 14
178.0234728033287
 24
-1671.19861037572
 34
0.0
100
AcDbRotatedDimension
  0
LINE
  5
1D15
330
85F
100
AcDbEntity
  8
NOTE
100
AcDbLine
 10
168.5234728033286
 20
-1210.698610375719
 30
0.0
 11
168.5234728033286
 21
-1195.698610375719
 31
0.0
  0
LINE
  5
1D16
330
85F
100
AcDbEntity
  8
NOTE
100
AcDbLine
 10
161.0234728033286
 20
-1203.198610375719
 30
0.0
 11
176.0234728033287
 21
-1203.198610375719
 31
0.0
  0
LINE
  5
1D17
330
85F
100
AcDbEntity
  8
NOTE
100
AcDbLine
 10
-289.4765271966713
 20
-1210.698610375719
 30
0.0
 11
-289.4765271966713
 21
-1195.698610375719
 31
0.0
  0
LINE
  5
1D18
330
85F
100
AcDbEntity
  8
NOTE
100
AcDbLine
 10
-296.9765271966713
 20
-1203.198610375719
 30
0.0
 11
-281.9765271966713
 21
-1203.198610375719
 31
0.0
  0
DIMENSION
  5
1D19
330
85F
100
AcDbEntity
  8
SIZE
  6
Continuous
100
AcDbDimension
  2
*D35
 10
-396.8070397315277
 20
-1661.198610375719
 30
0.0
 11
-396.8070397315274
 21
-1432.198610375726
 31
0.0
 70
   160
 71
     5
 42
458.0
  3
STANDARD$0
100
AcDbAlignedDimension
 13
-296.9765271966713
 23
-1203.198610375719
 33
0.0
 14
-296.9765271966713
 24
-1661.198610375719
 34
0.0
 50
90.0
100
AcDbRotatedDimension
  0
DIMENSION
  5
1D1A
330
85F
100
AcDbEntity
  8
SIZE
  6
Continuous
100
AcDbDimension
  2
*D36
 10
-501.6189894792729
 20
-1671.198610375719
 30
0.0
 11
-543.6189894792727
 21
-1429.798610375718
 31
0.0
 70
    32
 71
     5
 42
482.8000000000019
  3
STANDARD$0
100
AcDbAlignedDimension
 13
-297.9765271966713
 23
-1188.398610375717
 33
0.0
 14
-298.9765271966713
 24
-1671.198610375719
 34
0.0
 50
90.0
100
AcDbRotatedDimension
  0
LINE
  5
1D1B
330
85F
100
AcDbEntity
  8
BASIS
  6
DASHDOT
 62
     6
100
AcDbLine
 10
-60.47652719667133
 20
-1704.798610375718
 30
0.0
 11
-60.47652719667133
 21
-1154.798610375718
 31
0.0
  0
LINE
  5
1D1C
330
85F
100
AcDbEntity
  8
BASIS
  6
DASHDOT
 62
     6
100
AcDbLine
 10
227.0234728033287
 20
-1429.798610375711
 30
0.0
 11
-347.9765271966713
 21
-1429.798610375711
 31
0.0
  0
LINE
  5
1D1D
330
85F
100
AcDbEntity
  8
ARRANGE
  6
Continuous
 62
     1
100
AcDbLine
 10
-77.16064476107897
 20
-1446.482727940119
 30
0.0
 11
-43.79240963227096
 21
-1413.114492811311
 31
0.0
  0
LINE
  5
1D1E
330
85F
100
AcDbEntity
  8
ARRANGE
  6
Continuous
 62
     1
100
AcDbLine
 10
-77.16064476107897
 20
-1413.114492811311
 30
0.0
 11
-43.79240963227096
 21
-1446.482727940119
 31
0.0
  0
CIRCLE
  5
1D1F
330
85F
100
AcDbEntity
  8
ARRANGE
100
AcDbCircle
 10
-60.47652719667133
 20
-1429.798610375715
 30
0.0
 40
15.0
  0
LEADER
  5
1D20
330
85F
100
AcDbEntity
  8
NOTE
100
AcDbLeader
  3
STANDARD
 73
     0
 74
     0
 75
     1
 40
64.00000000000002
 41
228.7542857142856
 76
     3
 10
168.5234728033286
 20
-1661.19861037572
 30
0.0
 10
242.2862735905404
 20
-1565.671515317707
 30
0.0
 10
254.2862735905404
 20
-1565.671515317707
 30
0.0
340
1D21
213
0.0
223
32.0
233
0.0
1001
ACAD
1000
DSTYLE
1002
{
1070
    41
1040
12.0
1070
    42
1040
20.0
1070
    43
1040
200.0
1070
    44
1040
20.0
1070
    73
1070
     0
1070
    74
1070
     0
1070
    77
1070
     1
1070
    78
1070
     8
1070
   140
1040
64.0
1070
   147
1040
50.0
1070
   172
1070
     1
1070
   174
1070
     1
1070
   275
1070
     0
1070
   284
1070
     0
1070
   285
1070
     0
1070
   286
1070
     0
1070
   341
1005
AB7
1070
   342
1005
AB2
1002
}
  0
MTEXT
  5
1D21
102
{ACAD_REACTORS
330
1D20
102
}
330
85F
100
AcDbEntity
  8
NOTE
100
AcDbMText
 10
304.2862735905404
 20
-1547.671515317707
 30
0.0
 40
64.0
 41
0.0
 71
     7
 72
     1
  1
4×φ6
 73
     1
 44
1.0
  0
MTEXT
  5
1D22
330
85F
100
AcDbEntity
  8
ETC
100
AcDbMText
 10
273.928922696938
 20
-957.0680848107649
 30
0.0
 40
64.0
 41
0.0
 71
     1
 72
     5
  1
{\Fromans,extfont|c128;\W0.9;AGJS-17F-3}
  7
ADESK1
 73
     1
 44
1.0
  0
VIEWPORT
  5
1996
102
{ACAD_XDICTIONARY
360
1997
102
}
330
85B
100
AcDbEntity
 67
     1
  8
0
  6
Continuous
100
AcDbViewport
 10
5.249999639556165
 20
3.999999883606678
 30
0.0
 40
13.25652035062537
 41
8.992999745766949
 68
     1
 69
     1
 12
5.249999639556165
 22
3.999999883606678
 13
0.0
 23
0.0
 14
10.0
 24
10.0
 15
10.0
 25
10.0
 16
0.0
 26
0.0
 36
1.0
 17
0.0
 27
0.0
 37
0.0
 42
50.0
 43
0.0
 44
0.0
 45
8.992999745766949
 50
0.0
 51
0.0
 72
   100
 90
   819232
  1

281
     0
 71
     1
 74
     0
110
0.0
120
0.0
130
0.0
111
1.0
121
0.0
131
0.0
112
0.0
122
1.0
132
0.0
 79
     0
146
0.0
170
     0
  0
ENDSEC
  0
SECTION
  2
OBJECTS
  0
DICTIONARY
  5
84D
330
0
100
AcDbDictionary
281
     1
  3
ACAD_2007HEADERVARS_RT
350
1D5B
  3
ACAD_COLOR
350
1036
  3
ACAD_GROUP
350
84E
  3
ACAD_LAYOUT
350
85A
  3
ACAD_MATERIAL
350
1035
  3
ACAD_MLEADERSTYLE
350
13BE
  3
ACAD_MLINESTYLE
350
857
  3
ACAD_PLOTSETTINGS
350
859
  3
ACAD_PLOTSTYLENAME
350
B82
  3
ACAD_SCALELIST
350
139C
  3
ACAD_TABLESTYLE
350
1037
  3
ACAD_VISUALSTYLE
350
138B
  3
AcadDim
350
D58
  3
ACDB_RECOMPOSE_DATA
350
1518
  3
AcDbVariableDictionary
350
B87
  3
AcmDictionary
350
10FD
  3
AMG
350
103C
  3
AMGSNAPSETTINGS
350
1153
1001
ACAD
1000
TREAT_AS_HARD
1070
     0
  0
DICTIONARY
  5
16C2
330
843
100
AcDbDictionary
280
     1
281
     1
  3
ACAD_LAYERSTATES
360
16C3
  0
DICTIONARY
  5
14FD
330
851
100
AcDbDictionary
280
     1
281
     1
  3
ADSK_XREC_LAYER_RECONCILED
360
14FE
  0
DICTIONARY
  5
14FF
330
863
100
AcDbDictionary
280
     1
281
     1
  3
ADSK_XREC_LAYER_RECONCILED
360
1500
  0
DICTIONARY
  5
1501
330
866
100
AcDbDictionary
280
     1
281
     1
  3
ADSK_XREC_LAYER_RECONCILED
360
1502
  0
DICTIONARY
  5
1503
330
867
100
AcDbDictionary
280
     1
281
     1
  3
ADSK_XREC_LAYER_RECONCILED
360
1504
  0
DICTIONARY
  5
1505
330
868
100
AcDbDictionary
280
     1
281
     1
  3
ADSK_XREC_LAYER_RECONCILED
360
1506
  0
DICTIONARY
  5
1507
330
869
100
AcDbDictionary
280
     1
281
     1
  3
ADSK_XREC_LAYER_RECONCILED
360
1508
  0
DICTIONARY
  5
1509
330
86B
100
AcDbDictionary
280
     1
281
     1
  3
ADSK_XREC_LAYER_RECONCILED
360
150A
  0
DICTIONARY
  5
150B
330
86C
100
AcDbDictionary
280
     1
281
     1
  3
ADSK_XREC_LAYER_RECONCILED
360
150C
  0
DICTIONARY
  5
150D
330
86D
100
AcDbDictionary
280
     1
281
     1
  3
ADSK_XREC_LAYER_RECONCILED
360
150E
  0
DICTIONARY
  5
150F
330
86E
100
AcDbDictionary
280
     1
281
     1
  3
ADSK_XREC_LAYER_RECONCILED
360
1510
  0
DICTIONARY
  5
1511
330
86F
100
AcDbDictionary
280
     1
281
     1
  3
ADSK_XREC_LAYER_RECONCILED
360
1512
  0
DICTIONARY
  5
B4F
330
85F
100
AcDbDictionary
280
     1
281
     1
  3
ACAD_INDEX
360
115A
  3
ACAD_LAYOUTSELFREF
360
B50
  3
ACAD_SORTENTS
360
1366
  0
DICTIONARY
  5
B4D
330
85B
100
AcDbDictionary
280
     1
281
     1
  3
ACAD_LAYOUTSELFREF
360
B4E
  0
DICTIONARY
  5
1997
330
1996
100
AcDbDictionary
280
     1
281
     1
  3
ASDK_XREC_ANNOTATION_SCALE_INFO
360
1998
  0
DICTIONARY
  5
1D5B
102
{ACAD_REACTORS
330
84D
102
}
330
84D
100
AcDbDictionary
281
     1
  3
DIMARCSYM
350
1D5C
  3
DIMLTEX1
350
1D5E
  3
DIMLTEX2
350
1D5F
  3
DIMLTYPE
350
1D5D
  0
DICTIONARY
  5
1036
102
{ACAD_REACTORS
330
84D
102
}
330
84D
100
AcDbDictionary
281
     1
  0
DICTIONARY
  5
84E
102
{ACAD_REACTORS
330
84D
102
}
330
84D
100
AcDbDictionary
281
     1
1001
ACAD
1000
TREAT_AS_HARD
1070
     0
  0
DICTIONARY
  5
85A
102
{ACAD_REACTORS
330
84D
102
}
330
84D
100
AcDbDictionary
281
     1
  3
Model
350
B84
  3
ﾚｲｱｳﾄ1
350
B85
1001
ACAD
1000
TREAT_AS_HARD
1070
     0
  0
DICTIONARY
  5
1035
102
{ACAD_REACTORS
330
84D
102
}
330
84D
100
AcDbDictionary
281
     1
  3
ByBlock
350
137B
  3
ByLayer
350
1373
  3
Global
350
1383
  0
DICTIONARY
  5
13BE
102
{ACAD_REACTORS
330
84D
102
}
330
84D
100
AcDbDictionary
281
     1
  3
Standard
350
13BF
  0
DICTIONARY
  5
857
102
{ACAD_REACTORS
330
84D
102
}
330
84D
100
AcDbDictionary
281
     1
  3
STANDARD
350
858
1001
ACAD
1000
TREAT_AS_HARD
1070
     0
  0
DICTIONARY
  5
859
102
{ACAD_REACTORS
330
84D
102
}
330
84D
100
AcDbDictionary
281
     1
1001
ACAD
1000
TREAT_AS_HARD
1070
     0
  0
ACDBDICTIONARYWDFLT
  5
B82
102
{ACAD_REACTORS
330
84D
102
}
330
84D
100
AcDbDictionary
281
     1
  3
Normal
350
B83
100
AcDbDictionaryWithDefault
340
B83
  0
DICTIONARY
  5
139C
102
{ACAD_REACTORS
330
84D
102
}
330
84D
100
AcDbDictionary
281
     1
  3
A0
350
139D
  3
A1
350
139E
  3
A2
350
139F
  3
A3
350
13A0
  3
A4
350
13A1
  3
A5
350
13A2
  3
A6
350
13A3
  3
A7
350
13A4
  3
A8
350
13A5
  3
A9
350
13A6
  3
B0
350
13A7
  3
B1
350
13A8
  3
B2
350
13A9
  3
B3
350
13AA
  3
B4
350
13AB
  3
B5
350
13AC
  3
B6
350
13AD
  3
B7
350
13AE
  3
B8
350
13AF
  3
B9
350
13B0
  3
C0
350
13B1
  3
C1
350
13B2
  3
C2
350
13B3
  3
C3
350
13B4
  3
C4
350
13B5
  3
C5
350
13B6
  3
C6
350
13B7
  3
C7
350
13B8
  3
C8
350
13B9
  3
C9
350
13BA
  3
D0
350
13BB
  3
D1
350
13BC
  3
D2
350
13BD
  0
DICTIONARY
  5
1037
102
{ACAD_REACTORS
330
84D
102
}
330
84D
100
AcDbDictionary
281
     1
  3
Standard
350
1038
  0
DICTIONARY
  5
138B
102
{ACAD_REACTORS
330
84D
102
}
330
84D
100
AcDbDictionary
281
     1
  3
2dWireframe
350
1391
  3
3D Hidden
350
1393
  3
3dWireframe
350
1392
  3
Basic
350
1390
  3
Brighten
350
1397
  3
ColorChange
350
139B
  3
Conceptual
350
1394
  3
Dim
350
1396
  3
Facepattern
350
139A
  3
Flat
350
138C
  3
FlatWithEdges
350
138D
  3
Gouraud
350
138E
  3
GouraudWithEdges
350
138F
  3
Linepattern
350
1399
  3
Realistic
350
1395
  3
Thicken
350
1398
  0
XRECORD
  5
D58
102
{ACAD_REACTORS
330
84D
102
}
330
84D
100
AcDbXrecord
280
     1
 90
   990106
  3

 60
     0
 61
     0
 62
     1
 63
     3
 64
     0
 65
     0
 66
     0
 67
     3
 68
     1
 69
     0
 70
     0
 71
     0
 72
     0
 40
0.0
170
     0
340
D5A
  0
XRECORD
  5
1518
102
{ACAD_REACTORS
330
84D
102
}
330
84D
100
AcDbXrecord
280
     1
 90
        1
330
1038
  0
DICTIONARY
  5
B87
102
{ACAD_REACTORS
330
84D
102
}
330
84D
100
AcDbDictionary
281
     1
  3
CANNOSCALE
350
1514
  3
CMLEADERSTYLE
350
1513
  3
CTABLESTYLE
350
1168
  3
DIMASSOC
350
B88
  3
INDEXCTL
350
1169
  3
PROJECTNAME
350
116A
  3
SORTENTS
350
1515
  0
DICTIONARY
  5
10FD
102
{ACAD_REACTORS
330
84D
102
}
330
84D
100
AcDbDictionary
281
     1
  3
AcmStdDictionary
350
1109
  3
AMDTSECTSYM_ARROWCOLOR
350
1129
  0
DICTIONARY
  5
103C
102
{ACAD_REACTORS
330
84D
102
}
330
84D
100
AcDbDictionary
281
     1
  3
AcMgSettings
350
103D
  0
DICTIONARY
  5
1153
102
{ACAD_REACTORS
330
84D
102
}
330
84D
100
AcDbDictionary
281
     1
  3
DIMENSION
350
1158
  3
FEA
350
1157
  3
HATCH (1)
350
1154
  3
HATCH (2)
350
1155
  3
SIMPLE WELD
350
1159
  3
SYMBOLS
350
1156
  0
DICTIONARY
  5
16C3
102
{ACAD_REACTORS
330
16C2
102
}
330
16C2
100
AcDbDictionary
281
     1
  0
XRECORD
  5
14FE
102
{ACAD_REACTORS
330
14FD
102
}
330
14FD
100
AcDbXrecord
280
     1
290
     1
  0
XRECORD
  5
1500
102
{ACAD_REACTORS
330
14FF
102
}
330
14FF
100
AcDbXrecord
280
     1
290
     1
  0
XRECORD
  5
1502
102
{ACAD_REACTORS
330
1501
102
}
330
1501
100
AcDbXrecord
280
     1
290
     1
  0
XRECORD
  5
1504
102
{ACAD_REACTORS
330
1503
102
}
330
1503
100
AcDbXrecord
280
     1
290
     1
  0
XRECORD
  5
1506
102
{ACAD_REACTORS
330
1505
102
}
330
1505
100
AcDbXrecord
280
     1
290
     1
  0
XRECORD
  5
1508
102
{ACAD_REACTORS
330
1507
102
}
330
1507
100
AcDbXrecord
280
     1
290
     1
  0
XRECORD
  5
150A
102
{ACAD_REACTORS
330
1509
102
}
330
1509
100
AcDbXrecord
280
     1
290
     1
  0
XRECORD
  5
150C
102
{ACAD_REACTORS
330
150B
102
}
330
150B
100
AcDbXrecord
280
     1
290
     1
  0
XRECORD
  5
150E
102
{ACAD_REACTORS
330
150D
102
}
330
150D
100
AcDbXrecord
280
     1
290
     1
  0
XRECORD
  5
1510
102
{ACAD_REACTORS
330
150F
102
}
330
150F
100
AcDbXrecord
280
     1
290
     1
  0
XRECORD
  5
1512
102
{ACAD_REACTORS
330
1511
102
}
330
1511
100
AcDbXrecord
280
     1
290
     1
  0
DICTIONARY
  5
115A
102
{ACAD_REACTORS
330
B4F
102
}
330
B4F
100
AcDbDictionary
281
     1
  3
*A1
350
115B
  0
XRECORD
  5
B50
102
{ACAD_REACTORS
330
B4F
102
}
330
B4F
100
AcDbXrecord
280
     1
340
85F
  0
SORTENTSTABLE
  5
1366
102
{ACAD_REACTORS
330
B4F
102
}
330
B4F
100
AcDbSortentsTable
330
85F
331
953
  5
953
331
954
  5
954
331
955
  5
955
331
956
  5
956
331
957
  5
957
331
958
  5
958
  0
XRECORD
  5
B4E
102
{ACAD_REACTORS
330
B4D
102
}
330
B4D
100
AcDbXrecord
280
     1
340
85B
  0
XRECORD
  5
1998
102
{ACAD_REACTORS
330
1997
102
}
330
1997
100
AcDbXrecord
280
     1
 90
        1
340
139D
  0
XRECORD
  5
1D5C
102
{ACAD_REACTORS
330
1D5B
102
}
330
1D5B
100
AcDbXrecord
280
     1
 70
     1
  0
XRECORD
  5
1D5E
102
{ACAD_REACTORS
330
1D5B
102
}
330
1D5B
100
AcDbXrecord
280
     1
340
854
  0
XRECORD
  5
1D5F
102
{ACAD_REACTORS
330
1D5B
102
}
330
1D5B
100
AcDbXrecord
280
     1
340
854
  0
XRECORD
  5
1D5D
102
{ACAD_REACTORS
330
1D5B
102
}
330
1D5B
100
AcDbXrecord
280
     1
340
854
  0
LAYOUT
  5
B84
102
{ACAD_REACTORS
330
85A
102
}
330
85A
100
AcDbPlotSettings
  1

  2
none_device
  4
Letter_(8.50_x_11.00_Inches)
  6

 40
6.349999904632567
 41
6.349999904632567
 42
6.350006103515625
 43
6.350006103515625
 44
215.8999938964844
 45
279.3999938964844
 46
0.0
 47
0.0
 48
0.0
 49
0.0
140
0.0
141
0.0
142
1.0
143
104.2323265438138
 70
 11952
 72
     0
 73
     1
 74
     0
  7
monochrome.ctb
 75
     0
147
0.0095939525976104
 76
     0
 77
     2
 78
   300
148
22996.38203201125
149
17812.13747292311
100
AcDbLayout
  1
Model
 70
     1
 71
     0
 10
0.0
 20
0.0
 11
12.0
 21
9.0
 12
0.0
 22
0.0
 32
0.0
 14
0.0
 24
0.0
 34
0.0
 15
0.0
 25
0.0
 35
0.0
146
0.0
 13
0.0
 23
0.0
 33
0.0
 16
1.0
 26
0.0
 36
0.0
 17
0.0
 27
1.0
 37
0.0
 76
     0
330
85F
331
136E
1001
ACAD_PSEXT
1000
なし
1000
なし
1000
適切ではありません
1000
新しいプロッタ環境設定名を選択しない限り、レイアウトは印刷されません。
1070
     0
  0
LAYOUT
  5
B85
102
{ACAD_XDICTIONARY
360
19A0
102
}
102
{ACAD_REACTORS
330
85A
102
}
330
85A
100
AcDbPlotSettings
  1

  2
none_device
  4
Letter_(8.50_x_11.00_Inches)
  6

 40
6.349999904632568
 41
6.349999904632568
 42
6.350006103515625
 43
6.350006103515625
 44
215.8999938964844
 45
279.3999938964844
 46
0.0
 47
0.0
 48
0.0
 49
0.0
140
0.0
141
0.0
142
1.0
143
1.0
 70
   688
 72
     0
 73
     1
 74
     5
  7
monochrome.ctb
 75
    16
147
1.0
 76
     0
 77
     2
 78
   300
148
0.0
149
0.0
100
AcDbLayout
  1
ﾚｲｱｳﾄ1
 70
     1
 71
     1
 10
0.0
 20
0.0
 11
12.0
 21
9.0
 12
0.0
 22
0.0
 32
0.0
 14
1.000000000000000E+20
 24
1.000000000000000E+20
 34
1.000000000000000E+20
 15
-1.000000000000000E+20
 25
-1.000000000000000E+20
 35
-1.000000000000000E+20
146
0.0
 13
0.0
 23
0.0
 33
0.0
 16
1.0
 26
0.0
 36
0.0
 17
0.0
 27
1.0
 37
0.0
 76
     0
330
85B
331
1996
1001
ACAD_PSEXT
1000
なし
1000
なし
1000
適切ではありません
1000
新しいプロッタ環境設定名を選択しない限り、レイアウトは印刷されません。
1070
     0
  0
MATERIAL
  5
137B
102
{ACAD_XDICTIONARY
360
137C
102
}
102
{ACAD_REACTORS
330
1035
102
}
330
1035
100
AcDbMaterial
  1
ByBlock
 72
     0
 43
0.0208333333333333
 43
0.0
 43
0.0
 43
0.0
 43
0.0
 43
0.0208333333333333
 43
0.0
 43
0.0
 43
0.0
 43
0.0
 43
1.0
 43
0.0
 43
0.0
 43
0.0
 43
0.0
 43
1.0
 77
     0
 47
0.0208333333333333
 47
0.0
 47
0.0
 47
0.0
 47
0.0
 47
0.0208333333333333
 47
0.0
 47
0.0
 47
0.0
 47
0.0
 47
1.0
 47
0.0
 47
0.0
 47
0.0
 47
0.0
 47
1.0
171
     0
 49
0.0208333333333333
 49
0.0
 49
0.0
 49
0.0
 49
0.0
 49
0.0208333333333333
 49
0.0
 49
0.0
 49
0.0
 49
0.0
 49
1.0
 49
0.0
 49
0.0
 49
0.0
 49
0.0
 49
1.0
175
     0
142
0.0208333333333333
142
0.0
142
0.0
142
0.0
142
0.0
142
0.0208333333333333
142
0.0
142
0.0
142
0.0
142
0.0
142
1.0
142
0.0
142
0.0
142
0.0
142
0.0
142
1.0
179
     0
144
0.0208333333333333
144
0.0
144
0.0
144
0.0
144
0.0
144
0.0208333333333333
144
0.0
144
0.0
144
0.0
144
0.0
144
1.0
144
0.0
144
0.0
144
0.0
144
0.0
144
1.0
147
0.0208333333333333
147
0.0
147
0.0
147
0.0
147
0.0
147
0.0208333333333333
147
0.0
147
0.0
147
0.0
147
0.0
147
1.0
147
0.0
147
0.0
147
0.0
147
0.0
147
1.0
  0
MATERIAL
  5
1373
102
{ACAD_XDICTIONARY
360
1374
102
}
102
{ACAD_REACTORS
330
1035
102
}
330
1035
100
AcDbMaterial
  1
ByLayer
 72
     0
 43
0.0208333333333333
 43
0.0
 43
0.0
 43
0.0
 43
0.0
 43
0.0208333333333333
 43
0.0
 43
0.0
 43
0.0
 43
0.0
 43
1.0
 43
0.0
 43
0.0
 43
0.0
 43
0.0
 43
1.0
 77
     0
 47
0.0208333333333333
 47
0.0
 47
0.0
 47
0.0
 47
0.0
 47
0.0208333333333333
 47
0.0
 47
0.0
 47
0.0
 47
0.0
 47
1.0
 47
0.0
 47
0.0
 47
0.0
 47
0.0
 47
1.0
171
     0
 49
0.0208333333333333
 49
0.0
 49
0.0
 49
0.0
 49
0.0
 49
0.0208333333333333
 49
0.0
 49
0.0
 49
0.0
 49
0.0
 49
1.0
 49
0.0
 49
0.0
 49
0.0
 49
0.0
 49
1.0
175
     0
142
0.0208333333333333
142
0.0
142
0.0
142
0.0
142
0.0
142
0.0208333333333333
142
0.0
142
0.0
142
0.0
142
0.0
142
1.0
142
0.0
142
0.0
142
0.0
142
0.0
142
1.0
179
     0
144
0.0208333333333333
144
0.0
144
0.0
144
0.0
144
0.0
144
0.0208333333333333
144
0.0
144
0.0
144
0.0
144
0.0
144
1.0
144
0.0
144
0.0
144
0.0
144
0.0
144
1.0
147
0.0208333333333333
147
0.0
147
0.0
147
0.0
147
0.0
147
0.0208333333333333
147
0.0
147
0.0
147
0.0
147
0.0
147
1.0
147
0.0
147
0.0
147
0.0
147
0.0
147
1.0
  0
MATERIAL
  5
1383
102
{ACAD_XDICTIONARY
360
1384
102
}
102
{ACAD_REACTORS
330
1035
102
}
330
1035
100
AcDbMaterial
  1
Global
 72
     0
 43
0.0208333333333333
 43
0.0
 43
0.0
 43
0.0
 43
0.0
 43
0.0208333333333333
 43
0.0
 43
0.0
 43
0.0
 43
0.0
 43
1.0
 43
0.0
 43
0.0
 43
0.0
 43
0.0
 43
1.0
 77
     0
 47
0.0208333333333333
 47
0.0
 47
0.0
 47
0.0
 47
0.0
 47
0.0208333333333333
 47
0.0
 47
0.0
 47
0.0
 47
0.0
 47
1.0
 47
0.0
 47
0.0
 47
0.0
 47
0.0
 47
1.0
171
     0
 49
0.0208333333333333
 49
0.0
 49
0.0
 49
0.0
 49
0.0
 49
0.0208333333333333
 49
0.0
 49
0.0
 49
0.0
 49
0.0
 49
1.0
 49
0.0
 49
0.0
 49
0.0
 49
0.0
 49
1.0
175
     0
142
0.0208333333333333
142
0.0
142
0.0
142
0.0
142
0.0
142
0.0208333333333333
142
0.0
142
0.0
142
0.0
142
0.0
142
1.0
142
0.0
142
0.0
142
0.0
142
0.0
142
1.0
179
     0
144
0.0208333333333333
144
0.0
144
0.0
144
0.0
144
0.0
144
0.0208333333333333
144
0.0
144
0.0
144
0.0
144
0.0
144
1.0
144
0.0
144
0.0
144
0.0
144
0.0
144
1.0
147
0.0208333333333333
147
0.0
147
0.0
147
0.0
147
0.0
147
0.0208333333333333
147
0.0
147
0.0
147
0.0
147
0.0
147
1.0
147
0.0
147
0.0
147
0.0
147
0.0
147
1.0
  0
MLEADERSTYLE
  5
13BF
102
{ACAD_REACTORS
330
13BE
102
}
330
13BE
100
AcDbMLeaderStyle
170
     2
171
     1
172
     0
 90
        2
 40
0.0
 41
0.0
173
     1
 91
-1056964608
340
854
 92
       -2
290
     1
 42
0.09
291
     1
 43
0.36
  3
Standard
 44
0.18
300

342
852
174
     1
178
     6
175
     1
176
     0
 93
-1056964608
 45
0.18
292
     0
297
     0
 46
0.18
 94
-1056964608
 47
1.0
 49
1.0
140
1.0
293
     1
141
0.0
294
     1
177
     0
142
1.0
295
     0
296
     0
143
0.125
1001
ACAD_MLEADERVER
1070
     2
  0
MLINESTYLE
  5
858
102
{ACAD_REACTORS
330
857
102
}
330
857
100
AcDbMlineStyle
  2
STANDARD
 70
     0
  3

 62
   256
 51
90.0
 52
90.0
 71
     2
 49
0.5
 62
   256
  6
BYLAYER
 49
-0.5
 62
   256
  6
BYLAYER
  0
ACDBPLACEHOLDER
  5
B83
102
{ACAD_REACTORS
330
B82
102
}
330
B82
  0
SCALE
  5
139D
102
{ACAD_REACTORS
330
139C
102
}
330
139C
100
AcDbScale
 70
     0
300
1:1
140
1.0
141
1.0
290
     1
  0
SCALE
  5
139E
102
{ACAD_REACTORS
330
139C
102
}
330
139C
100
AcDbScale
 70
     0
300
1:2
140
1.0
141
2.0
290
     0
  0
SCALE
  5
139F
102
{ACAD_REACTORS
330
139C
102
}
330
139C
100
AcDbScale
 70
     0
300
1:4
140
1.0
141
4.0
290
     0
  0
SCALE
  5
13A0
102
{ACAD_REACTORS
330
139C
102
}
330
139C
100
AcDbScale
 70
     0
300
1:5
140
1.0
141
5.0
290
     0
  0
SCALE
  5
13A1
102
{ACAD_REACTORS
330
139C
102
}
330
139C
100
AcDbScale
 70
     0
300
1:8
140
1.0
141
8.0
290
     0
  0
SCALE
  5
13A2
102
{ACAD_REACTORS
330
139C
102
}
330
139C
100
AcDbScale
 70
     0
300
1:10
140
1.0
141
10.0
290
     0
  0
SCALE
  5
13A3
102
{ACAD_REACTORS
330
139C
102
}
330
139C
100
AcDbScale
 70
     0
300
1:16
140
1.0
141
16.0
290
     0
  0
SCALE
  5
13A4
102
{ACAD_REACTORS
330
139C
102
}
330
139C
100
AcDbScale
 70
     0
300
1:20
140
1.0
141
20.0
290
     0
  0
SCALE
  5
13A5
102
{ACAD_REACTORS
330
139C
102
}
330
139C
100
AcDbScale
 70
     0
300
1:30
140
1.0
141
30.0
290
     0
  0
SCALE
  5
13A6
102
{ACAD_REACTORS
330
139C
102
}
330
139C
100
AcDbScale
 70
     0
300
1:40
140
1.0
141
40.0
290
     0
  0
SCALE
  5
13A7
102
{ACAD_REACTORS
330
139C
102
}
330
139C
100
AcDbScale
 70
     0
300
1:50
140
1.0
141
50.0
290
     0
  0
SCALE
  5
13A8
102
{ACAD_REACTORS
330
139C
102
}
330
139C
100
AcDbScale
 70
     0
300
1:100
140
1.0
141
100.0
290
     0
  0
SCALE
  5
13A9
102
{ACAD_REACTORS
330
139C
102
}
330
139C
100
AcDbScale
 70
     0
300
2:1
140
2.0
141
1.0
290
     0
  0
SCALE
  5
13AA
102
{ACAD_REACTORS
330
139C
102
}
330
139C
100
AcDbScale
 70
     0
300
4:1
140
4.0
141
1.0
290
     0
  0
SCALE
  5
13AB
102
{ACAD_REACTORS
330
139C
102
}
330
139C
100
AcDbScale
 70
     0
300
8:1
140
8.0
141
1.0
290
     0
  0
SCALE
  5
13AC
102
{ACAD_REACTORS
330
139C
102
}
330
139C
100
AcDbScale
 70
     0
300
10:1
140
10.0
141
1.0
290
     0
  0
SCALE
  5
13AD
102
{ACAD_REACTORS
330
139C
102
}
330
139C
100
AcDbScale
 70
     0
300
100:1
140
100.0
141
1.0
290
     0
  0
SCALE
  5
13AE
102
{ACAD_REACTORS
330
139C
102
}
330
139C
100
AcDbScale
 70
     0
300
1/128" = 1'-0"
140
0.0078125
141
12.0
290
     0
  0
SCALE
  5
13AF
102
{ACAD_REACTORS
330
139C
102
}
330
139C
100
AcDbScale
 70
     0
300
1/64" = 1'-0"
140
0.015625
141
12.0
290
     0
  0
SCALE
  5
13B0
102
{ACAD_REACTORS
330
139C
102
}
330
139C
100
AcDbScale
 70
     0
300
1/32" = 1'-0"
140
0.03125
141
12.0
290
     0
  0
SCALE
  5
13B1
102
{ACAD_REACTORS
330
139C
102
}
330
139C
100
AcDbScale
 70
     0
300
1/16" = 1'-0"
140
0.0625
141
12.0
290
     0
  0
SCALE
  5
13B2
102
{ACAD_REACTORS
330
139C
102
}
330
139C
100
AcDbScale
 70
     0
300
3/32" = 1'-0"
140
0.09375
141
12.0
290
     0
  0
SCALE
  5
13B3
102
{ACAD_REACTORS
330
139C
102
}
330
139C
100
AcDbScale
 70
     0
300
1/8" = 1'-0"
140
0.125
141
12.0
290
     0
  0
SCALE
  5
13B4
102
{ACAD_REACTORS
330
139C
102
}
330
139C
100
AcDbScale
 70
     0
300
3/16" = 1'-0"
140
0.1875
141
12.0
290
     0
  0
SCALE
  5
13B5
102
{ACAD_REACTORS
330
139C
102
}
330
139C
100
AcDbScale
 70
     0
300
1/4" = 1'-0"
140
0.25
141
12.0
290
     0
  0
SCALE
  5
13B6
102
{ACAD_REACTORS
330
139C
102
}
330
139C
100
AcDbScale
 70
     0
300
3/8" = 1'-0"
140
0.375
141
12.0
290
     0
  0
SCALE
  5
13B7
102
{ACAD_REACTORS
330
139C
102
}
330
139C
100
AcDbScale
 70
     0
300
1/2" = 1'-0"
140
0.5
141
12.0
290
     0
  0
SCALE
  5
13B8
102
{ACAD_REACTORS
330
139C
102
}
330
139C
100
AcDbScale
 70
     0
300
3/4" = 1'-0"
140
0.75
141
12.0
290
     0
  0
SCALE
  5
13B9
102
{ACAD_REACTORS
330
139C
102
}
330
139C
100
AcDbScale
 70
     0
300
1" = 1'-0"
140
1.0
141
12.0
290
     0
  0
SCALE
  5
13BA
102
{ACAD_REACTORS
330
139C
102
}
330
139C
100
AcDbScale
 70
     0
300
1-1/2" = 1'-0"
140
1.5
141
12.0
290
     0
  0
SCALE
  5
13BB
102
{ACAD_REACTORS
330
139C
102
}
330
139C
100
AcDbScale
 70
     0
300
3" = 1'-0"
140
3.0
141
12.0
290
     0
  0
SCALE
  5
13BC
102
{ACAD_REACTORS
330
139C
102
}
330
139C
100
AcDbScale
 70
     0
300
6" = 1'-0"
140
6.0
141
12.0
290
     0
  0
SCALE
  5
13BD
102
{ACAD_REACTORS
330
139C
102
}
330
139C
100
AcDbScale
 70
     0
300
1'-0" = 1'-0"
140
12.0
141
12.0
290
     0
  0
TABLESTYLE
  5
1038
102
{ACAD_XDICTIONARY
360
1516
102
}
102
{ACAD_REACTORS
330
1037
102
}
330
1037
100
AcDbTableStyle
  3
Standard
 70
     0
 71
     0
 40
0.06
 41
0.06
280
     0
281
     0
  7
STANDARD
140
0.18
170
     2
 62
     0
 63
     7
283
     0
274
    -2
284
     1
 64
     0
275
    -2
285
     1
 65
     0
276
    -2
286
     1
 66
     0
277
    -2
287
     1
 67
     0
278
    -2
288
     1
 68
     0
279
    -2
289
     1
 69
     0
  7
STANDARD
140
0.25
170
     5
 62
     0
 63
     7
283
     0
274
    -2
284
     1
 64
     0
275
    -2
285
     1
 65
     0
276
    -2
286
     1
 66
     0
277
    -2
287
     1
 67
     0
278
    -2
288
     1
 68
     0
279
    -2
289
     1
 69
     0
  7
STANDARD
140
0.18
170
     5
 62
     0
 63
     7
283
     0
274
    -2
284
     1
 64
     0
275
    -2
285
     1
 65
     0
276
    -2
286
     1
 66
     0
277
    -2
287
     1
 67
     0
278
    -2
288
     1
 68
     0
279
    -2
289
     1
 69
     0
  0
VISUALSTYLE
  5
1391
102
{ACAD_REACTORS
330
138B
102
}
330
138B
100
AcDbVisualStyle
  2
2dWireframe
 70
     4
 71
     0
 72
     2
 73
     0
 90
        0
 40
-0.6
 41
-30.0
 62
     5
 63
     7
 74
     1
 91
        4
 64
     7
 65
   257
 75
     1
175
     1
 42
1.0
 92
        0
 66
   257
 43
1.0
 76
     1
 77
     6
 78
     2
 67
     7
 79
     5
170
     0
171
     0
290
     0
174
     0
 93
        1
 44
0.0
173
     0
291
     0
 45
0.0
1001
ACAD
1000
AcDbSavedByObjectVersion
1070
     0
1000
AcDbSavedByObjectVersion
1070
     0
1000
AcDbSavedByObjectVersion
1070
     0
1000
AcDbSavedByObjectVersion
1070
     0
1000
AcDbSavedByObjectVersion
1070
     0
  0
VISUALSTYLE
  5
1393
102
{ACAD_REACTORS
330
138B
102
}
330
138B
100
AcDbVisualStyle
  2
3D Hidden
 70
     6
 71
     1
 72
     2
 73
     2
 90
        0
 40
-0.6
 41
-30.0
 62
     5
 63
     7
 74
     2
 91
        2
 64
     7
 65
   257
 75
     2
175
     1
 42
40.0
 92
        0
 66
   257
 43
1.0
 76
     1
 77
     6
 78
     2
 67
     7
 79
     3
170
     0
171
     0
290
     0
174
     0
 93
        1
 44
0.0
173
     0
291
     0
 45
0.0
1001
ACAD
1000
AcDbSavedByObjectVersion
1070
     0
1000
AcDbSavedByObjectVersion
1070
     0
1000
AcDbSavedByObjectVersion
1070
     0
1000
AcDbSavedByObjectVersion
1070
     0
1000
AcDbSavedByObjectVersion
1070
     0
  0
VISUALSTYLE
  5
1392
102
{ACAD_REACTORS
330
138B
102
}
330
138B
100
AcDbVisualStyle
  2
3dWireframe
 70
     5
 71
     0
 72
     2
 73
     0
 90
        0
 40
-0.6
 41
-30.0
 62
     5
 63
     7
 74
     1
 91
        4
 64
     7
 65
   257
 75
     1
175
     1
 42
1.0
 92
        0
 66
   257
 43
1.0
 76
     1
 77
     6
 78
     2
 67
     7
 79
     5
170
     0
171
     0
290
     0
174
     0
 93
        1
 44
0.0
173
     0
291
     0
 45
0.0
1001
ACAD
1000
AcDbSavedByObjectVersion
1070
     0
1000
AcDbSavedByObjectVersion
1070
     0
1000
AcDbSavedByObjectVersion
1070
     0
1000
AcDbSavedByObjectVersion
1070
     0
1000
AcDbSavedByObjectVersion
1070
     0
  0
VISUALSTYLE
  5
1390
102
{ACAD_REACTORS
330
138B
102
}
330
138B
100
AcDbVisualStyle
  2
Basic
 70
     7
 71
     1
 72
     0
 73
     1
 90
        0
 40
-0.6
 41
-30.0
 62
     5
 63
     7
 74
     0
 91
        4
 64
     7
 65
   257
 75
     1
175
     1
 42
1.0
 92
        8
 66
     7
 43
1.0
 76
     1
 77
     6
 78
     2
 67
     7
 79
     5
170
     0
171
     0
290
     0
174
     0
 93
        1
 44
0.0
173
     0
291
     1
 45
0.0
1001
ACAD
1000
AcDbSavedByObjectVersion
1070
     0
1000
AcDbSavedByObjectVersion
1070
     0
1000
AcDbSavedByObjectVersion
1070
     0
1000
AcDbSavedByObjectVersion
1070
     0
1000
AcDbSavedByObjectVersion
1070
     0
  0
VISUALSTYLE
  5
1397
102
{ACAD_REACTORS
330
138B
102
}
330
138B
100
AcDbVisualStyle
  2
Brighten
 70
    12
 71
     2
 72
     2
 73
     0
 90
        0
 40
-0.6
 41
-30.0
 62
     5
 63
     7
 74
     1
 91
        4
 64
     7
 65
   257
 75
     1
175
     1
 42
1.0
 92
        8
 66
     7
 43
1.0
 76
     1
 77
     6
 78
     2
 67
     7
 79
     5
170
     0
171
     0
290
     0
174
     0
 93
        1
 44
50.0
173
     0
291
     1
 45
0.0
1001
ACAD
1000
AcDbSavedByObjectVersion
1070
     0
1000
AcDbSavedByObjectVersion
1070
     0
1000
AcDbSavedByObjectVersion
1070
     0
1000
AcDbSavedByObjectVersion
1070
     0
1000
AcDbSavedByObjectVersion
1070
     0
  0
VISUALSTYLE
  5
139B
102
{ACAD_REACTORS
330
138B
102
}
330
138B
100
AcDbVisualStyle
  2
ColorChange
 70
    16
 71
     2
 72
     2
 73
     3
 90
        0
 40
-0.6
 41
-30.0
 62
     5
 63
     8
 74
     1
 91
        4
 64
     7
 65
   257
 75
     1
175
     1
 42
1.0
 92
        8
 66
     8
 43
1.0
 76
     1
 77
     6
 78
     2
 67
     7
 79
     5
170
     0
171
     0
290
     0
174
     0
 93
        1
 44
0.0
173
     0
291
     1
 45
0.0
1001
ACAD
1000
AcDbSavedByObjectVersion
1070
     0
1000
AcDbSavedByObjectVersion
1070
     0
1000
AcDbSavedByObjectVersion
1070
     0
1000
AcDbSavedByObjectVersion
1070
     0
1000
AcDbSavedByObjectVersion
1070
     0
  0
VISUALSTYLE
  5
1394
102
{ACAD_REACTORS
330
138B
102
}
330
138B
100
AcDbVisualStyle
  2
Conceptual
 70
     9
 71
     3
 72
     2
 73
     0
 90
        0
 40
-0.6
 41
-30.0
 62
     5
 63
     7
 74
     2
 91
        2
 64
     7
 65
   257
 75
     1
175
     1
 42
40.0
 92
        8
 66
     7
 43
1.0
 76
     1
 77
     6
 78
     2
 67
     7
 79
     3
170
     0
171
     0
290
     0
174
     0
 93
        1
 44
0.0
173
     0
291
     0
 45
0.0
1001
ACAD
1000
AcDbSavedByObjectVersion
1070
     0
1000
AcDbSavedByObjectVersion
1070
     0
1000
AcDbSavedByObjectVersion
1070
     0
1000
AcDbSavedByObjectVersion
1070
     0
1000
AcDbSavedByObjectVersion
1070
     0
  0
VISUALSTYLE
  5
1396
102
{ACAD_REACTORS
330
138B
102
}
330
138B
100
AcDbVisualStyle
  2
Dim
 70
    11
 71
     2
 72
     2
 73
     0
 90
        0
 40
-0.6
 41
-30.0
 62
     5
 63
     7
 74
     1
 91
        4
 64
     7
 65
   257
 75
     1
175
     1
 42
1.0
 92
        8
 66
     7
 43
1.0
 76
     1
 77
     6
 78
     2
 67
     7
 79
     5
170
     0
171
     0
290
     0
174
     0
 93
        1
 44
-50.0
173
     0
291
     1
 45
0.0
1001
ACAD
1000
AcDbSavedByObjectVersion
1070
     0
1000
AcDbSavedByObjectVersion
1070
     0
1000
AcDbSavedByObjectVersion
1070
     0
1000
AcDbSavedByObjectVersion
1070
     0
1000
AcDbSavedByObjectVersion
1070
     0
  0
VISUALSTYLE
  5
139A
102
{ACAD_REACTORS
330
138B
102
}
330
138B
100
AcDbVisualStyle
  2
Facepattern
 70
    15
 71
     2
 72
     2
 73
     0
 90
        0
 40
-0.6
 41
-30.0
 62
     5
 63
     7
 74
     1
 91
        4
 64
     7
 65
   257
 75
     1
175
     1
 42
1.0
 92
        8
 66
     7
 43
1.0
 76
     1
 77
     6
 78
     2
 67
     7
 79
     5
170
     0
171
     0
290
     0
174
     0
 93
        1
 44
0.0
173
     0
291
     1
 45
0.0
1001
ACAD
1000
AcDbSavedByObjectVersion
1070
     0
1000
AcDbSavedByObjectVersion
1070
     0
1000
AcDbSavedByObjectVersion
1070
     0
1000
AcDbSavedByObjectVersion
1070
     0
1000
AcDbSavedByObjectVersion
1070
     0
  0
VISUALSTYLE
  5
138C
102
{ACAD_REACTORS
330
138B
102
}
330
138B
100
AcDbVisualStyle
  2
Flat
 70
     0
 71
     2
 72
     1
 73
     1
 90
        2
 40
-0.6
 41
30.0
 62
     5
 63
     7
 74
     0
 91
        4
 64
     7
 65
   257
 75
     1
175
     1
 42
1.0
 92
        8
 66
     7
 43
1.0
 76
     1
 77
     6
 78
     2
 67
     7
 79
     5
170
     0
171
     0
290
     0
174
     0
 93
       13
 44
0.0
173
     0
291
     1
 45
0.0
1001
ACAD
1000
AcDbSavedByObjectVersion
1070
     0
1000
AcDbSavedByObjectVersion
1070
     0
1000
AcDbSavedByObjectVersion
1070
     0
1000
AcDbSavedByObjectVersion
1070
     0
1000
AcDbSavedByObjectVersion
1070
     0
  0
VISUALSTYLE
  5
138D
102
{ACAD_REACTORS
330
138B
102
}
330
138B
100
AcDbVisualStyle
  2
FlatWithEdges
 70
     1
 71
     2
 72
     1
 73
     1
 90
        2
 40
-0.6
 41
30.0
 62
     5
 63
     7
 74
     1
 91
        4
 64
     7
 65
   257
 75
     1
175
     1
 42
1.0
 92
        0
 66
   257
 43
1.0
 76
     1
 77
     6
 78
     2
 67
     7
 79
     5
170
     0
171
     0
290
     0
174
     0
 93
       13
 44
0.0
173
     0
291
     1
 45
0.0
1001
ACAD
1000
AcDbSavedByObjectVersion
1070
     0
1000
AcDbSavedByObjectVersion
1070
     0
1000
AcDbSavedByObjectVersion
1070
     0
1000
AcDbSavedByObjectVersion
1070
     0
1000
AcDbSavedByObjectVersion
1070
     0
  0
VISUALSTYLE
  5
138E
102
{ACAD_REACTORS
330
138B
102
}
330
138B
100
AcDbVisualStyle
  2
Gouraud
 70
     2
 71
     2
 72
     2
 73
     1
 90
        2
 40
-0.6
 41
30.0
 62
     5
 63
     7
 74
     0
 91
        4
 64
     7
 65
   257
 75
     1
175
     1
 42
1.0
 92
        0
 66
     7
 43
1.0
 76
     1
 77
     6
 78
     2
 67
     7
 79
     5
170
     0
171
     0
290
     0
174
     0
 93
       13
 44
0.0
173
     0
291
     1
 45
0.0
1001
ACAD
1000
AcDbSavedByObjectVersion
1070
     0
1000
AcDbSavedByObjectVersion
1070
     0
1000
AcDbSavedByObjectVersion
1070
     0
1000
AcDbSavedByObjectVersion
1070
     0
1000
AcDbSavedByObjectVersion
1070
     0
  0
VISUALSTYLE
  5
138F
102
{ACAD_REACTORS
330
138B
102
}
330
138B
100
AcDbVisualStyle
  2
GouraudWithEdges
 70
     3
 71
     2
 72
     2
 73
     1
 90
        2
 40
-0.6
 41
30.0
 62
     5
 63
     7
 74
     1
 91
        4
 64
     7
 65
   257
 75
     1
175
     1
 42
1.0
 92
        0
 66
   257
 43
1.0
 76
     1
 77
     6
 78
     2
 67
     7
 79
     5
170
     0
171
     0
290
     0
174
     0
 93
       13
 44
0.0
173
     0
291
     1
 45
0.0
1001
ACAD
1000
AcDbSavedByObjectVersion
1070
     0
1000
AcDbSavedByObjectVersion
1070
     0
1000
AcDbSavedByObjectVersion
1070
     0
1000
AcDbSavedByObjectVersion
1070
     0
1000
AcDbSavedByObjectVersion
1070
     0
  0
VISUALSTYLE
  5
1399
102
{ACAD_REACTORS
330
138B
102
}
330
138B
100
AcDbVisualStyle
  2
Linepattern
 70
    14
 71
     2
 72
     2
 73
     0
 90
        0
 40
-0.6
 41
-30.0
 62
     5
 63
     7
 74
     1
 91
        4
 64
     7
 65
   257
 75
     7
175
     7
 42
1.0
 92
        8
 66
     7
 43
1.0
 76
     1
 77
     6
 78
     2
 67
     7
 79
     5
170
     0
171
     0
290
     0
174
     0
 93
        1
 44
0.0
173
     0
291
     1
 45
0.0
1001
ACAD
1000
AcDbSavedByObjectVersion
1070
     0
1000
AcDbSavedByObjectVersion
1070
     0
1000
AcDbSavedByObjectVersion
1070
     0
1000
AcDbSavedByObjectVersion
1070
     0
1000
AcDbSavedByObjectVersion
1070
     0
  0
VISUALSTYLE
  5
1395
102
{ACAD_REACTORS
330
138B
102
}
330
138B
100
AcDbVisualStyle
  2
Realistic
 70
     8
 71
     2
 72
     2
 73
     0
 90
        0
 40
-0.6
 41
-30.0
 62
     5
 63
     7
 74
     1
 91
        0
 64
     7
 65
   257
 75
     1
175
     1
 42
1.0
 92
        8
 66
     8
 43
1.0
 76
     1
 77
     6
 78
     2
 67
     7
 79
     5
170
     0
171
     0
290
     0
174
     0
 93
       13
 44
0.0
173
     0
291
     0
 45
0.0
1001
ACAD
1000
AcDbSavedByObjectVersion
1070
     0
1000
AcDbSavedByObjectVersion
1070
     0
1000
AcDbSavedByObjectVersion
1070
     0
1000
AcDbSavedByObjectVersion
1070
     0
1000
AcDbSavedByObjectVersion
1070
     0
  0
VISUALSTYLE
  5
1398
102
{ACAD_REACTORS
330
138B
102
}
330
138B
100
AcDbVisualStyle
  2
Thicken
 70
    13
 71
     2
 72
     2
 73
     0
 90
        0
 40
-0.6
 41
-30.0
 62
     5
 63
     7
 74
     1
 91
        4
 64
     7
 65
   257
 75
     1
175
     1
 42
1.0
 92
       12
 66
     7
 43
1.0
 76
     1
 77
     6
 78
     2
 67
     7
 79
     5
170
     0
171
     0
290
     0
174
     0
 93
        1
 44
0.0
173
     0
291
     1
 45
0.0
1001
ACAD
1000
AcDbSavedByObjectVersion
1070
     0
1000
AcDbSavedByObjectVersion
1070
     0
1000
AcDbSavedByObjectVersion
1070
     0
1000
AcDbSavedByObjectVersion
1070
     0
1000
AcDbSavedByObjectVersion
1070
     0
  0
DICTIONARYVAR
  5
1514
102
{ACAD_REACTORS
330
B87
102
}
330
B87
100
DictionaryVariables
280
     0
  1
1:1
  0
DICTIONARYVAR
  5
1513
102
{ACAD_REACTORS
330
B87
102
}
330
B87
100
DictionaryVariables
280
     0
  1
STANDARD
  0
DICTIONARYVAR
  5
1168
102
{ACAD_REACTORS
330
B87
102
}
330
B87
100
DictionaryVariables
280
     0
  1
STANDARD
  0
DICTIONARYVAR
  5
B88
102
{ACAD_REACTORS
330
B87
102
}
330
B87
100
DictionaryVariables
280
     0
  1
1
  0
DICTIONARYVAR
  5
1169
102
{ACAD_REACTORS
330
B87
102
}
330
B87
100
DictionaryVariables
280
     0
  1
1
  0
DICTIONARYVAR
  5
116A
102
{ACAD_REACTORS
330
B87
102
}
330
B87
100
DictionaryVariables
280
     0
  1

  0
DICTIONARYVAR
  5
1515
102
{ACAD_REACTORS
330
B87
102
}
330
B87
100
DictionaryVariables
280
     0
  1
127
  0
DICTIONARY
  5
1109
102
{ACAD_REACTORS
330
10FD
102
}
330
10FD
100
AcDbDictionary
281
     1
  0
XRECORD
  5
1129
102
{ACAD_REACTORS
330
10FD
102
}
330
10FD
100
AcDbXrecord
280
     1
 90
-1023410169
  0
DICTIONARY
  5
103D
102
{ACAD_REACTORS
330
103C
102
}
330
103C
100
AcDbDictionary
281
     1
  3
DWGSETTINGS
350
18BF
  3
TRANSSETTINGS
350
18C0
  0
ACAMGFILTERDAT
  5
1158
102
{ACAD_REACTORS
330
1153
102
}
330
1153
100
AcAmgFilterDat
 70
    15
  1
DIMENSION,AMDT_*_DIM
  2
*
  3
*
  4
*
  5
*
290
     1
1001
ACAD
1000
AcRTDxfName
1000
ACAMGFILTERDAT
  0
ACAMGFILTERDAT
  5
1157
102
{ACAD_REACTORS
330
1153
102
}
330
1153
100
AcAmgFilterDat
 70
    15
  1
*
  2
AM_FEA-AM_*
  3
*
  4
*
  5
*
290
     1
1001
ACAD
1000
AcRTDxfName
1000
ACAMGFILTERDAT
  0
ACAMGFILTERDAT
  5
1154
102
{ACAD_REACTORS
330
1153
102
}
330
1153
100
AcAmgFilterDat
 70
    15
  1
HATCH
  2
*
  3
*
  4
*
  5
*
290
     1
1001
ACAD
1000
AcRTDxfName
1000
ACAMGFILTERDAT
  0
ACAMGFILTERDAT
  5
1155
102
{ACAD_REACTORS
330
1153
102
}
330
1153
100
AcAmgFilterDat
 70
    15
  1
LINE
  2
8,8N,*-8,*-8N,AM_8,AM_8N,*-AM_8,*-AM_8N
  3
*
  4
*
  5
INSERT,STDPART2D
290
     1
1001
ACAD
1000
AcRTDxfName
1000
ACAMGFILTERDAT
  0
ACAMGFILTERDAT
  5
1159
102
{ACAD_REACTORS
330
1153
102
}
330
1153
100
AcAmgFilterDat
 70
    15
  1
ARC
  2
AM_5
  3
*
  4
2
  5
INSERT
290
     0
1001
ACAD
1000
AcRTDxfName
1000
ACAMGFILTERDAT
  0
ACAMGFILTERDAT
  5
1156
102
{ACAD_REACTORS
330
1153
102
}
330
1153
100
AcAmgFilterDat
 70
    15
  1
ACMFCFRAME,ACMDATUMTARGET,ACMDATUMID,ACMWELDSYM,ACMSURFSYM,ACMFEATID,ACMPARTREF,ACMBALLOON,AMDTEDGESYM,AMGSCREWCALCTABLE
  2
*
  3
*
  4
*
  5
*
290
     1
1001
ACAD
1000
AcRTDxfName
1000
ACAMGFILTERDAT
  0
LAYER_INDEX
  5
115B
102
{ACAD_REACTORS
330
115A
102
}
330
115A
100
AcDbIndex
 40
2456703.579369907
100
AcDbLayerIndex
  8
0
360
115C
 90
        0
  8
OUTLINE
360
115D
 90
      205
  8
SIZE
360
115E
 90
        4
  8
BASIS
360
115F
 90
        2
  8
DETAIL
360
1160
 90
      199
  8
ARRANGE
360
1161
 90
        3
  8
DEFPOINTS
360
1162
 90
        0
  8
ETC
360
1163
 90
        1
  8
FIX
360
1164
 90
        2
  8
NOTE
360
1165
 90
       10
  8
SERVICESPACE
360
1166
 90
        0
  8
SYMBOLLINE
360
1167
 90
        0
  0
DICTIONARY
  5
19A0
330
B85
100
AcDbDictionary
280
     1
281
     1
  3
ADSK_XREC_LAYOUTTHUMBNAIL
360
19A1
  0
DICTIONARY
  5
137C
330
137B
100
AcDbDictionary
280
     1
281
     1
  3
ACAD_XREC_ROUNDTRIP
360
1522
  3
BUMPTILE
360
137E
  3
DIFFUSETILE
360
137D
  3
OPACITYTILE
360
1381
  3
REFLECTIONTILE
360
1380
  3
REFRACTIONTILE
360
1382
  3
SPECULARTILE
360
137F
  0
DICTIONARY
  5
1374
330
1373
100
AcDbDictionary
280
     1
281
     1
  3
ACAD_XREC_ROUNDTRIP
360
1521
  3
BUMPTILE
360
1376
  3
DIFFUSETILE
360
1375
  3
OPACITYTILE
360
1379
  3
REFLECTIONTILE
360
1378
  3
REFRACTIONTILE
360
137A
  3
SPECULARTILE
360
1377
  0
DICTIONARY
  5
1384
330
1383
100
AcDbDictionary
280
     1
281
     1
  3
ACAD_XREC_ROUNDTRIP
360
1523
  3
BUMPTILE
360
1386
  3
DIFFUSETILE
360
1385
  3
OPACITYTILE
360
1389
  3
REFLECTIONTILE
360
1388
  3
REFRACTIONTILE
360
138A
  3
SPECULARTILE
360
1387
  0
DICTIONARY
  5
1516
330
1038
100
AcDbDictionary
280
     1
281
     1
  3
ACAD_ROUNDTRIP_2008_TABLESTYLE_CELLSTYLEMAP
360
1D5A
  3
ACAD_XREC_ROUNDTRIP
360
1D60
  0
IDBUFFER
  5
115C
330
0
100
AcDbIdBuffer
  0
IDBUFFER
  5
115D
330
0
100
AcDbIdBuffer
330
1C94
330
1C95
330
1C96
330
1C97
330
1C98
330
1C99
330
1C9A
330
1C9B
330
1C9C
330
1C9D
330
1C9E
330
1C9F
330
1CA0
330
1CA1
330
1CA2
330
1CA3
330
1CA4
330
1CA5
330
1CA6
330
1CA7
330
1CA8
330
1CA9
330
1CAA
330
1CAB
330
1CAC
330
1CAD
330
1CAE
330
1CAF
330
1CB0
330
1CB1
330
1CB2
330
1CB3
330
1CB4
330
1CB5
330
1CB6
330
1CB7
330
1CB8
330
1CB9
330
1CBA
330
1CBB
330
1CBC
330
1CBD
330
1CBE
330
1CBF
330
1CC0
330
1CC1
330
1CC2
330
1CC3
330
1CC4
330
1CC5
330
1CC6
330
1CC7
330
1CC8
330
1CC9
330
1CCA
330
1CCB
330
1CCC
330
1CCD
330
1CCE
330
1CCF
330
1CD0
330
1CD1
330
1CD2
330
1CD3
330
1CD4
330
1CD5
330
1CD6
330
1CD7
330
1CD8
330
1CD9
330
1CDA
330
1CDB
330
1CDC
330
1CDD
330
1CDE
330
1CDF
330
1CE0
330
1CE1
330
1CE2
330
1CE3
330
1CE4
330
1CE5
330
1CE6
330
1CE7
330
1CE8
330
1CE9
330
1CEA
330
1CEB
330
1CEC
330
1CED
330
1CEE
330
1CEF
330
1CF0
330
1CF1
330
1CF2
330
1CF3
330
1CF4
330
1CF5
330
1CF6
330
1CF7
330
1CF8
330
1CF9
330
1CFA
330
1CFB
330
1CFC
330
1CFD
330
1CFE
330
1CFF
330
1D00
330
1D01
330
1D02
330
1D03
330
1D04
330
1D05
330
1D06
330
1D07
330
1D08
330
1D09
330
1D0A
330
1D0B
330
1D0C
330
953
330
954
330
955
330
956
330
957
330
958
330
1C46
330
1C47
330
1C48
330
1C49
330
1C4A
330
1C4B
330
1C4C
330
1C4D
330
1C4E
330
1C4F
330
1C50
330
1C51
330
1C52
330
1C53
330
1C54
330
1C55
330
1C56
330
1C57
330
1C58
330
1C59
330
1C5A
330
1C5B
330
1C5C
330
1C5D
330
1C5E
330
1C5F
330
1C60
330
1C61
330
1C62
330
1C63
330
1C64
330
1C65
330
1C66
330
1C67
330
1C68
330
1C69
330
1C6A
330
1C6B
330
1C6C
330
1C6D
330
1C6E
330
1C6F
330
1C70
330
1C71
330
1C72
330
1C73
330
1C74
330
1C75
330
1C76
330
1C77
330
1C78
330
1C79
330
1C7A
330
1C7B
330
1C7C
330
1C7D
330
1C7E
330
1C7F
330
1C80
330
1C81
330
1C82
330
1C83
330
1C84
330
1C85
330
1C86
330
1C87
330
1C88
330
1C89
330
1C8A
330
1C8B
330
1C8C
330
1C8D
330
1C8E
330
1C8F
330
1C90
330
1C91
330
1C92
330
1C93
  0
IDBUFFER
  5
115E
330
0
100
AcDbIdBuffer
330
1D0D
330
1D14
330
1D19
330
1D1A
  0
IDBUFFER
  5
115F
330
0
100
AcDbIdBuffer
330
1D1B
330
1D1C
  0
IDBUFFER
  5
1160
330
0
100
AcDbIdBuffer
330
1BCD
330
1BCE
330
1BCF
330
1BD0
330
1BD1
330
1BD2
330
1BD3
330
1BD4
330
1BD5
330
1BD6
330
1BD7
330
1BD8
330
1BD9
330
1BDA
330
1BDB
330
1BDC
330
1BDD
330
1BDE
330
1BDF
330
1BE0
330
1BE1
330
1BE2
330
1BE3
330
1BE4
330
1BE5
330
1BE6
330
1BE7
330
1BE8
330
1BE9
330
1BEA
330
1BEB
330
1BEC
330
1BED
330
1BEE
330
1BEF
330
1BF0
330
1BF1
330
1BF2
330
1BF3
330
1BF4
330
1BF5
330
1BF6
330
1BF7
330
1BF8
330
1BF9
330
1BFA
330
1BFB
330
1BFC
330
1BFD
330
1BFE
330
1BFF
330
1C00
330
1C01
330
1C02
330
1C03
330
1C04
330
1C05
330
1C06
330
1C07
330
1C08
330
1C09
330
1C0A
330
1C0B
330
1C0C
330
1C0D
330
1C0E
330
1C0F
330
1C10
330
1C11
330
1C12
330
1C13
330
1C14
330
1C15
330
1C16
330
1C17
330
1C18
330
1C19
330
1C1A
330
1C1B
330
1C1C
330
1C1D
330
1C1E
330
1C1F
330
1C20
330
1C21
330
1C22
330
1C23
330
1C24
330
1C25
330
1C26
330
1C27
330
1C28
330
1C29
330
1C2A
330
1C2B
330
1C2C
330
1C2D
330
1C2E
330
1C2F
330
1C30
330
1C31
330
1C32
330
1C33
330
1C34
330
1C35
330
1C36
330
1C37
330
1C38
330
1C39
330
1C3A
330
1C3B
330
1C3C
330
1C3D
330
1C3E
330
1C3F
330
1C40
330
1C41
330
1C42
330
1C43
330
1C44
330
1C45
330
1B7F
330
1B80
330
1B81
330
1B82
330
1B83
330
1B84
330
1B85
330
1B86
330
1B87
330
1B88
330
1B89
330
1B8A
330
1B8B
330
1B8C
330
1B8D
330
1B8E
330
1B8F
330
1B90
330
1B91
330
1B92
330
1B93
330
1B94
330
1B95
330
1B96
330
1B97
330
1B98
330
1B99
330
1B9A
330
1B9B
330
1B9C
330
1B9D
330
1B9E
330
1B9F
330
1BA0
330
1BA1
330
1BA2
330
1BA3
330
1BA4
330
1BA5
330
1BA6
330
1BA7
330
1BA8
330
1BA9
330
1BAA
330
1BAB
330
1BAC
330
1BAD
330
1BAE
330
1BAF
330
1BB0
330
1BB1
330
1BB2
330
1BB3
330
1BB4
330
1BB5
330
1BB6
330
1BB7
330
1BB8
330
1BB9
330
1BBA
330
1BBB
330
1BBC
330
1BBD
330
1BBE
330
1BBF
330
1BC0
330
1BC1
330
1BC2
330
1BC3
330
1BC4
330
1BC5
330
1BC6
330
1BC7
330
1BC8
330
1BC9
330
1BCA
330
1BCB
330
1BCC
  0
IDBUFFER
  5
1161
330
0
100
AcDbIdBuffer
330
1D1D
330
1D1E
330
1D1F
  0
IDBUFFER
  5
1162
330
0
100
AcDbIdBuffer
  0
IDBUFFER
  5
1163
330
0
100
AcDbIdBuffer
330
1D22
  0
IDBUFFER
  5
1164
330
0
100
AcDbIdBuffer
330
1D0F
330
1D12
  0
IDBUFFER
  5
1165
330
0
100
AcDbIdBuffer
330
1D0E
330
1D10
330
1D11
330
1D13
330
1D15
330
1D16
330
1D17
330
1D18
330
1D20
330
1D21
  0
IDBUFFER
  5
1166
330
0
100
AcDbIdBuffer
  0
IDBUFFER
  5
1167
330
0
100
AcDbIdBuffer
  0
XRECORD
  5
19A1
102
{ACAD_REACTORS
330
19A0
102
}
330
19A0
100
AcDbXrecord
280
     1
310
2800000000010000BF000000010008000000000000BF0000000000000000000000010000000000000000000000000000FFFFFF000000000000000000000000000000000000000000000000000000000000000000330000006600000099000000CC000000FF00000000330000333300006633000099330000CC330000FF3300
310
0000660000336600006666000099660000CC660000FF66000000990000339900006699000099990000CC990000FF99000000CC000033CC000066CC000099CC0000CCCC0000FFCC000000FF000033FF000066FF000099FF0000CCFF0000FFFF000000003300330033006600330099003300CC003300FF003300003333003333
310
33006633330099333300CC333300FF33330000663300336633006666330099663300CC663300FF66330000993300339933006699330099993300CC993300FF99330000CC330033CC330066CC330099CC3300CCCC3300FFCC330000FF330033FF330066FF330099FF3300CCFF3300FFFF330000006600330066006600660099
310
006600CC006600FF00660000336600333366006633660099336600CC336600FF33660000666600336666006666660099666600CC666600FF66660000996600339966006699660099996600CC996600FF99660000CC660033CC660066CC660099CC6600CCCC6600FFCC660000FF660033FF660066FF660099FF6600CCFF6600
310
FFFF660000009900330099006600990099009900CC009900FF00990000339900333399006633990099339900CC339900FF33990000669900336699006666990099669900CC669900FF66990000999900339999006699990099999900CC999900FF99990000CC990033CC990066CC990099CC9900CCCC9900FFCC990000FF99
310
0033FF990066FF990099FF9900CCFF9900FFFF99000000CC003300CC006600CC009900CC00CC00CC00FF00CC000033CC003333CC006633CC009933CC00CC33CC00FF33CC000066CC003366CC006666CC009966CC00CC66CC00FF66CC000099CC003399CC006699CC009999CC00CC99CC00FF99CC0000CCCC0033CCCC0066CC
310
CC0099CCCC00CCCCCC00FFCCCC0000FFCC0033FFCC0066FFCC0099FFCC00CCFFCC00FFFFCC000000FF003300FF006600FF009900FF00CC00FF00FF00FF000033FF003333FF006633FF009933FF00CC33FF00FF33FF000066FF003366FF006666FF009966FF00CC66FF00FF66FF000099FF003399FF006699FF009999FF00CC
310
99FF00FF99FF0000CCFF0033CCFF0066CCFF0099CCFF00CCCCFF00FFCCFF0000FFFF0033FFFF0066FFFF0099FFFF00CCFFFF00FFFFFF00000000000D0D0D001A1A1A00282828003535350043434300505050005D5D5D006B6B6B00787878008686860093939300A1A1A100AEAEAE00BBBBBB00C9C9C900D6D6D600E4E4E400
310
F1F1F100FFFFFF0000000000000000000000000000000000000000000000000000000000000000000000000000000000E2E2E2E2E2E2E2E2E2E2E2E2E2E2E2E2E2E2E2E2E2E2E2E2E2E2E2E2E2E2E2E2E2E2E2E2E2E2E2E2E2E2E2E2E2E2E2E2E2E2E2E2E2E2E2E2E2E2E2E2E2E2E2E2E2E2E2E2E2E2E2E2E2E2E2E2E2E2E2
310
E2E2E2E2E2E2E2E2E2E2E2E2E2E2E2E2E2E2E2E2E2E2E2E2E2E2E2E2E2E2E2E2E2E2E2E2E2E2E2E2E2E2E2E2E2E2E2E2E2E2E2E2E2E2E2E2E2E2E2E2E2E2E2E2E2E2E2E2E2E2E2E2E2E2E2E2E2E2E2E2E2E2E2E2E2E2E2E2E2E2E2E2E2E2E2E2E2E2E2E2E2E2E2E2E2E2E2E2E2E2E2E2E2E2E2E2E2E2E2E2E2E2E2E2E2E2E2
310
E2E2E2E2E2E2E2E2E2E2E2E2E2E2E2E2E2E2E2E2E2E2E2E2E2E2E2E2E2E2E2E2E2E2E2E2E2E2E2E2E2E2E2E2E2E2E2E2E2E2E2E2E2E2E2E2E2E2E2E2E2E2E2E2E2E2E2E2E2E2E2E2E2E2E2E2E2E2E2E2E2E2E2E2E2E2E2E2E2E2E2E2E2E2E2E2E2E2E2E2E2E2E2E2E2E2E2E2E2E2E2E2E2E2E2E2E2E2E2E2E2E2E2E2E2E2E2
310
E2E2E2E2E2E2E2E2E2E2E2E2E2E2E2E2E2E2E2E2E2E2E2E2E2E2E2E2E2E2E2E2E2E2E2E2E2E2E2E2E2E2E2E2E2E2E2E2E2E2E2E2E2E2E2E2E2E2E2E2E2E2E2E2E2E2E2E2E2E2E2E2E2E2E2E2E2E2E2E2E2E2E2E2E2E2E2E2E2E2E2E2E2E2E2E2E2E2E2E2E2E2E2E2E2E2E2E2E2E2E2E2E2E2E2E2E2E2E2E2E2E2E2E2E2E2E2
310
E2E2E2E2E2E2E2E2E2E2E2E2E2E2E2E2E2E2E2E2E2E2E2E2E2E2E2E2E2E2E2E2E2E2E2E2E2E2E2E2E2E2E2E2E2E2E2E2E2E2E2E2E2E2E2E2E2E2E2E2E2E2E2E2E2E2E2E2E2E2E2E2E2E2E2E2E2E2E2E2E2E2E2E2E2E2E2E2E2E2E2E2E2E2E2E2E2E2E2E2E2E2E2E2E2E2E2E2E2E2E2E2E2E2E2E2E2E2E2E2E2E2E2E2E2E2E2
310
E2E2E2E2E2E2E2E2E2E2E2E2E2E2E2E2E2E2E2E2E2E2E2E2E2E2E2E2E2E2E2E2E2E2E2E2E2E2E2E2E2E2E2E2E2E2E2E2E2E2E2E2E2E2E2E2E2E2E2E2E2E2E2E2E2E2E2E2E2E2E2E2E2E2E2E2E2E2E2E2E2E2E2E2E2E2E2E2E2E2E2E2E2E2E2E2E2E2E2E2E2E2E2E2E2E2E2E2E2E2E2E2E2E2E2E2E2E2E2E2E2E2E2E2E2E2E2
310
E2E2E2E2E2E2E2E2E2E2E2E2E2E2E2E2E2E2E2E2E2E2E2E2E2E2E2E2E2E2E2E2E2E2E2E2E2E2E2E2E2E2E2E2E2E2E2E2E2E2E2E2E2E2E2E2E2E2E2E2E2E2E2E2E2E2E2E2E2E2E2E2E2E2E2E2E2E2E2E2E2E2E2E2E2E2E2E2E2E2E2E2E2E2E2E2E2E2E2E2E2E2E2E2E2E2E2E2E2E2E2E2E2E2E2E2E2E2E2E2E2E2E2E2E2E2E2
310
E2E2E2E2E2E2E2E2E2E2E2E2E2E2E2E2E2E2E2E2E2E2E2E2E2E2E2E2E2E2E2E2E2E2E2E2E2E2E2E2E2E2E2E2E2E2E2E2E2E2E2E2E2E2E2E2E2E2E2E2E2E2E2E2E2E2E2E2E2E2E2E2E2E2E2E2E2E2E2E2E2E2E2E2E2E2E2E2E2E2E2E2E2E2E2E2E2E2E2E2E2E2E2E2E2E2E2E2E2E2E2E2E2E2E2E2E2E2E2E2E2E2E2E2E2E2E2
310
E2E2E2E2E2E2E2E2E2E2E2E2E2E2E2E2E2E2E2E2E2E2E2E2E2E2E2E2E2E2E2E2E2E2E2E2E2E2E2E2E2E2E2E2E2E2E2E2E2E2E2E2E2E2E2E2E2E2E2E2E2E2E2E2E2E2E2E2E2E2E2E2E2E2E2E2E2E2E2E2E2E2E2E2E2E2E2E2E2E2E2E2E2E2E2E2E2E2E2E2E2E2E2E2E2E2E2E2E2E2E2E2E2E2E2E2E2E2E2E2E2E2E2E2E2E2E2
310
E2E2E2E2E2E2E2E2E2E2E2E2E2E2E2E2E2E2E2E2E2E2E2E2E2E2E2E2E2E2E2E2E2E2E2E2E2E2E2E2E2E2E2E2E2E2E2E2E2E2E2E2E2E2E2E2E2E2E2E2E2E2E2E2E2E2E2E2E2E2E2E2E2E2E2E2E2E2E2E2E2E2E2E2E2E2E2E2E2E2E2E2E2E2E2E2E2E2E2E2E2E2E2E2E2E2E2E2E2E2E2E2E2E2E2E2E2E2E2E2E2E2E2E2E2E2E2
310
E2E2E2E2E2E2E2E2E2E2E2E2E2E2E2E2E2E2E2E2E2E2E2E2E2E2E2E2E2E2E2E2E2E2E2E2E2E2E2E2E2E2E2E2E2E2E2E2E2E2E2E2E2E2E2E2E2E2E2E2E2E2E2E2E2E2E2E2E2E2E2E2E2E2E2E2E2E2E2E2E2E2E2E2E2E2E2E2E2E2E2E2E2E2E2E2E2E2E2E2E2E2E2E2E2E2E2E2E2E2E2E2E2E2E2E2E2E2E2E2E2E2E2E2E2E2E2
310
E2E2E2E2E2E2E2E2E2E2E2E2E2E2E2E2E2E2E2E2E2E2E2E2E2E2E2E2E2E2E2E2E2E2E2E2E2E2E2E2E2E2E2E2E2E2E2E2E2E2E2E2E2E2E2E2E2E2E2E2E2E2E2E2E2E2E2E2E2E2E2E2E2E2E2E2E2E2E2E2E2E2E2E2E2E2E2E2E2E2E2E2E2E2E2E2E2E2E2E2E2E2E2E2E2E2E2E2E2E2E2E2E2E2E2E2E2E2E2E2E2E2E2E2E2E2E2
310
E2E2E2E2E2E2E2E2E2E2E2E2E2E2E2E2E2E2E2E2E2E2E2E2E2E2E2E2E2E2E2E2E2E2E2E2E2E2E2E2E2E2E2E2E2E2E2E2E2E2E2E2E2E2E2E2E2E2E2E2E2E2E2E2E2E2E2E2E2E2E2E2E2E2E2E2E2E2E2E2E2E2E2E2E2E2E2E2E2E2E2E2E2E2E2E2E2E2E2E2E2E2E2E2E2E2E2E2E2E2E2E2E2E2E2E2E2E2E2E2E2E2E2E2E2E2E2
310
E2E2E2E2E2E2E2E2E2E2E2E2E2E2E2E2E2E2E2E2E2E2E2E2E2E2E2E2E2E2E2E2E2E2E2E2E2E2E2E2E2E2E2E2E2E2E2E2E2E2E2E2E2E2E2E2E2E2E2E2E2E2E2E2E2E2E2E2E2E2E2E2E2E2E2E2E2E2E2E2E2E2E2E2E2E2E2E2E2E2E2E2E2E2E2E2E2E2E2E2E2E2E2E2E2E2E2E2E2E2E2E2E2E2E2E2E2E2E2E2E2E2E2E2E2E2E2
310
E2E2E2E2E2E2E2E2E2E2E2E2E2E2E2E2E2E2E2E2E2E2E2E2E2E2E2E2E2E2E2E2E2E2E2E2E2E2E2E2E2E2E2E2E2E2E2E2E2E2E2E2E2E2E2E2E2E2E2E2E2E2E2E2E2E2E2E2E2E2E2E2E2E2E2E2E2E2E2E2E2E2E2E2E2E2E2E2E2E2E2E2E2E2E2E2E2E2E2E2E2E2E2E2E2E2E2E2E2E2E2E2E2E2E2E2E2E2E2E2E2E2E2E2E2E2E2
310
E2E2E2E2E2E2E2E2E2E2E2E2E2E2E2E2E2E2E2E2E2E2E2E2E2E2E2E2E2E2E2E2E2E2E2E2E2E2E2E2E2E2E2E2E2E2E2E2E2E2E2E2E2E2E2E2E2E2E2E2E2E2E2E2E2E2E2E2E2E2E2E2E2E2E2E2E2E2E2E2E2E2E2E2E2E2E2E2E2E2E2E2E2E2E2E2E2E2E2E2E2E2E2E2E2E2E2E2E2E2E2E2E2E2E2E2E2E2E2E2E2E2E2E2E2E2E2
310
E2E2E2E2E2E2E2E2E2E2E2E2E2E2E2E2E2E2E2E2E2E2E2E2E2E2E2E2E2E2E2E2E2E2E2E2E2E2E2E2E2E2E2E2E2E2E2E2E2E2E2E2E2E2E2E2E2E2E2E2E2E2E2E2E2E2E2E2E2E2E2E2E2E2E2E2E2E2E2E2E2E2E2E2E2E2E2E2E2E2E2E2E2E2E2E2E2E2E2E2E2E2E2E2E2E2E2E2E2E2E2E2E2E2E2E2E2E2E2E2E2E2E2E2E2E2E2
310
E2E2E2E2E2E2E2E2E2E2E2E2E2E2E2E2E2E2E2E2E2E2E2E2E2E2E2E2E2E2E2E2E2E2E2E2E2E2E2E2E2E2E2E2E2E2E2E2E2E2E2E2E2E2E2E2E2E2E2E2E2E2E2E2E2E2E2E2E2E2E2E2E2E2E2E2E2E2E2E2E2E2E2E2E2E2E2E2E2E2E2E2E2E2E2E2E2E2E2E2E2E2E2E2E2E2E2E2E2E2E2E2E2E2E2E2E2E2E2E2E2E2E2E2E2E2E2
310
E2E2E2E2E2E2E2E2E2E2E2E2E2E2E2E2E2E2E2E2E2E2E2E2E2E2E2E2E2E2E2E2E2E2E2E2E2E2E2E2E2E2E2E2E2E2E2E2E2E2E2E2E2E2E2E2E2E2E2E2E2E2E2E2E2E2E2E2E2E2E2E2E2E2E2E2E2E2E2E2E2E2E2E2E2E2E2E2E2E2E2E2E2E2E2E2E2E2E2E2E2E2E2E2E2E2E2E2E2E2E2E2E2E2E2E2E2E2E2E2E2E2E2E2E2E2E2
310
E2E2E2E2E2E2E2E2E2E2E2E2E2E2E2E2E2E2E2E2E2E2E2E2E2E2E2E2E2E2E2E2E2E2E2E2E2E2E2E2E2E2E2E2E2E2E2E2E2E2E2E2E2E2E2E2E2E2E2E2E2E2E2E2E2E2E2E2E2E2E2E2E2E2E2E2E2E2E2E2E2E2E2E2E2E2E2E2E2E2E2E2E2E2E2E2E2E2E2E2E2E2E2E2E2E2E2E2E2E2E2E2E2E2E2E2E2E2E2E2E2E2E2E2E2E2E2
310
E2E2E2E2E2E2E2E2E2E2E2E2E2E2E2E2E2E2E2E2E2E2E2E2E2E2E2E2E2E2E2E2E2E2E2E2E2E2E2E2E2E2E2E2E2E2E2E2E2E2E2E2E2E2E2E2E2E2E2E2E2E2E2E2E2E2E2E2E2E2E2E2E2E2E2E2E2E2E2E2E2E2E2E2E2E2E2E2E2E2E2E2E2E2E2E2E2E2E2E2E2E2E2E2E2E2E2E2E2E2E2E2E2E2E2E2E2E2E2E2E2E2E2E2E2E2E2
310
E2E2E2E2E2E2E2E2E2E2E2E2E2E2E2E2E2E2E2E2E2E2E2E2E2E2E2E2E2E2E2E2E2E2E2E2E2E2E2E2E2E2E2E2E2E2E2E2E2E2E2E2E2E2E2E2E2E2E2E2E2E2E2E2E2E2E2E2E2E2E2E2E2E2E2E2E2E2E2E2E2E2E2E2E2E2E2E2E2E2E2E2E2E2E2E2E2E2E2E2E2E2E2E2E2E2E2E2E2E2E2E2E2E2E2E2E2E2E2E2E2E2E2E2E2E2E2
310
E2E2E2E2E2E2E2E2E2E2E2E2E2E2E2E2E2E2E2E2E2E2E2E2E2E2E2E2E2E2E2E2E2E2E2E2E2E2E2E2E2E2E2E2E2E2E2E2E2E2E2E2E2E2E2E2E2E2E2E2E2E2E2E2E2E2E2E2E2E2E2E2E2E2E2E2E2E2E2E2E2E2E2E2E2E2E2E2E2E2E2E2E2E2E2E2E2E2E2E2E2E2E2E2E2E2E2E2E2E2E2E2E2E2E2E2E2E2E2E2E2E2E2E2E2E2E2
310
E2E2E2E2E2E2E2E2E2E2E2E2E2E2E2E2E2E2E2E2E2E2E2E2E2E2E2E2E2E2E2E2E2E2E2E2E2E2E2E2E2E2E2E2E2E2E2E2E2E2E2E2E2E2E2E2E2E2E2E2E2E2E2E2E2E2E2E2E2E2E2E2E2E2E2E2E2E2E2E2E2E2E2E2E2E2E2E2E2E2E2E2E2E2E2E2E2E2E2E2E2E2E2E2E2E2E2E2E2E2E2E2E2E2E2E2E2E2E2E2E2E2E2E2E2E2E2
310
E2E2E2E2E2E2E2E2E2E2E2E2E2E2E2E2E2E2E2E2E2E2E2E2E2E2E2E2E2E2E2E2E2E2E2E2E2E2E2E2E2E2E2E2E2E2E2E2E2E2E2E2E2E2E2E2E2E2E2E2E2E2E2E2E2E2E2E2E2E2E2E2E2E2E2E2E2E2E2E2E2E2E2E2E2E2E2E2E2E2E2E2E2E2E2E2E2E2E2E2E2E2E2E2E2E2E2E2E2E2E2E2E2E2E2E2E2E2E2E2E2E2E2E2E2E2E2
310
E2E2E2E2E2E2E2E2E2E2E2E2E2E2E2E2E2E2E2E2E2E2E2E2E2E2E2E2E2E2E2E2E2E2E2E2E2E2E2E2E2E2E2E2E2E2E2E2E2E2E2E2E2E2E2E2E2E2E2E2E2E2E2E2E2E2E2E2E2E2E2E2E2E2E2E2E2E2E2E2E2E2E2E2E2E2E2E2E2E2E2E2E2E2E2E2E2E2E2E2E2E2E2E2E2E2E2E2E2E2E2E2E2E2E2E2E2E2E2E2E2E2E2E2E2E2E2
310
E2E2E2E2E2E2E2E2E2E2E2E2E2E2E2E2E2E2E2E2E2E2E2E2E2E2E2E2E2E2E2E2E2E2E2E2E2E2E2E2E2E2E2E2E2E2E2E2E2E2E2E2E2E2E2E2E2E2E2E2E2E2E2E2E2E2E2E2E2E2E2E2E2E2E2E2E2E2E2E2E2E2E2E2E2E2E2E2E2E2E2E2E2E2E2E2E2E2E2E2E2E2E2E2E2E2E2E2E2E2E2E2E2E2E2E2E2E2E2E2E2E2E2E2E2E2E2
310
E2E2E2E2E2E2E2E2E2E2E2E2E2E2E2E2E2E2E2E2E2E2E2E2E2E2E2E2E2E2E2E2E2E2E2E2E2E2E2E2E2E2E2E2E2E2E2E2E2E2E2E2E2E2E2E2E2E2E2E2E2E2E2E2E2E2E2E2E2E2E2E2E2E2E2E2E2E2E2E2E2E2E2E2E2E2E2E2E2E2E2E2E2E2E2E2E2E2E2E2E2E2E2E2E2E2E2E2E2E2E2E2E2E2E2E2E2E2E2E2E2E2E2E2E2E2E2
310
E2E2E2E2E2E2E2E2E2E2E2E2E2E2E2E2E2E2E2E2E2E2E2E2E2E2E2E2E2E2E2E2E2E2E2E2E2E2E2E2E2E2E2E2E2E2E2E2E2E2E2E2E2E2E2E2E2E2E2E2E2E2E2E2E2E2E2E2E2E2E2E2E2E2E2E2E2E2E2E2E2E2E2E2E2E2E2E2E2E2E2E2E2E2E2E2E2E2E2E2E2E2E2E2E2E2E2E2E2E2E2E2E2E2E2E2E2E2E2E2E2E2E2E2E2E2E2
310
E2E2E2E2E2E2E2E2E2E2E2E2E2E2E2E2E2E2E2E2E2E2E2E2E2E2E2E2E2E2E2E2E2E2E2E2E2E2E2E2E2E2E2E2E2E2E2E2E2E2E2E2E2E2E2E2E2E2E2E2E2E2E2E2E2E2E2E2E2E2E2E2E2E2E2E2E2E2E2E2E2E2E2E2E2E2E2E2E2E2E2E2E2E2E2E2E2E2E2E2E2E2E2E2E2E2E2E2E2E2E2E2E2E2E2E2E2E2E2E2E2E2E2E2E2E2E2
310
E2E2E2E2E2E2E2E2E2E2E2E2E2E2E2E2E2E2E2E2E2E2E2E2E2E2E2E2E2E2E2E2E2E2E2E2E2E2E2E2E2E2E2E2E2E2E2E2E2E2E2E2E2E2E2E2E2E2E2E2E2E2E2E2E2E2E2E2E2E2E2E2E2E2E2E2E2E2E2E2E2E2E2E2E2E2E2E2E2E2E2E2E2E2E2E2E2E2E2E2E2E2E2E2E2E2E2E2E2E2E2E2E2E2E2E2E2E2E2E2E2E2E2E2E2E2E2
310
E2E2E2E2E2E2E2E2E2E2E2E2E2E2E2E2E2E2E2E2E2E2E2E2E2E2E2E2E2E2E2E2E2E2E2E2E2E2E2E2E2E2E2E2E2E2E2E2E2E2E2E2E2E2E2E2E2E2E2E2E2E2E2E2E2E2E2E2E2E2E2E2E2E2E2E2E2E2E2E2E2E2E2E2E2E2E2E2E2E2E2E2E2E2E2E2E2E2E2E2E2E2E2E2E2E2E2E2E2E2E2E2E2E2E2E2E2E2E2E2E2E2E2E2E2E2E2
310
E2E2E2E2E2E2E2E2E2E2E2E2E2E2E2E2E2E2E2E2E2E2E2E2E2E2E2E2E2E2E2E2E2E2E2E2E2E2E2E2E2E2E2E2E2E2E2E2E2E2E2E2E2E2E2E2E2E2E2E2E2E2E2E2E2E2E2E2E2E2E2E2E2E2E2E2E2E2E2E2E2E2E2E2E2E2E2E2E2E2E2E2E2E2E2E2E2E2E2E2E2E2E2E2E2E2E2E2E2E2E2E2E2E2E2E2E2E2E2E2E2E2E2E2E2E2E2
310
E2E2E2E2E2E2E2E2E2E2E2E2E2E2E2E2E2E2E2E2E2E2E2E2E2E2E2E2E2E2E2E2E2E2E2E2E2E2E2E2E2E2E2E2E2E2E2E2E2E2E2E2E2E2E2E2E2E2E2E2E2E2E2E2E2E2E2E2E2E2E2E2E2E2E2E2E2E2E2E2E2E2E2E2E2E2E2E2E2E2E2E2E2E2E2E2E2E2E2E2E2E2E2E2E2E2E2E2E2E2E2E2E2E2E2E2E2E2E2E2E2E2E2E2E2E2E2
310
E2E2E2E2E2E2E2E2E2E2E2E2E2E2E2E2E2E2E2E2E2E2E2E2E2E2E2E2E2E2E2E2E2E2E2E2E2E2E2E2E2E2E2E2E2E2E2E2E2E2E2E2E2E2E2E2E2E2E2E2E2E2E2E2E2E2E2E2E2E2E2E2E2E2E2E2E2E2E2E2E2E2E2E2E2E2E2E2E2E2E2E2E2E2E2E2E2E2E2E2E2E2E2E2E2E2E2E2E2E2E2E2E2E2E2E2E2E2E2E2E2E2E2E2E2E2E2
310
E2E2E2E2E2E2E2E2E2E2E2E2E2E2E2E2E2E2E2E2E2E2E2E2E2E2E2E2E2E2E2E2E2E2E2E2E2E2E2E2E2E2E2E2E2E2E2E2E2E2E2E2E2E2E2E2E2E2E2E2E2E2E2E2E2E2E2E2E2E2E2E2E2E2E2E2E2E2E2E2E2E2E2E2E2E2E2E2E2E2E2E2E2E2E2E2E2E2E2E2E2E2E2E2E2E2E2E2E2E2E2E2E2E2E2E2E2E2E2E2E2E2E2E2E2E2E2
310
E2E2E2E2E2E2E2E2E2E2E2E2E2E2E2E2E2E2E2E2E2E2E2E2E2E2E2E2E2E2E2E2E2E2E2E2E2E2E2E2E2E2E2E2E2E2E2E2E2E2E2E2E2E2E2E2E2E2E2E2E2E2E2E2E2E2E2E2E2E2E2E2E2E2E2E2E2E2E2E2E2E2E2E2E2E2E2E2E2E2E2E2E2E2E2E2E2E2E2E2E2E2E2E2E2E2E2E2E2E2E2E2E2E2E2E2E2E2E2E2E2E2E2E2E2E2E2
310
E2E2E2E2E2E2E2E2E2E2E2E2E2E2E2E2E2E2E2E2E2E2E2E2E2E2E2E2E2E2E2E2E2E2E2E2E2E2E2E2E2E2E2E2E2E2E2E2E2E2E2E2E2E2E2E2E2E2E2E2E2E2E2E2E2E2E2E2E2E2E2E2E2E2E2E2E2E2E2E2E2E2E2E2E2E2E2E2E2E2E2E2E2E2E2E2E2E2E2E2E2E2E2E2E2E2E2E2E2E2E2E2E2E2E2E2E2E2E2E2E2E2E2E2E2E2E2
310
E2E2E2E2E2E2E2E2E2E2E2E2E2E2E2E2E2E2E2E2E2E2E2E2E2E2E2E2E2E2E2E2E2E2E2E2E2E2E2E2E2E2E2E2E2E2E2E2E2E2E2E2E2E2E2E2E2E2E2E2E2E2E2E2E2E2E2E2E2E2E2E2E2E2E2E2E2E2E2E2E2E2E2E2E2E2E2E2E2E2E2E2E2E2E2E2E2E2E2E2E2E2E2E2E2E2E2E2E2E2E2E2E2E2E2E2E2E2E2E2E2E2E2E2E2E2E2
310
E2E2E2E2E2E2E2E2E2E2E2E2E2E2E2E2E2E2E2E2E2E2E2E2E2E2E2E2E2E2E2E2E2E2E2E2E2E2E2E2E2E2E2E2E2E2E2E2E2E2E2E2E2E2E2E2E2E2E2E2E2E2E2E2E2E2E2E2E2E2E2E2E2E2E2E2E2E2E2E2E2E2E2E2E2E2E2E2E2E2E2E2E2E2E2E2E2E2E2E2E2E2E2E2E2E2E2E2E2E2E2E2E2E2E2E2E2E2E2E2E2E2E2E2E2E2E2
310
E2E2E2E2E2E2E2E2E2E2E2E2E2E2E2E2E2E2E2E2E2E2E2E2E2E2E2E2E2E2E2E2E2E2E2E2E2E2E2E2E2E2E2E2E2E2E2E2E2E2E2E2E2E2E2E2E2E2E2E2E2E2E2E2E2E2E2E2E2E2E2E2E2E2E2E2E2E2E2E2E2E2E2E2E2E2E2E2E2E2E2E2E2E2E2E2E2E2E2E2E2E2E2E2E2E2E2E2E2E2E2E2E2E2E2E2E2E2E2E2E2E2E2E2E2E2E2
310
E2E2E2E2E2E2E2E2E2E2E2E2E2E2E2E2E2E2E2E2E2E2E2E2E2E2E2E2E2E2E2E2E2E2E2E2E2E2E2E2E2E2E2E2E2E2E2E2E2E2E2E2E2E2E2E2E2E2E2E2E2E2E2E2E2E2E2E2E2E2E2E2E2E2E2E2E2E2E2E2E2E2E2E2E2E2E2E2E2E2E2E2E2E2E2E2E2E2E2E2E2E2E2E2E2E2E2E2E2E2E2E2E2E2E2E2E2E2E2E2E2E2E2E2E2E2E2
310
E2E2E2E2E2E2E2E2E2E2E2E2E2E2E2E2E2E2E2E2E2E2E2E2E2E2E2E2E2E2E2E2E2E2E2E2E2E2E2E2E2E2E2E2E2E2E2E2E2E2E2E2E2E2E2E2E2E2E2E2E2E2E2E2E2E2E2E2E2E2E2E2E2E2E2E2E2E2E2E2E2E2E2E2E2E2E2E2E2E2E2E2E2E2E2E2E2E2E2E2E2E2E2E2E2E2E2E2E2E2E2E2E2E2E2E2E2E2E2E2E2E2E2E2E2E2E2
310
E2E2E2E2E2E2E2E2E2E2E2E2E2E2E2E2E2E2E2E2E2E2E2E2E2E2E2E2E2E2E2E2E2E2E2E2E2E2E2E2E2E2E2E2E2E2E2E2E2E2E2E2E2E2E2E2E2E2E2E2E2E2E2E2E2E2E2E2E2E2E2E2E2E2E2E2E2E2E2E2E2E2E2E2E2E2E2E2E2E2E2E2E2E2E2E2E2E2E2E2E2E2E2E2E2E2E2E2E2E2E2E2E2E2E2E2E2E2E2E2E2E2E2E2E2E2E2
310
E2E2E2E2E2E2E2E2E2E2E2E2E2E2E2E2E2E2E2E2E2E2E2E2E2E2E2E2E2E2E2E2E2E2E2E2E2E2E2E2E2E2E2E2E2E2E2E2E2E2E2E2E2E2E2E2E2E2E2E2E2E2E2E2E2E2E2E2E2E2E2E2E2E2E2E2E2E2E2E2E2E2E2E2E2E2E2E2E2E2E2E2E2E2E2E2E2E2E2E2E2E2E2E2E2E2E2E2E2E2E2E2E2E2E2E2E2E2E2E2E2E2E2E2E2E2E2
310
E2E2E2E2E2E2E2E2E2E2E2E2E2E2E2E2E2E2E2E2E2E2E2E2E2E2E2E2E2E2E2E2E2E2E2E2E2E2E2E2E2E2E2E2E2E2E2E2E2E2E2E2E2E2E2E2E2E2E2E2E2E2E2E2E2E2E2E2E2E2E2E2E2E2E2E2E2E2E2E2E2E2E2E2E2E2E2E2E2E2E2E2E2E2E2E2E2E2E2E2E2E2E2E2E2E2E2E2E2E2E2E2E2E2E2E2E2E2E2E2E2E2E2E2E2E2E2
310
E2E2E2E2E2E2E2E2E2E2E2E2E2E2E2E2E2E2E2E2E2E2E2E2E2E2E2E2E2E2E2E2E2E2E2E2E2E2E2E2E2E2E2E2E2E2E2E2E2E2E2E2E2E2E2E2E2E2E2E2E2E2E2E2E2E2E2E2E2E2E2E2E2E2E2E2E2E2E2E2E2E2E2E2E2E2E2E2E2E2E2E2E2E2E2E2E2E2E2E2E2E2E2E2E2E2E2E2E2E2E2E2E2E2E2E2E2E2E2E2E2E2E2E2E2E2E2
310
E2E2E2E2E2E2E2E2E2E2E2E2E2E2E2E2E2E2E2E2E2E2E2E2E2E2E2E2E2E2E2E2E2E2E2E2E2E2E2E2E2E2E2E2E2E2E2E2E2E2E2E2E2E2E2E2E2E2E2E2E2E2E2E2E2E2E2E2E2E2E2E2E2E2E2E2E2E2E2E2E2E2E2E2E2E2E2E2E2E2E2E2E2E2E2E2E2E2E2E2E2E2E2E2E2E2E2E2E2E2E2E2E2E2E2E2E2E2E2E2E2E2E2E2E2E2E2
310
E2E2E2E2E2E2E2E2E2E2E2E2E2E2E2E2E2E2E2E2E2E2E2E2E2E2E2E2E2E2E2E2E2E2E2E2E2E2E2E2E2E2E2E2E2E2E2E2E2E2E2E2E2E2E2E2E2E2E2E2E2E2E2E2E2E2E2E2E2E2E2E2E2E2E2E2E2E2E2E2E2E2E2E2E2E2E2E2E2E2E2E2E2E2E2E2E2E2E2E2E2E2E2E2E2E2E2E2E2E2E2E2E2E2E2E2E2E2E2E2E2E2E2E2E2E2E2
310
E2E2E2E2E2E2E2E2E2E2E2E2E2E2E2E2E2E2E2E2E2E2E2E2E2E2E2E2E2E2E2E2E2E2E2E2E2E2E2E2E2E2E2E2E2E2E2E2E2E2E2E2E2E2E2E2E2E2E2E2E2E2E2E2E2E2E2E2E2E2E2E2E2E2E2E2E2E2E2E2E2E2E2E2E2E2E2E2E2E2E2E2E2E2E2E2E2E2E2E2E2E2E2E2E2E2E2E2E2E2E2E2E2E2E2E2E2E2E2E2E2E2E2E2E2E2E2
310
E2E2E2E2E2E2E2E2E2E2E2E2E2E2E2E2E2E2E2E2E2E2E2E2E2E2E2E2E2E2E2E2E2E2E2E2E2E2E2E2E2E2E2E2E2E2E2E2E2E2E2E2E2E2E2E2E2E2E2E2E2E2E2E2E2E2E2E2E2E2E2E2E2E2E2E2E2E2E2E2E2E2E2E2E2E2E2E2E2E2E2E2E2E2E2E2E2E2E2E2E2E2E2E2E2E2E2E2E2E2E2E2E2E2E2E2E2E2E2E2E2E2E2E2E2E2E2
310
E2E2E2E2E2E2E2E2E2E2E2E2E2E2E2E2E2E2E2E2E2E2E2E2E2E2E2E2E2E2E2E2E2E2E2E2E2E2E2E2E2E2E2E2E2E2E2E2E2E2E2E2E2E2E2E2E2E2E2E2E2E2E2E2E2E2E2E2E2E2E2E2E2E2E2E2E2E2E2E2E2E2E2E2E2E2E2E2E2E2E2E2E2E2E2E2E2E2E2E2E2E2E2E2E2E2E2E2E2E2E2E2E2E2E2E2E2E2E2E2E2E2E2E2E2E2E2
310
E2E2E2E2E2E2E2E2E2E2E2E2E2E2E2E2E2E2E2E2E2E2E2E2E2E2E2E2E2E2E2E2E2E2E2E2E2E2E2E2E2E2E2E2E2E2E2E2E2E2E2E2E2E2E2E2E2E2E2E2E2E2E2E2E2E2E2E2E2E2E2E2E2E2E2E2E2E2E2E2E2E2E2E2E2E2E2E2E2E2E2E2E2E2E2E2E2E2E2E2E2E2E2E2E2E2E2E2E2E2E2E2E2E2E2E2E2E2E2E2E2E2E2E2E2E2E2
310
E2E2E2E2E2E2E2E2E2E2E2E2E2E2E2E2E2E2E2E2E2E2E2E2E2E2E2E2E2E2E2E2E2E2E2E2E2E2E2E2E2E2E2E2E2E2E2E2E2E2E2E2E2E2E2E2E2E2E2E2E2E2E2E2E2E2E2E2E2E2E2E2E2E2E2E2E2E2E2E2E2E2E2E2E2E2E2E2E2E2E2E2E2E2E2E2E2E2E2E2E2E2E2E2E2E2E2E2E2E2E2E2E2E2E2E2E2E2E2E2E2E2E2E2E2E2E2
310
E2E2E2E2E2E2E2E2E2E2E2E2E2E2E2E2E2E2E2E2E2E2E2E2E2E2E2E2E2E2E2E2E2E2E2E2E2E2E2E2E2E2E2E2E2E2E2E2E2E2E2E2E2E2E2E2E2E2E2E2E2E2E2E2E2E2E2E2E2E2E2E2E2E2E2E2E2E2E2E2E2E2E2E2E2E2E2E2E2E2E2E2E2E2E2E2E2E2E2E2E2E2E2E2E2E2E2E2E2E2E2E2E2E2E2E2E2E2E2E2E2E2E2E2E2E2E2
310
E2E2E2E2E2E2E2E2E2E2E2E2E2E2E2E2E2E2E2E2E2E2E2E2E2E2E2E2E2E2E2E2E2E2E2E2E2E2E2E2E2E2E2E2E2E2E2E2E2E2E2E2E2E2E2E2E2E2E2E2E2E2E2E2E2E2E2E2E2E2E2E2E2E2E2E2E2E2E2E2E2E2E2E2E2E2E2E2E2E2E2E2E2E2E2E2E2E2E2E2E2E2E2E2E2E2E2E2E2E2E2E2E2E2E2E2E2E2E2E2E2E2E2E2E2E2E2
310
E2E2E2E2E2E2E2E2E2E2E2E2E2E2E2E2E2E2E2E2E2E2E2E2E2E2E2E2E2E2E2E2E2E2E2E2E2E2E2E2E2E2E2E2E2E2E2E2E2E2E2E2E2E2E2E2E2E2E2E2E2E2E2E2E2E2E2E2E2E2E2E2E2E2E2E2E2E2E2E2E2E2E2E2E2E2E2E2E2E2E2E2E2E2E2E2E2E2E2E2E2E2E2E2E2E2E2E2E2E2E2E2E2E2E2E2E2E2E2E2E2E2E2E2E2E2E2
310
E2E2E2E2E2E2E2E2E2E2E2E2E2E2E2E2E2E2E2E2E2E2E2E2E2E2E2E2E2E2E2E2E2E2E2E2E2E2E2E2E2E2E2E2E2E2E2E2E2E2E2E2E2E2E2E2E2E2E2E2E2E2E2E2E2E2E2E2E2E2E2E2E2E2E2E2E2E2E2E2E2E2E2E2E2E2E2E2E2E2E2E2E2E2E2E2E2E2E2E2E2E2E2E2E2E2E2E2E2E2E2E2E2E2E2E2E2E2E2E2E2E2E2E2E2E2E2
310
E2E2E2E2E2E2E2E2E2E2E2E2E2E2E2E2E2E2E2E2E2E2E2E2E2E2E2E2E2E2E2E2E2E2E2E2E2E2E2E2E2E2E2E2E2E2E2E2E2E2E2E2E2E2E2E2E2E2E2E2E2E2E2E2E2E2E2E2E2E2E2E2E2E2E2E2E2E2E2E2E2E2E2E2E2E2E2E2E2E2E2E2E2E2E2E2E2E2E2E2E2E2E2E2E2E2E2E2E2E2E2E2E2E2E2E2E2E2E2E2E2E2E2E2E2E2E2
310
E2E2E2E2E2E2E2E2E2E2E2E2E2E2E2E2E2E2E2E2E2E2E2E2E2E2E2E2E2E2E2E2E2E2E2E2E2E2E2E2E2E2E2E2E2E2E2E2E2E2E2E2E2E2E2E2E2E2E2E2E2E2E2E2E2E2E2E2E2E2E2E2E2E2E2E2E2E2E2E2E2E2E2E2E2E2E2E2E2E2E2E2E2E2E2E2E2E2E2E2E2E2E2E2E2E2E2E2E2E2E2E2E2E2E2E2E2E2E2E2E2E2E2E2E2E2E2
310
E2E2E2E2E2E2E2E2E2E2E2E2E2E2E2E2E2E2E2E2E2E2E2E2E2E2E2E2E2E2E2E2E2E2E2E2E2E2E2E2E2E2E2E2E2E2E2E2E2E2E2E2E2E2E2E2E2E2E2E2E2E2E2E2E2E2E2E2E2E2E2E2E2E2E2E2E2E2E2E2E2E2E2E2E2E2E2E2E2E2E2E2E2E2E2E2E2E2E2E2E2E2E2E2E2E2E2E2E2E2E2E2E2E2E2E2E2E2E2E2E2E2E2E2E2E2E2
310
E2E2E2E2E2E2E2E2E2E2E2E2E2E2E2E2E2E2E2E2E2E2E2E2E2E2E2E2E2E2E2E2E2E2E2E2E2E2E2E2E2E2E2E2E2E2E2E2E2E2E2E2E2E2E2E2E2E2E2E2E2E2E2E2E2E2E2E2E2E2E2E2E2E2E2E2E2E2E2E2E2E2E2E2E2E2E2E2E2E2E2E2E2E2E2E2E2E2E2E2E2E2E2E2E2E2E2E2E2E2E2E2E2E2E2E2E2E2E2E2E2E2E2E2E2E2E2
310
E2E2E2E2E2E2E2E2E2E2E2E2E2E2E2E2E2E2E2E2E2E2E2E2E2E2E2E2E2E2E2E2E2E2E2E2E2E2E2E2E2E2E2E2E2E2E2E2E2E2E2E2E2E2E2E2E2E2E2E2E2E2E2E2E2E2E2E2E2E2E2E2E2E2E2E2E2E2E2E2E2E2E2E2E2E2E2E2E2E2E2E2E2E2E2E2E2E2E2E2E2E2E2E2E2E2E2E2E2E2E2E2E2E2E2E2E2E2E2E2E2E2E2E2E2E2E2
310
E2E2E2E2E2E2E2E2E2E2E2E2E2E2E2E2E2E2E2E2E2E2E2E2E2E2E2E2E2E2E2E2E2E2E2E2E2E2E2E2E2E2E2E2E2E2E2E2E2E2E2E2E2E2E2E2E2E2E2E2E2E2E2E2E2E2E2E2E2E2E2E2E2E2E2E2E2E2E2E2E2E2E2E2E2E2E2E2E2E2E2E2E2E2E2E2E2E2E2E2E2E2E2E2E2E2E2E2E2E2E2E2E2E2E2E2E2E2E2E2E2E2E2E2E2E2E2
310
E2E2E2E2E2E2E2E2E2E2E2E2E2E2E2E2E2E2E2E2E2E2E2E2E2E2E2E2E2E2E2E2E2E2E2E2E2E2E2E2E2E2E2E2E2E2E2E2E2E2E2E2E2E2E2E2E2E2E2E2E2E2E2E2E2E2E2E2E2E2E2E2E2E2E2E2E2E2E2E2E2E2E2E2E2E2E2E2E2E2E2E2E2E2E2E2E2E2E2E2E2E2E2E2E2E2E2E2E2E2E2E2E2E2E2E2E2E2E2E2E2E2E2E2E2E2E2
310
E2E2E2E2E2E2E2E2E2E2E2E2E2E2E2E2E2E2E2E2E2E2E2E2E2E2E2E2E2E2E2E2E2E2E2E2E2E2E2E2E2E2E2E2E2E2E2E2E2E2E2E2E2E2E2E2E2E2E2E2E2E2E2E2E2E2E2E2E2E2E2E2E2E2E2E2E2E2E2E2E2E2E2E2E2E2E2E2E2E2E2E2E2E2E2E2E2E2E2E2E2E2E2E2E2E2E2E2E2E2E2E2E2E2E2E2E2E2E2E2E2E2E2E2E2E2E2
310
E2E2E2E2E2E2E2E2E2E2E2E2E2E2E2E2E2E2E2E2E2E2E2E2E2E2E2E2E2E2E2E2E2E2E2E2E2E2E2E2E2E2E2E2E2E2E2E2E2E2E2E2E2E2E2E2E2E2E2E2E2E2E2E2E2E2E2E2E2E2E2E2E2E2E2E2E2E2E2E2E2E2E2E2E2E2E2E2E2E2E2E2E2E2E2E2E2E2E2E2E2E2E2E2E2E2E2E2E2E2E2E2E2E2E2E2E2E2E2E2E2E2E2E2E2E2E2
310
E2E2E2E2E2E2E2E2E2E2E2E2E2E2E2E2E2E2E2E2E2E2E2E2E2E2E2E2E2E2E2E2E2E2E2E2E2E2E2E2E2E2E2E2E2E2E2E2E2E2E2E2E2E2E2E2E2E2E2E2E2E2E2E2E2E2E2E2E2E2E2E2E2E2E2E2E2E2E2E2E2E2E2E2E2E2E2E2E2E2E2E2E2E2E2E2E2E2E2E2E2E2E2E2E2E2E2E2E2E2E2E2E2E2E2E2E2E2E2E2E2E2E2E2E2E2E2
310
E2E2E2E2E2E2E2E2E2E2E2E2E2E2E2E2E2E2E2E2E2E2E2E2E2E2E2E2E2E2E2E2E2E2E2E2E2E2E2E2E2E2E2E2E2E2E2E2E2E2E2E2E2E2E2E2E2E2E2E2E2E2E2E2E2E2E2E2E2E2E2E2E2E2E2E2E2E2E2E2E2E2E2E2E2E2E2E2E2E2E2E2E2E2E2E2E2E2E2E2E2E2E2E2E2E2E2E2E2E2E2E2E2E2E2E2E2E2E2E2E2E2E2E2E2E2E2
310
E2E2E2E2E2E2E2E2E2E2E2E2E2E2E2E2E2E2E2E2E2E2E2E2E2E2E2E2E2E2E2E2E2E2E2E2E2E2E2E2E2E2E2E2E2E2E2E2E2E2E2E2E2E2E2E2E2E2E2E2E2E2E2E2E2E2E2E2E2E2E2E2E2E2E2E2E2E2E2E2E2E2E2E2E2E2E2E2E2E2E2E2E2E2E2E2E2E2E2E2E2E2E2E2E2E2E2E2E2E2E2E2E2E2E2E2E2E2E2E2E2E2E2E2E2E2E2
310
E2E2E2E2E2E2E2E2E2E2E2E2E2E2E2E2E2E2E2E2E2E2E2E2E2E2E2E2E2E2E2E2E2E2E2E2E2E2E2E2E2E2E2E2E2E2E2E2E2E2E2E2E2E2E2E2E2E2E2E2E2E2E2E2E2E2E2E2E2E2E2E2E2E2E2E2E2E2E2E2E2E2E2E2E2E2E2E2E2E2E2E2E2E2E2E2E2E2E2E2E2E2E2E2E2E2E2E2E2E2E2E2E2E2E2E2E2E2E2E2E2E2E2E2E2E2E2
310
E2E2E2E2E2E2E2E2E2E2E2E2E2E2E2E2E2E2E2E2E2E2E2E2E2E2E2E2E2E2E2E2E2E2E2E2E2E2E2E2E2E2E2E2E2E2E2E2E2E2E2E2E2E2E2E2E2E2E2E2E2E2E2E2E2E2E2E2E2E2E2E2E2E2E2E2E2E2E2E2E2E2E2E2E2E2E2E2E2E2E2E2E2E2E2E2E2E2E2E2E2E2E2E2E2E2E2E2E2E2E2E2E2E2E2E2E2E2E2E2E2E2E2E2E2E2E2
310
E2E2E2E2E2E2E2E2E2E2E2E2E2E2E2E2E2E2E2E2E2E2E2E2E2E2E2E2E2E2E2E2E2E2E2E2E2E2E2E2E2E2E2E2E2E2E2E2E2E2E2E2E2E2E2E2E2E2E2E2E2E2E2E2E2E2E2E2E2E2E2E2E2E2E2E2E2E2E2E2E2E2E2E2E2E2E2E2E2E2E2E2E2E2E2E2E2E2E2E2E2E2E2E2E2E2E2E2E2E2E2E2E2E2E2E2E2E2E2E2E2E2E2E2E2E2E2
310
E2E2E2E2E2E2E2E2E2E2E2E2E2E2E2E2E2E2E2E2E2E2E2E2E2E2E2E2E2E2E2E2E2E2E2E2E2E2E2E2E2E2E2E2E2E2E2E2E2E2E2E2E2E2E2E2E2E2E2E2E2E2E2E2E2E2E2E2E2E2E2E2E2E2E2E2E2E2E2E2E2E2E2E2E2E2E2E2E2E2E2E2E2E2E2E2E2E2E2E2E2E2E2E2E2E2E2E2E2E2E2E2E2E2E2E2E2E2E2E2E2E2E2E2E2E2E2
310
E2E2E2E2E2E2E2E2E2E2E2E2E2E2E2E2E2E2E2E2E2E2E2E2E2E2E2E2E2E2E2E2E2E2E2E2E2E2E2E2E2E2E2E2E2E2E2E2E2E2E2E2E2E2E2E2E2E2E2E2E2E2E2E2E2E2E2E2E2E2E2E2E2E2E2E2E2E2E2E2E2E2E2E2E2E2E2E2E2E2E2E2E2E2E2E2E2E2E2E2E2E2E2E2E2E2E2E2E2E2E2E2E2E2E2E2E2E2E2E2E2E2E2E2E2E2E2
310
E2E2E2E2E2E2E2E2E2E2E2E2E2E2E2E2E2E2E2E2E2E2E2E2E2E2E2E2E2E2E2E2E2E2E2E2E2E2E2E2E2E2E2E2E2E2E2E2E2E2E2E2E2E2E2E2E2E2E2E2E2E2E2E2E2E2E2E2E2E2E2E2E2E2E2E2E2E2E2E2E2E2E2E2E2E2E2E2E2E2E2E2E2E2E2E2E2E2E2E2E2E2E2E2E2E2E2E2E2E2E2E2E2E2E2E2E2E2E2E2E2E2E2E2E2E2E2
310
E2E2E2E2E2E2E2E2E2E2E2E2E2E2E2E2E2E2E2E2E2E2E2E2E2E2E2E2E2E2E2E2E2E2E2E2E2E2E2E2E2E2E2E2E2E2E2E2E2E2E2E2E2E2E2E2E2E2E2E2E2E2E2E2E2E2E2E2E2E2E2E2E2E2E2E2E2E2E2E2E2E2E2E2E2E2E2E2E2E2E2E2E2E2E2E2E2E2E2E2E2E2E2E2E2E2E2E2E2E2E2E2E2E2E2E2E2E2E2E2E2E2E2E2E2E2E2
310
E2E2E2E2E2E2E2E2E2E2E2E2E2E2E2E2E2E2E2E2E2E2E2E2E2E2E2E2E2E2E2E2E2E2E2E2E2E2E2E2E2E2E2E2E2E2E2E2E2E2E2E2E2E2E2E2E2E2E2E2E2E2E2E2E2E2E2E2E2E2E2E2E2E2E2E2E2E2E2E2E2E2E2E2E2E2E2E2E2E2E2E2E2E2E2E2E2E2E2E2E2E2E2E2E2E2E2E2E2E2E2E2E2E2E2E2E2E2E2E2E2E2E2E2E2E2E2
310
E2E2E2E2E2E2E2E2E2E2E2E2E2E2E2E2E2E2E2E2E2E2E2E2E2E2E2E2E2E2E2E2E2E2E2E2E2E2E2E2E2E2E2E2E2E2E2E2E2E2E2E2E2E2E2E2E2E2E2E2E2E2E2E2E2E2E2E2E2E2E2E2E2E2E2E2E2E2E2E2E2E2E2E2E2E2E2E2E2E2E2E2E2E2E2E2E2E2E2E2E2E2E2E2E2E2E2E2E2E2E2E2E2E2E2E2E2E2E2E2E2E2E2E2E2E2E2
310
E2E2E2E2E2E2E2E2E2E2E2E2E2E2E2E2E2E2E2E2E2E2E2E2E2E2E2E2E2E2E2E2E2E2E2E2E2E2E2E2E2E2E2E2E2E2E2E2E2E2E2E2E2E2E2E2E2E2E2E2E2E2E2E2E2E2E2E2E2E2E2E2E2E2E2E2E2E2E2E2E2E2E2E2E2E2E2E2E2E2E2E2E2E2E2E2E2E2E2E2E2E2E2E2E2E2E2E2E2E2E2E2E2E2E2E2E2E2E2E2E2E2E2E2E2E2E2
310
E2E2E2E2E2E2E2E2E2E2E2E2E2E2E2E2E2E2E2E2E2E2E2E2E2E2E2E2E2E2E2E2E2E2E2E2E2E2E2E2E2E2E2E2E2E2E2E2E2E2E2E2E2E2E2E2E2E2E2E2E2E2E2E2E2E2E2E2E2E2E2E2E2E2E2E2E2E2E2E2E2E2E2E2E2E2E2E2E2E2E2E2E2E2E2E2E2E2E2E2E2E2E2E2E2E2E2E2E2E2E2E2E2E2E2E2E2E2E2E2E2E2E2E2E2E2E2
310
E2E2E2E2E2E2E2E2E2E2E2E2E2E2E2E2E2E2E2E2E2E2E2E2E2E2E2E2E2E2E2E2E2E2E2E2E2E2E2E2E2E2E2E2E2E2E2E2E2E2E2E2E2E2E2E2E2E2E2E2E2E2E2E2E2E2E2E2E2E2E2E2E2E2E2E2E2E2E2E2E2E2E2E2E2E2E2E2E2E2E2E2E2E2E2E2E2E2E2E2E2E2E2E2E2E2E2E2E2E2E2E2E2E2E2E2E2E2E2E2E2E2E2E2E2E2E2
310
E2E2E2E2E2E2E2E2E2E2E2E2E2E2E2E2E2E2E2E2E2E2E2E2E2E2E2E2E2E2E2E2E2E2E2E2E2E2E2E2E2E2E2E2E2E2E2E2E2E2E2E2E2E2E2E2E2E2E2E2E2E2E2E2E2E2E2E2E2E2E2E2E2E2E2E2E2E2E2E2E2E2E2E2E2E2E2E2E2E2E2E2E2E2E2E2E2E2E2E2E2E2E2E2E2E2E2E2E2E2E2E2E2E2E2E2E2E2E2E2E2E2E2E2E2E2E2
310
E2E2E2E2E2E2E2E2E2E2E2E2E2E2E2E2E2E2E2E2E2E2E2E2E2E2E2E2E2E2E2E2E2E2E2E2E2E2E2E2E2E2E2E2E2E2E2E2E2E2E2E2E2E2E2E2E2E2E2E2E2E2E2E2E2E2E2E2E2E2E2E2E2E2E2E2E2E2E2E2E2E2E2E2E2E2E2E2E2E2E2E2E2E2E2E2E2E2E2E2E2E2E2E2E2E2E2E2E2E2E2E2E2E2E2E2E2E2E2E2E2E2E2E2E2E2E2
310
E2E2E2E2E2E2E2E2E2E2E2E2E2E2E2E2E2E2E2E2E2E2E2E2E2E2E2E2E2E2E2E2E2E2E2E2E2E2E2E2E2E2E2E2E2E2E2E2E2E2E2E2E2E2E2E2E2E2E2E2E2E2E2E2E2E2E2E2E2E2E2E2E2E2E2E2E2E2E2E2E2E2E2E2E2E2E2E2E2E2E2E2E2E2E2E2E2E2E2E2E2E2E2E2E2E2E2E2E2E2E2E2E2E2E2E2E2E2E2E2E2E2E2E2E2E2E2
310
E2E2E2E2E2E2E2E2E2E2E2E2E2E2E2E2E2E2E2E2E2E2E2E2E2E2E2E2E2E2E2E2E2E2E2E2E2E2E2E2E2E2E2E2E2E2E2E2E2E2E2E2E2E2E2E2E2E2E2E2E2E2E2E2E2E2E2E2E2E2E2E2E2E2E2E2E2E2E2E2E2E2E2E2E2E2E2E2E2E2E2E2E2E2E2E2E2E2E2E2E2E2E2E2E2E2E2E2E2E2E2E2E2E2E2E2E2E2E2E2E2E2E2E2E2E2E2
310
E2E2E2E2E2E2E2E2E2E2E2E2E2E2E2E2E2E2E2E2E2E2E2E2E2E2E2E2E2E2E2E2E2E2E2E2E2E2E2E2E2E2E2E2E2E2E2E2E2E2E2E2E2E2E2E2E2E2E2E2E2E2E2E2E2E2E2E2E2E2E2E2E2E2E2E2E2E2E2E2E2E2E2E2E2E2E2E2E2E2E2E2E2E2E2E2E2E2E2E2E2E2E2E2E2E2E2E2E2E2E2E2E2E2E2E2E2E2E2E2E2E2E2E2E2E2E2
310
E2E2E2E2E2E2E2E2E2E2E2E2E2E2E2E2E2E2E2E2E2E2E2E2E2E2E2E2E2E2E2E2E2E2E2E2E2E2E2E2E2E2E2E2E2E2E2E2E2E2E2E2E2E2E2E2E2E2E2E2E2E2E2E2E2E2E2E2E2E2E2E2E2E2E2E2E2E2E2E2E2E2E2E2E2E2E2E2E2E2E2E2E2E2E2E2E2E2E2E2E2E2E2E2E2E2E2E2E2E2E2E2E2E2E2E2E2E2E2E2E2E2E2E2E2E2E2
310
E2E2E2E2E2E2E2E2E2E2E2E2E2E2E2E2E2E2E2E2E2E2E2E2E2E2E2E2E2E2E2E2E2E2E2E2E2E2E2E2E2E2E2E2E2E2E2E2E2E2E2E2E2E2E2E2E2E2E2E2E2E2E2E2E2E2E2E2E2E2E2E2E2E2E2E2E2E2E2E2E2E2E2E2E2E2E2E2E2E2E2E2E2E2E2E2E2E2E2E2E2E2E2E2E2E2E2E2E2E2E2E2E2E2E2E2E2E2E2E2E2E2E2E2E2E2E2
310
E2E2E2E2E2E2E2E2E2E2E2E2E2E2E2E2E2E2E2E2E2E2E2E2E2E2E2E2E2E2E2E2E2E2E2E2E2E2E2E2E2E2E2E2E2E2E2E2E2E2E2E2E2E2E2E2E2E2E2E2E2E2E2E2E2E2E2E2E2E2E2E2E2E2E2E2E2E2E2E2E2E2E2E2E2E2E2E2E2E2E2E2E2E2E2E2E2E2E2E2E2E2E2E2E2E2E2E2E2E2E2E2E2E2E2E2E2E2E2E2E2E2E2E2E2E2E2
310
E2E2E2E2E2E2E2E2E2E2E2E2E2E2E2E2E2E2E2E2E2E2E2E2E2E2E2E2E2E2E2E2E2E2E2E2E2E2E2E2E2E2E2E2E2E2E2E2E2E2E2E2E2E2E2E2E2E2E2E2E2E2E2E2E2E2E2E2E2E2E2E2E2E2E2E2E2E2E2E2E2E2E2E2E2E2E2E2E2E2E2E2E2E2E2E2E2E2E2E2E2E2E2E2E2E2E2E2E2E2E2E2E2E2E2E2E2E2E2E2E2E2E2E2E2E2E2
310
E2E2E2E2E2E2E2E2E2E2E2E2E2E2E2E2E2E2E2E2E2E2E2E2E2E2E2E2E2E2E2E2E2E2E2E2E2E2E2E2E2E2E2E2E2E2E2E2E2E2E2E2E2E2E2E2E2E2E2E2E2E2E2E2E2E2E2E2E2E2E2E2E2E2E2E2E2E2E2E2E2E2E2E2E2E2E2E2E2E2E2E2E2E2E2E2E2E2E2E2E2E2E2E2E2E2E2E2E2E2E2E2E2E2E2E2E2E2E2E2E2E2E2E2E2E2E2
310
E2E2E2E2E2E2E2E2E2E2E2E2E2E2E2E2E2E2E2E2E2E2E2E2E2E2E2E2E2E2E2E2E2E2E2E2E2E2E2E2E2E2E2E2E2E2E2E2E2E2E2E2E2E2E2E2E2E2E2E2E2E2E2E2E2E2E2E2E2E2E2E2E2E2E2E2E2E2E2E2E2E2E2E2E2E2E2E2E2E2E2E2E2E2E2E2E2E2E2E2E2E2E2E2E2E2E2E2E2E2E2E2E2E2E2E2E2E2E2E2E2E2E2E2E2E2E2
310
E2E2E2E2E2E2E2E2E2E2E2E2E2E2E2E2E2E2E2E2E2E2E2E2E2E2E2E2E2E2E2E2E2E2E2E2E2E2E2E2E2E2E2E2E2E2E2E2E2E2E2E2E2E2E2E2E2E2E2E2E2E2E2E2E2E2E2E2E2E2E2E2E2E2E2E2E2E2E2E2E2E2E2E2E2E2E2E2E2E2E2E2E2E2E2E2E2E2E2E2E2E2E2E2E2E2E2E2E2E2E2E2E2E2E2E2E2E2E2E2E2E2E2E2E2E2E2
310
E2E2E2E2E2E2E2E2E2E2E2E2E2E2E2E2E2E2E2E2E2E2E2E2E2E2E2E2E2E2E2E2E2E2E2E2E2E2E2E2E2E2E2E2E2E2E2E2E2E2E2E2E2E2E2E2E2E2E2E2E2E2E2E2E2E2E2E2E2E2E2E2E2E2E2E2E2E2E2E2E2E2E2E2E2E2E2E2E2E2E2E2E2E2E2E2E2E2E2E2E2E2E2E2E2E2E2E2E2E2E2E2E2E2E2E2E2E2E2E2E2E2E2E2E2E2E2
310
E2E2E2E2E2E2E2E2E2E2E2E2E2E2E2E2E2E2E2E2E2E2E2E2E2E2E2E2E2E2E2E2E2E2E2E2E2E2E2E2E2E2E2E2E2E2E2E2E2E2E2E2E2E2E2E2E2E2E2E2E2E2E2E2E2E2E2E2E2E2E2E2E2E2E2E2E2E2E2E2E2E2E2E2E2E2E2E2E2E2E2E2E2E2E2E2E2E2E2E2E2E2E2E2E2E2E2E2E2E2E2E2E2E2E2E2E2E2E2E2E2E2E2E2E2E2E2
310
E2E2E2E2E2E2E2E2E2E2E2E2E2E2E2E2E2E2E2E2E2E2E2E2E2E2E2E2E2E2E2E2E2E2E2E2E2E2E2E2E2E2E2E2E2E2E2E2E2E2E2E2E2E2E2E2E2E2E2E2E2E2E2E2E2E2E2E2E2E2E2E2E2E2E2E2E2E2E2E2E2E2E2E2E2E2E2E2E2E2E2E2E2E2E2E2E2E2E2E2E2E2E2E2E2E2E2E2E2E2E2E2E2E2E2E2E2E2E2E2E2E2E2E2E2E2E2
310
E2E2E2E2E2E2E2E2E2E2E2E2E2E2E2E2E2E2E2E2E2E2E2E2E2E2E2E2E2E2E2E2E2E2E2E2E2E2E2E2E2E2E2E2E2E2E2E2E2E2E2E2E2E2E2E2E2E2E2E2E2E2E2E2E2E2E2E2E2E2E2E2E2E2E2E2E2E2E2E2E2E2E2E2E2E2E2E2E2E2E2E2E2E2E2E2E2E2E2E2E2E2E2E2E2E2E2E2E2E2E2E2E2E2E2E2E2E2E2E2E2E2E2E2E2E2E2
310
E2E2E2E2E2E2E2E2E2E2E2E2E2E2E2E2E2E2E2E2E2E2E2E2E2E2E2E2E2E2E2E2E2E2E2E2E2E2E2E2E2E2E2E2E2E2E2E2E2E2E2E2E2E2E2E2E2E2E2E2E2E2E2E2E2E2E2E2E2E2E2E2E2E2E2E2E2E2E2E2E2E2E2E2E2E2E2E2E2E2E2E2E2E2E2E2E2E2E2E2E2E2E2E2E2E2E2E2E2E2E2E2E2E2E2E2E2E2E2E2E2E2E2E2E2E2E2
310
E2E2E2E2E2E2E2E2E2E2E2E2E2E2E2E2E2E2E2E2E2E2E2E2E2E2E2E2E2E2E2E2E2E2E2E2E2E2E2E2E2E2E2E2E2E2E2E2E2E2E2E2E2E2E2E2E2E2E2E2E2E2E2E2E2E2E2E2E2E2E2E2E2E2E2E2E2E2E2E2E2E2E2E2E2E2E2E2E2E2E2E2E2E2E2E2E2E2E2E2E2E2E2E2E2E2E2E2E2E2E2E2E2E2E2E2E2E2E2E2E2E2E2E2E2E2E2
310
E2E2E2E2E2E2E2E2E2E2E2E2E2E2E2E2E2E2E2E2E2E2E2E2E2E2E2E2E2E2E2E2E2E2E2E2E2E2E2E2E2E2E2E2E2E2E2E2E2E2E2E2E2E2E2E2E2E2E2E2E2E2E2E2E2E2E2E2E2E2E2E2E2E2E2E2E2E2E2E2E2E2E2E2E2E2E2E2E2E2E2E2E2E2E2E2E2E2E2E2E2E2E2E2E2E2E2E2E2E2E2E2E2E2E2E2E2E2E2E2E2E2E2E2E2E2E2
310
E2E2E2E2E2E2E2E2E2E2E2E2E2E2E2E2E2E2E2E2E2E2E2E2E2E2E2E2E2E2E2E2E2E2E2E2E2E2E2E2E2E2E2E2E2E2E2E2E2E2E2E2E2E2E2E2E2E2E2E2E2E2E2E2E2E2E2E2E2E2E2E2E2E2E2E2E2E2E2E2E2E2E2E2E2E2E2E2E2E2E2E2E2E2E2E2E2E2E2E2E2E2E2E2E2E2E2E2E2E2E2E2E2E2E2E2E2E2E2E2E2E2E2E2E2E2E2
310
E2E2E2E2E2E2E2E2E2E2E2E2E2E2E2E2E2E2E2E2E2E2E2E2E2E2E2E2E2E2E2E2E2E2E2E2E2E2E2E2E2E2E2E2E2E2E2E2E2E2E2E2E2E2E2E2E2E2E2E2E2E2E2E2E2E2E2E2E2E2E2E2E2E2E2E2E2E2E2E2E2E2E2E2E2E2E2E2E2E2E2E2E2E2E2E2E2E2E2E2E2E2E2E2E2E2E2E2E2E2E2E2E2E2E2E2E2E2E2E2E2E2E2E2E2E2E2
310
E2E2E2E2E2E2E2E2E2E2E2E2E2E2E2E2E2E2E2E2E2E2E2E2E2E2E2E2E2E2E2E2E2E2E2E2E2E2E2E2E2E2E2E2E2E2E2E2E2E2E2E2E2E2E2E2E2E2E2E2E2E2E2E2E2E2E2E2E2E2E2E2E2E2E2E2E2E2E2E2E2E2E2E2E2E2E2E2E2E2E2E2E2E2E2E2E2E2E2E2E2E2E2E2E2E2E2E2E2E2E2E2E2E2E2E2E2E2E2E2E2E2E2E2E2E2E2
310
E2E2E2E2E2E2E2E2E2E2E2E2E2E2E2E2E2E2E2E2E2E2E2E2E2E2E2E2E2E2E2E2E2E2E2E2E2E2E2E2E2E2E2E2E2E2E2E2E2E2E2E2E2E2E2E2E2E2E2E2E2E2E2E2E2E2E2E2E2E2E2E2E2E2E2E2E2E2E2E2E2E2E2E2E2E2E2E2E2E2E2E2E2E2E2E2E2E2E2E2E2E2E2E2E2E2E2E2E2E2E2E2E2E2E2E2E2E2E2E2E2E2E2E2E2E2E2
310
E2E2E2E2E2E2E2E2E2E2E2E2E2E2E2E2E2E2E2E2E2E2E2E2E2E2E2E2E2E2E2E2E2E2E2E2E2E2E2E2E2E2E2E2E2E2E2E2E2E2E2E2E2E2E2E2E2E2E2E2E2E2E2E2E2E2E2E2E2E2E2E2E2E2E2E2E2E2E2E2E2E2E2E2E2E2E2E2E2E2E2E2E2E2E2E2E2E2E2E2E2E2E2E2E2E2E2E2E2E2E2E2E2E2E2E2E2E2E2E2E2E2E2E2E2E2E2
310
E2E2E2E2E2E2E2E2E2E2E2E2E2E2E2E2E2E2E2E2E2E2E2E2E2E2E2E2E2E2E2E2E2E2E2E2E2E2E2E2E2E2E2E2E2E2E2E2E2E2E2E2E2E2E2E2E2E2E2E2E2E2E2E2E2E2E2E2E2E2E2E2E2E2E2E2E2E2E2E2E2E2E2E2E2E2E2E2E2E2E2E2E2E2E2E2E2E2E2E2E2E2E2E2E2E2E2E2E2E2E2E2E2E2E2E2E2E2E2E2E2E2E2E2E2E2E2
310
E2E2E2E2E2E2E2E2E2E2E2E2E2E2E2E2E2E2E2E2E2E2E2E2E2E2E2E2E2E2E2E2E2E2E2E2E2E2E2E2E2E2E2E2E2E2E2E2E2E2E2E2E2E2E2E2E2E2E2E2E2E2E2E2E2E2E2E2E2E2E2E2E2E2E2E2E2E2E2E2E2E2E2E2E2E2E2E2E2E2E2E2E2E2E2E2E2E2E2E2E2E2E2E2E2E2E2E2E2E2E2E2E2E2E2E2E2E2E2E2E2E2E2E2E2E2E2
310
E2E2E2E2E2E2E2E2E2E2E2E2E2E2E2E2E2E2E2E2E2E2E2E2E2E2E2E2E2E2E2E2E2E2E2E2E2E2E2E2E2E2E2E2E2E2E2E2E2E2E2E2E2E2E2E2E2E2E2E2E2E2E2E2E2E2E2E2E2E2E2E2E2E2E2E2E2E2E2E2E2E2E2E2E2E2E2E2E2E2E2E2E2E2E2E2E2E2E2E2E2E2E2E2E2E2E2E2E2E2E2E2E2E2E2E2E2E2E2E2E2E2E2E2E2E2E2
310
E2E2E2E2E2E2E2E2E2E2E2E2E2E2E2E2E2E2E2E2E2E2E2E2E2E2E2E2E2E2E2E2E2E2E2E2E2E2E2E2E2E2E2E2E2E2E2E2E2E2E2E2E2E2E2E2E2E2E2E2E2E2E2E2E2E2E2E2E2E2E2E2E2E2E2E2E2E2E2E2E2E2E2E2E2E2E2E2E2E2E2E2E2E2E2E2E2E2E2E2E2E2E2E2E2E2E2E2E2E2E2E2E2E2E2E2E2E2E2E2E2E2E2E2E2E2E2
310
E2E2E2E2E2E2E2E2E2E2E2E2E2E2E2E2E2E2E2E2E2E2E2E2E2E2E2E2E2E2E2E2E2E2E2E2E2E2E2E2E2E2E2E2E2E2E2E2E2E2E2E2E2E2E2E2E2E2E2E2E2E2E2E2E2E2E2E2E2E2E2E2E2E2E2E2E2E2E2E2E2E2E2E2E2E2E2E2E2E2E2E2E2E2E2E2E2E2E2E2E2E2E2E2E2E2E2E2E2E2E2E2E2E2E2E2E2E2E2E2E2E2E2E2E2E2E2
310
E2E2E2E2E2E2E2E2E2E2E2E2E2E2E2E2E2E2E2E2E2E2E2E2E2E2E2E2E2E2E2E2E2E2E2E2E2E2E2E2E2E2E2E2E2E2E2E2E2E2E2E2E2E2E2E2E2E2E2E2E2E2E2E2E2E2E2E2E2E2E2E2E2E2E2E2E2E2E2E2E2E2E2E2E2E2E2E2E2E2E2E2E2E2E2E2E2E2E2E2E2E2E2E2E2E2E2E2E2E2E2E2E2E2E2E2E2E2E2E2E2E2E2E2E2E2E2
310
E2E2E2E2E2E2E2E2E2E2E2E2E2E2E2E2E2E2E2E2E2E2E2E2E2E2E2E2E2E2E2E2E2E2E2E2E2E2E2E2E2E2E2E2E2E2E2E2E2E2E2E2E2E2E2E2E2E2E2E2E2E2E2E2E2E2E2E2E2E2E2E2E2E2E2E2E2E2E2E2E2E2E2E2E2E2E2E2E2E2E2E2E2E2E2E2E2E2E2E2E2E2E2E2E2E2E2E2E2E2E2E2E2E2E2E2E2E2E2E2E2E2E2E2E2E2E2
310
E2E2E2E2E2E2E2E2E2E2E2E2E2E2E2E2E2E2E2E2E2E2E2E2E2E2E2E2E2E2E2E2E2E2E2E2E2E2E2E2E2E2E2E2E2E2E2E2E2E2E2E2E2E2E2E2E2E2E2E2E2E2E2E2E2E2E2E2E2E2E2E2E2E2E2E2E2E2E2E2E2E2E2E2E2E2E2E2E2E2E2E2E2E2E2E2E2E2E2E2E2E2E2E2E2E2E2E2E2E2E2E2E2E2E2E2E2E2E2E2E2E2E2E2E2E2E2
310
E2E2E2E2E2E2E2E2E2E2E2E2E2E2E2E2E2E2E2E2E2E2E2E2E2E2E2E2E2E2E2E2E2E2E2E2E2E2E2E2E2E2E2E2E2E2E2E2E2E2E2E2E2E2E2E2E2E2E2E2E2E2E2E2E2E2E2E2E2E2E2E2E2E2E2E2E2E2E2E2E2E2E2E2E2E2E2E2E2E2E2E2E2E2E2E2E2E2E2E2E2E2E2E2E2E2E2E2E2E2E2E2E2E2E2E2E2E2E2E2E2E2E2E2E2E2E2
310
E2E2E2E2E2E2E2E2E2E2E2E2E2E2E2E2E2E2E2E2E2E2E2E2E2E2E2E2E2E2E2E2E2E2E2E2E2E2E2E2E2E2E2E2E2E2E2E2E2E2E2E2E2E2E2E2E2E2E2E2E2E2E2E2E2E2E2E2E2E2E2E2E2E2E2E2E2E2E2E2E2E2E2E2E2E2E2E2E2E2E2E2E2E2E2E2E2E2E2E2E2E2E2E2E2E2E2E2E2E2E2E2E2E2E2E2E2E2E2E2E2E2E2E2E2E2E2
310
E2E2E2E2E2E2E2E2E2E2E2E2E2E2E2E2E2E2E2E2E2E2E2E2E2E2E2E2E2E2E2E2E2E2E2E2E2E2E2E2E2E2E2E2E2E2E2E2E2E2E2E2E2E2E2E2E2E2E2E2E2E2E2E2E2E2E2E2E2E2E2E2E2E2E2E2E2E2E2E2E2E2E2E2E2E2E2E2E2E2E2E2E2E2E2E2E2E2E2E2E2E2E2E2E2E2E2E2E2E2E2E2E2E2E2E2E2E2E2E2E2E2E2E2E2E2E2
310
E2E2E2E2E2E2E2E2E2E2E2E2E2E2E2E2E2E2E2E2E2E2E2E2E2E2E2E2E2E2E2E2E2E2E2E2E2E2E2E2E2E2E2E2E2E2E2E2E2E2E2E2E2E2E2E2E2E2E2E2E2E2E2E2E2E2E2E2E2E2E2E2E2E2E2E2E2E2E2E2E2E2E2E2E2E2E2E2E2E2E2E2E2E2E2E2E2E2E2E2E2E2E2E2E2E2E2E2E2E2E2E2E2E2E2E2E2E2E2E2E2E2E2E2E2E2E2
310
E2E2E2E2E2E2E2E2E2E2E2E2E2E2E2E2E2E2E2E2E2E2E2E2E2E2E2E2E2E2E2E2E2E2E2E2E2E2E2E2E2E2E2E2E2E2E2E2E2E2E2E2E2E2E2E2E2E2E2E2E2E2E2E2E2E2E2E2E2E2E2E2E2E2E2E2E2E2E2E2E2E2E2E2E2E2E2E2E2E2E2E2E2E2E2E2E2E2E2E2E2E2E2E2E2E2E2E2E2E2E2E2E2E2E2E2E2E2E2E2E2E2E2E2E2E2E2
310
E2E2E2E2E2E2E2E2E2E2E2E2E2E2E2E2E2E2E2E2E2E2E2E2E2E2E2E2E2E2E2E2E2E2E2E2E2E2E2E2E2E2E2E2E2E2E2E2E2E2E2E2E2E2E2E2E2E2E2E2E2E2E2E2E2E2E2E2E2E2E2E2E2E2E2E2E2E2E2E2E2E2E2E2E2E2E2E2E2E2E2E2E2E2E2E2E2E2E2E2E2E2E2E2E2E2E2E2E2E2E2E2E2E2E2E2E2E2E2E2E2E2E2E2E2E2E2
310
E2E2E2E2E2E2E2E2E2E2E2E2E2E2E2E2E2E2E2E2E2E2E2E2E2E2E2E2E2E2E2E2E2E2E2E2E2E2E2E2E2E2E2E2E2E2E2E2E2E2E2E2E2E2E2E2E2E2E2E2E2E2E2E2E2E2E2E2E2E2E2E2E2E2E2E2E2E2E2E2E2E2E2E2E2E2E2E2E2E2E2E2E2E2E2E2E2E2E2E2E2E2E2E2E2E2E2E2E2E2E2E2E2E2E2E2E2E2E2E2E2E2E2E2E2E2E2
310
E2E2E2E2E2E2E2E2E2E2E2E2E2E2E2E2E2E2E2E2E2E2E2E2E2E2E2E2E2E2E2E2E2E2E2E2E2E2E2E2E2E2E2E2E2E2E2E2E2E2E2E2E2E2E2E2E2E2E2E2E2E2E2E2E2E2E2E2E2E2E2E2E2E2E2E2E2E2E2E2E2E2E2E2E2E2E2E2E2E2E2E2E2E2E2E2E2E2E2E2E2E2E2E2E2E2E2E2E2E2E2E2E2E2E2E2E2E2E2E2E2E2E2E2E2E2E2
310
E2E2E2E2E2E2E2E2E2E2E2E2E2E2E2E2E2E2E2E2E2E2E2E2E2E2E2E2E2E2E2E2E2E2E2E2E2E2E2E2E2E2E2E2E2E2E2E2E2E2E2E2E2E2E2E2E2E2E2E2E2E2E2E2E2E2E2E2E2E2E2E2E2E2E2E2E2E2E2E2E2E2E2E2E2E2E2E2E2E2E2E2E2E2E2E2E2E2E2E2E2E2E2E2E2E2E2E2E2E2E2E2E2E2E2E2E2E2E2E2E2E2E2E2E2E2E2
310
E2E2E2E2E2E2E2E2E2E2E2E2E2E2E2E2E2E2E2E2E2E2E2E2E2E2E2E2E2E2E2E2E2E2E2E2E2E2E2E2E2E2E2E2E2E2E2E2E2E2E2E2E2E2E2E2E2E2E2E2E2E2E2E2E2E2E2E2E2E2E2E2E2E2E2E2E2E2E2E2E2E2E2E2E2E2E2E2E2E2E2E2E2E2E2E2E2E2E2E2E2E2E2E2E2E2E2E2E2E2E2E2E2E2E2E2E2E2E2E2E2E2E2E2E2E2E2
310
E2E2E2E2E2E2E2E2E2E2E2E2E2E2E2E2E2E2E2E2E2E2E2E2E2E2E2E2E2E2E2E2E2E2E2E2E2E2E2E2E2E2E2E2E2E2E2E2E2E2E2E2E2E2E2E2E2E2E2E2E2E2E2E2E2E2E2E2E2E2E2E2E2E2E2E2E2E2E2E2E2E2E2E2E2E2E2E2E2E2E2E2E2E2E2E2E2E2E2E2E2E2E2E2E2E2E2E2E2E2E2E2E2E2E2E2E2E2E2E2E2E2E2E2E2E2E2
310
E2E2E2E2E2E2E2E2E2E2E2E2E2E2E2E2E2E2E2E2E2E2E2E2E2E2E2E2E2E2E2E2E2E2E2E2E2E2E2E2E2E2E2E2E2E2E2E2E2E2E2E2E2E2E2E2E2E2E2E2E2E2E2E2E2E2E2E2E2E2E2E2E2E2E2E2E2E2E2E2E2E2E2E2E2E2E2E2E2E2E2E2E2E2E2E2E2E2E2E2E2E2E2E2E2E2E2E2E2E2E2E2E2E2E2E2E2E2E2E2E2E2E2E2E2E2E2
310
E2E2E2E2E2E2E2E2E2E2E2E2E2E2E2E2E2E2E2E2E2E2E2E2E2E2E2E2E2E2E2E2E2E2E2E2E2E2E2E2E2E2E2E2E2E2E2E2E2E2E2E2E2E2E2E2E2E2E2E2E2E2E2E2E2E2E2E2E2E2E2E2E2E2E2E2E2E2E2E2E2E2E2E2E2E2E2E2E2E2E2E2E2E2E2E2E2E2E2E2E2E2E2E2E2E2E2E2E2E2E2E2E2E2E2E2E2E2E2E2E2E2E2E2E2E2E2
310
E2E2E2E2E2E2E2E2E2E2E2E2E2E2E2E2E2E2E2E2E2E2E2E2E2E2E2E2E2E2E2E2E2E2E2E2E2E2E2E2E2E2E2E2E2E2E2E2E2E2E2E2E2E2E2E2E2E2E2E2E2E2E2E2E2E2E2E2E2E2E2E2E2E2E2E2E2E2E2E2E2E2E2E2E2E2E2E2E2E2E2E2E2E2E2E2E2E2E2E2E2E2E2E2E2E2E2E2E2E2E2E2E2E2E2E2E2E2E2E2E2E2E2E2E2E2E2
310
E2E2E2E2E2E2E2E2E2E2E2E2E2E2E2E2E2E2E2E2E2E2E2E2E2E2E2E2E2E2E2E2E2E2E2E2E2E2E2E2E2E2E2E2E2E2E2E2E2E2E2E2E2E2E2E2E2E2E2E2E2E2E2E2E2E2E2E2E2E2E2E2E2E2E2E2E2E2E2E2E2E2E2E2E2E2E2E2E2E2E2E2E2E2E2E2E2E2E2E2E2E2E2E2E2E2E2E2E2E2E2E2E2E2E2E2E2E2E2E2E2E2E2E2E2E2E2
310
E2E2E2E2E2E2E2E2E2E2E2E2E2E2E2E2E2E2E2E2E2E2E2E2E2E2E2E2E2E2E2E2E2E2E2E2E2E2E2E2E2E2E2E2E2E2E2E2E2E2E2E2E2E2E2E2E2E2E2E2E2E2E2E2E2E2E2E2E2E2E2E2E2E2E2E2E2E2E2E2E2E2E2E2E2E2E2E2E2E2E2E2E2E2E2E2E2E2E2E2E2E2E2E2E2E2E2E2E2E2E2E2E2E2E2E2E2E2E2E2E2E2E2E2E2E2E2
310
E2E2E2E2E2E2E2E2E2E2E2E2E2E2E2E2E2E2E2E2E2E2E2E2E2E2E2E2E2E2E2E2E2E2E2E2E2E2E2E2E2E2E2E2E2E2E2E2E2E2E2E2E2E2E2E2E2E2E2E2E2E2E2E2E2E2E2E2E2E2E2E2E2E2E2E2E2E2E2E2E2E2E2E2E2E2E2E2E2E2E2E2E2E2E2E2E2E2E2E2E2E2E2E2E2E2E2E2E2E2E2E2E2E2E2E2E2E2E2E2E2E2E2E2E2E2E2
310
E2E2E2E2E2E2E2E2E2E2E2E2E2E2E2E2E2E2E2E2E2E2E2E2E2E2E2E2E2E2E2E2E2E2E2E2E2E2E2E2E2E2E2E2E2E2E2E2E2E2E2E2E2E2E2E2E2E2E2E2E2E2E2E2E2E2E2E2E2E2E2E2E2E2E2E2E2E2E2E2E2E2E2E2E2E2E2E2E2E2E2E2E2E2E2E2E2E2E2E2E2E2E2E2E2E2E2E2E2E2E2E2E2E2E2E2E2E2E2E2E2E2E2E2E2E2E2
310
E2E2E2E2E2E2E2E2E2E2E2E2E2E2E2E2E2E2E2E2E2E2E2E2E2E2E2E2E2E2E2E2E2E2E2E2E2E2E2E2E2E2E2E2E2E2E2E2E2E2E2E2E2E2E2E2E2E2E2E2E2E2E2E2E2E2E2E2E2E2E2E2E2E2E2E2E2E2E2E2E2E2E2E2E2E2E2E2E2E2E2E2E2E2E2E2E2E2E2E2E2E2E2E2E2E2E2E2E2E2E2E2E2E2E2E2E2E2E2E2E2E2E2E2E2E2E2
310
E2E2E2E2E2E2E2E2E2E2E2E2E2E2E2E2E2E2E2E2E2E2E2E2E2E2E2E2E2E2E2E2E2E2E2E2E2E2E2E2E2E2E2E2E2E2E2E2E2E2E2E2E2E2E2E2E2E2E2E2E2E2E2E2E2E2E2E2E2E2E2E2E2E2E2E2E2E2E2E2E2E2E2E2E2E2E2E2E2E2E2E2E2E2E2E2E2E2E2E2E2E2E2E2E2E2E2E2E2E2E2E2E2E2E2E2E2E2E2E2E2E2E2E2E2E2E2
310
E2E2E2E2E2E2E2E2E2E2E2E2E2E2E2E2E2E2E2E2E2E2E2E2E2E2E2E2E2E2E2E2E2E2E2E2E2E2E2E2E2E2E2E2E2E2E2E2E2E2E2E2E2E2E2E2E2E2E2E2E2E2E2E2E2E2E2E2E2E2E2E2E2E2E2E2E2E2E2E2E2E2E2E2E2E2E2E2E2E2E2E2E2E2E2E2E2E2E2E2E2E2E2E2E2E2E2E2E2E2E2E2E2E2E2E2E2E2E2E2E2E2E2E2E2E2E2
310
E2E2E2E2E2E2E2E2E2E2E2E2E2E2E2E2E2E2E2E2E2E2E2E2E2E2E2E2E2E2E2E2E2E2E2E2E2E2E2E2E2E2E2E2E2E2E2E2E2E2E2E2E2E2E2E2E2E2E2E2E2E2E2E2E2E2E2E2E2E2E2E2E2E2E2E2E2E2E2E2E2E2E2E2E2E2E2E2E2E2E2E2E2E2E2E2E2E2E2E2E2E2E2E2E2E2E2E2E2E2E2E2E2E2E2E2E2E2E2E2E2E2E2E2E2E2E2
310
E2E2E2E2E2E2E2E2E2E2E2E2E2E2E2E2E2E2E2E2E2E2E2E2E2E2E2E2E2E2E2E2E2E2E2E2E2E2E2E2E2E2E2E2E2E2E2E2E2E2E2E2E2E2E2E2E2E2E2E2E2E2E2E2E2E2E2E2E2E2E2E2E2E2E2E2E2E2E2E2E2E2E2E2E2E2E2E2E2E2E2E2E2E2E2E2E2E2E2E2E2E2E2E2E2E2E2E2E2E2E2E2E2E2E2E2E2E2E2E2E2E2E2E2E2E2E2
310
E2E2E2E2E2E2E2E2E2E2E2E2E2E2E2E2E2E2E2E2E2E2E2E2E2E2E2E2E2E2E2E2E2E2E2E2E2E2E2E2E2E2E2E2E2E2E2E2E2E2E2E2E2E2E2E2E2E2E2E2E2E2E2E2E2E2E2E2E2E2E2E2E2E2E2E2E2E2E2E2E2E2E2E2E2E2E2E2E2E2E2E2E2E2E2E2E2E2E2E2E2E2E2E2E2E2E2E2E2E2E2E2E2E2E2E2E2E2E2E2E2E2E2E2E2E2E2
310
E2E2E2E2E2E2E2E2E2E2E2E2E2E2E2E2E2E2E2E2E2E2E2E2E2E2E2E2E2E2E2E2E2E2E2E2E2E2E2E2E2E2E2E2E2E2E2E2E2E2E2E2E2E2E2E2E2E2E2E2E2E2E2E2E2E2E2E2E2E2E2E2E2E2E2E2E2E2E2E2E2E2E2E2E2E2E2E2E2E2E2E2E2E2E2E2E2E2E2E2E2E2E2E2E2E2E2E2E2E2E2E2E2E2E2E2E2E2E2E2E2E2E2E2E2E2E2
310
E2E2E2E2E2E2E2E2E2E2E2E2E2E2E2E2E2E2E2E2E2E2E2E2E2E2E2E2E2E2E2E2E2E2E2E2E2E2E2E2E2E2E2E2E2E2E2E2E2E2E2E2E2E2E2E2E2E2E2E2E2E2E2E2E2E2E2E2E2E2E2E2E2E2E2E2E2E2E2E2E2E2E2E2E2E2E2E2E2E2E2E2E2E2E2E2E2E2E2E2E2E2E2E2E2E2E2E2E2E2E2E2E2E2E2E2E2E2E2E2E2E2E2E2E2E2E2
310
E2E2E2E2E2E2E2E2E2E2E2E2E2E2E2E2E2E2E2E2E2E2E2E2E2E2E2E2E2E2E2E2E2E2E2E2E2E2E2E2E2E2E2E2E2E2E2E2E2E2E2E2E2E2E2E2E2E2E2E2E2E2E2E2E2E2E2E2E2E2E2E2E2E2E2E2E2E2E2E2E2E2E2E2E2E2E2E2E2E2E2E2E2E2E2E2E2E2E2E2E2E2E2E2E2E2E2E2E2E2E2E2E2E2E2E2E2E2E2E2E2E2E2E2E2E2E2
310
E2E2E2E2E2E2E2E2E2E2E2E2E2E2E2E2E2E2E2E2E2E2E2E2E2E2E2E2E2E2E2E2E2E2E2E2E2E2E2E2E2E2E2E2E2E2E2E2E2E2E2E2E2E2E2E2E2E2E2E2E2E2E2E2E2E2E2E2E2E2E2E2E2E2E2E2E2E2E2E2E2E2E2E2E2E2E2E2E2E2E2E2E2E2E2E2E2E2E2E2E2E2E2E2E2E2E2E2E2E2E2E2E2E2E2E2E2E2E2E2E2E2E2E2E2E2E2
310
E2E2E2E2E2E2E2E2E2E2E2E2E2E2E2E2E2E2E2E2E2E2E2E2E2E2E2E2E2E2E2E2E2E2E2E2E2E2E2E2E2E2E2E2E2E2E2E2E2E2E2E2E2E2E2E2E2E2E2E2E2E2E2E2E2E2E2E2E2E2E2E2E2E2E2E2E2E2E2E2E2E2E2E2E2E2E2E2E2E2E2E2E2E2E2E2E2E2E2E2E2E2E2E2E2E2E2E2E2E2E2E2E2E2E2E2E2E2E2E2E2E2E2E2E2E2E2
310
E2E2E2E2E2E2E2E2E2E2E2E2E2E2E2E2E2E2E2E2E2E2E2E2E2E2E2E2E2E2E2E2E2E2E2E2E2E2E2E2E2E2E2E2E2E2E2E2E2E2E2E2E2E2E2E2E2E2E2E2E2E2E2E2E2E2E2E2E2E2E2E2E2E2E2E2E2E2E2E2E2E2E2E2E2E2E2E2E2E2E2E2E2E2E2E2E2E2E2E2E2E2E2E2E2E2E2E2E2E2E2E2E2E2E2E2E2E2E2E2E2E2E2E2E2E2E2
310
E2E2E2E2E2E2E2E2E2E2E2E2E2E2E2E2E2E2E2E2E2E2E2E2E2E2E2E2E2E2E2E2E2E2E2E2E2E2E2E2E2E2E2E2E2E2E2E2E2E2E2E2E2E2E2E2E2E2E2E2E2E2E2E2E2E2E2E2E2E2E2E2E2E2E2E2E2E2E2E2E2E2E2E2E2E2E2E2E2E2E2E2E2E2E2E2E2E2E2E2E2E2E2E2E2E2E2E2E2E2E2E2E2E2E2E2E2E2E2E2E2E2E2E2E2E2E2
310
E2E2E2E2E2E2E2E2E2E2E2E2E2E2E2E2E2E2E2E2E2E2E2E2E2E2E2E2E2E2E2E2E2E2E2E2E2E2E2E2E2E2E2E2E2E2E2E2E2E2E2E2E2E2E2E2E2E2E2E2E2E2E2E2E2E2E2E2E2E2E2E2E2E2E2E2E2E2E2E2E2E2E2E2E2E2E2E2E2E2E2E2E2E2E2E2E2E2E2E2E2E2E2E2E2E2E2E2E2E2E2E2E2E2E2E2E2E2E2E2E2E2E2E2E2E2E2
310
E2E2E2E2E2E2E2E2E2E2E2E2E2E2E2E2E2E2E2E2E2E2E2E2E2E2E2E2E2E2E2E2E2E2E2E2E2E2E2E2E2E2E2E2E2E2E2E2E2E2E2E2E2E2E2E2E2E2E2E2E2E2E2E2E2E2E2E2E2E2E2E2E2E2E2E2E2E2E2E2E2E2E2E2E2E2E2E2E2E2E2E2E2E2E2E2E2E2E2E2E2E2E2E2E2E2E2E2E2E2E2E2E2E2E2E2E2E2E2E2E2E2E2E2E2E2E2
310
E2E2E2E2E2E2E2E2E2E2E2E2E2E2E2E2E2E2E2E2E2E2E2E2E2E2E2E2E2E2E2E2E2E2E2E2E2E2E2E2E2E2E2E2E2E2E2E2E2E2E2E2E2E2E2E2E2E2E2E2E2E2E2E2E2E2E2E2E2E2E2E2E2E2E2E2E2E2E2E2E2E2E2E2E2E2E2E2E2E2E2E2E2E2E2E2E2E2E2E2E2E2E2E2E2E2E2E2E2E2E2E2E2E2E2E2E2E2E2E2E2E2E2E2E2E2E2
310
E2E2E2E2E2E2E2E2E2E2E2E2E2E2E2E2E2E2E2E2E2E2E2E2E2E2E2E2E2E2E2E2E2E2E2E2E2E2E2E2E2E2E2E2E2E2E2E2E2E2E2E2E2E2E2E2E2E2E2E2E2E2E2E2E2E2E2E2E2E2E2E2E2E2E2E2E2E2E2E2E2E2E2E2E2E2E2E2E2E2E2E2E2E2E2E2E2E2E2E2E2E2E2E2E2E2E2E2E2E2E2E2E2E2E2E2E2E2E2E2E2E2E2E2E2E2E2
310
E2E2E2E2E2E2E2E2E2E2E2E2E2E2E2E2E2E2E2E2E2E2E2E2E2E2E2E2E2E2E2E2E2E2E2E2E2E2E2E2E2E2E2E2E2E2E2E2E2E2E2E2E2E2E2E2E2E2E2E2E2E2E2E2E2E2E2E2E2E2E2E2E2E2E2E2E2E2E2E2E2E2E2E2E2E2E2E2E2E2E2E2E2E2E2E2E2E2E2E2E2E2E2E2E2E2E2E2E2E2E2E2E2E2E2E2E2E2E2E2E2E2E2E2E2E2E2
310
E2E2E2E2E2E2E2E2E2E2E2E2E2E2E2E2E2E2E2E2E2E2E2E2E2E2E2E2E2E2E2E2E2E2E2E2E2E2E2E2E2E2E2E2E2E2E2E2E2E2E2E2E2E2E2E2E2E2E2E2E2E2E2E2E2E2E2E2E2E2E2E2E2E2E2E2E2E2E2E2E2E2E2E2E2E2E2E2E2E2E2E2E2E2E2E2E2E2E2E2E2E2E2E2E2E2E2E2E2E2E2E2E2E2E2E2E2E2E2E2E2E2E2E2E2E2E2
310
E2E2E2E2E2E2E2E2E2E2E2E2E2E2E2E2E2E2E2E2E2E2E2E2E2E2E2E2E2E2E2E2E2E2E2E2E2E2E2E2E2E2E2E2E2E2E2E2E2E2E2E2E2E2E2E2E2E2E2E2E2E2E2E2E2E2E2E2E2E2E2E2E2E2E2E2E2E2E2E2E2E2E2E2E2E2E2E2E2E2E2E2E2E2E2E2E2E2E2E2E2E2E2E2E2E2E2E2E2E2E2E2E2E2E2E2E2E2E2E2E2E2E2E2E2E2E2
310
E2E2E2E2E2E2E2E2E2E2E2E2E2E2E2E2E2E2E2E2E2E2E2E2E2E2E2E2E2E2E2E2E2E2E2E2E2E2E2E2E2E2E2E2E2E2E2E2E2E2E2E2E2E2E2E2E2E2E2E2E2E2E2E2E2E2E2E2E2E2E2E2E2E2E2E2E2E2E2E2E2E2E2E2E2E2E2E2E2E2E2E2E2E2E2E2E2E2E2E2E2E2E2E2E2E2E2E2E2E2E2E2E2E2E2E2E2E2E2E2E2E2E2E2E2E2E2
310
E2E2E2E2E2E2E2E2E2E2E2E2E2E2E2E2E2E2E2E2E2E2E2E2E2E2E2E2E2E2E2E2E2E2E2E2E2E2E2E2E2E2E2E2E2E2E2E2E2E2E2E2E2E2E2E2E2E2E2E2E2E2E2E2E2E2E2E2E2E2E2E2E2E2E2E2E2E2E2E2E2E2E2E2E2E2E2E2E2E2E2E2E2E2E2E2E2E2E2E2E2E2E2E2E2E2E2E2E2E2E2E2E2E2E2E2E2E2E2E2E2E2E2E2E2E2E2
310
E2E2E2E2E2E2E2E2E2E2E2E2E2E2E2E2E2E2E2E2E2E2E2E2E2E2E2E2E2E2E2E2E2E2E2E2E2E2E2E2E2E2E2E2E2E2E2E2E2E2E2E2E2E2E2E2E2E2E2E2E2E2E2E2E2E2E2E2E2E2E2E2E2E2E2E2E2E2E2E2E2E2E2E2E2E2E2E2E2E2E2E2E2E2E2E2E2E2E2E2E2E2E2E2E2E2E2E2E2E2E2E2E2E2E2E2E2E2E2E2E2E2E2E2E2E2E2
310
E2E2E2E2E2E2E2E2E2E2E2E2E2E2E2E2E2E2E2E2E2E2E2E2E2E2E2E2E2E2E2E2E2E2E2E2E2E2E2E2E2E2E2E2E2E2E2E2E2E2E2E2E2E2E2E2E2E2E2E2E2E2E2E2E2E2E2E2E2E2E2E2E2E2E2E2E2E2E2E2E2E2E2E2E2E2E2E2E2E2E2E2E2E2E2E2E2E2E2E2E2E2E2E2E2E2E2E2E2E2E2E2E2E2E2E2E2E2E2E2E2E2E2E2E2E2E2
310
E2E2E2E2E2E2E2E2E2E2E2E2E2E2E2E2E2E2E2E2E2E2E2E2E2E2E2E2E2E2E2E2E2E2E2E2E2E2E2E2E2E2E2E2E2E2E2E2E2E2E2E2E2E2E2E2E2E2E2E2E2E2E2E2E2E2E2E2E2E2E2E2E2E2E2E2E2E2E2E2E2E2E2E2E2E2E2E2E2E2E2E2E2E2E2E2E2E2E2E2E2E2E2E2E2E2E2E2E2E2E2E2E2E2E2E2E2E2E2E2E2E2E2E2E2E2E2
310
E2E2E2E2E2E2E2E2E2E2E2E2E2E2E2E2E2E2E2E2E2E2E2E2E2E2E2E2E2E2E2E2E2E2E2E2E2E2E2E2E2E2E2E2E2E2E2E2E2E2E2E2E2E2E2E2E2E2E2E2E2E2E2E2E2E2E2E2E2E2E2E2E2E2E2E2E2E2E2E2E2E2E2E2E2E2E2E2E2E2E2E2E2E2E2E2E2E2E2E2E2E2E2E2E2E2E2E2E2E2E2E2E2E2E2E2E2E2E2E2E2E2E2E2E2E2E2
310
E2E2E2E2E2E2E2E2E2E2E2E2E2E2E2E2E2E2E2E2E2E2E2E2E2E2E2E2E2E2E2E2E2E2E2E2E2E2E2E2E2E2E2E2E2E2E2E2E2E2E2E2E2E2E2E2E2E2E2E2E2E2E2E2E2E2E2E2E2E2E2E2E2E2E2E2E2E2E2E2E2E2E2E2E2E2E2E2E2E2E2E2E2E2E2E2E2E2E2E2E2E2E2E2E2E2E2E2E2E2E2E2E2E2E2E2E2E2E2E2E2E2E2E2E2E2E2
310
E2E2E2E2E2E2E2E2E2E2E2E2E2E2E2E2E2E2E2E2E2E2E2E2E2E2E2E2E2E2E2E2E2E2E2E2E2E2E2E2E2E2E2E2E2E2E2E2E2E2E2E2E2E2E2E2E2E2E2E2E2E2E2E2E2E2E2E2E2E2E2E2E2E2E2E2E2E2E2E2E2E2E2E2E2E2E2E2E2E2E2E2E2E2E2E2E2E2E2E2E2E2E2E2E2E2E2E2E2E2E2E2E2E2E2E2E2E2E2E2E2E2E2E2E2E2E2
310
E2E2E2E2E2E2E2E2E2E2E2E2E2E2E2E2E2E2E2E2E2E2E2E2E2E2E2E2E2E2E2E2E2E2E2E2E2E2E2E2E2E2E2E2E2E2E2E2E2E2E2E2E2E2E2E2E2E2E2E2E2E2E2E2E2E2E2E2E2E2E2E2E2E2E2E2E2E2E2E2E2E2E2E2E2E2E2E2E2E2E2E2E2E2E2E2E2E2E2E2E2E2E2E2E2E2E2E2E2E2E2E2E2E2E2E2E2E2E2E2E2E2E2E2E2E2E2
310
E2E2E2E2E2E2E2E2E2E2E2E2E2E2E2E2E2E2E2E2E2E2E2E2E2E2E2E2E2E2E2E2E2E2E2E2E2E2E2E2E2E2E2E2E2E2E2E2E2E2E2E2E2E2E2E2E2E2E2E2E2E2E2E2E2E2E2E2E2E2E2E2E2E2E2E2E2E2E2E2E2E2E2E2E2E2E2E2E2E2E2E2E2E2E2E2E2E2E2E2E2E2E2E2E2E2E2E2E2E2E2E2E2E2E2E2E2E2E2E2E2E2E2E2E2E2E2
310
E2E2E2E2E2E2E2E2E2E2E2E2E2E2E2E2E2E2E2E2E2E2E2E2E2E2E2E2E2E2E2E2E2E2E2E2E2E2E2E2E2E2E2E2E2E2E2E2E2E2E2E2E2E2E2E2E2E2E2E2E2E2E2E2E2E2E2E2E2E2E2E2E2E2E2E2E2E2E2E2E2E2E2E2E2E2E2E2E2E2E2E2E2E2E2E2E2E2E2E2E2E2E2E2E2E2E2E2E2E2E2E2E2E2E2E2E2E2E2E2E2E2E2E2E2E2E2
310
E2E2E2E2E2E2E2E2E2E2E2E2E2E2E2E2E2E2E2E2E2E2E2E2E2E2E2E2E2E2E2E2E2E2E2E2E2E2E2E2E2E2E2E2E2E2E2E2E2E2E2E2E2E2E2E2E2E2E2E2E2E2E2E2E2E2E2E2E2E2E2E2E2E2E2E2E2E2E2E2E2E2E2E2E2E2E2E2E2E2E2E2E2E2E2E2E2E2E2E2E2E2E2E2E2E2E2E2E2E2E2E2E2E2E2E2E2E2E2E2E2E2E2E2E2E2E2
310
E2E2E2E2E2E2E2E2E2E2E2E2E2E2E2E2E2E2E2E2E2E2E2E2E2E2E2E2E2E2E2E2E2E2E2E2E2E2E2E2E2E2E2E2E2E2E2E2E2E2E2E2E2E2E2E2E2E2E2E2E2E2E2E2E2E2E2E2E2E2E2E2E2E2E2E2E2E2E2E2E2E2E2E2E2E2E2E2E2E2E2E2E2E2E2E2E2E2E2E2E2E2E2E2E2E2E2E2E2E2E2E2E2E2E2E2E2E2E2E2E2E2E2E2E2E2E2
310
E2E2E2E2E2E2E2E2E2E2E2E2E2E2E2E2E2E2E2E2E2E2E2E2E2E2E2E2E2E2E2E2E2E2E2E2E2E2E2E2E2E2E2E2E2E2E2E2E2E2E2E2E2E2E2E2E2E2E2E2E2E2E2E2E2E2E2E2E2E2E2E2E2E2E2E2E2E2E2E2E2E2E2E2E2E2E2E2E2E2E2E2E2E2E2E2E2E2E2E2E2E2E2E2E2E2E2E2E2E2E2E2E2E2E2E2E2E2E2E2E2E2E2E2E2E2E2
310
E2E2E2E2E2E2E2E2E2E2E2E2E2E2E2E2E2E2E2E2E2E2E2E2E2E2E2E2E2E2E2E2E2E2E2E2E2E2E2E2E2E2E2E2E2E2E2E2E2E2E2E2E2E2E2E2E2E2E2E2E2E2E2E2E2E2E2E2E2E2E2E2E2E2E2E2E2E2E2E2E2E2E2E2E2E2E2E2E2E2E2E2E2E2E2E2E2E2E2E2E2E2E2E2E2E2E2E2E2E2E2E2E2E2E2E2E2E2E2E2E2E2E2E2E2E2E2
310
E2E2E2E2E2E2E2E2E2E2E2E2E2E2E2E2E2E2E2E2E2E2E2E2E2E2E2E2E2E2E2E2E2E2E2E2E2E2E2E2E2E2E2E2E2E2E2E2E2E2E2E2E2E2E2E2E2E2E2E2E2E2E2E2E2E2E2E2E2E2E2E2E2E2E2E2E2E2E2E2E2E2E2E2E2E2E2E2E2E2E2E2E2E2E2E2E2E2E2E2E2E2E2E2E2E2E2E2E2E2E2E2E2E2E2E2E2E2E2E2E2E2E2E2E2E2E2
310
E2E2E2E2E2E2E2E2E2E2E2E2E2E2E2E2E2E2E2E2E2E2E2E2E2E2E2E2E2E2E2E2E2E2E2E2E2E2E2E2E2E2E2E2E2E2E2E2E2E2E2E2E2E2E2E2E2E2E2E2E2E2E2E2E2E2E2E2E2E2E2E2E2E2E2E2E2E2E2E2E2E2E2E2E2E2E2E2E2E2E2E2E2E2E2E2E2E2E2E2E2E2E2E2E2E2E2E2E2E2E2E2E2E2E2E2E2E2E2E2E2E2E2E2E2E2E2
310
E2E2E2E2E2E2E2E2E2E2E2E2E2E2E2E2E2E2E2E2E2E2E2E2E2E2E2E2E2E2E2E2E2E2E2E2E2E2E2E2E2E2E2E2E2E2E2E2E2E2E2E2E2E2E2E2E2E2E2E2E2E2E2E2E2E2E2E2E2E2E2E2E2E2E2E2E2E2E2E2E2E2E2E2E2E2E2E2E2E2E2E2E2E2E2E2E2E2E2E2E2E2E2E2E2E2E2E2E2E2E2E2E2E2E2E2E2E2E2E2E2E2E2E2E2E2E2
310
E2E2E2E2E2E2E2E2E2E2E2E2E2E2E2E2E2E2E2E2E2E2E2E2E2E2E2E2E2E2E2E2E2E2E2E2E2E2E2E2E2E2E2E2E2E2E2E2E2E2E2E2E2E2E2E2E2E2E2E2E2E2E2E2E2E2E2E2E2E2E2E2E2E2E2E2E2E2E2E2E2E2E2E2E2E2E2E2E2E2E2E2E2E2E2E2E2E2E2E2E2E2E2E2E2E2E2E2E2E2E2E2E2E2E2E2E2E2E2E2E2E2E2E2E2E2E2
310
E2E2E2E2E2E2E2E2E2E2E2E2E2E2E2E2E2E2E2E2E2E2E2E2E2E2E2E2E2E2E2E2E2E2E2E2E2E2E2E2E2E2E2E2E2E2E2E2E2E2E2E2E2E2E2E2E2E2E2E2E2E2E2E2E2E2E2E2E2E2E2E2E2E2E2E2E2E2E2E2E2E2E2E2E2E2E2E2E2E2E2E2E2E2E2E2E2E2E2E2E2E2E2E2E2E2E2E2E2E2E2E2E2E2E2E2E2E2E2E2E2E2E2E2E2E2E2
310
E2E2E2E2E2E2E2E2E2E2E2E2E2E2E2E2E2E2E2E2E2E2E2E2E2E2E2E2E2E2E2E2E2E2E2E2E2E2E2E2E2E2E2E2E2E2E2E2E2E2E2E2E2E2E2E2E2E2E2E2E2E2E2E2E2E2E2E2E2E2E2E2E2E2E2E2E2E2E2E2E2E2E2E2E2E2E2E2E2E2E2E2E2E2E2E2E2E2E2E2E2E2E2E2E2E2E2E2E2E2E2E2E2E2E2E2E2E2E2E2E2E2E2E2E2E2E2
310
E2E2E2E2E2E2E2E2E2E2E2E2E2E2E2E2E2E2E2E2E2E2E2E2E2E2E2E2E2E2E2E2E2E2E2E2E2E2E2E2E2E2E2E2E2E2E2E2E2E2E2E2E2E2E2E2E2E2E2E2E2E2E2E2E2E2E2E2E2E2E2E2E2E2E2E2E2E2E2E2E2E2E2E2E2E2E2E2E2E2E2E2E2E2E2E2E2E2E2E2E2E2E2E2E2E2E2E2E2E2E2E2E2E2E2E2E2E2E2E2E2E2E2E2E2E2E2
310
E2E2E2E2E2E2E2E2E2E2E2E2E2E2E2E2E2E2E2E2E2E2E2E2E2E2E2E2E2E2E2E2E2E2E2E2E2E2E2E2E2E2E2E2E2E2E2E2E2E2E2E2E2E2E2E2E2E2E2E2E2E2E2E2E2E2E2E2E2E2E2E2E2E2E2E2E2E2E2E2E2E2E2E2E2E2E2E2E2E2E2E2E2E2E2E2E2E2E2E2E2E2E2E2E2E2E2E2E2E2E2E2E2E2E2E2E2E2E2E2E2E2E2E2E2E2E2
310
E2E2E2E2E2E2E2E2E2E2E2E2E2E2E2E2E2E2E2E2E2E2E2E2E2E2E2E2E2E2E2E2E2E2E2E2E2E2E2E2E2E2E2E2E2E2E2E2E2E2E2E2E2E2E2E2E2E2E2E2E2E2E2E2E2E2E2E2E2E2E2E2E2E2E2E2E2E2E2E2E2E2E2E2E2E2E2E2E2E2E2E2E2E2E2E2E2E2E2E2E2E2E2E2E2E2E2E2E2E2E2E2E2E2E2E2E2E2E2E2E2E2E2E2E2E2E2
310
E2E2E2E2E2E2E2E2E2E2E2E2E2E2E2E2E2E2E2E2E2E2E2E2E2E2E2E2E2E2E2E2E2E2E2E2E2E2E2E2E2E2E2E2E2E2E2E2E2E2E2E2E2E2E2E2E2E2E2E2E2E2E2E2E2E2E2E2E2E2E2E2E2E2E2E2E2E2E2E2E2E2E2E2E2E2E2E2E2E2E2E2E2E2E2E2E2E2E2E2E2E2E2E2E2E2E2E2E2E2E2E2E2E2E2E2E2E2E2E2E2E2E2E2E2E2E2
310
E2E2E2E2E2E2E2E2E2E2E2E2E2E2E2E2E2E2E2E2E2E2E2E2E2E2E2E2E2E2E2E2E2E2E2E2E2E2E2E2E2E2E2E2E2E2E2E2E2E2E2E2E2E2E2E2E2E2E2E2E2E2E2E2E2E2E2E2E2E2E2E2E2E2E2E2E2E2E2E2E2E2E2E2E2E2E2E2E2E2E2E2E2E2E2E2E2E2E2E2E2E2E2E2E2E2E2E2E2E2E2E2E2E2E2E2E2E2E2E2E2E2E2E2E2E2E2
310
E2E2E2E2E2E2E2E2E2E2E2E2E2E2E2E2E2E2E2E2E2E2E2E2E2E2E2E2E2E2E2E2E2E2E2E2E2E2E2E2E2E2E2E2E2E2E2E2E2E2E2E2E2E2E2E2E2E2E2E2E2E2E2E2E2E2E2E2E2E2E2E2E2E2E2E2E2E2E2E2E2E2E2E2E2E2E2E2E2E2E2E2E2E2E2E2E2E2E2E2E2E2E2E2E2E2E2E2E2E2E2E2E2E2E2E2E2E2E2E2E2E2E2E2E2E2E2
310
E2E2E2E2E2E2E2E2E2E2E2E2E2E2E2E2E2E2E2E2E2E2E2E2E2E2E2E2E2E2E2E2E2E2E2E2E2E2E2E2E2E2E2E2E2E2E2E2E2E2E2E2E2E2E2E2E2E2E2E2E2E2E2E2E2E2E2E2E2E2E2E2E2E2E2E2E2E2E2E2E2E2E2E2E2E2E2E2E2E2E2E2E2E2E2E2E2E2E2E2E2E2E2E2E2E2E2E2E2E2E2E2E2E2E2E2E2E2E2E2E2E2E2E2E2E2E2
310
E2E2E2E2E2E2E2E2E2E2E2E2E2E2E2E2E2E2E2E2E2E2E2E2E2E2E2E2E2E2E2E2E2E2E2E2E2E2E2E2E2E2E2E2E2E2E2E2E2E2E2E2E2E2E2E2E2E2E2E2E2E2E2E2E2E2E2E2E2E2E2E2E2E2E2E2E2E2E2E2E2E2E2E2E2E2E2E2E2E2E2E2E2E2E2E2E2E2E2E2E2E2E2E2E2E2E2E2E2E2E2E2E2E2E2E2E2E2E2E2E2E2E2E2E2E2E2
310
E2E2E2E2E2E2E2E2E2E2E2E2E2E2E2E2E2E2E2E2E2E2E2E2E2E2E2E2E2E2E2E2E2E2E2E2E2E2E2E2E2E2E2E2E2E2E2E2E2E2E2E2E2E2E2E2E2E2E2E2E2E2E2E2E2E2E2E2E2E2E2E2E2E2E2E2E2E2E2E2E2E2E2E2E2E2E2E2E2E2E2E2E2E2E2E2E2E2E2E2E2E2E2E2E2E2E2E2E2E2E2E2E2E2E2E2E2E2E2E2E2E2E2E2E2E2E2
310
E2E2E2E2E2E2E2E2E2E2E2E2E2E2E2E2E2E2E2E2E2E2E2E2E2E2E2E2E2E2E2E2E2E2E2E2E2E2E2E2E2E2E2E2E2E2E2E2E2E2E2E2E2E2E2E2E2E2E2E2E2E2E2E2E2E2E2E2E2E2E2E2E2E2E2E2E2E2E2E2E2E2E2E2E2E2E2E2E2E2E2E2E2E2E2E2E2E2E2E2E2E2E2E2E2E2E2E2E2E2E2E2E2E2E2E2E2E2E2E2E2E2E2E2E2E2E2
310
E2E2E2E2E2E2E2E2E2E2E2E2E2E2E2E2E2E2E2E2E2E2E2E2E2E2E2E2E2E2E2E2E2E2E2E2E2E2E2E2E2E2E2E2E2E2E2E2E2E2E2E2E2E2E2E2E2E2E2E2E2E2E2E2E2E2E2E2E2E2E2E2E2E2E2E2E2E2E2E2E2E2E2E2E2E2E2E2E2E2E2E2E2E2E2E2E2E2E2E2E2E2E2E2E2E2E2E2E2E2E2E2E2E2E2E2E2E2E2E2E2E2E2E2E2E2E2
310
E2E2E2E2E2E2E2E2E2E2E2E2E2E2E2E2E2E2E2E2E2E2E2E2E2E2E2E2E2E2E2E2E2E2E2E2E2E2E2E2E2E2E2E2E2E2E2E2E2E2E2E2E2E2E2E2E2E2E2E2E2E2E2E2E2E2E2E2E2E2E2E2E2E2E2E2E2E2E2E2E2E2E2E2E2E2E2E2E2E2E2E2E2E2E2E2E2E2E2E2E2E2E2E2E2E2E2E2E2E2E2E2E2E2E2E2E2E2E2E2E2E2E2E2E2E2E2
310
E2E2E2E2E2E2E2E2E2E2E2E2E2E2E2E2E2E2E2E2E2E2E2E2E2E2E2E2E2E2E2E2E2E2E2E2E2E2E2E2E2E2E2E2E2E2E2E2E2E2E2E2E2E2E2E2E2E2E2E2E2E2E2E2E2E2E2E2E2E2E2E2E2E2E2E2E2E2E2E2E2E2E2E2E2E2E2E2E2E2E2E2E2E2E2E2E2E2E2E2E2E2E2E2E2E2E2E2E2E2E2E2E2E2E2E2E2E2E2E2E2E2E2E2E2E2E2
310
E2E2E2E2E2E2E2E2E2E2E2E2E2E2E2E2E2E2E2E2E2E2E2E2E2E2E2E2E2E2E2E2E2E2E2E2E2E2E2E2E2E2E2E2E2E2E2E2E2E2E2E2E2E2E2E2E2E2E2E2E2E2E2E2E2E2E2E2E2E2E2E2E2E2E2E2E2E2E2E2E2E2E2E2E2E2E2E2E2E2E2E2E2E2E2E2E2E2E2E2E2E2E2E2E2E2E2E2E2E2E2E2E2E2E2E2E2E2E2E2E2E2E2E2E2E2E2
310
E2E2E2E2E2E2E2E2E2E2E2E2E2E2E2E2E2E2E2E2E2E2E2E2E2E2E2E2E2E2E2E2E2E2E2E2E2E2E2E2E2E2E2E2E2E2E2E2E2E2E2E2E2E2E2E2E2E2E2E2E2E2E2E2E2E2E2E2E2E2E2E2E2E2E2E2E2E2E2E2E2E2E2E2E2E2E2E2E2E2E2E2E2E2E2E2E2E2E2E2E2E2E2E2E2E2E2E2E2E2E2E2E2E2E2E2E2E2E2E2E2E2E2E2E2E2E2
310
E2E2E2E2E2E2E2E2E2E2E2E2E2E2E2E2E2E2E2E2E2E2E2E2E2E2E2E2E2E2E2E2E2E2E2E2E2E2E2E2E2E2E2E2E2E2E2E2E2E2E2E2E2E2E2E2E2E2E2E2E2E2E2E2E2E2E2E2E2E2E2E2E2E2E2E2E2E2E2E2E2E2E2E2E2E2E2E2E2E2E2E2E2E2E2E2E2E2E2E2E2E2E2E2E2E2E2E2E2E2E2E2E2E2E2E2E2E2E2E2E2E2E2E2E2E2E2
310
E2E2E2E2E2E2E2E2E2E2E2E2E2E2E2E2E2E2E2E2E2E2E2E2E2E2E2E2E2E2E2E2E2E2E2E2E2E2E2E2E2E2E2E2E2E2E2E2E2E2E2E2E2E2E2E2E2E2E2E2E2E2E2E2E2E2E2E2E2E2E2E2E2E2E2E2E2E2E2E2E2E2E2E2E2E2E2E2E2E2E2E2E2E2E2E2E2E2E2E2E2E2E2E2E2E2E2E2E2E2E2E2E2E2E2E2E2E2E2E2E2E2E2E2E2E2E2
310
E2E2E2E2E2E2E2E2E2E2E2E2E2E2E2E2E2E2E2E2E2E2E2E2E2E2E2E2E2E2E2E2E2E2E2E2E2E2E2E2E2E2E2E2E2E2E2E2E2E2E2E2E2E2E2E2E2E2E2E2E2E2E2E2E2E2E2E2E2E2E2E2E2E2E2E2E2E2E2E2E2E2E2E2E2E2E2E2E2E2E2E2E2E2E2E2E2E2E2E2E2E2E2E2E2E2E2E2E2E2E2E2E2E2E2E2E2E2E2E2E2E2E2E2E2E2E2
310
E2E2E2E2E2E2E2E2E2E2E2E2E2E2E2E2E2E2E2E2E2E2E2E2E2E2E2E2E2E2E2E2E2E2E2E2E2E2E2E2E2E2E2E2E2E2E2E2E2E2E2E2E2E2E2E2E2E2E2E2E2E2E2E2E2E2E2E2E2E2E2E2E2E2E2E2E2E2E2E2E2E2E2E2E2E2E2E2E2E2E2E2E2E2E2E2E2E2E2E2E2E2E2E2E2E2E2E2E2E2E2E2E2E2E2E2E2E2E2E2E2E2E2E2E2E2E2
310
E2E2E2E2E2E2E2E2E2E2E2E2E2E2E2E2E2E2E2E2E2E2E2E2E2E2E2E2E2E2E2E2E2E2E2E2E2E2E2E2E2E2E2E2E2E2E2E2E2E2E2E2E2E2E2E2E2E2E2E2E2E2E2E2E2E2E2E2E2E2E2E2E2E2E2E2E2E2E2E2E2E2E2E2E2E2E2E2E2E2E2E2E2E2E2E2E2E2E2E2E2E2E2E2E2E2E2E2E2E2E2E2E2E2E2E2E2E2E2E2E2E2E2E2E2E2E2
310
E2E2E2E2E2E2E2E2E2E2E2E2E2E2E2E2E2E2E2E2E2E2E2E2E2E2E2E2E2E2E2E2E2E2E2E2E2E2E2E2E2E2E2E2E2E2E2E2E2E2E2E2E2E2E2E2E2E2E2E2E2E2E2E2E2E2E2E2E2E2E2E2E2E2E2E2E2E2E2E2E2E2E2E2E2E2E2E2E2E2E2E2E2E2E2E2E2E2E2E2E2E2E2E2E2E2E2E2E2E2E2E2E2E2E2E2E2E2E2E2E2E2E2E2E2E2E2
310
E2E2E2E2E2E2E2E2E2E2E2E2E2E2E2E2E2E2E2E2E2E2E2E2E2E2E2E2E2E2E2E2E2E2E2E2E2E2E2E2E2E2E2E2E2E2E2E2E2E2E2E2E2E2E2E2E2E2E2E2E2E2E2E2E2E2E2E2E2E2E2E2E2E2E2E2E2E2E2E2E2E2E2E2E2E2E2E2E2E2E2E2E2E2E2E2E2E2E2E2E2E2E2E2E2E2E2E2E2E2E2E2E2E2E2E2E2E2E2E2E2E2E2E2E2E2E2
310
E2E2E2E2E2E2E2E2E2E2E2E2E2E2E2E2E2E2E2E2E2E2E2E2E2E2E2E2E2E2E2E2E2E2E2E2E2E2E2E2E2E2E2E2E2E2E2E2E2E2E2E2E2E2E2E2E2E2E2E2E2E2E2E2E2E2E2E2E2E2E2E2E2E2E2E2E2E2E2E2E2E2E2E2E2E2E2E2E2E2E2E2E2E2E2E2E2E2E2E2E2E2E2E2E2E2E2E2E2E2E2E2E2E2E2E2E2E2E2E2E2E2E2E2E2E2E2
310
E2E2E2E2E2E2E2E2E2E2E2E2E2E2E2E2E2E2E2E2E2E2E2E2E2E2E2E2E2E2E2E2E2E2E2E2E2E2E2E2E2E2E2E2E2E2E2E2E2E2E2E2E2E2E2E2E2E2E2E2E2E2E2E2E2E2E2E2E2E2E2E2E2E2E2E2E2E2E2E2E2E2E2E2E2E2E2E2E2E2E2E2E2E2E2E2E2E2E2E2E2E2E2E2E2E2E2E2E2E2E2E2E2E2E2E2E2E2E2E2E2E2E2E2E2E2E2
310
E2E2E2E2E2E2E2E2E2E2E2E2E2E2E2E2E2E2E2E2E2E2E2E2E2E2E2E2E2E2E2E2E2E2E2E2E2E2E2E2E2E2E2E2E2E2E2E2E2E2E2E2E2E2E2E2E2E2E2E2E2E2E2E2E2E2E2E2E2E2E2E2E2E2E2E2E2E2E2E2E2E2E2E2E2E2E2E2E2E2E2E2E2E2E2E2E2E2E2E2E2E2E2E2E2E2E2E2E2E2E2E2E2E2E2E2E2E2E2E2E2E2E2E2E2E2E2
310
E2E2E2E2E2E2E2E2E2E2E2E2E2E2E2E2E2E2E2E2E2E2E2E2E2E2E2E2E2E2E2E2E2E2E2E2E2E2E2E2E2E2E2E2E2E2E2E2E2E2E2E2E2E2E2E2E2E2E2E2E2E2E2E2E2E2E2E2E2E2E2E2E2E2E2E2E2E2E2E2E2E2E2E2E2E2E2E2E2E2E2E2E2E2E2E2E2E2E2E2E2E2E2E2E2E2E2E2E2E2E2E2E2E2E2E2E2E2E2E2E2E2E2E2E2E2E2
310
E2E2E2E2E2E2E2E2E2E2E2E2E2E2E2E2E2E2E2E2E2E2E2E2E2E2E2E2E2E2E2E2E2E2E2E2E2E2E2E2E2E2E2E2E2E2E2E2E2E2E2E2E2E2E2E2E2E2E2E2E2E2E2E2E2E2E2E2E2E2E2E2E2E2E2E2E2E2E2E2E2E2E2E2E2E2E2E2E2E2E2E2E2E2E2E2E2E2E2E2E2E2E2E2E2E2E2E2E2E2E2E2E2E2E2E2E2E2E2E2E2E2E2E2E2E2E2
310
E2E2E2E2E2E2E2E2E2E2E2E2E2E2E2E2E2E2E2E2E2E2E2E2E2E2E2E2E2E2E2E2E2E2E2E2E2E2E2E2E2E2E2E2E2E2E2E2E2E2E2E2E2E2E2E2E2E2E2E2E2E2E2E2E2E2E2E2E2E2E2E2E2E2E2E2E2E2E2E2E2E2E2E2E2E2E2E2E2E2E2E2E2E2E2E2E2E2E2E2E2E2E2E2E2E2E2E2E2E2E2E2E2E2E2E2E2E2E2E2E2E2E2E2E2E2E2
310
E2E2E2E2E2E2E2E2E2E2E2E2E2E2E2E2E2E2E2E2E2E2E2E2E2E2E2E2E2E2E2E2E2E2E2E2E2E2E2E2E2E2E2E2E2E2E2E2E2E2E2E2E2E2E2E2E2E2E2E2E2E2E2E2E2E2E2E2E2E2E2E2E2E2E2E2E2E2E2E2E2E2E2E2E2E2E2E2E2E2E2E2E2E2E2E2E2E2E2E2E2E2E2E2E2E2E2E2E2E2E2E2E2E2E2E2E2E2E2E2E2E2E2E2E2E2E2
310
E2E2E2E2E2E2E2E2E2E2E2E2E2E2E2E2E2E2E2E2E2E2E2E2E2E2E2E2E2E2E2E2E2E2E2E2E2E2E2E2E2E2E2E2E2E2E2E2E2E2E2E2E2E2E2E2E2E2E2E2E2E2E2E2E2E2E2E2E2E2E2E2E2E2E2E2E2E2E2E2E2E2E2E2E2E2E2E2E2E2E2E2E2E2E2E2E2E2E2E2E2E2E2E2E2E2E2E2E2E2E2E2E2E2E2E2E2E2E2E2E2E2E2E2E2E2E2
310
E2E2E2E2E2E2E2E2E2E2E2E2E2E2E2E2E2E2E2E2E2E2E2E2E2E2E2E2E2E2E2E2E2E2E2E2E2E2E2E2E2E2E2E2E2E2E2E2E2E2E2E2E2E2E2E2E2E2E2E2E2E2E2E2E2E2E2E2E2E2E2E2E2E2E2E2E2E2E2E2E2E2E2E2E2E2E2E2E2E2E2E2E2E2E2E2E2E2E2E2E2E2E2E2E2E2E2E2E2E2E2E2E2E2E2E2E2E2E2E2E2E2E2E2E2E2E2
310
E2E2E2E2E2E2E2E2E2E2E2E2E2E2E2E2E2E2E2E2E2E2E2E2E2E2E2E2E2E2E2E2E2E2E2E2E2E2E2E2E2E2E2E2E2E2E2E2E2E2E2E2E2E2E2E2E2E2E2E2E2E2E2E2E2E2E2E2E2E2E2E2E2E2E2E2E2E2E2E2E2E2E2E2E2E2E2E2E2E2E2E2E2E2E2E2E2E2E2E2E2E2E2E2E2E2E2E2E2E2E2E2E2E2E2E2E2E2E2E2E2E2E2E2E2E2E2
310
E2E2E2E2E2E2E2E2E2E2E2E2E2E2E2E2E2E2E2E2E2E2E2E2E2E2E2E2E2E2E2E2E2E2E2E2E2E2E2E2E2E2E2E2E2E2E2E2E2E2E2E2E2E2E2E2E2E2E2E2E2E2E2E2E2E2E2E2E2E2E2E2E2E2E2E2E2E2E2E2E2E2E2E2E2E2E2E2E2E2E2E2E2E2E2E2E2E2E2E2E2E2E2E2E2E2E2E2E2E2E2E2E2E2E2E2E2E2E2E2E2E2E2E2E2E2E2
310
E2E2E2E2E2E2E2E2E2E2E2E2E2E2E2E2E2E2E2E2E2E2E2E2E2E2E2E2E2E2E2E2E2E2E2E2E2E2E2E2E2E2E2E2E2E2E2E2E2E2E2E2E2E2E2E2E2E2E2E2E2E2E2E2E2E2E2E2E2E2E2E2E2E2E2E2E2E2E2E2E2E2E2E2E2E2E2E2E2E2E2E2E2E2E2E2E2E2E2E2E2E2E2E2E2E2E2E2E2E2E2E2E2E2E2E2E2E2E2E2E2E2E2E2E2E2E2
310
E2E2E2E2E2E2E2E2E2E2E2E2E2E2E2E2E2E2E2E2E2E2E2E2E2E2E2E2E2E2E2E2E2E2E2E2E2E2E2E2E2E2E2E2E2E2E2E2E2E2E2E2E2E2E2E2E2E2E2E2E2E2E2E2E2E2E2E2E2E2E2E2E2E2E2E2E2E2E2E2E2E2E2E2E2E2E2E2E2E2E2E2E2E2E2E2E2E2E2E2E2E2E2E2E2E2E2E2E2E2E2E2E2E2E2E2E2E2E2E2E2E2E2E2E2E2E2
310
E2E2E2E2E2E2E2E2E2E2E2E2E2E2E2E2E2E2E2E2E2E2E2E2E2E2E2E2E2E2E2E2E2E2E2E2E2E2E2E2E2E2E2E2E2E2E2E2E2E2E2E2E2E2E2E2E2E2E2E2E2E2E2E2E2E2E2E2E2E2E2E2E2E2E2E2E2E2E2E2E2E2E2E2E2E2E2E2E2E2E2E2E2E2E2E2E2E2E2E2E2E2E2E2E2E2E2E2E2E2E2E2E2E2E2E2E2E2E2E2E2E2E2E2E2E2E2
310
E2E2E2E2E2E2E2E2E2E2E2E2E2E2E2E2E2E2E2E2E2E2E2E2E2E2E2E2E2E2E2E2E2E2E2E2E2E2E2E2E2E2E2E2E2E2E2E2E2E2E2E2E2E2E2E2E2E2E2E2E2E2E2E2E2E2E2E2E2E2E2E2E2E2E2E2E2E2E2E2E2E2E2E2E2E2E2E2E2E2E2E2E2E2E2E2E2E2E2E2E2E2E2E2E2E2E2E2E2E2E2E2E2E2E2E2E2E2E2E2E2E2E2E2E2E2E2
310
E2E2E2E2E2E2E2E2E2E2E2E2E2E2E2E2E2E2E2E2E2E2E2E2E2E2E2E2E2E2E2E2E2E2E2E2E2E2E2E2E2E2E2E2E2E2E2E2E2E2E2E2E2E2E2E2E2E2E2E2E2E2E2E2E2E2E2E2E2E2E2E2E2E2E2E2E2E2E2E2E2E2E2E2E2E2E2E2E2E2E2E2E2E2E2E2E2E2E2E2E2E2E2E2E2E2E2E2E2E2E2E2E2E2E2E2E2E2E2E2E2E2E2E2E2E2E2
310
E2E2E2E2E2E2E2E2E2E2E2E2E2E2E2E2E2E2E2E2E2E2E2E2E2E2E2E2E2E2E2E2E2E2E2E2E2E2E2E2E2E2E2E2E2E2E2E2E2E2E2E2E2E2E2E2E2E2E2E2E2E2E2E2E2E2E2E2E2E2E2E2E2E2E2E2E2E2E2E2E2E2E2E2E2E2E2E2E2E2E2E2E2E2E2E2E2E2E2E2E2E2E2E2E2E2E2E2E2E2E2E2E2E2E2E2E2E2E2E2E2E2E2E2E2E2E2
310
E2E2E2E2E2E2E2E2E2E2E2E2E2E2E2E2E2E2E2E2E2E2E2E2E2E2E2E2E2E2E2E2E2E2E2E2E2E2E2E2E2E2E2E2E2E2E2E2E2E2E2E2E2E2E2E2E2E2E2E2E2E2E2E2E2E2E2E2E2E2E2E2E2E2E2E2E2E2E2E2E2E2E2E2E2E2E2E2E2E2E2E2E2E2E2E2E2E2E2E2E2E2E2E2E2E2E2E2E2E2E2E2E2E2E2E2E2E2E2E2E2E2E2E2E2E2E2
310
E2E2E2E2E2E2E2E2E2E2E2E2E2E2E2E2E2E2E2E2E2E2E2E2E2E2E2E2E2E2E2E2E2E2E2E2E2E2E2E2E2E2E2E2E2E2E2E2E2E2E2E2E2E2E2E2E2E2E2E2E2E2E2E2E2E2E2E2E2E2E2E2E2E2E2E2E2E2E2E2E2E2E2E2E2E2E2E2E2E2E2E2E2E2E2E2E2E2E2E2E2E2E2E2E2E2E2E2E2E2E2E2E2E2E2E2E2E2E2E2E2E2E2E2E2E2E2
310
E2E2E2E2E2E2E2E2E2E2E2E2E2E2E2E2E2E2E2E2E2E2E2E2E2E2E2E2E2E2E2E2E2E2E2E2E2E2E2E2E2E2E2E2E2E2E2E2E2E2E2E2E2E2E2E2E2E2E2E2E2E2E2E2E2E2E2E2E2E2E2E2E2E2E2E2E2E2E2E2E2E2E2E2E2E2E2E2E2E2E2E2E2E2E2E2E2E2E2E2E2E2E2E2E2E2E2E2E2E2E2E2E2E2E2E2E2E2E2E2E2E2E2E2E2E2E2
310
E2E2E2E2E2E2E2E2E2E2E2E2E2E2E2E2E2E2E2E2E2E2E2E2E2E2E2E2E2E2E2E2E2E2E2E2E2E2E2E2E2E2E2E2E2E2E2E2E2E2E2E2E2E2E2E2E2E2E2E2E2E2E2E2E2E2E2E2E2E2E2E2E2E2E2E2E2E2E2E2E2E2E2E2E2E2E2E2E2E2E2E2E2E2E2E2E2E2E2E2E2E2E2E2E2E2E2E2E2E2E2E2E2E2E2E2E2E2E2E2E2E2E2E2E2E2E2
310
E2E2E2E2E2E2E2E2E2E2E2E2E2E2E2E2E2E2E2E2E2E2E2E2E2E2E2E2E2E2E2E2E2E2E2E2E2E2E2E2E2E2E2E2E2E2E2E2E2E2E2E2E2E2E2E2E2E2E2E2E2E2E2E2E2E2E2E2E2E2E2E2E2E2E2E2E2E2E2E2E2E2E2E2E2E2E2E2E2E2E2E2E2E2E2E2E2E2E2E2E2E2E2E2E2E2E2E2E2E2E2E2E2E2E2E2E2E2E2E2E2E2E2E2E2E2E2
310
E2E2E2E2E2E2E2E2E2E2E2E2E2E2E2E2E2E2E2E2E2E2E2E2E2E2E2E2E2E2E2E2E2E2E2E2E2E2E2E2E2E2E2E2E2E2E2E2E2E2E2E2E2E2E2E2E2E2E2E2E2E2E2E2E2E2E2E2E2E2E2E2E2E2E2E2E2E2E2E2E2E2E2E2E2E2E2E2E2E2E2E2E2E2E2E2E2E2E2E2E2E2E2E2E2E2E2E2E2E2E2E2E2E2E2E2E2E2E2E2E2E2E2E2E2E2E2
310
E2E2E2E2E2E2E2E2E2E2E2E2E2E2E2E2E2E2E2E2E2E2E2E2E2E2E2E2E2E2E2E2E2E2E2E2E2E2E2E2E2E2E2E2E2E2E2E2E2E2E2E2E2E2E2E2E2E2E2E2E2E2E2E2E2E2E2E2E2E2E2E2E2E2E2E2E2E2E2E2E2E2E2E2E2E2E2E2E2E2E2E2E2E2E2E2E2E2E2E2E2E2E2E2E2E2E2E2E2E2E2E2E2E2E2E2E2E2E2E2E2E2E2E2E2E2E2
310
E2E2E2E2E2E2E2E2E2E2E2E2E2E2E2E2E2E2E2E2E2E2E2E2E2E2E2E2E2E2E2E2E2E2E2E2E2E2E2E2E2E2E2E2E2E2E2E2E2E2E2E2E2E2E2E2E2E2E2E2E2E2E2E2E2E2E2E2E2E2E2E2E2E2E2E2E2E2E2E2E2E2E2E2E2E2E2E2E2E2E2E2E2E2E2E2E2E2E2E2E2E2E2E2E2E2E2E2E2E2E2E2E2E2E2E2E2E2E2E2E2E2E2E2E2E2E2
310
E2E2E2E2E2E2E2E2E2E2E2E2E2E2E2E2E2E2E2E2E2E2E2E2E2E2E2E2E2E2E2E2E2E2E2E2E2E2E2E2E2E2E2E2E2E2E2E2E2E2E2E2E2E2E2E2E2E2E2E2E2E2E2E2E2E2E2E2E2E2E2E2E2E2E2E2E2E2E2E2E2E2E2E2E2E2E2E2E2E2E2E2E2E2E2E2E2E2E2E2E2E2E2E2E2E2E2E2E2E2E2E2E2E2E2E2E2E2E2E2E2E2E2E2E2E2E2
310
E2E2E2E2E2E2E2E2E2E2E2E2E2E2E2E2E2E2E2E2E2E2E2E2E2E2E2E2E2E2E2E2E2E2E2E2E2E2E2E2E2E2E2E2E2E2E2E2E2E2E2E2E2E2E2E2E2E2E2E2E2E2E2E2E2E2E2E2E2E2E2E2E2E2E2E2E2E2E2E2E2E2E2E2E2E2E2E2E2E2E2E2E2E2E2E2E2E2E2E2E2E2E2E2E2E2E2E2E2E2E2E2E2E2E2E2E2E2E2E2E2E2E2E2E2E2E2
310
E2E2E2E2E2E2E2E2E2E2E2E2E2E2E2E2E2E2E2E2E2E2E2E2E2E2E2E2E2E2E2E2E2E2E2E2E2E2E2E2E2E2E2E2E2E2E2E2E2E2E2E2E2E2E2E2E2E2E2E2E2E2E2E2E2E2E2E2E2E2E2E2E2E2E2E2E2E2E2E2E2E2E2E2E2E2E2E2E2E2E2E2E2E2E2E2E2E2E2E2E2E2E2E2E2E2E2E2E2E2E2E2E2E2E2E2E2E2E2E2E2E2E2E2E2E2E2
310
E2E2E2E2E2E2E2E2E2E2E2E2E2E2E2E2E2E2E2E2E2E2E2E2E2E2E2E2E2E2E2E2E2E2E2E2E2E2E2E2E2E2E2E2E2E2E2E2E2E2E2E2E2E2E2E2E2E2E2E2E2E2E2E2E2E2E2E2E2E2E2E2E2E2E2E2E2E2E2E2E2E2E2E2E2E2E2E2E2E2E2E2E2E2E2E2E2E2E2E2E2E2E2E2E2E2E2E2E2E2E2E2E2E2E2E2E2E2E2E2E2E2E2E2E2E2E2
310
E2E2E2E2E2E2E2E2E2E2E2E2E2E2E2E2E2E2E2E2E2E2E2E2E2E2E2E2E2E2E2E2E2E2E2E2E2E2E2E2E2E2E2E2E2E2E2E2E2E2E2E2E2E2E2E2E2E2E2E2E2E2E2E2E2E2E2E2E2E2E2E2E2E2E2E2E2E2E2E2E2E2E2E2E2E2E2E2E2E2E2E2E2E2E2E2E2E2E2E2E2E2E2E2E2E2E2E2E2E2E2E2E2E2E2E2E2E2E2E2E2E2E2E2E2E2E2
310
E2E2E2E2E2E2E2E2E2E2E2E2E2E2E2E2E2E2E2E2E2E2E2E2E2E2E2E2E2E2E2E2E2E2E2E2E2E2E2E2E2E2E2E2E2E2E2E2E2E2E2E2E2E2E2E2E2E2E2E2E2E2E2E2E2E2E2E2E2E2E2E2E2E2E2E2E2E2E2E2E2E2E2E2E2E2E2E2E2E2E2E2E2E2E2E2E2E2E2E2E2E2E2E2E2E2E2E2E2E2E2E2E2E2E2E2E2E2E2E2E2E2E2E2E2E2E2
310
E2E2E2E2E2E2E2E2E2E2E2E2E2E2E2E2E2E2E2E2E2E2E2E2E2E2E2E2E2E2E2E2E2E2E2E2E2E2E2E2E2E2E2E2E2E2E2E2E2E2E2E2E2E2E2E2E2E2E2E2E2E2E2E2E2E2E2E2E2E2E2E2E2E2E2E2E2E2E2E2E2E2E2E2E2E2E2E2E2E2E2E2E2E2E2E2E2E2E2E2E2E2E2E2E2E2E2E2E2E2E2E2E2E2E2E2E2E2E2E2E2E2E2E2E2E2E2
310
E2E2E2E2E2E2E2E2E2E2E2E2E2E2E2E2E2E2E2E2E2E2E2E2E2E2E2E2E2E2E2E2E2E2E2E2E2E2E2E2E2E2E2E2E2E2E2E2E2E2E2E2E2E2E2E2E2E2E2E2E2E2E2E2E2E2E2E2E2E2E2E2E2E2E2E2E2E2E2E2E2E2E2E2E2E2E2E2E2E2E2E2E2E2E2E2E2E2E2E2E2E2E2E2E2E2E2E2E2E2E2E2E2E2E2E2E2E2E2E2E2E2E2E2E2E2E2
310
E2E2E2E2E2E2E2E2E2E2E2E2E2E2E2E2E2E2E2E2E2E2E2E2E2E2E2E2E2E2E2E2E2E2E2E2E2E2E2E2E2E2E2E2E2E2E2E2E2E2E2E2E2E2E2E2E2E2E2E2E2E2E2E2E2E2E2E2E2E2E2E2E2E2E2E2E2E2E2E2E2E2E2E2E2E2E2E2E2E2E2E2E2E2E2E2E2E2E2E2E2E2E2E2E2E2E2E2E2E2E2E2E2E2E2E2E2E2E2E2E2E2E2E2E2E2E2
310
E2E2E2E2E2E2E2E2E2E2E2E2E2E2E2E2E2E2E2E2E2E2E2E2E2E2E2E2E2E2E2E2E2E2E2E2E2E2E2E2E2E2E2E2E2E2E2E2E2E2E2E2E2E2E2E2E2E2E2E2E2E2E2E2E2E2E2E2E2E2E2E2E2E2E2E2E2E2E2E2E2E2E2E2E2E2E2E2E2E2E2E2E2E2E2E2E2E2E2E2E2E2E2E2E2E2E2E2E2E2E2E2E2E2E2E2E2E2E2E2E2E2E2E2E2E2E2
310
E2E2E2E2E2E2E2E2E2E2E2E2E2E2E2E2E2E2E2E2E2E2E2E2E2E2E2E2E2E2E2E2E2E2E2E2E2E2E2E2E2E2E2E2E2E2E2E2E2E2E2E2E2E2E2E2E2E2E2E2E2E2E2E2E2E2E2E2E2E2E2E2E2E2E2E2E2E2E2E2E2E2E2E2E2E2E2E2E2E2E2E2E2E2E2E2E2E2E2E2E2E2E2E2E2E2E2E2E2E2E2E2E2E2E2E2E2E2E2E2E2E2E2E2E2E2E2
310
E2E2E2E2E2E2E2E2E2E2E2E2E2E2E2E2E2E2E2E2E2E2E2E2E2E2E2E2E2E2E2E2E2E2E2E2E2E2E2E2E2E2E2E2E2E2E2E2E2E2E2E2E2E2E2E2E2E2E2E2E2E2E2E2E2E2E2E2E2E2E2E2E2E2E2E2E2E2E2E2E2E2E2E2E2E2E2E2E2E2E2E2E2E2E2E2E2E2E2E2E2E2E2E2E2E2E2E2E2E2E2E2E2E2E2E2E2E2E2E2E2E2E2E2E2E2E2
310
E2E2E2E2E2E2E2E2E2E2E2E2E2E2E2E2E2E2E2E2E2E2E2E2E2E2E2E2E2E2E2E2E2E2E2E2E2E2E2E2E2E2E2E2E2E2E2E2E2E2E2E2E2E2E2E2E2E2E2E2E2E2E2E2E2E2E2E2E2E2E2E2E2E2E2E2E2E2E2E2E2E2E2E2E2E2E2E2E2E2E2E2E2E2E2E2E2E2E2E2E2E2E2E2E2E2E2E2E2E2E2E2E2E2E2E2E2E2E2E2E2E2E2E2E2E2E2
310
E2E2E2E2E2E2E2E2E2E2E2E2E2E2E2E2E2E2E2E2E2E2E2E2E2E2E2E2E2E2E2E2E2E2E2E2E2E2E2E2E2E2E2E2E2E2E2E2E2E2E2E2E2E2E2E2E2E2E2E2E2E2E2E2E2E2E2E2E2E2E2E2E2E2E2E2E2E2E2E2E2E2E2E2E2E2E2E2E2E2E2E2E2E2E2E2E2E2E2E2E2E2E2E2E2E2E2E2E2E2E2E2E2E2E2E2E2E2E2E2E2E2E2E2E2E2E2
310
E2E2E2E2E2E2E2E2E2E2E2E2E2E2E2E2E2E2E2E2E2E2E2E2E2E2E2E2E2E2E2E2E2E2E2E2E2E2E2E2E2E2E2E2E2E2E2E2E2E2E2E2E2E2E2E2E2E2E2E2E2E2E2E2E2E2E2E2E2E2E2E2E2E2E2E2E2E2E2E2E2E2E2E2E2E2E2E2E2E2E2E2E2E2E2E2E2E2E2E2E2E2E2E2E2E2E2E2E2E2E2E2E2E2E2E2E2E2E2E2E2E2E2E2E2E2E2
310
E2E2E2E2E2E2E2E2E2E2E2E2E2E2E2E2E2E2E2E2E2E2E2E2E2E2E2E2E2E2E2E2E2E2E2E2E2E2E2E2E2E2E2E2E2E2E2E2E2E2E2E2E2E2E2E2E2E2E2E2E2E2E2E2E2E2E2E2E2E2E2E2E2E2E2E2E2E2E2E2E2E2E2E2E2E2E2E2E2E2E2E2E2E2E2E2E2E2E2E2E2E2E2E2E2E2E2E2E2E2E2E2E2E2E2E2E2E2E2E2E2E2E2E2E2E2E2
310
E2E2E2E2E2E2E2E2E2E2E2E2E2E2E2E2E2E2E2E2E2E2E2E2E2E2E2E2E2E2E2E2E2E2E2E2E2E2E2E2E2E2E2E2E2E2E2E2E2E2E2E2E2E2E2E2E2E2E2E2E2E2E2E2E2E2E2E2E2E2E2E2E2E2E2E2E2E2E2E2E2E2E2E2E2E2E2E2E2E2E2E2E2E2E2E2E2E2E2E2E2E2E2E2E2E2E2E2E2E2E2E2E2E2E2E2E2E2E2E2E2E2E2E2E2E2E2
310
E2E2E2E2E2E2E2E2E2E2E2E2E2E2E2E2E2E2E2E2E2E2E2E2E2E2E2E2E2E2E2E2E2E2E2E2E2E2E2E2E2E2E2E2E2E2E2E2E2E2E2E2E2E2E2E2E2E2E2E2E2E2E2E2E2E2E2E2E2E2E2E2E2E2E2E2E2E2E2E2E2E2E2E2E2E2E2E2E2E2E2E2E2E2E2E2E2E2E2E2E2E2E2E2E2E2E2E2E2E2E2E2E2E2E2E2E2E2E2E2E2E2E2E2E2E2E2
310
E2E2E2E2E2E2E2E2E2E2E2E2E2E2E2E2E2E2E2E2E2E2E2E2E2E2E2E2E2E2E2E2E2E2E2E2E2E2E2E2E2E2E2E2E2E2E2E2E2E2E2E2E2E2E2E2E2E2E2E2E2E2E2E2E2E2E2E2E2E2E2E2E2E2E2E2E2E2E2E2E2E2E2E2E2E2E2E2E2E2E2E2E2E2E2E2E2E2E2E2E2E2E2E2E2E2E2E2E2E2E2E2E2E2E2E2E2E2E2E2E2E2E2E2E2E2E2
310
E2E2E2E2E2E2E2E2E2E2E2E2E2E2E2E2E2E2E2E2E2E2E2E2E2E2E2E2E2E2E2E2E2E2E2E2E2E2E2E2E2E2E2E2E2E2E2E2E2E2E2E2E2E2E2E2E2E2E2E2E2E2E2E2E2E2E2E2E2E2E2E2E2E2E2E2E2E2E2E2E2E2E2E2E2E2E2E2E2E2E2E2E2E2E2E2E2E2E2E2E2E2E2E2E2E2E2E2E2E2E2E2E2E2E2E2E2E2E2E2E2E2E2E2E2E2E2
310
E2E2E2E2E2E2E2E2E2E2E2E2E2E2E2E2E2E2E2E2E2E2E2E2E2E2E2E2E2E2E2E2E2E2E2E2E2E2E2E2E2E2E2E2E2E2E2E2E2E2E2E2E2E2E2E2E2E2E2E2E2E2E2E2E2E2E2E2E2E2E2E2E2E2E2E2E2E2E2E2E2E2E2E2E2E2E2E2E2E2E2E2E2E2E2E2E2E2E2E2E2E2E2E2E2E2E2E2E2E2E2E2E2E2E2E2E2E2E2E2E2E2E2E2E2E2E2
310
E2E2E2E2E2E2E2E2E2E2E2E2E2E2E2E2E2E2E2E2E2E2E2E2E2E2E2E2E2E2E2E2E2E2E2E2E2E2E2E2E2E2E2E2E2E2E2E2E2E2E2E2E2E2E2E2E2E2E2E2E2E2E2E2E2E2E2E2E2E2E2E2E2E2E2E2E2E2E2E2E2E2E2E2E2E2E2E2E2E2E2E2E2E2E2E2E2E2E2E2E2E2E2E2E2E2E2E2E2E2E2E2E2E2E2E2E2E2E2E2E2E2E2E2E2E2E2
310
E2E2E2E2E2E2E2E2E2E2E2E2E2E2E2E2E2E2E2E2E2E2E2E2E2E2E2E2E2E2E2E2E2E2E2E2E2E2E2E2E2E2E2E2E2E2E2E2E2E2E2E2E2E2E2E2E2E2E2E2E2E2E2E2E2E2E2E2E2E2E2E2E2E2E2E2E2E2E2E2E2E2E2E2E2E2E2E2E2E2E2E2E2E2E2E2E2E2E2E2E2E2E2E2E2E2E2E2E2E2E2E2E2E2E2E2E2E2E2E2E2E2E2E2E2E2E2
310
E2E2E2E2E2E2E2E2E2E2E2E2E2E2E2E2E2E2E2E2E2E2E2E2E2E2E2E2E2E2E2E2E2E2E2E2E2E2E2E2E2E2E2E2E2E2E2E2E2E2E2E2E2E2E2E2E2E2E2E2E2E2E2E2E2E2E2E2E2E2E2E2E2E2E2E2E2E2E2E2E2E2E2E2E2E2E2E2E2E2E2E2E2E2E2E2E2E2E2E2E2E2E2E2E2E2E2E2E2E2E2E2E2E2E2E2E2E2E2E2E2E2E2E2E2E2E2
310
E2E2E2E2E2E2E2E2E2E2E2E2E2E2E2E2E2E2E2E2E2E2E2E2E2E2E2E2E2E2E2E2E2E2E2E2E2E2E2E2E2E2E2E2E2E2E2E2E2E2E2E2E2E2E2E2E2E2E2E2E2E2E2E2E2E2E2E2E2E2E2E2E2E2E2E2E2E2E2E2E2E2E2E2E2E2E2E2E2E2E2E2E2E2E2E2E2E2E2E2E2E2E2E2E2E2E2E2E2E2E2E2E2E2E2E2E2E2E2E2E2E2E2E2E2E2E2
310
E2E2E2E2E2E2E2E2E2E2E2E2E2E2E2E2E2E2E2E2E2E2E2E2E2E2E2E2E2E2E2E2E2E2E2E2E2E2E2E2E2E2E2E2E2E2E2E2E2E2E2E2E2E2E2E2E2E2E2E2E2E2E2E2E2E2E2E2E2E2E2E2E2E2E2E2E2E2E2E2E2E2E2E2E2E2E2E2E2E2E2E2E2E2E2E2E2E2E2E2E2E2E2E2E2E2E2E2E2E2E2E2E2E2E2E2E2E2E2E2E2E2E2E2E2E2E2
310
E2E2E2E2E2E2E2E2E2E2E2E2E2E2E2E2E2E2E2E2E2E2E2E2E2E2E2E2E2E2E2E2E2E2E2E2E2E2E2E2E2E2E2E2E2E2E2E2E2E2E2E2E2E2E2E2E2E2E2E2E2E2E2E2E2E2E2E2E2E2E2E2E2E2E2E2E2E2E2E2E2E2E2E2E2E2E2E2E2E2E2E2E2E2E2E2E2E2E2E2E2E2E2E2E2E2E2E2E2E2E2E2E2E2E2E2E2E2E2E2E2E2E2E2E2E2E2
310
E2E2E2E2E2E2E2E2E2E2E2E2E2E2E2E2E2E2E2E2E2E2E2E2E2E2E2E2E2E2E2E2E2E2E2E2E2E2E2E2E2E2E2E2E2E2E2E2E2E2E2E2E2E2E2E2E2E2E2E2E2E2E2E2E2E2E2E2E2E2E2E2E2E2E2E2E2E2E2E2E2E2E2E2E2E2E2E2E2E2E2E2E2E2E2E2E2E2E2E2E2E2E2E2E2E2E2E2E2E2E2E2E2E2E2E2E2E2E2E2E2E2E2E2E2E2E2
310
E2E2E2E2E2E2E2E2E2E2E2E2E2E2E2E2E2E2E2E2E2E2E2E2E2E2E2E2E2E2E2E2E2E2E2E2E2E2E2E2E2E2E2E2E2E2E2E2E2E2E2E2E2E2E2E2E2E2E2E2E2E2E2E2E2E2E2E2E2E2E2E2E2E2E2E2E2E2E2E2E2E2E2E2E2E2E2E2E2E2E2E2E2E2E2E2E2E2E2E2E2E2E2E2E2E2E2E2E2E2E2E2E2E2E2E2E2E2E2E2E2E2E2E2E2E2E2
310
E2E2E2E2E2E2E2E2E2E2E2E2E2E2E2E2E2E2E2E2E2E2E2E2E2E2E2E2E2E2E2E2E2E2E2E2E2E2E2E2E2E2E2E2E2E2E2E2E2E2E2E2E2E2E2E2E2E2E2E2E2E2E2E2E2E2E2E2E2E2E2E2E2E2E2E2E2E2E2E2E2E2E2E2E2E2E2E2E2E2E2E2E2E2E2E2E2E2E2E2E2E2E2E2E2E2E2E2E2E2E2E2E2E2E2E2E2E2E2E2E2E2E2E2E2E2E2
310
E2E2E2E2E2E2E2E2E2E2E2E2E2E2E2E2E2E2E2E2E2E2E2E2E2E2E2E2E2E2E2E2E2E2E2E2E2E2E2E2E2E2E2E2E2E2E2E2E2E2E2E2E2E2E2E2E2E2E2E2E2E2E2E2E2E2E2E2E2E2E2E2E2E2E2E2E2E2E2E2E2E2E2E2E2E2E2E2E2E2E2E2E2E2E2E2E2E2E2E2E2E2E2E2E2E2E2E2E2E2E2E2E2E2E2E2E2E2E2E2E2E2E2E2E2E2E2
310
E2E2E2E2E2E2E2E2E2E2E2E2E2E2E2E2E2E2E2E2E2E2E2E2E2E2E2E2E2E2E2E2E2E2E2E2E2E2E2E2E2E2E2E2E2E2E2E2E2E2E2E2E2E2E2E2E2E2E2E2E2E2E2E2E2E2E2E2E2E2E2E2E2E2E2E2E2E2E2E2E2E2E2E2E2E2E2E2E2E2E2E2E2E2E2E2E2E2E2E2E2E2E2E2E2E2E2E2E2E2E2E2E2E2E2E2E2E2E2E2E2E2E2E2E2E2E2
310
E2E2E2E2E2E2E2E2E2E2E2E2E2E2E2E2E2E2E2E2E2E2E2E2E2E2E2E2E2E2E2E2E2E2E2E2E2E2E2E2E2E2E2E2E2E2E2E2E2E2E2E2E2E2E2E2E2E2E2E2E2E2E2E2E2E2E2E2E2E2E2E2E2E2E2E2E2E2E2E2E2E2E2E2E2E2E2E2E2E2E2E2E2E2E2E2E2E2E2E2E2E2E2E2E2E2E2E2E2E2E2E2E2E2E2E2E2E2E2E2E2E2E2E2E2E2E2
310
E2E2E2E2E2E2E2E2E2E2E2E2E2E2E2E2E2E2E2E2E2E2E2E2E2E2E2E2E2E2E2E2E2E2E2E2E2E2E2E2E2E2E2E2E2E2E2E2E2E2E2E2E2E2E2E2E2E2E2E2E2E2E2E2E2E2E2E2E2E2E2E2E2E2E2E2E2E2E2E2E2E2E2E2E2E2E2E2E2E2E2E2E2E2E2E2E2E2E2E2E2E2E2E2E2E2E2E2E2E2E2E2E2E2E2E2E2E2E2E2E2E2E2E2E2E2E2
310
E2E2E2E2E2E2E2E2E2E2E2E2E2E2E2E2E2E2E2E2E2E2E2E2E2E2E2E2E2E2E2E2E2E2E2E2E2E2E2E2E2E2E2E2E2E2E2E2E2E2E2E2E2E2E2E2E2E2E2E2E2E2E2E2E2E2E2E2E2E2E2E2E2E2E2E2E2E2E2E2E2E2E2E2E2E2E2E2E2E2E2E2E2E2E2E2E2E2E2E2E2E2E2E2E2E2E2E2E2E2E2E2E2E2E2E2E2E2E2E2E2E2E2E2E2E2E2
310
E2E2E2E2E2E2E2E2E2E2E2E2E2E2E2E2E2E2E2E2E2E2E2E2E2E2E2E2E2E2E2E2E2E2E2E2E2E2E2E2E2E2E2E2E2E2E2E2E2E2E2E2E2E2E2E2E2E2E2E2E2E2E2E2E2E2E2E2E2E2E2E2E2E2E2E2E2E2E2E2E2E2E2E2E2E2E2E2E2E2E2E2E2E2E2E2E2E2E2E2E2E2E2E2E2E2E2E2E2E2E2E2E2E2E2E2E2E2E2E2E2E2E2E2E2E2E2
310
E2E2E2E2E2E2E2E2E2E2E2E2E2E2E2E2E2E2E2E2E2E2E2E2E2E2E2E2E2E2E2E2E2E2E2E2E2E2E2E2E2E2E2E2E2E2E2E2E2E2E2E2E2E2E2E2E2E2E2E2E2E2E2E2E2E2E2E2E2E2E2E2E2E2E2E2E2E2E2E2E2E2E2E2E2E2E2E2E2E2E2E2E2E2E2E2E2E2E2E2E2E2E2E2E2E2E2E2E2E2E2E2E2E2E2E2E2E2E2E2E2E2E2E2E2E2E2
310
E2E2E2E2E2E2E2E2E2E2E2E2E2E2E2E2E2E2E2E2E2E2E2E2E2E2E2E2E2E2E2E2E2E2E2E2E2E2E2E2E2E2E2E2E2E2E2E2E2E2E2E2E2E2E2E2E2E2E2E2E2E2E2E2E2E2E2E2E2E2E2E2E2E2E2E2E2E2E2E2E2E2E2E2E2E2E2E2E2E2E2E2E2E2E2E2E2E2E2E2E2E2E2E2E2E2E2E2E2E2E2E2E2E2E2E2E2E2E2E2E2E2E2E2E2E2E2
310
E2E2E2E2E2E2E2E2E2E2E2E2E2E2E2E2E2E2E2E2E2E2E2E2E2E2E2E2E2E2E2E2E2E2E2E2E2E2E2E2E2E2E2E2E2E2E2E2E2E2E2E2E2E2E2E2E2E2E2E2E2E2E2E2E2E2E2E2E2E2E2E2E2E2E2E2E2E2E2E2E2E2E2E2E2E2E2E2E2E2E2E2E2E2E2E2E2E2E2E2E2E2E2E2E2E2E2E2E2E2E2E2E2E2E2E2E2E2E2E2E2E2E2E2E2E2E2
310
E2E2E2E2E2E2E2E2E2E2E2E2E2E2E2E2E2E2E2E2E2E2E2E2E2E2E2E2E2E2E2E2E2E2E2E2E2E2E2E2E2E2E2E2E2E2E2E2E2E2E2E2E2E2E2E2E2E2E2E2E2E2E2E2E2E2E2E2E2E2E2E2E2E2E2E2E2E2E2E2E2E2E2E2E2E2E2E2E2E2E2E2E2E2E2E2E2E2E2E2E2E2E2E2E2E2E2E2E2E2E2E2E2E2E2E2E2E2E2E2E2E2E2E2E2E2E2
310
E2E2E2E2E2E2E2E2E2E2E2E2E2E2E2E2E2E2E2E2E2E2E2E2E2E2E2E2E2E2E2E2E2E2E2E2E2E2E2E2E2E2E2E2E2E2E2E2E2E2E2E2E2E2E2E2E2E2E2E2E2E2E2E2E2E2E2E2E2E2E2E2E2E2E2E2E2E2E2E2E2E2E2E2E2E2E2E2E2E2E2E2E2E2E2E2E2E2E2E2E2E2E2E2E2E2E2E2E2E2E2E2E2E2E2E2E2E2E2E2E2E2E2E2E2E2E2
310
E2E2E2E2E2E2E2E2E2E2E2E2E2E2E2E2E2E2E2E2E2E2E2E2E2E2E2E2E2E2E2E2E2E2E2E2E2E2E2E2E2E2E2E2E2E2E2E2E2E2E2E2E2E2E2E2E2E2E2E2E2E2E2E2E2E2E2E2E2E2E2E2E2E2E2E2E2E2E2E2E2E2E2E2E2E2E2E2E2E2E2E2E2E2E2E2E2E2E2E2E2E2E2E2E2E2E2E2E2E2E2E2E2E2E2E2E2E2E2E2E2E2E2E2E2E2E2
310
E2E2E2E2E2E2E2E2E2E2E2E2E2E2E2E2E2E2E2E2E2E2E2E2E2E2E2E2E2E2E2E2E2E2E2E2E2E2E2E2E2E2E2E2E2E2E2E2E2E2E2E2E2E2E2E2E2E2E2E2E2E2E2E2E2E2E2E2E2E2E2E2E2E2E2E2E2E2E2E2E2E2E2E2E2E2E2E2E2E2E2E2E2E2E2E2E2E2E2E2E2E2E2E2E2E2E2E2E2E2E2E2E2E2E2E2E2E2E2E2E2E2E2E2E2E2E2
310
E2E2E2E2E2E2E2E2E2E2E2E2E2E2E2E2E2E2E2E2E2E2E2E2E2E2E2E2E2E2E2E2E2E2E2E2E2E2E2E2E2E2E2E2E2E2E2E2E2E2E2E2E2E2E2E2E2E2E2E2E2E2E2E2E2E2E2E2E2E2E2E2E2E2E2E2E2E2E2E2E2E2E2E2E2E2E2E2E2E2E2E2E2E2E2E2E2E2E2E2E2E2E2E2E2E2E2E2E2E2E2E2E2E2E2E2E2E2E2E2E2E2E2E2E2E2E2
310
E2E2E2E2E2E2E2E2E2E2E2E2E2E2E2E2E2E2E2E2E2E2E2E2E2E2E2E2E2E2E2E2E2E2E2E2E2E2E2E2E2E2E2E2E2E2E2E2E2E2E2E2E2E2E2E2E2E2E2E2E2E2E2E2E2E2E2E2E2E2E2E2E2E2E2E2E2E2E2E2E2E2E2E2E2E2E2E2E2E2E2E2E2E2E2E2E2E2E2E2E2E2E2E2E2E2E2E2E2E2E2E2E2E2E2E2E2E2E2E2E2E2E2E2E2E2E2
310
E2E2E2E2E2E2E2E2E2E2E2E2E2E2E2E2E2E2E2E2E2E2E2E2E2E2E2E2E2E2E2E2E2E2E2E2E2E2E2E2E2E2E2E2E2E2E2E2E2E2E2E2E2E2E2E2E2E2E2E2E2E2E2E2E2E2E2E2E2E2E2E2E2E2E2E2E2E2E2E2E2E2E2E2E2E2E2E2E2E2E2E2E2E2E2E2E2E2E2E2E2E2E2E2E2E2E2E2E2E2E2E2E2E2E2E2E2E2E2E2E2E2E2E2E2E2E2
310
E2E2E2E2E2E2E2E2E2E2E2E2E2E2E2E2E2E2E2E2E2E2E2E2E2E2E2E2E2E2E2E2E2E2E2E2E2E2E2E2E2E2E2E2E2E2E2E2E2E2E2E2E2E2E2E2E2E2E2E2E2E2E2E2E2E2E2E2E2E2E2E2E2E2E2E2E2E2E2E2E2E2E2E2E2E2E2E2E2E2E2E2E2E2E2E2E2E2E2E2E2E2E2E2E2E2E2E2E2E2E2E2E2E2E2E2E2E2E2E2E2E2E2E2E2E2E2
310
E2E2E2E2E2E2E2E2E2E2E2E2E2E2E2E2E2E2E2E2E2E2E2E2E2E2E2E2E2E2E2E2E2E2E2E2E2E2E2E2E2E2E2E2E2E2E2E2E2E2E2E2E2E2E2E2E2E2E2E2E2E2E2E2E2E2E2E2E2E2E2E2E2E2E2E2E2E2E2E2E2E2E2E2E2E2E2E2E2E2E2E2E2E2E2E2E2E2E2E2E2E2E2E2E2E2E2E2E2E2E2E2E2E2E2E2E2E2E2E2E2E2E2E2E2E2E2
310
E2E2E2E2E2E2E2E2E2E2E2E2E2E2E2E2E2E2E2E2E2E2E2E2E2E2E2E2E2E2E2E2E2E2E2E2E2E2E2E2E2E2E2E2E2E2E2E2E2E2E2E2E2E2E2E2E2E2E2E2E2E2E2E2E2E2E2E2E2E2E2E2E2E2E2E2E2E2E2E2E2E2E2E2E2E2E2E2E2E2E2E2E2E2E2E2E2E2E2E2E2E2E2E2E2E2E2E2E2E2E2E2E2E2E2E2E2E2E2E2E2E2E2E2E2E2E2
310
E2E2E2E2E2E2E2E2E2E2E2E2E2E2E2E2E2E2E2E2E2E2E2E2E2E2E2E2E2E2E2E2E2E2E2E2E2E2E2E2E2E2E2E2E2E2E2E2E2E2E2E2E2E2E2E2E2E2E2E2E2E2E2E2E2E2E2E2E2E2E2E2E2E2E2E2E2E2E2E2E2E2E2E2E2E2E2E2E2E2E2E2E2E2E2E2E2E2E2E2E2E2E2E2E2E2E2E2E2E2E2E2E2E2E2E2E2E2E2E2E2E2E2E2E2E2E2
310
E2E2E2E2E2E2E2E2E2E2E2E2E2E2E2E2E2E2E2E2E2E2E2E2E2E2E2E2E2E2E2E2E2E2E2E2E2E2E2E2E2E2E2E2E2E2E2E2E2E2E2E2E2E2E2E2E2E2E2E2E2E2E2E2E2E2E2E2E2E2E2E2E2E2E2E2E2E2E2E2E2E2E2E2E2E2E2E2E2E2E2E2E2E2E2E2E2E2E2E2E2E2E2E2E2E2E2E2E2E2E2E2E2E2E2E2E2E2E2E2E2E2E2E2E2E2E2
310
E2E2E2E2E2E2E2E2E2E2E2E2E2E2E2E2E2E2E2E2E2E2E2E2E2E2E2E2E2E2E2E2E2E2E2E2E2E2E2E2E2E2E2E2E2E2E2E2E2E2E2E2E2E2E2E2E2E2E2E2E2E2E2E2E2E2E2E2E2E2E2E2E2E2E2E2E2E2E2E2E2E2E2E2E2E2E2E2E2E2E2E2E2E2E2E2E2E2E2E2E2E2E2E2E2E2E2E2E2E2E2E2E2E2E2E2E2E2E2E2E2E2E2E2E2E2E2
310
E2E2E2E2E2E2E2E2E2E2E2E2E2E2E2E2E2E2E2E2E2E2E2E2E2E2E2E2E2E2E2E2E2E2E2E2E2E2E2E2E2E2E2E2E2E2E2E2E2E2E2E2E2E2E2E2E2E2E2E2E2E2E2E2E2E2E2E2E2E2E2E2E2E2E2E2E2E2E2E2E2E2E2E2E2E2E2E2E2E2E2E2E2E2E2E2E2E2E2E2E2E2E2E2E2E2E2E2E2E2E2E2E2E2E2E2E2E2E2E2E2E2E2E2E2E2E2
310
E2E2E2E2E2E2E2E2E2E2E2E2E2E2E2E2E2E2E2E2E2E2E2E2E2E2E2E2E2E2E2E2E2E2E2E2E2E2E2E2E2E2E2E2E2E2E2E2E2E2E2E2E2E2E2E2E2E2E2E2E2E2E2E2E2E2E2E2E2E2E2E2E2E2E2E2E2E2E2E2E2E2E2E2E2E2E2E2E2E2E2E2E2E2E2E2E2E2E2E2E2E2E2E2E2E2E2E2E2E2E2E2E2E2E2E2E2E2E2E2E2E2E2E2E2E2E2
310
E2E2E2E2E2E2E2E2E2E2E2E2E2E2E2E2E2E2E2E2E2E2E2E2E2E2E2E2E2E2E2E2E2E2E2E2E2E2E2E2E2E2E2E2E2E2E2E2E2E2E2E2E2E2E2E2E2E2E2E2E2E2E2E2E2E2E2E2E2E2E2E2E2E2E2E2E2E2E2E2E2E2E2E2E2E2E2E2E2E2E2E2E2E2E2E2E2E2E2E2E2E2E2E2E2E2E2E2E2E2E2E2E2E2E2E2E2E2E2E2E2E2E2E2E2E2E2
310
E2E2E2E2E2E2E2E2E2E2E2E2E2E2E2E2E2E2E2E2E2E2E2E2E2E2E2E2E2E2E2E2E2E2E2E2E2E2E2E2E2E2E2E2E2E2E2E2E2E2E2E2E2E2E2E2E2E2E2E2E2E2E2E2E2E2E2E2E2E2E2E2E2E2E2E2E2E2E2E2E2E2E2E2E2E2E2E2E2E2E2E2E2E2E2E2E2E2E2E2E2E2E2E2E2E2E2E2E2E2E2E2E2E2E2E2E2E2E2E2E2E2E2E2E2E2E2
310
E2E2E2E2E2E2E2E2E2E2E2E2E2E2E2E2E2E2E2E2E2E2E2E2E2E2E2E2E2E2E2E2E2E2E2E2E2E2E2E2E2E2E2E2E2E2E2E2E2E2E2E2E2E2E2E2E2E2E2E2E2E2E2E2E2E2E2E2E2E2E2E2E2E2E2E2E2E2E2E2E2E2E2E2E2E2E2E2E2E2E2E2E2E2E2E2E2E2E2E2E2E2E2E2E2E2E2E2E2E2E2E2E2E2E2E2E2E2E2E2E2E2E2E2E2E2E2
310
E2E2E2E2E2E2E2E2E2E2E2E2E2E2E2E2E2E2E2E2E2E2E2E2E2E2E2E2E2E2E2E2E2E2E2E2E2E2E2E2E2E2E2E2E2E2E2E2E2E2E2E2E2E2E2E2E2E2E2E2E2E2E2E2E2E2E2E2E2E2E2E2E2E2E2E2E2E2E2E2E2E2E2E2E2E2E2E2E2E2E2E2E2E2E2E2E2E2E2E2E2E2E2E2E2E2E2E2E2E2E2E2E2E2E2E2E2E2E2E2E2E2E2E2E2E2E2
310
E2E2E2E2E2E2E2E2E2E2E2E2E2E2E2E2E2E2E2E2E2E2E2E2E2E2E2E2E2E2E2E2E2E2E2E2E2E2E2E2E2E2E2E2E2E2E2E2E2E2E2E2E2E2E2E2E2E2E2E2E2E2E2E2E2E2E2E2E2E2E2E2E2E2E2E2E2E2E2E2E2E2E2E2E2E2E2E2E2E2E2E2E2E2E2E2E2E2E2E2E2E2E2E2E2E2E2E2E2E2E2E2E2E2E2E2E2E2E2E2E2E2E2E2E2E2E2
310
E2E2E2E2E2E2E2E2E2E2E2E2E2E2E2E2E2E2E2E2E2E2E2E2E2E2E2E2E2E2E2E2E2E2E2E2E2E2E2E2E2E2E2E2E2E2E2E2E2E2E2E2E2E2E2E2E2E2E2E2E2E2E2E2E2E2E2E2E2E2E2E2E2E2E2E2E2E2E2E2E2E2E2E2E2E2E2E2E2E2E2E2E2E2E2E2E2E2E2E2E2E2E2E2E2E2E2E2E2E2E2E2E2E2E2E2E2E2E2E2E2E2E2E2E2E2E2
310
E2E2E2E2E2E2E2E2E2E2E2E2E2E2E2E2E2E2E2E2E2E2E2E2E2E2E2E2E2E2E2E2E2E2E2E2E2E2E2E2E2E2E2E2E2E2E2E2E2E2E2E2E2E2E2E2E2E2E2E2E2E2E2E2E2E2E2E2E2E2E2E2E2E2E2E2E2E2E2E2E2E2E2E2E2E2E2E2E2E2E2E2E2E2E2E2E2E2E2E2E2E2E2E2E2E2E2E2E2E2E2E2E2E2E2E2E2E2E2E2E2E2E2E2E2E2E2
310
E2E2E2E2E2E2E2E2E2E2E2E2E2E2E2E2E2E2E2E2E2E2E2E2E2E2E2E2E2E2E2E2E2E2E2E2E2E2E2E2E2E2E2E2E2E2E2E2E2E2E2E2E2E2E2E2E2E2E2E2E2E2E2E2E2E2E2E2E2E2E2E2E2E2E2E2E2E2E2E2E2E2E2E2E2E2E2E2E2E2E2E2E2E2E2E2E2E2E2E2E2E2E2E2E2E2E2E2E2E2E2E2E2E2E2E2E2E2E2E2E2E2E2E2E2E2E2
310
E2E2E2E2E2E2E2E2E2E2E2E2E2E2E2E2E2E2E2E2E2E2E2E2E2E2E2E2E2E2E2E2E2E2E2E2E2E2E2E2E2E2E2E2E2E2E2E2E2E2E2E2E2E2E2E2E2E2E2E2E2E2E2E2E2E2E2E2E2E2E2E2E2E2E2E2E2E2E2E2E2E2E2E2E2E2E2E2E2E2E2E2E2E2E2E2E2E2E2E2E2E2E2E2E2E2E2E2E2E2E2E2E2E2E2E2E2E2E2E2E2E2E2E2E2E2E2
310
E2E2E2E2E2E2E2E2E2E2E2E2E2E2E2E2E2E2E2E2E2E2E2E2E2E2E2E2E2E2E2E2E2E2E2E2E2E2E2E2E2E2E2E2E2E2E2E2E2E2E2E2E2E2E2E2E2E2E2E2E2E2E2E2E2E2E2E2E2E2E2E2E2E2E2E2E2E2E2E2E2E2E2E2E2E2E2E2E2E2E2E2E2E2E2E2E2E2E2E2E2E2E2E2E2E2E2E2E2E2E2E2E2E2E2E2E2E2E2E2E2E2E2E2E2E2E2
310
E2E2E2E2E2E2E2E2E2E2E2E2E2E2E2E2E2E2E2E2E2E2E2E2E2E2E2E2E2E2E2E2E2E2E2E2E2E2E2E2E2E2E2E2E2E2E2E2E2E2E2E2E2E2E2E2E2E2E2E2E2E2E2E2E2E2E2E2E2E2E2E2E2E2E2E2E2E2E2E2E2E2E2E2E2E2E2E2E2E2E2E2E2E2E2E2E2E2E2E2E2E2E2E2E2E2E2E2E2E2E2E2E2E2E2E2E2E2E2E2E2E2E2E2E2E2E2
310
E2E2E2E2E2E2E2E2E2E2E2E2E2E2E2E2E2E2E2E2E2E2E2E2E2E2E2E2E2E2E2E2E2E2E2E2E2E2E2E2E2E2E2E2E2E2E2E2E2E2E2E2E2E2E2E2E2E2E2E2E2E2E2E2E2E2E2E2E2E2E2E2E2E2E2E2E2E2E2E2E2E2E2E2E2E2E2E2E2E2E2E2E2E2E2E2E2E2E2E2E2E2E2E2E2E2E2E2E2E2E2E2E2E2E2E2E2E2E2E2E2E2E2E2E2E2E2
310
E2E2E2E2E2E2E2E2E2E2E2E2E2E2E2E2E2E2E2E2E2E2E2E2E2E2E2E2E2E2E2E2E2E2E2E2E2E2E2E2E2E2E2E2E2E2E2E2E2E2E2E2E2E2E2E2E2E2E2E2E2E2E2E2E2E2E2E2E2E2E2E2E2E2E2E2E2E2E2E2E2E2E2E2E2E2E2E2E2E2E2E2E2E2E2E2E2E2E2E2E2E2E2E2E2E2E2E2E2E2E2E2E2E2E2E2E2E2E2E2E2E2E2E2E2E2E2
310
E2E2E2E2E2E2E2E2E2E2E2E2E2E2E2E2E2E2E2E2E2E2E2E2E2E2E2E2E2E2E2E2E2E2E2E2E2E2E2E2E2E2E2E2E2E2E2E2E2E2E2E2E2E2E2E2E2E2E2E2E2E2E2E2E2E2E2E2E2E2E2E2E2E2E2E2E2E2E2E2E2E2E2E2E2E2E2E2E2E2E2E2E2E2E2E2E2E2E2E2E2E2E2E2E2E2E2E2E2E2E2E2E2E2E2E2E2E2E2E2E2E2E2E2E2E2E2
310
E2E2E2E2E2E2E2E2E2E2E2E2E2E2E2E2E2E2E2E2E2E2E2E2E2E2E2E2E2E2E2E2E2E2E2E2E2E2E2E2E2E2E2E2E2E2E2E2E2E2E2E2E2E2E2E2E2E2E2E2E2E2E2E2E2E2E2E2E2E2E2E2E2E2E2E2E2E2E2E2E2E2E2E2E2E2E2E2E2E2E2E2E2E2E2E2E2E2E2E2E2E2E2E2E2E2E2E2E2E2E2E2E2E2E2E2E2E2E2E2E2E2E2E2E2E2E2
310
E2E2E2E2E2E2E2E2E2E2E2E2E2E2E2E2E2E2E2E2E2E2E2E2E2E2E2E2E2E2E2E2E2E2E2E2E2E2E2E2E2E2E2E2E2E2E2E2E2E2E2E2E2E2E2E2E2E2E2E2E2E2E2E2E2E2E2E2E2E2E2E2E2E2E2E2E2E2E2E2E2E2E2E2E2E2E2E2E2E2E2E2E2E2E2E2E2E2E2E2E2E2E2E2E2E2E2E2E2E2E2E2E2E2E2E2E2E2E2E2E2E2E2E2E2E2E2
310
E2E2E2E2E2E2E2E2E2E2E2E2E2E2E2E2E2E2E2E2E2E2E2E2E2E2E2E2E2E2E2E2E2E2E2E2E2E2E2E2E2E2E2E2E2E2E2E2E2E2E2E2E2E2E2E2E2E2E2E2E2E2E2E2E2E2E2E2E2E2E2E2E2E2E2E2E2E2E2E2E2E2E2E2E2E2E2E2E2E2E2E2E2E2E2E2E2E2E2E2E2E2E2E2E2E2E2E2E2E2E2E2E2E2E2E2E2E2E2E2E2E2E2E2E2E2E2
310
E2E2E2E2E2E2E2E2E2E2E2E2E2E2E2E2E2E2E2E2E2E2E2E2E2E2E2E2E2E2E2E2E2E2E2E2E2E2E2E2E2E2E2E2E2E2E2E2E2E2E2E2E2E2E2E2E2E2E2E2E2E2E2E2E2E2E2E2E2E2E2E2E2E2E2E2E2E2E2E2E2E2E2E2E2E2E2E2E2E2E2E2E2E2E2E2E2E2E2E2E2E2E2E2E2E2E2E2E2E2E2E2E2E2E2E2E2E2E2E2E2E2E2E2E2E2E2
310
E2E2E2E2E2E2E2E2E2E2E2E2E2E2E2E2E2E2E2E2E2E2E2E2E2E2E2E2E2E2E2E2E2E2E2E2E2E2E2E2E2E2E2E2E2E2E2E2E2E2E2E2E2E2E2E2E2E2E2E2E2E2E2E2E2E2E2E2E2E2E2E2E2E2E2E2E2E2E2E2E2E2E2E2E2E2E2E2E2E2E2E2E2E2E2E2E2E2E2E2E2E2E2E2E2E2E2E2E2E2E2E2E2E2E2E2E2E2E2E2E2E2E2E2E2E2E2
310
E2E2E2E2E2E2E2E2E2E2E2E2E2E2E2E2E2E2E2E2E2E2E2E2E2E2E2E2E2E2E2E2E2E2E2E2E2E2E2E2E2E2E2E2E2E2E2E2E2E2E2E2E2E2E2E2E2E2E2E2E2E2E2E2E2E2E2E2E2E2E2E2E2E2E2E2E2E2E2E2E2E2E2E2E2E2E2E2E2E2E2E2E2E2E2E2E2E2E2E2E2E2E2E2E2E2E2E2E2E2E2E2E2E2E2E2E2E2E2E2E2E2E2E2E2E2E2
310
E2E2E2E2E2E2E2E2E2E2E2E2E2E2E2E2E2E2E2E2E2E2E2E2E2E2E2E2E2E2E2E2E2E2E2E2E2E2E2E2E2E2E2E2E2E2E2E2E2E2E2E2E2E2E2E2E2E2E2E2E2E2E2E2E2E2E2E2E2E2E2E2E2E2E2E2E2E2E2E2E2E2E2E2E2E2E2E2E2E2E2E2E2E2E2E2E2E2E2E2E2E2E2E2E2E2E2E2E2E2E2E2E2E2E2E2E2E2E2E2E2E2E2E2E2E2E2
310
E2E2E2E2E2E2E2E2E2E2E2E2E2E2E2E2E2E2E2E2E2E2E2E2E2E2E2E2E2E2E2E2E2E2E2E2E2E2E2E2E2E2E2E2E2E2E2E2E2E2E2E2E2E2E2E2E2E2E2E2E2E2E2E2E2E2E2E2E2E2E2E2E2E2E2E2E2E2E2E2E2E2E2E2E2E2E2E2E2E2E2E2E2E2E2E2E2E2E2E2E2E2E2E2E2E2E2E2E2E2E2E2E2E2E2E2E2E2E2E2E2E2E2E2E2E2E2
310
E2E2E2E2E2E2E2E2E2E2E2E2E2E2E2E2E2E2E2E2E2E2E2E2E2E2E2E2E2E2E2E2E2E2E2E2E2E2E2E2E2E2E2E2E2E2E2E2E2E2E2E2E2E2E2E2E2E2E2E2E2E2E2E2E2E2E2E2E2E2E2E2E2E2E2E2E2E2E2E2E2E2E2E2E2E2E2E2E2E2E2E2E2E2E2E2E2E2E2E2E2E2E2E2E2E2E2E2E2E2E2E2E2E2E2E2E2E2E2E2E2E2E2E2E2E2E2
310
E2E2E2E2E2E2E2E2E2E2E2E2E2E2E2E2E2E2E2E2E2E2E2E2E2E2E2E2E2E2E2E2E2E2E2E2E2E2E2E2E2E2E2E2E2E2E2E2E2E2E2E2E2E2E2E2E2E2E2E2E2E2E2E2E2E2E2E2E2E2E2E2E2E2E2E2E2E2E2E2E2E2E2E2E2E2E2E2E2E2E2E2E2E2E2E2E2E2E2E2E2E2E2E2E2E2E2E2E2E2E2E2E2E2E2E2E2E2E2E2E2E2E2E2E2E2E2
310
E2E2E2E2E2E2E2E2E2E2E2E2E2E2E2E2E2E2E2E2E2E2E2E2E2E2E2E2E2E2E2E2E2E2E2E2E2E2E2E2E2E2E2E2E2E2E2E2E2E2E2E2E2E2E2E2E2E2E2E2E2E2E2E2E2E2E2E2E2E2E2E2E2E2E2E2E2E2E2E2E2E2E2E2E2E2E2E2E2E2E2E2E2E2E2E2E2E2E2E2E2E2E2E2E2E2E2E2E2E2E2E2E2E2E2E2E2E2E2E2E2E2E2E2E2E2E2
310
E2E2E2E2E2E2E2E2E2E2E2E2E2E2E2E2E2E2E2E2E2E2E2E2E2E2E2E2E2E2E2E2E2E2E2E2E2E2E2E2E2E2E2E2E2E2E2E2E2E2E2E2E2E2E2E2E2E2E2E2E2E2E2E2E2E2E2E2E2E2E2E2E2E2E2E2E2E2E2E2E2E2E2E2E2E2E2E2E2E2E2E2E2E2E2E2E2E2E2E2E2E2E2E2E2E2E2E2E2E2E2E2E2E2E2E2E2E2E2E2E2E2E2E2E2E2E2
310
E2E2E2E2E2E2E2E2E2E2E2E2E2E2E2E2E2E2E2E2E2E2E2E2E2E2E2E2E2E2E2E2E2E2E2E2E2E2E2E2E2E2E2E2E2E2E2E2E2E2E2E2E2E2E2E2E2E2E2E2E2E2E2E2E2E2E2E2E2E2E2E2E2E2E2E2E2E2E2E2E2E2E2E2E2E2E2E2E2E2E2E2E2E2E2E2E2E2E2E2E2E2E2E2E2E2E2E2E2E2E2E2E2E2E2E2E2E2E2E2E2E2E2E2E2E2E2
310
E2E2E2E2E2E2E2E2E2E2E2E2E2E2E2E2E2E2E2E2E2E2E2E2E2E2E2E2E2E2E2E2E2E2E2E2E2E2E2E2E2E2E2E2E2E2E2E2E2E2E2E2E2E2E2E2E2E2E2E2E2E2E2E2E2E2E2E2E2E2E2E2E2E2E2E2E2E2E2E2E2E2E2E2E2E2E2E2E2E2E2E2E2E2E2E2E2E2E2E2E2E2E2E2E2E2E2E2E2E2E2E2E2E2E2E2E2E2E2E2E2E2E2E2E2E2E2
310
E2E2E2E2E2E2E2E2E2E2E2E2E2E2E2E2E2E2E2E2E2E2E2E2E2E2E2E2E2E2E2E2E2E2E2E2E2E2E2E2E2E2E2E2E2E2E2E2E2E2E2E2E2E2E2E2E2E2E2E2E2E2E2E2E2E2E2E2E2E2E2E2E2E2E2E2E2E2E2E2E2E2E2E2E2E2E2E2E2E2E2E2E2E2E2E2E2E2E2E2E2E2E2E2E2E2E2E2E2E2E2E2E2E2E2E2E2E2E2E2E2E2E2E2E2E2E2
310
E2E2E2E2E2E2E2E2E2E2E2E2E2E2E2E2E2E2E2E2E2E2E2E2E2E2E2E2E2E2E2E2E2E2E2E2E2E2E2E2E2E2E2E2E2E2E2E2E2E2E2E2E2E2E2E2E2E2E2E2E2E2E2E2E2E2E2E2E2E2E2E2E2E2E2E2E2E2E2E2E2E2E2E2E2E2E2E2E2E2E2E2E2E2E2E2E2E2E2E2E2E2E2E2E2E2E2E2E2E2E2E2E2E2E2E2E2E2E2E2E2E2E2E2E2E2E2
310
E2E2E2E2E2E2E2E2E2E2E2E2E2E2E2E2E2E2E2E2E2E2E2E2E2E2E2E2E2E2E2E2E2E2E2E2E2E2E2E2E2E2E2E2E2E2E2E2E2E2E2E2E2E2E2E2E2E2E2E2E2E2E2E2E2E2E2E2E2E2E2E2E2E2E2E2E2E2E2E2E2E2E2E2E2E2E2E2E2E2E2E2E2E2E2E2E2E2E2E2E2E2E2E2E2E2E2E2E2E2E2E2E2E2E2E2E2E2E2E2E2E2E2E2E2E2E2
310
E2E2E2E2E2E2E2E2E2E2E2E2E2E2E2E2E2E2E2E2E2E2E2E2E2E2E2E2E2E2E2E2E2E2E2E2E2E2E2E2E2E2E2E2E2E2E2E2E2E2E2E2E2E2E2E2E2E2E2E2E2E2E2E2E2E2E2E2E2E2E2E2E2E2E2E2E2E2E2E2E2E2E2E2E2E2E2E2E2E2E2E2E2E2E2E2E2E2E2E2E2E2E2E2E2E2E2E2E2E2E2E2E2E2E2E2E2E2E2E2E2E2E2E2E2E2E2
310
E2E2E2E2E2E2E2E2E2E2E2E2E2E2E2E2E2E2E2E2E2E2E2E2E2E2E2E2E2E2E2E2E2E2E2E2E2E2E2E2E2E2E2E2E2E2E2E2E2E2E2E2E2E2E2E2E2E2E2E2E2E2E2E2E2E2E2E2E2E2E2E2E2E2E2E2E2E2E2E2E2E2E2E2E2E2E2E2E2E2E2E2E2E2E2E2E2E2E2E2E2E2E2E2E2E2E2E2E2E2E2E2E2E2E2E2E2E2E2E2E2E2E2E2E2E2E2
310
E2E2E2E2E2E2E2E2E2E2E2E2E2E2E2E2E2E2E2E2E2E2E2E2E2E2E2E2E2E2E2E2E2E2E2E2E2E2E2E2E2E2E2E2E2E2E2E2E2E2E2E2E2E2E2E2E2E2E2E2E2E2E2E2E2E2E2E2E2E2E2E2E2E2E2E2E2E2E2E2E2E2E2E2E2E2E2E2E2E2E2E2E2E2E2E2E2E2E2E2E2E2E2E2E2E2E2E2E2E2E2E2E2E2E2E2E2E2E2E2E2E2E2E2E2E2E2
310
E2E2E2E2E2E2E2E2E2E2E2E2E2E2E2E2E2E2E2E2E2E2E2E2E2E2E2E2E2E2E2E2E2E2E2E2E2E2E2E2E2E2E2E2E2E2E2E2E2E2E2E2E2E2E2E2E2E2E2E2E2E2E2E2E2E2E2E2E2E2E2E2E2E2E2E2E2E2E2E2E2E2E2E2E2E2E2E2E2E2E2E2E2E2E2E2E2E2E2E2E2E2E2E2E2E2E2E2E2E2E2E2E2E2E2E2E2E2E2E2E2E2E2E2E2E2E2
310
E2E2E2E2E2E2E2E2E2E2E2E2E2E2E2E2E2E2E2E2E2E2E2E2E2E2E2E2E2E2E2E2E2E2E2E2E2E2E2E2E2E2E2E2E2E2E2E2E2E2E2E2E2E2E2E2E2E2E2E2E2E2E2E2E2E2E2E2E2E2E2E2E2E2E2E2E2E2E2E2E2E2E2E2E2E2E2E2E2E2E2E2E2E2E2E2E2E2E2E2E2E2E2E2E2E2E2E2E2E2E2E2E2E2E2E2E2E2E2E2E2E2E2E2E2E2E2
310
E2E2E2E2E2E2E2E2E2E2E2E2E2E2E2E2E2E2E2E2E2E2E2E2E2E2E2E2E2E2E2E2E2E2E2E2E2E2E2E2E2E2E2E2E2E2E2E2E2E2E2E2E2E2E2E2E2E2E2E2E2E2E2E2E2E2E2E2E2E2E2E2E2E2E2E2E2E2E2E2E2E2E2E2E2E2E2E2E2E2E2E2E2E2E2E2E2E2E2E2E2E2E2E2E2E2E2E2E2E2E2E2E2E2E2E2E2E2E2E2E2E2E2E2E2E2E2
310
E2E2E2E2E2E2E2E2E2E2E2E2E2E2E2E2E2E2E2E2E2E2E2E2E2E2E2E2E2E2E2E2E2E2E2E2E2E2E2E2E2E2E2E2E2E2E2E2E2E2E2E2E2E2E2E2E2E2E2E2E2E2E2E2E2E2E2E2E2E2E2E2E2E2E2E2E2E2E2E2E2E2E2E2E2E2E2E2E2E2E2E2E2E2E2E2E2E2E2E2E2E2E2E2E2E2E2E2E2E2E2E2E2E2E2E2E2E2E2E2E2E2E2E2E2E2E2
310
E2E2E2E2E2E2E2E2E2E2E2E2E2E2E2E2E2E2E2E2E2E2E2E2E2E2E2E2E2E2E2E2E2E2E2E2E2E2E2E2E2E2E2E2E2E2E2E2E2E2E2E2E2E2E2E2E2E2E2E2E2E2E2E2E2E2E2E2E2E2E2E2E2E2E2E2E2E2E2E2E2E2E2E2E2E2E2E2E2E2E2E2E2E2E2E2E2E2E2E2E2E2E2E2E2E2E2E2E2E2E2E2E2E2E2E2E2E2E2E2E2E2E2E2E2E2E2
310
E2E2E2E2E2E2E2E2E2E2E2E2E2E2E2E2E2E2E2E2E2E2E2E2E2E2E2E2E2E2E2E2E2E2E2E2E2E2E2E2E2E2E2E2E2E2E2E2E2E2E2E2E2E2E2E2E2E2E2E2E2E2E2E2E2E2E2E2E2E2E2E2E2E2E2E2E2E2E2E2E2E2E2E2E2E2E2E2E2E2E2E2E2E2E2E2E2E2E2E2E2E2E2E2E2E2E2E2E2E2E2E2E2E2E2E2E2E2E2E2E2E2E2E2E2E2E2
310
E2E2E2E2E2E2E2E2E2E2E2E2E2E2E2E2E2E2E2E2E2E2E2E2E2E2E2E2E2E2E2E2E2E2E2E2E2E2E2E2E2E2E2E2E2E2E2E2E2E2E2E2E2E2E2E2E2E2E2E2E2E2E2E2E2E2E2E2E2E2E2E2E2E2E2E2E2E2E2E2E2E2E2E2E2E2E2E2E2E2E2E2E2E2E2E2E2E2E2E2E2E2E2E2E2E2E2E2E2E2E2E2E2E2E2E2E2E2E2E2E2E2E2E2E2E2E2
310
E2E2E2E2E2E2E2E2E2E2E2E2E2E2E2E2E2E2E2E2E2E2E2E2E2E2E2E2E2E2E2E2E2E2E2E2E2E2E2E2E2E2E2E2E2E2E2E2E2E2E2E2E2E2E2E2E2E2E2E2E2E2E2E2E2E2E2E2E2E2E2E2E2E2E2E2E2E2E2E2E2E2E2E2E2E2E2E2E2E2E2E2E2E2E2E2E2E2E2E2E2E2E2E2E2E2E2E2E2E2E2E2E2E2E2E2E2E2E2E2E2E2E2E2E2E2E2
310
E2E2E2E2E2E2E2E2E2E2E2E2E2E2E2E2E2E2E2E2E2E2E2E2E2E2E2E2E2E2E2E2E2E2E2E2E2E2E2E2E2E2E2E2E2E2E2E2E2E2E2E2E2E2E2E2E2E2E2E2E2E2E2E2E2E2E2E2E2E2E2E2E2E2E2E2E2E2E2E2E2E2E2E2E2E2E2E2E2E2E2E2E2E2E2E2E2E2E2E2E2E2E2E2E2E2E2E2E2E2E2E2E2E2E2E2E2E2E2E2E2E2E2E2E2E2E2
310
E2E2E2E2E2E2E2E2E2E2E2E2E2E2E2E2E2E2E2E2E2E2E2E2E2E2E2E2E2E2E2E2E2E2E2E2E2E2E2E2E2E2E2E2E2E2E2E2E2E2E2E2E2E2E2E2E2E2E2E2E2E2E2E2E2E2E2E2E2E2E2E2E2E2E2E2E2E2E2E2E2E2E2E2E2E2E2E2E2E2E2E2E2E2E2E2E2E2E2E2E2E2E2E2E2E2E2E2E2E2E2E2E2E2E2E2E2E2E2E2E2E2E2E2E2E2E2
310
E2E2E2E2E2E2E2E2E2E2E2E2E2E2E2E2E2E2E2E2E2E2E2E2E2E2E2E2E2E2E2E2E2E2E2E2E2E2E2E2E2E2E2E2E2E2E2E2E2E2E2E2E2E2E2E2E2E2E2E2E2E2E2E2E2E2E2E2E2E2E2E2E2E2E2E2E2E2E2E2E2E2E2E2E2E2E2E2E2E2E2E2E2E2E2E2E2E2E2E2E2E2E2E2E2E2E2E2E2E2E2E2E2E2E2E2E2E2E2E2E2E2E2E2E2E2E2
310
E2E2E2E2E2E2E2E2E2E2E2E2E2E2E2E2E2E2E2E2E2E2E2E2E2E2E2E2E2E2E2E2E2E2E2E2E2E2E2E2E2E2E2E2E2E2E2E2E2E2E2E2E2E2E2E2E2E2E2E2E2E2E2E2E2E2E2E2E2E2E2E2E2E2E2E2E2E2E2E2E2E2E2E2E2E2E2E2E2E2E2E2E2E2E2E2E2E2E2E2E2E2E2E2E2E2E2E2E2E2E2E2E2E2E2E2E2E2E2E2E2E2E2E2E2E2E2
310
E2E2E2E2E2E2E2E2E2E2E2E2E2E2E2E2E2E2E2E2E2E2E2E2E2E2E2E2E2E2E2E2E2E2E2E2E2E2E2E2E2E2E2E2E2E2E2E2E2E2E2E2E2E2E2E2E2E2E2E2E2E2E2E2E2E2E2E2E2E2E2E2E2E2E2E2E2E2E2E2E2E2E2E2E2E2E2E2E2E2E2E2E2E2E2E2E2E2E2E2E2E2E2E2E2E2E2E2E2E2E2E2E2E2E2E2E2E2E2E2E2E2E2E2E2E2E2
310
E2E2E2E2E2E2E2E2E2E2E2E2E2E2E2E2E2E2E2E2E2E2E2E2E2E2E2E2E2E2E2E2E2E2E2E2E2E2E2E2E2E2E2E2E2E2E2E2E2E2E2E2E2E2E2E2E2E2E2E2E2E2E2E2E2E2E2E2E2E2E2E2E2E2E2E2E2E2E2E2E2E2E2E2E2E2E2E2E2E2E2E2E2E2E2E2E2E2E2E2E2E2E2E2E2E2E2E2E2E2E2E2E2E2E2E2E2E2E2E2E2E2E2E2E2E2E2
310
E2E2E2E2E2E2E2E2E2E2E2E2E2E2E2E2E2E2E2E2E2E2E2E2E2E2E2E2E2E2E2E2E2E2E2E2E2E2E2E2E2E2E2E2E2E2E2E2E2E2E2E2E2E2E2E2E2E2E2E2E2E2E2E2E2E2E2E2E2E2E2E2E2E2E2E2E2E2E2E2E2E2E2E2E2E2E2E2E2E2E2E2E2E2E2E2E2E2E2E2E2E2E2E2E2E2E2E2E2E2E2E2E2E2E2E2E2E2E2E2E2E2E2E2E2E2E2
310
E2E2E2E2E2E2E2E2E2E2E2E2E2E2E2E2E2E2E2E2E2E2E2E2E2E2E2E2E2E2E2E2E2E2E2E2E2E2E2E2E2E2E2E2E2E2E2E2E2E2E2E2E2E2E2E2E2E2E2E2E2E2E2E2E2E2E2E2E2E2E2E2E2E2E2E2E2E2E2E2E2E2E2E2E2E2E2E2E2E2E2E2E2E2E2E2E2E2E2E2E2E2E2E2E2E2E2E2E2E2E2E2E2E2E2E2E2E2E2E2E2E2E2E2E2E2E2
310
E2E2E2E2E2E2E2E2E2E2E2E2E2E2E2E2E2E2E2E2E2E2E2E2E2E2E2E2E2E2E2E2E2E2E2E2E2E2E2E2E2E2E2E2E2E2E2E2E2E2E2E2E2E2E2E2E2E2E2E2E2E2E2E2E2E2E2E2E2E2E2E2E2E2E2E2E2E2E2E2E2E2E2E2E2E2E2E2E2E2E2E2E2E2E2E2E2E2E2E2E2E2E2E2E2E2E2E2E2E2E2E2E2E2E2E2E2E2E2E2E2E2E2E2E2E2E2
310
E2E2E2E2E2E2E2E2E2E2E2E2E2E2E2E2E2E2E2E2E2E2E2E2E2E2E2E2E2E2E2E2E2E2E2E2E2E2E2E2E2E2E2E2E2E2E2E2E2E2E2E2E2E2E2E2E2E2E2E2E2E2E2E2E2E2E2E2E2E2E2E2E2E2E2E2E2E2E2E2E2E2E2E2E2E2E2E2E2E2E2E2E2E2E2E2E2E2E2E2E2E2E2E2E2E2E2E2E2E2E2E2E2E2E2E2E2E2E2E2E2E2E2E2E2E2E2
310
E2E2E2E2E2E2E2E2E2E2E2E2E2E2E2E2E2E2E2E2E2E2E2E2E2E2E2E2E2E2E2E2E2E2E2E2E2E2E2E2E2E2E2E2E2E2E2E2E2E2E2E2E2E2E2E2E2E2E2E2E2E2E2E2E2E2E2E2E2E2E2E2E2E2E2E2E2E2E2E2E2E2E2E2E2E2E2E2E2E2E2E2E2E2E2E2E2E2E2E2E2E2E2E2E2E2E2E2E2E2E2E2E2E2E2E2E2E2E2E2E2E2E2E2E2E2E2
310
E2E2E2E2E2E2E2E2E2E2E2E2E2E2E2E2E2E2E2E2E2E2E2E2E2E2E2E2E2E2E2E2E2E2E2E2E2E2E2E2E2E2E2E2E2E2E2E2E2E2E2E2E2E2E2E2E2E2E2E2E2E2E2E2E2E2E2E2E2E2E2E2E2E2E2E2E2E2E2E2E2E2E2E2E2E2E2E2E2E2E2E2E2E2E2E2E2E2E2E2E2E2E2E2E2E2E2E2E2E2E2E2E2E2E2E2E2E2E2E2E2E2E2E2E2E2E2
310
E2E2E2E2E2E2E2E2E2E2E2E2E2E2E2E2E2E2E2E2E2E2E2E2E2E2E2E2E2E2E2E2E2E2E2E2E2E2E2E2E2E2E2E2E2E2E2E2E2E2E2E2E2E2E2E2E2E2E2E2E2E2E2E2E2E2E2E2E2E2E2E2E2E2E2E2E2E2E2E2E2E2E2E2E2E2E2E2E2E2E2E2E2E2E2E2E2E2E2E2E2E2E2E2E2E2E2E2E2E2E2E2E2E2E2E2E2E2E2E2E2E2E2E2E2E2E2
310
E2E2E2E2E2E2E2E2E2E2E2E2E2E2E2E2E2E2E2E2E2E2E2E2E2E2E2E2E2E2E2E2E2E2E2E2E2E2E2E2E2E2E2E2E2E2E2E2E2E2E2E2E2E2E2E2E2E2E2E2E2E2E2E2E2E2E2E2E2E2E2E2E2E2E2E2E2E2E2E2E2E2E2E2E2E2E2E2E2E2E2E2E2E2E2E2E2E2E2E2E2E2E2E2E2E2E2E2E2E2E2E2E2E2E2E2E2E2E2E2E2E2E2E2E2E2E2
310
E2E2E2E2E2E2E2E2E2E2E2E2E2E2E2E2E2E2E2E2E2E2E2E2E2E2E2E2E2E2E2E2E2E2E2E2E2E2E2E2E2E2E2E2E2E2E2E2E2E2E2E2E2E2E2E2E2E2E2E2E2E2E2E2E2E2E2E2E2E2E2E2E2E2E2E2E2E2E2E2E2E2E2E2E2E2E2E2E2E2E2E2E2E2E2E2E2E2E2E2E2E2E2E2E2E2E2E2E2E2E2E2E2E2E2E2E2E2E2E2E2E2E2E2E2E2E2
310
E2E2E2E2E2E2E2E2E2E2E2E2E2E2E2E2E2E2E2E2E2E2E2E2E2E2E2E2E2E2E2E2E2E2E2E2E2E2E2E2E2E2E2E2E2E2E2E2E2E2E2E2E2E2E2E2E2E2E2E2E2E2E2E2E2E2E2E2E2E2E2E2E2E2E2E2E2E2E2E2E2E2E2E2E2E2E2E2E2E2E2E2E2E2E2E2E2E2E2E2E2E2E2E2E2E2E2E2E2E2E2E2E2E2E2E2E2E2E2E2E2E2E2E2E2E2E2
310
E2E2E2E2E2E2E2E2E2E2E2E2E2E2E2E2E2E2E2E2E2E2E2E2E2E2E2E2E2E2E2E2E2E2E2E2E2E2E2E2E2E2E2E2E2E2E2E2E2E2E2E2E2E2E2E2E2E2E2E2E2E2E2E2E2E2E2E2E2E2E2E2E2E2E2E2E2E2E2E2E2E2E2E2E2E2E2E2E2E2E2E2E2E2E2E2E2E2E2E2E2E2E2E2E2E2E2E2E2E2E2E2E2E2E2E2E2E2E2E2E2E2E2E2E2E2E2
310
E2E2E2E2E2E2E2E2E2E2E2E2E2E2E2E2E2E2E2E2E2E2E2E2E2E2E2E2E2E2E2E2E2E2E2E2E2E2E2E2E2E2E2E2E2E2E2E2E2E2E2E2E2E2E2E2E2E2E2E2E2E2E2E2E2E2E2E2E2E2E2E2E2E2E2E2E2E2E2E2E2E2E2E2E2E2E2E2E2E2E2E2E2E2E2E2E2E2E2E2E2E2E2E2E2E2E2E2E2E2E2E2E2E2E2E2E2E2E2E2E2E2E2E2E2E2E2
310
E2E2E2E2E2E2E2E2E2E2E2E2E2E2E2E2E2E2E2E2E2E2E2E2E2E2E2E2E2E2E2E2E2E2E2E2E2E2E2E2E2E2E2E2E2E2E2E2E2E2E2E2E2E2E2E2E2E2E2E2E2E2E2E2E2E2E2E2E2E2E2E2E2E2E2E2E2E2E2E2E2E2E2E2E2E2E2E2E2E2E2E2E2E2E2E2E2E2E2E2E2E2E2E2E2E2E2E2E2E2E2E2E2E2E2E2E2E2E2E2E2E2E2E2E2E2E2
310
E2E2E2E2E2E2E2E2E2E2E2E2E2E2E2E2E2E2E2E2E2E2E2E2E2E2E2E2E2E2E2E2E2E2E2E2E2E2E2E2E2E2E2E2E2E2E2E2E2E2E2E2E2E2E2E2E2E2E2E2E2E2E2E2E2E2E2E2E2E2E2E2E2E2E2E2E2E2E2E2E2E2E2E2E2E2E2E2E2E2E2E2E2E2E2E2E2E2E2E2E2E2E2E2E2E2E2E2E2E2E2E2E2E2E2E2E2E2E2E2E2E2E2E2E2E2E2
310
E2E2E2E2E2E2E2E2E2E2E2E2E2E2E2E2E2E2E2E2E2E2E2E2E2E2E2E2E2E2E2E2E2E2E2E2E2E2E2E2E2E2E2E2E2E2E2E2E2E2E2E2E2E2E2E2E2E2E2E2E2E2E2E2E2E2E2E2E2E2E2E2E2E2E2E2E2E2E2E2E2E2E2E2E2E2E2E2E2E2E2E2E2E2E2E2E2E2E2E2E2E2E2E2E2E2E2E2E2E2E2E2E2E2E2E2E2E2E2E2E2E2E2E2E2E2E2
310
E2E2E2E2E2E2E2E2E2E2E2E2E2E2E2E2E2E2E2E2E2E2E2E2E2E2E2E2E2E2E2E2E2E2E2E2E2E2E2E2E2E2E2E2E2E2E2E2E2E2E2E2E2E2E2E2E2E2E2E2E2E2E2E2E2E2E2E2E2E2E2E2E2E2E2E2E2E2E2E2E2E2E2E2E2E2E2E2E2E2E2E2E2E2E2E2E2E2E2E2E2E2E2E2E2E2E2E2E2E2E2E2E2E2E2E2E2E2E2E2E2E2E2E2E2E2E2
310
E2E2E2E2E2E2E2E2E2E2E2E2E2E2E2E2E2E2E2E2E2E2E2E2E2E2E2E2E2E2E2E2E2E2E2E2E2E2E2E2E2E2E2E2E2E2E2E2E2E2E2E2E2E2E2E2E2E2E2E2E2E2E2E2E2E2E2E2E2E2E2E2E2E2E2E2E2E2E2E2E2E2E2E2E2E2E2E2E2E2E2E2E2E2E2E2E2E2E2E2E2E2E2E2E2E2E2E2E2E2E2E2E2E2E2E2E2E2E2E2E2E2E2E2E2E2E2
310
E2E2E2E2E2E2E2E2E2E2E2E2E2E2E2E2E2E2E2E2E2E2E2E2E2E2E2E2E2E2E2E2E2E2E2E2E2E2E2E2E2E2E2E2E2E2E2E2E2E2E2E2E2E2E2E2E2E2E2E2E2E2E2E2E2E2E2E2E2E2E2E2E2E2E2E2E2E2E2E2E2E2E2E2E2E2E2E2E2E2E2E2E2E2E2E2E2E2E2E2E2E2E2E2E2E2E2E2E2E2E2E2E2E2E2E2E2E2E2E2E2E2E2E2E2E2E2
310
E2E2E2E2E2E2E2E2E2E2E2E2E2E2E2E2E2E2E2E2E2E2E2E2E2E2E2E2E2E2E2E2E2E2E2E2E2E2E2E2E2E2E2E2E2E2E2E2E2E2E2E2E2E2E2E2E2E2E2E2E2E2E2E2E2E2E2E2E2E2E2E2E2E2E2E2E2E2E2E2E2E2E2E2E2E2E2E2E2E2E2E2E2E2E2E2E2E2E2E2E2E2E2E2E2E2E2E2E2E2E2E2E2E2E2E2E2E2E2E2E2E2E2E2E2E2E2
310
E2E2E2E2E2E2E2E2E2E2E2E2E2E2E2E2E2E2E2E2E2E2E2E2E2E2E2E2E2E2E2E2E2E2E2E2E2E2E2E2E2E2E2E2E2E2E2E2E2E2E2E2E2E2E2E2E2E2E2E2E2E2E2E2E2E2E2E2E2E2E2E2E2E2E2E2E2E2E2E2E2E2E2E2E2E2E2E2E2E2E2E2E2E2E2E2E2E2E2E2E2E2E2E2E2E2E2E2E2E2E2E2E2E2E2E2E2E2E2E2E2E2E2E2E2E2E2
310
E2E2E2E2E2E2E2E2E2E2E2E2E2E2E2E2E2E2E2E2E2E2E2E2E2E2E2E2E2E2E2E2E2E2E2E2E2E2E2E2E2E2E2E2E2E2E2E2E2E2E2E2E2E2E2E2E2E2E2E2E2E2E2E2E2E2E2E2E2E2E2E2E2E2E2E2E2E2E2E2E2E2E2E2E2E2E2E2E2E2E2E2E2E2E2E2E2E2E2E2E2E2E2E2E2E2E2E2E2E2E2E2E2E2E2E2E2E2E2E2E2E2E2E2E2E2E2
310
E2E2E2E2E2E2E2E2E2E2E2E2E2E2E2E2E2E2E2E2E2E2E2E2E2E2E2E2E2E2E2E2E2E2E2E2E2E2E2E2E2E2E2E2E2E2E2E2E2E2E2E2E2E2E2E2E2E2E2E2E2E2E2E2E2E2E2E2E2E2E2E2E2E2E2E2E2E2E2E2E2E2E2E2E2E2E2E2E2E2E2E2E2E2E2E2E2E2E2E2E2E2E2E2E2E2E2E2E2E2E2E2E2E2E2E2E2E2E2E2E2E2E2E2E2E2E2
310
E2E2E2E2E2E2E2E2E2E2E2E2E2E2E2E2E2E2E2E2E2E2E2E2E2E2E2E2E2E2E2E2E2E2E2E2E2E2E2E2E2E2E2E2E2E2E2E2E2E2E2E2E2E2E2E2E2E2E2E2E2E2E2E2E2E2E2E2E2E2E2E2E2E2E2E2E2E2E2E2E2E2E2E2E2E2E2E2E2E2E2E2E2E2E2E2E2E2E2E2E2E2E2E2E2E2E2E2E2E2E2E2E2E2E2E2E2E2E2E2E2E2E2E2E2E2E2
310
E2E2E2E2E2E2E2E2E2E2E2E2E2E2E2E2E2E2E2E2E2E2E2E2E2E2E2E2E2E2E2E2E2E2E2E2E2E2E2E2E2E2E2E2E2E2E2E2E2E2E2E2E2E2E2E2E2E2E2E2E2E2E2E2E2E2E2E2E2E2E2E2E2E2E2E2E2E2E2E2E2E2E2E2E2E2E2E2E2E2E2E2E2E2E2E2E2E2E2E2E2E2E2E2E2E2E2E2E2E2E2E2E2E2E2E2E2E2E2E2E2E2E2E2E2E2E2
310
E2E2E2E2E2E2E2E2E2E2E2E2E2E2E2E2E2E2E2E2E2E2E2E2E2E2E2E2E2E2E2E2E2E2E2E2E2E2E2E2E2E2E2E2E2E2E2E2E2E2E2E2E2E2E2E2E2E2E2E2E2E2E2E2E2E2E2E2E2E2E2E2E2E2E2E2E2E2E2E2E2E2E2E2E2E2E2E2E2E2E2E2E2E2E2E2E2E2E2E2E2E2E2E2E2E2E2E2E2E2E2E2E2E2E2E2E2E2E2E2E2E2E2E2E2E2E2
310
E2E2E2E2E2E2E2E2E2E2E2E2E2E2E2E2E2E2E2E2E2E2E2E2E2E2E2E2E2E2E2E2E2E2E2E2E2E2E2E2E2E2E2E2E2E2E2E2E2E2E2E2E2E2E2E2E2E2E2E2E2E2E2E2E2E2E2E2E2E2E2E2E2E2E2E2E2E2E2E2E2E2E2E2E2E2E2E2E2E2E2E2E2E2E2E2E2E2E2E2E2E2E2E2E2E2E2E2E2E2E2E2E2E2E2E2E2E2E2E2E2E2E2E2E2E2E2
310
E2E2E2E2E2E2E2E2E2E2E2E2E2E2E2E2E2E2E2E2E2E2E2E2E2E2E2E2E2E2E2E2E2E2E2E2E2E2E2E2E2E2E2E2E2E2E2E2E2E2E2E2E2E2E2E2E2E2E2E2E2E2E2E2E2E2E2E2E2E2E2E2E2E2E2E2E2E2E2E2E2E2E2E2E2E2E2E2E2E2E2E2E2E2E2E2E2E2E2E2E2E2E2E2E2E2E2E2E2E2E2E2E2E2E2E2E2E2E2E2E2E2E2E2E2E2E2
310
E2E2E2E2E2E2E2E2E2E2E2E2E2E2E2E2E2E2E2E2E2E2E2E2E2E2E2E2E2E2E2E2E2E2E2E2E2E2E2E2E2E2E2E2E2E2E2E2E2E2E2E2E2E2E2E2E2E2E2E2E2E2E2E2E2E2E2E2E2E2E2E2E2E2E2E2E2E2E2E2E2E2E2E2E2E2E2E2E2E2E2E2E2E2E2E2E2E2E2E2E2E2E2E2E2E2E2E2E2E2E2E2E2E2E2E2E2E2E2E2E2E2E2E2E2E2E2
310
E2E2E2E2E2E2E2E2E2E2E2E2E2E2E2E2E2E2E2E2E2E2E2E2E2E2E2E2E2E2E2E2E2E2E2E2E2E2E2E2E2E2E2E2E2E2E2E2E2E2E2E2E2E2E2E2E2E2E2E2E2E2E2E2E2E2E2E2E2E2E2E2E2E2E2E2E2E2E2E2E2E2E2E2E2E2E2E2E2E2E2E2E2E2E2E2E2E2E2E2E2E2E2E2E2E2E2E2E2E2E2E2E2E2E2E2E2E2E2E2E2E2E2E2E2E2E2
310
E2E2E2E2E2E2E2E2E2E2E2E2E2E2E2E2E2E2E2E2E2E2E2E2E2E2E2E2E2E2E2E2E2E2E2E2E2E2E2E2E2E2E2E2E2E2E2E2E2E2E2E2E2E2E2E2E2E2E2E2E2E2E2E2E2E2E2E2E2E2E2E2E2E2E2E2E2E2E2E2E2E2E2E2E2E2E2E2E2E2E2E2E2E2E2E2E2E2E2E2E2E2E2E2E2E2E2E2E2E2E2E2E2E2E2E2E2E2E2E2E2E2E2E2E2E2E2
310
E2E2E2E2E2E2E2E2E2E2E2E2E2E2E2E2E2E2E2E2E2E2E2E2E2E2E2E2E2E2E2E2E2E2E2E2E2E2E2E2E2E2E2E2E2E2E2E2E2E2E2E2E2E2E2E2E2E2E2E2E2E2E2E2E2E2E2E2E2E2E2E2E2E2E2E2E2E2E2E2E2E2E2E2E2E2E2E2E2E2E2E2E2E2E2E2E2E2E2E2E2E2E2E2E2E2E2E2E2E2E2E2E2E2E2E2E2E2E2E2E2E2E2E2E2E2E2
310
E2E2E2E2E2E2E2E2E2E2E2E2E2E2E2E2E2E2E2E2E2E2E2E2E2E2E2E2E2E2E2E2E2E2E2E2E2E2E2E2E2E2E2E2E2E2E2E2E2E2E2E2E2E2E2E2E2E2E2E2E2E2E2E2E2E2E2E2E2E2E2E2E2E2E2E2E2E2E2E2E2E2E2E2E2E2E2E2E2E2E2E2E2E2E2E2E2E2E2E2E2E2E2E2E2E2E2E2E2E2E2E2E2E2E2E2E2E2E2E2E2E2E2E2E2E2E2
310
E2E2E2E2E2E2E2E2E2E2E2E2E2E2E2E2E2E2E2E2E2E2E2E2E2E2E2E2E2E2E2E2E2E2E2E2E2E2E2E2E2E2E2E2E2E2E2E2E2E2E2E2E2E2E2E2E2E2E2E2E2E2E2E2E2E2E2E2E2E2E2E2E2E2E2E2E2E2E2E2E2E2E2E2E2E2E2E2E2E2E2E2E2E2E2E2E2E2E2E2E2E2E2E2E2E2E2E2E2E2E2E2E2E2E2E2E2E2E2E2E2E2E2E2E2E2E2
310
E2E2E2E2E2E2E2E2E2E2E2E2E2E2E2E2E2E2E2E2E2E2E2E2E2E2E2E2E2E2E2E2E2E2E2E2E2E2E2E2E2E2E2E2E2E2E2E2E2E2E2E2E2E2E2E2E2E2E2E2E2E2E2E2E2E2E2E2E2E2E2E2E2E2E2E2E2E2E2E2E2E2E2E2E2E2E2E2E2E2E2E2E2E2E2E2E2E2E2E2E2E2E2E2E2E2E2E2E2E2E2E2E2E2E2E2E2E2E2E2E2E2E2E2E2E2E2
310
E2E2E2E2E2E2E2E2E2E2E2E2E2E2E2E2E2E2E2E2E2E2E2E2E2E2E2E2E2E2E2E2E2E2E2E2E2E2E2E2E2E2E2E2E2E2E2E2E2E2E2E2E2E2E2E2E2E2E2E2E2E2E2E2E2E2E2E2E2E2E2E2E2E2E2E2E2E2E2E2E2E2E2E2E2E2E2E2E2E2E2E2E2E2E2E2E2E2E2E2E2E2E2E2E2E2E2E2E2E2E2E2E2E2E2E2E2E2E2E2E2E2E2E2E2E2E2
310
E2E2E2E2E2E2E2E2E2E2E2E2E2E2E2E2E2E2E2E2E2E2E2E2E2E2E2E2E2E2E2E2E2E2E2E2E2E2E2E2E2E2E2E2E2E2E2E2E2E2E2E2E2E2E2E2E2E2E2E2E2E2E2E2E2E2E2E2E2E2E2E2E2E2E2E2E2E2E2E2E2E2E2E2E2E2E2E2E2E2E2E2E2E2E2E2E2E2E2E2E2E2E2E2E2E2E2E2E2E2E2E2E2E2E2E2E2E2E2E2E2E2E2E2E2E2E2
310
E2E2E2E2E2E2E2E2E2E2E2E2E2E2E2E2E2E2E2E2E2E2E2E2E2E2E2E2E2E2E2E2E2E2E2E2E2E2E2E2E2E2E2E2E2E2E2E2E2E2E2E2E2E2E2E2E2E2E2E2E2E2E2E2E2E2E2E2E2E2E2E2E2E2E2E2E2E2E2E2E2E2E2E2E2E2E2E2E2E2E2E2E2E2E2E2E2E2E2E2E2E2E2E2E2E2E2E2E2E2E2E2E2E2E2E2E2E2E2E2E2E2E2E2E2E2E2
310
E2E2E2E2E2E2E2E2E2E2E2E2E2E2E2E2E2E2E2E2E2E2E2E2E2E2E2E2E2E2E2E2E2E2E2E2E2E2E2E2E2E2E2E2E2E2E2E2E2E2E2E2E2E2E2E2E2E2E2E2E2E2E2E2E2E2E2E2E2E2E2E2E2E2E2E2E2E2E2E2E2E2E2E2E2E2E2E2E2E2E2E2E2E2E2E2E2E2E2E2E2E2E2E2E2E2E2E2E2E2E2E2E2E2E2E2E2E2E2E2E2E2E2E2E2E2E2
310
E2E2E2E2E2E2E2E2E2E2E2E2E2E2E2E2E2E2E2E2E2E2E2E2E2E2E2E2E2E2E2E2E2E2E2E2E2E2E2E2E2E2E2E2E2E2E2E2E2E2E2E2E2E2E2E2E2E2E2E2E2E2E2E2E2E2E2E2E2E2E2E2E2E2E2E2E2E2E2E2E2E2E2E2E2E2E2E2E2E2E2E2E2E2E2E2E2E2E2E2E2E2E2E2E2E2E2E2E2E2E2E2E2E2E2E2E2E2E2E2E2E2E2E2E2E2E2
310
E2E2E2E2E2E2E2E2E2E2E2E2E2E2E2E2E2E2E2E2E2E2E2E2E2E2E2E2E2E2E2E2E2E2E2E2E2E2E2E2E2E2E2E2E2E2E2E2E2E2E2E2E2E2E2E2E2E2E2E2E2E2E2E2E2E2E2E2E2E2E2E2E2E2E2E2E2E2E2E2E2E2E2E2E2E2E2E2E2E2E2E2E2E2E2E2E2E2E2E2E2E2E2E2E2E2E2E2E2E2E2E2E2E2E2E2E2E2E2E2E2E2E2E2E2E2E2
310
E2E2E2E2E2E2E2E2E2E2E2E2E2E2E2E2E2E2E2E2E2E2E2E2E2E2E2E2E2E2E2E2E2E2E2E2E2E2E2E2E2E2E2E2E2E2E2E2E2E2E2E2E2E2E2E2E2E2E2E2E2E2E2E2E2E2E2E2E2E2E2E2E2E2E2E2E2E2E2E2E2E2E2E2E2E2E2E2E2E2E2E2E2E2E2E2E2E2E2E2E2E2E2E2E2E2E2E2E2E2E2E2E2E2E2E2E2E2E2E2E2E2E2E2E2E2E2
310
E2E2E2E2E2E2E2E2E2E2E2E2E2E2E2E2E2E2E2E2E2E2E2E2E2E2E2E2E2E2E2E2E2E2E2E2E2E2E2E2E2E2E2E2E2E2E2E2E2E2E2E2E2E2E2E2E2E2E2E2E2E2E2E2E2E2E2E2E2E2E2E2E2E2E2E2E2E2E2E2E2E2E2E2E2E2E2E2E2E2E2E2E2E2E2E2E2E2E2E2E2E2E2E2E2E2E2E2E2E2E2E2E2E2E2E2E2E2E2E2E2E2E2E2E2E2E2
310
E2E2E2E2E2E2E2E2E2E2E2E2E2E2E2E2E2E2E2E2E2E2E2E2E2E2E2E2E2E2E2E2E2E2E2E2E2E2E2E2E2E2E2E2E2E2E2E2E2E2E2E2E2E2E2E2E2E2E2E2E2E2E2E2E2E2E2E2E2E2E2E2E2E2E2E2E2E2E2E2E2E2E2E2E2E2E2E2E2E2E2E2E2E2E2E2E2E2E2E2E2E2E2E2E2E2E2E2E2E2E2E2E2E2E2E2E2E2E2E2E2E2E2E2E2E2E2
310
E2E2E2E2E2E2E2E2E2E2E2E2E2E2E2E2E2E2E2E2E2E2E2E2E2E2E2E2E2E2E2E2E2E2E2E2E2E2E2E2E2E2E2E2E2E2E2E2E2E2E2E2E2E2E2E2E2E2E2E2E2E2E2E2E2E2E2E2E2E2E2E2E2E2E2E2E2E2E2E2E2E2E2E2E2E2E2E2E2E2E2E2E2E2E2E2E2E2E2E2E2E2E2E2E2E2E2E2E2E2E2E2E2E2E2E2E2E2E2E2E2E2E2E2E2E2E2
310
E2E2E2E2E2E2E2E2E2E2E2E2E2E2E2E2E2E2E2E2E2E2E2E2E2E2E2E2E2E2E2E2E2E2E2E2E2E2E2E2E2E2E2E2E2E2E2E2E2E2E2E2E2E2E2E2E2E2E2E2E2E2E2E2E2E2E2E2E2E2E2E2E2E2E2E2E2E2E2E2E2E2E2E2E2E2E2E2E2E2E2E2E2E2E2E2E2E2E2E2E2E2E2E2E2E2E2E2E2E2E2E2E2E2E2E2E2E2E2E2E2E2E2E2E2E2E2
310
E2E2E2E2E2E2E2E2E2E2E2E2E2E2E2E2E2E2E2E2E2E2E2E2E2E2E2E2E2E2E2E2E2E2E2E2E2E2E2E2E2E2E2E2E2E2E2E2E2E2E2E2E2E2E2E2E2E2E2E2E2E2E2E2E2E2E2E2E2E2E2E2E2E2E2E2E2E2E2E2E2E2E2E2E2E2E2E2E2E2E2E2E2E2E2E2E2E2E2E2E2E2E2E2E2E2E2E2E2E2E2E2E2E2E2E2E2E2E2E2E2E2E2E2E2E2E2
310
E2E2E2E2E2E2E2E2E2E2E2E2E2E2E2E2E2E2E2E2E2E2E2E2E2E2E2E2E2E2E2E2E2E2E2E2E2E2E2E2E2E2E2E2E2E2E2E2E2E2E2E2E2E2E2E2E2E2E2E2E2E2E2E2E2E2E2E2E2E2E2E2E2E2E2E2E2E2E2E2E2E2E2E2E2E2E2E2E2E2E2E2E2E2E2E2E2E2E2E2E2E2E2E2E2E2E2E2E2E2E2E2E2E2E2E2E2E2E2E2E2E2E2E2E2E2E2
310
E2E2E2E2E2E2E2E2E2E2E2E2E2E2E2E2E2E2E2E2E2E2E2E2E2E2E2E2E2E2E2E2E2E2E2E2E2E2E2E2E2E2E2E2E2E2E2E2E2E2E2E2E2E2E2E2E2E2E2E2E2E2E2E2E2E2E2E2E2E2E2E2E2E2E2E2E2E2E2E2E2E2E2E2E2E2E2E2E2E2E2E2E2E2E2E2E2E2E2E2E2E2E2E2E2E2E2E2E2E2E2E2E2E2E2E2E2E2E2E2E2E2E2E2E2E2E2
310
E2E2E2E2E2E2E2E2E2E2E2E2E2E2E2E2E2E2E2E2E2E2E2E2E2E2E2E2E2E2E2E2E2E2E2E2E2E2E2E2E2E2E2E2E2E2E2E2E2E2E2E2E2E2E2E2E2E2E2E2E2E2E2E2E2E2E2E2E2E2E2E2E2E2E2E2E2E2E2E2E2E2E2E2E2E2E2E2E2E2E2E2E2E2E2E2E2E2E2E2E2E2E2E2E2E2E2E2E2E2E2E2E2E2E2E2E2E2E2E2E2E2E2E2E2E2E2
310
E2E2E2E2E2E2E2E2E2E2E2E2E2E2E2E2E2E2E2E2E2E2E2E2E2E2E2E2E2E2E2E2E2E2E2E2E2E2E2E2E2E2E2E2E2E2E2E2E2E2E2E2E2E2E2E2E2E2E2E2E2E2E2E2E2E2E2E2E2E2E2E2E2E2E2E2E2E2E2E2E2E2E2E2E2E2E2E2E2E2E2E2E2E2E2E2E2E2E2E2E2E2E2E2E2E2E2E2E2E2E2E2E2E2E2E2E2E2E2E2E2E2E2E2E2E2E2
310
E2E2E2E2E2E2E2E2E2E2E2E2E2E2E2E2E2E2E2E2E2E2E2E2E2E2E2E2E2E2E2E2E2E2E2E2E2E2E2E2E2E2E2E2E2E2E2E2E2E2E2E2E2E2E2E2E2E2E2E2E2E2E2E2E2E2E2E2E2E2E2E2E2E2E2E2E2E2E2E2E2E2E2E2E2E2E2E2E2E2E2E2E2E2E2E2E2E2E2E2E2E2E2E2E2E2E2E2E2E2E2E2E2E2E2E2E2E2E2E2E2E2E2E2E2E2E2
310
E2E2E2E2E2E2E2E2E2E2E2E2E2E2E2E2E2E2E2E2E2E2E2E2E2E2E2E2E2E2E2E2E2E2E2E2E2E2E2E2E2E2E2E2E2E2E2E2E2E2E2E2E2E2E2E2E2E2E2E2E2E2E2E2E2E2E2E2E2E2E2E2E2E2E2E2E2E2E2E2E2E2E2E2E2E2E2E2E2E2E2E2E2E2E2E2E2E2E2E2E2E2E2E2E2E2E2E2E2E2E2E2E2E2E2E2E2E2E2E2E2E2E2E2E2E2E2
310
E2E2E2E2E2E2E2E2E2E2E2E2E2E2E2E2E2E2E2E2E2E2E2E2E2E2E2E2E2E2E2E2E2E2E2E2E2E2E2E2E2E2E2E2E2E2E2E2E2E2E2E2E2E2E2E2E2E2E2E2E2E2E2E2E2E2E2E2E2E2E2E2E2E2E2E2E2E2E2E2E2E2E2E2E2E2E2E2E2E2E2E2E2E2E2E2E2E2E2E2E2E2E2E2E2E2E2E2E2E2E2E2E2E2E2E2E2E2E2E2E2E2E2E2E2E2E2
310
E2E2E2E2E2E2E2E2E2E2E2E2E2E2E2E2E2E2E2E2E2E2E2E2E2E2E2E2E2E2E2E2E2E2E2E2E2E2E2E2E2E2E2E2E2E2E2E2E2E2E2E2E2E2E2E2E2E2E2E2E2E2E2E2E2E2E2E2E2E2E2E2E2E2E2E2E2E2E2E2E2E2E2E2E2E2E2E2E2E2E2E2E2E2E2E2E2E2E2E2E2E2E2E2E2E2E2E2E2E2E2E2E2E2E2E2E2E2E2E2E2E2E2E2E2E2E2
310
E2E2E2E2E2E2E2E2E2E2E2E2E2E2E2E2E2E2E2E2E2E2E2E2E2E2E2E2E2E2E2E2E2E2E2E2E2E2E2E2E2E2E2E2E2E2E2E2E2E2E2E2E2E2E2E2E2E2E2E2E2E2E2E2E2E2E2E2E2E2E2E2E2E2E2E2E2E2E2E2E2E2E2E2E2E2E2E2E2E2E2E2E2E2E2E2E2E2E2E2E2E2E2E2E2E2E2E2E2E2E2E2E2E2E2E2E2E2E2E2E2E2E2E2E2E2E2
310
E2E2E2E2E2E2E2E2E2E2E2E2E2E2E2E2E2E2E2E2E2E2E2E2E2E2E2E2E2E2E2E2E2E2E2E2E2E2E2E2E2E2E2E2E2E2E2E2E2E2E2E2E2E2E2E2E2E2E2E2E2E2E2E2E2E2E2E2E2E2E2E2E2E2E2E2E2E2E2E2E2E2E2E2E2E2E2E2E2E2E2E2E2E2E2E2E2E2E2E2E2E2E2E2E2E2E2E2E2E2E2E2E2E2E2E2E2E2E2E2E2E2E2E2E2E2E2
310
E2E2E2E2E2E2E2E2E2E2E2E2E2E2E2E2E2E2E2E2E2E2E2E2E2E2E2E2E2E2E2E2E2E2E2E2E2E2E2E2E2E2E2E2E2E2E2E2E2E2E2E2E2E2E2E2E2E2E2E2E2E2E2E2E2E2E2E2E2E2E2E2E2E2E2E2E2E2E2E2E2E2E2E2E2E2E2E2E2E2E2E2E2E2E2E2E2E2E2E2E2E2E2E2E2E2E2E2E2E2E2E2E2E2E2E2E2E2E2E2E2E2E2E2E2E2E2
310
E2E2E2E2E2E2E2E2E2E2E2E2E2E2E2E2E2E2E2E2E2E2E2E2E2E2E2E2E2E2E2E2E2E2E2E2E2E2E2E2E2E2E2E2E2E2E2E2E2E2E2E2E2E2E2E2E2E2E2E2E2E2E2E2E2E2E2E2E2E2E2E2E2E2E2E2E2E2E2E2E2E2E2E2E2E2E2E2E2E2E2E2E2E2E2E2E2E2E2E2E2E2E2E2E2E2E2E2E2E2E2E2E2E2E2E2E2E2E2E2E2E2E2E2E2E2E2
310
E2E2E2E2E2E2E2E2E2E2E2E2E2E2E2E2E2E2E2E2E2E2E2E2E2E2E2E2E2E2E2E2E2E2E2E2E2E2E2E2E2E2E2E2E2E2E2E2E2E2E2E2E2E2E2E2E2E2E2E2E2E2E2E2E2E2E2E2E2E2E2E2E2E2E2E2E2E2E2E2E2E2E2E2E2E2E2E2E2E2E2E2E2E2E2E2E2E2E2E2E2E2E2E2E2E2E2E2E2E2E2E2E2E2E2E2E2E2E2E2E2E2E2E2E2E2E2
310
E2E2E2E2E2E2E2E2E2E2E2E2E2E2E2E2E2E2E2E2E2E2E2E2E2E2E2E2E2E2E2E2E2E2E2E2E2E2E2E2E2E2E2E2E2E2E2E2E2E2E2E2E2E2E2E2E2E2E2E2E2E2E2E2E2E2E2E2E2E2E2E2E2E2E2E2E2E2E2E2E2E2E2E2E2E2E2E2E2E2E2E2E2E2E2E2E2E2E2E2E2E2E2E2E2E2E2E2E2E2E2E2E2E2E2E2E2E2E2E2E2E2E2E2E2E2E2
310
E2E2E2E2E2E2E2E2E2E2E2E2E2E2E2E2E2E2E2E2E2E2E2E2E2E2E2E2E2E2E2E2E2E2E2E2E2E2E2E2E2E2E2E2E2E2E2E2E2E2E2E2E2E2E2E2E2E2E2E2E2E2E2E2E2E2E2E2E2E2E2E2E2E2E2E2E2E2E2E2E2E2E2E2E2E2E2E2E2E2E2E2E2E2E2E2E2E2E2E2E2E2E2E2E2E2E2E2E2E2E2E2E2E2E2E2E2E2E2E2E2E2E2E2E2E2E2
310
E2E2E2E2E2E2E2E2E2E2E2E2E2E2E2E2E2E2E2E2E2E2E2E2E2E2E2E2E2E2E2E2E2E2E2E2E2E2E2E2E2E2E2E2E2E2E2E2E2E2E2E2E2E2E2E2E2E2E2E2E2E2E2E2E2E2E2E2E2E2E2E2E2E2E2E2E2E2E2E2E2E2E2E2E2E2E2E2E2E2E2E2E2E2E2E2E2E2E2E2E2E2E2E2E2E2E2E2E2E2E2E2E2E2E2E2E2E2E2E2E2E2E2E2E2E2E2
310
E2E2E2E2E2E2E2E2E2E2E2E2E2E2E2E2E2E2E2E2E2E2E2E2E2E2E2E2E2E2E2E2E2E2E2E2E2E2E2E2E2E2E2E2E2E2E2E2E2E2E2E2E2E2E2E2E2E2E2E2E2E2E2E2E2E2E2E2E2E2E2E2E2E2E2E2E2E2E2E2E2E2E2E2E2E2E2E2E2E2E2E2E2E2E2E2E2E2E2E2E2E2E2E2E2E2E2E2E2E2E2E2E2E2E2E2E2E2E2E2E2E2E2E2E2E2E2
310
E2E2E2E2E2E2E2E2E2E2E2E2E2E2E2E2E2E2E2E2E2E2E2E2E2E2E2E2E2E2E2E2E2E2E2E2E2E2E2E2E2E2E2E2E2E2E2E2E2
  0
XRECORD
  5
1522
102
{ACAD_REACTORS
330
137C
102
}
330
137C
100
AcDbXrecord
280
     1
102
MATERIAL
148
0.0
149
0.0
149
0.0
 93
        0
 94
      127
282
     0
 72
     0
 77
     0
171
     0
175
     0
179
     0
273
     0
  0
XRECORD
  5
137E
102
{ACAD_REACTORS
330
137C
102
}
330
137C
100
AcDbXrecord
280
     1
270
     1
271
     1
  0
XRECORD
  5
137D
102
{ACAD_REACTORS
330
137C
102
}
330
137C
100
AcDbXrecord
280
     1
270
     1
271
     1
  0
XRECORD
  5
1381
102
{ACAD_REACTORS
330
137C
102
}
330
137C
100
AcDbXrecord
280
     1
270
     1
271
     1
  0
XRECORD
  5
1380
102
{ACAD_REACTORS
330
137C
102
}
330
137C
100
AcDbXrecord
280
     1
270
     1
271
     1
  0
XRECORD
  5
1382
102
{ACAD_REACTORS
330
137C
102
}
330
137C
100
AcDbXrecord
280
     1
270
     1
271
     1
  0
XRECORD
  5
137F
102
{ACAD_REACTORS
330
137C
102
}
330
137C
100
AcDbXrecord
280
     1
270
     1
271
     1
  0
XRECORD
  5
1521
102
{ACAD_REACTORS
330
1374
102
}
330
1374
100
AcDbXrecord
280
     1
102
MATERIAL
148
0.0
149
0.0
149
0.0
 93
        0
 94
      127
282
     0
 72
     0
 77
     0
171
     0
175
     0
179
     0
273
     0
  0
XRECORD
  5
1376
102
{ACAD_REACTORS
330
1374
102
}
330
1374
100
AcDbXrecord
280
     1
270
     1
271
     1
  0
XRECORD
  5
1375
102
{ACAD_REACTORS
330
1374
102
}
330
1374
100
AcDbXrecord
280
     1
270
     1
271
     1
  0
XRECORD
  5
1379
102
{ACAD_REACTORS
330
1374
102
}
330
1374
100
AcDbXrecord
280
     1
270
     1
271
     1
  0
XRECORD
  5
1378
102
{ACAD_REACTORS
330
1374
102
}
330
1374
100
AcDbXrecord
280
     1
270
     1
271
     1
  0
XRECORD
  5
137A
102
{ACAD_REACTORS
330
1374
102
}
330
1374
100
AcDbXrecord
280
     1
270
     1
271
     1
  0
XRECORD
  5
1377
102
{ACAD_REACTORS
330
1374
102
}
330
1374
100
AcDbXrecord
280
     1
270
     1
271
     1
  0
XRECORD
  5
1523
102
{ACAD_REACTORS
330
1384
102
}
330
1384
100
AcDbXrecord
280
     1
102
MATERIAL
148
0.0
149
0.0
149
0.0
 93
        0
 94
      127
282
     0
 72
     0
 77
     0
171
     0
175
     0
179
     0
273
     0
  0
XRECORD
  5
1386
102
{ACAD_REACTORS
330
1384
102
}
330
1384
100
AcDbXrecord
280
     1
270
     1
271
     1
  0
XRECORD
  5
1385
102
{ACAD_REACTORS
330
1384
102
}
330
1384
100
AcDbXrecord
280
     1
270
     1
271
     1
  0
XRECORD
  5
1389
102
{ACAD_REACTORS
330
1384
102
}
330
1384
100
AcDbXrecord
280
     1
270
     1
271
     1
  0
XRECORD
  5
1388
102
{ACAD_REACTORS
330
1384
102
}
330
1384
100
AcDbXrecord
280
     1
270
     1
271
     1
  0
XRECORD
  5
138A
102
{ACAD_REACTORS
330
1384
102
}
330
1384
100
AcDbXrecord
280
     1
270
     1
271
     1
  0
XRECORD
  5
1387
102
{ACAD_REACTORS
330
1384
102
}
330
1384
100
AcDbXrecord
280
     1
270
     1
271
     1
  0
CELLSTYLEMAP
  5
1D5A
102
{ACAD_REACTORS
330
1516
102
}
330
1516
100
AcDbCellStyleMap
 90
        3
300
CELLSTYLE
  1
TABLEFORMAT_BEGIN
 90
        5
170
     1
 91
        0
 92
    32768
 62
   257
 93
        1
300
CONTENTFORMAT
  1
CONTENTFORMAT_BEGIN
 90
        0
 91
        0
 92
        4
 93
        0
300

 40
0.0
140
1.0
 94
        5
 62
     0
340
852
144
0.25
309
CONTENTFORMAT_END
171
     1
301
MARGIN
  1
CELLMARGIN_BEGIN
 40
0.06
 40
0.06
 40
0.06
 40
0.06
 40
0.18
 40
0.18
309
CELLMARGIN_END
 94
        6
 95
        1
302
GRIDFORMAT
  1
GRIDFORMAT_BEGIN
 90
        0
 91
        1
 62
     0
 92
       -2
340
0
 93
        0
 40
0.045
309
GRIDFORMAT_END
 95
        2
302
GRIDFORMAT
  1
GRIDFORMAT_BEGIN
 90
        0
 91
        1
 62
     0
 92
       -2
340
0
 93
        0
 40
0.045
309
GRIDFORMAT_END
 95
        4
302
GRIDFORMAT
  1
GRIDFORMAT_BEGIN
 90
        0
 91
        1
 62
     0
 92
       -2
340
0
 93
        0
 40
0.045
309
GRIDFORMAT_END
 95
        8
302
GRIDFORMAT
  1
GRIDFORMAT_BEGIN
 90
        0
 91
        1
 62
     0
 92
       -2
340
0
 93
        0
 40
0.045
309
GRIDFORMAT_END
 95
       16
302
GRIDFORMAT
  1
GRIDFORMAT_BEGIN
 90
        0
 91
        1
 62
     0
 92
       -2
340
0
 93
        0
 40
0.045
309
GRIDFORMAT_END
 95
       32
302
GRIDFORMAT
  1
GRIDFORMAT_BEGIN
 90
        0
 91
        1
 62
     0
 92
       -2
340
0
 93
        0
 40
0.045
309
GRIDFORMAT_END
309
TABLEFORMAT_END
  1
CELLSTYLE_BEGIN
 90
        1
 91
        1
300
_TITLE
309
CELLSTYLE_END
300
CELLSTYLE
  1
TABLEFORMAT_BEGIN
 90
        5
170
     1
 91
        0
 92
        0
 62
   257
 93
        1
300
CONTENTFORMAT
  1
CONTENTFORMAT_BEGIN
 90
        0
 91
        0
 92
        4
 93
        0
300

 40
0.0
140
1.0
 94
        5
 62
     0
340
852
144
0.18
309
CONTENTFORMAT_END
171
     1
301
MARGIN
  1
CELLMARGIN_BEGIN
 40
0.06
 40
0.06
 40
0.06
 40
0.06
 40
0.18
 40
0.18
309
CELLMARGIN_END
 94
        6
 95
        1
302
GRIDFORMAT
  1
GRIDFORMAT_BEGIN
 90
        0
 91
        1
 62
     0
 92
       -2
340
0
 93
        0
 40
0.045
309
GRIDFORMAT_END
 95
        2
302
GRIDFORMAT
  1
GRIDFORMAT_BEGIN
 90
        0
 91
        1
 62
     0
 92
       -2
340
0
 93
        0
 40
0.045
309
GRIDFORMAT_END
 95
        4
302
GRIDFORMAT
  1
GRIDFORMAT_BEGIN
 90
        0
 91
        1
 62
     0
 92
       -2
340
0
 93
        0
 40
0.045
309
GRIDFORMAT_END
 95
        8
302
GRIDFORMAT
  1
GRIDFORMAT_BEGIN
 90
        0
 91
        1
 62
     0
 92
       -2
340
0
 93
        0
 40
0.045
309
GRIDFORMAT_END
 95
       16
302
GRIDFORMAT
  1
GRIDFORMAT_BEGIN
 90
        0
 91
        1
 62
     0
 92
       -2
340
0
 93
        0
 40
0.045
309
GRIDFORMAT_END
 95
       32
302
GRIDFORMAT
  1
GRIDFORMAT_BEGIN
 90
        0
 91
        1
 62
     0
 92
       -2
340
0
 93
        0
 40
0.045
309
GRIDFORMAT_END
309
TABLEFORMAT_END
  1
CELLSTYLE_BEGIN
 90
        2
 91
        1
300
_HEADER
309
CELLSTYLE_END
300
CELLSTYLE
  1
TABLEFORMAT_BEGIN
 90
        5
170
     1
 91
        0
 92
        0
 62
   257
 93
        1
300
CONTENTFORMAT
  1
CONTENTFORMAT_BEGIN
 90
        0
 91
        0
 92
        4
 93
        0
300

 40
0.0
140
1.0
 94
        2
 62
     0
340
852
144
0.18
309
CONTENTFORMAT_END
171
     1
301
MARGIN
  1
CELLMARGIN_BEGIN
 40
0.06
 40
0.06
 40
0.06
 40
0.06
 40
0.18
 40
0.18
309
CELLMARGIN_END
 94
        6
 95
        1
302
GRIDFORMAT
  1
GRIDFORMAT_BEGIN
 90
        0
 91
        1
 62
     0
 92
       -2
340
0
 93
        0
 40
0.045
309
GRIDFORMAT_END
 95
        2
302
GRIDFORMAT
  1
GRIDFORMAT_BEGIN
 90
        0
 91
        1
 62
     0
 92
       -2
340
0
 93
        0
 40
0.045
309
GRIDFORMAT_END
 95
        4
302
GRIDFORMAT
  1
GRIDFORMAT_BEGIN
 90
        0
 91
        1
 62
     0
 92
       -2
340
0
 93
        0
 40
0.045
309
GRIDFORMAT_END
 95
        8
302
GRIDFORMAT
  1
GRIDFORMAT_BEGIN
 90
        0
 91
        1
 62
     0
 92
       -2
340
0
 93
        0
 40
0.045
309
GRIDFORMAT_END
 95
       16
302
GRIDFORMAT
  1
GRIDFORMAT_BEGIN
 90
        0
 91
        1
 62
     0
 92
       -2
340
0
 93
        0
 40
0.045
309
GRIDFORMAT_END
 95
       32
302
GRIDFORMAT
  1
GRIDFORMAT_BEGIN
 90
        0
 91
        1
 62
     0
 92
       -2
340
0
 93
        0
 40
0.045
309
GRIDFORMAT_END
309
TABLEFORMAT_END
  1
CELLSTYLE_BEGIN
 90
        3
 91
        2
300
_DATA
309
CELLSTYLE_END
  0
XRECORD
  5
1D60
102
{ACAD_REACTORS
330
1516
102
}
330
1516
100
AcDbXrecord
280
     1
102
ACAD_ROUNDTRIP_PRE2007_TABLESTYLE
 90
        4
 91
        0
  1

 92
        4
 93
        0
  2

 94
        4
 95
        0
  3

  0
ENDSEC
  0
EOF
