  0
SECTION
  2
HEADER
  9
$ACADVER
  1
AC1018
  9
$ACADMAINTVER
 70
   104
  9
$DWGCODEPAGE
  3
ANSI_932
  9
$LASTSAVEDBY
  1
a080061
  9
$CUSTOMPROPERTYTAG
  1
AmdtFileType
  9
$CUSTOMPROPERTY
  1
84
  9
$INSBASE
 10
0.0
 20
0.0
 30
0.0
  9
$EXTMIN
 10
-431.8862747190141
 20
-2637.496939089029
 30
-0.0015258207003583
  9
$EXTMAX
 10
917.7017326323548
 20
-1489.379877212201
 30
0.0000000349246037
  9
$LIMMIN
 10
-2970.0
 20
-2100.0
  9
$LIMMAX
 10
2970.0
 20
2100.0
  9
$ORTHOMODE
 70
     1
  9
$REGENMODE
 70
     0
  9
$FILLMODE
 70
     1
  9
$QTEXTMODE
 70
     0
  9
$MIRRTEXT
 70
     0
  9
$LTSCALE
 40
20.0
  9
$ATTMODE
 70
     1
  9
$TEXTSIZE
 40
64.0
  9
$TRACEWID
 40
0.05
  9
$TEXTSTYLE
  7
STANDARD
  9
$CLAYER
  8
0
  9
$CELTYPE
  6
CONTINUOUS
  9
$CECOLOR
 62
   256
  9
$CELTSCALE
 40
1.0
  9
$DISPSILH
 70
     0
  9
$DIMSCALE
 40
1.0
  9
$DIMASZ
 40
0.12
  9
$DIMEXO
 40
0.05
  9
$DIMDLI
 40
0.5
  9
$DIMRND
 40
0.0
  9
$DIMDLE
 40
0.0
  9
$DIMEXE
 40
0.1
  9
$DIMTP
 40
0.1
  9
$DIMTM
 40
0.1
  9
$DIMTXT
 40
0.12
  9
$DIMCEN
 40
0.0
  9
$DIMTSZ
 40
0.0
  9
$DIMTOL
 70
     0
  9
$DIMLIM
 70
     0
  9
$DIMTIH
 70
     1
  9
$DIMTOH
 70
     1
  9
$DIMSE1
 70
     0
  9
$DIMSE2
 70
     0
  9
$DIMTAD
 70
     0
  9
$DIMZIN
 70
     7
  9
$DIMBLK
  1

  9
$DIMASO
 70
     1
  9
$DIMSHO
 70
     0
  9
$DIMPOST
  1

  9
$DIMAPOST
  1
mm
  9
$DIMALT
 70
     0
  9
$DIMALTD
 70
     2
  9
$DIMALTF
 40
25.4
  9
$DIMLFAC
 40
1.0
  9
$DIMTOFL
 70
     0
  9
$DIMTVP
 40
0.0
  9
$DIMTIX
 70
     0
  9
$DIMSOXD
 70
     0
  9
$DIMSAH
 70
     0
  9
$DIMBLK1
  1

  9
$DIMBLK2
  1

  9
$DIMSTYLE
  2
AM_ANSI
  9
$DIMCLRD
 70
   256
  9
$DIMCLRE
 70
   256
  9
$DIMCLRT
 70
     2
  9
$DIMTFAC
 40
0.71
  9
$DIMGAP
 40
0.06
  9
$DIMJUST
 70
     0
  9
$DIMSD1
 70
     0
  9
$DIMSD2
 70
     0
  9
$DIMTOLJ
 70
     1
  9
$DIMTZIN
 70
     7
  9
$DIMALTZ
 70
     0
  9
$DIMALTTZ
 70
     0
  9
$DIMUPT
 70
     0
  9
$DIMDEC
 70
     4
  9
$DIMTDEC
 70
     4
  9
$DIMALTU
 70
     2
  9
$DIMALTTD
 70
     4
  9
$DIMTXSTY
  7
STANDARD
  9
$DIMAUNIT
 70
     0
  9
$DIMADEC
 70
     0
  9
$DIMALTRND
 40
0.0
  9
$DIMAZIN
 70
     2
  9
$DIMDSEP
 70
    46
  9
$DIMATFIT
 70
     3
  9
$DIMFRAC
 70
     0
  9
$DIMLDRBLK
  1

  9
$DIMLUNIT
 70
     2
  9
$DIMLWD
 70
    -1
  9
$DIMLWE
 70
    -1
  9
$DIMTMOVE
 70
     0
  9
$LUNITS
 70
     2
  9
$LUPREC
 70
     4
  9
$SKETCHINC
 40
0.1
  9
$FILLETRAD
 40
4.0
  9
$AUNITS
 70
     1
  9
$AUPREC
 70
     3
  9
$MENU
  1
ACAD
  9
$ELEVATION
 40
0.0
  9
$PELEVATION
 40
0.0
  9
$THICKNESS
 40
50.0
  9
$LIMCHECK
 70
     0
  9
$CHAMFERA
 40
5.0
  9
$CHAMFERB
 40
5.0
  9
$CHAMFERC
 40
0.0
  9
$CHAMFERD
 40
0.0
  9
$SKPOLY
 70
     0
  9
$TDCREATE
 40
2452321.396199653
  9
$TDUCREATE
 40
2452321.021199653
  9
$TDUPDATE
 40
2456703.631325544
  9
$TDUUPDATE
 40
2456703.256325544
  9
$TDINDWG
 40
0.8229215856
  9
$TDUSRTIMER
 40
0.8229189120
  9
$USRTIMER
 70
     1
  9
$ANGBASE
 50
0.0
  9
$ANGDIR
 70
     0
  9
$PDMODE
 70
     3
  9
$PDSIZE
 40
-2.0
  9
$PLINEWID
 40
0.0
  9
$SPLFRAME
 70
     0
  9
$SPLINETYPE
 70
     6
  9
$SPLINESEGS
 70
     8
  9
$HANDSEED
  5
25B6
  9
$SURFTAB1
 70
     6
  9
$SURFTAB2
 70
     6
  9
$SURFTYPE
 70
     6
  9
$SURFU
 70
     6
  9
$SURFV
 70
     6
  9
$UCSBASE
  2

  9
$UCSNAME
  2

  9
$UCSORG
 10
0.0
 20
0.0
 30
0.0
  9
$UCSXDIR
 10
1.0
 20
0.0
 30
0.0
  9
$UCSYDIR
 10
0.0
 20
1.0
 30
0.0
  9
$UCSORTHOREF
  2

  9
$UCSORTHOVIEW
 70
     0
  9
$UCSORGTOP
 10
0.0
 20
0.0
 30
0.0
  9
$UCSORGBOTTOM
 10
0.0
 20
0.0
 30
0.0
  9
$UCSORGLEFT
 10
0.0
 20
0.0
 30
0.0
  9
$UCSORGRIGHT
 10
0.0
 20
0.0
 30
0.0
  9
$UCSORGFRONT
 10
0.0
 20
0.0
 30
0.0
  9
$UCSORGBACK
 10
0.0
 20
0.0
 30
0.0
  9
$PUCSBASE
  2

  9
$PUCSNAME
  2

  9
$PUCSORG
 10
0.0
 20
0.0
 30
0.0
  9
$PUCSXDIR
 10
1.0
 20
0.0
 30
0.0
  9
$PUCSYDIR
 10
0.0
 20
1.0
 30
0.0
  9
$PUCSORTHOREF
  2

  9
$PUCSORTHOVIEW
 70
     0
  9
$PUCSORGTOP
 10
0.0
 20
0.0
 30
0.0
  9
$PUCSORGBOTTOM
 10
0.0
 20
0.0
 30
0.0
  9
$PUCSORGLEFT
 10
0.0
 20
0.0
 30
0.0
  9
$PUCSORGRIGHT
 10
0.0
 20
0.0
 30
0.0
  9
$PUCSORGFRONT
 10
0.0
 20
0.0
 30
0.0
  9
$PUCSORGBACK
 10
0.0
 20
0.0
 30
0.0
  9
$USERI1
 70
     0
  9
$USERI2
 70
     0
  9
$USERI3
 70
     0
  9
$USERI4
 70
     0
  9
$USERI5
 70
     0
  9
$USERR1
 40
20.0
  9
$USERR2
 40
0.0
  9
$USERR3
 40
0.0
  9
$USERR4
 40
0.0
  9
$USERR5
 40
0.0
  9
$WORLDVIEW
 70
     1
  9
$SHADEDGE
 70
     3
  9
$SHADEDIF
 70
    70
  9
$TILEMODE
 70
     1
  9
$MAXACTVP
 70
    64
  9
$PINSBASE
 10
0.0
 20
0.0
 30
0.0
  9
$PLIMCHECK
 70
     0
  9
$PEXTMIN
 10
1.000000000000000E+20
 20
1.000000000000000E+20
 30
1.000000000000000E+20
  9
$PEXTMAX
 10
-1.000000000000000E+20
 20
-1.000000000000000E+20
 30
-1.000000000000000E+20
  9
$PLIMMIN
 10
0.0
 20
0.0
  9
$PLIMMAX
 10
12.0
 20
9.0
  9
$UNITMODE
 70
     0
  9
$VISRETAIN
 70
     1
  9
$PLINEGEN
 70
     0
  9
$PSLTSCALE
 70
     1
  9
$TREEDEPTH
 70
  3020
  9
$CMLSTYLE
  2
STANDARD
  9
$CMLJUST
 70
     0
  9
$CMLSCALE
 40
1.0
  9
$PROXYGRAPHICS
 70
     1
  9
$MEASUREMENT
 70
     0
  9
$CELWEIGHT
370
    -1
  9
$ENDCAPS
280
     0
  9
$JOINSTYLE
280
     0
  9
$LWDISPLAY
290
     0
  9
$INSUNITS
 70
     0
  9
$HYPERLINKBASE
  1

  9
$STYLESHEET
  1

  9
$XEDIT
290
     1
  9
$CEPSNTYPE
380
     0
  9
$PSTYLEMODE
290
     1
  9
$FINGERPRINTGUID
  2
{68F3F60F-982D-43C0-B084-568AB2094408}
  9
$VERSIONGUID
  2
{368C7D1F-EFD4-4EC8-9878-1F8FF0D067AB}
  9
$EXTNAMES
290
     1
  9
$PSVPSCALE
 40
0.0
  9
$OLESTARTUP
290
     0
  9
$SORTENTS
280
   127
  9
$INDEXCTL
280
     1
  9
$HIDETEXT
280
     0
  9
$XCLIPFRAME
290
     0
  9
$HALOGAP
280
     0
  9
$OBSCOLOR
 70
   257
  9
$OBSLTYPE
280
     0
  9
$INTERSECTIONDISPLAY
280
     0
  9
$INTERSECTIONCOLOR
 70
   257
  9
$DIMASSOC
280
     1
  9
$PROJECTNAME
  1

  0
ENDSEC
  0
SECTION
  2
CLASSES
  0
CLASS
  1
ACDBDICTIONARYWDFLT
  2
AcDbDictionaryWithDefault
  3
ObjectDBX Classes
 90
        0
 91
        1
280
     0
281
     0
  0
CLASS
  1
DICTIONARYVAR
  2
AcDbDictionaryVar
  3
ObjectDBX Classes
 90
        0
 91
        7
280
     0
281
     0
  0
CLASS
  1
TABLESTYLE
  2
AcDbTableStyle
  3
ObjectDBX Classes
 90
     4095
 91
        1
280
     0
281
     0
  0
CLASS
  1
ACME_DOCUMENT
  2
AcMeDbDoc
  3
AcMeServices
 90
     1024
 91
        1
280
     0
281
     0
  0
CLASS
  1
AMGSETTINGSOBJ
  2
AmgSettingsObj
  3
"AcadM|Product Description: AutoCAD Mechanical|Company: Autodesk, Inc."
 90
     1024
 91
        2
280
     0
281
     0
  0
CLASS
  1
ACMESCOPE
  2
AcMeScope
  3
AcMeServices
 90
     1024
 91
        1
280
     0
281
     0
  0
CLASS
  1
ACMECOMMANDHISTORY
  2
AcMeCommandHistory
  3
AcMeServices
 90
     1024
 91
        1
280
     0
281
     0
  0
CLASS
  1
ACIMSYSVARMAN
  2
AcImSysVarManager
  3
AcMeServices
 90
     1024
 91
        6
280
     0
281
     0
  0
CLASS
  1
ACIMREALSYSVAR
  2
AcImRealSysVar
  3
AcMeServices
 90
     1024
 91
       16
280
     0
281
     0
  0
CLASS
  1
ACIMINTSYSVAR
  2
AcImIntSysVar
  3
AcMeServices
 90
     1024
 91
       45
280
     0
281
     0
  0
CLASS
  1
ACMEDRAWINGMAN
  2
AcMeDrawingMan
  3
AcMeServices
 90
     1024
 91
        1
280
     0
281
     0
  0
CLASS
  1
ACMEVIEW
  2
AcMeView
  3
AcMeServices
 90
     1024
 91
        1
280
     0
281
     0
  0
CLASS
  1
ACDBENTITYCACHE
  2
AcMeEntityCache
  3
AcMeServices
 90
     1024
 91
        1
280
     0
281
     0
  0
CLASS
  1
GSMANAGER
  2
AcMeGSManager
  3
AcMeServices
 90
     1024
 91
        1
280
     0
281
     0
  0
CLASS
  1
AMDTINTERNALREACTOR
  2
AmdtInternalReactor
  3
AcMeServices
 90
     1024
 91
        2
280
     0
281
     0
  0
CLASS
  1
ACMESTATEMGR
  2
AcMeStateMgr
  3
AcMeServices
 90
     1024
 91
        1
280
     0
281
     0
  0
CLASS
  1
ACGREFMASTER
  2
AcGrefMaster
  3
AcAttribServices
 90
     1024
 91
        1
280
     0
281
     0
  0
CLASS
  1
AM_DRAWING_MGR
  2
AcDmDwgMgr
  3
AcMechDwgViewMgmt
 90
     1024
 91
        1
280
     0
281
     0
  0
CLASS
  1
AM_DWG_DOCUMENT
  2
AcDmDwgDocument
  3
AcMechDwgViewMgmt
 90
     1024
 91
        1
280
     0
281
     0
  0
CLASS
  1
AM_DWG_SHEET
  2
AcDmSheet
  3
AcMechDwgViewMgmt
 90
     1024
 91
        1
280
     0
281
     0
  0
CLASS
  1
AM_VIEWDIMPARMAP
  2
AcDmViewDimParMap
  3
AcMechDwgViewMgmt
 90
     1024
 91
        1
280
     0
281
     0
  0
CLASS
  1
AM_DWGMGR_NAME
  2
AcDmDwgMgrName
  3
AcMechDwgViewMgmt
 90
     1024
 91
        1
280
     0
281
     0
  0
CLASS
  1
ACME_DATABASE
  2
AcMeDbDatabase
  3
AcMeServices
 90
     1024
 91
        2
280
     0
281
     0
  0
CLASS
  1
ACRFINSADJUSTERMGR
  2
AcRfInsAdjusterMgr
  3
AcMeServices
 90
     1024
 91
        1
280
     0
281
     0
  0
CLASS
  1
ACGREFACADMASTER
  2
AcGrefacadMaster
  3
AcGrefServices
 90
     1024
 91
        1
280
     0
281
     0
  0
CLASS
  1
AMDTMENUSTATEMGR
  2
AmdtMenuStateMgr
  3
McadcomServices
 90
     1024
 91
        1
280
     0
281
     0
  0
CLASS
  1
AMDTMCOMMENUSTATE
  2
AmdtMcomMenuState
  3
McadcomServices
 90
     1024
 91
        1
280
     0
281
     0
  0
CLASS
  1
AMIMASTER
  2
AmiMaster
  3
AmiServices
 90
     1024
 91
        1
280
     0
281
     0
  0
CLASS
  1
ASAPP
  2
AcAsAppObject
  3
AutoSurfServices
 90
     1024
 91
        1
280
     0
281
     0
  0
CLASS
  1
IM_STATIC_MAN
  2
AcImStaticVarManager
  3
AcMeServices
 90
     1024
 91
        1
280
     0
281
     0
  0
CLASS
  1
ACIMSTRSYSVAR
  2
AcImStrSysVar
  3
AcMeServices
 90
     1024
 91
       11
280
     0
281
     0
  0
CLASS
  1
ACIMDBLSTATICVAR
  2
AcImDblStaticVar
  3
AcMeServices
 90
     1024
 91
       20
280
     0
281
     0
  0
CLASS
  1
ACIMSTRSTATICVAR
  2
AcImStrStaticVar
  3
AcMeServices
 90
     1024
 91
       12
280
     0
281
     0
  0
CLASS
  1
ACIMINTSTATICVAR
  2
AcImIntStaticVar
  3
AcMeServices
 90
     1024
 91
       17
280
     0
281
     0
  0
CLASS
  1
ACASGREFMASTER
  2
AcAsGrefMaster
  3
AutoSurfResolverServices
 90
     1024
 91
        1
280
     0
281
     0
  0
CLASS
  1
ACADGREFMODULE
  2
AcAdGrefModule
  3
AdGrefServices
 90
     1024
 91
        1
280
     0
281
     0
  0
CLASS
  1
AMDTMAPISURFMOUDULE
  2
AmdtMApiSurfModule
  3
MApiSurfServices
 90
     1024
 91
        1
280
     0
281
     0
  0
CLASS
  1
MAPIAMMOUDLE
  2
MApiAmModule
  3
MApiAmServices
 90
     1024
 91
        1
280
     0
281
     0
  0
CLASS
  1
AMDTADMENUSTATE
  2
AmdtAdMenuState
  3
DesignerServices
 90
     1024
 91
        1
280
     0
281
     0
  0
CLASS
  1
ADAPPL
  2
AcAdAppl
  3
DesignerServices
 90
     1024
 91
        1
280
     0
281
     0
  0
CLASS
  1
DEPMGR
  2
AcAdDepMgr
  3
DesignerServices
 90
     1024
 91
        1
280
     0
281
     0
  0
CLASS
  1
PARAMMGR
  2
AcAdParamMgr
  3
DesignerServices
 90
     1024
 91
        1
280
     0
281
     0
  0
CLASS
  1
PARAMSCOPE
  2
AcAdParamScope
  3
DesignerServices
 90
     1024
 91
        1
280
     0
281
     0
  0
CLASS
  1
NAMEDAPPL
  2
AcAdNamedAppl
  3
DesignerServices
 90
     1024
 91
        1
280
     0
281
     0
  0
CLASS
  1
AMDTDMMENUSTATE
  2
AmdtDmMenuState
  3
AcMechDwgViewMgmt
 90
     1024
 91
        1
280
     0
281
     0
  0
CLASS
  1
MAPIADMODULE
  2
MApiAdModule
  3
MApiAdServices
 90
     1024
 91
        1
280
     0
281
     0
  0
CLASS
  1
AMDTAMMENUSTATE
  2
AmdtAmMenuState
  3
DesignerAssemblies
 90
     1024
 91
        1
280
     0
281
     0
  0
CLASS
  1
ACAMPROJECT
  2
AcAmProject
  3
DesignerAssemblies
 90
     1024
 91
        1
280
     0
281
     0
  0
CLASS
  1
ACAMGRCOMPDEF
  2
AcAmGrCompDef
  3
DesignerAssemblies
 90
     1024
 91
        1
280
     0
281
     0
  0
CLASS
  1
ACCMCONTEXT
  2
AcCmContext
  3
DesignerAssemblies
 90
     1024
 91
        1
280
     0
281
     0
  0
CLASS
  1
ACAMCOMPDEF
  2
AcAmCompDef
  3
DesignerAssemblies
 90
     1024
 91
        1
280
     0
281
     0
  0
CLASS
  1
ACAMCOMPDEFMGR
  2
AcAmCompDefMgr
  3
DesignerAssemblies
 90
     1024
 91
        1
280
     0
281
     0
  0
CLASS
  1
AMCONTEXTMGR
  2
AcAmContextMgr
  3
DesignerAssemblies
 90
     1024
 91
        1
280
     0
281
     0
  0
CLASS
  1
ACAMCONTEXTMODELER
  2
AcAmContextModeler
  3
DesignerAssemblies
 90
     1024
 91
        1
280
     0
281
     0
  0
CLASS
  1
ACMDATADICTIONARY
  2
AcmDataDictionary
  3
"AcmSymBB|Product Description: AutoCAD Mechanical|Company: Autodesk, Inc."
 90
     1024
 91
        1
280
     0
281
     0
  0
CLASS
  1
ACMDATAENTRYBLOCK
  2
AcmDataEntryBlock
  3
AcmSymBB|Product Description: AutoCAD Mechanical|Company: Autodesk, Inc.
 90
     1024
 91
        2
280
     0
281
     0
  0
CLASS
  1
CATALOGSTATE
  2
AcAmCatalogState
  3
DesignerAssemblies
 90
     1024
 91
        1
280
     0
281
     0
  0
CLASS
  1
ACAMGRCOMPDEFSET
  2
AcAmGrCompDefSet
  3
DesignerAssemblies
 90
     1024
 91
        1
280
     0
281
     0
  0
CLASS
  1
AMDTBROWSERDBTAB
  2
AmdtBrowserDbTab
  3
McadcomServices
 90
     1024
 91
        1
280
     0
281
     0
  0
CLASS
  1
CBROWSERAPPOBJECT
  2
CBrowserAppObject
  3
McadcomServices
 90
     1024
 91
        3
280
     0
281
     0
  0
CLASS
  1
DM_PLACEHOLDER
  2
AcDmSelsetPlaceholder
  3
AcMechDwgViewMgmt
 90
     1024
 91
        1
280
     0
281
     0
  0
CLASS
  1
ACMSTANDARDANSI
  2
AcmStandardANSI
  3
"Amdt_StdImp|Product Description: AutoCAD Mechanical|Company: Autodesk, Inc."
 90
     1024
 91
        1
280
     0
281
     0
  0
CLASS
  1
AMGOBJPROPCFG
  2
AmgObjPropCfg
  3
"AmgLay|Product Description: AutoCAD Mechanical|Company: Autodesk, Inc."
 90
     1025
 91
        1
280
     0
281
     0
  0
CLASS
  1
ACMSURFSTANDARDANSI
  2
AcmSurfTextStdANSI
  3
"Amdt_StdImp|Product Description: AutoCAD Mechanical|Company: Autodesk, Inc."
 90
     1024
 91
        1
280
     0
281
     0
  0
CLASS
  1
ACMFCFSTANDARDANSI
  2
AcmFCFStdANSI
  3
"Amdt_StdImp|Product Description: AutoCAD Mechanical|Company: Autodesk, Inc."
 90
     1024
 91
        1
280
     0
281
     0
  0
CLASS
  1
ACMWELDSTANDARDANSI
  2
AcmWeldingStdANSI
  3
"Amdt_StdImp|Product Description: AutoCAD Mechanical|Company: Autodesk, Inc."
 90
     1024
 91
        1
280
     0
281
     0
  0
CLASS
  1
ACMIDSTANDARDANSI
  2
AcmIdStdANSI
  3
"Amdt_StdImp|Product Description: AutoCAD Mechanical|Company: Autodesk, Inc."
 90
     1024
 91
        1
280
     0
281
     0
  0
CLASS
  1
ACMDATUMSTANDARDANSI
  2
AcmDatumStdANSI
  3
"Amdt_StdImp|Product Description: AutoCAD Mechanical|Company: Autodesk, Inc."
 90
     1024
 91
        1
280
     0
281
     0
  0
CLASS
  1
ACMBOMSTANDARDANSI
  2
AcmBOMStdANSI
  3
"Amdt_StdImp|Product Description: AutoCAD Mechanical|Company: Autodesk, Inc."
 90
     1024
 91
        1
280
     0
281
     0
  0
CLASS
  1
ACMDETAILSTANDARDANSI
  2
AmdtDetailSymStdANSI
  3
"Amdt_StdImp|Product Description: AutoCAD Mechanical|Company: Autodesk, Inc."
 90
     1024
 91
        1
280
     0
281
     0
  0
CLASS
  1
ACMSECTIONSTANDARDANSI
  2
AmdtSectionSymStdANSI
  3
"Amdt_StdImp|Product Description: AutoCAD Mechanical|Company: Autodesk, Inc."
 90
     1024
 91
        1
280
     0
281
     0
  0
CLASS
  1
ACMCENTERLINESTANDARDANSI
  2
AmdtCenterLineStdANSI
  3
"Amdt_StdImp|Product Description: AutoCAD Mechanical|Company: Autodesk, Inc."
 90
     1024
 91
        1
280
     0
281
     0
  0
CLASS
  1
ACMTHREADLINESTANDARDANSI
  2
AmdtThreadLineStdANSI
  3
"Amdt_StdImp|Product Description: AutoCAD Mechanical|Company: Autodesk, Inc."
 90
     1024
 91
        1
280
     0
281
     0
  0
CLASS
  1
ACMNOTESTANDARDANSI
  2
AmdtNoteStdANSI
  3
"Amdt_StdImp|Product Description: AutoCAD Mechanical|Company: Autodesk, Inc."
 90
     1024
 91
        1
280
     0
281
     0
  0
CLASS
  1
AMDTNOTETEMPLATEDB
  2
AmdtNoteTemplateDB
  3
AcmSymBB|Product Description: AutoCAD Mechanical|Company: Autodesk, Inc.
 90
     1024
 91
        6
280
     0
281
     0
  0
CLASS
  1
ACAMGLAYSTD
  2
AcAmgLayStd
  3
"AmgLay|Product Description: AutoCAD Mechanical|Company: Autodesk, Inc."
 90
     1024
 91
        1
280
     0
281
     0
  0
CLASS
  1
ACAMGDIMSTD
  2
AcAmgDimStd
  3
"AmgDim|Product Description: AutoCAD Mechanical|Company: Autodesk, Inc."
 90
     1024
 91
        1
280
     0
281
     0
  0
CLASS
  1
ACAMGHOLECHARTSTDANSI
  2
AcAmgHoleChartStdANSI
  3
AmgDim|Product Description: AutoCAD Mechanical|Company: Autodesk, Inc.
 90
     1024
 91
        1
280
     0
281
     0
  0
CLASS
  1
ACAMGTITLESTD
  2
AcAmgTitleStd
  3
"AmgTitle|Product Description: AutoCAD Mechanical|Company: Autodesk, Inc."
 90
     4095
 91
        1
280
     0
281
     0
  0
CLASS
  1
ACAMGFILTERDAT
  2
AcAmgFilterDat
  3
"AcadM|Product Description: AutoCAD Mechanical|Company: Autodesk, Inc."
 90
     1024
 91
        6
280
     0
281
     0
  0
CLASS
  1
LAYER_INDEX
  2
AcDbLayerIndex
  3
ObjectDBX Classes
 90
        0
 91
        1
280
     0
281
     0
  0
CLASS
  1
IDBUFFER
  2
AcDbIdBuffer
  3
ObjectDBX Classes
 90
        0
 91
       12
280
     0
281
     0
  0
CLASS
  1
SORTENTSTABLE
  2
AcDbSortentsTable
  3
ObjectDBX Classes
 90
        0
 91
        2
280
     0
281
     0
  0
CLASS
  1
MATERIAL
  2
AcDbMaterial
  3
ObjectDBX Classes
 90
     1153
 91
        3
280
     0
281
     0
  0
CLASS
  1
VISUALSTYLE
  2
AcDbVisualStyle
  3
ObjectDBX Classes
 90
     4095
 91
       16
280
     0
281
     0
  0
CLASS
  1
SCALE
  2
AcDbScale
  3
ObjectDBX Classes
 90
     1153
 91
       33
280
     0
281
     0
  0
CLASS
  1
MLEADERSTYLE
  2
AcDbMLeaderStyle
  3
ACDB_MLEADERSTYLE_CLASS
 90
     4095
 91
        1
280
     0
281
     0
  0
CLASS
  1
CELLSTYLEMAP
  2
AcDbCellStyleMap
  3
ObjectDBX Classes
 90
     1152
 91
        2
280
     0
281
     0
  0
CLASS
  1
ACRFATTGENMGR
  2
AcRfAttGeneralMgr
  3
AcAttribServices
 90
     1024
 91
        1
280
     0
281
     0
  0
CLASS
  1
ACRFOBJATTMGR
  2
AcRfObjAttGroupMgr
  3
AcAttribServices
 90
     1024
 91
        1
280
     0
281
     0
  0
CLASS
  1
ACRFMCADAPIATTHOLDER
  2
AcRfMCADAPIAttHolder
  3
AcAttribServices
 90
     1024
 91
        1
280
     0
281
     0
  0
CLASS
  1
AMDTSYSATTR
  2
AmdtSystemAttribute
  3
AcAttribServices
 90
     1024
 91
        1
280
     0
281
     0
  0
CLASS
  1
ACMTAPERSTANDARDANSI
  2
AcmTaperStdANSI
  3
"Amdt_StdImp|Product Description: AutoCAD Mechanical|Company: Autodesk, Inc."
 90
     1024
 91
        1
280
     0
281
     0
  0
CLASS
  1
ACMANOOTATIONVIEWSTANDARDANSI
  2
AmdtAnViewStdANSI
  3
"Amdt_StdImp|Product Description: AutoCAD Mechanical|Company: Autodesk, Inc."
 90
     1024
 91
        1
280
     0
281
     0
  0
ENDSEC
  0
SECTION
  2
TABLES
  0
TABLE
  2
VPORT
  5
849
330
0
100
AcDbSymbolTable
 70
     1
  0
VPORT
  5
139A
330
849
100
AcDbSymbolTableRecord
100
AcDbViewportTableRecord
  2
*Active
 70
     0
 10
0.0
 20
0.0
 11
1.0
 21
1.0
 12
173.3799236981327
 22
-2044.312135217932
 13
0.0
 23
0.0
 14
1.0
 24
1.0
 15
0.0
 25
0.0
 16
0.0
 26
0.0
 36
1.0
 17
69.52780525853762
 27
-19.12627293268272
 37
0.0
 40
1154.09683824077
 41
1.184187662901824
 42
50.0
 43
0.0
 44
0.0
 50
0.0
 51
0.0
 71
     0
 72
   100
 73
     1
 74
     0
 75
     0
 76
     0
 77
     0
 78
     0
281
     0
 65
     0
110
0.0
120
0.0
130
0.0
111
1.0
121
0.0
131
0.0
112
0.0
122
1.0
132
0.0
 79
     0
146
0.0
  0
ENDTAB
  0
TABLE
  2
LTYPE
  5
846
330
0
100
AcDbSymbolTable
 70
    19
  0
LTYPE
  5
854
330
846
100
AcDbSymbolTableRecord
100
AcDbLinetypeTableRecord
  2
BYBLOCK
 70
     0
  3

 72
    65
 73
     0
 40
0.0
  0
LTYPE
  5
855
330
846
100
AcDbSymbolTableRecord
100
AcDbLinetypeTableRecord
  2
BYLAYER
 70
     0
  3

 72
    65
 73
     0
 40
0.0
  0
LTYPE
  5
856
330
846
100
AcDbSymbolTableRecord
100
AcDbLinetypeTableRecord
  2
CONTINUOUS
 70
     0
  3
実線
 72
    65
 73
     0
 40
0.0
  0
LTYPE
  5
865
330
846
100
AcDbSymbolTableRecord
100
AcDbLinetypeTableRecord
  2
DASHDOT
 70
     0
  3
____ _ ____ _ ____ _ ____ _ ____ _ ____ _ ____
 72
    65
 73
     4
 40
5.5
 49
4.0
 74
     0
 49
-0.6
 74
     0
 49
0.3
 74
     0
 49
-0.6
 74
     0
  0
LTYPE
  5
11AA
330
846
100
AcDbSymbolTableRecord
100
AcDbLinetypeTableRecord
  2
HIDDEN
 70
     0
  3
Hidden __ __ __ __ __ __ __ __ __ __ __ __ __ _
 72
    65
 73
     2
 40
0.375
 49
0.25
 74
     0
 49
-0.125
 74
     0
  0
LTYPE
  5
11AB
330
846
100
AcDbSymbolTableRecord
100
AcDbLinetypeTableRecord
  2
PHANTOM2
 70
     0
  3
Phantom (.5x) ___ _ _ ___ _ _ ___ _ _ ___ _ _
 72
    65
 73
     6
 40
1.25
 49
0.625
 74
     0
 49
-0.125
 74
     0
 49
0.125
 74
     0
 49
-0.125
 74
     0
 49
0.125
 74
     0
 49
-0.125
 74
     0
  0
LTYPE
  5
11AC
330
846
100
AcDbSymbolTableRecord
100
AcDbLinetypeTableRecord
  2
CENTER
 70
     0
  3
Center ____ _ ____ _ ____ _ ____ _ ____ _ ____
 72
    65
 73
     4
 40
2.0
 49
1.25
 74
     0
 49
-0.25
 74
     0
 49
0.25
 74
     0
 49
-0.25
 74
     0
  0
LTYPE
  5
11FB
330
846
100
AcDbSymbolTableRecord
100
AcDbLinetypeTableRecord
  2
ASULTYPE
 70
     0
  3
実線
 72
    65
 73
     2
 40
3.0
 49
2.5
 74
     0
 49
0.5
 74
     0
  0
LTYPE
  5
11FC
330
846
100
AcDbSymbolTableRecord
100
AcDbLinetypeTableRecord
  2
ASVLTYPE
 70
     0
  3
__ __ __ __ __ __ __ __ __ __ __ __ __ __ __ __ __ __ __ __ __
 72
    65
 73
     2
 40
0.75
 49
0.5
 74
     0
 49
-0.25
 74
     0
  0
LTYPE
  5
1243
330
846
100
AcDbSymbolTableRecord
100
AcDbLinetypeTableRecord
  2
AM_ISO02W050
 70
     0
  3
__ __ __ __ __ __ __ __ __ __ __ __ __ __ __
 72
    65
 73
     2
 40
7.5
 49
6.0
 74
     0
 49
-1.5
 74
     0
  0
LTYPE
  5
1244
330
846
100
AcDbSymbolTableRecord
100
AcDbLinetypeTableRecord
  2
AM_ISO08W050
 70
     0
  3
____ . ____ . ____ . ____ . ____ . ____ . ____
 72
    65
 73
     4
 40
18.0
 49
12.0
 74
     0
 49
-1.5
 74
     0
 49
3.0
 74
     0
 49
-1.5
 74
     0
  0
LTYPE
  5
1245
330
846
100
AcDbSymbolTableRecord
100
AcDbLinetypeTableRecord
  2
AM_ISO09W050
 70
     0
  3
_____ . . _____ . . _____ . . ____ .. ____
 72
    65
 73
     6
 40
22.5
 49
12.0
 74
     0
 49
-1.5
 74
     0
 49
3.0
 74
     0
 49
-1.5
 74
     0
 49
3.0
 74
     0
 49
-1.5
 74
     0
  0
LTYPE
  5
1246
330
846
100
AcDbSymbolTableRecord
100
AcDbLinetypeTableRecord
  2
Amconstr
 70
     0
  3
_______________________
 72
    65
 73
     2
 40
9999.0
 49
9999.0
 74
     0
 49
0.0
 74
     0
  0
LTYPE
  5
1247
330
846
100
AcDbSymbolTableRecord
100
AcDbLinetypeTableRecord
  2
AM_ISO08W050x2
 70
     0
  3
__ . __ . __ . __ . __ . __
 72
    65
 73
     4
 40
9.0
 49
6.0
 74
     0
 49
-0.75
 74
     0
 49
1.5
 74
     0
 49
-0.75
 74
     0
  0
LTYPE
  5
1248
330
846
100
AcDbSymbolTableRecord
100
AcDbLinetypeTableRecord
  2
AM_ISO02W050x2
 70
     0
  3
 _ _ _ _ _ _ _ _ _ _ _ _
 72
    65
 73
     2
 40
3.75
 49
3.0
 74
     0
 49
-0.75
 74
     0
  0
LTYPE
  5
124B
330
846
100
AcDbSymbolTableRecord
100
AcDbLinetypeTableRecord
  2
Amzigzag
 70
     0
  3
/\/-/\/-/\/-/\/-/\/-/\/
 72
    65
 73
     2
 40
11.0001
 49
0.0001
 74
     4
 75
   136
340
124A
 46
0.04
 50
0.0
 44
0.0
 45
0.0
 49
-11.0
 74
     0
  0
LTYPE
  5
124C
330
846
100
AcDbSymbolTableRecord
100
AcDbLinetypeTableRecord
  2
CENTER2
 70
     0
  3
Center (.5x) ___ _ ___ _ ___ _ ___ _ ___ _ ___
 72
    65
 73
     4
 40
1.125
 49
0.75
 74
     0
 49
-0.125
 74
     0
 49
0.125
 74
     0
 49
-0.125
 74
     0
  0
LTYPE
  5
124D
330
846
100
AcDbSymbolTableRecord
100
AcDbLinetypeTableRecord
  2
HIDDEN2
 70
     0
  3
Hidden (.5x) _ _ _ _ _ _ _ _ _ _ _ _ _ _ _ _ _
 72
    65
 73
     2
 40
0.1875
 49
0.125
 74
     0
 49
-0.0625
 74
     0
  0
LTYPE
  5
124E
330
846
100
AcDbSymbolTableRecord
100
AcDbLinetypeTableRecord
  2
Amzigzag2
 70
     0
  3
/\/-/\/-/\/-/\/-/\/-/\/
 72
    65
 73
     2
 40
0.4401
 49
0.0001
 74
     4
 75
   136
340
124A
 46
0.0016
 50
0.0
 44
0.0
 45
0.0
 49
-0.4400000000000003
 74
     0
  0
LTYPE
  5
125C
330
846
100
AcDbSymbolTableRecord
100
AcDbLinetypeTableRecord
  2
ACANSTGB
 70
     0
  3
__ . . __ . .
 72
    65
 73
     6
 40
0.35433070866
 49
0.15748031496
 74
     0
 49
-0.03937007874
 74
     0
 49
0.03937007874
 74
     0
 49
-0.03937007874
 74
     0
 49
0.03937007874
 74
     0
 49
-0.03937007874
 74
     0
  0
LTYPE
  5
125D
330
846
100
AcDbSymbolTableRecord
100
AcDbLinetypeTableRecord
  2
ACANSTGL
 70
     0
  3
_ _ _ _ _
 72
    65
 73
     2
 40
0.11811023622
 49
0.07874015748
 74
     0
 49
-0.03937007874
 74
     0
  0
ENDTAB
  0
TABLE
  2
LAYER
  5
843
102
{ACAD_XDICTIONARY
360
15AB
102
}
330
0
100
AcDbSymbolTable
 70
    12
  0
LAYER
  5
851
102
{ACAD_XDICTIONARY
360
142F
102
}
330
843
100
AcDbSymbolTableRecord
100
AcDbLayerTableRecord
  2
0
 70
     0
 62
     7
  6
CONTINUOUS
370
    -3
390
B83
  0
LAYER
  5
863
102
{ACAD_XDICTIONARY
360
1431
102
}
330
843
100
AcDbSymbolTableRecord
100
AcDbLayerTableRecord
  2
OUTLINE
 70
     0
 62
     3
  6
CONTINUOUS
370
    -3
390
B83
  0
LAYER
  5
866
102
{ACAD_XDICTIONARY
360
1433
102
}
330
843
100
AcDbSymbolTableRecord
100
AcDbLayerTableRecord
  2
SIZE
 70
     0
 62
    30
  6
CONTINUOUS
370
    -3
390
B83
  0
LAYER
  5
867
102
{ACAD_XDICTIONARY
360
1435
102
}
330
843
100
AcDbSymbolTableRecord
100
AcDbLayerTableRecord
  2
BASIS
 70
     0
 62
     6
  6
DASHDOT
370
    -3
390
B83
  0
LAYER
  5
868
102
{ACAD_XDICTIONARY
360
1437
102
}
330
843
100
AcDbSymbolTableRecord
100
AcDbLayerTableRecord
  2
DETAIL
 70
     0
 62
     5
  6
CONTINUOUS
370
    -3
390
B83
  0
LAYER
  5
869
102
{ACAD_XDICTIONARY
360
1439
102
}
330
843
100
AcDbSymbolTableRecord
100
AcDbLayerTableRecord
  2
ARRANGE
 70
     0
 62
     1
  6
CONTINUOUS
370
    -3
390
B83
  0
LAYER
  5
86A
330
843
100
AcDbSymbolTableRecord
100
AcDbLayerTableRecord
  2
DEFPOINTS
 70
     0
 62
     7
  6
CONTINUOUS
290
     0
370
    -3
390
B83
  0
LAYER
  5
86B
102
{ACAD_XDICTIONARY
360
143B
102
}
330
843
100
AcDbSymbolTableRecord
100
AcDbLayerTableRecord
  2
ETC
 70
     0
 62
    61
  6
CONTINUOUS
370
    -3
390
B83
  0
LAYER
  5
86C
102
{ACAD_XDICTIONARY
360
143D
102
}
330
843
100
AcDbSymbolTableRecord
100
AcDbLayerTableRecord
  2
FIX
 70
     0
 62
    11
  6
CONTINUOUS
370
    -3
390
B83
  0
LAYER
  5
86D
102
{ACAD_XDICTIONARY
360
143F
102
}
330
843
100
AcDbSymbolTableRecord
100
AcDbLayerTableRecord
  2
NOTE
 70
     0
 62
     4
  6
CONTINUOUS
370
    -3
390
B83
  0
LAYER
  5
86E
102
{ACAD_XDICTIONARY
360
1441
102
}
330
843
100
AcDbSymbolTableRecord
100
AcDbLayerTableRecord
  2
SERVICESPACE
 70
     0
 62
     2
  6
DASHDOT
370
    -3
390
B83
  0
LAYER
  5
86F
102
{ACAD_XDICTIONARY
360
1443
102
}
330
843
100
AcDbSymbolTableRecord
100
AcDbLayerTableRecord
  2
SYMBOLLINE
 70
     0
 62
    15
  6
CONTINUOUS
370
    -3
390
B83
  0
ENDTAB
  0
TABLE
  2
STYLE
  5
844
330
0
100
AcDbSymbolTable
 70
     5
  0
STYLE
  5
852
330
844
100
AcDbSymbolTableRecord
100
AcDbTextStyleTableRecord
  2
STANDARD
 70
     0
 40
64.0
 41
0.9
 50
0.0
 71
     0
 42
64.0
  3
SIMPLEX.shx
  4
BIGFONT.shx
  0
STYLE
  5
124A
330
844
100
AcDbSymbolTableRecord
100
AcDbTextStyleTableRecord
  2

 70
     1
 40
0.0
 41
1.0
 50
0.0
 71
     0
 42
64.0
  3
genltshp.shx
  4

  0
STYLE
  5
124F
330
844
100
AcDbSymbolTableRecord
100
AcDbTextStyleTableRecord
  2
ACANSTS
 70
     0
 40
1.0
 41
1.0
 50
0.0
 71
     0
 42
64.0
  3
romans.shx
  4
extfont.shx
  0
STYLE
  5
125B
330
844
100
AcDbSymbolTableRecord
100
AcDbTextStyleTableRecord
  2
ACANSGDT
 70
     0
 40
0.0
 41
1.0
 50
0.0
 71
     0
 42
64.0
  3
amgdt.shx
  4

  0
STYLE
  5
15A5
330
844
100
AcDbSymbolTableRecord
100
AcDbTextStyleTableRecord
  2
ADESK1
 70
     0
 40
0.0
 41
1.0
 50
0.0
 71
     0
 42
0.12
  3
romanc.shx
  4
extfont.shx
  0
ENDTAB
  0
TABLE
  2
VIEW
  5
847
330
0
100
AcDbSymbolTable
 70
     1
  0
VIEW
  5
870
330
847
100
AcDbSymbolTableRecord
100
AcDbViewTableRecord
  2
ALL
 70
     0
 40
4282.619807999997
 10
0.0
 20
41.30990399999999
 41
5940.0
 11
0.0
 21
0.0
 31
1.0
 12
0.0
 22
0.0
 32
0.0
 42
50.0
 43
0.0
 44
0.0
 50
0.0
 71
     0
281
     0
 72
     0
  0
ENDTAB
  0
TABLE
  2
UCS
  5
848
330
0
100
AcDbSymbolTable
 70
     0
  0
ENDTAB
  0
TABLE
  2
APPID
  5
84A
330
0
100
AcDbSymbolTable
 70
    23
  0
APPID
  5
853
330
84A
100
AcDbSymbolTableRecord
100
AcDbRegAppTableRecord
  2
ACAD
 70
     0
  0
APPID
  5
1176
330
84A
100
AcDbSymbolTableRecord
100
AcDbRegAppTableRecord
  2
GENIUS_GENDIM_13
 70
     0
  0
APPID
  5
1177
330
84A
100
AcDbSymbolTableRecord
100
AcDbRegAppTableRecord
  2
GENIUS_GENDTOL_13
 70
     0
  0
APPID
  5
1178
330
84A
100
AcDbSymbolTableRecord
100
AcDbRegAppTableRecord
  2
GENIUS_GE3DTOL_13
 70
     0
  0
APPID
  5
117B
330
84A
100
AcDbSymbolTableRecord
100
AcDbRegAppTableRecord
  2
MCAD_NO_VIS
 70
     0
  0
APPID
  5
117C
330
84A
100
AcDbSymbolTableRecord
100
AcDbRegAppTableRecord
  2
ACAD_TEMP_GRAPHIC
 70
     0
  0
APPID
  5
11AE
330
84A
100
AcDbSymbolTableRecord
100
AcDbRegAppTableRecord
  2
AD_DRAW
 70
     0
  0
APPID
  5
11B1
330
84A
100
AcDbSymbolTableRecord
100
AcDbRegAppTableRecord
  2
ACATTRIBSERVICES
 70
     0
  0
APPID
  5
11FD
330
84A
100
AcDbSymbolTableRecord
100
AcDbRegAppTableRecord
  2
ASURF_PCURVE_APPNAME
 70
     0
  0
APPID
  5
1202
330
84A
100
AcDbSymbolTableRecord
100
AcDbRegAppTableRecord
  2
AMG_3D2D_5.0
 70
     0
  0
APPID
  5
1233
330
84A
100
AcDbSymbolTableRecord
100
AcDbRegAppTableRecord
  2
DESIGNERASSEMBLIES
 70
     0
  0
APPID
  5
123A
330
84A
100
AcDbSymbolTableRecord
100
AcDbRegAppTableRecord
  2
ACADM_DIM_EDIT
 70
     0
  0
APPID
  5
123B
330
84A
100
AcDbSymbolTableRecord
100
AcDbRegAppTableRecord
  2
AMDT_DM_ADJ
 70
     0
  0
APPID
  5
126A
330
84A
100
AcDbSymbolTableRecord
100
AcDbRegAppTableRecord
  2
ACAD_DSTYLE_DIMARC_LENGTH_SYMBOL
 70
     0
  0
APPID
  5
126B
330
84A
100
AcDbSymbolTableRecord
100
AcDbRegAppTableRecord
  2
ACAD_DSTYLE_DIMJOGGED_JOGANGLE_SYMBOL
 70
     0
  0
APPID
  5
13EC
330
84A
100
AcDbSymbolTableRecord
100
AcDbRegAppTableRecord
  2
ACAD_MLEADERVER
 70
     0
  0
APPID
  5
1561
330
84A
100
AcDbSymbolTableRecord
100
AcDbRegAppTableRecord
  2
ACAD_EXEMPT_FROM_CAD_STANDARDS
 70
     0
  0
APPID
  5
15A8
330
84A
100
AcDbSymbolTableRecord
100
AcDbRegAppTableRecord
  2
ACAD_PSEXT
 70
     0
  0
APPID
  5
15A9
330
84A
100
AcDbSymbolTableRecord
100
AcDbRegAppTableRecord
  2
ACAD_DSTYLE_DIMJAG
 70
     0
  0
APPID
  5
15AA
330
84A
100
AcDbSymbolTableRecord
100
AcDbRegAppTableRecord
  2
ACAD_DSTYLE_DIMTALN
 70
     0
  0
APPID
  5
1816
330
84A
100
AcDbSymbolTableRecord
100
AcDbRegAppTableRecord
  2
ACAD_DSTYLE_DIM_LINETYPE
 70
     0
  0
APPID
  5
1817
330
84A
100
AcDbSymbolTableRecord
100
AcDbRegAppTableRecord
  2
ACAD_DSTYLE_DIM_EXT1_LINETYPE
 70
     0
  0
APPID
  5
1818
330
84A
100
AcDbSymbolTableRecord
100
AcDbRegAppTableRecord
  2
ACAD_DSTYLE_DIM_EXT2_LINETYPE
 70
     0
  0
ENDTAB
  0
TABLE
  2
DIMSTYLE
  5
84B
330
0
100
AcDbSymbolTable
 70
     9
100
AcDbDimStyleTable
 71
     2
340
1269
340
871
  0
DIMSTYLE
105
871
330
84B
100
AcDbSymbolTableRecord
100
AcDbDimStyleTableRecord
  2
STANDARD
 70
     0
275
     1
284
     8
285
     8
286
     8
340
852
  0
DIMSTYLE
105
1269
330
84B
100
AcDbSymbolTableRecord
100
AcDbDimStyleTableRecord
  2
AM_ANSI
 70
     0
  4
mm
 41
0.12
 42
0.05
 43
0.5
 44
0.1
 47
0.1
 48
0.1
 78
     7
 79
     2
140
0.12
141
0.0
146
0.71
147
0.06
176
   256
177
   256
178
     2
274
     4
284
     7
340
852
371
    -1
372
    -1
1001
ACAD_DSTYLE_DIMJOGGED_JOGANGLE_SYMBOL
1070
   384
1040
0.7853981633974483
1001
ACAD_DSTYLE_DIMARC_LENGTH_SYMBOL
1070
   379
1070
     1
1001
ACAD_DSTYLE_DIM_LINETYPE
1070
   380
1005
854
1001
ACAD_DSTYLE_DIM_EXT1_LINETYPE
1070
   381
1005
854
1001
ACAD_DSTYLE_DIM_EXT2_LINETYPE
1070
   382
1005
854
  0
DIMSTYLE
105
1272
330
84B
100
AcDbSymbolTableRecord
100
AcDbDimStyleTableRecord
  2
AM_ANSI$3
 70
     0
  4
mm
 41
0.12
 42
0.05
 43
0.5
 44
0.1
 47
0.1
 48
0.1
 78
     7
 79
     2
140
0.12
141
0.0
146
0.71
147
0.06
176
   256
177
   256
178
     2
274
     4
284
     7
288
     1
289
     0
340
852
371
    -1
372
    -1
1001
ACAD_DSTYLE_DIMJOGGED_JOGANGLE_SYMBOL
1070
   384
1040
0.7853981633974483
1001
ACAD_DSTYLE_DIMARC_LENGTH_SYMBOL
1070
   379
1070
     1
1001
ACAD_DSTYLE_DIM_LINETYPE
1070
   380
1005
854
1001
ACAD_DSTYLE_DIM_EXT1_LINETYPE
1070
   381
1005
854
1001
ACAD_DSTYLE_DIM_EXT2_LINETYPE
1070
   382
1005
854
  0
DIMSTYLE
105
1275
330
84B
100
AcDbSymbolTableRecord
100
AcDbDimStyleTableRecord
  2
AM_ANSI$4
 70
     0
  4
mm
 41
0.12
 42
0.05
 43
0.5
 44
0.1
 47
0.1
 48
0.1
 78
     7
 79
     2
140
0.12
141
0.0
146
0.71
147
0.06
176
   256
177
   256
178
     2
274
     4
284
     7
340
852
371
    -1
372
    -1
1001
ACAD_DSTYLE_DIMJOGGED_JOGANGLE_SYMBOL
1070
   384
1040
0.7853981633974483
1001
ACAD_DSTYLE_DIMARC_LENGTH_SYMBOL
1070
   379
1070
     1
1001
ACAD_DSTYLE_DIM_LINETYPE
1070
   380
1005
854
1001
ACAD_DSTYLE_DIM_EXT1_LINETYPE
1070
   381
1005
854
1001
ACAD_DSTYLE_DIM_EXT2_LINETYPE
1070
   382
1005
854
  0
DIMSTYLE
105
127A
330
84B
100
AcDbSymbolTableRecord
100
AcDbDimStyleTableRecord
  2
AM_ANSI$7
 70
     0
  4
mm
 41
0.12
 42
0.05
 43
0.5
 44
0.1
 47
0.1
 48
0.1
 78
     7
 79
     2
140
0.12
141
0.0
146
0.71
147
0.06
176
   256
177
   256
178
     2
274
     4
284
     7
340
852
371
    -1
372
    -1
1001
ACAD_DSTYLE_DIMJOGGED_JOGANGLE_SYMBOL
1070
   384
1040
0.7853981633974483
1001
ACAD_DSTYLE_DIMARC_LENGTH_SYMBOL
1070
   379
1070
     1
1001
ACAD_DSTYLE_DIM_LINETYPE
1070
   380
1005
854
1001
ACAD_DSTYLE_DIM_EXT1_LINETYPE
1070
   381
1005
854
1001
ACAD_DSTYLE_DIM_EXT2_LINETYPE
1070
   382
1005
854
  0
DIMSTYLE
105
127D
330
84B
100
AcDbSymbolTableRecord
100
AcDbDimStyleTableRecord
  2
AM_ANSI$SF
 70
     0
  4
mm
 41
0.12
 42
0.05
 43
0.5
 44
0.1
 47
0.1
 48
0.1
 75
     1
 76
     1
 78
     7
 79
     2
140
0.12
141
0.0
146
0.71
147
0.06
176
   256
177
   256
178
     2
274
     4
284
     7
340
852
371
    -1
372
    -1
1001
ACAD_DSTYLE_DIMJOGGED_JOGANGLE_SYMBOL
1070
   384
1040
0.7853981633974483
1001
ACAD_DSTYLE_DIMARC_LENGTH_SYMBOL
1070
   379
1070
     1
1001
ACAD_DSTYLE_DIM_LINETYPE
1070
   380
1005
854
1001
ACAD_DSTYLE_DIM_EXT1_LINETYPE
1070
   381
1005
854
1001
ACAD_DSTYLE_DIM_EXT2_LINETYPE
1070
   382
1005
854
  0
DIMSTYLE
105
1284
330
84B
100
AcDbSymbolTableRecord
100
AcDbDimStyleTableRecord
  2
AM_ANSI$SH
 70
     0
  4
mm
 41
0.12
 42
0.05
 43
0.5
 44
0.1
 47
0.1
 48
0.1
 75
     1
 76
     1
 78
     7
 79
     2
140
0.12
141
0.0
146
0.71
147
0.06
173
     1
176
   256
177
   256
178
     2
274
     4
284
     7
340
852
343
127E
371
    -1
372
    -1
1001
ACAD_DSTYLE_DIMJOGGED_JOGANGLE_SYMBOL
1070
   384
1040
0.7853981633974483
1001
ACAD_DSTYLE_DIMARC_LENGTH_SYMBOL
1070
   379
1070
     1
1001
ACAD_DSTYLE_DIM_LINETYPE
1070
   380
1005
854
1001
ACAD_DSTYLE_DIM_EXT1_LINETYPE
1070
   381
1005
854
1001
ACAD_DSTYLE_DIM_EXT2_LINETYPE
1070
   382
1005
854
  0
DIMSTYLE
105
15A6
330
84B
100
AcDbSymbolTableRecord
100
AcDbDimStyleTableRecord
  2
STANDARD1
 70
     0
 40
6.0
 41
2.5
 42
0.625
 43
6.0
 44
1.25
 47
1.0
 48
0.5
 77
     1
 78
     8
140
2.5
141
0.0
146
0.6
147
1.0
173
     1
284
     1
340
852
341
AB7
343
AB7
344
AB7
  0
DIMSTYLE
105
15A7
102
{ACAD_REACTORS
330
2569
330
256A
330
256B
330
256C
330
256D
102
}
330
84B
100
AcDbSymbolTableRecord
100
AcDbDimStyleTableRecord
  2
STANDARD$0
 70
     0
 41
12.0
 42
20.0
 44
20.0
 73
     0
 74
     0
 77
     1
 78
     9
140
64.0
141
0.0
147
10.0
271
     0
272
     0
275
     1
284
     8
285
     8
286
     8
340
852
341
AB7
342
AB2
1001
ACAD_DSTYLE_DIMJAG
1070
   388
1040
1.5
1001
ACAD_DSTYLE_DIMTALN
1070
   392
1070
     0
  0
ENDTAB
  0
TABLE
  2
BLOCK_RECORD
  5
842
330
0
100
AcDbSymbolTable
 70
    60
  0
BLOCK_RECORD
  5
85F
102
{ACAD_XDICTIONARY
360
B4F
102
}
330
842
100
AcDbSymbolTableRecord
100
AcDbBlockTableRecord
  2
*MODEL_SPACE
340
B84
  0
BLOCK_RECORD
  5
85B
102
{ACAD_XDICTIONARY
360
B4D
102
}
330
842
100
AcDbSymbolTableRecord
100
AcDbBlockTableRecord
  2
*PAPER_SPACE
340
B85
  0
BLOCK_RECORD
  5
87E
330
842
100
AcDbSymbolTableRecord
100
AcDbBlockTableRecord
  2
_ORIGIN
340
0
  0
BLOCK_RECORD
  5
AB2
330
842
100
AcDbSymbolTableRecord
100
AcDbBlockTableRecord
  2
_DOTBLANK
340
0
102
{BLKREFS
331
105B
331
105C
331
1064
331
1065
331
107F
331
1080
331
1088
331
1089
331
13FF
331
1400
331
1429
331
142A
331
146A
331
146B
331
1473
331
1474
331
156E
331
156F
331
157A
331
157B
331
1586
331
1587
331
1592
331
1593
331
159E
331
159F
331
17E0
331
17E1
331
17E9
331
17EA
331
17F2
331
17F3
331
17FB
331
17FC
331
1804
331
1805
331
1934
331
1935
331
1940
331
1941
331
194C
331
194D
331
1904
331
1905
331
1910
331
1911
331
191C
331
191D
331
1928
331
1929
331
1C21
331
1C22
331
1C2A
331
1C2B
331
1C33
331
1C34
331
1C3C
331
1C3D
331
1C45
331
1C46
331
1C4E
331
1C4F
331
1C57
331
1C58
331
1D55
331
1D56
331
1D61
331
1D62
331
1D6D
331
1D6E
331
1D79
331
1D7A
331
1D85
331
1D86
331
1D91
331
1D92
331
1F8E
331
1F8F
331
1F97
331
1F98
331
1FA0
331
1FA1
331
1FA9
331
1FAA
331
1FB2
331
1FB3
331
1FBB
331
1FBC
331
21CF
331
21D0
331
21DB
331
21DC
331
21E7
331
21E8
331
21F3
331
21F4
331
21C3
331
21C4
331
2579
331
257A
331
2585
331
2586
331
2591
331
2592
331
259D
331
259E
331
25A9
331
25AA
102
}
  0
BLOCK_RECORD
  5
AB7
330
842
100
AcDbSymbolTableRecord
100
AcDbBlockTableRecord
  2
_OPEN30
340
0
  0
BLOCK_RECORD
  5
EF9
330
842
100
AcDbSymbolTableRecord
100
AcDbBlockTableRecord
  2
*D3
340
0
  0
BLOCK_RECORD
  5
F05
330
842
100
AcDbSymbolTableRecord
100
AcDbBlockTableRecord
  2
*D4
340
0
  0
BLOCK_RECORD
  5
F11
330
842
100
AcDbSymbolTableRecord
100
AcDbBlockTableRecord
  2
*D5
340
0
  0
BLOCK_RECORD
  5
F1D
330
842
100
AcDbSymbolTableRecord
100
AcDbBlockTableRecord
  2
*D6
340
0
  0
BLOCK_RECORD
  5
1121
330
842
100
AcDbSymbolTableRecord
100
AcDbBlockTableRecord
  2
*D7
340
0
  0
BLOCK_RECORD
  5
113B
330
842
100
AcDbSymbolTableRecord
100
AcDbBlockTableRecord
  2
*D8
340
0
  0
BLOCK_RECORD
  5
127E
330
842
100
AcDbSymbolTableRecord
100
AcDbBlockTableRecord
  2
GENAXEH
340
0
  0
BLOCK_RECORD
  5
13F7
330
842
100
AcDbSymbolTableRecord
100
AcDbBlockTableRecord
  2
*D10
340
0
  0
BLOCK_RECORD
  5
1421
330
842
100
AcDbSymbolTableRecord
100
AcDbBlockTableRecord
  2
*D11
340
0
  0
BLOCK_RECORD
  5
1569
330
842
100
AcDbSymbolTableRecord
100
AcDbBlockTableRecord
  2
*D12
340
0
  0
BLOCK_RECORD
  5
1575
330
842
100
AcDbSymbolTableRecord
100
AcDbBlockTableRecord
  2
*D13
340
0
  0
BLOCK_RECORD
  5
1581
330
842
100
AcDbSymbolTableRecord
100
AcDbBlockTableRecord
  2
*D14
340
0
  0
BLOCK_RECORD
  5
158D
330
842
100
AcDbSymbolTableRecord
100
AcDbBlockTableRecord
  2
*D15
340
0
  0
BLOCK_RECORD
  5
1599
330
842
100
AcDbSymbolTableRecord
100
AcDbBlockTableRecord
  2
*D16
340
0
  0
BLOCK_RECORD
  5
1747
330
842
100
AcDbSymbolTableRecord
100
AcDbBlockTableRecord
  2
*D17
340
0
  0
BLOCK_RECORD
  5
1753
330
842
100
AcDbSymbolTableRecord
100
AcDbBlockTableRecord
  2
*D18
340
0
  0
BLOCK_RECORD
  5
175F
330
842
100
AcDbSymbolTableRecord
100
AcDbBlockTableRecord
  2
*D19
340
0
  0
BLOCK_RECORD
  5
176B
330
842
100
AcDbSymbolTableRecord
100
AcDbBlockTableRecord
  2
*D20
340
0
  0
BLOCK_RECORD
  5
1777
330
842
100
AcDbSymbolTableRecord
100
AcDbBlockTableRecord
  2
*D21
340
0
  0
BLOCK_RECORD
  5
18FF
330
842
100
AcDbSymbolTableRecord
100
AcDbBlockTableRecord
  2
*D22
340
0
  0
BLOCK_RECORD
  5
190B
330
842
100
AcDbSymbolTableRecord
100
AcDbBlockTableRecord
  2
*D23
340
0
  0
BLOCK_RECORD
  5
1917
330
842
100
AcDbSymbolTableRecord
100
AcDbBlockTableRecord
  2
*D24
340
0
  0
BLOCK_RECORD
  5
1923
330
842
100
AcDbSymbolTableRecord
100
AcDbBlockTableRecord
  2
*D25
340
0
  0
BLOCK_RECORD
  5
192F
330
842
100
AcDbSymbolTableRecord
100
AcDbBlockTableRecord
  2
*D26
340
0
  0
BLOCK_RECORD
  5
193B
330
842
100
AcDbSymbolTableRecord
100
AcDbBlockTableRecord
  2
*D27
340
0
  0
BLOCK_RECORD
  5
1947
330
842
100
AcDbSymbolTableRecord
100
AcDbBlockTableRecord
  2
*D28
340
0
  0
BLOCK_RECORD
  5
1BCA
330
842
100
AcDbSymbolTableRecord
100
AcDbBlockTableRecord
  2
*D29
340
0
  0
BLOCK_RECORD
  5
1BD6
330
842
100
AcDbSymbolTableRecord
100
AcDbBlockTableRecord
  2
*D30
340
0
  0
BLOCK_RECORD
  5
1BE2
330
842
100
AcDbSymbolTableRecord
100
AcDbBlockTableRecord
  2
*D31
340
0
  0
BLOCK_RECORD
  5
1BEE
330
842
100
AcDbSymbolTableRecord
100
AcDbBlockTableRecord
  2
*D32
340
0
  0
BLOCK_RECORD
  5
1BFA
330
842
100
AcDbSymbolTableRecord
100
AcDbBlockTableRecord
  2
*D33
340
0
  0
BLOCK_RECORD
  5
1C06
330
842
100
AcDbSymbolTableRecord
100
AcDbBlockTableRecord
  2
*D34
340
0
  0
BLOCK_RECORD
  5
1C12
330
842
100
AcDbSymbolTableRecord
100
AcDbBlockTableRecord
  2
*D35
340
0
  0
BLOCK_RECORD
  5
1D50
330
842
100
AcDbSymbolTableRecord
100
AcDbBlockTableRecord
  2
*D36
340
0
  0
BLOCK_RECORD
  5
1D5C
330
842
100
AcDbSymbolTableRecord
100
AcDbBlockTableRecord
  2
*D37
340
0
  0
BLOCK_RECORD
  5
1D68
330
842
100
AcDbSymbolTableRecord
100
AcDbBlockTableRecord
  2
*D38
340
0
  0
BLOCK_RECORD
  5
1D74
330
842
100
AcDbSymbolTableRecord
100
AcDbBlockTableRecord
  2
*D39
340
0
  0
BLOCK_RECORD
  5
1D80
330
842
100
AcDbSymbolTableRecord
100
AcDbBlockTableRecord
  2
*D40
340
0
  0
BLOCK_RECORD
  5
1D8C
330
842
100
AcDbSymbolTableRecord
100
AcDbBlockTableRecord
  2
*D41
340
0
  0
BLOCK_RECORD
  5
1F43
330
842
100
AcDbSymbolTableRecord
100
AcDbBlockTableRecord
  2
*D42
340
0
  0
BLOCK_RECORD
  5
1F4F
330
842
100
AcDbSymbolTableRecord
100
AcDbBlockTableRecord
  2
*D43
340
0
  0
BLOCK_RECORD
  5
1F5B
330
842
100
AcDbSymbolTableRecord
100
AcDbBlockTableRecord
  2
*D44
340
0
  0
BLOCK_RECORD
  5
1F67
330
842
100
AcDbSymbolTableRecord
100
AcDbBlockTableRecord
  2
*D45
340
0
  0
BLOCK_RECORD
  5
1F73
330
842
100
AcDbSymbolTableRecord
100
AcDbBlockTableRecord
  2
*D46
340
0
  0
BLOCK_RECORD
  5
1F7F
330
842
100
AcDbSymbolTableRecord
100
AcDbBlockTableRecord
  2
*D47
340
0
  0
BLOCK_RECORD
  5
21BE
330
842
100
AcDbSymbolTableRecord
100
AcDbBlockTableRecord
  2
*D49
340
0
  0
BLOCK_RECORD
  5
21CA
330
842
100
AcDbSymbolTableRecord
100
AcDbBlockTableRecord
  2
*D50
340
0
  0
BLOCK_RECORD
  5
21D6
330
842
100
AcDbSymbolTableRecord
100
AcDbBlockTableRecord
  2
*D51
340
0
  0
BLOCK_RECORD
  5
21E2
330
842
100
AcDbSymbolTableRecord
100
AcDbBlockTableRecord
  2
*D52
340
0
  0
BLOCK_RECORD
  5
21EE
330
842
100
AcDbSymbolTableRecord
100
AcDbBlockTableRecord
  2
*D53
340
0
  0
BLOCK_RECORD
  5
2573
330
842
100
AcDbSymbolTableRecord
100
AcDbBlockTableRecord
  2
*D55
340
0
  0
BLOCK_RECORD
  5
257F
330
842
100
AcDbSymbolTableRecord
100
AcDbBlockTableRecord
  2
*D56
340
0
  0
BLOCK_RECORD
  5
258B
330
842
100
AcDbSymbolTableRecord
100
AcDbBlockTableRecord
  2
*D57
340
0
  0
BLOCK_RECORD
  5
2597
330
842
100
AcDbSymbolTableRecord
100
AcDbBlockTableRecord
  2
*D58
340
0
  0
BLOCK_RECORD
  5
25A3
330
842
100
AcDbSymbolTableRecord
100
AcDbBlockTableRecord
  2
*D59
340
0
  0
ENDTAB
  0
ENDSEC
  0
SECTION
  2
BLOCKS
  0
BLOCK
  5
860
330
85F
100
AcDbEntity
  8
0
100
AcDbBlockBegin
  2
*MODEL_SPACE
 70
     0
 10
0.0
 20
0.0
 30
0.0
  3
*MODEL_SPACE
  1

  0
ENDBLK
  5
861
330
85F
100
AcDbEntity
  8
0
100
AcDbBlockEnd
  0
BLOCK
  5
85C
330
85B
100
AcDbEntity
 67
     1
  8
0
100
AcDbBlockBegin
  2
*PAPER_SPACE
 70
     0
 10
0.0
 20
0.0
 30
0.0
  3
*PAPER_SPACE
  1

  0
ENDBLK
  5
85D
330
85B
100
AcDbEntity
 67
     1
  8
0
100
AcDbBlockEnd
  0
BLOCK
  5
87F
330
87E
100
AcDbEntity
  8
0
100
AcDbBlockBegin
  2
_ORIGIN
 70
     0
 10
0.0
 20
0.0
 30
0.0
  3
_ORIGIN
  1

  0
CIRCLE
  5
880
330
87E
100
AcDbEntity
  8
0
  6
Continuous
 62
     7
100
AcDbCircle
 10
0.0
 20
0.0
 30
0.0
 40
0.5
  0
LINE
  5
881
330
87E
100
AcDbEntity
  8
0
  6
Continuous
 62
     7
100
AcDbLine
 10
0.0
 20
0.0
 30
0.0
 11
-1.0
 21
0.0
 31
0.0
  0
ENDBLK
  5
882
330
87E
100
AcDbEntity
  8
0
100
AcDbBlockEnd
  0
BLOCK
  5
AB5
330
AB2
100
AcDbEntity
  8
0
 62
     1
100
AcDbBlockBegin
  2
_DOTBLANK
 70
     0
 10
0.0
 20
0.0
 30
0.0
  3
_DOTBLANK
  1

  0
CIRCLE
  5
AB3
330
AB2
100
AcDbEntity
  8
0
  6
ByBlock
 62
     0
100
AcDbCircle
 10
0.0
 20
0.0
 30
0.0
 40
0.5
  0
LINE
  5
AB4
330
AB2
100
AcDbEntity
  8
0
  6
ByBlock
 62
     0
100
AcDbLine
 10
-0.5
 20
0.0
 30
0.0
 11
-1.0
 21
0.0
 31
0.0
  0
ENDBLK
  5
AB6
330
AB2
100
AcDbEntity
  8
0
 62
     1
100
AcDbBlockEnd
  0
BLOCK
  5
ABB
330
AB7
100
AcDbEntity
  8
0
 62
     1
100
AcDbBlockBegin
  2
_OPEN30
 70
     0
 10
0.0
 20
0.0
 30
0.0
  3
_OPEN30
  1

  0
LINE
  5
AB8
330
AB7
100
AcDbEntity
  8
0
  6
ByBlock
 62
     0
100
AcDbLine
 10
-1.0
 20
0.26794919
 30
0.0
 11
0.0
 21
0.0
 31
0.0
  0
LINE
  5
AB9
330
AB7
100
AcDbEntity
  8
0
  6
ByBlock
 62
     0
100
AcDbLine
 10
0.0
 20
0.0
 30
0.0
 11
-1.0
 21
-0.26794919
 31
0.0
  0
LINE
  5
ABA
330
AB7
100
AcDbEntity
  8
0
  6
ByBlock
 62
     0
100
AcDbLine
 10
0.0
 20
0.0
 30
0.0
 11
-1.0
 21
0.0
 31
0.0
  0
ENDBLK
  5
ABC
330
AB7
100
AcDbEntity
  8
0
 62
     1
100
AcDbBlockEnd
  0
BLOCK
  5
F03
330
EF9
100
AcDbEntity
  8
0
100
AcDbBlockBegin
  2
*D3
 70
     1
 10
0.0
 20
0.0
 30
0.0
  3
*D3
  1

  0
LINE
  5
1085
330
EF9
100
AcDbEntity
  8
SIZE
  6
Continuous
 62
     0
370
    -2
100
AcDbLine
 10
-167.5
 20
-154.0
 30
0.0
 11
-424.0027336080619
 21
-153.9999999999999
 31
0.0
  0
LINE
  5
1086
330
EF9
100
AcDbEntity
  8
SIZE
  6
Continuous
 62
     0
370
    -2
100
AcDbLine
 10
-167.5
 20
161.0
 30
0.0
 11
-424.0027336080619
 21
161.0000000000001
 31
0.0
  0
LINE
  5
1087
330
EF9
100
AcDbEntity
  8
SIZE
  6
Continuous
 62
     0
370
    -2
100
AcDbLine
 10
-404.0027336080621
 20
-141.9999999999999
 30
0.0
 11
-404.0027336080619
 21
149.0000000000001
 31
0.0
  0
INSERT
  5
1088
330
EF9
100
AcDbEntity
  8
SIZE
  6
Continuous
 62
     0
370
    -2
100
AcDbBlockReference
  2
_DOTBLANK
 10
-404.0027336080621
 20
-153.9999999999999
 30
0.0
 41
12.0
 42
12.0
 43
12.0
 50
270.0
  0
INSERT
  5
1089
330
EF9
100
AcDbEntity
  8
SIZE
  6
Continuous
 62
     0
370
    -2
100
AcDbBlockReference
  2
_DOTBLANK
 10
-404.0027336080619
 20
161.0000000000001
 30
0.0
 41
12.0
 42
12.0
 43
12.0
 50
90.0
  0
MTEXT
  5
108A
330
EF9
100
AcDbEntity
  8
SIZE
  6
Continuous
 62
     0
100
AcDbMText
 10
-446.002733608062
 20
3.500000000000028
 30
0.0
 40
64.0
 41
0.0
 71
     5
 72
     1
  1
\A1;315
 11
0.0000000000000001
 21
1.0
 31
0.0
 73
     1
 44
1.0
  0
POINT
  5
108B
330
EF9
100
AcDbEntity
  8
DEFPOINTS
  6
Continuous
 62
     0
100
AcDbPoint
 10
-147.5
 20
-154.0
 30
0.0
  0
POINT
  5
108C
330
EF9
100
AcDbEntity
  8
DEFPOINTS
  6
Continuous
 62
     0
100
AcDbPoint
 10
-147.5
 20
161.0
 30
0.0
  0
POINT
  5
108D
330
EF9
100
AcDbEntity
  8
DEFPOINTS
  6
Continuous
 62
     0
100
AcDbPoint
 10
-404.0027336080619
 20
161.0000000000001
 30
0.0
  0
ENDBLK
  5
F04
330
EF9
100
AcDbEntity
  8
0
100
AcDbBlockEnd
  0
BLOCK
  5
F0F
330
F05
100
AcDbEntity
  8
0
100
AcDbBlockBegin
  2
*D4
 70
     1
 10
0.0
 20
0.0
 30
0.0
  3
*D4
  1

  0
LINE
  5
107C
330
F05
100
AcDbEntity
  8
SIZE
  6
Continuous
 62
     0
370
    -2
100
AcDbLine
 10
-172.5
 20
143.5
 30
0.0
 11
-279.2869931611258
 21
143.5
 31
0.0
  0
LINE
  5
107D
330
F05
100
AcDbEntity
  8
SIZE
  6
Continuous
 62
     0
370
    -2
100
AcDbLine
 10
-172.5
 20
-136.5
 30
0.0
 11
-279.286993161126
 21
-136.4999999999999
 31
0.0
  0
LINE
  5
107E
330
F05
100
AcDbEntity
  8
SIZE
  6
Continuous
 62
     0
370
    -2
100
AcDbLine
 10
-259.2869931611259
 20
131.5
 30
0.0
 11
-259.2869931611259
 21
-124.4999999999999
 31
0.0
  0
INSERT
  5
107F
330
F05
100
AcDbEntity
  8
SIZE
  6
Continuous
 62
     0
370
    -2
100
AcDbBlockReference
  2
_DOTBLANK
 10
-259.2869931611259
 20
143.5
 30
0.0
 41
12.0
 42
12.0
 43
12.0
 50
90.0
  0
INSERT
  5
1080
330
F05
100
AcDbEntity
  8
SIZE
  6
Continuous
 62
     0
370
    -2
100
AcDbBlockReference
  2
_DOTBLANK
 10
-259.286993161126
 20
-136.4999999999999
 30
0.0
 41
12.0
 42
12.0
 43
12.0
 50
270.0
  0
MTEXT
  5
1081
330
F05
100
AcDbEntity
  8
SIZE
  6
Continuous
 62
     0
100
AcDbMText
 10
-301.2869931611259
 20
3.499999999999991
 30
0.0
 40
64.0
 41
0.0
 71
     5
 72
     1
  1
\A1;280
 11
0.0000000000000001
 21
1.0
 31
0.0
 73
     1
 44
1.0
  0
POINT
  5
1082
330
F05
100
AcDbEntity
  8
DEFPOINTS
  6
Continuous
 62
     0
100
AcDbPoint
 10
-152.5
 20
143.5
 30
0.0
  0
POINT
  5
1083
330
F05
100
AcDbEntity
  8
DEFPOINTS
  6
Continuous
 62
     0
100
AcDbPoint
 10
-152.5
 20
-136.5
 30
0.0
  0
POINT
  5
1084
330
F05
100
AcDbEntity
  8
DEFPOINTS
  6
Continuous
 62
     0
100
AcDbPoint
 10
-259.286993161126
 20
-136.4999999999999
 30
0.0
  0
ENDBLK
  5
F10
330
F05
100
AcDbEntity
  8
0
100
AcDbBlockEnd
  0
BLOCK
  5
F1B
330
F11
100
AcDbEntity
  8
0
100
AcDbBlockBegin
  2
*D5
 70
     1
 10
0.0
 20
0.0
 30
0.0
  3
*D5
  1

  0
LINE
  5
1061
330
F11
100
AcDbEntity
  8
SIZE
  6
Continuous
 62
     0
370
    -2
100
AcDbLine
 10
-140.0
 20
176.0
 30
0.0
 11
-140.0
 21
278.7870018026145
 31
0.0
  0
LINE
  5
1062
330
F11
100
AcDbEntity
  8
SIZE
  6
Continuous
 62
     0
370
    -2
100
AcDbLine
 10
140.0
 20
176.0
 30
0.0
 11
140.0
 21
278.7870018026145
 31
0.0
  0
LINE
  5
1063
330
F11
100
AcDbEntity
  8
SIZE
  6
Continuous
 62
     0
370
    -2
100
AcDbLine
 10
-128.0
 20
258.7870018026145
 30
0.0
 11
128.0
 21
258.7870018026145
 31
0.0
  0
INSERT
  5
1064
330
F11
100
AcDbEntity
  8
SIZE
  6
Continuous
 62
     0
370
    -2
100
AcDbBlockReference
  2
_DOTBLANK
 10
-140.0
 20
258.7870018026145
 30
0.0
 41
12.0
 42
12.0
 43
12.0
 50
180.0
  0
INSERT
  5
1065
330
F11
100
AcDbEntity
  8
SIZE
  6
Continuous
 62
     0
370
    -2
100
AcDbBlockReference
  2
_DOTBLANK
 10
140.0
 20
258.7870018026145
 30
0.0
 41
12.0
 42
12.0
 43
12.0
  0
MTEXT
  5
1066
330
F11
100
AcDbEntity
  8
SIZE
  6
Continuous
 62
     0
100
AcDbMText
 10
0.0000000000000026
 20
300.7870018026145
 30
0.0
 40
64.0
 41
0.0
 71
     5
 72
     1
  1
\A1;280
 73
     1
 44
1.0
  0
POINT
  5
1067
330
F11
100
AcDbEntity
  8
DEFPOINTS
  6
Continuous
 62
     0
100
AcDbPoint
 10
-140.0
 20
156.0
 30
0.0
  0
POINT
  5
1068
330
F11
100
AcDbEntity
  8
DEFPOINTS
  6
Continuous
 62
     0
100
AcDbPoint
 10
140.0
 20
156.0
 30
0.0
  0
POINT
  5
1069
330
F11
100
AcDbEntity
  8
DEFPOINTS
  6
Continuous
 62
     0
100
AcDbPoint
 10
140.0
 20
258.7870018026145
 30
0.0
  0
ENDBLK
  5
F1C
330
F11
100
AcDbEntity
  8
0
100
AcDbBlockEnd
  0
BLOCK
  5
F27
330
F1D
100
AcDbEntity
  8
0
100
AcDbBlockBegin
  2
*D6
 70
     1
 10
0.0
 20
0.0
 30
0.0
  3
*D6
  1

  0
LINE
  5
1058
330
F1D
100
AcDbEntity
  8
SIZE
  6
Continuous
 62
     0
370
    -2
100
AcDbLine
 10
-157.5
 20
171.0
 30
0.0
 11
-157.5
 21
380.6212162378291
 31
0.0
  0
LINE
  5
1059
330
F1D
100
AcDbEntity
  8
SIZE
  6
Continuous
 62
     0
370
    -2
100
AcDbLine
 10
157.5
 20
171.0
 30
0.0
 11
157.5
 21
380.6212162378291
 31
0.0
  0
LINE
  5
105A
330
F1D
100
AcDbEntity
  8
SIZE
  6
Continuous
 62
     0
370
    -2
100
AcDbLine
 10
-145.5
 20
360.6212162378291
 30
0.0
 11
145.5
 21
360.6212162378291
 31
0.0
  0
INSERT
  5
105B
330
F1D
100
AcDbEntity
  8
SIZE
  6
Continuous
 62
     0
370
    -2
100
AcDbBlockReference
  2
_DOTBLANK
 10
-157.5
 20
360.6212162378291
 30
0.0
 41
12.0
 42
12.0
 43
12.0
 50
180.0
  0
INSERT
  5
105C
330
F1D
100
AcDbEntity
  8
SIZE
  6
Continuous
 62
     0
370
    -2
100
AcDbBlockReference
  2
_DOTBLANK
 10
157.5
 20
360.6212162378291
 30
0.0
 41
12.0
 42
12.0
 43
12.0
  0
MTEXT
  5
105D
330
F1D
100
AcDbEntity
  8
SIZE
  6
Continuous
 62
     0
100
AcDbMText
 10
0.0000000000000026
 20
402.6212162378291
 30
0.0
 40
64.0
 41
0.0
 71
     5
 72
     1
  1
\A1;315
 73
     1
 44
1.0
  0
POINT
  5
105E
330
F1D
100
AcDbEntity
  8
DEFPOINTS
  6
Continuous
 62
     0
100
AcDbPoint
 10
-157.5
 20
151.0
 30
0.0
  0
POINT
  5
105F
330
F1D
100
AcDbEntity
  8
DEFPOINTS
  6
Continuous
 62
     0
100
AcDbPoint
 10
157.5
 20
151.0
 30
0.0
  0
POINT
  5
1060
330
F1D
100
AcDbEntity
  8
DEFPOINTS
  6
Continuous
 62
     0
100
AcDbPoint
 10
157.5
 20
360.6212162378291
 30
0.0
  0
ENDBLK
  5
F28
330
F1D
100
AcDbEntity
  8
0
100
AcDbBlockEnd
  0
BLOCK
  5
112B
330
1121
100
AcDbEntity
  8
0
100
AcDbBlockBegin
  2
*D7
 70
     1
 10
0.0
 20
0.0
 30
0.0
  3
*D7
  1

  0
LINE
  5
1470
330
1121
100
AcDbEntity
  8
SIZE
  6
Continuous
 62
     0
370
    -2
100
AcDbLine
 10
-134.5
 20
-263.0
 30
0.0
 11
-134.5
 21
-406.3942247564192
 31
0.0
  0
LINE
  5
1471
330
1121
100
AcDbEntity
  8
SIZE
  6
Continuous
 62
     0
370
    -2
100
AcDbLine
 10
134.5
 20
-263.0
 30
0.0
 11
134.5
 21
-406.3942247564192
 31
0.0
  0
LINE
  5
1472
330
1121
100
AcDbEntity
  8
SIZE
  6
Continuous
 62
     0
370
    -2
100
AcDbLine
 10
-122.5
 20
-386.3942247564192
 30
0.0
 11
122.5
 21
-386.3942247564192
 31
0.0
  0
INSERT
  5
1473
330
1121
100
AcDbEntity
  8
SIZE
  6
Continuous
 62
     0
370
    -2
100
AcDbBlockReference
  2
_DOTBLANK
 10
-134.5
 20
-386.3942247564192
 30
0.0
 41
12.0
 42
12.0
 43
12.0
 50
180.0
  0
INSERT
  5
1474
330
1121
100
AcDbEntity
  8
SIZE
  6
Continuous
 62
     0
370
    -2
100
AcDbBlockReference
  2
_DOTBLANK
 10
134.5
 20
-386.3942247564192
 30
0.0
 41
12.0
 42
12.0
 43
12.0
  0
MTEXT
  5
1475
330
1121
100
AcDbEntity
  8
SIZE
  6
Continuous
 62
     0
100
AcDbMText
 10
-0.0000000000000233
 20
-344.3942247564192
 30
0.0
 40
64.0
 41
0.0
 71
     5
 72
     1
  1
\A1;269
 73
     1
 44
1.0
  0
POINT
  5
1476
330
1121
100
AcDbEntity
  8
DEFPOINTS
  6
Continuous
 62
     0
100
AcDbPoint
 10
-134.5
 20
-243.0
 30
0.0
  0
POINT
  5
1477
330
1121
100
AcDbEntity
  8
DEFPOINTS
  6
Continuous
 62
     0
100
AcDbPoint
 10
134.5
 20
-243.0
 30
0.0
  0
POINT
  5
1478
330
1121
100
AcDbEntity
  8
DEFPOINTS
  6
Continuous
 62
     0
100
AcDbPoint
 10
134.5
 20
-386.3942247564192
 30
0.0
  0
ENDBLK
  5
112C
330
1121
100
AcDbEntity
  8
0
100
AcDbBlockEnd
  0
BLOCK
  5
1145
330
113B
100
AcDbEntity
  8
0
100
AcDbBlockBegin
  2
*D8
 70
     1
 10
0.0
 20
0.0
 30
0.0
  3
*D8
  1

  0
LINE
  5
1467
330
113B
100
AcDbEntity
  8
SIZE
  6
Continuous
 62
     0
370
    -2
100
AcDbLine
 10
-167.5
 20
161.0
 30
0.0
 11
-562.5059028843143
 21
161.0000000000001
 31
0.0
  0
LINE
  5
1468
330
113B
100
AcDbEntity
  8
SIZE
  6
Continuous
 62
     0
370
    -2
100
AcDbLine
 10
-154.5
 20
-243.0
 30
0.0
 11
-562.5059028843143
 21
-242.9999999999999
 31
0.0
  0
LINE
  5
1469
330
113B
100
AcDbEntity
  8
SIZE
  6
Continuous
 62
     0
370
    -2
100
AcDbLine
 10
-542.5059028843143
 20
149.0000000000001
 30
0.0
 11
-542.5059028843143
 21
-230.9999999999999
 31
0.0
  0
INSERT
  5
146A
330
113B
100
AcDbEntity
  8
SIZE
  6
Continuous
 62
     0
370
    -2
100
AcDbBlockReference
  2
_DOTBLANK
 10
-542.5059028843143
 20
161.0000000000001
 30
0.0
 41
12.0
 42
12.0
 43
12.0
 50
90.0
  0
INSERT
  5
146B
330
113B
100
AcDbEntity
  8
SIZE
  6
Continuous
 62
     0
370
    -2
100
AcDbBlockReference
  2
_DOTBLANK
 10
-542.5059028843143
 20
-242.9999999999999
 30
0.0
 41
12.0
 42
12.0
 43
12.0
 50
270.0
  0
MTEXT
  5
146C
330
113B
100
AcDbEntity
  8
SIZE
  6
Continuous
 62
     0
100
AcDbMText
 10
-584.5059028843142
 20
-40.99999999999996
 30
0.0
 40
64.0
 41
0.0
 71
     5
 72
     1
  1
\A1;404
 11
0.0000000000000001
 21
1.0
 31
0.0
 73
     1
 44
1.0
  0
POINT
  5
146D
330
113B
100
AcDbEntity
  8
DEFPOINTS
  6
Continuous
 62
     0
100
AcDbPoint
 10
-147.5
 20
161.0
 30
0.0
  0
POINT
  5
146E
330
113B
100
AcDbEntity
  8
DEFPOINTS
  6
Continuous
 62
     0
100
AcDbPoint
 10
-134.5
 20
-243.0
 30
0.0
  0
POINT
  5
146F
330
113B
100
AcDbEntity
  8
DEFPOINTS
  6
Continuous
 62
     0
100
AcDbPoint
 10
-542.5059028843143
 20
-242.9999999999999
 30
0.0
  0
ENDBLK
  5
1146
330
113B
100
AcDbEntity
  8
0
100
AcDbBlockEnd
  0
BLOCK
  5
1280
330
127E
100
AcDbEntity
  8
0
100
AcDbBlockBegin
  2
GENAXEH
 70
     0
 10
0.0
 20
0.0
 30
0.0
  3
GENAXEH
  1

  0
LINE
  5
127F
330
127E
100
AcDbEntity
  8
0
100
AcDbLine
 10
-1.0
 20
0.0
 30
0.0
 11
1.0
 21
0.0
 31
0.0
  0
ENDBLK
  5
1281
330
127E
100
AcDbEntity
  8
0
100
AcDbBlockEnd
  0
BLOCK
  5
13F8
330
13F7
100
AcDbEntity
  8
0
100
AcDbBlockBegin
  2
*D10
 70
     1
 10
0.0
 20
0.0
 30
0.0
  3
*D10
  1

  0
LINE
  5
13FA
330
13F7
100
AcDbEntity
  8
OUTLINE
  6
Continuous
 62
     0
370
    -2
100
AcDbLine
 10
137.9
 20
-233.5
 30
0.0
 11
200.6044516808926
 21
-233.5
 31
0.0
  0
LINE
  5
13FB
330
13F7
100
AcDbEntity
  8
OUTLINE
  6
Continuous
 62
     0
370
    -2
100
AcDbLine
 10
153.5
 20
-243.0
 30
0.0
 11
200.6044516808926
 21
-243.0
 31
0.0
  0
LINE
  5
13FC
330
13F7
100
AcDbEntity
  8
OUTLINE
  6
Continuous
 62
     0
370
    -2
100
AcDbLine
 10
180.6044516808926
 20
-221.5
 30
0.0
 11
180.6044516808926
 21
-209.5
 31
0.0
  0
LINE
  5
13FD
330
13F7
100
AcDbEntity
  8
OUTLINE
  6
Continuous
 62
     0
370
    -2
100
AcDbLine
 10
180.6044516808926
 20
-255.0
 30
0.0
 11
180.6044516808926
 21
-267.0000000000001
 31
0.0
  0
LINE
  5
13FE
330
13F7
100
AcDbEntity
  8
OUTLINE
  6
Continuous
 62
     0
370
    -2
100
AcDbLine
 10
180.6044516808926
 20
-233.5
 30
0.0
 11
180.6044516808926
 21
-243.0
 31
0.0
  0
INSERT
  5
13FF
330
13F7
100
AcDbEntity
  8
OUTLINE
  6
Continuous
 62
     0
370
    -2
100
AcDbBlockReference
  2
_DOTBLANK
 10
180.6044516808926
 20
-233.5
 30
0.0
 41
12.0
 42
12.0
 43
12.0
 50
270.0
  0
INSERT
  5
1400
330
13F7
100
AcDbEntity
  8
OUTLINE
  6
Continuous
 62
     0
370
    -2
100
AcDbBlockReference
  2
_DOTBLANK
 10
180.6044516808926
 20
-243.0
 30
0.0
 41
12.0
 42
12.0
 43
12.0
 50
90.0
  0
MTEXT
  5
1401
330
13F7
100
AcDbEntity
  8
OUTLINE
  6
Continuous
 62
     0
100
AcDbMText
 10
138.6044516808926
 20
-238.25
 30
0.0
 40
64.0
 41
0.0
 71
     5
 72
     1
  1
\A1;9.5
 11
0.0000000000000001
 21
1.0
 31
0.0
 73
     1
 44
1.0
  0
POINT
  5
1402
330
13F7
100
AcDbEntity
  8
DEFPOINTS
  6
Continuous
 62
     0
100
AcDbPoint
 10
117.9
 20
-233.5
 30
0.0
  0
POINT
  5
1403
330
13F7
100
AcDbEntity
  8
DEFPOINTS
  6
Continuous
 62
     0
100
AcDbPoint
 10
133.5
 20
-243.0
 30
0.0
  0
POINT
  5
1404
330
13F7
100
AcDbEntity
  8
DEFPOINTS
  6
Continuous
 62
     0
100
AcDbPoint
 10
180.6044516808926
 20
-243.0
 30
0.0
  0
ENDBLK
  5
13F9
330
13F7
100
AcDbEntity
  8
0
100
AcDbBlockEnd
  0
BLOCK
  5
1422
330
1421
100
AcDbEntity
  8
0
100
AcDbBlockBegin
  2
*D11
 70
     1
 10
0.0
 20
0.0
 30
0.0
  3
*D11
  1

  0
LINE
  5
1424
330
1421
100
AcDbEntity
  8
OUTLINE
  6
Continuous
 62
     0
370
    -2
100
AcDbLine
 10
-135.5
 20
-263.0
 30
0.0
 11
-135.5
 21
-275.2324432319168
 31
0.0
  0
LINE
  5
1425
330
1421
100
AcDbEntity
  8
OUTLINE
  6
Continuous
 62
     0
370
    -2
100
AcDbLine
 10
-123.5
 20
-263.0
 30
0.0
 11
-123.5
 21
-275.2324432319168
 31
0.0
  0
LINE
  5
1426
330
1421
100
AcDbEntity
  8
OUTLINE
  6
Continuous
 62
     0
370
    -2
100
AcDbLine
 10
-147.5
 20
-255.2324432319168
 30
0.0
 11
-159.5
 21
-255.2324432319168
 31
0.0
  0
LINE
  5
1427
330
1421
100
AcDbEntity
  8
OUTLINE
  6
Continuous
 62
     0
370
    -2
100
AcDbLine
 10
-111.5
 20
-255.2324432319168
 30
0.0
 11
-99.50000000000001
 21
-255.2324432319168
 31
0.0
  0
LINE
  5
1428
330
1421
100
AcDbEntity
  8
OUTLINE
  6
Continuous
 62
     0
370
    -2
100
AcDbLine
 10
-135.5
 20
-255.2324432319168
 30
0.0
 11
-123.5
 21
-255.2324432319168
 31
0.0
  0
INSERT
  5
1429
330
1421
100
AcDbEntity
  8
OUTLINE
  6
Continuous
 62
     0
370
    -2
100
AcDbBlockReference
  2
_DOTBLANK
 10
-135.5
 20
-255.2324432319168
 30
0.0
 41
12.0
 42
12.0
 43
12.0
  0
INSERT
  5
142A
330
1421
100
AcDbEntity
  8
OUTLINE
  6
Continuous
 62
     0
370
    -2
100
AcDbBlockReference
  2
_DOTBLANK
 10
-123.5
 20
-255.2324432319168
 30
0.0
 41
12.0
 42
12.0
 43
12.0
 50
180.0
  0
MTEXT
  5
142B
330
1421
100
AcDbEntity
  8
OUTLINE
  6
Continuous
 62
     0
100
AcDbMText
 10
-129.5
 20
-213.2324432319168
 30
0.0
 40
64.0
 41
0.0
 71
     5
 72
     1
  1
\A1;12
 73
     1
 44
1.0
  0
POINT
  5
142C
330
1421
100
AcDbEntity
  8
DEFPOINTS
  6
Continuous
 62
     0
100
AcDbPoint
 10
-135.5
 20
-243.0
 30
0.0
  0
POINT
  5
142D
330
1421
100
AcDbEntity
  8
DEFPOINTS
  6
Continuous
 62
     0
100
AcDbPoint
 10
-123.5
 20
-243.0
 30
0.0
  0
POINT
  5
142E
330
1421
100
AcDbEntity
  8
DEFPOINTS
  6
Continuous
 62
     0
100
AcDbPoint
 10
-123.5
 20
-255.2324432319168
 30
0.0
  0
ENDBLK
  5
1423
330
1421
100
AcDbEntity
  8
0
100
AcDbBlockEnd
  0
BLOCK
  5
156A
330
1569
100
AcDbEntity
  8
0
100
AcDbBlockBegin
  2
*D12
 70
     1
 10
0.0
 20
0.0
 30
0.0
  3
*D12
  1

  0
LINE
  5
156B
330
1569
100
AcDbEntity
  8
SIZE
 62
     0
370
    -2
100
AcDbLine
 10
-43498.31326757634
 20
4305.193042498664
 30
0.0
 11
-43542.0974700479
 21
4305.193042498664
 31
0.0
  0
LINE
  5
156C
330
1569
100
AcDbEntity
  8
SIZE
 62
     0
370
    -2
100
AcDbLine
 10
-43498.31326757634
 20
4020.193042498664
 30
0.0
 11
-43542.0974700479
 21
4020.193042498664
 31
0.0
  0
LINE
  5
156D
330
1569
100
AcDbEntity
  8
SIZE
 62
     0
370
    -2
100
AcDbLine
 10
-43522.09747004788
 20
4293.193042498663
 30
0.0
 11
-43522.09747004788
 21
4032.193042498664
 31
0.0
  0
INSERT
  5
156E
330
1569
100
AcDbEntity
  8
SIZE
 62
     0
370
    -2
100
AcDbBlockReference
  2
_DOTBLANK
 10
-43522.09747004788
 20
4305.193042498664
 30
0.0
 41
12.0
 42
12.0
 43
12.0
 50
90.0
  0
INSERT
  5
156F
330
1569
100
AcDbEntity
  8
SIZE
 62
     0
370
    -2
100
AcDbBlockReference
  2
_DOTBLANK
 10
-43522.09747004788
 20
4020.193042498664
 30
0.0
 41
12.0
 42
12.0
 43
12.0
 50
270.0
  0
MTEXT
  5
1570
330
1569
100
AcDbEntity
  8
SIZE
 62
     0
100
AcDbMText
 10
-43564.09747004788
 20
4162.693042498657
 30
0.0
 40
64.0
 41
0.0
 71
     5
 72
     1
  1
\A1;285
 11
0.0000000000000001
 21
1.0
 31
0.0
 73
     1
 44
1.0
  0
POINT
  5
1571
330
1569
100
AcDbEntity
  8
DEFPOINTS
 62
     0
100
AcDbPoint
 10
-43478.31326757634
 20
4305.193042498664
 30
0.0
  0
POINT
  5
1572
330
1569
100
AcDbEntity
  8
DEFPOINTS
 62
     0
100
AcDbPoint
 10
-43478.31326757634
 20
4020.193042498664
 30
0.0
  0
POINT
  5
1573
330
1569
100
AcDbEntity
  8
DEFPOINTS
 62
     0
100
AcDbPoint
 10
-43522.09747004788
 20
4020.193042498664
 30
0.0
  0
ENDBLK
  5
1574
330
1569
100
AcDbEntity
  8
0
100
AcDbBlockEnd
  0
BLOCK
  5
1576
330
1575
100
AcDbEntity
  8
0
100
AcDbBlockBegin
  2
*D13
 70
     1
 10
0.0
 20
0.0
 30
0.0
  3
*D13
  1

  0
LINE
  5
1577
330
1575
100
AcDbEntity
  8
SIZE
 62
     0
370
    -2
100
AcDbLine
 10
-43498.31326757634
 20
4020.193042498664
 30
0.0
 11
-43542.0974700479
 21
4020.193042498664
 31
0.0
  0
LINE
  5
1578
330
1575
100
AcDbEntity
  8
SIZE
 62
     0
370
    -2
100
AcDbLine
 10
-43498.31326757634
 20
3735.193042498663
 30
0.0
 11
-43542.0974700479
 21
3735.193042498663
 31
0.0
  0
LINE
  5
1579
330
1575
100
AcDbEntity
  8
SIZE
 62
     0
370
    -2
100
AcDbLine
 10
-43522.09747004788
 20
4008.193042498663
 30
0.0
 11
-43522.09747004788
 21
3747.193042498664
 31
0.0
  0
INSERT
  5
157A
330
1575
100
AcDbEntity
  8
SIZE
 62
     0
370
    -2
100
AcDbBlockReference
  2
_DOTBLANK
 10
-43522.09747004788
 20
4020.193042498664
 30
0.0
 41
12.0
 42
12.0
 43
12.0
 50
90.0
  0
INSERT
  5
157B
330
1575
100
AcDbEntity
  8
SIZE
 62
     0
370
    -2
100
AcDbBlockReference
  2
_DOTBLANK
 10
-43522.09747004788
 20
3735.193042498663
 30
0.0
 41
12.0
 42
12.0
 43
12.0
 50
270.0
  0
MTEXT
  5
157C
330
1575
100
AcDbEntity
  8
SIZE
 62
     0
100
AcDbMText
 10
-43564.09747004788
 20
3877.693042498658
 30
0.0
 40
64.0
 41
0.0
 71
     5
 72
     1
  1
\A1;285
 11
0.0000000000000001
 21
1.0
 31
0.0
 73
     1
 44
1.0
  0
POINT
  5
157D
330
1575
100
AcDbEntity
  8
DEFPOINTS
 62
     0
100
AcDbPoint
 10
-43478.31326757634
 20
4020.193042498664
 30
0.0
  0
POINT
  5
157E
330
1575
100
AcDbEntity
  8
DEFPOINTS
 62
     0
100
AcDbPoint
 10
-43478.31326757634
 20
3735.193042498663
 30
0.0
  0
POINT
  5
157F
330
1575
100
AcDbEntity
  8
DEFPOINTS
 62
     0
100
AcDbPoint
 10
-43522.09747004788
 20
3735.193042498663
 30
0.0
  0
ENDBLK
  5
1580
330
1575
100
AcDbEntity
  8
0
100
AcDbBlockEnd
  0
BLOCK
  5
1582
330
1581
100
AcDbEntity
  8
0
100
AcDbBlockBegin
  2
*D14
 70
     1
 10
0.0
 20
0.0
 30
0.0
  3
*D14
  1

  0
LINE
  5
1583
330
1581
100
AcDbEntity
  8
SIZE
 62
     0
370
    -2
100
AcDbLine
 10
-43501.20326757633
 20
3710.193042498663
 30
0.0
 11
-43662.43490991455
 21
3710.193042498663
 31
0.0
  0
LINE
  5
1584
330
1581
100
AcDbEntity
  8
SIZE
 62
     0
370
    -2
100
AcDbLine
 10
-43500.20326757634
 20
4330.993042498662
 30
0.0
 11
-43662.43490991455
 21
4330.993042498662
 31
0.0
  0
LINE
  5
1585
330
1581
100
AcDbEntity
  8
SIZE
 62
     0
370
    -2
100
AcDbLine
 10
-43642.43490991453
 20
3722.193042498664
 30
0.0
 11
-43642.43490991453
 21
4318.993042498664
 31
0.0
  0
INSERT
  5
1586
330
1581
100
AcDbEntity
  8
SIZE
 62
     0
370
    -2
100
AcDbBlockReference
  2
_DOTBLANK
 10
-43642.43490991453
 20
3710.193042498663
 30
0.0
 41
12.0
 42
12.0
 43
12.0
 50
270.0
  0
INSERT
  5
1587
330
1581
100
AcDbEntity
  8
SIZE
 62
     0
370
    -2
100
AcDbBlockReference
  2
_DOTBLANK
 10
-43642.43490991453
 20
4330.993042498662
 30
0.0
 41
12.0
 42
12.0
 43
12.0
 50
90.0
  0
MTEXT
  5
1588
330
1581
100
AcDbEntity
  8
SIZE
 62
     0
100
AcDbMText
 10
-43684.43490991453
 20
4020.593042498657
 30
0.0
 40
64.0
 41
0.0
 71
     5
 72
     1
  1
\A1;621
 11
0.0000000000000001
 21
1.0
 31
0.0
 73
     1
 44
1.0
  0
POINT
  5
1589
330
1581
100
AcDbEntity
  8
DEFPOINTS
 62
     0
100
AcDbPoint
 10
-43481.20326757634
 20
3710.193042498663
 30
0.0
  0
POINT
  5
158A
330
1581
100
AcDbEntity
  8
DEFPOINTS
 62
     0
100
AcDbPoint
 10
-43480.20326757634
 20
4330.993042498662
 30
0.0
  0
POINT
  5
158B
330
1581
100
AcDbEntity
  8
DEFPOINTS
 62
     0
100
AcDbPoint
 10
-43642.43490991453
 20
4330.993042498662
 30
0.0
  0
ENDBLK
  5
158C
330
1581
100
AcDbEntity
  8
0
100
AcDbBlockEnd
  0
BLOCK
  5
158E
330
158D
100
AcDbEntity
  8
0
100
AcDbBlockBegin
  2
*D15
 70
     1
 10
0.0
 20
0.0
 30
0.0
  3
*D15
  1

  0
LINE
  5
158F
330
158D
100
AcDbEntity
  8
SIZE
 62
     0
370
    -2
100
AcDbLine
 10
-43475.20326757634
 20
3707.693042498668
 30
0.0
 11
-43475.20326757634
 21
3553.77042621216
 31
0.0
  0
LINE
  5
1590
330
158D
100
AcDbEntity
  8
SIZE
 62
     0
370
    -2
100
AcDbLine
 10
-42837.20326757634
 20
3707.693042498668
 30
0.0
 11
-42837.20326757634
 21
3553.77042621216
 31
0.0
  0
LINE
  5
1591
330
158D
100
AcDbEntity
  8
SIZE
 62
     0
370
    -2
100
AcDbLine
 10
-43463.20326757633
 20
3573.77042621216
 30
0.0
 11
-42849.20326757633
 21
3573.77042621216
 31
0.0
  0
INSERT
  5
1592
330
158D
100
AcDbEntity
  8
SIZE
 62
     0
370
    -2
100
AcDbBlockReference
  2
_DOTBLANK
 10
-43475.20326757634
 20
3573.77042621216
 30
0.0
 41
12.0
 42
12.0
 43
12.0
 50
180.0
  0
INSERT
  5
1593
330
158D
100
AcDbEntity
  8
SIZE
 62
     0
370
    -2
100
AcDbBlockReference
  2
_DOTBLANK
 10
-42837.20326757634
 20
3573.77042621216
 30
0.0
 41
12.0
 42
12.0
 43
12.0
  0
MTEXT
  5
1594
330
158D
100
AcDbEntity
  8
SIZE
 62
     0
100
AcDbMText
 10
-43156.20326757634
 20
3615.770426212161
 30
0.0
 40
64.0
 41
0.0
 71
     5
 72
     1
  1
\A1;638
 73
     1
 44
1.0
  0
POINT
  5
1595
330
158D
100
AcDbEntity
  8
DEFPOINTS
 62
     0
100
AcDbPoint
 10
-43475.20326757634
 20
3727.693042498668
 30
0.0
  0
POINT
  5
1596
330
158D
100
AcDbEntity
  8
DEFPOINTS
 62
     0
100
AcDbPoint
 10
-42837.20326757634
 20
3727.693042498668
 30
0.0
  0
POINT
  5
1597
330
158D
100
AcDbEntity
  8
DEFPOINTS
 62
     0
100
AcDbPoint
 10
-42837.20326757634
 20
3573.77042621216
 30
0.0
  0
ENDBLK
  5
1598
330
158D
100
AcDbEntity
  8
0
100
AcDbBlockEnd
  0
BLOCK
  5
159A
330
1599
100
AcDbEntity
  8
0
100
AcDbBlockBegin
  2
*D16
 70
     1
 10
0.0
 20
0.0
 30
0.0
  3
*D16
  1

  0
LINE
  5
159B
330
1599
100
AcDbEntity
  8
SIZE
 62
     0
370
    -2
100
AcDbLine
 10
-43481.20326757634
 20
3690.193042498668
 30
0.0
 11
-43481.20326757634
 21
3437.284494408658
 31
0.0
  0
LINE
  5
159C
330
1599
100
AcDbEntity
  8
SIZE
 62
     0
370
    -2
100
AcDbLine
 10
-42831.20326757634
 20
3690.193042498668
 30
0.0
 11
-42831.20326757634
 21
3437.284494408658
 31
0.0
  0
LINE
  5
159D
330
1599
100
AcDbEntity
  8
SIZE
 62
     0
370
    -2
100
AcDbLine
 10
-43469.20326757634
 20
3457.284494408658
 30
0.0
 11
-42843.20326757634
 21
3457.284494408658
 31
0.0
  0
INSERT
  5
159E
330
1599
100
AcDbEntity
  8
SIZE
 62
     0
370
    -2
100
AcDbBlockReference
  2
_DOTBLANK
 10
-43481.20326757634
 20
3457.284494408658
 30
0.0
 41
12.0
 42
12.0
 43
12.0
 50
180.0
  0
INSERT
  5
159F
330
1599
100
AcDbEntity
  8
SIZE
 62
     0
370
    -2
100
AcDbBlockReference
  2
_DOTBLANK
 10
-42831.20326757634
 20
3457.284494408658
 30
0.0
 41
12.0
 42
12.0
 43
12.0
  0
MTEXT
  5
15A0
330
1599
100
AcDbEntity
  8
SIZE
 62
     0
100
AcDbMText
 10
-43156.20326757634
 20
3499.284494408659
 30
0.0
 40
64.0
 41
0.0
 71
     5
 72
     1
  1
\A1;650
 73
     1
 44
1.0
  0
POINT
  5
15A1
330
1599
100
AcDbEntity
  8
DEFPOINTS
 62
     0
100
AcDbPoint
 10
-43481.20326757634
 20
3710.193042498668
 30
0.0
  0
POINT
  5
15A2
330
1599
100
AcDbEntity
  8
DEFPOINTS
 62
     0
100
AcDbPoint
 10
-42831.20326757634
 20
3710.193042498668
 30
0.0
  0
POINT
  5
15A3
330
1599
100
AcDbEntity
  8
DEFPOINTS
 62
     0
100
AcDbPoint
 10
-42831.20326757634
 20
3457.284494408658
 30
0.0
  0
ENDBLK
  5
15A4
330
1599
100
AcDbEntity
  8
0
100
AcDbBlockEnd
  0
BLOCK
  5
1748
330
1747
100
AcDbEntity
  8
0
100
AcDbBlockBegin
  2
*D17
 70
     1
 10
0.0
 20
0.0
 30
0.0
  3
*D17
  1

  0
LINE
  5
17DD
330
1747
100
AcDbEntity
  8
SIZE
 62
     0
370
    -2
100
AcDbLine
 10
-342.1100000000006
 20
285.0
 30
0.0
 11
-385.8942024715578
 21
285.0000000000001
 31
0.0
  0
LINE
  5
17DE
330
1747
100
AcDbEntity
  8
SIZE
 62
     0
370
    -2
100
AcDbLine
 10
-342.1100000000006
 20
0.0000000000000057
 30
0.0
 11
-385.894202471558
 21
0.0000000000000181
 31
0.0
  0
LINE
  5
17DF
330
1747
100
AcDbEntity
  8
SIZE
 62
     0
370
    -2
100
AcDbLine
 10
-365.8942024715579
 20
273.0
 30
0.0
 11
-365.8942024715579
 21
12.00000000000001
 31
0.0
  0
INSERT
  5
17E0
330
1747
100
AcDbEntity
  8
SIZE
 62
     0
370
    -2
100
AcDbBlockReference
  2
_DOTBLANK
 10
-365.8942024715579
 20
285.0
 30
0.0
 41
12.0
 42
12.0
 43
12.0
 50
90.0
  0
INSERT
  5
17E1
330
1747
100
AcDbEntity
  8
SIZE
 62
     0
370
    -2
100
AcDbBlockReference
  2
_DOTBLANK
 10
-365.8942024715579
 20
0.0000000000000124
 30
0.0
 41
12.0
 42
12.0
 43
12.0
 50
270.0
  0
MTEXT
  5
17E2
330
1747
100
AcDbEntity
  8
SIZE
 62
     0
100
AcDbMText
 10
-407.8942024715578
 20
142.5
 30
0.0
 40
64.0
 41
0.0
 71
     5
 72
     1
  1
\A1;285
 11
0.0000000000000001
 21
1.0
 31
0.0
 73
     1
 44
1.0
  0
POINT
  5
17E3
330
1747
100
AcDbEntity
  8
DEFPOINTS
 62
     0
100
AcDbPoint
 10
-322.1100000000006
 20
285.0
 30
0.0
  0
POINT
  5
17E4
330
1747
100
AcDbEntity
  8
DEFPOINTS
 62
     0
100
AcDbPoint
 10
-322.1100000000006
 20
0.0
 30
0.0
  0
POINT
  5
17E5
330
1747
100
AcDbEntity
  8
DEFPOINTS
 62
     0
100
AcDbPoint
 10
-365.8942024715579
 20
0.0000000000000124
 30
0.0
  0
ENDBLK
  5
1749
330
1747
100
AcDbEntity
  8
0
100
AcDbBlockEnd
  0
BLOCK
  5
1754
330
1753
100
AcDbEntity
  8
0
100
AcDbBlockBegin
  2
*D18
 70
     1
 10
0.0
 20
0.0
 30
0.0
  3
*D18
  1

  0
LINE
  5
17E6
330
1753
100
AcDbEntity
  8
SIZE
 62
     0
370
    -2
100
AcDbLine
 10
-342.1100000000006
 20
0.0000000000000057
 30
0.0
 11
-385.8942024715578
 21
0.0000000000000181
 31
0.0
  0
LINE
  5
17E7
330
1753
100
AcDbEntity
  8
SIZE
 62
     0
370
    -2
100
AcDbLine
 10
-342.1100000000006
 20
-285.0000000000004
 30
0.0
 11
-385.894202471558
 21
-285.0000000000004
 31
0.0
  0
LINE
  5
17E8
330
1753
100
AcDbEntity
  8
SIZE
 62
     0
370
    -2
100
AcDbLine
 10
-365.8942024715579
 20
-11.99999999999999
 30
0.0
 11
-365.8942024715579
 21
-273.0000000000004
 31
0.0
  0
INSERT
  5
17E9
330
1753
100
AcDbEntity
  8
SIZE
 62
     0
370
    -2
100
AcDbBlockReference
  2
_DOTBLANK
 10
-365.8942024715579
 20
0.0000000000000124
 30
0.0
 41
12.0
 42
12.0
 43
12.0
 50
90.0
  0
INSERT
  5
17EA
330
1753
100
AcDbEntity
  8
SIZE
 62
     0
370
    -2
100
AcDbBlockReference
  2
_DOTBLANK
 10
-365.8942024715579
 20
-285.0000000000004
 30
0.0
 41
12.0
 42
12.0
 43
12.0
 50
270.0
  0
MTEXT
  5
17EB
330
1753
100
AcDbEntity
  8
SIZE
 62
     0
100
AcDbMText
 10
-407.8942024715578
 20
-142.5000000000002
 30
0.0
 40
64.0
 41
0.0
 71
     5
 72
     1
  1
\A1;285
 11
0.0000000000000001
 21
1.0
 31
0.0
 73
     1
 44
1.0
  0
POINT
  5
17EC
330
1753
100
AcDbEntity
  8
DEFPOINTS
 62
     0
100
AcDbPoint
 10
-322.1100000000006
 20
0.0
 30
0.0
  0
POINT
  5
17ED
330
1753
100
AcDbEntity
  8
DEFPOINTS
 62
     0
100
AcDbPoint
 10
-322.1100000000006
 20
-285.0000000000004
 30
0.0
  0
POINT
  5
17EE
330
1753
100
AcDbEntity
  8
DEFPOINTS
 62
     0
100
AcDbPoint
 10
-365.8942024715579
 20
-285.0000000000004
 30
0.0
  0
ENDBLK
  5
1755
330
1753
100
AcDbEntity
  8
0
100
AcDbBlockEnd
  0
BLOCK
  5
1760
330
175F
100
AcDbEntity
  8
0
100
AcDbBlockBegin
  2
*D19
 70
     1
 10
0.0
 20
0.0
 30
0.0
  3
*D19
  1

  0
LINE
  5
17EF
330
175F
100
AcDbEntity
  8
SIZE
 62
     0
370
    -2
100
AcDbLine
 10
-345.0
 20
-310.0000000000004
 30
0.0
 11
-506.2316423382068
 21
-310.0000000000004
 31
0.0
  0
LINE
  5
17F0
330
175F
100
AcDbEntity
  8
SIZE
 62
     0
370
    -2
100
AcDbLine
 10
-344.0
 20
310.7999999999993
 30
0.0
 11
-506.2316423382068
 21
310.7999999999993
 31
0.0
  0
LINE
  5
17F1
330
175F
100
AcDbEntity
  8
SIZE
 62
     0
370
    -2
100
AcDbLine
 10
-486.2316423382071
 20
-298.0000000000004
 30
0.0
 11
-486.2316423382071
 21
298.7999999999993
 31
0.0
  0
INSERT
  5
17F2
330
175F
100
AcDbEntity
  8
SIZE
 62
     0
370
    -2
100
AcDbBlockReference
  2
_DOTBLANK
 10
-486.2316423382071
 20
-310.0000000000004
 30
0.0
 41
12.0
 42
12.0
 43
12.0
 50
270.0
  0
INSERT
  5
17F3
330
175F
100
AcDbEntity
  8
SIZE
 62
     0
370
    -2
100
AcDbBlockReference
  2
_DOTBLANK
 10
-486.2316423382071
 20
310.7999999999993
 30
0.0
 41
12.0
 42
12.0
 43
12.0
 50
90.0
  0
MTEXT
  5
17F4
330
175F
100
AcDbEntity
  8
SIZE
 62
     0
100
AcDbMText
 10
-528.231642338207
 20
0.3999999999932749
 30
0.0
 40
64.0
 41
0.0
 71
     5
 72
     1
  1
\A1;621
 11
0.0000000000000001
 21
1.0
 31
0.0
 73
     1
 44
1.0
  0
POINT
  5
17F5
330
175F
100
AcDbEntity
  8
DEFPOINTS
 62
     0
100
AcDbPoint
 10
-325.0
 20
-310.0000000000004
 30
0.0
  0
POINT
  5
17F6
330
175F
100
AcDbEntity
  8
DEFPOINTS
 62
     0
100
AcDbPoint
 10
-324.0
 20
310.7999999999993
 30
0.0
  0
POINT
  5
17F7
330
175F
100
AcDbEntity
  8
DEFPOINTS
 62
     0
100
AcDbPoint
 10
-486.2316423382071
 20
310.7999999999993
 30
0.0
  0
ENDBLK
  5
1761
330
175F
100
AcDbEntity
  8
0
100
AcDbBlockEnd
  0
BLOCK
  5
176C
330
176B
100
AcDbEntity
  8
0
100
AcDbBlockBegin
  2
*D20
 70
     1
 10
0.0
 20
0.0
 30
0.0
  3
*D20
  1

  0
LINE
  5
17F8
330
176B
100
AcDbEntity
  8
SIZE
 62
     0
370
    -2
100
AcDbLine
 10
-319.0
 20
-312.4999999999964
 30
0.0
 11
-319.0
 21
-466.4226162865043
 31
0.0
  0
LINE
  5
17F9
330
176B
100
AcDbEntity
  8
SIZE
 62
     0
370
    -2
100
AcDbLine
 10
319.0
 20
-312.4999999999964
 30
0.0
 11
319.0
 21
-466.4226162865043
 31
0.0
  0
LINE
  5
17FA
330
176B
100
AcDbEntity
  8
SIZE
 62
     0
370
    -2
100
AcDbLine
 10
-307.0
 20
-446.4226162865043
 30
0.0
 11
307.0
 21
-446.4226162865043
 31
0.0
  0
INSERT
  5
17FB
330
176B
100
AcDbEntity
  8
SIZE
 62
     0
370
    -2
100
AcDbBlockReference
  2
_DOTBLANK
 10
-319.0
 20
-446.4226162865043
 30
0.0
 41
12.0
 42
12.0
 43
12.0
 50
180.0
  0
INSERT
  5
17FC
330
176B
100
AcDbEntity
  8
SIZE
 62
     0
370
    -2
100
AcDbBlockReference
  2
_DOTBLANK
 10
319.0
 20
-446.4226162865043
 30
0.0
 41
12.0
 42
12.0
 43
12.0
  0
MTEXT
  5
17FD
330
176B
100
AcDbEntity
  8
SIZE
 62
     0
100
AcDbMText
 10
0.0000000000000026
 20
-404.4226162865043
 30
0.0
 40
64.0
 41
0.0
 71
     5
 72
     1
  1
\A1;638
 73
     1
 44
1.0
  0
POINT
  5
17FE
330
176B
100
AcDbEntity
  8
DEFPOINTS
 62
     0
100
AcDbPoint
 10
-319.0
 20
-292.4999999999964
 30
0.0
  0
POINT
  5
17FF
330
176B
100
AcDbEntity
  8
DEFPOINTS
 62
     0
100
AcDbPoint
 10
319.0
 20
-292.4999999999964
 30
0.0
  0
POINT
  5
1800
330
176B
100
AcDbEntity
  8
DEFPOINTS
 62
     0
100
AcDbPoint
 10
319.0
 20
-446.4226162865043
 30
0.0
  0
ENDBLK
  5
176D
330
176B
100
AcDbEntity
  8
0
100
AcDbBlockEnd
  0
BLOCK
  5
1778
330
1777
100
AcDbEntity
  8
0
100
AcDbBlockBegin
  2
*D21
 70
     1
 10
0.0
 20
0.0
 30
0.0
  3
*D21
  1

  0
LINE
  5
1801
330
1777
100
AcDbEntity
  8
SIZE
 62
     0
370
    -2
100
AcDbLine
 10
-325.0
 20
-329.9999999999964
 30
0.0
 11
-325.0
 21
-582.9085480900057
 31
0.0
  0
LINE
  5
1802
330
1777
100
AcDbEntity
  8
SIZE
 62
     0
370
    -2
100
AcDbLine
 10
325.0
 20
-329.9999999999964
 30
0.0
 11
325.0
 21
-582.9085480900057
 31
0.0
  0
LINE
  5
1803
330
1777
100
AcDbEntity
  8
SIZE
 62
     0
370
    -2
100
AcDbLine
 10
-313.0
 20
-562.9085480900057
 30
0.0
 11
313.0
 21
-562.9085480900057
 31
0.0
  0
INSERT
  5
1804
330
1777
100
AcDbEntity
  8
SIZE
 62
     0
370
    -2
100
AcDbBlockReference
  2
_DOTBLANK
 10
-325.0
 20
-562.9085480900057
 30
0.0
 41
12.0
 42
12.0
 43
12.0
 50
180.0
  0
INSERT
  5
1805
330
1777
100
AcDbEntity
  8
SIZE
 62
     0
370
    -2
100
AcDbBlockReference
  2
_DOTBLANK
 10
325.0
 20
-562.9085480900057
 30
0.0
 41
12.0
 42
12.0
 43
12.0
  0
MTEXT
  5
1806
330
1777
100
AcDbEntity
  8
SIZE
 62
     0
100
AcDbMText
 10
0.0000000000000026
 20
-520.9085480900057
 30
0.0
 40
64.0
 41
0.0
 71
     5
 72
     1
  1
\A1;650
 73
     1
 44
1.0
  0
POINT
  5
1807
330
1777
100
AcDbEntity
  8
DEFPOINTS
 62
     0
100
AcDbPoint
 10
-325.0
 20
-309.9999999999964
 30
0.0
  0
POINT
  5
1808
330
1777
100
AcDbEntity
  8
DEFPOINTS
 62
     0
100
AcDbPoint
 10
325.0
 20
-309.9999999999964
 30
0.0
  0
POINT
  5
1809
330
1777
100
AcDbEntity
  8
DEFPOINTS
 62
     0
100
AcDbPoint
 10
325.0
 20
-562.9085480900057
 30
0.0
  0
ENDBLK
  5
1779
330
1777
100
AcDbEntity
  8
0
100
AcDbBlockEnd
  0
BLOCK
  5
1900
330
18FF
100
AcDbEntity
  8
0
100
AcDbBlockBegin
  2
*D22
 70
     1
 10
0.0
 20
0.0
 30
0.0
  3
*D22
  1

  0
LINE
  5
1901
330
18FF
100
AcDbEntity
  8
SIZE
  6
Continuous
 62
     0
370
    -2
100
AcDbLine
 10
-45355.37866409504
 20
4274.137030641877
 30
0.0
 11
-45355.37866409504
 21
4370.605303344865
 31
0.0
  0
LINE
  5
1902
330
18FF
100
AcDbEntity
  8
SIZE
  6
Continuous
 62
     0
370
    -2
100
AcDbLine
 10
-45026.57866409506
 20
4274.137030641885
 30
0.0
 11
-45026.57866409506
 21
4370.605303344865
 31
0.0
  0
LINE
  5
1903
330
18FF
100
AcDbEntity
  8
SIZE
  6
Continuous
 62
     0
370
    -2
100
AcDbLine
 10
-45343.37866409503
 20
4350.605303344867
 30
0.0
 11
-45038.57866409505
 21
4350.605303344867
 31
0.0
  0
INSERT
  5
1904
330
18FF
100
AcDbEntity
  8
SIZE
  6
Continuous
 62
     0
370
    -2
100
AcDbBlockReference
  2
_DOTBLANK
 10
-45355.37866409504
 20
4350.605303344867
 30
0.0
 41
12.0
 42
12.0
 43
12.0
 50
180.0
  0
INSERT
  5
1905
330
18FF
100
AcDbEntity
  8
SIZE
  6
Continuous
 62
     0
370
    -2
100
AcDbBlockReference
  2
_DOTBLANK
 10
-45026.57866409506
 20
4350.605303344867
 30
0.0
 41
12.0
 42
12.0
 43
12.0
  0
MTEXT
  5
1906
330
18FF
100
AcDbEntity
  8
SIZE
  6
Continuous
 62
     0
100
AcDbMText
 10
-45190.97866409505
 20
4392.605303344867
 30
0.0
 40
64.0
 41
0.0
 71
     5
 72
     1
  1
\A1;329
 73
     1
 44
1.0
  0
POINT
  5
1907
330
18FF
100
AcDbEntity
  8
DEFPOINTS
  6
Continuous
 62
     0
100
AcDbPoint
 10
-45355.37866409504
 20
4254.137030641873
 30
0.0
  0
POINT
  5
1908
330
18FF
100
AcDbEntity
  8
DEFPOINTS
  6
Continuous
 62
     0
100
AcDbPoint
 10
-45026.57866409506
 20
4254.137030641884
 30
0.0
  0
POINT
  5
1909
330
18FF
100
AcDbEntity
  8
DEFPOINTS
  6
Continuous
 62
     0
100
AcDbPoint
 10
-45026.57866409506
 20
4350.605303344867
 30
0.0
  0
ENDBLK
  5
190A
330
18FF
100
AcDbEntity
  8
0
100
AcDbBlockEnd
  0
BLOCK
  5
190C
330
190B
100
AcDbEntity
  8
0
100
AcDbBlockBegin
  2
*D23
 70
     1
 10
0.0
 20
0.0
 30
0.0
  3
*D23
  1

  0
LINE
  5
190D
330
190B
100
AcDbEntity
  8
SIZE
  6
Continuous
 62
     0
370
    -2
100
AcDbLine
 10
-45026.57866409506
 20
4274.137030641885
 30
0.0
 11
-45026.57866409506
 21
4370.605303344865
 31
0.0
  0
LINE
  5
190E
330
190B
100
AcDbEntity
  8
SIZE
  6
Continuous
 62
     0
370
    -2
100
AcDbLine
 10
-44722.57866409506
 20
4274.137030641892
 30
0.0
 11
-44722.57866409506
 21
4370.605303344865
 31
0.0
  0
LINE
  5
190F
330
190B
100
AcDbEntity
  8
SIZE
  6
Continuous
 62
     0
370
    -2
100
AcDbLine
 10
-45014.57866409506
 20
4350.605303344867
 30
0.0
 11
-44734.57866409506
 21
4350.605303344867
 31
0.0
  0
INSERT
  5
1910
330
190B
100
AcDbEntity
  8
SIZE
  6
Continuous
 62
     0
370
    -2
100
AcDbBlockReference
  2
_DOTBLANK
 10
-45026.57866409506
 20
4350.605303344867
 30
0.0
 41
12.0
 42
12.0
 43
12.0
 50
180.0
  0
INSERT
  5
1911
330
190B
100
AcDbEntity
  8
SIZE
  6
Continuous
 62
     0
370
    -2
100
AcDbBlockReference
  2
_DOTBLANK
 10
-44722.57866409506
 20
4350.605303344867
 30
0.0
 41
12.0
 42
12.0
 43
12.0
  0
MTEXT
  5
1912
330
190B
100
AcDbEntity
  8
SIZE
  6
Continuous
 62
     0
100
AcDbMText
 10
-44874.57866409505
 20
4392.605303344867
 30
0.0
 40
64.0
 41
0.0
 71
     5
 72
     1
  1
\A1;304
 73
     1
 44
1.0
  0
POINT
  5
1913
330
190B
100
AcDbEntity
  8
DEFPOINTS
  6
Continuous
 62
     0
100
AcDbPoint
 10
-45026.57866409506
 20
4254.137030641884
 30
0.0
  0
POINT
  5
1914
330
190B
100
AcDbEntity
  8
DEFPOINTS
  6
Continuous
 62
     0
100
AcDbPoint
 10
-44722.57866409506
 20
4254.137030641891
 30
0.0
  0
POINT
  5
1915
330
190B
100
AcDbEntity
  8
DEFPOINTS
  6
Continuous
 62
     0
100
AcDbPoint
 10
-44722.57866409506
 20
4350.605303344867
 30
0.0
  0
ENDBLK
  5
1916
330
190B
100
AcDbEntity
  8
0
100
AcDbBlockEnd
  0
BLOCK
  5
1918
330
1917
100
AcDbEntity
  8
0
100
AcDbBlockBegin
  2
*D24
 70
     1
 10
0.0
 20
0.0
 30
0.0
  3
*D24
  1

  0
LINE
  5
1919
330
1917
100
AcDbEntity
  8
SIZE
  6
Continuous
 62
     0
370
    -2
100
AcDbLine
 10
-45391.07866409503
 20
4074.61618444625
 30
0.0
 11
-45539.75737199871
 21
4074.61618444625
 31
0.0
  0
LINE
  5
191A
330
1917
100
AcDbEntity
  8
SIZE
  6
Continuous
 62
     0
370
    -2
100
AcDbLine
 10
-45391.07866409503
 20
3666.616184446249
 30
0.0
 11
-45539.75737199871
 21
3666.616184446249
 31
0.0
  0
LINE
  5
191B
330
1917
100
AcDbEntity
  8
SIZE
  6
Continuous
 62
     0
370
    -2
100
AcDbLine
 10
-45519.75737199871
 20
4062.616184446246
 30
0.0
 11
-45519.75737199871
 21
3678.616184446248
 31
0.0
  0
INSERT
  5
191C
330
1917
100
AcDbEntity
  8
SIZE
  6
Continuous
 62
     0
370
    -2
100
AcDbBlockReference
  2
_DOTBLANK
 10
-45519.75737199871
 20
4074.61618444625
 30
0.0
 41
12.0
 42
12.0
 43
12.0
 50
90.0
  0
INSERT
  5
191D
330
1917
100
AcDbEntity
  8
SIZE
  6
Continuous
 62
     0
370
    -2
100
AcDbBlockReference
  2
_DOTBLANK
 10
-45519.75737199871
 20
3666.616184446249
 30
0.0
 41
12.0
 42
12.0
 43
12.0
 50
270.0
  0
MTEXT
  5
191E
330
1917
100
AcDbEntity
  8
SIZE
  6
Continuous
 62
     0
100
AcDbMText
 10
-45561.75737199871
 20
3870.616184446242
 30
0.0
 40
64.0
 41
0.0
 71
     5
 72
     1
  1
\A1;408
 11
0.0000000000000001
 21
1.0
 31
0.0
 73
     1
 44
1.0
  0
POINT
  5
191F
330
1917
100
AcDbEntity
  8
DEFPOINTS
  6
Continuous
 62
     0
100
AcDbPoint
 10
-45371.07866409503
 20
4074.61618444625
 30
0.0
  0
POINT
  5
1920
330
1917
100
AcDbEntity
  8
DEFPOINTS
  6
Continuous
 62
     0
100
AcDbPoint
 10
-45371.07866409503
 20
3666.616184446249
 30
0.0
  0
POINT
  5
1921
330
1917
100
AcDbEntity
  8
DEFPOINTS
  6
Continuous
 62
     0
100
AcDbPoint
 10
-45519.75737199871
 20
3666.616184446249
 30
0.0
  0
ENDBLK
  5
1922
330
1917
100
AcDbEntity
  8
0
100
AcDbBlockEnd
  0
BLOCK
  5
1924
330
1923
100
AcDbEntity
  8
0
100
AcDbBlockBegin
  2
*D25
 70
     1
 10
0.0
 20
0.0
 30
0.0
  3
*D25
  1

  0
LINE
  5
1925
330
1923
100
AcDbEntity
  8
SIZE
  6
Continuous
 62
     0
370
    -2
100
AcDbLine
 10
-45391.07866409503
 20
3666.616184446249
 30
0.0
 11
-45539.75737199871
 21
3666.616184446249
 31
0.0
  0
LINE
  5
1926
330
1923
100
AcDbEntity
  8
SIZE
  6
Continuous
 62
     0
370
    -2
100
AcDbLine
 10
-45391.07866409503
 20
3136.216184446249
 30
0.0
 11
-45539.75737199871
 21
3136.216184446249
 31
0.0
  0
LINE
  5
1927
330
1923
100
AcDbEntity
  8
SIZE
  6
Continuous
 62
     0
370
    -2
100
AcDbLine
 10
-45519.75737199871
 20
3654.616184446249
 30
0.0
 11
-45519.75737199871
 21
3148.216184446249
 31
0.0
  0
INSERT
  5
1928
330
1923
100
AcDbEntity
  8
SIZE
  6
Continuous
 62
     0
370
    -2
100
AcDbBlockReference
  2
_DOTBLANK
 10
-45519.75737199871
 20
3666.616184446249
 30
0.0
 41
12.0
 42
12.0
 43
12.0
 50
90.0
  0
INSERT
  5
1929
330
1923
100
AcDbEntity
  8
SIZE
  6
Continuous
 62
     0
370
    -2
100
AcDbBlockReference
  2
_DOTBLANK
 10
-45519.75737199871
 20
3136.216184446249
 30
0.0
 41
12.0
 42
12.0
 43
12.0
 50
270.0
  0
MTEXT
  5
192A
330
1923
100
AcDbEntity
  8
SIZE
  6
Continuous
 62
     0
100
AcDbMText
 10
-45561.75737199871
 20
3401.416184446242
 30
0.0
 40
64.0
 41
0.0
 71
     5
 72
     1
  1
\A1;530
 11
0.0000000000000001
 21
1.0
 31
0.0
 73
     1
 44
1.0
  0
POINT
  5
192B
330
1923
100
AcDbEntity
  8
DEFPOINTS
  6
Continuous
 62
     0
100
AcDbPoint
 10
-45371.07866409503
 20
3666.616184446249
 30
0.0
  0
POINT
  5
192C
330
1923
100
AcDbEntity
  8
DEFPOINTS
  6
Continuous
 62
     0
100
AcDbPoint
 10
-45371.07866409503
 20
3136.216184446249
 30
0.0
  0
POINT
  5
192D
330
1923
100
AcDbEntity
  8
DEFPOINTS
  6
Continuous
 62
     0
100
AcDbPoint
 10
-45519.75737199871
 20
3136.216184446249
 30
0.0
  0
ENDBLK
  5
192E
330
1923
100
AcDbEntity
  8
0
100
AcDbBlockEnd
  0
BLOCK
  5
1930
330
192F
100
AcDbEntity
  8
0
100
AcDbBlockBegin
  2
*D26
 70
     1
 10
0.0
 20
0.0
 30
0.0
  3
*D26
  1

  0
LINE
  5
1931
330
192F
100
AcDbEntity
  8
SIZE
  6
Continuous
 62
     0
370
    -2
100
AcDbLine
 10
-45389.07866409505
 20
4251.637030641876
 30
0.0
 11
-45670.84006611842
 21
4251.637030641876
 31
0.0
  0
LINE
  5
1932
330
192F
100
AcDbEntity
  8
SIZE
  6
Continuous
 62
     0
370
    -2
100
AcDbLine
 10
-45392.17866409503
 20
2996.416184446248
 30
0.0
 11
-45670.84006611842
 21
2996.416184446248
 31
0.0
  0
LINE
  5
1933
330
192F
100
AcDbEntity
  8
SIZE
  6
Continuous
 62
     0
370
    -2
100
AcDbLine
 10
-45650.84006611844
 20
4239.637030641875
 30
0.0
 11
-45650.84006611844
 21
3008.416184446248
 31
0.0
  0
INSERT
  5
1934
330
192F
100
AcDbEntity
  8
SIZE
  6
Continuous
 62
     0
370
    -2
100
AcDbBlockReference
  2
_DOTBLANK
 10
-45650.84006611844
 20
4251.637030641876
 30
0.0
 41
12.0
 42
12.0
 43
12.0
 50
90.0
  0
INSERT
  5
1935
330
192F
100
AcDbEntity
  8
SIZE
  6
Continuous
 62
     0
370
    -2
100
AcDbBlockReference
  2
_DOTBLANK
 10
-45650.84006611844
 20
2996.416184446248
 30
0.0
 41
12.0
 42
12.0
 43
12.0
 50
270.0
  0
MTEXT
  5
1936
330
192F
100
AcDbEntity
  8
SIZE
  6
Continuous
 62
     0
100
AcDbMText
 10
-45692.84006611844
 20
3624.026607544055
 30
0.0
 40
64.0
 41
0.0
 71
     5
 72
     1
  1
\A1;1255
 11
0.0000000000000001
 21
1.0
 31
0.0
 73
     1
 44
1.0
  0
POINT
  5
1937
330
192F
100
AcDbEntity
  8
DEFPOINTS
  6
Continuous
 62
     0
100
AcDbPoint
 10
-45369.07866409506
 20
4251.637030641876
 30
0.0
  0
POINT
  5
1938
330
192F
100
AcDbEntity
  8
DEFPOINTS
  6
Continuous
 62
     0
100
AcDbPoint
 10
-45372.17866409505
 20
2996.416184446248
 30
0.0
  0
POINT
  5
1939
330
192F
100
AcDbEntity
  8
DEFPOINTS
  6
Continuous
 62
     0
100
AcDbPoint
 10
-45650.84006611844
 20
2996.416184446248
 30
0.0
  0
ENDBLK
  5
193A
330
192F
100
AcDbEntity
  8
0
100
AcDbBlockEnd
  0
BLOCK
  5
193C
330
193B
100
AcDbEntity
  8
0
100
AcDbBlockBegin
  2
*D27
 70
     1
 10
0.0
 20
0.0
 30
0.0
  3
*D27
  1

  0
LINE
  5
193D
330
193B
100
AcDbEntity
  8
SIZE
  6
Continuous
 62
     0
370
    -2
100
AcDbLine
 10
-45363.57866409503
 20
3108.716184446249
 30
0.0
 11
-45363.57866409503
 21
2831.807994652447
 31
0.0
  0
LINE
  5
193E
330
193B
100
AcDbEntity
  8
SIZE
  6
Continuous
 62
     0
370
    -2
100
AcDbLine
 10
-44641.57866409503
 20
3108.716184446249
 30
0.0
 11
-44641.57866409503
 21
2831.807994652447
 31
0.0
  0
LINE
  5
193F
330
193B
100
AcDbEntity
  8
SIZE
  6
Continuous
 62
     0
370
    -2
100
AcDbLine
 10
-45351.57866409504
 20
2851.807994652446
 30
0.0
 11
-44653.57866409503
 21
2851.807994652446
 31
0.0
  0
INSERT
  5
1940
330
193B
100
AcDbEntity
  8
SIZE
  6
Continuous
 62
     0
370
    -2
100
AcDbBlockReference
  2
_DOTBLANK
 10
-45363.57866409503
 20
2851.807994652446
 30
0.0
 41
12.0
 42
12.0
 43
12.0
 50
180.0
  0
INSERT
  5
1941
330
193B
100
AcDbEntity
  8
SIZE
  6
Continuous
 62
     0
370
    -2
100
AcDbBlockReference
  2
_DOTBLANK
 10
-44641.57866409503
 20
2851.807994652446
 30
0.0
 41
12.0
 42
12.0
 43
12.0
  0
MTEXT
  5
1942
330
193B
100
AcDbEntity
  8
SIZE
  6
Continuous
 62
     0
100
AcDbMText
 10
-45002.57866409504
 20
2893.807994652446
 30
0.0
 40
64.0
 41
0.0
 71
     5
 72
     1
  1
\A1;722
 73
     1
 44
1.0
  0
POINT
  5
1943
330
193B
100
AcDbEntity
  8
DEFPOINTS
  6
Continuous
 62
     0
100
AcDbPoint
 10
-45363.57866409503
 20
3128.716184446249
 30
0.0
  0
POINT
  5
1944
330
193B
100
AcDbEntity
  8
DEFPOINTS
  6
Continuous
 62
     0
100
AcDbPoint
 10
-44641.57866409503
 20
3128.716184446249
 30
0.0
  0
POINT
  5
1945
330
193B
100
AcDbEntity
  8
DEFPOINTS
  6
Continuous
 62
     0
100
AcDbPoint
 10
-44641.57866409503
 20
2851.807994652446
 30
0.0
  0
ENDBLK
  5
1946
330
193B
100
AcDbEntity
  8
0
100
AcDbBlockEnd
  0
BLOCK
  5
1948
330
1947
100
AcDbEntity
  8
0
100
AcDbBlockBegin
  2
*D28
 70
     1
 10
0.0
 20
0.0
 30
0.0
  3
*D28
  1

  0
LINE
  5
1949
330
1947
100
AcDbEntity
  8
SIZE
  6
Continuous
 62
     0
370
    -2
100
AcDbLine
 10
-45373.07866409505
 20
2977.625945461523
 30
0.0
 11
-45373.07866409505
 21
2732.634410163454
 31
0.0
  0
LINE
  5
194A
330
1947
100
AcDbEntity
  8
SIZE
  6
Continuous
 62
     0
370
    -2
100
AcDbLine
 10
-44633.07866409504
 20
2976.416184446249
 30
0.0
 11
-44633.07866409504
 21
2732.634410163454
 31
0.0
  0
LINE
  5
194B
330
1947
100
AcDbEntity
  8
SIZE
  6
Continuous
 62
     0
370
    -2
100
AcDbLine
 10
-45361.07866409504
 20
2752.634410163454
 30
0.0
 11
-44645.07866409504
 21
2752.634410163454
 31
0.0
  0
INSERT
  5
194C
330
1947
100
AcDbEntity
  8
SIZE
  6
Continuous
 62
     0
370
    -2
100
AcDbBlockReference
  2
_DOTBLANK
 10
-45373.07866409505
 20
2752.634410163454
 30
0.0
 41
12.0
 42
12.0
 43
12.0
 50
180.0
  0
INSERT
  5
194D
330
1947
100
AcDbEntity
  8
SIZE
  6
Continuous
 62
     0
370
    -2
100
AcDbBlockReference
  2
_DOTBLANK
 10
-44633.07866409504
 20
2752.634410163454
 30
0.0
 41
12.0
 42
12.0
 43
12.0
  0
MTEXT
  5
194E
330
1947
100
AcDbEntity
  8
SIZE
  6
Continuous
 62
     0
100
AcDbMText
 10
-45003.07866409504
 20
2794.634410163454
 30
0.0
 40
64.0
 41
0.0
 71
     5
 72
     1
  1
\A1;740
 73
     1
 44
1.0
  0
POINT
  5
194F
330
1947
100
AcDbEntity
  8
DEFPOINTS
  6
Continuous
 62
     0
100
AcDbPoint
 10
-45373.07866409505
 20
2997.625945461523
 30
0.0
  0
POINT
  5
1950
330
1947
100
AcDbEntity
  8
DEFPOINTS
  6
Continuous
 62
     0
100
AcDbPoint
 10
-44633.07866409504
 20
2996.416184446249
 30
0.0
  0
POINT
  5
1951
330
1947
100
AcDbEntity
  8
DEFPOINTS
  6
Continuous
 62
     0
100
AcDbPoint
 10
-44633.07866409504
 20
2752.634410163454
 30
0.0
  0
ENDBLK
  5
1952
330
1947
100
AcDbEntity
  8
0
100
AcDbBlockEnd
  0
BLOCK
  5
1BCB
330
1BCA
100
AcDbEntity
  8
0
100
AcDbBlockBegin
  2
*D29
 70
     1
 10
0.0
 20
0.0
 30
0.0
  3
*D29
  1

  0
LINE
  5
1C1E
330
1BCA
100
AcDbEntity
  8
SIZE
  6
Continuous
 62
     0
370
    -2
100
AcDbLine
 10
-352.8000000000174
 20
650.1104230978094
 30
0.0
 11
-352.8000000000174
 21
746.5786958008003
 31
0.0
  0
LINE
  5
1C1F
330
1BCA
100
AcDbEntity
  8
SIZE
  6
Continuous
 62
     0
370
    -2
100
AcDbLine
 10
-24.00000000001455
 20
650.1104230978185
 30
0.0
 11
-24.00000000001455
 21
746.5786958008003
 31
0.0
  0
LINE
  5
1C20
330
1BCA
100
AcDbEntity
  8
SIZE
  6
Continuous
 62
     0
370
    -2
100
AcDbLine
 10
-340.8000000000175
 20
726.5786958008008
 30
0.0
 11
-36.00000000001454
 21
726.5786958008008
 31
0.0
  0
INSERT
  5
1C21
330
1BCA
100
AcDbEntity
  8
SIZE
  6
Continuous
 62
     0
370
    -2
100
AcDbBlockReference
  2
_DOTBLANK
 10
-352.8000000000174
 20
726.5786958008008
 30
0.0
 41
12.0
 42
12.0
 43
12.0
 50
180.0
  0
INSERT
  5
1C22
330
1BCA
100
AcDbEntity
  8
SIZE
  6
Continuous
 62
     0
370
    -2
100
AcDbBlockReference
  2
_DOTBLANK
 10
-24.00000000001455
 20
726.5786958008008
 30
0.0
 41
12.0
 42
12.0
 43
12.0
  0
MTEXT
  5
1C23
330
1BCA
100
AcDbEntity
  8
SIZE
  6
Continuous
 62
     0
100
AcDbMText
 10
-188.400000000016
 20
768.5786958008008
 30
0.0
 40
64.0
 41
0.0
 71
     5
 72
     1
  1
\A1;329
 73
     1
 44
1.0
  0
POINT
  5
1C24
330
1BCA
100
AcDbEntity
  8
DEFPOINTS
  6
Continuous
 62
     0
100
AcDbPoint
 10
-352.8000000000174
 20
630.1104230978094
 30
0.0
  0
POINT
  5
1C25
330
1BCA
100
AcDbEntity
  8
DEFPOINTS
  6
Continuous
 62
     0
100
AcDbPoint
 10
-24.00000000001455
 20
630.1104230978185
 30
0.0
  0
POINT
  5
1C26
330
1BCA
100
AcDbEntity
  8
DEFPOINTS
  6
Continuous
 62
     0
100
AcDbPoint
 10
-24.00000000001455
 20
726.5786958008008
 30
0.0
  0
ENDBLK
  5
1BCC
330
1BCA
100
AcDbEntity
  8
0
100
AcDbBlockEnd
  0
BLOCK
  5
1BD7
330
1BD6
100
AcDbEntity
  8
0
100
AcDbBlockBegin
  2
*D30
 70
     1
 10
0.0
 20
0.0
 30
0.0
  3
*D30
  1

  0
LINE
  5
1C27
330
1BD6
100
AcDbEntity
  8
SIZE
  6
Continuous
 62
     0
370
    -2
100
AcDbLine
 10
-24.00000000001455
 20
650.1104230978185
 30
0.0
 11
-24.00000000001455
 21
746.5786958008003
 31
0.0
  0
LINE
  5
1C28
330
1BD6
100
AcDbEntity
  8
SIZE
  6
Continuous
 62
     0
370
    -2
100
AcDbLine
 10
279.9999999999855
 20
650.1104230978257
 30
0.0
 11
279.9999999999855
 21
746.5786958008003
 31
0.0
  0
LINE
  5
1C29
330
1BD6
100
AcDbEntity
  8
SIZE
  6
Continuous
 62
     0
370
    -2
100
AcDbLine
 10
-12.00000000001454
 20
726.5786958008008
 30
0.0
 11
267.9999999999854
 21
726.5786958008008
 31
0.0
  0
INSERT
  5
1C2A
330
1BD6
100
AcDbEntity
  8
SIZE
  6
Continuous
 62
     0
370
    -2
100
AcDbBlockReference
  2
_DOTBLANK
 10
-24.00000000001455
 20
726.5786958008008
 30
0.0
 41
12.0
 42
12.0
 43
12.0
 50
180.0
  0
INSERT
  5
1C2B
330
1BD6
100
AcDbEntity
  8
SIZE
  6
Continuous
 62
     0
370
    -2
100
AcDbBlockReference
  2
_DOTBLANK
 10
279.9999999999855
 20
726.5786958008008
 30
0.0
 41
12.0
 42
12.0
 43
12.0
  0
MTEXT
  5
1C2C
330
1BD6
100
AcDbEntity
  8
SIZE
  6
Continuous
 62
     0
100
AcDbMText
 10
127.9999999999854
 20
768.5786958008008
 30
0.0
 40
64.0
 41
0.0
 71
     5
 72
     1
  1
\A1;304
 73
     1
 44
1.0
  0
POINT
  5
1C2D
330
1BD6
100
AcDbEntity
  8
DEFPOINTS
  6
Continuous
 62
     0
100
AcDbPoint
 10
-24.00000000001455
 20
630.1104230978185
 30
0.0
  0
POINT
  5
1C2E
330
1BD6
100
AcDbEntity
  8
DEFPOINTS
  6
Continuous
 62
     0
100
AcDbPoint
 10
279.9999999999855
 20
630.1104230978258
 30
0.0
  0
POINT
  5
1C2F
330
1BD6
100
AcDbEntity
  8
DEFPOINTS
  6
Continuous
 62
     0
100
AcDbPoint
 10
279.9999999999855
 20
726.5786958008008
 30
0.0
  0
ENDBLK
  5
1BD8
330
1BD6
100
AcDbEntity
  8
0
100
AcDbBlockEnd
  0
BLOCK
  5
1BE3
330
1BE2
100
AcDbEntity
  8
0
100
AcDbBlockBegin
  2
*D31
 70
     1
 10
0.0
 20
0.0
 30
0.0
  3
*D31
  1

  0
LINE
  5
1C30
330
1BE2
100
AcDbEntity
  8
SIZE
  6
Continuous
 62
     0
370
    -2
100
AcDbLine
 10
-388.5
 20
450.5895769021831
 30
0.0
 11
-537.1787079036656
 21
450.5895769021831
 31
0.0
  0
LINE
  5
1C31
330
1BE2
100
AcDbEntity
  8
SIZE
  6
Continuous
 62
     0
370
    -2
100
AcDbLine
 10
-388.5
 20
42.5895769021822
 30
0.0
 11
-537.1787079036656
 21
42.58957690218226
 31
0.0
  0
LINE
  5
1C32
330
1BE2
100
AcDbEntity
  8
SIZE
  6
Continuous
 62
     0
370
    -2
100
AcDbLine
 10
-517.1787079036656
 20
438.5895769021831
 30
0.0
 11
-517.1787079036659
 21
54.58957690218224
 31
0.0
  0
INSERT
  5
1C33
330
1BE2
100
AcDbEntity
  8
SIZE
  6
Continuous
 62
     0
370
    -2
100
AcDbBlockReference
  2
_DOTBLANK
 10
-517.1787079036656
 20
450.5895769021831
 30
0.0
 41
12.0
 42
12.0
 43
12.0
 50
90.0
  0
INSERT
  5
1C34
330
1BE2
100
AcDbEntity
  8
SIZE
  6
Continuous
 62
     0
370
    -2
100
AcDbBlockReference
  2
_DOTBLANK
 10
-517.1787079036659
 20
42.58957690218225
 30
0.0
 41
12.0
 42
12.0
 43
12.0
 50
270.0
  0
MTEXT
  5
1C35
330
1BE2
100
AcDbEntity
  8
SIZE
  6
Continuous
 62
     0
100
AcDbMText
 10
-559.1787079036659
 20
246.5895769021826
 30
0.0
 40
64.0
 41
0.0
 71
     5
 72
     1
  1
\A1;408
 11
0.0000000000000001
 21
1.0
 31
0.0
 73
     1
 44
1.0
  0
POINT
  5
1C36
330
1BE2
100
AcDbEntity
  8
DEFPOINTS
  6
Continuous
 62
     0
100
AcDbPoint
 10
-368.5
 20
450.5895769021831
 30
0.0
  0
POINT
  5
1C37
330
1BE2
100
AcDbEntity
  8
DEFPOINTS
  6
Continuous
 62
     0
100
AcDbPoint
 10
-368.5
 20
42.5895769021822
 30
0.0
  0
POINT
  5
1C38
330
1BE2
100
AcDbEntity
  8
DEFPOINTS
  6
Continuous
 62
     0
100
AcDbPoint
 10
-517.1787079036659
 20
42.58957690218225
 30
0.0
  0
ENDBLK
  5
1BE4
330
1BE2
100
AcDbEntity
  8
0
100
AcDbBlockEnd
  0
BLOCK
  5
1BEF
330
1BEE
100
AcDbEntity
  8
0
100
AcDbBlockBegin
  2
*D32
 70
     1
 10
0.0
 20
0.0
 30
0.0
  3
*D32
  1

  0
LINE
  5
1C39
330
1BEE
100
AcDbEntity
  8
SIZE
  6
Continuous
 62
     0
370
    -2
100
AcDbLine
 10
-388.5
 20
42.5895769021822
 30
0.0
 11
-537.1787079036656
 21
42.58957690218226
 31
0.0
  0
LINE
  5
1C3A
330
1BEE
100
AcDbEntity
  8
SIZE
  6
Continuous
 62
     0
370
    -2
100
AcDbLine
 10
-388.5
 20
-487.8104230978178
 30
0.0
 11
-537.1787079036656
 21
-487.8104230978178
 31
0.0
  0
LINE
  5
1C3B
330
1BEE
100
AcDbEntity
  8
SIZE
  6
Continuous
 62
     0
370
    -2
100
AcDbLine
 10
-517.1787079036656
 20
30.58957690218225
 30
0.0
 11
-517.1787079036659
 21
-475.8104230978178
 31
0.0
  0
INSERT
  5
1C3C
330
1BEE
100
AcDbEntity
  8
SIZE
  6
Continuous
 62
     0
370
    -2
100
AcDbBlockReference
  2
_DOTBLANK
 10
-517.1787079036656
 20
42.58957690218225
 30
0.0
 41
12.0
 42
12.0
 43
12.0
 50
90.0
  0
INSERT
  5
1C3D
330
1BEE
100
AcDbEntity
  8
SIZE
  6
Continuous
 62
     0
370
    -2
100
AcDbBlockReference
  2
_DOTBLANK
 10
-517.1787079036659
 20
-487.8104230978178
 30
0.0
 41
12.0
 42
12.0
 43
12.0
 50
270.0
  0
MTEXT
  5
1C3E
330
1BEE
100
AcDbEntity
  8
SIZE
  6
Continuous
 62
     0
100
AcDbMText
 10
-559.1787079036656
 20
-222.6104230978179
 30
0.0
 40
64.0
 41
0.0
 71
     5
 72
     1
  1
\A1;530
 11
0.0000000000000001
 21
1.0
 31
0.0
 73
     1
 44
1.0
  0
POINT
  5
1C3F
330
1BEE
100
AcDbEntity
  8
DEFPOINTS
  6
Continuous
 62
     0
100
AcDbPoint
 10
-368.5
 20
42.5895769021822
 30
0.0
  0
POINT
  5
1C40
330
1BEE
100
AcDbEntity
  8
DEFPOINTS
  6
Continuous
 62
     0
100
AcDbPoint
 10
-368.5
 20
-487.8104230978178
 30
0.0
  0
POINT
  5
1C41
330
1BEE
100
AcDbEntity
  8
DEFPOINTS
  6
Continuous
 62
     0
100
AcDbPoint
 10
-517.1787079036659
 20
-487.8104230978178
 30
0.0
  0
ENDBLK
  5
1BF0
330
1BEE
100
AcDbEntity
  8
0
100
AcDbBlockEnd
  0
BLOCK
  5
1BFB
330
1BFA
100
AcDbEntity
  8
0
100
AcDbBlockBegin
  2
*D33
 70
     1
 10
0.0
 20
0.0
 30
0.0
  3
*D33
  1

  0
LINE
  5
1C42
330
1BFA
100
AcDbEntity
  8
SIZE
  6
Continuous
 62
     0
370
    -2
100
AcDbLine
 10
-386.5000000000145
 20
627.6104230978094
 30
0.0
 11
-668.2614020234102
 21
627.6104230978094
 31
0.0
  0
LINE
  5
1C43
330
1BFA
100
AcDbEntity
  8
SIZE
  6
Continuous
 62
     0
370
    -2
100
AcDbLine
 10
-389.5999999999986
 20
-627.6104230978177
 30
0.0
 11
-668.2614020234105
 21
-627.6104230978177
 31
0.0
  0
LINE
  5
1C44
330
1BFA
100
AcDbEntity
  8
SIZE
  6
Continuous
 62
     0
370
    -2
100
AcDbLine
 10
-648.2614020234102
 20
615.6104230978094
 30
0.0
 11
-648.2614020234104
 21
-615.6104230978177
 31
0.0
  0
INSERT
  5
1C45
330
1BFA
100
AcDbEntity
  8
SIZE
  6
Continuous
 62
     0
370
    -2
100
AcDbBlockReference
  2
_DOTBLANK
 10
-648.2614020234102
 20
627.6104230978094
 30
0.0
 41
12.0
 42
12.0
 43
12.0
 50
90.0
  0
INSERT
  5
1C46
330
1BFA
100
AcDbEntity
  8
SIZE
  6
Continuous
 62
     0
370
    -2
100
AcDbBlockReference
  2
_DOTBLANK
 10
-648.2614020234104
 20
-627.6104230978177
 30
0.0
 41
12.0
 42
12.0
 43
12.0
 50
270.0
  0
MTEXT
  5
1C47
330
1BFA
100
AcDbEntity
  8
SIZE
  6
Continuous
 62
     0
100
AcDbMText
 10
-690.2614020234101
 20
-0.0000000000043889
 30
0.0
 40
64.0
 41
0.0
 71
     5
 72
     1
  1
\A1;1255
 11
0.0000000000000001
 21
1.0
 31
0.0
 73
     1
 44
1.0
  0
POINT
  5
1C48
330
1BFA
100
AcDbEntity
  8
DEFPOINTS
  6
Continuous
 62
     0
100
AcDbPoint
 10
-366.5000000000147
 20
627.6104230978094
 30
0.0
  0
POINT
  5
1C49
330
1BFA
100
AcDbEntity
  8
DEFPOINTS
  6
Continuous
 62
     0
100
AcDbPoint
 10
-369.5999999999985
 20
-627.6104230978177
 30
0.0
  0
POINT
  5
1C4A
330
1BFA
100
AcDbEntity
  8
DEFPOINTS
  6
Continuous
 62
     0
100
AcDbPoint
 10
-648.2614020234104
 20
-627.6104230978177
 30
0.0
  0
ENDBLK
  5
1BFC
330
1BFA
100
AcDbEntity
  8
0
100
AcDbBlockEnd
  0
BLOCK
  5
1C07
330
1C06
100
AcDbEntity
  8
0
100
AcDbBlockBegin
  2
*D34
 70
     1
 10
0.0
 20
0.0
 30
0.0
  3
*D34
  1

  0
LINE
  5
1C4B
330
1C06
100
AcDbEntity
  8
SIZE
  6
Continuous
 62
     0
370
    -2
100
AcDbLine
 10
-361.0
 20
-515.3104230978178
 30
0.0
 11
-361.0
 21
-792.2186128916205
 31
0.0
  0
LINE
  5
1C4C
330
1C06
100
AcDbEntity
  8
SIZE
  6
Continuous
 62
     0
370
    -2
100
AcDbLine
 10
361.0000000000145
 20
-515.3104230978174
 30
0.0
 11
361.0000000000145
 21
-792.2186128916205
 31
0.0
  0
LINE
  5
1C4D
330
1C06
100
AcDbEntity
  8
SIZE
  6
Continuous
 62
     0
370
    -2
100
AcDbLine
 10
-349.0
 20
-772.2186128916205
 30
0.0
 11
349.0000000000145
 21
-772.2186128916205
 31
0.0
  0
INSERT
  5
1C4E
330
1C06
100
AcDbEntity
  8
SIZE
  6
Continuous
 62
     0
370
    -2
100
AcDbBlockReference
  2
_DOTBLANK
 10
-361.0
 20
-772.2186128916205
 30
0.0
 41
12.0
 42
12.0
 43
12.0
 50
180.0
  0
INSERT
  5
1C4F
330
1C06
100
AcDbEntity
  8
SIZE
  6
Continuous
 62
     0
370
    -2
100
AcDbBlockReference
  2
_DOTBLANK
 10
361.0000000000145
 20
-772.2186128916205
 30
0.0
 41
12.0
 42
12.0
 43
12.0
  0
MTEXT
  5
1C50
330
1C06
100
AcDbEntity
  8
SIZE
  6
Continuous
 62
     0
100
AcDbMText
 10
0.0000000000072785
 20
-730.2186128916205
 30
0.0
 40
64.0
 41
0.0
 71
     5
 72
     1
  1
\A1;722
 73
     1
 44
1.0
  0
POINT
  5
1C51
330
1C06
100
AcDbEntity
  8
DEFPOINTS
  6
Continuous
 62
     0
100
AcDbPoint
 10
-361.0
 20
-495.3104230978178
 30
0.0
  0
POINT
  5
1C52
330
1C06
100
AcDbEntity
  8
DEFPOINTS
  6
Continuous
 62
     0
100
AcDbPoint
 10
361.0000000000145
 20
-495.3104230978174
 30
0.0
  0
POINT
  5
1C53
330
1C06
100
AcDbEntity
  8
DEFPOINTS
  6
Continuous
 62
     0
100
AcDbPoint
 10
361.0000000000145
 20
-772.2186128916205
 30
0.0
  0
ENDBLK
  5
1C08
330
1C06
100
AcDbEntity
  8
0
100
AcDbBlockEnd
  0
BLOCK
  5
1C13
330
1C12
100
AcDbEntity
  8
0
100
AcDbBlockBegin
  2
*D35
 70
     1
 10
0.0
 20
0.0
 30
0.0
  3
*D35
  1

  0
LINE
  5
1C54
330
1C12
100
AcDbEntity
  8
SIZE
  6
Continuous
 62
     0
370
    -2
100
AcDbLine
 10
-370.5
 20
-646.400662082543
 30
0.0
 11
-370.5
 21
-891.3921973806122
 31
0.0
  0
LINE
  5
1C55
330
1C12
100
AcDbEntity
  8
SIZE
  6
Continuous
 62
     0
370
    -2
100
AcDbLine
 10
369.5000000000074
 20
-647.6104230978176
 30
0.0
 11
369.5000000000074
 21
-891.3921973806122
 31
0.0
  0
LINE
  5
1C56
330
1C12
100
AcDbEntity
  8
SIZE
  6
Continuous
 62
     0
370
    -2
100
AcDbLine
 10
-358.5
 20
-871.3921973806121
 30
0.0
 11
357.5000000000073
 21
-871.3921973806121
 31
0.0
  0
INSERT
  5
1C57
330
1C12
100
AcDbEntity
  8
SIZE
  6
Continuous
 62
     0
370
    -2
100
AcDbBlockReference
  2
_DOTBLANK
 10
-370.5
 20
-871.3921973806121
 30
0.0
 41
12.0
 42
12.0
 43
12.0
 50
180.0
  0
INSERT
  5
1C58
330
1C12
100
AcDbEntity
  8
SIZE
  6
Continuous
 62
     0
370
    -2
100
AcDbBlockReference
  2
_DOTBLANK
 10
369.5000000000074
 20
-871.3921973806121
 30
0.0
 41
12.0
 42
12.0
 43
12.0
  0
MTEXT
  5
1C59
330
1C12
100
AcDbEntity
  8
SIZE
  6
Continuous
 62
     0
100
AcDbMText
 10
-0.4999999999927215
 20
-829.3921973806121
 30
0.0
 40
64.0
 41
0.0
 71
     5
 72
     1
  1
\A1;740
 73
     1
 44
1.0
  0
POINT
  5
1C5A
330
1C12
100
AcDbEntity
  8
DEFPOINTS
  6
Continuous
 62
     0
100
AcDbPoint
 10
-370.5
 20
-626.400662082543
 30
0.0
  0
POINT
  5
1C5B
330
1C12
100
AcDbEntity
  8
DEFPOINTS
  6
Continuous
 62
     0
100
AcDbPoint
 10
369.5000000000074
 20
-627.6104230978176
 30
0.0
  0
POINT
  5
1C5C
330
1C12
100
AcDbEntity
  8
DEFPOINTS
  6
Continuous
 62
     0
100
AcDbPoint
 10
369.5000000000074
 20
-871.3921973806121
 30
0.0
  0
ENDBLK
  5
1C14
330
1C12
100
AcDbEntity
  8
0
100
AcDbBlockEnd
  0
BLOCK
  5
1D51
330
1D50
100
AcDbEntity
  8
0
100
AcDbBlockBegin
  2
*D36
 70
     1
 10
0.0
 20
0.0
 30
0.0
  3
*D36
  1

  0
LINE
  5
1D52
330
1D50
100
AcDbEntity
  8
SIZE
  6
Continuous
 62
     0
370
    -2
100
AcDbLine
 10
-44955.02264017792
 20
3982.878587582785
 30
0.0
 11
-44955.02264017792
 21
4062.872402252492
 31
0.0
  0
LINE
  5
1D53
330
1D50
100
AcDbEntity
  8
SIZE
  6
Continuous
 62
     0
370
    -2
100
AcDbLine
 10
-44795.02264017792
 20
3982.878587582791
 30
0.0
 11
-44795.02264017792
 21
4062.872402252492
 31
0.0
  0
LINE
  5
1D54
330
1D50
100
AcDbEntity
  8
SIZE
  6
Continuous
 62
     0
370
    -2
100
AcDbLine
 10
-44943.02264017792
 20
4042.872402252492
 30
0.0
 11
-44807.02264017792
 21
4042.872402252492
 31
0.0
  0
INSERT
  5
1D55
330
1D50
100
AcDbEntity
  8
SIZE
  6
Continuous
 62
     0
370
    -2
100
AcDbBlockReference
  2
_DOTBLANK
 10
-44955.02264017792
 20
4042.872402252492
 30
0.0
 41
12.0
 42
12.0
 43
12.0
 50
180.0
  0
INSERT
  5
1D56
330
1D50
100
AcDbEntity
  8
SIZE
  6
Continuous
 62
     0
370
    -2
100
AcDbBlockReference
  2
_DOTBLANK
 10
-44795.02264017792
 20
4042.872402252492
 30
0.0
 41
12.0
 42
12.0
 43
12.0
  0
MTEXT
  5
1D57
330
1D50
100
AcDbEntity
  8
SIZE
  6
Continuous
 62
     0
100
AcDbMText
 10
-44875.02264017792
 20
4084.872402252492
 30
0.0
 40
64.0
 41
0.0
 71
     5
 72
     1
  1
\A1;160
 73
     1
 44
1.0
  0
POINT
  5
1D58
330
1D50
100
AcDbEntity
  8
DEFPOINTS
  6
Continuous
 62
     0
100
AcDbPoint
 10
-44955.02264017792
 20
3962.878587582785
 30
0.0
  0
POINT
  5
1D59
330
1D50
100
AcDbEntity
  8
DEFPOINTS
  6
Continuous
 62
     0
100
AcDbPoint
 10
-44795.02264017792
 20
3962.878587582792
 30
0.0
  0
POINT
  5
1D5A
330
1D50
100
AcDbEntity
  8
DEFPOINTS
  6
Continuous
 62
     0
100
AcDbPoint
 10
-44795.02264017792
 20
4042.872402252492
 30
0.0
  0
ENDBLK
  5
1D5B
330
1D50
100
AcDbEntity
  8
0
100
AcDbBlockEnd
  0
BLOCK
  5
1D5D
330
1D5C
100
AcDbEntity
  8
0
100
AcDbBlockBegin
  2
*D37
 70
     1
 10
0.0
 20
0.0
 30
0.0
  3
*D37
  1

  0
LINE
  5
1D5E
330
1D5C
100
AcDbEntity
  8
SIZE
  6
Continuous
 62
     0
370
    -2
100
AcDbLine
 10
-45045.52264017791
 20
3865.307741387164
 30
0.0
 11
-45166.81043067197
 21
3865.307741387164
 31
0.0
  0
LINE
  5
1D5F
330
1D5C
100
AcDbEntity
  8
SIZE
  6
Continuous
 62
     0
370
    -2
100
AcDbLine
 10
-45045.52264017791
 20
3253.307741387164
 30
0.0
 11
-45166.81043067197
 21
3253.307741387164
 31
0.0
  0
LINE
  5
1D60
330
1D5C
100
AcDbEntity
  8
SIZE
  6
Continuous
 62
     0
370
    -2
100
AcDbLine
 10
-45146.81043067198
 20
3853.307741387163
 30
0.0
 11
-45146.81043067198
 21
3265.307741387164
 31
0.0
  0
INSERT
  5
1D61
330
1D5C
100
AcDbEntity
  8
SIZE
  6
Continuous
 62
     0
370
    -2
100
AcDbBlockReference
  2
_DOTBLANK
 10
-45146.81043067198
 20
3865.307741387164
 30
0.0
 41
12.0
 42
12.0
 43
12.0
 50
90.0
  0
INSERT
  5
1D62
330
1D5C
100
AcDbEntity
  8
SIZE
  6
Continuous
 62
     0
370
    -2
100
AcDbBlockReference
  2
_DOTBLANK
 10
-45146.81043067198
 20
3253.307741387164
 30
0.0
 41
12.0
 42
12.0
 43
12.0
 50
270.0
  0
MTEXT
  5
1D63
330
1D5C
100
AcDbEntity
  8
SIZE
  6
Continuous
 62
     0
100
AcDbMText
 10
-45188.81043067198
 20
3559.307741387156
 30
0.0
 40
64.0
 41
0.0
 71
     5
 72
     1
  1
\A1;612
 11
0.0000000000000001
 21
1.0
 31
0.0
 73
     1
 44
1.0
  0
POINT
  5
1D64
330
1D5C
100
AcDbEntity
  8
DEFPOINTS
  6
Continuous
 62
     0
100
AcDbPoint
 10
-45025.52264017791
 20
3865.307741387164
 30
0.0
  0
POINT
  5
1D65
330
1D5C
100
AcDbEntity
  8
DEFPOINTS
  6
Continuous
 62
     0
100
AcDbPoint
 10
-45025.52264017791
 20
3253.307741387164
 30
0.0
  0
POINT
  5
1D66
330
1D5C
100
AcDbEntity
  8
DEFPOINTS
  6
Continuous
 62
     0
100
AcDbPoint
 10
-45146.81043067198
 20
3253.307741387164
 30
0.0
  0
ENDBLK
  5
1D67
330
1D5C
100
AcDbEntity
  8
0
100
AcDbBlockEnd
  0
BLOCK
  5
1D69
330
1D68
100
AcDbEntity
  8
0
100
AcDbBlockBegin
  2
*D38
 70
     1
 10
0.0
 20
0.0
 30
0.0
  3
*D38
  1

  0
LINE
  5
1D6A
330
1D68
100
AcDbEntity
  8
SIZE
  6
Continuous
 62
     0
370
    -2
100
AcDbLine
 10
-45045.52264017791
 20
3253.307741387164
 30
0.0
 11
-45166.81043067197
 21
3253.307741387164
 31
0.0
  0
LINE
  5
1D6B
330
1D68
100
AcDbEntity
  8
SIZE
  6
Continuous
 62
     0
370
    -2
100
AcDbLine
 10
-45045.52264017789
 20
2722.907741387164
 30
0.0
 11
-45166.81043067197
 21
2722.907741387164
 31
0.0
  0
LINE
  5
1D6C
330
1D68
100
AcDbEntity
  8
SIZE
  6
Continuous
 62
     0
370
    -2
100
AcDbLine
 10
-45146.81043067198
 20
3241.307741387164
 30
0.0
 11
-45146.81043067198
 21
2734.907741387164
 31
0.0
  0
INSERT
  5
1D6D
330
1D68
100
AcDbEntity
  8
SIZE
  6
Continuous
 62
     0
370
    -2
100
AcDbBlockReference
  2
_DOTBLANK
 10
-45146.81043067198
 20
3253.307741387164
 30
0.0
 41
12.0
 42
12.0
 43
12.0
 50
90.0
  0
INSERT
  5
1D6E
330
1D68
100
AcDbEntity
  8
SIZE
  6
Continuous
 62
     0
370
    -2
100
AcDbBlockReference
  2
_DOTBLANK
 10
-45146.81043067198
 20
2722.907741387164
 30
0.0
 41
12.0
 42
12.0
 43
12.0
 50
270.0
  0
MTEXT
  5
1D6F
330
1D68
100
AcDbEntity
  8
SIZE
  6
Continuous
 62
     0
100
AcDbMText
 10
-45188.81043067198
 20
2988.107741387156
 30
0.0
 40
64.0
 41
0.0
 71
     5
 72
     1
  1
\A1;530
 11
0.0000000000000001
 21
1.0
 31
0.0
 73
     1
 44
1.0
  0
POINT
  5
1D70
330
1D68
100
AcDbEntity
  8
DEFPOINTS
  6
Continuous
 62
     0
100
AcDbPoint
 10
-45025.52264017791
 20
3253.307741387164
 30
0.0
  0
POINT
  5
1D71
330
1D68
100
AcDbEntity
  8
DEFPOINTS
  6
Continuous
 62
     0
100
AcDbPoint
 10
-45025.52264017789
 20
2722.907741387164
 30
0.0
  0
POINT
  5
1D72
330
1D68
100
AcDbEntity
  8
DEFPOINTS
  6
Continuous
 62
     0
100
AcDbPoint
 10
-45146.81043067198
 20
2722.907741387164
 30
0.0
  0
ENDBLK
  5
1D73
330
1D68
100
AcDbEntity
  8
0
100
AcDbBlockEnd
  0
BLOCK
  5
1D75
330
1D74
100
AcDbEntity
  8
0
100
AcDbBlockBegin
  2
*D39
 70
     1
 10
0.0
 20
0.0
 30
0.0
  3
*D39
  1

  0
LINE
  5
1D76
330
1D74
100
AcDbEntity
  8
SIZE
  6
Continuous
 62
     0
370
    -2
100
AcDbLine
 10
-45043.52264017792
 20
3960.378587582784
 30
0.0
 11
-45294.80942521141
 21
3960.378587582784
 31
0.0
  0
LINE
  5
1D77
330
1D74
100
AcDbEntity
  8
SIZE
  6
Continuous
 62
     0
370
    -2
100
AcDbLine
 10
-45046.6226401779
 20
2705.507741387164
 30
0.0
 11
-45294.80942521141
 21
2705.507741387164
 31
0.0
  0
LINE
  5
1D78
330
1D74
100
AcDbEntity
  8
SIZE
  6
Continuous
 62
     0
370
    -2
100
AcDbLine
 10
-45274.80942521141
 20
3948.378587582784
 30
0.0
 11
-45274.80942521141
 21
2717.507741387164
 31
0.0
  0
INSERT
  5
1D79
330
1D74
100
AcDbEntity
  8
SIZE
  6
Continuous
 62
     0
370
    -2
100
AcDbBlockReference
  2
_DOTBLANK
 10
-45274.80942521141
 20
3960.378587582784
 30
0.0
 41
12.0
 42
12.0
 43
12.0
 50
90.0
  0
INSERT
  5
1D7A
330
1D74
100
AcDbEntity
  8
SIZE
  6
Continuous
 62
     0
370
    -2
100
AcDbBlockReference
  2
_DOTBLANK
 10
-45274.80942521141
 20
2705.507741387164
 30
0.0
 41
12.0
 42
12.0
 43
12.0
 50
270.0
  0
MTEXT
  5
1D7B
330
1D74
100
AcDbEntity
  8
SIZE
  6
Continuous
 62
     0
100
AcDbMText
 10
-45316.80942521141
 20
3332.943164484966
 30
0.0
 40
64.0
 41
0.0
 71
     5
 72
     1
  1
\A1;1255
 11
0.0000000000000001
 21
1.0
 31
0.0
 73
     1
 44
1.0
  0
POINT
  5
1D7C
330
1D74
100
AcDbEntity
  8
DEFPOINTS
  6
Continuous
 62
     0
100
AcDbPoint
 10
-45023.52264017792
 20
3960.378587582784
 30
0.0
  0
POINT
  5
1D7D
330
1D74
100
AcDbEntity
  8
DEFPOINTS
  6
Continuous
 62
     0
100
AcDbPoint
 10
-45026.62264017788
 20
2705.507741387164
 30
0.0
  0
POINT
  5
1D7E
330
1D74
100
AcDbEntity
  8
DEFPOINTS
  6
Continuous
 62
     0
100
AcDbPoint
 10
-45274.80942521141
 20
2705.507741387164
 30
0.0
  0
ENDBLK
  5
1D7F
330
1D74
100
AcDbEntity
  8
0
100
AcDbBlockEnd
  0
BLOCK
  5
1D81
330
1D80
100
AcDbEntity
  8
0
100
AcDbBlockBegin
  2
*D40
 70
     1
 10
0.0
 20
0.0
 30
0.0
  3
*D40
  1

  0
LINE
  5
1D82
330
1D80
100
AcDbEntity
  8
SIZE
  6
Continuous
 62
     0
370
    -2
100
AcDbLine
 10
-45018.02264017789
 20
2695.407741387164
 30
0.0
 11
-45018.02264017789
 21
2536.494375655207
 31
0.0
  0
LINE
  5
1D83
330
1D80
100
AcDbEntity
  8
SIZE
  6
Continuous
 62
     0
370
    -2
100
AcDbLine
 10
-44732.0226401779
 20
2695.407741387164
 30
0.0
 11
-44732.0226401779
 21
2536.494375655207
 31
0.0
  0
LINE
  5
1D84
330
1D80
100
AcDbEntity
  8
SIZE
  6
Continuous
 62
     0
370
    -2
100
AcDbLine
 10
-45006.02264017789
 20
2556.494375655207
 30
0.0
 11
-44744.0226401779
 21
2556.494375655207
 31
0.0
  0
INSERT
  5
1D85
330
1D80
100
AcDbEntity
  8
SIZE
  6
Continuous
 62
     0
370
    -2
100
AcDbBlockReference
  2
_DOTBLANK
 10
-45018.02264017789
 20
2556.494375655207
 30
0.0
 41
12.0
 42
12.0
 43
12.0
 50
180.0
  0
INSERT
  5
1D86
330
1D80
100
AcDbEntity
  8
SIZE
  6
Continuous
 62
     0
370
    -2
100
AcDbBlockReference
  2
_DOTBLANK
 10
-44732.0226401779
 20
2556.494375655207
 30
0.0
 41
12.0
 42
12.0
 43
12.0
  0
MTEXT
  5
1D87
330
1D80
100
AcDbEntity
  8
SIZE
  6
Continuous
 62
     0
100
AcDbMText
 10
-44875.02264017789
 20
2598.494375655207
 30
0.0
 40
64.0
 41
0.0
 71
     5
 72
     1
  1
\A1;286
 73
     1
 44
1.0
  0
POINT
  5
1D88
330
1D80
100
AcDbEntity
  8
DEFPOINTS
  6
Continuous
 62
     0
100
AcDbPoint
 10
-45018.02264017789
 20
2715.407741387164
 30
0.0
  0
POINT
  5
1D89
330
1D80
100
AcDbEntity
  8
DEFPOINTS
  6
Continuous
 62
     0
100
AcDbPoint
 10
-44732.0226401779
 20
2715.407741387164
 30
0.0
  0
POINT
  5
1D8A
330
1D80
100
AcDbEntity
  8
DEFPOINTS
  6
Continuous
 62
     0
100
AcDbPoint
 10
-44732.0226401779
 20
2556.494375655207
 30
0.0
  0
ENDBLK
  5
1D8B
330
1D80
100
AcDbEntity
  8
0
100
AcDbBlockEnd
  0
BLOCK
  5
1D8D
330
1D8C
100
AcDbEntity
  8
0
100
AcDbBlockBegin
  2
*D41
 70
     1
 10
0.0
 20
0.0
 30
0.0
  3
*D41
  1

  0
LINE
  5
1D8E
330
1D8C
100
AcDbEntity
  8
SIZE
  6
Continuous
 62
     0
370
    -2
100
AcDbLine
 10
-45027.52264017789
 20
2686.717502402439
 30
0.0
 11
-45027.52264017789
 21
2406.945131595153
 31
0.0
  0
LINE
  5
1D8F
330
1D8C
100
AcDbEntity
  8
SIZE
  6
Continuous
 62
     0
370
    -2
100
AcDbLine
 10
-44722.52264017789
 20
2686.717502402439
 30
0.0
 11
-44722.52264017789
 21
2406.945131595153
 31
0.0
  0
LINE
  5
1D90
330
1D8C
100
AcDbEntity
  8
SIZE
  6
Continuous
 62
     0
370
    -2
100
AcDbLine
 10
-45015.5226401779
 20
2426.945131595153
 30
0.0
 11
-44734.52264017789
 21
2426.945131595153
 31
0.0
  0
INSERT
  5
1D91
330
1D8C
100
AcDbEntity
  8
SIZE
  6
Continuous
 62
     0
370
    -2
100
AcDbBlockReference
  2
_DOTBLANK
 10
-45027.52264017789
 20
2426.945131595153
 30
0.0
 41
12.0
 42
12.0
 43
12.0
 50
180.0
  0
INSERT
  5
1D92
330
1D8C
100
AcDbEntity
  8
SIZE
  6
Continuous
 62
     0
370
    -2
100
AcDbBlockReference
  2
_DOTBLANK
 10
-44722.52264017789
 20
2426.945131595153
 30
0.0
 41
12.0
 42
12.0
 43
12.0
  0
MTEXT
  5
1D93
330
1D8C
100
AcDbEntity
  8
SIZE
  6
Continuous
 62
     0
100
AcDbMText
 10
-44875.02264017789
 20
2468.945131595153
 30
0.0
 40
64.0
 41
0.0
 71
     5
 72
     1
  1
\A1;305
 73
     1
 44
1.0
  0
POINT
  5
1D94
330
1D8C
100
AcDbEntity
  8
DEFPOINTS
  6
Continuous
 62
     0
100
AcDbPoint
 10
-45027.52264017789
 20
2706.717502402439
 30
0.0
  0
POINT
  5
1D95
330
1D8C
100
AcDbEntity
  8
DEFPOINTS
  6
Continuous
 62
     0
100
AcDbPoint
 10
-44722.52264017789
 20
2706.717502402439
 30
0.0
  0
POINT
  5
1D96
330
1D8C
100
AcDbEntity
  8
DEFPOINTS
  6
Continuous
 62
     0
100
AcDbPoint
 10
-44722.52264017789
 20
2426.945131595153
 30
0.0
  0
ENDBLK
  5
1D97
330
1D8C
100
AcDbEntity
  8
0
100
AcDbBlockEnd
  0
BLOCK
  5
1F44
330
1F43
100
AcDbEntity
  8
0
100
AcDbBlockBegin
  2
*D42
 70
     1
 10
0.0
 20
0.0
 30
0.0
  3
*D42
  1

  0
LINE
  5
1F8B
330
1F43
100
AcDbEntity
  8
SIZE
  6
Continuous
 62
     0
370
    -2
100
AcDbLine
 10
-79.99999999998569
 20
649.9354230978132
 30
0.0
 11
-79.99999999998569
 21
729.9292377675201
 31
0.0
  0
LINE
  5
1F8C
330
1F43
100
AcDbEntity
  8
SIZE
  6
Continuous
 62
     0
370
    -2
100
AcDbLine
 10
80.00000000001454
 20
649.9354230978187
 30
0.0
 11
80.00000000001454
 21
729.9292377675201
 31
0.0
  0
LINE
  5
1F8D
330
1F43
100
AcDbEntity
  8
SIZE
  6
Continuous
 62
     0
370
    -2
100
AcDbLine
 10
-67.99999999998568
 20
709.9292377675201
 30
0.0
 11
68.00000000001453
 21
709.9292377675201
 31
0.0
  0
INSERT
  5
1F8E
330
1F43
100
AcDbEntity
  8
SIZE
  6
Continuous
 62
     0
370
    -2
100
AcDbBlockReference
  2
_DOTBLANK
 10
-79.99999999998569
 20
709.9292377675201
 30
0.0
 41
12.0
 42
12.0
 43
12.0
 50
180.0
  0
INSERT
  5
1F8F
330
1F43
100
AcDbEntity
  8
SIZE
  6
Continuous
 62
     0
370
    -2
100
AcDbBlockReference
  2
_DOTBLANK
 10
80.00000000001454
 20
709.9292377675201
 30
0.0
 41
12.0
 42
12.0
 43
12.0
  0
MTEXT
  5
1F90
330
1F43
100
AcDbEntity
  8
SIZE
  6
Continuous
 62
     0
100
AcDbMText
 10
0.0000000000144408
 20
751.9292377675201
 30
0.0
 40
64.0
 41
0.0
 71
     5
 72
     1
  1
\A1;160
 73
     1
 44
1.0
  0
POINT
  5
1F91
330
1F43
100
AcDbEntity
  8
DEFPOINTS
  6
Continuous
 62
     0
100
AcDbPoint
 10
-79.99999999998569
 20
629.935423097813
 30
0.0
  0
POINT
  5
1F92
330
1F43
100
AcDbEntity
  8
DEFPOINTS
  6
Continuous
 62
     0
100
AcDbPoint
 10
80.00000000001454
 20
629.9354230978187
 30
0.0
  0
POINT
  5
1F93
330
1F43
100
AcDbEntity
  8
DEFPOINTS
  6
Continuous
 62
     0
100
AcDbPoint
 10
80.00000000001454
 20
709.9292377675201
 30
0.0
  0
ENDBLK
  5
1F45
330
1F43
100
AcDbEntity
  8
0
100
AcDbBlockEnd
  0
BLOCK
  5
1F50
330
1F4F
100
AcDbEntity
  8
0
100
AcDbBlockBegin
  2
*D43
 70
     1
 10
0.0
 20
0.0
 30
0.0
  3
*D43
  1

  0
LINE
  5
1F94
330
1F4F
100
AcDbEntity
  8
SIZE
  6
Continuous
 62
     0
370
    -2
100
AcDbLine
 10
-170.4999999999711
 20
532.3645769021914
 30
0.0
 11
-291.7877904940398
 21
532.3645769021915
 31
0.0
  0
LINE
  5
1F95
330
1F4F
100
AcDbEntity
  8
SIZE
  6
Continuous
 62
     0
370
    -2
100
AcDbLine
 10
-170.4999999999711
 20
-79.63542309780812
 30
0.0
 11
-291.7877904940399
 21
-79.6354230978081
 31
0.0
  0
LINE
  5
1F96
330
1F4F
100
AcDbEntity
  8
SIZE
  6
Continuous
 62
     0
370
    -2
100
AcDbLine
 10
-271.7877904940398
 20
520.3645769021915
 30
0.0
 11
-271.78779049404
 21
-67.6354230978081
 31
0.0
  0
INSERT
  5
1F97
330
1F4F
100
AcDbEntity
  8
SIZE
  6
Continuous
 62
     0
370
    -2
100
AcDbBlockReference
  2
_DOTBLANK
 10
-271.7877904940398
 20
532.3645769021915
 30
0.0
 41
12.0
 42
12.0
 43
12.0
 50
90.0
  0
INSERT
  5
1F98
330
1F4F
100
AcDbEntity
  8
SIZE
  6
Continuous
 62
     0
370
    -2
100
AcDbBlockReference
  2
_DOTBLANK
 10
-271.78779049404
 20
-79.6354230978081
 30
0.0
 41
12.0
 42
12.0
 43
12.0
 50
270.0
  0
MTEXT
  5
1F99
330
1F4F
100
AcDbEntity
  8
SIZE
  6
Continuous
 62
     0
100
AcDbMText
 10
-313.7877904940399
 20
226.3645769021917
 30
0.0
 40
64.0
 41
0.0
 71
     5
 72
     1
  1
\A1;612
 11
0.0000000000000001
 21
1.0
 31
0.0
 73
     1
 44
1.0
  0
POINT
  5
1F9A
330
1F4F
100
AcDbEntity
  8
DEFPOINTS
  6
Continuous
 62
     0
100
AcDbPoint
 10
-150.4999999999711
 20
532.3645769021914
 30
0.0
  0
POINT
  5
1F9B
330
1F4F
100
AcDbEntity
  8
DEFPOINTS
  6
Continuous
 62
     0
100
AcDbPoint
 10
-150.4999999999711
 20
-79.63542309780814
 30
0.0
  0
POINT
  5
1F9C
330
1F4F
100
AcDbEntity
  8
DEFPOINTS
  6
Continuous
 62
     0
100
AcDbPoint
 10
-271.78779049404
 20
-79.6354230978081
 30
0.0
  0
ENDBLK
  5
1F51
330
1F4F
100
AcDbEntity
  8
0
100
AcDbBlockEnd
  0
BLOCK
  5
1F5C
330
1F5B
100
AcDbEntity
  8
0
100
AcDbBlockBegin
  2
*D44
 70
     1
 10
0.0
 20
0.0
 30
0.0
  3
*D44
  1

  0
LINE
  5
1F9D
330
1F5B
100
AcDbEntity
  8
SIZE
  6
Continuous
 62
     0
370
    -2
100
AcDbLine
 10
-170.4999999999711
 20
-79.63542309780812
 30
0.0
 11
-291.7877904940398
 21
-79.6354230978081
 31
0.0
  0
LINE
  5
1F9E
330
1F5B
100
AcDbEntity
  8
SIZE
  6
Continuous
 62
     0
370
    -2
100
AcDbLine
 10
-170.4999999999565
 20
-610.0354230978082
 30
0.0
 11
-291.7877904940399
 21
-610.0354230978081
 31
0.0
  0
LINE
  5
1F9F
330
1F5B
100
AcDbEntity
  8
SIZE
  6
Continuous
 62
     0
370
    -2
100
AcDbLine
 10
-271.7877904940398
 20
-91.6354230978081
 30
0.0
 11
-271.78779049404
 21
-598.0354230978081
 31
0.0
  0
INSERT
  5
1FA0
330
1F5B
100
AcDbEntity
  8
SIZE
  6
Continuous
 62
     0
370
    -2
100
AcDbBlockReference
  2
_DOTBLANK
 10
-271.7877904940398
 20
-79.6354230978081
 30
0.0
 41
12.0
 42
12.0
 43
12.0
 50
90.0
  0
INSERT
  5
1FA1
330
1F5B
100
AcDbEntity
  8
SIZE
  6
Continuous
 62
     0
370
    -2
100
AcDbBlockReference
  2
_DOTBLANK
 10
-271.78779049404
 20
-610.0354230978081
 30
0.0
 41
12.0
 42
12.0
 43
12.0
 50
270.0
  0
MTEXT
  5
1FA2
330
1F5B
100
AcDbEntity
  8
SIZE
  6
Continuous
 62
     0
100
AcDbMText
 10
-313.7877904940398
 20
-344.8354230978081
 30
0.0
 40
64.0
 41
0.0
 71
     5
 72
     1
  1
\A1;530
 11
0.0000000000000001
 21
1.0
 31
0.0
 73
     1
 44
1.0
  0
POINT
  5
1FA3
330
1F5B
100
AcDbEntity
  8
DEFPOINTS
  6
Continuous
 62
     0
100
AcDbPoint
 10
-150.4999999999711
 20
-79.63542309780814
 30
0.0
  0
POINT
  5
1FA4
330
1F5B
100
AcDbEntity
  8
DEFPOINTS
  6
Continuous
 62
     0
100
AcDbPoint
 10
-150.4999999999566
 20
-610.0354230978082
 30
0.0
  0
POINT
  5
1FA5
330
1F5B
100
AcDbEntity
  8
DEFPOINTS
  6
Continuous
 62
     0
100
AcDbPoint
 10
-271.78779049404
 20
-610.0354230978081
 30
0.0
  0
ENDBLK
  5
1F5D
330
1F5B
100
AcDbEntity
  8
0
100
AcDbBlockEnd
  0
BLOCK
  5
1F68
330
1F67
100
AcDbEntity
  8
0
100
AcDbBlockBegin
  2
*D45
 70
     1
 10
0.0
 20
0.0
 30
0.0
  3
*D45
  1

  0
LINE
  5
1FA6
330
1F67
100
AcDbEntity
  8
SIZE
  6
Continuous
 62
     0
370
    -2
100
AcDbLine
 10
-168.4999999999857
 20
627.4354230978123
 30
0.0
 11
-419.7867850334877
 21
627.4354230978125
 31
0.0
  0
LINE
  5
1FA7
330
1F67
100
AcDbEntity
  8
SIZE
  6
Continuous
 62
     0
370
    -2
100
AcDbLine
 10
-171.5999999999624
 20
-627.4354230978082
 30
0.0
 11
-419.786785033488
 21
-627.4354230978082
 31
0.0
  0
LINE
  5
1FA8
330
1F67
100
AcDbEntity
  8
SIZE
  6
Continuous
 62
     0
370
    -2
100
AcDbLine
 10
-399.7867850334878
 20
615.4354230978125
 30
0.0
 11
-399.7867850334882
 21
-615.4354230978082
 31
0.0
  0
INSERT
  5
1FA9
330
1F67
100
AcDbEntity
  8
SIZE
  6
Continuous
 62
     0
370
    -2
100
AcDbBlockReference
  2
_DOTBLANK
 10
-399.7867850334878
 20
627.4354230978125
 30
0.0
 41
12.0
 42
12.0
 43
12.0
 50
90.0
  0
INSERT
  5
1FAA
330
1F67
100
AcDbEntity
  8
SIZE
  6
Continuous
 62
     0
370
    -2
100
AcDbBlockReference
  2
_DOTBLANK
 10
-399.7867850334882
 20
-627.4354230978082
 30
0.0
 41
12.0
 42
12.0
 43
12.0
 50
270.0
  0
MTEXT
  5
1FAB
330
1F67
100
AcDbEntity
  8
SIZE
  6
Continuous
 62
     0
100
AcDbMText
 10
-441.7867850334878
 20
0.000000000002076
 30
0.0
 40
64.0
 41
0.0
 71
     5
 72
     1
  1
\A1;1255
 11
0.0000000000000001
 21
1.0
 31
0.0
 73
     1
 44
1.0
  0
POINT
  5
1FAC
330
1F67
100
AcDbEntity
  8
DEFPOINTS
  6
Continuous
 62
     0
100
AcDbPoint
 10
-148.4999999999857
 20
627.4354230978123
 30
0.0
  0
POINT
  5
1FAD
330
1F67
100
AcDbEntity
  8
DEFPOINTS
  6
Continuous
 62
     0
100
AcDbPoint
 10
-151.5999999999624
 20
-627.4354230978082
 30
0.0
  0
POINT
  5
1FAE
330
1F67
100
AcDbEntity
  8
DEFPOINTS
  6
Continuous
 62
     0
100
AcDbPoint
 10
-399.7867850334882
 20
-627.4354230978082
 30
0.0
  0
ENDBLK
  5
1F69
330
1F67
100
AcDbEntity
  8
0
100
AcDbBlockEnd
  0
BLOCK
  5
1F74
330
1F73
100
AcDbEntity
  8
0
100
AcDbBlockBegin
  2
*D46
 70
     1
 10
0.0
 20
0.0
 30
0.0
  3
*D46
  1

  0
LINE
  5
1FAF
330
1F73
100
AcDbEntity
  8
SIZE
  6
Continuous
 62
     0
370
    -2
100
AcDbLine
 10
-142.9999999999566
 20
-637.5354230978082
 30
0.0
 11
-142.9999999999566
 21
-796.4487888297654
 31
0.0
  0
LINE
  5
1FB0
330
1F73
100
AcDbEntity
  8
SIZE
  6
Continuous
 62
     0
370
    -2
100
AcDbLine
 10
143.0000000000364
 20
-637.5354230978078
 30
0.0
 11
143.0000000000364
 21
-796.4487888297654
 31
0.0
  0
LINE
  5
1FB1
330
1F73
100
AcDbEntity
  8
SIZE
  6
Continuous
 62
     0
370
    -2
100
AcDbLine
 10
-130.9999999999565
 20
-776.4487888297654
 30
0.0
 11
131.0000000000363
 21
-776.4487888297654
 31
0.0
  0
INSERT
  5
1FB2
330
1F73
100
AcDbEntity
  8
SIZE
  6
Continuous
 62
     0
370
    -2
100
AcDbBlockReference
  2
_DOTBLANK
 10
-142.9999999999566
 20
-776.4487888297654
 30
0.0
 41
12.0
 42
12.0
 43
12.0
 50
180.0
  0
INSERT
  5
1FB3
330
1F73
100
AcDbEntity
  8
SIZE
  6
Continuous
 62
     0
370
    -2
100
AcDbBlockReference
  2
_DOTBLANK
 10
143.0000000000364
 20
-776.4487888297654
 30
0.0
 41
12.0
 42
12.0
 43
12.0
  0
MTEXT
  5
1FB4
330
1F73
100
AcDbEntity
  8
SIZE
  6
Continuous
 62
     0
100
AcDbMText
 10
0.0000000000399067
 20
-734.4487888297654
 30
0.0
 40
64.0
 41
0.0
 71
     5
 72
     1
  1
\A1;286
 73
     1
 44
1.0
  0
POINT
  5
1FB5
330
1F73
100
AcDbEntity
  8
DEFPOINTS
  6
Continuous
 62
     0
100
AcDbPoint
 10
-142.9999999999566
 20
-617.5354230978082
 30
0.0
  0
POINT
  5
1FB6
330
1F73
100
AcDbEntity
  8
DEFPOINTS
  6
Continuous
 62
     0
100
AcDbPoint
 10
143.0000000000364
 20
-617.5354230978078
 30
0.0
  0
POINT
  5
1FB7
330
1F73
100
AcDbEntity
  8
DEFPOINTS
  6
Continuous
 62
     0
100
AcDbPoint
 10
143.0000000000364
 20
-776.4487888297654
 30
0.0
  0
ENDBLK
  5
1F75
330
1F73
100
AcDbEntity
  8
0
100
AcDbBlockEnd
  0
BLOCK
  5
1F80
330
1F7F
100
AcDbEntity
  8
0
100
AcDbBlockBegin
  2
*D47
 70
     1
 10
0.0
 20
0.0
 30
0.0
  3
*D47
  1

  0
LINE
  5
1FB8
330
1F7F
100
AcDbEntity
  8
SIZE
  6
Continuous
 62
     0
370
    -2
100
AcDbLine
 10
-152.4999999999638
 20
-646.2256620825337
 30
0.0
 11
-152.4999999999639
 21
-925.9980328898192
 31
0.0
  0
LINE
  5
1FB9
330
1F7F
100
AcDbEntity
  8
SIZE
  6
Continuous
 62
     0
370
    -2
100
AcDbLine
 10
152.5000000000364
 20
-646.2256620825333
 30
0.0
 11
152.5000000000363
 21
-925.9980328898192
 31
0.0
  0
LINE
  5
1FBA
330
1F7F
100
AcDbEntity
  8
SIZE
  6
Continuous
 62
     0
370
    -2
100
AcDbLine
 10
-140.4999999999638
 20
-905.9980328898191
 30
0.0
 11
140.5000000000363
 21
-905.9980328898191
 31
0.0
  0
INSERT
  5
1FBB
330
1F7F
100
AcDbEntity
  8
SIZE
  6
Continuous
 62
     0
370
    -2
100
AcDbBlockReference
  2
_DOTBLANK
 10
-152.4999999999639
 20
-905.9980328898191
 30
0.0
 41
12.0
 42
12.0
 43
12.0
 50
180.0
  0
INSERT
  5
1FBC
330
1F7F
100
AcDbEntity
  8
SIZE
  6
Continuous
 62
     0
370
    -2
100
AcDbBlockReference
  2
_DOTBLANK
 10
152.5000000000363
 20
-905.9980328898191
 30
0.0
 41
12.0
 42
12.0
 43
12.0
  0
MTEXT
  5
1FBD
330
1F7F
100
AcDbEntity
  8
SIZE
  6
Continuous
 62
     0
100
AcDbMText
 10
0.0000000000362403
 20
-863.9980328898191
 30
0.0
 40
64.0
 41
0.0
 71
     5
 72
     1
  1
\A1;305
 73
     1
 44
1.0
  0
POINT
  5
1FBE
330
1F7F
100
AcDbEntity
  8
DEFPOINTS
  6
Continuous
 62
     0
100
AcDbPoint
 10
-152.4999999999638
 20
-626.2256620825337
 30
0.0
  0
POINT
  5
1FBF
330
1F7F
100
AcDbEntity
  8
DEFPOINTS
  6
Continuous
 62
     0
100
AcDbPoint
 10
152.5000000000364
 20
-626.2256620825333
 30
0.0
  0
POINT
  5
1FC0
330
1F7F
100
AcDbEntity
  8
DEFPOINTS
  6
Continuous
 62
     0
100
AcDbPoint
 10
152.5000000000363
 20
-905.9980328898191
 30
0.0
  0
ENDBLK
  5
1F81
330
1F7F
100
AcDbEntity
  8
0
100
AcDbBlockEnd
  0
BLOCK
  5
21BF
330
21BE
100
AcDbEntity
  8
0
100
AcDbBlockBegin
  2
*D49
 70
     1
 10
0.0
 20
0.0
 30
0.0
  3
*D49
  1

  0
LINE
  5
21C0
330
21BE
100
AcDbEntity
  8
SIZE
  6
Continuous
 62
     0
370
    -2
100
AcDbLine
 10
-47960.33094852818
 20
6120.135098820633
 30
0.0
 11
-47960.33094852818
 21
6175.229703743616
 31
0.0
  0
LINE
  5
21C1
330
21BE
100
AcDbEntity
  8
SIZE
  6
Continuous
 62
     0
370
    -2
100
AcDbLine
 10
-47836.33094852818
 20
6120.135098820635
 30
0.0
 11
-47836.33094852818
 21
6175.229703743616
 31
0.0
  0
LINE
  5
21C2
330
21BE
100
AcDbEntity
  8
SIZE
  6
Continuous
 62
     0
370
    -2
100
AcDbLine
 10
-47948.33094852818
 20
6155.229703743615
 30
0.0
 11
-47848.33094852818
 21
6155.229703743615
 31
0.0
  0
INSERT
  5
21C3
330
21BE
100
AcDbEntity
  8
SIZE
  6
Continuous
 62
     0
370
    -2
100
AcDbBlockReference
  2
_DOTBLANK
 10
-47960.33094852818
 20
6155.229703743615
 30
0.0
 41
12.0
 42
12.0
 43
12.0
 50
180.0
  0
INSERT
  5
21C4
330
21BE
100
AcDbEntity
  8
SIZE
  6
Continuous
 62
     0
370
    -2
100
AcDbBlockReference
  2
_DOTBLANK
 10
-47836.33094852818
 20
6155.229703743615
 30
0.0
 41
12.0
 42
12.0
 43
12.0
  0
MTEXT
  5
21C5
330
21BE
100
AcDbEntity
  8
SIZE
  6
Continuous
 62
     0
100
AcDbMText
 10
-47898.33094852818
 20
6197.229703743616
 30
0.0
 40
64.0
 41
0.0
 71
     5
 72
     1
  1
\A1;124
 73
     1
 44
1.0
  0
POINT
  5
21C6
330
21BE
100
AcDbEntity
  8
DEFPOINTS
  6
Continuous
 62
     0
100
AcDbPoint
 10
-47960.33094852818
 20
6100.135098820633
 30
0.0
  0
POINT
  5
21C7
330
21BE
100
AcDbEntity
  8
DEFPOINTS
  6
Continuous
 62
     0
100
AcDbPoint
 10
-47836.33094852818
 20
6100.135098820635
 30
0.0
  0
POINT
  5
21C8
330
21BE
100
AcDbEntity
  8
DEFPOINTS
  6
Continuous
 62
     0
100
AcDbPoint
 10
-47836.33094852818
 20
6155.229703743615
 30
0.0
  0
ENDBLK
  5
21C9
330
21BE
100
AcDbEntity
  8
0
100
AcDbBlockEnd
  0
BLOCK
  5
21CB
330
21CA
100
AcDbEntity
  8
0
100
AcDbBlockBegin
  2
*D50
 70
     1
 10
0.0
 20
0.0
 30
0.0
  3
*D50
  1

  0
LINE
  5
21CC
330
21CA
100
AcDbEntity
  8
SIZE
  6
Continuous
 62
     0
370
    -2
100
AcDbLine
 10
-48003.33094852819
 20
5584.635098820633
 30
0.0
 11
-48003.33094852819
 21
5454.67757263178
 31
0.0
  0
LINE
  5
21CD
330
21CA
100
AcDbEntity
  8
SIZE
  6
Continuous
 62
     0
370
    -2
100
AcDbLine
 10
-47829.33094852818
 20
5584.635098820633
 30
0.0
 11
-47829.33094852818
 21
5454.67757263178
 31
0.0
  0
LINE
  5
21CE
330
21CA
100
AcDbEntity
  8
SIZE
  6
Continuous
 62
     0
370
    -2
100
AcDbLine
 10
-47991.33094852819
 20
5474.67757263178
 30
0.0
 11
-47841.33094852818
 21
5474.67757263178
 31
0.0
  0
INSERT
  5
21CF
330
21CA
100
AcDbEntity
  8
SIZE
  6
Continuous
 62
     0
370
    -2
100
AcDbBlockReference
  2
_DOTBLANK
 10
-48003.33094852819
 20
5474.67757263178
 30
0.0
 41
12.0
 42
12.0
 43
12.0
 50
180.0
  0
INSERT
  5
21D0
330
21CA
100
AcDbEntity
  8
SIZE
  6
Continuous
 62
     0
370
    -2
100
AcDbBlockReference
  2
_DOTBLANK
 10
-47829.33094852818
 20
5474.67757263178
 30
0.0
 41
12.0
 42
12.0
 43
12.0
  0
MTEXT
  5
21D1
330
21CA
100
AcDbEntity
  8
SIZE
  6
Continuous
 62
     0
100
AcDbMText
 10
-47916.33094852818
 20
5516.67757263178
 30
0.0
 40
64.0
 41
0.0
 71
     5
 72
     1
  1
\A1;174
 73
     1
 44
1.0
  0
POINT
  5
21D2
330
21CA
100
AcDbEntity
  8
DEFPOINTS
  6
Continuous
 62
     0
100
AcDbPoint
 10
-48003.33094852819
 20
5604.635098820632
 30
0.0
  0
POINT
  5
21D3
330
21CA
100
AcDbEntity
  8
DEFPOINTS
  6
Continuous
 62
     0
100
AcDbPoint
 10
-47829.33094852818
 20
5604.635098820632
 30
0.0
  0
POINT
  5
21D4
330
21CA
100
AcDbEntity
  8
DEFPOINTS
  6
Continuous
 62
     0
100
AcDbPoint
 10
-47829.33094852818
 20
5474.67757263178
 30
0.0
  0
ENDBLK
  5
21D5
330
21CA
100
AcDbEntity
  8
0
100
AcDbBlockEnd
  0
BLOCK
  5
21D7
330
21D6
100
AcDbEntity
  8
0
100
AcDbBlockBegin
  2
*D51
 70
     1
 10
0.0
 20
0.0
 30
0.0
  3
*D51
  1

  0
LINE
  5
21D8
330
21D6
100
AcDbEntity
  8
SIZE
  6
Continuous
 62
     0
370
    -2
100
AcDbLine
 10
-48030.33094852819
 20
5581.058118559781
 30
0.0
 11
-48030.33094852819
 21
5331.062132395143
 31
0.0
  0
LINE
  5
21D9
330
21D6
100
AcDbEntity
  8
SIZE
  6
Continuous
 62
     0
370
    -2
100
AcDbLine
 10
-47814.33094852822
 20
5581.055159428294
 30
0.0
 11
-47814.33094852822
 21
5331.062132395143
 31
0.0
  0
LINE
  5
21DA
330
21D6
100
AcDbEntity
  8
SIZE
  6
Continuous
 62
     0
370
    -2
100
AcDbLine
 10
-48018.33094852819
 20
5351.062132395142
 30
0.0
 11
-47826.33094852822
 21
5351.062132395142
 31
0.0
  0
INSERT
  5
21DB
330
21D6
100
AcDbEntity
  8
SIZE
  6
Continuous
 62
     0
370
    -2
100
AcDbBlockReference
  2
_DOTBLANK
 10
-48030.33094852819
 20
5351.062132395142
 30
0.0
 41
12.0
 42
12.0
 43
12.0
 50
180.0
  0
INSERT
  5
21DC
330
21D6
100
AcDbEntity
  8
SIZE
  6
Continuous
 62
     0
370
    -2
100
AcDbBlockReference
  2
_DOTBLANK
 10
-47814.33094852822
 20
5351.062132395142
 30
0.0
 41
12.0
 42
12.0
 43
12.0
  0
MTEXT
  5
21DD
330
21D6
100
AcDbEntity
  8
SIZE
  6
Continuous
 62
     0
100
AcDbMText
 10
-47922.33094852821
 20
5393.062132395143
 30
0.0
 40
64.0
 41
0.0
 71
     5
 72
     1
  1
\A1;216
 73
     1
 44
1.0
  0
POINT
  5
21DE
330
21D6
100
AcDbEntity
  8
DEFPOINTS
  6
Continuous
 62
     0
100
AcDbPoint
 10
-48030.33094852819
 20
5601.05811855978
 30
0.0
  0
POINT
  5
21DF
330
21D6
100
AcDbEntity
  8
DEFPOINTS
  6
Continuous
 62
     0
100
AcDbPoint
 10
-47814.33094852822
 20
5601.055159428295
 30
0.0
  0
POINT
  5
21E0
330
21D6
100
AcDbEntity
  8
DEFPOINTS
  6
Continuous
 62
     0
100
AcDbPoint
 10
-47814.33094852822
 20
5351.062132395142
 30
0.0
  0
ENDBLK
  5
21E1
330
21D6
100
AcDbEntity
  8
0
100
AcDbBlockEnd
  0
BLOCK
  5
21E3
330
21E2
100
AcDbEntity
  8
0
100
AcDbBlockBegin
  2
*D52
 70
     1
 10
0.0
 20
0.0
 30
0.0
  3
*D52
  1

  0
LINE
  5
21E4
330
21E2
100
AcDbEntity
  8
SIZE
  6
Continuous
 62
     0
370
    -2
100
AcDbLine
 10
-48030.83094852818
 20
5612.135098820632
 30
0.0
 11
-48134.87891501994
 21
5612.135098820632
 31
0.0
  0
LINE
  5
21E5
330
21E2
100
AcDbEntity
  8
SIZE
  6
Continuous
 62
     0
370
    -2
100
AcDbLine
 10
-47987.83094852819
 20
6092.635098820633
 30
0.0
 11
-48134.87891501994
 21
6092.635098820633
 31
0.0
  0
LINE
  5
21E6
330
21E2
100
AcDbEntity
  8
SIZE
  6
Continuous
 62
     0
370
    -2
100
AcDbLine
 10
-48114.87891501994
 20
5624.135098820632
 30
0.0
 11
-48114.87891501994
 21
6080.635098820633
 31
0.0
  0
INSERT
  5
21E7
330
21E2
100
AcDbEntity
  8
SIZE
  6
Continuous
 62
     0
370
    -2
100
AcDbBlockReference
  2
_DOTBLANK
 10
-48114.87891501994
 20
5612.135098820632
 30
0.0
 41
12.0
 42
12.0
 43
12.0
 50
270.0
  0
INSERT
  5
21E8
330
21E2
100
AcDbEntity
  8
SIZE
  6
Continuous
 62
     0
370
    -2
100
AcDbBlockReference
  2
_DOTBLANK
 10
-48114.87891501994
 20
6092.635098820633
 30
0.0
 41
12.0
 42
12.0
 43
12.0
 50
90.0
  0
MTEXT
  5
21E9
330
21E2
100
AcDbEntity
  8
SIZE
  6
Continuous
 62
     0
100
AcDbMText
 10
-48156.87891501994
 20
5852.385098820624
 30
0.0
 40
64.0
 41
0.0
 71
     5
 72
     1
  1
\A1;481
 11
0.0000000000000001
 21
1.0
 31
0.0
 73
     1
 44
1.0
  0
POINT
  5
21EA
330
21E2
100
AcDbEntity
  8
DEFPOINTS
  6
Continuous
 62
     0
100
AcDbPoint
 10
-48010.83094852819
 20
5612.135098820632
 30
0.0
  0
POINT
  5
21EB
330
21E2
100
AcDbEntity
  8
DEFPOINTS
  6
Continuous
 62
     0
100
AcDbPoint
 10
-47967.83094852818
 20
6092.635098820633
 30
0.0
  0
POINT
  5
21EC
330
21E2
100
AcDbEntity
  8
DEFPOINTS
  6
Continuous
 62
     0
100
AcDbPoint
 10
-48114.87891501994
 20
6092.635098820633
 30
0.0
  0
ENDBLK
  5
21ED
330
21E2
100
AcDbEntity
  8
0
100
AcDbBlockEnd
  0
BLOCK
  5
21EF
330
21EE
100
AcDbEntity
  8
0
100
AcDbBlockBegin
  2
*D53
 70
     1
 10
0.0
 20
0.0
 30
0.0
  3
*D53
  1

  0
LINE
  5
21F0
330
21EE
100
AcDbEntity
  8
SIZE
  6
Continuous
 62
     0
370
    -2
100
AcDbLine
 10
-48000.83094852818
 20
6098.135098820632
 30
0.0
 11
-48242.97804826069
 21
6098.135098820632
 31
0.0
  0
LINE
  5
21F1
330
21EE
100
AcDbEntity
  8
SIZE
  6
Continuous
 62
     0
370
    -2
100
AcDbLine
 10
-48049.43094852818
 20
5600.135098820633
 30
0.0
 11
-48242.97804826069
 21
5600.135098820633
 31
0.0
  0
LINE
  5
21F2
330
21EE
100
AcDbEntity
  8
SIZE
  6
Continuous
 62
     0
370
    -2
100
AcDbLine
 10
-48222.97804826068
 20
6086.135098820633
 30
0.0
 11
-48222.97804826068
 21
5612.135098820632
 31
0.0
  0
INSERT
  5
21F3
330
21EE
100
AcDbEntity
  8
SIZE
  6
Continuous
 62
     0
370
    -2
100
AcDbBlockReference
  2
_DOTBLANK
 10
-48222.97804826068
 20
6098.135098820632
 30
0.0
 41
12.0
 42
12.0
 43
12.0
 50
90.0
  0
INSERT
  5
21F4
330
21EE
100
AcDbEntity
  8
SIZE
  6
Continuous
 62
     0
370
    -2
100
AcDbBlockReference
  2
_DOTBLANK
 10
-48222.97804826068
 20
5600.135098820633
 30
0.0
 41
12.0
 42
12.0
 43
12.0
 50
270.0
  0
MTEXT
  5
21F5
330
21EE
100
AcDbEntity
  8
SIZE
  6
Continuous
 62
     0
100
AcDbMText
 10
-48264.97804826068
 20
5849.135098820624
 30
0.0
 40
64.0
 41
0.0
 71
     5
 72
     1
  1
\A1;498
 11
0.0000000000000001
 21
1.0
 31
0.0
 73
     1
 44
1.0
  0
POINT
  5
21F6
330
21EE
100
AcDbEntity
  8
DEFPOINTS
  6
Continuous
 62
     0
100
AcDbPoint
 10
-47980.83094852819
 20
6098.135098820632
 30
0.0
  0
POINT
  5
21F7
330
21EE
100
AcDbEntity
  8
DEFPOINTS
  6
Continuous
 62
     0
100
AcDbPoint
 10
-48029.43094852818
 20
5600.135098820633
 30
0.0
  0
POINT
  5
21F8
330
21EE
100
AcDbEntity
  8
DEFPOINTS
  6
Continuous
 62
     0
100
AcDbPoint
 10
-48222.97804826068
 20
5600.135098820633
 30
0.0
  0
ENDBLK
  5
21F9
330
21EE
100
AcDbEntity
  8
0
100
AcDbBlockEnd
  0
BLOCK
  5
2574
330
2573
100
AcDbEntity
  8
0
100
AcDbBlockBegin
  2
*D55
 70
     1
 10
0.0
 20
0.0
 30
0.0
  3
*D55
  1

  0
LINE
  5
2576
330
2573
100
AcDbEntity
  8
SIZE
  6
Continuous
 62
     0
370
    -2
100
AcDbLine
 10
-94.90934179102856
 20
-1848.145353936102
 30
0.0
 11
-94.90934179102856
 21
-1793.050749013119
 31
0.0
  0
LINE
  5
2577
330
2573
100
AcDbEntity
  8
SIZE
  6
Continuous
 62
     0
370
    -2
100
AcDbLine
 10
29.09065820897144
 20
-1848.1453539361
 30
0.0
 11
29.09065820897144
 21
-1793.050749013119
 31
0.0
  0
LINE
  5
2578
330
2573
100
AcDbEntity
  8
SIZE
  6
Continuous
 62
     0
370
    -2
100
AcDbLine
 10
-82.90934179102857
 20
-1813.050749013119
 30
0.0
 11
17.09065820897144
 21
-1813.050749013119
 31
0.0
  0
INSERT
  5
2579
330
2573
100
AcDbEntity
  8
SIZE
  6
Continuous
 62
     0
370
    -2
100
AcDbBlockReference
  2
_DOTBLANK
 10
-94.90934179102856
 20
-1813.050749013119
 30
0.0
 41
12.0
 42
12.0
 43
12.0
 50
180.0
  0
INSERT
  5
257A
330
2573
100
AcDbEntity
  8
SIZE
  6
Continuous
 62
     0
370
    -2
100
AcDbBlockReference
  2
_DOTBLANK
 10
29.09065820897144
 20
-1813.050749013119
 30
0.0
 41
12.0
 42
12.0
 43
12.0
  0
MTEXT
  5
257B
330
2573
100
AcDbEntity
  8
SIZE
  6
Continuous
 62
     0
100
AcDbMText
 10
-32.90934179102857
 20
-1771.050749013119
 30
0.0
 40
64.0
 41
0.0
 71
     5
 72
     1
  1
\A1;124
 73
     1
 44
1.0
  0
POINT
  5
257C
330
2573
100
AcDbEntity
  8
DEFPOINTS
  6
Continuous
 62
     0
100
AcDbPoint
 10
-94.90934179102856
 20
-1868.145353936102
 30
0.0
  0
POINT
  5
257D
330
2573
100
AcDbEntity
  8
DEFPOINTS
  6
Continuous
 62
     0
100
AcDbPoint
 10
29.09065820897144
 20
-1868.1453539361
 30
0.0
  0
POINT
  5
257E
330
2573
100
AcDbEntity
  8
DEFPOINTS
  6
Continuous
 62
     0
100
AcDbPoint
 10
29.09065820897144
 20
-1813.050749013119
 30
0.0
  0
ENDBLK
  5
2575
330
2573
100
AcDbEntity
  8
0
100
AcDbBlockEnd
  0
BLOCK
  5
2580
330
257F
100
AcDbEntity
  8
0
100
AcDbBlockBegin
  2
*D56
 70
     1
 10
0.0
 20
0.0
 30
0.0
  3
*D56
  1

  0
LINE
  5
2582
330
257F
100
AcDbEntity
  8
SIZE
  6
Continuous
 62
     0
370
    -2
100
AcDbLine
 10
-137.9093417910285
 20
-2383.645353936103
 30
0.0
 11
-137.9093417910285
 21
-2513.602880124955
 31
0.0
  0
LINE
  5
2583
330
257F
100
AcDbEntity
  8
SIZE
  6
Continuous
 62
     0
370
    -2
100
AcDbLine
 10
36.09065820897143
 20
-2383.645353936103
 30
0.0
 11
36.09065820897143
 21
-2513.602880124955
 31
0.0
  0
LINE
  5
2584
330
257F
100
AcDbEntity
  8
SIZE
  6
Continuous
 62
     0
370
    -2
100
AcDbLine
 10
-125.9093417910285
 20
-2493.602880124955
 30
0.0
 11
24.09065820897143
 21
-2493.602880124955
 31
0.0
  0
INSERT
  5
2585
330
257F
100
AcDbEntity
  8
SIZE
  6
Continuous
 62
     0
370
    -2
100
AcDbBlockReference
  2
_DOTBLANK
 10
-137.9093417910285
 20
-2493.602880124955
 30
0.0
 41
12.0
 42
12.0
 43
12.0
 50
180.0
  0
INSERT
  5
2586
330
257F
100
AcDbEntity
  8
SIZE
  6
Continuous
 62
     0
370
    -2
100
AcDbBlockReference
  2
_DOTBLANK
 10
36.09065820897143
 20
-2493.602880124955
 30
0.0
 41
12.0
 42
12.0
 43
12.0
  0
MTEXT
  5
2587
330
257F
100
AcDbEntity
  8
SIZE
  6
Continuous
 62
     0
100
AcDbMText
 10
-50.90934179102856
 20
-2451.602880124955
 30
0.0
 40
64.0
 41
0.0
 71
     5
 72
     1
  1
\A1;174
 73
     1
 44
1.0
  0
POINT
  5
2588
330
257F
100
AcDbEntity
  8
DEFPOINTS
  6
Continuous
 62
     0
100
AcDbPoint
 10
-137.9093417910285
 20
-2363.645353936103
 30
0.0
  0
POINT
  5
2589
330
257F
100
AcDbEntity
  8
DEFPOINTS
  6
Continuous
 62
     0
100
AcDbPoint
 10
36.09065820897143
 20
-2363.645353936103
 30
0.0
  0
POINT
  5
258A
330
257F
100
AcDbEntity
  8
DEFPOINTS
  6
Continuous
 62
     0
100
AcDbPoint
 10
36.09065820897143
 20
-2493.602880124955
 30
0.0
  0
ENDBLK
  5
2581
330
257F
100
AcDbEntity
  8
0
100
AcDbBlockEnd
  0
BLOCK
  5
258C
330
258B
100
AcDbEntity
  8
0
100
AcDbBlockBegin
  2
*D57
 70
     1
 10
0.0
 20
0.0
 30
0.0
  3
*D57
  1

  0
LINE
  5
258E
330
258B
100
AcDbEntity
  8
SIZE
  6
Continuous
 62
     0
370
    -2
100
AcDbLine
 10
-164.9093417910285
 20
-2387.222334196955
 30
0.0
 11
-164.9093417910286
 21
-2637.218320361592
 31
0.0
  0
LINE
  5
258F
330
258B
100
AcDbEntity
  8
SIZE
  6
Continuous
 62
     0
370
    -2
100
AcDbLine
 10
51.09065820893505
 20
-2387.225293328441
 30
0.0
 11
51.09065820893504
 21
-2637.218320361592
 31
0.0
  0
LINE
  5
2590
330
258B
100
AcDbEntity
  8
SIZE
  6
Continuous
 62
     0
370
    -2
100
AcDbLine
 10
-152.9093417910286
 20
-2617.218320361593
 30
0.0
 11
39.09065820893504
 21
-2617.218320361593
 31
0.0
  0
INSERT
  5
2591
330
258B
100
AcDbEntity
  8
SIZE
  6
Continuous
 62
     0
370
    -2
100
AcDbBlockReference
  2
_DOTBLANK
 10
-164.9093417910286
 20
-2617.218320361593
 30
0.0
 41
12.0
 42
12.0
 43
12.0
 50
180.0
  0
INSERT
  5
2592
330
258B
100
AcDbEntity
  8
SIZE
  6
Continuous
 62
     0
370
    -2
100
AcDbBlockReference
  2
_DOTBLANK
 10
51.09065820893504
 20
-2617.218320361593
 30
0.0
 41
12.0
 42
12.0
 43
12.0
  0
MTEXT
  5
2593
330
258B
100
AcDbEntity
  8
SIZE
  6
Continuous
 62
     0
100
AcDbMText
 10
-56.90934179104678
 20
-2575.218320361593
 30
0.0
 40
64.0
 41
0.0
 71
     5
 72
     1
  1
\A1;216
 73
     1
 44
1.0
  0
POINT
  5
2594
330
258B
100
AcDbEntity
  8
DEFPOINTS
  6
Continuous
 62
     0
100
AcDbPoint
 10
-164.9093417910285
 20
-2367.222334196955
 30
0.0
  0
POINT
  5
2595
330
258B
100
AcDbEntity
  8
DEFPOINTS
  6
Continuous
 62
     0
100
AcDbPoint
 10
51.09065820893505
 20
-2367.225293328441
 30
0.0
  0
POINT
  5
2596
330
258B
100
AcDbEntity
  8
DEFPOINTS
  6
Continuous
 62
     0
100
AcDbPoint
 10
51.09065820893504
 20
-2617.218320361593
 30
0.0
  0
ENDBLK
  5
258D
330
258B
100
AcDbEntity
  8
0
100
AcDbBlockEnd
  0
BLOCK
  5
2598
330
2597
100
AcDbEntity
  8
0
100
AcDbBlockBegin
  2
*D58
 70
     1
 10
0.0
 20
0.0
 30
0.0
  3
*D58
  1

  0
LINE
  5
259A
330
2597
100
AcDbEntity
  8
SIZE
  6
Continuous
 62
     0
370
    -2
100
AcDbLine
 10
-165.4093417910285
 20
-2356.145353936103
 30
0.0
 11
-269.4573082827871
 21
-2356.145353936103
 31
0.0
  0
LINE
  5
259B
330
2597
100
AcDbEntity
  8
SIZE
  6
Continuous
 62
     0
370
    -2
100
AcDbLine
 10
-122.4093417910285
 20
-1875.645353936102
 30
0.0
 11
-269.457308282787
 21
-1875.645353936102
 31
0.0
  0
LINE
  5
259C
330
2597
100
AcDbEntity
  8
SIZE
  6
Continuous
 62
     0
370
    -2
100
AcDbLine
 10
-249.4573082827871
 20
-2344.145353936103
 30
0.0
 11
-249.457308282787
 21
-1887.645353936102
 31
0.0
  0
INSERT
  5
259D
330
2597
100
AcDbEntity
  8
SIZE
  6
Continuous
 62
     0
370
    -2
100
AcDbBlockReference
  2
_DOTBLANK
 10
-249.4573082827871
 20
-2356.145353936103
 30
0.0
 41
12.0
 42
12.0
 43
12.0
 50
270.0
  0
INSERT
  5
259E
330
2597
100
AcDbEntity
  8
SIZE
  6
Continuous
 62
     0
370
    -2
100
AcDbBlockReference
  2
_DOTBLANK
 10
-249.457308282787
 20
-1875.645353936102
 30
0.0
 41
12.0
 42
12.0
 43
12.0
 50
90.0
  0
MTEXT
  5
259F
330
2597
100
AcDbEntity
  8
SIZE
  6
Continuous
 62
     0
100
AcDbMText
 10
-291.4573082827867
 20
-2115.895353936102
 30
0.0
 40
64.0
 41
0.0
 71
     5
 72
     1
  1
\A1;481
 11
0.0000000000000001
 21
1.0
 31
0.0
 73
     1
 44
1.0
  0
POINT
  5
25A0
330
2597
100
AcDbEntity
  8
DEFPOINTS
  6
Continuous
 62
     0
100
AcDbPoint
 10
-145.4093417910286
 20
-2356.145353936103
 30
0.0
  0
POINT
  5
25A1
330
2597
100
AcDbEntity
  8
DEFPOINTS
  6
Continuous
 62
     0
100
AcDbPoint
 10
-102.4093417910285
 20
-1875.645353936102
 30
0.0
  0
POINT
  5
25A2
330
2597
100
AcDbEntity
  8
DEFPOINTS
  6
Continuous
 62
     0
100
AcDbPoint
 10
-249.457308282787
 20
-1875.645353936102
 30
0.0
  0
ENDBLK
  5
2599
330
2597
100
AcDbEntity
  8
0
100
AcDbBlockEnd
  0
BLOCK
  5
25A4
330
25A3
100
AcDbEntity
  8
0
100
AcDbBlockBegin
  2
*D59
 70
     1
 10
0.0
 20
0.0
 30
0.0
  3
*D59
  1

  0
LINE
  5
25A6
330
25A3
100
AcDbEntity
  8
SIZE
  6
Continuous
 62
     0
370
    -2
100
AcDbLine
 10
-135.4093417910286
 20
-1870.145353936103
 30
0.0
 11
-377.5564415235298
 21
-1870.145353936103
 31
0.0
  0
LINE
  5
25A7
330
25A3
100
AcDbEntity
  8
SIZE
  6
Continuous
 62
     0
370
    -2
100
AcDbLine
 10
-184.0093417910271
 20
-2368.145353936103
 30
0.0
 11
-377.55644152353
 21
-2368.145353936103
 31
0.0
  0
LINE
  5
25A8
330
25A3
100
AcDbEntity
  8
SIZE
  6
Continuous
 62
     0
370
    -2
100
AcDbLine
 10
-357.5564415235298
 20
-1882.145353936103
 30
0.0
 11
-357.5564415235299
 21
-2356.145353936103
 31
0.0
  0
INSERT
  5
25A9
330
25A3
100
AcDbEntity
  8
SIZE
  6
Continuous
 62
     0
370
    -2
100
AcDbBlockReference
  2
_DOTBLANK
 10
-357.5564415235298
 20
-1870.145353936103
 30
0.0
 41
12.0
 42
12.0
 43
12.0
 50
90.0
  0
INSERT
  5
25AA
330
25A3
100
AcDbEntity
  8
SIZE
  6
Continuous
 62
     0
370
    -2
100
AcDbBlockReference
  2
_DOTBLANK
 10
-357.5564415235299
 20
-2368.145353936103
 30
0.0
 41
12.0
 42
12.0
 43
12.0
 50
270.0
  0
MTEXT
  5
25AB
330
25A3
100
AcDbEntity
  8
SIZE
  6
Continuous
 62
     0
100
AcDbMText
 10
-399.5564415235295
 20
-2119.145353936103
 30
0.0
 40
64.0
 41
0.0
 71
     5
 72
     1
  1
\A1;498
 11
0.0000000000000001
 21
1.0
 31
0.0
 73
     1
 44
1.0
  0
POINT
  5
25AC
330
25A3
100
AcDbEntity
  8
DEFPOINTS
  6
Continuous
 62
     0
100
AcDbPoint
 10
-115.4093417910285
 20
-1870.145353936103
 30
0.0
  0
POINT
  5
25AD
330
25A3
100
AcDbEntity
  8
DEFPOINTS
  6
Continuous
 62
     0
100
AcDbPoint
 10
-164.0093417910271
 20
-2368.145353936103
 30
0.0
  0
POINT
  5
25AE
330
25A3
100
AcDbEntity
  8
DEFPOINTS
  6
Continuous
 62
     0
100
AcDbPoint
 10
-357.5564415235299
 20
-2368.145353936103
 30
0.0
  0
ENDBLK
  5
25A5
330
25A3
100
AcDbEntity
  8
0
100
AcDbBlockEnd
  0
ENDSEC
  0
SECTION
  2
ENTITIES
  0
TEXT
  5
953
330
85F
100
AcDbEntity
  8
OUTLINE
  6
Continuous
 62
     3
100
AcDbText
 10
-418.231467
 20
13.715189
 30
0.0
 40
64.0
  1
 
 41
0.9
100
AcDbText
  0
TEXT
  5
954
330
85F
100
AcDbEntity
  8
OUTLINE
  6
Continuous
 62
     3
100
AcDbText
 10
-418.231467
 20
13.715189
 30
0.0
 40
64.0
  1
 
 41
0.9
100
AcDbText
  0
TEXT
  5
955
330
85F
100
AcDbEntity
  8
OUTLINE
  6
Continuous
 62
     3
100
AcDbText
 10
1341.41903
 20
-706.0588199999997
 30
0.0
 40
64.0
  1
 
 41
0.9
100
AcDbText
  0
TEXT
  5
956
330
85F
100
AcDbEntity
  8
OUTLINE
  6
Continuous
 62
     3
100
AcDbText
 10
1341.41903
 20
-706.0588199999997
 30
0.0
 40
64.0
  1
 
 41
0.9
100
AcDbText
  0
TEXT
  5
957
330
85F
100
AcDbEntity
  8
OUTLINE
  6
Continuous
 62
     3
100
AcDbText
 10
1341.41903
 20
-706.0588199999997
 30
0.0
 40
64.0
  1
 
 41
0.9
100
AcDbText
  0
TEXT
  5
958
330
85F
100
AcDbEntity
  8
OUTLINE
  6
Continuous
 62
     3
100
AcDbText
 10
1341.41903
 20
-706.0588199999997
 30
0.0
 40
64.0
  1
 
 41
0.9
100
AcDbText
  0
LINE
  5
23BA
330
85F
100
AcDbEntity
  8
DETAIL
100
AcDbLine
 10
-131.9093417910286
 20
-2365.145353936103
 30
0.0
 11
-134.9093417910285
 21
-2368.145353936103
 31
0.0
  0
LINE
  5
23BB
330
85F
100
AcDbEntity
  8
DETAIL
100
AcDbLine
 10
-134.9093417910285
 20
-2328.145353936103
 30
0.0
 11
-131.9093417910286
 21
-2331.145353936103
 31
0.0
  0
LINE
  5
23BC
330
85F
100
AcDbEntity
  8
DETAIL
100
AcDbLine
 10
-131.9093417910286
 20
-2365.145353936103
 30
0.0
 11
-131.9093417910286
 21
-2331.145353936103
 31
0.0
  0
LINE
  5
23BD
330
85F
100
AcDbEntity
  8
DETAIL
100
AcDbLine
 10
-164.0093417910271
 20
-2368.145353936103
 30
0.0
 11
-134.9093417910285
 21
-2368.145353936103
 31
0.0
  0
LINE
  5
23BE
330
85F
100
AcDbEntity
  8
DETAIL
100
AcDbLine
 10
-158.9093417910286
 20
-2328.145353936103
 30
0.0
 11
-158.9093417910286
 21
-2205.693879845999
 31
0.0
  0
LINE
  5
23BF
330
85F
100
AcDbEntity
  8
DETAIL
100
AcDbLine
 10
-134.9093417910285
 20
-2328.145353936103
 30
0.0
 11
-158.9093417910286
 21
-2328.145353936103
 31
0.0
  0
LINE
  5
23C0
330
85F
100
AcDbEntity
  8
DETAIL
100
AcDbLine
 10
-154.8593417910256
 20
-1924.026185473518
 30
0.0
 11
-154.8593417910256
 21
-1924.20342118667
 31
0.0
  0
LINE
  5
23C1
330
85F
100
AcDbEntity
  8
DETAIL
100
AcDbLine
 10
-154.8593417910256
 20
-1924.896241509699
 30
0.0
 11
-154.8593417910256
 21
-1924.20342118667
 31
0.0
  0
ELLIPSE
  5
23C2
330
85F
100
AcDbEntity
  8
DETAIL
100
AcDbEllipse
 10
-155.4093417910285
 20
-1924.901185473518
 30
0.0
 11
1.499999999999997
 21
0.0000000000000195
 31
0.0
210
0.0
220
0.0
230
1.0
 40
0.4999999999999953
 41
1.946219934775777
 42
7.478558025993331
  0
ELLIPSE
  5
23C3
330
85F
100
AcDbEntity
  8
DETAIL
100
AcDbEllipse
 10
-155.4093417910285
 20
-1925.594005796545
 30
0.0
 11
-1.499999999999998
 21
-0.0000000000000777
 31
0.0
210
0.0
220
0.0
230
1.0
 40
0.4999999999999701
 41
5.0878125883658
 42
5.803071391300335
  0
ELLIPSE
  5
23C4
330
85F
100
AcDbEntity
  8
DETAIL
100
AcDbEllipse
 10
-155.4093417910285
 20
-1925.594005796546
 30
0.0
 11
-1.500000000000019
 21
-0.0000000000001537
 31
0.0
210
0.0
220
0.0
230
1.0
 40
0.5000000000000233
 41
3.62170656946855
 42
4.336965372403435
  0
LINE
  5
23C5
330
85F
100
AcDbEntity
  8
DETAIL
100
AcDbLine
 10
-155.9593417910242
 20
-1924.896241509699
 30
0.0
 11
-155.9593417910242
 21
-1924.20342118667
 31
0.0
  0
LINE
  5
23C6
330
85F
100
AcDbEntity
  8
DETAIL
100
AcDbLine
 10
-155.9593417910242
 20
-1924.20342118667
 30
0.0
 11
-155.9593417910242
 21
-1924.026185473518
 31
0.0
  0
ELLIPSE
  5
23C7
330
85F
100
AcDbEntity
  8
DETAIL
100
AcDbEllipse
 10
-155.4093417910285
 20
-1924.026185473518
 30
0.0
 11
-0.550000000000015
 21
0.0000000000001288
 31
0.0
210
0.0
220
0.0
230
1.0
 40
0.5000000000000436
 41
5.789020455897457
 42
6.283185307178911
  0
ELLIPSE
  5
23C8
330
85F
100
AcDbEntity
  8
DETAIL
100
AcDbEllipse
 10
-155.4093417910285
 20
-1924.026185473518
 30
0.0
 11
0.5499999999999408
 21
-0.0000000000000008
 31
0.0
210
0.0
220
0.0
230
1.0
 40
0.5000000000000189
 41
0.0
 42
0.4941648512814974
  0
ELLIPSE
  5
23C9
330
85F
100
AcDbEntity
  8
DETAIL
100
AcDbEllipse
 10
-155.4093417910285
 20
-1924.719005796545
 30
0.0
 11
0.5500000000000006
 21
0.0000000000000133
 31
0.0
210
0.0
220
0.0
230
1.0
 40
0.4999999999999998
 41
0.0
 42
3.141592653589633
  0
CIRCLE
  5
23CA
330
85F
100
AcDbEntity
  8
DETAIL
100
AcDbCircle
 10
-137.9093417910285
 20
-2356.145353936103
 30
0.0
 40
3.0
  0
LINE
  5
23CB
330
85F
100
AcDbEntity
  8
DETAIL
100
AcDbLine
 10
-154.8593417910256
 20
-2173.939268590961
 30
0.0
 11
-154.8593417910256
 21
-2174.293740017266
 31
0.0
  0
ARC
  5
23CC
330
85F
100
AcDbEntity
  8
DETAIL
100
AcDbCircle
 10
-155.4093417910285
 20
-2175.689268590962
 30
0.0
 40
1.500000000000015
100
AcDbArc
 50
111.5101882670052
 51
68.48981173299477
  0
LINE
  5
23CD
330
85F
100
AcDbEntity
  8
DETAIL
100
AcDbLine
 10
-155.9593417910242
 20
-2174.293740017266
 30
0.0
 11
-155.9593417910242
 21
-2173.939268590962
 31
0.0
  0
ARC
  5
23CE
330
85F
100
AcDbEntity
  8
DETAIL
100
AcDbCircle
 10
-155.4093417910285
 20
-2173.939268590962
 30
0.0
 40
0.5500000000000095
100
AcDbArc
 50
0.0
 51
180.0
  0
LINE
  5
23CF
330
85F
100
AcDbEntity
  8
DETAIL
100
AcDbLine
 10
-163.30934179103
 20
-2359.346570453561
 30
0.0
 11
-164.1093417910256
 21
-2359.346570453561
 31
0.0
  0
LINE
  5
23D0
330
85F
100
AcDbEntity
  8
DETAIL
100
AcDbLine
 10
-163.30934179103
 20
-2209.273772456631
 30
0.0
 11
-164.1093417910256
 21
-2209.273772456631
 31
0.0
  0
LINE
  5
23D1
330
85F
100
AcDbEntity
  8
DETAIL
100
AcDbLine
 10
-163.30934179103
 20
-2209.273772456631
 30
0.0
 11
-163.30934179103
 21
-2359.346570453561
 31
0.0
  0
LINE
  5
23D2
330
85F
100
AcDbEntity
  8
DETAIL
100
AcDbLine
 10
-164.1093417910256
 20
-2209.273772456631
 30
0.0
 11
-164.1093417910256
 21
-2206.616899585148
 31
0.0
  0
LINE
  5
23D3
330
85F
100
AcDbEntity
  8
DETAIL
100
AcDbLine
 10
-164.9093417910285
 20
-2206.616899585148
 30
0.0
 11
-164.9093417910285
 21
-2367.222334196955
 31
0.0
  0
LINE
  5
23D4
330
85F
100
AcDbEntity
  8
DETAIL
100
AcDbLine
 10
-164.1093417910256
 20
-2367.222334196955
 30
0.0
 11
-164.1093417910256
 21
-2359.346570453561
 31
0.0
  0
LINE
  5
23D5
330
85F
100
AcDbEntity
  8
DETAIL
100
AcDbLine
 10
-164.9093417910285
 20
-1888.145353936103
 30
0.0
 11
-164.9093417910285
 21
-1888.640353936103
 31
0.0
  0
LINE
  5
23D6
330
85F
100
AcDbEntity
  8
DETAIL
100
AcDbLine
 10
-164.1093417910256
 20
-1888.640353936103
 30
0.0
 11
-164.1093417910256
 21
-1888.145353936103
 31
0.0
  0
LINE
  5
23D7
330
85F
100
AcDbEntity
  8
DETAIL
100
AcDbLine
 10
-164.1093417910256
 20
-1888.145353936103
 30
0.0
 11
-164.9093417910285
 21
-1888.145353936103
 31
0.0
  0
LINE
  5
23D8
330
85F
100
AcDbEntity
  8
DETAIL
100
AcDbLine
 10
-164.1093417910256
 20
-2206.616899585148
 30
0.0
 11
-164.582299586155
 21
-2206.616899585148
 31
0.0
  0
LINE
  5
23D9
330
85F
100
AcDbEntity
  8
DETAIL
100
AcDbLine
 10
-164.582299586155
 20
-2206.616899585148
 30
0.0
 11
-164.9093417910285
 21
-2206.616899585148
 31
0.0
  0
LINE
  5
23DA
330
85F
100
AcDbEntity
  8
DETAIL
100
AcDbLine
 10
-164.0093417910271
 20
-1966.663879846
 30
0.0
 11
-164.0093417910271
 21
-2205.693879845999
 31
0.0
  0
LINE
  5
23DB
330
85F
100
AcDbEntity
  8
DETAIL
100
AcDbLine
 10
-164.0093417910271
 20
-1966.663879846
 30
0.0
 11
-164.9093417910285
 21
-1966.663879846
 31
0.0
  0
LINE
  5
23DC
330
85F
100
AcDbEntity
  8
DETAIL
100
AcDbLine
 10
-164.9093417910285
 20
-2206.616899585148
 30
0.0
 11
-164.9093417910285
 21
-1966.663879846
 31
0.0
  0
SPLINE
  5
23DD
330
85F
100
AcDbEntity
  8
DETAIL
100
AcDbSpline
210
0.0
220
0.0
230
1.0
 70
     8
 71
     3
 72
    11
 73
     7
 74
     0
 42
0.0000000001
 43
0.0000000001
 40
0.0
 40
0.0
 40
0.0
 40
0.0
 40
1.437607986813138
 40
1.437607986813138
 40
1.437607986813138
 40
1.570796326794916
 40
1.570796326794916
 40
1.570796326794916
 40
1.570796326794916
 10
-164.0093417910271
 20
-2205.693879845999
 30
0.0
 10
-164.4406241870697
 20
-2205.975465376079
 30
0.0
 10
-164.8440988651442
 20
-2206.257050906159
 30
0.0
 10
-164.9013709741799
 20
-2206.538636436239
 30
0.0
 10
-164.9066769944571
 20
-2206.564724152542
 30
0.0
 10
-164.9093417910285
 20
-2206.590811868844
 30
0.0
 10
-164.9093417910285
 20
-2206.616899585148
 30
0.0
  0
SPLINE
  5
23DE
330
85F
100
AcDbEntity
  8
DETAIL
100
AcDbSpline
210
0.0
220
0.0
230
1.0
 70
     8
 71
     3
 72
     8
 73
     4
 74
     0
 42
0.0000000001
 43
0.0000000001
 40
0.0
 40
0.0
 40
0.0
 40
0.0
 40
1.570796326794916
 40
1.570796326794916
 40
1.570796326794916
 40
1.570796326794916
 10
-164.1093417910256
 20
-2206.616899585148
 30
0.0
 10
-164.1093417910256
 20
-2206.309226338765
 30
0.0
 10
-164.0617016685888
 20
-2206.001553092381
 30
0.0
 10
-164.0093417910271
 20
-2205.693879845999
 30
0.0
  0
LINE
  5
23DF
330
85F
100
AcDbEntity
  8
DETAIL
100
AcDbLine
 10
-164.9093417910285
 20
-1966.663879846
 30
0.0
 11
-164.9093417910285
 21
-1965.689268590961
 31
0.0
  0
LINE
  5
23E0
330
85F
100
AcDbEntity
  8
DETAIL
100
AcDbLine
 10
-164.1093417910256
 20
-1965.689268590961
 30
0.0
 11
-164.1093417910256
 21
-1966.663879846
 31
0.0
  0
LINE
  5
23E1
330
85F
100
AcDbEntity
  8
DETAIL
100
AcDbLine
 10
-164.9093417910285
 20
-2367.222334196955
 30
0.0
 11
-164.582299586155
 21
-2367.222334196955
 31
0.0
  0
LINE
  5
23E2
330
85F
100
AcDbEntity
  8
DETAIL
100
AcDbLine
 10
-164.582299586155
 20
-2367.222334196955
 30
0.0
 11
-164.1093417910256
 21
-2367.222334196955
 31
0.0
  0
SPLINE
  5
23E3
330
85F
100
AcDbEntity
  8
DETAIL
100
AcDbSpline
210
0.0
220
0.0
230
1.0
 70
     8
 71
     3
 72
     8
 73
     4
 74
     0
 42
0.0000000001
 43
0.0000000001
 40
0.0
 40
0.0
 40
0.0
 40
0.0
 40
1.570796326794896
 40
1.570796326794896
 40
1.570796326794896
 40
1.570796326794896
 10
-164.1093417910256
 20
-2367.222334196955
 30
0.0
 10
-164.1093417910256
 20
-2367.530007443337
 30
0.0
 10
-164.0617016685888
 20
-2367.837680689719
 30
0.0
 10
-164.0093417910271
 20
-2368.145353936103
 30
0.0
  0
LINE
  5
23E4
330
85F
100
AcDbEntity
  8
DETAIL
100
AcDbLine
 10
-164.0093417910271
 20
-1965.356700169028
 30
0.0
 11
-164.0093417910271
 21
-1966.663879846
 31
0.0
  0
LINE
  5
23E5
330
85F
100
AcDbEntity
  8
DETAIL
100
AcDbLine
 10
-164.0093417910271
 20
-2205.693879845999
 30
0.0
 11
-164.0093417910271
 21
-2209.273772456631
 31
0.0
  0
LINE
  5
23E6
330
85F
100
AcDbEntity
  8
DETAIL
100
AcDbLine
 10
-164.0093417910271
 20
-2359.346570453561
 30
0.0
 11
-164.0093417910271
 21
-2368.145353936103
 31
0.0
  0
SPLINE
  5
23E7
330
85F
100
AcDbEntity
  8
DETAIL
100
AcDbSpline
210
0.0
220
0.0
230
1.0
 70
     8
 71
     3
 72
    11
 73
     7
 74
     0
 42
0.0000000001
 43
0.0000000001
 40
0.0
 40
0.0
 40
0.0
 40
0.0
 40
1.437607986812995
 40
1.437607986812995
 40
1.437607986812995
 40
1.570796326794896
 40
1.570796326794896
 40
1.570796326794896
 40
1.570796326794896
 10
-164.9093417910285
 20
-2367.222334196955
 30
0.0
 10
-164.9093417910285
 20
-2367.503919727035
 30
0.0
 10
-164.5563199737321
 20
-2367.785505257115
 30
0.0
 10
-164.1288572143408
 20
-2368.067090787195
 30
0.0
 10
-164.0892545856355
 20
-2368.093178503497
 30
0.0
 10
-164.049298293025
 20
-2368.1192662198
 30
0.0
 10
-164.0093417910271
 20
-2368.145353936103
 30
0.0
  0
LINE
  5
23E8
330
85F
100
AcDbEntity
  8
DETAIL
100
AcDbLine
 10
-162.4339319549568
 20
-2204.169289682061
 30
0.0
 11
-163.9093417910285
 21
-2205.693879845999
 31
0.0
  0
LINE
  5
23E9
330
85F
100
AcDbEntity
  8
DETAIL
100
AcDbLine
 10
-163.9093417910285
 20
-2205.693879845999
 30
0.0
 11
-164.0093417910271
 21
-2205.693879845999
 31
0.0
  0
LINE
  5
23EA
330
85F
100
AcDbEntity
  8
DETAIL
100
AcDbLine
 10
-164.0093417910271
 20
-1966.663879846
 30
0.0
 11
-163.9093417910285
 21
-1966.663879846
 31
0.0
  0
LINE
  5
23EB
330
85F
100
AcDbEntity
  8
DETAIL
100
AcDbLine
 10
-154.8593417910256
 20
-2003.939268590961
 30
0.0
 11
-154.8593417910256
 21
-2004.293740017266
 31
0.0
  0
ARC
  5
23EC
330
85F
100
AcDbEntity
  8
DETAIL
100
AcDbCircle
 10
-155.4093417910285
 20
-2005.689268590962
 30
0.0
 40
1.499999999999981
100
AcDbArc
 50
111.5101882670052
 51
68.48981173299477
  0
LINE
  5
23ED
330
85F
100
AcDbEntity
  8
DETAIL
100
AcDbLine
 10
-155.9593417910242
 20
-2004.293740017266
 30
0.0
 11
-155.9593417910242
 21
-2003.939268590961
 31
0.0
  0
ARC
  5
23EE
330
85F
100
AcDbEntity
  8
DETAIL
100
AcDbCircle
 10
-155.4093417910285
 20
-2003.939268590961
 30
0.0
 40
0.5500000000000006
100
AcDbArc
 50
0.0
 51
180.0
  0
LINE
  5
23EF
330
85F
100
AcDbEntity
  8
DETAIL
100
AcDbLine
 10
-164.9093417910285
 20
-1965.689268590961
 30
0.0
 11
-164.1093417910256
 21
-1965.689268590961
 31
0.0
  0
LINE
  5
23F0
330
85F
100
AcDbEntity
  8
DETAIL
100
AcDbLine
 10
-164.9093417910285
 20
-1965.689268590961
 30
0.0
 11
-164.9093417910285
 21
-1965.451962963443
 31
0.0
  0
LINE
  5
23F1
330
85F
100
AcDbEntity
  8
DETAIL
100
AcDbLine
 10
-164.9093417910285
 20
-1965.451962963443
 30
0.0
 11
-164.9093417910285
 21
-1965.443302709404
 31
0.0
  0
LINE
  5
23F2
330
85F
100
AcDbEntity
  8
DETAIL
100
AcDbLine
 10
-164.9093417910285
 20
-1965.443302709404
 30
0.0
 11
-164.9093417910285
 21
-1889.424776799509
 31
0.0
  0
LINE
  5
23F3
330
85F
100
AcDbEntity
  8
DETAIL
100
AcDbLine
 10
-164.9093417910285
 20
-1889.424776799509
 30
0.0
 11
-164.9093417910285
 21
-1888.640353936103
 31
0.0
  0
LINE
  5
23F4
330
85F
100
AcDbEntity
  8
DETAIL
100
AcDbLine
 10
-164.1093417910256
 20
-1888.640353936103
 30
0.0
 11
-164.1093417910256
 21
-1888.650180130268
 31
0.0
  0
LINE
  5
23F5
330
85F
100
AcDbEntity
  8
DETAIL
100
AcDbLine
 10
-164.1093417910256
 20
-1965.443302709404
 30
0.0
 11
-164.1093417910256
 21
-1965.451962963443
 31
0.0
  0
LINE
  5
23F6
330
85F
100
AcDbEntity
  8
DETAIL
100
AcDbLine
 10
-164.1093417910256
 20
-1965.451962963443
 30
0.0
 11
-164.1093417910256
 21
-1965.689268590961
 31
0.0
  0
LINE
  5
23F7
330
85F
100
AcDbEntity
  8
DETAIL
100
AcDbLine
 10
-164.0093417910271
 20
-1888.645353936104
 30
0.0
 11
-164.0093417910271
 21
-1964.663879846
 31
0.0
  0
ELLIPSE
  5
23F8
330
85F
100
AcDbEntity
  8
DETAIL
100
AcDbEllipse
 10
-164.0093417910271
 20
-1889.424776799509
 30
0.0
 11
-0.8999999999999445
 21
0.0000000000009259
 31
0.0
210
0.0
220
0.0
230
1.0
 40
0.8660254037844394
 41
4.712388980385975
 42
6.283185307180374
  0
ELLIPSE
  5
23F9
330
85F
100
AcDbEntity
  8
DETAIL
100
AcDbEllipse
 10
-164.0093417910271
 20
-1965.443302709405
 30
0.0
 11
-0.9000000000000628
 21
-0.0000000000000068
 31
0.0
210
0.0
220
0.0
230
1.0
 40
0.8660254037844364
 41
4.712388980384682
 42
6.283185307179573
  0
LINE
  5
23FA
330
85F
100
AcDbEntity
  8
DETAIL
100
AcDbLine
 10
-164.0093417910271
 20
-1964.663879846
 30
0.0
 11
-164.0093417910271
 21
-1965.356700169028
 31
0.0
  0
LINE
  5
23FB
330
85F
100
AcDbEntity
  8
DETAIL
100
AcDbLine
 10
-164.9093417910285
 20
-1965.443302709404
 30
0.0
 11
-164.1093417910256
 21
-1965.443302709404
 31
0.0
  0
ELLIPSE
  5
23FC
330
85F
100
AcDbEntity
  8
DETAIL
100
AcDbEllipse
 10
-164.0093417910271
 20
-1965.443302709405
 30
0.0
 11
-0.1000000000000785
 21
0.0000000000000006
 31
0.0
210
0.0
220
0.0
230
1.0
 40
0.8660254037845174
 41
4.712388980384695
 42
6.28318530717952
  0
LINE
  5
23FD
330
85F
100
AcDbEntity
  8
DETAIL
100
AcDbLine
 10
-164.1093417910256
 20
-1965.451962963443
 30
0.0
 11
-164.9093417910285
 21
-1965.451962963443
 31
0.0
  0
LINE
  5
23FE
330
85F
100
AcDbEntity
  8
DETAIL
100
AcDbLine
 10
-164.9093417910285
 20
-1888.640353936103
 30
0.0
 11
-164.1093417910256
 21
-1888.640353936103
 31
0.0
  0
LINE
  5
23FF
330
85F
100
AcDbEntity
  8
DETAIL
100
AcDbLine
 10
-163.9093417910285
 20
-1965.356700169029
 30
0.0
 11
-164.0093417910271
 21
-1965.356700169028
 31
0.0
  0
LINE
  5
2400
330
85F
100
AcDbEntity
  8
DETAIL
100
AcDbLine
 10
-163.9093417910285
 20
-1964.663879846001
 30
0.0
 11
-164.0093417910271
 21
-1964.663879846
 31
0.0
  0
LINE
  5
2401
330
85F
100
AcDbEntity
  8
DETAIL
100
AcDbLine
 10
-164.0093417910271
 20
-1888.645353936104
 30
0.0
 11
-163.9093417910285
 21
-1888.645353936104
 31
0.0
  0
ARC
  5
2402
330
85F
100
AcDbEntity
  8
DETAIL
100
AcDbCircle
 10
-164.0093417910271
 20
-1889.045353936102
 30
0.0
 40
0.8999999999999683
100
AcDbArc
 50
90.0
 51
96.37937020834836
  0
LINE
  5
2403
330
85F
100
AcDbEntity
  8
DETAIL
100
AcDbLine
 10
-164.0093417910271
 20
-1888.145353936103
 30
0.0
 11
-164.0093417910271
 21
-1888.645353936104
 31
0.0
  0
LINE
  5
2404
330
85F
100
AcDbEntity
  8
DETAIL
100
AcDbLine
 10
-163.9093417910285
 20
-1888.145353936103
 30
0.0
 11
-164.0093417910271
 21
-1888.145353936103
 31
0.0
  0
LINE
  5
2405
330
85F
100
AcDbEntity
  8
DETAIL
100
AcDbLine
 10
26.09065820897143
 20
-2368.145353936103
 30
0.0
 11
23.09065820897143
 21
-2365.145353936103
 31
0.0
  0
LINE
  5
2406
330
85F
100
AcDbEntity
  8
DETAIL
100
AcDbLine
 10
23.09065820897143
 20
-2365.145353936103
 30
0.0
 11
23.09065820897143
 21
-2205.693879845999
 31
0.0
  0
LINE
  5
2407
330
85F
100
AcDbEntity
  8
DETAIL
100
AcDbLine
 10
50.19065820896997
 20
-2368.145353936103
 30
0.0
 11
26.09065820897143
 21
-2368.145353936103
 31
0.0
  0
LINE
  5
2408
330
85F
100
AcDbEntity
  8
DETAIL
100
AcDbLine
 10
41.0406582089758
 20
-1924.728809931632
 30
0.0
 11
41.0406582089758
 21
-1924.55157421848
 31
0.0
  0
LINE
  5
2409
330
85F
100
AcDbEntity
  8
DETAIL
100
AcDbLine
 10
41.0406582089758
 20
-1924.728809931632
 30
0.0
 11
41.0406582089758
 21
-1925.42163025466
 31
0.0
  0
ELLIPSE
  5
240A
330
85F
100
AcDbEntity
  8
DETAIL
100
AcDbEllipse
 10
41.59065820897143
 20
-1926.119394541507
 30
0.0
 11
-1.499999999999761
 21
-0.0000000000001237
 31
0.0
210
0.0
220
0.0
230
1.0
 40
0.4999999999998731
 41
5.087812588365601
 42
5.461482537832949
  0
ELLIPSE
  5
240B
330
85F
100
AcDbEntity
  8
DETAIL
100
AcDbEllipse
 10
41.59065820897143
 20
-1926.119394541508
 30
0.0
 11
-1.500000000000041
 21
-0.0000000000002191
 31
0.0
210
0.0
220
0.0
230
1.0
 40
0.500000000000123
 41
3.963295422935443
 42
4.336965372403666
  0
ELLIPSE
  5
240C
330
85F
100
AcDbEntity
  8
DETAIL
100
AcDbEllipse
 10
41.59065820897143
 20
-1925.42657421848
 30
0.0
 11
1.500000000000027
 21
-0.0000000000000072
 31
0.0
210
0.0
220
0.0
230
1.0
 40
0.4999999999999976
 41
6.279593477804381
 42
7.478558025993352
  0
ELLIPSE
  5
240D
330
85F
100
AcDbEntity
  8
DETAIL
100
AcDbEllipse
 10
41.59065820897143
 20
-1925.42657421848
 30
0.0
 11
-1.499999999999998
 21
0.0000000000000125
 31
0.0
210
0.0
220
0.0
230
1.0
 40
0.4999999999999908
 41
5.087812588365824
 42
6.286777136553929
  0
LINE
  5
240E
330
85F
100
AcDbEntity
  8
DETAIL
100
AcDbLine
 10
42.14065820897434
 20
-1924.728809931632
 30
0.0
 11
42.14065820897434
 21
-1925.42163025466
 31
0.0
  0
LINE
  5
240F
330
85F
100
AcDbEntity
  8
DETAIL
100
AcDbLine
 10
42.14065820897434
 20
-1924.55157421848
 30
0.0
 11
42.14065820897434
 21
-1924.728809931632
 31
0.0
  0
ELLIPSE
  5
2410
330
85F
100
AcDbEntity
  8
DETAIL
100
AcDbEllipse
 10
41.59065820897143
 20
-1925.244394541507
 30
0.0
 11
0.5500000000000007
 21
-0.0000000000000044
 31
0.0
210
0.0
220
0.0
230
1.0
 40
0.4999999999999981
 41
0.000000000000016
 42
3.141592653589809
  0
ELLIPSE
  5
2411
330
85F
100
AcDbEntity
  8
DETAIL
100
AcDbEllipse
 10
41.59065820897143
 20
-1924.55157421848
 30
0.0
 11
-0.5500000000000007
 21
0.0000000000000088
 31
0.0
210
0.0
220
0.0
230
1.0
 40
0.4999999999999919
 41
3.141592653589633
 42
6.283185307179425
  0
CIRCLE
  5
2412
330
85F
100
AcDbEntity
  8
DETAIL
100
AcDbCircle
 10
36.09065820897143
 20
-2356.145353936103
 30
0.0
 40
4.500000000000001
  0
LINE
  5
2413
330
85F
100
AcDbEntity
  8
DETAIL
100
AcDbLine
 10
41.0406582089758
 20
-2174.819128762229
 30
0.0
 11
41.0406582089758
 21
-2174.464657335924
 31
0.0
  0
ARC
  5
2414
330
85F
100
AcDbEntity
  8
DETAIL
100
AcDbCircle
 10
41.59065820897143
 20
-2176.214657335924
 30
0.0
 40
1.500000000000012
100
AcDbArc
 50
111.5101882670052
 51
68.48981173299477
  0
LINE
  5
2415
330
85F
100
AcDbEntity
  8
DETAIL
100
AcDbLine
 10
42.14065820897434
 20
-2174.464657335924
 30
0.0
 11
42.14065820897434
 21
-2174.819128762229
 31
0.0
  0
ARC
  5
2416
330
85F
100
AcDbEntity
  8
DETAIL
100
AcDbCircle
 10
41.59065820897143
 20
-2174.464657335924
 30
0.0
 40
0.5500000000000007
100
AcDbArc
 50
0.0
 51
180.0
  0
LINE
  5
2417
330
85F
100
AcDbEntity
  8
DETAIL
100
AcDbLine
 10
50.2906582089758
 20
-2359.361841995252
 30
0.0
 11
49.49065820897288
 21
-2359.361841995252
 31
0.0
  0
LINE
  5
2418
330
85F
100
AcDbEntity
  8
DETAIL
100
AcDbLine
 10
50.2906582089758
 20
-2209.78817382198
 30
0.0
 11
49.49065820897288
 21
-2209.78817382198
 31
0.0
  0
LINE
  5
2419
330
85F
100
AcDbEntity
  8
DETAIL
100
AcDbLine
 10
49.49065820897288
 20
-2209.78817382198
 30
0.0
 11
49.49065820897288
 21
-2359.361841995252
 31
0.0
  0
LINE
  5
241A
330
85F
100
AcDbEntity
  8
DETAIL
100
AcDbLine
 10
50.2906582089758
 20
-2359.361841995252
 30
0.0
 11
50.2906582089758
 21
-2367.225288742409
 31
0.0
  0
LINE
  5
241B
330
85F
100
AcDbEntity
  8
DETAIL
100
AcDbLine
 10
51.09065820897143
 20
-2367.225288742409
 30
0.0
 11
51.09065820897143
 21
-2206.213879845999
 31
0.0
  0
LINE
  5
241C
330
85F
100
AcDbEntity
  8
DETAIL
100
AcDbLine
 10
51.09065820897143
 20
-2206.213879845999
 30
0.0
 11
50.2906582089758
 21
-2206.213879845999
 31
0.0
  0
LINE
  5
241D
330
85F
100
AcDbEntity
  8
DETAIL
100
AcDbLine
 10
50.2906582089758
 20
-2206.213879845999
 30
0.0
 11
50.2906582089758
 21
-2209.78817382198
 31
0.0
  0
LINE
  5
241E
330
85F
100
AcDbEntity
  8
DETAIL
100
AcDbLine
 10
50.2906582089758
 20
-2205.223879845998
 30
0.0
 11
50.2906582089758
 21
-2206.213879845999
 31
0.0
  0
LINE
  5
241F
330
85F
100
AcDbEntity
  8
DETAIL
100
AcDbLine
 10
50.2906582089758
 20
-1966.214657335924
 30
0.0
 11
50.2906582089758
 21
-1968.204657335924
 31
0.0
  0
LINE
  5
2420
330
85F
100
AcDbEntity
  8
DETAIL
100
AcDbLine
 10
50.2906582089758
 20
-1888.145353936103
 30
0.0
 11
50.2906582089758
 21
-1888.640353936103
 31
0.0
  0
LINE
  5
2421
330
85F
100
AcDbEntity
  8
DETAIL
100
AcDbLine
 10
51.09065820897143
 20
-2206.213879845999
 30
0.0
 11
51.09065820897143
 21
-2205.223879845998
 31
0.0
  0
LINE
  5
2422
330
85F
100
AcDbEntity
  8
DETAIL
100
AcDbLine
 10
51.09065820897143
 20
-1888.640353936103
 30
0.0
 11
51.09065820897143
 21
-1888.145353936103
 31
0.0
  0
LINE
  5
2423
330
85F
100
AcDbEntity
  8
DETAIL
100
AcDbLine
 10
51.09065820897143
 20
-1968.204657335924
 30
0.0
 11
51.09065820897143
 21
-1966.214657335924
 31
0.0
  0
LINE
  5
2424
330
85F
100
AcDbEntity
  8
DETAIL
100
AcDbLine
 10
51.09065820897143
 20
-1888.145353936103
 30
0.0
 11
50.2906582089758
 21
-1888.145353936103
 31
0.0
  0
LINE
  5
2425
330
85F
100
AcDbEntity
  8
DETAIL
100
AcDbLine
 10
50.2906582089758
 20
-2367.225288742409
 30
0.0
 11
50.76361600410513
 21
-2367.225288742409
 31
0.0
  0
LINE
  5
2426
330
85F
100
AcDbEntity
  8
DETAIL
100
AcDbLine
 10
50.76361600410513
 20
-2367.225288742409
 30
0.0
 11
51.09065820897143
 21
-2367.225288742409
 31
0.0
  0
SPLINE
  5
2427
330
85F
100
AcDbEntity
  8
DETAIL
100
AcDbSpline
210
0.0
220
0.0
230
1.0
 70
     8
 71
     3
 72
    11
 73
     7
 74
     0
 42
0.0000000001
 43
0.0000000001
 40
0.0
 40
0.0
 40
0.0
 40
0.0
 40
1.437607986812995
 40
1.437607986812995
 40
1.437607986812995
 40
1.570796326794897
 40
1.570796326794897
 40
1.570796326794897
 40
1.570796326794897
 10
51.09065820897143
 20
-2367.225288742409
 30
0.0
 10
51.09065820897143
 20
-2367.505972929634
 30
0.0
 10
50.73763639167504
 20
-2367.786657116857
 30
0.0
 10
50.31017363229096
 20
-2368.067341304081
 30
0.0
 10
50.27057100358565
 20
-2368.093345514755
 30
0.0
 10
50.23061471096792
 20
-2368.119349725429
 30
0.0
 10
50.19065820896997
 20
-2368.145353936103
 30
0.0
  0
LINE
  5
2428
330
85F
100
AcDbEntity
  8
DETAIL
100
AcDbLine
 10
50.19065820896997
 20
-2368.145353936103
 30
0.0
 11
50.19065820896997
 21
-2359.361841995252
 31
0.0
  0
LINE
  5
2429
330
85F
100
AcDbEntity
  8
DETAIL
100
AcDbLine
 10
50.19065820896997
 20
-2209.78817382198
 30
0.0
 11
50.19065820896997
 21
-2205.213879845999
 31
0.0
  0
LINE
  5
242A
330
85F
100
AcDbEntity
  8
DETAIL
100
AcDbLine
 10
50.19065820896997
 20
-1968.214657335924
 30
0.0
 11
50.19065820896997
 21
-1965.356700169026
 31
0.0
  0
SPLINE
  5
242B
330
85F
100
AcDbEntity
  8
DETAIL
100
AcDbSpline
210
0.0
220
0.0
230
1.0
 70
     8
 71
     3
 72
     8
 73
     4
 74
     0
 42
0.0000000001
 43
0.0000000001
 40
0.0
 40
0.0
 40
0.0
 40
0.0
 40
1.570796326794897
 40
1.570796326794897
 40
1.570796326794897
 40
1.570796326794897
 10
50.2906582089758
 20
-2367.225288742409
 30
0.0
 10
50.2906582089758
 20
-2367.531977140306
 30
0.0
 10
50.24301808653167
 20
-2367.838665538206
 30
0.0
 10
50.19065820896997
 20
-2368.145353936103
 30
0.0
  0
LINE
  5
242C
330
85F
100
AcDbEntity
  8
DETAIL
100
AcDbLine
 10
50.2906582089758
 20
-2205.223879845998
 30
0.0
 11
50.2906582089758
 21
-2205.213879845998
 31
0.0
  0
LINE
  5
242D
330
85F
100
AcDbEntity
  8
DETAIL
100
AcDbLine
 10
50.2906582089758
 20
-1968.214657335924
 30
0.0
 11
50.2906582089758
 21
-1968.204657335924
 31
0.0
  0
LINE
  5
242E
330
85F
100
AcDbEntity
  8
DETAIL
100
AcDbLine
 10
50.19065820896997
 20
-2205.213879845999
 30
0.0
 11
50.19065820896997
 21
-1968.214657335924
 31
0.0
  0
LINE
  5
242F
330
85F
100
AcDbEntity
  8
DETAIL
100
AcDbLine
 10
50.19065820896997
 20
-1968.214657335924
 30
0.0
 11
51.09065820897143
 21
-1968.214657335924
 31
0.0
  0
LINE
  5
2430
330
85F
100
AcDbEntity
  8
DETAIL
100
AcDbLine
 10
50.19065820896997
 20
-2205.213879845999
 30
0.0
 11
51.09065820897143
 21
-2205.213879845999
 31
0.0
  0
LINE
  5
2431
330
85F
100
AcDbEntity
  8
DETAIL
100
AcDbLine
 10
51.09065820897143
 20
-1968.214657335924
 30
0.0
 11
51.09065820897143
 21
-2205.213879845998
 31
0.0
  0
LINE
  5
2432
330
85F
100
AcDbEntity
  8
DETAIL
100
AcDbLine
 10
51.09065820897143
 20
-2205.223879845998
 30
0.0
 11
50.2906582089758
 21
-2205.223879845998
 31
0.0
  0
LINE
  5
2433
330
85F
100
AcDbEntity
  8
DETAIL
100
AcDbLine
 10
51.09065820897143
 20
-2205.213879845998
 30
0.0
 11
51.09065820897143
 21
-2205.223879845998
 31
0.0
  0
LINE
  5
2434
330
85F
100
AcDbEntity
  8
DETAIL
100
AcDbLine
 10
50.2906582089758
 20
-1968.204657335924
 30
0.0
 11
51.09065820897143
 21
-1968.204657335924
 31
0.0
  0
LINE
  5
2435
330
85F
100
AcDbEntity
  8
DETAIL
100
AcDbLine
 10
51.09065820897143
 20
-1968.204657335924
 30
0.0
 11
51.09065820897143
 21
-1968.214657335924
 31
0.0
  0
LINE
  5
2436
330
85F
100
AcDbEntity
  8
DETAIL
100
AcDbLine
 10
50.2906582089758
 20
-1966.214657335924
 30
0.0
 11
50.2906582089758
 21
-1965.451962963443
 31
0.0
  0
LINE
  5
2437
330
85F
100
AcDbEntity
  8
DETAIL
100
AcDbLine
 10
50.2906582089758
 20
-1965.451962963443
 30
0.0
 11
50.2906582089758
 21
-1965.443302709404
 31
0.0
  0
LINE
  5
2438
330
85F
100
AcDbEntity
  8
DETAIL
100
AcDbLine
 10
50.2906582089758
 20
-1888.650180130267
 30
0.0
 11
50.2906582089758
 21
-1888.640353936103
 31
0.0
  0
LINE
  5
2439
330
85F
100
AcDbEntity
  8
DETAIL
100
AcDbLine
 10
51.09065820897143
 20
-1888.640353936103
 30
0.0
 11
51.09065820897143
 21
-1889.424776799509
 31
0.0
  0
LINE
  5
243A
330
85F
100
AcDbEntity
  8
DETAIL
100
AcDbLine
 10
51.09065820897143
 20
-1889.424776799509
 30
0.0
 11
51.09065820897143
 21
-1965.443302709404
 31
0.0
  0
LINE
  5
243B
330
85F
100
AcDbEntity
  8
DETAIL
100
AcDbLine
 10
51.09065820897143
 20
-1965.443302709404
 30
0.0
 11
51.09065820897143
 21
-1965.451962963443
 31
0.0
  0
LINE
  5
243C
330
85F
100
AcDbEntity
  8
DETAIL
100
AcDbLine
 10
51.09065820897143
 20
-1965.451962963443
 30
0.0
 11
51.09065820897143
 21
-1966.214657335924
 31
0.0
  0
LINE
  5
243D
330
85F
100
AcDbEntity
  8
DETAIL
100
AcDbLine
 10
51.09065820897143
 20
-1966.214657335924
 30
0.0
 11
50.2906582089758
 21
-1966.214657335924
 31
0.0
  0
ELLIPSE
  5
243E
330
85F
100
AcDbEntity
  8
DETAIL
100
AcDbEllipse
 10
50.19065820896997
 20
-1965.443302709405
 30
0.0
 11
0.0999999999999916
 21
-0.0000000000000024
 31
0.0
210
0.0
220
0.0
230
1.0
 40
0.8660254037844712
 41
0.0
 42
1.570796326794917
  0
LINE
  5
243F
330
85F
100
AcDbEntity
  8
DETAIL
100
AcDbLine
 10
50.19065820896997
 20
-1965.356700169026
 30
0.0
 11
50.19065820896997
 21
-1964.663879845999
 31
0.0
  0
LINE
  5
2440
330
85F
100
AcDbEntity
  8
DETAIL
100
AcDbLine
 10
50.19065820896997
 20
-1964.663879845999
 30
0.0
 11
50.19065820896997
 21
-1888.645353936103
 31
0.0
  0
ELLIPSE
  5
2441
330
85F
100
AcDbEntity
  8
DETAIL
100
AcDbEllipse
 10
50.19065820896997
 20
-1889.424776799509
 30
0.0
 11
0.900000000000001
 21
0.0000000000000848
 31
0.0
210
0.0
220
0.0
230
1.0
 40
0.8660254037844399
 41
0.0
 42
1.570796326794814
  0
LINE
  5
2442
330
85F
100
AcDbEntity
  8
DETAIL
100
AcDbLine
 10
50.2906582089758
 20
-1965.443302709404
 30
0.0
 11
51.09065820897143
 21
-1965.443302709404
 31
0.0
  0
ELLIPSE
  5
2443
330
85F
100
AcDbEntity
  8
DETAIL
100
AcDbEllipse
 10
50.19065820896997
 20
-1965.443302709405
 30
0.0
 11
0.9000000000000015
 21
0.000000000000009
 31
0.0
210
0.0
220
0.0
230
1.0
 40
0.8660254037844488
 41
0.0000000000000016
 42
1.570796326794887
  0
LINE
  5
2444
330
85F
100
AcDbEntity
  8
DETAIL
100
AcDbLine
 10
51.09065820897143
 20
-1965.451962963443
 30
0.0
 11
50.2906582089758
 21
-1965.451962963443
 31
0.0
  0
LINE
  5
2445
330
85F
100
AcDbEntity
  8
DETAIL
100
AcDbLine
 10
50.2906582089758
 20
-1888.640353936103
 30
0.0
 11
51.09065820897143
 21
-1888.640353936103
 31
0.0
  0
LINE
  5
2446
330
85F
100
AcDbEntity
  8
DETAIL
100
AcDbLine
 10
50.09065820897143
 20
-2205.213879845999
 30
0.0
 11
48.851313946679
 21
-2203.933224108297
 31
0.0
  0
LINE
  5
2447
330
85F
100
AcDbEntity
  8
DETAIL
100
AcDbLine
 10
50.19065820896997
 20
-2205.213879845999
 30
0.0
 11
50.09065820897143
 21
-2205.213879845999
 31
0.0
  0
LINE
  5
2448
330
85F
100
AcDbEntity
  8
DETAIL
100
AcDbLine
 10
50.19065820896997
 20
-1968.214657335924
 30
0.0
 11
50.09065820897143
 21
-1968.214657335924
 31
0.0
  0
LINE
  5
2449
330
85F
100
AcDbEntity
  8
DETAIL
100
AcDbLine
 10
41.0406582089758
 20
-2004.819128762228
 30
0.0
 11
41.0406582089758
 21
-2004.464657335924
 31
0.0
  0
ARC
  5
244A
330
85F
100
AcDbEntity
  8
DETAIL
100
AcDbCircle
 10
41.59065820897143
 20
-2004.464657335924
 30
0.0
 40
0.5500000000000007
100
AcDbArc
 50
0.0
 51
180.0
  0
LINE
  5
244B
330
85F
100
AcDbEntity
  8
DETAIL
100
AcDbLine
 10
42.14065820897434
 20
-2004.464657335924
 30
0.0
 11
42.14065820897434
 21
-2004.819128762228
 31
0.0
  0
ARC
  5
244C
330
85F
100
AcDbEntity
  8
DETAIL
100
AcDbCircle
 10
41.59065820897143
 20
-2006.214657335924
 30
0.0
 40
1.499999999999996
100
AcDbArc
 50
111.5101882670052
 51
68.48981173299477
  0
LINE
  5
244D
330
85F
100
AcDbEntity
  8
DETAIL
100
AcDbLine
 10
50.19065820896997
 20
-1964.663879845999
 30
0.0
 11
50.09065820897143
 21
-1964.663879845999
 31
0.0
  0
LINE
  5
244E
330
85F
100
AcDbEntity
  8
DETAIL
100
AcDbLine
 10
50.09065820897143
 20
-1965.356700169026
 30
0.0
 11
50.19065820896997
 21
-1965.356700169026
 31
0.0
  0
LINE
  5
244F
330
85F
100
AcDbEntity
  8
DETAIL
100
AcDbLine
 10
50.19065820896997
 20
-1888.645353936103
 30
0.0
 11
50.09065820897143
 21
-1888.645353936103
 31
0.0
  0
LINE
  5
2450
330
85F
100
AcDbEntity
  8
DETAIL
100
AcDbLine
 10
50.19065820896997
 20
-1888.645353936103
 30
0.0
 11
50.19065820896997
 21
-1888.145353936103
 31
0.0
  0
ARC
  5
2451
330
85F
100
AcDbEntity
  8
DETAIL
100
AcDbCircle
 10
50.19065820896997
 20
-1889.045353936102
 30
0.0
 40
0.9000000000000065
100
AcDbArc
 50
83.62062979165164
 51
90.0
  0
LINE
  5
2452
330
85F
100
AcDbEntity
  8
DETAIL
100
AcDbLine
 10
50.19065820896997
 20
-1888.145353936103
 30
0.0
 11
50.09065820897143
 21
-1888.145353936103
 31
0.0
  0
LINE
  5
2453
330
85F
100
AcDbEntity
  8
DETAIL
100
AcDbLine
 10
50.09065820897871
 20
-2202.693879845999
 30
0.0
 11
47.09065820897871
 21
-2205.693879845999
 31
0.0
  0
LINE
  5
2454
330
85F
100
AcDbEntity
  8
DETAIL
100
AcDbLine
 10
-160.9093417910213
 20
-2205.693879846
 30
0.0
 11
-163.9093417910213
 21
-2202.693879845999
 31
0.0
  0
LINE
  5
2455
330
85F
100
AcDbEntity
  8
DETAIL
100
AcDbLine
 10
47.09065820897871
 20
-2205.693879845999
 30
0.0
 11
-160.9093417910213
 21
-2205.693879846
 31
0.0
  0
LINE
  5
2456
330
85F
100
AcDbEntity
  8
DETAIL
100
AcDbLine
 10
-163.9093417910213
 20
-2202.693879845999
 30
0.0
 11
-163.9093417910213
 21
-1982.708687319677
 31
0.0
  0
LINE
  5
2457
330
85F
100
AcDbEntity
  8
DETAIL
100
AcDbLine
 10
50.09065820897871
 20
-1982.708687319673
 30
0.0
 11
50.09065820897871
 21
-2202.693879845999
 31
0.0
  0
LINE
  5
2458
330
85F
100
AcDbEntity
  8
DETAIL
100
AcDbLine
 10
-57.45934179101692
 20
-1975.298351272303
 30
0.0
 11
-57.45934179101692
 21
-1974.943879845999
 31
0.0
  0
ARC
  5
2459
330
85F
100
AcDbEntity
  8
DETAIL
100
AcDbCircle
 10
-56.90934179102129
 20
-1976.693879845998
 30
0.0
 40
1.500000000000003
100
AcDbArc
 50
111.5101882670052
 51
68.48981173299477
  0
LINE
  5
245A
330
85F
100
AcDbEntity
  8
DETAIL
100
AcDbLine
 10
-56.35934179101838
 20
-1974.943879845999
 30
0.0
 11
-56.35934179101838
 21
-1975.298351272303
 31
0.0
  0
ARC
  5
245B
330
85F
100
AcDbEntity
  8
DETAIL
100
AcDbCircle
 10
-56.90934179102129
 20
-1974.943879845999
 30
0.0
 40
0.5499999999999982
100
AcDbArc
 50
0.0
 51
180.0
  0
CIRCLE
  5
245C
330
85F
100
AcDbEntity
  8
DETAIL
100
AcDbCircle
 10
41.59065820897871
 20
-2175.693879845999
 30
0.0
 40
2.500000000000004
  0
CIRCLE
  5
245D
330
85F
100
AcDbEntity
  8
DETAIL
100
AcDbCircle
 10
41.59065820897871
 20
-2005.693879845999
 30
0.0
 40
2.500000000000004
  0
CIRCLE
  5
245E
330
85F
100
AcDbEntity
  8
DETAIL
100
AcDbCircle
 10
-155.4093417910213
 20
-2175.693879845999
 30
0.0
 40
2.500000000000004
  0
CIRCLE
  5
245F
330
85F
100
AcDbEntity
  8
DETAIL
100
AcDbCircle
 10
-155.4093417910213
 20
-2005.693879845999
 30
0.0
 40
2.500000000000004
  0
LINE
  5
2460
330
85F
100
AcDbEntity
  8
DETAIL
100
AcDbLine
 10
-118.4093417910285
 20
-1873.145353936102
 30
0.0
 11
-115.4093417910285
 21
-1870.145353936103
 31
0.0
  0
LINE
  5
2461
330
85F
100
AcDbEntity
  8
DETAIL
100
AcDbLine
 10
-89.40934179102857
 20
-1870.145353936102
 30
0.0
 11
-86.40934179102856
 21
-1873.145353936102
 31
0.0
  0
LINE
  5
2462
330
85F
100
AcDbEntity
  8
DETAIL
100
AcDbLine
 10
20.59065820897143
 20
-1873.1453539361
 30
0.0
 11
23.59065820897143
 21
-1870.1453539361
 31
0.0
  0
LINE
  5
2463
330
85F
100
AcDbEntity
  8
DETAIL
100
AcDbLine
 10
-115.4093417910285
 20
-1870.145353936103
 30
0.0
 11
-89.40934179102857
 21
-1870.145353936102
 31
0.0
  0
LINE
  5
2464
330
85F
100
AcDbEntity
  8
DETAIL
100
AcDbLine
 10
50.09065820897143
 20
-1873.145353936099
 30
0.0
 11
50.09065820897143
 21
-1887.2453539361
 31
0.0
  0
LINE
  5
2465
330
85F
100
AcDbEntity
  8
DETAIL
100
AcDbLine
 10
23.59065820897143
 20
-1870.1453539361
 30
0.0
 11
47.09065820897143
 21
-1870.145353936099
 31
0.0
  0
LINE
  5
2466
330
85F
100
AcDbEntity
  8
DETAIL
100
AcDbLine
 10
-163.9093417910285
 20
-1964.929264456271
 30
0.0
 11
-163.9093417910285
 21
-1887.465931072696
 31
0.0
  0
LINE
  5
2467
330
85F
100
AcDbEntity
  8
DETAIL
100
AcDbLine
 10
50.09065820897143
 20
-1887.465931072693
 30
0.0
 11
50.09065820897143
 21
-1964.929264456268
 31
0.0
  0
LINE
  5
2468
330
85F
100
AcDbEntity
  8
DETAIL
100
AcDbLine
 10
50.09065820897143
 20
-1965.708687319673
 30
0.0
 11
50.09065820897143
 21
-1982.708687319674
 31
0.0
  0
LINE
  5
2469
330
85F
100
AcDbEntity
  8
DETAIL
100
AcDbLine
 10
-163.9093417910285
 20
-1982.708687319677
 30
0.0
 11
-163.9093417910285
 21
-1965.708687319677
 31
0.0
  0
LINE
  5
246A
330
85F
100
AcDbEntity
  8
DETAIL
100
AcDbLine
 10
47.09065820897143
 20
-1985.708687319674
 30
0.0
 11
-160.9093417910285
 21
-1985.708687319677
 31
0.0
  0
CIRCLE
  5
246B
330
85F
100
AcDbEntity
  8
DETAIL
100
AcDbCircle
 10
29.09065820897144
 20
-1875.6453539361
 30
0.0
 40
3.000000000000018
  0
LINE
  5
246C
330
85F
100
AcDbEntity
  8
DETAIL
100
AcDbLine
 10
20.59065820897143
 20
-1873.1453539361
 30
0.0
 11
20.59065820897143
 21
-1887.2453539361
 31
0.0
  0
LINE
  5
246D
330
85F
100
AcDbEntity
  8
DETAIL
100
AcDbLine
 10
-86.40934179102856
 20
-1887.245353936101
 30
0.0
 11
-86.40934179102856
 21
-1873.145353936101
 31
0.0
  0
LINE
  5
246E
330
85F
100
AcDbEntity
  8
DETAIL
100
AcDbLine
 10
-86.40934179102856
 20
-1887.245353936101
 30
0.0
 11
20.59065820897143
 21
-1887.2453539361
 31
0.0
  0
LINE
  5
246F
330
85F
100
AcDbEntity
  8
DETAIL
100
AcDbLine
 10
20.59065820897143
 20
-1887.2453539361
 30
0.0
 11
50.09065820897143
 21
-1887.2453539361
 31
0.0
  0
LINE
  5
2470
330
85F
100
AcDbEntity
  8
DETAIL
100
AcDbLine
 10
-118.4093417910285
 20
-1887.245353936102
 30
0.0
 11
-86.40934179102856
 21
-1887.245353936101
 31
0.0
  0
LINE
  5
2471
330
85F
100
AcDbEntity
  8
DETAIL
100
AcDbLine
 10
50.09065820897143
 20
-1887.345353936099
 30
0.0
 11
50.09065820897143
 21
-1887.2453539361
 31
0.0
  0
LINE
  5
2472
330
85F
100
AcDbEntity
  8
DETAIL
100
AcDbLine
 10
-163.9093417910285
 20
-1887.245353936103
 30
0.0
 11
-163.9093417910285
 21
-1887.345353936103
 31
0.0
  0
LINE
  5
2473
330
85F
100
AcDbEntity
  8
DETAIL
100
AcDbLine
 10
47.09065820897143
 20
-1870.145353936099
 30
0.0
 11
50.09065820897143
 21
-1873.145353936099
 31
0.0
  0
LINE
  5
2474
330
85F
100
AcDbEntity
  8
DETAIL
100
AcDbLine
 10
-160.9093417910285
 20
-1985.708687319677
 30
0.0
 11
-163.9093417910285
 21
-1982.708687319677
 31
0.0
  0
LINE
  5
2475
330
85F
100
AcDbEntity
  8
DETAIL
100
AcDbLine
 10
50.09065820897143
 20
-1982.708687319674
 30
0.0
 11
47.09065820897143
 21
-1985.708687319673
 31
0.0
  0
LINE
  5
2476
330
85F
100
AcDbEntity
  8
DETAIL
100
AcDbLine
 10
-118.4093417910285
 20
-1873.145353936102
 30
0.0
 11
-118.4093417910285
 21
-1887.245353936102
 31
0.0
  0
LINE
  5
2477
330
85F
100
AcDbEntity
  8
DETAIL
100
AcDbLine
 10
-163.9093417910285
 20
-1887.245353936103
 30
0.0
 11
-118.4093417910285
 21
-1887.245353936102
 31
0.0
  0
CIRCLE
  5
2478
330
85F
100
AcDbEntity
  8
DETAIL
100
AcDbCircle
 10
-94.90934179102856
 20
-1875.645353936102
 30
0.0
 40
3.000000000000018
  0
ELLIPSE
  5
2479
330
85F
100
AcDbEntity
  8
DETAIL
100
AcDbEllipse
 10
41.59065820897143
 20
-1925.122084779296
 30
0.0
 11
2.499999999999982
 21
0.0000000000000385
 31
0.0
210
0.0
220
0.0
230
1.0
 40
0.5000000000000005
 41
0.280803876646714
 42
2.860788776943055
  0
ELLIPSE
  5
247A
330
85F
100
AcDbEntity
  8
DETAIL
100
AcDbEllipse
 10
41.59065820897143
 20
-1924.429264456267
 30
0.0
 11
2.499999999999945
 21
0.0000000000000406
 31
0.0
210
0.0
220
0.0
230
1.0
 40
0.5000000000000013
 41
0.0
 42
6.283185307179585
  0
ELLIPSE
  5
247B
330
85F
100
AcDbEntity
  8
DETAIL
100
AcDbEllipse
 10
-155.4093417910285
 20
-1925.122084779298
 30
0.0
 11
2.5
 21
0.0000000000000404
 31
0.0
210
0.0
220
0.0
230
1.0
 40
0.4999999999999978
 41
0.2808038766466794
 42
2.860788776943121
  0
ELLIPSE
  5
247C
330
85F
100
AcDbEntity
  8
DETAIL
100
AcDbEllipse
 10
-155.4093417910285
 20
-1924.429264456271
 30
0.0
 11
2.500000000000005
 21
0.0000000000000406
 31
0.0
210
0.0
220
0.0
230
1.0
 40
0.5000000000000013
 41
0.0
 42
6.283185307179585
  0
LINE
  5
247D
330
85F
100
AcDbEntity
  8
DETAIL
100
AcDbLine
 10
-163.9093417910285
 20
-1965.708687319677
 30
0.0
 11
-163.9093417910285
 21
-1964.929264456271
 31
0.0
  0
LINE
  5
247E
330
85F
100
AcDbEntity
  8
DETAIL
100
AcDbLine
 10
50.09065820897143
 20
-1964.929264456267
 30
0.0
 11
50.09065820897143
 21
-1965.708687319674
 31
0.0
  0
LINE
  5
247F
330
85F
100
AcDbEntity
  8
DETAIL
100
AcDbLine
 10
-163.9093417910285
 20
-1964.929264456271
 30
0.0
 11
50.09065820897143
 21
-1964.929264456267
 31
0.0
  0
LINE
  5
2480
330
85F
100
AcDbEntity
  8
DETAIL
100
AcDbLine
 10
50.09065820897143
 20
-1965.708687319673
 30
0.0
 11
-163.9093417910285
 21
-1965.708687319677
 31
0.0
  0
LINE
  5
2481
330
85F
100
AcDbEntity
  8
DETAIL
100
AcDbLine
 10
50.09065820897143
 20
-1887.465931072693
 30
0.0
 11
-163.9093417910285
 21
-1887.465931072696
 31
0.0
  0
LINE
  5
2482
330
85F
100
AcDbEntity
  8
DETAIL
100
AcDbLine
 10
-163.9093417910285
 20
-1887.465931072696
 30
0.0
 11
-163.9093417910285
 21
-1887.345353936103
 31
0.0
  0
LINE
  5
2483
330
85F
100
AcDbEntity
  8
DETAIL
100
AcDbLine
 10
50.09065820897143
 20
-1887.345353936099
 30
0.0
 11
50.09065820897143
 21
-1887.465931072693
 31
0.0
  0
LINE
  5
2484
330
85F
100
AcDbEntity
  8
DETAIL
100
AcDbLine
 10
-163.9093417910285
 20
-1887.345353936103
 30
0.0
 11
50.09065820897143
 21
-1887.345353936099
 31
0.0
  0
LINE
  5
2485
330
85F
100
AcDbEntity
  8
DETAIL
100
AcDbLine
 10
-59.90934179022821
 20
-1976.708618007819
 30
0.0
 11
-59.90929558232398
 21
-1974.708618008352
 31
0.0
  0
ARC
  5
2486
330
85F
100
AcDbEntity
  8
DETAIL
100
AcDbCircle
 10
-56.90929558312433
 20
-1974.70868732021
 30
0.0
 40
3.000000000000003
100
AcDbArc
 50
359.6819937190474
 51
179.9986762411056
  0
LINE
  5
2487
330
85F
100
AcDbEntity
  8
DETAIL
100
AcDbLine
 10
-53.90934179102856
 20
-1974.725338004653
 30
0.0
 11
-53.92187015155883
 21
-1976.982572703312
 31
0.0
  0
ARC
  5
2488
330
85F
100
AcDbEntity
  8
DETAIL
100
AcDbCircle
 10
-56.90934179102857
 20
-1976.708687319675
 30
0.0
 40
3.000000000000012
100
AcDbArc
 50
179.9986762411056
 51
354.7618807785684
  0
LINE
  5
2489
330
85F
100
AcDbEntity
  8
OUTLINE
100
AcDbLine
 10
-131.9093417910286
 20
-2365.145353936103
 30
0.0
 11
-134.9093417910285
 21
-2368.145353936103
 31
0.0
  0
LINE
  5
248A
330
85F
100
AcDbEntity
  8
OUTLINE
100
AcDbLine
 10
-134.9093417910285
 20
-2328.145353936103
 30
0.0
 11
-131.9093417910286
 21
-2331.145353936103
 31
0.0
  0
LINE
  5
248B
330
85F
100
AcDbEntity
  8
OUTLINE
100
AcDbLine
 10
-131.9093417910286
 20
-2365.145353936103
 30
0.0
 11
-131.9093417910286
 21
-2331.145353936103
 31
0.0
  0
LINE
  5
248C
330
85F
100
AcDbEntity
  8
OUTLINE
100
AcDbLine
 10
-164.0093417910271
 20
-2368.145353936103
 30
0.0
 11
-134.9093417910285
 21
-2368.145353936103
 31
0.0
  0
LINE
  5
248D
330
85F
100
AcDbEntity
  8
OUTLINE
100
AcDbLine
 10
-158.9093417910286
 20
-2328.145353936103
 30
0.0
 11
-158.9093417910286
 21
-2205.693879845999
 31
0.0
  0
LINE
  5
248E
330
85F
100
AcDbEntity
  8
OUTLINE
100
AcDbLine
 10
-134.9093417910285
 20
-2328.145353936103
 30
0.0
 11
-158.9093417910286
 21
-2328.145353936103
 31
0.0
  0
LINE
  5
248F
330
85F
100
AcDbEntity
  8
OUTLINE
100
AcDbLine
 10
-154.8593417910256
 20
-1924.026185473518
 30
0.0
 11
-154.8593417910256
 21
-1924.20342118667
 31
0.0
  0
LINE
  5
2490
330
85F
100
AcDbEntity
  8
OUTLINE
100
AcDbLine
 10
-154.8593417910256
 20
-1924.896241509699
 30
0.0
 11
-154.8593417910256
 21
-1924.20342118667
 31
0.0
  0
ELLIPSE
  5
2491
330
85F
100
AcDbEntity
  8
OUTLINE
100
AcDbEllipse
 10
-155.4093417910285
 20
-1924.901185473518
 30
0.0
 11
1.499999999999997
 21
0.0000000000000195
 31
0.0
210
0.0
220
0.0
230
1.0
 40
0.4999999999999953
 41
1.946219934775777
 42
7.478558025993331
  0
ELLIPSE
  5
2492
330
85F
100
AcDbEntity
  8
OUTLINE
100
AcDbEllipse
 10
-155.4093417910285
 20
-1925.594005796545
 30
0.0
 11
-1.499999999999998
 21
-0.0000000000000777
 31
0.0
210
0.0
220
0.0
230
1.0
 40
0.4999999999999701
 41
5.0878125883658
 42
5.803071391300335
  0
ELLIPSE
  5
2493
330
85F
100
AcDbEntity
  8
OUTLINE
100
AcDbEllipse
 10
-155.4093417910285
 20
-1925.594005796546
 30
0.0
 11
-1.500000000000019
 21
-0.0000000000001537
 31
0.0
210
0.0
220
0.0
230
1.0
 40
0.5000000000000233
 41
3.62170656946855
 42
4.336965372403435
  0
LINE
  5
2494
330
85F
100
AcDbEntity
  8
OUTLINE
100
AcDbLine
 10
-155.9593417910242
 20
-1924.896241509699
 30
0.0
 11
-155.9593417910242
 21
-1924.20342118667
 31
0.0
  0
LINE
  5
2495
330
85F
100
AcDbEntity
  8
OUTLINE
100
AcDbLine
 10
-155.9593417910242
 20
-1924.20342118667
 30
0.0
 11
-155.9593417910242
 21
-1924.026185473518
 31
0.0
  0
ELLIPSE
  5
2496
330
85F
100
AcDbEntity
  8
OUTLINE
100
AcDbEllipse
 10
-155.4093417910285
 20
-1924.026185473518
 30
0.0
 11
-0.550000000000015
 21
0.0000000000001288
 31
0.0
210
0.0
220
0.0
230
1.0
 40
0.5000000000000436
 41
5.789020455897457
 42
6.283185307178911
  0
ELLIPSE
  5
2497
330
85F
100
AcDbEntity
  8
OUTLINE
100
AcDbEllipse
 10
-155.4093417910285
 20
-1924.026185473518
 30
0.0
 11
0.5499999999999408
 21
-0.0000000000000008
 31
0.0
210
0.0
220
0.0
230
1.0
 40
0.5000000000000189
 41
0.0
 42
0.4941648512814974
  0
ELLIPSE
  5
2498
330
85F
100
AcDbEntity
  8
OUTLINE
100
AcDbEllipse
 10
-155.4093417910285
 20
-1924.719005796545
 30
0.0
 11
0.5500000000000006
 21
0.0000000000000133
 31
0.0
210
0.0
220
0.0
230
1.0
 40
0.4999999999999998
 41
0.0
 42
3.141592653589633
  0
CIRCLE
  5
2499
330
85F
100
AcDbEntity
  8
OUTLINE
100
AcDbCircle
 10
-137.9093417910285
 20
-2356.145353936103
 30
0.0
 40
3.0
  0
LINE
  5
249A
330
85F
100
AcDbEntity
  8
OUTLINE
100
AcDbLine
 10
-154.8593417910256
 20
-2173.939268590961
 30
0.0
 11
-154.8593417910256
 21
-2174.293740017266
 31
0.0
  0
ARC
  5
249B
330
85F
100
AcDbEntity
  8
OUTLINE
100
AcDbCircle
 10
-155.4093417910285
 20
-2175.689268590962
 30
0.0
 40
1.500000000000015
100
AcDbArc
 50
111.5101882670052
 51
68.48981173299477
  0
LINE
  5
249C
330
85F
100
AcDbEntity
  8
OUTLINE
100
AcDbLine
 10
-155.9593417910242
 20
-2174.293740017266
 30
0.0
 11
-155.9593417910242
 21
-2173.939268590962
 31
0.0
  0
ARC
  5
249D
330
85F
100
AcDbEntity
  8
OUTLINE
100
AcDbCircle
 10
-155.4093417910285
 20
-2173.939268590962
 30
0.0
 40
0.5500000000000095
100
AcDbArc
 50
0.0
 51
180.0
  0
LINE
  5
249E
330
85F
100
AcDbEntity
  8
OUTLINE
100
AcDbLine
 10
-163.30934179103
 20
-2359.346570453561
 30
0.0
 11
-164.1093417910256
 21
-2359.346570453561
 31
0.0
  0
LINE
  5
249F
330
85F
100
AcDbEntity
  8
OUTLINE
100
AcDbLine
 10
-163.30934179103
 20
-2209.273772456631
 30
0.0
 11
-164.1093417910256
 21
-2209.273772456631
 31
0.0
  0
LINE
  5
24A0
330
85F
100
AcDbEntity
  8
OUTLINE
100
AcDbLine
 10
-163.30934179103
 20
-2209.273772456631
 30
0.0
 11
-163.30934179103
 21
-2359.346570453561
 31
0.0
  0
LINE
  5
24A1
330
85F
100
AcDbEntity
  8
OUTLINE
100
AcDbLine
 10
-164.1093417910256
 20
-2209.273772456631
 30
0.0
 11
-164.1093417910256
 21
-2206.616899585148
 31
0.0
  0
LINE
  5
24A2
330
85F
100
AcDbEntity
  8
OUTLINE
100
AcDbLine
 10
-164.9093417910285
 20
-2206.616899585148
 30
0.0
 11
-164.9093417910285
 21
-2367.222334196955
 31
0.0
  0
LINE
  5
24A3
330
85F
100
AcDbEntity
  8
OUTLINE
100
AcDbLine
 10
-164.1093417910256
 20
-2367.222334196955
 30
0.0
 11
-164.1093417910256
 21
-2359.346570453561
 31
0.0
  0
LINE
  5
24A4
330
85F
100
AcDbEntity
  8
OUTLINE
100
AcDbLine
 10
-164.9093417910285
 20
-1888.145353936103
 30
0.0
 11
-164.9093417910285
 21
-1888.640353936103
 31
0.0
  0
LINE
  5
24A5
330
85F
100
AcDbEntity
  8
OUTLINE
100
AcDbLine
 10
-164.1093417910256
 20
-1888.640353936103
 30
0.0
 11
-164.1093417910256
 21
-1888.145353936103
 31
0.0
  0
LINE
  5
24A6
330
85F
100
AcDbEntity
  8
OUTLINE
100
AcDbLine
 10
-164.1093417910256
 20
-1888.145353936103
 30
0.0
 11
-164.9093417910285
 21
-1888.145353936103
 31
0.0
  0
LINE
  5
24A7
330
85F
100
AcDbEntity
  8
OUTLINE
100
AcDbLine
 10
-164.1093417910256
 20
-2206.616899585148
 30
0.0
 11
-164.582299586155
 21
-2206.616899585148
 31
0.0
  0
LINE
  5
24A8
330
85F
100
AcDbEntity
  8
OUTLINE
100
AcDbLine
 10
-164.582299586155
 20
-2206.616899585148
 30
0.0
 11
-164.9093417910285
 21
-2206.616899585148
 31
0.0
  0
LINE
  5
24A9
330
85F
100
AcDbEntity
  8
OUTLINE
100
AcDbLine
 10
-164.0093417910271
 20
-1966.663879846
 30
0.0
 11
-164.0093417910271
 21
-2205.693879845999
 31
0.0
  0
LINE
  5
24AA
330
85F
100
AcDbEntity
  8
OUTLINE
100
AcDbLine
 10
-164.0093417910271
 20
-1966.663879846
 30
0.0
 11
-164.9093417910285
 21
-1966.663879846
 31
0.0
  0
LINE
  5
24AB
330
85F
100
AcDbEntity
  8
OUTLINE
100
AcDbLine
 10
-164.9093417910285
 20
-2206.616899585148
 30
0.0
 11
-164.9093417910285
 21
-1966.663879846
 31
0.0
  0
SPLINE
  5
24AC
330
85F
100
AcDbEntity
  8
OUTLINE
100
AcDbSpline
210
0.0
220
0.0
230
1.0
 70
     8
 71
     3
 72
    11
 73
     7
 74
     0
 42
0.0000000001
 43
0.0000000001
 40
0.0
 40
0.0
 40
0.0
 40
0.0
 40
1.437607986813138
 40
1.437607986813138
 40
1.437607986813138
 40
1.570796326794916
 40
1.570796326794916
 40
1.570796326794916
 40
1.570796326794916
 10
-164.0093417910271
 20
-2205.693879845999
 30
0.0
 10
-164.4406241870697
 20
-2205.975465376079
 30
0.0
 10
-164.8440988651442
 20
-2206.257050906159
 30
0.0
 10
-164.9013709741799
 20
-2206.538636436239
 30
0.0
 10
-164.9066769944571
 20
-2206.564724152542
 30
0.0
 10
-164.9093417910285
 20
-2206.590811868844
 30
0.0
 10
-164.9093417910285
 20
-2206.616899585148
 30
0.0
  0
SPLINE
  5
24AD
330
85F
100
AcDbEntity
  8
OUTLINE
100
AcDbSpline
210
0.0
220
0.0
230
1.0
 70
     8
 71
     3
 72
     8
 73
     4
 74
     0
 42
0.0000000001
 43
0.0000000001
 40
0.0
 40
0.0
 40
0.0
 40
0.0
 40
1.570796326794916
 40
1.570796326794916
 40
1.570796326794916
 40
1.570796326794916
 10
-164.1093417910256
 20
-2206.616899585148
 30
0.0
 10
-164.1093417910256
 20
-2206.309226338765
 30
0.0
 10
-164.0617016685888
 20
-2206.001553092381
 30
0.0
 10
-164.0093417910271
 20
-2205.693879845999
 30
0.0
  0
LINE
  5
24AE
330
85F
100
AcDbEntity
  8
OUTLINE
100
AcDbLine
 10
-164.9093417910285
 20
-1966.663879846
 30
0.0
 11
-164.9093417910285
 21
-1965.689268590961
 31
0.0
  0
LINE
  5
24AF
330
85F
100
AcDbEntity
  8
OUTLINE
100
AcDbLine
 10
-164.1093417910256
 20
-1965.689268590961
 30
0.0
 11
-164.1093417910256
 21
-1966.663879846
 31
0.0
  0
LINE
  5
24B0
330
85F
100
AcDbEntity
  8
OUTLINE
100
AcDbLine
 10
-164.9093417910285
 20
-2367.222334196955
 30
0.0
 11
-164.582299586155
 21
-2367.222334196955
 31
0.0
  0
LINE
  5
24B1
330
85F
100
AcDbEntity
  8
OUTLINE
100
AcDbLine
 10
-164.582299586155
 20
-2367.222334196955
 30
0.0
 11
-164.1093417910256
 21
-2367.222334196955
 31
0.0
  0
SPLINE
  5
24B2
330
85F
100
AcDbEntity
  8
OUTLINE
100
AcDbSpline
210
0.0
220
0.0
230
1.0
 70
     8
 71
     3
 72
     8
 73
     4
 74
     0
 42
0.0000000001
 43
0.0000000001
 40
0.0
 40
0.0
 40
0.0
 40
0.0
 40
1.570796326794896
 40
1.570796326794896
 40
1.570796326794896
 40
1.570796326794896
 10
-164.1093417910256
 20
-2367.222334196955
 30
0.0
 10
-164.1093417910256
 20
-2367.530007443337
 30
0.0
 10
-164.0617016685888
 20
-2367.837680689719
 30
0.0
 10
-164.0093417910271
 20
-2368.145353936103
 30
0.0
  0
LINE
  5
24B3
330
85F
100
AcDbEntity
  8
OUTLINE
100
AcDbLine
 10
-164.0093417910271
 20
-1965.356700169028
 30
0.0
 11
-164.0093417910271
 21
-1966.663879846
 31
0.0
  0
LINE
  5
24B4
330
85F
100
AcDbEntity
  8
OUTLINE
100
AcDbLine
 10
-164.0093417910271
 20
-2205.693879845999
 30
0.0
 11
-164.0093417910271
 21
-2209.273772456631
 31
0.0
  0
LINE
  5
24B5
330
85F
100
AcDbEntity
  8
OUTLINE
100
AcDbLine
 10
-164.0093417910271
 20
-2359.346570453561
 30
0.0
 11
-164.0093417910271
 21
-2368.145353936103
 31
0.0
  0
SPLINE
  5
24B6
330
85F
100
AcDbEntity
  8
OUTLINE
100
AcDbSpline
210
0.0
220
0.0
230
1.0
 70
     8
 71
     3
 72
    11
 73
     7
 74
     0
 42
0.0000000001
 43
0.0000000001
 40
0.0
 40
0.0
 40
0.0
 40
0.0
 40
1.437607986812995
 40
1.437607986812995
 40
1.437607986812995
 40
1.570796326794896
 40
1.570796326794896
 40
1.570796326794896
 40
1.570796326794896
 10
-164.9093417910285
 20
-2367.222334196955
 30
0.0
 10
-164.9093417910285
 20
-2367.503919727035
 30
0.0
 10
-164.5563199737321
 20
-2367.785505257115
 30
0.0
 10
-164.1288572143408
 20
-2368.067090787195
 30
0.0
 10
-164.0892545856355
 20
-2368.093178503497
 30
0.0
 10
-164.049298293025
 20
-2368.1192662198
 30
0.0
 10
-164.0093417910271
 20
-2368.145353936103
 30
0.0
  0
LINE
  5
24B7
330
85F
100
AcDbEntity
  8
OUTLINE
100
AcDbLine
 10
-162.4339319549568
 20
-2204.169289682061
 30
0.0
 11
-163.9093417910285
 21
-2205.693879845999
 31
0.0
  0
LINE
  5
24B8
330
85F
100
AcDbEntity
  8
OUTLINE
100
AcDbLine
 10
-163.9093417910285
 20
-2205.693879845999
 30
0.0
 11
-164.0093417910271
 21
-2205.693879845999
 31
0.0
  0
LINE
  5
24B9
330
85F
100
AcDbEntity
  8
OUTLINE
100
AcDbLine
 10
-164.0093417910271
 20
-1966.663879846
 30
0.0
 11
-163.9093417910285
 21
-1966.663879846
 31
0.0
  0
LINE
  5
24BA
330
85F
100
AcDbEntity
  8
OUTLINE
100
AcDbLine
 10
-154.8593417910256
 20
-2003.939268590961
 30
0.0
 11
-154.8593417910256
 21
-2004.293740017266
 31
0.0
  0
ARC
  5
24BB
330
85F
100
AcDbEntity
  8
OUTLINE
100
AcDbCircle
 10
-155.4093417910285
 20
-2005.689268590962
 30
0.0
 40
1.499999999999981
100
AcDbArc
 50
111.5101882670052
 51
68.48981173299477
  0
LINE
  5
24BC
330
85F
100
AcDbEntity
  8
OUTLINE
100
AcDbLine
 10
-155.9593417910242
 20
-2004.293740017266
 30
0.0
 11
-155.9593417910242
 21
-2003.939268590961
 31
0.0
  0
ARC
  5
24BD
330
85F
100
AcDbEntity
  8
OUTLINE
100
AcDbCircle
 10
-155.4093417910285
 20
-2003.939268590961
 30
0.0
 40
0.5500000000000006
100
AcDbArc
 50
0.0
 51
180.0
  0
LINE
  5
24BE
330
85F
100
AcDbEntity
  8
OUTLINE
100
AcDbLine
 10
-164.9093417910285
 20
-1965.689268590961
 30
0.0
 11
-164.1093417910256
 21
-1965.689268590961
 31
0.0
  0
LINE
  5
24BF
330
85F
100
AcDbEntity
  8
OUTLINE
100
AcDbLine
 10
-164.9093417910285
 20
-1965.689268590961
 30
0.0
 11
-164.9093417910285
 21
-1965.451962963443
 31
0.0
  0
LINE
  5
24C0
330
85F
100
AcDbEntity
  8
OUTLINE
100
AcDbLine
 10
-164.9093417910285
 20
-1965.451962963443
 30
0.0
 11
-164.9093417910285
 21
-1965.443302709404
 31
0.0
  0
LINE
  5
24C1
330
85F
100
AcDbEntity
  8
OUTLINE
100
AcDbLine
 10
-164.9093417910285
 20
-1965.443302709404
 30
0.0
 11
-164.9093417910285
 21
-1889.424776799509
 31
0.0
  0
LINE
  5
24C2
330
85F
100
AcDbEntity
  8
OUTLINE
100
AcDbLine
 10
-164.9093417910285
 20
-1889.424776799509
 30
0.0
 11
-164.9093417910285
 21
-1888.640353936103
 31
0.0
  0
LINE
  5
24C3
330
85F
100
AcDbEntity
  8
OUTLINE
100
AcDbLine
 10
-164.1093417910256
 20
-1888.640353936103
 30
0.0
 11
-164.1093417910256
 21
-1888.650180130268
 31
0.0
  0
LINE
  5
24C4
330
85F
100
AcDbEntity
  8
OUTLINE
100
AcDbLine
 10
-164.1093417910256
 20
-1965.443302709404
 30
0.0
 11
-164.1093417910256
 21
-1965.451962963443
 31
0.0
  0
LINE
  5
24C5
330
85F
100
AcDbEntity
  8
OUTLINE
100
AcDbLine
 10
-164.1093417910256
 20
-1965.451962963443
 30
0.0
 11
-164.1093417910256
 21
-1965.689268590961
 31
0.0
  0
LINE
  5
24C6
330
85F
100
AcDbEntity
  8
OUTLINE
100
AcDbLine
 10
-164.0093417910271
 20
-1888.645353936104
 30
0.0
 11
-164.0093417910271
 21
-1964.663879846
 31
0.0
  0
ELLIPSE
  5
24C7
330
85F
100
AcDbEntity
  8
OUTLINE
100
AcDbEllipse
 10
-164.0093417910271
 20
-1889.424776799509
 30
0.0
 11
-0.8999999999999445
 21
0.0000000000009259
 31
0.0
210
0.0
220
0.0
230
1.0
 40
0.8660254037844394
 41
4.712388980385975
 42
6.283185307180374
  0
ELLIPSE
  5
24C8
330
85F
100
AcDbEntity
  8
OUTLINE
100
AcDbEllipse
 10
-164.0093417910271
 20
-1965.443302709405
 30
0.0
 11
-0.9000000000000628
 21
-0.0000000000000068
 31
0.0
210
0.0
220
0.0
230
1.0
 40
0.8660254037844364
 41
4.712388980384682
 42
6.283185307179573
  0
LINE
  5
24C9
330
85F
100
AcDbEntity
  8
OUTLINE
100
AcDbLine
 10
-164.0093417910271
 20
-1964.663879846
 30
0.0
 11
-164.0093417910271
 21
-1965.356700169028
 31
0.0
  0
LINE
  5
24CA
330
85F
100
AcDbEntity
  8
OUTLINE
100
AcDbLine
 10
-164.9093417910285
 20
-1965.443302709404
 30
0.0
 11
-164.1093417910256
 21
-1965.443302709404
 31
0.0
  0
ELLIPSE
  5
24CB
330
85F
100
AcDbEntity
  8
OUTLINE
100
AcDbEllipse
 10
-164.0093417910271
 20
-1965.443302709405
 30
0.0
 11
-0.1000000000000785
 21
0.0000000000000006
 31
0.0
210
0.0
220
0.0
230
1.0
 40
0.8660254037845174
 41
4.712388980384695
 42
6.28318530717952
  0
LINE
  5
24CC
330
85F
100
AcDbEntity
  8
OUTLINE
100
AcDbLine
 10
-164.1093417910256
 20
-1965.451962963443
 30
0.0
 11
-164.9093417910285
 21
-1965.451962963443
 31
0.0
  0
LINE
  5
24CD
330
85F
100
AcDbEntity
  8
OUTLINE
100
AcDbLine
 10
-164.9093417910285
 20
-1888.640353936103
 30
0.0
 11
-164.1093417910256
 21
-1888.640353936103
 31
0.0
  0
LINE
  5
24CE
330
85F
100
AcDbEntity
  8
OUTLINE
100
AcDbLine
 10
-163.9093417910285
 20
-1965.356700169029
 30
0.0
 11
-164.0093417910271
 21
-1965.356700169028
 31
0.0
  0
LINE
  5
24CF
330
85F
100
AcDbEntity
  8
OUTLINE
100
AcDbLine
 10
-163.9093417910285
 20
-1964.663879846001
 30
0.0
 11
-164.0093417910271
 21
-1964.663879846
 31
0.0
  0
LINE
  5
24D0
330
85F
100
AcDbEntity
  8
OUTLINE
100
AcDbLine
 10
-164.0093417910271
 20
-1888.645353936104
 30
0.0
 11
-163.9093417910285
 21
-1888.645353936104
 31
0.0
  0
ARC
  5
24D1
330
85F
100
AcDbEntity
  8
OUTLINE
100
AcDbCircle
 10
-164.0093417910271
 20
-1889.045353936102
 30
0.0
 40
0.8999999999999683
100
AcDbArc
 50
90.0
 51
96.37937020834836
  0
LINE
  5
24D2
330
85F
100
AcDbEntity
  8
OUTLINE
100
AcDbLine
 10
-164.0093417910271
 20
-1888.145353936103
 30
0.0
 11
-164.0093417910271
 21
-1888.645353936104
 31
0.0
  0
LINE
  5
24D3
330
85F
100
AcDbEntity
  8
OUTLINE
100
AcDbLine
 10
-163.9093417910285
 20
-1888.145353936103
 30
0.0
 11
-164.0093417910271
 21
-1888.145353936103
 31
0.0
  0
LINE
  5
24D4
330
85F
100
AcDbEntity
  8
OUTLINE
100
AcDbLine
 10
26.09065820897143
 20
-2368.145353936103
 30
0.0
 11
23.09065820897143
 21
-2365.145353936103
 31
0.0
  0
LINE
  5
24D5
330
85F
100
AcDbEntity
  8
OUTLINE
100
AcDbLine
 10
23.09065820897143
 20
-2365.145353936103
 30
0.0
 11
23.09065820897143
 21
-2205.693879845999
 31
0.0
  0
LINE
  5
24D6
330
85F
100
AcDbEntity
  8
OUTLINE
100
AcDbLine
 10
50.19065820896997
 20
-2368.145353936103
 30
0.0
 11
26.09065820897143
 21
-2368.145353936103
 31
0.0
  0
LINE
  5
24D7
330
85F
100
AcDbEntity
  8
OUTLINE
100
AcDbLine
 10
41.0406582089758
 20
-1924.728809931632
 30
0.0
 11
41.0406582089758
 21
-1924.55157421848
 31
0.0
  0
LINE
  5
24D8
330
85F
100
AcDbEntity
  8
OUTLINE
100
AcDbLine
 10
41.0406582089758
 20
-1924.728809931632
 30
0.0
 11
41.0406582089758
 21
-1925.42163025466
 31
0.0
  0
ELLIPSE
  5
24D9
330
85F
100
AcDbEntity
  8
OUTLINE
100
AcDbEllipse
 10
41.59065820897143
 20
-1926.119394541507
 30
0.0
 11
-1.499999999999761
 21
-0.0000000000001237
 31
0.0
210
0.0
220
0.0
230
1.0
 40
0.4999999999998731
 41
5.087812588365601
 42
5.461482537832949
  0
ELLIPSE
  5
24DA
330
85F
100
AcDbEntity
  8
OUTLINE
100
AcDbEllipse
 10
41.59065820897143
 20
-1926.119394541508
 30
0.0
 11
-1.500000000000041
 21
-0.0000000000002191
 31
0.0
210
0.0
220
0.0
230
1.0
 40
0.500000000000123
 41
3.963295422935443
 42
4.336965372403666
  0
ELLIPSE
  5
24DB
330
85F
100
AcDbEntity
  8
OUTLINE
100
AcDbEllipse
 10
41.59065820897143
 20
-1925.42657421848
 30
0.0
 11
1.500000000000027
 21
-0.0000000000000072
 31
0.0
210
0.0
220
0.0
230
1.0
 40
0.4999999999999976
 41
6.279593477804381
 42
7.478558025993352
  0
ELLIPSE
  5
24DC
330
85F
100
AcDbEntity
  8
OUTLINE
100
AcDbEllipse
 10
41.59065820897143
 20
-1925.42657421848
 30
0.0
 11
-1.499999999999998
 21
0.0000000000000125
 31
0.0
210
0.0
220
0.0
230
1.0
 40
0.4999999999999908
 41
5.087812588365824
 42
6.286777136553929
  0
LINE
  5
24DD
330
85F
100
AcDbEntity
  8
OUTLINE
100
AcDbLine
 10
42.14065820897434
 20
-1924.728809931632
 30
0.0
 11
42.14065820897434
 21
-1925.42163025466
 31
0.0
  0
LINE
  5
24DE
330
85F
100
AcDbEntity
  8
OUTLINE
100
AcDbLine
 10
42.14065820897434
 20
-1924.55157421848
 30
0.0
 11
42.14065820897434
 21
-1924.728809931632
 31
0.0
  0
ELLIPSE
  5
24DF
330
85F
100
AcDbEntity
  8
OUTLINE
100
AcDbEllipse
 10
41.59065820897143
 20
-1925.244394541507
 30
0.0
 11
0.5500000000000007
 21
-0.0000000000000044
 31
0.0
210
0.0
220
0.0
230
1.0
 40
0.4999999999999981
 41
0.000000000000016
 42
3.141592653589809
  0
ELLIPSE
  5
24E0
330
85F
100
AcDbEntity
  8
OUTLINE
100
AcDbEllipse
 10
41.59065820897143
 20
-1924.55157421848
 30
0.0
 11
-0.5500000000000007
 21
0.0000000000000088
 31
0.0
210
0.0
220
0.0
230
1.0
 40
0.4999999999999919
 41
3.141592653589633
 42
6.283185307179425
  0
CIRCLE
  5
24E1
330
85F
100
AcDbEntity
  8
OUTLINE
100
AcDbCircle
 10
36.09065820897143
 20
-2356.145353936103
 30
0.0
 40
4.500000000000001
  0
LINE
  5
24E2
330
85F
100
AcDbEntity
  8
OUTLINE
100
AcDbLine
 10
41.0406582089758
 20
-2174.819128762229
 30
0.0
 11
41.0406582089758
 21
-2174.464657335924
 31
0.0
  0
ARC
  5
24E3
330
85F
100
AcDbEntity
  8
OUTLINE
100
AcDbCircle
 10
41.59065820897143
 20
-2176.214657335924
 30
0.0
 40
1.500000000000012
100
AcDbArc
 50
111.5101882670052
 51
68.48981173299477
  0
LINE
  5
24E4
330
85F
100
AcDbEntity
  8
OUTLINE
100
AcDbLine
 10
42.14065820897434
 20
-2174.464657335924
 30
0.0
 11
42.14065820897434
 21
-2174.819128762229
 31
0.0
  0
ARC
  5
24E5
330
85F
100
AcDbEntity
  8
OUTLINE
100
AcDbCircle
 10
41.59065820897143
 20
-2174.464657335924
 30
0.0
 40
0.5500000000000007
100
AcDbArc
 50
0.0
 51
180.0
  0
LINE
  5
24E6
330
85F
100
AcDbEntity
  8
OUTLINE
100
AcDbLine
 10
50.2906582089758
 20
-2359.361841995252
 30
0.0
 11
49.49065820897288
 21
-2359.361841995252
 31
0.0
  0
LINE
  5
24E7
330
85F
100
AcDbEntity
  8
OUTLINE
100
AcDbLine
 10
50.2906582089758
 20
-2209.78817382198
 30
0.0
 11
49.49065820897288
 21
-2209.78817382198
 31
0.0
  0
LINE
  5
24E8
330
85F
100
AcDbEntity
  8
OUTLINE
100
AcDbLine
 10
49.49065820897288
 20
-2209.78817382198
 30
0.0
 11
49.49065820897288
 21
-2359.361841995252
 31
0.0
  0
LINE
  5
24E9
330
85F
100
AcDbEntity
  8
OUTLINE
100
AcDbLine
 10
50.2906582089758
 20
-2359.361841995252
 30
0.0
 11
50.2906582089758
 21
-2367.225288742409
 31
0.0
  0
LINE
  5
24EA
330
85F
100
AcDbEntity
  8
OUTLINE
100
AcDbLine
 10
51.09065820897143
 20
-2367.225288742409
 30
0.0
 11
51.09065820897143
 21
-2206.213879845999
 31
0.0
  0
LINE
  5
24EB
330
85F
100
AcDbEntity
  8
OUTLINE
100
AcDbLine
 10
51.09065820897143
 20
-2206.213879845999
 30
0.0
 11
50.2906582089758
 21
-2206.213879845999
 31
0.0
  0
LINE
  5
24EC
330
85F
100
AcDbEntity
  8
OUTLINE
100
AcDbLine
 10
50.2906582089758
 20
-2206.213879845999
 30
0.0
 11
50.2906582089758
 21
-2209.78817382198
 31
0.0
  0
LINE
  5
24ED
330
85F
100
AcDbEntity
  8
OUTLINE
100
AcDbLine
 10
50.2906582089758
 20
-2205.223879845998
 30
0.0
 11
50.2906582089758
 21
-2206.213879845999
 31
0.0
  0
LINE
  5
24EE
330
85F
100
AcDbEntity
  8
OUTLINE
100
AcDbLine
 10
50.2906582089758
 20
-1966.214657335924
 30
0.0
 11
50.2906582089758
 21
-1968.204657335924
 31
0.0
  0
LINE
  5
24EF
330
85F
100
AcDbEntity
  8
OUTLINE
100
AcDbLine
 10
50.2906582089758
 20
-1888.145353936103
 30
0.0
 11
50.2906582089758
 21
-1888.640353936103
 31
0.0
  0
LINE
  5
24F0
330
85F
100
AcDbEntity
  8
OUTLINE
100
AcDbLine
 10
51.09065820897143
 20
-2206.213879845999
 30
0.0
 11
51.09065820897143
 21
-2205.223879845998
 31
0.0
  0
LINE
  5
24F1
330
85F
100
AcDbEntity
  8
OUTLINE
100
AcDbLine
 10
51.09065820897143
 20
-1888.640353936103
 30
0.0
 11
51.09065820897143
 21
-1888.145353936103
 31
0.0
  0
LINE
  5
24F2
330
85F
100
AcDbEntity
  8
OUTLINE
100
AcDbLine
 10
51.09065820897143
 20
-1968.204657335924
 30
0.0
 11
51.09065820897143
 21
-1966.214657335924
 31
0.0
  0
LINE
  5
24F3
330
85F
100
AcDbEntity
  8
OUTLINE
100
AcDbLine
 10
51.09065820897143
 20
-1888.145353936103
 30
0.0
 11
50.2906582089758
 21
-1888.145353936103
 31
0.0
  0
LINE
  5
24F4
330
85F
100
AcDbEntity
  8
OUTLINE
100
AcDbLine
 10
50.2906582089758
 20
-2367.225288742409
 30
0.0
 11
50.76361600410513
 21
-2367.225288742409
 31
0.0
  0
LINE
  5
24F5
330
85F
100
AcDbEntity
  8
OUTLINE
100
AcDbLine
 10
50.76361600410513
 20
-2367.225288742409
 30
0.0
 11
51.09065820897143
 21
-2367.225288742409
 31
0.0
  0
SPLINE
  5
24F6
330
85F
100
AcDbEntity
  8
OUTLINE
100
AcDbSpline
210
0.0
220
0.0
230
1.0
 70
     8
 71
     3
 72
    11
 73
     7
 74
     0
 42
0.0000000001
 43
0.0000000001
 40
0.0
 40
0.0
 40
0.0
 40
0.0
 40
1.437607986812995
 40
1.437607986812995
 40
1.437607986812995
 40
1.570796326794897
 40
1.570796326794897
 40
1.570796326794897
 40
1.570796326794897
 10
51.09065820897143
 20
-2367.225288742409
 30
0.0
 10
51.09065820897143
 20
-2367.505972929634
 30
0.0
 10
50.73763639167504
 20
-2367.786657116857
 30
0.0
 10
50.31017363229096
 20
-2368.067341304081
 30
0.0
 10
50.27057100358565
 20
-2368.093345514755
 30
0.0
 10
50.23061471096792
 20
-2368.119349725429
 30
0.0
 10
50.19065820896997
 20
-2368.145353936103
 30
0.0
  0
LINE
  5
24F7
330
85F
100
AcDbEntity
  8
OUTLINE
100
AcDbLine
 10
50.19065820896997
 20
-2368.145353936103
 30
0.0
 11
50.19065820896997
 21
-2359.361841995252
 31
0.0
  0
LINE
  5
24F8
330
85F
100
AcDbEntity
  8
OUTLINE
100
AcDbLine
 10
50.19065820896997
 20
-2209.78817382198
 30
0.0
 11
50.19065820896997
 21
-2205.213879845999
 31
0.0
  0
LINE
  5
24F9
330
85F
100
AcDbEntity
  8
OUTLINE
100
AcDbLine
 10
50.19065820896997
 20
-1968.214657335924
 30
0.0
 11
50.19065820896997
 21
-1965.356700169026
 31
0.0
  0
SPLINE
  5
24FA
330
85F
100
AcDbEntity
  8
OUTLINE
100
AcDbSpline
210
0.0
220
0.0
230
1.0
 70
     8
 71
     3
 72
     8
 73
     4
 74
     0
 42
0.0000000001
 43
0.0000000001
 40
0.0
 40
0.0
 40
0.0
 40
0.0
 40
1.570796326794897
 40
1.570796326794897
 40
1.570796326794897
 40
1.570796326794897
 10
50.2906582089758
 20
-2367.225288742409
 30
0.0
 10
50.2906582089758
 20
-2367.531977140306
 30
0.0
 10
50.24301808653167
 20
-2367.838665538206
 30
0.0
 10
50.19065820896997
 20
-2368.145353936103
 30
0.0
  0
LINE
  5
24FB
330
85F
100
AcDbEntity
  8
OUTLINE
100
AcDbLine
 10
50.2906582089758
 20
-2205.223879845998
 30
0.0
 11
50.2906582089758
 21
-2205.213879845998
 31
0.0
  0
LINE
  5
24FC
330
85F
100
AcDbEntity
  8
OUTLINE
100
AcDbLine
 10
50.2906582089758
 20
-1968.214657335924
 30
0.0
 11
50.2906582089758
 21
-1968.204657335924
 31
0.0
  0
LINE
  5
24FD
330
85F
100
AcDbEntity
  8
OUTLINE
100
AcDbLine
 10
50.19065820896997
 20
-2205.213879845999
 30
0.0
 11
50.19065820896997
 21
-1968.214657335924
 31
0.0
  0
LINE
  5
24FE
330
85F
100
AcDbEntity
  8
OUTLINE
100
AcDbLine
 10
50.19065820896997
 20
-1968.214657335924
 30
0.0
 11
51.09065820897143
 21
-1968.214657335924
 31
0.0
  0
LINE
  5
24FF
330
85F
100
AcDbEntity
  8
OUTLINE
100
AcDbLine
 10
50.19065820896997
 20
-2205.213879845999
 30
0.0
 11
51.09065820897143
 21
-2205.213879845999
 31
0.0
  0
LINE
  5
2500
330
85F
100
AcDbEntity
  8
OUTLINE
100
AcDbLine
 10
51.09065820897143
 20
-1968.214657335924
 30
0.0
 11
51.09065820897143
 21
-2205.213879845998
 31
0.0
  0
LINE
  5
2501
330
85F
100
AcDbEntity
  8
OUTLINE
100
AcDbLine
 10
51.09065820897143
 20
-2205.223879845998
 30
0.0
 11
50.2906582089758
 21
-2205.223879845998
 31
0.0
  0
LINE
  5
2502
330
85F
100
AcDbEntity
  8
OUTLINE
100
AcDbLine
 10
51.09065820897143
 20
-2205.213879845998
 30
0.0
 11
51.09065820897143
 21
-2205.223879845998
 31
0.0
  0
LINE
  5
2503
330
85F
100
AcDbEntity
  8
OUTLINE
100
AcDbLine
 10
50.2906582089758
 20
-1968.204657335924
 30
0.0
 11
51.09065820897143
 21
-1968.204657335924
 31
0.0
  0
LINE
  5
2504
330
85F
100
AcDbEntity
  8
OUTLINE
100
AcDbLine
 10
51.09065820897143
 20
-1968.204657335924
 30
0.0
 11
51.09065820897143
 21
-1968.214657335924
 31
0.0
  0
LINE
  5
2505
330
85F
100
AcDbEntity
  8
OUTLINE
100
AcDbLine
 10
50.2906582089758
 20
-1966.214657335924
 30
0.0
 11
50.2906582089758
 21
-1965.451962963443
 31
0.0
  0
LINE
  5
2506
330
85F
100
AcDbEntity
  8
OUTLINE
100
AcDbLine
 10
50.2906582089758
 20
-1965.451962963443
 30
0.0
 11
50.2906582089758
 21
-1965.443302709404
 31
0.0
  0
LINE
  5
2507
330
85F
100
AcDbEntity
  8
OUTLINE
100
AcDbLine
 10
50.2906582089758
 20
-1888.650180130267
 30
0.0
 11
50.2906582089758
 21
-1888.640353936103
 31
0.0
  0
LINE
  5
2508
330
85F
100
AcDbEntity
  8
OUTLINE
100
AcDbLine
 10
51.09065820897143
 20
-1888.640353936103
 30
0.0
 11
51.09065820897143
 21
-1889.424776799509
 31
0.0
  0
LINE
  5
2509
330
85F
100
AcDbEntity
  8
OUTLINE
100
AcDbLine
 10
51.09065820897143
 20
-1889.424776799509
 30
0.0
 11
51.09065820897143
 21
-1965.443302709404
 31
0.0
  0
LINE
  5
250A
330
85F
100
AcDbEntity
  8
OUTLINE
100
AcDbLine
 10
51.09065820897143
 20
-1965.443302709404
 30
0.0
 11
51.09065820897143
 21
-1965.451962963443
 31
0.0
  0
LINE
  5
250B
330
85F
100
AcDbEntity
  8
OUTLINE
100
AcDbLine
 10
51.09065820897143
 20
-1965.451962963443
 30
0.0
 11
51.09065820897143
 21
-1966.214657335924
 31
0.0
  0
LINE
  5
250C
330
85F
100
AcDbEntity
  8
OUTLINE
100
AcDbLine
 10
51.09065820897143
 20
-1966.214657335924
 30
0.0
 11
50.2906582089758
 21
-1966.214657335924
 31
0.0
  0
ELLIPSE
  5
250D
330
85F
100
AcDbEntity
  8
OUTLINE
100
AcDbEllipse
 10
50.19065820896997
 20
-1965.443302709405
 30
0.0
 11
0.0999999999999916
 21
-0.0000000000000024
 31
0.0
210
0.0
220
0.0
230
1.0
 40
0.8660254037844712
 41
0.0
 42
1.570796326794917
  0
LINE
  5
250E
330
85F
100
AcDbEntity
  8
OUTLINE
100
AcDbLine
 10
50.19065820896997
 20
-1965.356700169026
 30
0.0
 11
50.19065820896997
 21
-1964.663879845999
 31
0.0
  0
LINE
  5
250F
330
85F
100
AcDbEntity
  8
OUTLINE
100
AcDbLine
 10
50.19065820896997
 20
-1964.663879845999
 30
0.0
 11
50.19065820896997
 21
-1888.645353936103
 31
0.0
  0
ELLIPSE
  5
2510
330
85F
100
AcDbEntity
  8
OUTLINE
100
AcDbEllipse
 10
50.19065820896997
 20
-1889.424776799509
 30
0.0
 11
0.900000000000001
 21
0.0000000000000848
 31
0.0
210
0.0
220
0.0
230
1.0
 40
0.8660254037844399
 41
0.0
 42
1.570796326794814
  0
LINE
  5
2511
330
85F
100
AcDbEntity
  8
OUTLINE
100
AcDbLine
 10
50.2906582089758
 20
-1965.443302709404
 30
0.0
 11
51.09065820897143
 21
-1965.443302709404
 31
0.0
  0
ELLIPSE
  5
2512
330
85F
100
AcDbEntity
  8
OUTLINE
100
AcDbEllipse
 10
50.19065820896997
 20
-1965.443302709405
 30
0.0
 11
0.9000000000000015
 21
0.000000000000009
 31
0.0
210
0.0
220
0.0
230
1.0
 40
0.8660254037844488
 41
0.0000000000000016
 42
1.570796326794887
  0
LINE
  5
2513
330
85F
100
AcDbEntity
  8
OUTLINE
100
AcDbLine
 10
51.09065820897143
 20
-1965.451962963443
 30
0.0
 11
50.2906582089758
 21
-1965.451962963443
 31
0.0
  0
LINE
  5
2514
330
85F
100
AcDbEntity
  8
OUTLINE
100
AcDbLine
 10
50.2906582089758
 20
-1888.640353936103
 30
0.0
 11
51.09065820897143
 21
-1888.640353936103
 31
0.0
  0
LINE
  5
2515
330
85F
100
AcDbEntity
  8
OUTLINE
100
AcDbLine
 10
50.09065820897143
 20
-2205.213879845999
 30
0.0
 11
48.851313946679
 21
-2203.933224108297
 31
0.0
  0
LINE
  5
2516
330
85F
100
AcDbEntity
  8
OUTLINE
100
AcDbLine
 10
50.19065820896997
 20
-2205.213879845999
 30
0.0
 11
50.09065820897143
 21
-2205.213879845999
 31
0.0
  0
LINE
  5
2517
330
85F
100
AcDbEntity
  8
OUTLINE
100
AcDbLine
 10
50.19065820896997
 20
-1968.214657335924
 30
0.0
 11
50.09065820897143
 21
-1968.214657335924
 31
0.0
  0
LINE
  5
2518
330
85F
100
AcDbEntity
  8
OUTLINE
100
AcDbLine
 10
41.0406582089758
 20
-2004.819128762228
 30
0.0
 11
41.0406582089758
 21
-2004.464657335924
 31
0.0
  0
ARC
  5
2519
330
85F
100
AcDbEntity
  8
OUTLINE
100
AcDbCircle
 10
41.59065820897143
 20
-2004.464657335924
 30
0.0
 40
0.5500000000000007
100
AcDbArc
 50
0.0
 51
180.0
  0
LINE
  5
251A
330
85F
100
AcDbEntity
  8
OUTLINE
100
AcDbLine
 10
42.14065820897434
 20
-2004.464657335924
 30
0.0
 11
42.14065820897434
 21
-2004.819128762228
 31
0.0
  0
ARC
  5
251B
330
85F
100
AcDbEntity
  8
OUTLINE
100
AcDbCircle
 10
41.59065820897143
 20
-2006.214657335924
 30
0.0
 40
1.499999999999996
100
AcDbArc
 50
111.5101882670052
 51
68.48981173299477
  0
LINE
  5
251C
330
85F
100
AcDbEntity
  8
OUTLINE
100
AcDbLine
 10
50.19065820896997
 20
-1964.663879845999
 30
0.0
 11
50.09065820897143
 21
-1964.663879845999
 31
0.0
  0
LINE
  5
251D
330
85F
100
AcDbEntity
  8
OUTLINE
100
AcDbLine
 10
50.09065820897143
 20
-1965.356700169026
 30
0.0
 11
50.19065820896997
 21
-1965.356700169026
 31
0.0
  0
LINE
  5
251E
330
85F
100
AcDbEntity
  8
OUTLINE
100
AcDbLine
 10
50.19065820896997
 20
-1888.645353936103
 30
0.0
 11
50.09065820897143
 21
-1888.645353936103
 31
0.0
  0
LINE
  5
251F
330
85F
100
AcDbEntity
  8
OUTLINE
100
AcDbLine
 10
50.19065820896997
 20
-1888.645353936103
 30
0.0
 11
50.19065820896997
 21
-1888.145353936103
 31
0.0
  0
ARC
  5
2520
330
85F
100
AcDbEntity
  8
OUTLINE
100
AcDbCircle
 10
50.19065820896997
 20
-1889.045353936102
 30
0.0
 40
0.9000000000000065
100
AcDbArc
 50
83.62062979165164
 51
90.0
  0
LINE
  5
2521
330
85F
100
AcDbEntity
  8
OUTLINE
100
AcDbLine
 10
50.19065820896997
 20
-1888.145353936103
 30
0.0
 11
50.09065820897143
 21
-1888.145353936103
 31
0.0
  0
LINE
  5
2522
330
85F
100
AcDbEntity
  8
OUTLINE
100
AcDbLine
 10
50.09065820897871
 20
-2202.693879845999
 30
0.0
 11
47.09065820897871
 21
-2205.693879845999
 31
0.0
  0
LINE
  5
2523
330
85F
100
AcDbEntity
  8
OUTLINE
100
AcDbLine
 10
-160.9093417910213
 20
-2205.693879846
 30
0.0
 11
-163.9093417910213
 21
-2202.693879845999
 31
0.0
  0
LINE
  5
2524
330
85F
100
AcDbEntity
  8
OUTLINE
100
AcDbLine
 10
47.09065820897871
 20
-2205.693879845999
 30
0.0
 11
-160.9093417910213
 21
-2205.693879846
 31
0.0
  0
LINE
  5
2525
330
85F
100
AcDbEntity
  8
OUTLINE
100
AcDbLine
 10
-163.9093417910213
 20
-2202.693879845999
 30
0.0
 11
-163.9093417910213
 21
-1982.708687319677
 31
0.0
  0
LINE
  5
2526
330
85F
100
AcDbEntity
  8
OUTLINE
100
AcDbLine
 10
50.09065820897871
 20
-1982.708687319673
 30
0.0
 11
50.09065820897871
 21
-2202.693879845999
 31
0.0
  0
LINE
  5
2527
330
85F
100
AcDbEntity
  8
OUTLINE
100
AcDbLine
 10
-57.45934179101692
 20
-1975.298351272303
 30
0.0
 11
-57.45934179101692
 21
-1974.943879845999
 31
0.0
  0
ARC
  5
2528
330
85F
100
AcDbEntity
  8
OUTLINE
100
AcDbCircle
 10
-56.90934179102129
 20
-1976.693879845998
 30
0.0
 40
1.500000000000003
100
AcDbArc
 50
111.5101882670052
 51
68.48981173299477
  0
LINE
  5
2529
330
85F
100
AcDbEntity
  8
OUTLINE
100
AcDbLine
 10
-56.35934179101838
 20
-1974.943879845999
 30
0.0
 11
-56.35934179101838
 21
-1975.298351272303
 31
0.0
  0
ARC
  5
252A
330
85F
100
AcDbEntity
  8
OUTLINE
100
AcDbCircle
 10
-56.90934179102129
 20
-1974.943879845999
 30
0.0
 40
0.5499999999999982
100
AcDbArc
 50
0.0
 51
180.0
  0
CIRCLE
  5
252B
330
85F
100
AcDbEntity
  8
OUTLINE
100
AcDbCircle
 10
41.59065820897871
 20
-2175.693879845999
 30
0.0
 40
2.500000000000004
  0
CIRCLE
  5
252C
330
85F
100
AcDbEntity
  8
OUTLINE
100
AcDbCircle
 10
41.59065820897871
 20
-2005.693879845999
 30
0.0
 40
2.500000000000004
  0
CIRCLE
  5
252D
330
85F
100
AcDbEntity
  8
OUTLINE
100
AcDbCircle
 10
-155.4093417910213
 20
-2175.693879845999
 30
0.0
 40
2.500000000000004
  0
CIRCLE
  5
252E
330
85F
100
AcDbEntity
  8
OUTLINE
100
AcDbCircle
 10
-155.4093417910213
 20
-2005.693879845999
 30
0.0
 40
2.500000000000004
  0
LINE
  5
252F
330
85F
100
AcDbEntity
  8
OUTLINE
100
AcDbLine
 10
-118.4093417910285
 20
-1873.145353936102
 30
0.0
 11
-115.4093417910285
 21
-1870.145353936103
 31
0.0
  0
LINE
  5
2530
330
85F
100
AcDbEntity
  8
OUTLINE
100
AcDbLine
 10
-89.40934179102857
 20
-1870.145353936102
 30
0.0
 11
-86.40934179102856
 21
-1873.145353936102
 31
0.0
  0
LINE
  5
2531
330
85F
100
AcDbEntity
  8
OUTLINE
100
AcDbLine
 10
20.59065820897143
 20
-1873.1453539361
 30
0.0
 11
23.59065820897143
 21
-1870.1453539361
 31
0.0
  0
LINE
  5
2532
330
85F
100
AcDbEntity
  8
OUTLINE
100
AcDbLine
 10
-115.4093417910285
 20
-1870.145353936103
 30
0.0
 11
-89.40934179102857
 21
-1870.145353936102
 31
0.0
  0
LINE
  5
2533
330
85F
100
AcDbEntity
  8
OUTLINE
100
AcDbLine
 10
50.09065820897143
 20
-1873.145353936099
 30
0.0
 11
50.09065820897143
 21
-1887.2453539361
 31
0.0
  0
LINE
  5
2534
330
85F
100
AcDbEntity
  8
OUTLINE
100
AcDbLine
 10
23.59065820897143
 20
-1870.1453539361
 30
0.0
 11
47.09065820897143
 21
-1870.145353936099
 31
0.0
  0
LINE
  5
2535
330
85F
100
AcDbEntity
  8
OUTLINE
100
AcDbLine
 10
-163.9093417910285
 20
-1964.929264456271
 30
0.0
 11
-163.9093417910285
 21
-1887.465931072696
 31
0.0
  0
LINE
  5
2536
330
85F
100
AcDbEntity
  8
OUTLINE
100
AcDbLine
 10
50.09065820897143
 20
-1887.465931072693
 30
0.0
 11
50.09065820897143
 21
-1964.929264456268
 31
0.0
  0
LINE
  5
2537
330
85F
100
AcDbEntity
  8
OUTLINE
100
AcDbLine
 10
50.09065820897143
 20
-1965.708687319673
 30
0.0
 11
50.09065820897143
 21
-1982.708687319674
 31
0.0
  0
LINE
  5
2538
330
85F
100
AcDbEntity
  8
OUTLINE
100
AcDbLine
 10
-163.9093417910285
 20
-1982.708687319677
 30
0.0
 11
-163.9093417910285
 21
-1965.708687319677
 31
0.0
  0
LINE
  5
2539
330
85F
100
AcDbEntity
  8
OUTLINE
100
AcDbLine
 10
47.09065820897143
 20
-1985.708687319674
 30
0.0
 11
-160.9093417910285
 21
-1985.708687319677
 31
0.0
  0
CIRCLE
  5
253A
330
85F
100
AcDbEntity
  8
OUTLINE
100
AcDbCircle
 10
29.09065820897144
 20
-1875.6453539361
 30
0.0
 40
3.000000000000018
  0
LINE
  5
253B
330
85F
100
AcDbEntity
  8
OUTLINE
100
AcDbLine
 10
20.59065820897143
 20
-1873.1453539361
 30
0.0
 11
20.59065820897143
 21
-1887.2453539361
 31
0.0
  0
LINE
  5
253C
330
85F
100
AcDbEntity
  8
OUTLINE
100
AcDbLine
 10
-86.40934179102856
 20
-1887.245353936101
 30
0.0
 11
-86.40934179102856
 21
-1873.145353936101
 31
0.0
  0
LINE
  5
253D
330
85F
100
AcDbEntity
  8
OUTLINE
100
AcDbLine
 10
-86.40934179102856
 20
-1887.245353936101
 30
0.0
 11
20.59065820897143
 21
-1887.2453539361
 31
0.0
  0
LINE
  5
253E
330
85F
100
AcDbEntity
  8
OUTLINE
100
AcDbLine
 10
20.59065820897143
 20
-1887.2453539361
 30
0.0
 11
50.09065820897143
 21
-1887.2453539361
 31
0.0
  0
LINE
  5
253F
330
85F
100
AcDbEntity
  8
OUTLINE
100
AcDbLine
 10
-118.4093417910285
 20
-1887.245353936102
 30
0.0
 11
-86.40934179102856
 21
-1887.245353936101
 31
0.0
  0
LINE
  5
2540
330
85F
100
AcDbEntity
  8
OUTLINE
100
AcDbLine
 10
50.09065820897143
 20
-1887.345353936099
 30
0.0
 11
50.09065820897143
 21
-1887.2453539361
 31
0.0
  0
LINE
  5
2541
330
85F
100
AcDbEntity
  8
OUTLINE
100
AcDbLine
 10
-163.9093417910285
 20
-1887.245353936103
 30
0.0
 11
-163.9093417910285
 21
-1887.345353936103
 31
0.0
  0
LINE
  5
2542
330
85F
100
AcDbEntity
  8
OUTLINE
100
AcDbLine
 10
47.09065820897143
 20
-1870.145353936099
 30
0.0
 11
50.09065820897143
 21
-1873.145353936099
 31
0.0
  0
LINE
  5
2543
330
85F
100
AcDbEntity
  8
OUTLINE
100
AcDbLine
 10
-160.9093417910285
 20
-1985.708687319677
 30
0.0
 11
-163.9093417910285
 21
-1982.708687319677
 31
0.0
  0
LINE
  5
2544
330
85F
100
AcDbEntity
  8
OUTLINE
100
AcDbLine
 10
50.09065820897143
 20
-1982.708687319674
 30
0.0
 11
47.09065820897143
 21
-1985.708687319673
 31
0.0
  0
LINE
  5
2545
330
85F
100
AcDbEntity
  8
OUTLINE
100
AcDbLine
 10
-118.4093417910285
 20
-1873.145353936102
 30
0.0
 11
-118.4093417910285
 21
-1887.245353936102
 31
0.0
  0
LINE
  5
2546
330
85F
100
AcDbEntity
  8
OUTLINE
100
AcDbLine
 10
-163.9093417910285
 20
-1887.245353936103
 30
0.0
 11
-118.4093417910285
 21
-1887.245353936102
 31
0.0
  0
CIRCLE
  5
2547
330
85F
100
AcDbEntity
  8
OUTLINE
100
AcDbCircle
 10
-94.90934179102856
 20
-1875.645353936102
 30
0.0
 40
3.000000000000018
  0
ELLIPSE
  5
2548
330
85F
100
AcDbEntity
  8
OUTLINE
100
AcDbEllipse
 10
41.59065820897143
 20
-1925.122084779296
 30
0.0
 11
2.499999999999982
 21
0.0000000000000385
 31
0.0
210
0.0
220
0.0
230
1.0
 40
0.5000000000000005
 41
0.280803876646714
 42
2.860788776943055
  0
ELLIPSE
  5
2549
330
85F
100
AcDbEntity
  8
OUTLINE
100
AcDbEllipse
 10
41.59065820897143
 20
-1924.429264456267
 30
0.0
 11
2.499999999999945
 21
0.0000000000000406
 31
0.0
210
0.0
220
0.0
230
1.0
 40
0.5000000000000013
 41
0.0
 42
6.283185307179585
  0
ELLIPSE
  5
254A
330
85F
100
AcDbEntity
  8
OUTLINE
100
AcDbEllipse
 10
-155.4093417910285
 20
-1925.122084779298
 30
0.0
 11
2.5
 21
0.0000000000000404
 31
0.0
210
0.0
220
0.0
230
1.0
 40
0.4999999999999978
 41
0.2808038766466794
 42
2.860788776943121
  0
ELLIPSE
  5
254B
330
85F
100
AcDbEntity
  8
OUTLINE
100
AcDbEllipse
 10
-155.4093417910285
 20
-1924.429264456271
 30
0.0
 11
2.500000000000005
 21
0.0000000000000406
 31
0.0
210
0.0
220
0.0
230
1.0
 40
0.5000000000000013
 41
0.0
 42
6.283185307179585
  0
LINE
  5
254C
330
85F
100
AcDbEntity
  8
OUTLINE
100
AcDbLine
 10
-163.9093417910285
 20
-1965.708687319677
 30
0.0
 11
-163.9093417910285
 21
-1964.929264456271
 31
0.0
  0
LINE
  5
254D
330
85F
100
AcDbEntity
  8
OUTLINE
100
AcDbLine
 10
50.09065820897143
 20
-1964.929264456267
 30
0.0
 11
50.09065820897143
 21
-1965.708687319674
 31
0.0
  0
LINE
  5
254E
330
85F
100
AcDbEntity
  8
OUTLINE
100
AcDbLine
 10
-163.9093417910285
 20
-1964.929264456271
 30
0.0
 11
50.09065820897143
 21
-1964.929264456267
 31
0.0
  0
LINE
  5
254F
330
85F
100
AcDbEntity
  8
OUTLINE
100
AcDbLine
 10
50.09065820897143
 20
-1965.708687319673
 30
0.0
 11
-163.9093417910285
 21
-1965.708687319677
 31
0.0
  0
LINE
  5
2550
330
85F
100
AcDbEntity
  8
OUTLINE
100
AcDbLine
 10
50.09065820897143
 20
-1887.465931072693
 30
0.0
 11
-163.9093417910285
 21
-1887.465931072696
 31
0.0
  0
LINE
  5
2551
330
85F
100
AcDbEntity
  8
OUTLINE
100
AcDbLine
 10
-163.9093417910285
 20
-1887.465931072696
 30
0.0
 11
-163.9093417910285
 21
-1887.345353936103
 31
0.0
  0
LINE
  5
2552
330
85F
100
AcDbEntity
  8
OUTLINE
100
AcDbLine
 10
50.09065820897143
 20
-1887.345353936099
 30
0.0
 11
50.09065820897143
 21
-1887.465931072693
 31
0.0
  0
LINE
  5
2553
330
85F
100
AcDbEntity
  8
OUTLINE
100
AcDbLine
 10
-163.9093417910285
 20
-1887.345353936103
 30
0.0
 11
50.09065820897143
 21
-1887.345353936099
 31
0.0
  0
LINE
  5
2554
330
85F
100
AcDbEntity
  8
OUTLINE
100
AcDbLine
 10
-59.90934179022821
 20
-1976.708618007819
 30
0.0
 11
-59.90929558232398
 21
-1974.708618008352
 31
0.0
  0
ARC
  5
2555
330
85F
100
AcDbEntity
  8
OUTLINE
100
AcDbCircle
 10
-56.90929558312433
 20
-1974.70868732021
 30
0.0
 40
3.000000000000003
100
AcDbArc
 50
359.6819937190474
 51
179.9986762411056
  0
LINE
  5
2556
330
85F
100
AcDbEntity
  8
OUTLINE
100
AcDbLine
 10
-53.90934179102856
 20
-1974.725338004653
 30
0.0
 11
-53.92187015155883
 21
-1976.982572703312
 31
0.0
  0
ARC
  5
2557
330
85F
100
AcDbEntity
  8
OUTLINE
100
AcDbCircle
 10
-56.90934179102857
 20
-1976.708687319675
 30
0.0
 40
3.000000000000012
100
AcDbArc
 50
179.9986762411056
 51
354.7618807785684
  0
LINE
  5
2558
330
85F
100
AcDbEntity
  8
BASIS
  6
DASHDOT
 62
     6
100
AcDbLine
 10
-56.90934179104312
 20
-2399.145353936103
 30
0.0
 11
-56.90934179102857
 21
-1849.145353936103
 31
0.0
  0
LINE
  5
2559
330
85F
100
AcDbEntity
  8
ARRANGE
  6
Continuous
 62
     1
100
AcDbLine
 10
-73.59345935543621
 20
-2135.829471500506
 30
0.0
 11
-40.22522422662819
 21
-2102.4612363717
 31
0.0
  0
LINE
  5
255A
330
85F
100
AcDbEntity
  8
ARRANGE
  6
Continuous
 62
     1
100
AcDbLine
 10
-73.59345935543621
 20
-2102.4612363717
 30
0.0
 11
-40.22522422662819
 21
-2135.829471500506
 31
0.0
  0
CIRCLE
  5
255B
330
85F
100
AcDbEntity
  8
ARRANGE
100
AcDbCircle
 10
-56.90934179102857
 20
-2119.145353936102
 30
0.0
 40
15.0
  0
LINE
  5
255C
330
85F
100
AcDbEntity
  8
BASIS
  6
DASHDOT
 62
     6
100
AcDbLine
 10
95.59065820895687
 20
-2119.145353936099
 30
0.0
 11
-209.4093417910286
 21
-2119.145353936099
 31
0.0
  0
LINE
  5
255D
330
85F
100
AcDbEntity
  8
NOTE
100
AcDbLine
 10
29.09065820897144
 20
-1883.1453539361
 30
0.0
 11
29.09065820897144
 21
-1868.1453539361
 31
0.0
  0
CIRCLE
  5
255E
330
85F
100
AcDbEntity
  8
FIX
100
AcDbCircle
 10
29.09065820897144
 20
-1875.6453539361
 30
0.0
 40
3.0
  0
LINE
  5
255F
330
85F
100
AcDbEntity
  8
NOTE
100
AcDbLine
 10
21.59065820897144
 20
-1875.6453539361
 30
0.0
 11
36.59065820897144
 21
-1875.6453539361
 31
0.0
  0
LINE
  5
2560
330
85F
100
AcDbEntity
  8
NOTE
100
AcDbLine
 10
-94.90934179102856
 20
-1883.145353936102
 30
0.0
 11
-94.90934179102856
 21
-1868.145353936102
 31
0.0
  0
CIRCLE
  5
2561
330
85F
100
AcDbEntity
  8
FIX
100
AcDbCircle
 10
-94.90934179102856
 20
-1875.645353936102
 30
0.0
 40
3.0
  0
LINE
  5
2562
330
85F
100
AcDbEntity
  8
NOTE
100
AcDbLine
 10
-102.4093417910285
 20
-1875.645353936102
 30
0.0
 11
-87.40934179102856
 21
-1875.645353936102
 31
0.0
  0
LINE
  5
2563
330
85F
100
AcDbEntity
  8
NOTE
100
AcDbLine
 10
-137.9093417910285
 20
-2363.645353936103
 30
0.0
 11
-137.9093417910285
 21
-2348.645353936103
 31
0.0
  0
CIRCLE
  5
2564
330
85F
100
AcDbEntity
  8
FIX
100
AcDbCircle
 10
-137.9093417910285
 20
-2356.145353936103
 30
0.0
 40
3.0
  0
LINE
  5
2565
330
85F
100
AcDbEntity
  8
NOTE
100
AcDbLine
 10
-145.4093417910286
 20
-2356.145353936103
 30
0.0
 11
-130.4093417910285
 21
-2356.145353936103
 31
0.0
  0
LINE
  5
2566
330
85F
100
AcDbEntity
  8
NOTE
100
AcDbLine
 10
36.09065820897143
 20
-2363.645353936103
 30
0.0
 11
36.09065820897143
 21
-2348.645353936103
 31
0.0
  0
CIRCLE
  5
2567
330
85F
100
AcDbEntity
  8
FIX
100
AcDbCircle
 10
36.09065820897143
 20
-2356.145353936103
 30
0.0
 40
4.5
  0
LINE
  5
2568
330
85F
100
AcDbEntity
  8
NOTE
100
AcDbLine
 10
28.59065820897143
 20
-2356.145353936103
 30
0.0
 11
43.59065820897143
 21
-2356.145353936103
 31
0.0
  0
DIMENSION
  5
2569
330
85F
100
AcDbEntity
  8
SIZE
  6
Continuous
100
AcDbDimension
  2
*D55
 10
29.09065820897144
 20
-1813.050749013119
 30
0.0
 11
-32.90934179102857
 21
-1813.050749013119
 31
0.0
 70
   160
 71
     5
 42
124.0
  3
STANDARD$0
100
AcDbAlignedDimension
 13
-94.90934179102856
 23
-1868.145353936102
 33
0.0
 14
29.09065820897144
 24
-1868.1453539361
 34
0.0
100
AcDbRotatedDimension
  0
DIMENSION
  5
256A
330
85F
100
AcDbEntity
  8
SIZE
  6
Continuous
100
AcDbDimension
  2
*D56
 10
36.09065820897143
 20
-2493.602880124955
 30
0.0
 11
-50.90934179102856
 21
-2451.602880124955
 31
0.0
 70
    32
 71
     5
 42
174.0
  3
STANDARD$0
100
AcDbAlignedDimension
 13
-137.9093417910285
 23
-2363.645353936103
 33
0.0
 14
36.09065820897143
 24
-2363.645353936103
 34
0.0
100
AcDbRotatedDimension
  0
DIMENSION
  5
256B
330
85F
100
AcDbEntity
  8
SIZE
  6
Continuous
100
AcDbDimension
  2
*D57
 10
51.09065820893504
 20
-2617.218320361593
 30
0.0
 11
-56.90934179104678
 21
-2575.218320361593
 31
0.0
 70
    32
 71
     5
 42
215.9999999999636
  3
STANDARD$0
100
AcDbAlignedDimension
 13
-164.9093417910285
 23
-2367.222334196955
 33
0.0
 14
51.09065820893505
 24
-2367.225293328441
 34
0.0
100
AcDbRotatedDimension
  0
DIMENSION
  5
256C
330
85F
100
AcDbEntity
  8
SIZE
  6
Continuous
100
AcDbDimension
  2
*D58
 10
-249.457308282787
 20
-1875.645353936102
 30
0.0
 11
-291.4573082827867
 21
-2115.895353936102
 31
0.0
 70
    32
 71
     5
 42
480.5000000000009
  3
STANDARD$0
100
AcDbAlignedDimension
 13
-145.4093417910286
 23
-2356.145353936103
 33
0.0
 14
-102.4093417910285
 24
-1875.645353936102
 34
0.0
 50
90.0
100
AcDbRotatedDimension
  0
DIMENSION
  5
256D
330
85F
100
AcDbEntity
  8
SIZE
  6
Continuous
100
AcDbDimension
  2
*D59
 10
-357.5564415235299
 20
-2368.145353936103
 30
0.0
 11
-399.5564415235295
 21
-2119.145353936103
 31
0.0
 70
    32
 71
     5
 42
498.0
  3
STANDARD$0
100
AcDbAlignedDimension
 13
-115.4093417910285
 23
-1870.145353936103
 33
0.0
 14
-164.0093417910271
 24
-2368.145353936103
 34
0.0
 50
90.0
100
AcDbRotatedDimension
  0
LEADER
  5
256E
330
85F
100
AcDbEntity
  8
NOTE
100
AcDbLeader
  3
STANDARD
 73
     0
 74
     0
 75
     1
 40
64.00000000000002
 41
228.7542857142856
 76
     3
 10
29.09065820897144
 20
-1875.6453539361
 30
0.0
 10
102.8534589961832
 20
-1780.118258878087
 30
0.0
 10
114.8534589961831
 20
-1780.118258878087
 30
0.0
340
256F
213
0.0
223
32.0
233
0.0
1001
ACAD
1000
DSTYLE
1002
{
1070
    41
1040
12.0
1070
    42
1040
20.0
1070
    43
1040
200.0
1070
    44
1040
20.0
1070
    73
1070
     0
1070
    74
1070
     0
1070
    77
1070
     1
1070
    78
1070
     8
1070
   140
1040
64.0
1070
   147
1040
50.0
1070
   172
1070
     1
1070
   174
1070
     1
1070
   275
1070
     0
1070
   284
1070
     0
1070
   285
1070
     0
1070
   286
1070
     0
1070
   341
1005
AB7
1070
   342
1005
AB2
1002
}
  0
MTEXT
  5
256F
102
{ACAD_REACTORS
330
256E
102
}
330
85F
100
AcDbEntity
  8
NOTE
100
AcDbMText
 10
164.8534589961831
 20
-1762.118258878087
 30
0.0
 40
64.0
 41
0.0
 71
     7
 72
     1
  1
3×φ6
 73
     1
 44
1.0
  0
LEADER
  5
2570
330
85F
100
AcDbEntity
  8
NOTE
100
AcDbLeader
  3
STANDARD
 73
     0
 74
     0
 75
     1
 40
64.0
 41
93.25714285714287
 76
     3
 10
36.09065820916788
 20
-2356.145353936172
 30
0.0
 10
109.8534589963796
 20
-2260.618258878159
 30
0.0
 10
121.8534589963796
 20
-2260.618258878159
 30
0.0
340
2571
213
0.0
223
32.0
233
0.0
1001
ACAD
1000
DSTYLE
1002
{
1070
    41
1040
12.0
1070
    42
1040
20.0
1070
    43
1040
200.0
1070
    44
1040
20.0
1070
    73
1070
     0
1070
    74
1070
     0
1070
    77
1070
     1
1070
    78
1070
     8
1070
   140
1040
64.0
1070
   147
1040
50.0
1070
   172
1070
     1
1070
   174
1070
     1
1070
   275
1070
     0
1070
   284
1070
     0
1070
   285
1070
     0
1070
   286
1070
     0
1070
   341
1005
AB7
1070
   342
1005
AB2
1002
}
  0
MTEXT
  5
2571
102
{ACAD_REACTORS
330
2570
102
}
330
85F
100
AcDbEntity
  8
NOTE
100
AcDbMText
 10
171.8534589963796
 20
-2242.61825887816
 30
0.0
 40
64.0
 41
0.0
 71
     7
 72
     1
  1
φ9
 73
     1
 44
1.0
  0
MTEXT
  5
2572
330
85F
100
AcDbEntity
  8
ETC
100
AcDbMText
 10
360.6162859750597
 20
-1489.417664553904
 30
0.0
 40
64.0
 41
0.0
 71
     1
 72
     5
  1
{\Fromans,extfont|c128;\W0.9;AGJS-17S-3}
  7
ADESK1
 73
     1
 44
1.0
  0
ENDSEC
  0
SECTION
  2
OBJECTS
  0
DICTIONARY
  5
84D
330
0
100
AcDbDictionary
281
     1
  3
ACAD_2007HEADERVARS_RT
350
25B0
  3
ACAD_COLOR
350
116D
  3
ACAD_GROUP
350
84E
  3
ACAD_LAYOUT
350
85A
  3
ACAD_MATERIAL
350
116C
  3
ACAD_MLEADERSTYLE
350
13EA
  3
ACAD_MLINESTYLE
350
857
  3
ACAD_PLOTSETTINGS
350
859
  3
ACAD_PLOTSTYLENAME
350
B82
  3
ACAD_SCALELIST
350
13C8
  3
ACAD_TABLESTYLE
350
116E
  3
ACAD_VISUALSTYLE
350
13B7
  3
AcadDim
350
1003
  3
ACDB_RECOMPOSE_DATA
350
144A
  3
AcDbVariableDictionary
350
B87
  3
AcmDictionary
350
1234
  3
AMG
350
1173
  3
AMGSNAPSETTINGS
350
128A
  3
MAPISURF_MODULE
350
2165
1001
ACAD
1000
TREAT_AS_HARD
1070
     0
  0
DICTIONARY
  5
15AB
330
843
100
AcDbDictionary
280
     1
281
     1
  3
ACAD_LAYERSTATES
360
15AC
  0
DICTIONARY
  5
142F
330
851
100
AcDbDictionary
280
     1
281
     1
  3
ADSK_XREC_LAYER_RECONCILED
360
1430
  0
DICTIONARY
  5
1431
330
863
100
AcDbDictionary
280
     1
281
     1
  3
ADSK_XREC_LAYER_RECONCILED
360
1432
  0
DICTIONARY
  5
1433
330
866
100
AcDbDictionary
280
     1
281
     1
  3
ADSK_XREC_LAYER_RECONCILED
360
1434
  0
DICTIONARY
  5
1435
330
867
100
AcDbDictionary
280
     1
281
     1
  3
ADSK_XREC_LAYER_RECONCILED
360
1436
  0
DICTIONARY
  5
1437
330
868
100
AcDbDictionary
280
     1
281
     1
  3
ADSK_XREC_LAYER_RECONCILED
360
1438
  0
DICTIONARY
  5
1439
330
869
100
AcDbDictionary
280
     1
281
     1
  3
ADSK_XREC_LAYER_RECONCILED
360
143A
  0
DICTIONARY
  5
143B
330
86B
100
AcDbDictionary
280
     1
281
     1
  3
ADSK_XREC_LAYER_RECONCILED
360
143C
  0
DICTIONARY
  5
143D
330
86C
100
AcDbDictionary
280
     1
281
     1
  3
ADSK_XREC_LAYER_RECONCILED
360
143E
  0
DICTIONARY
  5
143F
330
86D
100
AcDbDictionary
280
     1
281
     1
  3
ADSK_XREC_LAYER_RECONCILED
360
1440
  0
DICTIONARY
  5
1441
330
86E
100
AcDbDictionary
280
     1
281
     1
  3
ADSK_XREC_LAYER_RECONCILED
360
1442
  0
DICTIONARY
  5
1443
330
86F
100
AcDbDictionary
280
     1
281
     1
  3
ADSK_XREC_LAYER_RECONCILED
360
1444
  0
DICTIONARY
  5
B4F
330
85F
100
AcDbDictionary
280
     1
281
     1
  3
ACAD_INDEX
360
1291
  3
ACAD_LAYOUTSELFREF
360
B50
  3
ACAD_SORTENTS
360
1399
  0
DICTIONARY
  5
B4D
330
85B
100
AcDbDictionary
280
     1
281
     1
  3
ACAD_LAYOUTSELFREF
360
B4E
  0
DICTIONARY
  5
25B0
102
{ACAD_REACTORS
330
84D
102
}
330
84D
100
AcDbDictionary
281
     1
  3
DIMARCSYM
350
25B1
  3
DIMLTEX1
350
25B3
  3
DIMLTEX2
350
25B4
  3
DIMLTYPE
350
25B2
  0
DICTIONARY
  5
116D
102
{ACAD_REACTORS
330
84D
102
}
330
84D
100
AcDbDictionary
281
     1
  0
DICTIONARY
  5
84E
102
{ACAD_REACTORS
330
84D
102
}
330
84D
100
AcDbDictionary
281
     1
1001
ACAD
1000
TREAT_AS_HARD
1070
     0
  0
DICTIONARY
  5
85A
102
{ACAD_REACTORS
330
84D
102
}
330
84D
100
AcDbDictionary
281
     1
  3
Model
350
B84
  3
ﾚｲｱｳﾄ1
350
B85
1001
ACAD
1000
TREAT_AS_HARD
1070
     0
  0
DICTIONARY
  5
116C
102
{ACAD_REACTORS
330
84D
102
}
330
84D
100
AcDbDictionary
281
     1
  3
ByBlock
350
13A7
  3
ByLayer
350
139F
  3
Global
350
13AF
  0
DICTIONARY
  5
13EA
102
{ACAD_REACTORS
330
84D
102
}
330
84D
100
AcDbDictionary
281
     1
  3
Standard
350
13EB
  0
DICTIONARY
  5
857
102
{ACAD_REACTORS
330
84D
102
}
330
84D
100
AcDbDictionary
281
     1
  3
STANDARD
350
858
1001
ACAD
1000
TREAT_AS_HARD
1070
     0
  0
DICTIONARY
  5
859
102
{ACAD_REACTORS
330
84D
102
}
330
84D
100
AcDbDictionary
281
     1
1001
ACAD
1000
TREAT_AS_HARD
1070
     0
  0
ACDBDICTIONARYWDFLT
  5
B82
102
{ACAD_REACTORS
330
84D
102
}
330
84D
100
AcDbDictionary
281
     1
  3
Normal
350
B83
100
AcDbDictionaryWithDefault
340
B83
  0
DICTIONARY
  5
13C8
102
{ACAD_REACTORS
330
84D
102
}
330
84D
100
AcDbDictionary
281
     1
  3
A0
350
13C9
  3
A1
350
13CA
  3
A2
350
13CB
  3
A3
350
13CC
  3
A4
350
13CD
  3
A5
350
13CE
  3
A6
350
13CF
  3
A7
350
13D0
  3
A8
350
13D1
  3
A9
350
13D2
  3
B0
350
13D3
  3
B1
350
13D4
  3
B2
350
13D5
  3
B3
350
13D6
  3
B4
350
13D7
  3
B5
350
13D8
  3
B6
350
13D9
  3
B7
350
13DA
  3
B8
350
13DB
  3
B9
350
13DC
  3
C0
350
13DD
  3
C1
350
13DE
  3
C2
350
13DF
  3
C3
350
13E0
  3
C4
350
13E1
  3
C5
350
13E2
  3
C6
350
13E3
  3
C7
350
13E4
  3
C8
350
13E5
  3
C9
350
13E6
  3
D0
350
13E7
  3
D1
350
13E8
  3
D2
350
13E9
  0
DICTIONARY
  5
116E
102
{ACAD_REACTORS
330
84D
102
}
330
84D
100
AcDbDictionary
281
     1
  3
Standard
350
116F
  0
DICTIONARY
  5
13B7
102
{ACAD_REACTORS
330
84D
102
}
330
84D
100
AcDbDictionary
281
     1
  3
2dWireframe
350
13BD
  3
3D Hidden
350
13BF
  3
3dWireframe
350
13BE
  3
Basic
350
13BC
  3
Brighten
350
13C3
  3
ColorChange
350
13C7
  3
Conceptual
350
13C0
  3
Dim
350
13C2
  3
Facepattern
350
13C6
  3
Flat
350
13B8
  3
FlatWithEdges
350
13B9
  3
Gouraud
350
13BA
  3
GouraudWithEdges
350
13BB
  3
Linepattern
350
13C5
  3
Realistic
350
13C1
  3
Thicken
350
13C4
  0
XRECORD
  5
1003
102
{ACAD_REACTORS
330
84D
102
}
330
84D
100
AcDbXrecord
280
     1
 90
   990106
  3

 60
     0
 61
     0
 62
     1
 63
     3
 64
     0
 65
     0
 66
     0
 67
     3
 68
     1
 69
     0
 70
     0
 71
     0
 72
     0
 40
0.0
170
     0
340
1002
  0
XRECORD
  5
144A
102
{ACAD_REACTORS
330
84D
102
}
330
84D
100
AcDbXrecord
280
     1
 90
        1
330
116F
  0
DICTIONARY
  5
B87
102
{ACAD_REACTORS
330
84D
102
}
330
84D
100
AcDbDictionary
281
     1
  3
CANNOSCALE
350
1446
  3
CMLEADERSTYLE
350
1445
  3
CTABLESTYLE
350
129F
  3
DIMASSOC
350
B88
  3
INDEXCTL
350
12A0
  3
PROJECTNAME
350
12A1
  3
SORTENTS
350
1447
  0
DICTIONARY
  5
1234
102
{ACAD_REACTORS
330
84D
102
}
330
84D
100
AcDbDictionary
281
     1
  3
AcmStdDictionary
350
1240
  3
AMDTSECTSYM_ARROWCOLOR
350
1260
  0
DICTIONARY
  5
1173
102
{ACAD_REACTORS
330
84D
102
}
330
84D
100
AcDbDictionary
281
     1
  3
AcMgSettings
350
1174
  0
DICTIONARY
  5
128A
102
{ACAD_REACTORS
330
84D
102
}
330
84D
100
AcDbDictionary
281
     1
  3
DIMENSION
350
128F
  3
FEA
350
128E
  3
HATCH (1)
350
128B
  3
HATCH (2)
350
128C
  3
SIMPLE WELD
350
1290
  3
SYMBOLS
350
128D
  0
DICTIONARY
  5
15AC
102
{ACAD_REACTORS
330
15AB
102
}
330
15AB
100
AcDbDictionary
281
     1
  0
XRECORD
  5
1430
102
{ACAD_REACTORS
330
142F
102
}
330
142F
100
AcDbXrecord
280
     1
290
     1
  0
XRECORD
  5
1432
102
{ACAD_REACTORS
330
1431
102
}
330
1431
100
AcDbXrecord
280
     1
290
     1
  0
XRECORD
  5
1434
102
{ACAD_REACTORS
330
1433
102
}
330
1433
100
AcDbXrecord
280
     1
290
     1
  0
XRECORD
  5
1436
102
{ACAD_REACTORS
330
1435
102
}
330
1435
100
AcDbXrecord
280
     1
290
     1
  0
XRECORD
  5
1438
102
{ACAD_REACTORS
330
1437
102
}
330
1437
100
AcDbXrecord
280
     1
290
     1
  0
XRECORD
  5
143A
102
{ACAD_REACTORS
330
1439
102
}
330
1439
100
AcDbXrecord
280
     1
290
     1
  0
XRECORD
  5
143C
102
{ACAD_REACTORS
330
143B
102
}
330
143B
100
AcDbXrecord
280
     1
290
     1
  0
XRECORD
  5
143E
102
{ACAD_REACTORS
330
143D
102
}
330
143D
100
AcDbXrecord
280
     1
290
     1
  0
XRECORD
  5
1440
102
{ACAD_REACTORS
330
143F
102
}
330
143F
100
AcDbXrecord
280
     1
290
     1
  0
XRECORD
  5
1442
102
{ACAD_REACTORS
330
1441
102
}
330
1441
100
AcDbXrecord
280
     1
290
     1
  0
XRECORD
  5
1444
102
{ACAD_REACTORS
330
1443
102
}
330
1443
100
AcDbXrecord
280
     1
290
     1
  0
DICTIONARY
  5
1291
102
{ACAD_REACTORS
330
B4F
102
}
330
B4F
100
AcDbDictionary
281
     1
  3
*A1
350
1292
  0
XRECORD
  5
B50
102
{ACAD_REACTORS
330
B4F
102
}
330
B4F
100
AcDbXrecord
280
     1
340
85F
  0
SORTENTSTABLE
  5
1399
102
{ACAD_REACTORS
330
B4F
102
}
330
B4F
100
AcDbSortentsTable
330
85F
331
958
  5
958
331
954
  5
954
331
957
  5
957
331
953
  5
953
331
956
  5
956
331
955
  5
955
  0
XRECORD
  5
B4E
102
{ACAD_REACTORS
330
B4D
102
}
330
B4D
100
AcDbXrecord
280
     1
340
85B
  0
XRECORD
  5
25B1
102
{ACAD_REACTORS
330
25B0
102
}
330
25B0
100
AcDbXrecord
280
     1
 70
     1
  0
XRECORD
  5
25B3
102
{ACAD_REACTORS
330
25B0
102
}
330
25B0
100
AcDbXrecord
280
     1
340
854
  0
XRECORD
  5
25B4
102
{ACAD_REACTORS
330
25B0
102
}
330
25B0
100
AcDbXrecord
280
     1
340
854
  0
XRECORD
  5
25B2
102
{ACAD_REACTORS
330
25B0
102
}
330
25B0
100
AcDbXrecord
280
     1
340
854
  0
LAYOUT
  5
B84
102
{ACAD_REACTORS
330
85A
102
}
330
85A
100
AcDbPlotSettings
  1

  2
\\Server02\EPSON LP-9600SPD (3F)
  4

  6

 40
0.0
 41
0.0
 42
0.0
 43
0.0
 44
0.0
 45
0.0
 46
0.0
 47
0.0
 48
0.0
 49
0.0
140
0.0
141
0.0
142
1.0
143
1.0
 70
  1712
 72
     0
 73
     0
 74
     0
  7

 75
     0
147
1.0
 76
     0
 77
     2
 78
   300
148
0.0
149
0.0
100
AcDbLayout
  1
Model
 70
     1
 71
     0
 10
0.0
 20
0.0
 11
12.0
 21
9.0
 12
0.0
 22
0.0
 32
0.0
 14
0.0
 24
0.0
 34
0.0
 15
0.0
 25
0.0
 35
0.0
146
0.0
 13
0.0
 23
0.0
 33
0.0
 16
1.0
 26
0.0
 36
0.0
 17
0.0
 27
1.0
 37
0.0
 76
     0
330
85F
331
139A
  0
LAYOUT
  5
B85
102
{ACAD_REACTORS
330
85A
102
}
330
85A
100
AcDbPlotSettings
  1

  2
\\Server02\EPSON LP-9600SPD (3F)
  4

  6

 40
0.0
 41
0.0
 42
0.0
 43
0.0
 44
0.0
 45
0.0
 46
0.0
 47
0.0
 48
0.0
 49
0.0
140
0.0
141
0.0
142
1.0
143
1.0
 70
   688
 72
     0
 73
     0
 74
     5
  7

 75
    16
147
1.0
 76
     0
 77
     2
 78
   300
148
0.0
149
0.0
100
AcDbLayout
  1
ﾚｲｱｳﾄ1
 70
     1
 71
     1
 10
0.0
 20
0.0
 11
12.0
 21
9.0
 12
0.0
 22
0.0
 32
0.0
 14
1.000000000000000E+20
 24
1.000000000000000E+20
 34
1.000000000000000E+20
 15
-1.000000000000000E+20
 25
-1.000000000000000E+20
 35
-1.000000000000000E+20
146
0.0
 13
0.0
 23
0.0
 33
0.0
 16
1.0
 26
0.0
 36
0.0
 17
0.0
 27
1.0
 37
0.0
 76
     0
330
85B
  0
MATERIAL
  5
13A7
102
{ACAD_XDICTIONARY
360
13A8
102
}
102
{ACAD_REACTORS
330
116C
102
}
330
116C
100
AcDbMaterial
  1
ByBlock
 72
     0
 43
0.0208333333333333
 43
0.0
 43
0.0
 43
0.0
 43
0.0
 43
0.0208333333333333
 43
0.0
 43
0.0
 43
0.0
 43
0.0
 43
1.0
 43
0.0
 43
0.0
 43
0.0
 43
0.0
 43
1.0
 77
     0
 47
0.0208333333333333
 47
0.0
 47
0.0
 47
0.0
 47
0.0
 47
0.0208333333333333
 47
0.0
 47
0.0
 47
0.0
 47
0.0
 47
1.0
 47
0.0
 47
0.0
 47
0.0
 47
0.0
 47
1.0
171
     0
 49
0.0208333333333333
 49
0.0
 49
0.0
 49
0.0
 49
0.0
 49
0.0208333333333333
 49
0.0
 49
0.0
 49
0.0
 49
0.0
 49
1.0
 49
0.0
 49
0.0
 49
0.0
 49
0.0
 49
1.0
175
     0
142
0.0208333333333333
142
0.0
142
0.0
142
0.0
142
0.0
142
0.0208333333333333
142
0.0
142
0.0
142
0.0
142
0.0
142
1.0
142
0.0
142
0.0
142
0.0
142
0.0
142
1.0
179
     0
144
0.0208333333333333
144
0.0
144
0.0
144
0.0
144
0.0
144
0.0208333333333333
144
0.0
144
0.0
144
0.0
144
0.0
144
1.0
144
0.0
144
0.0
144
0.0
144
0.0
144
1.0
147
0.0208333333333333
147
0.0
147
0.0
147
0.0
147
0.0
147
0.0208333333333333
147
0.0
147
0.0
147
0.0
147
0.0
147
1.0
147
0.0
147
0.0
147
0.0
147
0.0
147
1.0
  0
MATERIAL
  5
139F
102
{ACAD_XDICTIONARY
360
13A0
102
}
102
{ACAD_REACTORS
330
116C
102
}
330
116C
100
AcDbMaterial
  1
ByLayer
 72
     0
 43
0.0208333333333333
 43
0.0
 43
0.0
 43
0.0
 43
0.0
 43
0.0208333333333333
 43
0.0
 43
0.0
 43
0.0
 43
0.0
 43
1.0
 43
0.0
 43
0.0
 43
0.0
 43
0.0
 43
1.0
 77
     0
 47
0.0208333333333333
 47
0.0
 47
0.0
 47
0.0
 47
0.0
 47
0.0208333333333333
 47
0.0
 47
0.0
 47
0.0
 47
0.0
 47
1.0
 47
0.0
 47
0.0
 47
0.0
 47
0.0
 47
1.0
171
     0
 49
0.0208333333333333
 49
0.0
 49
0.0
 49
0.0
 49
0.0
 49
0.0208333333333333
 49
0.0
 49
0.0
 49
0.0
 49
0.0
 49
1.0
 49
0.0
 49
0.0
 49
0.0
 49
0.0
 49
1.0
175
     0
142
0.0208333333333333
142
0.0
142
0.0
142
0.0
142
0.0
142
0.0208333333333333
142
0.0
142
0.0
142
0.0
142
0.0
142
1.0
142
0.0
142
0.0
142
0.0
142
0.0
142
1.0
179
     0
144
0.0208333333333333
144
0.0
144
0.0
144
0.0
144
0.0
144
0.0208333333333333
144
0.0
144
0.0
144
0.0
144
0.0
144
1.0
144
0.0
144
0.0
144
0.0
144
0.0
144
1.0
147
0.0208333333333333
147
0.0
147
0.0
147
0.0
147
0.0
147
0.0208333333333333
147
0.0
147
0.0
147
0.0
147
0.0
147
1.0
147
0.0
147
0.0
147
0.0
147
0.0
147
1.0
  0
MATERIAL
  5
13AF
102
{ACAD_XDICTIONARY
360
13B0
102
}
102
{ACAD_REACTORS
330
116C
102
}
330
116C
100
AcDbMaterial
  1
Global
 72
     0
 43
0.0208333333333333
 43
0.0
 43
0.0
 43
0.0
 43
0.0
 43
0.0208333333333333
 43
0.0
 43
0.0
 43
0.0
 43
0.0
 43
1.0
 43
0.0
 43
0.0
 43
0.0
 43
0.0
 43
1.0
 77
     0
 47
0.0208333333333333
 47
0.0
 47
0.0
 47
0.0
 47
0.0
 47
0.0208333333333333
 47
0.0
 47
0.0
 47
0.0
 47
0.0
 47
1.0
 47
0.0
 47
0.0
 47
0.0
 47
0.0
 47
1.0
171
     0
 49
0.0208333333333333
 49
0.0
 49
0.0
 49
0.0
 49
0.0
 49
0.0208333333333333
 49
0.0
 49
0.0
 49
0.0
 49
0.0
 49
1.0
 49
0.0
 49
0.0
 49
0.0
 49
0.0
 49
1.0
175
     0
142
0.0208333333333333
142
0.0
142
0.0
142
0.0
142
0.0
142
0.0208333333333333
142
0.0
142
0.0
142
0.0
142
0.0
142
1.0
142
0.0
142
0.0
142
0.0
142
0.0
142
1.0
179
     0
144
0.0208333333333333
144
0.0
144
0.0
144
0.0
144
0.0
144
0.0208333333333333
144
0.0
144
0.0
144
0.0
144
0.0
144
1.0
144
0.0
144
0.0
144
0.0
144
0.0
144
1.0
147
0.0208333333333333
147
0.0
147
0.0
147
0.0
147
0.0
147
0.0208333333333333
147
0.0
147
0.0
147
0.0
147
0.0
147
1.0
147
0.0
147
0.0
147
0.0
147
0.0
147
1.0
  0
MLEADERSTYLE
  5
13EB
102
{ACAD_REACTORS
330
13EA
102
}
330
13EA
100
AcDbMLeaderStyle
170
     2
171
     1
172
     0
 90
        2
 40
0.0
 41
0.0
173
     1
 91
-1056964608
340
854
 92
       -2
290
     1
 42
0.09
291
     1
 43
0.36
  3
Standard
 44
0.18
300

342
852
174
     1
178
     6
175
     1
176
     0
 93
-1056964608
 45
0.18
292
     0
297
     0
 46
0.18
 94
-1056964608
 47
1.0
 49
1.0
140
1.0
293
     1
141
0.0
294
     1
177
     0
142
1.0
295
     0
296
     0
143
0.125
1001
ACAD_MLEADERVER
1070
     2
  0
MLINESTYLE
  5
858
102
{ACAD_REACTORS
330
857
102
}
330
857
100
AcDbMlineStyle
  2
STANDARD
 70
     0
  3

 62
   256
 51
90.0
 52
90.0
 71
     2
 49
0.5
 62
   256
  6
BYLAYER
 49
-0.5
 62
   256
  6
BYLAYER
  0
ACDBPLACEHOLDER
  5
B83
102
{ACAD_REACTORS
330
B82
102
}
330
B82
  0
SCALE
  5
13C9
102
{ACAD_REACTORS
330
13C8
102
}
330
13C8
100
AcDbScale
 70
     0
300
1:1
140
1.0
141
1.0
290
     1
  0
SCALE
  5
13CA
102
{ACAD_REACTORS
330
13C8
102
}
330
13C8
100
AcDbScale
 70
     0
300
1:2
140
1.0
141
2.0
290
     0
  0
SCALE
  5
13CB
102
{ACAD_REACTORS
330
13C8
102
}
330
13C8
100
AcDbScale
 70
     0
300
1:4
140
1.0
141
4.0
290
     0
  0
SCALE
  5
13CC
102
{ACAD_REACTORS
330
13C8
102
}
330
13C8
100
AcDbScale
 70
     0
300
1:5
140
1.0
141
5.0
290
     0
  0
SCALE
  5
13CD
102
{ACAD_REACTORS
330
13C8
102
}
330
13C8
100
AcDbScale
 70
     0
300
1:8
140
1.0
141
8.0
290
     0
  0
SCALE
  5
13CE
102
{ACAD_REACTORS
330
13C8
102
}
330
13C8
100
AcDbScale
 70
     0
300
1:10
140
1.0
141
10.0
290
     0
  0
SCALE
  5
13CF
102
{ACAD_REACTORS
330
13C8
102
}
330
13C8
100
AcDbScale
 70
     0
300
1:16
140
1.0
141
16.0
290
     0
  0
SCALE
  5
13D0
102
{ACAD_REACTORS
330
13C8
102
}
330
13C8
100
AcDbScale
 70
     0
300
1:20
140
1.0
141
20.0
290
     0
  0
SCALE
  5
13D1
102
{ACAD_REACTORS
330
13C8
102
}
330
13C8
100
AcDbScale
 70
     0
300
1:30
140
1.0
141
30.0
290
     0
  0
SCALE
  5
13D2
102
{ACAD_REACTORS
330
13C8
102
}
330
13C8
100
AcDbScale
 70
     0
300
1:40
140
1.0
141
40.0
290
     0
  0
SCALE
  5
13D3
102
{ACAD_REACTORS
330
13C8
102
}
330
13C8
100
AcDbScale
 70
     0
300
1:50
140
1.0
141
50.0
290
     0
  0
SCALE
  5
13D4
102
{ACAD_REACTORS
330
13C8
102
}
330
13C8
100
AcDbScale
 70
     0
300
1:100
140
1.0
141
100.0
290
     0
  0
SCALE
  5
13D5
102
{ACAD_REACTORS
330
13C8
102
}
330
13C8
100
AcDbScale
 70
     0
300
2:1
140
2.0
141
1.0
290
     0
  0
SCALE
  5
13D6
102
{ACAD_REACTORS
330
13C8
102
}
330
13C8
100
AcDbScale
 70
     0
300
4:1
140
4.0
141
1.0
290
     0
  0
SCALE
  5
13D7
102
{ACAD_REACTORS
330
13C8
102
}
330
13C8
100
AcDbScale
 70
     0
300
8:1
140
8.0
141
1.0
290
     0
  0
SCALE
  5
13D8
102
{ACAD_REACTORS
330
13C8
102
}
330
13C8
100
AcDbScale
 70
     0
300
10:1
140
10.0
141
1.0
290
     0
  0
SCALE
  5
13D9
102
{ACAD_REACTORS
330
13C8
102
}
330
13C8
100
AcDbScale
 70
     0
300
100:1
140
100.0
141
1.0
290
     0
  0
SCALE
  5
13DA
102
{ACAD_REACTORS
330
13C8
102
}
330
13C8
100
AcDbScale
 70
     0
300
1/128" = 1'-0"
140
0.0078125
141
12.0
290
     0
  0
SCALE
  5
13DB
102
{ACAD_REACTORS
330
13C8
102
}
330
13C8
100
AcDbScale
 70
     0
300
1/64" = 1'-0"
140
0.015625
141
12.0
290
     0
  0
SCALE
  5
13DC
102
{ACAD_REACTORS
330
13C8
102
}
330
13C8
100
AcDbScale
 70
     0
300
1/32" = 1'-0"
140
0.03125
141
12.0
290
     0
  0
SCALE
  5
13DD
102
{ACAD_REACTORS
330
13C8
102
}
330
13C8
100
AcDbScale
 70
     0
300
1/16" = 1'-0"
140
0.0625
141
12.0
290
     0
  0
SCALE
  5
13DE
102
{ACAD_REACTORS
330
13C8
102
}
330
13C8
100
AcDbScale
 70
     0
300
3/32" = 1'-0"
140
0.09375
141
12.0
290
     0
  0
SCALE
  5
13DF
102
{ACAD_REACTORS
330
13C8
102
}
330
13C8
100
AcDbScale
 70
     0
300
1/8" = 1'-0"
140
0.125
141
12.0
290
     0
  0
SCALE
  5
13E0
102
{ACAD_REACTORS
330
13C8
102
}
330
13C8
100
AcDbScale
 70
     0
300
3/16" = 1'-0"
140
0.1875
141
12.0
290
     0
  0
SCALE
  5
13E1
102
{ACAD_REACTORS
330
13C8
102
}
330
13C8
100
AcDbScale
 70
     0
300
1/4" = 1'-0"
140
0.25
141
12.0
290
     0
  0
SCALE
  5
13E2
102
{ACAD_REACTORS
330
13C8
102
}
330
13C8
100
AcDbScale
 70
     0
300
3/8" = 1'-0"
140
0.375
141
12.0
290
     0
  0
SCALE
  5
13E3
102
{ACAD_REACTORS
330
13C8
102
}
330
13C8
100
AcDbScale
 70
     0
300
1/2" = 1'-0"
140
0.5
141
12.0
290
     0
  0
SCALE
  5
13E4
102
{ACAD_REACTORS
330
13C8
102
}
330
13C8
100
AcDbScale
 70
     0
300
3/4" = 1'-0"
140
0.75
141
12.0
290
     0
  0
SCALE
  5
13E5
102
{ACAD_REACTORS
330
13C8
102
}
330
13C8
100
AcDbScale
 70
     0
300
1" = 1'-0"
140
1.0
141
12.0
290
     0
  0
SCALE
  5
13E6
102
{ACAD_REACTORS
330
13C8
102
}
330
13C8
100
AcDbScale
 70
     0
300
1-1/2" = 1'-0"
140
1.5
141
12.0
290
     0
  0
SCALE
  5
13E7
102
{ACAD_REACTORS
330
13C8
102
}
330
13C8
100
AcDbScale
 70
     0
300
3" = 1'-0"
140
3.0
141
12.0
290
     0
  0
SCALE
  5
13E8
102
{ACAD_REACTORS
330
13C8
102
}
330
13C8
100
AcDbScale
 70
     0
300
6" = 1'-0"
140
6.0
141
12.0
290
     0
  0
SCALE
  5
13E9
102
{ACAD_REACTORS
330
13C8
102
}
330
13C8
100
AcDbScale
 70
     0
300
1'-0" = 1'-0"
140
12.0
141
12.0
290
     0
  0
TABLESTYLE
  5
116F
102
{ACAD_XDICTIONARY
360
1448
102
}
102
{ACAD_REACTORS
330
116E
102
}
330
116E
100
AcDbTableStyle
  3
Standard
 70
     0
 71
     0
 40
0.06
 41
0.06
280
     0
281
     0
  7
STANDARD
140
0.18
170
     2
 62
     0
 63
     7
283
     0
274
    -2
284
     1
 64
     0
275
    -2
285
     1
 65
     0
276
    -2
286
     1
 66
     0
277
    -2
287
     1
 67
     0
278
    -2
288
     1
 68
     0
279
    -2
289
     1
 69
     0
  7
STANDARD
140
0.25
170
     5
 62
     0
 63
     7
283
     0
274
    -2
284
     1
 64
     0
275
    -2
285
     1
 65
     0
276
    -2
286
     1
 66
     0
277
    -2
287
     1
 67
     0
278
    -2
288
     1
 68
     0
279
    -2
289
     1
 69
     0
  7
STANDARD
140
0.18
170
     5
 62
     0
 63
     7
283
     0
274
    -2
284
     1
 64
     0
275
    -2
285
     1
 65
     0
276
    -2
286
     1
 66
     0
277
    -2
287
     1
 67
     0
278
    -2
288
     1
 68
     0
279
    -2
289
     1
 69
     0
  0
VISUALSTYLE
  5
13BD
102
{ACAD_REACTORS
330
13B7
102
}
330
13B7
100
AcDbVisualStyle
  2
2dWireframe
 70
     4
 71
     0
 72
     2
 73
     0
 90
        0
 40
-0.6
 41
-30.0
 62
     5
 63
     7
 74
     1
 91
        4
 64
     7
 65
   257
 75
     1
175
     1
 42
1.0
 92
        0
 66
   257
 43
1.0
 76
     1
 77
     6
 78
     2
 67
     7
 79
     5
170
     0
171
     0
290
     0
174
     0
 93
        1
 44
0.0
173
     0
291
     0
 45
0.0
1001
ACAD
1000
AcDbSavedByObjectVersion
1070
     0
1000
AcDbSavedByObjectVersion
1070
     0
1000
AcDbSavedByObjectVersion
1070
     0
1000
AcDbSavedByObjectVersion
1070
     0
1000
AcDbSavedByObjectVersion
1070
     0
1000
AcDbSavedByObjectVersion
1070
     0
1000
AcDbSavedByObjectVersion
1070
     0
  0
VISUALSTYLE
  5
13BF
102
{ACAD_REACTORS
330
13B7
102
}
330
13B7
100
AcDbVisualStyle
  2
3D Hidden
 70
     6
 71
     1
 72
     2
 73
     2
 90
        0
 40
-0.6
 41
-30.0
 62
     5
 63
     7
 74
     2
 91
        2
 64
     7
 65
   257
 75
     2
175
     1
 42
40.0
 92
        0
 66
   257
 43
1.0
 76
     1
 77
     6
 78
     2
 67
     7
 79
     3
170
     0
171
     0
290
     0
174
     0
 93
        1
 44
0.0
173
     0
291
     0
 45
0.0
1001
ACAD
1000
AcDbSavedByObjectVersion
1070
     0
1000
AcDbSavedByObjectVersion
1070
     0
1000
AcDbSavedByObjectVersion
1070
     0
1000
AcDbSavedByObjectVersion
1070
     0
1000
AcDbSavedByObjectVersion
1070
     0
1000
AcDbSavedByObjectVersion
1070
     0
1000
AcDbSavedByObjectVersion
1070
     0
  0
VISUALSTYLE
  5
13BE
102
{ACAD_REACTORS
330
13B7
102
}
330
13B7
100
AcDbVisualStyle
  2
3dWireframe
 70
     5
 71
     0
 72
     2
 73
     0
 90
        0
 40
-0.6
 41
-30.0
 62
     5
 63
     7
 74
     1
 91
        4
 64
     7
 65
   257
 75
     1
175
     1
 42
1.0
 92
        0
 66
   257
 43
1.0
 76
     1
 77
     6
 78
     2
 67
     7
 79
     5
170
     0
171
     0
290
     0
174
     0
 93
        1
 44
0.0
173
     0
291
     0
 45
0.0
1001
ACAD
1000
AcDbSavedByObjectVersion
1070
     0
1000
AcDbSavedByObjectVersion
1070
     0
1000
AcDbSavedByObjectVersion
1070
     0
1000
AcDbSavedByObjectVersion
1070
     0
1000
AcDbSavedByObjectVersion
1070
     0
1000
AcDbSavedByObjectVersion
1070
     0
1000
AcDbSavedByObjectVersion
1070
     0
  0
VISUALSTYLE
  5
13BC
102
{ACAD_REACTORS
330
13B7
102
}
330
13B7
100
AcDbVisualStyle
  2
Basic
 70
     7
 71
     1
 72
     0
 73
     1
 90
        0
 40
-0.6
 41
-30.0
 62
     5
 63
     7
 74
     0
 91
        4
 64
     7
 65
   257
 75
     1
175
     1
 42
1.0
 92
        8
 66
     7
 43
1.0
 76
     1
 77
     6
 78
     2
 67
     7
 79
     5
170
     0
171
     0
290
     0
174
     0
 93
        1
 44
0.0
173
     0
291
     1
 45
0.0
1001
ACAD
1000
AcDbSavedByObjectVersion
1070
     0
1000
AcDbSavedByObjectVersion
1070
     0
1000
AcDbSavedByObjectVersion
1070
     0
1000
AcDbSavedByObjectVersion
1070
     0
1000
AcDbSavedByObjectVersion
1070
     0
1000
AcDbSavedByObjectVersion
1070
     0
1000
AcDbSavedByObjectVersion
1070
     0
  0
VISUALSTYLE
  5
13C3
102
{ACAD_REACTORS
330
13B7
102
}
330
13B7
100
AcDbVisualStyle
  2
Brighten
 70
    12
 71
     2
 72
     2
 73
     0
 90
        0
 40
-0.6
 41
-30.0
 62
     5
 63
     7
 74
     1
 91
        4
 64
     7
 65
   257
 75
     1
175
     1
 42
1.0
 92
        8
 66
     7
 43
1.0
 76
     1
 77
     6
 78
     2
 67
     7
 79
     5
170
     0
171
     0
290
     0
174
     0
 93
        1
 44
50.0
173
     0
291
     1
 45
0.0
1001
ACAD
1000
AcDbSavedByObjectVersion
1070
     0
1000
AcDbSavedByObjectVersion
1070
     0
1000
AcDbSavedByObjectVersion
1070
     0
1000
AcDbSavedByObjectVersion
1070
     0
1000
AcDbSavedByObjectVersion
1070
     0
1000
AcDbSavedByObjectVersion
1070
     0
1000
AcDbSavedByObjectVersion
1070
     0
  0
VISUALSTYLE
  5
13C7
102
{ACAD_REACTORS
330
13B7
102
}
330
13B7
100
AcDbVisualStyle
  2
ColorChange
 70
    16
 71
     2
 72
     2
 73
     3
 90
        0
 40
-0.6
 41
-30.0
 62
     5
 63
     8
 74
     1
 91
        4
 64
     7
 65
   257
 75
     1
175
     1
 42
1.0
 92
        8
 66
     8
 43
1.0
 76
     1
 77
     6
 78
     2
 67
     7
 79
     5
170
     0
171
     0
290
     0
174
     0
 93
        1
 44
0.0
173
     0
291
     1
 45
0.0
1001
ACAD
1000
AcDbSavedByObjectVersion
1070
     0
1000
AcDbSavedByObjectVersion
1070
     0
1000
AcDbSavedByObjectVersion
1070
     0
1000
AcDbSavedByObjectVersion
1070
     0
1000
AcDbSavedByObjectVersion
1070
     0
1000
AcDbSavedByObjectVersion
1070
     0
1000
AcDbSavedByObjectVersion
1070
     0
  0
VISUALSTYLE
  5
13C0
102
{ACAD_REACTORS
330
13B7
102
}
330
13B7
100
AcDbVisualStyle
  2
Conceptual
 70
     9
 71
     3
 72
     2
 73
     0
 90
        0
 40
-0.6
 41
-30.0
 62
     5
 63
     7
 74
     2
 91
        2
 64
     7
 65
   257
 75
     1
175
     1
 42
40.0
 92
        8
 66
     7
 43
1.0
 76
     1
 77
     6
 78
     2
 67
     7
 79
     3
170
     0
171
     0
290
     0
174
     0
 93
        1
 44
0.0
173
     0
291
     0
 45
0.0
1001
ACAD
1000
AcDbSavedByObjectVersion
1070
     0
1000
AcDbSavedByObjectVersion
1070
     0
1000
AcDbSavedByObjectVersion
1070
     0
1000
AcDbSavedByObjectVersion
1070
     0
1000
AcDbSavedByObjectVersion
1070
     0
1000
AcDbSavedByObjectVersion
1070
     0
1000
AcDbSavedByObjectVersion
1070
     0
  0
VISUALSTYLE
  5
13C2
102
{ACAD_REACTORS
330
13B7
102
}
330
13B7
100
AcDbVisualStyle
  2
Dim
 70
    11
 71
     2
 72
     2
 73
     0
 90
        0
 40
-0.6
 41
-30.0
 62
     5
 63
     7
 74
     1
 91
        4
 64
     7
 65
   257
 75
     1
175
     1
 42
1.0
 92
        8
 66
     7
 43
1.0
 76
     1
 77
     6
 78
     2
 67
     7
 79
     5
170
     0
171
     0
290
     0
174
     0
 93
        1
 44
-50.0
173
     0
291
     1
 45
0.0
1001
ACAD
1000
AcDbSavedByObjectVersion
1070
     0
1000
AcDbSavedByObjectVersion
1070
     0
1000
AcDbSavedByObjectVersion
1070
     0
1000
AcDbSavedByObjectVersion
1070
     0
1000
AcDbSavedByObjectVersion
1070
     0
1000
AcDbSavedByObjectVersion
1070
     0
1000
AcDbSavedByObjectVersion
1070
     0
  0
VISUALSTYLE
  5
13C6
102
{ACAD_REACTORS
330
13B7
102
}
330
13B7
100
AcDbVisualStyle
  2
Facepattern
 70
    15
 71
     2
 72
     2
 73
     0
 90
        0
 40
-0.6
 41
-30.0
 62
     5
 63
     7
 74
     1
 91
        4
 64
     7
 65
   257
 75
     1
175
     1
 42
1.0
 92
        8
 66
     7
 43
1.0
 76
     1
 77
     6
 78
     2
 67
     7
 79
     5
170
     0
171
     0
290
     0
174
     0
 93
        1
 44
0.0
173
     0
291
     1
 45
0.0
1001
ACAD
1000
AcDbSavedByObjectVersion
1070
     0
1000
AcDbSavedByObjectVersion
1070
     0
1000
AcDbSavedByObjectVersion
1070
     0
1000
AcDbSavedByObjectVersion
1070
     0
1000
AcDbSavedByObjectVersion
1070
     0
1000
AcDbSavedByObjectVersion
1070
     0
1000
AcDbSavedByObjectVersion
1070
     0
  0
VISUALSTYLE
  5
13B8
102
{ACAD_REACTORS
330
13B7
102
}
330
13B7
100
AcDbVisualStyle
  2
Flat
 70
     0
 71
     2
 72
     1
 73
     1
 90
        2
 40
-0.6
 41
30.0
 62
     5
 63
     7
 74
     0
 91
        4
 64
     7
 65
   257
 75
     1
175
     1
 42
1.0
 92
        8
 66
     7
 43
1.0
 76
     1
 77
     6
 78
     2
 67
     7
 79
     5
170
     0
171
     0
290
     0
174
     0
 93
       13
 44
0.0
173
     0
291
     1
 45
0.0
1001
ACAD
1000
AcDbSavedByObjectVersion
1070
     0
1000
AcDbSavedByObjectVersion
1070
     0
1000
AcDbSavedByObjectVersion
1070
     0
1000
AcDbSavedByObjectVersion
1070
     0
1000
AcDbSavedByObjectVersion
1070
     0
1000
AcDbSavedByObjectVersion
1070
     0
1000
AcDbSavedByObjectVersion
1070
     0
  0
VISUALSTYLE
  5
13B9
102
{ACAD_REACTORS
330
13B7
102
}
330
13B7
100
AcDbVisualStyle
  2
FlatWithEdges
 70
     1
 71
     2
 72
     1
 73
     1
 90
        2
 40
-0.6
 41
30.0
 62
     5
 63
     7
 74
     1
 91
        4
 64
     7
 65
   257
 75
     1
175
     1
 42
1.0
 92
        0
 66
   257
 43
1.0
 76
     1
 77
     6
 78
     2
 67
     7
 79
     5
170
     0
171
     0
290
     0
174
     0
 93
       13
 44
0.0
173
     0
291
     1
 45
0.0
1001
ACAD
1000
AcDbSavedByObjectVersion
1070
     0
1000
AcDbSavedByObjectVersion
1070
     0
1000
AcDbSavedByObjectVersion
1070
     0
1000
AcDbSavedByObjectVersion
1070
     0
1000
AcDbSavedByObjectVersion
1070
     0
1000
AcDbSavedByObjectVersion
1070
     0
1000
AcDbSavedByObjectVersion
1070
     0
  0
VISUALSTYLE
  5
13BA
102
{ACAD_REACTORS
330
13B7
102
}
330
13B7
100
AcDbVisualStyle
  2
Gouraud
 70
     2
 71
     2
 72
     2
 73
     1
 90
        2
 40
-0.6
 41
30.0
 62
     5
 63
     7
 74
     0
 91
        4
 64
     7
 65
   257
 75
     1
175
     1
 42
1.0
 92
        0
 66
     7
 43
1.0
 76
     1
 77
     6
 78
     2
 67
     7
 79
     5
170
     0
171
     0
290
     0
174
     0
 93
       13
 44
0.0
173
     0
291
     1
 45
0.0
1001
ACAD
1000
AcDbSavedByObjectVersion
1070
     0
1000
AcDbSavedByObjectVersion
1070
     0
1000
AcDbSavedByObjectVersion
1070
     0
1000
AcDbSavedByObjectVersion
1070
     0
1000
AcDbSavedByObjectVersion
1070
     0
1000
AcDbSavedByObjectVersion
1070
     0
1000
AcDbSavedByObjectVersion
1070
     0
  0
VISUALSTYLE
  5
13BB
102
{ACAD_REACTORS
330
13B7
102
}
330
13B7
100
AcDbVisualStyle
  2
GouraudWithEdges
 70
     3
 71
     2
 72
     2
 73
     1
 90
        2
 40
-0.6
 41
30.0
 62
     5
 63
     7
 74
     1
 91
        4
 64
     7
 65
   257
 75
     1
175
     1
 42
1.0
 92
        0
 66
   257
 43
1.0
 76
     1
 77
     6
 78
     2
 67
     7
 79
     5
170
     0
171
     0
290
     0
174
     0
 93
       13
 44
0.0
173
     0
291
     1
 45
0.0
1001
ACAD
1000
AcDbSavedByObjectVersion
1070
     0
1000
AcDbSavedByObjectVersion
1070
     0
1000
AcDbSavedByObjectVersion
1070
     0
1000
AcDbSavedByObjectVersion
1070
     0
1000
AcDbSavedByObjectVersion
1070
     0
1000
AcDbSavedByObjectVersion
1070
     0
1000
AcDbSavedByObjectVersion
1070
     0
  0
VISUALSTYLE
  5
13C5
102
{ACAD_REACTORS
330
13B7
102
}
330
13B7
100
AcDbVisualStyle
  2
Linepattern
 70
    14
 71
     2
 72
     2
 73
     0
 90
        0
 40
-0.6
 41
-30.0
 62
     5
 63
     7
 74
     1
 91
        4
 64
     7
 65
   257
 75
     7
175
     7
 42
1.0
 92
        8
 66
     7
 43
1.0
 76
     1
 77
     6
 78
     2
 67
     7
 79
     5
170
     0
171
     0
290
     0
174
     0
 93
        1
 44
0.0
173
     0
291
     1
 45
0.0
1001
ACAD
1000
AcDbSavedByObjectVersion
1070
     0
1000
AcDbSavedByObjectVersion
1070
     0
1000
AcDbSavedByObjectVersion
1070
     0
1000
AcDbSavedByObjectVersion
1070
     0
1000
AcDbSavedByObjectVersion
1070
     0
1000
AcDbSavedByObjectVersion
1070
     0
1000
AcDbSavedByObjectVersion
1070
     0
  0
VISUALSTYLE
  5
13C1
102
{ACAD_REACTORS
330
13B7
102
}
330
13B7
100
AcDbVisualStyle
  2
Realistic
 70
     8
 71
     2
 72
     2
 73
     0
 90
        0
 40
-0.6
 41
-30.0
 62
     5
 63
     7
 74
     1
 91
        0
 64
     7
 65
   257
 75
     1
175
     1
 42
1.0
 92
        8
 66
     8
 43
1.0
 76
     1
 77
     6
 78
     2
 67
     7
 79
     5
170
     0
171
     0
290
     0
174
     0
 93
       13
 44
0.0
173
     0
291
     0
 45
0.0
1001
ACAD
1000
AcDbSavedByObjectVersion
1070
     0
1000
AcDbSavedByObjectVersion
1070
     0
1000
AcDbSavedByObjectVersion
1070
     0
1000
AcDbSavedByObjectVersion
1070
     0
1000
AcDbSavedByObjectVersion
1070
     0
1000
AcDbSavedByObjectVersion
1070
     0
1000
AcDbSavedByObjectVersion
1070
     0
  0
VISUALSTYLE
  5
13C4
102
{ACAD_REACTORS
330
13B7
102
}
330
13B7
100
AcDbVisualStyle
  2
Thicken
 70
    13
 71
     2
 72
     2
 73
     0
 90
        0
 40
-0.6
 41
-30.0
 62
     5
 63
     7
 74
     1
 91
        4
 64
     7
 65
   257
 75
     1
175
     1
 42
1.0
 92
       12
 66
     7
 43
1.0
 76
     1
 77
     6
 78
     2
 67
     7
 79
     5
170
     0
171
     0
290
     0
174
     0
 93
        1
 44
0.0
173
     0
291
     1
 45
0.0
1001
ACAD
1000
AcDbSavedByObjectVersion
1070
     0
1000
AcDbSavedByObjectVersion
1070
     0
1000
AcDbSavedByObjectVersion
1070
     0
1000
AcDbSavedByObjectVersion
1070
     0
1000
AcDbSavedByObjectVersion
1070
     0
1000
AcDbSavedByObjectVersion
1070
     0
1000
AcDbSavedByObjectVersion
1070
     0
  0
DICTIONARYVAR
  5
1446
102
{ACAD_REACTORS
330
B87
102
}
330
B87
100
DictionaryVariables
280
     0
  1
1:1
  0
DICTIONARYVAR
  5
1445
102
{ACAD_REACTORS
330
B87
102
}
330
B87
100
DictionaryVariables
280
     0
  1
STANDARD
  0
DICTIONARYVAR
  5
129F
102
{ACAD_REACTORS
330
B87
102
}
330
B87
100
DictionaryVariables
280
     0
  1
STANDARD
  0
DICTIONARYVAR
  5
B88
102
{ACAD_REACTORS
330
B87
102
}
330
B87
100
DictionaryVariables
280
     0
  1
1
  0
DICTIONARYVAR
  5
12A0
102
{ACAD_REACTORS
330
B87
102
}
330
B87
100
DictionaryVariables
280
     0
  1
1
  0
DICTIONARYVAR
  5
12A1
102
{ACAD_REACTORS
330
B87
102
}
330
B87
100
DictionaryVariables
280
     0
  1

  0
DICTIONARYVAR
  5
1447
102
{ACAD_REACTORS
330
B87
102
}
330
B87
100
DictionaryVariables
280
     0
  1
127
  0
DICTIONARY
  5
1240
102
{ACAD_REACTORS
330
1234
102
}
330
1234
100
AcDbDictionary
281
     1
  0
XRECORD
  5
1260
102
{ACAD_REACTORS
330
1234
102
}
330
1234
100
AcDbXrecord
280
     1
 90
-1023410169
  0
DICTIONARY
  5
1174
102
{ACAD_REACTORS
330
1173
102
}
330
1173
100
AcDbDictionary
281
     1
  3
DWGSETTINGS
350
20E7
  3
TRANSSETTINGS
350
20E8
  0
ACAMGFILTERDAT
  5
128F
102
{ACAD_REACTORS
330
128A
102
}
330
128A
100
AcAmgFilterDat
 70
    15
  1
DIMENSION,AMDT_*_DIM
  2
*
  3
*
  4
*
  5
*
290
     1
1001
ACAD
1000
AcRTDxfName
1000
ACAMGFILTERDAT
  0
ACAMGFILTERDAT
  5
128E
102
{ACAD_REACTORS
330
128A
102
}
330
128A
100
AcAmgFilterDat
 70
    15
  1
*
  2
AM_FEA-AM_*
  3
*
  4
*
  5
*
290
     1
1001
ACAD
1000
AcRTDxfName
1000
ACAMGFILTERDAT
  0
ACAMGFILTERDAT
  5
128B
102
{ACAD_REACTORS
330
128A
102
}
330
128A
100
AcAmgFilterDat
 70
    15
  1
HATCH
  2
*
  3
*
  4
*
  5
*
290
     1
1001
ACAD
1000
AcRTDxfName
1000
ACAMGFILTERDAT
  0
ACAMGFILTERDAT
  5
128C
102
{ACAD_REACTORS
330
128A
102
}
330
128A
100
AcAmgFilterDat
 70
    15
  1
LINE
  2
8,8N,*-8,*-8N,AM_8,AM_8N,*-AM_8,*-AM_8N
  3
*
  4
*
  5
INSERT,STDPART2D
290
     1
1001
ACAD
1000
AcRTDxfName
1000
ACAMGFILTERDAT
  0
ACAMGFILTERDAT
  5
1290
102
{ACAD_REACTORS
330
128A
102
}
330
128A
100
AcAmgFilterDat
 70
    15
  1
ARC
  2
AM_5
  3
*
  4
2
  5
INSERT
290
     0
1001
ACAD
1000
AcRTDxfName
1000
ACAMGFILTERDAT
  0
ACAMGFILTERDAT
  5
128D
102
{ACAD_REACTORS
330
128A
102
}
330
128A
100
AcAmgFilterDat
 70
    15
  1
ACMFCFRAME,ACMDATUMTARGET,ACMDATUMID,ACMWELDSYM,ACMSURFSYM,ACMFEATID,ACMPARTREF,ACMBALLOON,AMDTEDGESYM,AMGSCREWCALCTABLE
  2
*
  3
*
  4
*
  5
*
290
     1
1001
ACAD
1000
AcRTDxfName
1000
ACAMGFILTERDAT
  0
LAYER_INDEX
  5
1292
102
{ACAD_REACTORS
330
1291
102
}
330
1291
100
AcDbIndex
 40
2456703.631325544
100
AcDbLayerIndex
  8
0
360
1293
 90
        0
  8
OUTLINE
360
1294
 90
      213
  8
SIZE
360
1295
 90
        5
  8
BASIS
360
1296
 90
        2
  8
DETAIL
360
1297
 90
      207
  8
ARRANGE
360
1298
 90
        3
  8
DEFPOINTS
360
1299
 90
        0
  8
ETC
360
129A
 90
        1
  8
FIX
360
129B
 90
        4
  8
NOTE
360
129C
 90
       12
  8
SERVICESPACE
360
129D
 90
        0
  8
SYMBOLLINE
360
129E
 90
        0
  0
DICTIONARY
  5
13A8
330
13A7
100
AcDbDictionary
280
     1
281
     1
  3
ACAD_XREC_ROUNDTRIP
360
1454
  3
BUMPTILE
360
13AA
  3
DIFFUSETILE
360
13A9
  3
OPACITYTILE
360
13AD
  3
REFLECTIONTILE
360
13AC
  3
REFRACTIONTILE
360
13AE
  3
SPECULARTILE
360
13AB
  0
DICTIONARY
  5
13A0
330
139F
100
AcDbDictionary
280
     1
281
     1
  3
ACAD_XREC_ROUNDTRIP
360
1453
  3
BUMPTILE
360
13A2
  3
DIFFUSETILE
360
13A1
  3
OPACITYTILE
360
13A5
  3
REFLECTIONTILE
360
13A4
  3
REFRACTIONTILE
360
13A6
  3
SPECULARTILE
360
13A3
  0
DICTIONARY
  5
13B0
330
13AF
100
AcDbDictionary
280
     1
281
     1
  3
ACAD_XREC_ROUNDTRIP
360
1455
  3
BUMPTILE
360
13B2
  3
DIFFUSETILE
360
13B1
  3
OPACITYTILE
360
13B5
  3
REFLECTIONTILE
360
13B4
  3
REFRACTIONTILE
360
13B6
  3
SPECULARTILE
360
13B3
  0
DICTIONARY
  5
1448
330
116F
100
AcDbDictionary
280
     1
281
     1
  3
ACAD_ROUNDTRIP_2008_TABLESTYLE_CELLSTYLEMAP
360
25AF
  3
ACAD_XREC_ROUNDTRIP
360
25B5
  0
IDBUFFER
  5
1293
330
0
100
AcDbIdBuffer
  0
IDBUFFER
  5
1294
330
0
100
AcDbIdBuffer
330
24DF
330
24E0
330
24E1
330
24E2
330
24E3
330
24E4
330
24E5
330
24E6
330
24E7
330
24E8
330
24E9
330
24EA
330
24EB
330
24EC
330
24ED
330
24EE
330
24EF
330
24F0
330
24F1
330
24F2
330
24F3
330
24F4
330
24F5
330
24F6
330
24F7
330
24F8
330
24F9
330
24FA
330
24FB
330
24FC
330
24FD
330
24FE
330
24FF
330
2500
330
2501
330
2502
330
2503
330
2504
330
2505
330
2506
330
2507
330
2508
330
2509
330
250A
330
250B
330
250C
330
250D
330
250E
330
250F
330
2510
330
2511
330
2512
330
2513
330
2514
330
2515
330
2516
330
2517
330
2518
330
2519
330
251A
330
251B
330
251C
330
251D
330
251E
330
251F
330
2520
330
2521
330
2522
330
2523
330
2524
330
2525
330
2526
330
2527
330
2528
330
2529
330
252A
330
252B
330
252C
330
252D
330
252E
330
252F
330
2530
330
2531
330
2532
330
2533
330
2534
330
2535
330
2536
330
2537
330
2538
330
2539
330
253A
330
253B
330
253C
330
253D
330
253E
330
253F
330
2540
330
2541
330
2542
330
2543
330
2544
330
2545
330
2546
330
2547
330
2548
330
2549
330
254A
330
254B
330
254C
330
254D
330
254E
330
254F
330
2550
330
2551
330
2552
330
2553
330
2554
330
2555
330
2556
330
2557
330
953
330
954
330
955
330
956
330
957
330
958
330
2489
330
248A
330
248B
330
248C
330
248D
330
248E
330
248F
330
2490
330
2491
330
2492
330
2493
330
2494
330
2495
330
2496
330
2497
330
2498
330
2499
330
249A
330
249B
330
249C
330
249D
330
249E
330
249F
330
24A0
330
24A1
330
24A2
330
24A3
330
24A4
330
24A5
330
24A6
330
24A7
330
24A8
330
24A9
330
24AA
330
24AB
330
24AC
330
24AD
330
24AE
330
24AF
330
24B0
330
24B1
330
24B2
330
24B3
330
24B4
330
24B5
330
24B6
330
24B7
330
24B8
330
24B9
330
24BA
330
24BB
330
24BC
330
24BD
330
24BE
330
24BF
330
24C0
330
24C1
330
24C2
330
24C3
330
24C4
330
24C5
330
24C6
330
24C7
330
24C8
330
24C9
330
24CA
330
24CB
330
24CC
330
24CD
330
24CE
330
24CF
330
24D0
330
24D1
330
24D2
330
24D3
330
24D4
330
24D5
330
24D6
330
24D7
330
24D8
330
24D9
330
24DA
330
24DB
330
24DC
330
24DD
330
24DE
  0
IDBUFFER
  5
1295
330
0
100
AcDbIdBuffer
330
2569
330
256A
330
256B
330
256C
330
256D
  0
IDBUFFER
  5
1296
330
0
100
AcDbIdBuffer
330
2558
330
255C
  0
IDBUFFER
  5
1297
330
0
100
AcDbIdBuffer
330
2410
330
2411
330
2412
330
2413
330
2414
330
2415
330
2416
330
2417
330
2418
330
2419
330
241A
330
241B
330
241C
330
241D
330
241E
330
241F
330
2420
330
2421
330
2422
330
2423
330
2424
330
2425
330
2426
330
2427
330
2428
330
2429
330
242A
330
242B
330
242C
330
242D
330
242E
330
242F
330
2430
330
2431
330
2432
330
2433
330
2434
330
2435
330
2436
330
2437
330
2438
330
2439
330
243A
330
243B
330
243C
330
243D
330
243E
330
243F
330
2440
330
2441
330
2442
330
2443
330
2444
330
2445
330
2446
330
2447
330
2448
330
2449
330
244A
330
244B
330
244C
330
244D
330
244E
330
244F
330
2450
330
2451
330
2452
330
2453
330
2454
330
2455
330
2456
330
2457
330
2458
330
2459
330
245A
330
245B
330
245C
330
245D
330
245E
330
245F
330
2460
330
2461
330
2462
330
2463
330
2464
330
2465
330
2466
330
2467
330
2468
330
2469
330
246A
330
246B
330
246C
330
246D
330
246E
330
246F
330
2470
330
2471
330
2472
330
2473
330
2474
330
2475
330
2476
330
2477
330
2478
330
2479
330
247A
330
247B
330
247C
330
247D
330
247E
330
247F
330
2480
330
2481
330
2482
330
2483
330
2484
330
2485
330
2486
330
2487
330
2488
330
23BA
330
23BB
330
23BC
330
23BD
330
23BE
330
23BF
330
23C0
330
23C1
330
23C2
330
23C3
330
23C4
330
23C5
330
23C6
330
23C7
330
23C8
330
23C9
330
23CA
330
23CB
330
23CC
330
23CD
330
23CE
330
23CF
330
23D0
330
23D1
330
23D2
330
23D3
330
23D4
330
23D5
330
23D6
330
23D7
330
23D8
330
23D9
330
23DA
330
23DB
330
23DC
330
23DD
330
23DE
330
23DF
330
23E0
330
23E1
330
23E2
330
23E3
330
23E4
330
23E5
330
23E6
330
23E7
330
23E8
330
23E9
330
23EA
330
23EB
330
23EC
330
23ED
330
23EE
330
23EF
330
23F0
330
23F1
330
23F2
330
23F3
330
23F4
330
23F5
330
23F6
330
23F7
330
23F8
330
23F9
330
23FA
330
23FB
330
23FC
330
23FD
330
23FE
330
23FF
330
2400
330
2401
330
2402
330
2403
330
2404
330
2405
330
2406
330
2407
330
2408
330
2409
330
240A
330
240B
330
240C
330
240D
330
240E
330
240F
  0
IDBUFFER
  5
1298
330
0
100
AcDbIdBuffer
330
2559
330
255A
330
255B
  0
IDBUFFER
  5
1299
330
0
100
AcDbIdBuffer
  0
IDBUFFER
  5
129A
330
0
100
AcDbIdBuffer
330
2572
  0
IDBUFFER
  5
129B
330
0
100
AcDbIdBuffer
330
255E
330
2561
330
2564
330
2567
  0
IDBUFFER
  5
129C
330
0
100
AcDbIdBuffer
330
255D
330
255F
330
2560
330
2562
330
2563
330
2565
330
2566
330
2568
330
256E
330
256F
330
2570
330
2571
  0
IDBUFFER
  5
129D
330
0
100
AcDbIdBuffer
  0
IDBUFFER
  5
129E
330
0
100
AcDbIdBuffer
  0
XRECORD
  5
1454
102
{ACAD_REACTORS
330
13A8
102
}
330
13A8
100
AcDbXrecord
280
     1
102
MATERIAL
148
0.0
149
0.0
149
0.0
 93
        0
 94
      127
282
     0
 72
     0
 77
     0
171
     0
175
     0
179
     0
273
     0
  0
XRECORD
  5
13AA
102
{ACAD_REACTORS
330
13A8
102
}
330
13A8
100
AcDbXrecord
280
     1
270
     1
271
     1
  0
XRECORD
  5
13A9
102
{ACAD_REACTORS
330
13A8
102
}
330
13A8
100
AcDbXrecord
280
     1
270
     1
271
     1
  0
XRECORD
  5
13AD
102
{ACAD_REACTORS
330
13A8
102
}
330
13A8
100
AcDbXrecord
280
     1
270
     1
271
     1
  0
XRECORD
  5
13AC
102
{ACAD_REACTORS
330
13A8
102
}
330
13A8
100
AcDbXrecord
280
     1
270
     1
271
     1
  0
XRECORD
  5
13AE
102
{ACAD_REACTORS
330
13A8
102
}
330
13A8
100
AcDbXrecord
280
     1
270
     1
271
     1
  0
XRECORD
  5
13AB
102
{ACAD_REACTORS
330
13A8
102
}
330
13A8
100
AcDbXrecord
280
     1
270
     1
271
     1
  0
XRECORD
  5
1453
102
{ACAD_REACTORS
330
13A0
102
}
330
13A0
100
AcDbXrecord
280
     1
102
MATERIAL
148
0.0
149
0.0
149
0.0
 93
        0
 94
      127
282
     0
 72
     0
 77
     0
171
     0
175
     0
179
     0
273
     0
  0
XRECORD
  5
13A2
102
{ACAD_REACTORS
330
13A0
102
}
330
13A0
100
AcDbXrecord
280
     1
270
     1
271
     1
  0
XRECORD
  5
13A1
102
{ACAD_REACTORS
330
13A0
102
}
330
13A0
100
AcDbXrecord
280
     1
270
     1
271
     1
  0
XRECORD
  5
13A5
102
{ACAD_REACTORS
330
13A0
102
}
330
13A0
100
AcDbXrecord
280
     1
270
     1
271
     1
  0
XRECORD
  5
13A4
102
{ACAD_REACTORS
330
13A0
102
}
330
13A0
100
AcDbXrecord
280
     1
270
     1
271
     1
  0
XRECORD
  5
13A6
102
{ACAD_REACTORS
330
13A0
102
}
330
13A0
100
AcDbXrecord
280
     1
270
     1
271
     1
  0
XRECORD
  5
13A3
102
{ACAD_REACTORS
330
13A0
102
}
330
13A0
100
AcDbXrecord
280
     1
270
     1
271
     1
  0
XRECORD
  5
1455
102
{ACAD_REACTORS
330
13B0
102
}
330
13B0
100
AcDbXrecord
280
     1
102
MATERIAL
148
0.0
149
0.0
149
0.0
 93
        0
 94
      127
282
     0
 72
     0
 77
     0
171
     0
175
     0
179
     0
273
     0
  0
XRECORD
  5
13B2
102
{ACAD_REACTORS
330
13B0
102
}
330
13B0
100
AcDbXrecord
280
     1
270
     1
271
     1
  0
XRECORD
  5
13B1
102
{ACAD_REACTORS
330
13B0
102
}
330
13B0
100
AcDbXrecord
280
     1
270
     1
271
     1
  0
XRECORD
  5
13B5
102
{ACAD_REACTORS
330
13B0
102
}
330
13B0
100
AcDbXrecord
280
     1
270
     1
271
     1
  0
XRECORD
  5
13B4
102
{ACAD_REACTORS
330
13B0
102
}
330
13B0
100
AcDbXrecord
280
     1
270
     1
271
     1
  0
XRECORD
  5
13B6
102
{ACAD_REACTORS
330
13B0
102
}
330
13B0
100
AcDbXrecord
280
     1
270
     1
271
     1
  0
XRECORD
  5
13B3
102
{ACAD_REACTORS
330
13B0
102
}
330
13B0
100
AcDbXrecord
280
     1
270
     1
271
     1
  0
CELLSTYLEMAP
  5
25AF
102
{ACAD_REACTORS
330
1448
102
}
330
1448
100
AcDbCellStyleMap
 90
        3
300
CELLSTYLE
  1
TABLEFORMAT_BEGIN
 90
        5
170
     1
 91
        0
 92
    32768
 62
   257
 93
        1
300
CONTENTFORMAT
  1
CONTENTFORMAT_BEGIN
 90
        0
 91
        0
 92
        4
 93
        0
300

 40
0.0
140
1.0
 94
        5
 62
     0
340
852
144
0.25
309
CONTENTFORMAT_END
171
     1
301
MARGIN
  1
CELLMARGIN_BEGIN
 40
0.06
 40
0.06
 40
0.06
 40
0.06
 40
0.18
 40
0.18
309
CELLMARGIN_END
 94
        6
 95
        1
302
GRIDFORMAT
  1
GRIDFORMAT_BEGIN
 90
        0
 91
        1
 62
     0
 92
       -2
340
0
 93
        0
 40
0.045
309
GRIDFORMAT_END
 95
        2
302
GRIDFORMAT
  1
GRIDFORMAT_BEGIN
 90
        0
 91
        1
 62
     0
 92
       -2
340
0
 93
        0
 40
0.045
309
GRIDFORMAT_END
 95
        4
302
GRIDFORMAT
  1
GRIDFORMAT_BEGIN
 90
        0
 91
        1
 62
     0
 92
       -2
340
0
 93
        0
 40
0.045
309
GRIDFORMAT_END
 95
        8
302
GRIDFORMAT
  1
GRIDFORMAT_BEGIN
 90
        0
 91
        1
 62
     0
 92
       -2
340
0
 93
        0
 40
0.045
309
GRIDFORMAT_END
 95
       16
302
GRIDFORMAT
  1
GRIDFORMAT_BEGIN
 90
        0
 91
        1
 62
     0
 92
       -2
340
0
 93
        0
 40
0.045
309
GRIDFORMAT_END
 95
       32
302
GRIDFORMAT
  1
GRIDFORMAT_BEGIN
 90
        0
 91
        1
 62
     0
 92
       -2
340
0
 93
        0
 40
0.045
309
GRIDFORMAT_END
309
TABLEFORMAT_END
  1
CELLSTYLE_BEGIN
 90
        1
 91
        1
300
_TITLE
309
CELLSTYLE_END
300
CELLSTYLE
  1
TABLEFORMAT_BEGIN
 90
        5
170
     1
 91
        0
 92
        0
 62
   257
 93
        1
300
CONTENTFORMAT
  1
CONTENTFORMAT_BEGIN
 90
        0
 91
        0
 92
        4
 93
        0
300

 40
0.0
140
1.0
 94
        5
 62
     0
340
852
144
0.18
309
CONTENTFORMAT_END
171
     1
301
MARGIN
  1
CELLMARGIN_BEGIN
 40
0.06
 40
0.06
 40
0.06
 40
0.06
 40
0.18
 40
0.18
309
CELLMARGIN_END
 94
        6
 95
        1
302
GRIDFORMAT
  1
GRIDFORMAT_BEGIN
 90
        0
 91
        1
 62
     0
 92
       -2
340
0
 93
        0
 40
0.045
309
GRIDFORMAT_END
 95
        2
302
GRIDFORMAT
  1
GRIDFORMAT_BEGIN
 90
        0
 91
        1
 62
     0
 92
       -2
340
0
 93
        0
 40
0.045
309
GRIDFORMAT_END
 95
        4
302
GRIDFORMAT
  1
GRIDFORMAT_BEGIN
 90
        0
 91
        1
 62
     0
 92
       -2
340
0
 93
        0
 40
0.045
309
GRIDFORMAT_END
 95
        8
302
GRIDFORMAT
  1
GRIDFORMAT_BEGIN
 90
        0
 91
        1
 62
     0
 92
       -2
340
0
 93
        0
 40
0.045
309
GRIDFORMAT_END
 95
       16
302
GRIDFORMAT
  1
GRIDFORMAT_BEGIN
 90
        0
 91
        1
 62
     0
 92
       -2
340
0
 93
        0
 40
0.045
309
GRIDFORMAT_END
 95
       32
302
GRIDFORMAT
  1
GRIDFORMAT_BEGIN
 90
        0
 91
        1
 62
     0
 92
       -2
340
0
 93
        0
 40
0.045
309
GRIDFORMAT_END
309
TABLEFORMAT_END
  1
CELLSTYLE_BEGIN
 90
        2
 91
        1
300
_HEADER
309
CELLSTYLE_END
300
CELLSTYLE
  1
TABLEFORMAT_BEGIN
 90
        5
170
     1
 91
        0
 92
        0
 62
   257
 93
        1
300
CONTENTFORMAT
  1
CONTENTFORMAT_BEGIN
 90
        0
 91
        0
 92
        4
 93
        0
300

 40
0.0
140
1.0
 94
        2
 62
     0
340
852
144
0.18
309
CONTENTFORMAT_END
171
     1
301
MARGIN
  1
CELLMARGIN_BEGIN
 40
0.06
 40
0.06
 40
0.06
 40
0.06
 40
0.18
 40
0.18
309
CELLMARGIN_END
 94
        6
 95
        1
302
GRIDFORMAT
  1
GRIDFORMAT_BEGIN
 90
        0
 91
        1
 62
     0
 92
       -2
340
0
 93
        0
 40
0.045
309
GRIDFORMAT_END
 95
        2
302
GRIDFORMAT
  1
GRIDFORMAT_BEGIN
 90
        0
 91
        1
 62
     0
 92
       -2
340
0
 93
        0
 40
0.045
309
GRIDFORMAT_END
 95
        4
302
GRIDFORMAT
  1
GRIDFORMAT_BEGIN
 90
        0
 91
        1
 62
     0
 92
       -2
340
0
 93
        0
 40
0.045
309
GRIDFORMAT_END
 95
        8
302
GRIDFORMAT
  1
GRIDFORMAT_BEGIN
 90
        0
 91
        1
 62
     0
 92
       -2
340
0
 93
        0
 40
0.045
309
GRIDFORMAT_END
 95
       16
302
GRIDFORMAT
  1
GRIDFORMAT_BEGIN
 90
        0
 91
        1
 62
     0
 92
       -2
340
0
 93
        0
 40
0.045
309
GRIDFORMAT_END
 95
       32
302
GRIDFORMAT
  1
GRIDFORMAT_BEGIN
 90
        0
 91
        1
 62
     0
 92
       -2
340
0
 93
        0
 40
0.045
309
GRIDFORMAT_END
309
TABLEFORMAT_END
  1
CELLSTYLE_BEGIN
 90
        3
 91
        2
300
_DATA
309
CELLSTYLE_END
  0
XRECORD
  5
25B5
102
{ACAD_REACTORS
330
1448
102
}
330
1448
100
AcDbXrecord
280
     1
102
ACAD_ROUNDTRIP_PRE2007_TABLESTYLE
 90
        4
 91
        0
  1

 92
        4
 93
        0
  2

 94
        4
 95
        0
  3

  0
ENDSEC
  0
EOF
