  0
SECTION
  2
HEADER
  9
$ACADVER
  1
AC1015
  9
$ACADMAINTVER
 70
    20
  9
$DWGCODEPAGE
  3
ANSI_932
  9
$INSBASE
 10
0.0
 20
0.0
 30
0.0
  9
$EXTMIN
 10
4748.472604100779
 20
-794.2475737069557
 30
0.0
  9
$EXTMAX
 10
5536.526236958315
 20
-413.3134576171423
 30
0.0
  9
$LIMMIN
 10
0.0
 20
0.0
  9
$LIMMAX
 10
420.0
 20
297.0
  9
$ORTHOMODE
 70
     0
  9
$REGENMODE
 70
     1
  9
$FILLMODE
 70
     1
  9
$QTEXTMODE
 70
     0
  9
$MIRRTEXT
 70
     1
  9
$LTSCALE
 40
1.0
  9
$ATTMODE
 70
     1
  9
$TEXTSIZE
 40
43.66586864911549
  9
$TRACEWID
 40
1.0
  9
$TEXTSTYLE
  7
Standard
  9
$CLAYER
  8
SIZE
  9
$CELTYPE
  6
ByLayer
  9
$CECOLOR
 62
   256
  9
$CELTSCALE
 40
1.0
  9
$DISPSILH
 70
     0
  9
$DIMSCALE
 40
5.0
  9
$DIMASZ
 40
2.5
  9
$DIMEXO
 40
0.625
  9
$DIMDLI
 40
3.75
  9
$DIMRND
 40
0.5
  9
$DIMDLE
 40
0.0
  9
$DIMEXE
 40
1.25
  9
$DIMTP
 40
0.0
  9
$DIMTM
 40
0.0
  9
$DIMTXT
 40
2.5
  9
$DIMCEN
 40
2.5
  9
$DIMTSZ
 40
0.0
  9
$DIMTOL
 70
     0
  9
$DIMLIM
 70
     0
  9
$DIMTIH
 70
     0
  9
$DIMTOH
 70
     0
  9
$DIMSE1
 70
     0
  9
$DIMSE2
 70
     0
  9
$DIMTAD
 70
     1
  9
$DIMZIN
 70
     8
  9
$DIMBLK
  1
OPEN30
  9
$DIMASO
 70
     1
  9
$DIMSHO
 70
     1
  9
$DIMPOST
  1

  9
$DIMAPOST
  1

  9
$DIMALT
 70
     0
  9
$DIMALTD
 70
     3
  9
$DIMALTF
 40
0.03937007874016
  9
$DIMLFAC
 40
1.0
  9
$DIMTOFL
 70
     1
  9
$DIMTVP
 40
0.0
  9
$DIMTIX
 70
     0
  9
$DIMSOXD
 70
     0
  9
$DIMSAH
 70
     0
  9
$DIMBLK1
  1

  9
$DIMBLK2
  1

  9
$DIMSTYLE
  2
ISO-25
  9
$DIMCLRD
 70
     0
  9
$DIMCLRE
 70
     0
  9
$DIMCLRT
 70
     0
  9
$DIMTFAC
 40
1.0
  9
$DIMGAP
 40
0.625
  9
$DIMJUST
 70
     0
  9
$DIMSD1
 70
     0
  9
$DIMSD2
 70
     0
  9
$DIMTOLJ
 70
     0
  9
$DIMTZIN
 70
     8
  9
$DIMALTZ
 70
     0
  9
$DIMALTTZ
 70
     0
  9
$DIMUPT
 70
     0
  9
$DIMDEC
 70
     1
  9
$DIMTDEC
 70
     1
  9
$DIMALTU
 70
     2
  9
$DIMALTTD
 70
     3
  9
$DIMTXSTY
  7
Standard
  9
$DIMAUNIT
 70
     0
  9
$DIMADEC
 70
     0
  9
$DIMALTRND
 40
0.0
  9
$DIMAZIN
 70
     0
  9
$DIMDSEP
 70
    46
  9
$DIMATFIT
 70
     3
  9
$DIMFRAC
 70
     0
  9
$DIMLDRBLK
  1
DOTSMALL
  9
$DIMLUNIT
 70
     2
  9
$DIMLWD
 70
    -2
  9
$DIMLWE
 70
    -2
  9
$DIMTMOVE
 70
     0
  9
$LUNITS
 70
     2
  9
$LUPREC
 70
     2
  9
$SKETCHINC
 40
1.0
  9
$FILLETRAD
 40
10.0
  9
$AUNITS
 70
     0
  9
$AUPREC
 70
     0
  9
$MENU
  1
.
  9
$ELEVATION
 40
0.0
  9
$PELEVATION
 40
0.0
  9
$THICKNESS
 40
0.0
  9
$LIMCHECK
 70
     0
  9
$CHAMFERA
 40
10.0
  9
$CHAMFERB
 40
10.0
  9
$CHAMFERC
 40
20.0
  9
$CHAMFERD
 40
0.0
  9
$SKPOLY
 70
     0
  9
$TDCREATE
 40
2451686.550481944
  9
$TDUCREATE
 40
2451686.175481945
  9
$TDUPDATE
 40
2455888.670899444
  9
$TDUUPDATE
 40
2455888.295899444
  9
$TDINDWG
 40
2.0556118287
  9
$TDUSRTIMER
 40
2.0556093171
  9
$USRTIMER
 70
     1
  9
$ANGBASE
 50
0.0
  9
$ANGDIR
 70
     0
  9
$PDMODE
 70
     0
  9
$PDSIZE
 40
0.0
  9
$PLINEWID
 40
0.0
  9
$SPLFRAME
 70
     0
  9
$SPLINETYPE
 70
     6
  9
$SPLINESEGS
 70
     8
  9
$HANDSEED
  5
1E62
  9
$SURFTAB1
 70
     6
  9
$SURFTAB2
 70
     6
  9
$SURFTYPE
 70
     6
  9
$SURFU
 70
     6
  9
$SURFV
 70
     6
  9
$UCSBASE
  2

  9
$UCSNAME
  2

  9
$UCSORG
 10
0.0
 20
0.0
 30
0.0
  9
$UCSXDIR
 10
1.0
 20
0.0
 30
0.0
  9
$UCSYDIR
 10
0.0
 20
1.0
 30
0.0
  9
$UCSORTHOREF
  2

  9
$UCSORTHOVIEW
 70
     0
  9
$UCSORGTOP
 10
0.0
 20
0.0
 30
0.0
  9
$UCSORGBOTTOM
 10
0.0
 20
0.0
 30
0.0
  9
$UCSORGLEFT
 10
0.0
 20
0.0
 30
0.0
  9
$UCSORGRIGHT
 10
0.0
 20
0.0
 30
0.0
  9
$UCSORGFRONT
 10
0.0
 20
0.0
 30
0.0
  9
$UCSORGBACK
 10
0.0
 20
0.0
 30
0.0
  9
$PUCSBASE
  2

  9
$PUCSNAME
  2

  9
$PUCSORG
 10
0.0
 20
0.0
 30
0.0
  9
$PUCSXDIR
 10
1.0
 20
0.0
 30
0.0
  9
$PUCSYDIR
 10
0.0
 20
1.0
 30
0.0
  9
$PUCSORTHOREF
  2

  9
$PUCSORTHOVIEW
 70
     0
  9
$PUCSORGTOP
 10
0.0
 20
0.0
 30
0.0
  9
$PUCSORGBOTTOM
 10
0.0
 20
0.0
 30
0.0
  9
$PUCSORGLEFT
 10
0.0
 20
0.0
 30
0.0
  9
$PUCSORGRIGHT
 10
0.0
 20
0.0
 30
0.0
  9
$PUCSORGFRONT
 10
0.0
 20
0.0
 30
0.0
  9
$PUCSORGBACK
 10
0.0
 20
0.0
 30
0.0
  9
$USERI1
 70
     0
  9
$USERI2
 70
     0
  9
$USERI3
 70
     0
  9
$USERI4
 70
     0
  9
$USERI5
 70
     0
  9
$USERR1
 40
0.0
  9
$USERR2
 40
0.0
  9
$USERR3
 40
0.0
  9
$USERR4
 40
0.0
  9
$USERR5
 40
0.0
  9
$WORLDVIEW
 70
     1
  9
$SHADEDGE
 70
     3
  9
$SHADEDIF
 70
    70
  9
$TILEMODE
 70
     1
  9
$MAXACTVP
 70
    48
  9
$PINSBASE
 10
0.0
 20
0.0
 30
0.0
  9
$PLIMCHECK
 70
     0
  9
$PEXTMIN
 10
1.000000000000000E+20
 20
1.000000000000000E+20
 30
1.000000000000000E+20
  9
$PEXTMAX
 10
-1.000000000000000E+20
 20
-1.000000000000000E+20
 30
-1.000000000000000E+20
  9
$PLIMMIN
 10
0.0
 20
0.0
  9
$PLIMMAX
 10
12.0
 20
9.0
  9
$UNITMODE
 70
     0
  9
$VISRETAIN
 70
     1
  9
$PLINEGEN
 70
     0
  9
$PSLTSCALE
 70
     1
  9
$TREEDEPTH
 70
  3020
  9
$CMLSTYLE
  2
Standard
  9
$CMLJUST
 70
     0
  9
$CMLSCALE
 40
20.0
  9
$PROXYGRAPHICS
 70
     1
  9
$MEASUREMENT
 70
     1
  9
$CELWEIGHT
370
    -1
  9
$ENDCAPS
280
     0
  9
$JOINSTYLE
280
     0
  9
$LWDISPLAY
290
     0
  9
$INSUNITS
 70
     4
  9
$HYPERLINKBASE
  1

  9
$STYLESHEET
  1

  9
$XEDIT
290
     1
  9
$CEPSNTYPE
380
     0
  9
$PSTYLEMODE
290
     1
  9
$FINGERPRINTGUID
  2
{3A3755FB-18B8-452A-B789-DE01AA3EFE38}
  9
$VERSIONGUID
  2
{F43EF360-2CBD-453C-9A34-793F7650C43D}
  9
$EXTNAMES
290
     1
  9
$PSVPSCALE
 40
0.0
  9
$OLESTARTUP
290
     0
  0
ENDSEC
  0
SECTION
  2
CLASSES
  0
CLASS
  1
ACDBDICTIONARYWDFLT
  2
AcDbDictionaryWithDefault
  3
ObjectDBX Classes
 90
        0
280
     0
281
     0
  0
CLASS
  1
ACDBPLACEHOLDER
  2
AcDbPlaceHolder
  3
ObjectDBX Classes
 90
        0
280
     0
281
     0
  0
CLASS
  1
LAYOUT
  2
AcDbLayout
  3
ObjectDBX Classes
 90
        0
280
     0
281
     0
  0
CLASS
  1
ACME_DOCUMENT
  2
AcMeDoc
  3
AcMeServices
 90
    32768
280
     1
281
     0
  0
CLASS
  1
ACMESTATEMGR
  2
AcMeStateMgr
  3
AcMeServices
 90
     1024
280
     0
281
     0
  0
CLASS
  1
ACMESCOPE
  2
AcMeScope
  3
AcMeServices
 90
     1024
280
     0
281
     0
  0
CLASS
  1
ACMECOMMANDHISTORY
  2
AcMeCommandHistory
  3
AcMeServices
 90
     1024
280
     0
281
     0
  0
CLASS
  1
ACRFINSADJUSTERMGR
  2
AcRfInsAdjusterMgr
  3
AcMeServices
 90
     1024
280
     0
281
     0
  0
CLASS
  1
DICTIONARYVAR
  2
AcDbDictionaryVar
  3
ObjectDBX Classes
 90
        0
280
     0
281
     0
  0
CLASS
  1
ACIMSYSVARMAN
  2
AcImSysVarManager
  3
AcMeServices
 90
     1024
280
     0
281
     0
  0
CLASS
  1
ACIMREALSYSVAR
  2
AcImRealSysVar
  3
AcMeServices
 90
     1024
280
     0
281
     0
  0
CLASS
  1
ACIMINTSYSVAR
  2
AcImIntSysVar
  3
AcMeServices
 90
     1024
280
     0
281
     0
  0
CLASS
  1
ACMEDRAWINGMAN
  2
AcMeDrawingMan
  3
AcMeServices
 90
     1024
280
     0
281
     0
  0
CLASS
  1
ACMEVIEW
  2
AcMeView
  3
AcMeServices
 90
     1024
280
     0
281
     0
  0
CLASS
  1
ACDBENTITYCACHE
  2
AcMeEntityCache
  3
AcMeServices
 90
     1024
280
     0
281
     0
  0
CLASS
  1
ACGREFMASTER
  2
AcGrefMaster
  3
AcAttribServices
 90
     1024
280
     0
281
     0
  0
CLASS
  1
AMIMASTER
  2
AmiMaster
  3
AmiServices
 90
     1024
280
     0
281
     0
  0
CLASS
  1
ACASGREFMASTER
  2
AcAsGrefMaster
  3
AutoSurfResolverServices
 90
     1024
280
     0
281
     0
  0
CLASS
  1
ADAPPL
  2
AcAdAppl
  3
DesignerServices
 90
     1024
280
     0
281
     0
  0
CLASS
  1
DEPMGR
  2
AcAdDepMgr
  3
DesignerServices
 90
     1024
280
     0
281
     0
  0
CLASS
  1
PARAMMGR
  2
AcAdParamMgr
  3
DesignerServices
 90
     1024
280
     0
281
     0
  0
CLASS
  1
PARAMSCOPE
  2
AcAdParamScope
  3
DesignerServices
 90
     1024
280
     0
281
     0
  0
CLASS
  1
ACIMSTRSYSVAR
  2
AcImStrSysVar
  3
AcMeServices
 90
     1024
280
     0
281
     0
  0
CLASS
  1
NAMEDAPPL
  2
AcAdNamedAppl
  3
DesignerServices
 90
     1024
280
     0
281
     0
  0
CLASS
  1
ADHNTMPLT
  2
AdHoleNoteTemplateMgr
  3
DesignerServices
 90
    33792
280
     0
281
     0
  0
CLASS
  1
AM_HNTEMPLATE_MGR_NAME
  2
AdHoleNoteTemplateMgrName
  3
DesignerServices
 90
    33792
280
     0
281
     0
  0
CLASS
  1
ACADGREFMODULE
  2
AcAdGrefModule
  3
AdGrefServices
 90
     1024
280
     0
281
     0
  0
CLASS
  1
AM_DRAWING_MGR
  2
AcDmDwgMgr
  3
AcMechDwgViewMgmt
 90
     1024
280
     0
281
     0
  0
CLASS
  1
AM_DWG_DOCUMENT
  2
AcDmDwgDocument
  3
AcMechDwgViewMgmt
 90
     1024
280
     0
281
     0
  0
CLASS
  1
AM_DWG_SHEET
  2
AcDmSheet
  3
AcMechDwgViewMgmt
 90
     1024
280
     0
281
     0
  0
CLASS
  1
AM_VIEWDIMPARMAP
  2
AcDmViewDimParMap
  3
AcMechDwgViewMgmt
 90
     1024
280
     0
281
     0
  0
CLASS
  1
AM_DWGMGR_NAME
  2
AcDmDwgMgrName
  3
AcMechDwgViewMgmt
 90
     1024
280
     0
281
     0
  0
CLASS
  1
ACAMPROJECT
  2
AcAmProject
  3
DesignerAssemblies
 90
     1024
280
     0
281
     0
  0
CLASS
  1
ACAMGRCOMPSET
  2
AcAmGrCompSet
  3
DesignerAssemblies
 90
    32768
280
     1
281
     0
  0
CLASS
  1
ACAMGRCOMPDEFSET
  2
AcAmGrCompDefSet
  3
DesignerAssemblies
 90
     1024
280
     0
281
     0
  0
CLASS
  1
ACAMGRCOMPDEF
  2
AcAmGrCompDef
  3
DesignerAssemblies
 90
     1024
280
     0
281
     0
  0
CLASS
  1
ACCMCONTEXT
  2
AcCmContext
  3
DesignerAssemblies
 90
     1024
280
     0
281
     0
  0
CLASS
  1
ACAMCOMPDEF
  2
AcAmCompDef
  3
DesignerAssemblies
 90
     1024
280
     0
281
     0
  0
CLASS
  1
ACAMCOMPDEFMGR
  2
AcAmCompDefMgr
  3
DesignerAssemblies
 90
     1024
280
     0
281
     0
  0
CLASS
  1
AMCONTEXTMGR
  2
AcAmContextMgr
  3
DesignerAssemblies
 90
     1024
280
     0
281
     0
  0
CLASS
  1
ACAMCONTEXTMODELER
  2
AcAmContextModeler
  3
DesignerAssemblies
 90
     1024
280
     0
281
     0
  0
CLASS
  1
ACMDATADICTIONARY
  2
AcmDataDictionary
  3
"AcmSymBB|Product Description: AutoCAD Mechanical|Company: Autodesk, Inc."
 90
     1024
280
     0
281
     0
  0
CLASS
  1
ACMDATAENTRYBLOCK
  2
AcmDataEntryBlock
  3
AcmSymBB|Product Description: AutoCAD Mechanical|Company: Autodesk, Inc.
 90
     1024
280
     0
281
     0
  0
CLASS
  1
ACDMVIEWGEOM
  2
AcDmViewGeometry
  3
AcMechDwgViewMgmt
 90
    33792
280
     0
281
     1
  0
CLASS
  1
CBROWSERAPPOBJECT
  2
CBrowserAppObject
  3
McadcomServices
 90
     1024
280
     0
281
     0
  0
CLASS
  1
IM_STATIC_MAN
  2
AcImStaticVarManager
  3
AcMeServices
 90
     1024
280
     0
281
     0
  0
CLASS
  1
ASAPP
  2
AcAsAppObject
  3
AutoSurfServices
 90
     1024
280
     0
281
     0
  0
CLASS
  1
ACIMDBLSTATICVAR
  2
AcImDblStaticVar
  3
AcMeServices
 90
     1024
280
     0
281
     0
  0
CLASS
  1
ACIMSTRSTATICVAR
  2
AcImStrStaticVar
  3
AcMeServices
 90
     1024
280
     0
281
     0
  0
CLASS
  1
ACIMINTSTATICVAR
  2
AcImIntStaticVar
  3
AcMeServices
 90
     1024
280
     0
281
     0
  0
CLASS
  1
CATALOGSTATE
  2
AcAmCatalogState
  3
DesignerAssemblies
 90
     1024
280
     0
281
     0
  0
CLASS
  1
DM_PLACEHOLDER
  2
AcDmSelsetPlaceholder
  3
AcMechDwgViewMgmt
 90
     1024
280
     0
281
     0
  0
CLASS
  1
LAYER_INDEX
  2
AcDbLayerIndex
  3
ObjectDBX Classes
 90
        0
280
     0
281
     0
  0
CLASS
  1
IDBUFFER
  2
AcDbIdBuffer
  3
ObjectDBX Classes
 90
        0
280
     0
281
     0
  0
CLASS
  1
ACAMEXTERNALCOMPDEF
  2
AcAmExternalCompDef
  3
DesignerAssemblies
 90
    33792
280
     0
281
     0
  0
CLASS
  1
ACCMBODY
  2
AcCmBody
  3
DesignerAssemblies
 90
    33792
280
     0
281
     0
  0
CLASS
  1
ACAMGRCOMP
  2
AcAmGrComp
  3
DesignerAssemblies
 90
    33792
280
     0
281
     0
  0
CLASS
  1
ACAMCOMPFEEDBACK
  2
AcAmCompFeedback
  3
DesignerAssemblies
 90
    33792
280
     0
281
     0
  0
CLASS
  1
ACAMCOMP
  2
AcAmComp
  3
DesignerAssemblies
 90
    33792
280
     0
281
     0
  0
CLASS
  1
ACAMGRCOMPCLONE
  2
AcAmGrCompClone
  3
DesignerAssemblies
 90
    33792
280
     0
281
     0
  0
CLASS
  1
ACAMCLONEREACTOR
  2
AcAmGrCompCloneReactor
  3
DesignerAssemblies
 90
    33792
280
     0
281
     0
  0
CLASS
  1
AGDICTIONARY
  2
AgDictionary
  3
AccelView
 90
    33793
280
     0
281
     0
  0
CLASS
  1
EDGEID
  2
AcAdEdgeId
  3
DesignerServices
 90
    33792
280
     0
281
     0
  0
CLASS
  1
ACADPARTLINEDGRES
  2
AcAdPartLinEdgRes
  3
AdGrefServices
 90
    33792
280
     0
281
     0
  0
CLASS
  1
ACRFINSADJ
  2
AcRfInsAdjuster
  3
AcMeServices
 90
    33792
280
     0
281
     0
  0
CLASS
  1
STREFID
  2
AcAdStraightRefId
  3
DesignerServices
 90
    33792
280
     0
281
     0
  0
CLASS
  1
ACMEAXIS
  2
AcImAxisDisplay
  3
AcMeServices
 90
    33792
280
     0
281
     1
  0
CLASS
  1
FACEID
  2
AcAdFaceId
  3
DesignerServices
 90
    33792
280
     0
281
     0
  0
CLASS
  1
DEPEDGESECONDARYDEPID
  2
AcAdDepEdgeSecondaryDepId
  3
DesignerServices
 90
    33792
280
     0
281
     0
  0
CLASS
  1
ACADPARTPLANARFACERES
  2
AcAdPartPlanarFaceRes
  3
AdGrefServices
 90
    33792
280
     0
281
     0
  0
CLASS
  1
ACMEPOINT
  2
AcImPointDisplay
  3
AcMeServices
 90
    33792
280
     0
281
     1
  0
CLASS
  1
ACMELINEARARROW
  2
AcImLinearArrowDisplay
  3
AcMeServices
 90
    33792
280
     0
281
     1
  0
CLASS
  1
ACAMEXPR
  2
AcAmExpr
  3
DesignerAssemblies
 90
    33792
280
     0
281
     0
  0
CLASS
  1
ACCMDISTPLPL
  2
AcCmDistPlPl
  3
DesignerAssemblies
 90
    33792
280
     0
281
     0
  0
CLASS
  1
ACCMCONSTREACTOR
  2
AcCmConstraintReactor
  3
DesignerAssemblies
 90
    33792
280
     0
281
     0
  0
CLASS
  1
ACAMVIEWENTITYFILTER
  2
AcAmViewEntityFilter
  3
DesignerAssemblies
 90
    33792
280
     0
281
     0
  0
CLASS
  1
ACAMGRBLOCKRECORD
  2
AcAmGrBlockRecord
  3
DesignerAssemblies
 90
    33792
280
     0
281
     0
  0
CLASS
  1
ACAMVIEWREACTOR
  2
AcAmViewReactor
  3
DesignerAssemblies
 90
    33792
280
     0
281
     0
  0
CLASS
  1
AMVIEW
  2
AcAmView
  3
DesignerAssemblies
 90
    33792
280
     0
281
     0
  0
CLASS
  1
ACAMVIEWCONTEXT
  2
AcAmViewContext
  3
DesignerAssemblies
 90
    33792
280
     0
281
     0
  0
CLASS
  1
ACAMCOMPVIEWREACTOR
  2
AcAmGrCompViewReactor
  3
DesignerAssemblies
 90
    33792
280
     0
281
     0
  0
CLASS
  1
ACAMGRCOMPVIEW
  2
AcAmGrCompView
  3
DesignerAssemblies
 90
    33792
280
     0
281
     0
  0
CLASS
  1
SURFACEID
  2
AcAdSurfaceId
  3
DesignerServices
 90
    33792
280
     0
281
     0
  0
CLASS
  1
AM_GREF_PLANE
  2
AcDmGrefPlnDef
  3
AcMechDwgViewMgmt
 90
    33792
280
     0
281
     0
  0
CLASS
  1
AM_GREF_AXIS
  2
AcDmGrefAxisDef
  3
AcMechDwgViewMgmt
 90
    33792
280
     0
281
     0
  0
CLASS
  1
AM_BASE_VIEW_ORIENT
  2
AcDmBaseViewOr
  3
AcMechDwgViewMgmt
 90
    33792
280
     0
281
     0
  0
CLASS
  1
AM_DWG_VIEWPORT
  2
AcDmViewport
  3
AcMechDwgViewMgmt
 90
    33792
280
     0
281
     0
  0
CLASS
  1
AM_VIEW_DISPLAY
  2
AcDmDwgViewDisplay
  3
AcMechDwgViewMgmt
 90
    33792
280
     0
281
     0
  0
CLASS
  1
AM_BASE_VIEW
  2
AcDmBaseView
  3
AcMechDwgViewMgmt
 90
    33792
280
     0
281
     0
  0
CLASS
  1
ACDMVWEDLINE
  2
AcDmViewEdgeLine
  3
AcMechDwgViewMgmt
 90
    33792
280
     0
281
     1
  0
CLASS
  1
ACDMVWEDARC
  2
AcDmViewEdgeArc
  3
AcMechDwgViewMgmt
 90
    33792
280
     0
281
     1
  0
CLASS
  1
ACDMVWEDCIRC
  2
AcDmViewEdgeCircle
  3
AcMechDwgViewMgmt
 90
    33792
280
     0
281
     1
  0
CLASS
  1
AM_ORTHO_VIEW_ORIENT
  2
AcDmOrthoViewOr
  3
AcMechDwgViewMgmt
 90
    33792
280
     0
281
     0
  0
CLASS
  1
AM_ORTHO_VIEW
  2
AcDmOrthoView
  3
AcMechDwgViewMgmt
 90
    33792
280
     0
281
     0
  0
CLASS
  1
CNRREFID
  2
AcAdCornerId
  3
DesignerServices
 90
    33792
280
     0
281
     0
  0
CLASS
  1
ACADPARTPOINTRES
  2
AcAdPartPointRes
  3
AdGrefServices
 90
    33792
280
     0
281
     0
  0
CLASS
  1
AM_VIEWDIMLINEAR
  2
AcDmViewDimLinear
  3
AcMechDwgViewMgmt
 90
    33792
280
     0
281
     0
  0
CLASS
  1
ACADPARTCIRCEDGRES
  2
AcAdPartCircEdgRes
  3
AdGrefServices
 90
    33792
280
     0
281
     0
  0
CLASS
  1
CIRREFID
  2
AcAdCircleRefId
  3
DesignerServices
 90
    33792
280
     0
281
     0
  0
CLASS
  1
ACADPARTCYLINDERFACERES
  2
AcAdPartCylinderFaceRes
  3
AdGrefServices
 90
    33792
280
     0
281
     0
  0
CLASS
  1
ACCMDISTLNLN
  2
AcCmDistLnLn
  3
DesignerAssemblies
 90
    33792
280
     0
281
     0
  0
CLASS
  1
ACMECIRCARC
  2
AcImCircArcDisplay
  3
AcMeServices
 90
    33792
280
     0
281
     1
  0
CLASS
  1
ACCMDISTPTLN
  2
AcCmDistPtLn
  3
DesignerAssemblies
 90
    33792
280
     0
281
     0
  0
CLASS
  1
ACRFATTGENMGR
  2
AcRfAttGeneralMgr
  3
AcAttribServices
 90
     1024
280
     0
281
     0
  0
CLASS
  1
FEEDBACK
  2
AcAmFeedback
  3
DesignerAssemblies
 90
    33792
280
     0
281
     1
  0
CLASS
  1
ACAMTRIAXISSYMBOL
  2
AcAmTriAxisSymbol
  3
DesignerAssemblies
 90
    33792
280
     0
281
     0
  0
CLASS
  1
ACAMROTAXISSYMBOL
  2
AcAmRotAxisSymbol
  3
DesignerAssemblies
 90
    33792
280
     0
281
     0
  0
CLASS
  1
ACAMTEXTCIRCLESYMBOL
  2
AcAmTextCircleSymbol
  3
DesignerAssemblies
 90
    33792
280
     0
281
     0
  0
CLASS
  1
ACCMTANCLCL
  2
AcCmTanClCl
  3
AcCmServices
 90
    33792
280
     0
281
     0
  0
CLASS
  1
ACCMANGVECVEC
  2
AcCmAngVecVec
  3
DesignerAssemblies
 90
    33792
280
     0
281
     0
  0
CLASS
  1
ACMEROTATIONARROW
  2
AcImRotationArrowDisplay
  3
AcMeServices
 90
    33792
280
     0
281
     1
  0
CLASS
  1
ACDMVWEDSPLINE
  2
AcDmViewEdgeSpline
  3
AcMechDwgViewMgmt
 90
    33792
280
     0
281
     1
  0
CLASS
  1
SILEDGEID
  2
AcAdSilhouetteEdgeId
  3
DesignerServices
 90
    33792
280
     0
281
     0
  0
CLASS
  1
ACAMVECTORSYMBOL
  2
AcAmVectorSymbol
  3
DesignerAssemblies
 90
    33792
280
     0
281
     0
  0
CLASS
  1
ACCMTANCLPL
  2
AcCmTanClPl
  3
AcCmServices
 90
    33792
280
     0
281
     0
  0
CLASS
  1
AM_VIEW_SELECT_FILTER
  2
AcDmSelectViewEntFilter
  3
AcMechDwgViewMgmt
 90
    33792
280
     0
281
     0
  0
CLASS
  1
ACME_DATABASE
  2
AcMeDbDatabase
  3
AcMeServices
 90
     1024
280
     0
281
     0
  0
CLASS
  1
ACME_DOCUMENT
  2
AcMeDbDoc
  3
AcMeServices
 90
     1024
280
     0
281
     0
  0
CLASS
  1
AMGSETTINGSOBJ
  2
AmgSettingsObj
  3
"AcadM|Product Description: AutoCAD Mechanical|Company: Autodesk, Inc."
 90
     1024
280
     0
281
     0
  0
CLASS
  1
GSMANAGER
  2
AcMeGSManager
  3
AcMeServices
 90
     1024
280
     0
281
     0
  0
CLASS
  1
AMDTINTERNALREACTOR
  2
AmdtInternalReactor
  3
AcMeServices
 90
     1024
280
     0
281
     0
  0
CLASS
  1
ACGREFACADMASTER
  2
AcGrefacadMaster
  3
AcGrefServices
 90
     1024
280
     0
281
     0
  0
CLASS
  1
AMDTMENUSTATEMGR
  2
AmdtMenuStateMgr
  3
McadcomServices
 90
     1024
280
     0
281
     0
  0
CLASS
  1
AMDTMCOMMENUSTATE
  2
AmdtMcomMenuState
  3
McadcomServices
 90
     1024
280
     0
281
     0
  0
CLASS
  1
MAPIAMMOUDLE
  2
MApiAmModule
  3
MApiAmServices
 90
     1024
280
     0
281
     0
  0
CLASS
  1
AMDTDMMENUSTATE
  2
AmdtDmMenuState
  3
AcMechDwgViewMgmt
 90
     1024
280
     0
281
     0
  0
CLASS
  1
AMDTADMENUSTATE
  2
AmdtAdMenuState
  3
DesignerServices
 90
     1024
280
     0
281
     0
  0
CLASS
  1
AMDTAMMENUSTATE
  2
AmdtAmMenuState
  3
DesignerAssemblies
 90
     1024
280
     0
281
     0
  0
CLASS
  1
MAPIADMODULE
  2
MApiAdModule
  3
MApiAdServices
 90
     1024
280
     0
281
     0
  0
CLASS
  1
ACAMCOMPENT
  2
AcAmCompEnt
  3
DesignerAssemblies
 90
    33792
280
     0
281
     1
  0
CLASS
  1
ACAMCOMPENTCLONE
  2
AcAmCompEntClone
  3
DesignerAssemblies
 90
    33792
280
     0
281
     1
  0
CLASS
  1
ACAMCOMPENTVIEW
  2
AcAmCompEntView
  3
DesignerAssemblies
 90
    33792
280
     0
281
     1
  0
CLASS
  1
AM_CLDFLTS
  2
AcDmClDflts
  3
AcMechDwgViewMgmt
 90
    33792
280
     0
281
     0
  0
CLASS
  1
AMDTBROWSERDBTAB
  2
AmdtBrowserDbTab
  3
McadcomServices
 90
     1024
280
     0
281
     0
  0
CLASS
  1
AMGOBJPROPCFG
  2
AmgObjPropCfg
  3
"AmgLay|Product Description: AutoCAD Mechanical|Company: Autodesk, Inc."
 90
     1025
280
     0
281
     0
  0
CLASS
  1
ACDMVWEDELLIPSE
  2
AcDmViewEdgeEllipse
  3
AcMechDwgViewMgmt
 90
    33792
280
     0
281
     1
  0
CLASS
  1
ACAMGFILTERDAT
  2
AcAmgFilterDat
  3
"AcadM|Product Description: AutoCAD Mechanical|Company: Autodesk, Inc."
 90
     1024
280
     0
281
     0
  0
CLASS
  1
AMDTMAPISURFMOUDULE
  2
AmdtMApiSurfModule
  3
MApiSurfServices
 90
    33792
280
     0
281
     0
  0
CLASS
  1
ACDMPARTVIEWDATA
  2
AcDmPartViewData
  3
AcMechDwgViewMgmt
 90
    33792
280
     0
281
     0
  0
CLASS
  1
ACDMDISPLAYATTRIBS
  2
AcDmDisplayAttribs
  3
AcMechDwgViewMgmt
 90
    33792
280
     0
281
     0
  0
CLASS
  1
ACDMBODYINSTANCEDATA
  2
AcDmBodyInstanceData
  3
AcMechDwgViewMgmt
 90
    33792
280
     0
281
     0
  0
CLASS
  1
ACMSTANDARDISO
  2
AcmStandardISO
  3
"Amdt_StdImp|Product Description: AutoCAD Mechanical|Company: Autodesk, Inc."
 90
     1024
280
     0
281
     0
  0
CLASS
  1
AMDTEDGESTANDARDISO
  2
AmdtEdgeStdISO
  3
"Amdt_StdImp|Product Description: AutoCAD Mechanical|Company: Autodesk, Inc."
 90
    33792
280
     0
281
     0
  0
CLASS
  1
ACMSURFSTANDARDISO
  2
AcmSurfTextStdISO
  3
"Amdt_StdImp|Product Description: AutoCAD Mechanical|Company: Autodesk, Inc."
 90
    33792
280
     0
281
     0
  0
CLASS
  1
ACMFCFSTANDARDISO
  2
AcmFCFStdISO
  3
"Amdt_StdImp|Product Description: AutoCAD Mechanical|Company: Autodesk, Inc."
 90
     1024
280
     0
281
     0
  0
CLASS
  1
ACMWELDSTANDARDISO
  2
AcmWeldingStdISO
  3
"Amdt_StdImp|Product Description: AutoCAD Mechanical|Company: Autodesk, Inc."
 90
     1024
280
     0
281
     0
  0
CLASS
  1
ACMIDSTANDARDISO
  2
AcmIdStdISO
  3
"Amdt_StdImp|Product Description: AutoCAD Mechanical|Company: Autodesk, Inc."
 90
     1024
280
     0
281
     0
  0
CLASS
  1
ACMDATUMSTANDARDISO
  2
AcmDatumStdISO
  3
"Amdt_StdImp|Product Description: AutoCAD Mechanical|Company: Autodesk, Inc."
 90
     1024
280
     0
281
     0
  0
CLASS
  1
ACMBOMSTANDARDISO
  2
AcmBOMStdISO
  3
"Amdt_StdImp|Product Description: AutoCAD Mechanical|Company: Autodesk, Inc."
 90
     1024
280
     0
281
     0
  0
CLASS
  1
ACMDETAILSTANDARDISO
  2
AmdtDetailSymStdISO
  3
"Amdt_StdImp|Product Description: AutoCAD Mechanical|Company: Autodesk, Inc."
 90
     1024
280
     0
281
     0
  0
CLASS
  1
ACMSECTIONSTANDARDISO
  2
AmdtSectionSymStdISO
  3
"Amdt_StdImp|Product Description: AutoCAD Mechanical|Company: Autodesk, Inc."
 90
    33792
280
     0
281
     0
  0
CLASS
  1
ACMCENTERLINESTANDARDISO
  2
AmdtCenterLineStdISO
  3
"Amdt_StdImp|Product Description: AutoCAD Mechanical|Company: Autodesk, Inc."
 90
     1024
280
     0
281
     0
  0
CLASS
  1
ACMTHREADLINESTANDARDISO
  2
AmdtThreadLineStdISO
  3
"Amdt_StdImp|Product Description: AutoCAD Mechanical|Company: Autodesk, Inc."
 90
     1024
280
     0
281
     0
  0
CLASS
  1
ACAMGLAYSTD
  2
AcAmgLayStd
  3
"AmgLay|Product Description: AutoCAD Mechanical|Company: Autodesk, Inc."
 90
     1024
280
     0
281
     0
  0
CLASS
  1
ACAMGDIMSTD
  2
AcAmgDimStd
  3
"AmgDim|Product Description: AutoCAD Mechanical|Company: Autodesk, Inc."
 90
     1024
280
     0
281
     0
  0
CLASS
  1
ACAMGTITLESTD
  2
AcAmgTitleStd
  3
"AmgTitle|Product Description: AutoCAD Mechanical|Company: Autodesk, Inc."
 90
     4095
280
     0
281
     0
  0
CLASS
  1
AMDTFORMULAUPDATEDISPATCHER
  2
AmdtFormulaUpdateDispatcher
  3
AcMeServices
 90
    33792
280
     0
281
     0
  0
CLASS
  1
PARAM
  2
AcAdParam
  3
DesignerServices
 90
    33792
280
     0
281
     0
  0
CLASS
  1
ACMEPLINE
  2
AcImPlineDisplay
  3
AcMeServices
 90
    33792
280
     0
281
     1
  0
CLASS
  1
ACCMDISTLNPL
  2
AcCmDistLnPl
  3
AcCmServices
 90
    33792
280
     0
281
     0
  0
CLASS
  1
ACCMDISTPTPL
  2
AcCmDistPtPl
  3
DesignerAssemblies
 90
    33792
280
     0
281
     0
  0
CLASS
  1
ACMNOTESTANDARDISO
  2
AmdtNoteStdISO
  3
"Amdt_StdImp|Product Description: AutoCAD Mechanical|Company: Autodesk, Inc."
 90
     1024
280
     0
281
     0
  0
CLASS
  1
AMDTNOTETEMPLATEDB
  2
AmdtNoteTemplateDB
  3
AcmSymBB|Product Description: AutoCAD Mechanical|Company: Autodesk, Inc.
 90
     1024
280
     0
281
     0
  0
CLASS
  1
TABLESTYLE
  2
AcDbTableStyle
  3
ObjectDBX Classes
 90
     4095
280
     0
281
     0
  0
CLASS
  1
AM_ABS_AXIS
  2
AcDmAbsAxisDef
  3
AcMechDwgViewMgmt
 90
    33792
280
     0
281
     0
  0
CLASS
  1
AM_ABS_PLANE
  2
AcDmAbsPlnDef
  3
AcMechDwgViewMgmt
 90
    33792
280
     0
281
     0
  0
CLASS
  1
AM_VIEW_GROUP_FILTER
  2
AcDmGroupViewEntFilter
  3
AcMechDwgViewMgmt
 90
    33792
280
     0
281
     0
  0
CLASS
  1
ACMSTANDARDJIS
  2
AcmStandardJIS
  3
"Amdt_StdImp|Product Description: AutoCAD Mechanical|Company: Autodesk, Inc."
 90
    33792
280
     0
281
     0
  0
CLASS
  1
ACMSURFSTANDARDJIS
  2
AcmSurfTextStdJIS
  3
"Amdt_StdImp|Product Description: AutoCAD Mechanical|Company: Autodesk, Inc."
 90
    33792
280
     0
281
     0
  0
CLASS
  1
ACMFCFSTANDARDJIS
  2
AcmFCFStdJIS
  3
"Amdt_StdImp|Product Description: AutoCAD Mechanical|Company: Autodesk, Inc."
 90
    33792
280
     0
281
     0
  0
CLASS
  1
ACMWELDSTANDARDJIS
  2
AcmWeldingStdJIS
  3
"Amdt_StdImp|Product Description: AutoCAD Mechanical|Company: Autodesk, Inc."
 90
    33792
280
     0
281
     0
  0
CLASS
  1
ACMIDSTANDARDJIS
  2
AcmIdStdJIS
  3
"Amdt_StdImp|Product Description: AutoCAD Mechanical|Company: Autodesk, Inc."
 90
    33792
280
     0
281
     0
  0
CLASS
  1
ACMDATUMSTANDARDJIS
  2
AcmDatumStdJIS
  3
"Amdt_StdImp|Product Description: AutoCAD Mechanical|Company: Autodesk, Inc."
 90
    33792
280
     0
281
     0
  0
CLASS
  1
ACMBOMSTANDARDJIS
  2
AcmBOMStdJIS
  3
"Amdt_StdImp|Product Description: AutoCAD Mechanical|Company: Autodesk, Inc."
 90
    33792
280
     0
281
     0
  0
CLASS
  1
ACMDETAILSTANDARDJIS
  2
AmdtDetailSymStdJIS
  3
"Amdt_StdImp|Product Description: AutoCAD Mechanical|Company: Autodesk, Inc."
 90
    33792
280
     0
281
     0
  0
CLASS
  1
ACMSECTIONSTANDARDJIS
  2
AmdtSectionSymStdJIS
  3
"Amdt_StdImp|Product Description: AutoCAD Mechanical|Company: Autodesk, Inc."
 90
    33792
280
     0
281
     0
  0
CLASS
  1
ACMCENTERLINESTANDARDJIS
  2
AmdtCenterLineStdJIS
  3
"Amdt_StdImp|Product Description: AutoCAD Mechanical|Company: Autodesk, Inc."
 90
    33792
280
     0
281
     0
  0
CLASS
  1
ACMTHREADLINESTANDARDJIS
  2
AmdtThreadLineStdJIS
  3
"Amdt_StdImp|Product Description: AutoCAD Mechanical|Company: Autodesk, Inc."
 90
    33792
280
     0
281
     0
  0
CLASS
  1
ACMNOTESTANDARDJIS
  2
AmdtNoteStdJIS
  3
"Amdt_StdImp|Product Description: AutoCAD Mechanical|Company: Autodesk, Inc."
 90
    33792
280
     0
281
     0
  0
CLASS
  1
MATERIAL
  2
AcDbMaterial
  3
ObjectDBX Classes
 90
     1153
280
     0
281
     0
  0
CLASS
  1
VISUALSTYLE
  2
AcDbVisualStyle
  3
ObjectDBX Classes
 90
     4095
280
     0
281
     0
  0
CLASS
  1
SCALE
  2
AcDbScale
  3
ObjectDBX Classes
 90
     1153
280
     0
281
     0
  0
CLASS
  1
MLEADERSTYLE
  2
AcDbMLeaderStyle
  3
ACDB_MLEADERSTYLE_CLASS
 90
     4095
280
     0
281
     0
  0
CLASS
  1
EXACTERMXREFMAP
  2
ExAcTermXrefMap
  3
EXAC_SERVICE
 90
    33793
280
     0
281
     0
  0
CLASS
  1
NPOCOLLECTION
  2
AcDbImpNonPersistentObjectsCollection
  3
ObjectDBX Classes
 90
     1153
280
     0
281
     0
  0
CLASS
  1
ACMTAPERSTANDARDISO
  2
AcmTaperStdISO
  3
"Amdt_StdImp|Product Description: AutoCAD Mechanical|Company: Autodesk, Inc."
 90
     1024
280
     0
281
     0
  0
CLASS
  1
ACMANOOTATIONVIEWSTANDARDISO
  2
AmdtAnViewStdISO
  3
"Amdt_StdImp|Product Description: AutoCAD Mechanical|Company: Autodesk, Inc."
 90
     1024
280
     0
281
     0
  0
CLASS
  1
ACMTAPERSTANDARDJIS
  2
AcmTaperStdJIS
  3
"Amdt_StdImp|Product Description: AutoCAD Mechanical|Company: Autodesk, Inc."
 90
    33792
280
     0
281
     0
  0
CLASS
  1
ACMANOOTATIONVIEWSTANDARDJIS
  2
AmdtAnViewStdJIS
  3
"Amdt_StdImp|Product Description: AutoCAD Mechanical|Company: Autodesk, Inc."
 90
    33792
280
     0
281
     0
  0
CLASS
  1
SOLID_BACKGROUND
  2
AcDbSolidBackground
  3
SCENEOE
 90
     4095
280
     0
281
     0
  0
CLASS
  1
AM_ADCIRCTRLINE
  2
AcAdBullsEyeCl
  3
DesignerServices
 90
    33792
280
     0
281
     0
  0
CLASS
  1
AM_ADLINCTRLINE
  2
AcAdLineCl
  3
DesignerServices
 90
    33792
280
     0
281
     0
  0
CLASS
  1
CELLSTYLEMAP
  2
AcDbCellStyleMap
  3
ObjectDBX Classes
 90
     1152
280
     0
281
     0
  0
CLASS
  1
MULTILEADER
  2
AcDbMLeader
  3
ACDB_MLEADER_CLASS
 90
     1025
280
     0
281
     1
  0
CLASS
  1
ACRFOBJATTMGR
  2
AcRfObjAttGroupMgr
  3
AcAttribServices
 90
     1024
280
     0
281
     0
  0
CLASS
  1
ACRFMCADAPIATTHOLDER
  2
AcRfMCADAPIAttHolder
  3
AcAttribServices
 90
     1024
280
     0
281
     0
  0
CLASS
  1
AMDTSYSATTR
  2
AmdtSystemAttribute
  3
AcAttribServices
 90
     1024
280
     0
281
     0
  0
CLASS
  1
AMDTEDGESTANDARDISO13715
  2
AmdtEdgeStdISO13715
  3
"Amdt_StdImp|Product Description: AutoCAD Mechanical|Company: Autodesk, Inc."
 90
     1024
280
     0
281
     0
  0
CLASS
  1
ACMSURFSTANDARDISO2002
  2
AcmSurfTextStdISO2002
  3
"Amdt_StdImp|Product Description: AutoCAD Mechanical|Company: Autodesk, Inc."
 90
     1024
280
     0
281
     0
  0
CLASS
  1
ACMSECTIONSTANDARDISO2001
  2
AmdtSectionSymStdISO2001
  3
"Amdt_StdImp|Product Description: AutoCAD Mechanical|Company: Autodesk, Inc."
 90
     1024
280
     0
281
     0
  0
CLASS
  1
ACAMGHOLECHARTSTDISO
  2
AcAmgHoleChartStdISO
  3
AmgDim|Product Description: AutoCAD Mechanical|Company: Autodesk, Inc.
 90
     1024
280
     0
281
     0
  0
CLASS
  1
SORTENTSTABLE
  2
AcDbSortentsTable
  3
ObjectDBX Classes
 90
    32768
280
     0
281
     0
  0
ENDSEC
  0
SECTION
  2
TABLES
  0
TABLE
  2
VPORT
  5
29
102
{ACAD_XDICTIONARY
360
472
102
}
330
0
100
AcDbSymbolTable
 70
     1
  0
VPORT
  5
879
330
29
100
AcDbSymbolTableRecord
100
AcDbViewportTableRecord
  2
*Active
 70
     0
 10
0.0
 20
0.0
 11
1.0
 21
1.0
 12
0.0
 22
0.0
 13
0.0
 23
0.0
 14
10.0
 24
10.0
 15
10.0
 25
10.0
 16
0.0
 26
0.0
 36
814.4045283708839
 17
5114.618936278094
 27
-488.6186236023047
 37
0.0
 40
561.5921792193425
 41
1.672936259143155
 42
50.0
 43
0.0
 44
0.0
 50
0.0
 51
0.0
 71
     0
 72
   100
 73
     1
 74
     2
 75
     0
 76
     0
 77
     0
 78
     0
281
     4
 65
     0
110
0.0
120
0.0
130
0.0
111
1.0
121
0.0
131
0.0
112
0.0
122
1.0
132
0.0
 79
     0
146
0.0
  0
ENDTAB
  0
TABLE
  2
LTYPE
  5
24
330
0
100
AcDbSymbolTable
 70
    19
  0
LTYPE
  5
25
330
24
100
AcDbSymbolTableRecord
100
AcDbLinetypeTableRecord
  2
ByBlock
 70
     0
  3

 72
    65
 73
     0
 40
0.0
  0
LTYPE
  5
26
330
24
100
AcDbSymbolTableRecord
100
AcDbLinetypeTableRecord
  2
ByLayer
 70
     0
  3

 72
    65
 73
     0
 40
0.0
  0
LTYPE
  5
13
330
24
100
AcDbSymbolTableRecord
100
AcDbLinetypeTableRecord
  2
Continuous
 70
     0
  3
Solid line
 72
    65
 73
     0
 40
0.0
  0
LTYPE
  5
1B8
330
24
100
AcDbSymbolTableRecord
100
AcDbLinetypeTableRecord
  2
HIDDEN
 70
     0
  3
Hidden __ __ __ __ __ __ __ __ __ __ __ __ __ _
 72
    65
 73
     2
 40
9.524999999999996
 49
6.349999999999997
 74
     0
 49
-3.174999999999998
 74
     0
  0
LTYPE
  5
7C
330
24
100
AcDbSymbolTableRecord
100
AcDbLinetypeTableRecord
  2
AM_ISO08W050
 70
     0
  3
____ . ____ . ____ . ____ . ____ . ____ . ____
 72
    65
 73
     4
 40
18.0
 49
12.0
 74
     0
 49
-1.5
 74
     0
 49
3.0
 74
     0
 49
-1.5
 74
     0
  0
LTYPE
  5
8C4
330
24
100
AcDbSymbolTableRecord
100
AcDbLinetypeTableRecord
  2
DASHDOT
 70
     0
  3
____ _ ____ _ ____ _ ____ _ ____ _ ____ _ ____
 72
    65
 73
     4
 40
5.5
 49
4.0
 74
     0
 49
-0.6
 74
     0
 49
0.3
 74
     0
 49
-0.6
 74
     0
  0
LTYPE
  5
EA6
330
24
100
AcDbSymbolTableRecord
100
AcDbLinetypeTableRecord
  2
PHANTOM2
 70
     0
  3
Phantom (.5x) ___ _ _ ___ _ _ ___ _ _ ___ _ _
 72
    65
 73
     6
 40
31.75
 49
15.875
 74
     0
 49
-3.174999999999998
 74
     0
 49
3.174999999999998
 74
     0
 49
-3.174999999999998
 74
     0
 49
3.174999999999998
 74
     0
 49
-3.174999999999998
 74
     0
  0
LTYPE
  5
EA7
330
24
100
AcDbSymbolTableRecord
100
AcDbLinetypeTableRecord
  2
CENTER
 70
     0
  3
Center ____ _ ____ _ ____ _ ____ _ ____ _ ____
 72
    65
 73
     4
 40
50.8
 49
31.75
 74
     0
 49
-6.349999999999997
 74
     0
 49
6.349999999999997
 74
     0
 49
-6.349999999999997
 74
     0
  0
LTYPE
  5
EF5
330
24
100
AcDbSymbolTableRecord
100
AcDbLinetypeTableRecord
  2
ASULTYPE
 70
     0
  3
実線
 72
    65
 73
     2
 40
3.0
 49
2.5
 74
     0
 49
0.5
 74
     0
  0
LTYPE
  5
EF6
330
24
100
AcDbSymbolTableRecord
100
AcDbLinetypeTableRecord
  2
ASVLTYPE
 70
     0
  3
__ __ __ __ __ __ __ __ __ __ __ __ __ __ __ __ __ __ __ __ __
 72
    65
 73
     2
 40
0.75
 49
0.5
 74
     0
 49
-0.25
 74
     0
  0
LTYPE
  5
F51
330
24
100
AcDbSymbolTableRecord
100
AcDbLinetypeTableRecord
  2
ACISOWELD
 70
     0
  3
_ _ _ _ _
 72
    65
 73
     2
 40
2.0
 49
2.0
 74
     0
 49
-1.0
 74
     0
  0
LTYPE
  5
F52
330
24
100
AcDbSymbolTableRecord
100
AcDbLinetypeTableRecord
  2
ACISOTGB
 70
     0
  3
__ . . __ . .
 72
    65
 73
     6
 40
9.0
 49
4.0
 74
     0
 49
-1.0
 74
     0
 49
1.0
 74
     0
 49
-1.0
 74
     0
 49
1.0
 74
     0
 49
-1.0
 74
     0
  0
LTYPE
  5
F53
330
24
100
AcDbSymbolTableRecord
100
AcDbLinetypeTableRecord
  2
ACISOTGL
 70
     0
  3
_ _ _ _ _
 72
    65
 73
     2
 40
3.0
 49
2.0
 74
     0
 49
-1.0
 74
     0
  0
LTYPE
  5
F70
330
24
100
AcDbSymbolTableRecord
100
AcDbLinetypeTableRecord
  2
DASHED2
 70
     0
  3
Dashed (.5x) _ _ _ _ _ _ _ _ _ _ _ _ _ _ _ _ _
 72
    65
 73
     2
 40
9.524999999999996
 49
6.349999999999997
 74
     0
 49
-3.174999999999998
 74
     0
  0
LTYPE
  5
F71
330
24
100
AcDbSymbolTableRecord
100
AcDbLinetypeTableRecord
  2
AM_ISO02W050
 70
     0
  3
__ __ __ __ __ __ __ __ __ __ __ __ __ __ __
 72
    65
 73
     2
 40
7.5
 49
6.0
 74
     0
 49
-1.5
 74
     0
  0
LTYPE
  5
F72
330
24
100
AcDbSymbolTableRecord
100
AcDbLinetypeTableRecord
  2
AM_ISO09W050
 70
     0
  3
_____ . . _____ . . _____ . . ____ .. ____
 72
    65
 73
     6
 40
22.5
 49
12.0
 74
     0
 49
-1.5
 74
     0
 49
3.0
 74
     0
 49
-1.5
 74
     0
 49
3.0
 74
     0
 49
-1.5
 74
     0
  0
LTYPE
  5
F73
330
24
100
AcDbSymbolTableRecord
100
AcDbLinetypeTableRecord
  2
Amconstr
 70
     0
  3
_______________________
 72
    65
 73
     2
 40
9999.0
 49
9999.0
 74
     0
 49
0.0
 74
     0
  0
LTYPE
  5
F74
330
24
100
AcDbSymbolTableRecord
100
AcDbLinetypeTableRecord
  2
AM_ISO08W050x2
 70
     0
  3
__ . __ . __ . __ . __ . __
 72
    65
 73
     4
 40
9.0
 49
6.0
 74
     0
 49
-0.75
 74
     0
 49
1.5
 74
     0
 49
-0.75
 74
     0
  0
LTYPE
  5
F75
330
24
100
AcDbSymbolTableRecord
100
AcDbLinetypeTableRecord
  2
AM_ISO02W050x2
 70
     0
  3
 _ _ _ _ _ _ _ _ _ _ _ _
 72
    65
 73
     2
 40
3.75
 49
3.0
 74
     0
 49
-0.75
 74
     0
  0
LTYPE
  5
F76
330
24
100
AcDbSymbolTableRecord
100
AcDbLinetypeTableRecord
  2
Amzigzag
 70
     0
  3
/\/-/\/-/\/-/\/-/\/-/\/
 72
    65
 73
     2
 40
11.0001
 49
0.0001
 74
     4
 75
   136
340
F7B
 46
0.04
 50
0.0
 44
0.0
 45
0.0
 49
-11.0
 74
     0
  0
LTYPE
  5
17D0
330
24
100
AcDbSymbolTableRecord
100
AcDbLinetypeTableRecord
  2
DASHEDX2
 70
     0
  3
____  ____  ____  ____  ____  ____  ____  ____ 
 72
    65
 73
     2
 40
1.5
 49
1.0
 74
     0
 49
-0.5
 74
     0
  0
ENDTAB
  0
TABLE
  2
LAYER
  5
1E
102
{ACAD_XDICTIONARY
360
1F
102
}
330
0
100
AcDbSymbolTable
 70
     8
  0
LAYER
  5
6
102
{ACAD_XDICTIONARY
360
461
102
}
330
1E
100
AcDbSymbolTableRecord
100
AcDbLayerTableRecord
  2
0
 70
     0
 62
     7
  6
Continuous
370
    -3
390
7
  0
LAYER
  5
4AD
330
1E
100
AcDbSymbolTableRecord
100
AcDbLayerTableRecord
  2
Defpoints
 70
     0
 62
     7
  6
Continuous
290
     0
370
    -3
390
7
  0
LAYER
  5
8C5
330
1E
100
AcDbSymbolTableRecord
100
AcDbLayerTableRecord
  2
SIZE
 70
     0
 62
    30
  6
Continuous
370
    -3
390
7
  0
LAYER
  5
8C6
330
1E
100
AcDbSymbolTableRecord
100
AcDbLayerTableRecord
  2
OUTLINE
 70
     0
 62
     3
  6
Continuous
370
    -3
390
7
  0
LAYER
  5
8C8
330
1E
100
AcDbSymbolTableRecord
100
AcDbLayerTableRecord
  2
BASIS
 70
     0
 62
     6
  6
DASHDOT
370
    -3
390
7
  0
LAYER
  5
8C9
330
1E
100
AcDbSymbolTableRecord
100
AcDbLayerTableRecord
  2
NOTE
 70
     0
 62
     4
  6
Continuous
370
    -3
390
7
  0
LAYER
  5
8CA
330
1E
100
AcDbSymbolTableRecord
100
AcDbLayerTableRecord
  2
ARRANGE
 70
     0
 62
     1
  6
Continuous
370
    -3
390
7
  0
LAYER
  5
8CB
330
1E
100
AcDbSymbolTableRecord
100
AcDbLayerTableRecord
  2
ETC
 70
     0
 62
    61
  6
Continuous
370
    -3
390
7
  0
ENDTAB
  0
TABLE
  2
STYLE
  5
21
330
0
100
AcDbSymbolTable
 70
     5
  0
STYLE
  5
22
330
21
100
AcDbSymbolTableRecord
100
AcDbTextStyleTableRecord
  2
Standard
 70
     0
 40
0.0
 41
1.0
 50
0.0
 71
     0
 42
43.66586864911549
  3
romans.shx
  4
bigfont.shx
  0
STYLE
  5
8CC
330
21
100
AcDbSymbolTableRecord
100
AcDbTextStyleTableRecord
  2
STANDARD1
 70
     0
 40
0.0
 41
1.0
 50
0.0
 71
     0
 42
3.5
  3
MONOTXT
  4
BIGFONT
  0
STYLE
  5
F41
330
21
100
AcDbSymbolTableRecord
100
AcDbTextStyleTableRecord
  2
ACISOTS
 70
     0
 40
1.0
 41
1.0
 50
0.0
 71
     0
 42
43.66586864911549
  3
isocp.shx
  4
extfont.shx
  0
STYLE
  5
F50
330
21
100
AcDbSymbolTableRecord
100
AcDbTextStyleTableRecord
  2
ACISOGDT
 70
     0
 40
0.0
 41
1.0
 50
0.0
 71
     0
 42
43.66586864911549
  3
amgdt.shx
  4

  0
STYLE
  5
F7B
330
21
100
AcDbSymbolTableRecord
100
AcDbTextStyleTableRecord
  2

 70
     1
 40
0.0
 41
1.0
 50
0.0
 71
     0
 42
2.5
  3
genltshp.shx
  4

  0
ENDTAB
  0
TABLE
  2
VIEW
  5
27
330
0
100
AcDbSymbolTable
 70
     0
  0
ENDTAB
  0
TABLE
  2
UCS
  5
28
330
0
100
AcDbSymbolTable
 70
     0
  0
ENDTAB
  0
TABLE
  2
APPID
  5
2D
330
0
100
AcDbSymbolTable
 70
    30
  0
APPID
  5
2E
330
2D
100
AcDbSymbolTableRecord
100
AcDbRegAppTableRecord
  2
ACAD
 70
     0
  0
APPID
  5
7D
330
2D
100
AcDbSymbolTableRecord
100
AcDbRegAppTableRecord
  2
AcAecLayerStandard
 70
     0
  0
APPID
  5
1D
330
2D
100
AcDbSymbolTableRecord
100
AcDbRegAppTableRecord
  2
ACAD_PSEXT
 70
     0
  0
APPID
  5
43D
330
2D
100
AcDbSymbolTableRecord
100
AcDbRegAppTableRecord
  2
ACATTRIBSERVICES
 70
     0
  0
APPID
  5
456
330
2D
100
AcDbSymbolTableRecord
100
AcDbRegAppTableRecord
  2
ACAD_MLEADERVER
 70
     0
  0
APPID
  5
45E
330
2D
100
AcDbSymbolTableRecord
100
AcDbRegAppTableRecord
  2
ACAD_DSTYLE_DIMJAG
 70
     0
  0
APPID
  5
45F
330
2D
100
AcDbSymbolTableRecord
100
AcDbRegAppTableRecord
  2
ACAD_DSTYLE_DIMTALN
 70
     0
  0
APPID
  5
568
330
2D
100
AcDbSymbolTableRecord
100
AcDbRegAppTableRecord
  2
ACAD_DSTYLE_DIMTEXT_FILL
 70
     0
  0
APPID
  5
569
330
2D
100
AcDbSymbolTableRecord
100
AcDbRegAppTableRecord
  2
ACAD_DSTYLE_DIMEXT_LENGTH
 70
     0
  0
APPID
  5
56A
330
2D
100
AcDbSymbolTableRecord
100
AcDbRegAppTableRecord
  2
ACAD_DSTYLE_DIMEXT_ENABLED
 70
     0
  0
APPID
  5
56B
330
2D
100
AcDbSymbolTableRecord
100
AcDbRegAppTableRecord
  2
ACAD_DSTYLE_DIM_LINETYPE
 70
     0
  0
APPID
  5
56C
330
2D
100
AcDbSymbolTableRecord
100
AcDbRegAppTableRecord
  2
ACAD_DSTYLE_DIM_EXT1_LINETYPE
 70
     0
  0
APPID
  5
56D
330
2D
100
AcDbSymbolTableRecord
100
AcDbRegAppTableRecord
  2
ACAD_DSTYLE_DIM_EXT2_LINETYPE
 70
     0
  0
APPID
  5
629
330
2D
100
AcDbSymbolTableRecord
100
AcDbRegAppTableRecord
  2
ACAD_DSTYLE_DIMJOGGED_JOGANGLE_SYMBOL
 70
     0
  0
APPID
  5
83D
330
2D
100
AcDbSymbolTableRecord
100
AcDbRegAppTableRecord
  2
ACAD_DSTYLE_DIMARC_LENGTH_SYMBOL
 70
     0
  0
APPID
  5
E1B
330
2D
100
AcDbSymbolTableRecord
100
AcDbRegAppTableRecord
  2
ACAD_EXEMPT_FROM_CAD_STANDARDS
 70
     0
  0
APPID
  5
E72
330
2D
100
AcDbSymbolTableRecord
100
AcDbRegAppTableRecord
  2
GENIUS_GENDIM_13
 70
     0
  0
APPID
  5
E73
330
2D
100
AcDbSymbolTableRecord
100
AcDbRegAppTableRecord
  2
GENIUS_GENDTOL_13
 70
     0
  0
APPID
  5
E74
330
2D
100
AcDbSymbolTableRecord
100
AcDbRegAppTableRecord
  2
GENIUS_GE3DTOL_13
 70
     0
  0
APPID
  5
E77
330
2D
100
AcDbSymbolTableRecord
100
AcDbRegAppTableRecord
  2
MCAD_NO_VIS
 70
     0
  0
APPID
  5
E78
330
2D
100
AcDbSymbolTableRecord
100
AcDbRegAppTableRecord
  2
ACAD_TEMP_GRAPHIC
 70
     0
  0
APPID
  5
EA9
330
2D
100
AcDbSymbolTableRecord
100
AcDbRegAppTableRecord
  2
AD_DRAW
 70
     0
  0
APPID
  5
EF7
330
2D
100
AcDbSymbolTableRecord
100
AcDbRegAppTableRecord
  2
ASURF_PCURVE_APPNAME
 70
     0
  0
APPID
  5
EFC
330
2D
100
AcDbSymbolTableRecord
100
AcDbRegAppTableRecord
  2
AMG_3D2D_5.0
 70
     0
  0
APPID
  5
F2D
330
2D
100
AcDbSymbolTableRecord
100
AcDbRegAppTableRecord
  2
DESIGNERASSEMBLIES
 70
     0
  0
APPID
  5
F38
330
2D
100
AcDbSymbolTableRecord
100
AcDbRegAppTableRecord
  2
ACADM_DIM_EDIT
 70
     0
  0
APPID
  5
F39
330
2D
100
AcDbSymbolTableRecord
100
AcDbRegAppTableRecord
  2
AMDT_DM_ADJ
 70
     0
  0
APPID
  5
F6C
330
2D
100
AcDbSymbolTableRecord
100
AcDbRegAppTableRecord
  2
GENIUS_GENSCREG_15
 70
     0
  0
APPID
  5
F6D
330
2D
100
AcDbSymbolTableRecord
100
AcDbRegAppTableRecord
  2
GENIUS_GENODEF_13
 70
     0
  0
APPID
  5
F6E
330
2D
100
AcDbSymbolTableRecord
100
AcDbRegAppTableRecord
  2
GENIUS_GENOBJ-N-SDF_13
 70
     0
  0
ENDTAB
  0
TABLE
  2
DIMSTYLE
  5
2F
330
0
100
AcDbSymbolTable
 70
    10
100
AcDbDimStyleTable
 71
     2
340
30
340
F5F
  0
DIMSTYLE
105
30
102
{ACAD_REACTORS
330
1C31
330
1C3E
330
1C4B
330
1C58
330
1C65
102
}
330
2F
100
AcDbSymbolTableRecord
100
AcDbDimStyleTableRecord
  2
ISO-25
 70
     0
 41
2.5
 42
0.625
 43
3.75
 44
1.25
 73
     0
 74
     0
 77
     1
 78
     8
140
2.5
141
2.5
143
0.03937007874016
147
0.625
171
     3
172
     1
271
     2
272
     2
274
     3
283
     0
284
     8
340
22
  0
DIMSTYLE
105
8CD
330
2F
100
AcDbSymbolTableRecord
100
AcDbDimStyleTableRecord
  2
STANDARD
 70
     0
275
     1
279
     2
284
     8
285
     8
286
     8
340
22
  0
DIMSTYLE
105
F5F
330
2F
100
AcDbSymbolTableRecord
100
AcDbDimStyleTableRecord
  2
AM_ISO
 70
     0
  4
"
 41
2.5
 42
1.0
 43
10.0
 44
1.0
 47
0.1
 48
0.1
 73
     0
 74
     0
 77
     1
 78
     8
 79
     2
140
3.5
141
0.0
143
0.0393701
146
0.71
147
1.5
172
     1
176
   256
177
   256
178
     2
271
     2
272
     3
274
     4
283
     0
284
     8
340
22
371
    -1
372
    -1
1001
ACAD_DSTYLE_DIMARC_LENGTH_SYMBOL
1070
   379
1070
     1
  0
DIMSTYLE
105
F60
330
2F
100
AcDbSymbolTableRecord
100
AcDbDimStyleTableRecord
  2
AM_ISO$3
 70
     0
  4
"
 40
5.0
 41
2.5
 42
1.0
 43
10.0
 44
1.0
 45
0.5
 47
0.1
 48
0.1
 73
     0
 77
     1
 78
     8
 79
     2
140
2.5
141
0.0
143
0.0393701
146
0.71
147
1.0
176
   256
177
   256
178
   256
271
     2
272
     2
283
     0
284
     8
288
     1
289
     0
340
22
342
48
371
    -1
372
    -1
1001
ACAD_DSTYLE_DIMJAG
1070
   388
1040
1.5
1001
ACAD_DSTYLE_DIMTALN
1070
   392
1070
     0
1001
ACAD_DSTYLE_DIMARC_LENGTH_SYMBOL
1070
   379
1070
     1
  0
DIMSTYLE
105
F61
330
2F
100
AcDbSymbolTableRecord
100
AcDbDimStyleTableRecord
  2
AM_ISO$4
 70
     0
  4
"
 41
2.5
 42
1.0
 43
10.0
 44
1.0
 47
0.1
 48
0.1
 73
     0
 77
     1
 78
     8
 79
     2
140
3.5
141
0.0
143
0.0393701
146
0.71
147
1.5
176
   256
177
   256
178
     2
271
     2
272
     3
274
     4
283
     0
284
     8
288
     1
289
     0
340
22
371
    -1
372
    -1
1001
ACAD_DSTYLE_DIMARC_LENGTH_SYMBOL
1070
   379
1070
     1
  0
DIMSTYLE
105
F62
330
2F
100
AcDbSymbolTableRecord
100
AcDbDimStyleTableRecord
  2
AM_ISO$6
 70
     0
  4
"
 41
2.5
 42
1.0
 43
10.0
 44
1.0
 47
0.1
 48
0.1
 73
     0
 74
     0
 78
     8
 79
     2
140
3.5
141
0.0
143
0.0393701
146
0.71
147
1.5
172
     1
176
   256
177
   256
178
     2
271
     2
272
     3
274
     4
283
     0
284
     8
340
22
371
    -1
372
    -1
1001
ACAD_DSTYLE_DIMARC_LENGTH_SYMBOL
1070
   379
1070
     1
  0
DIMSTYLE
105
F63
330
2F
100
AcDbSymbolTableRecord
100
AcDbDimStyleTableRecord
  2
AM_ISO$7
 70
     0
  4
"
 41
2.5
 42
1.0
 43
10.0
 44
1.0
 47
0.1
 48
0.1
 73
     0
 74
     0
 77
     1
 78
     8
 79
     2
140
5.0
141
0.0
143
0.0393701
146
0.71
147
1.5
172
     1
176
   256
177
   256
178
     2
271
     2
272
     3
274
     4
283
     0
284
     8
340
22
371
    -1
372
    -1
1001
ACAD_DSTYLE_DIMARC_LENGTH_SYMBOL
1070
   379
1070
     1
  0
DIMSTYLE
105
F64
330
2F
100
AcDbSymbolTableRecord
100
AcDbDimStyleTableRecord
  2
AM_ISO$SF
 70
     0
  4
"
 41
2.5
 42
1.0
 43
10.0
 44
1.0
 47
0.1
 48
0.1
 73
     0
 74
     0
 75
     1
 76
     1
 77
     1
 78
     8
 79
     2
140
3.5
141
0.0
143
0.0393701
146
0.71
147
1.5
172
     1
176
   256
177
   256
178
     2
271
     2
272
     3
274
     4
283
     0
284
     8
340
22
371
    -1
372
    -1
1001
ACAD_DSTYLE_DIMARC_LENGTH_SYMBOL
1070
   379
1070
     1
  0
DIMSTYLE
105
F69
330
2F
100
AcDbSymbolTableRecord
100
AcDbDimStyleTableRecord
  2
AM_ISO$SH
 70
     0
  4
"
 41
2.5
 42
1.0
 43
10.0
 44
1.0
 47
0.1
 48
0.1
 73
     0
 74
     0
 75
     1
 76
     1
 77
     1
 78
     8
 79
     2
140
3.5
141
0.0
143
0.0393701
144
2.0
146
0.71
147
1.5
172
     1
173
     1
176
   256
177
   256
178
     2
271
     2
272
     3
274
     4
283
     0
284
     8
340
22
343
F65
371
    -1
372
    -1
1001
ACAD_DSTYLE_DIMARC_LENGTH_SYMBOL
1070
   379
1070
     1
  0
DIMSTYLE
105
F7C
330
2F
100
AcDbSymbolTableRecord
100
AcDbDimStyleTableRecord
  2
AM_JIS
 70
     0
  4
"
 41
2.5
 42
1.0
 43
10.0
 44
1.0
 47
0.1
 48
0.1
 73
     0
 74
     0
 77
     3
 78
     8
 79
     2
140
3.5
141
0.0
143
0.0393701
146
0.71
147
1.5
172
     1
176
   256
177
   256
178
     2
271
     2
272
     3
274
     4
283
     0
284
     8
340
22
341
48
342
48
343
48
344
48
371
    -1
372
    -1
1001
ACAD_DSTYLE_DIMARC_LENGTH_SYMBOL
1070
   379
1070
     1
  0
ENDTAB
  0
TABLE
  2
BLOCK_RECORD
  5
1
330
0
100
AcDbSymbolTable
 70
    42
  0
BLOCK_RECORD
  5
2
102
{ACAD_XDICTIONARY
360
3
102
}
330
1
100
AcDbSymbolTableRecord
100
AcDbBlockTableRecord
  2
*Model_Space
340
15
  0
BLOCK_RECORD
  5
17
330
1
100
AcDbSymbolTableRecord
100
AcDbBlockTableRecord
  2
*Paper_Space
340
1A
  0
BLOCK_RECORD
  5
48
330
1
100
AcDbSymbolTableRecord
100
AcDbBlockTableRecord
  2
_OPEN30
340
0
102
{BLKREFS
331
4B4
331
4B5
331
4C1
331
4C2
331
4CE
331
4CF
331
4F5
331
4F6
331
502
331
503
331
E24
331
E25
331
E2D
331
E2E
331
E36
331
E37
331
E3F
331
E40
331
E48
331
E49
331
E51
331
E52
331
10CE
331
10CF
331
10DB
331
10DC
331
10E8
331
10E9
331
10F5
331
10F6
331
12B9
331
12BA
331
12CF
331
12D0
331
12DC
331
12DD
331
12E9
331
12EA
331
12F6
331
12F7
331
13F4
331
13F5
331
15A2
331
15A3
331
15B8
331
15B9
331
15C5
331
15C6
331
15D2
331
15D3
331
15DF
331
15E0
331
1924
331
1925
331
192D
331
192E
331
1936
331
1937
331
1945
331
1946
331
1952
331
1953
331
1A58
331
1A59
331
1C38
331
1C39
331
1C45
331
1C46
331
1C52
331
1C53
331
1C5F
331
1C60
331
1C75
331
1C76
102
}
  0
BLOCK_RECORD
  5
4E
330
1
100
AcDbSymbolTableRecord
100
AcDbBlockTableRecord
  2
_DOTSMALL
340
0
  0
BLOCK_RECORD
  5
4AE
330
1
100
AcDbSymbolTableRecord
100
AcDbBlockTableRecord
  2
*D2
340
0
  0
BLOCK_RECORD
  5
4BB
330
1
100
AcDbSymbolTableRecord
100
AcDbBlockTableRecord
  2
*D3
340
0
  0
BLOCK_RECORD
  5
4C8
330
1
100
AcDbSymbolTableRecord
100
AcDbBlockTableRecord
  2
*D4
340
0
  0
BLOCK_RECORD
  5
4D5
330
1
100
AcDbSymbolTableRecord
100
AcDbBlockTableRecord
  2
*D5
340
0
  0
BLOCK_RECORD
  5
4E2
330
1
100
AcDbSymbolTableRecord
100
AcDbBlockTableRecord
  2
*D6
340
0
  0
BLOCK_RECORD
  5
4EF
330
1
100
AcDbSymbolTableRecord
100
AcDbBlockTableRecord
  2
*D7
340
0
  0
BLOCK_RECORD
  5
4FC
330
1
100
AcDbSymbolTableRecord
100
AcDbBlockTableRecord
  2
*D8
340
0
  0
BLOCK_RECORD
  5
51D
330
1
100
AcDbSymbolTableRecord
100
AcDbBlockTableRecord
  2
*D9
340
0
  0
BLOCK_RECORD
  5
52A
330
1
100
AcDbSymbolTableRecord
100
AcDbBlockTableRecord
  2
*D10
340
0
  0
BLOCK_RECORD
  5
537
330
1
100
AcDbSymbolTableRecord
100
AcDbBlockTableRecord
  2
*D11
340
0
  0
BLOCK_RECORD
  5
544
330
1
100
AcDbSymbolTableRecord
100
AcDbBlockTableRecord
  2
*D12
340
0
  0
BLOCK_RECORD
  5
8BF
330
1
100
AcDbSymbolTableRecord
100
AcDbBlockTableRecord
  2
_DOTBLANK
340
0
  0
BLOCK_RECORD
  5
F65
330
1
100
AcDbSymbolTableRecord
100
AcDbBlockTableRecord
  2
GENAXEH
340
0
  0
BLOCK_RECORD
  5
10C8
330
1
100
AcDbSymbolTableRecord
100
AcDbBlockTableRecord
  2
*D15
340
0
  0
BLOCK_RECORD
  5
10D5
330
1
100
AcDbSymbolTableRecord
100
AcDbBlockTableRecord
  2
*D16
340
0
  0
BLOCK_RECORD
  5
10E2
330
1
100
AcDbSymbolTableRecord
100
AcDbBlockTableRecord
  2
*D17
340
0
  0
BLOCK_RECORD
  5
10EF
330
1
100
AcDbSymbolTableRecord
100
AcDbBlockTableRecord
  2
*D18
340
0
  0
BLOCK_RECORD
  5
12B3
330
1
100
AcDbSymbolTableRecord
100
AcDbBlockTableRecord
  2
*D19
340
0
  0
BLOCK_RECORD
  5
12C0
330
1
100
AcDbSymbolTableRecord
100
AcDbBlockTableRecord
  2
*D20
340
0
  0
BLOCK_RECORD
  5
12D6
330
1
100
AcDbSymbolTableRecord
100
AcDbBlockTableRecord
  2
*D21
340
0
  0
BLOCK_RECORD
  5
12E3
330
1
100
AcDbSymbolTableRecord
100
AcDbBlockTableRecord
  2
*D22
340
0
  0
BLOCK_RECORD
  5
12F0
330
1
100
AcDbSymbolTableRecord
100
AcDbBlockTableRecord
  2
*D23
340
0
  0
BLOCK_RECORD
  5
13EE
330
1
100
AcDbSymbolTableRecord
100
AcDbBlockTableRecord
  2
*D24
340
0
  0
BLOCK_RECORD
  5
159C
330
1
100
AcDbSymbolTableRecord
100
AcDbBlockTableRecord
  2
*D25
340
0
  0
BLOCK_RECORD
  5
15A9
330
1
100
AcDbSymbolTableRecord
100
AcDbBlockTableRecord
  2
*D26
340
0
  0
BLOCK_RECORD
  5
15BF
330
1
100
AcDbSymbolTableRecord
100
AcDbBlockTableRecord
  2
*D27
340
0
  0
BLOCK_RECORD
  5
15CC
330
1
100
AcDbSymbolTableRecord
100
AcDbBlockTableRecord
  2
*D28
340
0
  0
BLOCK_RECORD
  5
15D9
330
1
100
AcDbSymbolTableRecord
100
AcDbBlockTableRecord
  2
*D29
340
0
  0
BLOCK_RECORD
  5
18C4
330
1
100
AcDbSymbolTableRecord
100
AcDbBlockTableRecord
  2
*D30
340
0
  0
BLOCK_RECORD
  5
18D1
330
1
100
AcDbSymbolTableRecord
100
AcDbBlockTableRecord
  2
*D31
340
0
  0
BLOCK_RECORD
  5
18DE
330
1
100
AcDbSymbolTableRecord
100
AcDbBlockTableRecord
  2
*D32
340
0
  0
BLOCK_RECORD
  5
193F
330
1
100
AcDbSymbolTableRecord
100
AcDbBlockTableRecord
  2
*D33
340
0
  0
BLOCK_RECORD
  5
194C
330
1
100
AcDbSymbolTableRecord
100
AcDbBlockTableRecord
  2
*D34
340
0
  0
BLOCK_RECORD
  5
1A52
330
1
100
AcDbSymbolTableRecord
100
AcDbBlockTableRecord
  2
*D35
340
0
  0
BLOCK_RECORD
  5
1C32
330
1
100
AcDbSymbolTableRecord
100
AcDbBlockTableRecord
  2
*D36
340
0
  0
BLOCK_RECORD
  5
1C3F
330
1
100
AcDbSymbolTableRecord
100
AcDbBlockTableRecord
  2
*D37
340
0
  0
BLOCK_RECORD
  5
1C4C
330
1
100
AcDbSymbolTableRecord
100
AcDbBlockTableRecord
  2
*D38
340
0
  0
BLOCK_RECORD
  5
1C59
330
1
100
AcDbSymbolTableRecord
100
AcDbBlockTableRecord
  2
*D39
340
0
  0
BLOCK_RECORD
  5
1C66
330
1
100
AcDbSymbolTableRecord
100
AcDbBlockTableRecord
  2
*D40
340
0
  0
ENDTAB
  0
ENDSEC
  0
SECTION
  2
BLOCKS
  0
BLOCK
  5
5
330
2
100
AcDbEntity
  8
0
100
AcDbBlockBegin
  2
*Model_Space
 70
     0
 10
0.0
 20
0.0
 30
0.0
  3
*Model_Space
  1

  0
ENDBLK
  5
14
330
2
100
AcDbEntity
  8
0
100
AcDbBlockEnd
  0
BLOCK
  5
18
330
17
100
AcDbEntity
 67
     1
  8
0
100
AcDbBlockBegin
  2
*Paper_Space
 70
     0
 10
0.0
 20
0.0
 30
0.0
  3
*Paper_Space
  1

  0
ENDBLK
  5
19
330
17
100
AcDbEntity
 67
     1
  8
0
100
AcDbBlockEnd
  0
BLOCK
  5
49
330
48
100
AcDbEntity
  8
0
100
AcDbBlockBegin
  2
_OPEN30
 70
     0
 10
0.0
 20
0.0
 30
0.0
  3
_OPEN30
  1

  0
LINE
  5
4A
330
48
100
AcDbEntity
  8
0
  6
ByBlock
 62
     0
100
AcDbLine
 10
-1.0
 20
0.26794919
 30
0.0
 11
0.0
 21
0.0
 31
0.0
  0
LINE
  5
4B
330
48
100
AcDbEntity
  8
0
  6
ByBlock
 62
     0
100
AcDbLine
 10
0.0
 20
0.0
 30
0.0
 11
-1.0
 21
-0.26794919
 31
0.0
  0
LINE
  5
4C
330
48
100
AcDbEntity
  8
0
  6
ByBlock
 62
     0
100
AcDbLine
 10
0.0
 20
0.0
 30
0.0
 11
-1.0
 21
0.0
 31
0.0
  0
ENDBLK
  5
4D
330
48
100
AcDbEntity
  8
0
100
AcDbBlockEnd
  0
BLOCK
  5
4F
330
4E
100
AcDbEntity
  8
0
100
AcDbBlockBegin
  2
_DOTSMALL
 70
     0
 10
0.0
 20
0.0
 30
0.0
  3
_DOTSMALL
  1

  0
POLYLINE
  5
50
330
4E
100
AcDbEntity
  8
0
  6
ByBlock
 62
     0
100
AcDb2dPolyline
 66
     1
 10
0.0
 20
0.0
 30
0.0
 70
     1
 40
0.5
 41
0.5
  0
VERTEX
  5
51
330
50
100
AcDbEntity
  8
0
  6
ByBlock
 62
     0
100
AcDbVertex
100
AcDb2dVertex
 10
-0.0625
 20
0.0
 30
0.0
 42
1.0
  0
VERTEX
  5
52
330
50
100
AcDbEntity
  8
0
  6
ByBlock
 62
     0
100
AcDbVertex
100
AcDb2dVertex
 10
0.0625
 20
0.0
 30
0.0
 42
1.0
  0
SEQEND
  5
53
330
50
100
AcDbEntity
  8
0
  6
ByBlock
 62
     0
  0
ENDBLK
  5
54
330
4E
100
AcDbEntity
  8
0
100
AcDbBlockEnd
  0
BLOCK
  5
4AF
330
4AE
100
AcDbEntity
  8
0
100
AcDbBlockBegin
  2
*D2
 70
     1
 10
0.0
 20
0.0
 30
0.0
  3
*D2
  1

  0
LINE
  5
4B1
330
4AE
100
AcDbEntity
  8
0
 62
     0
370
    -2
100
AcDbLine
 10
-194.8675214458474
 20
-678.2086960099698
 30
0.0
 11
-194.8675214458474
 21
-846.7178620381444
 31
0.0
  0
LINE
  5
4B2
330
4AE
100
AcDbEntity
  8
0
 62
     0
370
    -2
100
AcDbLine
 10
451.7324785541525
 20
-678.20869600997
 30
0.0
 11
451.7324785541525
 21
-846.7178620381444
 31
0.0
  0
LINE
  5
4B3
330
4AE
100
AcDbEntity
  8
0
 62
     0
370
    -2
100
AcDbLine
 10
-182.3675214458473
 20
-840.4678620381444
 30
0.0
 11
439.2324785541525
 21
-840.4678620381444
 31
0.0
  0
INSERT
  5
4B4
330
4AE
100
AcDbEntity
  8
0
 62
     0
370
    -2
100
AcDbBlockReference
  2
_OPEN30
 10
-194.8675214458474
 20
-840.4678620381444
 30
0.0
 41
12.5
 42
12.5
 43
12.5
 50
180.0
  0
INSERT
  5
4B5
330
4AE
100
AcDbEntity
  8
0
 62
     0
370
    -2
100
AcDbBlockReference
  2
_OPEN30
 10
451.7324785541525
 20
-840.4678620381444
 30
0.0
 41
12.5
 42
12.5
 43
12.5
  0
MTEXT
  5
4B6
330
4AE
100
AcDbEntity
  8
0
 62
     0
100
AcDbMText
 10
128.4324785541526
 20
-831.0928620381444
 30
0.0
 40
12.5
 41
0.0
 71
     5
 72
     1
  1
646.6
 73
     1
 44
1.0
1001
ACAD
1000
MTEXTBEGIN
1070
    73
1070
     1
1070
    44
1040
1.0
1070
    74
1070
     0
1000
MTEXTEND
  0
POINT
  5
4B7
330
4AE
100
AcDbEntity
  8
Defpoints
 62
     0
100
AcDbPoint
 10
-194.8675214458474
 20
-675.0836960099698
 30
0.0
  0
POINT
  5
4B8
330
4AE
100
AcDbEntity
  8
Defpoints
 62
     0
100
AcDbPoint
 10
451.7324785541525
 20
-675.08369600997
 30
0.0
  0
POINT
  5
4B9
330
4AE
100
AcDbEntity
  8
Defpoints
 62
     0
100
AcDbPoint
 10
451.7324785541525
 20
-840.4678620381444
 30
0.0
  0
ENDBLK
  5
4B0
330
4AE
100
AcDbEntity
  8
0
100
AcDbBlockEnd
  0
BLOCK
  5
4BC
330
4BB
100
AcDbEntity
  8
0
100
AcDbBlockBegin
  2
*D3
 70
     1
 10
0.0
 20
0.0
 30
0.0
  3
*D3
  1

  0
LINE
  5
4BE
330
4BB
100
AcDbEntity
  8
0
 62
     0
370
    -2
100
AcDbLine
 10
-189.3675214458475
 20
-690.0006960099707
 30
0.0
 11
-189.3675214458475
 21
-819.1365945488973
 31
0.0
  0
LINE
  5
4BF
330
4BB
100
AcDbEntity
  8
0
 62
     0
370
    -2
100
AcDbLine
 10
446.2324785541524
 20
-690.0006960099694
 30
0.0
 11
446.2324785541524
 21
-819.1365945488973
 31
0.0
  0
LINE
  5
4C0
330
4BB
100
AcDbEntity
  8
0
 62
     0
370
    -2
100
AcDbLine
 10
-176.8675214458475
 20
-812.8865945488973
 30
0.0
 11
433.7324785541524
 21
-812.8865945488973
 31
0.0
  0
INSERT
  5
4C1
330
4BB
100
AcDbEntity
  8
0
 62
     0
370
    -2
100
AcDbBlockReference
  2
_OPEN30
 10
-189.3675214458475
 20
-812.8865945488973
 30
0.0
 41
12.5
 42
12.5
 43
12.5
 50
180.0
  0
INSERT
  5
4C2
330
4BB
100
AcDbEntity
  8
0
 62
     0
370
    -2
100
AcDbBlockReference
  2
_OPEN30
 10
446.2324785541524
 20
-812.8865945488973
 30
0.0
 41
12.5
 42
12.5
 43
12.5
  0
MTEXT
  5
4C3
330
4BB
100
AcDbEntity
  8
0
 62
     0
100
AcDbMText
 10
128.4324785541525
 20
-803.5115945488973
 30
0.0
 40
12.5
 41
0.0
 71
     5
 72
     1
  1
635.6
 73
     1
 44
1.0
1001
ACAD
1000
MTEXTBEGIN
1070
    73
1070
     1
1070
    44
1040
1.0
1070
    74
1070
     0
1000
MTEXTEND
  0
POINT
  5
4C4
330
4BB
100
AcDbEntity
  8
Defpoints
 62
     0
100
AcDbPoint
 10
-189.3675214458475
 20
-686.8756960099707
 30
0.0
  0
POINT
  5
4C5
330
4BB
100
AcDbEntity
  8
Defpoints
 62
     0
100
AcDbPoint
 10
446.2324785541524
 20
-686.8756960099694
 30
0.0
  0
POINT
  5
4C6
330
4BB
100
AcDbEntity
  8
Defpoints
 62
     0
100
AcDbPoint
 10
446.2324785541524
 20
-812.8865945488973
 30
0.0
  0
ENDBLK
  5
4BD
330
4BB
100
AcDbEntity
  8
0
100
AcDbBlockEnd
  0
BLOCK
  5
4C9
330
4C8
100
AcDbEntity
  8
0
100
AcDbBlockBegin
  2
*D4
 70
     1
 10
0.0
 20
0.0
 30
0.0
  3
*D4
  1

  0
LINE
  5
4CB
330
4C8
100
AcDbEntity
  8
0
 62
     0
370
    -2
100
AcDbLine
 10
-90.86752144584741
 20
-686.3784984212777
 30
0.0
 11
-90.86752144584741
 21
-789.3963279745886
 31
0.0
  0
LINE
  5
4CC
330
4C8
100
AcDbEntity
  8
0
 62
     0
370
    -2
100
AcDbLine
 10
128.3824785541525
 20
-686.3784984212777
 30
0.0
 11
128.3824785541525
 21
-789.3963279745886
 31
0.0
  0
LINE
  5
4CD
330
4C8
100
AcDbEntity
  8
0
 62
     0
370
    -2
100
AcDbLine
 10
-78.36752144584739
 20
-783.1463279745886
 30
0.0
 11
115.8824785541525
 21
-783.1463279745886
 31
0.0
  0
INSERT
  5
4CE
330
4C8
100
AcDbEntity
  8
0
 62
     0
370
    -2
100
AcDbBlockReference
  2
_OPEN30
 10
-90.86752144584741
 20
-783.1463279745886
 30
0.0
 41
12.5
 42
12.5
 43
12.5
 50
180.0
  0
INSERT
  5
4CF
330
4C8
100
AcDbEntity
  8
0
 62
     0
370
    -2
100
AcDbBlockReference
  2
_OPEN30
 10
128.3824785541525
 20
-783.1463279745886
 30
0.0
 41
12.5
 42
12.5
 43
12.5
  0
MTEXT
  5
4D0
330
4C8
100
AcDbEntity
  8
0
 62
     0
100
AcDbMText
 10
18.75747855415258
 20
-773.7713279745886
 30
0.0
 40
12.5
 41
0.0
 71
     5
 72
     1
  1
219.25
 73
     1
 44
1.0
1001
ACAD
1000
MTEXTBEGIN
1070
    73
1070
     1
1070
    44
1040
1.0
1070
    74
1070
     0
1000
MTEXTEND
  0
POINT
  5
4D1
330
4C8
100
AcDbEntity
  8
Defpoints
 62
     0
100
AcDbPoint
 10
-90.86752144584741
 20
-683.2534984212777
 30
0.0
  0
POINT
  5
4D2
330
4C8
100
AcDbEntity
  8
Defpoints
 62
     0
100
AcDbPoint
 10
128.3824785541525
 20
-683.2534984212777
 30
0.0
  0
POINT
  5
4D3
330
4C8
100
AcDbEntity
  8
Defpoints
 62
     0
100
AcDbPoint
 10
128.3824785541525
 20
-783.1463279745886
 30
0.0
  0
ENDBLK
  5
4CA
330
4C8
100
AcDbEntity
  8
0
100
AcDbBlockEnd
  0
BLOCK
  5
4D6
330
4D5
100
AcDbEntity
  8
0
100
AcDbBlockBegin
  2
*D5
 70
     1
 10
0.0
 20
0.0
 30
0.0
  3
*D5
  1

  0
LINE
  5
E3C
330
4D5
100
AcDbEntity
  8
SIZE
 62
     0
370
    -2
100
AcDbLine
 10
-90.86752144584741
 20
-686.3784984212777
 30
0.0
 11
-90.86752144584741
 21
-788.088621018515
 31
0.0
  0
LINE
  5
E3D
330
4D5
100
AcDbEntity
  8
SIZE
 62
     0
370
    -2
100
AcDbLine
 10
128.3824785541525
 20
-686.3784984212777
 30
0.0
 11
128.3824785541525
 21
-788.088621018515
 31
0.0
  0
LINE
  5
E3E
330
4D5
100
AcDbEntity
  8
SIZE
 62
     0
370
    -2
100
AcDbLine
 10
-78.3675214458474
 20
-781.838621018515
 30
0.0
 11
115.8824785541525
 21
-781.838621018515
 31
0.0
  0
INSERT
  5
E3F
330
4D5
100
AcDbEntity
  8
SIZE
 62
     0
370
    -2
100
AcDbBlockReference
  2
_OPEN30
 10
-90.86752144584741
 20
-781.838621018515
 30
0.0
 41
12.5
 42
12.5
 43
12.5
 50
180.0
  0
INSERT
  5
E40
330
4D5
100
AcDbEntity
  8
SIZE
 62
     0
370
    -2
100
AcDbBlockReference
  2
_OPEN30
 10
128.3824785541525
 20
-781.838621018515
 30
0.0
 41
12.5
 42
12.5
 43
12.5
  0
MTEXT
  5
E41
330
4D5
100
AcDbEntity
  8
SIZE
 62
     0
100
AcDbMText
 10
18.75747855415255
 20
-772.463621018515
 30
0.0
 40
12.5
 41
0.0
 71
     5
 72
     1
  1
219
 73
     1
 44
1.0
1001
ACAD
1000
MTEXTBEGIN
1070
    73
1070
     1
1070
    44
1040
1.0
1070
    74
1070
     0
1000
MTEXTEND
  0
POINT
  5
E42
330
4D5
100
AcDbEntity
  8
Defpoints
 62
     0
100
AcDbPoint
 10
-90.86752144584741
 20
-683.2534984212777
 30
0.0
  0
POINT
  5
E43
330
4D5
100
AcDbEntity
  8
Defpoints
 62
     0
100
AcDbPoint
 10
128.3824785541525
 20
-683.2534984212777
 30
0.0
  0
POINT
  5
E44
330
4D5
100
AcDbEntity
  8
Defpoints
 62
     0
100
AcDbPoint
 10
128.3824785541525
 20
-781.838621018515
 30
0.0
  0
ENDBLK
  5
4D7
330
4D5
100
AcDbEntity
  8
0
100
AcDbBlockEnd
  0
BLOCK
  5
4E3
330
4E2
100
AcDbEntity
  8
0
100
AcDbBlockBegin
  2
*D6
 70
     1
 10
0.0
 20
0.0
 30
0.0
  3
*D6
  1

  0
LINE
  5
E33
330
4E2
100
AcDbEntity
  8
SIZE
 62
     0
370
    -2
100
AcDbLine
 10
128.3824785541525
 20
-689.5034984212777
 30
0.0
 11
128.3824785541525
 21
-788.088621018515
 31
0.0
  0
LINE
  5
E34
330
4E2
100
AcDbEntity
  8
SIZE
 62
     0
370
    -2
100
AcDbLine
 10
347.6324785541526
 20
-686.3784984212777
 30
0.0
 11
347.6324785541526
 21
-788.088621018515
 31
0.0
  0
LINE
  5
E35
330
4E2
100
AcDbEntity
  8
SIZE
 62
     0
370
    -2
100
AcDbLine
 10
140.8824785541525
 20
-781.838621018515
 30
0.0
 11
335.1324785541527
 21
-781.838621018515
 31
0.0
  0
INSERT
  5
E36
330
4E2
100
AcDbEntity
  8
SIZE
 62
     0
370
    -2
100
AcDbBlockReference
  2
_OPEN30
 10
128.3824785541525
 20
-781.838621018515
 30
0.0
 41
12.5
 42
12.5
 43
12.5
 50
180.0
  0
INSERT
  5
E37
330
4E2
100
AcDbEntity
  8
SIZE
 62
     0
370
    -2
100
AcDbBlockReference
  2
_OPEN30
 10
347.6324785541526
 20
-781.838621018515
 30
0.0
 41
12.5
 42
12.5
 43
12.5
  0
MTEXT
  5
E38
330
4E2
100
AcDbEntity
  8
SIZE
 62
     0
100
AcDbMText
 10
238.0074785541526
 20
-772.463621018515
 30
0.0
 40
12.5
 41
0.0
 71
     5
 72
     1
  1
219
 73
     1
 44
1.0
1001
ACAD
1000
MTEXTBEGIN
1070
    73
1070
     1
1070
    44
1040
1.0
1070
    74
1070
     0
1000
MTEXTEND
  0
POINT
  5
E39
330
4E2
100
AcDbEntity
  8
Defpoints
 62
     0
100
AcDbPoint
 10
128.3824785541525
 20
-686.3784984212777
 30
0.0
  0
POINT
  5
E3A
330
4E2
100
AcDbEntity
  8
Defpoints
 62
     0
100
AcDbPoint
 10
347.6324785541526
 20
-683.2534984212777
 30
0.0
  0
POINT
  5
E3B
330
4E2
100
AcDbEntity
  8
Defpoints
 62
     0
100
AcDbPoint
 10
347.6324785541526
 20
-781.838621018515
 30
0.0
  0
ENDBLK
  5
4E4
330
4E2
100
AcDbEntity
  8
0
100
AcDbBlockEnd
  0
BLOCK
  5
4F0
330
4EF
100
AcDbEntity
  8
0
100
AcDbBlockBegin
  2
*D7
 70
     1
 10
0.0
 20
0.0
 30
0.0
  3
*D7
  1

  0
LINE
  5
4F2
330
4EF
100
AcDbEntity
  8
0
 62
     0
370
    -2
100
AcDbLine
 10
-181.8675214458474
 20
-346.9586960099698
 30
0.0
 11
-181.8675214458474
 21
-277.0422183717141
 31
0.0
  0
LINE
  5
4F3
330
4EF
100
AcDbEntity
  8
0
 62
     0
370
    -2
100
AcDbLine
 10
438.7324785541525
 20
-346.95869600997
 30
0.0
 11
438.7324785541525
 21
-277.0422183717141
 31
0.0
  0
LINE
  5
4F4
330
4EF
100
AcDbEntity
  8
0
 62
     0
370
    -2
100
AcDbLine
 10
-169.3675214458474
 20
-283.2922183717141
 30
0.0
 11
426.2324785541525
 21
-283.2922183717141
 31
0.0
  0
INSERT
  5
4F5
330
4EF
100
AcDbEntity
  8
0
 62
     0
370
    -2
100
AcDbBlockReference
  2
_OPEN30
 10
-181.8675214458474
 20
-283.2922183717141
 30
0.0
 41
12.5
 42
12.5
 43
12.5
 50
180.0
  0
INSERT
  5
4F6
330
4EF
100
AcDbEntity
  8
0
 62
     0
370
    -2
100
AcDbBlockReference
  2
_OPEN30
 10
438.7324785541525
 20
-283.2922183717141
 30
0.0
 41
12.5
 42
12.5
 43
12.5
  0
MTEXT
  5
4F7
330
4EF
100
AcDbEntity
  8
0
 62
     0
100
AcDbMText
 10
128.4324785541526
 20
-273.9172183717141
 30
0.0
 40
12.5
 41
0.0
 71
     5
 72
     1
  1
620.6
 73
     1
 44
1.0
1001
ACAD
1000
MTEXTBEGIN
1070
    73
1070
     1
1070
    44
1040
1.0
1070
    74
1070
     0
1000
MTEXTEND
  0
POINT
  5
4F8
330
4EF
100
AcDbEntity
  8
Defpoints
 62
     0
100
AcDbPoint
 10
-181.8675214458474
 20
-350.0836960099698
 30
0.0
  0
POINT
  5
4F9
330
4EF
100
AcDbEntity
  8
Defpoints
 62
     0
100
AcDbPoint
 10
438.7324785541525
 20
-350.08369600997
 30
0.0
  0
POINT
  5
4FA
330
4EF
100
AcDbEntity
  8
Defpoints
 62
     0
100
AcDbPoint
 10
438.7324785541525
 20
-283.2922183717141
 30
0.0
  0
ENDBLK
  5
4F1
330
4EF
100
AcDbEntity
  8
0
100
AcDbBlockEnd
  0
BLOCK
  5
4FD
330
4FC
100
AcDbEntity
  8
0
100
AcDbBlockBegin
  2
*D8
 70
     1
 10
0.0
 20
0.0
 30
0.0
  3
*D8
  1

  0
LINE
  5
4FF
330
4FC
100
AcDbEntity
  8
0
 62
     0
370
    -2
100
AcDbLine
 10
-183.9925214458475
 20
-348.417670606186
 30
0.0
 11
-316.3657843997539
 21
-348.417670606186
 31
0.0
  0
LINE
  5
500
330
4FC
100
AcDbEntity
  8
0
 62
     0
370
    -2
100
AcDbLine
 10
-197.9925214458474
 20
-675.0836960099698
 30
0.0
 11
-316.365784399754
 21
-675.0836960099698
 31
0.0
  0
LINE
  5
501
330
4FC
100
AcDbEntity
  8
0
 62
     0
370
    -2
100
AcDbLine
 10
-310.1157843997539
 20
-360.917670606186
 30
0.0
 11
-310.115784399754
 21
-662.5836960099698
 31
0.0
  0
INSERT
  5
502
330
4FC
100
AcDbEntity
  8
0
 62
     0
370
    -2
100
AcDbBlockReference
  2
_OPEN30
 10
-310.1157843997539
 20
-348.417670606186
 30
0.0
 41
12.5
 42
12.5
 43
12.5
 50
90.0
  0
INSERT
  5
503
330
4FC
100
AcDbEntity
  8
0
 62
     0
370
    -2
100
AcDbBlockReference
  2
_OPEN30
 10
-310.115784399754
 20
-675.0836960099698
 30
0.0
 41
12.5
 42
12.5
 43
12.5
 50
270.0
  0
MTEXT
  5
504
330
4FC
100
AcDbEntity
  8
0
 62
     0
100
AcDbMText
 10
-319.4907843997539
 20
-511.750683308078
 30
0.0
 40
12.5
 41
0.0
 71
     5
 72
     1
  1
326.7
 11
0.0000000000000001
 21
1.0
 31
0.0
 73
     1
 44
1.0
1001
ACAD
1000
MTEXTBEGIN
1070
    73
1070
     1
1070
    44
1040
1.0
1070
    74
1070
     0
1000
MTEXTEND
  0
POINT
  5
505
330
4FC
100
AcDbEntity
  8
Defpoints
 62
     0
100
AcDbPoint
 10
-180.8675214458475
 20
-348.417670606186
 30
0.0
  0
POINT
  5
506
330
4FC
100
AcDbEntity
  8
Defpoints
 62
     0
100
AcDbPoint
 10
-194.8675214458474
 20
-675.0836960099698
 30
0.0
  0
POINT
  5
507
330
4FC
100
AcDbEntity
  8
Defpoints
 62
     0
100
AcDbPoint
 10
-310.115784399754
 20
-675.0836960099698
 30
0.0
  0
ENDBLK
  5
4FE
330
4FC
100
AcDbEntity
  8
0
100
AcDbBlockEnd
  0
BLOCK
  5
51E
330
51D
100
AcDbEntity
  8
0
100
AcDbBlockBegin
  2
*D9
 70
     1
 10
0.0
 20
0.0
 30
0.0
  3
*D9
  1

  0
LINE
  5
E4E
330
51D
100
AcDbEntity
  8
SIZE
 62
     0
370
    -2
100
AcDbLine
 10
-189.3675214458475
 20
-690.0006960099707
 30
0.0
 11
-189.3675214458475
 21
-788.088621018515
 31
0.0
  0
LINE
  5
E4F
330
51D
100
AcDbEntity
  8
SIZE
 62
     0
370
    -2
100
AcDbLine
 10
-90.86752144584741
 20
-686.3784984212777
 30
0.0
 11
-90.86752144584741
 21
-788.088621018515
 31
0.0
  0
LINE
  5
E50
330
51D
100
AcDbEntity
  8
SIZE
 62
     0
370
    -2
100
AcDbLine
 10
-176.8675214458475
 20
-781.838621018515
 30
0.0
 11
-103.3675214458474
 21
-781.838621018515
 31
0.0
  0
INSERT
  5
E51
330
51D
100
AcDbEntity
  8
SIZE
 62
     0
370
    -2
100
AcDbBlockReference
  2
_OPEN30
 10
-189.3675214458475
 20
-781.838621018515
 30
0.0
 41
12.5
 42
12.5
 43
12.5
 50
180.0
  0
INSERT
  5
E52
330
51D
100
AcDbEntity
  8
SIZE
 62
     0
370
    -2
100
AcDbBlockReference
  2
_OPEN30
 10
-90.86752144584741
 20
-781.838621018515
 30
0.0
 41
12.5
 42
12.5
 43
12.5
  0
MTEXT
  5
E53
330
51D
100
AcDbEntity
  8
SIZE
 62
     0
100
AcDbMText
 10
-140.1175214458474
 20
-772.463621018515
 30
0.0
 40
12.5
 41
0.0
 71
     5
 72
     1
  1
98.5
 73
     1
 44
1.0
1001
ACAD
1000
MTEXTBEGIN
1070
    73
1070
     1
1070
    44
1040
1.0
1070
    74
1070
     0
1000
MTEXTEND
  0
POINT
  5
E54
330
51D
100
AcDbEntity
  8
Defpoints
 62
     0
100
AcDbPoint
 10
-189.3675214458475
 20
-686.8756960099707
 30
0.0
  0
POINT
  5
E55
330
51D
100
AcDbEntity
  8
Defpoints
 62
     0
100
AcDbPoint
 10
-90.86752144584741
 20
-683.2534984212777
 30
0.0
  0
POINT
  5
E56
330
51D
100
AcDbEntity
  8
Defpoints
 62
     0
100
AcDbPoint
 10
-90.86752144584741
 20
-781.838621018515
 30
0.0
  0
ENDBLK
  5
51F
330
51D
100
AcDbEntity
  8
0
100
AcDbBlockEnd
  0
BLOCK
  5
52B
330
52A
100
AcDbEntity
  8
0
100
AcDbBlockBegin
  2
*D10
 70
     1
 10
0.0
 20
0.0
 30
0.0
  3
*D10
  1

  0
LINE
  5
E2A
330
52A
100
AcDbEntity
  8
SIZE
 62
     0
370
    -2
100
AcDbLine
 10
347.6324785541526
 20
-686.3784984212777
 30
0.0
 11
347.6324785541526
 21
-788.088621018515
 31
0.0
  0
LINE
  5
E2B
330
52A
100
AcDbEntity
  8
SIZE
 62
     0
370
    -2
100
AcDbLine
 10
446.2324785541524
 20
-690.0006960099694
 30
0.0
 11
446.2324785541524
 21
-788.088621018515
 31
0.0
  0
LINE
  5
E2C
330
52A
100
AcDbEntity
  8
SIZE
 62
     0
370
    -2
100
AcDbLine
 10
360.1324785541526
 20
-781.838621018515
 30
0.0
 11
433.7324785541524
 21
-781.838621018515
 31
0.0
  0
INSERT
  5
E2D
330
52A
100
AcDbEntity
  8
SIZE
 62
     0
370
    -2
100
AcDbBlockReference
  2
_OPEN30
 10
347.6324785541526
 20
-781.838621018515
 30
0.0
 41
12.5
 42
12.5
 43
12.5
 50
180.0
  0
INSERT
  5
E2E
330
52A
100
AcDbEntity
  8
SIZE
 62
     0
370
    -2
100
AcDbBlockReference
  2
_OPEN30
 10
446.2324785541524
 20
-781.838621018515
 30
0.0
 41
12.5
 42
12.5
 43
12.5
  0
MTEXT
  5
E2F
330
52A
100
AcDbEntity
  8
SIZE
 62
     0
100
AcDbMText
 10
396.9324785541525
 20
-772.463621018515
 30
0.0
 40
12.5
 41
0.0
 71
     5
 72
     1
  1
98.5
 73
     1
 44
1.0
1001
ACAD
1000
MTEXTBEGIN
1070
    73
1070
     1
1070
    44
1040
1.0
1070
    74
1070
     0
1000
MTEXTEND
  0
POINT
  5
E30
330
52A
100
AcDbEntity
  8
Defpoints
 62
     0
100
AcDbPoint
 10
347.6324785541526
 20
-683.2534984212777
 30
0.0
  0
POINT
  5
E31
330
52A
100
AcDbEntity
  8
Defpoints
 62
     0
100
AcDbPoint
 10
446.2324785541524
 20
-686.8756960099694
 30
0.0
  0
POINT
  5
E32
330
52A
100
AcDbEntity
  8
Defpoints
 62
     0
100
AcDbPoint
 10
446.2324785541524
 20
-781.838621018515
 30
0.0
  0
ENDBLK
  5
52C
330
52A
100
AcDbEntity
  8
0
100
AcDbBlockEnd
  0
BLOCK
  5
538
330
537
100
AcDbEntity
  8
0
100
AcDbBlockBegin
  2
*D11
 70
     1
 10
0.0
 20
0.0
 30
0.0
  3
*D11
  1

  0
LINE
  5
E21
330
537
100
AcDbEntity
  8
SIZE
 62
     0
370
    -2
100
AcDbLine
 10
-194.8675214458474
 20
-678.2086960099698
 30
0.0
 11
-194.8675214458474
 21
-816.7816673750447
 31
0.0
  0
LINE
  5
E22
330
537
100
AcDbEntity
  8
SIZE
 62
     0
370
    -2
100
AcDbLine
 10
451.7324785541525
 20
-678.20869600997
 30
0.0
 11
451.7324785541525
 21
-816.7816673750447
 31
0.0
  0
LINE
  5
E23
330
537
100
AcDbEntity
  8
SIZE
 62
     0
370
    -2
100
AcDbLine
 10
-182.3675214458473
 20
-810.5316673750447
 30
0.0
 11
439.2324785541525
 21
-810.5316673750447
 31
0.0
  0
INSERT
  5
E24
330
537
100
AcDbEntity
  8
SIZE
 62
     0
370
    -2
100
AcDbBlockReference
  2
_OPEN30
 10
-194.8675214458474
 20
-810.5316673750447
 30
0.0
 41
12.5
 42
12.5
 43
12.5
 50
180.0
  0
INSERT
  5
E25
330
537
100
AcDbEntity
  8
SIZE
 62
     0
370
    -2
100
AcDbBlockReference
  2
_OPEN30
 10
451.7324785541525
 20
-810.5316673750447
 30
0.0
 41
12.5
 42
12.5
 43
12.5
  0
MTEXT
  5
E26
330
537
100
AcDbEntity
  8
SIZE
 62
     0
100
AcDbMText
 10
128.4324785541525
 20
-801.1566673750447
 30
0.0
 40
12.5
 41
0.0
 71
     5
 72
     1
  1
646.5
 73
     1
 44
1.0
1001
ACAD
1000
MTEXTBEGIN
1070
    73
1070
     1
1070
    44
1040
1.0
1070
    74
1070
     0
1000
MTEXTEND
  0
POINT
  5
E27
330
537
100
AcDbEntity
  8
Defpoints
 62
     0
100
AcDbPoint
 10
-194.8675214458474
 20
-675.0836960099698
 30
0.0
  0
POINT
  5
E28
330
537
100
AcDbEntity
  8
Defpoints
 62
     0
100
AcDbPoint
 10
451.7324785541525
 20
-675.08369600997
 30
0.0
  0
POINT
  5
E29
330
537
100
AcDbEntity
  8
Defpoints
 62
     0
100
AcDbPoint
 10
451.7324785541525
 20
-810.5316673750447
 30
0.0
  0
ENDBLK
  5
539
330
537
100
AcDbEntity
  8
0
100
AcDbBlockEnd
  0
BLOCK
  5
545
330
544
100
AcDbEntity
  8
0
100
AcDbBlockBegin
  2
*D12
 70
     1
 10
0.0
 20
0.0
 30
0.0
  3
*D12
  1

  0
LINE
  5
E45
330
544
100
AcDbEntity
  8
SIZE
 62
     0
370
    -2
100
AcDbLine
 10
-182.4925214458475
 20
-348.417670606186
 30
0.0
 11
-243.095756147417
 21
-348.417670606186
 31
0.0
  0
LINE
  5
E46
330
544
100
AcDbEntity
  8
SIZE
 62
     0
370
    -2
100
AcDbLine
 10
-197.9925214458474
 20
-675.0836960099698
 30
0.0
 11
-243.095756147417
 21
-675.0836960099698
 31
0.0
  0
LINE
  5
E47
330
544
100
AcDbEntity
  8
SIZE
 62
     0
370
    -2
100
AcDbLine
 10
-236.845756147417
 20
-360.917670606186
 30
0.0
 11
-236.845756147417
 21
-662.5836960099698
 31
0.0
  0
INSERT
  5
E48
330
544
100
AcDbEntity
  8
SIZE
 62
     0
370
    -2
100
AcDbBlockReference
  2
_OPEN30
 10
-236.845756147417
 20
-348.417670606186
 30
0.0
 41
12.5
 42
12.5
 43
12.5
 50
90.0
  0
INSERT
  5
E49
330
544
100
AcDbEntity
  8
SIZE
 62
     0
370
    -2
100
AcDbBlockReference
  2
_OPEN30
 10
-236.845756147417
 20
-675.0836960099698
 30
0.0
 41
12.5
 42
12.5
 43
12.5
 50
270.0
  0
MTEXT
  5
E4A
330
544
100
AcDbEntity
  8
SIZE
 62
     0
100
AcDbMText
 10
-246.2207561474169
 20
-511.7506833080778
 30
0.0
 40
12.5
 41
0.0
 71
     5
 72
     1
  1
326.5
 11
0.0000000000000001
 21
1.0
 31
0.0
 73
     1
 44
1.0
1001
ACAD
1000
MTEXTBEGIN
1070
    73
1070
     1
1070
    44
1040
1.0
1070
    74
1070
     0
1000
MTEXTEND
  0
POINT
  5
E4B
330
544
100
AcDbEntity
  8
Defpoints
 62
     0
100
AcDbPoint
 10
-179.3675214458475
 20
-348.417670606186
 30
0.0
  0
POINT
  5
E4C
330
544
100
AcDbEntity
  8
Defpoints
 62
     0
100
AcDbPoint
 10
-194.8675214458474
 20
-675.0836960099698
 30
0.0
  0
POINT
  5
E4D
330
544
100
AcDbEntity
  8
Defpoints
 62
     0
100
AcDbPoint
 10
-236.845756147417
 20
-675.0836960099698
 30
0.0
  0
ENDBLK
  5
546
330
544
100
AcDbEntity
  8
0
100
AcDbBlockEnd
  0
BLOCK
  5
8C0
330
8BF
100
AcDbEntity
  8
0
100
AcDbBlockBegin
  2
_DOTBLANK
 70
     0
 10
0.0
 20
0.0
 30
0.0
  3
_DOTBLANK
  1

  0
CIRCLE
  5
8C1
330
8BF
100
AcDbEntity
  8
0
  6
Continuous
 62
     7
100
AcDbCircle
 10
0.0
 20
0.0
 30
0.0
 40
0.5
  0
LINE
  5
8C2
330
8BF
100
AcDbEntity
  8
0
  6
Continuous
 62
     7
100
AcDbLine
 10
-0.5
 20
0.0
 30
0.0
 11
-1.0
 21
0.0
 31
0.0
  0
ENDBLK
  5
8C3
330
8BF
100
AcDbEntity
  8
0
100
AcDbBlockEnd
  0
BLOCK
  5
F67
330
F65
100
AcDbEntity
  8
0
100
AcDbBlockBegin
  2
GENAXEH
 70
     0
 10
0.0
 20
0.0
 30
0.0
  3
GENAXEH
  1

  0
LINE
  5
F66
330
F65
100
AcDbEntity
  8
0
100
AcDbLine
 10
-1.0
 20
0.0
 30
0.0
 11
1.0
 21
0.0
 31
0.0
  0
ENDBLK
  5
F68
330
F65
100
AcDbEntity
  8
0
100
AcDbBlockEnd
  0
BLOCK
  5
10C9
330
10C8
100
AcDbEntity
  8
0
100
AcDbBlockBegin
  2
*D15
 70
     1
 10
0.0
 20
0.0
 30
0.0
  3
*D15
  1

  0
LINE
  5
10CB
330
10C8
100
AcDbEntity
  8
SIZE
 62
     0
370
    -2
100
AcDbLine
 10
872.6818117390338
 20
-694.5566689128701
 30
0.0
 11
872.6818117390338
 21
-800.9616259307966
 31
0.0
  0
LINE
  5
10CC
330
10C8
100
AcDbEntity
  8
SIZE
 62
     0
370
    -2
100
AcDbLine
 10
1453.681811739034
 20
-761.5566689128701
 30
0.0
 11
1453.681811739034
 21
-800.9616259307966
 31
0.0
  0
LINE
  5
10CD
330
10C8
100
AcDbEntity
  8
SIZE
 62
     0
370
    -2
100
AcDbLine
 10
885.1818117390338
 20
-794.7116259307962
 30
0.0
 11
1441.181811739034
 21
-794.7116259307962
 31
0.0
  0
INSERT
  5
10CE
330
10C8
100
AcDbEntity
  8
SIZE
 62
     0
370
    -2
100
AcDbBlockReference
  2
_OPEN30
 10
872.6818117390338
 20
-794.7116259307962
 30
0.0
 41
12.5
 42
12.5
 43
12.5
 50
180.0
  0
INSERT
  5
10CF
330
10C8
100
AcDbEntity
  8
SIZE
 62
     0
370
    -2
100
AcDbBlockReference
  2
_OPEN30
 10
1453.681811739034
 20
-794.7116259307962
 30
0.0
 41
12.5
 42
12.5
 43
12.5
  0
MTEXT
  5
10D0
330
10C8
100
AcDbEntity
  8
SIZE
 62
     0
100
AcDbMText
 10
1163.181811739034
 20
-785.3366259307962
 30
0.0
 40
12.5
 41
0.0
 71
     5
 72
     1
  1
581
 73
     1
 44
1.0
1001
ACAD
1000
MTEXTBEGIN
1070
    73
1070
     1
1070
    44
1040
1.0
1070
    74
1070
     0
1000
MTEXTEND
  0
POINT
  5
10D1
330
10C8
100
AcDbEntity
  8
Defpoints
 62
     0
100
AcDbPoint
 10
872.6818117390338
 20
-691.4316689128701
 30
0.0
  0
POINT
  5
10D2
330
10C8
100
AcDbEntity
  8
Defpoints
 62
     0
100
AcDbPoint
 10
1453.681811739034
 20
-758.4316689128701
 30
0.0
  0
POINT
  5
10D3
330
10C8
100
AcDbEntity
  8
Defpoints
 62
     0
100
AcDbPoint
 10
1453.681811739034
 20
-794.7116259307962
 30
0.0
  0
ENDBLK
  5
10CA
330
10C8
100
AcDbEntity
  8
0
100
AcDbBlockEnd
  0
BLOCK
  5
10D6
330
10D5
100
AcDbEntity
  8
0
100
AcDbBlockBegin
  2
*D16
 70
     1
 10
0.0
 20
0.0
 30
0.0
  3
*D16
  1

  0
LINE
  5
10D8
330
10D5
100
AcDbEntity
  8
SIZE
 62
     0
370
    -2
100
AcDbLine
 10
867.1818117390339
 20
-684.5566689128705
 30
0.0
 11
867.1818117390339
 21
-825.3804322646294
 31
0.0
  0
LINE
  5
10D9
330
10D5
100
AcDbEntity
  8
SIZE
 62
     0
370
    -2
100
AcDbLine
 10
1461.381811739034
 20
-751.5566689128704
 30
0.0
 11
1461.381811739034
 21
-825.3804322646294
 31
0.0
  0
LINE
  5
10DA
330
10D5
100
AcDbEntity
  8
SIZE
 62
     0
370
    -2
100
AcDbLine
 10
879.6818117390339
 20
-819.1304322646294
 30
0.0
 11
1448.881811739034
 21
-819.1304322646294
 31
0.0
  0
INSERT
  5
10DB
330
10D5
100
AcDbEntity
  8
SIZE
 62
     0
370
    -2
100
AcDbBlockReference
  2
_OPEN30
 10
867.1818117390339
 20
-819.1304322646294
 30
0.0
 41
12.5
 42
12.5
 43
12.5
 50
180.0
  0
INSERT
  5
10DC
330
10D5
100
AcDbEntity
  8
SIZE
 62
     0
370
    -2
100
AcDbBlockReference
  2
_OPEN30
 10
1461.381811739034
 20
-819.1304322646294
 30
0.0
 41
12.5
 42
12.5
 43
12.5
  0
MTEXT
  5
10DD
330
10D5
100
AcDbEntity
  8
SIZE
 62
     0
100
AcDbMText
 10
1164.281811739034
 20
-809.7554322646294
 30
0.0
 40
12.5
 41
0.0
 71
     5
 72
     1
  1
594
 73
     1
 44
1.0
1001
ACAD
1000
MTEXTBEGIN
1070
    73
1070
     1
1070
    44
1040
1.0
1070
    74
1070
     0
1000
MTEXTEND
  0
POINT
  5
10DE
330
10D5
100
AcDbEntity
  8
Defpoints
 62
     0
100
AcDbPoint
 10
867.1818117390339
 20
-681.4316689128705
 30
0.0
  0
POINT
  5
10DF
330
10D5
100
AcDbEntity
  8
Defpoints
 62
     0
100
AcDbPoint
 10
1461.381811739034
 20
-748.4316689128704
 30
0.0
  0
POINT
  5
10E0
330
10D5
100
AcDbEntity
  8
Defpoints
 62
     0
100
AcDbPoint
 10
1461.381811739034
 20
-819.1304322646294
 30
0.0
  0
ENDBLK
  5
10D7
330
10D5
100
AcDbEntity
  8
0
100
AcDbBlockEnd
  0
BLOCK
  5
10E3
330
10E2
100
AcDbEntity
  8
0
100
AcDbBlockBegin
  2
*D17
 70
     1
 10
0.0
 20
0.0
 30
0.0
  3
*D17
  1

  0
LINE
  5
10E5
330
10E2
100
AcDbEntity
  8
SIZE
 62
     0
370
    -2
100
AcDbLine
 10
864.0568117390339
 20
-681.4316689128705
 30
0.0
 11
832.839093969903
 21
-681.4316689128705
 31
0.0
  0
LINE
  5
10E6
330
10E2
100
AcDbEntity
  8
SIZE
 62
     0
370
    -2
100
AcDbLine
 10
878.0568117390338
 20
-513.6316689128705
 30
0.0
 11
832.839093969903
 21
-513.6316689128705
 31
0.0
  0
LINE
  5
10E7
330
10E2
100
AcDbEntity
  8
SIZE
 62
     0
370
    -2
100
AcDbLine
 10
839.089093969903
 20
-668.9316689128705
 30
0.0
 11
839.089093969903
 21
-526.1316689128705
 31
0.0
  0
INSERT
  5
10E8
330
10E2
100
AcDbEntity
  8
SIZE
 62
     0
370
    -2
100
AcDbBlockReference
  2
_OPEN30
 10
839.089093969903
 20
-681.4316689128705
 30
0.0
 41
12.5
 42
12.5
 43
12.5
 50
270.0
  0
INSERT
  5
10E9
330
10E2
100
AcDbEntity
  8
SIZE
 62
     0
370
    -2
100
AcDbBlockReference
  2
_OPEN30
 10
839.089093969903
 20
-513.6316689128705
 30
0.0
 41
12.5
 42
12.5
 43
12.5
 50
90.0
  0
MTEXT
  5
10EA
330
10E2
100
AcDbEntity
  8
SIZE
 62
     0
100
AcDbMText
 10
829.7140939699032
 20
-597.5316689128702
 30
0.0
 40
12.5
 41
0.0
 71
     5
 72
     1
  1
168
 11
0.0000000000000001
 21
1.0
 31
0.0
 73
     1
 44
1.0
1001
ACAD
1000
MTEXTBEGIN
1070
    73
1070
     1
1070
    44
1040
1.0
1070
    74
1070
     0
1000
MTEXTEND
  0
POINT
  5
10EB
330
10E2
100
AcDbEntity
  8
Defpoints
 62
     0
100
AcDbPoint
 10
867.1818117390339
 20
-681.4316689128705
 30
0.0
  0
POINT
  5
10EC
330
10E2
100
AcDbEntity
  8
Defpoints
 62
     0
100
AcDbPoint
 10
881.1818117390338
 20
-513.6316689128705
 30
0.0
  0
POINT
  5
10ED
330
10E2
100
AcDbEntity
  8
Defpoints
 62
     0
100
AcDbPoint
 10
839.089093969903
 20
-513.6316689128705
 30
0.0
  0
ENDBLK
  5
10E4
330
10E2
100
AcDbEntity
  8
0
100
AcDbBlockEnd
  0
BLOCK
  5
10F0
330
10EF
100
AcDbEntity
  8
0
100
AcDbBlockBegin
  2
*D18
 70
     1
 10
0.0
 20
0.0
 30
0.0
  3
*D18
  1

  0
LINE
  5
10F2
330
10EF
100
AcDbEntity
  8
SIZE
 62
     0
370
    -2
100
AcDbLine
 10
1448.306811739034
 20
-513.6316689128705
 30
0.0
 11
1503.380213565482
 21
-513.6316689128705
 31
0.0
  0
LINE
  5
10F3
330
10EF
100
AcDbEntity
  8
SIZE
 62
     0
370
    -2
100
AcDbLine
 10
1464.506811739034
 20
-748.4316689128704
 30
0.0
 11
1503.380213565482
 21
-748.4316689128704
 31
0.0
  0
LINE
  5
10F4
330
10EF
100
AcDbEntity
  8
SIZE
 62
     0
370
    -2
100
AcDbLine
 10
1497.130213565482
 20
-526.1316689128705
 30
0.0
 11
1497.130213565482
 21
-735.9316689128704
 31
0.0
  0
INSERT
  5
10F5
330
10EF
100
AcDbEntity
  8
SIZE
 62
     0
370
    -2
100
AcDbBlockReference
  2
_OPEN30
 10
1497.130213565482
 20
-513.6316689128705
 30
0.0
 41
12.5
 42
12.5
 43
12.5
 50
90.0
  0
INSERT
  5
10F6
330
10EF
100
AcDbEntity
  8
SIZE
 62
     0
370
    -2
100
AcDbBlockReference
  2
_OPEN30
 10
1497.130213565482
 20
-748.4316689128704
 30
0.0
 41
12.5
 42
12.5
 43
12.5
 50
270.0
  0
MTEXT
  5
10F7
330
10EF
100
AcDbEntity
  8
SIZE
 62
     0
100
AcDbMText
 10
1487.755213565483
 20
-631.0316689128702
 30
0.0
 40
12.5
 41
0.0
 71
     5
 72
     1
  1
235
 11
0.0000000000000001
 21
1.0
 31
0.0
 73
     1
 44
1.0
1001
ACAD
1000
MTEXTBEGIN
1070
    73
1070
     1
1070
    44
1040
1.0
1070
    74
1070
     0
1000
MTEXTEND
  0
POINT
  5
10F8
330
10EF
100
AcDbEntity
  8
Defpoints
 62
     0
100
AcDbPoint
 10
1445.181811739034
 20
-513.6316689128705
 30
0.0
  0
POINT
  5
10F9
330
10EF
100
AcDbEntity
  8
Defpoints
 62
     0
100
AcDbPoint
 10
1461.381811739034
 20
-748.4316689128704
 30
0.0
  0
POINT
  5
10FA
330
10EF
100
AcDbEntity
  8
Defpoints
 62
     0
100
AcDbPoint
 10
1497.130213565482
 20
-748.4316689128704
 30
0.0
  0
ENDBLK
  5
10F1
330
10EF
100
AcDbEntity
  8
0
100
AcDbBlockEnd
  0
BLOCK
  5
12B4
330
12B3
100
AcDbEntity
  8
0
100
AcDbBlockBegin
  2
*D19
 70
     1
 10
0.0
 20
0.0
 30
0.0
  3
*D19
  1

  0
LINE
  5
12B6
330
12B3
100
AcDbEntity
  8
SIZE
 62
     0
370
    -2
100
AcDbLine
 10
1888.300165437203
 20
-678.8808217689592
 30
0.0
 11
1888.300165437203
 21
-723.1628704682275
 31
0.0
  0
LINE
  5
12B7
330
12B3
100
AcDbEntity
  8
SIZE
 62
     0
370
    -2
100
AcDbLine
 10
2129.050165437203
 20
-709.9618632807205
 30
0.0
 11
2129.050165437203
 21
-723.1628704682275
 31
0.0
  0
LINE
  5
12B8
330
12B3
100
AcDbEntity
  8
SIZE
 62
     0
370
    -2
100
AcDbLine
 10
1900.800165437203
 20
-716.9128704682275
 30
0.0
 11
2116.550165437203
 21
-716.9128704682275
 31
0.0
  0
INSERT
  5
12B9
330
12B3
100
AcDbEntity
  8
SIZE
 62
     0
370
    -2
100
AcDbBlockReference
  2
_OPEN30
 10
1888.300165437203
 20
-716.9128704682275
 30
0.0
 41
12.5
 42
12.5
 43
12.5
 50
180.0
  0
INSERT
  5
12BA
330
12B3
100
AcDbEntity
  8
SIZE
 62
     0
370
    -2
100
AcDbBlockReference
  2
_OPEN30
 10
2129.050165437203
 20
-716.9128704682275
 30
0.0
 41
12.5
 42
12.5
 43
12.5
  0
MTEXT
  5
12BB
330
12B3
100
AcDbEntity
  8
SIZE
 62
     0
100
AcDbMText
 10
2008.675165437203
 20
-707.5378704682275
 30
0.0
 40
12.5
 41
0.0
 71
     5
 72
     1
  1
241
 73
     1
 44
1.0
1001
ACAD
1000
MTEXTBEGIN
1070
    73
1070
     1
1070
    44
1040
1.0
1070
    74
1070
     0
1000
MTEXTEND
  0
POINT
  5
12BC
330
12B3
100
AcDbEntity
  8
Defpoints
 62
     0
100
AcDbPoint
 10
1888.300165437203
 20
-675.7558217689592
 30
0.0
  0
POINT
  5
12BD
330
12B3
100
AcDbEntity
  8
Defpoints
 62
     0
100
AcDbPoint
 10
2129.050165437203
 20
-706.8368632807205
 30
0.0
  0
POINT
  5
12BE
330
12B3
100
AcDbEntity
  8
Defpoints
 62
     0
100
AcDbPoint
 10
2129.050165437203
 20
-716.9128704682275
 30
0.0
  0
ENDBLK
  5
12B5
330
12B3
100
AcDbEntity
  8
0
100
AcDbBlockEnd
  0
BLOCK
  5
12C1
330
12C0
100
AcDbEntity
  8
0
100
AcDbBlockBegin
  2
*D20
 70
     1
 10
0.0
 20
0.0
 30
0.0
  3
*D20
  1

  0
LINE
  5
12CC
330
12C0
100
AcDbEntity
  8
SIZE
 62
     0
370
    -2
100
AcDbLine
 10
2129.050165437203
 20
-709.9618632807205
 30
0.0
 11
2129.050165437203
 21
-723.1628704682275
 31
0.0
  0
LINE
  5
12CD
330
12C0
100
AcDbEntity
  8
SIZE
 62
     0
370
    -2
100
AcDbLine
 10
2369.800165437203
 20
-678.8808217689592
 30
0.0
 11
2369.800165437203
 21
-723.1628704682275
 31
0.0
  0
LINE
  5
12CE
330
12C0
100
AcDbEntity
  8
SIZE
 62
     0
370
    -2
100
AcDbLine
 10
2141.550165437204
 20
-716.9128704682275
 30
0.0
 11
2357.300165437203
 21
-716.9128704682275
 31
0.0
  0
INSERT
  5
12CF
330
12C0
100
AcDbEntity
  8
SIZE
 62
     0
370
    -2
100
AcDbBlockReference
  2
_OPEN30
 10
2129.050165437203
 20
-716.9128704682275
 30
0.0
 41
12.5
 42
12.5
 43
12.5
 50
180.0
  0
INSERT
  5
12D0
330
12C0
100
AcDbEntity
  8
SIZE
 62
     0
370
    -2
100
AcDbBlockReference
  2
_OPEN30
 10
2369.800165437203
 20
-716.9128704682275
 30
0.0
 41
12.5
 42
12.5
 43
12.5
  0
MTEXT
  5
12D1
330
12C0
100
AcDbEntity
  8
SIZE
 62
     0
100
AcDbMText
 10
2249.425165437203
 20
-707.5378704682275
 30
0.0
 40
12.5
 41
0.0
 71
     5
 72
     1
  1
241
 73
     1
 44
1.0
1001
ACAD
1000
MTEXTBEGIN
1070
    73
1070
     1
1070
    44
1040
1.0
1070
    74
1070
     0
1000
MTEXTEND
  0
POINT
  5
12D2
330
12C0
100
AcDbEntity
  8
Defpoints
 62
     0
100
AcDbPoint
 10
2129.050165437203
 20
-706.8368632807205
 30
0.0
  0
POINT
  5
12D3
330
12C0
100
AcDbEntity
  8
Defpoints
 62
     0
100
AcDbPoint
 10
2369.800165437203
 20
-675.7558217689592
 30
0.0
  0
POINT
  5
12D4
330
12C0
100
AcDbEntity
  8
Defpoints
 62
     0
100
AcDbPoint
 10
2369.800165437203
 20
-716.9128704682275
 30
0.0
  0
ENDBLK
  5
12C2
330
12C0
100
AcDbEntity
  8
0
100
AcDbBlockEnd
  0
BLOCK
  5
12D7
330
12D6
100
AcDbEntity
  8
0
100
AcDbBlockBegin
  2
*D21
 70
     1
 10
0.0
 20
0.0
 30
0.0
  3
*D21
  1

  0
LINE
  5
12D9
330
12D6
100
AcDbEntity
  8
SIZE
 62
     0
370
    -2
100
AcDbLine
 10
1789.800165437203
 20
-682.5808217689592
 30
0.0
 11
1789.800165437203
 21
-754.1895871626771
 31
0.0
  0
LINE
  5
12DA
330
12D6
100
AcDbEntity
  8
SIZE
 62
     0
370
    -2
100
AcDbLine
 10
2468.300165437204
 20
-682.5808217689592
 30
0.0
 11
2468.300165437204
 21
-754.1895871626771
 31
0.0
  0
LINE
  5
12DB
330
12D6
100
AcDbEntity
  8
SIZE
 62
     0
370
    -2
100
AcDbLine
 10
1802.300165437203
 20
-747.9395871626771
 30
0.0
 11
2455.800165437204
 21
-747.9395871626771
 31
0.0
  0
INSERT
  5
12DC
330
12D6
100
AcDbEntity
  8
SIZE
 62
     0
370
    -2
100
AcDbBlockReference
  2
_OPEN30
 10
1789.800165437203
 20
-747.9395871626771
 30
0.0
 41
12.5
 42
12.5
 43
12.5
 50
180.0
  0
INSERT
  5
12DD
330
12D6
100
AcDbEntity
  8
SIZE
 62
     0
370
    -2
100
AcDbBlockReference
  2
_OPEN30
 10
2468.300165437204
 20
-747.9395871626771
 30
0.0
 41
12.5
 42
12.5
 43
12.5
  0
MTEXT
  5
12DE
330
12D6
100
AcDbEntity
  8
SIZE
 62
     0
100
AcDbMText
 10
2129.050165437204
 20
-738.5645871626771
 30
0.0
 40
12.5
 41
0.0
 71
     5
 72
     1
  1
678.5
 73
     1
 44
1.0
1001
ACAD
1000
MTEXTBEGIN
1070
    73
1070
     1
1070
    44
1040
1.0
1070
    74
1070
     0
1000
MTEXTEND
  0
POINT
  5
12DF
330
12D6
100
AcDbEntity
  8
Defpoints
 62
     0
100
AcDbPoint
 10
1789.800165437203
 20
-679.4558217689592
 30
0.0
  0
POINT
  5
12E0
330
12D6
100
AcDbEntity
  8
Defpoints
 62
     0
100
AcDbPoint
 10
2468.300165437204
 20
-679.4558217689592
 30
0.0
  0
POINT
  5
12E1
330
12D6
100
AcDbEntity
  8
Defpoints
 62
     0
100
AcDbPoint
 10
2468.300165437204
 20
-747.9395871626771
 30
0.0
  0
ENDBLK
  5
12D8
330
12D6
100
AcDbEntity
  8
0
100
AcDbBlockEnd
  0
BLOCK
  5
12E4
330
12E3
100
AcDbEntity
  8
0
100
AcDbBlockBegin
  2
*D22
 70
     1
 10
0.0
 20
0.0
 30
0.0
  3
*D22
  1

  0
LINE
  5
12E6
330
12E3
100
AcDbEntity
  8
SIZE
 62
     0
370
    -2
100
AcDbLine
 10
1810.175165437203
 20
-672.7558217689593
 30
0.0
 11
1751.112616907103
 21
-672.7558217689593
 31
0.0
  0
LINE
  5
12E7
330
12E3
100
AcDbEntity
  8
SIZE
 62
     0
370
    -2
100
AcDbLine
 10
1795.175165437203
 20
-514.6898333748023
 30
0.0
 11
1751.112616907103
 21
-514.6898333748022
 31
0.0
  0
LINE
  5
12E8
330
12E3
100
AcDbEntity
  8
SIZE
 62
     0
370
    -2
100
AcDbLine
 10
1757.362616907103
 20
-660.2558217689593
 30
0.0
 11
1757.362616907103
 21
-527.1898333748022
 31
0.0
  0
INSERT
  5
12E9
330
12E3
100
AcDbEntity
  8
SIZE
 62
     0
370
    -2
100
AcDbBlockReference
  2
_OPEN30
 10
1757.362616907103
 20
-672.7558217689593
 30
0.0
 41
12.5
 42
12.5
 43
12.5
 50
270.0
  0
INSERT
  5
12EA
330
12E3
100
AcDbEntity
  8
SIZE
 62
     0
370
    -2
100
AcDbBlockReference
  2
_OPEN30
 10
1757.362616907103
 20
-514.6898333748022
 30
0.0
 41
12.5
 42
12.5
 43
12.5
 50
90.0
  0
MTEXT
  5
12EB
330
12E3
100
AcDbEntity
  8
SIZE
 62
     0
100
AcDbMText
 10
1747.987616907103
 20
-593.7228275718805
 30
0.0
 40
12.5
 41
0.0
 71
     5
 72
     1
  1
158
 11
0.0000000000000001
 21
1.0
 31
0.0
 73
     1
 44
1.0
1001
ACAD
1000
MTEXTBEGIN
1070
    73
1070
     1
1070
    44
1040
1.0
1070
    74
1070
     0
1000
MTEXTEND
  0
POINT
  5
12EC
330
12E3
100
AcDbEntity
  8
Defpoints
 62
     0
100
AcDbPoint
 10
1813.300165437203
 20
-672.7558217689593
 30
0.0
  0
POINT
  5
12ED
330
12E3
100
AcDbEntity
  8
Defpoints
 62
     0
100
AcDbPoint
 10
1798.300165437203
 20
-514.6898333748023
 30
0.0
  0
POINT
  5
12EE
330
12E3
100
AcDbEntity
  8
Defpoints
 62
     0
100
AcDbPoint
 10
1757.362616907103
 20
-514.6898333748022
 30
0.0
  0
ENDBLK
  5
12E5
330
12E3
100
AcDbEntity
  8
0
100
AcDbBlockEnd
  0
BLOCK
  5
12F1
330
12F0
100
AcDbEntity
  8
0
100
AcDbBlockBegin
  2
*D23
 70
     1
 10
0.0
 20
0.0
 30
0.0
  3
*D23
  1

  0
LINE
  5
12F3
330
12F0
100
AcDbEntity
  8
SIZE
 62
     0
370
    -2
100
AcDbLine
 10
1778.975165437203
 20
-676.4558217689595
 30
0.0
 11
1723.036334418313
 21
-676.4558217689595
 31
0.0
  0
LINE
  5
12F4
330
12F0
100
AcDbEntity
  8
SIZE
 62
     0
370
    -2
100
AcDbLine
 10
1795.175165437203
 20
-514.6898333748023
 30
0.0
 11
1723.036334418313
 21
-514.6898333748022
 31
0.0
  0
LINE
  5
12F5
330
12F0
100
AcDbEntity
  8
SIZE
 62
     0
370
    -2
100
AcDbLine
 10
1729.286334418313
 20
-663.9558217689595
 30
0.0
 11
1729.286334418313
 21
-527.1898333748022
 31
0.0
  0
INSERT
  5
12F6
330
12F0
100
AcDbEntity
  8
SIZE
 62
     0
370
    -2
100
AcDbBlockReference
  2
_OPEN30
 10
1729.286334418313
 20
-676.4558217689595
 30
0.0
 41
12.5
 42
12.5
 43
12.5
 50
270.0
  0
INSERT
  5
12F7
330
12F0
100
AcDbEntity
  8
SIZE
 62
     0
370
    -2
100
AcDbBlockReference
  2
_OPEN30
 10
1729.286334418313
 20
-514.6898333748022
 30
0.0
 41
12.5
 42
12.5
 43
12.5
 50
90.0
  0
MTEXT
  5
12F8
330
12F0
100
AcDbEntity
  8
SIZE
 62
     0
100
AcDbMText
 10
1719.911334418313
 20
-595.5728275718802
 30
0.0
 40
12.5
 41
0.0
 71
     5
 72
     1
  1
162
 11
0.0000000000000001
 21
1.0
 31
0.0
 73
     1
 44
1.0
1001
ACAD
1000
MTEXTBEGIN
1070
    73
1070
     1
1070
    44
1040
1.0
1070
    74
1070
     0
1000
MTEXTEND
  0
POINT
  5
12F9
330
12F0
100
AcDbEntity
  8
Defpoints
 62
     0
100
AcDbPoint
 10
1782.100165437203
 20
-676.4558217689595
 30
0.0
  0
POINT
  5
12FA
330
12F0
100
AcDbEntity
  8
Defpoints
 62
     0
100
AcDbPoint
 10
1798.300165437203
 20
-514.6898333748023
 30
0.0
  0
POINT
  5
12FB
330
12F0
100
AcDbEntity
  8
Defpoints
 62
     0
100
AcDbPoint
 10
1729.286334418313
 20
-514.6898333748022
 30
0.0
  0
ENDBLK
  5
12F2
330
12F0
100
AcDbEntity
  8
0
100
AcDbBlockEnd
  0
BLOCK
  5
13EF
330
13EE
100
AcDbEntity
  8
0
100
AcDbBlockBegin
  2
*D24
 70
     1
 10
0.0
 20
0.0
 30
0.0
  3
*D24
  1

  0
LINE
  5
13F1
330
13EE
100
AcDbEntity
  8
SIZE
 62
     0
370
    -2
100
AcDbLine
 10
1782.100165437203
 20
-679.5808217689595
 30
0.0
 11
1782.100165437203
 21
-782.4620386681515
 31
0.0
  0
LINE
  5
13F2
330
13EE
100
AcDbEntity
  8
SIZE
 62
     0
370
    -2
100
AcDbLine
 10
2476.000165437204
 20
-679.5808217689595
 30
0.0
 11
2476.000165437204
 21
-782.4620386681515
 31
0.0
  0
LINE
  5
13F3
330
13EE
100
AcDbEntity
  8
SIZE
 62
     0
370
    -2
100
AcDbLine
 10
1794.600165437203
 20
-776.2120386681515
 30
0.0
 11
2463.500165437204
 21
-776.2120386681515
 31
0.0
  0
INSERT
  5
13F4
330
13EE
100
AcDbEntity
  8
SIZE
 62
     0
370
    -2
100
AcDbBlockReference
  2
_OPEN30
 10
1782.100165437203
 20
-776.2120386681515
 30
0.0
 41
12.5
 42
12.5
 43
12.5
 50
180.0
  0
INSERT
  5
13F5
330
13EE
100
AcDbEntity
  8
SIZE
 62
     0
370
    -2
100
AcDbBlockReference
  2
_OPEN30
 10
2476.000165437204
 20
-776.2120386681515
 30
0.0
 41
12.5
 42
12.5
 43
12.5
  0
MTEXT
  5
13F6
330
13EE
100
AcDbEntity
  8
SIZE
 62
     0
100
AcDbMText
 10
2129.050165437204
 20
-766.8370386681515
 30
0.0
 40
12.5
 41
0.0
 71
     5
 72
     1
  1
694
 73
     1
 44
1.0
1001
ACAD
1000
MTEXTBEGIN
1070
    73
1070
     1
1070
    44
1040
1.0
1070
    74
1070
     0
1000
MTEXTEND
  0
POINT
  5
13F7
330
13EE
100
AcDbEntity
  8
Defpoints
 62
     0
100
AcDbPoint
 10
1782.100165437203
 20
-676.4558217689595
 30
0.0
  0
POINT
  5
13F8
330
13EE
100
AcDbEntity
  8
Defpoints
 62
     0
100
AcDbPoint
 10
2476.000165437204
 20
-676.4558217689595
 30
0.0
  0
POINT
  5
13F9
330
13EE
100
AcDbEntity
  8
Defpoints
 62
     0
100
AcDbPoint
 10
2476.000165437204
 20
-776.2120386681515
 30
0.0
  0
ENDBLK
  5
13F0
330
13EE
100
AcDbEntity
  8
0
100
AcDbBlockEnd
  0
BLOCK
  5
159D
330
159C
100
AcDbEntity
  8
0
100
AcDbBlockBegin
  2
*D25
 70
     1
 10
0.0
 20
0.0
 30
0.0
  3
*D25
  1

  0
LINE
  5
159F
330
159C
100
AcDbEntity
  8
SIZE
 62
     0
370
    -2
100
AcDbLine
 10
2852.221739226479
 20
-679.6350872053186
 30
0.0
 11
2852.221739226479
 21
-718.5500008136902
 31
0.0
  0
LINE
  5
15A0
330
159C
100
AcDbEntity
  8
SIZE
 62
     0
370
    -2
100
AcDbLine
 10
3101.221739226477
 20
-700.0161287170794
 30
0.0
 11
3101.221739226477
 21
-718.5500008136902
 31
0.0
  0
LINE
  5
15A1
330
159C
100
AcDbEntity
  8
SIZE
 62
     0
370
    -2
100
AcDbLine
 10
2864.721739226478
 20
-712.3000008136902
 30
0.0
 11
3088.721739226477
 21
-712.3000008136902
 31
0.0
  0
INSERT
  5
15A2
330
159C
100
AcDbEntity
  8
SIZE
 62
     0
370
    -2
100
AcDbBlockReference
  2
_OPEN30
 10
2852.221739226479
 20
-712.3000008136902
 30
0.0
 41
12.5
 42
12.5
 43
12.5
 50
180.0
  0
INSERT
  5
15A3
330
159C
100
AcDbEntity
  8
SIZE
 62
     0
370
    -2
100
AcDbBlockReference
  2
_OPEN30
 10
3101.221739226477
 20
-712.3000008136902
 30
0.0
 41
12.5
 42
12.5
 43
12.5
  0
MTEXT
  5
15A4
330
159C
100
AcDbEntity
  8
SIZE
 62
     0
100
AcDbMText
 10
2976.721739226479
 20
-702.9250008136902
 30
0.0
 40
12.5
 41
0.0
 71
     5
 72
     1
  1
249
 73
     1
 44
1.0
1001
ACAD
1000
MTEXTBEGIN
1070
    73
1070
     1
1070
    44
1040
1.0
1070
    74
1070
     0
1000
MTEXTEND
  0
POINT
  5
15A5
330
159C
100
AcDbEntity
  8
Defpoints
 62
     0
100
AcDbPoint
 10
2852.221739226479
 20
-676.5100872053186
 30
0.0
  0
POINT
  5
15A6
330
159C
100
AcDbEntity
  8
Defpoints
 62
     0
100
AcDbPoint
 10
3101.221739226477
 20
-696.8911287170794
 30
0.0
  0
POINT
  5
15A7
330
159C
100
AcDbEntity
  8
Defpoints
 62
     0
100
AcDbPoint
 10
3101.221739226477
 20
-712.3000008136902
 30
0.0
  0
ENDBLK
  5
159E
330
159C
100
AcDbEntity
  8
0
100
AcDbBlockEnd
  0
BLOCK
  5
15AA
330
15A9
100
AcDbEntity
  8
0
100
AcDbBlockBegin
  2
*D26
 70
     1
 10
0.0
 20
0.0
 30
0.0
  3
*D26
  1

  0
LINE
  5
15B5
330
15A9
100
AcDbEntity
  8
SIZE
 62
     0
370
    -2
100
AcDbLine
 10
3101.221739226477
 20
-700.0161287170794
 30
0.0
 11
3101.221739226477
 21
-718.5500008136902
 31
0.0
  0
LINE
  5
15B6
330
15A9
100
AcDbEntity
  8
SIZE
 62
     0
370
    -2
100
AcDbLine
 10
3350.221739226479
 20
-679.6350872053184
 30
0.0
 11
3350.221739226479
 21
-718.5500008136902
 31
0.0
  0
LINE
  5
15B7
330
15A9
100
AcDbEntity
  8
SIZE
 62
     0
370
    -2
100
AcDbLine
 10
3113.721739226477
 20
-712.3000008136902
 30
0.0
 11
3337.721739226477
 21
-712.3000008136902
 31
0.0
  0
INSERT
  5
15B8
330
15A9
100
AcDbEntity
  8
SIZE
 62
     0
370
    -2
100
AcDbBlockReference
  2
_OPEN30
 10
3101.221739226477
 20
-712.3000008136902
 30
0.0
 41
12.5
 42
12.5
 43
12.5
 50
180.0
  0
INSERT
  5
15B9
330
15A9
100
AcDbEntity
  8
SIZE
 62
     0
370
    -2
100
AcDbBlockReference
  2
_OPEN30
 10
3350.221739226479
 20
-712.3000008136902
 30
0.0
 41
12.5
 42
12.5
 43
12.5
  0
MTEXT
  5
15BA
330
15A9
100
AcDbEntity
  8
SIZE
 62
     0
100
AcDbMText
 10
3225.721739226477
 20
-702.9250008136902
 30
0.0
 40
12.5
 41
0.0
 71
     5
 72
     1
  1
249
 73
     1
 44
1.0
1001
ACAD
1000
MTEXTBEGIN
1070
    73
1070
     1
1070
    44
1040
1.0
1070
    74
1070
     0
1000
MTEXTEND
  0
POINT
  5
15BB
330
15A9
100
AcDbEntity
  8
Defpoints
 62
     0
100
AcDbPoint
 10
3101.221739226477
 20
-696.8911287170794
 30
0.0
  0
POINT
  5
15BC
330
15A9
100
AcDbEntity
  8
Defpoints
 62
     0
100
AcDbPoint
 10
3350.221739226479
 20
-676.5100872053184
 30
0.0
  0
POINT
  5
15BD
330
15A9
100
AcDbEntity
  8
Defpoints
 62
     0
100
AcDbPoint
 10
3350.221739226479
 20
-712.3000008136902
 30
0.0
  0
ENDBLK
  5
15AB
330
15A9
100
AcDbEntity
  8
0
100
AcDbBlockEnd
  0
BLOCK
  5
15C0
330
15BF
100
AcDbEntity
  8
0
100
AcDbBlockBegin
  2
*D27
 70
     1
 10
0.0
 20
0.0
 30
0.0
  3
*D27
  1

  0
LINE
  5
15C2
330
15BF
100
AcDbEntity
  8
SIZE
 62
     0
370
    -2
100
AcDbLine
 10
2753.721739226479
 20
-679.6350872053186
 30
0.0
 11
2753.721739226479
 21
-748.8328697019312
 31
0.0
  0
LINE
  5
15C3
330
15BF
100
AcDbEntity
  8
SIZE
 62
     0
370
    -2
100
AcDbLine
 10
3448.721739226479
 20
-679.6350872053188
 30
0.0
 11
3448.721739226479
 21
-748.8328697019312
 31
0.0
  0
LINE
  5
15C4
330
15BF
100
AcDbEntity
  8
SIZE
 62
     0
370
    -2
100
AcDbLine
 10
2766.221739226479
 20
-742.5828697019312
 30
0.0
 11
3436.221739226479
 21
-742.5828697019312
 31
0.0
  0
INSERT
  5
15C5
330
15BF
100
AcDbEntity
  8
SIZE
 62
     0
370
    -2
100
AcDbBlockReference
  2
_OPEN30
 10
2753.721739226479
 20
-742.5828697019312
 30
0.0
 41
12.5
 42
12.5
 43
12.5
 50
180.0
  0
INSERT
  5
15C6
330
15BF
100
AcDbEntity
  8
SIZE
 62
     0
370
    -2
100
AcDbBlockReference
  2
_OPEN30
 10
3448.721739226479
 20
-742.5828697019312
 30
0.0
 41
12.5
 42
12.5
 43
12.5
  0
MTEXT
  5
15C7
330
15BF
100
AcDbEntity
  8
SIZE
 62
     0
100
AcDbMText
 10
3101.221739226479
 20
-733.2078697019312
 30
0.0
 40
12.5
 41
0.0
 71
     5
 72
     1
  1
695
 73
     1
 44
1.0
1001
ACAD
1000
MTEXTBEGIN
1070
    73
1070
     1
1070
    44
1040
1.0
1070
    74
1070
     0
1000
MTEXTEND
  0
POINT
  5
15C8
330
15BF
100
AcDbEntity
  8
Defpoints
 62
     0
100
AcDbPoint
 10
2753.721739226479
 20
-676.5100872053186
 30
0.0
  0
POINT
  5
15C9
330
15BF
100
AcDbEntity
  8
Defpoints
 62
     0
100
AcDbPoint
 10
3448.721739226479
 20
-676.5100872053188
 30
0.0
  0
POINT
  5
15CA
330
15BF
100
AcDbEntity
  8
Defpoints
 62
     0
100
AcDbPoint
 10
3448.721739226479
 20
-742.5828697019312
 30
0.0
  0
ENDBLK
  5
15C1
330
15BF
100
AcDbEntity
  8
0
100
AcDbBlockEnd
  0
BLOCK
  5
15CD
330
15CC
100
AcDbEntity
  8
0
100
AcDbBlockBegin
  2
*D28
 70
     1
 10
0.0
 20
0.0
 30
0.0
  3
*D28
  1

  0
LINE
  5
15CF
330
15CC
100
AcDbEntity
  8
SIZE
 62
     0
370
    -2
100
AcDbLine
 10
2746.021739226478
 20
-669.6350872053186
 30
0.0
 11
2746.021739226478
 21
-775.6446312504476
 31
0.0
  0
LINE
  5
15D0
330
15CC
100
AcDbEntity
  8
SIZE
 62
     0
370
    -2
100
AcDbLine
 10
3456.42173922648
 20
-669.6350872053186
 30
0.0
 11
3456.42173922648
 21
-775.6446312504476
 31
0.0
  0
LINE
  5
15D1
330
15CC
100
AcDbEntity
  8
SIZE
 62
     0
370
    -2
100
AcDbLine
 10
2758.521739226479
 20
-769.3946312504476
 30
0.0
 11
3443.92173922648
 21
-769.3946312504476
 31
0.0
  0
INSERT
  5
15D2
330
15CC
100
AcDbEntity
  8
SIZE
 62
     0
370
    -2
100
AcDbBlockReference
  2
_OPEN30
 10
2746.021739226478
 20
-769.3946312504476
 30
0.0
 41
12.5
 42
12.5
 43
12.5
 50
180.0
  0
INSERT
  5
15D3
330
15CC
100
AcDbEntity
  8
SIZE
 62
     0
370
    -2
100
AcDbBlockReference
  2
_OPEN30
 10
3456.42173922648
 20
-769.3946312504476
 30
0.0
 41
12.5
 42
12.5
 43
12.5
  0
MTEXT
  5
15D4
330
15CC
100
AcDbEntity
  8
SIZE
 62
     0
100
AcDbMText
 10
3101.221739226479
 20
-760.0196312504476
 30
0.0
 40
12.5
 41
0.0
 71
     5
 72
     1
  1
710.5
 73
     1
 44
1.0
1001
ACAD
1000
MTEXTBEGIN
1070
    73
1070
     1
1070
    44
1040
1.0
1070
    74
1070
     0
1000
MTEXTEND
  0
POINT
  5
15D5
330
15CC
100
AcDbEntity
  8
Defpoints
 62
     0
100
AcDbPoint
 10
2746.021739226478
 20
-666.5100872053186
 30
0.0
  0
POINT
  5
15D6
330
15CC
100
AcDbEntity
  8
Defpoints
 62
     0
100
AcDbPoint
 10
3456.42173922648
 20
-666.5100872053186
 30
0.0
  0
POINT
  5
15D7
330
15CC
100
AcDbEntity
  8
Defpoints
 62
     0
100
AcDbPoint
 10
3456.42173922648
 20
-769.3946312504476
 30
0.0
  0
ENDBLK
  5
15CE
330
15CC
100
AcDbEntity
  8
0
100
AcDbBlockEnd
  0
BLOCK
  5
15DA
330
15D9
100
AcDbEntity
  8
0
100
AcDbBlockBegin
  2
*D29
 70
     1
 10
0.0
 20
0.0
 30
0.0
  3
*D29
  1

  0
LINE
  5
15DC
330
15D9
100
AcDbEntity
  8
SIZE
 62
     0
370
    -2
100
AcDbLine
 10
2742.896739226479
 20
-666.5100872053186
 30
0.0
 11
2700.589971511116
 21
-666.5100872053186
 31
0.0
  0
LINE
  5
15DD
330
15D9
100
AcDbEntity
  8
SIZE
 62
     0
370
    -2
100
AcDbLine
 10
2759.096739226479
 20
-506.5100872053185
 30
0.0
 11
2700.589971511116
 21
-506.5100872053185
 31
0.0
  0
LINE
  5
15DE
330
15D9
100
AcDbEntity
  8
SIZE
 62
     0
370
    -2
100
AcDbLine
 10
2706.839971511115
 20
-654.0100872053186
 30
0.0
 11
2706.839971511115
 21
-519.0100872053184
 31
0.0
  0
INSERT
  5
15DF
330
15D9
100
AcDbEntity
  8
SIZE
 62
     0
370
    -2
100
AcDbBlockReference
  2
_OPEN30
 10
2706.839971511115
 20
-666.5100872053186
 30
0.0
 41
12.5
 42
12.5
 43
12.5
 50
270.0
  0
INSERT
  5
15E0
330
15D9
100
AcDbEntity
  8
SIZE
 62
     0
370
    -2
100
AcDbBlockReference
  2
_OPEN30
 10
2706.839971511115
 20
-506.5100872053185
 30
0.0
 41
12.5
 42
12.5
 43
12.5
 50
90.0
  0
MTEXT
  5
15E1
330
15D9
100
AcDbEntity
  8
SIZE
 62
     0
100
AcDbMText
 10
2697.464971511116
 20
-586.5100872053177
 30
0.0
 40
12.5
 41
0.0
 71
     5
 72
     1
  1
160
 11
0.0000000000000001
 21
1.0
 31
0.0
 73
     1
 44
1.0
1001
ACAD
1000
MTEXTBEGIN
1070
    73
1070
     1
1070
    44
1040
1.0
1070
    74
1070
     0
1000
MTEXTEND
  0
POINT
  5
15E2
330
15D9
100
AcDbEntity
  8
Defpoints
 62
     0
100
AcDbPoint
 10
2746.021739226478
 20
-666.5100872053186
 30
0.0
  0
POINT
  5
15E3
330
15D9
100
AcDbEntity
  8
Defpoints
 62
     0
100
AcDbPoint
 10
2762.221739226478
 20
-506.5100872053185
 30
0.0
  0
POINT
  5
15E4
330
15D9
100
AcDbEntity
  8
Defpoints
 62
     0
100
AcDbPoint
 10
2706.839971511115
 20
-506.5100872053185
 30
0.0
  0
ENDBLK
  5
15DB
330
15D9
100
AcDbEntity
  8
0
100
AcDbBlockEnd
  0
BLOCK
  5
18C5
330
18C4
100
AcDbEntity
  8
0
100
AcDbBlockBegin
  2
*D30
 70
     1
 10
0.0
 20
0.0
 30
0.0
  3
*D30
  1

  0
LINE
  5
192A
330
18C4
100
AcDbEntity
  8
SIZE
 62
     0
370
    -2
100
AcDbLine
 10
3868.097059162404
 20
-678.9356869106068
 30
0.0
 11
3868.097059162404
 21
-738.6598106067378
 31
0.0
  0
LINE
  5
192B
330
18C4
100
AcDbEntity
  8
SIZE
 62
     0
370
    -2
100
AcDbLine
 10
4308.097059162403
 20
-678.9356869106068
 30
0.0
 11
4308.097059162403
 21
-738.6598106067378
 31
0.0
  0
LINE
  5
192C
330
18C4
100
AcDbEntity
  8
SIZE
 62
     0
370
    -2
100
AcDbLine
 10
3880.597059162404
 20
-732.4098106067378
 30
0.0
 11
4295.597059162401
 21
-732.4098106067378
 31
0.0
  0
INSERT
  5
192D
330
18C4
100
AcDbEntity
  8
SIZE
 62
     0
370
    -2
100
AcDbBlockReference
  2
_OPEN30
 10
3868.097059162404
 20
-732.4098106067378
 30
0.0
 41
12.5
 42
12.5
 43
12.5
 50
180.0
  0
INSERT
  5
192E
330
18C4
100
AcDbEntity
  8
SIZE
 62
     0
370
    -2
100
AcDbBlockReference
  2
_OPEN30
 10
4308.097059162403
 20
-732.4098106067378
 30
0.0
 41
12.5
 42
12.5
 43
12.5
  0
MTEXT
  5
192F
330
18C4
100
AcDbEntity
  8
SIZE
 62
     0
100
AcDbMText
 10
4088.097059162403
 20
-723.0348106067378
 30
0.0
 40
12.5
 41
0.0
 71
     5
 72
     1
  1
440
 73
     1
 44
1.0
1001
ACAD
1000
MTEXTBEGIN
1070
    73
1070
     1
1070
    44
1040
1.0
1070
    74
1070
     0
1000
MTEXTEND
  0
POINT
  5
1930
330
18C4
100
AcDbEntity
  8
Defpoints
 62
     0
100
AcDbPoint
 10
3868.097059162404
 20
-675.8106869106068
 30
0.0
  0
POINT
  5
1931
330
18C4
100
AcDbEntity
  8
Defpoints
 62
     0
100
AcDbPoint
 10
4308.097059162403
 20
-675.8106869106068
 30
0.0
  0
POINT
  5
1932
330
18C4
100
AcDbEntity
  8
Defpoints
 62
     0
100
AcDbPoint
 10
4308.097059162403
 20
-732.4098106067378
 30
0.0
  0
ENDBLK
  5
18C6
330
18C4
100
AcDbEntity
  8
0
100
AcDbBlockEnd
  0
BLOCK
  5
18D2
330
18D1
100
AcDbEntity
  8
0
100
AcDbBlockBegin
  2
*D31
 70
     1
 10
0.0
 20
0.0
 30
0.0
  3
*D31
  1

  0
LINE
  5
1933
330
18D1
100
AcDbEntity
  8
SIZE
 62
     0
370
    -2
100
AcDbLine
 10
3751.097059162403
 20
-678.9356869106073
 30
0.0
 11
3751.097059162403
 21
-764.0999366471825
 31
0.0
  0
LINE
  5
1934
330
18D1
100
AcDbEntity
  8
SIZE
 62
     0
370
    -2
100
AcDbLine
 10
4425.097059162403
 20
-678.9356869106073
 30
0.0
 11
4425.097059162403
 21
-764.0999366471825
 31
0.0
  0
LINE
  5
1935
330
18D1
100
AcDbEntity
  8
SIZE
 62
     0
370
    -2
100
AcDbLine
 10
3763.597059162403
 20
-757.8499366471825
 30
0.0
 11
4412.597059162401
 21
-757.8499366471825
 31
0.0
  0
INSERT
  5
1936
330
18D1
100
AcDbEntity
  8
SIZE
 62
     0
370
    -2
100
AcDbBlockReference
  2
_OPEN30
 10
3751.097059162403
 20
-757.8499366471825
 30
0.0
 41
12.5
 42
12.5
 43
12.5
 50
180.0
  0
INSERT
  5
1937
330
18D1
100
AcDbEntity
  8
SIZE
 62
     0
370
    -2
100
AcDbBlockReference
  2
_OPEN30
 10
4425.097059162403
 20
-757.8499366471825
 30
0.0
 41
12.5
 42
12.5
 43
12.5
  0
MTEXT
  5
1938
330
18D1
100
AcDbEntity
  8
SIZE
 62
     0
100
AcDbMText
 10
4088.097059162403
 20
-748.4749366471825
 30
0.0
 40
12.5
 41
0.0
 71
     5
 72
     1
  1
674
 73
     1
 44
1.0
1001
ACAD
1000
MTEXTBEGIN
1070
    73
1070
     1
1070
    44
1040
1.0
1070
    74
1070
     0
1000
MTEXTEND
  0
POINT
  5
1939
330
18D1
100
AcDbEntity
  8
Defpoints
 62
     0
100
AcDbPoint
 10
3751.097059162403
 20
-675.8106869106073
 30
0.0
  0
POINT
  5
193A
330
18D1
100
AcDbEntity
  8
Defpoints
 62
     0
100
AcDbPoint
 10
4425.097059162403
 20
-675.8106869106073
 30
0.0
  0
POINT
  5
193B
330
18D1
100
AcDbEntity
  8
Defpoints
 62
     0
100
AcDbPoint
 10
4425.097059162403
 20
-757.8499366471825
 30
0.0
  0
ENDBLK
  5
18D3
330
18D1
100
AcDbEntity
  8
0
100
AcDbBlockEnd
  0
BLOCK
  5
18DF
330
18DE
100
AcDbEntity
  8
0
100
AcDbBlockBegin
  2
*D32
 70
     1
 10
0.0
 20
0.0
 30
0.0
  3
*D32
  1

  0
LINE
  5
191F
330
18DE
100
AcDbEntity
  8
SIZE
 62
     0
370
    -2
100
AcDbLine
 10
3773.997059162404
 20
-685.9356869106068
 30
0.0
 11
3773.997059162404
 21
-738.5882796525761
 31
0.0
  0
LINE
  5
1920
330
18DE
100
AcDbEntity
  8
SIZE
 62
     0
370
    -2
100
AcDbLine
 10
3751.097059162403
 20
-678.9356869106073
 30
0.0
 11
3751.097059162403
 21
-738.5882796525761
 31
0.0
  0
LINE
  5
1921
330
18DE
100
AcDbEntity
  8
SIZE
 62
     0
370
    -2
100
AcDbLine
 10
3786.497059162404
 20
-732.3382796525761
 30
0.0
 11
3798.997059162405
 21
-732.3382796525761
 31
0.0
  0
LINE
  5
1922
330
18DE
100
AcDbEntity
  8
SIZE
 62
     0
370
    -2
100
AcDbLine
 10
3738.597059162403
 20
-732.3382796525761
 30
0.0
 11
3699.608963924308
 21
-732.3382796525761
 31
0.0
  0
LINE
  5
1923
330
18DE
100
AcDbEntity
  8
SIZE
 62
     0
370
    -2
100
AcDbLine
 10
3773.997059162404
 20
-732.3382796525761
 30
0.0
 11
3751.097059162403
 21
-732.3382796525761
 31
0.0
  0
INSERT
  5
1924
330
18DE
100
AcDbEntity
  8
SIZE
 62
     0
370
    -2
100
AcDbBlockReference
  2
_OPEN30
 10
3773.997059162404
 20
-732.3382796525761
 30
0.0
 41
12.5
 42
12.5
 43
12.5
 50
180.0
  0
INSERT
  5
1925
330
18DE
100
AcDbEntity
  8
SIZE
 62
     0
370
    -2
100
AcDbBlockReference
  2
_OPEN30
 10
3751.097059162403
 20
-732.3382796525761
 30
0.0
 41
12.5
 42
12.5
 43
12.5
  0
MTEXT
  5
1926
330
18DE
100
AcDbEntity
  8
SIZE
 62
     0
100
AcDbMText
 10
3712.853011543356
 20
-722.9632796525761
 30
0.0
 40
12.5
 41
0.0
 71
     5
 72
     1
  1
23
 73
     1
 44
1.0
1001
ACAD
1000
MTEXTBEGIN
1070
    73
1070
     1
1070
    44
1040
1.0
1070
    74
1070
     0
1000
MTEXTEND
  0
POINT
  5
1927
330
18DE
100
AcDbEntity
  8
Defpoints
 62
     0
100
AcDbPoint
 10
3773.997059162404
 20
-682.8106869106068
 30
0.0
  0
POINT
  5
1928
330
18DE
100
AcDbEntity
  8
Defpoints
 62
     0
100
AcDbPoint
 10
3751.097059162403
 20
-675.8106869106073
 30
0.0
  0
POINT
  5
1929
330
18DE
100
AcDbEntity
  8
Defpoints
 62
     0
100
AcDbPoint
 10
3751.097059162403
 20
-732.3382796525761
 30
0.0
  0
ENDBLK
  5
18E0
330
18DE
100
AcDbEntity
  8
0
100
AcDbBlockEnd
  0
BLOCK
  5
1940
330
193F
100
AcDbEntity
  8
0
100
AcDbBlockBegin
  2
*D33
 70
     1
 10
0.0
 20
0.0
 30
0.0
  3
*D33
  1

  0
LINE
  5
1942
330
193F
100
AcDbEntity
  8
SIZE
 62
     0
370
    -2
100
AcDbLine
 10
3739.772059162405
 20
-665.810686910607
 30
0.0
 11
3709.779581908031
 21
-665.810686910607
 31
0.0
  0
LINE
  5
1943
330
193F
100
AcDbEntity
  8
SIZE
 62
     0
370
    -2
100
AcDbLine
 10
3755.972059162405
 20
-505.7767493240191
 30
0.0
 11
3709.779581908031
 21
-505.7767493240191
 31
0.0
  0
LINE
  5
1944
330
193F
100
AcDbEntity
  8
SIZE
 62
     0
370
    -2
100
AcDbLine
 10
3716.029581908031
 20
-653.310686910607
 30
0.0
 11
3716.029581908031
 21
-518.2767493240191
 31
0.0
  0
INSERT
  5
1945
330
193F
100
AcDbEntity
  8
SIZE
 62
     0
370
    -2
100
AcDbBlockReference
  2
_OPEN30
 10
3716.029581908031
 20
-665.810686910607
 30
0.0
 41
12.5
 42
12.5
 43
12.5
 50
270.0
  0
INSERT
  5
1946
330
193F
100
AcDbEntity
  8
SIZE
 62
     0
370
    -2
100
AcDbBlockReference
  2
_OPEN30
 10
3716.029581908031
 20
-505.7767493240191
 30
0.0
 41
12.5
 42
12.5
 43
12.5
 50
90.0
  0
MTEXT
  5
1947
330
193F
100
AcDbEntity
  8
SIZE
 62
     0
100
AcDbMText
 10
3706.654581908031
 20
-585.7937181173124
 30
0.0
 40
12.5
 41
0.0
 71
     5
 72
     1
  1
160
 11
0.0000000000000001
 21
1.0
 31
0.0
 73
     1
 44
1.0
1001
ACAD
1000
MTEXTBEGIN
1070
    73
1070
     1
1070
    44
1040
1.0
1070
    74
1070
     0
1000
MTEXTEND
  0
POINT
  5
1948
330
193F
100
AcDbEntity
  8
Defpoints
 62
     0
100
AcDbPoint
 10
3742.897059162404
 20
-665.810686910607
 30
0.0
  0
POINT
  5
1949
330
193F
100
AcDbEntity
  8
Defpoints
 62
     0
100
AcDbPoint
 10
3759.097059162403
 20
-505.7767493240191
 30
0.0
  0
POINT
  5
194A
330
193F
100
AcDbEntity
  8
Defpoints
 62
     0
100
AcDbPoint
 10
3716.029581908031
 20
-505.7767493240191
 30
0.0
  0
ENDBLK
  5
1941
330
193F
100
AcDbEntity
  8
0
100
AcDbBlockEnd
  0
BLOCK
  5
194D
330
194C
100
AcDbEntity
  8
0
100
AcDbBlockBegin
  2
*D34
 70
     1
 10
0.0
 20
0.0
 30
0.0
  3
*D34
  1

  0
LINE
  5
194F
330
194C
100
AcDbEntity
  8
SIZE
 62
     0
370
    -2
100
AcDbLine
 10
3764.772059162404
 20
-672.8106869106071
 30
0.0
 11
3684.388653181127
 21
-672.8106869106071
 31
0.0
  0
LINE
  5
1950
330
194C
100
AcDbEntity
  8
SIZE
 62
     0
370
    -2
100
AcDbLine
 10
3755.972059162405
 20
-505.7767493240191
 30
0.0
 11
3684.388653181127
 21
-505.7767493240191
 31
0.0
  0
LINE
  5
1951
330
194C
100
AcDbEntity
  8
SIZE
 62
     0
370
    -2
100
AcDbLine
 10
3690.638653181127
 20
-660.3106869106071
 30
0.0
 11
3690.638653181127
 21
-518.2767493240191
 31
0.0
  0
INSERT
  5
1952
330
194C
100
AcDbEntity
  8
SIZE
 62
     0
370
    -2
100
AcDbBlockReference
  2
_OPEN30
 10
3690.638653181127
 20
-672.8106869106071
 30
0.0
 41
12.5
 42
12.5
 43
12.5
 50
270.0
  0
INSERT
  5
1953
330
194C
100
AcDbEntity
  8
SIZE
 62
     0
370
    -2
100
AcDbBlockReference
  2
_OPEN30
 10
3690.638653181127
 20
-505.7767493240191
 30
0.0
 41
12.5
 42
12.5
 43
12.5
 50
90.0
  0
MTEXT
  5
1954
330
194C
100
AcDbEntity
  8
SIZE
 62
     0
100
AcDbMText
 10
3681.263653181127
 20
-589.2937181173124
 30
0.0
 40
12.5
 41
0.0
 71
     5
 72
     1
  1
167
 11
0.0000000000000001
 21
1.0
 31
0.0
 73
     1
 44
1.0
1001
ACAD
1000
MTEXTBEGIN
1070
    73
1070
     1
1070
    44
1040
1.0
1070
    74
1070
     0
1000
MTEXTEND
  0
POINT
  5
1955
330
194C
100
AcDbEntity
  8
Defpoints
 62
     0
100
AcDbPoint
 10
3767.897059162404
 20
-672.8106869106071
 30
0.0
  0
POINT
  5
1956
330
194C
100
AcDbEntity
  8
Defpoints
 62
     0
100
AcDbPoint
 10
3759.097059162403
 20
-505.7767493240191
 30
0.0
  0
POINT
  5
1957
330
194C
100
AcDbEntity
  8
Defpoints
 62
     0
100
AcDbPoint
 10
3690.638653181127
 20
-505.7767493240191
 30
0.0
  0
ENDBLK
  5
194E
330
194C
100
AcDbEntity
  8
0
100
AcDbBlockEnd
  0
BLOCK
  5
1A53
330
1A52
100
AcDbEntity
  8
0
100
AcDbBlockBegin
  2
*D35
 70
     1
 10
0.0
 20
0.0
 30
0.0
  3
*D35
  1

  0
LINE
  5
1A55
330
1A52
100
AcDbEntity
  8
SIZE
 62
     0
370
    -2
100
AcDbLine
 10
3742.897059162404
 20
-668.935686910607
 30
0.0
 11
3742.897059162404
 21
-791.0515495417592
 31
0.0
  0
LINE
  5
1A56
330
1A52
100
AcDbEntity
  8
SIZE
 62
     0
370
    -2
100
AcDbLine
 10
4433.297059162401
 20
-668.9356869106072
 30
0.0
 11
4433.297059162401
 21
-791.0515495417592
 31
0.0
  0
LINE
  5
1A57
330
1A52
100
AcDbEntity
  8
SIZE
 62
     0
370
    -2
100
AcDbLine
 10
3755.397059162405
 20
-784.8015495417592
 30
0.0
 11
4420.797059162402
 21
-784.8015495417592
 31
0.0
  0
INSERT
  5
1A58
330
1A52
100
AcDbEntity
  8
SIZE
 62
     0
370
    -2
100
AcDbBlockReference
  2
_OPEN30
 10
3742.897059162404
 20
-784.8015495417592
 30
0.0
 41
12.5
 42
12.5
 43
12.5
 50
180.0
  0
INSERT
  5
1A59
330
1A52
100
AcDbEntity
  8
SIZE
 62
     0
370
    -2
100
AcDbBlockReference
  2
_OPEN30
 10
4433.297059162401
 20
-784.8015495417592
 30
0.0
 41
12.5
 42
12.5
 43
12.5
  0
MTEXT
  5
1A5A
330
1A52
100
AcDbEntity
  8
SIZE
 62
     0
100
AcDbMText
 10
4088.097059162403
 20
-775.4265495417592
 30
0.0
 40
12.5
 41
0.0
 71
     5
 72
     1
  1
690.5
 73
     1
 44
1.0
1001
ACAD
1000
MTEXTBEGIN
1070
    73
1070
     1
1070
    44
1040
1.0
1070
    74
1070
     0
1000
MTEXTEND
  0
POINT
  5
1A5B
330
1A52
100
AcDbEntity
  8
Defpoints
 62
     0
100
AcDbPoint
 10
3742.897059162404
 20
-665.810686910607
 30
0.0
  0
POINT
  5
1A5C
330
1A52
100
AcDbEntity
  8
Defpoints
 62
     0
100
AcDbPoint
 10
4433.297059162401
 20
-665.8106869106072
 30
0.0
  0
POINT
  5
1A5D
330
1A52
100
AcDbEntity
  8
Defpoints
 62
     0
100
AcDbPoint
 10
4433.297059162401
 20
-784.8015495417592
 30
0.0
  0
ENDBLK
  5
1A54
330
1A52
100
AcDbEntity
  8
0
100
AcDbBlockEnd
  0
BLOCK
  5
1C33
330
1C32
100
AcDbEntity
  8
0
100
AcDbBlockBegin
  2
*D36
 70
     1
 10
0.0
 20
0.0
 30
0.0
  3
*D36
  1

  0
LINE
  5
1C35
330
1C32
100
AcDbEntity
  8
SIZE
 62
     0
370
    -2
100
AcDbLine
 10
4994.538168342292
 20
-681.3597867882537
 30
0.0
 11
4994.538168342292
 21
-741.1966292734109
 31
0.0
  0
LINE
  5
1C36
330
1C32
100
AcDbEntity
  8
SIZE
 62
     0
370
    -2
100
AcDbLine
 10
5434.538168342292
 20
-681.3597867882537
 30
0.0
 11
5434.538168342292
 21
-741.1966292734109
 31
0.0
  0
LINE
  5
1C37
330
1C32
100
AcDbEntity
  8
SIZE
 62
     0
370
    -2
100
AcDbLine
 10
5007.038168342292
 20
-734.9466292734109
 30
0.0
 11
5422.038168342292
 21
-734.9466292734109
 31
0.0
  0
INSERT
  5
1C38
330
1C32
100
AcDbEntity
  8
SIZE
 62
     0
370
    -2
100
AcDbBlockReference
  2
_OPEN30
 10
4994.538168342292
 20
-734.9466292734109
 30
0.0
 41
12.5
 42
12.5
 43
12.5
 50
180.0
  0
INSERT
  5
1C39
330
1C32
100
AcDbEntity
  8
SIZE
 62
     0
370
    -2
100
AcDbBlockReference
  2
_OPEN30
 10
5434.538168342292
 20
-734.9466292734109
 30
0.0
 41
12.5
 42
12.5
 43
12.5
  0
MTEXT
  5
1C3A
330
1C32
100
AcDbEntity
  8
SIZE
 62
     0
100
AcDbMText
 10
5214.538168342292
 20
-725.5716292734109
 30
0.0
 40
12.5
 41
0.0
 71
     5
 72
     1
  1
440
 73
     1
 44
1.0
1001
ACAD
1000
MTEXTBEGIN
1070
    73
1070
     1
1070
    44
1040
1.0
1070
    74
1070
     0
1000
MTEXTEND
  0
POINT
  5
1C3B
330
1C32
100
AcDbEntity
  8
Defpoints
 62
     0
100
AcDbPoint
 10
4994.538168342292
 20
-678.2347867882537
 30
0.0
  0
POINT
  5
1C3C
330
1C32
100
AcDbEntity
  8
Defpoints
 62
     0
100
AcDbPoint
 10
5434.538168342292
 20
-678.2347867882537
 30
0.0
  0
POINT
  5
1C3D
330
1C32
100
AcDbEntity
  8
Defpoints
 62
     0
100
AcDbPoint
 10
5434.538168342292
 20
-734.9466292734109
 30
0.0
  0
ENDBLK
  5
1C34
330
1C32
100
AcDbEntity
  8
0
100
AcDbBlockEnd
  0
BLOCK
  5
1C40
330
1C3F
100
AcDbEntity
  8
0
100
AcDbBlockBegin
  2
*D37
 70
     1
 10
0.0
 20
0.0
 30
0.0
  3
*D37
  1

  0
LINE
  5
1C42
330
1C3F
100
AcDbEntity
  8
SIZE
 62
     0
370
    -2
100
AcDbLine
 10
5473.538168342292
 20
-695.8364836675831
 30
0.0
 11
5473.538168342292
 21
-765.8222365912124
 31
0.0
  0
LINE
  5
1C43
330
1C3F
100
AcDbEntity
  8
SIZE
 62
     0
370
    -2
100
AcDbLine
 10
4832.538168342292
 20
-681.3597867882537
 30
0.0
 11
4832.538168342292
 21
-765.8222365912124
 31
0.0
  0
LINE
  5
1C44
330
1C3F
100
AcDbEntity
  8
SIZE
 62
     0
370
    -2
100
AcDbLine
 10
5461.038168342292
 20
-759.5722365912124
 30
0.0
 11
4845.038168342291
 21
-759.5722365912124
 31
0.0
  0
INSERT
  5
1C45
330
1C3F
100
AcDbEntity
  8
SIZE
 62
     0
370
    -2
100
AcDbBlockReference
  2
_OPEN30
 10
5473.538168342292
 20
-759.5722365912124
 30
0.0
 41
12.5
 42
12.5
 43
12.5
  0
INSERT
  5
1C46
330
1C3F
100
AcDbEntity
  8
SIZE
 62
     0
370
    -2
100
AcDbBlockReference
  2
_OPEN30
 10
4832.538168342292
 20
-759.5722365912124
 30
0.0
 41
12.5
 42
12.5
 43
12.5
 50
180.0
  0
MTEXT
  5
1C47
330
1C3F
100
AcDbEntity
  8
SIZE
 62
     0
100
AcDbMText
 10
5153.038168342292
 20
-750.1972365912124
 30
0.0
 40
12.5
 41
0.0
 71
     5
 72
     1
  1
641
 73
     1
 44
1.0
1001
ACAD
1000
MTEXTBEGIN
1070
    73
1070
     1
1070
    44
1040
1.0
1070
    74
1070
     0
1000
MTEXTEND
  0
POINT
  5
1C48
330
1C3F
100
AcDbEntity
  8
Defpoints
 62
     0
100
AcDbPoint
 10
5473.538168342292
 20
-692.7114836675831
 30
0.0
  0
POINT
  5
1C49
330
1C3F
100
AcDbEntity
  8
Defpoints
 62
     0
100
AcDbPoint
 10
4832.538168342292
 20
-678.2347867882537
 30
0.0
  0
POINT
  5
1C4A
330
1C3F
100
AcDbEntity
  8
Defpoints
 62
     0
100
AcDbPoint
 10
4832.538168342292
 20
-759.5722365912124
 30
0.0
  0
ENDBLK
  5
1C41
330
1C3F
100
AcDbEntity
  8
0
100
AcDbBlockEnd
  0
BLOCK
  5
1C4D
330
1C4C
100
AcDbEntity
  8
0
100
AcDbBlockBegin
  2
*D38
 70
     1
 10
0.0
 20
0.0
 30
0.0
  3
*D38
  1

  0
LINE
  5
1C4F
330
1C4C
100
AcDbEntity
  8
SIZE
 62
     0
370
    -2
100
AcDbLine
 10
4817.538168342291
 20
-671.3597867882538
 30
0.0
 11
4817.538168342291
 21
-794.2475737069557
 31
0.0
  0
LINE
  5
1C50
330
1C4C
100
AcDbEntity
  8
SIZE
 62
     0
370
    -2
100
AcDbLine
 10
5481.738168342292
 20
-686.8597867882535
 30
0.0
 11
5481.738168342292
 21
-794.2475737069557
 31
0.0
  0
LINE
  5
1C51
330
1C4C
100
AcDbEntity
  8
SIZE
 62
     0
370
    -2
100
AcDbLine
 10
4830.038168342292
 20
-787.9975737069557
 30
0.0
 11
5469.238168342292
 21
-787.9975737069557
 31
0.0
  0
INSERT
  5
1C52
330
1C4C
100
AcDbEntity
  8
SIZE
 62
     0
370
    -2
100
AcDbBlockReference
  2
_OPEN30
 10
4817.538168342291
 20
-787.9975737069557
 30
0.0
 41
12.5
 42
12.5
 43
12.5
 50
180.0
  0
INSERT
  5
1C53
330
1C4C
100
AcDbEntity
  8
SIZE
 62
     0
370
    -2
100
AcDbBlockReference
  2
_OPEN30
 10
5481.738168342292
 20
-787.9975737069557
 30
0.0
 41
12.5
 42
12.5
 43
12.5
  0
MTEXT
  5
1C54
330
1C4C
100
AcDbEntity
  8
SIZE
 62
     0
100
AcDbMText
 10
5149.638168342292
 20
-778.6225737069557
 30
0.0
 40
12.5
 41
0.0
 71
     5
 72
     1
  1
664
 73
     1
 44
1.0
1001
ACAD
1000
MTEXTBEGIN
1070
    73
1070
     1
1070
    44
1040
1.0
1070
    74
1070
     0
1000
MTEXTEND
  0
POINT
  5
1C55
330
1C4C
100
AcDbEntity
  8
Defpoints
 62
     0
100
AcDbPoint
 10
4817.538168342291
 20
-668.2347867882538
 30
0.0
  0
POINT
  5
1C56
330
1C4C
100
AcDbEntity
  8
Defpoints
 62
     0
100
AcDbPoint
 10
5481.738168342292
 20
-683.7347867882535
 30
0.0
  0
POINT
  5
1C57
330
1C4C
100
AcDbEntity
  8
Defpoints
 62
     0
100
AcDbPoint
 10
5481.738168342292
 20
-787.9975737069557
 30
0.0
  0
ENDBLK
  5
1C4E
330
1C4C
100
AcDbEntity
  8
0
100
AcDbBlockEnd
  0
BLOCK
  5
1C5A
330
1C59
100
AcDbEntity
  8
0
100
AcDbBlockBegin
  2
*D39
 70
     1
 10
0.0
 20
0.0
 30
0.0
  3
*D39
  1

  0
LINE
  5
1C5C
330
1C59
100
AcDbEntity
  8
SIZE
 62
     0
370
    -2
100
AcDbLine
 10
5484.863168342292
 20
-683.7347867882535
 30
0.0
 11
5536.526236958315
 21
-683.7347867882535
 31
0.0
  0
LINE
  5
1C5D
330
1C59
100
AcDbEntity
  8
SIZE
 62
     0
370
    -2
100
AcDbLine
 10
5468.663168342292
 20
-508.2008492016656
 30
0.0
 11
5536.526236958315
 21
-508.2008492016656
 31
0.0
  0
LINE
  5
1C5E
330
1C59
100
AcDbEntity
  8
SIZE
 62
     0
370
    -2
100
AcDbLine
 10
5530.276236958314
 20
-671.2347867882535
 30
0.0
 11
5530.276236958314
 21
-520.7008492016658
 31
0.0
  0
INSERT
  5
1C5F
330
1C59
100
AcDbEntity
  8
SIZE
 62
     0
370
    -2
100
AcDbBlockReference
  2
_OPEN30
 10
5530.276236958314
 20
-683.7347867882535
 30
0.0
 41
12.5
 42
12.5
 43
12.5
 50
270.0
  0
INSERT
  5
1C60
330
1C59
100
AcDbEntity
  8
SIZE
 62
     0
370
    -2
100
AcDbBlockReference
  2
_OPEN30
 10
5530.276236958314
 20
-508.2008492016656
 30
0.0
 41
12.5
 42
12.5
 43
12.5
 50
90.0
  0
MTEXT
  5
1C61
330
1C59
100
AcDbEntity
  8
SIZE
 62
     0
100
AcDbMText
 10
5520.901236958315
 20
-595.9678179949587
 30
0.0
 40
12.5
 41
0.0
 71
     5
 72
     1
  1
175.5
 11
0.0000000000000001
 21
1.0
 31
0.0
 73
     1
 44
1.0
1001
ACAD
1000
MTEXTBEGIN
1070
    73
1070
     1
1070
    44
1040
1.0
1070
    74
1070
     0
1000
MTEXTEND
  0
POINT
  5
1C62
330
1C59
100
AcDbEntity
  8
Defpoints
 62
     0
100
AcDbPoint
 10
5481.738168342292
 20
-683.7347867882535
 30
0.0
  0
POINT
  5
1C63
330
1C59
100
AcDbEntity
  8
Defpoints
 62
     0
100
AcDbPoint
 10
5465.538168342292
 20
-508.2008492016656
 30
0.0
  0
POINT
  5
1C64
330
1C59
100
AcDbEntity
  8
Defpoints
 62
     0
100
AcDbPoint
 10
5530.276236958314
 20
-508.2008492016656
 30
0.0
  0
ENDBLK
  5
1C5B
330
1C59
100
AcDbEntity
  8
0
100
AcDbBlockEnd
  0
BLOCK
  5
1C67
330
1C66
100
AcDbEntity
  8
0
100
AcDbBlockBegin
  2
*D40
 70
     1
 10
0.0
 20
0.0
 30
0.0
  3
*D40
  1

  0
LINE
  5
1C72
330
1C66
100
AcDbEntity
  8
SIZE
 62
     0
370
    -2
100
AcDbLine
 10
4815.413168342292
 20
-508.2008492016656
 30
0.0
 11
4763.14103214871
 21
-508.2008492016656
 31
0.0
  0
LINE
  5
1C73
330
1C66
100
AcDbEntity
  8
SIZE
 62
     0
370
    -2
100
AcDbLine
 10
4814.413168342292
 20
-668.2347867882538
 30
0.0
 11
4763.14103214871
 21
-668.2347867882538
 31
0.0
  0
LINE
  5
1C74
330
1C66
100
AcDbEntity
  8
SIZE
 62
     0
370
    -2
100
AcDbLine
 10
4769.39103214871
 20
-520.7008492016655
 30
0.0
 11
4769.39103214871
 21
-655.7347867882538
 31
0.0
  0
INSERT
  5
1C75
330
1C66
100
AcDbEntity
  8
SIZE
 62
     0
370
    -2
100
AcDbBlockReference
  2
_OPEN30
 10
4769.39103214871
 20
-508.2008492016656
 30
0.0
 41
12.5
 42
12.5
 43
12.5
 50
90.0
  0
INSERT
  5
1C76
330
1C66
100
AcDbEntity
  8
SIZE
 62
     0
370
    -2
100
AcDbBlockReference
  2
_OPEN30
 10
4769.39103214871
 20
-668.2347867882538
 30
0.0
 41
12.5
 42
12.5
 43
12.5
 50
270.0
  0
MTEXT
  5
1C77
330
1C66
100
AcDbEntity
  8
SIZE
 62
     0
100
AcDbMText
 10
4760.01603214871
 20
-588.217817994959
 30
0.0
 40
12.5
 41
0.0
 71
     5
 72
     1
  1
160
 11
0.0000000000000001
 21
1.0
 31
0.0
 73
     1
 44
1.0
1001
ACAD
1000
MTEXTBEGIN
1070
    73
1070
     1
1070
    44
1040
1.0
1070
    74
1070
     0
1000
MTEXTEND
  0
POINT
  5
1C78
330
1C66
100
AcDbEntity
  8
Defpoints
 62
     0
100
AcDbPoint
 10
4818.538168342292
 20
-508.2008492016656
 30
0.0
  0
POINT
  5
1C79
330
1C66
100
AcDbEntity
  8
Defpoints
 62
     0
100
AcDbPoint
 10
4817.538168342291
 20
-668.2347867882538
 30
0.0
  0
POINT
  5
1C7A
330
1C66
100
AcDbEntity
  8
Defpoints
 62
     0
100
AcDbPoint
 10
4769.39103214871
 20
-668.2347867882538
 30
0.0
  0
ENDBLK
  5
1C68
330
1C66
100
AcDbEntity
  8
0
100
AcDbBlockEnd
  0
ENDSEC
  0
SECTION
  2
ENTITIES
  0
MULTILEADER
  5
15E6
330
2
100
AcDbEntity
  8
NOTE
 92
      976
310
D00300001B0000000C00000010000000050000000C00000016000000000000C00C00000013000000112700003C000000060000000200000092E34D5661BDB2405FD5B6837E0786C000000000000000000321582D05BDB2405FD5B6837E0786C000000000000000000C0000001300000001000000880000001D0000008D64D8
310
23394B21401AF772ACA70D22C00000000000000000E38566C589E0B2401AF772ACA70D22408D64D823394B21400000000000000000AA48E5D7E0E184C00000000000000000000000000000000000000000000029400000000000000000000000000000000000000000000000000000000000000000000000000000F03F0C00
310
000016000000040000C30C00000017000000FDFFFFFF540000002000000002000000000000000000F0BF498A025C1426D13F000000000000000000000000000000000000000000000000000000000000000000000000000000000000000000000000000000000000F03F0C00000016000000040000C30C00000017000000FD
310
FFFFFF540000002000000002000000000000000000000000000000000000000000000000000000000000000000F0BF498A025C1426D1BF000000000000000000000000000000000000000000000000000000000000F03F0C00000016000000040000C30C00000017000000FDFFFFFF54000000200000000200000000000000
310
0000000000000000000000000000000000000000000000000000F0BF0000000000000000000000000000000000000000000000000000000000000000000000000000F03F080000001F0000000C00000016000000000000C00C00000013000000891300003C0000000600000002000000B199D428E4D7B24086149776172A85
310
C0000000000000000092E34D5661BDB2405FD5B6837E0786C000000000000000000C000000130000009A3A00003C0000000600000002000000D21495FC788CB2405ED5B6837E0786C000000000000000000321582D05BDB2405ED5B6837E0786C000000000000000000C00000016000000000000C00C00000012000000FF7F
310
00000C00000017000000FFFFFFFF0C00000016000000000000C00C00000013000000993A0000B00000000B000000ACCB02D8AF8AB2405ED5B6837EF385C0000000000000000000000000000000000000000000000000000000000000F03F000000000000F03F0000000000000000000000000000000038817E5C552B323230
310
3535000B000000010000000000000000002940000000000000F03F0000000000000000000000000000F03F0000000000000000000000000000000000000000726F6D616E732E7368780056626967666F6E742E73687800
100
AcDbMLeader
300
CONTEXT_DATA{
 40
1.0
 10
4746.472604100783
 20
-697.4367746623864
 30
0.0
 41
12.5
140
12.5
145
2.0
174
     1
175
     6
176
     2
177
     0
290
     1
304
8×%%C5
 11
0.0
 21
0.0
 31
1.0
340
22
 12
4795.020223148402
 22
-689.9367746623863
 32
0.0
 13
1.0
 23
0.0
 33
0.0
 42
0.0
 43
0.0
 44
0.0
 45
1.0
170
     1
 90
-1073741824
171
     3
172
     5
 91
-1073741824
141
0.0
 92
 10215496
291
     0
292
     0
173
     0
293
     0
142
0.0
143
0.0
294
     0
295
     0
296
     0
110
4832.538168342292
120
-668.2347867882538
130
0.0
111
1.0
121
0.0
131
0.0
112
0.0
122
1.0
132
0.0
297
     0
302
LEADER{
290
     1
291
     1
 10
4797.380223148402
 20
-704.9367746623865
 30
0.0
 11
-1.0
 21
0.0
 31
0.0
 90
        0
 40
0.36
304
LEADER_LINE{
 10
4832.538168342292
 20
-668.2347867882538
 30
0.0
 91
        0
305
}
303
}
301
}
340
455
 90
   345344
170
     1
 91
-1056964608
341
25
171
    -2
290
     1
291
     1
 41
0.36
342
48
 42
12.5
172
     2
343
22
173
     1
 95
        6
174
     1
175
     2
 92
-1056964608
292
     0
 93
-1056964608
 10
1.0
 20
1.0
 30
1.0
 43
0.0
176
     0
293
     0
294
     0
178
     0
179
     3
 45
1.0
1001
ACAD_MLEADERVER
1070
     2
  0
MTEXT
  5
15E7
330
2
100
AcDbEntity
  8
ETC
100
AcDbMText
 10
4960.905201951735
 20
-413.3134576171424
 30
0.0
 40
40.0
 41
586.619539310102
 71
     1
 72
     5
  1
AGJT-15B-6
 73
     1
 44
1.0
1001
ACAD
1000
MTEXTBEGIN
1070
    73
1070
     1
1070
    44
1040
1.0
1070
    74
1070
     0
1000
MTEXTEND
  0
LINE
  5
1BBD
330
2
100
AcDbEntity
  8
OUTLINE
100
AcDbLine
 10
5465.538168342292
 20
-509.0347867882536
 30
0.0
 11
5462.538168342292
 21
-509.0347867882536
 31
0.0
  0
LINE
  5
1BBE
330
2
100
AcDbEntity
  8
OUTLINE
100
AcDbLine
 10
4821.538168342292
 20
-509.0347867882536
 30
0.0
 11
4818.538168342292
 21
-509.0347867882536
 31
0.0
  0
LINE
  5
1BBF
330
2
100
AcDbEntity
  8
OUTLINE
100
AcDbLine
 10
4821.538168342292
 20
-509.0347867882536
 30
0.0
 11
5462.538168342292
 21
-509.0347867882536
 31
0.0
  0
LINE
  5
1BC0
330
2
100
AcDbEntity
  8
OUTLINE
100
AcDbLine
 10
5462.538168342292
 20
-509.0347867882536
 30
0.0
 11
5462.538168342292
 21
-509.8347867882536
 31
0.0
  0
LINE
  5
1BC1
330
2
100
AcDbEntity
  8
OUTLINE
100
AcDbLine
 10
5465.538168342292
 20
-509.8347867882535
 30
0.0
 11
5465.538168342292
 21
-509.0347867882533
 31
0.0
  0
LINE
  5
1BC2
330
2
100
AcDbEntity
  8
OUTLINE
100
AcDbLine
 10
4821.538168342292
 20
-509.8347867882535
 30
0.0
 11
4821.538168342292
 21
-509.0347867882536
 31
0.0
  0
LINE
  5
1BC3
330
2
100
AcDbEntity
  8
OUTLINE
100
AcDbLine
 10
4821.538168342292
 20
-509.8347867882535
 30
0.0
 11
4835.538168342292
 21
-509.8347867882535
 31
0.0
  0
LINE
  5
1BC4
330
2
100
AcDbEntity
  8
OUTLINE
100
AcDbLine
 10
4835.538168342292
 20
-509.8347867882535
 30
0.0
 11
4835.538168342292
 21
-510.6347867882536
 31
0.0
  0
LINE
  5
1BC5
330
2
100
AcDbEntity
  8
OUTLINE
100
AcDbLine
 10
5448.538168342292
 20
-510.6347867882536
 30
0.0
 11
4835.538168342292
 21
-510.6347867882536
 31
0.0
  0
LINE
  5
1BC6
330
2
100
AcDbEntity
  8
OUTLINE
100
AcDbLine
 10
5448.538168342292
 20
-510.6347867882536
 30
0.0
 11
5448.538168342292
 21
-509.8347867882536
 31
0.0
  0
LINE
  5
1BC7
330
2
100
AcDbEntity
  8
OUTLINE
100
AcDbLine
 10
5448.538168342292
 20
-509.8347867882535
 30
0.0
 11
5462.538168342292
 21
-509.8347867882535
 31
0.0
  0
LINE
  5
1BC8
330
2
100
AcDbEntity
  8
OUTLINE
100
AcDbLine
 10
4818.538168342292
 20
-509.0347867882536
 30
0.0
 11
4818.538168342292
 21
-509.8347867882535
 31
0.0
  0
LINE
  5
1BC9
330
2
100
AcDbEntity
  8
OUTLINE
100
AcDbLine
 10
4828.538168342292
 20
-652.7347867882538
 30
0.0
 11
4828.538168342292
 21
-655.7347867882538
 31
0.0
  0
LINE
  5
1BCA
330
2
100
AcDbEntity
  8
OUTLINE
100
AcDbLine
 10
4828.538168342292
 20
-655.7347867882538
 30
0.0
 11
4825.538168342291
 21
-655.7347867882538
 31
0.0
  0
LINE
  5
1BCB
330
2
100
AcDbEntity
  8
OUTLINE
100
AcDbLine
 10
4825.538168342291
 20
-655.7347867882538
 30
0.0
 11
4825.538168342291
 21
-652.7347867882538
 31
0.0
  0
LINE
  5
1BCC
330
2
100
AcDbEntity
  8
OUTLINE
100
AcDbLine
 10
4825.538168342291
 20
-652.7347867882538
 30
0.0
 11
4828.538168342292
 21
-652.7347867882538
 31
0.0
  0
LINE
  5
1BCD
330
2
100
AcDbEntity
  8
OUTLINE
100
AcDbLine
 10
5458.538168342292
 20
-652.7347867882538
 30
0.0
 11
5458.538168342292
 21
-655.7347867882538
 31
0.0
  0
LINE
  5
1BCE
330
2
100
AcDbEntity
  8
OUTLINE
100
AcDbLine
 10
5458.538168342292
 20
-655.7347867882538
 30
0.0
 11
5455.538168342292
 21
-655.7347867882538
 31
0.0
  0
LINE
  5
1BCF
330
2
100
AcDbEntity
  8
OUTLINE
100
AcDbLine
 10
5455.538168342292
 20
-655.7347867882538
 30
0.0
 11
5455.538168342292
 21
-652.7347867882538
 31
0.0
  0
LINE
  5
1BD0
330
2
100
AcDbEntity
  8
OUTLINE
100
AcDbLine
 10
5455.538168342292
 20
-652.7347867882538
 30
0.0
 11
5458.538168342292
 21
-652.7347867882538
 31
0.0
  0
LINE
  5
1BD1
330
2
100
AcDbEntity
  8
OUTLINE
100
AcDbLine
 10
4842.538168342292
 20
-668.2347867882538
 30
0.0
 11
5453.538168342292
 21
-668.2347867882538
 31
0.0
  0
LINE
  5
1BD2
330
2
100
AcDbEntity
  8
OUTLINE
100
AcDbLine
 10
5450.538168342291
 20
-643.2347867882538
 30
0.0
 11
4822.538168342292
 21
-643.2347867882538
 31
0.0
  0
LINE
  5
1BD3
330
2
100
AcDbEntity
  8
OUTLINE
100
AcDbLine
 10
5465.538168342292
 20
-508.2008492016656
 30
0.0
 11
5462.538168342292
 21
-508.2008492016656
 31
0.0
  0
LINE
  5
1BD4
330
2
100
AcDbEntity
  8
OUTLINE
100
AcDbLine
 10
5462.538168342292
 20
-508.2008492016656
 30
0.0
 11
5462.538168342292
 21
-509.0008492016656
 31
0.0
  0
LINE
  5
1BD5
330
2
100
AcDbEntity
  8
OUTLINE
100
AcDbLine
 10
5462.538168342292
 20
-509.0008492016656
 30
0.0
 11
5465.538168342292
 21
-509.0008492016656
 31
0.0
  0
LINE
  5
1BD6
330
2
100
AcDbEntity
  8
OUTLINE
100
AcDbLine
 10
5465.538168342292
 20
-509.0008492016656
 30
0.0
 11
5465.538168342292
 21
-508.2008492016656
 31
0.0
  0
LINE
  5
1BD7
330
2
100
AcDbEntity
  8
OUTLINE
100
AcDbLine
 10
4821.538168342292
 20
-509.0008492016657
 30
0.0
 11
5462.538168342292
 21
-509.0008492016656
 31
0.0
  0
LINE
  5
1BD8
330
2
100
AcDbEntity
  8
OUTLINE
100
AcDbLine
 10
4818.538168342292
 20
-509.0008492016657
 30
0.0
 11
4821.538168342292
 21
-509.0008492016657
 31
0.0
  0
LINE
  5
1BD9
330
2
100
AcDbEntity
  8
OUTLINE
100
AcDbLine
 10
4821.538168342292
 20
-508.2008492016656
 30
0.0
 11
5462.538168342292
 21
-508.2008492016656
 31
0.0
  0
LINE
  5
1BDA
330
2
100
AcDbEntity
  8
OUTLINE
100
AcDbLine
 10
4821.538168342292
 20
-509.0008492016657
 30
0.0
 11
4821.538168342292
 21
-508.2008492016656
 31
0.0
  0
LINE
  5
1BDB
330
2
100
AcDbEntity
  8
OUTLINE
100
AcDbLine
 10
4821.538168342292
 20
-508.2008492016656
 30
0.0
 11
4818.538168342292
 21
-508.2008492016656
 31
0.0
  0
LINE
  5
1BDC
330
2
100
AcDbEntity
  8
OUTLINE
100
AcDbLine
 10
4818.538168342292
 20
-508.2008492016656
 30
0.0
 11
4818.538168342292
 21
-509.0008492016656
 31
0.0
  0
LINE
  5
1BDD
330
2
100
AcDbEntity
  8
OUTLINE
100
AcDbLine
 10
5465.538168342292
 20
-509.0347867882533
 30
0.0
 11
5465.538168342292
 21
-509.0008492016656
 31
0.0
  0
LINE
  5
1BDE
330
2
100
AcDbEntity
  8
OUTLINE
100
AcDbLine
 10
4818.538168342292
 20
-509.0008492016657
 30
0.0
 11
4818.538168342292
 21
-509.0347867882536
 31
0.0
  0
ELLIPSE
  5
1BDF
330
2
100
AcDbEntity
  8
OUTLINE
100
AcDbEllipse
 10
4827.038168342292
 20
-578.2507936872242
 30
0.0
 11
-2.0
 21
-0.0000000000000001
 31
0.0
210
0.0
220
0.0
230
1.0
 40
0.866025403784439
 41
0.1157282058893003
 42
3.025864447700493
  0
ELLIPSE
  5
1BE0
330
2
100
AcDbEntity
  8
OUTLINE
100
AcDbEllipse
 10
4827.038168342292
 20
-578.6507936872242
 30
0.0
 11
-2.0
 21
-0.0000000000000001
 31
0.0
210
0.0
220
0.0
230
1.0
 40
0.866025403784439
 41
1.570796326794896
 42
7.853981633974482
  0
CIRCLE
  5
1BE1
330
2
100
AcDbEntity
  8
OUTLINE
100
AcDbCircle
 10
4827.038168342292
 20
-654.2347867882538
 30
0.0
 40
2.5
  0
LINE
  5
1BE2
330
2
100
AcDbEntity
  8
OUTLINE
100
AcDbLine
 10
4842.538168342292
 20
-667.4347867882537
 30
0.0
 11
4839.538168342292
 21
-667.4347867882537
 31
0.0
  0
LINE
  5
1BE3
330
2
100
AcDbEntity
  8
OUTLINE
100
AcDbLine
 10
4839.538168342292
 20
-667.4347867882537
 30
0.0
 11
4839.538168342292
 21
-668.2347867882538
 31
0.0
  0
LINE
  5
1BE4
330
2
100
AcDbEntity
  8
OUTLINE
100
AcDbLine
 10
4839.538168342292
 20
-668.2347867882538
 30
0.0
 11
4842.538168342292
 21
-668.2347867882538
 31
0.0
  0
LINE
  5
1BE5
330
2
100
AcDbEntity
  8
OUTLINE
100
AcDbLine
 10
4842.538168342292
 20
-668.2347867882538
 30
0.0
 11
4842.538168342292
 21
-667.4347867882537
 31
0.0
  0
LINE
  5
1BE6
330
2
100
AcDbEntity
  8
OUTLINE
100
AcDbLine
 10
4817.538168342291
 20
-668.2347867882538
 30
0.0
 11
4839.538168342292
 21
-668.2347867882538
 31
0.0
  0
LINE
  5
1BE7
330
2
100
AcDbEntity
  8
OUTLINE
100
AcDbLine
 10
4830.895427695966
 20
-510.6347867882536
 30
0.0
 11
4833.538168342292
 21
-510.6347867882536
 31
0.0
  0
LINE
  5
1BE8
330
2
100
AcDbEntity
  8
OUTLINE
100
AcDbLine
 10
4833.538168342292
 20
-510.6347867882536
 30
0.0
 11
4833.538168342292
 21
-509.8347867882536
 31
0.0
  0
LINE
  5
1BE9
330
2
100
AcDbEntity
  8
OUTLINE
100
AcDbLine
 10
4830.538168342292
 20
-509.8347867882537
 30
0.0
 11
4830.538168342292
 21
-511.0333590807626
 31
0.0
  0
LINE
  5
1BEA
330
2
100
AcDbEntity
  8
OUTLINE
100
AcDbLine
 10
4830.538168342292
 20
-511.0333590807626
 30
0.0
 11
4830.895427695966
 21
-510.6347867882536
 31
0.0
  0
LINE
  5
1BEB
330
2
100
AcDbEntity
  8
OUTLINE
100
AcDbLine
 10
4830.538168342292
 20
-509.8347867882537
 30
0.0
 11
4818.338168342292
 21
-509.8347867882537
 31
0.0
  0
LINE
  5
1BEC
330
2
100
AcDbEntity
  8
OUTLINE
100
AcDbLine
 10
4830.538168342292
 20
-511.0333590807626
 30
0.0
 11
4819.138168342291
 21
-511.0333590807626
 31
0.0
  0
LINE
  5
1BED
330
2
100
AcDbEntity
  8
OUTLINE
100
AcDbLine
 10
4818.338168342292
 20
-509.8347867882537
 30
0.0
 11
4817.538168342291
 21
-509.8347867882537
 31
0.0
  0
LINE
  5
1BEE
330
2
100
AcDbEntity
  8
OUTLINE
100
AcDbLine
 10
4833.538168342292
 20
-510.6347867882536
 30
0.0
 11
4833.538168342292
 21
-599.4674911952475
 31
0.0
  0
LINE
  5
1BEF
330
2
100
AcDbEntity
  8
OUTLINE
100
AcDbLine
 10
4818.338168342292
 20
-666.6901418365536
 30
0.0
 11
4819.138168342291
 21
-666.6901418365536
 31
0.0
  0
LINE
  5
1BF0
330
2
100
AcDbEntity
  8
OUTLINE
100
AcDbLine
 10
4818.338168342292
 20
-510.5794317399541
 30
0.0
 11
4819.138168342291
 21
-510.5794317399541
 31
0.0
  0
LINE
  5
1BF1
330
2
100
AcDbEntity
  8
OUTLINE
100
AcDbLine
 10
4819.138168342291
 20
-666.6901418365536
 30
0.0
 11
4819.138168342291
 21
-510.5794317399541
 31
0.0
  0
LINE
  5
1BF2
330
2
100
AcDbEntity
  8
OUTLINE
100
AcDbLine
 10
4818.338168342292
 20
-667.4347867882537
 30
0.0
 11
4818.338168342292
 21
-666.6901418365536
 31
0.0
  0
LINE
  5
1BF3
330
2
100
AcDbEntity
  8
OUTLINE
100
AcDbLine
 10
4818.338168342292
 20
-510.5794317399541
 30
0.0
 11
4818.338168342292
 21
-509.8347867882537
 31
0.0
  0
LINE
  5
1BF4
330
2
100
AcDbEntity
  8
OUTLINE
100
AcDbLine
 10
4839.538168342292
 20
-667.4347867882537
 30
0.0
 11
4818.338168342292
 21
-667.4347867882537
 31
0.0
  0
LINE
  5
1BF5
330
2
100
AcDbEntity
  8
OUTLINE
100
AcDbLine
 10
4817.538168342291
 20
-509.8347867882537
 30
0.0
 11
4817.538168342291
 21
-668.2347867882538
 31
0.0
  0
LINE
  5
1BF6
330
2
100
AcDbEntity
  8
OUTLINE
100
AcDbLine
 10
4830.538168342292
 20
-643.6966670036056
 30
0.0
 11
4833.538168342292
 21
-647.1607686187434
 31
0.0
  0
LINE
  5
1BF7
330
2
100
AcDbEntity
  8
OUTLINE
100
AcDbLine
 10
4833.538168342292
 20
-647.1607686187432
 30
0.0
 11
4833.538168342292
 21
-646.6988884033914
 31
0.0
  0
LINE
  5
1BF8
330
2
100
AcDbEntity
  8
OUTLINE
100
AcDbLine
 10
4833.538168342292
 20
-646.6988884033915
 30
0.0
 11
4830.538168342292
 21
-643.2347867882538
 31
0.0
  0
LINE
  5
1BF9
330
2
100
AcDbEntity
  8
OUTLINE
100
AcDbLine
 10
4830.538168342292
 20
-643.2347867882538
 30
0.0
 11
4830.538168342292
 21
-643.6966670036056
 31
0.0
  0
LINE
  5
1BFA
330
2
100
AcDbEntity
  8
OUTLINE
100
AcDbLine
 10
4830.538168342292
 20
-643.2347867882538
 30
0.0
 11
4822.538168342292
 21
-643.2347867882538
 31
0.0
  0
LINE
  5
1BFB
330
2
100
AcDbEntity
  8
OUTLINE
100
AcDbLine
 10
4833.538168342292
 20
-647.1607686187432
 30
0.0
 11
4833.538168342292
 21
-667.4347867882537
 31
0.0
  0
LINE
  5
1BFC
330
2
100
AcDbEntity
  8
OUTLINE
100
AcDbLine
 10
4833.538168342292
 20
-599.4674911952475
 30
0.0
 11
4830.538168342292
 21
-602.0655674066006
 31
0.0
  0
LINE
  5
1BFD
330
2
100
AcDbEntity
  8
OUTLINE
100
AcDbLine
 10
4822.538168342292
 20
-602.0655674066006
 30
0.0
 11
4830.538168342292
 21
-602.0655674066006
 31
0.0
  0
LINE
  5
1BFE
330
2
100
AcDbEntity
  8
OUTLINE
100
AcDbLine
 10
4822.538168342292
 20
-643.4491461421987
 30
0.0
 11
4822.538168342292
 21
-602.0655674066007
 31
0.0
  0
LINE
  5
1BFF
330
2
100
AcDbEntity
  8
OUTLINE
100
AcDbLine
 10
4822.538168342292
 20
-643.6966670036056
 30
0.0
 11
4822.538168342292
 21
-643.4491461421987
 31
0.0
  0
LINE
  5
1C00
330
2
100
AcDbEntity
  8
OUTLINE
100
AcDbLine
 10
4830.538168342292
 20
-643.6966670036056
 30
0.0
 11
4822.538168342292
 21
-643.6966670036056
 31
0.0
  0
LINE
  5
1C01
330
2
100
AcDbEntity
  8
OUTLINE
100
AcDbLine
 10
4822.538168342292
 20
-643.4491461421987
 30
0.0
 11
4819.138168342291
 21
-643.4491461421987
 31
0.0
  0
CIRCLE
  5
1C02
330
2
100
AcDbEntity
  8
OUTLINE
100
AcDbCircle
 10
5457.038168342292
 20
-654.2347867882538
 30
0.0
 40
2.5
  0
ELLIPSE
  5
1C03
330
2
100
AcDbEntity
  8
OUTLINE
100
AcDbEllipse
 10
5457.038168342292
 20
-578.6507936872242
 30
0.0
 11
-2.0
 21
-0.0000000000000001
 31
0.0
210
0.0
220
0.0
230
1.0
 40
0.866025403784439
 41
1.570796326794896
 42
7.853981633974482
  0
ELLIPSE
  5
1C04
330
2
100
AcDbEntity
  8
OUTLINE
100
AcDbEllipse
 10
5457.038168342292
 20
-578.2507936872242
 30
0.0
 11
-2.0
 21
-0.0000000000000001
 31
0.0
210
0.0
220
0.0
230
1.0
 40
0.8660254037844389
 41
0.1157282058893003
 42
3.025864447700493
  0
LINE
  5
1C05
330
2
100
AcDbEntity
  8
OUTLINE
100
AcDbLine
 10
5450.538168342291
 20
-509.8347867882536
 30
0.0
 11
5450.538168342291
 21
-510.6347867882536
 31
0.0
  0
LINE
  5
1C06
330
2
100
AcDbEntity
  8
OUTLINE
100
AcDbLine
 10
5450.538168342291
 20
-510.6347867882536
 30
0.0
 11
5453.538168342292
 21
-510.6347867882536
 31
0.0
  0
LINE
  5
1C07
330
2
100
AcDbEntity
  8
OUTLINE
100
AcDbLine
 10
5453.538168342292
 20
-510.6347867882536
 30
0.0
 11
5453.538168342292
 21
-509.8347867882536
 31
0.0
  0
LINE
  5
1C08
330
2
100
AcDbEntity
  8
OUTLINE
100
AcDbLine
 10
5465.738168342292
 20
-509.8347867882536
 30
0.0
 11
5453.538168342292
 21
-509.8347867882536
 31
0.0
  0
LINE
  5
1C09
330
2
100
AcDbEntity
  8
OUTLINE
100
AcDbLine
 10
5466.538168342292
 20
-509.8347867882536
 30
0.0
 11
5465.738168342292
 21
-509.8347867882536
 31
0.0
  0
LINE
  5
1C0A
330
2
100
AcDbEntity
  8
OUTLINE
100
AcDbLine
 10
5464.938168342292
 20
-510.6347867882536
 30
0.0
 11
5453.538168342292
 21
-510.6347867882536
 31
0.0
  0
LINE
  5
1C0B
330
2
100
AcDbEntity
  8
OUTLINE
100
AcDbLine
 10
5481.738168342292
 20
-682.9347867882537
 30
0.0
 11
5478.738168342292
 21
-682.9347867882537
 31
0.0
  0
LINE
  5
1C0C
330
2
100
AcDbEntity
  8
OUTLINE
100
AcDbLine
 10
5478.738168342292
 20
-682.9347867882537
 30
0.0
 11
5478.738168342292
 21
-683.7347867882535
 31
0.0
  0
LINE
  5
1C0D
330
2
100
AcDbEntity
  8
OUTLINE
100
AcDbLine
 10
5478.738168342292
 20
-683.7347867882535
 30
0.0
 11
5481.738168342292
 21
-683.7347867882535
 31
0.0
  0
LINE
  5
1C0E
330
2
100
AcDbEntity
  8
OUTLINE
100
AcDbLine
 10
5481.738168342292
 20
-683.7347867882535
 30
0.0
 11
5481.738168342292
 21
-682.9347867882537
 31
0.0
  0
LINE
  5
1C0F
330
2
100
AcDbEntity
  8
OUTLINE
100
AcDbLine
 10
5466.538168342292
 20
-682.9347867882537
 30
0.0
 11
5478.738168342292
 21
-682.9347867882537
 31
0.0
  0
LINE
  5
1C10
330
2
100
AcDbEntity
  8
OUTLINE
100
AcDbLine
 10
5453.538168342292
 20
-668.2347867882538
 30
0.0
 11
5450.538168342291
 21
-665.2347867882532
 31
0.0
  0
LINE
  5
1C11
330
2
100
AcDbEntity
  8
OUTLINE
100
AcDbLine
 10
5453.538168342292
 20
-668.2347867882538
 30
0.0
 11
5465.738168342292
 21
-668.2347867882538
 31
0.0
  0
LINE
  5
1C12
330
2
100
AcDbEntity
  8
OUTLINE
100
AcDbLine
 10
5450.538168342291
 20
-643.4491461421985
 30
0.0
 11
5464.938168342292
 21
-643.4491461421985
 31
0.0
  0
LINE
  5
1C13
330
2
100
AcDbEntity
  8
OUTLINE
100
AcDbLine
 10
5450.538168342291
 20
-665.2347867882532
 30
0.0
 11
5450.538168342291
 21
-643.4491461421985
 31
0.0
  0
LINE
  5
1C14
330
2
100
AcDbEntity
  8
OUTLINE
100
AcDbLine
 10
5465.738168342292
 20
-668.2347867882538
 30
0.0
 11
5465.738168342292
 21
-683.7347867882535
 31
0.0
  0
LINE
  5
1C15
330
2
100
AcDbEntity
  8
OUTLINE
100
AcDbLine
 10
5465.738168342292
 20
-666.8944258751927
 30
0.0
 11
5465.738168342292
 21
-668.2347867882538
 31
0.0
  0
LINE
  5
1C16
330
2
100
AcDbEntity
  8
OUTLINE
100
AcDbLine
 10
5465.738168342292
 20
-509.8347867882542
 30
0.0
 11
5465.738168342292
 21
-510.5794317399539
 31
0.0
  0
LINE
  5
1C17
330
2
100
AcDbEntity
  8
OUTLINE
100
AcDbLine
 10
5466.538168342292
 20
-682.9347867882537
 30
0.0
 11
5466.538168342292
 21
-668.2347867882538
 31
0.0
  0
LINE
  5
1C18
330
2
100
AcDbEntity
  8
OUTLINE
100
AcDbLine
 10
5466.538168342292
 20
-668.2347867882538
 30
0.0
 11
5465.738168342292
 21
-668.2347867882538
 31
0.0
  0
LINE
  5
1C19
330
2
100
AcDbEntity
  8
OUTLINE
100
AcDbLine
 10
5478.738168342292
 20
-683.7347867882535
 30
0.0
 11
5465.738168342292
 21
-683.7347867882535
 31
0.0
  0
LINE
  5
1C1A
330
2
100
AcDbEntity
  8
OUTLINE
100
AcDbLine
 10
5450.538168342291
 20
-643.4491461421985
 30
0.0
 11
5450.538168342291
 21
-510.6347867882536
 31
0.0
  0
LINE
  5
1C1B
330
2
100
AcDbEntity
  8
OUTLINE
100
AcDbLine
 10
5465.738168342292
 20
-666.8944258751927
 30
0.0
 11
5464.938168342292
 21
-666.8944258751927
 31
0.0
  0
LINE
  5
1C1C
330
2
100
AcDbEntity
  8
OUTLINE
100
AcDbLine
 10
5465.738168342292
 20
-510.5794317399539
 30
0.0
 11
5464.938168342292
 21
-510.5794317399539
 31
0.0
  0
LINE
  5
1C1D
330
2
100
AcDbEntity
  8
OUTLINE
100
AcDbLine
 10
5464.938168342292
 20
-510.5794317399539
 30
0.0
 11
5464.938168342292
 21
-666.8944258751927
 31
0.0
  0
LINE
  5
1C1E
330
2
100
AcDbEntity
  8
OUTLINE
100
AcDbLine
 10
5466.538168342292
 20
-668.2347867882538
 30
0.0
 11
5466.538168342292
 21
-509.8347867882536
 31
0.0
  0
LINE
  5
1C1F
330
2
100
AcDbEntity
  8
NOTE
100
AcDbLine
 10
4994.538168342292
 20
-657.4347867882537
 30
0.0
 11
4994.538168342292
 21
-678.2347867882537
 31
0.0
  0
LINE
  5
1C20
330
2
100
AcDbEntity
  8
NOTE
100
AcDbLine
 10
5434.538168342292
 20
-657.4347867882537
 30
0.0
 11
5434.538168342292
 21
-678.2347867882537
 31
0.0
  0
LINE
  5
1C21
330
2
100
AcDbEntity
  8
NOTE
100
AcDbLine
 10
4832.538168342292
 20
-678.2347867882537
 30
0.0
 11
4832.538168342292
 21
-657.4347867882537
 31
0.0
  0
LINE
  5
1C22
330
2
100
AcDbEntity
  8
NOTE
100
AcDbLine
 10
5473.538168342292
 20
-672.9347867882538
 30
0.0
 11
5473.538168342292
 21
-692.7114836675831
 31
0.0
  0
LINE
  5
1C2C
330
2
100
AcDbEntity
  8
NOTE
100
AcDbLine
 10
5149.638168342292
 20
-672.934786788255
 30
0.0
 11
5149.638168342292
 21
-693.7347867882555
 31
0.0
  0
LINE
  5
1C2D
330
2
100
AcDbEntity
  8
BASIS
  6
DASHDOT
 62
     6
100
AcDbLine
 10
5149.638168342288
 20
-714.115828300016
 30
0.0
 11
5149.638168342288
 21
-495.312137230933
 31
0.0
  0
LINE
  5
1C2E
330
2
100
AcDbEntity
  8
ARRANGE
  6
Continuous
 62
     1
100
AcDbLine
 10
5132.954050777886
 20
-700.4189043526586
 30
0.0
 11
5166.322285906692
 21
-667.0506692238516
 31
0.0
  0
LINE
  5
1C2F
330
2
100
AcDbEntity
  8
ARRANGE
  6
Continuous
 62
     1
100
AcDbLine
 10
5132.954050777886
 20
-667.0506692238516
 30
0.0
 11
5166.322285906692
 21
-700.4189043526586
 31
0.0
  0
CIRCLE
  5
1C30
330
2
100
AcDbEntity
  8
ARRANGE
100
AcDbCircle
 10
5149.638168342288
 20
-683.7347867882551
 30
0.0
 40
15.0
  0
DIMENSION
  5
1C31
330
2
100
AcDbEntity
  8
SIZE
100
AcDbDimension
  2
*D36
 10
5434.538168342292
 20
-734.9466292734109
 30
0.0
 11
5214.538168342292
 21
-725.5716292734109
 31
0.0
 70
    32
 71
     5
 42
440.0
  3
ISO-25
100
AcDbAlignedDimension
 13
4994.538168342292
 23
-678.2347867882537
 33
0.0
 14
5434.538168342292
 24
-678.2347867882537
 34
0.0
100
AcDbRotatedDimension
1001
ACAD
1000
DSTYLE
1002
{
1070
    40
1040
5.0
1070
    45
1040
0.5
1070
    90
1070
     1
1070
   271
1070
     1
1070
   272
1070
     1
1070
   341
1005
4E
1070
   342
1005
48
1002
}
  0
DIMENSION
  5
1C3E
330
2
100
AcDbEntity
  8
SIZE
100
AcDbDimension
  2
*D37
 10
4832.538168342292
 20
-759.5722365912124
 30
0.0
 11
5153.038168342292
 21
-750.1972365912124
 31
0.0
 70
    32
 71
     5
 42
641.0
  3
ISO-25
100
AcDbAlignedDimension
 13
5473.538168342292
 23
-692.7114836675831
 33
0.0
 14
4832.538168342292
 24
-678.2347867882537
 34
0.0
100
AcDbRotatedDimension
1001
ACAD
1000
DSTYLE
1002
{
1070
    40
1040
5.0
1070
    45
1040
0.5
1070
    90
1070
     1
1070
   271
1070
     1
1070
   272
1070
     1
1070
   341
1005
4E
1070
   342
1005
48
1002
}
  0
DIMENSION
  5
1C4B
330
2
100
AcDbEntity
  8
SIZE
100
AcDbDimension
  2
*D38
 10
5481.738168342292
 20
-787.9975737069557
 30
0.0
 11
5149.638168342292
 21
-778.6225737069557
 31
0.0
 70
    32
 71
     5
 42
664.1999999999998
  3
ISO-25
100
AcDbAlignedDimension
 13
4817.538168342291
 23
-668.2347867882538
 33
0.0
 14
5481.738168342292
 24
-683.7347867882535
 34
0.0
100
AcDbRotatedDimension
1001
ACAD
1000
DSTYLE
1002
{
1070
    40
1040
5.0
1070
    45
1040
0.5
1070
    90
1070
     1
1070
   271
1070
     1
1070
   272
1070
     1
1070
   341
1005
4E
1070
   342
1005
48
1002
}
  0
DIMENSION
  5
1C58
330
2
100
AcDbEntity
  8
SIZE
100
AcDbDimension
  2
*D39
 10
5530.276236958314
 20
-508.2008492016656
 30
0.0
 11
5520.901236958315
 21
-595.9678179949587
 31
0.0
 70
    32
 71
     5
 42
175.5339375865878
  3
ISO-25
100
AcDbAlignedDimension
 13
5481.738168342292
 23
-683.7347867882535
 33
0.0
 14
5465.538168342292
 24
-508.2008492016656
 34
0.0
 50
90.0
100
AcDbRotatedDimension
1001
ACAD
1000
DSTYLE
1002
{
1070
    40
1040
5.0
1070
    45
1040
0.5
1070
    90
1070
     1
1070
   271
1070
     1
1070
   272
1070
     1
1070
   341
1005
4E
1070
   342
1005
48
1002
}
  0
DIMENSION
  5
1C65
330
2
100
AcDbEntity
  8
SIZE
100
AcDbDimension
  2
*D40
 10
4769.39103214871
 20
-668.2347867882538
 30
0.0
 11
4769.39103214871
 21
-588.217817994959
 31
0.0
 70
   160
 71
     5
 42
160.0339375865881
  3
ISO-25
100
AcDbAlignedDimension
 13
4818.538168342292
 23
-508.2008492016656
 33
0.0
 14
4817.538168342291
 24
-668.2347867882538
 34
0.0
 50
90.0
100
AcDbRotatedDimension
1001
ACAD
1000
DSTYLE
1002
{
1070
    40
1040
5.0
1070
    45
1040
0.5
1070
    90
1070
     1
1070
   271
1070
     1
1070
   272
1070
     1
1070
   341
1005
4E
1070
   342
1005
48
1002
}
  0
VIEWPORT
  5
562
102
{ACAD_XDICTIONARY
360
1E60
102
}
330
17
100
AcDbEntity
 67
     1
  8
0
100
AcDbViewport
 10
7.750614250614247
 20
4.5
 30
0.0
 40
15.5012285012285
 41
9.0
 68
     1
 69
     1
 12
7.750614250614247
 22
4.5
 13
0.0
 23
0.0
 14
10.0
 24
10.0
 15
10.0
 25
10.0
 16
0.0
 26
0.0
 36
1.0
 17
0.0
 27
0.0
 37
0.0
 42
50.0
 43
0.0
 44
0.0
 45
9.0
 50
0.0
 51
0.0
 72
   100
 90
    32800
  1

281
     0
 71
     1
 74
     0
110
0.0
120
0.0
130
0.0
111
1.0
121
0.0
131
0.0
112
0.0
122
1.0
132
0.0
 79
     0
146
0.0
1001
GENIUS_GENODEF_13
1002
{
1000
HIER
1070
     0
1002
}
1002
{
1000
MANEDIT
1070
     0
1002
}
1002
{
1000
NOSEL
1070
     0
1002
}
1002
{
1000
BEHIND
1070
     0
1002
}
1002
{
1000
OTHER
1070
     0
1002
}
1002
{
1000
REACTOR
1002
}
1001
GENIUS_GENOBJ-N-SDF_13
1002
{
1000
OWNER
1000
GEN
1002
}
1001
GENIUS_GENSCREG_15
1000
PF
1040
1.0
1000
DF
1040
1.0
1000
MIN
1011
-0.0000000000000036
1021
0.0
1031
0.0
1000
MAX
1011
15.50122850122849
1021
9.0
1031
0.0
1000
FLAGS
1070
     2
  0
ENDSEC
  0
SECTION
  2
OBJECTS
  0
DICTIONARY
  5
9
330
0
100
AcDbDictionary
281
     1
  3
ACAD_2007HEADERVARS_RT
350
1E5A
  3
ACAD_BACKGROUND
350
45B
  3
ACAD_COLOR
350
45
  3
ACAD_GROUP
350
32
  3
ACAD_LAYOUT
350
16
  3
ACAD_MATERIAL
350
B
  3
ACAD_MLEADERSTYLE
350
454
  3
ACAD_MLINESTYLE
350
33
  3
ACAD_PLOTSETTINGS
350
34
  3
ACAD_PLOTSTYLENAME
350
8
  3
ACAD_SCALELIST
350
46
  3
ACAD_TABLESTYLE
350
47
  3
ACAD_VISUALSTYLE
350
2C
  3
AcadDim
350
878
  3
ACDB_RECOMPOSE_DATA
350
440
  3
AcDbVariableDictionary
350
441
  3
AcmDictionary
350
F2E
  3
AMG
350
E6F
  3
AMGSNAPSETTINGS
350
101C
  3
DWGPROPS
350
1E59
  0
DICTIONARY
  5
472
330
29
100
AcDbDictionary
280
     1
281
     1
  0
DICTIONARY
  5
1F
330
1E
100
AcDbDictionary
280
     1
281
     1
  3
ACAD_LAYERFILTERS
360
1C24
  3
ACAD_LAYERSTATES
360
20
  3
ACLYDICTIONARY
360
1C23
  0
DICTIONARY
  5
461
330
6
100
AcDbDictionary
280
     1
281
     1
  3
ADSK_XREC_LAYER_RECONCILED
360
462
  0
DICTIONARY
  5
3
330
2
100
AcDbDictionary
280
     1
281
     1
  3
ACAD_INDEX
360
1106
  3
ACAD_LAYOUTSELFREF
360
4
  0
DICTIONARY
  5
1E60
330
562
100
AcDbDictionary
280
     1
281
     1
  3
ACAD_XREC_ROUNDTRIP
360
1E61
  0
DICTIONARY
  5
1E5A
102
{ACAD_REACTORS
330
9
102
}
330
9
100
AcDbDictionary
281
     1
  3
DIMARCSYM
350
1E5B
  0
DICTIONARY
  5
45B
102
{ACAD_REACTORS
330
9
102
}
330
9
100
AcDbDictionary
281
     1
  0
DICTIONARY
  5
45
102
{ACAD_REACTORS
330
9
102
}
330
9
100
AcDbDictionary
281
     1
  0
DICTIONARY
  5
32
102
{ACAD_REACTORS
330
9
102
}
330
9
100
AcDbDictionary
281
     1
  0
DICTIONARY
  5
16
102
{ACAD_REACTORS
330
9
102
}
330
9
100
AcDbDictionary
281
     1
  3
Model
350
15
  3
レイアウト1
350
1A
  0
DICTIONARY
  5
B
102
{ACAD_REACTORS
330
9
102
}
330
9
100
AcDbDictionary
281
     1
  3
ByBlock
350
3D
  3
ByLayer
350
35
  3
Global
350
A
  0
DICTIONARY
  5
454
102
{ACAD_REACTORS
330
9
102
}
330
9
100
AcDbDictionary
281
     1
  3
Standard
350
455
  0
DICTIONARY
  5
33
102
{ACAD_REACTORS
330
9
102
}
330
9
100
AcDbDictionary
281
     1
  3
Standard
350
55
  0
DICTIONARY
  5
34
102
{ACAD_REACTORS
330
9
102
}
330
9
100
AcDbDictionary
281
     1
  0
ACDBDICTIONARYWDFLT
  5
8
102
{ACAD_REACTORS
330
9
102
}
330
9
100
AcDbDictionary
281
     1
  3
Normal
350
7
100
AcDbDictionaryWithDefault
340
7
  0
DICTIONARY
  5
46
102
{ACAD_REACTORS
330
9
102
}
330
9
100
AcDbDictionary
281
     1
  3
A0
350
59
  3
A1
350
5A
  3
A2
350
5B
  3
A3
350
5C
  3
A4
350
5D
  3
A5
350
5E
  3
A6
350
5F
  3
A7
350
60
  3
A8
350
61
  3
A9
350
62
  3
B0
350
63
  3
B1
350
64
  3
B2
350
65
  3
B3
350
66
  3
B4
350
67
  3
B5
350
68
  3
B6
350
69
  3
B7
350
6A
  3
B8
350
6B
  3
B9
350
6C
  3
C0
350
6D
  3
C1
350
6E
  3
C2
350
6F
  3
C3
350
70
  3
C4
350
71
  3
C5
350
72
  3
C6
350
73
  3
C7
350
74
  3
C8
350
75
  3
C9
350
76
  3
D0
350
77
  3
D1
350
78
  3
D2
350
79
  0
DICTIONARY
  5
47
102
{ACAD_REACTORS
330
9
102
}
330
9
100
AcDbDictionary
281
     1
  3
Standard
350
56
  0
DICTIONARY
  5
2C
102
{ACAD_REACTORS
330
9
102
}
330
9
100
AcDbDictionary
281
     1
  3
2dWireframe
350
44B
  3
3D Hidden
350
44C
  3
3dWireframe
350
58
  3
Basic
350
44A
  3
Brighten
350
44F
  3
ColorChange
350
453
  3
Conceptual
350
44D
  3
Dim
350
44E
  3
Facepattern
350
452
  3
Flat
350
447
  3
FlatWithEdges
350
448
  3
Gouraud
350
2B
  3
GouraudWithEdges
350
449
  3
Linepattern
350
451
  3
Realistic
350
57
  3
Thicken
350
450
  0
XRECORD
  5
878
102
{ACAD_REACTORS
330
9
102
}
330
9
100
AcDbXrecord
280
     1
 90
   990106
  3

 60
     0
 61
     0
 62
     1
 63
     3
 64
     0
 65
     0
 66
     0
 67
     3
 68
     1
 69
     0
 70
     0
 71
     0
 72
     0
 40
0.0
170
     0
  0
XRECORD
  5
440
102
{ACAD_REACTORS
330
9
102
}
330
9
100
AcDbXrecord
280
     1
 90
        1
330
56
  0
DICTIONARY
  5
441
102
{ACAD_REACTORS
330
9
102
}
330
9
100
AcDbDictionary
281
     1
  3
CANNOSCALE
350
444
  3
CMLEADERSTYLE
350
443
  3
CTABLESTYLE
350
442
  3
DIMASSOC
350
47E
  3
HIDETEXT
350
47D
  3
INDEXCTL
350
47C
  3
LIGHTINGUNITS
350
445
  3
MSLTSCALE
350
47A
  3
SORTENTS
350
47B
  0
DICTIONARY
  5
F2E
102
{ACAD_REACTORS
330
9
102
}
330
9
100
AcDbDictionary
281
     1
  3
AcmStdDictionary
350
F3E
  3
AMDTSECTSYM_ARROWCOLOR
350
F56
  0
DICTIONARY
  5
E6F
102
{ACAD_REACTORS
330
9
102
}
330
9
100
AcDbDictionary
281
     1
  3
AcMgSettings
350
E70
  0
DICTIONARY
  5
101C
102
{ACAD_REACTORS
330
9
102
}
330
9
100
AcDbDictionary
281
     1
  3
DIMENSION
350
1021
  3
FEA
350
1020
  3
HATCH (1)
350
101D
  3
HATCH (2)
350
101E
  3
SIMPLE WELD
350
1022
  3
SYMBOLS
350
101F
  0
XRECORD
  5
1E59
102
{ACAD_REACTORS
330
9
102
}
330
9
100
AcDbXrecord
280
     1
  1
DWGPROPS COOKIE
  2

  3

  4

  6

  7

  8
W000135
  9

300
AmdtFileType=84
301
=
302
=
303
=
304
=
305
=
306
=
307
=
308
=
309
=
 40
2.055611712962962
 41
2451686.550481944
 42
2455888.670899444
  1

 90
        1
  0
DICTIONARY
  5
1C24
102
{ACAD_REACTORS
330
1F
102
}
330
1F
100
AcDbDictionary
281
     1
  0
DICTIONARY
  5
20
102
{ACAD_REACTORS
330
1F
102
}
330
1F
100
AcDbDictionary
281
     1
  0
DICTIONARY
  5
1C23
102
{ACAD_REACTORS
330
1F
102
}
330
1F
100
AcDbDictionary
281
     1
1001
ACAD
1000
<All
  0
XRECORD
  5
462
102
{ACAD_REACTORS
330
461
102
}
330
461
100
AcDbXrecord
280
     1
290
     1
  0
DICTIONARY
  5
1106
102
{ACAD_REACTORS
330
3
102
}
330
3
100
AcDbDictionary
281
     1
  3
*A1
350
1107
  0
XRECORD
  5
4
102
{ACAD_REACTORS
330
3
102
}
330
3
100
AcDbXrecord
280
     1
340
2
  0
XRECORD
  5
1E61
102
{ACAD_REACTORS
330
1E60
102
}
330
1E60
100
AcDbXrecord
280
     1
102
SHADEPLOT
 70
     0
  0
XRECORD
  5
1E5B
102
{ACAD_REACTORS
330
1E5A
102
}
330
1E5A
100
AcDbXrecord
280
     1
 70
     1
  0
LAYOUT
  5
15
102
{ACAD_XDICTIONARY
360
1E5C
102
}
102
{ACAD_REACTORS
330
16
102
}
330
16
100
AcDbPlotSettings
  1

  2
\\ENGC3\QUE_LP1
  4

  6

 40
0.0
 41
0.0
 42
0.0
 43
0.0
 44
0.0
 45
0.0
 46
0.0
 47
0.0
 48
0.0
 49
0.0
140
0.0
141
0.0
142
1.0
143
1.0
 70
  1712
 72
     0
 73
     0
 74
     0
  7

 75
     0
147
1.0
148
0.0
149
0.0
100
AcDbLayout
  1
Model
 70
     1
 71
     0
 10
0.0
 20
0.0
 11
12.0
 21
9.0
 12
0.0
 22
0.0
 32
0.0
 14
0.0
 24
0.0
 34
0.0
 15
0.0
 25
0.0
 35
0.0
146
0.0
 13
0.0
 23
0.0
 33
0.0
 16
1.0
 26
0.0
 36
0.0
 17
0.0
 27
1.0
 37
0.0
 76
     0
330
2
331
879
  0
LAYOUT
  5
1A
102
{ACAD_XDICTIONARY
360
1B
102
}
102
{ACAD_REACTORS
330
16
102
}
330
16
100
AcDbPlotSettings
  1

  2
Microsoft XPS Document Writer
  4
A4
  6

 40
3.174999952316281
 41
3.174999952316281
 42
3.175003051757812
 43
3.17498779296875
 44
210.0156707763672
 45
297.0106506347656
 46
0.0
 47
0.0
 48
0.0
 49
0.0
140
0.0
141
0.0
142
1.0
143
1.0
 70
   688
 72
     1
 73
     1
 74
     5
  7

 75
    16
147
1.0
148
0.0
149
0.0
100
AcDbLayout
  1
レイアウト1
 70
     1
 71
     1
 10
0.0
 20
0.0
 11
12.0
 21
9.0
 12
0.0
 22
0.0
 32
0.0
 14
1.000000000000000E+20
 24
1.000000000000000E+20
 34
1.000000000000000E+20
 15
-1.000000000000000E+20
 25
-1.000000000000000E+20
 35
-1.000000000000000E+20
146
0.0
 13
0.0
 23
0.0
 33
0.0
 16
1.0
 26
0.0
 36
0.0
 17
0.0
 27
1.0
 37
0.0
 76
     0
330
17
331
562
1001
ACAD_PSEXT
1000
Microsoft XPS Document Writer
1000
Microsoft XPS Document Writer
1000
XPSPort:
1000

1070
     0
  0
MATERIAL
  5
3D
102
{ACAD_XDICTIONARY
360
3E
102
}
102
{ACAD_REACTORS
330
B
102
}
330
B
100
AcDbMaterial
  1
ByBlock
 72
     0
 43
0.0008202099737533
 43
0.0
 43
0.0
 43
0.0
 43
0.0
 43
0.0008202099737533
 43
0.0
 43
0.0
 43
0.0
 43
0.0
 43
1.0
 43
0.0
 43
0.0
 43
0.0
 43
0.0
 43
1.0
 77
     0
 47
0.0008202099737533
 47
0.0
 47
0.0
 47
0.0
 47
0.0
 47
0.0008202099737533
 47
0.0
 47
0.0
 47
0.0
 47
0.0
 47
1.0
 47
0.0
 47
0.0
 47
0.0
 47
0.0
 47
1.0
171
     0
 49
0.0008202099737533
 49
0.0
 49
0.0
 49
0.0
 49
0.0
 49
0.0008202099737533
 49
0.0
 49
0.0
 49
0.0
 49
0.0
 49
1.0
 49
0.0
 49
0.0
 49
0.0
 49
0.0
 49
1.0
175
     0
142
0.0008202099737533
142
0.0
142
0.0
142
0.0
142
0.0
142
0.0008202099737533
142
0.0
142
0.0
142
0.0
142
0.0
142
1.0
142
0.0
142
0.0
142
0.0
142
0.0
142
1.0
179
     0
144
0.0008202099737533
144
0.0
144
0.0
144
0.0
144
0.0
144
0.0008202099737533
144
0.0
144
0.0
144
0.0
144
0.0
144
1.0
144
0.0
144
0.0
144
0.0
144
0.0
144
1.0
147
0.0008202099737533
147
0.0
147
0.0
147
0.0
147
0.0
147
0.0008202099737533
147
0.0
147
0.0
147
0.0
147
0.0
147
1.0
147
0.0
147
0.0
147
0.0
147
0.0
147
1.0
  0
MATERIAL
  5
35
102
{ACAD_XDICTIONARY
360
36
102
}
102
{ACAD_REACTORS
330
B
102
}
330
B
100
AcDbMaterial
  1
ByLayer
 72
     0
 43
0.0008202099737533
 43
0.0
 43
0.0
 43
0.0
 43
0.0
 43
0.0008202099737533
 43
0.0
 43
0.0
 43
0.0
 43
0.0
 43
1.0
 43
0.0
 43
0.0
 43
0.0
 43
0.0
 43
1.0
 77
     0
 47
0.0008202099737533
 47
0.0
 47
0.0
 47
0.0
 47
0.0
 47
0.0008202099737533
 47
0.0
 47
0.0
 47
0.0
 47
0.0
 47
1.0
 47
0.0
 47
0.0
 47
0.0
 47
0.0
 47
1.0
171
     0
 49
0.0008202099737533
 49
0.0
 49
0.0
 49
0.0
 49
0.0
 49
0.0008202099737533
 49
0.0
 49
0.0
 49
0.0
 49
0.0
 49
1.0
 49
0.0
 49
0.0
 49
0.0
 49
0.0
 49
1.0
175
     0
142
0.0008202099737533
142
0.0
142
0.0
142
0.0
142
0.0
142
0.0008202099737533
142
0.0
142
0.0
142
0.0
142
0.0
142
1.0
142
0.0
142
0.0
142
0.0
142
0.0
142
1.0
179
     0
144
0.0008202099737533
144
0.0
144
0.0
144
0.0
144
0.0
144
0.0008202099737533
144
0.0
144
0.0
144
0.0
144
0.0
144
1.0
144
0.0
144
0.0
144
0.0
144
0.0
144
1.0
147
0.0008202099737533
147
0.0
147
0.0
147
0.0
147
0.0
147
0.0008202099737533
147
0.0
147
0.0
147
0.0
147
0.0
147
1.0
147
0.0
147
0.0
147
0.0
147
0.0
147
1.0
  0
MATERIAL
  5
A
102
{ACAD_XDICTIONARY
360
C
102
}
102
{ACAD_REACTORS
330
B
102
}
330
B
100
AcDbMaterial
  1
Global
 72
     0
 43
0.0008202099737533
 43
0.0
 43
0.0
 43
0.0
 43
0.0
 43
0.0008202099737533
 43
0.0
 43
0.0
 43
0.0
 43
0.0
 43
1.0
 43
0.0
 43
0.0
 43
0.0
 43
0.0
 43
1.0
 77
     0
 47
0.0008202099737533
 47
0.0
 47
0.0
 47
0.0
 47
0.0
 47
0.0008202099737533
 47
0.0
 47
0.0
 47
0.0
 47
0.0
 47
1.0
 47
0.0
 47
0.0
 47
0.0
 47
0.0
 47
1.0
171
     0
 49
0.0008202099737533
 49
0.0
 49
0.0
 49
0.0
 49
0.0
 49
0.0008202099737533
 49
0.0
 49
0.0
 49
0.0
 49
0.0
 49
1.0
 49
0.0
 49
0.0
 49
0.0
 49
0.0
 49
1.0
175
     0
142
0.0008202099737533
142
0.0
142
0.0
142
0.0
142
0.0
142
0.0008202099737533
142
0.0
142
0.0
142
0.0
142
0.0
142
1.0
142
0.0
142
0.0
142
0.0
142
0.0
142
1.0
179
     0
144
0.0008202099737533
144
0.0
144
0.0
144
0.0
144
0.0
144
0.0008202099737533
144
0.0
144
0.0
144
0.0
144
0.0
144
1.0
144
0.0
144
0.0
144
0.0
144
0.0
144
1.0
147
0.0008202099737533
147
0.0
147
0.0
147
0.0
147
0.0
147
0.0008202099737533
147
0.0
147
0.0
147
0.0
147
0.0
147
1.0
147
0.0
147
0.0
147
0.0
147
0.0
147
1.0
  0
MLEADERSTYLE
  5
455
102
{ACAD_REACTORS
330
454
330
15E6
102
}
330
454
100
AcDbMLeaderStyle
170
     2
171
     1
172
     0
 90
        2
 40
0.0
 41
0.0
173
     1
 91
-1056964608
340
25
 92
       -2
290
     1
 42
2.0
291
     1
 43
0.36
  3
Standard
 44
4.0
300

342
22
174
     1
178
     6
175
     1
176
     0
 93
-1056964608
 45
4.0
292
     0
297
     0
 46
4.0
 94
-1056964608
 47
1.0
 49
1.0
140
1.0
293
     1
141
0.0
294
     1
177
     0
142
1.0
295
     0
296
     0
143
0.125
1001
ACAD_MLEADERVER
1070
     2
  0
MLINESTYLE
  5
55
102
{ACAD_REACTORS
330
33
102
}
330
33
100
AcDbMlineStyle
  2
STANDARD
 70
     0
  3

 62
   256
 51
90.0
 52
90.0
 71
     2
 49
0.5
 62
   256
  6
BYLAYER
 49
-0.5
 62
   256
  6
BYLAYER
  0
ACDBPLACEHOLDER
  5
7
102
{ACAD_REACTORS
330
8
102
}
330
8
  0
SCALE
  5
59
102
{ACAD_REACTORS
330
46
102
}
330
46
100
AcDbScale
 70
     0
300
1:1
140
1.0
141
1.0
290
     1
  0
SCALE
  5
5A
102
{ACAD_REACTORS
330
46
102
}
330
46
100
AcDbScale
 70
     0
300
1:2
140
1.0
141
2.0
290
     0
  0
SCALE
  5
5B
102
{ACAD_REACTORS
330
46
102
}
330
46
100
AcDbScale
 70
     0
300
1:4
140
1.0
141
4.0
290
     0
  0
SCALE
  5
5C
102
{ACAD_REACTORS
330
46
102
}
330
46
100
AcDbScale
 70
     0
300
1:5
140
1.0
141
5.0
290
     0
  0
SCALE
  5
5D
102
{ACAD_REACTORS
330
46
102
}
330
46
100
AcDbScale
 70
     0
300
1:8
140
1.0
141
8.0
290
     0
  0
SCALE
  5
5E
102
{ACAD_REACTORS
330
46
102
}
330
46
100
AcDbScale
 70
     0
300
1:10
140
1.0
141
10.0
290
     0
  0
SCALE
  5
5F
102
{ACAD_REACTORS
330
46
102
}
330
46
100
AcDbScale
 70
     0
300
1:16
140
1.0
141
16.0
290
     0
  0
SCALE
  5
60
102
{ACAD_REACTORS
330
46
102
}
330
46
100
AcDbScale
 70
     0
300
1:20
140
1.0
141
20.0
290
     0
  0
SCALE
  5
61
102
{ACAD_REACTORS
330
46
102
}
330
46
100
AcDbScale
 70
     0
300
1:30
140
1.0
141
30.0
290
     0
  0
SCALE
  5
62
102
{ACAD_REACTORS
330
46
102
}
330
46
100
AcDbScale
 70
     0
300
1:40
140
1.0
141
40.0
290
     0
  0
SCALE
  5
63
102
{ACAD_REACTORS
330
46
102
}
330
46
100
AcDbScale
 70
     0
300
1:50
140
1.0
141
50.0
290
     0
  0
SCALE
  5
64
102
{ACAD_REACTORS
330
46
102
}
330
46
100
AcDbScale
 70
     0
300
1:100
140
1.0
141
100.0
290
     0
  0
SCALE
  5
65
102
{ACAD_REACTORS
330
46
102
}
330
46
100
AcDbScale
 70
     0
300
2:1
140
2.0
141
1.0
290
     0
  0
SCALE
  5
66
102
{ACAD_REACTORS
330
46
102
}
330
46
100
AcDbScale
 70
     0
300
4:1
140
4.0
141
1.0
290
     0
  0
SCALE
  5
67
102
{ACAD_REACTORS
330
46
102
}
330
46
100
AcDbScale
 70
     0
300
8:1
140
8.0
141
1.0
290
     0
  0
SCALE
  5
68
102
{ACAD_REACTORS
330
46
102
}
330
46
100
AcDbScale
 70
     0
300
10:1
140
10.0
141
1.0
290
     0
  0
SCALE
  5
69
102
{ACAD_REACTORS
330
46
102
}
330
46
100
AcDbScale
 70
     0
300
100:1
140
100.0
141
1.0
290
     0
  0
SCALE
  5
6A
102
{ACAD_REACTORS
330
46
102
}
330
46
100
AcDbScale
 70
     0
300
1/128" = 1'-0"
140
0.0078125
141
12.0
290
     0
  0
SCALE
  5
6B
102
{ACAD_REACTORS
330
46
102
}
330
46
100
AcDbScale
 70
     0
300
1/64" = 1'-0"
140
0.015625
141
12.0
290
     0
  0
SCALE
  5
6C
102
{ACAD_REACTORS
330
46
102
}
330
46
100
AcDbScale
 70
     0
300
1/32" = 1'-0"
140
0.03125
141
12.0
290
     0
  0
SCALE
  5
6D
102
{ACAD_REACTORS
330
46
102
}
330
46
100
AcDbScale
 70
     0
300
1/16" = 1'-0"
140
0.0625
141
12.0
290
     0
  0
SCALE
  5
6E
102
{ACAD_REACTORS
330
46
102
}
330
46
100
AcDbScale
 70
     0
300
3/32" = 1'-0"
140
0.09375
141
12.0
290
     0
  0
SCALE
  5
6F
102
{ACAD_REACTORS
330
46
102
}
330
46
100
AcDbScale
 70
     0
300
1/8" = 1'-0"
140
0.125
141
12.0
290
     0
  0
SCALE
  5
70
102
{ACAD_REACTORS
330
46
102
}
330
46
100
AcDbScale
 70
     0
300
3/16" = 1'-0"
140
0.1875
141
12.0
290
     0
  0
SCALE
  5
71
102
{ACAD_REACTORS
330
46
102
}
330
46
100
AcDbScale
 70
     0
300
1/4" = 1'-0"
140
0.25
141
12.0
290
     0
  0
SCALE
  5
72
102
{ACAD_REACTORS
330
46
102
}
330
46
100
AcDbScale
 70
     0
300
3/8" = 1'-0"
140
0.375
141
12.0
290
     0
  0
SCALE
  5
73
102
{ACAD_REACTORS
330
46
102
}
330
46
100
AcDbScale
 70
     0
300
1/2" = 1'-0"
140
0.5
141
12.0
290
     0
  0
SCALE
  5
74
102
{ACAD_REACTORS
330
46
102
}
330
46
100
AcDbScale
 70
     0
300
3/4" = 1'-0"
140
0.75
141
12.0
290
     0
  0
SCALE
  5
75
102
{ACAD_REACTORS
330
46
102
}
330
46
100
AcDbScale
 70
     0
300
1" = 1'-0"
140
1.0
141
12.0
290
     0
  0
SCALE
  5
76
102
{ACAD_REACTORS
330
46
102
}
330
46
100
AcDbScale
 70
     0
300
1-1/2" = 1'-0"
140
1.5
141
12.0
290
     0
  0
SCALE
  5
77
102
{ACAD_REACTORS
330
46
102
}
330
46
100
AcDbScale
 70
     0
300
3" = 1'-0"
140
3.0
141
12.0
290
     0
  0
SCALE
  5
78
102
{ACAD_REACTORS
330
46
102
}
330
46
100
AcDbScale
 70
     0
300
6" = 1'-0"
140
6.0
141
12.0
290
     0
  0
SCALE
  5
79
102
{ACAD_REACTORS
330
46
102
}
330
46
100
AcDbScale
 70
     0
300
1'-0" = 1'-0"
140
12.0
141
12.0
290
     0
  0
TABLESTYLE
  5
56
102
{ACAD_XDICTIONARY
360
43E
102
}
102
{ACAD_REACTORS
330
47
102
}
330
47
100
AcDbTableStyle
  3
Standard
 70
     0
 71
     0
 40
1.5
 41
1.5
280
     0
281
     0
  7
Standard
140
4.5
170
     2
 62
     0
 63
     7
283
     0
274
    -2
284
     1
 64
     0
275
    -2
285
     1
 65
     0
276
    -2
286
     1
 66
     0
277
    -2
287
     1
 67
     0
278
    -2
288
     1
 68
     0
279
    -2
289
     1
 69
     0
  7
Standard
140
6.0
170
     5
 62
     0
 63
     7
283
     0
274
    -2
284
     1
 64
     0
275
    -2
285
     1
 65
     0
276
    -2
286
     1
 66
     0
277
    -2
287
     1
 67
     0
278
    -2
288
     1
 68
     0
279
    -2
289
     1
 69
     0
  7
Standard
140
4.5
170
     5
 62
     0
 63
     7
283
     0
274
    -2
284
     1
 64
     0
275
    -2
285
     1
 65
     0
276
    -2
286
     1
 66
     0
277
    -2
287
     1
 67
     0
278
    -2
288
     1
 68
     0
279
    -2
289
     1
 69
     0
  0
VISUALSTYLE
  5
44B
102
{ACAD_REACTORS
330
2C
102
}
330
2C
100
AcDbVisualStyle
  2
2dWireframe
 70
     4
 71
     0
 72
     2
 73
     0
 90
        0
 40
-0.6
 41
-30.0
 62
     5
 63
     7
 74
     1
 91
        4
 64
     7
 65
   257
 75
     1
175
     1
 42
1.0
 92
        0
 66
   257
 43
1.0
 76
     1
 77
     6
 78
     2
 67
     7
 79
     5
170
     0
171
     0
290
     0
174
     0
 93
        1
 44
0.0
173
     0
291
     0
 45
0.0
1001
ACAD
1000
AcDbSavedByObjectVersion
1070
     0
1000
AcDbSavedByObjectVersion
1070
     0
1000
AcDbSavedByObjectVersion
1070
     0
1000
AcDbSavedByObjectVersion
1070
     0
1000
AcDbSavedByObjectVersion
1070
     0
1000
AcDbSavedByObjectVersion
1070
     0
1000
AcDbSavedByObjectVersion
1070
     0
1000
AcDbSavedByObjectVersion
1070
     0
1000
AcDbSavedByObjectVersion
1070
     0
1000
AcDbSavedByObjectVersion
1070
     0
1000
AcDbSavedByObjectVersion
1070
     0
1000
AcDbSavedByObjectVersion
1070
     0
1000
AcDbSavedByObjectVersion
1070
     0
1000
AcDbSavedByObjectVersion
1070
     0
1000
AcDbSavedByObjectVersion
1070
     0
  0
VISUALSTYLE
  5
44C
102
{ACAD_REACTORS
330
2C
102
}
330
2C
100
AcDbVisualStyle
  2
3D Hidden
 70
     6
 71
     1
 72
     2
 73
     2
 90
        0
 40
-0.6
 41
-30.0
 62
     5
 63
     7
 74
     2
 91
        2
 64
     7
 65
   257
 75
     2
175
     1
 42
40.0
 92
        0
 66
   257
 43
1.0
 76
     1
 77
     6
 78
     2
 67
     7
 79
     3
170
     0
171
     0
290
     0
174
     0
 93
        1
 44
0.0
173
     0
291
     0
 45
0.0
1001
ACAD
1000
AcDbSavedByObjectVersion
1070
     0
1000
AcDbSavedByObjectVersion
1070
     0
1000
AcDbSavedByObjectVersion
1070
     0
1000
AcDbSavedByObjectVersion
1070
     0
1000
AcDbSavedByObjectVersion
1070
     0
1000
AcDbSavedByObjectVersion
1070
     0
1000
AcDbSavedByObjectVersion
1070
     0
1000
AcDbSavedByObjectVersion
1070
     0
1000
AcDbSavedByObjectVersion
1070
     0
1000
AcDbSavedByObjectVersion
1070
     0
1000
AcDbSavedByObjectVersion
1070
     0
1000
AcDbSavedByObjectVersion
1070
     0
1000
AcDbSavedByObjectVersion
1070
     0
1000
AcDbSavedByObjectVersion
1070
     0
1000
AcDbSavedByObjectVersion
1070
     0
  0
VISUALSTYLE
  5
58
102
{ACAD_REACTORS
330
2C
102
}
330
2C
100
AcDbVisualStyle
  2
3dWireframe
 70
     5
 71
     0
 72
     2
 73
     0
 90
        0
 40
-0.6
 41
-30.0
 62
     5
 63
     7
 74
     1
 91
        4
 64
     7
 65
   257
 75
     1
175
     1
 42
1.0
 92
        0
 66
   257
 43
1.0
 76
     1
 77
     6
 78
     2
 67
     7
 79
     5
170
     0
171
     0
290
     0
174
     0
 93
        1
 44
0.0
173
     0
291
     0
 45
0.0
1001
ACAD
1000
AcDbSavedByObjectVersion
1070
     0
1000
AcDbSavedByObjectVersion
1070
     0
1000
AcDbSavedByObjectVersion
1070
     0
1000
AcDbSavedByObjectVersion
1070
     0
1000
AcDbSavedByObjectVersion
1070
     0
1000
AcDbSavedByObjectVersion
1070
     0
1000
AcDbSavedByObjectVersion
1070
     0
1000
AcDbSavedByObjectVersion
1070
     0
1000
AcDbSavedByObjectVersion
1070
     0
1000
AcDbSavedByObjectVersion
1070
     0
1000
AcDbSavedByObjectVersion
1070
     0
1000
AcDbSavedByObjectVersion
1070
     0
1000
AcDbSavedByObjectVersion
1070
     0
1000
AcDbSavedByObjectVersion
1070
     0
1000
AcDbSavedByObjectVersion
1070
     0
  0
VISUALSTYLE
  5
44A
102
{ACAD_REACTORS
330
2C
102
}
330
2C
100
AcDbVisualStyle
  2
Basic
 70
     7
 71
     1
 72
     0
 73
     1
 90
        0
 40
-0.6
 41
-30.0
 62
     5
 63
     7
 74
     0
 91
        4
 64
     7
 65
   257
 75
     1
175
     1
 42
1.0
 92
        8
 66
     7
 43
1.0
 76
     1
 77
     6
 78
     2
 67
     7
 79
     5
170
     0
171
     0
290
     0
174
     0
 93
        1
 44
0.0
173
     0
291
     1
 45
0.0
1001
ACAD
1000
AcDbSavedByObjectVersion
1070
     0
1000
AcDbSavedByObjectVersion
1070
     0
1000
AcDbSavedByObjectVersion
1070
     0
1000
AcDbSavedByObjectVersion
1070
     0
1000
AcDbSavedByObjectVersion
1070
     0
1000
AcDbSavedByObjectVersion
1070
     0
1000
AcDbSavedByObjectVersion
1070
     0
1000
AcDbSavedByObjectVersion
1070
     0
1000
AcDbSavedByObjectVersion
1070
     0
1000
AcDbSavedByObjectVersion
1070
     0
1000
AcDbSavedByObjectVersion
1070
     0
1000
AcDbSavedByObjectVersion
1070
     0
1000
AcDbSavedByObjectVersion
1070
     0
1000
AcDbSavedByObjectVersion
1070
     0
1000
AcDbSavedByObjectVersion
1070
     0
  0
VISUALSTYLE
  5
44F
102
{ACAD_REACTORS
330
2C
102
}
330
2C
100
AcDbVisualStyle
  2
Brighten
 70
    12
 71
     2
 72
     2
 73
     0
 90
        0
 40
-0.6
 41
-30.0
 62
     5
 63
     7
 74
     1
 91
        4
 64
     7
 65
   257
 75
     1
175
     1
 42
1.0
 92
        8
 66
     7
 43
1.0
 76
     1
 77
     6
 78
     2
 67
     7
 79
     5
170
     0
171
     0
290
     0
174
     0
 93
        1
 44
50.0
173
     0
291
     1
 45
0.0
1001
ACAD
1000
AcDbSavedByObjectVersion
1070
     0
1000
AcDbSavedByObjectVersion
1070
     0
1000
AcDbSavedByObjectVersion
1070
     0
1000
AcDbSavedByObjectVersion
1070
     0
1000
AcDbSavedByObjectVersion
1070
     0
1000
AcDbSavedByObjectVersion
1070
     0
1000
AcDbSavedByObjectVersion
1070
     0
1000
AcDbSavedByObjectVersion
1070
     0
1000
AcDbSavedByObjectVersion
1070
     0
1000
AcDbSavedByObjectVersion
1070
     0
1000
AcDbSavedByObjectVersion
1070
     0
1000
AcDbSavedByObjectVersion
1070
     0
1000
AcDbSavedByObjectVersion
1070
     0
1000
AcDbSavedByObjectVersion
1070
     0
1000
AcDbSavedByObjectVersion
1070
     0
  0
VISUALSTYLE
  5
453
102
{ACAD_REACTORS
330
2C
102
}
330
2C
100
AcDbVisualStyle
  2
ColorChange
 70
    16
 71
     2
 72
     2
 73
     3
 90
        0
 40
-0.6
 41
-30.0
 62
     5
 63
     8
 74
     1
 91
        4
 64
     7
 65
   257
 75
     1
175
     1
 42
1.0
 92
        8
 66
     8
 43
1.0
 76
     1
 77
     6
 78
     2
 67
     7
 79
     5
170
     0
171
     0
290
     0
174
     0
 93
        1
 44
0.0
173
     0
291
     1
 45
0.0
1001
ACAD
1000
AcDbSavedByObjectVersion
1070
     0
1000
AcDbSavedByObjectVersion
1070
     0
1000
AcDbSavedByObjectVersion
1070
     0
1000
AcDbSavedByObjectVersion
1070
     0
1000
AcDbSavedByObjectVersion
1070
     0
1000
AcDbSavedByObjectVersion
1070
     0
1000
AcDbSavedByObjectVersion
1070
     0
1000
AcDbSavedByObjectVersion
1070
     0
1000
AcDbSavedByObjectVersion
1070
     0
1000
AcDbSavedByObjectVersion
1070
     0
1000
AcDbSavedByObjectVersion
1070
     0
1000
AcDbSavedByObjectVersion
1070
     0
1000
AcDbSavedByObjectVersion
1070
     0
1000
AcDbSavedByObjectVersion
1070
     0
1000
AcDbSavedByObjectVersion
1070
     0
  0
VISUALSTYLE
  5
44D
102
{ACAD_REACTORS
330
2C
102
}
330
2C
100
AcDbVisualStyle
  2
Conceptual
 70
     9
 71
     3
 72
     2
 73
     0
 90
        0
 40
-0.6
 41
-30.0
 62
     5
 63
     7
 74
     2
 91
        2
 64
     7
 65
   257
 75
     1
175
     1
 42
40.0
 92
        8
 66
     7
 43
1.0
 76
     1
 77
     6
 78
     2
 67
     7
 79
     3
170
     0
171
     0
290
     0
174
     0
 93
        1
 44
0.0
173
     0
291
     0
 45
0.0
1001
ACAD
1000
AcDbSavedByObjectVersion
1070
     0
1000
AcDbSavedByObjectVersion
1070
     0
1000
AcDbSavedByObjectVersion
1070
     0
1000
AcDbSavedByObjectVersion
1070
     0
1000
AcDbSavedByObjectVersion
1070
     0
1000
AcDbSavedByObjectVersion
1070
     0
1000
AcDbSavedByObjectVersion
1070
     0
1000
AcDbSavedByObjectVersion
1070
     0
1000
AcDbSavedByObjectVersion
1070
     0
1000
AcDbSavedByObjectVersion
1070
     0
1000
AcDbSavedByObjectVersion
1070
     0
1000
AcDbSavedByObjectVersion
1070
     0
1000
AcDbSavedByObjectVersion
1070
     0
1000
AcDbSavedByObjectVersion
1070
     0
1000
AcDbSavedByObjectVersion
1070
     0
  0
VISUALSTYLE
  5
44E
102
{ACAD_REACTORS
330
2C
102
}
330
2C
100
AcDbVisualStyle
  2
Dim
 70
    11
 71
     2
 72
     2
 73
     0
 90
        0
 40
-0.6
 41
-30.0
 62
     5
 63
     7
 74
     1
 91
        4
 64
     7
 65
   257
 75
     1
175
     1
 42
1.0
 92
        8
 66
     7
 43
1.0
 76
     1
 77
     6
 78
     2
 67
     7
 79
     5
170
     0
171
     0
290
     0
174
     0
 93
        1
 44
-50.0
173
     0
291
     1
 45
0.0
1001
ACAD
1000
AcDbSavedByObjectVersion
1070
     0
1000
AcDbSavedByObjectVersion
1070
     0
1000
AcDbSavedByObjectVersion
1070
     0
1000
AcDbSavedByObjectVersion
1070
     0
1000
AcDbSavedByObjectVersion
1070
     0
1000
AcDbSavedByObjectVersion
1070
     0
1000
AcDbSavedByObjectVersion
1070
     0
1000
AcDbSavedByObjectVersion
1070
     0
1000
AcDbSavedByObjectVersion
1070
     0
1000
AcDbSavedByObjectVersion
1070
     0
1000
AcDbSavedByObjectVersion
1070
     0
1000
AcDbSavedByObjectVersion
1070
     0
1000
AcDbSavedByObjectVersion
1070
     0
1000
AcDbSavedByObjectVersion
1070
     0
1000
AcDbSavedByObjectVersion
1070
     0
  0
VISUALSTYLE
  5
452
102
{ACAD_REACTORS
330
2C
102
}
330
2C
100
AcDbVisualStyle
  2
Facepattern
 70
    15
 71
     2
 72
     2
 73
     0
 90
        0
 40
-0.6
 41
-30.0
 62
     5
 63
     7
 74
     1
 91
        4
 64
     7
 65
   257
 75
     1
175
     1
 42
1.0
 92
        8
 66
     7
 43
1.0
 76
     1
 77
     6
 78
     2
 67
     7
 79
     5
170
     0
171
     0
290
     0
174
     0
 93
        1
 44
0.0
173
     0
291
     1
 45
0.0
1001
ACAD
1000
AcDbSavedByObjectVersion
1070
     0
1000
AcDbSavedByObjectVersion
1070
     0
1000
AcDbSavedByObjectVersion
1070
     0
1000
AcDbSavedByObjectVersion
1070
     0
1000
AcDbSavedByObjectVersion
1070
     0
1000
AcDbSavedByObjectVersion
1070
     0
1000
AcDbSavedByObjectVersion
1070
     0
1000
AcDbSavedByObjectVersion
1070
     0
1000
AcDbSavedByObjectVersion
1070
     0
1000
AcDbSavedByObjectVersion
1070
     0
1000
AcDbSavedByObjectVersion
1070
     0
1000
AcDbSavedByObjectVersion
1070
     0
1000
AcDbSavedByObjectVersion
1070
     0
1000
AcDbSavedByObjectVersion
1070
     0
1000
AcDbSavedByObjectVersion
1070
     0
  0
VISUALSTYLE
  5
447
102
{ACAD_REACTORS
330
2C
102
}
330
2C
100
AcDbVisualStyle
  2
Flat
 70
     0
 71
     2
 72
     1
 73
     1
 90
        2
 40
-0.6
 41
30.0
 62
     5
 63
     7
 74
     0
 91
        4
 64
     7
 65
   257
 75
     1
175
     1
 42
1.0
 92
        8
 66
     7
 43
1.0
 76
     1
 77
     6
 78
     2
 67
     7
 79
     5
170
     0
171
     0
290
     0
174
     0
 93
       13
 44
0.0
173
     0
291
     1
 45
0.0
1001
ACAD
1000
AcDbSavedByObjectVersion
1070
     0
1000
AcDbSavedByObjectVersion
1070
     0
1000
AcDbSavedByObjectVersion
1070
     0
1000
AcDbSavedByObjectVersion
1070
     0
1000
AcDbSavedByObjectVersion
1070
     0
1000
AcDbSavedByObjectVersion
1070
     0
1000
AcDbSavedByObjectVersion
1070
     0
1000
AcDbSavedByObjectVersion
1070
     0
1000
AcDbSavedByObjectVersion
1070
     0
1000
AcDbSavedByObjectVersion
1070
     0
1000
AcDbSavedByObjectVersion
1070
     0
1000
AcDbSavedByObjectVersion
1070
     0
1000
AcDbSavedByObjectVersion
1070
     0
1000
AcDbSavedByObjectVersion
1070
     0
1000
AcDbSavedByObjectVersion
1070
     0
  0
VISUALSTYLE
  5
448
102
{ACAD_REACTORS
330
2C
102
}
330
2C
100
AcDbVisualStyle
  2
FlatWithEdges
 70
     1
 71
     2
 72
     1
 73
     1
 90
        2
 40
-0.6
 41
30.0
 62
     5
 63
     7
 74
     1
 91
        4
 64
     7
 65
   257
 75
     1
175
     1
 42
1.0
 92
        0
 66
   257
 43
1.0
 76
     1
 77
     6
 78
     2
 67
     7
 79
     5
170
     0
171
     0
290
     0
174
     0
 93
       13
 44
0.0
173
     0
291
     1
 45
0.0
1001
ACAD
1000
AcDbSavedByObjectVersion
1070
     0
1000
AcDbSavedByObjectVersion
1070
     0
1000
AcDbSavedByObjectVersion
1070
     0
1000
AcDbSavedByObjectVersion
1070
     0
1000
AcDbSavedByObjectVersion
1070
     0
1000
AcDbSavedByObjectVersion
1070
     0
1000
AcDbSavedByObjectVersion
1070
     0
1000
AcDbSavedByObjectVersion
1070
     0
1000
AcDbSavedByObjectVersion
1070
     0
1000
AcDbSavedByObjectVersion
1070
     0
1000
AcDbSavedByObjectVersion
1070
     0
1000
AcDbSavedByObjectVersion
1070
     0
1000
AcDbSavedByObjectVersion
1070
     0
1000
AcDbSavedByObjectVersion
1070
     0
1000
AcDbSavedByObjectVersion
1070
     0
  0
VISUALSTYLE
  5
2B
102
{ACAD_REACTORS
330
2C
102
}
330
2C
100
AcDbVisualStyle
  2
Gouraud
 70
     2
 71
     2
 72
     2
 73
     1
 90
        2
 40
-0.6
 41
30.0
 62
     5
 63
     7
 74
     0
 91
        4
 64
     7
 65
   257
 75
     1
175
     1
 42
1.0
 92
        0
 66
     7
 43
1.0
 76
     1
 77
     6
 78
     2
 67
     7
 79
     5
170
     0
171
     0
290
     0
174
     0
 93
       13
 44
0.0
173
     0
291
     1
 45
0.0
1001
ACAD
1000
AcDbSavedByObjectVersion
1070
     0
1000
AcDbSavedByObjectVersion
1070
     0
1000
AcDbSavedByObjectVersion
1070
     0
1000
AcDbSavedByObjectVersion
1070
     0
1000
AcDbSavedByObjectVersion
1070
     0
1000
AcDbSavedByObjectVersion
1070
     0
1000
AcDbSavedByObjectVersion
1070
     0
1000
AcDbSavedByObjectVersion
1070
     0
1000
AcDbSavedByObjectVersion
1070
     0
1000
AcDbSavedByObjectVersion
1070
     0
1000
AcDbSavedByObjectVersion
1070
     0
1000
AcDbSavedByObjectVersion
1070
     0
1000
AcDbSavedByObjectVersion
1070
     0
1000
AcDbSavedByObjectVersion
1070
     0
1000
AcDbSavedByObjectVersion
1070
     0
  0
VISUALSTYLE
  5
449
102
{ACAD_REACTORS
330
2C
102
}
330
2C
100
AcDbVisualStyle
  2
GouraudWithEdges
 70
     3
 71
     2
 72
     2
 73
     1
 90
        2
 40
-0.6
 41
30.0
 62
     5
 63
     7
 74
     1
 91
        4
 64
     7
 65
   257
 75
     1
175
     1
 42
1.0
 92
        0
 66
   257
 43
1.0
 76
     1
 77
     6
 78
     2
 67
     7
 79
     5
170
     0
171
     0
290
     0
174
     0
 93
       13
 44
0.0
173
     0
291
     1
 45
0.0
1001
ACAD
1000
AcDbSavedByObjectVersion
1070
     0
1000
AcDbSavedByObjectVersion
1070
     0
1000
AcDbSavedByObjectVersion
1070
     0
1000
AcDbSavedByObjectVersion
1070
     0
1000
AcDbSavedByObjectVersion
1070
     0
1000
AcDbSavedByObjectVersion
1070
     0
1000
AcDbSavedByObjectVersion
1070
     0
1000
AcDbSavedByObjectVersion
1070
     0
1000
AcDbSavedByObjectVersion
1070
     0
1000
AcDbSavedByObjectVersion
1070
     0
1000
AcDbSavedByObjectVersion
1070
     0
1000
AcDbSavedByObjectVersion
1070
     0
1000
AcDbSavedByObjectVersion
1070
     0
1000
AcDbSavedByObjectVersion
1070
     0
1000
AcDbSavedByObjectVersion
1070
     0
  0
VISUALSTYLE
  5
451
102
{ACAD_REACTORS
330
2C
102
}
330
2C
100
AcDbVisualStyle
  2
Linepattern
 70
    14
 71
     2
 72
     2
 73
     0
 90
        0
 40
-0.6
 41
-30.0
 62
     5
 63
     7
 74
     1
 91
        4
 64
     7
 65
   257
 75
     7
175
     7
 42
1.0
 92
        8
 66
     7
 43
1.0
 76
     1
 77
     6
 78
     2
 67
     7
 79
     5
170
     0
171
     0
290
     0
174
     0
 93
        1
 44
0.0
173
     0
291
     1
 45
0.0
1001
ACAD
1000
AcDbSavedByObjectVersion
1070
     0
1000
AcDbSavedByObjectVersion
1070
     0
1000
AcDbSavedByObjectVersion
1070
     0
1000
AcDbSavedByObjectVersion
1070
     0
1000
AcDbSavedByObjectVersion
1070
     0
1000
AcDbSavedByObjectVersion
1070
     0
1000
AcDbSavedByObjectVersion
1070
     0
1000
AcDbSavedByObjectVersion
1070
     0
1000
AcDbSavedByObjectVersion
1070
     0
1000
AcDbSavedByObjectVersion
1070
     0
1000
AcDbSavedByObjectVersion
1070
     0
1000
AcDbSavedByObjectVersion
1070
     0
1000
AcDbSavedByObjectVersion
1070
     0
1000
AcDbSavedByObjectVersion
1070
     0
1000
AcDbSavedByObjectVersion
1070
     0
  0
VISUALSTYLE
  5
57
102
{ACAD_REACTORS
330
2C
102
}
330
2C
100
AcDbVisualStyle
  2
Realistic
 70
     8
 71
     2
 72
     2
 73
     0
 90
        0
 40
-0.6
 41
-30.0
 62
     5
 63
     7
 74
     1
 91
        0
 64
     7
 65
   257
 75
     1
175
     1
 42
1.0
 92
        8
 66
     8
 43
1.0
 76
     1
 77
     6
 78
     2
 67
     7
 79
     5
170
     0
171
     0
290
     0
174
     0
 93
       13
 44
0.0
173
     0
291
     0
 45
0.0
1001
ACAD
1000
AcDbSavedByObjectVersion
1070
     0
1000
AcDbSavedByObjectVersion
1070
     0
1000
AcDbSavedByObjectVersion
1070
     0
1000
AcDbSavedByObjectVersion
1070
     0
1000
AcDbSavedByObjectVersion
1070
     0
1000
AcDbSavedByObjectVersion
1070
     0
1000
AcDbSavedByObjectVersion
1070
     0
1000
AcDbSavedByObjectVersion
1070
     0
1000
AcDbSavedByObjectVersion
1070
     0
1000
AcDbSavedByObjectVersion
1070
     0
1000
AcDbSavedByObjectVersion
1070
     0
1000
AcDbSavedByObjectVersion
1070
     0
1000
AcDbSavedByObjectVersion
1070
     0
1000
AcDbSavedByObjectVersion
1070
     0
1000
AcDbSavedByObjectVersion
1070
     0
  0
VISUALSTYLE
  5
450
102
{ACAD_REACTORS
330
2C
102
}
330
2C
100
AcDbVisualStyle
  2
Thicken
 70
    13
 71
     2
 72
     2
 73
     0
 90
        0
 40
-0.6
 41
-30.0
 62
     5
 63
     7
 74
     1
 91
        4
 64
     7
 65
   257
 75
     1
175
     1
 42
1.0
 92
       12
 66
     7
 43
1.0
 76
     1
 77
     6
 78
     2
 67
     7
 79
     5
170
     0
171
     0
290
     0
174
     0
 93
        1
 44
0.0
173
     0
291
     1
 45
0.0
1001
ACAD
1000
AcDbSavedByObjectVersion
1070
     0
1000
AcDbSavedByObjectVersion
1070
     0
1000
AcDbSavedByObjectVersion
1070
     0
1000
AcDbSavedByObjectVersion
1070
     0
1000
AcDbSavedByObjectVersion
1070
     0
1000
AcDbSavedByObjectVersion
1070
     0
1000
AcDbSavedByObjectVersion
1070
     0
1000
AcDbSavedByObjectVersion
1070
     0
1000
AcDbSavedByObjectVersion
1070
     0
1000
AcDbSavedByObjectVersion
1070
     0
1000
AcDbSavedByObjectVersion
1070
     0
1000
AcDbSavedByObjectVersion
1070
     0
1000
AcDbSavedByObjectVersion
1070
     0
1000
AcDbSavedByObjectVersion
1070
     0
1000
AcDbSavedByObjectVersion
1070
     0
  0
DICTIONARYVAR
  5
444
102
{ACAD_REACTORS
330
441
102
}
330
441
100
DictionaryVariables
280
     0
  1
1:1
  0
DICTIONARYVAR
  5
443
102
{ACAD_REACTORS
330
441
102
}
330
441
100
DictionaryVariables
280
     0
  1
STANDARD
  0
DICTIONARYVAR
  5
442
102
{ACAD_REACTORS
330
441
102
}
330
441
100
DictionaryVariables
280
     0
  1
STANDARD
  0
DICTIONARYVAR
  5
47E
102
{ACAD_REACTORS
330
441
102
}
330
441
100
DictionaryVariables
280
     0
  1
1
  0
DICTIONARYVAR
  5
47D
102
{ACAD_REACTORS
330
441
102
}
330
441
100
DictionaryVariables
280
     0
  1
1
  0
DICTIONARYVAR
  5
47C
102
{ACAD_REACTORS
330
441
102
}
330
441
100
DictionaryVariables
280
     0
  1
1
  0
DICTIONARYVAR
  5
445
102
{ACAD_REACTORS
330
441
102
}
330
441
100
DictionaryVariables
280
     0
  1
0
  0
DICTIONARYVAR
  5
47A
102
{ACAD_REACTORS
330
441
102
}
330
441
100
DictionaryVariables
280
     0
  1
1
  0
DICTIONARYVAR
  5
47B
102
{ACAD_REACTORS
330
441
102
}
330
441
100
DictionaryVariables
280
     0
  1
127
  0
DICTIONARY
  5
F3E
102
{ACAD_REACTORS
330
F2E
102
}
330
F2E
100
AcDbDictionary
281
     1
  0
XRECORD
  5
F56
102
{ACAD_REACTORS
330
F2E
102
}
330
F2E
100
AcDbXrecord
280
     1
 90
-1023410169
  0
DICTIONARY
  5
E70
102
{ACAD_REACTORS
330
E6F
102
}
330
E6F
100
AcDbDictionary
281
     1
  3
DWGSETTINGS
350
1D82
  3
TRANSSETTINGS
350
1D83
  0
ACAMGFILTERDAT
  5
1021
102
{ACAD_REACTORS
330
101C
102
}
330
101C
100
AcAmgFilterDat
 70
    15
  1
DIMENSION,AMDT_*_DIM
  2
*
  3
*
  4
*
  5
*
290
     1
  0
ACAMGFILTERDAT
  5
1020
102
{ACAD_REACTORS
330
101C
102
}
330
101C
100
AcAmgFilterDat
 70
    15
  1
*
  2
AM_FEA-AM_*
  3
*
  4
*
  5
*
290
     1
  0
ACAMGFILTERDAT
  5
101D
102
{ACAD_REACTORS
330
101C
102
}
330
101C
100
AcAmgFilterDat
 70
    15
  1
HATCH
  2
*
  3
*
  4
*
  5
*
290
     1
  0
ACAMGFILTERDAT
  5
101E
102
{ACAD_REACTORS
330
101C
102
}
330
101C
100
AcAmgFilterDat
 70
    15
  1
LINE
  2
8,8N,*-8,*-8N,AM_8,AM_8N,*-AM_8,*-AM_8N
  3
*
  4
*
  5
INSERT,STDPART2D
290
     1
  0
ACAMGFILTERDAT
  5
1022
102
{ACAD_REACTORS
330
101C
102
}
330
101C
100
AcAmgFilterDat
 70
    15
  1
ARC
  2
AM_5
  3
*
  4
2
  5
INSERT
290
     0
  0
ACAMGFILTERDAT
  5
101F
102
{ACAD_REACTORS
330
101C
102
}
330
101C
100
AcAmgFilterDat
 70
    15
  1
ACMFCFRAME,ACMDATUMTARGET,ACMDATUMID,ACMWELDSYM,ACMSURFSYM,ACMFEATID,ACMPARTREF,ACMBALLOON,AMDTEDGESYM,AMGSCREWCALCTABLE
  2
*
  3
*
  4
*
  5
*
290
     1
  0
LAYER_INDEX
  5
1107
102
{ACAD_REACTORS
330
1106
102
}
330
1106
100
AcDbIndex
 40
2455888.670899444
100
AcDbLayerIndex
  8
0
360
1108
 90
        0
  8
Defpoints
360
1109
 90
        0
  8
SIZE
360
110A
 90
        5
  8
OUTLINE
360
110B
 90
       98
  8
BASIS
360
110C
 90
        1
  8
NOTE
360
110D
 90
        6
  8
ARRANGE
360
110E
 90
        3
  8
ETC
360
110F
 90
        1
  0
DICTIONARY
  5
1E5C
330
15
100
AcDbDictionary
280
     1
281
     1
  3
ACAD_XREC_ROUNDTRIP
360
1E5D
  0
DICTIONARY
  5
1B
330
1A
100
AcDbDictionary
280
     1
281
     1
  3
ACAD_XREC_ROUNDTRIP
360
1E5E
  3
ADSK_XREC_LAYOUTTHUMBNAIL
360
1C
  0
DICTIONARY
  5
3E
330
3D
100
AcDbDictionary
280
     1
281
     1
  3
ACAD_XREC_ROUNDTRIP
360
512
  3
BUMPTILE
360
3F
  3
DIFFUSETILE
360
40
  3
OPACITYTILE
360
41
  3
REFLECTIONTILE
360
42
  3
REFRACTIONTILE
360
43
  3
SPECULARTILE
360
44
  0
DICTIONARY
  5
36
330
35
100
AcDbDictionary
280
     1
281
     1
  3
ACAD_XREC_ROUNDTRIP
360
511
  3
BUMPTILE
360
37
  3
DIFFUSETILE
360
38
  3
OPACITYTILE
360
39
  3
REFLECTIONTILE
360
3A
  3
REFRACTIONTILE
360
3B
  3
SPECULARTILE
360
3C
  0
DICTIONARY
  5
C
330
A
100
AcDbDictionary
280
     1
281
     1
  3
ACAD_XREC_ROUNDTRIP
360
50D
  3
BUMPTILE
360
D
  3
DIFFUSETILE
360
E
  3
OPACITYTILE
360
F
  3
REFLECTIONTILE
360
10
  3
REFRACTIONTILE
360
11
  3
SPECULARTILE
360
12
  0
DICTIONARY
  5
43E
330
56
100
AcDbDictionary
280
     1
281
     1
  3
ACAD_ROUNDTRIP_2008_TABLESTYLE_CELLSTYLEMAP
360
1E58
  3
ACAD_XREC_ROUNDTRIP
360
1E5F
  0
IDBUFFER
  5
1108
330
0
100
AcDbIdBuffer
  0
IDBUFFER
  5
1109
330
0
100
AcDbIdBuffer
  0
IDBUFFER
  5
110A
330
0
100
AcDbIdBuffer
330
1C31
330
1C3E
330
1C4B
330
1C58
330
1C65
  0
IDBUFFER
  5
110B
330
0
100
AcDbIdBuffer
330
1BBD
330
1BBE
330
1BBF
330
1BC0
330
1BC1
330
1BC2
330
1BC3
330
1BC4
330
1BC5
330
1BC6
330
1BC7
330
1BC8
330
1BC9
330
1BCA
330
1BCB
330
1BCC
330
1BCD
330
1BCE
330
1BCF
330
1BD0
330
1BD1
330
1BD2
330
1BD3
330
1BD4
330
1BD5
330
1BD6
330
1BD7
330
1BD8
330
1BD9
330
1BDA
330
1BDB
330
1BDC
330
1BDD
330
1BDE
330
1BDF
330
1BE0
330
1BE1
330
1BE2
330
1BE3
330
1BE4
330
1BE5
330
1BE6
330
1BE7
330
1BE8
330
1BE9
330
1BEA
330
1BEB
330
1BEC
330
1BED
330
1BEE
330
1BEF
330
1BF0
330
1BF1
330
1BF2
330
1BF3
330
1BF4
330
1BF5
330
1BF6
330
1BF7
330
1BF8
330
1BF9
330
1BFA
330
1BFB
330
1BFC
330
1BFD
330
1BFE
330
1BFF
330
1C00
330
1C01
330
1C02
330
1C03
330
1C04
330
1C05
330
1C06
330
1C07
330
1C08
330
1C09
330
1C0A
330
1C0B
330
1C0C
330
1C0D
330
1C0E
330
1C0F
330
1C10
330
1C11
330
1C12
330
1C13
330
1C14
330
1C15
330
1C16
330
1C17
330
1C18
330
1C19
330
1C1A
330
1C1B
330
1C1C
330
1C1D
330
1C1E
  0
IDBUFFER
  5
110C
330
0
100
AcDbIdBuffer
330
1C2D
  0
IDBUFFER
  5
110D
330
0
100
AcDbIdBuffer
330
15E6
330
1C1F
330
1C20
330
1C21
330
1C22
330
1C2C
  0
IDBUFFER
  5
110E
330
0
100
AcDbIdBuffer
330
1C2E
330
1C2F
330
1C30
  0
IDBUFFER
  5
110F
330
0
100
AcDbIdBuffer
330
15E7
  0
XRECORD
  5
1E5D
102
{ACAD_REACTORS
330
1E5C
102
}
330
1E5C
100
AcDbXrecord
280
     1
102
SHADEPLOT
 70
     0
102
SHADEPLOTRESLEVEL
 70
     2
102
SHADEPLOTCUSTOMDPI
 70
   300
  0
XRECORD
  5
1E5E
102
{ACAD_REACTORS
330
1B
102
}
330
1B
100
AcDbXrecord
280
     1
102
SHADEPLOT
 70
     0
102
SHADEPLOTRESLEVEL
 70
     2
102
SHADEPLOTCUSTOMDPI
 70
   300
  0
XRECORD
  5
1C
102
{ACAD_REACTORS
330
1B
102
}
330
1B
100
AcDbXrecord
280
     1
310
28000000B4000000870000000100080000000000EC5E0000000000000000000000010000000000000000000000000000FFFFFF000000000000000000000000000000000000000000000000000000000000000000330000006600000099000000CC000000FF00000000330000333300006633000099330000CC330000FF3300
310
0000660000336600006666000099660000CC660000FF66000000990000339900006699000099990000CC990000FF99000000CC000033CC000066CC000099CC0000CCCC0000FFCC000000FF000033FF000066FF000099FF0000CCFF0000FFFF000000003300330033006600330099003300CC003300FF003300003333003333
310
33006633330099333300CC333300FF33330000663300336633006666330099663300CC663300FF66330000993300339933006699330099993300CC993300FF99330000CC330033CC330066CC330099CC3300CCCC3300FFCC330000FF330033FF330066FF330099FF3300CCFF3300FFFF330000006600330066006600660099
310
006600CC006600FF00660000336600333366006633660099336600CC336600FF33660000666600336666006666660099666600CC666600FF66660000996600339966006699660099996600CC996600FF99660000CC660033CC660066CC660099CC6600CCCC6600FFCC660000FF660033FF660066FF660099FF6600CCFF6600
310
FFFF660000009900330099006600990099009900CC009900FF00990000339900333399006633990099339900CC339900FF33990000669900336699006666990099669900CC669900FF66990000999900339999006699990099999900CC999900FF99990000CC990033CC990066CC990099CC9900CCCC9900FFCC990000FF99
310
0033FF990066FF990099FF9900CCFF9900FFFF99000000CC003300CC006600CC009900CC00CC00CC00FF00CC000033CC003333CC006633CC009933CC00CC33CC00FF33CC000066CC003366CC006666CC009966CC00CC66CC00FF66CC000099CC003399CC006699CC009999CC00CC99CC00FF99CC0000CCCC0033CCCC0066CC
310
CC0099CCCC00CCCCCC00FFCCCC0000FFCC0033FFCC0066FFCC0099FFCC00CCFFCC00FFFFCC000000FF003300FF006600FF009900FF00CC00FF00FF00FF000033FF003333FF006633FF009933FF00CC33FF00FF33FF000066FF003366FF006666FF009966FF00CC66FF00FF66FF000099FF003399FF006699FF009999FF00CC
310
99FF00FF99FF0000CCFF0033CCFF0066CCFF0099CCFF00CCCCFF00FFCCFF0000FFFF0033FFFF0066FFFF0099FFFF00CCFFFF00FFFFFF00000000000D0D0D001A1A1A00282828003535350043434300505050005D5D5D006B6B6B00787878008686860093939300A1A1A100AEAEAE00BBBBBB00C9C9C900D6D6D600E4E4E400
310
F1F1F100FFFFFF0000000000000000000000000000000000000000000000000000000000000000000000000000000000F5F5F5F5F5F5F5F5F5E2E2E2E2E2E2E2E2E2F5F5F5F5F5F5F5F5F5F5F5F5F5F5F5F5E2E2E2E2E2E2E2E2E2F5F5F5F5F5F5F5F5F5F5F5F5F5F5F5F5E2E2E2E2E2E2E2E2E2F5F5F5F5F5F5F5F5F5F5F5
310
F5F5F5F5F5E2E2E2E2E2E2E2E2E2F5F5F5F5F5F5F5F5F5F5F5F5F5F5F5F5E2E2E2E2E2E2E2E2E2F5F5F5F5F5F5F5F5F5F5F5F5F5F5F5F5E2E2E2E2E2E2E2E2E2F5F5F5F5F5F5F5F5F5F5F5F5F5F5F5F5E2E2E2E2E2E2E2E2E2F5F5F5F5F5F5F5F5F5F5F5F5F5E2E2E2E2E2E2E2E2E2E2E2E2E2E2E2E2E2E2E2E2E2E2E2E2E2
310
E2E2E2E2E2E2E2E2E2E2E2E2E2E2E2E2E2E2E2E2E2E2E2E2E2E2E2E2E2E2E2E2E2E2E2E2E2E2E2E2E2E2E2E2E2E2E2E2E2E2E2E2E2E2E2E2E2E2E2E2E2E2E2E2E2E2E2E2E2E2E2E2E2E2E2E2E2E2E2E2E2E2E2E2E2E2E2E2E2E2E2E2E2E2E2E2E2E2E2E2E2E2E2E2E2E2E2E2E2E2E2E2E2E2E2E2E2E2E2E2E2E2E2E2E2E2E2
310
E2E2E2E2E2E2E2E2E2E2E2E2E2E2E2E2E2E2E2E2E2E2E2E2E2E2E2F5E2E2E2E2E2E2E2E2E2E2E2E2E2E2E2E2E2E2E2E2E2E2E2E2E2E2E2E2E2E2E2E2E2E2E2E2E2E2E2E2E2E2E2E2E2E2E2E2E2E2E2E2E2E2E2E2E2E2E2E2E2E2E2E2E2E2E2E2E2E2E2E2E2E2E2E2E2E2E2E2E2E2E2E2E2E2E2E2E2E2E2E2E2E2E2E2E2E2E2
310
E2E2E2E2E2E2E2E2E2E2E2E2E2E2E2E2E2E2E2E2E2E2E2E2E2E2E2E2E2E2E2E2E2E2E2E2E2E2E2E2E2E2E2E2E2E2E2E2E2E2E2E2E2E2E2E2E2E2E2E2E2E2E2E2E2E2E2E2E2E2E2E2E2E2E2E2E2E2E2E2F5E2E2E2E2E2E2E2E2E2E2E2E2E2E2E2E2E2E2E2E2E2E2E2E2E2E2E2E2E2E2E2E2E2E2E2E2E2E2E2E2E2E2E2E2E2E2
310
E2E2E2E2E2E2E2E2E2E2E2E2E2E2E2E2E2E2E2E2E2E2E2E2E2E2E2E2E2E2E2E2E2E2E2E2E2E2E2E2E2E2E2E2E2E2E2E2E2E2E2E2E2E2E2E2E2E2E2E2E2E2E2E2E2E2E2E2E2E2E2E2E2E2E2E2E2E2E2E2E2E2E2E2E2E2E2E2E2E2E2E2E2E2E2E2E2E2E2E2E2E2E2E2E2E2E2E2E2E2E2E2E2E2E2E2E2E2E2E2E2E2E2E2E2E2E2
310
E2E2E2E2E2E2F5E2E2E2E2E2E2E2E2E2E2E2E2E2E2E2E2E2E2E2E2E2E2E2E2E2E2E2E2E2E2E2E2E2E2E2E2E2E2E2E2E2E2E2E2E2E2E2E2E2E2E2E2E2E2E2E2E2E2E2E2E2E2E2E2E2E2E2E2E2E2E2E2E2E2E2E2E2E2E2E2E2E2E2E2E2E2E2E2E2E2E2E2E2E2E2E2E2E2E2E2E2E2E2E2E2E2E2E2E2E2E2E2E2E2E2E2E2E2E2E2
310
E2E2E2E2E2E2E2E2E2E2E2E2E2E2E2E2E2E2E2E2E2E2E2E2E2E2E2E2E2E2E2E2E2E2E2E2E2E2E2E2E2E2E2E2E2E2E2E2E2E2E2E2E2E2E2E2E2E2E2F5E2E2E2E2E2E2E2E2E2E2E2E2E2E2E2E2E2E2E2E2E2E2E2E2E2E2E2E2E2E2E2E2E2E2E2E2E2E2E2E2E2E2E2E2E2E2E2E2E2E2E2E2E2E2E2E2E2E2E2E2E2E2E2E2E2E2E2
310
E2E2E2E2E2E2E2E2E2E2E2E2E2E2E2E2E2E2E2E2E2E2E2E2E2E2E2E2E2E2E2E2E2E2E2E2E2E2E2E2E2E2E2E2E2E2E2E2E2E2E2E2E2E2E2E2E2E2E2E2E2E2E2E2E2E2E2E2E2E2E2E2E2E2E2E2E2E2E2E2E2E2E2E2E2E2E2E2E2E2E2E2E2E2E2E2E2E2E2E2E2E2E2E2E2E2E2E2E2E2E2E2F5E2E2E2E2E2E2E2E2E2E2E2E2E2E2
310
E2E2E2E2E2E2E2E2E2E2E2E2E2E2E2E2E2E2E2E2E2E2E2E2E2E2E2E2E2E2E2E2E2E2E2E2E2E2E2E2E2E2E2E2E2E2E2E2E2E2E2E2E2E2E2E2E2E2E2E2E2E2E2E2E2E2E2E2E2E2E2E2E2E2E2E2E2E2E2E2E2E2E2E2E2E2E2E2E2E2E2E2E2E2E2E2E2E2E2E2E2E2E2E2E2E2E2E2E2E2E2E2E2E2E2E2E2E2E2E2E2E2E2E2E2E2E2
310
E2E2E2E2E2E2E2E2E2E2E2E2E2E2E2E2E2E2E2E2E2E2E2E2E2E2E2E2E2E2E2E2E2E2E2E2E2E2F5E2E2E2E2E2E2E2E2E2E2E2E2E2E2E2E2E2E2E2E2E2E2E2E2E2E2E2E2E2E2E2E2E2E2E2E2E2E2E2E2E2E2E2E2E2E2E2E2E2E2E2E2E2E2E2E2E2E2E2E2E2E2E2E2E2E2E2E2E2E2E2E2E2E2E2E2E2E2E2E2E2E2E2E2E2E2E2E2
310
E2E2E2E2E2E2E2E2E2E2E2E2E2E2E2E2E2E2E2E2E2E2E2E2E2E2E2E2E2E2E2E2E2E2E2E2E2E2E2E2E2E2E2E2E2E2E2E2E2E2E2E2E2E2E2E2E2E2E2E2E2E2E2E2E2E2E2E2E2E2E2E2E2E2E2E2E2E2E2E2E2E2E2E2E2E2E2E2E2E2E2E2E2E2E2E2E2E2E2E2E2E2E2E2E2E2E2E2E2E2E2E2E2E2E2E2E2E2E2E2E2E2E2E2E2E2E2
310
E2E2E2E2E2E2E2E2E2E2E2E2E2E2E2E2E2E2E2E2E2E2E2E2E2E2E2E2E2E2E2E2E2E2E2E2E2E2E2E2E2E2E2E2E2E2E2E2E2E2E2E2E2E2E2E2E2E2E2E2E2E2E2E2E2E2E2E2E2E2E2E2E2E2E2E2E2E2E2E2E2E2E2E2E2E2E2E2E2E2E2E2E2E2E2E2E2E2E2E2E2E2E2E2E2E2E2E2E2E2E2E2E2E2E2E2E2E2E2E2E2E2E2E2E2E2E2
310
E2E2E2E2E2E2E2E2E2E2E2E2E2E2E2E2E2E2E2E2E2E2E2E2E2E2E2E2E2E2E2E2E2E2E2E2E2E2E2E2E2E2E2E2E2E2E2E2E2E2E2E2E2E2E2E2E2E2E2E2E2E2E2E2E2E2E2E2E2E2E2E2E2E2E2E2E2E2E2E2E2E2E2E2E2E2E2E2E2E2E2E2E2E2E2E2E2E2E2E2E2E2E2E2E2E2E2E2E2E2E2E2E2E2E2E2E2E2E2E2E2E2E2E2E2E2E2
310
E2E2E2E2E2E2E2E2E2E2E2E2E2E2E2E2E2E2E2E2E2E2E2E2E2E2E2E2E2E2E2E2E2E2E2E2E2E2E2E2E2E2E2E2E2E2E2E2E2E2E2E2E2E2E2E2E2E2E2E2E2E2E2E2E2E2E2E2E2E2E2E2E2E2E2E2E2E2E2E2E2E2E2E2E2E2E2E2E2E2E2E2E2E2E2E2E2E2E2E2E2E2E2E2E2E2E2E2E2E2E2E2E2E2E2E2E2E2E2E2E2E2E2E2E2E2E2
310
E2E2E2E2E2E2E2E2E2E2E2E2E2E2E2E2E2E2E2E2E2E2E2E2E2E2E2E2E2E2E2E2E2E2E2E2E2E2E2E2E2E2E2E2E2E2E2E2E2E2E2E2E2E2E2E2E2E2E2E2E2E2E2E2E2E2E2E2E2E2E2E2E2E2E2E2E2E2E2E2E2E2E2E2E2E2E2E2E2E2E2E2E2E2E2E2E2E2E2E2E2E2E2E2E2E2E2E2E2E2E2E2E2E2E2E2E2E2E2E2E2E2E2E2E2E2E2
310
E2E2E2E2E2E2E2E2E2E2E2E2E2E2E2E2E2E2E2E2E2E2E2E2E2E2E2E2E2E2E2E2E2E2E2E2E2E2E2E2E2E2E2E2E2E2E2E2E2E2E2E2E2E2E2E2E2E2E2E2E2E2E2E2E2E2E2E2E2E2E2E2E2E2E2E2E2E2E2E2E2E2E2E2E2E2E2E2E2E2E2E2E2E2E2E2E2E2E2E2E2E2E2E2E2E2E2E2E2E2E2E2E2E2E2E2E2E2E2E2E2E2E2E2E2E2E2
310
E2E2E2E2E2E2E2E2E2E2E2E2E2E2E2E2E2E2E2E2E2E2E2E2E2E2E2E2E2E2E2E2E2E2E2E2E2E2E2E2E2E2E2E2E2E2E2E2E2E2E2E2E2E2E2E2E2E2E2E2E2E2E2E2E2E2E2E2E2E2E2E2E2E2E2E2E2E2E2E2E2E2E2E2E2E2E2E2E2E2E2E2E2E2E2E2E2E2E2E2E2E2E2E2E2E2E2E2E2E2E2E2E2E2E2E2E2E2E2E2E2E2E2E2E2E2E2
310
E2E2E2E2E2E2E2E2E2E2E2E2E2E2E2E2E2E2E2E2E2E2E2E2E2E2E2E2E2E2E2E2E2E2E2E2E2E2E2E2E2E2E2E2E2E2E2E2E2E2E2E2E2E2E2E2E2E2E2E2E2E2E2E2E2E2E2E2E2E2E2E2E2E2E2E2E2E2E2E2E2E2E2E2E2E2E2E2E2E2E2E2E2E2E2E2E2E2E2E2E2E2E2E2E2E2E2E2E2E2E2E2E2E2E2E2E2E2E2E2E2E2E2E2E2E2E2
310
E2E2E2E2E2E2E2E2E2E2E2E2E2E2E2E2E2E2E2E2E2E2E2E2E2E2E2E2E2E2E2E2E2E2E2E2E2E2E2E2E2E2E2E2E2E2E2E2E2E2E2E2E2E2E2E2E2E2E2E2E2E2E2E2E2E2E2E2E2E2E2E2E2E2E2E2E2E2E2E2E2E2E2E2E2E2E2E2E2E2E2E2E2E2E2E2E2E2E2E2E2E2E2E2E2E2E2E2E2E2E2E2E2E2E2E2E2E2E2E2E2E2E2E2E2E2E2
310
E2E2E2E2E2E2E2E2E2E2E2E2E2E2E2E2E2E2E2E2E2E2E2E2E2E2E2E2E2E2E2E2E2E2E2E2E2E2E2E2E2E2E2E2E2E2E2E2E2E2E2E2E2E2E2E2E2E2E2E2E2E2E2E2E2E2E2E2E2E2E2E2E2E2E2E2E2E2E2E2E2E2E2E2E2E2E2E2E2E2E2E2E2E2E2E2E2E2E2E2E2E2E2E2E2E2E2E2E2E2E2E2E2E2E2E2E2E2E2E2E2E2E2E2E2E2E2
310
E2E2E2E2E2E2E2E2E2E2E2E2E2E2E2E2E2E2E2E2E2E2E2E2E2E2E2E2E2E2E2E2E2E2E2E2E2E2E2E2E2E2E2E2E2E2E2E2E2E2E2E2E2E2E2E2E2E2E2E2E2E2E2E2E2E2E2E2E2E2E2E2E2E2E2E2E2E2E2E2E2E2E2E2E2E2E2E2E2E2E2E2E2E2E2E2E2E2E2E2E2E2E2E2E2E2E2E2E2E2E2E2E2E2E2E2E2E2E2E2E2E2E2E2E2E2E2
310
E2E2E2E2E2E2E2E2E2E2E2E2E2E2E2E2E2E2E2E2E2E2E2E2E2E2E2E2E2E2E2E2E2E2E2E2E2E2E2E2E2E2E2E2E2E2E2E2E2E2E2E2E2E2E2E2E2E2E2E2E2E2E2E2E2E2E2E2E2E2E2E2E2E2E2E2E2E2E2E2E2E2E2E2E2E2E2E2E2E2E2E2E2E2E2E2E2E2E2E2E2E2E2E2E2E2E2E2E2E2E2E2E2E2E2E2E2E2E2E2E2E2E2E2E2E2E2
310
E2E2E2E2E2E2E2E2E2E2E2E2E2E2E2E2E2E2E2E2E2E2E2E2E2E2E2E2E2E2E2E2E2E2E2E2E2E2E2E2E2E2E2E2E2E2E2E2E2E2E2E2E2E2E2E2E2E2E2E2E2E2E2E2E2E2E2E2E2E2E2E2E2E2E2E2E2E2E2E2E2E2E2E2E2E2E2E2E2E2E2E2E2E2E2E2E2E2E2E2E2E2E2E2E2E2E2E2E2E2E2E2E2E2E2E2E2E2E2E2E2E2E2E2E2E2E2
310
E2E2E2E2E2E2E2E2E2E2E2E2E2E2E2E2E2E2E2E2E2E2E2E2E2E2E2E2E2E2E2E2E2E2E2E2E2E2E2E2E2E2E2E2E2E2E2E2E2E2E2E2E2E2E2E2E2E2E2E2F5E2E2E2E2E2E2E2E2E2E2E2E2E2E2E2E2E2E2E2E2E2E2E2E2E2E2E2E2E2E2E2E2E2E2E2E2E2E2E2E2E2E2E2E2E2E2E2E2E2E2E2E2E2E2E2E2E2E2E2E2E2E2E2E2E2E2
310
E2E2E2E2E2E2E2E2E2E2E2E2E2E2E2E2E2E2E2E2E2E2E2E2E2E2E2E2E2E2E2E2E2E2E2E2E2E2E2E2E2E2E2E2E2E2E2E2E2E2E2E2E2E2E2E2E2E2E2E2E2E2E2E2E2E2E2E2E2E2E2E2E2E2E2E2E2E2E2E2E2E2E2E2E2E2E2E2E2E2E2E2E2E2E2E2E2E2E2E2E2E2E2E2E2E2E2E2E2E2E2E2E2F5E2E2E2E2E2E2E2E2E2E2E2E2E2
310
E2E2E2E2E2E2E2E2E2E2E2E2E2E2E2E2E2E2E2E2E2E2E2E2E2E2E2E2E2E2E2E2E2E2E2E2E2E2E2E2E2E2E2E2E2E2E2E2E2E2E2E2E2E2E2E2E2E2E2E2E2E2E2E2E2E2E2E2E2E2E2E2E2E2E2E2E2E2E2E2E2E2E2E2E2E2E2E2E2E2E2E2E2E2E2E2E2E2E2E2E2E2E2E2E2E2E2E2E2E2E2E2E2E2E2E2E2E2E2E2E2E2E2E2E2E2E2
310
E2E2E2E2E2E2E2E2E2E2E2E2E2E2E2E2E2E2E2E2E2E2E2E2E2E2E2E2E2E2E2E2E2E2E2E2E2E2E2F5E2E2E2E2E2E2E2E2E2E2E2E2E2E2E2E2E2E2E2E2E2E2E2E2E2E2E2E2E2E2E2E2E2E2E2E2E2E2E2E2E2E2E2E2E2E2E2E2E2E2E2E2E2E2E2E2E2E2E2E2E2E2E2E2E2E2E2E2E2E2E2E2E2E2E2E2E2E2E2E2E2E2E2E2E2E2E2
310
E2E2E2E2E2E2E2E2E2E2E2E2E2E2E2E2E2E2E2E2E2E2E2E2E2E2E2E2E2E2E2E2E2E2E2E2E2E2E2E2E2E2E2E2E2E2E2E2E2E2E2E2E2E2E2E2E2E2E2E2E2E2E2E2E2E2E2E2E2E2E2E2E2E2E2E2E2E2E2E2E2E2E2E2E2E2E2E2E2E2E2E2F5E2E2E2E2E2E2E2E2E2E2E2E2E2E2E2E2E2E2E2E2E2E2E2E2E2E2E2E2E2E2E2E2E2E2
310
E2E2E2E2E2E2E2E2E2E2E2E2E2E2E2E2E2E2E2E2E2E2E2E2E2E2E2E2E2E2E2E2E2E2E2E2E2E2E2E2E2E2E2E2E2E2E2E2E2E2E2E2E2E2E2E2E2E2E2E2E2E2E2E2E2E2E2E2E2E2E2E2E2E2E2E2E2E2E2E2E2E2E2E2E2E2E2E2E2E2E2E2E2E2E2E2E2E2E2E2E2E2E2E2E2E2E2E2E2E2E2E2E2E2E2E2E2E2E2E2E2E2E2E2E2E2E2
310
E2E2E2E2E2E2E2E2E2E2E2E2E2E2E2E2E2E2F5E2E2E2E2E2E2E2E2E2E2E2E2E2E2E2E2E2E2E2E2E2E2E2E2E2E2E2E2E2E2E2E2E2E2E2E2E2E2E2E2E2E2E2E2E2E2E2E2E2E2E2E2E2E2E2E2E2E2E2E2E2E2E2E2E2E2E2E2E2E2E2E2E2E2E2E2E2E2E2E2E2E2E2E2E2E2E2E2E2E2E2E2E2E2E2E2E2E2E2E2E2E2E2E2E2E2E2E2
310
E2E2E2E2E2E2E2E2E2E2E2E2E2E2E2E2E2E2E2E2E2E2E2E2E2E2E2E2E2E2E2E2E2E2E2E2E2E2E2E2E2E2E2E2E2E2E2E2E2E2E2E2E2E2E2E2E2E2E2E2E2E2E2E2E2E2E2E2E2E2E2F5E2E2E2E2E2E2E2E2E2E2E2E2E2E2E2E2E2E2E2E2E2E2E2E2E2E2E2E2E2E2E2E2E2E2E2E2E2E2E2E2E2E2E2E2E2E2E2E2E2E2E2E2E2E2E2
310
E2E2E2E2E2E2E2E2E2E2E2E2E2E2E2E2E2E2E2E2E2E2E2E2E2E2E2E2E2E2E2E2E2E2E2E2E2E2E2E2E2E2E2E2E2E2E2E2E2E2E2E2E2E2E2E2E2E2E2E2E2E2E2E2E2E2E2E2E2E2E2E2E2E2E2E2E2E2E2E2E2E2E2E2E2E2E2E2E2E2E2E2E2E2E2E2E2E2E2E2E2E2E2E2E2E2E2E2E2E2E2E2E2E2E2E2E2E2E2E2E2E2E2E2F5E2E2
310
E2E2E2E2E2E2E2E2E2E2E2E2E2E2E2E2E2E2E2E2E2E2E2E2E2E2E2E2E2E2E2E2E2E2E2E2E2E2E2E2E2E2E2E2E2E2E2E2E2E2E2E2E2E2E2E2E2E2E2E2E2E2E2E2E2E2E2E2E2E2E2E2E2E2E2E2E2E2E2E2E2E2E2E2E2E2E2E2E2E2E2E2E2E2E2E2E2E2E2E2E2E2E2E2E2E2E2E2E2E2E2E2E2E2E2E2E2E2E2E2E2E2E2E2E2E2E2
310
E2E2E2E2E2E2E2E2E2E2E2E2E2E2E2E2E2E2E2E2E2E2E2E2E2E2E2E2E2E2E2E2E2E2E2E2E2E2E2E2E2E2E2E2E2E2E2E2E2E2F5E2E2E2E2E2E2E2E2E2E2E2E2E2E2E2E2E2E2E2E2E2E2E2E2E2E2E2E2E2E2E2E2E2E2E2E2E2E2E2E2E2E2E2E2E2E2E2E2E2E2E2E2E2E2E2E2E2E2E2E2E2E2E2E2E2E2E2E2E2E2E2E2E2E2E2E2
310
E2E2E2E2E2E2E2E2E2E2E2E2E2E2E2E2E2E2E2E2E2E2E2E2E2E2E2E2E2E2E2E2E2E2E2E2E2E2E2E2E2E2E2E2E2E2E2E2E2E2E2E2E2E2E2E2E2E2E2E2E2E2E2E2E2E2E2E2E2E2E2E2E2E2E2E2E2E2E2E2E2E2E2E2E2E2E2E2E2E2E2E2E2E2E2E2E2E2E2E2E2E2E2F5E2E2E2E2E2E2E2E2E2E2E2E2E2E2E2E2E2E2E2E2E2E2E2
310
E2E2E2E2E2E2E2E2E2E2E2E2E2E2E2E2E2E2E2E2E2E2E2E2E2E2E2E2E2E2E2E2E2E2E2E2E2E2E2E2E2E2E2E2E2E2E2E2E2E2E2E2E2E2E2E2E2E2E2E2E2E2E2E2E2E2E2E2E2E2E2E2E2E2E2E2E2E2E2E2E2E2E2E2E2E2E2E2E2E2E2E2E2E2E2E2E2E2E2E2E2E2E2E2E2E2E2E2E2E2E2E2E2E2E2E2E2E2E2E2E2E2E2E2E2E2E2
310
E2E2E2E2E2E2E2E2E2E2E2E2E2E2E2E2E2E2E2E2E2E2E2E2E2E2E2E2E2F5E2E2E2E2E2E2E2E2E2E2E2E2E2E2E2E2E2E2E2E2E2E2E2E2E2E2E2E2E2E2E2E2E2E2E2E2E2E2E2E2E2E2E2E2E2E2E2E2E2E2E2E2E2E2E2E2E2E2E2E2E2E2E2E2E2E2E2E2E2E2E2E2E2E2E2E2E2E2E2E2E2E2E2E2E2E2E2E2E2E2E2E2E2E2E2E2E2
310
E2E2E2E2E2E2E2E2E2E2E2E2E2E2E2E2E2E2E2E2E2E2E2E2E2E2E2E2E2E2E2E2E2E2E2E2E2E2E2E2E2E2E2E2E2E2E2E2E2E2E2E2E2E2E2E2E2E2E2E2E2E2E2E2E2E2E2E2E2E2E2E2E2E2E2E2E2E2E2E2E2E2F5E2E2E2E2E2E2E2E2E2E2E2E2E2E2E2E2E2E2E2E2E2E2E2E2E2E2E2E2E2E2E2E2E2E2E2E2E2E2E2E2E2E2E2E2
310
E2E2E2E2E2E2E2E2E2E2E2E2E2E2E2E2E2E2E2E2E2E2E2E2E2E2E2E2E2E2E2E2E2E2E2E2E2E2E2E2E2E2E2E2E2E2E2E2E2E2E2E2E2E2E2E2E2E2E2E2E2E2E2E2E2E2E2E2E2E2E2E2E2E2E2E2E2E2E2E2E2E2E2E2E2E2E2E2E2E2E2E2E2E2E2E2E2E2E2E2E2E2E2E2E2E2E2E2E2E2E2E2E2E2E2E2E2E2E2E2E2E2E2E2E2E2E2
310
E2E2E2E2E2E2E2E2F5E2E2E2E2E2E2E2E2E2E2E2E2E2E2E2E2E2E2E2E2E2E2E2E2E2E2E2E2E2E2E2E2E2E2E2E2E2E2E2E2E2E2E2E2E2E2E2E2E2E2E2E2E2E2E2E2E2E2E2E2E2E2E2E2E2E2E2E2E2E2E2E2E2E2E2E2E2E2E2E2E2E2E2E2E2E2E2E2E2E2E2E2E2E2E2E2E2E2E2E2E2E2E2E2E2E2E2E2E2E2E2E2E2E2E2E2E2E2
310
E2E2E2E2E2E2E2E2E2E2E2E2E2E2E2E2E2E2E2E2E2E2E2E2E2E2E2E2E2E2E2E2E2E2E2E2E2E2E2E2E2E2E2E2E2E2E2E2E2E2E2E2E2E2E2E2E2E2E2E2E2F5E2E2E2E2E2E2E2E2E2E2E2E2E2E2E2E2E2E2E2E2E2E2E2E2E2E2E2E2E2E2E2E2E2E2E2E2E2E2E2E2E2E2E2E2E2E2E2E2E2E2E2E2E2E2E2E2E2E2E2E2E2E2E2E2E2
310
E2E2E2E2E2E2E2E2E2E2E2E2E2E2E2E2E2E2E2E2E2E2E2E2E2E2E2E2E2E2E2E2E2E2E2E2E2E2E2E2E2E2E2E2E2E2E2E2E2E2E2E2E2E2E2E2E2E2E2E2E2E2E2E2E2E2E2E2E2E2E2E2E2E2E2E2E2E2E2E2E2E2E2E2E2E2E2E2E2E2E2E2E2E2E2E2E2E2E2E2E2E2E2E2E2E2E2E2E2E2E2E2E2E2F5E2E2E2E2E2E2E2E2E2E2E2E2
310
E2E2E2E2E2E2E2E2E2E2E2E2E2E2E2E2E2E2E2E2E2E2E2E2E2E2E2E2E2E2E2E2E2E2E2E2E2E2E2E2E2E2E2E2E2E2E2E2E2E2E2E2E2E2E2E2E2E2E2E2E2E2E2E2E2E2E2E2E2E2E2E2E2E2E2E2E2E2E2E2E2E2E2E2E2E2E2E2E2E2E2E2E2E2E2E2E2E2E2E2E2E2E2E2E2E2E2E2E2E2E2E2E2E2E2E2E2E2E2E2E2E2E2E2E2E2E2
310
E2E2E2E2E2E2E2E2E2E2E2E2E2E2E2E2E2E2E2E2E2E2E2E2E2E2E2E2E2E2E2E2E2E2E2E2E2E2E2E2F5E2E2E2E2E2E2E2E2E2E2E2E2E2E2E2E2E2E2E2E2E2E2E2E2E2E2E2E2E2E2E2E2E2E2E2E2E2E2E2E2E2E2E2E2E2E2E2E2E2E2E2E2E2E2E2E2E2E2E2E2E2E2E2E2E2E2E2E2E2E2E2E2E2E2E2E2E2E2E2E2E2E2E2E2E2E2
310
E2E2E2E2E2E2E2E2E2E2E2E2E2E2E2E2E2E2E2E2E2E2E2E2E2E2E2E2E2E2E2E2E2E2E2E2E2E2E2E2E2E2E2E2E2E2E2E2E2E2E2E2E2E2E2E2E2E2E2E2E2E2E2E2E2E2E2E2E2E2E2E2E2E2E2E2E2E2E2E2E2E2E2E2E2E2E2E2E2E2E2E2E2F5E2E2E2E2E2E2E2E2E2E2E2E2E2E2E2E2E2E2E2E2E2E2E2E2E2E2E2E2E2E2E2E2E2
310
E2E2E2E2E2E2E2E2E2E2E2E2E2E2E2E2E2E2E2E2E2E2E2E2E2E2E2E2E2E2E2E2E2E2E2E2E2E2E2E2E2E2E2E2E2E2E2E2E2E2E2E2E2E2E2E2E2E2E2E2E2E2E2E2E2E2E2E2E2E2E2E2E2E2E2E2E2E2E2E2E2E2E2E2E2E2E2E2E2E2E2E2E2E2E2E2E2E2E2E2E2E2E2E2E2E2E2E2E2E2E2E2E2E2E2E2E2E2E2E2E2E2E2E2E2E2E2
310
E2E2E2E2E2E2E2E2E2E2E2E2E2E2E2E2E2E2E2E2E2E2E2E2E2E2E2E2E2E2E2E2E2E2E2E2E2E2E2E2E2E2E2E2E2E2E2E2E2E2E2E2E2E2E2E2E2E2E2E2E2E2E2E2E2E2E2E2E2E2E2E2E2E2E2E2E2E2E2E2E2E2E2E2E2E2E2E2E2E2E2E2E2E2E2E2E2E2E2E2E2E2E2E2E2E2E2E2E2E2E2E2E2E2E2E2E2E2E2E2E2E2E2E2E2E2E2
310
E2E2E2E2E2E2E2E2E2E2E2E2E2E2E2E2E2E2E2E2E2E2E2E2E2E2E2E2E2E2E2E2E2E2E2E2E2E2E2E2E2E2E2E2E2E2E2E2E2E2E2E2E2E2E2E2E2E2E2E2E2E2E2E2E2E2E2E2E2E2E2E2E2E2E2E2E2E2E2E2E2E2E2E2E2E2E2E2E2E2E2E2E2E2E2E2E2E2E2E2E2E2E2E2E2E2E2E2E2E2E2E2E2E2E2E2E2E2E2E2E2E2E2E2E2E2E2
310
E2E2E2E2E2E2E2E2E2E2E2E2E2E2E2E2E2E2E2E2E2E2E2E2E2E2E2E2E2E2E2E2E2E2E2E2E2E2E2E2E2E2E2E2E2E2E2E2E2E2E2E2E2E2E2E2E2E2E2E2E2E2E2E2E2E2E2E2E2E2E2E2E2E2E2E2E2E2E2E2E2E2E2E2E2E2E2E2E2E2E2E2E2E2E2E2E2E2E2E2E2E2E2E2E2E2E2E2E2E2E2E2E2E2E2E2E2E2E2E2E2E2E2E2E2E2E2
310
E2E2E2E2E2E2E2E2E2E2E2E2E2E2E2E2E2E2E2E2E2E2E2E2E2E2E2E2E2E2E2E2E2E2E2E2E2E2E2E2E2E2E2E2E2E2E2E2E2E2E2E2E2E2E2E2E2E2E2E2E2E2E2E2E2E2E2E2E2E2E2E2E2E2E2E2E2E2E2E2E2E2E2E2E2E2E2E2E2E2E2E2E2E2E2E2E2E2E2E2E2E2E2E2E2E2E2E2E2E2E2E2E2E2E2E2E2E2E2E2E2E2E2E2E2E2E2
310
E2E2E2E2E2E2E2E2E2E2E2E2E2E2E2E2E2E2E2E2E2E2E2E2E2E2E2E2E2E2E2E2E2E2E2E2E2E2E2E2E2E2E2E2E2E2E2E2E2E2E2E2E2E2E2E2E2E2E2E2E2E2E2E2E2E2E2E2E2E2E2E2E2E2E2E2E2E2E2E2E2E2E2E2E2E2E2E2E2E2E2E2E2E2E2E2E2E2E2E2E2E2E2E2E2E2E2E2E2E2E2E2E2E2E2E2E2E2E2E2E2E2E2E2E2E2E2
310
E2E2E2E2E2E2E2E2E2E2E2E2E2E2E2E2E2E2E2E2E2E2E2E2E2E2E2E2E2E2E2E2E2E2E2E2E2E2E2E2E2E2E2E2E2E2E2E2E2E2E2E2E2E2E2E2E2E2E2E2E2E2E2E2E2E2E2E2E2E2E2E2E2E2E2E2E2E2E2E2E2E2E2E2E2E2E2E2E2E2E2E2E2E2E2E2E2E2E2E2E2E2E2E2E2E2E2E2E2E2E2E2E2E2E2E2E2E2E2E2E2E2E2E2E2E2E2
310
E2E2E2E2E2E2E2E2E2E2E2E2E2E2E2E2E2E2E2E2E2E2E2E2E2E2E2E2E2E2E2E2E2E2E2E2E2E2E2E2E2E2E2E2E2E2E2E2E2E2E2E2E2E2E2E2E2E2E2E2E2E2E2E2E2E2E2E2E2E2E2E2E2E2E2E2E2E2E2E2E2E2E2E2E2E2E2E2E2E2E2E2E2E2E2E2E2E2E2E2E2E2E2E2E2E2E2E2E2E2E2E2E2E2E2E2E2E2E2E2E2E2E2E2E2E2E2
310
E2E2E2E2E2E2E2E2E2E2E2E2E2E2E2E2E2E2E2E2E2E2E2E2E2E2E2E2E2E2E2E2E2E2E2E2E2E2E2E2E2E2E2E2E2E2E2E2E2E2E2E2E2E2E2E2E2E2E2E2E2E2E2E2E2E2E2E2E2E2E2E2E2E2E2E2E2E2E2E2E2E2E2E2E2E2E2E2E2E2E2E2E2E2E2E2E2E2E2E2E2E2E2E2E2E2E2E2E2E2E2E2E2E2E2E2E2E2E2E2E2E2E2E2E2E2E2
310
E2E2E2E2E2E2E2E2E2E2E2E2E2E2E2E2E2E2E2E2E2E2E2E2E2E2E2E2E2E2E2E2E2E2E2E2E2E2E2E2E2E2E2E2E2E2E2E2E2E2E2E2E2E2E2E2E2E2E2E2E2E2E2E2E2E2E2E2E2E2E2E2E2E2E2E2E2E2E2E2E2E2E2E2E2E2E2E2E2E2E2E2E2E2E2E2E2E2E2E2E2E2E2E2E2E2E2E2E2E2E2E2E2E2E2E2E2E2E2E2E2E2E2E2E2E2E2
310
E2E2E2E2E2E2E2E2E2E2E2E2E2E2E2E2E2E2E2E2E2E2E2E2E2E2E2E2E2E2E2E2E2E2E2E2E2E2E2E2E2E2E2E2E2E2E2E2E2E2E2E2E2E2E2E2E2E2E2E2E2E2E2E2E2E2E2E2E2E2E2E2E2E2E2E2E2E2E2E2E2E2E2E2E2E2E2E2E2E2E2E2E2E2E2E2E2E2E2E2E2E2E2E2E2E2E2E2E2E2E2E2E2E2E2E2E2E2E2E2E2E2E2E2E2E2E2
310
E2E2E2E2E2E2E2E2E2E2E2E2E2E2E2E2E2E2E2E2E2E2E2E2E2E2E2E2E2E2E2E2E2E2E2E2E2E2E2E2E2E2E2E2E2E2E2E2E2E2E2E2E2E2E2E2E2E2E2E2E2E2E2E2E2E2E2E2E2E2E2E2E2E2E2E2E2E2E2E2E2E2E2E2E2E2E2E2E2E2E2E2E2E2E2E2E2E2E2E2E2E2E2E2E2E2E2E2E2E2E2E2E2E2E2E2E2E2E2E2E2E2E2E2E2E2E2
310
E2E2E2E2E2E2E2E2E2E2E2E2E2E2E2E2E2E2E2E2E2E2E2E2E2E2E2E2E2E2E2E2E2E2E2E2E2E2E2E2E2E2E2E2E2E2E2E2E2E2E2E2E2E2E2E2E2E2E2E2E2E2E2E2E2E2E2E2E2E2E2E2E2E2E2E2E2E2E2E2E2E2E2E2E2E2E2E2E2E2E2E2E2E2E2E2E2E2E2E2E2E2E2E2E2E2E2E2E2E2E2E2E2E2E2E2E2E2E2E2E2E2E2E2E2E2E2
310
E2E2E2E2E2E2E2E2E2E2E2E2E2E2E2E2E2E2E2E2E2E2E2E2E2E2E2E2E2E2E2E2E2E2E2E2E2E2E2E2E2E2E2E2E2E2E2E2E2E2E2E2E2E2E2E2E2E2E2E2E2E2E2E2E2E2E2E2E2E2E2E2E2E2E2E2E2E2E2E2E2E2E2E2E2E2E2E2E2E2E2E2E2E2E2E2E2E2E2E2E2E2E2E2E2E2E2E2E2E2E2E2E2E2E2F5E2E2E2E2E2E2E2E2E2E2E2
310
E2E2E2E2E2E2E2E2E2E2E2E2E2E2E2E2E2E2E2E2E2E2E2E2E2E2E2E2E2E2E2E2E2E2E2E2E2E2E2E2E2E2E2E2E2E2E2E2E2E2E2E2E2E2E2E2E2E2E2E2E2E2E2E2E2E2E2E2E2E2E2E2E2E2E2E2E2E2E2E2E2E2E2E2E2E2E2E2E2E2E2E2E2E2E2E2E2E2E2E2E2E2E2E2E2E2E2E2E2E2E2E2E2E2E2E2E2E2E2E2E2E2E2E2E2E2E2
310
E2E2E2E2E2E2E2E2E2E2E2E2E2E2E2E2E2E2E2E2E2E2E2E2E2E2E2E2E2E2E2E2E2E2E2E2E2E2E2E2E2F5E2E2E2E2E2E2E2E2E2E2E2E2E2E2E2E2E2E2E2E2E2E2E2E2E2E2E2E2E2E2E2E2E2E2E2E2E2E2E2E2E2E2E2E2E2E2E2E2E2E2E2E2E2E2E2E2E2E2E2E2E2E2E2E2E2E2E2E2E2E2E2E2E2E2E2E2E2E2E2E2E2E2E2E2E2
310
E2E2E2E2E2E2E2E2E2E2E2E2E2E2E2E2E2E2E2E2E2E2E2E2E2E2E2E2E2E2E2E2E2E2E2E2E2E2E2E2E2E2E2E2E2E2E2E2E2E2E2E2E2E2E2E2E2E2E2E2E2E2E2E2E2E2E2E2E2E2E2E2E2E2E2E2E2E2E2E2E2E2E2E2E2E2E2E2E2E2E2E2E2E2F5E2E2E2E2E2E2E2E2E2E2E2E2E2E2E2E2E2E2E2E2E2E2E2E2E2E2E2E2E2E2E2E2
310
E2E2E2E2E2E2E2E2E2E2E2E2E2E2E2E2E2E2E2E2E2E2E2E2E2E2E2E2E2E2E2E2E2E2E2E2E2E2E2E2E2E2E2E2E2E2E2E2E2E2E2E2E2E2E2E2E2E2E2E2E2E2E2E2E2E2E2E2E2E2E2E2E2E2E2E2E2E2E2E2E2E2E2E2E2E2E2E2E2E2E2E2E2E2E2E2E2E2E2E2E2E2E2E2E2E2E2E2E2E2E2E2E2E2E2E2E2E2E2E2E2E2E2E2E2E2E2
310
E2E2E2E2E2E2E2E2E2E2E2E2E2E2E2E2E2E2E2E2F5E2E2E2E2E2E2E2E2E2E2E2E2E2E2E2E2E2E2E2E2E2E2E2E2E2E2E2E2E2E2E2E2E2E2E2E2E2E2E2E2E2E2E2E2E2E2E2E2E2E2E2E2E2E2E2E2E2E2E2E2E2E2E2E2E2E2E2E2E2E2E2E2E2E2E2E2E2E2E2E2E2E2E2E2E2E2E2E2E2E2E2E2E2E2E2E2E2E2E2E2E2E2E2E2E2E2
310
E2E2E2E2E2E2E2E2E2E2E2E2E2E2E2E2E2E2E2E2E2E2E2E2E2E2E2E2E2E2E2E2E2E2E2E2E2E2E2E2E2E2E2E2E2E2E2E2E2E2E2E2E2E2E2E2E2E2E2E2E2E2E2E2E2E2E2E2E2E2E2E2E2F5E2E2E2E2E2E2E2E2E2E2E2E2E2E2E2E2E2E2E2E2E2E2E2E2E2E2E2E2E2E2E2E2E2E2E2E2E2E2E2E2E2E2E2E2E2E2E2E2E2E2E2E2E2
310
E2E2E2E2E2E2E2E2E2E2E2E2E2E2E2E2E2E2E2E2E2E2E2E2E2E2E2E2E2E2E2E2E2E2E2E2E2E2E2E2E2E2E2E2E2E2E2E2E2E2E2E2E2E2E2E2E2E2E2E2E2E2E2E2E2E2E2E2E2E2E2E2E2E2E2E2E2E2E2E2E2E2E2E2E2E2E2E2E2E2E2E2E2E2E2E2E2E2E2E2E2E2E2E2E2E2E2E2E2E2E2E2E2E2E2E2E2E2E2E2E2E2E2E2E2E2F5
310
E2E2E2E2E2E2E2E2E2E2E2E2E2E2E2E2E2E2E2E2E2E2E2E2E2E2E2E2E2E2E2E2E2E2E2E2E2E2E2E2E2E2E2E2E2E2E2E2E2E2E2E2E2E2E2E2E2E2E2E2E2E2E2E2E2E2E2E2E2E2E2E2E2E2E2E2E2E2E2E2E2E2E2E2E2E2E2E2E2E2E2E2E2E2E2E2E2E2E2E2E2E2E2E2E2E2E2E2E2E2E2E2E2E2E2E2E2E2E2E2E2E2E2E2E2E2E2
310
E2E2E2E2E2E2E2E2E2E2E2E2E2E2E2E2E2E2E2E2E2E2E2E2E2E2E2E2E2E2E2E2E2E2E2E2E2E2E2E2E2E2E2E2E2E2E2E2E2E2E2E2F5E2E2E2E2E2E2E2E2E2E2E2E2E2E2E2E2E2E2E2E2E2E2E2E2E2E2E2E2E2E2E2E2E2E2E2E2E2E2E2E2E2E2E2E2E2E2E2E2E2E2E2E2E2E2E2E2E2E2E2E2E2E2E2E2E2E2E2E2E2E2E2E2E2E2
310
E2E2E2E2E2E2E2E2E2E2E2E2E2E2E2E2E2E2E2E2E2E2E2E2E2E2E2E2E2E2E2E2E2E2E2E2E2E2E2E2E2E2E2E2E2E2E2E2E2E2E2E2E2E2E2E2E2E2E2E2E2E2E2E2E2E2E2E2E2E2E2E2E2E2E2E2E2E2E2E2E2E2E2E2E2E2E2E2E2E2E2E2E2E2E2E2E2E2E2E2E2E2E2E2E2F5E2E2E2E2E2E2E2E2E2E2E2E2E2E2E2E2E2E2E2E2E2
310
E2E2E2E2E2E2E2E2E2E2E2E2E2E2E2E2E2E2E2E2E2E2E2E2E2E2E2E2E2E2E2E2E2E2E2E2E2E2E2E2E2E2E2E2E2E2E2E2E2E2E2E2E2E2E2E2E2E2E2E2E2E2E2E2E2E2E2E2E2E2E2E2E2E2E2E2E2E2E2E2E2E2E2E2E2E2E2E2E2E2E2E2E2E2E2E2E2E2E2E2E2E2E2E2E2E2E2E2E2E2E2E2E2E2E2E2E2E2E2E2E2E2E2E2E2E2E2
310
E2E2E2E2E2E2E2E2E2E2E2E2E2E2E2E2E2E2E2E2E2E2E2E2E2E2E2E2E2E2E2F5E2E2E2E2E2E2E2E2E2E2E2E2E2E2E2E2E2E2E2E2E2E2E2E2E2E2E2E2E2E2E2E2E2E2E2E2E2E2E2E2E2E2E2E2E2E2E2E2E2E2E2E2E2E2E2E2E2E2E2E2E2E2E2E2E2E2E2E2E2E2E2E2E2E2E2E2E2E2E2E2E2E2E2E2E2E2E2E2E2E2E2E2E2E2E2
310
E2E2E2E2E2E2E2E2E2E2E2E2E2E2E2E2E2E2E2E2E2E2E2E2E2E2E2E2E2E2E2E2E2E2E2E2E2E2E2E2E2E2E2E2E2E2E2E2E2E2E2E2E2E2E2E2E2E2E2E2E2E2E2E2E2E2E2E2E2E2E2E2E2E2E2E2E2E2E2E2E2E2E2E2F5E2E2E2E2E2E2E2E2E2E2E2E2E2E2E2E2E2E2E2E2E2E2E2E2E2E2E2E2E2E2E2E2E2E2E2E2E2E2E2E2E2E2
310
E2E2E2E2E2E2E2E2E2E2E2E2E2E2E2E2E2E2E2E2E2E2E2E2E2E2E2E2E2E2E2E2E2E2E2E2E2E2E2E2E2E2E2E2E2E2E2E2E2E2E2E2E2E2E2E2E2E2E2E2E2E2E2E2E2E2E2E2E2E2E2E2E2E2E2E2E2E2E2E2E2E2E2E2E2E2E2E2E2E2E2E2E2E2E2E2E2E2E2E2E2E2E2E2E2E2E2E2E2E2E2E2E2E2E2E2E2E2E2E2E2E2E2E2E2E2E2
310
E2E2E2E2E2E2E2E2E2E2F5E2E2E2E2E2E2E2E2E2E2E2E2E2E2E2E2E2E2E2E2E2E2E2E2E2E2E2E2E2E2E2E2E2E2E2E2E2E2E2E2E2E2E2E2E2E2E2E2E2E2E2E2E2E2E2E2E2E2E2E2E2E2E2E2E2E2E2E2E2E2E2E2E2E2E2E2E2E2E2E2E2E2E2E2E2E2E2E2E2E2E2E2E2E2E2E2E2E2E2E2E2E2E2E2E2E2E2E2E2E2E2E2E2E2E2E2
310
E2E2E2E2E2E2E2E2E2E2E2E2E2E2E2E2E2E2E2E2E2E2E2E2E2E2E2E2E2E2E2E2E2E2E2E2E2E2E2E2E2E2E2E2E2E2E2E2E2E2E2E2E2E2E2E2E2E2E2E2E2E2E2F5E2E2E2E2E2E2E2E2E2E2E2E2E2E2E2E2E2E2E2E2E2E2E2E2E2E2E2E2E2E2E2E2E2E2E2E2E2E2E2E2E2E2E2E2E2E2E2E2E2E2E2E2E2E2E2E2E2E2E2E2E2E2E2
310
E2E2E2E2E2E2E2E2E2E2E2E2E2E2E2E2E2E2E2E2E2E2E2E2E2E2E2E2E2E2E2E2E2E2E2E2E2E2E2E2E2E2E2E2E2E2E2E2E2E2E2E2E2E2E2E2E2E2E2E2E2E2E2E2E2E2E2E2E2E2E2E2E2E2E2E2E2E2E2E2E2E2E2E2E2E2E2E2E2E2E2E2E2E2E2E2E2E2E2E2E2E2E2E2E2E2E2E2E2E2E2E2E2E2E2E2F5E2E2E2E2E2E2E2E2E2E2
310
E2E2E2E2E2E2E2E2E2E2E2E2E2E2E2E2E2E2E2E2E2E2E2E2E2E2E2E2E2E2E2E2E2E2E2E2E2E2E2E2E2E2E2E2E2E2E2E2E2E2E2E2E2E2E2E2E2E2E2E2E2E2E2E2E2E2E2E2E2E2E2E2E2E2E2E2E2E2E2E2E2E2E2E2E2E2E2E2E2E2E2E2E2E2E2E2E2E2E2E2E2E2E2E2E2E2E2E2E2E2E2E2E2E2E2E2E2E2E2E2E2E2E2E2E2E2E2
310
E2E2E2E2E2E2E2E2E2E2E2E2E2E2E2E2E2E2E2E2E2E2E2E2E2E2E2E2E2E2E2E2E2E2E2E2E2E2E2E2E2E2F5E2E2E2E2E2E2E2E2E2E2E2E2E2E2E2E2E2E2E2E2E2E2E2E2E2E2E2E2E2E2E2E2E2E2E2E2E2E2E2E2E2E2E2E2E2E2E2E2E2E2E2E2E2E2E2E2E2E2E2E2E2E2E2E2E2E2E2E2E2E2E2E2E2E2E2E2E2E2E2E2E2E2E2E2
310
E2E2E2E2E2E2E2E2E2E2E2E2E2E2E2E2E2E2E2E2E2E2E2E2E2E2E2E2E2E2E2E2E2E2E2E2E2E2E2E2E2E2E2E2E2E2E2E2E2E2E2E2E2E2E2E2E2E2E2E2E2E2E2E2E2E2E2E2E2E2E2E2E2E2E2E2E2E2E2E2E2E2E2E2E2E2E2E2E2E2E2E2E2E2E2F5E2E2E2E2E2E2E2E2E2E2E2E2E2E2E2E2E2E2E2E2E2E2E2E2E2E2E2E2E2E2E2
310
E2E2E2E2E2E2E2E2E2E2E2E2E2E2E2E2E2E2E2E2E2E2E2E2E2E2E2E2E2E2E2E2E2E2E2E2E2E2E2E2E2E2E2E2E2E2E2E2E2E2E2E2E2E2E2E2E2E2E2E2E2E2E2E2E2E2E2E2E2E2E2E2E2E2E2E2E2E2E2E2E2E2E2E2E2E2E2E2E2E2E2E2E2E2E2E2E2E2E2E2E2E2E2E2E2E2E2E2E2E2E2E2E2E2E2E2E2E2E2E2E2E2E2E2E2E2E2
310
E2E2E2E2E2E2E2E2E2E2E2E2E2E2E2E2E2E2E2E2E2F5E2E2E2E2E2E2E2E2E2E2E2E2E2E2E2E2E2E2E2E2E2E2E2E2E2E2E2E2E2E2E2E2E2E2E2E2E2E2E2E2E2E2E2E2E2E2E2E2E2E2E2E2E2E2E2E2E2E2E2E2E2E2E2E2E2E2E2E2E2E2E2E2E2E2E2E2E2E2E2E2E2E2E2E2E2E2E2E2E2E2E2E2E2E2E2E2E2E2E2E2E2E2E2E2E2
310
E2E2E2E2E2E2E2E2E2E2E2E2E2E2E2E2E2E2E2E2E2E2E2E2E2E2E2E2E2E2E2E2E2E2E2E2E2E2E2E2E2E2E2E2E2E2E2E2E2E2E2E2E2E2E2E2E2E2E2E2E2E2E2E2E2E2E2E2E2E2E2E2E2E2E2E2E2E2E2E2E2E2E2E2E2E2E2E2E2E2E2E2E2E2E2E2E2E2E2E2E2E2E2E2E2E2E2E2E2E2E2E2E2E2E2E2E2E2E2E2E2E2E2E2E2E2E2
310
E2E2E2E2E2E2E2E2E2E2E2E2E2E2E2E2E2E2E2E2E2E2E2E2E2E2E2E2E2E2E2E2E2E2E2E2E2E2E2E2E2E2E2E2E2E2E2E2E2E2E2E2E2E2E2E2E2E2E2E2E2E2E2E2E2E2E2E2E2E2E2E2E2E2E2E2E2E2E2E2E2E2E2E2E2E2E2E2E2E2E2E2E2E2E2E2E2E2E2E2E2E2E2E2E2E2E2E2E2E2E2E2E2E2E2E2E2E2E2E2E2E2E2E2E2E2E2
310
E2E2E2E2E2E2E2E2E2E2E2E2E2E2E2E2E2E2E2E2E2E2E2E2E2E2E2E2E2E2E2E2E2E2E2E2E2E2E2E2E2E2E2E2E2E2E2E2E2E2E2E2E2E2E2E2E2E2E2E2E2E2E2E2E2E2E2E2E2E2E2E2E2E2E2E2E2E2E2E2E2E2E2E2E2E2E2E2E2E2E2E2E2E2E2E2E2E2E2E2E2E2E2E2E2E2E2E2E2E2E2E2E2E2E2E2E2E2E2E2E2E2E2E2E2E2E2
310
E2E2E2E2E2E2E2E2E2E2E2E2E2E2E2E2E2E2E2E2E2E2E2E2E2E2E2E2E2E2E2E2E2E2E2E2E2E2E2E2E2E2E2E2E2E2E2E2E2E2E2E2E2E2E2E2E2E2E2E2E2E2E2E2E2E2E2E2E2E2E2E2E2E2E2E2E2E2E2E2E2E2E2E2E2E2E2E2E2E2E2E2E2E2E2E2E2E2E2E2E2E2E2E2E2E2E2E2E2E2E2E2E2E2E2E2E2E2E2E2E2E2E2E2E2E2E2
310
E2E2E2E2E2E2E2E2E2E2E2E2E2E2E2E2E2E2E2E2E2E2E2E2E2E2E2E2E2E2E2E2E2E2E2E2E2E2E2E2E2E2E2E2E2E2E2E2E2E2E2E2E2E2E2E2E2E2E2E2E2E2E2E2E2E2E2E2E2E2E2E2E2E2E2E2E2E2E2E2E2E2E2E2E2E2E2E2E2E2E2E2E2E2E2E2E2E2E2E2E2E2E2E2E2E2E2E2E2E2E2E2E2E2E2E2E2E2E2E2E2E2E2E2E2E2E2
310
E2E2E2E2E2E2E2E2E2E2E2E2E2E2E2E2E2E2E2E2E2E2E2E2E2E2E2E2E2E2E2E2E2E2E2E2E2E2E2E2E2E2E2E2E2E2E2E2E2E2E2E2E2E2E2E2E2E2E2E2E2E2E2E2E2E2E2E2E2E2E2E2E2E2E2E2E2E2E2E2E2E2E2E2E2E2E2E2E2E2E2E2E2E2E2E2E2E2E2E2E2E2E2E2E2E2E2E2E2E2E2E2E2E2E2E2E2E2E2E2E2E2E2E2E2E2E2
310
E2E2E2E2E2E2E2E2E2E2E2E2E2E2E2E2E2E2E2E2E2E2E2E2E2E2E2E2E2E2E2E2E2E2E2E2E2E2E2E2E2E2E2E2E2E2E2E2E2E2E2E2E2E2E2E2E2E2E2E2E2E2E2E2E2E2E2E2E2E2E2E2E2E2E2E2E2E2E2E2E2E2E2E2E2E2E2E2E2E2E2E2E2E2E2E2E2E2E2E2E2E2E2E2E2E2E2E2E2E2E2E2E2E2E2E2E2E2E2E2E2E2E2E2E2E2E2
310
E2E2E2E2E2E2E2E2E2E2E2E2E2E2E2E2E2E2E2E2E2E2E2E2E2E2E2E2E2E2E2E2E2E2E2E2E2E2E2E2E2E2E2E2E2E2E2E2E2E2E2E2E2E2E2E2E2E2E2E2E2E2E2E2E2E2E2E2E2E2E2E2E2E2E2E2E2E2E2E2E2E2E2E2E2E2E2E2E2E2E2E2E2E2E2E2E2E2E2E2E2E2E2E2E2E2E2E2E2E2E2E2E2E2E2E2E2E2E2E2E2E2E2E2E2E2E2
310
E2E2E2E2E2E2E2E2E2E2E2E2E2E2E2E2E2E2E2E2E2E2E2E2E2E2E2E2E2E2E2E2E2E2E2E2E2E2E2E2E2E2E2E2E2E2E2E2E2E2E2E2E2E2E2E2E2E2E2E2E2E2E2E2E2E2E2E2E2E2E2E2E2E2E2E2E2E2E2E2E2E2E2E2E2E2E2E2E2E2E2E2E2E2E2E2E2E2E2E2E2E2E2E2E2E2E2E2E2E2E2E2E2E2E2E2E2E2E2E2E2E2E2E2E2E2E2
310
E2E2E2E2E2E2E2E2E2E2E2E2E2E2E2E2E2E2E2E2E2E2E2E2E2E2E2E2E2E2E2E2E2E2E2E2E2E2E2E2E2E2E2E2E2E2E2E2E2E2E2E2E2E2E2E2E2E2E2E2E2E2E2E2E2E2E2E2E2E2E2E2E2E2E2E2E2E2E2E2E2E2E2E2E2E2E2E2E2E2E2E2E2E2E2E2E2E2E2E2E2E2E2E2E2E2E2E2E2E2E2E2E2E2E2E2E2E2E2E2E2E2E2E2E2E2E2
310
E2E2E2E2E2E2E2E2E2E2E2E2E2E2E2E2E2E2E2E2E2E2E2E2E2E2E2E2E2E2E2E2E2E2E2E2E2E2E2E2E2E2E2E2E2E2E2E2E2E2E2E2E2E2E2E2E2E2E2E2E2E2E2E2E2E2E2E2E2E2E2E2E2E2E2E2E2E2E2E2E2E2E2E2E2E2E2E2E2E2E2E2E2E2E2E2E2E2E2E2E2E2E2E2E2E2E2E2E2E2E2E2E2E2E2E2E2E2E2E2E2E2E2E2E2E2E2
310
E2E2E2E2E2E2E2E2E2E2E2E2E2E2E2E2E2E2E2E2E2E2E2E2E2E2E2E2E2E2E2E2E2E2E2E2E2E2E2E2E2E2E2E2E2E2E2E2E2E2E2E2E2E2E2E2E2E2E2E2E2E2E2E2E2E2E2E2E2E2E2E2E2E2E2E2E2E2E2E2E2E2E2E2E2E2E2E2E2E2E2E2E2E2E2E2E2E2E2E2E2E2E2E2E2E2E2E2E2E2E2E2E2E2E2E2E2E2E2E2E2E2E2E2E2E2E2
310
E2E2E2E2E2E2E2E2E2E2E2E2E2E2E2E2E2E2E2E2E2E2E2E2E2E2E2E2E2E2E2E2E2E2E2E2E2E2E2E2E2E2E2E2E2E2E2E2E2E2E2E2E2E2E2E2E2E2E2E2E2E2E2E2E2E2E2E2E2E2E2E2E2E2E2E2E2E2E2E2E2E2E2E2E2E2E2E2E2E2E2E2E2E2E2E2E2E2E2E2E2E2E2E2E2E2E2E2E2E2E2E2E2E2E2E2E2E2E2E2E2E2E2E2E2E2E2
310
E2E2E2E2E2E2E2E2E2E2E2E2E2E2E2E2E2E2E2E2E2E2E2E2E2E2E2E2E2E2E2E2E2E2E2E2E2E2E2E2E2E2E2F5E2E2E2E2E2E2E2E2E2E2E2E2E2E2E2E2E2E2E2E2E2E2E2E2E2E2E2E2E2E2E2E2E2E2E2E2E2E2E2E2E2E2E2E2E2E2E2E2E2E2E2E2E2E2E2E2E2E2E2E2E2E2E2E2E2E2E2E2E2E2E2E2E2E2E2E2E2E2E2E2E2E2E2
310
E2E2E2E2E2E2E2E2E2E2E2E2E2E2E2E2E2E2E2E2E2E2E2E2E2E2E2E2E2E2E2E2E2E2E2E2E2E2E2E2E2E2E2E2E2E2E2E2E2E2E2E2E2E2E2E2E2E2E2E2E2E2E2E2E2E2E2E2E2E2E2E2E2E2E2E2E2E2E2E2E2E2E2E2E2E2E2E2E2E2E2E2E2E2E2E2F5E2E2E2E2E2E2E2E2E2E2E2E2E2E2E2E2E2E2E2E2E2E2E2E2E2E2E2E2E2E2
310
E2E2E2E2E2E2E2E2E2E2E2E2E2E2E2E2E2E2E2E2E2E2E2E2E2E2E2E2E2E2E2E2E2E2E2E2E2E2E2E2E2E2E2E2E2E2E2E2E2E2E2E2E2E2E2E2E2E2E2E2E2E2E2E2E2E2E2E2E2E2E2E2E2E2E2E2E2E2E2E2E2E2E2E2E2E2E2E2E2E2E2E2E2E2E2E2E2E2E2E2E2E2E2E2E2E2E2E2E2E2E2E2E2E2E2E2E2E2E2E2E2E2E2E2E2E2E2
310
E2E2E2E2E2E2E2E2E2E2E2E2E2E2E2E2E2E2E2E2E2E2F5E2E2E2E2E2E2E2E2E2E2E2E2E2E2E2E2E2E2E2E2E2E2E2E2E2E2E2E2E2E2E2E2E2E2E2E2E2E2E2E2E2E2E2E2E2E2E2E2E2E2E2E2E2E2E2E2E2E2E2E2E2E2E2E2E2E2E2E2E2E2E2E2E2E2E2E2E2E2E2E2E2E2E2E2E2E2E2E2E2E2E2E2E2E2E2E2E2E2E2E2E2E2E2E2
310
E2E2E2E2E2E2E2E2E2E2E2E2E2E2E2E2E2E2E2E2E2E2E2E2E2E2E2E2E2E2E2E2E2E2E2E2E2E2E2E2E2E2E2E2E2E2E2E2E2E2E2E2E2E2E2E2E2E2E2E2E2E2E2E2E2E2E2E2E2E2E2E2E2E2E2F5E2E2E2E2E2E2E2E2E2E2E2E2E2E2E2E2E2E2E2E2E2E2E2E2E2E2E2E2E2E2E2E2E2E2E2E2E2E2E2E2E2E2E2E2E2E2E2E2E2E2E2
310
E2E2E2E2E2E2E2E2E2E2E2E2E2E2E2E2E2E2E2E2E2E2E2E2E2E2E2E2E2E2E2E2E2E2E2E2E2E2E2E2E2E2E2E2E2E2E2E2E2E2E2E2E2E2E2E2E2E2E2E2E2E2E2E2E2E2E2E2E2E2E2E2E2E2E2E2E2E2E2E2E2E2E2E2E2E2E2E2E2E2E2E2E2E2E2E2E2E2E2E2E2E2E2E2E2E2E2E2E2E2E2E2E2E2E2E2E2E2E2E2E2E2E2E2E2E2E2
310
E2F5E2E2E2E2E2E2E2E2E2E2E2E2E2E2E2E2E2E2E2E2E2E2E2E2E2E2E2E2E2E2E2E2E2E2E2E2E2E2E2E2E2E2E2E2E2E2E2E2E2E2E2E2E2E2E2E2E2E2E2E2E2E2E2E2E2E2E2E2E2E2E2E2E2E2E2E2E2E2E2E2E2E2E2E2E2E2E2E2E2E2E2E2E2E2E2E2E2E2E2E2E2E2E2E2E2E2E2E2E2E2E2E2E2E2E2E2E2E2E2E2E2E2E2E2E2
310
E2E2E2E2E2E2E2E2E2E2E2E2E2E2E2E2E2E2E2E2E2E2E2E2E2E2E2E2E2E2E2E2E2E2E2E2E2E2E2E2E2E2E2E2E2E2E2E2E2E2E2E2E2E2F5E2E2E2E2E2E2E2E2E2E2E2E2E2E2E2E2E2E2E2E2E2E2E2E2E2E2E2E2E2E2E2E2E2E2E2E2E2E2E2E2E2E2E2E2E2E2E2E2E2E2E2E2E2E2E2E2E2E2E2E2E2E2E2E2E2E2E2E2E2E2E2E2
310
E2E2E2E2E2E2E2E2E2E2E2E2E2E2E2E2E2E2E2E2E2E2E2E2E2E2E2E2E2E2E2E2E2E2E2E2E2E2E2E2E2E2E2E2E2E2E2E2E2E2E2E2E2E2E2E2E2E2E2E2E2E2E2E2E2E2E2E2E2E2E2E2E2E2E2E2E2E2E2E2E2E2E2E2E2E2E2E2E2E2E2E2E2E2E2E2E2E2E2E2E2E2E2E2E2E2E2F5E2E2E2E2E2E2E2E2E2E2E2E2E2E2E2E2E2E2E2
310
E2E2E2E2E2E2E2E2E2E2E2E2E2E2E2E2E2E2E2E2E2E2E2E2E2E2E2E2E2E2E2E2E2E2E2E2E2E2E2E2E2E2E2E2E2E2E2E2E2E2E2E2E2E2E2E2E2E2E2E2E2E2E2E2E2E2E2E2E2E2E2E2E2E2E2E2E2E2E2E2E2E2E2E2E2E2E2E2E2E2E2E2E2E2E2E2E2E2E2E2E2E2E2E2E2E2E2E2E2E2E2E2E2E2E2E2E2E2E2E2E2E2E2E2E2E2E2
310
E2E2E2E2E2E2E2E2E2E2E2E2E2E2E2E2E2E2E2E2E2E2E2E2E2E2E2E2E2E2E2E2E2F5E2E2E2E2E2E2E2E2E2E2E2E2E2E2E2E2E2E2E2E2E2E2E2E2E2E2E2E2E2E2E2E2E2E2E2E2E2E2E2E2E2E2E2E2E2E2E2E2E2E2E2E2E2E2E2E2E2E2E2E2E2E2E2E2E2E2E2E2E2E2E2E2E2E2E2E2E2E2E2E2E2E2E2E2E2E2E2E2E2E2E2E2E2
310
E2E2E2E2E2E2E2E2E2E2E2E2E2E2E2E2E2E2E2E2E2E2E2E2E2E2E2E2E2E2E2E2E2E2E2E2E2E2E2E2E2E2E2E2E2E2E2E2E2E2E2E2E2E2E2E2E2E2E2E2E2E2E2E2E2E2E2E2E2E2E2E2E2E2E2E2E2E2E2E2E2E2E2E2E2E2F5E2E2E2E2E2E2E2E2E2E2E2E2E2E2E2E2E2E2E2E2E2E2E2E2E2E2E2E2E2E2E2E2E2E2E2E2E2E2E2E2
310
E2E2E2E2E2E2E2E2E2E2E2E2E2E2E2E2E2E2E2E2E2E2E2E2E2E2E2E2E2E2E2E2E2E2E2E2E2E2E2E2E2E2E2E2E2E2E2E2E2E2E2E2E2E2E2E2E2E2E2E2E2E2E2E2E2E2E2E2E2E2E2E2E2E2E2E2E2E2E2E2E2E2E2E2E2E2E2E2E2E2E2E2E2E2E2E2E2E2E2E2E2E2E2E2E2E2E2E2E2E2E2E2E2E2E2E2E2E2E2E2E2E2E2E2E2E2E2
310
E2E2E2E2E2E2E2E2E2E2E2E2F5E2E2E2E2E2E2E2E2E2E2E2E2E2E2E2E2E2E2E2E2E2E2E2E2E2E2E2E2E2E2E2E2E2E2E2E2E2E2E2E2E2E2E2E2E2E2E2E2E2E2E2E2E2E2E2E2E2E2E2E2E2E2E2E2E2E2E2E2E2E2E2E2E2E2E2E2E2E2E2E2E2E2E2E2E2E2E2E2E2E2E2E2E2E2E2E2E2E2E2E2E2E2E2E2E2E2E2E2E2E2E2E2E2E2
310
E2E2E2E2E2E2E2E2E2E2E2E2E2E2E2E2E2E2E2E2E2E2E2E2E2E2E2E2E2E2E2E2E2E2E2E2E2E2E2E2E2E2E2E2E2E2E2E2E2E2E2E2E2E2E2E2E2E2E2E2E2E2E2E2E2F5E2E2E2E2E2E2E2E2E2E2E2E2E2E2E2E2E2E2E2E2E2E2E2E2E2E2E2E2E2E2E2E2E2E2E2E2E2E2E2E2E2E2E2E2E2E2E2E2E2E2E2E2E2E2E2E2E2E2E2E2E2
310
E2E2E2E2E2E2E2E2E2E2E2E2E2E2E2E2E2E2E2E2E2E2E2E2E2E2E2E2E2E2E2E2E2E2E2E2E2E2E2E2E2E2E2E2E2E2E2E2E2E2E2E2E2E2E2E2E2E2E2E2E2E2E2E2E2E2E2E2E2E2E2E2E2E2E2E2E2E2E2E2E2E2E2E2E2E2E2E2E2E2E2E2E2E2E2E2E2E2E2E2E2E2E2E2E2E2E2E2E2E2E2E2E2E2E2E2E2E2F5E2E2E2E2E2E2E2E2
310
E2E2E2E2E2E2E2E2E2E2E2E2E2E2E2E2E2E2E2E2E2E2E2E2E2E2E2E2E2E2E2E2E2E2E2E2E2E2E2E2E2E2E2E2E2E2E2E2E2E2E2E2E2E2E2E2E2E2E2E2E2E2E2E2E2E2E2E2E2E2E2E2E2E2E2E2E2E2E2E2E2E2E2E2E2E2E2E2E2E2E2E2E2E2E2E2E2E2E2E2E2E2E2E2E2E2E2E2E2E2E2E2E2E2E2E2E2E2E2E2E2E2E2E2E2E2E2
310
E2E2E2E2E2E2E2E2E2E2E2E2E2E2E2E2E2E2E2E2E2E2E2E2E2E2E2E2E2E2E2E2E2E2E2E2E2E2E2E2E2E2E2E2F5E2E2E2E2E2E2E2E2E2E2E2E2E2E2E2E2E2E2E2E2E2E2E2E2E2E2E2E2E2E2E2E2E2E2E2E2E2E2E2E2E2E2E2E2E2E2E2E2E2E2E2E2E2E2E2E2E2E2E2E2E2E2E2E2E2E2E2E2E2E2E2E2E2E2E2E2E2E2E2E2E2E2
310
E2E2E2E2E2E2E2E2E2E2E2E2E2E2E2E2E2E2E2E2E2E2E2E2E2E2E2E2E2E2E2E2E2E2E2E2E2E2E2E2E2E2E2E2E2E2E2E2E2E2E2E2E2E2E2E2E2E2E2E2E2E2E2E2E2E2E2E2E2E2E2E2E2E2E2E2E2E2E2E2E2E2E2E2E2E2E2E2E2E2E2E2E2E2E2E2E2F5E2E2E2E2E2E2E2E2E2E2E2E2E2E2E2E2E2E2E2E2E2E2E2E2E2E2E2E2E2
310
E2E2E2E2E2E2E2E2E2E2E2E2E2E2E2E2E2E2E2E2E2E2E2E2E2E2E2E2E2E2E2E2E2E2E2E2E2E2E2E2E2E2E2E2E2E2E2E2E2E2E2E2E2E2E2E2E2E2E2E2E2E2E2E2E2E2E2E2E2E2E2E2E2E2E2E2E2E2E2E2E2E2E2E2E2E2E2E2E2E2E2E2E2E2E2E2E2E2E2E2E2E2E2E2E2E2E2E2E2E2E2E2E2E2E2E2E2E2E2E2E2E2E2E2E2E2E2
310
E2E2E2E2E2E2E2E2E2E2E2E2E2E2E2E2E2E2E2E2E2E2E2F5E2E2E2E2E2E2E2E2E2E2E2E2E2E2E2E2E2E2E2E2E2E2E2E2E2E2E2E2E2E2E2E2E2E2E2E2E2E2E2E2E2E2E2E2E2E2E2E2E2E2E2E2E2E2E2E2E2E2E2E2E2E2E2E2E2E2E2E2E2E2E2E2E2E2E2E2E2E2E2E2E2E2E2E2E2E2E2E2E2E2E2E2E2E2E2E2E2E2E2E2E2E2E2
310
E2E2E2E2E2E2E2E2E2E2E2E2E2E2E2E2E2E2E2E2E2E2E2E2E2E2E2E2E2E2E2E2E2E2E2E2E2E2E2E2E2E2E2E2E2E2E2E2E2E2E2E2E2E2E2E2E2E2E2E2E2E2E2E2E2E2E2E2E2E2E2E2E2E2E2E2F5E2E2E2E2E2E2E2E2E2E2E2E2E2E2E2E2E2E2E2E2E2E2E2E2E2E2E2E2E2E2E2E2E2E2E2E2E2E2E2E2E2E2E2E2E2E2E2E2E2E2
310
E2E2E2E2E2E2E2E2E2E2E2E2E2E2E2E2E2E2E2E2E2E2E2E2E2E2E2E2E2E2E2E2E2E2E2E2E2E2E2E2E2E2E2E2E2E2E2E2E2E2E2E2E2E2E2E2E2E2E2E2E2E2E2E2E2E2E2E2E2E2E2E2E2E2E2E2E2E2E2E2E2E2E2E2E2E2E2E2E2E2E2E2E2E2E2E2E2E2E2E2E2E2E2E2E2E2E2E2E2E2E2E2E2E2E2E2E2E2E2E2E2E2E2E2E2E2E2
310
E2E2E2E2E2E2E2E2E2E2E2E2E2E2E2E2E2E2E2E2E2E2E2E2E2E2E2E2E2E2E2E2E2E2E2E2E2E2E2E2E2E2E2E2E2E2E2E2E2E2E2E2E2E2E2E2E2E2E2E2E2E2E2E2E2E2E2E2E2E2E2E2E2E2E2E2E2E2E2E2E2E2E2E2E2E2E2E2E2E2E2E2E2E2E2E2E2E2E2E2E2E2E2E2E2E2E2E2E2E2E2E2E2E2E2E2E2E2E2E2E2E2E2E2E2E2E2
310
E2E2E2E2E2E2E2E2E2E2E2E2E2E2E2E2E2E2E2E2E2E2E2E2E2E2E2E2E2E2E2E2E2E2E2E2E2E2E2E2E2E2E2E2E2E2E2E2E2E2E2E2E2E2E2E2E2E2E2E2E2E2E2E2E2E2E2E2E2E2E2E2E2E2E2E2E2E2E2E2E2E2E2E2E2E2E2E2E2E2E2E2E2E2E2E2E2E2E2E2E2E2E2E2E2E2E2E2E2E2E2E2E2E2E2E2E2E2E2E2E2E2E2E2E2E2E2
310
E2E2E2E2E2E2E2E2E2E2E2E2E2E2E2E2E2E2E2E2E2E2E2E2E2E2E2E2E2E2E2E2E2E2E2E2E2E2E2E2E2E2E2E2E2E2E2E2E2E2E2E2E2E2E2E2E2E2E2E2E2E2E2E2E2E2E2E2E2E2E2E2E2E2E2E2E2E2E2E2E2E2E2E2E2E2E2E2E2E2E2E2E2E2E2E2E2E2E2E2E2E2E2E2E2E2E2E2E2E2E2E2E2E2E2E2E2E2E2E2E2E2E2E2E2E2E2
310
E2E2E2E2E2E2E2E2E2E2E2E2E2E2E2E2E2E2E2E2E2E2E2E2E2E2E2E2E2E2E2E2E2E2E2E2E2E2E2E2E2E2E2E2E2E2E2E2E2E2E2E2E2E2E2E2E2E2E2E2E2E2E2E2E2E2E2E2E2E2E2E2E2E2E2E2E2E2E2E2E2E2E2E2E2E2E2E2E2E2E2E2E2E2E2E2E2E2E2E2E2E2E2E2E2E2E2E2E2E2E2E2E2E2E2E2E2E2E2E2E2E2E2E2E2E2E2
310
E2E2E2E2E2E2E2E2E2E2E2E2E2E2E2E2E2E2E2E2E2E2E2E2E2E2E2E2E2E2E2E2E2E2E2E2E2E2E2E2E2E2E2E2E2E2E2E2E2E2E2E2E2E2E2E2E2E2E2E2E2E2E2E2E2E2E2E2E2E2E2E2E2E2E2E2E2E2E2E2E2E2E2E2E2E2E2E2E2E2E2E2E2E2E2E2E2E2E2E2E2E2E2E2E2E2E2E2E2E2E2E2E2E2E2E2E2E2E2E2E2E2E2E2E2E2E2
310
E2E2E2E2E2E2E2E2E2E2E2E2E2E2E2E2E2E2E2E2E2E2E2E2E2E2E2E2E2E2E2E2E2E2E2E2E2E2E2E2E2E2E2E2E2E2E2E2E2E2E2E2E2E2E2E2E2E2E2E2E2E2E2E2E2E2E2E2E2E2E2E2E2E2E2E2E2E2E2E2E2E2E2E2E2E2E2E2E2E2E2E2E2E2E2E2E2E2E2E2E2E2E2E2E2E2E2E2E2E2E2E2E2E2E2E2E2E2E2E2E2E2E2E2E2E2E2
310
E2E2E2E2E2E2E2E2E2E2E2E2E2E2E2E2E2E2E2E2E2E2E2E2E2E2E2E2E2E2E2E2E2E2E2E2E2E2E2E2E2E2E2E2E2E2E2E2E2E2E2E2E2E2E2E2E2E2E2E2E2E2E2E2E2E2E2E2E2E2E2E2E2E2E2E2E2E2E2E2E2E2E2E2E2E2E2E2E2E2E2E2E2E2E2E2E2E2E2E2E2E2E2E2E2E2E2E2E2E2E2E2E2E2E2E2E2E2E2E2E2E2E2E2E2E2E2
310
E2E2E2E2E2E2E2E2E2E2E2E2E2E2E2E2E2E2E2E2E2E2E2E2E2E2E2E2E2E2E2E2E2E2E2E2E2E2E2E2E2E2E2E2E2E2E2E2E2E2E2E2E2E2E2E2E2E2E2E2E2E2E2E2E2E2E2E2E2E2E2E2E2E2E2E2E2E2E2E2E2E2E2E2E2E2E2E2E2E2E2E2E2E2E2E2E2E2E2E2E2E2E2E2E2E2E2E2E2E2E2E2E2E2E2E2E2E2E2E2E2E2E2E2E2E2E2
310
E2E2E2E2E2E2E2E2E2E2E2E2E2E2E2E2E2E2E2E2E2E2E2E2E2E2E2E2E2E2E2E2E2E2E2E2E2E2E2E2E2E2E2E2E2E2E2E2E2E2E2E2E2E2E2E2E2E2E2E2E2E2E2E2E2E2E2E2E2E2E2E2E2E2E2E2E2E2E2E2E2E2E2E2E2E2E2E2E2E2E2E2E2E2E2E2E2E2E2E2E2E2E2E2E2E2E2E2E2E2E2E2E2E2E2E2E2E2E2E2E2E2E2E2E2E2E2
310
E2E2E2E2E2E2E2E2E2E2E2E2E2E2E2E2E2E2E2E2E2E2E2E2E2E2E2E2E2E2E2E2E2E2E2E2E2E2E2E2E2E2E2E2E2E2E2E2E2E2E2E2E2E2E2E2E2E2E2E2E2E2E2E2E2E2E2E2E2E2E2E2E2E2E2E2E2E2E2E2E2E2E2E2E2E2E2E2E2E2E2E2E2E2E2E2E2E2E2E2E2E2E2E2E2E2E2E2E2E2E2E2E2E2E2E2E2E2E2E2E2E2E2E2E2E2E2
310
E2E2E2E2E2E2E2E2E2E2E2E2E2E2E2E2E2E2E2E2E2E2E2E2E2E2E2E2E2E2E2E2E2E2E2E2E2E2E2E2E2E2E2E2E2E2E2E2E2E2E2E2E2E2E2E2E2E2E2E2E2E2E2E2E2E2E2E2E2E2E2E2E2E2E2E2E2E2E2E2E2E2E2E2E2E2E2E2E2E2E2E2E2E2E2E2E2E2E2E2E2E2E2E2E2E2E2E2E2E2E2E2E2E2E2E2E2E2E2E2E2E2E2E2E2E2E2
310
E2E2E2E2E2E2E2E2E2E2E2E2E2E2E2E2E2E2E2E2E2E2E2E2E2E2E2E2E2E2E2E2E2E2E2E2E2E2E2E2E2E2E2E2E2E2E2E2E2E2E2E2E2E2E2E2E2E2E2E2E2E2E2E2E2E2E2E2E2E2E2E2E2E2E2E2E2E2E2E2E2E2E2E2E2E2E2E2E2E2E2E2E2E2E2E2E2E2E2E2E2E2E2E2E2E2E2E2E2E2E2E2E2E2E2E2E2E2E2E2E2E2E2E2E2E2E2
310
E2E2E2E2E2E2E2E2E2E2E2E2E2E2E2E2E2E2E2E2E2E2E2E2E2E2E2E2E2E2E2E2E2E2E2E2E2E2E2E2E2E2E2E2E2E2E2E2E2E2E2E2E2E2E2E2E2E2E2E2E2E2E2E2E2E2E2E2E2E2E2E2E2E2E2E2E2E2E2E2E2E2E2E2E2E2E2E2E2E2E2E2E2E2E2E2E2E2F5E2E2E2E2E2E2E2E2E2E2E2E2E2E2E2E2E2E2E2E2E2E2E2E2E2E2E2E2
310
E2E2E2E2E2E2E2E2E2E2E2E2E2E2E2E2E2E2E2E2E2E2E2E2E2E2E2E2E2E2E2E2E2E2E2E2E2E2E2E2E2E2E2E2E2E2E2E2E2E2E2E2E2E2E2E2E2E2E2E2E2E2E2E2E2E2E2E2E2E2E2E2E2E2E2E2E2E2E2E2E2E2E2E2E2E2E2E2E2E2E2E2E2E2E2E2E2E2E2E2E2E2E2E2E2E2E2E2E2E2E2E2E2E2E2E2E2E2E2E2E2E2E2E2E2E2E2
310
E2E2E2E2E2E2E2E2E2E2E2E2E2E2E2E2E2E2E2E2E2E2E2E2F5E2E2E2E2E2E2E2E2E2E2E2E2E2E2E2E2E2E2E2E2E2E2E2E2E2E2E2E2E2E2E2E2E2E2E2E2E2E2E2E2E2E2E2E2E2E2E2E2E2E2E2E2E2E2E2E2E2E2E2E2E2E2E2E2E2E2E2E2E2E2E2E2E2E2E2E2E2E2E2E2E2E2E2E2E2E2E2E2E2E2E2E2E2E2E2E2E2E2E2E2E2E2
310
E2E2E2E2E2E2E2E2E2E2E2E2E2E2E2E2E2E2E2E2E2E2E2E2E2E2E2E2E2E2E2E2E2E2E2E2E2E2E2E2E2E2E2E2E2E2E2E2E2E2E2E2E2E2E2E2E2E2E2E2E2E2E2E2E2E2E2E2E2E2E2E2E2E2E2E2E2F5E2E2E2E2E2E2E2E2E2E2E2E2E2E2E2E2E2E2E2E2E2E2E2E2E2E2E2E2E2E2E2E2E2E2E2E2E2E2E2E2E2E2E2E2E2E2E2E2E2
310
E2E2E2E2E2E2E2E2E2E2E2E2E2E2E2E2E2E2E2E2E2E2E2E2E2E2E2E2E2E2E2E2E2E2E2E2E2E2E2E2E2E2E2E2E2E2E2E2E2E2E2E2E2E2E2E2E2E2E2E2E2E2E2E2E2E2E2E2E2E2E2E2E2E2E2E2E2E2E2E2E2E2E2E2E2E2E2E2E2E2E2E2E2E2E2E2E2E2E2E2E2E2E2E2E2E2E2E2E2E2E2E2E2E2E2E2E2E2E2E2E2E2E2E2E2E2E2
310
E2E2E2F5E2E2E2E2E2E2E2E2E2E2E2E2E2E2E2E2E2E2E2E2E2E2E2E2E2E2E2E2E2E2E2E2E2E2E2E2E2E2E2E2E2E2E2E2E2E2E2E2E2E2E2E2E2E2E2E2E2E2E2E2E2E2E2E2E2E2E2E2E2E2E2E2E2E2E2E2E2E2E2E2E2E2E2E2E2E2E2E2E2E2E2E2E2E2E2E2E2E2E2E2E2E2E2E2E2E2E2E2E2E2E2E2E2E2E2E2E2E2E2E2E2E2E2
310
E2E2E2E2E2E2E2E2E2E2E2E2E2E2E2E2E2E2E2E2E2E2E2E2E2E2E2E2E2E2E2E2E2E2E2E2E2E2E2E2E2E2E2E2E2E2E2E2E2E2E2E2E2E2E2E2F5E2E2E2E2E2E2E2E2E2E2E2E2E2E2E2E2E2E2E2E2E2E2E2E2E2E2E2E2E2E2E2E2E2E2E2E2E2E2E2E2E2E2E2E2E2E2E2E2E2E2E2E2E2E2E2E2E2E2E2E2E2E2E2E2E2E2E2E2E2E2
310
E2E2E2E2E2E2E2E2E2E2E2E2E2E2E2E2E2E2E2E2E2E2E2E2E2E2E2E2E2E2E2E2E2E2E2E2E2E2E2E2E2E2E2E2E2E2E2E2E2E2E2E2E2E2E2E2E2E2E2E2E2E2E2E2E2E2E2E2E2E2E2E2E2E2E2E2E2E2E2E2E2E2E2E2E2E2E2E2E2E2E2E2E2E2E2E2E2E2E2E2E2E2E2E2E2E2E2E2E2F5E2E2E2E2E2E2E2E2E2E2E2E2E2E2E2E2E2
310
E2E2E2E2E2E2E2E2E2E2E2E2E2E2E2E2E2E2E2E2E2E2E2E2E2E2E2E2E2E2E2E2E2E2E2E2E2E2E2E2E2E2E2E2E2E2E2E2E2E2E2E2E2E2E2E2E2E2E2E2E2E2E2E2E2E2E2E2E2E2E2E2E2E2E2E2E2E2E2E2E2E2E2E2E2E2E2E2E2E2E2E2E2E2E2E2E2E2E2E2E2E2E2E2E2E2E2E2E2E2E2E2E2E2E2E2E2E2E2E2E2E2E2E2E2E2E2
310
E2E2E2E2E2E2E2E2E2E2E2E2E2E2E2E2E2E2E2E2E2E2E2E2E2E2E2E2E2E2E2E2E2E2E2F5E2E2E2E2E2E2E2E2E2E2E2E2E2E2E2E2E2E2E2E2E2E2E2E2E2E2E2E2E2E2E2E2E2E2E2E2E2E2E2E2E2E2E2E2E2E2E2E2E2E2E2E2E2E2E2E2E2E2E2E2E2E2E2E2E2E2E2E2E2E2E2E2E2E2E2E2E2E2E2E2E2E2E2E2E2E2E2E2E2E2E2
310
E2E2E2E2E2E2E2E2E2E2E2E2E2E2E2E2E2E2E2E2E2E2E2E2E2E2E2E2E2E2E2E2E2E2E2E2E2E2E2E2E2E2E2E2E2E2E2E2E2E2E2E2E2E2E2E2E2E2E2E2E2E2E2E2E2E2E2E2E2E2E2E2E2E2E2E2E2E2E2E2E2E2E2E2E2E2E2E2F5E2E2E2E2E2E2E2E2E2E2E2E2E2E2E2E2E2E2E2E2E2E2E2E2E2E2E2E2E2E2E2E2E2E2E2E2E2E2
310
E2E2E2E2E2E2E2E2E2E2E2E2E2E2E2E2E2E2E2E2E2E2E2E2E2E2E2E2E2E2E2E2E2E2E2E2E2E2E2E2E2E2E2E2E2E2E2E2E2E2E2E2E2E2E2E2E2E2E2E2E2E2E2E2E2E2E2E2E2E2E2E2E2E2E2E2E2E2E2E2E2E2E2E2E2E2E2E2E2E2E2E2E2E2E2E2E2E2E2E2E2E2E2E2E2E2E2E2E2E2E2E2E2E2E2E2E2E2E2E2E2E2E2E2E2E2E2
310
E2E2E2E2E2E2E2E2E2E2E2E2E2E2F5E2E2E2E2E2E2E2E2E2E2E2E2E2E2E2E2E2E2E2E2E2E2E2E2E2E2E2E2E2E2E2E2E2E2E2E2E2E2E2E2E2E2E2E2E2E2E2E2E2E2E2E2E2E2E2E2E2E2E2E2E2E2E2E2E2E2E2E2E2E2E2E2E2E2E2E2E2E2E2E2E2E2E2E2E2E2E2E2E2E2E2E2E2E2E2E2E2E2E2E2E2E2E2E2E2E2E2E2E2E2E2E2
310
E2E2E2E2E2E2E2E2E2E2E2E2E2E2E2E2E2E2E2E2E2E2E2E2E2E2E2E2E2E2E2E2E2E2E2E2E2E2E2E2E2E2E2E2E2E2E2E2E2E2E2E2E2E2E2E2E2E2E2E2E2E2E2E2E2E2E2F5E2E2E2E2E2E2E2E2E2E2E2E2E2E2E2E2E2E2E2E2E2E2E2E2E2E2E2E2E2E2E2E2E2E2E2E2E2E2E2E2E2E2E2E2E2E2E2E2E2E2E2E2E2E2E2E2E2E2E2
310
E2E2E2E2E2E2E2E2E2E2E2E2E2E2E2E2E2E2E2E2E2E2E2E2E2E2E2E2E2E2E2E2E2E2E2E2E2E2E2E2E2E2E2E2E2E2E2E2E2E2E2E2E2E2E2E2E2E2E2E2E2E2E2E2E2E2E2E2E2E2E2E2E2E2E2E2E2E2E2E2E2E2E2E2E2E2E2E2E2E2E2E2E2E2E2E2E2E2E2E2E2E2E2E2E2E2E2E2E2E2E2E2E2E2E2E2E2E2E2E2F5E2E2E2E2E2E2
310
E2E2E2E2E2E2E2E2E2E2E2E2E2E2E2E2E2E2E2E2E2E2E2E2E2E2E2E2E2E2E2E2E2E2E2E2E2E2E2E2E2E2E2E2E2E2E2E2E2E2E2E2E2E2E2E2E2E2E2E2E2E2E2E2E2E2E2E2E2E2E2E2E2E2E2E2E2E2E2E2E2E2E2E2E2E2E2E2E2E2E2E2E2E2E2E2E2E2E2E2E2E2E2E2E2E2E2E2E2E2E2E2E2E2E2E2E2E2E2E2E2E2E2E2E2E2E2
310
E2E2E2E2E2E2E2E2E2E2E2E2E2E2E2E2E2E2E2E2E2E2E2E2E2E2E2E2E2E2E2E2E2E2E2E2E2E2E2E2E2E2E2E2E2E2F5E2E2E2E2E2E2E2E2E2E2E2E2E2E2E2E2E2E2E2E2E2E2E2E2E2E2E2E2E2E2E2E2E2E2E2E2E2E2E2E2E2E2E2E2E2E2E2E2E2E2E2E2E2E2E2E2E2E2E2E2E2E2E2E2E2E2E2E2E2E2E2E2E2E2E2E2E2E2E2E2
310
E2E2E2E2E2E2E2E2E2E2E2E2E2E2E2E2E2E2E2E2E2E2E2E2E2E2E2E2E2E2E2E2E2E2E2E2E2E2E2E2E2E2E2E2E2E2E2E2E2E2E2E2E2E2E2E2E2E2E2E2E2E2E2E2E2E2E2E2E2E2E2E2E2E2E2E2E2E2E2E2E2E2E2E2E2E2E2E2E2E2E2E2E2E2E2E2E2E2E2F5E2E2E2E2E2E2E2E2E2E2E2E2E2E2E2E2E2E2E2E2E2E2E2E2E2E2E2
310
E2E2E2E2E2E2E2E2E2E2E2E2E2E2E2E2E2E2E2E2E2E2E2E2E2E2E2E2E2E2E2E2E2E2E2E2E2E2E2E2E2E2E2E2E2E2E2E2E2E2E2E2E2E2E2E2E2E2E2E2E2E2E2E2E2E2E2E2E2E2E2E2E2E2E2E2E2E2E2E2E2E2E2E2E2E2E2E2E2E2E2E2E2E2E2E2E2E2E2E2E2E2E2E2E2E2E2E2E2E2E2E2E2E2E2E2E2E2E2E2E2E2E2E2E2E2E2
310
E2E2E2E2E2E2E2E2E2E2E2E2E2E2E2E2E2E2E2E2E2E2E2E2E2F5E2E2E2E2E2E2E2E2E2E2E2E2E2E2E2E2E2E2E2E2E2E2E2E2E2E2E2E2E2E2E2E2E2E2E2E2E2E2E2E2E2E2E2E2E2E2E2E2E2E2E2E2E2E2E2E2E2E2E2E2E2E2E2E2E2E2E2E2E2E2E2E2E2E2E2E2E2E2E2E2E2E2E2E2E2E2E2E2E2E2E2E2E2E2E2E2E2E2E2E2E2
310
E2E2E2E2E2E2E2E2E2E2E2E2E2E2E2E2E2E2E2E2E2E2E2E2E2E2E2E2E2E2E2E2E2E2E2E2E2E2E2E2E2E2E2E2E2E2E2E2E2E2E2E2E2E2E2E2E2E2E2E2E2E2E2E2E2E2E2E2E2E2E2E2E2E2E2E2E2E2F5E2E2E2E2E2E2E2E2E2E2E2E2E2E2E2E2E2E2E2E2E2E2E2E2E2E2E2E2E2E2E2E2E2E2E2E2E2E2E2E2E2E2E2E2E2E2E2E2
310
E2E2E2E2E2E2E2E2E2E2E2E2E2E2E2E2E2E2E2E2E2E2E2E2E2E2E2E2E2E2E2E2E2E2E2E2E2E2E2E2E2E2E2E2E2E2E2E2E2E2E2E2E2E2E2E2E2E2E2E2E2E2E2E2E2E2E2E2E2E2E2E2E2E2E2E2E2E2E2E2E2E2E2E2E2E2E2E2E2E2E2E2E2E2E2E2E2E2E2E2E2E2E2E2E2E2E2E2E2E2E2E2E2E2E2E2E2E2E2E2E2E2E2E2E2E2E2
310
E2E2E2E2F5E2E2E2E2E2E2E2E2E2E2E2E2E2E2E2E2E2E2E2E2E2E2E2E2E2E2E2E2E2E2E2E2E2E2E2E2E2E2E2E2E2E2E2E2E2E2E2E2E2E2E2E2E2E2E2E2E2E2E2E2E2E2E2E2E2E2E2E2E2E2E2E2E2E2E2E2E2E2E2E2E2E2E2E2E2E2E2E2E2E2E2E2E2E2E2E2E2E2E2E2E2E2E2E2E2E2E2E2E2E2E2E2E2E2E2E2E2E2E2E2E2E2
310
E2E2E2E2E2E2E2E2E2E2E2E2E2E2E2E2E2E2E2E2E2E2E2E2E2E2E2E2E2E2E2E2E2E2E2E2E2E2E2E2E2E2E2E2E2E2E2E2E2E2E2E2E2E2E2E2E2E2E2E2E2E2E2E2E2E2E2E2E2E2E2E2E2E2E2E2E2E2E2E2E2E2E2E2E2E2E2E2E2E2E2E2E2E2E2E2E2E2E2E2E2E2E2E2E2E2E2E2E2E2E2E2E2E2E2E2E2E2E2E2E2E2E2E2E2E2E2
310
E2E2E2E2E2E2E2E2E2E2E2E2E2E2E2E2E2E2E2E2E2E2E2E2E2E2E2E2E2E2E2E2E2E2E2E2E2E2E2E2E2E2E2E2E2E2E2E2E2E2E2E2E2E2E2E2E2E2E2E2E2E2E2E2E2E2E2E2E2E2E2E2E2E2E2E2E2E2E2E2E2E2E2E2E2E2E2E2E2E2E2E2E2E2E2E2E2E2E2E2E2E2E2E2E2E2E2E2E2E2E2E2E2E2E2E2E2E2E2E2E2E2E2E2E2E2E2
310
E2E2E2E2E2E2E2E2E2E2E2E2E2E2E2E2E2E2E2E2E2E2E2E2E2E2E2E2E2E2E2E2E2E2E2E2E2E2E2E2E2E2E2E2E2E2E2E2E2E2E2E2E2E2E2E2E2E2E2E2E2E2E2E2E2E2E2E2E2E2E2E2E2E2E2E2E2E2E2E2E2E2E2E2E2E2E2E2E2E2E2E2E2E2E2E2E2E2E2E2E2E2E2E2E2E2E2E2E2E2E2E2E2E2E2E2E2E2E2E2E2E2E2E2E2E2E2
310
E2E2E2E2E2E2E2E2E2E2E2E2E2E2E2E2E2E2E2E2E2E2E2E2E2E2E2E2E2E2E2E2E2E2E2E2E2E2E2E2E2E2E2E2E2E2E2E2E2E2E2E2E2E2E2E2E2E2E2E2E2E2E2E2E2E2E2E2E2E2E2E2E2E2E2E2E2E2E2E2E2E2E2E2E2E2E2E2E2E2E2E2E2E2E2E2E2E2E2E2E2E2E2E2E2E2E2E2E2E2E2E2E2E2E2E2E2E2E2E2E2E2E2E2E2E2E2
310
E2E2E2E2E2E2E2E2E2E2E2E2E2E2E2E2E2E2E2E2E2E2E2E2E2E2E2E2E2E2E2E2E2E2E2E2E2E2E2E2E2E2E2E2E2E2E2E2E2E2E2E2E2E2E2E2E2E2E2E2E2E2E2E2E2E2E2E2E2E2E2E2E2E2E2E2E2E2E2E2E2E2E2E2E2E2E2E2E2E2E2E2E2E2E2E2E2E2E2E2E2E2E2E2E2E2E2E2E2E2E2E2E2E2E2E2E2E2E2E2E2E2E2E2E2E2E2
310
E2E2E2E2E2E2E2E2E2E2E2E2E2E2E2E2E2E2E2E2E2E2E2E2E2E2E2E2E2E2E2E2E2E2E2E2E2E2E2E2E2E2E2E2E2E2E2E2E2E2E2E2E2E2E2E2E2E2E2E2E2E2E2E2E2E2E2E2E2E2E2E2E2E2E2E2E2E2E2E2E2E2E2E2E2E2E2E2E2E2E2E2E2E2E2E2E2E2E2E2E2E2E2E2E2E2E2E2E2E2E2E2E2E2E2E2E2E2E2E2E2E2E2E2E2E2E2
310
E2E2E2E2E2E2E2E2E2E2E2E2E2E2E2E2E2E2E2E2E2E2E2E2E2E2E2E2E2E2E2E2E2E2E2E2E2E2E2E2E2E2E2E2E2E2E2E2E2E2E2E2E2E2E2E2E2E2E2E2E2E2E2E2E2E2E2E2E2E2E2E2E2E2E2E2E2E2E2E2E2E2E2E2E2E2E2E2E2E2E2E2E2E2E2E2E2E2E2E2E2E2E2E2E2E2E2E2E2E2E2E2E2E2E2E2E2E2E2E2E2E2E2E2E2E2E2
310
E2E2E2E2E2E2E2E2E2E2E2E2E2E2E2E2E2E2E2E2E2E2E2E2E2E2E2E2E2E2E2E2E2E2E2E2E2E2E2E2E2E2E2E2E2E2E2E2E2E2E2E2E2E2E2E2E2E2E2E2E2E2E2E2E2E2E2E2E2E2E2E2E2E2E2E2E2E2E2E2E2E2E2E2E2E2E2E2E2E2E2E2E2E2E2E2E2E2E2E2E2E2E2E2E2E2E2E2E2E2E2E2E2E2E2E2E2E2E2E2E2E2E2E2E2E2E2
310
E2E2E2E2E2E2E2E2E2E2E2E2E2E2E2E2E2E2E2E2E2E2E2E2E2E2E2E2E2E2E2E2E2E2E2E2E2E2E2E2E2E2E2E2E2E2E2E2E2E2E2E2E2E2E2E2E2E2E2E2E2E2E2E2E2E2E2E2E2E2E2E2E2E2E2E2E2E2E2E2E2E2E2E2E2E2E2E2E2E2E2E2E2E2E2E2E2E2E2E2E2E2E2E2E2E2E2E2E2E2E2E2E2E2E2E2E2E2E2E2E2E2E2E2E2E2E2
310
E2E2E2E2E2E2E2E2E2E2E2E2E2E2E2E2E2E2E2E2E2E2E2E2E2E2E2E2E2E2E2E2E2E2E2E2E2E2E2E2E2E2E2E2E2E2E2E2E2E2E2E2E2E2E2E2E2E2E2E2E2E2E2E2E2E2E2E2E2E2E2E2E2E2E2E2E2E2E2E2E2E2E2E2E2E2E2E2E2E2E2E2E2E2E2E2E2E2E2E2E2E2E2E2E2E2E2E2E2E2E2E2E2E2E2E2E2E2E2E2E2E2E2E2E2E2E2
310
E2E2E2E2E2E2E2E2E2E2E2E2E2E2E2E2E2E2E2E2E2E2E2E2E2E2E2E2E2E2E2E2E2E2E2E2E2E2E2E2E2E2E2E2E2E2E2E2E2E2E2E2E2E2E2E2E2E2E2E2E2E2E2E2E2E2E2E2E2E2E2E2E2E2E2E2E2E2E2E2E2E2E2E2E2E2E2E2E2E2E2E2E2E2E2E2E2E2E2E2E2E2E2E2E2E2E2E2E2E2E2E2E2E2E2E2E2E2E2E2E2E2E2E2E2E2E2
310
E2E2E2E2E2E2E2E2E2E2E2E2E2E2E2E2E2E2E2E2E2E2E2E2E2E2E2E2E2E2E2E2E2E2E2E2E2E2E2E2E2E2E2E2E2E2E2E2E2E2E2E2E2E2E2E2E2E2E2E2E2E2E2E2E2E2E2E2E2E2E2E2E2E2E2E2E2E2E2E2E2E2E2E2E2E2E2E2E2E2E2E2E2E2E2E2E2E2E2E2E2E2E2E2E2E2E2E2E2E2E2E2E2E2E2E2E2E2E2E2E2E2E2E2E2E2E2
310
E2E2E2E2E2E2E2E2E2E2E2E2E2E2E2E2E2E2E2E2E2E2E2E2E2E2E2E2E2E2E2E2E2E2E2E2E2E2E2E2E2E2E2E2E2E2E2E2E2E2E2E2E2E2E2E2E2E2E2E2E2E2E2E2E2E2E2E2E2E2E2E2E2E2E2E2E2E2E2E2E2E2E2E2E2E2E2E2E2E2E2E2E2E2E2E2E2E2E2E2E2E2E2E2E2E2E2E2E2E2E2E2E2E2E2E2E2E2E2E2E2E2E2E2E2E2E2
310
E2E2E2E2E2E2E2E2E2E2E2E2E2E2E2E2E2E2E2E2E2E2E2E2E2E2F5E2E2E2E2E2E2E2E2E2E2E2E2E2E2E2E2E2E2E2E2E2E2E2E2E2E2E2E2E2E2E2E2E2E2E2E2E2E2E2E2E2E2E2E2E2E2E2E2E2E2E2E2E2E2E2E2E2E2E2E2E2E2E2E2E2E2E2E2E2E2E2E2E2E2E2E2E2E2E2E2E2E2E2E2E2E2E2E2E2E2E2E2E2E2E2E2E2E2E2E2
310
E2E2E2E2E2E2E2E2E2E2E2E2E2E2E2E2E2E2E2E2E2E2E2E2E2E2E2E2E2E2E2E2E2E2E2E2E2E2E2E2E2E2E2E2E2E2E2E2E2E2E2E2E2E2E2E2E2E2E2E2E2E2E2E2E2E2E2E2E2E2E2E2E2E2E2E2E2E2E2F5E2E2E2E2E2E2E2E2E2E2E2E2E2E2E2E2E2E2E2E2E2E2E2E2E2E2E2E2E2E2E2E2E2E2E2E2E2E2E2E2E2E2E2E2E2E2E2
310
E2E2E2E2E2E2E2E2E2E2E2E2E2E2E2E2E2E2E2E2E2E2E2E2E2E2E2E2E2E2E2E2E2E2E2E2E2E2E2E2E2E2E2E2E2E2E2E2E2E2E2E2E2E2E2E2E2E2E2E2E2E2E2E2E2E2E2E2E2E2E2E2E2E2E2E2E2E2E2E2E2E2E2E2E2E2E2E2E2E2E2E2E2E2E2E2E2E2E2E2E2E2E2E2E2E2E2E2E2E2E2E2E2E2E2E2E2E2E2E2E2E2E2E2E2E2E2
310
E2E2E2E2E2F5E2E2E2E2E2E2E2E2E2E2E2E2E2E2E2E2E2E2E2E2E2E2E2E2E2E2E2E2E2E2E2E2E2E2E2E2E2E2E2E2E2E2E2E2E2E2E2E2E2E2E2E2E2E2E2E2E2E2E2E2E2E2E2E2E2E2E2E2E2E2E2E2E2E2E2E2E2E2E2E2E2E2E2E2E2E2E2E2E2E2E2E2E2E2E2E2E2E2E2E2E2E2E2E2E2E2E2E2E2E2E2E2E2E2E2E2E2E2E2E2E2
310
E2E2E2E2E2E2E2E2E2E2E2E2E2E2E2E2E2E2E2E2E2E2E2E2E2E2E2E2E2E2E2E2E2E2E2E2E2E2E2E2E2E2E2E2E2E2E2E2E2E2E2E2E2E2E2E2E2E2F5E2E2E2E2E2E2E2E2E2E2E2E2E2E2E2E2E2E2E2E2E2E2E2E2E2E2E2E2E2E2E2E2E2E2E2E2E2E2E2E2E2E2E2E2E2E2E2E2E2E2E2E2E2E2E2E2E2E2E2E2E2E2E2E2E2E2E2E2
310
E2E2E2E2E2E2E2E2E2E2E2E2E2E2E2E2E2E2E2E2E2E2E2E2E2E2E2E2E2E2E2E2E2E2E2E2E2E2E2E2E2E2E2E2E2E2E2E2E2E2E2E2E2E2E2E2E2E2E2E2E2E2E2E2E2E2E2E2E2E2E2E2E2E2E2E2E2E2E2E2E2E2E2E2E2E2E2E2E2E2E2E2E2E2E2E2E2E2E2E2E2E2E2E2E2E2E2E2E2E2E2F5E2E2E2E2E2E2E2E2E2E2E2E2E2E2E2
310
E2E2E2E2E2E2E2E2E2E2E2E2E2E2E2E2E2E2E2E2E2E2E2E2E2E2E2E2E2E2E2E2E2E2E2E2E2E2E2E2E2E2E2E2E2E2E2E2E2E2E2E2E2E2E2E2E2E2E2E2E2E2E2E2E2E2E2E2E2E2E2E2E2E2E2E2E2E2E2E2E2E2E2E2E2E2E2E2E2E2E2E2E2E2E2E2E2E2E2E2E2E2E2E2E2E2E2E2E2E2E2E2E2E2E2E2E2E2E2E2E2E2E2E2E2E2E2
310
E2E2E2E2E2E2E2E2E2E2E2E2E2E2E2E2E2E2E2E2E2E2E2E2E2E2E2E2E2E2E2E2E2E2E2E2E2F5E2E2E2E2E2E2E2E2E2E2E2E2E2E2E2E2E2E2E2E2E2E2E2E2E2E2E2E2E2E2E2E2E2E2E2E2E2E2E2E2E2E2E2E2E2E2E2E2E2E2E2E2E2E2E2E2E2E2E2E2E2E2E2E2E2E2E2E2E2E2E2E2E2E2E2E2E2E2E2E2E2E2E2E2E2E2E2E2E2
310
E2E2E2E2E2E2E2E2E2E2E2E2E2E2E2E2E2E2E2E2E2E2E2E2E2E2E2E2E2E2E2E2E2E2E2E2E2E2E2E2E2E2E2E2E2E2E2E2E2E2E2E2E2E2E2E2E2E2E2E2E2E2E2E2E2E2E2E2E2E2E2E2E2E2E2E2E2E2E2E2E2E2E2E2E2E2E2E2E2E2F5E2E2E2E2E2E2E2E2E2E2E2E2E2E2E2E2E2E2E2E2E2E2E2E2E2E2E2E2E2E2E2E2E2E2E2E2
310
E2E2E2E2E2E2E2E2E2E2E2E2E2E2E2E2E2E2E2E2E2E2E2E2E2E2E2E2E2E2E2E2E2E2E2E2E2E2E2E2E2E2E2E2E2E2E2E2E2E2E2E2E2E2E2E2E2E2E2E2E2E2E2E2E2E2E2E2E2E2E2E2E2E2E2E2E2E2E2E2E2E2E2E2E2E2E2E2E2E2E2E2E2E2E2E2E2E2E2E2E2E2E2E2E2E2E2E2E2E2E2E2E2E2E2E2E2E2E2E2E2E2E2E2E2E2E2
310
E2E2E2E2E2E2E2E2E2E2E2E2E2E2E2E2F5E2E2E2E2E2E2E2E2E2E2E2E2E2E2E2E2E2E2E2E2E2E2E2E2E2E2E2E2E2E2E2E2E2E2E2E2E2E2E2E2E2E2E2E2E2E2E2E2E2E2E2E2E2E2E2E2E2E2E2E2E2E2E2E2E2E2E2E2E2E2E2E2E2E2E2E2E2E2E2E2E2E2E2E2E2E2E2E2E2E2E2E2E2E2E2E2E2E2E2E2E2E2E2E2E2E2E2E2E2E2
310
E2E2E2E2E2E2E2E2E2E2E2E2E2E2E2E2E2E2E2E2E2E2E2E2E2E2E2E2E2E2E2E2E2E2E2E2E2E2E2E2E2E2E2E2E2E2E2E2E2E2E2E2E2E2E2E2E2E2E2E2E2E2E2E2E2E2E2E2E2F5E2E2E2E2E2E2E2E2E2E2E2E2E2E2E2E2E2E2E2E2E2E2E2E2E2E2E2E2E2E2E2E2E2E2E2E2E2E2E2E2E2E2E2E2E2E2E2E2E2E2E2E2E2E2E2E2E2
310
E2E2E2E2E2E2E2E2E2E2E2E2E2E2E2E2E2E2E2E2E2E2E2E2E2E2E2E2E2E2E2E2E2E2E2E2E2E2E2E2E2E2E2E2E2E2E2E2E2E2E2E2E2E2E2E2E2E2E2E2E2E2E2E2E2E2E2E2E2E2E2E2E2E2E2E2E2E2E2E2E2E2E2E2E2E2E2E2E2E2E2E2E2E2E2E2E2E2E2E2E2E2E2E2E2E2E2E2E2E2E2E2E2E2E2E2E2E2E2E2E2E2F5E2E2E2E2
310
E2E2E2E2E2E2E2E2E2E2E2E2E2E2E2E2E2E2E2E2E2E2E2E2E2E2E2E2E2E2E2E2E2E2E2E2E2E2E2E2E2E2E2E2E2E2E2E2E2E2E2E2E2E2E2E2E2E2E2E2E2E2E2E2E2E2E2E2E2E2E2E2E2E2E2E2E2E2E2E2E2E2E2E2E2E2E2E2E2E2E2E2E2E2E2E2E2E2E2E2E2E2E2E2E2E2E2E2E2E2E2E2E2E2E2E2E2E2E2E2E2E2E2E2E2E2E2
310
E2E2E2E2E2E2E2E2E2E2E2E2E2E2E2E2E2E2E2E2E2E2E2E2E2E2E2E2E2E2E2E2E2E2E2E2E2E2E2E2E2E2E2E2E2E2E2E2F5E2E2E2E2E2E2E2E2E2E2E2E2E2E2E2E2E2E2E2E2E2E2E2E2E2E2E2E2E2E2E2E2E2E2E2E2E2E2E2E2E2E2E2E2E2E2E2E2E2E2E2E2E2E2E2E2E2E2E2E2E2E2E2E2E2E2E2E2E2E2E2E2E2E2E2E2E2E2
310
E2E2E2E2E2E2E2E2E2E2E2E2E2E2E2E2E2E2E2E2E2E2E2E2E2E2E2E2E2E2E2E2E2E2E2E2E2E2E2E2E2E2E2E2E2E2E2E2E2E2E2E2E2E2E2E2E2E2E2E2E2E2E2E2E2E2E2E2E2E2E2E2E2E2E2E2E2E2E2E2E2E2E2E2E2E2E2E2E2E2E2E2E2E2E2E2E2E2E2E2E2F5E2E2E2E2E2E2E2E2E2E2E2E2E2E2E2E2E2E2E2E2E2E2E2E2E2
310
E2E2E2E2E2E2E2E2E2E2E2E2E2E2E2E2E2E2E2E2E2E2E2E2E2E2E2E2E2E2E2E2E2E2E2E2E2E2E2E2E2E2E2E2E2E2E2E2E2E2E2E2E2E2E2E2E2E2E2E2E2E2E2E2E2E2E2E2E2E2E2E2E2E2E2E2E2E2E2E2E2E2E2E2E2E2E2E2E2E2E2E2E2E2E2E2E2E2E2E2E2E2E2E2E2E2E2E2E2E2E2E2E2E2E2E2E2E2E2E2E2E2E2E2E2E2E2
310
E2E2E2E2E2E2E2E2E2E2E2E2E2E2E2E2E2E2E2E2E2E2E2E2E2E2E2F5E2E2E2E2E2E2E2E2E2E2E2E2E2E2E2E2E2E2E2E2E2E2E2E2E2E2E2E2E2E2E2E2E2E2E2E2E2E2E2E2E2E2E2E2E2E2E2E2E2E2E2E2E2E2E2E2E2E2E2E2E2E2E2E2E2E2E2E2E2E2E2E2E2E2E2E2E2E2E2E2E2E2E2E2E2E2E2E2E2E2E2E2E2E2E2E2E2E2E2
310
E2E2E2E2E2E2E2E2E2E2E2E2E2E2E2E2E2E2E2E2E2E2E2E2E2E2E2E2E2E2E2E2E2E2E2E2E2E2E2E2E2E2E2E2E2E2E2E2E2E2E2E2E2E2E2E2E2E2E2E2E2E2E2E2E2E2E2E2E2E2E2E2E2E2E2E2E2E2E2E2F5E2E2E2E2E2E2E2E2E2E2E2E2E2E2E2E2E2E2E2E2E2E2E2E2E2E2E2E2E2E2E2E2E2E2E2E2E2E2E2E2E2E2E2E2E2E2
310
E2E2E2E2E2E2E2E2E2E2E2E2E2E2E2E2E2E2E2E2E2E2E2E2E2E2E2E2E2E2E2E2E2E2E2E2E2E2E2E2E2E2E2E2E2E2E2E2E2E2E2E2E2E2E2E2E2E2E2E2E2E2E2E2E2E2E2E2E2E2E2E2E2E2E2E2E2E2E2E2E2E2E2E2E2E2E2E2E2E2E2E2E2E2E2E2E2E2E2E2E2E2E2E2E2E2E2E2E2E2E2E2E2E2E2E2E2E2E2E2E2E2E2E2E2E2E2
310
E2E2E2E2E2E2F5E2E2E2E2E2E2E2E2E2E2E2E2E2E2E2E2E2E2E2E2E2E2E2E2E2E2E2E2E2E2E2E2E2E2E2E2E2E2E2E2E2E2E2E2E2E2E2E2E2E2E2E2E2E2E2E2E2E2E2E2E2E2E2E2E2E2E2E2E2E2E2E2E2E2E2E2E2E2E2E2E2E2E2E2E2E2E2E2E2E2E2E2E2E2E2E2E2E2E2E2E2E2E2E2E2E2E2E2E2E2E2E2E2E2E2E2E2E2E2E2
310
E2E2E2E2E2E2E2E2E2E2E2E2E2E2E2E2E2E2E2E2E2E2E2E2E2E2E2E2E2E2E2E2E2E2E2E2E2E2E2E2E2E2E2E2E2E2E2E2E2E2E2E2E2E2E2E2E2E2E2F5E2E2E2E2E2E2E2E2E2E2E2E2E2E2E2E2E2E2E2E2E2E2E2E2E2E2E2E2E2E2E2E2E2E2E2E2E2E2E2E2E2E2E2E2E2E2E2E2E2E2E2E2E2E2E2E2E2E2E2E2E2E2E2E2E2E2E2
310
E2E2E2E2E2E2E2E2E2E2E2E2E2E2E2E2E2E2E2E2E2E2E2E2E2E2E2E2E2E2E2E2E2E2E2E2E2E2E2E2E2E2E2E2E2E2E2E2E2E2E2E2E2E2E2E2E2E2E2E2E2E2E2E2E2E2E2E2E2E2E2E2E2E2E2E2E2E2E2E2E2E2E2E2E2E2E2E2E2E2E2E2E2E2E2E2E2E2E2E2E2E2E2E2E2E2E2E2E2E2E2E2E2E2E2E2E2E2E2E2E2E2E2E2E2E2E2
310
E2E2E2E2E2E2E2E2E2E2E2E2E2E2E2E2E2E2E2E2E2E2E2E2E2E2E2E2E2E2E2E2E2E2E2E2E2E2E2E2E2E2E2E2E2E2E2E2E2E2E2E2E2E2E2E2E2E2E2E2E2E2E2E2E2E2E2E2E2E2E2E2E2E2E2E2E2E2E2E2E2E2E2E2E2E2E2E2E2E2E2E2E2E2E2E2E2E2E2E2E2E2E2E2E2E2E2E2E2E2E2E2E2E2E2E2E2E2E2E2E2E2E2E2E2E2E2
310
E2E2E2E2E2E2E2E2E2E2E2E2E2E2E2E2E2E2E2E2E2E2E2E2E2E2E2E2E2E2E2E2E2E2E2E2E2E2E2E2E2E2E2E2E2E2E2E2E2E2E2E2E2E2E2E2E2E2E2E2E2E2E2E2E2E2E2E2E2E2E2E2E2E2E2E2E2E2E2E2E2E2E2E2E2E2E2E2E2E2E2E2E2E2E2E2E2E2E2E2E2E2E2E2E2E2E2E2E2E2E2E2E2E2E2E2E2E2E2E2E2E2E2E2E2E2E2
310
E2E2E2E2E2E2E2E2E2E2E2E2E2E2E2E2E2E2E2E2E2E2E2E2E2E2E2E2E2E2E2E2E2E2E2E2E2E2E2E2E2E2E2E2E2E2E2E2E2E2E2E2E2E2E2E2E2E2E2E2E2E2E2E2E2E2E2E2E2E2E2E2E2E2E2E2E2E2E2E2E2E2E2E2E2E2E2E2E2E2E2
  0
XRECORD
  5
512
102
{ACAD_REACTORS
330
3E
102
}
330
3E
100
AcDbXrecord
280
     1
102
MATERIAL
148
0.0
149
0.0
149
0.0
 93
        0
 94
      127
282
     0
 72
     0
 77
     0
171
     0
175
     0
179
     0
273
     0
  0
XRECORD
  5
3F
102
{ACAD_REACTORS
330
3E
102
}
330
3E
100
AcDbXrecord
280
     1
270
     1
271
     1
  0
XRECORD
  5
40
102
{ACAD_REACTORS
330
3E
102
}
330
3E
100
AcDbXrecord
280
     1
270
     1
271
     1
  0
XRECORD
  5
41
102
{ACAD_REACTORS
330
3E
102
}
330
3E
100
AcDbXrecord
280
     1
270
     1
271
     1
  0
XRECORD
  5
42
102
{ACAD_REACTORS
330
3E
102
}
330
3E
100
AcDbXrecord
280
     1
270
     1
271
     1
  0
XRECORD
  5
43
102
{ACAD_REACTORS
330
3E
102
}
330
3E
100
AcDbXrecord
280
     1
270
     1
271
     1
  0
XRECORD
  5
44
102
{ACAD_REACTORS
330
3E
102
}
330
3E
100
AcDbXrecord
280
     1
270
     1
271
     1
  0
XRECORD
  5
511
102
{ACAD_REACTORS
330
36
102
}
330
36
100
AcDbXrecord
280
     1
102
MATERIAL
148
0.0
149
0.0
149
0.0
 93
        0
 94
      127
282
     0
 72
     0
 77
     0
171
     0
175
     0
179
     0
273
     0
  0
XRECORD
  5
37
102
{ACAD_REACTORS
330
36
102
}
330
36
100
AcDbXrecord
280
     1
270
     1
271
     1
  0
XRECORD
  5
38
102
{ACAD_REACTORS
330
36
102
}
330
36
100
AcDbXrecord
280
     1
270
     1
271
     1
  0
XRECORD
  5
39
102
{ACAD_REACTORS
330
36
102
}
330
36
100
AcDbXrecord
280
     1
270
     1
271
     1
  0
XRECORD
  5
3A
102
{ACAD_REACTORS
330
36
102
}
330
36
100
AcDbXrecord
280
     1
270
     1
271
     1
  0
XRECORD
  5
3B
102
{ACAD_REACTORS
330
36
102
}
330
36
100
AcDbXrecord
280
     1
270
     1
271
     1
  0
XRECORD
  5
3C
102
{ACAD_REACTORS
330
36
102
}
330
36
100
AcDbXrecord
280
     1
270
     1
271
     1
  0
XRECORD
  5
50D
102
{ACAD_REACTORS
330
C
102
}
330
C
100
AcDbXrecord
280
     1
102
MATERIAL
148
0.0
149
0.0
149
0.0
 93
        0
 94
      127
282
     0
 72
     0
 77
     0
171
     0
175
     0
179
     0
273
     0
  0
XRECORD
  5
D
102
{ACAD_REACTORS
330
C
102
}
330
C
100
AcDbXrecord
280
     1
270
     1
271
     1
  0
XRECORD
  5
E
102
{ACAD_REACTORS
330
C
102
}
330
C
100
AcDbXrecord
280
     1
270
     1
271
     1
  0
XRECORD
  5
F
102
{ACAD_REACTORS
330
C
102
}
330
C
100
AcDbXrecord
280
     1
270
     1
271
     1
  0
XRECORD
  5
10
102
{ACAD_REACTORS
330
C
102
}
330
C
100
AcDbXrecord
280
     1
270
     1
271
     1
  0
XRECORD
  5
11
102
{ACAD_REACTORS
330
C
102
}
330
C
100
AcDbXrecord
280
     1
270
     1
271
     1
  0
XRECORD
  5
12
102
{ACAD_REACTORS
330
C
102
}
330
C
100
AcDbXrecord
280
     1
270
     1
271
     1
  0
CELLSTYLEMAP
  5
1E58
102
{ACAD_REACTORS
330
43E
102
}
330
43E
100
AcDbCellStyleMap
 90
        3
300
CELLSTYLE
  1
TABLEFORMAT_BEGIN
 90
        5
170
     1
 91
        0
 92
    32768
 62
   257
 93
        1
300
CONTENTFORMAT
  1
CONTENTFORMAT_BEGIN
 90
        0
 91
        0
 92
        4
 93
        0
300

 40
0.0
140
1.0
 94
        5
 62
     0
340
22
144
6.0
309
CONTENTFORMAT_END
171
     1
301
MARGIN
  1
CELLMARGIN_BEGIN
 40
1.5
 40
1.5
 40
1.5
 40
1.5
 40
0.18
 40
0.18
309
CELLMARGIN_END
 94
        6
 95
        1
302
GRIDFORMAT
  1
GRIDFORMAT_BEGIN
 90
        0
 91
        1
 62
     0
 92
       -2
340
0
 93
        0
 40
0.045
309
GRIDFORMAT_END
 95
        2
302
GRIDFORMAT
  1
GRIDFORMAT_BEGIN
 90
        0
 91
        1
 62
     0
 92
       -2
340
0
 93
        0
 40
0.045
309
GRIDFORMAT_END
 95
        4
302
GRIDFORMAT
  1
GRIDFORMAT_BEGIN
 90
        0
 91
        1
 62
     0
 92
       -2
340
0
 93
        0
 40
0.045
309
GRIDFORMAT_END
 95
        8
302
GRIDFORMAT
  1
GRIDFORMAT_BEGIN
 90
        0
 91
        1
 62
     0
 92
       -2
340
0
 93
        0
 40
0.045
309
GRIDFORMAT_END
 95
       16
302
GRIDFORMAT
  1
GRIDFORMAT_BEGIN
 90
        0
 91
        1
 62
     0
 92
       -2
340
0
 93
        0
 40
0.045
309
GRIDFORMAT_END
 95
       32
302
GRIDFORMAT
  1
GRIDFORMAT_BEGIN
 90
        0
 91
        1
 62
     0
 92
       -2
340
0
 93
        0
 40
0.045
309
GRIDFORMAT_END
309
TABLEFORMAT_END
  1
CELLSTYLE_BEGIN
 90
        1
 91
        1
300
_TITLE
309
CELLSTYLE_END
300
CELLSTYLE
  1
TABLEFORMAT_BEGIN
 90
        5
170
     1
 91
        0
 92
        0
 62
   257
 93
        1
300
CONTENTFORMAT
  1
CONTENTFORMAT_BEGIN
 90
        0
 91
        0
 92
        4
 93
        0
300

 40
0.0
140
1.0
 94
        5
 62
     0
340
22
144
4.5
309
CONTENTFORMAT_END
171
     1
301
MARGIN
  1
CELLMARGIN_BEGIN
 40
1.5
 40
1.5
 40
1.5
 40
1.5
 40
0.18
 40
0.18
309
CELLMARGIN_END
 94
        6
 95
        1
302
GRIDFORMAT
  1
GRIDFORMAT_BEGIN
 90
        0
 91
        1
 62
     0
 92
       -2
340
0
 93
        0
 40
0.045
309
GRIDFORMAT_END
 95
        2
302
GRIDFORMAT
  1
GRIDFORMAT_BEGIN
 90
        0
 91
        1
 62
     0
 92
       -2
340
0
 93
        0
 40
0.045
309
GRIDFORMAT_END
 95
        4
302
GRIDFORMAT
  1
GRIDFORMAT_BEGIN
 90
        0
 91
        1
 62
     0
 92
       -2
340
0
 93
        0
 40
0.045
309
GRIDFORMAT_END
 95
        8
302
GRIDFORMAT
  1
GRIDFORMAT_BEGIN
 90
        0
 91
        1
 62
     0
 92
       -2
340
0
 93
        0
 40
0.045
309
GRIDFORMAT_END
 95
       16
302
GRIDFORMAT
  1
GRIDFORMAT_BEGIN
 90
        0
 91
        1
 62
     0
 92
       -2
340
0
 93
        0
 40
0.045
309
GRIDFORMAT_END
 95
       32
302
GRIDFORMAT
  1
GRIDFORMAT_BEGIN
 90
        0
 91
        1
 62
     0
 92
       -2
340
0
 93
        0
 40
0.045
309
GRIDFORMAT_END
309
TABLEFORMAT_END
  1
CELLSTYLE_BEGIN
 90
        2
 91
        1
300
_HEADER
309
CELLSTYLE_END
300
CELLSTYLE
  1
TABLEFORMAT_BEGIN
 90
        5
170
     1
 91
        0
 92
        0
 62
   257
 93
        1
300
CONTENTFORMAT
  1
CONTENTFORMAT_BEGIN
 90
        0
 91
        0
 92
        4
 93
        0
300

 40
0.0
140
1.0
 94
        2
 62
     0
340
22
144
4.5
309
CONTENTFORMAT_END
171
     1
301
MARGIN
  1
CELLMARGIN_BEGIN
 40
1.5
 40
1.5
 40
1.5
 40
1.5
 40
0.18
 40
0.18
309
CELLMARGIN_END
 94
        6
 95
        1
302
GRIDFORMAT
  1
GRIDFORMAT_BEGIN
 90
        0
 91
        1
 62
     0
 92
       -2
340
0
 93
        0
 40
0.045
309
GRIDFORMAT_END
 95
        2
302
GRIDFORMAT
  1
GRIDFORMAT_BEGIN
 90
        0
 91
        1
 62
     0
 92
       -2
340
0
 93
        0
 40
0.045
309
GRIDFORMAT_END
 95
        4
302
GRIDFORMAT
  1
GRIDFORMAT_BEGIN
 90
        0
 91
        1
 62
     0
 92
       -2
340
0
 93
        0
 40
0.045
309
GRIDFORMAT_END
 95
        8
302
GRIDFORMAT
  1
GRIDFORMAT_BEGIN
 90
        0
 91
        1
 62
     0
 92
       -2
340
0
 93
        0
 40
0.045
309
GRIDFORMAT_END
 95
       16
302
GRIDFORMAT
  1
GRIDFORMAT_BEGIN
 90
        0
 91
        1
 62
     0
 92
       -2
340
0
 93
        0
 40
0.045
309
GRIDFORMAT_END
 95
       32
302
GRIDFORMAT
  1
GRIDFORMAT_BEGIN
 90
        0
 91
        1
 62
     0
 92
       -2
340
0
 93
        0
 40
0.045
309
GRIDFORMAT_END
309
TABLEFORMAT_END
  1
CELLSTYLE_BEGIN
 90
        3
 91
        2
300
_DATA
309
CELLSTYLE_END
  0
XRECORD
  5
1E5F
102
{ACAD_REACTORS
330
43E
102
}
330
43E
100
AcDbXrecord
280
     1
102
ACAD_ROUNDTRIP_PRE2007_TABLESTYLE
 90
        4
 91
        0
  1

 92
        4
 93
        0
  2

 94
        4
 95
        0
  3

  0
ENDSEC
  0
EOF
