  0
SECTION
  2
HEADER
  9
$ACADVER
  1
AC1018
  9
$ACADMAINTVER
 70
   104
  9
$DWGCODEPAGE
  3
ANSI_932
  9
$LASTSAVEDBY
  1
a080061
  9
$CUSTOMPROPERTYTAG
  1
AmdtFileType
  9
$CUSTOMPROPERTY
  1
84
  9
$INSBASE
 10
0.0
 20
0.0
 30
0.0
  9
$EXTMIN
 10
-829.7836140494146
 20
-1370.819081169109
 30
-0.0030516181105611
  9
$EXTMAX
 10
932.6568718099224
 20
-473.6022881390563
 30
50.00305208378603
  9
$LIMMIN
 10
-2970.0
 20
-2100.0
  9
$LIMMAX
 10
2970.0
 20
2100.0
  9
$ORTHOMODE
 70
     1
  9
$REGENMODE
 70
     0
  9
$FILLMODE
 70
     1
  9
$QTEXTMODE
 70
     0
  9
$MIRRTEXT
 70
     0
  9
$LTSCALE
 40
20.0
  9
$ATTMODE
 70
     1
  9
$TEXTSIZE
 40
64.0
  9
$TRACEWID
 40
0.05
  9
$TEXTSTYLE
  7
STANDARD
  9
$CLAYER
  8
0
  9
$CELTYPE
  6
CONTINUOUS
  9
$CECOLOR
 62
   256
  9
$CELTSCALE
 40
1.0
  9
$DISPSILH
 70
     0
  9
$DIMSCALE
 40
1.0
  9
$DIMASZ
 40
0.12
  9
$DIMEXO
 40
0.05
  9
$DIMDLI
 40
0.5
  9
$DIMRND
 40
0.0
  9
$DIMDLE
 40
0.0
  9
$DIMEXE
 40
0.1
  9
$DIMTP
 40
0.1
  9
$DIMTM
 40
0.1
  9
$DIMTXT
 40
0.12
  9
$DIMCEN
 40
0.0
  9
$DIMTSZ
 40
0.0
  9
$DIMTOL
 70
     0
  9
$DIMLIM
 70
     0
  9
$DIMTIH
 70
     1
  9
$DIMTOH
 70
     1
  9
$DIMSE1
 70
     0
  9
$DIMSE2
 70
     0
  9
$DIMTAD
 70
     0
  9
$DIMZIN
 70
     7
  9
$DIMBLK
  1

  9
$DIMASO
 70
     1
  9
$DIMSHO
 70
     0
  9
$DIMPOST
  1

  9
$DIMAPOST
  1
mm
  9
$DIMALT
 70
     0
  9
$DIMALTD
 70
     2
  9
$DIMALTF
 40
25.4
  9
$DIMLFAC
 40
1.0
  9
$DIMTOFL
 70
     0
  9
$DIMTVP
 40
0.0
  9
$DIMTIX
 70
     0
  9
$DIMSOXD
 70
     0
  9
$DIMSAH
 70
     0
  9
$DIMBLK1
  1

  9
$DIMBLK2
  1

  9
$DIMSTYLE
  2
AM_ANSI
  9
$DIMCLRD
 70
   256
  9
$DIMCLRE
 70
   256
  9
$DIMCLRT
 70
     2
  9
$DIMTFAC
 40
0.71
  9
$DIMGAP
 40
0.06
  9
$DIMJUST
 70
     0
  9
$DIMSD1
 70
     0
  9
$DIMSD2
 70
     0
  9
$DIMTOLJ
 70
     1
  9
$DIMTZIN
 70
     7
  9
$DIMALTZ
 70
     0
  9
$DIMALTTZ
 70
     0
  9
$DIMUPT
 70
     0
  9
$DIMDEC
 70
     4
  9
$DIMTDEC
 70
     4
  9
$DIMALTU
 70
     2
  9
$DIMALTTD
 70
     4
  9
$DIMTXSTY
  7
STANDARD
  9
$DIMAUNIT
 70
     0
  9
$DIMADEC
 70
     0
  9
$DIMALTRND
 40
0.0
  9
$DIMAZIN
 70
     2
  9
$DIMDSEP
 70
    46
  9
$DIMATFIT
 70
     3
  9
$DIMFRAC
 70
     0
  9
$DIMLDRBLK
  1

  9
$DIMLUNIT
 70
     2
  9
$DIMLWD
 70
    -1
  9
$DIMLWE
 70
    -1
  9
$DIMTMOVE
 70
     0
  9
$LUNITS
 70
     2
  9
$LUPREC
 70
     4
  9
$SKETCHINC
 40
0.1
  9
$FILLETRAD
 40
4.0
  9
$AUNITS
 70
     1
  9
$AUPREC
 70
     3
  9
$MENU
  1
ACAD
  9
$ELEVATION
 40
0.0
  9
$PELEVATION
 40
0.0
  9
$THICKNESS
 40
50.0
  9
$LIMCHECK
 70
     0
  9
$CHAMFERA
 40
0.0
  9
$CHAMFERB
 40
0.0
  9
$CHAMFERC
 40
0.0
  9
$CHAMFERD
 40
0.0
  9
$SKPOLY
 70
     0
  9
$TDCREATE
 40
2452321.396199653
  9
$TDUCREATE
 40
2452321.021199653
  9
$TDUPDATE
 40
2456703.648094178
  9
$TDUUPDATE
 40
2456703.273094178
  9
$TDINDWG
 40
0.8486296644
  9
$TDUSRTIMER
 40
0.8486268171
  9
$USRTIMER
 70
     1
  9
$ANGBASE
 50
0.0
  9
$ANGDIR
 70
     0
  9
$PDMODE
 70
     3
  9
$PDSIZE
 40
-2.0
  9
$PLINEWID
 40
0.0
  9
$SPLFRAME
 70
     0
  9
$SPLINETYPE
 70
     6
  9
$SPLINESEGS
 70
     8
  9
$HANDSEED
  5
2766
  9
$SURFTAB1
 70
     6
  9
$SURFTAB2
 70
     6
  9
$SURFTYPE
 70
     6
  9
$SURFU
 70
     6
  9
$SURFV
 70
     6
  9
$UCSBASE
  2

  9
$UCSNAME
  2

  9
$UCSORG
 10
0.0
 20
0.0
 30
0.0
  9
$UCSXDIR
 10
1.0
 20
0.0
 30
0.0
  9
$UCSYDIR
 10
0.0
 20
1.0
 30
0.0
  9
$UCSORTHOREF
  2

  9
$UCSORTHOVIEW
 70
     0
  9
$UCSORGTOP
 10
0.0
 20
0.0
 30
0.0
  9
$UCSORGBOTTOM
 10
0.0
 20
0.0
 30
0.0
  9
$UCSORGLEFT
 10
0.0
 20
0.0
 30
0.0
  9
$UCSORGRIGHT
 10
0.0
 20
0.0
 30
0.0
  9
$UCSORGFRONT
 10
0.0
 20
0.0
 30
0.0
  9
$UCSORGBACK
 10
0.0
 20
0.0
 30
0.0
  9
$PUCSBASE
  2

  9
$PUCSNAME
  2

  9
$PUCSORG
 10
0.0
 20
0.0
 30
0.0
  9
$PUCSXDIR
 10
1.0
 20
0.0
 30
0.0
  9
$PUCSYDIR
 10
0.0
 20
1.0
 30
0.0
  9
$PUCSORTHOREF
  2

  9
$PUCSORTHOVIEW
 70
     0
  9
$PUCSORGTOP
 10
0.0
 20
0.0
 30
0.0
  9
$PUCSORGBOTTOM
 10
0.0
 20
0.0
 30
0.0
  9
$PUCSORGLEFT
 10
0.0
 20
0.0
 30
0.0
  9
$PUCSORGRIGHT
 10
0.0
 20
0.0
 30
0.0
  9
$PUCSORGFRONT
 10
0.0
 20
0.0
 30
0.0
  9
$PUCSORGBACK
 10
0.0
 20
0.0
 30
0.0
  9
$USERI1
 70
     0
  9
$USERI2
 70
     0
  9
$USERI3
 70
     0
  9
$USERI4
 70
     0
  9
$USERI5
 70
     0
  9
$USERR1
 40
20.0
  9
$USERR2
 40
0.0
  9
$USERR3
 40
0.0
  9
$USERR4
 40
0.0
  9
$USERR5
 40
0.0
  9
$WORLDVIEW
 70
     1
  9
$SHADEDGE
 70
     3
  9
$SHADEDIF
 70
    70
  9
$TILEMODE
 70
     1
  9
$MAXACTVP
 70
    64
  9
$PINSBASE
 10
0.0
 20
0.0
 30
0.0
  9
$PLIMCHECK
 70
     0
  9
$PEXTMIN
 10
1.000000000000000E+20
 20
1.000000000000000E+20
 30
1.000000000000000E+20
  9
$PEXTMAX
 10
-1.000000000000000E+20
 20
-1.000000000000000E+20
 30
-1.000000000000000E+20
  9
$PLIMMIN
 10
0.0
 20
0.0
  9
$PLIMMAX
 10
12.0
 20
9.0
  9
$UNITMODE
 70
     0
  9
$VISRETAIN
 70
     1
  9
$PLINEGEN
 70
     0
  9
$PSLTSCALE
 70
     1
  9
$TREEDEPTH
 70
  3020
  9
$CMLSTYLE
  2
STANDARD
  9
$CMLJUST
 70
     0
  9
$CMLSCALE
 40
1.0
  9
$PROXYGRAPHICS
 70
     1
  9
$MEASUREMENT
 70
     0
  9
$CELWEIGHT
370
    -1
  9
$ENDCAPS
280
     0
  9
$JOINSTYLE
280
     0
  9
$LWDISPLAY
290
     0
  9
$INSUNITS
 70
     0
  9
$HYPERLINKBASE
  1

  9
$STYLESHEET
  1
MONOCHROME.CTB
  9
$XEDIT
290
     1
  9
$CEPSNTYPE
380
     0
  9
$PSTYLEMODE
290
     1
  9
$FINGERPRINTGUID
  2
{68F3F60F-982D-43C0-B084-568AB2094408}
  9
$VERSIONGUID
  2
{D0C07EC8-8B11-452C-8BC1-52C8E3579AEF}
  9
$EXTNAMES
290
     1
  9
$PSVPSCALE
 40
0.0
  9
$OLESTARTUP
290
     0
  9
$SORTENTS
280
   127
  9
$INDEXCTL
280
     1
  9
$HIDETEXT
280
     0
  9
$XCLIPFRAME
290
     0
  9
$HALOGAP
280
     0
  9
$OBSCOLOR
 70
   257
  9
$OBSLTYPE
280
     0
  9
$INTERSECTIONDISPLAY
280
     0
  9
$INTERSECTIONCOLOR
 70
   257
  9
$DIMASSOC
280
     1
  9
$PROJECTNAME
  1

  0
ENDSEC
  0
SECTION
  2
CLASSES
  0
CLASS
  1
ACDBDICTIONARYWDFLT
  2
AcDbDictionaryWithDefault
  3
ObjectDBX Classes
 90
        0
 91
        1
280
     0
281
     0
  0
CLASS
  1
DICTIONARYVAR
  2
AcDbDictionaryVar
  3
ObjectDBX Classes
 90
        0
 91
        7
280
     0
281
     0
  0
CLASS
  1
TABLESTYLE
  2
AcDbTableStyle
  3
ObjectDBX Classes
 90
     4095
 91
        1
280
     0
281
     0
  0
CLASS
  1
ACME_DOCUMENT
  2
AcMeDbDoc
  3
AcMeServices
 90
     1024
 91
        1
280
     0
281
     0
  0
CLASS
  1
AMGSETTINGSOBJ
  2
AmgSettingsObj
  3
"AcadM|Product Description: AutoCAD Mechanical|Company: Autodesk, Inc."
 90
     1024
 91
        2
280
     0
281
     0
  0
CLASS
  1
ACMESCOPE
  2
AcMeScope
  3
AcMeServices
 90
     1024
 91
        1
280
     0
281
     0
  0
CLASS
  1
ACMECOMMANDHISTORY
  2
AcMeCommandHistory
  3
AcMeServices
 90
     1024
 91
        1
280
     0
281
     0
  0
CLASS
  1
ACIMSYSVARMAN
  2
AcImSysVarManager
  3
AcMeServices
 90
     1024
 91
        6
280
     0
281
     0
  0
CLASS
  1
ACIMREALSYSVAR
  2
AcImRealSysVar
  3
AcMeServices
 90
     1024
 91
       16
280
     0
281
     0
  0
CLASS
  1
ACIMINTSYSVAR
  2
AcImIntSysVar
  3
AcMeServices
 90
     1024
 91
       45
280
     0
281
     0
  0
CLASS
  1
ACMEDRAWINGMAN
  2
AcMeDrawingMan
  3
AcMeServices
 90
     1024
 91
        1
280
     0
281
     0
  0
CLASS
  1
ACMEVIEW
  2
AcMeView
  3
AcMeServices
 90
     1024
 91
        1
280
     0
281
     0
  0
CLASS
  1
ACDBENTITYCACHE
  2
AcMeEntityCache
  3
AcMeServices
 90
     1024
 91
        1
280
     0
281
     0
  0
CLASS
  1
GSMANAGER
  2
AcMeGSManager
  3
AcMeServices
 90
     1024
 91
        1
280
     0
281
     0
  0
CLASS
  1
AMDTINTERNALREACTOR
  2
AmdtInternalReactor
  3
AcMeServices
 90
     1024
 91
        2
280
     0
281
     0
  0
CLASS
  1
ACMESTATEMGR
  2
AcMeStateMgr
  3
AcMeServices
 90
     1024
 91
        1
280
     0
281
     0
  0
CLASS
  1
ACGREFMASTER
  2
AcGrefMaster
  3
AcAttribServices
 90
     1024
 91
        1
280
     0
281
     0
  0
CLASS
  1
AM_DRAWING_MGR
  2
AcDmDwgMgr
  3
AcMechDwgViewMgmt
 90
     1024
 91
        1
280
     0
281
     0
  0
CLASS
  1
AM_DWG_DOCUMENT
  2
AcDmDwgDocument
  3
AcMechDwgViewMgmt
 90
     1024
 91
        1
280
     0
281
     0
  0
CLASS
  1
AM_DWG_SHEET
  2
AcDmSheet
  3
AcMechDwgViewMgmt
 90
     1024
 91
        1
280
     0
281
     0
  0
CLASS
  1
AM_VIEWDIMPARMAP
  2
AcDmViewDimParMap
  3
AcMechDwgViewMgmt
 90
     1024
 91
        1
280
     0
281
     0
  0
CLASS
  1
AM_DWGMGR_NAME
  2
AcDmDwgMgrName
  3
AcMechDwgViewMgmt
 90
     1024
 91
        1
280
     0
281
     0
  0
CLASS
  1
ACME_DATABASE
  2
AcMeDbDatabase
  3
AcMeServices
 90
     1024
 91
        1
280
     0
281
     0
  0
CLASS
  1
ACRFINSADJUSTERMGR
  2
AcRfInsAdjusterMgr
  3
AcMeServices
 90
     1024
 91
        1
280
     0
281
     0
  0
CLASS
  1
ACGREFACADMASTER
  2
AcGrefacadMaster
  3
AcGrefServices
 90
     1024
 91
        1
280
     0
281
     0
  0
CLASS
  1
AMDTMENUSTATEMGR
  2
AmdtMenuStateMgr
  3
McadcomServices
 90
     1024
 91
        1
280
     0
281
     0
  0
CLASS
  1
AMDTMCOMMENUSTATE
  2
AmdtMcomMenuState
  3
McadcomServices
 90
     1024
 91
        1
280
     0
281
     0
  0
CLASS
  1
AMIMASTER
  2
AmiMaster
  3
AmiServices
 90
     1024
 91
        1
280
     0
281
     0
  0
CLASS
  1
ASAPP
  2
AcAsAppObject
  3
AutoSurfServices
 90
     1024
 91
        1
280
     0
281
     0
  0
CLASS
  1
IM_STATIC_MAN
  2
AcImStaticVarManager
  3
AcMeServices
 90
     1024
 91
        1
280
     0
281
     0
  0
CLASS
  1
ACIMSTRSYSVAR
  2
AcImStrSysVar
  3
AcMeServices
 90
     1024
 91
       11
280
     0
281
     0
  0
CLASS
  1
ACIMDBLSTATICVAR
  2
AcImDblStaticVar
  3
AcMeServices
 90
     1024
 91
       20
280
     0
281
     0
  0
CLASS
  1
ACIMSTRSTATICVAR
  2
AcImStrStaticVar
  3
AcMeServices
 90
     1024
 91
       12
280
     0
281
     0
  0
CLASS
  1
ACIMINTSTATICVAR
  2
AcImIntStaticVar
  3
AcMeServices
 90
     1024
 91
       17
280
     0
281
     0
  0
CLASS
  1
ACASGREFMASTER
  2
AcAsGrefMaster
  3
AutoSurfResolverServices
 90
     1024
 91
        1
280
     0
281
     0
  0
CLASS
  1
ACADGREFMODULE
  2
AcAdGrefModule
  3
AdGrefServices
 90
     1024
 91
        1
280
     0
281
     0
  0
CLASS
  1
AMDTMAPISURFMOUDULE
  2
AmdtMApiSurfModule
  3
MApiSurfServices
 90
     1024
 91
        0
280
     0
281
     0
  0
CLASS
  1
MAPIAMMOUDLE
  2
MApiAmModule
  3
MApiAmServices
 90
     1024
 91
        1
280
     0
281
     0
  0
CLASS
  1
AMDTADMENUSTATE
  2
AmdtAdMenuState
  3
DesignerServices
 90
     1024
 91
        1
280
     0
281
     0
  0
CLASS
  1
ADAPPL
  2
AcAdAppl
  3
DesignerServices
 90
     1024
 91
        1
280
     0
281
     0
  0
CLASS
  1
DEPMGR
  2
AcAdDepMgr
  3
DesignerServices
 90
     1024
 91
        1
280
     0
281
     0
  0
CLASS
  1
PARAMMGR
  2
AcAdParamMgr
  3
DesignerServices
 90
     1024
 91
        1
280
     0
281
     0
  0
CLASS
  1
PARAMSCOPE
  2
AcAdParamScope
  3
DesignerServices
 90
     1024
 91
        1
280
     0
281
     0
  0
CLASS
  1
NAMEDAPPL
  2
AcAdNamedAppl
  3
DesignerServices
 90
     1024
 91
        1
280
     0
281
     0
  0
CLASS
  1
AMDTDMMENUSTATE
  2
AmdtDmMenuState
  3
AcMechDwgViewMgmt
 90
     1024
 91
        1
280
     0
281
     0
  0
CLASS
  1
MAPIADMODULE
  2
MApiAdModule
  3
MApiAdServices
 90
     1024
 91
        1
280
     0
281
     0
  0
CLASS
  1
AMDTAMMENUSTATE
  2
AmdtAmMenuState
  3
DesignerAssemblies
 90
     1024
 91
        1
280
     0
281
     0
  0
CLASS
  1
ACAMPROJECT
  2
AcAmProject
  3
DesignerAssemblies
 90
     1024
 91
        1
280
     0
281
     0
  0
CLASS
  1
ACAMGRCOMPDEF
  2
AcAmGrCompDef
  3
DesignerAssemblies
 90
     1024
 91
        1
280
     0
281
     0
  0
CLASS
  1
ACCMCONTEXT
  2
AcCmContext
  3
DesignerAssemblies
 90
     1024
 91
        1
280
     0
281
     0
  0
CLASS
  1
ACAMCOMPDEF
  2
AcAmCompDef
  3
DesignerAssemblies
 90
     1024
 91
        1
280
     0
281
     0
  0
CLASS
  1
ACAMCOMPDEFMGR
  2
AcAmCompDefMgr
  3
DesignerAssemblies
 90
     1024
 91
        1
280
     0
281
     0
  0
CLASS
  1
AMCONTEXTMGR
  2
AcAmContextMgr
  3
DesignerAssemblies
 90
     1024
 91
        1
280
     0
281
     0
  0
CLASS
  1
ACAMCONTEXTMODELER
  2
AcAmContextModeler
  3
DesignerAssemblies
 90
     1024
 91
        1
280
     0
281
     0
  0
CLASS
  1
ACMDATADICTIONARY
  2
AcmDataDictionary
  3
"AcmSymBB|Product Description: AutoCAD Mechanical|Company: Autodesk, Inc."
 90
     1024
 91
        1
280
     0
281
     0
  0
CLASS
  1
ACMDATAENTRYBLOCK
  2
AcmDataEntryBlock
  3
AcmSymBB|Product Description: AutoCAD Mechanical|Company: Autodesk, Inc.
 90
     1024
 91
        1
280
     0
281
     0
  0
CLASS
  1
CATALOGSTATE
  2
AcAmCatalogState
  3
DesignerAssemblies
 90
     1024
 91
        1
280
     0
281
     0
  0
CLASS
  1
ACAMGRCOMPDEFSET
  2
AcAmGrCompDefSet
  3
DesignerAssemblies
 90
     1024
 91
        1
280
     0
281
     0
  0
CLASS
  1
AMDTBROWSERDBTAB
  2
AmdtBrowserDbTab
  3
McadcomServices
 90
     1024
 91
        1
280
     0
281
     0
  0
CLASS
  1
CBROWSERAPPOBJECT
  2
CBrowserAppObject
  3
McadcomServices
 90
     1024
 91
        3
280
     0
281
     0
  0
CLASS
  1
DM_PLACEHOLDER
  2
AcDmSelsetPlaceholder
  3
AcMechDwgViewMgmt
 90
     1024
 91
        1
280
     0
281
     0
  0
CLASS
  1
ACMSTANDARDANSI
  2
AcmStandardANSI
  3
"Amdt_StdImp|Product Description: AutoCAD Mechanical|Company: Autodesk, Inc."
 90
     1024
 91
        1
280
     0
281
     0
  0
CLASS
  1
AMGOBJPROPCFG
  2
AmgObjPropCfg
  3
"AmgLay|Product Description: AutoCAD Mechanical|Company: Autodesk, Inc."
 90
     1025
 91
        1
280
     0
281
     0
  0
CLASS
  1
ACMSURFSTANDARDANSI
  2
AcmSurfTextStdANSI
  3
"Amdt_StdImp|Product Description: AutoCAD Mechanical|Company: Autodesk, Inc."
 90
     1024
 91
        1
280
     0
281
     0
  0
CLASS
  1
ACMFCFSTANDARDANSI
  2
AcmFCFStdANSI
  3
"Amdt_StdImp|Product Description: AutoCAD Mechanical|Company: Autodesk, Inc."
 90
     1024
 91
        1
280
     0
281
     0
  0
CLASS
  1
ACMWELDSTANDARDANSI
  2
AcmWeldingStdANSI
  3
"Amdt_StdImp|Product Description: AutoCAD Mechanical|Company: Autodesk, Inc."
 90
     1024
 91
        1
280
     0
281
     0
  0
CLASS
  1
ACMIDSTANDARDANSI
  2
AcmIdStdANSI
  3
"Amdt_StdImp|Product Description: AutoCAD Mechanical|Company: Autodesk, Inc."
 90
     1024
 91
        1
280
     0
281
     0
  0
CLASS
  1
ACMDATUMSTANDARDANSI
  2
AcmDatumStdANSI
  3
"Amdt_StdImp|Product Description: AutoCAD Mechanical|Company: Autodesk, Inc."
 90
     1024
 91
        1
280
     0
281
     0
  0
CLASS
  1
ACMBOMSTANDARDANSI
  2
AcmBOMStdANSI
  3
"Amdt_StdImp|Product Description: AutoCAD Mechanical|Company: Autodesk, Inc."
 90
     1024
 91
        1
280
     0
281
     0
  0
CLASS
  1
ACMDETAILSTANDARDANSI
  2
AmdtDetailSymStdANSI
  3
"Amdt_StdImp|Product Description: AutoCAD Mechanical|Company: Autodesk, Inc."
 90
     1024
 91
        1
280
     0
281
     0
  0
CLASS
  1
ACMSECTIONSTANDARDANSI
  2
AmdtSectionSymStdANSI
  3
"Amdt_StdImp|Product Description: AutoCAD Mechanical|Company: Autodesk, Inc."
 90
     1024
 91
        1
280
     0
281
     0
  0
CLASS
  1
ACMCENTERLINESTANDARDANSI
  2
AmdtCenterLineStdANSI
  3
"Amdt_StdImp|Product Description: AutoCAD Mechanical|Company: Autodesk, Inc."
 90
     1024
 91
        1
280
     0
281
     0
  0
CLASS
  1
ACMTHREADLINESTANDARDANSI
  2
AmdtThreadLineStdANSI
  3
"Amdt_StdImp|Product Description: AutoCAD Mechanical|Company: Autodesk, Inc."
 90
     1024
 91
        1
280
     0
281
     0
  0
CLASS
  1
ACMNOTESTANDARDANSI
  2
AmdtNoteStdANSI
  3
"Amdt_StdImp|Product Description: AutoCAD Mechanical|Company: Autodesk, Inc."
 90
     1024
 91
        1
280
     0
281
     0
  0
CLASS
  1
AMDTNOTETEMPLATEDB
  2
AmdtNoteTemplateDB
  3
AcmSymBB|Product Description: AutoCAD Mechanical|Company: Autodesk, Inc.
 90
     1024
 91
        6
280
     0
281
     0
  0
CLASS
  1
ACAMGLAYSTD
  2
AcAmgLayStd
  3
"AmgLay|Product Description: AutoCAD Mechanical|Company: Autodesk, Inc."
 90
     1024
 91
        1
280
     0
281
     0
  0
CLASS
  1
ACAMGDIMSTD
  2
AcAmgDimStd
  3
"AmgDim|Product Description: AutoCAD Mechanical|Company: Autodesk, Inc."
 90
     1024
 91
        1
280
     0
281
     0
  0
CLASS
  1
ACAMGHOLECHARTSTDANSI
  2
AcAmgHoleChartStdANSI
  3
AmgDim|Product Description: AutoCAD Mechanical|Company: Autodesk, Inc.
 90
     1024
 91
        1
280
     0
281
     0
  0
CLASS
  1
ACAMGTITLESTD
  2
AcAmgTitleStd
  3
"AmgTitle|Product Description: AutoCAD Mechanical|Company: Autodesk, Inc."
 90
     4095
 91
        1
280
     0
281
     0
  0
CLASS
  1
LAYER_INDEX
  2
AcDbLayerIndex
  3
ObjectDBX Classes
 90
        0
 91
        1
280
     0
281
     0
  0
CLASS
  1
IDBUFFER
  2
AcDbIdBuffer
  3
ObjectDBX Classes
 90
        0
 91
       12
280
     0
281
     0
  0
CLASS
  1
ACAMGFILTERDAT
  2
AcAmgFilterDat
  3
"AcadM|Product Description: AutoCAD Mechanical|Company: Autodesk, Inc."
 90
     1024
 91
        6
280
     0
281
     0
  0
CLASS
  1
MATERIAL
  2
AcDbMaterial
  3
ObjectDBX Classes
 90
     1153
 91
        3
280
     0
281
     0
  0
CLASS
  1
VISUALSTYLE
  2
AcDbVisualStyle
  3
ObjectDBX Classes
 90
     4095
 91
       16
280
     0
281
     0
  0
CLASS
  1
SCALE
  2
AcDbScale
  3
ObjectDBX Classes
 90
     1153
 91
       33
280
     0
281
     0
  0
CLASS
  1
MLEADERSTYLE
  2
AcDbMLeaderStyle
  3
ACDB_MLEADERSTYLE_CLASS
 90
     4095
 91
        1
280
     0
281
     0
  0
CLASS
  1
SORTENTSTABLE
  2
AcDbSortentsTable
  3
ObjectDBX Classes
 90
        0
 91
        1
280
     0
281
     0
  0
CLASS
  1
CELLSTYLEMAP
  2
AcDbCellStyleMap
  3
ObjectDBX Classes
 90
     1152
 91
        2
280
     0
281
     0
  0
CLASS
  1
ACRFATTGENMGR
  2
AcRfAttGeneralMgr
  3
AcAttribServices
 90
     1024
 91
        1
280
     0
281
     0
  0
CLASS
  1
ACRFOBJATTMGR
  2
AcRfObjAttGroupMgr
  3
AcAttribServices
 90
     1024
 91
        1
280
     0
281
     0
  0
CLASS
  1
ACRFMCADAPIATTHOLDER
  2
AcRfMCADAPIAttHolder
  3
AcAttribServices
 90
     1024
 91
        1
280
     0
281
     0
  0
CLASS
  1
AMDTSYSATTR
  2
AmdtSystemAttribute
  3
AcAttribServices
 90
     1024
 91
        1
280
     0
281
     0
  0
CLASS
  1
ACMTAPERSTANDARDANSI
  2
AcmTaperStdANSI
  3
"Amdt_StdImp|Product Description: AutoCAD Mechanical|Company: Autodesk, Inc."
 90
     1024
 91
        1
280
     0
281
     0
  0
CLASS
  1
ACMANOOTATIONVIEWSTANDARDANSI
  2
AmdtAnViewStdANSI
  3
"Amdt_StdImp|Product Description: AutoCAD Mechanical|Company: Autodesk, Inc."
 90
     1024
 91
        1
280
     0
281
     0
  0
ENDSEC
  0
SECTION
  2
TABLES
  0
TABLE
  2
VPORT
  5
849
330
0
100
AcDbSymbolTable
 70
     1
  0
VPORT
  5
185F
330
849
100
AcDbSymbolTableRecord
100
AcDbViewportTableRecord
  2
*Active
 70
     0
 10
0.0
 20
0.0
 11
1.0
 21
1.0
 12
-166.2112248657563
 22
-0.0000000000004547
 13
0.0
 23
0.0
 14
1.0
 24
1.0
 15
0.0
 25
0.0
 16
0.0
 26
0.0
 36
1.0
 17
217.6478537460102
 27
-922.2106846540823
 37
0.0
 40
1633.364290043058
 41
1.085650723025584
 42
50.0
 43
0.0
 44
0.0
 50
0.0
 51
0.0
 71
     0
 72
   100
 73
     1
 74
     0
 75
     0
 76
     0
 77
     0
 78
     0
281
     0
 65
     0
110
0.0
120
0.0
130
0.0
111
1.0
121
0.0
131
0.0
112
0.0
122
1.0
132
0.0
 79
     0
146
0.0
  0
ENDTAB
  0
TABLE
  2
LTYPE
  5
846
330
0
100
AcDbSymbolTable
 70
    20
  0
LTYPE
  5
854
330
846
100
AcDbSymbolTableRecord
100
AcDbLinetypeTableRecord
  2
BYBLOCK
 70
     0
  3

 72
    65
 73
     0
 40
0.0
  0
LTYPE
  5
855
330
846
100
AcDbSymbolTableRecord
100
AcDbLinetypeTableRecord
  2
BYLAYER
 70
     0
  3

 72
    65
 73
     0
 40
0.0
  0
LTYPE
  5
856
330
846
100
AcDbSymbolTableRecord
100
AcDbLinetypeTableRecord
  2
CONTINUOUS
 70
     0
  3
実線
 72
    65
 73
     0
 40
0.0
  0
LTYPE
  5
865
330
846
100
AcDbSymbolTableRecord
100
AcDbLinetypeTableRecord
  2
DASHDOT
 70
     0
  3
____ _ ____ _ ____ _ ____ _ ____ _ ____ _ ____
 72
    65
 73
     4
 40
5.5
 49
4.0
 74
     0
 49
-0.6
 74
     0
 49
0.3
 74
     0
 49
-0.6
 74
     0
  0
LTYPE
  5
1626
330
846
100
AcDbSymbolTableRecord
100
AcDbLinetypeTableRecord
  2
HIDDEN
 70
     0
  3
Hidden __ __ __ __ __ __ __ __ __ __ __ __ __ _
 72
    65
 73
     2
 40
0.375
 49
0.25
 74
     0
 49
-0.125
 74
     0
  0
LTYPE
  5
1627
330
846
100
AcDbSymbolTableRecord
100
AcDbLinetypeTableRecord
  2
PHANTOM2
 70
     0
  3
Phantom (.5x) ___ _ _ ___ _ _ ___ _ _ ___ _ _
 72
    65
 73
     6
 40
1.25
 49
0.625
 74
     0
 49
-0.125
 74
     0
 49
0.125
 74
     0
 49
-0.125
 74
     0
 49
0.125
 74
     0
 49
-0.125
 74
     0
  0
LTYPE
  5
1628
330
846
100
AcDbSymbolTableRecord
100
AcDbLinetypeTableRecord
  2
CENTER
 70
     0
  3
Center ____ _ ____ _ ____ _ ____ _ ____ _ ____
 72
    65
 73
     4
 40
2.0
 49
1.25
 74
     0
 49
-0.25
 74
     0
 49
0.25
 74
     0
 49
-0.25
 74
     0
  0
LTYPE
  5
1677
330
846
100
AcDbSymbolTableRecord
100
AcDbLinetypeTableRecord
  2
ASULTYPE
 70
     0
  3
実線
 72
    65
 73
     2
 40
3.0
 49
2.5
 74
     0
 49
0.5
 74
     0
  0
LTYPE
  5
1678
330
846
100
AcDbSymbolTableRecord
100
AcDbLinetypeTableRecord
  2
ASVLTYPE
 70
     0
  3
__ __ __ __ __ __ __ __ __ __ __ __ __ __ __ __ __ __ __ __ __
 72
    65
 73
     2
 40
0.75
 49
0.5
 74
     0
 49
-0.25
 74
     0
  0
LTYPE
  5
16BF
330
846
100
AcDbSymbolTableRecord
100
AcDbLinetypeTableRecord
  2
AM_ISO02W050
 70
     0
  3
__ __ __ __ __ __ __ __ __ __ __ __ __ __ __
 72
    65
 73
     2
 40
7.5
 49
6.0
 74
     0
 49
-1.5
 74
     0
  0
LTYPE
  5
16C0
330
846
100
AcDbSymbolTableRecord
100
AcDbLinetypeTableRecord
  2
AM_ISO08W050
 70
     0
  3
____ . ____ . ____ . ____ . ____ . ____ . ____
 72
    65
 73
     4
 40
18.0
 49
12.0
 74
     0
 49
-1.5
 74
     0
 49
3.0
 74
     0
 49
-1.5
 74
     0
  0
LTYPE
  5
16C1
330
846
100
AcDbSymbolTableRecord
100
AcDbLinetypeTableRecord
  2
AM_ISO09W050
 70
     0
  3
_____ . . _____ . . _____ . . ____ .. ____
 72
    65
 73
     6
 40
22.5
 49
12.0
 74
     0
 49
-1.5
 74
     0
 49
3.0
 74
     0
 49
-1.5
 74
     0
 49
3.0
 74
     0
 49
-1.5
 74
     0
  0
LTYPE
  5
16C2
330
846
100
AcDbSymbolTableRecord
100
AcDbLinetypeTableRecord
  2
Amconstr
 70
     0
  3
_______________________
 72
    65
 73
     2
 40
9999.0
 49
9999.0
 74
     0
 49
0.0
 74
     0
  0
LTYPE
  5
16C3
330
846
100
AcDbSymbolTableRecord
100
AcDbLinetypeTableRecord
  2
AM_ISO08W050x2
 70
     0
  3
__ . __ . __ . __ . __ . __
 72
    65
 73
     4
 40
9.0
 49
6.0
 74
     0
 49
-0.75
 74
     0
 49
1.5
 74
     0
 49
-0.75
 74
     0
  0
LTYPE
  5
16C4
330
846
100
AcDbSymbolTableRecord
100
AcDbLinetypeTableRecord
  2
AM_ISO02W050x2
 70
     0
  3
 _ _ _ _ _ _ _ _ _ _ _ _
 72
    65
 73
     2
 40
3.75
 49
3.0
 74
     0
 49
-0.75
 74
     0
  0
LTYPE
  5
16C7
330
846
100
AcDbSymbolTableRecord
100
AcDbLinetypeTableRecord
  2
Amzigzag
 70
     0
  3
/\/-/\/-/\/-/\/-/\/-/\/
 72
    65
 73
     2
 40
11.0001
 49
0.0001
 74
     4
 75
   136
340
16C6
 46
0.04
 50
0.0
 44
0.0
 45
0.0
 49
-11.0
 74
     0
  0
LTYPE
  5
16C8
330
846
100
AcDbSymbolTableRecord
100
AcDbLinetypeTableRecord
  2
CENTER2
 70
     0
  3
Center (.5x) ___ _ ___ _ ___ _ ___ _ ___ _ ___
 72
    65
 73
     4
 40
1.125
 49
0.75
 74
     0
 49
-0.125
 74
     0
 49
0.125
 74
     0
 49
-0.125
 74
     0
  0
LTYPE
  5
16C9
330
846
100
AcDbSymbolTableRecord
100
AcDbLinetypeTableRecord
  2
HIDDEN2
 70
     0
  3
Hidden (.5x) _ _ _ _ _ _ _ _ _ _ _ _ _ _ _ _ _
 72
    65
 73
     2
 40
0.1875
 49
0.125
 74
     0
 49
-0.0625
 74
     0
  0
LTYPE
  5
16CA
330
846
100
AcDbSymbolTableRecord
100
AcDbLinetypeTableRecord
  2
Amzigzag2
 70
     0
  3
/\/-/\/-/\/-/\/-/\/-/\/
 72
    65
 73
     2
 40
0.4401
 49
0.0001
 74
     4
 75
   136
340
16C6
 46
0.0016
 50
0.0
 44
0.0
 45
0.0
 49
-0.4400000000000003
 74
     0
  0
LTYPE
  5
16D8
330
846
100
AcDbSymbolTableRecord
100
AcDbLinetypeTableRecord
  2
ACANSTGB
 70
     0
  3
__ . . __ . .
 72
    65
 73
     6
 40
0.35433070866
 49
0.15748031496
 74
     0
 49
-0.03937007874
 74
     0
 49
0.03937007874
 74
     0
 49
-0.03937007874
 74
     0
 49
0.03937007874
 74
     0
 49
-0.03937007874
 74
     0
  0
LTYPE
  5
16D9
330
846
100
AcDbSymbolTableRecord
100
AcDbLinetypeTableRecord
  2
ACANSTGL
 70
     0
  3
_ _ _ _ _
 72
    65
 73
     2
 40
0.11811023622
 49
0.07874015748
 74
     0
 49
-0.03937007874
 74
     0
  0
ENDTAB
  0
TABLE
  2
LAYER
  5
843
102
{ACAD_XDICTIONARY
360
1AA7
102
}
330
0
100
AcDbSymbolTable
 70
    12
  0
LAYER
  5
851
102
{ACAD_XDICTIONARY
360
190C
102
}
330
843
100
AcDbSymbolTableRecord
100
AcDbLayerTableRecord
  2
0
 70
     0
 62
     7
  6
CONTINUOUS
370
    -3
390
B83
  0
LAYER
  5
863
102
{ACAD_XDICTIONARY
360
190E
102
}
330
843
100
AcDbSymbolTableRecord
100
AcDbLayerTableRecord
  2
OUTLINE
 70
     0
 62
     3
  6
CONTINUOUS
370
    -3
390
B83
  0
LAYER
  5
866
102
{ACAD_XDICTIONARY
360
1910
102
}
330
843
100
AcDbSymbolTableRecord
100
AcDbLayerTableRecord
  2
SIZE
 70
     0
 62
    30
  6
CONTINUOUS
370
    -3
390
B83
  0
LAYER
  5
867
102
{ACAD_XDICTIONARY
360
1912
102
}
330
843
100
AcDbSymbolTableRecord
100
AcDbLayerTableRecord
  2
BASIS
 70
     0
 62
     6
  6
DASHDOT
370
    -3
390
B83
  0
LAYER
  5
868
102
{ACAD_XDICTIONARY
360
1914
102
}
330
843
100
AcDbSymbolTableRecord
100
AcDbLayerTableRecord
  2
DETAIL
 70
     0
 62
     5
  6
CONTINUOUS
370
    -3
390
B83
  0
LAYER
  5
869
102
{ACAD_XDICTIONARY
360
1916
102
}
330
843
100
AcDbSymbolTableRecord
100
AcDbLayerTableRecord
  2
ARRANGE
 70
     0
 62
     1
  6
CONTINUOUS
370
    -3
390
B83
  0
LAYER
  5
86A
330
843
100
AcDbSymbolTableRecord
100
AcDbLayerTableRecord
  2
DEFPOINTS
 70
     0
 62
     7
  6
CONTINUOUS
290
     0
370
    -3
390
B83
  0
LAYER
  5
86B
102
{ACAD_XDICTIONARY
360
1918
102
}
330
843
100
AcDbSymbolTableRecord
100
AcDbLayerTableRecord
  2
ETC
 70
     0
 62
    61
  6
CONTINUOUS
370
    -3
390
B83
  0
LAYER
  5
86C
102
{ACAD_XDICTIONARY
360
191A
102
}
330
843
100
AcDbSymbolTableRecord
100
AcDbLayerTableRecord
  2
FIX
 70
     0
 62
    11
  6
CONTINUOUS
370
    -3
390
B83
  0
LAYER
  5
86D
102
{ACAD_XDICTIONARY
360
191C
102
}
330
843
100
AcDbSymbolTableRecord
100
AcDbLayerTableRecord
  2
NOTE
 70
     0
 62
     4
  6
CONTINUOUS
370
    -3
390
B83
  0
LAYER
  5
86E
102
{ACAD_XDICTIONARY
360
191E
102
}
330
843
100
AcDbSymbolTableRecord
100
AcDbLayerTableRecord
  2
SERVICESPACE
 70
     0
 62
     2
  6
DASHDOT
370
    -3
390
B83
  0
LAYER
  5
86F
102
{ACAD_XDICTIONARY
360
1920
102
}
330
843
100
AcDbSymbolTableRecord
100
AcDbLayerTableRecord
  2
SYMBOLLINE
 70
     0
 62
    15
  6
CONTINUOUS
370
    -3
390
B83
  0
ENDTAB
  0
TABLE
  2
STYLE
  5
844
330
0
100
AcDbSymbolTable
 70
     5
  0
STYLE
  5
852
330
844
100
AcDbSymbolTableRecord
100
AcDbTextStyleTableRecord
  2
STANDARD
 70
     0
 40
64.0
 41
0.9
 50
0.0
 71
     0
 42
64.0
  3
SIMPLEX.shx
  4
BIGFONT.shx
  0
STYLE
  5
16C6
330
844
100
AcDbSymbolTableRecord
100
AcDbTextStyleTableRecord
  2

 70
     1
 40
0.0
 41
1.0
 50
0.0
 71
     0
 42
64.0
  3
genltshp.shx
  4

  0
STYLE
  5
16CB
330
844
100
AcDbSymbolTableRecord
100
AcDbTextStyleTableRecord
  2
ACANSTS
 70
     0
 40
1.0
 41
1.0
 50
0.0
 71
     0
 42
64.0
  3
romans.shx
  4
extfont.shx
  0
STYLE
  5
16D7
330
844
100
AcDbSymbolTableRecord
100
AcDbTextStyleTableRecord
  2
ACANSGDT
 70
     0
 40
0.0
 41
1.0
 50
0.0
 71
     0
 42
64.0
  3
amgdt.shx
  4

  0
STYLE
  5
1AA2
330
844
100
AcDbSymbolTableRecord
100
AcDbTextStyleTableRecord
  2
ADESK1
 70
     0
 40
0.0
 41
1.0
 50
0.0
 71
     0
 42
0.12
  3
romanc.shx
  4
extfont.shx
  0
ENDTAB
  0
TABLE
  2
VIEW
  5
847
330
0
100
AcDbSymbolTable
 70
     1
  0
VIEW
  5
870
330
847
100
AcDbSymbolTableRecord
100
AcDbViewTableRecord
  2
ALL
 70
     0
 40
4282.619807999997
 10
0.0
 20
41.30990399999999
 41
5940.0
 11
0.0
 21
0.0
 31
1.0
 12
0.0
 22
0.0
 32
0.0
 42
50.0
 43
0.0
 44
0.0
 50
0.0
 71
     0
281
     0
 72
     0
  0
ENDTAB
  0
TABLE
  2
UCS
  5
848
330
0
100
AcDbSymbolTable
 70
     0
  0
ENDTAB
  0
TABLE
  2
APPID
  5
84A
330
0
100
AcDbSymbolTable
 70
    23
  0
APPID
  5
853
330
84A
100
AcDbSymbolTableRecord
100
AcDbRegAppTableRecord
  2
ACAD
 70
     0
  0
APPID
  5
15F2
330
84A
100
AcDbSymbolTableRecord
100
AcDbRegAppTableRecord
  2
GENIUS_GENDIM_13
 70
     0
  0
APPID
  5
15F3
330
84A
100
AcDbSymbolTableRecord
100
AcDbRegAppTableRecord
  2
GENIUS_GENDTOL_13
 70
     0
  0
APPID
  5
15F4
330
84A
100
AcDbSymbolTableRecord
100
AcDbRegAppTableRecord
  2
GENIUS_GE3DTOL_13
 70
     0
  0
APPID
  5
15F7
330
84A
100
AcDbSymbolTableRecord
100
AcDbRegAppTableRecord
  2
MCAD_NO_VIS
 70
     0
  0
APPID
  5
15F8
330
84A
100
AcDbSymbolTableRecord
100
AcDbRegAppTableRecord
  2
ACAD_TEMP_GRAPHIC
 70
     0
  0
APPID
  5
162A
330
84A
100
AcDbSymbolTableRecord
100
AcDbRegAppTableRecord
  2
AD_DRAW
 70
     0
  0
APPID
  5
162D
330
84A
100
AcDbSymbolTableRecord
100
AcDbRegAppTableRecord
  2
ACATTRIBSERVICES
 70
     0
  0
APPID
  5
1679
330
84A
100
AcDbSymbolTableRecord
100
AcDbRegAppTableRecord
  2
ASURF_PCURVE_APPNAME
 70
     0
  0
APPID
  5
167E
330
84A
100
AcDbSymbolTableRecord
100
AcDbRegAppTableRecord
  2
AMG_3D2D_5.0
 70
     0
  0
APPID
  5
16AF
330
84A
100
AcDbSymbolTableRecord
100
AcDbRegAppTableRecord
  2
DESIGNERASSEMBLIES
 70
     0
  0
APPID
  5
16B6
330
84A
100
AcDbSymbolTableRecord
100
AcDbRegAppTableRecord
  2
ACADM_DIM_EDIT
 70
     0
  0
APPID
  5
16B7
330
84A
100
AcDbSymbolTableRecord
100
AcDbRegAppTableRecord
  2
AMDT_DM_ADJ
 70
     0
  0
APPID
  5
16E6
330
84A
100
AcDbSymbolTableRecord
100
AcDbRegAppTableRecord
  2
ACAD_DSTYLE_DIMARC_LENGTH_SYMBOL
 70
     0
  0
APPID
  5
16E7
330
84A
100
AcDbSymbolTableRecord
100
AcDbRegAppTableRecord
  2
ACAD_DSTYLE_DIMJOGGED_JOGANGLE_SYMBOL
 70
     0
  0
APPID
  5
181E
330
84A
100
AcDbSymbolTableRecord
100
AcDbRegAppTableRecord
  2
ACAD_PSEXT
 70
     0
  0
APPID
  5
18B7
330
84A
100
AcDbSymbolTableRecord
100
AcDbRegAppTableRecord
  2
ACAD_MLEADERVER
 70
     0
  0
APPID
  5
1A70
330
84A
100
AcDbSymbolTableRecord
100
AcDbRegAppTableRecord
  2
ACAD_EXEMPT_FROM_CAD_STANDARDS
 70
     0
  0
APPID
  5
1AA5
330
84A
100
AcDbSymbolTableRecord
100
AcDbRegAppTableRecord
  2
ACAD_DSTYLE_DIMJAG
 70
     0
  0
APPID
  5
1AA6
330
84A
100
AcDbSymbolTableRecord
100
AcDbRegAppTableRecord
  2
ACAD_DSTYLE_DIMTALN
 70
     0
  0
APPID
  5
1CFC
330
84A
100
AcDbSymbolTableRecord
100
AcDbRegAppTableRecord
  2
ACAD_DSTYLE_DIM_LINETYPE
 70
     0
  0
APPID
  5
1CFD
330
84A
100
AcDbSymbolTableRecord
100
AcDbRegAppTableRecord
  2
ACAD_DSTYLE_DIM_EXT1_LINETYPE
 70
     0
  0
APPID
  5
1CFE
330
84A
100
AcDbSymbolTableRecord
100
AcDbRegAppTableRecord
  2
ACAD_DSTYLE_DIM_EXT2_LINETYPE
 70
     0
  0
ENDTAB
  0
TABLE
  2
DIMSTYLE
  5
84B
330
0
100
AcDbSymbolTable
 70
     9
100
AcDbDimStyleTable
 71
     2
340
16E5
340
871
  0
DIMSTYLE
105
871
330
84B
100
AcDbSymbolTableRecord
100
AcDbDimStyleTableRecord
  2
STANDARD
 70
     0
275
     1
284
     8
285
     8
286
     8
340
852
  0
DIMSTYLE
105
16E5
330
84B
100
AcDbSymbolTableRecord
100
AcDbDimStyleTableRecord
  2
AM_ANSI
 70
     0
  4
mm
 41
0.12
 42
0.05
 43
0.5
 44
0.1
 47
0.1
 48
0.1
 78
     7
 79
     2
140
0.12
141
0.0
146
0.71
147
0.06
176
   256
177
   256
178
     2
274
     4
284
     7
340
852
371
    -1
372
    -1
1001
ACAD_DSTYLE_DIMJOGGED_JOGANGLE_SYMBOL
1070
   384
1040
0.7853981633974483
1001
ACAD_DSTYLE_DIMARC_LENGTH_SYMBOL
1070
   379
1070
     1
1001
ACAD_DSTYLE_DIM_LINETYPE
1070
   380
1005
854
1001
ACAD_DSTYLE_DIM_EXT1_LINETYPE
1070
   381
1005
854
1001
ACAD_DSTYLE_DIM_EXT2_LINETYPE
1070
   382
1005
854
  0
DIMSTYLE
105
16EE
330
84B
100
AcDbSymbolTableRecord
100
AcDbDimStyleTableRecord
  2
AM_ANSI$3
 70
     0
  4
mm
 41
0.12
 42
0.05
 43
0.5
 44
0.1
 47
0.1
 48
0.1
 78
     7
 79
     2
140
0.12
141
0.0
146
0.71
147
0.06
176
   256
177
   256
178
     2
274
     4
284
     7
288
     1
289
     0
340
852
371
    -1
372
    -1
1001
ACAD_DSTYLE_DIMJOGGED_JOGANGLE_SYMBOL
1070
   384
1040
0.7853981633974483
1001
ACAD_DSTYLE_DIMARC_LENGTH_SYMBOL
1070
   379
1070
     1
1001
ACAD_DSTYLE_DIM_LINETYPE
1070
   380
1005
854
1001
ACAD_DSTYLE_DIM_EXT1_LINETYPE
1070
   381
1005
854
1001
ACAD_DSTYLE_DIM_EXT2_LINETYPE
1070
   382
1005
854
  0
DIMSTYLE
105
16F1
330
84B
100
AcDbSymbolTableRecord
100
AcDbDimStyleTableRecord
  2
AM_ANSI$4
 70
     0
  4
mm
 41
0.12
 42
0.05
 43
0.5
 44
0.1
 47
0.1
 48
0.1
 78
     7
 79
     2
140
0.12
141
0.0
146
0.71
147
0.06
176
   256
177
   256
178
     2
274
     4
284
     7
340
852
371
    -1
372
    -1
1001
ACAD_DSTYLE_DIMJOGGED_JOGANGLE_SYMBOL
1070
   384
1040
0.7853981633974483
1001
ACAD_DSTYLE_DIMARC_LENGTH_SYMBOL
1070
   379
1070
     1
1001
ACAD_DSTYLE_DIM_LINETYPE
1070
   380
1005
854
1001
ACAD_DSTYLE_DIM_EXT1_LINETYPE
1070
   381
1005
854
1001
ACAD_DSTYLE_DIM_EXT2_LINETYPE
1070
   382
1005
854
  0
DIMSTYLE
105
16F6
330
84B
100
AcDbSymbolTableRecord
100
AcDbDimStyleTableRecord
  2
AM_ANSI$7
 70
     0
  4
mm
 41
0.12
 42
0.05
 43
0.5
 44
0.1
 47
0.1
 48
0.1
 78
     7
 79
     2
140
0.12
141
0.0
146
0.71
147
0.06
176
   256
177
   256
178
     2
274
     4
284
     7
340
852
371
    -1
372
    -1
1001
ACAD_DSTYLE_DIMJOGGED_JOGANGLE_SYMBOL
1070
   384
1040
0.7853981633974483
1001
ACAD_DSTYLE_DIMARC_LENGTH_SYMBOL
1070
   379
1070
     1
1001
ACAD_DSTYLE_DIM_LINETYPE
1070
   380
1005
854
1001
ACAD_DSTYLE_DIM_EXT1_LINETYPE
1070
   381
1005
854
1001
ACAD_DSTYLE_DIM_EXT2_LINETYPE
1070
   382
1005
854
  0
DIMSTYLE
105
16F9
330
84B
100
AcDbSymbolTableRecord
100
AcDbDimStyleTableRecord
  2
AM_ANSI$SF
 70
     0
  4
mm
 41
0.12
 42
0.05
 43
0.5
 44
0.1
 47
0.1
 48
0.1
 75
     1
 76
     1
 78
     7
 79
     2
140
0.12
141
0.0
146
0.71
147
0.06
176
   256
177
   256
178
     2
274
     4
284
     7
340
852
371
    -1
372
    -1
1001
ACAD_DSTYLE_DIMJOGGED_JOGANGLE_SYMBOL
1070
   384
1040
0.7853981633974483
1001
ACAD_DSTYLE_DIMARC_LENGTH_SYMBOL
1070
   379
1070
     1
1001
ACAD_DSTYLE_DIM_LINETYPE
1070
   380
1005
854
1001
ACAD_DSTYLE_DIM_EXT1_LINETYPE
1070
   381
1005
854
1001
ACAD_DSTYLE_DIM_EXT2_LINETYPE
1070
   382
1005
854
  0
DIMSTYLE
105
1700
330
84B
100
AcDbSymbolTableRecord
100
AcDbDimStyleTableRecord
  2
AM_ANSI$SH
 70
     0
  4
mm
 41
0.12
 42
0.05
 43
0.5
 44
0.1
 47
0.1
 48
0.1
 75
     1
 76
     1
 78
     7
 79
     2
140
0.12
141
0.0
146
0.71
147
0.06
173
     1
176
   256
177
   256
178
     2
274
     4
284
     7
340
852
343
16FA
371
    -1
372
    -1
1001
ACAD_DSTYLE_DIMJOGGED_JOGANGLE_SYMBOL
1070
   384
1040
0.7853981633974483
1001
ACAD_DSTYLE_DIMARC_LENGTH_SYMBOL
1070
   379
1070
     1
1001
ACAD_DSTYLE_DIM_LINETYPE
1070
   380
1005
854
1001
ACAD_DSTYLE_DIM_EXT1_LINETYPE
1070
   381
1005
854
1001
ACAD_DSTYLE_DIM_EXT2_LINETYPE
1070
   382
1005
854
  0
DIMSTYLE
105
1AA3
330
84B
100
AcDbSymbolTableRecord
100
AcDbDimStyleTableRecord
  2
STANDARD1
 70
     0
 40
6.0
 41
2.5
 42
0.625
 43
6.0
 44
1.25
 47
1.0
 48
0.5
 77
     1
 78
     8
140
2.5
141
0.0
146
0.6
147
1.0
173
     1
284
     1
340
852
341
1A78
343
1A78
344
1A78
  0
DIMSTYLE
105
1AA4
102
{ACAD_REACTORS
330
263E
330
263F
330
2640
330
2641
102
}
330
84B
100
AcDbSymbolTableRecord
100
AcDbDimStyleTableRecord
  2
STANDARD$0
 70
     0
 41
12.0
 42
20.0
 44
20.0
 73
     0
 74
     0
 77
     1
 78
     9
140
64.0
141
0.0
147
10.0
271
     0
272
     0
275
     1
284
     8
285
     8
286
     8
340
852
341
1A78
342
AB2
1001
ACAD_DSTYLE_DIMJAG
1070
   388
1040
1.5
1001
ACAD_DSTYLE_DIMTALN
1070
   392
1070
     0
  0
ENDTAB
  0
TABLE
  2
BLOCK_RECORD
  5
842
330
0
100
AcDbSymbolTable
 70
    38
  0
BLOCK_RECORD
  5
85F
102
{ACAD_XDICTIONARY
360
B4F
102
}
330
842
100
AcDbSymbolTableRecord
100
AcDbBlockTableRecord
  2
*MODEL_SPACE
340
B84
  0
BLOCK_RECORD
  5
85B
102
{ACAD_XDICTIONARY
360
B4D
102
}
330
842
100
AcDbSymbolTableRecord
100
AcDbBlockTableRecord
  2
*PAPER_SPACE
340
B85
  0
BLOCK_RECORD
  5
87E
330
842
100
AcDbSymbolTableRecord
100
AcDbBlockTableRecord
  2
_ORIGIN
340
0
  0
BLOCK_RECORD
  5
AB2
330
842
100
AcDbSymbolTableRecord
100
AcDbBlockTableRecord
  2
_DOTBLANK
340
0
102
{BLKREFS
331
1546
331
1547
331
154F
331
1550
331
18C5
331
18C6
331
18D7
331
18D8
331
18E9
331
18EA
331
195F
331
1960
331
1982
331
1983
331
1A83
331
1A84
331
1A8F
331
1A90
331
1A9B
331
1A9C
331
1CD8
331
1CD9
331
1CE1
331
1CE2
331
1CEA
331
1CEB
331
1DEA
331
1DEB
331
1DF6
331
1DF7
331
1E02
331
1E03
331
1E0E
331
1E0F
331
1E1A
331
1E1B
331
1E26
331
1E27
331
2059
331
205A
331
2062
331
2063
331
206B
331
206C
331
2074
331
2075
331
207D
331
207E
331
2086
331
2087
331
2379
331
237A
331
2385
331
2386
331
2391
331
2392
331
239D
331
239E
331
264F
331
2650
331
265B
331
265C
331
2667
331
2668
331
2673
331
2674
102
}
  0
BLOCK_RECORD
  5
13BF
330
842
100
AcDbSymbolTableRecord
100
AcDbBlockTableRecord
  2
*D2
340
0
  0
BLOCK_RECORD
  5
13CB
330
842
100
AcDbSymbolTableRecord
100
AcDbBlockTableRecord
  2
*D3
340
0
  0
BLOCK_RECORD
  5
13D7
330
842
100
AcDbSymbolTableRecord
100
AcDbBlockTableRecord
  2
*D4
340
0
  0
BLOCK_RECORD
  5
13E3
330
842
100
AcDbSymbolTableRecord
100
AcDbBlockTableRecord
  2
*D5
340
0
  0
BLOCK_RECORD
  5
16FA
330
842
100
AcDbSymbolTableRecord
100
AcDbBlockTableRecord
  2
GENAXEH
340
0
  0
BLOCK_RECORD
  5
184A
330
842
100
AcDbSymbolTableRecord
100
AcDbBlockTableRecord
  2
*D7
340
0
  0
BLOCK_RECORD
  5
18BD
330
842
100
AcDbSymbolTableRecord
100
AcDbBlockTableRecord
  2
*D8
340
0
  0
BLOCK_RECORD
  5
1957
330
842
100
AcDbSymbolTableRecord
100
AcDbBlockTableRecord
  2
*D9
340
0
  0
BLOCK_RECORD
  5
1A78
330
842
100
AcDbSymbolTableRecord
100
AcDbBlockTableRecord
  2
_Open30
340
0
  0
BLOCK_RECORD
  5
1A7E
330
842
100
AcDbSymbolTableRecord
100
AcDbBlockTableRecord
  2
*D11
340
0
  0
BLOCK_RECORD
  5
1A8A
330
842
100
AcDbSymbolTableRecord
100
AcDbBlockTableRecord
  2
*D12
340
0
  0
BLOCK_RECORD
  5
1A96
330
842
100
AcDbSymbolTableRecord
100
AcDbBlockTableRecord
  2
*D13
340
0
  0
BLOCK_RECORD
  5
1CB1
330
842
100
AcDbSymbolTableRecord
100
AcDbBlockTableRecord
  2
*D14
340
0
  0
BLOCK_RECORD
  5
1CBD
330
842
100
AcDbSymbolTableRecord
100
AcDbBlockTableRecord
  2
*D15
340
0
  0
BLOCK_RECORD
  5
1CC9
330
842
100
AcDbSymbolTableRecord
100
AcDbBlockTableRecord
  2
*D16
340
0
  0
BLOCK_RECORD
  5
1DE5
330
842
100
AcDbSymbolTableRecord
100
AcDbBlockTableRecord
  2
*D17
340
0
  0
BLOCK_RECORD
  5
1DF1
330
842
100
AcDbSymbolTableRecord
100
AcDbBlockTableRecord
  2
*D18
340
0
  0
BLOCK_RECORD
  5
1DFD
330
842
100
AcDbSymbolTableRecord
100
AcDbBlockTableRecord
  2
*D19
340
0
  0
BLOCK_RECORD
  5
1E09
330
842
100
AcDbSymbolTableRecord
100
AcDbBlockTableRecord
  2
*D20
340
0
  0
BLOCK_RECORD
  5
1E15
330
842
100
AcDbSymbolTableRecord
100
AcDbBlockTableRecord
  2
*D21
340
0
  0
BLOCK_RECORD
  5
1E21
330
842
100
AcDbSymbolTableRecord
100
AcDbBlockTableRecord
  2
*D22
340
0
  0
BLOCK_RECORD
  5
200E
330
842
100
AcDbSymbolTableRecord
100
AcDbBlockTableRecord
  2
*D23
340
0
  0
BLOCK_RECORD
  5
201A
330
842
100
AcDbSymbolTableRecord
100
AcDbBlockTableRecord
  2
*D24
340
0
  0
BLOCK_RECORD
  5
2026
330
842
100
AcDbSymbolTableRecord
100
AcDbBlockTableRecord
  2
*D25
340
0
  0
BLOCK_RECORD
  5
2032
330
842
100
AcDbSymbolTableRecord
100
AcDbBlockTableRecord
  2
*D26
340
0
  0
BLOCK_RECORD
  5
203E
330
842
100
AcDbSymbolTableRecord
100
AcDbBlockTableRecord
  2
*D27
340
0
  0
BLOCK_RECORD
  5
204A
330
842
100
AcDbSymbolTableRecord
100
AcDbBlockTableRecord
  2
*D28
340
0
  0
BLOCK_RECORD
  5
2374
330
842
100
AcDbSymbolTableRecord
100
AcDbBlockTableRecord
  2
*D29
340
0
  0
BLOCK_RECORD
  5
2380
330
842
100
AcDbSymbolTableRecord
100
AcDbBlockTableRecord
  2
*D30
340
0
  0
BLOCK_RECORD
  5
238C
330
842
100
AcDbSymbolTableRecord
100
AcDbBlockTableRecord
  2
*D31
340
0
  0
BLOCK_RECORD
  5
2398
330
842
100
AcDbSymbolTableRecord
100
AcDbBlockTableRecord
  2
*D32
340
0
  0
BLOCK_RECORD
  5
2649
330
842
100
AcDbSymbolTableRecord
100
AcDbBlockTableRecord
  2
*D33
340
0
  0
BLOCK_RECORD
  5
2655
330
842
100
AcDbSymbolTableRecord
100
AcDbBlockTableRecord
  2
*D34
340
0
  0
BLOCK_RECORD
  5
2661
330
842
100
AcDbSymbolTableRecord
100
AcDbBlockTableRecord
  2
*D35
340
0
  0
BLOCK_RECORD
  5
266D
330
842
100
AcDbSymbolTableRecord
100
AcDbBlockTableRecord
  2
*D36
340
0
  0
ENDTAB
  0
ENDSEC
  0
SECTION
  2
BLOCKS
  0
BLOCK
  5
860
330
85F
100
AcDbEntity
  8
0
100
AcDbBlockBegin
  2
*MODEL_SPACE
 70
     0
 10
0.0
 20
0.0
 30
0.0
  3
*MODEL_SPACE
  1

  0
ENDBLK
  5
861
330
85F
100
AcDbEntity
  8
0
100
AcDbBlockEnd
  0
BLOCK
  5
85C
330
85B
100
AcDbEntity
 67
     1
  8
0
100
AcDbBlockBegin
  2
*PAPER_SPACE
 70
     0
 10
0.0
 20
0.0
 30
0.0
  3
*PAPER_SPACE
  1

  0
ENDBLK
  5
85D
330
85B
100
AcDbEntity
 67
     1
  8
0
100
AcDbBlockEnd
  0
BLOCK
  5
87F
330
87E
100
AcDbEntity
  8
0
100
AcDbBlockBegin
  2
_ORIGIN
 70
     0
 10
0.0
 20
0.0
 30
0.0
  3
_ORIGIN
  1

  0
CIRCLE
  5
880
330
87E
100
AcDbEntity
  8
0
  6
Continuous
 62
     7
100
AcDbCircle
 10
0.0
 20
0.0
 30
0.0
 40
0.5
  0
LINE
  5
881
330
87E
100
AcDbEntity
  8
0
  6
Continuous
 62
     7
100
AcDbLine
 10
0.0
 20
0.0
 30
0.0
 11
-1.0
 21
0.0
 31
0.0
  0
ENDBLK
  5
882
330
87E
100
AcDbEntity
  8
0
100
AcDbBlockEnd
  0
BLOCK
  5
AB5
330
AB2
100
AcDbEntity
  8
0
 62
     1
100
AcDbBlockBegin
  2
_DOTBLANK
 70
     0
 10
0.0
 20
0.0
 30
0.0
  3
_DOTBLANK
  1

  0
CIRCLE
  5
AB3
330
AB2
100
AcDbEntity
  8
0
  6
ByBlock
 62
     0
100
AcDbCircle
 10
0.0
 20
0.0
 30
0.0
 40
0.5
  0
LINE
  5
AB4
330
AB2
100
AcDbEntity
  8
0
  6
ByBlock
 62
     0
100
AcDbLine
 10
-0.5
 20
0.0
 30
0.0
 11
-1.0
 21
0.0
 31
0.0
  0
ENDBLK
  5
AB6
330
AB2
100
AcDbEntity
  8
0
 62
     1
100
AcDbBlockEnd
  0
BLOCK
  5
13C9
330
13BF
100
AcDbEntity
  8
0
100
AcDbBlockBegin
  2
*D2
 70
     1
 10
0.0
 20
0.0
 30
0.0
  3
*D2
  1

  0
LINE
  5
18E6
330
13BF
100
AcDbEntity
  8
SIZE
  6
Continuous
 62
     0
370
    -2
100
AcDbLine
 10
-143.4999999999999
 20
300.0
 30
0.0
 11
-234.6555151615446
 21
300.0
 31
0.0
  0
LINE
  5
18E7
330
13BF
100
AcDbEntity
  8
SIZE
  6
Continuous
 62
     0
370
    -2
100
AcDbLine
 10
-143.4999999999999
 20
75.0
 30
0.0
 11
-234.6555151615447
 21
75.00000000000003
 31
0.0
  0
LINE
  5
18E8
330
13BF
100
AcDbEntity
  8
SIZE
  6
Continuous
 62
     0
370
    -2
100
AcDbLine
 10
-214.6555151615446
 20
288.0000000000001
 30
0.0
 11
-214.6555151615447
 21
87.00000000000001
 31
0.0
  0
INSERT
  5
18E9
330
13BF
100
AcDbEntity
  8
SIZE
  6
Continuous
 62
     0
370
    -2
100
AcDbBlockReference
  2
_DOTBLANK
 10
-214.6555151615446
 20
300.0
 30
0.0
 41
12.0
 42
12.0
 43
12.0
 50
90.0
  0
INSERT
  5
18EA
330
13BF
100
AcDbEntity
  8
SIZE
  6
Continuous
 62
     0
370
    -2
100
AcDbBlockReference
  2
_DOTBLANK
 10
-214.6555151615447
 20
75.00000000000001
 30
0.0
 41
12.0
 42
12.0
 43
12.0
 50
270.0
  0
MTEXT
  5
18EB
330
13BF
100
AcDbEntity
  8
SIZE
  6
Continuous
 62
     0
100
AcDbMText
 10
-256.6555151615447
 20
187.5
 30
0.0
 40
64.0
 41
0.0
 71
     5
 72
     1
  1
\A1;225
 11
0.0000000000000001
 21
1.0
 31
0.0
 73
     1
 44
1.0
  0
POINT
  5
18EC
330
13BF
100
AcDbEntity
  8
DEFPOINTS
  6
Continuous
 62
     0
100
AcDbPoint
 10
-123.4999999999999
 20
300.0
 30
0.0
  0
POINT
  5
18ED
330
13BF
100
AcDbEntity
  8
DEFPOINTS
  6
Continuous
 62
     0
100
AcDbPoint
 10
-123.4999999999999
 20
75.0
 30
0.0
  0
POINT
  5
18EE
330
13BF
100
AcDbEntity
  8
DEFPOINTS
  6
Continuous
 62
     0
100
AcDbPoint
 10
-214.6555151615447
 20
75.00000000000001
 30
0.0
  0
ENDBLK
  5
13CA
330
13BF
100
AcDbEntity
  8
0
100
AcDbBlockEnd
  0
BLOCK
  5
13D5
330
13CB
100
AcDbEntity
  8
0
100
AcDbBlockBegin
  2
*D3
 70
     1
 10
0.0
 20
0.0
 30
0.0
  3
*D3
  1

  0
LINE
  5
197F
330
13CB
100
AcDbEntity
  8
SIZE
  6
Continuous
 62
     0
370
    -2
100
AcDbLine
 10
134.5
 20
320.0
 30
0.0
 11
134.5000000000002
 21
411.6593666390436
 31
0.0
  0
LINE
  5
1980
330
13CB
100
AcDbEntity
  8
SIZE
  6
Continuous
 62
     0
370
    -2
100
AcDbLine
 10
-134.4999999999999
 20
320.0000000000001
 30
0.0
 11
-134.4999999999997
 21
411.6593666390442
 31
0.0
  0
LINE
  5
1981
330
13CB
100
AcDbEntity
  8
SIZE
  6
Continuous
 62
     0
370
    -2
100
AcDbLine
 10
122.5000000000001
 20
391.6593666390438
 30
0.0
 11
-122.4999999999997
 21
391.6593666390442
 31
0.0
  0
INSERT
  5
1982
330
13CB
100
AcDbEntity
  8
SIZE
  6
Continuous
 62
     0
370
    -2
100
AcDbBlockReference
  2
_DOTBLANK
 10
134.5000000000001
 20
391.6593666390438
 30
0.0
 41
12.0
 42
12.0
 43
12.0
 50
359.9999999999998
  0
INSERT
  5
1983
330
13CB
100
AcDbEntity
  8
SIZE
  6
Continuous
 62
     0
370
    -2
100
AcDbBlockReference
  2
_DOTBLANK
 10
-134.4999999999997
 20
391.6593666390442
 30
0.0
 41
12.0
 42
12.0
 43
12.0
 50
179.9999999999999
  0
MTEXT
  5
1984
330
13CB
100
AcDbEntity
  8
SIZE
  6
Continuous
 62
     0
100
AcDbMText
 10
0.0000000000002755
 20
433.659366639044
 30
0.0
 40
64.0
 41
0.0
 71
     5
 72
     1
  1
\A1;269
 73
     1
 44
1.0
  0
POINT
  5
1985
330
13CB
100
AcDbEntity
  8
DEFPOINTS
  6
Continuous
 62
     0
100
AcDbPoint
 10
134.5
 20
300.0
 30
0.0
  0
POINT
  5
1986
330
13CB
100
AcDbEntity
  8
DEFPOINTS
  6
Continuous
 62
     0
100
AcDbPoint
 10
-134.4999999999999
 20
300.0
 30
0.0
  0
POINT
  5
1987
330
13CB
100
AcDbEntity
  8
DEFPOINTS
  6
Continuous
 62
     0
100
AcDbPoint
 10
-134.4999999999997
 20
391.6593666390442
 30
0.0
  0
ENDBLK
  5
13D6
330
13CB
100
AcDbEntity
  8
0
100
AcDbBlockEnd
  0
BLOCK
  5
13E1
330
13D7
100
AcDbEntity
  8
0
100
AcDbBlockBegin
  2
*D4
 70
     1
 10
0.0
 20
0.0
 30
0.0
  3
*D4
  1

  0
LINE
  5
154C
330
13D7
100
AcDbEntity
  8
SIZE
  6
Continuous
 62
     0
370
    -2
100
AcDbLine
 10
139.9999999999999
 20
-32.46448280219374
 30
0.0
 11
139.9999999999997
 21
-180.3320910096175
 31
0.0
  0
LINE
  5
154D
330
13D7
100
AcDbEntity
  8
SIZE
  6
Continuous
 62
     0
370
    -2
100
AcDbLine
 10
-140.0
 20
-32.46448280219374
 30
0.0
 11
-140.0000000000002
 21
-180.332091009617
 31
0.0
  0
LINE
  5
154E
330
13D7
100
AcDbEntity
  8
SIZE
  6
Continuous
 62
     0
370
    -2
100
AcDbLine
 10
127.9999999999997
 20
-160.3320910096176
 30
0.0
 11
-128.0000000000002
 21
-160.3320910096172
 31
0.0
  0
INSERT
  5
154F
330
13D7
100
AcDbEntity
  8
SIZE
  6
Continuous
 62
     0
370
    -2
100
AcDbBlockReference
  2
_DOTBLANK
 10
139.9999999999997
 20
-160.3320910096176
 30
0.0
 41
12.0
 42
12.0
 43
12.0
 50
359.9999999999998
  0
INSERT
  5
1550
330
13D7
100
AcDbEntity
  8
SIZE
  6
Continuous
 62
     0
370
    -2
100
AcDbBlockReference
  2
_DOTBLANK
 10
-140.0000000000002
 20
-160.3320910096171
 30
0.0
 41
12.0
 42
12.0
 43
12.0
 50
179.9999999999999
  0
MTEXT
  5
1551
330
13D7
100
AcDbEntity
  8
SIZE
  6
Continuous
 62
     0
100
AcDbMText
 10
-0.5558776339944723
 20
-118.3320910096174
 30
0.0
 40
64.0
 41
0.0
 71
     5
 72
     1
  1
\A1;280
 73
     1
 44
1.0
  0
POINT
  5
1552
330
13D7
100
AcDbEntity
  8
DEFPOINTS
  6
Continuous
 62
     0
100
AcDbPoint
 10
140.0
 20
-12.46448280219374
 30
0.0
  0
POINT
  5
1553
330
13D7
100
AcDbEntity
  8
DEFPOINTS
  6
Continuous
 62
     0
100
AcDbPoint
 10
-139.9999999999999
 20
-12.46448280219374
 30
0.0
  0
POINT
  5
1554
330
13D7
100
AcDbEntity
  8
DEFPOINTS
  6
Continuous
 62
     0
100
AcDbPoint
 10
-140.0000000000002
 20
-160.3320910096171
 30
0.0
  0
ENDBLK
  5
13E2
330
13D7
100
AcDbEntity
  8
0
100
AcDbBlockEnd
  0
BLOCK
  5
13ED
330
13E3
100
AcDbEntity
  8
0
100
AcDbBlockBegin
  2
*D5
 70
     1
 10
0.0
 20
0.0
 30
0.0
  3
*D5
  1

  0
LINE
  5
1543
330
13E3
100
AcDbEntity
  8
SIZE
  6
Continuous
 62
     0
370
    -2
100
AcDbLine
 10
157.5
 20
-20.0
 30
0.0
 11
157.4999999999994
 21
-298.8865929365173
 31
0.0
  0
LINE
  5
1544
330
13E3
100
AcDbEntity
  8
SIZE
  6
Continuous
 62
     0
370
    -2
100
AcDbLine
 10
-157.5
 20
-20.0
 30
0.0
 11
-157.5000000000005
 21
-298.8865929365167
 31
0.0
  0
LINE
  5
1545
330
13E3
100
AcDbEntity
  8
SIZE
  6
Continuous
 62
     0
370
    -2
100
AcDbLine
 10
145.4999999999995
 20
-278.8865929365173
 30
0.0
 11
-145.5000000000005
 21
-278.8865929365167
 31
0.0
  0
INSERT
  5
1546
330
13E3
100
AcDbEntity
  8
SIZE
  6
Continuous
 62
     0
370
    -2
100
AcDbBlockReference
  2
_DOTBLANK
 10
157.4999999999995
 20
-278.8865929365173
 30
0.0
 41
12.0
 42
12.0
 43
12.0
 50
359.9999999999998
  0
INSERT
  5
1547
330
13E3
100
AcDbEntity
  8
SIZE
  6
Continuous
 62
     0
370
    -2
100
AcDbBlockReference
  2
_DOTBLANK
 10
-157.5000000000005
 20
-278.8865929365167
 30
0.0
 41
12.0
 42
12.0
 43
12.0
 50
179.9999999999999
  0
MTEXT
  5
1548
330
13E3
100
AcDbEntity
  8
SIZE
  6
Continuous
 62
     0
100
AcDbMText
 10
0.0000000000005481
 20
-236.886592936517
 30
0.0
 40
64.0
 41
0.0
 71
     5
 72
     1
  1
\A1;315
 73
     1
 44
1.0
  0
POINT
  5
1549
330
13E3
100
AcDbEntity
  8
DEFPOINTS
  6
Continuous
 62
     0
100
AcDbPoint
 10
157.5
 20
0.0
 30
0.0
  0
POINT
  5
154A
330
13E3
100
AcDbEntity
  8
DEFPOINTS
  6
Continuous
 62
     0
100
AcDbPoint
 10
-157.5
 20
0.0
 30
0.0
  0
POINT
  5
154B
330
13E3
100
AcDbEntity
  8
DEFPOINTS
  6
Continuous
 62
     0
100
AcDbPoint
 10
-157.5000000000005
 20
-278.8865929365167
 30
0.0
  0
ENDBLK
  5
13EE
330
13E3
100
AcDbEntity
  8
0
100
AcDbBlockEnd
  0
BLOCK
  5
16FC
330
16FA
100
AcDbEntity
  8
0
100
AcDbBlockBegin
  2
GENAXEH
 70
     0
 10
0.0
 20
0.0
 30
0.0
  3
GENAXEH
  1

  0
LINE
  5
16FB
330
16FA
100
AcDbEntity
  8
0
100
AcDbLine
 10
-1.0
 20
0.0
 30
0.0
 11
1.0
 21
0.0
 31
0.0
  0
ENDBLK
  5
16FD
330
16FA
100
AcDbEntity
  8
0
100
AcDbBlockEnd
  0
BLOCK
  5
1854
330
184A
100
AcDbEntity
  8
0
100
AcDbBlockBegin
  2
*D7
 70
     1
 10
0.0
 20
0.0
 30
0.0
  3
*D7
  1

  0
LINE
  5
18D4
330
184A
100
AcDbEntity
  8
SIZE
  6
Continuous
 62
     0
370
    -2
100
AcDbLine
 10
-177.5
 20
0.0000000000000057
 30
0.0
 11
-343.6294636086016
 21
0.0000000000000527
 31
0.0
  0
LINE
  5
18D5
330
184A
100
AcDbEntity
  8
SIZE
  6
Continuous
 62
     0
370
    -2
100
AcDbLine
 10
-143.4999999999999
 20
300.0
 30
0.0
 11
-343.6294636086016
 21
300.0
 31
0.0
  0
LINE
  5
18D6
330
184A
100
AcDbEntity
  8
SIZE
  6
Continuous
 62
     0
370
    -2
100
AcDbLine
 10
-323.6294636086015
 20
12.00000000000003
 30
0.0
 11
-323.6294636086015
 21
288.0000000000001
 31
0.0
  0
INSERT
  5
18D7
330
184A
100
AcDbEntity
  8
SIZE
  6
Continuous
 62
     0
370
    -2
100
AcDbBlockReference
  2
_DOTBLANK
 10
-323.6294636086015
 20
0.0000000000000471
 30
0.0
 41
12.0
 42
12.0
 43
12.0
 50
270.0
  0
INSERT
  5
18D8
330
184A
100
AcDbEntity
  8
SIZE
  6
Continuous
 62
     0
370
    -2
100
AcDbBlockReference
  2
_DOTBLANK
 10
-323.6294636086015
 20
300.0
 30
0.0
 41
12.0
 42
12.0
 43
12.0
 50
90.0
  0
MTEXT
  5
18D9
330
184A
100
AcDbEntity
  8
SIZE
  6
Continuous
 62
     0
100
AcDbMText
 10
-365.6294636086016
 20
150.0
 30
0.0
 40
64.0
 41
0.0
 71
     5
 72
     1
  1
\A1;300
 11
0.0000000000000001
 21
1.0
 31
0.0
 73
     1
 44
1.0
  0
POINT
  5
18DA
330
184A
100
AcDbEntity
  8
DEFPOINTS
  6
Continuous
 62
     0
100
AcDbPoint
 10
-157.5
 20
0.0
 30
0.0
  0
POINT
  5
18DB
330
184A
100
AcDbEntity
  8
DEFPOINTS
  6
Continuous
 62
     0
100
AcDbPoint
 10
-123.4999999999999
 20
300.0
 30
0.0
  0
POINT
  5
18DC
330
184A
100
AcDbEntity
  8
DEFPOINTS
  6
Continuous
 62
     0
100
AcDbPoint
 10
-323.6294636086015
 20
300.0
 30
0.0
  0
ENDBLK
  5
1855
330
184A
100
AcDbEntity
  8
0
100
AcDbBlockEnd
  0
BLOCK
  5
18BE
330
18BD
100
AcDbEntity
  8
0
100
AcDbBlockBegin
  2
*D8
 70
     1
 10
0.0
 20
0.0
 30
0.0
  3
*D8
  1

  0
LINE
  5
18C0
330
18BD
100
AcDbEntity
  8
SIZE
  6
Continuous
 62
     0
370
    -2
100
AcDbLine
 10
123.5
 20
280.0
 30
0.0
 11
123.5
 21
336.8232420977278
 31
0.0
  0
LINE
  5
18C1
330
18BD
100
AcDbEntity
  8
SIZE
  6
Continuous
 62
     0
370
    -2
100
AcDbLine
 10
133.5
 20
291.0
 30
0.0
 11
133.5
 21
336.8232420977278
 31
0.0
  0
LINE
  5
18C2
330
18BD
100
AcDbEntity
  8
SIZE
  6
Continuous
 62
     0
370
    -2
100
AcDbLine
 10
111.5
 20
316.8232420977278
 30
0.0
 11
99.50000000000001
 21
316.8232420977278
 31
0.0
  0
LINE
  5
18C3
330
18BD
100
AcDbEntity
  8
SIZE
  6
Continuous
 62
     0
370
    -2
100
AcDbLine
 10
145.5
 20
316.8232420977278
 30
0.0
 11
157.5
 21
316.8232420977278
 31
0.0
  0
LINE
  5
18C4
330
18BD
100
AcDbEntity
  8
SIZE
  6
Continuous
 62
     0
370
    -2
100
AcDbLine
 10
123.5
 20
316.8232420977278
 30
0.0
 11
133.5
 21
316.8232420977278
 31
0.0
  0
INSERT
  5
18C5
330
18BD
100
AcDbEntity
  8
SIZE
  6
Continuous
 62
     0
370
    -2
100
AcDbBlockReference
  2
_DOTBLANK
 10
123.5
 20
316.8232420977278
 30
0.0
 41
12.0
 42
12.0
 43
12.0
  0
INSERT
  5
18C6
330
18BD
100
AcDbEntity
  8
SIZE
  6
Continuous
 62
     0
370
    -2
100
AcDbBlockReference
  2
_DOTBLANK
 10
133.5
 20
316.8232420977278
 30
0.0
 41
12.0
 42
12.0
 43
12.0
 50
180.0
  0
MTEXT
  5
18C7
330
18BD
100
AcDbEntity
  8
SIZE
  6
Continuous
 62
     0
100
AcDbMText
 10
128.5
 20
358.8232420977278
 30
0.0
 40
64.0
 41
0.0
 71
     5
 72
     1
  1
\A1;10
 73
     1
 44
1.0
  0
POINT
  5
18C8
330
18BD
100
AcDbEntity
  8
DEFPOINTS
  6
Continuous
 62
     0
100
AcDbPoint
 10
123.5
 20
260.0
 30
0.0
  0
POINT
  5
18C9
330
18BD
100
AcDbEntity
  8
DEFPOINTS
  6
Continuous
 62
     0
100
AcDbPoint
 10
133.5
 20
271.0
 30
0.0
  0
POINT
  5
18CA
330
18BD
100
AcDbEntity
  8
DEFPOINTS
  6
Continuous
 62
     0
100
AcDbPoint
 10
133.5
 20
316.8232420977278
 30
0.0
  0
ENDBLK
  5
18BF
330
18BD
100
AcDbEntity
  8
0
100
AcDbBlockEnd
  0
BLOCK
  5
1958
330
1957
100
AcDbEntity
  8
0
100
AcDbBlockBegin
  2
*D9
 70
     1
 10
0.0
 20
0.0
 30
0.0
  3
*D9
  1

  0
LINE
  5
195A
330
1957
100
AcDbEntity
  8
SIZE
  6
Continuous
 62
     0
370
    -2
100
AcDbLine
 10
123.5
 20
320.0
 30
0.0
 11
123.5
 21
341.5778429222677
 31
0.0
  0
LINE
  5
195B
330
1957
100
AcDbEntity
  8
SIZE
  6
Continuous
 62
     0
370
    -2
100
AcDbLine
 10
134.5
 20
332.0
 30
0.0
 11
134.5
 21
341.5778429222677
 31
0.0
  0
LINE
  5
195C
330
1957
100
AcDbEntity
  8
SIZE
  6
Continuous
 62
     0
370
    -2
100
AcDbLine
 10
111.5
 20
321.5778429222677
 30
0.0
 11
99.50000000000001
 21
321.5778429222677
 31
0.0
  0
LINE
  5
195D
330
1957
100
AcDbEntity
  8
SIZE
  6
Continuous
 62
     0
370
    -2
100
AcDbLine
 10
146.5
 20
321.5778429222677
 30
0.0
 11
158.5
 21
321.5778429222677
 31
0.0
  0
LINE
  5
195E
330
1957
100
AcDbEntity
  8
SIZE
  6
Continuous
 62
     0
370
    -2
100
AcDbLine
 10
123.5
 20
321.5778429222677
 30
0.0
 11
134.5
 21
321.5778429222677
 31
0.0
  0
INSERT
  5
195F
330
1957
100
AcDbEntity
  8
SIZE
  6
Continuous
 62
     0
370
    -2
100
AcDbBlockReference
  2
_DOTBLANK
 10
123.5
 20
321.5778429222677
 30
0.0
 41
12.0
 42
12.0
 43
12.0
  0
INSERT
  5
1960
330
1957
100
AcDbEntity
  8
SIZE
  6
Continuous
 62
     0
370
    -2
100
AcDbBlockReference
  2
_DOTBLANK
 10
134.5
 20
321.5778429222677
 30
0.0
 41
12.0
 42
12.0
 43
12.0
 50
180.0
  0
MTEXT
  5
1961
330
1957
100
AcDbEntity
  8
SIZE
  6
Continuous
 62
     0
100
AcDbMText
 10
129.0
 20
363.5778429222677
 30
0.0
 40
64.0
 41
0.0
 71
     5
 72
     1
  1
\A1;11
 73
     1
 44
1.0
  0
POINT
  5
1962
330
1957
100
AcDbEntity
  8
DEFPOINTS
  6
Continuous
 62
     0
100
AcDbPoint
 10
123.5
 20
300.0
 30
0.0
  0
POINT
  5
1963
330
1957
100
AcDbEntity
  8
DEFPOINTS
  6
Continuous
 62
     0
100
AcDbPoint
 10
134.5
 20
312.0
 30
0.0
  0
POINT
  5
1964
330
1957
100
AcDbEntity
  8
DEFPOINTS
  6
Continuous
 62
     0
100
AcDbPoint
 10
134.5
 20
321.5778429222677
 30
0.0
  0
ENDBLK
  5
1959
330
1957
100
AcDbEntity
  8
0
100
AcDbBlockEnd
  0
BLOCK
  5
1A79
330
1A78
100
AcDbEntity
  8
0
100
AcDbBlockBegin
  2
_Open30
 70
     0
 10
0.0
 20
0.0
 30
0.0
  3
_Open30
  1

  0
LINE
  5
1A7A
330
1A78
100
AcDbEntity
  8
0
  6
ByBlock
 62
     0
370
    -2
100
AcDbLine
 10
-1.0
 20
0.26794919
 30
0.0
 11
0.0
 21
0.0
 31
0.0
  0
LINE
  5
1A7B
330
1A78
100
AcDbEntity
  8
0
  6
ByBlock
 62
     0
370
    -2
100
AcDbLine
 10
0.0
 20
0.0
 30
0.0
 11
-1.0
 21
-0.26794919
 31
0.0
  0
LINE
  5
1A7C
330
1A78
100
AcDbEntity
  8
0
  6
ByBlock
 62
     0
370
    -2
100
AcDbLine
 10
0.0
 20
0.0
 30
0.0
 11
-1.0
 21
0.0
 31
0.0
  0
ENDBLK
  5
1A7D
330
1A78
100
AcDbEntity
  8
0
100
AcDbBlockEnd
  0
BLOCK
  5
1A7F
330
1A7E
100
AcDbEntity
  8
0
100
AcDbBlockBegin
  2
*D11
 70
     1
 10
0.0
 20
0.0
 30
0.0
  3
*D11
  1

  0
LINE
  5
1A80
330
1A7E
100
AcDbEntity
  8
SIZE
 62
     0
370
    -2
100
AcDbLine
 10
-43463.54745323373
 20
-411.3519744392156
 30
0.0
 11
-43463.54745323373
 21
-555.3096682655803
 31
0.0
  0
LINE
  5
1A81
330
1A7E
100
AcDbEntity
  8
SIZE
 62
     0
370
    -2
100
AcDbLine
 10
-42825.54745323372
 20
-411.3519744392155
 30
0.0
 11
-42825.54745323372
 21
-555.3096682655803
 31
0.0
  0
LINE
  5
1A82
330
1A7E
100
AcDbEntity
  8
SIZE
 62
     0
370
    -2
100
AcDbLine
 10
-43451.54745323373
 20
-535.3096682655805
 30
0.0
 11
-42837.54745323373
 21
-535.3096682655805
 31
0.0
  0
INSERT
  5
1A83
330
1A7E
100
AcDbEntity
  8
SIZE
 62
     0
370
    -2
100
AcDbBlockReference
  2
_DOTBLANK
 10
-43463.54745323373
 20
-535.3096682655805
 30
0.0
 41
12.0
 42
12.0
 43
12.0
 50
180.0
  0
INSERT
  5
1A84
330
1A7E
100
AcDbEntity
  8
SIZE
 62
     0
370
    -2
100
AcDbBlockReference
  2
_DOTBLANK
 10
-42825.54745323372
 20
-535.3096682655805
 30
0.0
 41
12.0
 42
12.0
 43
12.0
  0
MTEXT
  5
1A85
330
1A7E
100
AcDbEntity
  8
SIZE
 62
     0
100
AcDbMText
 10
-43144.54745323373
 20
-493.3096682655805
 30
0.0
 40
64.0
 41
0.0
 71
     5
 72
     1
  1
\A1;638
 73
     1
 44
1.0
  0
POINT
  5
1A86
330
1A7E
100
AcDbEntity
  8
DEFPOINTS
 62
     0
100
AcDbPoint
 10
-43463.54745323373
 20
-391.3519744392159
 30
0.0
  0
POINT
  5
1A87
330
1A7E
100
AcDbEntity
  8
DEFPOINTS
 62
     0
100
AcDbPoint
 10
-42825.54745323372
 20
-391.3519744392155
 30
0.0
  0
POINT
  5
1A88
330
1A7E
100
AcDbEntity
  8
DEFPOINTS
 62
     0
100
AcDbPoint
 10
-42825.54745323372
 20
-535.3096682655805
 30
0.0
  0
ENDBLK
  5
1A89
330
1A7E
100
AcDbEntity
  8
0
100
AcDbBlockEnd
  0
BLOCK
  5
1A8B
330
1A8A
100
AcDbEntity
  8
0
100
AcDbBlockBegin
  2
*D12
 70
     1
 10
0.0
 20
0.0
 30
0.0
  3
*D12
  1

  0
LINE
  5
1A8C
330
1A8A
100
AcDbEntity
  8
SIZE
 62
     0
370
    -2
100
AcDbLine
 10
-43469.54745323373
 20
-410.5519744392156
 30
0.0
 11
-43469.54745323373
 21
-658.6163768251707
 31
0.0
  0
LINE
  5
1A8D
330
1A8A
100
AcDbEntity
  8
SIZE
 62
     0
370
    -2
100
AcDbLine
 10
-42819.54745323373
 20
-410.5519744392156
 30
0.0
 11
-42819.54745323373
 21
-658.6163768251707
 31
0.0
  0
LINE
  5
1A8E
330
1A8A
100
AcDbEntity
  8
SIZE
 62
     0
370
    -2
100
AcDbLine
 10
-43457.54745323373
 20
-638.6163768251707
 30
0.0
 11
-42831.54745323373
 21
-638.6163768251707
 31
0.0
  0
INSERT
  5
1A8F
330
1A8A
100
AcDbEntity
  8
SIZE
 62
     0
370
    -2
100
AcDbBlockReference
  2
_DOTBLANK
 10
-43469.54745323373
 20
-638.6163768251707
 30
0.0
 41
12.0
 42
12.0
 43
12.0
 50
180.0
  0
INSERT
  5
1A90
330
1A8A
100
AcDbEntity
  8
SIZE
 62
     0
370
    -2
100
AcDbBlockReference
  2
_DOTBLANK
 10
-42819.54745323373
 20
-638.6163768251707
 30
0.0
 41
12.0
 42
12.0
 43
12.0
  0
MTEXT
  5
1A91
330
1A8A
100
AcDbEntity
  8
SIZE
 62
     0
100
AcDbMText
 10
-43144.54745323373
 20
-596.6163768251707
 30
0.0
 40
64.0
 41
0.0
 71
     5
 72
     1
  1
\A1;650
 73
     1
 44
1.0
  0
POINT
  5
1A92
330
1A8A
100
AcDbEntity
  8
DEFPOINTS
 62
     0
100
AcDbPoint
 10
-43469.54745323373
 20
-390.551974439216
 30
0.0
  0
POINT
  5
1A93
330
1A8A
100
AcDbEntity
  8
DEFPOINTS
 62
     0
100
AcDbPoint
 10
-42819.54745323373
 20
-390.5519744392158
 30
0.0
  0
POINT
  5
1A94
330
1A8A
100
AcDbEntity
  8
DEFPOINTS
 62
     0
100
AcDbPoint
 10
-42819.54745323373
 20
-638.6163768251707
 30
0.0
  0
ENDBLK
  5
1A95
330
1A8A
100
AcDbEntity
  8
0
100
AcDbBlockEnd
  0
BLOCK
  5
1A97
330
1A96
100
AcDbEntity
  8
0
100
AcDbBlockBegin
  2
*D13
 70
     1
 10
0.0
 20
0.0
 30
0.0
  3
*D13
  1

  0
LINE
  5
1A98
330
1A96
100
AcDbEntity
  8
SIZE
 62
     0
370
    -2
100
AcDbLine
 10
-43489.54745323373
 20
-390.551974439216
 30
0.0
 11
-43567.14630723133
 21
-390.551974439216
 31
0.0
  0
LINE
  5
1A99
330
1A96
100
AcDbEntity
  8
SIZE
 62
     0
370
    -2
100
AcDbLine
 10
-43485.54745323373
 20
-84.4321907148514
 30
0.0
 11
-43567.14630723133
 21
-84.43219071485136
 31
0.0
  0
LINE
  5
1A9A
330
1A96
100
AcDbEntity
  8
SIZE
 62
     0
370
    -2
100
AcDbLine
 10
-43547.14630723133
 20
-378.551974439216
 30
0.0
 11
-43547.14630723133
 21
-96.43219071485141
 31
0.0
  0
INSERT
  5
1A9B
330
1A96
100
AcDbEntity
  8
SIZE
 62
     0
370
    -2
100
AcDbBlockReference
  2
_DOTBLANK
 10
-43547.14630723133
 20
-390.551974439216
 30
0.0
 41
12.0
 42
12.0
 43
12.0
 50
270.0
  0
INSERT
  5
1A9C
330
1A96
100
AcDbEntity
  8
SIZE
 62
     0
370
    -2
100
AcDbBlockReference
  2
_DOTBLANK
 10
-43547.14630723133
 20
-84.43219071485136
 30
0.0
 41
12.0
 42
12.0
 43
12.0
 50
90.0
  0
MTEXT
  5
1A9D
330
1A96
100
AcDbEntity
  8
SIZE
 62
     0
100
AcDbMText
 10
-43589.14630723133
 20
-237.4920825770407
 30
0.0
 40
64.0
 41
0.0
 71
     5
 72
     1
  1
\A1;306
 11
0.0000000000000001
 21
1.0
 31
0.0
 73
     1
 44
1.0
  0
POINT
  5
1A9E
330
1A96
100
AcDbEntity
  8
DEFPOINTS
 62
     0
100
AcDbPoint
 10
-43469.54745323373
 20
-390.551974439216
 30
0.0
  0
POINT
  5
1A9F
330
1A96
100
AcDbEntity
  8
DEFPOINTS
 62
     0
100
AcDbPoint
 10
-43465.54745323373
 20
-84.4321907148514
 30
0.0
  0
POINT
  5
1AA0
330
1A96
100
AcDbEntity
  8
DEFPOINTS
 62
     0
100
AcDbPoint
 10
-43547.14630723133
 20
-84.43219071485136
 30
0.0
  0
ENDBLK
  5
1AA1
330
1A96
100
AcDbEntity
  8
0
100
AcDbBlockEnd
  0
BLOCK
  5
1CB2
330
1CB1
100
AcDbEntity
  8
0
100
AcDbBlockBegin
  2
*D14
 70
     1
 10
0.0
 20
0.0
 30
0.0
  3
*D14
  1

  0
LINE
  5
1CD5
330
1CB1
100
AcDbEntity
  8
SIZE
 62
     0
370
    -2
100
AcDbLine
 10
-319.0
 20
-20.80000000000075
 30
0.0
 11
-319.0
 21
-164.7576938263653
 31
0.0
  0
LINE
  5
1CD6
330
1CB1
100
AcDbEntity
  8
SIZE
 62
     0
370
    -2
100
AcDbLine
 10
319.0
 20
-20.8000000000003
 30
0.0
 11
319.0
 21
-164.7576938263653
 31
0.0
  0
LINE
  5
1CD7
330
1CB1
100
AcDbEntity
  8
SIZE
 62
     0
370
    -2
100
AcDbLine
 10
-307.0
 20
-144.7576938263653
 30
0.0
 11
307.0
 21
-144.7576938263653
 31
0.0
  0
INSERT
  5
1CD8
330
1CB1
100
AcDbEntity
  8
SIZE
 62
     0
370
    -2
100
AcDbBlockReference
  2
_DOTBLANK
 10
-319.0
 20
-144.7576938263653
 30
0.0
 41
12.0
 42
12.0
 43
12.0
 50
180.0
  0
INSERT
  5
1CD9
330
1CB1
100
AcDbEntity
  8
SIZE
 62
     0
370
    -2
100
AcDbBlockReference
  2
_DOTBLANK
 10
319.0
 20
-144.7576938263653
 30
0.0
 41
12.0
 42
12.0
 43
12.0
  0
MTEXT
  5
1CDA
330
1CB1
100
AcDbEntity
  8
SIZE
 62
     0
100
AcDbMText
 10
0.0000000000000026
 20
-102.7576938263653
 30
0.0
 40
64.0
 41
0.0
 71
     5
 72
     1
  1
\A1;638
 73
     1
 44
1.0
  0
POINT
  5
1CDB
330
1CB1
100
AcDbEntity
  8
DEFPOINTS
 62
     0
100
AcDbPoint
 10
-319.0
 20
-0.8000000000007503
 30
0.0
  0
POINT
  5
1CDC
330
1CB1
100
AcDbEntity
  8
DEFPOINTS
 62
     0
100
AcDbPoint
 10
319.0
 20
-0.8000000000002954
 30
0.0
  0
POINT
  5
1CDD
330
1CB1
100
AcDbEntity
  8
DEFPOINTS
 62
     0
100
AcDbPoint
 10
319.0
 20
-144.7576938263653
 30
0.0
  0
ENDBLK
  5
1CB3
330
1CB1
100
AcDbEntity
  8
0
100
AcDbBlockEnd
  0
BLOCK
  5
1CBE
330
1CBD
100
AcDbEntity
  8
0
100
AcDbBlockBegin
  2
*D15
 70
     1
 10
0.0
 20
0.0
 30
0.0
  3
*D15
  1

  0
LINE
  5
1CDE
330
1CBD
100
AcDbEntity
  8
SIZE
 62
     0
370
    -2
100
AcDbLine
 10
-325.0
 20
-20.00000000000079
 30
0.0
 11
-325.0
 21
-268.0644023859557
 31
0.0
  0
LINE
  5
1CDF
330
1CBD
100
AcDbEntity
  8
SIZE
 62
     0
370
    -2
100
AcDbLine
 10
325.0
 20
-20.00000000000057
 30
0.0
 11
325.0
 21
-268.0644023859557
 31
0.0
  0
LINE
  5
1CE0
330
1CBD
100
AcDbEntity
  8
SIZE
 62
     0
370
    -2
100
AcDbLine
 10
-313.0
 20
-248.0644023859556
 30
0.0
 11
313.0
 21
-248.0644023859556
 31
0.0
  0
INSERT
  5
1CE1
330
1CBD
100
AcDbEntity
  8
SIZE
 62
     0
370
    -2
100
AcDbBlockReference
  2
_DOTBLANK
 10
-325.0
 20
-248.0644023859556
 30
0.0
 41
12.0
 42
12.0
 43
12.0
 50
180.0
  0
INSERT
  5
1CE2
330
1CBD
100
AcDbEntity
  8
SIZE
 62
     0
370
    -2
100
AcDbBlockReference
  2
_DOTBLANK
 10
325.0
 20
-248.0644023859556
 30
0.0
 41
12.0
 42
12.0
 43
12.0
  0
MTEXT
  5
1CE3
330
1CBD
100
AcDbEntity
  8
SIZE
 62
     0
100
AcDbMText
 10
0.0000000000000026
 20
-206.0644023859556
 30
0.0
 40
64.0
 41
0.0
 71
     5
 72
     1
  1
\A1;650
 73
     1
 44
1.0
  0
POINT
  5
1CE4
330
1CBD
100
AcDbEntity
  8
DEFPOINTS
 62
     0
100
AcDbPoint
 10
-325.0
 20
-0.0000000000007958
 30
0.0
  0
POINT
  5
1CE5
330
1CBD
100
AcDbEntity
  8
DEFPOINTS
 62
     0
100
AcDbPoint
 10
325.0
 20
-0.0000000000005684
 30
0.0
  0
POINT
  5
1CE6
330
1CBD
100
AcDbEntity
  8
DEFPOINTS
 62
     0
100
AcDbPoint
 10
325.0
 20
-248.0644023859556
 30
0.0
  0
ENDBLK
  5
1CBF
330
1CBD
100
AcDbEntity
  8
0
100
AcDbBlockEnd
  0
BLOCK
  5
1CCA
330
1CC9
100
AcDbEntity
  8
0
100
AcDbBlockBegin
  2
*D16
 70
     1
 10
0.0
 20
0.0
 30
0.0
  3
*D16
  1

  0
LINE
  5
1CE7
330
1CC9
100
AcDbEntity
  8
SIZE
 62
     0
370
    -2
100
AcDbLine
 10
-345.0
 20
-0.0000000000007901
 30
0.0
 11
-422.5988539976023
 21
-0.0000000000007682
 31
0.0
  0
LINE
  5
1CE8
330
1CC9
100
AcDbEntity
  8
SIZE
 62
     0
370
    -2
100
AcDbLine
 10
-341.0
 20
306.1197837243637
 30
0.0
 11
-422.5988539976023
 21
306.1197837243638
 31
0.0
  0
LINE
  5
1CE9
330
1CC9
100
AcDbEntity
  8
SIZE
 62
     0
370
    -2
100
AcDbLine
 10
-402.5988539976021
 20
11.99999999999922
 30
0.0
 11
-402.5988539976021
 21
294.1197837243638
 31
0.0
  0
INSERT
  5
1CEA
330
1CC9
100
AcDbEntity
  8
SIZE
 62
     0
370
    -2
100
AcDbBlockReference
  2
_DOTBLANK
 10
-402.5988539976021
 20
-0.0000000000007738
 30
0.0
 41
12.0
 42
12.0
 43
12.0
 50
270.0
  0
INSERT
  5
1CEB
330
1CC9
100
AcDbEntity
  8
SIZE
 62
     0
370
    -2
100
AcDbBlockReference
  2
_DOTBLANK
 10
-402.5988539976021
 20
306.1197837243638
 30
0.0
 41
12.0
 42
12.0
 43
12.0
 50
90.0
  0
MTEXT
  5
1CEC
330
1CC9
100
AcDbEntity
  8
SIZE
 62
     0
100
AcDbMText
 10
-444.5988539976021
 20
153.0598918621814
 30
0.0
 40
64.0
 41
0.0
 71
     5
 72
     1
  1
\A1;306
 11
0.0000000000000001
 21
1.0
 31
0.0
 73
     1
 44
1.0
  0
POINT
  5
1CED
330
1CC9
100
AcDbEntity
  8
DEFPOINTS
 62
     0
100
AcDbPoint
 10
-325.0
 20
-0.0000000000007958
 30
0.0
  0
POINT
  5
1CEE
330
1CC9
100
AcDbEntity
  8
DEFPOINTS
 62
     0
100
AcDbPoint
 10
-321.0
 20
306.1197837243637
 30
0.0
  0
POINT
  5
1CEF
330
1CC9
100
AcDbEntity
  8
DEFPOINTS
 62
     0
100
AcDbPoint
 10
-402.5988539976021
 20
306.1197837243638
 30
0.0
  0
ENDBLK
  5
1CCB
330
1CC9
100
AcDbEntity
  8
0
100
AcDbBlockEnd
  0
BLOCK
  5
1DE6
330
1DE5
100
AcDbEntity
  8
0
100
AcDbBlockBegin
  2
*D17
 70
     1
 10
0.0
 20
0.0
 30
0.0
  3
*D17
  1

  0
LINE
  5
1DE7
330
1DE5
100
AcDbEntity
  8
SIZE
  6
Continuous
 62
     0
370
    -2
100
AcDbLine
 10
-45352.33759954458
 20
-2282.050271310774
 30
0.0
 11
-45494.24800689807
 21
-2282.050271310774
 31
0.0
  0
LINE
  5
1DE8
330
1DE5
100
AcDbEntity
  8
SIZE
  6
Continuous
 62
     0
370
    -2
100
AcDbLine
 10
-45352.23759954456
 20
-1976.187258608613
 30
0.0
 11
-45494.24800689807
 21
-1976.187258608613
 31
0.0
  0
LINE
  5
1DE9
330
1DE5
100
AcDbEntity
  8
SIZE
  6
Continuous
 62
     0
370
    -2
100
AcDbLine
 10
-45474.24800689809
 20
-2270.050271310775
 30
0.0
 11
-45474.24800689809
 21
-1988.187258608613
 31
0.0
  0
INSERT
  5
1DEA
330
1DE5
100
AcDbEntity
  8
SIZE
  6
Continuous
 62
     0
370
    -2
100
AcDbBlockReference
  2
_DOTBLANK
 10
-45474.24800689809
 20
-2282.050271310774
 30
0.0
 41
12.0
 42
12.0
 43
12.0
 50
270.0
  0
INSERT
  5
1DEB
330
1DE5
100
AcDbEntity
  8
SIZE
  6
Continuous
 62
     0
370
    -2
100
AcDbBlockReference
  2
_DOTBLANK
 10
-45474.24800689809
 20
-1976.187258608613
 30
0.0
 41
12.0
 42
12.0
 43
12.0
 50
90.0
  0
MTEXT
  5
1DEC
330
1DE5
100
AcDbEntity
  8
SIZE
  6
Continuous
 62
     0
100
AcDbMText
 10
-45516.24800689809
 20
-2129.118764959701
 30
0.0
 40
64.0
 41
0.0
 71
     5
 72
     1
  1
\A1;306
 11
0.0000000000000001
 21
1.0
 31
0.0
 73
     1
 44
1.0
  0
POINT
  5
1DED
330
1DE5
100
AcDbEntity
  8
DEFPOINTS
  6
Continuous
 62
     0
100
AcDbPoint
 10
-45332.33759954458
 20
-2282.050271310774
 30
0.0
  0
POINT
  5
1DEE
330
1DE5
100
AcDbEntity
  8
DEFPOINTS
  6
Continuous
 62
     0
100
AcDbPoint
 10
-45332.23759954458
 20
-1976.187258608613
 30
0.0
  0
POINT
  5
1DEF
330
1DE5
100
AcDbEntity
  8
DEFPOINTS
  6
Continuous
 62
     0
100
AcDbPoint
 10
-45474.24800689809
 20
-1976.187258608613
 30
0.0
  0
ENDBLK
  5
1DF0
330
1DE5
100
AcDbEntity
  8
0
100
AcDbBlockEnd
  0
BLOCK
  5
1DF2
330
1DF1
100
AcDbEntity
  8
0
100
AcDbBlockBegin
  2
*D18
 70
     1
 10
0.0
 20
0.0
 30
0.0
  3
*D18
  1

  0
LINE
  5
1DF3
330
1DF1
100
AcDbEntity
  8
SIZE
  6
Continuous
 62
     0
370
    -2
100
AcDbLine
 10
-44574.23759954457
 20
-1976.187258608575
 30
0.0
 11
-44370.06437199388
 21
-1976.187258608575
 31
0.0
  0
LINE
  5
1DF4
330
1DF1
100
AcDbEntity
  8
SIZE
  6
Continuous
 62
     0
370
    -2
100
AcDbLine
 10
-44574.13759954458
 20
-2276.050271310776
 30
0.0
 11
-44370.06437199388
 21
-2276.050271310776
 31
0.0
  0
LINE
  5
1DF5
330
1DF1
100
AcDbEntity
  8
SIZE
  6
Continuous
 62
     0
370
    -2
100
AcDbLine
 10
-44390.06437199386
 20
-1988.187258608576
 30
0.0
 11
-44390.06437199386
 21
-2264.050271310775
 31
0.0
  0
INSERT
  5
1DF6
330
1DF1
100
AcDbEntity
  8
SIZE
  6
Continuous
 62
     0
370
    -2
100
AcDbBlockReference
  2
_DOTBLANK
 10
-44390.06437199386
 20
-1976.187258608575
 30
0.0
 41
12.0
 42
12.0
 43
12.0
 50
90.0
  0
INSERT
  5
1DF7
330
1DF1
100
AcDbEntity
  8
SIZE
  6
Continuous
 62
     0
370
    -2
100
AcDbBlockReference
  2
_DOTBLANK
 10
-44390.06437199386
 20
-2276.050271310776
 30
0.0
 41
12.0
 42
12.0
 43
12.0
 50
270.0
  0
MTEXT
  5
1DF8
330
1DF1
100
AcDbEntity
  8
SIZE
  6
Continuous
 62
     0
100
AcDbMText
 10
-44432.06437199386
 20
-2126.118764959683
 30
0.0
 40
64.0
 41
0.0
 71
     5
 72
     1
  1
\A1;300
 11
0.0000000000000001
 21
1.0
 31
0.0
 73
     1
 44
1.0
  0
POINT
  5
1DF9
330
1DF1
100
AcDbEntity
  8
DEFPOINTS
  6
Continuous
 62
     0
100
AcDbPoint
 10
-44594.23759954456
 20
-1976.187258608575
 30
0.0
  0
POINT
  5
1DFA
330
1DF1
100
AcDbEntity
  8
DEFPOINTS
  6
Continuous
 62
     0
100
AcDbPoint
 10
-44594.13759954458
 20
-2276.050271310776
 30
0.0
  0
POINT
  5
1DFB
330
1DF1
100
AcDbEntity
  8
DEFPOINTS
  6
Continuous
 62
     0
100
AcDbPoint
 10
-44390.06437199386
 20
-2276.050271310776
 30
0.0
  0
ENDBLK
  5
1DFC
330
1DF1
100
AcDbEntity
  8
0
100
AcDbBlockEnd
  0
BLOCK
  5
1DFE
330
1DFD
100
AcDbEntity
  8
0
100
AcDbBlockBegin
  2
*D19
 70
     1
 10
0.0
 20
0.0
 30
0.0
  3
*D19
  1

  0
LINE
  5
1DFF
330
1DFD
100
AcDbEntity
  8
SIZE
  6
Continuous
 62
     0
370
    -2
100
AcDbLine
 10
-45324.73759954458
 20
-2309.550271310773
 30
0.0
 11
-45324.73759954458
 21
-2555.274103917217
 31
0.0
  0
LINE
  5
1E00
330
1DFD
100
AcDbEntity
  8
SIZE
  6
Continuous
 62
     0
370
    -2
100
AcDbLine
 10
-44602.73759954458
 20
-2303.550271310773
 30
0.0
 11
-44602.73759954458
 21
-2555.274103917217
 31
0.0
  0
LINE
  5
1E01
330
1DFD
100
AcDbEntity
  8
SIZE
  6
Continuous
 62
     0
370
    -2
100
AcDbLine
 10
-45312.73759954459
 20
-2535.274103917217
 30
0.0
 11
-44614.73759954458
 21
-2535.274103917217
 31
0.0
  0
INSERT
  5
1E02
330
1DFD
100
AcDbEntity
  8
SIZE
  6
Continuous
 62
     0
370
    -2
100
AcDbBlockReference
  2
_DOTBLANK
 10
-45324.73759954458
 20
-2535.274103917217
 30
0.0
 41
12.0
 42
12.0
 43
12.0
 50
180.0
  0
INSERT
  5
1E03
330
1DFD
100
AcDbEntity
  8
SIZE
  6
Continuous
 62
     0
370
    -2
100
AcDbBlockReference
  2
_DOTBLANK
 10
-44602.73759954458
 20
-2535.274103917217
 30
0.0
 41
12.0
 42
12.0
 43
12.0
  0
MTEXT
  5
1E04
330
1DFD
100
AcDbEntity
  8
SIZE
  6
Continuous
 62
     0
100
AcDbMText
 10
-44963.73759954458
 20
-2493.274103917217
 30
0.0
 40
64.0
 41
0.0
 71
     5
 72
     1
  1
\A1;722
 73
     1
 44
1.0
  0
POINT
  5
1E05
330
1DFD
100
AcDbEntity
  8
DEFPOINTS
  6
Continuous
 62
     0
100
AcDbPoint
 10
-45324.73759954458
 20
-2289.550271310773
 30
0.0
  0
POINT
  5
1E06
330
1DFD
100
AcDbEntity
  8
DEFPOINTS
  6
Continuous
 62
     0
100
AcDbPoint
 10
-44602.73759954458
 20
-2283.550271310773
 30
0.0
  0
POINT
  5
1E07
330
1DFD
100
AcDbEntity
  8
DEFPOINTS
  6
Continuous
 62
     0
100
AcDbPoint
 10
-44602.73759954458
 20
-2535.274103917217
 30
0.0
  0
ENDBLK
  5
1E08
330
1DFD
100
AcDbEntity
  8
0
100
AcDbBlockEnd
  0
BLOCK
  5
1E0A
330
1E09
100
AcDbEntity
  8
0
100
AcDbBlockBegin
  2
*D20
 70
     1
 10
0.0
 20
0.0
 30
0.0
  3
*D20
  1

  0
LINE
  5
1E0B
330
1E09
100
AcDbEntity
  8
SIZE
  6
Continuous
 62
     0
370
    -2
100
AcDbLine
 10
-45333.23759954458
 20
-2301.150271310774
 30
0.0
 11
-45333.23759954458
 21
-2680.179391695299
 31
0.0
  0
LINE
  5
1E0C
330
1E09
100
AcDbEntity
  8
SIZE
  6
Continuous
 62
     0
370
    -2
100
AcDbLine
 10
-44593.23759954457
 20
-2295.150271310776
 30
0.0
 11
-44593.23759954457
 21
-2680.179391695299
 31
0.0
  0
LINE
  5
1E0D
330
1E09
100
AcDbEntity
  8
SIZE
  6
Continuous
 62
     0
370
    -2
100
AcDbLine
 10
-45321.23759954458
 20
-2660.1793916953
 30
0.0
 11
-44605.23759954456
 21
-2660.1793916953
 31
0.0
  0
INSERT
  5
1E0E
330
1E09
100
AcDbEntity
  8
SIZE
  6
Continuous
 62
     0
370
    -2
100
AcDbBlockReference
  2
_DOTBLANK
 10
-45333.23759954458
 20
-2660.1793916953
 30
0.0
 41
12.0
 42
12.0
 43
12.0
 50
180.0
  0
INSERT
  5
1E0F
330
1E09
100
AcDbEntity
  8
SIZE
  6
Continuous
 62
     0
370
    -2
100
AcDbBlockReference
  2
_DOTBLANK
 10
-44593.23759954457
 20
-2660.1793916953
 30
0.0
 41
12.0
 42
12.0
 43
12.0
  0
MTEXT
  5
1E10
330
1E09
100
AcDbEntity
  8
SIZE
  6
Continuous
 62
     0
100
AcDbMText
 10
-44963.23759954456
 20
-2618.179391695298
 30
0.0
 40
64.0
 41
0.0
 71
     5
 72
     1
  1
\A1;740
 73
     1
 44
1.0
  0
POINT
  5
1E11
330
1E09
100
AcDbEntity
  8
DEFPOINTS
  6
Continuous
 62
     0
100
AcDbPoint
 10
-45333.23759954458
 20
-2281.150271310774
 30
0.0
  0
POINT
  5
1E12
330
1E09
100
AcDbEntity
  8
DEFPOINTS
  6
Continuous
 62
     0
100
AcDbPoint
 10
-44593.23759954457
 20
-2275.150271310775
 30
0.0
  0
POINT
  5
1E13
330
1E09
100
AcDbEntity
  8
DEFPOINTS
  6
Continuous
 62
     0
100
AcDbPoint
 10
-44593.23759954457
 20
-2660.1793916953
 30
0.0
  0
ENDBLK
  5
1E14
330
1E09
100
AcDbEntity
  8
0
100
AcDbBlockEnd
  0
BLOCK
  5
1E16
330
1E15
100
AcDbEntity
  8
0
100
AcDbBlockBegin
  2
*D21
 70
     1
 10
0.0
 20
0.0
 30
0.0
  3
*D21
  1

  0
LINE
  5
1E17
330
1E15
100
AcDbEntity
  8
SIZE
  6
Continuous
 62
     0
370
    -2
100
AcDbLine
 10
-44939.73759954458
 20
-2303.03278814193
 30
0.0
 11
-44939.73759954458
 21
-2419.61707004268
 31
0.0
  0
LINE
  5
1E18
330
1E15
100
AcDbEntity
  8
SIZE
  6
Continuous
 62
     0
370
    -2
100
AcDbLine
 10
-45243.73759954458
 20
-2303.03278814193
 30
0.0
 11
-45243.73759954458
 21
-2419.61707004268
 31
0.0
  0
LINE
  5
1E19
330
1E15
100
AcDbEntity
  8
SIZE
  6
Continuous
 62
     0
370
    -2
100
AcDbLine
 10
-44951.73759954458
 20
-2399.61707004268
 30
0.0
 11
-45231.73759954458
 21
-2399.61707004268
 31
0.0
  0
INSERT
  5
1E1A
330
1E15
100
AcDbEntity
  8
SIZE
  6
Continuous
 62
     0
370
    -2
100
AcDbBlockReference
  2
_DOTBLANK
 10
-44939.73759954458
 20
-2399.61707004268
 30
0.0
 41
12.0
 42
12.0
 43
12.0
  0
INSERT
  5
1E1B
330
1E15
100
AcDbEntity
  8
SIZE
  6
Continuous
 62
     0
370
    -2
100
AcDbBlockReference
  2
_DOTBLANK
 10
-45243.73759954458
 20
-2399.61707004268
 30
0.0
 41
12.0
 42
12.0
 43
12.0
 50
180.0
  0
MTEXT
  5
1E1C
330
1E15
100
AcDbEntity
  8
SIZE
  6
Continuous
 62
     0
100
AcDbMText
 10
-45091.73759954459
 20
-2357.61707004268
 30
0.0
 40
64.0
 41
0.0
 71
     5
 72
     1
  1
\A1;304
 73
     1
 44
1.0
  0
POINT
  5
1E1D
330
1E15
100
AcDbEntity
  8
DEFPOINTS
  6
Continuous
 62
     0
100
AcDbPoint
 10
-44939.73759954458
 20
-2283.03278814193
 30
0.0
  0
POINT
  5
1E1E
330
1E15
100
AcDbEntity
  8
DEFPOINTS
  6
Continuous
 62
     0
100
AcDbPoint
 10
-45243.73759954458
 20
-2283.03278814193
 30
0.0
  0
POINT
  5
1E1F
330
1E15
100
AcDbEntity
  8
DEFPOINTS
  6
Continuous
 62
     0
100
AcDbPoint
 10
-45243.73759954458
 20
-2399.61707004268
 30
0.0
  0
ENDBLK
  5
1E20
330
1E15
100
AcDbEntity
  8
0
100
AcDbBlockEnd
  0
BLOCK
  5
1E22
330
1E21
100
AcDbEntity
  8
0
100
AcDbBlockBegin
  2
*D22
 70
     1
 10
0.0
 20
0.0
 30
0.0
  3
*D22
  1

  0
LINE
  5
1E23
330
1E21
100
AcDbEntity
  8
SIZE
  6
Continuous
 62
     0
370
    -2
100
AcDbLine
 10
-44939.73759954458
 20
-2303.03278814193
 30
0.0
 11
-44939.73759954458
 21
-2419.61707004268
 31
0.0
  0
LINE
  5
1E24
330
1E21
100
AcDbEntity
  8
SIZE
  6
Continuous
 62
     0
370
    -2
100
AcDbLine
 10
-44610.93759954458
 20
-2303.550271310773
 30
0.0
 11
-44610.93759954458
 21
-2419.61707004268
 31
0.0
  0
LINE
  5
1E25
330
1E21
100
AcDbEntity
  8
SIZE
  6
Continuous
 62
     0
370
    -2
100
AcDbLine
 10
-44927.73759954458
 20
-2399.61707004268
 30
0.0
 11
-44622.93759954458
 21
-2399.61707004268
 31
0.0
  0
INSERT
  5
1E26
330
1E21
100
AcDbEntity
  8
SIZE
  6
Continuous
 62
     0
370
    -2
100
AcDbBlockReference
  2
_DOTBLANK
 10
-44939.73759954458
 20
-2399.61707004268
 30
0.0
 41
12.0
 42
12.0
 43
12.0
 50
180.0
  0
INSERT
  5
1E27
330
1E21
100
AcDbEntity
  8
SIZE
  6
Continuous
 62
     0
370
    -2
100
AcDbBlockReference
  2
_DOTBLANK
 10
-44610.93759954458
 20
-2399.61707004268
 30
0.0
 41
12.0
 42
12.0
 43
12.0
  0
MTEXT
  5
1E28
330
1E21
100
AcDbEntity
  8
SIZE
  6
Continuous
 62
     0
100
AcDbMText
 10
-44775.33759954458
 20
-2357.61707004268
 30
0.0
 40
64.0
 41
0.0
 71
     5
 72
     1
  1
\A1;329
 73
     1
 44
1.0
  0
POINT
  5
1E29
330
1E21
100
AcDbEntity
  8
DEFPOINTS
  6
Continuous
 62
     0
100
AcDbPoint
 10
-44939.73759954458
 20
-2283.03278814193
 30
0.0
  0
POINT
  5
1E2A
330
1E21
100
AcDbEntity
  8
DEFPOINTS
  6
Continuous
 62
     0
100
AcDbPoint
 10
-44610.93759954458
 20
-2283.550271310773
 30
0.0
  0
POINT
  5
1E2B
330
1E21
100
AcDbEntity
  8
DEFPOINTS
  6
Continuous
 62
     0
100
AcDbPoint
 10
-44610.93759954458
 20
-2399.61707004268
 30
0.0
  0
ENDBLK
  5
1E2C
330
1E21
100
AcDbEntity
  8
0
100
AcDbBlockEnd
  0
BLOCK
  5
200F
330
200E
100
AcDbEntity
  8
0
100
AcDbBlockBegin
  2
*D23
 70
     1
 10
0.0
 20
0.0
 30
0.0
  3
*D23
  1

  0
LINE
  5
2056
330
200E
100
AcDbEntity
  8
SIZE
  6
Continuous
 62
     0
370
    -2
100
AcDbLine
 10
-388.5999999999985
 20
-5.99999999999863
 30
0.0
 11
-530.5104073534967
 21
-5.999999999998587
 31
0.0
  0
LINE
  5
2057
330
200E
100
AcDbEntity
  8
SIZE
  6
Continuous
 62
     0
370
    -2
100
AcDbLine
 10
-388.4999999999927
 20
299.8630127021625
 30
0.0
 11
-530.5104073534963
 21
299.8630127021625
 31
0.0
  0
LINE
  5
2058
330
200E
100
AcDbEntity
  8
SIZE
  6
Continuous
 62
     0
370
    -2
100
AcDbLine
 10
-510.5104073534967
 20
6.000000000001405
 30
0.0
 11
-510.5104073534967
 21
287.8630127021625
 31
0.0
  0
INSERT
  5
2059
330
200E
100
AcDbEntity
  8
SIZE
  6
Continuous
 62
     0
370
    -2
100
AcDbBlockReference
  2
_DOTBLANK
 10
-510.5104073534967
 20
-5.999999999998593
 30
0.0
 41
12.0
 42
12.0
 43
12.0
 50
270.0
  0
INSERT
  5
205A
330
200E
100
AcDbEntity
  8
SIZE
  6
Continuous
 62
     0
370
    -2
100
AcDbBlockReference
  2
_DOTBLANK
 10
-510.5104073534967
 20
299.8630127021625
 30
0.0
 41
12.0
 42
12.0
 43
12.0
 50
90.0
  0
MTEXT
  5
205B
330
200E
100
AcDbEntity
  8
SIZE
  6
Continuous
 62
     0
100
AcDbMText
 10
-552.5104073534967
 20
146.9315063510818
 30
0.0
 40
64.0
 41
0.0
 71
     5
 72
     1
  1
\A1;306
 11
0.0000000000000001
 21
1.0
 31
0.0
 73
     1
 44
1.0
  0
POINT
  5
205C
330
200E
100
AcDbEntity
  8
DEFPOINTS
  6
Continuous
 62
     0
100
AcDbPoint
 10
-368.5999999999986
 20
-5.999999999998633
 30
0.0
  0
POINT
  5
205D
330
200E
100
AcDbEntity
  8
DEFPOINTS
  6
Continuous
 62
     0
100
AcDbPoint
 10
-368.4999999999927
 20
299.8630127021625
 30
0.0
  0
POINT
  5
205E
330
200E
100
AcDbEntity
  8
DEFPOINTS
  6
Continuous
 62
     0
100
AcDbPoint
 10
-510.5104073534967
 20
299.8630127021625
 30
0.0
  0
ENDBLK
  5
2010
330
200E
100
AcDbEntity
  8
0
100
AcDbBlockEnd
  0
BLOCK
  5
201B
330
201A
100
AcDbEntity
  8
0
100
AcDbBlockBegin
  2
*D24
 70
     1
 10
0.0
 20
0.0
 30
0.0
  3
*D24
  1

  0
LINE
  5
205F
330
201A
100
AcDbEntity
  8
SIZE
  6
Continuous
 62
     0
370
    -2
100
AcDbLine
 10
389.5000000000073
 20
299.8630127022001
 30
0.0
 11
593.6732275507019
 21
299.8630127022001
 31
0.0
  0
LINE
  5
2060
330
201A
100
AcDbEntity
  8
SIZE
  6
Continuous
 62
     0
370
    -2
100
AcDbLine
 10
389.6000000000058
 20
0.0000000000004491
 30
0.0
 11
593.6732275507019
 21
0.0000000000003913
 31
0.0
  0
LINE
  5
2061
330
201A
100
AcDbEntity
  8
SIZE
  6
Continuous
 62
     0
370
    -2
100
AcDbLine
 10
573.6732275507021
 20
287.8630127022002
 30
0.0
 11
573.6732275507018
 21
12.00000000000039
 31
0.0
  0
INSERT
  5
2062
330
201A
100
AcDbEntity
  8
SIZE
  6
Continuous
 62
     0
370
    -2
100
AcDbBlockReference
  2
_DOTBLANK
 10
573.6732275507021
 20
299.8630127022001
 30
0.0
 41
12.0
 42
12.0
 43
12.0
 50
90.0
  0
INSERT
  5
2063
330
201A
100
AcDbEntity
  8
SIZE
  6
Continuous
 62
     0
370
    -2
100
AcDbBlockReference
  2
_DOTBLANK
 10
573.6732275507018
 20
0.0000000000003969
 30
0.0
 41
12.0
 42
12.0
 43
12.0
 50
270.0
  0
MTEXT
  5
2064
330
201A
100
AcDbEntity
  8
SIZE
  6
Continuous
 62
     0
100
AcDbMText
 10
531.6732275507018
 20
149.9315063511003
 30
0.0
 40
64.0
 41
0.0
 71
     5
 72
     1
  1
\A1;300
 11
0.0000000000000001
 21
1.0
 31
0.0
 73
     1
 44
1.0
  0
POINT
  5
2065
330
201A
100
AcDbEntity
  8
DEFPOINTS
  6
Continuous
 62
     0
100
AcDbPoint
 10
369.5000000000074
 20
299.8630127022002
 30
0.0
  0
POINT
  5
2066
330
201A
100
AcDbEntity
  8
DEFPOINTS
  6
Continuous
 62
     0
100
AcDbPoint
 10
369.6000000000058
 20
0.0000000000004547
 30
0.0
  0
POINT
  5
2067
330
201A
100
AcDbEntity
  8
DEFPOINTS
  6
Continuous
 62
     0
100
AcDbPoint
 10
573.6732275507018
 20
0.0000000000003969
 30
0.0
  0
ENDBLK
  5
201C
330
201A
100
AcDbEntity
  8
0
100
AcDbBlockEnd
  0
BLOCK
  5
2027
330
2026
100
AcDbEntity
  8
0
100
AcDbBlockBegin
  2
*D25
 70
     1
 10
0.0
 20
0.0
 30
0.0
  3
*D25
  1

  0
LINE
  5
2068
330
2026
100
AcDbEntity
  8
SIZE
  6
Continuous
 62
     0
370
    -2
100
AcDbLine
 10
-361.0
 20
-33.49999999999726
 30
0.0
 11
-361.0
 21
-279.2238326064412
 31
0.0
  0
LINE
  5
2069
330
2026
100
AcDbEntity
  8
SIZE
  6
Continuous
 62
     0
370
    -2
100
AcDbLine
 10
361.0
 20
-27.49999999999727
 30
0.0
 11
361.0
 21
-279.2238326064412
 31
0.0
  0
LINE
  5
206A
330
2026
100
AcDbEntity
  8
SIZE
  6
Continuous
 62
     0
370
    -2
100
AcDbLine
 10
-349.0
 20
-259.2238326064412
 30
0.0
 11
349.0
 21
-259.2238326064412
 31
0.0
  0
INSERT
  5
206B
330
2026
100
AcDbEntity
  8
SIZE
  6
Continuous
 62
     0
370
    -2
100
AcDbBlockReference
  2
_DOTBLANK
 10
-361.0
 20
-259.2238326064412
 30
0.0
 41
12.0
 42
12.0
 43
12.0
 50
180.0
  0
INSERT
  5
206C
330
2026
100
AcDbEntity
  8
SIZE
  6
Continuous
 62
     0
370
    -2
100
AcDbBlockReference
  2
_DOTBLANK
 10
361.0
 20
-259.2238326064412
 30
0.0
 41
12.0
 42
12.0
 43
12.0
  0
MTEXT
  5
206D
330
2026
100
AcDbEntity
  8
SIZE
  6
Continuous
 62
     0
100
AcDbMText
 10
0.0000000000000026
 20
-217.2238326064412
 30
0.0
 40
64.0
 41
0.0
 71
     5
 72
     1
  1
\A1;722
 73
     1
 44
1.0
  0
POINT
  5
206E
330
2026
100
AcDbEntity
  8
DEFPOINTS
  6
Continuous
 62
     0
100
AcDbPoint
 10
-361.0
 20
-13.49999999999727
 30
0.0
  0
POINT
  5
206F
330
2026
100
AcDbEntity
  8
DEFPOINTS
  6
Continuous
 62
     0
100
AcDbPoint
 10
361.0
 20
-7.499999999997271
 30
0.0
  0
POINT
  5
2070
330
2026
100
AcDbEntity
  8
DEFPOINTS
  6
Continuous
 62
     0
100
AcDbPoint
 10
361.0
 20
-259.2238326064412
 30
0.0
  0
ENDBLK
  5
2028
330
2026
100
AcDbEntity
  8
0
100
AcDbBlockEnd
  0
BLOCK
  5
2033
330
2032
100
AcDbEntity
  8
0
100
AcDbBlockBegin
  2
*D26
 70
     1
 10
0.0
 20
0.0
 30
0.0
  3
*D26
  1

  0
LINE
  5
2071
330
2032
100
AcDbEntity
  8
SIZE
  6
Continuous
 62
     0
370
    -2
100
AcDbLine
 10
-369.5
 20
-25.09999999999855
 30
0.0
 11
-369.5
 21
-404.1291203845226
 31
0.0
  0
LINE
  5
2072
330
2032
100
AcDbEntity
  8
SIZE
  6
Continuous
 62
     0
370
    -2
100
AcDbLine
 10
370.5000000000073
 20
-19.09999999999945
 30
0.0
 11
370.5000000000073
 21
-404.1291203845226
 31
0.0
  0
LINE
  5
2073
330
2032
100
AcDbEntity
  8
SIZE
  6
Continuous
 62
     0
370
    -2
100
AcDbLine
 10
-357.5
 20
-384.1291203845226
 30
0.0
 11
358.5000000000073
 21
-384.1291203845226
 31
0.0
  0
INSERT
  5
2074
330
2032
100
AcDbEntity
  8
SIZE
  6
Continuous
 62
     0
370
    -2
100
AcDbBlockReference
  2
_DOTBLANK
 10
-369.5
 20
-384.1291203845226
 30
0.0
 41
12.0
 42
12.0
 43
12.0
 50
180.0
  0
INSERT
  5
2075
330
2032
100
AcDbEntity
  8
SIZE
  6
Continuous
 62
     0
370
    -2
100
AcDbBlockReference
  2
_DOTBLANK
 10
370.5000000000073
 20
-384.1291203845226
 30
0.0
 41
12.0
 42
12.0
 43
12.0
  0
MTEXT
  5
2076
330
2032
100
AcDbEntity
  8
SIZE
  6
Continuous
 62
     0
100
AcDbMText
 10
0.5000000000072787
 20
-342.1291203845227
 30
0.0
 40
64.0
 41
0.0
 71
     5
 72
     1
  1
\A1;740
 73
     1
 44
1.0
  0
POINT
  5
2077
330
2032
100
AcDbEntity
  8
DEFPOINTS
  6
Continuous
 62
     0
100
AcDbPoint
 10
-369.5
 20
-5.099999999998543
 30
0.0
  0
POINT
  5
2078
330
2032
100
AcDbEntity
  8
DEFPOINTS
  6
Continuous
 62
     0
100
AcDbPoint
 10
370.5000000000073
 20
0.9000000000005455
 30
0.0
  0
POINT
  5
2079
330
2032
100
AcDbEntity
  8
DEFPOINTS
  6
Continuous
 62
     0
100
AcDbPoint
 10
370.5000000000073
 20
-384.1291203845226
 30
0.0
  0
ENDBLK
  5
2034
330
2032
100
AcDbEntity
  8
0
100
AcDbBlockEnd
  0
BLOCK
  5
203F
330
203E
100
AcDbEntity
  8
0
100
AcDbBlockBegin
  2
*D27
 70
     1
 10
0.0
 20
0.0
 30
0.0
  3
*D27
  1

  0
LINE
  5
207A
330
203E
100
AcDbEntity
  8
SIZE
  6
Continuous
 62
     0
370
    -2
100
AcDbLine
 10
24.0
 20
-26.9825168311545
 30
0.0
 11
23.99999999999999
 21
-143.5667987319043
 31
0.0
  0
LINE
  5
207B
330
203E
100
AcDbEntity
  8
SIZE
  6
Continuous
 62
     0
370
    -2
100
AcDbLine
 10
-280.0
 20
-26.9825168311545
 30
0.0
 11
-280.0
 21
-143.5667987319043
 31
0.0
  0
LINE
  5
207C
330
203E
100
AcDbEntity
  8
SIZE
  6
Continuous
 62
     0
370
    -2
100
AcDbLine
 10
11.99999999999999
 20
-123.5667987319043
 30
0.0
 11
-268.0
 21
-123.5667987319043
 31
0.0
  0
INSERT
  5
207D
330
203E
100
AcDbEntity
  8
SIZE
  6
Continuous
 62
     0
370
    -2
100
AcDbBlockReference
  2
_DOTBLANK
 10
23.99999999999999
 20
-123.5667987319043
 30
0.0
 41
12.0
 42
12.0
 43
12.0
  0
INSERT
  5
207E
330
203E
100
AcDbEntity
  8
SIZE
  6
Continuous
 62
     0
370
    -2
100
AcDbBlockReference
  2
_DOTBLANK
 10
-280.0
 20
-123.5667987319043
 30
0.0
 41
12.0
 42
12.0
 43
12.0
 50
180.0
  0
MTEXT
  5
207F
330
203E
100
AcDbEntity
  8
SIZE
  6
Continuous
 62
     0
100
AcDbMText
 10
-128.0
 20
-81.56679873190432
 30
0.0
 40
64.0
 41
0.0
 71
     5
 72
     1
  1
\A1;304
 73
     1
 44
1.0
  0
POINT
  5
2080
330
203E
100
AcDbEntity
  8
DEFPOINTS
  6
Continuous
 62
     0
100
AcDbPoint
 10
24.0
 20
-6.982516831154496
 30
0.0
  0
POINT
  5
2081
330
203E
100
AcDbEntity
  8
DEFPOINTS
  6
Continuous
 62
     0
100
AcDbPoint
 10
-280.0
 20
-6.982516831154496
 30
0.0
  0
POINT
  5
2082
330
203E
100
AcDbEntity
  8
DEFPOINTS
  6
Continuous
 62
     0
100
AcDbPoint
 10
-280.0
 20
-123.5667987319043
 30
0.0
  0
ENDBLK
  5
2040
330
203E
100
AcDbEntity
  8
0
100
AcDbBlockEnd
  0
BLOCK
  5
204B
330
204A
100
AcDbEntity
  8
0
100
AcDbBlockBegin
  2
*D28
 70
     1
 10
0.0
 20
0.0
 30
0.0
  3
*D28
  1

  0
LINE
  5
2083
330
204A
100
AcDbEntity
  8
SIZE
  6
Continuous
 62
     0
370
    -2
100
AcDbLine
 10
24.0
 20
-26.9825168311545
 30
0.0
 11
23.99999999999999
 21
-143.5667987319043
 31
0.0
  0
LINE
  5
2084
330
204A
100
AcDbEntity
  8
SIZE
  6
Continuous
 62
     0
370
    -2
100
AcDbLine
 10
352.8000000000029
 20
-27.49999999999727
 30
0.0
 11
352.8000000000029
 21
-143.5667987319043
 31
0.0
  0
LINE
  5
2085
330
204A
100
AcDbEntity
  8
SIZE
  6
Continuous
 62
     0
370
    -2
100
AcDbLine
 10
36.0
 20
-123.5667987319043
 30
0.0
 11
340.8000000000029
 21
-123.5667987319043
 31
0.0
  0
INSERT
  5
2086
330
204A
100
AcDbEntity
  8
SIZE
  6
Continuous
 62
     0
370
    -2
100
AcDbBlockReference
  2
_DOTBLANK
 10
23.99999999999999
 20
-123.5667987319043
 30
0.0
 41
12.0
 42
12.0
 43
12.0
 50
180.0
  0
INSERT
  5
2087
330
204A
100
AcDbEntity
  8
SIZE
  6
Continuous
 62
     0
370
    -2
100
AcDbBlockReference
  2
_DOTBLANK
 10
352.8000000000029
 20
-123.5667987319043
 30
0.0
 41
12.0
 42
12.0
 43
12.0
  0
MTEXT
  5
2088
330
204A
100
AcDbEntity
  8
SIZE
  6
Continuous
 62
     0
100
AcDbMText
 10
188.4000000000014
 20
-81.56679873190432
 30
0.0
 40
64.0
 41
0.0
 71
     5
 72
     1
  1
\A1;329
 73
     1
 44
1.0
  0
POINT
  5
2089
330
204A
100
AcDbEntity
  8
DEFPOINTS
  6
Continuous
 62
     0
100
AcDbPoint
 10
24.0
 20
-6.982516831154496
 30
0.0
  0
POINT
  5
208A
330
204A
100
AcDbEntity
  8
DEFPOINTS
  6
Continuous
 62
     0
100
AcDbPoint
 10
352.8000000000029
 20
-7.499999999997271
 30
0.0
  0
POINT
  5
208B
330
204A
100
AcDbEntity
  8
DEFPOINTS
  6
Continuous
 62
     0
100
AcDbPoint
 10
352.8000000000029
 20
-123.5667987319043
 30
0.0
  0
ENDBLK
  5
204C
330
204A
100
AcDbEntity
  8
0
100
AcDbBlockEnd
  0
BLOCK
  5
2375
330
2374
100
AcDbEntity
  8
0
100
AcDbBlockBegin
  2
*D29
 70
     1
 10
0.0
 20
0.0
 30
0.0
  3
*D29
  1

  0
LINE
  5
2376
330
2374
100
AcDbEntity
  8
SIZE
  6
Continuous
 62
     0
370
    -2
100
AcDbLine
 10
-48520.52657755408
 20
-404.3660074018512
 30
0.0
 11
-48520.52657755408
 21
-564.8037721596273
 31
0.0
  0
LINE
  5
2377
330
2374
100
AcDbEntity
  8
SIZE
  6
Continuous
 62
     0
370
    -2
100
AcDbLine
 10
-47903.62657755409
 20
-412.8660074018091
 30
0.0
 11
-47903.62657755409
 21
-564.8037721596273
 31
0.0
  0
LINE
  5
2378
330
2374
100
AcDbEntity
  8
SIZE
  6
Continuous
 62
     0
370
    -2
100
AcDbLine
 10
-48508.52657755408
 20
-544.8037721596273
 30
0.0
 11
-47915.62657755409
 21
-544.8037721596273
 31
0.0
  0
INSERT
  5
2379
330
2374
100
AcDbEntity
  8
SIZE
  6
Continuous
 62
     0
370
    -2
100
AcDbBlockReference
  2
_DOTBLANK
 10
-48520.52657755408
 20
-544.8037721596273
 30
0.0
 41
12.0
 42
12.0
 43
12.0
 50
180.0
  0
INSERT
  5
237A
330
2374
100
AcDbEntity
  8
SIZE
  6
Continuous
 62
     0
370
    -2
100
AcDbBlockReference
  2
_DOTBLANK
 10
-47903.62657755409
 20
-544.8037721596273
 30
0.0
 41
12.0
 42
12.0
 43
12.0
  0
MTEXT
  5
237B
330
2374
100
AcDbEntity
  8
SIZE
  6
Continuous
 62
     0
100
AcDbMText
 10
-48212.07657755409
 20
-502.8037721596273
 30
0.0
 40
64.0
 41
0.0
 71
     5
 72
     1
  1
\A1;617
 73
     1
 44
1.0
  0
POINT
  5
237C
330
2374
100
AcDbEntity
  8
DEFPOINTS
  6
Continuous
 62
     0
100
AcDbPoint
 10
-48520.52657755408
 20
-384.3660074018512
 30
0.0
  0
POINT
  5
237D
330
2374
100
AcDbEntity
  8
DEFPOINTS
  6
Continuous
 62
     0
100
AcDbPoint
 10
-47903.62657755409
 20
-392.8660074018091
 30
0.0
  0
POINT
  5
237E
330
2374
100
AcDbEntity
  8
DEFPOINTS
  6
Continuous
 62
     0
100
AcDbPoint
 10
-47903.62657755409
 20
-544.8037721596273
 30
0.0
  0
ENDBLK
  5
237F
330
2374
100
AcDbEntity
  8
0
100
AcDbBlockEnd
  0
BLOCK
  5
2381
330
2380
100
AcDbEntity
  8
0
100
AcDbBlockBegin
  2
*D30
 70
     1
 10
0.0
 20
0.0
 30
0.0
  3
*D30
  1

  0
LINE
  5
2382
330
2380
100
AcDbEntity
  8
SIZE
  6
Continuous
 62
     0
370
    -2
100
AcDbLine
 10
-48526.02657755409
 20
-396.8660074018544
 30
0.0
 11
-48526.02657755409
 21
-701.5161022979072
 31
0.0
  0
LINE
  5
2383
330
2380
100
AcDbEntity
  8
SIZE
  6
Continuous
 62
     0
370
    -2
100
AcDbLine
 10
-47896.62657755409
 20
-405.3660074018185
 30
0.0
 11
-47896.62657755409
 21
-701.5161022979072
 31
0.0
  0
LINE
  5
2384
330
2380
100
AcDbEntity
  8
SIZE
  6
Continuous
 62
     0
370
    -2
100
AcDbLine
 10
-48514.02657755409
 20
-681.5161022979073
 30
0.0
 11
-47908.62657755408
 21
-681.5161022979073
 31
0.0
  0
INSERT
  5
2385
330
2380
100
AcDbEntity
  8
SIZE
  6
Continuous
 62
     0
370
    -2
100
AcDbBlockReference
  2
_DOTBLANK
 10
-48526.02657755409
 20
-681.5161022979073
 30
0.0
 41
12.0
 42
12.0
 43
12.0
 50
180.0
  0
INSERT
  5
2386
330
2380
100
AcDbEntity
  8
SIZE
  6
Continuous
 62
     0
370
    -2
100
AcDbBlockReference
  2
_DOTBLANK
 10
-47896.62657755409
 20
-681.5161022979073
 30
0.0
 41
12.0
 42
12.0
 43
12.0
  0
MTEXT
  5
2387
330
2380
100
AcDbEntity
  8
SIZE
  6
Continuous
 62
     0
100
AcDbMText
 10
-48211.32657755409
 20
-639.5161022979073
 30
0.0
 40
64.0
 41
0.0
 71
     5
 72
     1
  1
\A1;629
 73
     1
 44
1.0
  0
POINT
  5
2388
330
2380
100
AcDbEntity
  8
DEFPOINTS
  6
Continuous
 62
     0
100
AcDbPoint
 10
-48526.02657755409
 20
-376.8660074018544
 30
0.0
  0
POINT
  5
2389
330
2380
100
AcDbEntity
  8
DEFPOINTS
  6
Continuous
 62
     0
100
AcDbPoint
 10
-47896.62657755409
 20
-385.3660074018185
 30
0.0
  0
POINT
  5
238A
330
2380
100
AcDbEntity
  8
DEFPOINTS
  6
Continuous
 62
     0
100
AcDbPoint
 10
-47896.62657755409
 20
-681.5161022979073
 30
0.0
  0
ENDBLK
  5
238B
330
2380
100
AcDbEntity
  8
0
100
AcDbBlockEnd
  0
BLOCK
  5
238D
330
238C
100
AcDbEntity
  8
0
100
AcDbBlockBegin
  2
*D31
 70
     1
 10
0.0
 20
0.0
 30
0.0
  3
*D31
  1

  0
LINE
  5
238E
330
238C
100
AcDbEntity
  8
SIZE
  6
Continuous
 62
     0
370
    -2
100
AcDbLine
 10
-47876.12657755409
 20
-385.3660074018123
 30
0.0
 11
-47721.01667181283
 21
-385.3660074018123
 31
0.0
  0
LINE
  5
238F
330
238C
100
AcDbEntity
  8
SIZE
  6
Continuous
 62
     0
370
    -2
100
AcDbLine
 10
-47892.82657755409
 20
-208.8281467144975
 30
0.0
 11
-47721.01667181283
 21
-208.8281467144975
 31
0.0
  0
LINE
  5
2390
330
238C
100
AcDbEntity
  8
SIZE
  6
Continuous
 62
     0
370
    -2
100
AcDbLine
 10
-47741.01667181284
 20
-373.3660074018124
 30
0.0
 11
-47741.01667181284
 21
-220.8281467144975
 31
0.0
  0
INSERT
  5
2391
330
238C
100
AcDbEntity
  8
SIZE
  6
Continuous
 62
     0
370
    -2
100
AcDbBlockReference
  2
_DOTBLANK
 10
-47741.01667181284
 20
-385.3660074018123
 30
0.0
 41
12.0
 42
12.0
 43
12.0
 50
270.0
  0
INSERT
  5
2392
330
238C
100
AcDbEntity
  8
SIZE
  6
Continuous
 62
     0
370
    -2
100
AcDbBlockReference
  2
_DOTBLANK
 10
-47741.01667181284
 20
-208.8281467144975
 30
0.0
 41
12.0
 42
12.0
 43
12.0
 50
90.0
  0
MTEXT
  5
2393
330
238C
100
AcDbEntity
  8
SIZE
  6
Continuous
 62
     0
100
AcDbMText
 10
-47783.01667181284
 20
-297.0970770581626
 30
0.0
 40
64.0
 41
0.0
 71
     5
 72
     1
  1
\A1;177
 11
0.0000000000000001
 21
1.0
 31
0.0
 73
     1
 44
1.0
  0
POINT
  5
2394
330
238C
100
AcDbEntity
  8
DEFPOINTS
  6
Continuous
 62
     0
100
AcDbPoint
 10
-47896.12657755409
 20
-385.3660074018123
 30
0.0
  0
POINT
  5
2395
330
238C
100
AcDbEntity
  8
DEFPOINTS
  6
Continuous
 62
     0
100
AcDbPoint
 10
-47912.82657755409
 20
-208.8281467144975
 30
0.0
  0
POINT
  5
2396
330
238C
100
AcDbEntity
  8
DEFPOINTS
  6
Continuous
 62
     0
100
AcDbPoint
 10
-47741.01667181284
 20
-208.8281467144975
 30
0.0
  0
ENDBLK
  5
2397
330
238C
100
AcDbEntity
  8
0
100
AcDbBlockEnd
  0
BLOCK
  5
2399
330
2398
100
AcDbEntity
  8
0
100
AcDbBlockBegin
  2
*D32
 70
     1
 10
0.0
 20
0.0
 30
0.0
  3
*D32
  1

  0
LINE
  5
239A
330
2398
100
AcDbEntity
  8
SIZE
  6
Continuous
 62
     0
370
    -2
100
AcDbLine
 10
-48548.02657755409
 20
-376.8660074018544
 30
0.0
 11
-48610.51401739911
 21
-376.8660074018544
 31
0.0
  0
LINE
  5
239B
330
2398
100
AcDbEntity
  8
SIZE
  6
Continuous
 62
     0
370
    -2
100
AcDbLine
 10
-48532.82657755408
 20
-208.8281467145016
 30
0.0
 11
-48610.51401739911
 21
-208.8281467145016
 31
0.0
  0
LINE
  5
239C
330
2398
100
AcDbEntity
  8
SIZE
  6
Continuous
 62
     0
370
    -2
100
AcDbLine
 10
-48590.51401739911
 20
-364.8660074018544
 30
0.0
 11
-48590.51401739911
 21
-220.8281467145016
 31
0.0
  0
INSERT
  5
239D
330
2398
100
AcDbEntity
  8
SIZE
  6
Continuous
 62
     0
370
    -2
100
AcDbBlockReference
  2
_DOTBLANK
 10
-48590.51401739911
 20
-376.8660074018544
 30
0.0
 41
12.0
 42
12.0
 43
12.0
 50
270.0
  0
INSERT
  5
239E
330
2398
100
AcDbEntity
  8
SIZE
  6
Continuous
 62
     0
370
    -2
100
AcDbBlockReference
  2
_DOTBLANK
 10
-48590.51401739911
 20
-208.8281467145016
 30
0.0
 41
12.0
 42
12.0
 43
12.0
 50
90.0
  0
MTEXT
  5
239F
330
2398
100
AcDbEntity
  8
SIZE
  6
Continuous
 62
     0
100
AcDbMText
 10
-48632.51401739911
 20
-292.8470770581859
 30
0.0
 40
64.0
 41
0.0
 71
     5
 72
     1
  1
\A1;168
 11
0.0000000000000001
 21
1.0
 31
0.0
 73
     1
 44
1.0
  0
POINT
  5
23A0
330
2398
100
AcDbEntity
  8
DEFPOINTS
  6
Continuous
 62
     0
100
AcDbPoint
 10
-48528.02657755408
 20
-376.8660074018544
 30
0.0
  0
POINT
  5
23A1
330
2398
100
AcDbEntity
  8
DEFPOINTS
  6
Continuous
 62
     0
100
AcDbPoint
 10
-48512.82657755407
 20
-208.8281467145016
 30
0.0
  0
POINT
  5
23A2
330
2398
100
AcDbEntity
  8
DEFPOINTS
  6
Continuous
 62
     0
100
AcDbPoint
 10
-48590.51401739911
 20
-208.8281467145016
 30
0.0
  0
ENDBLK
  5
23A3
330
2398
100
AcDbEntity
  8
0
100
AcDbBlockEnd
  0
BLOCK
  5
264A
330
2649
100
AcDbEntity
  8
0
100
AcDbBlockBegin
  2
*D33
 70
     1
 10
0.0
 20
0.0
 30
0.0
  3
*D33
  1

  0
LINE
  5
264C
330
2649
100
AcDbEntity
  8
SIZE
  6
Continuous
 62
     0
370
    -2
100
AcDbLine
 10
-355.486211620751
 20
-1073.477163255993
 30
0.0
 11
-355.486211620751
 21
-1233.914928013769
 31
0.0
  0
LINE
  5
264D
330
2649
100
AcDbEntity
  8
SIZE
  6
Continuous
 62
     0
370
    -2
100
AcDbLine
 10
261.4137883792505
 20
-1081.97716325595
 30
0.0
 11
261.4137883792505
 21
-1233.914928013769
 31
0.0
  0
LINE
  5
264E
330
2649
100
AcDbEntity
  8
SIZE
  6
Continuous
 62
     0
370
    -2
100
AcDbLine
 10
-343.486211620751
 20
-1213.914928013769
 30
0.0
 11
249.4137883792505
 21
-1213.914928013769
 31
0.0
  0
INSERT
  5
264F
330
2649
100
AcDbEntity
  8
SIZE
  6
Continuous
 62
     0
370
    -2
100
AcDbBlockReference
  2
_DOTBLANK
 10
-355.486211620751
 20
-1213.914928013769
 30
0.0
 41
12.0
 42
12.0
 43
12.0
 50
180.0
  0
INSERT
  5
2650
330
2649
100
AcDbEntity
  8
SIZE
  6
Continuous
 62
     0
370
    -2
100
AcDbBlockReference
  2
_DOTBLANK
 10
261.4137883792505
 20
-1213.914928013769
 30
0.0
 41
12.0
 42
12.0
 43
12.0
  0
MTEXT
  5
2651
330
2649
100
AcDbEntity
  8
SIZE
  6
Continuous
 62
     0
100
AcDbMText
 10
-47.03621162075022
 20
-1171.914928013769
 30
0.0
 40
64.0
 41
0.0
 71
     5
 72
     1
  1
\A1;617
 73
     1
 44
1.0
  0
POINT
  5
2652
330
2649
100
AcDbEntity
  8
DEFPOINTS
  6
Continuous
 62
     0
100
AcDbPoint
 10
-355.486211620751
 20
-1053.477163255992
 30
0.0
  0
POINT
  5
2653
330
2649
100
AcDbEntity
  8
DEFPOINTS
  6
Continuous
 62
     0
100
AcDbPoint
 10
261.4137883792505
 20
-1061.97716325595
 30
0.0
  0
POINT
  5
2654
330
2649
100
AcDbEntity
  8
DEFPOINTS
  6
Continuous
 62
     0
100
AcDbPoint
 10
261.4137883792505
 20
-1213.914928013769
 30
0.0
  0
ENDBLK
  5
264B
330
2649
100
AcDbEntity
  8
0
100
AcDbBlockEnd
  0
BLOCK
  5
2656
330
2655
100
AcDbEntity
  8
0
100
AcDbBlockBegin
  2
*D34
 70
     1
 10
0.0
 20
0.0
 30
0.0
  3
*D34
  1

  0
LINE
  5
2658
330
2655
100
AcDbEntity
  8
SIZE
  6
Continuous
 62
     0
370
    -2
100
AcDbLine
 10
-360.9862116207509
 20
-1065.977163255996
 30
0.0
 11
-360.9862116207509
 21
-1370.627258152049
 31
0.0
  0
LINE
  5
2659
330
2655
100
AcDbEntity
  8
SIZE
  6
Continuous
 62
     0
370
    -2
100
AcDbLine
 10
268.4137883792505
 20
-1074.47716325596
 30
0.0
 11
268.4137883792505
 21
-1370.627258152049
 31
0.0
  0
LINE
  5
265A
330
2655
100
AcDbEntity
  8
SIZE
  6
Continuous
 62
     0
370
    -2
100
AcDbLine
 10
-348.986211620751
 20
-1350.627258152049
 30
0.0
 11
256.4137883792505
 21
-1350.627258152049
 31
0.0
  0
INSERT
  5
265B
330
2655
100
AcDbEntity
  8
SIZE
  6
Continuous
 62
     0
370
    -2
100
AcDbBlockReference
  2
_DOTBLANK
 10
-360.9862116207509
 20
-1350.627258152049
 30
0.0
 41
12.0
 42
12.0
 43
12.0
 50
180.0
  0
INSERT
  5
265C
330
2655
100
AcDbEntity
  8
SIZE
  6
Continuous
 62
     0
370
    -2
100
AcDbBlockReference
  2
_DOTBLANK
 10
268.4137883792505
 20
-1350.627258152049
 30
0.0
 41
12.0
 42
12.0
 43
12.0
  0
MTEXT
  5
265D
330
2655
100
AcDbEntity
  8
SIZE
  6
Continuous
 62
     0
100
AcDbMText
 10
-46.28621162075023
 20
-1308.627258152049
 30
0.0
 40
64.0
 41
0.0
 71
     5
 72
     1
  1
\A1;629
 73
     1
 44
1.0
  0
POINT
  5
265E
330
2655
100
AcDbEntity
  8
DEFPOINTS
  6
Continuous
 62
     0
100
AcDbPoint
 10
-360.9862116207509
 20
-1045.977163255996
 30
0.0
  0
POINT
  5
265F
330
2655
100
AcDbEntity
  8
DEFPOINTS
  6
Continuous
 62
     0
100
AcDbPoint
 10
268.4137883792505
 20
-1054.47716325596
 30
0.0
  0
POINT
  5
2660
330
2655
100
AcDbEntity
  8
DEFPOINTS
  6
Continuous
 62
     0
100
AcDbPoint
 10
268.4137883792505
 20
-1350.627258152049
 30
0.0
  0
ENDBLK
  5
2657
330
2655
100
AcDbEntity
  8
0
100
AcDbBlockEnd
  0
BLOCK
  5
2662
330
2661
100
AcDbEntity
  8
0
100
AcDbBlockBegin
  2
*D35
 70
     1
 10
0.0
 20
0.0
 30
0.0
  3
*D35
  1

  0
LINE
  5
2664
330
2661
100
AcDbEntity
  8
SIZE
  6
Continuous
 62
     0
370
    -2
100
AcDbLine
 10
288.9137883792505
 20
-1054.477163255954
 30
0.0
 11
444.0236941205006
 21
-1054.477163255954
 31
0.0
  0
LINE
  5
2665
330
2661
100
AcDbEntity
  8
SIZE
  6
Continuous
 62
     0
370
    -2
100
AcDbLine
 10
272.2137883792462
 20
-877.9393025686392
 30
0.0
 11
444.0236941205006
 21
-877.9393025686392
 31
0.0
  0
LINE
  5
2666
330
2661
100
AcDbEntity
  8
SIZE
  6
Continuous
 62
     0
370
    -2
100
AcDbLine
 10
424.0236941205004
 20
-1042.477163255954
 30
0.0
 11
424.0236941205006
 21
-889.9393025686391
 31
0.0
  0
INSERT
  5
2667
330
2661
100
AcDbEntity
  8
SIZE
  6
Continuous
 62
     0
370
    -2
100
AcDbBlockReference
  2
_DOTBLANK
 10
424.0236941205004
 20
-1054.477163255954
 30
0.0
 41
12.0
 42
12.0
 43
12.0
 50
270.0
  0
INSERT
  5
2668
330
2661
100
AcDbEntity
  8
SIZE
  6
Continuous
 62
     0
370
    -2
100
AcDbBlockReference
  2
_DOTBLANK
 10
424.0236941205006
 20
-877.9393025686392
 30
0.0
 41
12.0
 42
12.0
 43
12.0
 50
90.0
  0
MTEXT
  5
2669
330
2661
100
AcDbEntity
  8
SIZE
  6
Continuous
 62
     0
100
AcDbMText
 10
382.0236941205008
 20
-966.2082329123039
 30
0.0
 40
64.0
 41
0.0
 71
     5
 72
     1
  1
\A1;177
 11
0.0000000000000001
 21
1.0
 31
0.0
 73
     1
 44
1.0
  0
POINT
  5
266A
330
2661
100
AcDbEntity
  8
DEFPOINTS
  6
Continuous
 62
     0
100
AcDbPoint
 10
268.9137883792505
 20
-1054.477163255954
 30
0.0
  0
POINT
  5
266B
330
2661
100
AcDbEntity
  8
DEFPOINTS
  6
Continuous
 62
     0
100
AcDbPoint
 10
252.2137883792461
 20
-877.939302568639
 30
0.0
  0
POINT
  5
266C
330
2661
100
AcDbEntity
  8
DEFPOINTS
  6
Continuous
 62
     0
100
AcDbPoint
 10
424.0236941205006
 20
-877.9393025686392
 30
0.0
  0
ENDBLK
  5
2663
330
2661
100
AcDbEntity
  8
0
100
AcDbBlockEnd
  0
BLOCK
  5
266E
330
266D
100
AcDbEntity
  8
0
100
AcDbBlockBegin
  2
*D36
 70
     1
 10
0.0
 20
0.0
 30
0.0
  3
*D36
  1

  0
LINE
  5
2670
330
266D
100
AcDbEntity
  8
SIZE
  6
Continuous
 62
     0
370
    -2
100
AcDbLine
 10
-382.986211620751
 20
-1045.977163255996
 30
0.0
 11
-445.4736514657701
 21
-1045.977163255996
 31
0.0
  0
LINE
  5
2671
330
266D
100
AcDbEntity
  8
SIZE
  6
Continuous
 62
     0
370
    -2
100
AcDbLine
 10
-367.7862116207466
 20
-877.9393025686431
 30
0.0
 11
-445.4736514657701
 21
-877.9393025686431
 31
0.0
  0
LINE
  5
2672
330
266D
100
AcDbEntity
  8
SIZE
  6
Continuous
 62
     0
370
    -2
100
AcDbLine
 10
-425.4736514657701
 20
-1033.977163255996
 30
0.0
 11
-425.4736514657701
 21
-889.9393025686432
 31
0.0
  0
INSERT
  5
2673
330
266D
100
AcDbEntity
  8
SIZE
  6
Continuous
 62
     0
370
    -2
100
AcDbBlockReference
  2
_DOTBLANK
 10
-425.4736514657701
 20
-1045.977163255996
 30
0.0
 41
12.0
 42
12.0
 43
12.0
 50
270.0
  0
INSERT
  5
2674
330
266D
100
AcDbEntity
  8
SIZE
  6
Continuous
 62
     0
370
    -2
100
AcDbBlockReference
  2
_DOTBLANK
 10
-425.4736514657701
 20
-877.9393025686431
 30
0.0
 41
12.0
 42
12.0
 43
12.0
 50
90.0
  0
MTEXT
  5
2675
330
266D
100
AcDbEntity
  8
SIZE
  6
Continuous
 62
     0
100
AcDbMText
 10
-467.4736514657701
 20
-961.9582329123197
 30
0.0
 40
64.0
 41
0.0
 71
     5
 72
     1
  1
\A1;168
 11
0.0000000000000001
 21
1.0
 31
0.0
 73
     1
 44
1.0
  0
POINT
  5
2676
330
266D
100
AcDbEntity
  8
DEFPOINTS
  6
Continuous
 62
     0
100
AcDbPoint
 10
-362.9862116207509
 20
-1045.977163255996
 30
0.0
  0
POINT
  5
2677
330
266D
100
AcDbEntity
  8
DEFPOINTS
  6
Continuous
 62
     0
100
AcDbPoint
 10
-347.7862116207466
 20
-877.9393025686431
 30
0.0
  0
POINT
  5
2678
330
266D
100
AcDbEntity
  8
DEFPOINTS
  6
Continuous
 62
     0
100
AcDbPoint
 10
-425.4736514657701
 20
-877.9393025686431
 30
0.0
  0
ENDBLK
  5
266F
330
266D
100
AcDbEntity
  8
0
100
AcDbBlockEnd
  0
ENDSEC
  0
SECTION
  2
ENTITIES
  0
TEXT
  5
953
330
85F
100
AcDbEntity
  8
OUTLINE
  6
Continuous
 62
     3
100
AcDbText
 10
-418.231467
 20
13.715189
 30
0.0
 40
64.0
  1
 
 41
0.9
100
AcDbText
  0
TEXT
  5
954
330
85F
100
AcDbEntity
  8
OUTLINE
  6
Continuous
 62
     3
100
AcDbText
 10
-418.231467
 20
13.715189
 30
0.0
 40
64.0
  1
 
 41
0.9
100
AcDbText
  0
TEXT
  5
955
330
85F
100
AcDbEntity
  8
OUTLINE
  6
Continuous
 62
     3
100
AcDbText
 10
1341.41903
 20
-706.0588199999997
 30
0.0
 40
64.0
  1
 
 41
0.9
100
AcDbText
  0
TEXT
  5
956
330
85F
100
AcDbEntity
  8
OUTLINE
  6
Continuous
 62
     3
100
AcDbText
 10
1341.41903
 20
-706.0588199999997
 30
0.0
 40
64.0
  1
 
 41
0.9
100
AcDbText
  0
TEXT
  5
957
330
85F
100
AcDbEntity
  8
OUTLINE
  6
Continuous
 62
     3
100
AcDbText
 10
1341.41903
 20
-706.0588199999997
 30
0.0
 40
64.0
  1
 
 41
0.9
100
AcDbText
  0
TEXT
  5
958
330
85F
100
AcDbEntity
  8
OUTLINE
  6
Continuous
 62
     3
100
AcDbText
 10
1341.41903
 20
-706.0588199999997
 30
0.0
 40
64.0
  1
 
 41
0.9
100
AcDbText
  0
LINE
  5
24FA
330
85F
100
AcDbEntity
  8
DETAIL
100
AcDbLine
 10
-357.986211620751
 20
-1045.177163255995
 30
0.0
 11
-360.9862116207509
 21
-1045.177163255994
 31
0.0
  0
LINE
  5
24FB
330
85F
100
AcDbEntity
  8
DETAIL
100
AcDbLine
 10
-332.7862116207466
 20
-1032.977163255866
 30
0.0
 11
-335.7862116207466
 21
-1035.977163255865
 31
0.0
  0
LINE
  5
24FC
330
85F
100
AcDbEntity
  8
DETAIL
100
AcDbLine
 10
-360.9862116207509
 20
-1045.177163255994
 30
0.0
 11
-360.9862116207509
 21
-1045.977163255994
 31
0.0
  0
LINE
  5
24FD
330
85F
100
AcDbEntity
  8
DETAIL
100
AcDbLine
 10
-360.9862116207509
 20
-1045.977163255994
 30
0.0
 11
-357.986211620751
 21
-1045.977163255995
 31
0.0
  0
LINE
  5
24FE
330
85F
100
AcDbEntity
  8
DETAIL
100
AcDbLine
 10
-357.986211620751
 20
-1045.977163255995
 30
0.0
 11
-357.986211620751
 21
-1045.177163255995
 31
0.0
  0
LINE
  5
24FF
330
85F
100
AcDbEntity
  8
DETAIL
100
AcDbLine
 10
-348.8862116207451
 20
-1045.177163255995
 30
0.0
 11
-357.986211620751
 21
-1045.177163255995
 31
0.0
  0
LINE
  5
2500
330
85F
100
AcDbEntity
  8
DETAIL
100
AcDbLine
 10
-348.8862116207451
 20
-1045.977163255995
 30
0.0
 11
-357.986211620751
 21
-1045.977163255995
 31
0.0
  0
LINE
  5
2501
330
85F
100
AcDbEntity
  8
DETAIL
100
AcDbLine
 10
-335.7862116207466
 20
-1035.977163255865
 30
0.0
 11
-347.1862116207481
 21
-1035.977163255865
 31
0.0
  0
LINE
  5
2502
330
85F
100
AcDbEntity
  8
DETAIL
100
AcDbLine
 10
-332.7862116207466
 20
-1032.977163255866
 30
0.0
 11
-332.7862116207466
 21
-1013.977163255865
 31
0.0
  0
LINE
  5
2503
330
85F
100
AcDbEntity
  8
DETAIL
100
AcDbLine
 10
-332.7862116207466
 20
-1013.977163255865
 30
0.0
 11
-347.1862116207481
 21
-1013.977163255865
 31
0.0
  0
CIRCLE
  5
2504
330
85F
100
AcDbEntity
  8
DETAIL
100
AcDbCircle
 10
-339.2862116207466
 20
-1022.977163255865
 30
0.0
 40
2.5
  0
LINE
  5
2505
330
85F
100
AcDbEntity
  8
DETAIL
100
AcDbLine
 10
-338.736211620751
 20
-1001.974282982216
 30
0.0
 11
-338.736211620751
 21
-1002.281264242312
 31
0.0
  0
LINE
  5
2506
330
85F
100
AcDbEntity
  8
DETAIL
100
AcDbLine
 10
-338.736211620751
 20
-1001.974282982216
 30
0.0
 11
-338.736211620751
 21
-1001.574282982216
 31
0.0
  0
ELLIPSE
  5
2507
330
85F
100
AcDbEntity
  8
DETAIL
100
AcDbEllipse
 10
-339.2862116207466
 20
-1000.365719785689
 30
0.0
 11
1.499999999999985
 21
-0.0000000000000389
 31
0.0
210
0.0
220
0.0
230
1.0
 40
0.8660254037842888
 41
5.087812588365603
 42
6.128610417167745
  0
ELLIPSE
  5
2508
330
85F
100
AcDbEntity
  8
DETAIL
100
AcDbEllipse
 10
-339.2862116207466
 20
-1000.365719785689
 30
0.0
 11
-1.500000000000005
 21
0.0000000000000301
 31
0.0
210
0.0
220
0.0
230
0.9999999999999998
 40
0.866025403784292
 41
0.154574890011824
 42
1.195372718814021
  0
ELLIPSE
  5
2509
330
85F
100
AcDbEntity
  8
DETAIL
100
AcDbEllipse
 10
-339.2862116207466
 20
-1000.765719785689
 30
0.0
 11
-1.499999999999997
 21
0.000000000000031
 31
0.0
210
0.0
220
0.0
230
0.9999999999999998
 40
0.8660254037842904
 41
1.946219934776273
 42
7.478558025993608
  0
LINE
  5
250A
330
85F
100
AcDbEntity
  8
DETAIL
100
AcDbLine
 10
-339.8362116207495
 20
-1001.974282982216
 30
0.0
 11
-339.8362116207495
 21
-1001.574282982216
 31
0.0
  0
LINE
  5
250B
330
85F
100
AcDbEntity
  8
DETAIL
100
AcDbLine
 10
-339.8362116207495
 20
-1002.281264242312
 30
0.0
 11
-339.8362116207495
 21
-1001.974282982216
 31
0.0
  0
ELLIPSE
  5
250C
330
85F
100
AcDbEntity
  8
DETAIL
100
AcDbEllipse
 10
-339.2862116207466
 20
-1001.881264242312
 30
0.0
 11
-0.5499999999999983
 21
-0.0000000000000266
 31
0.0
210
0.0
220
0.0
230
1.0
 40
0.8660254037842932
 41
0.0
 42
3.141592653589706
  0
ELLIPSE
  5
250D
330
85F
100
AcDbEntity
  8
DETAIL
100
AcDbEllipse
 10
-339.2862116207466
 20
-1002.281264242312
 30
0.0
 11
0.5500000000000027
 21
0.0
 31
0.0
210
0.0
220
0.0
230
1.0
 40
0.8660254037842932
 41
3.141592653589781
 42
6.283185307179574
  0
LINE
  5
250E
330
85F
100
AcDbEntity
  8
DETAIL
100
AcDbLine
 10
-338.736211620751
 20
-898.0512345281011
 30
0.0
 11
-338.736211620751
 21
-898.3582157881969
 31
0.0
  0
LINE
  5
250F
330
85F
100
AcDbEntity
  8
DETAIL
100
AcDbLine
 10
-338.736211620751
 20
-898.0512345281011
 30
0.0
 11
-338.736211620751
 21
-897.6512345281012
 31
0.0
  0
ELLIPSE
  5
2510
330
85F
100
AcDbEntity
  8
DETAIL
100
AcDbEllipse
 10
-339.2862116207466
 20
-896.4426713315743
 30
0.0
 11
1.500000000000006
 21
-0.0000000000000761
 31
0.0
210
0.0
220
0.0
230
1.0
 40
0.8660254037843017
 41
5.087812588365631
 42
6.128610417167641
  0
ELLIPSE
  5
2511
330
85F
100
AcDbEntity
  8
DETAIL
100
AcDbEllipse
 10
-339.2862116207466
 20
-896.4426713315743
 30
0.0
 11
-1.500000000000011
 21
0.0000000000000985
 31
0.0
210
0.0
220
0.0
230
1.0
 40
0.8660254037842777
 41
0.154574890011879
 42
1.195372718814069
  0
ELLIPSE
  5
2512
330
85F
100
AcDbEntity
  8
DETAIL
100
AcDbEllipse
 10
-339.2862116207466
 20
-896.8426713315743
 30
0.0
 11
-1.499999999999991
 21
0.0000000000000461
 31
0.0
210
0.0
220
0.0
230
1.0
 40
0.8660254037842896
 41
1.946219934776281
 42
7.478558025993619
  0
LINE
  5
2513
330
85F
100
AcDbEntity
  8
DETAIL
100
AcDbLine
 10
-339.8362116207495
 20
-898.0512345281011
 30
0.0
 11
-339.8362116207495
 21
-897.6512345281012
 31
0.0
  0
LINE
  5
2514
330
85F
100
AcDbEntity
  8
DETAIL
100
AcDbLine
 10
-339.8362116207495
 20
-898.3582157881969
 30
0.0
 11
-339.8362116207495
 21
-898.0512345281011
 31
0.0
  0
ELLIPSE
  5
2515
330
85F
100
AcDbEntity
  8
DETAIL
100
AcDbEllipse
 10
-339.2862116207466
 20
-897.9582157881969
 30
0.0
 11
-0.5500000000000007
 21
-0.0000000000000178
 31
0.0
210
0.0
220
0.0
230
1.0
 40
0.8660254037842966
 41
0.0
 42
3.141592653589734
  0
ELLIPSE
  5
2516
330
85F
100
AcDbEntity
  8
DETAIL
100
AcDbEllipse
 10
-339.2862116207466
 20
-898.3582157881969
 30
0.0
 11
0.5500000000000007
 21
-0.0000000000000178
 31
0.0
210
0.0
220
0.0
230
1.0
 40
0.8660254037842966
 41
3.141592653589829
 42
6.283185307179622
  0
LINE
  5
2517
330
85F
100
AcDbEntity
  8
DETAIL
100
AcDbLine
 10
-347.1862116207481
 20
-1036.978127159946
 30
0.0
 11
-347.986211620751
 21
-1036.978127159946
 31
0.0
  0
LINE
  5
2518
330
85F
100
AcDbEntity
  8
DETAIL
100
AcDbLine
 10
-347.1862116207481
 20
-883.2585432996102
 30
0.0
 11
-347.986211620751
 21
-883.2585432996102
 31
0.0
  0
LINE
  5
2519
330
85F
100
AcDbEntity
  8
DETAIL
100
AcDbLine
 10
-347.1862116207481
 20
-883.2585432996102
 30
0.0
 11
-347.1862116207481
 21
-1036.978127159946
 31
0.0
  0
LINE
  5
251A
330
85F
100
AcDbEntity
  8
DETAIL
100
AcDbLine
 10
-347.986211620751
 20
-883.2585432996102
 30
0.0
 11
-347.986211620751
 21
-880.4771632559514
 31
0.0
  0
LINE
  5
251B
330
85F
100
AcDbEntity
  8
DETAIL
100
AcDbLine
 10
-348.7862116207466
 20
-880.4771632559514
 30
0.0
 11
-348.7862116207466
 21
-1045.077163255995
 31
0.0
  0
LINE
  5
251C
330
85F
100
AcDbEntity
  8
DETAIL
100
AcDbLine
 10
-347.986211620751
 20
-1045.077163255995
 30
0.0
 11
-347.986211620751
 21
-1036.978127159946
 31
0.0
  0
LINE
  5
251D
330
85F
100
AcDbEntity
  8
DETAIL
100
AcDbLine
 10
-347.986211620751
 20
-880.4771632559514
 30
0.0
 11
-348.4591694158803
 21
-880.4771632559518
 31
0.0
  0
LINE
  5
251E
330
85F
100
AcDbEntity
  8
DETAIL
100
AcDbLine
 10
-348.4591694158803
 20
-880.4771632559518
 30
0.0
 11
-348.7862116207466
 21
-880.4771632559514
 31
0.0
  0
SPLINE
  5
251F
330
85F
100
AcDbEntity
  8
DETAIL
100
AcDbSpline
210
0.0
220
0.0
230
1.0
 70
     8
 71
     3
 72
    11
 73
     7
 74
     0
 42
0.0000000001
 43
0.0000000001
 40
0.0
 40
0.0
 40
0.0
 40
0.0
 40
1.437607986812809
 40
1.437607986812809
 40
1.437607986812809
 40
1.570796326794893
 40
1.570796326794893
 40
1.570796326794893
 40
1.570796326794893
 10
-347.8862116207452
 20
-879.5771632559512
 30
0.0
 10
-348.3174940167951
 20
-879.5771632559512
 30
0.0
 10
-348.7209686948622
 20
-879.9301850732467
 30
0.0
 10
-348.7782408038979
 20
-880.3576478326354
 30
0.0
 10
-348.7835468241751
 20
-880.3972504613415
 30
0.0
 10
-348.7862116207466
 20
-880.4372067539565
 30
0.0
 10
-348.7862116207466
 20
-880.4771632559514
 30
0.0
  0
SPLINE
  5
2520
330
85F
100
AcDbEntity
  8
DETAIL
100
AcDbSpline
210
0.0
220
0.0
230
1.0
 70
     8
 71
     3
 72
     8
 73
     4
 74
     0
 42
0.0000000001
 43
0.0000000001
 40
0.0
 40
0.0
 40
0.0
 40
0.0
 40
1.570796326794893
 40
1.570796326794893
 40
1.570796326794893
 40
1.570796326794893
 10
-347.986211620751
 20
-880.4771632559514
 30
0.0
 10
-347.986211620751
 20
-880.4248033783915
 30
0.0
 10
-347.9385714983068
 20
-880.3771632559515
 30
0.0
 10
-347.8862116207452
 20
-880.3771632559515
 30
0.0
  0
LINE
  5
2521
330
85F
100
AcDbEntity
  8
DETAIL
100
AcDbLine
 10
-348.7862116207466
 20
-880.4771632558885
 30
0.0
 11
-348.7862116207466
 21
-879.5771632558885
 31
0.0
  0
LINE
  5
2522
330
85F
100
AcDbEntity
  8
DETAIL
100
AcDbLine
 10
-347.986211620751
 20
-879.5771632558885
 30
0.0
 11
-347.986211620751
 21
-879.5827360648884
 31
0.0
  0
LINE
  5
2523
330
85F
100
AcDbEntity
  8
DETAIL
100
AcDbLine
 10
-348.7862116207466
 20
-879.5771632558885
 30
0.0
 11
-347.986211620751
 21
-879.5771632558885
 31
0.0
  0
LINE
  5
2524
330
85F
100
AcDbEntity
  8
DETAIL
100
AcDbLine
 10
-348.7862116207466
 20
-1045.077163255995
 30
0.0
 11
-348.3132538256173
 21
-1045.077163255995
 31
0.0
  0
LINE
  5
2525
330
85F
100
AcDbEntity
  8
DETAIL
100
AcDbLine
 10
-348.3132538256173
 20
-1045.077163255995
 30
0.0
 11
-347.986211620751
 21
-1045.077163255995
 31
0.0
  0
SPLINE
  5
2526
330
85F
100
AcDbEntity
  8
DETAIL
100
AcDbSpline
210
0.0
220
0.0
230
1.0
 70
     8
 71
     3
 72
     8
 73
     4
 74
     0
 42
0.0000000001
 43
0.0000000001
 40
0.0
 40
0.0
 40
0.0
 40
0.0
 40
1.570796326794896
 40
1.570796326794896
 40
1.570796326794896
 40
1.570796326794896
 10
-348.7862116207466
 20
-1045.077163255995
 30
0.0
 10
-348.7862116207466
 20
-1045.129523133555
 30
0.0
 10
-348.8338517431907
 20
-1045.177163255995
 30
0.0
 10
-348.8862116207451
 20
-1045.177163255995
 30
0.0
  0
LINE
  5
2527
330
85F
100
AcDbEntity
  8
DETAIL
100
AcDbLine
 10
-348.8862116207451
 20
-1045.977163255995
 30
0.0
 11
-348.8862116207451
 21
-1045.177163255995
 31
0.0
  0
SPLINE
  5
2528
330
85F
100
AcDbEntity
  8
DETAIL
100
AcDbSpline
210
0.0
220
0.0
230
1.0
 70
     8
 71
     3
 72
    11
 73
     7
 74
     0
 42
0.0000000001
 43
0.0000000001
 40
0.0
 40
0.0
 40
0.0
 40
0.0
 40
1.437607986812995
 40
1.437607986812995
 40
1.437607986812995
 40
1.570796326794896
 40
1.570796326794896
 40
1.570796326794896
 40
1.570796326794896
 10
-347.986211620751
 20
-1045.077163255995
 30
0.0
 10
-347.986211620751
 20
-1045.508445652039
 30
0.0
 10
-348.3392334380474
 20
-1045.911920330109
 30
0.0
 10
-348.7666961974314
 20
-1045.969192439144
 30
0.0
 10
-348.8062988261368
 20
-1045.974498459422
 30
0.0
 10
-348.8462551187546
 20
-1045.977163255995
 30
0.0
 10
-348.8862116207451
 20
-1045.977163255995
 30
0.0
  0
LINE
  5
2529
330
85F
100
AcDbEntity
  8
DETAIL
100
AcDbLine
 10
-347.7862116207466
 20
-879.5771632559512
 30
0.0
 11
-347.8862116207452
 21
-879.5771632559512
 31
0.0
  0
LINE
  5
252A
330
85F
100
AcDbEntity
  8
DETAIL
100
AcDbLine
 10
-347.8862116207452
 20
-879.8881712994734
 30
0.0
 11
-347.8862116207452
 21
-879.5771632559512
 31
0.0
  0
LINE
  5
252B
330
85F
100
AcDbEntity
  8
DETAIL
100
AcDbLine
 10
-347.8862116207452
 20
-880.3771632559515
 30
0.0
 11
-347.8862116207452
 21
-879.8881712994734
 31
0.0
  0
LINE
  5
252C
330
85F
100
AcDbEntity
  8
DETAIL
100
AcDbLine
 10
-347.8862116207452
 20
-880.3771632559515
 30
0.0
 11
-347.7862116207466
 21
-880.3771632559515
 31
0.0
  0
ELLIPSE
  5
252D
330
85F
100
AcDbEntity
  8
DETAIL
100
AcDbEllipse
 10
-347.8862116207452
 20
-880.8931886596823
 30
0.0
 11
-0.8999999999963968
 21
0.0000000000006217
 31
0.0
210
0.0
220
0.0
230
1.0
 40
0.5000000000130469
 41
4.712388980385035
 42
4.818053084262288
  0
LINE
  5
252E
330
85F
100
AcDbEntity
  8
DETAIL
100
AcDbLine
 10
-347.8862116207452
 20
-880.4431886596725
 30
0.0
 11
-347.8862116207452
 21
-880.8431886596727
 31
0.0
  0
LINE
  5
252F
330
85F
100
AcDbEntity
  8
DETAIL
100
AcDbLine
 10
-347.8862116207452
 20
-880.8431886596727
 30
0.0
 11
-347.8862116207452
 21
-883.2585432995452
 31
0.0
  0
ELLIPSE
  5
2530
330
85F
100
AcDbEntity
  8
DETAIL
100
AcDbEllipse
 10
-347.8862116207452
 20
-880.8931886596729
 30
0.0
 11
-0.0999999999999608
 21
0.0000000000000078
 31
0.0
210
0.0
220
0.0
230
1.0
 40
0.5000000000003463
 41
4.712388980384728
 42
6.283185307180183
  0
LINE
  5
2531
330
85F
100
AcDbEntity
  8
DETAIL
100
AcDbLine
 10
-347.7862116207466
 20
-880.8431886596721
 30
0.0
 11
-347.8862116207452
 21
-880.8431886596727
 31
0.0
  0
LINE
  5
2532
330
85F
100
AcDbEntity
  8
DETAIL
100
AcDbLine
 10
-347.7862116207466
 20
-880.4431886596722
 30
0.0
 11
-347.8862116207452
 21
-880.4431886596725
 31
0.0
  0
LINE
  5
2533
330
85F
100
AcDbEntity
  8
DETAIL
100
AcDbLine
 10
-332.7862116207466
 20
-1012.511137852082
 30
0.0
 11
-347.1862116207481
 21
-1012.511137852083
 31
0.0
  0
LINE
  5
2534
330
85F
100
AcDbEntity
  8
DETAIL
100
AcDbLine
 10
-332.7862116207466
 20
-1012.511137852082
 30
0.0
 11
-332.7862116207466
 21
-890.777163255886
 31
0.0
  0
LINE
  5
2535
330
85F
100
AcDbEntity
  8
DETAIL
100
AcDbLine
 10
243.1637883792505
 20
-1002.281264242278
 30
0.0
 11
243.1637883792505
 21
-1001.974282982182
 31
0.0
  0
LINE
  5
2536
330
85F
100
AcDbEntity
  8
DETAIL
100
AcDbLine
 10
243.1637883792505
 20
-1001.574282982181
 30
0.0
 11
243.1637883792505
 21
-1001.974282982182
 31
0.0
  0
ELLIPSE
  5
2537
330
85F
100
AcDbEntity
  8
DETAIL
100
AcDbEllipse
 10
243.7137883792461
 20
-1000.765719785655
 30
0.0
 11
-1.499999999999982
 21
-0.0000000000001569
 31
0.0
210
0.0
220
0.0
230
1.0
 40
0.8660254037842998
 41
1.946219934775746
 42
7.478558025993518
  0
ELLIPSE
  5
2538
330
85F
100
AcDbEntity
  8
DETAIL
100
AcDbEllipse
 10
243.7137883792461
 20
-1000.365719785655
 30
0.0
 11
1.49999999999998
 21
0.0000000000001363
 31
0.0
210
0.0
220
0.0
230
1.0
 40
0.8660254037843005
 41
5.087812588365502
 42
6.128610417167749
  0
ELLIPSE
  5
2539
330
85F
100
AcDbEntity
  8
DETAIL
100
AcDbEllipse
 10
243.7137883792461
 20
-1000.365719785655
 30
0.0
 11
-1.499999999999953
 21
-0.0000000000002159
 31
0.0
210
0.0
220
0.0
230
1.0
 40
0.8660254037843097
 41
0.1545748900117678
 42
1.195372718813865
  0
LINE
  5
253A
330
85F
100
AcDbEntity
  8
DETAIL
100
AcDbLine
 10
244.263788379249
 20
-1001.574282982181
 30
0.0
 11
244.263788379249
 21
-1001.974282982182
 31
0.0
  0
LINE
  5
253B
330
85F
100
AcDbEntity
  8
DETAIL
100
AcDbLine
 10
244.263788379249
 20
-1001.974282982182
 30
0.0
 11
244.263788379249
 21
-1002.281264242277
 31
0.0
  0
ELLIPSE
  5
253C
330
85F
100
AcDbEntity
  8
DETAIL
100
AcDbEllipse
 10
243.7137883792461
 20
-1002.281264242278
 30
0.0
 11
0.549999999999998
 21
0.0000000000000434
 31
0.0
210
0.0
220
0.0
230
1.0
 40
0.866025403784296
 41
3.14159265358971
 42
6.283185307179503
  0
ELLIPSE
  5
253D
330
85F
100
AcDbEntity
  8
DETAIL
100
AcDbEllipse
 10
243.7137883792461
 20
-1001.881264242277
 30
0.0
 11
-0.55
 21
-0.0000000000000345
 31
0.0
210
0.0
220
0.0
230
1.0
 40
0.8660254037842969
 41
0.0
 42
3.141592653589736
  0
LINE
  5
253E
330
85F
100
AcDbEntity
  8
DETAIL
100
AcDbLine
 10
240.2137883792534
 20
-1035.977163255832
 30
0.0
 11
237.2137883792534
 21
-1032.977163255831
 31
0.0
  0
LINE
  5
253F
330
85F
100
AcDbEntity
  8
DETAIL
100
AcDbLine
 10
268.4137883792505
 20
-1054.477163255959
 30
0.0
 11
268.4137883792505
 21
-1053.677163255959
 31
0.0
  0
LINE
  5
2540
330
85F
100
AcDbEntity
  8
DETAIL
100
AcDbLine
 10
268.4137883792505
 20
-1053.677163255959
 30
0.0
 11
265.4137883792505
 21
-1053.67716325596
 31
0.0
  0
LINE
  5
2541
330
85F
100
AcDbEntity
  8
DETAIL
100
AcDbLine
 10
265.4137883792505
 20
-1054.47716325596
 30
0.0
 11
268.4137883792505
 21
-1054.477163255959
 31
0.0
  0
LINE
  5
2542
330
85F
100
AcDbEntity
  8
DETAIL
100
AcDbLine
 10
265.4137883792505
 20
-1053.67716325596
 30
0.0
 11
265.4137883792505
 21
-1054.47716325596
 31
0.0
  0
LINE
  5
2543
330
85F
100
AcDbEntity
  8
DETAIL
100
AcDbLine
 10
251.6137883792476
 20
-1035.977163255831
 30
0.0
 11
240.2137883792534
 21
-1035.977163255832
 31
0.0
  0
LINE
  5
2544
330
85F
100
AcDbEntity
  8
DETAIL
100
AcDbLine
 10
237.2137883792461
 20
-1013.977163255832
 30
0.0
 11
251.6137883792476
 21
-1013.977163255831
 31
0.0
  0
LINE
  5
2545
330
85F
100
AcDbEntity
  8
DETAIL
100
AcDbLine
 10
237.2137883792534
 20
-1032.977163255831
 30
0.0
 11
237.2137883792461
 21
-1013.977163255832
 31
0.0
  0
LINE
  5
2546
330
85F
100
AcDbEntity
  8
DETAIL
100
AcDbLine
 10
265.4137883792505
 20
-1053.67716325596
 30
0.0
 11
253.313788379252
 21
-1053.677163255961
 31
0.0
  0
LINE
  5
2547
330
85F
100
AcDbEntity
  8
DETAIL
100
AcDbLine
 10
253.313788379252
 20
-1054.477163255961
 30
0.0
 11
265.4137883792505
 21
-1054.47716325596
 31
0.0
  0
LINE
  5
2548
330
85F
100
AcDbEntity
  8
DETAIL
100
AcDbLine
 10
253.313788379252
 20
-1053.677163255961
 30
0.0
 11
253.313788379252
 21
-1054.477163255961
 31
0.0
  0
ARC
  5
2549
330
85F
100
AcDbEntity
  8
DETAIL
100
AcDbCircle
 10
253.313788379252
 20
-1053.577163255961
 30
0.0
 40
0.9000000000000001
100
AcDbArc
 50
180.0
 51
270.0
  0
ARC
  5
254A
330
85F
100
AcDbEntity
  8
DETAIL
100
AcDbCircle
 10
253.313788379252
 20
-1053.577163255961
 30
0.0
 40
0.1
100
AcDbArc
 50
180.0
 51
270.0
  0
LINE
  5
254B
330
85F
100
AcDbEntity
  8
DETAIL
100
AcDbLine
 10
252.4137883792505
 20
-1053.577163255961
 30
0.0
 11
253.2137883792534
 21
-1053.577163255961
 31
0.0
  0
LINE
  5
254C
330
85F
100
AcDbEntity
  8
DETAIL
100
AcDbLine
 10
243.1637883792432
 20
-898.3582157881624
 30
0.0
 11
243.1637883792432
 21
-898.0512345280667
 31
0.0
  0
LINE
  5
254D
330
85F
100
AcDbEntity
  8
DETAIL
100
AcDbLine
 10
243.1637883792432
 20
-897.6512345280665
 30
0.0
 11
243.1637883792432
 21
-898.0512345280667
 31
0.0
  0
ELLIPSE
  5
254E
330
85F
100
AcDbEntity
  8
DETAIL
100
AcDbEllipse
 10
243.7137883792388
 20
-896.8426713315393
 30
0.0
 11
-1.500000000000011
 21
-0.0000000000001585
 31
0.0
210
0.0
220
0.0
230
1.0
 40
0.8660254037843003
 41
1.946219934775746
 42
7.478558025993516
  0
ELLIPSE
  5
254F
330
85F
100
AcDbEntity
  8
DETAIL
100
AcDbEllipse
 10
243.7137883792388
 20
-896.4426713315392
 30
0.0
 11
1.500000000000035
 21
0.0000000000002913
 31
0.0
210
0.0
220
0.0
230
1.0
 40
0.8660254037842779
 41
5.0878125883654
 42
6.12861041716756
  0
ELLIPSE
  5
2550
330
85F
100
AcDbEntity
  8
DETAIL
100
AcDbEllipse
 10
243.7137883792388
 20
-896.4426713315392
 30
0.0
 11
-1.500000000000031
 21
-0.0000000000002122
 31
0.0
210
0.0
220
0.0
230
1.0
 40
0.8660254037843079
 41
0.1545748900118385
 42
1.195372718813894
  0
LINE
  5
2551
330
85F
100
AcDbEntity
  8
DETAIL
100
AcDbLine
 10
244.2637883792418
 20
-897.6512345280665
 30
0.0
 11
244.2637883792418
 21
-898.0512345280663
 31
0.0
  0
LINE
  5
2552
330
85F
100
AcDbEntity
  8
DETAIL
100
AcDbLine
 10
244.2637883792418
 20
-898.0512345280663
 30
0.0
 11
244.2637883792418
 21
-898.3582157881619
 31
0.0
  0
ELLIPSE
  5
2553
330
85F
100
AcDbEntity
  8
DETAIL
100
AcDbEllipse
 10
243.7137883792388
 20
-898.3582157881619
 30
0.0
 11
0.55
 21
0.0000000000000523
 31
0.0
210
0.0
220
0.0
230
1.0
 40
0.8660254037842982
 41
3.141592653589879
 42
6.283185307179672
  0
ELLIPSE
  5
2554
330
85F
100
AcDbEntity
  8
DETAIL
100
AcDbEllipse
 10
243.7137883792388
 20
-897.9582157881619
 30
0.0
 11
-0.55
 21
-0.0000000000000167
 31
0.0
210
0.0
220
0.0
230
1.0
 40
0.8660254037842982
 41
0.0
 42
3.141592653589778
  0
LINE
  5
2555
330
85F
100
AcDbEntity
  8
DETAIL
100
AcDbLine
 10
252.4137883792505
 20
-1042.295783212302
 30
0.0
 11
251.6137883792548
 21
-1042.295783212302
 31
0.0
  0
LINE
  5
2556
330
85F
100
AcDbEntity
  8
DETAIL
100
AcDbLine
 10
252.4137883792432
 20
-883.2585432995752
 30
0.0
 11
251.6137883792403
 21
-883.2585432995752
 31
0.0
  0
LINE
  5
2557
330
85F
100
AcDbEntity
  8
DETAIL
100
AcDbLine
 10
251.6137883792403
 20
-883.2585432995752
 30
0.0
 11
251.6137883792548
 21
-1042.295783212302
 31
0.0
  0
LINE
  5
2558
330
85F
100
AcDbEntity
  8
DETAIL
100
AcDbLine
 10
252.4137883792505
 20
-1042.295783212302
 30
0.0
 11
252.4137883792505
 21
-1045.977163255961
 31
0.0
  0
LINE
  5
2559
330
85F
100
AcDbEntity
  8
DETAIL
100
AcDbLine
 10
253.2137883792534
 20
-1045.977163255961
 30
0.0
 11
252.4137883792505
 21
-1045.977163255961
 31
0.0
  0
LINE
  5
255A
330
85F
100
AcDbEntity
  8
DETAIL
100
AcDbLine
 10
253.2137883792534
 20
-1045.977163255961
 30
0.0
 11
253.2137883792389
 21
-880.4771632559166
 31
0.0
  0
LINE
  5
255B
330
85F
100
AcDbEntity
  8
DETAIL
100
AcDbLine
 10
252.4137883792432
 20
-880.4771632559166
 30
0.0
 11
252.4137883792432
 21
-883.2585432995752
 31
0.0
  0
LINE
  5
255C
330
85F
100
AcDbEntity
  8
DETAIL
100
AcDbLine
 10
252.4137883792505
 20
-1045.977163255961
 30
0.0
 11
252.4137883792505
 21
-1053.577163255961
 31
0.0
  0
LINE
  5
255D
330
85F
100
AcDbEntity
  8
DETAIL
100
AcDbLine
 10
253.2137883792534
 20
-1053.577163255961
 30
0.0
 11
253.2137883792534
 21
-1045.977163255961
 31
0.0
  0
LINE
  5
255E
330
85F
100
AcDbEntity
  8
DETAIL
100
AcDbLine
 10
253.2137883792389
 20
-880.4771632559166
 30
0.0
 11
252.8867461743725
 21
-880.4771632559166
 31
0.0
  0
LINE
  5
255F
330
85F
100
AcDbEntity
  8
DETAIL
100
AcDbLine
 10
252.8867461743725
 20
-880.4771632559166
 30
0.0
 11
252.4137883792432
 21
-880.4771632559166
 31
0.0
  0
LINE
  5
2560
330
85F
100
AcDbEntity
  8
DETAIL
100
AcDbLine
 10
252.4137883792432
 20
-879.5827360648541
 30
0.0
 11
252.4137883792432
 21
-879.5771632558533
 31
0.0
  0
SPLINE
  5
2561
330
85F
100
AcDbEntity
  8
DETAIL
100
AcDbSpline
210
0.0
220
0.0
230
1.0
 70
     8
 71
     3
 72
     8
 73
     4
 74
     0
 42
0.0000000001
 43
0.0000000001
 40
0.0
 40
0.0
 40
0.0
 40
0.0
 40
1.570796326794875
 40
1.570796326794875
 40
1.570796326794875
 40
1.570796326794875
 10
252.3137883792374
 20
-880.3771632559165
 30
0.0
 10
252.3661482567991
 20
-880.3771632559168
 30
0.0
 10
252.4137883792432
 20
-880.4248033783569
 30
0.0
 10
252.4137883792432
 20
-880.4771632559166
 30
0.0
  0
SPLINE
  5
2562
330
85F
100
AcDbEntity
  8
DETAIL
100
AcDbSpline
210
0.0
220
0.0
230
1.0
 70
     8
 71
     3
 72
    11
 73
     7
 74
     0
 42
0.0000000001
 43
0.0000000001
 40
0.0
 40
0.0
 40
0.0
 40
0.0
 40
1.437607986812798
 40
1.437607986812798
 40
1.437607986812798
 40
1.570796326794875
 40
1.570796326794875
 40
1.570796326794875
 40
1.570796326794875
 10
253.2137883792389
 20
-880.4771632559166
 30
0.0
 10
253.2137883792389
 20
-880.0458808598728
 30
0.0
 10
252.8607665619424
 20
-879.6424061818028
 30
0.0
 10
252.4333038025584
 20
-879.5851340727677
 30
0.0
 10
252.3937011738531
 20
-879.5798280524895
 30
0.0
 10
252.3537448812354
 20
-879.5771632559167
 30
0.0
 10
252.3137883792374
 20
-879.5771632559167
 30
0.0
  0
LINE
  5
2563
330
85F
100
AcDbEntity
  8
DETAIL
100
AcDbLine
 10
253.2137883792389
 20
-879.5771632558533
 30
0.0
 11
253.2137883792389
 21
-880.4771632558534
 31
0.0
  0
LINE
  5
2564
330
85F
100
AcDbEntity
  8
DETAIL
100
AcDbLine
 10
252.4137883792432
 20
-879.5771632558533
 30
0.0
 11
253.2137883792389
 21
-879.5771632558533
 31
0.0
  0
LINE
  5
2565
330
85F
100
AcDbEntity
  8
DETAIL
100
AcDbLine
 10
252.2137883792534
 20
-880.3771632559165
 30
0.0
 11
252.3137883792374
 21
-880.3771632559165
 31
0.0
  0
LINE
  5
2566
330
85F
100
AcDbEntity
  8
DETAIL
100
AcDbLine
 10
252.3137883792374
 20
-879.8881712994388
 30
0.0
 11
252.3137883792374
 21
-880.3771632559165
 31
0.0
  0
LINE
  5
2567
330
85F
100
AcDbEntity
  8
DETAIL
100
AcDbLine
 10
252.3137883792374
 20
-879.5771632559167
 30
0.0
 11
252.3137883792374
 21
-879.8881712994388
 31
0.0
  0
LINE
  5
2568
330
85F
100
AcDbEntity
  8
DETAIL
100
AcDbLine
 10
252.3137883792374
 20
-879.5771632559167
 30
0.0
 11
252.2137883792534
 21
-879.5771632559167
 31
0.0
  0
CIRCLE
  5
2569
330
85F
100
AcDbEntity
  8
DETAIL
100
AcDbCircle
 10
243.7137883792461
 20
-1022.977163255831
 30
0.0
 40
2.5
  0
LINE
  5
256A
330
85F
100
AcDbEntity
  8
DETAIL
100
AcDbLine
 10
252.3137883792374
 20
-883.2585432995106
 30
0.0
 11
252.3137883792374
 21
-880.8431886596371
 31
0.0
  0
ELLIPSE
  5
256B
330
85F
100
AcDbEntity
  8
DETAIL
100
AcDbEllipse
 10
252.3137883792374
 20
-880.8931886596374
 30
0.0
 11
0.0999999999999915
 21
0.0000000000000068
 31
0.0
210
0.0
220
0.0
230
1.0
 40
0.5000000000001932
 41
0.0
 42
1.570796326794861
  0
LINE
  5
256C
330
85F
100
AcDbEntity
  8
DETAIL
100
AcDbLine
 10
252.3137883792374
 20
-880.8431886596371
 30
0.0
 11
252.3137883792374
 21
-880.4431886596372
 31
0.0
  0
ELLIPSE
  5
256D
330
85F
100
AcDbEntity
  8
DETAIL
100
AcDbEllipse
 10
252.3137883792374
 20
-880.8931886596401
 30
0.0
 11
-0.9000000000013754
 21
-0.0000000000004225
 31
0.0
210
0.0
220
0.0
230
1.0
 40
0.5000000000024258
 41
4.606724876508565
 42
4.712388980384455
  0
LINE
  5
256E
330
85F
100
AcDbEntity
  8
DETAIL
100
AcDbLine
 10
252.3137883792374
 20
-880.4431886596372
 30
0.0
 11
252.2137883792534
 21
-880.4431886596372
 31
0.0
  0
LINE
  5
256F
330
85F
100
AcDbEntity
  8
DETAIL
100
AcDbLine
 10
252.2137883792534
 20
-880.8431886596371
 30
0.0
 11
252.3137883792374
 21
-880.8431886596371
 31
0.0
  0
LINE
  5
2570
330
85F
100
AcDbEntity
  8
DETAIL
100
AcDbLine
 10
251.6137883792476
 20
-1012.511137852046
 30
0.0
 11
237.2137883792461
 21
-1012.511137852047
 31
0.0
  0
LINE
  5
2571
330
85F
100
AcDbEntity
  8
DETAIL
100
AcDbLine
 10
237.2137883792461
 20
-1012.511137852047
 30
0.0
 11
237.2137883792388
 21
-890.777163255886
 31
0.0
  0
LINE
  5
2572
330
85F
100
AcDbEntity
  8
DETAIL
100
AcDbLine
 10
252.2137883792534
 20
-879.6771632559517
 30
0.0
 11
-347.7862116207466
 21
-879.6771632559517
 31
0.0
  0
LINE
  5
2573
330
85F
100
AcDbEntity
  8
DETAIL
100
AcDbLine
 10
-347.7862116207466
 20
-879.6771632559517
 30
0.0
 11
-347.7862116207466
 21
-878.7771632559511
 31
0.0
  0
LINE
  5
2574
330
85F
100
AcDbEntity
  8
DETAIL
100
AcDbLine
 10
252.2137883792534
 20
-879.6771632559517
 30
0.0
 11
252.2137883792534
 21
-878.7771632559511
 31
0.0
  0
LINE
  5
2575
330
85F
100
AcDbEntity
  8
DETAIL
100
AcDbLine
 10
-347.7862116207466
 20
-878.7771632559511
 30
0.0
 11
252.2137883792534
 21
-878.7771632559511
 31
0.0
  0
LINE
  5
2576
330
85F
100
AcDbEntity
  8
DETAIL
100
AcDbLine
 10
-347.1862116207481
 20
-889.9271632559516
 30
0.0
 11
251.6137883792403
 21
-889.9271632559516
 31
0.0
  0
LINE
  5
2577
330
85F
100
AcDbEntity
  8
DETAIL
100
AcDbLine
 10
-347.1862116207481
 20
-890.7771632559509
 30
0.0
 11
251.6137883792403
 21
-890.7771632559509
 31
0.0
  0
LINE
  5
2578
330
85F
100
AcDbEntity
  8
DETAIL
100
AcDbLine
 10
-347.7862116207466
 20
-879.6771632559517
 30
0.0
 11
-347.7862116207466
 21
-883.2585432996095
 31
0.0
  0
LINE
  5
2579
330
85F
100
AcDbEntity
  8
DETAIL
100
AcDbLine
 10
252.2137883792534
 20
-879.6771632559517
 30
0.0
 11
252.2137883792534
 21
-883.2585432995742
 31
0.0
  0
LINE
  5
257A
330
85F
100
AcDbEntity
  8
DETAIL
100
AcDbLine
 10
250.2405832985246
 20
-1035.977163255831
 30
0.0
 11
249.2137883792461
 21
-1037.003958175107
 31
0.0
  0
LINE
  5
257B
330
85F
100
AcDbEntity
  8
DETAIL
100
AcDbLine
 10
236.013788379249
 20
-1037.003958175107
 30
0.0
 11
249.2137883792461
 21
-1037.003958175107
 31
0.0
  0
LINE
  5
257C
330
85F
100
AcDbEntity
  8
DETAIL
100
AcDbLine
 10
249.2137883792461
 20
-877.9393025686399
 30
0.0
 11
-344.7862116207466
 21
-877.9393025686436
 31
0.0
  0
LINE
  5
257D
330
85F
100
AcDbEntity
  8
DETAIL
100
AcDbLine
 10
249.2137883792461
 20
-878.7393025686402
 30
0.0
 11
-344.7862116207466
 21
-878.7393025686437
 31
0.0
  0
LINE
  5
257E
330
85F
100
AcDbEntity
  8
DETAIL
100
AcDbLine
 10
242.2137883792461
 20
-1024.503958175107
 30
0.0
 11
242.2137883792461
 21
-1021.503958175107
 31
0.0
  0
LINE
  5
257F
330
85F
100
AcDbEntity
  8
DETAIL
100
AcDbLine
 10
242.2137883792461
 20
-1021.503958175107
 30
0.0
 11
245.2137883792461
 21
-1021.503958175107
 31
0.0
  0
LINE
  5
2580
330
85F
100
AcDbEntity
  8
DETAIL
100
AcDbLine
 10
245.2137883792461
 20
-1021.503958175107
 30
0.0
 11
245.2137883792461
 21
-1024.503958175107
 31
0.0
  0
LINE
  5
2581
330
85F
100
AcDbEntity
  8
DETAIL
100
AcDbLine
 10
245.2137883792461
 20
-1024.503958175107
 30
0.0
 11
242.2137883792461
 21
-1024.503958175107
 31
0.0
  0
LINE
  5
2582
330
85F
100
AcDbEntity
  8
DETAIL
100
AcDbLine
 10
-340.7862116207466
 20
-1024.503958175111
 30
0.0
 11
-340.7862116207466
 21
-1021.503958175111
 31
0.0
  0
LINE
  5
2583
330
85F
100
AcDbEntity
  8
DETAIL
100
AcDbLine
 10
-340.7862116207466
 20
-1021.503958175111
 30
0.0
 11
-337.7862116207466
 21
-1021.503958175111
 31
0.0
  0
LINE
  5
2584
330
85F
100
AcDbEntity
  8
DETAIL
100
AcDbLine
 10
-337.7862116207466
 20
-1021.503958175111
 30
0.0
 11
-337.7862116207466
 21
-1024.503958175111
 31
0.0
  0
LINE
  5
2585
330
85F
100
AcDbEntity
  8
DETAIL
100
AcDbLine
 10
-337.7862116207466
 20
-1024.503958175111
 30
0.0
 11
-340.7862116207466
 21
-1024.503958175111
 31
0.0
  0
LINE
  5
2586
330
85F
100
AcDbEntity
  8
DETAIL
100
AcDbLine
 10
251.6137883792476
 20
-1013.003958175107
 30
0.0
 11
-347.1862116207481
 21
-1013.003958175111
 31
0.0
  0
LINE
  5
2587
330
85F
100
AcDbEntity
  8
DETAIL
100
AcDbLine
 10
-347.1862116207481
 20
-1012.953958175111
 30
0.0
 11
251.6137883792476
 21
-1012.953958175107
 31
0.0
  0
LINE
  5
2588
330
85F
100
AcDbEntity
  8
DETAIL
100
AcDbLine
 10
-347.1862116207481
 20
-1036.103958175111
 30
0.0
 11
235.2137883792461
 21
-1036.103958175107
 31
0.0
  0
LINE
  5
2589
330
85F
100
AcDbEntity
  8
DETAIL
100
AcDbLine
 10
235.2137883792461
 20
-1036.103958175107
 30
0.0
 11
235.2137883792461
 21
-1035.703958175107
 31
0.0
  0
LINE
  5
258A
330
85F
100
AcDbEntity
  8
DETAIL
100
AcDbLine
 10
235.2137883792461
 20
-1035.703958175107
 30
0.0
 11
236.013788379249
 21
-1035.703958175107
 31
0.0
  0
LINE
  5
258B
330
85F
100
AcDbEntity
  8
DETAIL
100
AcDbLine
 10
236.013788379249
 20
-1035.703958175107
 30
0.0
 11
236.013788379249
 21
-1037.003958175107
 31
0.0
  0
LINE
  5
258C
330
85F
100
AcDbEntity
  8
DETAIL
100
AcDbLine
 10
235.2137883792461
 20
-1037.003958175107
 30
0.0
 11
-347.7862116207466
 21
-1037.003958175111
 31
0.0
  0
LINE
  5
258D
330
85F
100
AcDbEntity
  8
DETAIL
100
AcDbLine
 10
235.2137883792461
 20
-1037.003958175107
 30
0.0
 11
235.2137883792461
 21
-1036.103958175107
 31
0.0
  0
LINE
  5
258E
330
85F
100
AcDbEntity
  8
DETAIL
100
AcDbLine
 10
-347.7862116207466
 20
-1036.978127159818
 30
0.0
 11
-347.7862116207466
 21
-1037.003958175111
 31
0.0
  0
LINE
  5
258F
330
85F
100
AcDbEntity
  8
DETAIL
100
AcDbLine
 10
252.2137883792461
 20
-877.939302568639
 30
0.0
 11
249.2137883792461
 21
-877.9393025686399
 31
0.0
  0
LINE
  5
2590
330
85F
100
AcDbEntity
  8
DETAIL
100
AcDbLine
 10
249.2137883792461
 20
-877.9393025686399
 30
0.0
 11
249.2137883792461
 21
-878.7393025686402
 31
0.0
  0
LINE
  5
2591
330
85F
100
AcDbEntity
  8
DETAIL
100
AcDbLine
 10
249.2137883792461
 20
-878.7393025686402
 30
0.0
 11
252.2137883792461
 21
-878.7393025686393
 31
0.0
  0
LINE
  5
2592
330
85F
100
AcDbEntity
  8
DETAIL
100
AcDbLine
 10
252.2137883792461
 20
-878.7393025686393
 30
0.0
 11
252.2137883792461
 21
-877.939302568639
 31
0.0
  0
LINE
  5
2593
330
85F
100
AcDbEntity
  8
DETAIL
100
AcDbLine
 10
-344.7862116207466
 20
-878.7393025686437
 30
0.0
 11
-344.7862116207466
 21
-877.9393025686436
 31
0.0
  0
LINE
  5
2594
330
85F
100
AcDbEntity
  8
DETAIL
100
AcDbLine
 10
-344.7862116207466
 20
-877.9393025686436
 30
0.0
 11
-347.7862116207466
 21
-877.9393025686431
 31
0.0
  0
LINE
  5
2595
330
85F
100
AcDbEntity
  8
DETAIL
100
AcDbLine
 10
-347.7862116207466
 20
-877.9393025686431
 30
0.0
 11
-347.7862116207466
 21
-878.7393025686426
 31
0.0
  0
LINE
  5
2596
330
85F
100
AcDbEntity
  8
DETAIL
100
AcDbLine
 10
-347.7862116207466
 20
-878.7393025686426
 30
0.0
 11
-344.7862116207466
 21
-878.7393025686437
 31
0.0
  0
LINE
  5
2597
330
85F
100
AcDbEntity
  8
DETAIL
100
AcDbLine
 10
-347.7862116207466
 20
-878.7393025686382
 30
0.0
 11
-347.7862116207466
 21
-878.7771632558893
 31
0.0
  0
LINE
  5
2598
330
85F
100
AcDbEntity
  8
DETAIL
100
AcDbLine
 10
252.2137883792461
 20
-878.7771632558893
 30
0.0
 11
252.2137883792461
 21
-878.7393025686341
 31
0.0
  0
LINE
  5
2599
330
85F
100
AcDbEntity
  8
OUTLINE
100
AcDbLine
 10
-357.986211620751
 20
-1045.177163255996
 30
0.0
 11
-360.9862116207509
 21
-1045.177163255995
 31
0.0
  0
LINE
  5
259A
330
85F
100
AcDbEntity
  8
OUTLINE
100
AcDbLine
 10
-332.7862116207466
 20
-1032.977163255867
 30
0.0
 11
-335.7862116207466
 21
-1035.977163255866
 31
0.0
  0
LINE
  5
259B
330
85F
100
AcDbEntity
  8
OUTLINE
100
AcDbLine
 10
-360.9862116207509
 20
-1045.177163255995
 30
0.0
 11
-360.9862116207509
 21
-1045.977163255995
 31
0.0
  0
LINE
  5
259C
330
85F
100
AcDbEntity
  8
OUTLINE
100
AcDbLine
 10
-360.9862116207509
 20
-1045.977163255995
 30
0.0
 11
-357.986211620751
 21
-1045.977163255996
 31
0.0
  0
LINE
  5
259D
330
85F
100
AcDbEntity
  8
OUTLINE
100
AcDbLine
 10
-357.986211620751
 20
-1045.977163255996
 30
0.0
 11
-357.986211620751
 21
-1045.177163255996
 31
0.0
  0
LINE
  5
259E
330
85F
100
AcDbEntity
  8
OUTLINE
100
AcDbLine
 10
-348.8862116207451
 20
-1045.177163255996
 30
0.0
 11
-357.986211620751
 21
-1045.177163255996
 31
0.0
  0
LINE
  5
259F
330
85F
100
AcDbEntity
  8
OUTLINE
100
AcDbLine
 10
-348.8862116207451
 20
-1045.977163255996
 30
0.0
 11
-357.986211620751
 21
-1045.977163255996
 31
0.0
  0
LINE
  5
25A0
330
85F
100
AcDbEntity
  8
OUTLINE
100
AcDbLine
 10
-335.7862116207466
 20
-1035.977163255866
 30
0.0
 11
-347.1862116207481
 21
-1035.977163255866
 31
0.0
  0
LINE
  5
25A1
330
85F
100
AcDbEntity
  8
OUTLINE
100
AcDbLine
 10
-332.7862116207466
 20
-1032.977163255867
 30
0.0
 11
-332.7862116207466
 21
-1013.977163255866
 31
0.0
  0
LINE
  5
25A2
330
85F
100
AcDbEntity
  8
OUTLINE
100
AcDbLine
 10
-332.7862116207466
 20
-1013.977163255866
 30
0.0
 11
-347.1862116207481
 21
-1013.977163255866
 31
0.0
  0
CIRCLE
  5
25A3
330
85F
100
AcDbEntity
  8
OUTLINE
100
AcDbCircle
 10
-339.2862116207466
 20
-1022.977163255866
 30
0.0
 40
2.5
  0
LINE
  5
25A4
330
85F
100
AcDbEntity
  8
OUTLINE
100
AcDbLine
 10
-338.736211620751
 20
-1001.974282982217
 30
0.0
 11
-338.736211620751
 21
-1002.281264242313
 31
0.0
  0
LINE
  5
25A5
330
85F
100
AcDbEntity
  8
OUTLINE
100
AcDbLine
 10
-338.736211620751
 20
-1001.974282982217
 30
0.0
 11
-338.736211620751
 21
-1001.574282982217
 31
0.0
  0
ELLIPSE
  5
25A6
330
85F
100
AcDbEntity
  8
OUTLINE
100
AcDbEllipse
 10
-339.2862116207466
 20
-1000.36571978569
 30
0.0
 11
1.499999999999985
 21
-0.0000000000000389
 31
0.0
210
0.0
220
0.0
230
1.0
 40
0.8660254037842888
 41
5.087812588365603
 42
6.128610417167745
  0
ELLIPSE
  5
25A7
330
85F
100
AcDbEntity
  8
OUTLINE
100
AcDbEllipse
 10
-339.2862116207466
 20
-1000.36571978569
 30
0.0
 11
-1.500000000000005
 21
0.0000000000000301
 31
0.0
210
0.0
220
0.0
230
0.9999999999999998
 40
0.866025403784292
 41
0.154574890011824
 42
1.195372718814021
  0
ELLIPSE
  5
25A8
330
85F
100
AcDbEntity
  8
OUTLINE
100
AcDbEllipse
 10
-339.2862116207466
 20
-1000.76571978569
 30
0.0
 11
-1.499999999999997
 21
0.000000000000031
 31
0.0
210
0.0
220
0.0
230
0.9999999999999998
 40
0.8660254037842904
 41
1.946219934776273
 42
7.478558025993608
  0
LINE
  5
25A9
330
85F
100
AcDbEntity
  8
OUTLINE
100
AcDbLine
 10
-339.8362116207495
 20
-1001.974282982217
 30
0.0
 11
-339.8362116207495
 21
-1001.574282982217
 31
0.0
  0
LINE
  5
25AA
330
85F
100
AcDbEntity
  8
OUTLINE
100
AcDbLine
 10
-339.8362116207495
 20
-1002.281264242313
 30
0.0
 11
-339.8362116207495
 21
-1001.974282982217
 31
0.0
  0
ELLIPSE
  5
25AB
330
85F
100
AcDbEntity
  8
OUTLINE
100
AcDbEllipse
 10
-339.2862116207466
 20
-1001.881264242312
 30
0.0
 11
-0.5499999999999983
 21
-0.0000000000000266
 31
0.0
210
0.0
220
0.0
230
1.0
 40
0.8660254037842932
 41
0.0
 42
3.141592653589706
  0
ELLIPSE
  5
25AC
330
85F
100
AcDbEntity
  8
OUTLINE
100
AcDbEllipse
 10
-339.2862116207466
 20
-1002.281264242313
 30
0.0
 11
0.5500000000000027
 21
0.0
 31
0.0
210
0.0
220
0.0
230
1.0
 40
0.8660254037842932
 41
3.141592653589781
 42
6.283185307179574
  0
LINE
  5
25AD
330
85F
100
AcDbEntity
  8
OUTLINE
100
AcDbLine
 10
-338.736211620751
 20
-898.0512345281022
 30
0.0
 11
-338.736211620751
 21
-898.3582157881979
 31
0.0
  0
LINE
  5
25AE
330
85F
100
AcDbEntity
  8
OUTLINE
100
AcDbLine
 10
-338.736211620751
 20
-898.0512345281022
 30
0.0
 11
-338.736211620751
 21
-897.6512345281021
 31
0.0
  0
ELLIPSE
  5
25AF
330
85F
100
AcDbEntity
  8
OUTLINE
100
AcDbEllipse
 10
-339.2862116207466
 20
-896.4426713315752
 30
0.0
 11
1.500000000000006
 21
-0.0000000000000761
 31
0.0
210
0.0
220
0.0
230
1.0
 40
0.8660254037843017
 41
5.087812588365631
 42
6.128610417167641
  0
ELLIPSE
  5
25B0
330
85F
100
AcDbEntity
  8
OUTLINE
100
AcDbEllipse
 10
-339.2862116207466
 20
-896.4426713315752
 30
0.0
 11
-1.500000000000011
 21
0.0000000000000985
 31
0.0
210
0.0
220
0.0
230
1.0
 40
0.8660254037842777
 41
0.154574890011879
 42
1.195372718814069
  0
ELLIPSE
  5
25B1
330
85F
100
AcDbEntity
  8
OUTLINE
100
AcDbEllipse
 10
-339.2862116207466
 20
-896.8426713315752
 30
0.0
 11
-1.499999999999991
 21
0.0000000000000461
 31
0.0
210
0.0
220
0.0
230
1.0
 40
0.8660254037842896
 41
1.946219934776281
 42
7.478558025993619
  0
LINE
  5
25B2
330
85F
100
AcDbEntity
  8
OUTLINE
100
AcDbLine
 10
-339.8362116207495
 20
-898.0512345281022
 30
0.0
 11
-339.8362116207495
 21
-897.6512345281021
 31
0.0
  0
LINE
  5
25B3
330
85F
100
AcDbEntity
  8
OUTLINE
100
AcDbLine
 10
-339.8362116207495
 20
-898.3582157881979
 30
0.0
 11
-339.8362116207495
 21
-898.0512345281022
 31
0.0
  0
ELLIPSE
  5
25B4
330
85F
100
AcDbEntity
  8
OUTLINE
100
AcDbEllipse
 10
-339.2862116207466
 20
-897.9582157881978
 30
0.0
 11
-0.5500000000000007
 21
-0.0000000000000178
 31
0.0
210
0.0
220
0.0
230
1.0
 40
0.8660254037842966
 41
0.0
 42
3.141592653589734
  0
ELLIPSE
  5
25B5
330
85F
100
AcDbEntity
  8
OUTLINE
100
AcDbEllipse
 10
-339.2862116207466
 20
-898.3582157881979
 30
0.0
 11
0.5500000000000007
 21
-0.0000000000000178
 31
0.0
210
0.0
220
0.0
230
1.0
 40
0.8660254037842966
 41
3.141592653589829
 42
6.283185307179622
  0
LINE
  5
25B6
330
85F
100
AcDbEntity
  8
OUTLINE
100
AcDbLine
 10
-347.1862116207481
 20
-1036.978127159946
 30
0.0
 11
-347.986211620751
 21
-1036.978127159946
 31
0.0
  0
LINE
  5
25B7
330
85F
100
AcDbEntity
  8
OUTLINE
100
AcDbLine
 10
-347.1862116207481
 20
-883.2585432996109
 30
0.0
 11
-347.986211620751
 21
-883.2585432996109
 31
0.0
  0
LINE
  5
25B8
330
85F
100
AcDbEntity
  8
OUTLINE
100
AcDbLine
 10
-347.1862116207481
 20
-883.2585432996109
 30
0.0
 11
-347.1862116207481
 21
-1036.978127159946
 31
0.0
  0
LINE
  5
25B9
330
85F
100
AcDbEntity
  8
OUTLINE
100
AcDbLine
 10
-347.986211620751
 20
-883.2585432996109
 30
0.0
 11
-347.986211620751
 21
-880.4771632559523
 31
0.0
  0
LINE
  5
25BA
330
85F
100
AcDbEntity
  8
OUTLINE
100
AcDbLine
 10
-348.7862116207466
 20
-880.4771632559523
 30
0.0
 11
-348.7862116207466
 21
-1045.077163255996
 31
0.0
  0
LINE
  5
25BB
330
85F
100
AcDbEntity
  8
OUTLINE
100
AcDbLine
 10
-347.986211620751
 20
-1045.077163255996
 30
0.0
 11
-347.986211620751
 21
-1036.978127159946
 31
0.0
  0
LINE
  5
25BC
330
85F
100
AcDbEntity
  8
OUTLINE
100
AcDbLine
 10
-347.986211620751
 20
-880.4771632559523
 30
0.0
 11
-348.4591694158803
 21
-880.4771632559527
 31
0.0
  0
LINE
  5
25BD
330
85F
100
AcDbEntity
  8
OUTLINE
100
AcDbLine
 10
-348.4591694158803
 20
-880.4771632559527
 30
0.0
 11
-348.7862116207466
 21
-880.4771632559523
 31
0.0
  0
SPLINE
  5
25BE
330
85F
100
AcDbEntity
  8
OUTLINE
100
AcDbSpline
210
0.0
220
0.0
230
1.0
 70
     8
 71
     3
 72
    11
 73
     7
 74
     0
 42
0.0000000001
 43
0.0000000001
 40
0.0
 40
0.0
 40
0.0
 40
0.0
 40
1.437607986812809
 40
1.437607986812809
 40
1.437607986812809
 40
1.570796326794893
 40
1.570796326794893
 40
1.570796326794893
 40
1.570796326794893
 10
-347.8862116207452
 20
-879.5771632559521
 30
0.0
 10
-348.3174940167951
 20
-879.5771632559521
 30
0.0
 10
-348.7209686948622
 20
-879.9301850732476
 30
0.0
 10
-348.7782408038979
 20
-880.3576478326363
 30
0.0
 10
-348.7835468241751
 20
-880.3972504613422
 30
0.0
 10
-348.7862116207466
 20
-880.4372067539574
 30
0.0
 10
-348.7862116207466
 20
-880.4771632559523
 30
0.0
  0
SPLINE
  5
25BF
330
85F
100
AcDbEntity
  8
OUTLINE
100
AcDbSpline
210
0.0
220
0.0
230
1.0
 70
     8
 71
     3
 72
     8
 73
     4
 74
     0
 42
0.0000000001
 43
0.0000000001
 40
0.0
 40
0.0
 40
0.0
 40
0.0
 40
1.570796326794893
 40
1.570796326794893
 40
1.570796326794893
 40
1.570796326794893
 10
-347.986211620751
 20
-880.4771632559523
 30
0.0
 10
-347.986211620751
 20
-880.4248033783922
 30
0.0
 10
-347.9385714983068
 20
-880.3771632559522
 30
0.0
 10
-347.8862116207452
 20
-880.3771632559522
 30
0.0
  0
LINE
  5
25C0
330
85F
100
AcDbEntity
  8
OUTLINE
100
AcDbLine
 10
-348.7862116207466
 20
-880.4771632558894
 30
0.0
 11
-348.7862116207466
 21
-879.5771632558894
 31
0.0
  0
LINE
  5
25C1
330
85F
100
AcDbEntity
  8
OUTLINE
100
AcDbLine
 10
-347.986211620751
 20
-879.5771632558894
 30
0.0
 11
-347.986211620751
 21
-879.5827360648896
 31
0.0
  0
LINE
  5
25C2
330
85F
100
AcDbEntity
  8
OUTLINE
100
AcDbLine
 10
-348.7862116207466
 20
-879.5771632558894
 30
0.0
 11
-347.986211620751
 21
-879.5771632558894
 31
0.0
  0
LINE
  5
25C3
330
85F
100
AcDbEntity
  8
OUTLINE
100
AcDbLine
 10
-348.7862116207466
 20
-1045.077163255996
 30
0.0
 11
-348.3132538256173
 21
-1045.077163255996
 31
0.0
  0
LINE
  5
25C4
330
85F
100
AcDbEntity
  8
OUTLINE
100
AcDbLine
 10
-348.3132538256173
 20
-1045.077163255996
 30
0.0
 11
-347.986211620751
 21
-1045.077163255996
 31
0.0
  0
SPLINE
  5
25C5
330
85F
100
AcDbEntity
  8
OUTLINE
100
AcDbSpline
210
0.0
220
0.0
230
1.0
 70
     8
 71
     3
 72
     8
 73
     4
 74
     0
 42
0.0000000001
 43
0.0000000001
 40
0.0
 40
0.0
 40
0.0
 40
0.0
 40
1.570796326794896
 40
1.570796326794896
 40
1.570796326794896
 40
1.570796326794896
 10
-348.7862116207466
 20
-1045.077163255996
 30
0.0
 10
-348.7862116207466
 20
-1045.129523133556
 30
0.0
 10
-348.8338517431907
 20
-1045.177163255996
 30
0.0
 10
-348.8862116207451
 20
-1045.177163255996
 30
0.0
  0
LINE
  5
25C6
330
85F
100
AcDbEntity
  8
OUTLINE
100
AcDbLine
 10
-348.8862116207451
 20
-1045.977163255996
 30
0.0
 11
-348.8862116207451
 21
-1045.177163255996
 31
0.0
  0
SPLINE
  5
25C7
330
85F
100
AcDbEntity
  8
OUTLINE
100
AcDbSpline
210
0.0
220
0.0
230
1.0
 70
     8
 71
     3
 72
    11
 73
     7
 74
     0
 42
0.0000000001
 43
0.0000000001
 40
0.0
 40
0.0
 40
0.0
 40
0.0
 40
1.437607986812995
 40
1.437607986812995
 40
1.437607986812995
 40
1.570796326794896
 40
1.570796326794896
 40
1.570796326794896
 40
1.570796326794896
 10
-347.986211620751
 20
-1045.077163255996
 30
0.0
 10
-347.986211620751
 20
-1045.50844565204
 30
0.0
 10
-348.3392334380474
 20
-1045.91192033011
 30
0.0
 10
-348.7666961974314
 20
-1045.969192439145
 30
0.0
 10
-348.8062988261368
 20
-1045.974498459423
 30
0.0
 10
-348.8462551187546
 20
-1045.977163255996
 30
0.0
 10
-348.8862116207451
 20
-1045.977163255996
 30
0.0
  0
LINE
  5
25C8
330
85F
100
AcDbEntity
  8
OUTLINE
100
AcDbLine
 10
-347.7862116207466
 20
-879.5771632559521
 30
0.0
 11
-347.8862116207452
 21
-879.5771632559521
 31
0.0
  0
LINE
  5
25C9
330
85F
100
AcDbEntity
  8
OUTLINE
100
AcDbLine
 10
-347.8862116207452
 20
-879.8881712994742
 30
0.0
 11
-347.8862116207452
 21
-879.5771632559521
 31
0.0
  0
LINE
  5
25CA
330
85F
100
AcDbEntity
  8
OUTLINE
100
AcDbLine
 10
-347.8862116207452
 20
-880.3771632559522
 30
0.0
 11
-347.8862116207452
 21
-879.8881712994742
 31
0.0
  0
LINE
  5
25CB
330
85F
100
AcDbEntity
  8
OUTLINE
100
AcDbLine
 10
-347.8862116207452
 20
-880.3771632559522
 30
0.0
 11
-347.7862116207466
 21
-880.3771632559522
 31
0.0
  0
ELLIPSE
  5
25CC
330
85F
100
AcDbEntity
  8
OUTLINE
100
AcDbEllipse
 10
-347.8862116207452
 20
-880.8931886596834
 30
0.0
 11
-0.8999999999963968
 21
0.0000000000006217
 31
0.0
210
0.0
220
0.0
230
1.0
 40
0.5000000000130469
 41
4.712388980385035
 42
4.818053084262288
  0
LINE
  5
25CD
330
85F
100
AcDbEntity
  8
OUTLINE
100
AcDbLine
 10
-347.8862116207452
 20
-880.4431886596733
 30
0.0
 11
-347.8862116207452
 21
-880.8431886596736
 31
0.0
  0
LINE
  5
25CE
330
85F
100
AcDbEntity
  8
OUTLINE
100
AcDbLine
 10
-347.8862116207452
 20
-880.8431886596736
 30
0.0
 11
-347.8862116207452
 21
-883.2585432995461
 31
0.0
  0
ELLIPSE
  5
25CF
330
85F
100
AcDbEntity
  8
OUTLINE
100
AcDbEllipse
 10
-347.8862116207452
 20
-880.8931886596738
 30
0.0
 11
-0.0999999999999608
 21
0.0000000000000078
 31
0.0
210
0.0
220
0.0
230
1.0
 40
0.5000000000003463
 41
4.712388980384728
 42
6.283185307180183
  0
LINE
  5
25D0
330
85F
100
AcDbEntity
  8
OUTLINE
100
AcDbLine
 10
-347.7862116207466
 20
-880.8431886596732
 30
0.0
 11
-347.8862116207452
 21
-880.8431886596736
 31
0.0
  0
LINE
  5
25D1
330
85F
100
AcDbEntity
  8
OUTLINE
100
AcDbLine
 10
-347.7862116207466
 20
-880.4431886596731
 30
0.0
 11
-347.8862116207452
 21
-880.4431886596733
 31
0.0
  0
LINE
  5
25D2
330
85F
100
AcDbEntity
  8
OUTLINE
100
AcDbLine
 10
-332.7862116207466
 20
-1012.511137852083
 30
0.0
 11
-347.1862116207481
 21
-1012.511137852084
 31
0.0
  0
LINE
  5
25D3
330
85F
100
AcDbEntity
  8
OUTLINE
100
AcDbLine
 10
-332.7862116207466
 20
-1012.511137852083
 30
0.0
 11
-332.7862116207466
 21
-890.7771632558869
 31
0.0
  0
LINE
  5
25D4
330
85F
100
AcDbEntity
  8
OUTLINE
100
AcDbLine
 10
243.1637883792505
 20
-1002.281264242278
 30
0.0
 11
243.1637883792505
 21
-1001.974282982183
 31
0.0
  0
LINE
  5
25D5
330
85F
100
AcDbEntity
  8
OUTLINE
100
AcDbLine
 10
243.1637883792505
 20
-1001.574282982182
 30
0.0
 11
243.1637883792505
 21
-1001.974282982183
 31
0.0
  0
ELLIPSE
  5
25D6
330
85F
100
AcDbEntity
  8
OUTLINE
100
AcDbEllipse
 10
243.7137883792461
 20
-1000.765719785656
 30
0.0
 11
-1.499999999999982
 21
-0.0000000000001569
 31
0.0
210
0.0
220
0.0
230
1.0
 40
0.8660254037842998
 41
1.946219934775746
 42
7.478558025993518
  0
ELLIPSE
  5
25D7
330
85F
100
AcDbEntity
  8
OUTLINE
100
AcDbEllipse
 10
243.7137883792461
 20
-1000.365719785656
 30
0.0
 11
1.49999999999998
 21
0.0000000000001363
 31
0.0
210
0.0
220
0.0
230
1.0
 40
0.8660254037843005
 41
5.087812588365502
 42
6.128610417167749
  0
ELLIPSE
  5
25D8
330
85F
100
AcDbEntity
  8
OUTLINE
100
AcDbEllipse
 10
243.7137883792461
 20
-1000.365719785656
 30
0.0
 11
-1.499999999999953
 21
-0.0000000000002159
 31
0.0
210
0.0
220
0.0
230
1.0
 40
0.8660254037843097
 41
0.1545748900117678
 42
1.195372718813865
  0
LINE
  5
25D9
330
85F
100
AcDbEntity
  8
OUTLINE
100
AcDbLine
 10
244.263788379249
 20
-1001.574282982182
 30
0.0
 11
244.263788379249
 21
-1001.974282982183
 31
0.0
  0
LINE
  5
25DA
330
85F
100
AcDbEntity
  8
OUTLINE
100
AcDbLine
 10
244.263788379249
 20
-1001.974282982183
 30
0.0
 11
244.263788379249
 21
-1002.281264242278
 31
0.0
  0
ELLIPSE
  5
25DB
330
85F
100
AcDbEntity
  8
OUTLINE
100
AcDbEllipse
 10
243.7137883792461
 20
-1002.281264242278
 30
0.0
 11
0.549999999999998
 21
0.0000000000000434
 31
0.0
210
0.0
220
0.0
230
1.0
 40
0.866025403784296
 41
3.14159265358971
 42
6.283185307179503
  0
ELLIPSE
  5
25DC
330
85F
100
AcDbEntity
  8
OUTLINE
100
AcDbEllipse
 10
243.7137883792461
 20
-1001.881264242278
 30
0.0
 11
-0.55
 21
-0.0000000000000345
 31
0.0
210
0.0
220
0.0
230
1.0
 40
0.8660254037842969
 41
0.0
 42
3.141592653589736
  0
LINE
  5
25DD
330
85F
100
AcDbEntity
  8
OUTLINE
100
AcDbLine
 10
240.2137883792534
 20
-1035.977163255833
 30
0.0
 11
237.2137883792534
 21
-1032.977163255832
 31
0.0
  0
LINE
  5
25DE
330
85F
100
AcDbEntity
  8
OUTLINE
100
AcDbLine
 10
268.4137883792505
 20
-1054.47716325596
 30
0.0
 11
268.4137883792505
 21
-1053.67716325596
 31
0.0
  0
LINE
  5
25DF
330
85F
100
AcDbEntity
  8
OUTLINE
100
AcDbLine
 10
268.4137883792505
 20
-1053.67716325596
 30
0.0
 11
265.4137883792505
 21
-1053.677163255961
 31
0.0
  0
LINE
  5
25E0
330
85F
100
AcDbEntity
  8
OUTLINE
100
AcDbLine
 10
265.4137883792505
 20
-1054.477163255961
 30
0.0
 11
268.4137883792505
 21
-1054.47716325596
 31
0.0
  0
LINE
  5
25E1
330
85F
100
AcDbEntity
  8
OUTLINE
100
AcDbLine
 10
265.4137883792505
 20
-1053.677163255961
 30
0.0
 11
265.4137883792505
 21
-1054.477163255961
 31
0.0
  0
LINE
  5
25E2
330
85F
100
AcDbEntity
  8
OUTLINE
100
AcDbLine
 10
251.6137883792476
 20
-1035.977163255832
 30
0.0
 11
240.2137883792534
 21
-1035.977163255833
 31
0.0
  0
LINE
  5
25E3
330
85F
100
AcDbEntity
  8
OUTLINE
100
AcDbLine
 10
237.2137883792461
 20
-1013.977163255832
 30
0.0
 11
251.6137883792476
 21
-1013.977163255832
 31
0.0
  0
LINE
  5
25E4
330
85F
100
AcDbEntity
  8
OUTLINE
100
AcDbLine
 10
237.2137883792534
 20
-1032.977163255832
 30
0.0
 11
237.2137883792461
 21
-1013.977163255832
 31
0.0
  0
LINE
  5
25E5
330
85F
100
AcDbEntity
  8
OUTLINE
100
AcDbLine
 10
265.4137883792505
 20
-1053.677163255961
 30
0.0
 11
253.313788379252
 21
-1053.677163255962
 31
0.0
  0
LINE
  5
25E6
330
85F
100
AcDbEntity
  8
OUTLINE
100
AcDbLine
 10
253.313788379252
 20
-1054.477163255961
 30
0.0
 11
265.4137883792505
 21
-1054.477163255961
 31
0.0
  0
LINE
  5
25E7
330
85F
100
AcDbEntity
  8
OUTLINE
100
AcDbLine
 10
253.313788379252
 20
-1053.677163255962
 30
0.0
 11
253.313788379252
 21
-1054.477163255961
 31
0.0
  0
ARC
  5
25E8
330
85F
100
AcDbEntity
  8
OUTLINE
100
AcDbCircle
 10
253.313788379252
 20
-1053.577163255962
 30
0.0
 40
0.9000000000000001
100
AcDbArc
 50
180.0
 51
270.0
  0
ARC
  5
25E9
330
85F
100
AcDbEntity
  8
OUTLINE
100
AcDbCircle
 10
253.313788379252
 20
-1053.577163255962
 30
0.0
 40
0.1
100
AcDbArc
 50
180.0
 51
270.0
  0
LINE
  5
25EA
330
85F
100
AcDbEntity
  8
OUTLINE
100
AcDbLine
 10
252.4137883792505
 20
-1053.577163255962
 30
0.0
 11
253.2137883792534
 21
-1053.577163255962
 31
0.0
  0
LINE
  5
25EB
330
85F
100
AcDbEntity
  8
OUTLINE
100
AcDbLine
 10
243.1637883792432
 20
-898.3582157881633
 30
0.0
 11
243.1637883792432
 21
-898.0512345280676
 31
0.0
  0
LINE
  5
25EC
330
85F
100
AcDbEntity
  8
OUTLINE
100
AcDbLine
 10
243.1637883792432
 20
-897.6512345280676
 30
0.0
 11
243.1637883792432
 21
-898.0512345280676
 31
0.0
  0
ELLIPSE
  5
25ED
330
85F
100
AcDbEntity
  8
OUTLINE
100
AcDbEllipse
 10
243.7137883792388
 20
-896.8426713315402
 30
0.0
 11
-1.500000000000011
 21
-0.0000000000001585
 31
0.0
210
0.0
220
0.0
230
1.0
 40
0.8660254037843003
 41
1.946219934775746
 42
7.478558025993516
  0
ELLIPSE
  5
25EE
330
85F
100
AcDbEntity
  8
OUTLINE
100
AcDbEllipse
 10
243.7137883792388
 20
-896.4426713315402
 30
0.0
 11
1.500000000000035
 21
0.0000000000002913
 31
0.0
210
0.0
220
0.0
230
1.0
 40
0.8660254037842779
 41
5.0878125883654
 42
6.12861041716756
  0
ELLIPSE
  5
25EF
330
85F
100
AcDbEntity
  8
OUTLINE
100
AcDbEllipse
 10
243.7137883792388
 20
-896.4426713315402
 30
0.0
 11
-1.500000000000031
 21
-0.0000000000002122
 31
0.0
210
0.0
220
0.0
230
1.0
 40
0.8660254037843079
 41
0.1545748900118385
 42
1.195372718813894
  0
LINE
  5
25F0
330
85F
100
AcDbEntity
  8
OUTLINE
100
AcDbLine
 10
244.2637883792418
 20
-897.6512345280676
 30
0.0
 11
244.2637883792418
 21
-898.0512345280672
 31
0.0
  0
LINE
  5
25F1
330
85F
100
AcDbEntity
  8
OUTLINE
100
AcDbLine
 10
244.2637883792418
 20
-898.0512345280672
 30
0.0
 11
244.2637883792418
 21
-898.3582157881627
 31
0.0
  0
ELLIPSE
  5
25F2
330
85F
100
AcDbEntity
  8
OUTLINE
100
AcDbEllipse
 10
243.7137883792388
 20
-898.3582157881627
 30
0.0
 11
0.55
 21
0.0000000000000523
 31
0.0
210
0.0
220
0.0
230
1.0
 40
0.8660254037842982
 41
3.141592653589879
 42
6.283185307179672
  0
ELLIPSE
  5
25F3
330
85F
100
AcDbEntity
  8
OUTLINE
100
AcDbEllipse
 10
243.7137883792388
 20
-897.9582157881626
 30
0.0
 11
-0.55
 21
-0.0000000000000167
 31
0.0
210
0.0
220
0.0
230
1.0
 40
0.8660254037842982
 41
0.0
 42
3.141592653589778
  0
LINE
  5
25F4
330
85F
100
AcDbEntity
  8
OUTLINE
100
AcDbLine
 10
252.4137883792505
 20
-1042.295783212303
 30
0.0
 11
251.6137883792548
 21
-1042.295783212303
 31
0.0
  0
LINE
  5
25F5
330
85F
100
AcDbEntity
  8
OUTLINE
100
AcDbLine
 10
252.4137883792432
 20
-883.2585432995761
 30
0.0
 11
251.6137883792403
 21
-883.2585432995761
 31
0.0
  0
LINE
  5
25F6
330
85F
100
AcDbEntity
  8
OUTLINE
100
AcDbLine
 10
251.6137883792403
 20
-883.2585432995761
 30
0.0
 11
251.6137883792548
 21
-1042.295783212303
 31
0.0
  0
LINE
  5
25F7
330
85F
100
AcDbEntity
  8
OUTLINE
100
AcDbLine
 10
252.4137883792505
 20
-1042.295783212303
 30
0.0
 11
252.4137883792505
 21
-1045.977163255962
 31
0.0
  0
LINE
  5
25F8
330
85F
100
AcDbEntity
  8
OUTLINE
100
AcDbLine
 10
253.2137883792534
 20
-1045.977163255962
 30
0.0
 11
252.4137883792505
 21
-1045.977163255962
 31
0.0
  0
LINE
  5
25F9
330
85F
100
AcDbEntity
  8
OUTLINE
100
AcDbLine
 10
253.2137883792534
 20
-1045.977163255962
 30
0.0
 11
253.2137883792389
 21
-880.4771632559178
 31
0.0
  0
LINE
  5
25FA
330
85F
100
AcDbEntity
  8
OUTLINE
100
AcDbLine
 10
252.4137883792432
 20
-880.4771632559178
 30
0.0
 11
252.4137883792432
 21
-883.2585432995761
 31
0.0
  0
LINE
  5
25FB
330
85F
100
AcDbEntity
  8
OUTLINE
100
AcDbLine
 10
252.4137883792505
 20
-1045.977163255962
 30
0.0
 11
252.4137883792505
 21
-1053.577163255962
 31
0.0
  0
LINE
  5
25FC
330
85F
100
AcDbEntity
  8
OUTLINE
100
AcDbLine
 10
253.2137883792534
 20
-1053.577163255962
 30
0.0
 11
253.2137883792534
 21
-1045.977163255962
 31
0.0
  0
LINE
  5
25FD
330
85F
100
AcDbEntity
  8
OUTLINE
100
AcDbLine
 10
253.2137883792389
 20
-880.4771632559178
 30
0.0
 11
252.8867461743725
 21
-880.4771632559178
 31
0.0
  0
LINE
  5
25FE
330
85F
100
AcDbEntity
  8
OUTLINE
100
AcDbLine
 10
252.8867461743725
 20
-880.4771632559178
 30
0.0
 11
252.4137883792432
 21
-880.4771632559178
 31
0.0
  0
LINE
  5
25FF
330
85F
100
AcDbEntity
  8
OUTLINE
100
AcDbLine
 10
252.4137883792432
 20
-879.582736064855
 30
0.0
 11
252.4137883792432
 21
-879.5771632558542
 31
0.0
  0
SPLINE
  5
2600
330
85F
100
AcDbEntity
  8
OUTLINE
100
AcDbSpline
210
0.0
220
0.0
230
1.0
 70
     8
 71
     3
 72
     8
 73
     4
 74
     0
 42
0.0000000001
 43
0.0000000001
 40
0.0
 40
0.0
 40
0.0
 40
0.0
 40
1.570796326794875
 40
1.570796326794875
 40
1.570796326794875
 40
1.570796326794875
 10
252.3137883792374
 20
-880.3771632559174
 30
0.0
 10
252.3661482567991
 20
-880.3771632559177
 30
0.0
 10
252.4137883792432
 20
-880.4248033783578
 30
0.0
 10
252.4137883792432
 20
-880.4771632559178
 30
0.0
  0
SPLINE
  5
2601
330
85F
100
AcDbEntity
  8
OUTLINE
100
AcDbSpline
210
0.0
220
0.0
230
1.0
 70
     8
 71
     3
 72
    11
 73
     7
 74
     0
 42
0.0000000001
 43
0.0000000001
 40
0.0
 40
0.0
 40
0.0
 40
0.0
 40
1.437607986812798
 40
1.437607986812798
 40
1.437607986812798
 40
1.570796326794875
 40
1.570796326794875
 40
1.570796326794875
 40
1.570796326794875
 10
253.2137883792389
 20
-880.4771632559178
 30
0.0
 10
253.2137883792389
 20
-880.0458808598738
 30
0.0
 10
252.8607665619424
 20
-879.6424061818036
 30
0.0
 10
252.4333038025584
 20
-879.5851340727686
 30
0.0
 10
252.3937011738531
 20
-879.5798280524904
 30
0.0
 10
252.3537448812354
 20
-879.5771632559176
 30
0.0
 10
252.3137883792374
 20
-879.5771632559176
 30
0.0
  0
LINE
  5
2602
330
85F
100
AcDbEntity
  8
OUTLINE
100
AcDbLine
 10
253.2137883792389
 20
-879.5771632558542
 30
0.0
 11
253.2137883792389
 21
-880.4771632558543
 31
0.0
  0
LINE
  5
2603
330
85F
100
AcDbEntity
  8
OUTLINE
100
AcDbLine
 10
252.4137883792432
 20
-879.5771632558542
 30
0.0
 11
253.2137883792389
 21
-879.5771632558542
 31
0.0
  0
LINE
  5
2604
330
85F
100
AcDbEntity
  8
OUTLINE
100
AcDbLine
 10
252.2137883792534
 20
-880.3771632559174
 30
0.0
 11
252.3137883792374
 21
-880.3771632559174
 31
0.0
  0
LINE
  5
2605
330
85F
100
AcDbEntity
  8
OUTLINE
100
AcDbLine
 10
252.3137883792374
 20
-879.8881712994399
 30
0.0
 11
252.3137883792374
 21
-880.3771632559174
 31
0.0
  0
LINE
  5
2606
330
85F
100
AcDbEntity
  8
OUTLINE
100
AcDbLine
 10
252.3137883792374
 20
-879.5771632559176
 30
0.0
 11
252.3137883792374
 21
-879.8881712994399
 31
0.0
  0
LINE
  5
2607
330
85F
100
AcDbEntity
  8
OUTLINE
100
AcDbLine
 10
252.3137883792374
 20
-879.5771632559176
 30
0.0
 11
252.2137883792534
 21
-879.5771632559176
 31
0.0
  0
CIRCLE
  5
2608
330
85F
100
AcDbEntity
  8
OUTLINE
100
AcDbCircle
 10
243.7137883792461
 20
-1022.977163255832
 30
0.0
 40
2.5
  0
LINE
  5
2609
330
85F
100
AcDbEntity
  8
OUTLINE
100
AcDbLine
 10
252.3137883792374
 20
-883.2585432995115
 30
0.0
 11
252.3137883792374
 21
-880.843188659638
 31
0.0
  0
ELLIPSE
  5
260A
330
85F
100
AcDbEntity
  8
OUTLINE
100
AcDbEllipse
 10
252.3137883792374
 20
-880.8931886596381
 30
0.0
 11
0.0999999999999915
 21
0.0000000000000068
 31
0.0
210
0.0
220
0.0
230
1.0
 40
0.5000000000001932
 41
0.0
 42
1.570796326794861
  0
LINE
  5
260B
330
85F
100
AcDbEntity
  8
OUTLINE
100
AcDbLine
 10
252.3137883792374
 20
-880.843188659638
 30
0.0
 11
252.3137883792374
 21
-880.4431886596381
 31
0.0
  0
ELLIPSE
  5
260C
330
85F
100
AcDbEntity
  8
OUTLINE
100
AcDbEllipse
 10
252.3137883792374
 20
-880.8931886596408
 30
0.0
 11
-0.9000000000013754
 21
-0.0000000000004225
 31
0.0
210
0.0
220
0.0
230
1.0
 40
0.5000000000024258
 41
4.606724876508565
 42
4.712388980384455
  0
LINE
  5
260D
330
85F
100
AcDbEntity
  8
OUTLINE
100
AcDbLine
 10
252.3137883792374
 20
-880.4431886596381
 30
0.0
 11
252.2137883792534
 21
-880.4431886596381
 31
0.0
  0
LINE
  5
260E
330
85F
100
AcDbEntity
  8
OUTLINE
100
AcDbLine
 10
252.2137883792534
 20
-880.843188659638
 30
0.0
 11
252.3137883792374
 21
-880.843188659638
 31
0.0
  0
LINE
  5
260F
330
85F
100
AcDbEntity
  8
OUTLINE
100
AcDbLine
 10
251.6137883792476
 20
-1012.511137852047
 30
0.0
 11
237.2137883792461
 21
-1012.511137852048
 31
0.0
  0
LINE
  5
2610
330
85F
100
AcDbEntity
  8
OUTLINE
100
AcDbLine
 10
237.2137883792461
 20
-1012.511137852048
 30
0.0
 11
237.2137883792388
 21
-890.7771632558869
 31
0.0
  0
LINE
  5
2611
330
85F
100
AcDbEntity
  8
OUTLINE
100
AcDbLine
 10
252.2137883792534
 20
-879.6771632559526
 30
0.0
 11
-347.7862116207466
 21
-879.6771632559526
 31
0.0
  0
LINE
  5
2612
330
85F
100
AcDbEntity
  8
OUTLINE
100
AcDbLine
 10
-347.7862116207466
 20
-879.6771632559526
 30
0.0
 11
-347.7862116207466
 21
-878.777163255952
 31
0.0
  0
LINE
  5
2613
330
85F
100
AcDbEntity
  8
OUTLINE
100
AcDbLine
 10
252.2137883792534
 20
-879.6771632559526
 30
0.0
 11
252.2137883792534
 21
-878.777163255952
 31
0.0
  0
LINE
  5
2614
330
85F
100
AcDbEntity
  8
OUTLINE
100
AcDbLine
 10
-347.7862116207466
 20
-878.777163255952
 30
0.0
 11
252.2137883792534
 21
-878.777163255952
 31
0.0
  0
LINE
  5
2615
330
85F
100
AcDbEntity
  8
OUTLINE
100
AcDbLine
 10
-347.1862116207481
 20
-889.9271632559525
 30
0.0
 11
251.6137883792403
 21
-889.9271632559525
 31
0.0
  0
LINE
  5
2616
330
85F
100
AcDbEntity
  8
OUTLINE
100
AcDbLine
 10
-347.1862116207481
 20
-890.7771632559517
 30
0.0
 11
251.6137883792403
 21
-890.7771632559517
 31
0.0
  0
LINE
  5
2617
330
85F
100
AcDbEntity
  8
OUTLINE
100
AcDbLine
 10
-347.7862116207466
 20
-879.6771632559526
 30
0.0
 11
-347.7862116207466
 21
-883.2585432996106
 31
0.0
  0
LINE
  5
2618
330
85F
100
AcDbEntity
  8
OUTLINE
100
AcDbLine
 10
252.2137883792534
 20
-879.6771632559526
 30
0.0
 11
252.2137883792534
 21
-883.2585432995752
 31
0.0
  0
LINE
  5
2619
330
85F
100
AcDbEntity
  8
OUTLINE
100
AcDbLine
 10
250.2405832985246
 20
-1035.977163255832
 30
0.0
 11
249.2137883792461
 21
-1037.003958175108
 31
0.0
  0
LINE
  5
261A
330
85F
100
AcDbEntity
  8
OUTLINE
100
AcDbLine
 10
236.013788379249
 20
-1037.003958175108
 30
0.0
 11
249.2137883792461
 21
-1037.003958175108
 31
0.0
  0
LINE
  5
261B
330
85F
100
AcDbEntity
  8
OUTLINE
100
AcDbLine
 10
249.2137883792461
 20
-877.9393025686408
 30
0.0
 11
-344.7862116207466
 21
-877.9393025686445
 31
0.0
  0
LINE
  5
261C
330
85F
100
AcDbEntity
  8
OUTLINE
100
AcDbLine
 10
249.2137883792461
 20
-878.7393025686411
 30
0.0
 11
-344.7862116207466
 21
-878.7393025686446
 31
0.0
  0
LINE
  5
261D
330
85F
100
AcDbEntity
  8
OUTLINE
100
AcDbLine
 10
242.2137883792461
 20
-1024.503958175108
 30
0.0
 11
242.2137883792461
 21
-1021.503958175108
 31
0.0
  0
LINE
  5
261E
330
85F
100
AcDbEntity
  8
OUTLINE
100
AcDbLine
 10
242.2137883792461
 20
-1021.503958175108
 30
0.0
 11
245.2137883792461
 21
-1021.503958175108
 31
0.0
  0
LINE
  5
261F
330
85F
100
AcDbEntity
  8
OUTLINE
100
AcDbLine
 10
245.2137883792461
 20
-1021.503958175108
 30
0.0
 11
245.2137883792461
 21
-1024.503958175108
 31
0.0
  0
LINE
  5
2620
330
85F
100
AcDbEntity
  8
OUTLINE
100
AcDbLine
 10
245.2137883792461
 20
-1024.503958175108
 30
0.0
 11
242.2137883792461
 21
-1024.503958175108
 31
0.0
  0
LINE
  5
2621
330
85F
100
AcDbEntity
  8
OUTLINE
100
AcDbLine
 10
-340.7862116207466
 20
-1024.503958175112
 30
0.0
 11
-340.7862116207466
 21
-1021.503958175112
 31
0.0
  0
LINE
  5
2622
330
85F
100
AcDbEntity
  8
OUTLINE
100
AcDbLine
 10
-340.7862116207466
 20
-1021.503958175112
 30
0.0
 11
-337.7862116207466
 21
-1021.503958175112
 31
0.0
  0
LINE
  5
2623
330
85F
100
AcDbEntity
  8
OUTLINE
100
AcDbLine
 10
-337.7862116207466
 20
-1021.503958175112
 30
0.0
 11
-337.7862116207466
 21
-1024.503958175112
 31
0.0
  0
LINE
  5
2624
330
85F
100
AcDbEntity
  8
OUTLINE
100
AcDbLine
 10
-337.7862116207466
 20
-1024.503958175112
 30
0.0
 11
-340.7862116207466
 21
-1024.503958175112
 31
0.0
  0
LINE
  5
2625
330
85F
100
AcDbEntity
  8
OUTLINE
100
AcDbLine
 10
251.6137883792476
 20
-1013.003958175108
 30
0.0
 11
-347.1862116207481
 21
-1013.003958175112
 31
0.0
  0
LINE
  5
2626
330
85F
100
AcDbEntity
  8
OUTLINE
100
AcDbLine
 10
-347.1862116207481
 20
-1012.953958175112
 30
0.0
 11
251.6137883792476
 21
-1012.953958175108
 31
0.0
  0
LINE
  5
2627
330
85F
100
AcDbEntity
  8
OUTLINE
100
AcDbLine
 10
-347.1862116207481
 20
-1036.103958175112
 30
0.0
 11
235.2137883792461
 21
-1036.103958175108
 31
0.0
  0
LINE
  5
2628
330
85F
100
AcDbEntity
  8
OUTLINE
100
AcDbLine
 10
235.2137883792461
 20
-1036.103958175108
 30
0.0
 11
235.2137883792461
 21
-1035.703958175108
 31
0.0
  0
LINE
  5
2629
330
85F
100
AcDbEntity
  8
OUTLINE
100
AcDbLine
 10
235.2137883792461
 20
-1035.703958175108
 30
0.0
 11
236.013788379249
 21
-1035.703958175108
 31
0.0
  0
LINE
  5
262A
330
85F
100
AcDbEntity
  8
OUTLINE
100
AcDbLine
 10
236.013788379249
 20
-1035.703958175108
 30
0.0
 11
236.013788379249
 21
-1037.003958175108
 31
0.0
  0
LINE
  5
262B
330
85F
100
AcDbEntity
  8
OUTLINE
100
AcDbLine
 10
235.2137883792461
 20
-1037.003958175108
 30
0.0
 11
-347.7862116207466
 21
-1037.003958175112
 31
0.0
  0
LINE
  5
262C
330
85F
100
AcDbEntity
  8
OUTLINE
100
AcDbLine
 10
235.2137883792461
 20
-1037.003958175108
 30
0.0
 11
235.2137883792461
 21
-1036.103958175108
 31
0.0
  0
LINE
  5
262D
330
85F
100
AcDbEntity
  8
OUTLINE
100
AcDbLine
 10
-347.7862116207466
 20
-1036.978127159819
 30
0.0
 11
-347.7862116207466
 21
-1037.003958175112
 31
0.0
  0
LINE
  5
262E
330
85F
100
AcDbEntity
  8
OUTLINE
100
AcDbLine
 10
252.2137883792461
 20
-877.9393025686399
 30
0.0
 11
249.2137883792461
 21
-877.9393025686408
 31
0.0
  0
LINE
  5
262F
330
85F
100
AcDbEntity
  8
OUTLINE
100
AcDbLine
 10
249.2137883792461
 20
-877.9393025686408
 30
0.0
 11
249.2137883792461
 21
-878.7393025686411
 31
0.0
  0
LINE
  5
2630
330
85F
100
AcDbEntity
  8
OUTLINE
100
AcDbLine
 10
249.2137883792461
 20
-878.7393025686411
 30
0.0
 11
252.2137883792461
 21
-878.7393025686402
 31
0.0
  0
LINE
  5
2631
330
85F
100
AcDbEntity
  8
OUTLINE
100
AcDbLine
 10
252.2137883792461
 20
-878.7393025686402
 30
0.0
 11
252.2137883792461
 21
-877.9393025686399
 31
0.0
  0
LINE
  5
2632
330
85F
100
AcDbEntity
  8
OUTLINE
100
AcDbLine
 10
-344.7862116207466
 20
-878.7393025686446
 30
0.0
 11
-344.7862116207466
 21
-877.9393025686445
 31
0.0
  0
LINE
  5
2633
330
85F
100
AcDbEntity
  8
OUTLINE
100
AcDbLine
 10
-344.7862116207466
 20
-877.9393025686445
 30
0.0
 11
-347.7862116207466
 21
-877.939302568644
 31
0.0
  0
LINE
  5
2634
330
85F
100
AcDbEntity
  8
OUTLINE
100
AcDbLine
 10
-347.7862116207466
 20
-877.939302568644
 30
0.0
 11
-347.7862116207466
 21
-878.7393025686437
 31
0.0
  0
LINE
  5
2635
330
85F
100
AcDbEntity
  8
OUTLINE
100
AcDbLine
 10
-347.7862116207466
 20
-878.7393025686437
 30
0.0
 11
-344.7862116207466
 21
-878.7393025686446
 31
0.0
  0
LINE
  5
2636
330
85F
100
AcDbEntity
  8
OUTLINE
100
AcDbLine
 10
-347.7862116207466
 20
-878.7393025686393
 30
0.0
 11
-347.7862116207466
 21
-878.7771632558902
 31
0.0
  0
LINE
  5
2637
330
85F
100
AcDbEntity
  8
OUTLINE
100
AcDbLine
 10
252.2137883792461
 20
-878.7771632558902
 30
0.0
 11
252.2137883792461
 21
-878.7393025686352
 31
0.0
  0
LINE
  5
2638
330
85F
100
AcDbEntity
  8
SIZE
  6
Continuous
100
AcDbLine
 39
50.0
 10
258.9137883792505
 20
-1054.477163255947
 30
0.0
 11
263.9137883792505
 21
-1054.477163255961
 31
0.0
  0
LINE
  5
2639
330
85F
100
AcDbEntity
  8
SIZE
  6
Continuous
100
AcDbLine
 39
50.0
 10
-357.986211620751
 20
-1045.977163255996
 30
0.0
 11
-352.986211620751
 21
-1045.977163255996
 31
0.0
  0
LINE
  5
263A
330
85F
100
AcDbEntity
  8
NOTE
100
AcDbLine
 10
261.4137883792505
 20
-1046.977163255951
 30
0.0
 11
261.4137883792505
 21
-1061.97716325595
 31
0.0
  0
LINE
  5
263B
330
85F
100
AcDbEntity
  8
NOTE
100
AcDbLine
 10
253.9137883792505
 20
-1054.477163255954
 30
0.0
 11
268.9137883792505
 21
-1054.477163255954
 31
0.0
  0
LINE
  5
263C
330
85F
100
AcDbEntity
  8
NOTE
100
AcDbLine
 10
-355.486211620751
 20
-1038.477163255993
 30
0.0
 11
-355.486211620751
 21
-1053.477163255992
 31
0.0
  0
LINE
  5
263D
330
85F
100
AcDbEntity
  8
NOTE
100
AcDbLine
 10
-362.9862116207509
 20
-1045.977163255996
 30
0.0
 11
-347.986211620751
 21
-1045.977163255996
 31
0.0
  0
DIMENSION
  5
263E
330
85F
100
AcDbEntity
  8
SIZE
  6
Continuous
100
AcDbDimension
  2
*D33
 10
261.4137883792505
 20
-1213.914928013769
 30
0.0
 11
-47.03621162075022
 21
-1171.914928013769
 31
0.0
 70
    32
 71
     5
 42
616.9000000000013
  3
STANDARD$0
100
AcDbAlignedDimension
 13
-355.486211620751
 23
-1053.477163255992
 33
0.0
 14
261.4137883792505
 24
-1061.97716325595
 34
0.0
100
AcDbRotatedDimension
  0
DIMENSION
  5
263F
330
85F
100
AcDbEntity
  8
SIZE
  6
Continuous
100
AcDbDimension
  2
*D34
 10
268.4137883792505
 20
-1350.627258152049
 30
0.0
 11
-46.28621162075023
 21
-1308.627258152049
 31
0.0
 70
    32
 71
     5
 42
629.4000000000013
  3
STANDARD$0
100
AcDbAlignedDimension
 13
-360.9862116207509
 23
-1045.977163255996
 33
0.0
 14
268.4137883792505
 24
-1054.47716325596
 34
0.0
100
AcDbRotatedDimension
  0
DIMENSION
  5
2640
330
85F
100
AcDbEntity
  8
SIZE
  6
Continuous
100
AcDbDimension
  2
*D35
 10
424.0236941205006
 20
-877.9393025686392
 30
0.0
 11
424.0236941205006
 21
-966.2082329123039
 31
0.0
 70
   160
 71
     5
 42
176.5378606873148
  3
STANDARD$0
100
AcDbAlignedDimension
 13
268.9137883792505
 23
-1054.477163255954
 33
0.0
 14
252.2137883792461
 24
-877.939302568639
 34
0.0
 50
90.0
100
AcDbRotatedDimension
  0
DIMENSION
  5
2641
330
85F
100
AcDbEntity
  8
SIZE
  6
Continuous
100
AcDbDimension
  2
*D36
 10
-425.4736514657701
 20
-877.9393025686431
 30
0.0
 11
-467.4736514657701
 21
-961.9582329123197
 31
0.0
 70
    32
 71
     5
 42
168.0378606873527
  3
STANDARD$0
100
AcDbAlignedDimension
 13
-362.9862116207509
 23
-1045.977163255996
 33
0.0
 14
-347.7862116207466
 24
-877.9393025686431
 34
0.0
 50
90.0
100
AcDbRotatedDimension
  0
LEADER
  5
2642
330
85F
100
AcDbEntity
  8
NOTE
100
AcDbLeader
  3
STANDARD
 73
     0
 75
     1
 40
64.0
 41
231.4971428571428
 76
     3
 10
-355.486211620751
 20
-1045.977163255995
 30
0.0
 10
-536.1410650731553
 20
-1275.065093249905
 30
0.0
 10
-548.1410650731553
 20
-1275.065093249905
 30
0.0
340
2643
213
0.0
223
32.0
233
0.0
1001
ACAD
1000
DSTYLE
1002
{
1070
    41
1040
12.0
1070
    42
1040
20.0
1070
    43
1040
200.0
1070
    44
1040
20.0
1070
    73
1070
     0
1070
    74
1070
     0
1070
    77
1070
     1
1070
    78
1070
     8
1070
   140
1040
64.0
1070
   147
1040
50.0
1070
   172
1070
     1
1070
   174
1070
     1
1070
   275
1070
     0
1070
   284
1070
     0
1070
   285
1070
     0
1070
   286
1070
     0
1070
   341
1005
1A78
1070
   342
1005
AB2
1002
}
  0
MTEXT
  5
2643
102
{ACAD_REACTORS
330
2642
102
}
330
85F
100
AcDbEntity
  8
NOTE
100
AcDbMText
 10
-598.1410650731553
 20
-1257.065093249905
 30
0.0
 40
64.0
 41
0.0
 71
     9
 72
     1
  1
5×φ5
 73
     1
 44
1.0
  0
LINE
  5
2644
330
85F
100
AcDbEntity
  8
BASIS
  6
DASHDOT
 62
     6
100
AcDbLine
 10
-46.28621162074661
 20
-826.4864750066303
 30
0.0
 11
-46.28621162074661
 21
-1086.48647500663
 31
0.0
  0
LINE
  5
2645
330
85F
100
AcDbEntity
  8
ARRANGE
  6
Continuous
 62
     1
100
AcDbLine
 10
-62.97032918515423
 20
-1020.31984061071
 30
0.0
 11
-29.60209405634623
 21
-1053.688075739517
 31
0.0
  0
LINE
  5
2646
330
85F
100
AcDbEntity
  8
ARRANGE
  6
Continuous
 62
     1
100
AcDbLine
 10
-62.97032918515423
 20
-1053.688075739517
 30
0.0
 11
-29.60209405634623
 21
-1020.31984061071
 31
0.0
  0
CIRCLE
  5
2647
330
85F
100
AcDbEntity
  8
ARRANGE
100
AcDbCircle
 10
-46.28621162074661
 20
-1037.003958175114
 30
0.0
 40
15.0
  0
MTEXT
  5
2648
330
85F
100
AcDbEntity
  8
ETC
100
AcDbMText
 10
383.7736748133906
 20
-473.799123290979
 30
0.0
 40
64.0
 41
0.0
 71
     1
 72
     5
  1
{\Fromans,extfont|c128;\W0.9;AGJT-17B-6}
  7
ADESK1
 73
     1
 44
1.0
  0
ENDSEC
  0
SECTION
  2
OBJECTS
  0
DICTIONARY
  5
84D
330
0
100
AcDbDictionary
281
     1
  3
ACAD_2007HEADERVARS_RT
350
2760
  3
ACAD_COLOR
350
15E9
  3
ACAD_GROUP
350
84E
  3
ACAD_LAYOUT
350
85A
  3
ACAD_MATERIAL
350
15E8
  3
ACAD_MLEADERSTYLE
350
18B5
  3
ACAD_MLINESTYLE
350
857
  3
ACAD_PLOTSETTINGS
350
859
  3
ACAD_PLOTSTYLENAME
350
B82
  3
ACAD_SCALELIST
350
1893
  3
ACAD_TABLESTYLE
350
15EA
  3
ACAD_VISUALSTYLE
350
1882
  3
AcadDim
350
1003
  3
ACDB_RECOMPOSE_DATA
350
1927
  3
AcDbVariableDictionary
350
B87
  3
AcmDictionary
350
16B0
  3
AMG
350
15EF
  3
AMGSNAPSETTINGS
350
171E
1001
ACAD
1000
TREAT_AS_HARD
1070
     0
  0
DICTIONARY
  5
1AA7
330
843
100
AcDbDictionary
280
     1
281
     1
  3
ACAD_LAYERSTATES
360
1AA8
  0
DICTIONARY
  5
190C
330
851
100
AcDbDictionary
280
     1
281
     1
  3
ADSK_XREC_LAYER_RECONCILED
360
190D
  0
DICTIONARY
  5
190E
330
863
100
AcDbDictionary
280
     1
281
     1
  3
ADSK_XREC_LAYER_RECONCILED
360
190F
  0
DICTIONARY
  5
1910
330
866
100
AcDbDictionary
280
     1
281
     1
  3
ADSK_XREC_LAYER_RECONCILED
360
1911
  0
DICTIONARY
  5
1912
330
867
100
AcDbDictionary
280
     1
281
     1
  3
ADSK_XREC_LAYER_RECONCILED
360
1913
  0
DICTIONARY
  5
1914
330
868
100
AcDbDictionary
280
     1
281
     1
  3
ADSK_XREC_LAYER_RECONCILED
360
1915
  0
DICTIONARY
  5
1916
330
869
100
AcDbDictionary
280
     1
281
     1
  3
ADSK_XREC_LAYER_RECONCILED
360
1917
  0
DICTIONARY
  5
1918
330
86B
100
AcDbDictionary
280
     1
281
     1
  3
ADSK_XREC_LAYER_RECONCILED
360
1919
  0
DICTIONARY
  5
191A
330
86C
100
AcDbDictionary
280
     1
281
     1
  3
ADSK_XREC_LAYER_RECONCILED
360
191B
  0
DICTIONARY
  5
191C
330
86D
100
AcDbDictionary
280
     1
281
     1
  3
ADSK_XREC_LAYER_RECONCILED
360
191D
  0
DICTIONARY
  5
191E
330
86E
100
AcDbDictionary
280
     1
281
     1
  3
ADSK_XREC_LAYER_RECONCILED
360
191F
  0
DICTIONARY
  5
1920
330
86F
100
AcDbDictionary
280
     1
281
     1
  3
ADSK_XREC_LAYER_RECONCILED
360
1921
  0
DICTIONARY
  5
B4F
330
85F
100
AcDbDictionary
280
     1
281
     1
  3
ACAD_INDEX
360
1706
  3
ACAD_LAYOUTSELFREF
360
B50
  3
ACAD_SORTENTS
360
18F0
  0
DICTIONARY
  5
B4D
330
85B
100
AcDbDictionary
280
     1
281
     1
  3
ACAD_LAYOUTSELFREF
360
B4E
  0
DICTIONARY
  5
2760
102
{ACAD_REACTORS
330
84D
102
}
330
84D
100
AcDbDictionary
281
     1
  3
DIMARCSYM
350
2761
  3
DIMLTEX1
350
2763
  3
DIMLTEX2
350
2764
  3
DIMLTYPE
350
2762
  0
DICTIONARY
  5
15E9
102
{ACAD_REACTORS
330
84D
102
}
330
84D
100
AcDbDictionary
281
     1
  0
DICTIONARY
  5
84E
102
{ACAD_REACTORS
330
84D
102
}
330
84D
100
AcDbDictionary
281
     1
1001
ACAD
1000
TREAT_AS_HARD
1070
     0
  0
DICTIONARY
  5
85A
102
{ACAD_REACTORS
330
84D
102
}
330
84D
100
AcDbDictionary
281
     1
  3
Model
350
B84
  3
ﾚｲｱｳﾄ1
350
B85
1001
ACAD
1000
TREAT_AS_HARD
1070
     0
  0
DICTIONARY
  5
15E8
102
{ACAD_REACTORS
330
84D
102
}
330
84D
100
AcDbDictionary
281
     1
  3
ByBlock
350
1872
  3
ByLayer
350
186A
  3
Global
350
187A
  0
DICTIONARY
  5
18B5
102
{ACAD_REACTORS
330
84D
102
}
330
84D
100
AcDbDictionary
281
     1
  3
Standard
350
18B6
  0
DICTIONARY
  5
857
102
{ACAD_REACTORS
330
84D
102
}
330
84D
100
AcDbDictionary
281
     1
  3
STANDARD
350
858
1001
ACAD
1000
TREAT_AS_HARD
1070
     0
  0
DICTIONARY
  5
859
102
{ACAD_REACTORS
330
84D
102
}
330
84D
100
AcDbDictionary
281
     1
1001
ACAD
1000
TREAT_AS_HARD
1070
     0
  0
ACDBDICTIONARYWDFLT
  5
B82
102
{ACAD_REACTORS
330
84D
102
}
330
84D
100
AcDbDictionary
281
     1
  3
Normal
350
B83
100
AcDbDictionaryWithDefault
340
B83
  0
DICTIONARY
  5
1893
102
{ACAD_REACTORS
330
84D
102
}
330
84D
100
AcDbDictionary
281
     1
  3
A0
350
1894
  3
A1
350
1895
  3
A2
350
1896
  3
A3
350
1897
  3
A4
350
1898
  3
A5
350
1899
  3
A6
350
189A
  3
A7
350
189B
  3
A8
350
189C
  3
A9
350
189D
  3
B0
350
189E
  3
B1
350
189F
  3
B2
350
18A0
  3
B3
350
18A1
  3
B4
350
18A2
  3
B5
350
18A3
  3
B6
350
18A4
  3
B7
350
18A5
  3
B8
350
18A6
  3
B9
350
18A7
  3
C0
350
18A8
  3
C1
350
18A9
  3
C2
350
18AA
  3
C3
350
18AB
  3
C4
350
18AC
  3
C5
350
18AD
  3
C6
350
18AE
  3
C7
350
18AF
  3
C8
350
18B0
  3
C9
350
18B1
  3
D0
350
18B2
  3
D1
350
18B3
  3
D2
350
18B4
  0
DICTIONARY
  5
15EA
102
{ACAD_REACTORS
330
84D
102
}
330
84D
100
AcDbDictionary
281
     1
  3
Standard
350
15EB
  0
DICTIONARY
  5
1882
102
{ACAD_REACTORS
330
84D
102
}
330
84D
100
AcDbDictionary
281
     1
  3
2dWireframe
350
1888
  3
3D Hidden
350
188A
  3
3dWireframe
350
1889
  3
Basic
350
1887
  3
Brighten
350
188E
  3
ColorChange
350
1892
  3
Conceptual
350
188B
  3
Dim
350
188D
  3
Facepattern
350
1891
  3
Flat
350
1883
  3
FlatWithEdges
350
1884
  3
Gouraud
350
1885
  3
GouraudWithEdges
350
1886
  3
Linepattern
350
1890
  3
Realistic
350
188C
  3
Thicken
350
188F
  0
XRECORD
  5
1003
102
{ACAD_REACTORS
330
84D
102
}
330
84D
100
AcDbXrecord
280
     1
 90
   990106
  3

 60
     0
 61
     0
 62
     1
 63
     3
 64
     0
 65
     0
 66
     0
 67
     3
 68
     1
 69
     0
 70
     0
 71
     0
 72
     0
 40
0.0
170
     0
340
0
  0
XRECORD
  5
1927
102
{ACAD_REACTORS
330
84D
102
}
330
84D
100
AcDbXrecord
280
     1
 90
        1
330
15EB
  0
DICTIONARY
  5
B87
102
{ACAD_REACTORS
330
84D
102
}
330
84D
100
AcDbDictionary
281
     1
  3
CANNOSCALE
350
1923
  3
CMLEADERSTYLE
350
1922
  3
CTABLESTYLE
350
1714
  3
DIMASSOC
350
B88
  3
INDEXCTL
350
1715
  3
PROJECTNAME
350
1716
  3
SORTENTS
350
1924
  0
DICTIONARY
  5
16B0
102
{ACAD_REACTORS
330
84D
102
}
330
84D
100
AcDbDictionary
281
     1
  3
AcmStdDictionary
350
16BC
  3
AMDTSECTSYM_ARROWCOLOR
350
16DC
  0
DICTIONARY
  5
15EF
102
{ACAD_REACTORS
330
84D
102
}
330
84D
100
AcDbDictionary
281
     1
  3
AcMgSettings
350
15F0
  0
DICTIONARY
  5
171E
102
{ACAD_REACTORS
330
84D
102
}
330
84D
100
AcDbDictionary
281
     1
  3
DIMENSION
350
1723
  3
FEA
350
1722
  3
HATCH (1)
350
171F
  3
HATCH (2)
350
1720
  3
SIMPLE WELD
350
1724
  3
SYMBOLS
350
1721
  0
DICTIONARY
  5
1AA8
102
{ACAD_REACTORS
330
1AA7
102
}
330
1AA7
100
AcDbDictionary
281
     1
  0
XRECORD
  5
190D
102
{ACAD_REACTORS
330
190C
102
}
330
190C
100
AcDbXrecord
280
     1
290
     1
  0
XRECORD
  5
190F
102
{ACAD_REACTORS
330
190E
102
}
330
190E
100
AcDbXrecord
280
     1
290
     1
  0
XRECORD
  5
1911
102
{ACAD_REACTORS
330
1910
102
}
330
1910
100
AcDbXrecord
280
     1
290
     1
  0
XRECORD
  5
1913
102
{ACAD_REACTORS
330
1912
102
}
330
1912
100
AcDbXrecord
280
     1
290
     1
  0
XRECORD
  5
1915
102
{ACAD_REACTORS
330
1914
102
}
330
1914
100
AcDbXrecord
280
     1
290
     1
  0
XRECORD
  5
1917
102
{ACAD_REACTORS
330
1916
102
}
330
1916
100
AcDbXrecord
280
     1
290
     1
  0
XRECORD
  5
1919
102
{ACAD_REACTORS
330
1918
102
}
330
1918
100
AcDbXrecord
280
     1
290
     1
  0
XRECORD
  5
191B
102
{ACAD_REACTORS
330
191A
102
}
330
191A
100
AcDbXrecord
280
     1
290
     1
  0
XRECORD
  5
191D
102
{ACAD_REACTORS
330
191C
102
}
330
191C
100
AcDbXrecord
280
     1
290
     1
  0
XRECORD
  5
191F
102
{ACAD_REACTORS
330
191E
102
}
330
191E
100
AcDbXrecord
280
     1
290
     1
  0
XRECORD
  5
1921
102
{ACAD_REACTORS
330
1920
102
}
330
1920
100
AcDbXrecord
280
     1
290
     1
  0
DICTIONARY
  5
1706
102
{ACAD_REACTORS
330
B4F
102
}
330
B4F
100
AcDbDictionary
281
     1
  3
*A1
350
1707
  0
XRECORD
  5
B50
102
{ACAD_REACTORS
330
B4F
102
}
330
B4F
100
AcDbXrecord
280
     1
340
85F
  0
SORTENTSTABLE
  5
18F0
102
{ACAD_REACTORS
330
B4F
102
}
330
B4F
100
AcDbSortentsTable
330
85F
331
953
  5
953
331
954
  5
954
331
955
  5
955
331
956
  5
956
331
957
  5
957
331
958
  5
958
  0
XRECORD
  5
B4E
102
{ACAD_REACTORS
330
B4D
102
}
330
B4D
100
AcDbXrecord
280
     1
340
85B
  0
XRECORD
  5
2761
102
{ACAD_REACTORS
330
2760
102
}
330
2760
100
AcDbXrecord
280
     1
 70
     1
  0
XRECORD
  5
2763
102
{ACAD_REACTORS
330
2760
102
}
330
2760
100
AcDbXrecord
280
     1
340
854
  0
XRECORD
  5
2764
102
{ACAD_REACTORS
330
2760
102
}
330
2760
100
AcDbXrecord
280
     1
340
854
  0
XRECORD
  5
2762
102
{ACAD_REACTORS
330
2760
102
}
330
2760
100
AcDbXrecord
280
     1
340
854
  0
LAYOUT
  5
B84
102
{ACAD_REACTORS
330
85A
102
}
330
85A
100
AcDbPlotSettings
  1

  2
none_device
  4
Letter_(8.50_x_11.00_Inches)
  6

 40
6.349999904632567
 41
6.349999904632567
 42
6.350006103515625
 43
6.350006103515625
 44
215.8999938964844
 45
279.3999938964844
 46
0.0
 47
0.0
 48
0.0
 49
0.0
140
0.0
141
0.0
142
1.0
143
147.2292326411557
 70
 11952
 72
     0
 73
     1
 74
     0
  7
monochrome.ctb
 75
     0
147
0.0067921294029788
 76
     0
 77
     2
 78
   300
148
22185.39826845973
149
21252.99217902705
100
AcDbLayout
  1
Model
 70
     1
 71
     0
 10
0.0
 20
0.0
 11
12.0
 21
9.0
 12
0.0
 22
0.0
 32
0.0
 14
0.0
 24
0.0
 34
0.0
 15
0.0
 25
0.0
 35
0.0
146
0.0
 13
0.0
 23
0.0
 33
0.0
 16
1.0
 26
0.0
 36
0.0
 17
0.0
 27
1.0
 37
0.0
 76
     0
330
85F
331
185F
1001
ACAD_PSEXT
1000
なし
1000
なし
1000
適切ではありません
1000
新しいプロッタ環境設定名を選択しない限り、レイアウトは印刷されません。
1070
     0
  0
LAYOUT
  5
B85
102
{ACAD_REACTORS
330
85A
102
}
330
85A
100
AcDbPlotSettings
  1

  2
\\Server02\EPSON LP-9600SPD (3F)
  4

  6

 40
0.0
 41
0.0
 42
0.0
 43
0.0
 44
0.0
 45
0.0
 46
0.0
 47
0.0
 48
0.0
 49
0.0
140
0.0
141
0.0
142
1.0
143
1.0
 70
   688
 72
     0
 73
     0
 74
     5
  7
monochrome.ctb
 75
    16
147
1.0
 76
     0
 77
     2
 78
   300
148
0.0
149
0.0
100
AcDbLayout
  1
ﾚｲｱｳﾄ1
 70
     1
 71
     1
 10
0.0
 20
0.0
 11
12.0
 21
9.0
 12
0.0
 22
0.0
 32
0.0
 14
1.000000000000000E+20
 24
1.000000000000000E+20
 34
1.000000000000000E+20
 15
-1.000000000000000E+20
 25
-1.000000000000000E+20
 35
-1.000000000000000E+20
146
0.0
 13
0.0
 23
0.0
 33
0.0
 16
1.0
 26
0.0
 36
0.0
 17
0.0
 27
1.0
 37
0.0
 76
     0
330
85B
  0
MATERIAL
  5
1872
102
{ACAD_XDICTIONARY
360
1873
102
}
102
{ACAD_REACTORS
330
15E8
102
}
330
15E8
100
AcDbMaterial
  1
ByBlock
 72
     0
 43
0.0208333333333333
 43
0.0
 43
0.0
 43
0.0
 43
0.0
 43
0.0208333333333333
 43
0.0
 43
0.0
 43
0.0
 43
0.0
 43
1.0
 43
0.0
 43
0.0
 43
0.0
 43
0.0
 43
1.0
 77
     0
 47
0.0208333333333333
 47
0.0
 47
0.0
 47
0.0
 47
0.0
 47
0.0208333333333333
 47
0.0
 47
0.0
 47
0.0
 47
0.0
 47
1.0
 47
0.0
 47
0.0
 47
0.0
 47
0.0
 47
1.0
171
     0
 49
0.0208333333333333
 49
0.0
 49
0.0
 49
0.0
 49
0.0
 49
0.0208333333333333
 49
0.0
 49
0.0
 49
0.0
 49
0.0
 49
1.0
 49
0.0
 49
0.0
 49
0.0
 49
0.0
 49
1.0
175
     0
142
0.0208333333333333
142
0.0
142
0.0
142
0.0
142
0.0
142
0.0208333333333333
142
0.0
142
0.0
142
0.0
142
0.0
142
1.0
142
0.0
142
0.0
142
0.0
142
0.0
142
1.0
179
     0
144
0.0208333333333333
144
0.0
144
0.0
144
0.0
144
0.0
144
0.0208333333333333
144
0.0
144
0.0
144
0.0
144
0.0
144
1.0
144
0.0
144
0.0
144
0.0
144
0.0
144
1.0
147
0.0208333333333333
147
0.0
147
0.0
147
0.0
147
0.0
147
0.0208333333333333
147
0.0
147
0.0
147
0.0
147
0.0
147
1.0
147
0.0
147
0.0
147
0.0
147
0.0
147
1.0
  0
MATERIAL
  5
186A
102
{ACAD_XDICTIONARY
360
186B
102
}
102
{ACAD_REACTORS
330
15E8
102
}
330
15E8
100
AcDbMaterial
  1
ByLayer
 72
     0
 43
0.0208333333333333
 43
0.0
 43
0.0
 43
0.0
 43
0.0
 43
0.0208333333333333
 43
0.0
 43
0.0
 43
0.0
 43
0.0
 43
1.0
 43
0.0
 43
0.0
 43
0.0
 43
0.0
 43
1.0
 77
     0
 47
0.0208333333333333
 47
0.0
 47
0.0
 47
0.0
 47
0.0
 47
0.0208333333333333
 47
0.0
 47
0.0
 47
0.0
 47
0.0
 47
1.0
 47
0.0
 47
0.0
 47
0.0
 47
0.0
 47
1.0
171
     0
 49
0.0208333333333333
 49
0.0
 49
0.0
 49
0.0
 49
0.0
 49
0.0208333333333333
 49
0.0
 49
0.0
 49
0.0
 49
0.0
 49
1.0
 49
0.0
 49
0.0
 49
0.0
 49
0.0
 49
1.0
175
     0
142
0.0208333333333333
142
0.0
142
0.0
142
0.0
142
0.0
142
0.0208333333333333
142
0.0
142
0.0
142
0.0
142
0.0
142
1.0
142
0.0
142
0.0
142
0.0
142
0.0
142
1.0
179
     0
144
0.0208333333333333
144
0.0
144
0.0
144
0.0
144
0.0
144
0.0208333333333333
144
0.0
144
0.0
144
0.0
144
0.0
144
1.0
144
0.0
144
0.0
144
0.0
144
0.0
144
1.0
147
0.0208333333333333
147
0.0
147
0.0
147
0.0
147
0.0
147
0.0208333333333333
147
0.0
147
0.0
147
0.0
147
0.0
147
1.0
147
0.0
147
0.0
147
0.0
147
0.0
147
1.0
  0
MATERIAL
  5
187A
102
{ACAD_XDICTIONARY
360
187B
102
}
102
{ACAD_REACTORS
330
15E8
102
}
330
15E8
100
AcDbMaterial
  1
Global
 72
     0
 43
0.0208333333333333
 43
0.0
 43
0.0
 43
0.0
 43
0.0
 43
0.0208333333333333
 43
0.0
 43
0.0
 43
0.0
 43
0.0
 43
1.0
 43
0.0
 43
0.0
 43
0.0
 43
0.0
 43
1.0
 77
     0
 47
0.0208333333333333
 47
0.0
 47
0.0
 47
0.0
 47
0.0
 47
0.0208333333333333
 47
0.0
 47
0.0
 47
0.0
 47
0.0
 47
1.0
 47
0.0
 47
0.0
 47
0.0
 47
0.0
 47
1.0
171
     0
 49
0.0208333333333333
 49
0.0
 49
0.0
 49
0.0
 49
0.0
 49
0.0208333333333333
 49
0.0
 49
0.0
 49
0.0
 49
0.0
 49
1.0
 49
0.0
 49
0.0
 49
0.0
 49
0.0
 49
1.0
175
     0
142
0.0208333333333333
142
0.0
142
0.0
142
0.0
142
0.0
142
0.0208333333333333
142
0.0
142
0.0
142
0.0
142
0.0
142
1.0
142
0.0
142
0.0
142
0.0
142
0.0
142
1.0
179
     0
144
0.0208333333333333
144
0.0
144
0.0
144
0.0
144
0.0
144
0.0208333333333333
144
0.0
144
0.0
144
0.0
144
0.0
144
1.0
144
0.0
144
0.0
144
0.0
144
0.0
144
1.0
147
0.0208333333333333
147
0.0
147
0.0
147
0.0
147
0.0
147
0.0208333333333333
147
0.0
147
0.0
147
0.0
147
0.0
147
1.0
147
0.0
147
0.0
147
0.0
147
0.0
147
1.0
  0
MLEADERSTYLE
  5
18B6
102
{ACAD_REACTORS
330
18B5
102
}
330
18B5
100
AcDbMLeaderStyle
170
     2
171
     1
172
     0
 90
        2
 40
0.0
 41
0.0
173
     1
 91
-1056964608
340
854
 92
       -2
290
     1
 42
0.09
291
     1
 43
0.36
  3
Standard
 44
0.18
300

342
852
174
     1
178
     6
175
     1
176
     0
 93
-1056964608
 45
0.18
292
     0
297
     0
 46
0.18
 94
-1056964608
 47
1.0
 49
1.0
140
1.0
293
     1
141
0.0
294
     1
177
     0
142
1.0
295
     0
296
     0
143
0.125
1001
ACAD_MLEADERVER
1070
     2
  0
MLINESTYLE
  5
858
102
{ACAD_REACTORS
330
857
102
}
330
857
100
AcDbMlineStyle
  2
STANDARD
 70
     0
  3

 62
   256
 51
90.0
 52
90.0
 71
     2
 49
0.5
 62
   256
  6
BYLAYER
 49
-0.5
 62
   256
  6
BYLAYER
  0
ACDBPLACEHOLDER
  5
B83
102
{ACAD_REACTORS
330
B82
102
}
330
B82
  0
SCALE
  5
1894
102
{ACAD_REACTORS
330
1893
102
}
330
1893
100
AcDbScale
 70
     0
300
1:1
140
1.0
141
1.0
290
     1
  0
SCALE
  5
1895
102
{ACAD_REACTORS
330
1893
102
}
330
1893
100
AcDbScale
 70
     0
300
1:2
140
1.0
141
2.0
290
     0
  0
SCALE
  5
1896
102
{ACAD_REACTORS
330
1893
102
}
330
1893
100
AcDbScale
 70
     0
300
1:4
140
1.0
141
4.0
290
     0
  0
SCALE
  5
1897
102
{ACAD_REACTORS
330
1893
102
}
330
1893
100
AcDbScale
 70
     0
300
1:5
140
1.0
141
5.0
290
     0
  0
SCALE
  5
1898
102
{ACAD_REACTORS
330
1893
102
}
330
1893
100
AcDbScale
 70
     0
300
1:8
140
1.0
141
8.0
290
     0
  0
SCALE
  5
1899
102
{ACAD_REACTORS
330
1893
102
}
330
1893
100
AcDbScale
 70
     0
300
1:10
140
1.0
141
10.0
290
     0
  0
SCALE
  5
189A
102
{ACAD_REACTORS
330
1893
102
}
330
1893
100
AcDbScale
 70
     0
300
1:16
140
1.0
141
16.0
290
     0
  0
SCALE
  5
189B
102
{ACAD_REACTORS
330
1893
102
}
330
1893
100
AcDbScale
 70
     0
300
1:20
140
1.0
141
20.0
290
     0
  0
SCALE
  5
189C
102
{ACAD_REACTORS
330
1893
102
}
330
1893
100
AcDbScale
 70
     0
300
1:30
140
1.0
141
30.0
290
     0
  0
SCALE
  5
189D
102
{ACAD_REACTORS
330
1893
102
}
330
1893
100
AcDbScale
 70
     0
300
1:40
140
1.0
141
40.0
290
     0
  0
SCALE
  5
189E
102
{ACAD_REACTORS
330
1893
102
}
330
1893
100
AcDbScale
 70
     0
300
1:50
140
1.0
141
50.0
290
     0
  0
SCALE
  5
189F
102
{ACAD_REACTORS
330
1893
102
}
330
1893
100
AcDbScale
 70
     0
300
1:100
140
1.0
141
100.0
290
     0
  0
SCALE
  5
18A0
102
{ACAD_REACTORS
330
1893
102
}
330
1893
100
AcDbScale
 70
     0
300
2:1
140
2.0
141
1.0
290
     0
  0
SCALE
  5
18A1
102
{ACAD_REACTORS
330
1893
102
}
330
1893
100
AcDbScale
 70
     0
300
4:1
140
4.0
141
1.0
290
     0
  0
SCALE
  5
18A2
102
{ACAD_REACTORS
330
1893
102
}
330
1893
100
AcDbScale
 70
     0
300
8:1
140
8.0
141
1.0
290
     0
  0
SCALE
  5
18A3
102
{ACAD_REACTORS
330
1893
102
}
330
1893
100
AcDbScale
 70
     0
300
10:1
140
10.0
141
1.0
290
     0
  0
SCALE
  5
18A4
102
{ACAD_REACTORS
330
1893
102
}
330
1893
100
AcDbScale
 70
     0
300
100:1
140
100.0
141
1.0
290
     0
  0
SCALE
  5
18A5
102
{ACAD_REACTORS
330
1893
102
}
330
1893
100
AcDbScale
 70
     0
300
1/128" = 1'-0"
140
0.0078125
141
12.0
290
     0
  0
SCALE
  5
18A6
102
{ACAD_REACTORS
330
1893
102
}
330
1893
100
AcDbScale
 70
     0
300
1/64" = 1'-0"
140
0.015625
141
12.0
290
     0
  0
SCALE
  5
18A7
102
{ACAD_REACTORS
330
1893
102
}
330
1893
100
AcDbScale
 70
     0
300
1/32" = 1'-0"
140
0.03125
141
12.0
290
     0
  0
SCALE
  5
18A8
102
{ACAD_REACTORS
330
1893
102
}
330
1893
100
AcDbScale
 70
     0
300
1/16" = 1'-0"
140
0.0625
141
12.0
290
     0
  0
SCALE
  5
18A9
102
{ACAD_REACTORS
330
1893
102
}
330
1893
100
AcDbScale
 70
     0
300
3/32" = 1'-0"
140
0.09375
141
12.0
290
     0
  0
SCALE
  5
18AA
102
{ACAD_REACTORS
330
1893
102
}
330
1893
100
AcDbScale
 70
     0
300
1/8" = 1'-0"
140
0.125
141
12.0
290
     0
  0
SCALE
  5
18AB
102
{ACAD_REACTORS
330
1893
102
}
330
1893
100
AcDbScale
 70
     0
300
3/16" = 1'-0"
140
0.1875
141
12.0
290
     0
  0
SCALE
  5
18AC
102
{ACAD_REACTORS
330
1893
102
}
330
1893
100
AcDbScale
 70
     0
300
1/4" = 1'-0"
140
0.25
141
12.0
290
     0
  0
SCALE
  5
18AD
102
{ACAD_REACTORS
330
1893
102
}
330
1893
100
AcDbScale
 70
     0
300
3/8" = 1'-0"
140
0.375
141
12.0
290
     0
  0
SCALE
  5
18AE
102
{ACAD_REACTORS
330
1893
102
}
330
1893
100
AcDbScale
 70
     0
300
1/2" = 1'-0"
140
0.5
141
12.0
290
     0
  0
SCALE
  5
18AF
102
{ACAD_REACTORS
330
1893
102
}
330
1893
100
AcDbScale
 70
     0
300
3/4" = 1'-0"
140
0.75
141
12.0
290
     0
  0
SCALE
  5
18B0
102
{ACAD_REACTORS
330
1893
102
}
330
1893
100
AcDbScale
 70
     0
300
1" = 1'-0"
140
1.0
141
12.0
290
     0
  0
SCALE
  5
18B1
102
{ACAD_REACTORS
330
1893
102
}
330
1893
100
AcDbScale
 70
     0
300
1-1/2" = 1'-0"
140
1.5
141
12.0
290
     0
  0
SCALE
  5
18B2
102
{ACAD_REACTORS
330
1893
102
}
330
1893
100
AcDbScale
 70
     0
300
3" = 1'-0"
140
3.0
141
12.0
290
     0
  0
SCALE
  5
18B3
102
{ACAD_REACTORS
330
1893
102
}
330
1893
100
AcDbScale
 70
     0
300
6" = 1'-0"
140
6.0
141
12.0
290
     0
  0
SCALE
  5
18B4
102
{ACAD_REACTORS
330
1893
102
}
330
1893
100
AcDbScale
 70
     0
300
1'-0" = 1'-0"
140
12.0
141
12.0
290
     0
  0
TABLESTYLE
  5
15EB
102
{ACAD_XDICTIONARY
360
1925
102
}
102
{ACAD_REACTORS
330
15EA
102
}
330
15EA
100
AcDbTableStyle
  3
Standard
 70
     0
 71
     0
 40
0.06
 41
0.06
280
     0
281
     0
  7
STANDARD
140
0.18
170
     2
 62
     0
 63
     7
283
     0
274
    -2
284
     1
 64
     0
275
    -2
285
     1
 65
     0
276
    -2
286
     1
 66
     0
277
    -2
287
     1
 67
     0
278
    -2
288
     1
 68
     0
279
    -2
289
     1
 69
     0
  7
STANDARD
140
0.25
170
     5
 62
     0
 63
     7
283
     0
274
    -2
284
     1
 64
     0
275
    -2
285
     1
 65
     0
276
    -2
286
     1
 66
     0
277
    -2
287
     1
 67
     0
278
    -2
288
     1
 68
     0
279
    -2
289
     1
 69
     0
  7
STANDARD
140
0.18
170
     5
 62
     0
 63
     7
283
     0
274
    -2
284
     1
 64
     0
275
    -2
285
     1
 65
     0
276
    -2
286
     1
 66
     0
277
    -2
287
     1
 67
     0
278
    -2
288
     1
 68
     0
279
    -2
289
     1
 69
     0
  0
VISUALSTYLE
  5
1888
102
{ACAD_REACTORS
330
1882
102
}
330
1882
100
AcDbVisualStyle
  2
2dWireframe
 70
     4
 71
     0
 72
     2
 73
     0
 90
        0
 40
-0.6
 41
-30.0
 62
     5
 63
     7
 74
     1
 91
        4
 64
     7
 65
   257
 75
     1
175
     1
 42
1.0
 92
        0
 66
   257
 43
1.0
 76
     1
 77
     6
 78
     2
 67
     7
 79
     5
170
     0
171
     0
290
     0
174
     0
 93
        1
 44
0.0
173
     0
291
     0
 45
0.0
1001
ACAD
1000
AcDbSavedByObjectVersion
1070
     0
1000
AcDbSavedByObjectVersion
1070
     0
1000
AcDbSavedByObjectVersion
1070
     0
1000
AcDbSavedByObjectVersion
1070
     0
1000
AcDbSavedByObjectVersion
1070
     0
1000
AcDbSavedByObjectVersion
1070
     0
1000
AcDbSavedByObjectVersion
1070
     0
1000
AcDbSavedByObjectVersion
1070
     0
1000
AcDbSavedByObjectVersion
1070
     0
  0
VISUALSTYLE
  5
188A
102
{ACAD_REACTORS
330
1882
102
}
330
1882
100
AcDbVisualStyle
  2
3D Hidden
 70
     6
 71
     1
 72
     2
 73
     2
 90
        0
 40
-0.6
 41
-30.0
 62
     5
 63
     7
 74
     2
 91
        2
 64
     7
 65
   257
 75
     2
175
     1
 42
40.0
 92
        0
 66
   257
 43
1.0
 76
     1
 77
     6
 78
     2
 67
     7
 79
     3
170
     0
171
     0
290
     0
174
     0
 93
        1
 44
0.0
173
     0
291
     0
 45
0.0
1001
ACAD
1000
AcDbSavedByObjectVersion
1070
     0
1000
AcDbSavedByObjectVersion
1070
     0
1000
AcDbSavedByObjectVersion
1070
     0
1000
AcDbSavedByObjectVersion
1070
     0
1000
AcDbSavedByObjectVersion
1070
     0
1000
AcDbSavedByObjectVersion
1070
     0
1000
AcDbSavedByObjectVersion
1070
     0
1000
AcDbSavedByObjectVersion
1070
     0
1000
AcDbSavedByObjectVersion
1070
     0
  0
VISUALSTYLE
  5
1889
102
{ACAD_REACTORS
330
1882
102
}
330
1882
100
AcDbVisualStyle
  2
3dWireframe
 70
     5
 71
     0
 72
     2
 73
     0
 90
        0
 40
-0.6
 41
-30.0
 62
     5
 63
     7
 74
     1
 91
        4
 64
     7
 65
   257
 75
     1
175
     1
 42
1.0
 92
        0
 66
   257
 43
1.0
 76
     1
 77
     6
 78
     2
 67
     7
 79
     5
170
     0
171
     0
290
     0
174
     0
 93
        1
 44
0.0
173
     0
291
     0
 45
0.0
1001
ACAD
1000
AcDbSavedByObjectVersion
1070
     0
1000
AcDbSavedByObjectVersion
1070
     0
1000
AcDbSavedByObjectVersion
1070
     0
1000
AcDbSavedByObjectVersion
1070
     0
1000
AcDbSavedByObjectVersion
1070
     0
1000
AcDbSavedByObjectVersion
1070
     0
1000
AcDbSavedByObjectVersion
1070
     0
1000
AcDbSavedByObjectVersion
1070
     0
1000
AcDbSavedByObjectVersion
1070
     0
  0
VISUALSTYLE
  5
1887
102
{ACAD_REACTORS
330
1882
102
}
330
1882
100
AcDbVisualStyle
  2
Basic
 70
     7
 71
     1
 72
     0
 73
     1
 90
        0
 40
-0.6
 41
-30.0
 62
     5
 63
     7
 74
     0
 91
        4
 64
     7
 65
   257
 75
     1
175
     1
 42
1.0
 92
        8
 66
     7
 43
1.0
 76
     1
 77
     6
 78
     2
 67
     7
 79
     5
170
     0
171
     0
290
     0
174
     0
 93
        1
 44
0.0
173
     0
291
     1
 45
0.0
1001
ACAD
1000
AcDbSavedByObjectVersion
1070
     0
1000
AcDbSavedByObjectVersion
1070
     0
1000
AcDbSavedByObjectVersion
1070
     0
1000
AcDbSavedByObjectVersion
1070
     0
1000
AcDbSavedByObjectVersion
1070
     0
1000
AcDbSavedByObjectVersion
1070
     0
1000
AcDbSavedByObjectVersion
1070
     0
1000
AcDbSavedByObjectVersion
1070
     0
1000
AcDbSavedByObjectVersion
1070
     0
  0
VISUALSTYLE
  5
188E
102
{ACAD_REACTORS
330
1882
102
}
330
1882
100
AcDbVisualStyle
  2
Brighten
 70
    12
 71
     2
 72
     2
 73
     0
 90
        0
 40
-0.6
 41
-30.0
 62
     5
 63
     7
 74
     1
 91
        4
 64
     7
 65
   257
 75
     1
175
     1
 42
1.0
 92
        8
 66
     7
 43
1.0
 76
     1
 77
     6
 78
     2
 67
     7
 79
     5
170
     0
171
     0
290
     0
174
     0
 93
        1
 44
50.0
173
     0
291
     1
 45
0.0
1001
ACAD
1000
AcDbSavedByObjectVersion
1070
     0
1000
AcDbSavedByObjectVersion
1070
     0
1000
AcDbSavedByObjectVersion
1070
     0
1000
AcDbSavedByObjectVersion
1070
     0
1000
AcDbSavedByObjectVersion
1070
     0
1000
AcDbSavedByObjectVersion
1070
     0
1000
AcDbSavedByObjectVersion
1070
     0
1000
AcDbSavedByObjectVersion
1070
     0
1000
AcDbSavedByObjectVersion
1070
     0
  0
VISUALSTYLE
  5
1892
102
{ACAD_REACTORS
330
1882
102
}
330
1882
100
AcDbVisualStyle
  2
ColorChange
 70
    16
 71
     2
 72
     2
 73
     3
 90
        0
 40
-0.6
 41
-30.0
 62
     5
 63
     8
 74
     1
 91
        4
 64
     7
 65
   257
 75
     1
175
     1
 42
1.0
 92
        8
 66
     8
 43
1.0
 76
     1
 77
     6
 78
     2
 67
     7
 79
     5
170
     0
171
     0
290
     0
174
     0
 93
        1
 44
0.0
173
     0
291
     1
 45
0.0
1001
ACAD
1000
AcDbSavedByObjectVersion
1070
     0
1000
AcDbSavedByObjectVersion
1070
     0
1000
AcDbSavedByObjectVersion
1070
     0
1000
AcDbSavedByObjectVersion
1070
     0
1000
AcDbSavedByObjectVersion
1070
     0
1000
AcDbSavedByObjectVersion
1070
     0
1000
AcDbSavedByObjectVersion
1070
     0
1000
AcDbSavedByObjectVersion
1070
     0
1000
AcDbSavedByObjectVersion
1070
     0
  0
VISUALSTYLE
  5
188B
102
{ACAD_REACTORS
330
1882
102
}
330
1882
100
AcDbVisualStyle
  2
Conceptual
 70
     9
 71
     3
 72
     2
 73
     0
 90
        0
 40
-0.6
 41
-30.0
 62
     5
 63
     7
 74
     2
 91
        2
 64
     7
 65
   257
 75
     1
175
     1
 42
40.0
 92
        8
 66
     7
 43
1.0
 76
     1
 77
     6
 78
     2
 67
     7
 79
     3
170
     0
171
     0
290
     0
174
     0
 93
        1
 44
0.0
173
     0
291
     0
 45
0.0
1001
ACAD
1000
AcDbSavedByObjectVersion
1070
     0
1000
AcDbSavedByObjectVersion
1070
     0
1000
AcDbSavedByObjectVersion
1070
     0
1000
AcDbSavedByObjectVersion
1070
     0
1000
AcDbSavedByObjectVersion
1070
     0
1000
AcDbSavedByObjectVersion
1070
     0
1000
AcDbSavedByObjectVersion
1070
     0
1000
AcDbSavedByObjectVersion
1070
     0
1000
AcDbSavedByObjectVersion
1070
     0
  0
VISUALSTYLE
  5
188D
102
{ACAD_REACTORS
330
1882
102
}
330
1882
100
AcDbVisualStyle
  2
Dim
 70
    11
 71
     2
 72
     2
 73
     0
 90
        0
 40
-0.6
 41
-30.0
 62
     5
 63
     7
 74
     1
 91
        4
 64
     7
 65
   257
 75
     1
175
     1
 42
1.0
 92
        8
 66
     7
 43
1.0
 76
     1
 77
     6
 78
     2
 67
     7
 79
     5
170
     0
171
     0
290
     0
174
     0
 93
        1
 44
-50.0
173
     0
291
     1
 45
0.0
1001
ACAD
1000
AcDbSavedByObjectVersion
1070
     0
1000
AcDbSavedByObjectVersion
1070
     0
1000
AcDbSavedByObjectVersion
1070
     0
1000
AcDbSavedByObjectVersion
1070
     0
1000
AcDbSavedByObjectVersion
1070
     0
1000
AcDbSavedByObjectVersion
1070
     0
1000
AcDbSavedByObjectVersion
1070
     0
1000
AcDbSavedByObjectVersion
1070
     0
1000
AcDbSavedByObjectVersion
1070
     0
  0
VISUALSTYLE
  5
1891
102
{ACAD_REACTORS
330
1882
102
}
330
1882
100
AcDbVisualStyle
  2
Facepattern
 70
    15
 71
     2
 72
     2
 73
     0
 90
        0
 40
-0.6
 41
-30.0
 62
     5
 63
     7
 74
     1
 91
        4
 64
     7
 65
   257
 75
     1
175
     1
 42
1.0
 92
        8
 66
     7
 43
1.0
 76
     1
 77
     6
 78
     2
 67
     7
 79
     5
170
     0
171
     0
290
     0
174
     0
 93
        1
 44
0.0
173
     0
291
     1
 45
0.0
1001
ACAD
1000
AcDbSavedByObjectVersion
1070
     0
1000
AcDbSavedByObjectVersion
1070
     0
1000
AcDbSavedByObjectVersion
1070
     0
1000
AcDbSavedByObjectVersion
1070
     0
1000
AcDbSavedByObjectVersion
1070
     0
1000
AcDbSavedByObjectVersion
1070
     0
1000
AcDbSavedByObjectVersion
1070
     0
1000
AcDbSavedByObjectVersion
1070
     0
1000
AcDbSavedByObjectVersion
1070
     0
  0
VISUALSTYLE
  5
1883
102
{ACAD_REACTORS
330
1882
102
}
330
1882
100
AcDbVisualStyle
  2
Flat
 70
     0
 71
     2
 72
     1
 73
     1
 90
        2
 40
-0.6
 41
30.0
 62
     5
 63
     7
 74
     0
 91
        4
 64
     7
 65
   257
 75
     1
175
     1
 42
1.0
 92
        8
 66
     7
 43
1.0
 76
     1
 77
     6
 78
     2
 67
     7
 79
     5
170
     0
171
     0
290
     0
174
     0
 93
       13
 44
0.0
173
     0
291
     1
 45
0.0
1001
ACAD
1000
AcDbSavedByObjectVersion
1070
     0
1000
AcDbSavedByObjectVersion
1070
     0
1000
AcDbSavedByObjectVersion
1070
     0
1000
AcDbSavedByObjectVersion
1070
     0
1000
AcDbSavedByObjectVersion
1070
     0
1000
AcDbSavedByObjectVersion
1070
     0
1000
AcDbSavedByObjectVersion
1070
     0
1000
AcDbSavedByObjectVersion
1070
     0
1000
AcDbSavedByObjectVersion
1070
     0
  0
VISUALSTYLE
  5
1884
102
{ACAD_REACTORS
330
1882
102
}
330
1882
100
AcDbVisualStyle
  2
FlatWithEdges
 70
     1
 71
     2
 72
     1
 73
     1
 90
        2
 40
-0.6
 41
30.0
 62
     5
 63
     7
 74
     1
 91
        4
 64
     7
 65
   257
 75
     1
175
     1
 42
1.0
 92
        0
 66
   257
 43
1.0
 76
     1
 77
     6
 78
     2
 67
     7
 79
     5
170
     0
171
     0
290
     0
174
     0
 93
       13
 44
0.0
173
     0
291
     1
 45
0.0
1001
ACAD
1000
AcDbSavedByObjectVersion
1070
     0
1000
AcDbSavedByObjectVersion
1070
     0
1000
AcDbSavedByObjectVersion
1070
     0
1000
AcDbSavedByObjectVersion
1070
     0
1000
AcDbSavedByObjectVersion
1070
     0
1000
AcDbSavedByObjectVersion
1070
     0
1000
AcDbSavedByObjectVersion
1070
     0
1000
AcDbSavedByObjectVersion
1070
     0
1000
AcDbSavedByObjectVersion
1070
     0
  0
VISUALSTYLE
  5
1885
102
{ACAD_REACTORS
330
1882
102
}
330
1882
100
AcDbVisualStyle
  2
Gouraud
 70
     2
 71
     2
 72
     2
 73
     1
 90
        2
 40
-0.6
 41
30.0
 62
     5
 63
     7
 74
     0
 91
        4
 64
     7
 65
   257
 75
     1
175
     1
 42
1.0
 92
        0
 66
     7
 43
1.0
 76
     1
 77
     6
 78
     2
 67
     7
 79
     5
170
     0
171
     0
290
     0
174
     0
 93
       13
 44
0.0
173
     0
291
     1
 45
0.0
1001
ACAD
1000
AcDbSavedByObjectVersion
1070
     0
1000
AcDbSavedByObjectVersion
1070
     0
1000
AcDbSavedByObjectVersion
1070
     0
1000
AcDbSavedByObjectVersion
1070
     0
1000
AcDbSavedByObjectVersion
1070
     0
1000
AcDbSavedByObjectVersion
1070
     0
1000
AcDbSavedByObjectVersion
1070
     0
1000
AcDbSavedByObjectVersion
1070
     0
1000
AcDbSavedByObjectVersion
1070
     0
  0
VISUALSTYLE
  5
1886
102
{ACAD_REACTORS
330
1882
102
}
330
1882
100
AcDbVisualStyle
  2
GouraudWithEdges
 70
     3
 71
     2
 72
     2
 73
     1
 90
        2
 40
-0.6
 41
30.0
 62
     5
 63
     7
 74
     1
 91
        4
 64
     7
 65
   257
 75
     1
175
     1
 42
1.0
 92
        0
 66
   257
 43
1.0
 76
     1
 77
     6
 78
     2
 67
     7
 79
     5
170
     0
171
     0
290
     0
174
     0
 93
       13
 44
0.0
173
     0
291
     1
 45
0.0
1001
ACAD
1000
AcDbSavedByObjectVersion
1070
     0
1000
AcDbSavedByObjectVersion
1070
     0
1000
AcDbSavedByObjectVersion
1070
     0
1000
AcDbSavedByObjectVersion
1070
     0
1000
AcDbSavedByObjectVersion
1070
     0
1000
AcDbSavedByObjectVersion
1070
     0
1000
AcDbSavedByObjectVersion
1070
     0
1000
AcDbSavedByObjectVersion
1070
     0
1000
AcDbSavedByObjectVersion
1070
     0
  0
VISUALSTYLE
  5
1890
102
{ACAD_REACTORS
330
1882
102
}
330
1882
100
AcDbVisualStyle
  2
Linepattern
 70
    14
 71
     2
 72
     2
 73
     0
 90
        0
 40
-0.6
 41
-30.0
 62
     5
 63
     7
 74
     1
 91
        4
 64
     7
 65
   257
 75
     7
175
     7
 42
1.0
 92
        8
 66
     7
 43
1.0
 76
     1
 77
     6
 78
     2
 67
     7
 79
     5
170
     0
171
     0
290
     0
174
     0
 93
        1
 44
0.0
173
     0
291
     1
 45
0.0
1001
ACAD
1000
AcDbSavedByObjectVersion
1070
     0
1000
AcDbSavedByObjectVersion
1070
     0
1000
AcDbSavedByObjectVersion
1070
     0
1000
AcDbSavedByObjectVersion
1070
     0
1000
AcDbSavedByObjectVersion
1070
     0
1000
AcDbSavedByObjectVersion
1070
     0
1000
AcDbSavedByObjectVersion
1070
     0
1000
AcDbSavedByObjectVersion
1070
     0
1000
AcDbSavedByObjectVersion
1070
     0
  0
VISUALSTYLE
  5
188C
102
{ACAD_REACTORS
330
1882
102
}
330
1882
100
AcDbVisualStyle
  2
Realistic
 70
     8
 71
     2
 72
     2
 73
     0
 90
        0
 40
-0.6
 41
-30.0
 62
     5
 63
     7
 74
     1
 91
        0
 64
     7
 65
   257
 75
     1
175
     1
 42
1.0
 92
        8
 66
     8
 43
1.0
 76
     1
 77
     6
 78
     2
 67
     7
 79
     5
170
     0
171
     0
290
     0
174
     0
 93
       13
 44
0.0
173
     0
291
     0
 45
0.0
1001
ACAD
1000
AcDbSavedByObjectVersion
1070
     0
1000
AcDbSavedByObjectVersion
1070
     0
1000
AcDbSavedByObjectVersion
1070
     0
1000
AcDbSavedByObjectVersion
1070
     0
1000
AcDbSavedByObjectVersion
1070
     0
1000
AcDbSavedByObjectVersion
1070
     0
1000
AcDbSavedByObjectVersion
1070
     0
1000
AcDbSavedByObjectVersion
1070
     0
1000
AcDbSavedByObjectVersion
1070
     0
  0
VISUALSTYLE
  5
188F
102
{ACAD_REACTORS
330
1882
102
}
330
1882
100
AcDbVisualStyle
  2
Thicken
 70
    13
 71
     2
 72
     2
 73
     0
 90
        0
 40
-0.6
 41
-30.0
 62
     5
 63
     7
 74
     1
 91
        4
 64
     7
 65
   257
 75
     1
175
     1
 42
1.0
 92
       12
 66
     7
 43
1.0
 76
     1
 77
     6
 78
     2
 67
     7
 79
     5
170
     0
171
     0
290
     0
174
     0
 93
        1
 44
0.0
173
     0
291
     1
 45
0.0
1001
ACAD
1000
AcDbSavedByObjectVersion
1070
     0
1000
AcDbSavedByObjectVersion
1070
     0
1000
AcDbSavedByObjectVersion
1070
     0
1000
AcDbSavedByObjectVersion
1070
     0
1000
AcDbSavedByObjectVersion
1070
     0
1000
AcDbSavedByObjectVersion
1070
     0
1000
AcDbSavedByObjectVersion
1070
     0
1000
AcDbSavedByObjectVersion
1070
     0
1000
AcDbSavedByObjectVersion
1070
     0
  0
DICTIONARYVAR
  5
1923
102
{ACAD_REACTORS
330
B87
102
}
330
B87
100
DictionaryVariables
280
     0
  1
1:1
  0
DICTIONARYVAR
  5
1922
102
{ACAD_REACTORS
330
B87
102
}
330
B87
100
DictionaryVariables
280
     0
  1
STANDARD
  0
DICTIONARYVAR
  5
1714
102
{ACAD_REACTORS
330
B87
102
}
330
B87
100
DictionaryVariables
280
     0
  1
STANDARD
  0
DICTIONARYVAR
  5
B88
102
{ACAD_REACTORS
330
B87
102
}
330
B87
100
DictionaryVariables
280
     0
  1
1
  0
DICTIONARYVAR
  5
1715
102
{ACAD_REACTORS
330
B87
102
}
330
B87
100
DictionaryVariables
280
     0
  1
1
  0
DICTIONARYVAR
  5
1716
102
{ACAD_REACTORS
330
B87
102
}
330
B87
100
DictionaryVariables
280
     0
  1

  0
DICTIONARYVAR
  5
1924
102
{ACAD_REACTORS
330
B87
102
}
330
B87
100
DictionaryVariables
280
     0
  1
127
  0
DICTIONARY
  5
16BC
102
{ACAD_REACTORS
330
16B0
102
}
330
16B0
100
AcDbDictionary
281
     1
  0
XRECORD
  5
16DC
102
{ACAD_REACTORS
330
16B0
102
}
330
16B0
100
AcDbXrecord
280
     1
 90
-1023410169
  0
DICTIONARY
  5
15F0
102
{ACAD_REACTORS
330
15EF
102
}
330
15EF
100
AcDbDictionary
281
     1
  3
DWGSETTINGS
350
2689
  3
TRANSSETTINGS
350
268A
  0
ACAMGFILTERDAT
  5
1723
102
{ACAD_REACTORS
330
171E
102
}
330
171E
100
AcAmgFilterDat
 70
    15
  1
DIMENSION,AMDT_*_DIM
  2
*
  3
*
  4
*
  5
*
290
     1
1001
ACAD
1000
AcRTDxfName
1000
ACAMGFILTERDAT
  0
ACAMGFILTERDAT
  5
1722
102
{ACAD_REACTORS
330
171E
102
}
330
171E
100
AcAmgFilterDat
 70
    15
  1
*
  2
AM_FEA-AM_*
  3
*
  4
*
  5
*
290
     1
1001
ACAD
1000
AcRTDxfName
1000
ACAMGFILTERDAT
  0
ACAMGFILTERDAT
  5
171F
102
{ACAD_REACTORS
330
171E
102
}
330
171E
100
AcAmgFilterDat
 70
    15
  1
HATCH
  2
*
  3
*
  4
*
  5
*
290
     1
1001
ACAD
1000
AcRTDxfName
1000
ACAMGFILTERDAT
  0
ACAMGFILTERDAT
  5
1720
102
{ACAD_REACTORS
330
171E
102
}
330
171E
100
AcAmgFilterDat
 70
    15
  1
LINE
  2
8,8N,*-8,*-8N,AM_8,AM_8N,*-AM_8,*-AM_8N
  3
*
  4
*
  5
INSERT,STDPART2D
290
     1
1001
ACAD
1000
AcRTDxfName
1000
ACAMGFILTERDAT
  0
ACAMGFILTERDAT
  5
1724
102
{ACAD_REACTORS
330
171E
102
}
330
171E
100
AcAmgFilterDat
 70
    15
  1
ARC
  2
AM_5
  3
*
  4
2
  5
INSERT
290
     0
1001
ACAD
1000
AcRTDxfName
1000
ACAMGFILTERDAT
  0
ACAMGFILTERDAT
  5
1721
102
{ACAD_REACTORS
330
171E
102
}
330
171E
100
AcAmgFilterDat
 70
    15
  1
ACMFCFRAME,ACMDATUMTARGET,ACMDATUMID,ACMWELDSYM,ACMSURFSYM,ACMFEATID,ACMPARTREF,ACMBALLOON,AMDTEDGESYM,AMGSCREWCALCTABLE
  2
*
  3
*
  4
*
  5
*
290
     1
1001
ACAD
1000
AcRTDxfName
1000
ACAMGFILTERDAT
  0
LAYER_INDEX
  5
1707
102
{ACAD_REACTORS
330
1706
102
}
330
1706
100
AcDbIndex
 40
2456703.648094178
100
AcDbLayerIndex
  8
0
360
1708
 90
        0
  8
OUTLINE
360
1709
 90
      165
  8
SIZE
360
170A
 90
        6
  8
BASIS
360
170B
 90
        1
  8
DETAIL
360
170C
 90
      159
  8
ARRANGE
360
170D
 90
        3
  8
DEFPOINTS
360
170E
 90
        0
  8
ETC
360
170F
 90
        1
  8
FIX
360
1710
 90
        0
  8
NOTE
360
1711
 90
        6
  8
SERVICESPACE
360
1712
 90
        0
  8
SYMBOLLINE
360
1713
 90
        0
  0
DICTIONARY
  5
1873
330
1872
100
AcDbDictionary
280
     1
281
     1
  3
ACAD_XREC_ROUNDTRIP
360
1931
  3
BUMPTILE
360
1875
  3
DIFFUSETILE
360
1874
  3
OPACITYTILE
360
1878
  3
REFLECTIONTILE
360
1877
  3
REFRACTIONTILE
360
1879
  3
SPECULARTILE
360
1876
  0
DICTIONARY
  5
186B
330
186A
100
AcDbDictionary
280
     1
281
     1
  3
ACAD_XREC_ROUNDTRIP
360
1930
  3
BUMPTILE
360
186D
  3
DIFFUSETILE
360
186C
  3
OPACITYTILE
360
1870
  3
REFLECTIONTILE
360
186F
  3
REFRACTIONTILE
360
1871
  3
SPECULARTILE
360
186E
  0
DICTIONARY
  5
187B
330
187A
100
AcDbDictionary
280
     1
281
     1
  3
ACAD_XREC_ROUNDTRIP
360
1932
  3
BUMPTILE
360
187D
  3
DIFFUSETILE
360
187C
  3
OPACITYTILE
360
1880
  3
REFLECTIONTILE
360
187F
  3
REFRACTIONTILE
360
1881
  3
SPECULARTILE
360
187E
  0
DICTIONARY
  5
1925
330
15EB
100
AcDbDictionary
280
     1
281
     1
  3
ACAD_ROUNDTRIP_2008_TABLESTYLE_CELLSTYLEMAP
360
275F
  3
ACAD_XREC_ROUNDTRIP
360
2765
  0
IDBUFFER
  5
1708
330
0
100
AcDbIdBuffer
  0
IDBUFFER
  5
1709
330
0
100
AcDbIdBuffer
330
953
330
954
330
955
330
956
330
957
330
958
330
2599
330
259A
330
259B
330
259C
330
259D
330
259E
330
259F
330
25A0
330
25A1
330
25A2
330
25A3
330
25A4
330
25A5
330
25A6
330
25A7
330
25A8
330
25A9
330
25AA
330
25AB
330
25AC
330
25AD
330
25AE
330
25AF
330
25B0
330
25B1
330
25B2
330
25B3
330
25B4
330
25B5
330
25B6
330
25B7
330
25B8
330
25B9
330
25BA
330
25BB
330
25BC
330
25BD
330
25BE
330
25BF
330
25C0
330
25C1
330
25C2
330
25C3
330
25C4
330
25C5
330
25C6
330
25C7
330
25C8
330
25C9
330
25CA
330
25CB
330
25CC
330
25CD
330
25CE
330
25CF
330
25D0
330
25D1
330
25D2
330
25D3
330
25D4
330
25D5
330
25D6
330
25D7
330
25D8
330
25D9
330
25DA
330
25DB
330
25DC
330
25DD
330
25DE
330
25DF
330
25E0
330
25E1
330
25E2
330
25E3
330
25E4
330
25E5
330
25E6
330
25E7
330
25E8
330
25E9
330
25EA
330
25EB
330
25EC
330
25ED
330
25EE
330
25EF
330
25F0
330
25F1
330
25F2
330
25F3
330
25F4
330
25F5
330
25F6
330
25F7
330
25F8
330
25F9
330
25FA
330
25FB
330
25FC
330
25FD
330
25FE
330
25FF
330
2600
330
2601
330
2602
330
2603
330
2604
330
2605
330
2606
330
2607
330
2608
330
2609
330
260A
330
260B
330
260C
330
260D
330
260E
330
260F
330
2610
330
2611
330
2612
330
2613
330
2614
330
2615
330
2616
330
2617
330
2618
330
2619
330
261A
330
261B
330
261C
330
261D
330
261E
330
261F
330
2620
330
2621
330
2622
330
2623
330
2624
330
2625
330
2626
330
2627
330
2628
330
2629
330
262A
330
262B
330
262C
330
262D
330
262E
330
262F
330
2630
330
2631
330
2632
330
2633
330
2634
330
2635
330
2636
330
2637
  0
IDBUFFER
  5
170A
330
0
100
AcDbIdBuffer
330
2638
330
2639
330
263E
330
263F
330
2640
330
2641
  0
IDBUFFER
  5
170B
330
0
100
AcDbIdBuffer
330
2644
  0
IDBUFFER
  5
170C
330
0
100
AcDbIdBuffer
330
24FA
330
24FB
330
24FC
330
24FD
330
24FE
330
24FF
330
2500
330
2501
330
2502
330
2503
330
2504
330
2505
330
2506
330
2507
330
2508
330
2509
330
250A
330
250B
330
250C
330
250D
330
250E
330
250F
330
2510
330
2511
330
2512
330
2513
330
2514
330
2515
330
2516
330
2517
330
2518
330
2519
330
251A
330
251B
330
251C
330
251D
330
251E
330
251F
330
2520
330
2521
330
2522
330
2523
330
2524
330
2525
330
2526
330
2527
330
2528
330
2529
330
252A
330
252B
330
252C
330
252D
330
252E
330
252F
330
2530
330
2531
330
2532
330
2533
330
2534
330
2535
330
2536
330
2537
330
2538
330
2539
330
253A
330
253B
330
253C
330
253D
330
253E
330
253F
330
2540
330
2541
330
2542
330
2543
330
2544
330
2545
330
2546
330
2547
330
2548
330
2549
330
254A
330
254B
330
254C
330
254D
330
254E
330
254F
330
2550
330
2551
330
2552
330
2553
330
2554
330
2555
330
2556
330
2557
330
2558
330
2559
330
255A
330
255B
330
255C
330
255D
330
255E
330
255F
330
2560
330
2561
330
2562
330
2563
330
2564
330
2565
330
2566
330
2567
330
2568
330
2569
330
256A
330
256B
330
256C
330
256D
330
256E
330
256F
330
2570
330
2571
330
2572
330
2573
330
2574
330
2575
330
2576
330
2577
330
2578
330
2579
330
257A
330
257B
330
257C
330
257D
330
257E
330
257F
330
2580
330
2581
330
2582
330
2583
330
2584
330
2585
330
2586
330
2587
330
2588
330
2589
330
258A
330
258B
330
258C
330
258D
330
258E
330
258F
330
2590
330
2591
330
2592
330
2593
330
2594
330
2595
330
2596
330
2597
330
2598
  0
IDBUFFER
  5
170D
330
0
100
AcDbIdBuffer
330
2645
330
2646
330
2647
  0
IDBUFFER
  5
170E
330
0
100
AcDbIdBuffer
  0
IDBUFFER
  5
170F
330
0
100
AcDbIdBuffer
330
2648
  0
IDBUFFER
  5
1710
330
0
100
AcDbIdBuffer
  0
IDBUFFER
  5
1711
330
0
100
AcDbIdBuffer
330
263A
330
263B
330
263C
330
263D
330
2642
330
2643
  0
IDBUFFER
  5
1712
330
0
100
AcDbIdBuffer
  0
IDBUFFER
  5
1713
330
0
100
AcDbIdBuffer
  0
XRECORD
  5
1931
102
{ACAD_REACTORS
330
1873
102
}
330
1873
100
AcDbXrecord
280
     1
102
MATERIAL
148
0.0
149
0.0
149
0.0
 93
        0
 94
      127
282
     0
 72
     0
 77
     0
171
     0
175
     0
179
     0
273
     0
  0
XRECORD
  5
1875
102
{ACAD_REACTORS
330
1873
102
}
330
1873
100
AcDbXrecord
280
     1
270
     1
271
     1
  0
XRECORD
  5
1874
102
{ACAD_REACTORS
330
1873
102
}
330
1873
100
AcDbXrecord
280
     1
270
     1
271
     1
  0
XRECORD
  5
1878
102
{ACAD_REACTORS
330
1873
102
}
330
1873
100
AcDbXrecord
280
     1
270
     1
271
     1
  0
XRECORD
  5
1877
102
{ACAD_REACTORS
330
1873
102
}
330
1873
100
AcDbXrecord
280
     1
270
     1
271
     1
  0
XRECORD
  5
1879
102
{ACAD_REACTORS
330
1873
102
}
330
1873
100
AcDbXrecord
280
     1
270
     1
271
     1
  0
XRECORD
  5
1876
102
{ACAD_REACTORS
330
1873
102
}
330
1873
100
AcDbXrecord
280
     1
270
     1
271
     1
  0
XRECORD
  5
1930
102
{ACAD_REACTORS
330
186B
102
}
330
186B
100
AcDbXrecord
280
     1
102
MATERIAL
148
0.0
149
0.0
149
0.0
 93
        0
 94
      127
282
     0
 72
     0
 77
     0
171
     0
175
     0
179
     0
273
     0
  0
XRECORD
  5
186D
102
{ACAD_REACTORS
330
186B
102
}
330
186B
100
AcDbXrecord
280
     1
270
     1
271
     1
  0
XRECORD
  5
186C
102
{ACAD_REACTORS
330
186B
102
}
330
186B
100
AcDbXrecord
280
     1
270
     1
271
     1
  0
XRECORD
  5
1870
102
{ACAD_REACTORS
330
186B
102
}
330
186B
100
AcDbXrecord
280
     1
270
     1
271
     1
  0
XRECORD
  5
186F
102
{ACAD_REACTORS
330
186B
102
}
330
186B
100
AcDbXrecord
280
     1
270
     1
271
     1
  0
XRECORD
  5
1871
102
{ACAD_REACTORS
330
186B
102
}
330
186B
100
AcDbXrecord
280
     1
270
     1
271
     1
  0
XRECORD
  5
186E
102
{ACAD_REACTORS
330
186B
102
}
330
186B
100
AcDbXrecord
280
     1
270
     1
271
     1
  0
XRECORD
  5
1932
102
{ACAD_REACTORS
330
187B
102
}
330
187B
100
AcDbXrecord
280
     1
102
MATERIAL
148
0.0
149
0.0
149
0.0
 93
        0
 94
      127
282
     0
 72
     0
 77
     0
171
     0
175
     0
179
     0
273
     0
  0
XRECORD
  5
187D
102
{ACAD_REACTORS
330
187B
102
}
330
187B
100
AcDbXrecord
280
     1
270
     1
271
     1
  0
XRECORD
  5
187C
102
{ACAD_REACTORS
330
187B
102
}
330
187B
100
AcDbXrecord
280
     1
270
     1
271
     1
  0
XRECORD
  5
1880
102
{ACAD_REACTORS
330
187B
102
}
330
187B
100
AcDbXrecord
280
     1
270
     1
271
     1
  0
XRECORD
  5
187F
102
{ACAD_REACTORS
330
187B
102
}
330
187B
100
AcDbXrecord
280
     1
270
     1
271
     1
  0
XRECORD
  5
1881
102
{ACAD_REACTORS
330
187B
102
}
330
187B
100
AcDbXrecord
280
     1
270
     1
271
     1
  0
XRECORD
  5
187E
102
{ACAD_REACTORS
330
187B
102
}
330
187B
100
AcDbXrecord
280
     1
270
     1
271
     1
  0
CELLSTYLEMAP
  5
275F
102
{ACAD_REACTORS
330
1925
102
}
330
1925
100
AcDbCellStyleMap
 90
        3
300
CELLSTYLE
  1
TABLEFORMAT_BEGIN
 90
        5
170
     1
 91
        0
 92
    32768
 62
   257
 93
        1
300
CONTENTFORMAT
  1
CONTENTFORMAT_BEGIN
 90
        0
 91
        0
 92
        4
 93
        0
300

 40
0.0
140
1.0
 94
        5
 62
     0
340
852
144
0.25
309
CONTENTFORMAT_END
171
     1
301
MARGIN
  1
CELLMARGIN_BEGIN
 40
0.06
 40
0.06
 40
0.06
 40
0.06
 40
0.18
 40
0.18
309
CELLMARGIN_END
 94
        6
 95
        1
302
GRIDFORMAT
  1
GRIDFORMAT_BEGIN
 90
        0
 91
        1
 62
     0
 92
       -2
340
0
 93
        0
 40
0.045
309
GRIDFORMAT_END
 95
        2
302
GRIDFORMAT
  1
GRIDFORMAT_BEGIN
 90
        0
 91
        1
 62
     0
 92
       -2
340
0
 93
        0
 40
0.045
309
GRIDFORMAT_END
 95
        4
302
GRIDFORMAT
  1
GRIDFORMAT_BEGIN
 90
        0
 91
        1
 62
     0
 92
       -2
340
0
 93
        0
 40
0.045
309
GRIDFORMAT_END
 95
        8
302
GRIDFORMAT
  1
GRIDFORMAT_BEGIN
 90
        0
 91
        1
 62
     0
 92
       -2
340
0
 93
        0
 40
0.045
309
GRIDFORMAT_END
 95
       16
302
GRIDFORMAT
  1
GRIDFORMAT_BEGIN
 90
        0
 91
        1
 62
     0
 92
       -2
340
0
 93
        0
 40
0.045
309
GRIDFORMAT_END
 95
       32
302
GRIDFORMAT
  1
GRIDFORMAT_BEGIN
 90
        0
 91
        1
 62
     0
 92
       -2
340
0
 93
        0
 40
0.045
309
GRIDFORMAT_END
309
TABLEFORMAT_END
  1
CELLSTYLE_BEGIN
 90
        1
 91
        1
300
_TITLE
309
CELLSTYLE_END
300
CELLSTYLE
  1
TABLEFORMAT_BEGIN
 90
        5
170
     1
 91
        0
 92
        0
 62
   257
 93
        1
300
CONTENTFORMAT
  1
CONTENTFORMAT_BEGIN
 90
        0
 91
        0
 92
        4
 93
        0
300

 40
0.0
140
1.0
 94
        5
 62
     0
340
852
144
0.18
309
CONTENTFORMAT_END
171
     1
301
MARGIN
  1
CELLMARGIN_BEGIN
 40
0.06
 40
0.06
 40
0.06
 40
0.06
 40
0.18
 40
0.18
309
CELLMARGIN_END
 94
        6
 95
        1
302
GRIDFORMAT
  1
GRIDFORMAT_BEGIN
 90
        0
 91
        1
 62
     0
 92
       -2
340
0
 93
        0
 40
0.045
309
GRIDFORMAT_END
 95
        2
302
GRIDFORMAT
  1
GRIDFORMAT_BEGIN
 90
        0
 91
        1
 62
     0
 92
       -2
340
0
 93
        0
 40
0.045
309
GRIDFORMAT_END
 95
        4
302
GRIDFORMAT
  1
GRIDFORMAT_BEGIN
 90
        0
 91
        1
 62
     0
 92
       -2
340
0
 93
        0
 40
0.045
309
GRIDFORMAT_END
 95
        8
302
GRIDFORMAT
  1
GRIDFORMAT_BEGIN
 90
        0
 91
        1
 62
     0
 92
       -2
340
0
 93
        0
 40
0.045
309
GRIDFORMAT_END
 95
       16
302
GRIDFORMAT
  1
GRIDFORMAT_BEGIN
 90
        0
 91
        1
 62
     0
 92
       -2
340
0
 93
        0
 40
0.045
309
GRIDFORMAT_END
 95
       32
302
GRIDFORMAT
  1
GRIDFORMAT_BEGIN
 90
        0
 91
        1
 62
     0
 92
       -2
340
0
 93
        0
 40
0.045
309
GRIDFORMAT_END
309
TABLEFORMAT_END
  1
CELLSTYLE_BEGIN
 90
        2
 91
        1
300
_HEADER
309
CELLSTYLE_END
300
CELLSTYLE
  1
TABLEFORMAT_BEGIN
 90
        5
170
     1
 91
        0
 92
        0
 62
   257
 93
        1
300
CONTENTFORMAT
  1
CONTENTFORMAT_BEGIN
 90
        0
 91
        0
 92
        4
 93
        0
300

 40
0.0
140
1.0
 94
        2
 62
     0
340
852
144
0.18
309
CONTENTFORMAT_END
171
     1
301
MARGIN
  1
CELLMARGIN_BEGIN
 40
0.06
 40
0.06
 40
0.06
 40
0.06
 40
0.18
 40
0.18
309
CELLMARGIN_END
 94
        6
 95
        1
302
GRIDFORMAT
  1
GRIDFORMAT_BEGIN
 90
        0
 91
        1
 62
     0
 92
       -2
340
0
 93
        0
 40
0.045
309
GRIDFORMAT_END
 95
        2
302
GRIDFORMAT
  1
GRIDFORMAT_BEGIN
 90
        0
 91
        1
 62
     0
 92
       -2
340
0
 93
        0
 40
0.045
309
GRIDFORMAT_END
 95
        4
302
GRIDFORMAT
  1
GRIDFORMAT_BEGIN
 90
        0
 91
        1
 62
     0
 92
       -2
340
0
 93
        0
 40
0.045
309
GRIDFORMAT_END
 95
        8
302
GRIDFORMAT
  1
GRIDFORMAT_BEGIN
 90
        0
 91
        1
 62
     0
 92
       -2
340
0
 93
        0
 40
0.045
309
GRIDFORMAT_END
 95
       16
302
GRIDFORMAT
  1
GRIDFORMAT_BEGIN
 90
        0
 91
        1
 62
     0
 92
       -2
340
0
 93
        0
 40
0.045
309
GRIDFORMAT_END
 95
       32
302
GRIDFORMAT
  1
GRIDFORMAT_BEGIN
 90
        0
 91
        1
 62
     0
 92
       -2
340
0
 93
        0
 40
0.045
309
GRIDFORMAT_END
309
TABLEFORMAT_END
  1
CELLSTYLE_BEGIN
 90
        3
 91
        2
300
_DATA
309
CELLSTYLE_END
  0
XRECORD
  5
2765
102
{ACAD_REACTORS
330
1925
102
}
330
1925
100
AcDbXrecord
280
     1
102
ACAD_ROUNDTRIP_PRE2007_TABLESTYLE
 90
        4
 91
        0
  1

 92
        4
 93
        0
  2

 94
        4
 95
        0
  3

  0
ENDSEC
  0
EOF
