  0
SECTION
  2
HEADER
  9
$ACADVER
  1
AC1018
  9
$ACADMAINTVER
 70
   104
  9
$DWGCODEPAGE
  3
ANSI_932
  9
$LASTSAVEDBY
  1
a080061
  9
$CUSTOMPROPERTYTAG
  1
AmdtFileType
  9
$CUSTOMPROPERTY
  1
84
  9
$INSBASE
 10
0.0
 20
0.0
 30
0.0
  9
$EXTMIN
 10
-503.4896683570586
 20
-1539.688099920387
 30
-0.0030516297567118
  9
$EXTMAX
 10
919.9676628107754
 20
-755.5847103423257
 30
50.00152613502635
  9
$LIMMIN
 10
-2970.0
 20
-2100.0
  9
$LIMMAX
 10
2970.0
 20
2100.0
  9
$ORTHOMODE
 70
     1
  9
$REGENMODE
 70
     0
  9
$FILLMODE
 70
     1
  9
$QTEXTMODE
 70
     0
  9
$MIRRTEXT
 70
     0
  9
$LTSCALE
 40
20.0
  9
$ATTMODE
 70
     1
  9
$TEXTSIZE
 40
64.0
  9
$TRACEWID
 40
0.05
  9
$TEXTSTYLE
  7
STANDARD
  9
$CLAYER
  8
0
  9
$CELTYPE
  6
CONTINUOUS
  9
$CECOLOR
 62
   256
  9
$CELTSCALE
 40
1.0
  9
$DISPSILH
 70
     0
  9
$DIMSCALE
 40
1.0
  9
$DIMASZ
 40
0.12
  9
$DIMEXO
 40
0.05
  9
$DIMDLI
 40
0.5
  9
$DIMRND
 40
0.0
  9
$DIMDLE
 40
0.0
  9
$DIMEXE
 40
0.1
  9
$DIMTP
 40
0.1
  9
$DIMTM
 40
0.1
  9
$DIMTXT
 40
0.12
  9
$DIMCEN
 40
0.0
  9
$DIMTSZ
 40
0.0
  9
$DIMTOL
 70
     0
  9
$DIMLIM
 70
     0
  9
$DIMTIH
 70
     1
  9
$DIMTOH
 70
     1
  9
$DIMSE1
 70
     0
  9
$DIMSE2
 70
     0
  9
$DIMTAD
 70
     0
  9
$DIMZIN
 70
     7
  9
$DIMBLK
  1

  9
$DIMASO
 70
     1
  9
$DIMSHO
 70
     0
  9
$DIMPOST
  1

  9
$DIMAPOST
  1
mm
  9
$DIMALT
 70
     0
  9
$DIMALTD
 70
     2
  9
$DIMALTF
 40
25.4
  9
$DIMLFAC
 40
1.0
  9
$DIMTOFL
 70
     0
  9
$DIMTVP
 40
0.0
  9
$DIMTIX
 70
     0
  9
$DIMSOXD
 70
     0
  9
$DIMSAH
 70
     0
  9
$DIMBLK1
  1

  9
$DIMBLK2
  1

  9
$DIMSTYLE
  2
AM_ANSI
  9
$DIMCLRD
 70
   256
  9
$DIMCLRE
 70
   256
  9
$DIMCLRT
 70
     2
  9
$DIMTFAC
 40
0.71
  9
$DIMGAP
 40
0.06
  9
$DIMJUST
 70
     0
  9
$DIMSD1
 70
     0
  9
$DIMSD2
 70
     0
  9
$DIMTOLJ
 70
     1
  9
$DIMTZIN
 70
     7
  9
$DIMALTZ
 70
     0
  9
$DIMALTTZ
 70
     0
  9
$DIMUPT
 70
     0
  9
$DIMDEC
 70
     4
  9
$DIMTDEC
 70
     4
  9
$DIMALTU
 70
     2
  9
$DIMALTTD
 70
     4
  9
$DIMTXSTY
  7
STANDARD
  9
$DIMAUNIT
 70
     0
  9
$DIMADEC
 70
     0
  9
$DIMALTRND
 40
0.0
  9
$DIMAZIN
 70
     2
  9
$DIMDSEP
 70
    46
  9
$DIMATFIT
 70
     3
  9
$DIMFRAC
 70
     0
  9
$DIMLDRBLK
  1

  9
$DIMLUNIT
 70
     2
  9
$DIMLWD
 70
    -1
  9
$DIMLWE
 70
    -1
  9
$DIMTMOVE
 70
     0
  9
$LUNITS
 70
     2
  9
$LUPREC
 70
     4
  9
$SKETCHINC
 40
0.1
  9
$FILLETRAD
 40
4.0
  9
$AUNITS
 70
     1
  9
$AUPREC
 70
     3
  9
$MENU
  1
ACAD
  9
$ELEVATION
 40
0.0
  9
$PELEVATION
 40
0.0
  9
$THICKNESS
 40
50.0
  9
$LIMCHECK
 70
     0
  9
$CHAMFERA
 40
0.0
  9
$CHAMFERB
 40
0.0
  9
$CHAMFERC
 40
0.0
  9
$CHAMFERD
 40
0.0
  9
$SKPOLY
 70
     0
  9
$TDCREATE
 40
2452321.396199653
  9
$TDUCREATE
 40
2452321.021199653
  9
$TDUPDATE
 40
2456703.652125394
  9
$TDUUPDATE
 40
2456703.277125394
  9
$TDINDWG
 40
0.8332999769
  9
$TDUSRTIMER
 40
0.8332967708
  9
$USRTIMER
 70
     1
  9
$ANGBASE
 50
0.0
  9
$ANGDIR
 70
     0
  9
$PDMODE
 70
     3
  9
$PDSIZE
 40
-2.0
  9
$PLINEWID
 40
0.0
  9
$SPLFRAME
 70
     0
  9
$SPLINETYPE
 70
     6
  9
$SPLINESEGS
 70
     8
  9
$HANDSEED
  5
299B
  9
$SURFTAB1
 70
     6
  9
$SURFTAB2
 70
     6
  9
$SURFTYPE
 70
     6
  9
$SURFU
 70
     6
  9
$SURFV
 70
     6
  9
$UCSBASE
  2

  9
$UCSNAME
  2

  9
$UCSORG
 10
0.0
 20
0.0
 30
0.0
  9
$UCSXDIR
 10
1.0
 20
0.0
 30
0.0
  9
$UCSYDIR
 10
0.0
 20
1.0
 30
0.0
  9
$UCSORTHOREF
  2

  9
$UCSORTHOVIEW
 70
     0
  9
$UCSORGTOP
 10
0.0
 20
0.0
 30
0.0
  9
$UCSORGBOTTOM
 10
0.0
 20
0.0
 30
0.0
  9
$UCSORGLEFT
 10
0.0
 20
0.0
 30
0.0
  9
$UCSORGRIGHT
 10
0.0
 20
0.0
 30
0.0
  9
$UCSORGFRONT
 10
0.0
 20
0.0
 30
0.0
  9
$UCSORGBACK
 10
0.0
 20
0.0
 30
0.0
  9
$PUCSBASE
  2

  9
$PUCSNAME
  2

  9
$PUCSORG
 10
0.0
 20
0.0
 30
0.0
  9
$PUCSXDIR
 10
1.0
 20
0.0
 30
0.0
  9
$PUCSYDIR
 10
0.0
 20
1.0
 30
0.0
  9
$PUCSORTHOREF
  2

  9
$PUCSORTHOVIEW
 70
     0
  9
$PUCSORGTOP
 10
0.0
 20
0.0
 30
0.0
  9
$PUCSORGBOTTOM
 10
0.0
 20
0.0
 30
0.0
  9
$PUCSORGLEFT
 10
0.0
 20
0.0
 30
0.0
  9
$PUCSORGRIGHT
 10
0.0
 20
0.0
 30
0.0
  9
$PUCSORGFRONT
 10
0.0
 20
0.0
 30
0.0
  9
$PUCSORGBACK
 10
0.0
 20
0.0
 30
0.0
  9
$USERI1
 70
     0
  9
$USERI2
 70
     0
  9
$USERI3
 70
     0
  9
$USERI4
 70
     0
  9
$USERI5
 70
     0
  9
$USERR1
 40
20.0
  9
$USERR2
 40
0.0
  9
$USERR3
 40
0.0
  9
$USERR4
 40
0.0
  9
$USERR5
 40
0.0
  9
$WORLDVIEW
 70
     1
  9
$SHADEDGE
 70
     3
  9
$SHADEDIF
 70
    70
  9
$TILEMODE
 70
     1
  9
$MAXACTVP
 70
    64
  9
$PINSBASE
 10
0.0
 20
0.0
 30
0.0
  9
$PLIMCHECK
 70
     0
  9
$PEXTMIN
 10
1.000000000000000E+20
 20
1.000000000000000E+20
 30
1.000000000000000E+20
  9
$PEXTMAX
 10
-1.000000000000000E+20
 20
-1.000000000000000E+20
 30
-1.000000000000000E+20
  9
$PLIMMIN
 10
0.0
 20
0.0
  9
$PLIMMAX
 10
12.0
 20
9.0
  9
$UNITMODE
 70
     0
  9
$VISRETAIN
 70
     1
  9
$PLINEGEN
 70
     0
  9
$PSLTSCALE
 70
     1
  9
$TREEDEPTH
 70
  3020
  9
$CMLSTYLE
  2
STANDARD
  9
$CMLJUST
 70
     0
  9
$CMLSCALE
 40
1.0
  9
$PROXYGRAPHICS
 70
     1
  9
$MEASUREMENT
 70
     0
  9
$CELWEIGHT
370
    -1
  9
$ENDCAPS
280
     0
  9
$JOINSTYLE
280
     0
  9
$LWDISPLAY
290
     0
  9
$INSUNITS
 70
     0
  9
$HYPERLINKBASE
  1

  9
$STYLESHEET
  1
MONOCHROME.CTB
  9
$XEDIT
290
     1
  9
$CEPSNTYPE
380
     0
  9
$PSTYLEMODE
290
     1
  9
$FINGERPRINTGUID
  2
{68F3F60F-982D-43C0-B084-568AB2094408}
  9
$VERSIONGUID
  2
{1C205DDB-9AE7-4F2E-9C12-95C4BEE8466B}
  9
$EXTNAMES
290
     1
  9
$PSVPSCALE
 40
0.0
  9
$OLESTARTUP
290
     0
  9
$SORTENTS
280
   127
  9
$INDEXCTL
280
     1
  9
$HIDETEXT
280
     0
  9
$XCLIPFRAME
290
     0
  9
$HALOGAP
280
     0
  9
$OBSCOLOR
 70
   257
  9
$OBSLTYPE
280
     0
  9
$INTERSECTIONDISPLAY
280
     0
  9
$INTERSECTIONCOLOR
 70
   257
  9
$DIMASSOC
280
     1
  9
$PROJECTNAME
  1

  0
ENDSEC
  0
SECTION
  2
CLASSES
  0
CLASS
  1
ACDBDICTIONARYWDFLT
  2
AcDbDictionaryWithDefault
  3
ObjectDBX Classes
 90
        0
 91
        1
280
     0
281
     0
  0
CLASS
  1
DICTIONARYVAR
  2
AcDbDictionaryVar
  3
ObjectDBX Classes
 90
        0
 91
        7
280
     0
281
     0
  0
CLASS
  1
TABLESTYLE
  2
AcDbTableStyle
  3
ObjectDBX Classes
 90
     4095
 91
        1
280
     0
281
     0
  0
CLASS
  1
ACME_DOCUMENT
  2
AcMeDbDoc
  3
AcMeServices
 90
     1024
 91
        1
280
     0
281
     0
  0
CLASS
  1
AMGSETTINGSOBJ
  2
AmgSettingsObj
  3
"AcadM|Product Description: AutoCAD Mechanical|Company: Autodesk, Inc."
 90
     1024
 91
        2
280
     0
281
     0
  0
CLASS
  1
ACMESCOPE
  2
AcMeScope
  3
AcMeServices
 90
     1024
 91
        1
280
     0
281
     0
  0
CLASS
  1
ACMECOMMANDHISTORY
  2
AcMeCommandHistory
  3
AcMeServices
 90
     1024
 91
        1
280
     0
281
     0
  0
CLASS
  1
ACIMSYSVARMAN
  2
AcImSysVarManager
  3
AcMeServices
 90
     1024
 91
        6
280
     0
281
     0
  0
CLASS
  1
ACIMREALSYSVAR
  2
AcImRealSysVar
  3
AcMeServices
 90
     1024
 91
       16
280
     0
281
     0
  0
CLASS
  1
ACIMINTSYSVAR
  2
AcImIntSysVar
  3
AcMeServices
 90
     1024
 91
       45
280
     0
281
     0
  0
CLASS
  1
ACMEDRAWINGMAN
  2
AcMeDrawingMan
  3
AcMeServices
 90
     1024
 91
        1
280
     0
281
     0
  0
CLASS
  1
ACMEVIEW
  2
AcMeView
  3
AcMeServices
 90
     1024
 91
        1
280
     0
281
     0
  0
CLASS
  1
ACDBENTITYCACHE
  2
AcMeEntityCache
  3
AcMeServices
 90
     1024
 91
        1
280
     0
281
     0
  0
CLASS
  1
GSMANAGER
  2
AcMeGSManager
  3
AcMeServices
 90
     1024
 91
        1
280
     0
281
     0
  0
CLASS
  1
AMDTINTERNALREACTOR
  2
AmdtInternalReactor
  3
AcMeServices
 90
     1024
 91
        2
280
     0
281
     0
  0
CLASS
  1
ACMESTATEMGR
  2
AcMeStateMgr
  3
AcMeServices
 90
     1024
 91
        1
280
     0
281
     0
  0
CLASS
  1
ACGREFMASTER
  2
AcGrefMaster
  3
AcAttribServices
 90
     1024
 91
        1
280
     0
281
     0
  0
CLASS
  1
AM_DRAWING_MGR
  2
AcDmDwgMgr
  3
AcMechDwgViewMgmt
 90
     1024
 91
        1
280
     0
281
     0
  0
CLASS
  1
AM_DWG_DOCUMENT
  2
AcDmDwgDocument
  3
AcMechDwgViewMgmt
 90
     1024
 91
        1
280
     0
281
     0
  0
CLASS
  1
AM_DWG_SHEET
  2
AcDmSheet
  3
AcMechDwgViewMgmt
 90
     1024
 91
        1
280
     0
281
     0
  0
CLASS
  1
AM_VIEWDIMPARMAP
  2
AcDmViewDimParMap
  3
AcMechDwgViewMgmt
 90
     1024
 91
        1
280
     0
281
     0
  0
CLASS
  1
AM_DWGMGR_NAME
  2
AcDmDwgMgrName
  3
AcMechDwgViewMgmt
 90
     1024
 91
        1
280
     0
281
     0
  0
CLASS
  1
ACME_DATABASE
  2
AcMeDbDatabase
  3
AcMeServices
 90
     1024
 91
        1
280
     0
281
     0
  0
CLASS
  1
ACRFINSADJUSTERMGR
  2
AcRfInsAdjusterMgr
  3
AcMeServices
 90
     1024
 91
        1
280
     0
281
     0
  0
CLASS
  1
ACGREFACADMASTER
  2
AcGrefacadMaster
  3
AcGrefServices
 90
     1024
 91
        1
280
     0
281
     0
  0
CLASS
  1
AMDTMENUSTATEMGR
  2
AmdtMenuStateMgr
  3
McadcomServices
 90
     1024
 91
        1
280
     0
281
     0
  0
CLASS
  1
AMDTMCOMMENUSTATE
  2
AmdtMcomMenuState
  3
McadcomServices
 90
     1024
 91
        1
280
     0
281
     0
  0
CLASS
  1
AMIMASTER
  2
AmiMaster
  3
AmiServices
 90
     1024
 91
        1
280
     0
281
     0
  0
CLASS
  1
ASAPP
  2
AcAsAppObject
  3
AutoSurfServices
 90
     1024
 91
        1
280
     0
281
     0
  0
CLASS
  1
IM_STATIC_MAN
  2
AcImStaticVarManager
  3
AcMeServices
 90
     1024
 91
        1
280
     0
281
     0
  0
CLASS
  1
ACIMSTRSYSVAR
  2
AcImStrSysVar
  3
AcMeServices
 90
     1024
 91
       11
280
     0
281
     0
  0
CLASS
  1
ACIMDBLSTATICVAR
  2
AcImDblStaticVar
  3
AcMeServices
 90
     1024
 91
       20
280
     0
281
     0
  0
CLASS
  1
ACIMSTRSTATICVAR
  2
AcImStrStaticVar
  3
AcMeServices
 90
     1024
 91
       12
280
     0
281
     0
  0
CLASS
  1
ACIMINTSTATICVAR
  2
AcImIntStaticVar
  3
AcMeServices
 90
     1024
 91
       17
280
     0
281
     0
  0
CLASS
  1
ACASGREFMASTER
  2
AcAsGrefMaster
  3
AutoSurfResolverServices
 90
     1024
 91
        1
280
     0
281
     0
  0
CLASS
  1
ACADGREFMODULE
  2
AcAdGrefModule
  3
AdGrefServices
 90
     1024
 91
        1
280
     0
281
     0
  0
CLASS
  1
AMDTMAPISURFMOUDULE
  2
AmdtMApiSurfModule
  3
MApiSurfServices
 90
     1024
 91
        0
280
     0
281
     0
  0
CLASS
  1
MAPIAMMOUDLE
  2
MApiAmModule
  3
MApiAmServices
 90
     1024
 91
        1
280
     0
281
     0
  0
CLASS
  1
AMDTADMENUSTATE
  2
AmdtAdMenuState
  3
DesignerServices
 90
     1024
 91
        1
280
     0
281
     0
  0
CLASS
  1
ADAPPL
  2
AcAdAppl
  3
DesignerServices
 90
     1024
 91
        1
280
     0
281
     0
  0
CLASS
  1
DEPMGR
  2
AcAdDepMgr
  3
DesignerServices
 90
     1024
 91
        1
280
     0
281
     0
  0
CLASS
  1
PARAMMGR
  2
AcAdParamMgr
  3
DesignerServices
 90
     1024
 91
        1
280
     0
281
     0
  0
CLASS
  1
PARAMSCOPE
  2
AcAdParamScope
  3
DesignerServices
 90
     1024
 91
        1
280
     0
281
     0
  0
CLASS
  1
NAMEDAPPL
  2
AcAdNamedAppl
  3
DesignerServices
 90
     1024
 91
        1
280
     0
281
     0
  0
CLASS
  1
AMDTDMMENUSTATE
  2
AmdtDmMenuState
  3
AcMechDwgViewMgmt
 90
     1024
 91
        1
280
     0
281
     0
  0
CLASS
  1
MAPIADMODULE
  2
MApiAdModule
  3
MApiAdServices
 90
     1024
 91
        1
280
     0
281
     0
  0
CLASS
  1
AMDTAMMENUSTATE
  2
AmdtAmMenuState
  3
DesignerAssemblies
 90
     1024
 91
        1
280
     0
281
     0
  0
CLASS
  1
ACAMPROJECT
  2
AcAmProject
  3
DesignerAssemblies
 90
     1024
 91
        1
280
     0
281
     0
  0
CLASS
  1
ACAMGRCOMPDEF
  2
AcAmGrCompDef
  3
DesignerAssemblies
 90
     1024
 91
        1
280
     0
281
     0
  0
CLASS
  1
ACCMCONTEXT
  2
AcCmContext
  3
DesignerAssemblies
 90
     1024
 91
        1
280
     0
281
     0
  0
CLASS
  1
ACAMCOMPDEF
  2
AcAmCompDef
  3
DesignerAssemblies
 90
     1024
 91
        1
280
     0
281
     0
  0
CLASS
  1
ACAMCOMPDEFMGR
  2
AcAmCompDefMgr
  3
DesignerAssemblies
 90
     1024
 91
        1
280
     0
281
     0
  0
CLASS
  1
AMCONTEXTMGR
  2
AcAmContextMgr
  3
DesignerAssemblies
 90
     1024
 91
        1
280
     0
281
     0
  0
CLASS
  1
ACAMCONTEXTMODELER
  2
AcAmContextModeler
  3
DesignerAssemblies
 90
     1024
 91
        1
280
     0
281
     0
  0
CLASS
  1
ACMDATADICTIONARY
  2
AcmDataDictionary
  3
"AcmSymBB|Product Description: AutoCAD Mechanical|Company: Autodesk, Inc."
 90
     1024
 91
        1
280
     0
281
     0
  0
CLASS
  1
ACMDATAENTRYBLOCK
  2
AcmDataEntryBlock
  3
AcmSymBB|Product Description: AutoCAD Mechanical|Company: Autodesk, Inc.
 90
     1024
 91
        1
280
     0
281
     0
  0
CLASS
  1
CATALOGSTATE
  2
AcAmCatalogState
  3
DesignerAssemblies
 90
     1024
 91
        1
280
     0
281
     0
  0
CLASS
  1
ACAMGRCOMPDEFSET
  2
AcAmGrCompDefSet
  3
DesignerAssemblies
 90
     1024
 91
        1
280
     0
281
     0
  0
CLASS
  1
AMDTBROWSERDBTAB
  2
AmdtBrowserDbTab
  3
McadcomServices
 90
     1024
 91
        1
280
     0
281
     0
  0
CLASS
  1
CBROWSERAPPOBJECT
  2
CBrowserAppObject
  3
McadcomServices
 90
     1024
 91
        3
280
     0
281
     0
  0
CLASS
  1
DM_PLACEHOLDER
  2
AcDmSelsetPlaceholder
  3
AcMechDwgViewMgmt
 90
     1024
 91
        1
280
     0
281
     0
  0
CLASS
  1
ACMSTANDARDANSI
  2
AcmStandardANSI
  3
"Amdt_StdImp|Product Description: AutoCAD Mechanical|Company: Autodesk, Inc."
 90
     1024
 91
        1
280
     0
281
     0
  0
CLASS
  1
AMGOBJPROPCFG
  2
AmgObjPropCfg
  3
"AmgLay|Product Description: AutoCAD Mechanical|Company: Autodesk, Inc."
 90
     1025
 91
        1
280
     0
281
     0
  0
CLASS
  1
ACMSURFSTANDARDANSI
  2
AcmSurfTextStdANSI
  3
"Amdt_StdImp|Product Description: AutoCAD Mechanical|Company: Autodesk, Inc."
 90
     1024
 91
        1
280
     0
281
     0
  0
CLASS
  1
ACMFCFSTANDARDANSI
  2
AcmFCFStdANSI
  3
"Amdt_StdImp|Product Description: AutoCAD Mechanical|Company: Autodesk, Inc."
 90
     1024
 91
        1
280
     0
281
     0
  0
CLASS
  1
ACMWELDSTANDARDANSI
  2
AcmWeldingStdANSI
  3
"Amdt_StdImp|Product Description: AutoCAD Mechanical|Company: Autodesk, Inc."
 90
     1024
 91
        1
280
     0
281
     0
  0
CLASS
  1
ACMIDSTANDARDANSI
  2
AcmIdStdANSI
  3
"Amdt_StdImp|Product Description: AutoCAD Mechanical|Company: Autodesk, Inc."
 90
     1024
 91
        1
280
     0
281
     0
  0
CLASS
  1
ACMDATUMSTANDARDANSI
  2
AcmDatumStdANSI
  3
"Amdt_StdImp|Product Description: AutoCAD Mechanical|Company: Autodesk, Inc."
 90
     1024
 91
        1
280
     0
281
     0
  0
CLASS
  1
ACMBOMSTANDARDANSI
  2
AcmBOMStdANSI
  3
"Amdt_StdImp|Product Description: AutoCAD Mechanical|Company: Autodesk, Inc."
 90
     1024
 91
        1
280
     0
281
     0
  0
CLASS
  1
ACMDETAILSTANDARDANSI
  2
AmdtDetailSymStdANSI
  3
"Amdt_StdImp|Product Description: AutoCAD Mechanical|Company: Autodesk, Inc."
 90
     1024
 91
        1
280
     0
281
     0
  0
CLASS
  1
ACMSECTIONSTANDARDANSI
  2
AmdtSectionSymStdANSI
  3
"Amdt_StdImp|Product Description: AutoCAD Mechanical|Company: Autodesk, Inc."
 90
     1024
 91
        1
280
     0
281
     0
  0
CLASS
  1
ACMCENTERLINESTANDARDANSI
  2
AmdtCenterLineStdANSI
  3
"Amdt_StdImp|Product Description: AutoCAD Mechanical|Company: Autodesk, Inc."
 90
     1024
 91
        1
280
     0
281
     0
  0
CLASS
  1
ACMTHREADLINESTANDARDANSI
  2
AmdtThreadLineStdANSI
  3
"Amdt_StdImp|Product Description: AutoCAD Mechanical|Company: Autodesk, Inc."
 90
     1024
 91
        1
280
     0
281
     0
  0
CLASS
  1
ACMNOTESTANDARDANSI
  2
AmdtNoteStdANSI
  3
"Amdt_StdImp|Product Description: AutoCAD Mechanical|Company: Autodesk, Inc."
 90
     1024
 91
        1
280
     0
281
     0
  0
CLASS
  1
AMDTNOTETEMPLATEDB
  2
AmdtNoteTemplateDB
  3
AcmSymBB|Product Description: AutoCAD Mechanical|Company: Autodesk, Inc.
 90
     1024
 91
        6
280
     0
281
     0
  0
CLASS
  1
ACAMGLAYSTD
  2
AcAmgLayStd
  3
"AmgLay|Product Description: AutoCAD Mechanical|Company: Autodesk, Inc."
 90
     1024
 91
        1
280
     0
281
     0
  0
CLASS
  1
ACAMGDIMSTD
  2
AcAmgDimStd
  3
"AmgDim|Product Description: AutoCAD Mechanical|Company: Autodesk, Inc."
 90
     1024
 91
        1
280
     0
281
     0
  0
CLASS
  1
ACAMGHOLECHARTSTDANSI
  2
AcAmgHoleChartStdANSI
  3
AmgDim|Product Description: AutoCAD Mechanical|Company: Autodesk, Inc.
 90
     1024
 91
        1
280
     0
281
     0
  0
CLASS
  1
ACAMGTITLESTD
  2
AcAmgTitleStd
  3
"AmgTitle|Product Description: AutoCAD Mechanical|Company: Autodesk, Inc."
 90
     4095
 91
        1
280
     0
281
     0
  0
CLASS
  1
LAYER_INDEX
  2
AcDbLayerIndex
  3
ObjectDBX Classes
 90
        0
 91
        1
280
     0
281
     0
  0
CLASS
  1
IDBUFFER
  2
AcDbIdBuffer
  3
ObjectDBX Classes
 90
        0
 91
       12
280
     0
281
     0
  0
CLASS
  1
ACAMGFILTERDAT
  2
AcAmgFilterDat
  3
"AcadM|Product Description: AutoCAD Mechanical|Company: Autodesk, Inc."
 90
     1024
 91
        6
280
     0
281
     0
  0
CLASS
  1
MATERIAL
  2
AcDbMaterial
  3
ObjectDBX Classes
 90
     1153
 91
        3
280
     0
281
     0
  0
CLASS
  1
VISUALSTYLE
  2
AcDbVisualStyle
  3
ObjectDBX Classes
 90
     4095
 91
       16
280
     0
281
     0
  0
CLASS
  1
SCALE
  2
AcDbScale
  3
ObjectDBX Classes
 90
     1153
 91
       33
280
     0
281
     0
  0
CLASS
  1
MLEADERSTYLE
  2
AcDbMLeaderStyle
  3
ACDB_MLEADERSTYLE_CLASS
 90
     4095
 91
        1
280
     0
281
     0
  0
CLASS
  1
SORTENTSTABLE
  2
AcDbSortentsTable
  3
ObjectDBX Classes
 90
        0
 91
        1
280
     0
281
     0
  0
CLASS
  1
CELLSTYLEMAP
  2
AcDbCellStyleMap
  3
ObjectDBX Classes
 90
     1152
 91
        2
280
     0
281
     0
  0
CLASS
  1
ACRFATTGENMGR
  2
AcRfAttGeneralMgr
  3
AcAttribServices
 90
     1024
 91
        1
280
     0
281
     0
  0
CLASS
  1
ACRFOBJATTMGR
  2
AcRfObjAttGroupMgr
  3
AcAttribServices
 90
     1024
 91
        1
280
     0
281
     0
  0
CLASS
  1
ACRFMCADAPIATTHOLDER
  2
AcRfMCADAPIAttHolder
  3
AcAttribServices
 90
     1024
 91
        1
280
     0
281
     0
  0
CLASS
  1
AMDTSYSATTR
  2
AmdtSystemAttribute
  3
AcAttribServices
 90
     1024
 91
        1
280
     0
281
     0
  0
CLASS
  1
ACMTAPERSTANDARDANSI
  2
AcmTaperStdANSI
  3
"Amdt_StdImp|Product Description: AutoCAD Mechanical|Company: Autodesk, Inc."
 90
     1024
 91
        1
280
     0
281
     0
  0
CLASS
  1
ACMANOOTATIONVIEWSTANDARDANSI
  2
AmdtAnViewStdANSI
  3
"Amdt_StdImp|Product Description: AutoCAD Mechanical|Company: Autodesk, Inc."
 90
     1024
 91
        1
280
     0
281
     0
  0
ENDSEC
  0
SECTION
  2
TABLES
  0
TABLE
  2
VPORT
  5
849
330
0
100
AcDbSymbolTable
 70
     1
  0
VPORT
  5
185F
330
849
100
AcDbSymbolTableRecord
100
AcDbViewportTableRecord
  2
*Active
 70
     0
 10
0.0
 20
0.0
 11
1.0
 21
1.0
 12
-341.3236136996775
 22
-0.0000000000006821
 13
0.0
 23
0.0
 14
1.0
 24
1.0
 15
0.0
 25
0.0
 16
0.0
 26
0.0
 36
1.0
 17
549.5626109265357
 27
-1147.636405131356
 37
0.0
 40
1319.207310422112
 41
1.085650723025584
 42
50.0
 43
0.0
 44
0.0
 50
0.0
 51
0.0
 71
     0
 72
   100
 73
     1
 74
     0
 75
     0
 76
     0
 77
     0
 78
     0
281
     0
 65
     0
110
0.0
120
0.0
130
0.0
111
1.0
121
0.0
131
0.0
112
0.0
122
1.0
132
0.0
 79
     0
146
0.0
  0
ENDTAB
  0
TABLE
  2
LTYPE
  5
846
330
0
100
AcDbSymbolTable
 70
    20
  0
LTYPE
  5
854
330
846
100
AcDbSymbolTableRecord
100
AcDbLinetypeTableRecord
  2
BYBLOCK
 70
     0
  3

 72
    65
 73
     0
 40
0.0
  0
LTYPE
  5
855
330
846
100
AcDbSymbolTableRecord
100
AcDbLinetypeTableRecord
  2
BYLAYER
 70
     0
  3

 72
    65
 73
     0
 40
0.0
  0
LTYPE
  5
856
330
846
100
AcDbSymbolTableRecord
100
AcDbLinetypeTableRecord
  2
CONTINUOUS
 70
     0
  3
実線
 72
    65
 73
     0
 40
0.0
  0
LTYPE
  5
865
330
846
100
AcDbSymbolTableRecord
100
AcDbLinetypeTableRecord
  2
DASHDOT
 70
     0
  3
____ _ ____ _ ____ _ ____ _ ____ _ ____ _ ____
 72
    65
 73
     4
 40
5.5
 49
4.0
 74
     0
 49
-0.6
 74
     0
 49
0.3
 74
     0
 49
-0.6
 74
     0
  0
LTYPE
  5
1626
330
846
100
AcDbSymbolTableRecord
100
AcDbLinetypeTableRecord
  2
HIDDEN
 70
     0
  3
Hidden __ __ __ __ __ __ __ __ __ __ __ __ __ _
 72
    65
 73
     2
 40
0.375
 49
0.25
 74
     0
 49
-0.125
 74
     0
  0
LTYPE
  5
1627
330
846
100
AcDbSymbolTableRecord
100
AcDbLinetypeTableRecord
  2
PHANTOM2
 70
     0
  3
Phantom (.5x) ___ _ _ ___ _ _ ___ _ _ ___ _ _
 72
    65
 73
     6
 40
1.25
 49
0.625
 74
     0
 49
-0.125
 74
     0
 49
0.125
 74
     0
 49
-0.125
 74
     0
 49
0.125
 74
     0
 49
-0.125
 74
     0
  0
LTYPE
  5
1628
330
846
100
AcDbSymbolTableRecord
100
AcDbLinetypeTableRecord
  2
CENTER
 70
     0
  3
Center ____ _ ____ _ ____ _ ____ _ ____ _ ____
 72
    65
 73
     4
 40
2.0
 49
1.25
 74
     0
 49
-0.25
 74
     0
 49
0.25
 74
     0
 49
-0.25
 74
     0
  0
LTYPE
  5
1677
330
846
100
AcDbSymbolTableRecord
100
AcDbLinetypeTableRecord
  2
ASULTYPE
 70
     0
  3
実線
 72
    65
 73
     2
 40
3.0
 49
2.5
 74
     0
 49
0.5
 74
     0
  0
LTYPE
  5
1678
330
846
100
AcDbSymbolTableRecord
100
AcDbLinetypeTableRecord
  2
ASVLTYPE
 70
     0
  3
__ __ __ __ __ __ __ __ __ __ __ __ __ __ __ __ __ __ __ __ __
 72
    65
 73
     2
 40
0.75
 49
0.5
 74
     0
 49
-0.25
 74
     0
  0
LTYPE
  5
16BF
330
846
100
AcDbSymbolTableRecord
100
AcDbLinetypeTableRecord
  2
AM_ISO02W050
 70
     0
  3
__ __ __ __ __ __ __ __ __ __ __ __ __ __ __
 72
    65
 73
     2
 40
7.5
 49
6.0
 74
     0
 49
-1.5
 74
     0
  0
LTYPE
  5
16C0
330
846
100
AcDbSymbolTableRecord
100
AcDbLinetypeTableRecord
  2
AM_ISO08W050
 70
     0
  3
____ . ____ . ____ . ____ . ____ . ____ . ____
 72
    65
 73
     4
 40
18.0
 49
12.0
 74
     0
 49
-1.5
 74
     0
 49
3.0
 74
     0
 49
-1.5
 74
     0
  0
LTYPE
  5
16C1
330
846
100
AcDbSymbolTableRecord
100
AcDbLinetypeTableRecord
  2
AM_ISO09W050
 70
     0
  3
_____ . . _____ . . _____ . . ____ .. ____
 72
    65
 73
     6
 40
22.5
 49
12.0
 74
     0
 49
-1.5
 74
     0
 49
3.0
 74
     0
 49
-1.5
 74
     0
 49
3.0
 74
     0
 49
-1.5
 74
     0
  0
LTYPE
  5
16C2
330
846
100
AcDbSymbolTableRecord
100
AcDbLinetypeTableRecord
  2
Amconstr
 70
     0
  3
_______________________
 72
    65
 73
     2
 40
9999.0
 49
9999.0
 74
     0
 49
0.0
 74
     0
  0
LTYPE
  5
16C3
330
846
100
AcDbSymbolTableRecord
100
AcDbLinetypeTableRecord
  2
AM_ISO08W050x2
 70
     0
  3
__ . __ . __ . __ . __ . __
 72
    65
 73
     4
 40
9.0
 49
6.0
 74
     0
 49
-0.75
 74
     0
 49
1.5
 74
     0
 49
-0.75
 74
     0
  0
LTYPE
  5
16C4
330
846
100
AcDbSymbolTableRecord
100
AcDbLinetypeTableRecord
  2
AM_ISO02W050x2
 70
     0
  3
 _ _ _ _ _ _ _ _ _ _ _ _
 72
    65
 73
     2
 40
3.75
 49
3.0
 74
     0
 49
-0.75
 74
     0
  0
LTYPE
  5
16C7
330
846
100
AcDbSymbolTableRecord
100
AcDbLinetypeTableRecord
  2
Amzigzag
 70
     0
  3
/\/-/\/-/\/-/\/-/\/-/\/
 72
    65
 73
     2
 40
11.0001
 49
0.0001
 74
     4
 75
   136
340
16C6
 46
0.04
 50
0.0
 44
0.0
 45
0.0
 49
-11.0
 74
     0
  0
LTYPE
  5
16C8
330
846
100
AcDbSymbolTableRecord
100
AcDbLinetypeTableRecord
  2
CENTER2
 70
     0
  3
Center (.5x) ___ _ ___ _ ___ _ ___ _ ___ _ ___
 72
    65
 73
     4
 40
1.125
 49
0.75
 74
     0
 49
-0.125
 74
     0
 49
0.125
 74
     0
 49
-0.125
 74
     0
  0
LTYPE
  5
16C9
330
846
100
AcDbSymbolTableRecord
100
AcDbLinetypeTableRecord
  2
HIDDEN2
 70
     0
  3
Hidden (.5x) _ _ _ _ _ _ _ _ _ _ _ _ _ _ _ _ _
 72
    65
 73
     2
 40
0.1875
 49
0.125
 74
     0
 49
-0.0625
 74
     0
  0
LTYPE
  5
16CA
330
846
100
AcDbSymbolTableRecord
100
AcDbLinetypeTableRecord
  2
Amzigzag2
 70
     0
  3
/\/-/\/-/\/-/\/-/\/-/\/
 72
    65
 73
     2
 40
0.4401
 49
0.0001
 74
     4
 75
   136
340
16C6
 46
0.0016
 50
0.0
 44
0.0
 45
0.0
 49
-0.4400000000000003
 74
     0
  0
LTYPE
  5
16D8
330
846
100
AcDbSymbolTableRecord
100
AcDbLinetypeTableRecord
  2
ACANSTGB
 70
     0
  3
__ . . __ . .
 72
    65
 73
     6
 40
0.35433070866
 49
0.15748031496
 74
     0
 49
-0.03937007874
 74
     0
 49
0.03937007874
 74
     0
 49
-0.03937007874
 74
     0
 49
0.03937007874
 74
     0
 49
-0.03937007874
 74
     0
  0
LTYPE
  5
16D9
330
846
100
AcDbSymbolTableRecord
100
AcDbLinetypeTableRecord
  2
ACANSTGL
 70
     0
  3
_ _ _ _ _
 72
    65
 73
     2
 40
0.11811023622
 49
0.07874015748
 74
     0
 49
-0.03937007874
 74
     0
  0
ENDTAB
  0
TABLE
  2
LAYER
  5
843
102
{ACAD_XDICTIONARY
360
1AA7
102
}
330
0
100
AcDbSymbolTable
 70
    12
  0
LAYER
  5
851
102
{ACAD_XDICTIONARY
360
190C
102
}
330
843
100
AcDbSymbolTableRecord
100
AcDbLayerTableRecord
  2
0
 70
     0
 62
     7
  6
CONTINUOUS
370
    -3
390
B83
  0
LAYER
  5
863
102
{ACAD_XDICTIONARY
360
190E
102
}
330
843
100
AcDbSymbolTableRecord
100
AcDbLayerTableRecord
  2
OUTLINE
 70
     0
 62
     3
  6
CONTINUOUS
370
    -3
390
B83
  0
LAYER
  5
866
102
{ACAD_XDICTIONARY
360
1910
102
}
330
843
100
AcDbSymbolTableRecord
100
AcDbLayerTableRecord
  2
SIZE
 70
     0
 62
    30
  6
CONTINUOUS
370
    -3
390
B83
  0
LAYER
  5
867
102
{ACAD_XDICTIONARY
360
1912
102
}
330
843
100
AcDbSymbolTableRecord
100
AcDbLayerTableRecord
  2
BASIS
 70
     0
 62
     6
  6
DASHDOT
370
    -3
390
B83
  0
LAYER
  5
868
102
{ACAD_XDICTIONARY
360
1914
102
}
330
843
100
AcDbSymbolTableRecord
100
AcDbLayerTableRecord
  2
DETAIL
 70
     0
 62
     5
  6
CONTINUOUS
370
    -3
390
B83
  0
LAYER
  5
869
102
{ACAD_XDICTIONARY
360
1916
102
}
330
843
100
AcDbSymbolTableRecord
100
AcDbLayerTableRecord
  2
ARRANGE
 70
     0
 62
     1
  6
CONTINUOUS
370
    -3
390
B83
  0
LAYER
  5
86A
330
843
100
AcDbSymbolTableRecord
100
AcDbLayerTableRecord
  2
DEFPOINTS
 70
     0
 62
     7
  6
CONTINUOUS
290
     0
370
    -3
390
B83
  0
LAYER
  5
86B
102
{ACAD_XDICTIONARY
360
1918
102
}
330
843
100
AcDbSymbolTableRecord
100
AcDbLayerTableRecord
  2
ETC
 70
     0
 62
    61
  6
CONTINUOUS
370
    -3
390
B83
  0
LAYER
  5
86C
102
{ACAD_XDICTIONARY
360
191A
102
}
330
843
100
AcDbSymbolTableRecord
100
AcDbLayerTableRecord
  2
FIX
 70
     0
 62
    11
  6
CONTINUOUS
370
    -3
390
B83
  0
LAYER
  5
86D
102
{ACAD_XDICTIONARY
360
191C
102
}
330
843
100
AcDbSymbolTableRecord
100
AcDbLayerTableRecord
  2
NOTE
 70
     0
 62
     4
  6
CONTINUOUS
370
    -3
390
B83
  0
LAYER
  5
86E
102
{ACAD_XDICTIONARY
360
191E
102
}
330
843
100
AcDbSymbolTableRecord
100
AcDbLayerTableRecord
  2
SERVICESPACE
 70
     0
 62
     2
  6
DASHDOT
370
    -3
390
B83
  0
LAYER
  5
86F
102
{ACAD_XDICTIONARY
360
1920
102
}
330
843
100
AcDbSymbolTableRecord
100
AcDbLayerTableRecord
  2
SYMBOLLINE
 70
     0
 62
    15
  6
CONTINUOUS
370
    -3
390
B83
  0
ENDTAB
  0
TABLE
  2
STYLE
  5
844
330
0
100
AcDbSymbolTable
 70
     5
  0
STYLE
  5
852
330
844
100
AcDbSymbolTableRecord
100
AcDbTextStyleTableRecord
  2
STANDARD
 70
     0
 40
64.0
 41
0.9
 50
0.0
 71
     0
 42
64.0
  3
SIMPLEX.shx
  4
BIGFONT.shx
  0
STYLE
  5
16C6
330
844
100
AcDbSymbolTableRecord
100
AcDbTextStyleTableRecord
  2

 70
     1
 40
0.0
 41
1.0
 50
0.0
 71
     0
 42
64.0
  3
genltshp.shx
  4

  0
STYLE
  5
16CB
330
844
100
AcDbSymbolTableRecord
100
AcDbTextStyleTableRecord
  2
ACANSTS
 70
     0
 40
1.0
 41
1.0
 50
0.0
 71
     0
 42
64.0
  3
romans.shx
  4
extfont.shx
  0
STYLE
  5
16D7
330
844
100
AcDbSymbolTableRecord
100
AcDbTextStyleTableRecord
  2
ACANSGDT
 70
     0
 40
0.0
 41
1.0
 50
0.0
 71
     0
 42
64.0
  3
amgdt.shx
  4

  0
STYLE
  5
1AA2
330
844
100
AcDbSymbolTableRecord
100
AcDbTextStyleTableRecord
  2
ADESK1
 70
     0
 40
0.0
 41
1.0
 50
0.0
 71
     0
 42
0.12
  3
romanc.shx
  4
extfont.shx
  0
ENDTAB
  0
TABLE
  2
VIEW
  5
847
330
0
100
AcDbSymbolTable
 70
     1
  0
VIEW
  5
870
330
847
100
AcDbSymbolTableRecord
100
AcDbViewTableRecord
  2
ALL
 70
     0
 40
4282.619807999997
 10
0.0
 20
41.30990399999999
 41
5940.0
 11
0.0
 21
0.0
 31
1.0
 12
0.0
 22
0.0
 32
0.0
 42
50.0
 43
0.0
 44
0.0
 50
0.0
 71
     0
281
     0
 72
     0
  0
ENDTAB
  0
TABLE
  2
UCS
  5
848
330
0
100
AcDbSymbolTable
 70
     0
  0
ENDTAB
  0
TABLE
  2
APPID
  5
84A
330
0
100
AcDbSymbolTable
 70
    23
  0
APPID
  5
853
330
84A
100
AcDbSymbolTableRecord
100
AcDbRegAppTableRecord
  2
ACAD
 70
     0
  0
APPID
  5
15F2
330
84A
100
AcDbSymbolTableRecord
100
AcDbRegAppTableRecord
  2
GENIUS_GENDIM_13
 70
     0
  0
APPID
  5
15F3
330
84A
100
AcDbSymbolTableRecord
100
AcDbRegAppTableRecord
  2
GENIUS_GENDTOL_13
 70
     0
  0
APPID
  5
15F4
330
84A
100
AcDbSymbolTableRecord
100
AcDbRegAppTableRecord
  2
GENIUS_GE3DTOL_13
 70
     0
  0
APPID
  5
15F7
330
84A
100
AcDbSymbolTableRecord
100
AcDbRegAppTableRecord
  2
MCAD_NO_VIS
 70
     0
  0
APPID
  5
15F8
330
84A
100
AcDbSymbolTableRecord
100
AcDbRegAppTableRecord
  2
ACAD_TEMP_GRAPHIC
 70
     0
  0
APPID
  5
162A
330
84A
100
AcDbSymbolTableRecord
100
AcDbRegAppTableRecord
  2
AD_DRAW
 70
     0
  0
APPID
  5
162D
330
84A
100
AcDbSymbolTableRecord
100
AcDbRegAppTableRecord
  2
ACATTRIBSERVICES
 70
     0
  0
APPID
  5
1679
330
84A
100
AcDbSymbolTableRecord
100
AcDbRegAppTableRecord
  2
ASURF_PCURVE_APPNAME
 70
     0
  0
APPID
  5
167E
330
84A
100
AcDbSymbolTableRecord
100
AcDbRegAppTableRecord
  2
AMG_3D2D_5.0
 70
     0
  0
APPID
  5
16AF
330
84A
100
AcDbSymbolTableRecord
100
AcDbRegAppTableRecord
  2
DESIGNERASSEMBLIES
 70
     0
  0
APPID
  5
16B6
330
84A
100
AcDbSymbolTableRecord
100
AcDbRegAppTableRecord
  2
ACADM_DIM_EDIT
 70
     0
  0
APPID
  5
16B7
330
84A
100
AcDbSymbolTableRecord
100
AcDbRegAppTableRecord
  2
AMDT_DM_ADJ
 70
     0
  0
APPID
  5
16E6
330
84A
100
AcDbSymbolTableRecord
100
AcDbRegAppTableRecord
  2
ACAD_DSTYLE_DIMARC_LENGTH_SYMBOL
 70
     0
  0
APPID
  5
16E7
330
84A
100
AcDbSymbolTableRecord
100
AcDbRegAppTableRecord
  2
ACAD_DSTYLE_DIMJOGGED_JOGANGLE_SYMBOL
 70
     0
  0
APPID
  5
181E
330
84A
100
AcDbSymbolTableRecord
100
AcDbRegAppTableRecord
  2
ACAD_PSEXT
 70
     0
  0
APPID
  5
18B7
330
84A
100
AcDbSymbolTableRecord
100
AcDbRegAppTableRecord
  2
ACAD_MLEADERVER
 70
     0
  0
APPID
  5
1A70
330
84A
100
AcDbSymbolTableRecord
100
AcDbRegAppTableRecord
  2
ACAD_EXEMPT_FROM_CAD_STANDARDS
 70
     0
  0
APPID
  5
1AA5
330
84A
100
AcDbSymbolTableRecord
100
AcDbRegAppTableRecord
  2
ACAD_DSTYLE_DIMJAG
 70
     0
  0
APPID
  5
1AA6
330
84A
100
AcDbSymbolTableRecord
100
AcDbRegAppTableRecord
  2
ACAD_DSTYLE_DIMTALN
 70
     0
  0
APPID
  5
1CFC
330
84A
100
AcDbSymbolTableRecord
100
AcDbRegAppTableRecord
  2
ACAD_DSTYLE_DIM_LINETYPE
 70
     0
  0
APPID
  5
1CFD
330
84A
100
AcDbSymbolTableRecord
100
AcDbRegAppTableRecord
  2
ACAD_DSTYLE_DIM_EXT1_LINETYPE
 70
     0
  0
APPID
  5
1CFE
330
84A
100
AcDbSymbolTableRecord
100
AcDbRegAppTableRecord
  2
ACAD_DSTYLE_DIM_EXT2_LINETYPE
 70
     0
  0
ENDTAB
  0
TABLE
  2
DIMSTYLE
  5
84B
330
0
100
AcDbSymbolTable
 70
     9
100
AcDbDimStyleTable
 71
     2
340
16E5
340
871
  0
DIMSTYLE
105
871
330
84B
100
AcDbSymbolTableRecord
100
AcDbDimStyleTableRecord
  2
STANDARD
 70
     0
275
     1
284
     8
285
     8
286
     8
340
852
  0
DIMSTYLE
105
16E5
330
84B
100
AcDbSymbolTableRecord
100
AcDbDimStyleTableRecord
  2
AM_ANSI
 70
     0
  4
mm
 41
0.12
 42
0.05
 43
0.5
 44
0.1
 47
0.1
 48
0.1
 78
     7
 79
     2
140
0.12
141
0.0
146
0.71
147
0.06
176
   256
177
   256
178
     2
274
     4
284
     7
340
852
371
    -1
372
    -1
1001
ACAD_DSTYLE_DIMJOGGED_JOGANGLE_SYMBOL
1070
   384
1040
0.7853981633974483
1001
ACAD_DSTYLE_DIMARC_LENGTH_SYMBOL
1070
   379
1070
     1
1001
ACAD_DSTYLE_DIM_LINETYPE
1070
   380
1005
854
1001
ACAD_DSTYLE_DIM_EXT1_LINETYPE
1070
   381
1005
854
1001
ACAD_DSTYLE_DIM_EXT2_LINETYPE
1070
   382
1005
854
  0
DIMSTYLE
105
16EE
330
84B
100
AcDbSymbolTableRecord
100
AcDbDimStyleTableRecord
  2
AM_ANSI$3
 70
     0
  4
mm
 41
0.12
 42
0.05
 43
0.5
 44
0.1
 47
0.1
 48
0.1
 78
     7
 79
     2
140
0.12
141
0.0
146
0.71
147
0.06
176
   256
177
   256
178
     2
274
     4
284
     7
288
     1
289
     0
340
852
371
    -1
372
    -1
1001
ACAD_DSTYLE_DIMJOGGED_JOGANGLE_SYMBOL
1070
   384
1040
0.7853981633974483
1001
ACAD_DSTYLE_DIMARC_LENGTH_SYMBOL
1070
   379
1070
     1
1001
ACAD_DSTYLE_DIM_LINETYPE
1070
   380
1005
854
1001
ACAD_DSTYLE_DIM_EXT1_LINETYPE
1070
   381
1005
854
1001
ACAD_DSTYLE_DIM_EXT2_LINETYPE
1070
   382
1005
854
  0
DIMSTYLE
105
16F1
330
84B
100
AcDbSymbolTableRecord
100
AcDbDimStyleTableRecord
  2
AM_ANSI$4
 70
     0
  4
mm
 41
0.12
 42
0.05
 43
0.5
 44
0.1
 47
0.1
 48
0.1
 78
     7
 79
     2
140
0.12
141
0.0
146
0.71
147
0.06
176
   256
177
   256
178
     2
274
     4
284
     7
340
852
371
    -1
372
    -1
1001
ACAD_DSTYLE_DIMJOGGED_JOGANGLE_SYMBOL
1070
   384
1040
0.7853981633974483
1001
ACAD_DSTYLE_DIMARC_LENGTH_SYMBOL
1070
   379
1070
     1
1001
ACAD_DSTYLE_DIM_LINETYPE
1070
   380
1005
854
1001
ACAD_DSTYLE_DIM_EXT1_LINETYPE
1070
   381
1005
854
1001
ACAD_DSTYLE_DIM_EXT2_LINETYPE
1070
   382
1005
854
  0
DIMSTYLE
105
16F6
330
84B
100
AcDbSymbolTableRecord
100
AcDbDimStyleTableRecord
  2
AM_ANSI$7
 70
     0
  4
mm
 41
0.12
 42
0.05
 43
0.5
 44
0.1
 47
0.1
 48
0.1
 78
     7
 79
     2
140
0.12
141
0.0
146
0.71
147
0.06
176
   256
177
   256
178
     2
274
     4
284
     7
340
852
371
    -1
372
    -1
1001
ACAD_DSTYLE_DIMJOGGED_JOGANGLE_SYMBOL
1070
   384
1040
0.7853981633974483
1001
ACAD_DSTYLE_DIMARC_LENGTH_SYMBOL
1070
   379
1070
     1
1001
ACAD_DSTYLE_DIM_LINETYPE
1070
   380
1005
854
1001
ACAD_DSTYLE_DIM_EXT1_LINETYPE
1070
   381
1005
854
1001
ACAD_DSTYLE_DIM_EXT2_LINETYPE
1070
   382
1005
854
  0
DIMSTYLE
105
16F9
330
84B
100
AcDbSymbolTableRecord
100
AcDbDimStyleTableRecord
  2
AM_ANSI$SF
 70
     0
  4
mm
 41
0.12
 42
0.05
 43
0.5
 44
0.1
 47
0.1
 48
0.1
 75
     1
 76
     1
 78
     7
 79
     2
140
0.12
141
0.0
146
0.71
147
0.06
176
   256
177
   256
178
     2
274
     4
284
     7
340
852
371
    -1
372
    -1
1001
ACAD_DSTYLE_DIMJOGGED_JOGANGLE_SYMBOL
1070
   384
1040
0.7853981633974483
1001
ACAD_DSTYLE_DIMARC_LENGTH_SYMBOL
1070
   379
1070
     1
1001
ACAD_DSTYLE_DIM_LINETYPE
1070
   380
1005
854
1001
ACAD_DSTYLE_DIM_EXT1_LINETYPE
1070
   381
1005
854
1001
ACAD_DSTYLE_DIM_EXT2_LINETYPE
1070
   382
1005
854
  0
DIMSTYLE
105
1700
330
84B
100
AcDbSymbolTableRecord
100
AcDbDimStyleTableRecord
  2
AM_ANSI$SH
 70
     0
  4
mm
 41
0.12
 42
0.05
 43
0.5
 44
0.1
 47
0.1
 48
0.1
 75
     1
 76
     1
 78
     7
 79
     2
140
0.12
141
0.0
146
0.71
147
0.06
173
     1
176
   256
177
   256
178
     2
274
     4
284
     7
340
852
343
16FA
371
    -1
372
    -1
1001
ACAD_DSTYLE_DIMJOGGED_JOGANGLE_SYMBOL
1070
   384
1040
0.7853981633974483
1001
ACAD_DSTYLE_DIMARC_LENGTH_SYMBOL
1070
   379
1070
     1
1001
ACAD_DSTYLE_DIM_LINETYPE
1070
   380
1005
854
1001
ACAD_DSTYLE_DIM_EXT1_LINETYPE
1070
   381
1005
854
1001
ACAD_DSTYLE_DIM_EXT2_LINETYPE
1070
   382
1005
854
  0
DIMSTYLE
105
1AA3
330
84B
100
AcDbSymbolTableRecord
100
AcDbDimStyleTableRecord
  2
STANDARD1
 70
     0
 40
6.0
 41
2.5
 42
0.625
 43
6.0
 44
1.25
 47
1.0
 48
0.5
 77
     1
 78
     8
140
2.5
141
0.0
146
0.6
147
1.0
173
     1
284
     1
340
852
341
1A78
343
1A78
344
1A78
  0
DIMSTYLE
105
1AA4
102
{ACAD_REACTORS
330
2881
330
2882
330
2883
102
}
330
84B
100
AcDbSymbolTableRecord
100
AcDbDimStyleTableRecord
  2
STANDARD$0
 70
     0
 41
12.0
 42
20.0
 44
20.0
 73
     0
 74
     0
 77
     1
 78
     9
140
64.0
141
0.0
147
10.0
271
     0
272
     0
275
     1
284
     8
285
     8
286
     8
340
852
341
1A78
342
AB2
1001
ACAD_DSTYLE_DIMJAG
1070
   388
1040
1.5
1001
ACAD_DSTYLE_DIMTALN
1070
   392
1070
     0
  0
ENDTAB
  0
TABLE
  2
BLOCK_RECORD
  5
842
330
0
100
AcDbSymbolTable
 70
    44
  0
BLOCK_RECORD
  5
85F
102
{ACAD_XDICTIONARY
360
B4F
102
}
330
842
100
AcDbSymbolTableRecord
100
AcDbBlockTableRecord
  2
*MODEL_SPACE
340
B84
  0
BLOCK_RECORD
  5
85B
102
{ACAD_XDICTIONARY
360
B4D
102
}
330
842
100
AcDbSymbolTableRecord
100
AcDbBlockTableRecord
  2
*PAPER_SPACE
340
B85
  0
BLOCK_RECORD
  5
87E
330
842
100
AcDbSymbolTableRecord
100
AcDbBlockTableRecord
  2
_ORIGIN
340
0
  0
BLOCK_RECORD
  5
AB2
330
842
100
AcDbSymbolTableRecord
100
AcDbBlockTableRecord
  2
_DOTBLANK
340
0
102
{BLKREFS
331
1546
331
1547
331
154F
331
1550
331
18C5
331
18C6
331
18D7
331
18D8
331
18E9
331
18EA
331
195F
331
1960
331
1982
331
1983
331
1A83
331
1A84
331
1A8F
331
1A90
331
1A9B
331
1A9C
331
1CD8
331
1CD9
331
1CE1
331
1CE2
331
1CEA
331
1CEB
331
1DEA
331
1DEB
331
1DF6
331
1DF7
331
1E02
331
1E03
331
1E0E
331
1E0F
331
1E1A
331
1E1B
331
1E26
331
1E27
331
2059
331
205A
331
2062
331
2063
331
206B
331
206C
331
2074
331
2075
331
207D
331
207E
331
2086
331
2087
331
2184
331
2185
331
2190
331
2191
331
219C
331
219D
331
21A8
331
21A9
331
23A7
331
23A8
331
23B0
331
23B1
331
23B9
331
23BA
331
23C2
331
23C3
331
25BF
331
25C0
331
25CB
331
25CC
331
25D7
331
25D8
331
2890
331
2891
331
289C
331
289D
331
28A8
331
28A9
102
}
  0
BLOCK_RECORD
  5
13BF
330
842
100
AcDbSymbolTableRecord
100
AcDbBlockTableRecord
  2
*D2
340
0
  0
BLOCK_RECORD
  5
13CB
330
842
100
AcDbSymbolTableRecord
100
AcDbBlockTableRecord
  2
*D3
340
0
  0
BLOCK_RECORD
  5
13D7
330
842
100
AcDbSymbolTableRecord
100
AcDbBlockTableRecord
  2
*D4
340
0
  0
BLOCK_RECORD
  5
13E3
330
842
100
AcDbSymbolTableRecord
100
AcDbBlockTableRecord
  2
*D5
340
0
  0
BLOCK_RECORD
  5
16FA
330
842
100
AcDbSymbolTableRecord
100
AcDbBlockTableRecord
  2
GENAXEH
340
0
  0
BLOCK_RECORD
  5
184A
330
842
100
AcDbSymbolTableRecord
100
AcDbBlockTableRecord
  2
*D7
340
0
  0
BLOCK_RECORD
  5
18BD
330
842
100
AcDbSymbolTableRecord
100
AcDbBlockTableRecord
  2
*D8
340
0
  0
BLOCK_RECORD
  5
1957
330
842
100
AcDbSymbolTableRecord
100
AcDbBlockTableRecord
  2
*D9
340
0
  0
BLOCK_RECORD
  5
1A78
330
842
100
AcDbSymbolTableRecord
100
AcDbBlockTableRecord
  2
_Open30
340
0
  0
BLOCK_RECORD
  5
1A7E
330
842
100
AcDbSymbolTableRecord
100
AcDbBlockTableRecord
  2
*D11
340
0
  0
BLOCK_RECORD
  5
1A8A
330
842
100
AcDbSymbolTableRecord
100
AcDbBlockTableRecord
  2
*D12
340
0
  0
BLOCK_RECORD
  5
1A96
330
842
100
AcDbSymbolTableRecord
100
AcDbBlockTableRecord
  2
*D13
340
0
  0
BLOCK_RECORD
  5
1CB1
330
842
100
AcDbSymbolTableRecord
100
AcDbBlockTableRecord
  2
*D14
340
0
  0
BLOCK_RECORD
  5
1CBD
330
842
100
AcDbSymbolTableRecord
100
AcDbBlockTableRecord
  2
*D15
340
0
  0
BLOCK_RECORD
  5
1CC9
330
842
100
AcDbSymbolTableRecord
100
AcDbBlockTableRecord
  2
*D16
340
0
  0
BLOCK_RECORD
  5
1DE5
330
842
100
AcDbSymbolTableRecord
100
AcDbBlockTableRecord
  2
*D17
340
0
  0
BLOCK_RECORD
  5
1DF1
330
842
100
AcDbSymbolTableRecord
100
AcDbBlockTableRecord
  2
*D18
340
0
  0
BLOCK_RECORD
  5
1DFD
330
842
100
AcDbSymbolTableRecord
100
AcDbBlockTableRecord
  2
*D19
340
0
  0
BLOCK_RECORD
  5
1E09
330
842
100
AcDbSymbolTableRecord
100
AcDbBlockTableRecord
  2
*D20
340
0
  0
BLOCK_RECORD
  5
1E15
330
842
100
AcDbSymbolTableRecord
100
AcDbBlockTableRecord
  2
*D21
340
0
  0
BLOCK_RECORD
  5
1E21
330
842
100
AcDbSymbolTableRecord
100
AcDbBlockTableRecord
  2
*D22
340
0
  0
BLOCK_RECORD
  5
200E
330
842
100
AcDbSymbolTableRecord
100
AcDbBlockTableRecord
  2
*D23
340
0
  0
BLOCK_RECORD
  5
201A
330
842
100
AcDbSymbolTableRecord
100
AcDbBlockTableRecord
  2
*D24
340
0
  0
BLOCK_RECORD
  5
2026
330
842
100
AcDbSymbolTableRecord
100
AcDbBlockTableRecord
  2
*D25
340
0
  0
BLOCK_RECORD
  5
2032
330
842
100
AcDbSymbolTableRecord
100
AcDbBlockTableRecord
  2
*D26
340
0
  0
BLOCK_RECORD
  5
203E
330
842
100
AcDbSymbolTableRecord
100
AcDbBlockTableRecord
  2
*D27
340
0
  0
BLOCK_RECORD
  5
204A
330
842
100
AcDbSymbolTableRecord
100
AcDbBlockTableRecord
  2
*D28
340
0
  0
BLOCK_RECORD
  5
217F
330
842
100
AcDbSymbolTableRecord
100
AcDbBlockTableRecord
  2
*D29
340
0
  0
BLOCK_RECORD
  5
218B
330
842
100
AcDbSymbolTableRecord
100
AcDbBlockTableRecord
  2
*D30
340
0
  0
BLOCK_RECORD
  5
2197
330
842
100
AcDbSymbolTableRecord
100
AcDbBlockTableRecord
  2
*D31
340
0
  0
BLOCK_RECORD
  5
21A3
330
842
100
AcDbSymbolTableRecord
100
AcDbBlockTableRecord
  2
*D32
340
0
  0
BLOCK_RECORD
  5
2374
330
842
100
AcDbSymbolTableRecord
100
AcDbBlockTableRecord
  2
*D33
340
0
  0
BLOCK_RECORD
  5
2380
330
842
100
AcDbSymbolTableRecord
100
AcDbBlockTableRecord
  2
*D34
340
0
  0
BLOCK_RECORD
  5
238C
330
842
100
AcDbSymbolTableRecord
100
AcDbBlockTableRecord
  2
*D35
340
0
  0
BLOCK_RECORD
  5
2398
330
842
100
AcDbSymbolTableRecord
100
AcDbBlockTableRecord
  2
*D36
340
0
  0
BLOCK_RECORD
  5
25B9
330
842
100
AcDbSymbolTableRecord
100
AcDbBlockTableRecord
  2
*D37
340
0
  0
BLOCK_RECORD
  5
25C6
330
842
100
AcDbSymbolTableRecord
100
AcDbBlockTableRecord
  2
*D38
340
0
  0
BLOCK_RECORD
  5
25D2
330
842
100
AcDbSymbolTableRecord
100
AcDbBlockTableRecord
  2
*D39
340
0
  0
BLOCK_RECORD
  5
2889
330
842
100
AcDbSymbolTableRecord
100
AcDbBlockTableRecord
  2
*D40
340
0
  0
BLOCK_RECORD
  5
2896
330
842
100
AcDbSymbolTableRecord
100
AcDbBlockTableRecord
  2
*D41
340
0
  0
BLOCK_RECORD
  5
28A2
330
842
100
AcDbSymbolTableRecord
100
AcDbBlockTableRecord
  2
*D42
340
0
  0
ENDTAB
  0
ENDSEC
  0
SECTION
  2
BLOCKS
  0
BLOCK
  5
860
330
85F
100
AcDbEntity
  8
0
100
AcDbBlockBegin
  2
*MODEL_SPACE
 70
     0
 10
0.0
 20
0.0
 30
0.0
  3
*MODEL_SPACE
  1

  0
ENDBLK
  5
861
330
85F
100
AcDbEntity
  8
0
100
AcDbBlockEnd
  0
BLOCK
  5
85C
330
85B
100
AcDbEntity
 67
     1
  8
0
100
AcDbBlockBegin
  2
*PAPER_SPACE
 70
     0
 10
0.0
 20
0.0
 30
0.0
  3
*PAPER_SPACE
  1

  0
ENDBLK
  5
85D
330
85B
100
AcDbEntity
 67
     1
  8
0
100
AcDbBlockEnd
  0
BLOCK
  5
87F
330
87E
100
AcDbEntity
  8
0
100
AcDbBlockBegin
  2
_ORIGIN
 70
     0
 10
0.0
 20
0.0
 30
0.0
  3
_ORIGIN
  1

  0
CIRCLE
  5
880
330
87E
100
AcDbEntity
  8
0
  6
Continuous
 62
     7
100
AcDbCircle
 10
0.0
 20
0.0
 30
0.0
 40
0.5
  0
LINE
  5
881
330
87E
100
AcDbEntity
  8
0
  6
Continuous
 62
     7
100
AcDbLine
 10
0.0
 20
0.0
 30
0.0
 11
-1.0
 21
0.0
 31
0.0
  0
ENDBLK
  5
882
330
87E
100
AcDbEntity
  8
0
100
AcDbBlockEnd
  0
BLOCK
  5
AB5
330
AB2
100
AcDbEntity
  8
0
 62
     1
100
AcDbBlockBegin
  2
_DOTBLANK
 70
     0
 10
0.0
 20
0.0
 30
0.0
  3
_DOTBLANK
  1

  0
CIRCLE
  5
AB3
330
AB2
100
AcDbEntity
  8
0
  6
ByBlock
 62
     0
100
AcDbCircle
 10
0.0
 20
0.0
 30
0.0
 40
0.5
  0
LINE
  5
AB4
330
AB2
100
AcDbEntity
  8
0
  6
ByBlock
 62
     0
100
AcDbLine
 10
-0.5
 20
0.0
 30
0.0
 11
-1.0
 21
0.0
 31
0.0
  0
ENDBLK
  5
AB6
330
AB2
100
AcDbEntity
  8
0
 62
     1
100
AcDbBlockEnd
  0
BLOCK
  5
13C9
330
13BF
100
AcDbEntity
  8
0
100
AcDbBlockBegin
  2
*D2
 70
     1
 10
0.0
 20
0.0
 30
0.0
  3
*D2
  1

  0
LINE
  5
18E6
330
13BF
100
AcDbEntity
  8
SIZE
  6
Continuous
 62
     0
370
    -2
100
AcDbLine
 10
-143.4999999999999
 20
300.0
 30
0.0
 11
-234.6555151615446
 21
300.0
 31
0.0
  0
LINE
  5
18E7
330
13BF
100
AcDbEntity
  8
SIZE
  6
Continuous
 62
     0
370
    -2
100
AcDbLine
 10
-143.4999999999999
 20
75.0
 30
0.0
 11
-234.6555151615447
 21
75.00000000000003
 31
0.0
  0
LINE
  5
18E8
330
13BF
100
AcDbEntity
  8
SIZE
  6
Continuous
 62
     0
370
    -2
100
AcDbLine
 10
-214.6555151615446
 20
288.0000000000001
 30
0.0
 11
-214.6555151615447
 21
87.00000000000001
 31
0.0
  0
INSERT
  5
18E9
330
13BF
100
AcDbEntity
  8
SIZE
  6
Continuous
 62
     0
370
    -2
100
AcDbBlockReference
  2
_DOTBLANK
 10
-214.6555151615446
 20
300.0
 30
0.0
 41
12.0
 42
12.0
 43
12.0
 50
90.0
  0
INSERT
  5
18EA
330
13BF
100
AcDbEntity
  8
SIZE
  6
Continuous
 62
     0
370
    -2
100
AcDbBlockReference
  2
_DOTBLANK
 10
-214.6555151615447
 20
75.00000000000001
 30
0.0
 41
12.0
 42
12.0
 43
12.0
 50
270.0
  0
MTEXT
  5
18EB
330
13BF
100
AcDbEntity
  8
SIZE
  6
Continuous
 62
     0
100
AcDbMText
 10
-256.6555151615447
 20
187.5
 30
0.0
 40
64.0
 41
0.0
 71
     5
 72
     1
  1
\A1;225
 11
0.0000000000000001
 21
1.0
 31
0.0
 73
     1
 44
1.0
  0
POINT
  5
18EC
330
13BF
100
AcDbEntity
  8
DEFPOINTS
  6
Continuous
 62
     0
100
AcDbPoint
 10
-123.4999999999999
 20
300.0
 30
0.0
  0
POINT
  5
18ED
330
13BF
100
AcDbEntity
  8
DEFPOINTS
  6
Continuous
 62
     0
100
AcDbPoint
 10
-123.4999999999999
 20
75.0
 30
0.0
  0
POINT
  5
18EE
330
13BF
100
AcDbEntity
  8
DEFPOINTS
  6
Continuous
 62
     0
100
AcDbPoint
 10
-214.6555151615447
 20
75.00000000000001
 30
0.0
  0
ENDBLK
  5
13CA
330
13BF
100
AcDbEntity
  8
0
100
AcDbBlockEnd
  0
BLOCK
  5
13D5
330
13CB
100
AcDbEntity
  8
0
100
AcDbBlockBegin
  2
*D3
 70
     1
 10
0.0
 20
0.0
 30
0.0
  3
*D3
  1

  0
LINE
  5
197F
330
13CB
100
AcDbEntity
  8
SIZE
  6
Continuous
 62
     0
370
    -2
100
AcDbLine
 10
134.5
 20
320.0
 30
0.0
 11
134.5000000000002
 21
411.6593666390436
 31
0.0
  0
LINE
  5
1980
330
13CB
100
AcDbEntity
  8
SIZE
  6
Continuous
 62
     0
370
    -2
100
AcDbLine
 10
-134.4999999999999
 20
320.0000000000001
 30
0.0
 11
-134.4999999999997
 21
411.6593666390442
 31
0.0
  0
LINE
  5
1981
330
13CB
100
AcDbEntity
  8
SIZE
  6
Continuous
 62
     0
370
    -2
100
AcDbLine
 10
122.5000000000001
 20
391.6593666390438
 30
0.0
 11
-122.4999999999997
 21
391.6593666390442
 31
0.0
  0
INSERT
  5
1982
330
13CB
100
AcDbEntity
  8
SIZE
  6
Continuous
 62
     0
370
    -2
100
AcDbBlockReference
  2
_DOTBLANK
 10
134.5000000000001
 20
391.6593666390438
 30
0.0
 41
12.0
 42
12.0
 43
12.0
 50
359.9999999999998
  0
INSERT
  5
1983
330
13CB
100
AcDbEntity
  8
SIZE
  6
Continuous
 62
     0
370
    -2
100
AcDbBlockReference
  2
_DOTBLANK
 10
-134.4999999999997
 20
391.6593666390442
 30
0.0
 41
12.0
 42
12.0
 43
12.0
 50
179.9999999999999
  0
MTEXT
  5
1984
330
13CB
100
AcDbEntity
  8
SIZE
  6
Continuous
 62
     0
100
AcDbMText
 10
0.0000000000002755
 20
433.659366639044
 30
0.0
 40
64.0
 41
0.0
 71
     5
 72
     1
  1
\A1;269
 73
     1
 44
1.0
  0
POINT
  5
1985
330
13CB
100
AcDbEntity
  8
DEFPOINTS
  6
Continuous
 62
     0
100
AcDbPoint
 10
134.5
 20
300.0
 30
0.0
  0
POINT
  5
1986
330
13CB
100
AcDbEntity
  8
DEFPOINTS
  6
Continuous
 62
     0
100
AcDbPoint
 10
-134.4999999999999
 20
300.0
 30
0.0
  0
POINT
  5
1987
330
13CB
100
AcDbEntity
  8
DEFPOINTS
  6
Continuous
 62
     0
100
AcDbPoint
 10
-134.4999999999997
 20
391.6593666390442
 30
0.0
  0
ENDBLK
  5
13D6
330
13CB
100
AcDbEntity
  8
0
100
AcDbBlockEnd
  0
BLOCK
  5
13E1
330
13D7
100
AcDbEntity
  8
0
100
AcDbBlockBegin
  2
*D4
 70
     1
 10
0.0
 20
0.0
 30
0.0
  3
*D4
  1

  0
LINE
  5
154C
330
13D7
100
AcDbEntity
  8
SIZE
  6
Continuous
 62
     0
370
    -2
100
AcDbLine
 10
139.9999999999999
 20
-32.46448280219374
 30
0.0
 11
139.9999999999997
 21
-180.3320910096175
 31
0.0
  0
LINE
  5
154D
330
13D7
100
AcDbEntity
  8
SIZE
  6
Continuous
 62
     0
370
    -2
100
AcDbLine
 10
-140.0
 20
-32.46448280219374
 30
0.0
 11
-140.0000000000002
 21
-180.332091009617
 31
0.0
  0
LINE
  5
154E
330
13D7
100
AcDbEntity
  8
SIZE
  6
Continuous
 62
     0
370
    -2
100
AcDbLine
 10
127.9999999999997
 20
-160.3320910096176
 30
0.0
 11
-128.0000000000002
 21
-160.3320910096172
 31
0.0
  0
INSERT
  5
154F
330
13D7
100
AcDbEntity
  8
SIZE
  6
Continuous
 62
     0
370
    -2
100
AcDbBlockReference
  2
_DOTBLANK
 10
139.9999999999997
 20
-160.3320910096176
 30
0.0
 41
12.0
 42
12.0
 43
12.0
 50
359.9999999999998
  0
INSERT
  5
1550
330
13D7
100
AcDbEntity
  8
SIZE
  6
Continuous
 62
     0
370
    -2
100
AcDbBlockReference
  2
_DOTBLANK
 10
-140.0000000000002
 20
-160.3320910096171
 30
0.0
 41
12.0
 42
12.0
 43
12.0
 50
179.9999999999999
  0
MTEXT
  5
1551
330
13D7
100
AcDbEntity
  8
SIZE
  6
Continuous
 62
     0
100
AcDbMText
 10
-0.5558776339944723
 20
-118.3320910096174
 30
0.0
 40
64.0
 41
0.0
 71
     5
 72
     1
  1
\A1;280
 73
     1
 44
1.0
  0
POINT
  5
1552
330
13D7
100
AcDbEntity
  8
DEFPOINTS
  6
Continuous
 62
     0
100
AcDbPoint
 10
140.0
 20
-12.46448280219374
 30
0.0
  0
POINT
  5
1553
330
13D7
100
AcDbEntity
  8
DEFPOINTS
  6
Continuous
 62
     0
100
AcDbPoint
 10
-139.9999999999999
 20
-12.46448280219374
 30
0.0
  0
POINT
  5
1554
330
13D7
100
AcDbEntity
  8
DEFPOINTS
  6
Continuous
 62
     0
100
AcDbPoint
 10
-140.0000000000002
 20
-160.3320910096171
 30
0.0
  0
ENDBLK
  5
13E2
330
13D7
100
AcDbEntity
  8
0
100
AcDbBlockEnd
  0
BLOCK
  5
13ED
330
13E3
100
AcDbEntity
  8
0
100
AcDbBlockBegin
  2
*D5
 70
     1
 10
0.0
 20
0.0
 30
0.0
  3
*D5
  1

  0
LINE
  5
1543
330
13E3
100
AcDbEntity
  8
SIZE
  6
Continuous
 62
     0
370
    -2
100
AcDbLine
 10
157.5
 20
-20.0
 30
0.0
 11
157.4999999999994
 21
-298.8865929365173
 31
0.0
  0
LINE
  5
1544
330
13E3
100
AcDbEntity
  8
SIZE
  6
Continuous
 62
     0
370
    -2
100
AcDbLine
 10
-157.5
 20
-20.0
 30
0.0
 11
-157.5000000000005
 21
-298.8865929365167
 31
0.0
  0
LINE
  5
1545
330
13E3
100
AcDbEntity
  8
SIZE
  6
Continuous
 62
     0
370
    -2
100
AcDbLine
 10
145.4999999999995
 20
-278.8865929365173
 30
0.0
 11
-145.5000000000005
 21
-278.8865929365167
 31
0.0
  0
INSERT
  5
1546
330
13E3
100
AcDbEntity
  8
SIZE
  6
Continuous
 62
     0
370
    -2
100
AcDbBlockReference
  2
_DOTBLANK
 10
157.4999999999995
 20
-278.8865929365173
 30
0.0
 41
12.0
 42
12.0
 43
12.0
 50
359.9999999999998
  0
INSERT
  5
1547
330
13E3
100
AcDbEntity
  8
SIZE
  6
Continuous
 62
     0
370
    -2
100
AcDbBlockReference
  2
_DOTBLANK
 10
-157.5000000000005
 20
-278.8865929365167
 30
0.0
 41
12.0
 42
12.0
 43
12.0
 50
179.9999999999999
  0
MTEXT
  5
1548
330
13E3
100
AcDbEntity
  8
SIZE
  6
Continuous
 62
     0
100
AcDbMText
 10
0.0000000000005481
 20
-236.886592936517
 30
0.0
 40
64.0
 41
0.0
 71
     5
 72
     1
  1
\A1;315
 73
     1
 44
1.0
  0
POINT
  5
1549
330
13E3
100
AcDbEntity
  8
DEFPOINTS
  6
Continuous
 62
     0
100
AcDbPoint
 10
157.5
 20
0.0
 30
0.0
  0
POINT
  5
154A
330
13E3
100
AcDbEntity
  8
DEFPOINTS
  6
Continuous
 62
     0
100
AcDbPoint
 10
-157.5
 20
0.0
 30
0.0
  0
POINT
  5
154B
330
13E3
100
AcDbEntity
  8
DEFPOINTS
  6
Continuous
 62
     0
100
AcDbPoint
 10
-157.5000000000005
 20
-278.8865929365167
 30
0.0
  0
ENDBLK
  5
13EE
330
13E3
100
AcDbEntity
  8
0
100
AcDbBlockEnd
  0
BLOCK
  5
16FC
330
16FA
100
AcDbEntity
  8
0
100
AcDbBlockBegin
  2
GENAXEH
 70
     0
 10
0.0
 20
0.0
 30
0.0
  3
GENAXEH
  1

  0
LINE
  5
16FB
330
16FA
100
AcDbEntity
  8
0
100
AcDbLine
 10
-1.0
 20
0.0
 30
0.0
 11
1.0
 21
0.0
 31
0.0
  0
ENDBLK
  5
16FD
330
16FA
100
AcDbEntity
  8
0
100
AcDbBlockEnd
  0
BLOCK
  5
1854
330
184A
100
AcDbEntity
  8
0
100
AcDbBlockBegin
  2
*D7
 70
     1
 10
0.0
 20
0.0
 30
0.0
  3
*D7
  1

  0
LINE
  5
18D4
330
184A
100
AcDbEntity
  8
SIZE
  6
Continuous
 62
     0
370
    -2
100
AcDbLine
 10
-177.5
 20
0.0000000000000057
 30
0.0
 11
-343.6294636086016
 21
0.0000000000000527
 31
0.0
  0
LINE
  5
18D5
330
184A
100
AcDbEntity
  8
SIZE
  6
Continuous
 62
     0
370
    -2
100
AcDbLine
 10
-143.4999999999999
 20
300.0
 30
0.0
 11
-343.6294636086016
 21
300.0
 31
0.0
  0
LINE
  5
18D6
330
184A
100
AcDbEntity
  8
SIZE
  6
Continuous
 62
     0
370
    -2
100
AcDbLine
 10
-323.6294636086015
 20
12.00000000000003
 30
0.0
 11
-323.6294636086015
 21
288.0000000000001
 31
0.0
  0
INSERT
  5
18D7
330
184A
100
AcDbEntity
  8
SIZE
  6
Continuous
 62
     0
370
    -2
100
AcDbBlockReference
  2
_DOTBLANK
 10
-323.6294636086015
 20
0.0000000000000471
 30
0.0
 41
12.0
 42
12.0
 43
12.0
 50
270.0
  0
INSERT
  5
18D8
330
184A
100
AcDbEntity
  8
SIZE
  6
Continuous
 62
     0
370
    -2
100
AcDbBlockReference
  2
_DOTBLANK
 10
-323.6294636086015
 20
300.0
 30
0.0
 41
12.0
 42
12.0
 43
12.0
 50
90.0
  0
MTEXT
  5
18D9
330
184A
100
AcDbEntity
  8
SIZE
  6
Continuous
 62
     0
100
AcDbMText
 10
-365.6294636086016
 20
150.0
 30
0.0
 40
64.0
 41
0.0
 71
     5
 72
     1
  1
\A1;300
 11
0.0000000000000001
 21
1.0
 31
0.0
 73
     1
 44
1.0
  0
POINT
  5
18DA
330
184A
100
AcDbEntity
  8
DEFPOINTS
  6
Continuous
 62
     0
100
AcDbPoint
 10
-157.5
 20
0.0
 30
0.0
  0
POINT
  5
18DB
330
184A
100
AcDbEntity
  8
DEFPOINTS
  6
Continuous
 62
     0
100
AcDbPoint
 10
-123.4999999999999
 20
300.0
 30
0.0
  0
POINT
  5
18DC
330
184A
100
AcDbEntity
  8
DEFPOINTS
  6
Continuous
 62
     0
100
AcDbPoint
 10
-323.6294636086015
 20
300.0
 30
0.0
  0
ENDBLK
  5
1855
330
184A
100
AcDbEntity
  8
0
100
AcDbBlockEnd
  0
BLOCK
  5
18BE
330
18BD
100
AcDbEntity
  8
0
100
AcDbBlockBegin
  2
*D8
 70
     1
 10
0.0
 20
0.0
 30
0.0
  3
*D8
  1

  0
LINE
  5
18C0
330
18BD
100
AcDbEntity
  8
SIZE
  6
Continuous
 62
     0
370
    -2
100
AcDbLine
 10
123.5
 20
280.0
 30
0.0
 11
123.5
 21
336.8232420977278
 31
0.0
  0
LINE
  5
18C1
330
18BD
100
AcDbEntity
  8
SIZE
  6
Continuous
 62
     0
370
    -2
100
AcDbLine
 10
133.5
 20
291.0
 30
0.0
 11
133.5
 21
336.8232420977278
 31
0.0
  0
LINE
  5
18C2
330
18BD
100
AcDbEntity
  8
SIZE
  6
Continuous
 62
     0
370
    -2
100
AcDbLine
 10
111.5
 20
316.8232420977278
 30
0.0
 11
99.50000000000001
 21
316.8232420977278
 31
0.0
  0
LINE
  5
18C3
330
18BD
100
AcDbEntity
  8
SIZE
  6
Continuous
 62
     0
370
    -2
100
AcDbLine
 10
145.5
 20
316.8232420977278
 30
0.0
 11
157.5
 21
316.8232420977278
 31
0.0
  0
LINE
  5
18C4
330
18BD
100
AcDbEntity
  8
SIZE
  6
Continuous
 62
     0
370
    -2
100
AcDbLine
 10
123.5
 20
316.8232420977278
 30
0.0
 11
133.5
 21
316.8232420977278
 31
0.0
  0
INSERT
  5
18C5
330
18BD
100
AcDbEntity
  8
SIZE
  6
Continuous
 62
     0
370
    -2
100
AcDbBlockReference
  2
_DOTBLANK
 10
123.5
 20
316.8232420977278
 30
0.0
 41
12.0
 42
12.0
 43
12.0
  0
INSERT
  5
18C6
330
18BD
100
AcDbEntity
  8
SIZE
  6
Continuous
 62
     0
370
    -2
100
AcDbBlockReference
  2
_DOTBLANK
 10
133.5
 20
316.8232420977278
 30
0.0
 41
12.0
 42
12.0
 43
12.0
 50
180.0
  0
MTEXT
  5
18C7
330
18BD
100
AcDbEntity
  8
SIZE
  6
Continuous
 62
     0
100
AcDbMText
 10
128.5
 20
358.8232420977278
 30
0.0
 40
64.0
 41
0.0
 71
     5
 72
     1
  1
\A1;10
 73
     1
 44
1.0
  0
POINT
  5
18C8
330
18BD
100
AcDbEntity
  8
DEFPOINTS
  6
Continuous
 62
     0
100
AcDbPoint
 10
123.5
 20
260.0
 30
0.0
  0
POINT
  5
18C9
330
18BD
100
AcDbEntity
  8
DEFPOINTS
  6
Continuous
 62
     0
100
AcDbPoint
 10
133.5
 20
271.0
 30
0.0
  0
POINT
  5
18CA
330
18BD
100
AcDbEntity
  8
DEFPOINTS
  6
Continuous
 62
     0
100
AcDbPoint
 10
133.5
 20
316.8232420977278
 30
0.0
  0
ENDBLK
  5
18BF
330
18BD
100
AcDbEntity
  8
0
100
AcDbBlockEnd
  0
BLOCK
  5
1958
330
1957
100
AcDbEntity
  8
0
100
AcDbBlockBegin
  2
*D9
 70
     1
 10
0.0
 20
0.0
 30
0.0
  3
*D9
  1

  0
LINE
  5
195A
330
1957
100
AcDbEntity
  8
SIZE
  6
Continuous
 62
     0
370
    -2
100
AcDbLine
 10
123.5
 20
320.0
 30
0.0
 11
123.5
 21
341.5778429222677
 31
0.0
  0
LINE
  5
195B
330
1957
100
AcDbEntity
  8
SIZE
  6
Continuous
 62
     0
370
    -2
100
AcDbLine
 10
134.5
 20
332.0
 30
0.0
 11
134.5
 21
341.5778429222677
 31
0.0
  0
LINE
  5
195C
330
1957
100
AcDbEntity
  8
SIZE
  6
Continuous
 62
     0
370
    -2
100
AcDbLine
 10
111.5
 20
321.5778429222677
 30
0.0
 11
99.50000000000001
 21
321.5778429222677
 31
0.0
  0
LINE
  5
195D
330
1957
100
AcDbEntity
  8
SIZE
  6
Continuous
 62
     0
370
    -2
100
AcDbLine
 10
146.5
 20
321.5778429222677
 30
0.0
 11
158.5
 21
321.5778429222677
 31
0.0
  0
LINE
  5
195E
330
1957
100
AcDbEntity
  8
SIZE
  6
Continuous
 62
     0
370
    -2
100
AcDbLine
 10
123.5
 20
321.5778429222677
 30
0.0
 11
134.5
 21
321.5778429222677
 31
0.0
  0
INSERT
  5
195F
330
1957
100
AcDbEntity
  8
SIZE
  6
Continuous
 62
     0
370
    -2
100
AcDbBlockReference
  2
_DOTBLANK
 10
123.5
 20
321.5778429222677
 30
0.0
 41
12.0
 42
12.0
 43
12.0
  0
INSERT
  5
1960
330
1957
100
AcDbEntity
  8
SIZE
  6
Continuous
 62
     0
370
    -2
100
AcDbBlockReference
  2
_DOTBLANK
 10
134.5
 20
321.5778429222677
 30
0.0
 41
12.0
 42
12.0
 43
12.0
 50
180.0
  0
MTEXT
  5
1961
330
1957
100
AcDbEntity
  8
SIZE
  6
Continuous
 62
     0
100
AcDbMText
 10
129.0
 20
363.5778429222677
 30
0.0
 40
64.0
 41
0.0
 71
     5
 72
     1
  1
\A1;11
 73
     1
 44
1.0
  0
POINT
  5
1962
330
1957
100
AcDbEntity
  8
DEFPOINTS
  6
Continuous
 62
     0
100
AcDbPoint
 10
123.5
 20
300.0
 30
0.0
  0
POINT
  5
1963
330
1957
100
AcDbEntity
  8
DEFPOINTS
  6
Continuous
 62
     0
100
AcDbPoint
 10
134.5
 20
312.0
 30
0.0
  0
POINT
  5
1964
330
1957
100
AcDbEntity
  8
DEFPOINTS
  6
Continuous
 62
     0
100
AcDbPoint
 10
134.5
 20
321.5778429222677
 30
0.0
  0
ENDBLK
  5
1959
330
1957
100
AcDbEntity
  8
0
100
AcDbBlockEnd
  0
BLOCK
  5
1A79
330
1A78
100
AcDbEntity
  8
0
100
AcDbBlockBegin
  2
_Open30
 70
     0
 10
0.0
 20
0.0
 30
0.0
  3
_Open30
  1

  0
LINE
  5
1A7A
330
1A78
100
AcDbEntity
  8
0
  6
ByBlock
 62
     0
370
    -2
100
AcDbLine
 10
-1.0
 20
0.26794919
 30
0.0
 11
0.0
 21
0.0
 31
0.0
  0
LINE
  5
1A7B
330
1A78
100
AcDbEntity
  8
0
  6
ByBlock
 62
     0
370
    -2
100
AcDbLine
 10
0.0
 20
0.0
 30
0.0
 11
-1.0
 21
-0.26794919
 31
0.0
  0
LINE
  5
1A7C
330
1A78
100
AcDbEntity
  8
0
  6
ByBlock
 62
     0
370
    -2
100
AcDbLine
 10
0.0
 20
0.0
 30
0.0
 11
-1.0
 21
0.0
 31
0.0
  0
ENDBLK
  5
1A7D
330
1A78
100
AcDbEntity
  8
0
100
AcDbBlockEnd
  0
BLOCK
  5
1A7F
330
1A7E
100
AcDbEntity
  8
0
100
AcDbBlockBegin
  2
*D11
 70
     1
 10
0.0
 20
0.0
 30
0.0
  3
*D11
  1

  0
LINE
  5
1A80
330
1A7E
100
AcDbEntity
  8
SIZE
 62
     0
370
    -2
100
AcDbLine
 10
-43463.54745323373
 20
-411.3519744392156
 30
0.0
 11
-43463.54745323373
 21
-555.3096682655803
 31
0.0
  0
LINE
  5
1A81
330
1A7E
100
AcDbEntity
  8
SIZE
 62
     0
370
    -2
100
AcDbLine
 10
-42825.54745323372
 20
-411.3519744392155
 30
0.0
 11
-42825.54745323372
 21
-555.3096682655803
 31
0.0
  0
LINE
  5
1A82
330
1A7E
100
AcDbEntity
  8
SIZE
 62
     0
370
    -2
100
AcDbLine
 10
-43451.54745323373
 20
-535.3096682655805
 30
0.0
 11
-42837.54745323373
 21
-535.3096682655805
 31
0.0
  0
INSERT
  5
1A83
330
1A7E
100
AcDbEntity
  8
SIZE
 62
     0
370
    -2
100
AcDbBlockReference
  2
_DOTBLANK
 10
-43463.54745323373
 20
-535.3096682655805
 30
0.0
 41
12.0
 42
12.0
 43
12.0
 50
180.0
  0
INSERT
  5
1A84
330
1A7E
100
AcDbEntity
  8
SIZE
 62
     0
370
    -2
100
AcDbBlockReference
  2
_DOTBLANK
 10
-42825.54745323372
 20
-535.3096682655805
 30
0.0
 41
12.0
 42
12.0
 43
12.0
  0
MTEXT
  5
1A85
330
1A7E
100
AcDbEntity
  8
SIZE
 62
     0
100
AcDbMText
 10
-43144.54745323373
 20
-493.3096682655805
 30
0.0
 40
64.0
 41
0.0
 71
     5
 72
     1
  1
\A1;638
 73
     1
 44
1.0
  0
POINT
  5
1A86
330
1A7E
100
AcDbEntity
  8
DEFPOINTS
 62
     0
100
AcDbPoint
 10
-43463.54745323373
 20
-391.3519744392159
 30
0.0
  0
POINT
  5
1A87
330
1A7E
100
AcDbEntity
  8
DEFPOINTS
 62
     0
100
AcDbPoint
 10
-42825.54745323372
 20
-391.3519744392155
 30
0.0
  0
POINT
  5
1A88
330
1A7E
100
AcDbEntity
  8
DEFPOINTS
 62
     0
100
AcDbPoint
 10
-42825.54745323372
 20
-535.3096682655805
 30
0.0
  0
ENDBLK
  5
1A89
330
1A7E
100
AcDbEntity
  8
0
100
AcDbBlockEnd
  0
BLOCK
  5
1A8B
330
1A8A
100
AcDbEntity
  8
0
100
AcDbBlockBegin
  2
*D12
 70
     1
 10
0.0
 20
0.0
 30
0.0
  3
*D12
  1

  0
LINE
  5
1A8C
330
1A8A
100
AcDbEntity
  8
SIZE
 62
     0
370
    -2
100
AcDbLine
 10
-43469.54745323373
 20
-410.5519744392156
 30
0.0
 11
-43469.54745323373
 21
-658.6163768251707
 31
0.0
  0
LINE
  5
1A8D
330
1A8A
100
AcDbEntity
  8
SIZE
 62
     0
370
    -2
100
AcDbLine
 10
-42819.54745323373
 20
-410.5519744392156
 30
0.0
 11
-42819.54745323373
 21
-658.6163768251707
 31
0.0
  0
LINE
  5
1A8E
330
1A8A
100
AcDbEntity
  8
SIZE
 62
     0
370
    -2
100
AcDbLine
 10
-43457.54745323373
 20
-638.6163768251707
 30
0.0
 11
-42831.54745323373
 21
-638.6163768251707
 31
0.0
  0
INSERT
  5
1A8F
330
1A8A
100
AcDbEntity
  8
SIZE
 62
     0
370
    -2
100
AcDbBlockReference
  2
_DOTBLANK
 10
-43469.54745323373
 20
-638.6163768251707
 30
0.0
 41
12.0
 42
12.0
 43
12.0
 50
180.0
  0
INSERT
  5
1A90
330
1A8A
100
AcDbEntity
  8
SIZE
 62
     0
370
    -2
100
AcDbBlockReference
  2
_DOTBLANK
 10
-42819.54745323373
 20
-638.6163768251707
 30
0.0
 41
12.0
 42
12.0
 43
12.0
  0
MTEXT
  5
1A91
330
1A8A
100
AcDbEntity
  8
SIZE
 62
     0
100
AcDbMText
 10
-43144.54745323373
 20
-596.6163768251707
 30
0.0
 40
64.0
 41
0.0
 71
     5
 72
     1
  1
\A1;650
 73
     1
 44
1.0
  0
POINT
  5
1A92
330
1A8A
100
AcDbEntity
  8
DEFPOINTS
 62
     0
100
AcDbPoint
 10
-43469.54745323373
 20
-390.551974439216
 30
0.0
  0
POINT
  5
1A93
330
1A8A
100
AcDbEntity
  8
DEFPOINTS
 62
     0
100
AcDbPoint
 10
-42819.54745323373
 20
-390.5519744392158
 30
0.0
  0
POINT
  5
1A94
330
1A8A
100
AcDbEntity
  8
DEFPOINTS
 62
     0
100
AcDbPoint
 10
-42819.54745323373
 20
-638.6163768251707
 30
0.0
  0
ENDBLK
  5
1A95
330
1A8A
100
AcDbEntity
  8
0
100
AcDbBlockEnd
  0
BLOCK
  5
1A97
330
1A96
100
AcDbEntity
  8
0
100
AcDbBlockBegin
  2
*D13
 70
     1
 10
0.0
 20
0.0
 30
0.0
  3
*D13
  1

  0
LINE
  5
1A98
330
1A96
100
AcDbEntity
  8
SIZE
 62
     0
370
    -2
100
AcDbLine
 10
-43489.54745323373
 20
-390.551974439216
 30
0.0
 11
-43567.14630723133
 21
-390.551974439216
 31
0.0
  0
LINE
  5
1A99
330
1A96
100
AcDbEntity
  8
SIZE
 62
     0
370
    -2
100
AcDbLine
 10
-43485.54745323373
 20
-84.4321907148514
 30
0.0
 11
-43567.14630723133
 21
-84.43219071485136
 31
0.0
  0
LINE
  5
1A9A
330
1A96
100
AcDbEntity
  8
SIZE
 62
     0
370
    -2
100
AcDbLine
 10
-43547.14630723133
 20
-378.551974439216
 30
0.0
 11
-43547.14630723133
 21
-96.43219071485141
 31
0.0
  0
INSERT
  5
1A9B
330
1A96
100
AcDbEntity
  8
SIZE
 62
     0
370
    -2
100
AcDbBlockReference
  2
_DOTBLANK
 10
-43547.14630723133
 20
-390.551974439216
 30
0.0
 41
12.0
 42
12.0
 43
12.0
 50
270.0
  0
INSERT
  5
1A9C
330
1A96
100
AcDbEntity
  8
SIZE
 62
     0
370
    -2
100
AcDbBlockReference
  2
_DOTBLANK
 10
-43547.14630723133
 20
-84.43219071485136
 30
0.0
 41
12.0
 42
12.0
 43
12.0
 50
90.0
  0
MTEXT
  5
1A9D
330
1A96
100
AcDbEntity
  8
SIZE
 62
     0
100
AcDbMText
 10
-43589.14630723133
 20
-237.4920825770407
 30
0.0
 40
64.0
 41
0.0
 71
     5
 72
     1
  1
\A1;306
 11
0.0000000000000001
 21
1.0
 31
0.0
 73
     1
 44
1.0
  0
POINT
  5
1A9E
330
1A96
100
AcDbEntity
  8
DEFPOINTS
 62
     0
100
AcDbPoint
 10
-43469.54745323373
 20
-390.551974439216
 30
0.0
  0
POINT
  5
1A9F
330
1A96
100
AcDbEntity
  8
DEFPOINTS
 62
     0
100
AcDbPoint
 10
-43465.54745323373
 20
-84.4321907148514
 30
0.0
  0
POINT
  5
1AA0
330
1A96
100
AcDbEntity
  8
DEFPOINTS
 62
     0
100
AcDbPoint
 10
-43547.14630723133
 20
-84.43219071485136
 30
0.0
  0
ENDBLK
  5
1AA1
330
1A96
100
AcDbEntity
  8
0
100
AcDbBlockEnd
  0
BLOCK
  5
1CB2
330
1CB1
100
AcDbEntity
  8
0
100
AcDbBlockBegin
  2
*D14
 70
     1
 10
0.0
 20
0.0
 30
0.0
  3
*D14
  1

  0
LINE
  5
1CD5
330
1CB1
100
AcDbEntity
  8
SIZE
 62
     0
370
    -2
100
AcDbLine
 10
-319.0
 20
-20.80000000000075
 30
0.0
 11
-319.0
 21
-164.7576938263653
 31
0.0
  0
LINE
  5
1CD6
330
1CB1
100
AcDbEntity
  8
SIZE
 62
     0
370
    -2
100
AcDbLine
 10
319.0
 20
-20.8000000000003
 30
0.0
 11
319.0
 21
-164.7576938263653
 31
0.0
  0
LINE
  5
1CD7
330
1CB1
100
AcDbEntity
  8
SIZE
 62
     0
370
    -2
100
AcDbLine
 10
-307.0
 20
-144.7576938263653
 30
0.0
 11
307.0
 21
-144.7576938263653
 31
0.0
  0
INSERT
  5
1CD8
330
1CB1
100
AcDbEntity
  8
SIZE
 62
     0
370
    -2
100
AcDbBlockReference
  2
_DOTBLANK
 10
-319.0
 20
-144.7576938263653
 30
0.0
 41
12.0
 42
12.0
 43
12.0
 50
180.0
  0
INSERT
  5
1CD9
330
1CB1
100
AcDbEntity
  8
SIZE
 62
     0
370
    -2
100
AcDbBlockReference
  2
_DOTBLANK
 10
319.0
 20
-144.7576938263653
 30
0.0
 41
12.0
 42
12.0
 43
12.0
  0
MTEXT
  5
1CDA
330
1CB1
100
AcDbEntity
  8
SIZE
 62
     0
100
AcDbMText
 10
0.0000000000000026
 20
-102.7576938263653
 30
0.0
 40
64.0
 41
0.0
 71
     5
 72
     1
  1
\A1;638
 73
     1
 44
1.0
  0
POINT
  5
1CDB
330
1CB1
100
AcDbEntity
  8
DEFPOINTS
 62
     0
100
AcDbPoint
 10
-319.0
 20
-0.8000000000007503
 30
0.0
  0
POINT
  5
1CDC
330
1CB1
100
AcDbEntity
  8
DEFPOINTS
 62
     0
100
AcDbPoint
 10
319.0
 20
-0.8000000000002954
 30
0.0
  0
POINT
  5
1CDD
330
1CB1
100
AcDbEntity
  8
DEFPOINTS
 62
     0
100
AcDbPoint
 10
319.0
 20
-144.7576938263653
 30
0.0
  0
ENDBLK
  5
1CB3
330
1CB1
100
AcDbEntity
  8
0
100
AcDbBlockEnd
  0
BLOCK
  5
1CBE
330
1CBD
100
AcDbEntity
  8
0
100
AcDbBlockBegin
  2
*D15
 70
     1
 10
0.0
 20
0.0
 30
0.0
  3
*D15
  1

  0
LINE
  5
1CDE
330
1CBD
100
AcDbEntity
  8
SIZE
 62
     0
370
    -2
100
AcDbLine
 10
-325.0
 20
-20.00000000000079
 30
0.0
 11
-325.0
 21
-268.0644023859557
 31
0.0
  0
LINE
  5
1CDF
330
1CBD
100
AcDbEntity
  8
SIZE
 62
     0
370
    -2
100
AcDbLine
 10
325.0
 20
-20.00000000000057
 30
0.0
 11
325.0
 21
-268.0644023859557
 31
0.0
  0
LINE
  5
1CE0
330
1CBD
100
AcDbEntity
  8
SIZE
 62
     0
370
    -2
100
AcDbLine
 10
-313.0
 20
-248.0644023859556
 30
0.0
 11
313.0
 21
-248.0644023859556
 31
0.0
  0
INSERT
  5
1CE1
330
1CBD
100
AcDbEntity
  8
SIZE
 62
     0
370
    -2
100
AcDbBlockReference
  2
_DOTBLANK
 10
-325.0
 20
-248.0644023859556
 30
0.0
 41
12.0
 42
12.0
 43
12.0
 50
180.0
  0
INSERT
  5
1CE2
330
1CBD
100
AcDbEntity
  8
SIZE
 62
     0
370
    -2
100
AcDbBlockReference
  2
_DOTBLANK
 10
325.0
 20
-248.0644023859556
 30
0.0
 41
12.0
 42
12.0
 43
12.0
  0
MTEXT
  5
1CE3
330
1CBD
100
AcDbEntity
  8
SIZE
 62
     0
100
AcDbMText
 10
0.0000000000000026
 20
-206.0644023859556
 30
0.0
 40
64.0
 41
0.0
 71
     5
 72
     1
  1
\A1;650
 73
     1
 44
1.0
  0
POINT
  5
1CE4
330
1CBD
100
AcDbEntity
  8
DEFPOINTS
 62
     0
100
AcDbPoint
 10
-325.0
 20
-0.0000000000007958
 30
0.0
  0
POINT
  5
1CE5
330
1CBD
100
AcDbEntity
  8
DEFPOINTS
 62
     0
100
AcDbPoint
 10
325.0
 20
-0.0000000000005684
 30
0.0
  0
POINT
  5
1CE6
330
1CBD
100
AcDbEntity
  8
DEFPOINTS
 62
     0
100
AcDbPoint
 10
325.0
 20
-248.0644023859556
 30
0.0
  0
ENDBLK
  5
1CBF
330
1CBD
100
AcDbEntity
  8
0
100
AcDbBlockEnd
  0
BLOCK
  5
1CCA
330
1CC9
100
AcDbEntity
  8
0
100
AcDbBlockBegin
  2
*D16
 70
     1
 10
0.0
 20
0.0
 30
0.0
  3
*D16
  1

  0
LINE
  5
1CE7
330
1CC9
100
AcDbEntity
  8
SIZE
 62
     0
370
    -2
100
AcDbLine
 10
-345.0
 20
-0.0000000000007901
 30
0.0
 11
-422.5988539976023
 21
-0.0000000000007682
 31
0.0
  0
LINE
  5
1CE8
330
1CC9
100
AcDbEntity
  8
SIZE
 62
     0
370
    -2
100
AcDbLine
 10
-341.0
 20
306.1197837243637
 30
0.0
 11
-422.5988539976023
 21
306.1197837243638
 31
0.0
  0
LINE
  5
1CE9
330
1CC9
100
AcDbEntity
  8
SIZE
 62
     0
370
    -2
100
AcDbLine
 10
-402.5988539976021
 20
11.99999999999922
 30
0.0
 11
-402.5988539976021
 21
294.1197837243638
 31
0.0
  0
INSERT
  5
1CEA
330
1CC9
100
AcDbEntity
  8
SIZE
 62
     0
370
    -2
100
AcDbBlockReference
  2
_DOTBLANK
 10
-402.5988539976021
 20
-0.0000000000007738
 30
0.0
 41
12.0
 42
12.0
 43
12.0
 50
270.0
  0
INSERT
  5
1CEB
330
1CC9
100
AcDbEntity
  8
SIZE
 62
     0
370
    -2
100
AcDbBlockReference
  2
_DOTBLANK
 10
-402.5988539976021
 20
306.1197837243638
 30
0.0
 41
12.0
 42
12.0
 43
12.0
 50
90.0
  0
MTEXT
  5
1CEC
330
1CC9
100
AcDbEntity
  8
SIZE
 62
     0
100
AcDbMText
 10
-444.5988539976021
 20
153.0598918621814
 30
0.0
 40
64.0
 41
0.0
 71
     5
 72
     1
  1
\A1;306
 11
0.0000000000000001
 21
1.0
 31
0.0
 73
     1
 44
1.0
  0
POINT
  5
1CED
330
1CC9
100
AcDbEntity
  8
DEFPOINTS
 62
     0
100
AcDbPoint
 10
-325.0
 20
-0.0000000000007958
 30
0.0
  0
POINT
  5
1CEE
330
1CC9
100
AcDbEntity
  8
DEFPOINTS
 62
     0
100
AcDbPoint
 10
-321.0
 20
306.1197837243637
 30
0.0
  0
POINT
  5
1CEF
330
1CC9
100
AcDbEntity
  8
DEFPOINTS
 62
     0
100
AcDbPoint
 10
-402.5988539976021
 20
306.1197837243638
 30
0.0
  0
ENDBLK
  5
1CCB
330
1CC9
100
AcDbEntity
  8
0
100
AcDbBlockEnd
  0
BLOCK
  5
1DE6
330
1DE5
100
AcDbEntity
  8
0
100
AcDbBlockBegin
  2
*D17
 70
     1
 10
0.0
 20
0.0
 30
0.0
  3
*D17
  1

  0
LINE
  5
1DE7
330
1DE5
100
AcDbEntity
  8
SIZE
  6
Continuous
 62
     0
370
    -2
100
AcDbLine
 10
-45352.33759954458
 20
-2282.050271310774
 30
0.0
 11
-45494.24800689807
 21
-2282.050271310774
 31
0.0
  0
LINE
  5
1DE8
330
1DE5
100
AcDbEntity
  8
SIZE
  6
Continuous
 62
     0
370
    -2
100
AcDbLine
 10
-45352.23759954456
 20
-1976.187258608613
 30
0.0
 11
-45494.24800689807
 21
-1976.187258608613
 31
0.0
  0
LINE
  5
1DE9
330
1DE5
100
AcDbEntity
  8
SIZE
  6
Continuous
 62
     0
370
    -2
100
AcDbLine
 10
-45474.24800689809
 20
-2270.050271310775
 30
0.0
 11
-45474.24800689809
 21
-1988.187258608613
 31
0.0
  0
INSERT
  5
1DEA
330
1DE5
100
AcDbEntity
  8
SIZE
  6
Continuous
 62
     0
370
    -2
100
AcDbBlockReference
  2
_DOTBLANK
 10
-45474.24800689809
 20
-2282.050271310774
 30
0.0
 41
12.0
 42
12.0
 43
12.0
 50
270.0
  0
INSERT
  5
1DEB
330
1DE5
100
AcDbEntity
  8
SIZE
  6
Continuous
 62
     0
370
    -2
100
AcDbBlockReference
  2
_DOTBLANK
 10
-45474.24800689809
 20
-1976.187258608613
 30
0.0
 41
12.0
 42
12.0
 43
12.0
 50
90.0
  0
MTEXT
  5
1DEC
330
1DE5
100
AcDbEntity
  8
SIZE
  6
Continuous
 62
     0
100
AcDbMText
 10
-45516.24800689809
 20
-2129.118764959701
 30
0.0
 40
64.0
 41
0.0
 71
     5
 72
     1
  1
\A1;306
 11
0.0000000000000001
 21
1.0
 31
0.0
 73
     1
 44
1.0
  0
POINT
  5
1DED
330
1DE5
100
AcDbEntity
  8
DEFPOINTS
  6
Continuous
 62
     0
100
AcDbPoint
 10
-45332.33759954458
 20
-2282.050271310774
 30
0.0
  0
POINT
  5
1DEE
330
1DE5
100
AcDbEntity
  8
DEFPOINTS
  6
Continuous
 62
     0
100
AcDbPoint
 10
-45332.23759954458
 20
-1976.187258608613
 30
0.0
  0
POINT
  5
1DEF
330
1DE5
100
AcDbEntity
  8
DEFPOINTS
  6
Continuous
 62
     0
100
AcDbPoint
 10
-45474.24800689809
 20
-1976.187258608613
 30
0.0
  0
ENDBLK
  5
1DF0
330
1DE5
100
AcDbEntity
  8
0
100
AcDbBlockEnd
  0
BLOCK
  5
1DF2
330
1DF1
100
AcDbEntity
  8
0
100
AcDbBlockBegin
  2
*D18
 70
     1
 10
0.0
 20
0.0
 30
0.0
  3
*D18
  1

  0
LINE
  5
1DF3
330
1DF1
100
AcDbEntity
  8
SIZE
  6
Continuous
 62
     0
370
    -2
100
AcDbLine
 10
-44574.23759954457
 20
-1976.187258608575
 30
0.0
 11
-44370.06437199388
 21
-1976.187258608575
 31
0.0
  0
LINE
  5
1DF4
330
1DF1
100
AcDbEntity
  8
SIZE
  6
Continuous
 62
     0
370
    -2
100
AcDbLine
 10
-44574.13759954458
 20
-2276.050271310776
 30
0.0
 11
-44370.06437199388
 21
-2276.050271310776
 31
0.0
  0
LINE
  5
1DF5
330
1DF1
100
AcDbEntity
  8
SIZE
  6
Continuous
 62
     0
370
    -2
100
AcDbLine
 10
-44390.06437199386
 20
-1988.187258608576
 30
0.0
 11
-44390.06437199386
 21
-2264.050271310775
 31
0.0
  0
INSERT
  5
1DF6
330
1DF1
100
AcDbEntity
  8
SIZE
  6
Continuous
 62
     0
370
    -2
100
AcDbBlockReference
  2
_DOTBLANK
 10
-44390.06437199386
 20
-1976.187258608575
 30
0.0
 41
12.0
 42
12.0
 43
12.0
 50
90.0
  0
INSERT
  5
1DF7
330
1DF1
100
AcDbEntity
  8
SIZE
  6
Continuous
 62
     0
370
    -2
100
AcDbBlockReference
  2
_DOTBLANK
 10
-44390.06437199386
 20
-2276.050271310776
 30
0.0
 41
12.0
 42
12.0
 43
12.0
 50
270.0
  0
MTEXT
  5
1DF8
330
1DF1
100
AcDbEntity
  8
SIZE
  6
Continuous
 62
     0
100
AcDbMText
 10
-44432.06437199386
 20
-2126.118764959683
 30
0.0
 40
64.0
 41
0.0
 71
     5
 72
     1
  1
\A1;300
 11
0.0000000000000001
 21
1.0
 31
0.0
 73
     1
 44
1.0
  0
POINT
  5
1DF9
330
1DF1
100
AcDbEntity
  8
DEFPOINTS
  6
Continuous
 62
     0
100
AcDbPoint
 10
-44594.23759954456
 20
-1976.187258608575
 30
0.0
  0
POINT
  5
1DFA
330
1DF1
100
AcDbEntity
  8
DEFPOINTS
  6
Continuous
 62
     0
100
AcDbPoint
 10
-44594.13759954458
 20
-2276.050271310776
 30
0.0
  0
POINT
  5
1DFB
330
1DF1
100
AcDbEntity
  8
DEFPOINTS
  6
Continuous
 62
     0
100
AcDbPoint
 10
-44390.06437199386
 20
-2276.050271310776
 30
0.0
  0
ENDBLK
  5
1DFC
330
1DF1
100
AcDbEntity
  8
0
100
AcDbBlockEnd
  0
BLOCK
  5
1DFE
330
1DFD
100
AcDbEntity
  8
0
100
AcDbBlockBegin
  2
*D19
 70
     1
 10
0.0
 20
0.0
 30
0.0
  3
*D19
  1

  0
LINE
  5
1DFF
330
1DFD
100
AcDbEntity
  8
SIZE
  6
Continuous
 62
     0
370
    -2
100
AcDbLine
 10
-45324.73759954458
 20
-2309.550271310773
 30
0.0
 11
-45324.73759954458
 21
-2555.274103917217
 31
0.0
  0
LINE
  5
1E00
330
1DFD
100
AcDbEntity
  8
SIZE
  6
Continuous
 62
     0
370
    -2
100
AcDbLine
 10
-44602.73759954458
 20
-2303.550271310773
 30
0.0
 11
-44602.73759954458
 21
-2555.274103917217
 31
0.0
  0
LINE
  5
1E01
330
1DFD
100
AcDbEntity
  8
SIZE
  6
Continuous
 62
     0
370
    -2
100
AcDbLine
 10
-45312.73759954459
 20
-2535.274103917217
 30
0.0
 11
-44614.73759954458
 21
-2535.274103917217
 31
0.0
  0
INSERT
  5
1E02
330
1DFD
100
AcDbEntity
  8
SIZE
  6
Continuous
 62
     0
370
    -2
100
AcDbBlockReference
  2
_DOTBLANK
 10
-45324.73759954458
 20
-2535.274103917217
 30
0.0
 41
12.0
 42
12.0
 43
12.0
 50
180.0
  0
INSERT
  5
1E03
330
1DFD
100
AcDbEntity
  8
SIZE
  6
Continuous
 62
     0
370
    -2
100
AcDbBlockReference
  2
_DOTBLANK
 10
-44602.73759954458
 20
-2535.274103917217
 30
0.0
 41
12.0
 42
12.0
 43
12.0
  0
MTEXT
  5
1E04
330
1DFD
100
AcDbEntity
  8
SIZE
  6
Continuous
 62
     0
100
AcDbMText
 10
-44963.73759954458
 20
-2493.274103917217
 30
0.0
 40
64.0
 41
0.0
 71
     5
 72
     1
  1
\A1;722
 73
     1
 44
1.0
  0
POINT
  5
1E05
330
1DFD
100
AcDbEntity
  8
DEFPOINTS
  6
Continuous
 62
     0
100
AcDbPoint
 10
-45324.73759954458
 20
-2289.550271310773
 30
0.0
  0
POINT
  5
1E06
330
1DFD
100
AcDbEntity
  8
DEFPOINTS
  6
Continuous
 62
     0
100
AcDbPoint
 10
-44602.73759954458
 20
-2283.550271310773
 30
0.0
  0
POINT
  5
1E07
330
1DFD
100
AcDbEntity
  8
DEFPOINTS
  6
Continuous
 62
     0
100
AcDbPoint
 10
-44602.73759954458
 20
-2535.274103917217
 30
0.0
  0
ENDBLK
  5
1E08
330
1DFD
100
AcDbEntity
  8
0
100
AcDbBlockEnd
  0
BLOCK
  5
1E0A
330
1E09
100
AcDbEntity
  8
0
100
AcDbBlockBegin
  2
*D20
 70
     1
 10
0.0
 20
0.0
 30
0.0
  3
*D20
  1

  0
LINE
  5
1E0B
330
1E09
100
AcDbEntity
  8
SIZE
  6
Continuous
 62
     0
370
    -2
100
AcDbLine
 10
-45333.23759954458
 20
-2301.150271310774
 30
0.0
 11
-45333.23759954458
 21
-2680.179391695299
 31
0.0
  0
LINE
  5
1E0C
330
1E09
100
AcDbEntity
  8
SIZE
  6
Continuous
 62
     0
370
    -2
100
AcDbLine
 10
-44593.23759954457
 20
-2295.150271310776
 30
0.0
 11
-44593.23759954457
 21
-2680.179391695299
 31
0.0
  0
LINE
  5
1E0D
330
1E09
100
AcDbEntity
  8
SIZE
  6
Continuous
 62
     0
370
    -2
100
AcDbLine
 10
-45321.23759954458
 20
-2660.1793916953
 30
0.0
 11
-44605.23759954456
 21
-2660.1793916953
 31
0.0
  0
INSERT
  5
1E0E
330
1E09
100
AcDbEntity
  8
SIZE
  6
Continuous
 62
     0
370
    -2
100
AcDbBlockReference
  2
_DOTBLANK
 10
-45333.23759954458
 20
-2660.1793916953
 30
0.0
 41
12.0
 42
12.0
 43
12.0
 50
180.0
  0
INSERT
  5
1E0F
330
1E09
100
AcDbEntity
  8
SIZE
  6
Continuous
 62
     0
370
    -2
100
AcDbBlockReference
  2
_DOTBLANK
 10
-44593.23759954457
 20
-2660.1793916953
 30
0.0
 41
12.0
 42
12.0
 43
12.0
  0
MTEXT
  5
1E10
330
1E09
100
AcDbEntity
  8
SIZE
  6
Continuous
 62
     0
100
AcDbMText
 10
-44963.23759954456
 20
-2618.179391695298
 30
0.0
 40
64.0
 41
0.0
 71
     5
 72
     1
  1
\A1;740
 73
     1
 44
1.0
  0
POINT
  5
1E11
330
1E09
100
AcDbEntity
  8
DEFPOINTS
  6
Continuous
 62
     0
100
AcDbPoint
 10
-45333.23759954458
 20
-2281.150271310774
 30
0.0
  0
POINT
  5
1E12
330
1E09
100
AcDbEntity
  8
DEFPOINTS
  6
Continuous
 62
     0
100
AcDbPoint
 10
-44593.23759954457
 20
-2275.150271310775
 30
0.0
  0
POINT
  5
1E13
330
1E09
100
AcDbEntity
  8
DEFPOINTS
  6
Continuous
 62
     0
100
AcDbPoint
 10
-44593.23759954457
 20
-2660.1793916953
 30
0.0
  0
ENDBLK
  5
1E14
330
1E09
100
AcDbEntity
  8
0
100
AcDbBlockEnd
  0
BLOCK
  5
1E16
330
1E15
100
AcDbEntity
  8
0
100
AcDbBlockBegin
  2
*D21
 70
     1
 10
0.0
 20
0.0
 30
0.0
  3
*D21
  1

  0
LINE
  5
1E17
330
1E15
100
AcDbEntity
  8
SIZE
  6
Continuous
 62
     0
370
    -2
100
AcDbLine
 10
-44939.73759954458
 20
-2303.03278814193
 30
0.0
 11
-44939.73759954458
 21
-2419.61707004268
 31
0.0
  0
LINE
  5
1E18
330
1E15
100
AcDbEntity
  8
SIZE
  6
Continuous
 62
     0
370
    -2
100
AcDbLine
 10
-45243.73759954458
 20
-2303.03278814193
 30
0.0
 11
-45243.73759954458
 21
-2419.61707004268
 31
0.0
  0
LINE
  5
1E19
330
1E15
100
AcDbEntity
  8
SIZE
  6
Continuous
 62
     0
370
    -2
100
AcDbLine
 10
-44951.73759954458
 20
-2399.61707004268
 30
0.0
 11
-45231.73759954458
 21
-2399.61707004268
 31
0.0
  0
INSERT
  5
1E1A
330
1E15
100
AcDbEntity
  8
SIZE
  6
Continuous
 62
     0
370
    -2
100
AcDbBlockReference
  2
_DOTBLANK
 10
-44939.73759954458
 20
-2399.61707004268
 30
0.0
 41
12.0
 42
12.0
 43
12.0
  0
INSERT
  5
1E1B
330
1E15
100
AcDbEntity
  8
SIZE
  6
Continuous
 62
     0
370
    -2
100
AcDbBlockReference
  2
_DOTBLANK
 10
-45243.73759954458
 20
-2399.61707004268
 30
0.0
 41
12.0
 42
12.0
 43
12.0
 50
180.0
  0
MTEXT
  5
1E1C
330
1E15
100
AcDbEntity
  8
SIZE
  6
Continuous
 62
     0
100
AcDbMText
 10
-45091.73759954459
 20
-2357.61707004268
 30
0.0
 40
64.0
 41
0.0
 71
     5
 72
     1
  1
\A1;304
 73
     1
 44
1.0
  0
POINT
  5
1E1D
330
1E15
100
AcDbEntity
  8
DEFPOINTS
  6
Continuous
 62
     0
100
AcDbPoint
 10
-44939.73759954458
 20
-2283.03278814193
 30
0.0
  0
POINT
  5
1E1E
330
1E15
100
AcDbEntity
  8
DEFPOINTS
  6
Continuous
 62
     0
100
AcDbPoint
 10
-45243.73759954458
 20
-2283.03278814193
 30
0.0
  0
POINT
  5
1E1F
330
1E15
100
AcDbEntity
  8
DEFPOINTS
  6
Continuous
 62
     0
100
AcDbPoint
 10
-45243.73759954458
 20
-2399.61707004268
 30
0.0
  0
ENDBLK
  5
1E20
330
1E15
100
AcDbEntity
  8
0
100
AcDbBlockEnd
  0
BLOCK
  5
1E22
330
1E21
100
AcDbEntity
  8
0
100
AcDbBlockBegin
  2
*D22
 70
     1
 10
0.0
 20
0.0
 30
0.0
  3
*D22
  1

  0
LINE
  5
1E23
330
1E21
100
AcDbEntity
  8
SIZE
  6
Continuous
 62
     0
370
    -2
100
AcDbLine
 10
-44939.73759954458
 20
-2303.03278814193
 30
0.0
 11
-44939.73759954458
 21
-2419.61707004268
 31
0.0
  0
LINE
  5
1E24
330
1E21
100
AcDbEntity
  8
SIZE
  6
Continuous
 62
     0
370
    -2
100
AcDbLine
 10
-44610.93759954458
 20
-2303.550271310773
 30
0.0
 11
-44610.93759954458
 21
-2419.61707004268
 31
0.0
  0
LINE
  5
1E25
330
1E21
100
AcDbEntity
  8
SIZE
  6
Continuous
 62
     0
370
    -2
100
AcDbLine
 10
-44927.73759954458
 20
-2399.61707004268
 30
0.0
 11
-44622.93759954458
 21
-2399.61707004268
 31
0.0
  0
INSERT
  5
1E26
330
1E21
100
AcDbEntity
  8
SIZE
  6
Continuous
 62
     0
370
    -2
100
AcDbBlockReference
  2
_DOTBLANK
 10
-44939.73759954458
 20
-2399.61707004268
 30
0.0
 41
12.0
 42
12.0
 43
12.0
 50
180.0
  0
INSERT
  5
1E27
330
1E21
100
AcDbEntity
  8
SIZE
  6
Continuous
 62
     0
370
    -2
100
AcDbBlockReference
  2
_DOTBLANK
 10
-44610.93759954458
 20
-2399.61707004268
 30
0.0
 41
12.0
 42
12.0
 43
12.0
  0
MTEXT
  5
1E28
330
1E21
100
AcDbEntity
  8
SIZE
  6
Continuous
 62
     0
100
AcDbMText
 10
-44775.33759954458
 20
-2357.61707004268
 30
0.0
 40
64.0
 41
0.0
 71
     5
 72
     1
  1
\A1;329
 73
     1
 44
1.0
  0
POINT
  5
1E29
330
1E21
100
AcDbEntity
  8
DEFPOINTS
  6
Continuous
 62
     0
100
AcDbPoint
 10
-44939.73759954458
 20
-2283.03278814193
 30
0.0
  0
POINT
  5
1E2A
330
1E21
100
AcDbEntity
  8
DEFPOINTS
  6
Continuous
 62
     0
100
AcDbPoint
 10
-44610.93759954458
 20
-2283.550271310773
 30
0.0
  0
POINT
  5
1E2B
330
1E21
100
AcDbEntity
  8
DEFPOINTS
  6
Continuous
 62
     0
100
AcDbPoint
 10
-44610.93759954458
 20
-2399.61707004268
 30
0.0
  0
ENDBLK
  5
1E2C
330
1E21
100
AcDbEntity
  8
0
100
AcDbBlockEnd
  0
BLOCK
  5
200F
330
200E
100
AcDbEntity
  8
0
100
AcDbBlockBegin
  2
*D23
 70
     1
 10
0.0
 20
0.0
 30
0.0
  3
*D23
  1

  0
LINE
  5
2056
330
200E
100
AcDbEntity
  8
SIZE
  6
Continuous
 62
     0
370
    -2
100
AcDbLine
 10
-388.5999999999985
 20
-5.99999999999863
 30
0.0
 11
-530.5104073534967
 21
-5.999999999998587
 31
0.0
  0
LINE
  5
2057
330
200E
100
AcDbEntity
  8
SIZE
  6
Continuous
 62
     0
370
    -2
100
AcDbLine
 10
-388.4999999999927
 20
299.8630127021625
 30
0.0
 11
-530.5104073534963
 21
299.8630127021625
 31
0.0
  0
LINE
  5
2058
330
200E
100
AcDbEntity
  8
SIZE
  6
Continuous
 62
     0
370
    -2
100
AcDbLine
 10
-510.5104073534967
 20
6.000000000001405
 30
0.0
 11
-510.5104073534967
 21
287.8630127021625
 31
0.0
  0
INSERT
  5
2059
330
200E
100
AcDbEntity
  8
SIZE
  6
Continuous
 62
     0
370
    -2
100
AcDbBlockReference
  2
_DOTBLANK
 10
-510.5104073534967
 20
-5.999999999998593
 30
0.0
 41
12.0
 42
12.0
 43
12.0
 50
270.0
  0
INSERT
  5
205A
330
200E
100
AcDbEntity
  8
SIZE
  6
Continuous
 62
     0
370
    -2
100
AcDbBlockReference
  2
_DOTBLANK
 10
-510.5104073534967
 20
299.8630127021625
 30
0.0
 41
12.0
 42
12.0
 43
12.0
 50
90.0
  0
MTEXT
  5
205B
330
200E
100
AcDbEntity
  8
SIZE
  6
Continuous
 62
     0
100
AcDbMText
 10
-552.5104073534967
 20
146.9315063510818
 30
0.0
 40
64.0
 41
0.0
 71
     5
 72
     1
  1
\A1;306
 11
0.0000000000000001
 21
1.0
 31
0.0
 73
     1
 44
1.0
  0
POINT
  5
205C
330
200E
100
AcDbEntity
  8
DEFPOINTS
  6
Continuous
 62
     0
100
AcDbPoint
 10
-368.5999999999986
 20
-5.999999999998633
 30
0.0
  0
POINT
  5
205D
330
200E
100
AcDbEntity
  8
DEFPOINTS
  6
Continuous
 62
     0
100
AcDbPoint
 10
-368.4999999999927
 20
299.8630127021625
 30
0.0
  0
POINT
  5
205E
330
200E
100
AcDbEntity
  8
DEFPOINTS
  6
Continuous
 62
     0
100
AcDbPoint
 10
-510.5104073534967
 20
299.8630127021625
 30
0.0
  0
ENDBLK
  5
2010
330
200E
100
AcDbEntity
  8
0
100
AcDbBlockEnd
  0
BLOCK
  5
201B
330
201A
100
AcDbEntity
  8
0
100
AcDbBlockBegin
  2
*D24
 70
     1
 10
0.0
 20
0.0
 30
0.0
  3
*D24
  1

  0
LINE
  5
205F
330
201A
100
AcDbEntity
  8
SIZE
  6
Continuous
 62
     0
370
    -2
100
AcDbLine
 10
389.5000000000073
 20
299.8630127022001
 30
0.0
 11
593.6732275507019
 21
299.8630127022001
 31
0.0
  0
LINE
  5
2060
330
201A
100
AcDbEntity
  8
SIZE
  6
Continuous
 62
     0
370
    -2
100
AcDbLine
 10
389.6000000000058
 20
0.0000000000004491
 30
0.0
 11
593.6732275507019
 21
0.0000000000003913
 31
0.0
  0
LINE
  5
2061
330
201A
100
AcDbEntity
  8
SIZE
  6
Continuous
 62
     0
370
    -2
100
AcDbLine
 10
573.6732275507021
 20
287.8630127022002
 30
0.0
 11
573.6732275507018
 21
12.00000000000039
 31
0.0
  0
INSERT
  5
2062
330
201A
100
AcDbEntity
  8
SIZE
  6
Continuous
 62
     0
370
    -2
100
AcDbBlockReference
  2
_DOTBLANK
 10
573.6732275507021
 20
299.8630127022001
 30
0.0
 41
12.0
 42
12.0
 43
12.0
 50
90.0
  0
INSERT
  5
2063
330
201A
100
AcDbEntity
  8
SIZE
  6
Continuous
 62
     0
370
    -2
100
AcDbBlockReference
  2
_DOTBLANK
 10
573.6732275507018
 20
0.0000000000003969
 30
0.0
 41
12.0
 42
12.0
 43
12.0
 50
270.0
  0
MTEXT
  5
2064
330
201A
100
AcDbEntity
  8
SIZE
  6
Continuous
 62
     0
100
AcDbMText
 10
531.6732275507018
 20
149.9315063511003
 30
0.0
 40
64.0
 41
0.0
 71
     5
 72
     1
  1
\A1;300
 11
0.0000000000000001
 21
1.0
 31
0.0
 73
     1
 44
1.0
  0
POINT
  5
2065
330
201A
100
AcDbEntity
  8
DEFPOINTS
  6
Continuous
 62
     0
100
AcDbPoint
 10
369.5000000000074
 20
299.8630127022002
 30
0.0
  0
POINT
  5
2066
330
201A
100
AcDbEntity
  8
DEFPOINTS
  6
Continuous
 62
     0
100
AcDbPoint
 10
369.6000000000058
 20
0.0000000000004547
 30
0.0
  0
POINT
  5
2067
330
201A
100
AcDbEntity
  8
DEFPOINTS
  6
Continuous
 62
     0
100
AcDbPoint
 10
573.6732275507018
 20
0.0000000000003969
 30
0.0
  0
ENDBLK
  5
201C
330
201A
100
AcDbEntity
  8
0
100
AcDbBlockEnd
  0
BLOCK
  5
2027
330
2026
100
AcDbEntity
  8
0
100
AcDbBlockBegin
  2
*D25
 70
     1
 10
0.0
 20
0.0
 30
0.0
  3
*D25
  1

  0
LINE
  5
2068
330
2026
100
AcDbEntity
  8
SIZE
  6
Continuous
 62
     0
370
    -2
100
AcDbLine
 10
-361.0
 20
-33.49999999999726
 30
0.0
 11
-361.0
 21
-279.2238326064412
 31
0.0
  0
LINE
  5
2069
330
2026
100
AcDbEntity
  8
SIZE
  6
Continuous
 62
     0
370
    -2
100
AcDbLine
 10
361.0
 20
-27.49999999999727
 30
0.0
 11
361.0
 21
-279.2238326064412
 31
0.0
  0
LINE
  5
206A
330
2026
100
AcDbEntity
  8
SIZE
  6
Continuous
 62
     0
370
    -2
100
AcDbLine
 10
-349.0
 20
-259.2238326064412
 30
0.0
 11
349.0
 21
-259.2238326064412
 31
0.0
  0
INSERT
  5
206B
330
2026
100
AcDbEntity
  8
SIZE
  6
Continuous
 62
     0
370
    -2
100
AcDbBlockReference
  2
_DOTBLANK
 10
-361.0
 20
-259.2238326064412
 30
0.0
 41
12.0
 42
12.0
 43
12.0
 50
180.0
  0
INSERT
  5
206C
330
2026
100
AcDbEntity
  8
SIZE
  6
Continuous
 62
     0
370
    -2
100
AcDbBlockReference
  2
_DOTBLANK
 10
361.0
 20
-259.2238326064412
 30
0.0
 41
12.0
 42
12.0
 43
12.0
  0
MTEXT
  5
206D
330
2026
100
AcDbEntity
  8
SIZE
  6
Continuous
 62
     0
100
AcDbMText
 10
0.0000000000000026
 20
-217.2238326064412
 30
0.0
 40
64.0
 41
0.0
 71
     5
 72
     1
  1
\A1;722
 73
     1
 44
1.0
  0
POINT
  5
206E
330
2026
100
AcDbEntity
  8
DEFPOINTS
  6
Continuous
 62
     0
100
AcDbPoint
 10
-361.0
 20
-13.49999999999727
 30
0.0
  0
POINT
  5
206F
330
2026
100
AcDbEntity
  8
DEFPOINTS
  6
Continuous
 62
     0
100
AcDbPoint
 10
361.0
 20
-7.499999999997271
 30
0.0
  0
POINT
  5
2070
330
2026
100
AcDbEntity
  8
DEFPOINTS
  6
Continuous
 62
     0
100
AcDbPoint
 10
361.0
 20
-259.2238326064412
 30
0.0
  0
ENDBLK
  5
2028
330
2026
100
AcDbEntity
  8
0
100
AcDbBlockEnd
  0
BLOCK
  5
2033
330
2032
100
AcDbEntity
  8
0
100
AcDbBlockBegin
  2
*D26
 70
     1
 10
0.0
 20
0.0
 30
0.0
  3
*D26
  1

  0
LINE
  5
2071
330
2032
100
AcDbEntity
  8
SIZE
  6
Continuous
 62
     0
370
    -2
100
AcDbLine
 10
-369.5
 20
-25.09999999999855
 30
0.0
 11
-369.5
 21
-404.1291203845226
 31
0.0
  0
LINE
  5
2072
330
2032
100
AcDbEntity
  8
SIZE
  6
Continuous
 62
     0
370
    -2
100
AcDbLine
 10
370.5000000000073
 20
-19.09999999999945
 30
0.0
 11
370.5000000000073
 21
-404.1291203845226
 31
0.0
  0
LINE
  5
2073
330
2032
100
AcDbEntity
  8
SIZE
  6
Continuous
 62
     0
370
    -2
100
AcDbLine
 10
-357.5
 20
-384.1291203845226
 30
0.0
 11
358.5000000000073
 21
-384.1291203845226
 31
0.0
  0
INSERT
  5
2074
330
2032
100
AcDbEntity
  8
SIZE
  6
Continuous
 62
     0
370
    -2
100
AcDbBlockReference
  2
_DOTBLANK
 10
-369.5
 20
-384.1291203845226
 30
0.0
 41
12.0
 42
12.0
 43
12.0
 50
180.0
  0
INSERT
  5
2075
330
2032
100
AcDbEntity
  8
SIZE
  6
Continuous
 62
     0
370
    -2
100
AcDbBlockReference
  2
_DOTBLANK
 10
370.5000000000073
 20
-384.1291203845226
 30
0.0
 41
12.0
 42
12.0
 43
12.0
  0
MTEXT
  5
2076
330
2032
100
AcDbEntity
  8
SIZE
  6
Continuous
 62
     0
100
AcDbMText
 10
0.5000000000072787
 20
-342.1291203845227
 30
0.0
 40
64.0
 41
0.0
 71
     5
 72
     1
  1
\A1;740
 73
     1
 44
1.0
  0
POINT
  5
2077
330
2032
100
AcDbEntity
  8
DEFPOINTS
  6
Continuous
 62
     0
100
AcDbPoint
 10
-369.5
 20
-5.099999999998543
 30
0.0
  0
POINT
  5
2078
330
2032
100
AcDbEntity
  8
DEFPOINTS
  6
Continuous
 62
     0
100
AcDbPoint
 10
370.5000000000073
 20
0.9000000000005455
 30
0.0
  0
POINT
  5
2079
330
2032
100
AcDbEntity
  8
DEFPOINTS
  6
Continuous
 62
     0
100
AcDbPoint
 10
370.5000000000073
 20
-384.1291203845226
 30
0.0
  0
ENDBLK
  5
2034
330
2032
100
AcDbEntity
  8
0
100
AcDbBlockEnd
  0
BLOCK
  5
203F
330
203E
100
AcDbEntity
  8
0
100
AcDbBlockBegin
  2
*D27
 70
     1
 10
0.0
 20
0.0
 30
0.0
  3
*D27
  1

  0
LINE
  5
207A
330
203E
100
AcDbEntity
  8
SIZE
  6
Continuous
 62
     0
370
    -2
100
AcDbLine
 10
24.0
 20
-26.9825168311545
 30
0.0
 11
23.99999999999999
 21
-143.5667987319043
 31
0.0
  0
LINE
  5
207B
330
203E
100
AcDbEntity
  8
SIZE
  6
Continuous
 62
     0
370
    -2
100
AcDbLine
 10
-280.0
 20
-26.9825168311545
 30
0.0
 11
-280.0
 21
-143.5667987319043
 31
0.0
  0
LINE
  5
207C
330
203E
100
AcDbEntity
  8
SIZE
  6
Continuous
 62
     0
370
    -2
100
AcDbLine
 10
11.99999999999999
 20
-123.5667987319043
 30
0.0
 11
-268.0
 21
-123.5667987319043
 31
0.0
  0
INSERT
  5
207D
330
203E
100
AcDbEntity
  8
SIZE
  6
Continuous
 62
     0
370
    -2
100
AcDbBlockReference
  2
_DOTBLANK
 10
23.99999999999999
 20
-123.5667987319043
 30
0.0
 41
12.0
 42
12.0
 43
12.0
  0
INSERT
  5
207E
330
203E
100
AcDbEntity
  8
SIZE
  6
Continuous
 62
     0
370
    -2
100
AcDbBlockReference
  2
_DOTBLANK
 10
-280.0
 20
-123.5667987319043
 30
0.0
 41
12.0
 42
12.0
 43
12.0
 50
180.0
  0
MTEXT
  5
207F
330
203E
100
AcDbEntity
  8
SIZE
  6
Continuous
 62
     0
100
AcDbMText
 10
-128.0
 20
-81.56679873190432
 30
0.0
 40
64.0
 41
0.0
 71
     5
 72
     1
  1
\A1;304
 73
     1
 44
1.0
  0
POINT
  5
2080
330
203E
100
AcDbEntity
  8
DEFPOINTS
  6
Continuous
 62
     0
100
AcDbPoint
 10
24.0
 20
-6.982516831154496
 30
0.0
  0
POINT
  5
2081
330
203E
100
AcDbEntity
  8
DEFPOINTS
  6
Continuous
 62
     0
100
AcDbPoint
 10
-280.0
 20
-6.982516831154496
 30
0.0
  0
POINT
  5
2082
330
203E
100
AcDbEntity
  8
DEFPOINTS
  6
Continuous
 62
     0
100
AcDbPoint
 10
-280.0
 20
-123.5667987319043
 30
0.0
  0
ENDBLK
  5
2040
330
203E
100
AcDbEntity
  8
0
100
AcDbBlockEnd
  0
BLOCK
  5
204B
330
204A
100
AcDbEntity
  8
0
100
AcDbBlockBegin
  2
*D28
 70
     1
 10
0.0
 20
0.0
 30
0.0
  3
*D28
  1

  0
LINE
  5
2083
330
204A
100
AcDbEntity
  8
SIZE
  6
Continuous
 62
     0
370
    -2
100
AcDbLine
 10
24.0
 20
-26.9825168311545
 30
0.0
 11
23.99999999999999
 21
-143.5667987319043
 31
0.0
  0
LINE
  5
2084
330
204A
100
AcDbEntity
  8
SIZE
  6
Continuous
 62
     0
370
    -2
100
AcDbLine
 10
352.8000000000029
 20
-27.49999999999727
 30
0.0
 11
352.8000000000029
 21
-143.5667987319043
 31
0.0
  0
LINE
  5
2085
330
204A
100
AcDbEntity
  8
SIZE
  6
Continuous
 62
     0
370
    -2
100
AcDbLine
 10
36.0
 20
-123.5667987319043
 30
0.0
 11
340.8000000000029
 21
-123.5667987319043
 31
0.0
  0
INSERT
  5
2086
330
204A
100
AcDbEntity
  8
SIZE
  6
Continuous
 62
     0
370
    -2
100
AcDbBlockReference
  2
_DOTBLANK
 10
23.99999999999999
 20
-123.5667987319043
 30
0.0
 41
12.0
 42
12.0
 43
12.0
 50
180.0
  0
INSERT
  5
2087
330
204A
100
AcDbEntity
  8
SIZE
  6
Continuous
 62
     0
370
    -2
100
AcDbBlockReference
  2
_DOTBLANK
 10
352.8000000000029
 20
-123.5667987319043
 30
0.0
 41
12.0
 42
12.0
 43
12.0
  0
MTEXT
  5
2088
330
204A
100
AcDbEntity
  8
SIZE
  6
Continuous
 62
     0
100
AcDbMText
 10
188.4000000000014
 20
-81.56679873190432
 30
0.0
 40
64.0
 41
0.0
 71
     5
 72
     1
  1
\A1;329
 73
     1
 44
1.0
  0
POINT
  5
2089
330
204A
100
AcDbEntity
  8
DEFPOINTS
  6
Continuous
 62
     0
100
AcDbPoint
 10
24.0
 20
-6.982516831154496
 30
0.0
  0
POINT
  5
208A
330
204A
100
AcDbEntity
  8
DEFPOINTS
  6
Continuous
 62
     0
100
AcDbPoint
 10
352.8000000000029
 20
-7.499999999997271
 30
0.0
  0
POINT
  5
208B
330
204A
100
AcDbEntity
  8
DEFPOINTS
  6
Continuous
 62
     0
100
AcDbPoint
 10
352.8000000000029
 20
-123.5667987319043
 30
0.0
  0
ENDBLK
  5
204C
330
204A
100
AcDbEntity
  8
0
100
AcDbBlockEnd
  0
BLOCK
  5
2180
330
217F
100
AcDbEntity
  8
0
100
AcDbBlockBegin
  2
*D29
 70
     1
 10
0.0
 20
0.0
 30
0.0
  3
*D29
  1

  0
LINE
  5
2181
330
217F
100
AcDbEntity
  8
SIZE
  6
Continuous
 62
     0
370
    -2
100
AcDbLine
 10
-44975.48439972802
 20
-2502.403579893447
 30
0.0
 11
-44975.48439972802
 21
-2625.598382459296
 31
0.0
  0
LINE
  5
2182
330
217F
100
AcDbEntity
  8
SIZE
  6
Continuous
 62
     0
370
    -2
100
AcDbLine
 10
-44815.48439972802
 20
-2502.403579893447
 30
0.0
 11
-44815.48439972802
 21
-2625.598382459296
 31
0.0
  0
LINE
  5
2183
330
217F
100
AcDbEntity
  8
SIZE
  6
Continuous
 62
     0
370
    -2
100
AcDbLine
 10
-44963.48439972802
 20
-2605.598382459297
 30
0.0
 11
-44827.48439972802
 21
-2605.598382459297
 31
0.0
  0
INSERT
  5
2184
330
217F
100
AcDbEntity
  8
SIZE
  6
Continuous
 62
     0
370
    -2
100
AcDbBlockReference
  2
_DOTBLANK
 10
-44975.48439972802
 20
-2605.598382459297
 30
0.0
 41
12.0
 42
12.0
 43
12.0
 50
180.0
  0
INSERT
  5
2185
330
217F
100
AcDbEntity
  8
SIZE
  6
Continuous
 62
     0
370
    -2
100
AcDbBlockReference
  2
_DOTBLANK
 10
-44815.48439972802
 20
-2605.598382459297
 30
0.0
 41
12.0
 42
12.0
 43
12.0
  0
MTEXT
  5
2186
330
217F
100
AcDbEntity
  8
SIZE
  6
Continuous
 62
     0
100
AcDbMText
 10
-44895.48439972802
 20
-2563.598382459296
 30
0.0
 40
64.0
 41
0.0
 71
     5
 72
     1
  1
\A1;160
 73
     1
 44
1.0
  0
POINT
  5
2187
330
217F
100
AcDbEntity
  8
DEFPOINTS
  6
Continuous
 62
     0
100
AcDbPoint
 10
-44975.48439972802
 20
-2482.403579893447
 30
0.0
  0
POINT
  5
2188
330
217F
100
AcDbEntity
  8
DEFPOINTS
  6
Continuous
 62
     0
100
AcDbPoint
 10
-44815.48439972802
 20
-2482.403579893447
 30
0.0
  0
POINT
  5
2189
330
217F
100
AcDbEntity
  8
DEFPOINTS
  6
Continuous
 62
     0
100
AcDbPoint
 10
-44815.48439972802
 20
-2605.598382459297
 30
0.0
  0
ENDBLK
  5
218A
330
217F
100
AcDbEntity
  8
0
100
AcDbBlockEnd
  0
BLOCK
  5
218C
330
218B
100
AcDbEntity
  8
0
100
AcDbBlockBegin
  2
*D30
 70
     1
 10
0.0
 20
0.0
 30
0.0
  3
*D30
  1

  0
LINE
  5
218D
330
218B
100
AcDbEntity
  8
SIZE
  6
Continuous
 62
     0
370
    -2
100
AcDbLine
 10
-45038.484399728
 20
-2503.52728084499
 30
0.0
 11
-45038.484399728
 21
-2727.60895630122
 31
0.0
  0
LINE
  5
218E
330
218B
100
AcDbEntity
  8
SIZE
  6
Continuous
 62
     0
370
    -2
100
AcDbLine
 10
-44752.484399728
 20
-2503.52728084499
 30
0.0
 11
-44752.484399728
 21
-2727.60895630122
 31
0.0
  0
LINE
  5
218F
330
218B
100
AcDbEntity
  8
SIZE
  6
Continuous
 62
     0
370
    -2
100
AcDbLine
 10
-45026.48439972801
 20
-2707.60895630122
 30
0.0
 11
-44764.48439972801
 21
-2707.60895630122
 31
0.0
  0
INSERT
  5
2190
330
218B
100
AcDbEntity
  8
SIZE
  6
Continuous
 62
     0
370
    -2
100
AcDbBlockReference
  2
_DOTBLANK
 10
-45038.484399728
 20
-2707.60895630122
 30
0.0
 41
12.0
 42
12.0
 43
12.0
 50
180.0
  0
INSERT
  5
2191
330
218B
100
AcDbEntity
  8
SIZE
  6
Continuous
 62
     0
370
    -2
100
AcDbBlockReference
  2
_DOTBLANK
 10
-44752.484399728
 20
-2707.60895630122
 30
0.0
 41
12.0
 42
12.0
 43
12.0
  0
MTEXT
  5
2192
330
218B
100
AcDbEntity
  8
SIZE
  6
Continuous
 62
     0
100
AcDbMText
 10
-44895.48439972802
 20
-2665.608956301219
 30
0.0
 40
64.0
 41
0.0
 71
     5
 72
     1
  1
\A1;286
 73
     1
 44
1.0
  0
POINT
  5
2193
330
218B
100
AcDbEntity
  8
DEFPOINTS
  6
Continuous
 62
     0
100
AcDbPoint
 10
-45038.484399728
 20
-2483.52728084499
 30
0.0
  0
POINT
  5
2194
330
218B
100
AcDbEntity
  8
DEFPOINTS
  6
Continuous
 62
     0
100
AcDbPoint
 10
-44752.484399728
 20
-2483.52728084499
 30
0.0
  0
POINT
  5
2195
330
218B
100
AcDbEntity
  8
DEFPOINTS
  6
Continuous
 62
     0
100
AcDbPoint
 10
-44752.484399728
 20
-2707.60895630122
 30
0.0
  0
ENDBLK
  5
2196
330
218B
100
AcDbEntity
  8
0
100
AcDbBlockEnd
  0
BLOCK
  5
2198
330
2197
100
AcDbEntity
  8
0
100
AcDbBlockBegin
  2
*D31
 70
     1
 10
0.0
 20
0.0
 30
0.0
  3
*D31
  1

  0
LINE
  5
2199
330
2197
100
AcDbEntity
  8
SIZE
  6
Continuous
 62
     0
370
    -2
100
AcDbLine
 10
-45048.28291366478
 20
-2495.127280844989
 30
0.0
 11
-45048.28291366478
 21
-2828.515260644492
 31
0.0
  0
LINE
  5
219A
330
2197
100
AcDbEntity
  8
SIZE
  6
Continuous
 62
     0
370
    -2
100
AcDbLine
 10
-44743.28291366476
 20
-2495.12728084499
 30
0.0
 11
-44743.28291366476
 21
-2828.515260644492
 31
0.0
  0
LINE
  5
219B
330
2197
100
AcDbEntity
  8
SIZE
  6
Continuous
 62
     0
370
    -2
100
AcDbLine
 10
-45036.28291366478
 20
-2808.515260644492
 30
0.0
 11
-44755.28291366476
 21
-2808.515260644492
 31
0.0
  0
INSERT
  5
219C
330
2197
100
AcDbEntity
  8
SIZE
  6
Continuous
 62
     0
370
    -2
100
AcDbBlockReference
  2
_DOTBLANK
 10
-45048.28291366478
 20
-2808.515260644492
 30
0.0
 41
12.0
 42
12.0
 43
12.0
 50
180.0
  0
INSERT
  5
219D
330
2197
100
AcDbEntity
  8
SIZE
  6
Continuous
 62
     0
370
    -2
100
AcDbBlockReference
  2
_DOTBLANK
 10
-44743.28291366476
 20
-2808.515260644492
 30
0.0
 41
12.0
 42
12.0
 43
12.0
  0
MTEXT
  5
219E
330
2197
100
AcDbEntity
  8
SIZE
  6
Continuous
 62
     0
100
AcDbMText
 10
-44895.78291366478
 20
-2766.515260644493
 30
0.0
 40
64.0
 41
0.0
 71
     5
 72
     1
  1
\A1;305
 73
     1
 44
1.0
  0
POINT
  5
219F
330
2197
100
AcDbEntity
  8
DEFPOINTS
  6
Continuous
 62
     0
100
AcDbPoint
 10
-45048.28291366478
 20
-2475.127280844989
 30
0.0
  0
POINT
  5
21A0
330
2197
100
AcDbEntity
  8
DEFPOINTS
  6
Continuous
 62
     0
100
AcDbPoint
 10
-44743.28291366476
 20
-2475.12728084499
 30
0.0
  0
POINT
  5
21A1
330
2197
100
AcDbEntity
  8
DEFPOINTS
  6
Continuous
 62
     0
100
AcDbPoint
 10
-44743.28291366476
 20
-2808.515260644492
 30
0.0
  0
ENDBLK
  5
21A2
330
2197
100
AcDbEntity
  8
0
100
AcDbBlockEnd
  0
BLOCK
  5
21A4
330
21A3
100
AcDbEntity
  8
0
100
AcDbBlockBegin
  2
*D32
 70
     1
 10
0.0
 20
0.0
 30
0.0
  3
*D32
  1

  0
LINE
  5
21A5
330
21A3
100
AcDbEntity
  8
SIZE
  6
Continuous
 62
     0
370
    -2
100
AcDbLine
 10
-45067.38291366478
 20
-2476.02728084499
 30
0.0
 11
-45216.68163029302
 21
-2476.02728084499
 31
0.0
  0
LINE
  5
21A6
330
21A3
100
AcDbEntity
  8
SIZE
  6
Continuous
 62
     0
370
    -2
100
AcDbLine
 10
-45067.28291366478
 20
-2176.164268143048
 30
0.0
 11
-45216.68163029302
 21
-2176.164268143048
 31
0.0
  0
LINE
  5
21A7
330
21A3
100
AcDbEntity
  8
SIZE
  6
Continuous
 62
     0
370
    -2
100
AcDbLine
 10
-45196.68163029304
 20
-2464.02728084499
 30
0.0
 11
-45196.68163029304
 21
-2188.164268143048
 31
0.0
  0
INSERT
  5
21A8
330
21A3
100
AcDbEntity
  8
SIZE
  6
Continuous
 62
     0
370
    -2
100
AcDbBlockReference
  2
_DOTBLANK
 10
-45196.68163029304
 20
-2476.02728084499
 30
0.0
 41
12.0
 42
12.0
 43
12.0
 50
270.0
  0
INSERT
  5
21A9
330
21A3
100
AcDbEntity
  8
SIZE
  6
Continuous
 62
     0
370
    -2
100
AcDbBlockReference
  2
_DOTBLANK
 10
-45196.68163029304
 20
-2176.164268143048
 30
0.0
 41
12.0
 42
12.0
 43
12.0
 50
90.0
  0
MTEXT
  5
21AA
330
21A3
100
AcDbEntity
  8
SIZE
  6
Continuous
 62
     0
100
AcDbMText
 10
-45238.68163029304
 20
-2326.095774494026
 30
0.0
 40
64.0
 41
0.0
 71
     5
 72
     1
  1
\A1;300
 11
0.0000000000000001
 21
1.0
 31
0.0
 73
     1
 44
1.0
  0
POINT
  5
21AB
330
21A3
100
AcDbEntity
  8
DEFPOINTS
  6
Continuous
 62
     0
100
AcDbPoint
 10
-45047.38291366478
 20
-2476.02728084499
 30
0.0
  0
POINT
  5
21AC
330
21A3
100
AcDbEntity
  8
DEFPOINTS
  6
Continuous
 62
     0
100
AcDbPoint
 10
-45047.28291366476
 20
-2176.164268143048
 30
0.0
  0
POINT
  5
21AD
330
21A3
100
AcDbEntity
  8
DEFPOINTS
  6
Continuous
 62
     0
100
AcDbPoint
 10
-45196.68163029304
 20
-2176.164268143048
 30
0.0
  0
ENDBLK
  5
21AE
330
21A3
100
AcDbEntity
  8
0
100
AcDbBlockEnd
  0
BLOCK
  5
2375
330
2374
100
AcDbEntity
  8
0
100
AcDbBlockBegin
  2
*D33
 70
     1
 10
0.0
 20
0.0
 30
0.0
  3
*D33
  1

  0
LINE
  5
23A4
330
2374
100
AcDbEntity
  8
SIZE
  6
Continuous
 62
     0
370
    -2
100
AcDbLine
 10
-79.7014860632553
 20
-26.37629904845971
 30
0.0
 11
-79.7014860632553
 21
-149.5711016143091
 31
0.0
  0
LINE
  5
23A5
330
2374
100
AcDbEntity
  8
SIZE
  6
Continuous
 62
     0
370
    -2
100
AcDbLine
 10
80.29851393674467
 20
-26.37629904845971
 30
0.0
 11
80.29851393674467
 21
-149.5711016143091
 31
0.0
  0
LINE
  5
23A6
330
2374
100
AcDbEntity
  8
SIZE
  6
Continuous
 62
     0
370
    -2
100
AcDbLine
 10
-67.7014860632553
 20
-129.5711016143091
 30
0.0
 11
68.2985139367447
 21
-129.5711016143091
 31
0.0
  0
INSERT
  5
23A7
330
2374
100
AcDbEntity
  8
SIZE
  6
Continuous
 62
     0
370
    -2
100
AcDbBlockReference
  2
_DOTBLANK
 10
-79.7014860632553
 20
-129.5711016143091
 30
0.0
 41
12.0
 42
12.0
 43
12.0
 50
180.0
  0
INSERT
  5
23A8
330
2374
100
AcDbEntity
  8
SIZE
  6
Continuous
 62
     0
370
    -2
100
AcDbBlockReference
  2
_DOTBLANK
 10
80.29851393674467
 20
-129.5711016143091
 30
0.0
 41
12.0
 42
12.0
 43
12.0
  0
MTEXT
  5
23A9
330
2374
100
AcDbEntity
  8
SIZE
  6
Continuous
 62
     0
100
AcDbMText
 10
0.2985139367447144
 20
-87.5711016143091
 30
0.0
 40
64.0
 41
0.0
 71
     5
 72
     1
  1
\A1;160
 73
     1
 44
1.0
  0
POINT
  5
23AA
330
2374
100
AcDbEntity
  8
DEFPOINTS
  6
Continuous
 62
     0
100
AcDbPoint
 10
-79.7014860632553
 20
-6.376299048459713
 30
0.0
  0
POINT
  5
23AB
330
2374
100
AcDbEntity
  8
DEFPOINTS
  6
Continuous
 62
     0
100
AcDbPoint
 10
80.29851393674467
 20
-6.376299048459713
 30
0.0
  0
POINT
  5
23AC
330
2374
100
AcDbEntity
  8
DEFPOINTS
  6
Continuous
 62
     0
100
AcDbPoint
 10
80.29851393674467
 20
-129.5711016143091
 30
0.0
  0
ENDBLK
  5
2376
330
2374
100
AcDbEntity
  8
0
100
AcDbBlockEnd
  0
BLOCK
  5
2381
330
2380
100
AcDbEntity
  8
0
100
AcDbBlockBegin
  2
*D34
 70
     1
 10
0.0
 20
0.0
 30
0.0
  3
*D34
  1

  0
LINE
  5
23AD
330
2380
100
AcDbEntity
  8
SIZE
  6
Continuous
 62
     0
370
    -2
100
AcDbLine
 10
-142.7014860632553
 20
-27.50000000000274
 30
0.0
 11
-142.7014860632553
 21
-251.581675456232
 31
0.0
  0
LINE
  5
23AE
330
2380
100
AcDbEntity
  8
SIZE
  6
Continuous
 62
     0
370
    -2
100
AcDbLine
 10
143.2985139367447
 20
-27.50000000000274
 30
0.0
 11
143.2985139367447
 21
-251.581675456232
 31
0.0
  0
LINE
  5
23AF
330
2380
100
AcDbEntity
  8
SIZE
  6
Continuous
 62
     0
370
    -2
100
AcDbLine
 10
-130.7014860632553
 20
-231.581675456232
 30
0.0
 11
131.2985139367447
 21
-231.581675456232
 31
0.0
  0
INSERT
  5
23B0
330
2380
100
AcDbEntity
  8
SIZE
  6
Continuous
 62
     0
370
    -2
100
AcDbBlockReference
  2
_DOTBLANK
 10
-142.7014860632553
 20
-231.581675456232
 30
0.0
 41
12.0
 42
12.0
 43
12.0
 50
180.0
  0
INSERT
  5
23B1
330
2380
100
AcDbEntity
  8
SIZE
  6
Continuous
 62
     0
370
    -2
100
AcDbBlockReference
  2
_DOTBLANK
 10
143.2985139367447
 20
-231.581675456232
 30
0.0
 41
12.0
 42
12.0
 43
12.0
  0
MTEXT
  5
23B2
330
2380
100
AcDbEntity
  8
SIZE
  6
Continuous
 62
     0
100
AcDbMText
 10
0.2985139367447144
 20
-189.581675456232
 30
0.0
 40
64.0
 41
0.0
 71
     5
 72
     1
  1
\A1;286
 73
     1
 44
1.0
  0
POINT
  5
23B3
330
2380
100
AcDbEntity
  8
DEFPOINTS
  6
Continuous
 62
     0
100
AcDbPoint
 10
-142.7014860632553
 20
-7.500000000002727
 30
0.0
  0
POINT
  5
23B4
330
2380
100
AcDbEntity
  8
DEFPOINTS
  6
Continuous
 62
     0
100
AcDbPoint
 10
143.2985139367447
 20
-7.500000000002727
 30
0.0
  0
POINT
  5
23B5
330
2380
100
AcDbEntity
  8
DEFPOINTS
  6
Continuous
 62
     0
100
AcDbPoint
 10
143.2985139367447
 20
-231.581675456232
 30
0.0
  0
ENDBLK
  5
2382
330
2380
100
AcDbEntity
  8
0
100
AcDbBlockEnd
  0
BLOCK
  5
238D
330
238C
100
AcDbEntity
  8
0
100
AcDbBlockBegin
  2
*D35
 70
     1
 10
0.0
 20
0.0
 30
0.0
  3
*D35
  1

  0
LINE
  5
23B6
330
238C
100
AcDbEntity
  8
SIZE
  6
Continuous
 62
     0
370
    -2
100
AcDbLine
 10
-152.500000000029
 20
-19.10000000000127
 30
0.0
 11
-152.500000000029
 21
-352.4879797995045
 31
0.0
  0
LINE
  5
23B7
330
238C
100
AcDbEntity
  8
SIZE
  6
Continuous
 62
     0
370
    -2
100
AcDbLine
 10
152.4999999999927
 20
-19.10000000000309
 30
0.0
 11
152.4999999999927
 21
-352.4879797995045
 31
0.0
  0
LINE
  5
23B8
330
238C
100
AcDbEntity
  8
SIZE
  6
Continuous
 62
     0
370
    -2
100
AcDbLine
 10
-140.500000000029
 20
-332.4879797995045
 30
0.0
 11
140.4999999999927
 21
-332.4879797995045
 31
0.0
  0
INSERT
  5
23B9
330
238C
100
AcDbEntity
  8
SIZE
  6
Continuous
 62
     0
370
    -2
100
AcDbBlockReference
  2
_DOTBLANK
 10
-152.500000000029
 20
-332.4879797995045
 30
0.0
 41
12.0
 42
12.0
 43
12.0
 50
180.0
  0
INSERT
  5
23BA
330
238C
100
AcDbEntity
  8
SIZE
  6
Continuous
 62
     0
370
    -2
100
AcDbBlockReference
  2
_DOTBLANK
 10
152.4999999999927
 20
-332.4879797995045
 30
0.0
 41
12.0
 42
12.0
 43
12.0
  0
MTEXT
  5
23BB
330
238C
100
AcDbEntity
  8
SIZE
  6
Continuous
 62
     0
100
AcDbMText
 10
-0.0000000000182157
 20
-290.4879797995045
 30
0.0
 40
64.0
 41
0.0
 71
     5
 72
     1
  1
\A1;305
 73
     1
 44
1.0
  0
POINT
  5
23BC
330
238C
100
AcDbEntity
  8
DEFPOINTS
  6
Continuous
 62
     0
100
AcDbPoint
 10
-152.500000000029
 20
0.8999999999987267
 30
0.0
  0
POINT
  5
23BD
330
238C
100
AcDbEntity
  8
DEFPOINTS
  6
Continuous
 62
     0
100
AcDbPoint
 10
152.4999999999927
 20
0.8999999999969077
 30
0.0
  0
POINT
  5
23BE
330
238C
100
AcDbEntity
  8
DEFPOINTS
  6
Continuous
 62
     0
100
AcDbPoint
 10
152.4999999999927
 20
-332.4879797995045
 30
0.0
  0
ENDBLK
  5
238E
330
238C
100
AcDbEntity
  8
0
100
AcDbBlockEnd
  0
BLOCK
  5
2399
330
2398
100
AcDbEntity
  8
0
100
AcDbBlockBegin
  2
*D36
 70
     1
 10
0.0
 20
0.0
 30
0.0
  3
*D36
  1

  0
LINE
  5
23BF
330
2398
100
AcDbEntity
  8
SIZE
  6
Continuous
 62
     0
370
    -2
100
AcDbLine
 10
-171.6000000000204
 20
-0.0000000000027228
 30
0.0
 11
-320.8987166282897
 21
-0.0000000000026805
 31
0.0
  0
LINE
  5
23C0
330
2398
100
AcDbEntity
  8
SIZE
  6
Continuous
 62
     0
370
    -2
100
AcDbLine
 10
-171.5000000000145
 20
299.8630127019396
 30
0.0
 11
-320.8987166282895
 21
299.8630127019396
 31
0.0
  0
LINE
  5
23C1
330
2398
100
AcDbEntity
  8
SIZE
  6
Continuous
 62
     0
370
    -2
100
AcDbLine
 10
-300.8987166282897
 20
11.99999999999731
 30
0.0
 11
-300.8987166282897
 21
287.8630127019396
 31
0.0
  0
INSERT
  5
23C2
330
2398
100
AcDbEntity
  8
SIZE
  6
Continuous
 62
     0
370
    -2
100
AcDbBlockReference
  2
_DOTBLANK
 10
-300.8987166282897
 20
-0.0000000000026862
 30
0.0
 41
12.0
 42
12.0
 43
12.0
 50
270.0
  0
INSERT
  5
23C3
330
2398
100
AcDbEntity
  8
SIZE
  6
Continuous
 62
     0
370
    -2
100
AcDbBlockReference
  2
_DOTBLANK
 10
-300.8987166282897
 20
299.8630127019396
 30
0.0
 41
12.0
 42
12.0
 43
12.0
 50
90.0
  0
MTEXT
  5
23C4
330
2398
100
AcDbEntity
  8
SIZE
  6
Continuous
 62
     0
100
AcDbMText
 10
-342.8987166282897
 20
149.9315063509684
 30
0.0
 40
64.0
 41
0.0
 71
     5
 72
     1
  1
\A1;300
 11
0.0000000000000001
 21
1.0
 31
0.0
 73
     1
 44
1.0
  0
POINT
  5
23C5
330
2398
100
AcDbEntity
  8
DEFPOINTS
  6
Continuous
 62
     0
100
AcDbPoint
 10
-151.6000000000204
 20
-0.0000000000027285
 30
0.0
  0
POINT
  5
23C6
330
2398
100
AcDbEntity
  8
DEFPOINTS
  6
Continuous
 62
     0
100
AcDbPoint
 10
-151.5000000000145
 20
299.8630127019396
 30
0.0
  0
POINT
  5
23C7
330
2398
100
AcDbEntity
  8
DEFPOINTS
  6
Continuous
 62
     0
100
AcDbPoint
 10
-300.8987166282897
 20
299.8630127019396
 30
0.0
  0
ENDBLK
  5
239A
330
2398
100
AcDbEntity
  8
0
100
AcDbBlockEnd
  0
BLOCK
  5
25BA
330
25B9
100
AcDbEntity
  8
0
100
AcDbBlockBegin
  2
*D37
 70
     1
 10
0.0
 20
0.0
 30
0.0
  3
*D37
  1

  0
LINE
  5
25BB
330
25B9
100
AcDbEntity
  8
SIZE
  6
Continuous
 62
     0
370
    -2
100
AcDbLine
 10
-47960.33094852842
 20
-2338.997898155767
 30
0.0
 11
-47960.33094852842
 21
-2468.789155374644
 31
0.0
  0
LINE
  5
25BC
330
25B9
100
AcDbEntity
  8
SIZE
  6
Continuous
 62
     0
370
    -2
100
AcDbLine
 10
-47836.33094852842
 20
-2338.997898155767
 30
0.0
 11
-47836.33094852842
 21
-2468.789155374644
 31
0.0
  0
LINE
  5
25BD
330
25B9
100
AcDbEntity
  8
SIZE
  6
Continuous
 62
     0
370
    -2
100
AcDbLine
 10
-47948.33094852841
 20
-2448.789155374644
 30
0.0
 11
-47848.33094852841
 21
-2448.789155374644
 31
0.0
  0
LINE
  5
25BE
330
25B9
100
AcDbEntity
  8
SIZE
  6
Continuous
 62
     0
370
    -2
100
AcDbLine
 10
-47836.33094852842
 20
-2448.789155374644
 30
0.0
 11
-47637.40914540143
 21
-2448.789155374644
 31
0.0
  0
INSERT
  5
25BF
330
25B9
100
AcDbEntity
  8
SIZE
  6
Continuous
 62
     0
370
    -2
100
AcDbBlockReference
  2
_DOTBLANK
 10
-47960.33094852842
 20
-2448.789155374644
 30
0.0
 41
12.0
 42
12.0
 43
12.0
 50
180.0
  0
INSERT
  5
25C0
330
25B9
100
AcDbEntity
  8
SIZE
  6
Continuous
 62
     0
370
    -2
100
AcDbBlockReference
  2
_DOTBLANK
 10
-47836.33094852842
 20
-2448.789155374644
 30
0.0
 41
12.0
 42
12.0
 43
12.0
  0
MTEXT
  5
25C1
330
25B9
100
AcDbEntity
  8
SIZE
  6
Continuous
 62
     0
100
AcDbMText
 10
-47718.72343111572
 20
-2406.789155374644
 30
0.0
 40
64.0
 41
0.0
 71
     5
 72
     1
  1
\A1;124
 73
     1
 44
1.0
  0
POINT
  5
25C2
330
25B9
100
AcDbEntity
  8
DEFPOINTS
  6
Continuous
 62
     0
100
AcDbPoint
 10
-47960.33094852842
 20
-2318.997898155767
 30
0.0
  0
POINT
  5
25C3
330
25B9
100
AcDbEntity
  8
DEFPOINTS
  6
Continuous
 62
     0
100
AcDbPoint
 10
-47836.33094852842
 20
-2318.997898155767
 30
0.0
  0
POINT
  5
25C4
330
25B9
100
AcDbEntity
  8
DEFPOINTS
  6
Continuous
 62
     0
100
AcDbPoint
 10
-47836.33094852842
 20
-2448.789155374644
 30
0.0
  0
ENDBLK
  5
25C5
330
25B9
100
AcDbEntity
  8
0
100
AcDbBlockEnd
  0
BLOCK
  5
25C7
330
25C6
100
AcDbEntity
  8
0
100
AcDbBlockBegin
  2
*D38
 70
     1
 10
0.0
 20
0.0
 30
0.0
  3
*D38
  1

  0
LINE
  5
25C8
330
25C6
100
AcDbEntity
  8
SIZE
  6
Continuous
 62
     0
370
    -2
100
AcDbLine
 10
-48003.33094852843
 20
-2343.507769883232
 30
0.0
 11
-48003.33094852843
 21
-2587.020707587962
 31
0.0
  0
LINE
  5
25C9
330
25C6
100
AcDbEntity
  8
SIZE
  6
Continuous
 62
     0
370
    -2
100
AcDbLine
 10
-47829.33094852841
 20
-2343.507769883232
 30
0.0
 11
-47829.33094852841
 21
-2587.020707587962
 31
0.0
  0
LINE
  5
25CA
330
25C6
100
AcDbEntity
  8
SIZE
  6
Continuous
 62
     0
370
    -2
100
AcDbLine
 10
-47991.33094852843
 20
-2567.020707587962
 30
0.0
 11
-47841.33094852841
 21
-2567.020707587962
 31
0.0
  0
INSERT
  5
25CB
330
25C6
100
AcDbEntity
  8
SIZE
  6
Continuous
 62
     0
370
    -2
100
AcDbBlockReference
  2
_DOTBLANK
 10
-48003.33094852843
 20
-2567.020707587962
 30
0.0
 41
12.0
 42
12.0
 43
12.0
 50
180.0
  0
INSERT
  5
25CC
330
25C6
100
AcDbEntity
  8
SIZE
  6
Continuous
 62
     0
370
    -2
100
AcDbBlockReference
  2
_DOTBLANK
 10
-47829.33094852841
 20
-2567.020707587962
 30
0.0
 41
12.0
 42
12.0
 43
12.0
  0
MTEXT
  5
25CD
330
25C6
100
AcDbEntity
  8
SIZE
  6
Continuous
 62
     0
100
AcDbMText
 10
-47916.33094852842
 20
-2525.020707587962
 30
0.0
 40
64.0
 41
0.0
 71
     5
 72
     1
  1
\A1;174
 73
     1
 44
1.0
  0
POINT
  5
25CE
330
25C6
100
AcDbEntity
  8
DEFPOINTS
  6
Continuous
 62
     0
100
AcDbPoint
 10
-48003.33094852843
 20
-2323.507769883232
 30
0.0
  0
POINT
  5
25CF
330
25C6
100
AcDbEntity
  8
DEFPOINTS
  6
Continuous
 62
     0
100
AcDbPoint
 10
-47829.33094852841
 20
-2323.507769883232
 30
0.0
  0
POINT
  5
25D0
330
25C6
100
AcDbEntity
  8
DEFPOINTS
  6
Continuous
 62
     0
100
AcDbPoint
 10
-47829.33094852841
 20
-2567.020707587962
 30
0.0
  0
ENDBLK
  5
25D1
330
25C6
100
AcDbEntity
  8
0
100
AcDbBlockEnd
  0
BLOCK
  5
25D3
330
25D2
100
AcDbEntity
  8
0
100
AcDbBlockBegin
  2
*D39
 70
     1
 10
0.0
 20
0.0
 30
0.0
  3
*D39
  1

  0
LINE
  5
25D4
330
25D2
100
AcDbEntity
  8
SIZE
  6
Continuous
 62
     0
370
    -2
100
AcDbLine
 10
-48030.33094852843
 20
-2335.107769883239
 30
0.0
 11
-48030.33094852843
 21
-2712.456182677145
 31
0.0
  0
LINE
  5
25D5
330
25D2
100
AcDbEntity
  8
SIZE
  6
Continuous
 62
     0
370
    -2
100
AcDbLine
 10
-47814.33094852841
 20
-2335.107769883239
 30
0.0
 11
-47814.33094852841
 21
-2712.456182677145
 31
0.0
  0
LINE
  5
25D6
330
25D2
100
AcDbEntity
  8
SIZE
  6
Continuous
 62
     0
370
    -2
100
AcDbLine
 10
-48018.33094852843
 20
-2692.456182677145
 30
0.0
 11
-47826.33094852841
 21
-2692.456182677145
 31
0.0
  0
INSERT
  5
25D7
330
25D2
100
AcDbEntity
  8
SIZE
  6
Continuous
 62
     0
370
    -2
100
AcDbBlockReference
  2
_DOTBLANK
 10
-48030.33094852843
 20
-2692.456182677145
 30
0.0
 41
12.0
 42
12.0
 43
12.0
 50
180.0
  0
INSERT
  5
25D8
330
25D2
100
AcDbEntity
  8
SIZE
  6
Continuous
 62
     0
370
    -2
100
AcDbBlockReference
  2
_DOTBLANK
 10
-47814.33094852841
 20
-2692.456182677145
 30
0.0
 41
12.0
 42
12.0
 43
12.0
  0
MTEXT
  5
25D9
330
25D2
100
AcDbEntity
  8
SIZE
  6
Continuous
 62
     0
100
AcDbMText
 10
-47922.33094852842
 20
-2650.456182677145
 30
0.0
 40
64.0
 41
0.0
 71
     5
 72
     1
  1
\A1;216
 73
     1
 44
1.0
  0
POINT
  5
25DA
330
25D2
100
AcDbEntity
  8
DEFPOINTS
  6
Continuous
 62
     0
100
AcDbPoint
 10
-48030.33094852843
 20
-2315.107769883239
 30
0.0
  0
POINT
  5
25DB
330
25D2
100
AcDbEntity
  8
DEFPOINTS
  6
Continuous
 62
     0
100
AcDbPoint
 10
-47814.33094852841
 20
-2315.107769883239
 30
0.0
  0
POINT
  5
25DC
330
25D2
100
AcDbEntity
  8
DEFPOINTS
  6
Continuous
 62
     0
100
AcDbPoint
 10
-47814.33094852841
 20
-2692.456182677145
 30
0.0
  0
ENDBLK
  5
25DD
330
25D2
100
AcDbEntity
  8
0
100
AcDbBlockEnd
  0
BLOCK
  5
288A
330
2889
100
AcDbEntity
  8
0
100
AcDbBlockBegin
  2
*D40
 70
     1
 10
0.0
 20
0.0
 30
0.0
  3
*D40
  1

  0
LINE
  5
288C
330
2889
100
AcDbEntity
  8
SIZE
  6
Continuous
 62
     0
370
    -2
100
AcDbLine
 10
-81.48194137949479
 20
-1166.119016786244
 30
0.0
 11
-81.48194137949481
 21
-1295.910274005122
 31
0.0
  0
LINE
  5
288D
330
2889
100
AcDbEntity
  8
SIZE
  6
Continuous
 62
     0
370
    -2
100
AcDbLine
 10
42.51805862050519
 20
-1166.119016786244
 30
0.0
 11
42.51805862050519
 21
-1295.910274005122
 31
0.0
  0
LINE
  5
288E
330
2889
100
AcDbEntity
  8
SIZE
  6
Continuous
 62
     0
370
    -2
100
AcDbLine
 10
-69.48194137949482
 20
-1275.910274005122
 30
0.0
 11
30.5180586205052
 21
-1275.910274005122
 31
0.0
  0
LINE
  5
288F
330
2889
100
AcDbEntity
  8
SIZE
  6
Continuous
 62
     0
370
    -2
100
AcDbLine
 10
42.51805862050519
 20
-1275.910274005122
 30
0.0
 11
240.0684331760659
 21
-1275.910274005122
 31
0.0
  0
INSERT
  5
2890
330
2889
100
AcDbEntity
  8
SIZE
  6
Continuous
 62
     0
370
    -2
100
AcDbBlockReference
  2
_DOTBLANK
 10
-81.48194137949481
 20
-1275.910274005122
 30
0.0
 41
12.0
 42
12.0
 43
12.0
 50
180.0
  0
INSERT
  5
2891
330
2889
100
AcDbEntity
  8
SIZE
  6
Continuous
 62
     0
370
    -2
100
AcDbBlockReference
  2
_DOTBLANK
 10
42.51805862050519
 20
-1275.910274005122
 30
0.0
 41
12.0
 42
12.0
 43
12.0
  0
MTEXT
  5
2892
330
2889
100
AcDbEntity
  8
SIZE
  6
Continuous
 62
     0
100
AcDbMText
 10
160.1255760332088
 20
-1233.910274005121
 30
0.0
 40
64.0
 41
0.0
 71
     5
 72
     1
  1
\A1;124
 73
     1
 44
1.0
  0
POINT
  5
2893
330
2889
100
AcDbEntity
  8
DEFPOINTS
  6
Continuous
 62
     0
100
AcDbPoint
 10
-81.48194137949479
 20
-1146.119016786244
 30
0.0
  0
POINT
  5
2894
330
2889
100
AcDbEntity
  8
DEFPOINTS
  6
Continuous
 62
     0
100
AcDbPoint
 10
42.51805862050519
 20
-1146.119016786244
 30
0.0
  0
POINT
  5
2895
330
2889
100
AcDbEntity
  8
DEFPOINTS
  6
Continuous
 62
     0
100
AcDbPoint
 10
42.51805862050519
 20
-1275.910274005122
 30
0.0
  0
ENDBLK
  5
288B
330
2889
100
AcDbEntity
  8
0
100
AcDbBlockEnd
  0
BLOCK
  5
2897
330
2896
100
AcDbEntity
  8
0
100
AcDbBlockBegin
  2
*D41
 70
     1
 10
0.0
 20
0.0
 30
0.0
  3
*D41
  1

  0
LINE
  5
2899
330
2896
100
AcDbEntity
  8
SIZE
  6
Continuous
 62
     0
370
    -2
100
AcDbLine
 10
-124.4819413794948
 20
-1170.62888851371
 30
0.0
 11
-124.4819413794948
 21
-1414.141826218439
 31
0.0
  0
LINE
  5
289A
330
2896
100
AcDbEntity
  8
SIZE
  6
Continuous
 62
     0
370
    -2
100
AcDbLine
 10
49.5180586205052
 20
-1170.62888851371
 30
0.0
 11
49.51805862050519
 21
-1414.141826218439
 31
0.0
  0
LINE
  5
289B
330
2896
100
AcDbEntity
  8
SIZE
  6
Continuous
 62
     0
370
    -2
100
AcDbLine
 10
-112.4819413794948
 20
-1394.141826218439
 30
0.0
 11
37.51805862050519
 21
-1394.141826218439
 31
0.0
  0
INSERT
  5
289C
330
2896
100
AcDbEntity
  8
SIZE
  6
Continuous
 62
     0
370
    -2
100
AcDbBlockReference
  2
_DOTBLANK
 10
-124.4819413794948
 20
-1394.141826218439
 30
0.0
 41
12.0
 42
12.0
 43
12.0
 50
180.0
  0
INSERT
  5
289D
330
2896
100
AcDbEntity
  8
SIZE
  6
Continuous
 62
     0
370
    -2
100
AcDbBlockReference
  2
_DOTBLANK
 10
49.51805862050519
 20
-1394.141826218439
 30
0.0
 41
12.0
 42
12.0
 43
12.0
  0
MTEXT
  5
289E
330
2896
100
AcDbEntity
  8
SIZE
  6
Continuous
 62
     0
100
AcDbMText
 10
-37.48194137949481
 20
-1352.141826218439
 30
0.0
 40
64.0
 41
0.0
 71
     5
 72
     1
  1
\A1;174
 73
     1
 44
1.0
  0
POINT
  5
289F
330
2896
100
AcDbEntity
  8
DEFPOINTS
  6
Continuous
 62
     0
100
AcDbPoint
 10
-124.4819413794948
 20
-1150.62888851371
 30
0.0
  0
POINT
  5
28A0
330
2896
100
AcDbEntity
  8
DEFPOINTS
  6
Continuous
 62
     0
100
AcDbPoint
 10
49.5180586205052
 20
-1150.62888851371
 30
0.0
  0
POINT
  5
28A1
330
2896
100
AcDbEntity
  8
DEFPOINTS
  6
Continuous
 62
     0
100
AcDbPoint
 10
49.51805862050519
 20
-1394.141826218439
 30
0.0
  0
ENDBLK
  5
2898
330
2896
100
AcDbEntity
  8
0
100
AcDbBlockEnd
  0
BLOCK
  5
28A3
330
28A2
100
AcDbEntity
  8
0
100
AcDbBlockBegin
  2
*D42
 70
     1
 10
0.0
 20
0.0
 30
0.0
  3
*D42
  1

  0
LINE
  5
28A5
330
28A2
100
AcDbEntity
  8
SIZE
  6
Continuous
 62
     0
370
    -2
100
AcDbLine
 10
-151.4819413794948
 20
-1162.228888513716
 30
0.0
 11
-151.4819413794948
 21
-1539.577301307623
 31
0.0
  0
LINE
  5
28A6
330
28A2
100
AcDbEntity
  8
SIZE
  6
Continuous
 62
     0
370
    -2
100
AcDbLine
 10
64.5180586205052
 20
-1162.228888513716
 30
0.0
 11
64.51805862050517
 21
-1539.577301307623
 31
0.0
  0
LINE
  5
28A7
330
28A2
100
AcDbEntity
  8
SIZE
  6
Continuous
 62
     0
370
    -2
100
AcDbLine
 10
-139.4819413794948
 20
-1519.577301307623
 30
0.0
 11
52.51805862050517
 21
-1519.577301307623
 31
0.0
  0
INSERT
  5
28A8
330
28A2
100
AcDbEntity
  8
SIZE
  6
Continuous
 62
     0
370
    -2
100
AcDbBlockReference
  2
_DOTBLANK
 10
-151.4819413794948
 20
-1519.577301307623
 30
0.0
 41
12.0
 42
12.0
 43
12.0
 50
180.0
  0
INSERT
  5
28A9
330
28A2
100
AcDbEntity
  8
SIZE
  6
Continuous
 62
     0
370
    -2
100
AcDbBlockReference
  2
_DOTBLANK
 10
64.51805862050517
 20
-1519.577301307623
 30
0.0
 41
12.0
 42
12.0
 43
12.0
  0
MTEXT
  5
28AA
330
28A2
100
AcDbEntity
  8
SIZE
  6
Continuous
 62
     0
100
AcDbMText
 10
-43.48194137949483
 20
-1477.577301307622
 30
0.0
 40
64.0
 41
0.0
 71
     5
 72
     1
  1
\A1;216
 73
     1
 44
1.0
  0
POINT
  5
28AB
330
28A2
100
AcDbEntity
  8
DEFPOINTS
  6
Continuous
 62
     0
100
AcDbPoint
 10
-151.4819413794948
 20
-1142.228888513716
 30
0.0
  0
POINT
  5
28AC
330
28A2
100
AcDbEntity
  8
DEFPOINTS
  6
Continuous
 62
     0
100
AcDbPoint
 10
64.5180586205052
 20
-1142.228888513716
 30
0.0
  0
POINT
  5
28AD
330
28A2
100
AcDbEntity
  8
DEFPOINTS
  6
Continuous
 62
     0
100
AcDbPoint
 10
64.51805862050517
 20
-1519.577301307623
 30
0.0
  0
ENDBLK
  5
28A4
330
28A2
100
AcDbEntity
  8
0
100
AcDbBlockEnd
  0
ENDSEC
  0
SECTION
  2
ENTITIES
  0
TEXT
  5
953
330
85F
100
AcDbEntity
  8
OUTLINE
  6
Continuous
 62
     3
100
AcDbText
 10
-418.231467
 20
13.715189
 30
0.0
 40
64.0
  1
 
 41
0.9
100
AcDbText
  0
TEXT
  5
954
330
85F
100
AcDbEntity
  8
OUTLINE
  6
Continuous
 62
     3
100
AcDbText
 10
-418.231467
 20
13.715189
 30
0.0
 40
64.0
  1
 
 41
0.9
100
AcDbText
  0
TEXT
  5
955
330
85F
100
AcDbEntity
  8
OUTLINE
  6
Continuous
 62
     3
100
AcDbText
 10
1341.41903
 20
-706.0588199999997
 30
0.0
 40
64.0
  1
 
 41
0.9
100
AcDbText
  0
TEXT
  5
956
330
85F
100
AcDbEntity
  8
OUTLINE
  6
Continuous
 62
     3
100
AcDbText
 10
1341.41903
 20
-706.0588199999997
 30
0.0
 40
64.0
  1
 
 41
0.9
100
AcDbText
  0
TEXT
  5
957
330
85F
100
AcDbEntity
  8
OUTLINE
  6
Continuous
 62
     3
100
AcDbText
 10
1341.41903
 20
-706.0588199999997
 30
0.0
 40
64.0
  1
 
 41
0.9
100
AcDbText
  0
TEXT
  5
958
330
85F
100
AcDbEntity
  8
OUTLINE
  6
Continuous
 62
     3
100
AcDbText
 10
1341.41903
 20
-706.0588199999997
 30
0.0
 40
64.0
  1
 
 41
0.9
100
AcDbText
  0
LINE
  5
2737
330
85F
100
AcDbEntity
  8
DETAIL
100
AcDbLine
 10
-121.4819413794948
 20
-1143.128888513717
 30
0.0
 11
-118.4819413794948
 21
-1143.128888513716
 31
0.0
  0
LINE
  5
2738
330
85F
100
AcDbEntity
  8
DETAIL
100
AcDbLine
 10
-118.4819413794948
 20
-1143.128888513716
 30
0.0
 11
-118.4819413794948
 21
-1142.328888513715
 31
0.0
  0
LINE
  5
2739
330
85F
100
AcDbEntity
  8
DETAIL
100
AcDbLine
 10
-118.4819413794948
 20
-1142.328888513715
 30
0.0
 11
-121.4819413794948
 21
-1142.328888513716
 31
0.0
  0
LINE
  5
273A
330
85F
100
AcDbEntity
  8
DETAIL
100
AcDbLine
 10
-121.4819413794948
 20
-1142.328888513716
 30
0.0
 11
-121.4819413794948
 21
-1143.128888513717
 31
0.0
  0
LINE
  5
273B
330
85F
100
AcDbEntity
  8
DETAIL
100
AcDbLine
 10
-150.5819413794933
 20
-1143.128888513717
 30
0.0
 11
-121.4819413794948
 21
-1143.128888513717
 31
0.0
  0
LINE
  5
273C
330
85F
100
AcDbEntity
  8
DETAIL
100
AcDbLine
 10
-150.5819413794933
 20
-1142.328888513716
 30
0.0
 11
-121.4819413794948
 21
-1142.328888513716
 31
0.0
  0
LINE
  5
273D
330
85F
100
AcDbEntity
  8
DETAIL
100
AcDbLine
 10
-141.4319413794919
 20
-1056.074484012869
 30
0.0
 11
-141.4319413794919
 21
-1056.381465272965
 31
0.0
  0
LINE
  5
273E
330
85F
100
AcDbEntity
  8
DETAIL
100
AcDbLine
 10
-141.4319413794919
 20
-1056.074484012869
 30
0.0
 11
-141.4319413794919
 21
-1055.674484012869
 31
0.0
  0
ELLIPSE
  5
273F
330
85F
100
AcDbEntity
  8
DETAIL
100
AcDbEllipse
 10
-141.9819413794948
 20
-1054.465920816342
 30
0.0
 11
1.49999999999994
 21
-0.0000000000000022
 31
0.0
210
0.0
220
0.0
230
1.0
 40
0.8660254037843056
 41
5.087812588365587
 42
6.128610417167757
  0
ELLIPSE
  5
2740
330
85F
100
AcDbEntity
  8
DETAIL
100
AcDbEllipse
 10
-141.9819413794948
 20
-1054.465920816342
 30
0.0
 11
-1.500000000000011
 21
-0.0000000000000736
 31
0.0
210
0.0
220
0.0
230
1.0
 40
0.8660254037842985
 41
0.1545748900117747
 42
1.195372718813737
  0
ELLIPSE
  5
2741
330
85F
100
AcDbEntity
  8
DETAIL
100
AcDbEllipse
 10
-141.9819413794948
 20
-1054.865920816343
 30
0.0
 11
-1.499999999999995
 21
-0.0000000000000317
 31
0.0
210
0.0
220
0.0
230
1.0
 40
0.866025403784296
 41
1.946219934775769
 42
7.478558025993298
  0
LINE
  5
2742
330
85F
100
AcDbEntity
  8
DETAIL
100
AcDbLine
 10
-142.5319413794904
 20
-1056.074484012869
 30
0.0
 11
-142.5319413794904
 21
-1055.674484012869
 31
0.0
  0
LINE
  5
2743
330
85F
100
AcDbEntity
  8
DETAIL
100
AcDbLine
 10
-142.5319413794904
 20
-1056.381465272965
 30
0.0
 11
-142.5319413794904
 21
-1056.074484012869
 31
0.0
  0
ELLIPSE
  5
2744
330
85F
100
AcDbEntity
  8
DETAIL
100
AcDbEllipse
 10
-141.9819413794948
 20
-1055.981465272965
 30
0.0
 11
-0.5500000000000007
 21
-0.0000000000000178
 31
0.0
210
0.0
220
0.0
230
1.0
 40
0.866025403784292
 41
0.0
 42
3.14159265358975
  0
ELLIPSE
  5
2745
330
85F
100
AcDbEntity
  8
DETAIL
100
AcDbEllipse
 10
-141.9819413794948
 20
-1056.381465272965
 30
0.0
 11
0.5500000000000007
 21
-0.0000000000000178
 31
0.0
210
0.0
220
0.0
230
1.0
 40
0.866025403784292
 41
3.141592653589845
 42
6.283185307179637
  0
LINE
  5
2746
330
85F
100
AcDbEntity
  8
DETAIL
100
AcDbLine
 10
-149.881941379489
 20
-1134.692392853335
 30
0.0
 11
-149.881941379489
 21
-1134.549543134173
 31
0.0
  0
LINE
  5
2747
330
85F
100
AcDbEntity
  8
DETAIL
100
AcDbLine
 10
-149.881941379489
 20
-1134.549543134173
 30
0.0
 11
-150.6819413794919
 21
-1134.549543134173
 31
0.0
  0
LINE
  5
2748
330
85F
100
AcDbEntity
  8
DETAIL
100
AcDbLine
 10
-150.6819413794919
 20
-1134.692392853335
 30
0.0
 11
-149.881941379489
 21
-1134.692392853335
 31
0.0
  0
LINE
  5
2749
330
85F
100
AcDbEntity
  8
DETAIL
100
AcDbLine
 10
-149.881941379489
 20
-988.2195000498246
 30
0.0
 11
-150.6819413794919
 21
-988.2195000498246
 31
0.0
  0
LINE
  5
274A
330
85F
100
AcDbEntity
  8
DETAIL
100
AcDbLine
 10
-149.881941379489
 20
-988.2195000498246
 30
0.0
 11
-149.881941379489
 21
-1134.549543134173
 31
0.0
  0
LINE
  5
274B
330
85F
100
AcDbEntity
  8
DETAIL
100
AcDbLine
 10
-150.6819413794919
 20
-988.2195000498246
 30
0.0
 11
-150.6819413794919
 21
-985.6288885136695
 31
0.0
  0
LINE
  5
274C
330
85F
100
AcDbEntity
  8
DETAIL
100
AcDbLine
 10
-151.4819413794948
 20
-985.6288885136695
 30
0.0
 11
-151.4819413794948
 21
-1142.228888513716
 31
0.0
  0
LINE
  5
274D
330
85F
100
AcDbEntity
  8
DETAIL
100
AcDbLine
 10
-150.6819413794919
 20
-1142.228888513716
 30
0.0
 11
-150.6819413794919
 21
-1134.549543134173
 31
0.0
  0
LINE
  5
274E
330
85F
100
AcDbEntity
  8
DETAIL
100
AcDbLine
 10
-150.6819413794919
 20
-985.6288885136695
 30
0.0
 11
-151.1548991746212
 21
-985.6288885136695
 31
0.0
  0
LINE
  5
274F
330
85F
100
AcDbEntity
  8
DETAIL
100
AcDbLine
 10
-151.1548991746212
 20
-985.6288885136695
 30
0.0
 11
-151.4819413794948
 21
-985.6288885136695
 31
0.0
  0
SPLINE
  5
2750
330
85F
100
AcDbEntity
  8
DETAIL
100
AcDbSpline
210
0.0
220
0.0
230
1.0
 70
     8
 71
     3
 72
    11
 73
     7
 74
     0
 42
0.0000000001
 43
0.0000000001
 40
0.0
 40
0.0
 40
0.0
 40
0.0
 40
1.437607986813138
 40
1.437607986813138
 40
1.437607986813138
 40
1.570796326794916
 40
1.570796326794916
 40
1.570796326794916
 40
1.570796326794916
 10
-150.5819413794933
 20
-984.7288885136688
 30
0.0
 10
-151.013223775536
 20
-984.7288885136688
 30
0.0
 10
-151.4166984536031
 20
-985.0819103309643
 30
0.0
 10
-151.4739705626388
 20
-985.509373090354
 30
0.0
 10
-151.479276582916
 20
-985.5489757190596
 30
0.0
 10
-151.4819413794948
 20
-985.5889320116753
 30
0.0
 10
-151.4819413794948
 20
-985.6288885136695
 30
0.0
  0
LINE
  5
2751
330
85F
100
AcDbEntity
  8
DETAIL
100
AcDbLine
 10
-150.5819413794933
 20
-985.5288885136692
 30
0.0
 11
-150.5819413794933
 21
-984.7288885136688
 31
0.0
  0
SPLINE
  5
2752
330
85F
100
AcDbEntity
  8
DETAIL
100
AcDbSpline
210
0.0
220
0.0
230
1.0
 70
     8
 71
     3
 72
     8
 73
     4
 74
     0
 42
0.0000000001
 43
0.0000000001
 40
0.0
 40
0.0
 40
0.0
 40
0.0
 40
1.570796326794916
 40
1.570796326794916
 40
1.570796326794916
 40
1.570796326794916
 10
-150.6819413794919
 20
-985.6288885136695
 30
0.0
 10
-150.6819413794919
 20
-985.5765286361098
 30
0.0
 10
-150.634301257055
 20
-985.5288885136692
 30
0.0
 10
-150.5819413794933
 20
-985.5288885136692
 30
0.0
  0
LINE
  5
2753
330
85F
100
AcDbEntity
  8
DETAIL
100
AcDbLine
 10
-151.4819413794948
 20
-1142.228888513716
 30
0.0
 11
-151.1548991746212
 21
-1142.228888513716
 31
0.0
  0
LINE
  5
2754
330
85F
100
AcDbEntity
  8
DETAIL
100
AcDbLine
 10
-151.1548991746212
 20
-1142.228888513716
 30
0.0
 11
-150.6819413794919
 21
-1142.228888513716
 31
0.0
  0
SPLINE
  5
2755
330
85F
100
AcDbEntity
  8
DETAIL
100
AcDbSpline
210
0.0
220
0.0
230
1.0
 70
     8
 71
     3
 72
     8
 73
     4
 74
     0
 42
0.0000000001
 43
0.0000000001
 40
0.0
 40
0.0
 40
0.0
 40
0.0
 40
1.570796326794896
 40
1.570796326794896
 40
1.570796326794896
 40
1.570796326794896
 10
-150.6819413794919
 20
-1142.228888513716
 30
0.0
 10
-150.6819413794919
 20
-1142.281248391277
 30
0.0
 10
-150.634301257055
 20
-1142.328888513716
 30
0.0
 10
-150.5819413794933
 20
-1142.328888513716
 30
0.0
  0
SPLINE
  5
2756
330
85F
100
AcDbEntity
  8
DETAIL
100
AcDbSpline
210
0.0
220
0.0
230
1.0
 70
     8
 71
     3
 72
    11
 73
     7
 74
     0
 42
0.0000000001
 43
0.0000000001
 40
0.0
 40
0.0
 40
0.0
 40
0.0
 40
1.437607986812995
 40
1.437607986812995
 40
1.437607986812995
 40
1.570796326794896
 40
1.570796326794896
 40
1.570796326794896
 40
1.570796326794896
 10
-151.4819413794948
 20
-1142.228888513716
 30
0.0
 10
-151.4819413794948
 20
-1142.660170909761
 30
0.0
 10
-151.1289195621984
 20
-1143.06364558783
 30
0.0
 10
-150.701456802807
 20
-1143.120917696866
 30
0.0
 10
-150.6618541741017
 20
-1143.126223717144
 30
0.0
 10
-150.621897881484
 20
-1143.128888513717
 30
0.0
 10
-150.5819413794933
 20
-1143.128888513717
 30
0.0
  0
LINE
  5
2757
330
85F
100
AcDbEntity
  8
DETAIL
100
AcDbLine
 10
-150.5819413794933
 20
-1142.328888513716
 30
0.0
 11
-150.5819413794933
 21
-1143.128888513717
 31
0.0
  0
LINE
  5
2758
330
85F
100
AcDbEntity
  8
DETAIL
100
AcDbLine
 10
-149.006531543423
 20
-984.7288885136688
 30
0.0
 11
-150.4819413794948
 21
-984.7288885136688
 31
0.0
  0
LINE
  5
2759
330
85F
100
AcDbEntity
  8
DETAIL
100
AcDbLine
 10
-150.4819413794948
 20
-984.7288885136688
 30
0.0
 11
-150.4819413794948
 21
-985.5288885136692
 31
0.0
  0
LINE
  5
275A
330
85F
100
AcDbEntity
  8
DETAIL
100
AcDbLine
 10
-150.4819413794948
 20
-985.5288885136692
 30
0.0
 11
-135.4819413794948
 21
-985.5288885136657
 31
0.0
  0
LINE
  5
275B
330
85F
100
AcDbEntity
  8
DETAIL
100
AcDbLine
 10
-135.4819413794948
 20
-985.5288885136657
 30
0.0
 11
-135.4819413794948
 21
-984.7288885136652
 31
0.0
  0
LINE
  5
275C
330
85F
100
AcDbEntity
  8
DETAIL
100
AcDbLine
 10
-150.5819413794933
 20
-985.5288885136692
 30
0.0
 11
-150.4819413794948
 21
-985.5288885136692
 31
0.0
  0
LINE
  5
275D
330
85F
100
AcDbEntity
  8
DETAIL
100
AcDbLine
 10
-150.4819413794948
 20
-984.7288885136688
 30
0.0
 11
-150.5819413794933
 21
-984.7288885136688
 31
0.0
  0
CIRCLE
  5
275E
330
85F
100
AcDbEntity
  8
DETAIL
100
AcDbCircle
 10
-141.9819413794948
 20
-1129.128888513577
 30
0.0
 40
2.5
  0
ELLIPSE
  5
275F
330
85F
100
AcDbEntity
  8
DETAIL
100
AcDbEllipse
 10
-150.5819413794933
 20
-986.0449139173828
 30
0.0
 11
-0.9000000000045645
 21
-0.0000000000002184
 31
0.0
210
0.0
220
0.0
230
1.0
 40
0.4999999999971453
 41
4.712388980385356
 42
4.818053084261257
  0
LINE
  5
2760
330
85F
100
AcDbEntity
  8
DETAIL
100
AcDbLine
 10
-150.5819413794933
 20
-985.594913917383
 30
0.0
 11
-150.5819413794933
 21
-985.9949139173835
 31
0.0
  0
LINE
  5
2761
330
85F
100
AcDbEntity
  8
DETAIL
100
AcDbLine
 10
-150.5819413794933
 20
-985.9949139173835
 30
0.0
 11
-150.5819413794933
 21
-988.2195000497526
 31
0.0
  0
ELLIPSE
  5
2762
330
85F
100
AcDbEntity
  8
DETAIL
100
AcDbEllipse
 10
-150.5819413794933
 20
-986.0449139173836
 30
0.0
 11
-0.1000000000000785
 21
-0.000000000000011
 31
0.0
210
0.0
220
0.0
230
1.0
 40
0.5000000000001174
 41
4.712388980384633
 42
6.283185307179388
  0
LINE
  5
2763
330
85F
100
AcDbEntity
  8
DETAIL
100
AcDbLine
 10
-135.4819413794948
 20
-985.9949139173835
 30
0.0
 11
-150.5819413794933
 21
-985.9949139173835
 31
0.0
  0
LINE
  5
2764
330
85F
100
AcDbEntity
  8
DETAIL
100
AcDbLine
 10
-135.4819413794948
 20
-985.9949139173835
 30
0.0
 11
-135.4819413794948
 21
-985.594913917383
 31
0.0
  0
LINE
  5
2765
330
85F
100
AcDbEntity
  8
DETAIL
100
AcDbLine
 10
-135.4819413794948
 20
-985.594913917383
 30
0.0
 11
-150.5819413794933
 21
-985.594913917383
 31
0.0
  0
LINE
  5
2766
330
85F
100
AcDbEntity
  8
DETAIL
100
AcDbLine
 10
-135.4819413794875
 20
-1117.662863109792
 30
0.0
 11
-149.881941379489
 21
-1117.662863109792
 31
0.0
  0
LINE
  5
2767
330
85F
100
AcDbEntity
  8
DETAIL
100
AcDbLine
 10
-135.4819413794875
 20
-1117.662863109792
 30
0.0
 11
-135.4819413794948
 21
-985.9949139173835
 31
0.0
  0
LINE
  5
2768
330
85F
100
AcDbEntity
  8
DETAIL
100
AcDbLine
 10
-135.4819413794948
 20
-1119.128888513576
 30
0.0
 11
-149.881941379489
 21
-1119.128888513576
 31
0.0
  0
LINE
  5
2769
330
85F
100
AcDbEntity
  8
DETAIL
100
AcDbLine
 10
-135.4819413794948
 20
-1142.228888513576
 30
0.0
 11
-150.5819413794933
 21
-1142.228888513576
 31
0.0
  0
LINE
  5
276A
330
85F
100
AcDbEntity
  8
DETAIL
100
AcDbLine
 10
-135.4819413794948
 20
-1142.228888513576
 30
0.0
 11
-135.4819413794948
 21
-1119.128888513576
 31
0.0
  0
LINE
  5
276B
330
85F
100
AcDbEntity
  8
DETAIL
100
AcDbLine
 10
-150.5819413794933
 20
-1134.692392853202
 30
0.0
 11
-150.5819413794933
 21
-1142.228888513576
 31
0.0
  0
LINE
  5
276C
330
85F
100
AcDbEntity
  8
DETAIL
100
AcDbLine
 10
-150.5819413794933
 20
-1142.228888513576
 30
0.0
 11
-150.6819413794919
 21
-1142.228888513576
 31
0.0
  0
LINE
  5
276D
330
85F
100
AcDbEntity
  8
DETAIL
100
AcDbLine
 10
36.5180586205052
 20
-1142.328888513715
 30
0.0
 11
36.5180586205052
 21
-1143.128888513716
 31
0.0
  0
LINE
  5
276E
330
85F
100
AcDbEntity
  8
DETAIL
100
AcDbLine
 10
36.5180586205052
 20
-1143.128888513716
 30
0.0
 11
39.5180586205052
 21
-1143.128888513717
 31
0.0
  0
LINE
  5
276F
330
85F
100
AcDbEntity
  8
DETAIL
100
AcDbLine
 10
39.5180586205052
 20
-1142.328888513716
 30
0.0
 11
36.5180586205052
 21
-1142.328888513715
 31
0.0
  0
LINE
  5
2770
330
85F
100
AcDbEntity
  8
DETAIL
100
AcDbLine
 10
39.5180586205052
 20
-1143.128888513717
 30
0.0
 11
39.5180586205052
 21
-1142.328888513716
 31
0.0
  0
LINE
  5
2771
330
85F
100
AcDbEntity
  8
DETAIL
100
AcDbLine
 10
63.61805862051102
 20
-1143.128888513717
 30
0.0
 11
39.5180586205052
 21
-1143.128888513717
 31
0.0
  0
LINE
  5
2772
330
85F
100
AcDbEntity
  8
DETAIL
100
AcDbLine
 10
63.61805862051102
 20
-1142.328888513716
 30
0.0
 11
39.5180586205052
 21
-1142.328888513716
 31
0.0
  0
LINE
  5
2773
330
85F
100
AcDbEntity
  8
DETAIL
100
AcDbLine
 10
63.61805862051102
 20
-1143.128888513717
 30
0.0
 11
63.61805862051102
 21
-1142.328888513716
 31
0.0
  0
LINE
  5
2774
330
85F
100
AcDbEntity
  8
DETAIL
100
AcDbLine
 10
63.71805862050957
 20
-1142.228888513716
 30
0.0
 11
64.1910164156389
 21
-1142.228888513716
 31
0.0
  0
LINE
  5
2775
330
85F
100
AcDbEntity
  8
DETAIL
100
AcDbLine
 10
64.1910164156389
 20
-1142.228888513716
 30
0.0
 11
64.5180586205052
 21
-1142.228888513716
 31
0.0
  0
SPLINE
  5
2776
330
85F
100
AcDbEntity
  8
DETAIL
100
AcDbSpline
210
0.0
220
0.0
230
1.0
 70
     8
 71
     3
 72
    11
 73
     7
 74
     0
 42
0.0000000001
 43
0.0000000001
 40
0.0
 40
0.0
 40
0.0
 40
0.0
 40
1.437607986812995
 40
1.437607986812995
 40
1.437607986812995
 40
1.570796326794897
 40
1.570796326794897
 40
1.570796326794897
 40
1.570796326794897
 10
64.5180586205052
 20
-1142.228888513716
 30
0.0
 10
64.5180586205052
 20
-1142.660170909761
 30
0.0
 10
64.16503680320881
 20
-1143.06364558783
 30
0.0
 10
63.73757404382473
 20
-1143.120917696866
 30
0.0
 10
63.69797141511941
 20
-1143.126223717144
 30
0.0
 10
63.65801512250168
 20
-1143.128888513717
 30
0.0
 10
63.61805862051102
 20
-1143.128888513717
 30
0.0
  0
SPLINE
  5
2777
330
85F
100
AcDbEntity
  8
DETAIL
100
AcDbSpline
210
0.0
220
0.0
230
1.0
 70
     8
 71
     3
 72
     8
 73
     4
 74
     0
 42
0.0000000001
 43
0.0000000001
 40
0.0
 40
0.0
 40
0.0
 40
0.0
 40
1.570796326794897
 40
1.570796326794897
 40
1.570796326794897
 40
1.570796326794897
 10
63.71805862050957
 20
-1142.228888513716
 30
0.0
 10
63.71805862050957
 20
-1142.281248391277
 30
0.0
 10
63.67041849806543
 20
-1142.328888513716
 30
0.0
 10
63.61805862051102
 20
-1142.328888513716
 30
0.0
  0
LINE
  5
2778
330
85F
100
AcDbEntity
  8
DETAIL
100
AcDbLine
 10
54.46805862050957
 20
-1055.471465272965
 30
0.0
 11
54.46805862050957
 21
-1055.164484012869
 31
0.0
  0
LINE
  5
2779
330
85F
100
AcDbEntity
  8
DETAIL
100
AcDbLine
 10
54.46805862050957
 20
-1054.764484012869
 30
0.0
 11
54.46805862050957
 21
-1055.164484012869
 31
0.0
  0
ELLIPSE
  5
277A
330
85F
100
AcDbEntity
  8
DETAIL
100
AcDbEllipse
 10
55.0180586205052
 20
-1053.955920816342
 30
0.0
 11
-1.499999999999996
 21
0.0000000000000235
 31
0.0
210
0.0
220
0.0
230
1.0
 40
0.8660254037842939
 41
1.946219934775804
 42
7.478558025993383
  0
ELLIPSE
  5
277B
330
85F
100
AcDbEntity
  8
DETAIL
100
AcDbEllipse
 10
55.0180586205052
 20
-1053.555920816342
 30
0.0
 11
1.499999999999993
 21
-0.000000000000035
 31
0.0
210
0.0
220
0.0
230
1.0
 40
0.8660254037842928
 41
5.087812588365872
 42
6.128610417167916
  0
ELLIPSE
  5
277C
330
85F
100
AcDbEntity
  8
DETAIL
100
AcDbEllipse
 10
55.0180586205052
 20
-1053.555920816342
 30
0.0
 11
-1.49999999999996
 21
-0.0000000000000219
 31
0.0
210
0.0
220
0.0
230
1.0
 40
0.8660254037843088
 41
0.1545748900116772
 42
1.195372718813984
  0
LINE
  5
277D
330
85F
100
AcDbEntity
  8
DETAIL
100
AcDbLine
 10
55.56805862050811
 20
-1054.764484012869
 30
0.0
 11
55.56805862050811
 21
-1055.164484012869
 31
0.0
  0
LINE
  5
277E
330
85F
100
AcDbEntity
  8
DETAIL
100
AcDbLine
 10
55.56805862050811
 20
-1055.164484012869
 30
0.0
 11
55.56805862050811
 21
-1055.471465272965
 31
0.0
  0
ELLIPSE
  5
277F
330
85F
100
AcDbEntity
  8
DETAIL
100
AcDbEllipse
 10
55.0180586205052
 20
-1055.471465272965
 30
0.0
 11
0.5500000000000007
 21
0.0
 31
0.0
210
0.0
220
0.0
230
1.0
 40
0.8660254037842928
 41
3.141592653589786
 42
6.28318530717958
  0
ELLIPSE
  5
2780
330
85F
100
AcDbEntity
  8
DETAIL
100
AcDbEllipse
 10
55.0180586205052
 20
-1055.071465272964
 30
0.0
 11
-0.5500000000000007
 21
0.0000000000000178
 31
0.0
210
0.0
220
0.0
230
1.0
 40
0.8660254037842964
 41
0.0000000000000266
 42
3.141592653589818
  0
LINE
  5
2781
330
85F
100
AcDbEntity
  8
DETAIL
100
AcDbLine
 10
62.91805862050665
 20
-1134.536931333995
 30
0.0
 11
62.91805862050665
 21
-1134.661651019403
 31
0.0
  0
LINE
  5
2782
330
85F
100
AcDbEntity
  8
DETAIL
100
AcDbLine
 10
62.91805862050665
 20
-1134.661651019403
 30
0.0
 11
63.71805862050957
 21
-1134.661651019403
 31
0.0
  0
LINE
  5
2783
330
85F
100
AcDbEntity
  8
DETAIL
100
AcDbLine
 10
63.71805862050957
 20
-1134.536931333995
 30
0.0
 11
62.91805862050665
 21
-1134.536931333995
 31
0.0
  0
LINE
  5
2784
330
85F
100
AcDbEntity
  8
DETAIL
100
AcDbLine
 10
63.71805862050957
 20
-988.2252326862694
 30
0.0
 11
62.91805862050665
 21
-988.2252326862694
 31
0.0
  0
LINE
  5
2785
330
85F
100
AcDbEntity
  8
DETAIL
100
AcDbLine
 10
62.91805862050665
 20
-988.2252326862694
 30
0.0
 11
62.91805862050665
 21
-1134.536931333995
 31
0.0
  0
LINE
  5
2786
330
85F
100
AcDbEntity
  8
DETAIL
100
AcDbLine
 10
63.71805862050957
 20
-1134.536931333995
 30
0.0
 11
63.71805862050957
 21
-1142.228888513716
 31
0.0
  0
LINE
  5
2787
330
85F
100
AcDbEntity
  8
DETAIL
100
AcDbLine
 10
64.5180586205052
 20
-1142.228888513716
 30
0.0
 11
64.5180586205052
 21
-984.7288885136688
 31
0.0
  0
LINE
  5
2788
330
85F
100
AcDbEntity
  8
DETAIL
100
AcDbLine
 10
64.5180586205052
 20
-984.7288885136688
 30
0.0
 11
63.71805862050957
 21
-984.7288885136688
 31
0.0
  0
LINE
  5
2789
330
85F
100
AcDbEntity
  8
DETAIL
100
AcDbLine
 10
63.71805862050957
 20
-984.7288885136688
 30
0.0
 11
63.71805862050957
 21
-988.2252326862694
 31
0.0
  0
LINE
  5
278A
330
85F
100
AcDbEntity
  8
DETAIL
100
AcDbLine
 10
48.5180586205052
 20
-985.5288885136646
 30
0.0
 11
63.5180586205052
 21
-985.5288885136692
 31
0.0
  0
LINE
  5
278B
330
85F
100
AcDbEntity
  8
DETAIL
100
AcDbLine
 10
63.5180586205052
 20
-985.5288885136692
 30
0.0
 11
63.5180586205052
 21
-984.7288885136688
 31
0.0
  0
LINE
  5
278C
330
85F
100
AcDbEntity
  8
DETAIL
100
AcDbLine
 10
63.5180586205052
 20
-984.7288885136688
 30
0.0
 11
62.27871435822004
 21
-984.7288885136681
 31
0.0
  0
LINE
  5
278D
330
85F
100
AcDbEntity
  8
DETAIL
100
AcDbLine
 10
48.5180586205052
 20
-984.7288885136643
 30
0.0
 11
48.5180586205052
 21
-985.5288885136646
 31
0.0
  0
LINE
  5
278E
330
85F
100
AcDbEntity
  8
DETAIL
100
AcDbLine
 10
63.61805862051102
 20
-984.7288885136688
 30
0.0
 11
63.5180586205052
 21
-984.7288885136688
 31
0.0
  0
LINE
  5
278F
330
85F
100
AcDbEntity
  8
DETAIL
100
AcDbLine
 10
63.5180586205052
 20
-985.5288885136692
 30
0.0
 11
63.61805862051102
 21
-985.5288885136692
 31
0.0
  0
LINE
  5
2790
330
85F
100
AcDbEntity
  8
DETAIL
100
AcDbLine
 10
63.61805862051102
 20
-985.5288885136692
 30
0.0
 11
63.61805862051102
 21
-984.7288885136688
 31
0.0
  0
ARC
  5
2791
330
85F
100
AcDbEntity
  8
DETAIL
100
AcDbCircle
 10
63.61805862051102
 20
-985.6288885136686
 30
0.0
 40
0.1000000000000156
100
AcDbArc
 50
0.0
 51
90.0
  0
ARC
  5
2792
330
85F
100
AcDbEntity
  8
DETAIL
100
AcDbCircle
 10
63.61805862051102
 20
-985.6288885136732
 30
0.0
 40
0.9000000000038891
100
AcDbArc
 50
83.62062979165019
 51
90.0
  0
CIRCLE
  5
2793
330
85F
100
AcDbEntity
  8
DETAIL
100
AcDbCircle
 10
55.0180586205052
 20
-1129.128888513577
 30
0.0
 40
2.5
  0
LINE
  5
2794
330
85F
100
AcDbEntity
  8
DETAIL
100
AcDbLine
 10
63.61805862051102
 20
-988.2252326861976
 30
0.0
 11
63.61805862051102
 21
-985.9949139173828
 31
0.0
  0
ELLIPSE
  5
2795
330
85F
100
AcDbEntity
  8
DETAIL
100
AcDbEllipse
 10
63.61805862051102
 20
-986.0449139173828
 30
0.0
 11
0.0999999999999916
 21
0.000000000000002
 31
0.0
210
0.0
220
0.0
230
1.0
 40
0.500000000000197
 41
0.0
 42
1.570796326794885
  0
LINE
  5
2796
330
85F
100
AcDbEntity
  8
DETAIL
100
AcDbLine
 10
63.61805862051102
 20
-985.9949139173828
 30
0.0
 11
63.61805862051102
 21
-985.594913917383
 31
0.0
  0
ELLIPSE
  5
2797
330
85F
100
AcDbEntity
  8
DETAIL
100
AcDbEllipse
 10
63.61805862051102
 20
-986.0449139173784
 30
0.0
 11
-0.8999999999997266
 21
0.0000000000002816
 31
0.0
210
0.0
220
0.0
230
1.0
 40
0.4999999999956286
 41
4.60672487650838
 42
4.712388980384844
  0
LINE
  5
2798
330
85F
100
AcDbEntity
  8
DETAIL
100
AcDbLine
 10
63.61805862051102
 20
-985.594913917383
 30
0.0
 11
48.5180586205052
 21
-985.594913917383
 31
0.0
  0
LINE
  5
2799
330
85F
100
AcDbEntity
  8
DETAIL
100
AcDbLine
 10
48.5180586205052
 20
-985.594913917383
 30
0.0
 11
48.5180586205052
 21
-985.9949139173828
 31
0.0
  0
LINE
  5
279A
330
85F
100
AcDbEntity
  8
DETAIL
100
AcDbLine
 10
48.5180586205052
 20
-985.9949139173828
 30
0.0
 11
63.61805862051102
 21
-985.9949139173828
 31
0.0
  0
LINE
  5
279B
330
85F
100
AcDbEntity
  8
DETAIL
100
AcDbLine
 10
62.91805862050665
 20
-1117.662863109792
 30
0.0
 11
48.5180586205052
 21
-1117.662863109792
 31
0.0
  0
LINE
  5
279C
330
85F
100
AcDbEntity
  8
DETAIL
100
AcDbLine
 10
48.5180586205052
 20
-1117.662863109792
 30
0.0
 11
48.5180586205052
 21
-985.9949139173828
 31
0.0
  0
LINE
  5
279D
330
85F
100
AcDbEntity
  8
DETAIL
100
AcDbLine
 10
63.61805862051102
 20
-1142.228888513576
 30
0.0
 11
63.61805862051102
 21
-1134.661651019268
 31
0.0
  0
LINE
  5
279E
330
85F
100
AcDbEntity
  8
DETAIL
100
AcDbLine
 10
63.71805862050957
 20
-1142.228888513576
 30
0.0
 11
63.61805862051102
 21
-1142.228888513576
 31
0.0
  0
LINE
  5
279F
330
85F
100
AcDbEntity
  8
DETAIL
100
AcDbLine
 10
48.5180586205052
 20
-1119.128888513576
 30
0.0
 11
62.91805862050665
 21
-1119.128888513576
 31
0.0
  0
LINE
  5
27A0
330
85F
100
AcDbEntity
  8
DETAIL
100
AcDbLine
 10
63.61805862051102
 20
-1142.228888513576
 30
0.0
 11
48.5180586205052
 21
-1142.228888513576
 31
0.0
  0
LINE
  5
27A1
330
85F
100
AcDbEntity
  8
DETAIL
100
AcDbLine
 10
48.5180586205052
 20
-1142.228888513576
 30
0.0
 11
48.5180586205052
 21
-1119.128888513576
 31
0.0
  0
LINE
  5
27A2
330
85F
100
AcDbEntity
  8
DETAIL
100
AcDbLine
 10
63.51805862051975
 20
-983.9288885136797
 30
0.0
 11
60.51805862051975
 21
-983.9288885136797
 31
0.0
  0
LINE
  5
27A3
330
85F
100
AcDbEntity
  8
DETAIL
100
AcDbLine
 10
60.51805862051975
 20
-983.9288885136797
 30
0.0
 11
60.51805862051975
 21
-984.7288885136801
 31
0.0
  0
LINE
  5
27A4
330
85F
100
AcDbEntity
  8
DETAIL
100
AcDbLine
 10
60.51805862051975
 20
-984.7288885136801
 30
0.0
 11
62.27871435822004
 21
-984.7288885136791
 31
0.0
  0
LINE
  5
27A5
330
85F
100
AcDbEntity
  8
DETAIL
100
AcDbLine
 10
63.51805862051975
 20
-984.7288885136791
 30
0.0
 11
63.51805862051975
 21
-983.9288885136797
 31
0.0
  0
LINE
  5
27A6
330
85F
100
AcDbEntity
  8
DETAIL
100
AcDbLine
 10
-149.006531543423
 20
-984.7288885136688
 30
0.0
 11
-147.4819413794802
 21
-984.7288885136688
 31
0.0
  0
LINE
  5
27A7
330
85F
100
AcDbEntity
  8
DETAIL
100
AcDbLine
 10
-147.4819413794802
 20
-984.7288885136688
 30
0.0
 11
-147.4819413794802
 21
-983.9288885136687
 31
0.0
  0
LINE
  5
27A8
330
85F
100
AcDbEntity
  8
DETAIL
100
AcDbLine
 10
-147.4819413794802
 20
-983.9288885136687
 30
0.0
 11
-150.4819413794802
 21
-983.928888513668
 31
0.0
  0
LINE
  5
27A9
330
85F
100
AcDbEntity
  8
DETAIL
100
AcDbLine
 10
-150.4819413794802
 20
-983.928888513668
 30
0.0
 11
-150.4819413794802
 21
-984.7288885136681
 31
0.0
  0
LINE
  5
27AA
330
85F
100
AcDbEntity
  8
DETAIL
100
AcDbLine
 10
60.51805862051975
 20
-984.7288885136801
 30
0.0
 11
46.51805862051975
 21
-984.7288885136791
 31
0.0
  0
LINE
  5
27AB
330
85F
100
AcDbEntity
  8
DETAIL
100
AcDbLine
 10
-133.4819413794802
 20
-984.7288885136698
 30
0.0
 11
-147.4819413794802
 21
-984.7288885136688
 31
0.0
  0
LINE
  5
27AC
330
85F
100
AcDbEntity
  8
DETAIL
100
AcDbLine
 10
60.51805862051975
 20
-983.9288885136797
 30
0.0
 11
-147.4819413794802
 21
-983.9288885136687
 31
0.0
  0
LINE
  5
27AD
330
85F
100
AcDbEntity
  8
DETAIL
100
AcDbLine
 10
-133.4819413794802
 20
-984.7288885136698
 30
0.0
 11
-133.4819413794875
 21
-985.5288885136699
 31
0.0
  0
LINE
  5
27AE
330
85F
100
AcDbEntity
  8
DETAIL
100
AcDbLine
 10
46.51805862051975
 20
-984.7288885136791
 30
0.0
 11
46.51805862051975
 21
-985.5288885136792
 31
0.0
  0
LINE
  5
27AF
330
85F
100
AcDbEntity
  8
DETAIL
100
AcDbLine
 10
-133.4819413794875
 20
-985.5288885136699
 30
0.0
 11
46.51805862051975
 21
-985.5288885136792
 31
0.0
  0
LINE
  5
27B0
330
85F
100
AcDbEntity
  8
DETAIL
100
AcDbLine
 10
-72.98194137949479
 20
-1138.619016786251
 30
0.0
 11
-104.9819413794948
 21
-1138.619016786251
 31
0.0
  0
LINE
  5
27B1
330
85F
100
AcDbEntity
  8
DETAIL
100
AcDbLine
 10
48.5180586205052
 20
-1138.619016786251
 30
0.0
 11
34.0180586205052
 21
-1138.619016786251
 31
0.0
  0
LINE
  5
27B2
330
85F
100
AcDbEntity
  8
DETAIL
100
AcDbLine
 10
-135.4819413794948
 20
-1137.71901678625
 30
0.0
 11
48.5180586205052
 21
-1137.719016786251
 31
0.0
  0
LINE
  5
27B3
330
85F
100
AcDbEntity
  8
DETAIL
100
AcDbLine
 10
34.0180586205052
 20
-1138.619016786251
 30
0.0
 11
-72.98194137949479
 21
-1138.619016786251
 31
0.0
  0
LINE
  5
27B4
330
85F
100
AcDbEntity
  8
DETAIL
100
AcDbLine
 10
-104.9819413794948
 20
-1138.619016786251
 30
0.0
 11
-107.9819413794948
 21
-1138.619016786251
 31
0.0
  0
LINE
  5
27B5
330
85F
100
AcDbEntity
  8
DETAIL
100
AcDbLine
 10
63.51805862051246
 20
-983.8852542888519
 30
0.0
 11
63.51805862051246
 21
-983.085254288852
 31
0.0
  0
LINE
  5
27B6
330
85F
100
AcDbEntity
  8
DETAIL
100
AcDbLine
 10
-147.4819413794875
 20
-983.0852542888527
 30
0.0
 11
-150.4819413794875
 21
-983.085254288852
 31
0.0
  0
LINE
  5
27B7
330
85F
100
AcDbEntity
  8
DETAIL
100
AcDbLine
 10
-150.4819413794875
 20
-983.085254288852
 30
0.0
 11
-150.4819413794875
 21
-983.8852542888519
 31
0.0
  0
LINE
  5
27B8
330
85F
100
AcDbEntity
  8
DETAIL
100
AcDbLine
 10
-150.4819413794875
 20
-983.8852542888519
 30
0.0
 11
-147.4819413794875
 21
-983.8852542888528
 31
0.0
  0
LINE
  5
27B9
330
85F
100
AcDbEntity
  8
DETAIL
100
AcDbLine
 10
-147.4819413794875
 20
-983.8852542888528
 30
0.0
 11
-147.4819413794875
 21
-983.0852542888527
 31
0.0
  0
LINE
  5
27BA
330
85F
100
AcDbEntity
  8
DETAIL
100
AcDbLine
 10
63.51805862051246
 20
-983.085254288852
 30
0.0
 11
60.51805862051248
 21
-983.0852542888536
 31
0.0
  0
LINE
  5
27BB
330
85F
100
AcDbEntity
  8
DETAIL
100
AcDbLine
 10
60.51805862051248
 20
-983.0852542888536
 30
0.0
 11
60.51805862051248
 21
-983.8852542888528
 31
0.0
  0
LINE
  5
27BC
330
85F
100
AcDbEntity
  8
DETAIL
100
AcDbLine
 10
60.51805862051248
 20
-983.8852542888528
 30
0.0
 11
63.51805862051246
 21
-983.8852542888519
 31
0.0
  0
ELLIPSE
  5
27BD
330
85F
100
AcDbEntity
  8
DETAIL
100
AcDbEllipse
 10
-141.9819413794948
 20
-1054.083311995375
 30
0.0
 11
-2.49999999999972
 21
-0.000000000000014
 31
0.0
210
0.0
220
0.0
230
1.0
 40
0.8660254037843239
 41
1.375884198893119
 42
1.765708454696524
  0
ELLIPSE
  5
27BE
330
85F
100
AcDbEntity
  8
DETAIL
100
AcDbEllipse
 10
-141.9819413794948
 20
-1053.683311995375
 30
0.0
 11
2.499999999999789
 21
0.000000000000052
 31
0.0
210
0.0
220
0.0
230
1.0
 40
0.8660254037843426
 41
4.490574509887795
 42
4.934203450881388
  0
LINE
  5
27BF
330
85F
100
AcDbEntity
  8
DETAIL
100
AcDbLine
 10
-150.4819413794875
 20
-983.8852542888476
 30
0.0
 11
-150.4819413794875
 21
-983.928888513598
 31
0.0
  0
LINE
  5
27C0
330
85F
100
AcDbEntity
  8
DETAIL
100
AcDbLine
 10
63.51805862051246
 20
-983.9288885136086
 30
0.0
 11
63.51805862051246
 21
-983.8852542888476
 31
0.0
  0
LINE
  5
27C1
330
85F
100
AcDbEntity
  8
DETAIL
100
AcDbLine
 10
-150.4819413794875
 20
-985.5288885135975
 30
0.0
 11
-150.4819413794875
 21
-985.594913917383
 31
0.0
  0
LINE
  5
27C2
330
85F
100
AcDbEntity
  8
DETAIL
100
AcDbLine
 10
63.51805862051246
 20
-985.5949139173812
 30
0.0
 11
63.51805862051246
 21
-985.5288885135975
 31
0.0
  0
LINE
  5
27C3
330
85F
100
AcDbEntity
  8
DETAIL
100
AcDbLine
 10
60.51805862051248
 20
-983.0852542888536
 30
0.0
 11
-147.4819413794875
 21
-983.0852542888527
 31
0.0
  0
LINE
  5
27C4
330
85F
100
AcDbEntity
  8
DETAIL
100
AcDbLine
 10
60.51805862051248
 20
-983.8852542888528
 30
0.0
 11
-147.4819413794875
 21
-983.8852542888528
 31
0.0
  0
LINE
  5
27C5
330
85F
100
AcDbEntity
  8
DETAIL
100
AcDbLine
 10
-149.881941379489
 20
-1118.105683432821
 30
0.0
 11
62.91805862050665
 21
-1118.105683432821
 31
0.0
  0
LINE
  5
27C6
330
85F
100
AcDbEntity
  8
DETAIL
100
AcDbLine
 10
62.91805862050665
 20
-1118.155683432822
 30
0.0
 11
-149.881941379489
 21
-1118.155683432821
 31
0.0
  0
LINE
  5
27C7
330
85F
100
AcDbEntity
  8
DETAIL
100
AcDbLine
 10
53.5180586205052
 20
-1130.619016786251
 30
0.0
 11
53.5180586205052
 21
-1127.619016786251
 31
0.0
  0
LINE
  5
27C8
330
85F
100
AcDbEntity
  8
DETAIL
100
AcDbLine
 10
53.5180586205052
 20
-1127.619016786251
 30
0.0
 11
56.5180586205052
 21
-1127.619016786251
 31
0.0
  0
LINE
  5
27C9
330
85F
100
AcDbEntity
  8
DETAIL
100
AcDbLine
 10
56.5180586205052
 20
-1127.619016786251
 30
0.0
 11
56.5180586205052
 21
-1130.619016786251
 31
0.0
  0
LINE
  5
27CA
330
85F
100
AcDbEntity
  8
DETAIL
100
AcDbLine
 10
56.5180586205052
 20
-1130.619016786251
 30
0.0
 11
53.5180586205052
 21
-1130.619016786251
 31
0.0
  0
LINE
  5
27CB
330
85F
100
AcDbEntity
  8
DETAIL
100
AcDbLine
 10
-143.4819413794948
 20
-1130.619016786251
 30
0.0
 11
-143.4819413794948
 21
-1127.619016786251
 31
0.0
  0
LINE
  5
27CC
330
85F
100
AcDbEntity
  8
DETAIL
100
AcDbLine
 10
-143.4819413794948
 20
-1127.619016786251
 30
0.0
 11
-140.4819413794948
 21
-1127.619016786251
 31
0.0
  0
LINE
  5
27CD
330
85F
100
AcDbEntity
  8
DETAIL
100
AcDbLine
 10
-140.4819413794948
 20
-1127.619016786251
 30
0.0
 11
-140.4819413794948
 21
-1130.619016786251
 31
0.0
  0
LINE
  5
27CE
330
85F
100
AcDbEntity
  8
DETAIL
100
AcDbLine
 10
-140.4819413794948
 20
-1130.619016786251
 30
0.0
 11
-143.4819413794948
 21
-1130.619016786251
 31
0.0
  0
LINE
  5
27CF
330
85F
100
AcDbEntity
  8
DETAIL
100
AcDbLine
 10
-107.9819413794948
 20
-1141.619016786251
 30
0.0
 11
-108.9819413794948
 21
-1142.619016786251
 31
0.0
  0
LINE
  5
27D0
330
85F
100
AcDbEntity
  8
DETAIL
100
AcDbLine
 10
-149.7720696521691
 20
-1142.328888513576
 30
0.0
 11
-149.8720696521677
 21
-1142.228888513576
 31
0.0
  0
LINE
  5
27D1
330
85F
100
AcDbEntity
  8
DETAIL
100
AcDbLine
 10
-108.9819413794948
 20
-1142.619016786251
 30
0.0
 11
-118.4819413794948
 21
-1142.619016786251
 31
0.0
  0
LINE
  5
27D2
330
85F
100
AcDbEntity
  8
DETAIL
100
AcDbLine
 10
-107.9819413794948
 20
-1138.619016786251
 30
0.0
 11
-107.9819413794948
 21
-1141.619016786251
 31
0.0
  0
LINE
  5
27D3
330
85F
100
AcDbEntity
  8
DETAIL
100
AcDbLine
 10
-135.4819413794948
 20
-1138.619016786251
 30
0.0
 11
-107.9819413794948
 21
-1138.619016786251
 31
0.0
  0
LINE
  5
27D4
330
85F
100
AcDbEntity
  8
OUTLINE
100
AcDbLine
 10
-121.4819413794948
 20
-1143.128888513717
 30
0.0
 11
-118.4819413794948
 21
-1143.128888513716
 31
0.0
  0
LINE
  5
27D5
330
85F
100
AcDbEntity
  8
OUTLINE
100
AcDbLine
 10
-118.4819413794948
 20
-1143.128888513716
 30
0.0
 11
-118.4819413794948
 21
-1142.328888513715
 31
0.0
  0
LINE
  5
27D6
330
85F
100
AcDbEntity
  8
OUTLINE
100
AcDbLine
 10
-118.4819413794948
 20
-1142.328888513715
 30
0.0
 11
-121.4819413794948
 21
-1142.328888513716
 31
0.0
  0
LINE
  5
27D7
330
85F
100
AcDbEntity
  8
OUTLINE
100
AcDbLine
 10
-121.4819413794948
 20
-1142.328888513716
 30
0.0
 11
-121.4819413794948
 21
-1143.128888513717
 31
0.0
  0
LINE
  5
27D8
330
85F
100
AcDbEntity
  8
OUTLINE
100
AcDbLine
 10
-150.5819413794933
 20
-1143.128888513717
 30
0.0
 11
-121.4819413794948
 21
-1143.128888513717
 31
0.0
  0
LINE
  5
27D9
330
85F
100
AcDbEntity
  8
OUTLINE
100
AcDbLine
 10
-150.5819413794933
 20
-1142.328888513716
 30
0.0
 11
-121.4819413794948
 21
-1142.328888513716
 31
0.0
  0
LINE
  5
27DA
330
85F
100
AcDbEntity
  8
OUTLINE
100
AcDbLine
 10
-141.4319413794919
 20
-1056.074484012869
 30
0.0
 11
-141.4319413794919
 21
-1056.381465272965
 31
0.0
  0
LINE
  5
27DB
330
85F
100
AcDbEntity
  8
OUTLINE
100
AcDbLine
 10
-141.4319413794919
 20
-1056.074484012869
 30
0.0
 11
-141.4319413794919
 21
-1055.674484012869
 31
0.0
  0
ELLIPSE
  5
27DC
330
85F
100
AcDbEntity
  8
OUTLINE
100
AcDbEllipse
 10
-141.9819413794948
 20
-1054.465920816342
 30
0.0
 11
1.49999999999994
 21
-0.0000000000000022
 31
0.0
210
0.0
220
0.0
230
1.0
 40
0.8660254037843056
 41
5.087812588365587
 42
6.128610417167757
  0
ELLIPSE
  5
27DD
330
85F
100
AcDbEntity
  8
OUTLINE
100
AcDbEllipse
 10
-141.9819413794948
 20
-1054.465920816342
 30
0.0
 11
-1.500000000000011
 21
-0.0000000000000736
 31
0.0
210
0.0
220
0.0
230
1.0
 40
0.8660254037842985
 41
0.1545748900117747
 42
1.195372718813737
  0
ELLIPSE
  5
27DE
330
85F
100
AcDbEntity
  8
OUTLINE
100
AcDbEllipse
 10
-141.9819413794948
 20
-1054.865920816343
 30
0.0
 11
-1.499999999999995
 21
-0.0000000000000317
 31
0.0
210
0.0
220
0.0
230
1.0
 40
0.866025403784296
 41
1.946219934775769
 42
7.478558025993298
  0
LINE
  5
27DF
330
85F
100
AcDbEntity
  8
OUTLINE
100
AcDbLine
 10
-142.5319413794904
 20
-1056.074484012869
 30
0.0
 11
-142.5319413794904
 21
-1055.674484012869
 31
0.0
  0
LINE
  5
27E0
330
85F
100
AcDbEntity
  8
OUTLINE
100
AcDbLine
 10
-142.5319413794904
 20
-1056.381465272965
 30
0.0
 11
-142.5319413794904
 21
-1056.074484012869
 31
0.0
  0
ELLIPSE
  5
27E1
330
85F
100
AcDbEntity
  8
OUTLINE
100
AcDbEllipse
 10
-141.9819413794948
 20
-1055.981465272965
 30
0.0
 11
-0.5500000000000007
 21
-0.0000000000000178
 31
0.0
210
0.0
220
0.0
230
1.0
 40
0.866025403784292
 41
0.0
 42
3.14159265358975
  0
ELLIPSE
  5
27E2
330
85F
100
AcDbEntity
  8
OUTLINE
100
AcDbEllipse
 10
-141.9819413794948
 20
-1056.381465272965
 30
0.0
 11
0.5500000000000007
 21
-0.0000000000000178
 31
0.0
210
0.0
220
0.0
230
1.0
 40
0.866025403784292
 41
3.141592653589845
 42
6.283185307179637
  0
LINE
  5
27E3
330
85F
100
AcDbEntity
  8
OUTLINE
100
AcDbLine
 10
-149.881941379489
 20
-1134.692392853335
 30
0.0
 11
-149.881941379489
 21
-1134.549543134173
 31
0.0
  0
LINE
  5
27E4
330
85F
100
AcDbEntity
  8
OUTLINE
100
AcDbLine
 10
-149.881941379489
 20
-1134.549543134173
 30
0.0
 11
-150.6819413794919
 21
-1134.549543134173
 31
0.0
  0
LINE
  5
27E5
330
85F
100
AcDbEntity
  8
OUTLINE
100
AcDbLine
 10
-150.6819413794919
 20
-1134.692392853335
 30
0.0
 11
-149.881941379489
 21
-1134.692392853335
 31
0.0
  0
LINE
  5
27E6
330
85F
100
AcDbEntity
  8
OUTLINE
100
AcDbLine
 10
-149.881941379489
 20
-988.2195000498246
 30
0.0
 11
-150.6819413794919
 21
-988.2195000498246
 31
0.0
  0
LINE
  5
27E7
330
85F
100
AcDbEntity
  8
OUTLINE
100
AcDbLine
 10
-149.881941379489
 20
-988.2195000498246
 30
0.0
 11
-149.881941379489
 21
-1134.549543134173
 31
0.0
  0
LINE
  5
27E8
330
85F
100
AcDbEntity
  8
OUTLINE
100
AcDbLine
 10
-150.6819413794919
 20
-988.2195000498246
 30
0.0
 11
-150.6819413794919
 21
-985.6288885136695
 31
0.0
  0
LINE
  5
27E9
330
85F
100
AcDbEntity
  8
OUTLINE
100
AcDbLine
 10
-151.4819413794948
 20
-985.6288885136695
 30
0.0
 11
-151.4819413794948
 21
-1142.228888513716
 31
0.0
  0
LINE
  5
27EA
330
85F
100
AcDbEntity
  8
OUTLINE
100
AcDbLine
 10
-150.6819413794919
 20
-1142.228888513716
 30
0.0
 11
-150.6819413794919
 21
-1134.549543134173
 31
0.0
  0
LINE
  5
27EB
330
85F
100
AcDbEntity
  8
OUTLINE
100
AcDbLine
 10
-150.6819413794919
 20
-985.6288885136695
 30
0.0
 11
-151.1548991746212
 21
-985.6288885136695
 31
0.0
  0
LINE
  5
27EC
330
85F
100
AcDbEntity
  8
OUTLINE
100
AcDbLine
 10
-151.1548991746212
 20
-985.6288885136695
 30
0.0
 11
-151.4819413794948
 21
-985.6288885136695
 31
0.0
  0
SPLINE
  5
27ED
330
85F
100
AcDbEntity
  8
OUTLINE
100
AcDbSpline
210
0.0
220
0.0
230
1.0
 70
     8
 71
     3
 72
    11
 73
     7
 74
     0
 42
0.0000000001
 43
0.0000000001
 40
0.0
 40
0.0
 40
0.0
 40
0.0
 40
1.437607986813138
 40
1.437607986813138
 40
1.437607986813138
 40
1.570796326794916
 40
1.570796326794916
 40
1.570796326794916
 40
1.570796326794916
 10
-150.5819413794933
 20
-984.7288885136688
 30
0.0
 10
-151.013223775536
 20
-984.7288885136688
 30
0.0
 10
-151.4166984536031
 20
-985.0819103309643
 30
0.0
 10
-151.4739705626388
 20
-985.509373090354
 30
0.0
 10
-151.479276582916
 20
-985.5489757190596
 30
0.0
 10
-151.4819413794948
 20
-985.5889320116753
 30
0.0
 10
-151.4819413794948
 20
-985.6288885136695
 30
0.0
  0
LINE
  5
27EE
330
85F
100
AcDbEntity
  8
OUTLINE
100
AcDbLine
 10
-150.5819413794933
 20
-985.5288885136692
 30
0.0
 11
-150.5819413794933
 21
-984.7288885136688
 31
0.0
  0
SPLINE
  5
27EF
330
85F
100
AcDbEntity
  8
OUTLINE
100
AcDbSpline
210
0.0
220
0.0
230
1.0
 70
     8
 71
     3
 72
     8
 73
     4
 74
     0
 42
0.0000000001
 43
0.0000000001
 40
0.0
 40
0.0
 40
0.0
 40
0.0
 40
1.570796326794916
 40
1.570796326794916
 40
1.570796326794916
 40
1.570796326794916
 10
-150.6819413794919
 20
-985.6288885136695
 30
0.0
 10
-150.6819413794919
 20
-985.5765286361098
 30
0.0
 10
-150.634301257055
 20
-985.5288885136692
 30
0.0
 10
-150.5819413794933
 20
-985.5288885136692
 30
0.0
  0
LINE
  5
27F0
330
85F
100
AcDbEntity
  8
OUTLINE
100
AcDbLine
 10
-151.4819413794948
 20
-1142.228888513716
 30
0.0
 11
-151.1548991746212
 21
-1142.228888513716
 31
0.0
  0
LINE
  5
27F1
330
85F
100
AcDbEntity
  8
OUTLINE
100
AcDbLine
 10
-151.1548991746212
 20
-1142.228888513716
 30
0.0
 11
-150.6819413794919
 21
-1142.228888513716
 31
0.0
  0
SPLINE
  5
27F2
330
85F
100
AcDbEntity
  8
OUTLINE
100
AcDbSpline
210
0.0
220
0.0
230
1.0
 70
     8
 71
     3
 72
     8
 73
     4
 74
     0
 42
0.0000000001
 43
0.0000000001
 40
0.0
 40
0.0
 40
0.0
 40
0.0
 40
1.570796326794896
 40
1.570796326794896
 40
1.570796326794896
 40
1.570796326794896
 10
-150.6819413794919
 20
-1142.228888513716
 30
0.0
 10
-150.6819413794919
 20
-1142.281248391277
 30
0.0
 10
-150.634301257055
 20
-1142.328888513716
 30
0.0
 10
-150.5819413794933
 20
-1142.328888513716
 30
0.0
  0
SPLINE
  5
27F3
330
85F
100
AcDbEntity
  8
OUTLINE
100
AcDbSpline
210
0.0
220
0.0
230
1.0
 70
     8
 71
     3
 72
    11
 73
     7
 74
     0
 42
0.0000000001
 43
0.0000000001
 40
0.0
 40
0.0
 40
0.0
 40
0.0
 40
1.437607986812995
 40
1.437607986812995
 40
1.437607986812995
 40
1.570796326794896
 40
1.570796326794896
 40
1.570796326794896
 40
1.570796326794896
 10
-151.4819413794948
 20
-1142.228888513716
 30
0.0
 10
-151.4819413794948
 20
-1142.660170909761
 30
0.0
 10
-151.1289195621984
 20
-1143.06364558783
 30
0.0
 10
-150.701456802807
 20
-1143.120917696866
 30
0.0
 10
-150.6618541741017
 20
-1143.126223717144
 30
0.0
 10
-150.621897881484
 20
-1143.128888513717
 30
0.0
 10
-150.5819413794933
 20
-1143.128888513717
 30
0.0
  0
LINE
  5
27F4
330
85F
100
AcDbEntity
  8
OUTLINE
100
AcDbLine
 10
-150.5819413794933
 20
-1142.328888513716
 30
0.0
 11
-150.5819413794933
 21
-1143.128888513717
 31
0.0
  0
LINE
  5
27F5
330
85F
100
AcDbEntity
  8
OUTLINE
100
AcDbLine
 10
-149.006531543423
 20
-984.7288885136688
 30
0.0
 11
-150.4819413794948
 21
-984.7288885136688
 31
0.0
  0
LINE
  5
27F6
330
85F
100
AcDbEntity
  8
OUTLINE
100
AcDbLine
 10
-150.4819413794948
 20
-984.7288885136688
 30
0.0
 11
-150.4819413794948
 21
-985.5288885136692
 31
0.0
  0
LINE
  5
27F7
330
85F
100
AcDbEntity
  8
OUTLINE
100
AcDbLine
 10
-150.4819413794948
 20
-985.5288885136692
 30
0.0
 11
-135.4819413794948
 21
-985.5288885136657
 31
0.0
  0
LINE
  5
27F8
330
85F
100
AcDbEntity
  8
OUTLINE
100
AcDbLine
 10
-135.4819413794948
 20
-985.5288885136657
 30
0.0
 11
-135.4819413794948
 21
-984.7288885136652
 31
0.0
  0
LINE
  5
27F9
330
85F
100
AcDbEntity
  8
OUTLINE
100
AcDbLine
 10
-150.5819413794933
 20
-985.5288885136692
 30
0.0
 11
-150.4819413794948
 21
-985.5288885136692
 31
0.0
  0
LINE
  5
27FA
330
85F
100
AcDbEntity
  8
OUTLINE
100
AcDbLine
 10
-150.4819413794948
 20
-984.7288885136688
 30
0.0
 11
-150.5819413794933
 21
-984.7288885136688
 31
0.0
  0
CIRCLE
  5
27FB
330
85F
100
AcDbEntity
  8
OUTLINE
100
AcDbCircle
 10
-141.9819413794948
 20
-1129.128888513577
 30
0.0
 40
2.5
  0
ELLIPSE
  5
27FC
330
85F
100
AcDbEntity
  8
OUTLINE
100
AcDbEllipse
 10
-150.5819413794933
 20
-986.0449139173828
 30
0.0
 11
-0.9000000000045645
 21
-0.0000000000002184
 31
0.0
210
0.0
220
0.0
230
1.0
 40
0.4999999999971453
 41
4.712388980385356
 42
4.818053084261257
  0
LINE
  5
27FD
330
85F
100
AcDbEntity
  8
OUTLINE
100
AcDbLine
 10
-150.5819413794933
 20
-985.594913917383
 30
0.0
 11
-150.5819413794933
 21
-985.9949139173835
 31
0.0
  0
LINE
  5
27FE
330
85F
100
AcDbEntity
  8
OUTLINE
100
AcDbLine
 10
-150.5819413794933
 20
-985.9949139173835
 30
0.0
 11
-150.5819413794933
 21
-988.2195000497526
 31
0.0
  0
ELLIPSE
  5
27FF
330
85F
100
AcDbEntity
  8
OUTLINE
100
AcDbEllipse
 10
-150.5819413794933
 20
-986.0449139173836
 30
0.0
 11
-0.1000000000000785
 21
-0.000000000000011
 31
0.0
210
0.0
220
0.0
230
1.0
 40
0.5000000000001174
 41
4.712388980384633
 42
6.283185307179388
  0
LINE
  5
2800
330
85F
100
AcDbEntity
  8
OUTLINE
100
AcDbLine
 10
-135.4819413794948
 20
-985.9949139173835
 30
0.0
 11
-150.5819413794933
 21
-985.9949139173835
 31
0.0
  0
LINE
  5
2801
330
85F
100
AcDbEntity
  8
OUTLINE
100
AcDbLine
 10
-135.4819413794948
 20
-985.9949139173835
 30
0.0
 11
-135.4819413794948
 21
-985.594913917383
 31
0.0
  0
LINE
  5
2802
330
85F
100
AcDbEntity
  8
OUTLINE
100
AcDbLine
 10
-135.4819413794948
 20
-985.594913917383
 30
0.0
 11
-150.5819413794933
 21
-985.594913917383
 31
0.0
  0
LINE
  5
2803
330
85F
100
AcDbEntity
  8
OUTLINE
100
AcDbLine
 10
-135.4819413794875
 20
-1117.662863109792
 30
0.0
 11
-149.881941379489
 21
-1117.662863109792
 31
0.0
  0
LINE
  5
2804
330
85F
100
AcDbEntity
  8
OUTLINE
100
AcDbLine
 10
-135.4819413794875
 20
-1117.662863109792
 30
0.0
 11
-135.4819413794948
 21
-985.9949139173835
 31
0.0
  0
LINE
  5
2805
330
85F
100
AcDbEntity
  8
OUTLINE
100
AcDbLine
 10
-135.4819413794948
 20
-1119.128888513576
 30
0.0
 11
-149.881941379489
 21
-1119.128888513576
 31
0.0
  0
LINE
  5
2806
330
85F
100
AcDbEntity
  8
OUTLINE
100
AcDbLine
 10
-135.4819413794948
 20
-1142.228888513576
 30
0.0
 11
-150.5819413794933
 21
-1142.228888513576
 31
0.0
  0
LINE
  5
2807
330
85F
100
AcDbEntity
  8
OUTLINE
100
AcDbLine
 10
-135.4819413794948
 20
-1142.228888513576
 30
0.0
 11
-135.4819413794948
 21
-1119.128888513576
 31
0.0
  0
LINE
  5
2808
330
85F
100
AcDbEntity
  8
OUTLINE
100
AcDbLine
 10
-150.5819413794933
 20
-1134.692392853202
 30
0.0
 11
-150.5819413794933
 21
-1142.228888513576
 31
0.0
  0
LINE
  5
2809
330
85F
100
AcDbEntity
  8
OUTLINE
100
AcDbLine
 10
-150.5819413794933
 20
-1142.228888513576
 30
0.0
 11
-150.6819413794919
 21
-1142.228888513576
 31
0.0
  0
LINE
  5
280A
330
85F
100
AcDbEntity
  8
OUTLINE
100
AcDbLine
 10
36.5180586205052
 20
-1142.328888513715
 30
0.0
 11
36.5180586205052
 21
-1143.128888513716
 31
0.0
  0
LINE
  5
280B
330
85F
100
AcDbEntity
  8
OUTLINE
100
AcDbLine
 10
36.5180586205052
 20
-1143.128888513716
 30
0.0
 11
39.5180586205052
 21
-1143.128888513717
 31
0.0
  0
LINE
  5
280C
330
85F
100
AcDbEntity
  8
OUTLINE
100
AcDbLine
 10
39.5180586205052
 20
-1142.328888513716
 30
0.0
 11
36.5180586205052
 21
-1142.328888513715
 31
0.0
  0
LINE
  5
280D
330
85F
100
AcDbEntity
  8
OUTLINE
100
AcDbLine
 10
39.5180586205052
 20
-1143.128888513717
 30
0.0
 11
39.5180586205052
 21
-1142.328888513716
 31
0.0
  0
LINE
  5
280E
330
85F
100
AcDbEntity
  8
OUTLINE
100
AcDbLine
 10
63.61805862051102
 20
-1143.128888513717
 30
0.0
 11
39.5180586205052
 21
-1143.128888513717
 31
0.0
  0
LINE
  5
280F
330
85F
100
AcDbEntity
  8
OUTLINE
100
AcDbLine
 10
63.61805862051102
 20
-1142.328888513716
 30
0.0
 11
39.5180586205052
 21
-1142.328888513716
 31
0.0
  0
LINE
  5
2810
330
85F
100
AcDbEntity
  8
OUTLINE
100
AcDbLine
 10
63.61805862051102
 20
-1143.128888513717
 30
0.0
 11
63.61805862051102
 21
-1142.328888513716
 31
0.0
  0
LINE
  5
2811
330
85F
100
AcDbEntity
  8
OUTLINE
100
AcDbLine
 10
63.71805862050957
 20
-1142.228888513716
 30
0.0
 11
64.1910164156389
 21
-1142.228888513716
 31
0.0
  0
LINE
  5
2812
330
85F
100
AcDbEntity
  8
OUTLINE
100
AcDbLine
 10
64.1910164156389
 20
-1142.228888513716
 30
0.0
 11
64.5180586205052
 21
-1142.228888513716
 31
0.0
  0
SPLINE
  5
2813
330
85F
100
AcDbEntity
  8
OUTLINE
100
AcDbSpline
210
0.0
220
0.0
230
1.0
 70
     8
 71
     3
 72
    11
 73
     7
 74
     0
 42
0.0000000001
 43
0.0000000001
 40
0.0
 40
0.0
 40
0.0
 40
0.0
 40
1.437607986812995
 40
1.437607986812995
 40
1.437607986812995
 40
1.570796326794897
 40
1.570796326794897
 40
1.570796326794897
 40
1.570796326794897
 10
64.5180586205052
 20
-1142.228888513716
 30
0.0
 10
64.5180586205052
 20
-1142.660170909761
 30
0.0
 10
64.16503680320881
 20
-1143.06364558783
 30
0.0
 10
63.73757404382473
 20
-1143.120917696866
 30
0.0
 10
63.69797141511941
 20
-1143.126223717144
 30
0.0
 10
63.65801512250168
 20
-1143.128888513717
 30
0.0
 10
63.61805862051102
 20
-1143.128888513717
 30
0.0
  0
SPLINE
  5
2814
330
85F
100
AcDbEntity
  8
OUTLINE
100
AcDbSpline
210
0.0
220
0.0
230
1.0
 70
     8
 71
     3
 72
     8
 73
     4
 74
     0
 42
0.0000000001
 43
0.0000000001
 40
0.0
 40
0.0
 40
0.0
 40
0.0
 40
1.570796326794897
 40
1.570796326794897
 40
1.570796326794897
 40
1.570796326794897
 10
63.71805862050957
 20
-1142.228888513716
 30
0.0
 10
63.71805862050957
 20
-1142.281248391277
 30
0.0
 10
63.67041849806543
 20
-1142.328888513716
 30
0.0
 10
63.61805862051102
 20
-1142.328888513716
 30
0.0
  0
LINE
  5
2815
330
85F
100
AcDbEntity
  8
OUTLINE
100
AcDbLine
 10
54.46805862050957
 20
-1055.471465272965
 30
0.0
 11
54.46805862050957
 21
-1055.164484012869
 31
0.0
  0
LINE
  5
2816
330
85F
100
AcDbEntity
  8
OUTLINE
100
AcDbLine
 10
54.46805862050957
 20
-1054.764484012869
 30
0.0
 11
54.46805862050957
 21
-1055.164484012869
 31
0.0
  0
ELLIPSE
  5
2817
330
85F
100
AcDbEntity
  8
OUTLINE
100
AcDbEllipse
 10
55.0180586205052
 20
-1053.955920816342
 30
0.0
 11
-1.499999999999996
 21
0.0000000000000235
 31
0.0
210
0.0
220
0.0
230
1.0
 40
0.8660254037842939
 41
1.946219934775804
 42
7.478558025993383
  0
ELLIPSE
  5
2818
330
85F
100
AcDbEntity
  8
OUTLINE
100
AcDbEllipse
 10
55.0180586205052
 20
-1053.555920816342
 30
0.0
 11
1.499999999999993
 21
-0.000000000000035
 31
0.0
210
0.0
220
0.0
230
1.0
 40
0.8660254037842928
 41
5.087812588365872
 42
6.128610417167916
  0
ELLIPSE
  5
2819
330
85F
100
AcDbEntity
  8
OUTLINE
100
AcDbEllipse
 10
55.0180586205052
 20
-1053.555920816342
 30
0.0
 11
-1.49999999999996
 21
-0.0000000000000219
 31
0.0
210
0.0
220
0.0
230
1.0
 40
0.8660254037843088
 41
0.1545748900116772
 42
1.195372718813984
  0
LINE
  5
281A
330
85F
100
AcDbEntity
  8
OUTLINE
100
AcDbLine
 10
55.56805862050811
 20
-1054.764484012869
 30
0.0
 11
55.56805862050811
 21
-1055.164484012869
 31
0.0
  0
LINE
  5
281B
330
85F
100
AcDbEntity
  8
OUTLINE
100
AcDbLine
 10
55.56805862050811
 20
-1055.164484012869
 30
0.0
 11
55.56805862050811
 21
-1055.471465272965
 31
0.0
  0
ELLIPSE
  5
281C
330
85F
100
AcDbEntity
  8
OUTLINE
100
AcDbEllipse
 10
55.0180586205052
 20
-1055.471465272965
 30
0.0
 11
0.5500000000000007
 21
0.0
 31
0.0
210
0.0
220
0.0
230
1.0
 40
0.8660254037842928
 41
3.141592653589786
 42
6.28318530717958
  0
ELLIPSE
  5
281D
330
85F
100
AcDbEntity
  8
OUTLINE
100
AcDbEllipse
 10
55.0180586205052
 20
-1055.071465272964
 30
0.0
 11
-0.5500000000000007
 21
0.0000000000000178
 31
0.0
210
0.0
220
0.0
230
1.0
 40
0.8660254037842964
 41
0.0000000000000266
 42
3.141592653589818
  0
LINE
  5
281E
330
85F
100
AcDbEntity
  8
OUTLINE
100
AcDbLine
 10
62.91805862050665
 20
-1134.536931333995
 30
0.0
 11
62.91805862050665
 21
-1134.661651019403
 31
0.0
  0
LINE
  5
281F
330
85F
100
AcDbEntity
  8
OUTLINE
100
AcDbLine
 10
62.91805862050665
 20
-1134.661651019403
 30
0.0
 11
63.71805862050957
 21
-1134.661651019403
 31
0.0
  0
LINE
  5
2820
330
85F
100
AcDbEntity
  8
OUTLINE
100
AcDbLine
 10
63.71805862050957
 20
-1134.536931333995
 30
0.0
 11
62.91805862050665
 21
-1134.536931333995
 31
0.0
  0
LINE
  5
2821
330
85F
100
AcDbEntity
  8
OUTLINE
100
AcDbLine
 10
63.71805862050957
 20
-988.2252326862694
 30
0.0
 11
62.91805862050665
 21
-988.2252326862694
 31
0.0
  0
LINE
  5
2822
330
85F
100
AcDbEntity
  8
OUTLINE
100
AcDbLine
 10
62.91805862050665
 20
-988.2252326862694
 30
0.0
 11
62.91805862050665
 21
-1134.536931333995
 31
0.0
  0
LINE
  5
2823
330
85F
100
AcDbEntity
  8
OUTLINE
100
AcDbLine
 10
63.71805862050957
 20
-1134.536931333995
 30
0.0
 11
63.71805862050957
 21
-1142.228888513716
 31
0.0
  0
LINE
  5
2824
330
85F
100
AcDbEntity
  8
OUTLINE
100
AcDbLine
 10
64.5180586205052
 20
-1142.228888513716
 30
0.0
 11
64.5180586205052
 21
-984.7288885136688
 31
0.0
  0
LINE
  5
2825
330
85F
100
AcDbEntity
  8
OUTLINE
100
AcDbLine
 10
64.5180586205052
 20
-984.7288885136688
 30
0.0
 11
63.71805862050957
 21
-984.7288885136688
 31
0.0
  0
LINE
  5
2826
330
85F
100
AcDbEntity
  8
OUTLINE
100
AcDbLine
 10
63.71805862050957
 20
-984.7288885136688
 30
0.0
 11
63.71805862050957
 21
-988.2252326862694
 31
0.0
  0
LINE
  5
2827
330
85F
100
AcDbEntity
  8
OUTLINE
100
AcDbLine
 10
48.5180586205052
 20
-985.5288885136646
 30
0.0
 11
63.5180586205052
 21
-985.5288885136692
 31
0.0
  0
LINE
  5
2828
330
85F
100
AcDbEntity
  8
OUTLINE
100
AcDbLine
 10
63.5180586205052
 20
-985.5288885136692
 30
0.0
 11
63.5180586205052
 21
-984.7288885136688
 31
0.0
  0
LINE
  5
2829
330
85F
100
AcDbEntity
  8
OUTLINE
100
AcDbLine
 10
63.5180586205052
 20
-984.7288885136688
 30
0.0
 11
62.27871435822004
 21
-984.7288885136681
 31
0.0
  0
LINE
  5
282A
330
85F
100
AcDbEntity
  8
OUTLINE
100
AcDbLine
 10
48.5180586205052
 20
-984.7288885136643
 30
0.0
 11
48.5180586205052
 21
-985.5288885136646
 31
0.0
  0
LINE
  5
282B
330
85F
100
AcDbEntity
  8
OUTLINE
100
AcDbLine
 10
63.61805862051102
 20
-984.7288885136688
 30
0.0
 11
63.5180586205052
 21
-984.7288885136688
 31
0.0
  0
LINE
  5
282C
330
85F
100
AcDbEntity
  8
OUTLINE
100
AcDbLine
 10
63.5180586205052
 20
-985.5288885136692
 30
0.0
 11
63.61805862051102
 21
-985.5288885136692
 31
0.0
  0
LINE
  5
282D
330
85F
100
AcDbEntity
  8
OUTLINE
100
AcDbLine
 10
63.61805862051102
 20
-985.5288885136692
 30
0.0
 11
63.61805862051102
 21
-984.7288885136688
 31
0.0
  0
ARC
  5
282E
330
85F
100
AcDbEntity
  8
OUTLINE
100
AcDbCircle
 10
63.61805862051102
 20
-985.6288885136686
 30
0.0
 40
0.1000000000000156
100
AcDbArc
 50
0.0
 51
90.0
  0
ARC
  5
282F
330
85F
100
AcDbEntity
  8
OUTLINE
100
AcDbCircle
 10
63.61805862051102
 20
-985.6288885136732
 30
0.0
 40
0.9000000000038891
100
AcDbArc
 50
83.62062979165019
 51
90.0
  0
CIRCLE
  5
2830
330
85F
100
AcDbEntity
  8
OUTLINE
100
AcDbCircle
 10
55.0180586205052
 20
-1129.128888513577
 30
0.0
 40
2.5
  0
LINE
  5
2831
330
85F
100
AcDbEntity
  8
OUTLINE
100
AcDbLine
 10
63.61805862051102
 20
-988.2252326861976
 30
0.0
 11
63.61805862051102
 21
-985.9949139173828
 31
0.0
  0
ELLIPSE
  5
2832
330
85F
100
AcDbEntity
  8
OUTLINE
100
AcDbEllipse
 10
63.61805862051102
 20
-986.0449139173828
 30
0.0
 11
0.0999999999999916
 21
0.000000000000002
 31
0.0
210
0.0
220
0.0
230
1.0
 40
0.500000000000197
 41
0.0
 42
1.570796326794885
  0
LINE
  5
2833
330
85F
100
AcDbEntity
  8
OUTLINE
100
AcDbLine
 10
63.61805862051102
 20
-985.9949139173828
 30
0.0
 11
63.61805862051102
 21
-985.594913917383
 31
0.0
  0
ELLIPSE
  5
2834
330
85F
100
AcDbEntity
  8
OUTLINE
100
AcDbEllipse
 10
63.61805862051102
 20
-986.0449139173784
 30
0.0
 11
-0.8999999999997266
 21
0.0000000000002816
 31
0.0
210
0.0
220
0.0
230
1.0
 40
0.4999999999956286
 41
4.60672487650838
 42
4.712388980384844
  0
LINE
  5
2835
330
85F
100
AcDbEntity
  8
OUTLINE
100
AcDbLine
 10
63.61805862051102
 20
-985.594913917383
 30
0.0
 11
48.5180586205052
 21
-985.594913917383
 31
0.0
  0
LINE
  5
2836
330
85F
100
AcDbEntity
  8
OUTLINE
100
AcDbLine
 10
48.5180586205052
 20
-985.594913917383
 30
0.0
 11
48.5180586205052
 21
-985.9949139173828
 31
0.0
  0
LINE
  5
2837
330
85F
100
AcDbEntity
  8
OUTLINE
100
AcDbLine
 10
48.5180586205052
 20
-985.9949139173828
 30
0.0
 11
63.61805862051102
 21
-985.9949139173828
 31
0.0
  0
LINE
  5
2838
330
85F
100
AcDbEntity
  8
OUTLINE
100
AcDbLine
 10
62.91805862050665
 20
-1117.662863109792
 30
0.0
 11
48.5180586205052
 21
-1117.662863109792
 31
0.0
  0
LINE
  5
2839
330
85F
100
AcDbEntity
  8
OUTLINE
100
AcDbLine
 10
48.5180586205052
 20
-1117.662863109792
 30
0.0
 11
48.5180586205052
 21
-985.9949139173828
 31
0.0
  0
LINE
  5
283A
330
85F
100
AcDbEntity
  8
OUTLINE
100
AcDbLine
 10
63.61805862051102
 20
-1142.228888513576
 30
0.0
 11
63.61805862051102
 21
-1134.661651019268
 31
0.0
  0
LINE
  5
283B
330
85F
100
AcDbEntity
  8
OUTLINE
100
AcDbLine
 10
63.71805862050957
 20
-1142.228888513576
 30
0.0
 11
63.61805862051102
 21
-1142.228888513576
 31
0.0
  0
LINE
  5
283C
330
85F
100
AcDbEntity
  8
OUTLINE
100
AcDbLine
 10
48.5180586205052
 20
-1119.128888513576
 30
0.0
 11
62.91805862050665
 21
-1119.128888513576
 31
0.0
  0
LINE
  5
283D
330
85F
100
AcDbEntity
  8
OUTLINE
100
AcDbLine
 10
63.61805862051102
 20
-1142.228888513576
 30
0.0
 11
48.5180586205052
 21
-1142.228888513576
 31
0.0
  0
LINE
  5
283E
330
85F
100
AcDbEntity
  8
OUTLINE
100
AcDbLine
 10
48.5180586205052
 20
-1142.228888513576
 30
0.0
 11
48.5180586205052
 21
-1119.128888513576
 31
0.0
  0
LINE
  5
283F
330
85F
100
AcDbEntity
  8
OUTLINE
100
AcDbLine
 10
63.51805862051975
 20
-983.9288885136797
 30
0.0
 11
60.51805862051975
 21
-983.9288885136797
 31
0.0
  0
LINE
  5
2840
330
85F
100
AcDbEntity
  8
OUTLINE
100
AcDbLine
 10
60.51805862051975
 20
-983.9288885136797
 30
0.0
 11
60.51805862051975
 21
-984.7288885136801
 31
0.0
  0
LINE
  5
2841
330
85F
100
AcDbEntity
  8
OUTLINE
100
AcDbLine
 10
60.51805862051975
 20
-984.7288885136801
 30
0.0
 11
62.27871435822004
 21
-984.7288885136791
 31
0.0
  0
LINE
  5
2842
330
85F
100
AcDbEntity
  8
OUTLINE
100
AcDbLine
 10
63.51805862051975
 20
-984.7288885136791
 30
0.0
 11
63.51805862051975
 21
-983.9288885136797
 31
0.0
  0
LINE
  5
2843
330
85F
100
AcDbEntity
  8
OUTLINE
100
AcDbLine
 10
-149.006531543423
 20
-984.7288885136688
 30
0.0
 11
-147.4819413794802
 21
-984.7288885136688
 31
0.0
  0
LINE
  5
2844
330
85F
100
AcDbEntity
  8
OUTLINE
100
AcDbLine
 10
-147.4819413794802
 20
-984.7288885136688
 30
0.0
 11
-147.4819413794802
 21
-983.9288885136687
 31
0.0
  0
LINE
  5
2845
330
85F
100
AcDbEntity
  8
OUTLINE
100
AcDbLine
 10
-147.4819413794802
 20
-983.9288885136687
 30
0.0
 11
-150.4819413794802
 21
-983.928888513668
 31
0.0
  0
LINE
  5
2846
330
85F
100
AcDbEntity
  8
OUTLINE
100
AcDbLine
 10
-150.4819413794802
 20
-983.928888513668
 30
0.0
 11
-150.4819413794802
 21
-984.7288885136681
 31
0.0
  0
LINE
  5
2847
330
85F
100
AcDbEntity
  8
OUTLINE
100
AcDbLine
 10
60.51805862051975
 20
-984.7288885136801
 30
0.0
 11
46.51805862051975
 21
-984.7288885136791
 31
0.0
  0
LINE
  5
2848
330
85F
100
AcDbEntity
  8
OUTLINE
100
AcDbLine
 10
-133.4819413794802
 20
-984.7288885136698
 30
0.0
 11
-147.4819413794802
 21
-984.7288885136688
 31
0.0
  0
LINE
  5
2849
330
85F
100
AcDbEntity
  8
OUTLINE
100
AcDbLine
 10
60.51805862051975
 20
-983.9288885136797
 30
0.0
 11
-147.4819413794802
 21
-983.9288885136687
 31
0.0
  0
LINE
  5
284A
330
85F
100
AcDbEntity
  8
OUTLINE
100
AcDbLine
 10
-133.4819413794802
 20
-984.7288885136698
 30
0.0
 11
-133.4819413794875
 21
-985.5288885136699
 31
0.0
  0
LINE
  5
284B
330
85F
100
AcDbEntity
  8
OUTLINE
100
AcDbLine
 10
46.51805862051975
 20
-984.7288885136791
 30
0.0
 11
46.51805862051975
 21
-985.5288885136792
 31
0.0
  0
LINE
  5
284C
330
85F
100
AcDbEntity
  8
OUTLINE
100
AcDbLine
 10
-133.4819413794875
 20
-985.5288885136699
 30
0.0
 11
46.51805862051975
 21
-985.5288885136792
 31
0.0
  0
LINE
  5
284D
330
85F
100
AcDbEntity
  8
OUTLINE
100
AcDbLine
 10
-72.98194137949479
 20
-1138.619016786251
 30
0.0
 11
-104.9819413794948
 21
-1138.619016786251
 31
0.0
  0
LINE
  5
284E
330
85F
100
AcDbEntity
  8
OUTLINE
100
AcDbLine
 10
48.5180586205052
 20
-1138.619016786251
 30
0.0
 11
34.0180586205052
 21
-1138.619016786251
 31
0.0
  0
LINE
  5
284F
330
85F
100
AcDbEntity
  8
OUTLINE
100
AcDbLine
 10
-135.4819413794948
 20
-1137.71901678625
 30
0.0
 11
48.5180586205052
 21
-1137.719016786251
 31
0.0
  0
LINE
  5
2850
330
85F
100
AcDbEntity
  8
OUTLINE
100
AcDbLine
 10
34.0180586205052
 20
-1138.619016786251
 30
0.0
 11
-72.98194137949479
 21
-1138.619016786251
 31
0.0
  0
LINE
  5
2851
330
85F
100
AcDbEntity
  8
OUTLINE
100
AcDbLine
 10
-104.9819413794948
 20
-1138.619016786251
 30
0.0
 11
-107.9819413794948
 21
-1138.619016786251
 31
0.0
  0
LINE
  5
2852
330
85F
100
AcDbEntity
  8
OUTLINE
100
AcDbLine
 10
63.51805862051246
 20
-983.8852542888519
 30
0.0
 11
63.51805862051246
 21
-983.085254288852
 31
0.0
  0
LINE
  5
2853
330
85F
100
AcDbEntity
  8
OUTLINE
100
AcDbLine
 10
-147.4819413794875
 20
-983.0852542888527
 30
0.0
 11
-150.4819413794875
 21
-983.085254288852
 31
0.0
  0
LINE
  5
2854
330
85F
100
AcDbEntity
  8
OUTLINE
100
AcDbLine
 10
-150.4819413794875
 20
-983.085254288852
 30
0.0
 11
-150.4819413794875
 21
-983.8852542888519
 31
0.0
  0
LINE
  5
2855
330
85F
100
AcDbEntity
  8
OUTLINE
100
AcDbLine
 10
-150.4819413794875
 20
-983.8852542888519
 30
0.0
 11
-147.4819413794875
 21
-983.8852542888528
 31
0.0
  0
LINE
  5
2856
330
85F
100
AcDbEntity
  8
OUTLINE
100
AcDbLine
 10
-147.4819413794875
 20
-983.8852542888528
 30
0.0
 11
-147.4819413794875
 21
-983.0852542888527
 31
0.0
  0
LINE
  5
2857
330
85F
100
AcDbEntity
  8
OUTLINE
100
AcDbLine
 10
63.51805862051246
 20
-983.085254288852
 30
0.0
 11
60.51805862051248
 21
-983.0852542888536
 31
0.0
  0
LINE
  5
2858
330
85F
100
AcDbEntity
  8
OUTLINE
100
AcDbLine
 10
60.51805862051248
 20
-983.0852542888536
 30
0.0
 11
60.51805862051248
 21
-983.8852542888528
 31
0.0
  0
LINE
  5
2859
330
85F
100
AcDbEntity
  8
OUTLINE
100
AcDbLine
 10
60.51805862051248
 20
-983.8852542888528
 30
0.0
 11
63.51805862051246
 21
-983.8852542888519
 31
0.0
  0
ELLIPSE
  5
285A
330
85F
100
AcDbEntity
  8
OUTLINE
100
AcDbEllipse
 10
-141.9819413794948
 20
-1054.083311995375
 30
0.0
 11
-2.49999999999972
 21
-0.000000000000014
 31
0.0
210
0.0
220
0.0
230
1.0
 40
0.8660254037843239
 41
1.375884198893119
 42
1.765708454696524
  0
ELLIPSE
  5
285B
330
85F
100
AcDbEntity
  8
OUTLINE
100
AcDbEllipse
 10
-141.9819413794948
 20
-1053.683311995375
 30
0.0
 11
2.499999999999789
 21
0.000000000000052
 31
0.0
210
0.0
220
0.0
230
1.0
 40
0.8660254037843426
 41
4.490574509887795
 42
4.934203450881388
  0
LINE
  5
285C
330
85F
100
AcDbEntity
  8
OUTLINE
100
AcDbLine
 10
-150.4819413794875
 20
-983.8852542888476
 30
0.0
 11
-150.4819413794875
 21
-983.928888513598
 31
0.0
  0
LINE
  5
285D
330
85F
100
AcDbEntity
  8
OUTLINE
100
AcDbLine
 10
63.51805862051246
 20
-983.9288885136086
 30
0.0
 11
63.51805862051246
 21
-983.8852542888476
 31
0.0
  0
LINE
  5
285E
330
85F
100
AcDbEntity
  8
OUTLINE
100
AcDbLine
 10
-150.4819413794875
 20
-985.5288885135975
 30
0.0
 11
-150.4819413794875
 21
-985.594913917383
 31
0.0
  0
LINE
  5
285F
330
85F
100
AcDbEntity
  8
OUTLINE
100
AcDbLine
 10
63.51805862051246
 20
-985.5949139173812
 30
0.0
 11
63.51805862051246
 21
-985.5288885135975
 31
0.0
  0
LINE
  5
2860
330
85F
100
AcDbEntity
  8
OUTLINE
100
AcDbLine
 10
60.51805862051248
 20
-983.0852542888536
 30
0.0
 11
-147.4819413794875
 21
-983.0852542888527
 31
0.0
  0
LINE
  5
2861
330
85F
100
AcDbEntity
  8
OUTLINE
100
AcDbLine
 10
60.51805862051248
 20
-983.8852542888528
 30
0.0
 11
-147.4819413794875
 21
-983.8852542888528
 31
0.0
  0
LINE
  5
2862
330
85F
100
AcDbEntity
  8
OUTLINE
100
AcDbLine
 10
-149.881941379489
 20
-1118.105683432821
 30
0.0
 11
62.91805862050665
 21
-1118.105683432821
 31
0.0
  0
LINE
  5
2863
330
85F
100
AcDbEntity
  8
OUTLINE
100
AcDbLine
 10
62.91805862050665
 20
-1118.155683432822
 30
0.0
 11
-149.881941379489
 21
-1118.155683432821
 31
0.0
  0
LINE
  5
2864
330
85F
100
AcDbEntity
  8
OUTLINE
100
AcDbLine
 10
53.5180586205052
 20
-1130.619016786251
 30
0.0
 11
53.5180586205052
 21
-1127.619016786251
 31
0.0
  0
LINE
  5
2865
330
85F
100
AcDbEntity
  8
OUTLINE
100
AcDbLine
 10
53.5180586205052
 20
-1127.619016786251
 30
0.0
 11
56.5180586205052
 21
-1127.619016786251
 31
0.0
  0
LINE
  5
2866
330
85F
100
AcDbEntity
  8
OUTLINE
100
AcDbLine
 10
56.5180586205052
 20
-1127.619016786251
 30
0.0
 11
56.5180586205052
 21
-1130.619016786251
 31
0.0
  0
LINE
  5
2867
330
85F
100
AcDbEntity
  8
OUTLINE
100
AcDbLine
 10
56.5180586205052
 20
-1130.619016786251
 30
0.0
 11
53.5180586205052
 21
-1130.619016786251
 31
0.0
  0
LINE
  5
2868
330
85F
100
AcDbEntity
  8
OUTLINE
100
AcDbLine
 10
-143.4819413794948
 20
-1130.619016786251
 30
0.0
 11
-143.4819413794948
 21
-1127.619016786251
 31
0.0
  0
LINE
  5
2869
330
85F
100
AcDbEntity
  8
OUTLINE
100
AcDbLine
 10
-143.4819413794948
 20
-1127.619016786251
 30
0.0
 11
-140.4819413794948
 21
-1127.619016786251
 31
0.0
  0
LINE
  5
286A
330
85F
100
AcDbEntity
  8
OUTLINE
100
AcDbLine
 10
-140.4819413794948
 20
-1127.619016786251
 30
0.0
 11
-140.4819413794948
 21
-1130.619016786251
 31
0.0
  0
LINE
  5
286B
330
85F
100
AcDbEntity
  8
OUTLINE
100
AcDbLine
 10
-140.4819413794948
 20
-1130.619016786251
 30
0.0
 11
-143.4819413794948
 21
-1130.619016786251
 31
0.0
  0
LINE
  5
286C
330
85F
100
AcDbEntity
  8
OUTLINE
100
AcDbLine
 10
-107.9819413794948
 20
-1141.619016786251
 30
0.0
 11
-108.9819413794948
 21
-1142.619016786251
 31
0.0
  0
LINE
  5
286D
330
85F
100
AcDbEntity
  8
OUTLINE
100
AcDbLine
 10
-149.7720696521691
 20
-1142.328888513576
 30
0.0
 11
-149.8720696521677
 21
-1142.228888513576
 31
0.0
  0
LINE
  5
286E
330
85F
100
AcDbEntity
  8
OUTLINE
100
AcDbLine
 10
-108.9819413794948
 20
-1142.619016786251
 30
0.0
 11
-118.4819413794948
 21
-1142.619016786251
 31
0.0
  0
LINE
  5
286F
330
85F
100
AcDbEntity
  8
OUTLINE
100
AcDbLine
 10
-107.9819413794948
 20
-1138.619016786251
 30
0.0
 11
-107.9819413794948
 21
-1141.619016786251
 31
0.0
  0
LINE
  5
2870
330
85F
100
AcDbEntity
  8
OUTLINE
100
AcDbLine
 10
-135.4819413794948
 20
-1138.619016786251
 30
0.0
 11
-107.9819413794948
 21
-1138.619016786251
 31
0.0
  0
LINE
  5
2871
330
85F
100
AcDbEntity
  8
BASIS
  6
DASHDOT
 62
     6
100
AcDbLine
 10
-43.48194137949479
 20
-965.9861846646933
 30
0.0
 11
-43.48194137949479
 21
-1165.331714198124
 31
0.0
  0
LINE
  5
2872
330
85F
100
AcDbEntity
  8
ARRANGE
  6
Continuous
 62
     1
100
AcDbLine
 10
-60.16605894390243
 20
-1121.934899221843
 30
0.0
 11
-26.79782381509443
 21
-1155.303134350651
 31
0.0
  0
LINE
  5
2873
330
85F
100
AcDbEntity
  8
ARRANGE
  6
Continuous
 62
     1
100
AcDbLine
 10
-60.16605894390243
 20
-1155.303134350651
 30
0.0
 11
-26.79782381509443
 21
-1121.934899221843
 31
0.0
  0
CIRCLE
  5
2874
330
85F
100
AcDbEntity
  8
ARRANGE
100
AcDbCircle
 10
-43.48194137949479
 20
-1138.619016786247
 30
0.0
 40
15.0
  0
LINE
  5
2875
330
85F
100
AcDbEntity
  8
SIZE
  6
Continuous
100
AcDbLine
 39
50.0
 10
45.01805862050519
 20
-1143.128888513717
 30
0.0
 11
54.0180586205052
 21
-1143.128888513717
 31
0.0
  0
LINE
  5
2876
330
85F
100
AcDbEntity
  8
SIZE
  6
Continuous
100
AcDbLine
 39
50.0
 10
39.5180586205052
 20
-1138.619016786251
 30
0.0
 11
45.5180586205052
 21
-1138.619016786251
 31
0.0
  0
LINE
  5
2877
330
85F
100
AcDbEntity
  8
SIZE
  6
Continuous
100
AcDbLine
 39
50.0
 10
-127.4819413794948
 20
-1143.128888513717
 30
0.0
 11
-121.4819413794948
 21
-1143.128888513717
 31
0.0
  0
LINE
  5
2878
330
85F
100
AcDbEntity
  8
SIZE
  6
Continuous
100
AcDbLine
 39
50.0
 10
-84.4819413794948
 20
-1138.619016786251
 30
0.0
 11
-78.4819413794948
 21
-1138.619016786251
 31
0.0
  0
LINE
  5
2879
330
85F
100
AcDbEntity
  8
NOTE
100
AcDbLine
 10
-124.4819413794948
 20
-1135.62888851371
 30
0.0
 11
-124.4819413794948
 21
-1150.62888851371
 31
0.0
  0
LINE
  5
287A
330
85F
100
AcDbEntity
  8
NOTE
100
AcDbLine
 10
-131.9819413794948
 20
-1143.12888851371
 30
0.0
 11
-116.9819413794948
 21
-1143.12888851371
 31
0.0
  0
LINE
  5
287B
330
85F
100
AcDbEntity
  8
NOTE
100
AcDbLine
 10
-81.48194137949479
 20
-1131.119016786244
 30
0.0
 11
-81.48194137949479
 21
-1146.119016786244
 31
0.0
  0
LINE
  5
287C
330
85F
100
AcDbEntity
  8
NOTE
100
AcDbLine
 10
-88.98194137949479
 20
-1138.619016786244
 30
0.0
 11
-73.9819413794948
 21
-1138.619016786244
 31
0.0
  0
LINE
  5
287D
330
85F
100
AcDbEntity
  8
NOTE
100
AcDbLine
 10
42.51805862050519
 20
-1131.119016786244
 30
0.0
 11
42.51805862050519
 21
-1146.119016786244
 31
0.0
  0
LINE
  5
287E
330
85F
100
AcDbEntity
  8
NOTE
100
AcDbLine
 10
35.0180586205052
 20
-1138.619016786244
 30
0.0
 11
50.0180586205052
 21
-1138.619016786244
 31
0.0
  0
LINE
  5
287F
330
85F
100
AcDbEntity
  8
NOTE
100
AcDbLine
 10
49.5180586205052
 20
-1135.62888851371
 30
0.0
 11
49.5180586205052
 21
-1150.62888851371
 31
0.0
  0
LINE
  5
2880
330
85F
100
AcDbEntity
  8
NOTE
100
AcDbLine
 10
42.0180586205052
 20
-1143.12888851371
 30
0.0
 11
57.0180586205052
 21
-1143.12888851371
 31
0.0
  0
DIMENSION
  5
2881
330
85F
100
AcDbEntity
  8
SIZE
  6
Continuous
100
AcDbDimension
  2
*D40
 10
42.51805862050519
 20
-1275.910274005122
 30
0.0
 11
160.1255760332088
 21
-1275.910274005122
 31
0.0
 70
   160
 71
     5
 42
124.0
  3
STANDARD$0
100
AcDbAlignedDimension
 13
-81.48194137949479
 23
-1146.119016786244
 33
0.0
 14
42.51805862050519
 24
-1146.119016786244
 34
0.0
100
AcDbRotatedDimension
  0
DIMENSION
  5
2882
330
85F
100
AcDbEntity
  8
SIZE
  6
Continuous
100
AcDbDimension
  2
*D41
 10
49.51805862050519
 20
-1394.141826218439
 30
0.0
 11
-37.48194137949481
 21
-1352.141826218439
 31
0.0
 70
    32
 71
     5
 42
174.0
  3
STANDARD$0
100
AcDbAlignedDimension
 13
-124.4819413794948
 23
-1150.62888851371
 33
0.0
 14
49.5180586205052
 24
-1150.62888851371
 34
0.0
100
AcDbRotatedDimension
  0
DIMENSION
  5
2883
330
85F
100
AcDbEntity
  8
SIZE
  6
Continuous
100
AcDbDimension
  2
*D42
 10
64.51805862050517
 20
-1519.577301307623
 30
0.0
 11
-43.48194137949483
 21
-1477.577301307622
 31
0.0
 70
    32
 71
     5
 42
216.0
  3
STANDARD$0
100
AcDbAlignedDimension
 13
-151.4819413794948
 23
-1142.228888513716
 33
0.0
 14
64.5180586205052
 24
-1142.228888513716
 34
0.0
100
AcDbRotatedDimension
  0
LEADER
  5
2884
330
85F
100
AcDbEntity
  8
NOTE
100
AcDbLeader
  3
STANDARD
 73
     0
 75
     1
 40
64.00000000000002
 41
228.7542857142856
 76
     3
 10
-124.4819413790582
 20
-1143.128888513717
 30
0.0
 10
-212.3513413713126
 20
-1260.767241958101
 30
0.0
 10
-224.3513413713126
 20
-1260.767241958101
 30
0.0
340
2885
213
0.0
223
32.0
233
0.0
1001
ACAD
1000
DSTYLE
1002
{
1070
    41
1040
12.0
1070
    42
1040
20.0
1070
    43
1040
200.0
1070
    44
1040
20.0
1070
    73
1070
     0
1070
    74
1070
     0
1070
    77
1070
     1
1070
    78
1070
     8
1070
   140
1040
64.0
1070
   147
1040
50.0
1070
   172
1070
     1
1070
   174
1070
     1
1070
   275
1070
     0
1070
   284
1070
     0
1070
   285
1070
     0
1070
   286
1070
     0
1070
   341
1005
1A78
1070
   342
1005
AB2
1002
}
  0
MTEXT
  5
2885
102
{ACAD_REACTORS
330
2884
102
}
330
85F
100
AcDbEntity
  8
NOTE
100
AcDbMText
 10
-274.3513413713126
 20
-1242.767241958101
 30
0.0
 40
64.0
 41
0.0
 71
     9
 72
     1
  1
3×φ6
 73
     1
 44
1.0
  0
LEADER
  5
2886
330
85F
100
AcDbEntity
  8
NOTE
100
AcDbLeader
  3
STANDARD
 73
     0
 74
     0
 75
     1
 40
64.0
 41
93.25714285714287
 76
     3
 10
49.51805862070164
 20
-1143.128888513456
 30
0.0
 10
123.2808594079134
 20
-1047.601793455443
 30
0.0
 10
135.2808594079134
 20
-1047.601793455443
 30
0.0
340
2887
213
0.0
223
32.0
233
0.0
1001
ACAD
1000
DSTYLE
1002
{
1070
    41
1040
12.0
1070
    42
1040
20.0
1070
    43
1040
200.0
1070
    44
1040
20.0
1070
    73
1070
     0
1070
    74
1070
     0
1070
    77
1070
     1
1070
    78
1070
     8
1070
   140
1040
64.0
1070
   147
1040
50.0
1070
   172
1070
     1
1070
   174
1070
     1
1070
   275
1070
     0
1070
   284
1070
     0
1070
   285
1070
     0
1070
   286
1070
     0
1070
   341
1005
1A78
1070
   342
1005
AB2
1002
}
  0
MTEXT
  5
2887
102
{ACAD_REACTORS
330
2886
102
}
330
85F
100
AcDbEntity
  8
NOTE
100
AcDbMText
 10
185.2808594079134
 20
-1029.601793455443
 30
0.0
 40
64.0
 41
0.0
 71
     7
 72
     1
  1
φ9
 73
     1
 44
1.0
  0
MTEXT
  5
2888
330
85F
100
AcDbEntity
  8
ETC
100
AcDbMText
 10
374.0436863868337
 20
-755.9044740966177
 30
0.0
 40
64.0
 41
0.0
 71
     1
 72
     5
  1
{\Fromans,extfont|c128;\W0.9;AGJT-17S-6}
  7
ADESK1
 73
     1
 44
1.0
  0
ENDSEC
  0
SECTION
  2
OBJECTS
  0
DICTIONARY
  5
84D
330
0
100
AcDbDictionary
281
     1
  3
ACAD_2007HEADERVARS_RT
350
2995
  3
ACAD_COLOR
350
15E9
  3
ACAD_GROUP
350
84E
  3
ACAD_LAYOUT
350
85A
  3
ACAD_MATERIAL
350
15E8
  3
ACAD_MLEADERSTYLE
350
18B5
  3
ACAD_MLINESTYLE
350
857
  3
ACAD_PLOTSETTINGS
350
859
  3
ACAD_PLOTSTYLENAME
350
B82
  3
ACAD_SCALELIST
350
1893
  3
ACAD_TABLESTYLE
350
15EA
  3
ACAD_VISUALSTYLE
350
1882
  3
AcadDim
350
1003
  3
ACDB_RECOMPOSE_DATA
350
1927
  3
AcDbVariableDictionary
350
B87
  3
AcmDictionary
350
16B0
  3
AMG
350
15EF
  3
AMGSNAPSETTINGS
350
171E
1001
ACAD
1000
TREAT_AS_HARD
1070
     0
  0
DICTIONARY
  5
1AA7
330
843
100
AcDbDictionary
280
     1
281
     1
  3
ACAD_LAYERSTATES
360
1AA8
  0
DICTIONARY
  5
190C
330
851
100
AcDbDictionary
280
     1
281
     1
  3
ADSK_XREC_LAYER_RECONCILED
360
190D
  0
DICTIONARY
  5
190E
330
863
100
AcDbDictionary
280
     1
281
     1
  3
ADSK_XREC_LAYER_RECONCILED
360
190F
  0
DICTIONARY
  5
1910
330
866
100
AcDbDictionary
280
     1
281
     1
  3
ADSK_XREC_LAYER_RECONCILED
360
1911
  0
DICTIONARY
  5
1912
330
867
100
AcDbDictionary
280
     1
281
     1
  3
ADSK_XREC_LAYER_RECONCILED
360
1913
  0
DICTIONARY
  5
1914
330
868
100
AcDbDictionary
280
     1
281
     1
  3
ADSK_XREC_LAYER_RECONCILED
360
1915
  0
DICTIONARY
  5
1916
330
869
100
AcDbDictionary
280
     1
281
     1
  3
ADSK_XREC_LAYER_RECONCILED
360
1917
  0
DICTIONARY
  5
1918
330
86B
100
AcDbDictionary
280
     1
281
     1
  3
ADSK_XREC_LAYER_RECONCILED
360
1919
  0
DICTIONARY
  5
191A
330
86C
100
AcDbDictionary
280
     1
281
     1
  3
ADSK_XREC_LAYER_RECONCILED
360
191B
  0
DICTIONARY
  5
191C
330
86D
100
AcDbDictionary
280
     1
281
     1
  3
ADSK_XREC_LAYER_RECONCILED
360
191D
  0
DICTIONARY
  5
191E
330
86E
100
AcDbDictionary
280
     1
281
     1
  3
ADSK_XREC_LAYER_RECONCILED
360
191F
  0
DICTIONARY
  5
1920
330
86F
100
AcDbDictionary
280
     1
281
     1
  3
ADSK_XREC_LAYER_RECONCILED
360
1921
  0
DICTIONARY
  5
B4F
330
85F
100
AcDbDictionary
280
     1
281
     1
  3
ACAD_INDEX
360
1706
  3
ACAD_LAYOUTSELFREF
360
B50
  3
ACAD_SORTENTS
360
18F0
  0
DICTIONARY
  5
B4D
330
85B
100
AcDbDictionary
280
     1
281
     1
  3
ACAD_LAYOUTSELFREF
360
B4E
  0
DICTIONARY
  5
2995
102
{ACAD_REACTORS
330
84D
102
}
330
84D
100
AcDbDictionary
281
     1
  3
DIMARCSYM
350
2996
  3
DIMLTEX1
350
2998
  3
DIMLTEX2
350
2999
  3
DIMLTYPE
350
2997
  0
DICTIONARY
  5
15E9
102
{ACAD_REACTORS
330
84D
102
}
330
84D
100
AcDbDictionary
281
     1
  0
DICTIONARY
  5
84E
102
{ACAD_REACTORS
330
84D
102
}
330
84D
100
AcDbDictionary
281
     1
1001
ACAD
1000
TREAT_AS_HARD
1070
     0
  0
DICTIONARY
  5
85A
102
{ACAD_REACTORS
330
84D
102
}
330
84D
100
AcDbDictionary
281
     1
  3
Model
350
B84
  3
ﾚｲｱｳﾄ1
350
B85
1001
ACAD
1000
TREAT_AS_HARD
1070
     0
  0
DICTIONARY
  5
15E8
102
{ACAD_REACTORS
330
84D
102
}
330
84D
100
AcDbDictionary
281
     1
  3
ByBlock
350
1872
  3
ByLayer
350
186A
  3
Global
350
187A
  0
DICTIONARY
  5
18B5
102
{ACAD_REACTORS
330
84D
102
}
330
84D
100
AcDbDictionary
281
     1
  3
Standard
350
18B6
  0
DICTIONARY
  5
857
102
{ACAD_REACTORS
330
84D
102
}
330
84D
100
AcDbDictionary
281
     1
  3
STANDARD
350
858
1001
ACAD
1000
TREAT_AS_HARD
1070
     0
  0
DICTIONARY
  5
859
102
{ACAD_REACTORS
330
84D
102
}
330
84D
100
AcDbDictionary
281
     1
1001
ACAD
1000
TREAT_AS_HARD
1070
     0
  0
ACDBDICTIONARYWDFLT
  5
B82
102
{ACAD_REACTORS
330
84D
102
}
330
84D
100
AcDbDictionary
281
     1
  3
Normal
350
B83
100
AcDbDictionaryWithDefault
340
B83
  0
DICTIONARY
  5
1893
102
{ACAD_REACTORS
330
84D
102
}
330
84D
100
AcDbDictionary
281
     1
  3
A0
350
1894
  3
A1
350
1895
  3
A2
350
1896
  3
A3
350
1897
  3
A4
350
1898
  3
A5
350
1899
  3
A6
350
189A
  3
A7
350
189B
  3
A8
350
189C
  3
A9
350
189D
  3
B0
350
189E
  3
B1
350
189F
  3
B2
350
18A0
  3
B3
350
18A1
  3
B4
350
18A2
  3
B5
350
18A3
  3
B6
350
18A4
  3
B7
350
18A5
  3
B8
350
18A6
  3
B9
350
18A7
  3
C0
350
18A8
  3
C1
350
18A9
  3
C2
350
18AA
  3
C3
350
18AB
  3
C4
350
18AC
  3
C5
350
18AD
  3
C6
350
18AE
  3
C7
350
18AF
  3
C8
350
18B0
  3
C9
350
18B1
  3
D0
350
18B2
  3
D1
350
18B3
  3
D2
350
18B4
  0
DICTIONARY
  5
15EA
102
{ACAD_REACTORS
330
84D
102
}
330
84D
100
AcDbDictionary
281
     1
  3
Standard
350
15EB
  0
DICTIONARY
  5
1882
102
{ACAD_REACTORS
330
84D
102
}
330
84D
100
AcDbDictionary
281
     1
  3
2dWireframe
350
1888
  3
3D Hidden
350
188A
  3
3dWireframe
350
1889
  3
Basic
350
1887
  3
Brighten
350
188E
  3
ColorChange
350
1892
  3
Conceptual
350
188B
  3
Dim
350
188D
  3
Facepattern
350
1891
  3
Flat
350
1883
  3
FlatWithEdges
350
1884
  3
Gouraud
350
1885
  3
GouraudWithEdges
350
1886
  3
Linepattern
350
1890
  3
Realistic
350
188C
  3
Thicken
350
188F
  0
XRECORD
  5
1003
102
{ACAD_REACTORS
330
84D
102
}
330
84D
100
AcDbXrecord
280
     1
 90
   990106
  3

 60
     0
 61
     0
 62
     1
 63
     3
 64
     0
 65
     0
 66
     0
 67
     3
 68
     1
 69
     0
 70
     0
 71
     0
 72
     0
 40
0.0
170
     0
340
0
  0
XRECORD
  5
1927
102
{ACAD_REACTORS
330
84D
102
}
330
84D
100
AcDbXrecord
280
     1
 90
        1
330
15EB
  0
DICTIONARY
  5
B87
102
{ACAD_REACTORS
330
84D
102
}
330
84D
100
AcDbDictionary
281
     1
  3
CANNOSCALE
350
1923
  3
CMLEADERSTYLE
350
1922
  3
CTABLESTYLE
350
1714
  3
DIMASSOC
350
B88
  3
INDEXCTL
350
1715
  3
PROJECTNAME
350
1716
  3
SORTENTS
350
1924
  0
DICTIONARY
  5
16B0
102
{ACAD_REACTORS
330
84D
102
}
330
84D
100
AcDbDictionary
281
     1
  3
AcmStdDictionary
350
16BC
  3
AMDTSECTSYM_ARROWCOLOR
350
16DC
  0
DICTIONARY
  5
15EF
102
{ACAD_REACTORS
330
84D
102
}
330
84D
100
AcDbDictionary
281
     1
  3
AcMgSettings
350
15F0
  0
DICTIONARY
  5
171E
102
{ACAD_REACTORS
330
84D
102
}
330
84D
100
AcDbDictionary
281
     1
  3
DIMENSION
350
1723
  3
FEA
350
1722
  3
HATCH (1)
350
171F
  3
HATCH (2)
350
1720
  3
SIMPLE WELD
350
1724
  3
SYMBOLS
350
1721
  0
DICTIONARY
  5
1AA8
102
{ACAD_REACTORS
330
1AA7
102
}
330
1AA7
100
AcDbDictionary
281
     1
  0
XRECORD
  5
190D
102
{ACAD_REACTORS
330
190C
102
}
330
190C
100
AcDbXrecord
280
     1
290
     1
  0
XRECORD
  5
190F
102
{ACAD_REACTORS
330
190E
102
}
330
190E
100
AcDbXrecord
280
     1
290
     1
  0
XRECORD
  5
1911
102
{ACAD_REACTORS
330
1910
102
}
330
1910
100
AcDbXrecord
280
     1
290
     1
  0
XRECORD
  5
1913
102
{ACAD_REACTORS
330
1912
102
}
330
1912
100
AcDbXrecord
280
     1
290
     1
  0
XRECORD
  5
1915
102
{ACAD_REACTORS
330
1914
102
}
330
1914
100
AcDbXrecord
280
     1
290
     1
  0
XRECORD
  5
1917
102
{ACAD_REACTORS
330
1916
102
}
330
1916
100
AcDbXrecord
280
     1
290
     1
  0
XRECORD
  5
1919
102
{ACAD_REACTORS
330
1918
102
}
330
1918
100
AcDbXrecord
280
     1
290
     1
  0
XRECORD
  5
191B
102
{ACAD_REACTORS
330
191A
102
}
330
191A
100
AcDbXrecord
280
     1
290
     1
  0
XRECORD
  5
191D
102
{ACAD_REACTORS
330
191C
102
}
330
191C
100
AcDbXrecord
280
     1
290
     1
  0
XRECORD
  5
191F
102
{ACAD_REACTORS
330
191E
102
}
330
191E
100
AcDbXrecord
280
     1
290
     1
  0
XRECORD
  5
1921
102
{ACAD_REACTORS
330
1920
102
}
330
1920
100
AcDbXrecord
280
     1
290
     1
  0
DICTIONARY
  5
1706
102
{ACAD_REACTORS
330
B4F
102
}
330
B4F
100
AcDbDictionary
281
     1
  3
*A1
350
1707
  0
XRECORD
  5
B50
102
{ACAD_REACTORS
330
B4F
102
}
330
B4F
100
AcDbXrecord
280
     1
340
85F
  0
SORTENTSTABLE
  5
18F0
102
{ACAD_REACTORS
330
B4F
102
}
330
B4F
100
AcDbSortentsTable
330
85F
331
2764
  5
22BC
331
2806
  5
2806
331
27AF
  5
230B
331
27AB
  5
2306
331
2760
  5
22B8
331
2802
  5
2802
331
279F
  5
22F7
331
287C
  5
287C
331
275C
  5
22B4
331
279B
  5
22F3
331
2878
  5
2878
331
27FE
  5
27FE
331
283D
  5
283D
331
2839
  5
2839
331
2758
  5
22B0
331
2874
  5
2874
331
2886
  5
2886
331
27FA
  5
27FA
331
2870
  5
2870
331
2882
  5
2882
331
27C6
  5
2324
331
27C2
  5
2320
331
27A7
  5
22FF
331
2797
  5
22EF
331
955
  5
2334
331
27A3
  5
22FB
331
2754
  5
22AC
331
2793
  5
22EB
331
27F6
  5
27F6
331
2835
  5
2835
331
2750
  5
22A8
331
278F
  5
22E7
331
27F2
  5
27F2
331
2831
  5
2831
331
286C
  5
286C
331
274C
  5
22A4
331
278B
  5
22E3
331
2868
  5
2868
331
27EE
  5
27EE
331
282D
  5
282D
331
2829
  5
2829
331
2748
  5
22A0
331
2864
  5
2864
331
27EA
  5
27EA
331
2860
  5
2860
331
27BE
  5
231B
331
27BA
  5
2316
331
27B6
  5
2312
331
27B2
  5
230E
331
2787
  5
22DF
331
2783
  5
22DB
331
27E6
  5
27E6
331
2825
  5
2825
331
2744
  5
229C
331
2740
  5
2298
331
277F
  5
22D7
331
27E2
  5
27E2
331
2821
  5
2821
331
285C
  5
285C
331
273C
  5
958
331
277B
  5
22D3
331
27DE
  5
27DE
331
281D
  5
281D
331
2858
  5
2858
331
2819
  5
2819
331
2738
  5
954
331
2854
  5
2854
331
27DA
  5
27DA
331
2850
  5
2850
331
2777
  5
22CF
331
2773
  5
22CB
331
27D6
  5
27D6
331
2815
  5
2815
331
276F
  5
22C7
331
27D2
  5
2330
331
2811
  5
2811
331
284C
  5
284C
331
276B
  5
22C3
331
27CE
  5
232C
331
280D
  5
280D
331
2848
  5
2848
331
2809
  5
2809
331
958
  5
2337
331
2844
  5
2844
331
27CA
  5
2328
331
2840
  5
2840
331
2767
  5
22BF
331
2763
  5
22BB
331
2805
  5
2805
331
27AE
  5
230A
331
287F
  5
287F
331
27AA
  5
2302
331
275F
  5
22B7
331
2801
  5
2801
331
279E
  5
22F6
331
287B
  5
287B
331
283C
  5
283C
331
275B
  5
22B3
331
2877
  5
2877
331
27FD
  5
27FD
331
279A
  5
22F2
331
2838
  5
2838
331
2873
  5
2873
331
2885
  5
2885
331
27F9
  5
27F9
331
2881
  5
2881
331
27C5
  5
2323
331
27C1
  5
231F
331
27A6
  5
22FE
331
27A2
  5
22FA
331
2796
  5
22EE
331
954
  5
2333
331
2757
  5
22AF
331
2753
  5
22AB
331
2792
  5
22EA
331
27F5
  5
27F5
331
2834
  5
2834
331
286F
  5
286F
331
274F
  5
22A7
331
278E
  5
22E6
331
27F1
  5
27F1
331
2830
  5
2830
331
286B
  5
286B
331
274B
  5
22A3
331
278A
  5
22E2
331
2867
  5
2867
331
27ED
  5
27ED
331
282C
  5
282C
331
2828
  5
2828
331
2863
  5
2863
331
27E9
  5
27E9
331
27BD
  5
231A
331
27B9
  5
2315
331
27B5
  5
2311
331
27B1
  5
230D
331
2786
  5
22DE
331
2747
  5
229F
331
2743
  5
229B
331
2782
  5
22DA
331
27E5
  5
27E5
331
2824
  5
2824
331
285F
  5
285F
331
273F
  5
2297
331
277E
  5
22D6
331
27E1
  5
27E1
331
2820
  5
2820
331
285B
  5
285B
331
273B
  5
957
331
277A
  5
22D2
331
2857
  5
2857
331
27DD
  5
27DD
331
281C
  5
281C
331
2818
  5
2818
331
2853
  5
2853
331
27D9
  5
27D9
331
2776
  5
22CE
331
2737
  5
953
331
2772
  5
22CA
331
27D5
  5
27D5
331
2814
  5
2814
331
284F
  5
284F
331
276E
  5
22C6
331
27D1
  5
232F
331
2810
  5
2810
331
284B
  5
284B
331
276A
  5
22C2
331
27CD
  5
232B
331
280C
  5
280C
331
2847
  5
2847
331
2808
  5
2808
331
2843
  5
2843
331
27C9
  5
2327
331
2766
  5
22BE
331
2762
  5
22BA
331
2804
  5
2804
331
27AD
  5
2309
331
287E
  5
287E
331
27A9
  5
2301
331
275E
  5
22B6
331
279D
  5
22F5
331
2800
  5
2800
331
283F
  5
283F
331
287A
  5
287A
331
283B
  5
283B
331
275A
  5
22B2
331
2876
  5
2876
331
27FC
  5
27FC
331
2799
  5
22F1
331
27F8
  5
27F8
331
2872
  5
2872
331
2884
  5
2884
331
2880
  5
2880
331
27C4
  5
2322
331
27C0
  5
231E
331
957
  5
2336
331
27A5
  5
22FD
331
27A1
  5
22F9
331
2795
  5
22ED
331
953
  5
2332
331
2837
  5
2837
331
2756
  5
22AE
331
2752
  5
22AA
331
2791
  5
22E9
331
27F4
  5
27F4
331
2833
  5
2833
331
286E
  5
286E
331
274E
  5
22A6
331
278D
  5
22E5
331
27F0
  5
27F0
331
282F
  5
282F
331
286A
  5
286A
331
282B
  5
282B
331
274A
  5
22A2
331
2866
  5
2866
331
27EC
  5
27EC
331
2789
  5
22E1
331
2862
  5
2862
331
27E8
  5
27E8
331
27BC
  5
2318
331
27B8
  5
2314
331
27B4
  5
2310
331
27B0
  5
230C
331
2785
  5
22DD
331
2827
  5
2827
331
2746
  5
229E
331
2742
  5
229A
331
2781
  5
22D9
331
27E4
  5
27E4
331
2823
  5
2823
331
285E
  5
285E
331
273E
  5
2296
331
277D
  5
22D5
331
27E0
  5
27E0
331
281F
  5
281F
331
285A
  5
285A
331
273A
  5
956
331
2779
  5
22D1
331
2856
  5
2856
331
27DC
  5
27DC
331
281B
  5
281B
331
2852
  5
2852
331
27D8
  5
27D8
331
2775
  5
22CD
331
2817
  5
2817
331
2771
  5
22C9
331
27D4
  5
27D4
331
2813
  5
2813
331
284E
  5
284E
331
276D
  5
22C5
331
27D0
  5
232E
331
280F
  5
280F
331
284A
  5
284A
331
2769
  5
22C1
331
2846
  5
2846
331
27CC
  5
232A
331
280B
  5
280B
331
2842
  5
2842
331
27C8
  5
2326
331
2765
  5
22BD
331
2807
  5
2807
331
2761
  5
22B9
331
2803
  5
2803
331
27AC
  5
2308
331
287D
  5
287D
331
27A8
  5
2300
331
275D
  5
22B5
331
279C
  5
22F4
331
2879
  5
2879
331
27FF
  5
27FF
331
283E
  5
283E
331
2798
  5
22F0
331
283A
  5
283A
331
2759
  5
22B1
331
2875
  5
2875
331
2887
  5
2887
331
27FB
  5
27FB
331
2871
  5
2871
331
2883
  5
2883
331
27C7
  5
2325
331
27C3
  5
2321
331
956
  5
2335
331
27A4
  5
22FC
331
27A0
  5
22F8
331
2794
  5
22EC
331
27F7
  5
27F7
331
2836
  5
2836
331
2755
  5
22AD
331
2751
  5
22A9
331
2790
  5
22E8
331
27F3
  5
27F3
331
2832
  5
2832
331
286D
  5
286D
331
274D
  5
22A5
331
278C
  5
22E4
331
27EF
  5
27EF
331
282E
  5
282E
331
2869
  5
2869
331
282A
  5
282A
331
2749
  5
22A1
331
2865
  5
2865
331
27EB
  5
27EB
331
2788
  5
22E0
331
2861
  5
2861
331
27BF
  5
231D
331
27BB
  5
2317
331
27B7
  5
2313
331
27B3
  5
230F
331
2888
  5
2888
331
2784
  5
22DC
331
27E7
  5
27E7
331
2826
  5
2826
331
2745
  5
229D
331
2741
  5
2299
331
2780
  5
22D8
331
27E3
  5
27E3
331
2822
  5
2822
331
285D
  5
285D
331
273D
  5
2295
331
277C
  5
22D4
331
27DF
  5
27DF
331
281E
  5
281E
331
2859
  5
2859
331
281A
  5
281A
331
2739
  5
955
331
2855
  5
2855
331
27DB
  5
27DB
331
2778
  5
22D0
331
2851
  5
2851
331
2774
  5
22CC
331
2816
  5
2816
331
27D7
  5
27D7
331
2770
  5
22C8
331
27D3
  5
2331
331
2812
  5
2812
331
284D
  5
284D
331
276C
  5
22C4
331
27CF
  5
232D
331
280E
  5
280E
331
2849
  5
2849
331
2768
  5
22C0
331
2845
  5
2845
331
27CB
  5
2329
331
280A
  5
280A
331
2841
  5
2841
  0
XRECORD
  5
B4E
102
{ACAD_REACTORS
330
B4D
102
}
330
B4D
100
AcDbXrecord
280
     1
340
85B
  0
XRECORD
  5
2996
102
{ACAD_REACTORS
330
2995
102
}
330
2995
100
AcDbXrecord
280
     1
 70
     1
  0
XRECORD
  5
2998
102
{ACAD_REACTORS
330
2995
102
}
330
2995
100
AcDbXrecord
280
     1
340
854
  0
XRECORD
  5
2999
102
{ACAD_REACTORS
330
2995
102
}
330
2995
100
AcDbXrecord
280
     1
340
854
  0
XRECORD
  5
2997
102
{ACAD_REACTORS
330
2995
102
}
330
2995
100
AcDbXrecord
280
     1
340
854
  0
LAYOUT
  5
B84
102
{ACAD_REACTORS
330
85A
102
}
330
85A
100
AcDbPlotSettings
  1

  2
none_device
  4
Letter_(8.50_x_11.00_Inches)
  6

 40
6.349999904632567
 41
6.349999904632567
 42
6.350006103515625
 43
6.350006103515625
 44
215.8999938964844
 45
279.3999938964844
 46
0.0
 47
0.0
 48
0.0
 49
0.0
140
0.0
141
0.0
142
1.0
143
147.2292326411557
 70
 11952
 72
     0
 73
     1
 74
     0
  7
monochrome.ctb
 75
     0
147
0.0067921294029788
 76
     0
 77
     2
 78
   300
148
22185.39826845973
149
21252.99217902705
100
AcDbLayout
  1
Model
 70
     1
 71
     0
 10
0.0
 20
0.0
 11
12.0
 21
9.0
 12
0.0
 22
0.0
 32
0.0
 14
0.0
 24
0.0
 34
0.0
 15
0.0
 25
0.0
 35
0.0
146
0.0
 13
0.0
 23
0.0
 33
0.0
 16
1.0
 26
0.0
 36
0.0
 17
0.0
 27
1.0
 37
0.0
 76
     0
330
85F
331
185F
1001
ACAD_PSEXT
1000
なし
1000
なし
1000
適切ではありません
1000
新しいプロッタ環境設定名を選択しない限り、レイアウトは印刷されません。
1070
     0
  0
LAYOUT
  5
B85
102
{ACAD_REACTORS
330
85A
102
}
330
85A
100
AcDbPlotSettings
  1

  2
\\Server02\EPSON LP-9600SPD (3F)
  4

  6

 40
0.0
 41
0.0
 42
0.0
 43
0.0
 44
0.0
 45
0.0
 46
0.0
 47
0.0
 48
0.0
 49
0.0
140
0.0
141
0.0
142
1.0
143
1.0
 70
   688
 72
     0
 73
     0
 74
     5
  7
monochrome.ctb
 75
    16
147
1.0
 76
     0
 77
     2
 78
   300
148
0.0
149
0.0
100
AcDbLayout
  1
ﾚｲｱｳﾄ1
 70
     1
 71
     1
 10
0.0
 20
0.0
 11
12.0
 21
9.0
 12
0.0
 22
0.0
 32
0.0
 14
1.000000000000000E+20
 24
1.000000000000000E+20
 34
1.000000000000000E+20
 15
-1.000000000000000E+20
 25
-1.000000000000000E+20
 35
-1.000000000000000E+20
146
0.0
 13
0.0
 23
0.0
 33
0.0
 16
1.0
 26
0.0
 36
0.0
 17
0.0
 27
1.0
 37
0.0
 76
     0
330
85B
  0
MATERIAL
  5
1872
102
{ACAD_XDICTIONARY
360
1873
102
}
102
{ACAD_REACTORS
330
15E8
102
}
330
15E8
100
AcDbMaterial
  1
ByBlock
 72
     0
 43
0.0208333333333333
 43
0.0
 43
0.0
 43
0.0
 43
0.0
 43
0.0208333333333333
 43
0.0
 43
0.0
 43
0.0
 43
0.0
 43
1.0
 43
0.0
 43
0.0
 43
0.0
 43
0.0
 43
1.0
 77
     0
 47
0.0208333333333333
 47
0.0
 47
0.0
 47
0.0
 47
0.0
 47
0.0208333333333333
 47
0.0
 47
0.0
 47
0.0
 47
0.0
 47
1.0
 47
0.0
 47
0.0
 47
0.0
 47
0.0
 47
1.0
171
     0
 49
0.0208333333333333
 49
0.0
 49
0.0
 49
0.0
 49
0.0
 49
0.0208333333333333
 49
0.0
 49
0.0
 49
0.0
 49
0.0
 49
1.0
 49
0.0
 49
0.0
 49
0.0
 49
0.0
 49
1.0
175
     0
142
0.0208333333333333
142
0.0
142
0.0
142
0.0
142
0.0
142
0.0208333333333333
142
0.0
142
0.0
142
0.0
142
0.0
142
1.0
142
0.0
142
0.0
142
0.0
142
0.0
142
1.0
179
     0
144
0.0208333333333333
144
0.0
144
0.0
144
0.0
144
0.0
144
0.0208333333333333
144
0.0
144
0.0
144
0.0
144
0.0
144
1.0
144
0.0
144
0.0
144
0.0
144
0.0
144
1.0
147
0.0208333333333333
147
0.0
147
0.0
147
0.0
147
0.0
147
0.0208333333333333
147
0.0
147
0.0
147
0.0
147
0.0
147
1.0
147
0.0
147
0.0
147
0.0
147
0.0
147
1.0
  0
MATERIAL
  5
186A
102
{ACAD_XDICTIONARY
360
186B
102
}
102
{ACAD_REACTORS
330
15E8
102
}
330
15E8
100
AcDbMaterial
  1
ByLayer
 72
     0
 43
0.0208333333333333
 43
0.0
 43
0.0
 43
0.0
 43
0.0
 43
0.0208333333333333
 43
0.0
 43
0.0
 43
0.0
 43
0.0
 43
1.0
 43
0.0
 43
0.0
 43
0.0
 43
0.0
 43
1.0
 77
     0
 47
0.0208333333333333
 47
0.0
 47
0.0
 47
0.0
 47
0.0
 47
0.0208333333333333
 47
0.0
 47
0.0
 47
0.0
 47
0.0
 47
1.0
 47
0.0
 47
0.0
 47
0.0
 47
0.0
 47
1.0
171
     0
 49
0.0208333333333333
 49
0.0
 49
0.0
 49
0.0
 49
0.0
 49
0.0208333333333333
 49
0.0
 49
0.0
 49
0.0
 49
0.0
 49
1.0
 49
0.0
 49
0.0
 49
0.0
 49
0.0
 49
1.0
175
     0
142
0.0208333333333333
142
0.0
142
0.0
142
0.0
142
0.0
142
0.0208333333333333
142
0.0
142
0.0
142
0.0
142
0.0
142
1.0
142
0.0
142
0.0
142
0.0
142
0.0
142
1.0
179
     0
144
0.0208333333333333
144
0.0
144
0.0
144
0.0
144
0.0
144
0.0208333333333333
144
0.0
144
0.0
144
0.0
144
0.0
144
1.0
144
0.0
144
0.0
144
0.0
144
0.0
144
1.0
147
0.0208333333333333
147
0.0
147
0.0
147
0.0
147
0.0
147
0.0208333333333333
147
0.0
147
0.0
147
0.0
147
0.0
147
1.0
147
0.0
147
0.0
147
0.0
147
0.0
147
1.0
  0
MATERIAL
  5
187A
102
{ACAD_XDICTIONARY
360
187B
102
}
102
{ACAD_REACTORS
330
15E8
102
}
330
15E8
100
AcDbMaterial
  1
Global
 72
     0
 43
0.0208333333333333
 43
0.0
 43
0.0
 43
0.0
 43
0.0
 43
0.0208333333333333
 43
0.0
 43
0.0
 43
0.0
 43
0.0
 43
1.0
 43
0.0
 43
0.0
 43
0.0
 43
0.0
 43
1.0
 77
     0
 47
0.0208333333333333
 47
0.0
 47
0.0
 47
0.0
 47
0.0
 47
0.0208333333333333
 47
0.0
 47
0.0
 47
0.0
 47
0.0
 47
1.0
 47
0.0
 47
0.0
 47
0.0
 47
0.0
 47
1.0
171
     0
 49
0.0208333333333333
 49
0.0
 49
0.0
 49
0.0
 49
0.0
 49
0.0208333333333333
 49
0.0
 49
0.0
 49
0.0
 49
0.0
 49
1.0
 49
0.0
 49
0.0
 49
0.0
 49
0.0
 49
1.0
175
     0
142
0.0208333333333333
142
0.0
142
0.0
142
0.0
142
0.0
142
0.0208333333333333
142
0.0
142
0.0
142
0.0
142
0.0
142
1.0
142
0.0
142
0.0
142
0.0
142
0.0
142
1.0
179
     0
144
0.0208333333333333
144
0.0
144
0.0
144
0.0
144
0.0
144
0.0208333333333333
144
0.0
144
0.0
144
0.0
144
0.0
144
1.0
144
0.0
144
0.0
144
0.0
144
0.0
144
1.0
147
0.0208333333333333
147
0.0
147
0.0
147
0.0
147
0.0
147
0.0208333333333333
147
0.0
147
0.0
147
0.0
147
0.0
147
1.0
147
0.0
147
0.0
147
0.0
147
0.0
147
1.0
  0
MLEADERSTYLE
  5
18B6
102
{ACAD_REACTORS
330
18B5
102
}
330
18B5
100
AcDbMLeaderStyle
170
     2
171
     1
172
     0
 90
        2
 40
0.0
 41
0.0
173
     1
 91
-1056964608
340
854
 92
       -2
290
     1
 42
0.09
291
     1
 43
0.36
  3
Standard
 44
0.18
300

342
852
174
     1
178
     6
175
     1
176
     0
 93
-1056964608
 45
0.18
292
     0
297
     0
 46
0.18
 94
-1056964608
 47
1.0
 49
1.0
140
1.0
293
     1
141
0.0
294
     1
177
     0
142
1.0
295
     0
296
     0
143
0.125
1001
ACAD_MLEADERVER
1070
     2
  0
MLINESTYLE
  5
858
102
{ACAD_REACTORS
330
857
102
}
330
857
100
AcDbMlineStyle
  2
STANDARD
 70
     0
  3

 62
   256
 51
90.0
 52
90.0
 71
     2
 49
0.5
 62
   256
  6
BYLAYER
 49
-0.5
 62
   256
  6
BYLAYER
  0
ACDBPLACEHOLDER
  5
B83
102
{ACAD_REACTORS
330
B82
102
}
330
B82
  0
SCALE
  5
1894
102
{ACAD_REACTORS
330
1893
102
}
330
1893
100
AcDbScale
 70
     0
300
1:1
140
1.0
141
1.0
290
     1
  0
SCALE
  5
1895
102
{ACAD_REACTORS
330
1893
102
}
330
1893
100
AcDbScale
 70
     0
300
1:2
140
1.0
141
2.0
290
     0
  0
SCALE
  5
1896
102
{ACAD_REACTORS
330
1893
102
}
330
1893
100
AcDbScale
 70
     0
300
1:4
140
1.0
141
4.0
290
     0
  0
SCALE
  5
1897
102
{ACAD_REACTORS
330
1893
102
}
330
1893
100
AcDbScale
 70
     0
300
1:5
140
1.0
141
5.0
290
     0
  0
SCALE
  5
1898
102
{ACAD_REACTORS
330
1893
102
}
330
1893
100
AcDbScale
 70
     0
300
1:8
140
1.0
141
8.0
290
     0
  0
SCALE
  5
1899
102
{ACAD_REACTORS
330
1893
102
}
330
1893
100
AcDbScale
 70
     0
300
1:10
140
1.0
141
10.0
290
     0
  0
SCALE
  5
189A
102
{ACAD_REACTORS
330
1893
102
}
330
1893
100
AcDbScale
 70
     0
300
1:16
140
1.0
141
16.0
290
     0
  0
SCALE
  5
189B
102
{ACAD_REACTORS
330
1893
102
}
330
1893
100
AcDbScale
 70
     0
300
1:20
140
1.0
141
20.0
290
     0
  0
SCALE
  5
189C
102
{ACAD_REACTORS
330
1893
102
}
330
1893
100
AcDbScale
 70
     0
300
1:30
140
1.0
141
30.0
290
     0
  0
SCALE
  5
189D
102
{ACAD_REACTORS
330
1893
102
}
330
1893
100
AcDbScale
 70
     0
300
1:40
140
1.0
141
40.0
290
     0
  0
SCALE
  5
189E
102
{ACAD_REACTORS
330
1893
102
}
330
1893
100
AcDbScale
 70
     0
300
1:50
140
1.0
141
50.0
290
     0
  0
SCALE
  5
189F
102
{ACAD_REACTORS
330
1893
102
}
330
1893
100
AcDbScale
 70
     0
300
1:100
140
1.0
141
100.0
290
     0
  0
SCALE
  5
18A0
102
{ACAD_REACTORS
330
1893
102
}
330
1893
100
AcDbScale
 70
     0
300
2:1
140
2.0
141
1.0
290
     0
  0
SCALE
  5
18A1
102
{ACAD_REACTORS
330
1893
102
}
330
1893
100
AcDbScale
 70
     0
300
4:1
140
4.0
141
1.0
290
     0
  0
SCALE
  5
18A2
102
{ACAD_REACTORS
330
1893
102
}
330
1893
100
AcDbScale
 70
     0
300
8:1
140
8.0
141
1.0
290
     0
  0
SCALE
  5
18A3
102
{ACAD_REACTORS
330
1893
102
}
330
1893
100
AcDbScale
 70
     0
300
10:1
140
10.0
141
1.0
290
     0
  0
SCALE
  5
18A4
102
{ACAD_REACTORS
330
1893
102
}
330
1893
100
AcDbScale
 70
     0
300
100:1
140
100.0
141
1.0
290
     0
  0
SCALE
  5
18A5
102
{ACAD_REACTORS
330
1893
102
}
330
1893
100
AcDbScale
 70
     0
300
1/128" = 1'-0"
140
0.0078125
141
12.0
290
     0
  0
SCALE
  5
18A6
102
{ACAD_REACTORS
330
1893
102
}
330
1893
100
AcDbScale
 70
     0
300
1/64" = 1'-0"
140
0.015625
141
12.0
290
     0
  0
SCALE
  5
18A7
102
{ACAD_REACTORS
330
1893
102
}
330
1893
100
AcDbScale
 70
     0
300
1/32" = 1'-0"
140
0.03125
141
12.0
290
     0
  0
SCALE
  5
18A8
102
{ACAD_REACTORS
330
1893
102
}
330
1893
100
AcDbScale
 70
     0
300
1/16" = 1'-0"
140
0.0625
141
12.0
290
     0
  0
SCALE
  5
18A9
102
{ACAD_REACTORS
330
1893
102
}
330
1893
100
AcDbScale
 70
     0
300
3/32" = 1'-0"
140
0.09375
141
12.0
290
     0
  0
SCALE
  5
18AA
102
{ACAD_REACTORS
330
1893
102
}
330
1893
100
AcDbScale
 70
     0
300
1/8" = 1'-0"
140
0.125
141
12.0
290
     0
  0
SCALE
  5
18AB
102
{ACAD_REACTORS
330
1893
102
}
330
1893
100
AcDbScale
 70
     0
300
3/16" = 1'-0"
140
0.1875
141
12.0
290
     0
  0
SCALE
  5
18AC
102
{ACAD_REACTORS
330
1893
102
}
330
1893
100
AcDbScale
 70
     0
300
1/4" = 1'-0"
140
0.25
141
12.0
290
     0
  0
SCALE
  5
18AD
102
{ACAD_REACTORS
330
1893
102
}
330
1893
100
AcDbScale
 70
     0
300
3/8" = 1'-0"
140
0.375
141
12.0
290
     0
  0
SCALE
  5
18AE
102
{ACAD_REACTORS
330
1893
102
}
330
1893
100
AcDbScale
 70
     0
300
1/2" = 1'-0"
140
0.5
141
12.0
290
     0
  0
SCALE
  5
18AF
102
{ACAD_REACTORS
330
1893
102
}
330
1893
100
AcDbScale
 70
     0
300
3/4" = 1'-0"
140
0.75
141
12.0
290
     0
  0
SCALE
  5
18B0
102
{ACAD_REACTORS
330
1893
102
}
330
1893
100
AcDbScale
 70
     0
300
1" = 1'-0"
140
1.0
141
12.0
290
     0
  0
SCALE
  5
18B1
102
{ACAD_REACTORS
330
1893
102
}
330
1893
100
AcDbScale
 70
     0
300
1-1/2" = 1'-0"
140
1.5
141
12.0
290
     0
  0
SCALE
  5
18B2
102
{ACAD_REACTORS
330
1893
102
}
330
1893
100
AcDbScale
 70
     0
300
3" = 1'-0"
140
3.0
141
12.0
290
     0
  0
SCALE
  5
18B3
102
{ACAD_REACTORS
330
1893
102
}
330
1893
100
AcDbScale
 70
     0
300
6" = 1'-0"
140
6.0
141
12.0
290
     0
  0
SCALE
  5
18B4
102
{ACAD_REACTORS
330
1893
102
}
330
1893
100
AcDbScale
 70
     0
300
1'-0" = 1'-0"
140
12.0
141
12.0
290
     0
  0
TABLESTYLE
  5
15EB
102
{ACAD_XDICTIONARY
360
1925
102
}
102
{ACAD_REACTORS
330
15EA
102
}
330
15EA
100
AcDbTableStyle
  3
Standard
 70
     0
 71
     0
 40
0.06
 41
0.06
280
     0
281
     0
  7
STANDARD
140
0.18
170
     2
 62
     0
 63
     7
283
     0
274
    -2
284
     1
 64
     0
275
    -2
285
     1
 65
     0
276
    -2
286
     1
 66
     0
277
    -2
287
     1
 67
     0
278
    -2
288
     1
 68
     0
279
    -2
289
     1
 69
     0
  7
STANDARD
140
0.25
170
     5
 62
     0
 63
     7
283
     0
274
    -2
284
     1
 64
     0
275
    -2
285
     1
 65
     0
276
    -2
286
     1
 66
     0
277
    -2
287
     1
 67
     0
278
    -2
288
     1
 68
     0
279
    -2
289
     1
 69
     0
  7
STANDARD
140
0.18
170
     5
 62
     0
 63
     7
283
     0
274
    -2
284
     1
 64
     0
275
    -2
285
     1
 65
     0
276
    -2
286
     1
 66
     0
277
    -2
287
     1
 67
     0
278
    -2
288
     1
 68
     0
279
    -2
289
     1
 69
     0
  0
VISUALSTYLE
  5
1888
102
{ACAD_REACTORS
330
1882
102
}
330
1882
100
AcDbVisualStyle
  2
2dWireframe
 70
     4
 71
     0
 72
     2
 73
     0
 90
        0
 40
-0.6
 41
-30.0
 62
     5
 63
     7
 74
     1
 91
        4
 64
     7
 65
   257
 75
     1
175
     1
 42
1.0
 92
        0
 66
   257
 43
1.0
 76
     1
 77
     6
 78
     2
 67
     7
 79
     5
170
     0
171
     0
290
     0
174
     0
 93
        1
 44
0.0
173
     0
291
     0
 45
0.0
1001
ACAD
1000
AcDbSavedByObjectVersion
1070
     0
1000
AcDbSavedByObjectVersion
1070
     0
1000
AcDbSavedByObjectVersion
1070
     0
1000
AcDbSavedByObjectVersion
1070
     0
1000
AcDbSavedByObjectVersion
1070
     0
1000
AcDbSavedByObjectVersion
1070
     0
1000
AcDbSavedByObjectVersion
1070
     0
1000
AcDbSavedByObjectVersion
1070
     0
1000
AcDbSavedByObjectVersion
1070
     0
  0
VISUALSTYLE
  5
188A
102
{ACAD_REACTORS
330
1882
102
}
330
1882
100
AcDbVisualStyle
  2
3D Hidden
 70
     6
 71
     1
 72
     2
 73
     2
 90
        0
 40
-0.6
 41
-30.0
 62
     5
 63
     7
 74
     2
 91
        2
 64
     7
 65
   257
 75
     2
175
     1
 42
40.0
 92
        0
 66
   257
 43
1.0
 76
     1
 77
     6
 78
     2
 67
     7
 79
     3
170
     0
171
     0
290
     0
174
     0
 93
        1
 44
0.0
173
     0
291
     0
 45
0.0
1001
ACAD
1000
AcDbSavedByObjectVersion
1070
     0
1000
AcDbSavedByObjectVersion
1070
     0
1000
AcDbSavedByObjectVersion
1070
     0
1000
AcDbSavedByObjectVersion
1070
     0
1000
AcDbSavedByObjectVersion
1070
     0
1000
AcDbSavedByObjectVersion
1070
     0
1000
AcDbSavedByObjectVersion
1070
     0
1000
AcDbSavedByObjectVersion
1070
     0
1000
AcDbSavedByObjectVersion
1070
     0
  0
VISUALSTYLE
  5
1889
102
{ACAD_REACTORS
330
1882
102
}
330
1882
100
AcDbVisualStyle
  2
3dWireframe
 70
     5
 71
     0
 72
     2
 73
     0
 90
        0
 40
-0.6
 41
-30.0
 62
     5
 63
     7
 74
     1
 91
        4
 64
     7
 65
   257
 75
     1
175
     1
 42
1.0
 92
        0
 66
   257
 43
1.0
 76
     1
 77
     6
 78
     2
 67
     7
 79
     5
170
     0
171
     0
290
     0
174
     0
 93
        1
 44
0.0
173
     0
291
     0
 45
0.0
1001
ACAD
1000
AcDbSavedByObjectVersion
1070
     0
1000
AcDbSavedByObjectVersion
1070
     0
1000
AcDbSavedByObjectVersion
1070
     0
1000
AcDbSavedByObjectVersion
1070
     0
1000
AcDbSavedByObjectVersion
1070
     0
1000
AcDbSavedByObjectVersion
1070
     0
1000
AcDbSavedByObjectVersion
1070
     0
1000
AcDbSavedByObjectVersion
1070
     0
1000
AcDbSavedByObjectVersion
1070
     0
  0
VISUALSTYLE
  5
1887
102
{ACAD_REACTORS
330
1882
102
}
330
1882
100
AcDbVisualStyle
  2
Basic
 70
     7
 71
     1
 72
     0
 73
     1
 90
        0
 40
-0.6
 41
-30.0
 62
     5
 63
     7
 74
     0
 91
        4
 64
     7
 65
   257
 75
     1
175
     1
 42
1.0
 92
        8
 66
     7
 43
1.0
 76
     1
 77
     6
 78
     2
 67
     7
 79
     5
170
     0
171
     0
290
     0
174
     0
 93
        1
 44
0.0
173
     0
291
     1
 45
0.0
1001
ACAD
1000
AcDbSavedByObjectVersion
1070
     0
1000
AcDbSavedByObjectVersion
1070
     0
1000
AcDbSavedByObjectVersion
1070
     0
1000
AcDbSavedByObjectVersion
1070
     0
1000
AcDbSavedByObjectVersion
1070
     0
1000
AcDbSavedByObjectVersion
1070
     0
1000
AcDbSavedByObjectVersion
1070
     0
1000
AcDbSavedByObjectVersion
1070
     0
1000
AcDbSavedByObjectVersion
1070
     0
  0
VISUALSTYLE
  5
188E
102
{ACAD_REACTORS
330
1882
102
}
330
1882
100
AcDbVisualStyle
  2
Brighten
 70
    12
 71
     2
 72
     2
 73
     0
 90
        0
 40
-0.6
 41
-30.0
 62
     5
 63
     7
 74
     1
 91
        4
 64
     7
 65
   257
 75
     1
175
     1
 42
1.0
 92
        8
 66
     7
 43
1.0
 76
     1
 77
     6
 78
     2
 67
     7
 79
     5
170
     0
171
     0
290
     0
174
     0
 93
        1
 44
50.0
173
     0
291
     1
 45
0.0
1001
ACAD
1000
AcDbSavedByObjectVersion
1070
     0
1000
AcDbSavedByObjectVersion
1070
     0
1000
AcDbSavedByObjectVersion
1070
     0
1000
AcDbSavedByObjectVersion
1070
     0
1000
AcDbSavedByObjectVersion
1070
     0
1000
AcDbSavedByObjectVersion
1070
     0
1000
AcDbSavedByObjectVersion
1070
     0
1000
AcDbSavedByObjectVersion
1070
     0
1000
AcDbSavedByObjectVersion
1070
     0
  0
VISUALSTYLE
  5
1892
102
{ACAD_REACTORS
330
1882
102
}
330
1882
100
AcDbVisualStyle
  2
ColorChange
 70
    16
 71
     2
 72
     2
 73
     3
 90
        0
 40
-0.6
 41
-30.0
 62
     5
 63
     8
 74
     1
 91
        4
 64
     7
 65
   257
 75
     1
175
     1
 42
1.0
 92
        8
 66
     8
 43
1.0
 76
     1
 77
     6
 78
     2
 67
     7
 79
     5
170
     0
171
     0
290
     0
174
     0
 93
        1
 44
0.0
173
     0
291
     1
 45
0.0
1001
ACAD
1000
AcDbSavedByObjectVersion
1070
     0
1000
AcDbSavedByObjectVersion
1070
     0
1000
AcDbSavedByObjectVersion
1070
     0
1000
AcDbSavedByObjectVersion
1070
     0
1000
AcDbSavedByObjectVersion
1070
     0
1000
AcDbSavedByObjectVersion
1070
     0
1000
AcDbSavedByObjectVersion
1070
     0
1000
AcDbSavedByObjectVersion
1070
     0
1000
AcDbSavedByObjectVersion
1070
     0
  0
VISUALSTYLE
  5
188B
102
{ACAD_REACTORS
330
1882
102
}
330
1882
100
AcDbVisualStyle
  2
Conceptual
 70
     9
 71
     3
 72
     2
 73
     0
 90
        0
 40
-0.6
 41
-30.0
 62
     5
 63
     7
 74
     2
 91
        2
 64
     7
 65
   257
 75
     1
175
     1
 42
40.0
 92
        8
 66
     7
 43
1.0
 76
     1
 77
     6
 78
     2
 67
     7
 79
     3
170
     0
171
     0
290
     0
174
     0
 93
        1
 44
0.0
173
     0
291
     0
 45
0.0
1001
ACAD
1000
AcDbSavedByObjectVersion
1070
     0
1000
AcDbSavedByObjectVersion
1070
     0
1000
AcDbSavedByObjectVersion
1070
     0
1000
AcDbSavedByObjectVersion
1070
     0
1000
AcDbSavedByObjectVersion
1070
     0
1000
AcDbSavedByObjectVersion
1070
     0
1000
AcDbSavedByObjectVersion
1070
     0
1000
AcDbSavedByObjectVersion
1070
     0
1000
AcDbSavedByObjectVersion
1070
     0
  0
VISUALSTYLE
  5
188D
102
{ACAD_REACTORS
330
1882
102
}
330
1882
100
AcDbVisualStyle
  2
Dim
 70
    11
 71
     2
 72
     2
 73
     0
 90
        0
 40
-0.6
 41
-30.0
 62
     5
 63
     7
 74
     1
 91
        4
 64
     7
 65
   257
 75
     1
175
     1
 42
1.0
 92
        8
 66
     7
 43
1.0
 76
     1
 77
     6
 78
     2
 67
     7
 79
     5
170
     0
171
     0
290
     0
174
     0
 93
        1
 44
-50.0
173
     0
291
     1
 45
0.0
1001
ACAD
1000
AcDbSavedByObjectVersion
1070
     0
1000
AcDbSavedByObjectVersion
1070
     0
1000
AcDbSavedByObjectVersion
1070
     0
1000
AcDbSavedByObjectVersion
1070
     0
1000
AcDbSavedByObjectVersion
1070
     0
1000
AcDbSavedByObjectVersion
1070
     0
1000
AcDbSavedByObjectVersion
1070
     0
1000
AcDbSavedByObjectVersion
1070
     0
1000
AcDbSavedByObjectVersion
1070
     0
  0
VISUALSTYLE
  5
1891
102
{ACAD_REACTORS
330
1882
102
}
330
1882
100
AcDbVisualStyle
  2
Facepattern
 70
    15
 71
     2
 72
     2
 73
     0
 90
        0
 40
-0.6
 41
-30.0
 62
     5
 63
     7
 74
     1
 91
        4
 64
     7
 65
   257
 75
     1
175
     1
 42
1.0
 92
        8
 66
     7
 43
1.0
 76
     1
 77
     6
 78
     2
 67
     7
 79
     5
170
     0
171
     0
290
     0
174
     0
 93
        1
 44
0.0
173
     0
291
     1
 45
0.0
1001
ACAD
1000
AcDbSavedByObjectVersion
1070
     0
1000
AcDbSavedByObjectVersion
1070
     0
1000
AcDbSavedByObjectVersion
1070
     0
1000
AcDbSavedByObjectVersion
1070
     0
1000
AcDbSavedByObjectVersion
1070
     0
1000
AcDbSavedByObjectVersion
1070
     0
1000
AcDbSavedByObjectVersion
1070
     0
1000
AcDbSavedByObjectVersion
1070
     0
1000
AcDbSavedByObjectVersion
1070
     0
  0
VISUALSTYLE
  5
1883
102
{ACAD_REACTORS
330
1882
102
}
330
1882
100
AcDbVisualStyle
  2
Flat
 70
     0
 71
     2
 72
     1
 73
     1
 90
        2
 40
-0.6
 41
30.0
 62
     5
 63
     7
 74
     0
 91
        4
 64
     7
 65
   257
 75
     1
175
     1
 42
1.0
 92
        8
 66
     7
 43
1.0
 76
     1
 77
     6
 78
     2
 67
     7
 79
     5
170
     0
171
     0
290
     0
174
     0
 93
       13
 44
0.0
173
     0
291
     1
 45
0.0
1001
ACAD
1000
AcDbSavedByObjectVersion
1070
     0
1000
AcDbSavedByObjectVersion
1070
     0
1000
AcDbSavedByObjectVersion
1070
     0
1000
AcDbSavedByObjectVersion
1070
     0
1000
AcDbSavedByObjectVersion
1070
     0
1000
AcDbSavedByObjectVersion
1070
     0
1000
AcDbSavedByObjectVersion
1070
     0
1000
AcDbSavedByObjectVersion
1070
     0
1000
AcDbSavedByObjectVersion
1070
     0
  0
VISUALSTYLE
  5
1884
102
{ACAD_REACTORS
330
1882
102
}
330
1882
100
AcDbVisualStyle
  2
FlatWithEdges
 70
     1
 71
     2
 72
     1
 73
     1
 90
        2
 40
-0.6
 41
30.0
 62
     5
 63
     7
 74
     1
 91
        4
 64
     7
 65
   257
 75
     1
175
     1
 42
1.0
 92
        0
 66
   257
 43
1.0
 76
     1
 77
     6
 78
     2
 67
     7
 79
     5
170
     0
171
     0
290
     0
174
     0
 93
       13
 44
0.0
173
     0
291
     1
 45
0.0
1001
ACAD
1000
AcDbSavedByObjectVersion
1070
     0
1000
AcDbSavedByObjectVersion
1070
     0
1000
AcDbSavedByObjectVersion
1070
     0
1000
AcDbSavedByObjectVersion
1070
     0
1000
AcDbSavedByObjectVersion
1070
     0
1000
AcDbSavedByObjectVersion
1070
     0
1000
AcDbSavedByObjectVersion
1070
     0
1000
AcDbSavedByObjectVersion
1070
     0
1000
AcDbSavedByObjectVersion
1070
     0
  0
VISUALSTYLE
  5
1885
102
{ACAD_REACTORS
330
1882
102
}
330
1882
100
AcDbVisualStyle
  2
Gouraud
 70
     2
 71
     2
 72
     2
 73
     1
 90
        2
 40
-0.6
 41
30.0
 62
     5
 63
     7
 74
     0
 91
        4
 64
     7
 65
   257
 75
     1
175
     1
 42
1.0
 92
        0
 66
     7
 43
1.0
 76
     1
 77
     6
 78
     2
 67
     7
 79
     5
170
     0
171
     0
290
     0
174
     0
 93
       13
 44
0.0
173
     0
291
     1
 45
0.0
1001
ACAD
1000
AcDbSavedByObjectVersion
1070
     0
1000
AcDbSavedByObjectVersion
1070
     0
1000
AcDbSavedByObjectVersion
1070
     0
1000
AcDbSavedByObjectVersion
1070
     0
1000
AcDbSavedByObjectVersion
1070
     0
1000
AcDbSavedByObjectVersion
1070
     0
1000
AcDbSavedByObjectVersion
1070
     0
1000
AcDbSavedByObjectVersion
1070
     0
1000
AcDbSavedByObjectVersion
1070
     0
  0
VISUALSTYLE
  5
1886
102
{ACAD_REACTORS
330
1882
102
}
330
1882
100
AcDbVisualStyle
  2
GouraudWithEdges
 70
     3
 71
     2
 72
     2
 73
     1
 90
        2
 40
-0.6
 41
30.0
 62
     5
 63
     7
 74
     1
 91
        4
 64
     7
 65
   257
 75
     1
175
     1
 42
1.0
 92
        0
 66
   257
 43
1.0
 76
     1
 77
     6
 78
     2
 67
     7
 79
     5
170
     0
171
     0
290
     0
174
     0
 93
       13
 44
0.0
173
     0
291
     1
 45
0.0
1001
ACAD
1000
AcDbSavedByObjectVersion
1070
     0
1000
AcDbSavedByObjectVersion
1070
     0
1000
AcDbSavedByObjectVersion
1070
     0
1000
AcDbSavedByObjectVersion
1070
     0
1000
AcDbSavedByObjectVersion
1070
     0
1000
AcDbSavedByObjectVersion
1070
     0
1000
AcDbSavedByObjectVersion
1070
     0
1000
AcDbSavedByObjectVersion
1070
     0
1000
AcDbSavedByObjectVersion
1070
     0
  0
VISUALSTYLE
  5
1890
102
{ACAD_REACTORS
330
1882
102
}
330
1882
100
AcDbVisualStyle
  2
Linepattern
 70
    14
 71
     2
 72
     2
 73
     0
 90
        0
 40
-0.6
 41
-30.0
 62
     5
 63
     7
 74
     1
 91
        4
 64
     7
 65
   257
 75
     7
175
     7
 42
1.0
 92
        8
 66
     7
 43
1.0
 76
     1
 77
     6
 78
     2
 67
     7
 79
     5
170
     0
171
     0
290
     0
174
     0
 93
        1
 44
0.0
173
     0
291
     1
 45
0.0
1001
ACAD
1000
AcDbSavedByObjectVersion
1070
     0
1000
AcDbSavedByObjectVersion
1070
     0
1000
AcDbSavedByObjectVersion
1070
     0
1000
AcDbSavedByObjectVersion
1070
     0
1000
AcDbSavedByObjectVersion
1070
     0
1000
AcDbSavedByObjectVersion
1070
     0
1000
AcDbSavedByObjectVersion
1070
     0
1000
AcDbSavedByObjectVersion
1070
     0
1000
AcDbSavedByObjectVersion
1070
     0
  0
VISUALSTYLE
  5
188C
102
{ACAD_REACTORS
330
1882
102
}
330
1882
100
AcDbVisualStyle
  2
Realistic
 70
     8
 71
     2
 72
     2
 73
     0
 90
        0
 40
-0.6
 41
-30.0
 62
     5
 63
     7
 74
     1
 91
        0
 64
     7
 65
   257
 75
     1
175
     1
 42
1.0
 92
        8
 66
     8
 43
1.0
 76
     1
 77
     6
 78
     2
 67
     7
 79
     5
170
     0
171
     0
290
     0
174
     0
 93
       13
 44
0.0
173
     0
291
     0
 45
0.0
1001
ACAD
1000
AcDbSavedByObjectVersion
1070
     0
1000
AcDbSavedByObjectVersion
1070
     0
1000
AcDbSavedByObjectVersion
1070
     0
1000
AcDbSavedByObjectVersion
1070
     0
1000
AcDbSavedByObjectVersion
1070
     0
1000
AcDbSavedByObjectVersion
1070
     0
1000
AcDbSavedByObjectVersion
1070
     0
1000
AcDbSavedByObjectVersion
1070
     0
1000
AcDbSavedByObjectVersion
1070
     0
  0
VISUALSTYLE
  5
188F
102
{ACAD_REACTORS
330
1882
102
}
330
1882
100
AcDbVisualStyle
  2
Thicken
 70
    13
 71
     2
 72
     2
 73
     0
 90
        0
 40
-0.6
 41
-30.0
 62
     5
 63
     7
 74
     1
 91
        4
 64
     7
 65
   257
 75
     1
175
     1
 42
1.0
 92
       12
 66
     7
 43
1.0
 76
     1
 77
     6
 78
     2
 67
     7
 79
     5
170
     0
171
     0
290
     0
174
     0
 93
        1
 44
0.0
173
     0
291
     1
 45
0.0
1001
ACAD
1000
AcDbSavedByObjectVersion
1070
     0
1000
AcDbSavedByObjectVersion
1070
     0
1000
AcDbSavedByObjectVersion
1070
     0
1000
AcDbSavedByObjectVersion
1070
     0
1000
AcDbSavedByObjectVersion
1070
     0
1000
AcDbSavedByObjectVersion
1070
     0
1000
AcDbSavedByObjectVersion
1070
     0
1000
AcDbSavedByObjectVersion
1070
     0
1000
AcDbSavedByObjectVersion
1070
     0
  0
DICTIONARYVAR
  5
1923
102
{ACAD_REACTORS
330
B87
102
}
330
B87
100
DictionaryVariables
280
     0
  1
1:1
  0
DICTIONARYVAR
  5
1922
102
{ACAD_REACTORS
330
B87
102
}
330
B87
100
DictionaryVariables
280
     0
  1
STANDARD
  0
DICTIONARYVAR
  5
1714
102
{ACAD_REACTORS
330
B87
102
}
330
B87
100
DictionaryVariables
280
     0
  1
STANDARD
  0
DICTIONARYVAR
  5
B88
102
{ACAD_REACTORS
330
B87
102
}
330
B87
100
DictionaryVariables
280
     0
  1
1
  0
DICTIONARYVAR
  5
1715
102
{ACAD_REACTORS
330
B87
102
}
330
B87
100
DictionaryVariables
280
     0
  1
1
  0
DICTIONARYVAR
  5
1716
102
{ACAD_REACTORS
330
B87
102
}
330
B87
100
DictionaryVariables
280
     0
  1

  0
DICTIONARYVAR
  5
1924
102
{ACAD_REACTORS
330
B87
102
}
330
B87
100
DictionaryVariables
280
     0
  1
127
  0
DICTIONARY
  5
16BC
102
{ACAD_REACTORS
330
16B0
102
}
330
16B0
100
AcDbDictionary
281
     1
  0
XRECORD
  5
16DC
102
{ACAD_REACTORS
330
16B0
102
}
330
16B0
100
AcDbXrecord
280
     1
 90
-1023410169
  0
DICTIONARY
  5
15F0
102
{ACAD_REACTORS
330
15EF
102
}
330
15EF
100
AcDbDictionary
281
     1
  3
DWGSETTINGS
350
28BE
  3
TRANSSETTINGS
350
28BF
  0
ACAMGFILTERDAT
  5
1723
102
{ACAD_REACTORS
330
171E
102
}
330
171E
100
AcAmgFilterDat
 70
    15
  1
DIMENSION,AMDT_*_DIM
  2
*
  3
*
  4
*
  5
*
290
     1
1001
ACAD
1000
AcRTDxfName
1000
ACAMGFILTERDAT
  0
ACAMGFILTERDAT
  5
1722
102
{ACAD_REACTORS
330
171E
102
}
330
171E
100
AcAmgFilterDat
 70
    15
  1
*
  2
AM_FEA-AM_*
  3
*
  4
*
  5
*
290
     1
1001
ACAD
1000
AcRTDxfName
1000
ACAMGFILTERDAT
  0
ACAMGFILTERDAT
  5
171F
102
{ACAD_REACTORS
330
171E
102
}
330
171E
100
AcAmgFilterDat
 70
    15
  1
HATCH
  2
*
  3
*
  4
*
  5
*
290
     1
1001
ACAD
1000
AcRTDxfName
1000
ACAMGFILTERDAT
  0
ACAMGFILTERDAT
  5
1720
102
{ACAD_REACTORS
330
171E
102
}
330
171E
100
AcAmgFilterDat
 70
    15
  1
LINE
  2
8,8N,*-8,*-8N,AM_8,AM_8N,*-AM_8,*-AM_8N
  3
*
  4
*
  5
INSERT,STDPART2D
290
     1
1001
ACAD
1000
AcRTDxfName
1000
ACAMGFILTERDAT
  0
ACAMGFILTERDAT
  5
1724
102
{ACAD_REACTORS
330
171E
102
}
330
171E
100
AcAmgFilterDat
 70
    15
  1
ARC
  2
AM_5
  3
*
  4
2
  5
INSERT
290
     0
1001
ACAD
1000
AcRTDxfName
1000
ACAMGFILTERDAT
  0
ACAMGFILTERDAT
  5
1721
102
{ACAD_REACTORS
330
171E
102
}
330
171E
100
AcAmgFilterDat
 70
    15
  1
ACMFCFRAME,ACMDATUMTARGET,ACMDATUMID,ACMWELDSYM,ACMSURFSYM,ACMFEATID,ACMPARTREF,ACMBALLOON,AMDTEDGESYM,AMGSCREWCALCTABLE
  2
*
  3
*
  4
*
  5
*
290
     1
1001
ACAD
1000
AcRTDxfName
1000
ACAMGFILTERDAT
  0
LAYER_INDEX
  5
1707
102
{ACAD_REACTORS
330
1706
102
}
330
1706
100
AcDbIndex
 40
2456703.652125394
100
AcDbLayerIndex
  8
0
360
1708
 90
        0
  8
OUTLINE
360
1709
 90
      163
  8
SIZE
360
170A
 90
        7
  8
BASIS
360
170B
 90
        1
  8
DETAIL
360
170C
 90
      157
  8
ARRANGE
360
170D
 90
        3
  8
DEFPOINTS
360
170E
 90
        0
  8
ETC
360
170F
 90
        1
  8
FIX
360
1710
 90
        0
  8
NOTE
360
1711
 90
       12
  8
SERVICESPACE
360
1712
 90
        0
  8
SYMBOLLINE
360
1713
 90
        0
  0
DICTIONARY
  5
1873
330
1872
100
AcDbDictionary
280
     1
281
     1
  3
ACAD_XREC_ROUNDTRIP
360
1931
  3
BUMPTILE
360
1875
  3
DIFFUSETILE
360
1874
  3
OPACITYTILE
360
1878
  3
REFLECTIONTILE
360
1877
  3
REFRACTIONTILE
360
1879
  3
SPECULARTILE
360
1876
  0
DICTIONARY
  5
186B
330
186A
100
AcDbDictionary
280
     1
281
     1
  3
ACAD_XREC_ROUNDTRIP
360
1930
  3
BUMPTILE
360
186D
  3
DIFFUSETILE
360
186C
  3
OPACITYTILE
360
1870
  3
REFLECTIONTILE
360
186F
  3
REFRACTIONTILE
360
1871
  3
SPECULARTILE
360
186E
  0
DICTIONARY
  5
187B
330
187A
100
AcDbDictionary
280
     1
281
     1
  3
ACAD_XREC_ROUNDTRIP
360
1932
  3
BUMPTILE
360
187D
  3
DIFFUSETILE
360
187C
  3
OPACITYTILE
360
1880
  3
REFLECTIONTILE
360
187F
  3
REFRACTIONTILE
360
1881
  3
SPECULARTILE
360
187E
  0
DICTIONARY
  5
1925
330
15EB
100
AcDbDictionary
280
     1
281
     1
  3
ACAD_ROUNDTRIP_2008_TABLESTYLE_CELLSTYLEMAP
360
2994
  3
ACAD_XREC_ROUNDTRIP
360
299A
  0
IDBUFFER
  5
1708
330
0
100
AcDbIdBuffer
  0
IDBUFFER
  5
1709
330
0
100
AcDbIdBuffer
330
953
330
954
330
955
330
956
330
957
330
958
330
27D4
330
27D5
330
27D6
330
27D7
330
27D8
330
27D9
330
27DA
330
27DB
330
27DC
330
27DD
330
27DE
330
27DF
330
27E0
330
27E1
330
27E2
330
27E3
330
27E4
330
27E5
330
27E6
330
27E7
330
27E8
330
27E9
330
27EA
330
27EB
330
27EC
330
27ED
330
27EE
330
27EF
330
27F0
330
27F1
330
27F2
330
27F3
330
27F4
330
27F5
330
27F6
330
27F7
330
27F8
330
27F9
330
27FA
330
27FB
330
27FC
330
27FD
330
27FE
330
27FF
330
2800
330
2801
330
2802
330
2803
330
2804
330
2805
330
2806
330
2807
330
2808
330
2809
330
280A
330
280B
330
280C
330
280D
330
280E
330
280F
330
2810
330
2811
330
2812
330
2813
330
2814
330
2815
330
2816
330
2817
330
2818
330
2819
330
281A
330
281B
330
281C
330
281D
330
281E
330
281F
330
2820
330
2821
330
2822
330
2823
330
2824
330
2825
330
2826
330
2827
330
2828
330
2829
330
282A
330
282B
330
282C
330
282D
330
282E
330
282F
330
2830
330
2831
330
2832
330
2833
330
2834
330
2835
330
2836
330
2837
330
2838
330
2839
330
283A
330
283B
330
283C
330
283D
330
283E
330
283F
330
2840
330
2841
330
2842
330
2843
330
2844
330
2845
330
2846
330
2847
330
2848
330
2849
330
284A
330
284B
330
284C
330
284D
330
284E
330
284F
330
2850
330
2851
330
2852
330
2853
330
2854
330
2855
330
2856
330
2857
330
2858
330
2859
330
285A
330
285B
330
285C
330
285D
330
285E
330
285F
330
2860
330
2861
330
2862
330
2863
330
2864
330
2865
330
2866
330
2867
330
2868
330
2869
330
286A
330
286B
330
286C
330
286D
330
286E
330
286F
330
2870
  0
IDBUFFER
  5
170A
330
0
100
AcDbIdBuffer
330
2875
330
2876
330
2877
330
2878
330
2881
330
2882
330
2883
  0
IDBUFFER
  5
170B
330
0
100
AcDbIdBuffer
330
2871
  0
IDBUFFER
  5
170C
330
0
100
AcDbIdBuffer
330
2737
330
2738
330
2739
330
273A
330
273B
330
273C
330
273D
330
273E
330
273F
330
2740
330
2741
330
2742
330
2743
330
2744
330
2745
330
2746
330
2747
330
2748
330
2749
330
274A
330
274B
330
274C
330
274D
330
274E
330
274F
330
2750
330
2751
330
2752
330
2753
330
2754
330
2755
330
2756
330
2757
330
2758
330
2759
330
275A
330
275B
330
275C
330
275D
330
275E
330
275F
330
2760
330
2761
330
2762
330
2763
330
2764
330
2765
330
2766
330
2767
330
2768
330
2769
330
276A
330
276B
330
276C
330
276D
330
276E
330
276F
330
2770
330
2771
330
2772
330
2773
330
2774
330
2775
330
2776
330
2777
330
2778
330
2779
330
277A
330
277B
330
277C
330
277D
330
277E
330
277F
330
2780
330
2781
330
2782
330
2783
330
2784
330
2785
330
2786
330
2787
330
2788
330
2789
330
278A
330
278B
330
278C
330
278D
330
278E
330
278F
330
2790
330
2791
330
2792
330
2793
330
2794
330
2795
330
2796
330
2797
330
2798
330
2799
330
279A
330
279B
330
279C
330
279D
330
279E
330
279F
330
27A0
330
27A1
330
27A2
330
27A3
330
27A4
330
27A5
330
27A6
330
27A7
330
27A8
330
27A9
330
27AA
330
27AB
330
27AC
330
27AD
330
27AE
330
27AF
330
27B0
330
27B1
330
27B2
330
27B3
330
27B4
330
27B5
330
27B6
330
27B7
330
27B8
330
27B9
330
27BA
330
27BB
330
27BC
330
27BD
330
27BE
330
27BF
330
27C0
330
27C1
330
27C2
330
27C3
330
27C4
330
27C5
330
27C6
330
27C7
330
27C8
330
27C9
330
27CA
330
27CB
330
27CC
330
27CD
330
27CE
330
27CF
330
27D0
330
27D1
330
27D2
330
27D3
  0
IDBUFFER
  5
170D
330
0
100
AcDbIdBuffer
330
2872
330
2873
330
2874
  0
IDBUFFER
  5
170E
330
0
100
AcDbIdBuffer
  0
IDBUFFER
  5
170F
330
0
100
AcDbIdBuffer
330
2888
  0
IDBUFFER
  5
1710
330
0
100
AcDbIdBuffer
  0
IDBUFFER
  5
1711
330
0
100
AcDbIdBuffer
330
2879
330
287A
330
287B
330
287C
330
287D
330
287E
330
287F
330
2880
330
2884
330
2885
330
2886
330
2887
  0
IDBUFFER
  5
1712
330
0
100
AcDbIdBuffer
  0
IDBUFFER
  5
1713
330
0
100
AcDbIdBuffer
  0
XRECORD
  5
1931
102
{ACAD_REACTORS
330
1873
102
}
330
1873
100
AcDbXrecord
280
     1
102
MATERIAL
148
0.0
149
0.0
149
0.0
 93
        0
 94
      127
282
     0
 72
     0
 77
     0
171
     0
175
     0
179
     0
273
     0
  0
XRECORD
  5
1875
102
{ACAD_REACTORS
330
1873
102
}
330
1873
100
AcDbXrecord
280
     1
270
     1
271
     1
  0
XRECORD
  5
1874
102
{ACAD_REACTORS
330
1873
102
}
330
1873
100
AcDbXrecord
280
     1
270
     1
271
     1
  0
XRECORD
  5
1878
102
{ACAD_REACTORS
330
1873
102
}
330
1873
100
AcDbXrecord
280
     1
270
     1
271
     1
  0
XRECORD
  5
1877
102
{ACAD_REACTORS
330
1873
102
}
330
1873
100
AcDbXrecord
280
     1
270
     1
271
     1
  0
XRECORD
  5
1879
102
{ACAD_REACTORS
330
1873
102
}
330
1873
100
AcDbXrecord
280
     1
270
     1
271
     1
  0
XRECORD
  5
1876
102
{ACAD_REACTORS
330
1873
102
}
330
1873
100
AcDbXrecord
280
     1
270
     1
271
     1
  0
XRECORD
  5
1930
102
{ACAD_REACTORS
330
186B
102
}
330
186B
100
AcDbXrecord
280
     1
102
MATERIAL
148
0.0
149
0.0
149
0.0
 93
        0
 94
      127
282
     0
 72
     0
 77
     0
171
     0
175
     0
179
     0
273
     0
  0
XRECORD
  5
186D
102
{ACAD_REACTORS
330
186B
102
}
330
186B
100
AcDbXrecord
280
     1
270
     1
271
     1
  0
XRECORD
  5
186C
102
{ACAD_REACTORS
330
186B
102
}
330
186B
100
AcDbXrecord
280
     1
270
     1
271
     1
  0
XRECORD
  5
1870
102
{ACAD_REACTORS
330
186B
102
}
330
186B
100
AcDbXrecord
280
     1
270
     1
271
     1
  0
XRECORD
  5
186F
102
{ACAD_REACTORS
330
186B
102
}
330
186B
100
AcDbXrecord
280
     1
270
     1
271
     1
  0
XRECORD
  5
1871
102
{ACAD_REACTORS
330
186B
102
}
330
186B
100
AcDbXrecord
280
     1
270
     1
271
     1
  0
XRECORD
  5
186E
102
{ACAD_REACTORS
330
186B
102
}
330
186B
100
AcDbXrecord
280
     1
270
     1
271
     1
  0
XRECORD
  5
1932
102
{ACAD_REACTORS
330
187B
102
}
330
187B
100
AcDbXrecord
280
     1
102
MATERIAL
148
0.0
149
0.0
149
0.0
 93
        0
 94
      127
282
     0
 72
     0
 77
     0
171
     0
175
     0
179
     0
273
     0
  0
XRECORD
  5
187D
102
{ACAD_REACTORS
330
187B
102
}
330
187B
100
AcDbXrecord
280
     1
270
     1
271
     1
  0
XRECORD
  5
187C
102
{ACAD_REACTORS
330
187B
102
}
330
187B
100
AcDbXrecord
280
     1
270
     1
271
     1
  0
XRECORD
  5
1880
102
{ACAD_REACTORS
330
187B
102
}
330
187B
100
AcDbXrecord
280
     1
270
     1
271
     1
  0
XRECORD
  5
187F
102
{ACAD_REACTORS
330
187B
102
}
330
187B
100
AcDbXrecord
280
     1
270
     1
271
     1
  0
XRECORD
  5
1881
102
{ACAD_REACTORS
330
187B
102
}
330
187B
100
AcDbXrecord
280
     1
270
     1
271
     1
  0
XRECORD
  5
187E
102
{ACAD_REACTORS
330
187B
102
}
330
187B
100
AcDbXrecord
280
     1
270
     1
271
     1
  0
CELLSTYLEMAP
  5
2994
102
{ACAD_REACTORS
330
1925
102
}
330
1925
100
AcDbCellStyleMap
 90
        3
300
CELLSTYLE
  1
TABLEFORMAT_BEGIN
 90
        5
170
     1
 91
        0
 92
    32768
 62
   257
 93
        1
300
CONTENTFORMAT
  1
CONTENTFORMAT_BEGIN
 90
        0
 91
        0
 92
        4
 93
        0
300

 40
0.0
140
1.0
 94
        5
 62
     0
340
852
144
0.25
309
CONTENTFORMAT_END
171
     1
301
MARGIN
  1
CELLMARGIN_BEGIN
 40
0.06
 40
0.06
 40
0.06
 40
0.06
 40
0.18
 40
0.18
309
CELLMARGIN_END
 94
        6
 95
        1
302
GRIDFORMAT
  1
GRIDFORMAT_BEGIN
 90
        0
 91
        1
 62
     0
 92
       -2
340
0
 93
        0
 40
0.045
309
GRIDFORMAT_END
 95
        2
302
GRIDFORMAT
  1
GRIDFORMAT_BEGIN
 90
        0
 91
        1
 62
     0
 92
       -2
340
0
 93
        0
 40
0.045
309
GRIDFORMAT_END
 95
        4
302
GRIDFORMAT
  1
GRIDFORMAT_BEGIN
 90
        0
 91
        1
 62
     0
 92
       -2
340
0
 93
        0
 40
0.045
309
GRIDFORMAT_END
 95
        8
302
GRIDFORMAT
  1
GRIDFORMAT_BEGIN
 90
        0
 91
        1
 62
     0
 92
       -2
340
0
 93
        0
 40
0.045
309
GRIDFORMAT_END
 95
       16
302
GRIDFORMAT
  1
GRIDFORMAT_BEGIN
 90
        0
 91
        1
 62
     0
 92
       -2
340
0
 93
        0
 40
0.045
309
GRIDFORMAT_END
 95
       32
302
GRIDFORMAT
  1
GRIDFORMAT_BEGIN
 90
        0
 91
        1
 62
     0
 92
       -2
340
0
 93
        0
 40
0.045
309
GRIDFORMAT_END
309
TABLEFORMAT_END
  1
CELLSTYLE_BEGIN
 90
        1
 91
        1
300
_TITLE
309
CELLSTYLE_END
300
CELLSTYLE
  1
TABLEFORMAT_BEGIN
 90
        5
170
     1
 91
        0
 92
        0
 62
   257
 93
        1
300
CONTENTFORMAT
  1
CONTENTFORMAT_BEGIN
 90
        0
 91
        0
 92
        4
 93
        0
300

 40
0.0
140
1.0
 94
        5
 62
     0
340
852
144
0.18
309
CONTENTFORMAT_END
171
     1
301
MARGIN
  1
CELLMARGIN_BEGIN
 40
0.06
 40
0.06
 40
0.06
 40
0.06
 40
0.18
 40
0.18
309
CELLMARGIN_END
 94
        6
 95
        1
302
GRIDFORMAT
  1
GRIDFORMAT_BEGIN
 90
        0
 91
        1
 62
     0
 92
       -2
340
0
 93
        0
 40
0.045
309
GRIDFORMAT_END
 95
        2
302
GRIDFORMAT
  1
GRIDFORMAT_BEGIN
 90
        0
 91
        1
 62
     0
 92
       -2
340
0
 93
        0
 40
0.045
309
GRIDFORMAT_END
 95
        4
302
GRIDFORMAT
  1
GRIDFORMAT_BEGIN
 90
        0
 91
        1
 62
     0
 92
       -2
340
0
 93
        0
 40
0.045
309
GRIDFORMAT_END
 95
        8
302
GRIDFORMAT
  1
GRIDFORMAT_BEGIN
 90
        0
 91
        1
 62
     0
 92
       -2
340
0
 93
        0
 40
0.045
309
GRIDFORMAT_END
 95
       16
302
GRIDFORMAT
  1
GRIDFORMAT_BEGIN
 90
        0
 91
        1
 62
     0
 92
       -2
340
0
 93
        0
 40
0.045
309
GRIDFORMAT_END
 95
       32
302
GRIDFORMAT
  1
GRIDFORMAT_BEGIN
 90
        0
 91
        1
 62
     0
 92
       -2
340
0
 93
        0
 40
0.045
309
GRIDFORMAT_END
309
TABLEFORMAT_END
  1
CELLSTYLE_BEGIN
 90
        2
 91
        1
300
_HEADER
309
CELLSTYLE_END
300
CELLSTYLE
  1
TABLEFORMAT_BEGIN
 90
        5
170
     1
 91
        0
 92
        0
 62
   257
 93
        1
300
CONTENTFORMAT
  1
CONTENTFORMAT_BEGIN
 90
        0
 91
        0
 92
        4
 93
        0
300

 40
0.0
140
1.0
 94
        2
 62
     0
340
852
144
0.18
309
CONTENTFORMAT_END
171
     1
301
MARGIN
  1
CELLMARGIN_BEGIN
 40
0.06
 40
0.06
 40
0.06
 40
0.06
 40
0.18
 40
0.18
309
CELLMARGIN_END
 94
        6
 95
        1
302
GRIDFORMAT
  1
GRIDFORMAT_BEGIN
 90
        0
 91
        1
 62
     0
 92
       -2
340
0
 93
        0
 40
0.045
309
GRIDFORMAT_END
 95
        2
302
GRIDFORMAT
  1
GRIDFORMAT_BEGIN
 90
        0
 91
        1
 62
     0
 92
       -2
340
0
 93
        0
 40
0.045
309
GRIDFORMAT_END
 95
        4
302
GRIDFORMAT
  1
GRIDFORMAT_BEGIN
 90
        0
 91
        1
 62
     0
 92
       -2
340
0
 93
        0
 40
0.045
309
GRIDFORMAT_END
 95
        8
302
GRIDFORMAT
  1
GRIDFORMAT_BEGIN
 90
        0
 91
        1
 62
     0
 92
       -2
340
0
 93
        0
 40
0.045
309
GRIDFORMAT_END
 95
       16
302
GRIDFORMAT
  1
GRIDFORMAT_BEGIN
 90
        0
 91
        1
 62
     0
 92
       -2
340
0
 93
        0
 40
0.045
309
GRIDFORMAT_END
 95
       32
302
GRIDFORMAT
  1
GRIDFORMAT_BEGIN
 90
        0
 91
        1
 62
     0
 92
       -2
340
0
 93
        0
 40
0.045
309
GRIDFORMAT_END
309
TABLEFORMAT_END
  1
CELLSTYLE_BEGIN
 90
        3
 91
        2
300
_DATA
309
CELLSTYLE_END
  0
XRECORD
  5
299A
102
{ACAD_REACTORS
330
1925
102
}
330
1925
100
AcDbXrecord
280
     1
102
ACAD_ROUNDTRIP_PRE2007_TABLESTYLE
 90
        4
 91
        0
  1

 92
        4
 93
        0
  2

 94
        4
 95
        0
  3

  0
ENDSEC
  0
EOF
