  0
SECTION
  2
HEADER
  9
$ACADVER
  1
AC1015
  9
$ACADMAINTVER
 70
    20
  9
$DWGCODEPAGE
  3
ANSI_932
  9
$INSBASE
 10
0.0
 20
0.0
 30
0.0
  9
$EXTMIN
 10
-425.5522350261236
 20
-338.9845893060591
 30
-0.00000001
  9
$EXTMAX
 10
330.1557781799045
 20
543.7220600152825
 30
0.00000001
  9
$LIMMIN
 10
0.0
 20
0.0
  9
$LIMMAX
 10
17.0
 20
11.0
  9
$ORTHOMODE
 70
     1
  9
$REGENMODE
 70
     1
  9
$FILLMODE
 70
     1
  9
$QTEXTMODE
 70
     0
  9
$MIRRTEXT
 70
     1
  9
$LTSCALE
 40
1.0
  9
$ATTMODE
 70
     1
  9
$TEXTSIZE
 40
0.12
  9
$TRACEWID
 40
0.05
  9
$TEXTSTYLE
  7
ADESK1
  9
$CLAYER
  8
0
  9
$CELTYPE
  6
BYLAYER
  9
$CECOLOR
 62
   256
  9
$CELTSCALE
 40
1.0
  9
$DISPSILH
 70
     0
  9
$DIMSCALE
 40
5.0
  9
$DIMASZ
 40
2.0
  9
$DIMEXO
 40
1.0
  9
$DIMDLI
 40
0.5
  9
$DIMRND
 40
0.5
  9
$DIMDLE
 40
0.0
  9
$DIMEXE
 40
1.0
  9
$DIMTP
 40
0.1
  9
$DIMTM
 40
0.1
  9
$DIMTXT
 40
2.0
  9
$DIMCEN
 40
0.0
  9
$DIMTSZ
 40
0.0
  9
$DIMTOL
 70
     0
  9
$DIMLIM
 70
     0
  9
$DIMTIH
 70
     0
  9
$DIMTOH
 70
     0
  9
$DIMSE1
 70
     0
  9
$DIMSE2
 70
     0
  9
$DIMTAD
 70
     1
  9
$DIMZIN
 70
     7
  9
$DIMBLK
  1
Open30
  9
$DIMASO
 70
     1
  9
$DIMSHO
 70
     1
  9
$DIMPOST
  1

  9
$DIMAPOST
  1
mm
  9
$DIMALT
 70
     0
  9
$DIMALTD
 70
     2
  9
$DIMALTF
 40
25.4
  9
$DIMLFAC
 40
1.0
  9
$DIMTOFL
 70
     0
  9
$DIMTVP
 40
0.0
  9
$DIMTIX
 70
     0
  9
$DIMSOXD
 70
     0
  9
$DIMSAH
 70
     0
  9
$DIMBLK1
  1

  9
$DIMBLK2
  1

  9
$DIMSTYLE
  2
AM_ANSI
  9
$DIMCLRD
 70
   256
  9
$DIMCLRE
 70
   256
  9
$DIMCLRT
 70
     2
  9
$DIMTFAC
 40
0.71
  9
$DIMGAP
 40
1.0
  9
$DIMJUST
 70
     0
  9
$DIMSD1
 70
     0
  9
$DIMSD2
 70
     0
  9
$DIMTOLJ
 70
     1
  9
$DIMTZIN
 70
     7
  9
$DIMALTZ
 70
     0
  9
$DIMALTTZ
 70
     0
  9
$DIMUPT
 70
     0
  9
$DIMDEC
 70
     1
  9
$DIMTDEC
 70
     1
  9
$DIMALTU
 70
     2
  9
$DIMALTTD
 70
     2
  9
$DIMTXSTY
  7
STANDARD
  9
$DIMAUNIT
 70
     0
  9
$DIMADEC
 70
     0
  9
$DIMALTRND
 40
0.0
  9
$DIMAZIN
 70
     2
  9
$DIMDSEP
 70
    46
  9
$DIMATFIT
 70
     3
  9
$DIMFRAC
 70
     0
  9
$DIMLDRBLK
  1
Open30
  9
$DIMLUNIT
 70
     2
  9
$DIMLWD
 70
    -1
  9
$DIMLWE
 70
    -1
  9
$DIMTMOVE
 70
     0
  9
$LUNITS
 70
     2
  9
$LUPREC
 70
     4
  9
$SKETCHINC
 40
0.1
  9
$FILLETRAD
 40
0.125
  9
$AUNITS
 70
     0
  9
$AUPREC
 70
     0
  9
$MENU
  1
.
  9
$ELEVATION
 40
0.0
  9
$PELEVATION
 40
0.0
  9
$THICKNESS
 40
0.0
  9
$LIMCHECK
 70
     0
  9
$CHAMFERA
 40
0.125
  9
$CHAMFERB
 40
0.125
  9
$CHAMFERC
 40
1.0
  9
$CHAMFERD
 40
0.0
  9
$SKPOLY
 70
     0
  9
$TDCREATE
 40
2454755.562898033
  9
$TDUCREATE
 40
2454755.187898033
  9
$TDUPDATE
 40
2454986.534898299
  9
$TDUUPDATE
 40
2454986.159898299
  9
$TDINDWG
 40
0.3574830671
  9
$TDUSRTIMER
 40
0.3574810880
  9
$USRTIMER
 70
     1
  9
$ANGBASE
 50
0.0
  9
$ANGDIR
 70
     0
  9
$PDMODE
 70
     0
  9
$PDSIZE
 40
0.0
  9
$PLINEWID
 40
0.0
  9
$SPLFRAME
 70
     0
  9
$SPLINETYPE
 70
     6
  9
$SPLINESEGS
 70
     8
  9
$HANDSEED
  5
F01
  9
$SURFTAB1
 70
     6
  9
$SURFTAB2
 70
     6
  9
$SURFTYPE
 70
     6
  9
$SURFU
 70
     6
  9
$SURFV
 70
     6
  9
$UCSBASE
  2

  9
$UCSNAME
  2

  9
$UCSORG
 10
0.0
 20
0.0
 30
0.0
  9
$UCSXDIR
 10
1.0
 20
0.0
 30
0.0
  9
$UCSYDIR
 10
0.0
 20
1.0
 30
0.0
  9
$UCSORTHOREF
  2

  9
$UCSORTHOVIEW
 70
     0
  9
$UCSORGTOP
 10
0.0
 20
0.0
 30
0.0
  9
$UCSORGBOTTOM
 10
0.0
 20
0.0
 30
0.0
  9
$UCSORGLEFT
 10
0.0
 20
0.0
 30
0.0
  9
$UCSORGRIGHT
 10
0.0
 20
0.0
 30
0.0
  9
$UCSORGFRONT
 10
0.0
 20
0.0
 30
0.0
  9
$UCSORGBACK
 10
0.0
 20
0.0
 30
0.0
  9
$PUCSBASE
  2

  9
$PUCSNAME
  2

  9
$PUCSORG
 10
0.0
 20
0.0
 30
0.0
  9
$PUCSXDIR
 10
1.0
 20
0.0
 30
0.0
  9
$PUCSYDIR
 10
0.0
 20
1.0
 30
0.0
  9
$PUCSORTHOREF
  2

  9
$PUCSORTHOVIEW
 70
     0
  9
$PUCSORGTOP
 10
0.0
 20
0.0
 30
0.0
  9
$PUCSORGBOTTOM
 10
0.0
 20
0.0
 30
0.0
  9
$PUCSORGLEFT
 10
0.0
 20
0.0
 30
0.0
  9
$PUCSORGRIGHT
 10
0.0
 20
0.0
 30
0.0
  9
$PUCSORGFRONT
 10
0.0
 20
0.0
 30
0.0
  9
$PUCSORGBACK
 10
0.0
 20
0.0
 30
0.0
  9
$USERI1
 70
     0
  9
$USERI2
 70
     0
  9
$USERI3
 70
     0
  9
$USERI4
 70
     0
  9
$USERI5
 70
     0
  9
$USERR1
 40
0.0
  9
$USERR2
 40
0.0
  9
$USERR3
 40
0.0
  9
$USERR4
 40
0.0
  9
$USERR5
 40
0.0
  9
$WORLDVIEW
 70
     1
  9
$SHADEDGE
 70
     3
  9
$SHADEDIF
 70
    70
  9
$TILEMODE
 70
     1
  9
$MAXACTVP
 70
    48
  9
$PINSBASE
 10
0.0
 20
0.0
 30
0.0
  9
$PLIMCHECK
 70
     0
  9
$PEXTMIN
 10
-957.8415609380034
 20
-847.5348569935048
 30
0.0
  9
$PEXTMAX
 10
1786.54527885334
 20
855.8220652013368
 30
0.0
  9
$PLIMMIN
 10
0.0
 20
0.0
  9
$PLIMMAX
 10
12.0
 20
9.0
  9
$UNITMODE
 70
     0
  9
$VISRETAIN
 70
     1
  9
$PLINEGEN
 70
     0
  9
$PSLTSCALE
 70
     1
  9
$TREEDEPTH
 70
  3020
  9
$CMLSTYLE
  2
STANDARD
  9
$CMLJUST
 70
     0
  9
$CMLSCALE
 40
1.0
  9
$PROXYGRAPHICS
 70
     1
  9
$MEASUREMENT
 70
     0
  9
$CELWEIGHT
370
    -1
  9
$ENDCAPS
280
     0
  9
$JOINSTYLE
280
     0
  9
$LWDISPLAY
290
     0
  9
$INSUNITS
 70
     1
  9
$HYPERLINKBASE
  1

  9
$STYLESHEET
  1

  9
$XEDIT
290
     1
  9
$CEPSNTYPE
380
     0
  9
$PSTYLEMODE
290
     1
  9
$FINGERPRINTGUID
  2
{9023D856-DD8F-42ED-B63E-006052B24A81}
  9
$VERSIONGUID
  2
{5D86951C-9635-4CD2-92AB-DC656C0DD547}
  9
$EXTNAMES
290
     1
  9
$PSVPSCALE
 40
0.0
  9
$OLESTARTUP
290
     0
  0
ENDSEC
  0
SECTION
  2
CLASSES
  0
CLASS
  1
ACMESTATEMGR
  2
AcMeStateMgr
  3
AcMeServices
 90
    33792
280
     0
281
     0
  0
CLASS
  1
ACMESCOPE
  2
AcMeScope
  3
AcMeServices
 90
    33792
280
     0
281
     0
  0
CLASS
  1
ACMECOMMANDHISTORY
  2
AcMeCommandHistory
  3
AcMeServices
 90
    33792
280
     0
281
     0
  0
CLASS
  1
ACRFINSADJUSTERMGR
  2
AcRfInsAdjusterMgr
  3
AcMeServices
 90
    33792
280
     0
281
     0
  0
CLASS
  1
ACMEDRAWINGMAN
  2
AcMeDrawingMan
  3
AcMeServices
 90
    33792
280
     0
281
     0
  0
CLASS
  1
AMATTR
  2
AcMeAttribute
  3
AcMeServices
 90
    33792
280
     0
281
     0
  0
CLASS
  1
ACMEBOMCOLUMN
  2
AcMeBOMColumn
  3
AcMeServices
 90
    33792
280
     0
281
     0
  0
CLASS
  1
ACMEBOMCONF
  2
AcMeBOMConf
  3
AcMeServices
 90
    33792
280
     0
281
     0
  0
CLASS
  1
ACMEBOMTABLE
  2
AcMeBOMTable
  3
AcMeServices
 90
    33792
280
     0
281
     0
  0
CLASS
  1
ACMEBOMENTRY
  2
AcMeBOMEntry
  3
AcMeServices
 90
    33792
280
     0
281
     0
  0
CLASS
  1
ACMEVIEW
  2
AcMeView
  3
AcMeServices
 90
    33792
280
     0
281
     0
  0
CLASS
  1
ACGREFMASTER
  2
AcGrefMaster
  3
AcAttribServices
 90
    33792
280
     0
281
     0
  0
CLASS
  1
AMIMASTER
  2
AmiMaster
  3
AmiServices
 90
    33792
280
     0
281
     0
  0
CLASS
  1
ACASGREFMASTER
  2
AcAsGrefMaster
  3
AutoSurfResolverServices
 90
    33792
280
     0
281
     0
  0
CLASS
  1
ADAPPL
  2
AcAdAppl
  3
DesignerServices
 90
    33792
280
     0
281
     0
  0
CLASS
  1
DEPMGR
  2
AcAdDepMgr
  3
DesignerServices
 90
    33792
280
     0
281
     0
  0
CLASS
  1
PARAMMGR
  2
AcAdParamMgr
  3
DesignerServices
 90
    33792
280
     0
281
     0
  0
CLASS
  1
PARAMSCOPE
  2
AcAdParamScope
  3
DesignerServices
 90
    33792
280
     0
281
     0
  0
CLASS
  1
ACIMSYSVARMAN
  2
AcImSysVarManager
  3
AcMeServices
 90
    33792
280
     0
281
     0
  0
CLASS
  1
ACIMINTSYSVAR
  2
AcImIntSysVar
  3
AcMeServices
 90
    33792
280
     0
281
     0
  0
CLASS
  1
ACIMREALSYSVAR
  2
AcImRealSysVar
  3
AcMeServices
 90
    33792
280
     0
281
     0
  0
CLASS
  1
ACIMSTRSYSVAR
  2
AcImStrSysVar
  3
AcMeServices
 90
    33792
280
     0
281
     0
  0
CLASS
  1
NAMEDAPPL
  2
AcAdNamedAppl
  3
DesignerServices
 90
    33792
280
     0
281
     0
  0
CLASS
  1
ADHNTMPLT
  2
AdHoleNoteTemplateMgr
  3
DesignerServices
 90
    33792
280
     0
281
     0
  0
CLASS
  1
AM_HNTEMPLATE_MGR_NAME
  2
AdHoleNoteTemplateMgrName
  3
DesignerServices
 90
    33792
280
     0
281
     0
  0
CLASS
  1
ACADGREFMODULE
  2
AcAdGrefModule
  3
AdGrefServices
 90
    33792
280
     0
281
     0
  0
CLASS
  1
AM_DRAWING_MGR
  2
AcDmDwgMgr
  3
AcMechDwgViewMgmt
 90
    33792
280
     0
281
     0
  0
CLASS
  1
AM_DWG_DOCUMENT
  2
AcDmDwgDocument
  3
AcMechDwgViewMgmt
 90
    33792
280
     0
281
     0
  0
CLASS
  1
AM_DWG_SHEET
  2
AcDmSheet
  3
AcMechDwgViewMgmt
 90
    33792
280
     0
281
     0
  0
CLASS
  1
AM_VIEWDIMPARMAP
  2
AcDmViewDimParMap
  3
AcMechDwgViewMgmt
 90
    33792
280
     0
281
     0
  0
CLASS
  1
AM_DWGMGR_NAME
  2
AcDmDwgMgrName
  3
AcMechDwgViewMgmt
 90
    33792
280
     0
281
     0
  0
CLASS
  1
ACAMPROJECT
  2
AcAmProject
  3
DesignerAssemblies
 90
    33792
280
     0
281
     0
  0
CLASS
  1
ACAMGRCOMPSET
  2
AcAmGrCompSet
  3
DesignerAssemblies
 90
    32768
280
     1
281
     0
  0
CLASS
  1
ACAMGRCOMPDEFSET
  2
AcAmGrCompDefSet
  3
DesignerAssemblies
 90
    33792
280
     0
281
     0
  0
CLASS
  1
ACAMGRCOMPDEF
  2
AcAmGrCompDef
  3
DesignerAssemblies
 90
    33792
280
     0
281
     0
  0
CLASS
  1
ACCMCONTEXT
  2
AcCmContext
  3
DesignerAssemblies
 90
    33792
280
     0
281
     0
  0
CLASS
  1
ACAMCOMPDEF
  2
AcAmCompDef
  3
DesignerAssemblies
 90
    33792
280
     0
281
     0
  0
CLASS
  1
ACAMCOMPDEFMGR
  2
AcAmCompDefMgr
  3
DesignerAssemblies
 90
    33792
280
     0
281
     0
  0
CLASS
  1
AMCONTEXTMGR
  2
AcAmContextMgr
  3
DesignerAssemblies
 90
    33792
280
     0
281
     0
  0
CLASS
  1
ACAMCONTEXTMODELER
  2
AcAmContextModeler
  3
DesignerAssemblies
 90
    33792
280
     0
281
     0
  0
CLASS
  1
ACDMVIEWGEOM
  2
AcDmViewGeometry
  3
AcMechDwgViewMgmt
 90
    33792
280
     0
281
     1
  0
CLASS
  1
CBROWSERAPPOBJECT
  2
CBrowserAppObject
  3
McadcomServices
 90
    33792
280
     0
281
     0
  0
CLASS
  1
IM_STATIC_MAN
  2
AcImStaticVarManager
  3
AcMeServices
 90
    33792
280
     0
281
     0
  0
CLASS
  1
ASAPP
  2
AcAsAppObject
  3
AutoSurfServices
 90
    33792
280
     0
281
     0
  0
CLASS
  1
ACIMDBLSTATICVAR
  2
AcImDblStaticVar
  3
AcMeServices
 90
    33792
280
     0
281
     0
  0
CLASS
  1
ACIMSTRSTATICVAR
  2
AcImStrStaticVar
  3
AcMeServices
 90
    33792
280
     0
281
     0
  0
CLASS
  1
ACIMINTSTATICVAR
  2
AcImIntStaticVar
  3
AcMeServices
 90
    33792
280
     0
281
     0
  0
CLASS
  1
CATALOGSTATE
  2
AcAmCatalogState
  3
DesignerAssemblies
 90
    33792
280
     0
281
     0
  0
CLASS
  1
DM_PLACEHOLDER
  2
AcDmSelsetPlaceholder
  3
AcMechDwgViewMgmt
 90
    33792
280
     0
281
     0
  0
CLASS
  1
DICTIONARYVAR
  2
AcDbDictionaryVar
  3
ObjectDBX Classes
 90
        0
280
     0
281
     0
  0
CLASS
  1
ACMSTANDARDJIS
  2
AcmStandardJIS
  3
"Amdt_StdImp|Product Description: AutoCAD Mechanical|Company: Autodesk, Inc."
 90
    33792
280
     0
281
     0
  0
CLASS
  1
ACMSTANDARDANSI
  2
AcmStandardANSI
  3
"Amdt_StdImp|Product Description: AutoCAD Mechanical|Company: Autodesk, Inc."
 90
    33792
280
     0
281
     0
  0
CLASS
  1
ACMSTANDARDBSI
  2
AcmStandardBSI
  3
"Amdt_StdImp|Product Description: AutoCAD Mechanical|Company: Autodesk, Inc."
 90
    33792
280
     0
281
     0
  0
CLASS
  1
ACMSTANDARDDIN
  2
AcmStandardDIN
  3
"Amdt_StdImp|Product Description: AutoCAD Mechanical|Company: Autodesk, Inc."
 90
    33792
280
     0
281
     0
  0
CLASS
  1
ACMSTANDARDISO
  2
AcmStandardISO
  3
"Amdt_StdImp|Product Description: AutoCAD Mechanical|Company: Autodesk, Inc."
 90
    33792
280
     0
281
     0
  0
CLASS
  1
LAYER_INDEX
  2
AcDbLayerIndex
  3
ObjectDBX Classes
 90
    32768
280
     0
281
     0
  0
CLASS
  1
IDBUFFER
  2
AcDbIdBuffer
  3
ObjectDBX Classes
 90
    32768
280
     0
281
     0
  0
CLASS
  1
ACDBDICTIONARYWDFLT
  2
AcDbDictionaryWithDefault
  3
ObjectDBX Classes
 90
        0
280
     0
281
     0
  0
CLASS
  1
ACDBPLACEHOLDER
  2
AcDbPlaceHolder
  3
ObjectDBX Classes
 90
        0
280
     0
281
     0
  0
CLASS
  1
LAYOUT
  2
AcDbLayout
  3
ObjectDBX Classes
 90
        0
280
     0
281
     0
  0
CLASS
  1
ACME_DOCUMENT
  2
AcMeDbDoc
  3
AcMeServices
 90
    33792
280
     0
281
     0
  0
CLASS
  1
AMGSETTINGSOBJ
  2
AmgSettingsObj
  3
"AcadM|Product Description: AutoCAD Mechanical|Company: Autodesk, Inc."
 90
    33792
280
     0
281
     0
  0
CLASS
  1
AMGOBJPROPCFG
  2
AmgObjPropCfg
  3
"AmgLay|Product Description: AutoCAD Mechanical|Company: Autodesk, Inc."
 90
    33793
280
     0
281
     0
  0
CLASS
  1
ACDBENTITYCACHE
  2
AcMeEntityCache
  3
AcMeServices
 90
    33792
280
     0
281
     0
  0
CLASS
  1
GSMANAGER
  2
AcMeGSManager
  3
AcMeServices
 90
    33792
280
     0
281
     0
  0
CLASS
  1
AMDTINTERNALREACTOR
  2
AmdtInternalReactor
  3
AcMeServices
 90
    33792
280
     0
281
     0
  0
CLASS
  1
ACME_DATABASE
  2
AcMeDbDatabase
  3
AcMeServices
 90
    33792
280
     0
281
     0
  0
CLASS
  1
ACGREFACADMASTER
  2
AcGrefacadMaster
  3
AcGrefServices
 90
    33792
280
     0
281
     0
  0
CLASS
  1
AMDTMENUSTATEMGR
  2
AmdtMenuStateMgr
  3
McadcomServices
 90
    33792
280
     0
281
     0
  0
CLASS
  1
AMDTMCOMMENUSTATE
  2
AmdtMcomMenuState
  3
McadcomServices
 90
    33792
280
     0
281
     0
  0
CLASS
  1
MAPIADMODULE
  2
MApiAdModule
  3
MApiAdServices
 90
    33792
280
     0
281
     0
  0
CLASS
  1
AMDTDMMENUSTATE
  2
AmdtDmMenuState
  3
AcMechDwgViewMgmt
 90
    33792
280
     0
281
     0
  0
CLASS
  1
AMDTADMENUSTATE
  2
AmdtAdMenuState
  3
DesignerServices
 90
    33792
280
     0
281
     0
  0
CLASS
  1
AMDTAMMENUSTATE
  2
AmdtAmMenuState
  3
DesignerAssemblies
 90
    33792
280
     0
281
     0
  0
CLASS
  1
ACMDATADICTIONARY
  2
AcmDataDictionary
  3
"AcmSymBB|Product Description: AutoCAD Mechanical|Company: Autodesk, Inc."
 90
     1024
280
     0
281
     0
  0
CLASS
  1
ACMDATAENTRYBLOCK
  2
AcmDataEntryBlock
  3
AcmSymBB|Product Description: AutoCAD Mechanical|Company: Autodesk, Inc.
 90
     1024
280
     0
281
     0
  0
CLASS
  1
AMDTBROWSERDBTAB
  2
AmdtBrowserDbTab
  3
McadcomServices
 90
    33792
280
     0
281
     0
  0
CLASS
  1
ACAMGFILTERDAT
  2
AcAmgFilterDat
  3
"AcadM|Product Description: AutoCAD Mechanical|Company: Autodesk, Inc."
 90
    33792
280
     0
281
     0
  0
CLASS
  1
MAPIAMMOUDLE
  2
MApiAmModule
  3
MApiAmServices
 90
    33792
280
     0
281
     0
  0
CLASS
  1
AMDTMAPISURFMOUDULE
  2
AmdtMApiSurfModule
  3
MApiSurfServices
 90
    33792
280
     0
281
     0
  0
CLASS
  1
ACMSURFSTANDARDANSI
  2
AcmSurfTextStdANSI
  3
"Amdt_StdImp|Product Description: AutoCAD Mechanical|Company: Autodesk, Inc."
 90
    33792
280
     0
281
     0
  0
CLASS
  1
ACMFCFSTANDARDANSI
  2
AcmFCFStdANSI
  3
"Amdt_StdImp|Product Description: AutoCAD Mechanical|Company: Autodesk, Inc."
 90
    33792
280
     0
281
     0
  0
CLASS
  1
ACMWELDSTANDARDANSI
  2
AcmWeldingStdANSI
  3
"Amdt_StdImp|Product Description: AutoCAD Mechanical|Company: Autodesk, Inc."
 90
    33792
280
     0
281
     0
  0
CLASS
  1
ACMIDSTANDARDANSI
  2
AcmIdStdANSI
  3
"Amdt_StdImp|Product Description: AutoCAD Mechanical|Company: Autodesk, Inc."
 90
    33792
280
     0
281
     0
  0
CLASS
  1
ACMDATUMSTANDARDANSI
  2
AcmDatumStdANSI
  3
"Amdt_StdImp|Product Description: AutoCAD Mechanical|Company: Autodesk, Inc."
 90
    33792
280
     0
281
     0
  0
CLASS
  1
ACMBOMSTANDARDANSI
  2
AcmBOMStdANSI
  3
"Amdt_StdImp|Product Description: AutoCAD Mechanical|Company: Autodesk, Inc."
 90
    33792
280
     0
281
     0
  0
CLASS
  1
ACAMGLAYSTD
  2
AcAmgLayStd
  3
"AmgLay|Product Description: AutoCAD Mechanical|Company: Autodesk, Inc."
 90
    33792
280
     0
281
     0
  0
CLASS
  1
ACAMGDIMSTD
  2
AcAmgDimStd
  3
"AmgDim|Product Description: AutoCAD Mechanical|Company: Autodesk, Inc."
 90
    33792
280
     0
281
     0
  0
CLASS
  1
ACAMGTITLESTD
  2
AcAmgTitleStd
  3
"AmgTitle|Product Description: AutoCAD Mechanical|Company: Autodesk, Inc."
 90
    36863
280
     0
281
     0
  0
CLASS
  1
ACMDETAILSTANDARDANSI
  2
AmdtDetailSymStdANSI
  3
"Amdt_StdImp|Product Description: AutoCAD Mechanical|Company: Autodesk, Inc."
 90
    33792
280
     0
281
     0
  0
CLASS
  1
ACMSECTIONSTANDARDANSI
  2
AmdtSectionSymStdANSI
  3
"Amdt_StdImp|Product Description: AutoCAD Mechanical|Company: Autodesk, Inc."
 90
    33792
280
     0
281
     0
  0
CLASS
  1
ACMCENTERLINESTANDARDANSI
  2
AmdtCenterLineStdANSI
  3
"Amdt_StdImp|Product Description: AutoCAD Mechanical|Company: Autodesk, Inc."
 90
    33792
280
     0
281
     0
  0
CLASS
  1
ACMTHREADLINESTANDARDANSI
  2
AmdtThreadLineStdANSI
  3
"Amdt_StdImp|Product Description: AutoCAD Mechanical|Company: Autodesk, Inc."
 90
    33792
280
     0
281
     0
  0
CLASS
  1
ACMSURFSTANDARDBSI
  2
AcmSurfTextStdBSI
  3
"Amdt_StdImp|Product Description: AutoCAD Mechanical|Company: Autodesk, Inc."
 90
    33792
280
     0
281
     0
  0
CLASS
  1
ACMFCFSTANDARDBSI
  2
AcmFCFStdBSI
  3
"Amdt_StdImp|Product Description: AutoCAD Mechanical|Company: Autodesk, Inc."
 90
    33792
280
     0
281
     0
  0
CLASS
  1
ACMWELDSTANDARDBSI
  2
AcmWeldingStdBSI
  3
"Amdt_StdImp|Product Description: AutoCAD Mechanical|Company: Autodesk, Inc."
 90
    33792
280
     0
281
     0
  0
CLASS
  1
ACMIDSTANDARDBSI
  2
AcmIdStdBSI
  3
"Amdt_StdImp|Product Description: AutoCAD Mechanical|Company: Autodesk, Inc."
 90
    33792
280
     0
281
     0
  0
CLASS
  1
ACMDATUMSTANDARDBSI
  2
AcmDatumStdBSI
  3
"Amdt_StdImp|Product Description: AutoCAD Mechanical|Company: Autodesk, Inc."
 90
    33792
280
     0
281
     0
  0
CLASS
  1
ACMBOMSTANDARDBSI
  2
AcmBOMStdBSI
  3
"Amdt_StdImp|Product Description: AutoCAD Mechanical|Company: Autodesk, Inc."
 90
    33792
280
     0
281
     0
  0
CLASS
  1
ACMDETAILSTANDARDBSI
  2
AmdtDetailSymStdBSI
  3
"Amdt_StdImp|Product Description: AutoCAD Mechanical|Company: Autodesk, Inc."
 90
    33792
280
     0
281
     0
  0
CLASS
  1
ACMSECTIONSTANDARDBSI
  2
AmdtSectionSymStdBSI
  3
"Amdt_StdImp|Product Description: AutoCAD Mechanical|Company: Autodesk, Inc."
 90
    33792
280
     0
281
     0
  0
CLASS
  1
ACMCENTERLINESTANDARDBSI
  2
AmdtCenterLineStdBSI
  3
"Amdt_StdImp|Product Description: AutoCAD Mechanical|Company: Autodesk, Inc."
 90
    33792
280
     0
281
     0
  0
CLASS
  1
ACMTHREADLINESTANDARDBSI
  2
AmdtThreadLineStdBSI
  3
"Amdt_StdImp|Product Description: AutoCAD Mechanical|Company: Autodesk, Inc."
 90
    33792
280
     0
281
     0
  0
CLASS
  1
AMDTEDGESTANDARDDIN
  2
AmdtEdgeStdDIN
  3
"Amdt_StdImp|Product Description: AutoCAD Mechanical|Company: Autodesk, Inc."
 90
    33792
280
     0
281
     0
  0
CLASS
  1
ACMSURFSTANDARDDIN
  2
AcmSurfTextStdDIN
  3
"Amdt_StdImp|Product Description: AutoCAD Mechanical|Company: Autodesk, Inc."
 90
    33792
280
     0
281
     0
  0
CLASS
  1
ACMFCFSTANDARDDIN
  2
AcmFCFStdDIN
  3
"Amdt_StdImp|Product Description: AutoCAD Mechanical|Company: Autodesk, Inc."
 90
    33792
280
     0
281
     0
  0
CLASS
  1
ACMWELDSTANDARDDIN
  2
AcmWeldingStdDIN
  3
"Amdt_StdImp|Product Description: AutoCAD Mechanical|Company: Autodesk, Inc."
 90
    33792
280
     0
281
     0
  0
CLASS
  1
ACMIDSTANDARDDIN
  2
AcmIdStdDIN
  3
"Amdt_StdImp|Product Description: AutoCAD Mechanical|Company: Autodesk, Inc."
 90
    33792
280
     0
281
     0
  0
CLASS
  1
ACMDATUMSTANDARDDIN
  2
AcmDatumStdDIN
  3
"Amdt_StdImp|Product Description: AutoCAD Mechanical|Company: Autodesk, Inc."
 90
    33792
280
     0
281
     0
  0
CLASS
  1
ACMBOMSTANDARDDIN
  2
AcmBOMStdDIN
  3
"Amdt_StdImp|Product Description: AutoCAD Mechanical|Company: Autodesk, Inc."
 90
    33792
280
     0
281
     0
  0
CLASS
  1
ACMDETAILSTANDARDDIN
  2
AmdtDetailSymStdDIN
  3
"Amdt_StdImp|Product Description: AutoCAD Mechanical|Company: Autodesk, Inc."
 90
    33792
280
     0
281
     0
  0
CLASS
  1
ACMSECTIONSTANDARDDIN
  2
AmdtSectionSymStdDIN
  3
"Amdt_StdImp|Product Description: AutoCAD Mechanical|Company: Autodesk, Inc."
 90
    33792
280
     0
281
     0
  0
CLASS
  1
ACMCENTERLINESTANDARDDIN
  2
AmdtCenterLineStdDIN
  3
"Amdt_StdImp|Product Description: AutoCAD Mechanical|Company: Autodesk, Inc."
 90
    33792
280
     0
281
     0
  0
CLASS
  1
ACMTHREADLINESTANDARDDIN
  2
AmdtThreadLineStdDIN
  3
"Amdt_StdImp|Product Description: AutoCAD Mechanical|Company: Autodesk, Inc."
 90
    33792
280
     0
281
     0
  0
CLASS
  1
ACMSURFSTANDARDISO
  2
AcmSurfTextStdISO
  3
"Amdt_StdImp|Product Description: AutoCAD Mechanical|Company: Autodesk, Inc."
 90
    33792
280
     0
281
     0
  0
CLASS
  1
ACMFCFSTANDARDISO
  2
AcmFCFStdISO
  3
"Amdt_StdImp|Product Description: AutoCAD Mechanical|Company: Autodesk, Inc."
 90
    33792
280
     0
281
     0
  0
CLASS
  1
ACMWELDSTANDARDISO
  2
AcmWeldingStdISO
  3
"Amdt_StdImp|Product Description: AutoCAD Mechanical|Company: Autodesk, Inc."
 90
    33792
280
     0
281
     0
  0
CLASS
  1
ACMIDSTANDARDISO
  2
AcmIdStdISO
  3
"Amdt_StdImp|Product Description: AutoCAD Mechanical|Company: Autodesk, Inc."
 90
    33792
280
     0
281
     0
  0
CLASS
  1
ACMDATUMSTANDARDISO
  2
AcmDatumStdISO
  3
"Amdt_StdImp|Product Description: AutoCAD Mechanical|Company: Autodesk, Inc."
 90
    33792
280
     0
281
     0
  0
CLASS
  1
ACMBOMSTANDARDISO
  2
AcmBOMStdISO
  3
"Amdt_StdImp|Product Description: AutoCAD Mechanical|Company: Autodesk, Inc."
 90
    33792
280
     0
281
     0
  0
CLASS
  1
AMDTEDGESTANDARDISO
  2
AmdtEdgeStdISO
  3
"Amdt_StdImp|Product Description: AutoCAD Mechanical|Company: Autodesk, Inc."
 90
    33792
280
     0
281
     0
  0
CLASS
  1
ACMDETAILSTANDARDISO
  2
AmdtDetailSymStdISO
  3
"Amdt_StdImp|Product Description: AutoCAD Mechanical|Company: Autodesk, Inc."
 90
    33792
280
     0
281
     0
  0
CLASS
  1
ACMSECTIONSTANDARDISO
  2
AmdtSectionSymStdISO
  3
"Amdt_StdImp|Product Description: AutoCAD Mechanical|Company: Autodesk, Inc."
 90
    33792
280
     0
281
     0
  0
CLASS
  1
ACMCENTERLINESTANDARDISO
  2
AmdtCenterLineStdISO
  3
"Amdt_StdImp|Product Description: AutoCAD Mechanical|Company: Autodesk, Inc."
 90
    33792
280
     0
281
     0
  0
CLASS
  1
ACMTHREADLINESTANDARDISO
  2
AmdtThreadLineStdISO
  3
"Amdt_StdImp|Product Description: AutoCAD Mechanical|Company: Autodesk, Inc."
 90
    33792
280
     0
281
     0
  0
CLASS
  1
ACMSURFSTANDARDJIS
  2
AcmSurfTextStdJIS
  3
"Amdt_StdImp|Product Description: AutoCAD Mechanical|Company: Autodesk, Inc."
 90
    33792
280
     0
281
     0
  0
CLASS
  1
ACMFCFSTANDARDJIS
  2
AcmFCFStdJIS
  3
"Amdt_StdImp|Product Description: AutoCAD Mechanical|Company: Autodesk, Inc."
 90
    33792
280
     0
281
     0
  0
CLASS
  1
ACMWELDSTANDARDJIS
  2
AcmWeldingStdJIS
  3
"Amdt_StdImp|Product Description: AutoCAD Mechanical|Company: Autodesk, Inc."
 90
    33792
280
     0
281
     0
  0
CLASS
  1
ACMIDSTANDARDJIS
  2
AcmIdStdJIS
  3
"Amdt_StdImp|Product Description: AutoCAD Mechanical|Company: Autodesk, Inc."
 90
    33792
280
     0
281
     0
  0
CLASS
  1
ACMDATUMSTANDARDJIS
  2
AcmDatumStdJIS
  3
"Amdt_StdImp|Product Description: AutoCAD Mechanical|Company: Autodesk, Inc."
 90
    33792
280
     0
281
     0
  0
CLASS
  1
ACMBOMSTANDARDJIS
  2
AcmBOMStdJIS
  3
"Amdt_StdImp|Product Description: AutoCAD Mechanical|Company: Autodesk, Inc."
 90
    33792
280
     0
281
     0
  0
CLASS
  1
ACMDETAILSTANDARDJIS
  2
AmdtDetailSymStdJIS
  3
"Amdt_StdImp|Product Description: AutoCAD Mechanical|Company: Autodesk, Inc."
 90
    33792
280
     0
281
     0
  0
CLASS
  1
ACMSECTIONSTANDARDJIS
  2
AmdtSectionSymStdJIS
  3
"Amdt_StdImp|Product Description: AutoCAD Mechanical|Company: Autodesk, Inc."
 90
    33792
280
     0
281
     0
  0
CLASS
  1
ACMCENTERLINESTANDARDJIS
  2
AmdtCenterLineStdJIS
  3
"Amdt_StdImp|Product Description: AutoCAD Mechanical|Company: Autodesk, Inc."
 90
    33792
280
     0
281
     0
  0
CLASS
  1
ACMTHREADLINESTANDARDJIS
  2
AmdtThreadLineStdJIS
  3
"Amdt_StdImp|Product Description: AutoCAD Mechanical|Company: Autodesk, Inc."
 90
    33792
280
     0
281
     0
  0
CLASS
  1
ACMNOTESTANDARDANSI
  2
AmdtNoteStdANSI
  3
"Amdt_StdImp|Product Description: AutoCAD Mechanical|Company: Autodesk, Inc."
 90
    33792
280
     0
281
     0
  0
CLASS
  1
ACAMGHOLECHARTSTDANSI
  2
AcAmgHoleChartStdANSI
  3
AmgDim|Product Description: AutoCAD Mechanical|Company: Autodesk, Inc.
 90
    33792
280
     0
281
     0
  0
CLASS
  1
TABLESTYLE
  2
AcDbTableStyle
  3
ObjectDBX Classes
 90
     4095
280
     0
281
     0
  0
CLASS
  1
AMDTNOTETEMPLATEDB
  2
AmdtNoteTemplateDB
  3
AcmSymBB|Product Description: AutoCAD Mechanical|Company: Autodesk, Inc.
 90
    33792
280
     0
281
     0
  0
CLASS
  1
MATERIAL
  2
AcDbMaterial
  3
ObjectDBX Classes
 90
     1153
280
     0
281
     0
  0
CLASS
  1
VISUALSTYLE
  2
AcDbVisualStyle
  3
ObjectDBX Classes
 90
     4095
280
     0
281
     0
  0
CLASS
  1
ACRFATTGENMGR
  2
AcRfAttGeneralMgr
  3
AcAttribServices
 90
    33792
280
     0
281
     0
  0
CLASS
  1
ACRFOBJATTMGR
  2
AcRfObjAttGroupMgr
  3
AcAttribServices
 90
    33792
280
     0
281
     0
  0
CLASS
  1
ACRFMCADAPIATTHOLDER
  2
AcRfMCADAPIAttHolder
  3
AcAttribServices
 90
    33792
280
     0
281
     0
  0
CLASS
  1
AMDTSYSATTR
  2
AmdtSystemAttribute
  3
AcAttribServices
 90
    33792
280
     0
281
     0
  0
CLASS
  1
ACMTAPERSTANDARDANSI
  2
AcmTaperStdANSI
  3
"Amdt_StdImp|Product Description: AutoCAD Mechanical|Company: Autodesk, Inc."
 90
    33792
280
     0
281
     0
  0
CLASS
  1
SCALE
  2
AcDbScale
  3
ObjectDBX Classes
 90
     1153
280
     0
281
     0
  0
CLASS
  1
MLEADERSTYLE
  2
AcDbMLeaderStyle
  3
ACDB_MLEADERSTYLE_CLASS
 90
     4095
280
     0
281
     0
  0
CLASS
  1
ACMANOOTATIONVIEWSTANDARDANSI
  2
AmdtAnViewStdANSI
  3
"Amdt_StdImp|Product Description: AutoCAD Mechanical|Company: Autodesk, Inc."
 90
    33792
280
     0
281
     0
  0
CLASS
  1
CELLSTYLEMAP
  2
AcDbCellStyleMap
  3
ObjectDBX Classes
 90
     1152
280
     0
281
     0
  0
CLASS
  1
EXACXREFPANELOBJECT
  2
ExAcXREFPanelObject
  3
EXAC_ESW
 90
    33793
280
     1
281
     0
  0
CLASS
  1
NPOCOLLECTION
  2
AcDbImpNonPersistentObjectsCollection
  3
ObjectDBX Classes
 90
     1153
280
     0
281
     0
  0
CLASS
  1
EXACTERMXREFMAP
  2
ExAcTermXrefMap
  3
EXAC_SERVICE
 90
    33793
280
     0
281
     0
  0
CLASS
  1
ACAMEXTERNALCOMPDEF
  2
AcAmExternalCompDef
  3
DesignerAssemblies
 90
    33792
280
     0
281
     0
  0
CLASS
  1
ACCMBODY
  2
AcCmBody
  3
DesignerAssemblies
 90
    33792
280
     0
281
     0
  0
CLASS
  1
ACAMCOMPENT
  2
AcAmCompEnt
  3
DesignerAssemblies
 90
    33792
280
     0
281
     1
  0
CLASS
  1
ACAMCOMPFEEDBACK
  2
AcAmCompFeedback
  3
DesignerAssemblies
 90
    33792
280
     0
281
     0
  0
CLASS
  1
ACAMCOMP
  2
AcAmComp
  3
DesignerAssemblies
 90
    33792
280
     0
281
     0
  0
CLASS
  1
ACAMCOMPENTCLONE
  2
AcAmCompEntClone
  3
DesignerAssemblies
 90
    33792
280
     0
281
     1
  0
CLASS
  1
ACAMCLONEREACTOR
  2
AcAmGrCompCloneReactor
  3
DesignerAssemblies
 90
    33792
280
     0
281
     0
  0
CLASS
  1
SOLID_BACKGROUND
  2
AcDbSolidBackground
  3
SCENEOE
 90
     4095
280
     0
281
     0
  0
CLASS
  1
EDGEID
  2
AcAdEdgeId
  3
DesignerServices
 90
    33792
280
     0
281
     0
  0
CLASS
  1
DEPEDGESECONDARYDEPID
  2
AcAdDepEdgeSecondaryDepId
  3
DesignerServices
 90
    33792
280
     0
281
     0
  0
CLASS
  1
ACADPARTLINEDGRES
  2
AcAdPartLinEdgRes
  3
AdGrefServices
 90
    33792
280
     0
281
     0
  0
CLASS
  1
ACRFINSADJ
  2
AcRfInsAdjuster
  3
AcMeServices
 90
    33792
280
     0
281
     0
  0
CLASS
  1
STREFID
  2
AcAdStraightRefId
  3
DesignerServices
 90
    33792
280
     0
281
     0
  0
CLASS
  1
ACMEAXIS
  2
AcImAxisDisplay
  3
AcMeServices
 90
    33792
280
     0
281
     1
  0
CLASS
  1
FACEID
  2
AcAdFaceId
  3
DesignerServices
 90
    33792
280
     0
281
     0
  0
CLASS
  1
ACADPARTPLANARFACERES
  2
AcAdPartPlanarFaceRes
  3
AdGrefServices
 90
    33792
280
     0
281
     0
  0
CLASS
  1
ACMELINEARARROW
  2
AcImLinearArrowDisplay
  3
AcMeServices
 90
    33792
280
     0
281
     1
  0
CLASS
  1
ACMEPOINT
  2
AcImPointDisplay
  3
AcMeServices
 90
    33792
280
     0
281
     1
  0
CLASS
  1
ACADPARTCIRCEDGRES
  2
AcAdPartCircEdgRes
  3
AdGrefServices
 90
    33792
280
     0
281
     0
  0
CLASS
  1
CIRREFID
  2
AcAdCircleRefId
  3
DesignerServices
 90
    33792
280
     0
281
     0
  0
CLASS
  1
ACADPARTCYLINDERFACERES
  2
AcAdPartCylinderFaceRes
  3
AdGrefServices
 90
    33792
280
     0
281
     0
  0
CLASS
  1
ACAMEXPR
  2
AcAmExpr
  3
DesignerAssemblies
 90
    33792
280
     0
281
     0
  0
CLASS
  1
ACCMDISTPLPL
  2
AcCmDistPlPl
  3
DesignerAssemblies
 90
    33792
280
     0
281
     0
  0
CLASS
  1
ACCMCONSTREACTOR
  2
AcCmConstraintReactor
  3
DesignerAssemblies
 90
    33792
280
     0
281
     0
  0
CLASS
  1
ACCMDISTPTPL
  2
AcCmDistPtPl
  3
DesignerAssemblies
 90
    33792
280
     0
281
     0
  0
CLASS
  1
AM_VIEW_SELECT_FILTER
  2
AcDmSelectViewEntFilter
  3
AcMechDwgViewMgmt
 90
    33792
280
     0
281
     0
  0
CLASS
  1
AM_GREF_PLANE
  2
AcDmGrefPlnDef
  3
AcMechDwgViewMgmt
 90
    33792
280
     0
281
     0
  0
CLASS
  1
AM_GREF_AXIS
  2
AcDmGrefAxisDef
  3
AcMechDwgViewMgmt
 90
    33792
280
     0
281
     0
  0
CLASS
  1
AM_BASE_VIEW_ORIENT
  2
AcDmBaseViewOr
  3
AcMechDwgViewMgmt
 90
    33792
280
     0
281
     0
  0
CLASS
  1
AM_DWG_VIEWPORT
  2
AcDmViewport
  3
AcMechDwgViewMgmt
 90
    33792
280
     0
281
     0
  0
CLASS
  1
AM_VIEW_DISPLAY
  2
AcDmDwgViewDisplay
  3
AcMechDwgViewMgmt
 90
    33792
280
     0
281
     0
  0
CLASS
  1
AM_CLDFLTS
  2
AcDmClDflts
  3
AcMechDwgViewMgmt
 90
    33792
280
     0
281
     0
  0
CLASS
  1
AM_BASE_VIEW
  2
AcDmBaseView
  3
AcMechDwgViewMgmt
 90
    33792
280
     0
281
     0
  0
CLASS
  1
ACMEPLINE
  2
AcImPlineDisplay
  3
AcMeServices
 90
    33792
280
     0
281
     1
  0
CLASS
  1
ACDMPARTVIEWDATA
  2
AcDmPartViewData
  3
AcMechDwgViewMgmt
 90
    33792
280
     0
281
     0
  0
CLASS
  1
ACDMDISPLAYATTRIBS
  2
AcDmDisplayAttribs
  3
AcMechDwgViewMgmt
 90
    33792
280
     0
281
     0
  0
CLASS
  1
ACDMBODYINSTANCEDATA
  2
AcDmBodyInstanceData
  3
AcMechDwgViewMgmt
 90
    33792
280
     0
281
     0
  0
CLASS
  1
ACDMVWEDLINE
  2
AcDmViewEdgeLine
  3
AcMechDwgViewMgmt
 90
    33792
280
     0
281
     1
  0
CLASS
  1
ACDMVWEDELLIPSE
  2
AcDmViewEdgeEllipse
  3
AcMechDwgViewMgmt
 90
    33792
280
     0
281
     1
  0
CLASS
  1
ACDMVWEDARC
  2
AcDmViewEdgeArc
  3
AcMechDwgViewMgmt
 90
    33792
280
     0
281
     1
  0
CLASS
  1
ACDMVWEDCIRC
  2
AcDmViewEdgeCircle
  3
AcMechDwgViewMgmt
 90
    33792
280
     0
281
     1
  0
CLASS
  1
AM_ADLINCTRLINE
  2
AcAdLineCl
  3
DesignerServices
 90
    33792
280
     0
281
     0
  0
CLASS
  1
AM_ADCIRCTRLINE
  2
AcAdBullsEyeCl
  3
DesignerServices
 90
    33792
280
     0
281
     0
  0
CLASS
  1
AM_ORTHO_VIEW_ORIENT
  2
AcDmOrthoViewOr
  3
AcMechDwgViewMgmt
 90
    33792
280
     0
281
     0
  0
CLASS
  1
AM_ORTHO_VIEW
  2
AcDmOrthoView
  3
AcMechDwgViewMgmt
 90
    33792
280
     0
281
     0
  0
CLASS
  1
ACMNOTESTANDARDISO
  2
AmdtNoteStdISO
  3
"Amdt_StdImp|Product Description: AutoCAD Mechanical|Company: Autodesk, Inc."
 90
    33792
280
     0
281
     0
  0
CLASS
  1
ACMTAPERSTANDARDISO
  2
AcmTaperStdISO
  3
"Amdt_StdImp|Product Description: AutoCAD Mechanical|Company: Autodesk, Inc."
 90
    33792
280
     0
281
     0
  0
CLASS
  1
ACMANOOTATIONVIEWSTANDARDISO
  2
AmdtAnViewStdISO
  3
"Amdt_StdImp|Product Description: AutoCAD Mechanical|Company: Autodesk, Inc."
 90
    33792
280
     0
281
     0
  0
CLASS
  1
FEEDBACK
  2
AcAmFeedback
  3
DesignerAssemblies
 90
    33792
280
     0
281
     1
  0
CLASS
  1
ACAMTRIAXISSYMBOL
  2
AcAmTriAxisSymbol
  3
DesignerAssemblies
 90
    33792
280
     0
281
     0
  0
CLASS
  1
ACAMTEXTCIRCLESYMBOL
  2
AcAmTextCircleSymbol
  3
DesignerAssemblies
 90
    33792
280
     0
281
     0
  0
CLASS
  1
CNRREFID
  2
AcAdCornerId
  3
DesignerServices
 90
    33792
280
     0
281
     0
  0
CLASS
  1
ACADPARTPOINTRES
  2
AcAdPartPointRes
  3
AdGrefServices
 90
    33792
280
     0
281
     0
  0
CLASS
  1
AM_VIEWDIMLINEAR
  2
AcDmViewDimLinear
  3
AcMechDwgViewMgmt
 90
    33792
280
     0
281
     0
  0
CLASS
  1
PARAM
  2
AcAdParam
  3
DesignerServices
 90
    33792
280
     0
281
     0
  0
CLASS
  1
AM_ABS_PLANE
  2
AcDmAbsPlnDef
  3
AcMechDwgViewMgmt
 90
    33792
280
     0
281
     0
  0
CLASS
  1
AM_ABS_AXIS
  2
AcDmAbsAxisDef
  3
AcMechDwgViewMgmt
 90
    33792
280
     0
281
     0
  0
CLASS
  1
MULTILEADER
  2
AcDbMLeader
  3
ACDB_MLEADER_CLASS
 90
     1025
280
     0
281
     1
  0
ENDSEC
  0
SECTION
  2
TABLES
  0
TABLE
  2
VPORT
  5
24
102
{ACAD_XDICTIONARY
360
534
102
}
330
0
100
AcDbSymbolTable
 70
     1
  0
VPORT
  5
652
330
24
100
AcDbSymbolTableRecord
100
AcDbViewportTableRecord
  2
*Active
 70
     0
 10
0.0
 20
0.0
 11
1.0
 21
1.0
 12
224.7451336617232
 22
-78.72237704496217
 13
0.0
 23
0.0
 14
0.125
 24
0.125
 15
1.0
 25
1.0
 16
0.0
 26
0.0
 36
2187.923427223485
 17
-272.4433620848328
 27
181.0911123995739
 37
0.0
 40
889.5229168836685
 41
1.807989690721649
 42
50.0
 43
0.0
 44
0.0
 50
0.0
 51
0.0
 71
     0
 72
   100
 73
     1
 74
     0
 75
     0
 76
     0
 77
     0
 78
     0
281
     6
 65
     0
110
0.0
120
0.0
130
0.0
111
1.0
121
0.0
131
0.0
112
0.0
122
1.0
132
0.0
 79
     0
146
0.0
  0
ENDTAB
  0
TABLE
  2
LTYPE
  5
1F
330
0
100
AcDbSymbolTable
 70
     5
  0
LTYPE
  5
20
330
1F
100
AcDbSymbolTableRecord
100
AcDbLinetypeTableRecord
  2
BYBLOCK
 70
     0
  3

 72
    65
 73
     0
 40
0.0
  0
LTYPE
  5
21
330
1F
100
AcDbSymbolTableRecord
100
AcDbLinetypeTableRecord
  2
BYLAYER
 70
     0
  3

 72
    65
 73
     0
 40
0.0
  0
LTYPE
  5
D
330
1F
100
AcDbSymbolTableRecord
100
AcDbLinetypeTableRecord
  2
CONTINUOUS
 70
     0
  3
Solid line
 72
    65
 73
     0
 40
0.0
  0
LTYPE
  5
C2
330
1F
100
AcDbSymbolTableRecord
100
AcDbLinetypeTableRecord
  2
HIDDEN
 70
     0
  3
__ __ __ __ __ __ __ __ __ __ __ __ __ __ __ __
 72
    65
 73
     2
 40
0.375
 49
0.25
 74
     0
 49
-0.125
 74
     0
  0
LTYPE
  5
6B
330
1F
100
AcDbSymbolTableRecord
100
AcDbLinetypeTableRecord
  2
CENTER
 70
     0
  3
____ _ ____ _ ____ _ ____ _ ____ _ ____ _ ____ 
 72
    65
 73
     4
 40
2.0
 49
1.25
 74
     0
 49
-0.25
 74
     0
 49
0.25
 74
     0
 49
-0.25
 74
     0
  0
LTYPE
  5
6CA
330
1F
100
AcDbSymbolTableRecord
100
AcDbLinetypeTableRecord
  2
DASHDOT
 70
     0
  3
____ _ ____ _ ____ _ ____ _ ____ _ ____ _ ____
 72
    65
 73
     4
 40
5.5
 49
4.0
 74
     0
 49
-0.6
 74
     0
 49
0.3
 74
     0
 49
-0.6
 74
     0
  0
ENDTAB
  0
TABLE
  2
LAYER
  5
18
102
{ACAD_XDICTIONARY
360
19
102
}
330
0
100
AcDbSymbolTable
 70
    12
  0
LAYER
  5
5
102
{ACAD_XDICTIONARY
360
6
102
}
330
18
100
AcDbSymbolTableRecord
100
AcDbLayerTableRecord
  2
0
 70
     0
 62
     7
  6
CONTINUOUS
370
    -3
390
8
  0
LAYER
  5
C1
330
18
100
AcDbSymbolTableRecord
100
AcDbLayerTableRecord
  2
HID
 70
     0
 62
     3
  6
HIDDEN
370
    15
390
8
1001
AcAecLayerStandard
1000

1000

  0
LAYER
  5
56D
330
18
100
AcDbSymbolTableRecord
100
AcDbLayerTableRecord
  2
Defpoints
 70
     0
 62
     7
  6
CONTINUOUS
290
     0
370
    -3
390
8
  0
LAYER
  5
6CB
330
18
100
AcDbSymbolTableRecord
100
AcDbLayerTableRecord
  2
SIZE
 70
     0
 62
    30
  6
CONTINUOUS
370
    -3
390
8
  0
LAYER
  5
6CC
330
18
100
AcDbSymbolTableRecord
100
AcDbLayerTableRecord
  2
OUTLINE
 70
     0
 62
     3
  6
CONTINUOUS
370
    -3
390
8
  0
LAYER
  5
6CD
330
18
100
AcDbSymbolTableRecord
100
AcDbLayerTableRecord
  2
DETAIL
 70
     0
 62
     5
  6
CONTINUOUS
370
    -3
390
8
  0
LAYER
  5
6CE
330
18
100
AcDbSymbolTableRecord
100
AcDbLayerTableRecord
  2
BASIS
 70
     0
 62
     6
  6
DASHDOT
370
    -3
390
8
  0
LAYER
  5
6CF
330
18
100
AcDbSymbolTableRecord
100
AcDbLayerTableRecord
  2
NOTE
 70
     0
 62
     4
  6
CONTINUOUS
370
    -3
390
8
  0
LAYER
  5
6D0
330
18
100
AcDbSymbolTableRecord
100
AcDbLayerTableRecord
  2
ARRANGE
 70
     0
 62
     1
  6
CONTINUOUS
370
    -3
390
8
  0
LAYER
  5
6D1
330
18
100
AcDbSymbolTableRecord
100
AcDbLayerTableRecord
  2
ETC
 70
     0
 62
    61
  6
CONTINUOUS
370
    -3
390
8
  0
ENDTAB
  0
TABLE
  2
STYLE
  5
1C
330
0
100
AcDbSymbolTable
 70
     3
  0
STYLE
  5
1D
330
1C
100
AcDbSymbolTableRecord
100
AcDbTextStyleTableRecord
  2
STANDARD
 70
     0
 40
0.0
 41
1.0
 50
0.0
 71
     0
 42
0.12
  3
ROMANS.SHX
  4
EXTFONT.SHX
  0
STYLE
  5
42
330
1C
100
AcDbSymbolTableRecord
100
AcDbTextStyleTableRecord
  2
ADESK1
 70
     0
 40
0.0
 41
1.0
 50
0.0
 71
     0
 42
0.12
  3
romanc.shx
  4
extfont.shx
  0
STYLE
  5
6D2
330
1C
100
AcDbSymbolTableRecord
100
AcDbTextStyleTableRecord
  2
STANDARD1
 70
     0
 40
0.0
 41
1.0
 50
0.0
 71
     0
 42
3.5
  3
MONOTXT
  4
BIGFONT
  0
ENDTAB
  0
TABLE
  2
VIEW
  5
22
330
0
100
AcDbSymbolTable
 70
     0
  0
ENDTAB
  0
TABLE
  2
UCS
  5
23
330
0
100
AcDbSymbolTable
 70
     0
  0
ENDTAB
  0
TABLE
  2
APPID
  5
28
330
0
100
AcDbSymbolTable
 70
    10
  0
APPID
  5
29
330
28
100
AcDbSymbolTableRecord
100
AcDbRegAppTableRecord
  2
ACAD
 70
     0
  0
APPID
  5
32
330
28
100
AcDbSymbolTableRecord
100
AcDbRegAppTableRecord
  2
ACAD_DSTYLE_DIMJOGGED_JOGANGLE_SYMBOL
 70
     0
  0
APPID
  5
17
330
28
100
AcDbSymbolTableRecord
100
AcDbRegAppTableRecord
  2
ACAD_PSEXT
 70
     0
  0
APPID
  5
6C
330
28
100
AcDbSymbolTableRecord
100
AcDbRegAppTableRecord
  2
AcAecLayerStandard
 70
     0
  0
APPID
  5
33
330
28
100
AcDbSymbolTableRecord
100
AcDbRegAppTableRecord
  2
ACAD_DSTYLE_DIMJAG
 70
     0
  0
APPID
  5
34
330
28
100
AcDbSymbolTableRecord
100
AcDbRegAppTableRecord
  2
ACAD_DSTYLE_DIMTALN
 70
     0
  0
APPID
  5
507
330
28
100
AcDbSymbolTableRecord
100
AcDbRegAppTableRecord
  2
ACATTRIBSERVICES
 70
     0
  0
APPID
  5
520
330
28
100
AcDbSymbolTableRecord
100
AcDbRegAppTableRecord
  2
ACAD_MLEADERVER
 70
     0
  0
APPID
  5
536
330
28
100
AcDbSymbolTableRecord
100
AcDbRegAppTableRecord
  2
ACAD_DSTYLE_DIMARC_LENGTH_SYMBOL
 70
     0
  0
APPID
  5
C1D
330
28
100
AcDbSymbolTableRecord
100
AcDbRegAppTableRecord
  2
ACAD_EXEMPT_FROM_CAD_STANDARDS
 70
     0
  0
ENDTAB
  0
TABLE
  2
DIMSTYLE
  5
2A
330
0
100
AcDbSymbolTable
 70
     7
100
AcDbDimStyleTable
 71
     5
340
2B
340
35
340
36
340
37
340
38
  0
DIMSTYLE
105
2B
102
{ACAD_REACTORS
330
56C
330
57A
330
587
330
594
330
5A1
102
}
330
2A
100
AcDbSymbolTableRecord
100
AcDbDimStyleTableRecord
  2
AM_ANSI
 70
     0
  4
mm
 40
5.0
 41
2.0
 42
1.0
 43
0.5
 44
1.0
 45
0.5
 47
0.1
 48
0.1
 73
     0
 74
     0
 77
     1
 78
     7
 79
     2
140
2.0
141
0.0
146
0.71
147
1.0
176
   256
177
   256
178
     2
271
     1
272
     1
284
     7
340
1D
341
2C
342
2C
371
    -1
372
    -1
1001
ACAD_DSTYLE_DIMJOGGED_JOGANGLE_SYMBOL
1070
   384
1040
0.7853981633974483
1001
ACAD_DSTYLE_DIMJAG
1070
   388
1040
1.5
1001
ACAD_DSTYLE_DIMTALN
1070
   392
1070
     0
1001
ACAD_DSTYLE_DIMARC_LENGTH_SYMBOL
1070
   379
1070
     1
  0
DIMSTYLE
105
37
330
2A
100
AcDbSymbolTableRecord
100
AcDbDimStyleTableRecord
  2
AM_BSI
 70
     0
  4
mm
 41
0.1574803149606299
 42
0.05
 43
0.5
 44
0.1
 47
0.1
 48
0.1
 73
     0
 74
     0
 77
     1
 78
     7
 79
     2
140
0.12
141
0.0
146
0.71
147
0.06
172
     1
176
   256
177
   256
178
     2
274
     4
283
     0
284
     7
340
1D
371
    -1
372
    -1
  0
DIMSTYLE
105
36
330
2A
100
AcDbSymbolTableRecord
100
AcDbDimStyleTableRecord
  2
AM_DIN
 70
     0
  4
mm
 41
0.1
 42
0.05
 43
0.5
 44
0.1
 47
0.1
 48
0.1
 73
     0
 74
     0
 77
     1
 78
     7
 79
     2
140
0.12
141
0.0
146
0.71
147
0.06
172
     1
176
   256
177
   256
178
     2
274
     4
283
     0
284
     7
340
1D
371
    -1
372
    -1
  0
DIMSTYLE
105
35
330
2A
100
AcDbSymbolTableRecord
100
AcDbDimStyleTableRecord
  2
AM_ISO
 70
     0
  4
mm
 41
0.1
 42
0.05
 43
0.5
 44
0.1
 47
0.1
 48
0.1
 73
     0
 74
     0
 77
     1
 78
     7
 79
     2
140
0.12
141
0.0
146
0.71
147
0.06
172
     1
176
   256
177
   256
178
     2
274
     4
283
     0
284
     7
340
1D
371
    -1
372
    -1
  0
DIMSTYLE
105
38
330
2A
100
AcDbSymbolTableRecord
100
AcDbDimStyleTableRecord
  2
AM_JIS
 70
     0
  4
mm
 41
0.1
 42
0.05
 43
0.5
 44
0.1
 47
0.1
 48
0.1
 73
     0
 74
     0
 77
     3
 78
     7
 79
     2
140
0.12
141
0.0
146
0.71
147
0.06
172
     1
176
   256
177
   256
178
     2
274
     4
283
     0
284
     7
340
1D
371
    -1
372
    -1
  0
DIMSTYLE
105
6D3
330
2A
100
AcDbSymbolTableRecord
100
AcDbDimStyleTableRecord
  2
STANDARD
 70
     0
275
     1
279
     2
284
     8
285
     8
286
     8
340
1D
  0
ENDTAB
  0
TABLE
  2
BLOCK_RECORD
  5
1
330
0
100
AcDbSymbolTable
 70
    10
  0
BLOCK_RECORD
  5
2
102
{ACAD_XDICTIONARY
360
3
102
}
330
1
100
AcDbSymbolTableRecord
100
AcDbBlockTableRecord
  2
*MODEL_SPACE
340
F
  0
BLOCK_RECORD
  5
11
330
1
100
AcDbSymbolTableRecord
100
AcDbBlockTableRecord
  2
*Paper_Space
340
14
  0
BLOCK_RECORD
  5
2C
330
1
100
AcDbSymbolTableRecord
100
AcDbBlockTableRecord
  2
_Open30
340
0
102
{BLKREFS
331
C26
331
C27
331
C2F
331
C30
331
C38
331
C39
331
C41
331
C42
331
C4A
331
C4B
102
}
  0
BLOCK_RECORD
  5
56E
330
1
100
AcDbSymbolTableRecord
100
AcDbBlockTableRecord
  2
*D1
340
0
  0
BLOCK_RECORD
  5
57B
330
1
100
AcDbSymbolTableRecord
100
AcDbBlockTableRecord
  2
*D2
340
0
  0
BLOCK_RECORD
  5
588
330
1
100
AcDbSymbolTableRecord
100
AcDbBlockTableRecord
  2
*D3
340
0
  0
BLOCK_RECORD
  5
595
330
1
100
AcDbSymbolTableRecord
100
AcDbBlockTableRecord
  2
*D4
340
0
  0
BLOCK_RECORD
  5
5A2
330
1
100
AcDbSymbolTableRecord
100
AcDbBlockTableRecord
  2
*D5
340
0
  0
BLOCK_RECORD
  5
6C5
330
1
100
AcDbSymbolTableRecord
100
AcDbBlockTableRecord
  2
_DOTBLANK
340
0
  0
BLOCK_RECORD
  5
C51
330
1
100
AcDbSymbolTableRecord
100
AcDbBlockTableRecord
  2
A$C22B76386
340
0
  0
ENDTAB
  0
ENDSEC
  0
SECTION
  2
BLOCKS
  0
BLOCK
  5
4
330
2
100
AcDbEntity
  8
0
100
AcDbBlockBegin
  2
*MODEL_SPACE
 70
     0
 10
0.0
 20
0.0
 30
0.0
  3
*MODEL_SPACE
  1

  0
ENDBLK
  5
E
330
2
100
AcDbEntity
  8
0
100
AcDbBlockEnd
  0
BLOCK
  5
12
330
11
100
AcDbEntity
 67
     1
  8
0
100
AcDbBlockBegin
  2
*Paper_Space
 70
     0
 10
0.0
 20
0.0
 30
0.0
  3
*Paper_Space
  1

  0
ENDBLK
  5
13
330
11
100
AcDbEntity
 67
     1
  8
0
100
AcDbBlockEnd
  0
BLOCK
  5
2D
330
2C
100
AcDbEntity
  8
0
100
AcDbBlockBegin
  2
_Open30
 70
     0
 10
0.0
 20
0.0
 30
0.0
  3
_Open30
  1

  0
LINE
  5
2E
330
2C
100
AcDbEntity
  8
0
  6
ByBlock
 62
     0
370
    -2
100
AcDbLine
 10
-1.0
 20
0.26794919
 30
0.0
 11
0.0
 21
0.0
 31
0.0
  0
LINE
  5
2F
330
2C
100
AcDbEntity
  8
0
  6
ByBlock
 62
     0
370
    -2
100
AcDbLine
 10
0.0
 20
0.0
 30
0.0
 11
-1.0
 21
-0.26794919
 31
0.0
  0
LINE
  5
30
330
2C
100
AcDbEntity
  8
0
  6
ByBlock
 62
     0
370
    -2
100
AcDbLine
 10
0.0
 20
0.0
 30
0.0
 11
-1.0
 21
0.0
 31
0.0
  0
ENDBLK
  5
31
330
2C
100
AcDbEntity
  8
0
100
AcDbBlockEnd
  0
BLOCK
  5
56F
330
56E
100
AcDbEntity
  8
0
100
AcDbBlockBegin
  2
*D1
 70
     1
 10
0.0
 20
0.0
 30
0.0
  3
*D1
  1

  0
LINE
  5
C2C
330
56E
100
AcDbEntity
  8
SIZE
100
AcDbLine
 10
-313.8442218200956
 20
296.2151266105336
 30
0.0
 11
-313.8442218200956
 21
355.1817810242008
 31
0.0
  0
LINE
  5
C2D
330
56E
100
AcDbEntity
  8
SIZE
100
AcDbLine
 10
324.1557781799047
 20
296.2151266105339
 30
0.0
 11
324.1557781799047
 21
355.1817810242008
 31
0.0
  0
LINE
  5
C2E
330
56E
100
AcDbEntity
  8
SIZE
100
AcDbLine
 10
-303.8442218200956
 20
350.1817810242008
 30
0.0
 11
314.1557781799046
 21
350.1817810242008
 31
0.0
  0
INSERT
  5
C2F
330
56E
100
AcDbEntity
  8
SIZE
100
AcDbBlockReference
  2
_Open30
 10
-313.8442218200956
 20
350.1817810242008
 30
0.0
 41
10.0
 42
10.0
 43
10.0
 50
180.0
  0
INSERT
  5
C30
330
56E
100
AcDbEntity
  8
SIZE
100
AcDbBlockReference
  2
_Open30
 10
324.1557781799047
 20
350.1817810242008
 30
0.0
 41
10.0
 42
10.0
 43
10.0
  0
MTEXT
  5
C31
330
56E
100
AcDbEntity
  8
SIZE
 62
     0
100
AcDbMText
 10
5.155778179904502
 20
360.1817810242008
 30
0.0
 40
10.0
 41
0.0
 71
     5
 72
     1
  1
\A1;638.0
 73
     1
 44
1.0
1001
ACAD
1000
MTEXTBEGIN
1070
    73
1070
     1
1070
    44
1040
1.0
1070
    74
1070
     0
1000
MTEXTEND
  0
POINT
  5
C32
330
56E
100
AcDbEntity
  8
Defpoints
 62
     0
100
AcDbPoint
 10
-313.8442218200956
 20
291.2151266105336
 30
0.0
  0
POINT
  5
C33
330
56E
100
AcDbEntity
  8
Defpoints
 62
     0
100
AcDbPoint
 10
324.1557781799047
 20
291.2151266105338
 30
0.0
  0
POINT
  5
C34
330
56E
100
AcDbEntity
  8
Defpoints
 62
     0
100
AcDbPoint
 10
324.1557781799047
 20
350.1817810242008
 30
0.0
  0
ENDBLK
  5
570
330
56E
100
AcDbEntity
  8
0
100
AcDbBlockEnd
  0
BLOCK
  5
57C
330
57B
100
AcDbEntity
  8
0
100
AcDbBlockBegin
  2
*D2
 70
     1
 10
0.0
 20
0.0
 30
0.0
  3
*D2
  1

  0
LINE
  5
C23
330
57B
100
AcDbEntity
  8
SIZE
100
AcDbLine
 10
-319.8442218200955
 20
318.1051266105339
 30
0.0
 11
-319.8442218200955
 21
377.2282752385646
 31
0.0
  0
LINE
  5
C24
330
57B
100
AcDbEntity
  8
SIZE
100
AcDbLine
 10
330.1557781799045
 20
318.1051266105338
 30
0.0
 11
330.1557781799045
 21
377.2282752385646
 31
0.0
  0
LINE
  5
C25
330
57B
100
AcDbEntity
  8
SIZE
100
AcDbLine
 10
-309.8442218200955
 20
372.2282752385646
 30
0.0
 11
320.1557781799045
 21
372.2282752385646
 31
0.0
  0
INSERT
  5
C26
330
57B
100
AcDbEntity
  8
SIZE
100
AcDbBlockReference
  2
_Open30
 10
-319.8442218200955
 20
372.2282752385646
 30
0.0
 41
10.0
 42
10.0
 43
10.0
 50
180.0
  0
INSERT
  5
C27
330
57B
100
AcDbEntity
  8
SIZE
100
AcDbBlockReference
  2
_Open30
 10
330.1557781799045
 20
372.2282752385646
 30
0.0
 41
10.0
 42
10.0
 43
10.0
  0
MTEXT
  5
C28
330
57B
100
AcDbEntity
  8
SIZE
 62
     0
100
AcDbMText
 10
5.155778179904531
 20
382.2282752385646
 30
0.0
 40
10.0
 41
0.0
 71
     5
 72
     1
  1
\A1;650.0
 73
     1
 44
1.0
1001
ACAD
1000
MTEXTBEGIN
1070
    73
1070
     1
1070
    44
1040
1.0
1070
    74
1070
     0
1000
MTEXTEND
  0
POINT
  5
C29
330
57B
100
AcDbEntity
  8
Defpoints
 62
     0
100
AcDbPoint
 10
-319.8442218200955
 20
313.1051266105339
 30
0.0
  0
POINT
  5
C2A
330
57B
100
AcDbEntity
  8
Defpoints
 62
     0
100
AcDbPoint
 10
330.1557781799045
 20
313.1051266105338
 30
0.0
  0
POINT
  5
C2B
330
57B
100
AcDbEntity
  8
Defpoints
 62
     0
100
AcDbPoint
 10
330.1557781799045
 20
372.2282752385646
 30
0.0
  0
ENDBLK
  5
57D
330
57B
100
AcDbEntity
  8
0
100
AcDbBlockEnd
  0
BLOCK
  5
589
330
588
100
AcDbEntity
  8
0
100
AcDbBlockBegin
  2
*D3
 70
     1
 10
0.0
 20
0.0
 30
0.0
  3
*D3
  1

  0
LINE
  5
C3E
330
588
100
AcDbEntity
  8
SIZE
100
AcDbLine
 10
-321.8442218200955
 20
288.1051266105337
 30
0.0
 11
-389.8535217368794
 21
288.1051266105337
 31
0.0
  0
LINE
  5
C3F
330
588
100
AcDbEntity
  8
SIZE
100
AcDbLine
 10
-321.2109958174826
 20
3.105126610534048
 30
0.0
 11
-389.8535217368795
 21
3.105126610534067
 31
0.0
  0
LINE
  5
C40
330
588
100
AcDbEntity
  8
SIZE
100
AcDbLine
 10
-384.8535217368795
 20
278.1051266105337
 30
0.0
 11
-384.8535217368795
 21
13.10512661053406
 31
0.0
  0
INSERT
  5
C41
330
588
100
AcDbEntity
  8
SIZE
100
AcDbBlockReference
  2
_Open30
 10
-384.8535217368795
 20
288.1051266105337
 30
0.0
 41
10.0
 42
10.0
 43
10.0
 50
90.0
  0
INSERT
  5
C42
330
588
100
AcDbEntity
  8
SIZE
100
AcDbBlockReference
  2
_Open30
 10
-384.8535217368795
 20
3.105126610534065
 30
0.0
 41
10.0
 42
10.0
 43
10.0
 50
270.0
  0
MTEXT
  5
C43
330
588
100
AcDbEntity
  8
SIZE
 62
     0
100
AcDbMText
 10
-394.8535217368795
 20
145.6051266105338
 30
0.0
 40
10.0
 41
0.0
 71
     5
 72
     1
  1
\A1;285.0
 11
0.0000000000000001
 21
1.0
 31
0.0
 73
     1
 44
1.0
1001
ACAD
1000
MTEXTBEGIN
1070
    73
1070
     1
1070
    44
1040
1.0
1070
    74
1070
     0
1000
MTEXTEND
  0
POINT
  5
C44
330
588
100
AcDbEntity
  8
Defpoints
 62
     0
100
AcDbPoint
 10
-316.8442218200955
 20
288.1051266105337
 30
0.0
  0
POINT
  5
C45
330
588
100
AcDbEntity
  8
Defpoints
 62
     0
100
AcDbPoint
 10
-316.2109958174826
 20
3.105126610534046
 30
0.0
  0
POINT
  5
C46
330
588
100
AcDbEntity
  8
Defpoints
 62
     0
100
AcDbPoint
 10
-384.8535217368795
 20
3.105126610534065
 30
0.0
  0
ENDBLK
  5
58A
330
588
100
AcDbEntity
  8
0
100
AcDbBlockEnd
  0
BLOCK
  5
596
330
595
100
AcDbEntity
  8
0
100
AcDbBlockBegin
  2
*D4
 70
     1
 10
0.0
 20
0.0
 30
0.0
  3
*D4
  1

  0
LINE
  5
C47
330
595
100
AcDbEntity
  8
SIZE
100
AcDbLine
 10
-321.2109958174826
 20
3.105126610534048
 30
0.0
 11
-389.8535217368794
 21
3.105126610534067
 31
0.0
  0
LINE
  5
C48
330
595
100
AcDbEntity
  8
SIZE
100
AcDbLine
 10
-321.9542218200955
 20
-281.8948733894663
 30
0.0
 11
-389.8535217368795
 21
-281.8948733894663
 31
0.0
  0
LINE
  5
C49
330
595
100
AcDbEntity
  8
SIZE
100
AcDbLine
 10
-384.8535217368795
 20
-6.894873389465934
 30
0.0
 11
-384.8535217368795
 21
-271.8948733894663
 31
0.0
  0
INSERT
  5
C4A
330
595
100
AcDbEntity
  8
SIZE
100
AcDbBlockReference
  2
_Open30
 10
-384.8535217368795
 20
3.105126610534065
 30
0.0
 41
10.0
 42
10.0
 43
10.0
 50
90.0
  0
INSERT
  5
C4B
330
595
100
AcDbEntity
  8
SIZE
100
AcDbBlockReference
  2
_Open30
 10
-384.8535217368795
 20
-281.8948733894663
 30
0.0
 41
10.0
 42
10.0
 43
10.0
 50
270.0
  0
MTEXT
  5
C4C
330
595
100
AcDbEntity
  8
SIZE
 62
     0
100
AcDbMText
 10
-394.8535217368794
 20
-139.3948733894661
 30
0.0
 40
10.0
 41
0.0
 71
     5
 72
     1
  1
\A1;285.0
 11
0.0000000000000001
 21
1.0
 31
0.0
 73
     1
 44
1.0
1001
ACAD
1000
MTEXTBEGIN
1070
    73
1070
     1
1070
    44
1040
1.0
1070
    74
1070
     0
1000
MTEXTEND
  0
POINT
  5
C4D
330
595
100
AcDbEntity
  8
Defpoints
 62
     0
100
AcDbPoint
 10
-316.2109958174826
 20
3.105126610534046
 30
0.0
  0
POINT
  5
C4E
330
595
100
AcDbEntity
  8
Defpoints
 62
     0
100
AcDbPoint
 10
-316.9542218200955
 20
-281.8948733894663
 30
0.0
  0
POINT
  5
C4F
330
595
100
AcDbEntity
  8
Defpoints
 62
     0
100
AcDbPoint
 10
-384.8535217368795
 20
-281.8948733894663
 30
0.0
  0
ENDBLK
  5
597
330
595
100
AcDbEntity
  8
0
100
AcDbBlockEnd
  0
BLOCK
  5
5A3
330
5A2
100
AcDbEntity
  8
0
100
AcDbBlockBegin
  2
*D5
 70
     1
 10
0.0
 20
0.0
 30
0.0
  3
*D5
  1

  0
LINE
  5
C35
330
5A2
100
AcDbEntity
  8
SIZE
100
AcDbLine
 10
-324.8442218200954
 20
-306.8948733894663
 30
0.0
 11
-415.5522350261237
 21
-306.8948733894663
 31
0.0
  0
LINE
  5
C36
330
5A2
100
AcDbEntity
  8
SIZE
100
AcDbLine
 10
-323.8442218200955
 20
313.9051266105336
 30
0.0
 11
-415.5522350261236
 21
313.9051266105337
 31
0.0
  0
LINE
  5
C37
330
5A2
100
AcDbEntity
  8
SIZE
100
AcDbLine
 10
-410.5522350261237
 20
-296.8948733894663
 30
0.0
 11
-410.5522350261236
 21
303.9051266105337
 31
0.0
  0
INSERT
  5
C38
330
5A2
100
AcDbEntity
  8
SIZE
100
AcDbBlockReference
  2
_Open30
 10
-410.5522350261237
 20
-306.8948733894663
 30
0.0
 41
10.0
 42
10.0
 43
10.0
 50
270.0
  0
INSERT
  5
C39
330
5A2
100
AcDbEntity
  8
SIZE
100
AcDbBlockReference
  2
_Open30
 10
-410.5522350261236
 20
313.9051266105337
 30
0.0
 41
10.0
 42
10.0
 43
10.0
 50
90.0
  0
MTEXT
  5
C3A
330
5A2
100
AcDbEntity
  8
SIZE
 62
     0
100
AcDbMText
 10
-420.5522350261237
 20
3.505126610533606
 30
0.0
 40
10.0
 41
0.0
 71
     5
 72
     1
  1
\A1;621.0
 11
0.0000000000000001
 21
1.0
 31
0.0
 73
     1
 44
1.0
1001
ACAD
1000
MTEXTBEGIN
1070
    73
1070
     1
1070
    44
1040
1.0
1070
    74
1070
     0
1000
MTEXTEND
  0
POINT
  5
C3B
330
5A2
100
AcDbEntity
  8
Defpoints
 62
     0
100
AcDbPoint
 10
-319.8442218200954
 20
-306.8948733894663
 30
0.0
  0
POINT
  5
C3C
330
5A2
100
AcDbEntity
  8
Defpoints
 62
     0
100
AcDbPoint
 10
-318.8442218200955
 20
313.9051266105336
 30
0.0
  0
POINT
  5
C3D
330
5A2
100
AcDbEntity
  8
Defpoints
 62
     0
100
AcDbPoint
 10
-410.5522350261236
 20
313.9051266105337
 30
0.0
  0
ENDBLK
  5
5A4
330
5A2
100
AcDbEntity
  8
0
100
AcDbBlockEnd
  0
BLOCK
  5
6C6
330
6C5
100
AcDbEntity
  8
0
100
AcDbBlockBegin
  2
_DOTBLANK
 70
     0
 10
0.0
 20
0.0
 30
0.0
  3
_DOTBLANK
  1

  0
CIRCLE
  5
6C7
330
6C5
100
AcDbEntity
  8
0
  6
Continuous
 62
     7
100
AcDbCircle
 10
0.0
 20
0.0
 30
0.0
 40
0.5
  0
LINE
  5
6C8
330
6C5
100
AcDbEntity
  8
0
  6
Continuous
 62
     7
100
AcDbLine
 10
-0.5
 20
0.0
 30
0.0
 11
-1.0
 21
0.0
 31
0.0
  0
ENDBLK
  5
6C9
330
6C5
100
AcDbEntity
  8
0
100
AcDbBlockEnd
  0
BLOCK
  5
EF3
330
C51
100
AcDbEntity
  8
0
100
AcDbBlockBegin
  2
A$C22B76386
 70
     0
 10
0.0
 20
0.0
 30
0.0
  3
A$C22B76386
  1

  0
TEXT
  5
C52
330
C51
100
AcDbEntity
  8
ETC
  6
Continuous
 62
    61
100
AcDbText
 10
2500.826583640748
 20
2165.470197225919
 30
0.0
 40
90.0
  1
PUHY-P960_1010SCM-E1_1
 50
0.000003
 41
0.6030590000000001
  7
STANDARD1
100
AcDbText
  0
LINE
  5
C53
330
C51
100
AcDbEntity
  8
NOTE
  6
Continuous
 62
     4
100
AcDbLine
 10
745.0761556407478
 20
1506.106777225919
 30
0.0
 11
745.0761556407478
 21
1448.106776225919
 31
0.0
  0
LINE
  5
C54
330
C51
100
AcDbEntity
  8
NOTE
  6
Continuous
 62
     4
100
AcDbLine
 10
774.0761556407478
 20
1477.106777225919
 30
0.0
 11
716.0761546407477
 21
1477.106777225919
 31
0.0
  0
LINE
  5
C55
330
C51
100
AcDbEntity
  8
NOTE
  6
Continuous
 62
     4
100
AcDbLine
 10
745.0761556407478
 20
1356.106774225919
 30
0.0
 11
745.0761556407478
 21
1298.106773225919
 31
0.0
  0
LINE
  5
C56
330
C51
100
AcDbEntity
  8
NOTE
  6
Continuous
 62
     4
100
AcDbLine
 10
774.0761556407478
 20
1327.106774225919
 30
0.0
 11
716.0761546407477
 21
1327.106774225919
 31
0.0
  0
LINE
  5
C57
330
C51
100
AcDbEntity
  8
NOTE
  6
Continuous
 62
     4
100
AcDbLine
 10
745.0761556407478
 20
1206.106772225919
 30
0.0
 11
745.0761556407478
 21
1148.106770225919
 31
0.0
  0
LINE
  5
C58
330
C51
100
AcDbEntity
  8
NOTE
  6
Continuous
 62
     4
100
AcDbLine
 10
774.0761556407478
 20
1177.106771225919
 30
0.0
 11
716.0761546407477
 21
1177.106771225919
 31
0.0
  0
LINE
  5
C59
330
C51
100
AcDbEntity
  8
NOTE
  6
Continuous
 62
     4
100
AcDbLine
 10
745.0761556407478
 20
1056.106769225919
 30
0.0
 11
745.0761556407478
 21
998.1067682259192
 31
0.0
  0
LINE
  5
C5A
330
C51
100
AcDbEntity
  8
NOTE
  6
Continuous
 62
     4
100
AcDbLine
 10
774.0761556407478
 20
1027.106768225919
 30
0.0
 11
716.0761546407477
 21
1027.106768225919
 31
0.0
  0
LINE
  5
C5B
330
C51
100
AcDbEntity
  8
NOTE
  6
Continuous
 62
     4
100
AcDbLine
 10
745.0761556407478
 20
906.1067662259191
 30
0.0
 11
745.0761556407478
 21
848.1067652259191
 31
0.0
  0
LINE
  5
C5C
330
C51
100
AcDbEntity
  8
NOTE
  6
Continuous
 62
     4
100
AcDbLine
 10
774.0761556407478
 20
877.1067652259191
 30
0.0
 11
716.0761546407477
 21
877.1067652259191
 31
0.0
  0
LINE
  5
C5D
330
C51
100
AcDbEntity
  8
NOTE
  6
Continuous
 62
     4
100
AcDbLine
 10
1929.076171640748
 20
906.1067662259191
 30
0.0
 11
1929.076171640748
 21
848.1067652259191
 31
0.0
  0
LINE
  5
C5E
330
C51
100
AcDbEntity
  8
NOTE
  6
Continuous
 62
     4
100
AcDbLine
 10
1958.076172640748
 20
877.1067652259191
 30
0.0
 11
1900.076171640748
 21
877.1067652259191
 31
0.0
  0
LINE
  5
C5F
330
C51
100
AcDbEntity
  8
NOTE
  6
Continuous
 62
     4
100
AcDbLine
 10
1929.076171640748
 20
1056.106769225919
 30
0.0
 11
1929.076171640748
 21
998.1067682259192
 31
0.0
  0
LINE
  5
C60
330
C51
100
AcDbEntity
  8
NOTE
  6
Continuous
 62
     4
100
AcDbLine
 10
1958.076172640748
 20
1027.106768225919
 30
0.0
 11
1900.076171640748
 21
1027.106768225919
 31
0.0
  0
LINE
  5
C61
330
C51
100
AcDbEntity
  8
NOTE
  6
Continuous
 62
     4
100
AcDbLine
 10
1929.076171640748
 20
1206.106772225919
 30
0.0
 11
1929.076171640748
 21
1148.106770225919
 31
0.0
  0
LINE
  5
C62
330
C51
100
AcDbEntity
  8
NOTE
  6
Continuous
 62
     4
100
AcDbLine
 10
1958.076172640748
 20
1177.106771225919
 30
0.0
 11
1900.076171640748
 21
1177.106771225919
 31
0.0
  0
LINE
  5
C63
330
C51
100
AcDbEntity
  8
NOTE
  6
Continuous
 62
     4
100
AcDbLine
 10
1929.076171640748
 20
1356.106774225919
 30
0.0
 11
1929.076171640748
 21
1298.106773225919
 31
0.0
  0
LINE
  5
C64
330
C51
100
AcDbEntity
  8
NOTE
  6
Continuous
 62
     4
100
AcDbLine
 10
1958.076172640748
 20
1327.106774225919
 30
0.0
 11
1900.076171640748
 21
1327.106774225919
 31
0.0
  0
LINE
  5
C65
330
C51
100
AcDbEntity
  8
NOTE
  6
Continuous
 62
     4
100
AcDbLine
 10
1929.076171640748
 20
1506.106777225919
 30
0.0
 11
1929.076171640748
 21
1448.106776225919
 31
0.0
  0
LINE
  5
C66
330
C51
100
AcDbEntity
  8
NOTE
  6
Continuous
 62
     4
100
AcDbLine
 10
1958.076172640748
 20
1477.106777225919
 30
0.0
 11
1900.076171640748
 21
1477.106777225919
 31
0.0
  0
ARC
  5
C67
330
C51
100
AcDbEntity
  8
DETAIL
  6
Continuous
 62
     5
100
AcDbCircle
 10
1337.076163640748
 20
1177.106771225919
 30
0.0
 40
361.000007
100
AcDbArc
 50
90.0
 51
270.0
  0
ARC
  5
C68
330
C51
100
AcDbEntity
  8
DETAIL
  6
Continuous
 62
     5
100
AcDbCircle
 10
1337.076163640748
 20
1177.106771225919
 30
0.0
 40
361.000007
100
AcDbArc
 50
270.0
 51
90.0
  0
ARC
  5
C69
330
C51
100
AcDbEntity
  8
DETAIL
  6
Continuous
 62
     5
100
AcDbCircle
 10
731.0761556407478
 20
847.7636192259192
 30
0.0
 40
4.0
100
AcDbArc
 50
180.0
 51
225.0
  0
ARC
  5
C6A
330
C51
100
AcDbEntity
  8
DETAIL
  6
Continuous
 62
     5
100
AcDbCircle
 10
777.7330106407478
 20
801.1067642259192
 30
0.0
 40
4.0
100
AcDbArc
 50
225.0
 51
270.0
  0
ARC
  5
C6B
330
C51
100
AcDbEntity
  8
DETAIL
  6
Continuous
 62
     5
100
AcDbCircle
 10
1943.076171640748
 20
847.7636192259192
 30
0.0
 40
4.0
100
AcDbArc
 50
315.0
 51
0.0
  0
CIRCLE
  5
C6C
330
C51
100
AcDbEntity
  8
DETAIL
  6
Continuous
 62
     5
100
AcDbCircle
 10
1929.076171640748
 20
1477.106777225919
 30
0.0
 40
12.5
  0
CIRCLE
  5
C6D
330
C51
100
AcDbEntity
  8
DETAIL
  6
Continuous
 62
     5
100
AcDbCircle
 10
1929.076171640748
 20
1477.106777225919
 30
0.0
 40
4.0
  0
CIRCLE
  5
C6E
330
C51
100
AcDbEntity
  8
DETAIL
  6
Continuous
 62
     5
100
AcDbCircle
 10
745.0761556407478
 20
1477.106777225919
 30
0.0
 40
12.5
  0
CIRCLE
  5
C6F
330
C51
100
AcDbEntity
  8
DETAIL
  6
Continuous
 62
     5
100
AcDbCircle
 10
745.0761556407478
 20
1477.106777225919
 30
0.0
 40
4.0
  0
CIRCLE
  5
C70
330
C51
100
AcDbEntity
  8
DETAIL
  6
Continuous
 62
     5
100
AcDbCircle
 10
1929.076171640748
 20
1327.106774225919
 30
0.0
 40
12.5
  0
CIRCLE
  5
C71
330
C51
100
AcDbEntity
  8
DETAIL
  6
Continuous
 62
     5
100
AcDbCircle
 10
1929.076171640748
 20
1327.106774225919
 30
0.0
 40
4.0
  0
CIRCLE
  5
C72
330
C51
100
AcDbEntity
  8
DETAIL
  6
Continuous
 62
     5
100
AcDbCircle
 10
745.0761556407478
 20
1327.106774225919
 30
0.0
 40
12.5
  0
CIRCLE
  5
C73
330
C51
100
AcDbEntity
  8
DETAIL
  6
Continuous
 62
     5
100
AcDbCircle
 10
745.0761556407478
 20
1327.106774225919
 30
0.0
 40
4.0
  0
ARC
  5
C74
330
C51
100
AcDbEntity
  8
DETAIL
  6
Continuous
 62
     5
100
AcDbCircle
 10
1896.419316640748
 20
801.1067642259192
 30
0.0
 40
4.0
100
AcDbArc
 50
270.0
 51
315.0
  0
CIRCLE
  5
C75
330
C51
100
AcDbEntity
  8
DETAIL
  6
Continuous
 62
     5
100
AcDbCircle
 10
1929.076171640748
 20
1177.106771225919
 30
0.0
 40
12.5
  0
CIRCLE
  5
C76
330
C51
100
AcDbEntity
  8
DETAIL
  6
Continuous
 62
     5
100
AcDbCircle
 10
1929.076171640748
 20
1177.106771225919
 30
0.0
 40
4.0
  0
CIRCLE
  5
C77
330
C51
100
AcDbEntity
  8
DETAIL
  6
Continuous
 62
     5
100
AcDbCircle
 10
745.0761556407478
 20
1177.106771225919
 30
0.0
 40
12.5
  0
CIRCLE
  5
C78
330
C51
100
AcDbEntity
  8
DETAIL
  6
Continuous
 62
     5
100
AcDbCircle
 10
745.0761556407478
 20
1177.106771225919
 30
0.0
 40
4.0
  0
CIRCLE
  5
C79
330
C51
100
AcDbEntity
  8
DETAIL
  6
Continuous
 62
     5
100
AcDbCircle
 10
1929.076171640748
 20
1027.106768225919
 30
0.0
 40
12.5
  0
CIRCLE
  5
C7A
330
C51
100
AcDbEntity
  8
DETAIL
  6
Continuous
 62
     5
100
AcDbCircle
 10
1929.076171640748
 20
1027.106768225919
 30
0.0
 40
4.0
  0
CIRCLE
  5
C7B
330
C51
100
AcDbEntity
  8
DETAIL
  6
Continuous
 62
     5
100
AcDbCircle
 10
745.0761556407478
 20
1027.106768225919
 30
0.0
 40
12.5
  0
CIRCLE
  5
C7C
330
C51
100
AcDbEntity
  8
DETAIL
  6
Continuous
 62
     5
100
AcDbCircle
 10
745.0761556407478
 20
1027.106768225919
 30
0.0
 40
4.0
  0
CIRCLE
  5
C7D
330
C51
100
AcDbEntity
  8
DETAIL
  6
Continuous
 62
     5
100
AcDbCircle
 10
1929.076171640748
 20
877.1067652259191
 30
0.0
 40
12.5
  0
CIRCLE
  5
C7E
330
C51
100
AcDbEntity
  8
DETAIL
  6
Continuous
 62
     5
100
AcDbCircle
 10
1929.076171640748
 20
877.1067652259191
 30
0.0
 40
4.0
  0
CIRCLE
  5
C7F
330
C51
100
AcDbEntity
  8
DETAIL
  6
Continuous
 62
     5
100
AcDbCircle
 10
745.0761556407478
 20
877.1067652259191
 30
0.0
 40
12.5
  0
CIRCLE
  5
C80
330
C51
100
AcDbEntity
  8
DETAIL
  6
Continuous
 62
     5
100
AcDbCircle
 10
745.0761556407478
 20
877.1067652259191
 30
0.0
 40
4.0
  0
ARC
  5
C81
330
C51
100
AcDbEntity
  8
DETAIL
  6
Continuous
 62
     5
100
AcDbCircle
 10
832.3517166407478
 20
930.1909692259192
 30
0.0
 40
1.199999999999999
100
AcDbArc
 50
304.9999999999974
 51
58.73579000000302
  0
ARC
  5
C82
330
C51
100
AcDbEntity
  8
DETAIL
  6
Continuous
 62
     5
100
AcDbCircle
 10
828.3218756407476
 20
924.4393852259191
 30
0.0
 40
1.199999999999999
100
AcDbArc
 50
124.9999999999974
 51
215.1566890000058
  0
ARC
  5
C83
330
C51
100
AcDbEntity
  8
DETAIL
  6
Continuous
 62
     5
100
AcDbCircle
 10
1187.076163640748
 20
1177.106771225919
 30
0.0
 40
440.0000079999999
100
AcDbArc
 50
215.1566890000058
 51
224.8441640000026
  0
ARC
  5
C84
330
C51
100
AcDbEntity
  8
DETAIL
  6
Continuous
 62
     5
100
AcDbCircle
 10
874.2532716407479
 20
865.9809352259191
 30
0.0
 40
1.199999999999999
100
AcDbArc
 50
315.0
 51
44.84416400000262
  0
ARC
  5
C85
330
C51
100
AcDbEntity
  8
DETAIL
  6
Continuous
 62
     5
100
AcDbCircle
 10
861.8081476407478
 20
853.5358122259193
 30
0.0
 40
1.199999999999999
100
AcDbArc
 50
224.850141999998
 51
315.0
  0
ARC
  5
C86
330
C51
100
AcDbEntity
  8
DETAIL
  6
Continuous
 62
     5
100
AcDbCircle
 10
1187.076163640748
 20
1177.106771225919
 30
0.0
 40
460.0000089999999
100
AcDbArc
 50
215.149079
 51
224.850141999998
  0
ARC
  5
C87
330
C51
100
AcDbEntity
  8
DETAIL
  6
Continuous
 62
     5
100
AcDbCircle
 10
809.9728046407479
 20
911.5912272259192
 30
0.0
 40
1.199999999999999
100
AcDbArc
 50
35.14907900000004
 51
124.9999999999974
  0
ARC
  5
C88
330
C51
100
AcDbEntity
  8
DETAIL
  6
Continuous
 62
     5
100
AcDbCircle
 10
803.1897996407478
 20
909.7715742259191
 30
0.0
 40
1.199999999999999
100
AcDbArc
 50
187.2091419999966
 51
304.9999999999974
  0
ARC
  5
C89
330
C51
100
AcDbEntity
  8
DETAIL
  6
Continuous
 62
     5
100
AcDbCircle
 10
797.9661106407479
 20
951.0683362259191
 30
0.0
 40
1.199999999999999
100
AcDbArc
 50
58.73579000000302
 51
187.2091419999966
  0
ARC
  5
C8A
330
C51
100
AcDbEntity
  8
DETAIL
  6
Continuous
 62
     5
100
AcDbCircle
 10
1691.800610640748
 20
1424.022573225919
 30
0.0
 40
1.199999999999999
100
AcDbArc
 50
124.9999999999974
 51
238.735790000003
  0
ARC
  5
C8B
330
C51
100
AcDbEntity
  8
DETAIL
  6
Continuous
 62
     5
100
AcDbCircle
 10
1695.830451640748
 20
1429.774157225919
 30
0.0
 40
1.199999999999999
100
AcDbArc
 50
304.9999999999974
 51
35.15668900000576
  0
ARC
  5
C8C
330
C51
100
AcDbEntity
  8
DETAIL
  6
Continuous
 62
     5
100
AcDbCircle
 10
1337.076163640748
 20
1177.106771225919
 30
0.0
 40
440.0000079999999
100
AcDbArc
 50
35.15668900000576
 51
44.84416400000262
  0
ARC
  5
C8D
330
C51
100
AcDbEntity
  8
DETAIL
  6
Continuous
 62
     5
100
AcDbCircle
 10
1649.899055640748
 20
1488.232607225919
 30
0.0
 40
1.199999999999999
100
AcDbArc
 50
135.0
 51
224.8441640000026
  0
ARC
  5
C8E
330
C51
100
AcDbEntity
  8
DETAIL
  6
Continuous
 62
     5
100
AcDbCircle
 10
1662.344179640748
 20
1500.677730225919
 30
0.0
 40
1.199999999999999
100
AcDbArc
 50
44.85014199999799
 51
135.0
  0
ARC
  5
C8F
330
C51
100
AcDbEntity
  8
DETAIL
  6
Continuous
 62
     5
100
AcDbCircle
 10
1337.076163640748
 20
1177.106771225919
 30
0.0
 40
460.0000089999999
100
AcDbArc
 50
35.14907900000004
 51
44.85014199999799
  0
ARC
  5
C90
330
C51
100
AcDbEntity
  8
DETAIL
  6
Continuous
 62
     5
100
AcDbCircle
 10
1714.179522640748
 20
1442.622315225919
 30
0.0
 40
1.199999999999999
100
AcDbArc
 50
215.149079
 51
304.9999999999974
  0
ARC
  5
C91
330
C51
100
AcDbEntity
  8
DETAIL
  6
Continuous
 62
     5
100
AcDbCircle
 10
1720.962527640748
 20
1444.441968225919
 30
0.0
 40
1.199999999999999
100
AcDbArc
 50
7.209141999996574
 51
124.9999999999974
  0
ARC
  5
C92
330
C51
100
AcDbEntity
  8
DETAIL
  6
Continuous
 62
     5
100
AcDbCircle
 10
1726.186216640748
 20
1403.145206225919
 30
0.0
 40
1.199999999999999
100
AcDbArc
 50
238.735790000003
 51
7.209141999996574
  0
LINE
  5
C93
330
C51
100
AcDbEntity
  8
DETAIL
  6
Continuous
 62
     5
100
AcDbLine
 10
1945.904599640748
 20
844.9351922259191
 30
0.0
 11
1899.247743640748
 21
798.2783372259191
 31
0.0
  0
LINE
  5
C94
330
C51
100
AcDbEntity
  8
DETAIL
  6
Continuous
 62
     5
100
AcDbLine
 10
1727.376730640748
 20
1403.295796225919
 30
0.0
 11
1722.153041640748
 21
1444.592557225919
 31
0.0
  0
LINE
  5
C95
330
C51
100
AcDbEntity
  8
DETAIL
  6
Continuous
 62
     5
100
AcDbLine
 10
1691.177828640748
 20
1422.996834225919
 30
0.0
 11
1725.563434640748
 21
1402.119466225919
 31
0.0
  0
LINE
  5
C96
330
C51
100
AcDbEntity
  8
DETAIL
  6
Continuous
 62
     5
100
AcDbLine
 10
827.6335836407477
 20
925.4223672259191
 30
0.0
 11
833.0400086407477
 21
929.2079862259191
 31
0.0
  0
LINE
  5
C97
330
C51
100
AcDbEntity
  8
DETAIL
  6
Continuous
 62
     5
100
AcDbLine
 10
803.8780906407477
 20
908.7885922259191
 30
0.0
 11
809.2845126407478
 21
912.5742092259191
 31
0.0
  0
LINE
  5
C98
330
C51
100
AcDbEntity
  8
DETAIL
  6
Continuous
 62
     5
100
AcDbLine
 10
1696.518743640748
 20
1428.791175225919
 30
0.0
 11
1691.112318640748
 21
1425.005556225919
 31
0.0
  0
LINE
  5
C99
330
C51
100
AcDbEntity
  8
DETAIL
  6
Continuous
 62
     5
100
AcDbLine
 10
1720.274236640747
 20
1445.424950225919
 30
0.0
 11
1714.867814640748
 21
1441.639333225919
 31
0.0
  0
LINE
  5
C9A
330
C51
100
AcDbEntity
  8
DETAIL
  6
Continuous
 62
     5
100
AcDbLine
 10
862.6566756407479
 20
852.6872832259192
 30
0.0
 11
875.1017996407476
 21
865.1324072259191
 31
0.0
  0
LINE
  5
C9B
330
C51
100
AcDbEntity
  8
DETAIL
  6
Continuous
 62
     5
100
AcDbLine
 10
1661.495651640748
 20
1501.526259225919
 30
0.0
 11
1649.050527640748
 21
1489.081135225919
 31
0.0
  0
LINE
  5
C9C
330
C51
100
AcDbEntity
  8
DETAIL
  6
Continuous
 62
     5
100
AcDbLine
 10
777.7330106407478
 20
797.1067642259192
 30
0.0
 11
1896.419316640748
 21
797.1067642259192
 31
0.0
  0
LINE
  5
C9D
330
C51
100
AcDbEntity
  8
DETAIL
  6
Continuous
 62
     5
100
AcDbLine
 10
796.7755966407478
 20
950.9177462259192
 30
0.0
 11
801.999285640748
 21
909.6209852259191
 31
0.0
  0
LINE
  5
C9E
330
C51
100
AcDbEntity
  8
DETAIL
  6
Continuous
 62
     5
100
AcDbLine
 10
832.9744986407476
 20
931.2167082259191
 30
0.0
 11
798.5888926407477
 21
952.0940762259192
 31
0.0
  0
LINE
  5
C9F
330
C51
100
AcDbEntity
  8
DETAIL
  6
Continuous
 62
     5
100
AcDbLine
 10
774.9045836407476
 20
798.2783372259191
 30
0.0
 11
728.2477276407478
 21
844.9351922259191
 31
0.0
  0
LINE
  5
CA0
330
C51
100
AcDbEntity
  8
DETAIL
  6
Continuous
 62
     5
100
AcDbLine
 10
774.9045836407476
 20
1555.935205225919
 30
0.0
 11
728.2477276407478
 21
1509.278350225919
 31
0.0
  0
LINE
  5
CA1
330
C51
100
AcDbEntity
  8
DETAIL
  6
Continuous
 62
     5
100
AcDbLine
 10
777.7330106407478
 20
1557.106778225919
 30
0.0
 11
1896.419316640748
 21
1557.106778225919
 31
0.0
  0
LINE
  5
CA2
330
C51
100
AcDbEntity
  8
DETAIL
  6
Continuous
 62
     5
100
AcDbLine
 10
1945.904599640748
 20
1509.278350225919
 30
0.0
 11
1899.247743640748
 21
1555.935205225919
 31
0.0
  0
ARC
  5
CA3
330
C51
100
AcDbEntity
  8
DETAIL
  6
Continuous
 62
     5
100
AcDbCircle
 10
1896.419316640748
 20
1553.106778225919
 30
0.0
 40
4.0
100
AcDbArc
 50
45.0
 51
90.0
  0
ARC
  5
CA4
330
C51
100
AcDbEntity
  8
DETAIL
  6
Continuous
 62
     5
100
AcDbCircle
 10
777.7330106407478
 20
1553.106778225919
 30
0.0
 40
4.0
100
AcDbArc
 50
90.0
 51
135.0
  0
ARC
  5
CA5
330
C51
100
AcDbEntity
  8
DETAIL
  6
Continuous
 62
     5
100
AcDbCircle
 10
1943.076171640748
 20
1506.449923225919
 30
0.0
 40
4.0
100
AcDbArc
 50
0.0
 51
45.0
  0
ARC
  5
CA6
330
C51
100
AcDbEntity
  8
DETAIL
  6
Continuous
 62
     5
100
AcDbCircle
 10
731.0761556407478
 20
1506.449923225919
 30
0.0
 40
4.0
100
AcDbArc
 50
135.0
 51
180.0
  0
LINE
  5
CA7
330
C51
100
AcDbEntity
  8
DETAIL
  6
Continuous
 62
     5
100
AcDbLine
 10
1947.076172640748
 20
1506.449923225919
 30
0.0
 11
1947.076172640748
 21
847.7636192259192
 31
0.0
  0
LINE
  5
CA8
330
C51
100
AcDbEntity
  8
DETAIL
  6
Continuous
 62
     5
100
AcDbLine
 10
727.0761546407477
 20
1506.449923225919
 30
0.0
 11
727.0761546407477
 21
847.7636192259192
 31
0.0
  0
LINE
  5
CA9
330
C51
100
AcDbEntity
  8
BASIS
  6
DASHDOT
 62
     6
100
AcDbLine
 10
646.5658386407478
 20
1177.106771225919
 30
0.0
 11
2029.008278640748
 21
1177.106771225919
 31
0.0
  0
LINE
  5
CAA
330
C51
100
AcDbEntity
  8
BASIS
  6
DASHDOT
 62
     6
100
AcDbLine
 10
1337.076163640748
 20
730.6231842259192
 30
0.0
 11
1337.076163640748
 21
1623.590358225919
 31
0.0
  0
TEXT
  5
CAB
330
C51
100
AcDbEntity
  8
NOTE
  6
Continuous
 62
     4
100
AcDbText
 10
565.1367556407478
 20
1117.986883225919
 30
0.0
 40
55.0
  1
吸込
 50
0.000003
 41
0.703125
  7
STANDARD1
100
AcDbText
  0
TEXT
  5
CAC
330
C51
100
AcDbEntity
  8
NOTE
  6
Continuous
 62
     4
100
AcDbText
 10
565.1367556407478
 20
1185.343211225919
 30
0.0
 40
55.0
  1
空気
 50
0.000003
 41
0.703125
  7
STANDARD1
100
AcDbText
  0
LINE
  5
CAD
330
C51
100
AcDbEntity
  8
NOTE
  6
Continuous
 62
     4
100
AcDbLine
 10
567.7092486407477
 20
1308.722671225919
 30
0.0
 11
567.7092486407477
 21
1358.722672225919
 31
0.0
  0
LINE
  5
CAE
330
C51
100
AcDbEntity
  8
NOTE
  6
Continuous
 62
     4
100
AcDbLine
 10
608.3953366407479
 20
1358.722672225919
 30
0.0
 11
567.7092486407477
 21
1358.722672225919
 31
0.0
  0
LINE
  5
CAF
330
C51
100
AcDbEntity
  8
NOTE
  6
Continuous
 62
     4
100
AcDbLine
 10
608.3953366407479
 20
1308.722671225919
 30
0.0
 11
567.7092486407477
 21
1308.722671225919
 31
0.0
  0
LINE
  5
CB0
330
C51
100
AcDbEntity
  8
NOTE
  6
Continuous
 62
     4
100
AcDbLine
 10
608.3953366407479
 20
1308.722671225919
 30
0.0
 11
608.3953366407479
 21
1283.722670225919
 31
0.0
  0
LINE
  5
CB1
330
C51
100
AcDbEntity
  8
NOTE
  6
Continuous
 62
     4
100
AcDbLine
 10
608.3953366407479
 20
1383.722672225919
 30
0.0
 11
608.3953366407479
 21
1358.722672225919
 31
0.0
  0
LINE
  5
CB2
330
C51
100
AcDbEntity
  8
NOTE
  6
Continuous
 62
     4
100
AcDbLine
 10
608.3953366407479
 20
1383.722672225919
 30
0.0
 11
658.2913826407478
 21
1333.722671225919
 31
0.0
  0
LINE
  5
CB3
330
C51
100
AcDbEntity
  8
NOTE
  6
Continuous
 62
     4
100
AcDbLine
 10
658.2913826407478
 20
1333.722671225919
 30
0.0
 11
608.3953366407479
 21
1283.722670225919
 31
0.0
  0
LINE
  5
CB4
330
C51
100
AcDbEntity
  8
NOTE
  6
Continuous
 62
     4
100
AcDbLine
 10
609.0477826407477
 20
1000.560565225919
 30
0.0
 11
609.0477826407477
 21
975.5605652259191
 31
0.0
  0
LINE
  5
CB5
330
C51
100
AcDbEntity
  8
NOTE
  6
Continuous
 62
     4
100
AcDbLine
 10
658.9438286407478
 20
1025.560566225919
 30
0.0
 11
609.0477826407477
 21
975.5605652259191
 31
0.0
  0
LINE
  5
CB6
330
C51
100
AcDbEntity
  8
NOTE
  6
Continuous
 62
     4
100
AcDbLine
 10
609.0477826407477
 20
1075.560566225919
 30
0.0
 11
658.9438286407478
 21
1025.560566225919
 31
0.0
  0
LINE
  5
CB7
330
C51
100
AcDbEntity
  8
NOTE
  6
Continuous
 62
     4
100
AcDbLine
 10
609.0477826407477
 20
1000.560565225919
 30
0.0
 11
568.3616936407479
 21
1000.560565225919
 31
0.0
  0
LINE
  5
CB8
330
C51
100
AcDbEntity
  8
NOTE
  6
Continuous
 62
     4
100
AcDbLine
 10
609.0477826407477
 20
1050.560566225919
 30
0.0
 11
568.3616936407479
 21
1050.560566225919
 31
0.0
  0
LINE
  5
CB9
330
C51
100
AcDbEntity
  8
NOTE
  6
Continuous
 62
     4
100
AcDbLine
 10
568.3616936407479
 20
1000.560565225919
 30
0.0
 11
568.3616936407479
 21
1050.560566225919
 31
0.0
  0
LINE
  5
CBA
330
C51
100
AcDbEntity
  8
NOTE
  6
Continuous
 62
     4
100
AcDbLine
 10
609.0477826407477
 20
1075.560566225919
 30
0.0
 11
609.0477826407477
 21
1050.560566225919
 31
0.0
  0
ARC
  5
CBB
330
C51
100
AcDbEntity
  8
OUTLINE
  6
Continuous
 62
     3
100
AcDbCircle
 10
731.0761556407478
 20
847.7636192259192
 30
0.0
 40
4.0
100
AcDbArc
 50
180.0
 51
225.0
  0
ARC
  5
CBC
330
C51
100
AcDbEntity
  8
OUTLINE
  6
Continuous
 62
     3
100
AcDbCircle
 10
777.7330106407478
 20
801.1067642259192
 30
0.0
 40
4.0
100
AcDbArc
 50
225.0
 51
270.0
  0
ARC
  5
CBD
330
C51
100
AcDbEntity
  8
OUTLINE
  6
Continuous
 62
     3
100
AcDbCircle
 10
1943.076171640748
 20
847.7636192259192
 30
0.0
 40
4.0
100
AcDbArc
 50
315.0
 51
0.0
  0
ARC
  5
CBE
330
C51
100
AcDbEntity
  8
OUTLINE
  6
Continuous
 62
     3
100
AcDbCircle
 10
1896.419316640748
 20
801.1067642259192
 30
0.0
 40
4.0
100
AcDbArc
 50
270.0
 51
315.0
  0
LINE
  5
CBF
330
C51
100
AcDbEntity
  8
OUTLINE
  6
Continuous
 62
     3
100
AcDbLine
 10
1945.904599640748
 20
844.9351922259191
 30
0.0
 11
1899.247743640748
 21
798.2783372259191
 31
0.0
  0
LINE
  5
CC0
330
C51
100
AcDbEntity
  8
OUTLINE
  6
Continuous
 62
     3
100
AcDbLine
 10
777.7330106407478
 20
797.1067642259192
 30
0.0
 11
1896.419316640748
 21
797.1067642259192
 31
0.0
  0
LINE
  5
CC1
330
C51
100
AcDbEntity
  8
OUTLINE
  6
Continuous
 62
     3
100
AcDbLine
 10
774.9045836407476
 20
798.2783372259191
 30
0.0
 11
728.2477276407478
 21
844.9351922259191
 31
0.0
  0
LINE
  5
CC2
330
C51
100
AcDbEntity
  8
OUTLINE
  6
Continuous
 62
     3
100
AcDbLine
 10
774.9045836407476
 20
1555.935205225919
 30
0.0
 11
728.2477276407478
 21
1509.278350225919
 31
0.0
  0
LINE
  5
CC3
330
C51
100
AcDbEntity
  8
OUTLINE
  6
Continuous
 62
     3
100
AcDbLine
 10
777.7330106407478
 20
1557.106778225919
 30
0.0
 11
1896.419316640748
 21
1557.106778225919
 31
0.0
  0
LINE
  5
CC4
330
C51
100
AcDbEntity
  8
OUTLINE
  6
Continuous
 62
     3
100
AcDbLine
 10
1945.904599640748
 20
1509.278350225919
 30
0.0
 11
1899.247743640748
 21
1555.935205225919
 31
0.0
  0
ARC
  5
CC5
330
C51
100
AcDbEntity
  8
OUTLINE
  6
Continuous
 62
     3
100
AcDbCircle
 10
1896.419316640748
 20
1553.106778225919
 30
0.0
 40
4.0
100
AcDbArc
 50
45.0
 51
90.0
  0
ARC
  5
CC6
330
C51
100
AcDbEntity
  8
OUTLINE
  6
Continuous
 62
     3
100
AcDbCircle
 10
777.7330106407478
 20
1553.106778225919
 30
0.0
 40
4.0
100
AcDbArc
 50
90.0
 51
135.0
  0
ARC
  5
CC7
330
C51
100
AcDbEntity
  8
OUTLINE
  6
Continuous
 62
     3
100
AcDbCircle
 10
1943.076171640748
 20
1506.449923225919
 30
0.0
 40
4.0
100
AcDbArc
 50
0.0
 51
45.0
  0
ARC
  5
CC8
330
C51
100
AcDbEntity
  8
OUTLINE
  6
Continuous
 62
     3
100
AcDbCircle
 10
731.0761556407478
 20
1506.449923225919
 30
0.0
 40
4.0
100
AcDbArc
 50
135.0
 51
180.0
  0
LINE
  5
CC9
330
C51
100
AcDbEntity
  8
OUTLINE
  6
Continuous
 62
     3
100
AcDbLine
 10
1947.076172640748
 20
1506.449923225919
 30
0.0
 11
1947.076172640748
 21
847.7636192259192
 31
0.0
  0
LINE
  5
CCA
330
C51
100
AcDbEntity
  8
OUTLINE
  6
Continuous
 62
     3
100
AcDbLine
 10
727.0761546407477
 20
1506.449923225919
 30
0.0
 11
727.0761546407477
 21
847.7636192259192
 31
0.0
  0
LINE
  5
CCB
330
C51
100
AcDbEntity
  8
NOTE
  6
Continuous
 62
     4
100
AcDbLine
 10
1028.076159640748
 20
922.3567642259192
 30
0.0
 11
1028.076159640748
 21
961.8567642259192
 31
0.0
  0
LINE
  5
CCC
330
C51
100
AcDbEntity
  8
NOTE
  6
Continuous
 62
     4
100
AcDbLine
 10
1047.826159640748
 20
942.1067642259192
 30
0.0
 11
1008.326159640748
 21
942.1067642259192
 31
0.0
  0
LINE
  5
CCD
330
C51
100
AcDbEntity
  8
NOTE
  6
Continuous
 62
     4
100
AcDbLine
 10
1111.076161640748
 20
911.1067632259191
 30
0.0
 11
1111.076161640748
 21
967.1067642259192
 31
0.0
  0
LINE
  5
CCE
330
C51
100
AcDbEntity
  8
NOTE
  6
Continuous
 62
     4
100
AcDbLine
 10
1139.076161640748
 20
939.1067642259191
 30
0.0
 11
1083.076160640748
 21
939.1067642259191
 31
0.0
  0
LINE
  5
CCF
330
C51
100
AcDbEntity
  8
NOTE
  6
Continuous
 62
     4
100
AcDbLine
 10
1028.076170640748
 20
942.1067542259192
 30
0.0
 11
1053.948269640748
 21
921.089008225919
 31
0.0
  0
LINE
  5
CD0
330
C51
100
AcDbEntity
  8
NOTE
  6
Continuous
 62
     4
100
AcDbLine
 10
1028.076170640748
 20
942.1067542259192
 30
0.0
 11
1039.973192640747
 21
910.9688032259191
 31
0.0
  0
LINE
  5
CD1
330
C51
100
AcDbEntity
  8
NOTE
  6
Continuous
 62
     4
100
AcDbLine
 10
1334.049100640748
 20
519.5861422259191
 30
0.0
 11
1028.076170640748
 21
942.1067542259192
 31
0.0
  0
LINE
  5
CD2
330
C51
100
AcDbEntity
  8
NOTE
  6
Continuous
 62
     4
100
AcDbLine
 10
1111.076173640748
 20
939.1067282259191
 30
0.0
 11
1139.988547640748
 21
922.518003225919
 31
0.0
  0
LINE
  5
CD3
330
C51
100
AcDbEntity
  8
NOTE
  6
Continuous
 62
     4
100
AcDbLine
 10
1111.076173640748
 20
939.1067282259191
 30
0.0
 11
1127.820660640748
 21
910.2842842259191
 31
0.0
  0
LINE
  5
CD4
330
C51
100
AcDbEntity
  8
NOTE
  6
Continuous
 62
     4
100
AcDbLine
 10
1410.047605640748
 20
641.744135225919
 30
0.0
 11
1111.076173640748
 21
939.1067282259191
 31
0.0
  0
TEXT
  5
CD5
330
C51
100
AcDbEntity
  8
NOTE
  6
Continuous
 62
     4
100
AcDbText
 10
1343.588687640748
 20
532.1496512259191
 30
0.0
 40
55.0
  1
RL2 %%C15.88
 50
0.000003
 41
0.6309520000000001
  7
STANDARD1
100
AcDbText
  0
LINE
  5
CD6
330
C51
100
AcDbEntity
  8
NOTE
  6
Continuous
 62
     4
100
AcDbLine
 10
1334.049100640748
 20
519.5861422259191
 30
0.0
 11
1647.657172640748
 21
519.5861422259191
 31
0.0
  0
TEXT
  5
CD7
330
C51
100
AcDbEntity
  8
NOTE
  6
Continuous
 62
     4
100
AcDbText
 10
1418.097990640748
 20
657.6866392259191
 30
0.0
 40
55.0
  1
RG2 %%C28.58
 50
0.000003
 41
0.6309520000000001
  7
STANDARD1
100
AcDbText
  0
LINE
  5
CD8
330
C51
100
AcDbEntity
  8
NOTE
  6
Continuous
 62
     4
100
AcDbLine
 10
1410.047605640748
 20
641.744135225919
 30
0.0
 11
1723.655677640748
 21
641.744135225919
 31
0.0
  0
LINE
  5
CD9
330
C51
100
AcDbEntity
  8
SIZE
  6
Continuous
 62
    30
100
AcDbLine
 10
727.0761546407477
 20
807.7636192259191
 30
0.0
 11
727.0761546407477
 21
521.758759225919
 31
0.0
  0
LINE
  5
CDA
330
C51
100
AcDbEntity
  8
SIZE
  6
Continuous
 62
    30
100
AcDbLine
 10
1028.076159640748
 20
907.3567642259192
 30
0.0
 11
1028.076159640748
 21
521.758759225919
 31
0.0
  0
LINE
  5
CDB
330
C51
100
AcDbEntity
  8
SIZE
  6
Continuous
 62
    30
100
AcDbLine
 10
737.0761546407477
 20
551.758759225919
 30
0.0
 11
1018.076159640748
 21
551.758759225919
 31
0.0
  0
CIRCLE
  5
CDC
330
C51
100
AcDbEntity
  8
SIZE
  6
Continuous
 62
    30
100
AcDbCircle
 10
727.0761546407477
 20
551.758759225919
 30
0.0
 40
5.0
  0
LINE
  5
CDD
330
C51
100
AcDbEntity
  8
SIZE
  6
Continuous
 62
    30
100
AcDbLine
 10
732.0761546407477
 20
551.758759225919
 30
0.0
 11
737.0761546407477
 21
551.758759225919
 31
0.0
  0
CIRCLE
  5
CDE
330
C51
100
AcDbEntity
  8
SIZE
  6
Continuous
 62
    30
100
AcDbCircle
 10
1028.076159640748
 20
551.758759225919
 30
0.0
 40
5.0
  0
LINE
  5
CDF
330
C51
100
AcDbEntity
  8
SIZE
  6
Continuous
 62
    30
100
AcDbLine
 10
1023.076159640748
 20
551.758759225919
 30
0.0
 11
1018.076159640748
 21
551.758759225919
 31
0.0
  0
TEXT
  5
CE0
330
C51
100
AcDbEntity
  8
SIZE
  6
Continuous
 62
    30
100
AcDbText
 10
813.9333004978906
 20
566.7587592259191
 30
0.0
 40
55.0
  1
301
 41
0.9
 72
     1
 11
877.5761576407479
 21
566.7587592259191
 31
0.0
100
AcDbText
  0
POINT
  5
CE1
330
C51
100
AcDbEntity
  8
Defpoints
  6
Continuous
 62
     7
100
AcDbPoint
 10
727.0761546407477
 20
827.7636192259192
 30
0.0
  0
POINT
  5
CE2
330
C51
100
AcDbEntity
  8
Defpoints
  6
Continuous
 62
     7
100
AcDbPoint
 10
1028.076159640748
 20
927.3567642259191
 30
0.0
  0
POINT
  5
CE3
330
C51
100
AcDbEntity
  8
Defpoints
  6
Continuous
 62
     7
100
AcDbPoint
 10
1028.076159640748
 20
551.758759225919
 30
0.0
  0
LINE
  5
CE4
330
C51
100
AcDbEntity
  8
SIZE
  6
Continuous
 62
    30
100
AcDbLine
 10
1028.076159640748
 20
907.3567642259192
 30
0.0
 11
1028.076159640748
 21
521.758759225919
 31
0.0
  0
LINE
  5
CE5
330
C51
100
AcDbEntity
  8
SIZE
  6
Continuous
 62
    30
100
AcDbLine
 10
1111.076161640748
 20
891.1067632259191
 30
0.0
 11
1111.076161640748
 21
521.758759225919
 31
0.0
  0
LINE
  5
CE6
330
C51
100
AcDbEntity
  8
SIZE
  6
Continuous
 62
    30
100
AcDbLine
 10
1018.076159640748
 20
551.758759225919
 30
0.0
 11
1008.076159640748
 21
551.758759225919
 31
0.0
  0
LINE
  5
CE7
330
C51
100
AcDbEntity
  8
SIZE
  6
Continuous
 62
    30
100
AcDbLine
 10
1121.076161640748
 20
551.758759225919
 30
0.0
 11
1131.076161640748
 21
551.758759225919
 31
0.0
  0
LINE
  5
CE8
330
C51
100
AcDbEntity
  8
SIZE
  6
Continuous
 62
    30
100
AcDbLine
 10
1028.076159640748
 20
551.758759225919
 30
0.0
 11
1111.076161640748
 21
551.758759225919
 31
0.0
  0
CIRCLE
  5
CE9
330
C51
100
AcDbEntity
  8
SIZE
  6
Continuous
 62
    30
100
AcDbCircle
 10
1028.076159640748
 20
551.758759225919
 30
0.0
 40
5.0
  0
LINE
  5
CEA
330
C51
100
AcDbEntity
  8
SIZE
  6
Continuous
 62
    30
100
AcDbLine
 10
1023.076159640748
 20
551.758759225919
 30
0.0
 11
1018.076159640748
 21
551.758759225919
 31
0.0
  0
CIRCLE
  5
CEB
330
C51
100
AcDbEntity
  8
SIZE
  6
Continuous
 62
    30
100
AcDbCircle
 10
1111.076161640748
 20
551.758759225919
 30
0.0
 40
5.0
  0
LINE
  5
CEC
330
C51
100
AcDbEntity
  8
SIZE
  6
Continuous
 62
    30
100
AcDbLine
 10
1116.076161640748
 20
551.758759225919
 30
0.0
 11
1121.076161640748
 21
551.758759225919
 31
0.0
  0
TEXT
  5
CED
330
C51
100
AcDbEntity
  8
SIZE
  6
Continuous
 62
    30
100
AcDbText
 10
1022.433303497891
 20
566.7587592259191
 30
0.0
 40
55.0
  1
83
 41
0.9
 72
     1
 11
1069.576160640748
 21
566.7587592259191
 31
0.0
100
AcDbText
  0
POINT
  5
CEE
330
C51
100
AcDbEntity
  8
Defpoints
  6
Continuous
 62
     7
100
AcDbPoint
 10
1028.076159640748
 20
927.3567642259191
 30
0.0
  0
POINT
  5
CEF
330
C51
100
AcDbEntity
  8
Defpoints
  6
Continuous
 62
     7
100
AcDbPoint
 10
1111.076161640748
 20
911.1067632259191
 30
0.0
  0
POINT
  5
CF0
330
C51
100
AcDbEntity
  8
Defpoints
  6
Continuous
 62
     7
100
AcDbPoint
 10
1111.076161640748
 20
551.758759225919
 30
0.0
  0
LINE
  5
CF1
330
C51
100
AcDbEntity
  8
SIZE
  6
Continuous
 62
    30
100
AcDbLine
 10
1063.076160640748
 20
939.1067642259191
 30
0.0
 11
614.1671686407478
 21
939.1067642259191
 31
0.0
  0
LINE
  5
CF2
330
C51
100
AcDbEntity
  8
SIZE
  6
Continuous
 62
    30
100
AcDbLine
 10
757.7330106407478
 20
797.1067642259192
 30
0.0
 11
614.1671686407478
 21
797.1067642259192
 31
0.0
  0
LINE
  5
CF3
330
C51
100
AcDbEntity
  8
SIZE
  6
Continuous
 62
    30
100
AcDbLine
 10
644.1671686407478
 20
929.1067642259191
 30
0.0
 11
644.1671686407478
 21
807.106764225919
 31
0.0
  0
LINE
  5
CF4
330
C51
100
AcDbEntity
  8
SIZE
  6
Continuous
 62
    30
100
AcDbLine
 10
644.1671686407478
 20
797.1067642259192
 30
0.0
 11
644.1671686407478
 21
628.3716572259192
 31
0.0
  0
CIRCLE
  5
CF5
330
C51
100
AcDbEntity
  8
SIZE
  6
Continuous
 62
    30
100
AcDbCircle
 10
644.1671686407478
 20
939.1067642259191
 30
0.0
 40
5.0
  0
LINE
  5
CF6
330
C51
100
AcDbEntity
  8
SIZE
  6
Continuous
 62
    30
100
AcDbLine
 10
644.1671686407478
 20
934.1067642259192
 30
0.0
 11
644.1671686407478
 21
929.1067642259191
 31
0.0
  0
CIRCLE
  5
CF7
330
C51
100
AcDbEntity
  8
SIZE
  6
Continuous
 62
    30
100
AcDbCircle
 10
644.1671686407478
 20
797.1067642259192
 30
0.0
 40
5.0
  0
LINE
  5
CF8
330
C51
100
AcDbEntity
  8
SIZE
  6
Continuous
 62
    30
100
AcDbLine
 10
644.1671686407478
 20
802.1067642259191
 30
0.0
 11
644.1671686407478
 21
807.106764225919
 31
0.0
  0
TEXT
  5
CF9
330
C51
100
AcDbEntity
  8
SIZE
  6
Continuous
 62
    30
100
AcDbText
 10
629.1671686407478
 20
628.0502282259192
 30
0.0
 40
55.0
  1
142
 50
90.0
 41
0.9
 72
     1
 11
629.1671686407478
 21
702.3002282259191
 31
0.0
100
AcDbText
  0
POINT
  5
CFA
330
C51
100
AcDbEntity
  8
Defpoints
  6
Continuous
 62
     7
100
AcDbPoint
 10
1083.076160640748
 20
939.1067642259191
 30
0.0
  0
POINT
  5
CFB
330
C51
100
AcDbEntity
  8
Defpoints
  6
Continuous
 62
     7
100
AcDbPoint
 10
777.7330106407478
 20
797.1067642259192
 30
0.0
  0
POINT
  5
CFC
330
C51
100
AcDbEntity
  8
Defpoints
  6
Continuous
 62
     7
100
AcDbPoint
 10
644.1671686407478
 20
797.1067642259192
 30
0.0
  0
LINE
  5
CFD
330
C51
100
AcDbEntity
  8
SIZE
  6
Continuous
 62
    30
100
AcDbLine
 10
988.3261596407479
 20
942.1067642259192
 30
0.0
 11
516.0860406407477
 21
942.1067642259192
 31
0.0
  0
LINE
  5
CFE
330
C51
100
AcDbEntity
  8
SIZE
  6
Continuous
 62
    30
100
AcDbLine
 10
737.7330106407478
 20
797.1067642259192
 30
0.0
 11
516.0860406407477
 21
797.1067642259192
 31
0.0
  0
LINE
  5
CFF
330
C51
100
AcDbEntity
  8
SIZE
  6
Continuous
 62
    30
100
AcDbLine
 10
546.0860406407477
 20
932.1067642259192
 30
0.0
 11
546.0860406407477
 21
807.106764225919
 31
0.0
  0
LINE
  5
D00
330
C51
100
AcDbEntity
  8
SIZE
  6
Continuous
 62
    30
100
AcDbLine
 10
546.0860406407477
 20
797.1067642259192
 30
0.0
 11
546.0860406407477
 21
639.2496212259191
 31
0.0
  0
CIRCLE
  5
D01
330
C51
100
AcDbEntity
  8
SIZE
  6
Continuous
 62
    30
100
AcDbCircle
 10
546.0860406407477
 20
942.1067642259192
 30
0.0
 40
5.0
  0
LINE
  5
D02
330
C51
100
AcDbEntity
  8
SIZE
  6
Continuous
 62
    30
100
AcDbLine
 10
546.0860406407477
 20
937.1067642259191
 30
0.0
 11
546.0860406407477
 21
932.1067642259192
 31
0.0
  0
CIRCLE
  5
D03
330
C51
100
AcDbEntity
  8
SIZE
  6
Continuous
 62
    30
100
AcDbCircle
 10
546.0860406407477
 20
797.1067642259192
 30
0.0
 40
5.0
  0
LINE
  5
D04
330
C51
100
AcDbEntity
  8
SIZE
  6
Continuous
 62
    30
100
AcDbLine
 10
546.0860406407477
 20
802.1067642259191
 30
0.0
 11
546.0860406407477
 21
807.106764225919
 31
0.0
  0
TEXT
  5
D05
330
C51
100
AcDbEntity
  8
SIZE
  6
Continuous
 62
    30
100
AcDbText
 10
531.0860406407478
 20
638.9281932259191
 30
0.0
 40
55.0
  1
145
 50
90.0
 41
0.9
 72
     1
 11
531.0860406407478
 21
713.1781932259191
 31
0.0
100
AcDbText
  0
POINT
  5
D06
330
C51
100
AcDbEntity
  8
Defpoints
  6
Continuous
 62
     7
100
AcDbPoint
 10
1008.326159640748
 20
942.1067642259192
 30
0.0
  0
POINT
  5
D07
330
C51
100
AcDbEntity
  8
Defpoints
  6
Continuous
 62
     7
100
AcDbPoint
 10
757.7330106407478
 20
797.1067642259192
 30
0.0
  0
POINT
  5
D08
330
C51
100
AcDbEntity
  8
Defpoints
  6
Continuous
 62
     7
100
AcDbPoint
 10
546.0860406407477
 20
797.1067642259192
 30
0.0
  0
TEXT
  5
D09
330
C51
100
AcDbEntity
  8
NOTE
  6
Continuous
 62
     4
100
AcDbText
 10
-1.779519359251935
 20
1638.202021225919
 30
0.0
 40
55.0
  1
＜防雪ﾌ-ﾄﾞ（別売品）取付用穴＞
 50
0.000003
 41
0.638665
  7
STANDARD1
100
AcDbText
  0
TEXT
  5
D0A
330
C51
100
AcDbEntity
  8
NOTE
  6
Continuous
 62
     4
100
AcDbText
 10
8.426430640748094
 20
1716.165813225919
 30
0.0
 40
55.0
  1
(樹脂部の開口加工必要）
 50
0.000003
 41
0.693662
  7
STANDARD1
100
AcDbText
  0
TEXT
  5
D0B
330
C51
100
AcDbEntity
  8
NOTE
  6
Continuous
 62
     4
100
AcDbText
 10
8.426430640748094
 20
1786.165815225919
 30
0.0
 40
55.0
  1
2X5-φ4.6穴
 50
0.000003
 41
0.603058
  7
STANDARD1
100
AcDbText
  0
LINE
  5
D0C
330
C51
100
AcDbEntity
  8
SIZE
  6
Continuous
 62
    30
100
AcDbLine
 10
696.0761746407476
 20
1477.107079225919
 30
0.0
 11
394.4487166407478
 21
1477.107079225919
 31
0.0
  0
LINE
  5
D0D
330
C51
100
AcDbEntity
  8
SIZE
  6
Continuous
 62
    30
100
AcDbLine
 10
696.0761746407476
 20
1327.106832225919
 30
0.0
 11
394.4487166407478
 21
1327.106832225919
 31
0.0
  0
LINE
  5
D0E
330
C51
100
AcDbEntity
  8
SIZE
  6
Continuous
 62
    30
100
AcDbLine
 10
424.4487166407477
 20
1467.107079225919
 30
0.0
 11
424.4487166407477
 21
1337.106832225919
 31
0.0
  0
CIRCLE
  5
D0F
330
C51
100
AcDbEntity
  8
SIZE
  6
Continuous
 62
    30
100
AcDbCircle
 10
424.4487166407477
 20
1477.107079225919
 30
0.0
 40
5.0
  0
LINE
  5
D10
330
C51
100
AcDbEntity
  8
SIZE
  6
Continuous
 62
    30
100
AcDbLine
 10
424.4487166407477
 20
1472.107079225919
 30
0.0
 11
424.4487166407477
 21
1467.107079225919
 31
0.0
  0
CIRCLE
  5
D11
330
C51
100
AcDbEntity
  8
SIZE
  6
Continuous
 62
    30
100
AcDbCircle
 10
424.4487166407477
 20
1327.106832225919
 30
0.0
 40
5.0
  0
LINE
  5
D12
330
C51
100
AcDbEntity
  8
SIZE
  6
Continuous
 62
    30
100
AcDbLine
 10
424.4487166407477
 20
1332.106832225919
 30
0.0
 11
424.4487166407477
 21
1337.106832225919
 31
0.0
  0
TEXT
  5
D13
330
C51
100
AcDbEntity
  8
SIZE
  6
Continuous
 62
    30
100
AcDbText
 10
409.4487166407478
 20
1327.856955225919
 30
0.0
 40
55.0
  1
150
 50
90.0
 41
0.9
 72
     1
 11
409.4487166407478
 21
1402.106955225919
 31
0.0
100
AcDbText
  0
POINT
  5
D14
330
C51
100
AcDbEntity
  8
Defpoints
  6
Continuous
 62
     7
100
AcDbPoint
 10
716.0761746407477
 20
1477.107079225919
 30
0.0
  0
POINT
  5
D15
330
C51
100
AcDbEntity
  8
Defpoints
  6
Continuous
 62
     7
100
AcDbPoint
 10
716.0761746407477
 20
1327.106832225919
 30
0.0
  0
POINT
  5
D16
330
C51
100
AcDbEntity
  8
Defpoints
  6
Continuous
 62
     7
100
AcDbPoint
 10
424.4487166407477
 20
1327.106832225919
 30
0.0
  0
LINE
  5
D17
330
C51
100
AcDbEntity
  8
SIZE
  6
Continuous
 62
    30
100
AcDbLine
 10
696.0761746407476
 20
1327.106832225919
 30
0.0
 11
394.4487166407478
 21
1327.106832225919
 31
0.0
  0
LINE
  5
D18
330
C51
100
AcDbEntity
  8
SIZE
  6
Continuous
 62
    30
100
AcDbLine
 10
696.0761746407476
 20
1177.106951225919
 30
0.0
 11
394.4487166407478
 21
1177.106951225919
 31
0.0
  0
LINE
  5
D19
330
C51
100
AcDbEntity
  8
SIZE
  6
Continuous
 62
    30
100
AcDbLine
 10
424.4487166407477
 20
1317.106832225919
 30
0.0
 11
424.4487166407477
 21
1187.106951225919
 31
0.0
  0
CIRCLE
  5
D1A
330
C51
100
AcDbEntity
  8
SIZE
  6
Continuous
 62
    30
100
AcDbCircle
 10
424.4487166407477
 20
1327.106832225919
 30
0.0
 40
5.0
  0
LINE
  5
D1B
330
C51
100
AcDbEntity
  8
SIZE
  6
Continuous
 62
    30
100
AcDbLine
 10
424.4487166407477
 20
1322.106832225919
 30
0.0
 11
424.4487166407477
 21
1317.106832225919
 31
0.0
  0
CIRCLE
  5
D1C
330
C51
100
AcDbEntity
  8
SIZE
  6
Continuous
 62
    30
100
AcDbCircle
 10
424.4487166407477
 20
1177.106951225919
 30
0.0
 40
5.0
  0
LINE
  5
D1D
330
C51
100
AcDbEntity
  8
SIZE
  6
Continuous
 62
    30
100
AcDbLine
 10
424.4487166407477
 20
1182.106951225919
 30
0.0
 11
424.4487166407477
 21
1187.106951225919
 31
0.0
  0
TEXT
  5
D1E
330
C51
100
AcDbEntity
  8
SIZE
  6
Continuous
 62
    30
100
AcDbText
 10
409.4487166407478
 20
1177.856892225919
 30
0.0
 40
55.0
  1
150
 50
90.0
 41
0.9
 72
     1
 11
409.4487166407478
 21
1252.106892225919
 31
0.0
100
AcDbText
  0
POINT
  5
D1F
330
C51
100
AcDbEntity
  8
Defpoints
  6
Continuous
 62
     7
100
AcDbPoint
 10
716.0761746407477
 20
1327.106832225919
 30
0.0
  0
POINT
  5
D20
330
C51
100
AcDbEntity
  8
Defpoints
  6
Continuous
 62
     7
100
AcDbPoint
 10
716.0761746407477
 20
1177.106951225919
 30
0.0
  0
POINT
  5
D21
330
C51
100
AcDbEntity
  8
Defpoints
  6
Continuous
 62
     7
100
AcDbPoint
 10
424.4487166407477
 20
1177.106951225919
 30
0.0
  0
LINE
  5
D22
330
C51
100
AcDbEntity
  8
SIZE
  6
Continuous
 62
    30
100
AcDbLine
 10
696.0761746407476
 20
1177.106951225919
 30
0.0
 11
394.4487166407478
 21
1177.106951225919
 31
0.0
  0
LINE
  5
D23
330
C51
100
AcDbEntity
  8
SIZE
  6
Continuous
 62
    30
100
AcDbLine
 10
696.0761746407476
 20
1027.106948225919
 30
0.0
 11
394.4487166407478
 21
1027.106948225919
 31
0.0
  0
LINE
  5
D24
330
C51
100
AcDbEntity
  8
SIZE
  6
Continuous
 62
    30
100
AcDbLine
 10
424.4487166407477
 20
1167.106951225919
 30
0.0
 11
424.4487166407477
 21
1037.106948225919
 31
0.0
  0
CIRCLE
  5
D25
330
C51
100
AcDbEntity
  8
SIZE
  6
Continuous
 62
    30
100
AcDbCircle
 10
424.4487166407477
 20
1177.106951225919
 30
0.0
 40
5.0
  0
LINE
  5
D26
330
C51
100
AcDbEntity
  8
SIZE
  6
Continuous
 62
    30
100
AcDbLine
 10
424.4487166407477
 20
1172.106951225919
 30
0.0
 11
424.4487166407477
 21
1167.106951225919
 31
0.0
  0
CIRCLE
  5
D27
330
C51
100
AcDbEntity
  8
SIZE
  6
Continuous
 62
    30
100
AcDbCircle
 10
424.4487166407477
 20
1027.106948225919
 30
0.0
 40
5.0
  0
LINE
  5
D28
330
C51
100
AcDbEntity
  8
SIZE
  6
Continuous
 62
    30
100
AcDbLine
 10
424.4487166407477
 20
1032.106948225919
 30
0.0
 11
424.4487166407477
 21
1037.106948225919
 31
0.0
  0
TEXT
  5
D29
330
C51
100
AcDbEntity
  8
SIZE
  6
Continuous
 62
    30
100
AcDbText
 10
409.4487166407478
 20
1027.856950225919
 30
0.0
 40
55.0
  1
150
 50
90.0
 41
0.9
 72
     1
 11
409.4487166407478
 21
1102.106950225919
 31
0.0
100
AcDbText
  0
POINT
  5
D2A
330
C51
100
AcDbEntity
  8
Defpoints
  6
Continuous
 62
     7
100
AcDbPoint
 10
716.0761746407477
 20
1177.106951225919
 30
0.0
  0
POINT
  5
D2B
330
C51
100
AcDbEntity
  8
Defpoints
  6
Continuous
 62
     7
100
AcDbPoint
 10
716.0761746407477
 20
1027.106948225919
 30
0.0
  0
POINT
  5
D2C
330
C51
100
AcDbEntity
  8
Defpoints
  6
Continuous
 62
     7
100
AcDbPoint
 10
424.4487166407477
 20
1027.106948225919
 30
0.0
  0
LINE
  5
D2D
330
C51
100
AcDbEntity
  8
SIZE
  6
Continuous
 62
    30
100
AcDbLine
 10
696.0761746407476
 20
1027.106948225919
 30
0.0
 11
394.4487166407478
 21
1027.106948225919
 31
0.0
  0
LINE
  5
D2E
330
C51
100
AcDbEntity
  8
SIZE
  6
Continuous
 62
    30
100
AcDbLine
 10
696.0761746407476
 20
877.1069462259191
 30
0.0
 11
394.4487166407478
 21
877.1069462259191
 31
0.0
  0
LINE
  5
D2F
330
C51
100
AcDbEntity
  8
SIZE
  6
Continuous
 62
    30
100
AcDbLine
 10
424.4487166407477
 20
1017.106948225919
 30
0.0
 11
424.4487166407477
 21
887.1069462259191
 31
0.0
  0
CIRCLE
  5
D30
330
C51
100
AcDbEntity
  8
SIZE
  6
Continuous
 62
    30
100
AcDbCircle
 10
424.4487166407477
 20
1027.106948225919
 30
0.0
 40
5.0
  0
LINE
  5
D31
330
C51
100
AcDbEntity
  8
SIZE
  6
Continuous
 62
    30
100
AcDbLine
 10
424.4487166407477
 20
1022.106948225919
 30
0.0
 11
424.4487166407477
 21
1017.106948225919
 31
0.0
  0
CIRCLE
  5
D32
330
C51
100
AcDbEntity
  8
SIZE
  6
Continuous
 62
    30
100
AcDbCircle
 10
424.4487166407477
 20
877.1069462259191
 30
0.0
 40
5.0
  0
LINE
  5
D33
330
C51
100
AcDbEntity
  8
SIZE
  6
Continuous
 62
    30
100
AcDbLine
 10
424.4487166407477
 20
882.1069462259192
 30
0.0
 11
424.4487166407477
 21
887.1069462259191
 31
0.0
  0
TEXT
  5
D34
330
C51
100
AcDbEntity
  8
SIZE
  6
Continuous
 62
    30
100
AcDbText
 10
409.4487166407478
 20
877.856947225919
 30
0.0
 40
55.0
  1
150
 50
90.0
 41
0.9
 72
     1
 11
409.4487166407478
 21
952.1069472259192
 31
0.0
100
AcDbText
  0
POINT
  5
D35
330
C51
100
AcDbEntity
  8
Defpoints
  6
Continuous
 62
     7
100
AcDbPoint
 10
716.0761746407477
 20
1027.106948225919
 30
0.0
  0
POINT
  5
D36
330
C51
100
AcDbEntity
  8
Defpoints
  6
Continuous
 62
     7
100
AcDbPoint
 10
716.0761746407477
 20
877.1069462259191
 30
0.0
  0
POINT
  5
D37
330
C51
100
AcDbEntity
  8
Defpoints
  6
Continuous
 62
     7
100
AcDbPoint
 10
424.4487166407477
 20
877.1069462259191
 30
0.0
  0
LINE
  5
D38
330
C51
100
AcDbEntity
  8
SIZE
  6
Continuous
 62
    30
100
AcDbLine
 10
696.0761746407476
 20
877.1069462259191
 30
0.0
 11
394.0912266407479
 21
877.1069462259191
 31
0.0
  0
LINE
  5
D39
330
C51
100
AcDbEntity
  8
SIZE
  6
Continuous
 62
    30
100
AcDbLine
 10
757.7330356407478
 20
797.1069442259191
 30
0.0
 11
394.0912266407479
 21
797.1069442259191
 31
0.0
  0
LINE
  5
D3A
330
C51
100
AcDbEntity
  8
SIZE
  6
Continuous
 62
    30
100
AcDbLine
 10
424.0912266407478
 20
867.1069462259191
 30
0.0
 11
424.0912266407478
 21
807.1069442259192
 31
0.0
  0
LINE
  5
D3B
330
C51
100
AcDbEntity
  8
SIZE
  6
Continuous
 62
    30
100
AcDbLine
 10
424.0912266407478
 20
797.1069442259191
 30
0.0
 11
424.0912266407478
 21
665.7725472259191
 31
0.0
  0
CIRCLE
  5
D3C
330
C51
100
AcDbEntity
  8
SIZE
  6
Continuous
 62
    30
100
AcDbCircle
 10
424.0912266407478
 20
877.1069462259191
 30
0.0
 40
5.0
  0
LINE
  5
D3D
330
C51
100
AcDbEntity
  8
SIZE
  6
Continuous
 62
    30
100
AcDbLine
 10
424.0912266407478
 20
872.1069462259192
 30
0.0
 11
424.0912266407478
 21
867.1069462259191
 31
0.0
  0
CIRCLE
  5
D3E
330
C51
100
AcDbEntity
  8
SIZE
  6
Continuous
 62
    30
100
AcDbCircle
 10
424.0912266407478
 20
797.1069442259191
 30
0.0
 40
5.0
  0
LINE
  5
D3F
330
C51
100
AcDbEntity
  8
SIZE
  6
Continuous
 62
    30
100
AcDbLine
 10
424.0912266407478
 20
802.1069442259191
 30
0.0
 11
424.0912266407478
 21
807.1069442259192
 31
0.0
  0
TEXT
  5
D40
330
C51
100
AcDbEntity
  8
SIZE
  6
Continuous
 62
    30
100
AcDbText
 10
409.0912266407478
 20
673.701118083062
 30
0.0
 40
55.0
  1
80
 50
90.0
 41
0.9
 72
     1
 11
409.0912266407478
 21
720.8439752259192
 31
0.0
100
AcDbText
  0
POINT
  5
D41
330
C51
100
AcDbEntity
  8
Defpoints
  6
Continuous
 62
     7
100
AcDbPoint
 10
716.0761746407477
 20
877.1069462259191
 30
0.0
  0
POINT
  5
D42
330
C51
100
AcDbEntity
  8
Defpoints
  6
Continuous
 62
     7
100
AcDbPoint
 10
777.7330356407478
 20
797.1069442259191
 30
0.0
  0
POINT
  5
D43
330
C51
100
AcDbEntity
  8
Defpoints
  6
Continuous
 62
     7
100
AcDbPoint
 10
424.0912266407478
 20
797.1069442259191
 30
0.0
  0
LINE
  5
D44
330
C51
100
AcDbEntity
  8
SIZE
  6
Continuous
 62
    30
100
AcDbLine
 10
757.7329966407478
 20
797.1069442259191
 30
0.0
 11
222.389695640748
 21
797.1069442259191
 31
0.0
  0
LINE
  5
D45
330
C51
100
AcDbEntity
  8
SIZE
  6
Continuous
 62
    30
100
AcDbLine
 10
757.7329966407478
 20
1557.107080225919
 30
0.0
 11
222.389695640748
 21
1557.107080225919
 31
0.0
  0
LINE
  5
D46
330
C51
100
AcDbEntity
  8
SIZE
  6
Continuous
 62
    30
100
AcDbLine
 10
252.389695640748
 20
807.1069442259192
 30
0.0
 11
252.389695640748
 21
1547.107080225919
 31
0.0
  0
CIRCLE
  5
D47
330
C51
100
AcDbEntity
  8
SIZE
  6
Continuous
 62
    30
100
AcDbCircle
 10
252.389695640748
 20
797.1069442259191
 30
0.0
 40
5.0
  0
LINE
  5
D48
330
C51
100
AcDbEntity
  8
SIZE
  6
Continuous
 62
    30
100
AcDbLine
 10
252.389695640748
 20
802.1069442259191
 30
0.0
 11
252.389695640748
 21
807.1069442259192
 31
0.0
  0
CIRCLE
  5
D49
330
C51
100
AcDbEntity
  8
SIZE
  6
Continuous
 62
    30
100
AcDbCircle
 10
252.389695640748
 20
1557.107080225919
 30
0.0
 40
5.0
  0
LINE
  5
D4A
330
C51
100
AcDbEntity
  8
SIZE
  6
Continuous
 62
    30
100
AcDbLine
 10
252.389695640748
 20
1552.107080225919
 30
0.0
 11
252.389695640748
 21
1547.107080225919
 31
0.0
  0
TEXT
  5
D4B
330
C51
100
AcDbEntity
  8
SIZE
  6
Continuous
 62
    30
100
AcDbText
 10
237.389695640748
 20
1090.800055511633
 30
0.0
 40
55.0
  1
760
 50
90.0
 41
0.9
 72
     1
 11
237.389695640748
 21
1161.514341225919
 31
0.0
100
AcDbText
  0
POINT
  5
D4C
330
C51
100
AcDbEntity
  8
Defpoints
  6
Continuous
 62
     7
100
AcDbPoint
 10
777.7329966407478
 20
797.1069442259191
 30
0.0
  0
POINT
  5
D4D
330
C51
100
AcDbEntity
  8
Defpoints
  6
Continuous
 62
     7
100
AcDbPoint
 10
777.7329966407478
 20
1557.107080225919
 30
0.0
  0
POINT
  5
D4E
330
C51
100
AcDbEntity
  8
Defpoints
  6
Continuous
 62
     7
100
AcDbPoint
 10
252.389695640748
 20
1557.107080225919
 30
0.0
  0
LINE
  5
D4F
330
C51
100
AcDbEntity
  8
NOTE
  6
Continuous
 62
     4
100
AcDbLine
 10
745.0760826407477
 20
1477.106851225919
 30
0.0
 11
721.7682216407479
 21
1500.936554225919
 31
0.0
  0
LINE
  5
D50
330
C51
100
AcDbEntity
  8
NOTE
  6
Continuous
 62
     4
100
AcDbLine
 10
745.0760826407477
 20
1477.106851225919
 30
0.0
 11
736.8057346407479
 21
1509.397910225919
 31
0.0
  0
LINE
  5
D51
330
C51
100
AcDbEntity
  8
NOTE
  6
Continuous
 62
     4
100
AcDbLine
 10
616.4722676407477
 20
1705.661419225919
 30
0.0
 11
745.0760826407477
 21
1477.106851225919
 31
0.0
  0
LINE
  5
D52
330
C51
100
AcDbEntity
  8
NOTE
  6
Continuous
 62
     4
100
AcDbLine
 10
-0.0000123592524233
 20
1705.661419225919
 30
0.0
 11
616.4722676407477
 21
1705.661419225919
 31
0.0
  0
LINE
  5
D53
330
C51
100
AcDbEntity
  8
BASIS
  6
DASHDOT
 62
     6
100
AcDbLine
 10
1962.076163640748
 20
730.6231842259192
 30
0.0
 11
1962.076163640748
 21
1623.590358225919
 31
0.0
  0
LINE
  5
D54
330
C51
100
AcDbEntity
  8
ARRANGE
  6
Continuous
 62
     1
100
AcDbLine
 10
1924.178842640747
 20
1139.209450225919
 30
0.0
 11
1999.973484640747
 21
1215.004092225919
 31
0.0
  0
LINE
  5
D55
330
C51
100
AcDbEntity
  8
ARRANGE
  6
Continuous
 62
     1
100
AcDbLine
 10
1924.178842640747
 20
1215.004092225919
 30
0.0
 11
1999.973484640747
 21
1139.209450225919
 31
0.0
  0
CIRCLE
  5
D56
330
C51
100
AcDbEntity
  8
ARRANGE
  6
Continuous
 62
     1
100
AcDbCircle
 10
1962.076163640748
 20
1177.106771225919
 30
0.0
 40
34.449674
  0
LINE
  5
D57
330
C51
100
AcDbEntity
  8
SIZE
  6
Continuous
 62
    30
100
AcDbLine
 10
727.0761546407477
 20
1526.449923225919
 30
0.0
 11
727.0761546407477
 21
1856.220898225919
 31
0.0
  0
LINE
  5
D58
330
C51
100
AcDbEntity
  8
SIZE
  6
Continuous
 62
    30
100
AcDbLine
 10
745.0761556407478
 20
1526.106777225919
 30
0.0
 11
745.0761556407478
 21
1856.220898225919
 31
0.0
  0
LINE
  5
D59
330
C51
100
AcDbEntity
  8
SIZE
  6
Continuous
 62
    30
100
AcDbLine
 10
755.0761556407478
 20
1826.220898225919
 30
0.0
 11
765.0761556407478
 21
1826.220898225919
 31
0.0
  0
LINE
  5
D5A
330
C51
100
AcDbEntity
  8
SIZE
  6
Continuous
 62
    30
100
AcDbLine
 10
717.0761546407477
 20
1826.220898225919
 30
0.0
 11
606.361869640748
 21
1826.220898225919
 31
0.0
  0
LINE
  5
D5B
330
C51
100
AcDbEntity
  8
SIZE
  6
Continuous
 62
    30
100
AcDbLine
 10
745.0761556407478
 20
1826.220898225919
 30
0.0
 11
727.0761546407477
 21
1826.220898225919
 31
0.0
  0
CIRCLE
  5
D5C
330
C51
100
AcDbEntity
  8
SIZE
  6
Continuous
 62
    30
100
AcDbCircle
 10
745.0761556407478
 20
1826.220898225919
 30
0.0
 40
5.0
  0
LINE
  5
D5D
330
C51
100
AcDbEntity
  8
SIZE
  6
Continuous
 62
    30
100
AcDbLine
 10
750.0761556407478
 20
1826.220898225919
 30
0.0
 11
755.0761556407478
 21
1826.220898225919
 31
0.0
  0
CIRCLE
  5
D5E
330
C51
100
AcDbEntity
  8
SIZE
  6
Continuous
 62
    30
100
AcDbCircle
 10
727.0761546407477
 20
1826.220898225919
 30
0.0
 40
5.0
  0
LINE
  5
D5F
330
C51
100
AcDbEntity
  8
SIZE
  6
Continuous
 62
    30
100
AcDbLine
 10
722.0761546407477
 20
1826.220898225919
 30
0.0
 11
717.0761546407477
 21
1826.220898225919
 31
0.0
  0
TEXT
  5
D60
330
C51
100
AcDbEntity
  8
SIZE
  6
Continuous
 62
    30
100
AcDbText
 10
606.0404412121764
 20
1841.220898225919
 30
0.0
 40
55.0
  1
18
 41
0.9
 72
     1
 11
656.7190126407479
 21
1841.220898225919
 31
0.0
100
AcDbText
  0
POINT
  5
D61
330
C51
100
AcDbEntity
  8
Defpoints
  6
Continuous
 62
     7
100
AcDbPoint
 10
727.0761546407477
 20
1506.449923225919
 30
0.0
  0
POINT
  5
D62
330
C51
100
AcDbEntity
  8
Defpoints
  6
Continuous
 62
     7
100
AcDbPoint
 10
745.0761556407478
 20
1506.106777225919
 30
0.0
  0
POINT
  5
D63
330
C51
100
AcDbEntity
  8
Defpoints
  6
Continuous
 62
     7
100
AcDbPoint
 10
745.0761556407478
 20
1826.220898225919
 30
0.0
  0
LINE
  5
D64
330
C51
100
AcDbEntity
  8
SIZE
  6
Continuous
 62
    30
100
AcDbLine
 10
745.0761556407478
 20
1526.106777225919
 30
0.0
 11
745.0761556407478
 21
1856.220898225919
 31
0.0
  0
LINE
  5
D65
330
C51
100
AcDbEntity
  8
SIZE
  6
Continuous
 62
    30
100
AcDbLine
 10
1929.076171640748
 20
1526.106777225919
 30
0.0
 11
1929.076171640748
 21
1856.220898225919
 31
0.0
  0
LINE
  5
D66
330
C51
100
AcDbEntity
  8
SIZE
  6
Continuous
 62
    30
100
AcDbLine
 10
755.0761556407478
 20
1826.220898225919
 30
0.0
 11
1919.076171640748
 21
1826.220898225919
 31
0.0
  0
CIRCLE
  5
D67
330
C51
100
AcDbEntity
  8
SIZE
  6
Continuous
 62
    30
100
AcDbCircle
 10
745.0761556407478
 20
1826.220898225919
 30
0.0
 40
5.0
  0
LINE
  5
D68
330
C51
100
AcDbEntity
  8
SIZE
  6
Continuous
 62
    30
100
AcDbLine
 10
750.0761556407478
 20
1826.220898225919
 30
0.0
 11
755.0761556407478
 21
1826.220898225919
 31
0.0
  0
CIRCLE
  5
D69
330
C51
100
AcDbEntity
  8
SIZE
  6
Continuous
 62
    30
100
AcDbCircle
 10
1929.076171640748
 20
1826.220898225919
 30
0.0
 40
5.0
  0
LINE
  5
D6A
330
C51
100
AcDbEntity
  8
SIZE
  6
Continuous
 62
    30
100
AcDbLine
 10
1924.076171640748
 20
1826.220898225919
 30
0.0
 11
1919.076171640748
 21
1826.220898225919
 31
0.0
  0
TEXT
  5
D6B
330
C51
100
AcDbEntity
  8
SIZE
  6
Continuous
 62
    30
100
AcDbText
 10
1209.790449355033
 20
1840.625660225919
 30
0.0
 40
55.0
  1
(1184)
 41
0.9
 72
     1
 11
1337.076163640748
 21
1840.625660225919
 31
0.0
100
AcDbText
  0
POINT
  5
D6C
330
C51
100
AcDbEntity
  8
Defpoints
  6
Continuous
 62
     7
100
AcDbPoint
 10
745.0761556407478
 20
1506.106777225919
 30
0.0
  0
POINT
  5
D6D
330
C51
100
AcDbEntity
  8
Defpoints
  6
Continuous
 62
     7
100
AcDbPoint
 10
1929.076171640748
 20
1506.106777225919
 30
0.0
  0
POINT
  5
D6E
330
C51
100
AcDbEntity
  8
Defpoints
  6
Continuous
 62
     7
100
AcDbPoint
 10
1929.076171640748
 20
1826.220898225919
 30
0.0
  0
LINE
  5
D6F
330
C51
100
AcDbEntity
  8
SIZE
  6
Continuous
 62
    30
100
AcDbLine
 10
1929.076171640748
 20
1526.106777225919
 30
0.0
 11
1929.076171640748
 21
1856.220898225919
 31
0.0
  0
LINE
  5
D70
330
C51
100
AcDbEntity
  8
SIZE
  6
Continuous
 62
    30
100
AcDbLine
 10
1947.076172640748
 20
1526.449923225919
 30
0.0
 11
1947.076172640748
 21
1856.220898225919
 31
0.0
  0
LINE
  5
D71
330
C51
100
AcDbEntity
  8
SIZE
  6
Continuous
 62
    30
100
AcDbLine
 10
1919.076171640748
 20
1826.220898225919
 30
0.0
 11
1909.076171640748
 21
1826.220898225919
 31
0.0
  0
LINE
  5
D72
330
C51
100
AcDbEntity
  8
SIZE
  6
Continuous
 62
    30
100
AcDbLine
 10
1957.076172640748
 20
1826.220898225919
 30
0.0
 11
1967.076172640748
 21
1826.220898225919
 31
0.0
  0
LINE
  5
D73
330
C51
100
AcDbEntity
  8
SIZE
  6
Continuous
 62
    30
100
AcDbLine
 10
1938.076171640748
 20
1826.220898225919
 30
0.0
 11
1880.867540640748
 21
1687.666333225919
 31
0.0
  0
LINE
  5
D74
330
C51
100
AcDbEntity
  8
SIZE
  6
Continuous
 62
    30
100
AcDbLine
 10
1880.867540640748
 20
1687.666333225919
 30
0.0
 11
1780.153254640748
 21
1687.666333225919
 31
0.0
  0
TEXT
  5
D75
330
C51
100
AcDbEntity
  8
SIZE
  6
Continuous
 62
    30
100
AcDbText
 10
1779.831826212176
 20
1702.666333225919
 30
0.0
 40
55.0
  1
18
 41
0.9
 72
     1
 11
1830.510397640748
 21
1702.666333225919
 31
0.0
100
AcDbText
  0
LINE
  5
D76
330
C51
100
AcDbEntity
  8
SIZE
  6
Continuous
 62
    30
100
AcDbLine
 10
1929.076171640748
 20
1826.220898225919
 30
0.0
 11
1947.076172640748
 21
1826.220898225919
 31
0.0
  0
LINE
  5
D77
330
C51
100
AcDbEntity
  8
SIZE
  6
Continuous
 62
    30
100
AcDbLine
 10
1929.076171640748
 20
1826.220898225919
 30
0.0
 11
1947.076172640748
 21
1826.220898225919
 31
0.0
  0
CIRCLE
  5
D78
330
C51
100
AcDbEntity
  8
SIZE
  6
Continuous
 62
    30
100
AcDbCircle
 10
1929.076171640748
 20
1826.220898225919
 30
0.0
 40
5.0
  0
LINE
  5
D79
330
C51
100
AcDbEntity
  8
SIZE
  6
Continuous
 62
    30
100
AcDbLine
 10
1924.076171640748
 20
1826.220898225919
 30
0.0
 11
1919.076171640748
 21
1826.220898225919
 31
0.0
  0
CIRCLE
  5
D7A
330
C51
100
AcDbEntity
  8
SIZE
  6
Continuous
 62
    30
100
AcDbCircle
 10
1947.076172640748
 20
1826.220898225919
 30
0.0
 40
5.0
  0
LINE
  5
D7B
330
C51
100
AcDbEntity
  8
SIZE
  6
Continuous
 62
    30
100
AcDbLine
 10
1952.076172640748
 20
1826.220898225919
 30
0.0
 11
1957.076172640748
 21
1826.220898225919
 31
0.0
  0
POINT
  5
D7C
330
C51
100
AcDbEntity
  8
Defpoints
  6
Continuous
 62
     7
100
AcDbPoint
 10
1929.076171640748
 20
1506.106777225919
 30
0.0
  0
POINT
  5
D7D
330
C51
100
AcDbEntity
  8
Defpoints
  6
Continuous
 62
     7
100
AcDbPoint
 10
1947.076172640748
 20
1506.449923225919
 30
0.0
  0
POINT
  5
D7E
330
C51
100
AcDbEntity
  8
Defpoints
  6
Continuous
 62
     7
100
AcDbPoint
 10
1947.076172640748
 20
1826.220898225919
 30
0.0
  0
LINE
  5
D7F
330
C51
100
AcDbEntity
  8
SIZE
  6
Continuous
 62
    30
100
AcDbLine
 10
727.0761546407477
 20
1526.449923225919
 30
0.0
 11
727.0761546407477
 21
2019.820380225919
 31
0.0
  0
LINE
  5
D80
330
C51
100
AcDbEntity
  8
SIZE
  6
Continuous
 62
    30
100
AcDbLine
 10
1947.076172640748
 20
1526.449923225919
 30
0.0
 11
1947.076172640748
 21
2019.820380225919
 31
0.0
  0
LINE
  5
D81
330
C51
100
AcDbEntity
  8
SIZE
  6
Continuous
 62
    30
100
AcDbLine
 10
737.0761546407477
 20
1989.820380225919
 30
0.0
 11
1937.076172640748
 21
1989.820380225919
 31
0.0
  0
CIRCLE
  5
D82
330
C51
100
AcDbEntity
  8
SIZE
  6
Continuous
 62
    30
100
AcDbCircle
 10
727.0761546407477
 20
1989.820380225919
 30
0.0
 40
5.0
  0
LINE
  5
D83
330
C51
100
AcDbEntity
  8
SIZE
  6
Continuous
 62
    30
100
AcDbLine
 10
732.0761546407477
 20
1989.820380225919
 30
0.0
 11
737.0761546407477
 21
1989.820380225919
 31
0.0
  0
CIRCLE
  5
D84
330
C51
100
AcDbEntity
  8
SIZE
  6
Continuous
 62
    30
100
AcDbCircle
 10
1947.076172640748
 20
1989.820380225919
 30
0.0
 40
5.0
  0
LINE
  5
D85
330
C51
100
AcDbEntity
  8
SIZE
  6
Continuous
 62
    30
100
AcDbLine
 10
1942.076172640748
 20
1989.820380225919
 30
0.0
 11
1937.076172640748
 21
1989.820380225919
 31
0.0
  0
TEXT
  5
D86
330
C51
100
AcDbEntity
  8
SIZE
  6
Continuous
 62
    30
100
AcDbText
 10
1239.254735069319
 20
2004.820380225919
 30
0.0
 40
55.0
  1
1220
 41
0.9
 72
     1
 11
1337.076163640748
 21
2004.820380225919
 31
0.0
100
AcDbText
  0
POINT
  5
D87
330
C51
100
AcDbEntity
  8
Defpoints
  6
Continuous
 62
     7
100
AcDbPoint
 10
727.0761546407477
 20
1506.449923225919
 30
0.0
  0
POINT
  5
D88
330
C51
100
AcDbEntity
  8
Defpoints
  6
Continuous
 62
     7
100
AcDbPoint
 10
1947.076172640748
 20
1506.449923225919
 30
0.0
  0
POINT
  5
D89
330
C51
100
AcDbEntity
  8
Defpoints
  6
Continuous
 62
     7
100
AcDbPoint
 10
1947.076172640748
 20
1989.820380225919
 30
0.0
  0
LINE
  5
D8A
330
C51
100
AcDbEntity
  8
SIZE
  6
Continuous
 62
    30
100
AcDbLine
 10
1947.076172640748
 20
1526.449923225919
 30
0.0
 11
1947.076172640748
 21
2019.820380225919
 31
0.0
  0
LINE
  5
D8B
330
C51
100
AcDbEntity
  8
SIZE
  6
Continuous
 62
    30
100
AcDbLine
 10
1977.076154640748
 20
1526.449923225919
 30
0.0
 11
1977.076154640748
 21
2019.820380225919
 31
0.0
  0
LINE
  5
D8C
330
C51
100
AcDbEntity
  8
SIZE
  6
Continuous
 62
    30
100
AcDbLine
 10
1937.076172640748
 20
1989.820380225919
 30
0.0
 11
1927.076172640748
 21
1989.820380225919
 31
0.0
  0
LINE
  5
D8D
330
C51
100
AcDbEntity
  8
SIZE
  6
Continuous
 62
    30
100
AcDbLine
 10
1987.076154640748
 20
1989.820380225919
 30
0.0
 11
1997.076154640748
 21
1989.820380225919
 31
0.0
  0
LINE
  5
D8E
330
C51
100
AcDbEntity
  8
SIZE
  6
Continuous
 62
    30
100
AcDbLine
 10
1962.076163640748
 20
1989.820380225919
 30
0.0
 11
1974.161108640748
 21
2093.307189225919
 31
0.0
  0
LINE
  5
D8F
330
C51
100
AcDbEntity
  8
SIZE
  6
Continuous
 62
    30
100
AcDbLine
 10
1974.161108640748
 20
2093.307189225919
 30
0.0
 11
2084.303965640748
 21
2093.307189225919
 31
0.0
  0
TEXT
  5
D90
330
C51
100
AcDbEntity
  8
SIZE
  6
Continuous
 62
    30
100
AcDbText
 10
1982.089679497891
 20
2108.307189225919
 30
0.0
 40
55.0
  1
30
 41
0.9
 72
     1
 11
2029.232536640748
 21
2108.307189225919
 31
0.0
100
AcDbText
  0
LINE
  5
D91
330
C51
100
AcDbEntity
  8
SIZE
  6
Continuous
 62
    30
100
AcDbLine
 10
1947.076172640748
 20
1989.820380225919
 30
0.0
 11
1977.076154640748
 21
1989.820380225919
 31
0.0
  0
LINE
  5
D92
330
C51
100
AcDbEntity
  8
SIZE
  6
Continuous
 62
    30
100
AcDbLine
 10
1947.076172640748
 20
1989.820380225919
 30
0.0
 11
1977.076154640748
 21
1989.820380225919
 31
0.0
  0
CIRCLE
  5
D93
330
C51
100
AcDbEntity
  8
SIZE
  6
Continuous
 62
    30
100
AcDbCircle
 10
1947.076172640748
 20
1989.820380225919
 30
0.0
 40
5.0
  0
LINE
  5
D94
330
C51
100
AcDbEntity
  8
SIZE
  6
Continuous
 62
    30
100
AcDbLine
 10
1942.076172640748
 20
1989.820380225919
 30
0.0
 11
1937.076172640748
 21
1989.820380225919
 31
0.0
  0
CIRCLE
  5
D95
330
C51
100
AcDbEntity
  8
SIZE
  6
Continuous
 62
    30
100
AcDbCircle
 10
1977.076154640748
 20
1989.820380225919
 30
0.0
 40
5.0
  0
LINE
  5
D96
330
C51
100
AcDbEntity
  8
SIZE
  6
Continuous
 62
    30
100
AcDbLine
 10
1982.076154640748
 20
1989.820380225919
 30
0.0
 11
1987.076154640748
 21
1989.820380225919
 31
0.0
  0
POINT
  5
D97
330
C51
100
AcDbEntity
  8
Defpoints
  6
Continuous
 62
     7
100
AcDbPoint
 10
1947.076172640748
 20
1506.449923225919
 30
0.0
  0
POINT
  5
D98
330
C51
100
AcDbEntity
  8
Defpoints
  6
Continuous
 62
     7
100
AcDbPoint
 10
1977.076154640748
 20
1506.449923225919
 30
0.0
  0
POINT
  5
D99
330
C51
100
AcDbEntity
  8
Defpoints
  6
Continuous
 62
     7
100
AcDbPoint
 10
1977.076154640748
 20
1989.820380225919
 30
0.0
  0
LINE
  5
D9A
330
C51
100
AcDbEntity
  8
NOTE
  6
Continuous
 62
     4
100
AcDbLine
 10
3179.076171640748
 20
1506.106777225919
 30
0.0
 11
3179.076171640748
 21
1448.106776225919
 31
0.0
  0
LINE
  5
D9B
330
C51
100
AcDbEntity
  8
NOTE
  6
Continuous
 62
     4
100
AcDbLine
 10
3150.076171640748
 20
1477.106777225919
 30
0.0
 11
3208.076172640748
 21
1477.106777225919
 31
0.0
  0
LINE
  5
D9C
330
C51
100
AcDbEntity
  8
NOTE
  6
Continuous
 62
     4
100
AcDbLine
 10
3179.076171640748
 20
1356.106774225919
 30
0.0
 11
3179.076171640748
 21
1298.106773225919
 31
0.0
  0
LINE
  5
D9D
330
C51
100
AcDbEntity
  8
NOTE
  6
Continuous
 62
     4
100
AcDbLine
 10
3150.076171640748
 20
1327.106774225919
 30
0.0
 11
3208.076172640748
 21
1327.106774225919
 31
0.0
  0
LINE
  5
D9E
330
C51
100
AcDbEntity
  8
NOTE
  6
Continuous
 62
     4
100
AcDbLine
 10
3179.076171640748
 20
1206.106772225919
 30
0.0
 11
3179.076171640748
 21
1148.106770225919
 31
0.0
  0
LINE
  5
D9F
330
C51
100
AcDbEntity
  8
NOTE
  6
Continuous
 62
     4
100
AcDbLine
 10
3150.076171640748
 20
1177.106771225919
 30
0.0
 11
3208.076172640748
 21
1177.106771225919
 31
0.0
  0
LINE
  5
DA0
330
C51
100
AcDbEntity
  8
NOTE
  6
Continuous
 62
     4
100
AcDbLine
 10
3179.076171640748
 20
1056.106769225919
 30
0.0
 11
3179.076171640748
 21
998.1067682259192
 31
0.0
  0
LINE
  5
DA1
330
C51
100
AcDbEntity
  8
NOTE
  6
Continuous
 62
     4
100
AcDbLine
 10
3150.076171640748
 20
1027.106768225919
 30
0.0
 11
3208.076172640748
 21
1027.106768225919
 31
0.0
  0
LINE
  5
DA2
330
C51
100
AcDbEntity
  8
NOTE
  6
Continuous
 62
     4
100
AcDbLine
 10
3179.076171640748
 20
906.1067662259191
 30
0.0
 11
3179.076171640748
 21
848.1067652259191
 31
0.0
  0
LINE
  5
DA3
330
C51
100
AcDbEntity
  8
NOTE
  6
Continuous
 62
     4
100
AcDbLine
 10
3150.076171640748
 20
877.1067652259191
 30
0.0
 11
3208.076172640748
 21
877.1067652259191
 31
0.0
  0
LINE
  5
DA4
330
C51
100
AcDbEntity
  8
NOTE
  6
Continuous
 62
     4
100
AcDbLine
 10
1995.076155640748
 20
906.1067662259191
 30
0.0
 11
1995.076155640748
 21
848.1067652259191
 31
0.0
  0
LINE
  5
DA5
330
C51
100
AcDbEntity
  8
NOTE
  6
Continuous
 62
     4
100
AcDbLine
 10
1966.076154640748
 20
877.1067652259191
 30
0.0
 11
2024.076155640748
 21
877.1067652259191
 31
0.0
  0
LINE
  5
DA6
330
C51
100
AcDbEntity
  8
NOTE
  6
Continuous
 62
     4
100
AcDbLine
 10
1995.076155640748
 20
1056.106769225919
 30
0.0
 11
1995.076155640748
 21
998.1067682259192
 31
0.0
  0
LINE
  5
DA7
330
C51
100
AcDbEntity
  8
NOTE
  6
Continuous
 62
     4
100
AcDbLine
 10
1966.076154640748
 20
1027.106768225919
 30
0.0
 11
2024.076155640748
 21
1027.106768225919
 31
0.0
  0
LINE
  5
DA8
330
C51
100
AcDbEntity
  8
NOTE
  6
Continuous
 62
     4
100
AcDbLine
 10
1995.076155640748
 20
1206.106772225919
 30
0.0
 11
1995.076155640748
 21
1148.106770225919
 31
0.0
  0
LINE
  5
DA9
330
C51
100
AcDbEntity
  8
NOTE
  6
Continuous
 62
     4
100
AcDbLine
 10
1966.076154640748
 20
1177.106771225919
 30
0.0
 11
2024.076155640748
 21
1177.106771225919
 31
0.0
  0
LINE
  5
DAA
330
C51
100
AcDbEntity
  8
NOTE
  6
Continuous
 62
     4
100
AcDbLine
 10
1995.076155640748
 20
1356.106774225919
 30
0.0
 11
1995.076155640748
 21
1298.106773225919
 31
0.0
  0
LINE
  5
DAB
330
C51
100
AcDbEntity
  8
NOTE
  6
Continuous
 62
     4
100
AcDbLine
 10
1966.076154640748
 20
1327.106774225919
 30
0.0
 11
2024.076155640748
 21
1327.106774225919
 31
0.0
  0
LINE
  5
DAC
330
C51
100
AcDbEntity
  8
NOTE
  6
Continuous
 62
     4
100
AcDbLine
 10
1995.076155640748
 20
1506.106777225919
 30
0.0
 11
1995.076155640748
 21
1448.106776225919
 31
0.0
  0
LINE
  5
DAD
330
C51
100
AcDbEntity
  8
NOTE
  6
Continuous
 62
     4
100
AcDbLine
 10
1966.076154640748
 20
1477.106777225919
 30
0.0
 11
2024.076155640748
 21
1477.106777225919
 31
0.0
  0
ARC
  5
DAE
330
C51
100
AcDbEntity
  8
DETAIL
  6
Continuous
 62
     5
100
AcDbCircle
 10
2587.076163640748
 20
1177.106771225919
 30
0.0
 40
361.000007
100
AcDbArc
 50
270.0
 51
90.0
  0
ARC
  5
DAF
330
C51
100
AcDbEntity
  8
DETAIL
  6
Continuous
 62
     5
100
AcDbCircle
 10
2587.076163640748
 20
1177.106771225919
 30
0.0
 40
361.000007
100
AcDbArc
 50
90.0
 51
270.0
  0
ARC
  5
DB0
330
C51
100
AcDbEntity
  8
DETAIL
  6
Continuous
 62
     5
100
AcDbCircle
 10
3193.076171640748
 20
847.7636192259192
 30
0.0
 40
4.0
100
AcDbArc
 50
315.0
 51
0.0
  0
ARC
  5
DB1
330
C51
100
AcDbEntity
  8
DETAIL
  6
Continuous
 62
     5
100
AcDbCircle
 10
3146.419316640748
 20
801.1067642259192
 30
0.0
 40
4.0
100
AcDbArc
 50
270.0
 51
315.0
  0
ARC
  5
DB2
330
C51
100
AcDbEntity
  8
DETAIL
  6
Continuous
 62
     5
100
AcDbCircle
 10
1981.076155640748
 20
847.7636192259192
 30
0.0
 40
4.0
100
AcDbArc
 50
180.0
 51
225.0
  0
CIRCLE
  5
DB3
330
C51
100
AcDbEntity
  8
DETAIL
  6
Continuous
 62
     5
100
AcDbCircle
 10
1995.076155640748
 20
1477.106777225919
 30
0.0
 40
12.5
  0
CIRCLE
  5
DB4
330
C51
100
AcDbEntity
  8
DETAIL
  6
Continuous
 62
     5
100
AcDbCircle
 10
1995.076155640748
 20
1477.106777225919
 30
0.0
 40
4.0
  0
CIRCLE
  5
DB5
330
C51
100
AcDbEntity
  8
DETAIL
  6
Continuous
 62
     5
100
AcDbCircle
 10
3179.076171640748
 20
1477.106777225919
 30
0.0
 40
12.5
  0
CIRCLE
  5
DB6
330
C51
100
AcDbEntity
  8
DETAIL
  6
Continuous
 62
     5
100
AcDbCircle
 10
3179.076171640748
 20
1477.106777225919
 30
0.0
 40
4.0
  0
CIRCLE
  5
DB7
330
C51
100
AcDbEntity
  8
DETAIL
  6
Continuous
 62
     5
100
AcDbCircle
 10
1995.076155640748
 20
1327.106774225919
 30
0.0
 40
12.5
  0
CIRCLE
  5
DB8
330
C51
100
AcDbEntity
  8
DETAIL
  6
Continuous
 62
     5
100
AcDbCircle
 10
1995.076155640748
 20
1327.106774225919
 30
0.0
 40
4.0
  0
CIRCLE
  5
DB9
330
C51
100
AcDbEntity
  8
DETAIL
  6
Continuous
 62
     5
100
AcDbCircle
 10
3179.076171640748
 20
1327.106774225919
 30
0.0
 40
12.5
  0
CIRCLE
  5
DBA
330
C51
100
AcDbEntity
  8
DETAIL
  6
Continuous
 62
     5
100
AcDbCircle
 10
3179.076171640748
 20
1327.106774225919
 30
0.0
 40
4.0
  0
ARC
  5
DBB
330
C51
100
AcDbEntity
  8
DETAIL
  6
Continuous
 62
     5
100
AcDbCircle
 10
2027.733010640748
 20
801.1067642259192
 30
0.0
 40
4.0
100
AcDbArc
 50
225.0
 51
270.0
  0
CIRCLE
  5
DBC
330
C51
100
AcDbEntity
  8
DETAIL
  6
Continuous
 62
     5
100
AcDbCircle
 10
1995.076155640748
 20
1177.106771225919
 30
0.0
 40
12.5
  0
CIRCLE
  5
DBD
330
C51
100
AcDbEntity
  8
DETAIL
  6
Continuous
 62
     5
100
AcDbCircle
 10
1995.076155640748
 20
1177.106771225919
 30
0.0
 40
4.0
  0
CIRCLE
  5
DBE
330
C51
100
AcDbEntity
  8
DETAIL
  6
Continuous
 62
     5
100
AcDbCircle
 10
3179.076171640748
 20
1177.106771225919
 30
0.0
 40
12.5
  0
CIRCLE
  5
DBF
330
C51
100
AcDbEntity
  8
DETAIL
  6
Continuous
 62
     5
100
AcDbCircle
 10
3179.076171640748
 20
1177.106771225919
 30
0.0
 40
4.0
  0
CIRCLE
  5
DC0
330
C51
100
AcDbEntity
  8
DETAIL
  6
Continuous
 62
     5
100
AcDbCircle
 10
1995.076155640748
 20
1027.106768225919
 30
0.0
 40
12.5
  0
CIRCLE
  5
DC1
330
C51
100
AcDbEntity
  8
DETAIL
  6
Continuous
 62
     5
100
AcDbCircle
 10
1995.076155640748
 20
1027.106768225919
 30
0.0
 40
4.0
  0
CIRCLE
  5
DC2
330
C51
100
AcDbEntity
  8
DETAIL
  6
Continuous
 62
     5
100
AcDbCircle
 10
3179.076171640748
 20
1027.106768225919
 30
0.0
 40
12.5
  0
CIRCLE
  5
DC3
330
C51
100
AcDbEntity
  8
DETAIL
  6
Continuous
 62
     5
100
AcDbCircle
 10
3179.076171640748
 20
1027.106768225919
 30
0.0
 40
4.0
  0
CIRCLE
  5
DC4
330
C51
100
AcDbEntity
  8
DETAIL
  6
Continuous
 62
     5
100
AcDbCircle
 10
1995.076155640748
 20
877.1067652259191
 30
0.0
 40
12.5
  0
CIRCLE
  5
DC5
330
C51
100
AcDbEntity
  8
DETAIL
  6
Continuous
 62
     5
100
AcDbCircle
 10
1995.076155640748
 20
877.1067652259191
 30
0.0
 40
4.0
  0
CIRCLE
  5
DC6
330
C51
100
AcDbEntity
  8
DETAIL
  6
Continuous
 62
     5
100
AcDbCircle
 10
3179.076171640748
 20
877.1067652259191
 30
0.0
 40
12.5
  0
CIRCLE
  5
DC7
330
C51
100
AcDbEntity
  8
DETAIL
  6
Continuous
 62
     5
100
AcDbCircle
 10
3179.076171640748
 20
877.1067652259191
 30
0.0
 40
4.0
  0
ARC
  5
DC8
330
C51
100
AcDbEntity
  8
DETAIL
  6
Continuous
 62
     5
100
AcDbCircle
 10
2082.351716640748
 20
930.1909692259192
 30
0.0
 40
1.199999999999999
100
AcDbArc
 50
304.9999999999974
 51
58.73579000000302
  0
ARC
  5
DC9
330
C51
100
AcDbEntity
  8
DETAIL
  6
Continuous
 62
     5
100
AcDbCircle
 10
2078.321875640748
 20
924.4393852259191
 30
0.0
 40
1.199999999999999
100
AcDbArc
 50
124.9999999999974
 51
215.1566890000058
  0
ARC
  5
DCA
330
C51
100
AcDbEntity
  8
DETAIL
  6
Continuous
 62
     5
100
AcDbCircle
 10
2437.076163640748
 20
1177.106771225919
 30
0.0
 40
440.0000079999999
100
AcDbArc
 50
215.1566890000058
 51
224.8441640000026
  0
ARC
  5
DCB
330
C51
100
AcDbEntity
  8
DETAIL
  6
Continuous
 62
     5
100
AcDbCircle
 10
2124.253271640748
 20
865.9809352259191
 30
0.0
 40
1.199999999999999
100
AcDbArc
 50
315.0
 51
44.84416400000262
  0
ARC
  5
DCC
330
C51
100
AcDbEntity
  8
DETAIL
  6
Continuous
 62
     5
100
AcDbCircle
 10
2111.808147640748
 20
853.5358122259193
 30
0.0
 40
1.199999999999999
100
AcDbArc
 50
224.850141999998
 51
315.0
  0
ARC
  5
DCD
330
C51
100
AcDbEntity
  8
DETAIL
  6
Continuous
 62
     5
100
AcDbCircle
 10
2437.076163640748
 20
1177.106771225919
 30
0.0
 40
460.0000089999999
100
AcDbArc
 50
215.149079
 51
224.850141999998
  0
ARC
  5
DCE
330
C51
100
AcDbEntity
  8
DETAIL
  6
Continuous
 62
     5
100
AcDbCircle
 10
2059.972804640748
 20
911.5912272259192
 30
0.0
 40
1.199999999999999
100
AcDbArc
 50
35.14907900000004
 51
124.9999999999974
  0
ARC
  5
DCF
330
C51
100
AcDbEntity
  8
DETAIL
  6
Continuous
 62
     5
100
AcDbCircle
 10
2053.189799640748
 20
909.7715742259191
 30
0.0
 40
1.199999999999999
100
AcDbArc
 50
187.2091419999966
 51
304.9999999999974
  0
ARC
  5
DD0
330
C51
100
AcDbEntity
  8
DETAIL
  6
Continuous
 62
     5
100
AcDbCircle
 10
2047.966110640748
 20
951.0683362259191
 30
0.0
 40
1.199999999999999
100
AcDbArc
 50
58.73579000000302
 51
187.2091419999966
  0
ARC
  5
DD1
330
C51
100
AcDbEntity
  8
DETAIL
  6
Continuous
 62
     5
100
AcDbCircle
 10
2941.800610640748
 20
1424.022573225919
 30
0.0
 40
1.199999999999999
100
AcDbArc
 50
124.9999999999974
 51
238.735790000003
  0
ARC
  5
DD2
330
C51
100
AcDbEntity
  8
DETAIL
  6
Continuous
 62
     5
100
AcDbCircle
 10
2945.830451640748
 20
1429.774157225919
 30
0.0
 40
1.199999999999999
100
AcDbArc
 50
304.9999999999974
 51
35.15668900000576
  0
ARC
  5
DD3
330
C51
100
AcDbEntity
  8
DETAIL
  6
Continuous
 62
     5
100
AcDbCircle
 10
2587.076163640748
 20
1177.106771225919
 30
0.0
 40
440.0000079999999
100
AcDbArc
 50
35.15668900000576
 51
44.84416400000262
  0
ARC
  5
DD4
330
C51
100
AcDbEntity
  8
DETAIL
  6
Continuous
 62
     5
100
AcDbCircle
 10
2899.899055640748
 20
1488.232607225919
 30
0.0
 40
1.199999999999999
100
AcDbArc
 50
135.0
 51
224.8441640000026
  0
ARC
  5
DD5
330
C51
100
AcDbEntity
  8
DETAIL
  6
Continuous
 62
     5
100
AcDbCircle
 10
2912.344179640748
 20
1500.677730225919
 30
0.0
 40
1.199999999999999
100
AcDbArc
 50
44.85014199999799
 51
135.0
  0
ARC
  5
DD6
330
C51
100
AcDbEntity
  8
DETAIL
  6
Continuous
 62
     5
100
AcDbCircle
 10
2587.076163640748
 20
1177.106771225919
 30
0.0
 40
460.0000089999999
100
AcDbArc
 50
35.14907900000004
 51
44.85014199999799
  0
ARC
  5
DD7
330
C51
100
AcDbEntity
  8
DETAIL
  6
Continuous
 62
     5
100
AcDbCircle
 10
2964.179522640748
 20
1442.622315225919
 30
0.0
 40
1.199999999999999
100
AcDbArc
 50
215.149079
 51
304.9999999999974
  0
ARC
  5
DD8
330
C51
100
AcDbEntity
  8
DETAIL
  6
Continuous
 62
     5
100
AcDbCircle
 10
2970.962527640748
 20
1444.441968225919
 30
0.0
 40
1.199999999999999
100
AcDbArc
 50
7.209141999996574
 51
124.9999999999974
  0
ARC
  5
DD9
330
C51
100
AcDbEntity
  8
DETAIL
  6
Continuous
 62
     5
100
AcDbCircle
 10
2976.186216640748
 20
1403.145206225919
 30
0.0
 40
1.199999999999999
100
AcDbArc
 50
238.735790000003
 51
7.209141999996574
  0
LINE
  5
DDA
330
C51
100
AcDbEntity
  8
DETAIL
  6
Continuous
 62
     5
100
AcDbLine
 10
1978.247727640748
 20
844.9351922259191
 30
0.0
 11
2024.904583640748
 21
798.2783372259191
 31
0.0
  0
LINE
  5
DDB
330
C51
100
AcDbEntity
  8
DETAIL
  6
Continuous
 62
     5
100
AcDbLine
 10
2977.376730640748
 20
1403.295796225919
 30
0.0
 11
2972.153041640748
 21
1444.592557225919
 31
0.0
  0
LINE
  5
DDC
330
C51
100
AcDbEntity
  8
DETAIL
  6
Continuous
 62
     5
100
AcDbLine
 10
2941.177828640748
 20
1422.996834225919
 30
0.0
 11
2975.563434640748
 21
1402.119466225919
 31
0.0
  0
LINE
  5
DDD
330
C51
100
AcDbEntity
  8
DETAIL
  6
Continuous
 62
     5
100
AcDbLine
 10
2077.633583640748
 20
925.4223672259191
 30
0.0
 11
2083.040008640748
 21
929.2079862259191
 31
0.0
  0
LINE
  5
DDE
330
C51
100
AcDbEntity
  8
DETAIL
  6
Continuous
 62
     5
100
AcDbLine
 10
2053.878090640748
 20
908.7885922259191
 30
0.0
 11
2059.284512640748
 21
912.5742092259191
 31
0.0
  0
LINE
  5
DDF
330
C51
100
AcDbEntity
  8
DETAIL
  6
Continuous
 62
     5
100
AcDbLine
 10
2946.518743640748
 20
1428.791175225919
 30
0.0
 11
2941.112318640748
 21
1425.005556225919
 31
0.0
  0
LINE
  5
DE0
330
C51
100
AcDbEntity
  8
DETAIL
  6
Continuous
 62
     5
100
AcDbLine
 10
2970.274236640748
 20
1445.424950225919
 30
0.0
 11
2964.867814640748
 21
1441.639333225919
 31
0.0
  0
LINE
  5
DE1
330
C51
100
AcDbEntity
  8
DETAIL
  6
Continuous
 62
     5
100
AcDbLine
 10
2112.656675640748
 20
852.6872832259192
 30
0.0
 11
2125.101799640748
 21
865.1324072259191
 31
0.0
  0
LINE
  5
DE2
330
C51
100
AcDbEntity
  8
DETAIL
  6
Continuous
 62
     5
100
AcDbLine
 10
2911.495651640748
 20
1501.526259225919
 30
0.0
 11
2899.050527640748
 21
1489.081135225919
 31
0.0
  0
LINE
  5
DE3
330
C51
100
AcDbEntity
  8
DETAIL
  6
Continuous
 62
     5
100
AcDbLine
 10
3146.419316640748
 20
797.1067642259192
 30
0.0
 11
2027.733010640748
 21
797.1067642259192
 31
0.0
  0
LINE
  5
DE4
330
C51
100
AcDbEntity
  8
DETAIL
  6
Continuous
 62
     5
100
AcDbLine
 10
2046.775596640748
 20
950.9177462259192
 30
0.0
 11
2051.999285640748
 21
909.6209852259191
 31
0.0
  0
LINE
  5
DE5
330
C51
100
AcDbEntity
  8
DETAIL
  6
Continuous
 62
     5
100
AcDbLine
 10
2082.974498640748
 20
931.2167082259191
 30
0.0
 11
2048.588892640748
 21
952.0940762259192
 31
0.0
  0
LINE
  5
DE6
330
C51
100
AcDbEntity
  8
DETAIL
  6
Continuous
 62
     5
100
AcDbLine
 10
3149.247743640748
 20
798.2783372259191
 30
0.0
 11
3195.904599640748
 21
844.9351922259191
 31
0.0
  0
LINE
  5
DE7
330
C51
100
AcDbEntity
  8
DETAIL
  6
Continuous
 62
     5
100
AcDbLine
 10
3149.247743640748
 20
1555.935205225919
 30
0.0
 11
3195.904599640748
 21
1509.278350225919
 31
0.0
  0
LINE
  5
DE8
330
C51
100
AcDbEntity
  8
DETAIL
  6
Continuous
 62
     5
100
AcDbLine
 10
3146.419316640748
 20
1557.106778225919
 30
0.0
 11
2027.733010640748
 21
1557.106778225919
 31
0.0
  0
LINE
  5
DE9
330
C51
100
AcDbEntity
  8
DETAIL
  6
Continuous
 62
     5
100
AcDbLine
 10
1978.247727640748
 20
1509.278350225919
 30
0.0
 11
2024.904583640748
 21
1555.935205225919
 31
0.0
  0
ARC
  5
DEA
330
C51
100
AcDbEntity
  8
DETAIL
  6
Continuous
 62
     5
100
AcDbCircle
 10
2027.733010640748
 20
1553.106778225919
 30
0.0
 40
4.0
100
AcDbArc
 50
90.0
 51
135.0
  0
ARC
  5
DEB
330
C51
100
AcDbEntity
  8
DETAIL
  6
Continuous
 62
     5
100
AcDbCircle
 10
3146.419316640748
 20
1553.106778225919
 30
0.0
 40
4.0
100
AcDbArc
 50
45.0
 51
90.0
  0
ARC
  5
DEC
330
C51
100
AcDbEntity
  8
DETAIL
  6
Continuous
 62
     5
100
AcDbCircle
 10
1981.076155640748
 20
1506.449923225919
 30
0.0
 40
4.0
100
AcDbArc
 50
135.0
 51
180.0
  0
ARC
  5
DED
330
C51
100
AcDbEntity
  8
DETAIL
  6
Continuous
 62
     5
100
AcDbCircle
 10
3193.076171640748
 20
1506.449923225919
 30
0.0
 40
4.0
100
AcDbArc
 50
0.0
 51
45.0
  0
LINE
  5
DEE
330
C51
100
AcDbEntity
  8
DETAIL
  6
Continuous
 62
     5
100
AcDbLine
 10
1977.076154640748
 20
1506.449923225919
 30
0.0
 11
1977.076154640748
 21
847.7636192259192
 31
0.0
  0
LINE
  5
DEF
330
C51
100
AcDbEntity
  8
DETAIL
  6
Continuous
 62
     5
100
AcDbLine
 10
3197.076172640748
 20
1506.449923225919
 30
0.0
 11
3197.076172640748
 21
847.7636192259192
 31
0.0
  0
LINE
  5
DF0
330
C51
100
AcDbEntity
  8
BASIS
  6
DASHDOT
 62
     6
100
AcDbLine
 10
3277.586488640749
 20
1177.106771225919
 30
0.0
 11
1895.144048640748
 21
1177.106771225919
 31
0.0
  0
LINE
  5
DF1
330
C51
100
AcDbEntity
  8
BASIS
  6
DASHDOT
 62
     6
100
AcDbLine
 10
2587.076163640748
 20
730.6231842259192
 30
0.0
 11
2587.076163640748
 21
1623.590358225919
 31
0.0
  0
TEXT
  5
DF2
330
C51
100
AcDbEntity
  8
NOTE
  6
Continuous
 62
     4
100
AcDbText
 10
3276.515575640747
 20
1117.986886225919
 30
0.0
 40
55.0
  1
吸込
 50
359.999997
 41
0.703125
  7
STANDARD1
100
AcDbText
  0
TEXT
  5
DF3
330
C51
100
AcDbEntity
  8
NOTE
  6
Continuous
 62
     4
100
AcDbText
 10
3276.515575640747
 20
1185.343214225919
 30
0.0
 40
55.0
  1
空気
 50
359.999997
 41
0.703125
  7
STANDARD1
100
AcDbText
  0
LINE
  5
DF4
330
C51
100
AcDbEntity
  8
NOTE
  6
Continuous
 62
     4
100
AcDbLine
 10
3356.443078640748
 20
1308.722671225919
 30
0.0
 11
3356.443078640748
 21
1358.722672225919
 31
0.0
  0
LINE
  5
DF5
330
C51
100
AcDbEntity
  8
NOTE
  6
Continuous
 62
     4
100
AcDbLine
 10
3315.756990640748
 20
1358.722672225919
 30
0.0
 11
3356.443078640748
 21
1358.722672225919
 31
0.0
  0
LINE
  5
DF6
330
C51
100
AcDbEntity
  8
NOTE
  6
Continuous
 62
     4
100
AcDbLine
 10
3315.756990640748
 20
1308.722671225919
 30
0.0
 11
3356.443078640748
 21
1308.722671225919
 31
0.0
  0
LINE
  5
DF7
330
C51
100
AcDbEntity
  8
NOTE
  6
Continuous
 62
     4
100
AcDbLine
 10
3315.756990640748
 20
1308.722671225919
 30
0.0
 11
3315.756990640748
 21
1283.722670225919
 31
0.0
  0
LINE
  5
DF8
330
C51
100
AcDbEntity
  8
NOTE
  6
Continuous
 62
     4
100
AcDbLine
 10
3315.756990640748
 20
1383.722672225919
 30
0.0
 11
3315.756990640748
 21
1358.722672225919
 31
0.0
  0
LINE
  5
DF9
330
C51
100
AcDbEntity
  8
NOTE
  6
Continuous
 62
     4
100
AcDbLine
 10
3315.756990640748
 20
1383.722672225919
 30
0.0
 11
3265.860944640748
 21
1333.722671225919
 31
0.0
  0
LINE
  5
DFA
330
C51
100
AcDbEntity
  8
NOTE
  6
Continuous
 62
     4
100
AcDbLine
 10
3265.860944640748
 20
1333.722671225919
 30
0.0
 11
3315.756990640748
 21
1283.722670225919
 31
0.0
  0
LINE
  5
DFB
330
C51
100
AcDbEntity
  8
NOTE
  6
Continuous
 62
     4
100
AcDbLine
 10
3315.104544640748
 20
1000.560565225919
 30
0.0
 11
3315.104544640748
 21
975.5605652259191
 31
0.0
  0
LINE
  5
DFC
330
C51
100
AcDbEntity
  8
NOTE
  6
Continuous
 62
     4
100
AcDbLine
 10
3265.208498640748
 20
1025.560566225919
 30
0.0
 11
3315.104544640748
 21
975.5605652259191
 31
0.0
  0
LINE
  5
DFD
330
C51
100
AcDbEntity
  8
NOTE
  6
Continuous
 62
     4
100
AcDbLine
 10
3315.104544640748
 20
1075.560566225919
 30
0.0
 11
3265.208498640748
 21
1025.560566225919
 31
0.0
  0
LINE
  5
DFE
330
C51
100
AcDbEntity
  8
NOTE
  6
Continuous
 62
     4
100
AcDbLine
 10
3315.104544640748
 20
1000.560565225919
 30
0.0
 11
3355.790633640748
 21
1000.560565225919
 31
0.0
  0
LINE
  5
DFF
330
C51
100
AcDbEntity
  8
NOTE
  6
Continuous
 62
     4
100
AcDbLine
 10
3315.104544640748
 20
1050.560566225919
 30
0.0
 11
3355.790633640748
 21
1050.560566225919
 31
0.0
  0
LINE
  5
E00
330
C51
100
AcDbEntity
  8
NOTE
  6
Continuous
 62
     4
100
AcDbLine
 10
3355.790633640748
 20
1000.560565225919
 30
0.0
 11
3355.790633640748
 21
1050.560566225919
 31
0.0
  0
LINE
  5
E01
330
C51
100
AcDbEntity
  8
NOTE
  6
Continuous
 62
     4
100
AcDbLine
 10
3315.104544640748
 20
1075.560566225919
 30
0.0
 11
3315.104544640748
 21
1050.560566225919
 31
0.0
  0
ARC
  5
E02
330
C51
100
AcDbEntity
  8
OUTLINE
  6
Continuous
 62
     3
100
AcDbCircle
 10
3193.076171640748
 20
847.7636192259192
 30
0.0
 40
4.0
100
AcDbArc
 50
315.0
 51
0.0
  0
ARC
  5
E03
330
C51
100
AcDbEntity
  8
OUTLINE
  6
Continuous
 62
     3
100
AcDbCircle
 10
3146.419316640748
 20
801.1067642259192
 30
0.0
 40
4.0
100
AcDbArc
 50
270.0
 51
315.0
  0
ARC
  5
E04
330
C51
100
AcDbEntity
  8
OUTLINE
  6
Continuous
 62
     3
100
AcDbCircle
 10
1981.076155640748
 20
847.7636192259192
 30
0.0
 40
4.0
100
AcDbArc
 50
180.0
 51
225.0
  0
ARC
  5
E05
330
C51
100
AcDbEntity
  8
OUTLINE
  6
Continuous
 62
     3
100
AcDbCircle
 10
2027.733010640748
 20
801.1067642259192
 30
0.0
 40
4.0
100
AcDbArc
 50
225.0
 51
270.0
  0
LINE
  5
E06
330
C51
100
AcDbEntity
  8
OUTLINE
  6
Continuous
 62
     3
100
AcDbLine
 10
1978.247727640748
 20
844.9351922259191
 30
0.0
 11
2024.904583640748
 21
798.2783372259191
 31
0.0
  0
LINE
  5
E07
330
C51
100
AcDbEntity
  8
OUTLINE
  6
Continuous
 62
     3
100
AcDbLine
 10
3146.419316640748
 20
797.1067642259192
 30
0.0
 11
2027.733010640748
 21
797.1067642259192
 31
0.0
  0
LINE
  5
E08
330
C51
100
AcDbEntity
  8
OUTLINE
  6
Continuous
 62
     3
100
AcDbLine
 10
3149.247743640748
 20
798.2783372259191
 30
0.0
 11
3195.904599640748
 21
844.9351922259191
 31
0.0
  0
LINE
  5
E09
330
C51
100
AcDbEntity
  8
OUTLINE
  6
Continuous
 62
     3
100
AcDbLine
 10
3149.247743640748
 20
1555.935205225919
 30
0.0
 11
3195.904599640748
 21
1509.278350225919
 31
0.0
  0
LINE
  5
E0A
330
C51
100
AcDbEntity
  8
OUTLINE
  6
Continuous
 62
     3
100
AcDbLine
 10
3146.419316640748
 20
1557.106778225919
 30
0.0
 11
2027.733010640748
 21
1557.106778225919
 31
0.0
  0
LINE
  5
E0B
330
C51
100
AcDbEntity
  8
OUTLINE
  6
Continuous
 62
     3
100
AcDbLine
 10
1978.247727640748
 20
1509.278350225919
 30
0.0
 11
2024.904583640748
 21
1555.935205225919
 31
0.0
  0
ARC
  5
E0C
330
C51
100
AcDbEntity
  8
OUTLINE
  6
Continuous
 62
     3
100
AcDbCircle
 10
2027.733010640748
 20
1553.106778225919
 30
0.0
 40
4.0
100
AcDbArc
 50
90.0
 51
135.0
  0
ARC
  5
E0D
330
C51
100
AcDbEntity
  8
OUTLINE
  6
Continuous
 62
     3
100
AcDbCircle
 10
3146.419316640748
 20
1553.106778225919
 30
0.0
 40
4.0
100
AcDbArc
 50
45.0
 51
90.0
  0
ARC
  5
E0E
330
C51
100
AcDbEntity
  8
OUTLINE
  6
Continuous
 62
     3
100
AcDbCircle
 10
1981.076155640748
 20
1506.449923225919
 30
0.0
 40
4.0
100
AcDbArc
 50
135.0
 51
180.0
  0
ARC
  5
E0F
330
C51
100
AcDbEntity
  8
OUTLINE
  6
Continuous
 62
     3
100
AcDbCircle
 10
3193.076171640748
 20
1506.449923225919
 30
0.0
 40
4.0
100
AcDbArc
 50
0.0
 51
45.0
  0
LINE
  5
E10
330
C51
100
AcDbEntity
  8
OUTLINE
  6
Continuous
 62
     3
100
AcDbLine
 10
1977.076154640748
 20
1506.449923225919
 30
0.0
 11
1977.076154640748
 21
847.7636192259192
 31
0.0
  0
LINE
  5
E11
330
C51
100
AcDbEntity
  8
OUTLINE
  6
Continuous
 62
     3
100
AcDbLine
 10
3197.076172640748
 20
1506.449923225919
 30
0.0
 11
3197.076172640748
 21
847.7636192259192
 31
0.0
  0
LINE
  5
E12
330
C51
100
AcDbEntity
  8
NOTE
  6
Continuous
 62
     4
100
AcDbLine
 10
2278.076159640748
 20
922.3567642259192
 30
0.0
 11
2278.076159640748
 21
961.8567642259192
 31
0.0
  0
LINE
  5
E13
330
C51
100
AcDbEntity
  8
NOTE
  6
Continuous
 62
     4
100
AcDbLine
 10
2297.826159640748
 20
942.1067642259192
 30
0.0
 11
2258.326159640748
 21
942.1067642259192
 31
0.0
  0
LINE
  5
E14
330
C51
100
AcDbEntity
  8
NOTE
  6
Continuous
 62
     4
100
AcDbLine
 10
2361.076161640748
 20
911.1067632259191
 30
0.0
 11
2361.076161640748
 21
967.1067642259192
 31
0.0
  0
LINE
  5
E15
330
C51
100
AcDbEntity
  8
NOTE
  6
Continuous
 62
     4
100
AcDbLine
 10
2389.076161640748
 20
939.1067642259191
 30
0.0
 11
2333.076160640748
 21
939.1067642259191
 31
0.0
  0
LINE
  5
E16
330
C51
100
AcDbEntity
  8
NOTE
  6
Continuous
 62
     4
100
AcDbLine
 10
2278.076170640748
 20
942.1067542259192
 30
0.0
 11
2303.948269640748
 21
921.089008225919
 31
0.0
  0
LINE
  5
E17
330
C51
100
AcDbEntity
  8
NOTE
  6
Continuous
 62
     4
100
AcDbLine
 10
2278.076170640748
 20
942.1067542259192
 30
0.0
 11
2289.973192640748
 21
910.9688032259191
 31
0.0
  0
LINE
  5
E18
330
C51
100
AcDbEntity
  8
NOTE
  6
Continuous
 62
     4
100
AcDbLine
 10
2584.049100640748
 20
519.5861422259191
 30
0.0
 11
2278.076170640748
 21
942.1067542259192
 31
0.0
  0
LINE
  5
E19
330
C51
100
AcDbEntity
  8
NOTE
  6
Continuous
 62
     4
100
AcDbLine
 10
2361.076173640748
 20
939.1067282259191
 30
0.0
 11
2389.988547640748
 21
922.518003225919
 31
0.0
  0
LINE
  5
E1A
330
C51
100
AcDbEntity
  8
NOTE
  6
Continuous
 62
     4
100
AcDbLine
 10
2361.076173640748
 20
939.1067282259191
 30
0.0
 11
2377.820660640748
 21
910.2842842259191
 31
0.0
  0
LINE
  5
E1B
330
C51
100
AcDbEntity
  8
NOTE
  6
Continuous
 62
     4
100
AcDbLine
 10
2660.047605640748
 20
641.744135225919
 30
0.0
 11
2361.076173640748
 21
939.1067282259191
 31
0.0
  0
TEXT
  5
E1C
330
C51
100
AcDbEntity
  8
NOTE
  6
Continuous
 62
     4
100
AcDbText
 10
2593.588687640748
 20
532.1496512259191
 30
0.0
 40
55.0
  1
RL1 %%C15.88
 50
0.000003
 41
0.6309520000000001
  7
STANDARD1
100
AcDbText
  0
LINE
  5
E1D
330
C51
100
AcDbEntity
  8
NOTE
  6
Continuous
 62
     4
100
AcDbLine
 10
2584.049100640748
 20
519.5861422259191
 30
0.0
 11
2897.657172640748
 21
519.5861422259191
 31
0.0
  0
TEXT
  5
E1E
330
C51
100
AcDbEntity
  8
NOTE
  6
Continuous
 62
     4
100
AcDbText
 10
2668.097990640748
 20
657.6866392259191
 30
0.0
 40
55.0
  1
RG1 %%C28.58
 50
0.000003
 41
0.6309520000000001
  7
STANDARD1
100
AcDbText
  0
LINE
  5
E1F
330
C51
100
AcDbEntity
  8
NOTE
  6
Continuous
 62
     4
100
AcDbLine
 10
2660.047605640748
 20
641.744135225919
 30
0.0
 11
2973.655677640748
 21
641.744135225919
 31
0.0
  0
LINE
  5
E20
330
C51
100
AcDbEntity
  8
SIZE
  6
Continuous
 62
    30
100
AcDbLine
 10
1977.076154640748
 20
807.7636192259191
 30
0.0
 11
1977.076154640748
 21
521.758759225919
 31
0.0
  0
LINE
  5
E21
330
C51
100
AcDbEntity
  8
SIZE
  6
Continuous
 62
    30
100
AcDbLine
 10
2278.076159640748
 20
907.3567642259192
 30
0.0
 11
2278.076159640748
 21
521.758759225919
 31
0.0
  0
LINE
  5
E22
330
C51
100
AcDbEntity
  8
SIZE
  6
Continuous
 62
    30
100
AcDbLine
 10
1987.076154640748
 20
551.758759225919
 30
0.0
 11
2268.076159640748
 21
551.758759225919
 31
0.0
  0
CIRCLE
  5
E23
330
C51
100
AcDbEntity
  8
SIZE
  6
Continuous
 62
    30
100
AcDbCircle
 10
1977.076154640748
 20
551.758759225919
 30
0.0
 40
5.0
  0
LINE
  5
E24
330
C51
100
AcDbEntity
  8
SIZE
  6
Continuous
 62
    30
100
AcDbLine
 10
1982.076154640748
 20
551.758759225919
 30
0.0
 11
1987.076154640748
 21
551.758759225919
 31
0.0
  0
CIRCLE
  5
E25
330
C51
100
AcDbEntity
  8
SIZE
  6
Continuous
 62
    30
100
AcDbCircle
 10
2278.076159640748
 20
551.758759225919
 30
0.0
 40
5.0
  0
LINE
  5
E26
330
C51
100
AcDbEntity
  8
SIZE
  6
Continuous
 62
    30
100
AcDbLine
 10
2273.076159640748
 20
551.758759225919
 30
0.0
 11
2268.076159640748
 21
551.758759225919
 31
0.0
  0
TEXT
  5
E27
330
C51
100
AcDbEntity
  8
SIZE
  6
Continuous
 62
    30
100
AcDbText
 10
2063.933300497891
 20
566.7587592259191
 30
0.0
 40
55.0
  1
301
 41
0.9
 72
     1
 11
2127.576157640747
 21
566.7587592259191
 31
0.0
100
AcDbText
  0
POINT
  5
E28
330
C51
100
AcDbEntity
  8
Defpoints
  6
Continuous
 62
     7
100
AcDbPoint
 10
1977.076154640748
 20
827.7636192259192
 30
0.0
  0
POINT
  5
E29
330
C51
100
AcDbEntity
  8
Defpoints
  6
Continuous
 62
     7
100
AcDbPoint
 10
2278.076159640748
 20
927.3567642259191
 30
0.0
  0
POINT
  5
E2A
330
C51
100
AcDbEntity
  8
Defpoints
  6
Continuous
 62
     7
100
AcDbPoint
 10
2278.076159640748
 20
551.758759225919
 30
0.0
  0
LINE
  5
E2B
330
C51
100
AcDbEntity
  8
SIZE
  6
Continuous
 62
    30
100
AcDbLine
 10
2278.076159640748
 20
907.3567642259192
 30
0.0
 11
2278.076159640748
 21
521.758759225919
 31
0.0
  0
LINE
  5
E2C
330
C51
100
AcDbEntity
  8
SIZE
  6
Continuous
 62
    30
100
AcDbLine
 10
2361.076161640748
 20
891.1067632259191
 30
0.0
 11
2361.076161640748
 21
521.758759225919
 31
0.0
  0
LINE
  5
E2D
330
C51
100
AcDbEntity
  8
SIZE
  6
Continuous
 62
    30
100
AcDbLine
 10
2268.076159640748
 20
551.758759225919
 30
0.0
 11
2258.076159640748
 21
551.758759225919
 31
0.0
  0
LINE
  5
E2E
330
C51
100
AcDbEntity
  8
SIZE
  6
Continuous
 62
    30
100
AcDbLine
 10
2371.076161640748
 20
551.758759225919
 30
0.0
 11
2381.076161640748
 21
551.758759225919
 31
0.0
  0
LINE
  5
E2F
330
C51
100
AcDbEntity
  8
SIZE
  6
Continuous
 62
    30
100
AcDbLine
 10
2278.076159640748
 20
551.758759225919
 30
0.0
 11
2361.076161640748
 21
551.758759225919
 31
0.0
  0
CIRCLE
  5
E30
330
C51
100
AcDbEntity
  8
SIZE
  6
Continuous
 62
    30
100
AcDbCircle
 10
2278.076159640748
 20
551.758759225919
 30
0.0
 40
5.0
  0
LINE
  5
E31
330
C51
100
AcDbEntity
  8
SIZE
  6
Continuous
 62
    30
100
AcDbLine
 10
2273.076159640748
 20
551.758759225919
 30
0.0
 11
2268.076159640748
 21
551.758759225919
 31
0.0
  0
CIRCLE
  5
E32
330
C51
100
AcDbEntity
  8
SIZE
  6
Continuous
 62
    30
100
AcDbCircle
 10
2361.076161640748
 20
551.758759225919
 30
0.0
 40
5.0
  0
LINE
  5
E33
330
C51
100
AcDbEntity
  8
SIZE
  6
Continuous
 62
    30
100
AcDbLine
 10
2366.076161640748
 20
551.758759225919
 30
0.0
 11
2371.076161640748
 21
551.758759225919
 31
0.0
  0
TEXT
  5
E34
330
C51
100
AcDbEntity
  8
SIZE
  6
Continuous
 62
    30
100
AcDbText
 10
2272.433303497891
 20
566.7587592259191
 30
0.0
 40
55.0
  1
83
 41
0.9
 72
     1
 11
2319.576160640748
 21
566.7587592259191
 31
0.0
100
AcDbText
  0
POINT
  5
E35
330
C51
100
AcDbEntity
  8
Defpoints
  6
Continuous
 62
     7
100
AcDbPoint
 10
2278.076159640748
 20
927.3567642259191
 30
0.0
  0
POINT
  5
E36
330
C51
100
AcDbEntity
  8
Defpoints
  6
Continuous
 62
     7
100
AcDbPoint
 10
2361.076161640748
 20
911.1067632259191
 30
0.0
  0
POINT
  5
E37
330
C51
100
AcDbEntity
  8
Defpoints
  6
Continuous
 62
     7
100
AcDbPoint
 10
2361.076161640748
 20
551.758759225919
 30
0.0
  0
TEXT
  5
E38
330
C51
100
AcDbEntity
  8
NOTE
  6
Continuous
 62
     4
100
AcDbText
 10
3345.540443640748
 20
1653.052879225919
 30
0.0
 40
55.0
  1
＜防雪ﾌ-ﾄﾞ（別売品）取付用穴＞
 50
359.999997
 41
0.638665
  7
STANDARD1
100
AcDbText
  0
TEXT
  5
E39
330
C51
100
AcDbEntity
  8
NOTE
  6
Continuous
 62
     4
100
AcDbText
 10
3339.116517640748
 20
1731.016667225919
 30
0.0
 40
55.0
  1
(樹脂部の開口加工必要）
 50
359.999997
 41
0.693662
  7
STANDARD1
100
AcDbText
  0
TEXT
  5
E3A
330
C51
100
AcDbEntity
  8
NOTE
  6
Continuous
 62
     4
100
AcDbText
 10
3361.712441640748
 20
1801.016659225919
 30
0.0
 40
55.0
  1
2X5-φ4.6穴
 50
359.999997
 41
0.603058
  7
STANDARD1
100
AcDbText
  0
LINE
  5
E3B
330
C51
100
AcDbEntity
  8
SIZE
  6
Continuous
 62
    30
100
AcDbLine
 10
3228.076152640748
 20
1477.107079225919
 30
0.0
 11
3529.703610640748
 21
1477.107079225919
 31
0.0
  0
LINE
  5
E3C
330
C51
100
AcDbEntity
  8
SIZE
  6
Continuous
 62
    30
100
AcDbLine
 10
3228.076152640748
 20
1327.106832225919
 30
0.0
 11
3529.703610640748
 21
1327.106832225919
 31
0.0
  0
LINE
  5
E3D
330
C51
100
AcDbEntity
  8
SIZE
  6
Continuous
 62
    30
100
AcDbLine
 10
3499.703610640748
 20
1467.107079225919
 30
0.0
 11
3499.703610640748
 21
1337.106832225919
 31
0.0
  0
CIRCLE
  5
E3E
330
C51
100
AcDbEntity
  8
SIZE
  6
Continuous
 62
    30
100
AcDbCircle
 10
3499.703610640748
 20
1477.107079225919
 30
0.0
 40
5.0
  0
LINE
  5
E3F
330
C51
100
AcDbEntity
  8
SIZE
  6
Continuous
 62
    30
100
AcDbLine
 10
3499.703610640748
 20
1472.107079225919
 30
0.0
 11
3499.703610640748
 21
1467.107079225919
 31
0.0
  0
CIRCLE
  5
E40
330
C51
100
AcDbEntity
  8
SIZE
  6
Continuous
 62
    30
100
AcDbCircle
 10
3499.703610640748
 20
1327.106832225919
 30
0.0
 40
5.0
  0
LINE
  5
E41
330
C51
100
AcDbEntity
  8
SIZE
  6
Continuous
 62
    30
100
AcDbLine
 10
3499.703610640748
 20
1332.106832225919
 30
0.0
 11
3499.703610640748
 21
1337.106832225919
 31
0.0
  0
TEXT
  5
E42
330
C51
100
AcDbEntity
  8
SIZE
  6
Continuous
 62
    30
100
AcDbText
 10
3484.703610640748
 20
1327.856955225919
 30
0.0
 40
55.0
  1
150
 50
90.0
 41
0.9
 72
     1
 11
3484.703610640748
 21
1402.106955225919
 31
0.0
100
AcDbText
  0
POINT
  5
E43
330
C51
100
AcDbEntity
  8
Defpoints
  6
Continuous
 62
     7
100
AcDbPoint
 10
3208.076152640748
 20
1477.107079225919
 30
0.0
  0
POINT
  5
E44
330
C51
100
AcDbEntity
  8
Defpoints
  6
Continuous
 62
     7
100
AcDbPoint
 10
3208.076152640748
 20
1327.106832225919
 30
0.0
  0
POINT
  5
E45
330
C51
100
AcDbEntity
  8
Defpoints
  6
Continuous
 62
     7
100
AcDbPoint
 10
3499.703610640748
 20
1327.106832225919
 30
0.0
  0
LINE
  5
E46
330
C51
100
AcDbEntity
  8
SIZE
  6
Continuous
 62
    30
100
AcDbLine
 10
3228.076152640748
 20
1327.106832225919
 30
0.0
 11
3529.703610640748
 21
1327.106832225919
 31
0.0
  0
LINE
  5
E47
330
C51
100
AcDbEntity
  8
SIZE
  6
Continuous
 62
    30
100
AcDbLine
 10
3228.076152640748
 20
1177.106951225919
 30
0.0
 11
3529.703610640748
 21
1177.106951225919
 31
0.0
  0
LINE
  5
E48
330
C51
100
AcDbEntity
  8
SIZE
  6
Continuous
 62
    30
100
AcDbLine
 10
3499.703610640748
 20
1317.106832225919
 30
0.0
 11
3499.703610640748
 21
1187.106951225919
 31
0.0
  0
CIRCLE
  5
E49
330
C51
100
AcDbEntity
  8
SIZE
  6
Continuous
 62
    30
100
AcDbCircle
 10
3499.703610640748
 20
1327.106832225919
 30
0.0
 40
5.0
  0
LINE
  5
E4A
330
C51
100
AcDbEntity
  8
SIZE
  6
Continuous
 62
    30
100
AcDbLine
 10
3499.703610640748
 20
1322.106832225919
 30
0.0
 11
3499.703610640748
 21
1317.106832225919
 31
0.0
  0
CIRCLE
  5
E4B
330
C51
100
AcDbEntity
  8
SIZE
  6
Continuous
 62
    30
100
AcDbCircle
 10
3499.703610640748
 20
1177.106951225919
 30
0.0
 40
5.0
  0
LINE
  5
E4C
330
C51
100
AcDbEntity
  8
SIZE
  6
Continuous
 62
    30
100
AcDbLine
 10
3499.703610640748
 20
1182.106951225919
 30
0.0
 11
3499.703610640748
 21
1187.106951225919
 31
0.0
  0
TEXT
  5
E4D
330
C51
100
AcDbEntity
  8
SIZE
  6
Continuous
 62
    30
100
AcDbText
 10
3484.703610640748
 20
1177.856892225919
 30
0.0
 40
55.0
  1
150
 50
90.0
 41
0.9
 72
     1
 11
3484.703610640748
 21
1252.106892225919
 31
0.0
100
AcDbText
  0
POINT
  5
E4E
330
C51
100
AcDbEntity
  8
Defpoints
  6
Continuous
 62
     7
100
AcDbPoint
 10
3208.076152640748
 20
1327.106832225919
 30
0.0
  0
POINT
  5
E4F
330
C51
100
AcDbEntity
  8
Defpoints
  6
Continuous
 62
     7
100
AcDbPoint
 10
3208.076152640748
 20
1177.106951225919
 30
0.0
  0
POINT
  5
E50
330
C51
100
AcDbEntity
  8
Defpoints
  6
Continuous
 62
     7
100
AcDbPoint
 10
3499.703610640748
 20
1177.106951225919
 30
0.0
  0
LINE
  5
E51
330
C51
100
AcDbEntity
  8
SIZE
  6
Continuous
 62
    30
100
AcDbLine
 10
3228.076152640748
 20
1177.106951225919
 30
0.0
 11
3529.703610640748
 21
1177.106951225919
 31
0.0
  0
LINE
  5
E52
330
C51
100
AcDbEntity
  8
SIZE
  6
Continuous
 62
    30
100
AcDbLine
 10
3228.076152640748
 20
1027.106948225919
 30
0.0
 11
3529.703610640748
 21
1027.106948225919
 31
0.0
  0
LINE
  5
E53
330
C51
100
AcDbEntity
  8
SIZE
  6
Continuous
 62
    30
100
AcDbLine
 10
3499.703610640748
 20
1167.106951225919
 30
0.0
 11
3499.703610640748
 21
1037.106948225919
 31
0.0
  0
CIRCLE
  5
E54
330
C51
100
AcDbEntity
  8
SIZE
  6
Continuous
 62
    30
100
AcDbCircle
 10
3499.703610640748
 20
1177.106951225919
 30
0.0
 40
5.0
  0
LINE
  5
E55
330
C51
100
AcDbEntity
  8
SIZE
  6
Continuous
 62
    30
100
AcDbLine
 10
3499.703610640748
 20
1172.106951225919
 30
0.0
 11
3499.703610640748
 21
1167.106951225919
 31
0.0
  0
CIRCLE
  5
E56
330
C51
100
AcDbEntity
  8
SIZE
  6
Continuous
 62
    30
100
AcDbCircle
 10
3499.703610640748
 20
1027.106948225919
 30
0.0
 40
5.0
  0
LINE
  5
E57
330
C51
100
AcDbEntity
  8
SIZE
  6
Continuous
 62
    30
100
AcDbLine
 10
3499.703610640748
 20
1032.106948225919
 30
0.0
 11
3499.703610640748
 21
1037.106948225919
 31
0.0
  0
TEXT
  5
E58
330
C51
100
AcDbEntity
  8
SIZE
  6
Continuous
 62
    30
100
AcDbText
 10
3484.703610640748
 20
1027.856950225919
 30
0.0
 40
55.0
  1
150
 50
90.0
 41
0.9
 72
     1
 11
3484.703610640748
 21
1102.106950225919
 31
0.0
100
AcDbText
  0
POINT
  5
E59
330
C51
100
AcDbEntity
  8
Defpoints
  6
Continuous
 62
     7
100
AcDbPoint
 10
3208.076152640748
 20
1177.106951225919
 30
0.0
  0
POINT
  5
E5A
330
C51
100
AcDbEntity
  8
Defpoints
  6
Continuous
 62
     7
100
AcDbPoint
 10
3208.076152640748
 20
1027.106948225919
 30
0.0
  0
POINT
  5
E5B
330
C51
100
AcDbEntity
  8
Defpoints
  6
Continuous
 62
     7
100
AcDbPoint
 10
3499.703610640748
 20
1027.106948225919
 30
0.0
  0
LINE
  5
E5C
330
C51
100
AcDbEntity
  8
SIZE
  6
Continuous
 62
    30
100
AcDbLine
 10
3228.076152640748
 20
1027.106948225919
 30
0.0
 11
3529.703610640748
 21
1027.106948225919
 31
0.0
  0
LINE
  5
E5D
330
C51
100
AcDbEntity
  8
SIZE
  6
Continuous
 62
    30
100
AcDbLine
 10
3228.076152640748
 20
877.1069462259191
 30
0.0
 11
3529.703610640748
 21
877.1069462259191
 31
0.0
  0
LINE
  5
E5E
330
C51
100
AcDbEntity
  8
SIZE
  6
Continuous
 62
    30
100
AcDbLine
 10
3499.703610640748
 20
1017.106948225919
 30
0.0
 11
3499.703610640748
 21
887.1069462259191
 31
0.0
  0
CIRCLE
  5
E5F
330
C51
100
AcDbEntity
  8
SIZE
  6
Continuous
 62
    30
100
AcDbCircle
 10
3499.703610640748
 20
1027.106948225919
 30
0.0
 40
5.0
  0
LINE
  5
E60
330
C51
100
AcDbEntity
  8
SIZE
  6
Continuous
 62
    30
100
AcDbLine
 10
3499.703610640748
 20
1022.106948225919
 30
0.0
 11
3499.703610640748
 21
1017.106948225919
 31
0.0
  0
CIRCLE
  5
E61
330
C51
100
AcDbEntity
  8
SIZE
  6
Continuous
 62
    30
100
AcDbCircle
 10
3499.703610640748
 20
877.1069462259191
 30
0.0
 40
5.0
  0
LINE
  5
E62
330
C51
100
AcDbEntity
  8
SIZE
  6
Continuous
 62
    30
100
AcDbLine
 10
3499.703610640748
 20
882.1069462259192
 30
0.0
 11
3499.703610640748
 21
887.1069462259191
 31
0.0
  0
TEXT
  5
E63
330
C51
100
AcDbEntity
  8
SIZE
  6
Continuous
 62
    30
100
AcDbText
 10
3484.703610640748
 20
877.856947225919
 30
0.0
 40
55.0
  1
150
 50
90.0
 41
0.9
 72
     1
 11
3484.703610640748
 21
952.1069472259192
 31
0.0
100
AcDbText
  0
POINT
  5
E64
330
C51
100
AcDbEntity
  8
Defpoints
  6
Continuous
 62
     7
100
AcDbPoint
 10
3208.076152640748
 20
1027.106948225919
 30
0.0
  0
POINT
  5
E65
330
C51
100
AcDbEntity
  8
Defpoints
  6
Continuous
 62
     7
100
AcDbPoint
 10
3208.076152640748
 20
877.1069462259191
 30
0.0
  0
POINT
  5
E66
330
C51
100
AcDbEntity
  8
Defpoints
  6
Continuous
 62
     7
100
AcDbPoint
 10
3499.703610640748
 20
877.1069462259191
 30
0.0
  0
LINE
  5
E67
330
C51
100
AcDbEntity
  8
SIZE
  6
Continuous
 62
    30
100
AcDbLine
 10
3228.076152640748
 20
877.1069462259191
 30
0.0
 11
3530.061100640748
 21
877.1069462259191
 31
0.0
  0
LINE
  5
E68
330
C51
100
AcDbEntity
  8
SIZE
  6
Continuous
 62
    30
100
AcDbLine
 10
3166.419291640748
 20
797.1069442259191
 30
0.0
 11
3530.061100640748
 21
797.1069442259191
 31
0.0
  0
LINE
  5
E69
330
C51
100
AcDbEntity
  8
SIZE
  6
Continuous
 62
    30
100
AcDbLine
 10
3500.061100640748
 20
867.1069462259191
 30
0.0
 11
3500.061100640748
 21
807.1069442259192
 31
0.0
  0
LINE
  5
E6A
330
C51
100
AcDbEntity
  8
SIZE
  6
Continuous
 62
    30
100
AcDbLine
 10
3500.061100640748
 20
797.1069442259191
 30
0.0
 11
3500.061100640748
 21
665.7725472259191
 31
0.0
  0
CIRCLE
  5
E6B
330
C51
100
AcDbEntity
  8
SIZE
  6
Continuous
 62
    30
100
AcDbCircle
 10
3500.061100640748
 20
877.1069462259191
 30
0.0
 40
5.0
  0
LINE
  5
E6C
330
C51
100
AcDbEntity
  8
SIZE
  6
Continuous
 62
    30
100
AcDbLine
 10
3500.061100640748
 20
872.1069462259192
 30
0.0
 11
3500.061100640748
 21
867.1069462259191
 31
0.0
  0
CIRCLE
  5
E6D
330
C51
100
AcDbEntity
  8
SIZE
  6
Continuous
 62
    30
100
AcDbCircle
 10
3500.061100640748
 20
797.1069442259191
 30
0.0
 40
5.0
  0
LINE
  5
E6E
330
C51
100
AcDbEntity
  8
SIZE
  6
Continuous
 62
    30
100
AcDbLine
 10
3500.061100640748
 20
802.1069442259191
 30
0.0
 11
3500.061100640748
 21
807.1069442259192
 31
0.0
  0
TEXT
  5
E6F
330
C51
100
AcDbEntity
  8
SIZE
  6
Continuous
 62
    30
100
AcDbText
 10
3485.061100640749
 20
673.701118083062
 30
0.0
 40
55.0
  1
80
 50
90.0
 41
0.9
 72
     1
 11
3485.061100640749
 21
720.8439752259192
 31
0.0
100
AcDbText
  0
POINT
  5
E70
330
C51
100
AcDbEntity
  8
Defpoints
  6
Continuous
 62
     7
100
AcDbPoint
 10
3208.076152640748
 20
877.1069462259191
 30
0.0
  0
POINT
  5
E71
330
C51
100
AcDbEntity
  8
Defpoints
  6
Continuous
 62
     7
100
AcDbPoint
 10
3146.419291640748
 20
797.1069442259191
 30
0.0
  0
POINT
  5
E72
330
C51
100
AcDbEntity
  8
Defpoints
  6
Continuous
 62
     7
100
AcDbPoint
 10
3500.061100640748
 20
797.1069442259191
 30
0.0
  0
LINE
  5
E73
330
C51
100
AcDbEntity
  8
SIZE
  6
Continuous
 62
    30
100
AcDbLine
 10
3166.419330640748
 20
797.1069442259191
 30
0.0
 11
3701.762631640748
 21
797.1069442259191
 31
0.0
  0
LINE
  5
E74
330
C51
100
AcDbEntity
  8
SIZE
  6
Continuous
 62
    30
100
AcDbLine
 10
3166.419330640748
 20
1557.107080225919
 30
0.0
 11
3701.762631640748
 21
1557.107080225919
 31
0.0
  0
LINE
  5
E75
330
C51
100
AcDbEntity
  8
SIZE
  6
Continuous
 62
    30
100
AcDbLine
 10
3671.762631640748
 20
807.1069442259192
 30
0.0
 11
3671.762631640748
 21
1547.107080225919
 31
0.0
  0
CIRCLE
  5
E76
330
C51
100
AcDbEntity
  8
SIZE
  6
Continuous
 62
    30
100
AcDbCircle
 10
3671.762631640748
 20
797.1069442259191
 30
0.0
 40
5.0
  0
LINE
  5
E77
330
C51
100
AcDbEntity
  8
SIZE
  6
Continuous
 62
    30
100
AcDbLine
 10
3671.762631640748
 20
802.1069442259191
 30
0.0
 11
3671.762631640748
 21
807.1069442259192
 31
0.0
  0
CIRCLE
  5
E78
330
C51
100
AcDbEntity
  8
SIZE
  6
Continuous
 62
    30
100
AcDbCircle
 10
3671.762631640748
 20
1557.107080225919
 30
0.0
 40
5.0
  0
LINE
  5
E79
330
C51
100
AcDbEntity
  8
SIZE
  6
Continuous
 62
    30
100
AcDbLine
 10
3671.762631640748
 20
1552.107080225919
 30
0.0
 11
3671.762631640748
 21
1547.107080225919
 31
0.0
  0
TEXT
  5
E7A
330
C51
100
AcDbEntity
  8
SIZE
  6
Continuous
 62
    30
100
AcDbText
 10
3656.762631640748
 20
1090.800055511633
 30
0.0
 40
55.0
  1
760
 50
90.0
 41
0.9
 72
     1
 11
3656.762631640748
 21
1161.514341225919
 31
0.0
100
AcDbText
  0
POINT
  5
E7B
330
C51
100
AcDbEntity
  8
Defpoints
  6
Continuous
 62
     7
100
AcDbPoint
 10
3146.419330640748
 20
797.1069442259191
 30
0.0
  0
POINT
  5
E7C
330
C51
100
AcDbEntity
  8
Defpoints
  6
Continuous
 62
     7
100
AcDbPoint
 10
3146.419330640748
 20
1557.107080225919
 30
0.0
  0
POINT
  5
E7D
330
C51
100
AcDbEntity
  8
Defpoints
  6
Continuous
 62
     7
100
AcDbPoint
 10
3671.762631640748
 20
1557.107080225919
 30
0.0
  0
LINE
  5
E7E
330
C51
100
AcDbEntity
  8
NOTE
  6
Continuous
 62
     4
100
AcDbLine
 10
3179.076244640748
 20
1477.106851225919
 30
0.0
 11
3204.082336640748
 21
1499.147870225919
 31
0.0
  0
LINE
  5
E7F
330
C51
100
AcDbEntity
  8
NOTE
  6
Continuous
 62
     4
100
AcDbLine
 10
3179.076244640748
 20
1477.106851225919
 30
0.0
 11
3189.711645640748
 21
1508.697979225919
 31
0.0
  0
LINE
  5
E80
330
C51
100
AcDbEntity
  8
NOTE
  6
Continuous
 62
     4
100
AcDbLine
 10
3340.832436640748
 20
1720.512250225919
 30
0.0
 11
3179.076244640748
 21
1477.106851225919
 31
0.0
  0
LINE
  5
E81
330
C51
100
AcDbEntity
  8
NOTE
  6
Continuous
 62
     4
100
AcDbLine
 10
3957.304717640748
 20
1720.512250225919
 30
0.0
 11
3340.832436640748
 21
1720.512250225919
 31
0.0
  0
LINE
  5
E82
330
C51
100
AcDbEntity
  8
BASIS
  6
DASHDOT
 62
     6
100
AcDbLine
 10
1962.076163640748
 20
730.6231842259192
 30
0.0
 11
1962.076163640748
 21
1623.590358225919
 31
0.0
  0
LINE
  5
E83
330
C51
100
AcDbEntity
  8
ARRANGE
  6
Continuous
 62
     1
100
AcDbLine
 10
1999.973484640747
 20
1139.209450225919
 30
0.0
 11
1924.178842640747
 21
1215.004092225919
 31
0.0
  0
LINE
  5
E84
330
C51
100
AcDbEntity
  8
ARRANGE
  6
Continuous
 62
     1
100
AcDbLine
 10
1999.973484640747
 20
1215.004092225919
 30
0.0
 11
1924.178842640747
 21
1139.209450225919
 31
0.0
  0
CIRCLE
  5
E85
330
C51
100
AcDbEntity
  8
ARRANGE
  6
Continuous
 62
     1
100
AcDbCircle
 10
1962.076163640748
 20
1177.106771225919
 30
0.0
 40
34.449674
  0
LINE
  5
E86
330
C51
100
AcDbEntity
  8
SIZE
  6
Continuous
 62
    30
100
AcDbLine
 10
3197.076172640748
 20
1526.449923225919
 30
0.0
 11
3197.076172640748
 21
1856.220898225919
 31
0.0
  0
LINE
  5
E87
330
C51
100
AcDbEntity
  8
SIZE
  6
Continuous
 62
    30
100
AcDbLine
 10
3179.076171640748
 20
1526.106777225919
 30
0.0
 11
3179.076171640748
 21
1856.220898225919
 31
0.0
  0
LINE
  5
E88
330
C51
100
AcDbEntity
  8
SIZE
  6
Continuous
 62
    30
100
AcDbLine
 10
3169.076171640748
 20
1826.220898225919
 30
0.0
 11
3159.076171640748
 21
1826.220898225919
 31
0.0
  0
LINE
  5
E89
330
C51
100
AcDbEntity
  8
SIZE
  6
Continuous
 62
    30
100
AcDbLine
 10
3207.076172640749
 20
1826.220898225919
 30
0.0
 11
3317.790457640748
 21
1826.220898225919
 31
0.0
  0
LINE
  5
E8A
330
C51
100
AcDbEntity
  8
SIZE
  6
Continuous
 62
    30
100
AcDbLine
 10
3179.076171640748
 20
1826.220898225919
 30
0.0
 11
3197.076172640748
 21
1826.220898225919
 31
0.0
  0
CIRCLE
  5
E8B
330
C51
100
AcDbEntity
  8
SIZE
  6
Continuous
 62
    30
100
AcDbCircle
 10
3179.076171640748
 20
1826.220898225919
 30
0.0
 40
5.0
  0
LINE
  5
E8C
330
C51
100
AcDbEntity
  8
SIZE
  6
Continuous
 62
    30
100
AcDbLine
 10
3174.076171640748
 20
1826.220898225919
 30
0.0
 11
3169.076171640748
 21
1826.220898225919
 31
0.0
  0
CIRCLE
  5
E8D
330
C51
100
AcDbEntity
  8
SIZE
  6
Continuous
 62
    30
100
AcDbCircle
 10
3197.076172640748
 20
1826.220898225919
 30
0.0
 40
5.0
  0
LINE
  5
E8E
330
C51
100
AcDbEntity
  8
SIZE
  6
Continuous
 62
    30
100
AcDbLine
 10
3202.076172640749
 20
1826.220898225919
 30
0.0
 11
3207.076172640749
 21
1826.220898225919
 31
0.0
  0
TEXT
  5
E8F
330
C51
100
AcDbEntity
  8
SIZE
  6
Continuous
 62
    30
100
AcDbText
 10
3216.754743212177
 20
1841.220898225919
 30
0.0
 40
55.0
  1
18
 41
0.9
 72
     1
 11
3267.433314640748
 21
1841.220898225919
 31
0.0
100
AcDbText
  0
POINT
  5
E90
330
C51
100
AcDbEntity
  8
Defpoints
  6
Continuous
 62
     7
100
AcDbPoint
 10
3197.076172640748
 20
1506.449923225919
 30
0.0
  0
POINT
  5
E91
330
C51
100
AcDbEntity
  8
Defpoints
  6
Continuous
 62
     7
100
AcDbPoint
 10
3179.076171640748
 20
1506.106777225919
 30
0.0
  0
POINT
  5
E92
330
C51
100
AcDbEntity
  8
Defpoints
  6
Continuous
 62
     7
100
AcDbPoint
 10
3179.076171640748
 20
1826.220898225919
 30
0.0
  0
LINE
  5
E93
330
C51
100
AcDbEntity
  8
SIZE
  6
Continuous
 62
    30
100
AcDbLine
 10
3179.076171640748
 20
1526.106777225919
 30
0.0
 11
3179.076171640748
 21
1856.220898225919
 31
0.0
  0
LINE
  5
E94
330
C51
100
AcDbEntity
  8
SIZE
  6
Continuous
 62
    30
100
AcDbLine
 10
1995.076155640748
 20
1526.106777225919
 30
0.0
 11
1995.076155640748
 21
1856.220898225919
 31
0.0
  0
LINE
  5
E95
330
C51
100
AcDbEntity
  8
SIZE
  6
Continuous
 62
    30
100
AcDbLine
 10
3169.076171640748
 20
1826.220898225919
 30
0.0
 11
2005.076155640748
 21
1826.220898225919
 31
0.0
  0
CIRCLE
  5
E96
330
C51
100
AcDbEntity
  8
SIZE
  6
Continuous
 62
    30
100
AcDbCircle
 10
3179.076171640748
 20
1826.220898225919
 30
0.0
 40
5.0
  0
LINE
  5
E97
330
C51
100
AcDbEntity
  8
SIZE
  6
Continuous
 62
    30
100
AcDbLine
 10
3174.076171640748
 20
1826.220898225919
 30
0.0
 11
3169.076171640748
 21
1826.220898225919
 31
0.0
  0
CIRCLE
  5
E98
330
C51
100
AcDbEntity
  8
SIZE
  6
Continuous
 62
    30
100
AcDbCircle
 10
1995.076155640748
 20
1826.220898225919
 30
0.0
 40
5.0
  0
LINE
  5
E99
330
C51
100
AcDbEntity
  8
SIZE
  6
Continuous
 62
    30
100
AcDbLine
 10
2000.076155640748
 20
1826.220898225919
 30
0.0
 11
2005.076155640748
 21
1826.220898225919
 31
0.0
  0
TEXT
  5
E9A
330
C51
100
AcDbEntity
  8
SIZE
  6
Continuous
 62
    30
100
AcDbText
 10
2459.790449355034
 20
1840.625660225919
 30
0.0
 40
55.0
  1
(1184)
 41
0.9
 72
     1
 11
2587.076163640748
 21
1840.625660225919
 31
0.0
100
AcDbText
  0
POINT
  5
E9B
330
C51
100
AcDbEntity
  8
Defpoints
  6
Continuous
 62
     7
100
AcDbPoint
 10
3179.076171640748
 20
1506.106777225919
 30
0.0
  0
POINT
  5
E9C
330
C51
100
AcDbEntity
  8
Defpoints
  6
Continuous
 62
     7
100
AcDbPoint
 10
1995.076155640748
 20
1506.106777225919
 30
0.0
  0
POINT
  5
E9D
330
C51
100
AcDbEntity
  8
Defpoints
  6
Continuous
 62
     7
100
AcDbPoint
 10
1995.076155640748
 20
1826.220898225919
 30
0.0
  0
LINE
  5
E9E
330
C51
100
AcDbEntity
  8
SIZE
  6
Continuous
 62
    30
100
AcDbLine
 10
1995.076155640748
 20
1526.106777225919
 30
0.0
 11
1995.076155640748
 21
1856.220898225919
 31
0.0
  0
LINE
  5
E9F
330
C51
100
AcDbEntity
  8
SIZE
  6
Continuous
 62
    30
100
AcDbLine
 10
1977.076154640748
 20
1526.449923225919
 30
0.0
 11
1977.076154640748
 21
1856.220898225919
 31
0.0
  0
LINE
  5
EA0
330
C51
100
AcDbEntity
  8
SIZE
  6
Continuous
 62
    30
100
AcDbLine
 10
2005.076155640748
 20
1826.220898225919
 30
0.0
 11
2015.076155640748
 21
1826.220898225919
 31
0.0
  0
LINE
  5
EA1
330
C51
100
AcDbEntity
  8
SIZE
  6
Continuous
 62
    30
100
AcDbLine
 10
1967.076154640747
 20
1826.220898225919
 30
0.0
 11
1957.076154640748
 21
1826.220898225919
 31
0.0
  0
LINE
  5
EA2
330
C51
100
AcDbEntity
  8
SIZE
  6
Continuous
 62
    30
100
AcDbLine
 10
1986.076155640748
 20
1826.220898225919
 30
0.0
 11
2043.284786640748
 21
1687.666333225919
 31
0.0
  0
LINE
  5
EA3
330
C51
100
AcDbEntity
  8
SIZE
  6
Continuous
 62
    30
100
AcDbLine
 10
2043.284786640748
 20
1687.666333225919
 30
0.0
 11
2143.999072640748
 21
1687.666333225919
 31
0.0
  0
TEXT
  5
EA4
330
C51
100
AcDbEntity
  8
SIZE
  6
Continuous
 62
    30
100
AcDbText
 10
2042.963358212177
 20
1702.666333225919
 30
0.0
 40
55.0
  1
18
 41
0.9
 72
     1
 11
2093.641929640748
 21
1702.666333225919
 31
0.0
100
AcDbText
  0
LINE
  5
EA5
330
C51
100
AcDbEntity
  8
SIZE
  6
Continuous
 62
    30
100
AcDbLine
 10
1995.076155640748
 20
1826.220898225919
 30
0.0
 11
1977.076154640748
 21
1826.220898225919
 31
0.0
  0
LINE
  5
EA6
330
C51
100
AcDbEntity
  8
SIZE
  6
Continuous
 62
    30
100
AcDbLine
 10
1995.076155640748
 20
1826.220898225919
 30
0.0
 11
1977.076154640748
 21
1826.220898225919
 31
0.0
  0
CIRCLE
  5
EA7
330
C51
100
AcDbEntity
  8
SIZE
  6
Continuous
 62
    30
100
AcDbCircle
 10
1995.076155640748
 20
1826.220898225919
 30
0.0
 40
5.0
  0
LINE
  5
EA8
330
C51
100
AcDbEntity
  8
SIZE
  6
Continuous
 62
    30
100
AcDbLine
 10
2000.076155640748
 20
1826.220898225919
 30
0.0
 11
2005.076155640748
 21
1826.220898225919
 31
0.0
  0
CIRCLE
  5
EA9
330
C51
100
AcDbEntity
  8
SIZE
  6
Continuous
 62
    30
100
AcDbCircle
 10
1977.076154640748
 20
1826.220898225919
 30
0.0
 40
5.0
  0
LINE
  5
EAA
330
C51
100
AcDbEntity
  8
SIZE
  6
Continuous
 62
    30
100
AcDbLine
 10
1972.076154640747
 20
1826.220898225919
 30
0.0
 11
1967.076154640747
 21
1826.220898225919
 31
0.0
  0
POINT
  5
EAB
330
C51
100
AcDbEntity
  8
Defpoints
  6
Continuous
 62
     7
100
AcDbPoint
 10
1995.076155640748
 20
1506.106777225919
 30
0.0
  0
POINT
  5
EAC
330
C51
100
AcDbEntity
  8
Defpoints
  6
Continuous
 62
     7
100
AcDbPoint
 10
1977.076154640748
 20
1506.449923225919
 30
0.0
  0
POINT
  5
EAD
330
C51
100
AcDbEntity
  8
Defpoints
  6
Continuous
 62
     7
100
AcDbPoint
 10
1977.076154640748
 20
1826.220898225919
 30
0.0
  0
LINE
  5
EAE
330
C51
100
AcDbEntity
  8
SIZE
  6
Continuous
 62
    30
100
AcDbLine
 10
3197.076172640748
 20
1526.449923225919
 30
0.0
 11
3197.076172640748
 21
2019.820380225919
 31
0.0
  0
LINE
  5
EAF
330
C51
100
AcDbEntity
  8
SIZE
  6
Continuous
 62
    30
100
AcDbLine
 10
1977.076154640748
 20
1526.449923225919
 30
0.0
 11
1977.076154640748
 21
2019.820380225919
 31
0.0
  0
LINE
  5
EB0
330
C51
100
AcDbEntity
  8
SIZE
  6
Continuous
 62
    30
100
AcDbLine
 10
3187.076172640749
 20
1989.820380225919
 30
0.0
 11
1987.076154640748
 21
1989.820380225919
 31
0.0
  0
CIRCLE
  5
EB1
330
C51
100
AcDbEntity
  8
SIZE
  6
Continuous
 62
    30
100
AcDbCircle
 10
3197.076172640748
 20
1989.820380225919
 30
0.0
 40
5.0
  0
LINE
  5
EB2
330
C51
100
AcDbEntity
  8
SIZE
  6
Continuous
 62
    30
100
AcDbLine
 10
3192.076172640748
 20
1989.820380225919
 30
0.0
 11
3187.076172640749
 21
1989.820380225919
 31
0.0
  0
CIRCLE
  5
EB3
330
C51
100
AcDbEntity
  8
SIZE
  6
Continuous
 62
    30
100
AcDbCircle
 10
1977.076154640748
 20
1989.820380225919
 30
0.0
 40
5.0
  0
LINE
  5
EB4
330
C51
100
AcDbEntity
  8
SIZE
  6
Continuous
 62
    30
100
AcDbLine
 10
1982.076154640748
 20
1989.820380225919
 30
0.0
 11
1987.076154640748
 21
1989.820380225919
 31
0.0
  0
TEXT
  5
EB5
330
C51
100
AcDbEntity
  8
SIZE
  6
Continuous
 62
    30
100
AcDbText
 10
2489.25473506932
 20
2004.820380225919
 30
0.0
 40
55.0
  1
1220
 41
0.9
 72
     1
 11
2587.076163640748
 21
2004.820380225919
 31
0.0
100
AcDbText
  0
POINT
  5
EB6
330
C51
100
AcDbEntity
  8
Defpoints
  6
Continuous
 62
     7
100
AcDbPoint
 10
3197.076172640748
 20
1506.449923225919
 30
0.0
  0
POINT
  5
EB7
330
C51
100
AcDbEntity
  8
Defpoints
  6
Continuous
 62
     7
100
AcDbPoint
 10
1977.076154640748
 20
1506.449923225919
 30
0.0
  0
POINT
  5
EB8
330
C51
100
AcDbEntity
  8
Defpoints
  6
Continuous
 62
     7
100
AcDbPoint
 10
1977.076154640748
 20
1989.820380225919
 30
0.0
  0
LINE
  5
EB9
330
C51
100
AcDbEntity
  8
SIZE
  6
Continuous
 62
    30
100
AcDbLine
 10
2409.076161640748
 20
939.1067642259191
 30
0.0
 11
3318.545926640748
 21
939.1067642259191
 31
0.0
  0
LINE
  5
EBA
330
C51
100
AcDbEntity
  8
SIZE
  6
Continuous
 62
    30
100
AcDbLine
 10
3166.419316640748
 20
797.1067642259192
 30
0.0
 11
3318.545926640748
 21
797.1067642259192
 31
0.0
  0
LINE
  5
EBB
330
C51
100
AcDbEntity
  8
SIZE
  6
Continuous
 62
    30
100
AcDbLine
 10
3288.545926640748
 20
929.1067642259191
 30
0.0
 11
3288.545926640748
 21
807.106764225919
 31
0.0
  0
LINE
  5
EBC
330
C51
100
AcDbEntity
  8
SIZE
  6
Continuous
 62
    30
100
AcDbLine
 10
3288.545926640748
 20
797.1067642259192
 30
0.0
 11
3288.545926640748
 21
639.2496212259191
 31
0.0
  0
CIRCLE
  5
EBD
330
C51
100
AcDbEntity
  8
SIZE
  6
Continuous
 62
    30
100
AcDbCircle
 10
3288.545926640748
 20
939.1067642259191
 30
0.0
 40
5.0
  0
LINE
  5
EBE
330
C51
100
AcDbEntity
  8
SIZE
  6
Continuous
 62
    30
100
AcDbLine
 10
3288.545926640748
 20
934.1067642259192
 30
0.0
 11
3288.545926640748
 21
929.1067642259191
 31
0.0
  0
CIRCLE
  5
EBF
330
C51
100
AcDbEntity
  8
SIZE
  6
Continuous
 62
    30
100
AcDbCircle
 10
3288.545926640748
 20
797.1067642259192
 30
0.0
 40
5.0
  0
LINE
  5
EC0
330
C51
100
AcDbEntity
  8
SIZE
  6
Continuous
 62
    30
100
AcDbLine
 10
3288.545926640748
 20
802.1067642259191
 30
0.0
 11
3288.545926640748
 21
807.106764225919
 31
0.0
  0
TEXT
  5
EC1
330
C51
100
AcDbEntity
  8
SIZE
  6
Continuous
 62
    30
100
AcDbText
 10
3273.545926640748
 20
638.9281932259191
 30
0.0
 40
55.0
  1
142
 50
90.0
 41
0.9
 72
     1
 11
3273.545926640748
 21
713.1781932259191
 31
0.0
100
AcDbText
  0
POINT
  5
EC2
330
C51
100
AcDbEntity
  8
Defpoints
  6
Continuous
 62
     7
100
AcDbPoint
 10
2389.076161640748
 20
939.1067642259191
 30
0.0
  0
POINT
  5
EC3
330
C51
100
AcDbEntity
  8
Defpoints
  6
Continuous
 62
     7
100
AcDbPoint
 10
3146.419316640748
 20
797.1067642259192
 30
0.0
  0
POINT
  5
EC4
330
C51
100
AcDbEntity
  8
Defpoints
  6
Continuous
 62
     7
100
AcDbPoint
 10
3288.545926640748
 20
797.1067642259192
 30
0.0
  0
LINE
  5
EC5
330
C51
100
AcDbEntity
  8
SIZE
  6
Continuous
 62
    30
100
AcDbLine
 10
3166.419316640748
 20
797.1067642259192
 30
0.0
 11
3417.052121640748
 21
797.1067642259192
 31
0.0
  0
LINE
  5
EC6
330
C51
100
AcDbEntity
  8
SIZE
  6
Continuous
 62
    30
100
AcDbLine
 10
2317.826159640748
 20
942.1067642259192
 30
0.0
 11
3417.052121640748
 21
942.1067642259192
 31
0.0
  0
LINE
  5
EC7
330
C51
100
AcDbEntity
  8
SIZE
  6
Continuous
 62
    30
100
AcDbLine
 10
3387.052121640748
 20
932.1067642259192
 30
0.0
 11
3387.052121640748
 21
807.106764225919
 31
0.0
  0
LINE
  5
EC8
330
C51
100
AcDbEntity
  8
SIZE
  6
Continuous
 62
    30
100
AcDbLine
 10
3387.052121640748
 20
797.1067642259192
 30
0.0
 11
3387.052121640748
 21
639.2496212259191
 31
0.0
  0
CIRCLE
  5
EC9
330
C51
100
AcDbEntity
  8
SIZE
  6
Continuous
 62
    30
100
AcDbCircle
 10
3387.052121640748
 20
942.1067642259192
 30
0.0
 40
5.0
  0
LINE
  5
ECA
330
C51
100
AcDbEntity
  8
SIZE
  6
Continuous
 62
    30
100
AcDbLine
 10
3387.052121640748
 20
937.1067642259191
 30
0.0
 11
3387.052121640748
 21
932.1067642259192
 31
0.0
  0
CIRCLE
  5
ECB
330
C51
100
AcDbEntity
  8
SIZE
  6
Continuous
 62
    30
100
AcDbCircle
 10
3387.052121640748
 20
797.1067642259192
 30
0.0
 40
5.0
  0
LINE
  5
ECC
330
C51
100
AcDbEntity
  8
SIZE
  6
Continuous
 62
    30
100
AcDbLine
 10
3387.052121640748
 20
802.1067642259191
 30
0.0
 11
3387.052121640748
 21
807.106764225919
 31
0.0
  0
TEXT
  5
ECD
330
C51
100
AcDbEntity
  8
SIZE
  6
Continuous
 62
    30
100
AcDbText
 10
3372.052121640748
 20
638.9281932259191
 30
0.0
 40
55.0
  1
145
 50
90.0
 41
0.9
 72
     1
 11
3372.052121640748
 21
713.1781932259191
 31
0.0
100
AcDbText
  0
POINT
  5
ECE
330
C51
100
AcDbEntity
  8
Defpoints
  6
Continuous
 62
     7
100
AcDbPoint
 10
3146.419316640748
 20
797.1067642259192
 30
0.0
  0
POINT
  5
ECF
330
C51
100
AcDbEntity
  8
Defpoints
  6
Continuous
 62
     7
100
AcDbPoint
 10
2297.826159640748
 20
942.1067642259192
 30
0.0
  0
POINT
  5
ED0
330
C51
100
AcDbEntity
  8
Defpoints
  6
Continuous
 62
     7
100
AcDbPoint
 10
3387.052121640748
 20
942.1067642259192
 30
0.0
  0
TEXT
  5
ED1
330
C51
100
AcDbEntity
  8
NOTE
  6
Continuous
 62
     4
100
AcDbText
 10
1251.069839640748
 20
1650.887326225919
 30
0.0
 40
55.0
  1
空気吸込
 50
359.999997
 41
0.703125
  7
STANDARD1
100
AcDbText
  0
LINE
  5
ED2
330
C51
100
AcDbEntity
  8
NOTE
  6
Continuous
 62
     4
100
AcDbLine
 10
1160.345865640748
 20
1627.963892225919
 30
0.0
 11
1210.345866640748
 21
1677.859938225919
 31
0.0
  0
LINE
  5
ED3
330
C51
100
AcDbEntity
  8
NOTE
  6
Continuous
 62
     4
100
AcDbLine
 10
1110.345864640748
 20
1677.859938225919
 30
0.0
 11
1160.345865640748
 21
1627.963892225919
 31
0.0
  0
LINE
  5
ED4
330
C51
100
AcDbEntity
  8
NOTE
  6
Continuous
 62
     4
100
AcDbLine
 10
1110.345864640748
 20
1677.859938225919
 30
0.0
 11
1135.345865640748
 21
1677.859938225919
 31
0.0
  0
LINE
  5
ED5
330
C51
100
AcDbEntity
  8
NOTE
  6
Continuous
 62
     4
100
AcDbLine
 10
1185.345866640748
 20
1677.859938225919
 30
0.0
 11
1210.345866640748
 21
1677.859938225919
 31
0.0
  0
LINE
  5
ED6
330
C51
100
AcDbEntity
  8
NOTE
  6
Continuous
 62
     4
100
AcDbLine
 10
1185.345866640748
 20
1677.859938225919
 30
0.0
 11
1185.345866640748
 21
1718.546026225919
 31
0.0
  0
LINE
  5
ED7
330
C51
100
AcDbEntity
  8
NOTE
  6
Continuous
 62
     4
100
AcDbLine
 10
1135.345865640748
 20
1677.859938225919
 30
0.0
 11
1135.345865640748
 21
1718.546026225919
 31
0.0
  0
LINE
  5
ED8
330
C51
100
AcDbEntity
  8
NOTE
  6
Continuous
 62
     4
100
AcDbLine
 10
1185.345866640748
 20
1718.546026225919
 30
0.0
 11
1135.345865640748
 21
1718.546026225919
 31
0.0
  0
LINE
  5
ED9
330
C51
100
AcDbEntity
  8
NOTE
  6
Continuous
 62
     4
100
AcDbLine
 10
1491.997660640748
 20
1718.546026225919
 30
0.0
 11
1541.997661640748
 21
1718.546026225919
 31
0.0
  0
LINE
  5
EDA
330
C51
100
AcDbEntity
  8
NOTE
  6
Continuous
 62
     4
100
AcDbLine
 10
1541.997661640748
 20
1677.859938225919
 30
0.0
 11
1541.997661640748
 21
1718.546026225919
 31
0.0
  0
LINE
  5
EDB
330
C51
100
AcDbEntity
  8
NOTE
  6
Continuous
 62
     4
100
AcDbLine
 10
1491.997660640748
 20
1677.859938225919
 30
0.0
 11
1491.997660640748
 21
1718.546026225919
 31
0.0
  0
LINE
  5
EDC
330
C51
100
AcDbEntity
  8
NOTE
  6
Continuous
 62
     4
100
AcDbLine
 10
1491.997660640748
 20
1677.859938225919
 30
0.0
 11
1466.997660640748
 21
1677.859938225919
 31
0.0
  0
LINE
  5
EDD
330
C51
100
AcDbEntity
  8
NOTE
  6
Continuous
 62
     4
100
AcDbLine
 10
1566.997662640748
 20
1677.859938225919
 30
0.0
 11
1541.997661640748
 21
1677.859938225919
 31
0.0
  0
LINE
  5
EDE
330
C51
100
AcDbEntity
  8
NOTE
  6
Continuous
 62
     4
100
AcDbLine
 10
1566.997662640748
 20
1677.859938225919
 30
0.0
 11
1516.997661640748
 21
1627.963892225919
 31
0.0
  0
LINE
  5
EDF
330
C51
100
AcDbEntity
  8
NOTE
  6
Continuous
 62
     4
100
AcDbLine
 10
1516.997661640748
 20
1627.963892225919
 30
0.0
 11
1466.997660640748
 21
1677.859938225919
 31
0.0
  0
TEXT
  5
EE0
330
C51
100
AcDbEntity
  8
NOTE
  6
Continuous
 62
     4
100
AcDbText
 10
2501.069839640748
 20
1650.887326225919
 30
0.0
 40
55.0
  1
空気吸込
 50
359.999997
 41
0.703125
  7
STANDARD1
100
AcDbText
  0
LINE
  5
EE1
330
C51
100
AcDbEntity
  8
NOTE
  6
Continuous
 62
     4
100
AcDbLine
 10
2410.345865640748
 20
1627.963892225919
 30
0.0
 11
2460.345866640748
 21
1677.859938225919
 31
0.0
  0
LINE
  5
EE2
330
C51
100
AcDbEntity
  8
NOTE
  6
Continuous
 62
     4
100
AcDbLine
 10
2360.345864640748
 20
1677.859938225919
 30
0.0
 11
2410.345865640748
 21
1627.963892225919
 31
0.0
  0
LINE
  5
EE3
330
C51
100
AcDbEntity
  8
NOTE
  6
Continuous
 62
     4
100
AcDbLine
 10
2360.345864640748
 20
1677.859938225919
 30
0.0
 11
2385.345865640748
 21
1677.859938225919
 31
0.0
  0
LINE
  5
EE4
330
C51
100
AcDbEntity
  8
NOTE
  6
Continuous
 62
     4
100
AcDbLine
 10
2435.345866640748
 20
1677.859938225919
 30
0.0
 11
2460.345866640748
 21
1677.859938225919
 31
0.0
  0
LINE
  5
EE5
330
C51
100
AcDbEntity
  8
NOTE
  6
Continuous
 62
     4
100
AcDbLine
 10
2435.345866640748
 20
1677.859938225919
 30
0.0
 11
2435.345866640748
 21
1718.546026225919
 31
0.0
  0
LINE
  5
EE6
330
C51
100
AcDbEntity
  8
NOTE
  6
Continuous
 62
     4
100
AcDbLine
 10
2385.345865640748
 20
1677.859938225919
 30
0.0
 11
2385.345865640748
 21
1718.546026225919
 31
0.0
  0
LINE
  5
EE7
330
C51
100
AcDbEntity
  8
NOTE
  6
Continuous
 62
     4
100
AcDbLine
 10
2435.345866640748
 20
1718.546026225919
 30
0.0
 11
2385.345865640748
 21
1718.546026225919
 31
0.0
  0
LINE
  5
EE8
330
C51
100
AcDbEntity
  8
NOTE
  6
Continuous
 62
     4
100
AcDbLine
 10
2741.997660640748
 20
1718.546026225919
 30
0.0
 11
2791.997661640748
 21
1718.546026225919
 31
0.0
  0
LINE
  5
EE9
330
C51
100
AcDbEntity
  8
NOTE
  6
Continuous
 62
     4
100
AcDbLine
 10
2791.997661640748
 20
1677.859938225919
 30
0.0
 11
2791.997661640748
 21
1718.546026225919
 31
0.0
  0
LINE
  5
EEA
330
C51
100
AcDbEntity
  8
NOTE
  6
Continuous
 62
     4
100
AcDbLine
 10
2741.997660640748
 20
1677.859938225919
 30
0.0
 11
2741.997660640748
 21
1718.546026225919
 31
0.0
  0
LINE
  5
EEB
330
C51
100
AcDbEntity
  8
NOTE
  6
Continuous
 62
     4
100
AcDbLine
 10
2741.997660640748
 20
1677.859938225919
 30
0.0
 11
2716.997660640748
 21
1677.859938225919
 31
0.0
  0
LINE
  5
EEC
330
C51
100
AcDbEntity
  8
NOTE
  6
Continuous
 62
     4
100
AcDbLine
 10
2816.997662640748
 20
1677.859938225919
 30
0.0
 11
2791.997661640748
 21
1677.859938225919
 31
0.0
  0
LINE
  5
EED
330
C51
100
AcDbEntity
  8
NOTE
  6
Continuous
 62
     4
100
AcDbLine
 10
2816.997662640748
 20
1677.859938225919
 30
0.0
 11
2766.997661640748
 21
1627.963892225919
 31
0.0
  0
LINE
  5
EEE
330
C51
100
AcDbEntity
  8
NOTE
  6
Continuous
 62
     4
100
AcDbLine
 10
2766.997661640748
 20
1627.963892225919
 30
0.0
 11
2716.997660640748
 21
1677.859938225919
 31
0.0
  0
LINE
  5
EEF
330
C51
100
AcDbEntity
  8
BASIS
  6
DASHDOT
 62
     6
100
AcDbLine
 10
1858.529689797544
 20
-0.0000048578165206
 30
0.0
 11
1858.529689797544
 21
637.6258977136954
 31
0.0
  0
LINE
  5
EF0
330
C51
100
AcDbEntity
  8
ARRANGE
  6
Continuous
 62
     1
100
AcDbLine
 10
1841.84557223314
 20
15.40559349437308
 30
0.0
 11
1875.213807361948
 21
48.77382862318018
 31
0.0
  0
LINE
  5
EF1
330
C51
100
AcDbEntity
  8
ARRANGE
  6
Continuous
 62
     1
100
AcDbLine
 10
1841.84557223314
 20
48.77382862318018
 30
0.0
 11
1875.213807361948
 21
15.40559349437308
 31
0.0
  0
CIRCLE
  5
EF2
330
C51
100
AcDbEntity
  8
ARRANGE
100
AcDbCircle
 10
1858.529689797544
 20
32.08971105877663
 30
0.0
 40
15.0
  0
ENDBLK
  5
EF4
330
C51
100
AcDbEntity
  8
0
100
AcDbBlockEnd
  0
ENDSEC
  0
SECTION
  2
ENTITIES
  0
LINE
  5
69
330
2
100
AcDbEntity
  8
NOTE
100
AcDbLine
 10
-313.8992218200955
 20
3.105126610534046
 30
0.0
 11
-313.7892218200954
 21
3.105126610534046
 31
0.0
  0
LINE
  5
6D
330
2
100
AcDbEntity
  8
NOTE
100
AcDbLine
 10
-313.8442218200955
 20
3.050126610534046
 30
0.0
 11
-313.8442218200955
 21
3.160126610534046
 31
0.0
  0
LINE
  5
6E
330
2
100
AcDbEntity
  8
NOTE
100
AcDbLine
 10
-316.9542218200955
 20
3.105126610534046
 30
0.0
 11
-314.0552218200955
 21
3.105126610534046
 31
0.0
  0
LINE
  5
6F
330
2
100
AcDbEntity
  8
NOTE
100
AcDbLine
 10
-313.6332218200954
 20
3.105126610534046
 30
0.0
 11
-310.7342218200955
 21
3.105126610534046
 31
0.0
  0
LINE
  5
70
330
2
100
AcDbEntity
  8
NOTE
100
AcDbLine
 10
-313.8442218200955
 20
-0.0048733894659532
 30
0.0
 11
-313.8442218200955
 21
2.894126610534046
 31
0.0
  0
LINE
  5
71
330
2
100
AcDbEntity
  8
NOTE
100
AcDbLine
 10
-313.8442218200955
 20
3.316126610534046
 30
0.0
 11
-313.8442218200955
 21
6.215126610534046
 31
0.0
  0
LINE
  5
72
330
2
100
AcDbEntity
  8
NOTE
100
AcDbLine
 10
-313.8992218200955
 20
-281.8948733894663
 30
0.0
 11
-313.7892218200954
 21
-281.8948733894663
 31
0.0
  0
LINE
  5
73
330
2
100
AcDbEntity
  8
NOTE
100
AcDbLine
 10
-313.8442218200955
 20
-281.9498733894663
 30
0.0
 11
-313.8442218200955
 21
-281.8398733894663
 31
0.0
  0
LINE
  5
74
330
2
100
AcDbEntity
  8
NOTE
100
AcDbLine
 10
-316.9542218200955
 20
-281.8948733894663
 30
0.0
 11
-314.0552218200955
 21
-281.8948733894663
 31
0.0
  0
LINE
  5
75
330
2
100
AcDbEntity
  8
NOTE
100
AcDbLine
 10
-313.6332218200954
 20
-281.8948733894663
 30
0.0
 11
-310.7342218200955
 21
-281.8948733894663
 31
0.0
  0
LINE
  5
76
330
2
100
AcDbEntity
  8
NOTE
100
AcDbLine
 10
-313.8442218200955
 20
-285.0048733894663
 30
0.0
 11
-313.8442218200955
 21
-282.1058733894663
 31
0.0
  0
LINE
  5
77
330
2
100
AcDbEntity
  8
NOTE
100
AcDbLine
 10
-313.8442218200955
 20
-281.6838733894663
 30
0.0
 11
-313.8442218200955
 21
-278.7848733894663
 31
0.0
  0
LINE
  5
78
330
2
100
AcDbEntity
  8
NOTE
100
AcDbLine
 10
324.1007781799047
 20
3.105126610534159
 30
0.0
 11
324.2107781799047
 21
3.105126610534159
 31
0.0
  0
LINE
  5
79
330
2
100
AcDbEntity
  8
NOTE
100
AcDbLine
 10
324.1557781799047
 20
3.05012661053416
 30
0.0
 11
324.1557781799047
 21
3.16012661053416
 31
0.0
  0
LINE
  5
7A
330
2
100
AcDbEntity
  8
NOTE
100
AcDbLine
 10
321.0457781799046
 20
3.105126610534159
 30
0.0
 11
323.9447781799047
 21
3.105126610534159
 31
0.0
  0
LINE
  5
7B
330
2
100
AcDbEntity
  8
NOTE
100
AcDbLine
 10
324.3667781799047
 20
3.105126610534159
 30
0.0
 11
327.2657781799046
 21
3.105126610534159
 31
0.0
  0
LINE
  5
7C
330
2
100
AcDbEntity
  8
NOTE
100
AcDbLine
 10
324.1557781799047
 20
-0.0048733894658395
 30
0.0
 11
324.1557781799047
 21
2.89412661053416
 31
0.0
  0
LINE
  5
7D
330
2
100
AcDbEntity
  8
NOTE
100
AcDbLine
 10
324.1557781799047
 20
3.31612661053416
 30
0.0
 11
324.1557781799047
 21
6.215126610534158
 31
0.0
  0
LINE
  5
7E
330
2
100
AcDbEntity
  8
NOTE
100
AcDbLine
 10
324.1007781799047
 20
-281.8948733894662
 30
0.0
 11
324.2107781799047
 21
-281.8948733894662
 31
0.0
  0
LINE
  5
7F
330
2
100
AcDbEntity
  8
NOTE
100
AcDbLine
 10
324.1557781799047
 20
-281.9498733894662
 30
0.0
 11
324.1557781799047
 21
-281.8398733894662
 31
0.0
  0
LINE
  5
80
330
2
100
AcDbEntity
  8
NOTE
100
AcDbLine
 10
321.0457781799046
 20
-281.8948733894662
 30
0.0
 11
323.9447781799047
 21
-281.8948733894662
 31
0.0
  0
LINE
  5
81
330
2
100
AcDbEntity
  8
NOTE
100
AcDbLine
 10
324.3667781799047
 20
-281.8948733894662
 30
0.0
 11
327.2657781799046
 21
-281.8948733894662
 31
0.0
  0
LINE
  5
82
330
2
100
AcDbEntity
  8
NOTE
100
AcDbLine
 10
324.1557781799047
 20
-285.0048733894662
 30
0.0
 11
324.1557781799047
 21
-282.1058733894662
 31
0.0
  0
LINE
  5
83
330
2
100
AcDbEntity
  8
NOTE
100
AcDbLine
 10
324.1557781799047
 20
-281.6838733894662
 30
0.0
 11
324.1557781799047
 21
-278.7848733894662
 31
0.0
  0
LINE
  5
B3
330
2
100
AcDbEntity
  8
NOTE
100
AcDbLine
 10
-313.8992218200956
 20
288.1051266105337
 30
0.0
 11
-313.7892218200956
 21
288.1051266105337
 31
0.0
  0
LINE
  5
B4
330
2
100
AcDbEntity
  8
NOTE
100
AcDbLine
 10
-313.8442218200956
 20
288.0501266105337
 30
0.0
 11
-313.8442218200956
 21
288.1601266105337
 31
0.0
  0
LINE
  5
B5
330
2
100
AcDbEntity
  8
NOTE
100
AcDbLine
 10
-316.9542218200957
 20
288.1051266105337
 30
0.0
 11
-314.0552218200956
 21
288.1051266105337
 31
0.0
  0
LINE
  5
B6
330
2
100
AcDbEntity
  8
NOTE
100
AcDbLine
 10
-313.6332218200956
 20
288.1051266105337
 30
0.0
 11
-310.7342218200956
 21
288.1051266105337
 31
0.0
  0
LINE
  5
B7
330
2
100
AcDbEntity
  8
NOTE
100
AcDbLine
 10
-313.8442218200956
 20
284.9951266105336
 30
0.0
 11
-313.8442218200956
 21
287.8941266105337
 31
0.0
  0
LINE
  5
B8
330
2
100
AcDbEntity
  8
NOTE
100
AcDbLine
 10
-313.8442218200956
 20
288.3161266105337
 30
0.0
 11
-313.8442218200956
 21
291.2151266105336
 31
0.0
  0
LINE
  5
BA
330
2
100
AcDbEntity
  8
NOTE
100
AcDbLine
 10
324.1007781799047
 20
288.1051266105338
 30
0.0
 11
324.2107781799047
 21
288.1051266105338
 31
0.0
  0
LINE
  5
BB
330
2
100
AcDbEntity
  8
NOTE
100
AcDbLine
 10
324.1557781799047
 20
288.0501266105337
 30
0.0
 11
324.1557781799047
 21
288.1601266105338
 31
0.0
  0
LINE
  5
BC
330
2
100
AcDbEntity
  8
NOTE
100
AcDbLine
 10
321.0457781799046
 20
288.1051266105338
 30
0.0
 11
323.9447781799047
 21
288.1051266105338
 31
0.0
  0
LINE
  5
BD
330
2
100
AcDbEntity
  8
NOTE
100
AcDbLine
 10
324.3667781799047
 20
288.1051266105338
 30
0.0
 11
327.2657781799046
 21
288.1051266105338
 31
0.0
  0
LINE
  5
BE
330
2
100
AcDbEntity
  8
NOTE
100
AcDbLine
 10
324.1557781799047
 20
284.9951266105338
 30
0.0
 11
324.1557781799047
 21
287.8941266105337
 31
0.0
  0
LINE
  5
BF
330
2
100
AcDbEntity
  8
NOTE
100
AcDbLine
 10
324.1557781799047
 20
288.3161266105338
 30
0.0
 11
324.1557781799047
 21
291.2151266105338
 31
0.0
  0
LINE
  5
C0
330
2
100
AcDbEntity
  8
HID
100
AcDbLine
 10
-319.0442218200955
 20
312.3051266105337
 30
0.0
 11
-319.0442218200955
 21
257.7351809676222
 31
0.0
  0
LINE
  5
C3
330
2
100
AcDbEntity
  8
HID
100
AcDbLine
 10
-314.3442218200955
 20
312.3051266105338
 30
0.0
 11
-319.0442218200955
 21
312.3051266105338
 31
0.0
  0
LINE
  5
C4
330
2
100
AcDbEntity
  8
OUTLINE
100
AcDbLine
 10
-319.0442218200956
 20
28.81552953510567
 30
0.0
 11
-319.0442218200956
 21
29.58256130782883
 31
0.0
  0
LINE
  5
C6
330
2
100
AcDbEntity
  8
OUTLINE
100
AcDbLine
 10
-319.8442218200955
 20
258.3819036784268
 30
0.0
 11
-319.8442218200955
 21
28.81552953510567
 31
0.0
  0
LINE
  5
C7
330
2
100
AcDbEntity
  8
OUTLINE
100
AcDbLine
 10
-319.8442218200954
 20
-306.0948733894662
 30
0.0
 11
-319.0442218200955
 21
-306.0948733894662
 31
0.0
  0
LINE
  5
C8
330
2
100
AcDbEntity
  8
OUTLINE
100
AcDbLine
 10
-319.8442218200955
 20
28.81552953510573
 30
0.0
 11
-319.8442218200955
 21
-306.0948733894662
 31
0.0
  0
LINE
  5
C9
330
2
100
AcDbEntity
  8
OUTLINE
100
AcDbLine
 10
-319.0442218200956
 20
28.81552953510567
 30
0.0
 11
-319.8442218200955
 21
28.81552953510567
 31
0.0
  0
LINE
  5
CA
330
2
100
AcDbEntity
  8
OUTLINE
100
AcDbLine
 10
-319.0442218200955
 20
15.16810057393565
 30
0.0
 11
-319.0442218200955
 21
28.81552953510567
 31
0.0
  0
LINE
  5
CB
330
2
100
AcDbEntity
  8
OUTLINE
100
AcDbLine
 10
-319.0442218200955
 20
-306.0948733894656
 30
0.0
 11
-319.0442218200955
 21
-306.1183618882746
 31
0.0
  0
LINE
  5
CC
330
2
100
AcDbEntity
  8
OUTLINE
100
AcDbLine
 10
-318.2442218200955
 20
-306.1183618882746
 30
0.0
 11
-318.2442218200955
 21
15.16810057393553
 31
0.0
  0
LINE
  5
CD
330
2
100
AcDbEntity
  8
OUTLINE
100
AcDbLine
 10
-319.0442218200955
 20
15.16810057393553
 30
0.0
 11
-318.2442218200955
 21
15.16810057393553
 31
0.0
  0
LINE
  5
CE
330
2
100
AcDbEntity
  8
HID
100
AcDbLine
 10
-319.0442218200955
 20
15.16810057393553
 30
0.0
 11
-319.0442218200955
 21
11.33713837436733
 31
0.0
  0
LINE
  5
CF
330
2
100
AcDbEntity
  8
HID
100
AcDbLine
 10
-319.0442218200955
 20
-292.2057504456246
 30
0.0
 11
-319.0442218200955
 21
-306.0948733894662
 31
0.0
  0
LINE
  5
D0
330
2
100
AcDbEntity
  8
OUTLINE
100
AcDbLine
 10
-319.0442218200955
 20
-306.1183618882746
 30
0.0
 11
-318.2442218200955
 21
-306.1183618882746
 31
0.0
  0
LINE
  5
D1
330
2
100
AcDbEntity
  8
HID
100
AcDbLine
 10
-319.0442218200955
 20
11.33713837436733
 30
0.0
 11
-318.2442218200955
 21
11.33713837436733
 31
0.0
  0
LINE
  5
D2
330
2
100
AcDbEntity
  8
HID
100
AcDbLine
 10
-319.0442218200955
 20
11.33713837436733
 30
0.0
 11
-319.0442218200953
 21
-292.2057504456246
 31
0.0
  0
LINE
  5
D3
330
2
100
AcDbEntity
  8
HID
100
AcDbLine
 10
-319.0442218200955
 20
-292.2057504456246
 30
0.0
 11
-318.2442218200955
 21
-292.2057504456246
 31
0.0
  0
LINE
  5
D4
330
2
100
AcDbEntity
  8
HID
100
AcDbLine
 10
-303.8442218200954
 20
32.45893045554004
 30
0.0
 11
-303.8442218200955
 21
258.3819036784268
 31
0.0
  0
LINE
  5
D5
330
2
100
AcDbEntity
  8
HID
100
AcDbLine
 10
-303.8442218200955
 20
313.1051266105337
 30
0.0
 11
-303.8442218200955
 21
312.3051266105337
 31
0.0
  0
LINE
  5
D6
330
2
100
AcDbEntity
  8
HID
100
AcDbLine
 10
-303.8442218200955
 20
312.3051266105337
 30
0.0
 11
-314.3442218200955
 21
312.3051266105337
 31
0.0
  0
LINE
  5
D7
330
2
100
AcDbEntity
  8
HID
100
AcDbLine
 10
-314.3442218200955
 20
291.0413923170193
 30
0.0
 11
-306.8442218200955
 21
291.0413923170193
 31
0.0
  0
LINE
  5
D8
330
2
100
AcDbEntity
  8
HID
100
AcDbLine
 10
-306.8442218200955
 20
291.0413923170193
 30
0.0
 11
-306.8442218200955
 21
291.7931464136481
 31
0.0
  0
LINE
  5
D9
330
2
100
AcDbEntity
  8
HID
100
AcDbLine
 10
-303.8442218200955
 20
290.0153318870425
 30
0.0
 11
-306.8442218200955
 21
291.0413923170194
 31
0.0
  0
LINE
  5
DA
330
2
100
AcDbEntity
  8
HID
100
AcDbLine
 10
-319.8442218200954
 20
-275.3948733894663
 30
0.0
 11
-319.0442218200953
 21
-275.3948733894663
 31
0.0
  0
LINE
  5
DB
330
2
100
AcDbEntity
  8
HID
100
AcDbLine
 10
-319.8442218200954
 20
-278.3948733894663
 30
0.0
 11
-319.0442218200953
 21
-278.3948733894663
 31
0.0
  0
LINE
  5
DC
330
2
100
AcDbEntity
  8
HID
100
AcDbLine
 10
-314.3442218200955
 20
312.3533725139055
 30
0.0
 11
-314.3442218200955
 21
312.3051266105343
 31
0.0
  0
LINE
  5
DD
330
2
100
AcDbEntity
  8
HID
100
AcDbLine
 10
-314.3442218200955
 20
291.7931464136525
 30
0.0
 11
-314.3442218200955
 21
291.0413923170193
 31
0.0
  0
LINE
  5
DE
330
2
100
AcDbEntity
  8
HID
100
AcDbLine
 10
-304.8442218200955
 20
312.3533725139056
 30
0.0
 11
-314.3442218200955
 21
312.3533725139056
 31
0.0
  0
LINE
  5
DF
330
2
100
AcDbEntity
  8
HID
100
AcDbLine
 10
-314.3442218200955
 20
313.1051266105338
 30
0.0
 11
-314.3442218200955
 21
312.3533725139055
 31
0.0
  0
LINE
  5
E0
330
2
100
AcDbEntity
  8
HID
100
AcDbLine
 10
-314.3442218200955
 20
304.4869092174168
 30
0.0
 11
-307.8442218200955
 21
304.4869092174168
 31
0.0
  0
LINE
  5
E1
330
2
100
AcDbEntity
  8
HID
100
AcDbLine
 10
-307.8442218200955
 20
305.2386633140455
 30
0.0
 11
-314.3442218200955
 21
305.2386633140455
 31
0.0
  0
LINE
  5
E2
330
2
100
AcDbEntity
  8
HID
100
AcDbLine
 10
-314.3442218200955
 20
291.7931464136482
 30
0.0
 11
-314.3442218200955
 21
305.2386633140435
 31
0.0
  0
LINE
  5
E3
330
2
100
AcDbEntity
  8
HID
100
AcDbLine
 10
-306.8442218200955
 20
291.7931464136481
 30
0.0
 11
-314.3442218200955
 21
291.7931464136481
 31
0.0
  0
LINE
  5
E4
330
2
100
AcDbEntity
  8
HID
100
AcDbLine
 10
-306.8442218200955
 20
291.7931464136482
 30
0.0
 11
-303.8442218200955
 21
290.7670859836713
 31
0.0
  0
LINE
  5
E5
330
2
100
AcDbEntity
  8
HID
100
AcDbLine
 10
-303.8442218200955
 20
258.3819036784268
 30
0.0
 11
-303.8442218200955
 21
290.7670859836711
 31
0.0
  0
LINE
  5
E6
330
2
100
AcDbEntity
  8
HID
100
AcDbLine
 10
-303.8442218200955
 20
258.3819036784267
 30
0.0
 11
-318.8442218200955
 21
258.3819036784267
 31
0.0
  0
LINE
  5
E7
330
2
100
AcDbEntity
  8
OUTLINE
100
AcDbLine
 10
-318.8442218200955
 20
258.3819036784267
 30
0.0
 11
-319.8442218200955
 21
258.3819036784267
 31
0.0
  0
LINE
  5
E8
330
2
100
AcDbEntity
  8
OUTLINE
100
AcDbLine
 10
-319.8442218200955
 20
313.1051266105339
 30
0.0
 11
-319.8442218200955
 21
258.3819036784269
 31
0.0
  0
LINE
  5
E9
330
2
100
AcDbEntity
  8
HID
100
AcDbLine
 10
-314.3442218200955
 20
313.1051266105338
 30
0.0
 11
-318.8442218200955
 21
313.1051266105338
 31
0.0
  0
LINE
  5
EA
330
2
100
AcDbEntity
  8
OUTLINE
100
AcDbLine
 10
-318.8442218200955
 20
313.1051266105338
 30
0.0
 11
-319.8442218200955
 21
313.1051266105338
 31
0.0
  0
LINE
  5
EB
330
2
100
AcDbEntity
  8
HID
100
AcDbLine
 10
-314.3442218200955
 20
313.1051266105343
 30
0.0
 11
-304.8442218200955
 21
313.1051266105343
 31
0.0
  0
LINE
  5
EC
330
2
100
AcDbEntity
  8
HID
100
AcDbLine
 10
-304.8442218200955
 20
313.1051266105343
 30
0.0
 11
-304.8442218200955
 21
306.2647237440222
 31
0.0
  0
LINE
  5
ED
330
2
100
AcDbEntity
  8
HID
100
AcDbLine
 10
-307.8442218200955
 20
305.2386633140455
 30
0.0
 11
-307.8442218200955
 21
304.4869092174168
 31
0.0
  0
LINE
  5
EE
330
2
100
AcDbEntity
  8
HID
100
AcDbLine
 10
-304.8442218200955
 20
306.2647237440205
 30
0.0
 11
-307.8442218200955
 21
305.2386633140435
 31
0.0
  0
LINE
  5
EF
330
2
100
AcDbEntity
  8
HID
100
AcDbLine
 10
-304.8442218200955
 20
305.5129696473935
 30
0.0
 11
-304.8442218200955
 21
306.2647237440222
 31
0.0
  0
LINE
  5
F0
330
2
100
AcDbEntity
  8
HID
100
AcDbLine
 10
-307.8442218200955
 20
304.4869092174146
 30
0.0
 11
-304.8442218200955
 21
305.5129696473917
 31
0.0
  0
LINE
  5
F1
330
2
100
AcDbEntity
  8
OUTLINE
100
AcDbLine
 10
-319.0442218200955
 20
29.58256130782883
 30
0.0
 11
-316.7129390338088
 21
29.58256130782883
 31
0.0
  0
LINE
  5
F2
330
2
100
AcDbEntity
  8
HID
100
AcDbLine
 10
-316.7129390338088
 20
29.58256130782883
 30
0.0
 11
-306.8442218200953
 21
29.58256130782883
 31
0.0
  0
LINE
  5
F3
330
2
100
AcDbEntity
  8
HID
100
AcDbLine
 10
-303.8442218200955
 20
257.7351809676223
 30
0.0
 11
-319.0442218200955
 21
257.7351809676223
 31
0.0
  0
LINE
  5
F4
330
2
100
AcDbEntity
  8
HID
100
AcDbLine
 10
-319.0442218200955
 20
257.7351809676224
 30
0.0
 11
-319.0442218200955
 21
29.58256130782871
 31
0.0
  0
LINE
  5
F5
330
2
100
AcDbEntity
  8
HID
100
AcDbLine
 10
-306.8442218200953
 20
28.90799240009761
 30
0.0
 11
-315.9489424917863
 21
28.90799240009761
 31
0.0
  0
LINE
  5
F6
330
2
100
AcDbEntity
  8
OUTLINE
100
AcDbLine
 10
-315.9489424917863
 20
28.90799240009761
 30
0.0
 11
-319.0442218200955
 21
28.90799240009761
 31
0.0
  0
LINE
  5
F7
330
2
100
AcDbEntity
  8
HID
100
AcDbLine
 10
-306.8442218200953
 20
29.58256130782883
 30
0.0
 11
-306.8442218200953
 21
28.90799240009773
 31
0.0
  0
LINE
  5
F8
330
2
100
AcDbEntity
  8
HID
100
AcDbLine
 10
-303.8442218200954
 20
32.45893045553998
 30
0.0
 11
-306.8442218200953
 21
29.58256130782883
 31
0.0
  0
LINE
  5
F9
330
2
100
AcDbEntity
  8
HID
100
AcDbLine
 10
-303.8442218200954
 20
31.784361547809
 30
0.0
 11
-303.8442218200954
 21
32.45893045553998
 31
0.0
  0
LINE
  5
FA
330
2
100
AcDbEntity
  8
HID
100
AcDbLine
 10
-306.8442218200956
 20
28.90799240009773
 30
0.0
 11
-303.8442218200955
 21
31.784361547809
 31
0.0
  0
LINE
  5
FB
330
2
100
AcDbEntity
  8
OUTLINE
100
AcDbLine
 10
-319.8442218200955
 20
-306.8948733894663
 30
0.0
 11
-319.8442218200955
 21
-306.0948733894663
 31
0.0
  0
LINE
  5
FC
330
2
100
AcDbEntity
  8
HID
100
AcDbLine
 10
-307.8442218200955
 20
286.1051266105338
 30
0.0
 11
-307.8442218200955
 21
286.5985655027942
 31
0.0
  0
LINE
  5
FD
330
2
100
AcDbEntity
  8
HID
100
AcDbLine
 10
-307.8442218200955
 20
287.3503195994231
 30
0.0
 11
-307.8442218200955
 21
304.4869092174168
 31
0.0
  0
LINE
  5
FE
330
2
100
AcDbEntity
  8
HID
100
AcDbLine
 10
-307.8442218200955
 20
305.2386633140455
 30
0.0
 11
-307.8442218200955
 21
309.1718949622883
 31
0.0
  0
LINE
  5
FF
330
2
100
AcDbEntity
  8
HID
100
AcDbLine
 10
-307.8442218200955
 20
309.923649058917
 30
0.0
 11
-307.8442218200955
 21
312.3051266105337
 31
0.0
  0
LINE
  5
100
330
2
100
AcDbEntity
  8
HID
100
AcDbLine
 10
-299.8442218200955
 20
283.1051266105338
 30
0.0
 11
-299.8442218200955
 21
196.1051266105338
 31
0.0
  0
LINE
  5
101
330
2
100
AcDbEntity
  8
HID
100
AcDbLine
 10
-307.8442218200955
 20
196.1051266105338
 30
0.0
 11
-299.8442218200955
 21
196.1051266105338
 31
0.0
  0
LINE
  5
102
330
2
100
AcDbEntity
  8
HID
100
AcDbLine
 10
-307.8442218200955
 20
190.1051266105337
 30
0.0
 11
-307.8442218200955
 21
196.1051266105338
 31
0.0
  0
LINE
  5
103
330
2
100
AcDbEntity
  8
HID
100
AcDbLine
 10
-299.8442218200955
 20
190.1051266105337
 30
0.0
 11
-307.8442218200955
 21
190.1051266105337
 31
0.0
  0
LINE
  5
104
330
2
100
AcDbEntity
  8
HID
100
AcDbLine
 10
-299.8442218200955
 20
190.1051266105337
 30
0.0
 11
-299.8442218200955
 21
28.4399522848766
 31
0.0
  0
LINE
  5
105
330
2
100
AcDbEntity
  8
OUTLINE
100
AcDbLine
 10
-299.8442218200955
 20
28.4399522848766
 30
0.0
 11
-299.8442218200955
 21
6.105126610533714
 31
0.0
  0
LINE
  5
106
330
2
100
AcDbEntity
  8
OUTLINE
100
AcDbLine
 10
-307.8442218200955
 20
6.105126610533714
 30
0.0
 11
-299.8442218200955
 21
6.105126610533714
 31
0.0
  0
LINE
  5
107
330
2
100
AcDbEntity
  8
OUTLINE
100
AcDbLine
 10
-307.8442218200955
 20
0.1051266105337163
 30
0.0
 11
-307.8442218200955
 21
6.105126610533714
 31
0.0
  0
LINE
  5
108
330
2
100
AcDbEntity
  8
OUTLINE
100
AcDbLine
 10
-299.8442218200955
 20
0.1051266105337163
 30
0.0
 11
-307.8442218200955
 21
0.1051266105337163
 31
0.0
  0
LINE
  5
109
330
2
100
AcDbEntity
  8
OUTLINE
100
AcDbLine
 10
-310.8442218200953
 20
-306.8948733894663
 30
0.0
 11
-319.8442218200954
 21
-306.8948733894663
 31
0.0
  0
LINE
  5
10A
330
2
100
AcDbEntity
  8
OUTLINE
100
AcDbLine
 10
-307.8442218200954
 20
-279.8948733894663
 30
0.0
 11
-302.8442218200954
 21
-279.8948733894663
 31
0.0
  0
LINE
  5
10B
330
2
100
AcDbEntity
  8
HID
100
AcDbLine
 10
-302.8442218200955
 20
286.1051266105338
 30
0.0
 11
-307.8442218200955
 21
286.1051266105338
 31
0.0
  0
LINE
  5
10C
330
2
100
AcDbEntity
  8
HID
100
AcDbLine
 10
-302.8442218200955
 20
286.1051266105338
 30
0.0
 11
-299.8442218200955
 21
283.1051266105338
 31
0.0
  0
LINE
  5
10D
330
2
100
AcDbEntity
  8
OUTLINE
100
AcDbLine
 10
-299.8442218200955
 20
0.1051266105337163
 30
0.0
 11
-299.8442218200955
 21
-276.8948733894664
 31
0.0
  0
LINE
  5
10E
330
2
100
AcDbEntity
  8
OUTLINE
100
AcDbLine
 10
-299.8442218200954
 20
-276.8948733894664
 30
0.0
 11
-302.8442218200955
 21
-279.8948733894663
 31
0.0
  0
LINE
  5
10F
330
2
100
AcDbEntity
  8
OUTLINE
100
AcDbLine
 10
-307.8442218200954
 20
-303.8948733894664
 30
0.0
 11
-307.8442218200954
 21
-279.8948733894663
 31
0.0
  0
LINE
  5
110
330
2
100
AcDbEntity
  8
OUTLINE
100
AcDbLine
 10
-307.8442218200954
 20
-303.8948733894664
 30
0.0
 11
-310.8442218200953
 21
-306.8948733894663
 31
0.0
  0
LINE
  5
111
330
2
100
AcDbEntity
  8
HID
100
AcDbLine
 10
-312.3442218200955
 20
286.5985655027945
 30
0.0
 11
-312.3442218200955
 21
285.8468114061657
 31
0.0
  0
LINE
  5
112
330
2
100
AcDbEntity
  8
HID
100
AcDbLine
 10
-308.3442218200955
 20
286.5985655027945
 30
0.0
 11
-308.3442218200955
 21
285.8468114061657
 31
0.0
  0
LINE
  5
113
330
2
100
AcDbEntity
  8
HID
100
AcDbLine
 10
-312.3442218200955
 20
214.2345240354804
 30
0.0
 11
-312.3442218200955
 21
213.8589467852516
 31
0.0
  0
LINE
  5
114
330
2
100
AcDbEntity
  8
HID
100
AcDbLine
 10
-308.3442218200955
 20
214.2345240354803
 30
0.0
 11
-308.3442218200955
 21
213.8589467852516
 31
0.0
  0
LINE
  5
115
330
2
100
AcDbEntity
  8
HID
100
AcDbLine
 10
-312.3442218200955
 20
72.96290917805198
 30
0.0
 11
-312.3442218200955
 21
72.58733192782329
 31
0.0
  0
LINE
  5
116
330
2
100
AcDbEntity
  8
HID
100
AcDbLine
 10
-308.3442218200955
 20
72.96290917805198
 30
0.0
 11
-308.3442218200955
 21
72.58733192782324
 31
0.0
  0
LINE
  5
117
330
2
100
AcDbEntity
  8
HID
100
AcDbLine
 10
-308.3442218200957
 20
308.4201408656598
 30
0.0
 11
-308.3442218200957
 21
309.1718949622884
 31
0.0
  0
LINE
  5
118
330
2
100
AcDbEntity
  8
HID
100
AcDbLine
 10
-312.3442218200957
 20
308.4201408656548
 30
0.0
 11
-312.3442218200957
 21
309.1718949622884
 31
0.0
  0
LINE
  5
119
330
2
100
AcDbEntity
  8
HID
100
AcDbLine
 10
-312.8442218200955
 20
313.1051266105338
 30
0.0
 11
-312.8442218200955
 21
312.3051266105337
 31
0.0
  0
LINE
  5
11A
330
2
100
AcDbEntity
  8
HID
100
AcDbLine
 10
-307.8442218200955
 20
313.1051266105338
 30
0.0
 11
-307.8442218200955
 21
312.3051266105337
 31
0.0
  0
ELLIPSE
  5
11B
330
2
100
AcDbEntity
  8
OUTLINE
100
AcDbEllipse
 10
-310.3442218200955
 20
285.8468114061657
 30
0.0
 11
2.0
 21
0.0
 31
0.0
210
0.0
220
0.0
230
1.0
 40
0.3420201433256688
 41
1.329515332614187
 42
1.81207732097561
  0
ELLIPSE
  5
11C
330
2
100
AcDbEntity
  8
HID
100
AcDbEllipse
 10
-310.3442218200955
 20
285.8468114061657
 30
0.0
 11
2.0
 21
0.0
 31
0.0
210
0.0
220
0.0
230
1.0
 40
0.3420201433256688
 41
1.81207732097561
 42
7.612700639793772
  0
ELLIPSE
  5
11D
330
2
100
AcDbEntity
  8
OUTLINE
100
AcDbEllipse
 10
-310.3442218200955
 20
214.2345240354804
 30
0.0
 11
-2.0
 21
0.0
 31
0.0
210
0.0
220
0.0
230
1.0
 40
0.8829475928589271
 41
0.0000000000000002
 42
6.283185307179584
  0
ELLIPSE
  5
11E
330
2
100
AcDbEntity
  8
OUTLINE
100
AcDbEllipse
 10
-310.3442218200955
 20
72.96290917805198
 30
0.0
 11
-2.0
 21
0.0
 31
0.0
210
0.0
220
0.0
230
1.0
 40
0.8829475928589271
 41
0.0000000000000002
 42
6.283185307179584
  0
ELLIPSE
  5
11F
330
2
100
AcDbEntity
  8
OUTLINE
100
AcDbEllipse
 10
-310.3442218200955
 20
286.5985655027945
 30
0.0
 11
-2.0
 21
0.0
 31
0.0
210
0.0
220
0.0
230
1.0
 40
0.3420201433256685
 41
3.439561238123201
 42
5.985216722646177
  0
ELLIPSE
  5
120
330
2
100
AcDbEntity
  8
HID
100
AcDbEllipse
 10
-310.3442218200955
 20
286.5985655027945
 30
0.0
 11
-2.0
 21
0.0
 31
0.0
210
0.0
220
0.0
230
1.0
 40
0.3420201433256685
 41
5.985216722646177
 42
9.722746545302786
  0
ELLIPSE
  5
121
330
2
100
AcDbEntity
  8
OUTLINE
100
AcDbEllipse
 10
-310.3442218200955
 20
308.42014086566
 30
0.0
 11
2.0
 21
0.0
 31
0.0
210
0.0
220
0.0
230
1.0
 40
0.3420201433256688
 41
1.329515332612634
 42
1.81207732097716
  0
ELLIPSE
  5
122
330
2
100
AcDbEntity
  8
HID
100
AcDbEllipse
 10
-310.3442218200955
 20
308.42014086566
 30
0.0
 11
2.0
 21
0.0
 31
0.0
210
0.0
220
0.0
230
1.0
 40
0.3420201433256688
 41
1.81207732097716
 42
7.612700639792223
  0
ELLIPSE
  5
123
330
2
100
AcDbEntity
  8
OUTLINE
100
AcDbEllipse
 10
-310.3442218200955
 20
309.1718949622885
 30
0.0
 11
-2.0
 21
0.0
 31
0.0
210
0.0
220
0.0
230
1.0
 40
0.3420201433256685
 41
3.439561238123002
 42
5.985216722646379
  0
ELLIPSE
  5
124
330
2
100
AcDbEntity
  8
HID
100
AcDbEllipse
 10
-310.3442218200955
 20
309.1718949622885
 30
0.0
 11
-2.0
 21
0.0
 31
0.0
210
0.0
220
0.0
230
1.0
 40
0.3420201433256685
 41
5.985216722646379
 42
9.722746545302587
  0
ELLIPSE
  5
125
330
2
100
AcDbEntity
  8
OUTLINE
100
AcDbEllipse
 10
-310.3442218200955
 20
72.58733192782329
 30
0.0
 11
2.0
 21
0.0
 31
0.0
210
0.0
220
0.0
230
1.0
 40
0.8829475928589275
 41
0.10654334279674
 42
3.035049310793053
  0
ELLIPSE
  5
126
330
2
100
AcDbEntity
  8
HID
100
AcDbEllipse
 10
-310.3442218200955
 20
72.58733192782329
 30
0.0
 11
2.0
 21
0.0
 31
0.0
210
0.0
220
0.0
230
1.0
 40
0.8829475928589275
 41
3.035049310793053
 42
6.389728649976325
  0
ELLIPSE
  5
127
330
2
100
AcDbEntity
  8
OUTLINE
100
AcDbEllipse
 10
-310.3442218200955
 20
213.8589467852517
 30
0.0
 11
2.0
 21
0.0
 31
0.0
210
0.0
220
0.0
230
1.0
 40
0.8829475928589275
 41
0.1065433427967562
 42
3.035049310793036
  0
ELLIPSE
  5
128
330
2
100
AcDbEntity
  8
HID
100
AcDbEllipse
 10
-310.3442218200955
 20
213.8589467852517
 30
0.0
 11
2.0
 21
0.0
 31
0.0
210
0.0
220
0.0
230
1.0
 40
0.8829475928589275
 41
3.035049310793036
 42
6.389728649976342
  0
CIRCLE
  5
129
330
2
100
AcDbEntity
  8
OUTLINE
100
AcDbCircle
 10
-313.8442218200955
 20
3.105126610533716
 30
0.0
 40
3.0
  0
CIRCLE
  5
12A
330
2
100
AcDbEntity
  8
OUTLINE
100
AcDbCircle
 10
-313.8442218200954
 20
-281.8948733894663
 30
0.0
 40
3.0
  0
CIRCLE
  5
12B
330
2
100
AcDbEntity
  8
HID
100
AcDbCircle
 10
-313.8442218200955
 20
288.1051266105338
 30
0.0
 40
3.0
  0
LINE
  5
12C
330
2
100
AcDbEntity
  8
HID
100
AcDbLine
 10
329.3557781799045
 20
312.3051266105338
 30
0.0
 11
329.3557781799045
 21
257.7351809676224
 31
0.0
  0
LINE
  5
12D
330
2
100
AcDbEntity
  8
HID
100
AcDbLine
 10
324.6557781799045
 20
312.3051266105338
 30
0.0
 11
329.3557781799045
 21
312.3051266105338
 31
0.0
  0
LINE
  5
12E
330
2
100
AcDbEntity
  8
OUTLINE
100
AcDbLine
 10
329.3557781799046
 20
26.52447815943168
 30
0.0
 11
329.3557781799046
 21
28.81552953510578
 31
0.0
  0
LINE
  5
12F
330
2
100
AcDbEntity
  8
OUTLINE
100
AcDbLine
 10
330.1557781799045
 20
28.8155295351059
 30
0.0
 11
330.1557781799045
 21
-306.0948733894662
 31
0.0
  0
LINE
  5
130
330
2
100
AcDbEntity
  8
OUTLINE
100
AcDbLine
 10
330.1557781799045
 20
-306.0948733894662
 30
0.0
 11
329.3557781799046
 21
-306.0948733894662
 31
0.0
  0
LINE
  5
131
330
2
100
AcDbEntity
  8
OUTLINE
100
AcDbLine
 10
330.1557781799045
 20
258.3819036784268
 30
0.0
 11
330.1557781799045
 21
28.81552953510578
 31
0.0
  0
LINE
  5
132
330
2
100
AcDbEntity
  8
OUTLINE
100
AcDbLine
 10
329.3557781799046
 20
28.81552953510578
 30
0.0
 11
330.1557781799045
 21
28.81552953510578
 31
0.0
  0
LINE
  5
133
330
2
100
AcDbEntity
  8
OUTLINE
100
AcDbLine
 10
329.3557781799046
 20
28.81552953510578
 30
0.0
 11
329.3557781799046
 21
29.58256130782888
 31
0.0
  0
LINE
  5
134
330
2
100
AcDbEntity
  8
OUTLINE
100
AcDbLine
 10
329.3557781799045
 20
-306.0948733894655
 30
0.0
 11
329.3557781799045
 21
-306.1183618882745
 31
0.0
  0
LINE
  5
135
330
2
100
AcDbEntity
  8
OUTLINE
100
AcDbLine
 10
328.5557781799045
 20
-306.1183618882745
 30
0.0
 11
328.5557781799045
 21
26.52447815943162
 31
0.0
  0
LINE
  5
136
330
2
100
AcDbEntity
  8
HID
100
AcDbLine
 10
329.3557781799045
 20
26.52447815943174
 30
0.0
 11
329.3557781799045
 21
22.69351595986353
 31
0.0
  0
LINE
  5
137
330
2
100
AcDbEntity
  8
OUTLINE
100
AcDbLine
 10
329.3557781799045
 20
26.52447815943174
 30
0.0
 11
328.5557781799045
 21
26.52447815943174
 31
0.0
  0
LINE
  5
138
330
2
100
AcDbEntity
  8
OUTLINE
100
AcDbLine
 10
329.3557781799045
 20
-306.1183618882745
 30
0.0
 11
328.5557781799045
 21
-306.1183618882745
 31
0.0
  0
LINE
  5
139
330
2
100
AcDbEntity
  8
HID
100
AcDbLine
 10
329.3557781799045
 20
-292.2057504456246
 30
0.0
 11
329.3557781799045
 21
-306.0948733894662
 31
0.0
  0
LINE
  5
13A
330
2
100
AcDbEntity
  8
HID
100
AcDbLine
 10
329.3557781799045
 20
-292.2057504456246
 30
0.0
 11
328.5557781799045
 21
-292.2057504456246
 31
0.0
  0
LINE
  5
13B
330
2
100
AcDbEntity
  8
HID
100
AcDbLine
 10
329.3557781799045
 20
22.69351595986348
 30
0.0
 11
329.3557781799045
 21
-292.2057504456246
 31
0.0
  0
LINE
  5
13C
330
2
100
AcDbEntity
  8
HID
100
AcDbLine
 10
329.3557781799045
 20
22.69351595986353
 30
0.0
 11
328.5557781799045
 21
22.69351595986353
 31
0.0
  0
LINE
  5
13D
330
2
100
AcDbEntity
  8
HID
100
AcDbLine
 10
314.1557781799045
 20
32.45893045553998
 30
0.0
 11
314.1557781799045
 21
258.3819036784268
 31
0.0
  0
LINE
  5
13E
330
2
100
AcDbEntity
  8
HID
100
AcDbLine
 10
314.1557781799045
 20
312.3051266105337
 30
0.0
 11
324.6557781799045
 21
312.3051266105337
 31
0.0
  0
LINE
  5
13F
330
2
100
AcDbEntity
  8
HID
100
AcDbLine
 10
324.6557781799045
 20
293.9149941175537
 30
0.0
 11
317.1557781799045
 21
293.9149941175537
 31
0.0
  0
LINE
  5
140
330
2
100
AcDbEntity
  8
HID
100
AcDbLine
 10
314.1557781799045
 20
292.8889336875766
 30
0.0
 11
317.1557781799045
 21
293.9149941175537
 31
0.0
  0
LINE
  5
141
330
2
100
AcDbEntity
  8
HID
100
AcDbLine
 10
317.1557781799045
 20
293.9149941175537
 30
0.0
 11
317.1557781799045
 21
294.6667482141823
 31
0.0
  0
LINE
  5
142
330
2
100
AcDbEntity
  8
HID
100
AcDbLine
 10
330.1557781799045
 20
-278.3948733894662
 30
0.0
 11
329.3557781799045
 21
-278.3948733894662
 31
0.0
  0
LINE
  5
143
330
2
100
AcDbEntity
  8
HID
100
AcDbLine
 10
330.1557781799045
 20
-275.3948733894662
 30
0.0
 11
329.3557781799045
 21
-275.3948733894662
 31
0.0
  0
LINE
  5
144
330
2
100
AcDbEntity
  8
HID
100
AcDbLine
 10
324.6557781799045
 20
312.3533725139058
 30
0.0
 11
324.6557781799045
 21
312.3051266105345
 31
0.0
  0
LINE
  5
145
330
2
100
AcDbEntity
  8
HID
100
AcDbLine
 10
324.6557781799045
 20
294.6667482141872
 30
0.0
 11
324.6557781799045
 21
293.9149941175537
 31
0.0
  0
LINE
  5
146
330
2
100
AcDbEntity
  8
HID
100
AcDbLine
 10
324.6557781799045
 20
304.4869092174173
 30
0.0
 11
317.1557781799045
 21
304.4869092174173
 31
0.0
  0
LINE
  5
147
330
2
100
AcDbEntity
  8
HID
100
AcDbLine
 10
324.6557781799045
 20
313.1051266105346
 30
0.0
 11
324.6557781799045
 21
312.3533725139058
 31
0.0
  0
LINE
  5
148
330
2
100
AcDbEntity
  8
HID
100
AcDbLine
 10
314.1557781799045
 20
312.3533725139058
 30
0.0
 11
324.6557781799045
 21
312.3533725139058
 31
0.0
  0
LINE
  5
149
330
2
100
AcDbEntity
  8
HID
100
AcDbLine
 10
314.1557781799045
 20
306.2647237440227
 30
0.0
 11
314.1557781799045
 21
313.1051266105345
 31
0.0
  0
LINE
  5
14A
330
2
100
AcDbEntity
  8
HID
100
AcDbLine
 10
314.1557781799045
 20
313.1051266105345
 30
0.0
 11
324.6557781799045
 21
313.1051266105345
 31
0.0
  0
LINE
  5
14B
330
2
100
AcDbEntity
  8
HID
100
AcDbLine
 10
324.6557781799045
 20
313.1051266105338
 30
0.0
 11
329.1557781799046
 21
313.1051266105338
 31
0.0
  0
LINE
  5
14C
330
2
100
AcDbEntity
  8
OUTLINE
100
AcDbLine
 10
329.1557781799046
 20
313.1051266105338
 30
0.0
 11
330.1557781799045
 21
313.1051266105338
 31
0.0
  0
LINE
  5
14D
330
2
100
AcDbEntity
  8
OUTLINE
100
AcDbLine
 10
330.1557781799045
 20
313.1051266105338
 30
0.0
 11
330.1557781799045
 21
258.3819036784268
 31
0.0
  0
LINE
  5
14E
330
2
100
AcDbEntity
  8
HID
100
AcDbLine
 10
314.1557781799045
 20
258.3819036784268
 30
0.0
 11
329.1557781799046
 21
258.3819036784268
 31
0.0
  0
LINE
  5
14F
330
2
100
AcDbEntity
  8
OUTLINE
100
AcDbLine
 10
329.1557781799046
 20
258.3819036784268
 30
0.0
 11
330.1557781799045
 21
258.3819036784268
 31
0.0
  0
LINE
  5
150
330
2
100
AcDbEntity
  8
HID
100
AcDbLine
 10
314.1557781799045
 20
258.3819036784269
 30
0.0
 11
314.1557781799045
 21
293.6406877842054
 31
0.0
  0
LINE
  5
151
330
2
100
AcDbEntity
  8
HID
100
AcDbLine
 10
317.1557781799045
 20
294.6667482141823
 30
0.0
 11
314.1557781799045
 21
293.6406877842054
 31
0.0
  0
LINE
  5
152
330
2
100
AcDbEntity
  8
HID
100
AcDbLine
 10
317.1557781799045
 20
294.6667482141823
 30
0.0
 11
324.6557781799045
 21
294.6667482141823
 31
0.0
  0
LINE
  5
153
330
2
100
AcDbEntity
  8
HID
100
AcDbLine
 10
324.6557781799045
 20
294.6667482141823
 30
0.0
 11
324.6557781799045
 21
305.2386633140435
 31
0.0
  0
LINE
  5
154
330
2
100
AcDbEntity
  8
HID
100
AcDbLine
 10
324.6557781799045
 20
305.2386633140459
 30
0.0
 11
317.1557781799045
 21
305.2386633140459
 31
0.0
  0
LINE
  5
155
330
2
100
AcDbEntity
  8
HID
100
AcDbLine
 10
314.1557781799045
 20
305.512969647394
 30
0.0
 11
314.1557781799045
 21
306.2647237440227
 31
0.0
  0
LINE
  5
156
330
2
100
AcDbEntity
  8
HID
100
AcDbLine
 10
314.1557781799045
 20
306.2647237440205
 30
0.0
 11
317.1557781799045
 21
305.2386633140435
 31
0.0
  0
LINE
  5
157
330
2
100
AcDbEntity
  8
HID
100
AcDbLine
 10
317.1557781799045
 20
305.2386633140459
 30
0.0
 11
317.1557781799045
 21
304.4869092174173
 31
0.0
  0
LINE
  5
158
330
2
100
AcDbEntity
  8
HID
100
AcDbLine
 10
317.1557781799045
 20
304.4869092174147
 30
0.0
 11
314.1557781799045
 21
305.5129696473918
 31
0.0
  0
LINE
  5
159
330
2
100
AcDbEntity
  8
OUTLINE
100
AcDbLine
 10
329.3557781799046
 20
29.58256130782877
 30
0.0
 11
327.0244953936178
 21
29.58256130782877
 31
0.0
  0
LINE
  5
15A
330
2
100
AcDbEntity
  8
HID
100
AcDbLine
 10
327.0244953936178
 20
29.58256130782877
 30
0.0
 11
317.1557781799045
 21
29.58256130782877
 31
0.0
  0
LINE
  5
15B
330
2
100
AcDbEntity
  8
HID
100
AcDbLine
 10
317.1557781799045
 20
28.90799240009767
 30
0.0
 11
326.2604988515954
 21
28.90799240009767
 31
0.0
  0
LINE
  5
15C
330
2
100
AcDbEntity
  8
OUTLINE
100
AcDbLine
 10
326.2604988515954
 20
28.90799240009767
 30
0.0
 11
329.3557781799045
 21
28.90799240009767
 31
0.0
  0
LINE
  5
15D
330
2
100
AcDbEntity
  8
HID
100
AcDbLine
 10
329.3557781799045
 20
257.7351809676225
 30
0.0
 11
329.3557781799045
 21
29.58256130782877
 31
0.0
  0
LINE
  5
15E
330
2
100
AcDbEntity
  8
HID
100
AcDbLine
 10
314.1557781799045
 20
257.7351809676224
 30
0.0
 11
329.3557781799045
 21
257.7351809676224
 31
0.0
  0
LINE
  5
15F
330
2
100
AcDbEntity
  8
HID
100
AcDbLine
 10
314.1557781799045
 20
31.784361547809
 30
0.0
 11
314.1557781799045
 21
32.45893045554004
 31
0.0
  0
LINE
  5
160
330
2
100
AcDbEntity
  8
HID
100
AcDbLine
 10
314.1557781799045
 20
32.45893045554004
 30
0.0
 11
317.1557781799045
 21
29.58256130782877
 31
0.0
  0
LINE
  5
161
330
2
100
AcDbEntity
  8
HID
100
AcDbLine
 10
317.1557781799045
 20
29.58256130782883
 30
0.0
 11
317.1557781799045
 21
28.90799240009773
 31
0.0
  0
LINE
  5
162
330
2
100
AcDbEntity
  8
HID
100
AcDbLine
 10
317.1557781799045
 20
28.90799240009773
 30
0.0
 11
314.1557781799045
 21
31.784361547809
 31
0.0
  0
LINE
  5
163
330
2
100
AcDbEntity
  8
HID
100
AcDbLine
 10
310.1557781799045
 20
190.1051266105337
 30
0.0
 11
310.1557781799045
 21
28.43995228487666
 31
0.0
  0
LINE
  5
164
330
2
100
AcDbEntity
  8
OUTLINE
100
AcDbLine
 10
310.1557781799045
 20
28.43995228487666
 30
0.0
 11
310.1557781799045
 21
6.105126610533773
 31
0.0
  0
LINE
  5
165
330
2
100
AcDbEntity
  8
HID
100
AcDbLine
 10
310.1557781799045
 20
286.1051266105338
 30
0.0
 11
310.1557781799045
 21
196.1051266105338
 31
0.0
  0
LINE
  5
166
330
2
100
AcDbEntity
  8
HID
100
AcDbLine
 10
310.1557781799045
 20
286.1051266105338
 30
0.0
 11
315.1557781799045
 21
286.1051266105338
 31
0.0
  0
LINE
  5
167
330
2
100
AcDbEntity
  8
OUTLINE
100
AcDbLine
 10
330.1557781799045
 20
-306.8948733894662
 30
0.0
 11
330.1557781799045
 21
-306.0948733894662
 31
0.0
  0
LINE
  5
168
330
2
100
AcDbEntity
  8
HID
100
AcDbLine
 10
318.1557781799045
 20
196.1051266105338
 30
0.0
 11
310.1557781799045
 21
196.1051266105338
 31
0.0
  0
LINE
  5
169
330
2
100
AcDbEntity
  8
HID
100
AcDbLine
 10
318.1557781799045
 20
190.1051266105337
 30
0.0
 11
318.1557781799045
 21
196.1051266105338
 31
0.0
  0
LINE
  5
16A
330
2
100
AcDbEntity
  8
HID
100
AcDbLine
 10
310.1557781799045
 20
190.1051266105337
 30
0.0
 11
318.1557781799045
 21
190.1051266105337
 31
0.0
  0
LINE
  5
16B
330
2
100
AcDbEntity
  8
OUTLINE
100
AcDbLine
 10
310.1557781799045
 20
0.1051266105337731
 30
0.0
 11
310.1557781799045
 21
-276.8948733894662
 31
0.0
  0
LINE
  5
16C
330
2
100
AcDbEntity
  8
OUTLINE
100
AcDbLine
 10
318.1557781799047
 20
6.105126610533773
 30
0.0
 11
310.1557781799045
 21
6.105126610533773
 31
0.0
  0
LINE
  5
16D
330
2
100
AcDbEntity
  8
OUTLINE
100
AcDbLine
 10
318.1557781799047
 20
0.1051266105337731
 30
0.0
 11
318.1557781799047
 21
6.105126610533773
 31
0.0
  0
LINE
  5
16E
330
2
100
AcDbEntity
  8
OUTLINE
100
AcDbLine
 10
310.1557781799045
 20
0.1051266105337731
 30
0.0
 11
318.1557781799047
 21
0.1051266105337731
 31
0.0
  0
LINE
  5
16F
330
2
100
AcDbEntity
  8
OUTLINE
100
AcDbLine
 10
321.1557781799046
 20
-306.8948733894662
 30
0.0
 11
330.1557781799045
 21
-306.8948733894662
 31
0.0
  0
LINE
  5
170
330
2
100
AcDbEntity
  8
HID
100
AcDbLine
 10
318.1557781799045
 20
289.1051266105338
 30
0.0
 11
318.1557781799045
 21
309.171894962288
 31
0.0
  0
LINE
  5
171
330
2
100
AcDbEntity
  8
HID
100
AcDbLine
 10
318.1557781799045
 20
309.9236490589167
 30
0.0
 11
318.1557781799045
 21
312.3051266105337
 31
0.0
  0
LINE
  5
172
330
2
100
AcDbEntity
  8
HID
100
AcDbLine
 10
318.1557781799045
 20
289.1051266105338
 30
0.0
 11
315.1557781799045
 21
286.1051266105338
 31
0.0
  0
LINE
  5
173
330
2
100
AcDbEntity
  8
OUTLINE
100
AcDbLine
 10
318.1557781799047
 20
-279.8948733894661
 30
0.0
 11
313.1557781799045
 21
-279.8948733894661
 31
0.0
  0
LINE
  5
174
330
2
100
AcDbEntity
  8
OUTLINE
100
AcDbLine
 10
310.1557781799046
 20
-276.8948733894662
 30
0.0
 11
313.1557781799046
 21
-279.8948733894662
 31
0.0
  0
LINE
  5
175
330
2
100
AcDbEntity
  8
OUTLINE
100
AcDbLine
 10
318.1557781799047
 20
-303.8948733894664
 30
0.0
 11
318.1557781799047
 21
-279.8948733894662
 31
0.0
  0
LINE
  5
176
330
2
100
AcDbEntity
  8
OUTLINE
100
AcDbLine
 10
318.1557781799047
 20
-303.8948733894664
 30
0.0
 11
321.1557781799046
 21
-306.8948733894662
 31
0.0
  0
LINE
  5
177
330
2
100
AcDbEntity
  8
HID
100
AcDbLine
 10
322.6557781799045
 20
285.8468114061657
 30
0.0
 11
322.6557781799045
 21
286.5985655027945
 31
0.0
  0
LINE
  5
178
330
2
100
AcDbEntity
  8
HID
100
AcDbLine
 10
318.6557781799046
 20
285.8468114061657
 30
0.0
 11
318.6557781799046
 21
286.5985655027945
 31
0.0
  0
LINE
  5
179
330
2
100
AcDbEntity
  8
HID
100
AcDbLine
 10
322.6557781799045
 20
213.8589467852517
 30
0.0
 11
322.6557781799045
 21
214.2345240354804
 31
0.0
  0
LINE
  5
17A
330
2
100
AcDbEntity
  8
HID
100
AcDbLine
 10
318.6557781799046
 20
213.8589467852517
 30
0.0
 11
318.6557781799046
 21
214.2345240354804
 31
0.0
  0
LINE
  5
17B
330
2
100
AcDbEntity
  8
HID
100
AcDbLine
 10
322.6557781799045
 20
72.58733192782341
 30
0.0
 11
322.6557781799045
 21
72.96290917805208
 31
0.0
  0
LINE
  5
17C
330
2
100
AcDbEntity
  8
HID
100
AcDbLine
 10
318.6557781799046
 20
72.58733192782336
 30
0.0
 11
318.6557781799046
 21
72.96290917805208
 31
0.0
  0
LINE
  5
17D
330
2
100
AcDbEntity
  8
HID
100
AcDbLine
 10
322.6557781799045
 20
308.42014086566
 30
0.0
 11
322.6557781799045
 21
309.1718949622836
 31
0.0
  0
LINE
  5
17E
330
2
100
AcDbEntity
  8
HID
100
AcDbLine
 10
318.6557781799046
 20
308.42014086566
 30
0.0
 11
318.6557781799046
 21
309.1718949622887
 31
0.0
  0
LINE
  5
17F
330
2
100
AcDbEntity
  8
HID
100
AcDbLine
 10
323.1557781799045
 20
312.3051266105337
 30
0.0
 11
323.1557781799045
 21
313.1051266105337
 31
0.0
  0
LINE
  5
180
330
2
100
AcDbEntity
  8
HID
100
AcDbLine
 10
318.1557781799045
 20
312.3051266105337
 30
0.0
 11
318.1557781799045
 21
313.1051266105337
 31
0.0
  0
ELLIPSE
  5
181
330
2
100
AcDbEntity
  8
OUTLINE
100
AcDbEllipse
 10
320.6557781799045
 20
285.8468114061657
 30
0.0
 11
-2.0
 21
0.0
 31
0.0
210
0.0
220
0.0
230
1.0
 40
0.3420201433256688
 41
4.47110798620395
 42
4.953669974565402
  0
ELLIPSE
  5
182
330
2
100
AcDbEntity
  8
HID
100
AcDbEllipse
 10
320.6557781799045
 20
285.8468114061657
 30
0.0
 11
-2.0
 21
0.0
 31
0.0
210
0.0
220
0.0
230
1.0
 40
0.3420201433256688
 41
4.953669974565402
 42
10.75429329338353
  0
ELLIPSE
  5
183
330
2
100
AcDbEntity
  8
OUTLINE
100
AcDbEllipse
 10
320.6557781799045
 20
214.2345240354804
 30
0.0
 11
2.0
 21
0.0
 31
0.0
210
0.0
220
0.0
230
1.0
 40
0.8829475928589271
 41
0.0
 42
6.283185307179584
  0
ELLIPSE
  5
184
330
2
100
AcDbEntity
  8
OUTLINE
100
AcDbEllipse
 10
320.6557781799045
 20
72.96290917805214
 30
0.0
 11
2.0
 21
0.0
 31
0.0
210
0.0
220
0.0
230
1.0
 40
0.8829475928589271
 41
0.0
 42
6.283185307179584
  0
ELLIPSE
  5
185
330
2
100
AcDbEntity
  8
OUTLINE
100
AcDbEllipse
 10
320.6557781799045
 20
308.42014086566
 30
0.0
 11
-2.0
 21
0.0
 31
0.0
210
0.0
220
0.0
230
1.0
 40
0.3420201433256688
 41
4.471107986202428
 42
4.95366997456695
  0
ELLIPSE
  5
186
330
2
100
AcDbEntity
  8
HID
100
AcDbEllipse
 10
320.6557781799045
 20
308.42014086566
 30
0.0
 11
-2.0
 21
0.0
 31
0.0
210
0.0
220
0.0
230
1.0
 40
0.3420201433256688
 41
4.95366997456695
 42
10.75429329338201
  0
ELLIPSE
  5
187
330
2
100
AcDbEntity
  8
OUTLINE
100
AcDbEllipse
 10
320.6557781799045
 20
309.1718949622887
 30
0.0
 11
2.0
 21
0.0
 31
0.0
210
0.0
220
0.0
230
1.0
 40
0.3420201433256685
 41
0.2979685845329287
 42
2.843624069056863
  0
ELLIPSE
  5
188
330
2
100
AcDbEntity
  8
HID
100
AcDbEllipse
 10
320.6557781799045
 20
309.1718949622887
 30
0.0
 11
2.0
 21
0.0
 31
0.0
210
0.0
220
0.0
230
1.0
 40
0.3420201433256685
 41
2.843624069056863
 42
6.581153891712513
  0
ELLIPSE
  5
189
330
2
100
AcDbEntity
  8
OUTLINE
100
AcDbEllipse
 10
320.6557781799045
 20
286.5985655027945
 30
0.0
 11
2.0
 21
0.0
 31
0.0
210
0.0
220
0.0
230
1.0
 40
0.3420201433256685
 41
0.2979685845332928
 42
2.8436240690565
  0
ELLIPSE
  5
18A
330
2
100
AcDbEntity
  8
HID
100
AcDbEllipse
 10
320.6557781799045
 20
286.5985655027945
 30
0.0
 11
2.0
 21
0.0
 31
0.0
210
0.0
220
0.0
230
1.0
 40
0.3420201433256685
 41
2.8436240690565
 42
6.581153891712877
  0
ELLIPSE
  5
18B
330
2
100
AcDbEntity
  8
OUTLINE
100
AcDbEllipse
 10
320.6557781799045
 20
72.58733192782341
 30
0.0
 11
-2.0
 21
0.0
 31
0.0
210
0.0
220
0.0
230
1.0
 40
0.8829475928589275
 41
3.248135996386574
 42
6.176641964382802
  0
ELLIPSE
  5
18C
330
2
100
AcDbEntity
  8
HID
100
AcDbEllipse
 10
320.6557781799045
 20
72.58733192782341
 30
0.0
 11
-2.0
 21
0.0
 31
0.0
210
0.0
220
0.0
230
1.0
 40
0.8829475928589275
 41
6.176641964382802
 42
9.53132130356616
  0
ELLIPSE
  5
18D
330
2
100
AcDbEntity
  8
OUTLINE
100
AcDbEllipse
 10
320.6557781799045
 20
213.8589467852517
 30
0.0
 11
-2.0
 21
0.0
 31
0.0
210
0.0
220
0.0
230
1.0
 40
0.8829475928589275
 41
3.248135996386468
 42
6.176641964382896
  0
ELLIPSE
  5
18E
330
2
100
AcDbEntity
  8
HID
100
AcDbEllipse
 10
320.6557781799045
 20
213.8589467852517
 30
0.0
 11
-2.0
 21
0.0
 31
0.0
210
0.0
220
0.0
230
1.0
 40
0.8829475928589275
 41
6.176641964382896
 42
9.531321303566056
  0
CIRCLE
  5
18F
330
2
100
AcDbEntity
  8
OUTLINE
100
AcDbCircle
 10
324.1557781799045
 20
3.105126610533772
 30
0.0
 40
3.0
  0
CIRCLE
  5
190
330
2
100
AcDbEntity
  8
OUTLINE
100
AcDbCircle
 10
324.1557781799045
 20
-281.8948733894662
 30
0.0
 40
3.0
  0
CIRCLE
  5
191
330
2
100
AcDbEntity
  8
HID
100
AcDbCircle
 10
324.1557781799045
 20
288.1051266105338
 30
0.0
 40
3.0
  0
LINE
  5
192
330
2
100
AcDbEntity
  8
OUTLINE
100
AcDbLine
 10
329.1557781799046
 20
313.8568807071624
 30
0.0
 11
329.1557781799046
 21
313.9051266105336
 31
0.0
  0
LINE
  5
193
330
2
100
AcDbEntity
  8
OUTLINE
100
AcDbLine
 10
-318.8442218200955
 20
313.8568807071624
 30
0.0
 11
-318.8442218200955
 21
313.9051266105336
 31
0.0
  0
LINE
  5
194
330
2
100
AcDbEntity
  8
OUTLINE
100
AcDbLine
 10
329.1557781799046
 20
313.9051266105336
 30
0.0
 11
-318.8442218200955
 21
313.9051266105336
 31
0.0
  0
LINE
  5
195
330
2
100
AcDbEntity
  8
OUTLINE
100
AcDbLine
 10
-318.8442218200955
 20
313.8568807071624
 30
0.0
 11
-318.8442218200955
 21
259.1336577750554
 31
0.0
  0
LINE
  5
196
330
2
100
AcDbEntity
  8
OUTLINE
100
AcDbLine
 10
-318.8442218200955
 20
313.8568807071624
 30
0.0
 11
329.1557781799046
 21
313.8568807071624
 31
0.0
  0
LINE
  5
197
330
2
100
AcDbEntity
  8
OUTLINE
100
AcDbLine
 10
329.1557781799046
 20
259.1336577750554
 30
0.0
 11
329.1557781799046
 21
313.8568807071624
 31
0.0
  0
LINE
  5
198
330
2
100
AcDbEntity
  8
OUTLINE
100
AcDbLine
 10
-318.8442218200955
 20
259.1336577750554
 30
0.0
 11
-318.8442218200955
 21
258.7574809286554
 31
0.0
  0
LINE
  5
199
330
2
100
AcDbEntity
  8
OUTLINE
100
AcDbLine
 10
-318.8442218200955
 20
259.1336577750554
 30
0.0
 11
329.1557781799046
 21
259.1336577750554
 31
0.0
  0
LINE
  5
19A
330
2
100
AcDbEntity
  8
OUTLINE
100
AcDbLine
 10
329.1557781799046
 20
258.7574809286554
 30
0.0
 11
329.1557781799046
 21
259.1336577750554
 31
0.0
  0
LINE
  5
19B
330
2
100
AcDbEntity
  8
OUTLINE
100
AcDbLine
 10
-318.8442218200955
 20
258.7574809286554
 30
0.0
 11
-318.8442218200955
 21
31.83994956391109
 31
0.0
  0
LINE
  5
19C
330
2
100
AcDbEntity
  8
OUTLINE
100
AcDbLine
 10
329.1557781799046
 20
31.83994956391109
 30
0.0
 11
329.1557781799046
 21
258.7574809286554
 31
0.0
  0
LINE
  5
19D
330
2
100
AcDbEntity
  8
OUTLINE
100
AcDbLine
 10
-318.8442218200955
 20
258.7574809286554
 30
0.0
 11
329.1557781799046
 21
258.7574809286554
 31
0.0
  0
LINE
  5
19E
330
2
100
AcDbEntity
  8
OUTLINE
100
AcDbLine
 10
-318.8442218200955
 20
31.83994956391115
 30
0.0
 11
-318.8442218200955
 21
31.46437231368242
 31
0.0
  0
LINE
  5
19F
330
2
100
AcDbEntity
  8
OUTLINE
100
AcDbLine
 10
-315.8442218200955
 20
29.19110678533434
 30
0.0
 11
-318.8442218200955
 21
31.83994956391109
 31
0.0
  0
LINE
  5
1A0
330
2
100
AcDbEntity
  8
OUTLINE
100
AcDbLine
 10
-315.8442218200955
 20
28.81552953510561
 30
0.0
 11
-315.8442218200955
 21
29.19110678533434
 31
0.0
  0
LINE
  5
1A1
330
2
100
AcDbEntity
  8
OUTLINE
100
AcDbLine
 10
-315.8442218200955
 20
29.19110678533434
 30
0.0
 11
326.1557781799045
 21
29.19110678533434
 31
0.0
  0
LINE
  5
1A2
330
2
100
AcDbEntity
  8
OUTLINE
100
AcDbLine
 10
312.1557781799045
 20
28.81552953510561
 30
0.0
 11
326.1557781799045
 21
28.81552953510561
 31
0.0
  0
LINE
  5
1A3
330
2
100
AcDbEntity
  8
HID
100
AcDbLine
 10
-318.8442218200955
 20
258.3819036784267
 30
0.0
 11
329.1557781799046
 21
258.3819036784267
 31
0.0
  0
LINE
  5
1A4
330
2
100
AcDbEntity
  8
OUTLINE
100
AcDbLine
 10
-318.8442218200955
 20
31.46437231368242
 30
0.0
 11
-315.8442218200955
 21
28.81552953510567
 31
0.0
  0
LINE
  5
1A5
330
2
100
AcDbEntity
  8
OUTLINE
100
AcDbLine
 10
-315.8442218200955
 20
28.81552953510561
 30
0.0
 11
-301.8442218200955
 21
28.81552953510561
 31
0.0
  0
LINE
  5
1A6
330
2
100
AcDbEntity
  8
OUTLINE
100
AcDbLine
 10
329.1557781799046
 20
31.46437231368242
 30
0.0
 11
329.1557781799046
 21
31.83994956391115
 31
0.0
  0
LINE
  5
1A7
330
2
100
AcDbEntity
  8
OUTLINE
100
AcDbLine
 10
326.1557781799047
 20
28.81552953510555
 30
0.0
 11
329.1557781799046
 21
31.46437231368242
 31
0.0
  0
LINE
  5
1A8
330
2
100
AcDbEntity
  8
OUTLINE
100
AcDbLine
 10
326.1557781799045
 20
29.19110678533434
 30
0.0
 11
326.1557781799045
 21
28.81552953510561
 31
0.0
  0
LINE
  5
1A9
330
2
100
AcDbEntity
  8
OUTLINE
100
AcDbLine
 10
329.1557781799046
 20
31.83994956391115
 30
0.0
 11
326.1557781799047
 21
29.19110678533434
 31
0.0
  0
LINE
  5
1AA
330
2
100
AcDbEntity
  8
HID
100
AcDbLine
 10
-315.8442218200955
 20
313.9051266105336
 30
0.0
 11
-315.8442218200955
 21
313.1051266105337
 31
0.0
  0
LINE
  5
1AB
330
2
100
AcDbEntity
  8
HID
100
AcDbLine
 10
326.1557781799045
 20
313.1051266105337
 30
0.0
 11
326.1557781799045
 21
313.9051266105336
 31
0.0
  0
LINE
  5
1AC
330
2
100
AcDbEntity
  8
HID
100
AcDbLine
 10
304.1557781799046
 20
35.87911027797702
 30
0.0
 11
-293.8442218200955
 21
35.87911027797713
 31
0.0
  0
LINE
  5
1AD
330
2
100
AcDbEntity
  8
OUTLINE
100
AcDbLine
 10
312.1557781799045
 20
28.81552953510533
 30
0.0
 11
312.1557781799045
 21
28.43995228487666
 31
0.0
  0
LINE
  5
1AE
330
2
100
AcDbEntity
  8
HID
100
AcDbLine
 10
312.1557781799045
 20
28.81552953510555
 30
0.0
 11
304.1557781799046
 21
35.87911027797702
 31
0.0
  0
LINE
  5
1AF
330
2
100
AcDbEntity
  8
HID
100
AcDbLine
 10
304.1557781799046
 20
35.50353302774797
 30
0.0
 11
304.1557781799046
 21
35.87911027797702
 31
0.0
  0
LINE
  5
1B0
330
2
100
AcDbEntity
  8
OUTLINE
100
AcDbLine
 10
-301.8442218200955
 20
28.4399522848766
 30
0.0
 11
312.1557781799045
 21
28.43995228487654
 31
0.0
  0
LINE
  5
1B1
330
2
100
AcDbEntity
  8
HID
100
AcDbLine
 10
312.1557781799045
 20
28.4399522848766
 30
0.0
 11
304.1557781799046
 21
35.50353302774801
 31
0.0
  0
LINE
  5
1B2
330
2
100
AcDbEntity
  8
HID
100
AcDbLine
 10
304.1557781799046
 20
35.50353302774797
 30
0.0
 11
-293.8442218200955
 21
35.50353302774806
 31
0.0
  0
LINE
  5
1B3
330
2
100
AcDbEntity
  8
HID
100
AcDbLine
 10
-293.8442218200955
 20
35.87911027797713
 30
0.0
 11
-293.8442218200955
 21
35.50353302774812
 31
0.0
  0
LINE
  5
1B4
330
2
100
AcDbEntity
  8
HID
100
AcDbLine
 10
-293.8442218200955
 20
35.87911027797718
 30
0.0
 11
-301.8442218200955
 21
28.81552953510561
 31
0.0
  0
LINE
  5
1B5
330
2
100
AcDbEntity
  8
OUTLINE
100
AcDbLine
 10
-301.8442218200955
 20
28.81552953510533
 30
0.0
 11
-301.8442218200955
 21
28.4399522848766
 31
0.0
  0
LINE
  5
1B6
330
2
100
AcDbEntity
  8
HID
100
AcDbLine
 10
-293.8442218200955
 20
35.50353302774812
 30
0.0
 11
-301.8442218200954
 21
28.4399522848766
 31
0.0
  0
LINE
  5
1B7
330
2
100
AcDbEntity
  8
HID
100
AcDbLine
 10
329.1557781799046
 20
313.1051266105337
 30
0.0
 11
-318.8442218200955
 21
313.1051266105337
 31
0.0
  0
LINE
  5
1B8
330
2
100
AcDbEntity
  8
HID
100
AcDbLine
 10
115.1557781799045
 20
313.1051266105337
 30
0.0
 11
115.1557781799045
 21
308.9051266105336
 31
0.0
  0
LINE
  5
1B9
330
2
100
AcDbEntity
  8
HID
100
AcDbLine
 10
-104.8442218200954
 20
308.9051266105336
 30
0.0
 11
115.1557781799045
 21
308.9051266105336
 31
0.0
  0
LINE
  5
1BA
330
2
100
AcDbEntity
  8
HID
100
AcDbLine
 10
-104.8442218200954
 20
313.1051266105337
 30
0.0
 11
-104.8442218200954
 21
308.9051266105336
 31
0.0
  0
LINE
  5
1BB
330
2
100
AcDbEntity
  8
HID
100
AcDbLine
 10
-311.8442218200955
 20
313.9051266105336
 30
0.0
 11
-311.8442218200955
 21
313.1051266105337
 31
0.0
  0
LINE
  5
1BC
330
2
100
AcDbEntity
  8
HID
100
AcDbLine
 10
-308.8442218200955
 20
313.9051266105336
 30
0.0
 11
-308.8442218200955
 21
313.1051266105337
 31
0.0
  0
LINE
  5
1BD
330
2
100
AcDbEntity
  8
HID
100
AcDbLine
 10
319.1557781799045
 20
313.9051266105336
 30
0.0
 11
319.1557781799045
 21
313.1051266105337
 31
0.0
  0
LINE
  5
1BE
330
2
100
AcDbEntity
  8
HID
100
AcDbLine
 10
322.1557781799045
 20
313.9051266105336
 30
0.0
 11
322.1557781799045
 21
313.1051266105337
 31
0.0
  0
LINE
  5
1BF
330
2
100
AcDbEntity
  8
HID
100
AcDbLine
 10
-307.8442218200955
 20
286.5985655027941
 30
0.0
 11
-307.8442218200955
 21
287.3503195994231
 31
0.0
  0
LINE
  5
1C0
330
2
100
AcDbEntity
  8
HID
100
AcDbLine
 10
-312.8442218200955
 20
286.5985655027941
 30
0.0
 11
-312.8442218200955
 21
287.3503195994231
 31
0.0
  0
LINE
  5
1C1
330
2
100
AcDbEntity
  8
HID
100
AcDbLine
 10
323.1557781799045
 20
286.5985655027941
 30
0.0
 11
323.1557781799045
 21
287.3503195994231
 31
0.0
  0
LINE
  5
1C2
330
2
100
AcDbEntity
  8
HID
100
AcDbLine
 10
318.1557781799045
 20
286.5985655027941
 30
0.0
 11
318.1557781799045
 21
287.3503195994231
 31
0.0
  0
LINE
  5
1C3
330
2
100
AcDbEntity
  8
HID
100
AcDbLine
 10
-312.8442218200955
 20
214.6101012857086
 30
0.0
 11
-312.8442218200955
 21
214.2345240354803
 31
0.0
  0
LINE
  5
1C4
330
2
100
AcDbEntity
  8
HID
100
AcDbLine
 10
-307.8442218200955
 20
214.6101012857086
 30
0.0
 11
-307.8442218200955
 21
214.2345240354803
 31
0.0
  0
LINE
  5
1C5
330
2
100
AcDbEntity
  8
HID
100
AcDbLine
 10
-312.8442218200955
 20
73.33848642828008
 30
0.0
 11
-312.8442218200955
 21
72.96290917805151
 31
0.0
  0
LINE
  5
1C6
330
2
100
AcDbEntity
  8
HID
100
AcDbLine
 10
-307.8442218200955
 20
73.33848642828008
 30
0.0
 11
-307.8442218200955
 21
72.96290917805151
 31
0.0
  0
LINE
  5
1C7
330
2
100
AcDbEntity
  8
HID
100
AcDbLine
 10
318.1557781799045
 20
214.6101012857087
 30
0.0
 11
318.1557781799045
 21
214.2345240354803
 31
0.0
  0
LINE
  5
1C8
330
2
100
AcDbEntity
  8
HID
100
AcDbLine
 10
323.1557781799045
 20
214.6101012857087
 30
0.0
 11
323.1557781799045
 21
214.2345240354803
 31
0.0
  0
LINE
  5
1C9
330
2
100
AcDbEntity
  8
HID
100
AcDbLine
 10
318.1557781799045
 20
73.33848642828008
 30
0.0
 11
318.1557781799045
 21
72.96290917805151
 31
0.0
  0
LINE
  5
1CA
330
2
100
AcDbEntity
  8
HID
100
AcDbLine
 10
323.1557781799045
 20
73.33848642828008
 30
0.0
 11
323.1557781799045
 21
72.96290917805151
 31
0.0
  0
LINE
  5
1CB
330
2
100
AcDbEntity
  8
HID
100
AcDbLine
 10
-307.8442218200955
 20
309.1718949622881
 30
0.0
 11
-307.8442218200955
 21
309.9236490589169
 31
0.0
  0
LINE
  5
1CC
330
2
100
AcDbEntity
  8
HID
100
AcDbLine
 10
-312.8442218200955
 20
309.1718949622881
 30
0.0
 11
-312.8442218200955
 21
309.9236490589169
 31
0.0
  0
LINE
  5
1CD
330
2
100
AcDbEntity
  8
HID
100
AcDbLine
 10
323.1557781799045
 20
309.1718949622881
 30
0.0
 11
323.1557781799045
 21
309.9236490589169
 31
0.0
  0
LINE
  5
1CE
330
2
100
AcDbEntity
  8
HID
100
AcDbLine
 10
318.1557781799045
 20
309.1718949622881
 30
0.0
 11
318.1557781799045
 21
309.9236490589169
 31
0.0
  0
ELLIPSE
  5
1CF
330
2
100
AcDbEntity
  8
HID
100
AcDbEllipse
 10
-310.3442218200955
 20
286.5985655027942
 30
0.0
 11
2.5
 21
0.0
 31
0.0
210
0.0
220
0.0
230
1.0
 40
0.3420201433256686
 41
2.686443389401686
 42
6.738334571367686
  0
ELLIPSE
  5
1D0
330
2
100
AcDbEntity
  8
OUTLINE
100
AcDbEllipse
 10
-310.3442218200955
 20
286.5985655027942
 30
0.0
 11
2.5
 21
0.0
 31
0.0
210
0.0
220
0.0
230
1.0
 40
0.3420201433256686
 41
0.4551492641881051
 42
2.686443389401686
  0
ELLIPSE
  5
1D1
330
2
100
AcDbEntity
  8
OUTLINE
100
AcDbEllipse
 10
-310.3442218200955
 20
287.3503195994231
 30
0.0
 11
-2.5
 21
0.0
 31
0.0
210
0.0
220
0.0
230
1.0
 40
0.3420201433256688
 41
0.0000000000000002
 42
6.283185307179584
  0
ELLIPSE
  5
1D2
330
2
100
AcDbEntity
  8
HID
100
AcDbEllipse
 10
320.6557781799045
 20
286.5985655027942
 30
0.0
 11
2.5
 21
0.0
 31
0.0
210
0.0
220
0.0
230
1.0
 40
0.3420201433256686
 41
2.686443389401686
 42
6.738334571367686
  0
ELLIPSE
  5
1D3
330
2
100
AcDbEntity
  8
OUTLINE
100
AcDbEllipse
 10
320.6557781799045
 20
286.5985655027942
 30
0.0
 11
2.5
 21
0.0
 31
0.0
210
0.0
220
0.0
230
1.0
 40
0.3420201433256686
 41
0.4551492641881051
 42
2.686443389401686
  0
ELLIPSE
  5
1D4
330
2
100
AcDbEntity
  8
OUTLINE
100
AcDbEllipse
 10
320.6557781799045
 20
287.3503195994231
 30
0.0
 11
-2.5
 21
0.0
 31
0.0
210
0.0
220
0.0
230
1.0
 40
0.3420201433256688
 41
0.0000000000000002
 42
6.283185307179584
  0
ELLIPSE
  5
1D5
330
2
100
AcDbEntity
  8
OUTLINE
100
AcDbEllipse
 10
-310.3442218200955
 20
214.6101012857087
 30
0.0
 11
-2.5
 21
0.0
 31
0.0
210
0.0
220
0.0
230
1.0
 40
0.8829475928589271
 41
0.0000000000000002
 42
6.283185307179584
  0
ELLIPSE
  5
1D6
330
2
100
AcDbEntity
  8
HID
100
AcDbEllipse
 10
-310.3442218200955
 20
214.2345240354803
 30
0.0
 11
2.5
 21
0.0
 31
0.0
210
0.0
220
0.0
230
1.0
 40
0.8829475928589271
 41
3.056416188908738
 42
6.368361771860637
  0
ELLIPSE
  5
1D7
330
2
100
AcDbEntity
  8
OUTLINE
100
AcDbEllipse
 10
-310.3442218200955
 20
214.2345240354803
 30
0.0
 11
2.5
 21
0.0
 31
0.0
210
0.0
220
0.0
230
1.0
 40
0.8829475928589271
 41
0.085176464681054
 42
3.056416188908738
  0
ELLIPSE
  5
1D8
330
2
100
AcDbEntity
  8
OUTLINE
100
AcDbEllipse
 10
-310.3442218200955
 20
73.33848642828008
 30
0.0
 11
-2.5
 21
0.0
 31
0.0
210
0.0
220
0.0
230
1.0
 40
0.8829475928589271
 41
0.0000000000000002
 42
6.283185307179584
  0
ELLIPSE
  5
1D9
330
2
100
AcDbEntity
  8
HID
100
AcDbEllipse
 10
-310.3442218200955
 20
72.96290917805158
 30
0.0
 11
2.5
 21
0.0
 31
0.0
210
0.0
220
0.0
230
1.0
 40
0.8829475928589271
 41
3.056416188908748
 42
6.368361771860628
  0
ELLIPSE
  5
1DA
330
2
100
AcDbEntity
  8
OUTLINE
100
AcDbEllipse
 10
-310.3442218200955
 20
72.96290917805158
 30
0.0
 11
2.5
 21
0.0
 31
0.0
210
0.0
220
0.0
230
1.0
 40
0.8829475928589271
 41
0.0851764646810434
 42
3.056416188908748
  0
ELLIPSE
  5
1DB
330
2
100
AcDbEntity
  8
OUTLINE
100
AcDbEllipse
 10
320.6557781799045
 20
214.6101012857087
 30
0.0
 11
-2.5
 21
0.0
 31
0.0
210
0.0
220
0.0
230
1.0
 40
0.8829475928589271
 41
0.0000000000000002
 42
6.283185307179584
  0
ELLIPSE
  5
1DC
330
2
100
AcDbEntity
  8
HID
100
AcDbEllipse
 10
320.6557781799045
 20
214.2345240354803
 30
0.0
 11
2.5
 21
0.0
 31
0.0
210
0.0
220
0.0
230
1.0
 40
0.8829475928589271
 41
3.056416188908748
 42
6.368361771860628
  0
ELLIPSE
  5
1DD
330
2
100
AcDbEntity
  8
OUTLINE
100
AcDbEllipse
 10
320.6557781799045
 20
214.2345240354803
 30
0.0
 11
2.5
 21
0.0
 31
0.0
210
0.0
220
0.0
230
1.0
 40
0.8829475928589271
 41
0.0851764646810434
 42
3.056416188908748
  0
ELLIPSE
  5
1DE
330
2
100
AcDbEntity
  8
OUTLINE
100
AcDbEllipse
 10
320.6557781799045
 20
73.33848642828008
 30
0.0
 11
-2.5
 21
0.0
 31
0.0
210
0.0
220
0.0
230
1.0
 40
0.8829475928589271
 41
0.0000000000000002
 42
6.283185307179584
  0
ELLIPSE
  5
1DF
330
2
100
AcDbEntity
  8
HID
100
AcDbEllipse
 10
320.6557781799045
 20
72.96290917805158
 30
0.0
 11
2.5
 21
0.0
 31
0.0
210
0.0
220
0.0
230
1.0
 40
0.8829475928589271
 41
3.056416188908748
 42
6.368361771860628
  0
ELLIPSE
  5
1E0
330
2
100
AcDbEntity
  8
OUTLINE
100
AcDbEllipse
 10
320.6557781799045
 20
72.96290917805158
 30
0.0
 11
2.5
 21
0.0
 31
0.0
210
0.0
220
0.0
230
1.0
 40
0.8829475928589271
 41
0.0851764646810434
 42
3.056416188908748
  0
ELLIPSE
  5
1E1
330
2
100
AcDbEntity
  8
HID
100
AcDbEllipse
 10
-310.3442218200955
 20
309.1718949622883
 30
0.0
 11
2.5
 21
0.0
 31
0.0
210
0.0
220
0.0
230
1.0
 40
0.3420201433256686
 41
2.686443389401837
 42
6.738334571367539
  0
ELLIPSE
  5
1E2
330
2
100
AcDbEntity
  8
OUTLINE
100
AcDbEllipse
 10
-310.3442218200955
 20
309.1718949622883
 30
0.0
 11
2.5
 21
0.0
 31
0.0
210
0.0
220
0.0
230
1.0
 40
0.3420201433256686
 41
0.4551492641879555
 42
2.686443389401837
  0
ELLIPSE
  5
1E3
330
2
100
AcDbEntity
  8
OUTLINE
100
AcDbEllipse
 10
-310.3442218200955
 20
309.923649058917
 30
0.0
 11
-2.5
 21
0.0
 31
0.0
210
0.0
220
0.0
230
1.0
 40
0.3420201433256688
 41
0.0000000000000002
 42
6.283185307179584
  0
ELLIPSE
  5
1E4
330
2
100
AcDbEntity
  8
HID
100
AcDbEllipse
 10
320.6557781799045
 20
309.1718949622883
 30
0.0
 11
2.5
 21
0.0
 31
0.0
210
0.0
220
0.0
230
1.0
 40
0.3420201433256686
 41
2.686443389401837
 42
6.738334571367539
  0
ELLIPSE
  5
1E5
330
2
100
AcDbEntity
  8
OUTLINE
100
AcDbEllipse
 10
320.6557781799045
 20
309.1718949622883
 30
0.0
 11
2.5
 21
0.0
 31
0.0
210
0.0
220
0.0
230
1.0
 40
0.3420201433256686
 41
0.4551492641879555
 42
2.686443389401837
  0
ELLIPSE
  5
1E6
330
2
100
AcDbEntity
  8
OUTLINE
100
AcDbEllipse
 10
320.6557781799045
 20
309.923649058917
 30
0.0
 11
-2.5
 21
0.0
 31
0.0
210
0.0
220
0.0
230
1.0
 40
0.3420201433256688
 41
0.0000000000000002
 42
6.283185307179584
  0
MTEXT
  5
529
330
2
100
AcDbEntity
  8
ETC
100
AcDbMText
 10
-220.0003610408797
 20
543.7220600152825
 30
0.0
 40
40.0
 41
0.0
 71
     1
 72
     5
  1
{\Fromans,extfont|c128;AGJS/AGJT-28F}\P正面図
  7
ADESK1
 73
     1
 44
1.0
1001
ACAD
1000
MTEXTBEGIN
1070
    73
1070
     1
1070
    44
1040
1.0
1070
    74
1070
     0
1000
MTEXTEND
  0
DIMENSION
  5
56C
330
2
100
AcDbEntity
  8
SIZE
100
AcDbDimension
  2
*D1
 10
324.1557781799047
 20
350.1817810242008
 30
0.0
 11
5.155778179904502
 21
360.1817810242008
 31
0.0
 70
    32
 71
     5
 42
638.0000000000002
  3
AM_ANSI
100
AcDbAlignedDimension
 13
-313.8442218200956
 23
291.2151266105336
 33
0.0
 14
324.1557781799047
 24
291.2151266105338
 34
0.0
100
AcDbRotatedDimension
1001
ACAD
1000
DSTYLE
1002
{
1070
   178
1070
     0
1002
}
  0
DIMENSION
  5
57A
330
2
100
AcDbEntity
  8
SIZE
100
AcDbDimension
  2
*D2
 10
330.1557781799045
 20
372.2282752385646
 30
0.0
 11
5.155778179904531
 21
382.2282752385646
 31
0.0
 70
    32
 71
     5
 42
650.0
  3
AM_ANSI
100
AcDbAlignedDimension
 13
-319.8442218200955
 23
313.1051266105339
 33
0.0
 14
330.1557781799045
 24
313.1051266105338
 34
0.0
100
AcDbRotatedDimension
1001
ACAD
1000
DSTYLE
1002
{
1070
   178
1070
     0
1002
}
  0
DIMENSION
  5
587
330
2
100
AcDbEntity
  8
SIZE
100
AcDbDimension
  2
*D3
 10
-384.8535217368795
 20
3.105126610534065
 30
0.0
 11
-394.8535217368795
 21
145.6051266105338
 31
0.0
 70
    32
 71
     5
 42
284.9999999999996
  3
AM_ANSI
100
AcDbAlignedDimension
 13
-316.8442218200955
 23
288.1051266105337
 33
0.0
 14
-316.2109958174826
 24
3.105126610534046
 34
0.0
 50
90.0
100
AcDbRotatedDimension
1001
ACAD
1000
DSTYLE
1002
{
1070
   178
1070
     0
1002
}
  0
DIMENSION
  5
594
330
2
100
AcDbEntity
  8
SIZE
100
AcDbDimension
  2
*D4
 10
-384.8535217368795
 20
-281.8948733894663
 30
0.0
 11
-394.8535217368794
 21
-139.3948733894661
 31
0.0
 70
    32
 71
     5
 42
285.0000000000004
  3
AM_ANSI
100
AcDbAlignedDimension
 13
-316.2109958174826
 23
3.105126610534046
 33
0.0
 14
-316.9542218200955
 24
-281.8948733894663
 34
0.0
 50
90.0
100
AcDbRotatedDimension
1001
ACAD
1000
DSTYLE
1002
{
1070
   178
1070
     0
1070
   279
1070
     1
1002
}
  0
DIMENSION
  5
5A1
330
2
100
AcDbEntity
  8
SIZE
100
AcDbDimension
  2
*D5
 10
-410.5522350261236
 20
313.9051266105337
 30
0.0
 11
-420.5522350261237
 21
3.505126610533606
 31
0.0
 70
    32
 71
     5
 42
620.7999999999999
  3
AM_ANSI
100
AcDbAlignedDimension
 13
-319.8442218200954
 23
-306.8948733894663
 33
0.0
 14
-318.8442218200955
 24
313.9051266105336
 34
0.0
 50
90.0
100
AcDbRotatedDimension
1001
ACAD
1000
DSTYLE
1002
{
1070
   178
1070
     0
1002
}
  0
MULTILEADER
  5
5AE
330
2
100
AcDbEntity
  8
NOTE
 92
      592
310
50020000110000000C00000010000000090000000C00000016000000000000C00C00000013000000112700003C000000060000000200000089E74CD34EA571C048557DF5413874C00000000000000000277D4DDA435871C048557DF5413874C000000000000000000C00000013000000010000000C00000014000000010000
310
005400000007000000030000002F58CBFD752273C009D53DAC016F72C000000000000000003EF0343DA57B73C06C84A2E3FDC171C000000000000000008031C8352BEF72C0E71B1ACBBA4872C000000000000000000C00000013000000891300003C0000000600000002000000D8C4C999D00873C078F8AB3BDE5B72C00000
310
00000000000089E74CD34EA571C048557DF5413874C000000000000000000C000000130000009A3A00003C0000000600000002000000267D4DDA435871C048557DF5413874C00000000000000000AD9C5A485D1B6DC048557DF5413874C000000000000000000C00000016000000000000C00C00000012000000FF7F00000C
310
00000017000000FFFFFFFF0C00000016000000000000C00C00000013000000993A0000B00000000B00000032059B7F657B71C0E5EE168FDB1174C0000000000000000000000000000000000000000000000000000000000000F03F000000000000F03F00000000000000000000000000000000362D5C552B32323035360063
310
0A000000010000000000000000002840000000000000F03F0000000000000000000000000000F03F0000000000000000000000000000000000000000726F6D616E732E7368780000657874666F6E742E73687800
100
AcDbMLeader
300
CONTEXT_DATA{
 40
1.0
 10
-277.5165656115445
 20
-323.5161032577348
 30
0.0
 41
12.0
140
12.0
145
0.09
174
     5
175
     6
176
     0
177
     0
290
     1
304
6-%%C6
 11
0.0
 21
0.0
 31
1.0
340
1D
 12
-277.4265656115445
 22
-309.116103257735
 32
0.0
 13
1.0
 23
0.0
 33
0.0
 42
0.0
 43
0.0
 44
0.0
 45
1.0
170
     1
 90
-1073741824
171
     1
172
     5
 91
-1073741824
141
0.0
 92
  4587520
291
     0
292
     0
173
     0
293
     0
142
0.0
143
0.0
294
     0
295
     0
296
     0
110
-311.7278415744694
120
-284.1244846676188
130
0.0
111
1.0
121
0.0
131
0.0
112
0.0
122
1.0
132
0.0
297
     0
302
LEADER{
290
     1
291
     1
 10
-282.3317444805221
 20
-323.5161032577348
 30
0.0
 11
1.0
 21
0.0
 31
0.0
 90
        0
 40
4.815178868977551
304
LEADER_LINE{
 10
-311.7278415744694
 20
-284.1244846676188
 30
0.0
 91
        0
305
}
303
}
301
}
340
51F
 90
   349312
170
     1
 91
-1056964608
341
20
171
    -2
290
     1
291
     1
 41
0.36
 42
12.0
172
     2
343
1D
173
     5
 95
        6
174
     1
175
     0
 92
-1056964608
292
     0
 93
-1056964608
 10
1.0
 20
1.0
 30
1.0
 43
0.0
176
     0
293
     0
294
     0
178
     0
179
     1
 45
1.0
1001
ACAD_MLEADERVER
1070
     2
  0
LINE
  5
C18
330
2
100
AcDbEntity
  8
BASIS
  6
DASHDOT
 62
     6
100
AcDbLine
 10
5.155778179904245
 20
-338.9845893060591
 30
0.0
 11
5.155778179904245
 21
330.7391153926453
 31
0.0
  0
LINE
  5
C19
330
2
100
AcDbEntity
  8
ARRANGE
  6
Continuous
 62
     1
100
AcDbLine
 10
-11.52833938449976
 20
-323.5789909538695
 30
0.0
 11
21.8398957443078
 21
-290.2107558250624
 31
0.0
  0
LINE
  5
C1A
330
2
100
AcDbEntity
  8
ARRANGE
  6
Continuous
 62
     1
100
AcDbLine
 10
-11.52833938449976
 20
-290.2107558250624
 30
0.0
 11
21.8398957443078
 21
-323.5789909538695
 31
0.0
  0
CIRCLE
  5
C1B
330
2
100
AcDbEntity
  8
ARRANGE
100
AcDbCircle
 10
5.155778179904245
 20
-306.8948733894659
 30
0.0
 40
15.0
  0
ENDSEC
  0
SECTION
  2
OBJECTS
  0
DICTIONARY
  5
A
330
0
100
AcDbDictionary
281
     1
  3
ACAD_2007HEADERVARS_RT
350
EFB
  3
ACAD_BACKGROUND
350
526
  3
ACAD_COLOR
350
3F
  3
ACAD_GROUP
350
3A
  3
ACAD_LAYOUT
350
10
  3
ACAD_MATERIAL
350
C
  3
ACAD_MLEADERSTYLE
350
51E
  3
ACAD_MLINESTYLE
350
3B
  3
ACAD_PLOTSETTINGS
350
3C
  3
ACAD_PLOTSTYLENAME
350
9
  3
ACAD_SCALELIST
350
40
  3
ACAD_TABLESTYLE
350
41
  3
ACAD_VISUALSTYLE
350
27
  3
ACDB_RECOMPOSE_DATA
350
509
  3
AcDbVariableDictionary
350
50A
  3
AcmDictionary
350
504
  3
DWGPROPS
350
EFA
  0
DICTIONARY
  5
534
330
24
100
AcDbDictionary
280
     1
281
     1
  0
DICTIONARY
  5
19
330
18
100
AcDbDictionary
280
     1
281
     1
  3
ACAD_LAYERFILTERS
360
EF8
  3
ACAD_LAYERSTATES
360
1A
  3
ACLYDICTIONARY
360
EF7
  3
AMLAYER_GROUPCOLORS
360
1B
  0
DICTIONARY
  5
6
330
5
100
AcDbDictionary
280
     1
281
     1
  3
ADSK_XREC_LAYER_RECONCILED
360
7
  0
DICTIONARY
  5
3
330
2
100
AcDbDictionary
280
     1
281
     1
  0
DICTIONARY
  5
EFB
102
{ACAD_REACTORS
330
A
102
}
330
A
100
AcDbDictionary
281
     1
  3
DIMARCSYM
350
EFC
  0
DICTIONARY
  5
526
102
{ACAD_REACTORS
330
A
102
}
330
A
100
AcDbDictionary
281
     1
  0
DICTIONARY
  5
3F
102
{ACAD_REACTORS
330
A
102
}
330
A
100
AcDbDictionary
281
     1
  0
DICTIONARY
  5
3A
102
{ACAD_REACTORS
330
A
102
}
330
A
100
AcDbDictionary
281
     1
  0
DICTIONARY
  5
10
102
{ACAD_REACTORS
330
A
102
}
330
A
100
AcDbDictionary
281
     1
  3
Model
350
F
  3
レイアウト1
350
14
  0
DICTIONARY
  5
C
102
{ACAD_REACTORS
330
A
102
}
330
A
100
AcDbDictionary
281
     1
  3
ByBlock
350
3E
  3
ByLayer
350
3D
  3
Global
350
B
  0
DICTIONARY
  5
51E
102
{ACAD_REACTORS
330
A
102
}
330
A
100
AcDbDictionary
281
     1
  3
Standard
350
51F
  0
DICTIONARY
  5
3B
102
{ACAD_REACTORS
330
A
102
}
330
A
100
AcDbDictionary
281
     1
  3
STANDARD
350
43
  0
DICTIONARY
  5
3C
102
{ACAD_REACTORS
330
A
102
}
330
A
100
AcDbDictionary
281
     1
  0
ACDBDICTIONARYWDFLT
  5
9
102
{ACAD_REACTORS
330
A
102
}
330
A
100
AcDbDictionary
281
     1
  3
Normal
350
8
100
AcDbDictionaryWithDefault
340
8
  0
DICTIONARY
  5
40
102
{ACAD_REACTORS
330
A
102
}
330
A
100
AcDbDictionary
281
     1
  3
*A1
350
47
  3
*A2
350
48
  3
A0
350
49
  3
A1
350
4A
  3
A2
350
4B
  3
A3
350
4C
  3
A4
350
4D
  3
A5
350
4E
  3
A6
350
4F
  3
A7
350
50
  3
A8
350
51
  3
A9
350
52
  3
B0
350
53
  3
B1
350
54
  3
B2
350
55
  3
B3
350
56
  3
B4
350
57
  3
B5
350
58
  3
B6
350
59
  3
B7
350
5A
  3
B8
350
5B
  3
B9
350
5C
  3
C0
350
5D
  3
C1
350
5E
  3
C2
350
5F
  3
C3
350
60
  3
C4
350
61
  3
C5
350
62
  3
C6
350
63
  3
C7
350
64
  3
C8
350
65
  3
C9
350
66
  3
D0
350
67
  3
D1
350
68
  0
DICTIONARY
  5
41
102
{ACAD_REACTORS
330
A
102
}
330
A
100
AcDbDictionary
281
     1
  3
Standard
350
44
  0
DICTIONARY
  5
27
102
{ACAD_REACTORS
330
A
102
}
330
A
100
AcDbDictionary
281
     1
  3
2dWireframe
350
515
  3
3D Hidden
350
516
  3
3dWireframe
350
46
  3
Basic
350
514
  3
Brighten
350
519
  3
ColorChange
350
51D
  3
Conceptual
350
517
  3
Dim
350
518
  3
Facepattern
350
51C
  3
Flat
350
510
  3
FlatWithEdges
350
511
  3
Gouraud
350
512
  3
GouraudWithEdges
350
513
  3
Linepattern
350
51B
  3
Realistic
350
26
  3
Thicken
350
51A
  0
XRECORD
  5
509
102
{ACAD_REACTORS
330
A
102
}
330
A
100
AcDbXrecord
280
     1
 90
        1
330
44
  0
DICTIONARY
  5
50A
102
{ACAD_REACTORS
330
A
102
}
330
A
100
AcDbDictionary
281
     1
  3
CANNOSCALE
350
50D
  3
CMLEADERSTYLE
350
50C
  3
CTABLESTYLE
350
50B
  3
DIMASSOC
350
546
  3
HIDETEXT
350
545
  3
INDEXCTL
350
544
  3
LIGHTINGUNITS
350
50E
  3
MSLTSCALE
350
542
  3
SORTENTS
350
543
  0
DICTIONARY
  5
504
102
{ACAD_REACTORS
330
A
102
}
330
A
100
AcDbDictionary
281
     1
  3
AcmBOMDATA
350
505
  0
XRECORD
  5
EFA
102
{ACAD_REACTORS
330
A
102
}
330
A
100
AcDbXrecord
280
     1
  1
DWGPROPS COOKIE
  2

  3

  4

  6

  7

  8
W000135
  9

300
=
301
=
302
=
303
=
304
=
305
=
306
=
307
=
308
=
309
=
 40
0.3574810763888889
 41
2454755.562898033
 42
2454986.534898299
  1

 90
        0
  0
DICTIONARY
  5
EF8
102
{ACAD_REACTORS
330
19
102
}
330
19
100
AcDbDictionary
281
     1
  0
DICTIONARY
  5
1A
102
{ACAD_REACTORS
330
19
102
}
330
19
100
AcDbDictionary
281
     1
  0
DICTIONARY
  5
EF7
102
{ACAD_REACTORS
330
19
102
}
330
19
100
AcDbDictionary
281
     1
1001
ACAD
1000
<All
  0
DICTIONARY
  5
1B
102
{ACAD_REACTORS
330
19
102
}
330
19
100
AcDbDictionary
280
     1
281
     1
  0
XRECORD
  5
7
102
{ACAD_REACTORS
330
6
102
}
330
6
100
AcDbXrecord
280
     1
290
     1
  0
XRECORD
  5
EFC
102
{ACAD_REACTORS
330
EFB
102
}
330
EFB
100
AcDbXrecord
280
     1
 70
     1
  0
LAYOUT
  5
F
102
{ACAD_XDICTIONARY
360
EFD
102
}
102
{ACAD_REACTORS
330
10
102
}
330
10
100
AcDbPlotSettings
  1

  2
\\NOVIBDC\HPLJ4-TPUB
  4

  6

 40
0.0
 41
0.0
 42
0.0
 43
0.0
 44
0.0
 45
0.0
 46
0.0
 47
0.0
 48
0.0
 49
0.0
140
0.0
141
0.0
142
1.0
143
1.0
 70
  1712
 72
     0
 73
     0
 74
     0
  7

 75
     0
147
1.0
148
0.0
149
0.0
100
AcDbLayout
  1
Model
 70
     1
 71
     0
 10
0.0
 20
0.0
 11
12.0
 21
9.0
 12
0.0
 22
0.0
 32
0.0
 14
0.0
 24
0.0
 34
0.0
 15
0.0
 25
0.0
 35
0.0
146
0.0
 13
0.0
 23
0.0
 33
0.0
 16
1.0
 26
0.0
 36
0.0
 17
0.0
 27
1.0
 37
0.0
 76
     0
330
2
331
652
  0
LAYOUT
  5
14
102
{ACAD_XDICTIONARY
360
15
102
}
102
{ACAD_REACTORS
330
10
102
}
330
10
100
AcDbPlotSettings
  1

  2
Microsoft XPS Document Writer
  4
A4
  6

 40
3.174999952316281
 41
3.174999952316281
 42
3.175003051757812
 43
3.17498779296875
 44
210.0156707763672
 45
297.0106506347656
 46
0.0
 47
0.0
 48
0.0
 49
0.0
140
0.0
141
0.0
142
1.0
143
1.0
 70
   688
 72
     0
 73
     1
 74
     5
  7

 75
    16
147
1.0
148
0.0
149
0.0
100
AcDbLayout
  1
レイアウト1
 70
     1
 71
     1
 10
0.0
 20
0.0
 11
12.0
 21
9.0
 12
0.0
 22
0.0
 32
0.0
 14
-957.8415609380034
 24
-847.5348569935048
 34
0.0
 15
1786.54527885334
 25
855.8220652013368
 35
0.0
146
0.0
 13
0.0
 23
0.0
 33
0.0
 16
1.0
 26
0.0
 36
0.0
 17
0.0
 27
1.0
 37
0.0
 76
     0
330
11
1001
ACAD_PSEXT
1000
Microsoft XPS Document Writer
1000
Microsoft XPS Document Writer
1000
XPSPort:
1000

1070
     0
  0
MATERIAL
  5
3E
102
{ACAD_XDICTIONARY
360
5D9
102
}
102
{ACAD_REACTORS
330
C
102
}
330
C
100
AcDbMaterial
  1
ByBlock
  0
MATERIAL
  5
3D
102
{ACAD_XDICTIONARY
360
5D7
102
}
102
{ACAD_REACTORS
330
C
102
}
330
C
100
AcDbMaterial
  1
ByLayer
  0
MATERIAL
  5
B
102
{ACAD_XDICTIONARY
360
5D2
102
}
102
{ACAD_REACTORS
330
C
102
}
330
C
100
AcDbMaterial
  1
Global
  0
MLEADERSTYLE
  5
51F
102
{ACAD_REACTORS
330
51E
330
5AE
102
}
330
51E
100
AcDbMLeaderStyle
170
     2
171
     1
172
     0
 90
        2
 40
0.0
 41
0.0
173
     1
 91
-1056964608
340
20
 92
       -2
290
     1
 42
0.09
291
     1
 43
0.36
  3
Standard
 44
0.18
300

342
1D
174
     1
178
     6
175
     1
176
     0
 93
-1056964608
 45
0.18
292
     0
297
     0
 46
0.18
 94
-1056964608
 47
1.0
 49
1.0
140
1.0
293
     1
141
0.0
294
     1
177
     0
142
1.0
295
     0
296
     0
143
0.125
1001
ACAD_MLEADERVER
1070
     2
  0
MLINESTYLE
  5
43
102
{ACAD_REACTORS
330
3B
102
}
330
3B
100
AcDbMlineStyle
  2
STANDARD
 70
     0
  3

 62
     0
 51
90.0
 52
90.0
 71
     2
 49
0.5
 62
   256
  6
BYLAYER
 49
-0.5
 62
   256
  6
BYLAYER
  0
ACDBPLACEHOLDER
  5
8
102
{ACAD_REACTORS
330
9
102
}
330
9
  0
SCALE
  5
47
102
{ACAD_REACTORS
330
40
102
}
330
40
100
AcDbScale
 70
     0
300
1:5_XREF
140
1.0
141
5.0
290
     0
  0
SCALE
  5
48
102
{ACAD_REACTORS
330
40
102
}
330
40
100
AcDbScale
 70
     0
300
1:5
140
1.0
141
5.0
290
     0
  0
SCALE
  5
49
102
{ACAD_REACTORS
330
40
102
}
330
40
100
AcDbScale
 70
     0
300
1:1
140
1.0
141
1.0
290
     1
  0
SCALE
  5
4A
102
{ACAD_REACTORS
330
40
102
}
330
40
100
AcDbScale
 70
     0
300
1:2
140
1.0
141
2.0
290
     0
  0
SCALE
  5
4B
102
{ACAD_REACTORS
330
40
102
}
330
40
100
AcDbScale
 70
     0
300
1:4
140
1.0
141
4.0
290
     0
  0
SCALE
  5
4C
102
{ACAD_REACTORS
330
40
102
}
330
40
100
AcDbScale
 70
     0
300
1:8
140
1.0
141
8.0
290
     0
  0
SCALE
  5
4D
102
{ACAD_REACTORS
330
40
102
}
330
40
100
AcDbScale
 70
     0
300
1:10
140
1.0
141
10.0
290
     0
  0
SCALE
  5
4E
102
{ACAD_REACTORS
330
40
102
}
330
40
100
AcDbScale
 70
     0
300
1:16
140
1.0
141
16.0
290
     0
  0
SCALE
  5
4F
102
{ACAD_REACTORS
330
40
102
}
330
40
100
AcDbScale
 70
     0
300
1:20
140
1.0
141
20.0
290
     0
  0
SCALE
  5
50
102
{ACAD_REACTORS
330
40
102
}
330
40
100
AcDbScale
 70
     0
300
1:30
140
1.0
141
30.0
290
     0
  0
SCALE
  5
51
102
{ACAD_REACTORS
330
40
102
}
330
40
100
AcDbScale
 70
     0
300
1:40
140
1.0
141
40.0
290
     0
  0
SCALE
  5
52
102
{ACAD_REACTORS
330
40
102
}
330
40
100
AcDbScale
 70
     0
300
1:50
140
1.0
141
50.0
290
     0
  0
SCALE
  5
53
102
{ACAD_REACTORS
330
40
102
}
330
40
100
AcDbScale
 70
     0
300
1:100
140
1.0
141
100.0
290
     0
  0
SCALE
  5
54
102
{ACAD_REACTORS
330
40
102
}
330
40
100
AcDbScale
 70
     0
300
2:1
140
2.0
141
1.0
290
     0
  0
SCALE
  5
55
102
{ACAD_REACTORS
330
40
102
}
330
40
100
AcDbScale
 70
     0
300
4:1
140
4.0
141
1.0
290
     0
  0
SCALE
  5
56
102
{ACAD_REACTORS
330
40
102
}
330
40
100
AcDbScale
 70
     0
300
8:1
140
8.0
141
1.0
290
     0
  0
SCALE
  5
57
102
{ACAD_REACTORS
330
40
102
}
330
40
100
AcDbScale
 70
     0
300
10:1
140
10.0
141
1.0
290
     0
  0
SCALE
  5
58
102
{ACAD_REACTORS
330
40
102
}
330
40
100
AcDbScale
 70
     0
300
100:1
140
100.0
141
1.0
290
     0
  0
SCALE
  5
59
102
{ACAD_REACTORS
330
40
102
}
330
40
100
AcDbScale
 70
     0
300
1/128" = 1'-0"
140
0.0078125
141
12.0
290
     0
  0
SCALE
  5
5A
102
{ACAD_REACTORS
330
40
102
}
330
40
100
AcDbScale
 70
     0
300
1/64" = 1'-0"
140
0.015625
141
12.0
290
     0
  0
SCALE
  5
5B
102
{ACAD_REACTORS
330
40
102
}
330
40
100
AcDbScale
 70
     0
300
1/32" = 1'-0"
140
0.03125
141
12.0
290
     0
  0
SCALE
  5
5C
102
{ACAD_REACTORS
330
40
102
}
330
40
100
AcDbScale
 70
     0
300
1/16" = 1'-0"
140
0.0625
141
12.0
290
     0
  0
SCALE
  5
5D
102
{ACAD_REACTORS
330
40
102
}
330
40
100
AcDbScale
 70
     0
300
3/32" = 1'-0"
140
0.09375
141
12.0
290
     0
  0
SCALE
  5
5E
102
{ACAD_REACTORS
330
40
102
}
330
40
100
AcDbScale
 70
     0
300
1/8" = 1'-0"
140
0.125
141
12.0
290
     0
  0
SCALE
  5
5F
102
{ACAD_REACTORS
330
40
102
}
330
40
100
AcDbScale
 70
     0
300
3/16" = 1'-0"
140
0.1875
141
12.0
290
     0
  0
SCALE
  5
60
102
{ACAD_REACTORS
330
40
102
}
330
40
100
AcDbScale
 70
     0
300
1/4" = 1'-0"
140
0.25
141
12.0
290
     0
  0
SCALE
  5
61
102
{ACAD_REACTORS
330
40
102
}
330
40
100
AcDbScale
 70
     0
300
3/8" = 1'-0"
140
0.375
141
12.0
290
     0
  0
SCALE
  5
62
102
{ACAD_REACTORS
330
40
102
}
330
40
100
AcDbScale
 70
     0
300
1/2" = 1'-0"
140
0.5
141
12.0
290
     0
  0
SCALE
  5
63
102
{ACAD_REACTORS
330
40
102
}
330
40
100
AcDbScale
 70
     0
300
3/4" = 1'-0"
140
0.75
141
12.0
290
     0
  0
SCALE
  5
64
102
{ACAD_REACTORS
330
40
102
}
330
40
100
AcDbScale
 70
     0
300
1" = 1'-0"
140
1.0
141
12.0
290
     0
  0
SCALE
  5
65
102
{ACAD_REACTORS
330
40
102
}
330
40
100
AcDbScale
 70
     0
300
1-1/2" = 1'-0"
140
1.5
141
12.0
290
     0
  0
SCALE
  5
66
102
{ACAD_REACTORS
330
40
102
}
330
40
100
AcDbScale
 70
     0
300
3" = 1'-0"
140
3.0
141
12.0
290
     0
  0
SCALE
  5
67
102
{ACAD_REACTORS
330
40
102
}
330
40
100
AcDbScale
 70
     0
300
6" = 1'-0"
140
6.0
141
12.0
290
     0
  0
SCALE
  5
68
102
{ACAD_REACTORS
330
40
102
}
330
40
100
AcDbScale
 70
     0
300
1'-0" = 1'-0"
140
12.0
141
12.0
290
     0
  0
TABLESTYLE
  5
44
102
{ACAD_XDICTIONARY
360
45
102
}
102
{ACAD_REACTORS
330
41
102
}
330
41
100
AcDbTableStyle
  3
Standard
 70
     0
 71
     0
 40
0.06
 41
0.06
280
     0
281
     0
  7
STANDARD
140
0.18
170
     2
 62
     0
 63
     7
283
     0
274
    -2
284
     1
 64
     0
275
    -2
285
     1
 65
     0
276
    -2
286
     1
 66
     0
277
    -2
287
     1
 67
     0
278
    -2
288
     1
 68
     0
279
    -2
289
     1
 69
     0
  7
STANDARD
140
0.25
170
     5
 62
     0
 63
     7
283
     0
274
    -2
284
     1
 64
     0
275
    -2
285
     1
 65
     0
276
    -2
286
     1
 66
     0
277
    -2
287
     1
 67
     0
278
    -2
288
     1
 68
     0
279
    -2
289
     1
 69
     0
  7
STANDARD
140
0.18
170
     5
 62
     0
 63
     7
283
     0
274
    -2
284
     1
 64
     0
275
    -2
285
     1
 65
     0
276
    -2
286
     1
 66
     0
277
    -2
287
     1
 67
     0
278
    -2
288
     1
 68
     0
279
    -2
289
     1
 69
     0
  0
VISUALSTYLE
  5
515
102
{ACAD_REACTORS
330
27
102
}
330
27
100
AcDbVisualStyle
  2
2dWireframe
 70
     4
 71
     0
 72
     2
 73
     0
 90
        0
 40
-0.6
 41
-30.0
 62
     5
 63
     7
 74
     1
 91
        4
 64
     7
 65
   257
 75
     1
175
     1
 42
1.0
 92
        0
 66
   257
 43
1.0
 76
     1
 77
     6
 78
     2
 67
     7
 79
     5
170
     0
171
     0
290
     0
174
     0
 93
        1
 44
0.0
173
     0
291
     0
 45
0.0
1001
ACAD
1000
AcDbSavedByObjectVersion
1070
     0
1000
AcDbSavedByObjectVersion
1070
     0
1000
AcDbSavedByObjectVersion
1070
     0
1000
AcDbSavedByObjectVersion
1070
     0
  0
VISUALSTYLE
  5
516
102
{ACAD_REACTORS
330
27
102
}
330
27
100
AcDbVisualStyle
  2
3D Hidden
 70
     6
 71
     1
 72
     2
 73
     2
 90
        0
 40
-0.6
 41
-30.0
 62
     5
 63
     7
 74
     2
 91
        2
 64
     7
 65
   257
 75
     2
175
     1
 42
40.0
 92
        0
 66
   257
 43
1.0
 76
     1
 77
     6
 78
     2
 67
     7
 79
     3
170
     0
171
     0
290
     0
174
     0
 93
        1
 44
0.0
173
     0
291
     0
 45
0.0
1001
ACAD
1000
AcDbSavedByObjectVersion
1070
     0
1000
AcDbSavedByObjectVersion
1070
     0
1000
AcDbSavedByObjectVersion
1070
     0
1000
AcDbSavedByObjectVersion
1070
     0
  0
VISUALSTYLE
  5
46
102
{ACAD_REACTORS
330
27
102
}
330
27
100
AcDbVisualStyle
  2
3dWireframe
 70
     5
 71
     0
 72
     2
 73
     0
 90
        0
 40
-0.6
 41
-30.0
 62
     5
 63
     7
 74
     1
 91
        4
 64
     7
 65
   257
 75
     1
175
     1
 42
1.0
 92
        0
 66
   257
 43
1.0
 76
     1
 77
     6
 78
     2
 67
     7
 79
     5
170
     0
171
     0
290
     0
174
     0
 93
        1
 44
0.0
173
     0
291
     0
 45
0.0
1001
ACAD
1000
AcDbSavedByObjectVersion
1070
     0
1000
AcDbSavedByObjectVersion
1070
     0
1000
AcDbSavedByObjectVersion
1070
     0
1000
AcDbSavedByObjectVersion
1070
     0
  0
VISUALSTYLE
  5
514
102
{ACAD_REACTORS
330
27
102
}
330
27
100
AcDbVisualStyle
  2
Basic
 70
     7
 71
     1
 72
     0
 73
     1
 90
        0
 40
-0.6
 41
-30.0
 62
     5
 63
     7
 74
     0
 91
        4
 64
     7
 65
   257
 75
     1
175
     1
 42
1.0
 92
        8
 66
     7
 43
1.0
 76
     1
 77
     6
 78
     2
 67
     7
 79
     5
170
     0
171
     0
290
     0
174
     0
 93
        1
 44
0.0
173
     0
291
     1
 45
0.0
1001
ACAD
1000
AcDbSavedByObjectVersion
1070
     0
1000
AcDbSavedByObjectVersion
1070
     0
1000
AcDbSavedByObjectVersion
1070
     0
1000
AcDbSavedByObjectVersion
1070
     0
  0
VISUALSTYLE
  5
519
102
{ACAD_REACTORS
330
27
102
}
330
27
100
AcDbVisualStyle
  2
Brighten
 70
    12
 71
     2
 72
     2
 73
     0
 90
        0
 40
-0.6
 41
-30.0
 62
     5
 63
     7
 74
     1
 91
        4
 64
     7
 65
   257
 75
     1
175
     1
 42
1.0
 92
        8
 66
     7
 43
1.0
 76
     1
 77
     6
 78
     2
 67
     7
 79
     5
170
     0
171
     0
290
     0
174
     0
 93
        1
 44
50.0
173
     0
291
     1
 45
0.0
1001
ACAD
1000
AcDbSavedByObjectVersion
1070
     0
1000
AcDbSavedByObjectVersion
1070
     0
1000
AcDbSavedByObjectVersion
1070
     0
1000
AcDbSavedByObjectVersion
1070
     0
  0
VISUALSTYLE
  5
51D
102
{ACAD_REACTORS
330
27
102
}
330
27
100
AcDbVisualStyle
  2
ColorChange
 70
    16
 71
     2
 72
     2
 73
     3
 90
        0
 40
-0.6
 41
-30.0
 62
     5
 63
     8
 74
     1
 91
        4
 64
     7
 65
   257
 75
     1
175
     1
 42
1.0
 92
        8
 66
     8
 43
1.0
 76
     1
 77
     6
 78
     2
 67
     7
 79
     5
170
     0
171
     0
290
     0
174
     0
 93
        1
 44
0.0
173
     0
291
     1
 45
0.0
1001
ACAD
1000
AcDbSavedByObjectVersion
1070
     0
1000
AcDbSavedByObjectVersion
1070
     0
1000
AcDbSavedByObjectVersion
1070
     0
1000
AcDbSavedByObjectVersion
1070
     0
  0
VISUALSTYLE
  5
517
102
{ACAD_REACTORS
330
27
102
}
330
27
100
AcDbVisualStyle
  2
Conceptual
 70
     9
 71
     3
 72
     2
 73
     0
 90
        0
 40
-0.6
 41
-30.0
 62
     5
 63
     7
 74
     2
 91
        2
 64
     7
 65
   257
 75
     1
175
     1
 42
40.0
 92
        8
 66
     7
 43
1.0
 76
     1
 77
     6
 78
     2
 67
     7
 79
     3
170
     0
171
     0
290
     0
174
     0
 93
        1
 44
0.0
173
     0
291
     0
 45
0.0
1001
ACAD
1000
AcDbSavedByObjectVersion
1070
     0
1000
AcDbSavedByObjectVersion
1070
     0
1000
AcDbSavedByObjectVersion
1070
     0
1000
AcDbSavedByObjectVersion
1070
     0
  0
VISUALSTYLE
  5
518
102
{ACAD_REACTORS
330
27
102
}
330
27
100
AcDbVisualStyle
  2
Dim
 70
    11
 71
     2
 72
     2
 73
     0
 90
        0
 40
-0.6
 41
-30.0
 62
     5
 63
     7
 74
     1
 91
        4
 64
     7
 65
   257
 75
     1
175
     1
 42
1.0
 92
        8
 66
     7
 43
1.0
 76
     1
 77
     6
 78
     2
 67
     7
 79
     5
170
     0
171
     0
290
     0
174
     0
 93
        1
 44
-50.0
173
     0
291
     1
 45
0.0
1001
ACAD
1000
AcDbSavedByObjectVersion
1070
     0
1000
AcDbSavedByObjectVersion
1070
     0
1000
AcDbSavedByObjectVersion
1070
     0
1000
AcDbSavedByObjectVersion
1070
     0
  0
VISUALSTYLE
  5
51C
102
{ACAD_REACTORS
330
27
102
}
330
27
100
AcDbVisualStyle
  2
Facepattern
 70
    15
 71
     2
 72
     2
 73
     0
 90
        0
 40
-0.6
 41
-30.0
 62
     5
 63
     7
 74
     1
 91
        4
 64
     7
 65
   257
 75
     1
175
     1
 42
1.0
 92
        8
 66
     7
 43
1.0
 76
     1
 77
     6
 78
     2
 67
     7
 79
     5
170
     0
171
     0
290
     0
174
     0
 93
        1
 44
0.0
173
     0
291
     1
 45
0.0
1001
ACAD
1000
AcDbSavedByObjectVersion
1070
     0
1000
AcDbSavedByObjectVersion
1070
     0
1000
AcDbSavedByObjectVersion
1070
     0
1000
AcDbSavedByObjectVersion
1070
     0
  0
VISUALSTYLE
  5
510
102
{ACAD_REACTORS
330
27
102
}
330
27
100
AcDbVisualStyle
  2
Flat
 70
     0
 71
     2
 72
     1
 73
     1
 90
        2
 40
-0.6
 41
30.0
 62
     5
 63
     7
 74
     0
 91
        4
 64
     7
 65
   257
 75
     1
175
     1
 42
1.0
 92
        8
 66
     7
 43
1.0
 76
     1
 77
     6
 78
     2
 67
     7
 79
     5
170
     0
171
     0
290
     0
174
     0
 93
       13
 44
0.0
173
     0
291
     1
 45
0.0
1001
ACAD
1000
AcDbSavedByObjectVersion
1070
     0
1000
AcDbSavedByObjectVersion
1070
     0
1000
AcDbSavedByObjectVersion
1070
     0
1000
AcDbSavedByObjectVersion
1070
     0
  0
VISUALSTYLE
  5
511
102
{ACAD_REACTORS
330
27
102
}
330
27
100
AcDbVisualStyle
  2
FlatWithEdges
 70
     1
 71
     2
 72
     1
 73
     1
 90
        2
 40
-0.6
 41
30.0
 62
     5
 63
     7
 74
     1
 91
        4
 64
     7
 65
   257
 75
     1
175
     1
 42
1.0
 92
        0
 66
   257
 43
1.0
 76
     1
 77
     6
 78
     2
 67
     7
 79
     5
170
     0
171
     0
290
     0
174
     0
 93
       13
 44
0.0
173
     0
291
     1
 45
0.0
1001
ACAD
1000
AcDbSavedByObjectVersion
1070
     0
1000
AcDbSavedByObjectVersion
1070
     0
1000
AcDbSavedByObjectVersion
1070
     0
1000
AcDbSavedByObjectVersion
1070
     0
  0
VISUALSTYLE
  5
512
102
{ACAD_REACTORS
330
27
102
}
330
27
100
AcDbVisualStyle
  2
Gouraud
 70
     2
 71
     2
 72
     2
 73
     1
 90
        2
 40
-0.6
 41
30.0
 62
     5
 63
     7
 74
     0
 91
        4
 64
     7
 65
   257
 75
     1
175
     1
 42
1.0
 92
        0
 66
     7
 43
1.0
 76
     1
 77
     6
 78
     2
 67
     7
 79
     5
170
     0
171
     0
290
     0
174
     0
 93
       13
 44
0.0
173
     0
291
     1
 45
0.0
1001
ACAD
1000
AcDbSavedByObjectVersion
1070
     0
1000
AcDbSavedByObjectVersion
1070
     0
1000
AcDbSavedByObjectVersion
1070
     0
1000
AcDbSavedByObjectVersion
1070
     0
  0
VISUALSTYLE
  5
513
102
{ACAD_REACTORS
330
27
102
}
330
27
100
AcDbVisualStyle
  2
GouraudWithEdges
 70
     3
 71
     2
 72
     2
 73
     1
 90
        2
 40
-0.6
 41
30.0
 62
     5
 63
     7
 74
     1
 91
        4
 64
     7
 65
   257
 75
     1
175
     1
 42
1.0
 92
        0
 66
   257
 43
1.0
 76
     1
 77
     6
 78
     2
 67
     7
 79
     5
170
     0
171
     0
290
     0
174
     0
 93
       13
 44
0.0
173
     0
291
     1
 45
0.0
1001
ACAD
1000
AcDbSavedByObjectVersion
1070
     0
1000
AcDbSavedByObjectVersion
1070
     0
1000
AcDbSavedByObjectVersion
1070
     0
1000
AcDbSavedByObjectVersion
1070
     0
  0
VISUALSTYLE
  5
51B
102
{ACAD_REACTORS
330
27
102
}
330
27
100
AcDbVisualStyle
  2
Linepattern
 70
    14
 71
     2
 72
     2
 73
     0
 90
        0
 40
-0.6
 41
-30.0
 62
     5
 63
     7
 74
     1
 91
        4
 64
     7
 65
   257
 75
     7
175
     7
 42
1.0
 92
        8
 66
     7
 43
1.0
 76
     1
 77
     6
 78
     2
 67
     7
 79
     5
170
     0
171
     0
290
     0
174
     0
 93
        1
 44
0.0
173
     0
291
     1
 45
0.0
1001
ACAD
1000
AcDbSavedByObjectVersion
1070
     0
1000
AcDbSavedByObjectVersion
1070
     0
1000
AcDbSavedByObjectVersion
1070
     0
1000
AcDbSavedByObjectVersion
1070
     0
  0
VISUALSTYLE
  5
26
102
{ACAD_REACTORS
330
27
102
}
330
27
100
AcDbVisualStyle
  2
Realistic
 70
     8
 71
     2
 72
     2
 73
     0
 90
        0
 40
-0.6
 41
-30.0
 62
     5
 63
     7
 74
     1
 91
        0
 64
     7
 65
   257
 75
     1
175
     1
 42
1.0
 92
        8
 66
     8
 43
1.0
 76
     1
 77
     6
 78
     2
 67
     7
 79
     5
170
     0
171
     0
290
     0
174
     0
 93
       13
 44
0.0
173
     0
291
     0
 45
0.0
1001
ACAD
1000
AcDbSavedByObjectVersion
1070
     0
1000
AcDbSavedByObjectVersion
1070
     0
1000
AcDbSavedByObjectVersion
1070
     0
1000
AcDbSavedByObjectVersion
1070
     0
  0
VISUALSTYLE
  5
51A
102
{ACAD_REACTORS
330
27
102
}
330
27
100
AcDbVisualStyle
  2
Thicken
 70
    13
 71
     2
 72
     2
 73
     0
 90
        0
 40
-0.6
 41
-30.0
 62
     5
 63
     7
 74
     1
 91
        4
 64
     7
 65
   257
 75
     1
175
     1
 42
1.0
 92
       12
 66
     7
 43
1.0
 76
     1
 77
     6
 78
     2
 67
     7
 79
     5
170
     0
171
     0
290
     0
174
     0
 93
        1
 44
0.0
173
     0
291
     1
 45
0.0
1001
ACAD
1000
AcDbSavedByObjectVersion
1070
     0
1000
AcDbSavedByObjectVersion
1070
     0
1000
AcDbSavedByObjectVersion
1070
     0
1000
AcDbSavedByObjectVersion
1070
     0
  0
DICTIONARYVAR
  5
50D
102
{ACAD_REACTORS
330
50A
102
}
330
50A
100
DictionaryVariables
280
     0
  1
1:1
  0
DICTIONARYVAR
  5
50C
102
{ACAD_REACTORS
330
50A
102
}
330
50A
100
DictionaryVariables
280
     0
  1
STANDARD
  0
DICTIONARYVAR
  5
50B
102
{ACAD_REACTORS
330
50A
102
}
330
50A
100
DictionaryVariables
280
     0
  1
STANDARD
  0
DICTIONARYVAR
  5
546
102
{ACAD_REACTORS
330
50A
102
}
330
50A
100
DictionaryVariables
280
     0
  1
1
  0
DICTIONARYVAR
  5
545
102
{ACAD_REACTORS
330
50A
102
}
330
50A
100
DictionaryVariables
280
     0
  1
1
  0
DICTIONARYVAR
  5
544
102
{ACAD_REACTORS
330
50A
102
}
330
50A
100
DictionaryVariables
280
     0
  1
0
  0
DICTIONARYVAR
  5
50E
102
{ACAD_REACTORS
330
50A
102
}
330
50A
100
DictionaryVariables
280
     0
  1
0
  0
DICTIONARYVAR
  5
542
102
{ACAD_REACTORS
330
50A
102
}
330
50A
100
DictionaryVariables
280
     0
  1
1
  0
DICTIONARYVAR
  5
543
102
{ACAD_REACTORS
330
50A
102
}
330
50A
100
DictionaryVariables
280
     0
  1
127
  0
ACAD_PROXY_OBJECT
  5
505
102
{ACAD_REACTORS
330
504
102
}
330
504
100
AcDbProxyObject
 90
      499
 91
      574
 95
  1638427
 70
     0
 93
      175
310
4050100057356C1D9F48507AA40CA8010400C400E802
350
506
 94
        0
1001
ACAD
1000
AcRTDxfName
1000
ACMDATADICTIONARY
1000
AcRTDxfName
1000
ACMDATADICTIONARY
1000
AcRTDxfName
1000
ACMDATADICTIONARY
1000
AcRTDxfName
1000
ACMDATADICTIONARY
1000
AcRTDxfName
1000
ACMDATADICTIONARY
1000
AcRTDxfName
1000
ACMDATADICTIONARY
1000
AcRTDxfName
1000
ACMDATADICTIONARY
  0
DICTIONARY
  5
EFD
330
F
100
AcDbDictionary
280
     1
281
     1
  3
ACAD_XREC_ROUNDTRIP
360
EFE
  0
DICTIONARY
  5
15
330
14
100
AcDbDictionary
280
     1
281
     1
  3
ACAD_XREC_ROUNDTRIP
360
EFF
  3
ADSK_XREC_LAYOUTTHUMBNAIL
360
16
  0
DICTIONARY
  5
5D9
330
3E
100
AcDbDictionary
280
     1
281
     1
  3
ACAD_XREC_ROUNDTRIP
360
5DA
  0
DICTIONARY
  5
5D7
330
3D
100
AcDbDictionary
280
     1
281
     1
  3
ACAD_XREC_ROUNDTRIP
360
5D8
  0
DICTIONARY
  5
5D2
330
B
100
AcDbDictionary
280
     1
281
     1
  3
ACAD_XREC_ROUNDTRIP
360
5D3
  0
DICTIONARY
  5
45
330
44
100
AcDbDictionary
280
     1
281
     1
  3
ACAD_ROUNDTRIP_2008_TABLESTYLE_CELLSTYLEMAP
360
EF9
  3
ACAD_XREC_ROUNDTRIP
360
F00
  0
ACAD_PROXY_OBJECT
  5
506
102
{ACAD_REACTORS
330
505
102
}
330
505
100
AcDbProxyObject
 90
      499
 91
      575
 95
  1638427
 70
     0
 93
      310
310
057356C1D9F406406AA8FFFFFFFF067D0100404842080238025002980168019001C00230045004
330
2
330
0
330
0
 94
        0
1001
ACAD
1000
AcRTDxfName
1000
ACMDATAENTRYBLOCK
1000
AcRTDxfName
1000
ACMDATAENTRYBLOCK
1000
AcRTDxfName
1000
ACMDATAENTRYBLOCK
1000
AcRTDxfName
1000
ACMDATAENTRYBLOCK
1000
AcRTDxfName
1000
ACMDATAENTRYBLOCK
1000
AcRTDxfName
1000
ACMDATAENTRYBLOCK
1000
AcRTDxfName
1000
ACMDATAENTRYBLOCK
  0
XRECORD
  5
EFE
102
{ACAD_REACTORS
330
EFD
102
}
330
EFD
100
AcDbXrecord
280
     1
102
SHADEPLOT
 70
     0
102
SHADEPLOTRESLEVEL
 70
     2
102
SHADEPLOTCUSTOMDPI
 70
   300
  0
XRECORD
  5
EFF
102
{ACAD_REACTORS
330
15
102
}
330
15
100
AcDbXrecord
280
     1
102
SHADEPLOT
 70
     0
102
SHADEPLOTRESLEVEL
 70
     2
102
SHADEPLOTCUSTOMDPI
 70
   300
  0
XRECORD
  5
16
102
{ACAD_REACTORS
330
15
102
}
330
15
100
AcDbXrecord
280
     1
310
28000000B4000000860000000100080000000000385E0000000000000000000000010000000000000000000000000000FFFFFF000000000000000000000000000000000000000000000000000000000000000000330000006600000099000000CC000000FF00000000330000333300006633000099330000CC330000FF3300
310
0000660000336600006666000099660000CC660000FF66000000990000339900006699000099990000CC990000FF99000000CC000033CC000066CC000099CC0000CCCC0000FFCC000000FF000033FF000066FF000099FF0000CCFF0000FFFF000000003300330033006600330099003300CC003300FF003300003333003333
310
33006633330099333300CC333300FF33330000663300336633006666330099663300CC663300FF66330000993300339933006699330099993300CC993300FF99330000CC330033CC330066CC330099CC3300CCCC3300FFCC330000FF330033FF330066FF330099FF3300CCFF3300FFFF330000006600330066006600660099
310
006600CC006600FF00660000336600333366006633660099336600CC336600FF33660000666600336666006666660099666600CC666600FF66660000996600339966006699660099996600CC996600FF99660000CC660033CC660066CC660099CC6600CCCC6600FFCC660000FF660033FF660066FF660099FF6600CCFF6600
310
FFFF660000009900330099006600990099009900CC009900FF00990000339900333399006633990099339900CC339900FF33990000669900336699006666990099669900CC669900FF66990000999900339999006699990099999900CC999900FF99990000CC990033CC990066CC990099CC9900CCCC9900FFCC990000FF99
310
0033FF990066FF990099FF9900CCFF9900FFFF99000000CC003300CC006600CC009900CC00CC00CC00FF00CC000033CC003333CC006633CC009933CC00CC33CC00FF33CC000066CC003366CC006666CC009966CC00CC66CC00FF66CC000099CC003399CC006699CC009999CC00CC99CC00FF99CC0000CCCC0033CCCC0066CC
310
CC0099CCCC00CCCCCC00FFCCCC0000FFCC0033FFCC0066FFCC0099FFCC00CCFFCC00FFFFCC000000FF003300FF006600FF009900FF00CC00FF00FF00FF000033FF003333FF006633FF009933FF00CC33FF00FF33FF000066FF003366FF006666FF009966FF00CC66FF00FF66FF000099FF003399FF006699FF009999FF00CC
310
99FF00FF99FF0000CCFF0033CCFF0066CCFF0099CCFF00CCCCFF00FFCCFF0000FFFF0033FFFF0066FFFF0099FFFF00CCFFFF00FFFFFF00000000000D0D0D001A1A1A00282828003535350043434300505050005D5D5D006B6B6B00787878008686860093939300A1A1A100AEAEAE00BBBBBB00C9C9C900D6D6D600E4E4E400
310
F1F1F100FFFFFF0000000000000000000000000000000000000000000000000000000000000000000000000000000000E2E2E2E2E2E2E2E2E2E2E2E2E2E2E2E2E2E2E2E2E2E2E2E2E2E2E2E2E2E2E2E2E2E2E2E2E2E2E2E2E2E2E2E2E2E2E2E2E2E2E2E2E2E2E2E2E2E2E2E2E2E2E2E2E2E2E2E2E2E2E2E2E2E2E2E2E2E2E2
310
E2E2E2E2E2E2E2E2E2E2E2E2E2E2E2E2E2E2E2E2E2E2E2E2E2E2E2E2E2E2E2E2E2E2E2E2E2E2E2E2E2E2E2E2E2E2E2E2E2E2E2E2E2E2E2E2E2E2E2E2E2E2E2E2E2E2E2E2E2E2E2E2E2E2E2E2E2E2E2E2E2E2E2E2E2E2E2E2E2E2E2E2E2E2E2E2E2E2E2E2E2E2E2E2E2E2E2E2E2E2E2E2E2E2E2E2E2E2E2E2E2E2E2E2E2E2E2
310
E2E2E2E2E2E2E2E2E2E2E2E2E2E2E2E2E2E2E2E2E2E2E2E2E2E2E2E2E2E2E2E2E2E2E2E2E2E2E2E2E2E2E2E2E2E2E2E2E2E2E2E2E2E2E2E2E2E2E2E2E2E2E2E2E2E2E2E2E2E2E2E2E2E2E2E2E2E2E2E2E2E2E2E2E2E2E2E2E2E2E2E2E2E2E2E2E2E2E2E2E2E2E2E2E2E2E2E2E2E2E2E2E2E2E2E2E2E2E2E2E2E2E2E2E2E2E2
310
E2E2E2E2E2E2E2E2E2E2E2E2E2E2E2E2E2E2E2E2E2E2E2E2E2E2E2E2E2E2E2E2E2E2E2E2E2E2E2E2E2E2E2E2E2E2E2E2E2E2E2E2E2E2E2E2E2E2E2E2E2E2E2E2E2E2E2E2E2E2E2E2E2E2E2E2E2E2E2E2E2E2E2E2E2E2E2E2E2E2E2E2E2E2E2E2E2E2E2E2E2E2E2E2E2E2E2E2E2E2E2E2E2E2E2E2E2E2E2E2E2E2E2E2E2E2E2
310
E2E2E2E2E2E2E2E2E2E2E2E2E2E2E2E2E2E2E2E2E2E2E2E2E2E2E2E2E2E2E2E2E2E2E2E2E2E2E2E2E2E2E2E2E2E2E2E2E2E2E2E2E2E2E2E2E2E2E2E2E2E2E2E2E2E2E2E2E2E2E2E2E2E2E2E2E2E2E2E2E2E2E2E2E2E2E2E2E2E2E2E2E2E2E2E2E2E2E2E2E2E2E2E2E2E2E2E2E2E2E2E2E2E2E2E2E2E2E2E2E2E2E2E2E2E2E2
310
E2E2E2E2E2E2E2E2E2E2E2E2E2E2E2E2E2E2E2E2E2E2E2E2E2E2E2E2E2E2E2E2E2E2E2E2E2E2E2E2E2E2E2E2E2E2E2E2E2E2E2E2E2E2E2E2E2E2E2E2E2E2E2E2E2E2E2E2E2E2E2E2E2E2E2E2E2E2E2E2E2E2E2E2E2E2E2E2E2E2E2E2E2E2E2E2E2E2E2E2E2E2E2E2E2E2E2E2E2E2E2E2E2E2E2E2E2E2E2E2E2E2E2E2E2E2E2
310
E2E2E2E2E2E2E2E2E2E2E2E2E2E2E2E2E2E2E2E2E2E2E2E2E2E2E2E2E2E2E2E2E2E2E2E2E2E2E2E2E2E2E2E2E2E2E2E2E2E2E2E2E2E2E2E2E2E2E2E2E2E2E2E2E2E2E2E2E2E2E2E2E2E2E2E2E2E2E2E2E2E2E2E2E2E2E2E2E2E2E2E2E2E2E2E2E2E2E2E2E2E2E2E2E2E2E2E2E2E2E2E2E2E2E2E2E2E2E2E2E2E2E2E2E2E2E2
310
E2E2E2E2E2E2E2E2E2E2E2E2E2E2E2E2E2E2E2E2E2E2E2E2E2E2E2E2E2E2E2E2E2E2E2E2E2E2E2E2E2E2E2E2E2E2E2E2E2E2E2E2E2E2E2E2E2E2E2E2E2E2E2E2E2E2E2E2E2E2E2E2E2E2E2E2E2E2E2E2E2E2E2E2E2E2E2E2E2E2E2E2E2E2E2E2E2E2E2E2E2E2E2E2E2E2E2E2E2E2E2E2E2E2E2E2E2E2E2E2E2E2E2E2E2E2E2
310
E2E2E2E2E2E2E2E2E2E2E2E2E2E2E2E2E2E2E2E2E2E2E2E2E2E2E2E2E2E2E2E2E2E2E2E2E2E2E2E2E2E2E2E2E2E2E2E2E2E2E2E2E2E2E2E2E2E2E2E2E2E2E2E2E2E2E2E2E2E2E2E2E2E2E2E2E2E2E2E2E2E2E2E2E2E2E2E2E2E2E2E2E2E2E2E2E2E2E2E2E2E2E2E2E2E2E2E2E2E2E2E2E2E2E2E2E2E2E2E2E2E2E2E2E2E2E2
310
E2E2E2E2E2E2E2E2E2E2E2E2E2E2E2E2E2E2E2E2E2E2E2E2E2E2E2E2E2E2E2E2E2E2E2E2E2E2E2E2E2E2E2E2E2E2E2E2E2E2E2E2E2E2E2E2E2E2E2E2E2E2E2E2E2E2E2E2E2E2E2E2E2E2E2E2E2E2E2E2E2E2E2E2E2E2E2E2E2E2E2E2E2E2E2E2E2E2E2E2E2E2E2E2E2E2E2E2E2E2E2E2E2E2E2E2E2E2E2E2E2E2E2E2E2E2E2
310
E2E2E2E2E2E2E2E2E2E2E2E2E2E2E2E2E2E2E2E2E2E2E2E2E2E2E2E2E2E2E2E2E2E2E2E2E2E2E2E2E2E2E2E2E2E2E2E2E2E2E2E2E2E2E2E2E2E2E2E2E2E2E2E2E2E2E2E2E2E2E2E2E2E2E2E2E2E2E2E2E2E2E2E2E2E2E2E2E2E2E2E2E2E2E2E2E2E2E2E2E2E2E2E2E2E2E2E2E2E2E2E2E2E2E2E2E2E2E2E2E2E2E2E2E2E2E2
310
E2E2E2E2E2E2E2E2E2E2E2E2E2E2E2E2E2E2E2E2E2E2E2E2E2E2E2E2E2E2E2E2E2E2E2E2E2E2E2E2E2E2E2E2E2E2E2E2E2E2E2E2E2E2E2E2E2E2E2E2E2E2E2E2E2E2E2E2E2E2E2E2E2E2E2E2E2E2E2E2E2E2E2E2E2E2E2E2E2E2E2E2E2E2E2E2E2E2E2E2E2E2E2E2E2E2E2E2E2E2E2E2E2E2E2E2E2E2E2E2E2E2E2E2E2E2E2
310
E2E2E2E2E2E2E2E2E2E2E2E2E2E2E2E2E2E2E2E2E2E2E2E2E2E2E2E2E2E2E2E2E2E2E2E2E2E2E2E2E2E2E2E2E2E2E2E2E2E2E2E2E2E2E2E2E2E2E2E2E2E2E2E2E2E2E2E2E2E2E2E2E2E2E2E2E2E2E2E2E2E2E2E2E2E2E2E2E2E2E2E2E2E2E2E2E2E2E2E2E2E2E2E2E2E2E2E2E2E2E2E2E2E2E2E2E2E2E2E2E2E2E2E2E2E2E2
310
E2E2E2E2E2E2E2E2E2E2E2E2E2E2E2E2E2E2E2E2E2E2E2E2E2E2E2E2E2E2E2E2E2E2E2E2E2E2E2E2E2E2E2E2E2E2E2E2E2E2E2E2E2E2E2E2E2E2E2E2E2E2E2E2E2E2E2E2E2E2E2E2E2E2E2E2E2E2E2E2E2E2E2E2E2E2E2E2E2E2E2E2E2E2E2E2E2E2E2E2E2E2E2E2E2E2E2E2E2E2E2E2E2E2E2E2E2E2E2E2E2E2E2E2E2E2E2
310
E2E2E2E2E2E2E2E2E2E2E2E2E2E2E2E2E2E2E2E2E2E2E2E2E2E2E2E2E2E2E2E2E2E2E2E2E2E2E2E2E2E2E2E2E2E2E2E2E2E2E2E2E2E2E2E2E2E2E2E2E2E2E2E2E2E2E2E2E2E2E2E2E2E2E2E2E2E2E2E2E2E2E2E2E2E2E2E2E2E2E2E2E2E2E2E2E2E2E2E2E2E2E2E2E2E2E2E2E2E2E2E2E2E2E2E2E2E2E2E2E2E2E2E2E2E2E2
310
E2E2E2E2E2E2E2E2E2E2E2E2E2E2E2E2E2E2E2E2E2E2E2E2E2E2E2E2E2E2E2E2E2E2E2E2E2E2E2E2E2E2E2E2E2E2E2E2E2E2E2E2E2E2E2E2E2E2E2E2E2E2E2E2E2E2E2E2E2E2E2E2E2E2E2E2E2E2E2E2E2E2E2E2E2E2E2E2E2E2E2E2E2E2E2E2E2E2E2E2E2E2E2E2E2E2E2E2E2E2E2E2E2E2E2E2E2E2E2E2E2E2E2E2E2E2E2
310
E2E2E2E2E2E2E2E2E2E2E2E2E2E2E2E2E2E2E2E2E2E2E2E2E2E2E2E2E2E2E2E2E2E2E2E2E2E2E2E2E2E2E2E2E2E2E2E2E2E2E2E2E2E2E2E2E2E2E2E2E2E2E2E2E2E2E2E2E2E2E2E2E2E2E2E2E2E2E2E2E2E2E2E2E2E2E2E2E2E2E2E2E2E2E2E2E2E2E2E2E2E2E2E2E2E2E2E2E2E2E2E2E2E2E2E2E2E2E2E2E2E2E2E2E2E2E2
310
E2E2E2E2E2E2E2E2E2E2E2E2E2E2E2E2E2E2E2E2E2E2E2E2E2E2E2E2E2E2E2E2E2E2E2E2E2E2E2E2E2E2E2E2E2E2E2E2E2E2E2E2E2E2E2E2E2E2E2E2E2E2E2E2E2E2E2E2E2E2E2E2E2E2E2E2E2E2E2E2E2E2E2E2E2E2E2E2E2E2E2E2E2E2E2E2E2E2E2E2E2E2E2E2E2E2E2E2E2E2E2E2E2E2E2E2E2E2E2E2E2E2E2E2E2E2E2
310
E2E2E2E2E2E2E2E2E2E2E2E2E2E2E2E2E2E2E2E2E2E2E2E2E2E2E2E2E2E2E2E2E2E2E2E2E2E2E2E2E2E2E2E2E2E2E2E2E2E2E2E2E2E2E2E2E2E2E2E2E2E2E2E2E2E2E2E2E2E2E2E2E2E2E2E2E2E2E2E2E2E2E2E2E2E2E2E2E2E2E2E2E2E2E2E2E2E2E2E2E2E2E2E2E2E2E2E2E2E2E2E2E2E2E2E2E2E2E2E2E2E2E2E2E2E2E2
310
E2E2E2E2E2E2E2E2E2E2E2E2E2E2E2E2E2E2E2E2E2E2E2E2E2E2E2E2E2E2E2E2E2E2E2E2E2E2E2E2E2E2E2E2E2E2E2E2E2E2E2E2E2E2E2E2E2E2E2E2E2E2E2E2E2E2E2E2E2E2E2E2E2E2E2E2E2E2E2E2E2E2E2E2E2E2E2E2E2E2E2E2E2E2E2E2E2E2E2E2E2E2E2E2E2E2E2E2E2E2E2E2E2E2E2E2E2E2E2E2E2E2E2E2E2E2E2
310
E2E2E2E2E2E2E2E2E2E2E2E2E2E2E2E2E2E2E2E2E2E2E2E2E2E2E2E2E2E2E2E2E2E2E2E2E2E2E2E2E2E2E2E2E2E2E2E2E2E2E2E2E2E2E2E2E2E2E2E2E2E2E2E2E2E2E2E2E2E2E2E2E2E2E2E2E2E2E2E2E2E2E2E2E2E2E2E2E2E2E2E2E2E2E2E2E2E2E2E2E2E2E2E2E2E2E2E2E2E2E2E2E2E2E2E2E2E2E2E2E2E2E2E2E2E2E2
310
E2E2E2E2E2E2E2E2E2E2E2E2E2E2E2E2E2E2E2E2E2E2E2E2E2E2E2E2E2E2E2E2E2E2E2E2E2E2E2E2E2E2E2E2E2E2E2E2E2E2E2E2E2E2E2E2E2E2E2E2E2E2E2E2E2E2E2E2E2E2E2E2E2E2E2E2E2E2E2E2E2E2E2E2E2E2E2E2E2E2E2E2E2E2E2E2E2E2E2E2E2E2E2E2E2E2E2E2E2E2E2E2E2E2E2E2E2E2E2E2E2E2E2E2E2E2E2
310
E2E2E2E2E2E2E2E2E2E2E2E2E2E2E2E2E2E2E2E2E2E2E2E2E2E2E2E2E2E2E2E2E2E2E2E2E2E2E2E2E2E2E2E2E2E2E2E2E2E2E2E2E2E2E2E2E2E2E2E2E2E2E2E2E2E2E2E2E2E2E2E2E2E2E2E2E2E2E2E2E2E2E2E2E2E2E2E2E2E2E2E2E2E2E2E2E2E2E2E2E2E2E2E2E2E2E2E2E2E2E2E2E2E2E2E2E2E2E2E2E2E2E2E2E2E2E2
310
E2E2E2E2E2E2E2E2E2E2E2E2E2E2E2E2E2E2E2E2E2E2E2E2E2E2E2E2E2E2E2E2E2E2E2E2E2E2E2E2E2E2E2E2E2E2E2E2E2E2E2E2E2E2E2E2E2E2E2E2E2E2E2E2E2E2E2E2E2E2E2E2E2E2E2E2E2E2E2E2E2E2E2E2E2E2E2E2E2E2E2E2E2E2E2E2E2E2E2E2E2E2E2E2E2E2E2E2E2E2E2E2E2E2E2E2E2E2E2E2E2E2E2E2E2E2E2
310
E2E2E2E2E2E2E2E2E2E2E2E2E2E2E2E2E2E2E2E2E2E2E2E2E2E2E2E2E2E2E2E2E2E2E2E2E2E2E2E2E2E2E2E2E2E2E2E2E2E2E2E2E2E2E2E2E2E2E2E2E2E2E2E2E2E2E2E2E2E2E2E2E2E2E2E2E2E2E2E2E2E2E2E2E2E2E2E2E2E2E2E2E2E2E2E2E2E2E2E2E2E2E2E2E2E2E2E2E2E2E2E2E2E2E2E2E2E2E2E2E2E2E2E2E2E2E2
310
E2E2E2E2E2E2E2E2E2E2E2E2E2E2E2E2E2E2E2E2E2E2E2E2E2E2E2E2E2E2E2E2E2E2E2E2E2E2E2E2E2E2E2E2E2E2E2E2E2E2E2E2E2E2E2E2E2E2E2E2E2E2E2E2E2E2E2E2E2E2E2E2E2E2E2E2E2E2E2E2E2E2E2E2E2E2E2E2E2E2E2E2E2E2E2E2E2E2E2E2E2E2E2E2E2E2E2E2E2E2E2E2E2E2E2E2E2E2E2E2E2E2E2E2E2E2E2
310
E2E2E2E2E2E2E2E2E2E2E2E2E2E2E2E2E2E2E2E2E2E2E2E2E2E2E2E2E2E2E2E2E2E2E2E2E2E2E2E2E2E2E2E2E2E2E2E2E2E2E2E2E2E2E2E2E2E2E2E2E2E2E2E2E2E2E2E2E2E2E2E2E2E2E2E2E2E2E2E2E2E2E2E2E2E2E2E2E2E2E2E2E2E2E2E2E2E2E2E2E2E2E2E2E2E2E2E2E2E2E2E2E2E2E2E2E2E2E2E2E2E2E2E2E2E2E2
310
E2E2E2E2E2E2E2E2E2E2E2E2E2E2E2E2E2E2E2E2E2E2E2E2E2E2E2E2E2E2E2E2E2E2E2E2E2E2E2E2E2E2E2E2E2E2E2E2E2E2E2E2E2E2E2E2E2E2E2E2E2E2E2E2E2E2E2E2E2E2E2E2E2E2E2E2E2E2E2E2E2E2E2E2E2E2E2E2E2E2E2E2E2E2E2E2E2E2E2E2E2E2E2E2E2E2E2E2E2E2E2E2E2E2E2E2E2E2E2E2E2E2E2E2E2E2E2
310
E2E2E2E2E2E2E2E2E2E2E2E2E2E2E2E2E2E2E2E2E2E2E2E2E2E2E2E2E2E2E2E2E2E2E2E2E2E2E2E2E2E2E2E2E2E2E2E2E2E2E2E2E2E2E2E2E2E2E2E2E2E2E2E2E2E2E2E2E2E2E2E2E2E2E2E2E2E2E2E2E2E2E2E2E2E2E2E2E2E2E2E2E2E2E2E2E2E2E2E2E2E2E2E2E2E2E2E2E2E2E2E2E2E2E2E2E2E2E2E2E2E2E2E2E2E2E2
310
E2E2E2E2E2E2E2E2E2E2E2E2E2E2E2E2E2E2E2E2E2E2E2E2E2E2E2E2E2E2E2E2E2E2E2E2E2E2E2E2E2E2E2E2E2E2E2E2E2E2E2E2E2E2E2E2E2E2E2E2E2E2E2E2E2E2E2E2E2E2E2E2E2E2E2E2E2E2E2E2E2E2E2E2E2E2E2E2E2E2E2E2E2E2E2E2E2E2E2E2E2E2E2E2E2E2E2E2E2E2E2E2E2E2E2E2E2E2E2E2E2E2E2E2E2E2E2
310
E2E2E2E2E2E2E2E2E2E2E2E2E2E2E2E2E2E2E2E2E2E2E2E2E2E2E2E2E2E2E2E2E2E2E2E2E2E2E2E2E2E2E2E2E2E2E2E2E2E2E2E2E2E2E2E2E2E2E2E2E2E2E2E2E2E2E2E2E2E2E2E2E2E2E2E2E2E2E2E2E2E2E2E2E2E2E2E2E2E2E2E2E2E2E2E2E2E2E2E2E2E2E2E2E2E2E2E2E2E2E2E2E2E2E2E2E2E2E2E2E2E2E2E2E2E2E2
310
E2E2E2E2E2E2E2E2E2E2E2E2E2E2E2E2E2E2E2E2E2E2E2E2E2E2E2E2E2E2E2E2E2E2E2E2E2E2E2E2E2E2E2E2E2E2E2E2E2E2E2E2E2E2E2E2E2E2E2E2E2E2E2E2E2E2E2E2E2E2E2E2E2E2E2E2E2E2E2E2E2E2E2E2E2E2E2E2E2E2E2E2E2E2E2E2E2E2E2E2E2E2E2E2E2E2E2E2E2E2E2E2E2E2E2E2E2E2E2E2E2E2E2E2E2E2E2
310
E2E2E2E2E2E2E2E2E2E2E2E2E2E2E2E2E2E2E2E2E2E2E2E2E2E2E2E2E2E2E2E2E2E2E2E2E2E2E2E2E2E2E2E2E2E2E2E2E2E2E2E2E2E2E2E2E2E2E2E2E2E2E2E2E2E2E2E2E2E2E2E2E2E2E2E2E2E2E2E2E2E2E2E2E2E2E2E2E2E2E2E2E2E2E2E2E2E2E2E2E2E2E2E2E2E2E2E2E2E2E2E2E2E2E2E2E2E2E2E2E2E2E2E2E2E2E2
310
E2E2E2E2E2E2E2E2E2E2E2E2E2E2E2E2E2E2E2E2E2E2E2E2E2E2E2E2E2E2E2E2E2E2E2E2E2E2E2E2E2E2E2E2E2E2E2E2E2E2E2E2E2E2E2E2E2E2E2E2E2E2E2E2E2E2E2E2E2E2E2E2E2E2E2E2E2E2E2E2E2E2E2E2E2E2E2E2E2E2E2E2E2E2E2E2E2E2E2E2E2E2E2E2E2E2E2E2E2E2E2E2E2E2E2E2E2E2E2E2E2E2E2E2E2E2E2
310
E2E2E2E2E2E2E2E2E2E2E2E2E2E2E2E2E2E2E2E2E2E2E2E2E2E2E2E2E2E2E2E2E2E2E2E2E2E2E2E2E2E2E2E2E2E2E2E2E2E2E2E2E2E2E2E2E2E2E2E2E2E2E2E2E2E2E2E2E2E2E2E2E2E2E2E2E2E2E2E2E2E2E2E2E2E2E2E2E2E2E2E2E2E2E2E2E2E2E2E2E2E2E2E2E2E2E2E2E2E2E2E2E2E2E2E2E2E2E2E2E2E2E2E2E2E2E2
310
E2E2E2E2E2E2E2E2E2E2E2E2E2E2E2E2E2E2E2E2E2E2E2E2E2E2E2E2E2E2E2E2E2E2E2E2E2E2E2E2E2E2E2E2E2E2E2E2E2E2E2E2E2E2E2E2E2E2E2E2E2E2E2E2E2E2E2E2E2E2E2E2E2E2E2E2E2E2E2E2E2E2E2E2E2E2E2E2E2E2E2E2E2E2E2E2E2E2E2E2E2E2E2E2E2E2E2E2E2E2E2E2E2E2E2E2E2E2E2E2E2E2E2E2E2E2E2
310
E2E2E2E2E2E2E2E2E2E2E2E2E2E2E2E2E2E2E2E2E2E2E2E2E2E2E2E2E2E2E2E2E2E2E2E2E2E2E2E2E2E2E2E2E2E2E2E2E2E2E2E2E2E2E2E2E2E2E2E2E2E2E2E2E2E2E2E2E2E2E2E2E2E2E2E2E2E2E2E2E2E2E2E2E2E2E2E2E2E2E2E2E2E2E2E2E2E2E2E2E2E2E2E2E2E2E2E2E2E2E2E2E2E2E2E2E2E2E2E2E2E2E2E2E2E2E2
310
E2E2E2E2E2E2E2E2E2E2E2E2E2E2E2E2E2E2E2E2E2E2E2E2E2E2E2E2E2E2E2E2E2E2E2E2E2E2E2E2E2E2E2E2E2E2E2E2E2E2E2E2E2E2E2E2E2E2E2E2E2E2E2E2E2E2E2E2E2E2E2E2E2E2E2E2E2E2E2E2E2E2E2E2E2E2E2E2E2E2E2E2E2E2E2E2E2E2E2E2E2E2E2E2E2E2E2E2E2E2E2E2E2E2E2E2E2E2E2E2E2E2E2E2E2E2E2
310
E2E2E2E2E2E2E2E2E2E2E2E2E2E2E2E2E2E2E2E2E2E2E2E2E2E2E2E2E2E2E2E2E2E2E2E2E2E2E2E2E2E2E2E2E2E2E2E2E2E2E2E2E2E2E2E2E2E2E2E2E2E2E2E2E2E2E2E2E2E2E2E2E2E2E2E2E2E2E2E2E2E2E2E2E2E2E2E2E2E2E2E2E2E2E2E2E2E2E2E2E2E2E2E2E2E2E2E2E2E2E2E2E2E2E2E2E2E2E2E2E2E2E2E2E2E2E2
310
E2E2E2E2E2E2E2E2E2E2E2E2E2E2E2E2E2E2E2E2E2E2E2E2E2E2E2E2E2E2E2E2E2E2E2E2E2E2E2E2E2E2E2E2E2E2E2E2E2E2E2E2E2E2E2E2E2E2E2E2E2E2E2E2E2E2E2E2E2E2E2E2E2E2E2E2E2E2E2E2E2E2E2E2E2E2E2E2E2E2E2E2E2E2E2E2E2E2E2E2E2E2E2E2E2E2E2E2E2E2E2E2E2E2E2E2E2E2E2E2E2E2E2E2E2E2E2
310
E2E2E2E2E2E2E2E2E2E2E2E2E2E2E2E2E2E2E2E2E2E2E2E2E2E2E2E2E2E2E2E2E2E2E2E2E2E2E2E2E2E2E2E2E2E2E2E2E2E2E2E2E2E2E2E2E2E2E2E2E2E2E2E2E2E2E2E2E2E2E2E2E2E2E2E2E2E2E2E2E2E2E2E2E2E2E2E2E2E2E2E2E2E2E2E2E2E2E2E2E2E2E2E2E2E2E2E2E2E2E2E2E2E2E2E2E2E2E2E2E2E2E2E2E2E2E2
310
E2E2E2E2E2E2E2E2E2E2E2E2E2E2E2E2E2E2E2E2E2E2E2E2E2E2E2E2E2E2E2E2E2E2E2E2E2E2E2E2E2E2E2E2E2E2E2E2E2E2E2E2E2E2E2E2E2E2E2E2E2E2E2E2E2E2E2E2E2E2E2E2E2E2E2E2E2E2E2E2E2E2E2E2E2E2E2E2E2E2E2E2E2E2E2E2E2E2E2E2E2E2E2E2E2E2E2E2E2E2E2E2E2E2E2E2E2E2E2E2E2E2E2E2E2E2E2
310
E2E2E2E2E2E2E2E2E2E2E2E2E2E2E2E2E2E2E2E2E2E2E2E2E2E2E2E2E2E2E2E2E2E2E2E2E2E2E2E2E2E2E2E2E2E2E2E2E2E2E2E2E2E2E2E2E2E2E2E2E2E2E2E2E2E2E2E2E2E2E2E2E2E2E2E2E2E2E2E2E2E2E2E2E2E2E2E2E2E2E2E2E2E2E2E2E2E2E2E2E2E2E2E2E2E2E2E2E2E2E2E2E2E2E2E2E2E2E2E2E2E2E2E2E2E2E2
310
E2E2E2E2E2E2E2E2E2E2E2E2E2E2E2E2E2E2E2E2E2E2E2E2E2E2E2E2E2E2E2E2E2E2E2E2E2E2E2E2E2E2E2E2E2E2E2E2E2E2E2E2E2E2E2E2E2E2E2E2E2E2E2E2E2E2E2E2E2E2E2E2E2E2E2E2E2E2E2E2E2E2E2E2E2E2E2E2E2E2E2E2E2E2E2E2E2E2E2E2E2E2E2E2E2E2E2E2E2E2E2E2E2E2E2E2E2E2E2E2E2E2E2E2E2E2E2
310
E2E2E2E2E2E2E2E2E2E2E2E2E2E2E2E2E2E2E2E2E2E2E2E2E2E2E2E2E2E2E2E2E2E2E2E2E2E2E2E2E2E2E2E2E2E2E2E2E2E2E2E2E2E2E2E2E2E2E2E2E2E2E2E2E2E2E2E2E2E2E2E2E2E2E2E2E2E2E2E2E2E2E2E2E2E2E2E2E2E2E2E2E2E2E2E2E2E2E2E2E2E2E2E2E2E2E2E2E2E2E2E2E2E2E2E2E2E2E2E2E2E2E2E2E2E2E2
310
E2E2E2E2E2E2E2E2E2E2E2E2E2E2E2E2E2E2E2E2E2E2E2E2E2E2E2E2E2E2E2E2E2E2E2E2E2E2E2E2E2E2E2E2E2E2E2E2E2E2E2E2E2E2E2E2E2E2E2E2E2E2E2E2E2E2E2E2E2E2E2E2E2E2E2E2E2E2E2E2E2E2E2E2E2E2E2E2E2E2E2E2E2E2E2E2E2E2E2E2E2E2E2E2E2E2E2E2E2E2E2E2E2E2E2E2E2E2E2E2E2E2E2E2E2E2E2
310
E2E2E2E2E2E2E2E2E2E2E2E2E2E2E2E2E2E2E2E2E2E2E2E2E2E2E2E2E2E2E2E2E2E2E2E2E2E2E2E2E2E2E2E2E2E2E2E2E2E2E2E2E2E2E2E2E2E2E2E2E2E2E2E2E2E2E2E2E2E2E2E2E2E2E2E2E2E2E2E2E2E2E2E2E2E2E2E2E2E2E2E2E2E2E2E2E2E2E2E2E2E2E2E2E2E2E2E2E2E2E2E2E2E2E2E2E2E2E2E2E2E2E2E2E2E2E2
310
E2E2E2E2E2E2E2E2E2E2E2E2E2E2E2E2E2E2E2E2E2E2E2E2E2E2E2E2E2E2E2E2E2E2E2E2E2E2E2E2E2E2E2E2E2E2E2E2E2E2E2E2E2E2E2E2E2E2E2E2E2E2E2E2E2E2E2E2E2E2E2E2E2E2E2E2E2E2E2E2E2E2E2E2E2E2E2E2E2E2E2E2E2E2E2E2E2E2E2E2E2E2E2E2E2E2E2E2E2E2E2E2E2E2E2E2E2E2E2E2E2E2E2E2E2E2E2
310
E2E2E2E2E2E2E2E2E2E2E2E2E2E2E2E2E2E2E2E2E2E2E2E2E2E2E2E2E2E2E2E2E2E2E2E2E2E2E2E2E2E2E2E2E2E2E2E2E2E2E2E2E2E2E2E2E2E2E2E2E2E2E2E2E2E2E2E2E2E2E2E2E2E2E2E2E2E2E2E2E2E2E2E2E2E2E2E2E2E2E2E2E2E2E2E2E2E2E2E2E2E2E2E2E2E2E2E2E2E2E2E2E2E2E2E2E2E2E2E2E2E2E2E2E2E2E2
310
E2E2E2E2E2E2E2E2E2E2E2E2E2E2E2E2E2E2E2E2E2E2E2E2E2E2E2E2E2E2E2E2E2E2E2E2E2E2E2E2E2E2E2E2E2E2E2E2E2E2E2E2E2E2E2E2E2E2E2E2E2E2E2E2E2E2E2E2E2E2E2E2E2E2E2E2E2E2E2E2E2E2E2E2E2E2E2E2E2E2E2E2E2E2E2E2E2E2E2E2E2E2E2E2E2E2E2E2E2E2E2E2E2E2E2E2E2E2E2E2E2E2E2E2E2E2E2
310
E2E2E2E2E2E2E2E2E2E2E2E2E2E2E2E2E2E2E2E2E2E2E2E2E2E2E2E2E2E2E2E2E2E2E2E2E2E2E2E2E2E2E2E2E2E2E2E2E2E2E2E2E2E2E2E2E2E2E2E2E2E2E2E2E2E2E2E2E2E2E2E2E2E2E2E2E2E2E2E2E2E2E2E2E2E2E2E2E2E2E2E2E2E2E2E2E2E2E2E2E2E2E2E2E2E2E2E2E2E2E2E2E2E2E2E2E2E2E2E2E2E2E2E2E2E2E2
310
E2E2E2E2E2E2E2E2E2E2E2E2E2E2E2E2E2E2E2E2E2E2E2E2E2E2E2E2E2E2E2E2E2E2E2E2E2E2E2E2E2E2E2E2E2E2E2E2E2E2E2E2E2E2E2E2E2E2E2E2E2E2E2E2E2E2E2E2E2E2E2E2E2E2E2E2E2E2E2E2E2E2E2E2E2E2E2E2E2E2E2E2E2E2E2E2E2E2E2E2E2E2E2E2E2E2E2E2E2E2E2E2E2E2E2E2E2E2E2E2E2E2E2E2E2E2E2
310
E2E2E2E2E2E2E2E2E2E2E2E2E2E2E2E2E2E2E2E2E2E2E2E2E2E2E2E2E2E2E2E2E2E2E2E2E2E2E2E2E2E2E2E2E2E2E2E2E2E2E2E2E2E2E2E2E2E2E2E2E2E2E2E2E2E2E2E2E2E2E2E2E2E2E2E2E2E2E2E2E2E2E2E2E2E2E2E2E2E2E2E2E2E2E2E2E2E2E2E2E2E2E2E2E2E2E2E2E2E2E2E2E2E2E2E2E2E2E2E2E2E2E2E2E2E2E2
310
E2E2E2E2E2E2E2E2E2E2E2E2E2E2E2E2E2E2E2E2E2E2E2E2E2E2E2E2E2E2E2E2E2E2E2E2E2E2E2E2E2E2E2E2E2E2E2E2E2E2E2E2E2E2E2E2E2E2E2E2E2E2E2E2E2E2E2E2E2E2E2E2E2E2E2E2E2E2E2E2E2E2E2E2E2E2E2E2E2E2E2E2E2E2E2E2E2E2E2E2E2E2E2E2E2E2E2E2E2E2E2E2E2E2E2E2E2E2E2E2E2E2E2E2E2E2E2
310
E2E2E2E2E2E2E2E2E2E2E2E2E2E2E2E2E2E2E2E2E2E2E2E2E2E2E2E2E2E2E2E2E2E2E2E2E2E2E2E2E2E2E2E2E2E2E2E2E2E2E2E2E2E2E2E2E2E2E2E2E2E2E2E2E2E2E2E2E2E2E2E2E2E2E2E2E2E2E2E2E2E2E2E2E2E2E2E2E2E2E2E2E2E2E2E2E2E2E2E2E2E2E2E2E2E2E2E2E2E2E2E2E2E2E2E2E2E2E2E2E2E2E2E2E2E2E2
310
E2E2E2E2E2E2E2E2E2E2E2E2E2E2E2E2E2E2E2E2E2E2E2E2E2E2E2E2E2E2E2E2E2E2E2E2E2E2E2E2E2E2E2E2E2E2E2E2E2E2E2E2E2E2E2E2E2E2E2E2E2E2E2E2E2E2E2E2E2E2E2E2E2E2E2E2E2E2E2E2E2E2E2E2E2E2E2E2E2E2E2E2E2E2E2E2E2E2E2E2E2E2E2E2E2E2E2E2E2E2E2E2E2E2E2E2E2E2E2E2E2E2E2E2E2E2E2
310
E2E2E2E2E2E2E2E2E2E2E2E2E2E2E2E2E2E2E2E2E2E2E2E2E2E2E2E2E2E2E2E2E2E2E2E2E2E2E2E2E2E2E2E2E2E2E2E2E2E2E2E2E2E2E2E2E2E2E2E2E2E2E2E2E2E2E2E2E2E2E2E2E2E2E2E2E2E2E2E2E2E2E2E2E2E2E2E2E2E2E2E2E2E2E2E2E2E2E2E2E2E2E2E2E2E2E2E2E2E2E2E2E2E2E2E2E2E2E2E2E2E2E2E2E2E2E2
310
E2E2E2E2E2E2E2E2E2E2E2E2E2E2E2E2E2E2E2E2E2E2E2E2E2E2E2E2E2E2E2E2E2E2E2E2E2E2E2E2E2E2E2E2E2E2E2E2E2E2E2E2E2E2E2E2E2E2E2E2E2E2E2E2E2E2E2E2E2E2E2E2E2E2E2E2E2E2E2E2E2E2E2E2E2E2E2E2E2E2E2E2E2E2E2E2E2E2E2E2E2E2E2E2E2E2E2E2E2E2E2E2E2E2E2E2E2E2E2E2E2E2E2E2E2E2E2
310
E2E2E2E2E2E2E2E2E2E2E2E2E2E2E2E2E2E2E2E2E2E2E2E2E2E2E2E2E2E2E2E2E2E2E2E2E2E2E2E2E2E2E2E2E2E2E2E2E2E2E2E2E2E2E2E2E2E2E2E2E2E2E2E2E2E2E2E2E2E2E2E2E2E2E2E2E2E2E2E2E2E2E2E2E2E2E2E2E2E2E2E2E2E2E2E2E2E2E2E2E2E2E2E2E2E2E2E2E2E2E2E2E2E2E2E2E2E2E2E2E2E2E2E2E2E2E2
310
E2E2E2E2E2E2E2E2E2E2E2E2E2E2E2E2E2E2E2E2E2E2E2E2E2E2E2E2E2E2E2E2E2E2E2E2E2E2E2E2E2E2E2E2E2E2E2E2E2E2E2E2E2E2E2E2E2E2E2E2E2E2E2E2E2E2E2E2E2E2E2E2E2E2E2E2E2E2E2E2E2E2E2E2E2E2E2E2E2E2E2E2E2E2E2E2E2E2E2E2E2E2E2E2E2E2E2E2E2E2E2E2E2E2E2E2E2E2E2E2E2E2E2E2E2E2E2
310
E2E2E2E2E2E2E2E2E2E2E2E2E2E2E2E2E2E2E2E2E2E2E2E2E2E2E2E2E2E2E2E2E2E2E2E2E2E2E2E2E2E2E2E2E2E2E2E2E2E2E2E2E2E2E2E2E2E2E2E2E2E2E2E2E2E2E2E2E2E2E2E2E2E2E2E2E2E2E2E2E2E2E2E2E2E2E2E2E2E2E2E2E2E2E2E2E2E2E2E2E2E2E2E2E2E2E2E2E2E2E2E2E2E2E2E2E2E2E2E2E2E2E2E2E2E2E2
310
E2E2E2E2E2E2E2E2E2E2E2E2E2E2E2E2E2E2E2E2E2E2E2E2E2E2E2E2E2E2E2E2E2E2E2E2E2E2E2E2E2E2E2E2E2E2E2E2E2E2E2E2E2E2E2E2E2E2E2E2E2E2E2E2E2E2E2E2E2E2E2E2E2E2E2E2E2E2E2E2E2E2E2E2E2E2E2E2E2E2E2E2E2E2E2E2E2E2E2E2E2E2E2E2E2E2E2E2E2E2E2E2E2E2E2E2E2E2E2E2E2E2E2E2E2E2E2
310
E2E2E2E2E2E2E2E2E2E2E2E2E2E2E2E2E2E2E2E2E2E2E2E2E2E2E2E2E2E2E2E2E2E2E2E2E2E2E2E2E2E2E2E2E2E2E2E2E2E2E2E2E2E2E2E2E2E2E2E2E2E2E2E2E2E2E2E2E2E2E2E2E2E2E2E2E2E2E2E2E2E2E2E2E2E2E2E2E2E2E2E2E2E2E2E2E2E2E2E2E2E2E2E2E2E2E2E2E2E2E2E2E2E2E2E2E2E2E2E2E2E2E2E2E2E2E2
310
E2E2E2E2E2E2E2E2E2E2E2E2E2E2E2E2E2E2E2E2E2E2E2E2E2E2E2E2E2E2E2E2E2E2E2E2E2E2E2E2E2E2E2E2E2E2E2E2E2E2E2E2E2E2E2E2E2E2E2E2E2E2E2E2E2E2E2E2E2E2E2E2E2E2E2E2E2E2E2E2E2E2E2E2E2E2E2E2E2E2E2E2E2E2E2E2E2E2E2E2E2E2E2E2E2E2E2E2E2E2E2E2E2E2E2E2E2E2E2E2E2E2E2E2E2E2E2
310
E2E2E2E2E2E2E2E2E2E2E2E2E2E2E2E2E2E2E2E2E2E2E2E2E2E2E2E2E2E2E2E2E2E2E2E2E2E2E2E2E2E2E2E2E2E2E2E2E2E2E2E2E2E2E2E2E2E2E2E2E2E2E2E2E2E2E2E2E2E2E2E2E2E2E2E2E2E2E2E2E2E2E2E2E2E2E2E2E2E2E2E2E2E2E2E2E2E2E2E2E2E2E2E2E2E2E2E2E2E2E2E2E2E2E2E2E2E2E2E2E2E2E2E2E2E2E2
310
E2E2E2E2E2E2E2E2E2E2E2E2E2E2E2E2E2E2E2E2E2E2E2E2E2E2E2E2E2E2E2E2E2E2E2E2E2E2E2E2E2E2E2E2E2E2E2E2E2E2E2E2E2E2E2E2E2E2E2E2E2E2E2E2E2E2E2E2E2E2E2E2E2E2E2E2E2E2E2E2E2E2E2E2E2E2E2E2E2E2E2E2E2E2E2E2E2E2E2E2E2E2E2E2E2E2E2E2E2E2E2E2E2E2E2E2E2E2E2E2E2E2E2E2E2E2E2
310
E2E2E2E2E2E2E2E2E2E2E2E2E2E2E2E2E2E2E2E2E2E2E2E2E2E2E2E2E2E2E2E2E2E2E2E2E2E2E2E2E2E2E2E2E2E2E2E2E2E2E2E2E2E2E2E2E2E2E2E2E2E2E2E2E2E2E2E2E2E2E2E2E2E2E2E2E2E2E2E2E2E2E2E2E2E2E2E2E2E2E2E2E2E2E2E2E2E2E2E2E2E2E2E2E2E2E2E2E2E2E2E2E2E2E2E2E2E2E2E2E2E2E2E2E2E2E2
310
E2E2E2E2E2E2E2E2E2E2E2E2E2E2E2E2E2E2E2E2E2E2E2E2E2E2E2E2E2E2E2E2E2E2E2E2E2E2E2E2E2E2E2E2E2E2E2E2E2E2E2E2E2E2E2E2E2E2E2E2E2E2E2E2E2E2E2E2E2E2E2E2E2E2E2E2E2E2E2E2E2E2E2E2E2E2E2E2E2E2E2E2E2E2E2E2E2E2E2E2E2E2E2E2E2E2E2E2E2E2E2E2E2E2E2E2E2E2E2E2E2E2E2E2E2E2E2
310
E2E2E2E2E2E2E2E2E2E2E2E2E2E2E2E2E2E2E2E2E2E2E2E2E2E2E2E2E2E2E2E2E2E2E2E2E2E2E2E2E2E2E2E2E2E2E2E2E2E2E2E2E2E2E2E2E2E2E2E2E2E2E2E2E2E2E2E2E2E2E2E2E2E2E2E2E2E2E2E2E2E2E2E2E2E2E2E2E2E2E2E2E2E2E2E2E2E2E2E2E2E2E2E2E2E2E2E2E2E2E2E2E2E2E2E2E2E2E2E2E2E2E2E2E2E2E2
310
E2E2E2E2E2E2E2E2E2E2E2E2E2E2E2E2E2E2E2E2E2E2E2E2E2E2E2E2E2E2E2E2E2E2E2E2E2E2E2E2E2E2E2E2E2E2E2E2E2E2E2E2E2E2E2E2E2E2E2E2E2E2E2E2E2E2E2E2E2E2E2E2E2E2E2E2E2E2E2E2E2E2E2E2E2E2E2E2E2E2E2E2E2E2E2E2E2E2E2E2E2E2E2E2E2E2E2E2E2E2E2E2E2E2E2E2E2E2E2E2E2E2E2E2E2E2E2
310
E2E2E2E2E2E2E2E2E2E2E2E2E2E2E2E2E2E2E2E2E2E2E2E2E2E2E2E2E2E2E2E2E2E2E2E2E2E2E2E2E2E2E2E2E2E2E2E2E2E2E2E2E2E2E2E2E2E2E2E2E2E2E2E2E2E2E2E2E2E2E2E2E2E2E2E2E2E2E2E2E2E2E2E2E2E2E2E2E2E2E2E2E2E2E2E2E2E2E2E2E2E2E2E2E2E2E2E2E2E2E2E2E2E2E2E2E2E2E2E2E2E2E2E2E2E2E2
310
E2E2E2E2E2E2E2E2E2E2E2E2E2E2E2E2E2E2E2E2E2E2E2E2E2E2E2E2E2E2E2E2E2E2E2E2E2E2E2E2E2E2E2E2E2E2E2E2E2E2E2E2E2E2E2E2E2E2E2E2E2E2E2E2E2E2E2E2E2E2E2E2E2E2E2E2E2E2E2E2E2E2E2E2E2E2E2E2E2E2E2E2E2E2E2E2E2E2E2E2E2E2E2E2E2E2E2E2E2E2E2E2E2E2E2E2E2E2E2E2E2E2E2E2E2E2E2
310
E2E2E2E2E2E2E2E2E2E2E2E2E2E2E2E2E2E2E2E2E2E2E2E2E2E2E2E2E2E2E2E2E2E2E2E2E2E2E2E2E2E2E2E2E2E2E2E2E2E2E2E2E2E2E2E2E2E2E2E2E2E2E2E2E2E2E2E2E2E2E2E2E2E2E2E2E2E2E2E2E2E2E2E2E2E2E2E2E2E2E2E2E2E2E2E2E2E2E2E2E2E2E2E2E2E2E2E2E2E2E2E2E2E2E2E2E2E2E2E2E2E2E2E2E2E2E2
310
E2E2E2E2E2E2E2E2E2E2E2E2E2E2E2E2E2E2E2E2E2E2E2E2E2E2E2E2E2E2E2E2E2E2E2E2E2E2E2E2E2E2E2E2E2E2E2E2E2E2E2E2E2E2E2E2E2E2E2E2E2E2E2E2E2E2E2E2E2E2E2E2E2E2E2E2E2E2E2E2E2E2E2E2E2E2E2E2E2E2E2E2E2E2E2E2E2E2E2E2E2E2E2E2E2E2E2E2E2E2E2E2E2E2E2E2E2E2E2E2E2E2E2E2E2E2E2
310
E2E2E2E2E2E2E2E2E2E2E2E2E2E2E2E2E2E2E2E2E2E2E2E2E2E2E2E2E2E2E2E2E2E2E2E2E2E2E2E2E2E2E2E2E2E2E2E2E2E2E2E2E2E2E2E2E2E2E2E2E2E2E2E2E2E2E2E2E2E2E2E2E2E2E2E2E2E2E2E2E2E2E2E2E2E2E2E2E2E2E2E2E2E2E2E2E2E2E2E2E2E2E2E2E2E2E2E2E2E2E2E2E2E2E2E2E2E2E2E2E2E2E2E2E2E2E2
310
E2E2E2E2E2E2E2E2E2E2E2E2E2E2E2E2E2E2E2E2E2E2E2E2E2E2E2E2E2E2E2E2E2E2E2E2E2E2E2E2E2E2E2E2E2E2E2E2E2E2E2E2E2E2E2E2E2E2E2E2E2E2E2E2E2E2E2E2E2E2E2E2E2E2E2E2E2E2E2E2E2E2E2E2E2E2E2E2E2E2E2E2E2E2E2E2E2E2E2E2E2E2E2E2E2E2E2E2E2E2E2E2E2E2E2E2E2E2E2E2E2E2E2E2E2E2E2
310
E2E2E2E2E2E2E2E2E2E2E2E2E2E2E2E2E2E2E2E2E2E2E2E2E2E2E2E2E2E2E2E2E2E2E2E2E2E2E2E2E2E2E2E2E2E2E2E2E2E2E2E2E2E2E2E2E2E2E2E2E2E2E2E2E2E2E2E2E2E2E2E2E2E2E2E2E2E2E2E2E2E2E2E2E2E2E2E2E2E2E2E2E2E2E2E2E2E2E2E2E2E2E2E2E2E2E2E2E2E2E2E2E2E2E2E2E2E2E2E2E2E2E2E2E2E2E2
310
E2E2E2E2E2E2E2E2E2E2E2E2E2E2E2E2E2E2E2E2E2E2E2E2E2E2E2E2E2E2E2E2E2E2E2E2E2E2E2E2E2E2E2E2E2E2E2E2E2E2E2E2E2E2E2E2E2E2E2E2E2E2E2E2E2E2E2E2E2E2E2E2E2E2E2E2E2E2E2E2E2E2E2E2E2E2E2E2E2E2E2E2E2E2E2E2E2E2E2E2E2E2E2E2E2E2E2E2E2E2E2E2E2E2E2E2E2E2E2E2E2E2E2E2E2E2E2
310
E2E2E2E2E2E2E2E2E2E2E2E2E2E2E2E2E2E2E2E2E2E2E2E2E2E2E2E2E2E2E2E2E2E2E2E2E2E2E2E2E2E2E2E2E2E2E2E2E2E2E2E2E2E2E2E2E2E2E2E2E2E2E2E2E2E2E2E2E2E2E2E2E2E2E2E2E2E2E2E2E2E2E2E2E2E2E2E2E2E2E2E2E2E2E2E2E2E2E2E2E2E2E2E2E2E2E2E2E2E2E2E2E2E2E2E2E2E2E2E2E2E2E2E2E2E2E2
310
E2E2E2E2E2E2E2E2E2E2E2E2E2E2E2E2E2E2E2E2E2E2E2E2E2E2E2E2E2E2E2E2E2E2E2E2E2E2E2E2E2E2E2E2E2E2E2E2E2E2E2E2E2E2E2E2E2E2E2E2E2E2E2E2E2E2E2E2E2E2E2E2E2E2E2E2E2E2E2E2E2E2E2E2E2E2E2E2E2E2E2E2E2E2E2E2E2E2E2E2E2E2E2E2E2E2E2E2E2E2E2E2E2E2E2E2E2E2E2E2E2E2E2E2E2E2E2
310
E2E2E2E2E2E2E2E2E2E2E2E2E2E2E2E2E2E2E2E2E2E2E2E2E2E2E2E2E2E2E2E2E2E2E2E2E2E2E2E2E2E2E2E2E2E2E2E2E2E2E2E2E2E2E2E2E2E2E2E2E2E2E2E2E2E2E2E2E2E2E2E2E2E2E2E2E2E2E2E2E2E2E2E2E2E2E2E2E2E2E2E2E2E2E2E2E2E2E2E2E2E2E2E2E2E2E2E2E2E2E2E2E2E2E2E2E2E2E2E2E2E2E2E2E2E2E2
310
E2E2E2E2E2E2E2E2E2E2E2E2E2E2E2E2E2E2E2E2E2E2E2E2E2E2E2E2E2E2E2E2E2E2E2E2E2E2E2E2E2E2E2E2E2E2E2E2E2E2E2E2E2E2E2E2E2E2E2E2E2E2E2E2E2E2E2E2E2E2E2E2E2E2E2E2E2E2E2E2E2E2E2E2E2E2E2E2E2E2E2E2E2E2E2E2E2E2E2E2E2E2E2E2E2E2E2E2E2E2E2E2E2E2E2E2E2E2E2E2E2E2E2E2E2E2E2
310
E2E2E2E2E2E2E2E2E2E2E2E2E2E2E2E2E2E2E2E2E2E2E2E2E2E2E2E2E2E2E2E2E2E2E2E2E2E2E2E2E2E2E2E2E2E2E2E2E2E2E2E2E2E2E2E2E2E2E2E2E2E2E2E2E2E2E2E2E2E2E2E2E2E2E2E2E2E2E2E2E2E2E2E2E2E2E2E2E2E2E2E2E2E2E2E2E2E2E2E2E2E2E2E2E2E2E2E2E2E2E2E2E2E2E2E2E2E2E2E2E2E2E2E2E2E2E2
310
E2E2E2E2E2E2E2E2E2E2E2E2E2E2E2E2E2E2E2E2E2E2E2E2E2E2E2E2E2E2E2E2E2E2E2E2E2E2E2E2E2E2E2E2E2E2E2E2E2E2E2E2E2E2E2E2E2E2E2E2E2E2E2E2E2E2E2E2E2E2E2E2E2E2E2E2E2E2E2E2E2E2E2E2E2E2E2E2E2E2E2E2E2E2E2E2E2E2E2E2E2E2E2E2E2E2E2E2E2E2E2E2E2E2E2E2E2E2E2E2E2E2E2E2E2E2E2
310
E2E2E2E2E2E2E2E2E2E2E2E2E2E2E2E2E2E2E2E2E2E2E2E2E2E2E2E2E2E2E2E2E2E2E2E2E2E2E2E2E2E2E2E2E2E2E2E2E2E2E2E2E2E2E2E2E2E2E2E2E2E2E2E2E2E2E2E2E2E2E2E2E2E2E2E2E2E2E2E2E2E2E2E2E2E2E2E2E2E2E2E2E2E2E2E2E2E2E2E2E2E2E2E2E2E2E2E2E2E2E2E2E2E2E2E2E2E2E2E2E2E2E2E2E2E2E2
310
E2E2E2E2E2E2E2E2E2E2E2E2E2E2E2E2E2E2E2E2E2E2E2E2E2E2E2E2E2E2E2E2E2E2E2E2E2E2E2E2E2E2E2E2E2E2E2E2E2E2E2E2E2E2E2E2E2E2E2E2E2E2E2E2E2E2E2E2E2E2E2E2E2E2E2E2E2E2E2E2E2E2E2E2E2E2E2E2E2E2E2E2E2E2E2E2E2E2E2E2E2E2E2E2E2E2E2E2E2E2E2E2E2E2E2E2E2E2E2E2E2E2E2E2E2E2E2
310
E2E2E2E2E2E2E2E2E2E2E2E2E2E2E2E2E2E2E2E2E2E2E2E2E2E2E2E2E2E2E2E2E2E2E2E2E2E2E2E2E2E2E2E2E2E2E2E2E2E2E2E2E2E2E2E2E2E2E2E2E2E2E2E2E2E2E2E2E2E2E2E2E2E2E2E2E2E2E2E2E2E2E2E2E2E2E2E2E2E2E2E2E2E2E2E2E2E2E2E2E2E2E2E2E2E2E2E2E2E2E2E2E2E2E2E2E2E2E2E2E2E2E2E2E2E2E2
310
E2E2E2E2E2E2E2E2E2E2E2E2E2E2E2E2E2E2E2E2E2E2E2E2E2E2E2E2E2E2E2E2E2E2E2E2E2E2E2E2E2E2E2E2E2E2E2E2E2E2E2E2E2E2E2E2E2E2E2E2E2E2E2E2E2E2E2E2E2E2E2E2E2E2E2E2E2E2E2E2E2E2E2E2E2E2E2E2E2E2E2E2E2E2E2E2E2E2E2E2E2E2E2E2E2E2E2E2E2E2E2E2E2E2E2E2E2E2E2E2E2E2E2E2E2E2E2
310
E2E2E2E2E2E2E2E2E2E2E2E2E2E2E2E2E2E2E2E2E2E2E2E2E2E2E2E2E2E2E2E2E2E2E2E2E2E2E2E2E2E2E2E2E2E2E2E2E2E2E2E2E2E2E2E2E2E2E2E2E2E2E2E2E2E2E2E2E2E2E2E2E2E2E2E2E2E2E2E2E2E2E2E2E2E2E2E2E2E2E2E2E2E2E2E2E2E2E2E2E2E2E2E2E2E2E2E2E2E2E2E2E2E2E2E2E2E2E2E2E2E2E2E2E2E2E2
310
E2E2E2E2E2E2E2E2E2E2E2E2E2E2E2E2E2E2E2E2E2E2E2E2E2E2E2E2E2E2E2E2E2E2E2E2E2E2E2E2E2E2E2E2E2E2E2E2E2E2E2E2E2E2E2E2E2E2E2E2E2E2E2E2E2E2E2E2E2E2E2E2E2E2E2E2E2E2E2E2E2E2E2E2E2E2E2E2E2E2E2E2E2E2E2E2E2E2E2E2E2E2E2E2E2E2E2E2E2E2E2E2E2E2E2E2E2E2E2E2E2E2E2E2E2E2E2
310
E2E2E2E2E2E2E2E2E2E2E2E2E2E2E2E2E2E2E2E2E2E2E2E2E2E2E2E2E2E2E2E2E2E2E2E2E2E2E2E2E2E2E2E2E2E2E2E2E2E2E2E2E2E2E2E2E2E2E2E2E2E2E2E2E2E2E2E2E2E2E2E2E2E2E2E2E2E2E2E2E2E2E2E2E2E2E2E2E2E2E2E2E2E2E2E2E2E2E2E2E2E2E2E2E2E2E2E2E2E2E2E2E2E2E2E2E2E2E2E2E2E2E2E2E2E2E2
310
E2E2E2E2E2E2E2E2E2E2E2E2E2E2E2E2E2E2E2E2E2E2E2E2E2E2E2E2E2E2E2E2E2E2E2E2E2E2E2E2E2E2E2E2E2E2E2E2E2E2E2E2E2E2E2E2E2E2E2E2E2E2E2E2E2E2E2E2E2E2E2E2E2E2E2E2E2E2E2E2E2E2E2E2E2E2E2E2E2E2E2E2E2E2E2E2E2E2E2E2E2E2E2E2E2E2E2E2E2E2E2E2E2E2E2E2E2E2E2E2E2E2E2E2E2E2E2
310
E2E2E2E2E2E2E2E2E2E2E2E2E2E2E2E2E2E2E2E2E2E2E2E2E2E2E2E2E2E2E2E2E2E2E2E2E2E2E2E2E2E2E2E2E2E2E2E2E2E2E2E2E2E2E2E2E2E2E2E2E2E2E2E2E2E2E2E2E2E2E2E2E2E2E2E2E2E2E2E2E2E2E2E2E2E2E2E2E2E2E2E2E2E2E2E2E2E2E2E2E2E2E2E2E2E2E2E2E2E2E2E2E2E2E2E2E2E2E2E2E2E2E2E2E2E2E2
310
E2E2E2E2E2E2E2E2E2E2E2E2E2E2E2E2E2E2E2E2E2E2E2E2E2E2E2E2E2E2E2E2E2E2E2E2E2E2E2E2E2E2E2E2E2E2E2E2E2E2E2E2E2E2E2E2E2E2E2E2E2E2E2E2E2E2E2E2E2E2E2E2E2E2E2E2E2E2E2E2E2E2E2E2E2E2E2E2E2E2E2E2E2E2E2E2E2E2E2E2E2E2E2E2E2E2E2E2E2E2E2E2E2E2E2E2E2E2E2E2E2E2E2E2E2E2E2
310
E2E2E2E2E2E2E2E2E2E2E2E2E2E2E2E2E2E2E2E2E2E2E2E2E2E2E2E2E2E2E2E2E2E2E2E2E2E2E2E2E2E2E2E2E2E2E2E2E2E2E2E2E2E2E2E2E2E2E2E2E2E2E2E2E2E2E2E2E2E2E2E2E2E2E2E2E2E2E2E2E2E2E2E2E2E2E2E2E2E2E2E2E2E2E2E2E2E2E2E2E2E2E2E2E2E2E2E2E2E2E2E2E2E2E2E2E2E2E2E2E2E2E2E2E2E2E2
310
E2E2E2E2E2E2E2E2E2E2E2E2E2E2E2E2E2E2E2E2E2E2E2E2E2E2E2E2E2E2E2E2E2E2E2E2E2E2E2E2E2E2E2E2E2E2E2E2E2E2E2E2E2E2E2E2E2E2E2E2E2E2E2E2E2E2E2E2E2E2E2E2E2E2E2E2E2E2E2E2E2E2E2E2E2E2E2E2E2E2E2E2E2E2E2E2E2E2E2E2E2E2E2E2E2E2E2E2E2E2E2E2E2E2E2E2E2E2E2E2E2E2E2E2E2E2E2
310
E2E2E2E2E2E2E2E2E2E2E2E2E2E2E2E2E2E2E2E2E2E2E2E2E2E2E2E2E2E2E2E2E2E2E2E2E2E2E2E2E2E2E2E2E2E2E2E2E2E2E2E2E2E2E2E2E2E2E2E2E2E2E2E2E2E2E2E2E2E2E2E2E2E2E2E2E2E2E2E2E2E2E2E2E2E2E2E2E2E2E2E2E2E2E2E2E2E2E2E2E2E2E2E2E2E2E2E2E2E2E2E2E2E2E2E2E2E2E2E2E2E2E2E2E2E2E2
310
E2E2E2E2E2E2E2E2E2E2E2E2E2E2E2E2E2E2E2E2E2E2E2E2E2E2E2E2E2E2E2E2E2E2E2E2E2E2E2E2E2E2E2E2E2E2E2E2E2E2E2E2E2E2E2E2E2E2E2E2E2E2E2E2E2E2E2E2E2E2E2E2E2E2E2E2E2E2E2E2E2E2E2E2E2E2E2E2E2E2E2E2E2E2E2E2E2E2E2E2E2E2E2E2E2E2E2E2E2E2E2E2E2E2E2E2E2E2E2E2E2E2E2E2E2E2E2
310
E2E2E2E2E2E2E2E2E2E2E2E2E2E2E2E2E2E2E2E2E2E2E2E2E2E2E2E2E2E2E2E2E2E2E2E2E2E2E2E2E2E2E2E2E2E2E2E2E2E2E2E2E2E2E2E2E2E2E2E2E2E2E2E2E2E2E2E2E2E2E2E2E2E2E2E2E2E2E2E2E2E2E2E2E2E2E2E2E2E2E2E2E2E2E2E2E2E2E2E2E2E2E2E2E2E2E2E2E2E2E2E2E2E2E2E2E2E2E2E2E2E2E2E2E2E2E2
310
E2E2E2E2E2E2E2E2E2E2E2E2E2E2E2E2E2E2E2E2E2E2E2E2E2E2E2E2E2E2E2E2E2E2E2E2E2E2E2E2E2E2E2E2E2E2E2E2E2E2E2E2E2E2E2E2E2E2E2E2E2E2E2E2E2E2E2E2E2E2E2E2E2E2E2E2E2E2E2E2E2E2E2E2E2E2E2E2E2E2E2E2E2E2E2E2E2E2E2E2E2E2E2E2E2E2E2E2E2E2E2E2E2E2E2E2E2E2E2E2E2E2E2E2E2E2E2
310
E2E2E2E2E2E2E2E2E2E2E2E2E2E2E2E2E2E2E2E2E2E2E2E2E2E2E2E2E2E2E2E2E2E2E2E2E2E2E2E2E2E2E2E2E2E2E2E2E2E2E2E2E2E2E2E2E2E2E2E2E2E2E2E2E2E2E2E2E2E2E2E2E2E2E2E2E2E2E2E2E2E2E2E2E2E2E2E2E2E2E2E2E2E2E2E2E2E2E2E2E2E2E2E2E2E2E2E2E2E2E2E2E2E2E2E2E2E2E2E2E2E2E2E2E2E2E2
310
E2E2E2E2E2E2E2E2E2E2E2E2E2E2E2E2E2E2E2E2E2E2E2E2E2E2E2E2E2E2E2E2E2E2E2E2E2E2E2E2E2E2E2E2E2E2E2E2E2E2E2E2E2E2E2E2E2E2E2E2E2E2E2E2E2E2E2E2E2E2E2E2E2E2E2E2E2E2E2E2E2E2E2E2E2E2E2E2E2E2E2E2E2E2E2E2E2E2E2E2E2E2E2E2E2E2E2E2E2E2E2E2E2E2E2E2E2E2E2E2E2E2E2E2E2E2E2
310
E2E2E2E2E2E2E2E2E2E2E2E2E2E2E2E2E2E2E2E2E2E2E2E2E2E2E2E2E2E2E2E2E2E2E2E2E2E2E2E2E2E2E2E2E2E2E2E2E2E2E2E2E2E2E2E2E2E2E2E2E2E2E2E2E2E2E2E2E2E2E2E2E2E2E2E2E2E2E2E2E2E2E2E2E2E2E2E2E2E2E2E2E2E2E2E2E2E2E2E2E2E2E2E2E2E2E2E2E2E2E2E2E2E2E2E2E2E2E2E2E2E2E2E2E2E2E2
310
E2E2E2E2E2E2E2E2E2E2E2E2E2E2E2E2E2E2E2E2E2E2E2E2E2E2E2E2E2E2E2E2E2E2E2E2E2E2E2E2E2E2E2E2E2E2E2E2E2E2E2E2E2E2E2E2E2E2E2E2E2E2E2E2E2E2E2E2E2E2E2E2E2E2E2E2E2E2E2E2E2E2E2E2E2E2E2E2E2E2E2E2E2E2E2E2E2E2E2E2E2E2E2E2E2E2E2E2E2E2E2E2E2E2E2E2E2E2E2E2E2E2E2E2E2E2E2
310
E2E2E2E2E2E2E2E2E2E2E2E2E2E2E2E2E2E2E2E2E2E2E2E2E2E2E2E2E2E2E2E2E2E2E2E2E2E2E2E2E2E2E2E2E2E2E2E2E2E2E2E2E2E2E2E2E2E2E2E2E2E2E2E2E2E2E2E2E2E2E2E2E2E2E2E2E2E2E2E2E2E2E2E2E2E2E2E2E2E2E2E2E2E2E2E2E2E2E2E2E2E2E2E2E2E2E2E2E2E2E2E2E2E2E2E2E2E2E2E2E2E2E2E2E2E2E2
310
E2E2E2E2E2E2E2E2E2E2E2E2E2E2E2E2E2E2E2E2E2E2E2E2E2E2E2E2E2E2E2E2E2E2E2E2E2E2E2E2E2E2E2E2E2E2E2E2E2E2E2E2E2E2E2E2E2E2E2E2E2E2E2E2E2E2E2E2E2E2E2E2E2E2E2E2E2E2E2E2E2E2E2E2E2E2E2E2E2E2E2E2E2E2E2E2E2E2E2E2E2E2E2E2E2E2E2E2E2E2E2E2E2E2E2E2E2E2E2E2E2E2E2E2E2E2E2
310
E2E2E2E2E2E2E2E2E2E2E2E2E2E2E2E2E2E2E2E2E2E2E2E2E2E2E2E2E2E2E2E2E2E2E2E2E2E2E2E2E2E2E2E2E2E2E2E2E2E2E2E2E2E2E2E2E2E2E2E2E2E2E2E2E2E2E2E2E2E2E2E2E2E2E2E2E2E2E2E2E2E2E2E2E2E2E2E2E2E2E2E2E2E2E2E2E2E2E2E2E2E2E2E2E2E2E2E2E2E2E2E2E2E2E2E2E2E2E2E2E2E2E2E2E2E2E2
310
E2E2E2E2E2E2E2E2E2E2E2E2E2E2E2E2E2E2E2E2E2E2E2E2E2E2E2E2E2E2E2E2E2E2E2E2E2E2E2E2E2E2E2E2E2E2E2E2E2E2E2E2E2E2E2E2E2E2E2E2E2E2E2E2E2E2E2E2E2E2E2E2E2E2E2E2E2E2E2E2E2E2E2E2E2E2E2E2E2E2E2E2E2E2E2E2E2E2E2E2E2E2E2E2E2E2E2E2E2E2E2E2E2E2E2E2E2E2E2E2E2E2E2E2E2E2E2
310
E2E2E2E2E2E2E2E2E2E2E2E2E2E2E2E2E2E2E2E2E2E2E2E2E2E2E2E2E2E2E2E2E2E2E2E2E2E2E2E2E2E2E2E2E2E2E2E2E2E2E2E2E2E2E2E2E2E2E2E2E2E2E2E2E2E2E2E2E2E2E2E2E2E2E2E2E2E2E2E2E2E2E2E2E2E2E2E2E2E2E2E2E2E2E2E2E2E2E2E2E2E2E2E2E2E2E2E2E2E2E2E2E2E2E2E2E2E2E2E2E2E2E2E2E2E2E2
310
E2E2E2E2E2E2E2E2E2E2E2E2E2E2E2E2E2E2E2E2E2E2E2E2E2E2E2E2E2E2E2E2E2E2E2E2E2E2E2E2E2E2E2E2E2E2E2E2E2E2E2E2E2E2E2E2E2E2E2E2E2E2E2E2E2E2E2E2E2E2E2E2E2E2E2E2E2E2E2E2E2E2E2E2E2E2E2E2E2E2E2E2E2E2E2E2E2E2E2E2E2E2E2E2E2E2E2E2E2E2E2E2E2E2E2E2E2E2E2E2E2E2E2E2E2E2E2
310
E2E2E2E2E2E2E2E2E2E2E2E2E2E2E2E2E2E2E2E2E2E2E2E2E2E2E2E2E2E2E2E2E2E2E2E2E2E2E2E2E2E2E2E2E2E2E2E2E2E2E2E2E2E2E2E2E2E2E2E2E2E2E2E2E2E2E2E2E2E2E2E2E2E2E2E2E2E2E2E2E2E2E2E2E2E2E2E2E2E2E2E2E2E2E2E2E2E2E2E2E2E2E2E2E2E2E2E2E2E2E2E2E2E2E2E2E2E2E2E2E2E2E2E2E2E2E2
310
E2E2E2E2E2E2E2E2E2E2E2E2E2E2E2E2E2E2E2E2E2E2E2E2E2E2E2E2E2E2E2E2E2E2E2E2E2E2E2E2E2E2E2E2E2E2E2E2E2E2E2E2E2E2E2E2E2E2E2E2E2E2E2E2E2E2E2E2E2E2E2E2E2E2E2E2E2E2E2E2E2E2E2E2E2E2E2E2E2E2E2E2E2E2E2E2E2E2E2E2E2E2E2E2E2E2E2E2E2E2E2E2E2E2E2E2E2E2E2E2E2E2E2E2E2E2E2
310
E2E2E2E2E2E2E2E2E2E2E2E2E2E2E2E2E2E2E2E2E2E2E2E2E2E2E2E2E2E2E2E2E2E2E2E2E2E2E2E2E2E2E2E2E2E2E2E2E2E2E2E2E2E2E2E2E2E2E2E2E2E2E2E2E2E2E2E2E2E2E2E2E2E2E2E2E2E2E2E2E2E2E2E2E2E2E2E2E2E2E2E2E2E2E2E2E2E2E2E2E2E2E2E2E2E2E2E2E2E2E2E2E2E2E2E2E2E2E2E2E2E2E2E2E2E2E2
310
E2E2E2E2E2E2E2E2E2E2E2E2E2E2E2E2E2E2E2E2E2E2E2E2E2E2E2E2E2E2E2E2E2E2E2E2E2E2E2E2E2E2E2E2E2E2E2E2E2E2E2E2E2E2E2E2E2E2E2E2E2E2E2E2E2E2E2E2E2E2E2E2E2E2E2E2E2E2E2E2E2E2E2E2E2E2E2E2E2E2E2E2E2E2E2E2E2E2E2E2E2E2E2E2E2E2E2E2E2E2E2E2E2E2E2E2E2E2E2E2E2E2E2E2E2E2E2
310
E2E2E2E2E2E2E2E2E2E2E2E2E2E2E2E2E2E2E2E2E2E2E2E2E2E2E2E2E2E2E2E2E2E2E2E2E2E2E2E2E2E2E2E2E2E2E2E2E2E2E2E2E2E2E2E2E2E2E2E2E2E2E2E2E2E2E2E2E2E2E2E2E2E2E2E2E2E2E2E2E2E2E2E2E2E2E2E2E2E2E2E2E2E2E2E2E2E2E2E2E2E2E2E2E2E2E2E2E2E2E2E2E2E2E2E2E2E2E2E2E2E2E2E2E2E2E2
310
E2E2E2E2E2E2E2E2E2E2E2E2E2E2E2E2E2E2E2E2E2E2E2E2E2E2E2E2E2E2E2E2E2E2E2E2E2E2E2E2E2E2E2E2E2E2E2E2E2E2E2E2E2E2E2E2E2E2E2E2E2E2E2E2E2E2E2E2E2E2E2E2E2E2E2E2E2E2E2E2E2E2E2E2E2E2E2E2E2E2E2E2E2E2E2E2E2E2E2E2E2E2E2E2E2E2E2E2E2E2E2E2E2E2E2E2E2E2E2E2E2E2E2E2E2E2E2
310
E2E2E2E2E2E2E2E2E2E2E2E2E2E2E2E2E2E2E2E2E2E2E2E2E2E2E2E2E2E2E2E2E2E2E2E2E2E2E2E2E2E2E2E2E2E2E2E2E2E2E2E2E2E2E2E2E2E2E2E2E2E2E2E2E2E2E2E2E2E2E2E2E2E2E2E2E2E2E2E2E2E2E2E2E2E2E2E2E2E2E2E2E2E2E2E2E2E2E2E2E2E2E2E2E2E2E2E2E2E2E2E2E2E2E2E2E2E2E2E2E2E2E2E2E2E2E2
310
E2E2E2E2E2E2E2E2E2E2E2E2E2E2E2E2E2E2E2E2E2E2E2E2E2E2E2E2E2E2E2E2E2E2E2E2E2E2E2E2E2E2E2E2E2E2E2E2E2E2E2E2E2E2E2E2E2E2E2E2E2E2E2E2E2E2E2E2E2E2E2E2E2E2E2E2E2E2E2E2E2E2E2E2E2E2E2E2E2E2E2E2E2E2E2E2E2E2E2E2E2E2E2E2E2E2E2E2E2E2E2E2E2E2E2E2E2E2E2E2E2E2E2E2E2E2E2
310
E2E2E2E2E2E2E2E2E2E2E2E2E2E2E2E2E2E2E2E2E2E2E2E2E2E2E2E2E2E2E2E2E2E2E2E2E2E2E2E2E2E2E2E2E2E2E2E2E2E2E2E2E2E2E2E2E2E2E2E2E2E2E2E2E2E2E2E2E2E2E2E2E2E2E2E2E2E2E2E2E2E2E2E2E2E2E2E2E2E2E2E2E2E2E2E2E2E2E2E2E2E2E2E2E2E2E2E2E2E2E2E2E2E2E2E2E2E2E2E2E2E2E2E2E2E2E2
310
E2E2E2E2E2E2E2E2E2E2E2E2E2E2E2E2E2E2E2E2E2E2E2E2E2E2E2E2E2E2E2E2E2E2E2E2E2E2E2E2E2E2E2E2E2E2E2E2E2E2E2E2E2E2E2E2E2E2E2E2E2E2E2E2E2E2E2E2E2E2E2E2E2E2E2E2E2E2E2E2E2E2E2E2E2E2E2E2E2E2E2E2E2E2E2E2E2E2E2E2E2E2E2E2E2E2E2E2E2E2E2E2E2E2E2E2E2E2E2E2E2E2E2E2E2E2E2
310
E2E2E2E2E2E2E2E2E2E2E2E2E2E2E2E2E2E2E2E2E2E2E2E2E2E2E2E2E2E2E2E2E2E2E2E2E2E2E2E2E2E2E2E2E2E2E2E2E2E2E2E2E2E2E2E2E2E2E2E2E2E2E2E2E2E2E2E2E2E2E2E2E2E2E2E2E2E2E2E2E2E2E2E2E2E2E2E2E2E2E2E2E2E2E2E2E2E2E2E2E2E2E2E2E2E2E2E2E2E2E2E2E2E2E2E2E2E2E2E2E2E2E2E2E2E2E2
310
E2E2E2E2E2E2E2E2E2E2E2E2E2E2E2E2E2E2E2E2E2E2E2E2E2E2E2E2E2E2E2E2E2E2E2E2E2E2E2E2E2E2E2E2E2E2E2E2E2E2E2E2E2E2E2E2E2E2E2E2E2E2E2E2E2E2E2E2E2E2E2E2E2E2E2E2E2E2E2E2E2E2E2E2E2E2E2E2E2E2E2E2E2E2E2E2E2E2E2E2E2E2E2E2E2E2E2E2E2E2E2E2E2E2E2E2E2E2E2E2E2E2E2E2E2E2E2
310
E2E2E2E2E2E2E2E2E2E2E2E2E2E2E2E2E2E2E2E2E2E2E2E2E2E2E2E2E2E2E2E2E2E2E2E2E2E2E2E2E2E2E2E2E2E2E2E2E2E2E2E2E2E2E2E2E2E2E2E2E2E2E2E2E2E2E2E2E2E2E2E2E2E2E2E2E2E2E2E2E2E2E2E2E2E2E2E2E2E2E2E2E2E2E2E2E2E2E2E2E2E2E2E2E2E2E2E2E2E2E2E2E2E2E2E2E2E2E2E2E2E2E2E2E2E2E2
310
E2E2E2E2E2E2E2E2E2E2E2E2E2E2E2E2E2E2E2E2E2E2E2E2E2E2E2E2E2E2E2E2E2E2E2E2E2E2E2E2E2E2E2E2E2E2E2E2E2E2E2E2E2E2E2E2E2E2E2E2E2E2E2E2E2E2E2E2E2E2E2E2E2E2E2E2E2E2E2E2E2E2E2E2E2E2E2E2E2E2E2E2E2E2E2E2E2E2E2E2E2E2E2E2E2E2E2E2E2E2E2E2E2E2E2E2E2E2E2E2E2E2E2E2E2E2E2
310
E2E2E2E2E2E2E2E2E2E2E2E2E2E2E2E2E2E2E2E2E2E2E2E2E2E2E2E2E2E2E2E2E2E2E2E2E2E2E2E2E2E2E2E2E2E2E2E2E2E2E2E2E2E2E2E2E2E2E2E2E2E2E2E2E2E2E2E2E2E2E2E2E2E2E2E2E2E2E2E2E2E2E2E2E2E2E2E2E2E2E2E2E2E2E2E2E2E2E2E2E2E2E2E2E2E2E2E2E2E2E2E2E2E2E2E2E2E2E2E2E2E2E2E2E2E2E2
310
E2E2E2E2E2E2E2E2E2E2E2E2E2E2E2E2E2E2E2E2E2E2E2E2E2E2E2E2E2E2E2E2E2E2E2E2E2E2E2E2E2E2E2E2E2E2E2E2E2E2E2E2E2E2E2E2E2E2E2E2E2E2E2E2E2E2E2E2E2E2E2E2E2E2E2E2E2E2E2E2E2E2E2E2E2E2E2E2E2E2E2E2E2E2E2E2E2E2E2E2E2E2E2E2E2E2E2E2E2E2E2E2E2E2E2E2E2E2E2E2E2E2E2E2E2E2E2
310
E2E2E2E2E2E2E2E2E2E2E2E2E2E2E2E2E2E2E2E2E2E2E2E2E2E2E2E2E2E2E2E2E2E2E2E2E2E2E2E2E2E2E2E2E2E2E2E2E2E2E2E2E2E2E2E2E2E2E2E2E2E2E2E2E2E2E2E2E2E2E2E2E2E2E2E2E2E2E2E2E2E2E2E2E2E2E2E2E2E2E2E2E2E2E2E2E2E2E2E2E2E2E2E2E2E2E2E2E2E2E2E2E2E2E2E2E2E2E2E2E2E2E2E2E2E2E2
310
E2E2E2E2E2E2E2E2E2E2E2E2E2E2E2E2E2E2E2E2E2E2E2E2E2E2E2E2E2E2E2E2E2E2E2E2E2E2E2E2E2E2E2E2E2E2E2E2E2E2E2E2E2E2E2E2E2E2E2E2E2E2E2E2E2E2E2E2E2E2E2E2E2E2E2E2E2E2E2E2E2E2E2E2E2E2E2E2E2E2E2E2E2E2E2E2E2E2E2E2E2E2E2E2E2E2E2E2E2E2E2E2E2E2E2E2E2E2E2E2E2E2E2E2E2E2E2
310
E2E2E2E2E2E2E2E2E2E2E2E2E2E2E2E2E2E2E2E2E2E2E2E2E2E2E2E2E2E2E2E2E2E2E2E2E2E2E2E2E2E2E2E2E2E2E2E2E2E2E2E2E2E2E2E2E2E2E2E2E2E2E2E2E2E2E2E2E2E2E2E2E2E2E2E2E2E2E2E2E2E2E2E2E2E2E2E2E2E2E2E2E2E2E2E2E2E2E2E2E2E2E2E2E2E2E2E2E2E2E2E2E2E2E2E2E2E2E2E2E2E2E2E2E2E2E2
310
E2E2E2E2E2E2E2E2E2E2E2E2E2E2E2E2E2E2E2E2E2E2E2E2E2E2E2E2E2E2E2E2E2E2E2E2E2E2E2E2E2E2E2E2E2E2E2E2E2E2E2E2E2E2E2E2E2E2E2E2E2E2E2E2E2E2E2E2E2E2E2E2E2E2E2E2E2E2E2E2E2E2E2E2E2E2E2E2E2E2E2E2E2E2E2E2E2E2E2E2E2E2E2E2E2E2E2E2E2E2E2E2E2E2E2E2E2E2E2E2E2E2E2E2E2E2E2
310
E2E2E2E2E2E2E2E2E2E2E2E2E2E2E2E2E2E2E2E2E2E2E2E2E2E2E2E2E2E2E2E2E2E2E2E2E2E2E2E2E2E2E2E2E2E2E2E2E2E2E2E2E2E2E2E2E2E2E2E2E2E2E2E2E2E2E2E2E2E2E2E2E2E2E2E2E2E2E2E2E2E2E2E2E2E2E2E2E2E2E2E2E2E2E2E2E2E2E2E2E2E2E2E2E2E2E2E2E2E2E2E2E2E2E2E2E2E2E2E2E2E2E2E2E2E2E2
310
E2E2E2E2E2E2E2E2E2E2E2E2E2E2E2E2E2E2E2E2E2E2E2E2E2E2E2E2E2E2E2E2E2E2E2E2E2E2E2E2E2E2E2E2E2E2E2E2E2E2E2E2E2E2E2E2E2E2E2E2E2E2E2E2E2E2E2E2E2E2E2E2E2E2E2E2E2E2E2E2E2E2E2E2E2E2E2E2E2E2E2E2E2E2E2E2E2E2E2E2E2E2E2E2E2E2E2E2E2E2E2E2E2E2E2E2E2E2E2E2E2E2E2E2E2E2E2
310
E2E2E2E2E2E2E2E2E2E2E2E2E2E2E2E2E2E2E2E2E2E2E2E2E2E2E2E2E2E2E2E2E2E2E2E2E2E2E2E2E2E2E2E2E2E2E2E2E2E2E2E2E2E2E2E2E2E2E2E2E2E2E2E2E2E2E2E2E2E2E2E2E2E2E2E2E2E2E2E2E2E2E2E2E2E2E2E2E2E2E2E2E2E2E2E2E2E2E2E2E2E2E2E2E2E2E2E2E2E2E2E2E2E2E2E2E2E2E2E2E2E2E2E2E2E2E2
310
E2E2E2E2E2E2E2E2E2E2E2E2E2E2E2E2E2E2E2E2E2E2E2E2E2E2E2E2E2E2E2E2E2E2E2E2E2E2E2E2E2E2E2E2E2E2E2E2E2E2E2E2E2E2E2E2E2E2E2E2E2E2E2E2E2E2E2E2E2E2E2E2E2E2E2E2E2E2E2E2E2E2E2E2E2E2E2E2E2E2E2E2E2E2E2E2E2E2E2E2E2E2E2E2E2E2E2E2E2E2E2E2E2E2E2E2E2E2E2E2E2E2E2E2E2E2E2
310
E2E2E2E2E2E2E2E2E2E2E2E2E2E2E2E2E2E2E2E2E2E2E2E2E2E2E2E2E2E2E2E2E2E2E2E2E2E2E2E2E2E2E2E2E2E2E2E2E2E2E2E2E2E2E2E2E2E2E2E2E2E2E2E2E2E2E2E2E2E2E2E2E2E2E2E2E2E2E2E2E2E2E2E2E2E2E2E2E2E2E2E2E2E2E2E2E2E2E2E2E2E2E2E2E2E2E2E2E2E2E2E2E2E2E2E2E2E2E2E2E2E2E2E2E2E2E2
310
E2E2E2E2E2E2E2E2E2E2E2E2E2E2E2E2E2E2E2E2E2E2E2E2E2E2E2E2E2E2E2E2E2E2E2E2E2E2E2E2E2E2E2E2E2E2E2E2E2E2E2E2E2E2E2E2E2E2E2E2E2E2E2E2E2E2E2E2E2E2E2E2E2E2E2E2E2E2E2E2E2E2E2E2E2E2E2E2E2E2E2E2E2E2E2E2E2E2E2E2E2E2E2E2E2E2E2E2E2E2E2E2E2E2E2E2E2E2E2E2E2E2E2E2E2E2E2
310
E2E2E2E2E2E2E2E2E2E2E2E2E2E2E2E2E2E2E2E2E2E2E2E2E2E2E2E2E2E2E2E2E2E2E2E2E2E2E2E2E2E2E2E2E2E2E2E2E2E2E2E2E2E2E2E2E2E2E2E2E2E2E2E2E2E2E2E2E2E2E2E2E2E2E2E2E2E2E2E2E2E2E2E2E2E2E2E2E2E2E2E2E2E2E2E2E2E2E2E2E2E2E2E2E2E2E2E2E2E2E2E2E2E2E2E2E2E2E2E2E2E2E2E2E2E2E2
310
E2E2E2E2E2E2E2E2E2E2E2E2E2E2E2E2E2E2E2E2E2E2E2E2E2E2E2E2E2E2E2E2E2E2E2E2E2E2E2E2E2E2E2E2E2E2E2E2E2E2E2E2E2E2E2E2E2E2E2E2E2E2E2E2E2E2E2E2E2E2E2E2E2E2E2E2E2E2E2E2E2E2E2E2E2E2E2E2E2E2E2E2E2E2E2E2E2E2E2E2E2E2E2E2E2E2E2E2E2E2E2E2E2E2E2E2E2E2E2E2E2E2E2E2E2E2E2
310
E2E2E2E2E2E2E2E2E2E2E2E2E2E2E2E2E2E2E2E2E2E2E2E2E2E2E2E2E2E2E2E2E2E2E2E2E2E2E2E2E2E2E2E2E2E2E2E2E2E2E2E2E2E2E2E2E2E2E2E2E2E2E2E2E2E2E2E2E2E2E2E2E2E2E2E2E2E2E2E2E2E2E2E2E2E2E2E2E2E2E2E2E2E2E2E2E2E2E2E2E2E2E2E2E2E2E2E2E2E2E2E2E2E2E2E2E2E2E2E2E2E2E2E2E2E2E2
310
E2E2E2E2E2E2E2E2E2E2E2E2E2E2E2E2E2E2E2E2E2E2E2E2E2E2E2E2E2E2E2E2E2E2E2E2E2E2E2E2E2E2E2E2E2E2E2E2E2E2E2E2E2E2E2E2E2E2E2E2E2E2E2E2E2E2E2E2E2E2E2E2E2E2E2E2E2E2E2E2E2E2E2E2E2E2E2E2E2E2E2E2E2E2E2E2E2E2E2E2E2E2E2E2E2E2E2E2E2E2E2E2E2E2E2E2E2E2E2E2E2E2E2E2E2E2E2
310
E2E2E2E2E2E2E2E2E2E2E2E2E2E2E2E2E2E2E2E2E2E2E2E2E2E2E2E2E2E2E2E2E2E2E2E2E2E2E2E2E2E2E2E2E2E2E2E2E2E2E2E2E2E2E2E2E2E2E2E2E2E2E2E2E2E2E2E2E2E2E2E2E2E2E2E2E2E2E2E2E2E2E2E2E2E2E2E2E2E2E2E2E2E2E2E2E2E2E2E2E2E2E2E2E2E2E2E2E2E2E2E2E2E2E2E2E2E2E2E2E2E2E2E2E2E2E2
310
E2E2E2E2E2E2E2E2E2E2E2E2E2E2E2E2E2E2E2E2E2E2E2E2E2E2E2E2E2E2E2E2E2E2E2E2E2E2E2E2E2E2E2E2E2E2E2E2E2E2E2E2E2E2E2E2E2E2E2E2E2E2E2E2E2E2E2E2E2E2E2E2E2E2E2E2E2E2E2E2E2E2E2E2E2E2E2E2E2E2E2E2E2E2E2E2E2E2E2E2E2E2E2E2E2E2E2E2E2E2E2E2E2E2E2E2E2E2E2E2E2E2E2E2E2E2E2
310
E2E2E2E2E2E2E2E2E2E2E2E2E2E2E2E2E2E2E2E2E2E2E2E2E2E2E2E2E2E2E2E2E2E2E2E2E2E2E2E2E2E2E2E2E2E2E2E2E2E2E2E2E2E2E2E2E2E2E2E2E2E2E2E2E2E2E2E2E2E2E2E2E2E2E2E2E2E2E2E2E2E2E2E2E2E2E2E2E2E2E2E2E2E2E2E2E2E2E2E2E2E2E2E2E2E2E2E2E2E2E2E2E2E2E2E2E2E2E2E2E2E2E2E2E2E2E2
310
E2E2E2E2E2E2E2E2E2E2E2E2E2E2E2E2E2E2E2E2E2E2E2E2E2E2E2E2E2E2E2E2E2E2E2E2E2E2E2E2E2E2E2E2E2E2E2E2E2E2E2E2E2E2E2E2E2E2E2E2E2E2E2E2E2E2E2E2E2E2E2E2E2E2E2E2E2E2E2E2E2E2E2E2E2E2E2E2E2E2E2E2E2E2E2E2E2E2E2E2E2E2E2E2E2E2E2E2E2E2E2E2E2E2E2E2E2E2E2E2E2E2E2E2E2E2E2
310
E2E2E2E2E2E2E2E2E2E2E2E2E2E2E2E2E2E2E2E2E2E2E2E2E2E2E2E2E2E2E2E2E2E2E2E2E2E2E2E2E2E2E2E2E2E2E2E2E2E2E2E2E2E2E2E2E2E2E2E2E2E2E2E2E2E2E2E2E2E2E2E2E2E2E2E2E2E2E2E2E2E2E2E2E2E2E2E2E2E2E2E2E2E2E2E2E2E2E2E2E2E2E2E2E2E2E2E2E2E2E2E2E2E2E2E2E2E2E2E2E2E2E2E2E2E2E2
310
E2E2E2E2E2E2E2E2E2E2E2E2E2E2E2E2E2E2E2E2E2E2E2E2E2E2E2E2E2E2E2E2E2E2E2E2E2E2E2E2E2E2E2E2E2E2E2E2E2E2E2E2E2E2E2E2E2E2E2E2E2E2E2E2E2E2E2E2E2E2E2E2E2E2E2E2E2E2E2E2E2E2E2E2E2E2E2E2E2E2E2E2E2E2E2E2E2E2E2E2E2E2E2E2E2E2E2E2E2E2E2E2E2E2E2E2E2E2E2E2E2E2E2E2E2E2E2
310
E2E2E2E2E2E2E2E2E2E2E2E2E2E2E2E2E2E2E2E2E2E2E2E2E2E2E2E2E2E2E2E2E2E2E2E2E2E2E2E2E2E2E2E2E2E2E2E2E2E2E2E2E2E2E2E2E2E2E2E2E2E2E2E2E2E2E2E2E2E2E2E2E2E2E2E2E2E2E2E2E2E2E2E2E2E2E2E2E2E2E2E2E2E2E2E2E2E2E2E2E2E2E2E2E2E2E2E2E2E2E2E2E2E2E2E2E2E2E2E2E2E2E2E2E2E2E2
310
E2E2E2E2E2E2E2E2E2E2E2E2E2E2E2E2E2E2E2E2E2E2E2E2E2E2E2E2E2E2E2E2E2E2E2E2E2E2E2E2E2E2E2E2E2E2E2E2E2E2E2E2E2E2E2E2E2E2E2E2E2E2E2E2E2E2E2E2E2E2E2E2E2E2E2E2E2E2E2E2E2E2E2E2E2E2E2E2E2E2E2E2E2E2E2E2E2E2E2E2E2E2E2E2E2E2E2E2E2E2E2E2E2E2E2E2E2E2E2E2E2E2E2E2E2E2E2
310
E2E2E2E2E2E2E2E2E2E2E2E2E2E2E2E2E2E2E2E2E2E2E2E2E2E2E2E2E2E2E2E2E2E2E2E2E2E2E2E2E2E2E2E2E2E2E2E2E2E2E2E2E2E2E2E2E2E2E2E2E2E2E2E2E2E2E2E2E2E2E2E2E2E2E2E2E2E2E2E2E2E2E2E2E2E2E2E2E2E2E2E2E2E2E2E2E2E2E2E2E2E2E2E2E2E2E2E2E2E2E2E2E2E2E2E2E2E2E2E2E2E2E2E2E2E2E2
310
E2E2E2E2E2E2E2E2E2E2E2E2E2E2E2E2E2E2E2E2E2E2E2E2E2E2E2E2E2E2E2E2E2E2E2E2E2E2E2E2E2E2E2E2E2E2E2E2E2E2E2E2E2E2E2E2E2E2E2E2E2E2E2E2E2E2E2E2E2E2E2E2E2E2E2E2E2E2E2E2E2E2E2E2E2E2E2E2E2E2E2E2E2E2E2E2E2E2E2E2E2E2E2E2E2E2E2E2E2E2E2E2E2E2E2E2E2E2E2E2E2E2E2E2E2E2E2
310
E2E2E2E2E2E2E2E2E2E2E2E2E2E2E2E2E2E2E2E2E2E2E2E2E2E2E2E2E2E2E2E2E2E2E2E2E2E2E2E2E2E2E2E2E2E2E2E2E2E2E2E2E2E2E2E2E2E2E2E2E2E2E2E2E2E2E2E2E2E2E2E2E2E2E2E2E2E2E2E2E2E2E2E2E2E2E2E2E2E2E2E2E2E2E2E2E2E2E2E2E2E2E2E2E2E2E2E2E2E2E2E2E2E2E2E2E2E2E2E2E2E2E2E2E2E2E2
310
E2E2E2E2E2E2E2E2E2E2E2E2E2E2E2E2E2E2E2E2E2E2E2E2E2E2E2E2E2E2E2E2E2E2E2E2E2E2E2E2E2E2E2E2E2E2E2E2E2E2E2E2E2E2E2E2E2E2E2E2E2E2E2E2E2E2E2E2E2E2E2E2E2E2E2E2E2E2E2E2E2E2E2E2E2E2E2E2E2E2E2E2E2E2E2E2E2E2E2E2E2E2E2E2E2E2E2E2E2E2E2E2E2E2E2E2E2E2E2E2E2E2E2E2E2E2E2
310
E2E2E2E2E2E2E2E2E2E2E2E2E2E2E2E2E2E2E2E2E2E2E2E2E2E2E2E2E2E2E2E2E2E2E2E2E2E2E2E2E2E2E2E2E2E2E2E2E2E2E2E2E2E2E2E2E2E2E2E2E2E2E2E2E2E2E2E2E2E2E2E2E2E2E2E2E2E2E2E2E2E2E2E2E2E2E2E2E2E2E2E2E2E2E2E2E2E2E2E2E2E2E2E2E2E2E2E2E2E2E2E2E2E2E2E2E2E2E2E2E2E2E2E2E2E2E2
310
E2E2E2E2E2E2E2E2E2E2E2E2E2E2E2E2E2E2E2E2E2E2E2E2E2E2E2E2E2E2E2E2E2E2E2E2E2E2E2E2E2E2E2E2E2E2E2E2E2E2E2E2E2E2E2E2E2E2E2E2E2E2E2E2E2E2E2E2E2E2E2E2E2E2E2E2E2E2E2E2E2E2E2E2E2E2E2E2E2E2E2E2E2E2E2E2E2E2E2E2E2E2E2E2E2E2E2E2E2E2E2E2E2E2E2E2E2E2E2E2E2E2E2E2E2E2E2
310
E2E2E2E2E2E2E2E2E2E2E2E2E2E2E2E2E2E2E2E2E2E2E2E2E2E2E2E2E2E2E2E2E2E2E2E2E2E2E2E2E2E2E2E2E2E2E2E2E2E2E2E2E2E2E2E2E2E2E2E2E2E2E2E2E2E2E2E2E2E2E2E2E2E2E2E2E2E2E2E2E2E2E2E2E2E2E2E2E2E2E2E2E2E2E2E2E2E2E2E2E2E2E2E2E2E2E2E2E2E2E2E2E2E2E2E2E2E2E2E2E2E2E2E2E2E2E2
310
E2E2E2E2E2E2E2E2E2E2E2E2E2E2E2E2E2E2E2E2E2E2E2E2E2E2E2E2E2E2E2E2E2E2E2E2E2E2E2E2E2E2E2E2E2E2E2E2E2E2E2E2E2E2E2E2E2E2E2E2E2E2E2E2E2E2E2E2E2E2E2E2E2E2E2E2E2E2E2E2E2E2E2E2E2E2E2E2E2E2E2E2E2E2E2E2E2E2E2E2E2E2E2E2E2E2E2E2E2E2E2E2E2E2E2E2E2E2E2E2E2E2E2E2E2E2E2
310
E2E2E2E2E2E2E2E2E2E2E2E2E2E2E2E2E2E2E2E2E2E2E2E2E2E2E2E2E2E2E2E2E2E2E2E2E2E2E2E2E2E2E2E2E2E2E2E2E2E2E2E2E2E2E2E2E2E2E2E2E2E2E2E2E2E2E2E2E2E2E2E2E2E2E2E2E2E2E2E2E2E2E2E2E2E2E2E2E2E2E2E2E2E2E2E2E2E2E2E2E2E2E2E2E2E2E2E2E2E2E2E2E2E2E2E2E2E2E2E2E2E2E2E2E2E2E2
310
E2E2E2E2E2E2E2E2E2E2E2E2E2E2E2E2E2E2E2E2E2E2E2E2E2E2E2E2E2E2E2E2E2E2E2E2E2E2E2E2E2E2E2E2E2E2E2E2E2E2E2E2E2E2E2E2E2E2E2E2E2E2E2E2E2E2E2E2E2E2E2E2E2E2E2E2E2E2E2E2E2E2E2E2E2E2E2E2E2E2E2E2E2E2E2E2E2E2E2E2E2E2E2E2E2E2E2E2E2E2E2E2E2E2E2E2E2E2E2E2E2E2E2E2E2E2E2
310
E2E2E2E2E2E2E2E2E2E2E2E2E2E2E2E2E2E2E2E2E2E2E2E2E2E2E2E2E2E2E2E2E2E2E2E2E2E2E2E2E2E2E2E2E2E2E2E2E2E2E2E2E2E2E2E2E2E2E2E2E2E2E2E2E2E2E2E2E2E2E2E2E2E2E2E2E2E2E2E2E2E2E2E2E2E2E2E2E2E2E2E2E2E2E2E2E2E2E2E2E2E2E2E2E2E2E2E2E2E2E2E2E2E2E2E2E2E2E2E2E2E2E2E2E2E2E2
310
E2E2E2E2E2E2E2E2E2E2E2E2E2E2E2E2E2E2E2E2E2E2E2E2E2E2E2E2E2E2E2E2E2E2E2E2E2E2E2E2E2E2E2E2E2E2E2E2E2E2E2E2E2E2E2E2E2E2E2E2E2E2E2E2E2E2E2E2E2E2E2E2E2E2E2E2E2E2E2E2E2E2E2E2E2E2E2E2E2E2E2E2E2E2E2E2E2E2E2E2E2E2E2E2E2E2E2E2E2E2E2E2E2E2E2E2E2E2E2E2E2E2E2E2E2E2E2
310
E2E2E2E2E2E2E2E2E2E2E2E2E2E2E2E2E2E2E2E2E2E2E2E2E2E2E2E2E2E2E2E2E2E2E2E2E2E2E2E2E2E2E2E2E2E2E2E2E2E2E2E2E2E2E2E2E2E2E2E2E2E2E2E2E2E2E2E2E2E2E2E2E2E2E2E2E2E2E2E2E2E2E2E2E2E2E2E2E2E2E2E2E2E2E2E2E2E2E2E2E2E2E2E2E2E2E2E2E2E2E2E2E2E2E2E2E2E2E2E2E2E2E2E2E2E2E2
310
E2E2E2E2E2E2E2E2E2E2E2E2E2E2E2E2E2E2E2E2E2E2E2E2E2E2E2E2E2E2E2E2E2E2E2E2E2E2E2E2E2E2E2E2E2E2E2E2E2E2E2E2E2E2E2E2E2E2E2E2E2E2E2E2E2E2E2E2E2E2E2E2E2E2E2E2E2E2E2E2E2E2E2E2E2E2E2E2E2E2E2E2E2E2E2E2E2E2E2E2E2E2E2E2E2E2E2E2E2E2E2E2E2E2E2E2E2E2E2E2E2E2E2E2E2E2E2
310
E2E2E2E2E2E2E2E2E2E2E2E2E2E2E2E2E2E2E2E2E2E2E2E2E2E2E2E2E2E2E2E2E2E2E2E2E2E2E2E2E2E2E2E2E2E2E2E2E2E2E2E2E2E2E2E2E2E2E2E2E2E2E2E2E2E2E2E2E2E2E2E2E2E2E2E2E2E2E2E2E2E2E2E2E2E2E2E2E2E2E2E2E2E2E2E2E2E2E2E2E2E2E2E2E2E2E2E2E2E2E2E2E2E2E2E2E2E2E2E2E2E2E2E2E2E2E2
310
E2E2E2E2E2E2E2E2E2E2E2E2E2E2E2E2E2E2E2E2E2E2E2E2E2E2E2E2E2E2E2E2E2E2E2E2E2E2E2E2E2E2E2E2E2E2E2E2E2E2E2E2E2E2E2E2E2E2E2E2E2E2E2E2E2E2E2E2E2E2E2E2E2E2E2E2E2E2E2E2E2E2E2E2E2E2E2E2E2E2E2E2E2E2E2E2E2E2E2E2E2E2E2E2E2E2E2E2E2E2E2E2E2E2E2E2E2E2E2E2E2E2E2E2E2E2E2
310
E2E2E2E2E2E2E2E2E2E2E2E2E2E2E2E2E2E2E2E2E2E2E2E2E2E2E2E2E2E2E2E2E2E2E2E2E2E2E2E2E2E2E2E2E2E2E2E2E2E2E2E2E2E2E2E2E2E2E2E2E2E2E2E2E2E2E2E2E2E2E2E2E2E2E2E2E2E2E2E2E2E2E2E2E2E2E2E2E2E2E2E2E2E2E2E2E2E2E2E2E2E2E2E2E2E2E2E2E2E2E2E2E2E2E2E2E2E2E2E2E2E2E2E2E2E2E2
310
E2E2E2E2E2E2E2E2E2E2E2E2E2E2E2E2E2E2E2E2E2E2E2E2E2E2E2E2E2E2E2E2E2E2E2E2E2E2E2E2E2E2E2E2E2E2E2E2E2E2E2E2E2E2E2E2E2E2E2E2E2E2E2E2E2E2E2E2E2E2E2E2E2E2E2E2E2E2E2E2E2E2E2E2E2E2E2E2E2E2E2E2E2E2E2E2E2E2E2E2E2E2E2E2E2E2E2E2E2E2E2E2E2E2E2E2E2E2E2E2E2E2E2E2E2E2E2
310
E2E2E2E2E2E2E2E2E2E2E2E2E2E2E2E2E2E2E2E2E2E2E2E2E2E2E2E2E2E2E2E2E2E2E2E2E2E2E2E2E2E2E2E2E2E2E2E2E2E2E2E2E2E2E2E2E2E2E2E2E2E2E2E2E2E2E2E2E2E2E2E2E2E2E2E2E2E2E2E2E2E2E2E2E2E2E2E2E2E2E2E2E2E2E2E2E2E2E2E2E2E2E2E2E2E2E2E2E2E2E2E2E2E2E2E2E2E2E2E2E2E2E2E2E2E2E2
310
E2E2E2E2E2E2E2E2E2E2E2E2E2E2E2E2E2E2E2E2E2E2E2E2E2E2E2E2E2E2E2E2E2E2E2E2E2E2E2E2E2E2E2E2E2E2E2E2E2E2E2E2E2E2E2E2E2E2E2E2E2E2E2E2E2E2E2E2E2E2E2E2E2E2E2E2E2E2E2E2E2E2E2E2E2E2E2E2E2E2E2E2E2E2E2E2E2E2E2E2E2E2E2E2E2E2E2E2E2E2E2E2E2E2E2E2E2E2E2E2E2E2E2E2E2E2E2
310
E2E2E2E2E2E2E2E2E2E2E2E2E2E2E2E2E2E2E2E2E2E2E2E2E2E2E2E2E2E2E2E2E2E2E2E2E2E2E2E2E2E2E2E2E2E2E2E2E2E2E2E2E2E2E2E2E2E2E2E2E2E2E2E2E2E2E2E2E2E2E2E2E2E2E2E2E2E2E2E2E2E2E2E2E2E2E2E2E2E2E2E2E2E2E2E2E2E2E2E2E2E2E2E2E2E2E2E2E2E2E2E2E2E2E2E2E2E2E2E2E2E2E2E2E2E2E2
310
E2E2E2E2E2E2E2E2E2E2E2E2E2E2E2E2E2E2E2E2E2E2E2E2E2E2E2E2E2E2E2E2E2E2E2E2E2E2E2E2E2E2E2E2E2E2E2E2E2E2E2E2E2E2E2E2E2E2E2E2E2E2E2E2E2E2E2E2E2E2E2E2E2E2E2E2E2E2E2E2E2E2E2E2E2E2E2E2E2E2E2E2E2E2E2E2E2E2E2E2E2E2E2E2E2E2E2E2E2E2E2E2E2E2E2E2E2E2E2E2E2E2E2E2E2E2E2
310
E2E2E2E2E2E2E2E2E2E2E2E2E2E2E2E2E2E2E2E2E2E2E2E2E2E2E2E2E2E2E2E2E2E2E2E2E2E2E2E2E2E2E2E2E2E2E2E2E2E2E2E2E2E2E2E2E2E2E2E2E2E2E2E2E2E2E2E2E2E2E2E2E2E2E2E2E2E2E2E2E2E2E2E2E2E2E2E2E2E2E2E2E2E2E2E2E2E2E2E2E2E2E2E2E2E2E2E2E2E2E2E2E2E2E2E2E2E2E2E2E2E2E2E2E2E2E2
310
E2E2E2E2E2E2E2E2E2E2E2E2E2E2E2E2E2E2E2E2E2E2E2E2E2E2E2E2E2E2E2E2E2E2E2E2E2E2E2E2E2E2E2E2E2E2E2E2E2E2E2E2E2E2E2E2E2E2E2E2E2E2E2E2E2E2E2E2E2E2E2E2E2E2E2E2E2E2E2E2E2E2E2E2E2E2E2E2E2E2E2E2E2E2E2E2E2E2E2E2E2E2E2E2E2E2E2E2E2E2E2E2E2E2E2E2E2E2E2E2E2E2E2E2E2E2E2
310
E2E2E2E2E2E2E2E2E2E2E2E2E2E2E2E2E2E2E2E2E2E2E2E2E2E2E2E2E2E2E2E2E2E2E2E2E2E2E2E2E2E2E2E2E2E2E2E2E2E2E2E2E2E2E2E2E2E2E2E2E2E2E2E2E2E2E2E2E2E2E2E2E2E2E2E2E2E2E2E2E2E2E2E2E2E2E2E2E2E2E2E2E2E2E2E2E2E2E2E2E2E2E2E2E2E2E2E2E2E2E2E2E2E2E2E2E2E2E2E2E2E2E2E2E2E2E2
310
E2E2E2E2E2E2E2E2E2E2E2E2E2E2E2E2E2E2E2E2E2E2E2E2E2E2E2E2E2E2E2E2E2E2E2E2E2E2E2E2E2E2E2E2E2E2E2E2E2E2E2E2E2E2E2E2E2E2E2E2E2E2E2E2E2E2E2E2E2E2E2E2E2E2E2E2E2E2E2E2E2E2E2E2E2E2E2E2E2E2E2E2E2E2E2E2E2E2E2E2E2E2E2E2E2E2E2E2E2E2E2E2E2E2E2E2E2E2E2E2E2E2E2E2E2E2E2
310
E2E2E2E2E2E2E2E2E2E2E2E2E2E2E2E2E2E2E2E2E2E2E2E2E2E2E2E2E2E2E2E2E2E2E2E2E2E2E2E2E2E2E2E2E2E2E2E2E2E2E2E2E2E2E2E2E2E2E2E2E2E2E2E2E2E2E2E2E2E2E2E2E2E2E2E2E2E2E2E2E2E2E2E2E2E2E2E2E2E2E2E2E2E2E2E2E2E2E2E2E2E2E2E2E2E2E2E2E2E2E2E2E2E2E2E2E2E2E2E2E2E2E2E2E2E2E2
310
E2E2E2E2E2E2E2E2E2E2E2E2E2E2E2E2E2E2E2E2E2E2E2E2E2E2E2E2E2E2E2E2E2E2E2E2E2E2E2E2E2E2E2E2E2E2E2E2E2E2E2E2E2E2E2E2E2E2E2E2E2E2E2E2E2E2E2E2E2E2E2E2E2E2E2E2E2E2E2E2E2E2E2E2E2E2E2E2E2E2E2E2E2E2E2E2E2E2E2E2E2E2E2E2E2E2E2E2E2E2E2E2E2E2E2E2E2E2E2E2E2E2E2E2E2E2E2
310
E2E2E2E2E2E2E2E2E2E2E2E2E2E2E2E2E2E2E2E2E2E2E2E2E2E2E2E2E2E2E2E2E2E2E2E2E2E2E2E2E2E2E2E2E2E2E2E2E2E2E2E2E2E2E2E2E2E2E2E2E2E2E2E2E2E2E2E2E2E2E2E2E2E2E2E2E2E2E2E2E2E2E2E2E2E2E2E2E2E2E2E2E2E2E2E2E2E2E2E2E2E2E2E2E2E2E2E2E2E2E2E2E2E2E2E2E2E2E2E2E2E2E2E2E2E2E2
310
E2E2E2E2E2E2E2E2E2E2E2E2E2E2E2E2E2E2E2E2E2E2E2E2E2E2E2E2E2E2E2E2E2E2E2E2E2E2E2E2E2E2E2E2E2E2E2E2E2E2E2E2E2E2E2E2E2E2E2E2E2E2E2E2E2E2E2E2E2E2E2E2E2E2E2E2E2E2E2E2E2E2E2E2E2E2E2E2E2E2E2E2E2E2E2E2E2E2E2E2E2E2E2E2E2E2E2E2E2E2E2E2E2E2E2E2E2E2E2E2E2E2E2E2E2E2E2
310
E2E2E2E2E2E2E2E2E2E2E2E2E2E2E2E2E2E2E2E2E2E2E2E2E2E2E2E2E2E2E2E2E2E2E2E2E2E2E2E2E2E2E2E2E2E2E2E2E2E2E2E2E2E2E2E2E2E2E2E2E2E2E2E2E2E2E2E2E2E2E2E2E2E2E2E2E2E2E2E2E2E2E2E2E2E2E2E2E2E2E2E2E2E2E2E2E2E2E2E2E2E2E2E2E2E2E2E2E2E2E2E2E2E2E2E2E2E2E2E2E2E2E2E2E2E2E2
310
E2E2E2E2E2E2E2E2E2E2E2E2E2E2E2E2E2E2E2E2E2E2E2E2E2E2E2E2E2E2E2E2E2E2E2E2E2E2E2E2E2E2E2E2E2E2E2E2E2E2E2E2E2E2E2E2E2E2E2E2E2E2E2E2E2E2E2E2E2E2E2E2E2E2E2E2E2E2E2E2E2E2E2E2E2E2E2E2E2E2E2E2E2E2E2E2E2E2E2E2E2E2E2E2E2E2E2E2E2E2E2E2E2E2E2E2E2E2E2E2E2E2E2E2E2E2E2
310
E2E2E2E2E2E2E2E2E2E2E2E2E2E2E2E2E2E2E2E2E2E2E2E2E2E2E2E2E2E2E2E2E2E2E2E2E2E2E2E2E2E2E2E2E2E2E2E2E2E2E2E2E2E2E2E2E2E2E2E2E2E2E2E2E2E2E2E2E2E2E2E2E2E2E2E2E2E2E2E2E2E2E2E2E2E2E2E2E2E2E2E2E2E2E2E2E2E2E2E2E2E2E2E2E2E2E2E2E2E2E2E2E2E2E2E2E2E2E2E2E2E2E2E2E2E2E2
310
E2E2E2E2E2E2E2E2E2E2E2E2E2E2E2E2E2E2E2E2E2E2E2E2E2E2E2E2E2E2E2E2E2E2E2E2E2E2E2E2E2E2E2E2E2E2E2E2E2E2E2E2E2E2E2E2E2E2E2E2E2E2E2E2E2E2E2E2E2E2E2E2E2E2E2E2E2E2E2E2E2E2E2E2E2E2E2E2E2E2E2E2E2E2E2E2E2E2E2E2E2E2E2E2E2E2E2E2E2E2E2E2E2E2E2E2E2E2E2E2E2E2E2E2E2E2E2
310
E2E2E2E2E2E2E2E2E2E2E2E2E2E2E2E2E2E2E2E2E2E2E2E2E2E2E2E2E2E2E2E2E2E2E2E2E2E2E2E2E2E2E2E2E2E2E2E2E2E2E2E2E2E2E2E2E2E2E2E2E2E2E2E2E2E2E2E2E2E2E2E2E2E2E2E2E2E2E2E2E2E2E2E2E2E2E2E2E2E2E2E2E2E2E2E2E2E2E2E2E2E2E2E2E2E2E2E2E2E2E2E2E2E2E2E2E2E2E2E2E2E2E2E2E2E2E2
310
E2E2E2E2E2E2E2E2E2E2E2E2E2E2E2E2E2E2E2E2E2E2E2E2E2E2E2E2E2E2E2E2E2E2E2E2E2E2E2E2E2E2E2E2E2E2E2E2E2E2E2E2E2E2E2E2E2E2E2E2E2E2E2E2E2E2E2E2E2E2E2E2E2E2E2E2E2E2E2E2E2E2E2E2E2E2E2E2E2E2E2E2E2E2E2E2E2E2E2E2E2E2E2E2E2E2E2E2E2E2E2E2E2E2E2E2E2E2E2E2E2E2E2E2E2E2E2
310
E2E2E2E2E2E2E2E2E2E2E2E2E2E2E2E2E2E2E2E2E2E2E2E2E2E2E2E2E2E2E2E2E2E2E2E2E2E2E2E2E2E2E2E2E2E2E2E2E2E2E2E2E2E2E2E2E2E2E2E2E2E2E2E2E2E2E2E2E2E2E2E2E2E2E2E2E2E2E2E2E2E2E2E2E2E2E2E2E2E2E2E2E2E2E2E2E2E2E2E2E2E2E2E2E2E2E2E2E2E2E2E2E2E2E2E2E2E2E2E2E2E2E2E2E2E2E2
310
E2E2E2E2E2E2E2E2E2E2E2E2E2E2E2E2E2E2E2E2E2E2E2E2E2E2E2E2E2E2E2E2E2E2E2E2E2E2E2E2E2E2E2E2E2E2E2E2E2E2E2E2E2E2E2E2E2E2E2E2E2E2E2E2E2E2E2E2E2E2E2E2E2E2E2E2E2E2E2E2E2E2E2E2E2E2E2E2E2E2E2E2E2E2E2E2E2E2E2E2E2E2E2E2E2E2E2E2E2E2E2E2E2E2E2E2E2E2E2E2E2E2E2E2E2E2E2
310
E2E2E2E2E2E2E2E2E2E2E2E2E2E2E2E2E2E2E2E2E2E2E2E2E2E2E2E2E2E2E2E2E2E2E2E2E2E2E2E2E2E2E2E2E2E2E2E2E2E2E2E2E2E2E2E2E2E2E2E2E2E2E2E2E2E2E2E2E2E2E2E2E2E2E2E2E2E2E2E2E2E2E2E2E2E2E2E2E2E2E2E2E2E2E2E2E2E2E2E2E2E2E2E2E2E2E2E2E2E2E2E2E2E2E2E2E2E2E2E2E2E2E2E2E2E2E2
310
E2E2E2E2E2E2E2E2E2E2E2E2E2E2E2E2E2E2E2E2E2E2E2E2E2E2E2E2E2E2E2E2E2E2E2E2E2E2E2E2E2E2E2E2E2E2E2E2E2E2E2E2E2E2E2E2E2E2E2E2E2E2E2E2E2E2E2E2E2E2E2E2E2E2E2E2E2E2E2E2E2E2E2E2E2E2E2E2E2E2E2E2E2E2E2E2E2E2E2E2E2E2E2E2E2E2E2E2E2E2E2E2E2E2E2E2E2E2E2E2E2E2E2E2E2E2E2
310
E2E2E2E2E2E2E2E2E2E2E2E2E2E2E2E2E2E2E2E2E2E2E2E2E2E2E2E2E2E2E2E2E2E2E2E2E2E2E2E2E2E2E2E2E2E2E2E2E2E2E2E2E2E2E2E2E2E2E2E2E2E2E2E2E2E2E2E2E2E2E2E2E2E2E2E2E2E2E2E2E2E2E2E2E2E2E2E2E2E2E2E2E2E2E2E2E2E2E2E2E2E2E2E2E2E2E2E2E2E2E2E2E2E2E2E2E2E2E2E2E2E2E2E2E2E2E2
310
E2E2E2E2E2E2E2E2E2E2E2E2E2E2E2E2E2E2E2E2E2E2E2E2E2E2E2E2E2E2E2E2E2E2E2E2E2E2E2E2E2E2E2E2E2E2E2E2E2E2E2E2E2E2E2E2E2E2E2E2E2E2E2E2E2E2E2E2E2E2E2E2E2E2E2E2E2E2E2E2E2E2E2E2E2E2E2E2E2E2E2E2E2E2E2E2E2E2E2E2E2E2E2E2E2E2E2E2E2E2E2E2E2E2E2E2E2E2E2E2E2E2E2E2E2E2E2
310
E2E2E2E2E2E2E2E2E2E2E2E2E2E2E2E2E2E2E2E2E2E2E2E2E2E2E2E2E2E2E2E2E2E2E2E2E2E2
  0
XRECORD
  5
5DA
102
{ACAD_REACTORS
330
5D9
102
}
330
5D9
100
AcDbXrecord
280
     1
102
MATERIAL
148
0.0
149
0.0
149
0.0
 93
        0
 94
      127
282
     0
 72
     1
 77
     1
171
     1
175
     1
179
     1
273
     0
  0
XRECORD
  5
5D8
102
{ACAD_REACTORS
330
5D7
102
}
330
5D7
100
AcDbXrecord
280
     1
102
MATERIAL
148
0.0
149
0.0
149
0.0
 93
        0
 94
      127
282
     0
 72
     1
 77
     1
171
     1
175
     1
179
     1
273
     0
  0
XRECORD
  5
5D3
102
{ACAD_REACTORS
330
5D2
102
}
330
5D2
100
AcDbXrecord
280
     1
102
MATERIAL
148
0.0
149
0.0
149
0.0
 93
        0
 94
      127
282
     0
 72
     1
 77
     1
171
     1
175
     1
179
     1
273
     0
  0
CELLSTYLEMAP
  5
EF9
102
{ACAD_REACTORS
330
45
102
}
330
45
100
AcDbCellStyleMap
 90
        3
300
CELLSTYLE
  1
TABLEFORMAT_BEGIN
 90
        5
170
     1
 91
        0
 92
    32768
 62
   257
 93
        1
300
CONTENTFORMAT
  1
CONTENTFORMAT_BEGIN
 90
        0
 91
        0
 92
      512
 93
        0
300

 40
0.0
140
1.0
 94
        5
 62
     0
340
1D
144
0.25
309
CONTENTFORMAT_END
171
     1
301
MARGIN
  1
CELLMARGIN_BEGIN
 40
0.06
 40
0.06
 40
0.06
 40
0.06
 40
0.18
 40
0.18
309
CELLMARGIN_END
 94
        6
 95
        1
302
GRIDFORMAT
  1
GRIDFORMAT_BEGIN
 90
        0
 91
        1
 62
     0
 92
       -2
340
0
 93
        0
 40
0.045
309
GRIDFORMAT_END
 95
        2
302
GRIDFORMAT
  1
GRIDFORMAT_BEGIN
 90
        0
 91
        1
 62
     0
 92
       -2
340
0
 93
        0
 40
0.045
309
GRIDFORMAT_END
 95
        4
302
GRIDFORMAT
  1
GRIDFORMAT_BEGIN
 90
        0
 91
        1
 62
     0
 92
       -2
340
0
 93
        0
 40
0.045
309
GRIDFORMAT_END
 95
        8
302
GRIDFORMAT
  1
GRIDFORMAT_BEGIN
 90
        0
 91
        1
 62
     0
 92
       -2
340
0
 93
        0
 40
0.045
309
GRIDFORMAT_END
 95
       16
302
GRIDFORMAT
  1
GRIDFORMAT_BEGIN
 90
        0
 91
        1
 62
     0
 92
       -2
340
0
 93
        0
 40
0.045
309
GRIDFORMAT_END
 95
       32
302
GRIDFORMAT
  1
GRIDFORMAT_BEGIN
 90
        0
 91
        1
 62
     0
 92
       -2
340
0
 93
        0
 40
0.045
309
GRIDFORMAT_END
309
TABLEFORMAT_END
  1
CELLSTYLE_BEGIN
 90
        1
 91
        1
300
_TITLE
309
CELLSTYLE_END
300
CELLSTYLE
  1
TABLEFORMAT_BEGIN
 90
        5
170
     1
 91
        0
 92
        0
 62
   257
 93
        1
300
CONTENTFORMAT
  1
CONTENTFORMAT_BEGIN
 90
        0
 91
        0
 92
      512
 93
        0
300

 40
0.0
140
1.0
 94
        5
 62
     0
340
1D
144
0.18
309
CONTENTFORMAT_END
171
     1
301
MARGIN
  1
CELLMARGIN_BEGIN
 40
0.06
 40
0.06
 40
0.06
 40
0.06
 40
0.18
 40
0.18
309
CELLMARGIN_END
 94
        6
 95
        1
302
GRIDFORMAT
  1
GRIDFORMAT_BEGIN
 90
        0
 91
        1
 62
     0
 92
       -2
340
0
 93
        0
 40
0.045
309
GRIDFORMAT_END
 95
        2
302
GRIDFORMAT
  1
GRIDFORMAT_BEGIN
 90
        0
 91
        1
 62
     0
 92
       -2
340
0
 93
        0
 40
0.045
309
GRIDFORMAT_END
 95
        4
302
GRIDFORMAT
  1
GRIDFORMAT_BEGIN
 90
        0
 91
        1
 62
     0
 92
       -2
340
0
 93
        0
 40
0.045
309
GRIDFORMAT_END
 95
        8
302
GRIDFORMAT
  1
GRIDFORMAT_BEGIN
 90
        0
 91
        1
 62
     0
 92
       -2
340
0
 93
        0
 40
0.045
309
GRIDFORMAT_END
 95
       16
302
GRIDFORMAT
  1
GRIDFORMAT_BEGIN
 90
        0
 91
        1
 62
     0
 92
       -2
340
0
 93
        0
 40
0.045
309
GRIDFORMAT_END
 95
       32
302
GRIDFORMAT
  1
GRIDFORMAT_BEGIN
 90
        0
 91
        1
 62
     0
 92
       -2
340
0
 93
        0
 40
0.045
309
GRIDFORMAT_END
309
TABLEFORMAT_END
  1
CELLSTYLE_BEGIN
 90
        2
 91
        1
300
_HEADER
309
CELLSTYLE_END
300
CELLSTYLE
  1
TABLEFORMAT_BEGIN
 90
        5
170
     1
 91
        0
 92
        0
 62
   257
 93
        1
300
CONTENTFORMAT
  1
CONTENTFORMAT_BEGIN
 90
        0
 91
        0
 92
      512
 93
        0
300

 40
0.0
140
1.0
 94
        2
 62
     0
340
1D
144
0.18
309
CONTENTFORMAT_END
171
     1
301
MARGIN
  1
CELLMARGIN_BEGIN
 40
0.06
 40
0.06
 40
0.06
 40
0.06
 40
0.18
 40
0.18
309
CELLMARGIN_END
 94
        6
 95
        1
302
GRIDFORMAT
  1
GRIDFORMAT_BEGIN
 90
        0
 91
        1
 62
     0
 92
       -2
340
0
 93
        0
 40
0.045
309
GRIDFORMAT_END
 95
        2
302
GRIDFORMAT
  1
GRIDFORMAT_BEGIN
 90
        0
 91
        1
 62
     0
 92
       -2
340
0
 93
        0
 40
0.045
309
GRIDFORMAT_END
 95
        4
302
GRIDFORMAT
  1
GRIDFORMAT_BEGIN
 90
        0
 91
        1
 62
     0
 92
       -2
340
0
 93
        0
 40
0.045
309
GRIDFORMAT_END
 95
        8
302
GRIDFORMAT
  1
GRIDFORMAT_BEGIN
 90
        0
 91
        1
 62
     0
 92
       -2
340
0
 93
        0
 40
0.045
309
GRIDFORMAT_END
 95
       16
302
GRIDFORMAT
  1
GRIDFORMAT_BEGIN
 90
        0
 91
        1
 62
     0
 92
       -2
340
0
 93
        0
 40
0.045
309
GRIDFORMAT_END
 95
       32
302
GRIDFORMAT
  1
GRIDFORMAT_BEGIN
 90
        0
 91
        1
 62
     0
 92
       -2
340
0
 93
        0
 40
0.045
309
GRIDFORMAT_END
309
TABLEFORMAT_END
  1
CELLSTYLE_BEGIN
 90
        3
 91
        2
300
_DATA
309
CELLSTYLE_END
  0
XRECORD
  5
F00
102
{ACAD_REACTORS
330
45
102
}
330
45
100
AcDbXrecord
280
     1
102
ACAD_ROUNDTRIP_PRE2007_TABLESTYLE
 90
      512
 91
        0
  1

 92
      512
 93
        0
  2

 94
      512
 95
        0
  3

  0
ENDSEC
  0
EOF
