  0
SECTION
  2
HEADER
  9
$ACADVER
  1
AC1015
  9
$ACADMAINTVER
 70
    20
  9
$DWGCODEPAGE
  3
ANSI_932
  9
$INSBASE
 10
0.0
 20
0.0
 30
0.0
  9
$EXTMIN
 10
-497.7308489845336
 20
-1372.65449301107
 30
-0.00000001
  9
$EXTMAX
 10
598.979136770161
 20
-356.7315043026247
 30
0.00000001
  9
$LIMMIN
 10
0.0
 20
0.0
  9
$LIMMAX
 10
420.0
 20
297.0
  9
$ORTHOMODE
 70
     1
  9
$REGENMODE
 70
     1
  9
$FILLMODE
 70
     1
  9
$QTEXTMODE
 70
     0
  9
$MIRRTEXT
 70
     1
  9
$LTSCALE
 40
1.0
  9
$ATTMODE
 70
     1
  9
$TEXTSIZE
 40
62.5215949741746
  9
$TRACEWID
 40
1.0
  9
$TEXTSTYLE
  7
STANDARD
  9
$CLAYER
  8
0
  9
$CELTYPE
  6
BYLAYER
  9
$CECOLOR
 62
   256
  9
$CELTSCALE
 40
1.0
  9
$DISPSILH
 70
     0
  9
$DIMSCALE
 40
5.0
  9
$DIMASZ
 40
2.0
  9
$DIMEXO
 40
1.0
  9
$DIMDLI
 40
3.75
  9
$DIMRND
 40
0.5
  9
$DIMDLE
 40
0.0
  9
$DIMEXE
 40
1.0
  9
$DIMTP
 40
0.0
  9
$DIMTM
 40
0.0
  9
$DIMTXT
 40
2.0
  9
$DIMCEN
 40
2.5
  9
$DIMTSZ
 40
0.0
  9
$DIMTOL
 70
     0
  9
$DIMLIM
 70
     0
  9
$DIMTIH
 70
     0
  9
$DIMTOH
 70
     0
  9
$DIMSE1
 70
     0
  9
$DIMSE2
 70
     0
  9
$DIMTAD
 70
     1
  9
$DIMZIN
 70
     8
  9
$DIMBLK
  1

  9
$DIMASO
 70
     1
  9
$DIMSHO
 70
     1
  9
$DIMPOST
  1

  9
$DIMAPOST
  1

  9
$DIMALT
 70
     0
  9
$DIMALTD
 70
     4
  9
$DIMALTF
 40
0.0394
  9
$DIMLFAC
 40
1.0
  9
$DIMTOFL
 70
     1
  9
$DIMTVP
 40
0.0
  9
$DIMTIX
 70
     0
  9
$DIMSOXD
 70
     0
  9
$DIMSAH
 70
     1
  9
$DIMBLK1
  1
OPEN30
  9
$DIMBLK2
  1
OPEN30
  9
$DIMSTYLE
  2
STANDARD
  9
$DIMCLRD
 70
     0
  9
$DIMCLRE
 70
     0
  9
$DIMCLRT
 70
     0
  9
$DIMTFAC
 40
1.0
  9
$DIMGAP
 40
1.0
  9
$DIMJUST
 70
     0
  9
$DIMSD1
 70
     0
  9
$DIMSD2
 70
     0
  9
$DIMTOLJ
 70
     1
  9
$DIMTZIN
 70
     8
  9
$DIMALTZ
 70
     0
  9
$DIMALTTZ
 70
     0
  9
$DIMUPT
 70
     0
  9
$DIMDEC
 70
     1
  9
$DIMTDEC
 70
     1
  9
$DIMALTU
 70
     8
  9
$DIMALTTD
 70
     4
  9
$DIMTXSTY
  7
STANDARD
  9
$DIMAUNIT
 70
     0
  9
$DIMADEC
 70
     0
  9
$DIMALTRND
 40
0.0
  9
$DIMAZIN
 70
     0
  9
$DIMDSEP
 70
    46
  9
$DIMATFIT
 70
     3
  9
$DIMFRAC
 70
     0
  9
$DIMLDRBLK
  1
OPEN30
  9
$DIMLUNIT
 70
     2
  9
$DIMLWD
 70
    -2
  9
$DIMLWE
 70
    -2
  9
$DIMTMOVE
 70
     0
  9
$LUNITS
 70
     2
  9
$LUPREC
 70
     4
  9
$SKETCHINC
 40
1.0
  9
$FILLETRAD
 40
10.0
  9
$AUNITS
 70
     0
  9
$AUPREC
 70
     0
  9
$MENU
  1
.
  9
$ELEVATION
 40
0.0
  9
$PELEVATION
 40
0.0
  9
$THICKNESS
 40
0.0
  9
$LIMCHECK
 70
     0
  9
$CHAMFERA
 40
10.0
  9
$CHAMFERB
 40
10.0
  9
$CHAMFERC
 40
20.0
  9
$CHAMFERD
 40
0.0
  9
$SKPOLY
 70
     0
  9
$TDCREATE
 40
2451324.468257373
  9
$TDUCREATE
 40
2451324.093257373
  9
$TDUPDATE
 40
2454987.666101562
  9
$TDUUPDATE
 40
2454987.291101562
  9
$TDINDWG
 40
1.9806162269
  9
$TDUSRTIMER
 40
1.9806158565
  9
$USRTIMER
 70
     1
  9
$ANGBASE
 50
0.0
  9
$ANGDIR
 70
     0
  9
$PDMODE
 70
     0
  9
$PDSIZE
 40
0.0
  9
$PLINEWID
 40
0.0
  9
$SPLFRAME
 70
     0
  9
$SPLINETYPE
 70
     6
  9
$SPLINESEGS
 70
     8
  9
$HANDSEED
  5
1246
  9
$SURFTAB1
 70
     6
  9
$SURFTAB2
 70
     6
  9
$SURFTYPE
 70
     6
  9
$SURFU
 70
     6
  9
$SURFV
 70
     6
  9
$UCSBASE
  2

  9
$UCSNAME
  2

  9
$UCSORG
 10
0.0
 20
0.0
 30
0.0
  9
$UCSXDIR
 10
1.0
 20
0.0
 30
0.0
  9
$UCSYDIR
 10
0.0
 20
1.0
 30
0.0
  9
$UCSORTHOREF
  2

  9
$UCSORTHOVIEW
 70
     0
  9
$UCSORGTOP
 10
0.0
 20
0.0
 30
0.0
  9
$UCSORGBOTTOM
 10
0.0
 20
0.0
 30
0.0
  9
$UCSORGLEFT
 10
0.0
 20
0.0
 30
0.0
  9
$UCSORGRIGHT
 10
0.0
 20
0.0
 30
0.0
  9
$UCSORGFRONT
 10
0.0
 20
0.0
 30
0.0
  9
$UCSORGBACK
 10
0.0
 20
0.0
 30
0.0
  9
$PUCSBASE
  2

  9
$PUCSNAME
  2

  9
$PUCSORG
 10
0.0
 20
0.0
 30
0.0
  9
$PUCSXDIR
 10
1.0
 20
0.0
 30
0.0
  9
$PUCSYDIR
 10
0.0
 20
1.0
 30
0.0
  9
$PUCSORTHOREF
  2

  9
$PUCSORTHOVIEW
 70
     0
  9
$PUCSORGTOP
 10
0.0
 20
0.0
 30
0.0
  9
$PUCSORGBOTTOM
 10
0.0
 20
0.0
 30
0.0
  9
$PUCSORGLEFT
 10
0.0
 20
0.0
 30
0.0
  9
$PUCSORGRIGHT
 10
0.0
 20
0.0
 30
0.0
  9
$PUCSORGFRONT
 10
0.0
 20
0.0
 30
0.0
  9
$PUCSORGBACK
 10
0.0
 20
0.0
 30
0.0
  9
$USERI1
 70
     0
  9
$USERI2
 70
     0
  9
$USERI3
 70
     0
  9
$USERI4
 70
     0
  9
$USERI5
 70
     0
  9
$USERR1
 40
0.0
  9
$USERR2
 40
0.0
  9
$USERR3
 40
0.0
  9
$USERR4
 40
0.0
  9
$USERR5
 40
0.0
  9
$WORLDVIEW
 70
     1
  9
$SHADEDGE
 70
     3
  9
$SHADEDIF
 70
    70
  9
$TILEMODE
 70
     1
  9
$MAXACTVP
 70
    48
  9
$PINSBASE
 10
0.0
 20
0.0
 30
0.0
  9
$PLIMCHECK
 70
     0
  9
$PEXTMIN
 10
-1439.804583653114
 20
-1400.237631316938
 30
0.0
  9
$PEXTMAX
 10
2872.968780515991
 20
1675.790811506817
 30
0.0
  9
$PLIMMIN
 10
0.0
 20
0.0
  9
$PLIMMAX
 10
12.0
 20
9.0
  9
$UNITMODE
 70
     0
  9
$VISRETAIN
 70
     1
  9
$PLINEGEN
 70
     0
  9
$PSLTSCALE
 70
     1
  9
$TREEDEPTH
 70
  3020
  9
$CMLSTYLE
  2
STANDARD
  9
$CMLJUST
 70
     0
  9
$CMLSCALE
 40
20.0
  9
$PROXYGRAPHICS
 70
     1
  9
$MEASUREMENT
 70
     1
  9
$CELWEIGHT
370
    -1
  9
$ENDCAPS
280
     0
  9
$JOINSTYLE
280
     0
  9
$LWDISPLAY
290
     0
  9
$INSUNITS
 70
     0
  9
$HYPERLINKBASE
  1

  9
$STYLESHEET
  1

  9
$XEDIT
290
     1
  9
$CEPSNTYPE
380
     0
  9
$PSTYLEMODE
290
     1
  9
$FINGERPRINTGUID
  2
{7B48495B-9D62-4076-8CB1-8ACA882609AE}
  9
$VERSIONGUID
  2
{C86B49D7-3C47-4A15-B541-1B177871E113}
  9
$EXTNAMES
290
     1
  9
$PSVPSCALE
 40
0.0
  9
$OLESTARTUP
290
     0
  0
ENDSEC
  0
SECTION
  2
CLASSES
  0
CLASS
  1
LWPOLYLINE
  2
AcDbPolyline
  3
ObjectDBX Classes
 90
        0
280
     0
281
     1
  0
CLASS
  1
ACDBDICTIONARYWDFLT
  2
AcDbDictionaryWithDefault
  3
ObjectDBX Classes
 90
        0
280
     0
281
     0
  0
CLASS
  1
ACDBPLACEHOLDER
  2
AcDbPlaceHolder
  3
ObjectDBX Classes
 90
        0
280
     0
281
     0
  0
CLASS
  1
LAYOUT
  2
AcDbLayout
  3
ObjectDBX Classes
 90
        0
280
     0
281
     0
  0
CLASS
  1
ACME_DOCUMENT
  2
AcMeDbDoc
  3
AcMeServices
 90
    33792
280
     0
281
     0
  0
CLASS
  1
AMGSETTINGSOBJ
  2
AmgSettingsObj
  3
"AcadM|Product Description: AutoCAD Mechanical|Company: Autodesk, Inc."
 90
    33792
280
     0
281
     0
  0
CLASS
  1
ACMESCOPE
  2
AcMeScope
  3
AcMeServices
 90
    33792
280
     0
281
     0
  0
CLASS
  1
ACMECOMMANDHISTORY
  2
AcMeCommandHistory
  3
AcMeServices
 90
    33792
280
     0
281
     0
  0
CLASS
  1
DICTIONARYVAR
  2
AcDbDictionaryVar
  3
ObjectDBX Classes
 90
        0
280
     0
281
     0
  0
CLASS
  1
ACIMSYSVARMAN
  2
AcImSysVarManager
  3
AcMeServices
 90
    33792
280
     0
281
     0
  0
CLASS
  1
ACIMREALSYSVAR
  2
AcImRealSysVar
  3
AcMeServices
 90
    33792
280
     0
281
     0
  0
CLASS
  1
ACIMINTSYSVAR
  2
AcImIntSysVar
  3
AcMeServices
 90
    33792
280
     0
281
     0
  0
CLASS
  1
ACMEDRAWINGMAN
  2
AcMeDrawingMan
  3
AcMeServices
 90
    33792
280
     0
281
     0
  0
CLASS
  1
ACMEVIEW
  2
AcMeView
  3
AcMeServices
 90
    33792
280
     0
281
     0
  0
CLASS
  1
ACDBENTITYCACHE
  2
AcMeEntityCache
  3
AcMeServices
 90
    33792
280
     0
281
     0
  0
CLASS
  1
GSMANAGER
  2
AcMeGSManager
  3
AcMeServices
 90
    33792
280
     0
281
     0
  0
CLASS
  1
AMDTINTERNALREACTOR
  2
AmdtInternalReactor
  3
AcMeServices
 90
    33792
280
     0
281
     0
  0
CLASS
  1
ACMESTATEMGR
  2
AcMeStateMgr
  3
AcMeServices
 90
    33792
280
     0
281
     0
  0
CLASS
  1
ACGREFMASTER
  2
AcGrefMaster
  3
AcAttribServices
 90
    33792
280
     0
281
     0
  0
CLASS
  1
AM_DRAWING_MGR
  2
AcDmDwgMgr
  3
AcMechDwgViewMgmt
 90
    33792
280
     0
281
     0
  0
CLASS
  1
AM_DWG_DOCUMENT
  2
AcDmDwgDocument
  3
AcMechDwgViewMgmt
 90
    33792
280
     0
281
     0
  0
CLASS
  1
AM_DWG_SHEET
  2
AcDmSheet
  3
AcMechDwgViewMgmt
 90
    33792
280
     0
281
     0
  0
CLASS
  1
AM_VIEWDIMPARMAP
  2
AcDmViewDimParMap
  3
AcMechDwgViewMgmt
 90
    33792
280
     0
281
     0
  0
CLASS
  1
AM_DWGMGR_NAME
  2
AcDmDwgMgrName
  3
AcMechDwgViewMgmt
 90
    33792
280
     0
281
     0
  0
CLASS
  1
ACME_DATABASE
  2
AcMeDbDatabase
  3
AcMeServices
 90
    33792
280
     0
281
     0
  0
CLASS
  1
ACRFINSADJUSTERMGR
  2
AcRfInsAdjusterMgr
  3
AcMeServices
 90
    33792
280
     0
281
     0
  0
CLASS
  1
ACGREFACADMASTER
  2
AcGrefacadMaster
  3
AcGrefServices
 90
    33792
280
     0
281
     0
  0
CLASS
  1
AMDTMENUSTATEMGR
  2
AmdtMenuStateMgr
  3
McadcomServices
 90
    33792
280
     0
281
     0
  0
CLASS
  1
AMDTMCOMMENUSTATE
  2
AmdtMcomMenuState
  3
McadcomServices
 90
    33792
280
     0
281
     0
  0
CLASS
  1
AMIMASTER
  2
AmiMaster
  3
AmiServices
 90
    33792
280
     0
281
     0
  0
CLASS
  1
ASAPP
  2
AcAsAppObject
  3
AutoSurfServices
 90
    33792
280
     0
281
     0
  0
CLASS
  1
IM_STATIC_MAN
  2
AcImStaticVarManager
  3
AcMeServices
 90
    33792
280
     0
281
     0
  0
CLASS
  1
ACIMSTRSYSVAR
  2
AcImStrSysVar
  3
AcMeServices
 90
    33792
280
     0
281
     0
  0
CLASS
  1
ACIMDBLSTATICVAR
  2
AcImDblStaticVar
  3
AcMeServices
 90
    33792
280
     0
281
     0
  0
CLASS
  1
ACIMSTRSTATICVAR
  2
AcImStrStaticVar
  3
AcMeServices
 90
    33792
280
     0
281
     0
  0
CLASS
  1
ACIMINTSTATICVAR
  2
AcImIntStaticVar
  3
AcMeServices
 90
    33792
280
     0
281
     0
  0
CLASS
  1
ACASGREFMASTER
  2
AcAsGrefMaster
  3
AutoSurfResolverServices
 90
    33792
280
     0
281
     0
  0
CLASS
  1
ACADGREFMODULE
  2
AcAdGrefModule
  3
AdGrefServices
 90
    33792
280
     0
281
     0
  0
CLASS
  1
AMDTMAPISURFMOUDULE
  2
AmdtMApiSurfModule
  3
MApiSurfServices
 90
    33792
280
     0
281
     0
  0
CLASS
  1
MAPIAMMOUDLE
  2
MApiAmModule
  3
MApiAmServices
 90
    33792
280
     0
281
     0
  0
CLASS
  1
AMDTADMENUSTATE
  2
AmdtAdMenuState
  3
DesignerServices
 90
    33792
280
     0
281
     0
  0
CLASS
  1
ADAPPL
  2
AcAdAppl
  3
DesignerServices
 90
    33792
280
     0
281
     0
  0
CLASS
  1
DEPMGR
  2
AcAdDepMgr
  3
DesignerServices
 90
    33792
280
     0
281
     0
  0
CLASS
  1
PARAMMGR
  2
AcAdParamMgr
  3
DesignerServices
 90
    33792
280
     0
281
     0
  0
CLASS
  1
PARAMSCOPE
  2
AcAdParamScope
  3
DesignerServices
 90
    33792
280
     0
281
     0
  0
CLASS
  1
NAMEDAPPL
  2
AcAdNamedAppl
  3
DesignerServices
 90
    33792
280
     0
281
     0
  0
CLASS
  1
ADHNTMPLT
  2
AdHoleNoteTemplateMgr
  3
DesignerServices
 90
    33792
280
     0
281
     0
  0
CLASS
  1
AM_HNTEMPLATE_MGR_NAME
  2
AdHoleNoteTemplateMgrName
  3
DesignerServices
 90
    33792
280
     0
281
     0
  0
CLASS
  1
AMDTDMMENUSTATE
  2
AmdtDmMenuState
  3
AcMechDwgViewMgmt
 90
    33792
280
     0
281
     0
  0
CLASS
  1
MAPIADMODULE
  2
MApiAdModule
  3
MApiAdServices
 90
    33792
280
     0
281
     0
  0
CLASS
  1
AMDTAMMENUSTATE
  2
AmdtAmMenuState
  3
DesignerAssemblies
 90
    33792
280
     0
281
     0
  0
CLASS
  1
ACAMPROJECT
  2
AcAmProject
  3
DesignerAssemblies
 90
    33792
280
     0
281
     0
  0
CLASS
  1
ACAMGRCOMPDEF
  2
AcAmGrCompDef
  3
DesignerAssemblies
 90
    33792
280
     0
281
     0
  0
CLASS
  1
ACCMCONTEXT
  2
AcCmContext
  3
DesignerAssemblies
 90
    33792
280
     0
281
     0
  0
CLASS
  1
ACAMCOMPDEF
  2
AcAmCompDef
  3
DesignerAssemblies
 90
    33792
280
     0
281
     0
  0
CLASS
  1
ACAMCOMPDEFMGR
  2
AcAmCompDefMgr
  3
DesignerAssemblies
 90
    33792
280
     0
281
     0
  0
CLASS
  1
AMCONTEXTMGR
  2
AcAmContextMgr
  3
DesignerAssemblies
 90
    33792
280
     0
281
     0
  0
CLASS
  1
ACAMCONTEXTMODELER
  2
AcAmContextModeler
  3
DesignerAssemblies
 90
    33792
280
     0
281
     0
  0
CLASS
  1
ACMDATADICTIONARY
  2
AcmDataDictionary
  3
"AcmSymBB|Product Description: AutoCAD Mechanical|Company: Autodesk, Inc."
 90
     1024
280
     0
281
     0
  0
CLASS
  1
ACMDATAENTRYBLOCK
  2
AcmDataEntryBlock
  3
AcmSymBB|Product Description: AutoCAD Mechanical|Company: Autodesk, Inc.
 90
     1024
280
     0
281
     0
  0
CLASS
  1
CATALOGSTATE
  2
AcAmCatalogState
  3
DesignerAssemblies
 90
    33792
280
     0
281
     0
  0
CLASS
  1
ACAMGRCOMPDEFSET
  2
AcAmGrCompDefSet
  3
DesignerAssemblies
 90
    33792
280
     0
281
     0
  0
CLASS
  1
AMDTBROWSERDBTAB
  2
AmdtBrowserDbTab
  3
McadcomServices
 90
    33792
280
     0
281
     0
  0
CLASS
  1
CBROWSERAPPOBJECT
  2
CBrowserAppObject
  3
McadcomServices
 90
    33792
280
     0
281
     0
  0
CLASS
  1
DM_PLACEHOLDER
  2
AcDmSelsetPlaceholder
  3
AcMechDwgViewMgmt
 90
    33792
280
     0
281
     0
  0
CLASS
  1
ACMSTANDARDISO
  2
AcmStandardISO
  3
"Amdt_StdImp|Product Description: AutoCAD Mechanical|Company: Autodesk, Inc."
 90
    33792
280
     0
281
     0
  0
CLASS
  1
AMGOBJPROPCFG
  2
AmgObjPropCfg
  3
"AmgLay|Product Description: AutoCAD Mechanical|Company: Autodesk, Inc."
 90
    33793
280
     0
281
     0
  0
CLASS
  1
AMDTEDGESTANDARDISO
  2
AmdtEdgeStdISO
  3
"Amdt_StdImp|Product Description: AutoCAD Mechanical|Company: Autodesk, Inc."
 90
    33792
280
     0
281
     0
  0
CLASS
  1
ACMSURFSTANDARDISO
  2
AcmSurfTextStdISO
  3
"Amdt_StdImp|Product Description: AutoCAD Mechanical|Company: Autodesk, Inc."
 90
    33792
280
     0
281
     0
  0
CLASS
  1
ACMFCFSTANDARDISO
  2
AcmFCFStdISO
  3
"Amdt_StdImp|Product Description: AutoCAD Mechanical|Company: Autodesk, Inc."
 90
    33792
280
     0
281
     0
  0
CLASS
  1
ACMWELDSTANDARDISO
  2
AcmWeldingStdISO
  3
"Amdt_StdImp|Product Description: AutoCAD Mechanical|Company: Autodesk, Inc."
 90
    33792
280
     0
281
     0
  0
CLASS
  1
ACMIDSTANDARDISO
  2
AcmIdStdISO
  3
"Amdt_StdImp|Product Description: AutoCAD Mechanical|Company: Autodesk, Inc."
 90
    33792
280
     0
281
     0
  0
CLASS
  1
ACMDATUMSTANDARDISO
  2
AcmDatumStdISO
  3
"Amdt_StdImp|Product Description: AutoCAD Mechanical|Company: Autodesk, Inc."
 90
    33792
280
     0
281
     0
  0
CLASS
  1
ACMBOMSTANDARDISO
  2
AcmBOMStdISO
  3
"Amdt_StdImp|Product Description: AutoCAD Mechanical|Company: Autodesk, Inc."
 90
    33792
280
     0
281
     0
  0
CLASS
  1
ACMDETAILSTANDARDISO
  2
AmdtDetailSymStdISO
  3
"Amdt_StdImp|Product Description: AutoCAD Mechanical|Company: Autodesk, Inc."
 90
    33792
280
     0
281
     0
  0
CLASS
  1
ACMSECTIONSTANDARDISO
  2
AmdtSectionSymStdISO
  3
"Amdt_StdImp|Product Description: AutoCAD Mechanical|Company: Autodesk, Inc."
 90
    33792
280
     0
281
     0
  0
CLASS
  1
ACMCENTERLINESTANDARDISO
  2
AmdtCenterLineStdISO
  3
"Amdt_StdImp|Product Description: AutoCAD Mechanical|Company: Autodesk, Inc."
 90
    33792
280
     0
281
     0
  0
CLASS
  1
ACMTHREADLINESTANDARDISO
  2
AmdtThreadLineStdISO
  3
"Amdt_StdImp|Product Description: AutoCAD Mechanical|Company: Autodesk, Inc."
 90
    33792
280
     0
281
     0
  0
CLASS
  1
ACAMGLAYSTD
  2
AcAmgLayStd
  3
"AmgLay|Product Description: AutoCAD Mechanical|Company: Autodesk, Inc."
 90
    33792
280
     0
281
     0
  0
CLASS
  1
ACAMGDIMSTD
  2
AcAmgDimStd
  3
"AmgDim|Product Description: AutoCAD Mechanical|Company: Autodesk, Inc."
 90
    33792
280
     0
281
     0
  0
CLASS
  1
ACAMGTITLESTD
  2
AcAmgTitleStd
  3
"AmgTitle|Product Description: AutoCAD Mechanical|Company: Autodesk, Inc."
 90
    36863
280
     0
281
     0
  0
CLASS
  1
ACAMGFILTERDAT
  2
AcAmgFilterDat
  3
"AcadM|Product Description: AutoCAD Mechanical|Company: Autodesk, Inc."
 90
    33792
280
     0
281
     0
  0
CLASS
  1
AMDTFORMULAUPDATEDISPATCHER
  2
AmdtFormulaUpdateDispatcher
  3
AcMeServices
 90
    33792
280
     0
281
     0
  0
CLASS
  1
LAYER_INDEX
  2
AcDbLayerIndex
  3
ObjectDBX Classes
 90
    32768
280
     0
281
     0
  0
CLASS
  1
IDBUFFER
  2
AcDbIdBuffer
  3
ObjectDBX Classes
 90
    32768
280
     0
281
     0
  0
CLASS
  1
TABLESTYLE
  2
AcDbTableStyle
  3
ObjectDBX Classes
 90
     4095
280
     0
281
     0
  0
CLASS
  1
ACMNOTESTANDARDISO
  2
AmdtNoteStdISO
  3
"Amdt_StdImp|Product Description: AutoCAD Mechanical|Company: Autodesk, Inc."
 90
    33792
280
     0
281
     0
  0
CLASS
  1
AMDTNOTETEMPLATEDB
  2
AmdtNoteTemplateDB
  3
AcmSymBB|Product Description: AutoCAD Mechanical|Company: Autodesk, Inc.
 90
    33792
280
     0
281
     0
  0
CLASS
  1
ACAMEXTERNALCOMPDEF
  2
AcAmExternalCompDef
  3
DesignerAssemblies
 90
    33792
280
     0
281
     0
  0
CLASS
  1
ACCMBODY
  2
AcCmBody
  3
DesignerAssemblies
 90
    33792
280
     0
281
     0
  0
CLASS
  1
ACAMCOMPENT
  2
AcAmCompEnt
  3
DesignerAssemblies
 90
    33792
280
     0
281
     1
  0
CLASS
  1
ACAMCOMPFEEDBACK
  2
AcAmCompFeedback
  3
DesignerAssemblies
 90
    33792
280
     0
281
     0
  0
CLASS
  1
ACAMCOMP
  2
AcAmComp
  3
DesignerAssemblies
 90
    33792
280
     0
281
     0
  0
CLASS
  1
ACAMCOMPENTCLONE
  2
AcAmCompEntClone
  3
DesignerAssemblies
 90
    33792
280
     0
281
     1
  0
CLASS
  1
ACAMCLONEREACTOR
  2
AcAmGrCompCloneReactor
  3
DesignerAssemblies
 90
    33792
280
     0
281
     0
  0
CLASS
  1
EDGEID
  2
AcAdEdgeId
  3
DesignerServices
 90
    33792
280
     0
281
     0
  0
CLASS
  1
ACADPARTLINEDGRES
  2
AcAdPartLinEdgRes
  3
AdGrefServices
 90
    33792
280
     0
281
     0
  0
CLASS
  1
ACRFINSADJ
  2
AcRfInsAdjuster
  3
AcMeServices
 90
    33792
280
     0
281
     0
  0
CLASS
  1
STREFID
  2
AcAdStraightRefId
  3
DesignerServices
 90
    33792
280
     0
281
     0
  0
CLASS
  1
ACMEAXIS
  2
AcImAxisDisplay
  3
AcMeServices
 90
    33792
280
     0
281
     1
  0
CLASS
  1
FACEID
  2
AcAdFaceId
  3
DesignerServices
 90
    33792
280
     0
281
     0
  0
CLASS
  1
DEPEDGESECONDARYDEPID
  2
AcAdDepEdgeSecondaryDepId
  3
DesignerServices
 90
    33792
280
     0
281
     0
  0
CLASS
  1
ACADPARTPLANARFACERES
  2
AcAdPartPlanarFaceRes
  3
AdGrefServices
 90
    33792
280
     0
281
     0
  0
CLASS
  1
ACMEPOINT
  2
AcImPointDisplay
  3
AcMeServices
 90
    33792
280
     0
281
     1
  0
CLASS
  1
ACMELINEARARROW
  2
AcImLinearArrowDisplay
  3
AcMeServices
 90
    33792
280
     0
281
     1
  0
CLASS
  1
ACAMEXPR
  2
AcAmExpr
  3
DesignerAssemblies
 90
    33792
280
     0
281
     0
  0
CLASS
  1
ACCMDISTPLPL
  2
AcCmDistPlPl
  3
DesignerAssemblies
 90
    33792
280
     0
281
     0
  0
CLASS
  1
ACCMCONSTREACTOR
  2
AcCmConstraintReactor
  3
DesignerAssemblies
 90
    33792
280
     0
281
     0
  0
CLASS
  1
ACCMDISTPTLN
  2
AcCmDistPtLn
  3
DesignerAssemblies
 90
    33792
280
     0
281
     0
  0
CLASS
  1
AM_VIEW_SELECT_FILTER
  2
AcDmSelectViewEntFilter
  3
AcMechDwgViewMgmt
 90
    33792
280
     0
281
     0
  0
CLASS
  1
AM_GREF_PLANE
  2
AcDmGrefPlnDef
  3
AcMechDwgViewMgmt
 90
    33792
280
     0
281
     0
  0
CLASS
  1
AM_GREF_AXIS
  2
AcDmGrefAxisDef
  3
AcMechDwgViewMgmt
 90
    33792
280
     0
281
     0
  0
CLASS
  1
AM_BASE_VIEW_ORIENT
  2
AcDmBaseViewOr
  3
AcMechDwgViewMgmt
 90
    33792
280
     0
281
     0
  0
CLASS
  1
AM_DWG_VIEWPORT
  2
AcDmViewport
  3
AcMechDwgViewMgmt
 90
    33792
280
     0
281
     0
  0
CLASS
  1
AM_VIEW_DISPLAY
  2
AcDmDwgViewDisplay
  3
AcMechDwgViewMgmt
 90
    33792
280
     0
281
     0
  0
CLASS
  1
AM_CLDFLTS
  2
AcDmClDflts
  3
AcMechDwgViewMgmt
 90
    33792
280
     0
281
     0
  0
CLASS
  1
AM_BASE_VIEW
  2
AcDmBaseView
  3
AcMechDwgViewMgmt
 90
    33792
280
     0
281
     0
  0
CLASS
  1
ACMEPLINE
  2
AcImPlineDisplay
  3
AcMeServices
 90
    33792
280
     0
281
     1
  0
CLASS
  1
ACDMPARTVIEWDATA
  2
AcDmPartViewData
  3
AcMechDwgViewMgmt
 90
    33792
280
     0
281
     0
  0
CLASS
  1
ACDMDISPLAYATTRIBS
  2
AcDmDisplayAttribs
  3
AcMechDwgViewMgmt
 90
    33792
280
     0
281
     0
  0
CLASS
  1
ACDMBODYINSTANCEDATA
  2
AcDmBodyInstanceData
  3
AcMechDwgViewMgmt
 90
    33792
280
     0
281
     0
  0
CLASS
  1
ACDMVWEDLINE
  2
AcDmViewEdgeLine
  3
AcMechDwgViewMgmt
 90
    33792
280
     0
281
     1
  0
CLASS
  1
ACDMVWEDARC
  2
AcDmViewEdgeArc
  3
AcMechDwgViewMgmt
 90
    33792
280
     0
281
     1
  0
CLASS
  1
AM_ISO_VIEW_ORIENT
  2
AcDmIsoViewOr
  3
AcMechDwgViewMgmt
 90
    33792
280
     0
281
     0
  0
CLASS
  1
AM_ISO_VIEW
  2
AcDmIsoView
  3
AcMechDwgViewMgmt
 90
    33792
280
     0
281
     0
  0
CLASS
  1
AM_ORTHO_VIEW_ORIENT
  2
AcDmOrthoViewOr
  3
AcMechDwgViewMgmt
 90
    33792
280
     0
281
     0
  0
CLASS
  1
AM_ORTHO_VIEW
  2
AcDmOrthoView
  3
AcMechDwgViewMgmt
 90
    33792
280
     0
281
     0
  0
CLASS
  1
ACAMVIEWREACTOR
  2
AcAmViewReactor
  3
DesignerAssemblies
 90
    33792
280
     0
281
     0
  0
CLASS
  1
AMVIEW
  2
AcAmView
  3
DesignerAssemblies
 90
    33792
280
     0
281
     0
  0
CLASS
  1
ACAMVIEWCONTEXT
  2
AcAmViewContext
  3
DesignerAssemblies
 90
    33792
280
     0
281
     0
  0
CLASS
  1
ACAMCOMPENTVIEW
  2
AcAmCompEntView
  3
DesignerAssemblies
 90
    33792
280
     0
281
     1
  0
CLASS
  1
ACAMCOMPVIEWREACTOR
  2
AcAmGrCompViewReactor
  3
DesignerAssemblies
 90
    33792
280
     0
281
     0
  0
CLASS
  1
ACAMVIEWENTITYFILTER
  2
AcAmViewEntityFilter
  3
DesignerAssemblies
 90
    33792
280
     0
281
     0
  0
CLASS
  1
ACDMVWEDCIRC
  2
AcDmViewEdgeCircle
  3
AcMechDwgViewMgmt
 90
    33792
280
     0
281
     1
  0
CLASS
  1
AM_ADCIRCTRLINE
  2
AcAdBullsEyeCl
  3
DesignerServices
 90
    33792
280
     0
281
     0
  0
CLASS
  1
AM_ADLINCTRLINE
  2
AcAdLineCl
  3
DesignerServices
 90
    33792
280
     0
281
     0
  0
CLASS
  1
ACDMVIEWGEOM
  2
AcDmViewGeometry
  3
AcMechDwgViewMgmt
 90
    33792
280
     0
281
     1
  0
CLASS
  1
ACCMDISTLNLN
  2
AcCmDistLnLn
  3
DesignerAssemblies
 90
    33792
280
     0
281
     0
  0
CLASS
  1
ACAMXREFCONTEXTMODELER
  2
AcAmXrefContextModeler
  3
DesignerAssemblies
 90
    33792
280
     0
281
     0
  0
CLASS
  1
CNRREFID
  2
AcAdCornerId
  3
DesignerServices
 90
    33792
280
     0
281
     0
  0
CLASS
  1
ACADPARTPOINTRES
  2
AcAdPartPointRes
  3
AdGrefServices
 90
    33792
280
     0
281
     0
  0
CLASS
  1
AM_VIEWDIMLINEAR
  2
AcDmViewDimLinear
  3
AcMechDwgViewMgmt
 90
    33792
280
     0
281
     0
  0
CLASS
  1
PARAM
  2
AcAdParam
  3
DesignerServices
 90
    33792
280
     0
281
     0
  0
CLASS
  1
SORTENTSTABLE
  2
AcDbSortentsTable
  3
ObjectDBX Classes
 90
        0
280
     0
281
     0
  0
CLASS
  1
ACADPARTCIRCEDGRES
  2
AcAdPartCircEdgRes
  3
AdGrefServices
 90
    33792
280
     0
281
     0
  0
CLASS
  1
AM_VIEWDIMRADIUS
  2
AcDmViewDimRadius
  3
AcMechDwgViewMgmt
 90
    33792
280
     0
281
     0
  0
CLASS
  1
DEPEDGEPATTERNINSTANCE
  2
AcAdDepEdgePatternInstance
  3
DesignerServices
 90
    33792
280
     0
281
     0
  0
CLASS
  1
FEEDBACK
  2
AcAmFeedback
  3
DesignerAssemblies
 90
    33792
280
     0
281
     1
  0
CLASS
  1
ACAMTRIAXISSYMBOL
  2
AcAmTriAxisSymbol
  3
DesignerAssemblies
 90
    33792
280
     0
281
     0
  0
CLASS
  1
ACAMTEXTCIRCLESYMBOL
  2
AcAmTextCircleSymbol
  3
DesignerAssemblies
 90
    33792
280
     0
281
     0
  0
CLASS
  1
ACDMVISEDIT
  2
AcDmViewEntityVisEdit
  3
AcMechDwgViewMgmt
 90
    33792
280
     0
281
     0
  0
CLASS
  1
SILEDGEID
  2
AcAdSilhouetteEdgeId
  3
DesignerServices
 90
    33792
280
     0
281
     0
  0
CLASS
  1
MATERIAL
  2
AcDbMaterial
  3
ObjectDBX Classes
 90
     1153
280
     0
281
     0
  0
CLASS
  1
VISUALSTYLE
  2
AcDbVisualStyle
  3
ObjectDBX Classes
 90
     4095
280
     0
281
     0
  0
CLASS
  1
SCALE
  2
AcDbScale
  3
ObjectDBX Classes
 90
     1153
280
     0
281
     0
  0
CLASS
  1
MLEADERSTYLE
  2
AcDbMLeaderStyle
  3
ACDB_MLEADERSTYLE_CLASS
 90
     4095
280
     0
281
     0
  0
CLASS
  1
EXACTERMXREFMAP
  2
ExAcTermXrefMap
  3
EXAC_SERVICE
 90
    33793
280
     0
281
     0
  0
CLASS
  1
NPOCOLLECTION
  2
AcDbImpNonPersistentObjectsCollection
  3
ObjectDBX Classes
 90
     1153
280
     0
281
     0
  0
CLASS
  1
ACRFATTGENMGR
  2
AcRfAttGeneralMgr
  3
AcAttribServices
 90
    33792
280
     0
281
     0
  0
CLASS
  1
ACRFOBJATTMGR
  2
AcRfObjAttGroupMgr
  3
AcAttribServices
 90
    33792
280
     0
281
     0
  0
CLASS
  1
ACRFMCADAPIATTHOLDER
  2
AcRfMCADAPIAttHolder
  3
AcAttribServices
 90
    33792
280
     0
281
     0
  0
CLASS
  1
AMDTSYSATTR
  2
AmdtSystemAttribute
  3
AcAttribServices
 90
    33792
280
     0
281
     0
  0
CLASS
  1
ACMTAPERSTANDARDISO
  2
AcmTaperStdISO
  3
"Amdt_StdImp|Product Description: AutoCAD Mechanical|Company: Autodesk, Inc."
 90
    33792
280
     0
281
     0
  0
CLASS
  1
ACMANOOTATIONVIEWSTANDARDISO
  2
AmdtAnViewStdISO
  3
"Amdt_StdImp|Product Description: AutoCAD Mechanical|Company: Autodesk, Inc."
 90
    33792
280
     0
281
     0
  0
CLASS
  1
SOLID_BACKGROUND
  2
AcDbSolidBackground
  3
SCENEOE
 90
     4095
280
     0
281
     0
  0
CLASS
  1
CELLSTYLEMAP
  2
AcDbCellStyleMap
  3
ObjectDBX Classes
 90
     1152
280
     0
281
     0
  0
CLASS
  1
AM_ABS_AXIS
  2
AcDmAbsAxisDef
  3
AcMechDwgViewMgmt
 90
    33792
280
     0
281
     0
  0
CLASS
  1
AM_ABS_PLANE
  2
AcDmAbsPlnDef
  3
AcMechDwgViewMgmt
 90
    33792
280
     0
281
     0
  0
CLASS
  1
MULTILEADER
  2
AcDbMLeader
  3
ACDB_MLEADER_CLASS
 90
     1025
280
     0
281
     1
  0
ENDSEC
  0
SECTION
  2
TABLES
  0
TABLE
  2
VPORT
  5
2A
330
0
100
AcDbSymbolTable
 70
     1
  0
VPORT
  5
BF0
330
2A
100
AcDbSymbolTableRecord
100
AcDbViewportTableRecord
  2
*Active
 70
     0
 10
0.0
 20
0.0
 11
1.0
 21
1.0
 12
0.0
 22
0.0
 13
0.0
 23
0.0
 14
10.0
 24
10.0
 15
10.0
 25
10.0
 16
0.0
 26
0.0
 36
2509.630575378314
 17
235.3009184172014
 27
-920.8841923655613
 37
0.0
 40
1637.869235162993
 41
1.800254452926208
 42
50.0
 43
0.0
 44
0.0
 50
0.0
 51
0.0
 71
     0
 72
  2000
 73
     1
 74
     0
 75
     0
 76
     0
 77
     0
 78
     0
281
     4
 65
     0
110
0.0
120
0.0
130
0.0
111
1.0
121
0.0
131
0.0
112
0.0
122
1.0
132
0.0
 79
     0
146
0.0
  0
ENDTAB
  0
TABLE
  2
LTYPE
  5
25
330
0
100
AcDbSymbolTable
 70
     5
  0
LTYPE
  5
26
330
25
100
AcDbSymbolTableRecord
100
AcDbLinetypeTableRecord
  2
BYBLOCK
 70
     0
  3

 72
    65
 73
     0
 40
0.0
  0
LTYPE
  5
27
330
25
100
AcDbSymbolTableRecord
100
AcDbLinetypeTableRecord
  2
BYLAYER
 70
     0
  3

 72
    65
 73
     0
 40
0.0
  0
LTYPE
  5
14
330
25
100
AcDbSymbolTableRecord
100
AcDbLinetypeTableRecord
  2
CONTINUOUS
 70
     0
  3
Solid line
 72
    65
 73
     0
 40
0.0
  0
LTYPE
  5
81
330
25
100
AcDbSymbolTableRecord
100
AcDbLinetypeTableRecord
  2
HIDDEN
 70
     0
  3
Hidden __ __ __ __ __ __ __ __ __ __ __ __ __ _
 72
    65
 73
     2
 40
0.375
 49
0.25
 74
     0
 49
-0.125
 74
     0
  0
LTYPE
  5
624
330
25
100
AcDbSymbolTableRecord
100
AcDbLinetypeTableRecord
  2
AM_ISO08W050
 70
     0
  3
____ . ____ . ____ . ____ . ____ . ____ . ____
 72
    65
 73
     4
 40
18.0
 49
12.0
 74
     0
 49
-1.5
 74
     0
 49
3.0
 74
     0
 49
-1.5
 74
     0
  0
LTYPE
  5
C97
330
25
100
AcDbSymbolTableRecord
100
AcDbLinetypeTableRecord
  2
DASHDOT
 70
     0
  3
____ _ ____ _ ____ _ ____ _ ____ _ ____ _ ____
 72
    65
 73
     4
 40
5.5
 49
4.0
 74
     0
 49
-0.6
 74
     0
 49
0.3
 74
     0
 49
-0.6
 74
     0
  0
ENDTAB
  0
TABLE
  2
LAYER
  5
1F
102
{ACAD_XDICTIONARY
360
20
102
}
330
0
100
AcDbSymbolTable
 70
    13
  0
LAYER
  5
5
102
{ACAD_XDICTIONARY
360
6
102
}
330
1F
100
AcDbSymbolTableRecord
100
AcDbLayerTableRecord
  2
0
 70
     0
 62
     7
  6
CONTINUOUS
370
    -3
390
8
  0
LAYER
  5
B88
330
1F
100
AcDbSymbolTableRecord
100
AcDbLayerTableRecord
  2
Defpoints
 70
     0
 62
     7
  6
CONTINUOUS
290
     0
370
    -3
390
8
  0
LAYER
  5
C98
102
{ACAD_XDICTIONARY
360
C99
102
}
330
1F
100
AcDbSymbolTableRecord
100
AcDbLayerTableRecord
  2
SIZE
 70
     0
 62
    30
  6
CONTINUOUS
370
    -3
390
8
  0
LAYER
  5
C9A
102
{ACAD_XDICTIONARY
360
C9B
102
}
330
1F
100
AcDbSymbolTableRecord
100
AcDbLayerTableRecord
  2
OUTLINE
 70
     0
 62
     3
  6
CONTINUOUS
370
    -3
390
8
  0
LAYER
  5
C9C
102
{ACAD_XDICTIONARY
360
C9D
102
}
330
1F
100
AcDbSymbolTableRecord
100
AcDbLayerTableRecord
  2
DETAIL
 70
     0
 62
     5
  6
CONTINUOUS
370
    -3
390
8
  0
LAYER
  5
C9E
102
{ACAD_XDICTIONARY
360
C9F
102
}
330
1F
100
AcDbSymbolTableRecord
100
AcDbLayerTableRecord
  2
BASIS
 70
     0
 62
     6
  6
DASHDOT
370
    -3
390
8
  0
LAYER
  5
CA0
102
{ACAD_XDICTIONARY
360
CA1
102
}
330
1F
100
AcDbSymbolTableRecord
100
AcDbLayerTableRecord
  2
NOTE
 70
     0
 62
     4
  6
CONTINUOUS
370
    -3
390
8
  0
LAYER
  5
CA2
102
{ACAD_XDICTIONARY
360
CA3
102
}
330
1F
100
AcDbSymbolTableRecord
100
AcDbLayerTableRecord
  2
ARRANGE
 70
     0
 62
     1
  6
CONTINUOUS
370
    -3
390
8
  0
LAYER
  5
CA4
102
{ACAD_XDICTIONARY
360
CA5
102
}
330
1F
100
AcDbSymbolTableRecord
100
AcDbLayerTableRecord
  2
ETC
 70
     0
 62
    61
  6
CONTINUOUS
370
    -3
390
8
  0
ENDTAB
  0
TABLE
  2
STYLE
  5
22
330
0
100
AcDbSymbolTable
 70
     2
  0
STYLE
  5
23
330
22
100
AcDbSymbolTableRecord
100
AcDbTextStyleTableRecord
  2
STANDARD
 70
     0
 40
0.0
 41
1.0
 50
0.0
 71
     0
 42
62.5215949741746
  3
romans.shx
  4
extfont.shx
  0
STYLE
  5
CA6
330
22
100
AcDbSymbolTableRecord
100
AcDbTextStyleTableRecord
  2
STANDARD1
 70
     0
 40
0.0
 41
1.0
 50
0.0
 71
     0
 42
3.5
  3
MONOTXT
  4
BIGFONT
  0
ENDTAB
  0
TABLE
  2
VIEW
  5
28
330
0
100
AcDbSymbolTable
 70
     0
  0
ENDTAB
  0
TABLE
  2
UCS
  5
29
330
0
100
AcDbSymbolTable
 70
     0
  0
ENDTAB
  0
TABLE
  2
APPID
  5
2E
330
0
100
AcDbSymbolTable
 70
    10
  0
APPID
  5
2F
330
2E
100
AcDbSymbolTableRecord
100
AcDbRegAppTableRecord
  2
ACAD
 70
     0
  0
APPID
  5
38
330
2E
100
AcDbSymbolTableRecord
100
AcDbRegAppTableRecord
  2
ACAD_DSTYLE_DIMJOGGED_JOGANGLE_SYMBOL
 70
     0
  0
APPID
  5
7C
330
2E
100
AcDbSymbolTableRecord
100
AcDbRegAppTableRecord
  2
AcAecLayerStandard
 70
     0
  0
APPID
  5
1E
330
2E
100
AcDbSymbolTableRecord
100
AcDbRegAppTableRecord
  2
ACAD_PSEXT
 70
     0
  0
APPID
  5
AFF
330
2E
100
AcDbSymbolTableRecord
100
AcDbRegAppTableRecord
  2
ACATTRIBSERVICES
 70
     0
  0
APPID
  5
B18
330
2E
100
AcDbSymbolTableRecord
100
AcDbRegAppTableRecord
  2
ACAD_MLEADERVER
 70
     0
  0
APPID
  5
B21
330
2E
100
AcDbSymbolTableRecord
100
AcDbRegAppTableRecord
  2
ACAD_EXEMPT_FROM_CAD_STANDARDS
 70
     0
  0
APPID
  5
B5E
330
2E
100
AcDbSymbolTableRecord
100
AcDbRegAppTableRecord
  2
ACAD_DSTYLE_DIMJAG
 70
     0
  0
APPID
  5
B5F
330
2E
100
AcDbSymbolTableRecord
100
AcDbRegAppTableRecord
  2
ACAD_DSTYLE_DIMTALN
 70
     0
  0
APPID
  5
B6F
330
2E
100
AcDbSymbolTableRecord
100
AcDbRegAppTableRecord
  2
ACAD_DSTYLE_DIMEXT_LENGTH
 70
     0
  0
ENDTAB
  0
TABLE
  2
DIMSTYLE
  5
30
330
0
100
AcDbSymbolTable
 70
     2
100
AcDbDimStyleTable
 71
     1
340
31
  0
DIMSTYLE
105
31
102
{ACAD_REACTORS
330
B87
330
B95
330
BA2
330
BAF
330
BBC
330
BC9
330
BD6
102
}
330
30
100
AcDbSymbolTableRecord
100
AcDbDimStyleTableRecord
  2
STANDARD
 70
     0
 40
0.0
 41
2.0
 42
1.0
 43
3.75
 44
1.0
 73
     0
 74
     0
 77
     1
 78
     8
140
2.0
141
2.5
143
0.0394
147
1.0
171
     4
172
     1
173
     1
271
     0
272
     0
273
     8
274
     4
284
     8
340
23
341
32
343
32
344
32
1001
ACAD_DSTYLE_DIMEXT_LENGTH
1070
   378
1040
15.0
1001
ACAD_DSTYLE_DIMJOGGED_JOGANGLE_SYMBOL
1070
   384
1040
1.570796326794896
  0
ENDTAB
  0
TABLE
  2
BLOCK_RECORD
  5
1
330
0
100
AcDbSymbolTable
 70
    11
  0
BLOCK_RECORD
  5
2
102
{ACAD_XDICTIONARY
360
3
102
}
330
1
100
AcDbSymbolTableRecord
100
AcDbBlockTableRecord
  2
*MODEL_SPACE
340
16
  0
BLOCK_RECORD
  5
18
330
1
100
AcDbSymbolTableRecord
100
AcDbBlockTableRecord
  2
*Paper_Space
340
1B
  0
BLOCK_RECORD
  5
32
330
1
100
AcDbSymbolTableRecord
100
AcDbBlockTableRecord
  2
_OPEN30
340
0
102
{BLKREFS
331
11FA
331
11FB
331
1203
331
1204
331
120C
331
120D
331
1215
331
1216
331
121E
331
121F
331
1227
331
1228
331
1230
331
1231
102
}
  0
BLOCK_RECORD
  5
B89
330
1
100
AcDbSymbolTableRecord
100
AcDbBlockTableRecord
  2
*D1
340
0
  0
BLOCK_RECORD
  5
B96
330
1
100
AcDbSymbolTableRecord
100
AcDbBlockTableRecord
  2
*D2
340
0
  0
BLOCK_RECORD
  5
BA3
330
1
100
AcDbSymbolTableRecord
100
AcDbBlockTableRecord
  2
*D3
340
0
  0
BLOCK_RECORD
  5
BB0
330
1
100
AcDbSymbolTableRecord
100
AcDbBlockTableRecord
  2
*D4
340
0
  0
BLOCK_RECORD
  5
BBD
330
1
100
AcDbSymbolTableRecord
100
AcDbBlockTableRecord
  2
*D5
340
0
  0
BLOCK_RECORD
  5
BCA
330
1
100
AcDbSymbolTableRecord
100
AcDbBlockTableRecord
  2
*D6
340
0
  0
BLOCK_RECORD
  5
BD7
330
1
100
AcDbSymbolTableRecord
100
AcDbBlockTableRecord
  2
*D7
340
0
  0
BLOCK_RECORD
  5
C92
330
1
100
AcDbSymbolTableRecord
100
AcDbBlockTableRecord
  2
_DOTBLANK
340
0
  0
ENDTAB
  0
ENDSEC
  0
SECTION
  2
BLOCKS
  0
BLOCK
  5
4
330
2
100
AcDbEntity
  8
0
100
AcDbBlockBegin
  2
*MODEL_SPACE
 70
     0
 10
0.0
 20
0.0
 30
0.0
  3
*MODEL_SPACE
  1

  0
ENDBLK
  5
15
330
2
100
AcDbEntity
  8
0
100
AcDbBlockEnd
  0
BLOCK
  5
19
330
18
100
AcDbEntity
 67
     1
  8
0
100
AcDbBlockBegin
  2
*Paper_Space
 70
     0
 10
0.0
 20
0.0
 30
0.0
  3
*Paper_Space
  1

  0
ENDBLK
  5
1A
330
18
100
AcDbEntity
 67
     1
  8
0
100
AcDbBlockEnd
  0
BLOCK
  5
33
330
32
100
AcDbEntity
  8
0
100
AcDbBlockBegin
  2
_OPEN30
 70
     0
 10
0.0
 20
0.0
 30
0.0
  3
_OPEN30
  1

  0
LINE
  5
34
330
32
100
AcDbEntity
  8
0
  6
ByBlock
 62
     0
100
AcDbLine
 10
-1.0
 20
0.26794919
 30
0.0
 11
0.0
 21
0.0
 31
0.0
  0
LINE
  5
35
330
32
100
AcDbEntity
  8
0
  6
ByBlock
 62
     0
100
AcDbLine
 10
0.0
 20
0.0
 30
0.0
 11
-1.0
 21
-0.26794919
 31
0.0
  0
LINE
  5
36
330
32
100
AcDbEntity
  8
0
  6
ByBlock
 62
     0
100
AcDbLine
 10
0.0
 20
0.0
 30
0.0
 11
-1.0
 21
0.0
 31
0.0
  0
ENDBLK
  5
37
330
32
100
AcDbEntity
  8
0
100
AcDbBlockEnd
  0
BLOCK
  5
B93
330
B89
100
AcDbEntity
  8
0
100
AcDbBlockBegin
  2
*D1
 70
     1
 10
0.0
 20
0.0
 30
0.0
  3
*D1
  1

  0
LINE
  5
122D
330
B89
100
AcDbEntity
  8
SIZE
 62
     0
370
    -2
100
AcDbLine
 10
-314.4855110895245
 20
-660.2776313169656
 30
0.0
 11
-357.4203349729813
 21
-660.2776313169656
 31
0.0
  0
LINE
  5
122E
330
B89
100
AcDbEntity
  8
SIZE
 62
     0
370
    -2
100
AcDbLine
 10
-314.4855110895245
 20
-810.2776313169655
 30
0.0
 11
-357.4203349729813
 21
-810.2776313169655
 31
0.0
  0
LINE
  5
122F
330
B89
100
AcDbEntity
  8
SIZE
 62
     0
370
    -2
100
AcDbLine
 10
-352.4203349729813
 20
-670.2776313169656
 30
0.0
 11
-352.4203349729813
 21
-800.2776313169656
 31
0.0
  0
INSERT
  5
1230
330
B89
100
AcDbEntity
  8
SIZE
 62
     0
370
    -2
100
AcDbBlockReference
  2
_OPEN30
 10
-352.4203349729813
 20
-660.2776313169656
 30
0.0
 41
10.0
 42
10.0
 43
10.0
 50
90.0
  0
INSERT
  5
1231
330
B89
100
AcDbEntity
  8
SIZE
 62
     0
370
    -2
100
AcDbBlockReference
  2
_OPEN30
 10
-352.4203349729813
 20
-810.2776313169655
 30
0.0
 41
10.0
 42
10.0
 43
10.0
 50
270.0
  0
MTEXT
  5
1232
330
B89
100
AcDbEntity
  8
SIZE
 62
     0
100
AcDbMText
 10
-362.4203349729812
 20
-735.2776313169656
 30
0.0
 40
10.0
 41
0.0
 71
     5
 72
     1
  1
\A1;150
 11
0.0000000000000001
 21
1.0
 31
0.0
 73
     1
 44
1.0
1001
ACAD
1000
MTEXTBEGIN
1070
    73
1070
     1
1070
    44
1040
1.0
1070
    74
1070
     0
1000
MTEXTEND
  0
POINT
  5
1233
330
B89
100
AcDbEntity
  8
Defpoints
 62
     0
100
AcDbPoint
 10
-309.4855110895245
 20
-660.2776313169656
 30
0.0
  0
POINT
  5
1234
330
B89
100
AcDbEntity
  8
Defpoints
 62
     0
100
AcDbPoint
 10
-309.4855110895245
 20
-810.2776313169655
 30
0.0
  0
POINT
  5
1235
330
B89
100
AcDbEntity
  8
Defpoints
 62
     0
100
AcDbPoint
 10
-352.4203349729813
 20
-810.2776313169655
 30
0.0
  0
ENDBLK
  5
B94
330
B89
100
AcDbEntity
  8
0
100
AcDbBlockEnd
  0
BLOCK
  5
BA0
330
B96
100
AcDbEntity
  8
0
100
AcDbBlockBegin
  2
*D2
 70
     1
 10
0.0
 20
0.0
 30
0.0
  3
*D2
  1

  0
LINE
  5
1224
330
B96
100
AcDbEntity
  8
SIZE
 62
     0
370
    -2
100
AcDbLine
 10
-314.4855110895245
 20
-810.2776313169655
 30
0.0
 11
-357.217762610784
 21
-810.2776313169655
 31
0.0
  0
LINE
  5
1225
330
B96
100
AcDbEntity
  8
SIZE
 62
     0
370
    -2
100
AcDbLine
 10
-314.4855110895245
 20
-960.2776313169655
 30
0.0
 11
-357.217762610784
 21
-960.2776313169655
 31
0.0
  0
LINE
  5
1226
330
B96
100
AcDbEntity
  8
SIZE
 62
     0
370
    -2
100
AcDbLine
 10
-352.2177626107839
 20
-820.2776313169655
 30
0.0
 11
-352.217762610784
 21
-950.2776313169656
 31
0.0
  0
INSERT
  5
1227
330
B96
100
AcDbEntity
  8
SIZE
 62
     0
370
    -2
100
AcDbBlockReference
  2
_OPEN30
 10
-352.2177626107839
 20
-810.2776313169655
 30
0.0
 41
10.0
 42
10.0
 43
10.0
 50
90.0
  0
INSERT
  5
1228
330
B96
100
AcDbEntity
  8
SIZE
 62
     0
370
    -2
100
AcDbBlockReference
  2
_OPEN30
 10
-352.217762610784
 20
-960.2776313169655
 30
0.0
 41
10.0
 42
10.0
 43
10.0
 50
270.0
  0
MTEXT
  5
1229
330
B96
100
AcDbEntity
  8
SIZE
 62
     0
100
AcDbMText
 10
-362.2177626107838
 20
-885.2776313169655
 30
0.0
 40
10.0
 41
0.0
 71
     5
 72
     1
  1
\A1;150
 11
0.0000000000000001
 21
1.0
 31
0.0
 73
     1
 44
1.0
1001
ACAD
1000
MTEXTBEGIN
1070
    73
1070
     1
1070
    44
1040
1.0
1070
    74
1070
     0
1000
MTEXTEND
  0
POINT
  5
122A
330
B96
100
AcDbEntity
  8
Defpoints
 62
     0
100
AcDbPoint
 10
-309.4855110895245
 20
-810.2776313169655
 30
0.0
  0
POINT
  5
122B
330
B96
100
AcDbEntity
  8
Defpoints
 62
     0
100
AcDbPoint
 10
-309.4855110895245
 20
-960.2776313169655
 30
0.0
  0
POINT
  5
122C
330
B96
100
AcDbEntity
  8
Defpoints
 62
     0
100
AcDbPoint
 10
-352.217762610784
 20
-960.2776313169655
 30
0.0
  0
ENDBLK
  5
BA1
330
B96
100
AcDbEntity
  8
0
100
AcDbBlockEnd
  0
BLOCK
  5
BAD
330
BA3
100
AcDbEntity
  8
0
100
AcDbBlockBegin
  2
*D3
 70
     1
 10
0.0
 20
0.0
 30
0.0
  3
*D3
  1

  0
LINE
  5
121B
330
BA3
100
AcDbEntity
  8
SIZE
 62
     0
370
    -2
100
AcDbLine
 10
-314.4855110895245
 20
-960.2776313169655
 30
0.0
 11
-356.9877206922773
 21
-960.2776313169655
 31
0.0
  0
LINE
  5
121C
330
BA3
100
AcDbEntity
  8
SIZE
 62
     0
370
    -2
100
AcDbLine
 10
-314.4855110895245
 20
-1110.277631316965
 30
0.0
 11
-356.9877206922773
 21
-1110.277631316965
 31
0.0
  0
LINE
  5
121D
330
BA3
100
AcDbEntity
  8
SIZE
 62
     0
370
    -2
100
AcDbLine
 10
-351.9877206922773
 20
-970.2776313169657
 30
0.0
 11
-351.9877206922773
 21
-1100.277631316965
 31
0.0
  0
INSERT
  5
121E
330
BA3
100
AcDbEntity
  8
SIZE
 62
     0
370
    -2
100
AcDbBlockReference
  2
_OPEN30
 10
-351.9877206922773
 20
-960.2776313169655
 30
0.0
 41
10.0
 42
10.0
 43
10.0
 50
90.0
  0
INSERT
  5
121F
330
BA3
100
AcDbEntity
  8
SIZE
 62
     0
370
    -2
100
AcDbBlockReference
  2
_OPEN30
 10
-351.9877206922773
 20
-1110.277631316965
 30
0.0
 41
10.0
 42
10.0
 43
10.0
 50
270.0
  0
MTEXT
  5
1220
330
BA3
100
AcDbEntity
  8
SIZE
 62
     0
100
AcDbMText
 10
-361.9877206922772
 20
-1035.277631316965
 30
0.0
 40
10.0
 41
0.0
 71
     5
 72
     1
  1
\A1;150
 11
0.0000000000000001
 21
1.0
 31
0.0
 73
     1
 44
1.0
1001
ACAD
1000
MTEXTBEGIN
1070
    73
1070
     1
1070
    44
1040
1.0
1070
    74
1070
     0
1000
MTEXTEND
  0
POINT
  5
1221
330
BA3
100
AcDbEntity
  8
Defpoints
 62
     0
100
AcDbPoint
 10
-309.4855110895245
 20
-960.2776313169655
 30
0.0
  0
POINT
  5
1222
330
BA3
100
AcDbEntity
  8
Defpoints
 62
     0
100
AcDbPoint
 10
-309.4855110895245
 20
-1110.277631316965
 30
0.0
  0
POINT
  5
1223
330
BA3
100
AcDbEntity
  8
Defpoints
 62
     0
100
AcDbPoint
 10
-351.9877206922773
 20
-1110.277631316965
 30
0.0
  0
ENDBLK
  5
BAE
330
BA3
100
AcDbEntity
  8
0
100
AcDbBlockEnd
  0
BLOCK
  5
BBA
330
BB0
100
AcDbEntity
  8
0
100
AcDbBlockBegin
  2
*D4
 70
     1
 10
0.0
 20
0.0
 30
0.0
  3
*D4
  1

  0
LINE
  5
1212
330
BB0
100
AcDbEntity
  8
SIZE
 62
     0
370
    -2
100
AcDbLine
 10
-314.4855110895245
 20
-1110.277631316965
 30
0.0
 11
-356.8250825966313
 21
-1110.277631316965
 31
0.0
  0
LINE
  5
1213
330
BB0
100
AcDbEntity
  8
SIZE
 62
     0
370
    -2
100
AcDbLine
 10
-314.4855110895245
 20
-1260.277631316965
 30
0.0
 11
-356.8250825966314
 21
-1260.277631316965
 31
0.0
  0
LINE
  5
1214
330
BB0
100
AcDbEntity
  8
SIZE
 62
     0
370
    -2
100
AcDbLine
 10
-351.8250825966313
 20
-1120.277631316965
 30
0.0
 11
-351.8250825966314
 21
-1250.277631316965
 31
0.0
  0
INSERT
  5
1215
330
BB0
100
AcDbEntity
  8
SIZE
 62
     0
370
    -2
100
AcDbBlockReference
  2
_OPEN30
 10
-351.8250825966313
 20
-1110.277631316965
 30
0.0
 41
10.0
 42
10.0
 43
10.0
 50
90.0
  0
INSERT
  5
1216
330
BB0
100
AcDbEntity
  8
SIZE
 62
     0
370
    -2
100
AcDbBlockReference
  2
_OPEN30
 10
-351.8250825966314
 20
-1260.277631316965
 30
0.0
 41
10.0
 42
10.0
 43
10.0
 50
270.0
  0
MTEXT
  5
1217
330
BB0
100
AcDbEntity
  8
SIZE
 62
     0
100
AcDbMText
 10
-361.8250825966311
 20
-1185.277631316965
 30
0.0
 40
10.0
 41
0.0
 71
     5
 72
     1
  1
\A1;150
 11
0.0000000000000001
 21
1.0
 31
0.0
 73
     1
 44
1.0
1001
ACAD
1000
MTEXTBEGIN
1070
    73
1070
     1
1070
    44
1040
1.0
1070
    74
1070
     0
1000
MTEXTEND
  0
POINT
  5
1218
330
BB0
100
AcDbEntity
  8
Defpoints
 62
     0
100
AcDbPoint
 10
-309.4855110895245
 20
-1110.277631316965
 30
0.0
  0
POINT
  5
1219
330
BB0
100
AcDbEntity
  8
Defpoints
 62
     0
100
AcDbPoint
 10
-309.4855110895245
 20
-1260.277631316965
 30
0.0
  0
POINT
  5
121A
330
BB0
100
AcDbEntity
  8
Defpoints
 62
     0
100
AcDbPoint
 10
-351.8250825966314
 20
-1260.277631316965
 30
0.0
  0
ENDBLK
  5
BBB
330
BB0
100
AcDbEntity
  8
0
100
AcDbBlockEnd
  0
BLOCK
  5
BC7
330
BBD
100
AcDbEntity
  8
0
100
AcDbBlockBegin
  2
*D5
 70
     1
 10
0.0
 20
0.0
 30
0.0
  3
*D5
  1

  0
LINE
  5
1209
330
BBD
100
AcDbEntity
  8
SIZE
 62
     0
370
    -2
100
AcDbLine
 10
-282.4855110895383
 20
-579.2776313169651
 30
0.0
 11
-398.1681945371564
 21
-579.2776313169651
 31
0.0
  0
LINE
  5
120A
330
BBD
100
AcDbEntity
  8
SIZE
 62
     0
370
    -2
100
AcDbLine
 10
-243.9855110895382
 20
-1341.277631316965
 30
0.0
 11
-398.1681945371565
 21
-1341.277631316965
 31
0.0
  0
LINE
  5
120B
330
BBD
100
AcDbEntity
  8
SIZE
 62
     0
370
    -2
100
AcDbLine
 10
-393.1681945371563
 20
-589.277631316965
 30
0.0
 11
-393.1681945371565
 21
-1331.277631316965
 31
0.0
  0
INSERT
  5
120C
330
BBD
100
AcDbEntity
  8
SIZE
 62
     0
370
    -2
100
AcDbBlockReference
  2
_OPEN30
 10
-393.1681945371563
 20
-579.2776313169651
 30
0.0
 41
10.0
 42
10.0
 43
10.0
 50
90.0
  0
INSERT
  5
120D
330
BBD
100
AcDbEntity
  8
SIZE
 62
     0
370
    -2
100
AcDbBlockReference
  2
_OPEN30
 10
-393.1681945371565
 20
-1341.277631316965
 30
0.0
 41
10.0
 42
10.0
 43
10.0
 50
270.0
  0
MTEXT
  5
120E
330
BBD
100
AcDbEntity
  8
SIZE
 62
     0
100
AcDbMText
 10
-403.1681945371563
 20
-960.277631316965
 30
0.0
 40
10.0
 41
0.0
 71
     5
 72
     1
  1
\A1;762
 11
0.0000000000000001
 21
1.0
 31
0.0
 73
     1
 44
1.0
1001
ACAD
1000
MTEXTBEGIN
1070
    73
1070
     1
1070
    44
1040
1.0
1070
    74
1070
     0
1000
MTEXTEND
  0
POINT
  5
120F
330
BBD
100
AcDbEntity
  8
Defpoints
 62
     0
100
AcDbPoint
 10
-277.4855110895383
 20
-579.2776313169651
 30
0.0
  0
POINT
  5
1210
330
BBD
100
AcDbEntity
  8
Defpoints
 62
     0
100
AcDbPoint
 10
-238.9855110895382
 20
-1341.277631316965
 30
0.0
  0
POINT
  5
1211
330
BBD
100
AcDbEntity
  8
Defpoints
 62
     0
100
AcDbPoint
 10
-393.1681945371565
 20
-1341.277631316965
 30
0.0
  0
ENDBLK
  5
BC8
330
BBD
100
AcDbEntity
  8
0
100
AcDbBlockEnd
  0
BLOCK
  5
BD4
330
BCA
100
AcDbEntity
  8
0
100
AcDbBlockBegin
  2
*D6
 70
     1
 10
0.0
 20
0.0
 30
0.0
  3
*D6
  1

  0
LINE
  5
11F7
330
BCA
100
AcDbEntity
  8
SIZE
 62
     0
370
    -2
100
AcDbLine
 10
-309.4855110895245
 20
-655.2776313169657
 30
0.0
 11
-309.4855110895245
 21
-533.7200016120257
 31
0.0
  0
LINE
  5
11F8
330
BCA
100
AcDbEntity
  8
SIZE
 62
     0
370
    -2
100
AcDbLine
 10
569.5144889104623
 20
-655.2776313169657
 30
0.0
 11
569.5144889104623
 21
-533.7200016120257
 31
0.0
  0
LINE
  5
11F9
330
BCA
100
AcDbEntity
  8
SIZE
 62
     0
370
    -2
100
AcDbLine
 10
-299.4855110895245
 20
-538.7200016120257
 30
0.0
 11
559.5144889104623
 21
-538.7200016120257
 31
0.0
  0
INSERT
  5
11FA
330
BCA
100
AcDbEntity
  8
SIZE
 62
     0
370
    -2
100
AcDbBlockReference
  2
_OPEN30
 10
-309.4855110895245
 20
-538.7200016120257
 30
0.0
 41
10.0
 42
10.0
 43
10.0
 50
180.0
  0
INSERT
  5
11FB
330
BCA
100
AcDbEntity
  8
SIZE
 62
     0
370
    -2
100
AcDbBlockReference
  2
_OPEN30
 10
569.5144889104623
 20
-538.7200016120257
 30
0.0
 41
10.0
 42
10.0
 43
10.0
  0
MTEXT
  5
11FC
330
BCA
100
AcDbEntity
  8
SIZE
 62
     0
100
AcDbMText
 10
130.0144889104689
 20
-528.7200016120257
 30
0.0
 40
10.0
 41
0.0
 71
     5
 72
     1
  1
\A1;879
 73
     1
 44
1.0
1001
ACAD
1000
MTEXTBEGIN
1070
    73
1070
     1
1070
    44
1040
1.0
1070
    74
1070
     0
1000
MTEXTEND
  0
POINT
  5
11FD
330
BCA
100
AcDbEntity
  8
Defpoints
 62
     0
100
AcDbPoint
 10
-309.4855110895245
 20
-660.2776313169656
 30
0.0
  0
POINT
  5
11FE
330
BCA
100
AcDbEntity
  8
Defpoints
 62
     0
100
AcDbPoint
 10
569.5144889104623
 20
-660.2776313169656
 30
0.0
  0
POINT
  5
11FF
330
BCA
100
AcDbEntity
  8
Defpoints
 62
     0
100
AcDbPoint
 10
569.5144889104623
 20
-538.7200016120257
 30
0.0
  0
ENDBLK
  5
BD5
330
BCA
100
AcDbEntity
  8
0
100
AcDbBlockEnd
  0
BLOCK
  5
BE1
330
BD7
100
AcDbEntity
  8
0
100
AcDbBlockBegin
  2
*D7
 70
     1
 10
0.0
 20
0.0
 30
0.0
  3
*D7
  1

  0
LINE
  5
1200
330
BD7
100
AcDbEntity
  8
SIZE
 62
     0
370
    -2
100
AcDbLine
 10
-325.9855110895246
 20
-622.2776313169653
 30
0.0
 11
-325.9855110895246
 21
-507.1337428596361
 31
0.0
  0
LINE
  5
1201
330
BD7
100
AcDbEntity
  8
SIZE
 62
     0
370
    -2
100
AcDbLine
 10
586.0144889104623
 20
-622.2776313169653
 30
0.0
 11
586.0144889104623
 21
-507.1337428596361
 31
0.0
  0
LINE
  5
1202
330
BD7
100
AcDbEntity
  8
SIZE
 62
     0
370
    -2
100
AcDbLine
 10
-315.9855110895246
 20
-512.1337428596361
 30
0.0
 11
576.0144889104623
 21
-512.1337428596361
 31
0.0
  0
INSERT
  5
1203
330
BD7
100
AcDbEntity
  8
SIZE
 62
     0
370
    -2
100
AcDbBlockReference
  2
_OPEN30
 10
-325.9855110895246
 20
-512.1337428596361
 30
0.0
 41
10.0
 42
10.0
 43
10.0
 50
180.0
  0
INSERT
  5
1204
330
BD7
100
AcDbEntity
  8
SIZE
 62
     0
370
    -2
100
AcDbBlockReference
  2
_OPEN30
 10
586.0144889104623
 20
-512.1337428596361
 30
0.0
 41
10.0
 42
10.0
 43
10.0
  0
MTEXT
  5
1205
330
BD7
100
AcDbEntity
  8
SIZE
 62
     0
100
AcDbMText
 10
130.0144889104689
 20
-502.1337428596361
 30
0.0
 40
10.0
 41
0.0
 71
     5
 72
     1
  1
\A1;912
 73
     1
 44
1.0
1001
ACAD
1000
MTEXTBEGIN
1070
    73
1070
     1
1070
    44
1040
1.0
1070
    74
1070
     0
1000
MTEXTEND
  0
POINT
  5
1206
330
BD7
100
AcDbEntity
  8
Defpoints
 62
     0
100
AcDbPoint
 10
-325.9855110895246
 20
-627.2776313169653
 30
0.0
  0
POINT
  5
1207
330
BD7
100
AcDbEntity
  8
Defpoints
 62
     0
100
AcDbPoint
 10
586.0144889104623
 20
-627.2776313169653
 30
0.0
  0
POINT
  5
1208
330
BD7
100
AcDbEntity
  8
Defpoints
 62
     0
100
AcDbPoint
 10
586.0144889104623
 20
-512.1337428596361
 30
0.0
  0
ENDBLK
  5
BE2
330
BD7
100
AcDbEntity
  8
0
100
AcDbBlockEnd
  0
BLOCK
  5
C93
330
C92
100
AcDbEntity
  8
0
100
AcDbBlockBegin
  2
_DOTBLANK
 70
     0
 10
0.0
 20
0.0
 30
0.0
  3
_DOTBLANK
  1

  0
CIRCLE
  5
C94
330
C92
100
AcDbEntity
  8
0
  6
Continuous
 62
     7
100
AcDbCircle
 10
0.0
 20
0.0
 30
0.0
 40
0.5
  0
LINE
  5
C95
330
C92
100
AcDbEntity
  8
0
  6
Continuous
 62
     7
100
AcDbLine
 10
-0.5
 20
0.0
 30
0.0
 11
-1.0
 21
0.0
 31
0.0
  0
ENDBLK
  5
C96
330
C92
100
AcDbEntity
  8
0
100
AcDbBlockEnd
  0
ENDSEC
  0
SECTION
  2
ENTITIES
  0
LINE
  5
C8
330
2
100
AcDbEntity
  8
OUTLINE
100
AcDbLine
 10
516.014488910462
 20
-1327.277631316965
 30
0.0
 11
516.0144889104619
 21
-593.2776313169653
 31
0.0
  0
LINE
  5
C9
330
2
100
AcDbEntity
  8
OUTLINE
100
AcDbLine
 10
516.0144889104623
 20
-593.2776313169653
 30
0.0
 11
516.0144889104623
 21
-583.2776313169651
 31
0.0
  0
LINE
  5
CA
330
2
100
AcDbEntity
  8
OUTLINE
100
AcDbLine
 10
516.0144889104623
 20
-583.2776313169651
 30
0.0
 11
546.0144889104623
 21
-583.2776313169651
 31
0.0
  0
LINE
  5
CB
330
2
100
AcDbEntity
  8
OUTLINE
100
AcDbLine
 10
546.0144889104623
 20
-585.32641180477
 30
0.0
 11
546.0144889104623
 21
-583.2776313169651
 31
0.0
  0
LINE
  5
CC
330
2
100
AcDbEntity
  8
OUTLINE
100
AcDbLine
 10
517.0144889104622
 20
-584.2776313169649
 30
0.0
 11
545.014488910462
 21
-584.2776313169649
 31
0.0
  0
LINE
  5
CD
330
2
100
AcDbEntity
  8
OUTLINE
100
AcDbLine
 10
516.0144889104623
 20
-593.2776313169653
 30
0.0
 11
517.0144889104623
 21
-593.2776313169653
 31
0.0
  0
LINE
  5
CE
330
2
100
AcDbEntity
  8
OUTLINE
100
AcDbLine
 10
546.0144889104623
 20
-1337.277631316965
 30
0.0
 11
546.0144889104623
 21
-1335.22885082916
 31
0.0
  0
LINE
  5
CF
330
2
100
AcDbEntity
  8
OUTLINE
100
AcDbLine
 10
541.0144889104633
 20
-1337.277631316965
 30
0.0
 11
546.0144889104623
 21
-1337.277631316965
 31
0.0
  0
LINE
  5
D0
330
2
100
AcDbEntity
  8
OUTLINE
100
AcDbLine
 10
516.0144889104623
 20
-1337.277631316965
 30
0.0
 11
516.0144889104623
 21
-1327.277631316965
 31
0.0
  0
LINE
  5
D1
330
2
100
AcDbEntity
  8
OUTLINE
100
AcDbLine
 10
517.0144889104623
 20
-1327.277631316965
 30
0.0
 11
516.0144889104623
 21
-1327.277631316965
 31
0.0
  0
LINE
  5
D2
330
2
100
AcDbEntity
  8
OUTLINE
100
AcDbLine
 10
517.0144889104622
 20
-1336.277631316965
 30
0.0
 11
517.0144889104622
 21
-1327.277631316965
 31
0.0
  0
LINE
  5
D3
330
2
100
AcDbEntity
  8
OUTLINE
100
AcDbLine
 10
517.0144889104618
 20
-593.2776313169653
 30
0.0
 11
517.0144889104622
 21
-1327.277631316965
 31
0.0
  0
LINE
  5
D4
330
2
100
AcDbEntity
  8
OUTLINE
100
AcDbLine
 10
517.0144889104622
 20
-593.2776313169653
 30
0.0
 11
517.0144889104622
 21
-584.2776313169649
 31
0.0
  0
LINE
  5
D5
330
2
100
AcDbEntity
  8
OUTLINE
100
AcDbLine
 10
545.0144889104623
 20
-1336.277631316965
 30
0.0
 11
517.0144889104623
 21
-1336.277631316965
 31
0.0
  0
LINE
  5
D7
330
2
100
AcDbEntity
  8
OUTLINE
100
AcDbLine
 10
570.5144889104623
 20
-1263.777631316965
 30
0.0
 11
568.5144889104623
 21
-1263.777631316965
 31
0.0
  0
LINE
  5
D8
330
2
100
AcDbEntity
  8
OUTLINE
100
AcDbLine
 10
568.5144889104623
 20
-1256.777631316965
 30
0.0
 11
570.5144889104623
 21
-1256.777631316965
 31
0.0
  0
LINE
  5
D9
330
2
100
AcDbEntity
  8
OUTLINE
100
AcDbLine
 10
586.0144889104623
 20
-1293.277631316965
 30
0.0
 11
586.0144889104623
 21
-627.2776313169653
 31
0.0
  0
LINE
  5
DA
330
2
100
AcDbEntity
  8
OUTLINE
100
AcDbLine
 10
545.0144889104623
 20
-1336.277631316965
 30
0.0
 11
586.0144889104623
 21
-1293.277631316965
 31
0.0
  0
LINE
  5
DB
330
2
100
AcDbEntity
  8
OUTLINE
100
AcDbLine
 10
545.0144889104623
 20
-584.2776313169649
 30
0.0
 11
545.0144889104623
 21
-1336.277631316965
 31
0.0
  0
LINE
  5
DC
330
2
100
AcDbEntity
  8
OUTLINE
100
AcDbLine
 10
568.5144889104623
 20
-1106.777631316965
 30
0.0
 11
570.5144889104623
 21
-1106.777631316965
 31
0.0
  0
LINE
  5
DD
330
2
100
AcDbEntity
  8
OUTLINE
100
AcDbLine
 10
570.5144889104623
 20
-1113.777631316965
 30
0.0
 11
568.5144889104623
 21
-1113.777631316965
 31
0.0
  0
LINE
  5
DE
330
2
100
AcDbEntity
  8
OUTLINE
100
AcDbLine
 10
568.5144889104623
 20
-956.7776313169652
 30
0.0
 11
570.5144889104623
 21
-956.7776313169652
 31
0.0
  0
LINE
  5
DF
330
2
100
AcDbEntity
  8
OUTLINE
100
AcDbLine
 10
570.5144889104623
 20
-963.7776313169652
 30
0.0
 11
568.5144889104623
 21
-963.7776313169652
 31
0.0
  0
LINE
  5
E0
330
2
100
AcDbEntity
  8
OUTLINE
100
AcDbLine
 10
568.5144889104623
 20
-806.7776313169652
 30
0.0
 11
570.5144889104623
 21
-806.7776313169652
 31
0.0
  0
LINE
  5
E1
330
2
100
AcDbEntity
  8
OUTLINE
100
AcDbLine
 10
570.5144889104623
 20
-813.7776313169652
 30
0.0
 11
568.5144889104623
 21
-813.7776313169652
 31
0.0
  0
LINE
  5
E2
330
2
100
AcDbEntity
  8
OUTLINE
100
AcDbLine
 10
568.5144889104623
 20
-656.7776313169653
 30
0.0
 11
570.5144889104623
 21
-656.7776313169653
 31
0.0
  0
LINE
  5
E3
330
2
100
AcDbEntity
  8
OUTLINE
100
AcDbLine
 10
570.5144889104623
 20
-663.7776313169653
 30
0.0
 11
568.5144889104623
 21
-663.7776313169653
 31
0.0
  0
LINE
  5
E4
330
2
100
AcDbEntity
  8
OUTLINE
100
AcDbLine
 10
586.0144889104623
 20
-627.2776313169653
 30
0.0
 11
545.0144889104623
 21
-584.2776313169649
 31
0.0
  0
ELLIPSE
  5
F7
330
2
100
AcDbEntity
  8
OUTLINE
100
AcDbEllipse
 10
531.0144889104617
 20
-592.4133174429442
 30
0.0
 11
-2.0
 21
-0.0000000000000008
 31
0.0
210
0.0
220
0.0
230
1.0
 40
0.8745946342037113
 41
-0.0000000000000006
 42
6.283185307179584
  0
ELLIPSE
  5
F8
330
2
100
AcDbEntity
  8
OUTLINE
100
AcDbEllipse
 10
531.0144889104617
 20
-592.8981722932056
 30
0.0
 11
2.0
 21
0.0000000000000008
 31
0.0
210
0.0
220
0.0
230
1.0
 40
0.8745946342037113
 41
0.1390417380979214
 42
3.002550915491868
  0
ELLIPSE
  5
FA
330
2
100
AcDbEntity
  8
OUTLINE
100
AcDbEllipse
 10
531.0144889104617
 20
-776.5630454759866
 30
0.0
 11
2.0
 21
0.0000000000000008
 31
0.0
210
0.0
220
0.0
230
1.0
 40
0.8745946342037113
 41
0.1390417380971336
 42
3.002550915492656
  0
ELLIPSE
  5
FC
330
2
100
AcDbEntity
  8
OUTLINE
100
AcDbEllipse
 10
531.0144889104617
 20
-776.0781906257252
 30
0.0
 11
-2.0
 21
-0.0000000000000008
 31
0.0
210
0.0
220
0.0
230
1.0
 40
0.8745946342037113
 41
-0.0000000000000006
 42
6.283185307179584
  0
ELLIPSE
  5
FD
330
2
100
AcDbEntity
  8
OUTLINE
100
AcDbEllipse
 10
531.0144889104622
 20
-960.2279186587635
 30
0.0
 11
2.0
 21
0.0000000000000008
 31
0.0
210
0.0
220
0.0
230
1.0
 40
0.8745946342037113
 41
0.1390417380980305
 42
3.002550915491758
  0
ELLIPSE
  5
FF
330
2
100
AcDbEntity
  8
OUTLINE
100
AcDbEllipse
 10
531.0144889104622
 20
-959.7430638085006
 30
0.0
 11
-2.0
 21
-0.0000000000000008
 31
0.0
210
0.0
220
0.0
230
1.0
 40
0.8745946342037113
 41
-0.0000000000000006
 42
6.283185307179584
  0
ELLIPSE
  5
100
330
2
100
AcDbEntity
  8
OUTLINE
100
AcDbEllipse
 10
531.0144889104622
 20
-1143.892791841541
 30
0.0
 11
2.0
 21
0.0000000000000008
 31
0.0
210
0.0
220
0.0
230
1.0
 40
0.8745946342037113
 41
0.1390417380980305
 42
3.002550915491758
  0
ELLIPSE
  5
102
330
2
100
AcDbEntity
  8
OUTLINE
100
AcDbEllipse
 10
531.0144889104622
 20
-1143.407936991278
 30
0.0
 11
-2.0
 21
-0.0000000000000008
 31
0.0
210
0.0
220
0.0
230
1.0
 40
0.8745946342037113
 41
-0.0000000000000006
 42
6.283185307179584
  0
ELLIPSE
  5
103
330
2
100
AcDbEntity
  8
OUTLINE
100
AcDbEllipse
 10
531.0144889104622
 20
-1327.557665024329
 30
0.0
 11
2.0
 21
0.0000000000000008
 31
0.0
210
0.0
220
0.0
230
1.0
 40
0.8745946342037113
 41
0.1390417380979214
 42
3.002550915491868
  0
ELLIPSE
  5
105
330
2
100
AcDbEntity
  8
OUTLINE
100
AcDbEllipse
 10
531.0144889104622
 20
-1327.072810174068
 30
0.0
 11
-2.0
 21
-0.0000000000000008
 31
0.0
210
0.0
220
0.0
230
1.0
 40
0.8745946342037113
 41
-0.0000000000000006
 42
6.283185307179584
  0
ARC
  5
106
330
2
100
AcDbEntity
  8
OUTLINE
100
AcDbCircle
 10
568.5144889104623
 20
-1260.277631316965
 30
0.0
 40
3.5
100
AcDbArc
 50
90.0
 51
270.0
  0
ARC
  5
107
330
2
100
AcDbEntity
  8
OUTLINE
100
AcDbCircle
 10
570.5144889104623
 20
-1260.277631316965
 30
0.0
 40
3.5
100
AcDbArc
 50
270.0
 51
90.0
  0
ARC
  5
108
330
2
100
AcDbEntity
  8
OUTLINE
100
AcDbCircle
 10
570.5144889104623
 20
-1110.277631316965
 30
0.0
 40
3.5
100
AcDbArc
 50
270.0
 51
90.0
  0
ARC
  5
109
330
2
100
AcDbEntity
  8
OUTLINE
100
AcDbCircle
 10
568.5144889104623
 20
-1110.277631316965
 30
0.0
 40
3.5
100
AcDbArc
 50
90.0
 51
270.0
  0
ARC
  5
10A
330
2
100
AcDbEntity
  8
OUTLINE
100
AcDbCircle
 10
570.5144889104623
 20
-960.2776313169652
 30
0.0
 40
3.5
100
AcDbArc
 50
270.0
 51
90.0
  0
ARC
  5
10B
330
2
100
AcDbEntity
  8
OUTLINE
100
AcDbCircle
 10
568.5144889104623
 20
-960.2776313169652
 30
0.0
 40
3.5
100
AcDbArc
 50
90.0
 51
270.0
  0
ARC
  5
10C
330
2
100
AcDbEntity
  8
OUTLINE
100
AcDbCircle
 10
570.5144889104623
 20
-810.2776313169652
 30
0.0
 40
3.5
100
AcDbArc
 50
270.0
 51
90.0
  0
ARC
  5
10D
330
2
100
AcDbEntity
  8
OUTLINE
100
AcDbCircle
 10
568.5144889104623
 20
-810.2776313169652
 30
0.0
 40
3.5
100
AcDbArc
 50
90.0
 51
270.0
  0
ARC
  5
10E
330
2
100
AcDbEntity
  8
OUTLINE
100
AcDbCircle
 10
570.5144889104623
 20
-660.2776313169653
 30
0.0
 40
3.5
100
AcDbArc
 50
270.0
 51
90.0
  0
ARC
  5
10F
330
2
100
AcDbEntity
  8
OUTLINE
100
AcDbCircle
 10
568.5144889104623
 20
-660.2776313169653
 30
0.0
 40
3.5
100
AcDbArc
 50
90.0
 51
270.0
  0
LINE
  5
110
330
2
100
AcDbEntity
  8
OUTLINE
100
AcDbLine
 10
-256.9855110895246
 20
-1327.277631316965
 30
0.0
 11
-256.9855110895246
 21
-1336.277631316965
 31
0.0
  0
LINE
  5
111
330
2
100
AcDbEntity
  8
OUTLINE
100
AcDbLine
 10
-255.9855110895246
 20
-1337.277631316965
 30
0.0
 11
-255.9855110895246
 21
-1327.277631316965
 31
0.0
  0
LINE
  5
112
330
2
100
AcDbEntity
  8
OUTLINE
100
AcDbLine
 10
-285.9855110895246
 20
-1337.277631316965
 30
0.0
 11
-280.9855110895132
 21
-1337.277631316965
 31
0.0
  0
LINE
  5
113
330
2
100
AcDbEntity
  8
OUTLINE
100
AcDbLine
 10
-285.9855110895246
 20
-1337.277631316965
 30
0.0
 11
-285.9855110895246
 21
-1335.22885082916
 31
0.0
  0
LINE
  5
114
330
2
100
AcDbEntity
  8
OUTLINE
100
AcDbLine
 10
-256.9855110895246
 20
-1336.277631316965
 30
0.0
 11
-284.9855110895246
 21
-1336.277631316965
 31
0.0
  0
LINE
  5
115
330
2
100
AcDbEntity
  8
OUTLINE
100
AcDbLine
 10
-255.9855110895246
 20
-593.2776313169653
 30
0.0
 11
-255.9855110895244
 21
-1327.277631316965
 31
0.0
  0
LINE
  5
116
330
2
100
AcDbEntity
  8
OUTLINE
100
AcDbLine
 10
-256.9855110895246
 20
-1327.277631316965
 30
0.0
 11
-256.9855110895248
 21
-593.2776313169653
 31
0.0
  0
LINE
  5
117
330
2
100
AcDbEntity
  8
OUTLINE
100
AcDbLine
 10
-285.9855110895246
 20
-585.32641180477
 30
0.0
 11
-285.9855110895246
 21
-583.2776313169651
 31
0.0
  0
LINE
  5
118
330
2
100
AcDbEntity
  8
OUTLINE
100
AcDbLine
 10
-285.9855110895246
 20
-583.2776313169651
 30
0.0
 11
-255.9855110895246
 21
-583.2776313169651
 31
0.0
  0
LINE
  5
119
330
2
100
AcDbEntity
  8
OUTLINE
100
AcDbLine
 10
-255.9855110895246
 20
-593.2776313169653
 30
0.0
 11
-255.9855110895246
 21
-583.2776313169651
 31
0.0
  0
LINE
  5
11A
330
2
100
AcDbEntity
  8
OUTLINE
100
AcDbLine
 10
-256.9855110895246
 20
-593.2776313169653
 30
0.0
 11
-255.9855110895246
 21
-593.2776313169653
 31
0.0
  0
LINE
  5
11B
330
2
100
AcDbEntity
  8
OUTLINE
100
AcDbLine
 10
-256.9855110895246
 20
-584.2776313169649
 30
0.0
 11
-256.9855110895246
 21
-593.2776313169653
 31
0.0
  0
LINE
  5
11C
330
2
100
AcDbEntity
  8
OUTLINE
100
AcDbLine
 10
-284.9855110895246
 20
-584.2776313169649
 30
0.0
 11
-256.9855110895246
 21
-584.2776313169649
 31
0.0
  0
LINE
  5
11D
330
2
100
AcDbEntity
  8
OUTLINE
100
AcDbLine
 10
-255.9855110895246
 20
-1327.277631316965
 30
0.0
 11
-256.9855110895246
 21
-1327.277631316965
 31
0.0
  0
LINE
  5
11F
330
2
100
AcDbEntity
  8
OUTLINE
100
AcDbLine
 10
-284.9855110895246
 20
-1336.277631316965
 30
0.0
 11
-284.9855110895246
 21
-584.2776313169649
 31
0.0
  0
LINE
  5
120
330
2
100
AcDbEntity
  8
OUTLINE
100
AcDbLine
 10
-325.9855110895251
 20
-1293.277631316965
 30
0.0
 11
-284.9855110895246
 21
-1336.277631316965
 31
0.0
  0
LINE
  5
121
330
2
100
AcDbEntity
  8
OUTLINE
100
AcDbLine
 10
-325.9855110895246
 20
-627.2776313169653
 30
0.0
 11
-325.9855110895246
 21
-1293.277631316965
 31
0.0
  0
LINE
  5
122
330
2
100
AcDbEntity
  8
OUTLINE
100
AcDbLine
 10
-308.4855110895246
 20
-1263.777631316965
 30
0.0
 11
-310.4855110895246
 21
-1263.777631316965
 31
0.0
  0
LINE
  5
123
330
2
100
AcDbEntity
  8
OUTLINE
100
AcDbLine
 10
-310.4855110895246
 20
-1256.777631316965
 30
0.0
 11
-308.4855110895246
 21
-1256.777631316965
 31
0.0
  0
LINE
  5
124
330
2
100
AcDbEntity
  8
OUTLINE
100
AcDbLine
 10
-308.4855110895246
 20
-1113.777631316965
 30
0.0
 11
-310.4855110895246
 21
-1113.777631316965
 31
0.0
  0
LINE
  5
125
330
2
100
AcDbEntity
  8
OUTLINE
100
AcDbLine
 10
-310.4855110895246
 20
-1106.777631316965
 30
0.0
 11
-308.4855110895246
 21
-1106.777631316965
 31
0.0
  0
LINE
  5
126
330
2
100
AcDbEntity
  8
OUTLINE
100
AcDbLine
 10
-308.4855110895246
 20
-963.7776313169652
 30
0.0
 11
-310.4855110895246
 21
-963.7776313169652
 31
0.0
  0
LINE
  5
127
330
2
100
AcDbEntity
  8
OUTLINE
100
AcDbLine
 10
-310.4855110895246
 20
-956.7776313169652
 30
0.0
 11
-308.4855110895246
 21
-956.7776313169652
 31
0.0
  0
LINE
  5
128
330
2
100
AcDbEntity
  8
OUTLINE
100
AcDbLine
 10
-308.4855110895246
 20
-813.7776313169652
 30
0.0
 11
-310.4855110895246
 21
-813.7776313169652
 31
0.0
  0
LINE
  5
129
330
2
100
AcDbEntity
  8
OUTLINE
100
AcDbLine
 10
-310.4855110895246
 20
-806.7776313169652
 30
0.0
 11
-308.4855110895246
 21
-806.7776313169652
 31
0.0
  0
LINE
  5
12A
330
2
100
AcDbEntity
  8
OUTLINE
100
AcDbLine
 10
-308.4855110895246
 20
-663.7776313169653
 30
0.0
 11
-310.4855110895246
 21
-663.7776313169653
 31
0.0
  0
LINE
  5
12B
330
2
100
AcDbEntity
  8
OUTLINE
100
AcDbLine
 10
-310.4855110895246
 20
-656.7776313169653
 30
0.0
 11
-308.4855110895246
 21
-656.7776313169653
 31
0.0
  0
LINE
  5
12C
330
2
100
AcDbEntity
  8
OUTLINE
100
AcDbLine
 10
-284.9855110895246
 20
-584.2776313169649
 30
0.0
 11
-325.9855110895246
 21
-627.2776313169653
 31
0.0
  0
ELLIPSE
  5
13F
330
2
100
AcDbEntity
  8
OUTLINE
100
AcDbEllipse
 10
-270.9855110895246
 20
-592.4133174429442
 30
0.0
 11
-2.0
 21
-0.0000000000000008
 31
0.0
210
0.0
220
0.0
230
1.0
 40
0.8745946342037113
 41
-0.0000000000000006
 42
6.283185307179584
  0
ELLIPSE
  5
140
330
2
100
AcDbEntity
  8
OUTLINE
100
AcDbEllipse
 10
-270.9855110895246
 20
-592.8981722932056
 30
0.0
 11
2.0
 21
0.0000000000000008
 31
0.0
210
0.0
220
0.0
230
1.0
 40
0.8745946342037115
 41
0.1390417380979214
 42
3.002550915491868
  0
ELLIPSE
  5
142
330
2
100
AcDbEntity
  8
OUTLINE
100
AcDbEllipse
 10
-270.9855110895246
 20
-776.5630454759866
 30
0.0
 11
2.0
 21
0.0000000000000008
 31
0.0
210
0.0
220
0.0
230
1.0
 40
0.8745946342037115
 41
0.1390417380979214
 42
3.002550915491868
  0
ELLIPSE
  5
144
330
2
100
AcDbEntity
  8
OUTLINE
100
AcDbEllipse
 10
-270.9855110895246
 20
-776.0781906257252
 30
0.0
 11
-2.0
 21
-0.0000000000000008
 31
0.0
210
0.0
220
0.0
230
1.0
 40
0.8745946342037113
 41
-0.0000000000000006
 42
6.283185307179584
  0
ELLIPSE
  5
145
330
2
100
AcDbEntity
  8
OUTLINE
100
AcDbEllipse
 10
-270.9855110895246
 20
-960.2279186587635
 30
0.0
 11
2.0
 21
0.0000000000000008
 31
0.0
210
0.0
220
0.0
230
1.0
 40
0.8745946342037115
 41
0.1390417380980851
 42
3.002550915491703
  0
ELLIPSE
  5
147
330
2
100
AcDbEntity
  8
OUTLINE
100
AcDbEllipse
 10
-270.9855110895246
 20
-959.7430638085006
 30
0.0
 11
-2.0
 21
-0.0000000000000008
 31
0.0
210
0.0
220
0.0
230
1.0
 40
0.8745946342037113
 41
-0.0000000000000006
 42
6.283185307179584
  0
ELLIPSE
  5
148
330
2
100
AcDbEntity
  8
OUTLINE
100
AcDbEllipse
 10
-270.9855110895246
 20
-1143.892791841541
 30
0.0
 11
2.0
 21
0.0000000000000008
 31
0.0
210
0.0
220
0.0
230
1.0
 40
0.8745946342037115
 41
0.1390417380980305
 42
3.002550915491758
  0
ELLIPSE
  5
14A
330
2
100
AcDbEntity
  8
OUTLINE
100
AcDbEllipse
 10
-270.9855110895246
 20
-1143.407936991278
 30
0.0
 11
-2.0
 21
-0.0000000000000008
 31
0.0
210
0.0
220
0.0
230
1.0
 40
0.8745946342037113
 41
-0.0000000000000006
 42
6.283185307179584
  0
ELLIPSE
  5
14B
330
2
100
AcDbEntity
  8
OUTLINE
100
AcDbEllipse
 10
-270.9855110895246
 20
-1327.557665024327
 30
0.0
 11
2.0
 21
0.0000000000000008
 31
0.0
210
0.0
220
0.0
230
1.0
 40
0.8745946342037115
 41
0.139041738097079
 42
3.002550915492711
  0
ELLIPSE
  5
14D
330
2
100
AcDbEntity
  8
OUTLINE
100
AcDbEllipse
 10
-270.9855110895246
 20
-1327.072810174068
 30
0.0
 11
-2.0
 21
-0.0000000000000008
 31
0.0
210
0.0
220
0.0
230
1.0
 40
0.8745946342037113
 41
-0.0000000000000006
 42
6.283185307179584
  0
ARC
  5
14E
330
2
100
AcDbEntity
  8
OUTLINE
100
AcDbCircle
 10
-310.4855110895246
 20
-1260.277631316965
 30
0.0
 40
3.5
100
AcDbArc
 50
90.0
 51
270.0
  0
ARC
  5
14F
330
2
100
AcDbEntity
  8
OUTLINE
100
AcDbCircle
 10
-308.4855110895246
 20
-1260.277631316965
 30
0.0
 40
3.5
100
AcDbArc
 50
270.0
 51
90.0
  0
ARC
  5
150
330
2
100
AcDbEntity
  8
OUTLINE
100
AcDbCircle
 10
-310.4855110895246
 20
-1110.277631316965
 30
0.0
 40
3.5
100
AcDbArc
 50
90.0
 51
270.0
  0
ARC
  5
151
330
2
100
AcDbEntity
  8
OUTLINE
100
AcDbCircle
 10
-308.4855110895246
 20
-1110.277631316965
 30
0.0
 40
3.5
100
AcDbArc
 50
270.0
 51
90.0
  0
ARC
  5
152
330
2
100
AcDbEntity
  8
OUTLINE
100
AcDbCircle
 10
-310.4855110895246
 20
-960.2776313169652
 30
0.0
 40
3.5
100
AcDbArc
 50
90.0
 51
270.0
  0
ARC
  5
153
330
2
100
AcDbEntity
  8
OUTLINE
100
AcDbCircle
 10
-308.4855110895246
 20
-960.2776313169652
 30
0.0
 40
3.5
100
AcDbArc
 50
270.0
 51
90.0
  0
ARC
  5
154
330
2
100
AcDbEntity
  8
OUTLINE
100
AcDbCircle
 10
-310.4855110895246
 20
-810.2776313169652
 30
0.0
 40
3.5
100
AcDbArc
 50
90.0
 51
270.0
  0
ARC
  5
155
330
2
100
AcDbEntity
  8
OUTLINE
100
AcDbCircle
 10
-308.4855110895246
 20
-810.2776313169652
 30
0.0
 40
3.5
100
AcDbArc
 50
270.0
 51
90.0
  0
ARC
  5
156
330
2
100
AcDbEntity
  8
OUTLINE
100
AcDbCircle
 10
-310.4855110895246
 20
-660.2776313169653
 30
0.0
 40
3.5
100
AcDbArc
 50
90.0
 51
270.0
  0
ARC
  5
157
330
2
100
AcDbEntity
  8
OUTLINE
100
AcDbCircle
 10
-308.4855110895246
 20
-660.2776313169653
 30
0.0
 40
3.5
100
AcDbArc
 50
270.0
 51
90.0
  0
LINE
  5
158
330
2
100
AcDbEntity
  8
OUTLINE
100
AcDbLine
 10
-284.9855110895378
 20
-582.2776313169653
 30
0.0
 11
-284.9855110895378
 21
-583.2776313169651
 31
0.0
  0
LINE
  5
159
330
2
100
AcDbEntity
  8
OUTLINE
100
AcDbLine
 10
-279.9855110895378
 20
-582.2776313169653
 30
0.0
 11
-284.9855110895378
 21
-582.2776313169653
 31
0.0
  0
LINE
  5
15A
330
2
100
AcDbEntity
  8
OUTLINE
100
AcDbLine
 10
545.014488910462
 20
-583.2776313169651
 30
0.0
 11
545.014488910462
 21
-582.2776313169653
 31
0.0
  0
LINE
  5
15B
330
2
100
AcDbEntity
  8
OUTLINE
100
AcDbLine
 10
545.014488910462
 20
-582.2776313169653
 30
0.0
 11
540.0144889104621
 21
-582.2776313169653
 31
0.0
  0
LINE
  5
15C
330
2
100
AcDbEntity
  8
OUTLINE
100
AcDbLine
 10
-254.9855110895378
 20
-585.2776313169653
 30
0.0
 11
-254.9855110895378
 21
-596.277631316965
 31
0.0
  0
LINE
  5
15D
330
2
100
AcDbEntity
  8
OUTLINE
100
AcDbLine
 10
515.0144889104621
 20
-585.2776313169653
 30
0.0
 11
515.0144889104621
 21
-596.277631316965
 31
0.0
  0
LINE
  5
15E
330
2
100
AcDbEntity
  8
OUTLINE
100
AcDbLine
 10
-254.9855110895378
 20
-583.2776313169651
 30
0.0
 11
-279.9855110895378
 21
-583.2776313169651
 31
0.0
  0
LINE
  5
15F
330
2
100
AcDbEntity
  8
OUTLINE
100
AcDbLine
 10
-279.9855110895378
 20
-583.2776313169651
 30
0.0
 11
-279.9855110895378
 21
-582.2776313169653
 31
0.0
  0
LINE
  5
160
330
2
100
AcDbEntity
  8
OUTLINE
100
AcDbLine
 10
-254.9855110895378
 20
-582.2776313169653
 30
0.0
 11
-279.9855110895378
 21
-582.2776313169653
 31
0.0
  0
LINE
  5
161
330
2
100
AcDbEntity
  8
OUTLINE
100
AcDbLine
 10
540.0144889104621
 20
-582.2776313169653
 30
0.0
 11
515.0144889104621
 21
-582.2776313169653
 31
0.0
  0
LINE
  5
162
330
2
100
AcDbEntity
  8
OUTLINE
100
AcDbLine
 10
540.0144889104621
 20
-582.2776313169653
 30
0.0
 11
540.0144889104621
 21
-583.2776313169651
 31
0.0
  0
LINE
  5
163
330
2
100
AcDbEntity
  8
OUTLINE
100
AcDbLine
 10
540.0144889104621
 20
-583.2776313169651
 30
0.0
 11
515.0144889104621
 21
-583.2776313169651
 31
0.0
  0
LINE
  5
164
330
2
100
AcDbEntity
  8
OUTLINE
100
AcDbLine
 10
515.0144889104621
 20
-582.2776313169653
 30
0.0
 11
-254.985511089538
 21
-582.2776313169653
 31
0.0
  0
LINE
  5
165
330
2
100
AcDbEntity
  8
OUTLINE
100
AcDbLine
 10
515.0144889104621
 20
-582.2776313169653
 30
0.0
 11
515.0144889104621
 21
-585.2776313169653
 31
0.0
  0
LINE
  5
166
330
2
100
AcDbEntity
  8
OUTLINE
100
AcDbLine
 10
-254.9855110895378
 20
-582.2776313169653
 30
0.0
 11
-254.9855110895378
 21
-585.2776313169653
 31
0.0
  0
LINE
  5
167
330
2
100
AcDbEntity
  8
OUTLINE
100
AcDbLine
 10
-249.9855110895378
 20
-590.2776313169653
 30
0.0
 11
-254.9855110895378
 21
-585.2776313169653
 31
0.0
  0
LINE
  5
168
330
2
100
AcDbEntity
  8
OUTLINE
100
AcDbLine
 10
-249.9855110895382
 20
-590.2776313169653
 30
0.0
 11
510.0144889104618
 21
-590.2776313169653
 31
0.0
  0
LINE
  5
16A
330
2
100
AcDbEntity
  8
OUTLINE
100
AcDbLine
 10
515.0144889104621
 20
-585.2776313169653
 30
0.0
 11
510.0144889104623
 21
-590.2776313169653
 31
0.0
  0
LINE
  5
16B
330
2
100
AcDbEntity
  8
OUTLINE
100
AcDbLine
 10
515.0144889104621
 20
-597.2776313169653
 30
0.0
 11
515.0144889104621
 21
-596.277631316965
 31
0.0
  0
LINE
  5
16C
330
2
100
AcDbEntity
  8
OUTLINE
100
AcDbLine
 10
510.0144889104622
 20
-597.2776313169653
 30
0.0
 11
515.0144889104621
 21
-597.2776313169653
 31
0.0
  0
LINE
  5
16D
330
2
100
AcDbEntity
  8
OUTLINE
100
AcDbLine
 10
510.0144889104622
 20
-596.277631316965
 30
0.0
 11
510.0144889104622
 21
-597.2776313169653
 31
0.0
  0
LINE
  5
16E
330
2
100
AcDbEntity
  8
OUTLINE
100
AcDbLine
 10
510.0144889104622
 20
-597.2776313169653
 30
0.0
 11
-249.9855110895378
 21
-597.2776313169653
 31
0.0
  0
LINE
  5
16F
330
2
100
AcDbEntity
  8
OUTLINE
100
AcDbLine
 10
515.0144889104621
 20
-596.277631316965
 30
0.0
 11
510.0144889104618
 21
-596.277631316965
 31
0.0
  0
LINE
  5
170
330
2
100
AcDbEntity
  8
OUTLINE
100
AcDbLine
 10
-249.9855110895378
 20
-596.277631316965
 30
0.0
 11
510.0144889104622
 21
-596.277631316965
 31
0.0
  0
LINE
  5
171
330
2
100
AcDbEntity
  8
OUTLINE
100
AcDbLine
 10
-254.9855110895378
 20
-596.277631316965
 30
0.0
 11
-254.9855110895378
 21
-597.2776313169653
 31
0.0
  0
LINE
  5
172
330
2
100
AcDbEntity
  8
OUTLINE
100
AcDbLine
 10
-249.9855110895378
 20
-596.277631316965
 30
0.0
 11
-254.9855110895378
 21
-596.277631316965
 31
0.0
  0
LINE
  5
173
330
2
100
AcDbEntity
  8
OUTLINE
100
AcDbLine
 10
-249.9855110895378
 20
-597.2776313169653
 30
0.0
 11
-249.9855110895378
 21
-596.277631316965
 31
0.0
  0
LINE
  5
174
330
2
100
AcDbEntity
  8
OUTLINE
100
AcDbLine
 10
-254.9855110895378
 20
-597.2776313169653
 30
0.0
 11
-249.9855110895378
 21
-597.2776313169653
 31
0.0
  0
LINE
  5
185
330
2
100
AcDbEntity
  8
OUTLINE
100
AcDbLine
 10
515.0144889104626
 20
-1287.149121363438
 30
0.0
 11
515.0144889104626
 21
-1286.2745016563
 31
0.0
  0
LINE
  5
186
330
2
100
AcDbEntity
  8
OUTLINE
100
AcDbLine
 10
515.0144889104626
 20
-1286.2745016563
 30
0.0
 11
510.0144889104626
 21
-1283.850453555069
 31
0.0
  0
LINE
  5
187
330
2
100
AcDbEntity
  8
OUTLINE
100
AcDbLine
 10
510.0144889104626
 20
-1284.725073262207
 30
0.0
 11
515.0144889104626
 21
-1287.149121363438
 31
0.0
  0
LINE
  5
188
330
2
100
AcDbEntity
  8
OUTLINE
100
AcDbLine
 10
515.0144889104626
 20
-1294.421265667133
 30
0.0
 11
515.0144889104626
 21
-1287.149121363438
 31
0.0
  0
LINE
  5
189
330
2
100
AcDbEntity
  8
OUTLINE
100
AcDbLine
 10
-249.9855110895378
 20
-1283.850453555067
 30
0.0
 11
510.0144889104623
 21
-1283.850453555067
 31
0.0
  0
LINE
  5
18A
330
2
100
AcDbEntity
  8
OUTLINE
100
AcDbLine
 10
510.0144889104626
 20
-1283.850453555069
 30
0.0
 11
510.0144889104626
 21
-1284.725073262207
 31
0.0
  0
LINE
  5
18B
330
2
100
AcDbEntity
  8
OUTLINE
100
AcDbLine
 10
-249.9855110895378
 20
-1284.725073262207
 30
0.0
 11
510.0144889104623
 21
-1284.725073262207
 31
0.0
  0
LINE
  5
18C
330
2
100
AcDbEntity
  8
OUTLINE
100
AcDbLine
 10
-249.9855110895378
 20
-1283.850453555069
 30
0.0
 11
-254.9855110895378
 21
-1286.2745016563
 31
0.0
  0
LINE
  5
18D
330
2
100
AcDbEntity
  8
OUTLINE
100
AcDbLine
 10
-249.9855110895378
 20
-1284.725073262207
 30
0.0
 11
-249.9855110895378
 21
-1283.850453555069
 31
0.0
  0
LINE
  5
18E
330
2
100
AcDbEntity
  8
OUTLINE
100
AcDbLine
 10
-254.9855110895378
 20
-1287.149121363438
 30
0.0
 11
-249.9855110895378
 21
-1284.725073262207
 31
0.0
  0
LINE
  5
190
330
2
100
AcDbEntity
  8
OUTLINE
100
AcDbLine
 10
-279.9855110895373
 20
-1337.277631316965
 30
0.0
 11
-280.9855110895137
 21
-1337.277631316965
 31
0.0
  0
LINE
  5
191
330
2
100
AcDbEntity
  8
OUTLINE
100
AcDbLine
 10
-279.9855110895373
 20
-1338.277631316965
 30
0.0
 11
-279.9855110895373
 21
-1337.277631316965
 31
0.0
  0
LINE
  5
192
330
2
100
AcDbEntity
  8
OUTLINE
100
AcDbLine
 10
-254.9855110895373
 20
-1337.277631316965
 30
0.0
 11
-279.9855110895373
 21
-1337.277631316965
 31
0.0
  0
LINE
  5
193
330
2
100
AcDbEntity
  8
OUTLINE
100
AcDbLine
 10
-254.9855110895373
 20
-1335.277631316965
 30
0.0
 11
-254.9855110895373
 21
-1337.277631316965
 31
0.0
  0
LINE
  5
194
330
2
100
AcDbEntity
  8
OUTLINE
100
AcDbLine
 10
-254.9855110895373
 20
-1335.277631316965
 30
0.0
 11
-249.9855110895373
 21
-1330.277631316965
 31
0.0
  0
LINE
  5
195
330
2
100
AcDbEntity
  8
OUTLINE
100
AcDbLine
 10
-249.9855110895373
 20
-1330.277631316965
 30
0.0
 11
510.0144889104629
 21
-1330.277631316965
 31
0.0
  0
LINE
  5
196
330
2
100
AcDbEntity
  8
OUTLINE
100
AcDbLine
 10
510.0144889104629
 20
-1330.277631316965
 30
0.0
 11
515.0144889104629
 21
-1335.277631316965
 31
0.0
  0
LINE
  5
197
330
2
100
AcDbEntity
  8
OUTLINE
100
AcDbLine
 10
515.0144889104629
 20
-1337.277631316965
 30
0.0
 11
515.0144889104629
 21
-1335.277631316965
 31
0.0
  0
LINE
  5
198
330
2
100
AcDbEntity
  8
OUTLINE
100
AcDbLine
 10
540.0144889104629
 20
-1337.277631316965
 30
0.0
 11
515.0144889104629
 21
-1337.277631316965
 31
0.0
  0
LINE
  5
199
330
2
100
AcDbEntity
  8
OUTLINE
100
AcDbLine
 10
540.0144889104629
 20
-1337.277631316965
 30
0.0
 11
540.0144889104629
 21
-1338.277631316965
 31
0.0
  0
LINE
  5
19A
330
2
100
AcDbEntity
  8
OUTLINE
100
AcDbLine
 10
541.0144889104633
 20
-1337.277631316965
 30
0.0
 11
540.0144889104626
 21
-1337.277631316965
 31
0.0
  0
LINE
  5
19C
330
2
100
AcDbEntity
  8
OUTLINE
100
AcDbLine
 10
-254.9855110895378
 20
-1286.2745016563
 30
0.0
 11
-254.9855110895378
 21
-1287.149121363438
 31
0.0
  0
LINE
  5
19D
330
2
100
AcDbEntity
  8
OUTLINE
100
AcDbLine
 10
-254.9855110895378
 20
-1287.14912136344
 30
0.0
 11
-254.9855110895378
 21
-1294.421265667135
 31
0.0
  0
LINE
  5
19E
330
2
100
AcDbEntity
  8
OUTLINE
100
AcDbLine
 10
-284.9855110895374
 20
-1337.277631316965
 30
0.0
 11
-284.9855110895374
 21
-1338.277631316965
 31
0.0
  0
LINE
  5
19F
330
2
100
AcDbEntity
  8
OUTLINE
100
AcDbLine
 10
-254.9855110895378
 20
-1294.421265667133
 30
0.0
 11
-254.9855110895378
 21
-1335.277631316965
 31
0.0
  0
LINE
  5
1A0
330
2
100
AcDbEntity
  8
OUTLINE
100
AcDbLine
 10
-254.9855110895378
 20
-1294.421265667133
 30
0.0
 11
515.0144889104621
 21
-1294.421265667133
 31
0.0
  0
LINE
  5
1A1
330
2
100
AcDbEntity
  8
OUTLINE
100
AcDbLine
 10
515.0144889104621
 20
-1335.277631316967
 30
0.0
 11
515.0144889104621
 21
-1294.421265667135
 31
0.0
  0
LINE
  5
1A2
330
2
100
AcDbEntity
  8
OUTLINE
100
AcDbLine
 10
545.0144889104628
 20
-1338.277631316965
 30
0.0
 11
545.0144889104628
 21
-1337.277631316965
 31
0.0
  0
LINE
  5
1A9
330
2
100
AcDbEntity
  8
OUTLINE
100
AcDbLine
 10
-284.9855110895374
 20
-1338.277631316965
 30
0.0
 11
-279.9855110895378
 21
-1338.277631316965
 31
0.0
  0
LINE
  5
1AA
330
2
100
AcDbEntity
  8
OUTLINE
100
AcDbLine
 10
-279.9855110895373
 20
-1338.277631316965
 30
0.0
 11
540.0144889104626
 21
-1338.277631316965
 31
0.0
  0
LINE
  5
1AB
330
2
100
AcDbEntity
  8
OUTLINE
100
AcDbLine
 10
540.0144889104629
 20
-1338.277631316965
 30
0.0
 11
545.0144889104628
 21
-1338.277631316965
 31
0.0
  0
ELLIPSE
  5
1E0
330
2
100
AcDbEntity
  8
OUTLINE
100
AcDbEllipse
 10
-10.98551108953779
 20
-1315.53751893134
 30
0.0
 11
2.0
 21
-0.0000000000000021
 31
0.0
210
0.0
220
0.0
230
1.0
 40
0.8746197071393956
 41
0.1390246718229164
 42
3.00256798176688
  0
ELLIPSE
  5
1E2
330
2
100
AcDbEntity
  8
OUTLINE
100
AcDbEllipse
 10
-10.98551108953779
 20
-1315.052709311094
 30
0.0
 11
-2.0
 21
0.0000000000000021
 31
0.0
210
0.0
220
0.0
230
1.0
 40
0.8746197071393956
 41
0.0000000000000011
 42
6.283185307179587
  0
ELLIPSE
  5
1E3
330
2
100
AcDbEntity
  8
OUTLINE
100
AcDbEllipse
 10
271.0144889104622
 20
-1315.53751893134
 30
0.0
 11
2.0
 21
-0.0000000000000021
 31
0.0
210
0.0
220
0.0
230
1.0
 40
0.8746197071393956
 41
0.1390246718229164
 42
3.00256798176688
  0
ELLIPSE
  5
1E5
330
2
100
AcDbEntity
  8
OUTLINE
100
AcDbEllipse
 10
271.0144889104622
 20
-1315.052709311094
 30
0.0
 11
-2.0
 21
0.0000000000000021
 31
0.0
210
0.0
220
0.0
230
1.0
 40
0.8746197071393956
 41
0.0000000000000011
 42
6.283185307179587
  0
LINE
  5
1E9
330
2
100
AcDbEntity
  8
OUTLINE
100
AcDbLine
 10
-277.4855110895383
 20
-582.0117454589307
 30
0.0
 11
-279.9855110895383
 21
-582.0117454589307
 31
0.0
  0
LINE
  5
1EA
330
2
100
AcDbEntity
  8
OUTLINE
100
AcDbLine
 10
540.0144889104616
 20
-582.011745458929
 30
0.0
 11
537.5144889104615
 21
-582.011745458929
 31
0.0
  0
LINE
  5
201
330
2
100
AcDbEntity
  8
OUTLINE
100
AcDbLine
 10
540.4941149493948
 20
-582.2776313169653
 30
0.0
 11
540.0144889104641
 21
-582.011745458929
 31
0.0
  0
LINE
  5
202
330
2
100
AcDbEntity
  8
OUTLINE
100
AcDbLine
 10
540.0144889104616
 20
-582.011745458929
 30
0.0
 11
545.0144889104616
 21
-582.0120040322454
 31
0.0
  0
LINE
  5
203
330
2
100
AcDbEntity
  8
OUTLINE
100
AcDbLine
 10
545.0144889104616
 20
-582.0120040322526
 30
0.0
 11
545.0144889104616
 21
-582.2776313169632
 31
0.0
  0
LINE
  5
20C
330
2
100
AcDbEntity
  8
OUTLINE
100
AcDbLine
 10
-284.9855110895382
 20
-582.2776313169632
 30
0.0
 11
-284.9855110895382
 21
-582.0120040322542
 31
0.0
  0
LINE
  5
20D
330
2
100
AcDbEntity
  8
OUTLINE
100
AcDbLine
 10
-284.9855110895382
 20
-582.0120040322454
 30
0.0
 11
-279.9855110895383
 21
-582.0117454589307
 31
0.0
  0
LINE
  5
20E
330
2
100
AcDbEntity
  8
OUTLINE
100
AcDbLine
 10
-279.9855110895401
 20
-582.0117454589307
 30
0.0
 11
-280.4651371284681
 21
-582.2776313169653
 31
0.0
  0
ELLIPSE
  5
247
330
2
100
AcDbEntity
  8
OUTLINE
100
AcDbEllipse
 10
531.0144889104629
 20
-1144.377646691806
 30
0.0
 11
2.5
 21
0.0000000000000013
 31
0.0
210
0.0
220
0.0
230
1.0
 40
0.8745946342037113
 41
1.174761394215259
 42
1.966831259377041
  0
ELLIPSE
  5
249
330
2
100
AcDbEntity
  8
OUTLINE
100
AcDbEllipse
 10
531.0144889104626
 20
-960.7127735090271
 30
0.0
 11
2.5
 21
0.0000000000000013
 31
0.0
210
0.0
220
0.0
230
1.0
 40
0.8745946342037113
 41
1.174761394221319
 42
1.96683125936968
  0
ELLIPSE
  5
24B
330
2
100
AcDbEntity
  8
OUTLINE
100
AcDbEllipse
 10
531.0144889104622
 20
-777.047900326248
 30
0.0
 11
2.5
 21
0.0000000000000013
 31
0.0
210
0.0
220
0.0
230
1.0
 40
0.8745946342037113
 41
1.174761394227916
 42
1.966831259362479
  0
ELLIPSE
  5
24D
330
2
100
AcDbEntity
  8
OUTLINE
100
AcDbEllipse
 10
531.0144889104616
 20
-593.383027143467
 30
0.0
 11
2.5
 21
0.0000000000000013
 31
0.0
210
0.0
220
0.0
230
1.0
 40
0.8745946342037113
 41
1.174761394227479
 42
1.966831259361874
  0
ELLIPSE
  5
24F
330
2
100
AcDbEntity
  8
OUTLINE
100
AcDbEllipse
 10
-270.9855110895369
 20
-1144.377646691808
 30
0.0
 11
2.5
 21
0.0000000000000013
 31
0.0
210
0.0
220
0.0
230
1.0
 40
0.8745946342037113
 41
1.174761394185092
 42
1.966831259360403
  0
ELLIPSE
  5
251
330
2
100
AcDbEntity
  8
OUTLINE
100
AcDbEllipse
 10
-270.9855110895373
 20
-960.7127735090271
 30
0.0
 11
2.5
 21
0.0000000000000013
 31
0.0
210
0.0
220
0.0
230
1.0
 40
0.8745946342037113
 41
1.174761394197932
 42
1.966831259345755
  0
ELLIPSE
  5
253
330
2
100
AcDbEntity
  8
OUTLINE
100
AcDbEllipse
 10
-270.9855110895378
 20
-777.047900326248
 30
0.0
 11
2.5
 21
0.0000000000000013
 31
0.0
210
0.0
220
0.0
230
1.0
 40
0.8745946342037113
 41
1.174761394203721
 42
1.9668312593382
  0
ELLIPSE
  5
255
330
2
100
AcDbEntity
  8
OUTLINE
100
AcDbEllipse
 10
-270.9855110895378
 20
-593.383027143469
 30
0.0
 11
2.5
 21
0.0000000000000013
 31
0.0
210
0.0
220
0.0
230
1.0
 40
0.8745946342037113
 41
1.174761394196873
 42
1.96683125934488
  0
ELLIPSE
  5
257
330
2
100
AcDbEntity
  8
OUTLINE
100
AcDbEllipse
 10
-10.98551108953688
 20
-1316.072460781643
 30
0.0
 11
2.5
 21
0.0000000000000013
 31
0.0
210
0.0
220
0.0
230
1.0
 40
0.8745946342037113
 41
1.031373586821217
 42
2.110219066792581
  0
ELLIPSE
  5
259
330
2
100
AcDbEntity
  8
OUTLINE
100
AcDbEllipse
 10
271.0144889104634
 20
-1316.072460781643
 30
0.0
 11
2.5
 21
0.0000000000000013
 31
0.0
210
0.0
220
0.0
230
1.0
 40
0.8745946342037113
 41
1.031373586820882
 42
2.110219066792839
  0
ELLIPSE
  5
25B
330
2
100
AcDbEntity
  8
OUTLINE
100
AcDbEllipse
 10
531.0144889104633
 20
-1328.042519874585
 30
0.0
 11
2.5
 21
0.0000000000000013
 31
0.0
210
0.0
220
0.0
230
1.0
 40
0.8745946342037113
 41
1.174761394249764
 42
1.966831259343594
  0
ELLIPSE
  5
25E
330
2
100
AcDbEntity
  8
OUTLINE
100
AcDbEllipse
 10
-270.9855110895369
 20
-1328.042519874587
 30
0.0
 11
2.5
 21
0.0000000000000013
 31
0.0
210
0.0
220
0.0
230
1.0
 40
0.8745946342037113
 41
1.174761394212562
 42
1.966831259333529
  0
LINE
  5
620
330
2
100
AcDbEntity
  8
NOTE
100
AcDbLine
 10
-309.4855110895245
 20
-960.2776313169655
 30
0.0
 11
-309.4855110895245
 21
-960.2776313169655
 31
0.0
  0
LINE
  5
625
330
2
100
AcDbEntity
  8
NOTE
100
AcDbLine
 10
-309.4855110895245
 20
-960.2776313169655
 30
0.0
 11
-309.4855110895245
 21
-960.2776313169655
 31
0.0
  0
LINE
  5
626
330
2
100
AcDbEntity
  8
NOTE
100
AcDbLine
 10
-315.9855110895245
 20
-960.2776313169655
 30
0.0
 11
-309.4855110895245
 21
-960.2776313169655
 31
0.0
  0
LINE
  5
627
330
2
100
AcDbEntity
  8
NOTE
100
AcDbLine
 10
-309.4855110895245
 20
-960.2776313169655
 30
0.0
 11
-302.9855110895245
 21
-960.2776313169655
 31
0.0
  0
LINE
  5
628
330
2
100
AcDbEntity
  8
NOTE
100
AcDbLine
 10
-309.4855110895245
 20
-966.7776313169657
 30
0.0
 11
-309.4855110895245
 21
-960.2776313169655
 31
0.0
  0
LINE
  5
629
330
2
100
AcDbEntity
  8
NOTE
100
AcDbLine
 10
-309.4855110895245
 20
-960.2776313169655
 30
0.0
 11
-309.4855110895245
 21
-953.7776313169656
 31
0.0
  0
LINE
  5
62A
330
2
100
AcDbEntity
  8
NOTE
100
AcDbLine
 10
-309.4855110895245
 20
-810.2776313169655
 30
0.0
 11
-309.4855110895245
 21
-810.2776313169655
 31
0.0
  0
LINE
  5
62B
330
2
100
AcDbEntity
  8
NOTE
100
AcDbLine
 10
-309.4855110895245
 20
-810.2776313169655
 30
0.0
 11
-309.4855110895245
 21
-810.2776313169655
 31
0.0
  0
LINE
  5
62C
330
2
100
AcDbEntity
  8
NOTE
100
AcDbLine
 10
-315.9855110895245
 20
-810.2776313169655
 30
0.0
 11
-309.4855110895245
 21
-810.2776313169655
 31
0.0
  0
LINE
  5
62D
330
2
100
AcDbEntity
  8
NOTE
100
AcDbLine
 10
-309.4855110895245
 20
-810.2776313169655
 30
0.0
 11
-302.9855110895245
 21
-810.2776313169655
 31
0.0
  0
LINE
  5
62E
330
2
100
AcDbEntity
  8
NOTE
100
AcDbLine
 10
-309.4855110895245
 20
-816.7776313169657
 30
0.0
 11
-309.4855110895245
 21
-810.2776313169655
 31
0.0
  0
LINE
  5
62F
330
2
100
AcDbEntity
  8
NOTE
100
AcDbLine
 10
-309.4855110895245
 20
-810.2776313169655
 30
0.0
 11
-309.4855110895245
 21
-803.7776313169656
 31
0.0
  0
LINE
  5
630
330
2
100
AcDbEntity
  8
NOTE
100
AcDbLine
 10
-309.4855110895245
 20
-660.2776313169656
 30
0.0
 11
-309.4855110895245
 21
-660.2776313169656
 31
0.0
  0
LINE
  5
631
330
2
100
AcDbEntity
  8
NOTE
100
AcDbLine
 10
-309.4855110895245
 20
-660.2776313169656
 30
0.0
 11
-309.4855110895245
 21
-660.2776313169656
 31
0.0
  0
LINE
  5
632
330
2
100
AcDbEntity
  8
NOTE
100
AcDbLine
 10
-315.9855110895245
 20
-660.2776313169656
 30
0.0
 11
-309.4855110895245
 21
-660.2776313169656
 31
0.0
  0
LINE
  5
633
330
2
100
AcDbEntity
  8
NOTE
100
AcDbLine
 10
-309.4855110895245
 20
-660.2776313169656
 30
0.0
 11
-302.9855110895245
 21
-660.2776313169656
 31
0.0
  0
LINE
  5
634
330
2
100
AcDbEntity
  8
NOTE
100
AcDbLine
 10
-309.4855110895245
 20
-666.7776313169656
 30
0.0
 11
-309.4855110895245
 21
-660.2776313169656
 31
0.0
  0
LINE
  5
635
330
2
100
AcDbEntity
  8
NOTE
100
AcDbLine
 10
-309.4855110895245
 20
-660.2776313169656
 30
0.0
 11
-309.4855110895245
 21
-653.7776313169656
 31
0.0
  0
LINE
  5
636
330
2
100
AcDbEntity
  8
NOTE
100
AcDbLine
 10
-199.9855110895381
 20
-576.2776313169664
 30
0.0
 11
-199.9855110895381
 21
-586.2776313169647
 31
0.0
  0
LINE
  5
637
330
2
100
AcDbEntity
  8
NOTE
100
AcDbLine
 10
20.01448891046209
 20
-576.2776313169664
 30
0.0
 11
20.01448891046209
 21
-586.2776313169647
 31
0.0
  0
LINE
  5
638
330
2
100
AcDbEntity
  8
NOTE
100
AcDbLine
 10
240.0144889104619
 20
-576.2776313169664
 30
0.0
 11
240.0144889104619
 21
-586.2776313169647
 31
0.0
  0
LINE
  5
639
330
2
100
AcDbEntity
  8
NOTE
100
AcDbLine
 10
460.0144889104618
 20
-576.2776313169664
 30
0.0
 11
460.0144889104618
 21
-586.2776313169647
 31
0.0
  0
LINE
  5
846
330
2
100
AcDbEntity
  8
NOTE
100
AcDbLine
 10
531.0144889104621
 20
-576.2776313169664
 30
0.0
 11
531.0144889104621
 21
-587.2776313169647
 31
0.0
  0
LINE
  5
847
330
2
100
AcDbEntity
  8
NOTE
100
AcDbLine
 10
568.5144889104623
 20
-1260.277631316965
 30
0.0
 11
568.5144889104623
 21
-1260.277631316965
 31
0.0
  0
LINE
  5
848
330
2
100
AcDbEntity
  8
NOTE
100
AcDbLine
 10
568.5144889104623
 20
-1260.277631316965
 30
0.0
 11
568.5144889104623
 21
-1260.277631316965
 31
0.0
  0
LINE
  5
849
330
2
100
AcDbEntity
  8
NOTE
100
AcDbLine
 10
563.0144889104623
 20
-1260.277631316965
 30
0.0
 11
569.5144889104623
 21
-1260.277631316965
 31
0.0
  0
LINE
  5
84A
330
2
100
AcDbEntity
  8
NOTE
100
AcDbLine
 10
569.5144889104623
 20
-1260.277631316965
 30
0.0
 11
576.0144889104623
 21
-1260.277631316965
 31
0.0
  0
LINE
  5
84D
330
2
100
AcDbEntity
  8
NOTE
100
AcDbLine
 10
568.5144889104623
 20
-1110.277631316965
 30
0.0
 11
568.5144889104623
 21
-1110.277631316965
 31
0.0
  0
LINE
  5
84E
330
2
100
AcDbEntity
  8
NOTE
100
AcDbLine
 10
568.5144889104623
 20
-1110.277631316965
 30
0.0
 11
568.5144889104623
 21
-1110.277631316965
 31
0.0
  0
LINE
  5
84F
330
2
100
AcDbEntity
  8
NOTE
100
AcDbLine
 10
563.0144889104623
 20
-1110.277631316965
 30
0.0
 11
569.5144889104623
 21
-1110.277631316965
 31
0.0
  0
LINE
  5
850
330
2
100
AcDbEntity
  8
NOTE
100
AcDbLine
 10
569.5144889104623
 20
-1110.277631316965
 30
0.0
 11
576.0144889104623
 21
-1110.277631316965
 31
0.0
  0
LINE
  5
853
330
2
100
AcDbEntity
  8
NOTE
100
AcDbLine
 10
568.5144889104623
 20
-960.2776313169655
 30
0.0
 11
568.5144889104623
 21
-960.2776313169655
 31
0.0
  0
LINE
  5
854
330
2
100
AcDbEntity
  8
NOTE
100
AcDbLine
 10
568.5144889104623
 20
-960.2776313169655
 30
0.0
 11
568.5144889104623
 21
-960.2776313169655
 31
0.0
  0
LINE
  5
855
330
2
100
AcDbEntity
  8
NOTE
100
AcDbLine
 10
563.0144889104623
 20
-960.2776313169655
 30
0.0
 11
569.5144889104623
 21
-960.2776313169655
 31
0.0
  0
LINE
  5
856
330
2
100
AcDbEntity
  8
NOTE
100
AcDbLine
 10
569.5144889104623
 20
-960.2776313169655
 30
0.0
 11
576.0144889104623
 21
-960.2776313169655
 31
0.0
  0
LINE
  5
859
330
2
100
AcDbEntity
  8
NOTE
100
AcDbLine
 10
568.5144889104623
 20
-810.2776313169655
 30
0.0
 11
568.5144889104623
 21
-810.2776313169655
 31
0.0
  0
LINE
  5
85A
330
2
100
AcDbEntity
  8
NOTE
100
AcDbLine
 10
568.5144889104623
 20
-810.2776313169655
 30
0.0
 11
568.5144889104623
 21
-810.2776313169655
 31
0.0
  0
LINE
  5
85B
330
2
100
AcDbEntity
  8
NOTE
100
AcDbLine
 10
563.0144889104623
 20
-810.2776313169655
 30
0.0
 11
569.5144889104623
 21
-810.2776313169655
 31
0.0
  0
LINE
  5
85C
330
2
100
AcDbEntity
  8
NOTE
100
AcDbLine
 10
569.5144889104623
 20
-810.2776313169655
 30
0.0
 11
576.0144889104623
 21
-810.2776313169655
 31
0.0
  0
LINE
  5
85F
330
2
100
AcDbEntity
  8
NOTE
100
AcDbLine
 10
568.5144889104623
 20
-660.2776313169656
 30
0.0
 11
568.5144889104623
 21
-660.2776313169656
 31
0.0
  0
LINE
  5
860
330
2
100
AcDbEntity
  8
NOTE
100
AcDbLine
 10
568.5144889104623
 20
-660.2776313169656
 30
0.0
 11
568.5144889104623
 21
-660.2776313169656
 31
0.0
  0
LINE
  5
861
330
2
100
AcDbEntity
  8
NOTE
100
AcDbLine
 10
563.0144889104623
 20
-660.2776313169656
 30
0.0
 11
569.5144889104623
 21
-660.2776313169656
 31
0.0
  0
LINE
  5
862
330
2
100
AcDbEntity
  8
NOTE
100
AcDbLine
 10
569.5144889104623
 20
-660.2776313169656
 30
0.0
 11
576.0144889104623
 21
-660.2776313169656
 31
0.0
  0
LINE
  5
865
330
2
100
AcDbEntity
  8
NOTE
100
AcDbLine
 10
-270.985511089524
 20
-576.2776313169664
 30
0.0
 11
-270.985511089524
 21
-587.2776313169647
 31
0.0
  0
LINE
  5
866
330
2
100
AcDbEntity
  8
NOTE
100
AcDbLine
 10
-309.4855110895245
 20
-1260.277631316965
 30
0.0
 11
-309.4855110895245
 21
-1260.277631316965
 31
0.0
  0
LINE
  5
867
330
2
100
AcDbEntity
  8
NOTE
100
AcDbLine
 10
-309.4855110895245
 20
-1260.277631316965
 30
0.0
 11
-309.4855110895245
 21
-1260.277631316965
 31
0.0
  0
LINE
  5
868
330
2
100
AcDbEntity
  8
NOTE
100
AcDbLine
 10
-315.9855110895245
 20
-1260.277631316965
 30
0.0
 11
-309.4855110895245
 21
-1260.277631316965
 31
0.0
  0
LINE
  5
869
330
2
100
AcDbEntity
  8
NOTE
100
AcDbLine
 10
-309.4855110895245
 20
-1260.277631316965
 30
0.0
 11
-302.9855110895245
 21
-1260.277631316965
 31
0.0
  0
LINE
  5
86A
330
2
100
AcDbEntity
  8
NOTE
100
AcDbLine
 10
-309.4855110895245
 20
-1266.777631316966
 30
0.0
 11
-309.4855110895245
 21
-1260.277631316965
 31
0.0
  0
LINE
  5
86B
330
2
100
AcDbEntity
  8
NOTE
100
AcDbLine
 10
-309.4855110895245
 20
-1260.277631316965
 30
0.0
 11
-309.4855110895245
 21
-1253.777631316965
 31
0.0
  0
LINE
  5
86C
330
2
100
AcDbEntity
  8
NOTE
100
AcDbLine
 10
-309.4855110895245
 20
-1110.277631316965
 30
0.0
 11
-309.4855110895245
 21
-1110.277631316965
 31
0.0
  0
LINE
  5
86D
330
2
100
AcDbEntity
  8
NOTE
100
AcDbLine
 10
-309.4855110895245
 20
-1110.277631316965
 30
0.0
 11
-309.4855110895245
 21
-1110.277631316965
 31
0.0
  0
LINE
  5
86E
330
2
100
AcDbEntity
  8
NOTE
100
AcDbLine
 10
-315.9855110895245
 20
-1110.277631316965
 30
0.0
 11
-309.4855110895245
 21
-1110.277631316965
 31
0.0
  0
LINE
  5
86F
330
2
100
AcDbEntity
  8
NOTE
100
AcDbLine
 10
-309.4855110895245
 20
-1110.277631316965
 30
0.0
 11
-302.9855110895245
 21
-1110.277631316965
 31
0.0
  0
LINE
  5
870
330
2
100
AcDbEntity
  8
NOTE
100
AcDbLine
 10
-309.4855110895245
 20
-1116.777631316965
 30
0.0
 11
-309.4855110895245
 21
-1110.277631316965
 31
0.0
  0
LINE
  5
871
330
2
100
AcDbEntity
  8
NOTE
100
AcDbLine
 10
-309.4855110895245
 20
-1110.277631316965
 30
0.0
 11
-309.4855110895245
 21
-1103.777631316965
 31
0.0
  0
ELLIPSE
  5
873
330
2
100
AcDbEntity
  8
OUTLINE
100
AcDbEllipse
 10
500.0144889104626
 20
-963.3365574116377
 30
0.0
 11
2.049999999999998
 21
0.000000000000001
 31
0.0
210
0.0
220
0.0
230
1.0
 40
0.8745946342037115
 41
0.2738371920598208
 42
2.867755461531117
  0
ELLIPSE
  5
876
330
2
100
AcDbEntity
  8
OUTLINE
100
AcDbEllipse
 10
500.0144889104626
 20
-962.8517025613763
 30
0.0
 11
-2.049999999999998
 21
-0.000000000000001
 31
0.0
210
0.0
220
0.0
230
1.0
 40
0.8745946342037122
 41
3.277221913682803
 42
6.147556047090857
  0
ELLIPSE
  5
877
330
2
100
AcDbEntity
  8
OUTLINE
100
AcDbEllipse
 10
315.0144889104627
 20
-958.0889896064164
 30
0.0
 11
2.049999999999998
 21
0.000000000000001
 31
0.0
210
0.0
220
0.0
230
1.0
 40
0.8745946342037115
 41
0.2738371920609684
 42
2.867755461530983
  0
ELLIPSE
  5
87A
330
2
100
AcDbEntity
  8
OUTLINE
100
AcDbEllipse
 10
315.0144889104627
 20
-957.6041347561547
 30
0.0
 11
-2.049999999999998
 21
-0.000000000000001
 31
0.0
210
0.0
220
0.0
230
1.0
 40
0.8745946342037122
 41
3.277221913683678
 42
6.147556047089754
  0
ELLIPSE
  5
87B
330
2
100
AcDbEntity
  8
OUTLINE
100
AcDbEllipse
 10
130.0144889104626
 20
-963.3365574116377
 30
0.0
 11
2.049999999999998
 21
0.000000000000001
 31
0.0
210
0.0
220
0.0
230
1.0
 40
0.8745946342037115
 41
0.2738371920608349
 42
2.867755461530103
  0
ELLIPSE
  5
87E
330
2
100
AcDbEntity
  8
OUTLINE
100
AcDbEllipse
 10
130.0144889104626
 20
-962.8517025613763
 30
0.0
 11
-2.049999999999998
 21
-0.000000000000001
 31
0.0
210
0.0
220
0.0
230
1.0
 40
0.8745946342037122
 41
3.277221913683678
 42
6.14755604708986
  0
ELLIPSE
  5
87F
330
2
100
AcDbEntity
  8
OUTLINE
100
AcDbEllipse
 10
-54.98551108953734
 20
-958.0889896064164
 30
0.0
 11
2.049999999999998
 21
0.000000000000001
 31
0.0
210
0.0
220
0.0
230
1.0
 40
0.8745946342037115
 41
0.273837192060865
 42
2.867755461531117
  0
ELLIPSE
  5
882
330
2
100
AcDbEntity
  8
OUTLINE
100
AcDbEllipse
 10
-54.98551108953734
 20
-957.6041347561547
 30
0.0
 11
-2.049999999999998
 21
-0.000000000000001
 31
0.0
210
0.0
220
0.0
230
1.0
 40
0.8745946342037122
 41
3.277221913682803
 42
6.147556047089739
  0
ELLIPSE
  5
888
330
2
100
AcDbEntity
  8
OUTLINE
100
AcDbEllipse
 10
-239.9855110895373
 20
-963.3365574116394
 30
0.0
 11
2.049999999999998
 21
0.000000000000001
 31
0.0
210
0.0
220
0.0
230
1.0
 40
0.8745946342037115
 41
0.2738371920598507
 42
2.867755461531117
  0
ELLIPSE
  5
88B
330
2
100
AcDbEntity
  8
OUTLINE
100
AcDbEllipse
 10
-239.9855110895373
 20
-962.8517025613783
 30
0.0
 11
-2.049999999999998
 21
-0.000000000000001
 31
0.0
210
0.0
220
0.0
230
1.0
 40
0.8745946342037122
 41
3.277221913683785
 42
6.147556047089739
  0
LINE
  5
88C
330
2
100
AcDbEntity
  8
OUTLINE
100
AcDbLine
 10
-249.9855110895382
 20
-968.973865000802
 30
0.0
 11
510.0144889104616
 21
-968.973865000802
 31
0.0
  0
LINE
  5
88E
330
2
100
AcDbEntity
  8
OUTLINE
100
AcDbLine
 10
510.0144889104615
 20
-968.4890101505407
 30
0.0
 11
510.0144889104615
 21
-968.973865000802
 31
0.0
  0
LINE
  5
88F
330
2
100
AcDbEntity
  8
OUTLINE
100
AcDbLine
 10
510.0144889104615
 20
-968.973865000802
 30
0.0
 11
515.0144889104615
 21
-964.600891829783
 31
0.0
  0
LINE
  5
890
330
2
100
AcDbEntity
  8
OUTLINE
100
AcDbLine
 10
515.0144889104615
 20
-964.600891829783
 30
0.0
 11
515.0144889104615
 21
-964.1160369795215
 31
0.0
  0
LINE
  5
891
330
2
100
AcDbEntity
  8
OUTLINE
100
AcDbLine
 10
515.0144889104615
 20
-951.8717121006684
 30
0.0
 11
515.0144889104615
 21
-950.5401011722003
 31
0.0
  0
LINE
  5
892
330
2
100
AcDbEntity
  8
OUTLINE
100
AcDbLine
 10
-254.9855110895387
 20
-936.9363268088836
 30
0.0
 11
515.0144889104613
 21
-936.9363268088836
 31
0.0
  0
LINE
  5
893
330
2
100
AcDbEntity
  8
OUTLINE
100
AcDbLine
 10
515.0144889104615
 20
-950.0552463219392
 30
0.0
 11
515.0144889104615
 21
-936.9363268088836
 31
0.0
  0
LINE
  5
894
330
2
100
AcDbEntity
  8
OUTLINE
100
AcDbLine
 10
515.0144889104615
 20
-950.5401011722003
 30
0.0
 11
515.0144889104615
 21
-950.0552463219392
 31
0.0
  0
LINE
  5
895
330
2
100
AcDbEntity
  8
OUTLINE
100
AcDbLine
 10
515.0144889104615
 20
-950.0552463219392
 30
0.0
 11
510.0144889104615
 21
-954.4282194929582
 31
0.0
  0
LINE
  5
896
330
2
100
AcDbEntity
  8
OUTLINE
100
AcDbLine
 10
510.0144889104615
 20
-954.9130743432195
 30
0.0
 11
515.0144889104615
 21
-950.5401011722003
 31
0.0
  0
LINE
  5
898
330
2
100
AcDbEntity
  8
OUTLINE
100
AcDbLine
 10
-249.9855110895387
 20
-954.4282194929582
 30
0.0
 11
510.0144889104613
 21
-954.4282194929582
 31
0.0
  0
LINE
  5
899
330
2
100
AcDbEntity
  8
OUTLINE
100
AcDbLine
 10
510.0144889104615
 20
-954.4282194929582
 30
0.0
 11
510.0144889104615
 21
-954.9130743432195
 31
0.0
  0
LINE
  5
89A
330
2
100
AcDbEntity
  8
OUTLINE
100
AcDbLine
 10
-249.9855110895387
 20
-954.9130743432195
 30
0.0
 11
510.0144889104613
 21
-954.9130743432195
 31
0.0
  0
LINE
  5
89B
330
2
100
AcDbEntity
  8
OUTLINE
100
AcDbLine
 10
-249.9855110895387
 20
-954.9130743432195
 30
0.0
 11
-249.9855110895387
 21
-954.4282194929582
 31
0.0
  0
LINE
  5
89C
330
2
100
AcDbEntity
  8
OUTLINE
100
AcDbLine
 10
-254.9855110895387
 20
-950.5401011722023
 30
0.0
 11
-249.9855110895387
 21
-954.9130743432195
 31
0.0
  0
LINE
  5
89D
330
2
100
AcDbEntity
  8
OUTLINE
100
AcDbLine
 10
-249.9855110895387
 20
-954.4282194929582
 30
0.0
 11
-254.9855110895387
 21
-950.0552463219392
 31
0.0
  0
LINE
  5
89E
330
2
100
AcDbEntity
  8
OUTLINE
100
AcDbLine
 10
-254.9855110895383
 20
-951.8717121006702
 30
0.0
 11
-253.4629646704402
 21
-951.8717121006702
 31
0.0
  0
LINE
  5
8A0
330
2
100
AcDbEntity
  8
OUTLINE
100
AcDbLine
 10
513.4919424913639
 20
-951.8717121006702
 30
0.0
 11
515.0144889104616
 21
-951.8717121006702
 31
0.0
  0
LINE
  5
8A1
330
2
100
AcDbEntity
  8
OUTLINE
100
AcDbLine
 10
515.0144889104615
 20
-964.1160369795233
 30
0.0
 11
515.0144889104615
 21
-951.8717121006702
 31
0.0
  0
LINE
  5
8A2
330
2
100
AcDbEntity
  8
OUTLINE
100
AcDbLine
 10
515.0144889104615
 20
-964.1160369795215
 30
0.0
 11
510.0144889104615
 21
-968.4890101505407
 31
0.0
  0
LINE
  5
8A3
330
2
100
AcDbEntity
  8
OUTLINE
100
AcDbLine
 10
-249.9855110895382
 20
-968.4890101505407
 30
0.0
 11
510.0144889104616
 21
-968.4890101505407
 31
0.0
  0
LINE
  5
8A4
330
2
100
AcDbEntity
  8
OUTLINE
100
AcDbLine
 10
-254.9855110895383
 20
-950.0552463219392
 30
0.0
 11
-254.9855110895383
 21
-936.9363268088836
 31
0.0
  0
LINE
  5
8A5
330
2
100
AcDbEntity
  8
OUTLINE
100
AcDbLine
 10
-254.9855110895387
 20
-950.0552463219412
 30
0.0
 11
-254.9855110895387
 21
-950.5401011722023
 31
0.0
  0
LINE
  5
8A6
330
2
100
AcDbEntity
  8
OUTLINE
100
AcDbLine
 10
-254.9855110895383
 20
-951.8717121006702
 30
0.0
 11
-254.9855110895383
 21
-950.5401011722003
 31
0.0
  0
LINE
  5
8A7
330
2
100
AcDbEntity
  8
OUTLINE
100
AcDbLine
 10
-254.9855110895383
 20
-964.1160369795233
 30
0.0
 11
-254.9855110895383
 21
-951.8717121006702
 31
0.0
  0
LINE
  5
8A8
330
2
100
AcDbEntity
  8
OUTLINE
100
AcDbLine
 10
-254.9855110895383
 20
-964.1160369795233
 30
0.0
 11
-254.9855110895383
 21
-964.6008918297846
 31
0.0
  0
LINE
  5
8A9
330
2
100
AcDbEntity
  8
OUTLINE
100
AcDbLine
 10
-249.9855110895382
 20
-968.4890101505407
 30
0.0
 11
-254.9855110895383
 21
-964.1160369795215
 31
0.0
  0
LINE
  5
8AA
330
2
100
AcDbEntity
  8
OUTLINE
100
AcDbLine
 10
-249.9855110895382
 20
-968.973865000802
 30
0.0
 11
-249.9855110895382
 21
-968.4890101505407
 31
0.0
  0
LINE
  5
8AB
330
2
100
AcDbEntity
  8
OUTLINE
100
AcDbLine
 10
-254.9855110895383
 20
-964.6008918297846
 30
0.0
 11
-249.9855110895382
 21
-968.973865000802
 31
0.0
  0
ELLIPSE
  5
8B6
330
2
100
AcDbEntity
  8
OUTLINE
100
AcDbEllipse
 10
315.0144889104615
 20
-957.6041347561533
 30
0.0
 11
2.049999999999998
 21
0.0000000000000128
 31
0.0
210
0.0
220
0.0
230
1.0
 40
0.8745946342037111
 41
0.1356292600919335
 42
3.005963393497834
  0
ELLIPSE
  5
8B8
330
2
100
AcDbEntity
  8
OUTLINE
100
AcDbEllipse
 10
130.0144889104615
 20
-962.8517025613763
 30
0.0
 11
2.049999999999998
 21
0.0000000000000128
 31
0.0
210
0.0
220
0.0
230
1.0
 40
0.8745946342037111
 41
0.1356292600908299
 42
3.005963393498936
  0
ELLIPSE
  5
8BA
330
2
100
AcDbEntity
  8
OUTLINE
100
AcDbEllipse
 10
-54.98551108953825
 20
-957.6041347561547
 30
0.0
 11
2.049999999999998
 21
0.0000000000000128
 31
0.0
210
0.0
220
0.0
230
1.0
 40
0.8745946342037111
 41
0.1356292600909514
 42
3.005963393498816
  0
ELLIPSE
  5
8BC
330
2
100
AcDbEntity
  8
OUTLINE
100
AcDbEllipse
 10
-239.9855110895383
 20
-962.8517025613763
 30
0.0
 11
2.049999999999998
 21
0.0000000000000128
 31
0.0
210
0.0
220
0.0
230
1.0
 40
0.8745946342037111
 41
0.1356292600909514
 42
3.005963393498816
  0
ELLIPSE
  5
8BE
330
2
100
AcDbEntity
  8
OUTLINE
100
AcDbEllipse
 10
315.0144889104615
 20
-957.1192799058918
 30
0.0
 11
-2.049999999999998
 21
-0.0000000000000128
 31
0.0
210
0.0
220
0.0
230
1.0
 40
0.8745946342037111
 41
-0.0000000000000069
 42
6.283185307179577
  0
ELLIPSE
  5
8BF
330
2
100
AcDbEntity
  8
OUTLINE
100
AcDbEllipse
 10
130.0144889104615
 20
-962.3668477111149
 30
0.0
 11
-2.049999999999998
 21
-0.0000000000000128
 31
0.0
210
0.0
220
0.0
230
1.0
 40
0.8745946342037111
 41
-0.0000000000000069
 42
6.283185307179577
  0
ELLIPSE
  5
8C0
330
2
100
AcDbEntity
  8
OUTLINE
100
AcDbEllipse
 10
-54.98551108953825
 20
-957.1192799058936
 30
0.0
 11
-2.049999999999998
 21
-0.0000000000000128
 31
0.0
210
0.0
220
0.0
230
1.0
 40
0.8745946342037111
 41
-0.0000000000000069
 42
6.283185307179577
  0
ELLIPSE
  5
8C1
330
2
100
AcDbEntity
  8
OUTLINE
100
AcDbEllipse
 10
-239.9855110895383
 20
-962.3668477111149
 30
0.0
 11
-2.049999999999998
 21
-0.0000000000000128
 31
0.0
210
0.0
220
0.0
230
1.0
 40
0.8745946342037111
 41
-0.0000000000000069
 42
6.283185307179577
  0
ELLIPSE
  5
8C2
330
2
100
AcDbEntity
  8
OUTLINE
100
AcDbEllipse
 10
500.0144889104615
 20
-962.8517025613763
 30
0.0
 11
2.049999999999998
 21
0.0000000000000128
 31
0.0
210
0.0
220
0.0
230
1.0
 40
0.8745946342037111
 41
0.1356292600908299
 42
3.005963393498936
  0
ELLIPSE
  5
8C4
330
2
100
AcDbEntity
  8
OUTLINE
100
AcDbEllipse
 10
500.0144889104615
 20
-962.3668477111149
 30
0.0
 11
-2.049999999999998
 21
-0.0000000000000128
 31
0.0
210
0.0
220
0.0
230
1.0
 40
0.8745946342037111
 41
-0.0000000000000069
 42
6.283185307179577
  0
LINE
  5
8C5
330
2
100
AcDbEntity
  8
OUTLINE
100
AcDbLine
 10
-277.4855110895383
 20
-582.2776313169653
 30
0.0
 11
-277.4855110895383
 21
-579.2776313169651
 31
0.0
  0
LINE
  5
8C6
330
2
100
AcDbEntity
  8
OUTLINE
100
AcDbLine
 10
537.5144889104616
 20
-582.2776313169653
 30
0.0
 11
537.5144889104616
 21
-579.2776313169651
 31
0.0
  0
LINE
  5
8C9
330
2
100
AcDbEntity
  8
OUTLINE
100
AcDbLine
 10
537.5144889104616
 20
-579.2776313169651
 30
0.0
 11
140.0144889104617
 21
-579.2776313169651
 31
0.0
  0
LINE
  5
8CA
330
2
100
AcDbEntity
  8
OUTLINE
100
AcDbLine
 10
120.0144889104617
 20
-579.2776313169651
 30
0.0
 11
-277.4855110895383
 21
-579.2776313169651
 31
0.0
  0
LINE
  5
8CB
330
2
100
AcDbEntity
  8
OUTLINE
100
AcDbLine
 10
120.0144889104617
 20
-579.2776313169651
 30
0.0
 11
120.0144889104617
 21
-578.4776313169641
 31
0.0
  0
LINE
  5
8CC
330
2
100
AcDbEntity
  8
OUTLINE
100
AcDbLine
 10
120.0144889104617
 20
-578.4776313169657
 30
0.0
 11
140.0144889104617
 21
-578.4776313169657
 31
0.0
  0
LINE
  5
8CD
330
2
100
AcDbEntity
  8
OUTLINE
100
AcDbLine
 10
140.0144889104617
 20
-578.4776313169641
 30
0.0
 11
140.0144889104617
 21
-579.2776313169651
 31
0.0
  0
LINE
  5
8E3
330
2
100
AcDbEntity
  8
OUTLINE
100
AcDbLine
 10
-238.9855110895382
 20
-1341.277631316965
 30
0.0
 11
499.014488910462
 21
-1341.277631316965
 31
0.0
  0
LINE
  5
8E4
330
2
100
AcDbEntity
  8
OUTLINE
100
AcDbLine
 10
-238.9855110895382
 20
-1341.277631316965
 30
0.0
 11
-238.9855110895382
 21
-1338.277631316965
 31
0.0
  0
LINE
  5
8E5
330
2
100
AcDbEntity
  8
OUTLINE
100
AcDbLine
 10
499.014488910462
 20
-1341.277631316965
 30
0.0
 11
499.014488910462
 21
-1338.277631316965
 31
0.0
  0
LINE
  5
B46
330
2
100
AcDbEntity
  8
NOTE
100
AcDbLine
 10
569.5144889104623
 20
-1266.777631316966
 30
0.0
 11
569.5144889104623
 21
-1260.277631316965
 31
0.0
  0
LINE
  5
B47
330
2
100
AcDbEntity
  8
NOTE
100
AcDbLine
 10
569.5144889104623
 20
-1260.277631316965
 30
0.0
 11
569.5144889104623
 21
-1253.777631316965
 31
0.0
  0
LINE
  5
B48
330
2
100
AcDbEntity
  8
NOTE
100
AcDbLine
 10
569.5144889104623
 20
-1116.777631316965
 30
0.0
 11
569.5144889104623
 21
-1110.277631316965
 31
0.0
  0
LINE
  5
B49
330
2
100
AcDbEntity
  8
NOTE
100
AcDbLine
 10
569.5144889104623
 20
-1110.277631316965
 30
0.0
 11
569.5144889104623
 21
-1103.777631316965
 31
0.0
  0
LINE
  5
B4A
330
2
100
AcDbEntity
  8
NOTE
100
AcDbLine
 10
569.5144889104623
 20
-966.7776313169657
 30
0.0
 11
569.5144889104623
 21
-960.2776313169655
 31
0.0
  0
LINE
  5
B4B
330
2
100
AcDbEntity
  8
NOTE
100
AcDbLine
 10
569.5144889104623
 20
-960.2776313169655
 30
0.0
 11
569.5144889104623
 21
-953.7776313169656
 31
0.0
  0
LINE
  5
B4C
330
2
100
AcDbEntity
  8
NOTE
100
AcDbLine
 10
569.5144889104623
 20
-816.7776313169657
 30
0.0
 11
569.5144889104623
 21
-810.2776313169655
 31
0.0
  0
LINE
  5
B4D
330
2
100
AcDbEntity
  8
NOTE
100
AcDbLine
 10
569.5144889104623
 20
-810.2776313169655
 30
0.0
 11
569.5144889104623
 21
-803.7776313169656
 31
0.0
  0
LINE
  5
B4E
330
2
100
AcDbEntity
  8
NOTE
100
AcDbLine
 10
569.5144889104623
 20
-666.7776313169656
 30
0.0
 11
569.5144889104623
 21
-660.2776313169656
 31
0.0
  0
LINE
  5
B4F
330
2
100
AcDbEntity
  8
NOTE
100
AcDbLine
 10
569.5144889104623
 20
-660.2776313169656
 30
0.0
 11
569.5144889104623
 21
-653.7776313169656
 31
0.0
  0
MTEXT
  5
B60
330
2
100
AcDbEntity
  8
ETC
100
AcDbMText
 10
-148.9160148075774
 20
-356.7315043026247
 30
0.0
 40
40.0
 41
651.9792552343242
 71
     1
 72
     5
  1
AG1S/AG1T-KK75TD\P下面図
 73
     1
 44
1.0
1001
ACAD
1000
MTEXTBEGIN
1070
    73
1070
     1
1070
    44
1040
1.0
1070
    74
1070
     0
1000
MTEXTEND
  0
DIMENSION
  5
B87
330
2
100
AcDbEntity
  8
SIZE
100
AcDbDimension
  2
*D1
 10
-352.4203349729813
 20
-810.2776313169655
 30
0.0
 11
-362.4203349729812
 21
-735.2776313169656
 31
0.0
 70
    32
 71
     5
 42
149.9999999999999
  3
STANDARD
100
AcDbAlignedDimension
 13
-309.4855110895245
 23
-660.2776313169656
 33
0.0
 14
-309.4855110895245
 24
-810.2776313169655
 34
0.0
 50
90.0
100
AcDbRotatedDimension
1001
ACAD
1000
DSTYLE
1002
{
1070
    40
1040
5.0
1070
    45
1040
0.5
1070
   271
1070
     1
1070
   272
1070
     1
1002
}
  0
DIMENSION
  5
B95
330
2
100
AcDbEntity
  8
SIZE
100
AcDbDimension
  2
*D2
 10
-352.217762610784
 20
-960.2776313169655
 30
0.0
 11
-362.2177626107838
 21
-885.2776313169655
 31
0.0
 70
    32
 71
     5
 42
150.0000000000001
  3
STANDARD
100
AcDbAlignedDimension
 13
-309.4855110895245
 23
-810.2776313169655
 33
0.0
 14
-309.4855110895245
 24
-960.2776313169655
 34
0.0
 50
90.0
100
AcDbRotatedDimension
1001
ACAD
1000
DSTYLE
1002
{
1070
    40
1040
5.0
1070
    45
1040
0.5
1070
   271
1070
     1
1070
   272
1070
     1
1002
}
  0
DIMENSION
  5
BA2
330
2
100
AcDbEntity
  8
SIZE
100
AcDbDimension
  2
*D3
 10
-351.9877206922773
 20
-1110.277631316965
 30
0.0
 11
-361.9877206922772
 21
-1035.277631316965
 31
0.0
 70
    32
 71
     5
 42
149.9999999999992
  3
STANDARD
100
AcDbAlignedDimension
 13
-309.4855110895245
 23
-960.2776313169655
 33
0.0
 14
-309.4855110895245
 24
-1110.277631316965
 34
0.0
 50
90.0
100
AcDbRotatedDimension
1001
ACAD
1000
DSTYLE
1002
{
1070
    40
1040
5.0
1070
    45
1040
0.5
1070
   271
1070
     1
1070
   272
1070
     1
1002
}
  0
DIMENSION
  5
BAF
330
2
100
AcDbEntity
  8
SIZE
100
AcDbDimension
  2
*D4
 10
-351.8250825966314
 20
-1260.277631316965
 30
0.0
 11
-361.8250825966311
 21
-1185.277631316965
 31
0.0
 70
    32
 71
     5
 42
150.0
  3
STANDARD
100
AcDbAlignedDimension
 13
-309.4855110895245
 23
-1110.277631316965
 33
0.0
 14
-309.4855110895245
 24
-1260.277631316965
 34
0.0
 50
90.0
100
AcDbRotatedDimension
1001
ACAD
1000
DSTYLE
1002
{
1070
    40
1040
5.0
1070
    45
1040
0.5
1070
   271
1070
     1
1070
   272
1070
     1
1002
}
  0
DIMENSION
  5
BBC
330
2
100
AcDbEntity
  8
SIZE
100
AcDbDimension
  2
*D5
 10
-393.1681945371565
 20
-1341.277631316965
 30
0.0
 11
-403.1681945371563
 21
-960.277631316965
 31
0.0
 70
    32
 71
     5
 42
761.9999999999997
  3
STANDARD
100
AcDbAlignedDimension
 13
-277.4855110895383
 23
-579.2776313169651
 33
0.0
 14
-238.9855110895382
 24
-1341.277631316965
 34
0.0
 50
90.0
100
AcDbRotatedDimension
1001
ACAD
1000
DSTYLE
1002
{
1070
    40
1040
5.0
1070
    45
1040
0.5
1070
   271
1070
     1
1070
   272
1070
     1
1002
}
  0
DIMENSION
  5
BC9
330
2
100
AcDbEntity
  8
SIZE
100
AcDbDimension
  2
*D6
 10
569.5144889104623
 20
-538.7200016120257
 30
0.0
 11
130.0144889104689
 21
-528.7200016120257
 31
0.0
 70
    32
 71
     5
 42
878.9999999999867
  3
STANDARD
100
AcDbAlignedDimension
 13
-309.4855110895245
 23
-660.2776313169656
 33
0.0
 14
569.5144889104623
 24
-660.2776313169656
 34
0.0
100
AcDbRotatedDimension
1001
ACAD
1000
DSTYLE
1002
{
1070
    40
1040
5.0
1070
    45
1040
0.5
1070
   271
1070
     1
1070
   272
1070
     1
1002
}
  0
DIMENSION
  5
BD6
330
2
100
AcDbEntity
  8
SIZE
100
AcDbDimension
  2
*D7
 10
586.0144889104623
 20
-512.1337428596361
 30
0.0
 11
130.0144889104689
 21
-512.1337428596361
 31
0.0
 70
   160
 71
     5
 42
911.9999999999869
  3
STANDARD
100
AcDbAlignedDimension
 13
-325.9855110895246
 23
-627.2776313169653
 33
0.0
 14
586.0144889104623
 24
-627.2776313169653
 34
0.0
100
AcDbRotatedDimension
1001
ACAD
1000
DSTYLE
1002
{
1070
    40
1040
5.0
1070
    45
1040
0.5
1070
   271
1070
     1
1070
   272
1070
     1
1002
}
  0
MULTILEADER
  5
C37
330
2
100
AcDbEntity
  8
NOTE
 92
      760
310
F8020000120000000C000000100000000A0000000C00000016000000000000C00C00000013000000112700003C000000060000000200000018FCC5DAA5037BC08F92F644BAAC82C000000000000000000E25226A68097BC08F92F644BAAC82C000000000000000000C00000013000000010000000C00000014000000010000
310
0054000000070000000300000043132288022674C0A5B568BE0F5584C00000000000000000F20D4FECE28873C083F69AF1818E84C0000000000000000067747C70C74274C0F613BE6BA57184C000000000000000000C00000013000000891300003C0000000600000002000000D5434FFC643474C0CE6413955A6384C00000
310
00000000000018FCC5DAA5037BC08F92F644BAAC82C000000000000000000C000000130000009A3A00003C0000000600000002000000316EB48EB1FB7EC08F92F644BAAC82C000000000000000000C25226A68097BC08F92F644BAAC82C000000000000000000C00000016000000000000C00C00000012000000FF7F00000C
310
00000017000000FFFFFFFF0C00000016000000000000C00C00000013000000993A0000A80000000B0000009F496BFC8C327FC05C5FC311879982C0000000000000000000000000000000000000000000000000000000000000F03F000000000000F03F0000000000000000000000000000000031302D000300000001000000
310
0000000000002840000000000000F03F0000000000000000000000000000F03F0000000000000000000000000000000000000000726F6D616E732E7368780000657874666F6E742E73687800B00000000B000000E8DB8F451F177FC05C5FC311873983C0000000000000000000000000000000000000000000000000000000
310
000000F03F000000000000F03F0000000000000000000000000000000039817E3792B78C8A00FF70FF08000000010000000000000000002840000000000000F03F0000000000000000000000000000F03F0000000000000000000000000000000000000000726F6D616E732E7368780000657874666F6E742E73687800
100
AcDbMLeader
300
CONTEXT_DATA{
 40
1.0
 10
-497.7308489845336
 20
-590.3909518493152
 30
0.0
 41
12.0
140
12.0
145
2.0
174
     1
175
     6
176
     0
177
     0
290
     1
304
10-\P9×7長穴
 11
0.0
 21
0.0
 31
1.0
340
23
 12
-495.7308489845337
 22
-583.1909518493152
 32
0.0
 13
1.0
 23
0.0
 33
0.0
 42
0.0
 43
0.0
 44
0.0
 45
1.0
170
     1
 90
-1073741824
171
     1
172
     5
 91
-1073741824
141
0.0
 92
  5103612
291
     0
292
     0
173
     0
293
     0
142
0.0
143
0.0
294
     0
295
     0
296
     0
110
-312.5554011428895
120
-657.8134491068343
130
0.0
111
1.0
121
0.0
131
0.0
112
0.0
122
1.0
132
0.0
297
     0
302
LEADER{
290
     1
291
     1
 10
-432.2279918416766
 20
-597.5909518493152
 30
0.0
 11
-1.0
 21
0.0
 31
0.0
 90
        0
 40
0.36
304
LEADER_LINE{
 10
-312.5554011428895
 20
-657.8134491068343
 30
0.0
 91
        0
305
}
303
}
301
}
340
B17
 90
 67453952
170
     1
 91
-1056964608
341
26
171
    -2
290
     1
291
     1
 41
0.36
 42
12.0
172
     2
343
23
173
     1
 95
        6
174
     1
175
     2
 92
-1056964608
292
     0
 93
-1056964608
 10
1.0
 20
1.0
 30
1.0
 43
0.0
176
     0
293
     0
294
     0
178
     0
179
     1
 45
1.0
1001
ACAD_MLEADERVER
1070
     2
  0
LINE
  5
11EC
330
2
100
AcDbEntity
  8
BASIS
  6
DASHDOT
 62
     6
100
AcDbLine
 10
130.0144889104617
 20
-1372.65449301107
 30
0.0
 11
130.0144889104617
 21
-556.1008148665063
 31
0.0
  0
LINE
  5
11ED
330
2
100
AcDbEntity
  8
ARRANGE
  6
Continuous
 62
     1
100
AcDbLine
 10
113.3303713460577
 20
-976.9617488813693
 30
0.0
 11
146.6986064748657
 21
-943.5935137525619
 31
0.0
  0
LINE
  5
11EE
330
2
100
AcDbEntity
  8
ARRANGE
  6
Continuous
 62
     1
100
AcDbLine
 10
113.3303713460577
 20
-943.5935137525619
 30
0.0
 11
146.6986064748657
 21
-976.9617488813693
 31
0.0
  0
CIRCLE
  5
11EF
330
2
100
AcDbEntity
  8
ARRANGE
100
AcDbCircle
 10
130.0144889104617
 20
-960.2776313169655
 30
0.0
 40
15.0
  0
LINE
  5
11F6
330
2
100
AcDbEntity
  8
BASIS
100
AcDbLine
 10
-338.9842091233813
 20
-960.2776313169655
 30
0.0
 11
598.979136770161
 21
-960.2776313169655
 31
0.0
  0
ENDSEC
  0
SECTION
  2
OBJECTS
  0
DICTIONARY
  5
A
330
0
100
AcDbDictionary
281
     1
  3
ACAD_2007HEADERVARS_RT
350
123E
  3
ACAD_BACKGROUND
350
B1D
  3
ACAD_COLOR
350
4D
  3
ACAD_GROUP
350
3A
  3
ACAD_LAYOUT
350
17
  3
ACAD_MATERIAL
350
C
  3
ACAD_MLEADERSTYLE
350
B16
  3
ACAD_MLINESTYLE
350
3B
  3
ACAD_PLOTSETTINGS
350
3C
  3
ACAD_PLOTSTYLENAME
350
9
  3
ACAD_SCALELIST
350
4E
  3
ACAD_TABLESTYLE
350
4F
  3
ACAD_VISUALSTYLE
350
2D
  3
ACDB_RECOMPOSE_DATA
350
B02
  3
AcDbVariableDictionary
350
B03
  3
AcmDictionary
350
AFC
  3
DWGPROPS
350
123D
  0
DICTIONARY
  5
20
330
1F
100
AcDbDictionary
280
     1
281
     1
  3
ACAD_LAYERFILTERS
360
123B
  3
ACAD_LAYERSTATES
360
21
  3
ACLYDICTIONARY
360
123A
  0
DICTIONARY
  5
6
330
5
100
AcDbDictionary
280
     1
281
     1
  3
ADSK_XREC_LAYER_RECONCILED
360
7
  0
DICTIONARY
  5
C99
330
C98
100
AcDbDictionary
280
     1
281
     1
  0
DICTIONARY
  5
C9B
330
C9A
100
AcDbDictionary
280
     1
281
     1
  0
DICTIONARY
  5
C9D
330
C9C
100
AcDbDictionary
280
     1
281
     1
  0
DICTIONARY
  5
C9F
330
C9E
100
AcDbDictionary
280
     1
281
     1
  0
DICTIONARY
  5
CA1
330
CA0
100
AcDbDictionary
280
     1
281
     1
  0
DICTIONARY
  5
CA3
330
CA2
100
AcDbDictionary
280
     1
281
     1
  0
DICTIONARY
  5
CA5
330
CA4
100
AcDbDictionary
280
     1
281
     1
  0
DICTIONARY
  5
3
330
2
100
AcDbDictionary
280
     1
281
     1
  3
ACAD_SORTENTS
360
B34
  0
DICTIONARY
  5
123E
102
{ACAD_REACTORS
330
A
102
}
330
A
100
AcDbDictionary
281
     1
  3
DIMARCSYM
350
1240
  3
DIMFXL
350
123F
  3
DIMJOGANG
350
1241
  0
DICTIONARY
  5
B1D
102
{ACAD_REACTORS
330
A
102
}
330
A
100
AcDbDictionary
281
     1
  0
DICTIONARY
  5
4D
102
{ACAD_REACTORS
330
A
102
}
330
A
100
AcDbDictionary
281
     1
  0
DICTIONARY
  5
3A
102
{ACAD_REACTORS
330
A
102
}
330
A
100
AcDbDictionary
281
     1
  0
DICTIONARY
  5
17
102
{ACAD_REACTORS
330
A
102
}
330
A
100
AcDbDictionary
281
     1
  3
Model
350
16
  3
レイアウト1
350
1B
  0
DICTIONARY
  5
C
102
{ACAD_REACTORS
330
A
102
}
330
A
100
AcDbDictionary
281
     1
  3
ByBlock
350
45
  3
ByLayer
350
3D
  3
Global
350
B
  0
DICTIONARY
  5
B16
102
{ACAD_REACTORS
330
A
102
}
330
A
100
AcDbDictionary
281
     1
  3
Standard
350
B17
  0
DICTIONARY
  5
3B
102
{ACAD_REACTORS
330
A
102
}
330
A
100
AcDbDictionary
281
     1
  3
STANDARD
350
53
  0
DICTIONARY
  5
3C
102
{ACAD_REACTORS
330
A
102
}
330
A
100
AcDbDictionary
281
     1
  0
ACDBDICTIONARYWDFLT
  5
9
102
{ACAD_REACTORS
330
A
102
}
330
A
100
AcDbDictionary
281
     1
  3
Normal
350
8
100
AcDbDictionaryWithDefault
340
8
  0
DICTIONARY
  5
4E
102
{ACAD_REACTORS
330
A
102
}
330
A
100
AcDbDictionary
281
     1
  3
*A1
350
CA7
  3
A0
350
57
  3
A1
350
58
  3
A2
350
59
  3
A3
350
5A
  3
A4
350
5B
  3
A5
350
5C
  3
A6
350
5D
  3
A7
350
5E
  3
A8
350
5F
  3
A9
350
60
  3
B0
350
61
  3
B1
350
62
  3
B2
350
63
  3
B3
350
64
  3
B4
350
65
  3
B5
350
66
  3
B6
350
67
  3
B7
350
68
  3
B8
350
69
  3
B9
350
6A
  3
C0
350
6B
  3
C1
350
6C
  3
C2
350
6D
  3
C3
350
6E
  3
C4
350
6F
  3
C5
350
70
  3
C6
350
71
  3
C7
350
72
  3
C8
350
73
  3
C9
350
74
  3
D0
350
75
  3
D1
350
76
  3
D2
350
77
  0
DICTIONARY
  5
4F
102
{ACAD_REACTORS
330
A
102
}
330
A
100
AcDbDictionary
281
     1
  3
Standard
350
54
  0
DICTIONARY
  5
2D
102
{ACAD_REACTORS
330
A
102
}
330
A
100
AcDbDictionary
281
     1
  3
2dWireframe
350
B0D
  3
3D Hidden
350
B0E
  3
3dWireframe
350
56
  3
Basic
350
B0C
  3
Brighten
350
B11
  3
ColorChange
350
B15
  3
Conceptual
350
B0F
  3
Dim
350
B10
  3
Facepattern
350
B14
  3
Flat
350
B09
  3
FlatWithEdges
350
B0A
  3
Gouraud
350
2C
  3
GouraudWithEdges
350
B0B
  3
Linepattern
350
B13
  3
Realistic
350
55
  3
Thicken
350
B12
  0
XRECORD
  5
B02
102
{ACAD_REACTORS
330
A
102
}
330
A
100
AcDbXrecord
280
     1
 90
        1
330
54
  0
DICTIONARY
  5
B03
102
{ACAD_REACTORS
330
A
102
}
330
A
100
AcDbDictionary
281
     1
  3
CANNOSCALE
350
B06
  3
CMLEADERSTYLE
350
B05
  3
CTABLESTYLE
350
B04
  3
DIMASSOC
350
B7B
  3
HIDETEXT
350
B7A
  3
INDEXCTL
350
B79
  3
LIGHTINGUNITS
350
B07
  3
MSLTSCALE
350
B77
  3
SORTENTS
350
B78
  0
DICTIONARY
  5
AFC
102
{ACAD_REACTORS
330
A
102
}
330
A
100
AcDbDictionary
281
     1
  3
AcmBOMDATA
350
AFD
  0
XRECORD
  5
123D
102
{ACAD_REACTORS
330
A
102
}
330
A
100
AcDbXrecord
280
     1
  1
DWGPROPS COOKIE
  2

  3

  4

  6

  7

  8
W000135
  9

300
=
301
=
302
=
303
=
304
=
305
=
306
=
307
=
308
=
309
=
 40
1.980616226851851
 41
2451324.468257373
 42
2454987.666101562
  1

 90
        0
  0
DICTIONARY
  5
123B
102
{ACAD_REACTORS
330
20
102
}
330
20
100
AcDbDictionary
281
     1
  0
DICTIONARY
  5
21
102
{ACAD_REACTORS
330
20
102
}
330
20
100
AcDbDictionary
281
     1
  0
DICTIONARY
  5
123A
102
{ACAD_REACTORS
330
20
102
}
330
20
100
AcDbDictionary
281
     1
1001
ACAD
1000
<All
  0
XRECORD
  5
7
102
{ACAD_REACTORS
330
6
102
}
330
6
100
AcDbXrecord
280
     1
290
     1
  0
SORTENTSTABLE
  5
B34
102
{ACAD_REACTORS
330
3
102
}
330
3
100
AcDbSortentsTable
330
2
331
CC
  5
CC
331
10F
  5
10F
331
D4
  5
D4
331
156
  5
156
331
117
  5
117
331
DC
  5
DC
331
15E
  5
15E
331
166
  5
166
331
11F
  5
11F
331
E4
  5
E4
331
16E
  5
16E
331
127
  5
127
331
193
  5
193
331
888
  5
88D
331
8BF
  5
8C4
331
849
  5
84E
331
890
  5
895
331
859
  5
85E
331
1AB
  5
1AB
331
898
  5
89D
331
FC
  5
FC
331
13F
  5
13F
331
186
  5
186
331
147
  5
147
331
18E
  5
18E
331
14F
  5
14F
331
62A
  5
62A
331
861
  5
866
331
1E3
  5
1E3
331
8A0
  5
8A5
331
8A8
  5
8AD
331
B47
  5
B48
331
632
  5
632
331
869
  5
86E
331
B4F
  5
B52
331
203
  5
203
331
871
  5
876
331
108
  5
108
331
CD
  5
CD
331
157
  5
157
331
110
  5
110
331
D5
  5
D5
331
15F
  5
15F
331
DD
  5
DD
331
118
  5
118
331
120
  5
120
331
167
  5
167
331
16F
  5
16F
331
194
  5
194
331
8B8
  5
8BD
331
84A
  5
851
331
19C
  5
19C
331
24B
  5
24B
331
8C0
  5
8C5
331
253
  5
253
331
891
  5
896
331
899
  5
89E
331
25B
  5
25B
331
85A
  5
85F
331
128
  5
128
331
FD
  5
FD
331
187
  5
187
331
105
  5
105
331
140
  5
140
331
148
  5
148
331
8A1
  5
8A6
331
62B
  5
62B
331
862
  5
869
331
86A
  5
86F
331
8A9
  5
8AE
331
633
  5
633
331
B48
  5
B49
331
87A
  5
87F
331
20C
  5
20C
331
109
  5
109
331
CE
  5
CE
331
150
  5
150
331
111
  5
111
331
158
  5
158
331
119
  5
119
331
DE
  5
DE
331
160
  5
160
331
168
  5
168
331
121
  5
121
331
195
  5
195
331
882
  5
887
331
19D
  5
19D
331
8C1
  5
8C6
331
853
  5
858
331
892
  5
897
331
8C9
  5
8CE
331
85B
  5
860
331
89A
  5
89F
331
170
  5
170
331
129
  5
129
331
106
  5
106
331
188
  5
188
331
62C
  5
62C
331
1E5
  5
1E5
331
8A2
  5
8A7
331
8AA
  5
8AF
331
B49
  5
B4A
331
634
  5
634
331
86B
  5
870
331
873
  5
878
331
87B
  5
880
331
20D
  5
20D
331
10A
  5
10A
331
CF
  5
CF
331
151
  5
151
331
159
  5
159
331
D7
  5
D7
331
112
  5
112
331
11A
  5
11A
331
DF
  5
DF
331
161
  5
161
331
122
  5
122
331
196
  5
196
331
8BA
  5
8BF
331
8C2
  5
8C7
331
88B
  5
890
331
19E
  5
19E
331
24D
  5
24D
331
8CA
  5
8CF
331
255
  5
255
331
854
  5
859
331
893
  5
898
331
89B
  5
8A0
331
85C
  5
863
331
12A
  5
12A
331
F7
  5
F7
331
171
  5
171
331
FF
  5
FF
331
189
  5
189
331
107
  5
107
331
142
  5
142
331
14A
  5
14A
331
8A3
  5
8A8
331
62D
  5
62D
331
86C
  5
871
331
8AB
  5
8B0
331
635
  5
635
331
B4A
  5
B4B
331
20E
  5
20E
331
C8
  5
C8
331
10B
  5
10B
331
D0
  5
D0
331
152
  5
152
331
113
  5
113
331
D8
  5
D8
331
15A
  5
15A
331
11B
  5
11B
331
E0
  5
E0
331
162
  5
162
331
16A
  5
16A
331
123
  5
123
331
197
  5
197
331
88C
  5
891
331
19F
  5
19F
331
84D
  5
852
331
855
  5
85A
331
894
  5
899
331
8CB
  5
8D0
331
8E3
  5
8E8
331
89C
  5
8A1
331
25E
  5
25E
331
12B
  5
12B
331
F8
  5
F8
331
172
  5
172
331
100
  5
100
331
625
  5
625
331
18A
  5
18A
331
14B
  5
14B
331
62E
  5
62E
331
865
  5
86A
331
8A4
  5
8A9
331
B4B
  5
B4C
331
636
  5
636
331
86D
  5
872
331
C9
  5
C9
331
10C
  5
10C
331
D1
  5
D1
331
153
  5
153
331
15B
  5
15B
331
D9
  5
D9
331
114
  5
114
331
11C
  5
11C
331
E1
  5
E1
331
163
  5
163
331
124
  5
124
331
16B
  5
16B
331
190
  5
190
331
846
  5
84B
331
198
  5
198
331
247
  5
247
331
8BC
  5
8C1
331
8C4
  5
8C9
331
24F
  5
24F
331
84E
  5
853
331
1A0
  5
1A0
331
8CC
  5
8D1
331
257
  5
257
331
856
  5
85D
331
895
  5
89A
331
89D
  5
8A2
331
8E4
  5
8E9
331
12C
  5
12C
331
173
  5
173
331
626
  5
626
331
144
  5
144
331
18B
  5
18B
331
1E0
  5
1E0
331
866
  5
86B
331
8A5
  5
8AA
331
62F
  5
62F
331
B4C
  5
B4D
331
86E
  5
873
331
637
  5
637
331
876
  5
87B
331
87E
  5
883
331
CA
  5
CA
331
10D
  5
10D
331
D2
  5
D2
331
154
  5
154
331
115
  5
115
331
DA
  5
DA
331
15C
  5
15C
331
11D
  5
11D
331
E2
  5
E2
331
164
  5
164
331
16C
  5
16C
331
125
  5
125
331
191
  5
191
331
847
  5
84C
331
199
  5
199
331
88E
  5
893
331
8C5
  5
8CA
331
1A1
  5
1A1
331
84F
  5
854
331
1A9
  5
1A9
331
896
  5
89B
331
8CD
  5
8D2
331
8E5
  5
8EA
331
85F
  5
864
331
89E
  5
8A3
331
FA
  5
FA
331
174
  5
174
331
102
  5
102
331
627
  5
627
331
145
  5
145
331
18C
  5
18C
331
14D
  5
14D
331
628
  5
628
331
630
  5
630
331
867
  5
86C
331
1E9
  5
1E9
331
8A6
  5
8AB
331
B4D
  5
B4E
331
201
  5
201
331
638
  5
638
331
86F
  5
874
331
877
  5
87C
331
8B6
  5
8BB
331
87F
  5
884
331
CB
  5
CB
331
155
  5
155
331
10E
  5
10E
331
D3
  5
D3
331
15D
  5
15D
331
DB
  5
DB
331
116
  5
116
331
E3
  5
E3
331
165
  5
165
331
126
  5
126
331
16D
  5
16D
331
192
  5
192
331
848
  5
84D
331
19A
  5
19A
331
249
  5
249
331
8BE
  5
8C3
331
8C6
  5
8CB
331
251
  5
251
331
850
  5
857
331
1A2
  5
1A2
331
88F
  5
894
331
259
  5
259
331
1AA
  5
1AA
331
620
  5
620
331
103
  5
103
331
185
  5
185
331
18D
  5
18D
331
14E
  5
14E
331
1E2
  5
1E2
331
629
  5
629
331
860
  5
865
331
868
  5
86D
331
8A7
  5
8AC
331
1EA
  5
1EA
331
631
  5
631
331
B46
  5
B47
331
B4E
  5
B4F
331
639
  5
639
331
870
  5
875
331
202
  5
202
  0
XRECORD
  5
1240
102
{ACAD_REACTORS
330
123E
102
}
330
123E
100
AcDbXrecord
280
     1
 70
     1
  0
XRECORD
  5
123F
102
{ACAD_REACTORS
330
123E
102
}
330
123E
100
AcDbXrecord
280
     1
 40
15.0
  0
XRECORD
  5
1241
102
{ACAD_REACTORS
330
123E
102
}
330
123E
100
AcDbXrecord
280
     1
 40
1.570796326794896
  0
LAYOUT
  5
16
102
{ACAD_XDICTIONARY
360
1242
102
}
102
{ACAD_REACTORS
330
17
102
}
330
17
100
AcDbPlotSettings
  1

  2
なし
  4

  6

 40
0.0
 41
0.0
 42
0.0
 43
0.0
 44
0.0
 45
0.0
 46
0.0
 47
0.0
 48
0.0
 49
0.0
140
0.0
141
0.0
142
1.0
143
1.0
 70
  1712
 72
     0
 73
     0
 74
     0
  7

 75
     0
147
1.0
148
0.0
149
0.0
100
AcDbLayout
  1
Model
 70
     1
 71
     0
 10
0.0
 20
0.0
 11
12.0
 21
9.0
 12
0.0
 22
0.0
 32
0.0
 14
0.0
 24
0.0
 34
0.0
 15
0.0
 25
0.0
 35
0.0
146
0.0
 13
0.0
 23
0.0
 33
0.0
 16
1.0
 26
0.0
 36
0.0
 17
0.0
 27
1.0
 37
0.0
 76
     0
330
2
331
BF0
  0
LAYOUT
  5
1B
102
{ACAD_XDICTIONARY
360
1C
102
}
102
{ACAD_REACTORS
330
17
102
}
330
17
100
AcDbPlotSettings
  1

  2
Microsoft XPS Document Writer
  4
A4
  6

 40
3.174999952316282
 41
3.174999952316282
 42
3.175003051757812
 43
3.17498779296875
 44
210.0156707763672
 45
297.0106506347656
 46
0.0
 47
0.0
 48
0.0
 49
0.0
140
0.0
141
0.0
142
1.0
143
1.0
 70
   688
 72
     1
 73
     1
 74
     5
  7

 75
    16
147
1.0
148
0.0
149
0.0
100
AcDbLayout
  1
レイアウト1
 70
     1
 71
     1
 10
0.0
 20
0.0
 11
12.0
 21
9.0
 12
0.0
 22
0.0
 32
0.0
 14
-1439.804583653114
 24
-1400.237631316938
 34
0.0
 15
2872.968780515991
 25
1675.790811506817
 35
0.0
146
0.0
 13
0.0
 23
0.0
 33
0.0
 16
1.0
 26
0.0
 36
0.0
 17
0.0
 27
1.0
 37
0.0
 76
     0
330
18
1001
ACAD_PSEXT
1000
Microsoft XPS Document Writer
1000
Microsoft XPS Document Writer
1000
XPSPort:
1000

1070
     0
  0
MATERIAL
  5
45
102
{ACAD_XDICTIONARY
360
46
102
}
102
{ACAD_REACTORS
330
C
102
}
330
C
100
AcDbMaterial
  1
ByBlock
 72
     0
 43
0.0208333333333333
 43
0.0
 43
0.0
 43
0.0
 43
0.0
 43
0.0208333333333333
 43
0.0
 43
0.0
 43
0.0
 43
0.0
 43
1.0
 43
0.0
 43
0.0
 43
0.0
 43
0.0
 43
1.0
 77
     0
 47
0.0208333333333333
 47
0.0
 47
0.0
 47
0.0
 47
0.0
 47
0.0208333333333333
 47
0.0
 47
0.0
 47
0.0
 47
0.0
 47
1.0
 47
0.0
 47
0.0
 47
0.0
 47
0.0
 47
1.0
171
     0
 49
0.0208333333333333
 49
0.0
 49
0.0
 49
0.0
 49
0.0
 49
0.0208333333333333
 49
0.0
 49
0.0
 49
0.0
 49
0.0
 49
1.0
 49
0.0
 49
0.0
 49
0.0
 49
0.0
 49
1.0
175
     0
142
0.0208333333333333
142
0.0
142
0.0
142
0.0
142
0.0
142
0.0208333333333333
142
0.0
142
0.0
142
0.0
142
0.0
142
1.0
142
0.0
142
0.0
142
0.0
142
0.0
142
1.0
179
     0
144
0.0208333333333333
144
0.0
144
0.0
144
0.0
144
0.0
144
0.0208333333333333
144
0.0
144
0.0
144
0.0
144
0.0
144
1.0
144
0.0
144
0.0
144
0.0
144
0.0
144
1.0
147
0.0208333333333333
147
0.0
147
0.0
147
0.0
147
0.0
147
0.0208333333333333
147
0.0
147
0.0
147
0.0
147
0.0
147
1.0
147
0.0
147
0.0
147
0.0
147
0.0
147
1.0
  0
MATERIAL
  5
3D
102
{ACAD_XDICTIONARY
360
3E
102
}
102
{ACAD_REACTORS
330
C
102
}
330
C
100
AcDbMaterial
  1
ByLayer
 72
     0
 43
0.0208333333333333
 43
0.0
 43
0.0
 43
0.0
 43
0.0
 43
0.0208333333333333
 43
0.0
 43
0.0
 43
0.0
 43
0.0
 43
1.0
 43
0.0
 43
0.0
 43
0.0
 43
0.0
 43
1.0
 77
     0
 47
0.0208333333333333
 47
0.0
 47
0.0
 47
0.0
 47
0.0
 47
0.0208333333333333
 47
0.0
 47
0.0
 47
0.0
 47
0.0
 47
1.0
 47
0.0
 47
0.0
 47
0.0
 47
0.0
 47
1.0
171
     0
 49
0.0208333333333333
 49
0.0
 49
0.0
 49
0.0
 49
0.0
 49
0.0208333333333333
 49
0.0
 49
0.0
 49
0.0
 49
0.0
 49
1.0
 49
0.0
 49
0.0
 49
0.0
 49
0.0
 49
1.0
175
     0
142
0.0208333333333333
142
0.0
142
0.0
142
0.0
142
0.0
142
0.0208333333333333
142
0.0
142
0.0
142
0.0
142
0.0
142
1.0
142
0.0
142
0.0
142
0.0
142
0.0
142
1.0
179
     0
144
0.0208333333333333
144
0.0
144
0.0
144
0.0
144
0.0
144
0.0208333333333333
144
0.0
144
0.0
144
0.0
144
0.0
144
1.0
144
0.0
144
0.0
144
0.0
144
0.0
144
1.0
147
0.0208333333333333
147
0.0
147
0.0
147
0.0
147
0.0
147
0.0208333333333333
147
0.0
147
0.0
147
0.0
147
0.0
147
1.0
147
0.0
147
0.0
147
0.0
147
0.0
147
1.0
  0
MATERIAL
  5
B
102
{ACAD_XDICTIONARY
360
D
102
}
102
{ACAD_REACTORS
330
C
102
}
330
C
100
AcDbMaterial
  1
Global
 72
     0
 43
0.0208333333333333
 43
0.0
 43
0.0
 43
0.0
 43
0.0
 43
0.0208333333333333
 43
0.0
 43
0.0
 43
0.0
 43
0.0
 43
1.0
 43
0.0
 43
0.0
 43
0.0
 43
0.0
 43
1.0
 77
     0
 47
0.0208333333333333
 47
0.0
 47
0.0
 47
0.0
 47
0.0
 47
0.0208333333333333
 47
0.0
 47
0.0
 47
0.0
 47
0.0
 47
1.0
 47
0.0
 47
0.0
 47
0.0
 47
0.0
 47
1.0
171
     0
 49
0.0208333333333333
 49
0.0
 49
0.0
 49
0.0
 49
0.0
 49
0.0208333333333333
 49
0.0
 49
0.0
 49
0.0
 49
0.0
 49
1.0
 49
0.0
 49
0.0
 49
0.0
 49
0.0
 49
1.0
175
     0
142
0.0208333333333333
142
0.0
142
0.0
142
0.0
142
0.0
142
0.0208333333333333
142
0.0
142
0.0
142
0.0
142
0.0
142
1.0
142
0.0
142
0.0
142
0.0
142
0.0
142
1.0
179
     0
144
0.0208333333333333
144
0.0
144
0.0
144
0.0
144
0.0
144
0.0208333333333333
144
0.0
144
0.0
144
0.0
144
0.0
144
1.0
144
0.0
144
0.0
144
0.0
144
0.0
144
1.0
147
0.0208333333333333
147
0.0
147
0.0
147
0.0
147
0.0
147
0.0208333333333333
147
0.0
147
0.0
147
0.0
147
0.0
147
1.0
147
0.0
147
0.0
147
0.0
147
0.0
147
1.0
  0
MLEADERSTYLE
  5
B17
102
{ACAD_REACTORS
330
B16
330
C37
102
}
330
B16
100
AcDbMLeaderStyle
170
     2
171
     1
172
     0
 90
        2
 40
0.0
 41
0.0
173
     1
 91
-1056964608
340
26
 92
       -2
290
     1
 42
2.0
291
     1
 43
0.36
  3
Standard
 44
4.0
300

342
23
174
     1
178
     6
175
     1
176
     0
 93
-1056964608
 45
4.0
292
     0
297
     0
 46
4.0
 94
-1056964608
 47
1.0
 49
1.0
140
1.0
293
     1
141
0.0
294
     1
177
     0
142
1.0
295
     0
296
     0
143
0.125
1001
ACAD_MLEADERVER
1070
     2
  0
MLINESTYLE
  5
53
102
{ACAD_REACTORS
330
3B
102
}
330
3B
100
AcDbMlineStyle
  2
STANDARD
 70
     0
  3

 62
   256
 51
90.0
 52
90.0
 71
     2
 49
0.5
 62
   256
  6
BYLAYER
 49
-0.5
 62
   256
  6
BYLAYER
  0
ACDBPLACEHOLDER
  5
8
102
{ACAD_REACTORS
330
9
102
}
330
9
  0
SCALE
  5
CA7
102
{ACAD_REACTORS
330
4E
102
}
330
4E
100
AcDbScale
 70
     0
300
1:5_XREF
140
1.0
141
5.0
290
     0
  0
SCALE
  5
57
102
{ACAD_REACTORS
330
4E
102
}
330
4E
100
AcDbScale
 70
     0
300
1:1
140
1.0
141
1.0
290
     1
  0
SCALE
  5
58
102
{ACAD_REACTORS
330
4E
102
}
330
4E
100
AcDbScale
 70
     0
300
1:2
140
1.0
141
2.0
290
     0
  0
SCALE
  5
59
102
{ACAD_REACTORS
330
4E
102
}
330
4E
100
AcDbScale
 70
     0
300
1:4
140
1.0
141
4.0
290
     0
  0
SCALE
  5
5A
102
{ACAD_REACTORS
330
4E
102
}
330
4E
100
AcDbScale
 70
     0
300
1:5
140
1.0
141
5.0
290
     0
  0
SCALE
  5
5B
102
{ACAD_REACTORS
330
4E
102
}
330
4E
100
AcDbScale
 70
     0
300
1:8
140
1.0
141
8.0
290
     0
  0
SCALE
  5
5C
102
{ACAD_REACTORS
330
4E
102
}
330
4E
100
AcDbScale
 70
     0
300
1:10
140
1.0
141
10.0
290
     0
  0
SCALE
  5
5D
102
{ACAD_REACTORS
330
4E
102
}
330
4E
100
AcDbScale
 70
     0
300
1:16
140
1.0
141
16.0
290
     0
  0
SCALE
  5
5E
102
{ACAD_REACTORS
330
4E
102
}
330
4E
100
AcDbScale
 70
     0
300
1:20
140
1.0
141
20.0
290
     0
  0
SCALE
  5
5F
102
{ACAD_REACTORS
330
4E
102
}
330
4E
100
AcDbScale
 70
     0
300
1:30
140
1.0
141
30.0
290
     0
  0
SCALE
  5
60
102
{ACAD_REACTORS
330
4E
102
}
330
4E
100
AcDbScale
 70
     0
300
1:40
140
1.0
141
40.0
290
     0
  0
SCALE
  5
61
102
{ACAD_REACTORS
330
4E
102
}
330
4E
100
AcDbScale
 70
     0
300
1:50
140
1.0
141
50.0
290
     0
  0
SCALE
  5
62
102
{ACAD_REACTORS
330
4E
102
}
330
4E
100
AcDbScale
 70
     0
300
1:100
140
1.0
141
100.0
290
     0
  0
SCALE
  5
63
102
{ACAD_REACTORS
330
4E
102
}
330
4E
100
AcDbScale
 70
     0
300
2:1
140
2.0
141
1.0
290
     0
  0
SCALE
  5
64
102
{ACAD_REACTORS
330
4E
102
}
330
4E
100
AcDbScale
 70
     0
300
4:1
140
4.0
141
1.0
290
     0
  0
SCALE
  5
65
102
{ACAD_REACTORS
330
4E
102
}
330
4E
100
AcDbScale
 70
     0
300
8:1
140
8.0
141
1.0
290
     0
  0
SCALE
  5
66
102
{ACAD_REACTORS
330
4E
102
}
330
4E
100
AcDbScale
 70
     0
300
10:1
140
10.0
141
1.0
290
     0
  0
SCALE
  5
67
102
{ACAD_REACTORS
330
4E
102
}
330
4E
100
AcDbScale
 70
     0
300
100:1
140
100.0
141
1.0
290
     0
  0
SCALE
  5
68
102
{ACAD_REACTORS
330
4E
102
}
330
4E
100
AcDbScale
 70
     0
300
1/128" = 1'-0"
140
0.0078125
141
12.0
290
     0
  0
SCALE
  5
69
102
{ACAD_REACTORS
330
4E
102
}
330
4E
100
AcDbScale
 70
     0
300
1/64" = 1'-0"
140
0.015625
141
12.0
290
     0
  0
SCALE
  5
6A
102
{ACAD_REACTORS
330
4E
102
}
330
4E
100
AcDbScale
 70
     0
300
1/32" = 1'-0"
140
0.03125
141
12.0
290
     0
  0
SCALE
  5
6B
102
{ACAD_REACTORS
330
4E
102
}
330
4E
100
AcDbScale
 70
     0
300
1/16" = 1'-0"
140
0.0625
141
12.0
290
     0
  0
SCALE
  5
6C
102
{ACAD_REACTORS
330
4E
102
}
330
4E
100
AcDbScale
 70
     0
300
3/32" = 1'-0"
140
0.09375
141
12.0
290
     0
  0
SCALE
  5
6D
102
{ACAD_REACTORS
330
4E
102
}
330
4E
100
AcDbScale
 70
     0
300
1/8" = 1'-0"
140
0.125
141
12.0
290
     0
  0
SCALE
  5
6E
102
{ACAD_REACTORS
330
4E
102
}
330
4E
100
AcDbScale
 70
     0
300
3/16" = 1'-0"
140
0.1875
141
12.0
290
     0
  0
SCALE
  5
6F
102
{ACAD_REACTORS
330
4E
102
}
330
4E
100
AcDbScale
 70
     0
300
1/4" = 1'-0"
140
0.25
141
12.0
290
     0
  0
SCALE
  5
70
102
{ACAD_REACTORS
330
4E
102
}
330
4E
100
AcDbScale
 70
     0
300
3/8" = 1'-0"
140
0.375
141
12.0
290
     0
  0
SCALE
  5
71
102
{ACAD_REACTORS
330
4E
102
}
330
4E
100
AcDbScale
 70
     0
300
1/2" = 1'-0"
140
0.5
141
12.0
290
     0
  0
SCALE
  5
72
102
{ACAD_REACTORS
330
4E
102
}
330
4E
100
AcDbScale
 70
     0
300
3/4" = 1'-0"
140
0.75
141
12.0
290
     0
  0
SCALE
  5
73
102
{ACAD_REACTORS
330
4E
102
}
330
4E
100
AcDbScale
 70
     0
300
1" = 1'-0"
140
1.0
141
12.0
290
     0
  0
SCALE
  5
74
102
{ACAD_REACTORS
330
4E
102
}
330
4E
100
AcDbScale
 70
     0
300
1-1/2" = 1'-0"
140
1.5
141
12.0
290
     0
  0
SCALE
  5
75
102
{ACAD_REACTORS
330
4E
102
}
330
4E
100
AcDbScale
 70
     0
300
3" = 1'-0"
140
3.0
141
12.0
290
     0
  0
SCALE
  5
76
102
{ACAD_REACTORS
330
4E
102
}
330
4E
100
AcDbScale
 70
     0
300
6" = 1'-0"
140
6.0
141
12.0
290
     0
  0
SCALE
  5
77
102
{ACAD_REACTORS
330
4E
102
}
330
4E
100
AcDbScale
 70
     0
300
1'-0" = 1'-0"
140
12.0
141
12.0
290
     0
  0
TABLESTYLE
  5
54
102
{ACAD_XDICTIONARY
360
B00
102
}
102
{ACAD_REACTORS
330
4F
102
}
330
4F
100
AcDbTableStyle
  3
Standard
 70
     0
 71
     0
 40
1.5
 41
1.5
280
     0
281
     0
  7
STANDARD
140
4.5
170
     2
 62
     0
 63
     7
283
     0
274
    -2
284
     1
 64
     0
275
    -2
285
     1
 65
     0
276
    -2
286
     1
 66
     0
277
    -2
287
     1
 67
     0
278
    -2
288
     1
 68
     0
279
    -2
289
     1
 69
     0
  7
STANDARD
140
6.0
170
     5
 62
     0
 63
     7
283
     0
274
    -2
284
     1
 64
     0
275
    -2
285
     1
 65
     0
276
    -2
286
     1
 66
     0
277
    -2
287
     1
 67
     0
278
    -2
288
     1
 68
     0
279
    -2
289
     1
 69
     0
  7
STANDARD
140
4.5
170
     5
 62
     0
 63
     7
283
     0
274
    -2
284
     1
 64
     0
275
    -2
285
     1
 65
     0
276
    -2
286
     1
 66
     0
277
    -2
287
     1
 67
     0
278
    -2
288
     1
 68
     0
279
    -2
289
     1
 69
     0
  0
VISUALSTYLE
  5
B0D
102
{ACAD_REACTORS
330
2D
102
}
330
2D
100
AcDbVisualStyle
  2
2dWireframe
 70
     4
 71
     0
 72
     2
 73
     0
 90
        0
 40
-0.6
 41
-30.0
 62
     5
 63
     7
 74
     1
 91
        4
 64
     7
 65
   257
 75
     1
175
     1
 42
1.0
 92
        0
 66
   257
 43
1.0
 76
     1
 77
     6
 78
     2
 67
     7
 79
     5
170
     0
171
     0
290
     0
174
     0
 93
        1
 44
0.0
173
     0
291
     0
 45
0.0
1001
ACAD
1000
AcDbSavedByObjectVersion
1070
     0
1000
AcDbSavedByObjectVersion
1070
     0
  0
VISUALSTYLE
  5
B0E
102
{ACAD_REACTORS
330
2D
102
}
330
2D
100
AcDbVisualStyle
  2
3D Hidden
 70
     6
 71
     1
 72
     2
 73
     2
 90
        0
 40
-0.6
 41
-30.0
 62
     5
 63
     7
 74
     2
 91
        2
 64
     7
 65
   257
 75
     2
175
     1
 42
40.0
 92
        0
 66
   257
 43
1.0
 76
     1
 77
     6
 78
     2
 67
     7
 79
     3
170
     0
171
     0
290
     0
174
     0
 93
        1
 44
0.0
173
     0
291
     0
 45
0.0
1001
ACAD
1000
AcDbSavedByObjectVersion
1070
     0
1000
AcDbSavedByObjectVersion
1070
     0
  0
VISUALSTYLE
  5
56
102
{ACAD_REACTORS
330
2D
102
}
330
2D
100
AcDbVisualStyle
  2
3dWireframe
 70
     5
 71
     0
 72
     2
 73
     0
 90
        0
 40
-0.6
 41
-30.0
 62
     5
 63
     7
 74
     1
 91
        4
 64
     7
 65
   257
 75
     1
175
     1
 42
1.0
 92
        0
 66
   257
 43
1.0
 76
     1
 77
     6
 78
     2
 67
     7
 79
     5
170
     0
171
     0
290
     0
174
     0
 93
        1
 44
0.0
173
     0
291
     0
 45
0.0
1001
ACAD
1000
AcDbSavedByObjectVersion
1070
     0
1000
AcDbSavedByObjectVersion
1070
     0
  0
VISUALSTYLE
  5
B0C
102
{ACAD_REACTORS
330
2D
102
}
330
2D
100
AcDbVisualStyle
  2
Basic
 70
     7
 71
     1
 72
     0
 73
     1
 90
        0
 40
-0.6
 41
-30.0
 62
     5
 63
     7
 74
     0
 91
        4
 64
     7
 65
   257
 75
     1
175
     1
 42
1.0
 92
        8
 66
     7
 43
1.0
 76
     1
 77
     6
 78
     2
 67
     7
 79
     5
170
     0
171
     0
290
     0
174
     0
 93
        1
 44
0.0
173
     0
291
     1
 45
0.0
1001
ACAD
1000
AcDbSavedByObjectVersion
1070
     0
1000
AcDbSavedByObjectVersion
1070
     0
  0
VISUALSTYLE
  5
B11
102
{ACAD_REACTORS
330
2D
102
}
330
2D
100
AcDbVisualStyle
  2
Brighten
 70
    12
 71
     2
 72
     2
 73
     0
 90
        0
 40
-0.6
 41
-30.0
 62
     5
 63
     7
 74
     1
 91
        4
 64
     7
 65
   257
 75
     1
175
     1
 42
1.0
 92
        8
 66
     7
 43
1.0
 76
     1
 77
     6
 78
     2
 67
     7
 79
     5
170
     0
171
     0
290
     0
174
     0
 93
        1
 44
50.0
173
     0
291
     1
 45
0.0
1001
ACAD
1000
AcDbSavedByObjectVersion
1070
     0
1000
AcDbSavedByObjectVersion
1070
     0
  0
VISUALSTYLE
  5
B15
102
{ACAD_REACTORS
330
2D
102
}
330
2D
100
AcDbVisualStyle
  2
ColorChange
 70
    16
 71
     2
 72
     2
 73
     3
 90
        0
 40
-0.6
 41
-30.0
 62
     5
 63
     8
 74
     1
 91
        4
 64
     7
 65
   257
 75
     1
175
     1
 42
1.0
 92
        8
 66
     8
 43
1.0
 76
     1
 77
     6
 78
     2
 67
     7
 79
     5
170
     0
171
     0
290
     0
174
     0
 93
        1
 44
0.0
173
     0
291
     1
 45
0.0
1001
ACAD
1000
AcDbSavedByObjectVersion
1070
     0
1000
AcDbSavedByObjectVersion
1070
     0
  0
VISUALSTYLE
  5
B0F
102
{ACAD_REACTORS
330
2D
102
}
330
2D
100
AcDbVisualStyle
  2
Conceptual
 70
     9
 71
     3
 72
     2
 73
     0
 90
        0
 40
-0.6
 41
-30.0
 62
     5
 63
     7
 74
     2
 91
        2
 64
     7
 65
   257
 75
     1
175
     1
 42
40.0
 92
        8
 66
     7
 43
1.0
 76
     1
 77
     6
 78
     2
 67
     7
 79
     3
170
     0
171
     0
290
     0
174
     0
 93
        1
 44
0.0
173
     0
291
     0
 45
0.0
1001
ACAD
1000
AcDbSavedByObjectVersion
1070
     0
1000
AcDbSavedByObjectVersion
1070
     0
  0
VISUALSTYLE
  5
B10
102
{ACAD_REACTORS
330
2D
102
}
330
2D
100
AcDbVisualStyle
  2
Dim
 70
    11
 71
     2
 72
     2
 73
     0
 90
        0
 40
-0.6
 41
-30.0
 62
     5
 63
     7
 74
     1
 91
        4
 64
     7
 65
   257
 75
     1
175
     1
 42
1.0
 92
        8
 66
     7
 43
1.0
 76
     1
 77
     6
 78
     2
 67
     7
 79
     5
170
     0
171
     0
290
     0
174
     0
 93
        1
 44
-50.0
173
     0
291
     1
 45
0.0
1001
ACAD
1000
AcDbSavedByObjectVersion
1070
     0
1000
AcDbSavedByObjectVersion
1070
     0
  0
VISUALSTYLE
  5
B14
102
{ACAD_REACTORS
330
2D
102
}
330
2D
100
AcDbVisualStyle
  2
Facepattern
 70
    15
 71
     2
 72
     2
 73
     0
 90
        0
 40
-0.6
 41
-30.0
 62
     5
 63
     7
 74
     1
 91
        4
 64
     7
 65
   257
 75
     1
175
     1
 42
1.0
 92
        8
 66
     7
 43
1.0
 76
     1
 77
     6
 78
     2
 67
     7
 79
     5
170
     0
171
     0
290
     0
174
     0
 93
        1
 44
0.0
173
     0
291
     1
 45
0.0
1001
ACAD
1000
AcDbSavedByObjectVersion
1070
     0
1000
AcDbSavedByObjectVersion
1070
     0
  0
VISUALSTYLE
  5
B09
102
{ACAD_REACTORS
330
2D
102
}
330
2D
100
AcDbVisualStyle
  2
Flat
 70
     0
 71
     2
 72
     1
 73
     1
 90
        2
 40
-0.6
 41
30.0
 62
     5
 63
     7
 74
     0
 91
        4
 64
     7
 65
   257
 75
     1
175
     1
 42
1.0
 92
        8
 66
     7
 43
1.0
 76
     1
 77
     6
 78
     2
 67
     7
 79
     5
170
     0
171
     0
290
     0
174
     0
 93
       13
 44
0.0
173
     0
291
     1
 45
0.0
1001
ACAD
1000
AcDbSavedByObjectVersion
1070
     0
1000
AcDbSavedByObjectVersion
1070
     0
  0
VISUALSTYLE
  5
B0A
102
{ACAD_REACTORS
330
2D
102
}
330
2D
100
AcDbVisualStyle
  2
FlatWithEdges
 70
     1
 71
     2
 72
     1
 73
     1
 90
        2
 40
-0.6
 41
30.0
 62
     5
 63
     7
 74
     1
 91
        4
 64
     7
 65
   257
 75
     1
175
     1
 42
1.0
 92
        0
 66
   257
 43
1.0
 76
     1
 77
     6
 78
     2
 67
     7
 79
     5
170
     0
171
     0
290
     0
174
     0
 93
       13
 44
0.0
173
     0
291
     1
 45
0.0
1001
ACAD
1000
AcDbSavedByObjectVersion
1070
     0
1000
AcDbSavedByObjectVersion
1070
     0
  0
VISUALSTYLE
  5
2C
102
{ACAD_REACTORS
330
2D
102
}
330
2D
100
AcDbVisualStyle
  2
Gouraud
 70
     2
 71
     2
 72
     2
 73
     1
 90
        2
 40
-0.6
 41
30.0
 62
     5
 63
     7
 74
     0
 91
        4
 64
     7
 65
   257
 75
     1
175
     1
 42
1.0
 92
        0
 66
     7
 43
1.0
 76
     1
 77
     6
 78
     2
 67
     7
 79
     5
170
     0
171
     0
290
     0
174
     0
 93
       13
 44
0.0
173
     0
291
     1
 45
0.0
1001
ACAD
1000
AcDbSavedByObjectVersion
1070
     0
1000
AcDbSavedByObjectVersion
1070
     0
  0
VISUALSTYLE
  5
B0B
102
{ACAD_REACTORS
330
2D
102
}
330
2D
100
AcDbVisualStyle
  2
GouraudWithEdges
 70
     3
 71
     2
 72
     2
 73
     1
 90
        2
 40
-0.6
 41
30.0
 62
     5
 63
     7
 74
     1
 91
        4
 64
     7
 65
   257
 75
     1
175
     1
 42
1.0
 92
        0
 66
   257
 43
1.0
 76
     1
 77
     6
 78
     2
 67
     7
 79
     5
170
     0
171
     0
290
     0
174
     0
 93
       13
 44
0.0
173
     0
291
     1
 45
0.0
1001
ACAD
1000
AcDbSavedByObjectVersion
1070
     0
1000
AcDbSavedByObjectVersion
1070
     0
  0
VISUALSTYLE
  5
B13
102
{ACAD_REACTORS
330
2D
102
}
330
2D
100
AcDbVisualStyle
  2
Linepattern
 70
    14
 71
     2
 72
     2
 73
     0
 90
        0
 40
-0.6
 41
-30.0
 62
     5
 63
     7
 74
     1
 91
        4
 64
     7
 65
   257
 75
     7
175
     7
 42
1.0
 92
        8
 66
     7
 43
1.0
 76
     1
 77
     6
 78
     2
 67
     7
 79
     5
170
     0
171
     0
290
     0
174
     0
 93
        1
 44
0.0
173
     0
291
     1
 45
0.0
1001
ACAD
1000
AcDbSavedByObjectVersion
1070
     0
1000
AcDbSavedByObjectVersion
1070
     0
  0
VISUALSTYLE
  5
55
102
{ACAD_REACTORS
330
2D
102
}
330
2D
100
AcDbVisualStyle
  2
Realistic
 70
     8
 71
     2
 72
     2
 73
     0
 90
        0
 40
-0.6
 41
-30.0
 62
     5
 63
     7
 74
     1
 91
        0
 64
     7
 65
   257
 75
     1
175
     1
 42
1.0
 92
        8
 66
     8
 43
1.0
 76
     1
 77
     6
 78
     2
 67
     7
 79
     5
170
     0
171
     0
290
     0
174
     0
 93
       13
 44
0.0
173
     0
291
     0
 45
0.0
1001
ACAD
1000
AcDbSavedByObjectVersion
1070
     0
1000
AcDbSavedByObjectVersion
1070
     0
  0
VISUALSTYLE
  5
B12
102
{ACAD_REACTORS
330
2D
102
}
330
2D
100
AcDbVisualStyle
  2
Thicken
 70
    13
 71
     2
 72
     2
 73
     0
 90
        0
 40
-0.6
 41
-30.0
 62
     5
 63
     7
 74
     1
 91
        4
 64
     7
 65
   257
 75
     1
175
     1
 42
1.0
 92
       12
 66
     7
 43
1.0
 76
     1
 77
     6
 78
     2
 67
     7
 79
     5
170
     0
171
     0
290
     0
174
     0
 93
        1
 44
0.0
173
     0
291
     1
 45
0.0
1001
ACAD
1000
AcDbSavedByObjectVersion
1070
     0
1000
AcDbSavedByObjectVersion
1070
     0
  0
DICTIONARYVAR
  5
B06
102
{ACAD_REACTORS
330
B03
102
}
330
B03
100
DictionaryVariables
280
     0
  1
1:1
  0
DICTIONARYVAR
  5
B05
102
{ACAD_REACTORS
330
B03
102
}
330
B03
100
DictionaryVariables
280
     0
  1
STANDARD
  0
DICTIONARYVAR
  5
B04
102
{ACAD_REACTORS
330
B03
102
}
330
B03
100
DictionaryVariables
280
     0
  1
STANDARD
  0
DICTIONARYVAR
  5
B7B
102
{ACAD_REACTORS
330
B03
102
}
330
B03
100
DictionaryVariables
280
     0
  1
1
  0
DICTIONARYVAR
  5
B7A
102
{ACAD_REACTORS
330
B03
102
}
330
B03
100
DictionaryVariables
280
     0
  1
1
  0
DICTIONARYVAR
  5
B79
102
{ACAD_REACTORS
330
B03
102
}
330
B03
100
DictionaryVariables
280
     0
  1
0
  0
DICTIONARYVAR
  5
B07
102
{ACAD_REACTORS
330
B03
102
}
330
B03
100
DictionaryVariables
280
     0
  1
0
  0
DICTIONARYVAR
  5
B77
102
{ACAD_REACTORS
330
B03
102
}
330
B03
100
DictionaryVariables
280
     0
  1
1
  0
DICTIONARYVAR
  5
B78
102
{ACAD_REACTORS
330
B03
102
}
330
B03
100
DictionaryVariables
280
     0
  1
127
  0
ACAD_PROXY_OBJECT
  5
AFD
102
{ACAD_REACTORS
330
AFC
102
}
330
AFC
100
AcDbProxyObject
 90
      499
 91
      558
 95
  1638427
 70
     0
 93
      167
310
4050100057356C1D9F51EAA40CA8010400C400E802
350
AFE
 94
        0
1001
ACAD
1000
AcRTDxfName
1000
ACMDATADICTIONARY
1000
AcRTDxfName
1000
ACMDATADICTIONARY
1000
AcRTDxfName
1000
ACMDATADICTIONARY
  0
DICTIONARY
  5
1242
330
16
100
AcDbDictionary
280
     1
281
     1
  3
ACAD_XREC_ROUNDTRIP
360
1243
  0
DICTIONARY
  5
1C
330
1B
100
AcDbDictionary
280
     1
281
     1
  3
ACAD_XREC_ROUNDTRIP
360
1244
  3
ADSK_XREC_LAYOUTTHUMBNAIL
360
1D
  0
DICTIONARY
  5
46
330
45
100
AcDbDictionary
280
     1
281
     1
  3
ACAD_XREC_ROUNDTRIP
360
B71
  3
BUMPTILE
360
47
  3
DIFFUSETILE
360
48
  3
OPACITYTILE
360
49
  3
REFLECTIONTILE
360
4A
  3
REFRACTIONTILE
360
4B
  3
SPECULARTILE
360
4C
  0
DICTIONARY
  5
3E
330
3D
100
AcDbDictionary
280
     1
281
     1
  3
ACAD_XREC_ROUNDTRIP
360
B70
  3
BUMPTILE
360
3F
  3
DIFFUSETILE
360
40
  3
OPACITYTILE
360
41
  3
REFLECTIONTILE
360
42
  3
REFRACTIONTILE
360
43
  3
SPECULARTILE
360
44
  0
DICTIONARY
  5
D
330
B
100
AcDbDictionary
280
     1
281
     1
  3
ACAD_XREC_ROUNDTRIP
360
B69
  3
BUMPTILE
360
E
  3
DIFFUSETILE
360
F
  3
OPACITYTILE
360
10
  3
REFLECTIONTILE
360
11
  3
REFRACTIONTILE
360
12
  3
SPECULARTILE
360
13
  0
DICTIONARY
  5
B00
330
54
100
AcDbDictionary
280
     1
281
     1
  3
ACAD_ROUNDTRIP_2008_TABLESTYLE_CELLSTYLEMAP
360
123C
  3
ACAD_XREC_ROUNDTRIP
360
1245
  0
ACAD_PROXY_OBJECT
  5
AFE
102
{ACAD_REACTORS
330
AFD
102
}
330
AFD
100
AcDbProxyObject
 90
      499
 91
      559
 95
  1638427
 70
     0
 93
      358
310
057356C1D9F406406AA8FFFFFFFF067D010040485A0802380188029801680258025801B801A802A0022005D004
330
2
330
0
330
0
 94
        0
1001
ACAD
1000
AcRTDxfName
1000
ACMDATAENTRYBLOCK
1000
AcRTDxfName
1000
ACMDATAENTRYBLOCK
1000
AcRTDxfName
1000
ACMDATAENTRYBLOCK
  0
XRECORD
  5
1243
102
{ACAD_REACTORS
330
1242
102
}
330
1242
100
AcDbXrecord
280
     1
102
SHADEPLOT
 70
     0
102
SHADEPLOTRESLEVEL
 70
     2
102
SHADEPLOTCUSTOMDPI
 70
   300
  0
XRECORD
  5
1244
102
{ACAD_REACTORS
330
1C
102
}
330
1C
100
AcDbXrecord
280
     1
102
SHADEPLOT
 70
     0
102
SHADEPLOTRESLEVEL
 70
     2
102
SHADEPLOTCUSTOMDPI
 70
   300
  0
XRECORD
  5
1D
102
{ACAD_REACTORS
330
1C
102
}
330
1C
100
AcDbXrecord
280
     1
310
28000000B4000000870000000100080000000000EC5E0000000000000000000000010000000000000000000000000000FFFFFF000000000000000000000000000000000000000000000000000000000000000000330000006600000099000000CC000000FF00000000330000333300006633000099330000CC330000FF3300
310
0000660000336600006666000099660000CC660000FF66000000990000339900006699000099990000CC990000FF99000000CC000033CC000066CC000099CC0000CCCC0000FFCC000000FF000033FF000066FF000099FF0000CCFF0000FFFF000000003300330033006600330099003300CC003300FF003300003333003333
310
33006633330099333300CC333300FF33330000663300336633006666330099663300CC663300FF66330000993300339933006699330099993300CC993300FF99330000CC330033CC330066CC330099CC3300CCCC3300FFCC330000FF330033FF330066FF330099FF3300CCFF3300FFFF330000006600330066006600660099
310
006600CC006600FF00660000336600333366006633660099336600CC336600FF33660000666600336666006666660099666600CC666600FF66660000996600339966006699660099996600CC996600FF99660000CC660033CC660066CC660099CC6600CCCC6600FFCC660000FF660033FF660066FF660099FF6600CCFF6600
310
FFFF660000009900330099006600990099009900CC009900FF00990000339900333399006633990099339900CC339900FF33990000669900336699006666990099669900CC669900FF66990000999900339999006699990099999900CC999900FF99990000CC990033CC990066CC990099CC9900CCCC9900FFCC990000FF99
310
0033FF990066FF990099FF9900CCFF9900FFFF99000000CC003300CC006600CC009900CC00CC00CC00FF00CC000033CC003333CC006633CC009933CC00CC33CC00FF33CC000066CC003366CC006666CC009966CC00CC66CC00FF66CC000099CC003399CC006699CC009999CC00CC99CC00FF99CC0000CCCC0033CCCC0066CC
310
CC0099CCCC00CCCCCC00FFCCCC0000FFCC0033FFCC0066FFCC0099FFCC00CCFFCC00FFFFCC000000FF003300FF006600FF009900FF00CC00FF00FF00FF000033FF003333FF006633FF009933FF00CC33FF00FF33FF000066FF003366FF006666FF009966FF00CC66FF00FF66FF000099FF003399FF006699FF009999FF00CC
310
99FF00FF99FF0000CCFF0033CCFF0066CCFF0099CCFF00CCCCFF00FFCCFF0000FFFF0033FFFF0066FFFF0099FFFF00CCFFFF00FFFFFF00000000000D0D0D001A1A1A00282828003535350043434300505050005D5D5D006B6B6B00787878008686860093939300A1A1A100AEAEAE00BBBBBB00C9C9C900D6D6D600E4E4E400
310
F1F1F100FFFFFF0000000000000000000000000000000000000000000000000000000000000000000000000000000000E2E2E2E2E2E2E2E2E2E2E2E2E2E2E2E2E2E2E2E2E2E2E2E2E2E2E2E2E2E2E2E2E2E2E2E2E2E2E2E2E2E2E2E2E2E2E2E2E2E2E2E2E2E2E2E2E2E2E2E2E2E2E2E2E2E2E2E2E2E2E2E2E2E2E2E2E2E2E2
310
E2E2E2E2E2E2E2E2E2E2E2E2E2E2E2E2E2E2E2E2E2E2E2E2E2E2E2E2E2E2E2E2E2E2E2E2E2E2E2E2E2E2E2E2E2E2E2E2E2E2E2E2E2E2E2E2E2E2E2E2E2E2E2E2E2E2E2E2E2E2E2E2E2E2E2E2E2E2E2E2E2E2E2E2E2E2E2E2E2E2E2E2E2E2E2E2E2E2E2E2E2E2E2E2E2E2E2E2E2E2E2E2E2E2E2E2E2E2E2E2E2E2E2E2E2E2E2
310
E2E2E2E2E2E2E2E2E2E2E2E2E2E2E2E2E2E2E2E2E2E2E2E2E2E2E2E2E2E2E2E2E2E2E2E2E2E2E2E2E2E2E2E2E2E2E2E2E2E2E2E2E2E2E2E2E2E2E2E2E2E2E2E2E2E2E2E2E2E2E2E2E2E2E2E2E2E2E2E2E2E2E2E2E2E2E2E2E2E2E2E2E2E2E2E2E2E2E2E2E2E2E2E2E2E2E2E2E2E2E2E2E2E2E2E2E2E2E2E2E2E2E2E2E2E2E2
310
E2E2E2E2E2E2E2E2E2E2E2E2E2E2E2E2E2E2E2E2E2E2E2E2E2E2E2E2E2E2E2E2E2E2E2E2E2E2E2E2E2E2E2E2E2E2E2E2E2E2E2E2E2E2E2E2E2E2E2E2E2E2E2E2E2E2E2E2E2E2E2E2E2E2E2E2E2E2E2E2E2E2E2E2E2E2E2E2E2E2E2E2E2E2E2E2E2E2E2E2E2E2E2E2E2E2E2E2E2E2E2E2E2E2E2E2E2E2E2E2E2E2E2E2E2E2E2
310
E2E2E2E2E2E2E2E2E2E2E2E2E2E2E2E2E2E2E2E2E2E2E2E2E2E2E2E2E2E2E2E2E2E2E2E2E2E2E2E2E2E2E2E2E2E2E2E2E2E2E2E2E2E2E2E2E2E2E2E2E2E2E2E2E2E2E2E2E2E2E2E2E2E2E2E2E2E2E2E2E2E2E2E2E2E2E2E2E2E2E2E2E2E2E2E2E2E2E2E2E2E2E2E2E2E2E2E2E2E2E2E2E2E2E2E2E2E2E2E2E2E2E2E2E2E2E2
310
E2E2E2E2E2E2E2E2E2E2E2E2E2E2E2E2E2E2E2E2E2E2E2E2E2E2E2E2E2E2E2E2E2E2E2E2E2E2E2E2E2E2E2E2E2E2E2E2E2E2E2E2E2E2E2E2E2E2E2E2E2E2E2E2E2E2E2E2E2E2E2E2E2E2E2E2E2E2E2E2E2E2E2E2E2E2E2E2E2E2E2E2E2E2E2E2E2E2E2E2E2E2E2E2E2E2E2E2E2E2E2E2E2E2E2E2E2E2E2E2E2E2E2E2E2E2E2
310
E2E2E2E2E2E2E2E2E2E2E2E2E2E2E2E2E2E2E2E2E2E2E2E2E2E2E2E2E2E2E2E2E2E2E2E2E2E2E2E2E2E2E2E2E2E2E2E2E2E2E2E2E2E2E2E2E2E2E2E2E2E2E2E2E2E2E2E2E2E2E2E2E2E2E2E2E2E2E2E2E2E2E2E2E2E2E2E2E2E2E2E2E2E2E2E2E2E2E2E2E2E2E2E2E2E2E2E2E2E2E2E2E2E2E2E2E2E2E2E2E2E2E2E2E2E2E2
310
E2E2E2E2E2E2E2E2E2E2E2E2E2E2E2E2E2E2E2E2E2E2E2E2E2E2E2E2E2E2E2E2E2E2E2E2E2E2E2E2E2E2E2E2E2E2E2E2E2E2E2E2E2E2E2E2E2E2E2E2E2E2E2E2E2E2E2E2E2E2E2E2E2E2E2E2E2E2E2E2E2E2E2E2E2E2E2E2E2E2E2E2E2E2E2E2E2E2E2E2E2E2E2E2E2E2E2E2E2E2E2E2E2E2E2E2E2E2E2E2E2E2E2E2E2E2E2
310
E2E2E2E2E2E2E2E2E2E2E2E2E2E2E2E2E2E2E2E2E2E2E2E2E2E2E2E2E2E2E2E2E2E2E2E2E2E2E2E2E2E2E2E2E2E2E2E2E2E2E2E2E2E2E2E2E2E2E2E2E2E2E2E2E2E2E2E2E2E2E2E2E2E2E2E2E2E2E2E2E2E2E2E2E2E2E2E2E2E2E2E2E2E2E2E2E2E2E2E2E2E2E2E2E2E2E2E2E2E2E2E2E2E2E2E2E2E2E2E2E2E2E2E2E2E2E2
310
E2E2E2E2E2E2E2E2E2E2E2E2E2E2E2E2E2E2E2E2E2E2E2E2E2E2E2E2E2E2E2E2E2E2E2E2E2E2E2E2E2E2E2E2E2E2E2E2E2E2E2E2E2E2E2E2E2E2E2E2E2E2E2E2E2E2E2E2E2E2E2E2E2E2E2E2E2E2E2E2E2E2E2E2E2E2E2E2E2E2E2E2E2E2E2E2E2E2E2E2E2E2E2E2E2E2E2E2E2E2E2E2E2E2E2E2E2E2E2E2E2E2E2E2E2E2E2
310
E2E2E2E2E2E2E2E2E2E2E2E2E2E2E2E2E2E2E2E2E2E2E2E2E2E2E2E2E2E2E2E2E2E2E2E2E2E2E2E2E2E2E2E2E2E2E2E2E2E2E2E2E2E2E2E2E2E2E2E2E2E2E2E2E2E2E2E2E2E2E2E2E2E2E2E2E2E2E2E2E2E2E2E2E2E2E2E2E2E2E2E2E2E2E2E2E2E2E2E2E2E2E2E2E2E2E2E2E2E2E2E2E2E2E2E2E2E2E2E2E2E2E2E2E2E2E2
310
E2E2E2E2E2E2E2E2E2E2E2E2E2E2E2E2E2E2E2E2E2E2E2E2E2E2E2E2E2E2E2E2E2E2E2E2E2E2E2E2E2E2E2E2E2E2E2E2E2E2E2E2E2E2E2E2E2E2E2E2E2E2E2E2E2E2E2E2E2E2E2E2E2E2E2E2E2E2E2E2E2E2E2E2E2E2E2E2E2E2E2E2E2E2E2E2E2E2E2E2E2E2E2E2E2E2E2E2E2E2E2E2E2E2E2E2E2E2E2E2E2E2E2E2E2E2E2
310
E2E2E2E2E2E2E2E2E2E2E2E2E2E2E2E2E2E2E2E2E2E2E2E2E2E2E2E2E2E2E2E2E2E2E2E2E2E2E2E2E2E2E2E2E2E2E2E2E2E2E2E2E2E2E2E2E2E2E2E2E2E2E2E2E2E2E2E2E2E2E2E2E2E2E2E2E2E2E2E2E2E2E2E2E2E2E2E2E2E2E2E2E2E2E2E2E2E2E2E2E2E2E2E2E2E2E2E2E2E2E2E2E2E2E2E2E2E2E2E2E2E2E2E2E2E2E2
310
E2E2E2E2E2E2E2E2E2E2E2E2E2E2E2E2E2E2E2E2E2E2E2E2E2E2E2E2E2E2E2E2E2E2E2E2E2E2E2E2E2E2E2E2E2E2E2E2E2E2E2E2E2E2E2E2E2E2E2E2E2E2E2E2E2E2E2E2E2E2E2E2E2E2E2E2E2E2E2E2E2E2E2E2E2E2E2E2E2E2E2E2E2E2E2E2E2E2E2E2E2E2E2E2E2E2E2E2E2E2E2E2E2E2E2E2E2E2E2E2E2E2E2E2E2E2E2
310
E2E2E2E2E2E2E2E2E2E2E2E2E2E2E2E2E2E2E2E2E2E2E2E2E2E2E2E2E2E2E2E2E2E2E2E2E2E2E2E2E2E2E2E2E2E2E2E2E2E2E2E2E2E2E2E2E2E2E2E2E2E2E2E2E2E2E2E2E2E2E2E2E2E2E2E2E2E2E2E2E2E2E2E2E2E2E2E2E2E2E2E2E2E2E2E2E2E2E2E2E2E2E2E2E2E2E2E2E2E2E2E2E2E2E2E2E2E2E2E2E2E2E2E2E2E2E2
310
E2E2E2E2E2E2E2E2E2E2E2E2E2E2E2E2E2E2E2E2E2E2E2E2E2E2E2E2E2E2E2E2E2E2E2E2E2E2E2E2E2E2E2E2E2E2E2E2E2E2E2E2E2E2E2E2E2E2E2E2E2E2E2E2E2E2E2E2E2E2E2E2E2E2E2E2E2E2E2E2E2E2E2E2E2E2E2E2E2E2E2E2E2E2E2E2E2E2E2E2E2E2E2E2E2E2E2E2E2E2E2E2E2E2E2E2E2E2E2E2E2E2E2E2E2E2E2
310
E2E2E2E2E2E2E2E2E2E2E2E2E2E2E2E2E2E2E2E2E2E2E2E2E2E2E2E2E2E2E2E2E2E2E2E2E2E2E2E2E2E2E2E2E2E2E2E2E2E2E2E2E2E2E2E2E2E2E2E2E2E2E2E2E2E2E2E2E2E2E2E2E2E2E2E2E2E2E2E2E2E2E2E2E2E2E2E2E2E2E2E2E2E2E2E2E2E2E2E2E2E2E2E2E2E2E2E2E2E2E2E2E2E2E2E2E2E2E2E2E2E2E2E2E2E2E2
310
E2E2E2E2E2E2E2E2E2E2E2E2E2E2E2E2E2E2E2E2E2E2E2E2E2E2E2E2E2E2E2E2E2E2E2E2E2E2E2E2E2E2E2E2E2E2E2E2E2E2E2E2E2E2E2E2E2E2E2E2E2E2E2E2E2E2E2E2E2E2E2E2E2E2E2E2E2E2E2E2E2E2E2E2E2E2E2E2E2E2E2E2E2E2E2E2E2E2E2E2E2E2E2E2E2E2E2E2E2E2E2E2E2E2E2E2E2E2E2E2E2E2E2E2E2E2E2
310
E2E2E2E2E2E2E2E2E2E2E2E2E2E2E2E2E2E2E2E2E2E2E2E2E2E2E2E2E2E2E2E2E2E2E2E2E2E2E2E2E2E2E2E2E2E2E2E2E2E2E2E2E2E2E2E2E2E2E2E2E2E2E2E2E2E2E2E2E2E2E2E2E2E2E2E2E2E2E2E2E2E2E2E2E2E2E2E2E2E2E2E2E2E2E2E2E2E2E2E2E2E2E2E2E2E2E2E2E2E2E2E2E2E2E2E2E2E2E2E2E2E2E2E2E2E2E2
310
E2E2E2E2E2E2E2E2E2E2E2E2E2E2E2E2E2E2E2E2E2E2E2E2E2E2E2E2E2E2E2E2E2E2E2E2E2E2E2E2E2E2E2E2E2E2E2E2E2E2E2E2E2E2E2E2E2E2E2E2E2E2E2E2E2E2E2E2E2E2E2E2E2E2E2E2E2E2E2E2E2E2E2E2E2E2E2E2E2E2E2E2E2E2E2E2E2E2E2E2E2E2E2E2E2E2E2E2E2E2E2E2E2E2E2E2E2E2E2E2E2E2E2E2E2E2E2
310
E2E2E2E2E2E2E2E2E2E2E2E2E2E2E2E2E2E2E2E2E2E2E2E2E2E2E2E2E2E2E2E2E2E2E2E2E2E2E2E2E2E2E2E2E2E2E2E2E2E2E2E2E2E2E2E2E2E2E2E2E2E2E2E2E2E2E2E2E2E2E2E2E2E2E2E2E2E2E2E2E2E2E2E2E2E2E2E2E2E2E2E2E2E2E2E2E2E2E2E2E2E2E2E2E2E2E2E2E2E2E2E2E2E2E2E2E2E2E2E2E2E2E2E2E2E2E2
310
E2E2E2E2E2E2E2E2E2E2E2E2E2E2E2E2E2E2E2E2E2E2E2E2E2E2E2E2E2E2E2E2E2E2E2E2E2E2E2E2E2E2E2E2E2E2E2E2E2E2E2E2E2E2E2E2E2E2E2E2E2E2E2E2E2E2E2E2E2E2E2E2E2E2E2E2E2E2E2E2E2E2E2E2E2E2E2E2E2E2E2E2E2E2E2E2E2E2E2E2E2E2E2E2E2E2E2E2E2E2E2E2E2E2E2E2E2E2E2E2E2E2E2E2E2E2E2
310
E2E2E2E2E2E2E2E2E2E2E2E2E2E2E2E2E2E2E2E2E2E2E2E2E2E2E2E2E2E2E2E2E2E2E2E2E2E2E2E2E2E2E2E2E2E2E2E2E2E2E2E2E2E2E2E2E2E2E2E2E2E2E2E2E2E2E2E2E2E2E2E2E2E2E2E2E2E2E2E2E2E2E2E2E2E2E2E2E2E2E2E2E2E2E2E2E2E2E2E2E2E2E2E2E2E2E2E2E2E2E2E2E2E2E2E2E2E2E2E2E2E2E2E2E2E2E2
310
E2E2E2E2E2E2E2E2E2E2E2E2E2E2E2E2E2E2E2E2E2E2E2E2E2E2E2E2E2E2E2E2E2E2E2E2E2E2E2E2E2E2E2E2E2E2E2E2E2E2E2E2E2E2E2E2E2E2E2E2E2E2E2E2E2E2E2E2E2E2E2E2E2E2E2E2E2E2E2E2E2E2E2E2E2E2E2E2E2E2E2E2E2E2E2E2E2E2E2E2E2E2E2E2E2E2E2E2E2E2E2E2E2E2E2E2E2E2E2E2E2E2E2E2E2E2E2
310
E2E2E2E2E2E2E2E2E2E2E2E2E2E2E2E2E2E2E2E2E2E2E2E2E2E2E2E2E2E2E2E2E2E2E2E2E2E2E2E2E2E2E2E2E2E2E2E2E2E2E2E2E2E2E2E2E2E2E2E2E2E2E2E2E2E2E2E2E2E2E2E2E2E2E2E2E2E2E2E2E2E2E2E2E2E2E2E2E2E2E2E2E2E2E2E2E2E2E2E2E2E2E2E2E2E2E2E2E2E2E2E2E2E2E2E2E2E2E2E2E2E2E2E2E2E2E2
310
E2E2E2E2E2E2E2E2E2E2E2E2E2E2E2E2E2E2E2E2E2E2E2E2E2E2E2E2E2E2E2E2E2E2E2E2E2E2E2E2E2E2E2E2E2E2E2E2E2E2E2E2E2E2E2E2E2E2E2E2E2E2E2E2E2E2E2E2E2E2E2E2E2E2E2E2E2E2E2E2E2E2E2E2E2E2E2E2E2E2E2E2E2E2E2E2E2E2E2E2E2E2E2E2E2E2E2E2E2E2E2E2E2E2E2E2E2E2E2E2E2E2E2E2E2E2E2
310
E2E2E2E2E2E2E2E2E2E2E2E2E2E2E2E2E2E2E2E2E2E2E2E2E2E2E2E2E2E2E2E2E2E2E2E2E2E2E2E2E2E2E2E2E2E2E2E2E2E2E2E2E2E2E2E2E2E2E2E2E2E2E2E2E2E2E2E2E2E2E2E2E2E2E2E2E2E2E2E2E2E2E2E2E2E2E2E2E2E2E2E2E2E2E2E2E2E2E2E2E2E2E2E2E2E2E2E2E2E2E2E2E2E2E2E2E2E2E2E2E2E2E2E2E2E2E2
310
E2E2E2E2E2E2E2E2E2E2E2E2E2E2E2E2E2E2E2E2E2E2E2E2E2E2E2E2E2E2E2E2E2E2E2E2E2E2E2E2E2E2E2E2E2E2E2E2E2E2E2E2E2E2E2E2E2E2E2E2E2E2E2E2E2E2E2E2E2E2E2E2E2E2E2E2E2E2E2E2E2E2E2E2E2E2E2E2E2E2E2E2E2E2E2E2E2E2E2E2E2E2E2E2E2E2E2E2E2E2E2E2E2E2E2E2E2E2E2E2E2E2E2E2E2E2E2
310
E2E2E2E2E2E2E2E2E2E2E2E2E2E2E2E2E2E2E2E2E2E2E2E2E2E2E2E2E2E2E2E2E2E2E2E2E2E2E2E2E2E2E2E2E2E2E2E2E2E2E2E2E2E2E2E2E2E2E2E2E2E2E2E2E2E2E2E2E2E2E2E2E2E2E2E2E2E2E2E2E2E2E2E2E2E2E2E2E2E2E2E2E2E2E2E2E2E2E2E2E2E2E2E2E2E2E2E2E2E2E2E2E2E2E2E2E2E2E2E2E2E2E2E2E2E2E2
310
E2E2E2E2E2E2E2E2E2E2E2E2E2E2E2E2E2E2E2E2E2E2E2E2E2E2E2E2E2E2E2E2E2E2E2E2E2E2E2E2E2E2E2E2E2E2E2E2E2E2E2E2E2E2E2E2E2E2E2E2E2E2E2E2E2E2E2E2E2E2E2E2E2E2E2E2E2E2E2E2E2E2E2E2E2E2E2E2E2E2E2E2E2E2E2E2E2E2E2E2E2E2E2E2E2E2E2E2E2E2E2E2E2E2E2E2E2E2E2E2E2E2E2E2E2E2E2
310
E2E2E2E2E2E2E2E2E2E2E2E2E2E2E2E2E2E2E2E2E2E2E2E2E2E2E2E2E2E2E2E2E2E2E2E2E2E2E2E2E2E2E2E2E2E2E2E2E2E2E2E2E2E2E2E2E2E2E2E2E2E2E2E2E2E2E2E2E2E2E2E2E2E2E2E2E2E2E2E2E2E2E2E2E2E2E2E2E2E2E2E2E2E2E2E2E2E2E2E2E2E2E2E2E2E2E2E2E2E2E2E2E2E2E2E2E2E2E2E2E2E2E2E2E2E2E2
310
E2E2E2E2E2E2E2E2E2E2E2E2E2E2E2E2E2E2E2E2E2E2E2E2E2E2E2E2E2E2E2E2E2E2E2E2E2E2E2E2E2E2E2E2E2E2E2E2E2E2E2E2E2E2E2E2E2E2E2E2E2E2E2E2E2E2E2E2E2E2E2E2E2E2E2E2E2E2E2E2E2E2E2E2E2E2E2E2E2E2E2E2E2E2E2E2E2E2E2E2E2E2E2E2E2E2E2E2E2E2E2E2E2E2E2E2E2E2E2E2E2E2E2E2E2E2E2
310
E2E2E2E2E2E2E2E2E2E2E2E2E2E2E2E2E2E2E2E2E2E2E2E2E2E2E2E2E2E2E2E2E2E2E2E2E2E2E2E2E2E2E2E2E2E2E2E2E2E2E2E2E2E2E2E2E2E2E2E2E2E2E2E2E2E2E2E2E2E2E2E2E2E2E2E2E2E2E2E2E2E2E2E2E2E2E2E2E2E2E2E2E2E2E2E2E2E2E2E2E2E2E2E2E2E2E2E2E2E2E2E2E2E2E2E2E2E2E2E2E2E2E2E2E2E2E2
310
E2E2E2E2E2E2E2E2E2E2E2E2E2E2E2E2E2E2E2E2E2E2E2E2E2E2E2E2E2E2E2E2E2E2E2E2E2E2E2E2E2E2E2E2E2E2E2E2E2E2E2E2E2E2E2E2E2E2E2E2E2E2E2E2E2E2E2E2E2E2E2E2E2E2E2E2E2E2E2E2E2E2E2E2E2E2E2E2E2E2E2E2E2E2E2E2E2E2E2E2E2E2E2E2E2E2E2E2E2E2E2E2E2E2E2E2E2E2E2E2E2E2E2E2E2E2E2
310
E2E2E2E2E2E2E2E2E2E2E2E2E2E2E2E2E2E2E2E2E2E2E2E2E2E2E2E2E2E2E2E2E2E2E2E2E2E2E2E2E2E2E2E2E2E2E2E2E2E2E2E2E2E2E2E2E2E2E2E2E2E2E2E2E2E2E2E2E2E2E2E2E2E2E2E2E2E2E2E2E2E2E2E2E2E2E2E2E2E2E2E2E2E2E2E2E2E2E2E2E2E2E2E2E2E2E2E2E2E2E2E2E2E2E2E2E2E2E2E2E2E2E2E2E2E2E2
310
E2E2E2E2E2E2E2E2E2E2E2E2E2E2E2E2E2E2E2E2E2E2E2E2E2E2E2E2E2E2E2E2E2E2E2E2E2E2E2E2E2E2E2E2E2E2E2E2E2E2E2E2E2E2E2E2E2E2E2E2E2E2E2E2E2E2E2E2E2E2E2E2E2E2E2E2E2E2E2E2E2E2E2E2E2E2E2E2E2E2E2E2E2E2E2E2E2E2E2E2E2E2E2E2E2E2E2E2E2E2E2E2E2E2E2E2E2E2E2E2E2E2E2E2E2E2E2
310
E2E2E2E2E2E2E2E2E2E2E2E2E2E2E2E2E2E2E2E2E2E2E2E2E2E2E2E2E2E2E2E2E2E2E2E2E2E2E2E2E2E2E2E2E2E2E2E2E2E2E2E2E2E2E2E2E2E2E2E2E2E2E2E2E2E2E2E2E2E2E2E2E2E2E2E2E2E2E2E2E2E2E2E2E2E2E2E2E2E2E2E2E2E2E2E2E2E2E2E2E2E2E2E2E2E2E2E2E2E2E2E2E2E2E2E2E2E2E2E2E2E2E2E2E2E2E2
310
E2E2E2E2E2E2E2E2E2E2E2E2E2E2E2E2E2E2E2E2E2E2E2E2E2E2E2E2E2E2E2E2E2E2E2E2E2E2E2E2E2E2E2E2E2E2E2E2E2E2E2E2E2E2E2E2E2E2E2E2E2E2E2E2E2E2E2E2E2E2E2E2E2E2E2E2E2E2E2E2E2E2E2E2E2E2E2E2E2E2E2E2E2E2E2E2E2E2E2E2E2E2E2E2E2E2E2E2E2E2E2E2E2E2E2E2E2E2E2E2E2E2E2E2E2E2E2
310
E2E2E2E2E2E2E2E2E2E2E2E2E2E2E2E2E2E2E2E2E2E2E2E2E2E2E2E2E2E2E2E2E2E2E2E2E2E2E2E2E2E2E2E2E2E2E2E2E2E2E2E2E2E2E2E2E2E2E2E2E2E2E2E2E2E2E2E2E2E2E2E2E2E2E2E2E2E2E2E2E2E2E2E2E2E2E2E2E2E2E2E2E2E2E2E2E2E2E2E2E2E2E2E2E2E2E2E2E2E2E2E2E2E2E2E2E2E2E2E2E2E2E2E2E2E2E2
310
E2E2E2E2E2E2E2E2E2E2E2E2E2E2E2E2E2E2E2E2E2E2E2E2E2E2E2E2E2E2E2E2E2E2E2E2E2E2E2E2E2E2E2E2E2E2E2E2E2E2E2E2E2E2E2E2E2E2E2E2E2E2E2E2E2E2E2E2E2E2E2E2E2E2E2E2E2E2E2E2E2E2E2E2E2E2E2E2E2E2E2E2E2E2E2E2E2E2E2E2E2E2E2E2E2E2E2E2E2E2E2E2E2E2E2E2E2E2E2E2E2E2E2E2E2E2E2
310
E2E2E2E2E2E2E2E2E2E2E2E2E2E2E2E2E2E2E2E2E2E2E2E2E2E2E2E2E2E2E2E2E2E2E2E2E2E2E2E2E2E2E2E2E2E2E2E2E2E2E2E2E2E2E2E2E2E2E2E2E2E2E2E2E2E2E2E2E2E2E2E2E2E2E2E2E2E2E2E2E2E2E2E2E2E2E2E2E2E2E2E2E2E2E2E2E2E2E2E2E2E2E2E2E2E2E2E2E2E2E2E2E2E2E2E2E2E2E2E2E2E2E2E2E2E2E2
310
E2E2E2E2E2E2E2E2E2E2E2E2E2E2E2E2E2E2E2E2E2E2E2E2E2E2E2E2E2E2E2E2E2E2E2E2E2E2E2E2E2E2E2E2E2E2E2E2E2E2E2E2E2E2E2E2E2E2E2E2E2E2E2E2E2E2E2E2E2E2E2E2E2E2E2E2E2E2E2E2E2E2E2E2E2E2E2E2E2E2E2E2E2E2E2E2E2E2E2E2E2E2E2E2E2E2E2E2E2E2E2E2E2E2E2E2E2E2E2E2E2E2E2E2E2E2E2
310
E2E2E2E2E2E2E2E2E2E2E2E2E2E2E2E2E2E2E2E2E2E2E2E2E2E2E2E2E2E2E2E2E2E2E2E2E2E2E2E2E2E2E2E2E2E2E2E2E2E2E2E2E2E2E2E2E2E2E2E2E2E2E2E2E2E2E2E2E2E2E2E2E2E2E2E2E2E2E2E2E2E2E2E2E2E2E2E2E2E2E2E2E2E2E2E2E2E2E2E2E2E2E2E2E2E2E2E2E2E2E2E2E2E2E2E2E2E2E2E2E2E2E2E2E2E2E2
310
E2E2E2E2E2E2E2E2E2E2E2E2E2E2E2E2E2E2E2E2E2E2E2E2E2E2E2E2E2E2E2E2E2E2E2E2E2E2E2E2E2E2E2E2E2E2E2E2E2E2E2E2E2E2E2E2E2E2E2E2E2E2E2E2E2E2E2E2E2E2E2E2E2E2E2E2E2E2E2E2E2E2E2E2E2E2E2E2E2E2E2E2E2E2E2E2E2E2E2E2E2E2E2E2E2E2E2E2E2E2E2E2E2E2E2E2E2E2E2E2E2E2E2E2E2E2E2
310
E2E2E2E2E2E2E2E2E2E2E2E2E2E2E2E2E2E2E2E2E2E2E2E2E2E2E2E2E2E2E2E2E2E2E2E2E2E2E2E2E2E2E2E2E2E2E2E2E2E2E2E2E2E2E2E2E2E2E2E2E2E2E2E2E2E2E2E2E2E2E2E2E2E2E2E2E2E2E2E2E2E2E2E2E2E2E2E2E2E2E2E2E2E2E2E2E2E2E2E2E2E2E2E2E2E2E2E2E2E2E2E2E2E2E2E2E2E2E2E2E2E2E2E2E2E2E2
310
E2E2E2E2E2E2E2E2E2E2E2E2E2E2E2E2E2E2E2E2E2E2E2E2E2E2E2E2E2E2E2E2E2E2E2E2E2E2E2E2E2E2E2E2E2E2E2E2E2E2E2E2E2E2E2E2E2E2E2E2E2E2E2E2E2E2E2E2E2E2E2E2E2E2E2E2E2E2E2E2E2E2E2E2E2E2E2E2E2E2E2E2E2E2E2E2E2E2E2E2E2E2E2E2E2E2E2E2E2E2E2E2E2E2E2E2E2E2E2E2E2E2E2E2E2E2E2
310
E2E2E2E2E2E2E2E2E2E2E2E2E2E2E2E2E2E2E2E2E2E2E2E2E2E2E2E2E2E2E2E2E2E2E2E2E2E2E2E2E2E2E2E2E2E2E2E2E2E2E2E2E2E2E2E2E2E2E2E2E2E2E2E2E2E2E2E2E2E2E2E2E2E2E2E2E2E2E2E2E2E2E2E2E2E2E2E2E2E2E2E2E2E2E2E2E2E2E2E2E2E2E2E2E2E2E2E2E2E2E2E2E2E2E2E2E2E2E2E2E2E2E2E2E2E2E2
310
E2E2E2E2E2E2E2E2E2E2E2E2E2E2E2E2E2E2E2E2E2E2E2E2E2E2E2E2E2E2E2E2E2E2E2E2E2E2E2E2E2E2E2E2E2E2E2E2E2E2E2E2E2E2E2E2E2E2E2E2E2E2E2E2E2E2E2E2E2E2E2E2E2E2E2E2E2E2E2E2E2E2E2E2E2E2E2E2E2E2E2E2E2E2E2E2E2E2E2E2E2E2E2E2E2E2E2E2E2E2E2E2E2E2E2E2E2E2E2E2E2E2E2E2E2E2E2
310
E2E2E2E2E2E2E2E2E2E2E2E2E2E2E2E2E2E2E2E2E2E2E2E2E2E2E2E2E2E2E2E2E2E2E2E2E2E2E2E2E2E2E2E2E2E2E2E2E2E2E2E2E2E2E2E2E2E2E2E2E2E2E2E2E2E2E2E2E2E2E2E2E2E2E2E2E2E2E2E2E2E2E2E2E2E2E2E2E2E2E2E2E2E2E2E2E2E2E2E2E2E2E2E2E2E2E2E2E2E2E2E2E2E2E2E2E2E2E2E2E2E2E2E2E2E2E2
310
E2E2E2E2E2E2E2E2E2E2E2E2E2E2E2E2E2E2E2E2E2E2E2E2E2E2E2E2E2E2E2E2E2E2E2E2E2E2E2E2E2E2E2E2E2E2E2E2E2E2E2E2E2E2E2E2E2E2E2E2E2E2E2E2E2E2E2E2E2E2E2E2E2E2E2E2E2E2E2E2E2E2E2E2E2E2E2E2E2E2E2E2E2E2E2E2E2E2E2E2E2E2E2E2E2E2E2E2E2E2E2E2E2E2E2E2E2E2E2E2E2E2E2E2E2E2E2
310
E2E2E2E2E2E2E2E2E2E2E2E2E2E2E2E2E2E2E2E2E2E2E2E2E2E2E2E2E2E2E2E2E2E2E2E2E2E2E2E2E2E2E2E2E2E2E2E2E2E2E2E2E2E2E2E2E2E2E2E2E2E2E2E2E2E2E2E2E2E2E2E2E2E2E2E2E2E2E2E2E2E2E2E2E2E2E2E2E2E2E2E2E2E2E2E2E2E2E2E2E2E2E2E2E2E2E2E2E2E2E2E2E2E2E2E2E2E2E2E2E2E2E2E2E2E2E2
310
E2E2E2E2E2E2E2E2E2E2E2E2E2E2E2E2E2E2E2E2E2E2E2E2E2E2E2E2E2E2E2E2E2E2E2E2E2E2E2E2E2E2E2E2E2E2E2E2E2E2E2E2E2E2E2E2E2E2E2E2E2E2E2E2E2E2E2E2E2E2E2E2E2E2E2E2E2E2E2E2E2E2E2E2E2E2E2E2E2E2E2E2E2E2E2E2E2E2E2E2E2E2E2E2E2E2E2E2E2E2E2E2E2E2E2E2E2E2E2E2E2E2E2E2E2E2E2
310
E2E2E2E2E2E2E2E2E2E2E2E2E2E2E2E2E2E2E2E2E2E2E2E2E2E2E2E2E2E2E2E2E2E2E2E2E2E2E2E2E2E2E2E2E2E2E2E2E2E2E2E2E2E2E2E2E2E2E2E2E2E2E2E2E2E2E2E2E2E2E2E2E2E2E2E2E2E2E2E2E2E2E2E2E2E2E2E2E2E2E2E2E2E2E2E2E2E2E2E2E2E2E2E2E2E2E2E2E2E2E2E2E2E2E2E2E2E2E2E2E2E2E2E2E2E2E2
310
E2E2E2E2E2E2E2E2E2E2E2E2E2E2E2E2E2E2E2E2E2E2E2E2E2E2E2E2E2E2E2E2E2E2E2E2E2E2E2E2E2E2E2E2E2E2E2E2E2E2E2E2E2E2E2E2E2E2E2E2E2E2E2E2E2E2E2E2E2E2E2E2E2E2E2E2E2E2E2E2E2E2E2E2E2E2E2E2E2E2E2E2E2E2E2E2E2E2E2E2E2E2E2E2E2E2E2E2E2E2E2E2E2E2E2E2E2E2E2E2E2E2E2E2E2E2E2
310
E2E2E2E2E2E2E2E2E2E2E2E2E2E2E2E2E2E2E2E2E2E2E2E2E2E2E2E2E2E2E2E2E2E2E2E2E2E2E2E2E2E2E2E2E2E2E2E2E2E2E2E2E2E2E2E2E2E2E2E2E2E2E2E2E2E2E2E2E2E2E2E2E2E2E2E2E2E2E2E2E2E2E2E2E2E2E2E2E2E2E2E2E2E2E2E2E2E2E2E2E2E2E2E2E2E2E2E2E2E2E2E2E2E2E2E2E2E2E2E2E2E2E2E2E2E2E2
310
E2E2E2E2E2E2E2E2E2E2E2E2E2E2E2E2E2E2E2E2E2E2E2E2E2E2E2E2E2E2E2E2E2E2E2E2E2E2E2E2E2E2E2E2E2E2E2E2E2E2E2E2E2E2E2E2E2E2E2E2E2E2E2E2E2E2E2E2E2E2E2E2E2E2E2E2E2E2E2E2E2E2E2E2E2E2E2E2E2E2E2E2E2E2E2E2E2E2E2E2E2E2E2E2E2E2E2E2E2E2E2E2E2E2E2E2E2E2E2E2E2E2E2E2E2E2E2
310
E2E2E2E2E2E2E2E2E2E2E2E2E2E2E2E2E2E2E2E2E2E2E2E2E2E2E2E2E2E2E2E2E2E2E2E2E2E2E2E2E2E2E2E2E2E2E2E2E2E2E2E2E2E2E2E2E2E2E2E2E2E2E2E2E2E2E2E2E2E2E2E2E2E2E2E2E2E2E2E2E2E2E2E2E2E2E2E2E2E2E2E2E2E2E2E2E2E2E2E2E2E2E2E2E2E2E2E2E2E2E2E2E2E2E2E2E2E2E2E2E2E2E2E2E2E2E2
310
E2E2E2E2E2E2E2E2E2E2E2E2E2E2E2E2E2E2E2E2E2E2E2E2E2E2E2E2E2E2E2E2E2E2E2E2E2E2E2E2E2E2E2E2E2E2E2E2E2E2E2E2E2E2E2E2E2E2E2E2E2E2E2E2E2E2E2E2E2E2E2E2E2E2E2E2E2E2E2E2E2E2E2E2E2E2E2E2E2E2E2E2E2E2E2E2E2E2E2E2E2E2E2E2E2E2E2E2E2E2E2E2E2E2E2E2E2E2E2E2E2E2E2E2E2E2E2
310
E2E2E2E2E2E2E2E2E2E2E2E2E2E2E2E2E2E2E2E2E2E2E2E2E2E2E2E2E2E2E2E2E2E2E2E2E2E2E2E2E2E2E2E2E2E2E2E2E2E2E2E2E2E2E2E2E2E2E2E2E2E2E2E2E2E2E2E2E2E2E2E2E2E2E2E2E2E2E2E2E2E2E2E2E2E2E2E2E2E2E2E2E2E2E2E2E2E2E2E2E2E2E2E2E2E2E2E2E2E2E2E2E2E2E2E2E2E2E2E2E2E2E2E2E2E2E2
310
E2E2E2E2E2E2E2E2E2E2E2E2E2E2E2E2E2E2E2E2E2E2E2E2E2E2E2E2E2E2E2E2E2E2E2E2E2E2E2E2E2E2E2E2E2E2E2E2E2E2E2E2E2E2E2E2E2E2E2E2E2E2E2E2E2E2E2E2E2E2E2E2E2E2E2E2E2E2E2E2E2E2E2E2E2E2E2E2E2E2E2E2E2E2E2E2E2E2E2E2E2E2E2E2E2E2E2E2E2E2E2E2E2E2E2E2E2E2E2E2E2E2E2E2E2E2E2
310
E2E2E2E2E2E2E2E2E2E2E2E2E2E2E2E2E2E2E2E2E2E2E2E2E2E2E2E2E2E2E2E2E2E2E2E2E2E2E2E2E2E2E2E2E2E2E2E2E2E2E2E2E2E2E2E2E2E2E2E2E2E2E2E2E2E2E2E2E2E2E2E2E2E2E2E2E2E2E2E2E2E2E2E2E2E2E2E2E2E2E2E2E2E2E2E2E2E2E2E2E2E2E2E2E2E2E2E2E2E2E2E2E2E2E2E2E2E2E2E2E2E2E2E2E2E2E2
310
E2E2E2E2E2E2E2E2E2E2E2E2E2E2E2E2E2E2E2E2E2E2E2E2E2E2E2E2E2E2E2E2E2E2E2E2E2E2E2E2E2E2E2E2E2E2E2E2E2E2E2E2E2E2E2E2E2E2E2E2E2E2E2E2E2E2E2E2E2E2E2E2E2E2E2E2E2E2E2E2E2E2E2E2E2E2E2E2E2E2E2E2E2E2E2E2E2E2E2E2E2E2E2E2E2E2E2E2E2E2E2E2E2E2E2E2E2E2E2E2E2E2E2E2E2E2E2
310
E2E2E2E2E2E2E2E2E2E2E2E2E2E2E2E2E2E2E2E2E2E2E2E2E2E2E2E2E2E2E2E2E2E2E2E2E2E2E2E2E2E2E2E2E2E2E2E2E2E2E2E2E2E2E2E2E2E2E2E2E2E2E2E2E2E2E2E2E2E2E2E2E2E2E2E2E2E2E2E2E2E2E2E2E2E2E2E2E2E2E2E2E2E2E2E2E2E2E2E2E2E2E2E2E2E2E2E2E2E2E2E2E2E2E2E2E2E2E2E2E2E2E2E2E2E2E2
310
E2E2E2E2E2E2E2E2E2E2E2E2E2E2E2E2E2E2E2E2E2E2E2E2E2E2E2E2E2E2E2E2E2E2E2E2E2E2E2E2E2E2E2E2E2E2E2E2E2E2E2E2E2E2E2E2E2E2E2E2E2E2E2E2E2E2E2E2E2E2E2E2E2E2E2E2E2E2E2E2E2E2E2E2E2E2E2E2E2E2E2E2E2E2E2E2E2E2E2E2E2E2E2E2E2E2E2E2E2E2E2E2E2E2E2E2E2E2E2E2E2E2E2E2E2E2E2
310
E2E2E2E2E2E2E2E2E2E2E2E2E2E2E2E2E2E2E2E2E2E2E2E2E2E2E2E2E2E2E2E2E2E2E2E2E2E2E2E2E2E2E2E2E2E2E2E2E2E2E2E2E2E2E2E2E2E2E2E2E2E2E2E2E2E2E2E2E2E2E2E2E2E2E2E2E2E2E2E2E2E2E2E2E2E2E2E2E2E2E2E2E2E2E2E2E2E2E2E2E2E2E2E2E2E2E2E2E2E2E2E2E2E2E2E2E2E2E2E2E2E2E2E2E2E2E2
310
E2E2E2E2E2E2E2E2E2E2E2E2E2E2E2E2E2E2E2E2E2E2E2E2E2E2E2E2E2E2E2E2E2E2E2E2E2E2E2E2E2E2E2E2E2E2E2E2E2E2E2E2E2E2E2E2E2E2E2E2E2E2E2E2E2E2E2E2E2E2E2E2E2E2E2E2E2E2E2E2E2E2E2E2E2E2E2E2E2E2E2E2E2E2E2E2E2E2E2E2E2E2E2E2E2E2E2E2E2E2E2E2E2E2E2E2E2E2E2E2E2E2E2E2E2E2E2
310
E2E2E2E2E2E2E2E2E2E2E2E2E2E2E2E2E2E2E2E2E2E2E2E2E2E2E2E2E2E2E2E2E2E2E2E2E2E2E2E2E2E2E2E2E2E2E2E2E2E2E2E2E2E2E2E2E2E2E2E2E2E2E2E2E2E2E2E2E2E2E2E2E2E2E2E2E2E2E2E2E2E2E2E2E2E2E2E2E2E2E2E2E2E2E2E2E2E2E2E2E2E2E2E2E2E2E2E2E2E2E2E2E2E2E2E2E2E2E2E2E2E2E2E2E2E2E2
310
E2E2E2E2E2E2E2E2E2E2E2E2E2E2E2E2E2E2E2E2E2E2E2E2E2E2E2E2E2E2E2E2E2E2E2E2E2E2E2E2E2E2E2E2E2E2E2E2E2E2E2E2E2E2E2E2E2E2E2E2E2E2E2E2E2E2E2E2E2E2E2E2E2E2E2E2E2E2E2E2E2E2E2E2E2E2E2E2E2E2E2E2E2E2E2E2E2E2E2E2E2E2E2E2E2E2E2E2E2E2E2E2E2E2E2E2E2E2E2E2E2E2E2E2E2E2E2
310
E2E2E2E2E2E2E2E2E2E2E2E2E2E2E2E2E2E2E2E2E2E2E2E2E2E2E2E2E2E2E2E2E2E2E2E2E2E2E2E2E2E2E2E2E2E2E2E2E2E2E2E2E2E2E2E2E2E2E2E2E2E2E2E2E2E2E2E2E2E2E2E2E2E2E2E2E2E2E2E2E2E2E2E2E2E2E2E2E2E2E2E2E2E2E2E2E2E2E2E2E2E2E2E2E2E2E2E2E2E2E2E2E2E2E2E2E2E2E2E2E2E2E2E2E2E2E2
310
E2E2E2E2E2E2E2E2E2E2E2E2E2E2E2E2E2E2E2E2E2E2E2E2E2E2E2E2E2E2E2E2E2E2E2E2E2E2E2E2E2E2E2E2E2E2E2E2E2E2E2E2E2E2E2E2E2E2E2E2E2E2E2E2E2E2E2E2E2E2E2E2E2E2E2E2E2E2E2E2E2E2E2E2E2E2E2E2E2E2E2E2E2E2E2E2E2E2E2E2E2E2E2E2E2E2E2E2E2E2E2E2E2E2E2E2E2E2E2E2E2E2E2E2E2E2E2
310
E2E2E2E2E2E2E2E2E2E2E2E2E2E2E2E2E2E2E2E2E2E2E2E2E2E2E2E2E2E2E2E2E2E2E2E2E2E2E2E2E2E2E2E2E2E2E2E2E2E2E2E2E2E2E2E2E2E2E2E2E2E2E2E2E2E2E2E2E2E2E2E2E2E2E2E2E2E2E2E2E2E2E2E2E2E2E2E2E2E2E2E2E2E2E2E2E2E2E2E2E2E2E2E2E2E2E2E2E2E2E2E2E2E2E2E2E2E2E2E2E2E2E2E2E2E2E2
310
E2E2E2E2E2E2E2E2E2E2E2E2E2E2E2E2E2E2E2E2E2E2E2E2E2E2E2E2E2E2E2E2E2E2E2E2E2E2E2E2E2E2E2E2E2E2E2E2E2E2E2E2E2E2E2E2E2E2E2E2E2E2E2E2E2E2E2E2E2E2E2E2E2E2E2E2E2E2E2E2E2E2E2E2E2E2E2E2E2E2E2E2E2E2E2E2E2E2E2E2E2E2E2E2E2E2E2E2E2E2E2E2E2E2E2E2E2E2E2E2E2E2E2E2E2E2E2
310
E2E2E2E2E2E2E2E2E2E2E2E2E2E2E2E2E2E2E2E2E2E2E2E2E2E2E2E2E2E2E2E2E2E2E2E2E2E2E2E2E2E2E2E2E2E2E2E2E2E2E2E2E2E2E2E2E2E2E2E2E2E2E2E2E2E2E2E2E2E2E2E2E2E2E2E2E2E2E2E2E2E2E2E2E2E2E2E2E2E2E2E2E2E2E2E2E2E2E2E2E2E2E2E2E2E2E2E2E2E2E2E2E2E2E2E2E2E2E2E2E2E2E2E2E2E2E2
310
E2E2E2E2E2E2E2E2E2E2E2E2E2E2E2E2E2E2E2E2E2E2E2E2E2E2E2E2E2E2E2E2E2E2E2E2E2E2E2E2E2E2E2E2E2E2E2E2E2E2E2E2E2E2E2E2E2E2E2E2E2E2E2E2E2E2E2E2E2E2E2E2E2E2E2E2E2E2E2E2E2E2E2E2E2E2E2E2E2E2E2E2E2E2E2E2E2E2E2E2E2E2E2E2E2E2E2E2E2E2E2E2E2E2E2E2E2E2E2E2E2E2E2E2E2E2E2
310
E2E2E2E2E2E2E2E2E2E2E2E2E2E2E2E2E2E2E2E2E2E2E2E2E2E2E2E2E2E2E2E2E2E2E2E2E2E2E2E2E2E2E2E2E2E2E2E2E2E2E2E2E2E2E2E2E2E2E2E2E2E2E2E2E2E2E2E2E2E2E2E2E2E2E2E2E2E2E2E2E2E2E2E2E2E2E2E2E2E2E2E2E2E2E2E2E2E2E2E2E2E2E2E2E2E2E2E2E2E2E2E2E2E2E2E2E2E2E2E2E2E2E2E2E2E2E2
310
E2E2E2E2E2E2E2E2E2E2E2E2E2E2E2E2E2E2E2E2E2E2E2E2E2E2E2E2E2E2E2E2E2E2E2E2E2E2E2E2E2E2E2E2E2E2E2E2E2E2E2E2E2E2E2E2E2E2E2E2E2E2E2E2E2E2E2E2E2E2E2E2E2E2E2E2E2E2E2E2E2E2E2E2E2E2E2E2E2E2E2E2E2E2E2E2E2E2E2E2E2E2E2E2E2E2E2E2E2E2E2E2E2E2E2E2E2E2E2E2E2E2E2E2E2E2E2
310
E2E2E2E2E2E2E2E2E2E2E2E2E2E2E2E2E2E2E2E2E2E2E2E2E2E2E2E2E2E2E2E2E2E2E2E2E2E2E2E2E2E2E2E2E2E2E2E2E2E2E2E2E2E2E2E2E2E2E2E2E2E2E2E2E2E2E2E2E2E2E2E2E2E2E2E2E2E2E2E2E2E2E2E2E2E2E2E2E2E2E2E2E2E2E2E2E2E2E2E2E2E2E2E2E2E2E2E2E2E2E2E2E2E2E2E2E2E2E2E2E2E2E2E2E2E2E2
310
E2E2E2E2E2E2E2E2E2E2E2E2E2E2E2E2E2E2E2E2E2E2E2E2E2E2E2E2E2E2E2E2E2E2E2E2E2E2E2E2E2E2E2E2E2E2E2E2E2E2E2E2E2E2E2E2E2E2E2E2E2E2E2E2E2E2E2E2E2E2E2E2E2E2E2E2E2E2E2E2E2E2E2E2E2E2E2E2E2E2E2E2E2E2E2E2E2E2E2E2E2E2E2E2E2E2E2E2E2E2E2E2E2E2E2E2E2E2E2E2E2E2E2E2E2E2E2
310
E2E2E2E2E2E2E2E2E2E2E2E2E2E2E2E2E2E2E2E2E2E2E2E2E2E2E2E2E2E2E2E2E2E2E2E2E2E2E2E2E2E2E2E2E2E2E2E2E2E2E2E2E2E2E2E2E2E2E2E2E2E2E2E2E2E2E2E2E2E2E2E2E2E2E2E2E2E2E2E2E2E2E2E2E2E2E2E2E2E2E2E2E2E2E2E2E2E2E2E2E2E2E2E2E2E2E2E2E2E2E2E2E2E2E2E2E2E2E2E2E2E2E2E2E2E2E2
310
E2E2E2E2E2E2E2E2E2E2E2E2E2E2E2E2E2E2E2E2E2E2E2E2E2E2E2E2E2E2E2E2E2E2E2E2E2E2E2E2E2E2E2E2E2E2E2E2E2E2E2E2E2E2E2E2E2E2E2E2E2E2E2E2E2E2E2E2E2E2E2E2E2E2E2E2E2E2E2E2E2E2E2E2E2E2E2E2E2E2E2E2E2E2E2E2E2E2E2E2E2E2E2E2E2E2E2E2E2E2E2E2E2E2E2E2E2E2E2E2E2E2E2E2E2E2E2
310
E2E2E2E2E2E2E2E2E2E2E2E2E2E2E2E2E2E2E2E2E2E2E2E2E2E2E2E2E2E2E2E2E2E2E2E2E2E2E2E2E2E2E2E2E2E2E2E2E2E2E2E2E2E2E2E2E2E2E2E2E2E2E2E2E2E2E2E2E2E2E2E2E2E2E2E2E2E2E2E2E2E2E2E2E2E2E2E2E2E2E2E2E2E2E2E2E2E2E2E2E2E2E2E2E2E2E2E2E2E2E2E2E2E2E2E2E2E2E2E2E2E2E2E2E2E2E2
310
E2E2E2E2E2E2E2E2E2E2E2E2E2E2E2E2E2E2E2E2E2E2E2E2E2E2E2E2E2E2E2E2E2E2E2E2E2E2E2E2E2E2E2E2E2E2E2E2E2E2E2E2E2E2E2E2E2E2E2E2E2E2E2E2E2E2E2E2E2E2E2E2E2E2E2E2E2E2E2E2E2E2E2E2E2E2E2E2E2E2E2E2E2E2E2E2E2E2E2E2E2E2E2E2E2E2E2E2E2E2E2E2E2E2E2E2E2E2E2E2E2E2E2E2E2E2E2
310
E2E2E2E2E2E2E2E2E2E2E2E2E2E2E2E2E2E2E2E2E2E2E2E2E2E2E2E2E2E2E2E2E2E2E2E2E2E2E2E2E2E2E2E2E2E2E2E2E2E2E2E2E2E2E2E2E2E2E2E2E2E2E2E2E2E2E2E2E2E2E2E2E2E2E2E2E2E2E2E2E2E2E2E2E2E2E2E2E2E2E2E2E2E2E2E2E2E2E2E2E2E2E2E2E2E2E2E2E2E2E2E2E2E2E2E2E2E2E2E2E2E2E2E2E2E2E2
310
E2E2E2E2E2E2E2E2E2E2E2E2E2E2E2E2E2E2E2E2E2E2E2E2E2E2E2E2E2E2E2E2E2E2E2E2E2E2E2E2E2E2E2E2E2E2E2E2E2E2E2E2E2E2E2E2E2E2E2E2E2E2E2E2E2E2E2E2E2E2E2E2E2E2E2E2E2E2E2E2E2E2E2E2E2E2E2E2E2E2E2E2E2E2E2E2E2E2E2E2E2E2E2E2E2E2E2E2E2E2E2E2E2E2E2E2E2E2E2E2E2E2E2E2E2E2E2
310
E2E2E2E2E2E2E2E2E2E2E2E2E2E2E2E2E2E2E2E2E2E2E2E2E2E2E2E2E2E2E2E2E2E2E2E2E2E2E2E2E2E2E2E2E2E2E2E2E2E2E2E2E2E2E2E2E2E2E2E2E2E2E2E2E2E2E2E2E2E2E2E2E2E2E2E2E2E2E2E2E2E2E2E2E2E2E2E2E2E2E2E2E2E2E2E2E2E2E2E2E2E2E2E2E2E2E2E2E2E2E2E2E2E2E2E2E2E2E2E2E2E2E2E2E2E2E2
310
E2E2E2E2E2E2E2E2E2E2E2E2E2E2E2E2E2E2E2E2E2E2E2E2E2E2E2E2E2E2E2E2E2E2E2E2E2E2E2E2E2E2E2E2E2E2E2E2E2E2E2E2E2E2E2E2E2E2E2E2E2E2E2E2E2E2E2E2E2E2E2E2E2E2E2E2E2E2E2E2E2E2E2E2E2E2E2E2E2E2E2E2E2E2E2E2E2E2E2E2E2E2E2E2E2E2E2E2E2E2E2E2E2E2E2E2E2E2E2E2E2E2E2E2E2E2E2
310
E2E2E2E2E2E2E2E2E2E2E2E2E2E2E2E2E2E2E2E2E2E2E2E2E2E2E2E2E2E2E2E2E2E2E2E2E2E2E2E2E2E2E2E2E2E2E2E2E2E2E2E2E2E2E2E2E2E2E2E2E2E2E2E2E2E2E2E2E2E2E2E2E2E2E2E2E2E2E2E2E2E2E2E2E2E2E2E2E2E2E2E2E2E2E2E2E2E2E2E2E2E2E2E2E2E2E2E2E2E2E2E2E2E2E2E2E2E2E2E2E2E2E2E2E2E2E2
310
E2E2E2E2E2E2E2E2E2E2E2E2E2E2E2E2E2E2E2E2E2E2E2E2E2E2E2E2E2E2E2E2E2E2E2E2E2E2E2E2E2E2E2E2E2E2E2E2E2E2E2E2E2E2E2E2E2E2E2E2E2E2E2E2E2E2E2E2E2E2E2E2E2E2E2E2E2E2E2E2E2E2E2E2E2E2E2E2E2E2E2E2E2E2E2E2E2E2E2E2E2E2E2E2E2E2E2E2E2E2E2E2E2E2E2E2E2E2E2E2E2E2E2E2E2E2E2
310
E2E2E2E2E2E2E2E2E2E2E2E2E2E2E2E2E2E2E2E2E2E2E2E2E2E2E2E2E2E2E2E2E2E2E2E2E2E2E2E2E2E2E2E2E2E2E2E2E2E2E2E2E2E2E2E2E2E2E2E2E2E2E2E2E2E2E2E2E2E2E2E2E2E2E2E2E2E2E2E2E2E2E2E2E2E2E2E2E2E2E2E2E2E2E2E2E2E2E2E2E2E2E2E2E2E2E2E2E2E2E2E2E2E2E2E2E2E2E2E2E2E2E2E2E2E2E2
310
E2E2E2E2E2E2E2E2E2E2E2E2E2E2E2E2E2E2E2E2E2E2E2E2E2E2E2E2E2E2E2E2E2E2E2E2E2E2E2E2E2E2E2E2E2E2E2E2E2E2E2E2E2E2E2E2E2E2E2E2E2E2E2E2E2E2E2E2E2E2E2E2E2E2E2E2E2E2E2E2E2E2E2E2E2E2E2E2E2E2E2E2E2E2E2E2E2E2E2E2E2E2E2E2E2E2E2E2E2E2E2E2E2E2E2E2E2E2E2E2E2E2E2E2E2E2E2
310
E2E2E2E2E2E2E2E2E2E2E2E2E2E2E2E2E2E2E2E2E2E2E2E2E2E2E2E2E2E2E2E2E2E2E2E2E2E2E2E2E2E2E2E2E2E2E2E2E2E2E2E2E2E2E2E2E2E2E2E2E2E2E2E2E2E2E2E2E2E2E2E2E2E2E2E2E2E2E2E2E2E2E2E2E2E2E2E2E2E2E2E2E2E2E2E2E2E2E2E2E2E2E2E2E2E2E2E2E2E2E2E2E2E2E2E2E2E2E2E2E2E2E2E2E2E2E2
310
E2E2E2E2E2E2E2E2E2E2E2E2E2E2E2E2E2E2E2E2E2E2E2E2E2E2E2E2E2E2E2E2E2E2E2E2E2E2E2E2E2E2E2E2E2E2E2E2E2E2E2E2E2E2E2E2E2E2E2E2E2E2E2E2E2E2E2E2E2E2E2E2E2E2E2E2E2E2E2E2E2E2E2E2E2E2E2E2E2E2E2E2E2E2E2E2E2E2E2E2E2E2E2E2E2E2E2E2E2E2E2E2E2E2E2E2E2E2E2E2E2E2E2E2E2E2E2
310
E2E2E2E2E2E2E2E2E2E2E2E2E2E2E2E2E2E2E2E2E2E2E2E2E2E2E2E2E2E2E2E2E2E2E2E2E2E2E2E2E2E2E2E2E2E2E2E2E2E2E2E2E2E2E2E2E2E2E2E2E2E2E2E2E2E2E2E2E2E2E2E2E2E2E2E2E2E2E2E2E2E2E2E2E2E2E2E2E2E2E2E2E2E2E2E2E2E2E2E2E2E2E2E2E2E2E2E2E2E2E2E2E2E2E2E2E2E2E2E2E2E2E2E2E2E2E2
310
E2E2E2E2E2E2E2E2E2E2E2E2E2E2E2E2E2E2E2E2E2E2E2E2E2E2E2E2E2E2E2E2E2E2E2E2E2E2E2E2E2E2E2E2E2E2E2E2E2E2E2E2E2E2E2E2E2E2E2E2E2E2E2E2E2E2E2E2E2E2E2E2E2E2E2E2E2E2E2E2E2E2E2E2E2E2E2E2E2E2E2E2E2E2E2E2E2E2E2E2E2E2E2E2E2E2E2E2E2E2E2E2E2E2E2E2E2E2E2E2E2E2E2E2E2E2E2
310
E2E2E2E2E2E2E2E2E2E2E2E2E2E2E2E2E2E2E2E2E2E2E2E2E2E2E2E2E2E2E2E2E2E2E2E2E2E2E2E2E2E2E2E2E2E2E2E2E2E2E2E2E2E2E2E2E2E2E2E2E2E2E2E2E2E2E2E2E2E2E2E2E2E2E2E2E2E2E2E2E2E2E2E2E2E2E2E2E2E2E2E2E2E2E2E2E2E2E2E2E2E2E2E2E2E2E2E2E2E2E2E2E2E2E2E2E2E2E2E2E2E2E2E2E2E2E2
310
E2E2E2E2E2E2E2E2E2E2E2E2E2E2E2E2E2E2E2E2E2E2E2E2E2E2E2E2E2E2E2E2E2E2E2E2E2E2E2E2E2E2E2E2E2E2E2E2E2E2E2E2E2E2E2E2E2E2E2E2E2E2E2E2E2E2E2E2E2E2E2E2E2E2E2E2E2E2E2E2E2E2E2E2E2E2E2E2E2E2E2E2E2E2E2E2E2E2E2E2E2E2E2E2E2E2E2E2E2E2E2E2E2E2E2E2E2E2E2E2E2E2E2E2E2E2E2
310
E2E2E2E2E2E2E2E2E2E2E2E2E2E2E2E2E2E2E2E2E2E2E2E2E2E2E2E2E2E2E2E2E2E2E2E2E2E2E2E2E2E2E2E2E2E2E2E2E2E2E2E2E2E2E2E2E2E2E2E2E2E2E2E2E2E2E2E2E2E2E2E2E2E2E2E2E2E2E2E2E2E2E2E2E2E2E2E2E2E2E2E2E2E2E2E2E2E2E2E2E2E2E2E2E2E2E2E2E2E2E2E2E2E2E2E2E2E2E2E2E2E2E2E2E2E2E2
310
E2E2E2E2E2E2E2E2E2E2E2E2E2E2E2E2E2E2E2E2E2E2E2E2E2E2E2E2E2E2E2E2E2E2E2E2E2E2E2E2E2E2E2E2E2E2E2E2E2E2E2E2E2E2E2E2E2E2E2E2E2E2E2E2E2E2E2E2E2E2E2E2E2E2E2E2E2E2E2E2E2E2E2E2E2E2E2E2E2E2E2E2E2E2E2E2E2E2E2E2E2E2E2E2E2E2E2E2E2E2E2E2E2E2E2E2E2E2E2E2E2E2E2E2E2E2E2
310
E2E2E2E2E2E2E2E2E2E2E2E2E2E2E2E2E2E2E2E2E2E2E2E2E2E2E2E2E2E2E2E2E2E2E2E2E2E2E2E2E2E2E2E2E2E2E2E2E2E2E2E2E2E2E2E2E2E2E2E2E2E2E2E2E2E2E2E2E2E2E2E2E2E2E2E2E2E2E2E2E2E2E2E2E2E2E2E2E2E2E2E2E2E2E2E2E2E2E2E2E2E2E2E2E2E2E2E2E2E2E2E2E2E2E2E2E2E2E2E2E2E2E2E2E2E2E2
310
E2E2E2E2E2E2E2E2E2E2E2E2E2E2E2E2E2E2E2E2E2E2E2E2E2E2E2E2E2E2E2E2E2E2E2E2E2E2E2E2E2E2E2E2E2E2E2E2E2E2E2E2E2E2E2E2E2E2E2E2E2E2E2E2E2E2E2E2E2E2E2E2E2E2E2E2E2E2E2E2E2E2E2E2E2E2E2E2E2E2E2E2E2E2E2E2E2E2E2E2E2E2E2E2E2E2E2E2E2E2E2E2E2E2E2E2E2E2E2E2E2E2E2E2E2E2E2
310
E2E2E2E2E2E2E2E2E2E2E2E2E2E2E2E2E2E2E2E2E2E2E2E2E2E2E2E2E2E2E2E2E2E2E2E2E2E2E2E2E2E2E2E2E2E2E2E2E2E2E2E2E2E2E2E2E2E2E2E2E2E2E2E2E2E2E2E2E2E2E2E2E2E2E2E2E2E2E2E2E2E2E2E2E2E2E2E2E2E2E2E2E2E2E2E2E2E2E2E2E2E2E2E2E2E2E2E2E2E2E2E2E2E2E2E2E2E2E2E2E2E2E2E2E2E2E2
310
E2E2E2E2E2E2E2E2E2E2E2E2E2E2E2E2E2E2E2E2E2E2E2E2E2E2E2E2E2E2E2E2E2E2E2E2E2E2E2E2E2E2E2E2E2E2E2E2E2E2E2E2E2E2E2E2E2E2E2E2E2E2E2E2E2E2E2E2E2E2E2E2E2E2E2E2E2E2E2E2E2E2E2E2E2E2E2E2E2E2E2E2E2E2E2E2E2E2E2E2E2E2E2E2E2E2E2E2E2E2E2E2E2E2E2E2E2E2E2E2E2E2E2E2E2E2E2
310
E2E2E2E2E2E2E2E2E2E2E2E2E2E2E2E2E2E2E2E2E2E2E2E2E2E2E2E2E2E2E2E2E2E2E2E2E2E2E2E2E2E2E2E2E2E2E2E2E2E2E2E2E2E2E2E2E2E2E2E2E2E2E2E2E2E2E2E2E2E2E2E2E2E2E2E2E2E2E2E2E2E2E2E2E2E2E2E2E2E2E2E2E2E2E2E2E2E2E2E2E2E2E2E2E2E2E2E2E2E2E2E2E2E2E2E2E2E2E2E2E2E2E2E2E2E2E2
310
E2E2E2E2E2E2E2E2E2E2E2E2E2E2E2E2E2E2E2E2E2E2E2E2E2E2E2E2E2E2E2E2E2E2E2E2E2E2E2E2E2E2E2E2E2E2E2E2E2E2E2E2E2E2E2E2E2E2E2E2E2E2E2E2E2E2E2E2E2E2E2E2E2E2E2E2E2E2E2E2E2E2E2E2E2E2E2E2E2E2E2E2E2E2E2E2E2E2E2E2E2E2E2E2E2E2E2E2E2E2E2E2E2E2E2E2E2E2E2E2E2E2E2E2E2E2E2
310
E2E2E2E2E2E2E2E2E2E2E2E2E2E2E2E2E2E2E2E2E2E2E2E2E2E2E2E2E2E2E2E2E2E2E2E2E2E2E2E2E2E2E2E2E2E2E2E2E2E2E2E2E2E2E2E2E2E2E2E2E2E2E2E2E2E2E2E2E2E2E2E2E2E2E2E2E2E2E2E2E2E2E2E2E2E2E2E2E2E2E2E2E2E2E2E2E2E2E2E2E2E2E2E2E2E2E2E2E2E2E2E2E2E2E2E2E2E2E2E2E2E2E2E2E2E2E2
310
E2E2E2E2E2E2E2E2E2E2E2E2E2E2E2E2E2E2E2E2E2E2E2E2E2E2E2E2E2E2E2E2E2E2E2E2E2E2E2E2E2E2E2E2E2E2E2E2E2E2E2E2E2E2E2E2E2E2E2E2E2E2E2E2E2E2E2E2E2E2E2E2E2E2E2E2E2E2E2E2E2E2E2E2E2E2E2E2E2E2E2E2E2E2E2E2E2E2E2E2E2E2E2E2E2E2E2E2E2E2E2E2E2E2E2E2E2E2E2E2E2E2E2E2E2E2E2
310
E2E2E2E2E2E2E2E2E2E2E2E2E2E2E2E2E2E2E2E2E2E2E2E2E2E2E2E2E2E2E2E2E2E2E2E2E2E2E2E2E2E2E2E2E2E2E2E2E2E2E2E2E2E2E2E2E2E2E2E2E2E2E2E2E2E2E2E2E2E2E2E2E2E2E2E2E2E2E2E2E2E2E2E2E2E2E2E2E2E2E2E2E2E2E2E2E2E2E2E2E2E2E2E2E2E2E2E2E2E2E2E2E2E2E2E2E2E2E2E2E2E2E2E2E2E2E2
310
E2E2E2E2E2E2E2E2E2E2E2E2E2E2E2E2E2E2E2E2E2E2E2E2E2E2E2E2E2E2E2E2E2E2E2E2E2E2E2E2E2E2E2E2E2E2E2E2E2E2E2E2E2E2E2E2E2E2E2E2E2E2E2E2E2E2E2E2E2E2E2E2E2E2E2E2E2E2E2E2E2E2E2E2E2E2E2E2E2E2E2E2E2E2E2E2E2E2E2E2E2E2E2E2E2E2E2E2E2E2E2E2E2E2E2E2E2E2E2E2E2E2E2E2E2E2E2
310
E2E2E2E2E2E2E2E2E2E2E2E2E2E2E2E2E2E2E2E2E2E2E2E2E2E2E2E2E2E2E2E2E2E2E2E2E2E2E2E2E2E2E2E2E2E2E2E2E2E2E2E2E2E2E2E2E2E2E2E2E2E2E2E2E2E2E2E2E2E2E2E2E2E2E2E2E2E2E2E2E2E2E2E2E2E2E2E2E2E2E2E2E2E2E2E2E2E2E2E2E2E2E2E2E2E2E2E2E2E2E2E2E2E2E2E2E2E2E2E2E2E2E2E2E2E2E2
310
E2E2E2E2E2E2E2E2E2E2E2E2E2E2E2E2E2E2E2E2E2E2E2E2E2E2E2E2E2E2E2E2E2E2E2E2E2E2E2E2E2E2E2E2E2E2E2E2E2E2E2E2E2E2E2E2E2E2E2E2E2E2E2E2E2E2E2E2E2E2E2E2E2E2E2E2E2E2E2E2E2E2E2E2E2E2E2E2E2E2E2E2E2E2E2E2E2E2E2E2E2E2E2E2E2E2E2E2E2E2E2E2E2E2E2E2E2E2E2E2E2E2E2E2E2E2E2
310
E2E2E2E2E2E2E2E2E2E2E2E2E2E2E2E2E2E2E2E2E2E2E2E2E2E2E2E2E2E2E2E2E2E2E2E2E2E2E2E2E2E2E2E2E2E2E2E2E2E2E2E2E2E2E2E2E2E2E2E2E2E2E2E2E2E2E2E2E2E2E2E2E2E2E2E2E2E2E2E2E2E2E2E2E2E2E2E2E2E2E2E2E2E2E2E2E2E2E2E2E2E2E2E2E2E2E2E2E2E2E2E2E2E2E2E2E2E2E2E2E2E2E2E2E2E2E2
310
E2E2E2E2E2E2E2E2E2E2E2E2E2E2E2E2E2E2E2E2E2E2E2E2E2E2E2E2E2E2E2E2E2E2E2E2E2E2E2E2E2E2E2E2E2E2E2E2E2E2E2E2E2E2E2E2E2E2E2E2E2E2E2E2E2E2E2E2E2E2E2E2E2E2E2E2E2E2E2E2E2E2E2E2E2E2E2E2E2E2E2E2E2E2E2E2E2E2E2E2E2E2E2E2E2E2E2E2E2E2E2E2E2E2E2E2E2E2E2E2E2E2E2E2E2E2E2
310
E2E2E2E2E2E2E2E2E2E2E2E2E2E2E2E2E2E2E2E2E2E2E2E2E2E2E2E2E2E2E2E2E2E2E2E2E2E2E2E2E2E2E2E2E2E2E2E2E2E2E2E2E2E2E2E2E2E2E2E2E2E2E2E2E2E2E2E2E2E2E2E2E2E2E2E2E2E2E2E2E2E2E2E2E2E2E2E2E2E2E2E2E2E2E2E2E2E2E2E2E2E2E2E2E2E2E2E2E2E2E2E2E2E2E2E2E2E2E2E2E2E2E2E2E2E2E2
310
E2E2E2E2E2E2E2E2E2E2E2E2E2E2E2E2E2E2E2E2E2E2E2E2E2E2E2E2E2E2E2E2E2E2E2E2E2E2E2E2E2E2E2E2E2E2E2E2E2E2E2E2E2E2E2E2E2E2E2E2E2E2E2E2E2E2E2E2E2E2E2E2E2E2E2E2E2E2E2E2E2E2E2E2E2E2E2E2E2E2E2E2E2E2E2E2E2E2E2E2E2E2E2E2E2E2E2E2E2E2E2E2E2E2E2E2E2E2E2E2E2E2E2E2E2E2E2
310
E2E2E2E2E2E2E2E2E2E2E2E2E2E2E2E2E2E2E2E2E2E2E2E2E2E2E2E2E2E2E2E2E2E2E2E2E2E2E2E2E2E2E2E2E2E2E2E2E2E2E2E2E2E2E2E2E2E2E2E2E2E2E2E2E2E2E2E2E2E2E2E2E2E2E2E2E2E2E2E2E2E2E2E2E2E2E2E2E2E2E2E2E2E2E2E2E2E2E2E2E2E2E2E2E2E2E2E2E2E2E2E2E2E2E2E2E2E2E2E2E2E2E2E2E2E2E2
310
E2E2E2E2E2E2E2E2E2E2E2E2E2E2E2E2E2E2E2E2E2E2E2E2E2E2E2E2E2E2E2E2E2E2E2E2E2E2E2E2E2E2E2E2E2E2E2E2E2E2E2E2E2E2E2E2E2E2E2E2E2E2E2E2E2E2E2E2E2E2E2E2E2E2E2E2E2E2E2E2E2E2E2E2E2E2E2E2E2E2E2E2E2E2E2E2E2E2E2E2E2E2E2E2E2E2E2E2E2E2E2E2E2E2E2E2E2E2E2E2E2E2E2E2E2E2E2
310
E2E2E2E2E2E2E2E2E2E2E2E2E2E2E2E2E2E2E2E2E2E2E2E2E2E2E2E2E2E2E2E2E2E2E2E2E2E2E2E2E2E2E2E2E2E2E2E2E2E2E2E2E2E2E2E2E2E2E2E2E2E2E2E2E2E2E2E2E2E2E2E2E2E2E2E2E2E2E2E2E2E2E2E2E2E2E2E2E2E2E2E2E2E2E2E2E2E2E2E2E2E2E2E2E2E2E2E2E2E2E2E2E2E2E2E2E2E2E2E2E2E2E2E2E2E2E2
310
E2E2E2E2E2E2E2E2E2E2E2E2E2E2E2E2E2E2E2E2E2E2E2E2E2E2E2E2E2E2E2E2E2E2E2E2E2E2E2E2E2E2E2E2E2E2E2E2E2E2E2E2E2E2E2E2E2E2E2E2E2E2E2E2E2E2E2E2E2E2E2E2E2E2E2E2E2E2E2E2E2E2E2E2E2E2E2E2E2E2E2E2E2E2E2E2E2E2E2E2E2E2E2E2E2E2E2E2E2E2E2E2E2E2E2E2E2E2E2E2E2E2E2E2E2E2E2
310
E2E2E2E2E2E2E2E2E2E2E2E2E2E2E2E2E2E2E2E2E2E2E2E2E2E2E2E2E2E2E2E2E2E2E2E2E2E2E2E2E2E2E2E2E2E2E2E2E2E2E2E2E2E2E2E2E2E2E2E2E2E2E2E2E2E2E2E2E2E2E2E2E2E2E2E2E2E2E2E2E2E2E2E2E2E2E2E2E2E2E2E2E2E2E2E2E2E2E2E2E2E2E2E2E2E2E2E2E2E2E2E2E2E2E2E2E2E2E2E2E2E2E2E2E2E2E2
310
E2E2E2E2E2E2E2E2E2E2E2E2E2E2E2E2E2E2E2E2E2E2E2E2E2E2E2E2E2E2E2E2E2E2E2E2E2E2E2E2E2E2E2E2E2E2E2E2E2E2E2E2E2E2E2E2E2E2E2E2E2E2E2E2E2E2E2E2E2E2E2E2E2E2E2E2E2E2E2E2E2E2E2E2E2E2E2E2E2E2E2E2E2E2E2E2E2E2E2E2E2E2E2E2E2E2E2E2E2E2E2E2E2E2E2E2E2E2E2E2E2E2E2E2E2E2E2
310
E2E2E2E2E2E2E2E2E2E2E2E2E2E2E2E2E2E2E2E2E2E2E2E2E2E2E2E2E2E2E2E2E2E2E2E2E2E2E2E2E2E2E2E2E2E2E2E2E2E2E2E2E2E2E2E2E2E2E2E2E2E2E2E2E2E2E2E2E2E2E2E2E2E2E2E2E2E2E2E2E2E2E2E2E2E2E2E2E2E2E2E2E2E2E2E2E2E2E2E2E2E2E2E2E2E2E2E2E2E2E2E2E2E2E2E2E2E2E2E2E2E2E2E2E2E2E2
310
E2E2E2E2E2E2E2E2E2E2E2E2E2E2E2E2E2E2E2E2E2E2E2E2E2E2E2E2E2E2E2E2E2E2E2E2E2E2E2E2E2E2E2E2E2E2E2E2E2E2E2E2E2E2E2E2E2E2E2E2E2E2E2E2E2E2E2E2E2E2E2E2E2E2E2E2E2E2E2E2E2E2E2E2E2E2E2E2E2E2E2E2E2E2E2E2E2E2E2E2E2E2E2E2E2E2E2E2E2E2E2E2E2E2E2E2E2E2E2E2E2E2E2E2E2E2E2
310
E2E2E2E2E2E2E2E2E2E2E2E2E2E2E2E2E2E2E2E2E2E2E2E2E2E2E2E2E2E2E2E2E2E2E2E2E2E2E2E2E2E2E2E2E2E2E2E2E2E2E2E2E2E2E2E2E2E2E2E2E2E2E2E2E2E2E2E2E2E2E2E2E2E2E2E2E2E2E2E2E2E2E2E2E2E2E2E2E2E2E2E2E2E2E2E2E2E2E2E2E2E2E2E2E2E2E2E2E2E2E2E2E2E2E2E2E2E2E2E2E2E2E2E2E2E2E2
310
E2E2E2E2E2E2E2E2E2E2E2E2E2E2E2E2E2E2E2E2E2E2E2E2E2E2E2E2E2E2E2E2E2E2E2E2E2E2E2E2E2E2E2E2E2E2E2E2E2E2E2E2E2E2E2E2E2E2E2E2E2E2E2E2E2E2E2E2E2E2E2E2E2E2E2E2E2E2E2E2E2E2E2E2E2E2E2E2E2E2E2E2E2E2E2E2E2E2E2E2E2E2E2E2E2E2E2E2E2E2E2E2E2E2E2E2E2E2E2E2E2E2E2E2E2E2E2
310
E2E2E2E2E2E2E2E2E2E2E2E2E2E2E2E2E2E2E2E2E2E2E2E2E2E2E2E2E2E2E2E2E2E2E2E2E2E2E2E2E2E2E2E2E2E2E2E2E2E2E2E2E2E2E2E2E2E2E2E2E2E2E2E2E2E2E2E2E2E2E2E2E2E2E2E2E2E2E2E2E2E2E2E2E2E2E2E2E2E2E2E2E2E2E2E2E2E2E2E2E2E2E2E2E2E2E2E2E2E2E2E2E2E2E2E2E2E2E2E2E2E2E2E2E2E2E2
310
E2E2E2E2E2E2E2E2E2E2E2E2E2E2E2E2E2E2E2E2E2E2E2E2E2E2E2E2E2E2E2E2E2E2E2E2E2E2E2E2E2E2E2E2E2E2E2E2E2E2E2E2E2E2E2E2E2E2E2E2E2E2E2E2E2E2E2E2E2E2E2E2E2E2E2E2E2E2E2E2E2E2E2E2E2E2E2E2E2E2E2E2E2E2E2E2E2E2E2E2E2E2E2E2E2E2E2E2E2E2E2E2E2E2E2E2E2E2E2E2E2E2E2E2E2E2E2
310
E2E2E2E2E2E2E2E2E2E2E2E2E2E2E2E2E2E2E2E2E2E2E2E2E2E2E2E2E2E2E2E2E2E2E2E2E2E2E2E2E2E2E2E2E2E2E2E2E2E2E2E2E2E2E2E2E2E2E2E2E2E2E2E2E2E2E2E2E2E2E2E2E2E2E2E2E2E2E2E2E2E2E2E2E2E2E2E2E2E2E2E2E2E2E2E2E2E2E2E2E2E2E2E2E2E2E2E2E2E2E2E2E2E2E2E2E2E2E2E2E2E2E2E2E2E2E2
310
E2E2E2E2E2E2E2E2E2E2E2E2E2E2E2E2E2E2E2E2E2E2E2E2E2E2E2E2E2E2E2E2E2E2E2E2E2E2E2E2E2E2E2E2E2E2E2E2E2E2E2E2E2E2E2E2E2E2E2E2E2E2E2E2E2E2E2E2E2E2E2E2E2E2E2E2E2E2E2E2E2E2E2E2E2E2E2E2E2E2E2E2E2E2E2E2E2E2E2E2E2E2E2E2E2E2E2E2E2E2E2E2E2E2E2E2E2E2E2E2E2E2E2E2E2E2E2
310
E2E2E2E2E2E2E2E2E2E2E2E2E2E2E2E2E2E2E2E2E2E2E2E2E2E2E2E2E2E2E2E2E2E2E2E2E2E2E2E2E2E2E2E2E2E2E2E2E2E2E2E2E2E2E2E2E2E2E2E2E2E2E2E2E2E2E2E2E2E2E2E2E2E2E2E2E2E2E2E2E2E2E2E2E2E2E2E2E2E2E2E2E2E2E2E2E2E2E2E2E2E2E2E2E2E2E2E2E2E2E2E2E2E2E2E2E2E2E2E2E2E2E2E2E2E2E2
310
E2E2E2E2E2E2E2E2E2E2E2E2E2E2E2E2E2E2E2E2E2E2E2E2E2E2E2E2E2E2E2E2E2E2E2E2E2E2E2E2E2E2E2E2E2E2E2E2E2E2E2E2E2E2E2E2E2E2E2E2E2E2E2E2E2E2E2E2E2E2E2E2E2E2E2E2E2E2E2E2E2E2E2E2E2E2E2E2E2E2E2E2E2E2E2E2E2E2E2E2E2E2E2E2E2E2E2E2E2E2E2E2E2E2E2E2E2E2E2E2E2E2E2E2E2E2E2
310
E2E2E2E2E2E2E2E2E2E2E2E2E2E2E2E2E2E2E2E2E2E2E2E2E2E2E2E2E2E2E2E2E2E2E2E2E2E2E2E2E2E2E2E2E2E2E2E2E2E2E2E2E2E2E2E2E2E2E2E2E2E2E2E2E2E2E2E2E2E2E2E2E2E2E2E2E2E2E2E2E2E2E2E2E2E2E2E2E2E2E2E2E2E2E2E2E2E2E2E2E2E2E2E2E2E2E2E2E2E2E2E2E2E2E2E2E2E2E2E2E2E2E2E2E2E2E2
310
E2E2E2E2E2E2E2E2E2E2E2E2E2E2E2E2E2E2E2E2E2E2E2E2E2E2E2E2E2E2E2E2E2E2E2E2E2E2E2E2E2E2E2E2E2E2E2E2E2E2E2E2E2E2E2E2E2E2E2E2E2E2E2E2E2E2E2E2E2E2E2E2E2E2E2E2E2E2E2E2E2E2E2E2E2E2E2E2E2E2E2E2E2E2E2E2E2E2E2E2E2E2E2E2E2E2E2E2E2E2E2E2E2E2E2E2E2E2E2E2E2E2E2E2E2E2E2
310
E2E2E2E2E2E2E2E2E2E2E2E2E2E2E2E2E2E2E2E2E2E2E2E2E2E2E2E2E2E2E2E2E2E2E2E2E2E2E2E2E2E2E2E2E2E2E2E2E2E2E2E2E2E2E2E2E2E2E2E2E2E2E2E2E2E2E2E2E2E2E2E2E2E2E2E2E2E2E2E2E2E2E2E2E2E2E2E2E2E2E2E2E2E2E2E2E2E2E2E2E2E2E2E2E2E2E2E2E2E2E2E2E2E2E2E2E2E2E2E2E2E2E2E2E2E2E2
310
E2E2E2E2E2E2E2E2E2E2E2E2E2E2E2E2E2E2E2E2E2E2E2E2E2E2E2E2E2E2E2E2E2E2E2E2E2E2E2E2E2E2E2E2E2E2E2E2E2E2E2E2E2E2E2E2E2E2E2E2E2E2E2E2E2E2E2E2E2E2E2E2E2E2E2E2E2E2E2E2E2E2E2E2E2E2E2E2E2E2E2E2E2E2E2E2E2E2E2E2E2E2E2E2E2E2E2E2E2E2E2E2E2E2E2E2E2E2E2E2E2E2E2E2E2E2E2
310
E2E2E2E2E2E2E2E2E2E2E2E2E2E2E2E2E2E2E2E2E2E2E2E2E2E2E2E2E2E2E2E2E2E2E2E2E2E2E2E2E2E2E2E2E2E2E2E2E2E2E2E2E2E2E2E2E2E2E2E2E2E2E2E2E2E2E2E2E2E2E2E2E2E2E2E2E2E2E2E2E2E2E2E2E2E2E2E2E2E2E2E2E2E2E2E2E2E2E2E2E2E2E2E2E2E2E2E2E2E2E2E2E2E2E2E2E2E2E2E2E2E2E2E2E2E2E2
310
E2E2E2E2E2E2E2E2E2E2E2E2E2E2E2E2E2E2E2E2E2E2E2E2E2E2E2E2E2E2E2E2E2E2E2E2E2E2E2E2E2E2E2E2E2E2E2E2E2E2E2E2E2E2E2E2E2E2E2E2E2E2E2E2E2E2E2E2E2E2E2E2E2E2E2E2E2E2E2E2E2E2E2E2E2E2E2E2E2E2E2E2E2E2E2E2E2E2E2E2E2E2E2E2E2E2E2E2E2E2E2E2E2E2E2E2E2E2E2E2E2E2E2E2E2E2E2
310
E2E2E2E2E2E2E2E2E2E2E2E2E2E2E2E2E2E2E2E2E2E2E2E2E2E2E2E2E2E2E2E2E2E2E2E2E2E2E2E2E2E2E2E2E2E2E2E2E2E2E2E2E2E2E2E2E2E2E2E2E2E2E2E2E2E2E2E2E2E2E2E2E2E2E2E2E2E2E2E2E2E2E2E2E2E2E2E2E2E2E2E2E2E2E2E2E2E2E2E2E2E2E2E2E2E2E2E2E2E2E2E2E2E2E2E2E2E2E2E2E2E2E2E2E2E2E2
310
E2E2E2E2E2E2E2E2E2E2E2E2E2E2E2E2E2E2E2E2E2E2E2E2E2E2E2E2E2E2E2E2E2E2E2E2E2E2E2E2E2E2E2E2E2E2E2E2E2E2E2E2E2E2E2E2E2E2E2E2E2E2E2E2E2E2E2E2E2E2E2E2E2E2E2E2E2E2E2E2E2E2E2E2E2E2E2E2E2E2E2E2E2E2E2E2E2E2E2E2E2E2E2E2E2E2E2E2E2E2E2E2E2E2E2E2E2E2E2E2E2E2E2E2E2E2E2
310
E2E2E2E2E2E2E2E2E2E2E2E2E2E2E2E2E2E2E2E2E2E2E2E2E2E2E2E2E2E2E2E2E2E2E2E2E2E2E2E2E2E2E2E2E2E2E2E2E2E2E2E2E2E2E2E2E2E2E2E2E2E2E2E2E2E2E2E2E2E2E2E2E2E2E2E2E2E2E2E2E2E2E2E2E2E2E2E2E2E2E2E2E2E2E2E2E2E2E2E2E2E2E2E2E2E2E2E2E2E2E2E2E2E2E2E2E2E2E2E2E2E2E2E2E2E2E2
310
E2E2E2E2E2E2E2E2E2E2E2E2E2E2E2E2E2E2E2E2E2E2E2E2E2E2E2E2E2E2E2E2E2E2E2E2E2E2E2E2E2E2E2E2E2E2E2E2E2E2E2E2E2E2E2E2E2E2E2E2E2E2E2E2E2E2E2E2E2E2E2E2E2E2E2E2E2E2E2E2E2E2E2E2E2E2E2E2E2E2E2E2E2E2E2E2E2E2E2E2E2E2E2E2E2E2E2E2E2E2E2E2E2E2E2E2E2E2E2E2E2E2E2E2E2E2E2
310
E2E2E2E2E2E2E2E2E2E2E2E2E2E2E2E2E2E2E2E2E2E2E2E2E2E2E2E2E2E2E2E2E2E2E2E2E2E2E2E2E2E2E2E2E2E2E2E2E2E2E2E2E2E2E2E2E2E2E2E2E2E2E2E2E2E2E2E2E2E2E2E2E2E2E2E2E2E2E2E2E2E2E2E2E2E2E2E2E2E2E2E2E2E2E2E2E2E2E2E2E2E2E2E2E2E2E2E2E2E2E2E2E2E2E2E2E2E2E2E2E2E2E2E2E2E2E2
310
E2E2E2E2E2E2E2E2E2E2E2E2E2E2E2E2E2E2E2E2E2E2E2E2E2E2E2E2E2E2E2E2E2E2E2E2E2E2E2E2E2E2E2E2E2E2E2E2E2E2E2E2E2E2E2E2E2E2E2E2E2E2E2E2E2E2E2E2E2E2E2E2E2E2E2E2E2E2E2E2E2E2E2E2E2E2E2E2E2E2E2E2E2E2E2E2E2E2E2E2E2E2E2E2E2E2E2E2E2E2E2E2E2E2E2E2E2E2E2E2E2E2E2E2E2E2E2
310
E2E2E2E2E2E2E2E2E2E2E2E2E2E2E2E2E2E2E2E2E2E2E2E2E2E2E2E2E2E2E2E2E2E2E2E2E2E2E2E2E2E2E2E2E2E2E2E2E2E2E2E2E2E2E2E2E2E2E2E2E2E2E2E2E2E2E2E2E2E2E2E2E2E2E2E2E2E2E2E2E2E2E2E2E2E2E2E2E2E2E2E2E2E2E2E2E2E2E2E2E2E2E2E2E2E2E2E2E2E2E2E2E2E2E2E2E2E2E2E2E2E2E2E2E2E2E2
310
E2E2E2E2E2E2E2E2E2E2E2E2E2E2E2E2E2E2E2E2E2E2E2E2E2E2E2E2E2E2E2E2E2E2E2E2E2E2E2E2E2E2E2E2E2E2E2E2E2E2E2E2E2E2E2E2E2E2E2E2E2E2E2E2E2E2E2E2E2E2E2E2E2E2E2E2E2E2E2E2E2E2E2E2E2E2E2E2E2E2E2E2E2E2E2E2E2E2E2E2E2E2E2E2E2E2E2E2E2E2E2E2E2E2E2E2E2E2E2E2E2E2E2E2E2E2E2
310
E2E2E2E2E2E2E2E2E2E2E2E2E2E2E2E2E2E2E2E2E2E2E2E2E2E2E2E2E2E2E2E2E2E2E2E2E2E2E2E2E2E2E2E2E2E2E2E2E2E2E2E2E2E2E2E2E2E2E2E2E2E2E2E2E2E2E2E2E2E2E2E2E2E2E2E2E2E2E2E2E2E2E2E2E2E2E2E2E2E2E2E2E2E2E2E2E2E2E2E2E2E2E2E2E2E2E2E2E2E2E2E2E2E2E2E2E2E2E2E2E2E2E2E2E2E2E2
310
E2E2E2E2E2E2E2E2E2E2E2E2E2E2E2E2E2E2E2E2E2E2E2E2E2E2E2E2E2E2E2E2E2E2E2E2E2E2E2E2E2E2E2E2E2E2E2E2E2E2E2E2E2E2E2E2E2E2E2E2E2E2E2E2E2E2E2E2E2E2E2E2E2E2E2E2E2E2E2E2E2E2E2E2E2E2E2E2E2E2E2E2E2E2E2E2E2E2E2E2E2E2E2E2E2E2E2E2E2E2E2E2E2E2E2E2E2E2E2E2E2E2E2E2E2E2E2
310
E2E2E2E2E2E2E2E2E2E2E2E2E2E2E2E2E2E2E2E2E2E2E2E2E2E2E2E2E2E2E2E2E2E2E2E2E2E2E2E2E2E2E2E2E2E2E2E2E2E2E2E2E2E2E2E2E2E2E2E2E2E2E2E2E2E2E2E2E2E2E2E2E2E2E2E2E2E2E2E2E2E2E2E2E2E2E2E2E2E2E2E2E2E2E2E2E2E2E2E2E2E2E2E2E2E2E2E2E2E2E2E2E2E2E2E2E2E2E2E2E2E2E2E2E2E2E2
310
E2E2E2E2E2E2E2E2E2E2E2E2E2E2E2E2E2E2E2E2E2E2E2E2E2E2E2E2E2E2E2E2E2E2E2E2E2E2E2E2E2E2E2E2E2E2E2E2E2E2E2E2E2E2E2E2E2E2E2E2E2E2E2E2E2E2E2E2E2E2E2E2E2E2E2E2E2E2E2E2E2E2E2E2E2E2E2E2E2E2E2E2E2E2E2E2E2E2E2E2E2E2E2E2E2E2E2E2E2E2E2E2E2E2E2E2E2E2E2E2E2E2E2E2E2E2E2
310
E2E2E2E2E2E2E2E2E2E2E2E2E2E2E2E2E2E2E2E2E2E2E2E2E2E2E2E2E2E2E2E2E2E2E2E2E2E2E2E2E2E2E2E2E2E2E2E2E2E2E2E2E2E2E2E2E2E2E2E2E2E2E2E2E2E2E2E2E2E2E2E2E2E2E2E2E2E2E2E2E2E2E2E2E2E2E2E2E2E2E2E2E2E2E2E2E2E2E2E2E2E2E2E2E2E2E2E2E2E2E2E2E2E2E2E2E2E2E2E2E2E2E2E2E2E2E2
310
E2E2E2E2E2E2E2E2E2E2E2E2E2E2E2E2E2E2E2E2E2E2E2E2E2E2E2E2E2E2E2E2E2E2E2E2E2E2E2E2E2E2E2E2E2E2E2E2E2E2E2E2E2E2E2E2E2E2E2E2E2E2E2E2E2E2E2E2E2E2E2E2E2E2E2E2E2E2E2E2E2E2E2E2E2E2E2E2E2E2E2E2E2E2E2E2E2E2E2E2E2E2E2E2E2E2E2E2E2E2E2E2E2E2E2E2E2E2E2E2E2E2E2E2E2E2E2
310
E2E2E2E2E2E2E2E2E2E2E2E2E2E2E2E2E2E2E2E2E2E2E2E2E2E2E2E2E2E2E2E2E2E2E2E2E2E2E2E2E2E2E2E2E2E2E2E2E2E2E2E2E2E2E2E2E2E2E2E2E2E2E2E2E2E2E2E2E2E2E2E2E2E2E2E2E2E2E2E2E2E2E2E2E2E2E2E2E2E2E2E2E2E2E2E2E2E2E2E2E2E2E2E2E2E2E2E2E2E2E2E2E2E2E2E2E2E2E2E2E2E2E2E2E2E2E2
310
E2E2E2E2E2E2E2E2E2E2E2E2E2E2E2E2E2E2E2E2E2E2E2E2E2E2E2E2E2E2E2E2E2E2E2E2E2E2E2E2E2E2E2E2E2E2E2E2E2E2E2E2E2E2E2E2E2E2E2E2E2E2E2E2E2E2E2E2E2E2E2E2E2E2E2E2E2E2E2E2E2E2E2E2E2E2E2E2E2E2E2E2E2E2E2E2E2E2E2E2E2E2E2E2E2E2E2E2E2E2E2E2E2E2E2E2E2E2E2E2E2E2E2E2E2E2E2
310
E2E2E2E2E2E2E2E2E2E2E2E2E2E2E2E2E2E2E2E2E2E2E2E2E2E2E2E2E2E2E2E2E2E2E2E2E2E2E2E2E2E2E2E2E2E2E2E2E2E2E2E2E2E2E2E2E2E2E2E2E2E2E2E2E2E2E2E2E2E2E2E2E2E2E2E2E2E2E2E2E2E2E2E2E2E2E2E2E2E2E2E2E2E2E2E2E2E2E2E2E2E2E2E2E2E2E2E2E2E2E2E2E2E2E2E2E2E2E2E2E2E2E2E2E2E2E2
310
E2E2E2E2E2E2E2E2E2E2E2E2E2E2E2E2E2E2E2E2E2E2E2E2E2E2E2E2E2E2E2E2E2E2E2E2E2E2E2E2E2E2E2E2E2E2E2E2E2E2E2E2E2E2E2E2E2E2E2E2E2E2E2E2E2E2E2E2E2E2E2E2E2E2E2E2E2E2E2E2E2E2E2E2E2E2E2E2E2E2E2E2E2E2E2E2E2E2E2E2E2E2E2E2E2E2E2E2E2E2E2E2E2E2E2E2E2E2E2E2E2E2E2E2E2E2E2
310
E2E2E2E2E2E2E2E2E2E2E2E2E2E2E2E2E2E2E2E2E2E2E2E2E2E2E2E2E2E2E2E2E2E2E2E2E2E2E2E2E2E2E2E2E2E2E2E2E2E2E2E2E2E2E2E2E2E2E2E2E2E2E2E2E2E2E2E2E2E2E2E2E2E2E2E2E2E2E2E2E2E2E2E2E2E2E2E2E2E2E2E2E2E2E2E2E2E2E2E2E2E2E2E2E2E2E2E2E2E2E2E2E2E2E2E2E2E2E2E2E2E2E2E2E2E2E2
310
E2E2E2E2E2E2E2E2E2E2E2E2E2E2E2E2E2E2E2E2E2E2E2E2E2E2E2E2E2E2E2E2E2E2E2E2E2E2E2E2E2E2E2E2E2E2E2E2E2E2E2E2E2E2E2E2E2E2E2E2E2E2E2E2E2E2E2E2E2E2E2E2E2E2E2E2E2E2E2E2E2E2E2E2E2E2E2E2E2E2E2E2E2E2E2E2E2E2E2E2E2E2E2E2E2E2E2E2E2E2E2E2E2E2E2E2E2E2E2E2E2E2E2E2E2E2E2
310
E2E2E2E2E2E2E2E2E2E2E2E2E2E2E2E2E2E2E2E2E2E2E2E2E2E2E2E2E2E2E2E2E2E2E2E2E2E2E2E2E2E2E2E2E2E2E2E2E2E2E2E2E2E2E2E2E2E2E2E2E2E2E2E2E2E2E2E2E2E2E2E2E2E2E2E2E2E2E2E2E2E2E2E2E2E2E2E2E2E2E2E2E2E2E2E2E2E2E2E2E2E2E2E2E2E2E2E2E2E2E2E2E2E2E2E2E2E2E2E2E2E2E2E2E2E2E2
310
E2E2E2E2E2E2E2E2E2E2E2E2E2E2E2E2E2E2E2E2E2E2E2E2E2E2E2E2E2E2E2E2E2E2E2E2E2E2E2E2E2E2E2E2E2E2E2E2E2E2E2E2E2E2E2E2E2E2E2E2E2E2E2E2E2E2E2E2E2E2E2E2E2E2E2E2E2E2E2E2E2E2E2E2E2E2E2E2E2E2E2E2E2E2E2E2E2E2E2E2E2E2E2E2E2E2E2E2E2E2E2E2E2E2E2E2E2E2E2E2E2E2E2E2E2E2E2
310
E2E2E2E2E2E2E2E2E2E2E2E2E2E2E2E2E2E2E2E2E2E2E2E2E2E2E2E2E2E2E2E2E2E2E2E2E2E2E2E2E2E2E2E2E2E2E2E2E2E2E2E2E2E2E2E2E2E2E2E2E2E2E2E2E2E2E2E2E2E2E2E2E2E2E2E2E2E2E2E2E2E2E2E2E2E2E2E2E2E2E2E2E2E2E2E2E2E2E2E2E2E2E2E2E2E2E2E2E2E2E2E2E2E2E2E2E2E2E2E2E2E2E2E2E2E2E2
310
E2E2E2E2E2E2E2E2E2E2E2E2E2E2E2E2E2E2E2E2E2E2E2E2E2E2E2E2E2E2E2E2E2E2E2E2E2E2E2E2E2E2E2E2E2E2E2E2E2E2E2E2E2E2E2E2E2E2E2E2E2E2E2E2E2E2E2E2E2E2E2E2E2E2E2E2E2E2E2E2E2E2E2E2E2E2E2E2E2E2E2E2E2E2E2E2E2E2E2E2E2E2E2E2E2E2E2E2E2E2E2E2E2E2E2E2E2E2E2E2E2E2E2E2E2E2E2
310
E2E2E2E2E2E2E2E2E2E2E2E2E2E2E2E2E2E2E2E2E2E2E2E2E2E2E2E2E2E2E2E2E2E2E2E2E2E2E2E2E2E2E2E2E2E2E2E2E2E2E2E2E2E2E2E2E2E2E2E2E2E2E2E2E2E2E2E2E2E2E2E2E2E2E2E2E2E2E2E2E2E2E2E2E2E2E2E2E2E2E2E2E2E2E2E2E2E2E2E2E2E2E2E2E2E2E2E2E2E2E2E2E2E2E2E2E2E2E2E2E2E2E2E2E2E2E2
310
E2E2E2E2E2E2E2E2E2E2E2E2E2E2E2E2E2E2E2E2E2E2E2E2E2E2E2E2E2E2E2E2E2E2E2E2E2E2E2E2E2E2E2E2E2E2E2E2E2E2E2E2E2E2E2E2E2E2E2E2E2E2E2E2E2E2E2E2E2E2E2E2E2E2E2E2E2E2E2E2E2E2E2E2E2E2E2E2E2E2E2E2E2E2E2E2E2E2E2E2E2E2E2E2E2E2E2E2E2E2E2E2E2E2E2E2E2E2E2E2E2E2E2E2E2E2E2
310
E2E2E2E2E2E2E2E2E2E2E2E2E2E2E2E2E2E2E2E2E2E2E2E2E2E2E2E2E2E2E2E2E2E2E2E2E2E2E2E2E2E2E2E2E2E2E2E2E2E2E2E2E2E2E2E2E2E2E2E2E2E2E2E2E2E2E2E2E2E2E2E2E2E2E2E2E2E2E2E2E2E2E2E2E2E2E2E2E2E2E2E2E2E2E2E2E2E2E2E2E2E2E2E2E2E2E2E2E2E2E2E2E2E2E2E2E2E2E2E2E2E2E2E2E2E2E2
310
E2E2E2E2E2E2E2E2E2E2E2E2E2E2E2E2E2E2E2E2E2E2E2E2E2E2E2E2E2E2E2E2E2E2E2E2E2E2E2E2E2E2E2E2E2E2E2E2E2E2E2E2E2E2E2E2E2E2E2E2E2E2E2E2E2E2E2E2E2E2E2E2E2E2E2E2E2E2E2E2E2E2E2E2E2E2E2E2E2E2E2E2E2E2E2E2E2E2E2E2E2E2E2E2E2E2E2E2E2E2E2E2E2E2E2E2E2E2E2E2E2E2E2E2E2E2E2
310
E2E2E2E2E2E2E2E2E2E2E2E2E2E2E2E2E2E2E2E2E2E2E2E2E2E2E2E2E2E2E2E2E2E2E2E2E2E2E2E2E2E2E2E2E2E2E2E2E2E2E2E2E2E2E2E2E2E2E2E2E2E2E2E2E2E2E2E2E2E2E2E2E2E2E2E2E2E2E2E2E2E2E2E2E2E2E2E2E2E2E2E2E2E2E2E2E2E2E2E2E2E2E2E2E2E2E2E2E2E2E2E2E2E2E2E2E2E2E2E2E2E2E2E2E2E2E2
310
E2E2E2E2E2E2E2E2E2E2E2E2E2E2E2E2E2E2E2E2E2E2E2E2E2E2E2E2E2E2E2E2E2E2E2E2E2E2E2E2E2E2E2E2E2E2E2E2E2E2E2E2E2E2E2E2E2E2E2E2E2E2E2E2E2E2E2E2E2E2E2E2E2E2E2E2E2E2E2E2E2E2E2E2E2E2E2E2E2E2E2E2E2E2E2E2E2E2E2E2E2E2E2E2E2E2E2E2E2E2E2E2E2E2E2E2E2E2E2E2E2E2E2E2E2E2E2
310
E2E2E2E2E2E2E2E2E2E2E2E2E2E2E2E2E2E2E2E2E2E2E2E2E2E2E2E2E2E2E2E2E2E2E2E2E2E2E2E2E2E2E2E2E2E2E2E2E2E2E2E2E2E2E2E2E2E2E2E2E2E2E2E2E2E2E2E2E2E2E2E2E2E2E2E2E2E2E2E2E2E2E2E2E2E2E2E2E2E2E2E2E2E2E2E2E2E2E2E2E2E2E2E2E2E2E2E2E2E2E2E2E2E2E2E2E2E2E2E2E2E2E2E2E2E2E2
310
E2E2E2E2E2E2E2E2E2E2E2E2E2E2E2E2E2E2E2E2E2E2E2E2E2E2E2E2E2E2E2E2E2E2E2E2E2E2E2E2E2E2E2E2E2E2E2E2E2E2E2E2E2E2E2E2E2E2E2E2E2E2E2E2E2E2E2E2E2E2E2E2E2E2E2E2E2E2E2E2E2E2E2E2E2E2E2E2E2E2E2E2E2E2E2E2E2E2E2E2E2E2E2E2E2E2E2E2E2E2E2E2E2E2E2E2E2E2E2E2E2E2E2E2E2E2E2
310
E2E2E2E2E2E2E2E2E2E2E2E2E2E2E2E2E2E2E2E2E2E2E2E2E2E2E2E2E2E2E2E2E2E2E2E2E2E2E2E2E2E2E2E2E2E2E2E2E2E2E2E2E2E2E2E2E2E2E2E2E2E2E2E2E2E2E2E2E2E2E2E2E2E2E2E2E2E2E2E2E2E2E2E2E2E2E2E2E2E2E2E2E2E2E2E2E2E2E2E2E2E2E2E2E2E2E2E2E2E2E2E2E2E2E2E2E2E2E2E2E2E2E2E2E2E2E2
310
E2E2E2E2E2E2E2E2E2E2E2E2E2E2E2E2E2E2E2E2E2E2E2E2E2E2E2E2E2E2E2E2E2E2E2E2E2E2E2E2E2E2E2E2E2E2E2E2E2E2E2E2E2E2E2E2E2E2E2E2E2E2E2E2E2E2E2E2E2E2E2E2E2E2E2E2E2E2E2E2E2E2E2E2E2E2E2E2E2E2E2E2E2E2E2E2E2E2E2E2E2E2E2E2E2E2E2E2E2E2E2E2E2E2E2E2E2E2E2E2E2E2E2E2E2E2E2
310
E2E2E2E2E2E2E2E2E2E2E2E2E2E2E2E2E2E2E2E2E2E2E2E2E2E2E2E2E2E2E2E2E2E2E2E2E2E2E2E2E2E2E2E2E2E2E2E2E2E2E2E2E2E2E2E2E2E2E2E2E2E2E2E2E2E2E2E2E2E2E2E2E2E2E2E2E2E2E2E2E2E2E2E2E2E2E2E2E2E2E2E2E2E2E2E2E2E2E2E2E2E2E2E2E2E2E2E2E2E2E2E2E2E2E2E2E2E2E2E2E2E2E2E2E2E2E2
310
E2E2E2E2E2E2E2E2E2E2E2E2E2E2E2E2E2E2E2E2E2E2E2E2E2E2E2E2E2E2E2E2E2E2E2E2E2E2E2E2E2E2E2E2E2E2E2E2E2E2E2E2E2E2E2E2E2E2E2E2E2E2E2E2E2E2E2E2E2E2E2E2E2E2E2E2E2E2E2E2E2E2E2E2E2E2E2E2E2E2E2E2E2E2E2E2E2E2E2E2E2E2E2E2E2E2E2E2E2E2E2E2E2E2E2E2E2E2E2E2E2E2E2E2E2E2E2
310
E2E2E2E2E2E2E2E2E2E2E2E2E2E2E2E2E2E2E2E2E2E2E2E2E2E2E2E2E2E2E2E2E2E2E2E2E2E2E2E2E2E2E2E2E2E2E2E2E2E2E2E2E2E2E2E2E2E2E2E2E2E2E2E2E2E2E2E2E2E2E2E2E2E2E2E2E2E2E2E2E2E2E2E2E2E2E2E2E2E2E2E2E2E2E2E2E2E2E2E2E2E2E2E2E2E2E2E2E2E2E2E2E2E2E2E2E2E2E2E2E2E2E2E2E2E2E2
310
E2E2E2E2E2E2E2E2E2E2E2E2E2E2E2E2E2E2E2E2E2E2E2E2E2E2E2E2E2E2E2E2E2E2E2E2E2E2E2E2E2E2E2E2E2E2E2E2E2E2E2E2E2E2E2E2E2E2E2E2E2E2E2E2E2E2E2E2E2E2E2E2E2E2E2E2E2E2E2E2E2E2E2E2E2E2E2E2E2E2E2E2E2E2E2E2E2E2E2E2E2E2E2E2E2E2E2E2E2E2E2E2E2E2E2E2E2E2E2E2E2E2E2E2E2E2E2
310
E2E2E2E2E2E2E2E2E2E2E2E2E2E2E2E2E2E2E2E2E2E2E2E2E2E2E2E2E2E2E2E2E2E2E2E2E2E2E2E2E2E2E2E2E2E2E2E2E2E2E2E2E2E2E2E2E2E2E2E2E2E2E2E2E2E2E2E2E2E2E2E2E2E2E2E2E2E2E2E2E2E2E2E2E2E2E2E2E2E2E2E2E2E2E2E2E2E2E2E2E2E2E2E2E2E2E2E2E2E2E2E2E2E2E2E2E2E2E2E2E2E2E2E2E2E2E2
310
E2E2E2E2E2E2E2E2E2E2E2E2E2E2E2E2E2E2E2E2E2E2E2E2E2E2E2E2E2E2E2E2E2E2E2E2E2E2E2E2E2E2E2E2E2E2E2E2E2E2E2E2E2E2E2E2E2E2E2E2E2E2E2E2E2E2E2E2E2E2E2E2E2E2E2E2E2E2E2E2E2E2E2E2E2E2E2E2E2E2E2E2E2E2E2E2E2E2E2E2E2E2E2E2E2E2E2E2E2E2E2E2E2E2E2E2E2E2E2E2E2E2E2E2E2E2E2
310
E2E2E2E2E2E2E2E2E2E2E2E2E2E2E2E2E2E2E2E2E2E2E2E2E2E2E2E2E2E2E2E2E2E2E2E2E2E2E2E2E2E2E2E2E2E2E2E2E2E2E2E2E2E2E2E2E2E2E2E2E2E2E2E2E2E2E2E2E2E2E2E2E2E2E2E2E2E2E2E2E2E2E2E2E2E2E2E2E2E2E2E2E2E2E2E2E2E2E2E2E2E2E2E2E2E2E2E2E2E2E2E2E2E2E2E2E2E2E2E2E2E2E2E2E2E2E2
310
E2E2E2E2E2E2E2E2E2E2E2E2E2E2E2E2E2E2E2E2E2E2E2E2E2E2E2E2E2E2E2E2E2E2E2E2E2E2E2E2E2E2E2E2E2E2E2E2E2E2E2E2E2E2E2E2E2E2E2E2E2E2E2E2E2E2E2E2E2E2E2E2E2E2E2E2E2E2E2E2E2E2E2E2E2E2E2E2E2E2E2E2E2E2E2E2E2E2E2E2E2E2E2E2E2E2E2E2E2E2E2E2E2E2E2E2E2E2E2E2E2E2E2E2E2E2E2
310
E2E2E2E2E2E2E2E2E2E2E2E2E2E2E2E2E2E2E2E2E2E2E2E2E2E2E2E2E2E2E2E2E2E2E2E2E2E2E2E2E2E2E2E2E2E2E2E2E2E2E2E2E2E2E2E2E2E2E2E2E2E2E2E2E2E2E2E2E2E2E2E2E2E2E2E2E2E2E2E2E2E2E2E2E2E2E2E2E2E2E2E2E2E2E2E2E2E2E2E2E2E2E2E2E2E2E2E2E2E2E2E2E2E2E2E2E2E2E2E2E2E2E2E2E2E2E2
310
E2E2E2E2E2E2E2E2E2E2E2E2E2E2E2E2E2E2E2E2E2E2E2E2E2E2E2E2E2E2E2E2E2E2E2E2E2E2E2E2E2E2E2E2E2E2E2E2E2E2E2E2E2E2E2E2E2E2E2E2E2E2E2E2E2E2E2E2E2E2E2E2E2E2E2E2E2E2E2E2E2E2E2E2E2E2E2E2E2E2E2E2E2E2E2E2E2E2E2E2E2E2E2E2E2E2E2E2E2E2E2E2E2E2E2E2E2E2E2E2E2E2E2E2E2E2E2
310
E2E2E2E2E2E2E2E2E2E2E2E2E2E2E2E2E2E2E2E2E2E2E2E2E2E2E2E2E2E2E2E2E2E2E2E2E2E2E2E2E2E2E2E2E2E2E2E2E2E2E2E2E2E2E2E2E2E2E2E2E2E2E2E2E2E2E2E2E2E2E2E2E2E2E2E2E2E2E2E2E2E2E2E2E2E2E2E2E2E2E2E2E2E2E2E2E2E2E2E2E2E2E2E2E2E2E2E2E2E2E2E2E2E2E2E2E2E2E2E2E2E2E2E2E2E2E2
310
E2E2E2E2E2E2E2E2E2E2E2E2E2E2E2E2E2E2E2E2E2E2E2E2E2E2E2E2E2E2E2E2E2E2E2E2E2E2E2E2E2E2E2E2E2E2E2E2E2E2E2E2E2E2E2E2E2E2E2E2E2E2E2E2E2E2E2E2E2E2E2E2E2E2E2E2E2E2E2E2E2E2E2E2E2E2E2E2E2E2E2E2E2E2E2E2E2E2E2E2E2E2E2E2E2E2E2E2E2E2E2E2E2E2E2E2E2E2E2E2E2E2E2E2E2E2E2
310
E2E2E2E2E2E2E2E2E2E2E2E2E2E2E2E2E2E2E2E2E2E2E2E2E2E2E2E2E2E2E2E2E2E2E2E2E2E2E2E2E2E2E2E2E2E2E2E2E2E2E2E2E2E2E2E2E2E2E2E2E2E2E2E2E2E2E2E2E2E2E2E2E2E2E2E2E2E2E2E2E2E2E2E2E2E2E2E2E2E2E2E2E2E2E2E2E2E2E2E2E2E2E2E2E2E2E2E2E2E2E2E2E2E2E2E2E2E2E2E2E2E2E2E2E2E2E2
310
E2E2E2E2E2E2E2E2E2E2E2E2E2E2E2E2E2E2E2E2E2E2E2E2E2E2E2E2E2E2E2E2E2E2E2E2E2E2E2E2E2E2E2E2E2E2E2E2E2E2E2E2E2E2E2E2E2E2E2E2E2E2E2E2E2E2E2E2E2E2E2E2E2E2E2E2E2E2E2E2E2E2E2E2E2E2E2E2E2E2E2E2E2E2E2E2E2E2E2E2E2E2E2E2E2E2E2E2E2E2E2E2E2E2E2E2E2E2E2E2E2E2E2E2E2E2E2
310
E2E2E2E2E2E2E2E2E2E2E2E2E2E2E2E2E2E2E2E2E2E2E2E2E2E2E2E2E2E2E2E2E2E2E2E2E2E2E2E2E2E2E2E2E2E2E2E2E2E2E2E2E2E2E2E2E2E2E2E2E2E2E2E2E2E2E2E2E2E2E2E2E2E2E2E2E2E2E2E2E2E2E2E2E2E2E2E2E2E2E2E2E2E2E2E2E2E2E2E2E2E2E2E2E2E2E2E2E2E2E2E2E2E2E2E2E2E2E2E2E2E2E2E2E2E2E2
310
E2E2E2E2E2E2E2E2E2E2E2E2E2E2E2E2E2E2E2E2E2E2E2E2E2E2E2E2E2E2E2E2E2E2E2E2E2E2E2E2E2E2E2E2E2E2E2E2E2E2E2E2E2E2E2E2E2E2E2E2E2E2E2E2E2E2E2E2E2E2E2E2E2E2E2E2E2E2E2E2E2E2E2E2E2E2E2E2E2E2E2E2E2E2E2E2E2E2E2E2E2E2E2E2E2E2E2E2E2E2E2E2E2E2E2E2E2E2E2E2E2E2E2E2E2E2E2
310
E2E2E2E2E2E2E2E2E2E2E2E2E2E2E2E2E2E2E2E2E2E2E2E2E2E2E2E2E2E2E2E2E2E2E2E2E2E2E2E2E2E2E2E2E2E2E2E2E2E2E2E2E2E2E2E2E2E2E2E2E2E2E2E2E2E2E2E2E2E2E2E2E2E2E2E2E2E2E2E2E2E2E2E2E2E2E2E2E2E2E2E2E2E2E2E2E2E2E2E2E2E2E2E2E2E2E2E2E2E2E2E2E2E2E2E2E2E2E2E2E2E2E2E2E2E2E2
310
E2E2E2E2E2E2E2E2E2E2E2E2E2E2E2E2E2E2E2E2E2E2E2E2E2E2E2E2E2E2E2E2E2E2E2E2E2E2E2E2E2E2E2E2E2E2E2E2E2E2E2E2E2E2E2E2E2E2E2E2E2E2E2E2E2E2E2E2E2E2E2E2E2E2E2E2E2E2E2E2E2E2E2E2E2E2E2E2E2E2E2E2E2E2E2E2E2E2E2E2E2E2E2E2E2E2E2E2E2E2E2E2E2E2E2E2E2E2E2E2E2E2E2E2E2E2E2
310
E2E2E2E2E2E2E2E2E2E2E2E2E2E2E2E2E2E2E2E2E2E2E2E2E2E2E2E2E2E2E2E2E2E2E2E2E2E2E2E2E2E2E2E2E2E2E2E2E2E2E2E2E2E2E2E2E2E2E2E2E2E2E2E2E2E2E2E2E2E2E2E2E2E2E2E2E2E2E2E2E2E2E2E2E2E2E2E2E2E2E2E2E2E2E2E2E2E2E2E2E2E2E2E2E2E2E2E2E2E2E2E2E2E2E2E2E2E2E2E2E2E2E2E2E2E2E2
310
E2E2E2E2E2E2E2E2E2E2E2E2E2E2E2E2E2E2E2E2E2E2E2E2E2E2E2E2E2E2E2E2E2E2E2E2E2E2E2E2E2E2E2E2E2E2E2E2E2E2E2E2E2E2E2E2E2E2E2E2E2E2E2E2E2E2E2E2E2E2E2E2E2E2E2E2E2E2E2E2E2E2E2E2E2E2E2E2E2E2E2E2E2E2E2E2E2E2E2E2E2E2E2E2E2E2E2E2E2E2E2E2E2E2E2E2E2E2E2E2E2E2E2E2E2E2E2
310
E2E2E2E2E2E2E2E2E2E2E2E2E2E2E2E2E2E2E2E2E2E2E2E2E2E2E2E2E2E2E2E2E2E2E2E2E2E2E2E2E2E2E2E2E2E2E2E2E2E2E2E2E2E2E2E2E2E2E2E2E2E2E2E2E2E2E2E2E2E2E2E2E2E2E2E2E2E2E2E2E2E2E2E2E2E2E2E2E2E2E2E2E2E2E2E2E2E2E2E2E2E2E2E2E2E2E2E2E2E2E2E2E2E2E2E2E2E2E2E2E2E2E2E2E2E2E2
310
E2E2E2E2E2E2E2E2E2E2E2E2E2E2E2E2E2E2E2E2E2E2E2E2E2E2E2E2E2E2E2E2E2E2E2E2E2E2E2E2E2E2E2E2E2E2E2E2E2E2E2E2E2E2E2E2E2E2E2E2E2E2E2E2E2E2E2E2E2E2E2E2E2E2E2E2E2E2E2E2E2E2E2E2E2E2E2E2E2E2E2
  0
XRECORD
  5
B71
102
{ACAD_REACTORS
330
46
102
}
330
46
100
AcDbXrecord
280
     1
102
MATERIAL
148
0.0
149
0.0
149
0.0
 93
        0
 94
      127
282
     0
 72
     0
 77
     0
171
     0
175
     0
179
     0
273
     0
  0
XRECORD
  5
47
102
{ACAD_REACTORS
330
46
102
}
330
46
100
AcDbXrecord
280
     1
270
     1
271
     1
  0
XRECORD
  5
48
102
{ACAD_REACTORS
330
46
102
}
330
46
100
AcDbXrecord
280
     1
270
     1
271
     1
  0
XRECORD
  5
49
102
{ACAD_REACTORS
330
46
102
}
330
46
100
AcDbXrecord
280
     1
270
     1
271
     1
  0
XRECORD
  5
4A
102
{ACAD_REACTORS
330
46
102
}
330
46
100
AcDbXrecord
280
     1
270
     1
271
     1
  0
XRECORD
  5
4B
102
{ACAD_REACTORS
330
46
102
}
330
46
100
AcDbXrecord
280
     1
270
     1
271
     1
  0
XRECORD
  5
4C
102
{ACAD_REACTORS
330
46
102
}
330
46
100
AcDbXrecord
280
     1
270
     1
271
     1
  0
XRECORD
  5
B70
102
{ACAD_REACTORS
330
3E
102
}
330
3E
100
AcDbXrecord
280
     1
102
MATERIAL
148
0.0
149
0.0
149
0.0
 93
        0
 94
      127
282
     0
 72
     0
 77
     0
171
     0
175
     0
179
     0
273
     0
  0
XRECORD
  5
3F
102
{ACAD_REACTORS
330
3E
102
}
330
3E
100
AcDbXrecord
280
     1
270
     1
271
     1
  0
XRECORD
  5
40
102
{ACAD_REACTORS
330
3E
102
}
330
3E
100
AcDbXrecord
280
     1
270
     1
271
     1
  0
XRECORD
  5
41
102
{ACAD_REACTORS
330
3E
102
}
330
3E
100
AcDbXrecord
280
     1
270
     1
271
     1
  0
XRECORD
  5
42
102
{ACAD_REACTORS
330
3E
102
}
330
3E
100
AcDbXrecord
280
     1
270
     1
271
     1
  0
XRECORD
  5
43
102
{ACAD_REACTORS
330
3E
102
}
330
3E
100
AcDbXrecord
280
     1
270
     1
271
     1
  0
XRECORD
  5
44
102
{ACAD_REACTORS
330
3E
102
}
330
3E
100
AcDbXrecord
280
     1
270
     1
271
     1
  0
XRECORD
  5
B69
102
{ACAD_REACTORS
330
D
102
}
330
D
100
AcDbXrecord
280
     1
102
MATERIAL
148
0.0
149
0.0
149
0.0
 93
        0
 94
      127
282
     0
 72
     0
 77
     0
171
     0
175
     0
179
     0
273
     0
  0
XRECORD
  5
E
102
{ACAD_REACTORS
330
D
102
}
330
D
100
AcDbXrecord
280
     1
270
     1
271
     1
  0
XRECORD
  5
F
102
{ACAD_REACTORS
330
D
102
}
330
D
100
AcDbXrecord
280
     1
270
     1
271
     1
  0
XRECORD
  5
10
102
{ACAD_REACTORS
330
D
102
}
330
D
100
AcDbXrecord
280
     1
270
     1
271
     1
  0
XRECORD
  5
11
102
{ACAD_REACTORS
330
D
102
}
330
D
100
AcDbXrecord
280
     1
270
     1
271
     1
  0
XRECORD
  5
12
102
{ACAD_REACTORS
330
D
102
}
330
D
100
AcDbXrecord
280
     1
270
     1
271
     1
  0
XRECORD
  5
13
102
{ACAD_REACTORS
330
D
102
}
330
D
100
AcDbXrecord
280
     1
270
     1
271
     1
  0
CELLSTYLEMAP
  5
123C
102
{ACAD_REACTORS
330
B00
102
}
330
B00
100
AcDbCellStyleMap
 90
        3
300
CELLSTYLE
  1
TABLEFORMAT_BEGIN
 90
        5
170
     1
 91
        0
 92
    32768
 62
   257
 93
        1
300
CONTENTFORMAT
  1
CONTENTFORMAT_BEGIN
 90
        0
 91
        0
 92
        4
 93
        0
300

 40
0.0
140
1.0
 94
        5
 62
     0
340
23
144
6.0
309
CONTENTFORMAT_END
171
     1
301
MARGIN
  1
CELLMARGIN_BEGIN
 40
1.5
 40
1.5
 40
1.5
 40
1.5
 40
0.18
 40
0.18
309
CELLMARGIN_END
 94
        6
 95
        1
302
GRIDFORMAT
  1
GRIDFORMAT_BEGIN
 90
        0
 91
        1
 62
     0
 92
       -2
340
0
 93
        0
 40
0.045
309
GRIDFORMAT_END
 95
        2
302
GRIDFORMAT
  1
GRIDFORMAT_BEGIN
 90
        0
 91
        1
 62
     0
 92
       -2
340
0
 93
        0
 40
0.045
309
GRIDFORMAT_END
 95
        4
302
GRIDFORMAT
  1
GRIDFORMAT_BEGIN
 90
        0
 91
        1
 62
     0
 92
       -2
340
0
 93
        0
 40
0.045
309
GRIDFORMAT_END
 95
        8
302
GRIDFORMAT
  1
GRIDFORMAT_BEGIN
 90
        0
 91
        1
 62
     0
 92
       -2
340
0
 93
        0
 40
0.045
309
GRIDFORMAT_END
 95
       16
302
GRIDFORMAT
  1
GRIDFORMAT_BEGIN
 90
        0
 91
        1
 62
     0
 92
       -2
340
0
 93
        0
 40
0.045
309
GRIDFORMAT_END
 95
       32
302
GRIDFORMAT
  1
GRIDFORMAT_BEGIN
 90
        0
 91
        1
 62
     0
 92
       -2
340
0
 93
        0
 40
0.045
309
GRIDFORMAT_END
309
TABLEFORMAT_END
  1
CELLSTYLE_BEGIN
 90
        1
 91
        1
300
_TITLE
309
CELLSTYLE_END
300
CELLSTYLE
  1
TABLEFORMAT_BEGIN
 90
        5
170
     1
 91
        0
 92
        0
 62
   257
 93
        1
300
CONTENTFORMAT
  1
CONTENTFORMAT_BEGIN
 90
        0
 91
        0
 92
        4
 93
        0
300

 40
0.0
140
1.0
 94
        5
 62
     0
340
23
144
4.5
309
CONTENTFORMAT_END
171
     1
301
MARGIN
  1
CELLMARGIN_BEGIN
 40
1.5
 40
1.5
 40
1.5
 40
1.5
 40
0.18
 40
0.18
309
CELLMARGIN_END
 94
        6
 95
        1
302
GRIDFORMAT
  1
GRIDFORMAT_BEGIN
 90
        0
 91
        1
 62
     0
 92
       -2
340
0
 93
        0
 40
0.045
309
GRIDFORMAT_END
 95
        2
302
GRIDFORMAT
  1
GRIDFORMAT_BEGIN
 90
        0
 91
        1
 62
     0
 92
       -2
340
0
 93
        0
 40
0.045
309
GRIDFORMAT_END
 95
        4
302
GRIDFORMAT
  1
GRIDFORMAT_BEGIN
 90
        0
 91
        1
 62
     0
 92
       -2
340
0
 93
        0
 40
0.045
309
GRIDFORMAT_END
 95
        8
302
GRIDFORMAT
  1
GRIDFORMAT_BEGIN
 90
        0
 91
        1
 62
     0
 92
       -2
340
0
 93
        0
 40
0.045
309
GRIDFORMAT_END
 95
       16
302
GRIDFORMAT
  1
GRIDFORMAT_BEGIN
 90
        0
 91
        1
 62
     0
 92
       -2
340
0
 93
        0
 40
0.045
309
GRIDFORMAT_END
 95
       32
302
GRIDFORMAT
  1
GRIDFORMAT_BEGIN
 90
        0
 91
        1
 62
     0
 92
       -2
340
0
 93
        0
 40
0.045
309
GRIDFORMAT_END
309
TABLEFORMAT_END
  1
CELLSTYLE_BEGIN
 90
        2
 91
        1
300
_HEADER
309
CELLSTYLE_END
300
CELLSTYLE
  1
TABLEFORMAT_BEGIN
 90
        5
170
     1
 91
        0
 92
        0
 62
   257
 93
        1
300
CONTENTFORMAT
  1
CONTENTFORMAT_BEGIN
 90
        0
 91
        0
 92
        4
 93
        0
300

 40
0.0
140
1.0
 94
        2
 62
     0
340
23
144
4.5
309
CONTENTFORMAT_END
171
     1
301
MARGIN
  1
CELLMARGIN_BEGIN
 40
1.5
 40
1.5
 40
1.5
 40
1.5
 40
0.18
 40
0.18
309
CELLMARGIN_END
 94
        6
 95
        1
302
GRIDFORMAT
  1
GRIDFORMAT_BEGIN
 90
        0
 91
        1
 62
     0
 92
       -2
340
0
 93
        0
 40
0.045
309
GRIDFORMAT_END
 95
        2
302
GRIDFORMAT
  1
GRIDFORMAT_BEGIN
 90
        0
 91
        1
 62
     0
 92
       -2
340
0
 93
        0
 40
0.045
309
GRIDFORMAT_END
 95
        4
302
GRIDFORMAT
  1
GRIDFORMAT_BEGIN
 90
        0
 91
        1
 62
     0
 92
       -2
340
0
 93
        0
 40
0.045
309
GRIDFORMAT_END
 95
        8
302
GRIDFORMAT
  1
GRIDFORMAT_BEGIN
 90
        0
 91
        1
 62
     0
 92
       -2
340
0
 93
        0
 40
0.045
309
GRIDFORMAT_END
 95
       16
302
GRIDFORMAT
  1
GRIDFORMAT_BEGIN
 90
        0
 91
        1
 62
     0
 92
       -2
340
0
 93
        0
 40
0.045
309
GRIDFORMAT_END
 95
       32
302
GRIDFORMAT
  1
GRIDFORMAT_BEGIN
 90
        0
 91
        1
 62
     0
 92
       -2
340
0
 93
        0
 40
0.045
309
GRIDFORMAT_END
309
TABLEFORMAT_END
  1
CELLSTYLE_BEGIN
 90
        3
 91
        2
300
_DATA
309
CELLSTYLE_END
  0
XRECORD
  5
1245
102
{ACAD_REACTORS
330
B00
102
}
330
B00
100
AcDbXrecord
280
     1
102
ACAD_ROUNDTRIP_PRE2007_TABLESTYLE
 90
        4
 91
        0
  1

 92
        4
 93
        0
  2

 94
        4
 95
        0
  3

  0
ENDSEC
  0
EOF
