  0
SECTION
  2
HEADER
  9
$ACADVER
  1
AC1015
  9
$ACADMAINTVER
 70
    20
  9
$DWGCODEPAGE
  3
ANSI_932
  9
$INSBASE
 10
0.0
 20
0.0
 30
0.0
  9
$EXTMIN
 10
3223.847402477544
 20
-3034.631963648512
 30
-0.00000001
  9
$EXTMAX
 10
8429.729519911417
 20
866.7252450141875
 30
0.00000001
  9
$LIMMIN
 10
0.0
 20
0.0
  9
$LIMMAX
 10
420.0
 20
297.0
  9
$ORTHOMODE
 70
     1
  9
$REGENMODE
 70
     1
  9
$FILLMODE
 70
     1
  9
$QTEXTMODE
 70
     0
  9
$MIRRTEXT
 70
     1
  9
$LTSCALE
 40
1.0
  9
$ATTMODE
 70
     1
  9
$TEXTSIZE
 40
62.5215949741746
  9
$TRACEWID
 40
1.0
  9
$TEXTSTYLE
  7
STANDARD
  9
$CLAYER
  8
0
  9
$CELTYPE
  6
BYLAYER
  9
$CECOLOR
 62
   256
  9
$CELTSCALE
 40
1.0
  9
$DISPSILH
 70
     0
  9
$DIMSCALE
 40
5.0
  9
$DIMASZ
 40
2.0
  9
$DIMEXO
 40
1.0
  9
$DIMDLI
 40
3.75
  9
$DIMRND
 40
0.5
  9
$DIMDLE
 40
0.0
  9
$DIMEXE
 40
1.0
  9
$DIMTP
 40
0.0
  9
$DIMTM
 40
0.0
  9
$DIMTXT
 40
2.0
  9
$DIMCEN
 40
2.5
  9
$DIMTSZ
 40
0.0
  9
$DIMTOL
 70
     0
  9
$DIMLIM
 70
     0
  9
$DIMTIH
 70
     0
  9
$DIMTOH
 70
     0
  9
$DIMSE1
 70
     0
  9
$DIMSE2
 70
     0
  9
$DIMTAD
 70
     1
  9
$DIMZIN
 70
     8
  9
$DIMBLK
  1

  9
$DIMASO
 70
     1
  9
$DIMSHO
 70
     1
  9
$DIMPOST
  1

  9
$DIMAPOST
  1

  9
$DIMALT
 70
     0
  9
$DIMALTD
 70
     4
  9
$DIMALTF
 40
0.0394
  9
$DIMLFAC
 40
1.0
  9
$DIMTOFL
 70
     1
  9
$DIMTVP
 40
0.0
  9
$DIMTIX
 70
     0
  9
$DIMSOXD
 70
     0
  9
$DIMSAH
 70
     1
  9
$DIMBLK1
  1
OPEN30
  9
$DIMBLK2
  1
OPEN30
  9
$DIMSTYLE
  2
STANDARD
  9
$DIMCLRD
 70
     0
  9
$DIMCLRE
 70
     0
  9
$DIMCLRT
 70
     0
  9
$DIMTFAC
 40
1.0
  9
$DIMGAP
 40
1.0
  9
$DIMJUST
 70
     0
  9
$DIMSD1
 70
     0
  9
$DIMSD2
 70
     0
  9
$DIMTOLJ
 70
     1
  9
$DIMTZIN
 70
     8
  9
$DIMALTZ
 70
     0
  9
$DIMALTTZ
 70
     0
  9
$DIMUPT
 70
     0
  9
$DIMDEC
 70
     1
  9
$DIMTDEC
 70
     1
  9
$DIMALTU
 70
     8
  9
$DIMALTTD
 70
     4
  9
$DIMTXSTY
  7
STANDARD
  9
$DIMAUNIT
 70
     0
  9
$DIMADEC
 70
     0
  9
$DIMALTRND
 40
0.0
  9
$DIMAZIN
 70
     0
  9
$DIMDSEP
 70
    46
  9
$DIMATFIT
 70
     3
  9
$DIMFRAC
 70
     0
  9
$DIMLDRBLK
  1
OPEN30
  9
$DIMLUNIT
 70
     2
  9
$DIMLWD
 70
    -2
  9
$DIMLWE
 70
    -2
  9
$DIMTMOVE
 70
     0
  9
$LUNITS
 70
     2
  9
$LUPREC
 70
     4
  9
$SKETCHINC
 40
1.0
  9
$FILLETRAD
 40
10.0
  9
$AUNITS
 70
     0
  9
$AUPREC
 70
     0
  9
$MENU
  1
.
  9
$ELEVATION
 40
0.0
  9
$PELEVATION
 40
0.0
  9
$THICKNESS
 40
0.0
  9
$LIMCHECK
 70
     0
  9
$CHAMFERA
 40
10.0
  9
$CHAMFERB
 40
10.0
  9
$CHAMFERC
 40
20.0
  9
$CHAMFERD
 40
0.0
  9
$SKPOLY
 70
     0
  9
$TDCREATE
 40
2451324.468257373
  9
$TDUCREATE
 40
2451324.093257373
  9
$TDUPDATE
 40
2454987.674160301
  9
$TDUUPDATE
 40
2454987.299160301
  9
$TDINDWG
 40
2.0773551505
  9
$TDUSRTIMER
 40
2.0773549769
  9
$USRTIMER
 70
     1
  9
$ANGBASE
 50
0.0
  9
$ANGDIR
 70
     0
  9
$PDMODE
 70
     0
  9
$PDSIZE
 40
0.0
  9
$PLINEWID
 40
0.0
  9
$SPLFRAME
 70
     0
  9
$SPLINETYPE
 70
     6
  9
$SPLINESEGS
 70
     8
  9
$HANDSEED
  5
C94
  9
$SURFTAB1
 70
     6
  9
$SURFTAB2
 70
     6
  9
$SURFTYPE
 70
     6
  9
$SURFU
 70
     6
  9
$SURFV
 70
     6
  9
$UCSBASE
  2

  9
$UCSNAME
  2

  9
$UCSORG
 10
0.0
 20
0.0
 30
0.0
  9
$UCSXDIR
 10
1.0
 20
0.0
 30
0.0
  9
$UCSYDIR
 10
0.0
 20
1.0
 30
0.0
  9
$UCSORTHOREF
  2

  9
$UCSORTHOVIEW
 70
     0
  9
$UCSORGTOP
 10
0.0
 20
0.0
 30
0.0
  9
$UCSORGBOTTOM
 10
0.0
 20
0.0
 30
0.0
  9
$UCSORGLEFT
 10
0.0
 20
0.0
 30
0.0
  9
$UCSORGRIGHT
 10
0.0
 20
0.0
 30
0.0
  9
$UCSORGFRONT
 10
0.0
 20
0.0
 30
0.0
  9
$UCSORGBACK
 10
0.0
 20
0.0
 30
0.0
  9
$PUCSBASE
  2

  9
$PUCSNAME
  2

  9
$PUCSORG
 10
0.0
 20
0.0
 30
0.0
  9
$PUCSXDIR
 10
1.0
 20
0.0
 30
0.0
  9
$PUCSYDIR
 10
0.0
 20
1.0
 30
0.0
  9
$PUCSORTHOREF
  2

  9
$PUCSORTHOVIEW
 70
     0
  9
$PUCSORGTOP
 10
0.0
 20
0.0
 30
0.0
  9
$PUCSORGBOTTOM
 10
0.0
 20
0.0
 30
0.0
  9
$PUCSORGLEFT
 10
0.0
 20
0.0
 30
0.0
  9
$PUCSORGRIGHT
 10
0.0
 20
0.0
 30
0.0
  9
$PUCSORGFRONT
 10
0.0
 20
0.0
 30
0.0
  9
$PUCSORGBACK
 10
0.0
 20
0.0
 30
0.0
  9
$USERI1
 70
     0
  9
$USERI2
 70
     0
  9
$USERI3
 70
     0
  9
$USERI4
 70
     0
  9
$USERI5
 70
     0
  9
$USERR1
 40
0.0
  9
$USERR2
 40
0.0
  9
$USERR3
 40
0.0
  9
$USERR4
 40
0.0
  9
$USERR5
 40
0.0
  9
$WORLDVIEW
 70
     1
  9
$SHADEDGE
 70
     3
  9
$SHADEDIF
 70
    70
  9
$TILEMODE
 70
     1
  9
$MAXACTVP
 70
    48
  9
$PINSBASE
 10
0.0
 20
0.0
 30
0.0
  9
$PLIMCHECK
 70
     0
  9
$PEXTMIN
 10
-842.1915950735103
 20
-3910.680246610196
 30
0.0
  9
$PEXTMAX
 10
5613.482663929062
 20
1530.761503371046
 30
0.0
  9
$PLIMMIN
 10
0.0
 20
0.0
  9
$PLIMMAX
 10
12.0
 20
9.0
  9
$UNITMODE
 70
     0
  9
$VISRETAIN
 70
     1
  9
$PLINEGEN
 70
     0
  9
$PSLTSCALE
 70
     1
  9
$TREEDEPTH
 70
  3020
  9
$CMLSTYLE
  2
STANDARD
  9
$CMLJUST
 70
     0
  9
$CMLSCALE
 40
20.0
  9
$PROXYGRAPHICS
 70
     1
  9
$MEASUREMENT
 70
     1
  9
$CELWEIGHT
370
    -1
  9
$ENDCAPS
280
     0
  9
$JOINSTYLE
280
     0
  9
$LWDISPLAY
290
     0
  9
$INSUNITS
 70
     0
  9
$HYPERLINKBASE
  1

  9
$STYLESHEET
  1

  9
$XEDIT
290
     1
  9
$CEPSNTYPE
380
     0
  9
$PSTYLEMODE
290
     1
  9
$FINGERPRINTGUID
  2
{50A9CE88-EFF6-485D-953F-CE5FE848F266}
  9
$VERSIONGUID
  2
{7D0C898B-EC1F-4BE6-9042-2A8D7BFB3592}
  9
$EXTNAMES
290
     1
  9
$PSVPSCALE
 40
0.0
  9
$OLESTARTUP
290
     0
  0
ENDSEC
  0
SECTION
  2
CLASSES
  0
CLASS
  1
LWPOLYLINE
  2
AcDbPolyline
  3
ObjectDBX Classes
 90
        0
280
     0
281
     1
  0
CLASS
  1
ACDBDICTIONARYWDFLT
  2
AcDbDictionaryWithDefault
  3
ObjectDBX Classes
 90
        0
280
     0
281
     0
  0
CLASS
  1
ACDBPLACEHOLDER
  2
AcDbPlaceHolder
  3
ObjectDBX Classes
 90
        0
280
     0
281
     0
  0
CLASS
  1
LAYOUT
  2
AcDbLayout
  3
ObjectDBX Classes
 90
        0
280
     0
281
     0
  0
CLASS
  1
ACME_DOCUMENT
  2
AcMeDbDoc
  3
AcMeServices
 90
    33792
280
     0
281
     0
  0
CLASS
  1
AMGSETTINGSOBJ
  2
AmgSettingsObj
  3
"AcadM|Product Description: AutoCAD Mechanical|Company: Autodesk, Inc."
 90
    33792
280
     0
281
     0
  0
CLASS
  1
ACMESCOPE
  2
AcMeScope
  3
AcMeServices
 90
    33792
280
     0
281
     0
  0
CLASS
  1
ACMECOMMANDHISTORY
  2
AcMeCommandHistory
  3
AcMeServices
 90
    33792
280
     0
281
     0
  0
CLASS
  1
DICTIONARYVAR
  2
AcDbDictionaryVar
  3
ObjectDBX Classes
 90
        0
280
     0
281
     0
  0
CLASS
  1
ACIMSYSVARMAN
  2
AcImSysVarManager
  3
AcMeServices
 90
    33792
280
     0
281
     0
  0
CLASS
  1
ACIMREALSYSVAR
  2
AcImRealSysVar
  3
AcMeServices
 90
    33792
280
     0
281
     0
  0
CLASS
  1
ACIMINTSYSVAR
  2
AcImIntSysVar
  3
AcMeServices
 90
    33792
280
     0
281
     0
  0
CLASS
  1
ACMEDRAWINGMAN
  2
AcMeDrawingMan
  3
AcMeServices
 90
    33792
280
     0
281
     0
  0
CLASS
  1
ACMEVIEW
  2
AcMeView
  3
AcMeServices
 90
    33792
280
     0
281
     0
  0
CLASS
  1
ACDBENTITYCACHE
  2
AcMeEntityCache
  3
AcMeServices
 90
    33792
280
     0
281
     0
  0
CLASS
  1
GSMANAGER
  2
AcMeGSManager
  3
AcMeServices
 90
    33792
280
     0
281
     0
  0
CLASS
  1
AMDTINTERNALREACTOR
  2
AmdtInternalReactor
  3
AcMeServices
 90
    33792
280
     0
281
     0
  0
CLASS
  1
ACMESTATEMGR
  2
AcMeStateMgr
  3
AcMeServices
 90
    33792
280
     0
281
     0
  0
CLASS
  1
ACGREFMASTER
  2
AcGrefMaster
  3
AcAttribServices
 90
    33792
280
     0
281
     0
  0
CLASS
  1
AM_DRAWING_MGR
  2
AcDmDwgMgr
  3
AcMechDwgViewMgmt
 90
    33792
280
     0
281
     0
  0
CLASS
  1
AM_DWG_DOCUMENT
  2
AcDmDwgDocument
  3
AcMechDwgViewMgmt
 90
    33792
280
     0
281
     0
  0
CLASS
  1
AM_DWG_SHEET
  2
AcDmSheet
  3
AcMechDwgViewMgmt
 90
    33792
280
     0
281
     0
  0
CLASS
  1
AM_VIEWDIMPARMAP
  2
AcDmViewDimParMap
  3
AcMechDwgViewMgmt
 90
    33792
280
     0
281
     0
  0
CLASS
  1
AM_DWGMGR_NAME
  2
AcDmDwgMgrName
  3
AcMechDwgViewMgmt
 90
    33792
280
     0
281
     0
  0
CLASS
  1
ACME_DATABASE
  2
AcMeDbDatabase
  3
AcMeServices
 90
    33792
280
     0
281
     0
  0
CLASS
  1
ACRFINSADJUSTERMGR
  2
AcRfInsAdjusterMgr
  3
AcMeServices
 90
    33792
280
     0
281
     0
  0
CLASS
  1
ACGREFACADMASTER
  2
AcGrefacadMaster
  3
AcGrefServices
 90
    33792
280
     0
281
     0
  0
CLASS
  1
AMDTMENUSTATEMGR
  2
AmdtMenuStateMgr
  3
McadcomServices
 90
    33792
280
     0
281
     0
  0
CLASS
  1
AMDTMCOMMENUSTATE
  2
AmdtMcomMenuState
  3
McadcomServices
 90
    33792
280
     0
281
     0
  0
CLASS
  1
AMIMASTER
  2
AmiMaster
  3
AmiServices
 90
    33792
280
     0
281
     0
  0
CLASS
  1
ASAPP
  2
AcAsAppObject
  3
AutoSurfServices
 90
    33792
280
     0
281
     0
  0
CLASS
  1
IM_STATIC_MAN
  2
AcImStaticVarManager
  3
AcMeServices
 90
    33792
280
     0
281
     0
  0
CLASS
  1
ACIMSTRSYSVAR
  2
AcImStrSysVar
  3
AcMeServices
 90
    33792
280
     0
281
     0
  0
CLASS
  1
ACIMDBLSTATICVAR
  2
AcImDblStaticVar
  3
AcMeServices
 90
    33792
280
     0
281
     0
  0
CLASS
  1
ACIMSTRSTATICVAR
  2
AcImStrStaticVar
  3
AcMeServices
 90
    33792
280
     0
281
     0
  0
CLASS
  1
ACIMINTSTATICVAR
  2
AcImIntStaticVar
  3
AcMeServices
 90
    33792
280
     0
281
     0
  0
CLASS
  1
ACASGREFMASTER
  2
AcAsGrefMaster
  3
AutoSurfResolverServices
 90
    33792
280
     0
281
     0
  0
CLASS
  1
ACADGREFMODULE
  2
AcAdGrefModule
  3
AdGrefServices
 90
    33792
280
     0
281
     0
  0
CLASS
  1
AMDTMAPISURFMOUDULE
  2
AmdtMApiSurfModule
  3
MApiSurfServices
 90
    33792
280
     0
281
     0
  0
CLASS
  1
MAPIAMMOUDLE
  2
MApiAmModule
  3
MApiAmServices
 90
    33792
280
     0
281
     0
  0
CLASS
  1
AMDTADMENUSTATE
  2
AmdtAdMenuState
  3
DesignerServices
 90
    33792
280
     0
281
     0
  0
CLASS
  1
ADAPPL
  2
AcAdAppl
  3
DesignerServices
 90
    33792
280
     0
281
     0
  0
CLASS
  1
DEPMGR
  2
AcAdDepMgr
  3
DesignerServices
 90
    33792
280
     0
281
     0
  0
CLASS
  1
PARAMMGR
  2
AcAdParamMgr
  3
DesignerServices
 90
    33792
280
     0
281
     0
  0
CLASS
  1
PARAMSCOPE
  2
AcAdParamScope
  3
DesignerServices
 90
    33792
280
     0
281
     0
  0
CLASS
  1
NAMEDAPPL
  2
AcAdNamedAppl
  3
DesignerServices
 90
    33792
280
     0
281
     0
  0
CLASS
  1
ADHNTMPLT
  2
AdHoleNoteTemplateMgr
  3
DesignerServices
 90
    33792
280
     0
281
     0
  0
CLASS
  1
AM_HNTEMPLATE_MGR_NAME
  2
AdHoleNoteTemplateMgrName
  3
DesignerServices
 90
    33792
280
     0
281
     0
  0
CLASS
  1
AMDTDMMENUSTATE
  2
AmdtDmMenuState
  3
AcMechDwgViewMgmt
 90
    33792
280
     0
281
     0
  0
CLASS
  1
MAPIADMODULE
  2
MApiAdModule
  3
MApiAdServices
 90
    33792
280
     0
281
     0
  0
CLASS
  1
AMDTAMMENUSTATE
  2
AmdtAmMenuState
  3
DesignerAssemblies
 90
    33792
280
     0
281
     0
  0
CLASS
  1
ACAMPROJECT
  2
AcAmProject
  3
DesignerAssemblies
 90
    33792
280
     0
281
     0
  0
CLASS
  1
ACAMGRCOMPDEF
  2
AcAmGrCompDef
  3
DesignerAssemblies
 90
    33792
280
     0
281
     0
  0
CLASS
  1
ACCMCONTEXT
  2
AcCmContext
  3
DesignerAssemblies
 90
    33792
280
     0
281
     0
  0
CLASS
  1
ACAMCOMPDEF
  2
AcAmCompDef
  3
DesignerAssemblies
 90
    33792
280
     0
281
     0
  0
CLASS
  1
ACAMCOMPDEFMGR
  2
AcAmCompDefMgr
  3
DesignerAssemblies
 90
    33792
280
     0
281
     0
  0
CLASS
  1
AMCONTEXTMGR
  2
AcAmContextMgr
  3
DesignerAssemblies
 90
    33792
280
     0
281
     0
  0
CLASS
  1
ACAMCONTEXTMODELER
  2
AcAmContextModeler
  3
DesignerAssemblies
 90
    33792
280
     0
281
     0
  0
CLASS
  1
ACMDATADICTIONARY
  2
AcmDataDictionary
  3
"AcmSymBB|Product Description: AutoCAD Mechanical|Company: Autodesk, Inc."
 90
     1024
280
     0
281
     0
  0
CLASS
  1
ACMDATAENTRYBLOCK
  2
AcmDataEntryBlock
  3
AcmSymBB|Product Description: AutoCAD Mechanical|Company: Autodesk, Inc.
 90
     1024
280
     0
281
     0
  0
CLASS
  1
CATALOGSTATE
  2
AcAmCatalogState
  3
DesignerAssemblies
 90
    33792
280
     0
281
     0
  0
CLASS
  1
ACAMGRCOMPDEFSET
  2
AcAmGrCompDefSet
  3
DesignerAssemblies
 90
    33792
280
     0
281
     0
  0
CLASS
  1
AMDTBROWSERDBTAB
  2
AmdtBrowserDbTab
  3
McadcomServices
 90
    33792
280
     0
281
     0
  0
CLASS
  1
CBROWSERAPPOBJECT
  2
CBrowserAppObject
  3
McadcomServices
 90
    33792
280
     0
281
     0
  0
CLASS
  1
DM_PLACEHOLDER
  2
AcDmSelsetPlaceholder
  3
AcMechDwgViewMgmt
 90
    33792
280
     0
281
     0
  0
CLASS
  1
ACMSTANDARDISO
  2
AcmStandardISO
  3
"Amdt_StdImp|Product Description: AutoCAD Mechanical|Company: Autodesk, Inc."
 90
    33792
280
     0
281
     0
  0
CLASS
  1
AMGOBJPROPCFG
  2
AmgObjPropCfg
  3
"AmgLay|Product Description: AutoCAD Mechanical|Company: Autodesk, Inc."
 90
    33793
280
     0
281
     0
  0
CLASS
  1
AMDTEDGESTANDARDISO
  2
AmdtEdgeStdISO
  3
"Amdt_StdImp|Product Description: AutoCAD Mechanical|Company: Autodesk, Inc."
 90
    33792
280
     0
281
     0
  0
CLASS
  1
ACMSURFSTANDARDISO
  2
AcmSurfTextStdISO
  3
"Amdt_StdImp|Product Description: AutoCAD Mechanical|Company: Autodesk, Inc."
 90
    33792
280
     0
281
     0
  0
CLASS
  1
ACMFCFSTANDARDISO
  2
AcmFCFStdISO
  3
"Amdt_StdImp|Product Description: AutoCAD Mechanical|Company: Autodesk, Inc."
 90
    33792
280
     0
281
     0
  0
CLASS
  1
ACMWELDSTANDARDISO
  2
AcmWeldingStdISO
  3
"Amdt_StdImp|Product Description: AutoCAD Mechanical|Company: Autodesk, Inc."
 90
    33792
280
     0
281
     0
  0
CLASS
  1
ACMIDSTANDARDISO
  2
AcmIdStdISO
  3
"Amdt_StdImp|Product Description: AutoCAD Mechanical|Company: Autodesk, Inc."
 90
    33792
280
     0
281
     0
  0
CLASS
  1
ACMDATUMSTANDARDISO
  2
AcmDatumStdISO
  3
"Amdt_StdImp|Product Description: AutoCAD Mechanical|Company: Autodesk, Inc."
 90
    33792
280
     0
281
     0
  0
CLASS
  1
ACMBOMSTANDARDISO
  2
AcmBOMStdISO
  3
"Amdt_StdImp|Product Description: AutoCAD Mechanical|Company: Autodesk, Inc."
 90
    33792
280
     0
281
     0
  0
CLASS
  1
ACMDETAILSTANDARDISO
  2
AmdtDetailSymStdISO
  3
"Amdt_StdImp|Product Description: AutoCAD Mechanical|Company: Autodesk, Inc."
 90
    33792
280
     0
281
     0
  0
CLASS
  1
ACMSECTIONSTANDARDISO
  2
AmdtSectionSymStdISO
  3
"Amdt_StdImp|Product Description: AutoCAD Mechanical|Company: Autodesk, Inc."
 90
    33792
280
     0
281
     0
  0
CLASS
  1
ACMCENTERLINESTANDARDISO
  2
AmdtCenterLineStdISO
  3
"Amdt_StdImp|Product Description: AutoCAD Mechanical|Company: Autodesk, Inc."
 90
    33792
280
     0
281
     0
  0
CLASS
  1
ACMTHREADLINESTANDARDISO
  2
AmdtThreadLineStdISO
  3
"Amdt_StdImp|Product Description: AutoCAD Mechanical|Company: Autodesk, Inc."
 90
    33792
280
     0
281
     0
  0
CLASS
  1
ACAMGLAYSTD
  2
AcAmgLayStd
  3
"AmgLay|Product Description: AutoCAD Mechanical|Company: Autodesk, Inc."
 90
    33792
280
     0
281
     0
  0
CLASS
  1
ACAMGDIMSTD
  2
AcAmgDimStd
  3
"AmgDim|Product Description: AutoCAD Mechanical|Company: Autodesk, Inc."
 90
    33792
280
     0
281
     0
  0
CLASS
  1
ACAMGTITLESTD
  2
AcAmgTitleStd
  3
"AmgTitle|Product Description: AutoCAD Mechanical|Company: Autodesk, Inc."
 90
    36863
280
     0
281
     0
  0
CLASS
  1
ACAMGFILTERDAT
  2
AcAmgFilterDat
  3
"AcadM|Product Description: AutoCAD Mechanical|Company: Autodesk, Inc."
 90
    33792
280
     0
281
     0
  0
CLASS
  1
AMDTFORMULAUPDATEDISPATCHER
  2
AmdtFormulaUpdateDispatcher
  3
AcMeServices
 90
    33792
280
     0
281
     0
  0
CLASS
  1
LAYER_INDEX
  2
AcDbLayerIndex
  3
ObjectDBX Classes
 90
    32768
280
     0
281
     0
  0
CLASS
  1
IDBUFFER
  2
AcDbIdBuffer
  3
ObjectDBX Classes
 90
    32768
280
     0
281
     0
  0
CLASS
  1
TABLESTYLE
  2
AcDbTableStyle
  3
ObjectDBX Classes
 90
     4095
280
     0
281
     0
  0
CLASS
  1
ACMNOTESTANDARDISO
  2
AmdtNoteStdISO
  3
"Amdt_StdImp|Product Description: AutoCAD Mechanical|Company: Autodesk, Inc."
 90
    33792
280
     0
281
     0
  0
CLASS
  1
AMDTNOTETEMPLATEDB
  2
AmdtNoteTemplateDB
  3
AcmSymBB|Product Description: AutoCAD Mechanical|Company: Autodesk, Inc.
 90
    33792
280
     0
281
     0
  0
CLASS
  1
ACAMEXTERNALCOMPDEF
  2
AcAmExternalCompDef
  3
DesignerAssemblies
 90
    33792
280
     0
281
     0
  0
CLASS
  1
ACCMBODY
  2
AcCmBody
  3
DesignerAssemblies
 90
    33792
280
     0
281
     0
  0
CLASS
  1
ACAMCOMPENT
  2
AcAmCompEnt
  3
DesignerAssemblies
 90
    33792
280
     0
281
     1
  0
CLASS
  1
ACAMCOMPFEEDBACK
  2
AcAmCompFeedback
  3
DesignerAssemblies
 90
    33792
280
     0
281
     0
  0
CLASS
  1
ACAMCOMP
  2
AcAmComp
  3
DesignerAssemblies
 90
    33792
280
     0
281
     0
  0
CLASS
  1
ACAMCOMPENTCLONE
  2
AcAmCompEntClone
  3
DesignerAssemblies
 90
    33792
280
     0
281
     1
  0
CLASS
  1
ACAMCLONEREACTOR
  2
AcAmGrCompCloneReactor
  3
DesignerAssemblies
 90
    33792
280
     0
281
     0
  0
CLASS
  1
EDGEID
  2
AcAdEdgeId
  3
DesignerServices
 90
    33792
280
     0
281
     0
  0
CLASS
  1
ACADPARTLINEDGRES
  2
AcAdPartLinEdgRes
  3
AdGrefServices
 90
    33792
280
     0
281
     0
  0
CLASS
  1
ACRFINSADJ
  2
AcRfInsAdjuster
  3
AcMeServices
 90
    33792
280
     0
281
     0
  0
CLASS
  1
STREFID
  2
AcAdStraightRefId
  3
DesignerServices
 90
    33792
280
     0
281
     0
  0
CLASS
  1
ACMEAXIS
  2
AcImAxisDisplay
  3
AcMeServices
 90
    33792
280
     0
281
     1
  0
CLASS
  1
FACEID
  2
AcAdFaceId
  3
DesignerServices
 90
    33792
280
     0
281
     0
  0
CLASS
  1
DEPEDGESECONDARYDEPID
  2
AcAdDepEdgeSecondaryDepId
  3
DesignerServices
 90
    33792
280
     0
281
     0
  0
CLASS
  1
ACADPARTPLANARFACERES
  2
AcAdPartPlanarFaceRes
  3
AdGrefServices
 90
    33792
280
     0
281
     0
  0
CLASS
  1
ACMEPOINT
  2
AcImPointDisplay
  3
AcMeServices
 90
    33792
280
     0
281
     1
  0
CLASS
  1
ACMELINEARARROW
  2
AcImLinearArrowDisplay
  3
AcMeServices
 90
    33792
280
     0
281
     1
  0
CLASS
  1
ACAMEXPR
  2
AcAmExpr
  3
DesignerAssemblies
 90
    33792
280
     0
281
     0
  0
CLASS
  1
ACCMDISTPLPL
  2
AcCmDistPlPl
  3
DesignerAssemblies
 90
    33792
280
     0
281
     0
  0
CLASS
  1
ACCMCONSTREACTOR
  2
AcCmConstraintReactor
  3
DesignerAssemblies
 90
    33792
280
     0
281
     0
  0
CLASS
  1
ACCMDISTPTLN
  2
AcCmDistPtLn
  3
DesignerAssemblies
 90
    33792
280
     0
281
     0
  0
CLASS
  1
AM_VIEW_SELECT_FILTER
  2
AcDmSelectViewEntFilter
  3
AcMechDwgViewMgmt
 90
    33792
280
     0
281
     0
  0
CLASS
  1
AM_GREF_PLANE
  2
AcDmGrefPlnDef
  3
AcMechDwgViewMgmt
 90
    33792
280
     0
281
     0
  0
CLASS
  1
AM_GREF_AXIS
  2
AcDmGrefAxisDef
  3
AcMechDwgViewMgmt
 90
    33792
280
     0
281
     0
  0
CLASS
  1
AM_BASE_VIEW_ORIENT
  2
AcDmBaseViewOr
  3
AcMechDwgViewMgmt
 90
    33792
280
     0
281
     0
  0
CLASS
  1
AM_DWG_VIEWPORT
  2
AcDmViewport
  3
AcMechDwgViewMgmt
 90
    33792
280
     0
281
     0
  0
CLASS
  1
AM_VIEW_DISPLAY
  2
AcDmDwgViewDisplay
  3
AcMechDwgViewMgmt
 90
    33792
280
     0
281
     0
  0
CLASS
  1
AM_CLDFLTS
  2
AcDmClDflts
  3
AcMechDwgViewMgmt
 90
    33792
280
     0
281
     0
  0
CLASS
  1
AM_BASE_VIEW
  2
AcDmBaseView
  3
AcMechDwgViewMgmt
 90
    33792
280
     0
281
     0
  0
CLASS
  1
ACMEPLINE
  2
AcImPlineDisplay
  3
AcMeServices
 90
    33792
280
     0
281
     1
  0
CLASS
  1
ACDMPARTVIEWDATA
  2
AcDmPartViewData
  3
AcMechDwgViewMgmt
 90
    33792
280
     0
281
     0
  0
CLASS
  1
ACDMDISPLAYATTRIBS
  2
AcDmDisplayAttribs
  3
AcMechDwgViewMgmt
 90
    33792
280
     0
281
     0
  0
CLASS
  1
ACDMBODYINSTANCEDATA
  2
AcDmBodyInstanceData
  3
AcMechDwgViewMgmt
 90
    33792
280
     0
281
     0
  0
CLASS
  1
ACDMVWEDLINE
  2
AcDmViewEdgeLine
  3
AcMechDwgViewMgmt
 90
    33792
280
     0
281
     1
  0
CLASS
  1
ACDMVWEDARC
  2
AcDmViewEdgeArc
  3
AcMechDwgViewMgmt
 90
    33792
280
     0
281
     1
  0
CLASS
  1
AM_ISO_VIEW_ORIENT
  2
AcDmIsoViewOr
  3
AcMechDwgViewMgmt
 90
    33792
280
     0
281
     0
  0
CLASS
  1
AM_ISO_VIEW
  2
AcDmIsoView
  3
AcMechDwgViewMgmt
 90
    33792
280
     0
281
     0
  0
CLASS
  1
AM_ORTHO_VIEW_ORIENT
  2
AcDmOrthoViewOr
  3
AcMechDwgViewMgmt
 90
    33792
280
     0
281
     0
  0
CLASS
  1
AM_ORTHO_VIEW
  2
AcDmOrthoView
  3
AcMechDwgViewMgmt
 90
    33792
280
     0
281
     0
  0
CLASS
  1
ACAMVIEWREACTOR
  2
AcAmViewReactor
  3
DesignerAssemblies
 90
    33792
280
     0
281
     0
  0
CLASS
  1
AMVIEW
  2
AcAmView
  3
DesignerAssemblies
 90
    33792
280
     0
281
     0
  0
CLASS
  1
ACAMVIEWCONTEXT
  2
AcAmViewContext
  3
DesignerAssemblies
 90
    33792
280
     0
281
     0
  0
CLASS
  1
ACAMCOMPENTVIEW
  2
AcAmCompEntView
  3
DesignerAssemblies
 90
    33792
280
     0
281
     1
  0
CLASS
  1
ACAMCOMPVIEWREACTOR
  2
AcAmGrCompViewReactor
  3
DesignerAssemblies
 90
    33792
280
     0
281
     0
  0
CLASS
  1
ACAMVIEWENTITYFILTER
  2
AcAmViewEntityFilter
  3
DesignerAssemblies
 90
    33792
280
     0
281
     0
  0
CLASS
  1
ACDMVWEDCIRC
  2
AcDmViewEdgeCircle
  3
AcMechDwgViewMgmt
 90
    33792
280
     0
281
     1
  0
CLASS
  1
AM_ADCIRCTRLINE
  2
AcAdBullsEyeCl
  3
DesignerServices
 90
    33792
280
     0
281
     0
  0
CLASS
  1
AM_ADLINCTRLINE
  2
AcAdLineCl
  3
DesignerServices
 90
    33792
280
     0
281
     0
  0
CLASS
  1
ACDMVIEWGEOM
  2
AcDmViewGeometry
  3
AcMechDwgViewMgmt
 90
    33792
280
     0
281
     1
  0
CLASS
  1
ACCMDISTLNLN
  2
AcCmDistLnLn
  3
DesignerAssemblies
 90
    33792
280
     0
281
     0
  0
CLASS
  1
ACAMXREFCONTEXTMODELER
  2
AcAmXrefContextModeler
  3
DesignerAssemblies
 90
    33792
280
     0
281
     0
  0
CLASS
  1
CNRREFID
  2
AcAdCornerId
  3
DesignerServices
 90
    33792
280
     0
281
     0
  0
CLASS
  1
ACADPARTPOINTRES
  2
AcAdPartPointRes
  3
AdGrefServices
 90
    33792
280
     0
281
     0
  0
CLASS
  1
AM_VIEWDIMLINEAR
  2
AcDmViewDimLinear
  3
AcMechDwgViewMgmt
 90
    33792
280
     0
281
     0
  0
CLASS
  1
PARAM
  2
AcAdParam
  3
DesignerServices
 90
    33792
280
     0
281
     0
  0
CLASS
  1
SORTENTSTABLE
  2
AcDbSortentsTable
  3
ObjectDBX Classes
 90
    32768
280
     0
281
     0
  0
CLASS
  1
ACADPARTCIRCEDGRES
  2
AcAdPartCircEdgRes
  3
AdGrefServices
 90
    33792
280
     0
281
     0
  0
CLASS
  1
AM_VIEWDIMRADIUS
  2
AcDmViewDimRadius
  3
AcMechDwgViewMgmt
 90
    33792
280
     0
281
     0
  0
CLASS
  1
ACADPARTCYLINDERFACERES
  2
AcAdPartCylinderFaceRes
  3
AdGrefServices
 90
    33792
280
     0
281
     0
  0
CLASS
  1
ACDMVISEDIT
  2
AcDmViewEntityVisEdit
  3
AcMechDwgViewMgmt
 90
    33792
280
     0
281
     0
  0
CLASS
  1
SILEDGEID
  2
AcAdSilhouetteEdgeId
  3
DesignerServices
 90
    33792
280
     0
281
     0
  0
CLASS
  1
CIRREFID
  2
AcAdCircleRefId
  3
DesignerServices
 90
    33792
280
     0
281
     0
  0
CLASS
  1
MATERIAL
  2
AcDbMaterial
  3
ObjectDBX Classes
 90
     1153
280
     0
281
     0
  0
CLASS
  1
VISUALSTYLE
  2
AcDbVisualStyle
  3
ObjectDBX Classes
 90
     4095
280
     0
281
     0
  0
CLASS
  1
SCALE
  2
AcDbScale
  3
ObjectDBX Classes
 90
     1153
280
     0
281
     0
  0
CLASS
  1
MLEADERSTYLE
  2
AcDbMLeaderStyle
  3
ACDB_MLEADERSTYLE_CLASS
 90
     4095
280
     0
281
     0
  0
CLASS
  1
EXACTERMXREFMAP
  2
ExAcTermXrefMap
  3
EXAC_SERVICE
 90
    33793
280
     0
281
     0
  0
CLASS
  1
NPOCOLLECTION
  2
AcDbImpNonPersistentObjectsCollection
  3
ObjectDBX Classes
 90
     1153
280
     0
281
     0
  0
CLASS
  1
ACRFATTGENMGR
  2
AcRfAttGeneralMgr
  3
AcAttribServices
 90
    33792
280
     0
281
     0
  0
CLASS
  1
ACRFOBJATTMGR
  2
AcRfObjAttGroupMgr
  3
AcAttribServices
 90
    33792
280
     0
281
     0
  0
CLASS
  1
ACRFMCADAPIATTHOLDER
  2
AcRfMCADAPIAttHolder
  3
AcAttribServices
 90
    33792
280
     0
281
     0
  0
CLASS
  1
AMDTSYSATTR
  2
AmdtSystemAttribute
  3
AcAttribServices
 90
    33792
280
     0
281
     0
  0
CLASS
  1
ACMTAPERSTANDARDISO
  2
AcmTaperStdISO
  3
"Amdt_StdImp|Product Description: AutoCAD Mechanical|Company: Autodesk, Inc."
 90
    33792
280
     0
281
     0
  0
CLASS
  1
ACMANOOTATIONVIEWSTANDARDISO
  2
AmdtAnViewStdISO
  3
"Amdt_StdImp|Product Description: AutoCAD Mechanical|Company: Autodesk, Inc."
 90
    33792
280
     0
281
     0
  0
CLASS
  1
SOLID_BACKGROUND
  2
AcDbSolidBackground
  3
SCENEOE
 90
     4095
280
     0
281
     0
  0
CLASS
  1
AM_ABS_AXIS
  2
AcDmAbsAxisDef
  3
AcMechDwgViewMgmt
 90
    33792
280
     0
281
     0
  0
CLASS
  1
AM_ABS_PLANE
  2
AcDmAbsPlnDef
  3
AcMechDwgViewMgmt
 90
    33792
280
     0
281
     0
  0
CLASS
  1
CELLSTYLEMAP
  2
AcDbCellStyleMap
  3
ObjectDBX Classes
 90
     1152
280
     0
281
     0
  0
CLASS
  1
MULTILEADER
  2
AcDbMLeader
  3
ACDB_MLEADER_CLASS
 90
     1025
280
     0
281
     1
  0
ENDSEC
  0
SECTION
  2
TABLES
  0
TABLE
  2
VPORT
  5
2A
330
0
100
AcDbSymbolTable
 70
     1
  0
VPORT
  5
680
330
2A
100
AcDbSymbolTableRecord
100
AcDbViewportTableRecord
  2
*Active
 70
     0
 10
0.0
 20
0.0
 11
1.0
 21
1.0
 12
0.0
 22
0.0
 13
0.0
 23
0.0
 14
10.0
 24
10.0
 15
10.0
 25
10.0
 16
0.0
 26
0.0
 36
6932.853010812054
 17
3476.070915459348
 27
-2172.657245201889
 37
0.0
 40
2039.567303907073
 41
1.800254452926208
 42
50.0
 43
0.0
 44
0.0
 50
0.0
 51
0.0
 71
     0
 72
  2000
 73
     1
 74
     0
 75
     0
 76
     0
 77
     0
 78
     0
281
     6
 65
     0
110
0.0
120
0.0
130
0.0
111
1.0
121
0.0
131
0.0
112
0.0
122
1.0
132
0.0
 79
     0
146
0.0
  0
ENDTAB
  0
TABLE
  2
LTYPE
  5
25
330
0
100
AcDbSymbolTable
 70
     5
  0
LTYPE
  5
26
330
25
100
AcDbSymbolTableRecord
100
AcDbLinetypeTableRecord
  2
BYBLOCK
 70
     0
  3

 72
    65
 73
     0
 40
0.0
  0
LTYPE
  5
27
330
25
100
AcDbSymbolTableRecord
100
AcDbLinetypeTableRecord
  2
BYLAYER
 70
     0
  3

 72
    65
 73
     0
 40
0.0
  0
LTYPE
  5
14
330
25
100
AcDbSymbolTableRecord
100
AcDbLinetypeTableRecord
  2
CONTINUOUS
 70
     0
  3
Solid line
 72
    65
 73
     0
 40
0.0
  0
LTYPE
  5
82
330
25
100
AcDbSymbolTableRecord
100
AcDbLinetypeTableRecord
  2
HIDDEN
 70
     0
  3
Hidden __ __ __ __ __ __ __ __ __ __ __ __ __ _
 72
    65
 73
     2
 40
0.375
 49
0.25
 74
     0
 49
-0.125
 74
     0
  0
LTYPE
  5
4B7
330
25
100
AcDbSymbolTableRecord
100
AcDbLinetypeTableRecord
  2
AM_ISO08W050
 70
     0
  3
____ . ____ . ____ . ____ . ____ . ____ . ____
 72
    65
 73
     4
 40
18.0
 49
12.0
 74
     0
 49
-1.5
 74
     0
 49
3.0
 74
     0
 49
-1.5
 74
     0
  0
LTYPE
  5
6FA
330
25
100
AcDbSymbolTableRecord
100
AcDbLinetypeTableRecord
  2
DASHDOT
 70
     0
  3
____ _ ____ _ ____ _ ____ _ ____ _ ____ _ ____
 72
    65
 73
     4
 40
5.5
 49
4.0
 74
     0
 49
-0.6
 74
     0
 49
0.3
 74
     0
 49
-0.6
 74
     0
  0
ENDTAB
  0
TABLE
  2
LAYER
  5
1F
102
{ACAD_XDICTIONARY
360
20
102
}
330
0
100
AcDbSymbolTable
 70
    13
  0
LAYER
  5
5
102
{ACAD_XDICTIONARY
360
6
102
}
330
1F
100
AcDbSymbolTableRecord
100
AcDbLayerTableRecord
  2
0
 70
     0
 62
     7
  6
CONTINUOUS
370
    -3
390
8
  0
LAYER
  5
7F
102
{ACAD_XDICTIONARY
360
80
102
}
330
1F
100
AcDbSymbolTableRecord
100
AcDbLayerTableRecord
  2
HID
 70
     0
 62
     3
  6
HIDDEN
370
    25
390
8
1001
AcAecLayerStandard
1000

1000

  0
LAYER
  5
62A
330
1F
100
AcDbSymbolTableRecord
100
AcDbLayerTableRecord
  2
Defpoints
 70
     0
 62
     7
  6
CONTINUOUS
290
     0
370
    -3
390
8
  0
LAYER
  5
6FB
102
{ACAD_XDICTIONARY
360
6FC
102
}
330
1F
100
AcDbSymbolTableRecord
100
AcDbLayerTableRecord
  2
SIZE
 70
     0
 62
    30
  6
CONTINUOUS
370
    -3
390
8
  0
LAYER
  5
6FD
102
{ACAD_XDICTIONARY
360
6FE
102
}
330
1F
100
AcDbSymbolTableRecord
100
AcDbLayerTableRecord
  2
OUTLINE
 70
     0
 62
     3
  6
CONTINUOUS
370
    -3
390
8
  0
LAYER
  5
6FF
102
{ACAD_XDICTIONARY
360
700
102
}
330
1F
100
AcDbSymbolTableRecord
100
AcDbLayerTableRecord
  2
DETAIL
 70
     0
 62
     5
  6
CONTINUOUS
370
    -3
390
8
  0
LAYER
  5
701
102
{ACAD_XDICTIONARY
360
702
102
}
330
1F
100
AcDbSymbolTableRecord
100
AcDbLayerTableRecord
  2
BASIS
 70
     0
 62
     6
  6
DASHDOT
370
    -3
390
8
  0
LAYER
  5
703
102
{ACAD_XDICTIONARY
360
704
102
}
330
1F
100
AcDbSymbolTableRecord
100
AcDbLayerTableRecord
  2
NOTE
 70
     0
 62
     4
  6
CONTINUOUS
370
    -3
390
8
  0
LAYER
  5
705
102
{ACAD_XDICTIONARY
360
706
102
}
330
1F
100
AcDbSymbolTableRecord
100
AcDbLayerTableRecord
  2
ARRANGE
 70
     0
 62
     1
  6
CONTINUOUS
370
    -3
390
8
  0
LAYER
  5
707
102
{ACAD_XDICTIONARY
360
708
102
}
330
1F
100
AcDbSymbolTableRecord
100
AcDbLayerTableRecord
  2
ETC
 70
     0
 62
    61
  6
CONTINUOUS
370
    -3
390
8
  0
ENDTAB
  0
TABLE
  2
STYLE
  5
22
330
0
100
AcDbSymbolTable
 70
     2
  0
STYLE
  5
23
330
22
100
AcDbSymbolTableRecord
100
AcDbTextStyleTableRecord
  2
STANDARD
 70
     0
 40
0.0
 41
1.0
 50
0.0
 71
     0
 42
62.5215949741746
  3
romans.shx
  4
extfont.shx
  0
STYLE
  5
709
330
22
100
AcDbSymbolTableRecord
100
AcDbTextStyleTableRecord
  2
STANDARD1
 70
     0
 40
0.0
 41
1.0
 50
0.0
 71
     0
 42
3.5
  3
MONOTXT
  4
BIGFONT
  0
ENDTAB
  0
TABLE
  2
VIEW
  5
28
330
0
100
AcDbSymbolTable
 70
     0
  0
ENDTAB
  0
TABLE
  2
UCS
  5
29
330
0
100
AcDbSymbolTable
 70
     0
  0
ENDTAB
  0
TABLE
  2
APPID
  5
2E
330
0
100
AcDbSymbolTable
 70
     9
  0
APPID
  5
2F
330
2E
100
AcDbSymbolTableRecord
100
AcDbRegAppTableRecord
  2
ACAD
 70
     0
  0
APPID
  5
38
330
2E
100
AcDbSymbolTableRecord
100
AcDbRegAppTableRecord
  2
ACAD_DSTYLE_DIMJOGGED_JOGANGLE_SYMBOL
 70
     0
  0
APPID
  5
7C
330
2E
100
AcDbSymbolTableRecord
100
AcDbRegAppTableRecord
  2
AcAecLayerStandard
 70
     0
  0
APPID
  5
1E
330
2E
100
AcDbSymbolTableRecord
100
AcDbRegAppTableRecord
  2
ACAD_PSEXT
 70
     0
  0
APPID
  5
5E5
330
2E
100
AcDbSymbolTableRecord
100
AcDbRegAppTableRecord
  2
ACATTRIBSERVICES
 70
     0
  0
APPID
  5
5FE
330
2E
100
AcDbSymbolTableRecord
100
AcDbRegAppTableRecord
  2
ACAD_MLEADERVER
 70
     0
  0
APPID
  5
606
330
2E
100
AcDbSymbolTableRecord
100
AcDbRegAppTableRecord
  2
ACAD_DSTYLE_DIMJAG
 70
     0
  0
APPID
  5
607
330
2E
100
AcDbSymbolTableRecord
100
AcDbRegAppTableRecord
  2
ACAD_DSTYLE_DIMTALN
 70
     0
  0
APPID
  5
615
330
2E
100
AcDbSymbolTableRecord
100
AcDbRegAppTableRecord
  2
ACAD_DSTYLE_DIMEXT_LENGTH
 70
     0
  0
ENDTAB
  0
TABLE
  2
DIMSTYLE
  5
30
330
0
100
AcDbSymbolTable
 70
     2
100
AcDbDimStyleTable
 71
     1
340
31
  0
DIMSTYLE
105
31
102
{ACAD_REACTORS
330
629
330
637
330
656
330
663
330
670
102
}
330
30
100
AcDbSymbolTableRecord
100
AcDbDimStyleTableRecord
  2
STANDARD
 70
     0
 40
0.0
 41
2.0
 42
1.0
 43
3.75
 44
1.0
 73
     0
 74
     0
 77
     1
 78
     8
140
2.0
141
2.5
143
0.0394
147
1.0
171
     4
172
     1
173
     1
271
     0
272
     0
273
     8
274
     4
284
     8
340
23
341
32
343
32
344
32
1001
ACAD_DSTYLE_DIMEXT_LENGTH
1070
   378
1040
15.0
1001
ACAD_DSTYLE_DIMJOGGED_JOGANGLE_SYMBOL
1070
   384
1040
1.570796326794896
  0
ENDTAB
  0
TABLE
  2
BLOCK_RECORD
  5
1
330
0
100
AcDbSymbolTable
 70
     9
  0
BLOCK_RECORD
  5
2
102
{ACAD_XDICTIONARY
360
3
102
}
330
1
100
AcDbSymbolTableRecord
100
AcDbBlockTableRecord
  2
*MODEL_SPACE
340
16
  0
BLOCK_RECORD
  5
18
330
1
100
AcDbSymbolTableRecord
100
AcDbBlockTableRecord
  2
*Paper_Space
340
1B
  0
BLOCK_RECORD
  5
32
330
1
100
AcDbSymbolTableRecord
100
AcDbBlockTableRecord
  2
_OPEN30
340
0
102
{BLKREFS
331
C5C
331
C5D
331
C65
331
C66
331
C6E
331
C6F
331
C77
331
C78
331
C80
331
C81
102
}
  0
BLOCK_RECORD
  5
62B
330
1
100
AcDbSymbolTableRecord
100
AcDbBlockTableRecord
  2
*D1
340
0
  0
BLOCK_RECORD
  5
638
330
1
100
AcDbSymbolTableRecord
100
AcDbBlockTableRecord
  2
*D2
340
0
  0
BLOCK_RECORD
  5
657
330
1
100
AcDbSymbolTableRecord
100
AcDbBlockTableRecord
  2
*D3
340
0
  0
BLOCK_RECORD
  5
664
330
1
100
AcDbSymbolTableRecord
100
AcDbBlockTableRecord
  2
*D4
340
0
  0
BLOCK_RECORD
  5
671
330
1
100
AcDbSymbolTableRecord
100
AcDbBlockTableRecord
  2
*D5
340
0
  0
BLOCK_RECORD
  5
6F5
330
1
100
AcDbSymbolTableRecord
100
AcDbBlockTableRecord
  2
_DOTBLANK
340
0
  0
ENDTAB
  0
ENDSEC
  0
SECTION
  2
BLOCKS
  0
BLOCK
  5
4
330
2
100
AcDbEntity
  8
0
100
AcDbBlockBegin
  2
*MODEL_SPACE
 70
     0
 10
0.0
 20
0.0
 30
0.0
  3
*MODEL_SPACE
  1

  0
ENDBLK
  5
15
330
2
100
AcDbEntity
  8
0
100
AcDbBlockEnd
  0
BLOCK
  5
19
330
18
100
AcDbEntity
 67
     1
  8
0
100
AcDbBlockBegin
  2
*Paper_Space
 70
     0
 10
0.0
 20
0.0
 30
0.0
  3
*Paper_Space
  1

  0
ENDBLK
  5
1A
330
18
100
AcDbEntity
 67
     1
  8
0
100
AcDbBlockEnd
  0
BLOCK
  5
33
330
32
100
AcDbEntity
  8
0
100
AcDbBlockBegin
  2
_OPEN30
 70
     0
 10
0.0
 20
0.0
 30
0.0
  3
_OPEN30
  1

  0
LINE
  5
34
330
32
100
AcDbEntity
  8
0
  6
ByBlock
 62
     0
100
AcDbLine
 10
-1.0
 20
0.26794919
 30
0.0
 11
0.0
 21
0.0
 31
0.0
  0
LINE
  5
35
330
32
100
AcDbEntity
  8
0
  6
ByBlock
 62
     0
100
AcDbLine
 10
0.0
 20
0.0
 30
0.0
 11
-1.0
 21
-0.26794919
 31
0.0
  0
LINE
  5
36
330
32
100
AcDbEntity
  8
0
  6
ByBlock
 62
     0
100
AcDbLine
 10
0.0
 20
0.0
 30
0.0
 11
-1.0
 21
0.0
 31
0.0
  0
ENDBLK
  5
37
330
32
100
AcDbEntity
  8
0
100
AcDbBlockEnd
  0
BLOCK
  5
635
330
62B
100
AcDbEntity
  8
0
100
AcDbBlockBegin
  2
*D1
 70
     1
 10
0.0
 20
0.0
 30
0.0
  3
*D1
  1

  0
LINE
  5
C62
330
62B
100
AcDbEntity
  8
SIZE
 62
     0
370
    -2
100
AcDbLine
 10
3352.299687335182
 20
-1825.337722079987
 30
0.0
 11
3352.299687335182
 21
-1742.735475135779
 31
0.0
  0
LINE
  5
C63
330
62B
100
AcDbEntity
  8
SIZE
 62
     0
370
    -2
100
AcDbLine
 10
3816.299687335181
 20
-1825.337722079986
 30
0.0
 11
3816.299687335181
 21
-1742.735475135779
 31
0.0
  0
LINE
  5
C64
330
62B
100
AcDbEntity
  8
SIZE
 62
     0
370
    -2
100
AcDbLine
 10
3362.299687335182
 20
-1747.735475135779
 30
0.0
 11
3806.299687335182
 21
-1747.735475135779
 31
0.0
  0
INSERT
  5
C65
330
62B
100
AcDbEntity
  8
SIZE
 62
     0
370
    -2
100
AcDbBlockReference
  2
_OPEN30
 10
3352.299687335182
 20
-1747.735475135779
 30
0.0
 41
10.0
 42
10.0
 43
10.0
 50
180.0
  0
INSERT
  5
C66
330
62B
100
AcDbEntity
  8
SIZE
 62
     0
370
    -2
100
AcDbBlockReference
  2
_OPEN30
 10
3816.299687335181
 20
-1747.735475135779
 30
0.0
 41
10.0
 42
10.0
 43
10.0
  0
MTEXT
  5
C67
330
62B
100
AcDbEntity
  8
SIZE
 62
     0
100
AcDbMText
 10
3584.299687335182
 20
-1737.735475135779
 30
0.0
 40
10.0
 41
0.0
 71
     5
 72
     1
  1
\A1;464
 73
     1
 44
1.0
1001
ACAD
1000
MTEXTBEGIN
1070
    73
1070
     1
1070
    44
1040
1.0
1070
    74
1070
     0
1000
MTEXTEND
  0
POINT
  5
C68
330
62B
100
AcDbEntity
  8
Defpoints
 62
     0
100
AcDbPoint
 10
3352.299687335182
 20
-1830.337722079987
 30
0.0
  0
POINT
  5
C69
330
62B
100
AcDbEntity
  8
Defpoints
 62
     0
100
AcDbPoint
 10
3816.299687335181
 20
-1830.337722079986
 30
0.0
  0
POINT
  5
C6A
330
62B
100
AcDbEntity
  8
Defpoints
 62
     0
100
AcDbPoint
 10
3816.299687335181
 20
-1747.735475135779
 30
0.0
  0
ENDBLK
  5
636
330
62B
100
AcDbEntity
  8
0
100
AcDbBlockEnd
  0
BLOCK
  5
642
330
638
100
AcDbEntity
  8
0
100
AcDbBlockBegin
  2
*D2
 70
     1
 10
0.0
 20
0.0
 30
0.0
  3
*D2
  1

  0
LINE
  5
C7D
330
638
100
AcDbEntity
  8
SIZE
 62
     0
370
    -2
100
AcDbLine
 10
3347.299687335182
 20
-1830.337722079987
 30
0.0
 11
3285.879373020369
 21
-1830.337722079987
 31
0.0
  0
LINE
  5
C7E
330
638
100
AcDbEntity
  8
SIZE
 62
     0
370
    -2
100
AcDbLine
 10
3347.299687335182
 20
-2412.337722079987
 30
0.0
 11
3285.879373020369
 21
-2412.337722079987
 31
0.0
  0
LINE
  5
C7F
330
638
100
AcDbEntity
  8
SIZE
 62
     0
370
    -2
100
AcDbLine
 10
3290.879373020369
 20
-1840.337722079986
 30
0.0
 11
3290.879373020369
 21
-2402.337722079987
 31
0.0
  0
INSERT
  5
C80
330
638
100
AcDbEntity
  8
SIZE
 62
     0
370
    -2
100
AcDbBlockReference
  2
_OPEN30
 10
3290.879373020369
 20
-1830.337722079987
 30
0.0
 41
10.0
 42
10.0
 43
10.0
 50
90.0
  0
INSERT
  5
C81
330
638
100
AcDbEntity
  8
SIZE
 62
     0
370
    -2
100
AcDbBlockReference
  2
_OPEN30
 10
3290.879373020369
 20
-2412.337722079987
 30
0.0
 41
10.0
 42
10.0
 43
10.0
 50
270.0
  0
MTEXT
  5
C82
330
638
100
AcDbEntity
  8
SIZE
 62
     0
100
AcDbMText
 10
3280.87937302037
 20
-2121.337722079986
 30
0.0
 40
10.0
 41
0.0
 71
     5
 72
     1
  1
\A1;582
 11
0.0000000000000001
 21
1.0
 31
0.0
 73
     1
 44
1.0
1001
ACAD
1000
MTEXTBEGIN
1070
    73
1070
     1
1070
    44
1040
1.0
1070
    74
1070
     0
1000
MTEXTEND
  0
POINT
  5
C83
330
638
100
AcDbEntity
  8
Defpoints
 62
     0
100
AcDbPoint
 10
3352.299687335182
 20
-1830.337722079987
 30
0.0
  0
POINT
  5
C84
330
638
100
AcDbEntity
  8
Defpoints
 62
     0
100
AcDbPoint
 10
3352.299687335182
 20
-2412.337722079987
 30
0.0
  0
POINT
  5
C85
330
638
100
AcDbEntity
  8
Defpoints
 62
     0
100
AcDbPoint
 10
3290.879373020369
 20
-2412.337722079987
 30
0.0
  0
ENDBLK
  5
643
330
638
100
AcDbEntity
  8
0
100
AcDbBlockEnd
  0
BLOCK
  5
661
330
657
100
AcDbEntity
  8
0
100
AcDbBlockBegin
  2
*D3
 70
     1
 10
0.0
 20
0.0
 30
0.0
  3
*D3
  1

  0
LINE
  5
C74
330
657
100
AcDbEntity
  8
SIZE
 62
     0
370
    -2
100
AcDbLine
 10
3347.299687335182
 20
-2412.337722079987
 30
0.0
 11
3285.237929455933
 21
-2412.337722079987
 31
0.0
  0
LINE
  5
C75
330
657
100
AcDbEntity
  8
SIZE
 62
     0
370
    -2
100
AcDbLine
 10
3347.299687335182
 20
-2994.337722079987
 30
0.0
 11
3285.237929455933
 21
-2994.337722079987
 31
0.0
  0
LINE
  5
C76
330
657
100
AcDbEntity
  8
SIZE
 62
     0
370
    -2
100
AcDbLine
 10
3290.237929455933
 20
-2422.337722079987
 30
0.0
 11
3290.237929455933
 21
-2984.337722079987
 31
0.0
  0
INSERT
  5
C77
330
657
100
AcDbEntity
  8
SIZE
 62
     0
370
    -2
100
AcDbBlockReference
  2
_OPEN30
 10
3290.237929455933
 20
-2412.337722079987
 30
0.0
 41
10.0
 42
10.0
 43
10.0
 50
90.0
  0
INSERT
  5
C78
330
657
100
AcDbEntity
  8
SIZE
 62
     0
370
    -2
100
AcDbBlockReference
  2
_OPEN30
 10
3290.237929455933
 20
-2994.337722079987
 30
0.0
 41
10.0
 42
10.0
 43
10.0
 50
270.0
  0
MTEXT
  5
C79
330
657
100
AcDbEntity
  8
SIZE
 62
     0
100
AcDbMText
 10
3280.237929455934
 20
-2703.337722079986
 30
0.0
 40
10.0
 41
0.0
 71
     5
 72
     1
  1
\A1;582
 11
0.0000000000000001
 21
1.0
 31
0.0
 73
     1
 44
1.0
1001
ACAD
1000
MTEXTBEGIN
1070
    73
1070
     1
1070
    44
1040
1.0
1070
    74
1070
     0
1000
MTEXTEND
  0
POINT
  5
C7A
330
657
100
AcDbEntity
  8
Defpoints
 62
     0
100
AcDbPoint
 10
3352.299687335182
 20
-2412.337722079987
 30
0.0
  0
POINT
  5
C7B
330
657
100
AcDbEntity
  8
Defpoints
 62
     0
100
AcDbPoint
 10
3352.299687335182
 20
-2994.337722079987
 30
0.0
  0
POINT
  5
C7C
330
657
100
AcDbEntity
  8
Defpoints
 62
     0
100
AcDbPoint
 10
3290.237929455933
 20
-2994.337722079987
 30
0.0
  0
ENDBLK
  5
662
330
657
100
AcDbEntity
  8
0
100
AcDbBlockEnd
  0
BLOCK
  5
66E
330
664
100
AcDbEntity
  8
0
100
AcDbBlockBegin
  2
*D4
 70
     1
 10
0.0
 20
0.0
 30
0.0
  3
*D4
  1

  0
LINE
  5
C59
330
664
100
AcDbEntity
  8
SIZE
 62
     0
370
    -2
100
AcDbLine
 10
3824.299687335182
 20
-1802.337722079985
 30
0.0
 11
3824.299687335182
 21
-1707.433427235093
 31
0.0
  0
LINE
  5
C5A
330
664
100
AcDbEntity
  8
SIZE
 62
     0
370
    -2
100
AcDbLine
 10
3344.299687335182
 20
-1802.337722079987
 30
0.0
 11
3344.299687335182
 21
-1707.433427235093
 31
0.0
  0
LINE
  5
C5B
330
664
100
AcDbEntity
  8
SIZE
 62
     0
370
    -2
100
AcDbLine
 10
3814.299687335182
 20
-1712.433427235093
 30
0.0
 11
3354.299687335182
 21
-1712.433427235093
 31
0.0
  0
INSERT
  5
C5C
330
664
100
AcDbEntity
  8
SIZE
 62
     0
370
    -2
100
AcDbBlockReference
  2
_OPEN30
 10
3824.299687335182
 20
-1712.433427235093
 30
0.0
 41
10.0
 42
10.0
 43
10.0
  0
INSERT
  5
C5D
330
664
100
AcDbEntity
  8
SIZE
 62
     0
370
    -2
100
AcDbBlockReference
  2
_OPEN30
 10
3344.299687335182
 20
-1712.433427235093
 30
0.0
 41
10.0
 42
10.0
 43
10.0
 50
180.0
  0
MTEXT
  5
C5E
330
664
100
AcDbEntity
  8
SIZE
 62
     0
100
AcDbMText
 10
3584.299687335182
 20
-1702.433427235093
 30
0.0
 40
10.0
 41
0.0
 71
     5
 72
     1
  1
\A1;480
 73
     1
 44
1.0
1001
ACAD
1000
MTEXTBEGIN
1070
    73
1070
     1
1070
    44
1040
1.0
1070
    74
1070
     0
1000
MTEXTEND
  0
POINT
  5
C5F
330
664
100
AcDbEntity
  8
Defpoints
 62
     0
100
AcDbPoint
 10
3824.299687335182
 20
-1807.337722079985
 30
0.0
  0
POINT
  5
C60
330
664
100
AcDbEntity
  8
Defpoints
 62
     0
100
AcDbPoint
 10
3344.299687335182
 20
-1807.337722079987
 30
0.0
  0
POINT
  5
C61
330
664
100
AcDbEntity
  8
Defpoints
 62
     0
100
AcDbPoint
 10
3344.299687335182
 20
-1712.433427235093
 30
0.0
  0
ENDBLK
  5
66F
330
664
100
AcDbEntity
  8
0
100
AcDbBlockEnd
  0
BLOCK
  5
67B
330
671
100
AcDbEntity
  8
0
100
AcDbBlockBegin
  2
*D5
 70
     1
 10
0.0
 20
0.0
 30
0.0
  3
*D5
  1

  0
LINE
  5
C6B
330
671
100
AcDbEntity
  8
SIZE
 62
     0
370
    -2
100
AcDbLine
 10
3345.299687335181
 20
-1798.333989646529
 30
0.0
 11
3233.847402477543
 21
-1798.333989646529
 31
0.0
  0
LINE
  5
C6C
330
671
100
AcDbEntity
  8
SIZE
 62
     0
370
    -2
100
AcDbLine
 10
3339.299687335182
 20
-3009.337722079987
 30
0.0
 11
3233.847402477543
 21
-3009.337722079987
 31
0.0
  0
LINE
  5
C6D
330
671
100
AcDbEntity
  8
SIZE
 62
     0
370
    -2
100
AcDbLine
 10
3238.847402477543
 20
-1808.333989646529
 30
0.0
 11
3238.847402477543
 21
-2999.337722079987
 31
0.0
  0
INSERT
  5
C6E
330
671
100
AcDbEntity
  8
SIZE
 62
     0
370
    -2
100
AcDbBlockReference
  2
_OPEN30
 10
3238.847402477543
 20
-1798.333989646529
 30
0.0
 41
10.0
 42
10.0
 43
10.0
 50
90.0
  0
INSERT
  5
C6F
330
671
100
AcDbEntity
  8
SIZE
 62
     0
370
    -2
100
AcDbBlockReference
  2
_OPEN30
 10
3238.847402477543
 20
-3009.337722079987
 30
0.0
 41
10.0
 42
10.0
 43
10.0
 50
270.0
  0
MTEXT
  5
C70
330
671
100
AcDbEntity
  8
SIZE
 62
     0
100
AcDbMText
 10
3228.847402477543
 20
-2403.835855863257
 30
0.0
 40
10.0
 41
0.0
 71
     5
 72
     1
  1
\A1;1211
 11
0.0000000000000001
 21
1.0
 31
0.0
 73
     1
 44
1.0
1001
ACAD
1000
MTEXTBEGIN
1070
    73
1070
     1
1070
    44
1040
1.0
1070
    74
1070
     0
1000
MTEXTEND
  0
POINT
  5
C71
330
671
100
AcDbEntity
  8
Defpoints
 62
     0
100
AcDbPoint
 10
3350.299687335182
 20
-1798.333989646529
 30
0.0
  0
POINT
  5
C72
330
671
100
AcDbEntity
  8
Defpoints
 62
     0
100
AcDbPoint
 10
3344.299687335182
 20
-3009.337722079987
 30
0.0
  0
POINT
  5
C73
330
671
100
AcDbEntity
  8
Defpoints
 62
     0
100
AcDbPoint
 10
3238.847402477543
 20
-3009.337722079987
 30
0.0
  0
ENDBLK
  5
67C
330
671
100
AcDbEntity
  8
0
100
AcDbBlockEnd
  0
BLOCK
  5
6F6
330
6F5
100
AcDbEntity
  8
0
100
AcDbBlockBegin
  2
_DOTBLANK
 70
     0
 10
0.0
 20
0.0
 30
0.0
  3
_DOTBLANK
  1

  0
CIRCLE
  5
6F7
330
6F5
100
AcDbEntity
  8
0
  6
Continuous
 62
     7
100
AcDbCircle
 10
0.0
 20
0.0
 30
0.0
 40
0.5
  0
LINE
  5
6F8
330
6F5
100
AcDbEntity
  8
0
  6
Continuous
 62
     7
100
AcDbLine
 10
-0.5
 20
0.0
 30
0.0
 11
-1.0
 21
0.0
 31
0.0
  0
ENDBLK
  5
6F9
330
6F5
100
AcDbEntity
  8
0
100
AcDbBlockEnd
  0
ENDSEC
  0
SECTION
  2
ENTITIES
  0
LINE
  5
2D3
330
2
100
AcDbEntity
  8
HID
100
AcDbLine
 10
3369.299687335182
 20
-2593.936465634933
 30
0.0
 11
3799.299687335182
 21
-2593.936465634933
 31
0.0
  0
LINE
  5
2D4
330
2
100
AcDbEntity
  8
HID
100
AcDbLine
 10
3804.299687335183
 20
-2603.184263566344
 30
0.0
 11
3804.299687335183
 21
-2602.96825605039
 31
0.0
  0
LINE
  5
2D5
330
2
100
AcDbEntity
  8
HID
100
AcDbLine
 10
3364.299687335182
 20
-2603.184263566344
 30
0.0
 11
3804.299687335183
 21
-2603.184263566344
 31
0.0
  0
LINE
  5
2D6
330
2
100
AcDbEntity
  8
HID
100
AcDbLine
 10
3364.299687335182
 20
-2602.96825605039
 30
0.0
 11
3364.299687335182
 21
-2603.184263566344
 31
0.0
  0
LINE
  5
2D7
330
2
100
AcDbEntity
  8
HID
100
AcDbLine
 10
3364.299687335182
 20
-2596.787068301487
 30
0.0
 11
3369.299687335182
 21
-2593.233070932122
 31
0.0
  0
LINE
  5
2D8
330
2
100
AcDbEntity
  8
HID
100
AcDbLine
 10
3369.299687335182
 20
-2593.233070932122
 30
0.0
 11
3799.299687335182
 21
-2593.233070932122
 31
0.0
  0
LINE
  5
2D9
330
2
100
AcDbEntity
  8
HID
100
AcDbLine
 10
3799.299687335182
 20
-2593.233070932122
 30
0.0
 11
3804.299687335183
 21
-2596.787068301487
 31
0.0
  0
LINE
  5
2DA
330
2
100
AcDbEntity
  8
HID
100
AcDbLine
 10
3799.299687335182
 20
-2593.936465634933
 30
0.0
 11
3799.299687335182
 21
-2593.233070932122
 31
0.0
  0
LINE
  5
2DB
330
2
100
AcDbEntity
  8
HID
100
AcDbLine
 10
3804.299687335183
 20
-2597.490463004298
 30
0.0
 11
3799.299687335182
 21
-2593.936465634933
 31
0.0
  0
LINE
  5
2DC
330
2
100
AcDbEntity
  8
HID
100
AcDbLine
 10
3467.299687335182
 20
-2032.269009410639
 30
0.0
 11
3467.299687335182
 21
-2031.881493824187
 31
0.0
  0
LINE
  5
2DD
330
2
100
AcDbEntity
  8
HID
100
AcDbLine
 10
3463.299687335182
 20
-2032.269009410639
 30
0.0
 11
3463.299687335182
 21
-2031.881493824187
 31
0.0
  0
LINE
  5
2DE
330
2
100
AcDbEntity
  8
HID
100
AcDbLine
 10
3705.299687335183
 20
-2032.269009410638
 30
0.0
 11
3705.299687335183
 21
-2031.881493824187
 31
0.0
  0
LINE
  5
2DF
330
2
100
AcDbEntity
  8
HID
100
AcDbLine
 10
3701.299687335183
 20
-2032.269009410638
 30
0.0
 11
3701.299687335183
 21
-2031.881493824187
 31
0.0
  0
LINE
  5
2E0
330
2
100
AcDbEntity
  8
HID
100
AcDbLine
 10
3353.799687335182
 20
-2543.515542955804
 30
0.0
 11
3353.799687335182
 21
-2543.903058542257
 31
0.0
  0
LINE
  5
2E1
330
2
100
AcDbEntity
  8
HID
100
AcDbLine
 10
3358.799687335182
 20
-2543.515542955804
 30
0.0
 11
3358.799687335182
 21
-2543.903058542257
 31
0.0
  0
LINE
  5
2E2
330
2
100
AcDbEntity
  8
HID
100
AcDbLine
 10
3353.799687335182
 20
-2359.142912638106
 30
0.0
 11
3353.799687335182
 21
-2359.530428224557
 31
0.0
  0
LINE
  5
2E3
330
2
100
AcDbEntity
  8
HID
100
AcDbLine
 10
3358.799687335182
 20
-2359.142912638104
 30
0.0
 11
3358.799687335182
 21
-2359.530428224556
 31
0.0
  0
LINE
  5
2E4
330
2
100
AcDbEntity
  8
HID
100
AcDbLine
 10
3353.799687335182
 20
-2174.770282320406
 30
0.0
 11
3353.799687335182
 21
-2175.157797906856
 31
0.0
  0
LINE
  5
2E5
330
2
100
AcDbEntity
  8
HID
100
AcDbLine
 10
3358.799687335182
 20
-2174.770282320404
 30
0.0
 11
3358.799687335182
 21
-2175.157797906856
 31
0.0
  0
LINE
  5
2E6
330
2
100
AcDbEntity
  8
HID
100
AcDbLine
 10
3809.799687335182
 20
-2543.515542955804
 30
0.0
 11
3809.799687335182
 21
-2543.903058542257
 31
0.0
  0
LINE
  5
2E7
330
2
100
AcDbEntity
  8
HID
100
AcDbLine
 10
3814.799687335181
 20
-2543.515542955804
 30
0.0
 11
3814.799687335181
 21
-2543.903058542257
 31
0.0
  0
LINE
  5
2E8
330
2
100
AcDbEntity
  8
HID
100
AcDbLine
 10
3809.799687335182
 20
-2359.142912638104
 30
0.0
 11
3809.799687335182
 21
-2359.530428224557
 31
0.0
  0
LINE
  5
2E9
330
2
100
AcDbEntity
  8
HID
100
AcDbLine
 10
3814.799687335181
 20
-2359.142912638104
 30
0.0
 11
3814.799687335181
 21
-2359.530428224556
 31
0.0
  0
LINE
  5
2EA
330
2
100
AcDbEntity
  8
HID
100
AcDbLine
 10
3809.799687335182
 20
-2174.770282320404
 30
0.0
 11
3809.799687335182
 21
-2175.157797906856
 31
0.0
  0
LINE
  5
2EB
330
2
100
AcDbEntity
  8
HID
100
AcDbLine
 10
3814.799687335181
 20
-2174.770282320404
 30
0.0
 11
3814.799687335181
 21
-2175.157797906856
 31
0.0
  0
LINE
  5
2EC
330
2
100
AcDbEntity
  8
HID
100
AcDbLine
 10
3467.299687335182
 20
-2597.564510714923
 30
0.0
 11
3467.299687335182
 21
-2596.85371124105
 31
0.0
  0
LINE
  5
2ED
330
2
100
AcDbEntity
  8
HID
100
AcDbLine
 10
3463.299687335182
 20
-2597.564510714923
 30
0.0
 11
3463.299687335182
 21
-2596.85371124105
 31
0.0
  0
LINE
  5
2EE
330
2
100
AcDbEntity
  8
HID
100
AcDbLine
 10
3705.299687335183
 20
-2597.564510714923
 30
0.0
 11
3705.299687335183
 21
-2596.85371124105
 31
0.0
  0
LINE
  5
2EF
330
2
100
AcDbEntity
  8
HID
100
AcDbLine
 10
3701.299687335183
 20
-2597.564510714923
 30
0.0
 11
3701.299687335183
 21
-2596.85371124105
 31
0.0
  0
ELLIPSE
  5
2F0
330
2
100
AcDbEntity
  8
HID
100
AcDbEllipse
 10
3465.299687335182
 20
-2031.881493824187
 30
0.0
 11
-2.0
 21
0.0
 31
0.0
210
0.0
220
0.0
230
1.0
 40
0.9218631515885006
 41
1.022667104893447
 42
2.118925548696345
  0
ELLIPSE
  5
2F1
330
2
100
AcDbEntity
  8
OUTLINE
100
AcDbEllipse
 10
3465.299687335182
 20
-2031.881493824187
 30
0.0
 11
-2.0
 21
0.0
 31
0.0
210
0.0
220
0.0
230
1.0
 40
0.9218631515885006
 41
2.118925548696345
 42
7.305852412073031
  0
ELLIPSE
  5
2F2
330
2
100
AcDbEntity
  8
OUTLINE
100
AcDbEllipse
 10
3465.299687335182
 20
-2032.269009410639
 30
0.0
 11
2.0
 21
0.0
 31
0.0
210
0.0
220
0.0
230
1.0
 40
0.9218631515885006
 41
0.1052847268104402
 42
3.036307926779351
  0
ELLIPSE
  5
2F3
330
2
100
AcDbEntity
  8
HID
100
AcDbEllipse
 10
3465.299687335182
 20
-2032.269009410639
 30
0.0
 11
2.0
 21
0.0
 31
0.0
210
0.0
220
0.0
230
1.0
 40
0.9218631515885006
 41
3.036307926779351
 42
6.388470033990025
  0
ELLIPSE
  5
2F4
330
2
100
AcDbEntity
  8
HID
100
AcDbEllipse
 10
3703.299687335182
 20
-2031.881493824187
 30
0.0
 11
-2.0
 21
0.0
 31
0.0
210
0.0
220
0.0
230
1.0
 40
0.9218631515885006
 41
1.022667104893447
 42
2.118925548696345
  0
ELLIPSE
  5
2F5
330
2
100
AcDbEntity
  8
OUTLINE
100
AcDbEllipse
 10
3703.299687335182
 20
-2031.881493824187
 30
0.0
 11
-2.0
 21
0.0
 31
0.0
210
0.0
220
0.0
230
1.0
 40
0.9218631515885006
 41
2.118925548696345
 42
7.305852412073031
  0
ELLIPSE
  5
2F6
330
2
100
AcDbEntity
  8
OUTLINE
100
AcDbEllipse
 10
3703.299687335182
 20
-2032.269009410639
 30
0.0
 11
2.0
 21
0.0
 31
0.0
210
0.0
220
0.0
230
1.0
 40
0.9218631515885006
 41
0.1052847268104402
 42
3.036307926779351
  0
ELLIPSE
  5
2F7
330
2
100
AcDbEntity
  8
HID
100
AcDbEllipse
 10
3703.299687335182
 20
-2032.269009410639
 30
0.0
 11
2.0
 21
0.0
 31
0.0
210
0.0
220
0.0
230
1.0
 40
0.9218631515885006
 41
3.036307926779351
 42
6.388470033990025
  0
ELLIPSE
  5
2F8
330
2
100
AcDbEntity
  8
OUTLINE
100
AcDbEllipse
 10
3356.299687335182
 20
-2543.515542955804
 30
0.0
 11
-2.5
 21
0.0
 31
0.0
210
0.0
220
0.0
230
1.0
 40
0.9218631515885006
 41
0.0000000000000002
 42
6.283185307179584
  0
ELLIPSE
  5
2F9
330
2
100
AcDbEntity
  8
OUTLINE
100
AcDbEllipse
 10
3356.299687335182
 20
-2543.903058542257
 30
0.0
 11
2.5
 21
0.0
 31
0.0
210
0.0
220
0.0
230
1.0
 40
0.9218631515885006
 41
0.0841716141076183
 42
3.057421039482174
  0
ELLIPSE
  5
2FA
330
2
100
AcDbEntity
  8
HID
100
AcDbEllipse
 10
3356.299687335182
 20
-2543.903058542257
 30
0.0
 11
2.5
 21
0.0
 31
0.0
210
0.0
220
0.0
230
1.0
 40
0.9218631515885006
 41
3.057421039482174
 42
6.367356921287201
  0
ELLIPSE
  5
2FB
330
2
100
AcDbEntity
  8
OUTLINE
100
AcDbEllipse
 10
3356.299687335182
 20
-2359.142912638104
 30
0.0
 11
-2.5
 21
0.0
 31
0.0
210
0.0
220
0.0
230
1.0
 40
0.9218631515885006
 41
0.0000000000000002
 42
6.283185307179584
  0
ELLIPSE
  5
2FC
330
2
100
AcDbEntity
  8
OUTLINE
100
AcDbEllipse
 10
3356.299687335182
 20
-2359.530428224557
 30
0.0
 11
2.5
 21
0.0
 31
0.0
210
0.0
220
0.0
230
1.0
 40
0.9218631515885006
 41
0.0841716141075948
 42
3.057421039482198
  0
ELLIPSE
  5
2FD
330
2
100
AcDbEntity
  8
HID
100
AcDbEllipse
 10
3356.299687335182
 20
-2359.530428224557
 30
0.0
 11
2.5
 21
0.0
 31
0.0
210
0.0
220
0.0
230
1.0
 40
0.9218631515885006
 41
3.057421039482198
 42
6.367356921287179
  0
ELLIPSE
  5
2FE
330
2
100
AcDbEntity
  8
OUTLINE
100
AcDbEllipse
 10
3356.299687335182
 20
-2174.770282320404
 30
0.0
 11
-2.5
 21
0.0
 31
0.0
210
0.0
220
0.0
230
1.0
 40
0.9218631515885006
 41
0.0000000000000002
 42
6.283185307179584
  0
ELLIPSE
  5
2FF
330
2
100
AcDbEntity
  8
OUTLINE
100
AcDbEllipse
 10
3356.299687335182
 20
-2175.157797906856
 30
0.0
 11
2.5
 21
0.0
 31
0.0
210
0.0
220
0.0
230
1.0
 40
0.9218631515885006
 41
0.084171614107634
 42
3.057421039482158
  0
ELLIPSE
  5
300
330
2
100
AcDbEntity
  8
HID
100
AcDbEllipse
 10
3356.299687335182
 20
-2175.157797906856
 30
0.0
 11
2.5
 21
0.0
 31
0.0
210
0.0
220
0.0
230
1.0
 40
0.9218631515885006
 41
3.057421039482158
 42
6.367356921287218
  0
ELLIPSE
  5
301
330
2
100
AcDbEntity
  8
OUTLINE
100
AcDbEllipse
 10
3812.299687335182
 20
-2543.515542955804
 30
0.0
 11
-2.5
 21
0.0
 31
0.0
210
0.0
220
0.0
230
1.0
 40
0.9218631515885006
 41
0.0000000000000002
 42
6.283185307179584
  0
ELLIPSE
  5
302
330
2
100
AcDbEntity
  8
OUTLINE
100
AcDbEllipse
 10
3812.299687335182
 20
-2543.903058542257
 30
0.0
 11
2.5
 21
0.0
 31
0.0
210
0.0
220
0.0
230
1.0
 40
0.9218631515885006
 41
0.0841716141076027
 42
3.05742103948219
  0
ELLIPSE
  5
303
330
2
100
AcDbEntity
  8
HID
100
AcDbEllipse
 10
3812.299687335182
 20
-2543.903058542257
 30
0.0
 11
2.5
 21
0.0
 31
0.0
210
0.0
220
0.0
230
1.0
 40
0.9218631515885006
 41
3.05742103948219
 42
6.367356921287186
  0
ELLIPSE
  5
304
330
2
100
AcDbEntity
  8
OUTLINE
100
AcDbEllipse
 10
3812.299687335182
 20
-2359.142912638104
 30
0.0
 11
-2.5
 21
0.0
 31
0.0
210
0.0
220
0.0
230
1.0
 40
0.9218631515885006
 41
0.0000000000000002
 42
6.283185307179584
  0
ELLIPSE
  5
305
330
2
100
AcDbEntity
  8
OUTLINE
100
AcDbEllipse
 10
3812.299687335182
 20
-2359.530428224557
 30
0.0
 11
2.5
 21
0.0
 31
0.0
210
0.0
220
0.0
230
1.0
 40
0.9218631515885006
 41
0.0841716141076105
 42
3.057421039482181
  0
ELLIPSE
  5
306
330
2
100
AcDbEntity
  8
HID
100
AcDbEllipse
 10
3812.299687335182
 20
-2359.530428224557
 30
0.0
 11
2.5
 21
0.0
 31
0.0
210
0.0
220
0.0
230
1.0
 40
0.9218631515885006
 41
3.057421039482181
 42
6.367356921287195
  0
ELLIPSE
  5
307
330
2
100
AcDbEntity
  8
OUTLINE
100
AcDbEllipse
 10
3812.299687335182
 20
-2174.770282320404
 30
0.0
 11
-2.5
 21
0.0
 31
0.0
210
0.0
220
0.0
230
1.0
 40
0.9218631515885006
 41
0.0000000000000002
 42
6.283185307179584
  0
ELLIPSE
  5
308
330
2
100
AcDbEntity
  8
OUTLINE
100
AcDbEllipse
 10
3812.299687335182
 20
-2175.157797906856
 30
0.0
 11
2.5
 21
0.0
 31
0.0
210
0.0
220
0.0
230
1.0
 40
0.9218631515885006
 41
0.084171614107634
 42
3.057421039482158
  0
ELLIPSE
  5
309
330
2
100
AcDbEntity
  8
HID
100
AcDbEllipse
 10
3812.299687335182
 20
-2175.157797906856
 30
0.0
 11
2.5
 21
0.0
 31
0.0
210
0.0
220
0.0
230
1.0
 40
0.9218631515885006
 41
3.057421039482158
 42
6.367356921287218
  0
ELLIPSE
  5
30A
330
2
100
AcDbEntity
  8
OUTLINE
100
AcDbEllipse
 10
3465.299687335182
 20
-2597.564510714923
 30
0.0
 11
-2.0
 21
0.0
 31
0.0
210
0.0
220
0.0
230
1.0
 40
0.7033947028105044
 41
0.0000000000000002
 42
6.283185307179584
  0
ELLIPSE
  5
30B
330
2
100
AcDbEntity
  8
OUTLINE
100
AcDbEllipse
 10
3465.299687335182
 20
-2596.85371124105
 30
0.0
 11
2.0
 21
0.0
 31
0.0
210
0.0
220
0.0
230
1.0
 40
0.7033947028105044
 41
3.396991975832958
 42
6.027785984936418
  0
ELLIPSE
  5
30C
330
2
100
AcDbEntity
  8
HID
100
AcDbEllipse
 10
3465.299687335182
 20
-2596.85371124105
 30
0.0
 11
2.0
 21
0.0
 31
0.0
210
0.0
220
0.0
230
1.0
 40
0.7033947028105044
 41
6.027785984936418
 42
9.680177283012538
  0
ELLIPSE
  5
30D
330
2
100
AcDbEntity
  8
OUTLINE
100
AcDbEllipse
 10
3703.299687335182
 20
-2597.564510714923
 30
0.0
 11
-2.0
 21
0.0
 31
0.0
210
0.0
220
0.0
230
1.0
 40
0.7033947028105044
 41
0.0000000000000002
 42
6.283185307179584
  0
ELLIPSE
  5
30E
330
2
100
AcDbEntity
  8
OUTLINE
100
AcDbEllipse
 10
3703.299687335182
 20
-2596.85371124105
 30
0.0
 11
2.0
 21
0.0
 31
0.0
210
0.0
220
0.0
230
1.0
 40
0.7033947028105044
 41
3.396991975832958
 42
6.027785984936418
  0
ELLIPSE
  5
30F
330
2
100
AcDbEntity
  8
HID
100
AcDbEllipse
 10
3703.299687335182
 20
-2596.85371124105
 30
0.0
 11
2.0
 21
0.0
 31
0.0
210
0.0
220
0.0
230
1.0
 40
0.7033947028105044
 41
6.027785984936418
 42
9.680177283012538
  0
LINE
  5
310
330
2
100
AcDbEntity
  8
HID
100
AcDbLine
 10
3345.299687335181
 20
-1807.337722082293
 30
0.0
 11
3823.299687335182
 21
-1807.337722082293
 31
0.0
  0
LINE
  5
311
330
2
100
AcDbEntity
  8
HID
100
AcDbLine
 10
3345.299687335181
 20
-1807.333989326628
 30
0.0
 11
3823.299687335182
 21
-1807.333989326628
 31
0.0
  0
LINE
  5
312
330
2
100
AcDbEntity
  8
OUTLINE
100
AcDbLine
 10
3345.299687335181
 20
-1806.334255987576
 30
0.0
 11
3345.299687335181
 21
-1806.337840505872
 31
0.0
  0
LINE
  5
313
330
2
100
AcDbEntity
  8
OUTLINE
100
AcDbLine
 10
3823.299687335182
 20
-1806.337840505872
 30
0.0
 11
3823.299687335182
 21
-1806.334255987576
 31
0.0
  0
LINE
  5
314
330
2
100
AcDbEntity
  8
OUTLINE
100
AcDbLine
 10
3345.299687335181
 20
-1806.337840505872
 30
0.0
 11
3345.299687335181
 21
-2021.980826862401
 31
0.0
  0
LINE
  5
315
330
2
100
AcDbEntity
  8
OUTLINE
100
AcDbLine
 10
3345.299687335181
 20
-1806.337840505872
 30
0.0
 11
3823.299687335182
 21
-1806.337840505872
 31
0.0
  0
LINE
  5
316
330
2
100
AcDbEntity
  8
OUTLINE
100
AcDbLine
 10
3823.299687335182
 20
-2021.980826862401
 30
0.0
 11
3823.299687335182
 21
-1806.337840505872
 31
0.0
  0
LINE
  5
317
330
2
100
AcDbEntity
  8
OUTLINE
100
AcDbLine
 10
3345.299687335181
 20
-2021.980826862401
 30
0.0
 11
3345.299687335181
 21
-2035.970388340202
 31
0.0
  0
LINE
  5
318
330
2
100
AcDbEntity
  8
OUTLINE
100
AcDbLine
 10
3345.299687335181
 20
-2021.980826862401
 30
0.0
 11
3823.299687335182
 21
-2021.980826862401
 31
0.0
  0
LINE
  5
319
330
2
100
AcDbEntity
  8
OUTLINE
100
AcDbLine
 10
3823.299687335182
 20
-2035.970388340201
 30
0.0
 11
3823.299687335182
 21
-2021.980826862401
 31
0.0
  0
LINE
  5
31A
330
2
100
AcDbEntity
  8
OUTLINE
100
AcDbLine
 10
3345.299687335181
 20
-1803.333989468805
 30
0.0
 11
3345.299687335181
 21
-1803.33425609421
 31
0.0
  0
LINE
  5
31B
330
2
100
AcDbEntity
  8
OUTLINE
100
AcDbLine
 10
3350.299687335182
 20
-1798.333989646529
 30
0.0
 11
3345.299687335181
 21
-1803.333989468805
 31
0.0
  0
LINE
  5
31C
330
2
100
AcDbEntity
  8
OUTLINE
100
AcDbLine
 10
3350.299687335182
 20
-1798.334256271933
 30
0.0
 11
3350.299687335182
 21
-1798.333989646529
 31
0.0
  0
LINE
  5
31D
330
2
100
AcDbEntity
  8
OUTLINE
100
AcDbLine
 10
3350.299687335182
 20
-1798.333989646529
 30
0.0
 11
3818.299687335183
 21
-1798.333989646529
 31
0.0
  0
LINE
  5
31E
330
2
100
AcDbEntity
  8
OUTLINE
100
AcDbLine
 10
3823.299687335182
 20
-1806.334255987577
 30
0.0
 11
3823.299687335182
 21
-1803.33425609421
 31
0.0
  0
LINE
  5
31F
330
2
100
AcDbEntity
  8
OUTLINE
100
AcDbLine
 10
3345.299687335181
 20
-1806.334255987577
 30
0.0
 11
3823.299687335182
 21
-1806.334255987577
 31
0.0
  0
LINE
  5
320
330
2
100
AcDbEntity
  8
OUTLINE
100
AcDbLine
 10
3345.299687335181
 20
-1803.33425609421
 30
0.0
 11
3345.299687335181
 21
-1806.334255987577
 31
0.0
  0
LINE
  5
321
330
2
100
AcDbEntity
  8
OUTLINE
100
AcDbLine
 10
3345.299687335181
 20
-1803.33425609421
 30
0.0
 11
3350.299687335182
 21
-1798.334256271934
 31
0.0
  0
LINE
  5
322
330
2
100
AcDbEntity
  8
OUTLINE
100
AcDbLine
 10
3350.299687335182
 20
-1798.334256271933
 30
0.0
 11
3818.299687335183
 21
-1798.334256271933
 31
0.0
  0
LINE
  5
323
330
2
100
AcDbEntity
  8
OUTLINE
100
AcDbLine
 10
3823.299687335182
 20
-1803.33425609421
 30
0.0
 11
3823.299687335182
 21
-1803.333989468805
 31
0.0
  0
LINE
  5
324
330
2
100
AcDbEntity
  8
OUTLINE
100
AcDbLine
 10
3818.299687335183
 20
-1798.334256271933
 30
0.0
 11
3823.299687335182
 21
-1803.33425609421
 31
0.0
  0
LINE
  5
325
330
2
100
AcDbEntity
  8
OUTLINE
100
AcDbLine
 10
3818.299687335183
 20
-1798.333989646529
 30
0.0
 11
3818.299687335183
 21
-1798.334256271933
 31
0.0
  0
LINE
  5
326
330
2
100
AcDbEntity
  8
OUTLINE
100
AcDbLine
 10
3823.299687335182
 20
-1803.333989468805
 30
0.0
 11
3818.299687335183
 21
-1798.333989646529
 31
0.0
  0
LINE
  5
327
330
2
100
AcDbEntity
  8
OUTLINE
100
AcDbLine
 10
3823.299687335182
 20
-2036.351905692973
 30
0.0
 11
3823.299687335182
 21
-2035.970388340201
 31
0.0
  0
LINE
  5
328
330
2
100
AcDbEntity
  8
OUTLINE
100
AcDbLine
 10
3823.299687335182
 20
-2035.970388340201
 30
0.0
 11
3818.299687335183
 21
-2040.581187773077
 31
0.0
  0
LINE
  5
329
330
2
100
AcDbEntity
  8
HID
100
AcDbLine
 10
3818.299687335183
 20
-2040.967996696954
 30
0.0
 11
3823.299687335182
 21
-2036.357197264079
 31
0.0
  0
LINE
  5
32A
330
2
100
AcDbEntity
  8
HID
100
AcDbLine
 10
3345.299687335181
 20
-2022.524798965452
 30
0.0
 11
3823.299687335182
 21
-2022.524798965452
 31
0.0
  0
LINE
  5
32B
330
2
100
AcDbEntity
  8
OUTLINE
100
AcDbLine
 10
3350.299687335182
 20
-2040.581187773078
 30
0.0
 11
3818.299687335183
 21
-2040.581187773078
 31
0.0
  0
LINE
  5
32C
330
2
100
AcDbEntity
  8
OUTLINE
100
AcDbLine
 10
3818.299687335183
 20
-2040.581187773076
 30
0.0
 11
3818.299687335183
 21
-2040.961222804726
 31
0.0
  0
LINE
  5
32D
330
2
100
AcDbEntity
  8
HID
100
AcDbLine
 10
3818.299687335183
 20
-2040.961222804726
 30
0.0
 11
3818.299687335183
 21
-2040.967996696954
 31
0.0
  0
LINE
  5
32E
330
2
100
AcDbEntity
  8
HID
100
AcDbLine
 10
3350.299687335182
 20
-2040.967996696954
 30
0.0
 11
3818.299687335183
 21
-2040.967996696954
 31
0.0
  0
LINE
  5
32F
330
2
100
AcDbEntity
  8
OUTLINE
100
AcDbLine
 10
3345.299687335181
 20
-2035.970388340201
 30
0.0
 11
3345.299687335181
 21
-2036.351905692973
 31
0.0
  0
LINE
  5
330
330
2
100
AcDbEntity
  8
OUTLINE
100
AcDbLine
 10
3350.299687335182
 20
-2040.581187773077
 30
0.0
 11
3345.299687335181
 21
-2035.970388340201
 31
0.0
  0
LINE
  5
331
330
2
100
AcDbEntity
  8
HID
100
AcDbLine
 10
3350.299687335182
 20
-2040.967996696954
 30
0.0
 11
3350.299687335182
 21
-2040.961222804726
 31
0.0
  0
LINE
  5
332
330
2
100
AcDbEntity
  8
OUTLINE
100
AcDbLine
 10
3350.299687335182
 20
-2040.961222804726
 30
0.0
 11
3350.299687335182
 21
-2040.581187773076
 31
0.0
  0
LINE
  5
333
330
2
100
AcDbEntity
  8
HID
100
AcDbLine
 10
3345.299687335181
 20
-2036.357197264079
 30
0.0
 11
3350.299687335182
 21
-2040.967996696954
 31
0.0
  0
LINE
  5
334
330
2
100
AcDbEntity
  8
OUTLINE
100
AcDbLine
 10
3354.799687335182
 20
-1828.597115731638
 30
0.0
 11
3357.799687335182
 21
-1828.597115731638
 31
0.0
  0
LINE
  5
335
330
2
100
AcDbEntity
  8
OUTLINE
100
AcDbLine
 10
3357.799687335182
 20
-1829.26754235059
 30
0.0
 11
3354.799687335182
 21
-1829.26754235059
 31
0.0
  0
LINE
  5
336
330
2
100
AcDbEntity
  8
OUTLINE
100
AcDbLine
 10
3357.799687335182
 20
-1828.597115731638
 30
0.0
 11
3357.799687335182
 21
-1830.823043254586
 31
0.0
  0
LINE
  5
337
330
2
100
AcDbEntity
  8
HID
100
AcDbLine
 10
3357.799687335182
 20
-1830.823043254587
 30
0.0
 11
3357.799687335182
 21
-1831.493469873538
 31
0.0
  0
LINE
  5
338
330
2
100
AcDbEntity
  8
OUTLINE
100
AcDbLine
 10
3357.799687335182
 20
-1830.823043254586
 30
0.0
 11
3354.799687335182
 21
-1830.823043254586
 31
0.0
  0
LINE
  5
339
330
2
100
AcDbEntity
  8
HID
100
AcDbLine
 10
3354.799687335182
 20
-1831.493469873537
 30
0.0
 11
3357.799687335182
 21
-1831.493469873537
 31
0.0
  0
LINE
  5
33A
330
2
100
AcDbEntity
  8
HID
100
AcDbLine
 10
3354.799687335182
 20
-1830.823043254587
 30
0.0
 11
3354.799687335182
 21
-1831.493469873538
 31
0.0
  0
LINE
  5
33B
330
2
100
AcDbEntity
  8
OUTLINE
100
AcDbLine
 10
3354.799687335182
 20
-1830.823043254586
 30
0.0
 11
3354.799687335182
 21
-1828.597115731639
 31
0.0
  0
LINE
  5
33C
330
2
100
AcDbEntity
  8
OUTLINE
100
AcDbLine
 10
3810.799687335182
 20
-1828.597115731638
 30
0.0
 11
3813.799687335182
 21
-1828.597115731638
 31
0.0
  0
LINE
  5
33D
330
2
100
AcDbEntity
  8
OUTLINE
100
AcDbLine
 10
3813.799687335182
 20
-1829.26754235059
 30
0.0
 11
3810.799687335182
 21
-1829.26754235059
 31
0.0
  0
LINE
  5
33E
330
2
100
AcDbEntity
  8
OUTLINE
100
AcDbLine
 10
3813.799687335182
 20
-1828.597115731638
 30
0.0
 11
3813.799687335182
 21
-1830.823043254586
 31
0.0
  0
LINE
  5
33F
330
2
100
AcDbEntity
  8
HID
100
AcDbLine
 10
3813.799687335182
 20
-1830.823043254587
 30
0.0
 11
3813.799687335182
 21
-1831.493469873538
 31
0.0
  0
LINE
  5
340
330
2
100
AcDbEntity
  8
OUTLINE
100
AcDbLine
 10
3813.799687335182
 20
-1830.823043254586
 30
0.0
 11
3810.799687335182
 21
-1830.823043254586
 31
0.0
  0
LINE
  5
341
330
2
100
AcDbEntity
  8
HID
100
AcDbLine
 10
3810.799687335182
 20
-1831.493469873537
 30
0.0
 11
3813.799687335182
 21
-1831.493469873537
 31
0.0
  0
LINE
  5
342
330
2
100
AcDbEntity
  8
HID
100
AcDbLine
 10
3810.799687335182
 20
-1830.823043254587
 30
0.0
 11
3810.799687335182
 21
-1831.493469873538
 31
0.0
  0
LINE
  5
343
330
2
100
AcDbEntity
  8
OUTLINE
100
AcDbLine
 10
3810.799687335182
 20
-1830.823043254586
 30
0.0
 11
3810.799687335182
 21
-1828.597115731639
 31
0.0
  0
LINE
  5
344
330
2
100
AcDbEntity
  8
HID
100
AcDbLine
 10
3700.799687335182
 20
-2031.359588907327
 30
0.0
 11
3700.799687335182
 21
-2031.746397831206
 31
0.0
  0
LINE
  5
345
330
2
100
AcDbEntity
  8
HID
100
AcDbLine
 10
3705.799687335183
 20
-2031.359588907327
 30
0.0
 11
3705.799687335183
 21
-2031.746397831205
 31
0.0
  0
LINE
  5
346
330
2
100
AcDbEntity
  8
HID
100
AcDbLine
 10
3462.799687335183
 20
-2031.359588907327
 30
0.0
 11
3462.799687335183
 21
-2031.746397831206
 31
0.0
  0
LINE
  5
347
330
2
100
AcDbEntity
  8
HID
100
AcDbLine
 10
3467.799687335182
 20
-2031.359588907327
 30
0.0
 11
3467.799687335182
 21
-2031.746397831205
 31
0.0
  0
LINE
  5
348
330
2
100
AcDbEntity
  8
HID
100
AcDbLine
 10
3358.799687335182
 20
-1857.050103428116
 30
0.0
 11
3358.799687335182
 21
-1856.379676809165
 31
0.0
  0
LINE
  5
349
330
2
100
AcDbEntity
  8
HID
100
AcDbLine
 10
3353.799687335182
 20
-1857.050103428116
 30
0.0
 11
3353.799687335182
 21
-1856.379676809165
 31
0.0
  0
LINE
  5
34A
330
2
100
AcDbEntity
  8
HID
100
AcDbLine
 10
3358.799687335182
 20
-1983.185996395131
 30
0.0
 11
3358.799687335182
 21
-1982.51556977618
 31
0.0
  0
LINE
  5
34B
330
2
100
AcDbEntity
  8
HID
100
AcDbLine
 10
3353.799687335182
 20
-1983.185996395131
 30
0.0
 11
3353.799687335182
 21
-1982.51556977618
 31
0.0
  0
LINE
  5
34C
330
2
100
AcDbEntity
  8
HID
100
AcDbLine
 10
3814.799687335181
 20
-1857.050103428116
 30
0.0
 11
3814.799687335181
 21
-1856.379676809165
 31
0.0
  0
LINE
  5
34D
330
2
100
AcDbEntity
  8
HID
100
AcDbLine
 10
3809.799687335182
 20
-1857.050103428116
 30
0.0
 11
3809.799687335182
 21
-1856.379676809165
 31
0.0
  0
LINE
  5
34E
330
2
100
AcDbEntity
  8
HID
100
AcDbLine
 10
3814.799687335181
 20
-1983.185996395131
 30
0.0
 11
3814.799687335181
 21
-1982.51556977618
 31
0.0
  0
LINE
  5
34F
330
2
100
AcDbEntity
  8
HID
100
AcDbLine
 10
3809.799687335182
 20
-1983.185996395131
 30
0.0
 11
3809.799687335182
 21
-1982.51556977618
 31
0.0
  0
ELLIPSE
  5
350
330
2
100
AcDbEntity
  8
OUTLINE
100
AcDbEllipse
 10
3703.299687335182
 20
-2031.359588907327
 30
0.0
 11
-2.5
 21
0.0
 31
0.0
210
0.0
220
0.0
230
1.0
 40
0.9221598865750831
 41
0.0000000000000002
 42
6.283185307179584
  0
ELLIPSE
  5
351
330
2
100
AcDbEntity
  8
OUTLINE
100
AcDbEllipse
 10
3465.299687335182
 20
-2031.359588907327
 30
0.0
 11
-2.5
 21
0.0
 31
0.0
210
0.0
220
0.0
230
1.0
 40
0.9221598865750831
 41
0.0000000000000002
 42
6.283185307179584
  0
ELLIPSE
  5
352
330
2
100
AcDbEntity
  8
HID
100
AcDbEllipse
 10
3703.299687335182
 20
-2031.746397831205
 30
0.0
 11
2.5
 21
0.0
 31
0.0
210
0.0
220
0.0
230
1.0
 40
0.9221598865750831
 41
0.0
 42
6.283185307179584
  0
ELLIPSE
  5
353
330
2
100
AcDbEntity
  8
HID
100
AcDbEllipse
 10
3465.299687335182
 20
-2031.746397831205
 30
0.0
 11
2.5
 21
0.0
 31
0.0
210
0.0
220
0.0
230
1.0
 40
0.9221598865750831
 41
0.0
 42
6.283185307179584
  0
ELLIPSE
  5
354
330
2
100
AcDbEntity
  8
OUTLINE
100
AcDbEllipse
 10
3356.299687335182
 20
-1856.379676809165
 30
0.0
 11
-2.5
 21
0.0
 31
0.0
210
0.0
220
0.0
230
1.0
 40
0.7419758409824384
 41
0.0000000000000002
 42
6.283185307179584
  0
ELLIPSE
  5
355
330
2
100
AcDbEntity
  8
OUTLINE
100
AcDbEllipse
 10
3356.299687335182
 20
-1857.050103428116
 30
0.0
 11
2.5
 21
0.0
 31
0.0
210
0.0
220
0.0
230
1.0
 40
0.7419758409824384
 41
0.1817122204532165
 42
2.959880433136576
  0
ELLIPSE
  5
356
330
2
100
AcDbEntity
  8
HID
100
AcDbEllipse
 10
3356.299687335182
 20
-1857.050103428116
 30
0.0
 11
2.5
 21
0.0
 31
0.0
210
0.0
220
0.0
230
1.0
 40
0.7419758409824384
 41
2.959880433136576
 42
6.464897527632802
  0
ELLIPSE
  5
357
330
2
100
AcDbEntity
  8
OUTLINE
100
AcDbEllipse
 10
3356.299687335182
 20
-1982.51556977618
 30
0.0
 11
-2.5
 21
0.0
 31
0.0
210
0.0
220
0.0
230
1.0
 40
0.7419758409824384
 41
0.0000000000000002
 42
6.283185307179584
  0
ELLIPSE
  5
358
330
2
100
AcDbEntity
  8
OUTLINE
100
AcDbEllipse
 10
3356.299687335182
 20
-1983.185996395131
 30
0.0
 11
2.5
 21
0.0
 31
0.0
210
0.0
220
0.0
230
1.0
 40
0.7419758409824384
 41
0.1817122204530901
 42
2.959880433136703
  0
ELLIPSE
  5
359
330
2
100
AcDbEntity
  8
HID
100
AcDbEllipse
 10
3356.299687335182
 20
-1983.185996395131
 30
0.0
 11
2.5
 21
0.0
 31
0.0
210
0.0
220
0.0
230
1.0
 40
0.7419758409824384
 41
2.959880433136703
 42
6.464897527632675
  0
ELLIPSE
  5
35A
330
2
100
AcDbEntity
  8
OUTLINE
100
AcDbEllipse
 10
3812.299687335182
 20
-1856.379676809165
 30
0.0
 11
-2.5
 21
0.0
 31
0.0
210
0.0
220
0.0
230
1.0
 40
0.7419758409824384
 41
0.0000000000000002
 42
6.283185307179584
  0
ELLIPSE
  5
35B
330
2
100
AcDbEntity
  8
OUTLINE
100
AcDbEllipse
 10
3812.299687335182
 20
-1857.050103428116
 30
0.0
 11
2.5
 21
0.0
 31
0.0
210
0.0
220
0.0
230
1.0
 40
0.7419758409824384
 41
0.1817122204532165
 42
2.959880433136576
  0
ELLIPSE
  5
35C
330
2
100
AcDbEntity
  8
HID
100
AcDbEllipse
 10
3812.299687335182
 20
-1857.050103428116
 30
0.0
 11
2.5
 21
0.0
 31
0.0
210
0.0
220
0.0
230
1.0
 40
0.7419758409824384
 41
2.959880433136576
 42
6.464897527632802
  0
ELLIPSE
  5
35D
330
2
100
AcDbEntity
  8
OUTLINE
100
AcDbEllipse
 10
3812.299687335182
 20
-1982.51556977618
 30
0.0
 11
-2.5
 21
0.0
 31
0.0
210
0.0
220
0.0
230
1.0
 40
0.7419758409824384
 41
0.0000000000000002
 42
6.283185307179584
  0
ELLIPSE
  5
35E
330
2
100
AcDbEntity
  8
OUTLINE
100
AcDbEllipse
 10
3812.299687335182
 20
-1983.185996395131
 30
0.0
 11
2.5
 21
0.0
 31
0.0
210
0.0
220
0.0
230
1.0
 40
0.7419758409824384
 41
0.1817122204530901
 42
2.959880433136703
  0
ELLIPSE
  5
35F
330
2
100
AcDbEntity
  8
HID
100
AcDbEllipse
 10
3812.299687335182
 20
-1983.185996395131
 30
0.0
 11
2.5
 21
0.0
 31
0.0
210
0.0
220
0.0
230
1.0
 40
0.7419758409824384
 41
2.959880433136703
 42
6.464897527632675
  0
LINE
  5
4B3
330
2
100
AcDbEntity
  8
NOTE
100
AcDbLine
 10
3827.299687335182
 20
-2991.837722079985
 30
0.0
 11
3820.299687335181
 21
-2991.837722079985
 31
0.0
  0
LINE
  5
4B8
330
2
100
AcDbEntity
  8
NOTE
100
AcDbLine
 10
3816.299687335181
 20
-1830.337722079985
 30
0.0
 11
3816.299687335181
 21
-1830.337722079985
 31
0.0
  0
LINE
  5
4B9
330
2
100
AcDbEntity
  8
NOTE
100
AcDbLine
 10
3816.299687335181
 20
-1830.337722079985
 30
0.0
 11
3816.299687335181
 21
-1830.337722079985
 31
0.0
  0
LINE
  5
4BA
330
2
100
AcDbEntity
  8
NOTE
100
AcDbLine
 10
3809.799687335182
 20
-1830.337722079985
 30
0.0
 11
3816.299687335181
 21
-1830.337722079985
 31
0.0
  0
LINE
  5
4BB
330
2
100
AcDbEntity
  8
NOTE
100
AcDbLine
 10
3816.299687335181
 20
-1830.337722079985
 30
0.0
 11
3822.799687335182
 21
-1830.337722079985
 31
0.0
  0
LINE
  5
4BC
330
2
100
AcDbEntity
  8
NOTE
100
AcDbLine
 10
3816.299687335181
 20
-1836.837722079985
 30
0.0
 11
3816.299687335181
 21
-1830.337722079985
 31
0.0
  0
LINE
  5
4BD
330
2
100
AcDbEntity
  8
NOTE
100
AcDbLine
 10
3816.299687335181
 20
-1830.337722079985
 30
0.0
 11
3816.299687335181
 21
-1823.837722079985
 31
0.0
  0
LINE
  5
4BE
330
2
100
AcDbEntity
  8
NOTE
100
AcDbLine
 10
3816.299687335181
 20
-2412.337722079985
 30
0.0
 11
3816.299687335181
 21
-2412.337722079985
 31
0.0
  0
LINE
  5
4BF
330
2
100
AcDbEntity
  8
NOTE
100
AcDbLine
 10
3816.299687335181
 20
-2412.337722079985
 30
0.0
 11
3816.299687335181
 21
-2412.337722079985
 31
0.0
  0
LINE
  5
4C0
330
2
100
AcDbEntity
  8
NOTE
100
AcDbLine
 10
3809.799687335182
 20
-2412.337722079985
 30
0.0
 11
3816.299687335181
 21
-2412.337722079985
 31
0.0
  0
LINE
  5
4C1
330
2
100
AcDbEntity
  8
NOTE
100
AcDbLine
 10
3816.299687335181
 20
-2412.337722079985
 30
0.0
 11
3822.799687335182
 21
-2412.337722079985
 31
0.0
  0
LINE
  5
4C2
330
2
100
AcDbEntity
  8
NOTE
100
AcDbLine
 10
3816.299687335181
 20
-2418.837722079985
 30
0.0
 11
3816.299687335181
 21
-2412.337722079985
 31
0.0
  0
LINE
  5
4C3
330
2
100
AcDbEntity
  8
NOTE
100
AcDbLine
 10
3816.299687335181
 20
-2412.337722079985
 30
0.0
 11
3816.299687335181
 21
-2405.837722079986
 31
0.0
  0
LINE
  5
4C4
330
2
100
AcDbEntity
  8
NOTE
100
AcDbLine
 10
3816.299687335181
 20
-2994.337722079985
 30
0.0
 11
3816.299687335181
 21
-2994.337722079985
 31
0.0
  0
LINE
  5
4C5
330
2
100
AcDbEntity
  8
NOTE
100
AcDbLine
 10
3816.299687335181
 20
-2994.337722079985
 30
0.0
 11
3816.299687335181
 21
-2994.337722079985
 31
0.0
  0
LINE
  5
4C6
330
2
100
AcDbEntity
  8
NOTE
100
AcDbLine
 10
3809.799687335182
 20
-2994.337722079985
 30
0.0
 11
3816.299687335181
 21
-2994.337722079985
 31
0.0
  0
LINE
  5
4C7
330
2
100
AcDbEntity
  8
NOTE
100
AcDbLine
 10
3816.299687335181
 20
-2994.337722079985
 30
0.0
 11
3822.799687335182
 21
-2994.337722079985
 31
0.0
  0
LINE
  5
4C8
330
2
100
AcDbEntity
  8
NOTE
100
AcDbLine
 10
3816.299687335181
 20
-3000.837722079986
 30
0.0
 11
3816.299687335181
 21
-2994.337722079985
 31
0.0
  0
LINE
  5
4C9
330
2
100
AcDbEntity
  8
NOTE
100
AcDbLine
 10
3816.299687335181
 20
-2994.337722079985
 30
0.0
 11
3816.299687335181
 21
-2987.837722079985
 31
0.0
  0
LINE
  5
4CA
330
2
100
AcDbEntity
  8
NOTE
100
AcDbLine
 10
3341.299687335182
 20
-2991.837722079987
 30
0.0
 11
3348.299687335182
 21
-2991.837722079987
 31
0.0
  0
LINE
  5
4CB
330
2
100
AcDbEntity
  8
NOTE
100
AcDbLine
 10
3352.299687335182
 20
-1830.337722079987
 30
0.0
 11
3352.299687335182
 21
-1830.337722079987
 31
0.0
  0
LINE
  5
4CC
330
2
100
AcDbEntity
  8
NOTE
100
AcDbLine
 10
3352.299687335182
 20
-1830.337722079987
 30
0.0
 11
3352.299687335182
 21
-1830.337722079987
 31
0.0
  0
LINE
  5
4CD
330
2
100
AcDbEntity
  8
NOTE
100
AcDbLine
 10
3345.799687335182
 20
-1830.337722079987
 30
0.0
 11
3352.299687335182
 21
-1830.337722079987
 31
0.0
  0
LINE
  5
4CE
330
2
100
AcDbEntity
  8
NOTE
100
AcDbLine
 10
3352.299687335182
 20
-1830.337722079987
 30
0.0
 11
3358.799687335182
 21
-1830.337722079987
 31
0.0
  0
LINE
  5
4CF
330
2
100
AcDbEntity
  8
NOTE
100
AcDbLine
 10
3352.299687335182
 20
-1836.837722079987
 30
0.0
 11
3352.299687335182
 21
-1830.337722079987
 31
0.0
  0
LINE
  5
4D0
330
2
100
AcDbEntity
  8
NOTE
100
AcDbLine
 10
3352.299687335182
 20
-1830.337722079987
 30
0.0
 11
3352.299687335182
 21
-1823.837722079986
 31
0.0
  0
LINE
  5
4D1
330
2
100
AcDbEntity
  8
NOTE
100
AcDbLine
 10
3352.299687335182
 20
-2412.337722079987
 30
0.0
 11
3352.299687335182
 21
-2412.337722079987
 31
0.0
  0
LINE
  5
4D2
330
2
100
AcDbEntity
  8
NOTE
100
AcDbLine
 10
3352.299687335182
 20
-2412.337722079987
 30
0.0
 11
3352.299687335182
 21
-2412.337722079987
 31
0.0
  0
LINE
  5
4D3
330
2
100
AcDbEntity
  8
NOTE
100
AcDbLine
 10
3345.799687335182
 20
-2412.337722079987
 30
0.0
 11
3352.299687335182
 21
-2412.337722079987
 31
0.0
  0
LINE
  5
4D4
330
2
100
AcDbEntity
  8
NOTE
100
AcDbLine
 10
3352.299687335182
 20
-2412.337722079987
 30
0.0
 11
3358.799687335182
 21
-2412.337722079987
 31
0.0
  0
LINE
  5
4D5
330
2
100
AcDbEntity
  8
NOTE
100
AcDbLine
 10
3352.299687335182
 20
-2418.837722079987
 30
0.0
 11
3352.299687335182
 21
-2412.337722079987
 31
0.0
  0
LINE
  5
4D6
330
2
100
AcDbEntity
  8
NOTE
100
AcDbLine
 10
3352.299687335182
 20
-2412.337722079987
 30
0.0
 11
3352.299687335182
 21
-2405.837722079987
 31
0.0
  0
LINE
  5
4D7
330
2
100
AcDbEntity
  8
NOTE
100
AcDbLine
 10
3352.299687335182
 20
-2994.337722079987
 30
0.0
 11
3352.299687335182
 21
-2994.337722079987
 31
0.0
  0
LINE
  5
4D8
330
2
100
AcDbEntity
  8
NOTE
100
AcDbLine
 10
3352.299687335182
 20
-2994.337722079987
 30
0.0
 11
3352.299687335182
 21
-2994.337722079987
 31
0.0
  0
LINE
  5
4D9
330
2
100
AcDbEntity
  8
NOTE
100
AcDbLine
 10
3345.799687335182
 20
-2994.337722079987
 30
0.0
 11
3352.299687335182
 21
-2994.337722079987
 31
0.0
  0
LINE
  5
4DA
330
2
100
AcDbEntity
  8
NOTE
100
AcDbLine
 10
3352.299687335182
 20
-2994.337722079987
 30
0.0
 11
3358.799687335182
 21
-2994.337722079987
 31
0.0
  0
LINE
  5
4DB
330
2
100
AcDbEntity
  8
NOTE
100
AcDbLine
 10
3352.299687335182
 20
-3000.837722079988
 30
0.0
 11
3352.299687335182
 21
-2994.337722079987
 31
0.0
  0
LINE
  5
4DC
330
2
100
AcDbEntity
  8
NOTE
100
AcDbLine
 10
3352.299687335182
 20
-2994.337722079987
 30
0.0
 11
3352.299687335182
 21
-2987.837722079988
 31
0.0
  0
LINE
  5
50B
330
2
100
AcDbEntity
  8
HID
100
AcDbLine
 10
3823.299687335182
 20
-1808.337722079986
 30
0.0
 11
3804.299687335183
 21
-1808.337722079986
 31
0.0
  0
LINE
  5
50C
330
2
100
AcDbEntity
  8
OUTLINE
100
AcDbLine
 10
3824.299687335182
 20
-2589.996216121682
 30
0.0
 11
3824.299687335182
 21
-3009.337722079986
 31
0.0
  0
LINE
  5
50D
330
2
100
AcDbEntity
  8
OUTLINE
100
AcDbLine
 10
3823.299687335182
 20
-2986.837722079986
 30
0.0
 11
3823.299687335182
 21
-3009.337722079986
 31
0.0
  0
LINE
  5
50E
330
2
100
AcDbEntity
  8
HID
100
AcDbLine
 10
3809.299687335182
 20
-1808.337722079986
 30
0.0
 11
3809.299687335182
 21
-1822.177238899499
 31
0.0
  0
LINE
  5
50F
330
2
100
AcDbEntity
  8
HID
100
AcDbLine
 10
3809.299687335182
 20
-1822.847665518457
 30
0.0
 11
3809.299687335182
 21
-1837.01675571901
 31
0.0
  0
LINE
  5
510
330
2
100
AcDbEntity
  8
HID
100
AcDbLine
 10
3809.299687335182
 20
-1837.687182337969
 30
0.0
 11
3809.299687335182
 21
-2986.837722079986
 31
0.0
  0
LINE
  5
511
330
2
100
AcDbEntity
  8
OUTLINE
100
AcDbLine
 10
3809.299687335182
 20
-2986.837722079986
 30
0.0
 11
3809.299687335182
 21
-3009.337722079986
 31
0.0
  0
LINE
  5
512
330
2
100
AcDbEntity
  8
HID
100
AcDbLine
 10
3809.299687335182
 20
-1808.337722079986
 30
0.0
 11
3809.299687335182
 21
-1807.337722079986
 31
0.0
  0
LINE
  5
513
330
2
100
AcDbEntity
  8
HID
100
AcDbLine
 10
3821.299687335182
 20
-1822.847665518457
 30
0.0
 11
3809.299687335182
 21
-1822.847665518457
 31
0.0
  0
LINE
  5
514
330
2
100
AcDbEntity
  8
HID
100
AcDbLine
 10
3809.299687335182
 20
-1837.687182337969
 30
0.0
 11
3821.299687335182
 21
-1837.687182337969
 31
0.0
  0
LINE
  5
515
330
2
100
AcDbEntity
  8
HID
100
AcDbLine
 10
3821.299687335182
 20
-1837.01675571901
 30
0.0
 11
3821.299687335182
 21
-1837.687182337969
 31
0.0
  0
LINE
  5
516
330
2
100
AcDbEntity
  8
HID
100
AcDbLine
 10
3809.299687335182
 20
-1837.016755719011
 30
0.0
 11
3809.299687335182
 21
-1837.687182337969
 31
0.0
  0
LINE
  5
517
330
2
100
AcDbEntity
  8
HID
100
AcDbLine
 10
3809.299687335182
 20
-1837.687182337969
 30
0.0
 11
3804.299687335183
 21
-1841.397061542847
 31
0.0
  0
LINE
  5
518
330
2
100
AcDbEntity
  8
OUTLINE
100
AcDbLine
 10
3824.299687335182
 20
-1807.337722079986
 30
0.0
 11
3823.299687335179
 21
-1807.337722079986
 31
0.0
  0
LINE
  5
519
330
2
100
AcDbEntity
  8
HID
100
AcDbLine
 10
3823.299687335179
 20
-1807.337722079986
 30
0.0
 11
3804.299687335183
 21
-1807.337722079986
 31
0.0
  0
LINE
  5
51A
330
2
100
AcDbEntity
  8
OUTLINE
100
AcDbLine
 10
3824.299687335182
 20
-1807.337722079985
 30
0.0
 11
3824.299687335182
 21
-2020.284788439987
 31
0.0
  0
LINE
  5
51B
330
2
100
AcDbEntity
  8
HID
100
AcDbLine
 10
3804.299687335183
 20
-1840.726634923888
 30
0.0
 11
3809.299687335182
 21
-1837.01675571901
 31
0.0
  0
LINE
  5
51C
330
2
100
AcDbEntity
  8
HID
100
AcDbLine
 10
3821.299687335182
 20
-1837.016755719011
 30
0.0
 11
3809.299687335182
 21
-1837.016755719011
 31
0.0
  0
LINE
  5
51D
330
2
100
AcDbEntity
  8
HID
100
AcDbLine
 10
3821.299687335182
 20
-1822.177238899498
 30
0.0
 11
3821.299687335182
 21
-1837.01675571901
 31
0.0
  0
LINE
  5
51E
330
2
100
AcDbEntity
  8
HID
100
AcDbLine
 10
3809.299687335182
 20
-1822.177238899498
 30
0.0
 11
3821.299687335182
 21
-1822.177238899498
 31
0.0
  0
LINE
  5
51F
330
2
100
AcDbEntity
  8
HID
100
AcDbLine
 10
3804.299687335183
 20
-1807.337722079985
 30
0.0
 11
3804.299687335183
 21
-1818.467359694619
 31
0.0
  0
LINE
  5
520
330
2
100
AcDbEntity
  8
HID
100
AcDbLine
 10
3809.299687335182
 20
-1822.847665518457
 30
0.0
 11
3809.299687335182
 21
-1822.177238899498
 31
0.0
  0
LINE
  5
521
330
2
100
AcDbEntity
  8
HID
100
AcDbLine
 10
3804.299687335183
 20
-1819.137786313579
 30
0.0
 11
3809.299687335182
 21
-1822.847665518457
 31
0.0
  0
LINE
  5
522
330
2
100
AcDbEntity
  8
HID
100
AcDbLine
 10
3804.299687335183
 20
-1818.467359694619
 30
0.0
 11
3804.299687335183
 21
-1819.137786313618
 31
0.0
  0
LINE
  5
523
330
2
100
AcDbEntity
  8
HID
100
AcDbLine
 10
3809.299687335182
 20
-1822.177238899498
 30
0.0
 11
3804.299687335183
 21
-1818.46735969462
 31
0.0
  0
LINE
  5
524
330
2
100
AcDbEntity
  8
OUTLINE
100
AcDbLine
 10
3824.299687335182
 20
-3009.337722079986
 30
0.0
 11
3823.299687335182
 21
-3009.337722079986
 31
0.0
  0
LINE
  5
525
330
2
100
AcDbEntity
  8
OUTLINE
100
AcDbLine
 10
3823.299687335182
 20
-3009.337722079986
 30
0.0
 11
3809.299687335182
 21
-3009.337722079986
 31
0.0
  0
LINE
  5
526
330
2
100
AcDbEntity
  8
OUTLINE
100
AcDbLine
 10
3809.299687335182
 20
-2986.837722079986
 30
0.0
 11
3823.299687335182
 21
-2986.837722079986
 31
0.0
  0
LINE
  5
527
330
2
100
AcDbEntity
  8
HID
100
AcDbLine
 10
3804.299687335183
 20
-1840.726634923888
 30
0.0
 11
3804.299687335183
 21
-2020.284788439987
 31
0.0
  0
LINE
  5
528
330
2
100
AcDbEntity
  8
HID
100
AcDbLine
 10
3823.299687335182
 20
-2600.378089526165
 30
0.0
 11
3823.299687335182
 21
-2986.837722079986
 31
0.0
  0
LINE
  5
529
330
2
100
AcDbEntity
  8
OUTLINE
100
AcDbLine
 10
3809.299687335182
 20
-2986.837722079986
 30
0.0
 11
3804.299687335184
 21
-2981.837722079987
 31
0.0
  0
LINE
  5
52A
330
2
100
AcDbEntity
  8
HID
100
AcDbLine
 10
3823.299687335182
 20
-2589.760644239636
 30
0.0
 11
3804.299687335183
 21
-2589.760644239636
 31
0.0
  0
LINE
  5
52B
330
2
100
AcDbEntity
  8
HID
100
AcDbLine
 10
3804.299687335183
 20
-2589.996216121682
 30
0.0
 11
3804.299687335183
 21
-2602.96825605039
 31
0.0
  0
LINE
  5
52C
330
2
100
AcDbEntity
  8
OUTLINE
100
AcDbLine
 10
3804.299687335183
 20
-2604.598457743029
 30
0.0
 11
3804.299687335183
 21
-2981.837722079987
 31
0.0
  0
LINE
  5
52D
330
2
100
AcDbEntity
  8
OUTLINE
100
AcDbLine
 10
3824.299687335182
 20
-2020.284788439988
 30
0.0
 11
3823.299687335182
 21
-2020.284788439988
 31
0.0
  0
LINE
  5
52E
330
2
100
AcDbEntity
  8
OUTLINE
100
AcDbLine
 10
3824.299687335182
 20
-2020.284788439989
 30
0.0
 11
3824.299687335182
 21
-2589.996216121682
 31
0.0
  0
LINE
  5
52F
330
2
100
AcDbEntity
  8
OUTLINE
100
AcDbLine
 10
3824.299687335182
 20
-2589.996216121682
 30
0.0
 11
3823.299687335182
 21
-2589.996216121682
 31
0.0
  0
LINE
  5
530
330
2
100
AcDbEntity
  8
HID
100
AcDbLine
 10
3823.299687335182
 20
-2589.996216121682
 30
0.0
 11
3804.299687335183
 21
-2589.996216121682
 31
0.0
  0
LINE
  5
531
330
2
100
AcDbEntity
  8
HID
100
AcDbLine
 10
3804.299687335183
 20
-2024.894104197931
 30
0.0
 11
3804.299687335183
 21
-2589.996216121682
 31
0.0
  0
LINE
  5
532
330
2
100
AcDbEntity
  8
HID
100
AcDbLine
 10
3804.299687335183
 20
-2020.695378814791
 30
0.0
 11
3804.299687335183
 21
-2020.284788439988
 31
0.0
  0
LINE
  5
533
330
2
100
AcDbEntity
  8
HID
100
AcDbLine
 10
3823.299687335182
 20
-2020.284788439988
 30
0.0
 11
3804.299687335183
 21
-2020.284788439988
 31
0.0
  0
LINE
  5
534
330
2
100
AcDbEntity
  8
HID
100
AcDbLine
 10
3823.299687335182
 20
-2020.695378814793
 30
0.0
 11
3804.299687335183
 21
-2020.695378814793
 31
0.0
  0
LINE
  5
535
330
2
100
AcDbEntity
  8
HID
100
AcDbLine
 10
3823.299687335182
 20
-2024.894104197931
 30
0.0
 11
3804.299687335183
 21
-2024.894104197931
 31
0.0
  0
LINE
  5
536
330
2
100
AcDbEntity
  8
HID
100
AcDbLine
 10
3804.299687335183
 20
-2025.281619784383
 30
0.0
 11
3823.299687335182
 21
-2025.281619784383
 31
0.0
  0
LINE
  5
537
330
2
100
AcDbEntity
  8
HID
100
AcDbLine
 10
3824.299687335182
 20
-2976.337722079986
 30
0.0
 11
3823.299687335182
 21
-2976.337722079986
 31
0.0
  0
LINE
  5
538
330
2
100
AcDbEntity
  8
HID
100
AcDbLine
 10
3824.299687335182
 20
-2979.337722079986
 30
0.0
 11
3823.299687335182
 21
-2979.337722079986
 31
0.0
  0
LINE
  5
539
330
2
100
AcDbEntity
  8
HID
100
AcDbLine
 10
3810.299687335182
 20
-1857.050103425352
 30
0.0
 11
3810.299687335182
 21
-1857.720530044311
 31
0.0
  0
LINE
  5
53A
330
2
100
AcDbEntity
  8
HID
100
AcDbLine
 10
3814.299687335182
 20
-1857.050103425352
 30
0.0
 11
3814.299687335182
 21
-1857.720530044311
 31
0.0
  0
LINE
  5
53B
330
2
100
AcDbEntity
  8
HID
100
AcDbLine
 10
3810.299687335182
 20
-1983.185996391207
 30
0.0
 11
3810.299687335182
 21
-1983.856423010166
 31
0.0
  0
LINE
  5
53C
330
2
100
AcDbEntity
  8
HID
100
AcDbLine
 10
3814.299687335182
 20
-1983.185996391207
 30
0.0
 11
3814.299687335182
 21
-1983.856423010166
 31
0.0
  0
LINE
  5
53D
330
2
100
AcDbEntity
  8
HID
100
AcDbLine
 10
3810.299687335182
 20
-2175.157797906856
 30
0.0
 11
3810.299687335182
 21
-2175.545313493308
 31
0.0
  0
LINE
  5
53E
330
2
100
AcDbEntity
  8
HID
100
AcDbLine
 10
3814.299687335182
 20
-2175.157797906856
 30
0.0
 11
3814.299687335182
 21
-2175.545313493308
 31
0.0
  0
LINE
  5
53F
330
2
100
AcDbEntity
  8
HID
100
AcDbLine
 10
3810.299687335182
 20
-2359.530428224557
 30
0.0
 11
3810.299687335182
 21
-2359.917943811009
 31
0.0
  0
LINE
  5
540
330
2
100
AcDbEntity
  8
HID
100
AcDbLine
 10
3814.299687335182
 20
-2359.530428224556
 30
0.0
 11
3814.299687335182
 21
-2359.917943811008
 31
0.0
  0
LINE
  5
541
330
2
100
AcDbEntity
  8
HID
100
AcDbLine
 10
3810.299687335182
 20
-2543.903058542257
 30
0.0
 11
3810.299687335182
 21
-2544.290574128709
 31
0.0
  0
LINE
  5
542
330
2
100
AcDbEntity
  8
HID
100
AcDbLine
 10
3814.299687335182
 20
-2543.903058542256
 30
0.0
 11
3814.299687335182
 21
-2544.290574128708
 31
0.0
  0
LINE
  5
543
330
2
100
AcDbEntity
  8
HID
100
AcDbLine
 10
3814.299687335182
 20
-2669.466449226876
 30
0.0
 11
3814.299687335182
 21
-2668.755532701267
 31
0.0
  0
LINE
  5
544
330
2
100
AcDbEntity
  8
HID
100
AcDbLine
 10
3810.299687335182
 20
-2669.466449226875
 30
0.0
 11
3810.299687335182
 21
-2668.755532701267
 31
0.0
  0
LINE
  5
545
330
2
100
AcDbEntity
  8
HID
100
AcDbLine
 10
3814.299687335182
 20
-2915.613188933227
 30
0.0
 11
3814.299687335182
 21
-2914.902272407616
 31
0.0
  0
LINE
  5
546
330
2
100
AcDbEntity
  8
HID
100
AcDbLine
 10
3810.299687335182
 20
-2915.613188933225
 30
0.0
 11
3810.299687335182
 21
-2914.902272407616
 31
0.0
  0
LINE
  5
547
330
2
100
AcDbEntity
  8
HID
100
AcDbLine
 10
3824.299687335182
 20
-2989.337722079986
 30
0.0
 11
3823.299687335182
 21
-2989.337722079986
 31
0.0
  0
LINE
  5
548
330
2
100
AcDbEntity
  8
HID
100
AcDbLine
 10
3824.299687335182
 20
-2994.337722079987
 30
0.0
 11
3823.299687335182
 21
-2994.337722079987
 31
0.0
  0
ARC
  5
549
330
2
100
AcDbEntity
  8
OUTLINE
100
AcDbCircle
 10
3816.299687335181
 20
-1830.337722079986
 30
0.0
 40
3.5
100
AcDbArc
 50
162.1957676183482
 51
187.9704983590245
  0
ARC
  5
54A
330
2
100
AcDbEntity
  8
HID
100
AcDbCircle
 10
3816.299687335181
 20
-1830.337722079986
 30
0.0
 40
3.5
100
AcDbArc
 50
187.9704983590245
 51
162.1957676183482
  0
CIRCLE
  5
54B
330
2
100
AcDbEntity
  8
HID
100
AcDbCircle
 10
3816.299687335181
 20
-2412.337722079986
 30
0.0
 40
3.5
  0
CIRCLE
  5
54C
330
2
100
AcDbEntity
  8
OUTLINE
100
AcDbCircle
 10
3816.299687335181
 20
-2994.337722079987
 30
0.0
 40
3.5
  0
ELLIPSE
  5
54D
330
2
100
AcDbEntity
  8
OUTLINE
100
AcDbEllipse
 10
3812.299687335182
 20
-1857.720530044311
 30
0.0
 11
2.0
 21
0.0
 31
0.0
210
0.0
220
0.0
230
1.0
 40
0.7419758409756163
 41
0.2278589501840741
 42
2.913733703405676
  0
ELLIPSE
  5
54E
330
2
100
AcDbEntity
  8
HID
100
AcDbEllipse
 10
3812.299687335182
 20
-1857.720530044311
 30
0.0
 11
2.0
 21
0.0
 31
0.0
210
0.0
220
0.0
230
1.0
 40
0.7419758409756163
 41
2.913733703405676
 42
6.51104425736366
  0
ELLIPSE
  5
54F
330
2
100
AcDbEntity
  8
OUTLINE
100
AcDbEllipse
 10
3812.299687335182
 20
-1983.856423010166
 30
0.0
 11
2.0
 21
0.0
 31
0.0
210
0.0
220
0.0
230
1.0
 40
0.7419758409756163
 41
0.2278589501840946
 42
2.913733703405698
  0
ELLIPSE
  5
550
330
2
100
AcDbEntity
  8
HID
100
AcDbEllipse
 10
3812.299687335182
 20
-1983.856423010166
 30
0.0
 11
2.0
 21
0.0
 31
0.0
210
0.0
220
0.0
230
1.0
 40
0.7419758409756163
 41
2.913733703405698
 42
6.511044257363677
  0
ELLIPSE
  5
551
330
2
100
AcDbEntity
  8
HID
100
AcDbEllipse
 10
3812.299687335182
 20
-1983.185996391207
 30
0.0
 11
-2.0
 21
0.0
 31
0.0
210
0.0
220
0.0
230
1.0
 40
0.7419758409756163
 41
0.4078523500004744
 42
2.733740303589319
  0
ELLIPSE
  5
552
330
2
100
AcDbEntity
  8
OUTLINE
100
AcDbEllipse
 10
3812.299687335182
 20
-1983.185996391207
 30
0.0
 11
-2.0
 21
0.0
 31
0.0
210
0.0
220
0.0
230
1.0
 40
0.7419758409756163
 41
2.733740303589319
 42
6.691037657180059
  0
ELLIPSE
  5
553
330
2
100
AcDbEntity
  8
HID
100
AcDbEllipse
 10
3812.299687335182
 20
-1857.050103425352
 30
0.0
 11
-2.0
 21
0.0
 31
0.0
210
0.0
220
0.0
230
1.0
 40
0.7419758409756163
 41
0.407852348401829
 42
2.733740305187962
  0
ELLIPSE
  5
554
330
2
100
AcDbEntity
  8
OUTLINE
100
AcDbEllipse
 10
3812.299687335182
 20
-1857.050103425352
 30
0.0
 11
-2.0
 21
0.0
 31
0.0
210
0.0
220
0.0
230
1.0
 40
0.7419758409756163
 41
2.733740305187962
 42
6.691037655581411
  0
ELLIPSE
  5
555
330
2
100
AcDbEntity
  8
OUTLINE
100
AcDbEllipse
 10
3812.299687335182
 20
-2544.290574128709
 30
0.0
 11
2.0
 21
0.0
 31
0.0
210
0.0
220
0.0
230
1.0
 40
0.9218631515885004
 41
0.1052847268102987
 42
3.036307926779493
  0
ELLIPSE
  5
556
330
2
100
AcDbEntity
  8
HID
100
AcDbEllipse
 10
3812.299687335182
 20
-2544.290574128709
 30
0.0
 11
2.0
 21
0.0
 31
0.0
210
0.0
220
0.0
230
1.0
 40
0.9218631515885004
 41
3.036307926779493
 42
6.388470033989882
  0
ELLIPSE
  5
557
330
2
100
AcDbEntity
  8
OUTLINE
100
AcDbEllipse
 10
3812.299687335182
 20
-2359.917943811008
 30
0.0
 11
2.0
 21
0.0
 31
0.0
210
0.0
220
0.0
230
1.0
 40
0.9218631515885004
 41
0.1052847268103378
 42
3.036307926779443
  0
ELLIPSE
  5
558
330
2
100
AcDbEntity
  8
HID
100
AcDbEllipse
 10
3812.299687335182
 20
-2359.917943811008
 30
0.0
 11
2.0
 21
0.0
 31
0.0
210
0.0
220
0.0
230
1.0
 40
0.9218631515885004
 41
3.036307926779443
 42
6.388470033989922
  0
ELLIPSE
  5
559
330
2
100
AcDbEntity
  8
OUTLINE
100
AcDbEllipse
 10
3812.299687335182
 20
-2175.545313493308
 30
0.0
 11
2.0
 21
0.0
 31
0.0
210
0.0
220
0.0
230
1.0
 40
0.9218631515885004
 41
0.1052847268103573
 42
3.036307926779435
  0
ELLIPSE
  5
55A
330
2
100
AcDbEntity
  8
HID
100
AcDbEllipse
 10
3812.299687335182
 20
-2175.545313493308
 30
0.0
 11
2.0
 21
0.0
 31
0.0
210
0.0
220
0.0
230
1.0
 40
0.9218631515885004
 41
3.036307926779435
 42
6.388470033989942
  0
ELLIPSE
  5
55B
330
2
100
AcDbEntity
  8
OUTLINE
100
AcDbEllipse
 10
3812.299687335182
 20
-2543.903058542257
 30
0.0
 11
-2.0
 21
0.0
 31
0.0
210
0.0
220
0.0
230
1.0
 40
0.9218631515885004
 41
0.0000000000000002
 42
6.283185307179584
  0
ELLIPSE
  5
55C
330
2
100
AcDbEntity
  8
OUTLINE
100
AcDbEllipse
 10
3812.299687335182
 20
-2359.530428224556
 30
0.0
 11
-2.0
 21
0.0
 31
0.0
210
0.0
220
0.0
230
1.0
 40
0.9218631515885004
 41
0.0000000000000002
 42
6.283185307179584
  0
ELLIPSE
  5
55D
330
2
100
AcDbEntity
  8
OUTLINE
100
AcDbEllipse
 10
3812.299687335182
 20
-2175.157797906856
 30
0.0
 11
-2.0
 21
0.0
 31
0.0
210
0.0
220
0.0
230
1.0
 40
0.9218631515885004
 41
0.0000000000000002
 42
6.283185307179584
  0
ELLIPSE
  5
55E
330
2
100
AcDbEntity
  8
OUTLINE
100
AcDbEllipse
 10
3812.299687335182
 20
-2669.466449226875
 30
0.0
 11
-2.0
 21
0.0
 31
0.0
210
0.0
220
0.0
230
1.0
 40
0.7032763991609992
 41
0.0000000000000002
 42
6.283185307179584
  0
ELLIPSE
  5
55F
330
2
100
AcDbEntity
  8
OUTLINE
100
AcDbEllipse
 10
3812.299687335182
 20
-2668.755532701267
 30
0.0
 11
2.0
 21
0.0
 31
0.0
210
0.0
220
0.0
230
1.0
 40
0.7032763991609992
 41
3.397078903106963
 42
6.02769905766241
  0
ELLIPSE
  5
560
330
2
100
AcDbEntity
  8
HID
100
AcDbEllipse
 10
3812.299687335182
 20
-2668.755532701267
 30
0.0
 11
2.0
 21
0.0
 31
0.0
210
0.0
220
0.0
230
1.0
 40
0.7032763991609992
 41
6.02769905766241
 42
9.680264210286553
  0
ELLIPSE
  5
561
330
2
100
AcDbEntity
  8
OUTLINE
100
AcDbEllipse
 10
3812.299687335182
 20
-2915.613188933225
 30
0.0
 11
-2.0
 21
0.0
 31
0.0
210
0.0
220
0.0
230
1.0
 40
0.7032763991609992
 41
0.0000000000000002
 42
6.283185307179584
  0
ELLIPSE
  5
562
330
2
100
AcDbEntity
  8
OUTLINE
100
AcDbEllipse
 10
3812.299687335182
 20
-2914.902272407616
 30
0.0
 11
2.0
 21
0.0
 31
0.0
210
0.0
220
0.0
230
1.0
 40
0.7032763991609992
 41
3.397078903106985
 42
6.027699057662394
  0
ELLIPSE
  5
563
330
2
100
AcDbEntity
  8
HID
100
AcDbEllipse
 10
3812.299687335182
 20
-2914.902272407616
 30
0.0
 11
2.0
 21
0.0
 31
0.0
210
0.0
220
0.0
230
1.0
 40
0.7032763991609992
 41
6.027699057662394
 42
9.680264210286571
  0
LINE
  5
564
330
2
100
AcDbEntity
  8
OUTLINE
100
AcDbLine
 10
3344.299687335182
 20
-2020.284788439989
 30
0.0
 11
3344.299687335182
 21
-2589.996216121682
 31
0.0
  0
LINE
  5
565
330
2
100
AcDbEntity
  8
HID
100
AcDbLine
 10
3359.299687335183
 20
-1808.337722079986
 30
0.0
 11
3359.299687335183
 21
-1807.337722079987
 31
0.0
  0
LINE
  5
566
330
2
100
AcDbEntity
  8
OUTLINE
100
AcDbLine
 10
3345.299687335181
 20
-2020.284788439989
 30
0.0
 11
3344.299687335182
 21
-2020.284788439989
 31
0.0
  0
LINE
  5
567
330
2
100
AcDbEntity
  8
OUTLINE
100
AcDbLine
 10
3344.299687335182
 20
-1807.337722079987
 30
0.0
 11
3344.299687335182
 21
-2020.284788439989
 31
0.0
  0
LINE
  5
568
330
2
100
AcDbEntity
  8
HID
100
AcDbLine
 10
3364.299687335182
 20
-1807.337722079987
 30
0.0
 11
3345.299687335181
 21
-1807.337722079987
 31
0.0
  0
LINE
  5
569
330
2
100
AcDbEntity
  8
OUTLINE
100
AcDbLine
 10
3345.299687335181
 20
-1807.337722079987
 30
0.0
 11
3344.299687335182
 21
-1807.337722079987
 31
0.0
  0
LINE
  5
56A
330
2
100
AcDbEntity
  8
HID
100
AcDbLine
 10
3359.299687335183
 20
-1837.016755719011
 30
0.0
 11
3347.299687335183
 21
-1837.016755719011
 31
0.0
  0
LINE
  5
56B
330
2
100
AcDbEntity
  8
HID
100
AcDbLine
 10
3347.299687335183
 20
-1837.016755719012
 30
0.0
 11
3347.299687335183
 21
-1837.68718233797
 31
0.0
  0
LINE
  5
56C
330
2
100
AcDbEntity
  8
HID
100
AcDbLine
 10
3347.299687335183
 20
-1837.016755719011
 30
0.0
 11
3347.299687335183
 21
-1822.177238899499
 31
0.0
  0
LINE
  5
56D
330
2
100
AcDbEntity
  8
HID
100
AcDbLine
 10
3347.299687335183
 20
-1822.177238899499
 30
0.0
 11
3359.299687335183
 21
-1822.177238899499
 31
0.0
  0
LINE
  5
56E
330
2
100
AcDbEntity
  8
HID
100
AcDbLine
 10
3364.299687335182
 20
-1840.72663492389
 30
0.0
 11
3364.299687335182
 21
-2020.284788439989
 31
0.0
  0
LINE
  5
56F
330
2
100
AcDbEntity
  8
HID
100
AcDbLine
 10
3359.299687335183
 20
-1837.68718233797
 30
0.0
 11
3359.299687335183
 21
-1837.016755719011
 31
0.0
  0
LINE
  5
570
330
2
100
AcDbEntity
  8
HID
100
AcDbLine
 10
3359.299687335183
 20
-1837.016755719011
 30
0.0
 11
3364.299687335182
 21
-1840.726634923889
 31
0.0
  0
LINE
  5
571
330
2
100
AcDbEntity
  8
HID
100
AcDbLine
 10
3364.299687335182
 20
-1841.397061542848
 30
0.0
 11
3359.299687335183
 21
-1837.68718233797
 31
0.0
  0
LINE
  5
572
330
2
100
AcDbEntity
  8
HID
100
AcDbLine
 10
3347.299687335183
 20
-1837.68718233797
 30
0.0
 11
3359.299687335183
 21
-1837.68718233797
 31
0.0
  0
LINE
  5
573
330
2
100
AcDbEntity
  8
HID
100
AcDbLine
 10
3359.299687335183
 20
-1822.847665518458
 30
0.0
 11
3347.299687335183
 21
-1822.847665518458
 31
0.0
  0
LINE
  5
574
330
2
100
AcDbEntity
  8
HID
100
AcDbLine
 10
3364.299687335182
 20
-1808.337722079986
 30
0.0
 11
3345.299687335181
 21
-1808.337722079986
 31
0.0
  0
LINE
  5
575
330
2
100
AcDbEntity
  8
HID
100
AcDbLine
 10
3364.299687335182
 20
-1807.337722079987
 30
0.0
 11
3364.299687335182
 21
-1818.46735969462
 31
0.0
  0
LINE
  5
576
330
2
100
AcDbEntity
  8
HID
100
AcDbLine
 10
3359.299687335183
 20
-1822.177238899499
 30
0.0
 11
3359.299687335183
 21
-1822.847665518458
 31
0.0
  0
LINE
  5
577
330
2
100
AcDbEntity
  8
HID
100
AcDbLine
 10
3364.299687335182
 20
-1818.46735969462
 30
0.0
 11
3359.299687335183
 21
-1822.177238899499
 31
0.0
  0
LINE
  5
578
330
2
100
AcDbEntity
  8
HID
100
AcDbLine
 10
3364.299687335182
 20
-1819.13778631358
 30
0.0
 11
3364.299687335182
 21
-1818.46735969462
 31
0.0
  0
LINE
  5
579
330
2
100
AcDbEntity
  8
HID
100
AcDbLine
 10
3359.299687335183
 20
-1822.847665518458
 30
0.0
 11
3364.299687335182
 21
-1819.13778631358
 31
0.0
  0
LINE
  5
57A
330
2
100
AcDbEntity
  8
OUTLINE
100
AcDbLine
 10
3345.299687335181
 20
-3009.337722079987
 30
0.0
 11
3344.299687335182
 21
-3009.337722079987
 31
0.0
  0
LINE
  5
57B
330
2
100
AcDbEntity
  8
OUTLINE
100
AcDbLine
 10
3344.299687335182
 20
-2589.996216121683
 30
0.0
 11
3344.299687335182
 21
-3009.337722079987
 31
0.0
  0
LINE
  5
57C
330
2
100
AcDbEntity
  8
HID
100
AcDbLine
 10
3364.299687335182
 20
-2589.996216121683
 30
0.0
 11
3345.299687335181
 21
-2589.996216121683
 31
0.0
  0
LINE
  5
57D
330
2
100
AcDbEntity
  8
OUTLINE
100
AcDbLine
 10
3345.299687335181
 20
-2589.996216121683
 30
0.0
 11
3344.299687335182
 21
-2589.996216121683
 31
0.0
  0
LINE
  5
57E
330
2
100
AcDbEntity
  8
OUTLINE
100
AcDbLine
 10
3359.299687335183
 20
-3009.337722079987
 30
0.0
 11
3345.299687335181
 21
-3009.337722079987
 31
0.0
  0
LINE
  5
57F
330
2
100
AcDbEntity
  8
OUTLINE
100
AcDbLine
 10
3359.299687335183
 20
-3009.337722079987
 30
0.0
 11
3359.299687335183
 21
-2986.837722079987
 31
0.0
  0
LINE
  5
580
330
2
100
AcDbEntity
  8
HID
100
AcDbLine
 10
3359.299687335183
 20
-2986.837722079987
 30
0.0
 11
3359.299687335183
 21
-1837.68718233797
 31
0.0
  0
LINE
  5
581
330
2
100
AcDbEntity
  8
HID
100
AcDbLine
 10
3359.299687335183
 20
-1837.016755719011
 30
0.0
 11
3359.299687335183
 21
-1822.847665518458
 31
0.0
  0
LINE
  5
582
330
2
100
AcDbEntity
  8
HID
100
AcDbLine
 10
3359.299687335183
 20
-1822.177238899499
 30
0.0
 11
3359.299687335183
 21
-1808.337722079986
 31
0.0
  0
LINE
  5
583
330
2
100
AcDbEntity
  8
OUTLINE
100
AcDbLine
 10
3345.299687335181
 20
-2986.837722079987
 30
0.0
 11
3359.299687335183
 21
-2986.837722079987
 31
0.0
  0
LINE
  5
584
330
2
100
AcDbEntity
  8
OUTLINE
100
AcDbLine
 10
3364.299687335182
 20
-2981.837722079987
 30
0.0
 11
3359.299687335183
 21
-2986.837722079987
 31
0.0
  0
LINE
  5
585
330
2
100
AcDbEntity
  8
HID
100
AcDbLine
 10
3364.299687335182
 20
-2589.996216121683
 30
0.0
 11
3364.299687335182
 21
-2602.96825605039
 31
0.0
  0
LINE
  5
586
330
2
100
AcDbEntity
  8
OUTLINE
100
AcDbLine
 10
3364.299687335182
 20
-2604.598457743029
 30
0.0
 11
3364.299687335182
 21
-2981.837722079987
 31
0.0
  0
LINE
  5
587
330
2
100
AcDbEntity
  8
HID
100
AcDbLine
 10
3364.299687335182
 20
-2024.894104197931
 30
0.0
 11
3364.299687335182
 21
-2589.996216121682
 31
0.0
  0
LINE
  5
588
330
2
100
AcDbEntity
  8
HID
100
AcDbLine
 10
3364.299687335182
 20
-2589.760644239638
 30
0.0
 11
3345.299687335181
 21
-2589.760644239638
 31
0.0
  0
LINE
  5
589
330
2
100
AcDbEntity
  8
OUTLINE
100
AcDbLine
 10
3345.299687335181
 20
-3009.337722079987
 30
0.0
 11
3345.299687335181
 21
-2986.837722079987
 31
0.0
  0
LINE
  5
58A
330
2
100
AcDbEntity
  8
HID
100
AcDbLine
 10
3345.299687335181
 20
-2600.378089526165
 30
0.0
 11
3345.299687335181
 21
-2986.837722079987
 31
0.0
  0
LINE
  5
58B
330
2
100
AcDbEntity
  8
HID
100
AcDbLine
 10
3364.299687335182
 20
-2020.284788439989
 30
0.0
 11
3345.299687335181
 21
-2020.284788439989
 31
0.0
  0
LINE
  5
58C
330
2
100
AcDbEntity
  8
HID
100
AcDbLine
 10
3364.299687335182
 20
-2020.284788439989
 30
0.0
 11
3364.299687335182
 21
-2020.695378814794
 31
0.0
  0
LINE
  5
58D
330
2
100
AcDbEntity
  8
HID
100
AcDbLine
 10
3364.299687335182
 20
-2020.695378814794
 30
0.0
 11
3345.299687335181
 21
-2020.695378814794
 31
0.0
  0
LINE
  5
58E
330
2
100
AcDbEntity
  8
HID
100
AcDbLine
 10
3364.299687335182
 20
-2024.894104197932
 30
0.0
 11
3345.299687335181
 21
-2024.894104197932
 31
0.0
  0
LINE
  5
58F
330
2
100
AcDbEntity
  8
HID
100
AcDbLine
 10
3345.299687335181
 20
-2025.281619784384
 30
0.0
 11
3364.299687335182
 21
-2025.281619784384
 31
0.0
  0
LINE
  5
590
330
2
100
AcDbEntity
  8
HID
100
AcDbLine
 10
3344.299687335182
 20
-2976.337722079987
 30
0.0
 11
3345.299687335181
 21
-2976.337722079987
 31
0.0
  0
LINE
  5
591
330
2
100
AcDbEntity
  8
HID
100
AcDbLine
 10
3344.299687335182
 20
-2979.337722079987
 30
0.0
 11
3345.299687335181
 21
-2979.337722079987
 31
0.0
  0
LINE
  5
592
330
2
100
AcDbEntity
  8
HID
100
AcDbLine
 10
3354.299687335184
 20
-1857.050103425353
 30
0.0
 11
3354.299687335184
 21
-1857.720530044312
 31
0.0
  0
LINE
  5
593
330
2
100
AcDbEntity
  8
HID
100
AcDbLine
 10
3358.299687335183
 20
-1857.050103425353
 30
0.0
 11
3358.299687335183
 21
-1857.720530044312
 31
0.0
  0
LINE
  5
594
330
2
100
AcDbEntity
  8
HID
100
AcDbLine
 10
3354.216595867781
 20
-1983.185996391209
 30
0.0
 11
3354.216595867781
 21
-1983.856423010168
 31
0.0
  0
LINE
  5
595
330
2
100
AcDbEntity
  8
HID
100
AcDbLine
 10
3358.21659586778
 20
-1983.185996391208
 30
0.0
 11
3358.21659586778
 21
-1983.856423010166
 31
0.0
  0
LINE
  5
596
330
2
100
AcDbEntity
  8
HID
100
AcDbLine
 10
3354.299687335184
 20
-2175.157797906857
 30
0.0
 11
3354.299687335184
 21
-2175.545313493309
 31
0.0
  0
LINE
  5
597
330
2
100
AcDbEntity
  8
HID
100
AcDbLine
 10
3358.299687335183
 20
-2175.157797906857
 30
0.0
 11
3358.299687335183
 21
-2175.54531349331
 31
0.0
  0
LINE
  5
598
330
2
100
AcDbEntity
  8
HID
100
AcDbLine
 10
3354.467182571482
 20
-2359.530428224557
 30
0.0
 11
3354.467182571482
 21
-2359.917943811009
 31
0.0
  0
LINE
  5
599
330
2
100
AcDbEntity
  8
HID
100
AcDbLine
 10
3358.467182571482
 20
-2359.530428224557
 30
0.0
 11
3358.467182571482
 21
-2359.91794381101
 31
0.0
  0
LINE
  5
59A
330
2
100
AcDbEntity
  8
HID
100
AcDbLine
 10
3354.497591846584
 20
-2543.903058542257
 30
0.0
 11
3354.497591846584
 21
-2544.290574128709
 31
0.0
  0
LINE
  5
59B
330
2
100
AcDbEntity
  8
HID
100
AcDbLine
 10
3358.497591846582
 20
-2543.903058542257
 30
0.0
 11
3358.497591846582
 21
-2544.29057412871
 31
0.0
  0
LINE
  5
59C
330
2
100
AcDbEntity
  8
HID
100
AcDbLine
 10
3358.299687335183
 20
-2669.466449226876
 30
0.0
 11
3358.299687335183
 21
-2668.755532701267
 31
0.0
  0
LINE
  5
59D
330
2
100
AcDbEntity
  8
HID
100
AcDbLine
 10
3354.299687335184
 20
-2669.466449226876
 30
0.0
 11
3354.299687335184
 21
-2668.755532701267
 31
0.0
  0
LINE
  5
59E
330
2
100
AcDbEntity
  8
HID
100
AcDbLine
 10
3358.299687335183
 20
-2915.61318893322
 30
0.0
 11
3358.299687335183
 21
-2914.902272407616
 31
0.0
  0
LINE
  5
59F
330
2
100
AcDbEntity
  8
HID
100
AcDbLine
 10
3354.299687335184
 20
-2915.613188933225
 30
0.0
 11
3354.299687335184
 21
-2914.902272407616
 31
0.0
  0
LINE
  5
5A0
330
2
100
AcDbEntity
  8
HID
100
AcDbLine
 10
3344.299687335182
 20
-2994.337722079987
 30
0.0
 11
3345.299687335181
 21
-2994.337722079987
 31
0.0
  0
LINE
  5
5A1
330
2
100
AcDbEntity
  8
HID
100
AcDbLine
 10
3344.299687335182
 20
-2989.337722079987
 30
0.0
 11
3345.299687335181
 21
-2989.337722079987
 31
0.0
  0
ELLIPSE
  5
5A2
330
2
100
AcDbEntity
  8
OUTLINE
100
AcDbEllipse
 10
3356.299687335182
 20
-2175.157797906857
 30
0.0
 11
-2.0
 21
0.0
 31
0.0
210
0.0
220
0.0
230
1.0
 40
0.9218631515885004
 41
0.0000000000000002
 42
6.283185307179584
  0
ELLIPSE
  5
5A3
330
2
100
AcDbEntity
  8
OUTLINE
100
AcDbEllipse
 10
3356.467182571481
 20
-2359.530428224557
 30
0.0
 11
-2.0
 21
0.0
 31
0.0
210
0.0
220
0.0
230
1.0
 40
0.9218631515885004
 41
0.0000000000000002
 42
6.283185307179584
  0
ELLIPSE
  5
5A4
330
2
100
AcDbEntity
  8
OUTLINE
100
AcDbEllipse
 10
3356.497591846583
 20
-2543.903058542257
 30
0.0
 11
-2.0
 21
0.0
 31
0.0
210
0.0
220
0.0
230
1.0
 40
0.9218631515885004
 41
0.0000000000000002
 42
6.283185307179584
  0
ELLIPSE
  5
5A5
330
2
100
AcDbEntity
  8
HID
100
AcDbEllipse
 10
3356.216595867782
 20
-1983.185996391208
 30
0.0
 11
-2.0
 21
0.0
 31
0.0
210
0.0
220
0.0
230
1.0
 40
0.7419758409756163
 41
0.3122667242253245
 42
2.645923449550598
  0
ELLIPSE
  5
5A6
330
2
100
AcDbEntity
  8
OUTLINE
100
AcDbEllipse
 10
3356.216595867782
 20
-1983.185996391208
 30
0.0
 11
-2.0
 21
0.0
 31
0.0
210
0.0
220
0.0
230
1.0
 40
0.7419758409756163
 41
2.645923449550599
 42
6.595452031404908
  0
ELLIPSE
  5
5A7
330
2
100
AcDbEntity
  8
HID
100
AcDbEllipse
 10
3356.299687335182
 20
-1857.050103425353
 30
0.0
 11
-2.0
 21
0.0
 31
0.0
210
0.0
220
0.0
230
1.0
 40
0.7419758409756163
 41
0.4078523484000641
 42
2.733740305189836
  0
ELLIPSE
  5
5A8
330
2
100
AcDbEntity
  8
OUTLINE
100
AcDbEllipse
 10
3356.299687335182
 20
-1857.050103425353
 30
0.0
 11
-2.0
 21
0.0
 31
0.0
210
0.0
220
0.0
230
1.0
 40
0.7419758409756163
 41
2.733740305189836
 42
6.691037655579648
  0
ELLIPSE
  5
5A9
330
2
100
AcDbEntity
  8
OUTLINE
100
AcDbEllipse
 10
3356.299687335182
 20
-1857.720530044312
 30
0.0
 11
2.000000000000643
 21
0.0
 31
0.0
210
0.0
220
0.0
230
1.0
 40
0.7419758409756163
 41
0.2278589501847408
 42
2.913733703405011
  0
ELLIPSE
  5
5AA
330
2
100
AcDbEntity
  8
HID
100
AcDbEllipse
 10
3356.299687335182
 20
-1857.720530044312
 30
0.0
 11
2.000000000000643
 21
0.0
 31
0.0
210
0.0
220
0.0
230
1.0
 40
0.7419758409756163
 41
2.913733703405011
 42
6.511044257364326
  0
ELLIPSE
  5
5AB
330
2
100
AcDbEntity
  8
OUTLINE
100
AcDbEllipse
 10
3356.216595867782
 20
-1983.856423010166
 30
0.0
 11
2.000000000002879
 21
0.0
 31
0.0
210
0.0
220
0.0
230
1.0
 40
0.7419758409756163
 41
0.2278589501870254
 42
2.913733703402943
  0
ELLIPSE
  5
5AC
330
2
100
AcDbEntity
  8
HID
100
AcDbEllipse
 10
3356.216595867782
 20
-1983.856423010166
 30
0.0
 11
2.000000000002879
 21
0.0
 31
0.0
210
0.0
220
0.0
230
1.0
 40
0.7419758409756163
 41
2.913733703402943
 42
6.51104425736661
  0
ARC
  5
5AD
330
2
100
AcDbEntity
  8
HID
100
AcDbCircle
 10
3352.299687335182
 20
-1830.337722079987
 30
0.0
 40
3.5
100
AcDbArc
 50
17.80423238166236
 51
352.0295016409901
  0
ARC
  5
5AE
330
2
100
AcDbEntity
  8
OUTLINE
100
AcDbCircle
 10
3352.299687335182
 20
-1830.337722079987
 30
0.0
 40
3.5
100
AcDbArc
 50
352.0295016409901
 51
17.80423238166236
  0
CIRCLE
  5
5AF
330
2
100
AcDbEntity
  8
HID
100
AcDbCircle
 10
3352.299687335182
 20
-2412.337722079987
 30
0.0
 40
3.5
  0
CIRCLE
  5
5B0
330
2
100
AcDbEntity
  8
OUTLINE
100
AcDbCircle
 10
3352.299687335182
 20
-2994.337722079987
 30
0.0
 40
3.5
  0
ELLIPSE
  5
5B1
330
2
100
AcDbEntity
  8
OUTLINE
100
AcDbEllipse
 10
3356.497591846583
 20
-2544.29057412871
 30
0.0
 11
1.999999999997605
 21
0.0
 31
0.0
210
0.0
220
0.0
230
1.0
 40
0.9218631515885004
 41
0.1052847268048458
 42
3.036307926784921
  0
ELLIPSE
  5
5B2
330
2
100
AcDbEntity
  8
HID
100
AcDbEllipse
 10
3356.497591846583
 20
-2544.29057412871
 30
0.0
 11
1.999999999997605
 21
0.0
 31
0.0
210
0.0
220
0.0
230
1.0
 40
0.9218631515885004
 41
3.036307926784921
 42
6.388470033984432
  0
ELLIPSE
  5
5B3
330
2
100
AcDbEntity
  8
OUTLINE
100
AcDbEllipse
 10
3356.467182571481
 20
-2359.91794381101
 30
0.0
 11
1.999999999997653
 21
0.0
 31
0.0
210
0.0
220
0.0
230
1.0
 40
0.9218631515885004
 41
0.1052847268050492
 42
3.036307926784886
  0
ELLIPSE
  5
5B4
330
2
100
AcDbEntity
  8
HID
100
AcDbEllipse
 10
3356.467182571481
 20
-2359.91794381101
 30
0.0
 11
1.999999999997653
 21
0.0
 31
0.0
210
0.0
220
0.0
230
1.0
 40
0.9218631515885004
 41
3.036307926784886
 42
6.388470033984632
  0
ELLIPSE
  5
5B5
330
2
100
AcDbEntity
  8
OUTLINE
100
AcDbEllipse
 10
3356.299687335182
 20
-2175.54531349331
 30
0.0
 11
1.999999999997698
 21
0.0
 31
0.0
210
0.0
220
0.0
230
1.0
 40
0.9218631515885004
 41
0.1052847268051306
 42
3.036307926784662
  0
ELLIPSE
  5
5B6
330
2
100
AcDbEntity
  8
HID
100
AcDbEllipse
 10
3356.299687335182
 20
-2175.54531349331
 30
0.0
 11
1.999999999997698
 21
0.0
 31
0.0
210
0.0
220
0.0
230
1.0
 40
0.9218631515885004
 41
3.036307926784662
 42
6.388470033984716
  0
ELLIPSE
  5
5B7
330
2
100
AcDbEntity
  8
OUTLINE
100
AcDbEllipse
 10
3356.299687335182
 20
-2669.466449226876
 30
0.0
 11
-2.0
 21
0.0
 31
0.0
210
0.0
220
0.0
230
1.0
 40
0.7032763991609987
 41
0.0000000000000002
 42
6.283185307179584
  0
ELLIPSE
  5
5B8
330
2
100
AcDbEntity
  8
OUTLINE
100
AcDbEllipse
 10
3356.299687335182
 20
-2668.755532701267
 30
0.0
 11
2.0
 21
0.0
 31
0.0
210
0.0
220
0.0
230
1.0
 40
0.7032763991609987
 41
3.397078903106963
 42
6.02769905766241
  0
ELLIPSE
  5
5B9
330
2
100
AcDbEntity
  8
HID
100
AcDbEllipse
 10
3356.299687335182
 20
-2668.755532701267
 30
0.0
 11
2.0
 21
0.0
 31
0.0
210
0.0
220
0.0
230
1.0
 40
0.7032763991609987
 41
6.02769905766241
 42
9.680264210286553
  0
ELLIPSE
  5
5BA
330
2
100
AcDbEntity
  8
OUTLINE
100
AcDbEllipse
 10
3356.299687335182
 20
-2915.613188933225
 30
0.0
 11
-2.0
 21
0.0
 31
0.0
210
0.0
220
0.0
230
1.0
 40
0.7032763991609987
 41
0.0000000000000002
 42
6.283185307179584
  0
ELLIPSE
  5
5BB
330
2
100
AcDbEntity
  8
OUTLINE
100
AcDbEllipse
 10
3356.299687335182
 20
-2914.902272407617
 30
0.0
 11
2.0
 21
0.0
 31
0.0
210
0.0
220
0.0
230
1.0
 40
0.7032763991609987
 41
3.397078903106963
 42
6.02769905766241
  0
ELLIPSE
  5
5BC
330
2
100
AcDbEntity
  8
HID
100
AcDbEllipse
 10
3356.299687335182
 20
-2914.902272407617
 30
0.0
 11
2.0
 21
0.0
 31
0.0
210
0.0
220
0.0
230
1.0
 40
0.7032763991609987
 41
6.02769905766241
 42
9.680264210286553
  0
LINE
  5
5BD
330
2
100
AcDbEntity
  8
OUTLINE
100
AcDbLine
 10
3345.299687335181
 20
-2036.351905692973
 30
0.0
 11
3345.299687335181
 21
-2590.530563686818
 31
0.0
  0
LINE
  5
5BE
330
2
100
AcDbEntity
  8
OUTLINE
100
AcDbLine
 10
3823.299687335182
 20
-2590.530563686818
 30
0.0
 11
3823.299687335182
 21
-2036.351905692973
 31
0.0
  0
LINE
  5
5BF
330
2
100
AcDbEntity
  8
HID
100
AcDbLine
 10
3345.299687335181
 20
-2024.894104197928
 30
0.0
 11
3823.299687335182
 21
-2024.894104197928
 31
0.0
  0
LINE
  5
5C0
330
2
100
AcDbEntity
  8
HID
100
AcDbLine
 10
3345.299687335181
 20
-2590.295103552706
 30
0.0
 11
3823.299687335182
 21
-2590.295103552706
 31
0.0
  0
LINE
  5
5C1
330
2
100
AcDbEntity
  8
HID
100
AcDbLine
 10
3350.299687335182
 20
-2030.706837994712
 30
0.0
 11
3345.299687335181
 21
-2028.769260062452
 31
0.0
  0
LINE
  5
5C2
330
2
100
AcDbEntity
  8
HID
100
AcDbLine
 10
3350.299687335182
 20
-2029.784974843124
 30
0.0
 11
3350.299687335182
 21
-2030.706837994712
 31
0.0
  0
LINE
  5
5C3
330
2
100
AcDbEntity
  8
HID
100
AcDbLine
 10
3350.299687335182
 20
-2030.706837994712
 30
0.0
 11
3464.237427208076
 21
-2030.706837994712
 31
0.0
  0
LINE
  5
5C4
330
2
100
AcDbEntity
  8
OUTLINE
100
AcDbLine
 10
3464.237427208076
 20
-2030.706837994712
 30
0.0
 11
3466.361947462289
 21
-2030.706837994712
 31
0.0
  0
LINE
  5
5C5
330
2
100
AcDbEntity
  8
HID
100
AcDbLine
 10
3466.361947462289
 20
-2030.706837994712
 30
0.0
 11
3702.237427208076
 21
-2030.706837994712
 31
0.0
  0
LINE
  5
5C6
330
2
100
AcDbEntity
  8
OUTLINE
100
AcDbLine
 10
3702.237427208076
 20
-2030.706837994712
 30
0.0
 11
3704.361947462289
 21
-2030.706837994712
 31
0.0
  0
LINE
  5
5C7
330
2
100
AcDbEntity
  8
HID
100
AcDbLine
 10
3704.361947462289
 20
-2030.706837994712
 30
0.0
 11
3818.299687335183
 21
-2030.706837994712
 31
0.0
  0
LINE
  5
5C8
330
2
100
AcDbEntity
  8
HID
100
AcDbLine
 10
3345.299687335181
 20
-2023.58472545989
 30
0.0
 11
3823.299687335182
 21
-2023.58472545989
 31
0.0
  0
LINE
  5
5C9
330
2
100
AcDbEntity
  8
HID
100
AcDbLine
 10
3345.299687335181
 20
-2027.847396910863
 30
0.0
 11
3350.299687335182
 21
-2029.784974843124
 31
0.0
  0
LINE
  5
5CA
330
2
100
AcDbEntity
  8
HID
100
AcDbLine
 10
3350.299687335182
 20
-2029.784974843124
 30
0.0
 11
3818.299687335183
 21
-2029.784974843124
 31
0.0
  0
LINE
  5
5CB
330
2
100
AcDbEntity
  8
HID
100
AcDbLine
 10
3818.299687335183
 20
-2030.706837994712
 30
0.0
 11
3818.299687335183
 21
-2029.784974843124
 31
0.0
  0
LINE
  5
5CC
330
2
100
AcDbEntity
  8
HID
100
AcDbLine
 10
3823.299687335182
 20
-2028.769260062452
 30
0.0
 11
3818.299687335183
 21
-2030.706837994712
 31
0.0
  0
LINE
  5
5CD
330
2
100
AcDbEntity
  8
HID
100
AcDbLine
 10
3818.299687335183
 20
-2029.784974843124
 30
0.0
 11
3823.299687335182
 21
-2027.847396910863
 31
0.0
  0
LINE
  5
5CE
330
2
100
AcDbEntity
  8
HID
100
AcDbLine
 10
3364.299687335182
 20
-2603.184263566345
 30
0.0
 11
3364.299687335182
 21
-2603.895063040218
 31
0.0
  0
LINE
  5
5CF
330
2
100
AcDbEntity
  8
HID
100
AcDbLine
 10
3350.299687335182
 20
-2603.184263566344
 30
0.0
 11
3364.299687335182
 21
-2603.184263566344
 31
0.0
  0
LINE
  5
5D0
330
2
100
AcDbEntity
  8
HID
100
AcDbLine
 10
3350.299687335182
 20
-2603.184263566344
 30
0.0
 11
3350.299687335182
 21
-2603.895063040218
 31
0.0
  0
LINE
  5
5D1
330
2
100
AcDbEntity
  8
HID
100
AcDbLine
 10
3345.299687335181
 20
-2599.667290052293
 30
0.0
 11
3350.299687335182
 21
-2603.184263566345
 31
0.0
  0
LINE
  5
5D2
330
2
100
AcDbEntity
  8
HID
100
AcDbLine
 10
3369.299687335182
 20
-2593.936465634933
 30
0.0
 11
3364.299687335182
 21
-2597.490463004298
 31
0.0
  0
LINE
  5
5D3
330
2
100
AcDbEntity
  8
OUTLINE
100
AcDbLine
 10
3804.299687335183
 20
-2604.598457743029
 30
0.0
 11
3804.299687335183
 21
-2603.895063040218
 31
0.0
  0
LINE
  5
5D4
330
2
100
AcDbEntity
  8
OUTLINE
100
AcDbLine
 10
3364.299687335182
 20
-2604.598457743029
 30
0.0
 11
3804.299687335183
 21
-2604.598457743029
 31
0.0
  0
LINE
  5
5D5
330
2
100
AcDbEntity
  8
OUTLINE
100
AcDbLine
 10
3364.299687335182
 20
-2603.895063040218
 30
0.0
 11
3364.299687335182
 21
-2604.598457743029
 31
0.0
  0
LINE
  5
5D6
330
2
100
AcDbEntity
  8
OUTLINE
100
AcDbLine
 10
3350.299687335182
 20
-2603.895063040218
 30
0.0
 11
3364.299687335182
 21
-2603.895063040218
 31
0.0
  0
LINE
  5
5D7
330
2
100
AcDbEntity
  8
OUTLINE
100
AcDbLine
 10
3350.299687335182
 20
-2603.895063040218
 30
0.0
 11
3345.299687335181
 21
-2600.378089526165
 31
0.0
  0
LINE
  5
5D8
330
2
100
AcDbEntity
  8
OUTLINE
100
AcDbLine
 10
3345.299687335181
 20
-2590.530563686818
 30
0.0
 11
3345.299687335181
 21
-2600.378089526165
 31
0.0
  0
LINE
  5
5D9
330
2
100
AcDbEntity
  8
OUTLINE
100
AcDbLine
 10
3345.299687335181
 20
-2590.530563686818
 30
0.0
 11
3823.299687335182
 21
-2590.530563686818
 31
0.0
  0
LINE
  5
5DA
330
2
100
AcDbEntity
  8
OUTLINE
100
AcDbLine
 10
3823.299687335182
 20
-2600.378089526165
 30
0.0
 11
3823.299687335182
 21
-2590.530563686818
 31
0.0
  0
LINE
  5
5DB
330
2
100
AcDbEntity
  8
HID
100
AcDbLine
 10
3804.299687335183
 20
-2603.184263566344
 30
0.0
 11
3818.299687335183
 21
-2603.184263566344
 31
0.0
  0
LINE
  5
5DC
330
2
100
AcDbEntity
  8
HID
100
AcDbLine
 10
3804.299687335183
 20
-2603.895063040218
 30
0.0
 11
3804.299687335183
 21
-2603.184263566344
 31
0.0
  0
LINE
  5
5DD
330
2
100
AcDbEntity
  8
OUTLINE
100
AcDbLine
 10
3804.299687335183
 20
-2603.895063040218
 30
0.0
 11
3818.299687335183
 21
-2603.895063040218
 31
0.0
  0
LINE
  5
5DE
330
2
100
AcDbEntity
  8
HID
100
AcDbLine
 10
3818.299687335183
 20
-2603.895063040218
 30
0.0
 11
3818.299687335183
 21
-2603.184263566344
 31
0.0
  0
LINE
  5
5DF
330
2
100
AcDbEntity
  8
OUTLINE
100
AcDbLine
 10
3823.299687335182
 20
-2600.378089526165
 30
0.0
 11
3818.299687335183
 21
-2603.895063040218
 31
0.0
  0
LINE
  5
5E0
330
2
100
AcDbEntity
  8
HID
100
AcDbLine
 10
3818.299687335183
 20
-2603.184263566345
 30
0.0
 11
3823.299687335182
 21
-2599.667290052293
 31
0.0
  0
LINE
  5
5E1
330
2
100
AcDbEntity
  8
HID
100
AcDbLine
 10
3369.299687335182
 20
-2593.233070932122
 30
0.0
 11
3369.299687335182
 21
-2593.936465634933
 31
0.0
  0
MTEXT
  5
608
330
2
100
AcDbEntity
  8
ETC
100
AcDbMText
 10
3281.642452312434
 20
-1557.644205170831
 30
0.0
 40
40.0
 41
661.3304715277445
 71
     1
 72
     5
  1
AG1S/AG1T-KK85SD\P正面図
 73
     1
 44
1.0
1001
ACAD
1000
MTEXTBEGIN
1070
    73
1070
     1
1070
    44
1040
1.0
1070
    74
1070
     0
1000
MTEXTEND
  0
DIMENSION
  5
629
330
2
100
AcDbEntity
  8
SIZE
100
AcDbDimension
  2
*D1
 10
3816.299687335181
 20
-1747.735475135779
 30
0.0
 11
3584.299687335182
 21
-1747.735475135779
 31
0.0
 70
   160
 71
     5
 42
463.9999999999995
  3
STANDARD
100
AcDbAlignedDimension
 13
3352.299687335182
 23
-1830.337722079987
 33
0.0
 14
3816.299687335181
 24
-1830.337722079986
 34
0.0
100
AcDbRotatedDimension
1001
ACAD
1000
DSTYLE
1002
{
1070
    40
1040
5.0
1070
    45
1040
0.5
1070
   271
1070
     1
1070
   272
1070
     1
1002
}
  0
DIMENSION
  5
637
330
2
100
AcDbEntity
  8
SIZE
100
AcDbDimension
  2
*D2
 10
3290.879373020369
 20
-2412.337722079987
 30
0.0
 11
3290.879373020369
 21
-2121.337722079986
 31
0.0
 70
   160
 71
     5
 42
582.0
  3
STANDARD
100
AcDbAlignedDimension
 13
3352.299687335182
 23
-1830.337722079987
 33
0.0
 14
3352.299687335182
 24
-2412.337722079987
 34
0.0
 50
90.0
100
AcDbRotatedDimension
1001
ACAD
1000
DSTYLE
1002
{
1070
    40
1040
5.0
1070
    45
1040
0.5
1070
   271
1070
     1
1070
   272
1070
     1
1002
}
  0
DIMENSION
  5
656
330
2
100
AcDbEntity
  8
SIZE
100
AcDbDimension
  2
*D3
 10
3290.237929455933
 20
-2994.337722079987
 30
0.0
 11
3280.237929455934
 21
-2703.337722079986
 31
0.0
 70
    32
 71
     5
 42
582.0
  3
STANDARD
100
AcDbAlignedDimension
 13
3352.299687335182
 23
-2412.337722079987
 33
0.0
 14
3352.299687335182
 24
-2994.337722079987
 34
0.0
 50
90.0
100
AcDbRotatedDimension
1001
ACAD
1000
DSTYLE
1002
{
1070
    40
1040
5.0
1070
    45
1040
0.5
1070
   271
1070
     1
1070
   272
1070
     1
1002
}
  0
DIMENSION
  5
663
330
2
100
AcDbEntity
  8
SIZE
100
AcDbDimension
  2
*D4
 10
3344.299687335182
 20
-1712.433427235093
 30
0.0
 11
3584.299687335182
 21
-1702.433427235093
 31
0.0
 70
    32
 71
     5
 42
480.0
  3
STANDARD
100
AcDbAlignedDimension
 13
3824.299687335182
 23
-1807.337722079985
 33
0.0
 14
3344.299687335182
 24
-1807.337722079987
 34
0.0
100
AcDbRotatedDimension
1001
ACAD
1000
DSTYLE
1002
{
1070
    40
1040
5.0
1070
    45
1040
0.5
1070
   271
1070
     1
1070
   272
1070
     1
1002
}
  0
DIMENSION
  5
670
330
2
100
AcDbEntity
  8
SIZE
100
AcDbDimension
  2
*D5
 10
3238.847402477543
 20
-3009.337722079987
 30
0.0
 11
3228.847402477543
 21
-2403.835855863257
 31
0.0
 70
    32
 71
     5
 42
1211.003732433458
  3
STANDARD
100
AcDbAlignedDimension
 13
3350.299687335182
 23
-1798.333989646529
 33
0.0
 14
3344.299687335182
 24
-3009.337722079987
 34
0.0
 50
90.0
100
AcDbRotatedDimension
1001
ACAD
1000
DSTYLE
1002
{
1070
    40
1040
5.0
1070
    45
1040
0.5
1070
   271
1070
     1
1070
   272
1070
     1
1002
}
  0
MULTILEADER
  5
6B5
330
2
100
AcDbEntity
  8
NOTE
 92
      592
310
50020000110000000C000000100000000A0000000C00000016000000000000C00C00000013000000112700003C00000006000000020000002AC2948535A4A940BCE2314D975C9BC000000000000000000B3DA9337DA3A940BCE2314D975C9BC000000000000000000C00000013000000010000000C00000014000000010000
310
00540000000700000003000000BACCB983021FAA4061AD932EE0659CC00000000000000000FD095A15ED2BAA4034AF27701D8F9CC000000000000000000A61B1420519AA40C8A456A57B709CC000000000000000000C00000013000000891300003C0000000600000002000000E29635E3031CAA401429F5E92D6B9CC00000
310
0000000000002AC2948535A4A940BCE2314D975C9BC000000000000000000C000000130000009A3A00003C0000000600000002000000781860A15846A940BCE2314D975C9BC000000000000000000A3DA9337DA3A940BCE2314D975C9BC000000000000000000C00000016000000000000C00C00000012000000FF7F00000C
310
00000017000000FFFFFFFF0C00000016000000000000C00C00000013000000993A0000B00000000B0000002E863B58C641A940224998B3FD529BC0000000000000000000000000000000000000000000000000000000000000F03F000000000000F03F00000000000000000000000000000000362D5C552B323230353700FF
310
0A000000010000000000000000002840000000000000F03F0000000000000000000000000000F03F0000000000000000000000000000000000000000726F6D616E732E7368780000657874666F6E742E73687800
100
AcDbMLeader
300
CONTEXT_DATA{
 40
1.0
 10
3233.173106196391
 20
-1743.947755412544
 30
0.0
 41
12.0
140
12.0
145
2.0
174
     1
175
     6
176
     2
177
     0
290
     1
304
6-%%C7
 11
0.0
 21
0.0
 31
1.0
340
23
 12
3279.744534767819
 22
-1736.747755412544
 32
0.0
 13
1.0
 23
0.0
 33
0.0
 42
0.0
 43
0.0
 44
0.0
 45
1.0
170
     1
 90
-1073741824
171
     3
172
     5
 91
-1073741824
141
0.0
 92
 12247036
291
     0
292
     0
173
     0
293
     0
142
0.0
143
0.0
294
     0
295
     0
296
     0
110
3352.299687335182
120
-1830.337722079987
130
0.0
111
1.0
121
0.0
131
0.0
112
0.0
122
1.0
132
0.0
297
     0
302
LEADER{
290
     1
291
     1
 10
3282.10453476782
 20
-1751.147755412544
 30
0.0
 11
-1.0
 21
0.0
 31
0.0
 90
        0
 40
0.36
304
LEADER_LINE{
 10
3349.963053525657
 20
-1827.778748149937
 30
0.0
 91
        0
305
}
303
}
301
}
340
5FD
 90
   345088
170
     1
 91
-1056964608
341
26
171
    -2
290
     1
291
     1
 41
0.36
 42
12.0
172
     2
343
23
173
     1
 95
        6
174
     1
175
     2
 92
-1056964608
292
     0
 93
-1056964608
 10
1.0
 20
1.0
 30
1.0
 43
0.0
176
     0
293
     0
294
     0
178
     0
179
     3
 45
1.0
1001
ACAD_MLEADERVER
1070
     2
  0
LINE
  5
C4F
330
2
100
AcDbEntity
  8
BASIS
  6
DASHDOT
 62
     6
100
AcDbLine
 10
3584.299687335182
 20
-3034.631963648512
 30
0.0
 11
3584.299687335182
 21
-1774.165091483974
 31
0.0
  0
LINE
  5
C50
330
2
100
AcDbEntity
  8
ARRANGE
  6
Continuous
 62
     1
100
AcDbLine
 10
3567.615569770778
 20
-3026.021839644389
 30
0.0
 11
3600.983804899586
 21
-2992.653604515582
 31
0.0
  0
LINE
  5
C51
330
2
100
AcDbEntity
  8
ARRANGE
  6
Continuous
 62
     1
100
AcDbLine
 10
3567.615569770778
 20
-2992.653604515582
 30
0.0
 11
3600.983804899586
 21
-3026.021839644389
 31
0.0
  0
CIRCLE
  5
C52
330
2
100
AcDbEntity
  8
ARRANGE
100
AcDbCircle
 10
3584.299687335182
 20
-3009.337722079985
 30
0.0
 40
15.0
  0
ENDSEC
  0
SECTION
  2
OBJECTS
  0
DICTIONARY
  5
A
330
0
100
AcDbDictionary
281
     1
  3
ACAD_2007HEADERVARS_RT
350
C8C
  3
ACAD_BACKGROUND
350
603
  3
ACAD_COLOR
350
4D
  3
ACAD_GROUP
350
3A
  3
ACAD_LAYOUT
350
17
  3
ACAD_MATERIAL
350
C
  3
ACAD_MLEADERSTYLE
350
5FC
  3
ACAD_MLINESTYLE
350
3B
  3
ACAD_PLOTSETTINGS
350
3C
  3
ACAD_PLOTSTYLENAME
350
9
  3
ACAD_SCALELIST
350
4E
  3
ACAD_TABLESTYLE
350
4F
  3
ACAD_VISUALSTYLE
350
2D
  3
ACDB_RECOMPOSE_DATA
350
5E7
  3
AcDbVariableDictionary
350
5E8
  3
AcmDictionary
350
5E2
  3
DWGPROPS
350
C8B
  0
DICTIONARY
  5
20
330
1F
100
AcDbDictionary
280
     1
281
     1
  3
ACAD_LAYERFILTERS
360
C89
  3
ACAD_LAYERSTATES
360
21
  3
ACLYDICTIONARY
360
C88
  0
DICTIONARY
  5
6
330
5
100
AcDbDictionary
280
     1
281
     1
  3
ADSK_XREC_LAYER_RECONCILED
360
7
  0
DICTIONARY
  5
80
330
7F
100
AcDbDictionary
280
     1
281
     1
  3
ADSK_XREC_LAYER_RECONCILED
360
81
  0
DICTIONARY
  5
6FC
330
6FB
100
AcDbDictionary
280
     1
281
     1
  0
DICTIONARY
  5
6FE
330
6FD
100
AcDbDictionary
280
     1
281
     1
  0
DICTIONARY
  5
700
330
6FF
100
AcDbDictionary
280
     1
281
     1
  0
DICTIONARY
  5
702
330
701
100
AcDbDictionary
280
     1
281
     1
  0
DICTIONARY
  5
704
330
703
100
AcDbDictionary
280
     1
281
     1
  0
DICTIONARY
  5
706
330
705
100
AcDbDictionary
280
     1
281
     1
  0
DICTIONARY
  5
708
330
707
100
AcDbDictionary
280
     1
281
     1
  0
DICTIONARY
  5
3
330
2
100
AcDbDictionary
280
     1
281
     1
  0
DICTIONARY
  5
C8C
102
{ACAD_REACTORS
330
A
102
}
330
A
100
AcDbDictionary
281
     1
  3
DIMARCSYM
350
C8E
  3
DIMFXL
350
C8D
  3
DIMJOGANG
350
C8F
  0
DICTIONARY
  5
603
102
{ACAD_REACTORS
330
A
102
}
330
A
100
AcDbDictionary
281
     1
  0
DICTIONARY
  5
4D
102
{ACAD_REACTORS
330
A
102
}
330
A
100
AcDbDictionary
281
     1
  0
DICTIONARY
  5
3A
102
{ACAD_REACTORS
330
A
102
}
330
A
100
AcDbDictionary
281
     1
  0
DICTIONARY
  5
17
102
{ACAD_REACTORS
330
A
102
}
330
A
100
AcDbDictionary
281
     1
  3
Model
350
16
  3
レイアウト1
350
1B
  0
DICTIONARY
  5
C
102
{ACAD_REACTORS
330
A
102
}
330
A
100
AcDbDictionary
281
     1
  3
ByBlock
350
45
  3
ByLayer
350
3D
  3
Global
350
B
  0
DICTIONARY
  5
5FC
102
{ACAD_REACTORS
330
A
102
}
330
A
100
AcDbDictionary
281
     1
  3
Standard
350
5FD
  0
DICTIONARY
  5
3B
102
{ACAD_REACTORS
330
A
102
}
330
A
100
AcDbDictionary
281
     1
  3
STANDARD
350
53
  0
DICTIONARY
  5
3C
102
{ACAD_REACTORS
330
A
102
}
330
A
100
AcDbDictionary
281
     1
  0
ACDBDICTIONARYWDFLT
  5
9
102
{ACAD_REACTORS
330
A
102
}
330
A
100
AcDbDictionary
281
     1
  3
Normal
350
8
100
AcDbDictionaryWithDefault
340
8
  0
DICTIONARY
  5
4E
102
{ACAD_REACTORS
330
A
102
}
330
A
100
AcDbDictionary
281
     1
  3
*A1
350
70A
  3
A0
350
57
  3
A1
350
58
  3
A2
350
59
  3
A3
350
5A
  3
A4
350
5B
  3
A5
350
5C
  3
A6
350
5D
  3
A7
350
5E
  3
A8
350
5F
  3
A9
350
60
  3
B0
350
61
  3
B1
350
62
  3
B2
350
63
  3
B3
350
64
  3
B4
350
65
  3
B5
350
66
  3
B6
350
67
  3
B7
350
68
  3
B8
350
69
  3
B9
350
6A
  3
C0
350
6B
  3
C1
350
6C
  3
C2
350
6D
  3
C3
350
6E
  3
C4
350
6F
  3
C5
350
70
  3
C6
350
71
  3
C7
350
72
  3
C8
350
73
  3
C9
350
74
  3
D0
350
75
  3
D1
350
76
  3
D2
350
77
  0
DICTIONARY
  5
4F
102
{ACAD_REACTORS
330
A
102
}
330
A
100
AcDbDictionary
281
     1
  3
Standard
350
54
  0
DICTIONARY
  5
2D
102
{ACAD_REACTORS
330
A
102
}
330
A
100
AcDbDictionary
281
     1
  3
2dWireframe
350
5F3
  3
3D Hidden
350
5F4
  3
3dWireframe
350
56
  3
Basic
350
5F2
  3
Brighten
350
5F7
  3
ColorChange
350
5FB
  3
Conceptual
350
5F5
  3
Dim
350
5F6
  3
Facepattern
350
5FA
  3
Flat
350
5EE
  3
FlatWithEdges
350
5EF
  3
Gouraud
350
5F0
  3
GouraudWithEdges
350
5F1
  3
Linepattern
350
5F9
  3
Realistic
350
2C
  3
Thicken
350
5F8
  0
XRECORD
  5
5E7
102
{ACAD_REACTORS
330
A
102
}
330
A
100
AcDbXrecord
280
     1
 90
        1
330
54
  0
DICTIONARY
  5
5E8
102
{ACAD_REACTORS
330
A
102
}
330
A
100
AcDbDictionary
281
     1
  3
CANNOSCALE
350
5EB
  3
CMLEADERSTYLE
350
5EA
  3
CTABLESTYLE
350
5E9
  3
DIMASSOC
350
621
  3
HIDETEXT
350
620
  3
INDEXCTL
350
61F
  3
LIGHTINGUNITS
350
5EC
  3
MSLTSCALE
350
61D
  3
SORTENTS
350
61E
  0
DICTIONARY
  5
5E2
102
{ACAD_REACTORS
330
A
102
}
330
A
100
AcDbDictionary
281
     1
  3
AcmBOMDATA
350
5E3
  0
XRECORD
  5
C8B
102
{ACAD_REACTORS
330
A
102
}
330
A
100
AcDbXrecord
280
     1
  1
DWGPROPS COOKIE
  2

  3

  4

  6

  7

  8
W000135
  9

300
=
301
=
302
=
303
=
304
=
305
=
306
=
307
=
308
=
309
=
 40
2.077355150462962
 41
2451324.468257373
 42
2454987.674160301
  1

 90
        0
  0
DICTIONARY
  5
C89
102
{ACAD_REACTORS
330
20
102
}
330
20
100
AcDbDictionary
281
     1
  0
DICTIONARY
  5
21
102
{ACAD_REACTORS
330
20
102
}
330
20
100
AcDbDictionary
281
     1
  0
DICTIONARY
  5
C88
102
{ACAD_REACTORS
330
20
102
}
330
20
100
AcDbDictionary
281
     1
1001
ACAD
1000
<All
  0
XRECORD
  5
7
102
{ACAD_REACTORS
330
6
102
}
330
6
100
AcDbXrecord
280
     1
290
     1
  0
XRECORD
  5
81
102
{ACAD_REACTORS
330
80
102
}
330
80
100
AcDbXrecord
280
     1
290
     1
  0
XRECORD
  5
C8E
102
{ACAD_REACTORS
330
C8C
102
}
330
C8C
100
AcDbXrecord
280
     1
 70
     1
  0
XRECORD
  5
C8D
102
{ACAD_REACTORS
330
C8C
102
}
330
C8C
100
AcDbXrecord
280
     1
 40
15.0
  0
XRECORD
  5
C8F
102
{ACAD_REACTORS
330
C8C
102
}
330
C8C
100
AcDbXrecord
280
     1
 40
1.570796326794896
  0
LAYOUT
  5
16
102
{ACAD_XDICTIONARY
360
C90
102
}
102
{ACAD_REACTORS
330
17
102
}
330
17
100
AcDbPlotSettings
  1

  2
なし
  4

  6

 40
0.0
 41
0.0
 42
0.0
 43
0.0
 44
0.0
 45
0.0
 46
0.0
 47
0.0
 48
0.0
 49
0.0
140
0.0
141
0.0
142
1.0
143
1.0
 70
  1712
 72
     0
 73
     0
 74
     0
  7

 75
     0
147
1.0
148
0.0
149
0.0
100
AcDbLayout
  1
Model
 70
     1
 71
     0
 10
0.0
 20
0.0
 11
12.0
 21
9.0
 12
0.0
 22
0.0
 32
0.0
 14
0.0
 24
0.0
 34
0.0
 15
0.0
 25
0.0
 35
0.0
146
0.0
 13
0.0
 23
0.0
 33
0.0
 16
1.0
 26
0.0
 36
0.0
 17
0.0
 27
1.0
 37
0.0
 76
     0
330
2
331
680
  0
LAYOUT
  5
1B
102
{ACAD_XDICTIONARY
360
1C
102
}
102
{ACAD_REACTORS
330
17
102
}
330
17
100
AcDbPlotSettings
  1

  2
Microsoft XPS Document Writer
  4
A4
  6

 40
3.174999952316282
 41
3.174999952316282
 42
3.175003051757812
 43
3.17498779296875
 44
210.0156707763672
 45
297.0106506347656
 46
0.0
 47
0.0
 48
0.0
 49
0.0
140
0.0
141
0.0
142
1.0
143
1.0
 70
   688
 72
     1
 73
     1
 74
     5
  7

 75
    16
147
1.0
148
0.0
149
0.0
100
AcDbLayout
  1
レイアウト1
 70
     1
 71
     1
 10
0.0
 20
0.0
 11
12.0
 21
9.0
 12
0.0
 22
0.0
 32
0.0
 14
-842.1915950735103
 24
-3910.680246610196
 34
0.0
 15
5613.482663929062
 25
1530.761503371046
 35
0.0
146
0.0
 13
0.0
 23
0.0
 33
0.0
 16
1.0
 26
0.0
 36
0.0
 17
0.0
 27
1.0
 37
0.0
 76
     0
330
18
1001
ACAD_PSEXT
1000
Microsoft XPS Document Writer
1000
Microsoft XPS Document Writer
1000
XPSPort:
1000

1070
     0
  0
MATERIAL
  5
45
102
{ACAD_XDICTIONARY
360
46
102
}
102
{ACAD_REACTORS
330
C
102
}
330
C
100
AcDbMaterial
  1
ByBlock
 72
     0
 43
0.0208333333333333
 43
0.0
 43
0.0
 43
0.0
 43
0.0
 43
0.0208333333333333
 43
0.0
 43
0.0
 43
0.0
 43
0.0
 43
1.0
 43
0.0
 43
0.0
 43
0.0
 43
0.0
 43
1.0
 77
     0
 47
0.0208333333333333
 47
0.0
 47
0.0
 47
0.0
 47
0.0
 47
0.0208333333333333
 47
0.0
 47
0.0
 47
0.0
 47
0.0
 47
1.0
 47
0.0
 47
0.0
 47
0.0
 47
0.0
 47
1.0
171
     0
 49
0.0208333333333333
 49
0.0
 49
0.0
 49
0.0
 49
0.0
 49
0.0208333333333333
 49
0.0
 49
0.0
 49
0.0
 49
0.0
 49
1.0
 49
0.0
 49
0.0
 49
0.0
 49
0.0
 49
1.0
175
     0
142
0.0208333333333333
142
0.0
142
0.0
142
0.0
142
0.0
142
0.0208333333333333
142
0.0
142
0.0
142
0.0
142
0.0
142
1.0
142
0.0
142
0.0
142
0.0
142
0.0
142
1.0
179
     0
144
0.0208333333333333
144
0.0
144
0.0
144
0.0
144
0.0
144
0.0208333333333333
144
0.0
144
0.0
144
0.0
144
0.0
144
1.0
144
0.0
144
0.0
144
0.0
144
0.0
144
1.0
147
0.0208333333333333
147
0.0
147
0.0
147
0.0
147
0.0
147
0.0208333333333333
147
0.0
147
0.0
147
0.0
147
0.0
147
1.0
147
0.0
147
0.0
147
0.0
147
0.0
147
1.0
  0
MATERIAL
  5
3D
102
{ACAD_XDICTIONARY
360
3E
102
}
102
{ACAD_REACTORS
330
C
102
}
330
C
100
AcDbMaterial
  1
ByLayer
 72
     0
 43
0.0208333333333333
 43
0.0
 43
0.0
 43
0.0
 43
0.0
 43
0.0208333333333333
 43
0.0
 43
0.0
 43
0.0
 43
0.0
 43
1.0
 43
0.0
 43
0.0
 43
0.0
 43
0.0
 43
1.0
 77
     0
 47
0.0208333333333333
 47
0.0
 47
0.0
 47
0.0
 47
0.0
 47
0.0208333333333333
 47
0.0
 47
0.0
 47
0.0
 47
0.0
 47
1.0
 47
0.0
 47
0.0
 47
0.0
 47
0.0
 47
1.0
171
     0
 49
0.0208333333333333
 49
0.0
 49
0.0
 49
0.0
 49
0.0
 49
0.0208333333333333
 49
0.0
 49
0.0
 49
0.0
 49
0.0
 49
1.0
 49
0.0
 49
0.0
 49
0.0
 49
0.0
 49
1.0
175
     0
142
0.0208333333333333
142
0.0
142
0.0
142
0.0
142
0.0
142
0.0208333333333333
142
0.0
142
0.0
142
0.0
142
0.0
142
1.0
142
0.0
142
0.0
142
0.0
142
0.0
142
1.0
179
     0
144
0.0208333333333333
144
0.0
144
0.0
144
0.0
144
0.0
144
0.0208333333333333
144
0.0
144
0.0
144
0.0
144
0.0
144
1.0
144
0.0
144
0.0
144
0.0
144
0.0
144
1.0
147
0.0208333333333333
147
0.0
147
0.0
147
0.0
147
0.0
147
0.0208333333333333
147
0.0
147
0.0
147
0.0
147
0.0
147
1.0
147
0.0
147
0.0
147
0.0
147
0.0
147
1.0
  0
MATERIAL
  5
B
102
{ACAD_XDICTIONARY
360
D
102
}
102
{ACAD_REACTORS
330
C
102
}
330
C
100
AcDbMaterial
  1
Global
 72
     0
 43
0.0208333333333333
 43
0.0
 43
0.0
 43
0.0
 43
0.0
 43
0.0208333333333333
 43
0.0
 43
0.0
 43
0.0
 43
0.0
 43
1.0
 43
0.0
 43
0.0
 43
0.0
 43
0.0
 43
1.0
 77
     0
 47
0.0208333333333333
 47
0.0
 47
0.0
 47
0.0
 47
0.0
 47
0.0208333333333333
 47
0.0
 47
0.0
 47
0.0
 47
0.0
 47
1.0
 47
0.0
 47
0.0
 47
0.0
 47
0.0
 47
1.0
171
     0
 49
0.0208333333333333
 49
0.0
 49
0.0
 49
0.0
 49
0.0
 49
0.0208333333333333
 49
0.0
 49
0.0
 49
0.0
 49
0.0
 49
1.0
 49
0.0
 49
0.0
 49
0.0
 49
0.0
 49
1.0
175
     0
142
0.0208333333333333
142
0.0
142
0.0
142
0.0
142
0.0
142
0.0208333333333333
142
0.0
142
0.0
142
0.0
142
0.0
142
1.0
142
0.0
142
0.0
142
0.0
142
0.0
142
1.0
179
     0
144
0.0208333333333333
144
0.0
144
0.0
144
0.0
144
0.0
144
0.0208333333333333
144
0.0
144
0.0
144
0.0
144
0.0
144
1.0
144
0.0
144
0.0
144
0.0
144
0.0
144
1.0
147
0.0208333333333333
147
0.0
147
0.0
147
0.0
147
0.0
147
0.0208333333333333
147
0.0
147
0.0
147
0.0
147
0.0
147
1.0
147
0.0
147
0.0
147
0.0
147
0.0
147
1.0
  0
MLEADERSTYLE
  5
5FD
102
{ACAD_REACTORS
330
5FC
330
6B5
102
}
330
5FC
100
AcDbMLeaderStyle
170
     2
171
     1
172
     0
 90
        2
 40
0.0
 41
0.0
173
     1
 91
-1056964608
340
26
 92
       -2
290
     1
 42
2.0
291
     1
 43
0.36
  3
Standard
 44
4.0
300

342
23
174
     1
178
     6
175
     1
176
     0
 93
-1056964608
 45
4.0
292
     0
297
     0
 46
4.0
 94
-1056964608
 47
1.0
 49
1.0
140
1.0
293
     1
141
0.0
294
     1
177
     0
142
1.0
295
     0
296
     0
143
0.125
1001
ACAD_MLEADERVER
1070
     2
  0
MLINESTYLE
  5
53
102
{ACAD_REACTORS
330
3B
102
}
330
3B
100
AcDbMlineStyle
  2
STANDARD
 70
     0
  3

 62
   256
 51
90.0
 52
90.0
 71
     2
 49
0.5
 62
   256
  6
BYLAYER
 49
-0.5
 62
   256
  6
BYLAYER
  0
ACDBPLACEHOLDER
  5
8
102
{ACAD_REACTORS
330
9
102
}
330
9
  0
SCALE
  5
70A
102
{ACAD_REACTORS
330
4E
102
}
330
4E
100
AcDbScale
 70
     0
300
1:5_XREF
140
1.0
141
5.0
290
     0
  0
SCALE
  5
57
102
{ACAD_REACTORS
330
4E
102
}
330
4E
100
AcDbScale
 70
     0
300
1:1
140
1.0
141
1.0
290
     1
  0
SCALE
  5
58
102
{ACAD_REACTORS
330
4E
102
}
330
4E
100
AcDbScale
 70
     0
300
1:2
140
1.0
141
2.0
290
     0
  0
SCALE
  5
59
102
{ACAD_REACTORS
330
4E
102
}
330
4E
100
AcDbScale
 70
     0
300
1:4
140
1.0
141
4.0
290
     0
  0
SCALE
  5
5A
102
{ACAD_REACTORS
330
4E
102
}
330
4E
100
AcDbScale
 70
     0
300
1:5
140
1.0
141
5.0
290
     0
  0
SCALE
  5
5B
102
{ACAD_REACTORS
330
4E
102
}
330
4E
100
AcDbScale
 70
     0
300
1:8
140
1.0
141
8.0
290
     0
  0
SCALE
  5
5C
102
{ACAD_REACTORS
330
4E
102
}
330
4E
100
AcDbScale
 70
     0
300
1:10
140
1.0
141
10.0
290
     0
  0
SCALE
  5
5D
102
{ACAD_REACTORS
330
4E
102
}
330
4E
100
AcDbScale
 70
     0
300
1:16
140
1.0
141
16.0
290
     0
  0
SCALE
  5
5E
102
{ACAD_REACTORS
330
4E
102
}
330
4E
100
AcDbScale
 70
     0
300
1:20
140
1.0
141
20.0
290
     0
  0
SCALE
  5
5F
102
{ACAD_REACTORS
330
4E
102
}
330
4E
100
AcDbScale
 70
     0
300
1:30
140
1.0
141
30.0
290
     0
  0
SCALE
  5
60
102
{ACAD_REACTORS
330
4E
102
}
330
4E
100
AcDbScale
 70
     0
300
1:40
140
1.0
141
40.0
290
     0
  0
SCALE
  5
61
102
{ACAD_REACTORS
330
4E
102
}
330
4E
100
AcDbScale
 70
     0
300
1:50
140
1.0
141
50.0
290
     0
  0
SCALE
  5
62
102
{ACAD_REACTORS
330
4E
102
}
330
4E
100
AcDbScale
 70
     0
300
1:100
140
1.0
141
100.0
290
     0
  0
SCALE
  5
63
102
{ACAD_REACTORS
330
4E
102
}
330
4E
100
AcDbScale
 70
     0
300
2:1
140
2.0
141
1.0
290
     0
  0
SCALE
  5
64
102
{ACAD_REACTORS
330
4E
102
}
330
4E
100
AcDbScale
 70
     0
300
4:1
140
4.0
141
1.0
290
     0
  0
SCALE
  5
65
102
{ACAD_REACTORS
330
4E
102
}
330
4E
100
AcDbScale
 70
     0
300
8:1
140
8.0
141
1.0
290
     0
  0
SCALE
  5
66
102
{ACAD_REACTORS
330
4E
102
}
330
4E
100
AcDbScale
 70
     0
300
10:1
140
10.0
141
1.0
290
     0
  0
SCALE
  5
67
102
{ACAD_REACTORS
330
4E
102
}
330
4E
100
AcDbScale
 70
     0
300
100:1
140
100.0
141
1.0
290
     0
  0
SCALE
  5
68
102
{ACAD_REACTORS
330
4E
102
}
330
4E
100
AcDbScale
 70
     0
300
1/128" = 1'-0"
140
0.0078125
141
12.0
290
     0
  0
SCALE
  5
69
102
{ACAD_REACTORS
330
4E
102
}
330
4E
100
AcDbScale
 70
     0
300
1/64" = 1'-0"
140
0.015625
141
12.0
290
     0
  0
SCALE
  5
6A
102
{ACAD_REACTORS
330
4E
102
}
330
4E
100
AcDbScale
 70
     0
300
1/32" = 1'-0"
140
0.03125
141
12.0
290
     0
  0
SCALE
  5
6B
102
{ACAD_REACTORS
330
4E
102
}
330
4E
100
AcDbScale
 70
     0
300
1/16" = 1'-0"
140
0.0625
141
12.0
290
     0
  0
SCALE
  5
6C
102
{ACAD_REACTORS
330
4E
102
}
330
4E
100
AcDbScale
 70
     0
300
3/32" = 1'-0"
140
0.09375
141
12.0
290
     0
  0
SCALE
  5
6D
102
{ACAD_REACTORS
330
4E
102
}
330
4E
100
AcDbScale
 70
     0
300
1/8" = 1'-0"
140
0.125
141
12.0
290
     0
  0
SCALE
  5
6E
102
{ACAD_REACTORS
330
4E
102
}
330
4E
100
AcDbScale
 70
     0
300
3/16" = 1'-0"
140
0.1875
141
12.0
290
     0
  0
SCALE
  5
6F
102
{ACAD_REACTORS
330
4E
102
}
330
4E
100
AcDbScale
 70
     0
300
1/4" = 1'-0"
140
0.25
141
12.0
290
     0
  0
SCALE
  5
70
102
{ACAD_REACTORS
330
4E
102
}
330
4E
100
AcDbScale
 70
     0
300
3/8" = 1'-0"
140
0.375
141
12.0
290
     0
  0
SCALE
  5
71
102
{ACAD_REACTORS
330
4E
102
}
330
4E
100
AcDbScale
 70
     0
300
1/2" = 1'-0"
140
0.5
141
12.0
290
     0
  0
SCALE
  5
72
102
{ACAD_REACTORS
330
4E
102
}
330
4E
100
AcDbScale
 70
     0
300
3/4" = 1'-0"
140
0.75
141
12.0
290
     0
  0
SCALE
  5
73
102
{ACAD_REACTORS
330
4E
102
}
330
4E
100
AcDbScale
 70
     0
300
1" = 1'-0"
140
1.0
141
12.0
290
     0
  0
SCALE
  5
74
102
{ACAD_REACTORS
330
4E
102
}
330
4E
100
AcDbScale
 70
     0
300
1-1/2" = 1'-0"
140
1.5
141
12.0
290
     0
  0
SCALE
  5
75
102
{ACAD_REACTORS
330
4E
102
}
330
4E
100
AcDbScale
 70
     0
300
3" = 1'-0"
140
3.0
141
12.0
290
     0
  0
SCALE
  5
76
102
{ACAD_REACTORS
330
4E
102
}
330
4E
100
AcDbScale
 70
     0
300
6" = 1'-0"
140
6.0
141
12.0
290
     0
  0
SCALE
  5
77
102
{ACAD_REACTORS
330
4E
102
}
330
4E
100
AcDbScale
 70
     0
300
1'-0" = 1'-0"
140
12.0
141
12.0
290
     0
  0
TABLESTYLE
  5
54
102
{ACAD_XDICTIONARY
360
55
102
}
102
{ACAD_REACTORS
330
4F
102
}
330
4F
100
AcDbTableStyle
  3
Standard
 70
     0
 71
     0
 40
1.5
 41
1.5
280
     0
281
     0
  7
STANDARD
140
4.5
170
     2
 62
     0
 63
     7
283
     0
274
    -2
284
     1
 64
     0
275
    -2
285
     1
 65
     0
276
    -2
286
     1
 66
     0
277
    -2
287
     1
 67
     0
278
    -2
288
     1
 68
     0
279
    -2
289
     1
 69
     0
  7
STANDARD
140
6.0
170
     5
 62
     0
 63
     7
283
     0
274
    -2
284
     1
 64
     0
275
    -2
285
     1
 65
     0
276
    -2
286
     1
 66
     0
277
    -2
287
     1
 67
     0
278
    -2
288
     1
 68
     0
279
    -2
289
     1
 69
     0
  7
STANDARD
140
4.5
170
     5
 62
     0
 63
     7
283
     0
274
    -2
284
     1
 64
     0
275
    -2
285
     1
 65
     0
276
    -2
286
     1
 66
     0
277
    -2
287
     1
 67
     0
278
    -2
288
     1
 68
     0
279
    -2
289
     1
 69
     0
  0
VISUALSTYLE
  5
5F3
102
{ACAD_REACTORS
330
2D
102
}
330
2D
100
AcDbVisualStyle
  2
2dWireframe
 70
     4
 71
     0
 72
     2
 73
     0
 90
        0
 40
-0.6
 41
-30.0
 62
     5
 63
     7
 74
     1
 91
        4
 64
     7
 65
   257
 75
     1
175
     1
 42
1.0
 92
        0
 66
   257
 43
1.0
 76
     1
 77
     6
 78
     2
 67
     7
 79
     5
170
     0
171
     0
290
     0
174
     0
 93
        1
 44
0.0
173
     0
291
     0
 45
0.0
1001
ACAD
1000
AcDbSavedByObjectVersion
1070
     0
1000
AcDbSavedByObjectVersion
1070
     0
  0
VISUALSTYLE
  5
5F4
102
{ACAD_REACTORS
330
2D
102
}
330
2D
100
AcDbVisualStyle
  2
3D Hidden
 70
     6
 71
     1
 72
     2
 73
     2
 90
        0
 40
-0.6
 41
-30.0
 62
     5
 63
     7
 74
     2
 91
        2
 64
     7
 65
   257
 75
     2
175
     1
 42
40.0
 92
        0
 66
   257
 43
1.0
 76
     1
 77
     6
 78
     2
 67
     7
 79
     3
170
     0
171
     0
290
     0
174
     0
 93
        1
 44
0.0
173
     0
291
     0
 45
0.0
1001
ACAD
1000
AcDbSavedByObjectVersion
1070
     0
1000
AcDbSavedByObjectVersion
1070
     0
  0
VISUALSTYLE
  5
56
102
{ACAD_REACTORS
330
2D
102
}
330
2D
100
AcDbVisualStyle
  2
3dWireframe
 70
     5
 71
     0
 72
     2
 73
     0
 90
        0
 40
-0.6
 41
-30.0
 62
     5
 63
     7
 74
     1
 91
        4
 64
     7
 65
   257
 75
     1
175
     1
 42
1.0
 92
        0
 66
   257
 43
1.0
 76
     1
 77
     6
 78
     2
 67
     7
 79
     5
170
     0
171
     0
290
     0
174
     0
 93
        1
 44
0.0
173
     0
291
     0
 45
0.0
1001
ACAD
1000
AcDbSavedByObjectVersion
1070
     0
1000
AcDbSavedByObjectVersion
1070
     0
  0
VISUALSTYLE
  5
5F2
102
{ACAD_REACTORS
330
2D
102
}
330
2D
100
AcDbVisualStyle
  2
Basic
 70
     7
 71
     1
 72
     0
 73
     1
 90
        0
 40
-0.6
 41
-30.0
 62
     5
 63
     7
 74
     0
 91
        4
 64
     7
 65
   257
 75
     1
175
     1
 42
1.0
 92
        8
 66
     7
 43
1.0
 76
     1
 77
     6
 78
     2
 67
     7
 79
     5
170
     0
171
     0
290
     0
174
     0
 93
        1
 44
0.0
173
     0
291
     1
 45
0.0
1001
ACAD
1000
AcDbSavedByObjectVersion
1070
     0
1000
AcDbSavedByObjectVersion
1070
     0
  0
VISUALSTYLE
  5
5F7
102
{ACAD_REACTORS
330
2D
102
}
330
2D
100
AcDbVisualStyle
  2
Brighten
 70
    12
 71
     2
 72
     2
 73
     0
 90
        0
 40
-0.6
 41
-30.0
 62
     5
 63
     7
 74
     1
 91
        4
 64
     7
 65
   257
 75
     1
175
     1
 42
1.0
 92
        8
 66
     7
 43
1.0
 76
     1
 77
     6
 78
     2
 67
     7
 79
     5
170
     0
171
     0
290
     0
174
     0
 93
        1
 44
50.0
173
     0
291
     1
 45
0.0
1001
ACAD
1000
AcDbSavedByObjectVersion
1070
     0
1000
AcDbSavedByObjectVersion
1070
     0
  0
VISUALSTYLE
  5
5FB
102
{ACAD_REACTORS
330
2D
102
}
330
2D
100
AcDbVisualStyle
  2
ColorChange
 70
    16
 71
     2
 72
     2
 73
     3
 90
        0
 40
-0.6
 41
-30.0
 62
     5
 63
     8
 74
     1
 91
        4
 64
     7
 65
   257
 75
     1
175
     1
 42
1.0
 92
        8
 66
     8
 43
1.0
 76
     1
 77
     6
 78
     2
 67
     7
 79
     5
170
     0
171
     0
290
     0
174
     0
 93
        1
 44
0.0
173
     0
291
     1
 45
0.0
1001
ACAD
1000
AcDbSavedByObjectVersion
1070
     0
1000
AcDbSavedByObjectVersion
1070
     0
  0
VISUALSTYLE
  5
5F5
102
{ACAD_REACTORS
330
2D
102
}
330
2D
100
AcDbVisualStyle
  2
Conceptual
 70
     9
 71
     3
 72
     2
 73
     0
 90
        0
 40
-0.6
 41
-30.0
 62
     5
 63
     7
 74
     2
 91
        2
 64
     7
 65
   257
 75
     1
175
     1
 42
40.0
 92
        8
 66
     7
 43
1.0
 76
     1
 77
     6
 78
     2
 67
     7
 79
     3
170
     0
171
     0
290
     0
174
     0
 93
        1
 44
0.0
173
     0
291
     0
 45
0.0
1001
ACAD
1000
AcDbSavedByObjectVersion
1070
     0
1000
AcDbSavedByObjectVersion
1070
     0
  0
VISUALSTYLE
  5
5F6
102
{ACAD_REACTORS
330
2D
102
}
330
2D
100
AcDbVisualStyle
  2
Dim
 70
    11
 71
     2
 72
     2
 73
     0
 90
        0
 40
-0.6
 41
-30.0
 62
     5
 63
     7
 74
     1
 91
        4
 64
     7
 65
   257
 75
     1
175
     1
 42
1.0
 92
        8
 66
     7
 43
1.0
 76
     1
 77
     6
 78
     2
 67
     7
 79
     5
170
     0
171
     0
290
     0
174
     0
 93
        1
 44
-50.0
173
     0
291
     1
 45
0.0
1001
ACAD
1000
AcDbSavedByObjectVersion
1070
     0
1000
AcDbSavedByObjectVersion
1070
     0
  0
VISUALSTYLE
  5
5FA
102
{ACAD_REACTORS
330
2D
102
}
330
2D
100
AcDbVisualStyle
  2
Facepattern
 70
    15
 71
     2
 72
     2
 73
     0
 90
        0
 40
-0.6
 41
-30.0
 62
     5
 63
     7
 74
     1
 91
        4
 64
     7
 65
   257
 75
     1
175
     1
 42
1.0
 92
        8
 66
     7
 43
1.0
 76
     1
 77
     6
 78
     2
 67
     7
 79
     5
170
     0
171
     0
290
     0
174
     0
 93
        1
 44
0.0
173
     0
291
     1
 45
0.0
1001
ACAD
1000
AcDbSavedByObjectVersion
1070
     0
1000
AcDbSavedByObjectVersion
1070
     0
  0
VISUALSTYLE
  5
5EE
102
{ACAD_REACTORS
330
2D
102
}
330
2D
100
AcDbVisualStyle
  2
Flat
 70
     0
 71
     2
 72
     1
 73
     1
 90
        2
 40
-0.6
 41
30.0
 62
     5
 63
     7
 74
     0
 91
        4
 64
     7
 65
   257
 75
     1
175
     1
 42
1.0
 92
        8
 66
     7
 43
1.0
 76
     1
 77
     6
 78
     2
 67
     7
 79
     5
170
     0
171
     0
290
     0
174
     0
 93
       13
 44
0.0
173
     0
291
     1
 45
0.0
1001
ACAD
1000
AcDbSavedByObjectVersion
1070
     0
1000
AcDbSavedByObjectVersion
1070
     0
  0
VISUALSTYLE
  5
5EF
102
{ACAD_REACTORS
330
2D
102
}
330
2D
100
AcDbVisualStyle
  2
FlatWithEdges
 70
     1
 71
     2
 72
     1
 73
     1
 90
        2
 40
-0.6
 41
30.0
 62
     5
 63
     7
 74
     1
 91
        4
 64
     7
 65
   257
 75
     1
175
     1
 42
1.0
 92
        0
 66
   257
 43
1.0
 76
     1
 77
     6
 78
     2
 67
     7
 79
     5
170
     0
171
     0
290
     0
174
     0
 93
       13
 44
0.0
173
     0
291
     1
 45
0.0
1001
ACAD
1000
AcDbSavedByObjectVersion
1070
     0
1000
AcDbSavedByObjectVersion
1070
     0
  0
VISUALSTYLE
  5
5F0
102
{ACAD_REACTORS
330
2D
102
}
330
2D
100
AcDbVisualStyle
  2
Gouraud
 70
     2
 71
     2
 72
     2
 73
     1
 90
        2
 40
-0.6
 41
30.0
 62
     5
 63
     7
 74
     0
 91
        4
 64
     7
 65
   257
 75
     1
175
     1
 42
1.0
 92
        0
 66
     7
 43
1.0
 76
     1
 77
     6
 78
     2
 67
     7
 79
     5
170
     0
171
     0
290
     0
174
     0
 93
       13
 44
0.0
173
     0
291
     1
 45
0.0
1001
ACAD
1000
AcDbSavedByObjectVersion
1070
     0
1000
AcDbSavedByObjectVersion
1070
     0
  0
VISUALSTYLE
  5
5F1
102
{ACAD_REACTORS
330
2D
102
}
330
2D
100
AcDbVisualStyle
  2
GouraudWithEdges
 70
     3
 71
     2
 72
     2
 73
     1
 90
        2
 40
-0.6
 41
30.0
 62
     5
 63
     7
 74
     1
 91
        4
 64
     7
 65
   257
 75
     1
175
     1
 42
1.0
 92
        0
 66
   257
 43
1.0
 76
     1
 77
     6
 78
     2
 67
     7
 79
     5
170
     0
171
     0
290
     0
174
     0
 93
       13
 44
0.0
173
     0
291
     1
 45
0.0
1001
ACAD
1000
AcDbSavedByObjectVersion
1070
     0
1000
AcDbSavedByObjectVersion
1070
     0
  0
VISUALSTYLE
  5
5F9
102
{ACAD_REACTORS
330
2D
102
}
330
2D
100
AcDbVisualStyle
  2
Linepattern
 70
    14
 71
     2
 72
     2
 73
     0
 90
        0
 40
-0.6
 41
-30.0
 62
     5
 63
     7
 74
     1
 91
        4
 64
     7
 65
   257
 75
     7
175
     7
 42
1.0
 92
        8
 66
     7
 43
1.0
 76
     1
 77
     6
 78
     2
 67
     7
 79
     5
170
     0
171
     0
290
     0
174
     0
 93
        1
 44
0.0
173
     0
291
     1
 45
0.0
1001
ACAD
1000
AcDbSavedByObjectVersion
1070
     0
1000
AcDbSavedByObjectVersion
1070
     0
  0
VISUALSTYLE
  5
2C
102
{ACAD_REACTORS
330
2D
102
}
330
2D
100
AcDbVisualStyle
  2
Realistic
 70
     8
 71
     2
 72
     2
 73
     0
 90
        0
 40
-0.6
 41
-30.0
 62
     5
 63
     7
 74
     1
 91
        0
 64
     7
 65
   257
 75
     1
175
     1
 42
1.0
 92
        8
 66
     8
 43
1.0
 76
     1
 77
     6
 78
     2
 67
     7
 79
     5
170
     0
171
     0
290
     0
174
     0
 93
       13
 44
0.0
173
     0
291
     0
 45
0.0
1001
ACAD
1000
AcDbSavedByObjectVersion
1070
     0
1000
AcDbSavedByObjectVersion
1070
     0
  0
VISUALSTYLE
  5
5F8
102
{ACAD_REACTORS
330
2D
102
}
330
2D
100
AcDbVisualStyle
  2
Thicken
 70
    13
 71
     2
 72
     2
 73
     0
 90
        0
 40
-0.6
 41
-30.0
 62
     5
 63
     7
 74
     1
 91
        4
 64
     7
 65
   257
 75
     1
175
     1
 42
1.0
 92
       12
 66
     7
 43
1.0
 76
     1
 77
     6
 78
     2
 67
     7
 79
     5
170
     0
171
     0
290
     0
174
     0
 93
        1
 44
0.0
173
     0
291
     1
 45
0.0
1001
ACAD
1000
AcDbSavedByObjectVersion
1070
     0
1000
AcDbSavedByObjectVersion
1070
     0
  0
DICTIONARYVAR
  5
5EB
102
{ACAD_REACTORS
330
5E8
102
}
330
5E8
100
DictionaryVariables
280
     0
  1
1:1
  0
DICTIONARYVAR
  5
5EA
102
{ACAD_REACTORS
330
5E8
102
}
330
5E8
100
DictionaryVariables
280
     0
  1
STANDARD
  0
DICTIONARYVAR
  5
5E9
102
{ACAD_REACTORS
330
5E8
102
}
330
5E8
100
DictionaryVariables
280
     0
  1
STANDARD
  0
DICTIONARYVAR
  5
621
102
{ACAD_REACTORS
330
5E8
102
}
330
5E8
100
DictionaryVariables
280
     0
  1
1
  0
DICTIONARYVAR
  5
620
102
{ACAD_REACTORS
330
5E8
102
}
330
5E8
100
DictionaryVariables
280
     0
  1
1
  0
DICTIONARYVAR
  5
61F
102
{ACAD_REACTORS
330
5E8
102
}
330
5E8
100
DictionaryVariables
280
     0
  1
0
  0
DICTIONARYVAR
  5
5EC
102
{ACAD_REACTORS
330
5E8
102
}
330
5E8
100
DictionaryVariables
280
     0
  1
0
  0
DICTIONARYVAR
  5
61D
102
{ACAD_REACTORS
330
5E8
102
}
330
5E8
100
DictionaryVariables
280
     0
  1
1
  0
DICTIONARYVAR
  5
61E
102
{ACAD_REACTORS
330
5E8
102
}
330
5E8
100
DictionaryVariables
280
     0
  1
127
  0
ACAD_PROXY_OBJECT
  5
5E3
102
{ACAD_REACTORS
330
5E2
102
}
330
5E2
100
AcDbProxyObject
 90
      499
 91
      558
 95
  1638427
 70
     0
 93
      183
310
4050100057356C1D9F53103902A40CA8010400C400E802
350
5E4
 94
        0
1001
ACAD
1000
AcRTDxfName
1000
ACMDATADICTIONARY
1000
AcRTDxfName
1000
ACMDATADICTIONARY
1000
AcRTDxfName
1000
ACMDATADICTIONARY
  0
DICTIONARY
  5
C90
330
16
100
AcDbDictionary
280
     1
281
     1
  3
ACAD_XREC_ROUNDTRIP
360
C91
  0
DICTIONARY
  5
1C
330
1B
100
AcDbDictionary
280
     1
281
     1
  3
ACAD_XREC_ROUNDTRIP
360
C92
  3
ADSK_XREC_LAYOUTTHUMBNAIL
360
1D
  0
DICTIONARY
  5
46
330
45
100
AcDbDictionary
280
     1
281
     1
  3
ACAD_XREC_ROUNDTRIP
360
617
  3
BUMPTILE
360
47
  3
DIFFUSETILE
360
48
  3
OPACITYTILE
360
49
  3
REFLECTIONTILE
360
4A
  3
REFRACTIONTILE
360
4B
  3
SPECULARTILE
360
4C
  0
DICTIONARY
  5
3E
330
3D
100
AcDbDictionary
280
     1
281
     1
  3
ACAD_XREC_ROUNDTRIP
360
616
  3
BUMPTILE
360
3F
  3
DIFFUSETILE
360
40
  3
OPACITYTILE
360
41
  3
REFLECTIONTILE
360
42
  3
REFRACTIONTILE
360
43
  3
SPECULARTILE
360
44
  0
DICTIONARY
  5
D
330
B
100
AcDbDictionary
280
     1
281
     1
  3
ACAD_XREC_ROUNDTRIP
360
60F
  3
BUMPTILE
360
E
  3
DIFFUSETILE
360
F
  3
OPACITYTILE
360
10
  3
REFLECTIONTILE
360
11
  3
REFRACTIONTILE
360
12
  3
SPECULARTILE
360
13
  0
DICTIONARY
  5
55
330
54
100
AcDbDictionary
280
     1
281
     1
  3
ACAD_ROUNDTRIP_2008_TABLESTYLE_CELLSTYLEMAP
360
C8A
  3
ACAD_XREC_ROUNDTRIP
360
C93
  0
ACAD_PROXY_OBJECT
  5
5E4
102
{ACAD_REACTORS
330
5E3
102
}
330
5E3
100
AcDbProxyObject
 90
      499
 91
      559
 95
  1638427
 70
     0
 93
      358
310
057356C1D9F406406AA8FFFFFFFF067D010040485A0802380188029801680258025801C001A80298022005D004
330
2
330
0
330
0
 94
        0
1001
ACAD
1000
AcRTDxfName
1000
ACMDATAENTRYBLOCK
1000
AcRTDxfName
1000
ACMDATAENTRYBLOCK
1000
AcRTDxfName
1000
ACMDATAENTRYBLOCK
  0
XRECORD
  5
C91
102
{ACAD_REACTORS
330
C90
102
}
330
C90
100
AcDbXrecord
280
     1
102
SHADEPLOT
 70
     0
102
SHADEPLOTRESLEVEL
 70
     2
102
SHADEPLOTCUSTOMDPI
 70
   300
  0
XRECORD
  5
C92
102
{ACAD_REACTORS
330
1C
102
}
330
1C
100
AcDbXrecord
280
     1
102
SHADEPLOT
 70
     0
102
SHADEPLOTRESLEVEL
 70
     2
102
SHADEPLOTCUSTOMDPI
 70
   300
  0
XRECORD
  5
1D
102
{ACAD_REACTORS
330
1C
102
}
330
1C
100
AcDbXrecord
280
     1
310
28000000B4000000860000000100080000000000385E0000000000000000000000010000000000000000000000000000FFFFFF000000000000000000000000000000000000000000000000000000000000000000330000006600000099000000CC000000FF00000000330000333300006633000099330000CC330000FF3300
310
0000660000336600006666000099660000CC660000FF66000000990000339900006699000099990000CC990000FF99000000CC000033CC000066CC000099CC0000CCCC0000FFCC000000FF000033FF000066FF000099FF0000CCFF0000FFFF000000003300330033006600330099003300CC003300FF003300003333003333
310
33006633330099333300CC333300FF33330000663300336633006666330099663300CC663300FF66330000993300339933006699330099993300CC993300FF99330000CC330033CC330066CC330099CC3300CCCC3300FFCC330000FF330033FF330066FF330099FF3300CCFF3300FFFF330000006600330066006600660099
310
006600CC006600FF00660000336600333366006633660099336600CC336600FF33660000666600336666006666660099666600CC666600FF66660000996600339966006699660099996600CC996600FF99660000CC660033CC660066CC660099CC6600CCCC6600FFCC660000FF660033FF660066FF660099FF6600CCFF6600
310
FFFF660000009900330099006600990099009900CC009900FF00990000339900333399006633990099339900CC339900FF33990000669900336699006666990099669900CC669900FF66990000999900339999006699990099999900CC999900FF99990000CC990033CC990066CC990099CC9900CCCC9900FFCC990000FF99
310
0033FF990066FF990099FF9900CCFF9900FFFF99000000CC003300CC006600CC009900CC00CC00CC00FF00CC000033CC003333CC006633CC009933CC00CC33CC00FF33CC000066CC003366CC006666CC009966CC00CC66CC00FF66CC000099CC003399CC006699CC009999CC00CC99CC00FF99CC0000CCCC0033CCCC0066CC
310
CC0099CCCC00CCCCCC00FFCCCC0000FFCC0033FFCC0066FFCC0099FFCC00CCFFCC00FFFFCC000000FF003300FF006600FF009900FF00CC00FF00FF00FF000033FF003333FF006633FF009933FF00CC33FF00FF33FF000066FF003366FF006666FF009966FF00CC66FF00FF66FF000099FF003399FF006699FF009999FF00CC
310
99FF00FF99FF0000CCFF0033CCFF0066CCFF0099CCFF00CCCCFF00FFCCFF0000FFFF0033FFFF0066FFFF0099FFFF00CCFFFF00FFFFFF00000000000D0D0D001A1A1A00282828003535350043434300505050005D5D5D006B6B6B00787878008686860093939300A1A1A100AEAEAE00BBBBBB00C9C9C900D6D6D600E4E4E400
310
F1F1F100FFFFFF0000000000000000000000000000000000000000000000000000000000000000000000000000000000E2E2E2E2E2E2E2E2E2E2E2E2E2E2E2E2E2E2E2E2E2E2E2E2E2E2E2E2E2E2E2E2E2E2E2E2E2E2E2E2E2E2E2E2E2E2E2E2E2E2E2E2E2E2E2E2E2E2E2E2E2E2E2E2E2E2E2E2E2E2E2E2E2E2E2E2E2E2E2
310
E2E2E2E2E2E2E2E2E2E2E2E2E2E2E2E2E2E2E2E2E2E2E2E2E2E2E2E2E2E2E2E2E2E2E2E2E2E2E2E2E2E2E2E2E2E2E2E2E2E2E2E2E2E2E2E2E2E2E2E2E2E2E2E2E2E2E2E2E2E2E2E2E2E2E2E2E2E2E2E2E2E2E2E2E2E2E2E2E2E2E2E2E2E2E2E2E2E2E2E2E2E2E2E2E2E2E2E2E2E2E2E2E2E2E2E2E2E2E2E2E2E2E2E2E2E2E2
310
E2E2E2E2E2E2E2E2E2E2E2E2E2E2E2E2E2E2E2E2E2E2E2E2E2E2E2E2E2E2E2E2E2E2E2E2E2E2E2E2E2E2E2E2E2E2E2E2E2E2E2E2E2E2E2E2E2E2E2E2E2E2E2E2E2E2E2E2E2E2E2E2E2E2E2E2E2E2E2E2E2E2E2E2E2E2E2E2E2E2E2E2E2E2E2E2E2E2E2E2E2E2E2E2E2E2E2E2E2E2E2E2E2E2E2E2E2E2E2E2E2E2E2E2E2E2E2
310
E2E2E2E2E2E2E2E2E2E2E2E2E2E2E2E2E2E2E2E2E2E2E2E2E2E2E2E2E2E2E2E2E2E2E2E2E2E2E2E2E2E2E2E2E2E2E2E2E2E2E2E2E2E2E2E2E2E2E2E2E2E2E2E2E2E2E2E2E2E2E2E2E2E2E2E2E2E2E2E2E2E2E2E2E2E2E2E2E2E2E2E2E2E2E2E2E2E2E2E2E2E2E2E2E2E2E2E2E2E2E2E2E2E2E2E2E2E2E2E2E2E2E2E2E2E2E2
310
E2E2E2E2E2E2E2E2E2E2E2E2E2E2E2E2E2E2E2E2E2E2E2E2E2E2E2E2E2E2E2E2E2E2E2E2E2E2E2E2E2E2E2E2E2E2E2E2E2E2E2E2E2E2E2E2E2E2E2E2E2E2E2E2E2E2E2E2E2E2E2E2E2E2E2E2E2E2E2E2E2E2E2E2E2E2E2E2E2E2E2E2E2E2E2E2E2E2E2E2E2E2E2E2E2E2E2E2E2E2E2E2E2E2E2E2E2E2E2E2E2E2E2E2E2E2E2
310
E2E2E2E2E2E2E2E2E2E2E2E2E2E2E2E2E2E2E2E2E2E2E2E2E2E2E2E2E2E2E2E2E2E2E2E2E2E2E2E2E2E2E2E2E2E2E2E2E2E2E2E2E2E2E2E2E2E2E2E2E2E2E2E2E2E2E2E2E2E2E2E2E2E2E2E2E2E2E2E2E2E2E2E2E2E2E2E2E2E2E2E2E2E2E2E2E2E2E2E2E2E2E2E2E2E2E2E2E2E2E2E2E2E2E2E2E2E2E2E2E2E2E2E2E2E2E2
310
E2E2E2E2E2E2E2E2E2E2E2E2E2E2E2E2E2E2E2E2E2E2E2E2E2E2E2E2E2E2E2E2E2E2E2E2E2E2E2E2E2E2E2E2E2E2E2E2E2E2E2E2E2E2E2E2E2E2E2E2E2E2E2E2E2E2E2E2E2E2E2E2E2E2E2E2E2E2E2E2E2E2E2E2E2E2E2E2E2E2E2E2E2E2E2E2E2E2E2E2E2E2E2E2E2E2E2E2E2E2E2E2E2E2E2E2E2E2E2E2E2E2E2E2E2E2E2
310
E2E2E2E2E2E2E2E2E2E2E2E2E2E2E2E2E2E2E2E2E2E2E2E2E2E2E2E2E2E2E2E2E2E2E2E2E2E2E2E2E2E2E2E2E2E2E2E2E2E2E2E2E2E2E2E2E2E2E2E2E2E2E2E2E2E2E2E2E2E2E2E2E2E2E2E2E2E2E2E2E2E2E2E2E2E2E2E2E2E2E2E2E2E2E2E2E2E2E2E2E2E2E2E2E2E2E2E2E2E2E2E2E2E2E2E2E2E2E2E2E2E2E2E2E2E2E2
310
E2E2E2E2E2E2E2E2E2E2E2E2E2E2E2E2E2E2E2E2E2E2E2E2E2E2E2E2E2E2E2E2E2E2E2E2E2E2E2E2E2E2E2E2E2E2E2E2E2E2E2E2E2E2E2E2E2E2E2E2E2E2E2E2E2E2E2E2E2E2E2E2E2E2E2E2E2E2E2E2E2E2E2E2E2E2E2E2E2E2E2E2E2E2E2E2E2E2E2E2E2E2E2E2E2E2E2E2E2E2E2E2E2E2E2E2E2E2E2E2E2E2E2E2E2E2E2
310
E2E2E2E2E2E2E2E2E2E2E2E2E2E2E2E2E2E2E2E2E2E2E2E2E2E2E2E2E2E2E2E2E2E2E2E2E2E2E2E2E2E2E2E2E2E2E2E2E2E2E2E2E2E2E2E2E2E2E2E2E2E2E2E2E2E2E2E2E2E2E2E2E2E2E2E2E2E2E2E2E2E2E2E2E2E2E2E2E2E2E2E2E2E2E2E2E2E2E2E2E2E2E2E2E2E2E2E2E2E2E2E2E2E2E2E2E2E2E2E2E2E2E2E2E2E2E2
310
E2E2E2E2E2E2E2E2E2E2E2E2E2E2E2E2E2E2E2E2E2E2E2E2E2E2E2E2E2E2E2E2E2E2E2E2E2E2E2E2E2E2E2E2E2E2E2E2E2E2E2E2E2E2E2E2E2E2E2E2E2E2E2E2E2E2E2E2E2E2E2E2E2E2E2E2E2E2E2E2E2E2E2E2E2E2E2E2E2E2E2E2E2E2E2E2E2E2E2E2E2E2E2E2E2E2E2E2E2E2E2E2E2E2E2E2E2E2E2E2E2E2E2E2E2E2E2
310
E2E2E2E2E2E2E2E2E2E2E2E2E2E2E2E2E2E2E2E2E2E2E2E2E2E2E2E2E2E2E2E2E2E2E2E2E2E2E2E2E2E2E2E2E2E2E2E2E2E2E2E2E2E2E2E2E2E2E2E2E2E2E2E2E2E2E2E2E2E2E2E2E2E2E2E2E2E2E2E2E2E2E2E2E2E2E2E2E2E2E2E2E2E2E2E2E2E2E2E2E2E2E2E2E2E2E2E2E2E2E2E2E2E2E2E2E2E2E2E2E2E2E2E2E2E2E2
310
E2E2E2E2E2E2E2E2E2E2E2E2E2E2E2E2E2E2E2E2E2E2E2E2E2E2E2E2E2E2E2E2E2E2E2E2E2E2E2E2E2E2E2E2E2E2E2E2E2E2E2E2E2E2E2E2E2E2E2E2E2E2E2E2E2E2E2E2E2E2E2E2E2E2E2E2E2E2E2E2E2E2E2E2E2E2E2E2E2E2E2E2E2E2E2E2E2E2E2E2E2E2E2E2E2E2E2E2E2E2E2E2E2E2E2E2E2E2E2E2E2E2E2E2E2E2E2
310
E2E2E2E2E2E2E2E2E2E2E2E2E2E2E2E2E2E2E2E2E2E2E2E2E2E2E2E2E2E2E2E2E2E2E2E2E2E2E2E2E2E2E2E2E2E2E2E2E2E2E2E2E2E2E2E2E2E2E2E2E2E2E2E2E2E2E2E2E2E2E2E2E2E2E2E2E2E2E2E2E2E2E2E2E2E2E2E2E2E2E2E2E2E2E2E2E2E2E2E2E2E2E2E2E2E2E2E2E2E2E2E2E2E2E2E2E2E2E2E2E2E2E2E2E2E2E2
310
E2E2E2E2E2E2E2E2E2E2E2E2E2E2E2E2E2E2E2E2E2E2E2E2E2E2E2E2E2E2E2E2E2E2E2E2E2E2E2E2E2E2E2E2E2E2E2E2E2E2E2E2E2E2E2E2E2E2E2E2E2E2E2E2E2E2E2E2E2E2E2E2E2E2E2E2E2E2E2E2E2E2E2E2E2E2E2E2E2E2E2E2E2E2E2E2E2E2E2E2E2E2E2E2E2E2E2E2E2E2E2E2E2E2E2E2E2E2E2E2E2E2E2E2E2E2E2
310
E2E2E2E2E2E2E2E2E2E2E2E2E2E2E2E2E2E2E2E2E2E2E2E2E2E2E2E2E2E2E2E2E2E2E2E2E2E2E2E2E2E2E2E2E2E2E2E2E2E2E2E2E2E2E2E2E2E2E2E2E2E2E2E2E2E2E2E2E2E2E2E2E2E2E2E2E2E2E2E2E2E2E2E2E2E2E2E2E2E2E2E2E2E2E2E2E2E2E2E2E2E2E2E2E2E2E2E2E2E2E2E2E2E2E2E2E2E2E2E2E2E2E2E2E2E2E2
310
E2E2E2E2E2E2E2E2E2E2E2E2E2E2E2E2E2E2E2E2E2E2E2E2E2E2E2E2E2E2E2E2E2E2E2E2E2E2E2E2E2E2E2E2E2E2E2E2E2E2E2E2E2E2E2E2E2E2E2E2E2E2E2E2E2E2E2E2E2E2E2E2E2E2E2E2E2E2E2E2E2E2E2E2E2E2E2E2E2E2E2E2E2E2E2E2E2E2E2E2E2E2E2E2E2E2E2E2E2E2E2E2E2E2E2E2E2E2E2E2E2E2E2E2E2E2E2
310
E2E2E2E2E2E2E2E2E2E2E2E2E2E2E2E2E2E2E2E2E2E2E2E2E2E2E2E2E2E2E2E2E2E2E2E2E2E2E2E2E2E2E2E2E2E2E2E2E2E2E2E2E2E2E2E2E2E2E2E2E2E2E2E2E2E2E2E2E2E2E2E2E2E2E2E2E2E2E2E2E2E2E2E2E2E2E2E2E2E2E2E2E2E2E2E2E2E2E2E2E2E2E2E2E2E2E2E2E2E2E2E2E2E2E2E2E2E2E2E2E2E2E2E2E2E2E2
310
E2E2E2E2E2E2E2E2E2E2E2E2E2E2E2E2E2E2E2E2E2E2E2E2E2E2E2E2E2E2E2E2E2E2E2E2E2E2E2E2E2E2E2E2E2E2E2E2E2E2E2E2E2E2E2E2E2E2E2E2E2E2E2E2E2E2E2E2E2E2E2E2E2E2E2E2E2E2E2E2E2E2E2E2E2E2E2E2E2E2E2E2E2E2E2E2E2E2E2E2E2E2E2E2E2E2E2E2E2E2E2E2E2E2E2E2E2E2E2E2E2E2E2E2E2E2E2
310
E2E2E2E2E2E2E2E2E2E2E2E2E2E2E2E2E2E2E2E2E2E2E2E2E2E2E2E2E2E2E2E2E2E2E2E2E2E2E2E2E2E2E2E2E2E2E2E2E2E2E2E2E2E2E2E2E2E2E2E2E2E2E2E2E2E2E2E2E2E2E2E2E2E2E2E2E2E2E2E2E2E2E2E2E2E2E2E2E2E2E2E2E2E2E2E2E2E2E2E2E2E2E2E2E2E2E2E2E2E2E2E2E2E2E2E2E2E2E2E2E2E2E2E2E2E2E2
310
E2E2E2E2E2E2E2E2E2E2E2E2E2E2E2E2E2E2E2E2E2E2E2E2E2E2E2E2E2E2E2E2E2E2E2E2E2E2E2E2E2E2E2E2E2E2E2E2E2E2E2E2E2E2E2E2E2E2E2E2E2E2E2E2E2E2E2E2E2E2E2E2E2E2E2E2E2E2E2E2E2E2E2E2E2E2E2E2E2E2E2E2E2E2E2E2E2E2E2E2E2E2E2E2E2E2E2E2E2E2E2E2E2E2E2E2E2E2E2E2E2E2E2E2E2E2E2
310
E2E2E2E2E2E2E2E2E2E2E2E2E2E2E2E2E2E2E2E2E2E2E2E2E2E2E2E2E2E2E2E2E2E2E2E2E2E2E2E2E2E2E2E2E2E2E2E2E2E2E2E2E2E2E2E2E2E2E2E2E2E2E2E2E2E2E2E2E2E2E2E2E2E2E2E2E2E2E2E2E2E2E2E2E2E2E2E2E2E2E2E2E2E2E2E2E2E2E2E2E2E2E2E2E2E2E2E2E2E2E2E2E2E2E2E2E2E2E2E2E2E2E2E2E2E2E2
310
E2E2E2E2E2E2E2E2E2E2E2E2E2E2E2E2E2E2E2E2E2E2E2E2E2E2E2E2E2E2E2E2E2E2E2E2E2E2E2E2E2E2E2E2E2E2E2E2E2E2E2E2E2E2E2E2E2E2E2E2E2E2E2E2E2E2E2E2E2E2E2E2E2E2E2E2E2E2E2E2E2E2E2E2E2E2E2E2E2E2E2E2E2E2E2E2E2E2E2E2E2E2E2E2E2E2E2E2E2E2E2E2E2E2E2E2E2E2E2E2E2E2E2E2E2E2E2
310
E2E2E2E2E2E2E2E2E2E2E2E2E2E2E2E2E2E2E2E2E2E2E2E2E2E2E2E2E2E2E2E2E2E2E2E2E2E2E2E2E2E2E2E2E2E2E2E2E2E2E2E2E2E2E2E2E2E2E2E2E2E2E2E2E2E2E2E2E2E2E2E2E2E2E2E2E2E2E2E2E2E2E2E2E2E2E2E2E2E2E2E2E2E2E2E2E2E2E2E2E2E2E2E2E2E2E2E2E2E2E2E2E2E2E2E2E2E2E2E2E2E2E2E2E2E2E2
310
E2E2E2E2E2E2E2E2E2E2E2E2E2E2E2E2E2E2E2E2E2E2E2E2E2E2E2E2E2E2E2E2E2E2E2E2E2E2E2E2E2E2E2E2E2E2E2E2E2E2E2E2E2E2E2E2E2E2E2E2E2E2E2E2E2E2E2E2E2E2E2E2E2E2E2E2E2E2E2E2E2E2E2E2E2E2E2E2E2E2E2E2E2E2E2E2E2E2E2E2E2E2E2E2E2E2E2E2E2E2E2E2E2E2E2E2E2E2E2E2E2E2E2E2E2E2E2
310
E2E2E2E2E2E2E2E2E2E2E2E2E2E2E2E2E2E2E2E2E2E2E2E2E2E2E2E2E2E2E2E2E2E2E2E2E2E2E2E2E2E2E2E2E2E2E2E2E2E2E2E2E2E2E2E2E2E2E2E2E2E2E2E2E2E2E2E2E2E2E2E2E2E2E2E2E2E2E2E2E2E2E2E2E2E2E2E2E2E2E2E2E2E2E2E2E2E2E2E2E2E2E2E2E2E2E2E2E2E2E2E2E2E2E2E2E2E2E2E2E2E2E2E2E2E2E2
310
E2E2E2E2E2E2E2E2E2E2E2E2E2E2E2E2E2E2E2E2E2E2E2E2E2E2E2E2E2E2E2E2E2E2E2E2E2E2E2E2E2E2E2E2E2E2E2E2E2E2E2E2E2E2E2E2E2E2E2E2E2E2E2E2E2E2E2E2E2E2E2E2E2E2E2E2E2E2E2E2E2E2E2E2E2E2E2E2E2E2E2E2E2E2E2E2E2E2E2E2E2E2E2E2E2E2E2E2E2E2E2E2E2E2E2E2E2E2E2E2E2E2E2E2E2E2E2
310
E2E2E2E2E2E2E2E2E2E2E2E2E2E2E2E2E2E2E2E2E2E2E2E2E2E2E2E2E2E2E2E2E2E2E2E2E2E2E2E2E2E2E2E2E2E2E2E2E2E2E2E2E2E2E2E2E2E2E2E2E2E2E2E2E2E2E2E2E2E2E2E2E2E2E2E2E2E2E2E2E2E2E2E2E2E2E2E2E2E2E2E2E2E2E2E2E2E2E2E2E2E2E2E2E2E2E2E2E2E2E2E2E2E2E2E2E2E2E2E2E2E2E2E2E2E2E2
310
E2E2E2E2E2E2E2E2E2E2E2E2E2E2E2E2E2E2E2E2E2E2E2E2E2E2E2E2E2E2E2E2E2E2E2E2E2E2E2E2E2E2E2E2E2E2E2E2E2E2E2E2E2E2E2E2E2E2E2E2E2E2E2E2E2E2E2E2E2E2E2E2E2E2E2E2E2E2E2E2E2E2E2E2E2E2E2E2E2E2E2E2E2E2E2E2E2E2E2E2E2E2E2E2E2E2E2E2E2E2E2E2E2E2E2E2E2E2E2E2E2E2E2E2E2E2E2
310
E2E2E2E2E2E2E2E2E2E2E2E2E2E2E2E2E2E2E2E2E2E2E2E2E2E2E2E2E2E2E2E2E2E2E2E2E2E2E2E2E2E2E2E2E2E2E2E2E2E2E2E2E2E2E2E2E2E2E2E2E2E2E2E2E2E2E2E2E2E2E2E2E2E2E2E2E2E2E2E2E2E2E2E2E2E2E2E2E2E2E2E2E2E2E2E2E2E2E2E2E2E2E2E2E2E2E2E2E2E2E2E2E2E2E2E2E2E2E2E2E2E2E2E2E2E2E2
310
E2E2E2E2E2E2E2E2E2E2E2E2E2E2E2E2E2E2E2E2E2E2E2E2E2E2E2E2E2E2E2E2E2E2E2E2E2E2E2E2E2E2E2E2E2E2E2E2E2E2E2E2E2E2E2E2E2E2E2E2E2E2E2E2E2E2E2E2E2E2E2E2E2E2E2E2E2E2E2E2E2E2E2E2E2E2E2E2E2E2E2E2E2E2E2E2E2E2E2E2E2E2E2E2E2E2E2E2E2E2E2E2E2E2E2E2E2E2E2E2E2E2E2E2E2E2E2
310
E2E2E2E2E2E2E2E2E2E2E2E2E2E2E2E2E2E2E2E2E2E2E2E2E2E2E2E2E2E2E2E2E2E2E2E2E2E2E2E2E2E2E2E2E2E2E2E2E2E2E2E2E2E2E2E2E2E2E2E2E2E2E2E2E2E2E2E2E2E2E2E2E2E2E2E2E2E2E2E2E2E2E2E2E2E2E2E2E2E2E2E2E2E2E2E2E2E2E2E2E2E2E2E2E2E2E2E2E2E2E2E2E2E2E2E2E2E2E2E2E2E2E2E2E2E2E2
310
E2E2E2E2E2E2E2E2E2E2E2E2E2E2E2E2E2E2E2E2E2E2E2E2E2E2E2E2E2E2E2E2E2E2E2E2E2E2E2E2E2E2E2E2E2E2E2E2E2E2E2E2E2E2E2E2E2E2E2E2E2E2E2E2E2E2E2E2E2E2E2E2E2E2E2E2E2E2E2E2E2E2E2E2E2E2E2E2E2E2E2E2E2E2E2E2E2E2E2E2E2E2E2E2E2E2E2E2E2E2E2E2E2E2E2E2E2E2E2E2E2E2E2E2E2E2E2
310
E2E2E2E2E2E2E2E2E2E2E2E2E2E2E2E2E2E2E2E2E2E2E2E2E2E2E2E2E2E2E2E2E2E2E2E2E2E2E2E2E2E2E2E2E2E2E2E2E2E2E2E2E2E2E2E2E2E2E2E2E2E2E2E2E2E2E2E2E2E2E2E2E2E2E2E2E2E2E2E2E2E2E2E2E2E2E2E2E2E2E2E2E2E2E2E2E2E2E2E2E2E2E2E2E2E2E2E2E2E2E2E2E2E2E2E2E2E2E2E2E2E2E2E2E2E2E2
310
E2E2E2E2E2E2E2E2E2E2E2E2E2E2E2E2E2E2E2E2E2E2E2E2E2E2E2E2E2E2E2E2E2E2E2E2E2E2E2E2E2E2E2E2E2E2E2E2E2E2E2E2E2E2E2E2E2E2E2E2E2E2E2E2E2E2E2E2E2E2E2E2E2E2E2E2E2E2E2E2E2E2E2E2E2E2E2E2E2E2E2E2E2E2E2E2E2E2E2E2E2E2E2E2E2E2E2E2E2E2E2E2E2E2E2E2E2E2E2E2E2E2E2E2E2E2E2
310
E2E2E2E2E2E2E2E2E2E2E2E2E2E2E2E2E2E2E2E2E2E2E2E2E2E2E2E2E2E2E2E2E2E2E2E2E2E2E2E2E2E2E2E2E2E2E2E2E2E2E2E2E2E2E2E2E2E2E2E2E2E2E2E2E2E2E2E2E2E2E2E2E2E2E2E2E2E2E2E2E2E2E2E2E2E2E2E2E2E2E2E2E2E2E2E2E2E2E2E2E2E2E2E2E2E2E2E2E2E2E2E2E2E2E2E2E2E2E2E2E2E2E2E2E2E2E2
310
E2E2E2E2E2E2E2E2E2E2E2E2E2E2E2E2E2E2E2E2E2E2E2E2E2E2E2E2E2E2E2E2E2E2E2E2E2E2E2E2E2E2E2E2E2E2E2E2E2E2E2E2E2E2E2E2E2E2E2E2E2E2E2E2E2E2E2E2E2E2E2E2E2E2E2E2E2E2E2E2E2E2E2E2E2E2E2E2E2E2E2E2E2E2E2E2E2E2E2E2E2E2E2E2E2E2E2E2E2E2E2E2E2E2E2E2E2E2E2E2E2E2E2E2E2E2E2
310
E2E2E2E2E2E2E2E2E2E2E2E2E2E2E2E2E2E2E2E2E2E2E2E2E2E2E2E2E2E2E2E2E2E2E2E2E2E2E2E2E2E2E2E2E2E2E2E2E2E2E2E2E2E2E2E2E2E2E2E2E2E2E2E2E2E2E2E2E2E2E2E2E2E2E2E2E2E2E2E2E2E2E2E2E2E2E2E2E2E2E2E2E2E2E2E2E2E2E2E2E2E2E2E2E2E2E2E2E2E2E2E2E2E2E2E2E2E2E2E2E2E2E2E2E2E2E2
310
E2E2E2E2E2E2E2E2E2E2E2E2E2E2E2E2E2E2E2E2E2E2E2E2E2E2E2E2E2E2E2E2E2E2E2E2E2E2E2E2E2E2E2E2E2E2E2E2E2E2E2E2E2E2E2E2E2E2E2E2E2E2E2E2E2E2E2E2E2E2E2E2E2E2E2E2E2E2E2E2E2E2E2E2E2E2E2E2E2E2E2E2E2E2E2E2E2E2E2E2E2E2E2E2E2E2E2E2E2E2E2E2E2E2E2E2E2E2E2E2E2E2E2E2E2E2E2
310
E2E2E2E2E2E2E2E2E2E2E2E2E2E2E2E2E2E2E2E2E2E2E2E2E2E2E2E2E2E2E2E2E2E2E2E2E2E2E2E2E2E2E2E2E2E2E2E2E2E2E2E2E2E2E2E2E2E2E2E2E2E2E2E2E2E2E2E2E2E2E2E2E2E2E2E2E2E2E2E2E2E2E2E2E2E2E2E2E2E2E2E2E2E2E2E2E2E2E2E2E2E2E2E2E2E2E2E2E2E2E2E2E2E2E2E2E2E2E2E2E2E2E2E2E2E2E2
310
E2E2E2E2E2E2E2E2E2E2E2E2E2E2E2E2E2E2E2E2E2E2E2E2E2E2E2E2E2E2E2E2E2E2E2E2E2E2E2E2E2E2E2E2E2E2E2E2E2E2E2E2E2E2E2E2E2E2E2E2E2E2E2E2E2E2E2E2E2E2E2E2E2E2E2E2E2E2E2E2E2E2E2E2E2E2E2E2E2E2E2E2E2E2E2E2E2E2E2E2E2E2E2E2E2E2E2E2E2E2E2E2E2E2E2E2E2E2E2E2E2E2E2E2E2E2E2
310
E2E2E2E2E2E2E2E2E2E2E2E2E2E2E2E2E2E2E2E2E2E2E2E2E2E2E2E2E2E2E2E2E2E2E2E2E2E2E2E2E2E2E2E2E2E2E2E2E2E2E2E2E2E2E2E2E2E2E2E2E2E2E2E2E2E2E2E2E2E2E2E2E2E2E2E2E2E2E2E2E2E2E2E2E2E2E2E2E2E2E2E2E2E2E2E2E2E2E2E2E2E2E2E2E2E2E2E2E2E2E2E2E2E2E2E2E2E2E2E2E2E2E2E2E2E2E2
310
E2E2E2E2E2E2E2E2E2E2E2E2E2E2E2E2E2E2E2E2E2E2E2E2E2E2E2E2E2E2E2E2E2E2E2E2E2E2E2E2E2E2E2E2E2E2E2E2E2E2E2E2E2E2E2E2E2E2E2E2E2E2E2E2E2E2E2E2E2E2E2E2E2E2E2E2E2E2E2E2E2E2E2E2E2E2E2E2E2E2E2E2E2E2E2E2E2E2E2E2E2E2E2E2E2E2E2E2E2E2E2E2E2E2E2E2E2E2E2E2E2E2E2E2E2E2E2
310
E2E2E2E2E2E2E2E2E2E2E2E2E2E2E2E2E2E2E2E2E2E2E2E2E2E2E2E2E2E2E2E2E2E2E2E2E2E2E2E2E2E2E2E2E2E2E2E2E2E2E2E2E2E2E2E2E2E2E2E2E2E2E2E2E2E2E2E2E2E2E2E2E2E2E2E2E2E2E2E2E2E2E2E2E2E2E2E2E2E2E2E2E2E2E2E2E2E2E2E2E2E2E2E2E2E2E2E2E2E2E2E2E2E2E2E2E2E2E2E2E2E2E2E2E2E2E2
310
E2E2E2E2E2E2E2E2E2E2E2E2E2E2E2E2E2E2E2E2E2E2E2E2E2E2E2E2E2E2E2E2E2E2E2E2E2E2E2E2E2E2E2E2E2E2E2E2E2E2E2E2E2E2E2E2E2E2E2E2E2E2E2E2E2E2E2E2E2E2E2E2E2E2E2E2E2E2E2E2E2E2E2E2E2E2E2E2E2E2E2E2E2E2E2E2E2E2E2E2E2E2E2E2E2E2E2E2E2E2E2E2E2E2E2E2E2E2E2E2E2E2E2E2E2E2E2
310
E2E2E2E2E2E2E2E2E2E2E2E2E2E2E2E2E2E2E2E2E2E2E2E2E2E2E2E2E2E2E2E2E2E2E2E2E2E2E2E2E2E2E2E2E2E2E2E2E2E2E2E2E2E2E2E2E2E2E2E2E2E2E2E2E2E2E2E2E2E2E2E2E2E2E2E2E2E2E2E2E2E2E2E2E2E2E2E2E2E2E2E2E2E2E2E2E2E2E2E2E2E2E2E2E2E2E2E2E2E2E2E2E2E2E2E2E2E2E2E2E2E2E2E2E2E2E2
310
E2E2E2E2E2E2E2E2E2E2E2E2E2E2E2E2E2E2E2E2E2E2E2E2E2E2E2E2E2E2E2E2E2E2E2E2E2E2E2E2E2E2E2E2E2E2E2E2E2E2E2E2E2E2E2E2E2E2E2E2E2E2E2E2E2E2E2E2E2E2E2E2E2E2E2E2E2E2E2E2E2E2E2E2E2E2E2E2E2E2E2E2E2E2E2E2E2E2E2E2E2E2E2E2E2E2E2E2E2E2E2E2E2E2E2E2E2E2E2E2E2E2E2E2E2E2E2
310
E2E2E2E2E2E2E2E2E2E2E2E2E2E2E2E2E2E2E2E2E2E2E2E2E2E2E2E2E2E2E2E2E2E2E2E2E2E2E2E2E2E2E2E2E2E2E2E2E2E2E2E2E2E2E2E2E2E2E2E2E2E2E2E2E2E2E2E2E2E2E2E2E2E2E2E2E2E2E2E2E2E2E2E2E2E2E2E2E2E2E2E2E2E2E2E2E2E2E2E2E2E2E2E2E2E2E2E2E2E2E2E2E2E2E2E2E2E2E2E2E2E2E2E2E2E2E2
310
E2E2E2E2E2E2E2E2E2E2E2E2E2E2E2E2E2E2E2E2E2E2E2E2E2E2E2E2E2E2E2E2E2E2E2E2E2E2E2E2E2E2E2E2E2E2E2E2E2E2E2E2E2E2E2E2E2E2E2E2E2E2E2E2E2E2E2E2E2E2E2E2E2E2E2E2E2E2E2E2E2E2E2E2E2E2E2E2E2E2E2E2E2E2E2E2E2E2E2E2E2E2E2E2E2E2E2E2E2E2E2E2E2E2E2E2E2E2E2E2E2E2E2E2E2E2E2
310
E2E2E2E2E2E2E2E2E2E2E2E2E2E2E2E2E2E2E2E2E2E2E2E2E2E2E2E2E2E2E2E2E2E2E2E2E2E2E2E2E2E2E2E2E2E2E2E2E2E2E2E2E2E2E2E2E2E2E2E2E2E2E2E2E2E2E2E2E2E2E2E2E2E2E2E2E2E2E2E2E2E2E2E2E2E2E2E2E2E2E2E2E2E2E2E2E2E2E2E2E2E2E2E2E2E2E2E2E2E2E2E2E2E2E2E2E2E2E2E2E2E2E2E2E2E2E2
310
E2E2E2E2E2E2E2E2E2E2E2E2E2E2E2E2E2E2E2E2E2E2E2E2E2E2E2E2E2E2E2E2E2E2E2E2E2E2E2E2E2E2E2E2E2E2E2E2E2E2E2E2E2E2E2E2E2E2E2E2E2E2E2E2E2E2E2E2E2E2E2E2E2E2E2E2E2E2E2E2E2E2E2E2E2E2E2E2E2E2E2E2E2E2E2E2E2E2E2E2E2E2E2E2E2E2E2E2E2E2E2E2E2E2E2E2E2E2E2E2E2E2E2E2E2E2E2
310
E2E2E2E2E2E2E2E2E2E2E2E2E2E2E2E2E2E2E2E2E2E2E2E2E2E2E2E2E2E2E2E2E2E2E2E2E2E2E2E2E2E2E2E2E2E2E2E2E2E2E2E2E2E2E2E2E2E2E2E2E2E2E2E2E2E2E2E2E2E2E2E2E2E2E2E2E2E2E2E2E2E2E2E2E2E2E2E2E2E2E2E2E2E2E2E2E2E2E2E2E2E2E2E2E2E2E2E2E2E2E2E2E2E2E2E2E2E2E2E2E2E2E2E2E2E2E2
310
E2E2E2E2E2E2E2E2E2E2E2E2E2E2E2E2E2E2E2E2E2E2E2E2E2E2E2E2E2E2E2E2E2E2E2E2E2E2E2E2E2E2E2E2E2E2E2E2E2E2E2E2E2E2E2E2E2E2E2E2E2E2E2E2E2E2E2E2E2E2E2E2E2E2E2E2E2E2E2E2E2E2E2E2E2E2E2E2E2E2E2E2E2E2E2E2E2E2E2E2E2E2E2E2E2E2E2E2E2E2E2E2E2E2E2E2E2E2E2E2E2E2E2E2E2E2E2
310
E2E2E2E2E2E2E2E2E2E2E2E2E2E2E2E2E2E2E2E2E2E2E2E2E2E2E2E2E2E2E2E2E2E2E2E2E2E2E2E2E2E2E2E2E2E2E2E2E2E2E2E2E2E2E2E2E2E2E2E2E2E2E2E2E2E2E2E2E2E2E2E2E2E2E2E2E2E2E2E2E2E2E2E2E2E2E2E2E2E2E2E2E2E2E2E2E2E2E2E2E2E2E2E2E2E2E2E2E2E2E2E2E2E2E2E2E2E2E2E2E2E2E2E2E2E2E2
310
E2E2E2E2E2E2E2E2E2E2E2E2E2E2E2E2E2E2E2E2E2E2E2E2E2E2E2E2E2E2E2E2E2E2E2E2E2E2E2E2E2E2E2E2E2E2E2E2E2E2E2E2E2E2E2E2E2E2E2E2E2E2E2E2E2E2E2E2E2E2E2E2E2E2E2E2E2E2E2E2E2E2E2E2E2E2E2E2E2E2E2E2E2E2E2E2E2E2E2E2E2E2E2E2E2E2E2E2E2E2E2E2E2E2E2E2E2E2E2E2E2E2E2E2E2E2E2
310
E2E2E2E2E2E2E2E2E2E2E2E2E2E2E2E2E2E2E2E2E2E2E2E2E2E2E2E2E2E2E2E2E2E2E2E2E2E2E2E2E2E2E2E2E2E2E2E2E2E2E2E2E2E2E2E2E2E2E2E2E2E2E2E2E2E2E2E2E2E2E2E2E2E2E2E2E2E2E2E2E2E2E2E2E2E2E2E2E2E2E2E2E2E2E2E2E2E2E2E2E2E2E2E2E2E2E2E2E2E2E2E2E2E2E2E2E2E2E2E2E2E2E2E2E2E2E2
310
E2E2E2E2E2E2E2E2E2E2E2E2E2E2E2E2E2E2E2E2E2E2E2E2E2E2E2E2E2E2E2E2E2E2E2E2E2E2E2E2E2E2E2E2E2E2E2E2E2E2E2E2E2E2E2E2E2E2E2E2E2E2E2E2E2E2E2E2E2E2E2E2E2E2E2E2E2E2E2E2E2E2E2E2E2E2E2E2E2E2E2E2E2E2E2E2E2E2E2E2E2E2E2E2E2E2E2E2E2E2E2E2E2E2E2E2E2E2E2E2E2E2E2E2E2E2E2
310
E2E2E2E2E2E2E2E2E2E2E2E2E2E2E2E2E2E2E2E2E2E2E2E2E2E2E2E2E2E2E2E2E2E2E2E2E2E2E2E2E2E2E2E2E2E2E2E2E2E2E2E2E2E2E2E2E2E2E2E2E2E2E2E2E2E2E2E2E2E2E2E2E2E2E2E2E2E2E2E2E2E2E2E2E2E2E2E2E2E2E2E2E2E2E2E2E2E2E2E2E2E2E2E2E2E2E2E2E2E2E2E2E2E2E2E2E2E2E2E2E2E2E2E2E2E2E2
310
E2E2E2E2E2E2E2E2E2E2E2E2E2E2E2E2E2E2E2E2E2E2E2E2E2E2E2E2E2E2E2E2E2E2E2E2E2E2E2E2E2E2E2E2E2E2E2E2E2E2E2E2E2E2E2E2E2E2E2E2E2E2E2E2E2E2E2E2E2E2E2E2E2E2E2E2E2E2E2E2E2E2E2E2E2E2E2E2E2E2E2E2E2E2E2E2E2E2E2E2E2E2E2E2E2E2E2E2E2E2E2E2E2E2E2E2E2E2E2E2E2E2E2E2E2E2E2
310
E2E2E2E2E2E2E2E2E2E2E2E2E2E2E2E2E2E2E2E2E2E2E2E2E2E2E2E2E2E2E2E2E2E2E2E2E2E2E2E2E2E2E2E2E2E2E2E2E2E2E2E2E2E2E2E2E2E2E2E2E2E2E2E2E2E2E2E2E2E2E2E2E2E2E2E2E2E2E2E2E2E2E2E2E2E2E2E2E2E2E2E2E2E2E2E2E2E2E2E2E2E2E2E2E2E2E2E2E2E2E2E2E2E2E2E2E2E2E2E2E2E2E2E2E2E2E2
310
E2E2E2E2E2E2E2E2E2E2E2E2E2E2E2E2E2E2E2E2E2E2E2E2E2E2E2E2E2E2E2E2E2E2E2E2E2E2E2E2E2E2E2E2E2E2E2E2E2E2E2E2E2E2E2E2E2E2E2E2E2E2E2E2E2E2E2E2E2E2E2E2E2E2E2E2E2E2E2E2E2E2E2E2E2E2E2E2E2E2E2E2E2E2E2E2E2E2E2E2E2E2E2E2E2E2E2E2E2E2E2E2E2E2E2E2E2E2E2E2E2E2E2E2E2E2E2
310
E2E2E2E2E2E2E2E2E2E2E2E2E2E2E2E2E2E2E2E2E2E2E2E2E2E2E2E2E2E2E2E2E2E2E2E2E2E2E2E2E2E2E2E2E2E2E2E2E2E2E2E2E2E2E2E2E2E2E2E2E2E2E2E2E2E2E2E2E2E2E2E2E2E2E2E2E2E2E2E2E2E2E2E2E2E2E2E2E2E2E2E2E2E2E2E2E2E2E2E2E2E2E2E2E2E2E2E2E2E2E2E2E2E2E2E2E2E2E2E2E2E2E2E2E2E2E2
310
E2E2E2E2E2E2E2E2E2E2E2E2E2E2E2E2E2E2E2E2E2E2E2E2E2E2E2E2E2E2E2E2E2E2E2E2E2E2E2E2E2E2E2E2E2E2E2E2E2E2E2E2E2E2E2E2E2E2E2E2E2E2E2E2E2E2E2E2E2E2E2E2E2E2E2E2E2E2E2E2E2E2E2E2E2E2E2E2E2E2E2E2E2E2E2E2E2E2E2E2E2E2E2E2E2E2E2E2E2E2E2E2E2E2E2E2E2E2E2E2E2E2E2E2E2E2E2
310
E2E2E2E2E2E2E2E2E2E2E2E2E2E2E2E2E2E2E2E2E2E2E2E2E2E2E2E2E2E2E2E2E2E2E2E2E2E2E2E2E2E2E2E2E2E2E2E2E2E2E2E2E2E2E2E2E2E2E2E2E2E2E2E2E2E2E2E2E2E2E2E2E2E2E2E2E2E2E2E2E2E2E2E2E2E2E2E2E2E2E2E2E2E2E2E2E2E2E2E2E2E2E2E2E2E2E2E2E2E2E2E2E2E2E2E2E2E2E2E2E2E2E2E2E2E2E2
310
E2E2E2E2E2E2E2E2E2E2E2E2E2E2E2E2E2E2E2E2E2E2E2E2E2E2E2E2E2E2E2E2E2E2E2E2E2E2E2E2E2E2E2E2E2E2E2E2E2E2E2E2E2E2E2E2E2E2E2E2E2E2E2E2E2E2E2E2E2E2E2E2E2E2E2E2E2E2E2E2E2E2E2E2E2E2E2E2E2E2E2E2E2E2E2E2E2E2E2E2E2E2E2E2E2E2E2E2E2E2E2E2E2E2E2E2E2E2E2E2E2E2E2E2E2E2E2
310
E2E2E2E2E2E2E2E2E2E2E2E2E2E2E2E2E2E2E2E2E2E2E2E2E2E2E2E2E2E2E2E2E2E2E2E2E2E2E2E2E2E2E2E2E2E2E2E2E2E2E2E2E2E2E2E2E2E2E2E2E2E2E2E2E2E2E2E2E2E2E2E2E2E2E2E2E2E2E2E2E2E2E2E2E2E2E2E2E2E2E2E2E2E2E2E2E2E2E2E2E2E2E2E2E2E2E2E2E2E2E2E2E2E2E2E2E2E2E2E2E2E2E2E2E2E2E2
310
E2E2E2E2E2E2E2E2E2E2E2E2E2E2E2E2E2E2E2E2E2E2E2E2E2E2E2E2E2E2E2E2E2E2E2E2E2E2E2E2E2E2E2E2E2E2E2E2E2E2E2E2E2E2E2E2E2E2E2E2E2E2E2E2E2E2E2E2E2E2E2E2E2E2E2E2E2E2E2E2E2E2E2E2E2E2E2E2E2E2E2E2E2E2E2E2E2E2E2E2E2E2E2E2E2E2E2E2E2E2E2E2E2E2E2E2E2E2E2E2E2E2E2E2E2E2E2
310
E2E2E2E2E2E2E2E2E2E2E2E2E2E2E2E2E2E2E2E2E2E2E2E2E2E2E2E2E2E2E2E2E2E2E2E2E2E2E2E2E2E2E2E2E2E2E2E2E2E2E2E2E2E2E2E2E2E2E2E2E2E2E2E2E2E2E2E2E2E2E2E2E2E2E2E2E2E2E2E2E2E2E2E2E2E2E2E2E2E2E2E2E2E2E2E2E2E2E2E2E2E2E2E2E2E2E2E2E2E2E2E2E2E2E2E2E2E2E2E2E2E2E2E2E2E2E2
310
E2E2E2E2E2E2E2E2E2E2E2E2E2E2E2E2E2E2E2E2E2E2E2E2E2E2E2E2E2E2E2E2E2E2E2E2E2E2E2E2E2E2E2E2E2E2E2E2E2E2E2E2E2E2E2E2E2E2E2E2E2E2E2E2E2E2E2E2E2E2E2E2E2E2E2E2E2E2E2E2E2E2E2E2E2E2E2E2E2E2E2E2E2E2E2E2E2E2E2E2E2E2E2E2E2E2E2E2E2E2E2E2E2E2E2E2E2E2E2E2E2E2E2E2E2E2E2
310
E2E2E2E2E2E2E2E2E2E2E2E2E2E2E2E2E2E2E2E2E2E2E2E2E2E2E2E2E2E2E2E2E2E2E2E2E2E2E2E2E2E2E2E2E2E2E2E2E2E2E2E2E2E2E2E2E2E2E2E2E2E2E2E2E2E2E2E2E2E2E2E2E2E2E2E2E2E2E2E2E2E2E2E2E2E2E2E2E2E2E2E2E2E2E2E2E2E2E2E2E2E2E2E2E2E2E2E2E2E2E2E2E2E2E2E2E2E2E2E2E2E2E2E2E2E2E2
310
E2E2E2E2E2E2E2E2E2E2E2E2E2E2E2E2E2E2E2E2E2E2E2E2E2E2E2E2E2E2E2E2E2E2E2E2E2E2E2E2E2E2E2E2E2E2E2E2E2E2E2E2E2E2E2E2E2E2E2E2E2E2E2E2E2E2E2E2E2E2E2E2E2E2E2E2E2E2E2E2E2E2E2E2E2E2E2E2E2E2E2E2E2E2E2E2E2E2E2E2E2E2E2E2E2E2E2E2E2E2E2E2E2E2E2E2E2E2E2E2E2E2E2E2E2E2E2
310
E2E2E2E2E2E2E2E2E2E2E2E2E2E2E2E2E2E2E2E2E2E2E2E2E2E2E2E2E2E2E2E2E2E2E2E2E2E2E2E2E2E2E2E2E2E2E2E2E2E2E2E2E2E2E2E2E2E2E2E2E2E2E2E2E2E2E2E2E2E2E2E2E2E2E2E2E2E2E2E2E2E2E2E2E2E2E2E2E2E2E2E2E2E2E2E2E2E2E2E2E2E2E2E2E2E2E2E2E2E2E2E2E2E2E2E2E2E2E2E2E2E2E2E2E2E2E2
310
E2E2E2E2E2E2E2E2E2E2E2E2E2E2E2E2E2E2E2E2E2E2E2E2E2E2E2E2E2E2E2E2E2E2E2E2E2E2E2E2E2E2E2E2E2E2E2E2E2E2E2E2E2E2E2E2E2E2E2E2E2E2E2E2E2E2E2E2E2E2E2E2E2E2E2E2E2E2E2E2E2E2E2E2E2E2E2E2E2E2E2E2E2E2E2E2E2E2E2E2E2E2E2E2E2E2E2E2E2E2E2E2E2E2E2E2E2E2E2E2E2E2E2E2E2E2E2
310
E2E2E2E2E2E2E2E2E2E2E2E2E2E2E2E2E2E2E2E2E2E2E2E2E2E2E2E2E2E2E2E2E2E2E2E2E2E2E2E2E2E2E2E2E2E2E2E2E2E2E2E2E2E2E2E2E2E2E2E2E2E2E2E2E2E2E2E2E2E2E2E2E2E2E2E2E2E2E2E2E2E2E2E2E2E2E2E2E2E2E2E2E2E2E2E2E2E2E2E2E2E2E2E2E2E2E2E2E2E2E2E2E2E2E2E2E2E2E2E2E2E2E2E2E2E2E2
310
E2E2E2E2E2E2E2E2E2E2E2E2E2E2E2E2E2E2E2E2E2E2E2E2E2E2E2E2E2E2E2E2E2E2E2E2E2E2E2E2E2E2E2E2E2E2E2E2E2E2E2E2E2E2E2E2E2E2E2E2E2E2E2E2E2E2E2E2E2E2E2E2E2E2E2E2E2E2E2E2E2E2E2E2E2E2E2E2E2E2E2E2E2E2E2E2E2E2E2E2E2E2E2E2E2E2E2E2E2E2E2E2E2E2E2E2E2E2E2E2E2E2E2E2E2E2E2
310
E2E2E2E2E2E2E2E2E2E2E2E2E2E2E2E2E2E2E2E2E2E2E2E2E2E2E2E2E2E2E2E2E2E2E2E2E2E2E2E2E2E2E2E2E2E2E2E2E2E2E2E2E2E2E2E2E2E2E2E2E2E2E2E2E2E2E2E2E2E2E2E2E2E2E2E2E2E2E2E2E2E2E2E2E2E2E2E2E2E2E2E2E2E2E2E2E2E2E2E2E2E2E2E2E2E2E2E2E2E2E2E2E2E2E2E2E2E2E2E2E2E2E2E2E2E2E2
310
E2E2E2E2E2E2E2E2E2E2E2E2E2E2E2E2E2E2E2E2E2E2E2E2E2E2E2E2E2E2E2E2E2E2E2E2E2E2E2E2E2E2E2E2E2E2E2E2E2E2E2E2E2E2E2E2E2E2E2E2E2E2E2E2E2E2E2E2E2E2E2E2E2E2E2E2E2E2E2E2E2E2E2E2E2E2E2E2E2E2E2E2E2E2E2E2E2E2E2E2E2E2E2E2E2E2E2E2E2E2E2E2E2E2E2E2E2E2E2E2E2E2E2E2E2E2E2
310
E2E2E2E2E2E2E2E2E2E2E2E2E2E2E2E2E2E2E2E2E2E2E2E2E2E2E2E2E2E2E2E2E2E2E2E2E2E2E2E2E2E2E2E2E2E2E2E2E2E2E2E2E2E2E2E2E2E2E2E2E2E2E2E2E2E2E2E2E2E2E2E2E2E2E2E2E2E2E2E2E2E2E2E2E2E2E2E2E2E2E2E2E2E2E2E2E2E2E2E2E2E2E2E2E2E2E2E2E2E2E2E2E2E2E2E2E2E2E2E2E2E2E2E2E2E2E2
310
E2E2E2E2E2E2E2E2E2E2E2E2E2E2E2E2E2E2E2E2E2E2E2E2E2E2E2E2E2E2E2E2E2E2E2E2E2E2E2E2E2E2E2E2E2E2E2E2E2E2E2E2E2E2E2E2E2E2E2E2E2E2E2E2E2E2E2E2E2E2E2E2E2E2E2E2E2E2E2E2E2E2E2E2E2E2E2E2E2E2E2E2E2E2E2E2E2E2E2E2E2E2E2E2E2E2E2E2E2E2E2E2E2E2E2E2E2E2E2E2E2E2E2E2E2E2E2
310
E2E2E2E2E2E2E2E2E2E2E2E2E2E2E2E2E2E2E2E2E2E2E2E2E2E2E2E2E2E2E2E2E2E2E2E2E2E2E2E2E2E2E2E2E2E2E2E2E2E2E2E2E2E2E2E2E2E2E2E2E2E2E2E2E2E2E2E2E2E2E2E2E2E2E2E2E2E2E2E2E2E2E2E2E2E2E2E2E2E2E2E2E2E2E2E2E2E2E2E2E2E2E2E2E2E2E2E2E2E2E2E2E2E2E2E2E2E2E2E2E2E2E2E2E2E2E2
310
E2E2E2E2E2E2E2E2E2E2E2E2E2E2E2E2E2E2E2E2E2E2E2E2E2E2E2E2E2E2E2E2E2E2E2E2E2E2E2E2E2E2E2E2E2E2E2E2E2E2E2E2E2E2E2E2E2E2E2E2E2E2E2E2E2E2E2E2E2E2E2E2E2E2E2E2E2E2E2E2E2E2E2E2E2E2E2E2E2E2E2E2E2E2E2E2E2E2E2E2E2E2E2E2E2E2E2E2E2E2E2E2E2E2E2E2E2E2E2E2E2E2E2E2E2E2E2
310
E2E2E2E2E2E2E2E2E2E2E2E2E2E2E2E2E2E2E2E2E2E2E2E2E2E2E2E2E2E2E2E2E2E2E2E2E2E2E2E2E2E2E2E2E2E2E2E2E2E2E2E2E2E2E2E2E2E2E2E2E2E2E2E2E2E2E2E2E2E2E2E2E2E2E2E2E2E2E2E2E2E2E2E2E2E2E2E2E2E2E2E2E2E2E2E2E2E2E2E2E2E2E2E2E2E2E2E2E2E2E2E2E2E2E2E2E2E2E2E2E2E2E2E2E2E2E2
310
E2E2E2E2E2E2E2E2E2E2E2E2E2E2E2E2E2E2E2E2E2E2E2E2E2E2E2E2E2E2E2E2E2E2E2E2E2E2E2E2E2E2E2E2E2E2E2E2E2E2E2E2E2E2E2E2E2E2E2E2E2E2E2E2E2E2E2E2E2E2E2E2E2E2E2E2E2E2E2E2E2E2E2E2E2E2E2E2E2E2E2E2E2E2E2E2E2E2E2E2E2E2E2E2E2E2E2E2E2E2E2E2E2E2E2E2E2E2E2E2E2E2E2E2E2E2E2
310
E2E2E2E2E2E2E2E2E2E2E2E2E2E2E2E2E2E2E2E2E2E2E2E2E2E2E2E2E2E2E2E2E2E2E2E2E2E2E2E2E2E2E2E2E2E2E2E2E2E2E2E2E2E2E2E2E2E2E2E2E2E2E2E2E2E2E2E2E2E2E2E2E2E2E2E2E2E2E2E2E2E2E2E2E2E2E2E2E2E2E2E2E2E2E2E2E2E2E2E2E2E2E2E2E2E2E2E2E2E2E2E2E2E2E2E2E2E2E2E2E2E2E2E2E2E2E2
310
E2E2E2E2E2E2E2E2E2E2E2E2E2E2E2E2E2E2E2E2E2E2E2E2E2E2E2E2E2E2E2E2E2E2E2E2E2E2E2E2E2E2E2E2E2E2E2E2E2E2E2E2E2E2E2E2E2E2E2E2E2E2E2E2E2E2E2E2E2E2E2E2E2E2E2E2E2E2E2E2E2E2E2E2E2E2E2E2E2E2E2E2E2E2E2E2E2E2E2E2E2E2E2E2E2E2E2E2E2E2E2E2E2E2E2E2E2E2E2E2E2E2E2E2E2E2E2
310
E2E2E2E2E2E2E2E2E2E2E2E2E2E2E2E2E2E2E2E2E2E2E2E2E2E2E2E2E2E2E2E2E2E2E2E2E2E2E2E2E2E2E2E2E2E2E2E2E2E2E2E2E2E2E2E2E2E2E2E2E2E2E2E2E2E2E2E2E2E2E2E2E2E2E2E2E2E2E2E2E2E2E2E2E2E2E2E2E2E2E2E2E2E2E2E2E2E2E2E2E2E2E2E2E2E2E2E2E2E2E2E2E2E2E2E2E2E2E2E2E2E2E2E2E2E2E2
310
E2E2E2E2E2E2E2E2E2E2E2E2E2E2E2E2E2E2E2E2E2E2E2E2E2E2E2E2E2E2E2E2E2E2E2E2E2E2E2E2E2E2E2E2E2E2E2E2E2E2E2E2E2E2E2E2E2E2E2E2E2E2E2E2E2E2E2E2E2E2E2E2E2E2E2E2E2E2E2E2E2E2E2E2E2E2E2E2E2E2E2E2E2E2E2E2E2E2E2E2E2E2E2E2E2E2E2E2E2E2E2E2E2E2E2E2E2E2E2E2E2E2E2E2E2E2E2
310
E2E2E2E2E2E2E2E2E2E2E2E2E2E2E2E2E2E2E2E2E2E2E2E2E2E2E2E2E2E2E2E2E2E2E2E2E2E2E2E2E2E2E2E2E2E2E2E2E2E2E2E2E2E2E2E2E2E2E2E2E2E2E2E2E2E2E2E2E2E2E2E2E2E2E2E2E2E2E2E2E2E2E2E2E2E2E2E2E2E2E2E2E2E2E2E2E2E2E2E2E2E2E2E2E2E2E2E2E2E2E2E2E2E2E2E2E2E2E2E2E2E2E2E2E2E2E2
310
E2E2E2E2E2E2E2E2E2E2E2E2E2E2E2E2E2E2E2E2E2E2E2E2E2E2E2E2E2E2E2E2E2E2E2E2E2E2E2E2E2E2E2E2E2E2E2E2E2E2E2E2E2E2E2E2E2E2E2E2E2E2E2E2E2E2E2E2E2E2E2E2E2E2E2E2E2E2E2E2E2E2E2E2E2E2E2E2E2E2E2E2E2E2E2E2E2E2E2E2E2E2E2E2E2E2E2E2E2E2E2E2E2E2E2E2E2E2E2E2E2E2E2E2E2E2E2
310
E2E2E2E2E2E2E2E2E2E2E2E2E2E2E2E2E2E2E2E2E2E2E2E2E2E2E2E2E2E2E2E2E2E2E2E2E2E2E2E2E2E2E2E2E2E2E2E2E2E2E2E2E2E2E2E2E2E2E2E2E2E2E2E2E2E2E2E2E2E2E2E2E2E2E2E2E2E2E2E2E2E2E2E2E2E2E2E2E2E2E2E2E2E2E2E2E2E2E2E2E2E2E2E2E2E2E2E2E2E2E2E2E2E2E2E2E2E2E2E2E2E2E2E2E2E2E2
310
E2E2E2E2E2E2E2E2E2E2E2E2E2E2E2E2E2E2E2E2E2E2E2E2E2E2E2E2E2E2E2E2E2E2E2E2E2E2E2E2E2E2E2E2E2E2E2E2E2E2E2E2E2E2E2E2E2E2E2E2E2E2E2E2E2E2E2E2E2E2E2E2E2E2E2E2E2E2E2E2E2E2E2E2E2E2E2E2E2E2E2E2E2E2E2E2E2E2E2E2E2E2E2E2E2E2E2E2E2E2E2E2E2E2E2E2E2E2E2E2E2E2E2E2E2E2E2
310
E2E2E2E2E2E2E2E2E2E2E2E2E2E2E2E2E2E2E2E2E2E2E2E2E2E2E2E2E2E2E2E2E2E2E2E2E2E2E2E2E2E2E2E2E2E2E2E2E2E2E2E2E2E2E2E2E2E2E2E2E2E2E2E2E2E2E2E2E2E2E2E2E2E2E2E2E2E2E2E2E2E2E2E2E2E2E2E2E2E2E2E2E2E2E2E2E2E2E2E2E2E2E2E2E2E2E2E2E2E2E2E2E2E2E2E2E2E2E2E2E2E2E2E2E2E2E2
310
E2E2E2E2E2E2E2E2E2E2E2E2E2E2E2E2E2E2E2E2E2E2E2E2E2E2E2E2E2E2E2E2E2E2E2E2E2E2E2E2E2E2E2E2E2E2E2E2E2E2E2E2E2E2E2E2E2E2E2E2E2E2E2E2E2E2E2E2E2E2E2E2E2E2E2E2E2E2E2E2E2E2E2E2E2E2E2E2E2E2E2E2E2E2E2E2E2E2E2E2E2E2E2E2E2E2E2E2E2E2E2E2E2E2E2E2E2E2E2E2E2E2E2E2E2E2E2
310
E2E2E2E2E2E2E2E2E2E2E2E2E2E2E2E2E2E2E2E2E2E2E2E2E2E2E2E2E2E2E2E2E2E2E2E2E2E2E2E2E2E2E2E2E2E2E2E2E2E2E2E2E2E2E2E2E2E2E2E2E2E2E2E2E2E2E2E2E2E2E2E2E2E2E2E2E2E2E2E2E2E2E2E2E2E2E2E2E2E2E2E2E2E2E2E2E2E2E2E2E2E2E2E2E2E2E2E2E2E2E2E2E2E2E2E2E2E2E2E2E2E2E2E2E2E2E2
310
E2E2E2E2E2E2E2E2E2E2E2E2E2E2E2E2E2E2E2E2E2E2E2E2E2E2E2E2E2E2E2E2E2E2E2E2E2E2E2E2E2E2E2E2E2E2E2E2E2E2E2E2E2E2E2E2E2E2E2E2E2E2E2E2E2E2E2E2E2E2E2E2E2E2E2E2E2E2E2E2E2E2E2E2E2E2E2E2E2E2E2E2E2E2E2E2E2E2E2E2E2E2E2E2E2E2E2E2E2E2E2E2E2E2E2E2E2E2E2E2E2E2E2E2E2E2E2
310
E2E2E2E2E2E2E2E2E2E2E2E2E2E2E2E2E2E2E2E2E2E2E2E2E2E2E2E2E2E2E2E2E2E2E2E2E2E2E2E2E2E2E2E2E2E2E2E2E2E2E2E2E2E2E2E2E2E2E2E2E2E2E2E2E2E2E2E2E2E2E2E2E2E2E2E2E2E2E2E2E2E2E2E2E2E2E2E2E2E2E2E2E2E2E2E2E2E2E2E2E2E2E2E2E2E2E2E2E2E2E2E2E2E2E2E2E2E2E2E2E2E2E2E2E2E2E2
310
E2E2E2E2E2E2E2E2E2E2E2E2E2E2E2E2E2E2E2E2E2E2E2E2E2E2E2E2E2E2E2E2E2E2E2E2E2E2E2E2E2E2E2E2E2E2E2E2E2E2E2E2E2E2E2E2E2E2E2E2E2E2E2E2E2E2E2E2E2E2E2E2E2E2E2E2E2E2E2E2E2E2E2E2E2E2E2E2E2E2E2E2E2E2E2E2E2E2E2E2E2E2E2E2E2E2E2E2E2E2E2E2E2E2E2E2E2E2E2E2E2E2E2E2E2E2E2
310
E2E2E2E2E2E2E2E2E2E2E2E2E2E2E2E2E2E2E2E2E2E2E2E2E2E2E2E2E2E2E2E2E2E2E2E2E2E2E2E2E2E2E2E2E2E2E2E2E2E2E2E2E2E2E2E2E2E2E2E2E2E2E2E2E2E2E2E2E2E2E2E2E2E2E2E2E2E2E2E2E2E2E2E2E2E2E2E2E2E2E2E2E2E2E2E2E2E2E2E2E2E2E2E2E2E2E2E2E2E2E2E2E2E2E2E2E2E2E2E2E2E2E2E2E2E2E2
310
E2E2E2E2E2E2E2E2E2E2E2E2E2E2E2E2E2E2E2E2E2E2E2E2E2E2E2E2E2E2E2E2E2E2E2E2E2E2E2E2E2E2E2E2E2E2E2E2E2E2E2E2E2E2E2E2E2E2E2E2E2E2E2E2E2E2E2E2E2E2E2E2E2E2E2E2E2E2E2E2E2E2E2E2E2E2E2E2E2E2E2E2E2E2E2E2E2E2E2E2E2E2E2E2E2E2E2E2E2E2E2E2E2E2E2E2E2E2E2E2E2E2E2E2E2E2E2
310
E2E2E2E2E2E2E2E2E2E2E2E2E2E2E2E2E2E2E2E2E2E2E2E2E2E2E2E2E2E2E2E2E2E2E2E2E2E2E2E2E2E2E2E2E2E2E2E2E2E2E2E2E2E2E2E2E2E2E2E2E2E2E2E2E2E2E2E2E2E2E2E2E2E2E2E2E2E2E2E2E2E2E2E2E2E2E2E2E2E2E2E2E2E2E2E2E2E2E2E2E2E2E2E2E2E2E2E2E2E2E2E2E2E2E2E2E2E2E2E2E2E2E2E2E2E2E2
310
E2E2E2E2E2E2E2E2E2E2E2E2E2E2E2E2E2E2E2E2E2E2E2E2E2E2E2E2E2E2E2E2E2E2E2E2E2E2E2E2E2E2E2E2E2E2E2E2E2E2E2E2E2E2E2E2E2E2E2E2E2E2E2E2E2E2E2E2E2E2E2E2E2E2E2E2E2E2E2E2E2E2E2E2E2E2E2E2E2E2E2E2E2E2E2E2E2E2E2E2E2E2E2E2E2E2E2E2E2E2E2E2E2E2E2E2E2E2E2E2E2E2E2E2E2E2E2
310
E2E2E2E2E2E2E2E2E2E2E2E2E2E2E2E2E2E2E2E2E2E2E2E2E2E2E2E2E2E2E2E2E2E2E2E2E2E2E2E2E2E2E2E2E2E2E2E2E2E2E2E2E2E2E2E2E2E2E2E2E2E2E2E2E2E2E2E2E2E2E2E2E2E2E2E2E2E2E2E2E2E2E2E2E2E2E2E2E2E2E2E2E2E2E2E2E2E2E2E2E2E2E2E2E2E2E2E2E2E2E2E2E2E2E2E2E2E2E2E2E2E2E2E2E2E2E2
310
E2E2E2E2E2E2E2E2E2E2E2E2E2E2E2E2E2E2E2E2E2E2E2E2E2E2E2E2E2E2E2E2E2E2E2E2E2E2E2E2E2E2E2E2E2E2E2E2E2E2E2E2E2E2E2E2E2E2E2E2E2E2E2E2E2E2E2E2E2E2E2E2E2E2E2E2E2E2E2E2E2E2E2E2E2E2E2E2E2E2E2E2E2E2E2E2E2E2E2E2E2E2E2E2E2E2E2E2E2E2E2E2E2E2E2E2E2E2E2E2E2E2E2E2E2E2E2
310
E2E2E2E2E2E2E2E2E2E2E2E2E2E2E2E2E2E2E2E2E2E2E2E2E2E2E2E2E2E2E2E2E2E2E2E2E2E2E2E2E2E2E2E2E2E2E2E2E2E2E2E2E2E2E2E2E2E2E2E2E2E2E2E2E2E2E2E2E2E2E2E2E2E2E2E2E2E2E2E2E2E2E2E2E2E2E2E2E2E2E2E2E2E2E2E2E2E2E2E2E2E2E2E2E2E2E2E2E2E2E2E2E2E2E2E2E2E2E2E2E2E2E2E2E2E2E2
310
E2E2E2E2E2E2E2E2E2E2E2E2E2E2E2E2E2E2E2E2E2E2E2E2E2E2E2E2E2E2E2E2E2E2E2E2E2E2E2E2E2E2E2E2E2E2E2E2E2E2E2E2E2E2E2E2E2E2E2E2E2E2E2E2E2E2E2E2E2E2E2E2E2E2E2E2E2E2E2E2E2E2E2E2E2E2E2E2E2E2E2E2E2E2E2E2E2E2E2E2E2E2E2E2E2E2E2E2E2E2E2E2E2E2E2E2E2E2E2E2E2E2E2E2E2E2E2
310
E2E2E2E2E2E2E2E2E2E2E2E2E2E2E2E2E2E2E2E2E2E2E2E2E2E2E2E2E2E2E2E2E2E2E2E2E2E2E2E2E2E2E2E2E2E2E2E2E2E2E2E2E2E2E2E2E2E2E2E2E2E2E2E2E2E2E2E2E2E2E2E2E2E2E2E2E2E2E2E2E2E2E2E2E2E2E2E2E2E2E2E2E2E2E2E2E2E2E2E2E2E2E2E2E2E2E2E2E2E2E2E2E2E2E2E2E2E2E2E2E2E2E2E2E2E2E2
310
E2E2E2E2E2E2E2E2E2E2E2E2E2E2E2E2E2E2E2E2E2E2E2E2E2E2E2E2E2E2E2E2E2E2E2E2E2E2E2E2E2E2E2E2E2E2E2E2E2E2E2E2E2E2E2E2E2E2E2E2E2E2E2E2E2E2E2E2E2E2E2E2E2E2E2E2E2E2E2E2E2E2E2E2E2E2E2E2E2E2E2E2E2E2E2E2E2E2E2E2E2E2E2E2E2E2E2E2E2E2E2E2E2E2E2E2E2E2E2E2E2E2E2E2E2E2E2
310
E2E2E2E2E2E2E2E2E2E2E2E2E2E2E2E2E2E2E2E2E2E2E2E2E2E2E2E2E2E2E2E2E2E2E2E2E2E2E2E2E2E2E2E2E2E2E2E2E2E2E2E2E2E2E2E2E2E2E2E2E2E2E2E2E2E2E2E2E2E2E2E2E2E2E2E2E2E2E2E2E2E2E2E2E2E2E2E2E2E2E2E2E2E2E2E2E2E2E2E2E2E2E2E2E2E2E2E2E2E2E2E2E2E2E2E2E2E2E2E2E2E2E2E2E2E2E2
310
E2E2E2E2E2E2E2E2E2E2E2E2E2E2E2E2E2E2E2E2E2E2E2E2E2E2E2E2E2E2E2E2E2E2E2E2E2E2E2E2E2E2E2E2E2E2E2E2E2E2E2E2E2E2E2E2E2E2E2E2E2E2E2E2E2E2E2E2E2E2E2E2E2E2E2E2E2E2E2E2E2E2E2E2E2E2E2E2E2E2E2E2E2E2E2E2E2E2E2E2E2E2E2E2E2E2E2E2E2E2E2E2E2E2E2E2E2E2E2E2E2E2E2E2E2E2E2
310
E2E2E2E2E2E2E2E2E2E2E2E2E2E2E2E2E2E2E2E2E2E2E2E2E2E2E2E2E2E2E2E2E2E2E2E2E2E2E2E2E2E2E2E2E2E2E2E2E2E2E2E2E2E2E2E2E2E2E2E2E2E2E2E2E2E2E2E2E2E2E2E2E2E2E2E2E2E2E2E2E2E2E2E2E2E2E2E2E2E2E2E2E2E2E2E2E2E2E2E2E2E2E2E2E2E2E2E2E2E2E2E2E2E2E2E2E2E2E2E2E2E2E2E2E2E2E2
310
E2E2E2E2E2E2E2E2E2E2E2E2E2E2E2E2E2E2E2E2E2E2E2E2E2E2E2E2E2E2E2E2E2E2E2E2E2E2E2E2E2E2E2E2E2E2E2E2E2E2E2E2E2E2E2E2E2E2E2E2E2E2E2E2E2E2E2E2E2E2E2E2E2E2E2E2E2E2E2E2E2E2E2E2E2E2E2E2E2E2E2E2E2E2E2E2E2E2E2E2E2E2E2E2E2E2E2E2E2E2E2E2E2E2E2E2E2E2E2E2E2E2E2E2E2E2E2
310
E2E2E2E2E2E2E2E2E2E2E2E2E2E2E2E2E2E2E2E2E2E2E2E2E2E2E2E2E2E2E2E2E2E2E2E2E2E2E2E2E2E2E2E2E2E2E2E2E2E2E2E2E2E2E2E2E2E2E2E2E2E2E2E2E2E2E2E2E2E2E2E2E2E2E2E2E2E2E2E2E2E2E2E2E2E2E2E2E2E2E2E2E2E2E2E2E2E2E2E2E2E2E2E2E2E2E2E2E2E2E2E2E2E2E2E2E2E2E2E2E2E2E2E2E2E2E2
310
E2E2E2E2E2E2E2E2E2E2E2E2E2E2E2E2E2E2E2E2E2E2E2E2E2E2E2E2E2E2E2E2E2E2E2E2E2E2E2E2E2E2E2E2E2E2E2E2E2E2E2E2E2E2E2E2E2E2E2E2E2E2E2E2E2E2E2E2E2E2E2E2E2E2E2E2E2E2E2E2E2E2E2E2E2E2E2E2E2E2E2E2E2E2E2E2E2E2E2E2E2E2E2E2E2E2E2E2E2E2E2E2E2E2E2E2E2E2E2E2E2E2E2E2E2E2E2
310
E2E2E2E2E2E2E2E2E2E2E2E2E2E2E2E2E2E2E2E2E2E2E2E2E2E2E2E2E2E2E2E2E2E2E2E2E2E2E2E2E2E2E2E2E2E2E2E2E2E2E2E2E2E2E2E2E2E2E2E2E2E2E2E2E2E2E2E2E2E2E2E2E2E2E2E2E2E2E2E2E2E2E2E2E2E2E2E2E2E2E2E2E2E2E2E2E2E2E2E2E2E2E2E2E2E2E2E2E2E2E2E2E2E2E2E2E2E2E2E2E2E2E2E2E2E2E2
310
E2E2E2E2E2E2E2E2E2E2E2E2E2E2E2E2E2E2E2E2E2E2E2E2E2E2E2E2E2E2E2E2E2E2E2E2E2E2E2E2E2E2E2E2E2E2E2E2E2E2E2E2E2E2E2E2E2E2E2E2E2E2E2E2E2E2E2E2E2E2E2E2E2E2E2E2E2E2E2E2E2E2E2E2E2E2E2E2E2E2E2E2E2E2E2E2E2E2E2E2E2E2E2E2E2E2E2E2E2E2E2E2E2E2E2E2E2E2E2E2E2E2E2E2E2E2E2
310
E2E2E2E2E2E2E2E2E2E2E2E2E2E2E2E2E2E2E2E2E2E2E2E2E2E2E2E2E2E2E2E2E2E2E2E2E2E2E2E2E2E2E2E2E2E2E2E2E2E2E2E2E2E2E2E2E2E2E2E2E2E2E2E2E2E2E2E2E2E2E2E2E2E2E2E2E2E2E2E2E2E2E2E2E2E2E2E2E2E2E2E2E2E2E2E2E2E2E2E2E2E2E2E2E2E2E2E2E2E2E2E2E2E2E2E2E2E2E2E2E2E2E2E2E2E2E2
310
E2E2E2E2E2E2E2E2E2E2E2E2E2E2E2E2E2E2E2E2E2E2E2E2E2E2E2E2E2E2E2E2E2E2E2E2E2E2E2E2E2E2E2E2E2E2E2E2E2E2E2E2E2E2E2E2E2E2E2E2E2E2E2E2E2E2E2E2E2E2E2E2E2E2E2E2E2E2E2E2E2E2E2E2E2E2E2E2E2E2E2E2E2E2E2E2E2E2E2E2E2E2E2E2E2E2E2E2E2E2E2E2E2E2E2E2E2E2E2E2E2E2E2E2E2E2E2
310
E2E2E2E2E2E2E2E2E2E2E2E2E2E2E2E2E2E2E2E2E2E2E2E2E2E2E2E2E2E2E2E2E2E2E2E2E2E2E2E2E2E2E2E2E2E2E2E2E2E2E2E2E2E2E2E2E2E2E2E2E2E2E2E2E2E2E2E2E2E2E2E2E2E2E2E2E2E2E2E2E2E2E2E2E2E2E2E2E2E2E2E2E2E2E2E2E2E2E2E2E2E2E2E2E2E2E2E2E2E2E2E2E2E2E2E2E2E2E2E2E2E2E2E2E2E2E2
310
E2E2E2E2E2E2E2E2E2E2E2E2E2E2E2E2E2E2E2E2E2E2E2E2E2E2E2E2E2E2E2E2E2E2E2E2E2E2E2E2E2E2E2E2E2E2E2E2E2E2E2E2E2E2E2E2E2E2E2E2E2E2E2E2E2E2E2E2E2E2E2E2E2E2E2E2E2E2E2E2E2E2E2E2E2E2E2E2E2E2E2E2E2E2E2E2E2E2E2E2E2E2E2E2E2E2E2E2E2E2E2E2E2E2E2E2E2E2E2E2E2E2E2E2E2E2E2
310
E2E2E2E2E2E2E2E2E2E2E2E2E2E2E2E2E2E2E2E2E2E2E2E2E2E2E2E2E2E2E2E2E2E2E2E2E2E2E2E2E2E2E2E2E2E2E2E2E2E2E2E2E2E2E2E2E2E2E2E2E2E2E2E2E2E2E2E2E2E2E2E2E2E2E2E2E2E2E2E2E2E2E2E2E2E2E2E2E2E2E2E2E2E2E2E2E2E2E2E2E2E2E2E2E2E2E2E2E2E2E2E2E2E2E2E2E2E2E2E2E2E2E2E2E2E2E2
310
E2E2E2E2E2E2E2E2E2E2E2E2E2E2E2E2E2E2E2E2E2E2E2E2E2E2E2E2E2E2E2E2E2E2E2E2E2E2E2E2E2E2E2E2E2E2E2E2E2E2E2E2E2E2E2E2E2E2E2E2E2E2E2E2E2E2E2E2E2E2E2E2E2E2E2E2E2E2E2E2E2E2E2E2E2E2E2E2E2E2E2E2E2E2E2E2E2E2E2E2E2E2E2E2E2E2E2E2E2E2E2E2E2E2E2E2E2E2E2E2E2E2E2E2E2E2E2
310
E2E2E2E2E2E2E2E2E2E2E2E2E2E2E2E2E2E2E2E2E2E2E2E2E2E2E2E2E2E2E2E2E2E2E2E2E2E2E2E2E2E2E2E2E2E2E2E2E2E2E2E2E2E2E2E2E2E2E2E2E2E2E2E2E2E2E2E2E2E2E2E2E2E2E2E2E2E2E2E2E2E2E2E2E2E2E2E2E2E2E2E2E2E2E2E2E2E2E2E2E2E2E2E2E2E2E2E2E2E2E2E2E2E2E2E2E2E2E2E2E2E2E2E2E2E2E2
310
E2E2E2E2E2E2E2E2E2E2E2E2E2E2E2E2E2E2E2E2E2E2E2E2E2E2E2E2E2E2E2E2E2E2E2E2E2E2E2E2E2E2E2E2E2E2E2E2E2E2E2E2E2E2E2E2E2E2E2E2E2E2E2E2E2E2E2E2E2E2E2E2E2E2E2E2E2E2E2E2E2E2E2E2E2E2E2E2E2E2E2E2E2E2E2E2E2E2E2E2E2E2E2E2E2E2E2E2E2E2E2E2E2E2E2E2E2E2E2E2E2E2E2E2E2E2E2
310
E2E2E2E2E2E2E2E2E2E2E2E2E2E2E2E2E2E2E2E2E2E2E2E2E2E2E2E2E2E2E2E2E2E2E2E2E2E2E2E2E2E2E2E2E2E2E2E2E2E2E2E2E2E2E2E2E2E2E2E2E2E2E2E2E2E2E2E2E2E2E2E2E2E2E2E2E2E2E2E2E2E2E2E2E2E2E2E2E2E2E2E2E2E2E2E2E2E2E2E2E2E2E2E2E2E2E2E2E2E2E2E2E2E2E2E2E2E2E2E2E2E2E2E2E2E2E2
310
E2E2E2E2E2E2E2E2E2E2E2E2E2E2E2E2E2E2E2E2E2E2E2E2E2E2E2E2E2E2E2E2E2E2E2E2E2E2E2E2E2E2E2E2E2E2E2E2E2E2E2E2E2E2E2E2E2E2E2E2E2E2E2E2E2E2E2E2E2E2E2E2E2E2E2E2E2E2E2E2E2E2E2E2E2E2E2E2E2E2E2E2E2E2E2E2E2E2E2E2E2E2E2E2E2E2E2E2E2E2E2E2E2E2E2E2E2E2E2E2E2E2E2E2E2E2E2
310
E2E2E2E2E2E2E2E2E2E2E2E2E2E2E2E2E2E2E2E2E2E2E2E2E2E2E2E2E2E2E2E2E2E2E2E2E2E2E2E2E2E2E2E2E2E2E2E2E2E2E2E2E2E2E2E2E2E2E2E2E2E2E2E2E2E2E2E2E2E2E2E2E2E2E2E2E2E2E2E2E2E2E2E2E2E2E2E2E2E2E2E2E2E2E2E2E2E2E2E2E2E2E2E2E2E2E2E2E2E2E2E2E2E2E2E2E2E2E2E2E2E2E2E2E2E2E2
310
E2E2E2E2E2E2E2E2E2E2E2E2E2E2E2E2E2E2E2E2E2E2E2E2E2E2E2E2E2E2E2E2E2E2E2E2E2E2E2E2E2E2E2E2E2E2E2E2E2E2E2E2E2E2E2E2E2E2E2E2E2E2E2E2E2E2E2E2E2E2E2E2E2E2E2E2E2E2E2E2E2E2E2E2E2E2E2E2E2E2E2E2E2E2E2E2E2E2E2E2E2E2E2E2E2E2E2E2E2E2E2E2E2E2E2E2E2E2E2E2E2E2E2E2E2E2E2
310
E2E2E2E2E2E2E2E2E2E2E2E2E2E2E2E2E2E2E2E2E2E2E2E2E2E2E2E2E2E2E2E2E2E2E2E2E2E2E2E2E2E2E2E2E2E2E2E2E2E2E2E2E2E2E2E2E2E2E2E2E2E2E2E2E2E2E2E2E2E2E2E2E2E2E2E2E2E2E2E2E2E2E2E2E2E2E2E2E2E2E2E2E2E2E2E2E2E2E2E2E2E2E2E2E2E2E2E2E2E2E2E2E2E2E2E2E2E2E2E2E2E2E2E2E2E2E2
310
E2E2E2E2E2E2E2E2E2E2E2E2E2E2E2E2E2E2E2E2E2E2E2E2E2E2E2E2E2E2E2E2E2E2E2E2E2E2E2E2E2E2E2E2E2E2E2E2E2E2E2E2E2E2E2E2E2E2E2E2E2E2E2E2E2E2E2E2E2E2E2E2E2E2E2E2E2E2E2E2E2E2E2E2E2E2E2E2E2E2E2E2E2E2E2E2E2E2E2E2E2E2E2E2E2E2E2E2E2E2E2E2E2E2E2E2E2E2E2E2E2E2E2E2E2E2E2
310
E2E2E2E2E2E2E2E2E2E2E2E2E2E2E2E2E2E2E2E2E2E2E2E2E2E2E2E2E2E2E2E2E2E2E2E2E2E2E2E2E2E2E2E2E2E2E2E2E2E2E2E2E2E2E2E2E2E2E2E2E2E2E2E2E2E2E2E2E2E2E2E2E2E2E2E2E2E2E2E2E2E2E2E2E2E2E2E2E2E2E2E2E2E2E2E2E2E2E2E2E2E2E2E2E2E2E2E2E2E2E2E2E2E2E2E2E2E2E2E2E2E2E2E2E2E2E2
310
E2E2E2E2E2E2E2E2E2E2E2E2E2E2E2E2E2E2E2E2E2E2E2E2E2E2E2E2E2E2E2E2E2E2E2E2E2E2E2E2E2E2E2E2E2E2E2E2E2E2E2E2E2E2E2E2E2E2E2E2E2E2E2E2E2E2E2E2E2E2E2E2E2E2E2E2E2E2E2E2E2E2E2E2E2E2E2E2E2E2E2E2E2E2E2E2E2E2E2E2E2E2E2E2E2E2E2E2E2E2E2E2E2E2E2E2E2E2E2E2E2E2E2E2E2E2E2
310
E2E2E2E2E2E2E2E2E2E2E2E2E2E2E2E2E2E2E2E2E2E2E2E2E2E2E2E2E2E2E2E2E2E2E2E2E2E2E2E2E2E2E2E2E2E2E2E2E2E2E2E2E2E2E2E2E2E2E2E2E2E2E2E2E2E2E2E2E2E2E2E2E2E2E2E2E2E2E2E2E2E2E2E2E2E2E2E2E2E2E2E2E2E2E2E2E2E2E2E2E2E2E2E2E2E2E2E2E2E2E2E2E2E2E2E2E2E2E2E2E2E2E2E2E2E2E2
310
E2E2E2E2E2E2E2E2E2E2E2E2E2E2E2E2E2E2E2E2E2E2E2E2E2E2E2E2E2E2E2E2E2E2E2E2E2E2E2E2E2E2E2E2E2E2E2E2E2E2E2E2E2E2E2E2E2E2E2E2E2E2E2E2E2E2E2E2E2E2E2E2E2E2E2E2E2E2E2E2E2E2E2E2E2E2E2E2E2E2E2E2E2E2E2E2E2E2E2E2E2E2E2E2E2E2E2E2E2E2E2E2E2E2E2E2E2E2E2E2E2E2E2E2E2E2E2
310
E2E2E2E2E2E2E2E2E2E2E2E2E2E2E2E2E2E2E2E2E2E2E2E2E2E2E2E2E2E2E2E2E2E2E2E2E2E2E2E2E2E2E2E2E2E2E2E2E2E2E2E2E2E2E2E2E2E2E2E2E2E2E2E2E2E2E2E2E2E2E2E2E2E2E2E2E2E2E2E2E2E2E2E2E2E2E2E2E2E2E2E2E2E2E2E2E2E2E2E2E2E2E2E2E2E2E2E2E2E2E2E2E2E2E2E2E2E2E2E2E2E2E2E2E2E2E2
310
E2E2E2E2E2E2E2E2E2E2E2E2E2E2E2E2E2E2E2E2E2E2E2E2E2E2E2E2E2E2E2E2E2E2E2E2E2E2E2E2E2E2E2E2E2E2E2E2E2E2E2E2E2E2E2E2E2E2E2E2E2E2E2E2E2E2E2E2E2E2E2E2E2E2E2E2E2E2E2E2E2E2E2E2E2E2E2E2E2E2E2E2E2E2E2E2E2E2E2E2E2E2E2E2E2E2E2E2E2E2E2E2E2E2E2E2E2E2E2E2E2E2E2E2E2E2E2
310
E2E2E2E2E2E2E2E2E2E2E2E2E2E2E2E2E2E2E2E2E2E2E2E2E2E2E2E2E2E2E2E2E2E2E2E2E2E2E2E2E2E2E2E2E2E2E2E2E2E2E2E2E2E2E2E2E2E2E2E2E2E2E2E2E2E2E2E2E2E2E2E2E2E2E2E2E2E2E2E2E2E2E2E2E2E2E2E2E2E2E2E2E2E2E2E2E2E2E2E2E2E2E2E2E2E2E2E2E2E2E2E2E2E2E2E2E2E2E2E2E2E2E2E2E2E2E2
310
E2E2E2E2E2E2E2E2E2E2E2E2E2E2E2E2E2E2E2E2E2E2E2E2E2E2E2E2E2E2E2E2E2E2E2E2E2E2E2E2E2E2E2E2E2E2E2E2E2E2E2E2E2E2E2E2E2E2E2E2E2E2E2E2E2E2E2E2E2E2E2E2E2E2E2E2E2E2E2E2E2E2E2E2E2E2E2E2E2E2E2E2E2E2E2E2E2E2E2E2E2E2E2E2E2E2E2E2E2E2E2E2E2E2E2E2E2E2E2E2E2E2E2E2E2E2E2
310
E2E2E2E2E2E2E2E2E2E2E2E2E2E2E2E2E2E2E2E2E2E2E2E2E2E2E2E2E2E2E2E2E2E2E2E2E2E2E2E2E2E2E2E2E2E2E2E2E2E2E2E2E2E2E2E2E2E2E2E2E2E2E2E2E2E2E2E2E2E2E2E2E2E2E2E2E2E2E2E2E2E2E2E2E2E2E2E2E2E2E2E2E2E2E2E2E2E2E2E2E2E2E2E2E2E2E2E2E2E2E2E2E2E2E2E2E2E2E2E2E2E2E2E2E2E2E2
310
E2E2E2E2E2E2E2E2E2E2E2E2E2E2E2E2E2E2E2E2E2E2E2E2E2E2E2E2E2E2E2E2E2E2E2E2E2E2E2E2E2E2E2E2E2E2E2E2E2E2E2E2E2E2E2E2E2E2E2E2E2E2E2E2E2E2E2E2E2E2E2E2E2E2E2E2E2E2E2E2E2E2E2E2E2E2E2E2E2E2E2E2E2E2E2E2E2E2E2E2E2E2E2E2E2E2E2E2E2E2E2E2E2E2E2E2E2E2E2E2E2E2E2E2E2E2E2
310
E2E2E2E2E2E2E2E2E2E2E2E2E2E2E2E2E2E2E2E2E2E2E2E2E2E2E2E2E2E2E2E2E2E2E2E2E2E2E2E2E2E2E2E2E2E2E2E2E2E2E2E2E2E2E2E2E2E2E2E2E2E2E2E2E2E2E2E2E2E2E2E2E2E2E2E2E2E2E2E2E2E2E2E2E2E2E2E2E2E2E2E2E2E2E2E2E2E2E2E2E2E2E2E2E2E2E2E2E2E2E2E2E2E2E2E2E2E2E2E2E2E2E2E2E2E2E2
310
E2E2E2E2E2E2E2E2E2E2E2E2E2E2E2E2E2E2E2E2E2E2E2E2E2E2E2E2E2E2E2E2E2E2E2E2E2E2E2E2E2E2E2E2E2E2E2E2E2E2E2E2E2E2E2E2E2E2E2E2E2E2E2E2E2E2E2E2E2E2E2E2E2E2E2E2E2E2E2E2E2E2E2E2E2E2E2E2E2E2E2E2E2E2E2E2E2E2E2E2E2E2E2E2E2E2E2E2E2E2E2E2E2E2E2E2E2E2E2E2E2E2E2E2E2E2E2
310
E2E2E2E2E2E2E2E2E2E2E2E2E2E2E2E2E2E2E2E2E2E2E2E2E2E2E2E2E2E2E2E2E2E2E2E2E2E2E2E2E2E2E2E2E2E2E2E2E2E2E2E2E2E2E2E2E2E2E2E2E2E2E2E2E2E2E2E2E2E2E2E2E2E2E2E2E2E2E2E2E2E2E2E2E2E2E2E2E2E2E2E2E2E2E2E2E2E2E2E2E2E2E2E2E2E2E2E2E2E2E2E2E2E2E2E2E2E2E2E2E2E2E2E2E2E2E2
310
E2E2E2E2E2E2E2E2E2E2E2E2E2E2E2E2E2E2E2E2E2E2E2E2E2E2E2E2E2E2E2E2E2E2E2E2E2E2E2E2E2E2E2E2E2E2E2E2E2E2E2E2E2E2E2E2E2E2E2E2E2E2E2E2E2E2E2E2E2E2E2E2E2E2E2E2E2E2E2E2E2E2E2E2E2E2E2E2E2E2E2E2E2E2E2E2E2E2E2E2E2E2E2E2E2E2E2E2E2E2E2E2E2E2E2E2E2E2E2E2E2E2E2E2E2E2E2
310
E2E2E2E2E2E2E2E2E2E2E2E2E2E2E2E2E2E2E2E2E2E2E2E2E2E2E2E2E2E2E2E2E2E2E2E2E2E2E2E2E2E2E2E2E2E2E2E2E2E2E2E2E2E2E2E2E2E2E2E2E2E2E2E2E2E2E2E2E2E2E2E2E2E2E2E2E2E2E2E2E2E2E2E2E2E2E2E2E2E2E2E2E2E2E2E2E2E2E2E2E2E2E2E2E2E2E2E2E2E2E2E2E2E2E2E2E2E2E2E2E2E2E2E2E2E2E2
310
E2E2E2E2E2E2E2E2E2E2E2E2E2E2E2E2E2E2E2E2E2E2E2E2E2E2E2E2E2E2E2E2E2E2E2E2E2E2E2E2E2E2E2E2E2E2E2E2E2E2E2E2E2E2E2E2E2E2E2E2E2E2E2E2E2E2E2E2E2E2E2E2E2E2E2E2E2E2E2E2E2E2E2E2E2E2E2E2E2E2E2E2E2E2E2E2E2E2E2E2E2E2E2E2E2E2E2E2E2E2E2E2E2E2E2E2E2E2E2E2E2E2E2E2E2E2E2
310
E2E2E2E2E2E2E2E2E2E2E2E2E2E2E2E2E2E2E2E2E2E2E2E2E2E2E2E2E2E2E2E2E2E2E2E2E2E2E2E2E2E2E2E2E2E2E2E2E2E2E2E2E2E2E2E2E2E2E2E2E2E2E2E2E2E2E2E2E2E2E2E2E2E2E2E2E2E2E2E2E2E2E2E2E2E2E2E2E2E2E2E2E2E2E2E2E2E2E2E2E2E2E2E2E2E2E2E2E2E2E2E2E2E2E2E2E2E2E2E2E2E2E2E2E2E2E2
310
E2E2E2E2E2E2E2E2E2E2E2E2E2E2E2E2E2E2E2E2E2E2E2E2E2E2E2E2E2E2E2E2E2E2E2E2E2E2E2E2E2E2E2E2E2E2E2E2E2E2E2E2E2E2E2E2E2E2E2E2E2E2E2E2E2E2E2E2E2E2E2E2E2E2E2E2E2E2E2E2E2E2E2E2E2E2E2E2E2E2E2E2E2E2E2E2E2E2E2E2E2E2E2E2E2E2E2E2E2E2E2E2E2E2E2E2E2E2E2E2E2E2E2E2E2E2E2
310
E2E2E2E2E2E2E2E2E2E2E2E2E2E2E2E2E2E2E2E2E2E2E2E2E2E2E2E2E2E2E2E2E2E2E2E2E2E2E2E2E2E2E2E2E2E2E2E2E2E2E2E2E2E2E2E2E2E2E2E2E2E2E2E2E2E2E2E2E2E2E2E2E2E2E2E2E2E2E2E2E2E2E2E2E2E2E2E2E2E2E2E2E2E2E2E2E2E2E2E2E2E2E2E2E2E2E2E2E2E2E2E2E2E2E2E2E2E2E2E2E2E2E2E2E2E2E2
310
E2E2E2E2E2E2E2E2E2E2E2E2E2E2E2E2E2E2E2E2E2E2E2E2E2E2E2E2E2E2E2E2E2E2E2E2E2E2E2E2E2E2E2E2E2E2E2E2E2E2E2E2E2E2E2E2E2E2E2E2E2E2E2E2E2E2E2E2E2E2E2E2E2E2E2E2E2E2E2E2E2E2E2E2E2E2E2E2E2E2E2E2E2E2E2E2E2E2E2E2E2E2E2E2E2E2E2E2E2E2E2E2E2E2E2E2E2E2E2E2E2E2E2E2E2E2E2
310
E2E2E2E2E2E2E2E2E2E2E2E2E2E2E2E2E2E2E2E2E2E2E2E2E2E2E2E2E2E2E2E2E2E2E2E2E2E2E2E2E2E2E2E2E2E2E2E2E2E2E2E2E2E2E2E2E2E2E2E2E2E2E2E2E2E2E2E2E2E2E2E2E2E2E2E2E2E2E2E2E2E2E2E2E2E2E2E2E2E2E2E2E2E2E2E2E2E2E2E2E2E2E2E2E2E2E2E2E2E2E2E2E2E2E2E2E2E2E2E2E2E2E2E2E2E2E2
310
E2E2E2E2E2E2E2E2E2E2E2E2E2E2E2E2E2E2E2E2E2E2E2E2E2E2E2E2E2E2E2E2E2E2E2E2E2E2E2E2E2E2E2E2E2E2E2E2E2E2E2E2E2E2E2E2E2E2E2E2E2E2E2E2E2E2E2E2E2E2E2E2E2E2E2E2E2E2E2E2E2E2E2E2E2E2E2E2E2E2E2E2E2E2E2E2E2E2E2E2E2E2E2E2E2E2E2E2E2E2E2E2E2E2E2E2E2E2E2E2E2E2E2E2E2E2E2
310
E2E2E2E2E2E2E2E2E2E2E2E2E2E2E2E2E2E2E2E2E2E2E2E2E2E2E2E2E2E2E2E2E2E2E2E2E2E2E2E2E2E2E2E2E2E2E2E2E2E2E2E2E2E2E2E2E2E2E2E2E2E2E2E2E2E2E2E2E2E2E2E2E2E2E2E2E2E2E2E2E2E2E2E2E2E2E2E2E2E2E2E2E2E2E2E2E2E2E2E2E2E2E2E2E2E2E2E2E2E2E2E2E2E2E2E2E2E2E2E2E2E2E2E2E2E2E2
310
E2E2E2E2E2E2E2E2E2E2E2E2E2E2E2E2E2E2E2E2E2E2E2E2E2E2E2E2E2E2E2E2E2E2E2E2E2E2E2E2E2E2E2E2E2E2E2E2E2E2E2E2E2E2E2E2E2E2E2E2E2E2E2E2E2E2E2E2E2E2E2E2E2E2E2E2E2E2E2E2E2E2E2E2E2E2E2E2E2E2E2E2E2E2E2E2E2E2E2E2E2E2E2E2E2E2E2E2E2E2E2E2E2E2E2E2E2E2E2E2E2E2E2E2E2E2E2
310
E2E2E2E2E2E2E2E2E2E2E2E2E2E2E2E2E2E2E2E2E2E2E2E2E2E2E2E2E2E2E2E2E2E2E2E2E2E2E2E2E2E2E2E2E2E2E2E2E2E2E2E2E2E2E2E2E2E2E2E2E2E2E2E2E2E2E2E2E2E2E2E2E2E2E2E2E2E2E2E2E2E2E2E2E2E2E2E2E2E2E2E2E2E2E2E2E2E2E2E2E2E2E2E2E2E2E2E2E2E2E2E2E2E2E2E2E2E2E2E2E2E2E2E2E2E2E2
310
E2E2E2E2E2E2E2E2E2E2E2E2E2E2E2E2E2E2E2E2E2E2E2E2E2E2E2E2E2E2E2E2E2E2E2E2E2E2E2E2E2E2E2E2E2E2E2E2E2E2E2E2E2E2E2E2E2E2E2E2E2E2E2E2E2E2E2E2E2E2E2E2E2E2E2E2E2E2E2E2E2E2E2E2E2E2E2E2E2E2E2E2E2E2E2E2E2E2E2E2E2E2E2E2E2E2E2E2E2E2E2E2E2E2E2E2E2E2E2E2E2E2E2E2E2E2E2
310
E2E2E2E2E2E2E2E2E2E2E2E2E2E2E2E2E2E2E2E2E2E2E2E2E2E2E2E2E2E2E2E2E2E2E2E2E2E2E2E2E2E2E2E2E2E2E2E2E2E2E2E2E2E2E2E2E2E2E2E2E2E2E2E2E2E2E2E2E2E2E2E2E2E2E2E2E2E2E2E2E2E2E2E2E2E2E2E2E2E2E2E2E2E2E2E2E2E2E2E2E2E2E2E2E2E2E2E2E2E2E2E2E2E2E2E2E2E2E2E2E2E2E2E2E2E2E2
310
E2E2E2E2E2E2E2E2E2E2E2E2E2E2E2E2E2E2E2E2E2E2E2E2E2E2E2E2E2E2E2E2E2E2E2E2E2E2E2E2E2E2E2E2E2E2E2E2E2E2E2E2E2E2E2E2E2E2E2E2E2E2E2E2E2E2E2E2E2E2E2E2E2E2E2E2E2E2E2E2E2E2E2E2E2E2E2E2E2E2E2E2E2E2E2E2E2E2E2E2E2E2E2E2E2E2E2E2E2E2E2E2E2E2E2E2E2E2E2E2E2E2E2E2E2E2E2
310
E2E2E2E2E2E2E2E2E2E2E2E2E2E2E2E2E2E2E2E2E2E2E2E2E2E2E2E2E2E2E2E2E2E2E2E2E2E2E2E2E2E2E2E2E2E2E2E2E2E2E2E2E2E2E2E2E2E2E2E2E2E2E2E2E2E2E2E2E2E2E2E2E2E2E2E2E2E2E2E2E2E2E2E2E2E2E2E2E2E2E2E2E2E2E2E2E2E2E2E2E2E2E2E2E2E2E2E2E2E2E2E2E2E2E2E2E2E2E2E2E2E2E2E2E2E2E2
310
E2E2E2E2E2E2E2E2E2E2E2E2E2E2E2E2E2E2E2E2E2E2E2E2E2E2E2E2E2E2E2E2E2E2E2E2E2E2E2E2E2E2E2E2E2E2E2E2E2E2E2E2E2E2E2E2E2E2E2E2E2E2E2E2E2E2E2E2E2E2E2E2E2E2E2E2E2E2E2E2E2E2E2E2E2E2E2E2E2E2E2E2E2E2E2E2E2E2E2E2E2E2E2E2E2E2E2E2E2E2E2E2E2E2E2E2E2E2E2E2E2E2E2E2E2E2E2
310
E2E2E2E2E2E2E2E2E2E2E2E2E2E2E2E2E2E2E2E2E2E2E2E2E2E2E2E2E2E2E2E2E2E2E2E2E2E2E2E2E2E2E2E2E2E2E2E2E2E2E2E2E2E2E2E2E2E2E2E2E2E2E2E2E2E2E2E2E2E2E2E2E2E2E2E2E2E2E2E2E2E2E2E2E2E2E2E2E2E2E2E2E2E2E2E2E2E2E2E2E2E2E2E2E2E2E2E2E2E2E2E2E2E2E2E2E2E2E2E2E2E2E2E2E2E2E2
310
E2E2E2E2E2E2E2E2E2E2E2E2E2E2E2E2E2E2E2E2E2E2E2E2E2E2E2E2E2E2E2E2E2E2E2E2E2E2E2E2E2E2E2E2E2E2E2E2E2E2E2E2E2E2E2E2E2E2E2E2E2E2E2E2E2E2E2E2E2E2E2E2E2E2E2E2E2E2E2E2E2E2E2E2E2E2E2E2E2E2E2E2E2E2E2E2E2E2E2E2E2E2E2E2E2E2E2E2E2E2E2E2E2E2E2E2E2E2E2E2E2E2E2E2E2E2E2
310
E2E2E2E2E2E2E2E2E2E2E2E2E2E2E2E2E2E2E2E2E2E2E2E2E2E2E2E2E2E2E2E2E2E2E2E2E2E2E2E2E2E2E2E2E2E2E2E2E2E2E2E2E2E2E2E2E2E2E2E2E2E2E2E2E2E2E2E2E2E2E2E2E2E2E2E2E2E2E2E2E2E2E2E2E2E2E2E2E2E2E2E2E2E2E2E2E2E2E2E2E2E2E2E2E2E2E2E2E2E2E2E2E2E2E2E2E2E2E2E2E2E2E2E2E2E2E2
310
E2E2E2E2E2E2E2E2E2E2E2E2E2E2E2E2E2E2E2E2E2E2E2E2E2E2E2E2E2E2E2E2E2E2E2E2E2E2E2E2E2E2E2E2E2E2E2E2E2E2E2E2E2E2E2E2E2E2E2E2E2E2E2E2E2E2E2E2E2E2E2E2E2E2E2E2E2E2E2E2E2E2E2E2E2E2E2E2E2E2E2E2E2E2E2E2E2E2E2E2E2E2E2E2E2E2E2E2E2E2E2E2E2E2E2E2E2E2E2E2E2E2E2E2E2E2E2
310
E2E2E2E2E2E2E2E2E2E2E2E2E2E2E2E2E2E2E2E2E2E2E2E2E2E2E2E2E2E2E2E2E2E2E2E2E2E2E2E2E2E2E2E2E2E2E2E2E2E2E2E2E2E2E2E2E2E2E2E2E2E2E2E2E2E2E2E2E2E2E2E2E2E2E2E2E2E2E2E2E2E2E2E2E2E2E2E2E2E2E2E2E2E2E2E2E2E2E2E2E2E2E2E2E2E2E2E2E2E2E2E2E2E2E2E2E2E2E2E2E2E2E2E2E2E2E2
310
E2E2E2E2E2E2E2E2E2E2E2E2E2E2E2E2E2E2E2E2E2E2E2E2E2E2E2E2E2E2E2E2E2E2E2E2E2E2E2E2E2E2E2E2E2E2E2E2E2E2E2E2E2E2E2E2E2E2E2E2E2E2E2E2E2E2E2E2E2E2E2E2E2E2E2E2E2E2E2E2E2E2E2E2E2E2E2E2E2E2E2E2E2E2E2E2E2E2E2E2E2E2E2E2E2E2E2E2E2E2E2E2E2E2E2E2E2E2E2E2E2E2E2E2E2E2E2
310
E2E2E2E2E2E2E2E2E2E2E2E2E2E2E2E2E2E2E2E2E2E2E2E2E2E2E2E2E2E2E2E2E2E2E2E2E2E2E2E2E2E2E2E2E2E2E2E2E2E2E2E2E2E2E2E2E2E2E2E2E2E2E2E2E2E2E2E2E2E2E2E2E2E2E2E2E2E2E2E2E2E2E2E2E2E2E2E2E2E2E2E2E2E2E2E2E2E2E2E2E2E2E2E2E2E2E2E2E2E2E2E2E2E2E2E2E2E2E2E2E2E2E2E2E2E2E2
310
E2E2E2E2E2E2E2E2E2E2E2E2E2E2E2E2E2E2E2E2E2E2E2E2E2E2E2E2E2E2E2E2E2E2E2E2E2E2E2E2E2E2E2E2E2E2E2E2E2E2E2E2E2E2E2E2E2E2E2E2E2E2E2E2E2E2E2E2E2E2E2E2E2E2E2E2E2E2E2E2E2E2E2E2E2E2E2E2E2E2E2E2E2E2E2E2E2E2E2E2E2E2E2E2E2E2E2E2E2E2E2E2E2E2E2E2E2E2E2E2E2E2E2E2E2E2E2
310
E2E2E2E2E2E2E2E2E2E2E2E2E2E2E2E2E2E2E2E2E2E2E2E2E2E2E2E2E2E2E2E2E2E2E2E2E2E2E2E2E2E2E2E2E2E2E2E2E2E2E2E2E2E2E2E2E2E2E2E2E2E2E2E2E2E2E2E2E2E2E2E2E2E2E2E2E2E2E2E2E2E2E2E2E2E2E2E2E2E2E2E2E2E2E2E2E2E2E2E2E2E2E2E2E2E2E2E2E2E2E2E2E2E2E2E2E2E2E2E2E2E2E2E2E2E2E2
310
E2E2E2E2E2E2E2E2E2E2E2E2E2E2E2E2E2E2E2E2E2E2E2E2E2E2E2E2E2E2E2E2E2E2E2E2E2E2E2E2E2E2E2E2E2E2E2E2E2E2E2E2E2E2E2E2E2E2E2E2E2E2E2E2E2E2E2E2E2E2E2E2E2E2E2E2E2E2E2E2E2E2E2E2E2E2E2E2E2E2E2E2E2E2E2E2E2E2E2E2E2E2E2E2E2E2E2E2E2E2E2E2E2E2E2E2E2E2E2E2E2E2E2E2E2E2E2
310
E2E2E2E2E2E2E2E2E2E2E2E2E2E2E2E2E2E2E2E2E2E2E2E2E2E2E2E2E2E2E2E2E2E2E2E2E2E2E2E2E2E2E2E2E2E2E2E2E2E2E2E2E2E2E2E2E2E2E2E2E2E2E2E2E2E2E2E2E2E2E2E2E2E2E2E2E2E2E2E2E2E2E2E2E2E2E2E2E2E2E2E2E2E2E2E2E2E2E2E2E2E2E2E2E2E2E2E2E2E2E2E2E2E2E2E2E2E2E2E2E2E2E2E2E2E2E2
310
E2E2E2E2E2E2E2E2E2E2E2E2E2E2E2E2E2E2E2E2E2E2E2E2E2E2E2E2E2E2E2E2E2E2E2E2E2E2E2E2E2E2E2E2E2E2E2E2E2E2E2E2E2E2E2E2E2E2E2E2E2E2E2E2E2E2E2E2E2E2E2E2E2E2E2E2E2E2E2E2E2E2E2E2E2E2E2E2E2E2E2E2E2E2E2E2E2E2E2E2E2E2E2E2E2E2E2E2E2E2E2E2E2E2E2E2E2E2E2E2E2E2E2E2E2E2E2
310
E2E2E2E2E2E2E2E2E2E2E2E2E2E2E2E2E2E2E2E2E2E2E2E2E2E2E2E2E2E2E2E2E2E2E2E2E2E2E2E2E2E2E2E2E2E2E2E2E2E2E2E2E2E2E2E2E2E2E2E2E2E2E2E2E2E2E2E2E2E2E2E2E2E2E2E2E2E2E2E2E2E2E2E2E2E2E2E2E2E2E2E2E2E2E2E2E2E2E2E2E2E2E2E2E2E2E2E2E2E2E2E2E2E2E2E2E2E2E2E2E2E2E2E2E2E2E2
310
E2E2E2E2E2E2E2E2E2E2E2E2E2E2E2E2E2E2E2E2E2E2E2E2E2E2E2E2E2E2E2E2E2E2E2E2E2E2E2E2E2E2E2E2E2E2E2E2E2E2E2E2E2E2E2E2E2E2E2E2E2E2E2E2E2E2E2E2E2E2E2E2E2E2E2E2E2E2E2E2E2E2E2E2E2E2E2E2E2E2E2E2E2E2E2E2E2E2E2E2E2E2E2E2E2E2E2E2E2E2E2E2E2E2E2E2E2E2E2E2E2E2E2E2E2E2E2
310
E2E2E2E2E2E2E2E2E2E2E2E2E2E2E2E2E2E2E2E2E2E2E2E2E2E2E2E2E2E2E2E2E2E2E2E2E2E2E2E2E2E2E2E2E2E2E2E2E2E2E2E2E2E2E2E2E2E2E2E2E2E2E2E2E2E2E2E2E2E2E2E2E2E2E2E2E2E2E2E2E2E2E2E2E2E2E2E2E2E2E2E2E2E2E2E2E2E2E2E2E2E2E2E2E2E2E2E2E2E2E2E2E2E2E2E2E2E2E2E2E2E2E2E2E2E2E2
310
E2E2E2E2E2E2E2E2E2E2E2E2E2E2E2E2E2E2E2E2E2E2E2E2E2E2E2E2E2E2E2E2E2E2E2E2E2E2E2E2E2E2E2E2E2E2E2E2E2E2E2E2E2E2E2E2E2E2E2E2E2E2E2E2E2E2E2E2E2E2E2E2E2E2E2E2E2E2E2E2E2E2E2E2E2E2E2E2E2E2E2E2E2E2E2E2E2E2E2E2E2E2E2E2E2E2E2E2E2E2E2E2E2E2E2E2E2E2E2E2E2E2E2E2E2E2E2
310
E2E2E2E2E2E2E2E2E2E2E2E2E2E2E2E2E2E2E2E2E2E2E2E2E2E2E2E2E2E2E2E2E2E2E2E2E2E2E2E2E2E2E2E2E2E2E2E2E2E2E2E2E2E2E2E2E2E2E2E2E2E2E2E2E2E2E2E2E2E2E2E2E2E2E2E2E2E2E2E2E2E2E2E2E2E2E2E2E2E2E2E2E2E2E2E2E2E2E2E2E2E2E2E2E2E2E2E2E2E2E2E2E2E2E2E2E2E2E2E2E2E2E2E2E2E2E2
310
E2E2E2E2E2E2E2E2E2E2E2E2E2E2E2E2E2E2E2E2E2E2E2E2E2E2E2E2E2E2E2E2E2E2E2E2E2E2E2E2E2E2E2E2E2E2E2E2E2E2E2E2E2E2E2E2E2E2E2E2E2E2E2E2E2E2E2E2E2E2E2E2E2E2E2E2E2E2E2E2E2E2E2E2E2E2E2E2E2E2E2E2E2E2E2E2E2E2E2E2E2E2E2E2E2E2E2E2E2E2E2E2E2E2E2E2E2E2E2E2E2E2E2E2E2E2E2
310
E2E2E2E2E2E2E2E2E2E2E2E2E2E2E2E2E2E2E2E2E2E2E2E2E2E2E2E2E2E2E2E2E2E2E2E2E2E2E2E2E2E2E2E2E2E2E2E2E2E2E2E2E2E2E2E2E2E2E2E2E2E2E2E2E2E2E2E2E2E2E2E2E2E2E2E2E2E2E2E2E2E2E2E2E2E2E2E2E2E2E2E2E2E2E2E2E2E2E2E2E2E2E2E2E2E2E2E2E2E2E2E2E2E2E2E2E2E2E2E2E2E2E2E2E2E2E2
310
E2E2E2E2E2E2E2E2E2E2E2E2E2E2E2E2E2E2E2E2E2E2E2E2E2E2E2E2E2E2E2E2E2E2E2E2E2E2E2E2E2E2E2E2E2E2E2E2E2E2E2E2E2E2E2E2E2E2E2E2E2E2E2E2E2E2E2E2E2E2E2E2E2E2E2E2E2E2E2E2E2E2E2E2E2E2E2E2E2E2E2E2E2E2E2E2E2E2E2E2E2E2E2E2E2E2E2E2E2E2E2E2E2E2E2E2E2E2E2E2E2E2E2E2E2E2E2
310
E2E2E2E2E2E2E2E2E2E2E2E2E2E2E2E2E2E2E2E2E2E2E2E2E2E2E2E2E2E2E2E2E2E2E2E2E2E2E2E2E2E2E2E2E2E2E2E2E2E2E2E2E2E2E2E2E2E2E2E2E2E2E2E2E2E2E2E2E2E2E2E2E2E2E2E2E2E2E2E2E2E2E2E2E2E2E2E2E2E2E2E2E2E2E2E2E2E2E2E2E2E2E2E2E2E2E2E2E2E2E2E2E2E2E2E2E2E2E2E2E2E2E2E2E2E2E2
310
E2E2E2E2E2E2E2E2E2E2E2E2E2E2E2E2E2E2E2E2E2E2E2E2E2E2E2E2E2E2E2E2E2E2E2E2E2E2E2E2E2E2E2E2E2E2E2E2E2E2E2E2E2E2E2E2E2E2E2E2E2E2E2E2E2E2E2E2E2E2E2E2E2E2E2E2E2E2E2E2E2E2E2E2E2E2E2E2E2E2E2E2E2E2E2E2E2E2E2E2E2E2E2E2E2E2E2E2E2E2E2E2E2E2E2E2E2E2E2E2E2E2E2E2E2E2E2
310
E2E2E2E2E2E2E2E2E2E2E2E2E2E2E2E2E2E2E2E2E2E2E2E2E2E2E2E2E2E2E2E2E2E2E2E2E2E2E2E2E2E2E2E2E2E2E2E2E2E2E2E2E2E2E2E2E2E2E2E2E2E2E2E2E2E2E2E2E2E2E2E2E2E2E2E2E2E2E2E2E2E2E2E2E2E2E2E2E2E2E2E2E2E2E2E2E2E2E2E2E2E2E2E2E2E2E2E2E2E2E2E2E2E2E2E2E2E2E2E2E2E2E2E2E2E2E2
310
E2E2E2E2E2E2E2E2E2E2E2E2E2E2E2E2E2E2E2E2E2E2E2E2E2E2E2E2E2E2E2E2E2E2E2E2E2E2E2E2E2E2E2E2E2E2E2E2E2E2E2E2E2E2E2E2E2E2E2E2E2E2E2E2E2E2E2E2E2E2E2E2E2E2E2E2E2E2E2E2E2E2E2E2E2E2E2E2E2E2E2E2E2E2E2E2E2E2E2E2E2E2E2E2E2E2E2E2E2E2E2E2E2E2E2E2E2E2E2E2E2E2E2E2E2E2E2
310
E2E2E2E2E2E2E2E2E2E2E2E2E2E2E2E2E2E2E2E2E2E2E2E2E2E2E2E2E2E2E2E2E2E2E2E2E2E2E2E2E2E2E2E2E2E2E2E2E2E2E2E2E2E2E2E2E2E2E2E2E2E2E2E2E2E2E2E2E2E2E2E2E2E2E2E2E2E2E2E2E2E2E2E2E2E2E2E2E2E2E2E2E2E2E2E2E2E2E2E2E2E2E2E2E2E2E2E2E2E2E2E2E2E2E2E2E2E2E2E2E2E2E2E2E2E2E2
310
E2E2E2E2E2E2E2E2E2E2E2E2E2E2E2E2E2E2E2E2E2E2E2E2E2E2E2E2E2E2E2E2E2E2E2E2E2E2E2E2E2E2E2E2E2E2E2E2E2E2E2E2E2E2E2E2E2E2E2E2E2E2E2E2E2E2E2E2E2E2E2E2E2E2E2E2E2E2E2E2E2E2E2E2E2E2E2E2E2E2E2E2E2E2E2E2E2E2E2E2E2E2E2E2E2E2E2E2E2E2E2E2E2E2E2E2E2E2E2E2E2E2E2E2E2E2E2
310
E2E2E2E2E2E2E2E2E2E2E2E2E2E2E2E2E2E2E2E2E2E2E2E2E2E2E2E2E2E2E2E2E2E2E2E2E2E2E2E2E2E2E2E2E2E2E2E2E2E2E2E2E2E2E2E2E2E2E2E2E2E2E2E2E2E2E2E2E2E2E2E2E2E2E2E2E2E2E2E2E2E2E2E2E2E2E2E2E2E2E2E2E2E2E2E2E2E2E2E2E2E2E2E2E2E2E2E2E2E2E2E2E2E2E2E2E2E2E2E2E2E2E2E2E2E2E2
310
E2E2E2E2E2E2E2E2E2E2E2E2E2E2E2E2E2E2E2E2E2E2E2E2E2E2E2E2E2E2E2E2E2E2E2E2E2E2E2E2E2E2E2E2E2E2E2E2E2E2E2E2E2E2E2E2E2E2E2E2E2E2E2E2E2E2E2E2E2E2E2E2E2E2E2E2E2E2E2E2E2E2E2E2E2E2E2E2E2E2E2E2E2E2E2E2E2E2E2E2E2E2E2E2E2E2E2E2E2E2E2E2E2E2E2E2E2E2E2E2E2E2E2E2E2E2E2
310
E2E2E2E2E2E2E2E2E2E2E2E2E2E2E2E2E2E2E2E2E2E2E2E2E2E2E2E2E2E2E2E2E2E2E2E2E2E2E2E2E2E2E2E2E2E2E2E2E2E2E2E2E2E2E2E2E2E2E2E2E2E2E2E2E2E2E2E2E2E2E2E2E2E2E2E2E2E2E2E2E2E2E2E2E2E2E2E2E2E2E2E2E2E2E2E2E2E2E2E2E2E2E2E2E2E2E2E2E2E2E2E2E2E2E2E2E2E2E2E2E2E2E2E2E2E2E2
310
E2E2E2E2E2E2E2E2E2E2E2E2E2E2E2E2E2E2E2E2E2E2E2E2E2E2E2E2E2E2E2E2E2E2E2E2E2E2E2E2E2E2E2E2E2E2E2E2E2E2E2E2E2E2E2E2E2E2E2E2E2E2E2E2E2E2E2E2E2E2E2E2E2E2E2E2E2E2E2E2E2E2E2E2E2E2E2E2E2E2E2E2E2E2E2E2E2E2E2E2E2E2E2E2E2E2E2E2E2E2E2E2E2E2E2E2E2E2E2E2E2E2E2E2E2E2E2
310
E2E2E2E2E2E2E2E2E2E2E2E2E2E2E2E2E2E2E2E2E2E2E2E2E2E2E2E2E2E2E2E2E2E2E2E2E2E2E2E2E2E2E2E2E2E2E2E2E2E2E2E2E2E2E2E2E2E2E2E2E2E2E2E2E2E2E2E2E2E2E2E2E2E2E2E2E2E2E2E2E2E2E2E2E2E2E2E2E2E2E2E2E2E2E2E2E2E2E2E2E2E2E2E2E2E2E2E2E2E2E2E2E2E2E2E2E2E2E2E2E2E2E2E2E2E2E2
310
E2E2E2E2E2E2E2E2E2E2E2E2E2E2E2E2E2E2E2E2E2E2E2E2E2E2E2E2E2E2E2E2E2E2E2E2E2E2
  0
XRECORD
  5
617
102
{ACAD_REACTORS
330
46
102
}
330
46
100
AcDbXrecord
280
     1
102
MATERIAL
148
0.0
149
0.0
149
0.0
 93
        0
 94
      127
282
     0
 72
     0
 77
     0
171
     0
175
     0
179
     0
273
     0
  0
XRECORD
  5
47
102
{ACAD_REACTORS
330
46
102
}
330
46
100
AcDbXrecord
280
     1
270
     1
271
     1
  0
XRECORD
  5
48
102
{ACAD_REACTORS
330
46
102
}
330
46
100
AcDbXrecord
280
     1
270
     1
271
     1
  0
XRECORD
  5
49
102
{ACAD_REACTORS
330
46
102
}
330
46
100
AcDbXrecord
280
     1
270
     1
271
     1
  0
XRECORD
  5
4A
102
{ACAD_REACTORS
330
46
102
}
330
46
100
AcDbXrecord
280
     1
270
     1
271
     1
  0
XRECORD
  5
4B
102
{ACAD_REACTORS
330
46
102
}
330
46
100
AcDbXrecord
280
     1
270
     1
271
     1
  0
XRECORD
  5
4C
102
{ACAD_REACTORS
330
46
102
}
330
46
100
AcDbXrecord
280
     1
270
     1
271
     1
  0
XRECORD
  5
616
102
{ACAD_REACTORS
330
3E
102
}
330
3E
100
AcDbXrecord
280
     1
102
MATERIAL
148
0.0
149
0.0
149
0.0
 93
        0
 94
      127
282
     0
 72
     0
 77
     0
171
     0
175
     0
179
     0
273
     0
  0
XRECORD
  5
3F
102
{ACAD_REACTORS
330
3E
102
}
330
3E
100
AcDbXrecord
280
     1
270
     1
271
     1
  0
XRECORD
  5
40
102
{ACAD_REACTORS
330
3E
102
}
330
3E
100
AcDbXrecord
280
     1
270
     1
271
     1
  0
XRECORD
  5
41
102
{ACAD_REACTORS
330
3E
102
}
330
3E
100
AcDbXrecord
280
     1
270
     1
271
     1
  0
XRECORD
  5
42
102
{ACAD_REACTORS
330
3E
102
}
330
3E
100
AcDbXrecord
280
     1
270
     1
271
     1
  0
XRECORD
  5
43
102
{ACAD_REACTORS
330
3E
102
}
330
3E
100
AcDbXrecord
280
     1
270
     1
271
     1
  0
XRECORD
  5
44
102
{ACAD_REACTORS
330
3E
102
}
330
3E
100
AcDbXrecord
280
     1
270
     1
271
     1
  0
XRECORD
  5
60F
102
{ACAD_REACTORS
330
D
102
}
330
D
100
AcDbXrecord
280
     1
102
MATERIAL
148
0.0
149
0.0
149
0.0
 93
        0
 94
      127
282
     0
 72
     0
 77
     0
171
     0
175
     0
179
     0
273
     0
  0
XRECORD
  5
E
102
{ACAD_REACTORS
330
D
102
}
330
D
100
AcDbXrecord
280
     1
270
     1
271
     1
  0
XRECORD
  5
F
102
{ACAD_REACTORS
330
D
102
}
330
D
100
AcDbXrecord
280
     1
270
     1
271
     1
  0
XRECORD
  5
10
102
{ACAD_REACTORS
330
D
102
}
330
D
100
AcDbXrecord
280
     1
270
     1
271
     1
  0
XRECORD
  5
11
102
{ACAD_REACTORS
330
D
102
}
330
D
100
AcDbXrecord
280
     1
270
     1
271
     1
  0
XRECORD
  5
12
102
{ACAD_REACTORS
330
D
102
}
330
D
100
AcDbXrecord
280
     1
270
     1
271
     1
  0
XRECORD
  5
13
102
{ACAD_REACTORS
330
D
102
}
330
D
100
AcDbXrecord
280
     1
270
     1
271
     1
  0
CELLSTYLEMAP
  5
C8A
102
{ACAD_REACTORS
330
55
102
}
330
55
100
AcDbCellStyleMap
 90
        3
300
CELLSTYLE
  1
TABLEFORMAT_BEGIN
 90
        5
170
     1
 91
        0
 92
    32768
 62
   257
 93
        1
300
CONTENTFORMAT
  1
CONTENTFORMAT_BEGIN
 90
        0
 91
        0
 92
        4
 93
        0
300

 40
0.0
140
1.0
 94
        5
 62
     0
340
23
144
6.0
309
CONTENTFORMAT_END
171
     1
301
MARGIN
  1
CELLMARGIN_BEGIN
 40
1.5
 40
1.5
 40
1.5
 40
1.5
 40
0.18
 40
0.18
309
CELLMARGIN_END
 94
        6
 95
        1
302
GRIDFORMAT
  1
GRIDFORMAT_BEGIN
 90
        0
 91
        1
 62
     0
 92
       -2
340
0
 93
        0
 40
0.045
309
GRIDFORMAT_END
 95
        2
302
GRIDFORMAT
  1
GRIDFORMAT_BEGIN
 90
        0
 91
        1
 62
     0
 92
       -2
340
0
 93
        0
 40
0.045
309
GRIDFORMAT_END
 95
        4
302
GRIDFORMAT
  1
GRIDFORMAT_BEGIN
 90
        0
 91
        1
 62
     0
 92
       -2
340
0
 93
        0
 40
0.045
309
GRIDFORMAT_END
 95
        8
302
GRIDFORMAT
  1
GRIDFORMAT_BEGIN
 90
        0
 91
        1
 62
     0
 92
       -2
340
0
 93
        0
 40
0.045
309
GRIDFORMAT_END
 95
       16
302
GRIDFORMAT
  1
GRIDFORMAT_BEGIN
 90
        0
 91
        1
 62
     0
 92
       -2
340
0
 93
        0
 40
0.045
309
GRIDFORMAT_END
 95
       32
302
GRIDFORMAT
  1
GRIDFORMAT_BEGIN
 90
        0
 91
        1
 62
     0
 92
       -2
340
0
 93
        0
 40
0.045
309
GRIDFORMAT_END
309
TABLEFORMAT_END
  1
CELLSTYLE_BEGIN
 90
        1
 91
        1
300
_TITLE
309
CELLSTYLE_END
300
CELLSTYLE
  1
TABLEFORMAT_BEGIN
 90
        5
170
     1
 91
        0
 92
        0
 62
   257
 93
        1
300
CONTENTFORMAT
  1
CONTENTFORMAT_BEGIN
 90
        0
 91
        0
 92
        4
 93
        0
300

 40
0.0
140
1.0
 94
        5
 62
     0
340
23
144
4.5
309
CONTENTFORMAT_END
171
     1
301
MARGIN
  1
CELLMARGIN_BEGIN
 40
1.5
 40
1.5
 40
1.5
 40
1.5
 40
0.18
 40
0.18
309
CELLMARGIN_END
 94
        6
 95
        1
302
GRIDFORMAT
  1
GRIDFORMAT_BEGIN
 90
        0
 91
        1
 62
     0
 92
       -2
340
0
 93
        0
 40
0.045
309
GRIDFORMAT_END
 95
        2
302
GRIDFORMAT
  1
GRIDFORMAT_BEGIN
 90
        0
 91
        1
 62
     0
 92
       -2
340
0
 93
        0
 40
0.045
309
GRIDFORMAT_END
 95
        4
302
GRIDFORMAT
  1
GRIDFORMAT_BEGIN
 90
        0
 91
        1
 62
     0
 92
       -2
340
0
 93
        0
 40
0.045
309
GRIDFORMAT_END
 95
        8
302
GRIDFORMAT
  1
GRIDFORMAT_BEGIN
 90
        0
 91
        1
 62
     0
 92
       -2
340
0
 93
        0
 40
0.045
309
GRIDFORMAT_END
 95
       16
302
GRIDFORMAT
  1
GRIDFORMAT_BEGIN
 90
        0
 91
        1
 62
     0
 92
       -2
340
0
 93
        0
 40
0.045
309
GRIDFORMAT_END
 95
       32
302
GRIDFORMAT
  1
GRIDFORMAT_BEGIN
 90
        0
 91
        1
 62
     0
 92
       -2
340
0
 93
        0
 40
0.045
309
GRIDFORMAT_END
309
TABLEFORMAT_END
  1
CELLSTYLE_BEGIN
 90
        2
 91
        1
300
_HEADER
309
CELLSTYLE_END
300
CELLSTYLE
  1
TABLEFORMAT_BEGIN
 90
        5
170
     1
 91
        0
 92
        0
 62
   257
 93
        1
300
CONTENTFORMAT
  1
CONTENTFORMAT_BEGIN
 90
        0
 91
        0
 92
        4
 93
        0
300

 40
0.0
140
1.0
 94
        2
 62
     0
340
23
144
4.5
309
CONTENTFORMAT_END
171
     1
301
MARGIN
  1
CELLMARGIN_BEGIN
 40
1.5
 40
1.5
 40
1.5
 40
1.5
 40
0.18
 40
0.18
309
CELLMARGIN_END
 94
        6
 95
        1
302
GRIDFORMAT
  1
GRIDFORMAT_BEGIN
 90
        0
 91
        1
 62
     0
 92
       -2
340
0
 93
        0
 40
0.045
309
GRIDFORMAT_END
 95
        2
302
GRIDFORMAT
  1
GRIDFORMAT_BEGIN
 90
        0
 91
        1
 62
     0
 92
       -2
340
0
 93
        0
 40
0.045
309
GRIDFORMAT_END
 95
        4
302
GRIDFORMAT
  1
GRIDFORMAT_BEGIN
 90
        0
 91
        1
 62
     0
 92
       -2
340
0
 93
        0
 40
0.045
309
GRIDFORMAT_END
 95
        8
302
GRIDFORMAT
  1
GRIDFORMAT_BEGIN
 90
        0
 91
        1
 62
     0
 92
       -2
340
0
 93
        0
 40
0.045
309
GRIDFORMAT_END
 95
       16
302
GRIDFORMAT
  1
GRIDFORMAT_BEGIN
 90
        0
 91
        1
 62
     0
 92
       -2
340
0
 93
        0
 40
0.045
309
GRIDFORMAT_END
 95
       32
302
GRIDFORMAT
  1
GRIDFORMAT_BEGIN
 90
        0
 91
        1
 62
     0
 92
       -2
340
0
 93
        0
 40
0.045
309
GRIDFORMAT_END
309
TABLEFORMAT_END
  1
CELLSTYLE_BEGIN
 90
        3
 91
        2
300
_DATA
309
CELLSTYLE_END
  0
XRECORD
  5
C93
102
{ACAD_REACTORS
330
55
102
}
330
55
100
AcDbXrecord
280
     1
102
ACAD_ROUNDTRIP_PRE2007_TABLESTYLE
 90
        4
 91
        0
  1

 92
        4
 93
        0
  2

 94
        4
 95
        0
  3

  0
ENDSEC
  0
EOF
