  0
SECTION
  2
HEADER
  9
$ACADVER
  1
AC1015
  9
$ACADMAINTVER
 70
    20
  9
$DWGCODEPAGE
  3
ANSI_932
  9
$INSBASE
 10
0.0
 20
0.0
 30
0.0
  9
$EXTMIN
 10
-396.6293526675318
 20
-533.365546367662
 30
-0.00000001
  9
$EXTMAX
 10
522.1683339883536
 20
936.5159105295752
 30
0.00000001
  9
$LIMMIN
 10
0.0
 20
0.0
  9
$LIMMAX
 10
420.0
 20
297.0
  9
$ORTHOMODE
 70
     1
  9
$REGENMODE
 70
     1
  9
$FILLMODE
 70
     1
  9
$QTEXTMODE
 70
     0
  9
$MIRRTEXT
 70
     1
  9
$LTSCALE
 40
1.0
  9
$ATTMODE
 70
     1
  9
$TEXTSIZE
 40
62.5215949741746
  9
$TRACEWID
 40
1.0
  9
$TEXTSTYLE
  7
STANDARD
  9
$CLAYER
  8
0
  9
$CELTYPE
  6
BYLAYER
  9
$CECOLOR
 62
   256
  9
$CELTSCALE
 40
1.0
  9
$DISPSILH
 70
     0
  9
$DIMSCALE
 40
5.0
  9
$DIMASZ
 40
2.0
  9
$DIMEXO
 40
1.0
  9
$DIMDLI
 40
3.75
  9
$DIMRND
 40
0.5
  9
$DIMDLE
 40
0.0
  9
$DIMEXE
 40
1.0
  9
$DIMTP
 40
0.0
  9
$DIMTM
 40
0.0
  9
$DIMTXT
 40
2.0
  9
$DIMCEN
 40
2.5
  9
$DIMTSZ
 40
0.0
  9
$DIMTOL
 70
     0
  9
$DIMLIM
 70
     0
  9
$DIMTIH
 70
     0
  9
$DIMTOH
 70
     0
  9
$DIMSE1
 70
     0
  9
$DIMSE2
 70
     0
  9
$DIMTAD
 70
     1
  9
$DIMZIN
 70
     8
  9
$DIMBLK
  1

  9
$DIMASO
 70
     1
  9
$DIMSHO
 70
     1
  9
$DIMPOST
  1

  9
$DIMAPOST
  1

  9
$DIMALT
 70
     0
  9
$DIMALTD
 70
     4
  9
$DIMALTF
 40
0.0394
  9
$DIMLFAC
 40
1.0
  9
$DIMTOFL
 70
     1
  9
$DIMTVP
 40
0.0
  9
$DIMTIX
 70
     0
  9
$DIMSOXD
 70
     0
  9
$DIMSAH
 70
     1
  9
$DIMBLK1
  1
OPEN30
  9
$DIMBLK2
  1
OPEN30
  9
$DIMSTYLE
  2
STANDARD
  9
$DIMCLRD
 70
     0
  9
$DIMCLRE
 70
     0
  9
$DIMCLRT
 70
     0
  9
$DIMTFAC
 40
1.0
  9
$DIMGAP
 40
1.0
  9
$DIMJUST
 70
     0
  9
$DIMSD1
 70
     0
  9
$DIMSD2
 70
     0
  9
$DIMTOLJ
 70
     1
  9
$DIMTZIN
 70
     8
  9
$DIMALTZ
 70
     0
  9
$DIMALTTZ
 70
     0
  9
$DIMUPT
 70
     0
  9
$DIMDEC
 70
     1
  9
$DIMTDEC
 70
     1
  9
$DIMALTU
 70
     8
  9
$DIMALTTD
 70
     4
  9
$DIMTXSTY
  7
STANDARD
  9
$DIMAUNIT
 70
     0
  9
$DIMADEC
 70
     0
  9
$DIMALTRND
 40
0.0
  9
$DIMAZIN
 70
     0
  9
$DIMDSEP
 70
    46
  9
$DIMATFIT
 70
     3
  9
$DIMFRAC
 70
     0
  9
$DIMLDRBLK
  1
OPEN30
  9
$DIMLUNIT
 70
     2
  9
$DIMLWD
 70
    -2
  9
$DIMLWE
 70
    -2
  9
$DIMTMOVE
 70
     0
  9
$LUNITS
 70
     2
  9
$LUPREC
 70
     4
  9
$SKETCHINC
 40
1.0
  9
$FILLETRAD
 40
10.0
  9
$AUNITS
 70
     0
  9
$AUPREC
 70
     0
  9
$MENU
  1
.
  9
$ELEVATION
 40
0.0
  9
$PELEVATION
 40
0.0
  9
$THICKNESS
 40
0.0
  9
$LIMCHECK
 70
     0
  9
$CHAMFERA
 40
10.0
  9
$CHAMFERB
 40
10.0
  9
$CHAMFERC
 40
20.0
  9
$CHAMFERD
 40
0.0
  9
$SKPOLY
 70
     0
  9
$TDCREATE
 40
2451324.468257373
  9
$TDUCREATE
 40
2451324.093257373
  9
$TDUPDATE
 40
2454987.687896621
  9
$TDUUPDATE
 40
2454987.312896621
  9
$TDINDWG
 40
2.1214532986
  9
$TDUSRTIMER
 40
2.1214529398
  9
$USRTIMER
 70
     1
  9
$ANGBASE
 50
0.0
  9
$ANGDIR
 70
     0
  9
$PDMODE
 70
     0
  9
$PDSIZE
 40
0.0
  9
$PLINEWID
 40
0.0
  9
$SPLFRAME
 70
     0
  9
$SPLINETYPE
 70
     6
  9
$SPLINESEGS
 70
     8
  9
$HANDSEED
  5
CEF
  9
$SURFTAB1
 70
     6
  9
$SURFTAB2
 70
     6
  9
$SURFTYPE
 70
     6
  9
$SURFU
 70
     6
  9
$SURFV
 70
     6
  9
$UCSBASE
  2

  9
$UCSNAME
  2

  9
$UCSORG
 10
0.0
 20
0.0
 30
0.0
  9
$UCSXDIR
 10
1.0
 20
0.0
 30
0.0
  9
$UCSYDIR
 10
0.0
 20
1.0
 30
0.0
  9
$UCSORTHOREF
  2

  9
$UCSORTHOVIEW
 70
     0
  9
$UCSORGTOP
 10
0.0
 20
0.0
 30
0.0
  9
$UCSORGBOTTOM
 10
0.0
 20
0.0
 30
0.0
  9
$UCSORGLEFT
 10
0.0
 20
0.0
 30
0.0
  9
$UCSORGRIGHT
 10
0.0
 20
0.0
 30
0.0
  9
$UCSORGFRONT
 10
0.0
 20
0.0
 30
0.0
  9
$UCSORGBACK
 10
0.0
 20
0.0
 30
0.0
  9
$PUCSBASE
  2

  9
$PUCSNAME
  2

  9
$PUCSORG
 10
0.0
 20
0.0
 30
0.0
  9
$PUCSXDIR
 10
1.0
 20
0.0
 30
0.0
  9
$PUCSYDIR
 10
0.0
 20
1.0
 30
0.0
  9
$PUCSORTHOREF
  2

  9
$PUCSORTHOVIEW
 70
     0
  9
$PUCSORGTOP
 10
0.0
 20
0.0
 30
0.0
  9
$PUCSORGBOTTOM
 10
0.0
 20
0.0
 30
0.0
  9
$PUCSORGLEFT
 10
0.0
 20
0.0
 30
0.0
  9
$PUCSORGRIGHT
 10
0.0
 20
0.0
 30
0.0
  9
$PUCSORGFRONT
 10
0.0
 20
0.0
 30
0.0
  9
$PUCSORGBACK
 10
0.0
 20
0.0
 30
0.0
  9
$USERI1
 70
     0
  9
$USERI2
 70
     0
  9
$USERI3
 70
     0
  9
$USERI4
 70
     0
  9
$USERI5
 70
     0
  9
$USERR1
 40
0.0
  9
$USERR2
 40
0.0
  9
$USERR3
 40
0.0
  9
$USERR4
 40
0.0
  9
$USERR5
 40
0.0
  9
$WORLDVIEW
 70
     1
  9
$SHADEDGE
 70
     3
  9
$SHADEDIF
 70
    70
  9
$TILEMODE
 70
     1
  9
$MAXACTVP
 70
    48
  9
$PINSBASE
 10
0.0
 20
0.0
 30
0.0
  9
$PLIMCHECK
 70
     0
  9
$PEXTMIN
 10
-1204.520315684228
 20
-1562.264399382188
 30
0.0
  9
$PEXTMAX
 10
2683.21898568421
 20
1555.211899966486
 30
0.0
  9
$PLIMMIN
 10
0.0
 20
0.0
  9
$PLIMMAX
 10
12.0
 20
9.0
  9
$UNITMODE
 70
     0
  9
$VISRETAIN
 70
     1
  9
$PLINEGEN
 70
     0
  9
$PSLTSCALE
 70
     1
  9
$TREEDEPTH
 70
  3020
  9
$CMLSTYLE
  2
STANDARD
  9
$CMLJUST
 70
     0
  9
$CMLSCALE
 40
20.0
  9
$PROXYGRAPHICS
 70
     1
  9
$MEASUREMENT
 70
     1
  9
$CELWEIGHT
370
    -1
  9
$ENDCAPS
280
     0
  9
$JOINSTYLE
280
     0
  9
$LWDISPLAY
290
     0
  9
$INSUNITS
 70
     0
  9
$HYPERLINKBASE
  1

  9
$STYLESHEET
  1

  9
$XEDIT
290
     1
  9
$CEPSNTYPE
380
     0
  9
$PSTYLEMODE
290
     1
  9
$FINGERPRINTGUID
  2
{40C7B3C2-039E-44C7-B66A-72BD111CA102}
  9
$VERSIONGUID
  2
{6F3DFEC7-4FE1-4ED3-BD81-3F8CFD54C6F5}
  9
$EXTNAMES
290
     1
  9
$PSVPSCALE
 40
0.0
  9
$OLESTARTUP
290
     0
  0
ENDSEC
  0
SECTION
  2
CLASSES
  0
CLASS
  1
LWPOLYLINE
  2
AcDbPolyline
  3
ObjectDBX Classes
 90
        0
280
     0
281
     1
  0
CLASS
  1
ACDBDICTIONARYWDFLT
  2
AcDbDictionaryWithDefault
  3
ObjectDBX Classes
 90
        0
280
     0
281
     0
  0
CLASS
  1
ACDBPLACEHOLDER
  2
AcDbPlaceHolder
  3
ObjectDBX Classes
 90
        0
280
     0
281
     0
  0
CLASS
  1
LAYOUT
  2
AcDbLayout
  3
ObjectDBX Classes
 90
        0
280
     0
281
     0
  0
CLASS
  1
ACME_DOCUMENT
  2
AcMeDbDoc
  3
AcMeServices
 90
    33792
280
     0
281
     0
  0
CLASS
  1
AMGSETTINGSOBJ
  2
AmgSettingsObj
  3
"AcadM|Product Description: AutoCAD Mechanical|Company: Autodesk, Inc."
 90
    33792
280
     0
281
     0
  0
CLASS
  1
ACMESCOPE
  2
AcMeScope
  3
AcMeServices
 90
    33792
280
     0
281
     0
  0
CLASS
  1
ACMECOMMANDHISTORY
  2
AcMeCommandHistory
  3
AcMeServices
 90
    33792
280
     0
281
     0
  0
CLASS
  1
DICTIONARYVAR
  2
AcDbDictionaryVar
  3
ObjectDBX Classes
 90
        0
280
     0
281
     0
  0
CLASS
  1
ACIMSYSVARMAN
  2
AcImSysVarManager
  3
AcMeServices
 90
    33792
280
     0
281
     0
  0
CLASS
  1
ACIMREALSYSVAR
  2
AcImRealSysVar
  3
AcMeServices
 90
    33792
280
     0
281
     0
  0
CLASS
  1
ACIMINTSYSVAR
  2
AcImIntSysVar
  3
AcMeServices
 90
    33792
280
     0
281
     0
  0
CLASS
  1
ACMEDRAWINGMAN
  2
AcMeDrawingMan
  3
AcMeServices
 90
    33792
280
     0
281
     0
  0
CLASS
  1
ACMEVIEW
  2
AcMeView
  3
AcMeServices
 90
    33792
280
     0
281
     0
  0
CLASS
  1
ACDBENTITYCACHE
  2
AcMeEntityCache
  3
AcMeServices
 90
    33792
280
     0
281
     0
  0
CLASS
  1
GSMANAGER
  2
AcMeGSManager
  3
AcMeServices
 90
    33792
280
     0
281
     0
  0
CLASS
  1
AMDTINTERNALREACTOR
  2
AmdtInternalReactor
  3
AcMeServices
 90
    33792
280
     0
281
     0
  0
CLASS
  1
ACMESTATEMGR
  2
AcMeStateMgr
  3
AcMeServices
 90
    33792
280
     0
281
     0
  0
CLASS
  1
ACGREFMASTER
  2
AcGrefMaster
  3
AcAttribServices
 90
    33792
280
     0
281
     0
  0
CLASS
  1
AM_DRAWING_MGR
  2
AcDmDwgMgr
  3
AcMechDwgViewMgmt
 90
    33792
280
     0
281
     0
  0
CLASS
  1
AM_DWG_DOCUMENT
  2
AcDmDwgDocument
  3
AcMechDwgViewMgmt
 90
    33792
280
     0
281
     0
  0
CLASS
  1
AM_DWG_SHEET
  2
AcDmSheet
  3
AcMechDwgViewMgmt
 90
    33792
280
     0
281
     0
  0
CLASS
  1
AM_VIEWDIMPARMAP
  2
AcDmViewDimParMap
  3
AcMechDwgViewMgmt
 90
    33792
280
     0
281
     0
  0
CLASS
  1
AM_DWGMGR_NAME
  2
AcDmDwgMgrName
  3
AcMechDwgViewMgmt
 90
    33792
280
     0
281
     0
  0
CLASS
  1
ACME_DATABASE
  2
AcMeDbDatabase
  3
AcMeServices
 90
    33792
280
     0
281
     0
  0
CLASS
  1
ACRFINSADJUSTERMGR
  2
AcRfInsAdjusterMgr
  3
AcMeServices
 90
    33792
280
     0
281
     0
  0
CLASS
  1
ACGREFACADMASTER
  2
AcGrefacadMaster
  3
AcGrefServices
 90
    33792
280
     0
281
     0
  0
CLASS
  1
AMDTMENUSTATEMGR
  2
AmdtMenuStateMgr
  3
McadcomServices
 90
    33792
280
     0
281
     0
  0
CLASS
  1
AMDTMCOMMENUSTATE
  2
AmdtMcomMenuState
  3
McadcomServices
 90
    33792
280
     0
281
     0
  0
CLASS
  1
AMIMASTER
  2
AmiMaster
  3
AmiServices
 90
    33792
280
     0
281
     0
  0
CLASS
  1
ASAPP
  2
AcAsAppObject
  3
AutoSurfServices
 90
    33792
280
     0
281
     0
  0
CLASS
  1
IM_STATIC_MAN
  2
AcImStaticVarManager
  3
AcMeServices
 90
    33792
280
     0
281
     0
  0
CLASS
  1
ACIMSTRSYSVAR
  2
AcImStrSysVar
  3
AcMeServices
 90
    33792
280
     0
281
     0
  0
CLASS
  1
ACIMDBLSTATICVAR
  2
AcImDblStaticVar
  3
AcMeServices
 90
    33792
280
     0
281
     0
  0
CLASS
  1
ACIMSTRSTATICVAR
  2
AcImStrStaticVar
  3
AcMeServices
 90
    33792
280
     0
281
     0
  0
CLASS
  1
ACIMINTSTATICVAR
  2
AcImIntStaticVar
  3
AcMeServices
 90
    33792
280
     0
281
     0
  0
CLASS
  1
ACASGREFMASTER
  2
AcAsGrefMaster
  3
AutoSurfResolverServices
 90
    33792
280
     0
281
     0
  0
CLASS
  1
ACADGREFMODULE
  2
AcAdGrefModule
  3
AdGrefServices
 90
    33792
280
     0
281
     0
  0
CLASS
  1
AMDTMAPISURFMOUDULE
  2
AmdtMApiSurfModule
  3
MApiSurfServices
 90
    33792
280
     0
281
     0
  0
CLASS
  1
MAPIAMMOUDLE
  2
MApiAmModule
  3
MApiAmServices
 90
    33792
280
     0
281
     0
  0
CLASS
  1
AMDTADMENUSTATE
  2
AmdtAdMenuState
  3
DesignerServices
 90
    33792
280
     0
281
     0
  0
CLASS
  1
ADAPPL
  2
AcAdAppl
  3
DesignerServices
 90
    33792
280
     0
281
     0
  0
CLASS
  1
DEPMGR
  2
AcAdDepMgr
  3
DesignerServices
 90
    33792
280
     0
281
     0
  0
CLASS
  1
PARAMMGR
  2
AcAdParamMgr
  3
DesignerServices
 90
    33792
280
     0
281
     0
  0
CLASS
  1
PARAMSCOPE
  2
AcAdParamScope
  3
DesignerServices
 90
    33792
280
     0
281
     0
  0
CLASS
  1
NAMEDAPPL
  2
AcAdNamedAppl
  3
DesignerServices
 90
    33792
280
     0
281
     0
  0
CLASS
  1
ADHNTMPLT
  2
AdHoleNoteTemplateMgr
  3
DesignerServices
 90
    33792
280
     0
281
     0
  0
CLASS
  1
AM_HNTEMPLATE_MGR_NAME
  2
AdHoleNoteTemplateMgrName
  3
DesignerServices
 90
    33792
280
     0
281
     0
  0
CLASS
  1
AMDTDMMENUSTATE
  2
AmdtDmMenuState
  3
AcMechDwgViewMgmt
 90
    33792
280
     0
281
     0
  0
CLASS
  1
MAPIADMODULE
  2
MApiAdModule
  3
MApiAdServices
 90
    33792
280
     0
281
     0
  0
CLASS
  1
AMDTAMMENUSTATE
  2
AmdtAmMenuState
  3
DesignerAssemblies
 90
    33792
280
     0
281
     0
  0
CLASS
  1
ACAMPROJECT
  2
AcAmProject
  3
DesignerAssemblies
 90
    33792
280
     0
281
     0
  0
CLASS
  1
ACAMGRCOMPDEF
  2
AcAmGrCompDef
  3
DesignerAssemblies
 90
    33792
280
     0
281
     0
  0
CLASS
  1
ACCMCONTEXT
  2
AcCmContext
  3
DesignerAssemblies
 90
    33792
280
     0
281
     0
  0
CLASS
  1
ACAMCOMPDEF
  2
AcAmCompDef
  3
DesignerAssemblies
 90
    33792
280
     0
281
     0
  0
CLASS
  1
ACAMCOMPDEFMGR
  2
AcAmCompDefMgr
  3
DesignerAssemblies
 90
    33792
280
     0
281
     0
  0
CLASS
  1
AMCONTEXTMGR
  2
AcAmContextMgr
  3
DesignerAssemblies
 90
    33792
280
     0
281
     0
  0
CLASS
  1
ACAMCONTEXTMODELER
  2
AcAmContextModeler
  3
DesignerAssemblies
 90
    33792
280
     0
281
     0
  0
CLASS
  1
ACMDATADICTIONARY
  2
AcmDataDictionary
  3
"AcmSymBB|Product Description: AutoCAD Mechanical|Company: Autodesk, Inc."
 90
     1024
280
     0
281
     0
  0
CLASS
  1
ACMDATAENTRYBLOCK
  2
AcmDataEntryBlock
  3
AcmSymBB|Product Description: AutoCAD Mechanical|Company: Autodesk, Inc.
 90
     1024
280
     0
281
     0
  0
CLASS
  1
CATALOGSTATE
  2
AcAmCatalogState
  3
DesignerAssemblies
 90
    33792
280
     0
281
     0
  0
CLASS
  1
ACAMGRCOMPDEFSET
  2
AcAmGrCompDefSet
  3
DesignerAssemblies
 90
    33792
280
     0
281
     0
  0
CLASS
  1
AMDTBROWSERDBTAB
  2
AmdtBrowserDbTab
  3
McadcomServices
 90
    33792
280
     0
281
     0
  0
CLASS
  1
CBROWSERAPPOBJECT
  2
CBrowserAppObject
  3
McadcomServices
 90
    33792
280
     0
281
     0
  0
CLASS
  1
DM_PLACEHOLDER
  2
AcDmSelsetPlaceholder
  3
AcMechDwgViewMgmt
 90
    33792
280
     0
281
     0
  0
CLASS
  1
ACMSTANDARDISO
  2
AcmStandardISO
  3
"Amdt_StdImp|Product Description: AutoCAD Mechanical|Company: Autodesk, Inc."
 90
    33792
280
     0
281
     0
  0
CLASS
  1
AMGOBJPROPCFG
  2
AmgObjPropCfg
  3
"AmgLay|Product Description: AutoCAD Mechanical|Company: Autodesk, Inc."
 90
    33793
280
     0
281
     0
  0
CLASS
  1
AMDTEDGESTANDARDISO
  2
AmdtEdgeStdISO
  3
"Amdt_StdImp|Product Description: AutoCAD Mechanical|Company: Autodesk, Inc."
 90
    33792
280
     0
281
     0
  0
CLASS
  1
ACMSURFSTANDARDISO
  2
AcmSurfTextStdISO
  3
"Amdt_StdImp|Product Description: AutoCAD Mechanical|Company: Autodesk, Inc."
 90
    33792
280
     0
281
     0
  0
CLASS
  1
ACMFCFSTANDARDISO
  2
AcmFCFStdISO
  3
"Amdt_StdImp|Product Description: AutoCAD Mechanical|Company: Autodesk, Inc."
 90
    33792
280
     0
281
     0
  0
CLASS
  1
ACMWELDSTANDARDISO
  2
AcmWeldingStdISO
  3
"Amdt_StdImp|Product Description: AutoCAD Mechanical|Company: Autodesk, Inc."
 90
    33792
280
     0
281
     0
  0
CLASS
  1
ACMIDSTANDARDISO
  2
AcmIdStdISO
  3
"Amdt_StdImp|Product Description: AutoCAD Mechanical|Company: Autodesk, Inc."
 90
    33792
280
     0
281
     0
  0
CLASS
  1
ACMDATUMSTANDARDISO
  2
AcmDatumStdISO
  3
"Amdt_StdImp|Product Description: AutoCAD Mechanical|Company: Autodesk, Inc."
 90
    33792
280
     0
281
     0
  0
CLASS
  1
ACMBOMSTANDARDISO
  2
AcmBOMStdISO
  3
"Amdt_StdImp|Product Description: AutoCAD Mechanical|Company: Autodesk, Inc."
 90
    33792
280
     0
281
     0
  0
CLASS
  1
ACMDETAILSTANDARDISO
  2
AmdtDetailSymStdISO
  3
"Amdt_StdImp|Product Description: AutoCAD Mechanical|Company: Autodesk, Inc."
 90
    33792
280
     0
281
     0
  0
CLASS
  1
ACMSECTIONSTANDARDISO
  2
AmdtSectionSymStdISO
  3
"Amdt_StdImp|Product Description: AutoCAD Mechanical|Company: Autodesk, Inc."
 90
    33792
280
     0
281
     0
  0
CLASS
  1
ACMCENTERLINESTANDARDISO
  2
AmdtCenterLineStdISO
  3
"Amdt_StdImp|Product Description: AutoCAD Mechanical|Company: Autodesk, Inc."
 90
    33792
280
     0
281
     0
  0
CLASS
  1
ACMTHREADLINESTANDARDISO
  2
AmdtThreadLineStdISO
  3
"Amdt_StdImp|Product Description: AutoCAD Mechanical|Company: Autodesk, Inc."
 90
    33792
280
     0
281
     0
  0
CLASS
  1
ACAMGLAYSTD
  2
AcAmgLayStd
  3
"AmgLay|Product Description: AutoCAD Mechanical|Company: Autodesk, Inc."
 90
    33792
280
     0
281
     0
  0
CLASS
  1
ACAMGDIMSTD
  2
AcAmgDimStd
  3
"AmgDim|Product Description: AutoCAD Mechanical|Company: Autodesk, Inc."
 90
    33792
280
     0
281
     0
  0
CLASS
  1
ACAMGTITLESTD
  2
AcAmgTitleStd
  3
"AmgTitle|Product Description: AutoCAD Mechanical|Company: Autodesk, Inc."
 90
    36863
280
     0
281
     0
  0
CLASS
  1
ACAMGFILTERDAT
  2
AcAmgFilterDat
  3
"AcadM|Product Description: AutoCAD Mechanical|Company: Autodesk, Inc."
 90
    33792
280
     0
281
     0
  0
CLASS
  1
AMDTFORMULAUPDATEDISPATCHER
  2
AmdtFormulaUpdateDispatcher
  3
AcMeServices
 90
    33792
280
     0
281
     0
  0
CLASS
  1
LAYER_INDEX
  2
AcDbLayerIndex
  3
ObjectDBX Classes
 90
    32768
280
     0
281
     0
  0
CLASS
  1
IDBUFFER
  2
AcDbIdBuffer
  3
ObjectDBX Classes
 90
    32768
280
     0
281
     0
  0
CLASS
  1
TABLESTYLE
  2
AcDbTableStyle
  3
ObjectDBX Classes
 90
     4095
280
     0
281
     0
  0
CLASS
  1
ACMNOTESTANDARDISO
  2
AmdtNoteStdISO
  3
"Amdt_StdImp|Product Description: AutoCAD Mechanical|Company: Autodesk, Inc."
 90
    33792
280
     0
281
     0
  0
CLASS
  1
AMDTNOTETEMPLATEDB
  2
AmdtNoteTemplateDB
  3
AcmSymBB|Product Description: AutoCAD Mechanical|Company: Autodesk, Inc.
 90
    33792
280
     0
281
     0
  0
CLASS
  1
ACAMEXTERNALCOMPDEF
  2
AcAmExternalCompDef
  3
DesignerAssemblies
 90
    33792
280
     0
281
     0
  0
CLASS
  1
ACCMBODY
  2
AcCmBody
  3
DesignerAssemblies
 90
    33792
280
     0
281
     0
  0
CLASS
  1
ACAMCOMPENT
  2
AcAmCompEnt
  3
DesignerAssemblies
 90
    33792
280
     0
281
     1
  0
CLASS
  1
ACAMCOMPFEEDBACK
  2
AcAmCompFeedback
  3
DesignerAssemblies
 90
    33792
280
     0
281
     0
  0
CLASS
  1
ACAMCOMP
  2
AcAmComp
  3
DesignerAssemblies
 90
    33792
280
     0
281
     0
  0
CLASS
  1
ACAMCOMPENTCLONE
  2
AcAmCompEntClone
  3
DesignerAssemblies
 90
    33792
280
     0
281
     1
  0
CLASS
  1
ACAMCLONEREACTOR
  2
AcAmGrCompCloneReactor
  3
DesignerAssemblies
 90
    33792
280
     0
281
     0
  0
CLASS
  1
EDGEID
  2
AcAdEdgeId
  3
DesignerServices
 90
    33792
280
     0
281
     0
  0
CLASS
  1
ACADPARTLINEDGRES
  2
AcAdPartLinEdgRes
  3
AdGrefServices
 90
    33792
280
     0
281
     0
  0
CLASS
  1
ACRFINSADJ
  2
AcRfInsAdjuster
  3
AcMeServices
 90
    33792
280
     0
281
     0
  0
CLASS
  1
STREFID
  2
AcAdStraightRefId
  3
DesignerServices
 90
    33792
280
     0
281
     0
  0
CLASS
  1
ACMEAXIS
  2
AcImAxisDisplay
  3
AcMeServices
 90
    33792
280
     0
281
     1
  0
CLASS
  1
FACEID
  2
AcAdFaceId
  3
DesignerServices
 90
    33792
280
     0
281
     0
  0
CLASS
  1
DEPEDGESECONDARYDEPID
  2
AcAdDepEdgeSecondaryDepId
  3
DesignerServices
 90
    33792
280
     0
281
     0
  0
CLASS
  1
ACADPARTPLANARFACERES
  2
AcAdPartPlanarFaceRes
  3
AdGrefServices
 90
    33792
280
     0
281
     0
  0
CLASS
  1
ACMEPOINT
  2
AcImPointDisplay
  3
AcMeServices
 90
    33792
280
     0
281
     1
  0
CLASS
  1
ACMELINEARARROW
  2
AcImLinearArrowDisplay
  3
AcMeServices
 90
    33792
280
     0
281
     1
  0
CLASS
  1
ACAMEXPR
  2
AcAmExpr
  3
DesignerAssemblies
 90
    33792
280
     0
281
     0
  0
CLASS
  1
ACCMDISTPLPL
  2
AcCmDistPlPl
  3
DesignerAssemblies
 90
    33792
280
     0
281
     0
  0
CLASS
  1
ACCMCONSTREACTOR
  2
AcCmConstraintReactor
  3
DesignerAssemblies
 90
    33792
280
     0
281
     0
  0
CLASS
  1
ACCMDISTPTLN
  2
AcCmDistPtLn
  3
DesignerAssemblies
 90
    33792
280
     0
281
     0
  0
CLASS
  1
AM_VIEW_SELECT_FILTER
  2
AcDmSelectViewEntFilter
  3
AcMechDwgViewMgmt
 90
    33792
280
     0
281
     0
  0
CLASS
  1
AM_GREF_PLANE
  2
AcDmGrefPlnDef
  3
AcMechDwgViewMgmt
 90
    33792
280
     0
281
     0
  0
CLASS
  1
AM_GREF_AXIS
  2
AcDmGrefAxisDef
  3
AcMechDwgViewMgmt
 90
    33792
280
     0
281
     0
  0
CLASS
  1
AM_BASE_VIEW_ORIENT
  2
AcDmBaseViewOr
  3
AcMechDwgViewMgmt
 90
    33792
280
     0
281
     0
  0
CLASS
  1
AM_DWG_VIEWPORT
  2
AcDmViewport
  3
AcMechDwgViewMgmt
 90
    33792
280
     0
281
     0
  0
CLASS
  1
AM_VIEW_DISPLAY
  2
AcDmDwgViewDisplay
  3
AcMechDwgViewMgmt
 90
    33792
280
     0
281
     0
  0
CLASS
  1
AM_CLDFLTS
  2
AcDmClDflts
  3
AcMechDwgViewMgmt
 90
    33792
280
     0
281
     0
  0
CLASS
  1
AM_BASE_VIEW
  2
AcDmBaseView
  3
AcMechDwgViewMgmt
 90
    33792
280
     0
281
     0
  0
CLASS
  1
ACMEPLINE
  2
AcImPlineDisplay
  3
AcMeServices
 90
    33792
280
     0
281
     1
  0
CLASS
  1
ACDMPARTVIEWDATA
  2
AcDmPartViewData
  3
AcMechDwgViewMgmt
 90
    33792
280
     0
281
     0
  0
CLASS
  1
ACDMDISPLAYATTRIBS
  2
AcDmDisplayAttribs
  3
AcMechDwgViewMgmt
 90
    33792
280
     0
281
     0
  0
CLASS
  1
ACDMBODYINSTANCEDATA
  2
AcDmBodyInstanceData
  3
AcMechDwgViewMgmt
 90
    33792
280
     0
281
     0
  0
CLASS
  1
ACDMVWEDLINE
  2
AcDmViewEdgeLine
  3
AcMechDwgViewMgmt
 90
    33792
280
     0
281
     1
  0
CLASS
  1
ACDMVWEDARC
  2
AcDmViewEdgeArc
  3
AcMechDwgViewMgmt
 90
    33792
280
     0
281
     1
  0
CLASS
  1
AM_ISO_VIEW_ORIENT
  2
AcDmIsoViewOr
  3
AcMechDwgViewMgmt
 90
    33792
280
     0
281
     0
  0
CLASS
  1
AM_ISO_VIEW
  2
AcDmIsoView
  3
AcMechDwgViewMgmt
 90
    33792
280
     0
281
     0
  0
CLASS
  1
AM_ORTHO_VIEW_ORIENT
  2
AcDmOrthoViewOr
  3
AcMechDwgViewMgmt
 90
    33792
280
     0
281
     0
  0
CLASS
  1
AM_ORTHO_VIEW
  2
AcDmOrthoView
  3
AcMechDwgViewMgmt
 90
    33792
280
     0
281
     0
  0
CLASS
  1
ACAMVIEWREACTOR
  2
AcAmViewReactor
  3
DesignerAssemblies
 90
    33792
280
     0
281
     0
  0
CLASS
  1
AMVIEW
  2
AcAmView
  3
DesignerAssemblies
 90
    33792
280
     0
281
     0
  0
CLASS
  1
ACAMVIEWCONTEXT
  2
AcAmViewContext
  3
DesignerAssemblies
 90
    33792
280
     0
281
     0
  0
CLASS
  1
ACAMCOMPENTVIEW
  2
AcAmCompEntView
  3
DesignerAssemblies
 90
    33792
280
     0
281
     1
  0
CLASS
  1
ACAMCOMPVIEWREACTOR
  2
AcAmGrCompViewReactor
  3
DesignerAssemblies
 90
    33792
280
     0
281
     0
  0
CLASS
  1
ACAMVIEWENTITYFILTER
  2
AcAmViewEntityFilter
  3
DesignerAssemblies
 90
    33792
280
     0
281
     0
  0
CLASS
  1
ACDMVWEDCIRC
  2
AcDmViewEdgeCircle
  3
AcMechDwgViewMgmt
 90
    33792
280
     0
281
     1
  0
CLASS
  1
AM_ADCIRCTRLINE
  2
AcAdBullsEyeCl
  3
DesignerServices
 90
    33792
280
     0
281
     0
  0
CLASS
  1
AM_ADLINCTRLINE
  2
AcAdLineCl
  3
DesignerServices
 90
    33792
280
     0
281
     0
  0
CLASS
  1
ACDMVIEWGEOM
  2
AcDmViewGeometry
  3
AcMechDwgViewMgmt
 90
    33792
280
     0
281
     1
  0
CLASS
  1
ACCMDISTLNLN
  2
AcCmDistLnLn
  3
DesignerAssemblies
 90
    33792
280
     0
281
     0
  0
CLASS
  1
ACAMXREFCONTEXTMODELER
  2
AcAmXrefContextModeler
  3
DesignerAssemblies
 90
    33792
280
     0
281
     0
  0
CLASS
  1
CNRREFID
  2
AcAdCornerId
  3
DesignerServices
 90
    33792
280
     0
281
     0
  0
CLASS
  1
ACADPARTPOINTRES
  2
AcAdPartPointRes
  3
AdGrefServices
 90
    33792
280
     0
281
     0
  0
CLASS
  1
AM_VIEWDIMLINEAR
  2
AcDmViewDimLinear
  3
AcMechDwgViewMgmt
 90
    33792
280
     0
281
     0
  0
CLASS
  1
PARAM
  2
AcAdParam
  3
DesignerServices
 90
    33792
280
     0
281
     0
  0
CLASS
  1
SORTENTSTABLE
  2
AcDbSortentsTable
  3
ObjectDBX Classes
 90
    32768
280
     0
281
     0
  0
CLASS
  1
ACADPARTCIRCEDGRES
  2
AcAdPartCircEdgRes
  3
AdGrefServices
 90
    33792
280
     0
281
     0
  0
CLASS
  1
AM_VIEWDIMRADIUS
  2
AcDmViewDimRadius
  3
AcMechDwgViewMgmt
 90
    33792
280
     0
281
     0
  0
CLASS
  1
ACADPARTCYLINDERFACERES
  2
AcAdPartCylinderFaceRes
  3
AdGrefServices
 90
    33792
280
     0
281
     0
  0
CLASS
  1
ACDMVISEDIT
  2
AcDmViewEntityVisEdit
  3
AcMechDwgViewMgmt
 90
    33792
280
     0
281
     0
  0
CLASS
  1
SILEDGEID
  2
AcAdSilhouetteEdgeId
  3
DesignerServices
 90
    33792
280
     0
281
     0
  0
CLASS
  1
CIRREFID
  2
AcAdCircleRefId
  3
DesignerServices
 90
    33792
280
     0
281
     0
  0
CLASS
  1
MATERIAL
  2
AcDbMaterial
  3
ObjectDBX Classes
 90
     1153
280
     0
281
     0
  0
CLASS
  1
VISUALSTYLE
  2
AcDbVisualStyle
  3
ObjectDBX Classes
 90
     4095
280
     0
281
     0
  0
CLASS
  1
SCALE
  2
AcDbScale
  3
ObjectDBX Classes
 90
     1153
280
     0
281
     0
  0
CLASS
  1
MLEADERSTYLE
  2
AcDbMLeaderStyle
  3
ACDB_MLEADERSTYLE_CLASS
 90
     4095
280
     0
281
     0
  0
CLASS
  1
EXACTERMXREFMAP
  2
ExAcTermXrefMap
  3
EXAC_SERVICE
 90
    33793
280
     0
281
     0
  0
CLASS
  1
NPOCOLLECTION
  2
AcDbImpNonPersistentObjectsCollection
  3
ObjectDBX Classes
 90
     1153
280
     0
281
     0
  0
CLASS
  1
ACRFATTGENMGR
  2
AcRfAttGeneralMgr
  3
AcAttribServices
 90
    33792
280
     0
281
     0
  0
CLASS
  1
ACRFOBJATTMGR
  2
AcRfObjAttGroupMgr
  3
AcAttribServices
 90
    33792
280
     0
281
     0
  0
CLASS
  1
ACRFMCADAPIATTHOLDER
  2
AcRfMCADAPIAttHolder
  3
AcAttribServices
 90
    33792
280
     0
281
     0
  0
CLASS
  1
AMDTSYSATTR
  2
AmdtSystemAttribute
  3
AcAttribServices
 90
    33792
280
     0
281
     0
  0
CLASS
  1
ACMTAPERSTANDARDISO
  2
AcmTaperStdISO
  3
"Amdt_StdImp|Product Description: AutoCAD Mechanical|Company: Autodesk, Inc."
 90
    33792
280
     0
281
     0
  0
CLASS
  1
ACMANOOTATIONVIEWSTANDARDISO
  2
AmdtAnViewStdISO
  3
"Amdt_StdImp|Product Description: AutoCAD Mechanical|Company: Autodesk, Inc."
 90
    33792
280
     0
281
     0
  0
CLASS
  1
SOLID_BACKGROUND
  2
AcDbSolidBackground
  3
SCENEOE
 90
     4095
280
     0
281
     0
  0
CLASS
  1
AM_ABS_AXIS
  2
AcDmAbsAxisDef
  3
AcMechDwgViewMgmt
 90
    33792
280
     0
281
     0
  0
CLASS
  1
AM_ABS_PLANE
  2
AcDmAbsPlnDef
  3
AcMechDwgViewMgmt
 90
    33792
280
     0
281
     0
  0
CLASS
  1
CELLSTYLEMAP
  2
AcDbCellStyleMap
  3
ObjectDBX Classes
 90
     1152
280
     0
281
     0
  0
CLASS
  1
MULTILEADER
  2
AcDbMLeader
  3
ACDB_MLEADER_CLASS
 90
     1025
280
     0
281
     1
  0
ENDSEC
  0
SECTION
  2
TABLES
  0
TABLE
  2
VPORT
  5
2A
330
0
100
AcDbSymbolTable
 70
     1
  0
VPORT
  5
6D4
330
2A
100
AcDbSymbolTableRecord
100
AcDbViewportTableRecord
  2
*Active
 70
     0
 10
0.0
 20
0.0
 11
1.0
 21
1.0
 12
-8.103882430154499
 22
-479.8782253613725
 13
0.0
 23
0.0
 14
10.0
 24
10.0
 15
10.0
 25
10.0
 16
0.0
 26
0.0
 36
4865.424457790872
 17
70.8733730905655
 27
681.4534074423292
 37
0.0
 40
1481.087668766847
 41
1.800254452926208
 42
50.0
 43
0.0
 44
0.0
 50
0.0
 51
0.0
 71
     0
 72
  2000
 73
     1
 74
     0
 75
     0
 76
     0
 77
     0
 78
     0
281
     6
 65
     0
110
0.0
120
0.0
130
0.0
111
1.0
121
0.0
131
0.0
112
0.0
122
1.0
132
0.0
 79
     0
146
0.0
  0
ENDTAB
  0
TABLE
  2
LTYPE
  5
25
330
0
100
AcDbSymbolTable
 70
     5
  0
LTYPE
  5
26
330
25
100
AcDbSymbolTableRecord
100
AcDbLinetypeTableRecord
  2
BYBLOCK
 70
     0
  3

 72
    65
 73
     0
 40
0.0
  0
LTYPE
  5
27
330
25
100
AcDbSymbolTableRecord
100
AcDbLinetypeTableRecord
  2
BYLAYER
 70
     0
  3

 72
    65
 73
     0
 40
0.0
  0
LTYPE
  5
14
330
25
100
AcDbSymbolTableRecord
100
AcDbLinetypeTableRecord
  2
CONTINUOUS
 70
     0
  3
Solid line
 72
    65
 73
     0
 40
0.0
  0
LTYPE
  5
D8
330
25
100
AcDbSymbolTableRecord
100
AcDbLinetypeTableRecord
  2
HIDDEN
 70
     0
  3
Hidden __ __ __ __ __ __ __ __ __ __ __ __ __ _
 72
    65
 73
     2
 40
0.375
 49
0.25
 74
     0
 49
-0.125
 74
     0
  0
LTYPE
  5
7B
330
25
100
AcDbSymbolTableRecord
100
AcDbLinetypeTableRecord
  2
AM_ISO08W050
 70
     0
  3
____ . ____ . ____ . ____ . ____ . ____ . ____
 72
    65
 73
     4
 40
18.0
 49
12.0
 74
     0
 49
-1.5
 74
     0
 49
3.0
 74
     0
 49
-1.5
 74
     0
  0
LTYPE
  5
754
330
25
100
AcDbSymbolTableRecord
100
AcDbLinetypeTableRecord
  2
DASHDOT
 70
     0
  3
____ _ ____ _ ____ _ ____ _ ____ _ ____ _ ____
 72
    65
 73
     4
 40
5.5
 49
4.0
 74
     0
 49
-0.6
 74
     0
 49
0.3
 74
     0
 49
-0.6
 74
     0
  0
ENDTAB
  0
TABLE
  2
LAYER
  5
1F
102
{ACAD_XDICTIONARY
360
20
102
}
330
0
100
AcDbSymbolTable
 70
    13
  0
LAYER
  5
5
102
{ACAD_XDICTIONARY
360
6
102
}
330
1F
100
AcDbSymbolTableRecord
100
AcDbLayerTableRecord
  2
0
 70
     0
 62
     7
  6
CONTINUOUS
370
    -3
390
8
  0
LAYER
  5
D5
102
{ACAD_XDICTIONARY
360
D6
102
}
330
1F
100
AcDbSymbolTableRecord
100
AcDbLayerTableRecord
  2
HID
 70
     0
 62
     3
  6
HIDDEN
370
    25
390
8
1001
AcAecLayerStandard
1000

1000

  0
LAYER
  5
67C
330
1F
100
AcDbSymbolTableRecord
100
AcDbLayerTableRecord
  2
Defpoints
 70
     0
 62
     7
  6
CONTINUOUS
290
     0
370
    -3
390
8
  0
LAYER
  5
755
102
{ACAD_XDICTIONARY
360
756
102
}
330
1F
100
AcDbSymbolTableRecord
100
AcDbLayerTableRecord
  2
SIZE
 70
     0
 62
    30
  6
CONTINUOUS
370
    -3
390
8
  0
LAYER
  5
757
102
{ACAD_XDICTIONARY
360
758
102
}
330
1F
100
AcDbSymbolTableRecord
100
AcDbLayerTableRecord
  2
OUTLINE
 70
     0
 62
     3
  6
CONTINUOUS
370
    -3
390
8
  0
LAYER
  5
759
102
{ACAD_XDICTIONARY
360
75A
102
}
330
1F
100
AcDbSymbolTableRecord
100
AcDbLayerTableRecord
  2
DETAIL
 70
     0
 62
     5
  6
CONTINUOUS
370
    -3
390
8
  0
LAYER
  5
75B
102
{ACAD_XDICTIONARY
360
75C
102
}
330
1F
100
AcDbSymbolTableRecord
100
AcDbLayerTableRecord
  2
BASIS
 70
     0
 62
     6
  6
DASHDOT
370
    -3
390
8
  0
LAYER
  5
75D
102
{ACAD_XDICTIONARY
360
75E
102
}
330
1F
100
AcDbSymbolTableRecord
100
AcDbLayerTableRecord
  2
NOTE
 70
     0
 62
     4
  6
CONTINUOUS
370
    -3
390
8
  0
LAYER
  5
75F
102
{ACAD_XDICTIONARY
360
760
102
}
330
1F
100
AcDbSymbolTableRecord
100
AcDbLayerTableRecord
  2
ARRANGE
 70
     0
 62
     1
  6
CONTINUOUS
370
    -3
390
8
  0
LAYER
  5
761
102
{ACAD_XDICTIONARY
360
762
102
}
330
1F
100
AcDbSymbolTableRecord
100
AcDbLayerTableRecord
  2
ETC
 70
     0
 62
    61
  6
CONTINUOUS
370
    -3
390
8
  0
ENDTAB
  0
TABLE
  2
STYLE
  5
22
330
0
100
AcDbSymbolTable
 70
     2
  0
STYLE
  5
23
330
22
100
AcDbSymbolTableRecord
100
AcDbTextStyleTableRecord
  2
STANDARD
 70
     0
 40
0.0
 41
1.0
 50
0.0
 71
     0
 42
62.5215949741746
  3
romans.shx
  4
extfont.shx
  0
STYLE
  5
763
330
22
100
AcDbSymbolTableRecord
100
AcDbTextStyleTableRecord
  2
STANDARD1
 70
     0
 40
0.0
 41
1.0
 50
0.0
 71
     0
 42
3.5
  3
MONOTXT
  4
BIGFONT
  0
ENDTAB
  0
TABLE
  2
VIEW
  5
28
330
0
100
AcDbSymbolTable
 70
     0
  0
ENDTAB
  0
TABLE
  2
UCS
  5
29
330
0
100
AcDbSymbolTable
 70
     0
  0
ENDTAB
  0
TABLE
  2
APPID
  5
2E
330
0
100
AcDbSymbolTable
 70
    10
  0
APPID
  5
2F
330
2E
100
AcDbSymbolTableRecord
100
AcDbRegAppTableRecord
  2
ACAD
 70
     0
  0
APPID
  5
38
330
2E
100
AcDbSymbolTableRecord
100
AcDbRegAppTableRecord
  2
ACAD_DSTYLE_DIMJOGGED_JOGANGLE_SYMBOL
 70
     0
  0
APPID
  5
7C
330
2E
100
AcDbSymbolTableRecord
100
AcDbRegAppTableRecord
  2
AcAecLayerStandard
 70
     0
  0
APPID
  5
1E
330
2E
100
AcDbSymbolTableRecord
100
AcDbRegAppTableRecord
  2
ACAD_PSEXT
 70
     0
  0
APPID
  5
62E
330
2E
100
AcDbSymbolTableRecord
100
AcDbRegAppTableRecord
  2
ACATTRIBSERVICES
 70
     0
  0
APPID
  5
648
330
2E
100
AcDbSymbolTableRecord
100
AcDbRegAppTableRecord
  2
ACAD_MLEADERVER
 70
     0
  0
APPID
  5
652
330
2E
100
AcDbSymbolTableRecord
100
AcDbRegAppTableRecord
  2
ACAD_DSTYLE_DIMJAG
 70
     0
  0
APPID
  5
653
330
2E
100
AcDbSymbolTableRecord
100
AcDbRegAppTableRecord
  2
ACAD_DSTYLE_DIMTALN
 70
     0
  0
APPID
  5
662
330
2E
100
AcDbSymbolTableRecord
100
AcDbRegAppTableRecord
  2
ACAD_DSTYLE_DIMEXT_LENGTH
 70
     0
  0
APPID
  5
CAE
330
2E
100
AcDbSymbolTableRecord
100
AcDbRegAppTableRecord
  2
ACAD_EXEMPT_FROM_CAD_STANDARDS
 70
     0
  0
ENDTAB
  0
TABLE
  2
DIMSTYLE
  5
30
330
0
100
AcDbSymbolTable
 70
     2
100
AcDbDimStyleTable
 71
     1
340
31
  0
DIMSTYLE
105
31
102
{ACAD_REACTORS
330
67B
330
689
330
6A8
330
6B5
330
6C2
102
}
330
30
100
AcDbSymbolTableRecord
100
AcDbDimStyleTableRecord
  2
STANDARD
 70
     0
 40
0.0
 41
2.0
 42
1.0
 43
3.75
 44
1.0
 73
     0
 74
     0
 77
     1
 78
     8
140
2.0
141
2.5
143
0.0394
147
1.0
171
     4
172
     1
173
     1
271
     0
272
     0
273
     8
274
     4
284
     8
340
23
341
32
343
32
344
32
1001
ACAD_DSTYLE_DIMEXT_LENGTH
1070
   378
1040
15.0
1001
ACAD_DSTYLE_DIMJOGGED_JOGANGLE_SYMBOL
1070
   384
1040
1.570796326794896
  0
ENDTAB
  0
TABLE
  2
BLOCK_RECORD
  5
1
330
0
100
AcDbSymbolTable
 70
     9
  0
BLOCK_RECORD
  5
2
102
{ACAD_XDICTIONARY
360
3
102
}
330
1
100
AcDbSymbolTableRecord
100
AcDbBlockTableRecord
  2
*MODEL_SPACE
340
16
  0
BLOCK_RECORD
  5
18
330
1
100
AcDbSymbolTableRecord
100
AcDbBlockTableRecord
  2
*Paper_Space
340
1B
  0
BLOCK_RECORD
  5
32
330
1
100
AcDbSymbolTableRecord
100
AcDbBlockTableRecord
  2
_OPEN30
340
0
102
{BLKREFS
331
CB7
331
CB8
331
CC0
331
CC1
331
CC9
331
CCA
331
CD2
331
CD3
331
CDB
331
CDC
102
}
  0
BLOCK_RECORD
  5
67D
330
1
100
AcDbSymbolTableRecord
100
AcDbBlockTableRecord
  2
*D1
340
0
  0
BLOCK_RECORD
  5
68A
330
1
100
AcDbSymbolTableRecord
100
AcDbBlockTableRecord
  2
*D2
340
0
  0
BLOCK_RECORD
  5
6A9
330
1
100
AcDbSymbolTableRecord
100
AcDbBlockTableRecord
  2
*D3
340
0
  0
BLOCK_RECORD
  5
6B6
330
1
100
AcDbSymbolTableRecord
100
AcDbBlockTableRecord
  2
*D4
340
0
  0
BLOCK_RECORD
  5
6C3
330
1
100
AcDbSymbolTableRecord
100
AcDbBlockTableRecord
  2
*D5
340
0
  0
BLOCK_RECORD
  5
74F
330
1
100
AcDbSymbolTableRecord
100
AcDbBlockTableRecord
  2
_DOTBLANK
340
0
  0
ENDTAB
  0
ENDSEC
  0
SECTION
  2
BLOCKS
  0
BLOCK
  5
4
330
2
100
AcDbEntity
  8
0
100
AcDbBlockBegin
  2
*MODEL_SPACE
 70
     0
 10
0.0
 20
0.0
 30
0.0
  3
*MODEL_SPACE
  1

  0
ENDBLK
  5
15
330
2
100
AcDbEntity
  8
0
100
AcDbBlockEnd
  0
BLOCK
  5
19
330
18
100
AcDbEntity
 67
     1
  8
0
100
AcDbBlockBegin
  2
*Paper_Space
 70
     0
 10
0.0
 20
0.0
 30
0.0
  3
*Paper_Space
  1

  0
ENDBLK
  5
1A
330
18
100
AcDbEntity
 67
     1
  8
0
100
AcDbBlockEnd
  0
BLOCK
  5
33
330
32
100
AcDbEntity
  8
0
100
AcDbBlockBegin
  2
_OPEN30
 70
     0
 10
0.0
 20
0.0
 30
0.0
  3
_OPEN30
  1

  0
LINE
  5
34
330
32
100
AcDbEntity
  8
0
  6
ByBlock
 62
     0
100
AcDbLine
 10
-1.0
 20
0.26794919
 30
0.0
 11
0.0
 21
0.0
 31
0.0
  0
LINE
  5
35
330
32
100
AcDbEntity
  8
0
  6
ByBlock
 62
     0
100
AcDbLine
 10
0.0
 20
0.0
 30
0.0
 11
-1.0
 21
-0.26794919
 31
0.0
  0
LINE
  5
36
330
32
100
AcDbEntity
  8
0
  6
ByBlock
 62
     0
100
AcDbLine
 10
0.0
 20
0.0
 30
0.0
 11
-1.0
 21
0.0
 31
0.0
  0
ENDBLK
  5
37
330
32
100
AcDbEntity
  8
0
100
AcDbBlockEnd
  0
BLOCK
  5
687
330
67D
100
AcDbEntity
  8
0
100
AcDbBlockBegin
  2
*D1
 70
     1
 10
0.0
 20
0.0
 30
0.0
  3
*D1
  1

  0
LINE
  5
CD8
330
67D
100
AcDbEntity
  8
SIZE
 62
     0
370
    -2
100
AcDbLine
 10
-251.8316660116439
 20
670.9286952024082
 30
0.0
 11
-321.8198446889755
 21
670.9286952024083
 31
0.0
  0
LINE
  5
CD9
330
67D
100
AcDbEntity
  8
SIZE
 62
     0
370
    -2
100
AcDbLine
 10
-251.8316660116447
 20
88.92869520240843
 30
0.0
 11
-321.8198446889756
 21
88.92869520240845
 31
0.0
  0
LINE
  5
CDA
330
67D
100
AcDbEntity
  8
SIZE
 62
     0
370
    -2
100
AcDbLine
 10
-316.8198446889755
 20
660.9286952024083
 30
0.0
 11
-316.8198446889757
 21
98.92869520240845
 31
0.0
  0
INSERT
  5
CDB
330
67D
100
AcDbEntity
  8
SIZE
 62
     0
370
    -2
100
AcDbBlockReference
  2
_OPEN30
 10
-316.8198446889755
 20
670.9286952024083
 30
0.0
 41
10.0
 42
10.0
 43
10.0
 50
90.0
  0
INSERT
  5
CDC
330
67D
100
AcDbEntity
  8
SIZE
 62
     0
370
    -2
100
AcDbBlockReference
  2
_OPEN30
 10
-316.8198446889757
 20
88.92869520240845
 30
0.0
 41
10.0
 42
10.0
 43
10.0
 50
270.0
  0
MTEXT
  5
CDD
330
67D
100
AcDbEntity
  8
SIZE
 62
     0
100
AcDbMText
 10
-326.8198446889757
 20
379.9286952024083
 30
0.0
 40
10.0
 41
0.0
 71
     5
 72
     1
  1
\A1;582
 11
0.0000000000000001
 21
1.0
 31
0.0
 73
     1
 44
1.0
1001
ACAD
1000
MTEXTBEGIN
1070
    73
1070
     1
1070
    44
1040
1.0
1070
    74
1070
     0
1000
MTEXTEND
  0
POINT
  5
CDE
330
67D
100
AcDbEntity
  8
Defpoints
 62
     0
100
AcDbPoint
 10
-246.8316660116439
 20
670.9286952024082
 30
0.0
  0
POINT
  5
CDF
330
67D
100
AcDbEntity
  8
Defpoints
 62
     0
100
AcDbPoint
 10
-246.8316660116447
 20
88.92869520240843
 30
0.0
  0
POINT
  5
CE0
330
67D
100
AcDbEntity
  8
Defpoints
 62
     0
100
AcDbPoint
 10
-316.8198446889757
 20
88.92869520240845
 30
0.0
  0
ENDBLK
  5
688
330
67D
100
AcDbEntity
  8
0
100
AcDbBlockEnd
  0
BLOCK
  5
694
330
68A
100
AcDbEntity
  8
0
100
AcDbBlockBegin
  2
*D2
 70
     1
 10
0.0
 20
0.0
 30
0.0
  3
*D2
  1

  0
LINE
  5
CCF
330
68A
100
AcDbEntity
  8
SIZE
 62
     0
370
    -2
100
AcDbLine
 10
-251.831666011645
 20
88.92869520240774
 30
0.0
 11
-321.4484271845805
 21
88.92869520240775
 31
0.0
  0
LINE
  5
CD0
330
68A
100
AcDbEntity
  8
SIZE
 62
     0
370
    -2
100
AcDbLine
 10
-251.8316660116459
 20
-493.0713047975921
 30
0.0
 11
-321.4484271845806
 21
-493.0713047975921
 31
0.0
  0
LINE
  5
CD1
330
68A
100
AcDbEntity
  8
SIZE
 62
     0
370
    -2
100
AcDbLine
 10
-316.4484271845805
 20
78.92869520240775
 30
0.0
 11
-316.4484271845806
 21
-483.0713047975922
 31
0.0
  0
INSERT
  5
CD2
330
68A
100
AcDbEntity
  8
SIZE
 62
     0
370
    -2
100
AcDbBlockReference
  2
_OPEN30
 10
-316.4484271845805
 20
88.92869520240775
 30
0.0
 41
10.0
 42
10.0
 43
10.0
 50
90.0
  0
INSERT
  5
CD3
330
68A
100
AcDbEntity
  8
SIZE
 62
     0
370
    -2
100
AcDbBlockReference
  2
_OPEN30
 10
-316.4484271845806
 20
-493.0713047975921
 30
0.0
 41
10.0
 42
10.0
 43
10.0
 50
270.0
  0
MTEXT
  5
CD4
330
68A
100
AcDbEntity
  8
SIZE
 62
     0
100
AcDbMText
 10
-326.4484271845805
 20
-202.0713047975922
 30
0.0
 40
10.0
 41
0.0
 71
     5
 72
     1
  1
\A1;582
 11
0.0000000000000001
 21
1.0
 31
0.0
 73
     1
 44
1.0
1001
ACAD
1000
MTEXTBEGIN
1070
    73
1070
     1
1070
    44
1040
1.0
1070
    74
1070
     0
1000
MTEXTEND
  0
POINT
  5
CD5
330
68A
100
AcDbEntity
  8
Defpoints
 62
     0
100
AcDbPoint
 10
-246.831666011645
 20
88.92869520240774
 30
0.0
  0
POINT
  5
CD6
330
68A
100
AcDbEntity
  8
Defpoints
 62
     0
100
AcDbPoint
 10
-246.8316660116459
 20
-493.0713047975921
 30
0.0
  0
POINT
  5
CD7
330
68A
100
AcDbEntity
  8
Defpoints
 62
     0
100
AcDbPoint
 10
-316.4484271845806
 20
-493.0713047975921
 30
0.0
  0
ENDBLK
  5
695
330
68A
100
AcDbEntity
  8
0
100
AcDbBlockEnd
  0
BLOCK
  5
6B3
330
6A9
100
AcDbEntity
  8
0
100
AcDbBlockBegin
  2
*D3
 70
     1
 10
0.0
 20
0.0
 30
0.0
  3
*D3
  1

  0
LINE
  5
CC6
330
6A9
100
AcDbEntity
  8
SIZE
 62
     0
370
    -2
100
AcDbLine
 10
-253.8316660114019
 20
702.9344273285071
 30
0.0
 11
-386.6293526675316
 21
702.9344273285072
 31
0.0
  0
LINE
  5
CC7
330
6A9
100
AcDbEntity
  8
SIZE
 62
     0
370
    -2
100
AcDbLine
 10
-259.8316660116459
 20
-508.0713047975923
 30
0.0
 11
-386.6293526675319
 21
-508.0713047975922
 31
0.0
  0
LINE
  5
CC8
330
6A9
100
AcDbEntity
  8
SIZE
 62
     0
370
    -2
100
AcDbLine
 10
-381.6293526675316
 20
692.9344273285072
 30
0.0
 11
-381.6293526675319
 21
-498.0713047975923
 31
0.0
  0
INSERT
  5
CC9
330
6A9
100
AcDbEntity
  8
SIZE
 62
     0
370
    -2
100
AcDbBlockReference
  2
_OPEN30
 10
-381.6293526675316
 20
702.9344273285072
 30
0.0
 41
10.0
 42
10.0
 43
10.0
 50
90.0
  0
INSERT
  5
CCA
330
6A9
100
AcDbEntity
  8
SIZE
 62
     0
370
    -2
100
AcDbBlockReference
  2
_OPEN30
 10
-381.6293526675319
 20
-508.0713047975923
 30
0.0
 41
10.0
 42
10.0
 43
10.0
 50
270.0
  0
MTEXT
  5
CCB
330
6A9
100
AcDbEntity
  8
SIZE
 62
     0
100
AcDbMText
 10
-391.6293526675318
 20
97.43156126545741
 30
0.0
 40
10.0
 41
0.0
 71
     5
 72
     1
  1
\A1;1211
 11
0.0000000000000001
 21
1.0
 31
0.0
 73
     1
 44
1.0
1001
ACAD
1000
MTEXTBEGIN
1070
    73
1070
     1
1070
    44
1040
1.0
1070
    74
1070
     0
1000
MTEXTEND
  0
POINT
  5
CCC
330
6A9
100
AcDbEntity
  8
Defpoints
 62
     0
100
AcDbPoint
 10
-248.8316660114019
 20
702.9344273285071
 30
0.0
  0
POINT
  5
CCD
330
6A9
100
AcDbEntity
  8
Defpoints
 62
     0
100
AcDbPoint
 10
-254.8316660116459
 20
-508.0713047975923
 30
0.0
  0
POINT
  5
CCE
330
6A9
100
AcDbEntity
  8
Defpoints
 62
     0
100
AcDbPoint
 10
-381.6293526675319
 20
-508.0713047975923
 30
0.0
  0
ENDBLK
  5
6B4
330
6A9
100
AcDbEntity
  8
0
100
AcDbBlockEnd
  0
BLOCK
  5
6C0
330
6B6
100
AcDbEntity
  8
0
100
AcDbBlockBegin
  2
*D4
 70
     1
 10
0.0
 20
0.0
 30
0.0
  3
*D4
  1

  0
LINE
  5
CB4
330
6B6
100
AcDbEntity
  8
SIZE
 62
     0
370
    -2
100
AcDbLine
 10
-246.8316660116439
 20
675.9286952024082
 30
0.0
 11
-246.8316660116439
 21
745.0231504202762
 31
0.0
  0
LINE
  5
CB5
330
6B6
100
AcDbEntity
  8
SIZE
 62
     0
370
    -2
100
AcDbLine
 10
511.1683339883557
 20
675.9286952008651
 30
0.0
 11
511.1683339883557
 21
745.0231504202762
 31
0.0
  0
LINE
  5
CB6
330
6B6
100
AcDbEntity
  8
SIZE
 62
     0
370
    -2
100
AcDbLine
 10
-236.8316660116439
 20
740.0231504202762
 30
0.0
 11
501.1683339883557
 21
740.0231504202762
 31
0.0
  0
INSERT
  5
CB7
330
6B6
100
AcDbEntity
  8
SIZE
 62
     0
370
    -2
100
AcDbBlockReference
  2
_OPEN30
 10
-246.8316660116439
 20
740.0231504202762
 30
0.0
 41
10.0
 42
10.0
 43
10.0
 50
180.0
  0
INSERT
  5
CB8
330
6B6
100
AcDbEntity
  8
SIZE
 62
     0
370
    -2
100
AcDbBlockReference
  2
_OPEN30
 10
511.1683339883557
 20
740.0231504202762
 30
0.0
 41
10.0
 42
10.0
 43
10.0
  0
MTEXT
  5
CB9
330
6B6
100
AcDbEntity
  8
SIZE
 62
     0
100
AcDbMText
 10
132.1683339883559
 20
750.0231504202762
 30
0.0
 40
10.0
 41
0.0
 71
     5
 72
     1
  1
\A1;758
 73
     1
 44
1.0
1001
ACAD
1000
MTEXTBEGIN
1070
    73
1070
     1
1070
    44
1040
1.0
1070
    74
1070
     0
1000
MTEXTEND
  0
POINT
  5
CBA
330
6B6
100
AcDbEntity
  8
Defpoints
 62
     0
100
AcDbPoint
 10
-246.8316660116439
 20
670.9286952024082
 30
0.0
  0
POINT
  5
CBB
330
6B6
100
AcDbEntity
  8
Defpoints
 62
     0
100
AcDbPoint
 10
511.1683339883557
 20
670.9286952008651
 30
0.0
  0
POINT
  5
CBC
330
6B6
100
AcDbEntity
  8
Defpoints
 62
     0
100
AcDbPoint
 10
511.1683339883557
 20
740.0231504202762
 30
0.0
  0
ENDBLK
  5
6C1
330
6B6
100
AcDbEntity
  8
0
100
AcDbBlockEnd
  0
BLOCK
  5
6CD
330
6C3
100
AcDbEntity
  8
0
100
AcDbBlockBegin
  2
*D5
 70
     1
 10
0.0
 20
0.0
 30
0.0
  3
*D5
  1

  0
LINE
  5
CBD
330
6C3
100
AcDbEntity
  8
SIZE
 62
     0
370
    -2
100
AcDbLine
 10
-254.8316660116439
 20
698.9286952024076
 30
0.0
 11
-254.8316660116439
 21
784.670495145099
 31
0.0
  0
LINE
  5
CBE
330
6C3
100
AcDbEntity
  8
SIZE
 62
     0
370
    -2
100
AcDbLine
 10
519.1683339883557
 20
698.9286952008642
 30
0.0
 11
519.1683339883557
 21
784.670495145099
 31
0.0
  0
LINE
  5
CBF
330
6C3
100
AcDbEntity
  8
SIZE
 62
     0
370
    -2
100
AcDbLine
 10
-244.8316660116439
 20
779.670495145099
 30
0.0
 11
509.1683339883557
 21
779.670495145099
 31
0.0
  0
INSERT
  5
CC0
330
6C3
100
AcDbEntity
  8
SIZE
 62
     0
370
    -2
100
AcDbBlockReference
  2
_OPEN30
 10
-254.8316660116439
 20
779.670495145099
 30
0.0
 41
10.0
 42
10.0
 43
10.0
 50
180.0
  0
INSERT
  5
CC1
330
6C3
100
AcDbEntity
  8
SIZE
 62
     0
370
    -2
100
AcDbBlockReference
  2
_OPEN30
 10
519.1683339883557
 20
779.670495145099
 30
0.0
 41
10.0
 42
10.0
 43
10.0
  0
MTEXT
  5
CC2
330
6C3
100
AcDbEntity
  8
SIZE
 62
     0
100
AcDbMText
 10
132.1683339883559
 20
789.670495145099
 30
0.0
 40
10.0
 41
0.0
 71
     5
 72
     1
  1
\A1;774
 73
     1
 44
1.0
1001
ACAD
1000
MTEXTBEGIN
1070
    73
1070
     1
1070
    44
1040
1.0
1070
    74
1070
     0
1000
MTEXTEND
  0
POINT
  5
CC3
330
6C3
100
AcDbEntity
  8
Defpoints
 62
     0
100
AcDbPoint
 10
-254.8316660116439
 20
693.9286952024076
 30
0.0
  0
POINT
  5
CC4
330
6C3
100
AcDbEntity
  8
Defpoints
 62
     0
100
AcDbPoint
 10
519.1683339883557
 20
693.9286952008642
 30
0.0
  0
POINT
  5
CC5
330
6C3
100
AcDbEntity
  8
Defpoints
 62
     0
100
AcDbPoint
 10
519.1683339883557
 20
779.670495145099
 30
0.0
  0
ENDBLK
  5
6CE
330
6C3
100
AcDbEntity
  8
0
100
AcDbBlockEnd
  0
BLOCK
  5
750
330
74F
100
AcDbEntity
  8
0
100
AcDbBlockBegin
  2
_DOTBLANK
 70
     0
 10
0.0
 20
0.0
 30
0.0
  3
_DOTBLANK
  1

  0
CIRCLE
  5
751
330
74F
100
AcDbEntity
  8
0
  6
Continuous
 62
     7
100
AcDbCircle
 10
0.0
 20
0.0
 30
0.0
 40
0.5
  0
LINE
  5
752
330
74F
100
AcDbEntity
  8
0
  6
Continuous
 62
     7
100
AcDbLine
 10
-0.5
 20
0.0
 30
0.0
 11
-1.0
 21
0.0
 31
0.0
  0
ENDBLK
  5
753
330
74F
100
AcDbEntity
  8
0
100
AcDbBlockEnd
  0
ENDSEC
  0
SECTION
  2
ENTITIES
  0
LINE
  5
77
330
2
100
AcDbEntity
  8
NOTE
100
AcDbLine
 10
-246.8316660116439
 20
670.9286952024082
 30
0.0
 11
-246.8316660116439
 21
670.9286952024082
 31
0.0
  0
LINE
  5
7D
330
2
100
AcDbEntity
  8
NOTE
100
AcDbLine
 10
-246.8316660116439
 20
670.9286952024082
 30
0.0
 11
-246.8316660116439
 21
670.9286952024082
 31
0.0
  0
LINE
  5
7E
330
2
100
AcDbEntity
  8
NOTE
100
AcDbLine
 10
-253.3316660116438
 20
670.9286952024082
 30
0.0
 11
-246.8316660116439
 21
670.9286952024082
 31
0.0
  0
LINE
  5
7F
330
2
100
AcDbEntity
  8
NOTE
100
AcDbLine
 10
-246.8316660116439
 20
670.9286952024082
 30
0.0
 11
-240.3316660116439
 21
670.9286952024082
 31
0.0
  0
LINE
  5
80
330
2
100
AcDbEntity
  8
NOTE
100
AcDbLine
 10
-246.8316660116439
 20
664.4286952024081
 30
0.0
 11
-246.8316660116439
 21
670.9286952024082
 31
0.0
  0
LINE
  5
81
330
2
100
AcDbEntity
  8
NOTE
100
AcDbLine
 10
-246.8316660116439
 20
670.9286952024082
 30
0.0
 11
-246.8316660116439
 21
677.4286952024082
 31
0.0
  0
LINE
  5
82
330
2
100
AcDbEntity
  8
NOTE
100
AcDbLine
 10
-246.8316660116459
 20
-493.0713047975912
 30
0.0
 11
-246.8316660116459
 21
-493.0713047975912
 31
0.0
  0
LINE
  5
83
330
2
100
AcDbEntity
  8
NOTE
100
AcDbLine
 10
-246.8316660116459
 20
-493.0713047975912
 30
0.0
 11
-246.8316660116459
 21
-493.0713047975912
 31
0.0
  0
LINE
  5
84
330
2
100
AcDbEntity
  8
NOTE
100
AcDbLine
 10
-253.3316660116459
 20
-493.0713047975912
 30
0.0
 11
-246.8316660116459
 21
-493.0713047975912
 31
0.0
  0
LINE
  5
85
330
2
100
AcDbEntity
  8
NOTE
100
AcDbLine
 10
-246.8316660116459
 20
-493.0713047975912
 30
0.0
 11
-240.3316660116459
 21
-493.0713047975912
 31
0.0
  0
LINE
  5
86
330
2
100
AcDbEntity
  8
NOTE
100
AcDbLine
 10
-246.8316660116459
 20
-499.5713047975915
 30
0.0
 11
-246.8316660116459
 21
-493.0713047975912
 31
0.0
  0
LINE
  5
87
330
2
100
AcDbEntity
  8
NOTE
100
AcDbLine
 10
-246.8316660116459
 20
-493.0713047975912
 30
0.0
 11
-246.8316660116459
 21
-486.5713047975915
 31
0.0
  0
LINE
  5
88
330
2
100
AcDbEntity
  8
NOTE
100
AcDbLine
 10
511.1683339883557
 20
670.9286952008651
 30
0.0
 11
511.1683339883557
 21
670.9286952008651
 31
0.0
  0
LINE
  5
89
330
2
100
AcDbEntity
  8
NOTE
100
AcDbLine
 10
511.1683339883557
 20
670.9286952008651
 30
0.0
 11
511.1683339883557
 21
670.9286952008651
 31
0.0
  0
LINE
  5
8A
330
2
100
AcDbEntity
  8
NOTE
100
AcDbLine
 10
504.6683339883556
 20
670.9286952008651
 30
0.0
 11
511.1683339883557
 21
670.9286952008651
 31
0.0
  0
LINE
  5
8B
330
2
100
AcDbEntity
  8
NOTE
100
AcDbLine
 10
511.1683339883557
 20
670.9286952008651
 30
0.0
 11
517.6683339883557
 21
670.9286952008651
 31
0.0
  0
LINE
  5
8C
330
2
100
AcDbEntity
  8
NOTE
100
AcDbLine
 10
511.1683339883557
 20
664.4286952008651
 30
0.0
 11
511.1683339883557
 21
670.9286952008651
 31
0.0
  0
LINE
  5
8D
330
2
100
AcDbEntity
  8
NOTE
100
AcDbLine
 10
511.1683339883557
 20
670.9286952008651
 30
0.0
 11
511.1683339883557
 21
677.4286952008651
 31
0.0
  0
LINE
  5
8E
330
2
100
AcDbEntity
  8
OUTLINE
100
AcDbLine
 10
511.1683339883543
 20
-493.0713047991345
 30
0.0
 11
511.1683339883543
 21
-493.0713047991345
 31
0.0
  0
LINE
  5
8F
330
2
100
AcDbEntity
  8
OUTLINE
100
AcDbLine
 10
511.1683339883543
 20
-493.0713047991345
 30
0.0
 11
511.1683339883543
 21
-493.0713047991345
 31
0.0
  0
LINE
  5
90
330
2
100
AcDbEntity
  8
OUTLINE
100
AcDbLine
 10
504.6683339883543
 20
-493.0713047991345
 30
0.0
 11
511.1683339883543
 21
-493.0713047991345
 31
0.0
  0
LINE
  5
91
330
2
100
AcDbEntity
  8
OUTLINE
100
AcDbLine
 10
511.1683339883543
 20
-493.0713047991345
 30
0.0
 11
517.6683339883543
 21
-493.0713047991345
 31
0.0
  0
LINE
  5
92
330
2
100
AcDbEntity
  8
OUTLINE
100
AcDbLine
 10
511.1683339883543
 20
-499.5713047991348
 30
0.0
 11
511.1683339883543
 21
-493.0713047991345
 31
0.0
  0
LINE
  5
93
330
2
100
AcDbEntity
  8
OUTLINE
100
AcDbLine
 10
511.1683339883543
 20
-493.0713047991345
 30
0.0
 11
511.1683339883543
 21
-486.5713047991348
 31
0.0
  0
LINE
  5
C2
330
2
100
AcDbEntity
  8
NOTE
100
AcDbLine
 10
-257.831666011646
 20
-490.5713047975917
 30
0.0
 11
-250.8316660116463
 21
-490.5713047975915
 31
0.0
  0
LINE
  5
C3
330
2
100
AcDbEntity
  8
NOTE
100
AcDbLine
 10
-246.8316660116447
 20
88.92869520240843
 30
0.0
 11
-246.8316660116447
 21
88.92869520240843
 31
0.0
  0
LINE
  5
C4
330
2
100
AcDbEntity
  8
NOTE
100
AcDbLine
 10
-246.8316660116447
 20
88.92869520240843
 30
0.0
 11
-246.8316660116447
 21
88.92869520240843
 31
0.0
  0
LINE
  5
C5
330
2
100
AcDbEntity
  8
NOTE
100
AcDbLine
 10
-253.3316660116447
 20
88.92869520240843
 30
0.0
 11
-246.8316660116447
 21
88.92869520240843
 31
0.0
  0
LINE
  5
C6
330
2
100
AcDbEntity
  8
NOTE
100
AcDbLine
 10
-246.8316660116447
 20
88.92869520240843
 30
0.0
 11
-240.3316660116447
 21
88.92869520240843
 31
0.0
  0
LINE
  5
C7
330
2
100
AcDbEntity
  8
NOTE
100
AcDbLine
 10
-246.8316660116447
 20
82.42869520240843
 30
0.0
 11
-246.8316660116447
 21
88.92869520240843
 31
0.0
  0
LINE
  5
C8
330
2
100
AcDbEntity
  8
NOTE
100
AcDbLine
 10
-246.8316660116447
 20
88.92869520240843
 30
0.0
 11
-246.8316660116447
 21
95.42869520240843
 31
0.0
  0
LINE
  5
C9
330
2
100
AcDbEntity
  8
OUTLINE
100
AcDbLine
 10
522.1683339883536
 20
-490.5713047991348
 30
0.0
 11
515.1683339883539
 21
-490.5713047991349
 31
0.0
  0
LINE
  5
CA
330
2
100
AcDbEntity
  8
NOTE
100
AcDbLine
 10
511.1683339883548
 20
88.92869520086504
 30
0.0
 11
511.1683339883548
 21
88.92869520086504
 31
0.0
  0
LINE
  5
CB
330
2
100
AcDbEntity
  8
NOTE
100
AcDbLine
 10
511.1683339883548
 20
88.92869520086504
 30
0.0
 11
511.1683339883548
 21
88.92869520086504
 31
0.0
  0
LINE
  5
CC
330
2
100
AcDbEntity
  8
NOTE
100
AcDbLine
 10
504.6683339883547
 20
88.92869520086504
 30
0.0
 11
511.1683339883548
 21
88.92869520086504
 31
0.0
  0
LINE
  5
CD
330
2
100
AcDbEntity
  8
NOTE
100
AcDbLine
 10
511.1683339883548
 20
88.92869520086504
 30
0.0
 11
517.6683339883546
 21
88.92869520086504
 31
0.0
  0
LINE
  5
CE
330
2
100
AcDbEntity
  8
NOTE
100
AcDbLine
 10
511.1683339883548
 20
82.42869520086506
 30
0.0
 11
511.1683339883548
 21
88.92869520086504
 31
0.0
  0
LINE
  5
CF
330
2
100
AcDbEntity
  8
NOTE
100
AcDbLine
 10
511.1683339883548
 20
88.92869520086504
 30
0.0
 11
511.1683339883548
 21
95.42869520086503
 31
0.0
  0
LINE
  5
D0
330
2
100
AcDbEntity
  8
OUTLINE
100
AcDbLine
 10
-254.8316660116443
 20
480.981628842405
 30
0.0
 11
-254.8316660116451
 21
-88.7297988392893
 31
0.0
  0
LINE
  5
D4
330
2
100
AcDbEntity
  8
HID
100
AcDbLine
 10
-239.8316660116443
 20
692.9286952024076
 30
0.0
 11
-239.8316660116443
 21
693.9286952024076
 31
0.0
  0
LINE
  5
D9
330
2
100
AcDbEntity
  8
OUTLINE
100
AcDbLine
 10
-253.8316660116443
 20
480.9816288424044
 30
0.0
 11
-254.8316660116443
 21
480.9816288424044
 31
0.0
  0
LINE
  5
DA
330
2
100
AcDbEntity
  8
OUTLINE
100
AcDbLine
 10
-254.8316660116439
 20
693.9286952024072
 30
0.0
 11
-254.8316660116443
 21
480.9816288424047
 31
0.0
  0
LINE
  5
DB
330
2
100
AcDbEntity
  8
HID
100
AcDbLine
 10
-234.8316660116441
 20
693.9286952024076
 30
0.0
 11
-253.8316660114633
 21
693.9286952024076
 31
0.0
  0
LINE
  5
DC
330
2
100
AcDbEntity
  8
OUTLINE
100
AcDbLine
 10
-253.8316660114633
 20
693.9286952024076
 30
0.0
 11
-254.8316660116441
 21
693.9286952024076
 31
0.0
  0
LINE
  5
DD
330
2
100
AcDbEntity
  8
HID
100
AcDbLine
 10
-239.8316660116439
 20
664.2496615633829
 30
0.0
 11
-251.8316660116438
 21
664.249661563383
 31
0.0
  0
LINE
  5
DE
330
2
100
AcDbEntity
  8
HID
100
AcDbLine
 10
-251.8316660116438
 20
664.2496615633822
 30
0.0
 11
-251.8316660116438
 21
663.5792349444235
 31
0.0
  0
LINE
  5
DF
330
2
100
AcDbEntity
  8
HID
100
AcDbLine
 10
-251.8316660116438
 20
664.2496615633826
 30
0.0
 11
-251.8316660116438
 21
679.0891783828953
 31
0.0
  0
LINE
  5
E0
330
2
100
AcDbEntity
  8
HID
100
AcDbLine
 10
-251.8316660116438
 20
679.0891783828953
 30
0.0
 11
-239.8316660116439
 21
679.0891783828953
 31
0.0
  0
LINE
  5
E1
330
2
100
AcDbEntity
  8
HID
100
AcDbLine
 10
-234.8316660116438
 20
660.5397823585044
 30
0.0
 11
-234.8316660116442
 21
480.9816288424046
 31
0.0
  0
LINE
  5
E2
330
2
100
AcDbEntity
  8
HID
100
AcDbLine
 10
-239.8316660116439
 20
663.5792349444241
 30
0.0
 11
-239.8316660116439
 21
664.2496615633829
 31
0.0
  0
LINE
  5
E3
330
2
100
AcDbEntity
  8
HID
100
AcDbLine
 10
-239.8316660116439
 20
664.2496615633829
 30
0.0
 11
-234.8316660116439
 21
660.5397823585047
 31
0.0
  0
LINE
  5
E4
330
2
100
AcDbEntity
  8
HID
100
AcDbLine
 10
-234.8316660116438
 20
659.869355739546
 30
0.0
 11
-239.8316660116438
 21
663.5792349444241
 31
0.0
  0
LINE
  5
E5
330
2
100
AcDbEntity
  8
HID
100
AcDbLine
 10
-251.8316660116438
 20
663.5792349444241
 30
0.0
 11
-239.8316660116439
 21
663.579234944424
 31
0.0
  0
LINE
  5
E6
330
2
100
AcDbEntity
  8
HID
100
AcDbLine
 10
-239.8316660116439
 20
678.4187517639365
 30
0.0
 11
-251.8316660116438
 21
678.4187517639366
 31
0.0
  0
LINE
  5
E7
330
2
100
AcDbEntity
  8
HID
100
AcDbLine
 10
-234.8316660116438
 20
692.9286952024076
 30
0.0
 11
-253.8316660116438
 21
692.9286952024076
 31
0.0
  0
LINE
  5
E8
330
2
100
AcDbEntity
  8
HID
100
AcDbLine
 10
-234.8316660116438
 20
693.9286952024072
 30
0.0
 11
-234.8316660116438
 21
682.7990575877729
 31
0.0
  0
LINE
  5
E9
330
2
100
AcDbEntity
  8
HID
100
AcDbLine
 10
-239.8316660116439
 20
679.0891783828953
 30
0.0
 11
-239.8316660116438
 21
678.4187517639365
 31
0.0
  0
LINE
  5
EA
330
2
100
AcDbEntity
  8
HID
100
AcDbLine
 10
-234.8316660116441
 20
682.7990575877732
 30
0.0
 11
-239.8316660116439
 21
679.0891783828953
 31
0.0
  0
LINE
  5
EB
330
2
100
AcDbEntity
  8
HID
100
AcDbLine
 10
-234.8316660116441
 20
682.1286309688145
 30
0.0
 11
-234.8316660116441
 21
682.7990575877731
 31
0.0
  0
LINE
  5
EC
330
2
100
AcDbEntity
  8
HID
100
AcDbLine
 10
-239.8316660116439
 20
678.4187517639365
 30
0.0
 11
-234.8316660116438
 21
682.1286309688145
 31
0.0
  0
LINE
  5
ED
330
2
100
AcDbEntity
  8
OUTLINE
100
AcDbLine
 10
-253.8316660116459
 20
-508.0713047975923
 30
0.0
 11
-254.8316660116459
 21
-508.0713047975923
 31
0.0
  0
LINE
  5
EE
330
2
100
AcDbEntity
  8
OUTLINE
100
AcDbLine
 10
-254.8316660116452
 20
-88.72979883928975
 30
0.0
 11
-254.8316660116457
 21
-508.0713047975923
 31
0.0
  0
LINE
  5
EF
330
2
100
AcDbEntity
  8
HID
100
AcDbLine
 10
-234.8316660116452
 20
-88.72979883928968
 30
0.0
 11
-253.831666011765
 21
-88.72979883928968
 31
0.0
  0
LINE
  5
F0
330
2
100
AcDbEntity
  8
OUTLINE
100
AcDbLine
 10
-253.831666011765
 20
-88.72979883928968
 30
0.0
 11
-254.8316660116452
 21
-88.72979883928968
 31
0.0
  0
LINE
  5
F1
330
2
100
AcDbEntity
  8
OUTLINE
100
AcDbLine
 10
-239.8316660116461
 20
-508.0713047975923
 30
0.0
 11
-253.8316660116459
 21
-508.0713047975923
 31
0.0
  0
LINE
  5
F2
330
2
100
AcDbEntity
  8
OUTLINE
100
AcDbLine
 10
-239.8316660116461
 20
-508.0713047975923
 30
0.0
 11
-239.831666011646
 21
-485.5713047975926
 31
0.0
  0
LINE
  5
F3
330
2
100
AcDbEntity
  8
HID
100
AcDbLine
 10
-239.8316660116461
 20
-485.5713047975926
 30
0.0
 11
-239.8316660116445
 21
678.4187517639362
 31
0.0
  0
LINE
  5
F4
330
2
100
AcDbEntity
  8
HID
100
AcDbLine
 10
-239.8316660116443
 20
679.0891783828957
 30
0.0
 11
-239.8316660116442
 21
692.9286952024076
 31
0.0
  0
LINE
  5
F5
330
2
100
AcDbEntity
  8
OUTLINE
100
AcDbLine
 10
-253.8316660116459
 20
-485.5713047975924
 30
0.0
 11
-239.8316660116459
 21
-485.5713047975924
 31
0.0
  0
LINE
  5
F6
330
2
100
AcDbEntity
  8
OUTLINE
100
AcDbLine
 10
-234.8316660116457
 20
-480.5713047975926
 30
0.0
 11
-239.8316660116457
 21
-485.5713047975926
 31
0.0
  0
LINE
  5
F7
330
2
100
AcDbEntity
  8
HID
100
AcDbLine
 10
-234.8316660116452
 20
-88.72979883928975
 30
0.0
 11
-234.8316660116452
 21
-101.7018387680005
 31
0.0
  0
LINE
  5
F8
330
2
100
AcDbEntity
  8
OUTLINE
100
AcDbLine
 10
-234.8316660116452
 20
-103.332040460639
 30
0.0
 11
-234.8316660116459
 21
-480.5713047975924
 31
0.0
  0
LINE
  5
F9
330
2
100
AcDbEntity
  8
HID
100
AcDbLine
 10
-234.8316660116443
 20
476.3723130844621
 30
0.0
 11
-234.8316660116451
 21
-88.72979883928934
 31
0.0
  0
LINE
  5
FA
330
2
100
AcDbEntity
  8
HID
100
AcDbLine
 10
-234.8316660116452
 20
-88.49422695724554
 30
0.0
 11
-253.8316660116452
 21
-88.4942269572455
 31
0.0
  0
LINE
  5
FB
330
2
100
AcDbEntity
  8
OUTLINE
100
AcDbLine
 10
-253.8316660116457
 20
-508.0713047975923
 30
0.0
 11
-253.8316660116457
 21
-485.5713047975924
 31
0.0
  0
LINE
  5
FC
330
2
100
AcDbEntity
  8
HID
100
AcDbLine
 10
-253.8316660116452
 20
-99.11167224377123
 30
0.0
 11
-253.8316660116457
 21
-485.5713047975924
 31
0.0
  0
LINE
  5
FD
330
2
100
AcDbEntity
  8
HID
100
AcDbLine
 10
-234.8316660116443
 20
480.9816288424044
 30
0.0
 11
-253.8316660116443
 21
480.9816288424044
 31
0.0
  0
LINE
  5
FE
330
2
100
AcDbEntity
  8
HID
100
AcDbLine
 10
-234.8316660116441
 20
480.9816288424044
 30
0.0
 11
-234.8316660116442
 21
480.5710384675996
 31
0.0
  0
LINE
  5
FF
330
2
100
AcDbEntity
  8
HID
100
AcDbLine
 10
-234.8316660116443
 20
480.5710384675997
 30
0.0
 11
-253.8316660116443
 21
480.5710384675997
 31
0.0
  0
LINE
  5
100
330
2
100
AcDbEntity
  8
HID
100
AcDbLine
 10
-234.8316660116443
 20
476.3723130844619
 30
0.0
 11
-253.8316660116443
 21
476.3723130844619
 31
0.0
  0
LINE
  5
101
330
2
100
AcDbEntity
  8
HID
100
AcDbLine
 10
-253.8316660116443
 20
475.9847974980098
 30
0.0
 11
-234.8316660116443
 21
475.9847974980098
 31
0.0
  0
LINE
  5
102
330
2
100
AcDbEntity
  8
HID
100
AcDbLine
 10
-254.8316660116457
 20
-475.0713047975922
 30
0.0
 11
-253.8316660116457
 21
-475.0713047975922
 31
0.0
  0
LINE
  5
103
330
2
100
AcDbEntity
  8
HID
100
AcDbLine
 10
-254.8316660116459
 20
-478.0713047975921
 30
0.0
 11
-253.8316660116459
 21
-478.0713047975921
 31
0.0
  0
LINE
  5
104
330
2
100
AcDbEntity
  8
HID
100
AcDbLine
 10
-244.8316660116443
 20
644.216313857041
 30
0.0
 11
-244.8316660116443
 21
643.5458872380821
 31
0.0
  0
LINE
  5
105
330
2
100
AcDbEntity
  8
HID
100
AcDbLine
 10
-240.8316660116443
 20
644.2163138570411
 30
0.0
 11
-240.8316660116443
 21
643.5458872380823
 31
0.0
  0
LINE
  5
106
330
2
100
AcDbEntity
  8
HID
100
AcDbLine
 10
-244.914757479044
 20
518.0804208911848
 30
0.0
 11
-244.914757479044
 21
517.4099942722261
 31
0.0
  0
LINE
  5
107
330
2
100
AcDbEntity
  8
HID
100
AcDbLine
 10
-240.914757479044
 20
518.0804208911848
 30
0.0
 11
-240.914757479044
 21
517.4099942722262
 31
0.0
  0
LINE
  5
108
330
2
100
AcDbEntity
  8
HID
100
AcDbLine
 10
-244.8316660116443
 20
326.1086193755368
 30
0.0
 11
-244.8316660116443
 21
325.7211037890846
 31
0.0
  0
LINE
  5
109
330
2
100
AcDbEntity
  8
HID
100
AcDbLine
 10
-240.8316660116443
 20
326.108619375536
 30
0.0
 11
-240.8316660116443
 21
325.7211037890845
 31
0.0
  0
LINE
  5
10A
330
2
100
AcDbEntity
  8
HID
100
AcDbLine
 10
-244.6641707753445
 20
141.7359890578364
 30
0.0
 11
-244.6641707753445
 21
141.3484734713842
 31
0.0
  0
LINE
  5
10B
330
2
100
AcDbEntity
  8
HID
100
AcDbLine
 10
-240.6641707753445
 20
141.7359890578363
 30
0.0
 11
-240.6641707753445
 21
141.348473471384
 31
0.0
  0
LINE
  5
10C
330
2
100
AcDbEntity
  8
HID
100
AcDbLine
 10
-244.6337615002451
 20
-42.63664125986401
 30
0.0
 11
-244.6337615002451
 21
-43.02415684631625
 31
0.0
  0
LINE
  5
10D
330
2
100
AcDbEntity
  8
HID
100
AcDbLine
 10
-240.6337615002451
 20
-42.63664125986477
 30
0.0
 11
-240.6337615002451
 21
-43.02415684631628
 31
0.0
  0
LINE
  5
10E
330
2
100
AcDbEntity
  8
HID
100
AcDbLine
 10
-240.831666011645
 20
-168.2000319444824
 30
0.0
 11
-240.831666011645
 21
-167.4891154188749
 31
0.0
  0
LINE
  5
10F
330
2
100
AcDbEntity
  8
HID
100
AcDbLine
 10
-244.831666011645
 20
-168.2000319444823
 30
0.0
 11
-244.831666011645
 21
-167.4891154188745
 31
0.0
  0
LINE
  5
110
330
2
100
AcDbEntity
  8
HID
100
AcDbLine
 10
-240.8316660116454
 20
-414.3467716508259
 30
0.0
 11
-240.8316660116454
 21
-413.6358551252223
 31
0.0
  0
LINE
  5
111
330
2
100
AcDbEntity
  8
HID
100
AcDbLine
 10
-244.8316660116454
 20
-414.3467716508311
 30
0.0
 11
-244.8316660116454
 21
-413.6358551252222
 31
0.0
  0
LINE
  5
112
330
2
100
AcDbEntity
  8
HID
100
AcDbLine
 10
-254.8316660116459
 20
-493.0713047975924
 30
0.0
 11
-253.8316660116459
 21
-493.0713047975924
 31
0.0
  0
LINE
  5
113
330
2
100
AcDbEntity
  8
HID
100
AcDbLine
 10
-254.8316660116461
 20
-488.0713047975923
 30
0.0
 11
-253.8316660116464
 21
-488.0713047975923
 31
0.0
  0
ELLIPSE
  5
114
330
2
100
AcDbEntity
  8
OUTLINE
100
AcDbEllipse
 10
-242.8316660116445
 20
326.1086193755361
 30
0.0
 11
-2.0
 21
0.0000000000040477
 31
0.0
210
0.0
220
0.0
230
1.0
 40
0.9218631515885018
 41
0.0000000000003884
 42
6.283185307179973
  0
ELLIPSE
  5
115
330
2
100
AcDbEntity
  8
OUTLINE
100
AcDbEllipse
 10
-242.6641707753447
 20
141.7359890578357
 30
0.0
 11
-2.0
 21
0.0000000000040477
 31
0.0
210
0.0
220
0.0
230
1.0
 40
0.9218631515885018
 41
0.0000000000003884
 42
6.283185307179973
  0
ELLIPSE
  5
116
330
2
100
AcDbEntity
  8
OUTLINE
100
AcDbEllipse
 10
-242.6337615002453
 20
-42.63664125986461
 30
0.0
 11
-2.0
 21
0.0000000000040477
 31
0.0
210
0.0
220
0.0
230
1.0
 40
0.9218631515885018
 41
0.0000000000003804
 42
6.283185307179966
  0
ELLIPSE
  5
117
330
2
100
AcDbEntity
  8
HID
100
AcDbEllipse
 10
-242.9147574790443
 20
518.0804208911856
 30
0.0
 11
-2.0
 21
0.0000000000040482
 31
0.0
210
0.0
220
0.0
230
1.0
 40
0.7419758409756191
 41
0.312266719923263
 42
2.645923455962253
  0
ELLIPSE
  5
118
330
2
100
AcDbEntity
  8
OUTLINE
100
AcDbEllipse
 10
-242.9147574790443
 20
518.0804208911856
 30
0.0
 11
-2.0
 21
0.0000000000040482
 31
0.0
210
0.0
220
0.0
230
1.0
 40
0.7419758409756191
 41
2.645923455962253
 42
6.595452027102846
  0
ELLIPSE
  5
119
330
2
100
AcDbEntity
  8
HID
100
AcDbEllipse
 10
-242.8316660116443
 20
644.2163138570411
 30
0.0
 11
-2.0
 21
0.0000000000040482
 31
0.0
210
0.0
220
0.0
230
1.0
 40
0.7419758409756191
 41
0.4078523445615561
 42
2.73374030903486
  0
ELLIPSE
  5
11A
330
2
100
AcDbEntity
  8
OUTLINE
100
AcDbEllipse
 10
-242.8316660116443
 20
644.2163138570411
 30
0.0
 11
-2.0
 21
0.0000000000040482
 31
0.0
210
0.0
220
0.0
230
1.0
 40
0.7419758409756191
 41
2.733740309034863
 42
6.691037651741139
  0
ELLIPSE
  5
11B
330
2
100
AcDbEntity
  8
OUTLINE
100
AcDbEllipse
 10
-242.8316660116443
 20
643.5458872380824
 30
0.0
 11
2.000000000000643
 21
-0.0000000000040482
 31
0.0
210
0.0
220
0.0
230
1.0
 40
0.7419758409756191
 41
0.2278589501891397
 42
2.913733703406173
  0
ELLIPSE
  5
11C
330
2
100
AcDbEntity
  8
HID
100
AcDbEllipse
 10
-242.8316660116443
 20
643.5458872380824
 30
0.0
 11
2.000000000000643
 21
-0.0000000000040482
 31
0.0
210
0.0
220
0.0
230
1.0
 40
0.7419758409756191
 41
2.913733703406173
 42
6.511044257368722
  0
ELLIPSE
  5
11D
330
2
100
AcDbEntity
  8
OUTLINE
100
AcDbEllipse
 10
-242.9147574790443
 20
517.409994272227
 30
0.0
 11
2.000000000002879
 21
-0.0000000000040482
 31
0.0
210
0.0
220
0.0
230
1.0
 40
0.7419758409756191
 41
0.2278589501904167
 42
2.913733703404685
  0
ELLIPSE
  5
11E
330
2
100
AcDbEntity
  8
HID
100
AcDbEllipse
 10
-242.9147574790443
 20
517.409994272227
 30
0.0
 11
2.000000000002879
 21
-0.0000000000040482
 31
0.0
210
0.0
220
0.0
230
1.0
 40
0.7419758409756191
 41
2.913733703404685
 42
6.51104425737
  0
ARC
  5
11F
330
2
100
AcDbEntity
  8
HID
100
AcDbCircle
 10
-246.8316660116441
 20
670.9286952024076
 30
0.0
 40
3.5
100
AcDbArc
 50
17.80423236128102
 51
352.0295016218551
  0
ARC
  5
120
330
2
100
AcDbEntity
  8
OUTLINE
100
AcDbCircle
 10
-246.8316660116441
 20
670.9286952024076
 30
0.0
 40
3.5
100
AcDbArc
 50
352.0295016218551
 51
17.80423236128102
  0
CIRCLE
  5
121
330
2
100
AcDbEntity
  8
HID
100
AcDbCircle
 10
-246.831666011645
 20
88.92869520240774
 30
0.0
 40
3.5
  0
CIRCLE
  5
122
330
2
100
AcDbEntity
  8
OUTLINE
100
AcDbCircle
 10
-246.8316660116459
 20
-493.0713047975921
 30
0.0
 40
3.5
  0
ELLIPSE
  5
123
330
2
100
AcDbEntity
  8
OUTLINE
100
AcDbEllipse
 10
-242.6337615002453
 20
-43.0241568463167
 30
0.0
 11
1.999999999997605
 21
-0.0000000000040477
 31
0.0
210
0.0
220
0.0
230
1.0
 40
0.921863151588502
 41
0.1052847268074157
 42
3.036307926787481
  0
ELLIPSE
  5
124
330
2
100
AcDbEntity
  8
HID
100
AcDbEllipse
 10
-242.6337615002453
 20
-43.0241568463167
 30
0.0
 11
1.999999999997605
 21
-0.0000000000040477
 31
0.0
210
0.0
220
0.0
230
1.0
 40
0.921863151588502
 41
3.036307926787481
 42
6.388470033986998
  0
ELLIPSE
  5
125
330
2
100
AcDbEntity
  8
OUTLINE
100
AcDbEllipse
 10
-242.6641707753447
 20
141.3484734713836
 30
0.0
 11
1.999999999997653
 21
-0.0000000000040477
 31
0.0
210
0.0
220
0.0
230
1.0
 40
0.921863151588502
 41
0.1052847268077108
 42
3.036307926787228
  0
ELLIPSE
  5
126
330
2
100
AcDbEntity
  8
HID
100
AcDbEllipse
 10
-242.6641707753447
 20
141.3484734713836
 30
0.0
 11
1.999999999997653
 21
-0.0000000000040477
 31
0.0
210
0.0
220
0.0
230
1.0
 40
0.921863151588502
 41
3.036307926787228
 42
6.388470033987292
  0
ELLIPSE
  5
127
330
2
100
AcDbEntity
  8
OUTLINE
100
AcDbEllipse
 10
-242.8316660116445
 20
325.721103789084
 30
0.0
 11
1.999999999997701
 21
-0.0000000000040477
 31
0.0
210
0.0
220
0.0
230
1.0
 40
0.921863151588502
 41
0.1052847268073701
 42
3.036307926787547
  0
ELLIPSE
  5
128
330
2
100
AcDbEntity
  8
HID
100
AcDbEllipse
 10
-242.8316660116445
 20
325.721103789084
 30
0.0
 11
1.999999999997701
 21
-0.0000000000040477
 31
0.0
210
0.0
220
0.0
230
1.0
 40
0.921863151588502
 41
3.036307926787547
 42
6.388470033986942
  0
ELLIPSE
  5
129
330
2
100
AcDbEntity
  8
OUTLINE
100
AcDbEllipse
 10
-242.8316660116452
 20
-168.2000319444822
 30
0.0
 11
-2.0
 21
0.0000000000040461
 31
0.0
210
0.0
220
0.0
230
1.0
 40
0.703276399160996
 41
0.0000000000000198
 42
6.283185307179602
  0
ELLIPSE
  5
12A
330
2
100
AcDbEntity
  8
OUTLINE
100
AcDbEllipse
 10
-242.8316660116452
 20
-167.4891154188738
 30
0.0
 11
2.0
 21
-0.0000000000040461
 31
0.0
210
0.0
220
0.0
230
1.0
 40
0.703276399160996
 41
3.397078903110277
 42
6.027699057664802
  0
ELLIPSE
  5
12B
330
2
100
AcDbEntity
  8
HID
100
AcDbEllipse
 10
-242.8316660116452
 20
-167.4891154188738
 30
0.0
 11
2.0
 21
-0.0000000000040461
 31
0.0
210
0.0
220
0.0
230
1.0
 40
0.703276399160996
 41
6.027699057664802
 42
9.680264210289863
  0
ELLIPSE
  5
12C
330
2
100
AcDbEntity
  8
OUTLINE
100
AcDbEllipse
 10
-242.8316660116457
 20
-414.3467716508307
 30
0.0
 11
-2.0
 21
0.0000000000040461
 31
0.0
210
0.0
220
0.0
230
1.0
 40
0.703276399160996
 41
-0.0000000000000006
 42
6.283185307179584
  0
ELLIPSE
  5
12D
330
2
100
AcDbEntity
  8
OUTLINE
100
AcDbEllipse
 10
-242.8316660116457
 20
-413.6358551252222
 30
0.0
 11
2.0
 21
-0.0000000000040461
 31
0.0
210
0.0
220
0.0
230
1.0
 40
0.703276399160996
 41
3.397078903110595
 42
6.027699057664483
  0
ELLIPSE
  5
12E
330
2
100
AcDbEntity
  8
HID
100
AcDbEllipse
 10
-242.8316660116457
 20
-413.6358551252222
 30
0.0
 11
2.0
 21
-0.0000000000040461
 31
0.0
210
0.0
220
0.0
230
1.0
 40
0.703276399160996
 41
6.027699057664483
 42
9.680264210290179
  0
LINE
  5
12F
330
2
100
AcDbEntity
  8
HID
100
AcDbLine
 10
518.1683339883551
 20
692.9286952008642
 30
0.0
 11
499.1683339883551
 21
692.9286952008642
 31
0.0
  0
LINE
  5
130
330
2
100
AcDbEntity
  8
OUTLINE
100
AcDbLine
 10
519.1683339883548
 20
-88.7297988408315
 30
0.0
 11
519.1683339883542
 21
-508.0713047991355
 31
0.0
  0
LINE
  5
131
330
2
100
AcDbEntity
  8
OUTLINE
100
AcDbLine
 10
518.1683339883543
 20
-485.5713047991356
 30
0.0
 11
518.1683339883541
 21
-508.0713047991356
 31
0.0
  0
LINE
  5
132
330
2
100
AcDbEntity
  8
HID
100
AcDbLine
 10
504.1683339883556
 20
692.9286952008642
 30
0.0
 11
504.1683339883554
 21
679.0891783813519
 31
0.0
  0
LINE
  5
133
330
2
100
AcDbEntity
  8
HID
100
AcDbLine
 10
504.1683339883552
 20
678.4187517623933
 30
0.0
 11
504.1683339883539
 21
-485.5713047991352
 31
0.0
  0
LINE
  5
134
330
2
100
AcDbEntity
  8
OUTLINE
100
AcDbLine
 10
504.1683339883543
 20
-485.5713047991355
 30
0.0
 11
504.168333988354
 21
-508.0713047991356
 31
0.0
  0
LINE
  5
135
330
2
100
AcDbEntity
  8
HID
100
AcDbLine
 10
504.1683339883552
 20
692.9286952008642
 30
0.0
 11
504.168333988355
 21
693.9286952008641
 31
0.0
  0
LINE
  5
136
330
2
100
AcDbEntity
  8
HID
100
AcDbLine
 10
516.1683339883551
 20
678.418751762393
 30
0.0
 11
504.1683339883552
 21
678.4187517623933
 31
0.0
  0
LINE
  5
137
330
2
100
AcDbEntity
  8
HID
100
AcDbLine
 10
504.1683339883552
 20
663.5792349428808
 30
0.0
 11
516.1683339883551
 21
663.5792349428808
 31
0.0
  0
LINE
  5
138
330
2
100
AcDbEntity
  8
HID
100
AcDbLine
 10
516.1683339883551
 20
664.2496615618399
 30
0.0
 11
516.1683339883551
 21
663.579234942881
 31
0.0
  0
LINE
  5
139
330
2
100
AcDbEntity
  8
HID
100
AcDbLine
 10
504.1683339883552
 20
664.2496615618397
 30
0.0
 11
504.1683339883552
 21
663.5792349428808
 31
0.0
  0
LINE
  5
13A
330
2
100
AcDbEntity
  8
HID
100
AcDbLine
 10
504.1683339883546
 20
663.5792349428808
 30
0.0
 11
499.1683339883551
 21
659.8693557380028
 31
0.0
  0
LINE
  5
13B
330
2
100
AcDbEntity
  8
OUTLINE
100
AcDbLine
 10
519.1683339883557
 20
693.9286952008642
 30
0.0
 11
518.1683339885365
 21
693.9286952008642
 31
0.0
  0
LINE
  5
13C
330
2
100
AcDbEntity
  8
HID
100
AcDbLine
 10
518.1683339885365
 20
693.9286952008641
 30
0.0
 11
499.1683339883556
 21
693.9286952008641
 31
0.0
  0
LINE
  5
13D
330
2
100
AcDbEntity
  8
OUTLINE
100
AcDbLine
 10
519.1683339883557
 20
693.9286952008649
 30
0.0
 11
519.1683339883551
 21
480.9816288408629
 31
0.0
  0
LINE
  5
13E
330
2
100
AcDbEntity
  8
HID
100
AcDbLine
 10
499.1683339883556
 20
660.5397823569615
 30
0.0
 11
504.1683339883556
 21
664.2496615618396
 31
0.0
  0
LINE
  5
13F
330
2
100
AcDbEntity
  8
HID
100
AcDbLine
 10
516.1683339883551
 20
664.2496615618396
 30
0.0
 11
504.1683339883552
 21
664.2496615618396
 31
0.0
  0
LINE
  5
140
330
2
100
AcDbEntity
  8
HID
100
AcDbLine
 10
516.1683339883555
 20
679.0891783813519
 30
0.0
 11
516.1683339883553
 21
664.2496615618391
 31
0.0
  0
LINE
  5
141
330
2
100
AcDbEntity
  8
HID
100
AcDbLine
 10
504.1683339883552
 20
679.089178381352
 30
0.0
 11
516.1683339883551
 21
679.0891783813519
 31
0.0
  0
LINE
  5
142
330
2
100
AcDbEntity
  8
HID
100
AcDbLine
 10
499.1683339883556
 20
693.9286952008649
 30
0.0
 11
499.1683339883555
 21
682.7990575862307
 31
0.0
  0
LINE
  5
143
330
2
100
AcDbEntity
  8
HID
100
AcDbLine
 10
504.1683339883552
 20
678.4187517623933
 30
0.0
 11
504.1683339883552
 21
679.089178381352
 31
0.0
  0
LINE
  5
144
330
2
100
AcDbEntity
  8
HID
100
AcDbLine
 10
499.1683339883556
 20
682.1286309672715
 30
0.0
 11
504.1683339883556
 21
678.4187517623933
 31
0.0
  0
LINE
  5
145
330
2
100
AcDbEntity
  8
HID
100
AcDbLine
 10
499.1683339883556
 20
682.7990575862307
 30
0.0
 11
499.1683339883556
 21
682.1286309672321
 31
0.0
  0
LINE
  5
146
330
2
100
AcDbEntity
  8
HID
100
AcDbLine
 10
504.1683339883556
 20
679.089178381352
 30
0.0
 11
499.1683339883556
 21
682.7990575862302
 31
0.0
  0
LINE
  5
147
330
2
100
AcDbEntity
  8
OUTLINE
100
AcDbLine
 10
519.1683339883543
 20
-508.0713047991355
 30
0.0
 11
518.1683339883543
 21
-508.0713047991355
 31
0.0
  0
LINE
  5
148
330
2
100
AcDbEntity
  8
OUTLINE
100
AcDbLine
 10
518.1683339883543
 20
-508.0713047991355
 30
0.0
 11
504.1683339883543
 21
-508.0713047991355
 31
0.0
  0
LINE
  5
149
330
2
100
AcDbEntity
  8
OUTLINE
100
AcDbLine
 10
504.1683339883539
 20
-485.5713047991355
 30
0.0
 11
518.1683339883536
 21
-485.5713047991355
 31
0.0
  0
LINE
  5
14A
330
2
100
AcDbEntity
  8
HID
100
AcDbLine
 10
499.1683339883556
 20
660.5397823569623
 30
0.0
 11
499.1683339883554
 21
480.9816288408629
 31
0.0
  0
LINE
  5
14B
330
2
100
AcDbEntity
  8
HID
100
AcDbLine
 10
518.1683339883543
 20
-99.11167224396244
 30
0.0
 11
518.1683339883536
 21
-485.5713047991356
 31
0.0
  0
LINE
  5
14C
330
2
100
AcDbEntity
  8
OUTLINE
100
AcDbLine
 10
504.1683339883539
 20
-485.5713047991356
 30
0.0
 11
499.168333988354
 21
-480.5713047991355
 31
0.0
  0
LINE
  5
14D
330
2
100
AcDbEntity
  8
HID
100
AcDbLine
 10
518.1683339883546
 20
-88.49422695878608
 30
0.0
 11
499.1683339883548
 21
-88.49422695878606
 31
0.0
  0
LINE
  5
14E
330
2
100
AcDbEntity
  8
HID
100
AcDbLine
 10
499.1683339883548
 20
-88.7297988408315
 30
0.0
 11
499.1683339883548
 21
-101.7018387695186
 31
0.0
  0
LINE
  5
14F
330
2
100
AcDbEntity
  8
OUTLINE
100
AcDbLine
 10
499.1683339883548
 20
-103.3320404608206
 30
0.0
 11
499.1683339883543
 21
-480.5713047991355
 31
0.0
  0
LINE
  5
150
330
2
100
AcDbEntity
  8
OUTLINE
100
AcDbLine
 10
519.1683339883551
 20
480.9816288408621
 30
0.0
 11
518.1683339883551
 21
480.9816288408621
 31
0.0
  0
LINE
  5
151
330
2
100
AcDbEntity
  8
OUTLINE
100
AcDbLine
 10
519.1683339883551
 20
480.9816288408618
 30
0.0
 11
519.1683339883541
 21
-88.72979884083168
 31
0.0
  0
LINE
  5
152
330
2
100
AcDbEntity
  8
OUTLINE
100
AcDbLine
 10
519.1683339883551
 20
-88.72979884083184
 30
0.0
 11
518.168333988236
 21
-88.72979884083184
 31
0.0
  0
LINE
  5
333
330
2
100
AcDbEntity
  8
HID
100
AcDbLine
 10
518.168333988236
 20
-88.72979884083184
 30
0.0
 11
499.1683339883551
 21
-88.72979884083182
 31
0.0
  0
LINE
  5
334
330
2
100
AcDbEntity
  8
HID
100
AcDbLine
 10
499.1683339883548
 20
476.3723130829191
 30
0.0
 11
499.1683339883536
 21
-88.72979884083168
 31
0.0
  0
LINE
  5
335
330
2
100
AcDbEntity
  8
HID
100
AcDbLine
 10
499.1683339883551
 20
480.5710384660589
 30
0.0
 11
499.1683339883551
 21
480.9816288408621
 31
0.0
  0
LINE
  5
336
330
2
100
AcDbEntity
  8
HID
100
AcDbLine
 10
518.1683339883551
 20
480.9816288408621
 30
0.0
 11
499.1683339883551
 21
480.9816288408621
 31
0.0
  0
LINE
  5
337
330
2
100
AcDbEntity
  8
HID
100
AcDbLine
 10
518.1683339883551
 20
480.5710384660569
 30
0.0
 11
499.1683339883551
 21
480.5710384660569
 31
0.0
  0
LINE
  5
338
330
2
100
AcDbEntity
  8
HID
100
AcDbLine
 10
518.1683339883546
 20
476.3723130829196
 30
0.0
 11
499.1683339883548
 21
476.3723130829196
 31
0.0
  0
LINE
  5
339
330
2
100
AcDbEntity
  8
HID
100
AcDbLine
 10
499.1683339883551
 20
475.9847974964674
 30
0.0
 11
518.1683339883551
 21
475.9847974964674
 31
0.0
  0
LINE
  5
33A
330
2
100
AcDbEntity
  8
HID
100
AcDbLine
 10
519.1683339883536
 20
-475.0713047991355
 30
0.0
 11
518.1683339883536
 21
-475.0713047991355
 31
0.0
  0
LINE
  5
33B
330
2
100
AcDbEntity
  8
HID
100
AcDbLine
 10
519.1683339883536
 20
-478.0713047991355
 30
0.0
 11
518.1683339883536
 21
-478.0713047991355
 31
0.0
  0
LINE
  5
33C
330
2
100
AcDbEntity
  8
HID
100
AcDbLine
 10
505.1683339883557
 20
644.2163138554978
 30
0.0
 11
505.1683339883557
 21
643.5458872365391
 31
0.0
  0
LINE
  5
33D
330
2
100
AcDbEntity
  8
HID
100
AcDbLine
 10
509.1683339883557
 20
644.2163138554978
 30
0.0
 11
509.1683339883557
 21
643.5458872365391
 31
0.0
  0
LINE
  5
33E
330
2
100
AcDbEntity
  8
HID
100
AcDbLine
 10
505.168333988356
 20
518.0804208896431
 30
0.0
 11
505.168333988356
 21
517.4099942706845
 31
0.0
  0
LINE
  5
33F
330
2
100
AcDbEntity
  8
HID
100
AcDbLine
 10
509.1683339883561
 20
518.0804208896431
 30
0.0
 11
509.1683339883561
 21
517.4099942706845
 31
0.0
  0
LINE
  5
340
330
2
100
AcDbEntity
  8
HID
100
AcDbLine
 10
505.1683339883552
 20
326.1086193739942
 30
0.0
 11
505.1683339883552
 21
325.7211037875419
 31
0.0
  0
LINE
  5
341
330
2
100
AcDbEntity
  8
HID
100
AcDbLine
 10
509.1683339883552
 20
326.1086193739942
 30
0.0
 11
509.1683339883552
 21
325.7211037875419
 31
0.0
  0
LINE
  5
342
330
2
100
AcDbEntity
  8
HID
100
AcDbLine
 10
505.1683339883547
 20
141.7359890562938
 30
0.0
 11
505.1683339883547
 21
141.3484734698415
 31
0.0
  0
LINE
  5
343
330
2
100
AcDbEntity
  8
HID
100
AcDbLine
 10
509.1683339883547
 20
141.7359890562938
 30
0.0
 11
509.1683339883547
 21
141.3484734698423
 31
0.0
  0
LINE
  5
344
330
2
100
AcDbEntity
  8
HID
100
AcDbLine
 10
505.1683339883547
 20
-42.63664126140635
 30
0.0
 11
505.1683339883547
 21
-43.02415684785859
 31
0.0
  0
LINE
  5
345
330
2
100
AcDbEntity
  8
HID
100
AcDbLine
 10
509.1683339883547
 20
-42.63664126140631
 30
0.0
 11
509.1683339883547
 21
-43.02415684785857
 31
0.0
  0
LINE
  5
346
330
2
100
AcDbEntity
  8
HID
100
AcDbLine
 10
509.1683339883547
 20
-168.2000319460247
 30
0.0
 11
509.1683339883547
 21
-167.4891154204159
 31
0.0
  0
LINE
  5
347
330
2
100
AcDbEntity
  8
HID
100
AcDbLine
 10
505.1683339883547
 20
-168.2000319460247
 30
0.0
 11
505.1683339883547
 21
-167.489115420416
 31
0.0
  0
LINE
  5
348
330
2
100
AcDbEntity
  8
HID
100
AcDbLine
 10
509.1683339883543
 20
-414.3467716523761
 30
0.0
 11
509.1683339883543
 21
-413.6358551267655
 31
0.0
  0
LINE
  5
349
330
2
100
AcDbEntity
  8
HID
100
AcDbLine
 10
505.1683339883543
 20
-414.3467716523741
 30
0.0
 11
505.1683339883543
 21
-413.6358551267655
 31
0.0
  0
LINE
  5
34A
330
2
100
AcDbEntity
  8
HID
100
AcDbLine
 10
519.1683339883543
 20
-488.0713047991355
 30
0.0
 11
518.1683339883543
 21
-488.0713047991355
 31
0.0
  0
LINE
  5
34B
330
2
100
AcDbEntity
  8
HID
100
AcDbLine
 10
519.1683339883536
 20
-493.0713047991355
 30
0.0
 11
518.1683339883536
 21
-493.0713047991355
 31
0.0
  0
ARC
  5
34C
330
2
100
AcDbEntity
  8
OUTLINE
100
AcDbCircle
 10
511.1683339883551
 20
670.9286952008644
 30
0.0
 40
3.5
100
AcDbArc
 50
162.1957676383281
 51
187.9704983777638
  0
ARC
  5
34D
330
2
100
AcDbEntity
  8
HID
100
AcDbCircle
 10
511.1683339883551
 20
670.9286952008644
 30
0.0
 40
3.5
100
AcDbArc
 50
187.9704983777638
 51
162.1957676383281
  0
CIRCLE
  5
34E
330
2
100
AcDbEntity
  8
HID
100
AcDbCircle
 10
511.1683339883548
 20
88.92869520086433
 30
0.0
 40
3.5
  0
CIRCLE
  5
34F
330
2
100
AcDbEntity
  8
OUTLINE
100
AcDbCircle
 10
511.1683339883539
 20
-493.0713047991353
 30
0.0
 40
3.5
  0
ELLIPSE
  5
350
330
2
100
AcDbEntity
  8
OUTLINE
100
AcDbEllipse
 10
507.1683339883557
 20
643.5458872365391
 30
0.0
 11
2.0
 21
-0.0000000000040482
 31
0.0
210
0.0
220
0.0
230
1.0
 40
0.7419758409756165
 41
0.2278589501867191
 42
2.913733703408522
  0
ELLIPSE
  5
351
330
2
100
AcDbEntity
  8
HID
100
AcDbEllipse
 10
507.1683339883557
 20
643.5458872365391
 30
0.0
 11
2.0
 21
-0.0000000000040482
 31
0.0
210
0.0
220
0.0
230
1.0
 40
0.7419758409756165
 41
2.913733703408522
 42
6.511044257366303
  0
ELLIPSE
  5
352
330
2
100
AcDbEntity
  8
OUTLINE
100
AcDbEllipse
 10
507.1683339883551
 20
517.4099942706844
 30
0.0
 11
2.0
 21
-0.0000000000040482
 31
0.0
210
0.0
220
0.0
230
1.0
 40
0.7419758409756165
 41
0.227858950186945
 42
2.913733703408214
  0
ELLIPSE
  5
353
330
2
100
AcDbEntity
  8
HID
100
AcDbEllipse
 10
507.1683339883551
 20
517.4099942706844
 30
0.0
 11
2.0
 21
-0.0000000000040482
 31
0.0
210
0.0
220
0.0
230
1.0
 40
0.7419758409756165
 41
2.913733703408214
 42
6.511044257366527
  0
ELLIPSE
  5
354
330
2
100
AcDbEntity
  8
HID
100
AcDbEllipse
 10
507.1683339883557
 20
518.0804208896431
 30
0.0
 11
-2.0
 21
0.0000000000040482
 31
0.0
210
0.0
220
0.0
230
1.0
 40
0.7419758409756165
 41
0.4078523450187923
 42
2.733740309609383
  0
ELLIPSE
  5
355
330
2
100
AcDbEntity
  8
OUTLINE
100
AcDbEllipse
 10
507.1683339883557
 20
518.0804208896431
 30
0.0
 11
-2.0
 21
0.0000000000040482
 31
0.0
210
0.0
220
0.0
230
1.0
 40
0.7419758409756165
 41
2.733740309609383
 42
6.691037652198377
  0
ELLIPSE
  5
356
330
2
100
AcDbEntity
  8
HID
100
AcDbEllipse
 10
507.1683339883557
 20
644.2163138554978
 30
0.0
 11
-2.0
 21
0.0000000000040482
 31
0.0
210
0.0
220
0.0
230
1.0
 40
0.7419758409756165
 41
0.4078523445274422
 42
2.733740309069299
  0
ELLIPSE
  5
357
330
2
100
AcDbEntity
  8
OUTLINE
100
AcDbEllipse
 10
507.1683339883557
 20
644.2163138554978
 30
0.0
 11
-2.0
 21
0.0000000000040482
 31
0.0
210
0.0
220
0.0
230
1.0
 40
0.7419758409756165
 41
2.733740309069299
 42
6.691037651707026
  0
ELLIPSE
  5
358
330
2
100
AcDbEntity
  8
OUTLINE
100
AcDbEllipse
 10
507.1683339883548
 20
-43.02415684785818
 30
0.0
 11
2.0
 21
-0.0000000000040477
 31
0.0
210
0.0
220
0.0
230
1.0
 40
0.9218631515885004
 41
0.1052847268136186
 42
3.03630792678139
  0
ELLIPSE
  5
359
330
2
100
AcDbEntity
  8
HID
100
AcDbEllipse
 10
507.1683339883548
 20
-43.02415684785818
 30
0.0
 11
2.0
 21
-0.0000000000040477
 31
0.0
210
0.0
220
0.0
230
1.0
 40
0.9218631515885004
 41
3.03630792678139
 42
6.388470033993202
  0
ELLIPSE
  5
35A
330
2
100
AcDbEntity
  8
OUTLINE
100
AcDbEllipse
 10
507.1683339883548
 20
141.3484734698419
 30
0.0
 11
2.0
 21
-0.0000000000040477
 31
0.0
210
0.0
220
0.0
230
1.0
 40
0.9218631515885004
 41
0.1052847268134526
 42
3.036307926781458
  0
ELLIPSE
  5
35B
330
2
100
AcDbEntity
  8
HID
100
AcDbEllipse
 10
507.1683339883548
 20
141.3484734698419
 30
0.0
 11
2.0
 21
-0.0000000000040477
 31
0.0
210
0.0
220
0.0
230
1.0
 40
0.9218631515885004
 41
3.036307926781458
 42
6.388470033993035
  0
ELLIPSE
  5
35C
330
2
100
AcDbEntity
  8
OUTLINE
100
AcDbEllipse
 10
507.1683339883551
 20
325.721103787542
 30
0.0
 11
2.0
 21
-0.0000000000040477
 31
0.0
210
0.0
220
0.0
230
1.0
 40
0.9218631515885004
 41
0.1052847268133776
 42
3.036307926781605
  0
ELLIPSE
  5
35D
330
2
100
AcDbEntity
  8
HID
100
AcDbEllipse
 10
507.1683339883551
 20
325.721103787542
 30
0.0
 11
2.0
 21
-0.0000000000040477
 31
0.0
210
0.0
220
0.0
230
1.0
 40
0.9218631515885004
 41
3.036307926781605
 42
6.388470033992962
  0
ELLIPSE
  5
35E
330
2
100
AcDbEntity
  8
OUTLINE
100
AcDbEllipse
 10
507.1683339883548
 20
-42.6366412614061
 30
0.0
 11
-2.0
 21
0.0000000000040477
 31
0.0
210
0.0
220
0.0
230
1.0
 40
0.9218631515885004
 41
0.0000000000003884
 42
6.283185307179973
  0
ELLIPSE
  5
35F
330
2
100
AcDbEntity
  8
OUTLINE
100
AcDbEllipse
 10
507.1683339883548
 20
141.735989056294
 30
0.0
 11
-2.0
 21
0.0000000000040477
 31
0.0
210
0.0
220
0.0
230
1.0
 40
0.9218631515885004
 41
0.0000000000003884
 42
6.283185307179973
  0
ELLIPSE
  5
360
330
2
100
AcDbEntity
  8
OUTLINE
100
AcDbEllipse
 10
507.1683339883551
 20
326.1086193739942
 30
0.0
 11
-2.0
 21
0.0000000000040477
 31
0.0
210
0.0
220
0.0
230
1.0
 40
0.9218631515885004
 41
0.0000000000003884
 42
6.283185307179973
  0
ELLIPSE
  5
361
330
2
100
AcDbEntity
  8
OUTLINE
100
AcDbEllipse
 10
507.1683339883548
 20
-168.2000319460246
 30
0.0
 11
-2.0
 21
0.0000000000040461
 31
0.0
210
0.0
220
0.0
230
1.0
 40
0.7032763991609987
 41
-0.0000000000000006
 42
6.283185307179584
  0
ELLIPSE
  5
362
330
2
100
AcDbEntity
  8
OUTLINE
100
AcDbEllipse
 10
507.1683339883543
 20
-167.4891154204163
 30
0.0
 11
2.0
 21
-0.0000000000040461
 31
0.0
210
0.0
220
0.0
230
1.0
 40
0.7032763991609987
 41
3.397078903110556
 42
6.027699057664397
  0
ELLIPSE
  5
363
330
2
100
AcDbEntity
  8
HID
100
AcDbEllipse
 10
507.1683339883543
 20
-167.4891154204163
 30
0.0
 11
2.0
 21
-0.0000000000040461
 31
0.0
210
0.0
220
0.0
230
1.0
 40
0.7032763991609987
 41
6.027699057664397
 42
9.680264210290145
  0
ELLIPSE
  5
364
330
2
100
AcDbEntity
  8
OUTLINE
100
AcDbEllipse
 10
507.1683339883543
 20
-414.3467716523741
 30
0.0
 11
-2.0
 21
0.0000000000040461
 31
0.0
210
0.0
220
0.0
230
1.0
 40
0.7032763991609987
 41
-0.0000000000000006
 42
6.283185307179584
  0
ELLIPSE
  5
365
330
2
100
AcDbEntity
  8
OUTLINE
100
AcDbEllipse
 10
507.1683339883539
 20
-413.6358551267658
 30
0.0
 11
2.0
 21
-0.0000000000040461
 31
0.0
210
0.0
220
0.0
230
1.0
 40
0.7032763991609987
 41
3.397078903110681
 42
6.027699057664532
  0
ELLIPSE
  5
366
330
2
100
AcDbEntity
  8
HID
100
AcDbEllipse
 10
507.1683339883539
 20
-413.6358551267658
 30
0.0
 11
2.0
 21
-0.0000000000040461
 31
0.0
210
0.0
220
0.0
230
1.0
 40
0.7032763991609987
 41
6.027699057664532
 42
9.680264210290268
  0
LINE
  5
367
330
2
100
AcDbEntity
  8
OUTLINE
100
AcDbLine
 10
-253.831666011604
 20
464.9145115938051
 30
0.0
 11
-253.8316660117652
 21
-89.26414640442448
 31
0.0
  0
LINE
  5
368
330
2
100
AcDbEntity
  8
OUTLINE
100
AcDbLine
 10
518.1683339882352
 20
-89.26414640461507
 30
0.0
 11
518.1683339883961
 21
464.9145115919671
 31
0.0
  0
LINE
  5
369
330
2
100
AcDbEntity
  8
HID
100
AcDbLine
 10
-253.8316660116006
 20
476.3723130844637
 30
0.0
 11
518.1683339883992
 21
476.3723130842732
 31
0.0
  0
LINE
  5
36A
330
2
100
AcDbEntity
  8
HID
100
AcDbLine
 10
-253.8316660117649
 20
-89.02868627031239
 30
0.0
 11
518.1683339882352
 21
-89.02868627050308
 31
0.0
  0
LINE
  5
36B
330
2
100
AcDbEntity
  8
HID
100
AcDbLine
 10
-248.8316660116004
 20
470.5595792876811
 30
0.0
 11
-253.8316660116005
 21
472.497157219943
 31
0.0
  0
LINE
  5
36C
330
2
100
AcDbEntity
  8
HID
100
AcDbLine
 10
-234.8316660117669
 20
-101.9178462839556
 30
0.0
 11
-234.8316660117671
 21
-102.6286457578281
 31
0.0
  0
LINE
  5
36D
330
2
100
AcDbEntity
  8
HID
100
AcDbLine
 10
-248.8316660117669
 20
-101.9178462839518
 30
0.0
 11
-234.8316660117669
 21
-101.9178462839553
 31
0.0
  0
LINE
  5
36E
330
2
100
AcDbEntity
  8
HID
100
AcDbLine
 10
-248.8316660117669
 20
-101.9178462839522
 30
0.0
 11
-248.8316660117671
 21
-102.6286457578245
 31
0.0
  0
LINE
  5
36F
330
2
100
AcDbEntity
  8
HID
100
AcDbLine
 10
-253.8316660117662
 20
-98.4008727698988
 30
0.0
 11
-248.831666011767
 21
-101.917846283952
 31
0.0
  0
LINE
  5
370
330
2
100
AcDbEntity
  8
HID
100
AcDbLine
 10
-229.8316660117632
 20
-92.67004835254327
 30
0.0
 11
-234.8316660117646
 21
-96.22404572190745
 31
0.0
  0
LINE
  5
371
330
2
100
AcDbEntity
  8
OUTLINE
100
AcDbLine
 10
499.1683339882333
 20
-103.3320404608198
 30
0.0
 11
499.1683339882333
 21
-102.6286457580094
 31
0.0
  0
LINE
  5
372
330
2
100
AcDbEntity
  8
OUTLINE
100
AcDbLine
 10
-234.8316660117671
 20
-103.3320404606379
 30
0.0
 11
499.1683339882327
 21
-103.3320404608193
 31
0.0
  0
LINE
  5
373
330
2
100
AcDbEntity
  8
OUTLINE
100
AcDbLine
 10
-234.8316660117666
 20
-102.6286457578281
 30
0.0
 11
-234.8316660117667
 21
-103.3320404606385
 31
0.0
  0
LINE
  5
374
330
2
100
AcDbEntity
  8
OUTLINE
100
AcDbLine
 10
-248.8316660117669
 20
-102.6286457578245
 30
0.0
 11
-234.8316660117669
 21
-102.6286457578281
 31
0.0
  0
LINE
  5
375
330
2
100
AcDbEntity
  8
OUTLINE
100
AcDbLine
 10
-248.8316660117666
 20
-102.6286457578245
 30
0.0
 11
-253.8316660117661
 21
-99.11167224377123
 31
0.0
  0
LINE
  5
376
330
2
100
AcDbEntity
  8
OUTLINE
100
AcDbLine
 10
-253.831666011765
 20
-89.2641464044245
 30
0.0
 11
-253.8316660117665
 21
-99.11167224377077
 31
0.0
  0
LINE
  5
377
330
2
100
AcDbEntity
  8
OUTLINE
100
AcDbLine
 10
-253.831666011765
 20
-89.26414640442457
 30
0.0
 11
518.1683339882347
 21
-89.26414640461523
 31
0.0
  0
LINE
  5
378
330
2
100
AcDbEntity
  8
OUTLINE
100
AcDbLine
 10
518.1683339882333
 20
-99.11167224396152
 30
0.0
 11
518.1683339882347
 21
-89.26414640461519
 31
0.0
  0
LINE
  5
379
330
2
100
AcDbEntity
  8
HID
100
AcDbLine
 10
499.1683339882333
 20
-101.9178462841366
 30
0.0
 11
513.1683339882333
 21
-101.9178462841401
 31
0.0
  0
LINE
  5
37A
330
2
100
AcDbEntity
  8
HID
100
AcDbLine
 10
499.1683339882327
 20
-102.6286457580094
 30
0.0
 11
499.1683339882333
 21
-101.9178462841369
 31
0.0
  0
LINE
  5
37B
330
2
100
AcDbEntity
  8
OUTLINE
100
AcDbLine
 10
499.1683339882333
 20
-102.6286457580093
 30
0.0
 11
513.1683339882333
 21
-102.6286457580128
 31
0.0
  0
LINE
  5
37C
330
2
100
AcDbEntity
  8
HID
100
AcDbLine
 10
513.1683339882333
 20
-102.6286457580128
 30
0.0
 11
513.1683339882338
 21
-101.9178462841404
 31
0.0
  0
LINE
  5
37D
330
2
100
AcDbEntity
  8
OUTLINE
100
AcDbLine
 10
518.1683339882338
 20
-99.11167224396201
 30
0.0
 11
513.1683339882331
 21
-102.6286457580128
 31
0.0
  0
LINE
  5
37E
330
2
100
AcDbEntity
  8
HID
100
AcDbLine
 10
513.1683339882338
 20
-101.9178462841403
 30
0.0
 11
518.1683339882338
 21
-98.4008727700896
 31
0.0
  0
LINE
  5
37F
330
2
100
AcDbEntity
  8
HID
100
AcDbLine
 10
-229.8316660117635
 20
-91.96665364973242
 30
0.0
 11
-229.8316660117635
 21
-92.67004835254331
 31
0.0
  0
LINE
  5
380
330
2
100
AcDbEntity
  8
HID
100
AcDbLine
 10
-229.8316660117635
 20
-92.67004835254331
 30
0.0
 11
494.1683339882363
 21
-92.67004835272215
 31
0.0
  0
LINE
  5
381
330
2
100
AcDbEntity
  8
HID
100
AcDbLine
 10
499.1683339882333
 20
-101.9178462841367
 30
0.0
 11
499.1683339882337
 21
-101.7018387695198
 31
0.0
  0
LINE
  5
382
330
2
100
AcDbEntity
  8
HID
100
AcDbLine
 10
-234.8316660117669
 20
-101.9178462839553
 30
0.0
 11
499.1683339882331
 21
-101.9178462841366
 31
0.0
  0
LINE
  5
383
330
2
100
AcDbEntity
  8
HID
100
AcDbLine
 10
-234.8316660117666
 20
-101.7018387680015
 30
0.0
 11
-234.8316660117665
 21
-101.9178462839553
 31
0.0
  0
LINE
  5
384
330
2
100
AcDbEntity
  8
HID
100
AcDbLine
 10
-234.8316660117644
 20
-95.52065101909667
 30
0.0
 11
-229.8316660117631
 21
-91.96665364973259
 31
0.0
  0
LINE
  5
385
330
2
100
AcDbEntity
  8
HID
100
AcDbLine
 10
-229.8316660117635
 20
-91.96665364973242
 30
0.0
 11
494.1683339882363
 21
-91.96665364991126
 31
0.0
  0
LINE
  5
386
330
2
100
AcDbEntity
  8
HID
100
AcDbLine
 10
494.1683339882366
 20
-91.96665364991142
 30
0.0
 11
499.1683339882356
 21
-95.520651019278
 31
0.0
  0
LINE
  5
387
330
2
100
AcDbEntity
  8
HID
100
AcDbLine
 10
494.1683339882366
 20
-92.67004835272215
 30
0.0
 11
494.1683339882366
 21
-91.96665364991124
 31
0.0
  0
LINE
  5
388
330
2
100
AcDbEntity
  8
HID
100
AcDbLine
 10
499.1683339882356
 20
-96.22404572208871
 30
0.0
 11
494.1683339882366
 21
-92.67004835272215
 31
0.0
  0
LINE
  5
389
330
2
100
AcDbEntity
  8
HID
100
AcDbLine
 10
-248.8316660116004
 20
471.4814424392693
 30
0.0
 11
-248.8316660116007
 21
470.5595792876811
 31
0.0
  0
LINE
  5
38A
330
2
100
AcDbEntity
  8
HID
100
AcDbLine
 10
-248.8316660116006
 20
470.5595792876811
 30
0.0
 11
-134.8939261387088
 21
470.5595792876528
 31
0.0
  0
LINE
  5
38B
330
2
100
AcDbEntity
  8
OUTLINE
100
AcDbLine
 10
-134.8939261387088
 20
470.5595792876528
 30
0.0
 11
-132.7694058844963
 21
470.5595792876525
 31
0.0
  0
LINE
  5
38C
330
2
100
AcDbEntity
  8
HID
100
AcDbLine
 10
-132.7694058844963
 20
470.5595792876525
 30
0.0
 11
131.1060738612916
 21
470.5595792875873
 31
0.0
  0
LINE
  5
38D
330
2
100
AcDbEntity
  8
OUTLINE
100
AcDbLine
 10
131.1060738612916
 20
470.5595792875873
 30
0.0
 11
133.2305941155034
 21
470.5595792875866
 31
0.0
  0
LINE
  5
38E
330
2
100
AcDbEntity
  8
HID
100
AcDbLine
 10
133.2305941155034
 20
470.5595792875866
 30
0.0
 11
397.1060738612917
 21
470.5595792875215
 31
0.0
  0
LINE
  5
38F
330
2
100
AcDbEntity
  8
OUTLINE
100
AcDbLine
 10
397.1060738612914
 20
470.5595792875215
 30
0.0
 11
399.2305941155036
 21
470.5595792875209
 31
0.0
  0
LINE
  5
390
330
2
100
AcDbEntity
  8
HID
100
AcDbLine
 10
399.2305941155036
 20
470.5595792875209
 30
0.0
 11
513.1683339883992
 21
470.5595792874929
 31
0.0
  0
LINE
  5
391
330
2
100
AcDbEntity
  8
HID
100
AcDbLine
 10
-253.8316660116004
 20
477.6816918225038
 30
0.0
 11
518.1683339883996
 21
477.6816918223131
 31
0.0
  0
LINE
  5
392
330
2
100
AcDbEntity
  8
HID
100
AcDbLine
 10
-253.8316660116006
 20
473.4190203715308
 30
0.0
 11
-248.8316660116006
 21
471.4814424392691
 31
0.0
  0
LINE
  5
393
330
2
100
AcDbEntity
  8
HID
100
AcDbLine
 10
-248.8316660116004
 20
471.4814424392692
 30
0.0
 11
513.1683339883998
 21
471.481442439081
 31
0.0
  0
LINE
  5
394
330
2
100
AcDbEntity
  8
HID
100
AcDbLine
 10
513.1683339883992
 20
470.5595792874929
 30
0.0
 11
513.1683339883997
 21
471.481442439081
 31
0.0
  0
LINE
  5
395
330
2
100
AcDbEntity
  8
HID
100
AcDbLine
 10
518.1683339883992
 20
472.4971572197524
 30
0.0
 11
513.1683339883992
 21
470.5595792874929
 31
0.0
  0
LINE
  5
396
330
2
100
AcDbEntity
  8
HID
100
AcDbLine
 10
513.1683339883992
 20
471.4814424390808
 30
0.0
 11
518.1683339883992
 21
473.4190203713402
 31
0.0
  0
LINE
  5
397
330
2
100
AcDbEntity
  8
HID
100
AcDbLine
 10
-131.8316660116029
 20
468.9974078717261
 30
0.0
 11
-131.8316660116029
 21
469.3849234581777
 31
0.0
  0
LINE
  5
398
330
2
100
AcDbEntity
  8
HID
100
AcDbLine
 10
-135.8316660116029
 20
468.9974078717257
 30
0.0
 11
-135.8316660116029
 21
469.3849234581779
 31
0.0
  0
LINE
  5
399
330
2
100
AcDbEntity
  8
HID
100
AcDbLine
 10
400.1683339883968
 20
468.9974078715941
 30
0.0
 11
400.1683339883968
 21
469.3849234580463
 31
0.0
  0
LINE
  5
39A
330
2
100
AcDbEntity
  8
HID
100
AcDbLine
 10
396.1683339883972
 20
468.9974078715941
 30
0.0
 11
396.1683339883972
 21
469.3849234580465
 31
0.0
  0
LINE
  5
39B
330
2
100
AcDbEntity
  8
HID
100
AcDbLine
 10
130.1683339883968
 20
469.3849234581123
 30
0.0
 11
130.1683339883968
 21
468.9974078716597
 31
0.0
  0
LINE
  5
39C
330
2
100
AcDbEntity
  8
HID
100
AcDbLine
 10
134.1683339883968
 20
469.384923458112
 30
0.0
 11
134.1683339883968
 21
468.9974078716597
 31
0.0
  0
LINE
  5
39D
330
2
100
AcDbEntity
  8
HID
100
AcDbLine
 10
-246.3316660117516
 20
-42.24912567341383
 30
0.0
 11
-246.3316660117516
 21
-42.63664125986488
 31
0.0
  0
LINE
  5
39E
330
2
100
AcDbEntity
  8
HID
100
AcDbLine
 10
-239.3316660117516
 20
-42.24912567341326
 30
0.0
 11
-239.3316660117516
 21
-42.63664125986561
 31
0.0
  0
LINE
  5
39F
330
2
100
AcDbEntity
  8
HID
100
AcDbLine
 10
-246.331666011698
 20
142.1235046442865
 30
0.0
 11
-246.331666011698
 21
141.7359890578348
 31
0.0
  0
LINE
  5
3A0
330
2
100
AcDbEntity
  8
HID
100
AcDbLine
 10
-239.331666011698
 20
142.1235046442864
 30
0.0
 11
-239.331666011698
 21
141.7359890578353
 31
0.0
  0
LINE
  5
3A1
330
2
100
AcDbEntity
  8
HID
100
AcDbLine
 10
-246.3316660116444
 20
326.4961349619869
 30
0.0
 11
-246.3316660116444
 21
326.1086193755359
 31
0.0
  0
LINE
  5
3A2
330
2
100
AcDbEntity
  8
HID
100
AcDbLine
 10
-239.3316660116443
 20
326.4961349619875
 30
0.0
 11
-239.3316660116443
 21
326.1086193755357
 31
0.0
  0
LINE
  5
3A3
330
2
100
AcDbEntity
  8
HID
100
AcDbLine
 10
503.6683339882483
 20
-42.24912567359935
 30
0.0
 11
503.6683339882483
 21
-42.63664126005109
 31
0.0
  0
LINE
  5
3A4
330
2
100
AcDbEntity
  8
HID
100
AcDbLine
 10
510.6683339882484
 20
-42.24912567359942
 30
0.0
 11
510.6683339882484
 21
-42.63664126005049
 31
0.0
  0
LINE
  5
3A5
330
2
100
AcDbEntity
  8
HID
100
AcDbLine
 10
503.6683339883018
 20
142.123504644101
 30
0.0
 11
503.6683339883018
 21
141.7359890576499
 31
0.0
  0
LINE
  5
3A6
330
2
100
AcDbEntity
  8
HID
100
AcDbLine
 10
510.6683339883018
 20
142.1235046441015
 30
0.0
 11
510.6683339883018
 21
141.7359890576499
 31
0.0
  0
LINE
  5
3A7
330
2
100
AcDbEntity
  8
HID
100
AcDbLine
 10
503.6683339883556
 20
326.4961349618014
 30
0.0
 11
503.6683339883556
 21
326.1086193753497
 31
0.0
  0
LINE
  5
3A8
330
2
100
AcDbEntity
  8
HID
100
AcDbLine
 10
510.6683339883557
 20
326.4961349618013
 30
0.0
 11
510.6683339883557
 21
326.1086193753503
 31
0.0
  0
LINE
  5
3A9
330
2
100
AcDbEntity
  8
HID
100
AcDbLine
 10
-131.8316660117659
 20
-96.29809343256136
 30
0.0
 11
-131.8316660117657
 21
-95.58729395868835
 31
0.0
  0
LINE
  5
3AA
330
2
100
AcDbEntity
  8
HID
100
AcDbLine
 10
-135.8316660117659
 20
-96.29809343255841
 30
0.0
 11
-135.8316660117657
 21
-95.58729395868713
 31
0.0
  0
LINE
  5
3AB
330
2
100
AcDbEntity
  8
HID
100
AcDbLine
 10
45.16833398823404
 20
-96.29809343260383
 30
0.0
 11
45.16833398823428
 21
-95.5872939587322
 31
0.0
  0
LINE
  5
3AC
330
2
100
AcDbEntity
  8
HID
100
AcDbLine
 10
41.16833398823405
 20
-96.29809343260244
 30
0.0
 11
41.1683339882343
 21
-95.58729395873092
 31
0.0
  0
LINE
  5
3AD
330
2
100
AcDbEntity
  8
HID
100
AcDbLine
 10
223.1683339882341
 20
-96.29809343264781
 30
0.0
 11
223.1683339882343
 21
-95.58729395877596
 31
0.0
  0
LINE
  5
3AE
330
2
100
AcDbEntity
  8
HID
100
AcDbLine
 10
219.1683339882341
 20
-96.29809343264644
 30
0.0
 11
219.1683339882343
 21
-95.58729395877412
 31
0.0
  0
LINE
  5
3AF
330
2
100
AcDbEntity
  8
HID
100
AcDbLine
 10
400.6683339882338
 20
-96.2980934326918
 30
0.0
 11
400.6683339882341
 21
-95.58729395881984
 31
0.0
  0
LINE
  5
3B0
330
2
100
AcDbEntity
  8
HID
100
AcDbLine
 10
395.6683339882338
 20
-96.29809343269014
 30
0.0
 11
395.6683339882344
 21
-95.58729395881782
 31
0.0
  0
ELLIPSE
  5
3B1
330
2
100
AcDbEntity
  8
HID
100
AcDbEllipse
 10
-133.8316660116031
 20
469.3849234581776
 30
0.0
 11
-2.0
 21
0.0000000000040477
 31
0.0
210
0.0
220
0.0
230
1.0
 40
0.9218631515885022
 41
1.022667086128884
 42
2.118925565053999
  0
ELLIPSE
  5
3B2
330
2
100
AcDbEntity
  8
OUTLINE
100
AcDbEllipse
 10
-133.8316660116031
 20
469.3849234581776
 30
0.0
 11
-2.0
 21
0.0000000000040477
 31
0.0
210
0.0
220
0.0
230
1.0
 40
0.9218631515885022
 41
2.118925565053999
 42
7.305852393308471
  0
ELLIPSE
  5
3B3
330
2
100
AcDbEntity
  8
OUTLINE
100
AcDbEllipse
 10
-133.8316660116029
 20
468.9974078717257
 30
0.0
 11
2.0
 21
-0.0000000000040477
 31
0.0
210
0.0
220
0.0
230
1.0
 40
0.921863151588502
 41
0.105284726813065
 42
3.036307926782423
  0
ELLIPSE
  5
3B4
330
2
100
AcDbEntity
  8
HID
100
AcDbEllipse
 10
-133.8316660116029
 20
468.9974078717257
 30
0.0
 11
2.0
 21
-0.0000000000040477
 31
0.0
210
0.0
220
0.0
230
1.0
 40
0.921863151588502
 41
3.036307926782423
 42
6.388470033992653
  0
ELLIPSE
  5
3B5
330
2
100
AcDbEntity
  8
HID
100
AcDbEllipse
 10
398.1683339883971
 20
469.384923458046
 30
0.0
 11
-2.0
 21
0.0000000000040477
 31
0.0
210
0.0
220
0.0
230
1.0
 40
0.9218631515885022
 41
1.022667090087618
 42
2.118925561095151
  0
ELLIPSE
  5
3B6
330
2
100
AcDbEntity
  8
OUTLINE
100
AcDbEllipse
 10
398.1683339883971
 20
469.384923458046
 30
0.0
 11
-2.0
 21
0.0000000000040477
 31
0.0
210
0.0
220
0.0
230
1.0
 40
0.9218631515885022
 41
2.118925561095152
 42
7.305852397267204
  0
ELLIPSE
  5
3B7
330
2
100
AcDbEntity
  8
OUTLINE
100
AcDbEllipse
 10
398.1683339883971
 20
468.9974078715943
 30
0.0
 11
2.0
 21
-0.0000000000040477
 31
0.0
210
0.0
220
0.0
230
1.0
 40
0.921863151588502
 41
0.1052847268133516
 42
3.036307926781461
  0
ELLIPSE
  5
3B8
330
2
100
AcDbEntity
  8
HID
100
AcDbEllipse
 10
398.1683339883971
 20
468.9974078715943
 30
0.0
 11
2.0
 21
-0.0000000000040477
 31
0.0
210
0.0
220
0.0
230
1.0
 40
0.921863151588502
 41
3.036307926781461
 42
6.388470033992938
  0
ELLIPSE
  5
3B9
330
2
100
AcDbEntity
  8
OUTLINE
100
AcDbEllipse
 10
132.1683339883971
 20
468.9974078716597
 30
0.0
 11
2.0
 21
-0.0000000000040477
 31
0.0
210
0.0
220
0.0
230
1.0
 40
0.921863151588502
 41
0.1052847268133516
 42
3.036307926781721
  0
ELLIPSE
  5
3BA
330
2
100
AcDbEntity
  8
HID
100
AcDbEllipse
 10
132.1683339883971
 20
468.9974078716597
 30
0.0
 11
2.0
 21
-0.0000000000040477
 31
0.0
210
0.0
220
0.0
230
1.0
 40
0.921863151588502
 41
3.036307926781721
 42
6.388470033992938
  0
ELLIPSE
  5
3BB
330
2
100
AcDbEntity
  8
HID
100
AcDbEllipse
 10
132.1683339883968
 20
469.3849234581119
 30
0.0
 11
-2.0
 21
0.0000000000040477
 31
0.0
210
0.0
220
0.0
230
1.0
 40
0.9218631515885022
 41
1.022667088107849
 42
2.11892556307449
  0
ELLIPSE
  5
3BC
330
2
100
AcDbEntity
  8
OUTLINE
100
AcDbEllipse
 10
132.1683339883968
 20
469.3849234581119
 30
0.0
 11
-2.0
 21
0.0000000000040477
 31
0.0
210
0.0
220
0.0
230
1.0
 40
0.9218631515885022
 41
2.11892556307449
 42
7.305852395287435
  0
ELLIPSE
  5
3BD
330
2
100
AcDbEntity
  8
OUTLINE
100
AcDbEllipse
 10
-242.8316660117516
 20
-42.24912567341365
 30
0.0
 11
-3.5
 21
0.0000000000070835
 31
0.0
210
0.0
220
0.0
230
1.0
 40
0.9218631515885023
 41
0.0000000000003884
 42
6.283185307179973
  0
ELLIPSE
  5
3BE
330
2
100
AcDbEntity
  8
OUTLINE
100
AcDbEllipse
 10
-242.8316660117516
 20
-42.63664125986564
 30
0.0
 11
3.5
 21
-0.0000000000070835
 31
0.0
210
0.0
220
0.0
230
1.0
 40
0.921863151588502
 41
0.0600877649823233
 42
3.081504888613042
  0
ELLIPSE
  5
3BF
330
2
100
AcDbEntity
  8
HID
100
AcDbEllipse
 10
-242.8316660117516
 20
-42.63664125986564
 30
0.0
 11
3.5
 21
-0.0000000000070835
 31
0.0
210
0.0
220
0.0
230
1.0
 40
0.921863151588502
 41
3.081504888613042
 42
6.343273072161909
  0
ELLIPSE
  5
3C0
330
2
100
AcDbEntity
  8
OUTLINE
100
AcDbEllipse
 10
-242.8316660116977
 20
142.1235046442867
 30
0.0
 11
-3.5
 21
0.0000000000070835
 31
0.0
210
0.0
220
0.0
230
1.0
 40
0.9218631515885023
 41
0.0000000000003884
 42
6.283185307179973
  0
ELLIPSE
  5
3C1
330
2
100
AcDbEntity
  8
OUTLINE
100
AcDbEllipse
 10
-242.8316660116977
 20
141.7359890578346
 30
0.0
 11
3.5
 21
-0.0000000000070835
 31
0.0
210
0.0
220
0.0
230
1.0
 40
0.921863151588502
 41
0.0600877649821589
 42
3.081504888613143
  0
ELLIPSE
  5
3C2
330
2
100
AcDbEntity
  8
HID
100
AcDbEllipse
 10
-242.8316660116977
 20
141.7359890578346
 30
0.0
 11
3.5
 21
-0.0000000000070835
 31
0.0
210
0.0
220
0.0
230
1.0
 40
0.921863151588502
 41
3.081504888613143
 42
6.343273072161738
  0
ELLIPSE
  5
3C3
330
2
100
AcDbEntity
  8
OUTLINE
100
AcDbEllipse
 10
-242.8316660116443
 20
326.4961349619871
 30
0.0
 11
-3.5
 21
0.0000000000070835
 31
0.0
210
0.0
220
0.0
230
1.0
 40
0.9218631515885023
 41
0.0000000000003884
 42
6.283185307179973
  0
ELLIPSE
  5
3C4
330
2
100
AcDbEntity
  8
OUTLINE
100
AcDbEllipse
 10
-242.8316660116443
 20
326.1086193755351
 30
0.0
 11
3.5
 21
-0.0000000000070835
 31
0.0
210
0.0
220
0.0
230
1.0
 40
0.921863151588502
 41
0.0600877649823532
 42
3.081504888612947
  0
ELLIPSE
  5
3C5
330
2
100
AcDbEntity
  8
HID
100
AcDbEllipse
 10
-242.8316660116443
 20
326.1086193755351
 30
0.0
 11
3.5
 21
-0.0000000000070835
 31
0.0
210
0.0
220
0.0
230
1.0
 40
0.921863151588502
 41
3.081504888612947
 42
6.343273072161937
  0
ELLIPSE
  5
3C6
330
2
100
AcDbEntity
  8
OUTLINE
100
AcDbEllipse
 10
507.1683339882488
 20
-42.24912567359889
 30
0.0
 11
-3.5
 21
0.0000000000070835
 31
0.0
210
0.0
220
0.0
230
1.0
 40
0.9218631515885023
 41
0.0000000000003884
 42
6.283185307179973
  0
ELLIPSE
  5
3C7
330
2
100
AcDbEntity
  8
OUTLINE
100
AcDbEllipse
 10
507.1683339882488
 20
-42.636641260051
 30
0.0
 11
3.5
 21
-0.0000000000070835
 31
0.0
210
0.0
220
0.0
230
1.0
 40
0.921863151588502
 41
0.0600877649821328
 42
3.081504888613001
  0
ELLIPSE
  5
3C8
330
2
100
AcDbEntity
  8
HID
100
AcDbEllipse
 10
507.1683339882488
 20
-42.636641260051
 30
0.0
 11
3.5
 21
-0.0000000000070835
 31
0.0
210
0.0
220
0.0
230
1.0
 40
0.921863151588502
 41
3.081504888613001
 42
6.343273072161717
  0
ELLIPSE
  5
3C9
330
2
100
AcDbEntity
  8
OUTLINE
100
AcDbEllipse
 10
507.1683339883018
 20
142.1235046441015
 30
0.0
 11
-3.5
 21
0.0000000000070835
 31
0.0
210
0.0
220
0.0
230
1.0
 40
0.9218631515885023
 41
0.0000000000003884
 42
6.283185307179973
  0
ELLIPSE
  5
3CA
330
2
100
AcDbEntity
  8
OUTLINE
100
AcDbEllipse
 10
507.1683339883018
 20
141.7359890576494
 30
0.0
 11
3.5
 21
-0.0000000000070835
 31
0.0
210
0.0
220
0.0
230
1.0
 40
0.921863151588502
 41
0.0600877649821552
 42
3.08150488861298
  0
ELLIPSE
  5
3CB
330
2
100
AcDbEntity
  8
HID
100
AcDbEllipse
 10
507.1683339883018
 20
141.7359890576494
 30
0.0
 11
3.5
 21
-0.0000000000070835
 31
0.0
210
0.0
220
0.0
230
1.0
 40
0.921863151588502
 41
3.08150488861298
 42
6.343273072161738
  0
ELLIPSE
  5
3CC
330
2
100
AcDbEntity
  8
OUTLINE
100
AcDbEllipse
 10
507.1683339883557
 20
326.4961349618019
 30
0.0
 11
-3.5
 21
0.0000000000070835
 31
0.0
210
0.0
220
0.0
230
1.0
 40
0.9218631515885023
 41
0.0000000000003884
 42
6.283185307179973
  0
ELLIPSE
  5
3CD
330
2
100
AcDbEntity
  8
OUTLINE
100
AcDbEllipse
 10
507.1683339883557
 20
326.1086193753498
 30
0.0
 11
3.5
 21
-0.0000000000070835
 31
0.0
210
0.0
220
0.0
230
1.0
 40
0.921863151588502
 41
0.0600877649821739
 42
3.081504888612943
  0
ELLIPSE
  5
3CE
330
2
100
AcDbEntity
  8
HID
100
AcDbEllipse
 10
507.1683339883557
 20
326.1086193753498
 30
0.0
 11
3.5
 21
-0.0000000000070835
 31
0.0
210
0.0
220
0.0
230
1.0
 40
0.921863151588502
 41
3.081504888612943
 42
6.34327307216176
  0
ELLIPSE
  5
3CF
330
2
100
AcDbEntity
  8
OUTLINE
100
AcDbEllipse
 10
-133.8316660117661
 20
-96.29809343255931
 30
0.0
 11
-2.0
 21
0.0000000000040463
 31
0.0
210
0.0
220
0.0
230
1.0
 40
0.7033947028104297
 41
-0.0000000000000006
 42
6.283185307179584
  0
ELLIPSE
  5
3D0
330
2
100
AcDbEntity
  8
OUTLINE
100
AcDbEllipse
 10
-133.8316660117659
 20
-95.58729395868693
 30
0.0
 11
2.0
 21
-0.0000000000040463
 31
0.0
210
0.0
220
0.0
230
1.0
 40
0.7033947028104297
 41
3.396991975834984
 42
6.02778598493921
  0
ELLIPSE
  5
3D1
330
2
100
AcDbEntity
  8
HID
100
AcDbEllipse
 10
-133.8316660117659
 20
-95.58729395868693
 30
0.0
 11
2.0
 21
-0.0000000000040463
 31
0.0
210
0.0
220
0.0
230
1.0
 40
0.7033947028104297
 41
6.02778598493921
 42
9.680177283014568
  0
ELLIPSE
  5
3D2
330
2
100
AcDbEntity
  8
OUTLINE
100
AcDbEllipse
 10
43.16833398823383
 20
-96.29809343260307
 30
0.0
 11
-2.0
 21
0.0000000000040463
 31
0.0
210
0.0
220
0.0
230
1.0
 40
0.7033947028104297
 41
-0.0000000000000006
 42
6.283185307179584
  0
ELLIPSE
  5
3D3
330
2
100
AcDbEntity
  8
OUTLINE
100
AcDbEllipse
 10
43.16833398823404
 20
-95.58729395873049
 30
0.0
 11
2.0
 21
-0.0000000000040463
 31
0.0
210
0.0
220
0.0
230
1.0
 40
0.7033947028104297
 41
3.396991975834984
 42
6.02778598493921
  0
ELLIPSE
  5
3D4
330
2
100
AcDbEntity
  8
HID
100
AcDbEllipse
 10
43.16833398823404
 20
-95.58729395873049
 30
0.0
 11
2.0
 21
-0.0000000000040463
 31
0.0
210
0.0
220
0.0
230
1.0
 40
0.7033947028104297
 41
6.02778598493921
 42
9.680177283014561
  0
ELLIPSE
  5
3D5
330
2
100
AcDbEntity
  8
OUTLINE
100
AcDbEllipse
 10
221.1683339882338
 20
-96.29809343264696
 30
0.0
 11
-2.0
 21
0.0000000000040463
 31
0.0
210
0.0
220
0.0
230
1.0
 40
0.7033947028104297
 41
-0.0000000000000006
 42
6.283185307179584
  0
ELLIPSE
  5
3D6
330
2
100
AcDbEntity
  8
OUTLINE
100
AcDbEllipse
 10
221.1683339882341
 20
-95.58729395877449
 30
0.0
 11
2.0
 21
-0.0000000000040463
 31
0.0
210
0.0
220
0.0
230
1.0
 40
0.7033947028104297
 41
3.396991975835002
 42
6.027785984939201
  0
ELLIPSE
  5
3D7
330
2
100
AcDbEntity
  8
HID
100
AcDbEllipse
 10
221.1683339882341
 20
-95.58729395877449
 30
0.0
 11
2.0
 21
-0.0000000000040463
 31
0.0
210
0.0
220
0.0
230
1.0
 40
0.7033947028104297
 41
6.027785984939201
 42
9.680177283014588
  0
ELLIPSE
  5
3D8
330
2
100
AcDbEntity
  8
OUTLINE
100
AcDbEllipse
 10
398.1683339882338
 20
-96.29809343269073
 30
0.0
 11
-2.5
 21
0.0000000000050579
 31
0.0
210
0.0
220
0.0
230
1.0
 40
0.7033947028104297
 41
-0.0000000000000006
 42
6.283185307179584
  0
ELLIPSE
  5
3D9
330
2
100
AcDbEntity
  8
OUTLINE
100
AcDbEllipse
 10
398.1683339882343
 20
-95.58729395881822
 30
0.0
 11
2.5
 21
-0.0000000000050579
 31
0.0
210
0.0
220
0.0
230
1.0
 40
0.7033947028104297
 41
3.345099901584422
 42
6.079678059189487
  0
ELLIPSE
  5
3DA
330
2
100
AcDbEntity
  8
HID
100
AcDbEllipse
 10
398.1683339882343
 20
-95.58729395881822
 30
0.0
 11
2.5
 21
-0.0000000000050579
 31
0.0
210
0.0
220
0.0
230
1.0
 40
0.7033947028104297
 41
6.079678059189487
 42
9.628285208764008
  0
LINE
  5
3DB
330
2
100
AcDbEntity
  8
HID
100
AcDbLine
 10
-253.8316660114608
 20
693.9286952024388
 30
0.0
 11
518.1683339885392
 21
693.9286952008761
 31
0.0
  0
LINE
  5
3DC
330
2
100
AcDbEntity
  8
HID
100
AcDbLine
 10
-253.831666011421
 20
693.9344276484181
 30
0.0
 11
518.168333988579
 21
693.9344276468553
 31
0.0
  0
LINE
  5
3DD
330
2
100
AcDbEntity
  8
OUTLINE
100
AcDbLine
 10
-253.8316660114208
 20
694.9341609874782
 30
0.0
 11
-253.8316660114595
 21
694.9285767788632
 31
0.0
  0
LINE
  5
3DE
330
2
100
AcDbEntity
  8
OUTLINE
100
AcDbLine
 10
518.1683339885402
 20
694.9285767773009
 30
0.0
 11
518.1683339885791
 21
694.9341609859157
 31
0.0
  0
LINE
  5
3DF
330
2
100
AcDbEntity
  8
OUTLINE
100
AcDbLine
 10
-253.8316660114595
 20
694.9285767788643
 30
0.0
 11
-253.8316660122566
 21
479.2855904243483
 31
0.0
  0
LINE
  5
3E0
330
2
100
AcDbEntity
  8
OUTLINE
100
AcDbLine
 10
-253.8316660114595
 20
694.9285767788643
 30
0.0
 11
518.1683339885405
 21
694.9285767773018
 31
0.0
  0
LINE
  5
3E1
330
2
100
AcDbEntity
  8
OUTLINE
100
AcDbLine
 10
518.1683339877431
 20
479.2855904227858
 30
0.0
 11
518.1683339885402
 21
694.9285767773018
 31
0.0
  0
LINE
  5
3E2
330
2
100
AcDbEntity
  8
OUTLINE
100
AcDbLine
 10
-253.8316660122569
 20
479.2855904243483
 30
0.0
 11
-253.831666012296
 21
465.2960289466093
 31
0.0
  0
LINE
  5
3E3
330
2
100
AcDbEntity
  8
OUTLINE
100
AcDbLine
 10
-253.8316660122569
 20
479.2855904243482
 30
0.0
 11
518.1683339877431
 21
479.2855904227855
 31
0.0
  0
LINE
  5
3E4
330
2
100
AcDbEntity
  8
OUTLINE
100
AcDbLine
 10
518.168333987704
 20
465.2960289450468
 30
0.0
 11
518.1683339877432
 21
479.2855904227856
 31
0.0
  0
LINE
  5
3E5
330
2
100
AcDbEntity
  8
OUTLINE
100
AcDbLine
 10
-253.8316660114128
 20
697.9344275062393
 30
0.0
 11
-253.8316660114147
 21
697.9341608808447
 31
0.0
  0
LINE
  5
3E6
330
2
100
AcDbEntity
  8
OUTLINE
100
AcDbLine
 10
-248.8316660114024
 20
702.9344273285066
 30
0.0
 11
-253.831666011413
 21
697.9344275062389
 31
0.0
  0
LINE
  5
3E7
330
2
100
AcDbEntity
  8
OUTLINE
100
AcDbLine
 10
-248.8316660114047
 20
702.934160703112
 30
0.0
 11
-248.8316660114028
 21
702.9344273285063
 31
0.0
  0
LINE
  5
3E8
330
2
100
AcDbEntity
  8
OUTLINE
100
AcDbLine
 10
-248.8316660114028
 20
702.9344273285071
 30
0.0
 11
513.168333988597
 21
702.9344273269647
 31
0.0
  0
LINE
  5
3E9
330
2
100
AcDbEntity
  8
OUTLINE
100
AcDbLine
 10
518.168333988579
 20
694.9341609859167
 30
0.0
 11
518.1683339885847
 21
697.9341608792822
 31
0.0
  0
LINE
  5
3EA
330
2
100
AcDbEntity
  8
OUTLINE
100
AcDbLine
 10
-253.8316660114208
 20
694.9341609874792
 30
0.0
 11
518.1683339885791
 21
694.9341609859167
 31
0.0
  0
LINE
  5
3EB
330
2
100
AcDbEntity
  8
OUTLINE
100
AcDbLine
 10
-253.8316660114146
 20
697.9341608808447
 30
0.0
 11
-253.8316660114207
 21
694.9341609874792
 31
0.0
  0
LINE
  5
3EC
330
2
100
AcDbEntity
  8
OUTLINE
100
AcDbLine
 10
-253.8316660114146
 20
697.9341608808447
 30
0.0
 11
-248.8316660114045
 21
702.9341607031117
 31
0.0
  0
LINE
  5
3ED
330
2
100
AcDbEntity
  8
OUTLINE
100
AcDbLine
 10
-248.8316660114047
 20
702.934160703112
 30
0.0
 11
513.1683339885952
 21
702.9341607015695
 31
0.0
  0
LINE
  5
3EE
330
2
100
AcDbEntity
  8
OUTLINE
100
AcDbLine
 10
518.1683339885847
 20
697.9341608792821
 30
0.0
 11
518.1683339885867
 21
697.9344275046765
 31
0.0
  0
LINE
  5
3EF
330
2
100
AcDbEntity
  8
OUTLINE
100
AcDbLine
 10
513.1683339885958
 20
702.9341607015695
 30
0.0
 11
518.1683339885856
 21
697.9341608792821
 31
0.0
  0
LINE
  5
3F0
330
2
100
AcDbEntity
  8
OUTLINE
100
AcDbLine
 10
513.168333988597
 20
702.9344273269638
 30
0.0
 11
513.1683339885952
 21
702.9341607015695
 31
0.0
  0
LINE
  5
3F1
330
2
100
AcDbEntity
  8
OUTLINE
100
AcDbLine
 10
518.1683339885867
 20
697.9344275046766
 30
0.0
 11
513.1683339885959
 21
702.9344273269644
 31
0.0
  0
LINE
  5
3F2
330
2
100
AcDbEntity
  8
OUTLINE
100
AcDbLine
 10
518.1683339877045
 20
464.9145115919668
 30
0.0
 11
518.1683339877036
 21
465.2960289450468
 31
0.0
  0
LINE
  5
3F3
330
2
100
AcDbEntity
  8
OUTLINE
100
AcDbLine
 10
518.168333987704
 20
465.296028945047
 30
0.0
 11
513.1683339876911
 21
460.6852295122012
 31
0.0
  0
LINE
  5
3F4
330
2
100
AcDbEntity
  8
HID
100
AcDbLine
 10
513.1683339876921
 20
460.2984205883138
 30
0.0
 11
518.1683339877052
 21
464.9092200211592
 31
0.0
  0
LINE
  5
3F5
330
2
100
AcDbEntity
  8
HID
100
AcDbLine
 10
-253.8316660122564
 20
478.7416183212882
 30
0.0
 11
518.1683339877436
 21
478.7416183197255
 31
0.0
  0
LINE
  5
3F6
330
2
100
AcDbEntity
  8
OUTLINE
100
AcDbLine
 10
-248.8316660123089
 20
460.6852295137436
 30
0.0
 11
513.1683339876911
 21
460.6852295122011
 31
0.0
  0
LINE
  5
3F7
330
2
100
AcDbEntity
  8
OUTLINE
100
AcDbLine
 10
513.1683339876913
 20
460.6852295122015
 30
0.0
 11
513.1683339876921
 21
460.3051944802252
 31
0.0
  0
LINE
  5
3F8
330
2
100
AcDbEntity
  8
HID
100
AcDbLine
 10
513.1683339876921
 20
460.3051944802252
 30
0.0
 11
513.1683339876921
 21
460.2984205883138
 31
0.0
  0
LINE
  5
3F9
330
2
100
AcDbEntity
  8
HID
100
AcDbLine
 10
-248.831666012308
 20
460.298420589856
 30
0.0
 11
513.168333987692
 21
460.2984205883136
 31
0.0
  0
LINE
  5
3FA
330
2
100
AcDbEntity
  8
OUTLINE
100
AcDbLine
 10
-253.8316660122959
 20
465.2960289466093
 30
0.0
 11
-253.831666012295
 21
464.914511593805
 31
0.0
  0
LINE
  5
3FB
330
2
100
AcDbEntity
  8
OUTLINE
100
AcDbLine
 10
-248.8316660123089
 20
460.6852295137436
 30
0.0
 11
-253.831666012296
 21
465.2960289466093
 31
0.0
  0
LINE
  5
3FC
330
2
100
AcDbEntity
  8
HID
100
AcDbLine
 10
-248.831666012308
 20
460.2984205898561
 30
0.0
 11
-248.831666012308
 21
460.3051944820392
 31
0.0
  0
LINE
  5
3FD
330
2
100
AcDbEntity
  8
OUTLINE
100
AcDbLine
 10
-248.831666012308
 20
460.3051944820392
 30
0.0
 11
-248.8316660123089
 21
460.6852295137437
 31
0.0
  0
LINE
  5
3FE
330
2
100
AcDbEntity
  8
HID
100
AcDbLine
 10
-253.831666012295
 20
464.9092200227218
 30
0.0
 11
-248.8316660123079
 21
460.2984205898561
 31
0.0
  0
LINE
  5
3FF
330
2
100
AcDbEntity
  8
OUTLINE
100
AcDbLine
 10
-244.3316660115418
 20
672.6693015495794
 30
0.0
 11
-241.3316660115417
 21
672.6693015495735
 31
0.0
  0
LINE
  5
400
330
2
100
AcDbEntity
  8
OUTLINE
100
AcDbLine
 10
-241.3316660115417
 20
671.9988749306147
 30
0.0
 11
-244.3316660115418
 21
671.9988749306207
 31
0.0
  0
LINE
  5
401
330
2
100
AcDbEntity
  8
OUTLINE
100
AcDbLine
 10
-241.3316660115417
 20
672.6693015495735
 30
0.0
 11
-241.33166601155
 21
670.4433740266471
 31
0.0
  0
LINE
  5
402
330
2
100
AcDbEntity
  8
HID
100
AcDbLine
 10
-241.3316660115502
 20
670.4433740266457
 30
0.0
 11
-241.3316660115501
 21
669.772947407687
 31
0.0
  0
LINE
  5
403
330
2
100
AcDbEntity
  8
OUTLINE
100
AcDbLine
 10
-241.3316660115502
 20
670.4433740266471
 30
0.0
 11
-244.3316660115502
 21
670.4433740266531
 31
0.0
  0
LINE
  5
404
330
2
100
AcDbEntity
  8
HID
100
AcDbLine
 10
-244.3316660115502
 20
669.7729474076942
 30
0.0
 11
-241.3316660115502
 21
669.7729474076882
 31
0.0
  0
LINE
  5
405
330
2
100
AcDbEntity
  8
HID
100
AcDbLine
 10
-244.3316660115502
 20
670.4433740266519
 30
0.0
 11
-244.3316660115502
 21
669.7729474076931
 31
0.0
  0
LINE
  5
406
330
2
100
AcDbEntity
  8
OUTLINE
100
AcDbLine
 10
-244.3316660115502
 20
670.4433740266531
 30
0.0
 11
-244.3316660115419
 21
672.6693015495798
 31
0.0
  0
LINE
  5
407
330
2
100
AcDbEntity
  8
OUTLINE
100
AcDbLine
 10
505.668333988458
 20
672.6693015480615
 30
0.0
 11
508.6683339884578
 21
672.6693015480555
 31
0.0
  0
LINE
  5
408
330
2
100
AcDbEntity
  8
OUTLINE
100
AcDbLine
 10
508.6683339884578
 20
671.9988749290966
 30
0.0
 11
505.668333988458
 21
671.9988749291028
 31
0.0
  0
LINE
  5
409
330
2
100
AcDbEntity
  8
OUTLINE
100
AcDbLine
 10
508.6683339884578
 20
672.6693015480555
 30
0.0
 11
508.6683339884498
 21
670.443374025129
 31
0.0
  0
LINE
  5
40A
330
2
100
AcDbEntity
  8
HID
100
AcDbLine
 10
508.6683339884498
 20
670.4433740251279
 30
0.0
 11
508.6683339884498
 21
669.772947406169
 31
0.0
  0
LINE
  5
40B
330
2
100
AcDbEntity
  8
OUTLINE
100
AcDbLine
 10
508.6683339884498
 20
670.443374025129
 30
0.0
 11
505.6683339884497
 21
670.4433740251348
 31
0.0
  0
LINE
  5
40C
330
2
100
AcDbEntity
  8
HID
100
AcDbLine
 10
505.6683339884497
 20
669.7729474061765
 30
0.0
 11
508.6683339884498
 21
669.7729474061705
 31
0.0
  0
LINE
  5
40D
330
2
100
AcDbEntity
  8
HID
100
AcDbLine
 10
505.6683339884497
 20
670.4433740251339
 30
0.0
 11
505.6683339884497
 21
669.7729474061751
 31
0.0
  0
LINE
  5
40E
330
2
100
AcDbEntity
  8
OUTLINE
100
AcDbLine
 10
505.6683339884497
 20
670.4433740251353
 30
0.0
 11
505.668333988458
 21
672.6693015480616
 31
0.0
  0
LINE
  5
40F
330
2
100
AcDbEntity
  8
HID
100
AcDbLine
 10
395.6683339877173
 20
469.9068283781381
 30
0.0
 11
395.6683339877181
 21
469.5200194542509
 31
0.0
  0
LINE
  5
410
330
2
100
AcDbEntity
  8
HID
100
AcDbLine
 10
400.6683339877172
 20
469.9068283781504
 30
0.0
 11
400.6683339877181
 21
469.5200194542631
 31
0.0
  0
LINE
  5
411
330
2
100
AcDbEntity
  8
HID
100
AcDbLine
 10
-136.3316660122832
 20
469.9068283792151
 30
0.0
 11
-136.3316660122823
 21
469.5200194553276
 31
0.0
  0
LINE
  5
412
330
2
100
AcDbEntity
  8
HID
100
AcDbLine
 10
-131.3316660122832
 20
469.9068283792271
 30
0.0
 11
-131.3316660122822
 21
469.5200194553398
 31
0.0
  0
LINE
  5
413
330
2
100
AcDbEntity
  8
HID
100
AcDbLine
 10
-240.3316660116447
 20
644.2163138570577
 30
0.0
 11
-240.3316660116448
 21
644.8867404760163
 31
0.0
  0
LINE
  5
414
330
2
100
AcDbEntity
  8
HID
100
AcDbLine
 10
-245.3316660116448
 20
644.2163138570569
 30
0.0
 11
-245.3316660116448
 21
644.8867404760157
 31
0.0
  0
LINE
  5
415
330
2
100
AcDbEntity
  8
HID
100
AcDbLine
 10
-240.3316660121109
 20
518.0804208912205
 30
0.0
 11
-240.3316660121109
 21
518.7508475101792
 31
0.0
  0
LINE
  5
416
330
2
100
AcDbEntity
  8
HID
100
AcDbLine
 10
-245.3316660121109
 20
518.0804208912197
 30
0.0
 11
-245.3316660121109
 21
518.7508475101788
 31
0.0
  0
LINE
  5
417
330
2
100
AcDbEntity
  8
HID
100
AcDbLine
 10
509.6683339883552
 20
644.2163138555395
 30
0.0
 11
509.6683339883552
 21
644.8867404744982
 31
0.0
  0
LINE
  5
418
330
2
100
AcDbEntity
  8
HID
100
AcDbLine
 10
504.6683339883552
 20
644.2163138555388
 30
0.0
 11
504.6683339883552
 21
644.8867404744977
 31
0.0
  0
LINE
  5
419
330
2
100
AcDbEntity
  8
HID
100
AcDbLine
 10
509.6683339878891
 20
518.0804208897024
 30
0.0
 11
509.6683339878891
 21
518.7508475086612
 31
0.0
  0
LINE
  5
41A
330
2
100
AcDbEntity
  8
HID
100
AcDbLine
 10
504.6683339878891
 20
518.0804208897018
 30
0.0
 11
504.6683339878891
 21
518.7508475086606
 31
0.0
  0
LINE
  5
41B
330
2
100
AcDbEntity
  8
HID
100
AcDbLine
 10
129.6683339877167
 20
469.9068283786766
 30
0.0
 11
129.6683339877177
 21
469.5200194547893
 31
0.0
  0
LINE
  5
41C
330
2
100
AcDbEntity
  8
HID
100
AcDbLine
 10
134.6683339877168
 20
469.9068283786888
 30
0.0
 11
134.6683339877177
 21
469.5200194548013
 31
0.0
  0
ELLIPSE
  5
41D
330
2
100
AcDbEntity
  8
OUTLINE
100
AcDbEllipse
 10
398.1683339877172
 20
469.906828378145
 30
0.0
 11
-2.5
 21
0.0000000000050603
 31
0.0
210
0.0
220
0.0
230
1.0
 40
0.9221598865710872
 41
0.0000000000008431
 42
6.283185307180427
  0
ELLIPSE
  5
41E
330
2
100
AcDbEntity
  8
OUTLINE
100
AcDbEllipse
 10
-133.8316660122832
 20
469.9068283792217
 30
0.0
 11
-2.5
 21
0.0000000000050603
 31
0.0
210
0.0
220
0.0
230
1.0
 40
0.9221598865710872
 41
0.0000000000008422
 42
6.283185307180427
  0
ELLIPSE
  5
41F
330
2
100
AcDbEntity
  8
HID
100
AcDbEllipse
 10
398.1683339877177
 20
469.5200194542572
 30
0.0
 11
2.5
 21
-0.0000000000050603
 31
0.0
210
0.0
220
0.0
230
1.0
 40
0.9221598865710872
 41
0.0000000000008426
 42
6.283185307180427
  0
ELLIPSE
  5
420
330
2
100
AcDbEntity
  8
HID
100
AcDbEllipse
 10
-133.8316660122821
 20
469.5200194553342
 30
0.0
 11
2.5
 21
-0.0000000000050603
 31
0.0
210
0.0
220
0.0
230
1.0
 40
0.9221598865710872
 41
0.0000000000008426
 42
6.283185307180427
  0
ELLIPSE
  5
421
330
2
100
AcDbEntity
  8
OUTLINE
100
AcDbEllipse
 10
-242.8316660116447
 20
644.8867404760155
 30
0.0
 11
-2.5
 21
0.0000000000050603
 31
0.0
210
0.0
220
0.0
230
1.0
 40
0.7419758409755126
 41
0.0000000000000011
 42
6.283185307179587
  0
ELLIPSE
  5
422
330
2
100
AcDbEntity
  8
OUTLINE
100
AcDbEllipse
 10
-242.8316660116447
 20
644.2163138570569
 30
0.0
 11
2.5
 21
-0.0000000000050603
 31
0.0
210
0.0
220
0.0
230
1.0
 40
0.7419758409755126
 41
0.1817122204601957
 42
2.959880433136008
  0
ELLIPSE
  5
423
330
2
100
AcDbEntity
  8
HID
100
AcDbEllipse
 10
-242.8316660116447
 20
644.2163138570569
 30
0.0
 11
2.5
 21
-0.0000000000050603
 31
0.0
210
0.0
220
0.0
230
1.0
 40
0.7419758409755126
 41
2.959880433136008
 42
6.464897527639781
  0
ELLIPSE
  5
424
330
2
100
AcDbEntity
  8
OUTLINE
100
AcDbEllipse
 10
-242.8316660121109
 20
518.7508475101785
 30
0.0
 11
-2.5
 21
0.0000000000050603
 31
0.0
210
0.0
220
0.0
230
1.0
 40
0.7419758409755126
 41
0.0000000000000011
 42
6.283185307179587
  0
ELLIPSE
  5
425
330
2
100
AcDbEntity
  8
OUTLINE
100
AcDbEllipse
 10
-242.8316660121109
 20
518.0804208912197
 30
0.0
 11
2.5
 21
-0.0000000000050603
 31
0.0
210
0.0
220
0.0
230
1.0
 40
0.7419758409755126
 41
0.1817122204601625
 42
2.95988043313606
  0
ELLIPSE
  5
426
330
2
100
AcDbEntity
  8
HID
100
AcDbEllipse
 10
-242.8316660121109
 20
518.0804208912197
 30
0.0
 11
2.5
 21
-0.0000000000050603
 31
0.0
210
0.0
220
0.0
230
1.0
 40
0.7419758409755126
 41
2.95988043313606
 42
6.464897527639746
  0
ELLIPSE
  5
427
330
2
100
AcDbEntity
  8
OUTLINE
100
AcDbEllipse
 10
507.1683339883551
 20
644.8867404744976
 30
0.0
 11
-2.5
 21
0.0000000000050603
 31
0.0
210
0.0
220
0.0
230
1.0
 40
0.7419758409755126
 41
0.0000000000000011
 42
6.283185307179587
  0
ELLIPSE
  5
428
330
2
100
AcDbEntity
  8
OUTLINE
100
AcDbEllipse
 10
507.1683339883551
 20
644.2163138555391
 30
0.0
 11
2.5
 21
-0.0000000000050603
 31
0.0
210
0.0
220
0.0
230
1.0
 40
0.7419758409755126
 41
0.1817122204602288
 42
2.959880433135991
  0
ELLIPSE
  5
429
330
2
100
AcDbEntity
  8
HID
100
AcDbEllipse
 10
507.1683339883551
 20
644.2163138555391
 30
0.0
 11
2.5
 21
-0.0000000000050603
 31
0.0
210
0.0
220
0.0
230
1.0
 40
0.7419758409755126
 41
2.959880433135991
 42
6.464897527639815
  0
ELLIPSE
  5
42A
330
2
100
AcDbEntity
  8
OUTLINE
100
AcDbEllipse
 10
507.1683339878891
 20
518.7508475086604
 30
0.0
 11
-2.5
 21
0.0000000000050603
 31
0.0
210
0.0
220
0.0
230
1.0
 40
0.7419758409755126
 41
0.0000000000000011
 42
6.283185307179587
  0
ELLIPSE
  5
42B
330
2
100
AcDbEntity
  8
OUTLINE
100
AcDbEllipse
 10
507.1683339878891
 20
518.0804208897018
 30
0.0
 11
2.5
 21
-0.0000000000050603
 31
0.0
210
0.0
220
0.0
230
1.0
 40
0.7419758409755126
 41
0.181712220460148
 42
2.959880433136012
  0
ELLIPSE
  5
42C
330
2
100
AcDbEntity
  8
HID
100
AcDbEllipse
 10
507.1683339878891
 20
518.0804208897018
 30
0.0
 11
2.5
 21
-0.0000000000050603
 31
0.0
210
0.0
220
0.0
230
1.0
 40
0.7419758409755126
 41
2.959880433136012
 42
6.464897527639732
  0
ELLIPSE
  5
42D
330
2
100
AcDbEntity
  8
HID
100
AcDbEllipse
 10
132.1683339877179
 20
469.5200194547957
 30
0.0
 11
2.5
 21
-0.0000000000050603
 31
0.0
210
0.0
220
0.0
230
1.0
 40
0.9221598865710872
 41
0.0000000000008424
 42
6.283185307180427
  0
ELLIPSE
  5
42E
330
2
100
AcDbEntity
  8
OUTLINE
100
AcDbEllipse
 10
132.1683339877168
 20
469.9068283786833
 30
0.0
 11
-2.5
 21
0.0000000000050603
 31
0.0
210
0.0
220
0.0
230
1.0
 40
0.9221598865710872
 41
0.0000000000008422
 42
6.283185307180427
  0
MTEXT
  5
651
330
2
100
AcDbEntity
  8
ETC
100
AcDbMText
 10
-168.0499809473118
 20
936.5159105295752
 30
0.0
 40
40.0
 41
664.8423973975385
 71
     1
 72
     5
  1
AG1S/AG1T-KK86SD\P正面図
 73
     1
 44
1.0
1001
ACAD
1000
MTEXTBEGIN
1070
    73
1070
     1
1070
    44
1040
1.0
1070
    74
1070
     0
1000
MTEXTEND
  0
DIMENSION
  5
67B
330
2
100
AcDbEntity
  8
SIZE
100
AcDbDimension
  2
*D1
 10
-316.8198446889757
 20
88.92869520240845
 30
0.0
 11
-326.8198446889757
 21
379.9286952024083
 31
0.0
 70
    32
 71
     5
 42
581.9999999999999
  3
STANDARD
100
AcDbAlignedDimension
 13
-246.8316660116439
 23
670.9286952024082
 33
0.0
 14
-246.8316660116447
 24
88.92869520240843
 34
0.0
 50
90.0
100
AcDbRotatedDimension
1001
ACAD
1000
DSTYLE
1002
{
1070
    40
1040
5.0
1070
    45
1040
0.5
1070
   271
1070
     1
1070
   272
1070
     1
1002
}
  0
DIMENSION
  5
689
330
2
100
AcDbEntity
  8
SIZE
100
AcDbDimension
  2
*D2
 10
-316.4484271845806
 20
-493.0713047975921
 30
0.0
 11
-316.4484271845805
 21
-202.0713047975922
 31
0.0
 70
   160
 71
     5
 42
581.9999999999999
  3
STANDARD
100
AcDbAlignedDimension
 13
-246.831666011645
 23
88.92869520240774
 33
0.0
 14
-246.8316660116459
 24
-493.0713047975921
 34
0.0
 50
90.0
100
AcDbRotatedDimension
1001
ACAD
1000
DSTYLE
1002
{
1070
    40
1040
5.0
1070
    45
1040
0.5
1070
   271
1070
     1
1070
   272
1070
     1
1002
}
  0
DIMENSION
  5
6A8
330
2
100
AcDbEntity
  8
SIZE
100
AcDbDimension
  2
*D3
 10
-381.6293526675319
 20
-508.0713047975923
 30
0.0
 11
-391.6293526675318
 21
97.43156126545741
 31
0.0
 70
    32
 71
     5
 42
1211.005732126099
  3
STANDARD
100
AcDbAlignedDimension
 13
-248.8316660114019
 23
702.9344273285071
 33
0.0
 14
-254.8316660116459
 24
-508.0713047975923
 34
0.0
 50
90.0
100
AcDbRotatedDimension
1001
ACAD
1000
DSTYLE
1002
{
1070
    40
1040
5.0
1070
    45
1040
0.5
1070
   271
1070
     1
1070
   272
1070
     1
1002
}
  0
DIMENSION
  5
6B5
330
2
100
AcDbEntity
  8
SIZE
100
AcDbDimension
  2
*D4
 10
511.1683339883557
 20
740.0231504202762
 30
0.0
 11
132.1683339883559
 21
750.0231504202762
 31
0.0
 70
    32
 71
     5
 42
757.9999999999995
  3
STANDARD
100
AcDbAlignedDimension
 13
-246.8316660116439
 23
670.9286952024082
 33
0.0
 14
511.1683339883557
 24
670.9286952008651
 34
0.0
100
AcDbRotatedDimension
1001
ACAD
1000
DSTYLE
1002
{
1070
    40
1040
5.0
1070
    45
1040
0.5
1070
   271
1070
     1
1070
   272
1070
     1
1002
}
  0
DIMENSION
  5
6C2
330
2
100
AcDbEntity
  8
SIZE
100
AcDbDimension
  2
*D5
 10
519.1683339883557
 20
779.670495145099
 30
0.0
 11
132.1683339883559
 21
789.670495145099
 31
0.0
 70
    32
 71
     5
 42
773.9999999999995
  3
STANDARD
100
AcDbAlignedDimension
 13
-254.8316660116439
 23
693.9286952024076
 33
0.0
 14
519.1683339883557
 24
693.9286952008642
 34
0.0
100
AcDbRotatedDimension
1001
ACAD
1000
DSTYLE
1002
{
1070
    40
1040
5.0
1070
    45
1040
0.5
1070
   271
1070
     1
1070
   272
1070
     1
1002
}
  0
MULTILEADER
  5
70F
330
2
100
AcDbEntity
  8
NOTE
 92
      592
310
50020000110000000C000000100000000A0000000C00000016000000000000C00C00000013000000112700003C0000000600000002000000596ED56FBD3273C0C73342F686E8864000000000000000004F9731FF7F3873C0C73342F686E8864000000000000000000C00000013000000010000000C00000014000000010000
310
00540000000700000003000000992AA1C9CE0670C0C5BA88ED055A854000000000000000001CFF17995A316FC06ED35958C60985400000000000000000AEF5E761E83470C0574DFF8BD343854000000000000000000C00000013000000891300003C00000006000000020000002490C495DB1D70C00E04C4BCEC4E85400000
310
000000000000596ED56FBD3273C0C73342F686E8864000000000000000000C000000130000009A3A00003C0000000600000002000000DFBB7A91A42176C0C73342F686E8864000000000000000004D9731FF7F3873C0C73342F686E8864000000000000000000C00000016000000000000C00C00000012000000FF7F00000C
310
00000017000000FFFFFFFF0C00000016000000000000C00C00000013000000993A0000B00000000B000000294E9FDA364676C0FC667529BAFB8640000000000000000000000000000000000000000000000000000000000000F03F000000000000F03F00000000000000000000000000000000362D5C552B323230353700FF
310
0A000000010000000000000000002840000000000000F03F0000000000000000000000000000F03F0000000000000000000000000000000000000000726F6D616E732E7368780000657874666F6E742E73687800
100
AcDbMLeader
300
CONTEXT_DATA{
 40
1.0
 10
-356.1026778024952
 20
740.2658993885089
 30
0.0
 41
12.0
140
12.0
145
2.0
174
     1
175
     6
176
     2
177
     0
290
     1
304
6-%%C7
 11
0.0
 21
0.0
 31
1.0
340
23
 12
-309.5312492310667
 22
747.4658993885091
 32
0.0
 13
1.0
 23
0.0
 33
0.0
 42
0.0
 43
0.0
 44
0.0
 45
1.0
170
     1
 90
-1073741824
171
     3
172
     5
 91
-1073741824
141
0.0
 92
  9297916
291
     0
292
     0
173
     0
293
     0
142
0.0
143
0.0
294
     0
295
     0
296
     0
110
-249.5423093289072
120
673.2218482034348
130
0.0
111
1.0
121
0.0
131
0.0
112
0.0
122
1.0
132
0.0
297
     0
302
LEADER{
290
     1
291
     1
 10
-307.1712492310667
 20
733.0658993885089
 30
0.0
 11
-1.0
 21
0.0
 31
0.0
 90
        0
 40
0.36
304
LEADER_LINE{
 10
-249.5423093289072
 20
673.2218482034348
 30
0.0
 91
        0
305
}
303
}
301
}
340
647
 90
   345088
170
     1
 91
-1056964608
341
26
171
    -2
290
     1
291
     1
 41
0.36
 42
12.0
172
     2
343
23
173
     1
 95
        6
174
     1
175
     2
 92
-1056964608
292
     0
 93
-1056964608
 10
1.0
 20
1.0
 30
1.0
 43
0.0
176
     0
293
     0
294
     0
178
     0
179
     3
 45
1.0
1001
ACAD_MLEADERVER
1070
     2
  0
LINE
  5
CA9
330
2
100
AcDbEntity
  8
BASIS
  6
DASHDOT
 62
     6
100
AcDbLine
 10
132.1683339882329
 20
-533.365546367662
 30
0.0
 11
132.1683339882329
 21
721.6077177965178
 31
0.0
  0
LINE
  5
CAA
330
2
100
AcDbEntity
  8
ARRANGE
  6
Continuous
 62
     1
100
AcDbLine
 10
115.4842164238289
 20
-524.7554223635392
 30
0.0
 11
148.8524515526369
 21
-491.3871872347319
 31
0.0
  0
LINE
  5
CAB
330
2
100
AcDbEntity
  8
ARRANGE
  6
Continuous
 62
     1
100
AcDbLine
 10
115.4842164238289
 20
-491.3871872347319
 30
0.0
 11
148.8524515526369
 21
-524.7554223635392
 31
0.0
  0
CIRCLE
  5
CAC
330
2
100
AcDbEntity
  8
ARRANGE
100
AcDbCircle
 10
132.1683339882329
 20
-508.0713047991354
 30
0.0
 40
15.0
  0
ENDSEC
  0
SECTION
  2
OBJECTS
  0
DICTIONARY
  5
A
330
0
100
AcDbDictionary
281
     1
  3
ACAD_2007HEADERVARS_RT
350
CE7
  3
ACAD_BACKGROUND
350
64D
  3
ACAD_COLOR
350
4D
  3
ACAD_GROUP
350
3A
  3
ACAD_LAYOUT
350
17
  3
ACAD_MATERIAL
350
C
  3
ACAD_MLEADERSTYLE
350
646
  3
ACAD_MLINESTYLE
350
3B
  3
ACAD_PLOTSETTINGS
350
3C
  3
ACAD_PLOTSTYLENAME
350
9
  3
ACAD_SCALELIST
350
4E
  3
ACAD_TABLESTYLE
350
4F
  3
ACAD_VISUALSTYLE
350
2D
  3
ACDB_RECOMPOSE_DATA
350
631
  3
AcDbVariableDictionary
350
632
  3
AcmDictionary
350
62B
  3
DWGPROPS
350
CE6
  0
DICTIONARY
  5
20
330
1F
100
AcDbDictionary
280
     1
281
     1
  3
ACAD_LAYERFILTERS
360
CE4
  3
ACAD_LAYERSTATES
360
21
  3
ACLYDICTIONARY
360
CE3
  0
DICTIONARY
  5
6
330
5
100
AcDbDictionary
280
     1
281
     1
  3
ADSK_XREC_LAYER_RECONCILED
360
7
  0
DICTIONARY
  5
D6
330
D5
100
AcDbDictionary
280
     1
281
     1
  3
ADSK_XREC_LAYER_RECONCILED
360
D7
  0
DICTIONARY
  5
756
330
755
100
AcDbDictionary
280
     1
281
     1
  0
DICTIONARY
  5
758
330
757
100
AcDbDictionary
280
     1
281
     1
  0
DICTIONARY
  5
75A
330
759
100
AcDbDictionary
280
     1
281
     1
  0
DICTIONARY
  5
75C
330
75B
100
AcDbDictionary
280
     1
281
     1
  0
DICTIONARY
  5
75E
330
75D
100
AcDbDictionary
280
     1
281
     1
  0
DICTIONARY
  5
760
330
75F
100
AcDbDictionary
280
     1
281
     1
  0
DICTIONARY
  5
762
330
761
100
AcDbDictionary
280
     1
281
     1
  0
DICTIONARY
  5
3
330
2
100
AcDbDictionary
280
     1
281
     1
  0
DICTIONARY
  5
CE7
102
{ACAD_REACTORS
330
A
102
}
330
A
100
AcDbDictionary
281
     1
  3
DIMARCSYM
350
CE9
  3
DIMFXL
350
CE8
  3
DIMJOGANG
350
CEA
  0
DICTIONARY
  5
64D
102
{ACAD_REACTORS
330
A
102
}
330
A
100
AcDbDictionary
281
     1
  0
DICTIONARY
  5
4D
102
{ACAD_REACTORS
330
A
102
}
330
A
100
AcDbDictionary
281
     1
  0
DICTIONARY
  5
3A
102
{ACAD_REACTORS
330
A
102
}
330
A
100
AcDbDictionary
281
     1
  0
DICTIONARY
  5
17
102
{ACAD_REACTORS
330
A
102
}
330
A
100
AcDbDictionary
281
     1
  3
Model
350
16
  3
レイアウト1
350
1B
  0
DICTIONARY
  5
C
102
{ACAD_REACTORS
330
A
102
}
330
A
100
AcDbDictionary
281
     1
  3
ByBlock
350
45
  3
ByLayer
350
3D
  3
Global
350
B
  0
DICTIONARY
  5
646
102
{ACAD_REACTORS
330
A
102
}
330
A
100
AcDbDictionary
281
     1
  3
Standard
350
647
  0
DICTIONARY
  5
3B
102
{ACAD_REACTORS
330
A
102
}
330
A
100
AcDbDictionary
281
     1
  3
STANDARD
350
53
  0
DICTIONARY
  5
3C
102
{ACAD_REACTORS
330
A
102
}
330
A
100
AcDbDictionary
281
     1
  0
ACDBDICTIONARYWDFLT
  5
9
102
{ACAD_REACTORS
330
A
102
}
330
A
100
AcDbDictionary
281
     1
  3
Normal
350
8
100
AcDbDictionaryWithDefault
340
8
  0
DICTIONARY
  5
4E
102
{ACAD_REACTORS
330
A
102
}
330
A
100
AcDbDictionary
281
     1
  3
*A1
350
764
  3
A0
350
56
  3
A1
350
57
  3
A2
350
58
  3
A3
350
59
  3
A4
350
5A
  3
A5
350
5B
  3
A6
350
5C
  3
A7
350
5D
  3
A8
350
5E
  3
A9
350
5F
  3
B0
350
60
  3
B1
350
61
  3
B2
350
62
  3
B3
350
63
  3
B4
350
64
  3
B5
350
65
  3
B6
350
66
  3
B7
350
67
  3
B8
350
68
  3
B9
350
69
  3
C0
350
6A
  3
C1
350
6B
  3
C2
350
6C
  3
C3
350
6D
  3
C4
350
6E
  3
C5
350
6F
  3
C6
350
70
  3
C7
350
71
  3
C8
350
72
  3
C9
350
73
  3
D0
350
74
  3
D1
350
75
  3
D2
350
76
  0
DICTIONARY
  5
4F
102
{ACAD_REACTORS
330
A
102
}
330
A
100
AcDbDictionary
281
     1
  3
Standard
350
54
  0
DICTIONARY
  5
2D
102
{ACAD_REACTORS
330
A
102
}
330
A
100
AcDbDictionary
281
     1
  3
2dWireframe
350
63D
  3
3D Hidden
350
63E
  3
3dWireframe
350
55
  3
Basic
350
63C
  3
Brighten
350
641
  3
ColorChange
350
645
  3
Conceptual
350
63F
  3
Dim
350
640
  3
Facepattern
350
644
  3
Flat
350
638
  3
FlatWithEdges
350
639
  3
Gouraud
350
63A
  3
GouraudWithEdges
350
63B
  3
Linepattern
350
643
  3
Realistic
350
2C
  3
Thicken
350
642
  0
XRECORD
  5
631
102
{ACAD_REACTORS
330
A
102
}
330
A
100
AcDbXrecord
280
     1
 90
        1
330
54
  0
DICTIONARY
  5
632
102
{ACAD_REACTORS
330
A
102
}
330
A
100
AcDbDictionary
281
     1
  3
CANNOSCALE
350
635
  3
CMLEADERSTYLE
350
634
  3
CTABLESTYLE
350
633
  3
DIMASSOC
350
66E
  3
HIDETEXT
350
66D
  3
INDEXCTL
350
66C
  3
LIGHTINGUNITS
350
636
  3
MSLTSCALE
350
66A
  3
SORTENTS
350
66B
  0
DICTIONARY
  5
62B
102
{ACAD_REACTORS
330
A
102
}
330
A
100
AcDbDictionary
281
     1
  3
AcmBOMDATA
350
62C
  0
XRECORD
  5
CE6
102
{ACAD_REACTORS
330
A
102
}
330
A
100
AcDbXrecord
280
     1
  1
DWGPROPS COOKIE
  2

  3

  4

  6

  7

  8
W000135
  9

300
=
301
=
302
=
303
=
304
=
305
=
306
=
307
=
308
=
309
=
 40
2.121453113425925
 41
2451324.468257373
 42
2454987.687896621
  1

 90
        0
  0
DICTIONARY
  5
CE4
102
{ACAD_REACTORS
330
20
102
}
330
20
100
AcDbDictionary
281
     1
  0
DICTIONARY
  5
21
102
{ACAD_REACTORS
330
20
102
}
330
20
100
AcDbDictionary
281
     1
  0
DICTIONARY
  5
CE3
102
{ACAD_REACTORS
330
20
102
}
330
20
100
AcDbDictionary
281
     1
1001
ACAD
1000
<All
  0
XRECORD
  5
7
102
{ACAD_REACTORS
330
6
102
}
330
6
100
AcDbXrecord
280
     1
290
     1
  0
XRECORD
  5
D7
102
{ACAD_REACTORS
330
D6
102
}
330
D6
100
AcDbXrecord
280
     1
290
     1
  0
XRECORD
  5
CE9
102
{ACAD_REACTORS
330
CE7
102
}
330
CE7
100
AcDbXrecord
280
     1
 70
     1
  0
XRECORD
  5
CE8
102
{ACAD_REACTORS
330
CE7
102
}
330
CE7
100
AcDbXrecord
280
     1
 40
15.0
  0
XRECORD
  5
CEA
102
{ACAD_REACTORS
330
CE7
102
}
330
CE7
100
AcDbXrecord
280
     1
 40
1.570796326794896
  0
LAYOUT
  5
16
102
{ACAD_XDICTIONARY
360
CEB
102
}
102
{ACAD_REACTORS
330
17
102
}
330
17
100
AcDbPlotSettings
  1

  2
なし
  4

  6

 40
0.0
 41
0.0
 42
0.0
 43
0.0
 44
0.0
 45
0.0
 46
0.0
 47
0.0
 48
0.0
 49
0.0
140
0.0
141
0.0
142
1.0
143
1.0
 70
  1712
 72
     0
 73
     0
 74
     0
  7

 75
     0
147
1.0
148
0.0
149
0.0
100
AcDbLayout
  1
Model
 70
     1
 71
     0
 10
0.0
 20
0.0
 11
12.0
 21
9.0
 12
0.0
 22
0.0
 32
0.0
 14
0.0
 24
0.0
 34
0.0
 15
0.0
 25
0.0
 35
0.0
146
0.0
 13
0.0
 23
0.0
 33
0.0
 16
1.0
 26
0.0
 36
0.0
 17
0.0
 27
1.0
 37
0.0
 76
     0
330
2
331
6D4
  0
LAYOUT
  5
1B
102
{ACAD_XDICTIONARY
360
1C
102
}
102
{ACAD_REACTORS
330
17
102
}
330
17
100
AcDbPlotSettings
  1

  2
Microsoft XPS Document Writer
  4
A4
  6

 40
3.174999952316282
 41
3.174999952316282
 42
3.175003051757812
 43
3.17498779296875
 44
210.0156707763672
 45
297.0106506347656
 46
0.0
 47
0.0
 48
0.0
 49
0.0
140
0.0
141
0.0
142
1.0
143
1.0
 70
   688
 72
     1
 73
     1
 74
     5
  7

 75
    16
147
1.0
148
0.0
149
0.0
100
AcDbLayout
  1
レイアウト1
 70
     1
 71
     1
 10
0.0
 20
0.0
 11
12.0
 21
9.0
 12
0.0
 22
0.0
 32
0.0
 14
-1204.520315684228
 24
-1562.264399382188
 34
0.0
 15
2683.21898568421
 25
1555.211899966486
 35
0.0
146
0.0
 13
0.0
 23
0.0
 33
0.0
 16
1.0
 26
0.0
 36
0.0
 17
0.0
 27
1.0
 37
0.0
 76
     0
330
18
1001
ACAD_PSEXT
1000
Microsoft XPS Document Writer
1000
Microsoft XPS Document Writer
1000
XPSPort:
1000

1070
     0
  0
MATERIAL
  5
45
102
{ACAD_XDICTIONARY
360
46
102
}
102
{ACAD_REACTORS
330
C
102
}
330
C
100
AcDbMaterial
  1
ByBlock
 72
     0
 43
0.0208333333333333
 43
0.0
 43
0.0
 43
0.0
 43
0.0
 43
0.0208333333333333
 43
0.0
 43
0.0
 43
0.0
 43
0.0
 43
1.0
 43
0.0
 43
0.0
 43
0.0
 43
0.0
 43
1.0
 77
     0
 47
0.0208333333333333
 47
0.0
 47
0.0
 47
0.0
 47
0.0
 47
0.0208333333333333
 47
0.0
 47
0.0
 47
0.0
 47
0.0
 47
1.0
 47
0.0
 47
0.0
 47
0.0
 47
0.0
 47
1.0
171
     0
 49
0.0208333333333333
 49
0.0
 49
0.0
 49
0.0
 49
0.0
 49
0.0208333333333333
 49
0.0
 49
0.0
 49
0.0
 49
0.0
 49
1.0
 49
0.0
 49
0.0
 49
0.0
 49
0.0
 49
1.0
175
     0
142
0.0208333333333333
142
0.0
142
0.0
142
0.0
142
0.0
142
0.0208333333333333
142
0.0
142
0.0
142
0.0
142
0.0
142
1.0
142
0.0
142
0.0
142
0.0
142
0.0
142
1.0
179
     0
144
0.0208333333333333
144
0.0
144
0.0
144
0.0
144
0.0
144
0.0208333333333333
144
0.0
144
0.0
144
0.0
144
0.0
144
1.0
144
0.0
144
0.0
144
0.0
144
0.0
144
1.0
147
0.0208333333333333
147
0.0
147
0.0
147
0.0
147
0.0
147
0.0208333333333333
147
0.0
147
0.0
147
0.0
147
0.0
147
1.0
147
0.0
147
0.0
147
0.0
147
0.0
147
1.0
  0
MATERIAL
  5
3D
102
{ACAD_XDICTIONARY
360
3E
102
}
102
{ACAD_REACTORS
330
C
102
}
330
C
100
AcDbMaterial
  1
ByLayer
 72
     0
 43
0.0208333333333333
 43
0.0
 43
0.0
 43
0.0
 43
0.0
 43
0.0208333333333333
 43
0.0
 43
0.0
 43
0.0
 43
0.0
 43
1.0
 43
0.0
 43
0.0
 43
0.0
 43
0.0
 43
1.0
 77
     0
 47
0.0208333333333333
 47
0.0
 47
0.0
 47
0.0
 47
0.0
 47
0.0208333333333333
 47
0.0
 47
0.0
 47
0.0
 47
0.0
 47
1.0
 47
0.0
 47
0.0
 47
0.0
 47
0.0
 47
1.0
171
     0
 49
0.0208333333333333
 49
0.0
 49
0.0
 49
0.0
 49
0.0
 49
0.0208333333333333
 49
0.0
 49
0.0
 49
0.0
 49
0.0
 49
1.0
 49
0.0
 49
0.0
 49
0.0
 49
0.0
 49
1.0
175
     0
142
0.0208333333333333
142
0.0
142
0.0
142
0.0
142
0.0
142
0.0208333333333333
142
0.0
142
0.0
142
0.0
142
0.0
142
1.0
142
0.0
142
0.0
142
0.0
142
0.0
142
1.0
179
     0
144
0.0208333333333333
144
0.0
144
0.0
144
0.0
144
0.0
144
0.0208333333333333
144
0.0
144
0.0
144
0.0
144
0.0
144
1.0
144
0.0
144
0.0
144
0.0
144
0.0
144
1.0
147
0.0208333333333333
147
0.0
147
0.0
147
0.0
147
0.0
147
0.0208333333333333
147
0.0
147
0.0
147
0.0
147
0.0
147
1.0
147
0.0
147
0.0
147
0.0
147
0.0
147
1.0
  0
MATERIAL
  5
B
102
{ACAD_XDICTIONARY
360
D
102
}
102
{ACAD_REACTORS
330
C
102
}
330
C
100
AcDbMaterial
  1
Global
 72
     0
 43
0.0208333333333333
 43
0.0
 43
0.0
 43
0.0
 43
0.0
 43
0.0208333333333333
 43
0.0
 43
0.0
 43
0.0
 43
0.0
 43
1.0
 43
0.0
 43
0.0
 43
0.0
 43
0.0
 43
1.0
 77
     0
 47
0.0208333333333333
 47
0.0
 47
0.0
 47
0.0
 47
0.0
 47
0.0208333333333333
 47
0.0
 47
0.0
 47
0.0
 47
0.0
 47
1.0
 47
0.0
 47
0.0
 47
0.0
 47
0.0
 47
1.0
171
     0
 49
0.0208333333333333
 49
0.0
 49
0.0
 49
0.0
 49
0.0
 49
0.0208333333333333
 49
0.0
 49
0.0
 49
0.0
 49
0.0
 49
1.0
 49
0.0
 49
0.0
 49
0.0
 49
0.0
 49
1.0
175
     0
142
0.0208333333333333
142
0.0
142
0.0
142
0.0
142
0.0
142
0.0208333333333333
142
0.0
142
0.0
142
0.0
142
0.0
142
1.0
142
0.0
142
0.0
142
0.0
142
0.0
142
1.0
179
     0
144
0.0208333333333333
144
0.0
144
0.0
144
0.0
144
0.0
144
0.0208333333333333
144
0.0
144
0.0
144
0.0
144
0.0
144
1.0
144
0.0
144
0.0
144
0.0
144
0.0
144
1.0
147
0.0208333333333333
147
0.0
147
0.0
147
0.0
147
0.0
147
0.0208333333333333
147
0.0
147
0.0
147
0.0
147
0.0
147
1.0
147
0.0
147
0.0
147
0.0
147
0.0
147
1.0
  0
MLEADERSTYLE
  5
647
102
{ACAD_REACTORS
330
646
330
70F
102
}
330
646
100
AcDbMLeaderStyle
170
     2
171
     1
172
     0
 90
        2
 40
0.0
 41
0.0
173
     1
 91
-1056964608
340
26
 92
       -2
290
     1
 42
2.0
291
     1
 43
0.36
  3
Standard
 44
4.0
300

342
23
174
     1
178
     6
175
     1
176
     0
 93
-1056964608
 45
4.0
292
     0
297
     0
 46
4.0
 94
-1056964608
 47
1.0
 49
1.0
140
1.0
293
     1
141
0.0
294
     1
177
     0
142
1.0
295
     0
296
     0
143
0.125
1001
ACAD_MLEADERVER
1070
     2
  0
MLINESTYLE
  5
53
102
{ACAD_REACTORS
330
3B
102
}
330
3B
100
AcDbMlineStyle
  2
STANDARD
 70
     0
  3

 62
   256
 51
90.0
 52
90.0
 71
     2
 49
0.5
 62
   256
  6
BYLAYER
 49
-0.5
 62
   256
  6
BYLAYER
  0
ACDBPLACEHOLDER
  5
8
102
{ACAD_REACTORS
330
9
102
}
330
9
  0
SCALE
  5
764
102
{ACAD_REACTORS
330
4E
102
}
330
4E
100
AcDbScale
 70
     0
300
1:5_XREF
140
1.0
141
5.0
290
     0
  0
SCALE
  5
56
102
{ACAD_REACTORS
330
4E
102
}
330
4E
100
AcDbScale
 70
     0
300
1:1
140
1.0
141
1.0
290
     1
  0
SCALE
  5
57
102
{ACAD_REACTORS
330
4E
102
}
330
4E
100
AcDbScale
 70
     0
300
1:2
140
1.0
141
2.0
290
     0
  0
SCALE
  5
58
102
{ACAD_REACTORS
330
4E
102
}
330
4E
100
AcDbScale
 70
     0
300
1:4
140
1.0
141
4.0
290
     0
  0
SCALE
  5
59
102
{ACAD_REACTORS
330
4E
102
}
330
4E
100
AcDbScale
 70
     0
300
1:5
140
1.0
141
5.0
290
     0
  0
SCALE
  5
5A
102
{ACAD_REACTORS
330
4E
102
}
330
4E
100
AcDbScale
 70
     0
300
1:8
140
1.0
141
8.0
290
     0
  0
SCALE
  5
5B
102
{ACAD_REACTORS
330
4E
102
}
330
4E
100
AcDbScale
 70
     0
300
1:10
140
1.0
141
10.0
290
     0
  0
SCALE
  5
5C
102
{ACAD_REACTORS
330
4E
102
}
330
4E
100
AcDbScale
 70
     0
300
1:16
140
1.0
141
16.0
290
     0
  0
SCALE
  5
5D
102
{ACAD_REACTORS
330
4E
102
}
330
4E
100
AcDbScale
 70
     0
300
1:20
140
1.0
141
20.0
290
     0
  0
SCALE
  5
5E
102
{ACAD_REACTORS
330
4E
102
}
330
4E
100
AcDbScale
 70
     0
300
1:30
140
1.0
141
30.0
290
     0
  0
SCALE
  5
5F
102
{ACAD_REACTORS
330
4E
102
}
330
4E
100
AcDbScale
 70
     0
300
1:40
140
1.0
141
40.0
290
     0
  0
SCALE
  5
60
102
{ACAD_REACTORS
330
4E
102
}
330
4E
100
AcDbScale
 70
     0
300
1:50
140
1.0
141
50.0
290
     0
  0
SCALE
  5
61
102
{ACAD_REACTORS
330
4E
102
}
330
4E
100
AcDbScale
 70
     0
300
1:100
140
1.0
141
100.0
290
     0
  0
SCALE
  5
62
102
{ACAD_REACTORS
330
4E
102
}
330
4E
100
AcDbScale
 70
     0
300
2:1
140
2.0
141
1.0
290
     0
  0
SCALE
  5
63
102
{ACAD_REACTORS
330
4E
102
}
330
4E
100
AcDbScale
 70
     0
300
4:1
140
4.0
141
1.0
290
     0
  0
SCALE
  5
64
102
{ACAD_REACTORS
330
4E
102
}
330
4E
100
AcDbScale
 70
     0
300
8:1
140
8.0
141
1.0
290
     0
  0
SCALE
  5
65
102
{ACAD_REACTORS
330
4E
102
}
330
4E
100
AcDbScale
 70
     0
300
10:1
140
10.0
141
1.0
290
     0
  0
SCALE
  5
66
102
{ACAD_REACTORS
330
4E
102
}
330
4E
100
AcDbScale
 70
     0
300
100:1
140
100.0
141
1.0
290
     0
  0
SCALE
  5
67
102
{ACAD_REACTORS
330
4E
102
}
330
4E
100
AcDbScale
 70
     0
300
1/128" = 1'-0"
140
0.0078125
141
12.0
290
     0
  0
SCALE
  5
68
102
{ACAD_REACTORS
330
4E
102
}
330
4E
100
AcDbScale
 70
     0
300
1/64" = 1'-0"
140
0.015625
141
12.0
290
     0
  0
SCALE
  5
69
102
{ACAD_REACTORS
330
4E
102
}
330
4E
100
AcDbScale
 70
     0
300
1/32" = 1'-0"
140
0.03125
141
12.0
290
     0
  0
SCALE
  5
6A
102
{ACAD_REACTORS
330
4E
102
}
330
4E
100
AcDbScale
 70
     0
300
1/16" = 1'-0"
140
0.0625
141
12.0
290
     0
  0
SCALE
  5
6B
102
{ACAD_REACTORS
330
4E
102
}
330
4E
100
AcDbScale
 70
     0
300
3/32" = 1'-0"
140
0.09375
141
12.0
290
     0
  0
SCALE
  5
6C
102
{ACAD_REACTORS
330
4E
102
}
330
4E
100
AcDbScale
 70
     0
300
1/8" = 1'-0"
140
0.125
141
12.0
290
     0
  0
SCALE
  5
6D
102
{ACAD_REACTORS
330
4E
102
}
330
4E
100
AcDbScale
 70
     0
300
3/16" = 1'-0"
140
0.1875
141
12.0
290
     0
  0
SCALE
  5
6E
102
{ACAD_REACTORS
330
4E
102
}
330
4E
100
AcDbScale
 70
     0
300
1/4" = 1'-0"
140
0.25
141
12.0
290
     0
  0
SCALE
  5
6F
102
{ACAD_REACTORS
330
4E
102
}
330
4E
100
AcDbScale
 70
     0
300
3/8" = 1'-0"
140
0.375
141
12.0
290
     0
  0
SCALE
  5
70
102
{ACAD_REACTORS
330
4E
102
}
330
4E
100
AcDbScale
 70
     0
300
1/2" = 1'-0"
140
0.5
141
12.0
290
     0
  0
SCALE
  5
71
102
{ACAD_REACTORS
330
4E
102
}
330
4E
100
AcDbScale
 70
     0
300
3/4" = 1'-0"
140
0.75
141
12.0
290
     0
  0
SCALE
  5
72
102
{ACAD_REACTORS
330
4E
102
}
330
4E
100
AcDbScale
 70
     0
300
1" = 1'-0"
140
1.0
141
12.0
290
     0
  0
SCALE
  5
73
102
{ACAD_REACTORS
330
4E
102
}
330
4E
100
AcDbScale
 70
     0
300
1-1/2" = 1'-0"
140
1.5
141
12.0
290
     0
  0
SCALE
  5
74
102
{ACAD_REACTORS
330
4E
102
}
330
4E
100
AcDbScale
 70
     0
300
3" = 1'-0"
140
3.0
141
12.0
290
     0
  0
SCALE
  5
75
102
{ACAD_REACTORS
330
4E
102
}
330
4E
100
AcDbScale
 70
     0
300
6" = 1'-0"
140
6.0
141
12.0
290
     0
  0
SCALE
  5
76
102
{ACAD_REACTORS
330
4E
102
}
330
4E
100
AcDbScale
 70
     0
300
1'-0" = 1'-0"
140
12.0
141
12.0
290
     0
  0
TABLESTYLE
  5
54
102
{ACAD_XDICTIONARY
360
62F
102
}
102
{ACAD_REACTORS
330
4F
102
}
330
4F
100
AcDbTableStyle
  3
Standard
 70
     0
 71
     0
 40
1.5
 41
1.5
280
     0
281
     0
  7
STANDARD
140
4.5
170
     2
 62
     0
 63
     7
283
     0
274
    -2
284
     1
 64
     0
275
    -2
285
     1
 65
     0
276
    -2
286
     1
 66
     0
277
    -2
287
     1
 67
     0
278
    -2
288
     1
 68
     0
279
    -2
289
     1
 69
     0
  7
STANDARD
140
6.0
170
     5
 62
     0
 63
     7
283
     0
274
    -2
284
     1
 64
     0
275
    -2
285
     1
 65
     0
276
    -2
286
     1
 66
     0
277
    -2
287
     1
 67
     0
278
    -2
288
     1
 68
     0
279
    -2
289
     1
 69
     0
  7
STANDARD
140
4.5
170
     5
 62
     0
 63
     7
283
     0
274
    -2
284
     1
 64
     0
275
    -2
285
     1
 65
     0
276
    -2
286
     1
 66
     0
277
    -2
287
     1
 67
     0
278
    -2
288
     1
 68
     0
279
    -2
289
     1
 69
     0
  0
VISUALSTYLE
  5
63D
102
{ACAD_REACTORS
330
2D
102
}
330
2D
100
AcDbVisualStyle
  2
2dWireframe
 70
     4
 71
     0
 72
     2
 73
     0
 90
        0
 40
-0.6
 41
-30.0
 62
     5
 63
     7
 74
     1
 91
        4
 64
     7
 65
   257
 75
     1
175
     1
 42
1.0
 92
        0
 66
   257
 43
1.0
 76
     1
 77
     6
 78
     2
 67
     7
 79
     5
170
     0
171
     0
290
     0
174
     0
 93
        1
 44
0.0
173
     0
291
     0
 45
0.0
1001
ACAD
1000
AcDbSavedByObjectVersion
1070
     0
1000
AcDbSavedByObjectVersion
1070
     0
  0
VISUALSTYLE
  5
63E
102
{ACAD_REACTORS
330
2D
102
}
330
2D
100
AcDbVisualStyle
  2
3D Hidden
 70
     6
 71
     1
 72
     2
 73
     2
 90
        0
 40
-0.6
 41
-30.0
 62
     5
 63
     7
 74
     2
 91
        2
 64
     7
 65
   257
 75
     2
175
     1
 42
40.0
 92
        0
 66
   257
 43
1.0
 76
     1
 77
     6
 78
     2
 67
     7
 79
     3
170
     0
171
     0
290
     0
174
     0
 93
        1
 44
0.0
173
     0
291
     0
 45
0.0
1001
ACAD
1000
AcDbSavedByObjectVersion
1070
     0
1000
AcDbSavedByObjectVersion
1070
     0
  0
VISUALSTYLE
  5
55
102
{ACAD_REACTORS
330
2D
102
}
330
2D
100
AcDbVisualStyle
  2
3dWireframe
 70
     5
 71
     0
 72
     2
 73
     0
 90
        0
 40
-0.6
 41
-30.0
 62
     5
 63
     7
 74
     1
 91
        4
 64
     7
 65
   257
 75
     1
175
     1
 42
1.0
 92
        0
 66
   257
 43
1.0
 76
     1
 77
     6
 78
     2
 67
     7
 79
     5
170
     0
171
     0
290
     0
174
     0
 93
        1
 44
0.0
173
     0
291
     0
 45
0.0
1001
ACAD
1000
AcDbSavedByObjectVersion
1070
     0
1000
AcDbSavedByObjectVersion
1070
     0
  0
VISUALSTYLE
  5
63C
102
{ACAD_REACTORS
330
2D
102
}
330
2D
100
AcDbVisualStyle
  2
Basic
 70
     7
 71
     1
 72
     0
 73
     1
 90
        0
 40
-0.6
 41
-30.0
 62
     5
 63
     7
 74
     0
 91
        4
 64
     7
 65
   257
 75
     1
175
     1
 42
1.0
 92
        8
 66
     7
 43
1.0
 76
     1
 77
     6
 78
     2
 67
     7
 79
     5
170
     0
171
     0
290
     0
174
     0
 93
        1
 44
0.0
173
     0
291
     1
 45
0.0
1001
ACAD
1000
AcDbSavedByObjectVersion
1070
     0
1000
AcDbSavedByObjectVersion
1070
     0
  0
VISUALSTYLE
  5
641
102
{ACAD_REACTORS
330
2D
102
}
330
2D
100
AcDbVisualStyle
  2
Brighten
 70
    12
 71
     2
 72
     2
 73
     0
 90
        0
 40
-0.6
 41
-30.0
 62
     5
 63
     7
 74
     1
 91
        4
 64
     7
 65
   257
 75
     1
175
     1
 42
1.0
 92
        8
 66
     7
 43
1.0
 76
     1
 77
     6
 78
     2
 67
     7
 79
     5
170
     0
171
     0
290
     0
174
     0
 93
        1
 44
50.0
173
     0
291
     1
 45
0.0
1001
ACAD
1000
AcDbSavedByObjectVersion
1070
     0
1000
AcDbSavedByObjectVersion
1070
     0
  0
VISUALSTYLE
  5
645
102
{ACAD_REACTORS
330
2D
102
}
330
2D
100
AcDbVisualStyle
  2
ColorChange
 70
    16
 71
     2
 72
     2
 73
     3
 90
        0
 40
-0.6
 41
-30.0
 62
     5
 63
     8
 74
     1
 91
        4
 64
     7
 65
   257
 75
     1
175
     1
 42
1.0
 92
        8
 66
     8
 43
1.0
 76
     1
 77
     6
 78
     2
 67
     7
 79
     5
170
     0
171
     0
290
     0
174
     0
 93
        1
 44
0.0
173
     0
291
     1
 45
0.0
1001
ACAD
1000
AcDbSavedByObjectVersion
1070
     0
1000
AcDbSavedByObjectVersion
1070
     0
  0
VISUALSTYLE
  5
63F
102
{ACAD_REACTORS
330
2D
102
}
330
2D
100
AcDbVisualStyle
  2
Conceptual
 70
     9
 71
     3
 72
     2
 73
     0
 90
        0
 40
-0.6
 41
-30.0
 62
     5
 63
     7
 74
     2
 91
        2
 64
     7
 65
   257
 75
     1
175
     1
 42
40.0
 92
        8
 66
     7
 43
1.0
 76
     1
 77
     6
 78
     2
 67
     7
 79
     3
170
     0
171
     0
290
     0
174
     0
 93
        1
 44
0.0
173
     0
291
     0
 45
0.0
1001
ACAD
1000
AcDbSavedByObjectVersion
1070
     0
1000
AcDbSavedByObjectVersion
1070
     0
  0
VISUALSTYLE
  5
640
102
{ACAD_REACTORS
330
2D
102
}
330
2D
100
AcDbVisualStyle
  2
Dim
 70
    11
 71
     2
 72
     2
 73
     0
 90
        0
 40
-0.6
 41
-30.0
 62
     5
 63
     7
 74
     1
 91
        4
 64
     7
 65
   257
 75
     1
175
     1
 42
1.0
 92
        8
 66
     7
 43
1.0
 76
     1
 77
     6
 78
     2
 67
     7
 79
     5
170
     0
171
     0
290
     0
174
     0
 93
        1
 44
-50.0
173
     0
291
     1
 45
0.0
1001
ACAD
1000
AcDbSavedByObjectVersion
1070
     0
1000
AcDbSavedByObjectVersion
1070
     0
  0
VISUALSTYLE
  5
644
102
{ACAD_REACTORS
330
2D
102
}
330
2D
100
AcDbVisualStyle
  2
Facepattern
 70
    15
 71
     2
 72
     2
 73
     0
 90
        0
 40
-0.6
 41
-30.0
 62
     5
 63
     7
 74
     1
 91
        4
 64
     7
 65
   257
 75
     1
175
     1
 42
1.0
 92
        8
 66
     7
 43
1.0
 76
     1
 77
     6
 78
     2
 67
     7
 79
     5
170
     0
171
     0
290
     0
174
     0
 93
        1
 44
0.0
173
     0
291
     1
 45
0.0
1001
ACAD
1000
AcDbSavedByObjectVersion
1070
     0
1000
AcDbSavedByObjectVersion
1070
     0
  0
VISUALSTYLE
  5
638
102
{ACAD_REACTORS
330
2D
102
}
330
2D
100
AcDbVisualStyle
  2
Flat
 70
     0
 71
     2
 72
     1
 73
     1
 90
        2
 40
-0.6
 41
30.0
 62
     5
 63
     7
 74
     0
 91
        4
 64
     7
 65
   257
 75
     1
175
     1
 42
1.0
 92
        8
 66
     7
 43
1.0
 76
     1
 77
     6
 78
     2
 67
     7
 79
     5
170
     0
171
     0
290
     0
174
     0
 93
       13
 44
0.0
173
     0
291
     1
 45
0.0
1001
ACAD
1000
AcDbSavedByObjectVersion
1070
     0
1000
AcDbSavedByObjectVersion
1070
     0
  0
VISUALSTYLE
  5
639
102
{ACAD_REACTORS
330
2D
102
}
330
2D
100
AcDbVisualStyle
  2
FlatWithEdges
 70
     1
 71
     2
 72
     1
 73
     1
 90
        2
 40
-0.6
 41
30.0
 62
     5
 63
     7
 74
     1
 91
        4
 64
     7
 65
   257
 75
     1
175
     1
 42
1.0
 92
        0
 66
   257
 43
1.0
 76
     1
 77
     6
 78
     2
 67
     7
 79
     5
170
     0
171
     0
290
     0
174
     0
 93
       13
 44
0.0
173
     0
291
     1
 45
0.0
1001
ACAD
1000
AcDbSavedByObjectVersion
1070
     0
1000
AcDbSavedByObjectVersion
1070
     0
  0
VISUALSTYLE
  5
63A
102
{ACAD_REACTORS
330
2D
102
}
330
2D
100
AcDbVisualStyle
  2
Gouraud
 70
     2
 71
     2
 72
     2
 73
     1
 90
        2
 40
-0.6
 41
30.0
 62
     5
 63
     7
 74
     0
 91
        4
 64
     7
 65
   257
 75
     1
175
     1
 42
1.0
 92
        0
 66
     7
 43
1.0
 76
     1
 77
     6
 78
     2
 67
     7
 79
     5
170
     0
171
     0
290
     0
174
     0
 93
       13
 44
0.0
173
     0
291
     1
 45
0.0
1001
ACAD
1000
AcDbSavedByObjectVersion
1070
     0
1000
AcDbSavedByObjectVersion
1070
     0
  0
VISUALSTYLE
  5
63B
102
{ACAD_REACTORS
330
2D
102
}
330
2D
100
AcDbVisualStyle
  2
GouraudWithEdges
 70
     3
 71
     2
 72
     2
 73
     1
 90
        2
 40
-0.6
 41
30.0
 62
     5
 63
     7
 74
     1
 91
        4
 64
     7
 65
   257
 75
     1
175
     1
 42
1.0
 92
        0
 66
   257
 43
1.0
 76
     1
 77
     6
 78
     2
 67
     7
 79
     5
170
     0
171
     0
290
     0
174
     0
 93
       13
 44
0.0
173
     0
291
     1
 45
0.0
1001
ACAD
1000
AcDbSavedByObjectVersion
1070
     0
1000
AcDbSavedByObjectVersion
1070
     0
  0
VISUALSTYLE
  5
643
102
{ACAD_REACTORS
330
2D
102
}
330
2D
100
AcDbVisualStyle
  2
Linepattern
 70
    14
 71
     2
 72
     2
 73
     0
 90
        0
 40
-0.6
 41
-30.0
 62
     5
 63
     7
 74
     1
 91
        4
 64
     7
 65
   257
 75
     7
175
     7
 42
1.0
 92
        8
 66
     7
 43
1.0
 76
     1
 77
     6
 78
     2
 67
     7
 79
     5
170
     0
171
     0
290
     0
174
     0
 93
        1
 44
0.0
173
     0
291
     1
 45
0.0
1001
ACAD
1000
AcDbSavedByObjectVersion
1070
     0
1000
AcDbSavedByObjectVersion
1070
     0
  0
VISUALSTYLE
  5
2C
102
{ACAD_REACTORS
330
2D
102
}
330
2D
100
AcDbVisualStyle
  2
Realistic
 70
     8
 71
     2
 72
     2
 73
     0
 90
        0
 40
-0.6
 41
-30.0
 62
     5
 63
     7
 74
     1
 91
        0
 64
     7
 65
   257
 75
     1
175
     1
 42
1.0
 92
        8
 66
     8
 43
1.0
 76
     1
 77
     6
 78
     2
 67
     7
 79
     5
170
     0
171
     0
290
     0
174
     0
 93
       13
 44
0.0
173
     0
291
     0
 45
0.0
1001
ACAD
1000
AcDbSavedByObjectVersion
1070
     0
1000
AcDbSavedByObjectVersion
1070
     0
  0
VISUALSTYLE
  5
642
102
{ACAD_REACTORS
330
2D
102
}
330
2D
100
AcDbVisualStyle
  2
Thicken
 70
    13
 71
     2
 72
     2
 73
     0
 90
        0
 40
-0.6
 41
-30.0
 62
     5
 63
     7
 74
     1
 91
        4
 64
     7
 65
   257
 75
     1
175
     1
 42
1.0
 92
       12
 66
     7
 43
1.0
 76
     1
 77
     6
 78
     2
 67
     7
 79
     5
170
     0
171
     0
290
     0
174
     0
 93
        1
 44
0.0
173
     0
291
     1
 45
0.0
1001
ACAD
1000
AcDbSavedByObjectVersion
1070
     0
1000
AcDbSavedByObjectVersion
1070
     0
  0
DICTIONARYVAR
  5
635
102
{ACAD_REACTORS
330
632
102
}
330
632
100
DictionaryVariables
280
     0
  1
1:1
  0
DICTIONARYVAR
  5
634
102
{ACAD_REACTORS
330
632
102
}
330
632
100
DictionaryVariables
280
     0
  1
STANDARD
  0
DICTIONARYVAR
  5
633
102
{ACAD_REACTORS
330
632
102
}
330
632
100
DictionaryVariables
280
     0
  1
STANDARD
  0
DICTIONARYVAR
  5
66E
102
{ACAD_REACTORS
330
632
102
}
330
632
100
DictionaryVariables
280
     0
  1
1
  0
DICTIONARYVAR
  5
66D
102
{ACAD_REACTORS
330
632
102
}
330
632
100
DictionaryVariables
280
     0
  1
1
  0
DICTIONARYVAR
  5
66C
102
{ACAD_REACTORS
330
632
102
}
330
632
100
DictionaryVariables
280
     0
  1
0
  0
DICTIONARYVAR
  5
636
102
{ACAD_REACTORS
330
632
102
}
330
632
100
DictionaryVariables
280
     0
  1
0
  0
DICTIONARYVAR
  5
66A
102
{ACAD_REACTORS
330
632
102
}
330
632
100
DictionaryVariables
280
     0
  1
1
  0
DICTIONARYVAR
  5
66B
102
{ACAD_REACTORS
330
632
102
}
330
632
100
DictionaryVariables
280
     0
  1
127
  0
ACAD_PROXY_OBJECT
  5
62C
102
{ACAD_REACTORS
330
62B
102
}
330
62B
100
AcDbProxyObject
 90
      499
 91
      558
 95
  1638427
 70
     0
 93
      167
310
4050100057356C1D9F532AA40CA8010400C400E802
350
62D
 94
        0
1001
ACAD
1000
AcRTDxfName
1000
ACMDATADICTIONARY
1000
AcRTDxfName
1000
ACMDATADICTIONARY
1000
AcRTDxfName
1000
ACMDATADICTIONARY
  0
DICTIONARY
  5
CEB
330
16
100
AcDbDictionary
280
     1
281
     1
  3
ACAD_XREC_ROUNDTRIP
360
CEC
  0
DICTIONARY
  5
1C
330
1B
100
AcDbDictionary
280
     1
281
     1
  3
ACAD_XREC_ROUNDTRIP
360
CED
  3
ADSK_XREC_LAYOUTTHUMBNAIL
360
1D
  0
DICTIONARY
  5
46
330
45
100
AcDbDictionary
280
     1
281
     1
  3
ACAD_XREC_ROUNDTRIP
360
664
  3
BUMPTILE
360
47
  3
DIFFUSETILE
360
48
  3
OPACITYTILE
360
49
  3
REFLECTIONTILE
360
4A
  3
REFRACTIONTILE
360
4B
  3
SPECULARTILE
360
4C
  0
DICTIONARY
  5
3E
330
3D
100
AcDbDictionary
280
     1
281
     1
  3
ACAD_XREC_ROUNDTRIP
360
663
  3
BUMPTILE
360
3F
  3
DIFFUSETILE
360
40
  3
OPACITYTILE
360
41
  3
REFLECTIONTILE
360
42
  3
REFRACTIONTILE
360
43
  3
SPECULARTILE
360
44
  0
DICTIONARY
  5
D
330
B
100
AcDbDictionary
280
     1
281
     1
  3
ACAD_XREC_ROUNDTRIP
360
65C
  3
BUMPTILE
360
E
  3
DIFFUSETILE
360
F
  3
OPACITYTILE
360
10
  3
REFLECTIONTILE
360
11
  3
REFRACTIONTILE
360
12
  3
SPECULARTILE
360
13
  0
DICTIONARY
  5
62F
330
54
100
AcDbDictionary
280
     1
281
     1
  3
ACAD_ROUNDTRIP_2008_TABLESTYLE_CELLSTYLEMAP
360
CE5
  3
ACAD_XREC_ROUNDTRIP
360
CEE
  0
ACAD_PROXY_OBJECT
  5
62D
102
{ACAD_REACTORS
330
62C
102
}
330
62C
100
AcDbProxyObject
 90
      499
 91
      559
 95
  1638427
 70
     0
 93
      358
310
057356C1D9F406406AA8FFFFFFFF067D010040485A0802380188029801680258025801C001B00298022005D004
330
2
330
0
330
0
 94
        0
1001
ACAD
1000
AcRTDxfName
1000
ACMDATAENTRYBLOCK
1000
AcRTDxfName
1000
ACMDATAENTRYBLOCK
1000
AcRTDxfName
1000
ACMDATAENTRYBLOCK
  0
XRECORD
  5
CEC
102
{ACAD_REACTORS
330
CEB
102
}
330
CEB
100
AcDbXrecord
280
     1
102
SHADEPLOT
 70
     0
102
SHADEPLOTRESLEVEL
 70
     2
102
SHADEPLOTCUSTOMDPI
 70
   300
  0
XRECORD
  5
CED
102
{ACAD_REACTORS
330
1C
102
}
330
1C
100
AcDbXrecord
280
     1
102
SHADEPLOT
 70
     0
102
SHADEPLOTRESLEVEL
 70
     2
102
SHADEPLOTCUSTOMDPI
 70
   300
  0
XRECORD
  5
1D
102
{ACAD_REACTORS
330
1C
102
}
330
1C
100
AcDbXrecord
280
     1
310
28000000B4000000860000000100080000000000385E0000000000000000000000010000000000000000000000000000FFFFFF000000000000000000000000000000000000000000000000000000000000000000330000006600000099000000CC000000FF00000000330000333300006633000099330000CC330000FF3300
310
0000660000336600006666000099660000CC660000FF66000000990000339900006699000099990000CC990000FF99000000CC000033CC000066CC000099CC0000CCCC0000FFCC000000FF000033FF000066FF000099FF0000CCFF0000FFFF000000003300330033006600330099003300CC003300FF003300003333003333
310
33006633330099333300CC333300FF33330000663300336633006666330099663300CC663300FF66330000993300339933006699330099993300CC993300FF99330000CC330033CC330066CC330099CC3300CCCC3300FFCC330000FF330033FF330066FF330099FF3300CCFF3300FFFF330000006600330066006600660099
310
006600CC006600FF00660000336600333366006633660099336600CC336600FF33660000666600336666006666660099666600CC666600FF66660000996600339966006699660099996600CC996600FF99660000CC660033CC660066CC660099CC6600CCCC6600FFCC660000FF660033FF660066FF660099FF6600CCFF6600
310
FFFF660000009900330099006600990099009900CC009900FF00990000339900333399006633990099339900CC339900FF33990000669900336699006666990099669900CC669900FF66990000999900339999006699990099999900CC999900FF99990000CC990033CC990066CC990099CC9900CCCC9900FFCC990000FF99
310
0033FF990066FF990099FF9900CCFF9900FFFF99000000CC003300CC006600CC009900CC00CC00CC00FF00CC000033CC003333CC006633CC009933CC00CC33CC00FF33CC000066CC003366CC006666CC009966CC00CC66CC00FF66CC000099CC003399CC006699CC009999CC00CC99CC00FF99CC0000CCCC0033CCCC0066CC
310
CC0099CCCC00CCCCCC00FFCCCC0000FFCC0033FFCC0066FFCC0099FFCC00CCFFCC00FFFFCC000000FF003300FF006600FF009900FF00CC00FF00FF00FF000033FF003333FF006633FF009933FF00CC33FF00FF33FF000066FF003366FF006666FF009966FF00CC66FF00FF66FF000099FF003399FF006699FF009999FF00CC
310
99FF00FF99FF0000CCFF0033CCFF0066CCFF0099CCFF00CCCCFF00FFCCFF0000FFFF0033FFFF0066FFFF0099FFFF00CCFFFF00FFFFFF00000000000D0D0D001A1A1A00282828003535350043434300505050005D5D5D006B6B6B00787878008686860093939300A1A1A100AEAEAE00BBBBBB00C9C9C900D6D6D600E4E4E400
310
F1F1F100FFFFFF0000000000000000000000000000000000000000000000000000000000000000000000000000000000E2E2E2E2E2E2E2E2E2E2E2E2E2E2E2E2E2E2E2E2E2E2E2E2E2E2E2E2E2E2E2E2E2E2E2E2E2E2E2E2E2E2E2E2E2E2E2E2E2E2E2E2E2E2E2E2E2E2E2E2E2E2E2E2E2E2E2E2E2E2E2E2E2E2E2E2E2E2E2
310
E2E2E2E2E2E2E2E2E2E2E2E2E2E2E2E2E2E2E2E2E2E2E2E2E2E2E2E2E2E2E2E2E2E2E2E2E2E2E2E2E2E2E2E2E2E2E2E2E2E2E2E2E2E2E2E2E2E2E2E2E2E2E2E2E2E2E2E2E2E2E2E2E2E2E2E2E2E2E2E2E2E2E2E2E2E2E2E2E2E2E2E2E2E2E2E2E2E2E2E2E2E2E2E2E2E2E2E2E2E2E2E2E2E2E2E2E2E2E2E2E2E2E2E2E2E2E2
310
E2E2E2E2E2E2E2E2E2E2E2E2E2E2E2E2E2E2E2E2E2E2E2E2E2E2E2E2E2E2E2E2E2E2E2E2E2E2E2E2E2E2E2E2E2E2E2E2E2E2E2E2E2E2E2E2E2E2E2E2E2E2E2E2E2E2E2E2E2E2E2E2E2E2E2E2E2E2E2E2E2E2E2E2E2E2E2E2E2E2E2E2E2E2E2E2E2E2E2E2E2E2E2E2E2E2E2E2E2E2E2E2E2E2E2E2E2E2E2E2E2E2E2E2E2E2E2
310
E2E2E2E2E2E2E2E2E2E2E2E2E2E2E2E2E2E2E2E2E2E2E2E2E2E2E2E2E2E2E2E2E2E2E2E2E2E2E2E2E2E2E2E2E2E2E2E2E2E2E2E2E2E2E2E2E2E2E2E2E2E2E2E2E2E2E2E2E2E2E2E2E2E2E2E2E2E2E2E2E2E2E2E2E2E2E2E2E2E2E2E2E2E2E2E2E2E2E2E2E2E2E2E2E2E2E2E2E2E2E2E2E2E2E2E2E2E2E2E2E2E2E2E2E2E2E2
310
E2E2E2E2E2E2E2E2E2E2E2E2E2E2E2E2E2E2E2E2E2E2E2E2E2E2E2E2E2E2E2E2E2E2E2E2E2E2E2E2E2E2E2E2E2E2E2E2E2E2E2E2E2E2E2E2E2E2E2E2E2E2E2E2E2E2E2E2E2E2E2E2E2E2E2E2E2E2E2E2E2E2E2E2E2E2E2E2E2E2E2E2E2E2E2E2E2E2E2E2E2E2E2E2E2E2E2E2E2E2E2E2E2E2E2E2E2E2E2E2E2E2E2E2E2E2E2
310
E2E2E2E2E2E2E2E2E2E2E2E2E2E2E2E2E2E2E2E2E2E2E2E2E2E2E2E2E2E2E2E2E2E2E2E2E2E2E2E2E2E2E2E2E2E2E2E2E2E2E2E2E2E2E2E2E2E2E2E2E2E2E2E2E2E2E2E2E2E2E2E2E2E2E2E2E2E2E2E2E2E2E2E2E2E2E2E2E2E2E2E2E2E2E2E2E2E2E2E2E2E2E2E2E2E2E2E2E2E2E2E2E2E2E2E2E2E2E2E2E2E2E2E2E2E2E2
310
E2E2E2E2E2E2E2E2E2E2E2E2E2E2E2E2E2E2E2E2E2E2E2E2E2E2E2E2E2E2E2E2E2E2E2E2E2E2E2E2E2E2E2E2E2E2E2E2E2E2E2E2E2E2E2E2E2E2E2E2E2E2E2E2E2E2E2E2E2E2E2E2E2E2E2E2E2E2E2E2E2E2E2E2E2E2E2E2E2E2E2E2E2E2E2E2E2E2E2E2E2E2E2E2E2E2E2E2E2E2E2E2E2E2E2E2E2E2E2E2E2E2E2E2E2E2E2
310
E2E2E2E2E2E2E2E2E2E2E2E2E2E2E2E2E2E2E2E2E2E2E2E2E2E2E2E2E2E2E2E2E2E2E2E2E2E2E2E2E2E2E2E2E2E2E2E2E2E2E2E2E2E2E2E2E2E2E2E2E2E2E2E2E2E2E2E2E2E2E2E2E2E2E2E2E2E2E2E2E2E2E2E2E2E2E2E2E2E2E2E2E2E2E2E2E2E2E2E2E2E2E2E2E2E2E2E2E2E2E2E2E2E2E2E2E2E2E2E2E2E2E2E2E2E2E2
310
E2E2E2E2E2E2E2E2E2E2E2E2E2E2E2E2E2E2E2E2E2E2E2E2E2E2E2E2E2E2E2E2E2E2E2E2E2E2E2E2E2E2E2E2E2E2E2E2E2E2E2E2E2E2E2E2E2E2E2E2E2E2E2E2E2E2E2E2E2E2E2E2E2E2E2E2E2E2E2E2E2E2E2E2E2E2E2E2E2E2E2E2E2E2E2E2E2E2E2E2E2E2E2E2E2E2E2E2E2E2E2E2E2E2E2E2E2E2E2E2E2E2E2E2E2E2E2
310
E2E2E2E2E2E2E2E2E2E2E2E2E2E2E2E2E2E2E2E2E2E2E2E2E2E2E2E2E2E2E2E2E2E2E2E2E2E2E2E2E2E2E2E2E2E2E2E2E2E2E2E2E2E2E2E2E2E2E2E2E2E2E2E2E2E2E2E2E2E2E2E2E2E2E2E2E2E2E2E2E2E2E2E2E2E2E2E2E2E2E2E2E2E2E2E2E2E2E2E2E2E2E2E2E2E2E2E2E2E2E2E2E2E2E2E2E2E2E2E2E2E2E2E2E2E2E2
310
E2E2E2E2E2E2E2E2E2E2E2E2E2E2E2E2E2E2E2E2E2E2E2E2E2E2E2E2E2E2E2E2E2E2E2E2E2E2E2E2E2E2E2E2E2E2E2E2E2E2E2E2E2E2E2E2E2E2E2E2E2E2E2E2E2E2E2E2E2E2E2E2E2E2E2E2E2E2E2E2E2E2E2E2E2E2E2E2E2E2E2E2E2E2E2E2E2E2E2E2E2E2E2E2E2E2E2E2E2E2E2E2E2E2E2E2E2E2E2E2E2E2E2E2E2E2E2
310
E2E2E2E2E2E2E2E2E2E2E2E2E2E2E2E2E2E2E2E2E2E2E2E2E2E2E2E2E2E2E2E2E2E2E2E2E2E2E2E2E2E2E2E2E2E2E2E2E2E2E2E2E2E2E2E2E2E2E2E2E2E2E2E2E2E2E2E2E2E2E2E2E2E2E2E2E2E2E2E2E2E2E2E2E2E2E2E2E2E2E2E2E2E2E2E2E2E2E2E2E2E2E2E2E2E2E2E2E2E2E2E2E2E2E2E2E2E2E2E2E2E2E2E2E2E2E2
310
E2E2E2E2E2E2E2E2E2E2E2E2E2E2E2E2E2E2E2E2E2E2E2E2E2E2E2E2E2E2E2E2E2E2E2E2E2E2E2E2E2E2E2E2E2E2E2E2E2E2E2E2E2E2E2E2E2E2E2E2E2E2E2E2E2E2E2E2E2E2E2E2E2E2E2E2E2E2E2E2E2E2E2E2E2E2E2E2E2E2E2E2E2E2E2E2E2E2E2E2E2E2E2E2E2E2E2E2E2E2E2E2E2E2E2E2E2E2E2E2E2E2E2E2E2E2E2
310
E2E2E2E2E2E2E2E2E2E2E2E2E2E2E2E2E2E2E2E2E2E2E2E2E2E2E2E2E2E2E2E2E2E2E2E2E2E2E2E2E2E2E2E2E2E2E2E2E2E2E2E2E2E2E2E2E2E2E2E2E2E2E2E2E2E2E2E2E2E2E2E2E2E2E2E2E2E2E2E2E2E2E2E2E2E2E2E2E2E2E2E2E2E2E2E2E2E2E2E2E2E2E2E2E2E2E2E2E2E2E2E2E2E2E2E2E2E2E2E2E2E2E2E2E2E2E2
310
E2E2E2E2E2E2E2E2E2E2E2E2E2E2E2E2E2E2E2E2E2E2E2E2E2E2E2E2E2E2E2E2E2E2E2E2E2E2E2E2E2E2E2E2E2E2E2E2E2E2E2E2E2E2E2E2E2E2E2E2E2E2E2E2E2E2E2E2E2E2E2E2E2E2E2E2E2E2E2E2E2E2E2E2E2E2E2E2E2E2E2E2E2E2E2E2E2E2E2E2E2E2E2E2E2E2E2E2E2E2E2E2E2E2E2E2E2E2E2E2E2E2E2E2E2E2E2
310
E2E2E2E2E2E2E2E2E2E2E2E2E2E2E2E2E2E2E2E2E2E2E2E2E2E2E2E2E2E2E2E2E2E2E2E2E2E2E2E2E2E2E2E2E2E2E2E2E2E2E2E2E2E2E2E2E2E2E2E2E2E2E2E2E2E2E2E2E2E2E2E2E2E2E2E2E2E2E2E2E2E2E2E2E2E2E2E2E2E2E2E2E2E2E2E2E2E2E2E2E2E2E2E2E2E2E2E2E2E2E2E2E2E2E2E2E2E2E2E2E2E2E2E2E2E2E2
310
E2E2E2E2E2E2E2E2E2E2E2E2E2E2E2E2E2E2E2E2E2E2E2E2E2E2E2E2E2E2E2E2E2E2E2E2E2E2E2E2E2E2E2E2E2E2E2E2E2E2E2E2E2E2E2E2E2E2E2E2E2E2E2E2E2E2E2E2E2E2E2E2E2E2E2E2E2E2E2E2E2E2E2E2E2E2E2E2E2E2E2E2E2E2E2E2E2E2E2E2E2E2E2E2E2E2E2E2E2E2E2E2E2E2E2E2E2E2E2E2E2E2E2E2E2E2E2
310
E2E2E2E2E2E2E2E2E2E2E2E2E2E2E2E2E2E2E2E2E2E2E2E2E2E2E2E2E2E2E2E2E2E2E2E2E2E2E2E2E2E2E2E2E2E2E2E2E2E2E2E2E2E2E2E2E2E2E2E2E2E2E2E2E2E2E2E2E2E2E2E2E2E2E2E2E2E2E2E2E2E2E2E2E2E2E2E2E2E2E2E2E2E2E2E2E2E2E2E2E2E2E2E2E2E2E2E2E2E2E2E2E2E2E2E2E2E2E2E2E2E2E2E2E2E2E2
310
E2E2E2E2E2E2E2E2E2E2E2E2E2E2E2E2E2E2E2E2E2E2E2E2E2E2E2E2E2E2E2E2E2E2E2E2E2E2E2E2E2E2E2E2E2E2E2E2E2E2E2E2E2E2E2E2E2E2E2E2E2E2E2E2E2E2E2E2E2E2E2E2E2E2E2E2E2E2E2E2E2E2E2E2E2E2E2E2E2E2E2E2E2E2E2E2E2E2E2E2E2E2E2E2E2E2E2E2E2E2E2E2E2E2E2E2E2E2E2E2E2E2E2E2E2E2E2
310
E2E2E2E2E2E2E2E2E2E2E2E2E2E2E2E2E2E2E2E2E2E2E2E2E2E2E2E2E2E2E2E2E2E2E2E2E2E2E2E2E2E2E2E2E2E2E2E2E2E2E2E2E2E2E2E2E2E2E2E2E2E2E2E2E2E2E2E2E2E2E2E2E2E2E2E2E2E2E2E2E2E2E2E2E2E2E2E2E2E2E2E2E2E2E2E2E2E2E2E2E2E2E2E2E2E2E2E2E2E2E2E2E2E2E2E2E2E2E2E2E2E2E2E2E2E2E2
310
E2E2E2E2E2E2E2E2E2E2E2E2E2E2E2E2E2E2E2E2E2E2E2E2E2E2E2E2E2E2E2E2E2E2E2E2E2E2E2E2E2E2E2E2E2E2E2E2E2E2E2E2E2E2E2E2E2E2E2E2E2E2E2E2E2E2E2E2E2E2E2E2E2E2E2E2E2E2E2E2E2E2E2E2E2E2E2E2E2E2E2E2E2E2E2E2E2E2E2E2E2E2E2E2E2E2E2E2E2E2E2E2E2E2E2E2E2E2E2E2E2E2E2E2E2E2E2
310
E2E2E2E2E2E2E2E2E2E2E2E2E2E2E2E2E2E2E2E2E2E2E2E2E2E2E2E2E2E2E2E2E2E2E2E2E2E2E2E2E2E2E2E2E2E2E2E2E2E2E2E2E2E2E2E2E2E2E2E2E2E2E2E2E2E2E2E2E2E2E2E2E2E2E2E2E2E2E2E2E2E2E2E2E2E2E2E2E2E2E2E2E2E2E2E2E2E2E2E2E2E2E2E2E2E2E2E2E2E2E2E2E2E2E2E2E2E2E2E2E2E2E2E2E2E2E2
310
E2E2E2E2E2E2E2E2E2E2E2E2E2E2E2E2E2E2E2E2E2E2E2E2E2E2E2E2E2E2E2E2E2E2E2E2E2E2E2E2E2E2E2E2E2E2E2E2E2E2E2E2E2E2E2E2E2E2E2E2E2E2E2E2E2E2E2E2E2E2E2E2E2E2E2E2E2E2E2E2E2E2E2E2E2E2E2E2E2E2E2E2E2E2E2E2E2E2E2E2E2E2E2E2E2E2E2E2E2E2E2E2E2E2E2E2E2E2E2E2E2E2E2E2E2E2E2
310
E2E2E2E2E2E2E2E2E2E2E2E2E2E2E2E2E2E2E2E2E2E2E2E2E2E2E2E2E2E2E2E2E2E2E2E2E2E2E2E2E2E2E2E2E2E2E2E2E2E2E2E2E2E2E2E2E2E2E2E2E2E2E2E2E2E2E2E2E2E2E2E2E2E2E2E2E2E2E2E2E2E2E2E2E2E2E2E2E2E2E2E2E2E2E2E2E2E2E2E2E2E2E2E2E2E2E2E2E2E2E2E2E2E2E2E2E2E2E2E2E2E2E2E2E2E2E2
310
E2E2E2E2E2E2E2E2E2E2E2E2E2E2E2E2E2E2E2E2E2E2E2E2E2E2E2E2E2E2E2E2E2E2E2E2E2E2E2E2E2E2E2E2E2E2E2E2E2E2E2E2E2E2E2E2E2E2E2E2E2E2E2E2E2E2E2E2E2E2E2E2E2E2E2E2E2E2E2E2E2E2E2E2E2E2E2E2E2E2E2E2E2E2E2E2E2E2E2E2E2E2E2E2E2E2E2E2E2E2E2E2E2E2E2E2E2E2E2E2E2E2E2E2E2E2E2
310
E2E2E2E2E2E2E2E2E2E2E2E2E2E2E2E2E2E2E2E2E2E2E2E2E2E2E2E2E2E2E2E2E2E2E2E2E2E2E2E2E2E2E2E2E2E2E2E2E2E2E2E2E2E2E2E2E2E2E2E2E2E2E2E2E2E2E2E2E2E2E2E2E2E2E2E2E2E2E2E2E2E2E2E2E2E2E2E2E2E2E2E2E2E2E2E2E2E2E2E2E2E2E2E2E2E2E2E2E2E2E2E2E2E2E2E2E2E2E2E2E2E2E2E2E2E2E2
310
E2E2E2E2E2E2E2E2E2E2E2E2E2E2E2E2E2E2E2E2E2E2E2E2E2E2E2E2E2E2E2E2E2E2E2E2E2E2E2E2E2E2E2E2E2E2E2E2E2E2E2E2E2E2E2E2E2E2E2E2E2E2E2E2E2E2E2E2E2E2E2E2E2E2E2E2E2E2E2E2E2E2E2E2E2E2E2E2E2E2E2E2E2E2E2E2E2E2E2E2E2E2E2E2E2E2E2E2E2E2E2E2E2E2E2E2E2E2E2E2E2E2E2E2E2E2E2
310
E2E2E2E2E2E2E2E2E2E2E2E2E2E2E2E2E2E2E2E2E2E2E2E2E2E2E2E2E2E2E2E2E2E2E2E2E2E2E2E2E2E2E2E2E2E2E2E2E2E2E2E2E2E2E2E2E2E2E2E2E2E2E2E2E2E2E2E2E2E2E2E2E2E2E2E2E2E2E2E2E2E2E2E2E2E2E2E2E2E2E2E2E2E2E2E2E2E2E2E2E2E2E2E2E2E2E2E2E2E2E2E2E2E2E2E2E2E2E2E2E2E2E2E2E2E2E2
310
E2E2E2E2E2E2E2E2E2E2E2E2E2E2E2E2E2E2E2E2E2E2E2E2E2E2E2E2E2E2E2E2E2E2E2E2E2E2E2E2E2E2E2E2E2E2E2E2E2E2E2E2E2E2E2E2E2E2E2E2E2E2E2E2E2E2E2E2E2E2E2E2E2E2E2E2E2E2E2E2E2E2E2E2E2E2E2E2E2E2E2E2E2E2E2E2E2E2E2E2E2E2E2E2E2E2E2E2E2E2E2E2E2E2E2E2E2E2E2E2E2E2E2E2E2E2E2
310
E2E2E2E2E2E2E2E2E2E2E2E2E2E2E2E2E2E2E2E2E2E2E2E2E2E2E2E2E2E2E2E2E2E2E2E2E2E2E2E2E2E2E2E2E2E2E2E2E2E2E2E2E2E2E2E2E2E2E2E2E2E2E2E2E2E2E2E2E2E2E2E2E2E2E2E2E2E2E2E2E2E2E2E2E2E2E2E2E2E2E2E2E2E2E2E2E2E2E2E2E2E2E2E2E2E2E2E2E2E2E2E2E2E2E2E2E2E2E2E2E2E2E2E2E2E2E2
310
E2E2E2E2E2E2E2E2E2E2E2E2E2E2E2E2E2E2E2E2E2E2E2E2E2E2E2E2E2E2E2E2E2E2E2E2E2E2E2E2E2E2E2E2E2E2E2E2E2E2E2E2E2E2E2E2E2E2E2E2E2E2E2E2E2E2E2E2E2E2E2E2E2E2E2E2E2E2E2E2E2E2E2E2E2E2E2E2E2E2E2E2E2E2E2E2E2E2E2E2E2E2E2E2E2E2E2E2E2E2E2E2E2E2E2E2E2E2E2E2E2E2E2E2E2E2E2
310
E2E2E2E2E2E2E2E2E2E2E2E2E2E2E2E2E2E2E2E2E2E2E2E2E2E2E2E2E2E2E2E2E2E2E2E2E2E2E2E2E2E2E2E2E2E2E2E2E2E2E2E2E2E2E2E2E2E2E2E2E2E2E2E2E2E2E2E2E2E2E2E2E2E2E2E2E2E2E2E2E2E2E2E2E2E2E2E2E2E2E2E2E2E2E2E2E2E2E2E2E2E2E2E2E2E2E2E2E2E2E2E2E2E2E2E2E2E2E2E2E2E2E2E2E2E2E2
310
E2E2E2E2E2E2E2E2E2E2E2E2E2E2E2E2E2E2E2E2E2E2E2E2E2E2E2E2E2E2E2E2E2E2E2E2E2E2E2E2E2E2E2E2E2E2E2E2E2E2E2E2E2E2E2E2E2E2E2E2E2E2E2E2E2E2E2E2E2E2E2E2E2E2E2E2E2E2E2E2E2E2E2E2E2E2E2E2E2E2E2E2E2E2E2E2E2E2E2E2E2E2E2E2E2E2E2E2E2E2E2E2E2E2E2E2E2E2E2E2E2E2E2E2E2E2E2
310
E2E2E2E2E2E2E2E2E2E2E2E2E2E2E2E2E2E2E2E2E2E2E2E2E2E2E2E2E2E2E2E2E2E2E2E2E2E2E2E2E2E2E2E2E2E2E2E2E2E2E2E2E2E2E2E2E2E2E2E2E2E2E2E2E2E2E2E2E2E2E2E2E2E2E2E2E2E2E2E2E2E2E2E2E2E2E2E2E2E2E2E2E2E2E2E2E2E2E2E2E2E2E2E2E2E2E2E2E2E2E2E2E2E2E2E2E2E2E2E2E2E2E2E2E2E2E2
310
E2E2E2E2E2E2E2E2E2E2E2E2E2E2E2E2E2E2E2E2E2E2E2E2E2E2E2E2E2E2E2E2E2E2E2E2E2E2E2E2E2E2E2E2E2E2E2E2E2E2E2E2E2E2E2E2E2E2E2E2E2E2E2E2E2E2E2E2E2E2E2E2E2E2E2E2E2E2E2E2E2E2E2E2E2E2E2E2E2E2E2E2E2E2E2E2E2E2E2E2E2E2E2E2E2E2E2E2E2E2E2E2E2E2E2E2E2E2E2E2E2E2E2E2E2E2E2
310
E2E2E2E2E2E2E2E2E2E2E2E2E2E2E2E2E2E2E2E2E2E2E2E2E2E2E2E2E2E2E2E2E2E2E2E2E2E2E2E2E2E2E2E2E2E2E2E2E2E2E2E2E2E2E2E2E2E2E2E2E2E2E2E2E2E2E2E2E2E2E2E2E2E2E2E2E2E2E2E2E2E2E2E2E2E2E2E2E2E2E2E2E2E2E2E2E2E2E2E2E2E2E2E2E2E2E2E2E2E2E2E2E2E2E2E2E2E2E2E2E2E2E2E2E2E2E2
310
E2E2E2E2E2E2E2E2E2E2E2E2E2E2E2E2E2E2E2E2E2E2E2E2E2E2E2E2E2E2E2E2E2E2E2E2E2E2E2E2E2E2E2E2E2E2E2E2E2E2E2E2E2E2E2E2E2E2E2E2E2E2E2E2E2E2E2E2E2E2E2E2E2E2E2E2E2E2E2E2E2E2E2E2E2E2E2E2E2E2E2E2E2E2E2E2E2E2E2E2E2E2E2E2E2E2E2E2E2E2E2E2E2E2E2E2E2E2E2E2E2E2E2E2E2E2E2
310
E2E2E2E2E2E2E2E2E2E2E2E2E2E2E2E2E2E2E2E2E2E2E2E2E2E2E2E2E2E2E2E2E2E2E2E2E2E2E2E2E2E2E2E2E2E2E2E2E2E2E2E2E2E2E2E2E2E2E2E2E2E2E2E2E2E2E2E2E2E2E2E2E2E2E2E2E2E2E2E2E2E2E2E2E2E2E2E2E2E2E2E2E2E2E2E2E2E2E2E2E2E2E2E2E2E2E2E2E2E2E2E2E2E2E2E2E2E2E2E2E2E2E2E2E2E2E2
310
E2E2E2E2E2E2E2E2E2E2E2E2E2E2E2E2E2E2E2E2E2E2E2E2E2E2E2E2E2E2E2E2E2E2E2E2E2E2E2E2E2E2E2E2E2E2E2E2E2E2E2E2E2E2E2E2E2E2E2E2E2E2E2E2E2E2E2E2E2E2E2E2E2E2E2E2E2E2E2E2E2E2E2E2E2E2E2E2E2E2E2E2E2E2E2E2E2E2E2E2E2E2E2E2E2E2E2E2E2E2E2E2E2E2E2E2E2E2E2E2E2E2E2E2E2E2E2
310
E2E2E2E2E2E2E2E2E2E2E2E2E2E2E2E2E2E2E2E2E2E2E2E2E2E2E2E2E2E2E2E2E2E2E2E2E2E2E2E2E2E2E2E2E2E2E2E2E2E2E2E2E2E2E2E2E2E2E2E2E2E2E2E2E2E2E2E2E2E2E2E2E2E2E2E2E2E2E2E2E2E2E2E2E2E2E2E2E2E2E2E2E2E2E2E2E2E2E2E2E2E2E2E2E2E2E2E2E2E2E2E2E2E2E2E2E2E2E2E2E2E2E2E2E2E2E2
310
E2E2E2E2E2E2E2E2E2E2E2E2E2E2E2E2E2E2E2E2E2E2E2E2E2E2E2E2E2E2E2E2E2E2E2E2E2E2E2E2E2E2E2E2E2E2E2E2E2E2E2E2E2E2E2E2E2E2E2E2E2E2E2E2E2E2E2E2E2E2E2E2E2E2E2E2E2E2E2E2E2E2E2E2E2E2E2E2E2E2E2E2E2E2E2E2E2E2E2E2E2E2E2E2E2E2E2E2E2E2E2E2E2E2E2E2E2E2E2E2E2E2E2E2E2E2E2
310
E2E2E2E2E2E2E2E2E2E2E2E2E2E2E2E2E2E2E2E2E2E2E2E2E2E2E2E2E2E2E2E2E2E2E2E2E2E2E2E2E2E2E2E2E2E2E2E2E2E2E2E2E2E2E2E2E2E2E2E2E2E2E2E2E2E2E2E2E2E2E2E2E2E2E2E2E2E2E2E2E2E2E2E2E2E2E2E2E2E2E2E2E2E2E2E2E2E2E2E2E2E2E2E2E2E2E2E2E2E2E2E2E2E2E2E2E2E2E2E2E2E2E2E2E2E2E2
310
E2E2E2E2E2E2E2E2E2E2E2E2E2E2E2E2E2E2E2E2E2E2E2E2E2E2E2E2E2E2E2E2E2E2E2E2E2E2E2E2E2E2E2E2E2E2E2E2E2E2E2E2E2E2E2E2E2E2E2E2E2E2E2E2E2E2E2E2E2E2E2E2E2E2E2E2E2E2E2E2E2E2E2E2E2E2E2E2E2E2E2E2E2E2E2E2E2E2E2E2E2E2E2E2E2E2E2E2E2E2E2E2E2E2E2E2E2E2E2E2E2E2E2E2E2E2E2
310
E2E2E2E2E2E2E2E2E2E2E2E2E2E2E2E2E2E2E2E2E2E2E2E2E2E2E2E2E2E2E2E2E2E2E2E2E2E2E2E2E2E2E2E2E2E2E2E2E2E2E2E2E2E2E2E2E2E2E2E2E2E2E2E2E2E2E2E2E2E2E2E2E2E2E2E2E2E2E2E2E2E2E2E2E2E2E2E2E2E2E2E2E2E2E2E2E2E2E2E2E2E2E2E2E2E2E2E2E2E2E2E2E2E2E2E2E2E2E2E2E2E2E2E2E2E2E2
310
E2E2E2E2E2E2E2E2E2E2E2E2E2E2E2E2E2E2E2E2E2E2E2E2E2E2E2E2E2E2E2E2E2E2E2E2E2E2E2E2E2E2E2E2E2E2E2E2E2E2E2E2E2E2E2E2E2E2E2E2E2E2E2E2E2E2E2E2E2E2E2E2E2E2E2E2E2E2E2E2E2E2E2E2E2E2E2E2E2E2E2E2E2E2E2E2E2E2E2E2E2E2E2E2E2E2E2E2E2E2E2E2E2E2E2E2E2E2E2E2E2E2E2E2E2E2E2
310
E2E2E2E2E2E2E2E2E2E2E2E2E2E2E2E2E2E2E2E2E2E2E2E2E2E2E2E2E2E2E2E2E2E2E2E2E2E2E2E2E2E2E2E2E2E2E2E2E2E2E2E2E2E2E2E2E2E2E2E2E2E2E2E2E2E2E2E2E2E2E2E2E2E2E2E2E2E2E2E2E2E2E2E2E2E2E2E2E2E2E2E2E2E2E2E2E2E2E2E2E2E2E2E2E2E2E2E2E2E2E2E2E2E2E2E2E2E2E2E2E2E2E2E2E2E2E2
310
E2E2E2E2E2E2E2E2E2E2E2E2E2E2E2E2E2E2E2E2E2E2E2E2E2E2E2E2E2E2E2E2E2E2E2E2E2E2E2E2E2E2E2E2E2E2E2E2E2E2E2E2E2E2E2E2E2E2E2E2E2E2E2E2E2E2E2E2E2E2E2E2E2E2E2E2E2E2E2E2E2E2E2E2E2E2E2E2E2E2E2E2E2E2E2E2E2E2E2E2E2E2E2E2E2E2E2E2E2E2E2E2E2E2E2E2E2E2E2E2E2E2E2E2E2E2E2
310
E2E2E2E2E2E2E2E2E2E2E2E2E2E2E2E2E2E2E2E2E2E2E2E2E2E2E2E2E2E2E2E2E2E2E2E2E2E2E2E2E2E2E2E2E2E2E2E2E2E2E2E2E2E2E2E2E2E2E2E2E2E2E2E2E2E2E2E2E2E2E2E2E2E2E2E2E2E2E2E2E2E2E2E2E2E2E2E2E2E2E2E2E2E2E2E2E2E2E2E2E2E2E2E2E2E2E2E2E2E2E2E2E2E2E2E2E2E2E2E2E2E2E2E2E2E2E2
310
E2E2E2E2E2E2E2E2E2E2E2E2E2E2E2E2E2E2E2E2E2E2E2E2E2E2E2E2E2E2E2E2E2E2E2E2E2E2E2E2E2E2E2E2E2E2E2E2E2E2E2E2E2E2E2E2E2E2E2E2E2E2E2E2E2E2E2E2E2E2E2E2E2E2E2E2E2E2E2E2E2E2E2E2E2E2E2E2E2E2E2E2E2E2E2E2E2E2E2E2E2E2E2E2E2E2E2E2E2E2E2E2E2E2E2E2E2E2E2E2E2E2E2E2E2E2E2
310
E2E2E2E2E2E2E2E2E2E2E2E2E2E2E2E2E2E2E2E2E2E2E2E2E2E2E2E2E2E2E2E2E2E2E2E2E2E2E2E2E2E2E2E2E2E2E2E2E2E2E2E2E2E2E2E2E2E2E2E2E2E2E2E2E2E2E2E2E2E2E2E2E2E2E2E2E2E2E2E2E2E2E2E2E2E2E2E2E2E2E2E2E2E2E2E2E2E2E2E2E2E2E2E2E2E2E2E2E2E2E2E2E2E2E2E2E2E2E2E2E2E2E2E2E2E2E2
310
E2E2E2E2E2E2E2E2E2E2E2E2E2E2E2E2E2E2E2E2E2E2E2E2E2E2E2E2E2E2E2E2E2E2E2E2E2E2E2E2E2E2E2E2E2E2E2E2E2E2E2E2E2E2E2E2E2E2E2E2E2E2E2E2E2E2E2E2E2E2E2E2E2E2E2E2E2E2E2E2E2E2E2E2E2E2E2E2E2E2E2E2E2E2E2E2E2E2E2E2E2E2E2E2E2E2E2E2E2E2E2E2E2E2E2E2E2E2E2E2E2E2E2E2E2E2E2
310
E2E2E2E2E2E2E2E2E2E2E2E2E2E2E2E2E2E2E2E2E2E2E2E2E2E2E2E2E2E2E2E2E2E2E2E2E2E2E2E2E2E2E2E2E2E2E2E2E2E2E2E2E2E2E2E2E2E2E2E2E2E2E2E2E2E2E2E2E2E2E2E2E2E2E2E2E2E2E2E2E2E2E2E2E2E2E2E2E2E2E2E2E2E2E2E2E2E2E2E2E2E2E2E2E2E2E2E2E2E2E2E2E2E2E2E2E2E2E2E2E2E2E2E2E2E2E2
310
E2E2E2E2E2E2E2E2E2E2E2E2E2E2E2E2E2E2E2E2E2E2E2E2E2E2E2E2E2E2E2E2E2E2E2E2E2E2E2E2E2E2E2E2E2E2E2E2E2E2E2E2E2E2E2E2E2E2E2E2E2E2E2E2E2E2E2E2E2E2E2E2E2E2E2E2E2E2E2E2E2E2E2E2E2E2E2E2E2E2E2E2E2E2E2E2E2E2E2E2E2E2E2E2E2E2E2E2E2E2E2E2E2E2E2E2E2E2E2E2E2E2E2E2E2E2E2
310
E2E2E2E2E2E2E2E2E2E2E2E2E2E2E2E2E2E2E2E2E2E2E2E2E2E2E2E2E2E2E2E2E2E2E2E2E2E2E2E2E2E2E2E2E2E2E2E2E2E2E2E2E2E2E2E2E2E2E2E2E2E2E2E2E2E2E2E2E2E2E2E2E2E2E2E2E2E2E2E2E2E2E2E2E2E2E2E2E2E2E2E2E2E2E2E2E2E2E2E2E2E2E2E2E2E2E2E2E2E2E2E2E2E2E2E2E2E2E2E2E2E2E2E2E2E2E2
310
E2E2E2E2E2E2E2E2E2E2E2E2E2E2E2E2E2E2E2E2E2E2E2E2E2E2E2E2E2E2E2E2E2E2E2E2E2E2E2E2E2E2E2E2E2E2E2E2E2E2E2E2E2E2E2E2E2E2E2E2E2E2E2E2E2E2E2E2E2E2E2E2E2E2E2E2E2E2E2E2E2E2E2E2E2E2E2E2E2E2E2E2E2E2E2E2E2E2E2E2E2E2E2E2E2E2E2E2E2E2E2E2E2E2E2E2E2E2E2E2E2E2E2E2E2E2E2
310
E2E2E2E2E2E2E2E2E2E2E2E2E2E2E2E2E2E2E2E2E2E2E2E2E2E2E2E2E2E2E2E2E2E2E2E2E2E2E2E2E2E2E2E2E2E2E2E2E2E2E2E2E2E2E2E2E2E2E2E2E2E2E2E2E2E2E2E2E2E2E2E2E2E2E2E2E2E2E2E2E2E2E2E2E2E2E2E2E2E2E2E2E2E2E2E2E2E2E2E2E2E2E2E2E2E2E2E2E2E2E2E2E2E2E2E2E2E2E2E2E2E2E2E2E2E2E2
310
E2E2E2E2E2E2E2E2E2E2E2E2E2E2E2E2E2E2E2E2E2E2E2E2E2E2E2E2E2E2E2E2E2E2E2E2E2E2E2E2E2E2E2E2E2E2E2E2E2E2E2E2E2E2E2E2E2E2E2E2E2E2E2E2E2E2E2E2E2E2E2E2E2E2E2E2E2E2E2E2E2E2E2E2E2E2E2E2E2E2E2E2E2E2E2E2E2E2E2E2E2E2E2E2E2E2E2E2E2E2E2E2E2E2E2E2E2E2E2E2E2E2E2E2E2E2E2
310
E2E2E2E2E2E2E2E2E2E2E2E2E2E2E2E2E2E2E2E2E2E2E2E2E2E2E2E2E2E2E2E2E2E2E2E2E2E2E2E2E2E2E2E2E2E2E2E2E2E2E2E2E2E2E2E2E2E2E2E2E2E2E2E2E2E2E2E2E2E2E2E2E2E2E2E2E2E2E2E2E2E2E2E2E2E2E2E2E2E2E2E2E2E2E2E2E2E2E2E2E2E2E2E2E2E2E2E2E2E2E2E2E2E2E2E2E2E2E2E2E2E2E2E2E2E2E2
310
E2E2E2E2E2E2E2E2E2E2E2E2E2E2E2E2E2E2E2E2E2E2E2E2E2E2E2E2E2E2E2E2E2E2E2E2E2E2E2E2E2E2E2E2E2E2E2E2E2E2E2E2E2E2E2E2E2E2E2E2E2E2E2E2E2E2E2E2E2E2E2E2E2E2E2E2E2E2E2E2E2E2E2E2E2E2E2E2E2E2E2E2E2E2E2E2E2E2E2E2E2E2E2E2E2E2E2E2E2E2E2E2E2E2E2E2E2E2E2E2E2E2E2E2E2E2E2
310
E2E2E2E2E2E2E2E2E2E2E2E2E2E2E2E2E2E2E2E2E2E2E2E2E2E2E2E2E2E2E2E2E2E2E2E2E2E2E2E2E2E2E2E2E2E2E2E2E2E2E2E2E2E2E2E2E2E2E2E2E2E2E2E2E2E2E2E2E2E2E2E2E2E2E2E2E2E2E2E2E2E2E2E2E2E2E2E2E2E2E2E2E2E2E2E2E2E2E2E2E2E2E2E2E2E2E2E2E2E2E2E2E2E2E2E2E2E2E2E2E2E2E2E2E2E2E2
310
E2E2E2E2E2E2E2E2E2E2E2E2E2E2E2E2E2E2E2E2E2E2E2E2E2E2E2E2E2E2E2E2E2E2E2E2E2E2E2E2E2E2E2E2E2E2E2E2E2E2E2E2E2E2E2E2E2E2E2E2E2E2E2E2E2E2E2E2E2E2E2E2E2E2E2E2E2E2E2E2E2E2E2E2E2E2E2E2E2E2E2E2E2E2E2E2E2E2E2E2E2E2E2E2E2E2E2E2E2E2E2E2E2E2E2E2E2E2E2E2E2E2E2E2E2E2E2
310
E2E2E2E2E2E2E2E2E2E2E2E2E2E2E2E2E2E2E2E2E2E2E2E2E2E2E2E2E2E2E2E2E2E2E2E2E2E2E2E2E2E2E2E2E2E2E2E2E2E2E2E2E2E2E2E2E2E2E2E2E2E2E2E2E2E2E2E2E2E2E2E2E2E2E2E2E2E2E2E2E2E2E2E2E2E2E2E2E2E2E2E2E2E2E2E2E2E2E2E2E2E2E2E2E2E2E2E2E2E2E2E2E2E2E2E2E2E2E2E2E2E2E2E2E2E2E2
310
E2E2E2E2E2E2E2E2E2E2E2E2E2E2E2E2E2E2E2E2E2E2E2E2E2E2E2E2E2E2E2E2E2E2E2E2E2E2E2E2E2E2E2E2E2E2E2E2E2E2E2E2E2E2E2E2E2E2E2E2E2E2E2E2E2E2E2E2E2E2E2E2E2E2E2E2E2E2E2E2E2E2E2E2E2E2E2E2E2E2E2E2E2E2E2E2E2E2E2E2E2E2E2E2E2E2E2E2E2E2E2E2E2E2E2E2E2E2E2E2E2E2E2E2E2E2E2
310
E2E2E2E2E2E2E2E2E2E2E2E2E2E2E2E2E2E2E2E2E2E2E2E2E2E2E2E2E2E2E2E2E2E2E2E2E2E2E2E2E2E2E2E2E2E2E2E2E2E2E2E2E2E2E2E2E2E2E2E2E2E2E2E2E2E2E2E2E2E2E2E2E2E2E2E2E2E2E2E2E2E2E2E2E2E2E2E2E2E2E2E2E2E2E2E2E2E2E2E2E2E2E2E2E2E2E2E2E2E2E2E2E2E2E2E2E2E2E2E2E2E2E2E2E2E2E2
310
E2E2E2E2E2E2E2E2E2E2E2E2E2E2E2E2E2E2E2E2E2E2E2E2E2E2E2E2E2E2E2E2E2E2E2E2E2E2E2E2E2E2E2E2E2E2E2E2E2E2E2E2E2E2E2E2E2E2E2E2E2E2E2E2E2E2E2E2E2E2E2E2E2E2E2E2E2E2E2E2E2E2E2E2E2E2E2E2E2E2E2E2E2E2E2E2E2E2E2E2E2E2E2E2E2E2E2E2E2E2E2E2E2E2E2E2E2E2E2E2E2E2E2E2E2E2E2
310
E2E2E2E2E2E2E2E2E2E2E2E2E2E2E2E2E2E2E2E2E2E2E2E2E2E2E2E2E2E2E2E2E2E2E2E2E2E2E2E2E2E2E2E2E2E2E2E2E2E2E2E2E2E2E2E2E2E2E2E2E2E2E2E2E2E2E2E2E2E2E2E2E2E2E2E2E2E2E2E2E2E2E2E2E2E2E2E2E2E2E2E2E2E2E2E2E2E2E2E2E2E2E2E2E2E2E2E2E2E2E2E2E2E2E2E2E2E2E2E2E2E2E2E2E2E2E2
310
E2E2E2E2E2E2E2E2E2E2E2E2E2E2E2E2E2E2E2E2E2E2E2E2E2E2E2E2E2E2E2E2E2E2E2E2E2E2E2E2E2E2E2E2E2E2E2E2E2E2E2E2E2E2E2E2E2E2E2E2E2E2E2E2E2E2E2E2E2E2E2E2E2E2E2E2E2E2E2E2E2E2E2E2E2E2E2E2E2E2E2E2E2E2E2E2E2E2E2E2E2E2E2E2E2E2E2E2E2E2E2E2E2E2E2E2E2E2E2E2E2E2E2E2E2E2E2
310
E2E2E2E2E2E2E2E2E2E2E2E2E2E2E2E2E2E2E2E2E2E2E2E2E2E2E2E2E2E2E2E2E2E2E2E2E2E2E2E2E2E2E2E2E2E2E2E2E2E2E2E2E2E2E2E2E2E2E2E2E2E2E2E2E2E2E2E2E2E2E2E2E2E2E2E2E2E2E2E2E2E2E2E2E2E2E2E2E2E2E2E2E2E2E2E2E2E2E2E2E2E2E2E2E2E2E2E2E2E2E2E2E2E2E2E2E2E2E2E2E2E2E2E2E2E2E2
310
E2E2E2E2E2E2E2E2E2E2E2E2E2E2E2E2E2E2E2E2E2E2E2E2E2E2E2E2E2E2E2E2E2E2E2E2E2E2E2E2E2E2E2E2E2E2E2E2E2E2E2E2E2E2E2E2E2E2E2E2E2E2E2E2E2E2E2E2E2E2E2E2E2E2E2E2E2E2E2E2E2E2E2E2E2E2E2E2E2E2E2E2E2E2E2E2E2E2E2E2E2E2E2E2E2E2E2E2E2E2E2E2E2E2E2E2E2E2E2E2E2E2E2E2E2E2E2
310
E2E2E2E2E2E2E2E2E2E2E2E2E2E2E2E2E2E2E2E2E2E2E2E2E2E2E2E2E2E2E2E2E2E2E2E2E2E2E2E2E2E2E2E2E2E2E2E2E2E2E2E2E2E2E2E2E2E2E2E2E2E2E2E2E2E2E2E2E2E2E2E2E2E2E2E2E2E2E2E2E2E2E2E2E2E2E2E2E2E2E2E2E2E2E2E2E2E2E2E2E2E2E2E2E2E2E2E2E2E2E2E2E2E2E2E2E2E2E2E2E2E2E2E2E2E2E2
310
E2E2E2E2E2E2E2E2E2E2E2E2E2E2E2E2E2E2E2E2E2E2E2E2E2E2E2E2E2E2E2E2E2E2E2E2E2E2E2E2E2E2E2E2E2E2E2E2E2E2E2E2E2E2E2E2E2E2E2E2E2E2E2E2E2E2E2E2E2E2E2E2E2E2E2E2E2E2E2E2E2E2E2E2E2E2E2E2E2E2E2E2E2E2E2E2E2E2E2E2E2E2E2E2E2E2E2E2E2E2E2E2E2E2E2E2E2E2E2E2E2E2E2E2E2E2E2
310
E2E2E2E2E2E2E2E2E2E2E2E2E2E2E2E2E2E2E2E2E2E2E2E2E2E2E2E2E2E2E2E2E2E2E2E2E2E2E2E2E2E2E2E2E2E2E2E2E2E2E2E2E2E2E2E2E2E2E2E2E2E2E2E2E2E2E2E2E2E2E2E2E2E2E2E2E2E2E2E2E2E2E2E2E2E2E2E2E2E2E2E2E2E2E2E2E2E2E2E2E2E2E2E2E2E2E2E2E2E2E2E2E2E2E2E2E2E2E2E2E2E2E2E2E2E2E2
310
E2E2E2E2E2E2E2E2E2E2E2E2E2E2E2E2E2E2E2E2E2E2E2E2E2E2E2E2E2E2E2E2E2E2E2E2E2E2E2E2E2E2E2E2E2E2E2E2E2E2E2E2E2E2E2E2E2E2E2E2E2E2E2E2E2E2E2E2E2E2E2E2E2E2E2E2E2E2E2E2E2E2E2E2E2E2E2E2E2E2E2E2E2E2E2E2E2E2E2E2E2E2E2E2E2E2E2E2E2E2E2E2E2E2E2E2E2E2E2E2E2E2E2E2E2E2E2
310
E2E2E2E2E2E2E2E2E2E2E2E2E2E2E2E2E2E2E2E2E2E2E2E2E2E2E2E2E2E2E2E2E2E2E2E2E2E2E2E2E2E2E2E2E2E2E2E2E2E2E2E2E2E2E2E2E2E2E2E2E2E2E2E2E2E2E2E2E2E2E2E2E2E2E2E2E2E2E2E2E2E2E2E2E2E2E2E2E2E2E2E2E2E2E2E2E2E2E2E2E2E2E2E2E2E2E2E2E2E2E2E2E2E2E2E2E2E2E2E2E2E2E2E2E2E2E2
310
E2E2E2E2E2E2E2E2E2E2E2E2E2E2E2E2E2E2E2E2E2E2E2E2E2E2E2E2E2E2E2E2E2E2E2E2E2E2E2E2E2E2E2E2E2E2E2E2E2E2E2E2E2E2E2E2E2E2E2E2E2E2E2E2E2E2E2E2E2E2E2E2E2E2E2E2E2E2E2E2E2E2E2E2E2E2E2E2E2E2E2E2E2E2E2E2E2E2E2E2E2E2E2E2E2E2E2E2E2E2E2E2E2E2E2E2E2E2E2E2E2E2E2E2E2E2E2
310
E2E2E2E2E2E2E2E2E2E2E2E2E2E2E2E2E2E2E2E2E2E2E2E2E2E2E2E2E2E2E2E2E2E2E2E2E2E2E2E2E2E2E2E2E2E2E2E2E2E2E2E2E2E2E2E2E2E2E2E2E2E2E2E2E2E2E2E2E2E2E2E2E2E2E2E2E2E2E2E2E2E2E2E2E2E2E2E2E2E2E2E2E2E2E2E2E2E2E2E2E2E2E2E2E2E2E2E2E2E2E2E2E2E2E2E2E2E2E2E2E2E2E2E2E2E2E2
310
E2E2E2E2E2E2E2E2E2E2E2E2E2E2E2E2E2E2E2E2E2E2E2E2E2E2E2E2E2E2E2E2E2E2E2E2E2E2E2E2E2E2E2E2E2E2E2E2E2E2E2E2E2E2E2E2E2E2E2E2E2E2E2E2E2E2E2E2E2E2E2E2E2E2E2E2E2E2E2E2E2E2E2E2E2E2E2E2E2E2E2E2E2E2E2E2E2E2E2E2E2E2E2E2E2E2E2E2E2E2E2E2E2E2E2E2E2E2E2E2E2E2E2E2E2E2E2
310
E2E2E2E2E2E2E2E2E2E2E2E2E2E2E2E2E2E2E2E2E2E2E2E2E2E2E2E2E2E2E2E2E2E2E2E2E2E2E2E2E2E2E2E2E2E2E2E2E2E2E2E2E2E2E2E2E2E2E2E2E2E2E2E2E2E2E2E2E2E2E2E2E2E2E2E2E2E2E2E2E2E2E2E2E2E2E2E2E2E2E2E2E2E2E2E2E2E2E2E2E2E2E2E2E2E2E2E2E2E2E2E2E2E2E2E2E2E2E2E2E2E2E2E2E2E2E2
310
E2E2E2E2E2E2E2E2E2E2E2E2E2E2E2E2E2E2E2E2E2E2E2E2E2E2E2E2E2E2E2E2E2E2E2E2E2E2E2E2E2E2E2E2E2E2E2E2E2E2E2E2E2E2E2E2E2E2E2E2E2E2E2E2E2E2E2E2E2E2E2E2E2E2E2E2E2E2E2E2E2E2E2E2E2E2E2E2E2E2E2E2E2E2E2E2E2E2E2E2E2E2E2E2E2E2E2E2E2E2E2E2E2E2E2E2E2E2E2E2E2E2E2E2E2E2E2
310
E2E2E2E2E2E2E2E2E2E2E2E2E2E2E2E2E2E2E2E2E2E2E2E2E2E2E2E2E2E2E2E2E2E2E2E2E2E2E2E2E2E2E2E2E2E2E2E2E2E2E2E2E2E2E2E2E2E2E2E2E2E2E2E2E2E2E2E2E2E2E2E2E2E2E2E2E2E2E2E2E2E2E2E2E2E2E2E2E2E2E2E2E2E2E2E2E2E2E2E2E2E2E2E2E2E2E2E2E2E2E2E2E2E2E2E2E2E2E2E2E2E2E2E2E2E2E2
310
E2E2E2E2E2E2E2E2E2E2E2E2E2E2E2E2E2E2E2E2E2E2E2E2E2E2E2E2E2E2E2E2E2E2E2E2E2E2E2E2E2E2E2E2E2E2E2E2E2E2E2E2E2E2E2E2E2E2E2E2E2E2E2E2E2E2E2E2E2E2E2E2E2E2E2E2E2E2E2E2E2E2E2E2E2E2E2E2E2E2E2E2E2E2E2E2E2E2E2E2E2E2E2E2E2E2E2E2E2E2E2E2E2E2E2E2E2E2E2E2E2E2E2E2E2E2E2
310
E2E2E2E2E2E2E2E2E2E2E2E2E2E2E2E2E2E2E2E2E2E2E2E2E2E2E2E2E2E2E2E2E2E2E2E2E2E2E2E2E2E2E2E2E2E2E2E2E2E2E2E2E2E2E2E2E2E2E2E2E2E2E2E2E2E2E2E2E2E2E2E2E2E2E2E2E2E2E2E2E2E2E2E2E2E2E2E2E2E2E2E2E2E2E2E2E2E2E2E2E2E2E2E2E2E2E2E2E2E2E2E2E2E2E2E2E2E2E2E2E2E2E2E2E2E2E2
310
E2E2E2E2E2E2E2E2E2E2E2E2E2E2E2E2E2E2E2E2E2E2E2E2E2E2E2E2E2E2E2E2E2E2E2E2E2E2E2E2E2E2E2E2E2E2E2E2E2E2E2E2E2E2E2E2E2E2E2E2E2E2E2E2E2E2E2E2E2E2E2E2E2E2E2E2E2E2E2E2E2E2E2E2E2E2E2E2E2E2E2E2E2E2E2E2E2E2E2E2E2E2E2E2E2E2E2E2E2E2E2E2E2E2E2E2E2E2E2E2E2E2E2E2E2E2E2
310
E2E2E2E2E2E2E2E2E2E2E2E2E2E2E2E2E2E2E2E2E2E2E2E2E2E2E2E2E2E2E2E2E2E2E2E2E2E2E2E2E2E2E2E2E2E2E2E2E2E2E2E2E2E2E2E2E2E2E2E2E2E2E2E2E2E2E2E2E2E2E2E2E2E2E2E2E2E2E2E2E2E2E2E2E2E2E2E2E2E2E2E2E2E2E2E2E2E2E2E2E2E2E2E2E2E2E2E2E2E2E2E2E2E2E2E2E2E2E2E2E2E2E2E2E2E2E2
310
E2E2E2E2E2E2E2E2E2E2E2E2E2E2E2E2E2E2E2E2E2E2E2E2E2E2E2E2E2E2E2E2E2E2E2E2E2E2E2E2E2E2E2E2E2E2E2E2E2E2E2E2E2E2E2E2E2E2E2E2E2E2E2E2E2E2E2E2E2E2E2E2E2E2E2E2E2E2E2E2E2E2E2E2E2E2E2E2E2E2E2E2E2E2E2E2E2E2E2E2E2E2E2E2E2E2E2E2E2E2E2E2E2E2E2E2E2E2E2E2E2E2E2E2E2E2E2
310
E2E2E2E2E2E2E2E2E2E2E2E2E2E2E2E2E2E2E2E2E2E2E2E2E2E2E2E2E2E2E2E2E2E2E2E2E2E2E2E2E2E2E2E2E2E2E2E2E2E2E2E2E2E2E2E2E2E2E2E2E2E2E2E2E2E2E2E2E2E2E2E2E2E2E2E2E2E2E2E2E2E2E2E2E2E2E2E2E2E2E2E2E2E2E2E2E2E2E2E2E2E2E2E2E2E2E2E2E2E2E2E2E2E2E2E2E2E2E2E2E2E2E2E2E2E2E2
310
E2E2E2E2E2E2E2E2E2E2E2E2E2E2E2E2E2E2E2E2E2E2E2E2E2E2E2E2E2E2E2E2E2E2E2E2E2E2E2E2E2E2E2E2E2E2E2E2E2E2E2E2E2E2E2E2E2E2E2E2E2E2E2E2E2E2E2E2E2E2E2E2E2E2E2E2E2E2E2E2E2E2E2E2E2E2E2E2E2E2E2E2E2E2E2E2E2E2E2E2E2E2E2E2E2E2E2E2E2E2E2E2E2E2E2E2E2E2E2E2E2E2E2E2E2E2E2
310
E2E2E2E2E2E2E2E2E2E2E2E2E2E2E2E2E2E2E2E2E2E2E2E2E2E2E2E2E2E2E2E2E2E2E2E2E2E2E2E2E2E2E2E2E2E2E2E2E2E2E2E2E2E2E2E2E2E2E2E2E2E2E2E2E2E2E2E2E2E2E2E2E2E2E2E2E2E2E2E2E2E2E2E2E2E2E2E2E2E2E2E2E2E2E2E2E2E2E2E2E2E2E2E2E2E2E2E2E2E2E2E2E2E2E2E2E2E2E2E2E2E2E2E2E2E2E2
310
E2E2E2E2E2E2E2E2E2E2E2E2E2E2E2E2E2E2E2E2E2E2E2E2E2E2E2E2E2E2E2E2E2E2E2E2E2E2E2E2E2E2E2E2E2E2E2E2E2E2E2E2E2E2E2E2E2E2E2E2E2E2E2E2E2E2E2E2E2E2E2E2E2E2E2E2E2E2E2E2E2E2E2E2E2E2E2E2E2E2E2E2E2E2E2E2E2E2E2E2E2E2E2E2E2E2E2E2E2E2E2E2E2E2E2E2E2E2E2E2E2E2E2E2E2E2E2
310
E2E2E2E2E2E2E2E2E2E2E2E2E2E2E2E2E2E2E2E2E2E2E2E2E2E2E2E2E2E2E2E2E2E2E2E2E2E2E2E2E2E2E2E2E2E2E2E2E2E2E2E2E2E2E2E2E2E2E2E2E2E2E2E2E2E2E2E2E2E2E2E2E2E2E2E2E2E2E2E2E2E2E2E2E2E2E2E2E2E2E2E2E2E2E2E2E2E2E2E2E2E2E2E2E2E2E2E2E2E2E2E2E2E2E2E2E2E2E2E2E2E2E2E2E2E2E2
310
E2E2E2E2E2E2E2E2E2E2E2E2E2E2E2E2E2E2E2E2E2E2E2E2E2E2E2E2E2E2E2E2E2E2E2E2E2E2E2E2E2E2E2E2E2E2E2E2E2E2E2E2E2E2E2E2E2E2E2E2E2E2E2E2E2E2E2E2E2E2E2E2E2E2E2E2E2E2E2E2E2E2E2E2E2E2E2E2E2E2E2E2E2E2E2E2E2E2E2E2E2E2E2E2E2E2E2E2E2E2E2E2E2E2E2E2E2E2E2E2E2E2E2E2E2E2E2
310
E2E2E2E2E2E2E2E2E2E2E2E2E2E2E2E2E2E2E2E2E2E2E2E2E2E2E2E2E2E2E2E2E2E2E2E2E2E2E2E2E2E2E2E2E2E2E2E2E2E2E2E2E2E2E2E2E2E2E2E2E2E2E2E2E2E2E2E2E2E2E2E2E2E2E2E2E2E2E2E2E2E2E2E2E2E2E2E2E2E2E2E2E2E2E2E2E2E2E2E2E2E2E2E2E2E2E2E2E2E2E2E2E2E2E2E2E2E2E2E2E2E2E2E2E2E2E2
310
E2E2E2E2E2E2E2E2E2E2E2E2E2E2E2E2E2E2E2E2E2E2E2E2E2E2E2E2E2E2E2E2E2E2E2E2E2E2E2E2E2E2E2E2E2E2E2E2E2E2E2E2E2E2E2E2E2E2E2E2E2E2E2E2E2E2E2E2E2E2E2E2E2E2E2E2E2E2E2E2E2E2E2E2E2E2E2E2E2E2E2E2E2E2E2E2E2E2E2E2E2E2E2E2E2E2E2E2E2E2E2E2E2E2E2E2E2E2E2E2E2E2E2E2E2E2E2
310
E2E2E2E2E2E2E2E2E2E2E2E2E2E2E2E2E2E2E2E2E2E2E2E2E2E2E2E2E2E2E2E2E2E2E2E2E2E2E2E2E2E2E2E2E2E2E2E2E2E2E2E2E2E2E2E2E2E2E2E2E2E2E2E2E2E2E2E2E2E2E2E2E2E2E2E2E2E2E2E2E2E2E2E2E2E2E2E2E2E2E2E2E2E2E2E2E2E2E2E2E2E2E2E2E2E2E2E2E2E2E2E2E2E2E2E2E2E2E2E2E2E2E2E2E2E2E2
310
E2E2E2E2E2E2E2E2E2E2E2E2E2E2E2E2E2E2E2E2E2E2E2E2E2E2E2E2E2E2E2E2E2E2E2E2E2E2E2E2E2E2E2E2E2E2E2E2E2E2E2E2E2E2E2E2E2E2E2E2E2E2E2E2E2E2E2E2E2E2E2E2E2E2E2E2E2E2E2E2E2E2E2E2E2E2E2E2E2E2E2E2E2E2E2E2E2E2E2E2E2E2E2E2E2E2E2E2E2E2E2E2E2E2E2E2E2E2E2E2E2E2E2E2E2E2E2
310
E2E2E2E2E2E2E2E2E2E2E2E2E2E2E2E2E2E2E2E2E2E2E2E2E2E2E2E2E2E2E2E2E2E2E2E2E2E2E2E2E2E2E2E2E2E2E2E2E2E2E2E2E2E2E2E2E2E2E2E2E2E2E2E2E2E2E2E2E2E2E2E2E2E2E2E2E2E2E2E2E2E2E2E2E2E2E2E2E2E2E2E2E2E2E2E2E2E2E2E2E2E2E2E2E2E2E2E2E2E2E2E2E2E2E2E2E2E2E2E2E2E2E2E2E2E2E2
310
E2E2E2E2E2E2E2E2E2E2E2E2E2E2E2E2E2E2E2E2E2E2E2E2E2E2E2E2E2E2E2E2E2E2E2E2E2E2E2E2E2E2E2E2E2E2E2E2E2E2E2E2E2E2E2E2E2E2E2E2E2E2E2E2E2E2E2E2E2E2E2E2E2E2E2E2E2E2E2E2E2E2E2E2E2E2E2E2E2E2E2E2E2E2E2E2E2E2E2E2E2E2E2E2E2E2E2E2E2E2E2E2E2E2E2E2E2E2E2E2E2E2E2E2E2E2E2
310
E2E2E2E2E2E2E2E2E2E2E2E2E2E2E2E2E2E2E2E2E2E2E2E2E2E2E2E2E2E2E2E2E2E2E2E2E2E2E2E2E2E2E2E2E2E2E2E2E2E2E2E2E2E2E2E2E2E2E2E2E2E2E2E2E2E2E2E2E2E2E2E2E2E2E2E2E2E2E2E2E2E2E2E2E2E2E2E2E2E2E2E2E2E2E2E2E2E2E2E2E2E2E2E2E2E2E2E2E2E2E2E2E2E2E2E2E2E2E2E2E2E2E2E2E2E2E2
310
E2E2E2E2E2E2E2E2E2E2E2E2E2E2E2E2E2E2E2E2E2E2E2E2E2E2E2E2E2E2E2E2E2E2E2E2E2E2E2E2E2E2E2E2E2E2E2E2E2E2E2E2E2E2E2E2E2E2E2E2E2E2E2E2E2E2E2E2E2E2E2E2E2E2E2E2E2E2E2E2E2E2E2E2E2E2E2E2E2E2E2E2E2E2E2E2E2E2E2E2E2E2E2E2E2E2E2E2E2E2E2E2E2E2E2E2E2E2E2E2E2E2E2E2E2E2E2
310
E2E2E2E2E2E2E2E2E2E2E2E2E2E2E2E2E2E2E2E2E2E2E2E2E2E2E2E2E2E2E2E2E2E2E2E2E2E2E2E2E2E2E2E2E2E2E2E2E2E2E2E2E2E2E2E2E2E2E2E2E2E2E2E2E2E2E2E2E2E2E2E2E2E2E2E2E2E2E2E2E2E2E2E2E2E2E2E2E2E2E2E2E2E2E2E2E2E2E2E2E2E2E2E2E2E2E2E2E2E2E2E2E2E2E2E2E2E2E2E2E2E2E2E2E2E2E2
310
E2E2E2E2E2E2E2E2E2E2E2E2E2E2E2E2E2E2E2E2E2E2E2E2E2E2E2E2E2E2E2E2E2E2E2E2E2E2E2E2E2E2E2E2E2E2E2E2E2E2E2E2E2E2E2E2E2E2E2E2E2E2E2E2E2E2E2E2E2E2E2E2E2E2E2E2E2E2E2E2E2E2E2E2E2E2E2E2E2E2E2E2E2E2E2E2E2E2E2E2E2E2E2E2E2E2E2E2E2E2E2E2E2E2E2E2E2E2E2E2E2E2E2E2E2E2E2
310
E2E2E2E2E2E2E2E2E2E2E2E2E2E2E2E2E2E2E2E2E2E2E2E2E2E2E2E2E2E2E2E2E2E2E2E2E2E2E2E2E2E2E2E2E2E2E2E2E2E2E2E2E2E2E2E2E2E2E2E2E2E2E2E2E2E2E2E2E2E2E2E2E2E2E2E2E2E2E2E2E2E2E2E2E2E2E2E2E2E2E2E2E2E2E2E2E2E2E2E2E2E2E2E2E2E2E2E2E2E2E2E2E2E2E2E2E2E2E2E2E2E2E2E2E2E2E2
310
E2E2E2E2E2E2E2E2E2E2E2E2E2E2E2E2E2E2E2E2E2E2E2E2E2E2E2E2E2E2E2E2E2E2E2E2E2E2E2E2E2E2E2E2E2E2E2E2E2E2E2E2E2E2E2E2E2E2E2E2E2E2E2E2E2E2E2E2E2E2E2E2E2E2E2E2E2E2E2E2E2E2E2E2E2E2E2E2E2E2E2E2E2E2E2E2E2E2E2E2E2E2E2E2E2E2E2E2E2E2E2E2E2E2E2E2E2E2E2E2E2E2E2E2E2E2E2
310
E2E2E2E2E2E2E2E2E2E2E2E2E2E2E2E2E2E2E2E2E2E2E2E2E2E2E2E2E2E2E2E2E2E2E2E2E2E2E2E2E2E2E2E2E2E2E2E2E2E2E2E2E2E2E2E2E2E2E2E2E2E2E2E2E2E2E2E2E2E2E2E2E2E2E2E2E2E2E2E2E2E2E2E2E2E2E2E2E2E2E2E2E2E2E2E2E2E2E2E2E2E2E2E2E2E2E2E2E2E2E2E2E2E2E2E2E2E2E2E2E2E2E2E2E2E2E2
310
E2E2E2E2E2E2E2E2E2E2E2E2E2E2E2E2E2E2E2E2E2E2E2E2E2E2E2E2E2E2E2E2E2E2E2E2E2E2E2E2E2E2E2E2E2E2E2E2E2E2E2E2E2E2E2E2E2E2E2E2E2E2E2E2E2E2E2E2E2E2E2E2E2E2E2E2E2E2E2E2E2E2E2E2E2E2E2E2E2E2E2E2E2E2E2E2E2E2E2E2E2E2E2E2E2E2E2E2E2E2E2E2E2E2E2E2E2E2E2E2E2E2E2E2E2E2E2
310
E2E2E2E2E2E2E2E2E2E2E2E2E2E2E2E2E2E2E2E2E2E2E2E2E2E2E2E2E2E2E2E2E2E2E2E2E2E2E2E2E2E2E2E2E2E2E2E2E2E2E2E2E2E2E2E2E2E2E2E2E2E2E2E2E2E2E2E2E2E2E2E2E2E2E2E2E2E2E2E2E2E2E2E2E2E2E2E2E2E2E2E2E2E2E2E2E2E2E2E2E2E2E2E2E2E2E2E2E2E2E2E2E2E2E2E2E2E2E2E2E2E2E2E2E2E2E2
310
E2E2E2E2E2E2E2E2E2E2E2E2E2E2E2E2E2E2E2E2E2E2E2E2E2E2E2E2E2E2E2E2E2E2E2E2E2E2E2E2E2E2E2E2E2E2E2E2E2E2E2E2E2E2E2E2E2E2E2E2E2E2E2E2E2E2E2E2E2E2E2E2E2E2E2E2E2E2E2E2E2E2E2E2E2E2E2E2E2E2E2E2E2E2E2E2E2E2E2E2E2E2E2E2E2E2E2E2E2E2E2E2E2E2E2E2E2E2E2E2E2E2E2E2E2E2E2
310
E2E2E2E2E2E2E2E2E2E2E2E2E2E2E2E2E2E2E2E2E2E2E2E2E2E2E2E2E2E2E2E2E2E2E2E2E2E2E2E2E2E2E2E2E2E2E2E2E2E2E2E2E2E2E2E2E2E2E2E2E2E2E2E2E2E2E2E2E2E2E2E2E2E2E2E2E2E2E2E2E2E2E2E2E2E2E2E2E2E2E2E2E2E2E2E2E2E2E2E2E2E2E2E2E2E2E2E2E2E2E2E2E2E2E2E2E2E2E2E2E2E2E2E2E2E2E2
310
E2E2E2E2E2E2E2E2E2E2E2E2E2E2E2E2E2E2E2E2E2E2E2E2E2E2E2E2E2E2E2E2E2E2E2E2E2E2E2E2E2E2E2E2E2E2E2E2E2E2E2E2E2E2E2E2E2E2E2E2E2E2E2E2E2E2E2E2E2E2E2E2E2E2E2E2E2E2E2E2E2E2E2E2E2E2E2E2E2E2E2E2E2E2E2E2E2E2E2E2E2E2E2E2E2E2E2E2E2E2E2E2E2E2E2E2E2E2E2E2E2E2E2E2E2E2E2
310
E2E2E2E2E2E2E2E2E2E2E2E2E2E2E2E2E2E2E2E2E2E2E2E2E2E2E2E2E2E2E2E2E2E2E2E2E2E2E2E2E2E2E2E2E2E2E2E2E2E2E2E2E2E2E2E2E2E2E2E2E2E2E2E2E2E2E2E2E2E2E2E2E2E2E2E2E2E2E2E2E2E2E2E2E2E2E2E2E2E2E2E2E2E2E2E2E2E2E2E2E2E2E2E2E2E2E2E2E2E2E2E2E2E2E2E2E2E2E2E2E2E2E2E2E2E2E2
310
E2E2E2E2E2E2E2E2E2E2E2E2E2E2E2E2E2E2E2E2E2E2E2E2E2E2E2E2E2E2E2E2E2E2E2E2E2E2E2E2E2E2E2E2E2E2E2E2E2E2E2E2E2E2E2E2E2E2E2E2E2E2E2E2E2E2E2E2E2E2E2E2E2E2E2E2E2E2E2E2E2E2E2E2E2E2E2E2E2E2E2E2E2E2E2E2E2E2E2E2E2E2E2E2E2E2E2E2E2E2E2E2E2E2E2E2E2E2E2E2E2E2E2E2E2E2E2
310
E2E2E2E2E2E2E2E2E2E2E2E2E2E2E2E2E2E2E2E2E2E2E2E2E2E2E2E2E2E2E2E2E2E2E2E2E2E2E2E2E2E2E2E2E2E2E2E2E2E2E2E2E2E2E2E2E2E2E2E2E2E2E2E2E2E2E2E2E2E2E2E2E2E2E2E2E2E2E2E2E2E2E2E2E2E2E2E2E2E2E2E2E2E2E2E2E2E2E2E2E2E2E2E2E2E2E2E2E2E2E2E2E2E2E2E2E2E2E2E2E2E2E2E2E2E2E2
310
E2E2E2E2E2E2E2E2E2E2E2E2E2E2E2E2E2E2E2E2E2E2E2E2E2E2E2E2E2E2E2E2E2E2E2E2E2E2E2E2E2E2E2E2E2E2E2E2E2E2E2E2E2E2E2E2E2E2E2E2E2E2E2E2E2E2E2E2E2E2E2E2E2E2E2E2E2E2E2E2E2E2E2E2E2E2E2E2E2E2E2E2E2E2E2E2E2E2E2E2E2E2E2E2E2E2E2E2E2E2E2E2E2E2E2E2E2E2E2E2E2E2E2E2E2E2E2
310
E2E2E2E2E2E2E2E2E2E2E2E2E2E2E2E2E2E2E2E2E2E2E2E2E2E2E2E2E2E2E2E2E2E2E2E2E2E2E2E2E2E2E2E2E2E2E2E2E2E2E2E2E2E2E2E2E2E2E2E2E2E2E2E2E2E2E2E2E2E2E2E2E2E2E2E2E2E2E2E2E2E2E2E2E2E2E2E2E2E2E2E2E2E2E2E2E2E2E2E2E2E2E2E2E2E2E2E2E2E2E2E2E2E2E2E2E2E2E2E2E2E2E2E2E2E2E2
310
E2E2E2E2E2E2E2E2E2E2E2E2E2E2E2E2E2E2E2E2E2E2E2E2E2E2E2E2E2E2E2E2E2E2E2E2E2E2E2E2E2E2E2E2E2E2E2E2E2E2E2E2E2E2E2E2E2E2E2E2E2E2E2E2E2E2E2E2E2E2E2E2E2E2E2E2E2E2E2E2E2E2E2E2E2E2E2E2E2E2E2E2E2E2E2E2E2E2E2E2E2E2E2E2E2E2E2E2E2E2E2E2E2E2E2E2E2E2E2E2E2E2E2E2E2E2E2
310
E2E2E2E2E2E2E2E2E2E2E2E2E2E2E2E2E2E2E2E2E2E2E2E2E2E2E2E2E2E2E2E2E2E2E2E2E2E2E2E2E2E2E2E2E2E2E2E2E2E2E2E2E2E2E2E2E2E2E2E2E2E2E2E2E2E2E2E2E2E2E2E2E2E2E2E2E2E2E2E2E2E2E2E2E2E2E2E2E2E2E2E2E2E2E2E2E2E2E2E2E2E2E2E2E2E2E2E2E2E2E2E2E2E2E2E2E2E2E2E2E2E2E2E2E2E2E2
310
E2E2E2E2E2E2E2E2E2E2E2E2E2E2E2E2E2E2E2E2E2E2E2E2E2E2E2E2E2E2E2E2E2E2E2E2E2E2E2E2E2E2E2E2E2E2E2E2E2E2E2E2E2E2E2E2E2E2E2E2E2E2E2E2E2E2E2E2E2E2E2E2E2E2E2E2E2E2E2E2E2E2E2E2E2E2E2E2E2E2E2E2E2E2E2E2E2E2E2E2E2E2E2E2E2E2E2E2E2E2E2E2E2E2E2E2E2E2E2E2E2E2E2E2E2E2E2
310
E2E2E2E2E2E2E2E2E2E2E2E2E2E2E2E2E2E2E2E2E2E2E2E2E2E2E2E2E2E2E2E2E2E2E2E2E2E2E2E2E2E2E2E2E2E2E2E2E2E2E2E2E2E2E2E2E2E2E2E2E2E2E2E2E2E2E2E2E2E2E2E2E2E2E2E2E2E2E2E2E2E2E2E2E2E2E2E2E2E2E2E2E2E2E2E2E2E2E2E2E2E2E2E2E2E2E2E2E2E2E2E2E2E2E2E2E2E2E2E2E2E2E2E2E2E2E2
310
E2E2E2E2E2E2E2E2E2E2E2E2E2E2E2E2E2E2E2E2E2E2E2E2E2E2E2E2E2E2E2E2E2E2E2E2E2E2E2E2E2E2E2E2E2E2E2E2E2E2E2E2E2E2E2E2E2E2E2E2E2E2E2E2E2E2E2E2E2E2E2E2E2E2E2E2E2E2E2E2E2E2E2E2E2E2E2E2E2E2E2E2E2E2E2E2E2E2E2E2E2E2E2E2E2E2E2E2E2E2E2E2E2E2E2E2E2E2E2E2E2E2E2E2E2E2E2
310
E2E2E2E2E2E2E2E2E2E2E2E2E2E2E2E2E2E2E2E2E2E2E2E2E2E2E2E2E2E2E2E2E2E2E2E2E2E2E2E2E2E2E2E2E2E2E2E2E2E2E2E2E2E2E2E2E2E2E2E2E2E2E2E2E2E2E2E2E2E2E2E2E2E2E2E2E2E2E2E2E2E2E2E2E2E2E2E2E2E2E2E2E2E2E2E2E2E2E2E2E2E2E2E2E2E2E2E2E2E2E2E2E2E2E2E2E2E2E2E2E2E2E2E2E2E2E2
310
E2E2E2E2E2E2E2E2E2E2E2E2E2E2E2E2E2E2E2E2E2E2E2E2E2E2E2E2E2E2E2E2E2E2E2E2E2E2E2E2E2E2E2E2E2E2E2E2E2E2E2E2E2E2E2E2E2E2E2E2E2E2E2E2E2E2E2E2E2E2E2E2E2E2E2E2E2E2E2E2E2E2E2E2E2E2E2E2E2E2E2E2E2E2E2E2E2E2E2E2E2E2E2E2E2E2E2E2E2E2E2E2E2E2E2E2E2E2E2E2E2E2E2E2E2E2E2
310
E2E2E2E2E2E2E2E2E2E2E2E2E2E2E2E2E2E2E2E2E2E2E2E2E2E2E2E2E2E2E2E2E2E2E2E2E2E2E2E2E2E2E2E2E2E2E2E2E2E2E2E2E2E2E2E2E2E2E2E2E2E2E2E2E2E2E2E2E2E2E2E2E2E2E2E2E2E2E2E2E2E2E2E2E2E2E2E2E2E2E2E2E2E2E2E2E2E2E2E2E2E2E2E2E2E2E2E2E2E2E2E2E2E2E2E2E2E2E2E2E2E2E2E2E2E2E2
310
E2E2E2E2E2E2E2E2E2E2E2E2E2E2E2E2E2E2E2E2E2E2E2E2E2E2E2E2E2E2E2E2E2E2E2E2E2E2E2E2E2E2E2E2E2E2E2E2E2E2E2E2E2E2E2E2E2E2E2E2E2E2E2E2E2E2E2E2E2E2E2E2E2E2E2E2E2E2E2E2E2E2E2E2E2E2E2E2E2E2E2E2E2E2E2E2E2E2E2E2E2E2E2E2E2E2E2E2E2E2E2E2E2E2E2E2E2E2E2E2E2E2E2E2E2E2E2
310
E2E2E2E2E2E2E2E2E2E2E2E2E2E2E2E2E2E2E2E2E2E2E2E2E2E2E2E2E2E2E2E2E2E2E2E2E2E2E2E2E2E2E2E2E2E2E2E2E2E2E2E2E2E2E2E2E2E2E2E2E2E2E2E2E2E2E2E2E2E2E2E2E2E2E2E2E2E2E2E2E2E2E2E2E2E2E2E2E2E2E2E2E2E2E2E2E2E2E2E2E2E2E2E2E2E2E2E2E2E2E2E2E2E2E2E2E2E2E2E2E2E2E2E2E2E2E2
310
E2E2E2E2E2E2E2E2E2E2E2E2E2E2E2E2E2E2E2E2E2E2E2E2E2E2E2E2E2E2E2E2E2E2E2E2E2E2E2E2E2E2E2E2E2E2E2E2E2E2E2E2E2E2E2E2E2E2E2E2E2E2E2E2E2E2E2E2E2E2E2E2E2E2E2E2E2E2E2E2E2E2E2E2E2E2E2E2E2E2E2E2E2E2E2E2E2E2E2E2E2E2E2E2E2E2E2E2E2E2E2E2E2E2E2E2E2E2E2E2E2E2E2E2E2E2E2
310
E2E2E2E2E2E2E2E2E2E2E2E2E2E2E2E2E2E2E2E2E2E2E2E2E2E2E2E2E2E2E2E2E2E2E2E2E2E2E2E2E2E2E2E2E2E2E2E2E2E2E2E2E2E2E2E2E2E2E2E2E2E2E2E2E2E2E2E2E2E2E2E2E2E2E2E2E2E2E2E2E2E2E2E2E2E2E2E2E2E2E2E2E2E2E2E2E2E2E2E2E2E2E2E2E2E2E2E2E2E2E2E2E2E2E2E2E2E2E2E2E2E2E2E2E2E2E2
310
E2E2E2E2E2E2E2E2E2E2E2E2E2E2E2E2E2E2E2E2E2E2E2E2E2E2E2E2E2E2E2E2E2E2E2E2E2E2E2E2E2E2E2E2E2E2E2E2E2E2E2E2E2E2E2E2E2E2E2E2E2E2E2E2E2E2E2E2E2E2E2E2E2E2E2E2E2E2E2E2E2E2E2E2E2E2E2E2E2E2E2E2E2E2E2E2E2E2E2E2E2E2E2E2E2E2E2E2E2E2E2E2E2E2E2E2E2E2E2E2E2E2E2E2E2E2E2
310
E2E2E2E2E2E2E2E2E2E2E2E2E2E2E2E2E2E2E2E2E2E2E2E2E2E2E2E2E2E2E2E2E2E2E2E2E2E2E2E2E2E2E2E2E2E2E2E2E2E2E2E2E2E2E2E2E2E2E2E2E2E2E2E2E2E2E2E2E2E2E2E2E2E2E2E2E2E2E2E2E2E2E2E2E2E2E2E2E2E2E2E2E2E2E2E2E2E2E2E2E2E2E2E2E2E2E2E2E2E2E2E2E2E2E2E2E2E2E2E2E2E2E2E2E2E2E2
310
E2E2E2E2E2E2E2E2E2E2E2E2E2E2E2E2E2E2E2E2E2E2E2E2E2E2E2E2E2E2E2E2E2E2E2E2E2E2E2E2E2E2E2E2E2E2E2E2E2E2E2E2E2E2E2E2E2E2E2E2E2E2E2E2E2E2E2E2E2E2E2E2E2E2E2E2E2E2E2E2E2E2E2E2E2E2E2E2E2E2E2E2E2E2E2E2E2E2E2E2E2E2E2E2E2E2E2E2E2E2E2E2E2E2E2E2E2E2E2E2E2E2E2E2E2E2E2
310
E2E2E2E2E2E2E2E2E2E2E2E2E2E2E2E2E2E2E2E2E2E2E2E2E2E2E2E2E2E2E2E2E2E2E2E2E2E2E2E2E2E2E2E2E2E2E2E2E2E2E2E2E2E2E2E2E2E2E2E2E2E2E2E2E2E2E2E2E2E2E2E2E2E2E2E2E2E2E2E2E2E2E2E2E2E2E2E2E2E2E2E2E2E2E2E2E2E2E2E2E2E2E2E2E2E2E2E2E2E2E2E2E2E2E2E2E2E2E2E2E2E2E2E2E2E2E2
310
E2E2E2E2E2E2E2E2E2E2E2E2E2E2E2E2E2E2E2E2E2E2E2E2E2E2E2E2E2E2E2E2E2E2E2E2E2E2E2E2E2E2E2E2E2E2E2E2E2E2E2E2E2E2E2E2E2E2E2E2E2E2E2E2E2E2E2E2E2E2E2E2E2E2E2E2E2E2E2E2E2E2E2E2E2E2E2E2E2E2E2E2E2E2E2E2E2E2E2E2E2E2E2E2E2E2E2E2E2E2E2E2E2E2E2E2E2E2E2E2E2E2E2E2E2E2E2
310
E2E2E2E2E2E2E2E2E2E2E2E2E2E2E2E2E2E2E2E2E2E2E2E2E2E2E2E2E2E2E2E2E2E2E2E2E2E2E2E2E2E2E2E2E2E2E2E2E2E2E2E2E2E2E2E2E2E2E2E2E2E2E2E2E2E2E2E2E2E2E2E2E2E2E2E2E2E2E2E2E2E2E2E2E2E2E2E2E2E2E2E2E2E2E2E2E2E2E2E2E2E2E2E2E2E2E2E2E2E2E2E2E2E2E2E2E2E2E2E2E2E2E2E2E2E2E2
310
E2E2E2E2E2E2E2E2E2E2E2E2E2E2E2E2E2E2E2E2E2E2E2E2E2E2E2E2E2E2E2E2E2E2E2E2E2E2E2E2E2E2E2E2E2E2E2E2E2E2E2E2E2E2E2E2E2E2E2E2E2E2E2E2E2E2E2E2E2E2E2E2E2E2E2E2E2E2E2E2E2E2E2E2E2E2E2E2E2E2E2E2E2E2E2E2E2E2E2E2E2E2E2E2E2E2E2E2E2E2E2E2E2E2E2E2E2E2E2E2E2E2E2E2E2E2E2
310
E2E2E2E2E2E2E2E2E2E2E2E2E2E2E2E2E2E2E2E2E2E2E2E2E2E2E2E2E2E2E2E2E2E2E2E2E2E2E2E2E2E2E2E2E2E2E2E2E2E2E2E2E2E2E2E2E2E2E2E2E2E2E2E2E2E2E2E2E2E2E2E2E2E2E2E2E2E2E2E2E2E2E2E2E2E2E2E2E2E2E2E2E2E2E2E2E2E2E2E2E2E2E2E2E2E2E2E2E2E2E2E2E2E2E2E2E2E2E2E2E2E2E2E2E2E2E2
310
E2E2E2E2E2E2E2E2E2E2E2E2E2E2E2E2E2E2E2E2E2E2E2E2E2E2E2E2E2E2E2E2E2E2E2E2E2E2E2E2E2E2E2E2E2E2E2E2E2E2E2E2E2E2E2E2E2E2E2E2E2E2E2E2E2E2E2E2E2E2E2E2E2E2E2E2E2E2E2E2E2E2E2E2E2E2E2E2E2E2E2E2E2E2E2E2E2E2E2E2E2E2E2E2E2E2E2E2E2E2E2E2E2E2E2E2E2E2E2E2E2E2E2E2E2E2E2
310
E2E2E2E2E2E2E2E2E2E2E2E2E2E2E2E2E2E2E2E2E2E2E2E2E2E2E2E2E2E2E2E2E2E2E2E2E2E2E2E2E2E2E2E2E2E2E2E2E2E2E2E2E2E2E2E2E2E2E2E2E2E2E2E2E2E2E2E2E2E2E2E2E2E2E2E2E2E2E2E2E2E2E2E2E2E2E2E2E2E2E2E2E2E2E2E2E2E2E2E2E2E2E2E2E2E2E2E2E2E2E2E2E2E2E2E2E2E2E2E2E2E2E2E2E2E2E2
310
E2E2E2E2E2E2E2E2E2E2E2E2E2E2E2E2E2E2E2E2E2E2E2E2E2E2E2E2E2E2E2E2E2E2E2E2E2E2E2E2E2E2E2E2E2E2E2E2E2E2E2E2E2E2E2E2E2E2E2E2E2E2E2E2E2E2E2E2E2E2E2E2E2E2E2E2E2E2E2E2E2E2E2E2E2E2E2E2E2E2E2E2E2E2E2E2E2E2E2E2E2E2E2E2E2E2E2E2E2E2E2E2E2E2E2E2E2E2E2E2E2E2E2E2E2E2E2
310
E2E2E2E2E2E2E2E2E2E2E2E2E2E2E2E2E2E2E2E2E2E2E2E2E2E2E2E2E2E2E2E2E2E2E2E2E2E2E2E2E2E2E2E2E2E2E2E2E2E2E2E2E2E2E2E2E2E2E2E2E2E2E2E2E2E2E2E2E2E2E2E2E2E2E2E2E2E2E2E2E2E2E2E2E2E2E2E2E2E2E2E2E2E2E2E2E2E2E2E2E2E2E2E2E2E2E2E2E2E2E2E2E2E2E2E2E2E2E2E2E2E2E2E2E2E2E2
310
E2E2E2E2E2E2E2E2E2E2E2E2E2E2E2E2E2E2E2E2E2E2E2E2E2E2E2E2E2E2E2E2E2E2E2E2E2E2E2E2E2E2E2E2E2E2E2E2E2E2E2E2E2E2E2E2E2E2E2E2E2E2E2E2E2E2E2E2E2E2E2E2E2E2E2E2E2E2E2E2E2E2E2E2E2E2E2E2E2E2E2E2E2E2E2E2E2E2E2E2E2E2E2E2E2E2E2E2E2E2E2E2E2E2E2E2E2E2E2E2E2E2E2E2E2E2E2
310
E2E2E2E2E2E2E2E2E2E2E2E2E2E2E2E2E2E2E2E2E2E2E2E2E2E2E2E2E2E2E2E2E2E2E2E2E2E2E2E2E2E2E2E2E2E2E2E2E2E2E2E2E2E2E2E2E2E2E2E2E2E2E2E2E2E2E2E2E2E2E2E2E2E2E2E2E2E2E2E2E2E2E2E2E2E2E2E2E2E2E2E2E2E2E2E2E2E2E2E2E2E2E2E2E2E2E2E2E2E2E2E2E2E2E2E2E2E2E2E2E2E2E2E2E2E2E2
310
E2E2E2E2E2E2E2E2E2E2E2E2E2E2E2E2E2E2E2E2E2E2E2E2E2E2E2E2E2E2E2E2E2E2E2E2E2E2E2E2E2E2E2E2E2E2E2E2E2E2E2E2E2E2E2E2E2E2E2E2E2E2E2E2E2E2E2E2E2E2E2E2E2E2E2E2E2E2E2E2E2E2E2E2E2E2E2E2E2E2E2E2E2E2E2E2E2E2E2E2E2E2E2E2E2E2E2E2E2E2E2E2E2E2E2E2E2E2E2E2E2E2E2E2E2E2E2
310
E2E2E2E2E2E2E2E2E2E2E2E2E2E2E2E2E2E2E2E2E2E2E2E2E2E2E2E2E2E2E2E2E2E2E2E2E2E2E2E2E2E2E2E2E2E2E2E2E2E2E2E2E2E2E2E2E2E2E2E2E2E2E2E2E2E2E2E2E2E2E2E2E2E2E2E2E2E2E2E2E2E2E2E2E2E2E2E2E2E2E2E2E2E2E2E2E2E2E2E2E2E2E2E2E2E2E2E2E2E2E2E2E2E2E2E2E2E2E2E2E2E2E2E2E2E2E2
310
E2E2E2E2E2E2E2E2E2E2E2E2E2E2E2E2E2E2E2E2E2E2E2E2E2E2E2E2E2E2E2E2E2E2E2E2E2E2E2E2E2E2E2E2E2E2E2E2E2E2E2E2E2E2E2E2E2E2E2E2E2E2E2E2E2E2E2E2E2E2E2E2E2E2E2E2E2E2E2E2E2E2E2E2E2E2E2E2E2E2E2E2E2E2E2E2E2E2E2E2E2E2E2E2E2E2E2E2E2E2E2E2E2E2E2E2E2E2E2E2E2E2E2E2E2E2E2
310
E2E2E2E2E2E2E2E2E2E2E2E2E2E2E2E2E2E2E2E2E2E2E2E2E2E2E2E2E2E2E2E2E2E2E2E2E2E2E2E2E2E2E2E2E2E2E2E2E2E2E2E2E2E2E2E2E2E2E2E2E2E2E2E2E2E2E2E2E2E2E2E2E2E2E2E2E2E2E2E2E2E2E2E2E2E2E2E2E2E2E2E2E2E2E2E2E2E2E2E2E2E2E2E2E2E2E2E2E2E2E2E2E2E2E2E2E2E2E2E2E2E2E2E2E2E2E2
310
E2E2E2E2E2E2E2E2E2E2E2E2E2E2E2E2E2E2E2E2E2E2E2E2E2E2E2E2E2E2E2E2E2E2E2E2E2E2E2E2E2E2E2E2E2E2E2E2E2E2E2E2E2E2E2E2E2E2E2E2E2E2E2E2E2E2E2E2E2E2E2E2E2E2E2E2E2E2E2E2E2E2E2E2E2E2E2E2E2E2E2E2E2E2E2E2E2E2E2E2E2E2E2E2E2E2E2E2E2E2E2E2E2E2E2E2E2E2E2E2E2E2E2E2E2E2E2
310
E2E2E2E2E2E2E2E2E2E2E2E2E2E2E2E2E2E2E2E2E2E2E2E2E2E2E2E2E2E2E2E2E2E2E2E2E2E2E2E2E2E2E2E2E2E2E2E2E2E2E2E2E2E2E2E2E2E2E2E2E2E2E2E2E2E2E2E2E2E2E2E2E2E2E2E2E2E2E2E2E2E2E2E2E2E2E2E2E2E2E2E2E2E2E2E2E2E2E2E2E2E2E2E2E2E2E2E2E2E2E2E2E2E2E2E2E2E2E2E2E2E2E2E2E2E2E2
310
E2E2E2E2E2E2E2E2E2E2E2E2E2E2E2E2E2E2E2E2E2E2E2E2E2E2E2E2E2E2E2E2E2E2E2E2E2E2E2E2E2E2E2E2E2E2E2E2E2E2E2E2E2E2E2E2E2E2E2E2E2E2E2E2E2E2E2E2E2E2E2E2E2E2E2E2E2E2E2E2E2E2E2E2E2E2E2E2E2E2E2E2E2E2E2E2E2E2E2E2E2E2E2E2E2E2E2E2E2E2E2E2E2E2E2E2E2E2E2E2E2E2E2E2E2E2E2
310
E2E2E2E2E2E2E2E2E2E2E2E2E2E2E2E2E2E2E2E2E2E2E2E2E2E2E2E2E2E2E2E2E2E2E2E2E2E2E2E2E2E2E2E2E2E2E2E2E2E2E2E2E2E2E2E2E2E2E2E2E2E2E2E2E2E2E2E2E2E2E2E2E2E2E2E2E2E2E2E2E2E2E2E2E2E2E2E2E2E2E2E2E2E2E2E2E2E2E2E2E2E2E2E2E2E2E2E2E2E2E2E2E2E2E2E2E2E2E2E2E2E2E2E2E2E2E2
310
E2E2E2E2E2E2E2E2E2E2E2E2E2E2E2E2E2E2E2E2E2E2E2E2E2E2E2E2E2E2E2E2E2E2E2E2E2E2E2E2E2E2E2E2E2E2E2E2E2E2E2E2E2E2E2E2E2E2E2E2E2E2E2E2E2E2E2E2E2E2E2E2E2E2E2E2E2E2E2E2E2E2E2E2E2E2E2E2E2E2E2E2E2E2E2E2E2E2E2E2E2E2E2E2E2E2E2E2E2E2E2E2E2E2E2E2E2E2E2E2E2E2E2E2E2E2E2
310
E2E2E2E2E2E2E2E2E2E2E2E2E2E2E2E2E2E2E2E2E2E2E2E2E2E2E2E2E2E2E2E2E2E2E2E2E2E2E2E2E2E2E2E2E2E2E2E2E2E2E2E2E2E2E2E2E2E2E2E2E2E2E2E2E2E2E2E2E2E2E2E2E2E2E2E2E2E2E2E2E2E2E2E2E2E2E2E2E2E2E2E2E2E2E2E2E2E2E2E2E2E2E2E2E2E2E2E2E2E2E2E2E2E2E2E2E2E2E2E2E2E2E2E2E2E2E2
310
E2E2E2E2E2E2E2E2E2E2E2E2E2E2E2E2E2E2E2E2E2E2E2E2E2E2E2E2E2E2E2E2E2E2E2E2E2E2E2E2E2E2E2E2E2E2E2E2E2E2E2E2E2E2E2E2E2E2E2E2E2E2E2E2E2E2E2E2E2E2E2E2E2E2E2E2E2E2E2E2E2E2E2E2E2E2E2E2E2E2E2E2E2E2E2E2E2E2E2E2E2E2E2E2E2E2E2E2E2E2E2E2E2E2E2E2E2E2E2E2E2E2E2E2E2E2E2
310
E2E2E2E2E2E2E2E2E2E2E2E2E2E2E2E2E2E2E2E2E2E2E2E2E2E2E2E2E2E2E2E2E2E2E2E2E2E2E2E2E2E2E2E2E2E2E2E2E2E2E2E2E2E2E2E2E2E2E2E2E2E2E2E2E2E2E2E2E2E2E2E2E2E2E2E2E2E2E2E2E2E2E2E2E2E2E2E2E2E2E2E2E2E2E2E2E2E2E2E2E2E2E2E2E2E2E2E2E2E2E2E2E2E2E2E2E2E2E2E2E2E2E2E2E2E2E2
310
E2E2E2E2E2E2E2E2E2E2E2E2E2E2E2E2E2E2E2E2E2E2E2E2E2E2E2E2E2E2E2E2E2E2E2E2E2E2E2E2E2E2E2E2E2E2E2E2E2E2E2E2E2E2E2E2E2E2E2E2E2E2E2E2E2E2E2E2E2E2E2E2E2E2E2E2E2E2E2E2E2E2E2E2E2E2E2E2E2E2E2E2E2E2E2E2E2E2E2E2E2E2E2E2E2E2E2E2E2E2E2E2E2E2E2E2E2E2E2E2E2E2E2E2E2E2E2
310
E2E2E2E2E2E2E2E2E2E2E2E2E2E2E2E2E2E2E2E2E2E2E2E2E2E2E2E2E2E2E2E2E2E2E2E2E2E2E2E2E2E2E2E2E2E2E2E2E2E2E2E2E2E2E2E2E2E2E2E2E2E2E2E2E2E2E2E2E2E2E2E2E2E2E2E2E2E2E2E2E2E2E2E2E2E2E2E2E2E2E2E2E2E2E2E2E2E2E2E2E2E2E2E2E2E2E2E2E2E2E2E2E2E2E2E2E2E2E2E2E2E2E2E2E2E2E2
310
E2E2E2E2E2E2E2E2E2E2E2E2E2E2E2E2E2E2E2E2E2E2E2E2E2E2E2E2E2E2E2E2E2E2E2E2E2E2E2E2E2E2E2E2E2E2E2E2E2E2E2E2E2E2E2E2E2E2E2E2E2E2E2E2E2E2E2E2E2E2E2E2E2E2E2E2E2E2E2E2E2E2E2E2E2E2E2E2E2E2E2E2E2E2E2E2E2E2E2E2E2E2E2E2E2E2E2E2E2E2E2E2E2E2E2E2E2E2E2E2E2E2E2E2E2E2E2
310
E2E2E2E2E2E2E2E2E2E2E2E2E2E2E2E2E2E2E2E2E2E2E2E2E2E2E2E2E2E2E2E2E2E2E2E2E2E2E2E2E2E2E2E2E2E2E2E2E2E2E2E2E2E2E2E2E2E2E2E2E2E2E2E2E2E2E2E2E2E2E2E2E2E2E2E2E2E2E2E2E2E2E2E2E2E2E2E2E2E2E2E2E2E2E2E2E2E2E2E2E2E2E2E2E2E2E2E2E2E2E2E2E2E2E2E2E2E2E2E2E2E2E2E2E2E2E2
310
E2E2E2E2E2E2E2E2E2E2E2E2E2E2E2E2E2E2E2E2E2E2E2E2E2E2E2E2E2E2E2E2E2E2E2E2E2E2E2E2E2E2E2E2E2E2E2E2E2E2E2E2E2E2E2E2E2E2E2E2E2E2E2E2E2E2E2E2E2E2E2E2E2E2E2E2E2E2E2E2E2E2E2E2E2E2E2E2E2E2E2E2E2E2E2E2E2E2E2E2E2E2E2E2E2E2E2E2E2E2E2E2E2E2E2E2E2E2E2E2E2E2E2E2E2E2E2
310
E2E2E2E2E2E2E2E2E2E2E2E2E2E2E2E2E2E2E2E2E2E2E2E2E2E2E2E2E2E2E2E2E2E2E2E2E2E2E2E2E2E2E2E2E2E2E2E2E2E2E2E2E2E2E2E2E2E2E2E2E2E2E2E2E2E2E2E2E2E2E2E2E2E2E2E2E2E2E2E2E2E2E2E2E2E2E2E2E2E2E2E2E2E2E2E2E2E2E2E2E2E2E2E2E2E2E2E2E2E2E2E2E2E2E2E2E2E2E2E2E2E2E2E2E2E2E2
310
E2E2E2E2E2E2E2E2E2E2E2E2E2E2E2E2E2E2E2E2E2E2E2E2E2E2E2E2E2E2E2E2E2E2E2E2E2E2E2E2E2E2E2E2E2E2E2E2E2E2E2E2E2E2E2E2E2E2E2E2E2E2E2E2E2E2E2E2E2E2E2E2E2E2E2E2E2E2E2E2E2E2E2E2E2E2E2E2E2E2E2E2E2E2E2E2E2E2E2E2E2E2E2E2E2E2E2E2E2E2E2E2E2E2E2E2E2E2E2E2E2E2E2E2E2E2E2
310
E2E2E2E2E2E2E2E2E2E2E2E2E2E2E2E2E2E2E2E2E2E2E2E2E2E2E2E2E2E2E2E2E2E2E2E2E2E2E2E2E2E2E2E2E2E2E2E2E2E2E2E2E2E2E2E2E2E2E2E2E2E2E2E2E2E2E2E2E2E2E2E2E2E2E2E2E2E2E2E2E2E2E2E2E2E2E2E2E2E2E2E2E2E2E2E2E2E2E2E2E2E2E2E2E2E2E2E2E2E2E2E2E2E2E2E2E2E2E2E2E2E2E2E2E2E2E2
310
E2E2E2E2E2E2E2E2E2E2E2E2E2E2E2E2E2E2E2E2E2E2E2E2E2E2E2E2E2E2E2E2E2E2E2E2E2E2E2E2E2E2E2E2E2E2E2E2E2E2E2E2E2E2E2E2E2E2E2E2E2E2E2E2E2E2E2E2E2E2E2E2E2E2E2E2E2E2E2E2E2E2E2E2E2E2E2E2E2E2E2E2E2E2E2E2E2E2E2E2E2E2E2E2E2E2E2E2E2E2E2E2E2E2E2E2E2E2E2E2E2E2E2E2E2E2E2
310
E2E2E2E2E2E2E2E2E2E2E2E2E2E2E2E2E2E2E2E2E2E2E2E2E2E2E2E2E2E2E2E2E2E2E2E2E2E2E2E2E2E2E2E2E2E2E2E2E2E2E2E2E2E2E2E2E2E2E2E2E2E2E2E2E2E2E2E2E2E2E2E2E2E2E2E2E2E2E2E2E2E2E2E2E2E2E2E2E2E2E2E2E2E2E2E2E2E2E2E2E2E2E2E2E2E2E2E2E2E2E2E2E2E2E2E2E2E2E2E2E2E2E2E2E2E2E2
310
E2E2E2E2E2E2E2E2E2E2E2E2E2E2E2E2E2E2E2E2E2E2E2E2E2E2E2E2E2E2E2E2E2E2E2E2E2E2E2E2E2E2E2E2E2E2E2E2E2E2E2E2E2E2E2E2E2E2E2E2E2E2E2E2E2E2E2E2E2E2E2E2E2E2E2E2E2E2E2E2E2E2E2E2E2E2E2E2E2E2E2E2E2E2E2E2E2E2E2E2E2E2E2E2E2E2E2E2E2E2E2E2E2E2E2E2E2E2E2E2E2E2E2E2E2E2E2
310
E2E2E2E2E2E2E2E2E2E2E2E2E2E2E2E2E2E2E2E2E2E2E2E2E2E2E2E2E2E2E2E2E2E2E2E2E2E2E2E2E2E2E2E2E2E2E2E2E2E2E2E2E2E2E2E2E2E2E2E2E2E2E2E2E2E2E2E2E2E2E2E2E2E2E2E2E2E2E2E2E2E2E2E2E2E2E2E2E2E2E2E2E2E2E2E2E2E2E2E2E2E2E2E2E2E2E2E2E2E2E2E2E2E2E2E2E2E2E2E2E2E2E2E2E2E2E2
310
E2E2E2E2E2E2E2E2E2E2E2E2E2E2E2E2E2E2E2E2E2E2E2E2E2E2E2E2E2E2E2E2E2E2E2E2E2E2E2E2E2E2E2E2E2E2E2E2E2E2E2E2E2E2E2E2E2E2E2E2E2E2E2E2E2E2E2E2E2E2E2E2E2E2E2E2E2E2E2E2E2E2E2E2E2E2E2E2E2E2E2E2E2E2E2E2E2E2E2E2E2E2E2E2E2E2E2E2E2E2E2E2E2E2E2E2E2E2E2E2E2E2E2E2E2E2E2
310
E2E2E2E2E2E2E2E2E2E2E2E2E2E2E2E2E2E2E2E2E2E2E2E2E2E2E2E2E2E2E2E2E2E2E2E2E2E2E2E2E2E2E2E2E2E2E2E2E2E2E2E2E2E2E2E2E2E2E2E2E2E2E2E2E2E2E2E2E2E2E2E2E2E2E2E2E2E2E2E2E2E2E2E2E2E2E2E2E2E2E2E2E2E2E2E2E2E2E2E2E2E2E2E2E2E2E2E2E2E2E2E2E2E2E2E2E2E2E2E2E2E2E2E2E2E2E2
310
E2E2E2E2E2E2E2E2E2E2E2E2E2E2E2E2E2E2E2E2E2E2E2E2E2E2E2E2E2E2E2E2E2E2E2E2E2E2E2E2E2E2E2E2E2E2E2E2E2E2E2E2E2E2E2E2E2E2E2E2E2E2E2E2E2E2E2E2E2E2E2E2E2E2E2E2E2E2E2E2E2E2E2E2E2E2E2E2E2E2E2E2E2E2E2E2E2E2E2E2E2E2E2E2E2E2E2E2E2E2E2E2E2E2E2E2E2E2E2E2E2E2E2E2E2E2E2
310
E2E2E2E2E2E2E2E2E2E2E2E2E2E2E2E2E2E2E2E2E2E2E2E2E2E2E2E2E2E2E2E2E2E2E2E2E2E2E2E2E2E2E2E2E2E2E2E2E2E2E2E2E2E2E2E2E2E2E2E2E2E2E2E2E2E2E2E2E2E2E2E2E2E2E2E2E2E2E2E2E2E2E2E2E2E2E2E2E2E2E2E2E2E2E2E2E2E2E2E2E2E2E2E2E2E2E2E2E2E2E2E2E2E2E2E2E2E2E2E2E2E2E2E2E2E2E2
310
E2E2E2E2E2E2E2E2E2E2E2E2E2E2E2E2E2E2E2E2E2E2E2E2E2E2E2E2E2E2E2E2E2E2E2E2E2E2E2E2E2E2E2E2E2E2E2E2E2E2E2E2E2E2E2E2E2E2E2E2E2E2E2E2E2E2E2E2E2E2E2E2E2E2E2E2E2E2E2E2E2E2E2E2E2E2E2E2E2E2E2E2E2E2E2E2E2E2E2E2E2E2E2E2E2E2E2E2E2E2E2E2E2E2E2E2E2E2E2E2E2E2E2E2E2E2E2
310
E2E2E2E2E2E2E2E2E2E2E2E2E2E2E2E2E2E2E2E2E2E2E2E2E2E2E2E2E2E2E2E2E2E2E2E2E2E2E2E2E2E2E2E2E2E2E2E2E2E2E2E2E2E2E2E2E2E2E2E2E2E2E2E2E2E2E2E2E2E2E2E2E2E2E2E2E2E2E2E2E2E2E2E2E2E2E2E2E2E2E2E2E2E2E2E2E2E2E2E2E2E2E2E2E2E2E2E2E2E2E2E2E2E2E2E2E2E2E2E2E2E2E2E2E2E2E2
310
E2E2E2E2E2E2E2E2E2E2E2E2E2E2E2E2E2E2E2E2E2E2E2E2E2E2E2E2E2E2E2E2E2E2E2E2E2E2E2E2E2E2E2E2E2E2E2E2E2E2E2E2E2E2E2E2E2E2E2E2E2E2E2E2E2E2E2E2E2E2E2E2E2E2E2E2E2E2E2E2E2E2E2E2E2E2E2E2E2E2E2E2E2E2E2E2E2E2E2E2E2E2E2E2E2E2E2E2E2E2E2E2E2E2E2E2E2E2E2E2E2E2E2E2E2E2E2
310
E2E2E2E2E2E2E2E2E2E2E2E2E2E2E2E2E2E2E2E2E2E2E2E2E2E2E2E2E2E2E2E2E2E2E2E2E2E2E2E2E2E2E2E2E2E2E2E2E2E2E2E2E2E2E2E2E2E2E2E2E2E2E2E2E2E2E2E2E2E2E2E2E2E2E2E2E2E2E2E2E2E2E2E2E2E2E2E2E2E2E2E2E2E2E2E2E2E2E2E2E2E2E2E2E2E2E2E2E2E2E2E2E2E2E2E2E2E2E2E2E2E2E2E2E2E2E2
310
E2E2E2E2E2E2E2E2E2E2E2E2E2E2E2E2E2E2E2E2E2E2E2E2E2E2E2E2E2E2E2E2E2E2E2E2E2E2E2E2E2E2E2E2E2E2E2E2E2E2E2E2E2E2E2E2E2E2E2E2E2E2E2E2E2E2E2E2E2E2E2E2E2E2E2E2E2E2E2E2E2E2E2E2E2E2E2E2E2E2E2E2E2E2E2E2E2E2E2E2E2E2E2E2E2E2E2E2E2E2E2E2E2E2E2E2E2E2E2E2E2E2E2E2E2E2E2
310
E2E2E2E2E2E2E2E2E2E2E2E2E2E2E2E2E2E2E2E2E2E2E2E2E2E2E2E2E2E2E2E2E2E2E2E2E2E2E2E2E2E2E2E2E2E2E2E2E2E2E2E2E2E2E2E2E2E2E2E2E2E2E2E2E2E2E2E2E2E2E2E2E2E2E2E2E2E2E2E2E2E2E2E2E2E2E2E2E2E2E2E2E2E2E2E2E2E2E2E2E2E2E2E2E2E2E2E2E2E2E2E2E2E2E2E2E2E2E2E2E2E2E2E2E2E2E2
310
E2E2E2E2E2E2E2E2E2E2E2E2E2E2E2E2E2E2E2E2E2E2E2E2E2E2E2E2E2E2E2E2E2E2E2E2E2E2E2E2E2E2E2E2E2E2E2E2E2E2E2E2E2E2E2E2E2E2E2E2E2E2E2E2E2E2E2E2E2E2E2E2E2E2E2E2E2E2E2E2E2E2E2E2E2E2E2E2E2E2E2E2E2E2E2E2E2E2E2E2E2E2E2E2E2E2E2E2E2E2E2E2E2E2E2E2E2E2E2E2E2E2E2E2E2E2E2
310
E2E2E2E2E2E2E2E2E2E2E2E2E2E2E2E2E2E2E2E2E2E2E2E2E2E2E2E2E2E2E2E2E2E2E2E2E2E2E2E2E2E2E2E2E2E2E2E2E2E2E2E2E2E2E2E2E2E2E2E2E2E2E2E2E2E2E2E2E2E2E2E2E2E2E2E2E2E2E2E2E2E2E2E2E2E2E2E2E2E2E2E2E2E2E2E2E2E2E2E2E2E2E2E2E2E2E2E2E2E2E2E2E2E2E2E2E2E2E2E2E2E2E2E2E2E2E2
310
E2E2E2E2E2E2E2E2E2E2E2E2E2E2E2E2E2E2E2E2E2E2E2E2E2E2E2E2E2E2E2E2E2E2E2E2E2E2E2E2E2E2E2E2E2E2E2E2E2E2E2E2E2E2E2E2E2E2E2E2E2E2E2E2E2E2E2E2E2E2E2E2E2E2E2E2E2E2E2E2E2E2E2E2E2E2E2E2E2E2E2E2E2E2E2E2E2E2E2E2E2E2E2E2E2E2E2E2E2E2E2E2E2E2E2E2E2E2E2E2E2E2E2E2E2E2E2
310
E2E2E2E2E2E2E2E2E2E2E2E2E2E2E2E2E2E2E2E2E2E2E2E2E2E2E2E2E2E2E2E2E2E2E2E2E2E2E2E2E2E2E2E2E2E2E2E2E2E2E2E2E2E2E2E2E2E2E2E2E2E2E2E2E2E2E2E2E2E2E2E2E2E2E2E2E2E2E2E2E2E2E2E2E2E2E2E2E2E2E2E2E2E2E2E2E2E2E2E2E2E2E2E2E2E2E2E2E2E2E2E2E2E2E2E2E2E2E2E2E2E2E2E2E2E2E2
310
E2E2E2E2E2E2E2E2E2E2E2E2E2E2E2E2E2E2E2E2E2E2E2E2E2E2E2E2E2E2E2E2E2E2E2E2E2E2E2E2E2E2E2E2E2E2E2E2E2E2E2E2E2E2E2E2E2E2E2E2E2E2E2E2E2E2E2E2E2E2E2E2E2E2E2E2E2E2E2E2E2E2E2E2E2E2E2E2E2E2E2E2E2E2E2E2E2E2E2E2E2E2E2E2E2E2E2E2E2E2E2E2E2E2E2E2E2E2E2E2E2E2E2E2E2E2E2
310
E2E2E2E2E2E2E2E2E2E2E2E2E2E2E2E2E2E2E2E2E2E2E2E2E2E2E2E2E2E2E2E2E2E2E2E2E2E2E2E2E2E2E2E2E2E2E2E2E2E2E2E2E2E2E2E2E2E2E2E2E2E2E2E2E2E2E2E2E2E2E2E2E2E2E2E2E2E2E2E2E2E2E2E2E2E2E2E2E2E2E2E2E2E2E2E2E2E2E2E2E2E2E2E2E2E2E2E2E2E2E2E2E2E2E2E2E2E2E2E2E2E2E2E2E2E2E2
310
E2E2E2E2E2E2E2E2E2E2E2E2E2E2E2E2E2E2E2E2E2E2E2E2E2E2E2E2E2E2E2E2E2E2E2E2E2E2E2E2E2E2E2E2E2E2E2E2E2E2E2E2E2E2E2E2E2E2E2E2E2E2E2E2E2E2E2E2E2E2E2E2E2E2E2E2E2E2E2E2E2E2E2E2E2E2E2E2E2E2E2E2E2E2E2E2E2E2E2E2E2E2E2E2E2E2E2E2E2E2E2E2E2E2E2E2E2E2E2E2E2E2E2E2E2E2E2
310
E2E2E2E2E2E2E2E2E2E2E2E2E2E2E2E2E2E2E2E2E2E2E2E2E2E2E2E2E2E2E2E2E2E2E2E2E2E2E2E2E2E2E2E2E2E2E2E2E2E2E2E2E2E2E2E2E2E2E2E2E2E2E2E2E2E2E2E2E2E2E2E2E2E2E2E2E2E2E2E2E2E2E2E2E2E2E2E2E2E2E2E2E2E2E2E2E2E2E2E2E2E2E2E2E2E2E2E2E2E2E2E2E2E2E2E2E2E2E2E2E2E2E2E2E2E2E2
310
E2E2E2E2E2E2E2E2E2E2E2E2E2E2E2E2E2E2E2E2E2E2E2E2E2E2E2E2E2E2E2E2E2E2E2E2E2E2E2E2E2E2E2E2E2E2E2E2E2E2E2E2E2E2E2E2E2E2E2E2E2E2E2E2E2E2E2E2E2E2E2E2E2E2E2E2E2E2E2E2E2E2E2E2E2E2E2E2E2E2E2E2E2E2E2E2E2E2E2E2E2E2E2E2E2E2E2E2E2E2E2E2E2E2E2E2E2E2E2E2E2E2E2E2E2E2E2
310
E2E2E2E2E2E2E2E2E2E2E2E2E2E2E2E2E2E2E2E2E2E2E2E2E2E2E2E2E2E2E2E2E2E2E2E2E2E2E2E2E2E2E2E2E2E2E2E2E2E2E2E2E2E2E2E2E2E2E2E2E2E2E2E2E2E2E2E2E2E2E2E2E2E2E2E2E2E2E2E2E2E2E2E2E2E2E2E2E2E2E2E2E2E2E2E2E2E2E2E2E2E2E2E2E2E2E2E2E2E2E2E2E2E2E2E2E2E2E2E2E2E2E2E2E2E2E2
310
E2E2E2E2E2E2E2E2E2E2E2E2E2E2E2E2E2E2E2E2E2E2E2E2E2E2E2E2E2E2E2E2E2E2E2E2E2E2E2E2E2E2E2E2E2E2E2E2E2E2E2E2E2E2E2E2E2E2E2E2E2E2E2E2E2E2E2E2E2E2E2E2E2E2E2E2E2E2E2E2E2E2E2E2E2E2E2E2E2E2E2E2E2E2E2E2E2E2E2E2E2E2E2E2E2E2E2E2E2E2E2E2E2E2E2E2E2E2E2E2E2E2E2E2E2E2E2
310
E2E2E2E2E2E2E2E2E2E2E2E2E2E2E2E2E2E2E2E2E2E2E2E2E2E2E2E2E2E2E2E2E2E2E2E2E2E2E2E2E2E2E2E2E2E2E2E2E2E2E2E2E2E2E2E2E2E2E2E2E2E2E2E2E2E2E2E2E2E2E2E2E2E2E2E2E2E2E2E2E2E2E2E2E2E2E2E2E2E2E2E2E2E2E2E2E2E2E2E2E2E2E2E2E2E2E2E2E2E2E2E2E2E2E2E2E2E2E2E2E2E2E2E2E2E2E2
310
E2E2E2E2E2E2E2E2E2E2E2E2E2E2E2E2E2E2E2E2E2E2E2E2E2E2E2E2E2E2E2E2E2E2E2E2E2E2E2E2E2E2E2E2E2E2E2E2E2E2E2E2E2E2E2E2E2E2E2E2E2E2E2E2E2E2E2E2E2E2E2E2E2E2E2E2E2E2E2E2E2E2E2E2E2E2E2E2E2E2E2E2E2E2E2E2E2E2E2E2E2E2E2E2E2E2E2E2E2E2E2E2E2E2E2E2E2E2E2E2E2E2E2E2E2E2E2
310
E2E2E2E2E2E2E2E2E2E2E2E2E2E2E2E2E2E2E2E2E2E2E2E2E2E2E2E2E2E2E2E2E2E2E2E2E2E2E2E2E2E2E2E2E2E2E2E2E2E2E2E2E2E2E2E2E2E2E2E2E2E2E2E2E2E2E2E2E2E2E2E2E2E2E2E2E2E2E2E2E2E2E2E2E2E2E2E2E2E2E2E2E2E2E2E2E2E2E2E2E2E2E2E2E2E2E2E2E2E2E2E2E2E2E2E2E2E2E2E2E2E2E2E2E2E2E2
310
E2E2E2E2E2E2E2E2E2E2E2E2E2E2E2E2E2E2E2E2E2E2E2E2E2E2E2E2E2E2E2E2E2E2E2E2E2E2E2E2E2E2E2E2E2E2E2E2E2E2E2E2E2E2E2E2E2E2E2E2E2E2E2E2E2E2E2E2E2E2E2E2E2E2E2E2E2E2E2E2E2E2E2E2E2E2E2E2E2E2E2E2E2E2E2E2E2E2E2E2E2E2E2E2E2E2E2E2E2E2E2E2E2E2E2E2E2E2E2E2E2E2E2E2E2E2E2
310
E2E2E2E2E2E2E2E2E2E2E2E2E2E2E2E2E2E2E2E2E2E2E2E2E2E2E2E2E2E2E2E2E2E2E2E2E2E2E2E2E2E2E2E2E2E2E2E2E2E2E2E2E2E2E2E2E2E2E2E2E2E2E2E2E2E2E2E2E2E2E2E2E2E2E2E2E2E2E2E2E2E2E2E2E2E2E2E2E2E2E2E2E2E2E2E2E2E2E2E2E2E2E2E2E2E2E2E2E2E2E2E2E2E2E2E2E2E2E2E2E2E2E2E2E2E2E2
310
E2E2E2E2E2E2E2E2E2E2E2E2E2E2E2E2E2E2E2E2E2E2E2E2E2E2E2E2E2E2E2E2E2E2E2E2E2E2
  0
XRECORD
  5
664
102
{ACAD_REACTORS
330
46
102
}
330
46
100
AcDbXrecord
280
     1
102
MATERIAL
148
0.0
149
0.0
149
0.0
 93
        0
 94
      127
282
     0
 72
     0
 77
     0
171
     0
175
     0
179
     0
273
     0
  0
XRECORD
  5
47
102
{ACAD_REACTORS
330
46
102
}
330
46
100
AcDbXrecord
280
     1
270
     1
271
     1
  0
XRECORD
  5
48
102
{ACAD_REACTORS
330
46
102
}
330
46
100
AcDbXrecord
280
     1
270
     1
271
     1
  0
XRECORD
  5
49
102
{ACAD_REACTORS
330
46
102
}
330
46
100
AcDbXrecord
280
     1
270
     1
271
     1
  0
XRECORD
  5
4A
102
{ACAD_REACTORS
330
46
102
}
330
46
100
AcDbXrecord
280
     1
270
     1
271
     1
  0
XRECORD
  5
4B
102
{ACAD_REACTORS
330
46
102
}
330
46
100
AcDbXrecord
280
     1
270
     1
271
     1
  0
XRECORD
  5
4C
102
{ACAD_REACTORS
330
46
102
}
330
46
100
AcDbXrecord
280
     1
270
     1
271
     1
  0
XRECORD
  5
663
102
{ACAD_REACTORS
330
3E
102
}
330
3E
100
AcDbXrecord
280
     1
102
MATERIAL
148
0.0
149
0.0
149
0.0
 93
        0
 94
      127
282
     0
 72
     0
 77
     0
171
     0
175
     0
179
     0
273
     0
  0
XRECORD
  5
3F
102
{ACAD_REACTORS
330
3E
102
}
330
3E
100
AcDbXrecord
280
     1
270
     1
271
     1
  0
XRECORD
  5
40
102
{ACAD_REACTORS
330
3E
102
}
330
3E
100
AcDbXrecord
280
     1
270
     1
271
     1
  0
XRECORD
  5
41
102
{ACAD_REACTORS
330
3E
102
}
330
3E
100
AcDbXrecord
280
     1
270
     1
271
     1
  0
XRECORD
  5
42
102
{ACAD_REACTORS
330
3E
102
}
330
3E
100
AcDbXrecord
280
     1
270
     1
271
     1
  0
XRECORD
  5
43
102
{ACAD_REACTORS
330
3E
102
}
330
3E
100
AcDbXrecord
280
     1
270
     1
271
     1
  0
XRECORD
  5
44
102
{ACAD_REACTORS
330
3E
102
}
330
3E
100
AcDbXrecord
280
     1
270
     1
271
     1
  0
XRECORD
  5
65C
102
{ACAD_REACTORS
330
D
102
}
330
D
100
AcDbXrecord
280
     1
102
MATERIAL
148
0.0
149
0.0
149
0.0
 93
        0
 94
      127
282
     0
 72
     0
 77
     0
171
     0
175
     0
179
     0
273
     0
  0
XRECORD
  5
E
102
{ACAD_REACTORS
330
D
102
}
330
D
100
AcDbXrecord
280
     1
270
     1
271
     1
  0
XRECORD
  5
F
102
{ACAD_REACTORS
330
D
102
}
330
D
100
AcDbXrecord
280
     1
270
     1
271
     1
  0
XRECORD
  5
10
102
{ACAD_REACTORS
330
D
102
}
330
D
100
AcDbXrecord
280
     1
270
     1
271
     1
  0
XRECORD
  5
11
102
{ACAD_REACTORS
330
D
102
}
330
D
100
AcDbXrecord
280
     1
270
     1
271
     1
  0
XRECORD
  5
12
102
{ACAD_REACTORS
330
D
102
}
330
D
100
AcDbXrecord
280
     1
270
     1
271
     1
  0
XRECORD
  5
13
102
{ACAD_REACTORS
330
D
102
}
330
D
100
AcDbXrecord
280
     1
270
     1
271
     1
  0
CELLSTYLEMAP
  5
CE5
102
{ACAD_REACTORS
330
62F
102
}
330
62F
100
AcDbCellStyleMap
 90
        3
300
CELLSTYLE
  1
TABLEFORMAT_BEGIN
 90
        5
170
     1
 91
        0
 92
    32768
 62
   257
 93
        1
300
CONTENTFORMAT
  1
CONTENTFORMAT_BEGIN
 90
        0
 91
        0
 92
        4
 93
        0
300

 40
0.0
140
1.0
 94
        5
 62
     0
340
23
144
6.0
309
CONTENTFORMAT_END
171
     1
301
MARGIN
  1
CELLMARGIN_BEGIN
 40
1.5
 40
1.5
 40
1.5
 40
1.5
 40
0.18
 40
0.18
309
CELLMARGIN_END
 94
        6
 95
        1
302
GRIDFORMAT
  1
GRIDFORMAT_BEGIN
 90
        0
 91
        1
 62
     0
 92
       -2
340
0
 93
        0
 40
0.045
309
GRIDFORMAT_END
 95
        2
302
GRIDFORMAT
  1
GRIDFORMAT_BEGIN
 90
        0
 91
        1
 62
     0
 92
       -2
340
0
 93
        0
 40
0.045
309
GRIDFORMAT_END
 95
        4
302
GRIDFORMAT
  1
GRIDFORMAT_BEGIN
 90
        0
 91
        1
 62
     0
 92
       -2
340
0
 93
        0
 40
0.045
309
GRIDFORMAT_END
 95
        8
302
GRIDFORMAT
  1
GRIDFORMAT_BEGIN
 90
        0
 91
        1
 62
     0
 92
       -2
340
0
 93
        0
 40
0.045
309
GRIDFORMAT_END
 95
       16
302
GRIDFORMAT
  1
GRIDFORMAT_BEGIN
 90
        0
 91
        1
 62
     0
 92
       -2
340
0
 93
        0
 40
0.045
309
GRIDFORMAT_END
 95
       32
302
GRIDFORMAT
  1
GRIDFORMAT_BEGIN
 90
        0
 91
        1
 62
     0
 92
       -2
340
0
 93
        0
 40
0.045
309
GRIDFORMAT_END
309
TABLEFORMAT_END
  1
CELLSTYLE_BEGIN
 90
        1
 91
        1
300
_TITLE
309
CELLSTYLE_END
300
CELLSTYLE
  1
TABLEFORMAT_BEGIN
 90
        5
170
     1
 91
        0
 92
        0
 62
   257
 93
        1
300
CONTENTFORMAT
  1
CONTENTFORMAT_BEGIN
 90
        0
 91
        0
 92
        4
 93
        0
300

 40
0.0
140
1.0
 94
        5
 62
     0
340
23
144
4.5
309
CONTENTFORMAT_END
171
     1
301
MARGIN
  1
CELLMARGIN_BEGIN
 40
1.5
 40
1.5
 40
1.5
 40
1.5
 40
0.18
 40
0.18
309
CELLMARGIN_END
 94
        6
 95
        1
302
GRIDFORMAT
  1
GRIDFORMAT_BEGIN
 90
        0
 91
        1
 62
     0
 92
       -2
340
0
 93
        0
 40
0.045
309
GRIDFORMAT_END
 95
        2
302
GRIDFORMAT
  1
GRIDFORMAT_BEGIN
 90
        0
 91
        1
 62
     0
 92
       -2
340
0
 93
        0
 40
0.045
309
GRIDFORMAT_END
 95
        4
302
GRIDFORMAT
  1
GRIDFORMAT_BEGIN
 90
        0
 91
        1
 62
     0
 92
       -2
340
0
 93
        0
 40
0.045
309
GRIDFORMAT_END
 95
        8
302
GRIDFORMAT
  1
GRIDFORMAT_BEGIN
 90
        0
 91
        1
 62
     0
 92
       -2
340
0
 93
        0
 40
0.045
309
GRIDFORMAT_END
 95
       16
302
GRIDFORMAT
  1
GRIDFORMAT_BEGIN
 90
        0
 91
        1
 62
     0
 92
       -2
340
0
 93
        0
 40
0.045
309
GRIDFORMAT_END
 95
       32
302
GRIDFORMAT
  1
GRIDFORMAT_BEGIN
 90
        0
 91
        1
 62
     0
 92
       -2
340
0
 93
        0
 40
0.045
309
GRIDFORMAT_END
309
TABLEFORMAT_END
  1
CELLSTYLE_BEGIN
 90
        2
 91
        1
300
_HEADER
309
CELLSTYLE_END
300
CELLSTYLE
  1
TABLEFORMAT_BEGIN
 90
        5
170
     1
 91
        0
 92
        0
 62
   257
 93
        1
300
CONTENTFORMAT
  1
CONTENTFORMAT_BEGIN
 90
        0
 91
        0
 92
        4
 93
        0
300

 40
0.0
140
1.0
 94
        2
 62
     0
340
23
144
4.5
309
CONTENTFORMAT_END
171
     1
301
MARGIN
  1
CELLMARGIN_BEGIN
 40
1.5
 40
1.5
 40
1.5
 40
1.5
 40
0.18
 40
0.18
309
CELLMARGIN_END
 94
        6
 95
        1
302
GRIDFORMAT
  1
GRIDFORMAT_BEGIN
 90
        0
 91
        1
 62
     0
 92
       -2
340
0
 93
        0
 40
0.045
309
GRIDFORMAT_END
 95
        2
302
GRIDFORMAT
  1
GRIDFORMAT_BEGIN
 90
        0
 91
        1
 62
     0
 92
       -2
340
0
 93
        0
 40
0.045
309
GRIDFORMAT_END
 95
        4
302
GRIDFORMAT
  1
GRIDFORMAT_BEGIN
 90
        0
 91
        1
 62
     0
 92
       -2
340
0
 93
        0
 40
0.045
309
GRIDFORMAT_END
 95
        8
302
GRIDFORMAT
  1
GRIDFORMAT_BEGIN
 90
        0
 91
        1
 62
     0
 92
       -2
340
0
 93
        0
 40
0.045
309
GRIDFORMAT_END
 95
       16
302
GRIDFORMAT
  1
GRIDFORMAT_BEGIN
 90
        0
 91
        1
 62
     0
 92
       -2
340
0
 93
        0
 40
0.045
309
GRIDFORMAT_END
 95
       32
302
GRIDFORMAT
  1
GRIDFORMAT_BEGIN
 90
        0
 91
        1
 62
     0
 92
       -2
340
0
 93
        0
 40
0.045
309
GRIDFORMAT_END
309
TABLEFORMAT_END
  1
CELLSTYLE_BEGIN
 90
        3
 91
        2
300
_DATA
309
CELLSTYLE_END
  0
XRECORD
  5
CEE
102
{ACAD_REACTORS
330
62F
102
}
330
62F
100
AcDbXrecord
280
     1
102
ACAD_ROUNDTRIP_PRE2007_TABLESTYLE
 90
        4
 91
        0
  1

 92
        4
 93
        0
  2

 94
        4
 95
        0
  3

  0
ENDSEC
  0
EOF
