  0
SECTION
  2
HEADER
  9
$ACADVER
  1
AC1015
  9
$ACADMAINTVER
 70
    20
  9
$DWGCODEPAGE
  3
ANSI_932
  9
$INSBASE
 10
0.0
 20
0.0
 30
0.0
  9
$EXTMIN
 10
-1556.640800130124
 20
-319.4692294795129
 30
-0.00000001
  9
$EXTMAX
 10
-375.0043791031676
 20
1205.909246515175
 30
0.00000001
  9
$LIMMIN
 10
0.0
 20
0.0
  9
$LIMMAX
 10
420.0
 20
297.0
  9
$ORTHOMODE
 70
     1
  9
$REGENMODE
 70
     1
  9
$FILLMODE
 70
     1
  9
$QTEXTMODE
 70
     0
  9
$MIRRTEXT
 70
     1
  9
$LTSCALE
 40
1.0
  9
$ATTMODE
 70
     1
  9
$TEXTSIZE
 40
62.5215949741746
  9
$TRACEWID
 40
1.0
  9
$TEXTSTYLE
  7
STANDARD
  9
$CLAYER
  8
0
  9
$CELTYPE
  6
BYLAYER
  9
$CECOLOR
 62
   256
  9
$CELTSCALE
 40
1.0
  9
$DISPSILH
 70
     0
  9
$DIMSCALE
 40
5.0
  9
$DIMASZ
 40
2.0
  9
$DIMEXO
 40
1.0
  9
$DIMDLI
 40
3.75
  9
$DIMRND
 40
0.5
  9
$DIMDLE
 40
0.0
  9
$DIMEXE
 40
1.0
  9
$DIMTP
 40
0.0
  9
$DIMTM
 40
0.0
  9
$DIMTXT
 40
2.0
  9
$DIMCEN
 40
2.5
  9
$DIMTSZ
 40
0.0
  9
$DIMTOL
 70
     0
  9
$DIMLIM
 70
     0
  9
$DIMTIH
 70
     0
  9
$DIMTOH
 70
     0
  9
$DIMSE1
 70
     0
  9
$DIMSE2
 70
     0
  9
$DIMTAD
 70
     1
  9
$DIMZIN
 70
     8
  9
$DIMBLK
  1

  9
$DIMASO
 70
     1
  9
$DIMSHO
 70
     1
  9
$DIMPOST
  1

  9
$DIMAPOST
  1

  9
$DIMALT
 70
     0
  9
$DIMALTD
 70
     4
  9
$DIMALTF
 40
0.0394
  9
$DIMLFAC
 40
1.0
  9
$DIMTOFL
 70
     1
  9
$DIMTVP
 40
0.0
  9
$DIMTIX
 70
     0
  9
$DIMSOXD
 70
     0
  9
$DIMSAH
 70
     1
  9
$DIMBLK1
  1
OPEN30
  9
$DIMBLK2
  1
OPEN30
  9
$DIMSTYLE
  2
STANDARD
  9
$DIMCLRD
 70
     0
  9
$DIMCLRE
 70
     0
  9
$DIMCLRT
 70
     0
  9
$DIMTFAC
 40
1.0
  9
$DIMGAP
 40
1.0
  9
$DIMJUST
 70
     0
  9
$DIMSD1
 70
     0
  9
$DIMSD2
 70
     0
  9
$DIMTOLJ
 70
     1
  9
$DIMTZIN
 70
     8
  9
$DIMALTZ
 70
     0
  9
$DIMALTTZ
 70
     0
  9
$DIMUPT
 70
     0
  9
$DIMDEC
 70
     1
  9
$DIMTDEC
 70
     1
  9
$DIMALTU
 70
     8
  9
$DIMALTTD
 70
     4
  9
$DIMTXSTY
  7
STANDARD
  9
$DIMAUNIT
 70
     0
  9
$DIMADEC
 70
     0
  9
$DIMALTRND
 40
0.0
  9
$DIMAZIN
 70
     0
  9
$DIMDSEP
 70
    46
  9
$DIMATFIT
 70
     3
  9
$DIMFRAC
 70
     0
  9
$DIMLDRBLK
  1
OPEN30
  9
$DIMLUNIT
 70
     2
  9
$DIMLWD
 70
    -2
  9
$DIMLWE
 70
    -2
  9
$DIMTMOVE
 70
     0
  9
$LUNITS
 70
     2
  9
$LUPREC
 70
     4
  9
$SKETCHINC
 40
1.0
  9
$FILLETRAD
 40
10.0
  9
$AUNITS
 70
     0
  9
$AUPREC
 70
     0
  9
$MENU
  1
.
  9
$ELEVATION
 40
0.0
  9
$PELEVATION
 40
0.0
  9
$THICKNESS
 40
0.0
  9
$LIMCHECK
 70
     0
  9
$CHAMFERA
 40
10.0
  9
$CHAMFERB
 40
10.0
  9
$CHAMFERC
 40
20.0
  9
$CHAMFERD
 40
0.0
  9
$SKPOLY
 70
     0
  9
$TDCREATE
 40
2451324.468257373
  9
$TDUCREATE
 40
2451324.093257373
  9
$TDUPDATE
 40
2454987.718206794
  9
$TDUUPDATE
 40
2454987.343206794
  9
$TDINDWG
 40
1.7843096644
  9
$TDUSRTIMER
 40
1.7843094792
  9
$USRTIMER
 70
     1
  9
$ANGBASE
 50
0.0
  9
$ANGDIR
 70
     0
  9
$PDMODE
 70
     0
  9
$PDSIZE
 40
0.0
  9
$PLINEWID
 40
0.0
  9
$SPLFRAME
 70
     0
  9
$SPLINETYPE
 70
     6
  9
$SPLINESEGS
 70
     8
  9
$HANDSEED
  5
C93
  9
$SURFTAB1
 70
     6
  9
$SURFTAB2
 70
     6
  9
$SURFTYPE
 70
     6
  9
$SURFU
 70
     6
  9
$SURFV
 70
     6
  9
$UCSBASE
  2

  9
$UCSNAME
  2

  9
$UCSORG
 10
0.0
 20
0.0
 30
0.0
  9
$UCSXDIR
 10
1.0
 20
0.0
 30
0.0
  9
$UCSYDIR
 10
0.0
 20
1.0
 30
0.0
  9
$UCSORTHOREF
  2

  9
$UCSORTHOVIEW
 70
     0
  9
$UCSORGTOP
 10
0.0
 20
0.0
 30
0.0
  9
$UCSORGBOTTOM
 10
0.0
 20
0.0
 30
0.0
  9
$UCSORGLEFT
 10
0.0
 20
0.0
 30
0.0
  9
$UCSORGRIGHT
 10
0.0
 20
0.0
 30
0.0
  9
$UCSORGFRONT
 10
0.0
 20
0.0
 30
0.0
  9
$UCSORGBACK
 10
0.0
 20
0.0
 30
0.0
  9
$PUCSBASE
  2

  9
$PUCSNAME
  2

  9
$PUCSORG
 10
0.0
 20
0.0
 30
0.0
  9
$PUCSXDIR
 10
1.0
 20
0.0
 30
0.0
  9
$PUCSYDIR
 10
0.0
 20
1.0
 30
0.0
  9
$PUCSORTHOREF
  2

  9
$PUCSORTHOVIEW
 70
     0
  9
$PUCSORGTOP
 10
0.0
 20
0.0
 30
0.0
  9
$PUCSORGBOTTOM
 10
0.0
 20
0.0
 30
0.0
  9
$PUCSORGLEFT
 10
0.0
 20
0.0
 30
0.0
  9
$PUCSORGRIGHT
 10
0.0
 20
0.0
 30
0.0
  9
$PUCSORGFRONT
 10
0.0
 20
0.0
 30
0.0
  9
$PUCSORGBACK
 10
0.0
 20
0.0
 30
0.0
  9
$USERI1
 70
     0
  9
$USERI2
 70
     0
  9
$USERI3
 70
     0
  9
$USERI4
 70
     0
  9
$USERI5
 70
     0
  9
$USERR1
 40
0.0
  9
$USERR2
 40
0.0
  9
$USERR3
 40
0.0
  9
$USERR4
 40
0.0
  9
$USERR5
 40
0.0
  9
$WORLDVIEW
 70
     1
  9
$SHADEDGE
 70
     3
  9
$SHADEDIF
 70
    70
  9
$TILEMODE
 70
     1
  9
$MAXACTVP
 70
    48
  9
$PINSBASE
 10
0.0
 20
0.0
 30
0.0
  9
$PLIMCHECK
 70
     0
  9
$PEXTMIN
 10
-2509.558972572361
 20
-1229.624307151768
 30
0.0
  9
$PEXTMAX
 10
2214.966707955961
 20
1857.894842362689
 30
0.0
  9
$PLIMMIN
 10
0.0
 20
0.0
  9
$PLIMMAX
 10
12.0
 20
9.0
  9
$UNITMODE
 70
     0
  9
$VISRETAIN
 70
     1
  9
$PLINEGEN
 70
     0
  9
$PSLTSCALE
 70
     1
  9
$TREEDEPTH
 70
  3020
  9
$CMLSTYLE
  2
STANDARD
  9
$CMLJUST
 70
     0
  9
$CMLSCALE
 40
20.0
  9
$PROXYGRAPHICS
 70
     1
  9
$MEASUREMENT
 70
     1
  9
$CELWEIGHT
370
    -1
  9
$ENDCAPS
280
     0
  9
$JOINSTYLE
280
     0
  9
$LWDISPLAY
290
     0
  9
$INSUNITS
 70
     0
  9
$HYPERLINKBASE
  1

  9
$STYLESHEET
  1

  9
$XEDIT
290
     1
  9
$CEPSNTYPE
380
     0
  9
$PSTYLEMODE
290
     1
  9
$FINGERPRINTGUID
  2
{9BE77318-6824-4E72-9376-320673A1CF17}
  9
$VERSIONGUID
  2
{1E4629F1-1F06-4E7E-9C8B-A8382103FA9E}
  9
$EXTNAMES
290
     1
  9
$PSVPSCALE
 40
0.0
  9
$OLESTARTUP
290
     0
  0
ENDSEC
  0
SECTION
  2
CLASSES
  0
CLASS
  1
LWPOLYLINE
  2
AcDbPolyline
  3
ObjectDBX Classes
 90
        0
280
     0
281
     1
  0
CLASS
  1
ACDBDICTIONARYWDFLT
  2
AcDbDictionaryWithDefault
  3
ObjectDBX Classes
 90
        0
280
     0
281
     0
  0
CLASS
  1
ACDBPLACEHOLDER
  2
AcDbPlaceHolder
  3
ObjectDBX Classes
 90
        0
280
     0
281
     0
  0
CLASS
  1
LAYOUT
  2
AcDbLayout
  3
ObjectDBX Classes
 90
        0
280
     0
281
     0
  0
CLASS
  1
ACME_DOCUMENT
  2
AcMeDbDoc
  3
AcMeServices
 90
    33792
280
     0
281
     0
  0
CLASS
  1
AMGSETTINGSOBJ
  2
AmgSettingsObj
  3
"AcadM|Product Description: AutoCAD Mechanical|Company: Autodesk, Inc."
 90
    33792
280
     0
281
     0
  0
CLASS
  1
ACMESCOPE
  2
AcMeScope
  3
AcMeServices
 90
    33792
280
     0
281
     0
  0
CLASS
  1
ACMECOMMANDHISTORY
  2
AcMeCommandHistory
  3
AcMeServices
 90
    33792
280
     0
281
     0
  0
CLASS
  1
DICTIONARYVAR
  2
AcDbDictionaryVar
  3
ObjectDBX Classes
 90
        0
280
     0
281
     0
  0
CLASS
  1
ACIMSYSVARMAN
  2
AcImSysVarManager
  3
AcMeServices
 90
    33792
280
     0
281
     0
  0
CLASS
  1
ACIMREALSYSVAR
  2
AcImRealSysVar
  3
AcMeServices
 90
    33792
280
     0
281
     0
  0
CLASS
  1
ACIMINTSYSVAR
  2
AcImIntSysVar
  3
AcMeServices
 90
    33792
280
     0
281
     0
  0
CLASS
  1
ACMEDRAWINGMAN
  2
AcMeDrawingMan
  3
AcMeServices
 90
    33792
280
     0
281
     0
  0
CLASS
  1
ACMEVIEW
  2
AcMeView
  3
AcMeServices
 90
    33792
280
     0
281
     0
  0
CLASS
  1
ACDBENTITYCACHE
  2
AcMeEntityCache
  3
AcMeServices
 90
    33792
280
     0
281
     0
  0
CLASS
  1
GSMANAGER
  2
AcMeGSManager
  3
AcMeServices
 90
    33792
280
     0
281
     0
  0
CLASS
  1
AMDTINTERNALREACTOR
  2
AmdtInternalReactor
  3
AcMeServices
 90
    33792
280
     0
281
     0
  0
CLASS
  1
ACMESTATEMGR
  2
AcMeStateMgr
  3
AcMeServices
 90
    33792
280
     0
281
     0
  0
CLASS
  1
ACGREFMASTER
  2
AcGrefMaster
  3
AcAttribServices
 90
    33792
280
     0
281
     0
  0
CLASS
  1
AM_DRAWING_MGR
  2
AcDmDwgMgr
  3
AcMechDwgViewMgmt
 90
    33792
280
     0
281
     0
  0
CLASS
  1
AM_DWG_DOCUMENT
  2
AcDmDwgDocument
  3
AcMechDwgViewMgmt
 90
    33792
280
     0
281
     0
  0
CLASS
  1
AM_DWG_SHEET
  2
AcDmSheet
  3
AcMechDwgViewMgmt
 90
    33792
280
     0
281
     0
  0
CLASS
  1
AM_VIEWDIMPARMAP
  2
AcDmViewDimParMap
  3
AcMechDwgViewMgmt
 90
    33792
280
     0
281
     0
  0
CLASS
  1
AM_DWGMGR_NAME
  2
AcDmDwgMgrName
  3
AcMechDwgViewMgmt
 90
    33792
280
     0
281
     0
  0
CLASS
  1
ACME_DATABASE
  2
AcMeDbDatabase
  3
AcMeServices
 90
    33792
280
     0
281
     0
  0
CLASS
  1
ACRFINSADJUSTERMGR
  2
AcRfInsAdjusterMgr
  3
AcMeServices
 90
    33792
280
     0
281
     0
  0
CLASS
  1
ACGREFACADMASTER
  2
AcGrefacadMaster
  3
AcGrefServices
 90
    33792
280
     0
281
     0
  0
CLASS
  1
AMDTMENUSTATEMGR
  2
AmdtMenuStateMgr
  3
McadcomServices
 90
    33792
280
     0
281
     0
  0
CLASS
  1
AMDTMCOMMENUSTATE
  2
AmdtMcomMenuState
  3
McadcomServices
 90
    33792
280
     0
281
     0
  0
CLASS
  1
AMIMASTER
  2
AmiMaster
  3
AmiServices
 90
    33792
280
     0
281
     0
  0
CLASS
  1
ASAPP
  2
AcAsAppObject
  3
AutoSurfServices
 90
    33792
280
     0
281
     0
  0
CLASS
  1
IM_STATIC_MAN
  2
AcImStaticVarManager
  3
AcMeServices
 90
    33792
280
     0
281
     0
  0
CLASS
  1
ACIMSTRSYSVAR
  2
AcImStrSysVar
  3
AcMeServices
 90
    33792
280
     0
281
     0
  0
CLASS
  1
ACIMDBLSTATICVAR
  2
AcImDblStaticVar
  3
AcMeServices
 90
    33792
280
     0
281
     0
  0
CLASS
  1
ACIMSTRSTATICVAR
  2
AcImStrStaticVar
  3
AcMeServices
 90
    33792
280
     0
281
     0
  0
CLASS
  1
ACIMINTSTATICVAR
  2
AcImIntStaticVar
  3
AcMeServices
 90
    33792
280
     0
281
     0
  0
CLASS
  1
ACASGREFMASTER
  2
AcAsGrefMaster
  3
AutoSurfResolverServices
 90
    33792
280
     0
281
     0
  0
CLASS
  1
ACADGREFMODULE
  2
AcAdGrefModule
  3
AdGrefServices
 90
    33792
280
     0
281
     0
  0
CLASS
  1
AMDTMAPISURFMOUDULE
  2
AmdtMApiSurfModule
  3
MApiSurfServices
 90
    33792
280
     0
281
     0
  0
CLASS
  1
MAPIAMMOUDLE
  2
MApiAmModule
  3
MApiAmServices
 90
    33792
280
     0
281
     0
  0
CLASS
  1
AMDTADMENUSTATE
  2
AmdtAdMenuState
  3
DesignerServices
 90
    33792
280
     0
281
     0
  0
CLASS
  1
ADAPPL
  2
AcAdAppl
  3
DesignerServices
 90
    33792
280
     0
281
     0
  0
CLASS
  1
DEPMGR
  2
AcAdDepMgr
  3
DesignerServices
 90
    33792
280
     0
281
     0
  0
CLASS
  1
PARAMMGR
  2
AcAdParamMgr
  3
DesignerServices
 90
    33792
280
     0
281
     0
  0
CLASS
  1
PARAMSCOPE
  2
AcAdParamScope
  3
DesignerServices
 90
    33792
280
     0
281
     0
  0
CLASS
  1
NAMEDAPPL
  2
AcAdNamedAppl
  3
DesignerServices
 90
    33792
280
     0
281
     0
  0
CLASS
  1
ADHNTMPLT
  2
AdHoleNoteTemplateMgr
  3
DesignerServices
 90
    33792
280
     0
281
     0
  0
CLASS
  1
AM_HNTEMPLATE_MGR_NAME
  2
AdHoleNoteTemplateMgrName
  3
DesignerServices
 90
    33792
280
     0
281
     0
  0
CLASS
  1
AMDTDMMENUSTATE
  2
AmdtDmMenuState
  3
AcMechDwgViewMgmt
 90
    33792
280
     0
281
     0
  0
CLASS
  1
MAPIADMODULE
  2
MApiAdModule
  3
MApiAdServices
 90
    33792
280
     0
281
     0
  0
CLASS
  1
AMDTAMMENUSTATE
  2
AmdtAmMenuState
  3
DesignerAssemblies
 90
    33792
280
     0
281
     0
  0
CLASS
  1
ACAMPROJECT
  2
AcAmProject
  3
DesignerAssemblies
 90
    33792
280
     0
281
     0
  0
CLASS
  1
ACAMGRCOMPDEF
  2
AcAmGrCompDef
  3
DesignerAssemblies
 90
    33792
280
     0
281
     0
  0
CLASS
  1
ACCMCONTEXT
  2
AcCmContext
  3
DesignerAssemblies
 90
    33792
280
     0
281
     0
  0
CLASS
  1
ACAMCOMPDEF
  2
AcAmCompDef
  3
DesignerAssemblies
 90
    33792
280
     0
281
     0
  0
CLASS
  1
ACAMCOMPDEFMGR
  2
AcAmCompDefMgr
  3
DesignerAssemblies
 90
    33792
280
     0
281
     0
  0
CLASS
  1
AMCONTEXTMGR
  2
AcAmContextMgr
  3
DesignerAssemblies
 90
    33792
280
     0
281
     0
  0
CLASS
  1
ACAMCONTEXTMODELER
  2
AcAmContextModeler
  3
DesignerAssemblies
 90
    33792
280
     0
281
     0
  0
CLASS
  1
ACMDATADICTIONARY
  2
AcmDataDictionary
  3
"AcmSymBB|Product Description: AutoCAD Mechanical|Company: Autodesk, Inc."
 90
     1024
280
     0
281
     0
  0
CLASS
  1
ACMDATAENTRYBLOCK
  2
AcmDataEntryBlock
  3
AcmSymBB|Product Description: AutoCAD Mechanical|Company: Autodesk, Inc.
 90
     1024
280
     0
281
     0
  0
CLASS
  1
CATALOGSTATE
  2
AcAmCatalogState
  3
DesignerAssemblies
 90
    33792
280
     0
281
     0
  0
CLASS
  1
ACAMGRCOMPDEFSET
  2
AcAmGrCompDefSet
  3
DesignerAssemblies
 90
    33792
280
     0
281
     0
  0
CLASS
  1
AMDTBROWSERDBTAB
  2
AmdtBrowserDbTab
  3
McadcomServices
 90
    33792
280
     0
281
     0
  0
CLASS
  1
CBROWSERAPPOBJECT
  2
CBrowserAppObject
  3
McadcomServices
 90
    33792
280
     0
281
     0
  0
CLASS
  1
DM_PLACEHOLDER
  2
AcDmSelsetPlaceholder
  3
AcMechDwgViewMgmt
 90
    33792
280
     0
281
     0
  0
CLASS
  1
ACMSTANDARDISO
  2
AcmStandardISO
  3
"Amdt_StdImp|Product Description: AutoCAD Mechanical|Company: Autodesk, Inc."
 90
    33792
280
     0
281
     0
  0
CLASS
  1
AMGOBJPROPCFG
  2
AmgObjPropCfg
  3
"AmgLay|Product Description: AutoCAD Mechanical|Company: Autodesk, Inc."
 90
    33793
280
     0
281
     0
  0
CLASS
  1
AMDTEDGESTANDARDISO
  2
AmdtEdgeStdISO
  3
"Amdt_StdImp|Product Description: AutoCAD Mechanical|Company: Autodesk, Inc."
 90
    33792
280
     0
281
     0
  0
CLASS
  1
ACMSURFSTANDARDISO
  2
AcmSurfTextStdISO
  3
"Amdt_StdImp|Product Description: AutoCAD Mechanical|Company: Autodesk, Inc."
 90
    33792
280
     0
281
     0
  0
CLASS
  1
ACMFCFSTANDARDISO
  2
AcmFCFStdISO
  3
"Amdt_StdImp|Product Description: AutoCAD Mechanical|Company: Autodesk, Inc."
 90
    33792
280
     0
281
     0
  0
CLASS
  1
ACMWELDSTANDARDISO
  2
AcmWeldingStdISO
  3
"Amdt_StdImp|Product Description: AutoCAD Mechanical|Company: Autodesk, Inc."
 90
    33792
280
     0
281
     0
  0
CLASS
  1
ACMIDSTANDARDISO
  2
AcmIdStdISO
  3
"Amdt_StdImp|Product Description: AutoCAD Mechanical|Company: Autodesk, Inc."
 90
    33792
280
     0
281
     0
  0
CLASS
  1
ACMDATUMSTANDARDISO
  2
AcmDatumStdISO
  3
"Amdt_StdImp|Product Description: AutoCAD Mechanical|Company: Autodesk, Inc."
 90
    33792
280
     0
281
     0
  0
CLASS
  1
ACMBOMSTANDARDISO
  2
AcmBOMStdISO
  3
"Amdt_StdImp|Product Description: AutoCAD Mechanical|Company: Autodesk, Inc."
 90
    33792
280
     0
281
     0
  0
CLASS
  1
ACMDETAILSTANDARDISO
  2
AmdtDetailSymStdISO
  3
"Amdt_StdImp|Product Description: AutoCAD Mechanical|Company: Autodesk, Inc."
 90
    33792
280
     0
281
     0
  0
CLASS
  1
ACMSECTIONSTANDARDISO
  2
AmdtSectionSymStdISO
  3
"Amdt_StdImp|Product Description: AutoCAD Mechanical|Company: Autodesk, Inc."
 90
    33792
280
     0
281
     0
  0
CLASS
  1
ACMCENTERLINESTANDARDISO
  2
AmdtCenterLineStdISO
  3
"Amdt_StdImp|Product Description: AutoCAD Mechanical|Company: Autodesk, Inc."
 90
    33792
280
     0
281
     0
  0
CLASS
  1
ACMTHREADLINESTANDARDISO
  2
AmdtThreadLineStdISO
  3
"Amdt_StdImp|Product Description: AutoCAD Mechanical|Company: Autodesk, Inc."
 90
    33792
280
     0
281
     0
  0
CLASS
  1
ACAMGLAYSTD
  2
AcAmgLayStd
  3
"AmgLay|Product Description: AutoCAD Mechanical|Company: Autodesk, Inc."
 90
    33792
280
     0
281
     0
  0
CLASS
  1
ACAMGDIMSTD
  2
AcAmgDimStd
  3
"AmgDim|Product Description: AutoCAD Mechanical|Company: Autodesk, Inc."
 90
    33792
280
     0
281
     0
  0
CLASS
  1
ACAMGTITLESTD
  2
AcAmgTitleStd
  3
"AmgTitle|Product Description: AutoCAD Mechanical|Company: Autodesk, Inc."
 90
    36863
280
     0
281
     0
  0
CLASS
  1
ACAMGFILTERDAT
  2
AcAmgFilterDat
  3
"AcadM|Product Description: AutoCAD Mechanical|Company: Autodesk, Inc."
 90
    33792
280
     0
281
     0
  0
CLASS
  1
AMDTFORMULAUPDATEDISPATCHER
  2
AmdtFormulaUpdateDispatcher
  3
AcMeServices
 90
    33792
280
     0
281
     0
  0
CLASS
  1
LAYER_INDEX
  2
AcDbLayerIndex
  3
ObjectDBX Classes
 90
    32768
280
     0
281
     0
  0
CLASS
  1
IDBUFFER
  2
AcDbIdBuffer
  3
ObjectDBX Classes
 90
    32768
280
     0
281
     0
  0
CLASS
  1
TABLESTYLE
  2
AcDbTableStyle
  3
ObjectDBX Classes
 90
     4095
280
     0
281
     0
  0
CLASS
  1
ACMNOTESTANDARDISO
  2
AmdtNoteStdISO
  3
"Amdt_StdImp|Product Description: AutoCAD Mechanical|Company: Autodesk, Inc."
 90
    33792
280
     0
281
     0
  0
CLASS
  1
AMDTNOTETEMPLATEDB
  2
AmdtNoteTemplateDB
  3
AcmSymBB|Product Description: AutoCAD Mechanical|Company: Autodesk, Inc.
 90
    33792
280
     0
281
     0
  0
CLASS
  1
ACAMEXTERNALCOMPDEF
  2
AcAmExternalCompDef
  3
DesignerAssemblies
 90
    33792
280
     0
281
     0
  0
CLASS
  1
ACCMBODY
  2
AcCmBody
  3
DesignerAssemblies
 90
    33792
280
     0
281
     0
  0
CLASS
  1
ACAMCOMPENT
  2
AcAmCompEnt
  3
DesignerAssemblies
 90
    33792
280
     0
281
     1
  0
CLASS
  1
ACAMCOMPFEEDBACK
  2
AcAmCompFeedback
  3
DesignerAssemblies
 90
    33792
280
     0
281
     0
  0
CLASS
  1
ACAMCOMP
  2
AcAmComp
  3
DesignerAssemblies
 90
    33792
280
     0
281
     0
  0
CLASS
  1
ACAMCOMPENTCLONE
  2
AcAmCompEntClone
  3
DesignerAssemblies
 90
    33792
280
     0
281
     1
  0
CLASS
  1
ACAMCLONEREACTOR
  2
AcAmGrCompCloneReactor
  3
DesignerAssemblies
 90
    33792
280
     0
281
     0
  0
CLASS
  1
EDGEID
  2
AcAdEdgeId
  3
DesignerServices
 90
    33792
280
     0
281
     0
  0
CLASS
  1
ACADPARTLINEDGRES
  2
AcAdPartLinEdgRes
  3
AdGrefServices
 90
    33792
280
     0
281
     0
  0
CLASS
  1
ACRFINSADJ
  2
AcRfInsAdjuster
  3
AcMeServices
 90
    33792
280
     0
281
     0
  0
CLASS
  1
STREFID
  2
AcAdStraightRefId
  3
DesignerServices
 90
    33792
280
     0
281
     0
  0
CLASS
  1
ACMEAXIS
  2
AcImAxisDisplay
  3
AcMeServices
 90
    33792
280
     0
281
     1
  0
CLASS
  1
FACEID
  2
AcAdFaceId
  3
DesignerServices
 90
    33792
280
     0
281
     0
  0
CLASS
  1
DEPEDGESECONDARYDEPID
  2
AcAdDepEdgeSecondaryDepId
  3
DesignerServices
 90
    33792
280
     0
281
     0
  0
CLASS
  1
ACADPARTPLANARFACERES
  2
AcAdPartPlanarFaceRes
  3
AdGrefServices
 90
    33792
280
     0
281
     0
  0
CLASS
  1
ACMEPOINT
  2
AcImPointDisplay
  3
AcMeServices
 90
    33792
280
     0
281
     1
  0
CLASS
  1
ACMELINEARARROW
  2
AcImLinearArrowDisplay
  3
AcMeServices
 90
    33792
280
     0
281
     1
  0
CLASS
  1
ACAMEXPR
  2
AcAmExpr
  3
DesignerAssemblies
 90
    33792
280
     0
281
     0
  0
CLASS
  1
ACCMDISTPLPL
  2
AcCmDistPlPl
  3
DesignerAssemblies
 90
    33792
280
     0
281
     0
  0
CLASS
  1
ACCMCONSTREACTOR
  2
AcCmConstraintReactor
  3
DesignerAssemblies
 90
    33792
280
     0
281
     0
  0
CLASS
  1
ACCMDISTPTLN
  2
AcCmDistPtLn
  3
DesignerAssemblies
 90
    33792
280
     0
281
     0
  0
CLASS
  1
AM_VIEW_SELECT_FILTER
  2
AcDmSelectViewEntFilter
  3
AcMechDwgViewMgmt
 90
    33792
280
     0
281
     0
  0
CLASS
  1
AM_GREF_PLANE
  2
AcDmGrefPlnDef
  3
AcMechDwgViewMgmt
 90
    33792
280
     0
281
     0
  0
CLASS
  1
AM_GREF_AXIS
  2
AcDmGrefAxisDef
  3
AcMechDwgViewMgmt
 90
    33792
280
     0
281
     0
  0
CLASS
  1
AM_BASE_VIEW_ORIENT
  2
AcDmBaseViewOr
  3
AcMechDwgViewMgmt
 90
    33792
280
     0
281
     0
  0
CLASS
  1
AM_DWG_VIEWPORT
  2
AcDmViewport
  3
AcMechDwgViewMgmt
 90
    33792
280
     0
281
     0
  0
CLASS
  1
AM_VIEW_DISPLAY
  2
AcDmDwgViewDisplay
  3
AcMechDwgViewMgmt
 90
    33792
280
     0
281
     0
  0
CLASS
  1
AM_CLDFLTS
  2
AcDmClDflts
  3
AcMechDwgViewMgmt
 90
    33792
280
     0
281
     0
  0
CLASS
  1
AM_BASE_VIEW
  2
AcDmBaseView
  3
AcMechDwgViewMgmt
 90
    33792
280
     0
281
     0
  0
CLASS
  1
ACMEPLINE
  2
AcImPlineDisplay
  3
AcMeServices
 90
    33792
280
     0
281
     1
  0
CLASS
  1
ACDMPARTVIEWDATA
  2
AcDmPartViewData
  3
AcMechDwgViewMgmt
 90
    33792
280
     0
281
     0
  0
CLASS
  1
ACDMDISPLAYATTRIBS
  2
AcDmDisplayAttribs
  3
AcMechDwgViewMgmt
 90
    33792
280
     0
281
     0
  0
CLASS
  1
ACDMBODYINSTANCEDATA
  2
AcDmBodyInstanceData
  3
AcMechDwgViewMgmt
 90
    33792
280
     0
281
     0
  0
CLASS
  1
ACDMVWEDLINE
  2
AcDmViewEdgeLine
  3
AcMechDwgViewMgmt
 90
    33792
280
     0
281
     1
  0
CLASS
  1
ACDMVWEDARC
  2
AcDmViewEdgeArc
  3
AcMechDwgViewMgmt
 90
    33792
280
     0
281
     1
  0
CLASS
  1
AM_ISO_VIEW_ORIENT
  2
AcDmIsoViewOr
  3
AcMechDwgViewMgmt
 90
    33792
280
     0
281
     0
  0
CLASS
  1
AM_ISO_VIEW
  2
AcDmIsoView
  3
AcMechDwgViewMgmt
 90
    33792
280
     0
281
     0
  0
CLASS
  1
AM_ORTHO_VIEW_ORIENT
  2
AcDmOrthoViewOr
  3
AcMechDwgViewMgmt
 90
    33792
280
     0
281
     0
  0
CLASS
  1
AM_ORTHO_VIEW
  2
AcDmOrthoView
  3
AcMechDwgViewMgmt
 90
    33792
280
     0
281
     0
  0
CLASS
  1
ACAMVIEWREACTOR
  2
AcAmViewReactor
  3
DesignerAssemblies
 90
    33792
280
     0
281
     0
  0
CLASS
  1
AMVIEW
  2
AcAmView
  3
DesignerAssemblies
 90
    33792
280
     0
281
     0
  0
CLASS
  1
ACAMVIEWCONTEXT
  2
AcAmViewContext
  3
DesignerAssemblies
 90
    33792
280
     0
281
     0
  0
CLASS
  1
ACAMCOMPENTVIEW
  2
AcAmCompEntView
  3
DesignerAssemblies
 90
    33792
280
     0
281
     1
  0
CLASS
  1
ACAMCOMPVIEWREACTOR
  2
AcAmGrCompViewReactor
  3
DesignerAssemblies
 90
    33792
280
     0
281
     0
  0
CLASS
  1
ACAMVIEWENTITYFILTER
  2
AcAmViewEntityFilter
  3
DesignerAssemblies
 90
    33792
280
     0
281
     0
  0
CLASS
  1
ACDMVWEDCIRC
  2
AcDmViewEdgeCircle
  3
AcMechDwgViewMgmt
 90
    33792
280
     0
281
     1
  0
CLASS
  1
AM_ADCIRCTRLINE
  2
AcAdBullsEyeCl
  3
DesignerServices
 90
    33792
280
     0
281
     0
  0
CLASS
  1
AM_ADLINCTRLINE
  2
AcAdLineCl
  3
DesignerServices
 90
    33792
280
     0
281
     0
  0
CLASS
  1
ACDMVIEWGEOM
  2
AcDmViewGeometry
  3
AcMechDwgViewMgmt
 90
    33792
280
     0
281
     1
  0
CLASS
  1
ACCMDISTLNLN
  2
AcCmDistLnLn
  3
DesignerAssemblies
 90
    33792
280
     0
281
     0
  0
CLASS
  1
ACAMXREFCONTEXTMODELER
  2
AcAmXrefContextModeler
  3
DesignerAssemblies
 90
    33792
280
     0
281
     0
  0
CLASS
  1
CNRREFID
  2
AcAdCornerId
  3
DesignerServices
 90
    33792
280
     0
281
     0
  0
CLASS
  1
ACADPARTPOINTRES
  2
AcAdPartPointRes
  3
AdGrefServices
 90
    33792
280
     0
281
     0
  0
CLASS
  1
AM_VIEWDIMLINEAR
  2
AcDmViewDimLinear
  3
AcMechDwgViewMgmt
 90
    33792
280
     0
281
     0
  0
CLASS
  1
PARAM
  2
AcAdParam
  3
DesignerServices
 90
    33792
280
     0
281
     0
  0
CLASS
  1
SORTENTSTABLE
  2
AcDbSortentsTable
  3
ObjectDBX Classes
 90
    32768
280
     0
281
     0
  0
CLASS
  1
ACADPARTCIRCEDGRES
  2
AcAdPartCircEdgRes
  3
AdGrefServices
 90
    33792
280
     0
281
     0
  0
CLASS
  1
CIRREFID
  2
AcAdCircleRefId
  3
DesignerServices
 90
    33792
280
     0
281
     0
  0
CLASS
  1
ACDMVISEDIT
  2
AcDmViewEntityVisEdit
  3
AcMechDwgViewMgmt
 90
    33792
280
     0
281
     0
  0
CLASS
  1
SILEDGEID
  2
AcAdSilhouetteEdgeId
  3
DesignerServices
 90
    33792
280
     0
281
     0
  0
CLASS
  1
DEPEDGEPATTERNINSTANCE
  2
AcAdDepEdgePatternInstance
  3
DesignerServices
 90
    33792
280
     0
281
     0
  0
CLASS
  1
MATERIAL
  2
AcDbMaterial
  3
ObjectDBX Classes
 90
     1153
280
     0
281
     0
  0
CLASS
  1
VISUALSTYLE
  2
AcDbVisualStyle
  3
ObjectDBX Classes
 90
     4095
280
     0
281
     0
  0
CLASS
  1
SCALE
  2
AcDbScale
  3
ObjectDBX Classes
 90
     1153
280
     0
281
     0
  0
CLASS
  1
MLEADERSTYLE
  2
AcDbMLeaderStyle
  3
ACDB_MLEADERSTYLE_CLASS
 90
     4095
280
     0
281
     0
  0
CLASS
  1
EXACTERMXREFMAP
  2
ExAcTermXrefMap
  3
EXAC_SERVICE
 90
    33793
280
     0
281
     0
  0
CLASS
  1
NPOCOLLECTION
  2
AcDbImpNonPersistentObjectsCollection
  3
ObjectDBX Classes
 90
     1153
280
     0
281
     0
  0
CLASS
  1
ACRFATTGENMGR
  2
AcRfAttGeneralMgr
  3
AcAttribServices
 90
    33792
280
     0
281
     0
  0
CLASS
  1
ACRFOBJATTMGR
  2
AcRfObjAttGroupMgr
  3
AcAttribServices
 90
    33792
280
     0
281
     0
  0
CLASS
  1
ACRFMCADAPIATTHOLDER
  2
AcRfMCADAPIAttHolder
  3
AcAttribServices
 90
    33792
280
     0
281
     0
  0
CLASS
  1
AMDTSYSATTR
  2
AmdtSystemAttribute
  3
AcAttribServices
 90
    33792
280
     0
281
     0
  0
CLASS
  1
ACMTAPERSTANDARDISO
  2
AcmTaperStdISO
  3
"Amdt_StdImp|Product Description: AutoCAD Mechanical|Company: Autodesk, Inc."
 90
    33792
280
     0
281
     0
  0
CLASS
  1
ACMANOOTATIONVIEWSTANDARDISO
  2
AmdtAnViewStdISO
  3
"Amdt_StdImp|Product Description: AutoCAD Mechanical|Company: Autodesk, Inc."
 90
    33792
280
     0
281
     0
  0
CLASS
  1
SOLID_BACKGROUND
  2
AcDbSolidBackground
  3
SCENEOE
 90
     4095
280
     0
281
     0
  0
CLASS
  1
AM_ABS_AXIS
  2
AcDmAbsAxisDef
  3
AcMechDwgViewMgmt
 90
    33792
280
     0
281
     0
  0
CLASS
  1
AM_ABS_PLANE
  2
AcDmAbsPlnDef
  3
AcMechDwgViewMgmt
 90
    33792
280
     0
281
     0
  0
CLASS
  1
CELLSTYLEMAP
  2
AcDbCellStyleMap
  3
ObjectDBX Classes
 90
     1152
280
     0
281
     0
  0
CLASS
  1
MULTILEADER
  2
AcDbMLeader
  3
ACDB_MLEADER_CLASS
 90
     1025
280
     0
281
     1
  0
ENDSEC
  0
SECTION
  2
TABLES
  0
TABLE
  2
VPORT
  5
28
102
{ACAD_XDICTIONARY
360
653
102
}
330
0
100
AcDbSymbolTable
 70
     1
  0
VPORT
  5
29
330
28
100
AcDbSymbolTableRecord
100
AcDbViewportTableRecord
  2
*Active
 70
     0
 10
0.0
 20
0.0
 11
1.0
 21
1.0
 12
-125.5598087846466
 22
-239.7727681794563
 13
0.0
 23
0.0
 14
10.0
 24
10.0
 15
10.0
 25
10.0
 16
0.0
 26
0.0
 36
5580.888860019396
 17
-840.2627808319991
 27
682.9927766972873
 37
0.0
 40
1537.007790932386
 41
1.800254452926208
 42
50.0
 43
0.0
 44
0.0
 50
0.0
 51
0.0
 71
     0
 72
  2000
 73
     1
 74
     0
 75
     0
 76
     0
 77
     0
 78
     0
281
     6
 65
     0
110
0.0
120
0.0
130
0.0
111
1.0
121
0.0
131
0.0
112
0.0
122
1.0
132
0.0
 79
     0
146
0.0
  0
ENDTAB
  0
TABLE
  2
LTYPE
  5
23
330
0
100
AcDbSymbolTable
 70
     5
  0
LTYPE
  5
24
330
23
100
AcDbSymbolTableRecord
100
AcDbLinetypeTableRecord
  2
BYBLOCK
 70
     0
  3

 72
    65
 73
     0
 40
0.0
  0
LTYPE
  5
25
330
23
100
AcDbSymbolTableRecord
100
AcDbLinetypeTableRecord
  2
BYLAYER
 70
     0
  3

 72
    65
 73
     0
 40
0.0
  0
LTYPE
  5
12
330
23
100
AcDbSymbolTableRecord
100
AcDbLinetypeTableRecord
  2
CONTINUOUS
 70
     0
  3
Solid line
 72
    65
 73
     0
 40
0.0
  0
LTYPE
  5
CE
330
23
100
AcDbSymbolTableRecord
100
AcDbLinetypeTableRecord
  2
HIDDEN
 70
     0
  3
Hidden __ __ __ __ __ __ __ __ __ __ __ __ __ _
 72
    65
 73
     2
 40
0.375
 49
0.25
 74
     0
 49
-0.125
 74
     0
  0
LTYPE
  5
75
330
23
100
AcDbSymbolTableRecord
100
AcDbLinetypeTableRecord
  2
AM_ISO08W050
 70
     0
  3
____ . ____ . ____ . ____ . ____ . ____ . ____
 72
    65
 73
     4
 40
18.0
 49
12.0
 74
     0
 49
-1.5
 74
     0
 49
3.0
 74
     0
 49
-1.5
 74
     0
  0
LTYPE
  5
6F8
330
23
100
AcDbSymbolTableRecord
100
AcDbLinetypeTableRecord
  2
DASHDOT
 70
     0
  3
____ _ ____ _ ____ _ ____ _ ____ _ ____ _ ____
 72
    65
 73
     4
 40
5.5
 49
4.0
 74
     0
 49
-0.6
 74
     0
 49
0.3
 74
     0
 49
-0.6
 74
     0
  0
ENDTAB
  0
TABLE
  2
LAYER
  5
1D
102
{ACAD_XDICTIONARY
360
1E
102
}
330
0
100
AcDbSymbolTable
 70
    13
  0
LAYER
  5
5
102
{ACAD_XDICTIONARY
360
63D
102
}
330
1D
100
AcDbSymbolTableRecord
100
AcDbLayerTableRecord
  2
0
 70
     0
 62
     7
  6
CONTINUOUS
370
    -3
390
6
  0
LAYER
  5
CD
102
{ACAD_XDICTIONARY
360
643
102
}
330
1D
100
AcDbSymbolTableRecord
100
AcDbLayerTableRecord
  2
HID
 70
     0
 62
     3
  6
HIDDEN
370
    25
390
6
1001
AcAecLayerStandard
1000

1000

  0
LAYER
  5
669
330
1D
100
AcDbSymbolTableRecord
100
AcDbLayerTableRecord
  2
Defpoints
 70
     0
 62
     7
  6
CONTINUOUS
290
     0
370
    -3
390
6
  0
LAYER
  5
6F9
102
{ACAD_XDICTIONARY
360
6FA
102
}
330
1D
100
AcDbSymbolTableRecord
100
AcDbLayerTableRecord
  2
SIZE
 70
     0
 62
    30
  6
CONTINUOUS
370
    -3
390
6
  0
LAYER
  5
6FB
102
{ACAD_XDICTIONARY
360
6FC
102
}
330
1D
100
AcDbSymbolTableRecord
100
AcDbLayerTableRecord
  2
OUTLINE
 70
     0
 62
     3
  6
CONTINUOUS
370
    -3
390
6
  0
LAYER
  5
6FD
102
{ACAD_XDICTIONARY
360
6FE
102
}
330
1D
100
AcDbSymbolTableRecord
100
AcDbLayerTableRecord
  2
DETAIL
 70
     0
 62
     5
  6
CONTINUOUS
370
    -3
390
6
  0
LAYER
  5
6FF
102
{ACAD_XDICTIONARY
360
700
102
}
330
1D
100
AcDbSymbolTableRecord
100
AcDbLayerTableRecord
  2
BASIS
 70
     0
 62
     6
  6
DASHDOT
370
    -3
390
6
  0
LAYER
  5
701
102
{ACAD_XDICTIONARY
360
702
102
}
330
1D
100
AcDbSymbolTableRecord
100
AcDbLayerTableRecord
  2
NOTE
 70
     0
 62
     4
  6
CONTINUOUS
370
    -3
390
6
  0
LAYER
  5
703
102
{ACAD_XDICTIONARY
360
704
102
}
330
1D
100
AcDbSymbolTableRecord
100
AcDbLayerTableRecord
  2
ARRANGE
 70
     0
 62
     1
  6
CONTINUOUS
370
    -3
390
6
  0
LAYER
  5
705
102
{ACAD_XDICTIONARY
360
706
102
}
330
1D
100
AcDbSymbolTableRecord
100
AcDbLayerTableRecord
  2
ETC
 70
     0
 62
    61
  6
CONTINUOUS
370
    -3
390
6
  0
ENDTAB
  0
TABLE
  2
STYLE
  5
20
330
0
100
AcDbSymbolTable
 70
     2
  0
STYLE
  5
21
330
20
100
AcDbSymbolTableRecord
100
AcDbTextStyleTableRecord
  2
STANDARD
 70
     0
 40
0.0
 41
1.0
 50
0.0
 71
     0
 42
62.5215949741746
  3
romans.shx
  4
extfont.shx
  0
STYLE
  5
707
330
20
100
AcDbSymbolTableRecord
100
AcDbTextStyleTableRecord
  2
STANDARD1
 70
     0
 40
0.0
 41
1.0
 50
0.0
 71
     0
 42
3.5
  3
MONOTXT
  4
BIGFONT
  0
ENDTAB
  0
TABLE
  2
VIEW
  5
26
330
0
100
AcDbSymbolTable
 70
     0
  0
ENDTAB
  0
TABLE
  2
UCS
  5
27
330
0
100
AcDbSymbolTable
 70
     0
  0
ENDTAB
  0
TABLE
  2
APPID
  5
2C
330
0
100
AcDbSymbolTable
 70
    10
  0
APPID
  5
2D
330
2C
100
AcDbSymbolTableRecord
100
AcDbRegAppTableRecord
  2
ACAD
 70
     0
  0
APPID
  5
36
330
2C
100
AcDbSymbolTableRecord
100
AcDbRegAppTableRecord
  2
ACAD_DSTYLE_DIMJOGGED_JOGANGLE_SYMBOL
 70
     0
  0
APPID
  5
76
330
2C
100
AcDbSymbolTableRecord
100
AcDbRegAppTableRecord
  2
AcAecLayerStandard
 70
     0
  0
APPID
  5
1C
330
2C
100
AcDbSymbolTableRecord
100
AcDbRegAppTableRecord
  2
ACAD_PSEXT
 70
     0
  0
APPID
  5
617
330
2C
100
AcDbSymbolTableRecord
100
AcDbRegAppTableRecord
  2
ACATTRIBSERVICES
 70
     0
  0
APPID
  5
631
330
2C
100
AcDbSymbolTableRecord
100
AcDbRegAppTableRecord
  2
ACAD_MLEADERVER
 70
     0
  0
APPID
  5
639
330
2C
100
AcDbSymbolTableRecord
100
AcDbRegAppTableRecord
  2
ACAD_DSTYLE_DIMJAG
 70
     0
  0
APPID
  5
63A
330
2C
100
AcDbSymbolTableRecord
100
AcDbRegAppTableRecord
  2
ACAD_DSTYLE_DIMTALN
 70
     0
  0
APPID
  5
655
330
2C
100
AcDbSymbolTableRecord
100
AcDbRegAppTableRecord
  2
ACAD_DSTYLE_DIMEXT_LENGTH
 70
     0
  0
APPID
  5
C52
330
2C
100
AcDbSymbolTableRecord
100
AcDbRegAppTableRecord
  2
ACAD_EXEMPT_FROM_CAD_STANDARDS
 70
     0
  0
ENDTAB
  0
TABLE
  2
DIMSTYLE
  5
2E
330
0
100
AcDbSymbolTable
 70
     2
100
AcDbDimStyleTable
 71
     1
340
2F
  0
DIMSTYLE
105
2F
102
{ACAD_REACTORS
330
668
330
676
330
683
330
690
330
69D
102
}
330
2E
100
AcDbSymbolTableRecord
100
AcDbDimStyleTableRecord
  2
STANDARD
 70
     0
 40
0.0
 41
2.0
 42
1.0
 43
3.75
 44
1.0
 73
     0
 74
     0
 77
     1
 78
     8
140
2.0
141
2.5
143
0.0394
147
1.0
171
     4
172
     1
173
     1
271
     0
272
     0
273
     8
274
     4
284
     8
340
21
341
30
343
30
344
30
1001
ACAD_DSTYLE_DIMEXT_LENGTH
1070
   378
1040
15.0
1001
ACAD_DSTYLE_DIMJOGGED_JOGANGLE_SYMBOL
1070
   384
1040
1.570796326794896
  0
ENDTAB
  0
TABLE
  2
BLOCK_RECORD
  5
1
330
0
100
AcDbSymbolTable
 70
     9
  0
BLOCK_RECORD
  5
2
102
{ACAD_XDICTIONARY
360
3
102
}
330
1
100
AcDbSymbolTableRecord
100
AcDbBlockTableRecord
  2
*MODEL_SPACE
340
14
  0
BLOCK_RECORD
  5
16
330
1
100
AcDbSymbolTableRecord
100
AcDbBlockTableRecord
  2
*Paper_Space
340
19
  0
BLOCK_RECORD
  5
30
330
1
100
AcDbSymbolTableRecord
100
AcDbBlockTableRecord
  2
_OPEN30
340
0
102
{BLKREFS
331
C5B
331
C5C
331
C64
331
C65
331
C6D
331
C6E
331
C76
331
C77
331
C7F
331
C80
102
}
  0
BLOCK_RECORD
  5
66A
330
1
100
AcDbSymbolTableRecord
100
AcDbBlockTableRecord
  2
*D1
340
0
  0
BLOCK_RECORD
  5
677
330
1
100
AcDbSymbolTableRecord
100
AcDbBlockTableRecord
  2
*D2
340
0
  0
BLOCK_RECORD
  5
684
330
1
100
AcDbSymbolTableRecord
100
AcDbBlockTableRecord
  2
*D3
340
0
  0
BLOCK_RECORD
  5
691
330
1
100
AcDbSymbolTableRecord
100
AcDbBlockTableRecord
  2
*D4
340
0
  0
BLOCK_RECORD
  5
69E
330
1
100
AcDbSymbolTableRecord
100
AcDbBlockTableRecord
  2
*D5
340
0
  0
BLOCK_RECORD
  5
6F3
330
1
100
AcDbSymbolTableRecord
100
AcDbBlockTableRecord
  2
_DOTBLANK
340
0
  0
ENDTAB
  0
ENDSEC
  0
SECTION
  2
BLOCKS
  0
BLOCK
  5
4
330
2
100
AcDbEntity
  8
0
100
AcDbBlockBegin
  2
*MODEL_SPACE
 70
     0
 10
0.0
 20
0.0
 30
0.0
  3
*MODEL_SPACE
  1

  0
ENDBLK
  5
13
330
2
100
AcDbEntity
  8
0
100
AcDbBlockEnd
  0
BLOCK
  5
17
330
16
100
AcDbEntity
 67
     1
  8
0
100
AcDbBlockBegin
  2
*Paper_Space
 70
     0
 10
0.0
 20
0.0
 30
0.0
  3
*Paper_Space
  1

  0
ENDBLK
  5
18
330
16
100
AcDbEntity
 67
     1
  8
0
100
AcDbBlockEnd
  0
BLOCK
  5
31
330
30
100
AcDbEntity
  8
0
100
AcDbBlockBegin
  2
_OPEN30
 70
     0
 10
0.0
 20
0.0
 30
0.0
  3
_OPEN30
  1

  0
LINE
  5
32
330
30
100
AcDbEntity
  8
0
  6
ByBlock
 62
     0
100
AcDbLine
 10
-1.0
 20
0.26794919
 30
0.0
 11
0.0
 21
0.0
 31
0.0
  0
LINE
  5
33
330
30
100
AcDbEntity
  8
0
  6
ByBlock
 62
     0
100
AcDbLine
 10
0.0
 20
0.0
 30
0.0
 11
-1.0
 21
-0.26794919
 31
0.0
  0
LINE
  5
34
330
30
100
AcDbEntity
  8
0
  6
ByBlock
 62
     0
100
AcDbLine
 10
0.0
 20
0.0
 30
0.0
 11
-1.0
 21
0.0
 31
0.0
  0
ENDBLK
  5
35
330
30
100
AcDbEntity
  8
0
100
AcDbBlockEnd
  0
BLOCK
  5
66B
330
66A
100
AcDbEntity
  8
0
100
AcDbBlockBegin
  2
*D1
 70
     1
 10
0.0
 20
0.0
 30
0.0
  3
*D1
  1

  0
LINE
  5
C58
330
66A
100
AcDbEntity
  8
SIZE
 62
     0
370
    -2
100
AcDbLine
 10
-1444.004379103167
 20
896.3250120848687
 30
0.0
 11
-1444.004379103167
 21
987.0660260899667
 31
0.0
  0
LINE
  5
C59
330
66A
100
AcDbEntity
  8
SIZE
 62
     0
370
    -2
100
AcDbLine
 10
-386.0043791031677
 20
896.3250120890135
 30
0.0
 11
-386.0043791031677
 21
987.0660260899667
 31
0.0
  0
LINE
  5
C5A
330
66A
100
AcDbEntity
  8
SIZE
 62
     0
370
    -2
100
AcDbLine
 10
-1434.004379103167
 20
982.0660260899668
 30
0.0
 11
-396.0043791031677
 21
982.0660260899668
 31
0.0
  0
INSERT
  5
C5B
330
66A
100
AcDbEntity
  8
SIZE
 62
     0
370
    -2
100
AcDbBlockReference
  2
_OPEN30
 10
-1444.004379103167
 20
982.0660260899668
 30
0.0
 41
10.0
 42
10.0
 43
10.0
 50
180.0
  0
INSERT
  5
C5C
330
66A
100
AcDbEntity
  8
SIZE
 62
     0
370
    -2
100
AcDbBlockReference
  2
_OPEN30
 10
-386.0043791031677
 20
982.0660260899668
 30
0.0
 41
10.0
 42
10.0
 43
10.0
  0
MTEXT
  5
C5D
330
66A
100
AcDbEntity
  8
SIZE
 62
     0
100
AcDbMText
 10
-915.0043791031674
 20
992.0660260899667
 30
0.0
 40
10.0
 41
0.0
 71
     5
 72
     1
  1
\A1;1058
 73
     1
 44
1.0
1001
ACAD
1000
MTEXTBEGIN
1070
    73
1070
     1
1070
    44
1040
1.0
1070
    74
1070
     0
1000
MTEXTEND
  0
POINT
  5
C5E
330
66A
100
AcDbEntity
  8
Defpoints
 62
     0
100
AcDbPoint
 10
-1444.004379103167
 20
891.3250120848688
 30
0.0
  0
POINT
  5
C5F
330
66A
100
AcDbEntity
  8
Defpoints
 62
     0
100
AcDbPoint
 10
-386.0043791031677
 20
891.3250120890136
 30
0.0
  0
POINT
  5
C60
330
66A
100
AcDbEntity
  8
Defpoints
 62
     0
100
AcDbPoint
 10
-386.0043791031677
 20
982.0660260899668
 30
0.0
  0
ENDBLK
  5
66C
330
66A
100
AcDbEntity
  8
0
100
AcDbBlockEnd
  0
BLOCK
  5
678
330
677
100
AcDbEntity
  8
0
100
AcDbBlockBegin
  2
*D2
 70
     1
 10
0.0
 20
0.0
 30
0.0
  3
*D2
  1

  0
LINE
  5
C61
330
677
100
AcDbEntity
  8
SIZE
 62
     0
370
    -2
100
AcDbLine
 10
-1452.004379103168
 20
912.8250120851159
 30
0.0
 11
-1452.004379103168
 21
1015.072990471718
 31
0.0
  0
LINE
  5
C62
330
677
100
AcDbEntity
  8
SIZE
 62
     0
370
    -2
100
AcDbLine
 10
-378.0043791031677
 20
912.825012089014
 30
0.0
 11
-378.0043791031677
 21
1015.072990471718
 31
0.0
  0
LINE
  5
C63
330
677
100
AcDbEntity
  8
SIZE
 62
     0
370
    -2
100
AcDbLine
 10
-1442.004379103168
 20
1010.072990471718
 30
0.0
 11
-388.0043791031677
 21
1010.072990471718
 31
0.0
  0
INSERT
  5
C64
330
677
100
AcDbEntity
  8
SIZE
 62
     0
370
    -2
100
AcDbBlockReference
  2
_OPEN30
 10
-1452.004379103168
 20
1010.072990471718
 30
0.0
 41
10.0
 42
10.0
 43
10.0
 50
180.0
  0
INSERT
  5
C65
330
677
100
AcDbEntity
  8
SIZE
 62
     0
370
    -2
100
AcDbBlockReference
  2
_OPEN30
 10
-378.0043791031677
 20
1010.072990471718
 30
0.0
 41
10.0
 42
10.0
 43
10.0
  0
MTEXT
  5
C66
330
677
100
AcDbEntity
  8
SIZE
 62
     0
100
AcDbMText
 10
-915.0043791031677
 20
1020.072990471718
 30
0.0
 40
10.0
 41
0.0
 71
     5
 72
     1
  1
\A1;1074
 73
     1
 44
1.0
1001
ACAD
1000
MTEXTBEGIN
1070
    73
1070
     1
1070
    44
1040
1.0
1070
    74
1070
     0
1000
MTEXTEND
  0
POINT
  5
C67
330
677
100
AcDbEntity
  8
Defpoints
 62
     0
100
AcDbPoint
 10
-1452.004379103168
 20
907.825012085116
 30
0.0
  0
POINT
  5
C68
330
677
100
AcDbEntity
  8
Defpoints
 62
     0
100
AcDbPoint
 10
-378.0043791031677
 20
907.8250120890139
 30
0.0
  0
POINT
  5
C69
330
677
100
AcDbEntity
  8
Defpoints
 62
     0
100
AcDbPoint
 10
-378.0043791031677
 20
1010.072990471718
 30
0.0
  0
ENDBLK
  5
679
330
677
100
AcDbEntity
  8
0
100
AcDbBlockEnd
  0
BLOCK
  5
685
330
684
100
AcDbEntity
  8
0
100
AcDbBlockBegin
  2
*D3
 70
     1
 10
0.0
 20
0.0
 30
0.0
  3
*D3
  1

  0
LINE
  5
C7C
330
684
100
AcDbEntity
  8
SIZE
 62
     0
370
    -2
100
AcDbLine
 10
-1455.504379103167
 20
884.8250120848687
 30
0.0
 11
-1509.77331639019
 21
884.8250120848687
 31
0.0
  0
LINE
  5
C7D
330
684
100
AcDbEntity
  8
SIZE
 62
     0
370
    -2
100
AcDbLine
 10
-1455.504379103167
 20
302.8250120848688
 30
0.0
 11
-1509.77331639019
 21
302.8250120848688
 31
0.0
  0
LINE
  5
C7E
330
684
100
AcDbEntity
  8
SIZE
 62
     0
370
    -2
100
AcDbLine
 10
-1504.77331639019
 20
874.8250120848688
 30
0.0
 11
-1504.77331639019
 21
312.8250120848688
 31
0.0
  0
INSERT
  5
C7F
330
684
100
AcDbEntity
  8
SIZE
 62
     0
370
    -2
100
AcDbBlockReference
  2
_OPEN30
 10
-1504.77331639019
 20
884.8250120848687
 30
0.0
 41
10.0
 42
10.0
 43
10.0
 50
90.0
  0
INSERT
  5
C80
330
684
100
AcDbEntity
  8
SIZE
 62
     0
370
    -2
100
AcDbBlockReference
  2
_OPEN30
 10
-1504.77331639019
 20
302.8250120848688
 30
0.0
 41
10.0
 42
10.0
 43
10.0
 50
270.0
  0
MTEXT
  5
C81
330
684
100
AcDbEntity
  8
SIZE
 62
     0
100
AcDbMText
 10
-1514.77331639019
 20
593.8250120848685
 30
0.0
 40
10.0
 41
0.0
 71
     5
 72
     1
  1
\A1;582
 11
0.0000000000000001
 21
1.0
 31
0.0
 73
     1
 44
1.0
1001
ACAD
1000
MTEXTBEGIN
1070
    73
1070
     1
1070
    44
1040
1.0
1070
    74
1070
     0
1000
MTEXTEND
  0
POINT
  5
C82
330
684
100
AcDbEntity
  8
Defpoints
 62
     0
100
AcDbPoint
 10
-1450.504379103167
 20
884.8250120848687
 30
0.0
  0
POINT
  5
C83
330
684
100
AcDbEntity
  8
Defpoints
 62
     0
100
AcDbPoint
 10
-1450.504379103167
 20
302.8250120848688
 30
0.0
  0
POINT
  5
C84
330
684
100
AcDbEntity
  8
Defpoints
 62
     0
100
AcDbPoint
 10
-1504.77331639019
 20
302.8250120848688
 30
0.0
  0
ENDBLK
  5
686
330
684
100
AcDbEntity
  8
0
100
AcDbBlockEnd
  0
BLOCK
  5
692
330
691
100
AcDbEntity
  8
0
100
AcDbBlockBegin
  2
*D4
 70
     1
 10
0.0
 20
0.0
 30
0.0
  3
*D4
  1

  0
LINE
  5
C73
330
691
100
AcDbEntity
  8
SIZE
 62
     0
370
    -2
100
AcDbLine
 10
-1455.504379103167
 20
302.8250120848688
 30
0.0
 11
-1509.77331639019
 21
302.8250120848688
 31
0.0
  0
LINE
  5
C74
330
691
100
AcDbEntity
  8
SIZE
 62
     0
370
    -2
100
AcDbLine
 10
-1455.504379103167
 20
-279.1749879151313
 30
0.0
 11
-1509.77331639019
 21
-279.1749879151313
 31
0.0
  0
LINE
  5
C75
330
691
100
AcDbEntity
  8
SIZE
 62
     0
370
    -2
100
AcDbLine
 10
-1504.77331639019
 20
292.8250120848688
 30
0.0
 11
-1504.77331639019
 21
-269.1749879151313
 31
0.0
  0
INSERT
  5
C76
330
691
100
AcDbEntity
  8
SIZE
 62
     0
370
    -2
100
AcDbBlockReference
  2
_OPEN30
 10
-1504.77331639019
 20
302.8250120848688
 30
0.0
 41
10.0
 42
10.0
 43
10.0
 50
90.0
  0
INSERT
  5
C77
330
691
100
AcDbEntity
  8
SIZE
 62
     0
370
    -2
100
AcDbBlockReference
  2
_OPEN30
 10
-1504.77331639019
 20
-279.1749879151313
 30
0.0
 41
10.0
 42
10.0
 43
10.0
 50
270.0
  0
MTEXT
  5
C78
330
691
100
AcDbEntity
  8
SIZE
 62
     0
100
AcDbMText
 10
-1514.77331639019
 20
11.82501208486852
 30
0.0
 40
10.0
 41
0.0
 71
     5
 72
     1
  1
\A1;582
 11
0.0000000000000001
 21
1.0
 31
0.0
 73
     1
 44
1.0
1001
ACAD
1000
MTEXTBEGIN
1070
    73
1070
     1
1070
    44
1040
1.0
1070
    74
1070
     0
1000
MTEXTEND
  0
POINT
  5
C79
330
691
100
AcDbEntity
  8
Defpoints
 62
     0
100
AcDbPoint
 10
-1450.504379103167
 20
302.8250120848688
 30
0.0
  0
POINT
  5
C7A
330
691
100
AcDbEntity
  8
Defpoints
 62
     0
100
AcDbPoint
 10
-1450.504379103167
 20
-279.1749879151313
 30
0.0
  0
POINT
  5
C7B
330
691
100
AcDbEntity
  8
Defpoints
 62
     0
100
AcDbPoint
 10
-1504.77331639019
 20
-279.1749879151313
 30
0.0
  0
ENDBLK
  5
693
330
691
100
AcDbEntity
  8
0
100
AcDbBlockEnd
  0
BLOCK
  5
69F
330
69E
100
AcDbEntity
  8
0
100
AcDbBlockBegin
  2
*D5
 70
     1
 10
0.0
 20
0.0
 30
0.0
  3
*D5
  1

  0
LINE
  5
C6A
330
69E
100
AcDbEntity
  8
SIZE
 62
     0
370
    -2
100
AcDbLine
 10
-1451.004379103167
 20
916.8307442088719
 30
0.0
 11
-1546.640800130123
 21
916.8307442088719
 31
0.0
  0
LINE
  5
C6B
330
69E
100
AcDbEntity
  8
SIZE
 62
     0
370
    -2
100
AcDbLine
 10
-1457.004379103168
 20
-294.174987914803
 30
0.0
 11
-1546.640800130124
 21
-294.174987914803
 31
0.0
  0
LINE
  5
C6C
330
69E
100
AcDbEntity
  8
SIZE
 62
     0
370
    -2
100
AcDbLine
 10
-1541.640800130124
 20
906.830744208872
 30
0.0
 11
-1541.640800130124
 21
-284.174987914803
 31
0.0
  0
INSERT
  5
C6D
330
69E
100
AcDbEntity
  8
SIZE
 62
     0
370
    -2
100
AcDbBlockReference
  2
_OPEN30
 10
-1541.640800130124
 20
916.8307442088719
 30
0.0
 41
10.0
 42
10.0
 43
10.0
 50
90.0
  0
INSERT
  5
C6E
330
69E
100
AcDbEntity
  8
SIZE
 62
     0
370
    -2
100
AcDbBlockReference
  2
_OPEN30
 10
-1541.640800130124
 20
-294.174987914803
 30
0.0
 41
10.0
 42
10.0
 43
10.0
 50
270.0
  0
MTEXT
  5
C6F
330
69E
100
AcDbEntity
  8
SIZE
 62
     0
100
AcDbMText
 10
-1551.640800130124
 20
311.3278781470343
 30
0.0
 40
10.0
 41
0.0
 71
     5
 72
     1
  1
\A1;1211
 11
0.0000000000000001
 21
1.0
 31
0.0
 73
     1
 44
1.0
1001
ACAD
1000
MTEXTBEGIN
1070
    73
1070
     1
1070
    44
1040
1.0
1070
    74
1070
     0
1000
MTEXTEND
  0
POINT
  5
C70
330
69E
100
AcDbEntity
  8
Defpoints
 62
     0
100
AcDbPoint
 10
-1446.004379103167
 20
916.8307442088719
 30
0.0
  0
POINT
  5
C71
330
69E
100
AcDbEntity
  8
Defpoints
 62
     0
100
AcDbPoint
 10
-1452.004379103168
 20
-294.174987914803
 30
0.0
  0
POINT
  5
C72
330
69E
100
AcDbEntity
  8
Defpoints
 62
     0
100
AcDbPoint
 10
-1541.640800130124
 20
-294.174987914803
 30
0.0
  0
ENDBLK
  5
6A0
330
69E
100
AcDbEntity
  8
0
100
AcDbBlockEnd
  0
BLOCK
  5
6F4
330
6F3
100
AcDbEntity
  8
0
100
AcDbBlockBegin
  2
_DOTBLANK
 70
     0
 10
0.0
 20
0.0
 30
0.0
  3
_DOTBLANK
  1

  0
CIRCLE
  5
6F5
330
6F3
100
AcDbEntity
  8
0
  6
Continuous
 62
     7
100
AcDbCircle
 10
0.0
 20
0.0
 30
0.0
 40
0.5
  0
LINE
  5
6F6
330
6F3
100
AcDbEntity
  8
0
  6
Continuous
 62
     7
100
AcDbLine
 10
-0.5
 20
0.0
 30
0.0
 11
-1.0
 21
0.0
 31
0.0
  0
ENDBLK
  5
6F7
330
6F3
100
AcDbEntity
  8
0
100
AcDbBlockEnd
  0
ENDSEC
  0
SECTION
  2
ENTITIES
  0
LINE
  5
73
330
2
100
AcDbEntity
  8
NOTE
100
AcDbLine
 10
-1444.004379103167
 20
884.8250120848687
 30
0.0
 11
-1444.004379103167
 21
884.8250120848687
 31
0.0
  0
LINE
  5
77
330
2
100
AcDbEntity
  8
NOTE
100
AcDbLine
 10
-1444.004379103167
 20
884.8250120848687
 30
0.0
 11
-1444.004379103167
 21
884.8250120848687
 31
0.0
  0
LINE
  5
78
330
2
100
AcDbEntity
  8
NOTE
100
AcDbLine
 10
-1450.504379103167
 20
884.8250120848687
 30
0.0
 11
-1444.004379103167
 21
884.8250120848687
 31
0.0
  0
LINE
  5
79
330
2
100
AcDbEntity
  8
NOTE
100
AcDbLine
 10
-1444.004379103167
 20
884.8250120848687
 30
0.0
 11
-1437.504379103167
 21
884.8250120848687
 31
0.0
  0
LINE
  5
7A
330
2
100
AcDbEntity
  8
NOTE
100
AcDbLine
 10
-1444.004379103167
 20
878.3250120848688
 30
0.0
 11
-1444.004379103167
 21
884.8250120848687
 31
0.0
  0
LINE
  5
7B
330
2
100
AcDbEntity
  8
NOTE
100
AcDbLine
 10
-1444.004379103167
 20
884.8250120848687
 30
0.0
 11
-1444.004379103167
 21
891.3250120848688
 31
0.0
  0
LINE
  5
7C
330
2
100
AcDbEntity
  8
NOTE
100
AcDbLine
 10
-1444.004379103167
 20
-279.1749879151313
 30
0.0
 11
-1444.004379103167
 21
-279.1749879151313
 31
0.0
  0
LINE
  5
7D
330
2
100
AcDbEntity
  8
NOTE
100
AcDbLine
 10
-1444.004379103167
 20
-279.1749879151313
 30
0.0
 11
-1444.004379103167
 21
-279.1749879151313
 31
0.0
  0
LINE
  5
7E
330
2
100
AcDbEntity
  8
NOTE
100
AcDbLine
 10
-1450.504379103167
 20
-279.1749879151313
 30
0.0
 11
-1444.004379103167
 21
-279.1749879151313
 31
0.0
  0
LINE
  5
7F
330
2
100
AcDbEntity
  8
NOTE
100
AcDbLine
 10
-1444.004379103167
 20
-279.1749879151313
 30
0.0
 11
-1437.504379103167
 21
-279.1749879151313
 31
0.0
  0
LINE
  5
80
330
2
100
AcDbEntity
  8
NOTE
100
AcDbLine
 10
-1444.004379103167
 20
-285.6749879151313
 30
0.0
 11
-1444.004379103167
 21
-279.1749879151313
 31
0.0
  0
LINE
  5
81
330
2
100
AcDbEntity
  8
NOTE
100
AcDbLine
 10
-1444.004379103167
 20
-279.1749879151313
 30
0.0
 11
-1444.004379103167
 21
-272.6749879151313
 31
0.0
  0
LINE
  5
82
330
2
100
AcDbEntity
  8
NOTE
100
AcDbLine
 10
-386.0043791031677
 20
884.8250120890138
 30
0.0
 11
-386.0043791031677
 21
884.8250120890138
 31
0.0
  0
LINE
  5
83
330
2
100
AcDbEntity
  8
NOTE
100
AcDbLine
 10
-386.0043791031677
 20
884.8250120890138
 30
0.0
 11
-386.0043791031677
 21
884.8250120890138
 31
0.0
  0
LINE
  5
84
330
2
100
AcDbEntity
  8
NOTE
100
AcDbLine
 10
-392.5043791031677
 20
884.8250120890138
 30
0.0
 11
-386.0043791031677
 21
884.8250120890138
 31
0.0
  0
LINE
  5
85
330
2
100
AcDbEntity
  8
NOTE
100
AcDbLine
 10
-386.0043791031677
 20
884.8250120890138
 30
0.0
 11
-379.5043791031677
 21
884.8250120890138
 31
0.0
  0
LINE
  5
86
330
2
100
AcDbEntity
  8
NOTE
100
AcDbLine
 10
-386.0043791031677
 20
878.3250120890135
 30
0.0
 11
-386.0043791031677
 21
884.8250120890138
 31
0.0
  0
LINE
  5
87
330
2
100
AcDbEntity
  8
NOTE
100
AcDbLine
 10
-386.0043791031677
 20
884.8250120890138
 30
0.0
 11
-386.0043791031677
 21
891.3250120890136
 31
0.0
  0
LINE
  5
88
330
2
100
AcDbEntity
  8
NOTE
100
AcDbLine
 10
-386.0043791031677
 20
-279.1749879109864
 30
0.0
 11
-386.0043791031677
 21
-279.1749879109864
 31
0.0
  0
LINE
  5
89
330
2
100
AcDbEntity
  8
NOTE
100
AcDbLine
 10
-386.0043791031677
 20
-279.1749879109864
 30
0.0
 11
-386.0043791031677
 21
-279.1749879109864
 31
0.0
  0
LINE
  5
8A
330
2
100
AcDbEntity
  8
NOTE
100
AcDbLine
 10
-392.5043791031677
 20
-279.1749879109864
 30
0.0
 11
-386.0043791031677
 21
-279.1749879109864
 31
0.0
  0
LINE
  5
8B
330
2
100
AcDbEntity
  8
NOTE
100
AcDbLine
 10
-386.0043791031677
 20
-279.1749879109864
 30
0.0
 11
-379.5043791031677
 21
-279.1749879109864
 31
0.0
  0
LINE
  5
8C
330
2
100
AcDbEntity
  8
NOTE
100
AcDbLine
 10
-386.0043791031677
 20
-285.6749879109864
 30
0.0
 11
-386.0043791031677
 21
-279.1749879109864
 31
0.0
  0
LINE
  5
8D
330
2
100
AcDbEntity
  8
NOTE
100
AcDbLine
 10
-386.0043791031677
 20
-279.1749879109864
 30
0.0
 11
-386.0043791031677
 21
-272.6749879109864
 31
0.0
  0
LINE
  5
8F
330
2
100
AcDbEntity
  8
NOTE
100
AcDbLine
 10
-1444.004379103167
 20
302.8250120848688
 30
0.0
 11
-1444.004379103167
 21
302.8250120848688
 31
0.0
  0
LINE
  5
90
330
2
100
AcDbEntity
  8
NOTE
100
AcDbLine
 10
-1444.004379103167
 20
302.8250120848688
 30
0.0
 11
-1444.004379103167
 21
302.8250120848688
 31
0.0
  0
LINE
  5
91
330
2
100
AcDbEntity
  8
NOTE
100
AcDbLine
 10
-1450.504379103167
 20
302.8250120848688
 30
0.0
 11
-1444.004379103167
 21
302.8250120848688
 31
0.0
  0
LINE
  5
92
330
2
100
AcDbEntity
  8
NOTE
100
AcDbLine
 10
-1444.004379103167
 20
302.8250120848688
 30
0.0
 11
-1437.504379103167
 21
302.8250120848688
 31
0.0
  0
LINE
  5
93
330
2
100
AcDbEntity
  8
NOTE
100
AcDbLine
 10
-1444.004379103167
 20
296.3250120848688
 30
0.0
 11
-1444.004379103167
 21
302.8250120848688
 31
0.0
  0
LINE
  5
94
330
2
100
AcDbEntity
  8
NOTE
100
AcDbLine
 10
-1444.004379103167
 20
302.8250120848688
 30
0.0
 11
-1444.004379103167
 21
309.3250120848688
 31
0.0
  0
LINE
  5
95
330
2
100
AcDbEntity
  8
NOTE
100
AcDbLine
 10
-375.0043791031676
 20
-276.6749879109864
 30
0.0
 11
-382.0043791031677
 21
-276.6749879109864
 31
0.0
  0
LINE
  5
96
330
2
100
AcDbEntity
  8
NOTE
100
AcDbLine
 10
-386.0043791031677
 20
302.8250120890136
 30
0.0
 11
-386.0043791031677
 21
302.8250120890136
 31
0.0
  0
LINE
  5
97
330
2
100
AcDbEntity
  8
NOTE
100
AcDbLine
 10
-386.0043791031677
 20
302.8250120890136
 30
0.0
 11
-386.0043791031677
 21
302.8250120890136
 31
0.0
  0
LINE
  5
98
330
2
100
AcDbEntity
  8
NOTE
100
AcDbLine
 10
-392.5043791031677
 20
302.8250120890136
 30
0.0
 11
-386.0043791031677
 21
302.8250120890136
 31
0.0
  0
LINE
  5
99
330
2
100
AcDbEntity
  8
NOTE
100
AcDbLine
 10
-386.0043791031677
 20
302.8250120890136
 30
0.0
 11
-379.5043791031677
 21
302.8250120890136
 31
0.0
  0
LINE
  5
9A
330
2
100
AcDbEntity
  8
NOTE
100
AcDbLine
 10
-386.0043791031677
 20
296.3250120890137
 30
0.0
 11
-386.0043791031677
 21
302.8250120890136
 31
0.0
  0
LINE
  5
9B
330
2
100
AcDbEntity
  8
NOTE
100
AcDbLine
 10
-386.0043791031677
 20
302.8250120890136
 30
0.0
 11
-386.0043791031677
 21
309.3250120890136
 31
0.0
  0
LINE
  5
CA
330
2
100
AcDbEntity
  8
OUTLINE
100
AcDbLine
 10
-1452.004379103168
 20
694.877945727063
 30
0.0
 11
-1452.004379103168
 21
125.1665180477947
 31
0.0
  0
LINE
  5
CC
330
2
100
AcDbEntity
  8
HID
100
AcDbLine
 10
-1437.004379103168
 20
906.825012084873
 30
0.0
 11
-1437.004379103168
 21
907.8250120848732
 31
0.0
  0
LINE
  5
CF
330
2
100
AcDbEntity
  8
OUTLINE
100
AcDbLine
 10
-1451.004379103167
 20
694.8779457270624
 30
0.0
 11
-1452.004379103168
 21
694.8779457270624
 31
0.0
  0
LINE
  5
D0
330
2
100
AcDbEntity
  8
OUTLINE
100
AcDbLine
 10
-1452.004379103168
 20
907.825012085116
 30
0.0
 11
-1452.004379103168
 21
694.8779457270626
 31
0.0
  0
LINE
  5
D1
330
2
100
AcDbEntity
  8
HID
100
AcDbLine
 10
-1432.004379103167
 20
907.8250120851164
 30
0.0
 11
-1451.004379103167
 21
907.8250120851164
 31
0.0
  0
LINE
  5
D2
330
2
100
AcDbEntity
  8
OUTLINE
100
AcDbLine
 10
-1451.004379103167
 20
907.8250120851164
 30
0.0
 11
-1452.004379103168
 21
907.8250120851164
 31
0.0
  0
LINE
  5
D3
330
2
100
AcDbEntity
  8
HID
100
AcDbLine
 10
-1437.004379103167
 20
878.1459784463631
 30
0.0
 11
-1449.004379103167
 21
878.1459784463631
 31
0.0
  0
LINE
  5
D4
330
2
100
AcDbEntity
  8
HID
100
AcDbLine
 10
-1449.004379103167
 20
878.1459784463628
 30
0.0
 11
-1449.004379103167
 21
877.4755518273964
 31
0.0
  0
LINE
  5
D5
330
2
100
AcDbEntity
  8
HID
100
AcDbLine
 10
-1449.004379103167
 20
878.1459784463631
 30
0.0
 11
-1449.004379103167
 21
892.9854952657397
 31
0.0
  0
LINE
  5
D6
330
2
100
AcDbEntity
  8
HID
100
AcDbLine
 10
-1449.004379103167
 20
892.9854952657395
 30
0.0
 11
-1437.004379103167
 21
892.9854952657395
 31
0.0
  0
LINE
  5
D7
330
2
100
AcDbEntity
  8
HID
100
AcDbLine
 10
-1432.004379103167
 20
874.4360992415186
 30
0.0
 11
-1432.004379103167
 21
694.8779457270626
 31
0.0
  0
LINE
  5
D8
330
2
100
AcDbEntity
  8
HID
100
AcDbLine
 10
-1437.004379103167
 20
877.4755518273966
 30
0.0
 11
-1437.004379103167
 21
878.1459784463631
 31
0.0
  0
LINE
  5
D9
330
2
100
AcDbEntity
  8
HID
100
AcDbLine
 10
-1437.004379103168
 20
878.1459784463631
 30
0.0
 11
-1432.004379103167
 21
874.4360992415193
 31
0.0
  0
LINE
  5
DA
330
2
100
AcDbEntity
  8
HID
100
AcDbLine
 10
-1432.004379103167
 20
873.7656726225527
 30
0.0
 11
-1437.004379103168
 21
877.4755518273966
 31
0.0
  0
LINE
  5
DB
330
2
100
AcDbEntity
  8
HID
100
AcDbLine
 10
-1449.004379103167
 20
877.4755518273966
 30
0.0
 11
-1437.004379103167
 21
877.4755518273966
 31
0.0
  0
LINE
  5
DC
330
2
100
AcDbEntity
  8
HID
100
AcDbLine
 10
-1437.004379103167
 20
892.3150686467732
 30
0.0
 11
-1449.004379103167
 21
892.3150686467732
 31
0.0
  0
LINE
  5
DD
330
2
100
AcDbEntity
  8
HID
100
AcDbLine
 10
-1432.004379103167
 20
906.8250120851116
 30
0.0
 11
-1451.004379103167
 21
906.8250120851116
 31
0.0
  0
LINE
  5
DE
330
2
100
AcDbEntity
  8
HID
100
AcDbLine
 10
-1432.004379103167
 20
907.825012085116
 30
0.0
 11
-1432.004379103167
 21
896.6953744705833
 31
0.0
  0
LINE
  5
DF
330
2
100
AcDbEntity
  8
HID
100
AcDbLine
 10
-1437.004379103167
 20
892.9854952657397
 30
0.0
 11
-1437.004379103167
 21
892.3150686467732
 31
0.0
  0
LINE
  5
E0
330
2
100
AcDbEntity
  8
HID
100
AcDbLine
 10
-1432.004379103168
 20
896.6953744705838
 30
0.0
 11
-1437.004379103168
 21
892.9854952657397
 31
0.0
  0
LINE
  5
E1
330
2
100
AcDbEntity
  8
HID
100
AcDbLine
 10
-1432.004379103167
 20
896.0249478516173
 30
0.0
 11
-1432.004379103167
 21
896.6953744705833
 31
0.0
  0
LINE
  5
E2
330
2
100
AcDbEntity
  8
HID
100
AcDbLine
 10
-1437.004379103168
 20
892.3150686467732
 30
0.0
 11
-1432.004379103168
 21
896.0249478516173
 31
0.0
  0
LINE
  5
E3
330
2
100
AcDbEntity
  8
OUTLINE
100
AcDbLine
 10
-1451.004379103167
 20
-294.1749879148028
 30
0.0
 11
-1452.004379103168
 21
-294.1749879148028
 31
0.0
  0
LINE
  5
E4
330
2
100
AcDbEntity
  8
OUTLINE
100
AcDbLine
 10
-1452.004379103168
 20
125.1665180477942
 30
0.0
 11
-1452.004379103168
 21
-294.174987914803
 31
0.0
  0
LINE
  5
E5
330
2
100
AcDbEntity
  8
HID
100
AcDbLine
 10
-1432.004379103167
 20
125.1665180477943
 30
0.0
 11
-1451.004379103167
 21
125.1665180477943
 31
0.0
  0
LINE
  5
E6
330
2
100
AcDbEntity
  8
OUTLINE
100
AcDbLine
 10
-1451.004379103167
 20
125.1665180477943
 30
0.0
 11
-1452.004379103168
 21
125.1665180477943
 31
0.0
  0
LINE
  5
E7
330
2
100
AcDbEntity
  8
OUTLINE
100
AcDbLine
 10
-1437.004379103168
 20
-294.174987915127
 30
0.0
 11
-1451.004379103167
 21
-294.174987915127
 31
0.0
  0
LINE
  5
E8
330
2
100
AcDbEntity
  8
OUTLINE
100
AcDbLine
 10
-1437.004379103168
 20
-294.174987915127
 30
0.0
 11
-1437.004379103168
 21
-271.6749879145727
 31
0.0
  0
LINE
  5
E9
330
2
100
AcDbEntity
  8
HID
100
AcDbLine
 10
-1437.004379103168
 20
-271.6749879145726
 30
0.0
 11
-1437.004379103168
 21
877.4755518273973
 31
0.0
  0
LINE
  5
EA
330
2
100
AcDbEntity
  8
HID
100
AcDbLine
 10
-1437.004379103168
 20
878.1459784463637
 30
0.0
 11
-1437.004379103168
 21
892.3150686467735
 31
0.0
  0
LINE
  5
EB
330
2
100
AcDbEntity
  8
HID
100
AcDbLine
 10
-1437.004379103168
 20
892.9854952657395
 30
0.0
 11
-1437.004379103168
 21
906.825012084873
 31
0.0
  0
LINE
  5
EC
330
2
100
AcDbEntity
  8
OUTLINE
100
AcDbLine
 10
-1451.004379103167
 20
-271.6749879145725
 30
0.0
 11
-1437.004379103167
 21
-271.6749879145725
 31
0.0
  0
LINE
  5
ED
330
2
100
AcDbEntity
  8
OUTLINE
100
AcDbLine
 10
-1432.004379103167
 20
-266.6749879145212
 30
0.0
 11
-1437.004379103167
 21
-271.6749879145724
 31
0.0
  0
LINE
  5
EE
330
2
100
AcDbEntity
  8
HID
100
AcDbLine
 10
-1432.004379103167
 20
125.1665180477942
 30
0.0
 11
-1432.004379103167
 21
112.2342052427165
 31
0.0
  0
LINE
  5
EF
330
2
100
AcDbEntity
  8
OUTLINE
100
AcDbLine
 10
-1432.004379103167
 20
110.7038916971997
 30
0.0
 11
-1432.004379103167
 21
-266.6749879145214
 31
0.0
  0
LINE
  5
F0
330
2
100
AcDbEntity
  8
HID
100
AcDbLine
 10
-1432.004379103167
 20
690.2686299691398
 30
0.0
 11
-1432.004379103167
 21
125.1665180477947
 31
0.0
  0
LINE
  5
F1
330
2
100
AcDbEntity
  8
HID
100
AcDbLine
 10
-1432.004379103167
 20
125.4020899298265
 30
0.0
 11
-1451.004379103167
 21
125.4020899298265
 31
0.0
  0
LINE
  5
F2
330
2
100
AcDbEntity
  8
OUTLINE
100
AcDbLine
 10
-1451.004379103167
 20
-294.1749879148028
 30
0.0
 11
-1451.004379103167
 21
-271.6749879145726
 31
0.0
  0
LINE
  5
F3
330
2
100
AcDbEntity
  8
HID
100
AcDbLine
 10
-1451.004379103167
 20
114.9242599141063
 30
0.0
 11
-1451.004379103167
 21
-271.6749879145869
 31
0.0
  0
LINE
  5
F4
330
2
100
AcDbEntity
  8
HID
100
AcDbLine
 10
-1432.004379103167
 20
694.8779457270624
 30
0.0
 11
-1451.004379103167
 21
694.8779457270624
 31
0.0
  0
LINE
  5
F5
330
2
100
AcDbEntity
  8
HID
100
AcDbLine
 10
-1432.004379103167
 20
694.8779457270622
 30
0.0
 11
-1432.004379103167
 21
694.4673553522476
 31
0.0
  0
LINE
  5
F6
330
2
100
AcDbEntity
  8
HID
100
AcDbLine
 10
-1432.004379103167
 20
694.4673553522476
 30
0.0
 11
-1451.004379103167
 21
694.4673553522476
 31
0.0
  0
LINE
  5
F7
330
2
100
AcDbEntity
  8
HID
100
AcDbLine
 10
-1432.004379103167
 20
690.2686299691395
 30
0.0
 11
-1451.004379103167
 21
690.2686299691395
 31
0.0
  0
LINE
  5
F8
330
2
100
AcDbEntity
  8
HID
100
AcDbLine
 10
-1451.004379103167
 20
689.881114382678
 30
0.0
 11
-1432.004379103167
 21
689.881114382678
 31
0.0
  0
LINE
  5
F9
330
2
100
AcDbEntity
  8
HID
100
AcDbLine
 10
-1452.004379103168
 20
-261.1749879148026
 30
0.0
 11
-1451.004379103167
 21
-261.1749879148026
 31
0.0
  0
LINE
  5
FA
330
2
100
AcDbEntity
  8
HID
100
AcDbLine
 10
-1452.004379103168
 20
-264.1749879148028
 30
0.0
 11
-1451.004379103167
 21
-264.1749879148028
 31
0.0
  0
LINE
  5
FB
330
2
100
AcDbEntity
  8
HID
100
AcDbLine
 10
-1442.004379103167
 20
858.1126307402048
 30
0.0
 11
-1442.004379103167
 21
857.4422041212384
 31
0.0
  0
LINE
  5
FC
330
2
100
AcDbEntity
  8
HID
100
AcDbLine
 10
-1438.004379103167
 20
858.1126307402048
 30
0.0
 11
-1438.004379103167
 21
857.4422041212384
 31
0.0
  0
LINE
  5
FD
330
2
100
AcDbEntity
  8
HID
100
AcDbLine
 10
-1442.087470570568
 20
731.9767377755031
 30
0.0
 11
-1442.087470570568
 21
731.3063111565368
 31
0.0
  0
LINE
  5
FE
330
2
100
AcDbEntity
  8
HID
100
AcDbLine
 10
-1438.087470570567
 20
731.9767377755046
 30
0.0
 11
-1438.087470570567
 21
731.3063111565385
 31
0.0
  0
LINE
  5
FF
330
2
100
AcDbEntity
  8
HID
100
AcDbLine
 10
-1442.004379103167
 20
540.0049362608537
 30
0.0
 11
-1442.004379103167
 21
539.6174206743925
 31
0.0
  0
LINE
  5
100
330
2
100
AcDbEntity
  8
HID
100
AcDbLine
 10
-1438.004379103167
 20
540.0049362608537
 30
0.0
 11
-1438.004379103167
 21
539.6174206743918
 31
0.0
  0
LINE
  5
101
330
2
100
AcDbEntity
  8
HID
100
AcDbLine
 10
-1441.836883866867
 20
355.6323059439384
 30
0.0
 11
-1441.836883866867
 21
355.2447903574773
 31
0.0
  0
LINE
  5
102
330
2
100
AcDbEntity
  8
HID
100
AcDbLine
 10
-1437.836883866867
 20
355.6323059439383
 30
0.0
 11
-1437.836883866867
 21
355.2447903574766
 31
0.0
  0
LINE
  5
103
330
2
100
AcDbEntity
  8
HID
100
AcDbLine
 10
-1441.806474591767
 20
171.2596756270231
 30
0.0
 11
-1441.806474591767
 21
170.8721600405621
 31
0.0
  0
LINE
  5
104
330
2
100
AcDbEntity
  8
HID
100
AcDbLine
 10
-1437.806474591767
 20
171.259675627023
 30
0.0
 11
-1437.806474591767
 21
170.8721600405613
 31
0.0
  0
LINE
  5
105
330
2
100
AcDbEntity
  8
HID
100
AcDbLine
 10
-1438.004379103167
 20
45.6962849417875
 30
0.0
 11
-1438.004379103167
 21
46.40720146738877
 31
0.0
  0
LINE
  5
106
330
2
100
AcDbEntity
  8
HID
100
AcDbLine
 10
-1442.004379103167
 20
45.69628494178721
 30
0.0
 11
-1442.004379103167
 21
46.40720146738895
 31
0.0
  0
LINE
  5
107
330
2
100
AcDbEntity
  8
HID
100
AcDbLine
 10
-1438.004379103167
 20
-200.4504547670768
 30
0.0
 11
-1438.004379103167
 21
-199.7395382414809
 31
0.0
  0
LINE
  5
108
330
2
100
AcDbEntity
  8
HID
100
AcDbLine
 10
-1442.004379103167
 20
-200.4504547670825
 30
0.0
 11
-1442.004379103167
 21
-199.7395382414806
 31
0.0
  0
LINE
  5
109
330
2
100
AcDbEntity
  8
HID
100
AcDbLine
 10
-1452.004379103168
 20
-279.1749879147549
 30
0.0
 11
-1451.004379103168
 21
-279.1749879147549
 31
0.0
  0
LINE
  5
10A
330
2
100
AcDbEntity
  8
HID
100
AcDbLine
 10
-1452.004379103168
 20
-274.1749879147548
 30
0.0
 11
-1451.004379103168
 21
-274.1749879147548
 31
0.0
  0
ELLIPSE
  5
10B
330
2
100
AcDbEntity
  8
OUTLINE
100
AcDbEllipse
 10
-1440.004379103167
 20
540.0049362608537
 30
0.0
 11
-2.0
 21
0.0
 31
0.0
210
0.0
220
0.0
230
1.0
 40
0.9218631515845759
 41
0.0000000000000002
 42
6.283185307179585
  0
ELLIPSE
  5
10C
330
2
100
AcDbEntity
  8
OUTLINE
100
AcDbEllipse
 10
-1439.836883866867
 20
355.6323059439384
 30
0.0
 11
-2.0
 21
0.0
 31
0.0
210
0.0
220
0.0
230
1.0
 40
0.9218631515845759
 41
0.0000000000000002
 42
6.283185307179585
  0
ELLIPSE
  5
10D
330
2
100
AcDbEntity
  8
OUTLINE
100
AcDbEllipse
 10
-1439.806474591767
 20
171.2596756270231
 30
0.0
 11
-2.0
 21
0.0
 31
0.0
210
0.0
220
0.0
230
1.0
 40
0.9218631515845759
 41
0.0000000000000002
 42
6.283185307179585
  0
ELLIPSE
  5
10E
330
2
100
AcDbEntity
  8
HID
100
AcDbEllipse
 10
-1440.087470570567
 20
731.9767377755042
 30
0.0
 11
-2.0
 21
0.0
 31
0.0
210
0.0
220
0.0
230
1.0
 40
0.7419758409688271
 41
0.3122667242258077
 42
2.645923449552752
  0
ELLIPSE
  5
10F
330
2
100
AcDbEntity
  8
OUTLINE
100
AcDbEllipse
 10
-1440.087470570567
 20
731.9767377755042
 30
0.0
 11
-2.0
 21
0.0
 31
0.0
210
0.0
220
0.0
230
1.0
 40
0.7419758409688271
 41
2.645923449552752
 42
6.595452031405392
  0
ELLIPSE
  5
110
330
2
100
AcDbEntity
  8
HID
100
AcDbEllipse
 10
-1440.004379103167
 20
858.1126307402049
 30
0.0
 11
-2.0
 21
0.0
 31
0.0
210
0.0
220
0.0
230
1.0
 40
0.7419758409688271
 41
0.4078523484073223
 42
2.733740305182593
  0
ELLIPSE
  5
111
330
2
100
AcDbEntity
  8
OUTLINE
100
AcDbEllipse
 10
-1440.004379103167
 20
858.1126307402049
 30
0.0
 11
-2.0
 21
0.0
 31
0.0
210
0.0
220
0.0
230
1.0
 40
0.7419758409688271
 41
2.733740305182593
 42
6.691037655586907
  0
ELLIPSE
  5
112
330
2
100
AcDbEntity
  8
OUTLINE
100
AcDbEllipse
 10
-1440.004379103167
 20
857.4422041212384
 30
0.0
 11
2.000000000000644
 21
0.0
 31
0.0
210
0.0
220
0.0
230
1.0
 40
0.741975840968827
 41
0.2278589501894236
 42
2.913733703400368
  0
ELLIPSE
  5
113
330
2
100
AcDbEntity
  8
HID
100
AcDbEllipse
 10
-1440.004379103167
 20
857.4422041212384
 30
0.0
 11
2.000000000000644
 21
0.0
 31
0.0
210
0.0
220
0.0
230
1.0
 40
0.741975840968827
 41
2.913733703400368
 42
6.511044257369008
  0
ELLIPSE
  5
114
330
2
100
AcDbEntity
  8
OUTLINE
100
AcDbEllipse
 10
-1440.087470570567
 20
731.3063111565379
 30
0.0
 11
2.000000000002879
 21
0.0
 31
0.0
210
0.0
220
0.0
230
1.0
 40
0.7419758409688271
 41
0.2278589501917364
 42
2.913733703397907
  0
ELLIPSE
  5
115
330
2
100
AcDbEntity
  8
HID
100
AcDbEllipse
 10
-1440.087470570567
 20
731.3063111565379
 30
0.0
 11
2.000000000002879
 21
0.0
 31
0.0
210
0.0
220
0.0
230
1.0
 40
0.7419758409688271
 41
2.913733703397907
 42
6.51104425737132
  0
ARC
  5
116
330
2
100
AcDbEntity
  8
HID
100
AcDbCircle
 10
-1444.004379103168
 20
884.8250120848732
 30
0.0
 40
3.5
100
AcDbArc
 50
17.80423232523826
 51
352.0295015871942
  0
ARC
  5
117
330
2
100
AcDbEntity
  8
OUTLINE
100
AcDbCircle
 10
-1444.004379103168
 20
884.8250120848732
 30
0.0
 40
3.5
100
AcDbArc
 50
352.0295015871942
 51
17.80423232523826
  0
CIRCLE
  5
118
330
2
100
AcDbEntity
  8
HID
100
AcDbCircle
 10
-1444.004379103168
 20
302.8250120848732
 30
0.0
 40
3.5
  0
CIRCLE
  5
119
330
2
100
AcDbEntity
  8
OUTLINE
100
AcDbCircle
 10
-1444.004379103168
 20
-279.1749879151268
 30
0.0
 40
3.5
  0
ELLIPSE
  5
11A
330
2
100
AcDbEntity
  8
OUTLINE
100
AcDbEllipse
 10
-1439.806474591767
 20
170.8721600405616
 30
0.0
 11
1.999999999997605
 21
0.0
 31
0.0
210
0.0
220
0.0
230
1.0
 40
0.9218631515845759
 41
0.1052847268075121
 42
3.036307926782292
  0
ELLIPSE
  5
11B
330
2
100
AcDbEntity
  8
HID
100
AcDbEllipse
 10
-1439.806474591767
 20
170.8721600405616
 30
0.0
 11
1.999999999997605
 21
0.0
 31
0.0
210
0.0
220
0.0
230
1.0
 40
0.9218631515845759
 41
3.036307926782292
 42
6.388470033987097
  0
ELLIPSE
  5
11C
330
2
100
AcDbEntity
  8
OUTLINE
100
AcDbEllipse
 10
-1439.836883866867
 20
355.2447903574769
 30
0.0
 11
1.999999999997653
 21
0.0
 31
0.0
210
0.0
220
0.0
230
1.0
 40
0.9218631515845759
 41
0.1052847268081462
 42
3.036307926781665
  0
ELLIPSE
  5
11D
330
2
100
AcDbEntity
  8
HID
100
AcDbEllipse
 10
-1439.836883866867
 20
355.2447903574769
 30
0.0
 11
1.999999999997653
 21
0.0
 31
0.0
210
0.0
220
0.0
230
1.0
 40
0.9218631515845759
 41
3.036307926781665
 42
6.388470033987731
  0
ELLIPSE
  5
11E
330
2
100
AcDbEntity
  8
OUTLINE
100
AcDbEllipse
 10
-1440.004379103167
 20
539.617420674392
 30
0.0
 11
1.999999999997701
 21
0.0
 31
0.0
210
0.0
220
0.0
230
1.0
 40
0.9218631515845759
 41
0.1052847268081364
 42
3.036307926781694
  0
ELLIPSE
  5
11F
330
2
100
AcDbEntity
  8
HID
100
AcDbEllipse
 10
-1440.004379103167
 20
539.617420674392
 30
0.0
 11
1.999999999997701
 21
0.0
 31
0.0
210
0.0
220
0.0
230
1.0
 40
0.9218631515845759
 41
3.036307926781694
 42
6.38847003398772
  0
ELLIPSE
  5
120
330
2
100
AcDbEntity
  8
OUTLINE
100
AcDbEllipse
 10
-1440.004379103167
 20
45.69628494178799
 30
0.0
 11
-2.0
 21
0.0
 31
0.0
210
0.0
220
0.0
230
1.0
 40
0.703276399168198
 41
0.0000000000000002
 42
6.283185307179585
  0
ELLIPSE
  5
121
330
2
100
AcDbEntity
  8
OUTLINE
100
AcDbEllipse
 10
-1440.004379103167
 20
46.4072014673892
 30
0.0
 11
2.0
 21
0.0
 31
0.0
210
0.0
220
0.0
230
1.0
 40
0.703276399168198
 41
3.397078903102186
 42
6.027699057667192
  0
ELLIPSE
  5
122
330
2
100
AcDbEntity
  8
HID
100
AcDbEllipse
 10
-1440.004379103167
 20
46.4072014673892
 30
0.0
 11
2.0
 21
0.0
 31
0.0
210
0.0
220
0.0
230
1.0
 40
0.703276399168198
 41
6.027699057667192
 42
9.680264210281773
  0
ELLIPSE
  5
123
330
2
100
AcDbEntity
  8
OUTLINE
100
AcDbEllipse
 10
-1440.004379103167
 20
-200.4504547670812
 30
0.0
 11
-2.0
 21
0.0
 31
0.0
210
0.0
220
0.0
230
1.0
 40
0.703276399168198
 41
0.0000000000000002
 42
6.283185307179585
  0
ELLIPSE
  5
124
330
2
100
AcDbEntity
  8
OUTLINE
100
AcDbEllipse
 10
-1440.004379103167
 20
-199.73953824148
 30
0.0
 11
2.0
 21
0.0
 31
0.0
210
0.0
220
0.0
230
1.0
 40
0.703276399168198
 41
3.397078903102167
 42
6.027699057667249
  0
ELLIPSE
  5
125
330
2
100
AcDbEntity
  8
HID
100
AcDbEllipse
 10
-1440.004379103167
 20
-199.73953824148
 30
0.0
 11
2.0
 21
0.0
 31
0.0
210
0.0
220
0.0
230
1.0
 40
0.703276399168198
 41
6.027699057667249
 42
9.680264210281752
  0
LINE
  5
126
330
2
100
AcDbEntity
  8
HID
100
AcDbLine
 10
-379.0043791031676
 20
906.8250120890134
 30
0.0
 11
-398.0043791031676
 21
906.8250120890134
 31
0.0
  0
LINE
  5
127
330
2
100
AcDbEntity
  8
OUTLINE
100
AcDbLine
 10
-378.0043791031677
 20
125.1665180473176
 30
0.0
 11
-378.0043791031675
 21
-294.1749879109865
 31
0.0
  0
LINE
  5
128
330
2
100
AcDbEntity
  8
OUTLINE
100
AcDbLine
 10
-379.0043791031676
 20
-271.6749879109867
 30
0.0
 11
-379.0043791031676
 21
-294.1749879109867
 31
0.0
  0
LINE
  5
129
330
2
100
AcDbEntity
  8
HID
100
AcDbLine
 10
-393.0043791031677
 20
906.8250120890134
 30
0.0
 11
-393.0043791031677
 21
892.9854952695007
 31
0.0
  0
LINE
  5
12A
330
2
100
AcDbEntity
  8
HID
100
AcDbLine
 10
-393.0043791031677
 20
892.3150686505422
 30
0.0
 11
-393.0043791031677
 21
878.1459784499885
 31
0.0
  0
LINE
  5
12B
330
2
100
AcDbEntity
  8
HID
100
AcDbLine
 10
-393.0043791031677
 20
877.4755518310298
 30
0.0
 11
-393.0043791031677
 21
-271.6749879109868
 31
0.0
  0
LINE
  5
12C
330
2
100
AcDbEntity
  8
OUTLINE
100
AcDbLine
 10
-393.0043791031677
 20
-271.6749879109868
 30
0.0
 11
-393.0043791031677
 21
-294.1749879109867
 31
0.0
  0
LINE
  5
12D
330
2
100
AcDbEntity
  8
HID
100
AcDbLine
 10
-393.0043791031677
 20
906.8250120890132
 30
0.0
 11
-393.0043791031677
 21
907.8250120890132
 31
0.0
  0
LINE
  5
12E
330
2
100
AcDbEntity
  8
HID
100
AcDbLine
 10
-381.0043791031676
 20
892.3150686505422
 30
0.0
 11
-393.0043791031677
 21
892.3150686505422
 31
0.0
  0
LINE
  5
12F
330
2
100
AcDbEntity
  8
HID
100
AcDbLine
 10
-393.0043791031677
 20
877.47555183103
 30
0.0
 11
-381.0043791031676
 21
877.47555183103
 31
0.0
  0
LINE
  5
130
330
2
100
AcDbEntity
  8
HID
100
AcDbLine
 10
-381.0043791031676
 20
878.1459784499894
 30
0.0
 11
-381.0043791031676
 21
877.4755518310303
 31
0.0
  0
LINE
  5
131
330
2
100
AcDbEntity
  8
HID
100
AcDbLine
 10
-393.0043791031677
 20
878.1459784499887
 30
0.0
 11
-393.0043791031677
 21
877.47555183103
 31
0.0
  0
LINE
  5
132
330
2
100
AcDbEntity
  8
HID
100
AcDbLine
 10
-393.0043791031677
 20
877.47555183103
 30
0.0
 11
-398.0043791031676
 21
873.7656726261517
 31
0.0
  0
LINE
  5
133
330
2
100
AcDbEntity
  8
OUTLINE
100
AcDbLine
 10
-378.0043791031677
 20
907.8250120890134
 30
0.0
 11
-379.0043791031676
 21
907.8250120890134
 31
0.0
  0
LINE
  5
134
330
2
100
AcDbEntity
  8
HID
100
AcDbLine
 10
-379.0043791031676
 20
907.8250120890134
 30
0.0
 11
-398.0043791031676
 21
907.8250120890134
 31
0.0
  0
LINE
  5
135
330
2
100
AcDbEntity
  8
OUTLINE
100
AcDbLine
 10
-378.0043791031677
 20
907.8250120890139
 30
0.0
 11
-378.0043791031677
 21
694.8779457290121
 31
0.0
  0
LINE
  5
136
330
2
100
AcDbEntity
  8
HID
100
AcDbLine
 10
-398.0043791031676
 20
874.4360992451106
 30
0.0
 11
-393.0043791031677
 21
878.1459784499887
 31
0.0
  0
LINE
  5
137
330
2
100
AcDbEntity
  8
HID
100
AcDbLine
 10
-381.0043791031676
 20
878.1459784499887
 30
0.0
 11
-393.0043791031677
 21
878.1459784499887
 31
0.0
  0
LINE
  5
138
330
2
100
AcDbEntity
  8
HID
100
AcDbLine
 10
-381.0043791031676
 20
892.9854952695011
 30
0.0
 11
-381.0043791031676
 21
878.1459784499887
 31
0.0
  0
LINE
  5
139
330
2
100
AcDbEntity
  8
HID
100
AcDbLine
 10
-393.0043791031677
 20
892.9854952695009
 30
0.0
 11
-381.0043791031676
 21
892.9854952695009
 31
0.0
  0
LINE
  5
13A
330
2
100
AcDbEntity
  8
HID
100
AcDbLine
 10
-398.0043791031676
 20
907.8250120890139
 30
0.0
 11
-398.0043791031676
 21
896.6953744743802
 31
0.0
  0
LINE
  5
13B
330
2
100
AcDbEntity
  8
HID
100
AcDbLine
 10
-393.0043791031677
 20
892.3150686505422
 30
0.0
 11
-393.0043791031677
 21
892.9854952695011
 31
0.0
  0
LINE
  5
13C
330
2
100
AcDbEntity
  8
HID
100
AcDbLine
 10
-398.0043791031676
 20
896.0249478554205
 30
0.0
 11
-393.0043791031677
 21
892.3150686505422
 31
0.0
  0
LINE
  5
13D
330
2
100
AcDbEntity
  8
HID
100
AcDbLine
 10
-398.0043791031676
 20
896.6953744743799
 30
0.0
 11
-398.0043791031676
 21
896.024947855381
 31
0.0
  0
LINE
  5
13E
330
2
100
AcDbEntity
  8
HID
100
AcDbLine
 10
-393.0043791031677
 20
892.9854952695011
 30
0.0
 11
-398.0043791031676
 21
896.6953744743792
 31
0.0
  0
LINE
  5
13F
330
2
100
AcDbEntity
  8
OUTLINE
100
AcDbLine
 10
-378.0043791031677
 20
-294.1749879109867
 30
0.0
 11
-379.0043791031676
 21
-294.1749879109867
 31
0.0
  0
LINE
  5
140
330
2
100
AcDbEntity
  8
OUTLINE
100
AcDbLine
 10
-379.0043791031676
 20
-294.1749879109867
 30
0.0
 11
-393.0043791031677
 21
-294.1749879109867
 31
0.0
  0
LINE
  5
141
330
2
100
AcDbEntity
  8
OUTLINE
100
AcDbLine
 10
-393.0043791031677
 20
-271.6749879109867
 30
0.0
 11
-379.0043791031676
 21
-271.6749879109867
 31
0.0
  0
LINE
  5
142
330
2
100
AcDbEntity
  8
HID
100
AcDbLine
 10
-398.0043791031676
 20
874.4360992451111
 30
0.0
 11
-398.0043791031676
 21
694.877945729012
 31
0.0
  0
LINE
  5
143
330
2
100
AcDbEntity
  8
HID
100
AcDbLine
 10
-379.0043791031676
 20
114.9242599141045
 30
0.0
 11
-379.0043791031675
 21
-271.6749879109868
 31
0.0
  0
LINE
  5
144
330
2
100
AcDbEntity
  8
OUTLINE
100
AcDbLine
 10
-393.0043791031677
 20
-271.6749879109866
 30
0.0
 11
-398.0043791031676
 21
-266.6749879109866
 31
0.0
  0
LINE
  5
145
330
2
100
AcDbEntity
  8
HID
100
AcDbLine
 10
-379.0043791031676
 20
125.4020899293631
 30
0.0
 11
-398.0043791031676
 21
125.4020899293631
 31
0.0
  0
LINE
  5
146
330
2
100
AcDbEntity
  8
HID
100
AcDbLine
 10
-398.0043791031676
 20
125.1665180473176
 30
0.0
 11
-398.0043791031676
 21
112.2342052443556
 31
0.0
  0
LINE
  5
147
330
2
100
AcDbEntity
  8
OUTLINE
100
AcDbLine
 10
-398.0043791031676
 20
110.703891697199
 30
0.0
 11
-398.0043791031675
 21
-266.6749879109866
 31
0.0
  0
LINE
  5
148
330
2
100
AcDbEntity
  8
OUTLINE
100
AcDbLine
 10
-378.0043791031677
 20
694.8779457290112
 30
0.0
 11
-379.0043791031676
 21
694.8779457290112
 31
0.0
  0
LINE
  5
149
330
2
100
AcDbEntity
  8
OUTLINE
100
AcDbLine
 10
-378.0043791031677
 20
694.8779457290111
 30
0.0
 11
-378.0043791031677
 21
125.1665180473176
 31
0.0
  0
LINE
  5
14A
330
2
100
AcDbEntity
  8
OUTLINE
100
AcDbLine
 10
-378.0043791031677
 20
125.1665180473173
 30
0.0
 11
-379.0043791031676
 21
125.1665180473173
 31
0.0
  0
LINE
  5
14B
330
2
100
AcDbEntity
  8
HID
100
AcDbLine
 10
-379.0043791031676
 20
125.1665180473173
 30
0.0
 11
-398.0043791031676
 21
125.1665180473173
 31
0.0
  0
LINE
  5
14C
330
2
100
AcDbEntity
  8
HID
100
AcDbLine
 10
-398.0043791031676
 20
690.2686299710685
 30
0.0
 11
-398.0043791031676
 21
125.1665180473177
 31
0.0
  0
LINE
  5
14D
330
2
100
AcDbEntity
  8
HID
100
AcDbLine
 10
-398.0043791031676
 20
694.467355354208
 30
0.0
 11
-398.0043791031676
 21
694.8779457290112
 31
0.0
  0
LINE
  5
14E
330
2
100
AcDbEntity
  8
HID
100
AcDbLine
 10
-379.0043791031676
 20
694.8779457290112
 30
0.0
 11
-398.0043791031676
 21
694.8779457290112
 31
0.0
  0
LINE
  5
14F
330
2
100
AcDbEntity
  8
HID
100
AcDbLine
 10
-379.0043791031676
 20
694.4673553542059
 30
0.0
 11
-398.0043791031676
 21
694.4673553542059
 31
0.0
  0
LINE
  5
150
330
2
100
AcDbEntity
  8
HID
100
AcDbLine
 10
-379.0043791031676
 20
690.2686299710687
 30
0.0
 11
-398.0043791031676
 21
690.2686299710687
 31
0.0
  0
LINE
  5
151
330
2
100
AcDbEntity
  8
HID
100
AcDbLine
 10
-398.0043791031676
 20
689.8811143846167
 30
0.0
 11
-379.0043791031676
 21
689.8811143846167
 31
0.0
  0
LINE
  5
152
330
2
100
AcDbEntity
  8
HID
100
AcDbLine
 10
-378.0043791031677
 20
-261.1749879109866
 30
0.0
 11
-379.0043791031676
 21
-261.1749879109866
 31
0.0
  0
LINE
  5
153
330
2
100
AcDbEntity
  8
HID
100
AcDbLine
 10
-378.0043791031677
 20
-264.1749879109866
 30
0.0
 11
-379.0043791031676
 21
-264.1749879109866
 31
0.0
  0
LINE
  5
154
330
2
100
AcDbEntity
  8
HID
100
AcDbLine
 10
-392.0043791031677
 20
858.1126307436473
 30
0.0
 11
-392.0043791031677
 21
857.4422041246887
 31
0.0
  0
LINE
  5
155
330
2
100
AcDbEntity
  8
HID
100
AcDbLine
 10
-388.0043791031677
 20
858.1126307436473
 30
0.0
 11
-388.0043791031677
 21
857.4422041246883
 31
0.0
  0
LINE
  5
156
330
2
100
AcDbEntity
  8
HID
100
AcDbLine
 10
-392.0043791031677
 20
731.9767377777925
 30
0.0
 11
-392.0043791031677
 21
731.3063111588336
 31
0.0
  0
LINE
  5
157
330
2
100
AcDbEntity
  8
HID
100
AcDbLine
 10
-388.0043791031677
 20
731.9767377777925
 30
0.0
 11
-388.0043791031677
 21
731.3063111588336
 31
0.0
  0
LINE
  5
158
330
2
100
AcDbEntity
  8
HID
100
AcDbLine
 10
-392.0043791031677
 20
540.0049362621428
 30
0.0
 11
-392.0043791031677
 21
539.6174206756911
 31
0.0
  0
LINE
  5
159
330
2
100
AcDbEntity
  8
HID
100
AcDbLine
 10
-388.0043791031677
 20
540.0049362621433
 30
0.0
 11
-388.0043791031677
 21
539.6174206756911
 31
0.0
  0
LINE
  5
15A
330
2
100
AcDbEntity
  8
HID
100
AcDbLine
 10
-392.0043791031677
 20
355.632305944443
 30
0.0
 11
-392.0043791031677
 21
355.2447903579907
 31
0.0
  0
LINE
  5
15B
330
2
100
AcDbEntity
  8
HID
100
AcDbLine
 10
-388.0043791031677
 20
355.6323059444431
 30
0.0
 11
-388.0043791031677
 21
355.2447903579907
 31
0.0
  0
LINE
  5
15C
330
2
100
AcDbEntity
  8
HID
100
AcDbLine
 10
-392.0043791031677
 20
171.2596756267421
 30
0.0
 11
-392.0043791031677
 21
170.8721600402905
 31
0.0
  0
LINE
  5
15D
330
2
100
AcDbEntity
  8
HID
100
AcDbLine
 10
-388.0043791031677
 20
171.2596756267428
 30
0.0
 11
-388.0043791031677
 21
170.8721600402905
 31
0.0
  0
LINE
  5
15E
330
2
100
AcDbEntity
  8
HID
100
AcDbLine
 10
-388.0043791031677
 20
45.69628494212365
 30
0.0
 11
-388.0043791031677
 21
46.40720146773193
 31
0.0
  0
LINE
  5
15F
330
2
100
AcDbEntity
  8
HID
100
AcDbLine
 10
-392.0043791031677
 20
45.69628494212422
 30
0.0
 11
-392.0043791031677
 21
46.40720146773229
 31
0.0
  0
LINE
  5
160
330
2
100
AcDbEntity
  8
HID
100
AcDbLine
 10
-388.0043791031677
 20
-200.4504547642268
 30
0.0
 11
-388.0043791031677
 21
-199.7395382386161
 31
0.0
  0
LINE
  5
161
330
2
100
AcDbEntity
  8
HID
100
AcDbLine
 10
-392.0043791031677
 20
-200.4504547642256
 30
0.0
 11
-392.0043791031677
 21
-199.7395382386163
 31
0.0
  0
LINE
  5
162
330
2
100
AcDbEntity
  8
HID
100
AcDbLine
 10
-378.0043791031671
 20
-274.1749879109867
 30
0.0
 11
-379.0043791031671
 21
-274.1749879109867
 31
0.0
  0
LINE
  5
163
330
2
100
AcDbEntity
  8
HID
100
AcDbLine
 10
-378.0043791031671
 20
-279.1749879109866
 30
0.0
 11
-379.0043791031671
 21
-279.1749879109866
 31
0.0
  0
ARC
  5
164
330
2
100
AcDbEntity
  8
OUTLINE
100
AcDbCircle
 10
-386.0043791031677
 20
884.8250120890131
 30
0.0
 40
3.500000000000001
100
AcDbArc
 50
162.1957677459435
 51
187.9704984812457
  0
ARC
  5
165
330
2
100
AcDbEntity
  8
HID
100
AcDbCircle
 10
-386.0043791031677
 20
884.8250120890131
 30
0.0
 40
3.500000000000001
100
AcDbArc
 50
187.9704984812457
 51
162.1957677459435
  0
CIRCLE
  5
166
330
2
100
AcDbEntity
  8
HID
100
AcDbCircle
 10
-386.0043791031677
 20
302.8250120890133
 30
0.0
 40
3.500000000000001
  0
CIRCLE
  5
167
330
2
100
AcDbEntity
  8
OUTLINE
100
AcDbCircle
 10
-386.0043791031677
 20
-279.1749879109866
 30
0.0
 40
3.500000000000001
  0
ELLIPSE
  5
168
330
2
100
AcDbEntity
  8
OUTLINE
100
AcDbEllipse
 10
-390.0043791031677
 20
857.4422041246883
 30
0.0
 11
2.0
 21
0.0
 31
0.0
210
0.0
220
0.0
230
1.0
 40
0.7419758409756163
 41
0.2278589501836147
 42
2.913733703406136
  0
ELLIPSE
  5
169
330
2
100
AcDbEntity
  8
HID
100
AcDbEllipse
 10
-390.0043791031677
 20
857.4422041246883
 30
0.0
 11
2.0
 21
0.0
 31
0.0
210
0.0
220
0.0
230
1.0
 40
0.7419758409756163
 41
2.913733703406136
 42
6.5110442573632
  0
ELLIPSE
  5
16A
330
2
100
AcDbEntity
  8
OUTLINE
100
AcDbEllipse
 10
-390.0043791031677
 20
731.3063111588334
 30
0.0
 11
2.0
 21
0.0
 31
0.0
210
0.0
220
0.0
230
1.0
 40
0.7419758409756163
 41
0.2278589501839332
 42
2.913733703405858
  0
ELLIPSE
  5
16B
330
2
100
AcDbEntity
  8
HID
100
AcDbEllipse
 10
-390.0043791031677
 20
731.3063111588334
 30
0.0
 11
2.0
 21
0.0
 31
0.0
210
0.0
220
0.0
230
1.0
 40
0.7419758409756163
 41
2.913733703405858
 42
6.511044257363517
  0
ELLIPSE
  5
16C
330
2
100
AcDbEntity
  8
HID
100
AcDbEllipse
 10
-390.0043791031677
 20
731.9767377777922
 30
0.0
 11
-2.0
 21
0.0
 31
0.0
210
0.0
220
0.0
230
1.0
 40
0.7419758409756163
 41
0.4078523531603949
 42
2.733740300429397
  0
ELLIPSE
  5
16D
330
2
100
AcDbEntity
  8
OUTLINE
100
AcDbEllipse
 10
-390.0043791031677
 20
731.9767377777922
 30
0.0
 11
-2.0
 21
0.0
 31
0.0
210
0.0
220
0.0
230
1.0
 40
0.7419758409756163
 41
2.733740300429397
 42
6.691037660339979
  0
ELLIPSE
  5
16E
330
2
100
AcDbEntity
  8
HID
100
AcDbEllipse
 10
-390.0043791031677
 20
858.1126307436473
 30
0.0
 11
-2.0
 21
0.0
 31
0.0
210
0.0
220
0.0
230
1.0
 40
0.7419758409756163
 41
0.4078523531603175
 42
2.733740300429436
  0
ELLIPSE
  5
16F
330
2
100
AcDbEntity
  8
OUTLINE
100
AcDbEllipse
 10
-390.0043791031677
 20
858.1126307436473
 30
0.0
 11
-2.0
 21
0.0
 31
0.0
210
0.0
220
0.0
230
1.0
 40
0.7419758409756163
 41
2.733740300429436
 42
6.691037660339902
  0
ELLIPSE
  5
170
330
2
100
AcDbEntity
  8
OUTLINE
100
AcDbEllipse
 10
-390.0043791031677
 20
170.872160040291
 30
0.0
 11
2.0
 21
0.0
 31
0.0
210
0.0
220
0.0
230
1.0
 40
0.9218631515885002
 41
0.1052847268106982
 42
3.036307926779132
  0
ELLIPSE
  5
171
330
2
100
AcDbEntity
  8
HID
100
AcDbEllipse
 10
-390.0043791031677
 20
170.872160040291
 30
0.0
 11
2.0
 21
0.0
 31
0.0
210
0.0
220
0.0
230
1.0
 40
0.9218631515885002
 41
3.036307926779132
 42
6.388470033990284
  0
ELLIPSE
  5
172
330
2
100
AcDbEntity
  8
OUTLINE
100
AcDbEllipse
 10
-390.0043791031677
 20
355.2447903579911
 30
0.0
 11
2.0
 21
0.0
 31
0.0
210
0.0
220
0.0
230
1.0
 40
0.9218631515885002
 41
0.1052847268106038
 42
3.036307926779227
  0
ELLIPSE
  5
173
330
2
100
AcDbEntity
  8
HID
100
AcDbEllipse
 10
-390.0043791031677
 20
355.2447903579911
 30
0.0
 11
2.0
 21
0.0
 31
0.0
210
0.0
220
0.0
230
1.0
 40
0.9218631515885002
 41
3.036307926779227
 42
6.38847003399019
  0
ELLIPSE
  5
174
330
2
100
AcDbEntity
  8
OUTLINE
100
AcDbEllipse
 10
-390.0043791031677
 20
539.6174206756911
 30
0.0
 11
2.0
 21
0.0
 31
0.0
210
0.0
220
0.0
230
1.0
 40
0.9218631515885002
 41
0.1052847268104898
 42
3.036307926779302
  0
ELLIPSE
  5
175
330
2
100
AcDbEntity
  8
HID
100
AcDbEllipse
 10
-390.0043791031677
 20
539.6174206756911
 30
0.0
 11
2.0
 21
0.0
 31
0.0
210
0.0
220
0.0
230
1.0
 40
0.9218631515885002
 41
3.036307926779302
 42
6.388470033990075
  0
ELLIPSE
  5
176
330
2
100
AcDbEntity
  8
OUTLINE
100
AcDbEllipse
 10
-390.0043791031677
 20
171.259675626743
 30
0.0
 11
-2.0
 21
0.0
 31
0.0
210
0.0
220
0.0
230
1.0
 40
0.9218631515885002
 41
0.0000000000000002
 42
6.283185307179585
  0
ELLIPSE
  5
177
330
2
100
AcDbEntity
  8
OUTLINE
100
AcDbEllipse
 10
-390.0043791031677
 20
355.6323059444433
 30
0.0
 11
-2.0
 21
0.0
 31
0.0
210
0.0
220
0.0
230
1.0
 40
0.9218631515885002
 41
0.0000000000000002
 42
6.283185307179585
  0
ELLIPSE
  5
178
330
2
100
AcDbEntity
  8
OUTLINE
100
AcDbEllipse
 10
-390.0043791031677
 20
540.0049362621431
 30
0.0
 11
-2.0
 21
0.0
 31
0.0
210
0.0
220
0.0
230
1.0
 40
0.9218631515885002
 41
0.0000000000000002
 42
6.283185307179585
  0
ELLIPSE
  5
179
330
2
100
AcDbEntity
  8
OUTLINE
100
AcDbEllipse
 10
-390.0043791031677
 20
45.69628494212446
 30
0.0
 11
-2.0
 21
0.0
 31
0.0
210
0.0
220
0.0
230
1.0
 40
0.7032763991609991
 41
0.0000000000000002
 42
6.283185307179585
  0
ELLIPSE
  5
17A
330
2
100
AcDbEntity
  8
OUTLINE
100
AcDbEllipse
 10
-390.0043791031677
 20
46.40720146773282
 30
0.0
 11
2.0
 21
0.0
 31
0.0
210
0.0
220
0.0
230
1.0
 40
0.7032763991609991
 41
3.397078903107503
 42
6.027699057661875
  0
ELLIPSE
  5
17B
330
2
100
AcDbEntity
  8
HID
100
AcDbEllipse
 10
-390.0043791031677
 20
46.40720146773282
 30
0.0
 11
2.0
 21
0.0
 31
0.0
210
0.0
220
0.0
230
1.0
 40
0.7032763991609991
 41
6.027699057661875
 42
9.680264210287088
  0
ELLIPSE
  5
17C
330
2
100
AcDbEntity
  8
OUTLINE
100
AcDbEllipse
 10
-390.0043791031677
 20
-200.4504547642251
 30
0.0
 11
-2.0
 21
0.0
 31
0.0
210
0.0
220
0.0
230
1.0
 40
0.7032763991609991
 41
0.0000000000000002
 42
6.283185307179585
  0
ELLIPSE
  5
17D
330
2
100
AcDbEntity
  8
OUTLINE
100
AcDbEllipse
 10
-390.0043791031677
 20
-199.7395382386168
 30
0.0
 11
2.0
 21
0.0
 31
0.0
210
0.0
220
0.0
230
1.0
 40
0.7032763991609991
 41
3.397078903107773
 42
6.027699057661604
  0
ELLIPSE
  5
17E
330
2
100
AcDbEntity
  8
HID
100
AcDbEllipse
 10
-390.0043791031677
 20
-199.7395382386168
 30
0.0
 11
2.0
 21
0.0
 31
0.0
210
0.0
220
0.0
230
1.0
 40
0.7032763991609991
 41
6.027699057661604
 42
9.68026421028736
  0
LINE
  5
17F
330
2
100
AcDbEntity
  8
OUTLINE
100
AcDbLine
 10
-1451.004379103167
 20
678.8108284741537
 30
0.0
 11
-1451.004379103167
 21
124.7717857535525
 31
0.0
  0
LINE
  5
180
330
2
100
AcDbEntity
  8
OUTLINE
100
AcDbLine
 10
-379.0043791031676
 20
124.7717857535523
 30
0.0
 11
-379.0043791031675
 21
678.8108284741539
 31
0.0
  0
LINE
  5
181
330
2
100
AcDbEntity
  8
HID
100
AcDbLine
 10
-1451.004379103167
 20
690.4082452400209
 30
0.0
 11
-379.0043791031676
 21
690.4082452400209
 31
0.0
  0
LINE
  5
182
330
2
100
AcDbEntity
  8
HID
100
AcDbLine
 10
-1451.004379103167
 20
125.0072458876532
 30
0.0
 11
-379.0043791031676
 21
125.0072458876532
 31
0.0
  0
LINE
  5
183
330
2
100
AcDbEntity
  8
HID
100
AcDbLine
 10
-1432.004379103167
 20
112.1180858738824
 30
0.0
 11
-1432.004379103167
 21
111.4072864000164
 31
0.0
  0
LINE
  5
184
330
2
100
AcDbEntity
  8
HID
100
AcDbLine
 10
-1446.004379103167
 20
112.1180858738821
 30
0.0
 11
-1432.004379103167
 21
112.1180858738821
 31
0.0
  0
LINE
  5
185
330
2
100
AcDbEntity
  8
HID
100
AcDbLine
 10
-1446.004379103167
 20
112.1180858738823
 30
0.0
 11
-1446.004379103167
 21
111.4072864000164
 31
0.0
  0
LINE
  5
186
330
2
100
AcDbEntity
  8
HID
100
AcDbLine
 10
-1451.004379103167
 20
115.6350593879709
 30
0.0
 11
-1446.004379103167
 21
112.1180858738823
 31
0.0
  0
LINE
  5
187
330
2
100
AcDbEntity
  8
HID
100
AcDbLine
 10
-1427.004379103167
 20
121.3658838051868
 30
0.0
 11
-1432.004379103167
 21
117.8118864358575
 31
0.0
  0
LINE
  5
188
330
2
100
AcDbEntity
  8
OUTLINE
100
AcDbLine
 10
-398.0043791031676
 20
110.7038916971987
 30
0.0
 11
-398.0043791031676
 21
111.4072864000164
 31
0.0
  0
LINE
  5
189
330
2
100
AcDbEntity
  8
OUTLINE
100
AcDbLine
 10
-1432.004379103167
 20
110.7038916971985
 30
0.0
 11
-398.0043791031676
 21
110.7038916971985
 31
0.0
  0
LINE
  5
18A
330
2
100
AcDbEntity
  8
OUTLINE
100
AcDbLine
 10
-1432.004379103167
 20
111.4072864000164
 30
0.0
 11
-1432.004379103167
 21
110.7038916971987
 31
0.0
  0
LINE
  5
18B
330
2
100
AcDbEntity
  8
OUTLINE
100
AcDbLine
 10
-1446.004379103167
 20
111.4072864000164
 30
0.0
 11
-1432.004379103167
 21
111.4072864000164
 31
0.0
  0
LINE
  5
18C
330
2
100
AcDbEntity
  8
OUTLINE
100
AcDbLine
 10
-1446.004379103167
 20
111.4072864000164
 30
0.0
 11
-1451.004379103167
 21
114.9242599141049
 31
0.0
  0
LINE
  5
18D
330
2
100
AcDbEntity
  8
OUTLINE
100
AcDbLine
 10
-1451.004379103167
 20
124.7717857535522
 30
0.0
 11
-1451.004379103167
 21
114.9242599141052
 31
0.0
  0
LINE
  5
18E
330
2
100
AcDbEntity
  8
OUTLINE
100
AcDbLine
 10
-1451.004379103167
 20
124.7717857535522
 30
0.0
 11
-379.0043791031676
 21
124.7717857535522
 31
0.0
  0
LINE
  5
18F
330
2
100
AcDbEntity
  8
OUTLINE
100
AcDbLine
 10
-379.0043791031676
 20
114.9242599141051
 30
0.0
 11
-379.0043791031676
 21
124.7717857535522
 31
0.0
  0
LINE
  5
190
330
2
100
AcDbEntity
  8
HID
100
AcDbLine
 10
-398.0043791031676
 20
112.1180858738821
 30
0.0
 11
-384.0043791031677
 21
112.1180858738821
 31
0.0
  0
LINE
  5
191
330
2
100
AcDbEntity
  8
HID
100
AcDbLine
 10
-398.0043791031676
 20
111.4072864000164
 30
0.0
 11
-398.0043791031676
 21
112.1180858738824
 31
0.0
  0
LINE
  5
192
330
2
100
AcDbEntity
  8
OUTLINE
100
AcDbLine
 10
-398.0043791031676
 20
111.4072864000164
 30
0.0
 11
-384.0043791031677
 21
111.4072864000164
 31
0.0
  0
LINE
  5
193
330
2
100
AcDbEntity
  8
HID
100
AcDbLine
 10
-384.0043791031677
 20
111.4072864000164
 30
0.0
 11
-384.0043791031677
 21
112.1180858738824
 31
0.0
  0
LINE
  5
194
330
2
100
AcDbEntity
  8
OUTLINE
100
AcDbLine
 10
-379.0043791031676
 20
114.9242599141049
 30
0.0
 11
-384.0043791031677
 21
111.4072864000164
 31
0.0
  0
LINE
  5
195
330
2
100
AcDbEntity
  8
HID
100
AcDbLine
 10
-384.0043791031677
 20
112.1180858738823
 30
0.0
 11
-379.0043791031676
 21
115.6350593879709
 31
0.0
  0
LINE
  5
196
330
2
100
AcDbEntity
  8
HID
100
AcDbLine
 10
-1427.004379103167
 20
122.0692785080047
 30
0.0
 11
-1427.004379103167
 21
121.3658838051868
 31
0.0
  0
LINE
  5
197
330
2
100
AcDbEntity
  8
HID
100
AcDbLine
 10
-1427.004379103167
 20
121.3658838051867
 30
0.0
 11
-403.0043791031674
 21
121.3658838051867
 31
0.0
  0
LINE
  5
198
330
2
100
AcDbEntity
  8
HID
100
AcDbLine
 10
-398.0043791031676
 20
112.1180858738822
 30
0.0
 11
-398.0043791031676
 21
112.234205244355
 31
0.0
  0
LINE
  5
199
330
2
100
AcDbEntity
  8
HID
100
AcDbLine
 10
-1432.004379103167
 20
112.1180858738821
 30
0.0
 11
-398.0043791031676
 21
112.1180858738821
 31
0.0
  0
LINE
  5
19A
330
2
100
AcDbEntity
  8
HID
100
AcDbLine
 10
-1432.004379103167
 20
112.2342052427161
 30
0.0
 11
-1432.004379103167
 21
112.1180858738822
 31
0.0
  0
LINE
  5
19B
330
2
100
AcDbEntity
  8
HID
100
AcDbLine
 10
-1432.004379103167
 20
118.5152811386749
 30
0.0
 11
-1427.004379103167
 21
122.0692785080042
 31
0.0
  0
LINE
  5
19C
330
2
100
AcDbEntity
  8
HID
100
AcDbLine
 10
-1427.004379103167
 20
122.0692785080047
 30
0.0
 11
-403.0043791031674
 21
122.0692785080047
 31
0.0
  0
LINE
  5
19D
330
2
100
AcDbEntity
  8
HID
100
AcDbLine
 10
-403.0043791031674
 20
122.0692785080042
 30
0.0
 11
-398.0043791031676
 21
118.5152811386749
 31
0.0
  0
LINE
  5
19E
330
2
100
AcDbEntity
  8
HID
100
AcDbLine
 10
-403.0043791031674
 20
121.3658838051868
 30
0.0
 11
-403.0043791031674
 21
122.0692785080048
 31
0.0
  0
LINE
  5
19F
330
2
100
AcDbEntity
  8
HID
100
AcDbLine
 10
-398.0043791031676
 20
117.8118864358575
 30
0.0
 11
-403.0043791031674
 21
121.3658838051868
 31
0.0
  0
LINE
  5
1A0
330
2
100
AcDbEntity
  8
HID
100
AcDbLine
 10
-1446.004379103167
 20
684.5955114430992
 30
0.0
 11
-1451.004379103167
 21
686.5330893754064
 31
0.0
  0
LINE
  5
1A1
330
2
100
AcDbEntity
  8
HID
100
AcDbLine
 10
-1446.004379103167
 20
685.5173745946835
 30
0.0
 11
-1446.004379103167
 21
684.5955114430993
 31
0.0
  0
LINE
  5
1A2
330
2
100
AcDbEntity
  8
HID
100
AcDbLine
 10
-1446.004379103167
 20
684.5955114430992
 30
0.0
 11
-1282.066639230559
 21
684.5955114430992
 31
0.0
  0
LINE
  5
1A3
330
2
100
AcDbEntity
  8
OUTLINE
100
AcDbLine
 10
-1282.066639230559
 20
684.5955114430992
 30
0.0
 11
-1279.942118975776
 21
684.5955114430992
 31
0.0
  0
LINE
  5
1A4
330
2
100
AcDbEntity
  8
HID
100
AcDbLine
 10
-1279.942118975776
 20
684.5955114430992
 30
0.0
 11
-916.0666392305587
 21
684.5955114430992
 31
0.0
  0
LINE
  5
1A5
330
2
100
AcDbEntity
  8
OUTLINE
100
AcDbLine
 10
-916.0666392305587
 20
684.5955114430992
 30
0.0
 11
-913.9421189757763
 21
684.5955114430992
 31
0.0
  0
LINE
  5
1A6
330
2
100
AcDbEntity
  8
HID
100
AcDbLine
 10
-913.9421189757763
 20
684.5955114430992
 30
0.0
 11
-550.0666392305593
 21
684.5955114430992
 31
0.0
  0
LINE
  5
1A7
330
2
100
AcDbEntity
  8
OUTLINE
100
AcDbLine
 10
-550.0666392305593
 20
684.5955114430992
 30
0.0
 11
-547.9421189757759
 21
684.5955114430992
 31
0.0
  0
LINE
  5
1A8
330
2
100
AcDbEntity
  8
HID
100
AcDbLine
 10
-547.9421189757759
 20
684.5955114430992
 30
0.0
 11
-384.0043791031677
 21
684.5955114430992
 31
0.0
  0
LINE
  5
1A9
330
2
100
AcDbEntity
  8
HID
100
AcDbLine
 10
-1451.004379103167
 20
691.7176239780663
 30
0.0
 11
-379.0043791031676
 21
691.7176239780663
 31
0.0
  0
LINE
  5
1AA
330
2
100
AcDbEntity
  8
HID
100
AcDbLine
 10
-1451.004379103168
 20
687.4549525269904
 30
0.0
 11
-1446.004379103167
 21
685.5173745946832
 31
0.0
  0
LINE
  5
1AB
330
2
100
AcDbEntity
  8
HID
100
AcDbLine
 10
-1446.004379103167
 20
685.5173745946833
 30
0.0
 11
-384.0043791031677
 21
685.5173745946833
 31
0.0
  0
LINE
  5
1AC
330
2
100
AcDbEntity
  8
HID
100
AcDbLine
 10
-384.0043791031677
 20
684.5955114430992
 30
0.0
 11
-384.0043791031677
 21
685.5173745946833
 31
0.0
  0
LINE
  5
1AD
330
2
100
AcDbEntity
  8
HID
100
AcDbLine
 10
-379.0043791031676
 20
686.5330893754067
 30
0.0
 11
-384.0043791031677
 21
684.5955114430992
 31
0.0
  0
LINE
  5
1AE
330
2
100
AcDbEntity
  8
HID
100
AcDbLine
 10
-384.0043791031677
 20
685.5173745946832
 30
0.0
 11
-379.0043791031676
 21
687.4549525269904
 31
0.0
  0
LINE
  5
1AF
330
2
100
AcDbEntity
  8
HID
100
AcDbLine
 10
-1279.004379103167
 20
683.0333400273437
 30
0.0
 11
-1279.004379103167
 21
683.4208556138054
 31
0.0
  0
LINE
  5
1B0
330
2
100
AcDbEntity
  8
HID
100
AcDbLine
 10
-1283.004379103167
 20
683.0333400273437
 30
0.0
 11
-1283.004379103167
 21
683.4208556138047
 31
0.0
  0
LINE
  5
1B1
330
2
100
AcDbEntity
  8
HID
100
AcDbLine
 10
-547.0043791031676
 20
683.0333400273437
 30
0.0
 11
-547.0043791031676
 21
683.4208556138054
 31
0.0
  0
LINE
  5
1B2
330
2
100
AcDbEntity
  8
HID
100
AcDbLine
 10
-551.0043791031676
 20
683.0333400273437
 30
0.0
 11
-551.0043791031676
 21
683.4208556138047
 31
0.0
  0
LINE
  5
1B3
330
2
100
AcDbEntity
  8
HID
100
AcDbLine
 10
-917.0043791031675
 20
683.4208556138054
 30
0.0
 11
-917.0043791031675
 21
683.0333400273437
 31
0.0
  0
LINE
  5
1B4
330
2
100
AcDbEntity
  8
HID
100
AcDbLine
 10
-913.0043791031676
 20
683.4208556138054
 30
0.0
 11
-913.0043791031676
 21
683.0333400273437
 31
0.0
  0
LINE
  5
1B5
330
2
100
AcDbEntity
  8
HID
100
AcDbLine
 10
-1443.504379103167
 20
171.7868064843663
 30
0.0
 11
-1443.504379103167
 21
171.3992908979044
 31
0.0
  0
LINE
  5
1B6
330
2
100
AcDbEntity
  8
HID
100
AcDbLine
 10
-1436.504379103167
 20
171.7868064843655
 30
0.0
 11
-1436.504379103167
 21
171.3992908979045
 31
0.0
  0
LINE
  5
1B7
330
2
100
AcDbEntity
  8
HID
100
AcDbLine
 10
-1443.504379103167
 20
356.1594368012817
 30
0.0
 11
-1443.504379103167
 21
355.7719212148197
 31
0.0
  0
LINE
  5
1B8
330
2
100
AcDbEntity
  8
HID
100
AcDbLine
 10
-1436.504379103167
 20
356.1594368012809
 30
0.0
 11
-1436.504379103167
 21
355.7719212148198
 31
0.0
  0
LINE
  5
1B9
330
2
100
AcDbEntity
  8
HID
100
AcDbLine
 10
-1443.504379103167
 20
540.5320671181966
 30
0.0
 11
-1443.504379103167
 21
540.1445515317347
 31
0.0
  0
LINE
  5
1BA
330
2
100
AcDbEntity
  8
HID
100
AcDbLine
 10
-1436.504379103167
 20
540.532067118196
 30
0.0
 11
-1436.504379103167
 21
540.144551531735
 31
0.0
  0
LINE
  5
1BB
330
2
100
AcDbEntity
  8
HID
100
AcDbLine
 10
-393.5043791031676
 20
171.7868064843655
 30
0.0
 11
-393.5043791031676
 21
171.3992908979042
 31
0.0
  0
LINE
  5
1BC
330
2
100
AcDbEntity
  8
HID
100
AcDbLine
 10
-386.5043791031677
 20
171.7868064843652
 30
0.0
 11
-386.5043791031677
 21
171.3992908979044
 31
0.0
  0
LINE
  5
1BD
330
2
100
AcDbEntity
  8
HID
100
AcDbLine
 10
-393.5043791031676
 20
356.1594368012809
 30
0.0
 11
-393.5043791031676
 21
355.7719212148195
 31
0.0
  0
LINE
  5
1BE
330
2
100
AcDbEntity
  8
HID
100
AcDbLine
 10
-386.5043791031677
 20
356.1594368012805
 30
0.0
 11
-386.5043791031677
 21
355.7719212148196
 31
0.0
  0
LINE
  5
1BF
330
2
100
AcDbEntity
  8
HID
100
AcDbLine
 10
-393.5043791031676
 20
540.532067118196
 30
0.0
 11
-393.5043791031676
 21
540.1445515317345
 31
0.0
  0
LINE
  5
1C0
330
2
100
AcDbEntity
  8
HID
100
AcDbLine
 10
-386.5043791031677
 20
540.5320671181957
 30
0.0
 11
-386.5043791031677
 21
540.1445515317346
 31
0.0
  0
LINE
  5
1C1
330
2
100
AcDbEntity
  8
HID
100
AcDbLine
 10
-1279.004379103167
 20
117.7378387253756
 30
0.0
 11
-1279.004379103167
 21
118.4486381992424
 31
0.0
  0
LINE
  5
1C2
330
2
100
AcDbEntity
  8
HID
100
AcDbLine
 10
-1283.004379103167
 20
117.7378387253759
 30
0.0
 11
-1283.004379103167
 21
118.4486381992428
 31
0.0
  0
LINE
  5
1C3
330
2
100
AcDbEntity
  8
HID
100
AcDbLine
 10
-1035.004379103168
 20
117.7378387253765
 30
0.0
 11
-1035.004379103168
 21
118.4486381992421
 31
0.0
  0
LINE
  5
1C4
330
2
100
AcDbEntity
  8
HID
100
AcDbLine
 10
-1039.004379103167
 20
117.7378387253756
 30
0.0
 11
-1039.004379103167
 21
118.4486381992424
 31
0.0
  0
LINE
  5
1C5
330
2
100
AcDbEntity
  8
HID
100
AcDbLine
 10
-791.0043791031676
 20
117.7378387253765
 30
0.0
 11
-791.0043791031676
 21
118.4486381992421
 31
0.0
  0
LINE
  5
1C6
330
2
100
AcDbEntity
  8
HID
100
AcDbLine
 10
-795.0043791031675
 20
117.7378387253756
 30
0.0
 11
-795.0043791031675
 21
118.4486381992424
 31
0.0
  0
LINE
  5
1C7
330
2
100
AcDbEntity
  8
HID
100
AcDbLine
 10
-547.0043791031676
 20
117.7378387253765
 30
0.0
 11
-547.0043791031676
 21
118.4486381992421
 31
0.0
  0
LINE
  5
1C8
330
2
100
AcDbEntity
  8
HID
100
AcDbLine
 10
-551.0043791031676
 20
117.7378387253756
 30
0.0
 11
-551.0043791031676
 21
118.4486381992424
 31
0.0
  0
ELLIPSE
  5
1C9
330
2
100
AcDbEntity
  8
OUTLINE
100
AcDbEllipse
 10
-1281.004379103167
 20
683.4208556138052
 30
0.0
 11
-2.0
 21
0.0
 31
0.0
210
0.0
220
0.0
230
1.0
 40
0.9218631515845762
 41
0.0000000000000002
 42
6.283185307179585
  0
ELLIPSE
  5
1CA
330
2
100
AcDbEntity
  8
OUTLINE
100
AcDbEllipse
 10
-1281.004379103167
 20
683.0333400273437
 30
0.0
 11
2.0
 21
0.0
 31
0.0
210
0.0
220
0.0
230
1.0
 40
0.9218631515845759
 41
0.1052847268135458
 42
3.036307926776193
  0
ELLIPSE
  5
1CB
330
2
100
AcDbEntity
  8
HID
100
AcDbEllipse
 10
-1281.004379103167
 20
683.0333400273437
 30
0.0
 11
2.0
 21
0.0
 31
0.0
210
0.0
220
0.0
230
1.0
 40
0.9218631515845759
 41
3.036307926776193
 42
6.38847003399313
  0
ELLIPSE
  5
1CC
330
2
100
AcDbEntity
  8
OUTLINE
100
AcDbEllipse
 10
-549.0043791031674
 20
683.4208556138052
 30
0.0
 11
-2.0
 21
0.0
 31
0.0
210
0.0
220
0.0
230
1.0
 40
0.9218631515845762
 41
0.0000000000000002
 42
6.283185307179585
  0
ELLIPSE
  5
1CD
330
2
100
AcDbEntity
  8
OUTLINE
100
AcDbEllipse
 10
-549.0043791031674
 20
683.0333400273437
 30
0.0
 11
2.0
 21
0.0
 31
0.0
210
0.0
220
0.0
230
1.0
 40
0.9218631515845759
 41
0.1052847268135339
 42
3.036307926776259
  0
ELLIPSE
  5
1CE
330
2
100
AcDbEntity
  8
HID
100
AcDbEllipse
 10
-549.0043791031674
 20
683.0333400273437
 30
0.0
 11
2.0
 21
0.0
 31
0.0
210
0.0
220
0.0
230
1.0
 40
0.9218631515845759
 41
3.036307926776259
 42
6.38847003399312
  0
ELLIPSE
  5
1CF
330
2
100
AcDbEntity
  8
OUTLINE
100
AcDbEllipse
 10
-915.0043791031675
 20
683.0333400273437
 30
0.0
 11
2.0
 21
0.0
 31
0.0
210
0.0
220
0.0
230
1.0
 40
0.9218631515845759
 41
0.1052847268135979
 42
3.036307926776193
  0
ELLIPSE
  5
1D0
330
2
100
AcDbEntity
  8
HID
100
AcDbEllipse
 10
-915.0043791031675
 20
683.0333400273437
 30
0.0
 11
2.0
 21
0.0
 31
0.0
210
0.0
220
0.0
230
1.0
 40
0.9218631515845759
 41
3.036307926776193
 42
6.388470033993182
  0
ELLIPSE
  5
1D1
330
2
100
AcDbEntity
  8
OUTLINE
100
AcDbEllipse
 10
-915.0043791031675
 20
683.4208556138052
 30
0.0
 11
-2.0
 21
0.0
 31
0.0
210
0.0
220
0.0
230
1.0
 40
0.9218631515845762
 41
0.0000000000000002
 42
6.283185307179585
  0
ELLIPSE
  5
1D2
330
2
100
AcDbEntity
  8
OUTLINE
100
AcDbEllipse
 10
-1440.004379103167
 20
171.7868064843656
 30
0.0
 11
-3.5
 21
0.0
 31
0.0
210
0.0
220
0.0
230
1.0
 40
0.9218631515845762
 41
0.0000000000000002
 42
6.283185307179585
  0
ELLIPSE
  5
1D3
330
2
100
AcDbEntity
  8
OUTLINE
100
AcDbEllipse
 10
-1440.004379103167
 20
171.3992908979042
 30
0.0
 11
3.5
 21
0.0
 31
0.0
210
0.0
220
0.0
230
1.0
 40
0.9218631515845759
 41
0.0600877649812589
 42
3.081504888608533
  0
ELLIPSE
  5
1D4
330
2
100
AcDbEntity
  8
HID
100
AcDbEllipse
 10
-1440.004379103167
 20
171.3992908979042
 30
0.0
 11
3.5
 21
0.0
 31
0.0
210
0.0
220
0.0
230
1.0
 40
0.9218631515845759
 41
3.081504888608533
 42
6.343273072160845
  0
ELLIPSE
  5
1D5
330
2
100
AcDbEntity
  8
OUTLINE
100
AcDbEllipse
 10
-1440.004379103167
 20
356.1594368012809
 30
0.0
 11
-3.5
 21
0.0
 31
0.0
210
0.0
220
0.0
230
1.0
 40
0.9218631515845762
 41
0.0000000000000002
 42
6.283185307179585
  0
ELLIPSE
  5
1D6
330
2
100
AcDbEntity
  8
OUTLINE
100
AcDbEllipse
 10
-1440.004379103167
 20
355.7719212148194
 30
0.0
 11
3.5
 21
0.0
 31
0.0
210
0.0
220
0.0
230
1.0
 40
0.9218631515845759
 41
0.0600877649812795
 42
3.081504888608513
  0
ELLIPSE
  5
1D7
330
2
100
AcDbEntity
  8
HID
100
AcDbEllipse
 10
-1440.004379103167
 20
355.7719212148194
 30
0.0
 11
3.5
 21
0.0
 31
0.0
210
0.0
220
0.0
230
1.0
 40
0.9218631515845759
 41
3.081504888608513
 42
6.343273072160864
  0
ELLIPSE
  5
1D8
330
2
100
AcDbEntity
  8
OUTLINE
100
AcDbEllipse
 10
-1440.004379103167
 20
540.532067118196
 30
0.0
 11
-3.5
 21
0.0
 31
0.0
210
0.0
220
0.0
230
1.0
 40
0.9218631515845762
 41
0.0000000000000002
 42
6.283185307179585
  0
ELLIPSE
  5
1D9
330
2
100
AcDbEntity
  8
OUTLINE
100
AcDbEllipse
 10
-1440.004379103167
 20
540.1445515317346
 30
0.0
 11
3.5
 21
0.0
 31
0.0
210
0.0
220
0.0
230
1.0
 40
0.9218631515845759
 41
0.0600877649811468
 42
3.081504888608646
  0
ELLIPSE
  5
1DA
330
2
100
AcDbEntity
  8
HID
100
AcDbEllipse
 10
-1440.004379103167
 20
540.1445515317346
 30
0.0
 11
3.5
 21
0.0
 31
0.0
210
0.0
220
0.0
230
1.0
 40
0.9218631515845759
 41
3.081504888608646
 42
6.343273072160732
  0
ELLIPSE
  5
1DB
330
2
100
AcDbEntity
  8
OUTLINE
100
AcDbEllipse
 10
-390.0043791031677
 20
171.7868064843656
 30
0.0
 11
-3.5
 21
0.0
 31
0.0
210
0.0
220
0.0
230
1.0
 40
0.9218631515845762
 41
0.0000000000000002
 42
6.283185307179585
  0
ELLIPSE
  5
1DC
330
2
100
AcDbEntity
  8
OUTLINE
100
AcDbEllipse
 10
-390.0043791031677
 20
171.3992908979043
 30
0.0
 11
3.5
 21
0.0
 31
0.0
210
0.0
220
0.0
230
1.0
 40
0.9218631515845759
 41
0.0600877649812703
 42
3.081504888608523
  0
ELLIPSE
  5
1DD
330
2
100
AcDbEntity
  8
HID
100
AcDbEllipse
 10
-390.0043791031677
 20
171.3992908979043
 30
0.0
 11
3.5
 21
0.0
 31
0.0
210
0.0
220
0.0
230
1.0
 40
0.9218631515845759
 41
3.081504888608523
 42
6.343273072160856
  0
ELLIPSE
  5
1DE
330
2
100
AcDbEntity
  8
OUTLINE
100
AcDbEllipse
 10
-390.0043791031677
 20
356.1594368012809
 30
0.0
 11
-3.5
 21
0.0
 31
0.0
210
0.0
220
0.0
230
1.0
 40
0.9218631515845762
 41
0.0000000000000002
 42
6.283185307179585
  0
ELLIPSE
  5
1DF
330
2
100
AcDbEntity
  8
OUTLINE
100
AcDbEllipse
 10
-390.0043791031677
 20
355.7719212148195
 30
0.0
 11
3.5
 21
0.0
 31
0.0
210
0.0
220
0.0
230
1.0
 40
0.9218631515845759
 41
0.0600877649813002
 42
3.081504888608491
  0
ELLIPSE
  5
1E0
330
2
100
AcDbEntity
  8
HID
100
AcDbEllipse
 10
-390.0043791031677
 20
355.7719212148195
 30
0.0
 11
3.5
 21
0.0
 31
0.0
210
0.0
220
0.0
230
1.0
 40
0.9218631515845759
 41
3.081504888608491
 42
6.343273072160885
  0
ELLIPSE
  5
1E1
330
2
100
AcDbEntity
  8
OUTLINE
100
AcDbEllipse
 10
-390.0043791031677
 20
540.5320671181961
 30
0.0
 11
-3.5
 21
0.0
 31
0.0
210
0.0
220
0.0
230
1.0
 40
0.9218631515845762
 41
0.0000000000000002
 42
6.283185307179585
  0
ELLIPSE
  5
1E2
330
2
100
AcDbEntity
  8
OUTLINE
100
AcDbEllipse
 10
-390.0043791031677
 20
540.1445515317346
 30
0.0
 11
3.5
 21
0.0
 31
0.0
210
0.0
220
0.0
230
1.0
 40
0.9218631515845759
 41
0.0600877649811806
 42
3.081504888608611
  0
ELLIPSE
  5
1E3
330
2
100
AcDbEntity
  8
HID
100
AcDbEllipse
 10
-390.0043791031677
 20
540.1445515317346
 30
0.0
 11
3.5
 21
0.0
 31
0.0
210
0.0
220
0.0
230
1.0
 40
0.9218631515845759
 41
3.081504888608611
 42
6.343273072160766
  0
ELLIPSE
  5
1E4
330
2
100
AcDbEntity
  8
OUTLINE
100
AcDbEllipse
 10
-1281.004379103167
 20
117.7378387253757
 30
0.0
 11
-2.0
 21
0.0
 31
0.0
210
0.0
220
0.0
230
1.0
 40
0.7033947028177021
 41
0.0000000000000002
 42
6.283185307179585
  0
ELLIPSE
  5
1E5
330
2
100
AcDbEntity
  8
OUTLINE
100
AcDbEllipse
 10
-1281.004379103167
 20
118.4486381992417
 30
0.0
 11
2.0
 21
0.0
 31
0.0
210
0.0
220
0.0
230
1.0
 40
0.7033947028177021
 41
3.39699197582781
 42
6.027785984941567
  0
ELLIPSE
  5
1E6
330
2
100
AcDbEntity
  8
HID
100
AcDbEllipse
 10
-1281.004379103167
 20
118.4486381992417
 30
0.0
 11
2.0
 21
0.0
 31
0.0
210
0.0
220
0.0
230
1.0
 40
0.7033947028177021
 41
6.027785984941567
 42
9.680177283007395
  0
ELLIPSE
  5
1E7
330
2
100
AcDbEntity
  8
OUTLINE
100
AcDbEllipse
 10
-1037.004379103168
 20
117.7378387253756
 30
0.0
 11
-2.0
 21
0.0
 31
0.0
210
0.0
220
0.0
230
1.0
 40
0.7033947028177021
 41
0.0000000000000002
 42
6.283185307179585
  0
ELLIPSE
  5
1E8
330
2
100
AcDbEntity
  8
OUTLINE
100
AcDbEllipse
 10
-1037.004379103168
 20
118.4486381992417
 30
0.0
 11
2.0
 21
0.0
 31
0.0
210
0.0
220
0.0
230
1.0
 40
0.7033947028177021
 41
3.39699197582781
 42
6.027785984941567
  0
ELLIPSE
  5
1E9
330
2
100
AcDbEntity
  8
HID
100
AcDbEllipse
 10
-1037.004379103168
 20
118.4486381992417
 30
0.0
 11
2.0
 21
0.0
 31
0.0
210
0.0
220
0.0
230
1.0
 40
0.7033947028177021
 41
6.027785984941567
 42
9.680177283007395
  0
ELLIPSE
  5
1EA
330
2
100
AcDbEntity
  8
OUTLINE
100
AcDbEllipse
 10
-793.0043791031676
 20
117.7378387253756
 30
0.0
 11
-2.0
 21
0.0
 31
0.0
210
0.0
220
0.0
230
1.0
 40
0.7033947028177021
 41
0.0000000000000002
 42
6.283185307179585
  0
ELLIPSE
  5
1EB
330
2
100
AcDbEntity
  8
OUTLINE
100
AcDbEllipse
 10
-793.0043791031676
 20
118.4486381992417
 30
0.0
 11
2.0
 21
0.0
 31
0.0
210
0.0
220
0.0
230
1.0
 40
0.7033947028177021
 41
3.39699197582781
 42
6.027785984941567
  0
ELLIPSE
  5
1EC
330
2
100
AcDbEntity
  8
HID
100
AcDbEllipse
 10
-793.0043791031676
 20
118.4486381992417
 30
0.0
 11
2.0
 21
0.0
 31
0.0
210
0.0
220
0.0
230
1.0
 40
0.7033947028177021
 41
6.027785984941567
 42
9.680177283007395
  0
ELLIPSE
  5
1ED
330
2
100
AcDbEntity
  8
OUTLINE
100
AcDbEllipse
 10
-549.0043791031674
 20
117.7378387253756
 30
0.0
 11
-2.0
 21
0.0
 31
0.0
210
0.0
220
0.0
230
1.0
 40
0.7033947028177021
 41
0.0000000000000002
 42
6.283185307179585
  0
ELLIPSE
  5
1EE
330
2
100
AcDbEntity
  8
OUTLINE
100
AcDbEllipse
 10
-549.0043791031674
 20
118.4486381992417
 30
0.0
 11
2.0
 21
0.0
 31
0.0
210
0.0
220
0.0
230
1.0
 40
0.7033947028177021
 41
3.396991975827858
 42
6.027785984941519
  0
ELLIPSE
  5
1EF
330
2
100
AcDbEntity
  8
HID
100
AcDbEllipse
 10
-549.0043791031674
 20
118.4486381992417
 30
0.0
 11
2.0
 21
0.0
 31
0.0
210
0.0
220
0.0
230
1.0
 40
0.7033947028177021
 41
6.027785984941519
 42
9.680177283007443
  0
LINE
  5
1F0
330
2
100
AcDbEntity
  8
HID
100
AcDbLine
 10
-1451.004379103167
 20
907.8250120827901
 30
0.0
 11
-379.0043791031676
 21
907.8250120827901
 31
0.0
  0
LINE
  5
1F1
330
2
100
AcDbEntity
  8
HID
100
AcDbLine
 10
-1451.004379103167
 20
907.830744528773
 30
0.0
 11
-379.0043791031676
 21
907.830744528773
 31
0.0
  0
LINE
  5
1F2
330
2
100
AcDbEntity
  8
OUTLINE
100
AcDbLine
 10
-1451.004379103167
 20
908.8304778678336
 30
0.0
 11
-1451.004379103167
 21
908.8248936592156
 31
0.0
  0
LINE
  5
1F3
330
2
100
AcDbEntity
  8
OUTLINE
100
AcDbLine
 10
-379.0043791031676
 20
908.8248936592156
 30
0.0
 11
-379.0043791031676
 21
908.8304778678336
 31
0.0
  0
LINE
  5
1F4
330
2
100
AcDbEntity
  8
OUTLINE
100
AcDbLine
 10
-1451.004379103167
 20
908.8248936592156
 30
0.0
 11
-1451.004379103167
 21
693.1819073046681
 31
0.0
  0
LINE
  5
1F5
330
2
100
AcDbEntity
  8
OUTLINE
100
AcDbLine
 10
-1451.004379103167
 20
908.8248936592156
 30
0.0
 11
-379.0043791031676
 21
908.8248936592156
 31
0.0
  0
LINE
  5
1F6
330
2
100
AcDbEntity
  8
OUTLINE
100
AcDbLine
 10
-379.0043791031676
 20
693.181907304668
 30
0.0
 11
-379.0043791031676
 21
908.8248936592156
 31
0.0
  0
LINE
  5
1F7
330
2
100
AcDbEntity
  8
OUTLINE
100
AcDbLine
 10
-1451.004379103167
 20
693.1819073046673
 30
0.0
 11
-1451.004379103167
 21
679.1923458269295
 31
0.0
  0
LINE
  5
1F8
330
2
100
AcDbEntity
  8
OUTLINE
100
AcDbLine
 10
-1451.004379103167
 20
693.1819073046673
 30
0.0
 11
-379.0043791031676
 21
693.1819073046673
 31
0.0
  0
LINE
  5
1F9
330
2
100
AcDbEntity
  8
OUTLINE
100
AcDbLine
 10
-379.0043791031676
 20
679.1923458269295
 30
0.0
 11
-379.0043791031676
 21
693.1819073046673
 31
0.0
  0
LINE
  5
1FA
330
2
100
AcDbEntity
  8
OUTLINE
100
AcDbLine
 10
-1451.004379103167
 20
911.8307443865946
 30
0.0
 11
-1451.004379103167
 21
911.8304777611999
 31
0.0
  0
LINE
  5
1FB
330
2
100
AcDbEntity
  8
OUTLINE
100
AcDbLine
 10
-1446.004379103167
 20
916.8307442088714
 30
0.0
 11
-1451.004379103167
 21
911.8307443865946
 31
0.0
  0
LINE
  5
1FC
330
2
100
AcDbEntity
  8
OUTLINE
100
AcDbLine
 10
-1446.004379103167
 20
916.8304775834766
 30
0.0
 11
-1446.004379103167
 21
916.830744208871
 31
0.0
  0
LINE
  5
1FD
330
2
100
AcDbEntity
  8
OUTLINE
100
AcDbLine
 10
-1446.004379103167
 20
916.8307442088719
 30
0.0
 11
-384.0043791031677
 21
916.8307442088719
 31
0.0
  0
LINE
  5
1FE
330
2
100
AcDbEntity
  8
OUTLINE
100
AcDbLine
 10
-379.0043791031676
 20
908.8304778678336
 30
0.0
 11
-379.0043791031676
 21
911.8304777611999
 31
0.0
  0
LINE
  5
1FF
330
2
100
AcDbEntity
  8
OUTLINE
100
AcDbLine
 10
-1451.004379103167
 20
908.8304778678336
 30
0.0
 11
-379.0043791031676
 21
908.8304778678336
 31
0.0
  0
LINE
  5
200
330
2
100
AcDbEntity
  8
OUTLINE
100
AcDbLine
 10
-1451.004379103167
 20
911.8304777611999
 30
0.0
 11
-1451.004379103167
 21
908.8304778678336
 31
0.0
  0
LINE
  5
201
330
2
100
AcDbEntity
  8
OUTLINE
100
AcDbLine
 10
-1451.004379103167
 20
911.8304777611999
 30
0.0
 11
-1446.004379103167
 21
916.8304775834766
 31
0.0
  0
LINE
  5
202
330
2
100
AcDbEntity
  8
OUTLINE
100
AcDbLine
 10
-1446.004379103167
 20
916.8304775834766
 30
0.0
 11
-384.0043791031677
 21
916.8304775834766
 31
0.0
  0
LINE
  5
203
330
2
100
AcDbEntity
  8
OUTLINE
100
AcDbLine
 10
-379.0043791031676
 20
911.8304777611999
 30
0.0
 11
-379.0043791031676
 21
911.8307443865946
 31
0.0
  0
LINE
  5
204
330
2
100
AcDbEntity
  8
OUTLINE
100
AcDbLine
 10
-384.0043791031677
 20
916.8304775834766
 30
0.0
 11
-379.0043791031676
 21
911.8304777612005
 31
0.0
  0
LINE
  5
205
330
2
100
AcDbEntity
  8
OUTLINE
100
AcDbLine
 10
-384.0043791031677
 20
916.830744208871
 30
0.0
 11
-384.0043791031677
 21
916.8304775834764
 31
0.0
  0
LINE
  5
206
330
2
100
AcDbEntity
  8
OUTLINE
100
AcDbLine
 10
-379.0043791031676
 20
911.8307443865946
 30
0.0
 11
-384.0043791031681
 21
916.8307442088714
 31
0.0
  0
LINE
  5
207
330
2
100
AcDbEntity
  8
OUTLINE
100
AcDbLine
 10
-379.0043791031676
 20
678.8108284741525
 30
0.0
 11
-379.0043791031676
 21
679.1923458269295
 31
0.0
  0
LINE
  5
208
330
2
100
AcDbEntity
  8
OUTLINE
100
AcDbLine
 10
-379.0043791031676
 20
679.1923458269295
 30
0.0
 11
-384.0043791031677
 21
674.5815463940736
 31
0.0
  0
LINE
  5
209
330
2
100
AcDbEntity
  8
HID
100
AcDbLine
 10
-384.0043791031677
 20
674.1947374701865
 30
0.0
 11
-379.0043791031676
 21
678.8055369030423
 31
0.0
  0
LINE
  5
20A
330
2
100
AcDbEntity
  8
HID
100
AcDbLine
 10
-1451.004379103167
 20
692.6379352016095
 30
0.0
 11
-379.0043791031676
 21
692.6379352016095
 31
0.0
  0
LINE
  5
20B
330
2
100
AcDbEntity
  8
OUTLINE
100
AcDbLine
 10
-1446.004379103167
 20
674.5815463940738
 30
0.0
 11
-384.0043791031677
 21
674.5815463940738
 31
0.0
  0
LINE
  5
20C
330
2
100
AcDbEntity
  8
OUTLINE
100
AcDbLine
 10
-384.0043791031677
 20
674.5815463940738
 30
0.0
 11
-384.0043791031677
 21
674.2015113624193
 31
0.0
  0
LINE
  5
20D
330
2
100
AcDbEntity
  8
HID
100
AcDbLine
 10
-384.0043791031677
 20
674.2015113624192
 30
0.0
 11
-384.0043791031677
 21
674.1947374701863
 31
0.0
  0
LINE
  5
20E
330
2
100
AcDbEntity
  8
HID
100
AcDbLine
 10
-1446.004379103167
 20
674.1947374701863
 30
0.0
 11
-384.0043791031677
 21
674.1947374701863
 31
0.0
  0
LINE
  5
20F
330
2
100
AcDbEntity
  8
OUTLINE
100
AcDbLine
 10
-1451.004379103167
 20
679.1923458269295
 30
0.0
 11
-1451.004379103167
 21
678.8108284741525
 31
0.0
  0
LINE
  5
210
330
2
100
AcDbEntity
  8
OUTLINE
100
AcDbLine
 10
-1446.004379103167
 20
674.5815463940738
 30
0.0
 11
-1451.004379103167
 21
679.1923458269297
 31
0.0
  0
LINE
  5
211
330
2
100
AcDbEntity
  8
HID
100
AcDbLine
 10
-1446.004379103167
 20
674.1947374701863
 30
0.0
 11
-1446.004379103167
 21
674.2015113624192
 31
0.0
  0
LINE
  5
212
330
2
100
AcDbEntity
  8
OUTLINE
100
AcDbLine
 10
-1446.004379103167
 20
674.2015113624192
 30
0.0
 11
-1446.004379103167
 21
674.5815463940736
 31
0.0
  0
LINE
  5
213
330
2
100
AcDbEntity
  8
HID
100
AcDbLine
 10
-1451.004379103167
 20
678.8055369030421
 30
0.0
 11
-1446.004379103167
 21
674.1947374701863
 31
0.0
  0
LINE
  5
214
330
2
100
AcDbEntity
  8
OUTLINE
100
AcDbLine
 10
-1441.504379103167
 20
886.5656184299464
 30
0.0
 11
-1438.504379103167
 21
886.5656184299464
 31
0.0
  0
LINE
  5
215
330
2
100
AcDbEntity
  8
OUTLINE
100
AcDbLine
 10
-1438.504379103167
 20
885.8951918109886
 30
0.0
 11
-1441.504379103167
 21
885.8951918109886
 31
0.0
  0
LINE
  5
216
330
2
100
AcDbEntity
  8
OUTLINE
100
AcDbLine
 10
-1438.504379103167
 20
886.5656184299464
 30
0.0
 11
-1438.504379103167
 21
884.3396909070197
 31
0.0
  0
LINE
  5
217
330
2
100
AcDbEntity
  8
HID
100
AcDbLine
 10
-1438.504379103167
 20
884.3396909070188
 30
0.0
 11
-1438.504379103167
 21
883.6692642880597
 31
0.0
  0
LINE
  5
218
330
2
100
AcDbEntity
  8
OUTLINE
100
AcDbLine
 10
-1438.504379103167
 20
884.3396909070197
 30
0.0
 11
-1441.504379103167
 21
884.3396909070197
 31
0.0
  0
LINE
  5
219
330
2
100
AcDbEntity
  8
HID
100
AcDbLine
 10
-1441.504379103167
 20
883.6692642880617
 30
0.0
 11
-1438.504379103167
 21
883.6692642880617
 31
0.0
  0
LINE
  5
21A
330
2
100
AcDbEntity
  8
HID
100
AcDbLine
 10
-1441.504379103167
 20
884.3396909070188
 30
0.0
 11
-1441.504379103167
 21
883.6692642880597
 31
0.0
  0
LINE
  5
21B
330
2
100
AcDbEntity
  8
OUTLINE
100
AcDbLine
 10
-1441.504379103167
 20
884.3396909070197
 30
0.0
 11
-1441.504379103167
 21
886.5656184299464
 31
0.0
  0
LINE
  5
21C
330
2
100
AcDbEntity
  8
OUTLINE
100
AcDbLine
 10
-391.5043791031676
 20
886.5656184299464
 30
0.0
 11
-388.5043791031677
 21
886.5656184299464
 31
0.0
  0
LINE
  5
21D
330
2
100
AcDbEntity
  8
OUTLINE
100
AcDbLine
 10
-388.5043791031677
 20
885.8951918109886
 30
0.0
 11
-391.5043791031676
 21
885.8951918109886
 31
0.0
  0
LINE
  5
21E
330
2
100
AcDbEntity
  8
OUTLINE
100
AcDbLine
 10
-388.5043791031677
 20
886.5656184299464
 30
0.0
 11
-388.5043791031677
 21
884.3396909070197
 31
0.0
  0
LINE
  5
21F
330
2
100
AcDbEntity
  8
HID
100
AcDbLine
 10
-388.5043791031677
 20
884.3396909070188
 30
0.0
 11
-388.5043791031677
 21
883.6692642880597
 31
0.0
  0
LINE
  5
220
330
2
100
AcDbEntity
  8
OUTLINE
100
AcDbLine
 10
-388.5043791031677
 20
884.3396909070197
 30
0.0
 11
-391.5043791031676
 21
884.3396909070197
 31
0.0
  0
LINE
  5
221
330
2
100
AcDbEntity
  8
HID
100
AcDbLine
 10
-391.5043791031676
 20
883.6692642880617
 30
0.0
 11
-388.5043791031677
 21
883.6692642880617
 31
0.0
  0
LINE
  5
222
330
2
100
AcDbEntity
  8
HID
100
AcDbLine
 10
-391.5043791031676
 20
884.3396909070188
 30
0.0
 11
-391.5043791031676
 21
883.6692642880597
 31
0.0
  0
LINE
  5
223
330
2
100
AcDbEntity
  8
OUTLINE
100
AcDbLine
 10
-391.5043791031676
 20
884.3396909070197
 30
0.0
 11
-391.5043791031676
 21
886.5656184299464
 31
0.0
  0
LINE
  5
224
330
2
100
AcDbEntity
  8
HID
100
AcDbLine
 10
-551.5043791031676
 20
683.8031452597854
 30
0.0
 11
-551.5043791031676
 21
683.4163363358975
 31
0.0
  0
LINE
  5
225
330
2
100
AcDbEntity
  8
HID
100
AcDbLine
 10
-546.5043791031676
 20
683.8031452597847
 30
0.0
 11
-546.5043791031676
 21
683.4163363358983
 31
0.0
  0
LINE
  5
226
330
2
100
AcDbEntity
  8
HID
100
AcDbLine
 10
-1283.504379103168
 20
683.8031452597854
 30
0.0
 11
-1283.504379103168
 21
683.4163363358975
 31
0.0
  0
LINE
  5
227
330
2
100
AcDbEntity
  8
HID
100
AcDbLine
 10
-1278.504379103168
 20
683.8031452597847
 30
0.0
 11
-1278.504379103168
 21
683.4163363358983
 31
0.0
  0
LINE
  5
228
330
2
100
AcDbEntity
  8
HID
100
AcDbLine
 10
-1437.504379103167
 20
858.1126307374239
 30
0.0
 11
-1437.504379103167
 21
858.7830573563827
 31
0.0
  0
LINE
  5
229
330
2
100
AcDbEntity
  8
HID
100
AcDbLine
 10
-1442.504379103167
 20
858.1126307374239
 30
0.0
 11
-1442.504379103167
 21
858.7830573563826
 31
0.0
  0
LINE
  5
22A
330
2
100
AcDbEntity
  8
HID
100
AcDbLine
 10
-1437.504379103168
 20
731.9767377715691
 30
0.0
 11
-1437.504379103168
 21
732.6471643905278
 31
0.0
  0
LINE
  5
22B
330
2
100
AcDbEntity
  8
HID
100
AcDbLine
 10
-1442.504379103168
 20
731.9767377715691
 30
0.0
 11
-1442.504379103168
 21
732.6471643905278
 31
0.0
  0
LINE
  5
22C
330
2
100
AcDbEntity
  8
HID
100
AcDbLine
 10
-387.5043791031676
 20
858.1126307374239
 30
0.0
 11
-387.5043791031676
 21
858.7830573563827
 31
0.0
  0
LINE
  5
22D
330
2
100
AcDbEntity
  8
HID
100
AcDbLine
 10
-392.5043791031677
 20
858.1126307374239
 30
0.0
 11
-392.5043791031677
 21
858.7830573563826
 31
0.0
  0
LINE
  5
22E
330
2
100
AcDbEntity
  8
HID
100
AcDbLine
 10
-387.5043791031676
 20
731.9767377715691
 30
0.0
 11
-387.5043791031676
 21
732.6471643905278
 31
0.0
  0
LINE
  5
22F
330
2
100
AcDbEntity
  8
HID
100
AcDbLine
 10
-392.5043791031677
 20
731.9767377715691
 30
0.0
 11
-392.5043791031677
 21
732.6471643905278
 31
0.0
  0
LINE
  5
230
330
2
100
AcDbEntity
  8
HID
100
AcDbLine
 10
-917.5043791031676
 20
683.8031452597854
 30
0.0
 11
-917.5043791031676
 21
683.4163363358975
 31
0.0
  0
LINE
  5
231
330
2
100
AcDbEntity
  8
HID
100
AcDbLine
 10
-912.504379103168
 20
683.8031452597847
 30
0.0
 11
-912.504379103168
 21
683.4163363358983
 31
0.0
  0
ELLIPSE
  5
232
330
2
100
AcDbEntity
  8
OUTLINE
100
AcDbEllipse
 10
-549.0043791031674
 20
683.8031452597854
 30
0.0
 11
-2.5
 21
0.0
 31
0.0
210
0.0
220
0.0
230
1.0
 40
0.9221598865711467
 41
0.0000000000000002
 42
6.283185307179585
  0
ELLIPSE
  5
233
330
2
100
AcDbEntity
  8
OUTLINE
100
AcDbEllipse
 10
-1281.004379103167
 20
683.8031452597854
 30
0.0
 11
-2.5
 21
0.0
 31
0.0
210
0.0
220
0.0
230
1.0
 40
0.9221598865711467
 41
0.0000000000000002
 42
6.283185307179585
  0
ELLIPSE
  5
234
330
2
100
AcDbEntity
  8
HID
100
AcDbEllipse
 10
-549.0043791031674
 20
683.416336335898
 30
0.0
 11
2.5
 21
0.0
 31
0.0
210
0.0
220
0.0
230
1.0
 40
0.9221598865711467
 41
0.0
 42
6.283185307179585
  0
ELLIPSE
  5
235
330
2
100
AcDbEntity
  8
HID
100
AcDbEllipse
 10
-1281.004379103167
 20
683.416336335898
 30
0.0
 11
2.5
 21
0.0
 31
0.0
210
0.0
220
0.0
230
1.0
 40
0.9221598865711467
 41
0.0
 42
6.283185307179585
  0
ELLIPSE
  5
236
330
2
100
AcDbEntity
  8
OUTLINE
100
AcDbEllipse
 10
-1440.004379103167
 20
858.7830573563817
 30
0.0
 11
-2.5
 21
0.0
 31
0.0
210
0.0
220
0.0
230
1.0
 40
0.741975840975616
 41
0.0000000000000002
 42
6.283185307179585
  0
ELLIPSE
  5
237
330
2
100
AcDbEntity
  8
OUTLINE
100
AcDbEllipse
 10
-1440.004379103167
 20
858.1126307374239
 30
0.0
 11
2.5
 21
0.0
 31
0.0
210
0.0
220
0.0
230
1.0
 40
0.741975840975616
 41
0.1817122204568815
 42
2.959880433132911
  0
ELLIPSE
  5
238
330
2
100
AcDbEntity
  8
HID
100
AcDbEllipse
 10
-1440.004379103167
 20
858.1126307374239
 30
0.0
 11
2.5
 21
0.0
 31
0.0
210
0.0
220
0.0
230
1.0
 40
0.741975840975616
 41
2.959880433132911
 42
6.464897527636467
  0
ELLIPSE
  5
239
330
2
100
AcDbEntity
  8
OUTLINE
100
AcDbEllipse
 10
-1440.004379103167
 20
732.6471643905271
 30
0.0
 11
-2.5
 21
0.0
 31
0.0
210
0.0
220
0.0
230
1.0
 40
0.741975840975616
 41
0.0000000000000002
 42
6.283185307179585
  0
ELLIPSE
  5
23A
330
2
100
AcDbEntity
  8
OUTLINE
100
AcDbEllipse
 10
-1440.004379103167
 20
731.9767377715691
 30
0.0
 11
2.5
 21
0.0
 31
0.0
210
0.0
220
0.0
230
1.0
 40
0.741975840975616
 41
0.1817122204568815
 42
2.959880433132926
  0
ELLIPSE
  5
23B
330
2
100
AcDbEntity
  8
HID
100
AcDbEllipse
 10
-1440.004379103167
 20
731.9767377715691
 30
0.0
 11
2.5
 21
0.0
 31
0.0
210
0.0
220
0.0
230
1.0
 40
0.741975840975616
 41
2.959880433132926
 42
6.464897527636467
  0
ELLIPSE
  5
23C
330
2
100
AcDbEntity
  8
OUTLINE
100
AcDbEllipse
 10
-390.0043791031677
 20
858.7830573563817
 30
0.0
 11
-2.5
 21
0.0
 31
0.0
210
0.0
220
0.0
230
1.0
 40
0.741975840975616
 41
0.0000000000000002
 42
6.283185307179585
  0
ELLIPSE
  5
23D
330
2
100
AcDbEntity
  8
OUTLINE
100
AcDbEllipse
 10
-390.0043791031677
 20
858.1126307374239
 30
0.0
 11
2.5
 21
0.0
 31
0.0
210
0.0
220
0.0
230
1.0
 40
0.741975840975616
 41
0.1817122204569312
 42
2.959880433132893
  0
ELLIPSE
  5
23E
330
2
100
AcDbEntity
  8
HID
100
AcDbEllipse
 10
-390.0043791031677
 20
858.1126307374239
 30
0.0
 11
2.5
 21
0.0
 31
0.0
210
0.0
220
0.0
230
1.0
 40
0.741975840975616
 41
2.959880433132893
 42
6.464897527636517
  0
ELLIPSE
  5
23F
330
2
100
AcDbEntity
  8
OUTLINE
100
AcDbEllipse
 10
-390.0043791031677
 20
732.6471643905271
 30
0.0
 11
-2.5
 21
0.0
 31
0.0
210
0.0
220
0.0
230
1.0
 40
0.741975840975616
 41
0.0000000000000002
 42
6.283185307179585
  0
ELLIPSE
  5
240
330
2
100
AcDbEntity
  8
OUTLINE
100
AcDbEllipse
 10
-390.0043791031677
 20
731.9767377715691
 30
0.0
 11
2.5
 21
0.0
 31
0.0
210
0.0
220
0.0
230
1.0
 40
0.741975840975616
 41
0.1817122204568813
 42
2.959880433132926
  0
ELLIPSE
  5
241
330
2
100
AcDbEntity
  8
HID
100
AcDbEllipse
 10
-390.0043791031677
 20
731.9767377715691
 30
0.0
 11
2.5
 21
0.0
 31
0.0
210
0.0
220
0.0
230
1.0
 40
0.741975840975616
 41
2.959880433132926
 42
6.464897527636467
  0
ELLIPSE
  5
242
330
2
100
AcDbEntity
  8
HID
100
AcDbEllipse
 10
-915.0043791031675
 20
683.416336335898
 30
0.0
 11
2.5
 21
0.0
 31
0.0
210
0.0
220
0.0
230
1.0
 40
0.9221598865711467
 41
0.0
 42
6.283185307179585
  0
ELLIPSE
  5
243
330
2
100
AcDbEntity
  8
OUTLINE
100
AcDbEllipse
 10
-915.0043791031675
 20
683.8031452597854
 30
0.0
 11
-2.5
 21
0.0
 31
0.0
210
0.0
220
0.0
230
1.0
 40
0.9221598865711467
 41
0.0000000000000002
 42
6.283185307179585
  0
MTEXT
  5
63C
330
2
100
AcDbEntity
  8
ETC
100
AcDbMText
 10
-1190.37374577694
 20
1205.909246515175
 30
0.0
 40
40.0
 41
679.2200137408181
 71
     1
 72
     5
  1
AG1S/AG1T-KK87SD\P正面図
 73
     1
 44
1.0
1001
ACAD
1000
MTEXTBEGIN
1070
    73
1070
     1
1070
    44
1040
1.0
1070
    74
1070
     0
1000
MTEXTEND
  0
DIMENSION
  5
668
330
2
100
AcDbEntity
  8
SIZE
100
AcDbDimension
  2
*D1
 10
-386.0043791031677
 20
982.0660260899668
 30
0.0
 11
-915.0043791031674
 21
992.0660260899667
 31
0.0
 70
    32
 71
     5
 42
1057.999999999999
  3
STANDARD
100
AcDbAlignedDimension
 13
-1444.004379103167
 23
891.3250120848688
 33
0.0
 14
-386.0043791031677
 24
891.3250120890136
 34
0.0
100
AcDbRotatedDimension
1001
ACAD
1000
DSTYLE
1002
{
1070
    40
1040
5.0
1070
    45
1040
0.5
1070
    90
1070
     1
1070
   271
1070
     1
1070
   272
1070
     1
1002
}
  0
DIMENSION
  5
676
330
2
100
AcDbEntity
  8
SIZE
100
AcDbDimension
  2
*D2
 10
-378.0043791031677
 20
1010.072990471718
 30
0.0
 11
-915.0043791031677
 21
1020.072990471718
 31
0.0
 70
    32
 71
     5
 42
1074.0
  3
STANDARD
100
AcDbAlignedDimension
 13
-1452.004379103168
 23
907.825012085116
 33
0.0
 14
-378.0043791031677
 24
907.8250120890139
 34
0.0
100
AcDbRotatedDimension
1001
ACAD
1000
DSTYLE
1002
{
1070
    40
1040
5.0
1070
    45
1040
0.5
1070
    90
1070
     1
1070
   271
1070
     1
1070
   272
1070
     1
1002
}
  0
DIMENSION
  5
683
330
2
100
AcDbEntity
  8
SIZE
100
AcDbDimension
  2
*D3
 10
-1504.77331639019
 20
302.8250120848688
 30
0.0
 11
-1514.77331639019
 21
593.8250120848685
 31
0.0
 70
    32
 71
     5
 42
582.0
  3
STANDARD
100
AcDbAlignedDimension
 13
-1450.504379103167
 23
884.8250120848687
 33
0.0
 14
-1450.504379103167
 24
302.8250120848688
 34
0.0
 50
90.0
100
AcDbRotatedDimension
1001
ACAD
1000
DSTYLE
1002
{
1070
    40
1040
5.0
1070
    45
1040
0.5
1070
    90
1070
     1
1070
   271
1070
     1
1070
   272
1070
     1
1002
}
  0
DIMENSION
  5
690
330
2
100
AcDbEntity
  8
SIZE
100
AcDbDimension
  2
*D4
 10
-1504.77331639019
 20
-279.1749879151313
 30
0.0
 11
-1514.77331639019
 21
11.82501208486852
 31
0.0
 70
    32
 71
     5
 42
582.0000000000001
  3
STANDARD
100
AcDbAlignedDimension
 13
-1450.504379103167
 23
302.8250120848688
 33
0.0
 14
-1450.504379103167
 24
-279.1749879151313
 34
0.0
 50
90.0
100
AcDbRotatedDimension
1001
ACAD
1000
DSTYLE
1002
{
1070
   279
1070
     1
1070
    40
1040
5.0
1070
    45
1040
0.5
1070
    90
1070
     1
1070
   271
1070
     1
1070
   272
1070
     1
1002
}
  0
DIMENSION
  5
69D
330
2
100
AcDbEntity
  8
SIZE
100
AcDbDimension
  2
*D5
 10
-1541.640800130124
 20
-294.174987914803
 30
0.0
 11
-1551.640800130124
 21
311.3278781470343
 31
0.0
 70
    32
 71
     5
 42
1211.005732123675
  3
STANDARD
100
AcDbAlignedDimension
 13
-1446.004379103167
 23
916.8307442088719
 33
0.0
 14
-1452.004379103168
 24
-294.174987914803
 34
0.0
 50
90.0
100
AcDbRotatedDimension
1001
ACAD
1000
DSTYLE
1002
{
1070
    40
1040
5.0
1070
    45
1040
0.5
1070
    90
1070
     1
1070
   271
1070
     1
1070
   272
1070
     1
1002
}
  0
MULTILEADER
  5
6B0
330
2
100
AcDbEntity
  8
NOTE
 92
      592
310
50020000110000000C000000100000000A0000000C00000016000000000000C00C00000013000000112700003C0000000600000002000000E1C94F02A46597C097444E7702D48D4000000000000000001ED426A6146797C097444E7702D48D4000000000000000000C00000013000000010000000C00000014000000010000
310
005400000007000000030000001DA2732CD6B096C0F509128B09138C40000000000000000029006AFE249A96C0D1E62856F1BC8B4000000000000000003891614092BD96C0F4F86610AAFF8B4000000000000000000C00000013000000891300003C0000000600000002000000AB996A3634B796C07581BCCD59098C400000
310
000000000000E1C94F02A46597C097444E7702D48D4000000000000000000C000000130000009A3A00003C0000000600000002000000441DB9CA5D2198C098444E7702D48D4000000000000000001FD426A6146797C098444E7702D48D4000000000000000000C00000016000000000000C00C00000012000000FF7F00000C
310
00000017000000FFFFFFFF0C00000016000000000000C00C00000013000000993A0000B00000000B000000D541025D822A98C0CE7781AA35E78D40000000000000000000000000000000000000000000000000000000000000F03F000000000000F03F00000000000000000000000000000000362D5C552B323230353700FF
310
0A000000010000000000000000002840000000000000F03F0000000000000000000000000000F03F0000000000000000000000000000000000000000726F6D616E732E7368780000657874666F6E742E73687800
100
AcDbMLeader
300
CONTEXT_DATA{
 40
1.0
 10
-1546.341593639766
 20
961.701204120129
 30
0.0
 41
12.0
140
12.0
145
2.0
174
     1
175
     6
176
     2
177
     0
290
     1
304
6-%%C7
 11
0.0
 21
0.0
 31
1.0
340
21
 12
-1499.770165068337
 22
968.9012041201293
 32
0.0
 13
1.0
 23
0.0
 33
0.0
 42
0.0
 43
0.0
 44
0.0
 45
1.0
170
     1
 90
-1073741824
171
     3
172
     5
 91
-1073741824
141
0.0
 92
 12443720
291
     0
292
     0
173
     0
293
     0
142
0.0
143
0.0
294
     0
295
     0
296
     0
110
-1446.536126762638
120
887.6178401179732
130
0.0
111
1.0
121
0.0
131
0.0
112
0.0
122
1.0
132
0.0
297
     0
302
LEADER{
290
     1
291
     1
 10
-1497.410165068337
 20
954.5012041201287
 30
0.0
 11
-1.0
 21
0.0
 31
0.0
 90
        0
 40
0.36
304
LEADER_LINE{
 10
-1446.536126762638
 20
887.6178401179732
 30
0.0
 91
        0
305
}
303
}
301
}
340
630
 90
   345088
170
     1
 91
-1056964608
341
24
171
    -2
290
     1
291
     1
 41
0.36
 42
12.0
172
     2
343
21
173
     1
 95
        6
174
     1
175
     2
 92
-1056964608
292
     0
 93
-1056964608
 10
1.0
 20
1.0
 30
1.0
 43
0.0
176
     0
293
     0
294
     0
178
     0
179
     3
 45
1.0
1001
ACAD_MLEADERVER
1070
     2
  0
LINE
  5
C4D
330
2
100
AcDbEntity
  8
BASIS
  6
DASHDOT
 62
     6
100
AcDbLine
 10
-915.0043791031675
 20
-319.4692294795129
 30
0.0
 11
-915.0043791031675
 21
948.5610926239754
 31
0.0
  0
LINE
  5
C4E
330
2
100
AcDbEntity
  8
ARRANGE
  6
Continuous
 62
     1
100
AcDbLine
 10
-931.6884966675711
 20
-310.8591054753901
 30
0.0
 11
-898.3202615387636
 21
-277.4908703465828
 31
0.0
  0
LINE
  5
C4F
330
2
100
AcDbEntity
  8
ARRANGE
  6
Continuous
 62
     1
100
AcDbLine
 10
-931.6884966675711
 20
-277.4908703465828
 30
0.0
 11
-898.3202615387636
 21
-310.8591054753901
 31
0.0
  0
CIRCLE
  5
C50
330
2
100
AcDbEntity
  8
ARRANGE
100
AcDbCircle
 10
-915.0043791031675
 20
-294.1749879109864
 30
0.0
 40
15.0
  0
ENDSEC
  0
SECTION
  2
OBJECTS
  0
DICTIONARY
  5
8
330
0
100
AcDbDictionary
281
     1
  3
ACAD_2007HEADERVARS_RT
350
C8B
  3
ACAD_BACKGROUND
350
636
  3
ACAD_COLOR
350
4B
  3
ACAD_GROUP
350
38
  3
ACAD_LAYOUT
350
15
  3
ACAD_MATERIAL
350
A
  3
ACAD_MLEADERSTYLE
350
62F
  3
ACAD_MLINESTYLE
350
39
  3
ACAD_PLOTSETTINGS
350
3A
  3
ACAD_PLOTSTYLENAME
350
7
  3
ACAD_SCALELIST
350
4C
  3
ACAD_TABLESTYLE
350
4D
  3
ACAD_VISUALSTYLE
350
2B
  3
ACDB_RECOMPOSE_DATA
350
61A
  3
AcDbVariableDictionary
350
61B
  3
AcmDictionary
350
614
  3
DWGPROPS
350
C8A
  0
DICTIONARY
  5
653
330
28
100
AcDbDictionary
280
     1
281
     1
  0
DICTIONARY
  5
1E
330
1D
100
AcDbDictionary
280
     1
281
     1
  3
ACAD_LAYERFILTERS
360
C88
  3
ACAD_LAYERSTATES
360
1F
  3
ACLYDICTIONARY
360
C87
  0
DICTIONARY
  5
63D
330
5
100
AcDbDictionary
280
     1
281
     1
  3
ADSK_XREC_LAYER_RECONCILED
360
63E
  0
DICTIONARY
  5
643
330
CD
100
AcDbDictionary
280
     1
281
     1
  3
ADSK_XREC_LAYER_RECONCILED
360
644
  0
DICTIONARY
  5
6FA
330
6F9
100
AcDbDictionary
280
     1
281
     1
  0
DICTIONARY
  5
6FC
330
6FB
100
AcDbDictionary
280
     1
281
     1
  0
DICTIONARY
  5
6FE
330
6FD
100
AcDbDictionary
280
     1
281
     1
  0
DICTIONARY
  5
700
330
6FF
100
AcDbDictionary
280
     1
281
     1
  0
DICTIONARY
  5
702
330
701
100
AcDbDictionary
280
     1
281
     1
  0
DICTIONARY
  5
704
330
703
100
AcDbDictionary
280
     1
281
     1
  0
DICTIONARY
  5
706
330
705
100
AcDbDictionary
280
     1
281
     1
  0
DICTIONARY
  5
3
330
2
100
AcDbDictionary
280
     1
281
     1
  0
DICTIONARY
  5
C8B
102
{ACAD_REACTORS
330
8
102
}
330
8
100
AcDbDictionary
281
     1
  3
DIMARCSYM
350
C8D
  3
DIMFXL
350
C8C
  3
DIMJOGANG
350
C8E
  0
DICTIONARY
  5
636
102
{ACAD_REACTORS
330
8
102
}
330
8
100
AcDbDictionary
281
     1
  0
DICTIONARY
  5
4B
102
{ACAD_REACTORS
330
8
102
}
330
8
100
AcDbDictionary
281
     1
  0
DICTIONARY
  5
38
102
{ACAD_REACTORS
330
8
102
}
330
8
100
AcDbDictionary
281
     1
  0
DICTIONARY
  5
15
102
{ACAD_REACTORS
330
8
102
}
330
8
100
AcDbDictionary
281
     1
  3
Model
350
14
  3
レイアウト1
350
19
  0
DICTIONARY
  5
A
102
{ACAD_REACTORS
330
8
102
}
330
8
100
AcDbDictionary
281
     1
  3
ByBlock
350
43
  3
ByLayer
350
3B
  3
Global
350
9
  0
DICTIONARY
  5
62F
102
{ACAD_REACTORS
330
8
102
}
330
8
100
AcDbDictionary
281
     1
  3
Standard
350
630
  0
DICTIONARY
  5
39
102
{ACAD_REACTORS
330
8
102
}
330
8
100
AcDbDictionary
281
     1
  3
STANDARD
350
4F
  0
DICTIONARY
  5
3A
102
{ACAD_REACTORS
330
8
102
}
330
8
100
AcDbDictionary
281
     1
  0
ACDBDICTIONARYWDFLT
  5
7
102
{ACAD_REACTORS
330
8
102
}
330
8
100
AcDbDictionary
281
     1
  3
Normal
350
6
100
AcDbDictionaryWithDefault
340
6
  0
DICTIONARY
  5
4C
102
{ACAD_REACTORS
330
8
102
}
330
8
100
AcDbDictionary
281
     1
  3
*A1
350
708
  3
A0
350
52
  3
A1
350
53
  3
A2
350
54
  3
A3
350
55
  3
A4
350
56
  3
A5
350
57
  3
A6
350
58
  3
A7
350
59
  3
A8
350
5A
  3
A9
350
5B
  3
B0
350
5C
  3
B1
350
5D
  3
B2
350
5E
  3
B3
350
5F
  3
B4
350
60
  3
B5
350
61
  3
B6
350
62
  3
B7
350
63
  3
B8
350
64
  3
B9
350
65
  3
C0
350
66
  3
C1
350
67
  3
C2
350
68
  3
C3
350
69
  3
C4
350
6A
  3
C5
350
6B
  3
C6
350
6C
  3
C7
350
6D
  3
C8
350
6E
  3
C9
350
6F
  3
D0
350
70
  3
D1
350
71
  3
D2
350
72
  0
DICTIONARY
  5
4D
102
{ACAD_REACTORS
330
8
102
}
330
8
100
AcDbDictionary
281
     1
  3
Standard
350
50
  0
DICTIONARY
  5
2B
102
{ACAD_REACTORS
330
8
102
}
330
8
100
AcDbDictionary
281
     1
  3
2dWireframe
350
626
  3
3D Hidden
350
627
  3
3dWireframe
350
51
  3
Basic
350
625
  3
Brighten
350
62A
  3
ColorChange
350
62E
  3
Conceptual
350
628
  3
Dim
350
629
  3
Facepattern
350
62D
  3
Flat
350
621
  3
FlatWithEdges
350
622
  3
Gouraud
350
623
  3
GouraudWithEdges
350
624
  3
Linepattern
350
62C
  3
Realistic
350
2A
  3
Thicken
350
62B
  0
XRECORD
  5
61A
102
{ACAD_REACTORS
330
8
102
}
330
8
100
AcDbXrecord
280
     1
 90
        1
330
50
  0
DICTIONARY
  5
61B
102
{ACAD_REACTORS
330
8
102
}
330
8
100
AcDbDictionary
281
     1
  3
CANNOSCALE
350
61E
  3
CMLEADERSTYLE
350
61D
  3
CTABLESTYLE
350
61C
  3
DIMASSOC
350
661
  3
HIDETEXT
350
660
  3
INDEXCTL
350
65F
  3
LIGHTINGUNITS
350
61F
  3
MSLTSCALE
350
65D
  3
SORTENTS
350
65E
  0
DICTIONARY
  5
614
102
{ACAD_REACTORS
330
8
102
}
330
8
100
AcDbDictionary
281
     1
  3
AcmBOMDATA
350
615
  0
XRECORD
  5
C8A
102
{ACAD_REACTORS
330
8
102
}
330
8
100
AcDbXrecord
280
     1
  1
DWGPROPS COOKIE
  2

  3

  4

  6

  7

  8
W000135
  9

300
=
301
=
302
=
303
=
304
=
305
=
306
=
307
=
308
=
309
=
 40
1.784309664351851
 41
2451324.468257373
 42
2454987.718206794
  1

 90
        0
  0
DICTIONARY
  5
C88
102
{ACAD_REACTORS
330
1E
102
}
330
1E
100
AcDbDictionary
281
     1
  0
DICTIONARY
  5
1F
102
{ACAD_REACTORS
330
1E
102
}
330
1E
100
AcDbDictionary
281
     1
  0
DICTIONARY
  5
C87
102
{ACAD_REACTORS
330
1E
102
}
330
1E
100
AcDbDictionary
281
     1
1001
ACAD
1000
<All
  0
XRECORD
  5
63E
102
{ACAD_REACTORS
330
63D
102
}
330
63D
100
AcDbXrecord
280
     1
290
     1
  0
XRECORD
  5
644
102
{ACAD_REACTORS
330
643
102
}
330
643
100
AcDbXrecord
280
     1
290
     1
  0
XRECORD
  5
C8D
102
{ACAD_REACTORS
330
C8B
102
}
330
C8B
100
AcDbXrecord
280
     1
 70
     1
  0
XRECORD
  5
C8C
102
{ACAD_REACTORS
330
C8B
102
}
330
C8B
100
AcDbXrecord
280
     1
 40
15.0
  0
XRECORD
  5
C8E
102
{ACAD_REACTORS
330
C8B
102
}
330
C8B
100
AcDbXrecord
280
     1
 40
1.570796326794896
  0
LAYOUT
  5
14
102
{ACAD_XDICTIONARY
360
C8F
102
}
102
{ACAD_REACTORS
330
15
102
}
330
15
100
AcDbPlotSettings
  1

  2
なし
  4

  6

 40
0.0
 41
0.0
 42
0.0
 43
0.0
 44
0.0
 45
0.0
 46
0.0
 47
0.0
 48
0.0
 49
0.0
140
0.0
141
0.0
142
1.0
143
1.0
 70
  1712
 72
     0
 73
     0
 74
     0
  7

 75
     0
147
1.0
148
0.0
149
0.0
100
AcDbLayout
  1
Model
 70
     1
 71
     0
 10
0.0
 20
0.0
 11
12.0
 21
9.0
 12
0.0
 22
0.0
 32
0.0
 14
0.0
 24
0.0
 34
0.0
 15
0.0
 25
0.0
 35
0.0
146
0.0
 13
0.0
 23
0.0
 33
0.0
 16
1.0
 26
0.0
 36
0.0
 17
0.0
 27
1.0
 37
0.0
 76
     0
330
2
331
29
  0
LAYOUT
  5
19
102
{ACAD_XDICTIONARY
360
1A
102
}
102
{ACAD_REACTORS
330
15
102
}
330
15
100
AcDbPlotSettings
  1

  2
Microsoft XPS Document Writer
  4
A4
  6

 40
3.174999952316283
 41
3.174999952316283
 42
3.175003051757812
 43
3.17498779296875
 44
210.0156707763672
 45
297.0106506347656
 46
0.0
 47
0.0
 48
0.0
 49
0.0
140
0.0
141
0.0
142
1.0
143
1.0
 70
   688
 72
     1
 73
     1
 74
     5
  7

 75
    16
147
1.0
148
0.0
149
0.0
100
AcDbLayout
  1
レイアウト1
 70
     1
 71
     1
 10
0.0
 20
0.0
 11
12.0
 21
9.0
 12
0.0
 22
0.0
 32
0.0
 14
-2509.558972572361
 24
-1229.624307151768
 34
0.0
 15
2214.966707955961
 25
1857.894842362689
 35
0.0
146
0.0
 13
0.0
 23
0.0
 33
0.0
 16
1.0
 26
0.0
 36
0.0
 17
0.0
 27
1.0
 37
0.0
 76
     0
330
16
1001
ACAD_PSEXT
1000
Microsoft XPS Document Writer
1000
Microsoft XPS Document Writer
1000
XPSPort:
1000

1070
     0
  0
MATERIAL
  5
43
102
{ACAD_XDICTIONARY
360
44
102
}
102
{ACAD_REACTORS
330
A
102
}
330
A
100
AcDbMaterial
  1
ByBlock
 72
     0
 43
0.0208333333333333
 43
0.0
 43
0.0
 43
0.0
 43
0.0
 43
0.0208333333333333
 43
0.0
 43
0.0
 43
0.0
 43
0.0
 43
1.0
 43
0.0
 43
0.0
 43
0.0
 43
0.0
 43
1.0
 77
     0
 47
0.0208333333333333
 47
0.0
 47
0.0
 47
0.0
 47
0.0
 47
0.0208333333333333
 47
0.0
 47
0.0
 47
0.0
 47
0.0
 47
1.0
 47
0.0
 47
0.0
 47
0.0
 47
0.0
 47
1.0
171
     0
 49
0.0208333333333333
 49
0.0
 49
0.0
 49
0.0
 49
0.0
 49
0.0208333333333333
 49
0.0
 49
0.0
 49
0.0
 49
0.0
 49
1.0
 49
0.0
 49
0.0
 49
0.0
 49
0.0
 49
1.0
175
     0
142
0.0208333333333333
142
0.0
142
0.0
142
0.0
142
0.0
142
0.0208333333333333
142
0.0
142
0.0
142
0.0
142
0.0
142
1.0
142
0.0
142
0.0
142
0.0
142
0.0
142
1.0
179
     0
144
0.0208333333333333
144
0.0
144
0.0
144
0.0
144
0.0
144
0.0208333333333333
144
0.0
144
0.0
144
0.0
144
0.0
144
1.0
144
0.0
144
0.0
144
0.0
144
0.0
144
1.0
147
0.0208333333333333
147
0.0
147
0.0
147
0.0
147
0.0
147
0.0208333333333333
147
0.0
147
0.0
147
0.0
147
0.0
147
1.0
147
0.0
147
0.0
147
0.0
147
0.0
147
1.0
  0
MATERIAL
  5
3B
102
{ACAD_XDICTIONARY
360
3C
102
}
102
{ACAD_REACTORS
330
A
102
}
330
A
100
AcDbMaterial
  1
ByLayer
 72
     0
 43
0.0208333333333333
 43
0.0
 43
0.0
 43
0.0
 43
0.0
 43
0.0208333333333333
 43
0.0
 43
0.0
 43
0.0
 43
0.0
 43
1.0
 43
0.0
 43
0.0
 43
0.0
 43
0.0
 43
1.0
 77
     0
 47
0.0208333333333333
 47
0.0
 47
0.0
 47
0.0
 47
0.0
 47
0.0208333333333333
 47
0.0
 47
0.0
 47
0.0
 47
0.0
 47
1.0
 47
0.0
 47
0.0
 47
0.0
 47
0.0
 47
1.0
171
     0
 49
0.0208333333333333
 49
0.0
 49
0.0
 49
0.0
 49
0.0
 49
0.0208333333333333
 49
0.0
 49
0.0
 49
0.0
 49
0.0
 49
1.0
 49
0.0
 49
0.0
 49
0.0
 49
0.0
 49
1.0
175
     0
142
0.0208333333333333
142
0.0
142
0.0
142
0.0
142
0.0
142
0.0208333333333333
142
0.0
142
0.0
142
0.0
142
0.0
142
1.0
142
0.0
142
0.0
142
0.0
142
0.0
142
1.0
179
     0
144
0.0208333333333333
144
0.0
144
0.0
144
0.0
144
0.0
144
0.0208333333333333
144
0.0
144
0.0
144
0.0
144
0.0
144
1.0
144
0.0
144
0.0
144
0.0
144
0.0
144
1.0
147
0.0208333333333333
147
0.0
147
0.0
147
0.0
147
0.0
147
0.0208333333333333
147
0.0
147
0.0
147
0.0
147
0.0
147
1.0
147
0.0
147
0.0
147
0.0
147
0.0
147
1.0
  0
MATERIAL
  5
9
102
{ACAD_XDICTIONARY
360
B
102
}
102
{ACAD_REACTORS
330
A
102
}
330
A
100
AcDbMaterial
  1
Global
 72
     0
 43
0.0208333333333333
 43
0.0
 43
0.0
 43
0.0
 43
0.0
 43
0.0208333333333333
 43
0.0
 43
0.0
 43
0.0
 43
0.0
 43
1.0
 43
0.0
 43
0.0
 43
0.0
 43
0.0
 43
1.0
 77
     0
 47
0.0208333333333333
 47
0.0
 47
0.0
 47
0.0
 47
0.0
 47
0.0208333333333333
 47
0.0
 47
0.0
 47
0.0
 47
0.0
 47
1.0
 47
0.0
 47
0.0
 47
0.0
 47
0.0
 47
1.0
171
     0
 49
0.0208333333333333
 49
0.0
 49
0.0
 49
0.0
 49
0.0
 49
0.0208333333333333
 49
0.0
 49
0.0
 49
0.0
 49
0.0
 49
1.0
 49
0.0
 49
0.0
 49
0.0
 49
0.0
 49
1.0
175
     0
142
0.0208333333333333
142
0.0
142
0.0
142
0.0
142
0.0
142
0.0208333333333333
142
0.0
142
0.0
142
0.0
142
0.0
142
1.0
142
0.0
142
0.0
142
0.0
142
0.0
142
1.0
179
     0
144
0.0208333333333333
144
0.0
144
0.0
144
0.0
144
0.0
144
0.0208333333333333
144
0.0
144
0.0
144
0.0
144
0.0
144
1.0
144
0.0
144
0.0
144
0.0
144
0.0
144
1.0
147
0.0208333333333333
147
0.0
147
0.0
147
0.0
147
0.0
147
0.0208333333333333
147
0.0
147
0.0
147
0.0
147
0.0
147
1.0
147
0.0
147
0.0
147
0.0
147
0.0
147
1.0
  0
MLEADERSTYLE
  5
630
102
{ACAD_REACTORS
330
62F
330
6B0
102
}
330
62F
100
AcDbMLeaderStyle
170
     2
171
     1
172
     0
 90
        2
 40
0.0
 41
0.0
173
     1
 91
-1056964608
340
24
 92
       -2
290
     1
 42
2.0
291
     1
 43
0.36
  3
Standard
 44
4.0
300

342
21
174
     1
178
     6
175
     1
176
     0
 93
-1056964608
 45
4.0
292
     0
297
     0
 46
4.0
 94
-1056964608
 47
1.0
 49
1.0
140
1.0
293
     1
141
0.0
294
     1
177
     0
142
1.0
295
     0
296
     0
143
0.125
1001
ACAD_MLEADERVER
1070
     2
  0
MLINESTYLE
  5
4F
102
{ACAD_REACTORS
330
39
102
}
330
39
100
AcDbMlineStyle
  2
STANDARD
 70
     0
  3

 62
   256
 51
90.0
 52
90.0
 71
     2
 49
0.5
 62
   256
  6
BYLAYER
 49
-0.5
 62
   256
  6
BYLAYER
  0
ACDBPLACEHOLDER
  5
6
102
{ACAD_REACTORS
330
7
102
}
330
7
  0
SCALE
  5
708
102
{ACAD_REACTORS
330
4C
102
}
330
4C
100
AcDbScale
 70
     0
300
1:5_XREF
140
1.0
141
5.0
290
     0
  0
SCALE
  5
52
102
{ACAD_REACTORS
330
4C
102
}
330
4C
100
AcDbScale
 70
     0
300
1:1
140
1.0
141
1.0
290
     1
  0
SCALE
  5
53
102
{ACAD_REACTORS
330
4C
102
}
330
4C
100
AcDbScale
 70
     0
300
1:2
140
1.0
141
2.0
290
     0
  0
SCALE
  5
54
102
{ACAD_REACTORS
330
4C
102
}
330
4C
100
AcDbScale
 70
     0
300
1:4
140
1.0
141
4.0
290
     0
  0
SCALE
  5
55
102
{ACAD_REACTORS
330
4C
102
}
330
4C
100
AcDbScale
 70
     0
300
1:5
140
1.0
141
5.0
290
     0
  0
SCALE
  5
56
102
{ACAD_REACTORS
330
4C
102
}
330
4C
100
AcDbScale
 70
     0
300
1:8
140
1.0
141
8.0
290
     0
  0
SCALE
  5
57
102
{ACAD_REACTORS
330
4C
102
}
330
4C
100
AcDbScale
 70
     0
300
1:10
140
1.0
141
10.0
290
     0
  0
SCALE
  5
58
102
{ACAD_REACTORS
330
4C
102
}
330
4C
100
AcDbScale
 70
     0
300
1:16
140
1.0
141
16.0
290
     0
  0
SCALE
  5
59
102
{ACAD_REACTORS
330
4C
102
}
330
4C
100
AcDbScale
 70
     0
300
1:20
140
1.0
141
20.0
290
     0
  0
SCALE
  5
5A
102
{ACAD_REACTORS
330
4C
102
}
330
4C
100
AcDbScale
 70
     0
300
1:30
140
1.0
141
30.0
290
     0
  0
SCALE
  5
5B
102
{ACAD_REACTORS
330
4C
102
}
330
4C
100
AcDbScale
 70
     0
300
1:40
140
1.0
141
40.0
290
     0
  0
SCALE
  5
5C
102
{ACAD_REACTORS
330
4C
102
}
330
4C
100
AcDbScale
 70
     0
300
1:50
140
1.0
141
50.0
290
     0
  0
SCALE
  5
5D
102
{ACAD_REACTORS
330
4C
102
}
330
4C
100
AcDbScale
 70
     0
300
1:100
140
1.0
141
100.0
290
     0
  0
SCALE
  5
5E
102
{ACAD_REACTORS
330
4C
102
}
330
4C
100
AcDbScale
 70
     0
300
2:1
140
2.0
141
1.0
290
     0
  0
SCALE
  5
5F
102
{ACAD_REACTORS
330
4C
102
}
330
4C
100
AcDbScale
 70
     0
300
4:1
140
4.0
141
1.0
290
     0
  0
SCALE
  5
60
102
{ACAD_REACTORS
330
4C
102
}
330
4C
100
AcDbScale
 70
     0
300
8:1
140
8.0
141
1.0
290
     0
  0
SCALE
  5
61
102
{ACAD_REACTORS
330
4C
102
}
330
4C
100
AcDbScale
 70
     0
300
10:1
140
10.0
141
1.0
290
     0
  0
SCALE
  5
62
102
{ACAD_REACTORS
330
4C
102
}
330
4C
100
AcDbScale
 70
     0
300
100:1
140
100.0
141
1.0
290
     0
  0
SCALE
  5
63
102
{ACAD_REACTORS
330
4C
102
}
330
4C
100
AcDbScale
 70
     0
300
1/128" = 1'-0"
140
0.0078125
141
12.0
290
     0
  0
SCALE
  5
64
102
{ACAD_REACTORS
330
4C
102
}
330
4C
100
AcDbScale
 70
     0
300
1/64" = 1'-0"
140
0.015625
141
12.0
290
     0
  0
SCALE
  5
65
102
{ACAD_REACTORS
330
4C
102
}
330
4C
100
AcDbScale
 70
     0
300
1/32" = 1'-0"
140
0.03125
141
12.0
290
     0
  0
SCALE
  5
66
102
{ACAD_REACTORS
330
4C
102
}
330
4C
100
AcDbScale
 70
     0
300
1/16" = 1'-0"
140
0.0625
141
12.0
290
     0
  0
SCALE
  5
67
102
{ACAD_REACTORS
330
4C
102
}
330
4C
100
AcDbScale
 70
     0
300
3/32" = 1'-0"
140
0.09375
141
12.0
290
     0
  0
SCALE
  5
68
102
{ACAD_REACTORS
330
4C
102
}
330
4C
100
AcDbScale
 70
     0
300
1/8" = 1'-0"
140
0.125
141
12.0
290
     0
  0
SCALE
  5
69
102
{ACAD_REACTORS
330
4C
102
}
330
4C
100
AcDbScale
 70
     0
300
3/16" = 1'-0"
140
0.1875
141
12.0
290
     0
  0
SCALE
  5
6A
102
{ACAD_REACTORS
330
4C
102
}
330
4C
100
AcDbScale
 70
     0
300
1/4" = 1'-0"
140
0.25
141
12.0
290
     0
  0
SCALE
  5
6B
102
{ACAD_REACTORS
330
4C
102
}
330
4C
100
AcDbScale
 70
     0
300
3/8" = 1'-0"
140
0.375
141
12.0
290
     0
  0
SCALE
  5
6C
102
{ACAD_REACTORS
330
4C
102
}
330
4C
100
AcDbScale
 70
     0
300
1/2" = 1'-0"
140
0.5
141
12.0
290
     0
  0
SCALE
  5
6D
102
{ACAD_REACTORS
330
4C
102
}
330
4C
100
AcDbScale
 70
     0
300
3/4" = 1'-0"
140
0.75
141
12.0
290
     0
  0
SCALE
  5
6E
102
{ACAD_REACTORS
330
4C
102
}
330
4C
100
AcDbScale
 70
     0
300
1" = 1'-0"
140
1.0
141
12.0
290
     0
  0
SCALE
  5
6F
102
{ACAD_REACTORS
330
4C
102
}
330
4C
100
AcDbScale
 70
     0
300
1-1/2" = 1'-0"
140
1.5
141
12.0
290
     0
  0
SCALE
  5
70
102
{ACAD_REACTORS
330
4C
102
}
330
4C
100
AcDbScale
 70
     0
300
3" = 1'-0"
140
3.0
141
12.0
290
     0
  0
SCALE
  5
71
102
{ACAD_REACTORS
330
4C
102
}
330
4C
100
AcDbScale
 70
     0
300
6" = 1'-0"
140
6.0
141
12.0
290
     0
  0
SCALE
  5
72
102
{ACAD_REACTORS
330
4C
102
}
330
4C
100
AcDbScale
 70
     0
300
1'-0" = 1'-0"
140
12.0
141
12.0
290
     0
  0
TABLESTYLE
  5
50
102
{ACAD_XDICTIONARY
360
618
102
}
102
{ACAD_REACTORS
330
4D
102
}
330
4D
100
AcDbTableStyle
  3
Standard
 70
     0
 71
     0
 40
1.5
 41
1.5
280
     0
281
     0
  7
STANDARD
140
4.5
170
     2
 62
     0
 63
     7
283
     0
274
    -2
284
     1
 64
     0
275
    -2
285
     1
 65
     0
276
    -2
286
     1
 66
     0
277
    -2
287
     1
 67
     0
278
    -2
288
     1
 68
     0
279
    -2
289
     1
 69
     0
  7
STANDARD
140
6.0
170
     5
 62
     0
 63
     7
283
     0
274
    -2
284
     1
 64
     0
275
    -2
285
     1
 65
     0
276
    -2
286
     1
 66
     0
277
    -2
287
     1
 67
     0
278
    -2
288
     1
 68
     0
279
    -2
289
     1
 69
     0
  7
STANDARD
140
4.5
170
     5
 62
     0
 63
     7
283
     0
274
    -2
284
     1
 64
     0
275
    -2
285
     1
 65
     0
276
    -2
286
     1
 66
     0
277
    -2
287
     1
 67
     0
278
    -2
288
     1
 68
     0
279
    -2
289
     1
 69
     0
  0
VISUALSTYLE
  5
626
102
{ACAD_REACTORS
330
2B
102
}
330
2B
100
AcDbVisualStyle
  2
2dWireframe
 70
     4
 71
     0
 72
     2
 73
     0
 90
        0
 40
-0.6
 41
-30.0
 62
     5
 63
     7
 74
     1
 91
        4
 64
     7
 65
   257
 75
     1
175
     1
 42
1.0
 92
        0
 66
   257
 43
1.0
 76
     1
 77
     6
 78
     2
 67
     7
 79
     5
170
     0
171
     0
290
     0
174
     0
 93
        1
 44
0.0
173
     0
291
     0
 45
0.0
1001
ACAD
1000
AcDbSavedByObjectVersion
1070
     0
1000
AcDbSavedByObjectVersion
1070
     0
  0
VISUALSTYLE
  5
627
102
{ACAD_REACTORS
330
2B
102
}
330
2B
100
AcDbVisualStyle
  2
3D Hidden
 70
     6
 71
     1
 72
     2
 73
     2
 90
        0
 40
-0.6
 41
-30.0
 62
     5
 63
     7
 74
     2
 91
        2
 64
     7
 65
   257
 75
     2
175
     1
 42
40.0
 92
        0
 66
   257
 43
1.0
 76
     1
 77
     6
 78
     2
 67
     7
 79
     3
170
     0
171
     0
290
     0
174
     0
 93
        1
 44
0.0
173
     0
291
     0
 45
0.0
1001
ACAD
1000
AcDbSavedByObjectVersion
1070
     0
1000
AcDbSavedByObjectVersion
1070
     0
  0
VISUALSTYLE
  5
51
102
{ACAD_REACTORS
330
2B
102
}
330
2B
100
AcDbVisualStyle
  2
3dWireframe
 70
     5
 71
     0
 72
     2
 73
     0
 90
        0
 40
-0.6
 41
-30.0
 62
     5
 63
     7
 74
     1
 91
        4
 64
     7
 65
   257
 75
     1
175
     1
 42
1.0
 92
        0
 66
   257
 43
1.0
 76
     1
 77
     6
 78
     2
 67
     7
 79
     5
170
     0
171
     0
290
     0
174
     0
 93
        1
 44
0.0
173
     0
291
     0
 45
0.0
1001
ACAD
1000
AcDbSavedByObjectVersion
1070
     0
1000
AcDbSavedByObjectVersion
1070
     0
  0
VISUALSTYLE
  5
625
102
{ACAD_REACTORS
330
2B
102
}
330
2B
100
AcDbVisualStyle
  2
Basic
 70
     7
 71
     1
 72
     0
 73
     1
 90
        0
 40
-0.6
 41
-30.0
 62
     5
 63
     7
 74
     0
 91
        4
 64
     7
 65
   257
 75
     1
175
     1
 42
1.0
 92
        8
 66
     7
 43
1.0
 76
     1
 77
     6
 78
     2
 67
     7
 79
     5
170
     0
171
     0
290
     0
174
     0
 93
        1
 44
0.0
173
     0
291
     1
 45
0.0
1001
ACAD
1000
AcDbSavedByObjectVersion
1070
     0
1000
AcDbSavedByObjectVersion
1070
     0
  0
VISUALSTYLE
  5
62A
102
{ACAD_REACTORS
330
2B
102
}
330
2B
100
AcDbVisualStyle
  2
Brighten
 70
    12
 71
     2
 72
     2
 73
     0
 90
        0
 40
-0.6
 41
-30.0
 62
     5
 63
     7
 74
     1
 91
        4
 64
     7
 65
   257
 75
     1
175
     1
 42
1.0
 92
        8
 66
     7
 43
1.0
 76
     1
 77
     6
 78
     2
 67
     7
 79
     5
170
     0
171
     0
290
     0
174
     0
 93
        1
 44
50.0
173
     0
291
     1
 45
0.0
1001
ACAD
1000
AcDbSavedByObjectVersion
1070
     0
1000
AcDbSavedByObjectVersion
1070
     0
  0
VISUALSTYLE
  5
62E
102
{ACAD_REACTORS
330
2B
102
}
330
2B
100
AcDbVisualStyle
  2
ColorChange
 70
    16
 71
     2
 72
     2
 73
     3
 90
        0
 40
-0.6
 41
-30.0
 62
     5
 63
     8
 74
     1
 91
        4
 64
     7
 65
   257
 75
     1
175
     1
 42
1.0
 92
        8
 66
     8
 43
1.0
 76
     1
 77
     6
 78
     2
 67
     7
 79
     5
170
     0
171
     0
290
     0
174
     0
 93
        1
 44
0.0
173
     0
291
     1
 45
0.0
1001
ACAD
1000
AcDbSavedByObjectVersion
1070
     0
1000
AcDbSavedByObjectVersion
1070
     0
  0
VISUALSTYLE
  5
628
102
{ACAD_REACTORS
330
2B
102
}
330
2B
100
AcDbVisualStyle
  2
Conceptual
 70
     9
 71
     3
 72
     2
 73
     0
 90
        0
 40
-0.6
 41
-30.0
 62
     5
 63
     7
 74
     2
 91
        2
 64
     7
 65
   257
 75
     1
175
     1
 42
40.0
 92
        8
 66
     7
 43
1.0
 76
     1
 77
     6
 78
     2
 67
     7
 79
     3
170
     0
171
     0
290
     0
174
     0
 93
        1
 44
0.0
173
     0
291
     0
 45
0.0
1001
ACAD
1000
AcDbSavedByObjectVersion
1070
     0
1000
AcDbSavedByObjectVersion
1070
     0
  0
VISUALSTYLE
  5
629
102
{ACAD_REACTORS
330
2B
102
}
330
2B
100
AcDbVisualStyle
  2
Dim
 70
    11
 71
     2
 72
     2
 73
     0
 90
        0
 40
-0.6
 41
-30.0
 62
     5
 63
     7
 74
     1
 91
        4
 64
     7
 65
   257
 75
     1
175
     1
 42
1.0
 92
        8
 66
     7
 43
1.0
 76
     1
 77
     6
 78
     2
 67
     7
 79
     5
170
     0
171
     0
290
     0
174
     0
 93
        1
 44
-50.0
173
     0
291
     1
 45
0.0
1001
ACAD
1000
AcDbSavedByObjectVersion
1070
     0
1000
AcDbSavedByObjectVersion
1070
     0
  0
VISUALSTYLE
  5
62D
102
{ACAD_REACTORS
330
2B
102
}
330
2B
100
AcDbVisualStyle
  2
Facepattern
 70
    15
 71
     2
 72
     2
 73
     0
 90
        0
 40
-0.6
 41
-30.0
 62
     5
 63
     7
 74
     1
 91
        4
 64
     7
 65
   257
 75
     1
175
     1
 42
1.0
 92
        8
 66
     7
 43
1.0
 76
     1
 77
     6
 78
     2
 67
     7
 79
     5
170
     0
171
     0
290
     0
174
     0
 93
        1
 44
0.0
173
     0
291
     1
 45
0.0
1001
ACAD
1000
AcDbSavedByObjectVersion
1070
     0
1000
AcDbSavedByObjectVersion
1070
     0
  0
VISUALSTYLE
  5
621
102
{ACAD_REACTORS
330
2B
102
}
330
2B
100
AcDbVisualStyle
  2
Flat
 70
     0
 71
     2
 72
     1
 73
     1
 90
        2
 40
-0.6
 41
30.0
 62
     5
 63
     7
 74
     0
 91
        4
 64
     7
 65
   257
 75
     1
175
     1
 42
1.0
 92
        8
 66
     7
 43
1.0
 76
     1
 77
     6
 78
     2
 67
     7
 79
     5
170
     0
171
     0
290
     0
174
     0
 93
       13
 44
0.0
173
     0
291
     1
 45
0.0
1001
ACAD
1000
AcDbSavedByObjectVersion
1070
     0
1000
AcDbSavedByObjectVersion
1070
     0
  0
VISUALSTYLE
  5
622
102
{ACAD_REACTORS
330
2B
102
}
330
2B
100
AcDbVisualStyle
  2
FlatWithEdges
 70
     1
 71
     2
 72
     1
 73
     1
 90
        2
 40
-0.6
 41
30.0
 62
     5
 63
     7
 74
     1
 91
        4
 64
     7
 65
   257
 75
     1
175
     1
 42
1.0
 92
        0
 66
   257
 43
1.0
 76
     1
 77
     6
 78
     2
 67
     7
 79
     5
170
     0
171
     0
290
     0
174
     0
 93
       13
 44
0.0
173
     0
291
     1
 45
0.0
1001
ACAD
1000
AcDbSavedByObjectVersion
1070
     0
1000
AcDbSavedByObjectVersion
1070
     0
  0
VISUALSTYLE
  5
623
102
{ACAD_REACTORS
330
2B
102
}
330
2B
100
AcDbVisualStyle
  2
Gouraud
 70
     2
 71
     2
 72
     2
 73
     1
 90
        2
 40
-0.6
 41
30.0
 62
     5
 63
     7
 74
     0
 91
        4
 64
     7
 65
   257
 75
     1
175
     1
 42
1.0
 92
        0
 66
     7
 43
1.0
 76
     1
 77
     6
 78
     2
 67
     7
 79
     5
170
     0
171
     0
290
     0
174
     0
 93
       13
 44
0.0
173
     0
291
     1
 45
0.0
1001
ACAD
1000
AcDbSavedByObjectVersion
1070
     0
1000
AcDbSavedByObjectVersion
1070
     0
  0
VISUALSTYLE
  5
624
102
{ACAD_REACTORS
330
2B
102
}
330
2B
100
AcDbVisualStyle
  2
GouraudWithEdges
 70
     3
 71
     2
 72
     2
 73
     1
 90
        2
 40
-0.6
 41
30.0
 62
     5
 63
     7
 74
     1
 91
        4
 64
     7
 65
   257
 75
     1
175
     1
 42
1.0
 92
        0
 66
   257
 43
1.0
 76
     1
 77
     6
 78
     2
 67
     7
 79
     5
170
     0
171
     0
290
     0
174
     0
 93
       13
 44
0.0
173
     0
291
     1
 45
0.0
1001
ACAD
1000
AcDbSavedByObjectVersion
1070
     0
1000
AcDbSavedByObjectVersion
1070
     0
  0
VISUALSTYLE
  5
62C
102
{ACAD_REACTORS
330
2B
102
}
330
2B
100
AcDbVisualStyle
  2
Linepattern
 70
    14
 71
     2
 72
     2
 73
     0
 90
        0
 40
-0.6
 41
-30.0
 62
     5
 63
     7
 74
     1
 91
        4
 64
     7
 65
   257
 75
     7
175
     7
 42
1.0
 92
        8
 66
     7
 43
1.0
 76
     1
 77
     6
 78
     2
 67
     7
 79
     5
170
     0
171
     0
290
     0
174
     0
 93
        1
 44
0.0
173
     0
291
     1
 45
0.0
1001
ACAD
1000
AcDbSavedByObjectVersion
1070
     0
1000
AcDbSavedByObjectVersion
1070
     0
  0
VISUALSTYLE
  5
2A
102
{ACAD_REACTORS
330
2B
102
}
330
2B
100
AcDbVisualStyle
  2
Realistic
 70
     8
 71
     2
 72
     2
 73
     0
 90
        0
 40
-0.6
 41
-30.0
 62
     5
 63
     7
 74
     1
 91
        0
 64
     7
 65
   257
 75
     1
175
     1
 42
1.0
 92
        8
 66
     8
 43
1.0
 76
     1
 77
     6
 78
     2
 67
     7
 79
     5
170
     0
171
     0
290
     0
174
     0
 93
       13
 44
0.0
173
     0
291
     0
 45
0.0
1001
ACAD
1000
AcDbSavedByObjectVersion
1070
     0
1000
AcDbSavedByObjectVersion
1070
     0
  0
VISUALSTYLE
  5
62B
102
{ACAD_REACTORS
330
2B
102
}
330
2B
100
AcDbVisualStyle
  2
Thicken
 70
    13
 71
     2
 72
     2
 73
     0
 90
        0
 40
-0.6
 41
-30.0
 62
     5
 63
     7
 74
     1
 91
        4
 64
     7
 65
   257
 75
     1
175
     1
 42
1.0
 92
       12
 66
     7
 43
1.0
 76
     1
 77
     6
 78
     2
 67
     7
 79
     5
170
     0
171
     0
290
     0
174
     0
 93
        1
 44
0.0
173
     0
291
     1
 45
0.0
1001
ACAD
1000
AcDbSavedByObjectVersion
1070
     0
1000
AcDbSavedByObjectVersion
1070
     0
  0
DICTIONARYVAR
  5
61E
102
{ACAD_REACTORS
330
61B
102
}
330
61B
100
DictionaryVariables
280
     0
  1
1:1
  0
DICTIONARYVAR
  5
61D
102
{ACAD_REACTORS
330
61B
102
}
330
61B
100
DictionaryVariables
280
     0
  1
STANDARD
  0
DICTIONARYVAR
  5
61C
102
{ACAD_REACTORS
330
61B
102
}
330
61B
100
DictionaryVariables
280
     0
  1
STANDARD
  0
DICTIONARYVAR
  5
661
102
{ACAD_REACTORS
330
61B
102
}
330
61B
100
DictionaryVariables
280
     0
  1
1
  0
DICTIONARYVAR
  5
660
102
{ACAD_REACTORS
330
61B
102
}
330
61B
100
DictionaryVariables
280
     0
  1
1
  0
DICTIONARYVAR
  5
65F
102
{ACAD_REACTORS
330
61B
102
}
330
61B
100
DictionaryVariables
280
     0
  1
0
  0
DICTIONARYVAR
  5
61F
102
{ACAD_REACTORS
330
61B
102
}
330
61B
100
DictionaryVariables
280
     0
  1
0
  0
DICTIONARYVAR
  5
65D
102
{ACAD_REACTORS
330
61B
102
}
330
61B
100
DictionaryVariables
280
     0
  1
1
  0
DICTIONARYVAR
  5
65E
102
{ACAD_REACTORS
330
61B
102
}
330
61B
100
DictionaryVariables
280
     0
  1
127
  0
ACAD_PROXY_OBJECT
  5
615
102
{ACAD_REACTORS
330
614
102
}
330
614
100
AcDbProxyObject
 90
      499
 91
      558
 95
  1638427
 70
     0
 93
      167
310
4050100057356C1D9F512AA40CA8010400C400E802
350
616
 94
        0
1001
ACAD
1000
AcRTDxfName
1000
ACMDATADICTIONARY
1000
AcRTDxfName
1000
ACMDATADICTIONARY
1000
AcRTDxfName
1000
ACMDATADICTIONARY
  0
DICTIONARY
  5
C8F
330
14
100
AcDbDictionary
280
     1
281
     1
  3
ACAD_XREC_ROUNDTRIP
360
C90
  0
DICTIONARY
  5
1A
330
19
100
AcDbDictionary
280
     1
281
     1
  3
ACAD_XREC_ROUNDTRIP
360
C91
  3
ADSK_XREC_LAYOUTTHUMBNAIL
360
1B
  0
DICTIONARY
  5
44
330
43
100
AcDbDictionary
280
     1
281
     1
  3
ACAD_XREC_ROUNDTRIP
360
6BD
  3
BUMPTILE
360
45
  3
DIFFUSETILE
360
46
  3
OPACITYTILE
360
47
  3
REFLECTIONTILE
360
48
  3
REFRACTIONTILE
360
49
  3
SPECULARTILE
360
4A
  0
DICTIONARY
  5
3C
330
3B
100
AcDbDictionary
280
     1
281
     1
  3
ACAD_XREC_ROUNDTRIP
360
6BC
  3
BUMPTILE
360
3D
  3
DIFFUSETILE
360
3E
  3
OPACITYTILE
360
3F
  3
REFLECTIONTILE
360
40
  3
REFRACTIONTILE
360
41
  3
SPECULARTILE
360
42
  0
DICTIONARY
  5
B
330
9
100
AcDbDictionary
280
     1
281
     1
  3
ACAD_XREC_ROUNDTRIP
360
6B8
  3
BUMPTILE
360
C
  3
DIFFUSETILE
360
D
  3
OPACITYTILE
360
E
  3
REFLECTIONTILE
360
F
  3
REFRACTIONTILE
360
10
  3
SPECULARTILE
360
11
  0
DICTIONARY
  5
618
330
50
100
AcDbDictionary
280
     1
281
     1
  3
ACAD_ROUNDTRIP_2008_TABLESTYLE_CELLSTYLEMAP
360
C89
  3
ACAD_XREC_ROUNDTRIP
360
C92
  0
ACAD_PROXY_OBJECT
  5
616
102
{ACAD_REACTORS
330
615
102
}
330
615
100
AcDbProxyObject
 90
      499
 91
      559
 95
  1638427
 70
     0
 93
      358
310
057356C1D9F406406AA8FFFFFFFF067D010040485A0802380188029801680258025801C001B80298022005D004
330
2
330
0
330
0
 94
        0
1001
ACAD
1000
AcRTDxfName
1000
ACMDATAENTRYBLOCK
1000
AcRTDxfName
1000
ACMDATAENTRYBLOCK
1000
AcRTDxfName
1000
ACMDATAENTRYBLOCK
  0
XRECORD
  5
C90
102
{ACAD_REACTORS
330
C8F
102
}
330
C8F
100
AcDbXrecord
280
     1
102
SHADEPLOT
 70
     0
102
SHADEPLOTRESLEVEL
 70
     2
102
SHADEPLOTCUSTOMDPI
 70
   300
  0
XRECORD
  5
C91
102
{ACAD_REACTORS
330
1A
102
}
330
1A
100
AcDbXrecord
280
     1
102
SHADEPLOT
 70
     0
102
SHADEPLOTRESLEVEL
 70
     2
102
SHADEPLOTCUSTOMDPI
 70
   300
  0
XRECORD
  5
1B
102
{ACAD_REACTORS
330
1A
102
}
330
1A
100
AcDbXrecord
280
     1
310
28000000B4000000860000000100080000000000385E0000000000000000000000010000000000000000000000000000FFFFFF000000000000000000000000000000000000000000000000000000000000000000330000006600000099000000CC000000FF00000000330000333300006633000099330000CC330000FF3300
310
0000660000336600006666000099660000CC660000FF66000000990000339900006699000099990000CC990000FF99000000CC000033CC000066CC000099CC0000CCCC0000FFCC000000FF000033FF000066FF000099FF0000CCFF0000FFFF000000003300330033006600330099003300CC003300FF003300003333003333
310
33006633330099333300CC333300FF33330000663300336633006666330099663300CC663300FF66330000993300339933006699330099993300CC993300FF99330000CC330033CC330066CC330099CC3300CCCC3300FFCC330000FF330033FF330066FF330099FF3300CCFF3300FFFF330000006600330066006600660099
310
006600CC006600FF00660000336600333366006633660099336600CC336600FF33660000666600336666006666660099666600CC666600FF66660000996600339966006699660099996600CC996600FF99660000CC660033CC660066CC660099CC6600CCCC6600FFCC660000FF660033FF660066FF660099FF6600CCFF6600
310
FFFF660000009900330099006600990099009900CC009900FF00990000339900333399006633990099339900CC339900FF33990000669900336699006666990099669900CC669900FF66990000999900339999006699990099999900CC999900FF99990000CC990033CC990066CC990099CC9900CCCC9900FFCC990000FF99
310
0033FF990066FF990099FF9900CCFF9900FFFF99000000CC003300CC006600CC009900CC00CC00CC00FF00CC000033CC003333CC006633CC009933CC00CC33CC00FF33CC000066CC003366CC006666CC009966CC00CC66CC00FF66CC000099CC003399CC006699CC009999CC00CC99CC00FF99CC0000CCCC0033CCCC0066CC
310
CC0099CCCC00CCCCCC00FFCCCC0000FFCC0033FFCC0066FFCC0099FFCC00CCFFCC00FFFFCC000000FF003300FF006600FF009900FF00CC00FF00FF00FF000033FF003333FF006633FF009933FF00CC33FF00FF33FF000066FF003366FF006666FF009966FF00CC66FF00FF66FF000099FF003399FF006699FF009999FF00CC
310
99FF00FF99FF0000CCFF0033CCFF0066CCFF0099CCFF00CCCCFF00FFCCFF0000FFFF0033FFFF0066FFFF0099FFFF00CCFFFF00FFFFFF00000000000D0D0D001A1A1A00282828003535350043434300505050005D5D5D006B6B6B00787878008686860093939300A1A1A100AEAEAE00BBBBBB00C9C9C900D6D6D600E4E4E400
310
F1F1F100FFFFFF0000000000000000000000000000000000000000000000000000000000000000000000000000000000E2E2E2E2E2E2E2E2E2E2E2E2E2E2E2E2E2E2E2E2E2E2E2E2E2E2E2E2E2E2E2E2E2E2E2E2E2E2E2E2E2E2E2E2E2E2E2E2E2E2E2E2E2E2E2E2E2E2E2E2E2E2E2E2E2E2E2E2E2E2E2E2E2E2E2E2E2E2E2
310
E2E2E2E2E2E2E2E2E2E2E2E2E2E2E2E2E2E2E2E2E2E2E2E2E2E2E2E2E2E2E2E2E2E2E2E2E2E2E2E2E2E2E2E2E2E2E2E2E2E2E2E2E2E2E2E2E2E2E2E2E2E2E2E2E2E2E2E2E2E2E2E2E2E2E2E2E2E2E2E2E2E2E2E2E2E2E2E2E2E2E2E2E2E2E2E2E2E2E2E2E2E2E2E2E2E2E2E2E2E2E2E2E2E2E2E2E2E2E2E2E2E2E2E2E2E2E2
310
E2E2E2E2E2E2E2E2E2E2E2E2E2E2E2E2E2E2E2E2E2E2E2E2E2E2E2E2E2E2E2E2E2E2E2E2E2E2E2E2E2E2E2E2E2E2E2E2E2E2E2E2E2E2E2E2E2E2E2E2E2E2E2E2E2E2E2E2E2E2E2E2E2E2E2E2E2E2E2E2E2E2E2E2E2E2E2E2E2E2E2E2E2E2E2E2E2E2E2E2E2E2E2E2E2E2E2E2E2E2E2E2E2E2E2E2E2E2E2E2E2E2E2E2E2E2E2
310
E2E2E2E2E2E2E2E2E2E2E2E2E2E2E2E2E2E2E2E2E2E2E2E2E2E2E2E2E2E2E2E2E2E2E2E2E2E2E2E2E2E2E2E2E2E2E2E2E2E2E2E2E2E2E2E2E2E2E2E2E2E2E2E2E2E2E2E2E2E2E2E2E2E2E2E2E2E2E2E2E2E2E2E2E2E2E2E2E2E2E2E2E2E2E2E2E2E2E2E2E2E2E2E2E2E2E2E2E2E2E2E2E2E2E2E2E2E2E2E2E2E2E2E2E2E2E2
310
E2E2E2E2E2E2E2E2E2E2E2E2E2E2E2E2E2E2E2E2E2E2E2E2E2E2E2E2E2E2E2E2E2E2E2E2E2E2E2E2E2E2E2E2E2E2E2E2E2E2E2E2E2E2E2E2E2E2E2E2E2E2E2E2E2E2E2E2E2E2E2E2E2E2E2E2E2E2E2E2E2E2E2E2E2E2E2E2E2E2E2E2E2E2E2E2E2E2E2E2E2E2E2E2E2E2E2E2E2E2E2E2E2E2E2E2E2E2E2E2E2E2E2E2E2E2E2
310
E2E2E2E2E2E2E2E2E2E2E2E2E2E2E2E2E2E2E2E2E2E2E2E2E2E2E2E2E2E2E2E2E2E2E2E2E2E2E2E2E2E2E2E2E2E2E2E2E2E2E2E2E2E2E2E2E2E2E2E2E2E2E2E2E2E2E2E2E2E2E2E2E2E2E2E2E2E2E2E2E2E2E2E2E2E2E2E2E2E2E2E2E2E2E2E2E2E2E2E2E2E2E2E2E2E2E2E2E2E2E2E2E2E2E2E2E2E2E2E2E2E2E2E2E2E2E2
310
E2E2E2E2E2E2E2E2E2E2E2E2E2E2E2E2E2E2E2E2E2E2E2E2E2E2E2E2E2E2E2E2E2E2E2E2E2E2E2E2E2E2E2E2E2E2E2E2E2E2E2E2E2E2E2E2E2E2E2E2E2E2E2E2E2E2E2E2E2E2E2E2E2E2E2E2E2E2E2E2E2E2E2E2E2E2E2E2E2E2E2E2E2E2E2E2E2E2E2E2E2E2E2E2E2E2E2E2E2E2E2E2E2E2E2E2E2E2E2E2E2E2E2E2E2E2E2
310
E2E2E2E2E2E2E2E2E2E2E2E2E2E2E2E2E2E2E2E2E2E2E2E2E2E2E2E2E2E2E2E2E2E2E2E2E2E2E2E2E2E2E2E2E2E2E2E2E2E2E2E2E2E2E2E2E2E2E2E2E2E2E2E2E2E2E2E2E2E2E2E2E2E2E2E2E2E2E2E2E2E2E2E2E2E2E2E2E2E2E2E2E2E2E2E2E2E2E2E2E2E2E2E2E2E2E2E2E2E2E2E2E2E2E2E2E2E2E2E2E2E2E2E2E2E2E2
310
E2E2E2E2E2E2E2E2E2E2E2E2E2E2E2E2E2E2E2E2E2E2E2E2E2E2E2E2E2E2E2E2E2E2E2E2E2E2E2E2E2E2E2E2E2E2E2E2E2E2E2E2E2E2E2E2E2E2E2E2E2E2E2E2E2E2E2E2E2E2E2E2E2E2E2E2E2E2E2E2E2E2E2E2E2E2E2E2E2E2E2E2E2E2E2E2E2E2E2E2E2E2E2E2E2E2E2E2E2E2E2E2E2E2E2E2E2E2E2E2E2E2E2E2E2E2E2
310
E2E2E2E2E2E2E2E2E2E2E2E2E2E2E2E2E2E2E2E2E2E2E2E2E2E2E2E2E2E2E2E2E2E2E2E2E2E2E2E2E2E2E2E2E2E2E2E2E2E2E2E2E2E2E2E2E2E2E2E2E2E2E2E2E2E2E2E2E2E2E2E2E2E2E2E2E2E2E2E2E2E2E2E2E2E2E2E2E2E2E2E2E2E2E2E2E2E2E2E2E2E2E2E2E2E2E2E2E2E2E2E2E2E2E2E2E2E2E2E2E2E2E2E2E2E2E2
310
E2E2E2E2E2E2E2E2E2E2E2E2E2E2E2E2E2E2E2E2E2E2E2E2E2E2E2E2E2E2E2E2E2E2E2E2E2E2E2E2E2E2E2E2E2E2E2E2E2E2E2E2E2E2E2E2E2E2E2E2E2E2E2E2E2E2E2E2E2E2E2E2E2E2E2E2E2E2E2E2E2E2E2E2E2E2E2E2E2E2E2E2E2E2E2E2E2E2E2E2E2E2E2E2E2E2E2E2E2E2E2E2E2E2E2E2E2E2E2E2E2E2E2E2E2E2E2
310
E2E2E2E2E2E2E2E2E2E2E2E2E2E2E2E2E2E2E2E2E2E2E2E2E2E2E2E2E2E2E2E2E2E2E2E2E2E2E2E2E2E2E2E2E2E2E2E2E2E2E2E2E2E2E2E2E2E2E2E2E2E2E2E2E2E2E2E2E2E2E2E2E2E2E2E2E2E2E2E2E2E2E2E2E2E2E2E2E2E2E2E2E2E2E2E2E2E2E2E2E2E2E2E2E2E2E2E2E2E2E2E2E2E2E2E2E2E2E2E2E2E2E2E2E2E2E2
310
E2E2E2E2E2E2E2E2E2E2E2E2E2E2E2E2E2E2E2E2E2E2E2E2E2E2E2E2E2E2E2E2E2E2E2E2E2E2E2E2E2E2E2E2E2E2E2E2E2E2E2E2E2E2E2E2E2E2E2E2E2E2E2E2E2E2E2E2E2E2E2E2E2E2E2E2E2E2E2E2E2E2E2E2E2E2E2E2E2E2E2E2E2E2E2E2E2E2E2E2E2E2E2E2E2E2E2E2E2E2E2E2E2E2E2E2E2E2E2E2E2E2E2E2E2E2E2
310
E2E2E2E2E2E2E2E2E2E2E2E2E2E2E2E2E2E2E2E2E2E2E2E2E2E2E2E2E2E2E2E2E2E2E2E2E2E2E2E2E2E2E2E2E2E2E2E2E2E2E2E2E2E2E2E2E2E2E2E2E2E2E2E2E2E2E2E2E2E2E2E2E2E2E2E2E2E2E2E2E2E2E2E2E2E2E2E2E2E2E2E2E2E2E2E2E2E2E2E2E2E2E2E2E2E2E2E2E2E2E2E2E2E2E2E2E2E2E2E2E2E2E2E2E2E2E2
310
E2E2E2E2E2E2E2E2E2E2E2E2E2E2E2E2E2E2E2E2E2E2E2E2E2E2E2E2E2E2E2E2E2E2E2E2E2E2E2E2E2E2E2E2E2E2E2E2E2E2E2E2E2E2E2E2E2E2E2E2E2E2E2E2E2E2E2E2E2E2E2E2E2E2E2E2E2E2E2E2E2E2E2E2E2E2E2E2E2E2E2E2E2E2E2E2E2E2E2E2E2E2E2E2E2E2E2E2E2E2E2E2E2E2E2E2E2E2E2E2E2E2E2E2E2E2E2
310
E2E2E2E2E2E2E2E2E2E2E2E2E2E2E2E2E2E2E2E2E2E2E2E2E2E2E2E2E2E2E2E2E2E2E2E2E2E2E2E2E2E2E2E2E2E2E2E2E2E2E2E2E2E2E2E2E2E2E2E2E2E2E2E2E2E2E2E2E2E2E2E2E2E2E2E2E2E2E2E2E2E2E2E2E2E2E2E2E2E2E2E2E2E2E2E2E2E2E2E2E2E2E2E2E2E2E2E2E2E2E2E2E2E2E2E2E2E2E2E2E2E2E2E2E2E2E2
310
E2E2E2E2E2E2E2E2E2E2E2E2E2E2E2E2E2E2E2E2E2E2E2E2E2E2E2E2E2E2E2E2E2E2E2E2E2E2E2E2E2E2E2E2E2E2E2E2E2E2E2E2E2E2E2E2E2E2E2E2E2E2E2E2E2E2E2E2E2E2E2E2E2E2E2E2E2E2E2E2E2E2E2E2E2E2E2E2E2E2E2E2E2E2E2E2E2E2E2E2E2E2E2E2E2E2E2E2E2E2E2E2E2E2E2E2E2E2E2E2E2E2E2E2E2E2E2
310
E2E2E2E2E2E2E2E2E2E2E2E2E2E2E2E2E2E2E2E2E2E2E2E2E2E2E2E2E2E2E2E2E2E2E2E2E2E2E2E2E2E2E2E2E2E2E2E2E2E2E2E2E2E2E2E2E2E2E2E2E2E2E2E2E2E2E2E2E2E2E2E2E2E2E2E2E2E2E2E2E2E2E2E2E2E2E2E2E2E2E2E2E2E2E2E2E2E2E2E2E2E2E2E2E2E2E2E2E2E2E2E2E2E2E2E2E2E2E2E2E2E2E2E2E2E2E2
310
E2E2E2E2E2E2E2E2E2E2E2E2E2E2E2E2E2E2E2E2E2E2E2E2E2E2E2E2E2E2E2E2E2E2E2E2E2E2E2E2E2E2E2E2E2E2E2E2E2E2E2E2E2E2E2E2E2E2E2E2E2E2E2E2E2E2E2E2E2E2E2E2E2E2E2E2E2E2E2E2E2E2E2E2E2E2E2E2E2E2E2E2E2E2E2E2E2E2E2E2E2E2E2E2E2E2E2E2E2E2E2E2E2E2E2E2E2E2E2E2E2E2E2E2E2E2E2
310
E2E2E2E2E2E2E2E2E2E2E2E2E2E2E2E2E2E2E2E2E2E2E2E2E2E2E2E2E2E2E2E2E2E2E2E2E2E2E2E2E2E2E2E2E2E2E2E2E2E2E2E2E2E2E2E2E2E2E2E2E2E2E2E2E2E2E2E2E2E2E2E2E2E2E2E2E2E2E2E2E2E2E2E2E2E2E2E2E2E2E2E2E2E2E2E2E2E2E2E2E2E2E2E2E2E2E2E2E2E2E2E2E2E2E2E2E2E2E2E2E2E2E2E2E2E2E2
310
E2E2E2E2E2E2E2E2E2E2E2E2E2E2E2E2E2E2E2E2E2E2E2E2E2E2E2E2E2E2E2E2E2E2E2E2E2E2E2E2E2E2E2E2E2E2E2E2E2E2E2E2E2E2E2E2E2E2E2E2E2E2E2E2E2E2E2E2E2E2E2E2E2E2E2E2E2E2E2E2E2E2E2E2E2E2E2E2E2E2E2E2E2E2E2E2E2E2E2E2E2E2E2E2E2E2E2E2E2E2E2E2E2E2E2E2E2E2E2E2E2E2E2E2E2E2E2
310
E2E2E2E2E2E2E2E2E2E2E2E2E2E2E2E2E2E2E2E2E2E2E2E2E2E2E2E2E2E2E2E2E2E2E2E2E2E2E2E2E2E2E2E2E2E2E2E2E2E2E2E2E2E2E2E2E2E2E2E2E2E2E2E2E2E2E2E2E2E2E2E2E2E2E2E2E2E2E2E2E2E2E2E2E2E2E2E2E2E2E2E2E2E2E2E2E2E2E2E2E2E2E2E2E2E2E2E2E2E2E2E2E2E2E2E2E2E2E2E2E2E2E2E2E2E2E2
310
E2E2E2E2E2E2E2E2E2E2E2E2E2E2E2E2E2E2E2E2E2E2E2E2E2E2E2E2E2E2E2E2E2E2E2E2E2E2E2E2E2E2E2E2E2E2E2E2E2E2E2E2E2E2E2E2E2E2E2E2E2E2E2E2E2E2E2E2E2E2E2E2E2E2E2E2E2E2E2E2E2E2E2E2E2E2E2E2E2E2E2E2E2E2E2E2E2E2E2E2E2E2E2E2E2E2E2E2E2E2E2E2E2E2E2E2E2E2E2E2E2E2E2E2E2E2E2
310
E2E2E2E2E2E2E2E2E2E2E2E2E2E2E2E2E2E2E2E2E2E2E2E2E2E2E2E2E2E2E2E2E2E2E2E2E2E2E2E2E2E2E2E2E2E2E2E2E2E2E2E2E2E2E2E2E2E2E2E2E2E2E2E2E2E2E2E2E2E2E2E2E2E2E2E2E2E2E2E2E2E2E2E2E2E2E2E2E2E2E2E2E2E2E2E2E2E2E2E2E2E2E2E2E2E2E2E2E2E2E2E2E2E2E2E2E2E2E2E2E2E2E2E2E2E2E2
310
E2E2E2E2E2E2E2E2E2E2E2E2E2E2E2E2E2E2E2E2E2E2E2E2E2E2E2E2E2E2E2E2E2E2E2E2E2E2E2E2E2E2E2E2E2E2E2E2E2E2E2E2E2E2E2E2E2E2E2E2E2E2E2E2E2E2E2E2E2E2E2E2E2E2E2E2E2E2E2E2E2E2E2E2E2E2E2E2E2E2E2E2E2E2E2E2E2E2E2E2E2E2E2E2E2E2E2E2E2E2E2E2E2E2E2E2E2E2E2E2E2E2E2E2E2E2E2
310
E2E2E2E2E2E2E2E2E2E2E2E2E2E2E2E2E2E2E2E2E2E2E2E2E2E2E2E2E2E2E2E2E2E2E2E2E2E2E2E2E2E2E2E2E2E2E2E2E2E2E2E2E2E2E2E2E2E2E2E2E2E2E2E2E2E2E2E2E2E2E2E2E2E2E2E2E2E2E2E2E2E2E2E2E2E2E2E2E2E2E2E2E2E2E2E2E2E2E2E2E2E2E2E2E2E2E2E2E2E2E2E2E2E2E2E2E2E2E2E2E2E2E2E2E2E2E2
310
E2E2E2E2E2E2E2E2E2E2E2E2E2E2E2E2E2E2E2E2E2E2E2E2E2E2E2E2E2E2E2E2E2E2E2E2E2E2E2E2E2E2E2E2E2E2E2E2E2E2E2E2E2E2E2E2E2E2E2E2E2E2E2E2E2E2E2E2E2E2E2E2E2E2E2E2E2E2E2E2E2E2E2E2E2E2E2E2E2E2E2E2E2E2E2E2E2E2E2E2E2E2E2E2E2E2E2E2E2E2E2E2E2E2E2E2E2E2E2E2E2E2E2E2E2E2E2
310
E2E2E2E2E2E2E2E2E2E2E2E2E2E2E2E2E2E2E2E2E2E2E2E2E2E2E2E2E2E2E2E2E2E2E2E2E2E2E2E2E2E2E2E2E2E2E2E2E2E2E2E2E2E2E2E2E2E2E2E2E2E2E2E2E2E2E2E2E2E2E2E2E2E2E2E2E2E2E2E2E2E2E2E2E2E2E2E2E2E2E2E2E2E2E2E2E2E2E2E2E2E2E2E2E2E2E2E2E2E2E2E2E2E2E2E2E2E2E2E2E2E2E2E2E2E2E2
310
E2E2E2E2E2E2E2E2E2E2E2E2E2E2E2E2E2E2E2E2E2E2E2E2E2E2E2E2E2E2E2E2E2E2E2E2E2E2E2E2E2E2E2E2E2E2E2E2E2E2E2E2E2E2E2E2E2E2E2E2E2E2E2E2E2E2E2E2E2E2E2E2E2E2E2E2E2E2E2E2E2E2E2E2E2E2E2E2E2E2E2E2E2E2E2E2E2E2E2E2E2E2E2E2E2E2E2E2E2E2E2E2E2E2E2E2E2E2E2E2E2E2E2E2E2E2E2
310
E2E2E2E2E2E2E2E2E2E2E2E2E2E2E2E2E2E2E2E2E2E2E2E2E2E2E2E2E2E2E2E2E2E2E2E2E2E2E2E2E2E2E2E2E2E2E2E2E2E2E2E2E2E2E2E2E2E2E2E2E2E2E2E2E2E2E2E2E2E2E2E2E2E2E2E2E2E2E2E2E2E2E2E2E2E2E2E2E2E2E2E2E2E2E2E2E2E2E2E2E2E2E2E2E2E2E2E2E2E2E2E2E2E2E2E2E2E2E2E2E2E2E2E2E2E2E2
310
E2E2E2E2E2E2E2E2E2E2E2E2E2E2E2E2E2E2E2E2E2E2E2E2E2E2E2E2E2E2E2E2E2E2E2E2E2E2E2E2E2E2E2E2E2E2E2E2E2E2E2E2E2E2E2E2E2E2E2E2E2E2E2E2E2E2E2E2E2E2E2E2E2E2E2E2E2E2E2E2E2E2E2E2E2E2E2E2E2E2E2E2E2E2E2E2E2E2E2E2E2E2E2E2E2E2E2E2E2E2E2E2E2E2E2E2E2E2E2E2E2E2E2E2E2E2E2
310
E2E2E2E2E2E2E2E2E2E2E2E2E2E2E2E2E2E2E2E2E2E2E2E2E2E2E2E2E2E2E2E2E2E2E2E2E2E2E2E2E2E2E2E2E2E2E2E2E2E2E2E2E2E2E2E2E2E2E2E2E2E2E2E2E2E2E2E2E2E2E2E2E2E2E2E2E2E2E2E2E2E2E2E2E2E2E2E2E2E2E2E2E2E2E2E2E2E2E2E2E2E2E2E2E2E2E2E2E2E2E2E2E2E2E2E2E2E2E2E2E2E2E2E2E2E2E2
310
E2E2E2E2E2E2E2E2E2E2E2E2E2E2E2E2E2E2E2E2E2E2E2E2E2E2E2E2E2E2E2E2E2E2E2E2E2E2E2E2E2E2E2E2E2E2E2E2E2E2E2E2E2E2E2E2E2E2E2E2E2E2E2E2E2E2E2E2E2E2E2E2E2E2E2E2E2E2E2E2E2E2E2E2E2E2E2E2E2E2E2E2E2E2E2E2E2E2E2E2E2E2E2E2E2E2E2E2E2E2E2E2E2E2E2E2E2E2E2E2E2E2E2E2E2E2E2
310
E2E2E2E2E2E2E2E2E2E2E2E2E2E2E2E2E2E2E2E2E2E2E2E2E2E2E2E2E2E2E2E2E2E2E2E2E2E2E2E2E2E2E2E2E2E2E2E2E2E2E2E2E2E2E2E2E2E2E2E2E2E2E2E2E2E2E2E2E2E2E2E2E2E2E2E2E2E2E2E2E2E2E2E2E2E2E2E2E2E2E2E2E2E2E2E2E2E2E2E2E2E2E2E2E2E2E2E2E2E2E2E2E2E2E2E2E2E2E2E2E2E2E2E2E2E2E2
310
E2E2E2E2E2E2E2E2E2E2E2E2E2E2E2E2E2E2E2E2E2E2E2E2E2E2E2E2E2E2E2E2E2E2E2E2E2E2E2E2E2E2E2E2E2E2E2E2E2E2E2E2E2E2E2E2E2E2E2E2E2E2E2E2E2E2E2E2E2E2E2E2E2E2E2E2E2E2E2E2E2E2E2E2E2E2E2E2E2E2E2E2E2E2E2E2E2E2E2E2E2E2E2E2E2E2E2E2E2E2E2E2E2E2E2E2E2E2E2E2E2E2E2E2E2E2E2
310
E2E2E2E2E2E2E2E2E2E2E2E2E2E2E2E2E2E2E2E2E2E2E2E2E2E2E2E2E2E2E2E2E2E2E2E2E2E2E2E2E2E2E2E2E2E2E2E2E2E2E2E2E2E2E2E2E2E2E2E2E2E2E2E2E2E2E2E2E2E2E2E2E2E2E2E2E2E2E2E2E2E2E2E2E2E2E2E2E2E2E2E2E2E2E2E2E2E2E2E2E2E2E2E2E2E2E2E2E2E2E2E2E2E2E2E2E2E2E2E2E2E2E2E2E2E2E2
310
E2E2E2E2E2E2E2E2E2E2E2E2E2E2E2E2E2E2E2E2E2E2E2E2E2E2E2E2E2E2E2E2E2E2E2E2E2E2E2E2E2E2E2E2E2E2E2E2E2E2E2E2E2E2E2E2E2E2E2E2E2E2E2E2E2E2E2E2E2E2E2E2E2E2E2E2E2E2E2E2E2E2E2E2E2E2E2E2E2E2E2E2E2E2E2E2E2E2E2E2E2E2E2E2E2E2E2E2E2E2E2E2E2E2E2E2E2E2E2E2E2E2E2E2E2E2E2
310
E2E2E2E2E2E2E2E2E2E2E2E2E2E2E2E2E2E2E2E2E2E2E2E2E2E2E2E2E2E2E2E2E2E2E2E2E2E2E2E2E2E2E2E2E2E2E2E2E2E2E2E2E2E2E2E2E2E2E2E2E2E2E2E2E2E2E2E2E2E2E2E2E2E2E2E2E2E2E2E2E2E2E2E2E2E2E2E2E2E2E2E2E2E2E2E2E2E2E2E2E2E2E2E2E2E2E2E2E2E2E2E2E2E2E2E2E2E2E2E2E2E2E2E2E2E2E2
310
E2E2E2E2E2E2E2E2E2E2E2E2E2E2E2E2E2E2E2E2E2E2E2E2E2E2E2E2E2E2E2E2E2E2E2E2E2E2E2E2E2E2E2E2E2E2E2E2E2E2E2E2E2E2E2E2E2E2E2E2E2E2E2E2E2E2E2E2E2E2E2E2E2E2E2E2E2E2E2E2E2E2E2E2E2E2E2E2E2E2E2E2E2E2E2E2E2E2E2E2E2E2E2E2E2E2E2E2E2E2E2E2E2E2E2E2E2E2E2E2E2E2E2E2E2E2E2
310
E2E2E2E2E2E2E2E2E2E2E2E2E2E2E2E2E2E2E2E2E2E2E2E2E2E2E2E2E2E2E2E2E2E2E2E2E2E2E2E2E2E2E2E2E2E2E2E2E2E2E2E2E2E2E2E2E2E2E2E2E2E2E2E2E2E2E2E2E2E2E2E2E2E2E2E2E2E2E2E2E2E2E2E2E2E2E2E2E2E2E2E2E2E2E2E2E2E2E2E2E2E2E2E2E2E2E2E2E2E2E2E2E2E2E2E2E2E2E2E2E2E2E2E2E2E2E2
310
E2E2E2E2E2E2E2E2E2E2E2E2E2E2E2E2E2E2E2E2E2E2E2E2E2E2E2E2E2E2E2E2E2E2E2E2E2E2E2E2E2E2E2E2E2E2E2E2E2E2E2E2E2E2E2E2E2E2E2E2E2E2E2E2E2E2E2E2E2E2E2E2E2E2E2E2E2E2E2E2E2E2E2E2E2E2E2E2E2E2E2E2E2E2E2E2E2E2E2E2E2E2E2E2E2E2E2E2E2E2E2E2E2E2E2E2E2E2E2E2E2E2E2E2E2E2E2
310
E2E2E2E2E2E2E2E2E2E2E2E2E2E2E2E2E2E2E2E2E2E2E2E2E2E2E2E2E2E2E2E2E2E2E2E2E2E2E2E2E2E2E2E2E2E2E2E2E2E2E2E2E2E2E2E2E2E2E2E2E2E2E2E2E2E2E2E2E2E2E2E2E2E2E2E2E2E2E2E2E2E2E2E2E2E2E2E2E2E2E2E2E2E2E2E2E2E2E2E2E2E2E2E2E2E2E2E2E2E2E2E2E2E2E2E2E2E2E2E2E2E2E2E2E2E2E2
310
E2E2E2E2E2E2E2E2E2E2E2E2E2E2E2E2E2E2E2E2E2E2E2E2E2E2E2E2E2E2E2E2E2E2E2E2E2E2E2E2E2E2E2E2E2E2E2E2E2E2E2E2E2E2E2E2E2E2E2E2E2E2E2E2E2E2E2E2E2E2E2E2E2E2E2E2E2E2E2E2E2E2E2E2E2E2E2E2E2E2E2E2E2E2E2E2E2E2E2E2E2E2E2E2E2E2E2E2E2E2E2E2E2E2E2E2E2E2E2E2E2E2E2E2E2E2E2
310
E2E2E2E2E2E2E2E2E2E2E2E2E2E2E2E2E2E2E2E2E2E2E2E2E2E2E2E2E2E2E2E2E2E2E2E2E2E2E2E2E2E2E2E2E2E2E2E2E2E2E2E2E2E2E2E2E2E2E2E2E2E2E2E2E2E2E2E2E2E2E2E2E2E2E2E2E2E2E2E2E2E2E2E2E2E2E2E2E2E2E2E2E2E2E2E2E2E2E2E2E2E2E2E2E2E2E2E2E2E2E2E2E2E2E2E2E2E2E2E2E2E2E2E2E2E2E2
310
E2E2E2E2E2E2E2E2E2E2E2E2E2E2E2E2E2E2E2E2E2E2E2E2E2E2E2E2E2E2E2E2E2E2E2E2E2E2E2E2E2E2E2E2E2E2E2E2E2E2E2E2E2E2E2E2E2E2E2E2E2E2E2E2E2E2E2E2E2E2E2E2E2E2E2E2E2E2E2E2E2E2E2E2E2E2E2E2E2E2E2E2E2E2E2E2E2E2E2E2E2E2E2E2E2E2E2E2E2E2E2E2E2E2E2E2E2E2E2E2E2E2E2E2E2E2E2
310
E2E2E2E2E2E2E2E2E2E2E2E2E2E2E2E2E2E2E2E2E2E2E2E2E2E2E2E2E2E2E2E2E2E2E2E2E2E2E2E2E2E2E2E2E2E2E2E2E2E2E2E2E2E2E2E2E2E2E2E2E2E2E2E2E2E2E2E2E2E2E2E2E2E2E2E2E2E2E2E2E2E2E2E2E2E2E2E2E2E2E2E2E2E2E2E2E2E2E2E2E2E2E2E2E2E2E2E2E2E2E2E2E2E2E2E2E2E2E2E2E2E2E2E2E2E2E2
310
E2E2E2E2E2E2E2E2E2E2E2E2E2E2E2E2E2E2E2E2E2E2E2E2E2E2E2E2E2E2E2E2E2E2E2E2E2E2E2E2E2E2E2E2E2E2E2E2E2E2E2E2E2E2E2E2E2E2E2E2E2E2E2E2E2E2E2E2E2E2E2E2E2E2E2E2E2E2E2E2E2E2E2E2E2E2E2E2E2E2E2E2E2E2E2E2E2E2E2E2E2E2E2E2E2E2E2E2E2E2E2E2E2E2E2E2E2E2E2E2E2E2E2E2E2E2E2
310
E2E2E2E2E2E2E2E2E2E2E2E2E2E2E2E2E2E2E2E2E2E2E2E2E2E2E2E2E2E2E2E2E2E2E2E2E2E2E2E2E2E2E2E2E2E2E2E2E2E2E2E2E2E2E2E2E2E2E2E2E2E2E2E2E2E2E2E2E2E2E2E2E2E2E2E2E2E2E2E2E2E2E2E2E2E2E2E2E2E2E2E2E2E2E2E2E2E2E2E2E2E2E2E2E2E2E2E2E2E2E2E2E2E2E2E2E2E2E2E2E2E2E2E2E2E2E2
310
E2E2E2E2E2E2E2E2E2E2E2E2E2E2E2E2E2E2E2E2E2E2E2E2E2E2E2E2E2E2E2E2E2E2E2E2E2E2E2E2E2E2E2E2E2E2E2E2E2E2E2E2E2E2E2E2E2E2E2E2E2E2E2E2E2E2E2E2E2E2E2E2E2E2E2E2E2E2E2E2E2E2E2E2E2E2E2E2E2E2E2E2E2E2E2E2E2E2E2E2E2E2E2E2E2E2E2E2E2E2E2E2E2E2E2E2E2E2E2E2E2E2E2E2E2E2E2
310
E2E2E2E2E2E2E2E2E2E2E2E2E2E2E2E2E2E2E2E2E2E2E2E2E2E2E2E2E2E2E2E2E2E2E2E2E2E2E2E2E2E2E2E2E2E2E2E2E2E2E2E2E2E2E2E2E2E2E2E2E2E2E2E2E2E2E2E2E2E2E2E2E2E2E2E2E2E2E2E2E2E2E2E2E2E2E2E2E2E2E2E2E2E2E2E2E2E2E2E2E2E2E2E2E2E2E2E2E2E2E2E2E2E2E2E2E2E2E2E2E2E2E2E2E2E2E2
310
E2E2E2E2E2E2E2E2E2E2E2E2E2E2E2E2E2E2E2E2E2E2E2E2E2E2E2E2E2E2E2E2E2E2E2E2E2E2E2E2E2E2E2E2E2E2E2E2E2E2E2E2E2E2E2E2E2E2E2E2E2E2E2E2E2E2E2E2E2E2E2E2E2E2E2E2E2E2E2E2E2E2E2E2E2E2E2E2E2E2E2E2E2E2E2E2E2E2E2E2E2E2E2E2E2E2E2E2E2E2E2E2E2E2E2E2E2E2E2E2E2E2E2E2E2E2E2
310
E2E2E2E2E2E2E2E2E2E2E2E2E2E2E2E2E2E2E2E2E2E2E2E2E2E2E2E2E2E2E2E2E2E2E2E2E2E2E2E2E2E2E2E2E2E2E2E2E2E2E2E2E2E2E2E2E2E2E2E2E2E2E2E2E2E2E2E2E2E2E2E2E2E2E2E2E2E2E2E2E2E2E2E2E2E2E2E2E2E2E2E2E2E2E2E2E2E2E2E2E2E2E2E2E2E2E2E2E2E2E2E2E2E2E2E2E2E2E2E2E2E2E2E2E2E2E2
310
E2E2E2E2E2E2E2E2E2E2E2E2E2E2E2E2E2E2E2E2E2E2E2E2E2E2E2E2E2E2E2E2E2E2E2E2E2E2E2E2E2E2E2E2E2E2E2E2E2E2E2E2E2E2E2E2E2E2E2E2E2E2E2E2E2E2E2E2E2E2E2E2E2E2E2E2E2E2E2E2E2E2E2E2E2E2E2E2E2E2E2E2E2E2E2E2E2E2E2E2E2E2E2E2E2E2E2E2E2E2E2E2E2E2E2E2E2E2E2E2E2E2E2E2E2E2E2
310
E2E2E2E2E2E2E2E2E2E2E2E2E2E2E2E2E2E2E2E2E2E2E2E2E2E2E2E2E2E2E2E2E2E2E2E2E2E2E2E2E2E2E2E2E2E2E2E2E2E2E2E2E2E2E2E2E2E2E2E2E2E2E2E2E2E2E2E2E2E2E2E2E2E2E2E2E2E2E2E2E2E2E2E2E2E2E2E2E2E2E2E2E2E2E2E2E2E2E2E2E2E2E2E2E2E2E2E2E2E2E2E2E2E2E2E2E2E2E2E2E2E2E2E2E2E2E2
310
E2E2E2E2E2E2E2E2E2E2E2E2E2E2E2E2E2E2E2E2E2E2E2E2E2E2E2E2E2E2E2E2E2E2E2E2E2E2E2E2E2E2E2E2E2E2E2E2E2E2E2E2E2E2E2E2E2E2E2E2E2E2E2E2E2E2E2E2E2E2E2E2E2E2E2E2E2E2E2E2E2E2E2E2E2E2E2E2E2E2E2E2E2E2E2E2E2E2E2E2E2E2E2E2E2E2E2E2E2E2E2E2E2E2E2E2E2E2E2E2E2E2E2E2E2E2E2
310
E2E2E2E2E2E2E2E2E2E2E2E2E2E2E2E2E2E2E2E2E2E2E2E2E2E2E2E2E2E2E2E2E2E2E2E2E2E2E2E2E2E2E2E2E2E2E2E2E2E2E2E2E2E2E2E2E2E2E2E2E2E2E2E2E2E2E2E2E2E2E2E2E2E2E2E2E2E2E2E2E2E2E2E2E2E2E2E2E2E2E2E2E2E2E2E2E2E2E2E2E2E2E2E2E2E2E2E2E2E2E2E2E2E2E2E2E2E2E2E2E2E2E2E2E2E2E2
310
E2E2E2E2E2E2E2E2E2E2E2E2E2E2E2E2E2E2E2E2E2E2E2E2E2E2E2E2E2E2E2E2E2E2E2E2E2E2E2E2E2E2E2E2E2E2E2E2E2E2E2E2E2E2E2E2E2E2E2E2E2E2E2E2E2E2E2E2E2E2E2E2E2E2E2E2E2E2E2E2E2E2E2E2E2E2E2E2E2E2E2E2E2E2E2E2E2E2E2E2E2E2E2E2E2E2E2E2E2E2E2E2E2E2E2E2E2E2E2E2E2E2E2E2E2E2E2
310
E2E2E2E2E2E2E2E2E2E2E2E2E2E2E2E2E2E2E2E2E2E2E2E2E2E2E2E2E2E2E2E2E2E2E2E2E2E2E2E2E2E2E2E2E2E2E2E2E2E2E2E2E2E2E2E2E2E2E2E2E2E2E2E2E2E2E2E2E2E2E2E2E2E2E2E2E2E2E2E2E2E2E2E2E2E2E2E2E2E2E2E2E2E2E2E2E2E2E2E2E2E2E2E2E2E2E2E2E2E2E2E2E2E2E2E2E2E2E2E2E2E2E2E2E2E2E2
310
E2E2E2E2E2E2E2E2E2E2E2E2E2E2E2E2E2E2E2E2E2E2E2E2E2E2E2E2E2E2E2E2E2E2E2E2E2E2E2E2E2E2E2E2E2E2E2E2E2E2E2E2E2E2E2E2E2E2E2E2E2E2E2E2E2E2E2E2E2E2E2E2E2E2E2E2E2E2E2E2E2E2E2E2E2E2E2E2E2E2E2E2E2E2E2E2E2E2E2E2E2E2E2E2E2E2E2E2E2E2E2E2E2E2E2E2E2E2E2E2E2E2E2E2E2E2E2
310
E2E2E2E2E2E2E2E2E2E2E2E2E2E2E2E2E2E2E2E2E2E2E2E2E2E2E2E2E2E2E2E2E2E2E2E2E2E2E2E2E2E2E2E2E2E2E2E2E2E2E2E2E2E2E2E2E2E2E2E2E2E2E2E2E2E2E2E2E2E2E2E2E2E2E2E2E2E2E2E2E2E2E2E2E2E2E2E2E2E2E2E2E2E2E2E2E2E2E2E2E2E2E2E2E2E2E2E2E2E2E2E2E2E2E2E2E2E2E2E2E2E2E2E2E2E2E2
310
E2E2E2E2E2E2E2E2E2E2E2E2E2E2E2E2E2E2E2E2E2E2E2E2E2E2E2E2E2E2E2E2E2E2E2E2E2E2E2E2E2E2E2E2E2E2E2E2E2E2E2E2E2E2E2E2E2E2E2E2E2E2E2E2E2E2E2E2E2E2E2E2E2E2E2E2E2E2E2E2E2E2E2E2E2E2E2E2E2E2E2E2E2E2E2E2E2E2E2E2E2E2E2E2E2E2E2E2E2E2E2E2E2E2E2E2E2E2E2E2E2E2E2E2E2E2E2
310
E2E2E2E2E2E2E2E2E2E2E2E2E2E2E2E2E2E2E2E2E2E2E2E2E2E2E2E2E2E2E2E2E2E2E2E2E2E2E2E2E2E2E2E2E2E2E2E2E2E2E2E2E2E2E2E2E2E2E2E2E2E2E2E2E2E2E2E2E2E2E2E2E2E2E2E2E2E2E2E2E2E2E2E2E2E2E2E2E2E2E2E2E2E2E2E2E2E2E2E2E2E2E2E2E2E2E2E2E2E2E2E2E2E2E2E2E2E2E2E2E2E2E2E2E2E2E2
310
E2E2E2E2E2E2E2E2E2E2E2E2E2E2E2E2E2E2E2E2E2E2E2E2E2E2E2E2E2E2E2E2E2E2E2E2E2E2E2E2E2E2E2E2E2E2E2E2E2E2E2E2E2E2E2E2E2E2E2E2E2E2E2E2E2E2E2E2E2E2E2E2E2E2E2E2E2E2E2E2E2E2E2E2E2E2E2E2E2E2E2E2E2E2E2E2E2E2E2E2E2E2E2E2E2E2E2E2E2E2E2E2E2E2E2E2E2E2E2E2E2E2E2E2E2E2E2
310
E2E2E2E2E2E2E2E2E2E2E2E2E2E2E2E2E2E2E2E2E2E2E2E2E2E2E2E2E2E2E2E2E2E2E2E2E2E2E2E2E2E2E2E2E2E2E2E2E2E2E2E2E2E2E2E2E2E2E2E2E2E2E2E2E2E2E2E2E2E2E2E2E2E2E2E2E2E2E2E2E2E2E2E2E2E2E2E2E2E2E2E2E2E2E2E2E2E2E2E2E2E2E2E2E2E2E2E2E2E2E2E2E2E2E2E2E2E2E2E2E2E2E2E2E2E2E2
310
E2E2E2E2E2E2E2E2E2E2E2E2E2E2E2E2E2E2E2E2E2E2E2E2E2E2E2E2E2E2E2E2E2E2E2E2E2E2E2E2E2E2E2E2E2E2E2E2E2E2E2E2E2E2E2E2E2E2E2E2E2E2E2E2E2E2E2E2E2E2E2E2E2E2E2E2E2E2E2E2E2E2E2E2E2E2E2E2E2E2E2E2E2E2E2E2E2E2E2E2E2E2E2E2E2E2E2E2E2E2E2E2E2E2E2E2E2E2E2E2E2E2E2E2E2E2E2
310
E2E2E2E2E2E2E2E2E2E2E2E2E2E2E2E2E2E2E2E2E2E2E2E2E2E2E2E2E2E2E2E2E2E2E2E2E2E2E2E2E2E2E2E2E2E2E2E2E2E2E2E2E2E2E2E2E2E2E2E2E2E2E2E2E2E2E2E2E2E2E2E2E2E2E2E2E2E2E2E2E2E2E2E2E2E2E2E2E2E2E2E2E2E2E2E2E2E2E2E2E2E2E2E2E2E2E2E2E2E2E2E2E2E2E2E2E2E2E2E2E2E2E2E2E2E2E2
310
E2E2E2E2E2E2E2E2E2E2E2E2E2E2E2E2E2E2E2E2E2E2E2E2E2E2E2E2E2E2E2E2E2E2E2E2E2E2E2E2E2E2E2E2E2E2E2E2E2E2E2E2E2E2E2E2E2E2E2E2E2E2E2E2E2E2E2E2E2E2E2E2E2E2E2E2E2E2E2E2E2E2E2E2E2E2E2E2E2E2E2E2E2E2E2E2E2E2E2E2E2E2E2E2E2E2E2E2E2E2E2E2E2E2E2E2E2E2E2E2E2E2E2E2E2E2E2
310
E2E2E2E2E2E2E2E2E2E2E2E2E2E2E2E2E2E2E2E2E2E2E2E2E2E2E2E2E2E2E2E2E2E2E2E2E2E2E2E2E2E2E2E2E2E2E2E2E2E2E2E2E2E2E2E2E2E2E2E2E2E2E2E2E2E2E2E2E2E2E2E2E2E2E2E2E2E2E2E2E2E2E2E2E2E2E2E2E2E2E2E2E2E2E2E2E2E2E2E2E2E2E2E2E2E2E2E2E2E2E2E2E2E2E2E2E2E2E2E2E2E2E2E2E2E2E2
310
E2E2E2E2E2E2E2E2E2E2E2E2E2E2E2E2E2E2E2E2E2E2E2E2E2E2E2E2E2E2E2E2E2E2E2E2E2E2E2E2E2E2E2E2E2E2E2E2E2E2E2E2E2E2E2E2E2E2E2E2E2E2E2E2E2E2E2E2E2E2E2E2E2E2E2E2E2E2E2E2E2E2E2E2E2E2E2E2E2E2E2E2E2E2E2E2E2E2E2E2E2E2E2E2E2E2E2E2E2E2E2E2E2E2E2E2E2E2E2E2E2E2E2E2E2E2E2
310
E2E2E2E2E2E2E2E2E2E2E2E2E2E2E2E2E2E2E2E2E2E2E2E2E2E2E2E2E2E2E2E2E2E2E2E2E2E2E2E2E2E2E2E2E2E2E2E2E2E2E2E2E2E2E2E2E2E2E2E2E2E2E2E2E2E2E2E2E2E2E2E2E2E2E2E2E2E2E2E2E2E2E2E2E2E2E2E2E2E2E2E2E2E2E2E2E2E2E2E2E2E2E2E2E2E2E2E2E2E2E2E2E2E2E2E2E2E2E2E2E2E2E2E2E2E2E2
310
E2E2E2E2E2E2E2E2E2E2E2E2E2E2E2E2E2E2E2E2E2E2E2E2E2E2E2E2E2E2E2E2E2E2E2E2E2E2E2E2E2E2E2E2E2E2E2E2E2E2E2E2E2E2E2E2E2E2E2E2E2E2E2E2E2E2E2E2E2E2E2E2E2E2E2E2E2E2E2E2E2E2E2E2E2E2E2E2E2E2E2E2E2E2E2E2E2E2E2E2E2E2E2E2E2E2E2E2E2E2E2E2E2E2E2E2E2E2E2E2E2E2E2E2E2E2E2
310
E2E2E2E2E2E2E2E2E2E2E2E2E2E2E2E2E2E2E2E2E2E2E2E2E2E2E2E2E2E2E2E2E2E2E2E2E2E2E2E2E2E2E2E2E2E2E2E2E2E2E2E2E2E2E2E2E2E2E2E2E2E2E2E2E2E2E2E2E2E2E2E2E2E2E2E2E2E2E2E2E2E2E2E2E2E2E2E2E2E2E2E2E2E2E2E2E2E2E2E2E2E2E2E2E2E2E2E2E2E2E2E2E2E2E2E2E2E2E2E2E2E2E2E2E2E2E2
310
E2E2E2E2E2E2E2E2E2E2E2E2E2E2E2E2E2E2E2E2E2E2E2E2E2E2E2E2E2E2E2E2E2E2E2E2E2E2E2E2E2E2E2E2E2E2E2E2E2E2E2E2E2E2E2E2E2E2E2E2E2E2E2E2E2E2E2E2E2E2E2E2E2E2E2E2E2E2E2E2E2E2E2E2E2E2E2E2E2E2E2E2E2E2E2E2E2E2E2E2E2E2E2E2E2E2E2E2E2E2E2E2E2E2E2E2E2E2E2E2E2E2E2E2E2E2E2
310
E2E2E2E2E2E2E2E2E2E2E2E2E2E2E2E2E2E2E2E2E2E2E2E2E2E2E2E2E2E2E2E2E2E2E2E2E2E2E2E2E2E2E2E2E2E2E2E2E2E2E2E2E2E2E2E2E2E2E2E2E2E2E2E2E2E2E2E2E2E2E2E2E2E2E2E2E2E2E2E2E2E2E2E2E2E2E2E2E2E2E2E2E2E2E2E2E2E2E2E2E2E2E2E2E2E2E2E2E2E2E2E2E2E2E2E2E2E2E2E2E2E2E2E2E2E2E2
310
E2E2E2E2E2E2E2E2E2E2E2E2E2E2E2E2E2E2E2E2E2E2E2E2E2E2E2E2E2E2E2E2E2E2E2E2E2E2E2E2E2E2E2E2E2E2E2E2E2E2E2E2E2E2E2E2E2E2E2E2E2E2E2E2E2E2E2E2E2E2E2E2E2E2E2E2E2E2E2E2E2E2E2E2E2E2E2E2E2E2E2E2E2E2E2E2E2E2E2E2E2E2E2E2E2E2E2E2E2E2E2E2E2E2E2E2E2E2E2E2E2E2E2E2E2E2E2
310
E2E2E2E2E2E2E2E2E2E2E2E2E2E2E2E2E2E2E2E2E2E2E2E2E2E2E2E2E2E2E2E2E2E2E2E2E2E2E2E2E2E2E2E2E2E2E2E2E2E2E2E2E2E2E2E2E2E2E2E2E2E2E2E2E2E2E2E2E2E2E2E2E2E2E2E2E2E2E2E2E2E2E2E2E2E2E2E2E2E2E2E2E2E2E2E2E2E2E2E2E2E2E2E2E2E2E2E2E2E2E2E2E2E2E2E2E2E2E2E2E2E2E2E2E2E2E2
310
E2E2E2E2E2E2E2E2E2E2E2E2E2E2E2E2E2E2E2E2E2E2E2E2E2E2E2E2E2E2E2E2E2E2E2E2E2E2E2E2E2E2E2E2E2E2E2E2E2E2E2E2E2E2E2E2E2E2E2E2E2E2E2E2E2E2E2E2E2E2E2E2E2E2E2E2E2E2E2E2E2E2E2E2E2E2E2E2E2E2E2E2E2E2E2E2E2E2E2E2E2E2E2E2E2E2E2E2E2E2E2E2E2E2E2E2E2E2E2E2E2E2E2E2E2E2E2
310
E2E2E2E2E2E2E2E2E2E2E2E2E2E2E2E2E2E2E2E2E2E2E2E2E2E2E2E2E2E2E2E2E2E2E2E2E2E2E2E2E2E2E2E2E2E2E2E2E2E2E2E2E2E2E2E2E2E2E2E2E2E2E2E2E2E2E2E2E2E2E2E2E2E2E2E2E2E2E2E2E2E2E2E2E2E2E2E2E2E2E2E2E2E2E2E2E2E2E2E2E2E2E2E2E2E2E2E2E2E2E2E2E2E2E2E2E2E2E2E2E2E2E2E2E2E2E2
310
E2E2E2E2E2E2E2E2E2E2E2E2E2E2E2E2E2E2E2E2E2E2E2E2E2E2E2E2E2E2E2E2E2E2E2E2E2E2E2E2E2E2E2E2E2E2E2E2E2E2E2E2E2E2E2E2E2E2E2E2E2E2E2E2E2E2E2E2E2E2E2E2E2E2E2E2E2E2E2E2E2E2E2E2E2E2E2E2E2E2E2E2E2E2E2E2E2E2E2E2E2E2E2E2E2E2E2E2E2E2E2E2E2E2E2E2E2E2E2E2E2E2E2E2E2E2E2
310
E2E2E2E2E2E2E2E2E2E2E2E2E2E2E2E2E2E2E2E2E2E2E2E2E2E2E2E2E2E2E2E2E2E2E2E2E2E2E2E2E2E2E2E2E2E2E2E2E2E2E2E2E2E2E2E2E2E2E2E2E2E2E2E2E2E2E2E2E2E2E2E2E2E2E2E2E2E2E2E2E2E2E2E2E2E2E2E2E2E2E2E2E2E2E2E2E2E2E2E2E2E2E2E2E2E2E2E2E2E2E2E2E2E2E2E2E2E2E2E2E2E2E2E2E2E2E2
310
E2E2E2E2E2E2E2E2E2E2E2E2E2E2E2E2E2E2E2E2E2E2E2E2E2E2E2E2E2E2E2E2E2E2E2E2E2E2E2E2E2E2E2E2E2E2E2E2E2E2E2E2E2E2E2E2E2E2E2E2E2E2E2E2E2E2E2E2E2E2E2E2E2E2E2E2E2E2E2E2E2E2E2E2E2E2E2E2E2E2E2E2E2E2E2E2E2E2E2E2E2E2E2E2E2E2E2E2E2E2E2E2E2E2E2E2E2E2E2E2E2E2E2E2E2E2E2
310
E2E2E2E2E2E2E2E2E2E2E2E2E2E2E2E2E2E2E2E2E2E2E2E2E2E2E2E2E2E2E2E2E2E2E2E2E2E2E2E2E2E2E2E2E2E2E2E2E2E2E2E2E2E2E2E2E2E2E2E2E2E2E2E2E2E2E2E2E2E2E2E2E2E2E2E2E2E2E2E2E2E2E2E2E2E2E2E2E2E2E2E2E2E2E2E2E2E2E2E2E2E2E2E2E2E2E2E2E2E2E2E2E2E2E2E2E2E2E2E2E2E2E2E2E2E2E2
310
E2E2E2E2E2E2E2E2E2E2E2E2E2E2E2E2E2E2E2E2E2E2E2E2E2E2E2E2E2E2E2E2E2E2E2E2E2E2E2E2E2E2E2E2E2E2E2E2E2E2E2E2E2E2E2E2E2E2E2E2E2E2E2E2E2E2E2E2E2E2E2E2E2E2E2E2E2E2E2E2E2E2E2E2E2E2E2E2E2E2E2E2E2E2E2E2E2E2E2E2E2E2E2E2E2E2E2E2E2E2E2E2E2E2E2E2E2E2E2E2E2E2E2E2E2E2E2
310
E2E2E2E2E2E2E2E2E2E2E2E2E2E2E2E2E2E2E2E2E2E2E2E2E2E2E2E2E2E2E2E2E2E2E2E2E2E2E2E2E2E2E2E2E2E2E2E2E2E2E2E2E2E2E2E2E2E2E2E2E2E2E2E2E2E2E2E2E2E2E2E2E2E2E2E2E2E2E2E2E2E2E2E2E2E2E2E2E2E2E2E2E2E2E2E2E2E2E2E2E2E2E2E2E2E2E2E2E2E2E2E2E2E2E2E2E2E2E2E2E2E2E2E2E2E2E2
310
E2E2E2E2E2E2E2E2E2E2E2E2E2E2E2E2E2E2E2E2E2E2E2E2E2E2E2E2E2E2E2E2E2E2E2E2E2E2E2E2E2E2E2E2E2E2E2E2E2E2E2E2E2E2E2E2E2E2E2E2E2E2E2E2E2E2E2E2E2E2E2E2E2E2E2E2E2E2E2E2E2E2E2E2E2E2E2E2E2E2E2E2E2E2E2E2E2E2E2E2E2E2E2E2E2E2E2E2E2E2E2E2E2E2E2E2E2E2E2E2E2E2E2E2E2E2E2
310
E2E2E2E2E2E2E2E2E2E2E2E2E2E2E2E2E2E2E2E2E2E2E2E2E2E2E2E2E2E2E2E2E2E2E2E2E2E2E2E2E2E2E2E2E2E2E2E2E2E2E2E2E2E2E2E2E2E2E2E2E2E2E2E2E2E2E2E2E2E2E2E2E2E2E2E2E2E2E2E2E2E2E2E2E2E2E2E2E2E2E2E2E2E2E2E2E2E2E2E2E2E2E2E2E2E2E2E2E2E2E2E2E2E2E2E2E2E2E2E2E2E2E2E2E2E2E2
310
E2E2E2E2E2E2E2E2E2E2E2E2E2E2E2E2E2E2E2E2E2E2E2E2E2E2E2E2E2E2E2E2E2E2E2E2E2E2E2E2E2E2E2E2E2E2E2E2E2E2E2E2E2E2E2E2E2E2E2E2E2E2E2E2E2E2E2E2E2E2E2E2E2E2E2E2E2E2E2E2E2E2E2E2E2E2E2E2E2E2E2E2E2E2E2E2E2E2E2E2E2E2E2E2E2E2E2E2E2E2E2E2E2E2E2E2E2E2E2E2E2E2E2E2E2E2E2
310
E2E2E2E2E2E2E2E2E2E2E2E2E2E2E2E2E2E2E2E2E2E2E2E2E2E2E2E2E2E2E2E2E2E2E2E2E2E2E2E2E2E2E2E2E2E2E2E2E2E2E2E2E2E2E2E2E2E2E2E2E2E2E2E2E2E2E2E2E2E2E2E2E2E2E2E2E2E2E2E2E2E2E2E2E2E2E2E2E2E2E2E2E2E2E2E2E2E2E2E2E2E2E2E2E2E2E2E2E2E2E2E2E2E2E2E2E2E2E2E2E2E2E2E2E2E2E2
310
E2E2E2E2E2E2E2E2E2E2E2E2E2E2E2E2E2E2E2E2E2E2E2E2E2E2E2E2E2E2E2E2E2E2E2E2E2E2E2E2E2E2E2E2E2E2E2E2E2E2E2E2E2E2E2E2E2E2E2E2E2E2E2E2E2E2E2E2E2E2E2E2E2E2E2E2E2E2E2E2E2E2E2E2E2E2E2E2E2E2E2E2E2E2E2E2E2E2E2E2E2E2E2E2E2E2E2E2E2E2E2E2E2E2E2E2E2E2E2E2E2E2E2E2E2E2E2
310
E2E2E2E2E2E2E2E2E2E2E2E2E2E2E2E2E2E2E2E2E2E2E2E2E2E2E2E2E2E2E2E2E2E2E2E2E2E2E2E2E2E2E2E2E2E2E2E2E2E2E2E2E2E2E2E2E2E2E2E2E2E2E2E2E2E2E2E2E2E2E2E2E2E2E2E2E2E2E2E2E2E2E2E2E2E2E2E2E2E2E2E2E2E2E2E2E2E2E2E2E2E2E2E2E2E2E2E2E2E2E2E2E2E2E2E2E2E2E2E2E2E2E2E2E2E2E2
310
E2E2E2E2E2E2E2E2E2E2E2E2E2E2E2E2E2E2E2E2E2E2E2E2E2E2E2E2E2E2E2E2E2E2E2E2E2E2E2E2E2E2E2E2E2E2E2E2E2E2E2E2E2E2E2E2E2E2E2E2E2E2E2E2E2E2E2E2E2E2E2E2E2E2E2E2E2E2E2E2E2E2E2E2E2E2E2E2E2E2E2E2E2E2E2E2E2E2E2E2E2E2E2E2E2E2E2E2E2E2E2E2E2E2E2E2E2E2E2E2E2E2E2E2E2E2E2
310
E2E2E2E2E2E2E2E2E2E2E2E2E2E2E2E2E2E2E2E2E2E2E2E2E2E2E2E2E2E2E2E2E2E2E2E2E2E2E2E2E2E2E2E2E2E2E2E2E2E2E2E2E2E2E2E2E2E2E2E2E2E2E2E2E2E2E2E2E2E2E2E2E2E2E2E2E2E2E2E2E2E2E2E2E2E2E2E2E2E2E2E2E2E2E2E2E2E2E2E2E2E2E2E2E2E2E2E2E2E2E2E2E2E2E2E2E2E2E2E2E2E2E2E2E2E2E2
310
E2E2E2E2E2E2E2E2E2E2E2E2E2E2E2E2E2E2E2E2E2E2E2E2E2E2E2E2E2E2E2E2E2E2E2E2E2E2E2E2E2E2E2E2E2E2E2E2E2E2E2E2E2E2E2E2E2E2E2E2E2E2E2E2E2E2E2E2E2E2E2E2E2E2E2E2E2E2E2E2E2E2E2E2E2E2E2E2E2E2E2E2E2E2E2E2E2E2E2E2E2E2E2E2E2E2E2E2E2E2E2E2E2E2E2E2E2E2E2E2E2E2E2E2E2E2E2
310
E2E2E2E2E2E2E2E2E2E2E2E2E2E2E2E2E2E2E2E2E2E2E2E2E2E2E2E2E2E2E2E2E2E2E2E2E2E2E2E2E2E2E2E2E2E2E2E2E2E2E2E2E2E2E2E2E2E2E2E2E2E2E2E2E2E2E2E2E2E2E2E2E2E2E2E2E2E2E2E2E2E2E2E2E2E2E2E2E2E2E2E2E2E2E2E2E2E2E2E2E2E2E2E2E2E2E2E2E2E2E2E2E2E2E2E2E2E2E2E2E2E2E2E2E2E2E2
310
E2E2E2E2E2E2E2E2E2E2E2E2E2E2E2E2E2E2E2E2E2E2E2E2E2E2E2E2E2E2E2E2E2E2E2E2E2E2E2E2E2E2E2E2E2E2E2E2E2E2E2E2E2E2E2E2E2E2E2E2E2E2E2E2E2E2E2E2E2E2E2E2E2E2E2E2E2E2E2E2E2E2E2E2E2E2E2E2E2E2E2E2E2E2E2E2E2E2E2E2E2E2E2E2E2E2E2E2E2E2E2E2E2E2E2E2E2E2E2E2E2E2E2E2E2E2E2
310
E2E2E2E2E2E2E2E2E2E2E2E2E2E2E2E2E2E2E2E2E2E2E2E2E2E2E2E2E2E2E2E2E2E2E2E2E2E2E2E2E2E2E2E2E2E2E2E2E2E2E2E2E2E2E2E2E2E2E2E2E2E2E2E2E2E2E2E2E2E2E2E2E2E2E2E2E2E2E2E2E2E2E2E2E2E2E2E2E2E2E2E2E2E2E2E2E2E2E2E2E2E2E2E2E2E2E2E2E2E2E2E2E2E2E2E2E2E2E2E2E2E2E2E2E2E2E2
310
E2E2E2E2E2E2E2E2E2E2E2E2E2E2E2E2E2E2E2E2E2E2E2E2E2E2E2E2E2E2E2E2E2E2E2E2E2E2E2E2E2E2E2E2E2E2E2E2E2E2E2E2E2E2E2E2E2E2E2E2E2E2E2E2E2E2E2E2E2E2E2E2E2E2E2E2E2E2E2E2E2E2E2E2E2E2E2E2E2E2E2E2E2E2E2E2E2E2E2E2E2E2E2E2E2E2E2E2E2E2E2E2E2E2E2E2E2E2E2E2E2E2E2E2E2E2E2
310
E2E2E2E2E2E2E2E2E2E2E2E2E2E2E2E2E2E2E2E2E2E2E2E2E2E2E2E2E2E2E2E2E2E2E2E2E2E2E2E2E2E2E2E2E2E2E2E2E2E2E2E2E2E2E2E2E2E2E2E2E2E2E2E2E2E2E2E2E2E2E2E2E2E2E2E2E2E2E2E2E2E2E2E2E2E2E2E2E2E2E2E2E2E2E2E2E2E2E2E2E2E2E2E2E2E2E2E2E2E2E2E2E2E2E2E2E2E2E2E2E2E2E2E2E2E2E2
310
E2E2E2E2E2E2E2E2E2E2E2E2E2E2E2E2E2E2E2E2E2E2E2E2E2E2E2E2E2E2E2E2E2E2E2E2E2E2E2E2E2E2E2E2E2E2E2E2E2E2E2E2E2E2E2E2E2E2E2E2E2E2E2E2E2E2E2E2E2E2E2E2E2E2E2E2E2E2E2E2E2E2E2E2E2E2E2E2E2E2E2E2E2E2E2E2E2E2E2E2E2E2E2E2E2E2E2E2E2E2E2E2E2E2E2E2E2E2E2E2E2E2E2E2E2E2E2
310
E2E2E2E2E2E2E2E2E2E2E2E2E2E2E2E2E2E2E2E2E2E2E2E2E2E2E2E2E2E2E2E2E2E2E2E2E2E2E2E2E2E2E2E2E2E2E2E2E2E2E2E2E2E2E2E2E2E2E2E2E2E2E2E2E2E2E2E2E2E2E2E2E2E2E2E2E2E2E2E2E2E2E2E2E2E2E2E2E2E2E2E2E2E2E2E2E2E2E2E2E2E2E2E2E2E2E2E2E2E2E2E2E2E2E2E2E2E2E2E2E2E2E2E2E2E2E2
310
E2E2E2E2E2E2E2E2E2E2E2E2E2E2E2E2E2E2E2E2E2E2E2E2E2E2E2E2E2E2E2E2E2E2E2E2E2E2E2E2E2E2E2E2E2E2E2E2E2E2E2E2E2E2E2E2E2E2E2E2E2E2E2E2E2E2E2E2E2E2E2E2E2E2E2E2E2E2E2E2E2E2E2E2E2E2E2E2E2E2E2E2E2E2E2E2E2E2E2E2E2E2E2E2E2E2E2E2E2E2E2E2E2E2E2E2E2E2E2E2E2E2E2E2E2E2E2
310
E2E2E2E2E2E2E2E2E2E2E2E2E2E2E2E2E2E2E2E2E2E2E2E2E2E2E2E2E2E2E2E2E2E2E2E2E2E2E2E2E2E2E2E2E2E2E2E2E2E2E2E2E2E2E2E2E2E2E2E2E2E2E2E2E2E2E2E2E2E2E2E2E2E2E2E2E2E2E2E2E2E2E2E2E2E2E2E2E2E2E2E2E2E2E2E2E2E2E2E2E2E2E2E2E2E2E2E2E2E2E2E2E2E2E2E2E2E2E2E2E2E2E2E2E2E2E2
310
E2E2E2E2E2E2E2E2E2E2E2E2E2E2E2E2E2E2E2E2E2E2E2E2E2E2E2E2E2E2E2E2E2E2E2E2E2E2E2E2E2E2E2E2E2E2E2E2E2E2E2E2E2E2E2E2E2E2E2E2E2E2E2E2E2E2E2E2E2E2E2E2E2E2E2E2E2E2E2E2E2E2E2E2E2E2E2E2E2E2E2E2E2E2E2E2E2E2E2E2E2E2E2E2E2E2E2E2E2E2E2E2E2E2E2E2E2E2E2E2E2E2E2E2E2E2E2
310
E2E2E2E2E2E2E2E2E2E2E2E2E2E2E2E2E2E2E2E2E2E2E2E2E2E2E2E2E2E2E2E2E2E2E2E2E2E2E2E2E2E2E2E2E2E2E2E2E2E2E2E2E2E2E2E2E2E2E2E2E2E2E2E2E2E2E2E2E2E2E2E2E2E2E2E2E2E2E2E2E2E2E2E2E2E2E2E2E2E2E2E2E2E2E2E2E2E2E2E2E2E2E2E2E2E2E2E2E2E2E2E2E2E2E2E2E2E2E2E2E2E2E2E2E2E2E2
310
E2E2E2E2E2E2E2E2E2E2E2E2E2E2E2E2E2E2E2E2E2E2E2E2E2E2E2E2E2E2E2E2E2E2E2E2E2E2E2E2E2E2E2E2E2E2E2E2E2E2E2E2E2E2E2E2E2E2E2E2E2E2E2E2E2E2E2E2E2E2E2E2E2E2E2E2E2E2E2E2E2E2E2E2E2E2E2E2E2E2E2E2E2E2E2E2E2E2E2E2E2E2E2E2E2E2E2E2E2E2E2E2E2E2E2E2E2E2E2E2E2E2E2E2E2E2E2
310
E2E2E2E2E2E2E2E2E2E2E2E2E2E2E2E2E2E2E2E2E2E2E2E2E2E2E2E2E2E2E2E2E2E2E2E2E2E2E2E2E2E2E2E2E2E2E2E2E2E2E2E2E2E2E2E2E2E2E2E2E2E2E2E2E2E2E2E2E2E2E2E2E2E2E2E2E2E2E2E2E2E2E2E2E2E2E2E2E2E2E2E2E2E2E2E2E2E2E2E2E2E2E2E2E2E2E2E2E2E2E2E2E2E2E2E2E2E2E2E2E2E2E2E2E2E2E2
310
E2E2E2E2E2E2E2E2E2E2E2E2E2E2E2E2E2E2E2E2E2E2E2E2E2E2E2E2E2E2E2E2E2E2E2E2E2E2E2E2E2E2E2E2E2E2E2E2E2E2E2E2E2E2E2E2E2E2E2E2E2E2E2E2E2E2E2E2E2E2E2E2E2E2E2E2E2E2E2E2E2E2E2E2E2E2E2E2E2E2E2E2E2E2E2E2E2E2E2E2E2E2E2E2E2E2E2E2E2E2E2E2E2E2E2E2E2E2E2E2E2E2E2E2E2E2E2
310
E2E2E2E2E2E2E2E2E2E2E2E2E2E2E2E2E2E2E2E2E2E2E2E2E2E2E2E2E2E2E2E2E2E2E2E2E2E2E2E2E2E2E2E2E2E2E2E2E2E2E2E2E2E2E2E2E2E2E2E2E2E2E2E2E2E2E2E2E2E2E2E2E2E2E2E2E2E2E2E2E2E2E2E2E2E2E2E2E2E2E2E2E2E2E2E2E2E2E2E2E2E2E2E2E2E2E2E2E2E2E2E2E2E2E2E2E2E2E2E2E2E2E2E2E2E2E2
310
E2E2E2E2E2E2E2E2E2E2E2E2E2E2E2E2E2E2E2E2E2E2E2E2E2E2E2E2E2E2E2E2E2E2E2E2E2E2E2E2E2E2E2E2E2E2E2E2E2E2E2E2E2E2E2E2E2E2E2E2E2E2E2E2E2E2E2E2E2E2E2E2E2E2E2E2E2E2E2E2E2E2E2E2E2E2E2E2E2E2E2E2E2E2E2E2E2E2E2E2E2E2E2E2E2E2E2E2E2E2E2E2E2E2E2E2E2E2E2E2E2E2E2E2E2E2E2
310
E2E2E2E2E2E2E2E2E2E2E2E2E2E2E2E2E2E2E2E2E2E2E2E2E2E2E2E2E2E2E2E2E2E2E2E2E2E2E2E2E2E2E2E2E2E2E2E2E2E2E2E2E2E2E2E2E2E2E2E2E2E2E2E2E2E2E2E2E2E2E2E2E2E2E2E2E2E2E2E2E2E2E2E2E2E2E2E2E2E2E2E2E2E2E2E2E2E2E2E2E2E2E2E2E2E2E2E2E2E2E2E2E2E2E2E2E2E2E2E2E2E2E2E2E2E2E2
310
E2E2E2E2E2E2E2E2E2E2E2E2E2E2E2E2E2E2E2E2E2E2E2E2E2E2E2E2E2E2E2E2E2E2E2E2E2E2E2E2E2E2E2E2E2E2E2E2E2E2E2E2E2E2E2E2E2E2E2E2E2E2E2E2E2E2E2E2E2E2E2E2E2E2E2E2E2E2E2E2E2E2E2E2E2E2E2E2E2E2E2E2E2E2E2E2E2E2E2E2E2E2E2E2E2E2E2E2E2E2E2E2E2E2E2E2E2E2E2E2E2E2E2E2E2E2E2
310
E2E2E2E2E2E2E2E2E2E2E2E2E2E2E2E2E2E2E2E2E2E2E2E2E2E2E2E2E2E2E2E2E2E2E2E2E2E2E2E2E2E2E2E2E2E2E2E2E2E2E2E2E2E2E2E2E2E2E2E2E2E2E2E2E2E2E2E2E2E2E2E2E2E2E2E2E2E2E2E2E2E2E2E2E2E2E2E2E2E2E2E2E2E2E2E2E2E2E2E2E2E2E2E2E2E2E2E2E2E2E2E2E2E2E2E2E2E2E2E2E2E2E2E2E2E2E2
310
E2E2E2E2E2E2E2E2E2E2E2E2E2E2E2E2E2E2E2E2E2E2E2E2E2E2E2E2E2E2E2E2E2E2E2E2E2E2E2E2E2E2E2E2E2E2E2E2E2E2E2E2E2E2E2E2E2E2E2E2E2E2E2E2E2E2E2E2E2E2E2E2E2E2E2E2E2E2E2E2E2E2E2E2E2E2E2E2E2E2E2E2E2E2E2E2E2E2E2E2E2E2E2E2E2E2E2E2E2E2E2E2E2E2E2E2E2E2E2E2E2E2E2E2E2E2E2
310
E2E2E2E2E2E2E2E2E2E2E2E2E2E2E2E2E2E2E2E2E2E2E2E2E2E2E2E2E2E2E2E2E2E2E2E2E2E2E2E2E2E2E2E2E2E2E2E2E2E2E2E2E2E2E2E2E2E2E2E2E2E2E2E2E2E2E2E2E2E2E2E2E2E2E2E2E2E2E2E2E2E2E2E2E2E2E2E2E2E2E2E2E2E2E2E2E2E2E2E2E2E2E2E2E2E2E2E2E2E2E2E2E2E2E2E2E2E2E2E2E2E2E2E2E2E2E2
310
E2E2E2E2E2E2E2E2E2E2E2E2E2E2E2E2E2E2E2E2E2E2E2E2E2E2E2E2E2E2E2E2E2E2E2E2E2E2E2E2E2E2E2E2E2E2E2E2E2E2E2E2E2E2E2E2E2E2E2E2E2E2E2E2E2E2E2E2E2E2E2E2E2E2E2E2E2E2E2E2E2E2E2E2E2E2E2E2E2E2E2E2E2E2E2E2E2E2E2E2E2E2E2E2E2E2E2E2E2E2E2E2E2E2E2E2E2E2E2E2E2E2E2E2E2E2E2
310
E2E2E2E2E2E2E2E2E2E2E2E2E2E2E2E2E2E2E2E2E2E2E2E2E2E2E2E2E2E2E2E2E2E2E2E2E2E2E2E2E2E2E2E2E2E2E2E2E2E2E2E2E2E2E2E2E2E2E2E2E2E2E2E2E2E2E2E2E2E2E2E2E2E2E2E2E2E2E2E2E2E2E2E2E2E2E2E2E2E2E2E2E2E2E2E2E2E2E2E2E2E2E2E2E2E2E2E2E2E2E2E2E2E2E2E2E2E2E2E2E2E2E2E2E2E2E2
310
E2E2E2E2E2E2E2E2E2E2E2E2E2E2E2E2E2E2E2E2E2E2E2E2E2E2E2E2E2E2E2E2E2E2E2E2E2E2E2E2E2E2E2E2E2E2E2E2E2E2E2E2E2E2E2E2E2E2E2E2E2E2E2E2E2E2E2E2E2E2E2E2E2E2E2E2E2E2E2E2E2E2E2E2E2E2E2E2E2E2E2E2E2E2E2E2E2E2E2E2E2E2E2E2E2E2E2E2E2E2E2E2E2E2E2E2E2E2E2E2E2E2E2E2E2E2E2
310
E2E2E2E2E2E2E2E2E2E2E2E2E2E2E2E2E2E2E2E2E2E2E2E2E2E2E2E2E2E2E2E2E2E2E2E2E2E2E2E2E2E2E2E2E2E2E2E2E2E2E2E2E2E2E2E2E2E2E2E2E2E2E2E2E2E2E2E2E2E2E2E2E2E2E2E2E2E2E2E2E2E2E2E2E2E2E2E2E2E2E2E2E2E2E2E2E2E2E2E2E2E2E2E2E2E2E2E2E2E2E2E2E2E2E2E2E2E2E2E2E2E2E2E2E2E2E2
310
E2E2E2E2E2E2E2E2E2E2E2E2E2E2E2E2E2E2E2E2E2E2E2E2E2E2E2E2E2E2E2E2E2E2E2E2E2E2E2E2E2E2E2E2E2E2E2E2E2E2E2E2E2E2E2E2E2E2E2E2E2E2E2E2E2E2E2E2E2E2E2E2E2E2E2E2E2E2E2E2E2E2E2E2E2E2E2E2E2E2E2E2E2E2E2E2E2E2E2E2E2E2E2E2E2E2E2E2E2E2E2E2E2E2E2E2E2E2E2E2E2E2E2E2E2E2E2
310
E2E2E2E2E2E2E2E2E2E2E2E2E2E2E2E2E2E2E2E2E2E2E2E2E2E2E2E2E2E2E2E2E2E2E2E2E2E2E2E2E2E2E2E2E2E2E2E2E2E2E2E2E2E2E2E2E2E2E2E2E2E2E2E2E2E2E2E2E2E2E2E2E2E2E2E2E2E2E2E2E2E2E2E2E2E2E2E2E2E2E2E2E2E2E2E2E2E2E2E2E2E2E2E2E2E2E2E2E2E2E2E2E2E2E2E2E2E2E2E2E2E2E2E2E2E2E2
310
E2E2E2E2E2E2E2E2E2E2E2E2E2E2E2E2E2E2E2E2E2E2E2E2E2E2E2E2E2E2E2E2E2E2E2E2E2E2E2E2E2E2E2E2E2E2E2E2E2E2E2E2E2E2E2E2E2E2E2E2E2E2E2E2E2E2E2E2E2E2E2E2E2E2E2E2E2E2E2E2E2E2E2E2E2E2E2E2E2E2E2E2E2E2E2E2E2E2E2E2E2E2E2E2E2E2E2E2E2E2E2E2E2E2E2E2E2E2E2E2E2E2E2E2E2E2E2
310
E2E2E2E2E2E2E2E2E2E2E2E2E2E2E2E2E2E2E2E2E2E2E2E2E2E2E2E2E2E2E2E2E2E2E2E2E2E2E2E2E2E2E2E2E2E2E2E2E2E2E2E2E2E2E2E2E2E2E2E2E2E2E2E2E2E2E2E2E2E2E2E2E2E2E2E2E2E2E2E2E2E2E2E2E2E2E2E2E2E2E2E2E2E2E2E2E2E2E2E2E2E2E2E2E2E2E2E2E2E2E2E2E2E2E2E2E2E2E2E2E2E2E2E2E2E2E2
310
E2E2E2E2E2E2E2E2E2E2E2E2E2E2E2E2E2E2E2E2E2E2E2E2E2E2E2E2E2E2E2E2E2E2E2E2E2E2E2E2E2E2E2E2E2E2E2E2E2E2E2E2E2E2E2E2E2E2E2E2E2E2E2E2E2E2E2E2E2E2E2E2E2E2E2E2E2E2E2E2E2E2E2E2E2E2E2E2E2E2E2E2E2E2E2E2E2E2E2E2E2E2E2E2E2E2E2E2E2E2E2E2E2E2E2E2E2E2E2E2E2E2E2E2E2E2E2
310
E2E2E2E2E2E2E2E2E2E2E2E2E2E2E2E2E2E2E2E2E2E2E2E2E2E2E2E2E2E2E2E2E2E2E2E2E2E2E2E2E2E2E2E2E2E2E2E2E2E2E2E2E2E2E2E2E2E2E2E2E2E2E2E2E2E2E2E2E2E2E2E2E2E2E2E2E2E2E2E2E2E2E2E2E2E2E2E2E2E2E2E2E2E2E2E2E2E2E2E2E2E2E2E2E2E2E2E2E2E2E2E2E2E2E2E2E2E2E2E2E2E2E2E2E2E2E2
310
E2E2E2E2E2E2E2E2E2E2E2E2E2E2E2E2E2E2E2E2E2E2E2E2E2E2E2E2E2E2E2E2E2E2E2E2E2E2E2E2E2E2E2E2E2E2E2E2E2E2E2E2E2E2E2E2E2E2E2E2E2E2E2E2E2E2E2E2E2E2E2E2E2E2E2E2E2E2E2E2E2E2E2E2E2E2E2E2E2E2E2E2E2E2E2E2E2E2E2E2E2E2E2E2E2E2E2E2E2E2E2E2E2E2E2E2E2E2E2E2E2E2E2E2E2E2E2
310
E2E2E2E2E2E2E2E2E2E2E2E2E2E2E2E2E2E2E2E2E2E2E2E2E2E2E2E2E2E2E2E2E2E2E2E2E2E2E2E2E2E2E2E2E2E2E2E2E2E2E2E2E2E2E2E2E2E2E2E2E2E2E2E2E2E2E2E2E2E2E2E2E2E2E2E2E2E2E2E2E2E2E2E2E2E2E2E2E2E2E2E2E2E2E2E2E2E2E2E2E2E2E2E2E2E2E2E2E2E2E2E2E2E2E2E2E2E2E2E2E2E2E2E2E2E2E2
310
E2E2E2E2E2E2E2E2E2E2E2E2E2E2E2E2E2E2E2E2E2E2E2E2E2E2E2E2E2E2E2E2E2E2E2E2E2E2E2E2E2E2E2E2E2E2E2E2E2E2E2E2E2E2E2E2E2E2E2E2E2E2E2E2E2E2E2E2E2E2E2E2E2E2E2E2E2E2E2E2E2E2E2E2E2E2E2E2E2E2E2E2E2E2E2E2E2E2E2E2E2E2E2E2E2E2E2E2E2E2E2E2E2E2E2E2E2E2E2E2E2E2E2E2E2E2E2
310
E2E2E2E2E2E2E2E2E2E2E2E2E2E2E2E2E2E2E2E2E2E2E2E2E2E2E2E2E2E2E2E2E2E2E2E2E2E2E2E2E2E2E2E2E2E2E2E2E2E2E2E2E2E2E2E2E2E2E2E2E2E2E2E2E2E2E2E2E2E2E2E2E2E2E2E2E2E2E2E2E2E2E2E2E2E2E2E2E2E2E2E2E2E2E2E2E2E2E2E2E2E2E2E2E2E2E2E2E2E2E2E2E2E2E2E2E2E2E2E2E2E2E2E2E2E2E2
310
E2E2E2E2E2E2E2E2E2E2E2E2E2E2E2E2E2E2E2E2E2E2E2E2E2E2E2E2E2E2E2E2E2E2E2E2E2E2E2E2E2E2E2E2E2E2E2E2E2E2E2E2E2E2E2E2E2E2E2E2E2E2E2E2E2E2E2E2E2E2E2E2E2E2E2E2E2E2E2E2E2E2E2E2E2E2E2E2E2E2E2E2E2E2E2E2E2E2E2E2E2E2E2E2E2E2E2E2E2E2E2E2E2E2E2E2E2E2E2E2E2E2E2E2E2E2E2
310
E2E2E2E2E2E2E2E2E2E2E2E2E2E2E2E2E2E2E2E2E2E2E2E2E2E2E2E2E2E2E2E2E2E2E2E2E2E2E2E2E2E2E2E2E2E2E2E2E2E2E2E2E2E2E2E2E2E2E2E2E2E2E2E2E2E2E2E2E2E2E2E2E2E2E2E2E2E2E2E2E2E2E2E2E2E2E2E2E2E2E2E2E2E2E2E2E2E2E2E2E2E2E2E2E2E2E2E2E2E2E2E2E2E2E2E2E2E2E2E2E2E2E2E2E2E2E2
310
E2E2E2E2E2E2E2E2E2E2E2E2E2E2E2E2E2E2E2E2E2E2E2E2E2E2E2E2E2E2E2E2E2E2E2E2E2E2E2E2E2E2E2E2E2E2E2E2E2E2E2E2E2E2E2E2E2E2E2E2E2E2E2E2E2E2E2E2E2E2E2E2E2E2E2E2E2E2E2E2E2E2E2E2E2E2E2E2E2E2E2E2E2E2E2E2E2E2E2E2E2E2E2E2E2E2E2E2E2E2E2E2E2E2E2E2E2E2E2E2E2E2E2E2E2E2E2
310
E2E2E2E2E2E2E2E2E2E2E2E2E2E2E2E2E2E2E2E2E2E2E2E2E2E2E2E2E2E2E2E2E2E2E2E2E2E2E2E2E2E2E2E2E2E2E2E2E2E2E2E2E2E2E2E2E2E2E2E2E2E2E2E2E2E2E2E2E2E2E2E2E2E2E2E2E2E2E2E2E2E2E2E2E2E2E2E2E2E2E2E2E2E2E2E2E2E2E2E2E2E2E2E2E2E2E2E2E2E2E2E2E2E2E2E2E2E2E2E2E2E2E2E2E2E2E2
310
E2E2E2E2E2E2E2E2E2E2E2E2E2E2E2E2E2E2E2E2E2E2E2E2E2E2E2E2E2E2E2E2E2E2E2E2E2E2E2E2E2E2E2E2E2E2E2E2E2E2E2E2E2E2E2E2E2E2E2E2E2E2E2E2E2E2E2E2E2E2E2E2E2E2E2E2E2E2E2E2E2E2E2E2E2E2E2E2E2E2E2E2E2E2E2E2E2E2E2E2E2E2E2E2E2E2E2E2E2E2E2E2E2E2E2E2E2E2E2E2E2E2E2E2E2E2E2
310
E2E2E2E2E2E2E2E2E2E2E2E2E2E2E2E2E2E2E2E2E2E2E2E2E2E2E2E2E2E2E2E2E2E2E2E2E2E2E2E2E2E2E2E2E2E2E2E2E2E2E2E2E2E2E2E2E2E2E2E2E2E2E2E2E2E2E2E2E2E2E2E2E2E2E2E2E2E2E2E2E2E2E2E2E2E2E2E2E2E2E2E2E2E2E2E2E2E2E2E2E2E2E2E2E2E2E2E2E2E2E2E2E2E2E2E2E2E2E2E2E2E2E2E2E2E2E2
310
E2E2E2E2E2E2E2E2E2E2E2E2E2E2E2E2E2E2E2E2E2E2E2E2E2E2E2E2E2E2E2E2E2E2E2E2E2E2E2E2E2E2E2E2E2E2E2E2E2E2E2E2E2E2E2E2E2E2E2E2E2E2E2E2E2E2E2E2E2E2E2E2E2E2E2E2E2E2E2E2E2E2E2E2E2E2E2E2E2E2E2E2E2E2E2E2E2E2E2E2E2E2E2E2E2E2E2E2E2E2E2E2E2E2E2E2E2E2E2E2E2E2E2E2E2E2E2
310
E2E2E2E2E2E2E2E2E2E2E2E2E2E2E2E2E2E2E2E2E2E2E2E2E2E2E2E2E2E2E2E2E2E2E2E2E2E2E2E2E2E2E2E2E2E2E2E2E2E2E2E2E2E2E2E2E2E2E2E2E2E2E2E2E2E2E2E2E2E2E2E2E2E2E2E2E2E2E2E2E2E2E2E2E2E2E2E2E2E2E2E2E2E2E2E2E2E2E2E2E2E2E2E2E2E2E2E2E2E2E2E2E2E2E2E2E2E2E2E2E2E2E2E2E2E2E2
310
E2E2E2E2E2E2E2E2E2E2E2E2E2E2E2E2E2E2E2E2E2E2E2E2E2E2E2E2E2E2E2E2E2E2E2E2E2E2E2E2E2E2E2E2E2E2E2E2E2E2E2E2E2E2E2E2E2E2E2E2E2E2E2E2E2E2E2E2E2E2E2E2E2E2E2E2E2E2E2E2E2E2E2E2E2E2E2E2E2E2E2E2E2E2E2E2E2E2E2E2E2E2E2E2E2E2E2E2E2E2E2E2E2E2E2E2E2E2E2E2E2E2E2E2E2E2E2
310
E2E2E2E2E2E2E2E2E2E2E2E2E2E2E2E2E2E2E2E2E2E2E2E2E2E2E2E2E2E2E2E2E2E2E2E2E2E2E2E2E2E2E2E2E2E2E2E2E2E2E2E2E2E2E2E2E2E2E2E2E2E2E2E2E2E2E2E2E2E2E2E2E2E2E2E2E2E2E2E2E2E2E2E2E2E2E2E2E2E2E2E2E2E2E2E2E2E2E2E2E2E2E2E2E2E2E2E2E2E2E2E2E2E2E2E2E2E2E2E2E2E2E2E2E2E2E2
310
E2E2E2E2E2E2E2E2E2E2E2E2E2E2E2E2E2E2E2E2E2E2E2E2E2E2E2E2E2E2E2E2E2E2E2E2E2E2E2E2E2E2E2E2E2E2E2E2E2E2E2E2E2E2E2E2E2E2E2E2E2E2E2E2E2E2E2E2E2E2E2E2E2E2E2E2E2E2E2E2E2E2E2E2E2E2E2E2E2E2E2E2E2E2E2E2E2E2E2E2E2E2E2E2E2E2E2E2E2E2E2E2E2E2E2E2E2E2E2E2E2E2E2E2E2E2E2
310
E2E2E2E2E2E2E2E2E2E2E2E2E2E2E2E2E2E2E2E2E2E2E2E2E2E2E2E2E2E2E2E2E2E2E2E2E2E2E2E2E2E2E2E2E2E2E2E2E2E2E2E2E2E2E2E2E2E2E2E2E2E2E2E2E2E2E2E2E2E2E2E2E2E2E2E2E2E2E2E2E2E2E2E2E2E2E2E2E2E2E2E2E2E2E2E2E2E2E2E2E2E2E2E2E2E2E2E2E2E2E2E2E2E2E2E2E2E2E2E2E2E2E2E2E2E2E2
310
E2E2E2E2E2E2E2E2E2E2E2E2E2E2E2E2E2E2E2E2E2E2E2E2E2E2E2E2E2E2E2E2E2E2E2E2E2E2E2E2E2E2E2E2E2E2E2E2E2E2E2E2E2E2E2E2E2E2E2E2E2E2E2E2E2E2E2E2E2E2E2E2E2E2E2E2E2E2E2E2E2E2E2E2E2E2E2E2E2E2E2E2E2E2E2E2E2E2E2E2E2E2E2E2E2E2E2E2E2E2E2E2E2E2E2E2E2E2E2E2E2E2E2E2E2E2E2
310
E2E2E2E2E2E2E2E2E2E2E2E2E2E2E2E2E2E2E2E2E2E2E2E2E2E2E2E2E2E2E2E2E2E2E2E2E2E2E2E2E2E2E2E2E2E2E2E2E2E2E2E2E2E2E2E2E2E2E2E2E2E2E2E2E2E2E2E2E2E2E2E2E2E2E2E2E2E2E2E2E2E2E2E2E2E2E2E2E2E2E2E2E2E2E2E2E2E2E2E2E2E2E2E2E2E2E2E2E2E2E2E2E2E2E2E2E2E2E2E2E2E2E2E2E2E2E2
310
E2E2E2E2E2E2E2E2E2E2E2E2E2E2E2E2E2E2E2E2E2E2E2E2E2E2E2E2E2E2E2E2E2E2E2E2E2E2E2E2E2E2E2E2E2E2E2E2E2E2E2E2E2E2E2E2E2E2E2E2E2E2E2E2E2E2E2E2E2E2E2E2E2E2E2E2E2E2E2E2E2E2E2E2E2E2E2E2E2E2E2E2E2E2E2E2E2E2E2E2E2E2E2E2E2E2E2E2E2E2E2E2E2E2E2E2E2E2E2E2E2E2E2E2E2E2E2
310
E2E2E2E2E2E2E2E2E2E2E2E2E2E2E2E2E2E2E2E2E2E2E2E2E2E2E2E2E2E2E2E2E2E2E2E2E2E2E2E2E2E2E2E2E2E2E2E2E2E2E2E2E2E2E2E2E2E2E2E2E2E2E2E2E2E2E2E2E2E2E2E2E2E2E2E2E2E2E2E2E2E2E2E2E2E2E2E2E2E2E2E2E2E2E2E2E2E2E2E2E2E2E2E2E2E2E2E2E2E2E2E2E2E2E2E2E2E2E2E2E2E2E2E2E2E2E2
310
E2E2E2E2E2E2E2E2E2E2E2E2E2E2E2E2E2E2E2E2E2E2E2E2E2E2E2E2E2E2E2E2E2E2E2E2E2E2E2E2E2E2E2E2E2E2E2E2E2E2E2E2E2E2E2E2E2E2E2E2E2E2E2E2E2E2E2E2E2E2E2E2E2E2E2E2E2E2E2E2E2E2E2E2E2E2E2E2E2E2E2E2E2E2E2E2E2E2E2E2E2E2E2E2E2E2E2E2E2E2E2E2E2E2E2E2E2E2E2E2E2E2E2E2E2E2E2
310
E2E2E2E2E2E2E2E2E2E2E2E2E2E2E2E2E2E2E2E2E2E2E2E2E2E2E2E2E2E2E2E2E2E2E2E2E2E2E2E2E2E2E2E2E2E2E2E2E2E2E2E2E2E2E2E2E2E2E2E2E2E2E2E2E2E2E2E2E2E2E2E2E2E2E2E2E2E2E2E2E2E2E2E2E2E2E2E2E2E2E2E2E2E2E2E2E2E2E2E2E2E2E2E2E2E2E2E2E2E2E2E2E2E2E2E2E2E2E2E2E2E2E2E2E2E2E2
310
E2E2E2E2E2E2E2E2E2E2E2E2E2E2E2E2E2E2E2E2E2E2E2E2E2E2E2E2E2E2E2E2E2E2E2E2E2E2E2E2E2E2E2E2E2E2E2E2E2E2E2E2E2E2E2E2E2E2E2E2E2E2E2E2E2E2E2E2E2E2E2E2E2E2E2E2E2E2E2E2E2E2E2E2E2E2E2E2E2E2E2E2E2E2E2E2E2E2E2E2E2E2E2E2E2E2E2E2E2E2E2E2E2E2E2E2E2E2E2E2E2E2E2E2E2E2E2
310
E2E2E2E2E2E2E2E2E2E2E2E2E2E2E2E2E2E2E2E2E2E2E2E2E2E2E2E2E2E2E2E2E2E2E2E2E2E2E2E2E2E2E2E2E2E2E2E2E2E2E2E2E2E2E2E2E2E2E2E2E2E2E2E2E2E2E2E2E2E2E2E2E2E2E2E2E2E2E2E2E2E2E2E2E2E2E2E2E2E2E2E2E2E2E2E2E2E2E2E2E2E2E2E2E2E2E2E2E2E2E2E2E2E2E2E2E2E2E2E2E2E2E2E2E2E2E2
310
E2E2E2E2E2E2E2E2E2E2E2E2E2E2E2E2E2E2E2E2E2E2E2E2E2E2E2E2E2E2E2E2E2E2E2E2E2E2E2E2E2E2E2E2E2E2E2E2E2E2E2E2E2E2E2E2E2E2E2E2E2E2E2E2E2E2E2E2E2E2E2E2E2E2E2E2E2E2E2E2E2E2E2E2E2E2E2E2E2E2E2E2E2E2E2E2E2E2E2E2E2E2E2E2E2E2E2E2E2E2E2E2E2E2E2E2E2E2E2E2E2E2E2E2E2E2E2
310
E2E2E2E2E2E2E2E2E2E2E2E2E2E2E2E2E2E2E2E2E2E2E2E2E2E2E2E2E2E2E2E2E2E2E2E2E2E2E2E2E2E2E2E2E2E2E2E2E2E2E2E2E2E2E2E2E2E2E2E2E2E2E2E2E2E2E2E2E2E2E2E2E2E2E2E2E2E2E2E2E2E2E2E2E2E2E2E2E2E2E2E2E2E2E2E2E2E2E2E2E2E2E2E2E2E2E2E2E2E2E2E2E2E2E2E2E2E2E2E2E2E2E2E2E2E2E2
310
E2E2E2E2E2E2E2E2E2E2E2E2E2E2E2E2E2E2E2E2E2E2E2E2E2E2E2E2E2E2E2E2E2E2E2E2E2E2E2E2E2E2E2E2E2E2E2E2E2E2E2E2E2E2E2E2E2E2E2E2E2E2E2E2E2E2E2E2E2E2E2E2E2E2E2E2E2E2E2E2E2E2E2E2E2E2E2E2E2E2E2E2E2E2E2E2E2E2E2E2E2E2E2E2E2E2E2E2E2E2E2E2E2E2E2E2E2E2E2E2E2E2E2E2E2E2E2
310
E2E2E2E2E2E2E2E2E2E2E2E2E2E2E2E2E2E2E2E2E2E2E2E2E2E2E2E2E2E2E2E2E2E2E2E2E2E2E2E2E2E2E2E2E2E2E2E2E2E2E2E2E2E2E2E2E2E2E2E2E2E2E2E2E2E2E2E2E2E2E2E2E2E2E2E2E2E2E2E2E2E2E2E2E2E2E2E2E2E2E2E2E2E2E2E2E2E2E2E2E2E2E2E2E2E2E2E2E2E2E2E2E2E2E2E2E2E2E2E2E2E2E2E2E2E2E2
310
E2E2E2E2E2E2E2E2E2E2E2E2E2E2E2E2E2E2E2E2E2E2E2E2E2E2E2E2E2E2E2E2E2E2E2E2E2E2E2E2E2E2E2E2E2E2E2E2E2E2E2E2E2E2E2E2E2E2E2E2E2E2E2E2E2E2E2E2E2E2E2E2E2E2E2E2E2E2E2E2E2E2E2E2E2E2E2E2E2E2E2E2E2E2E2E2E2E2E2E2E2E2E2E2E2E2E2E2E2E2E2E2E2E2E2E2E2E2E2E2E2E2E2E2E2E2E2
310
E2E2E2E2E2E2E2E2E2E2E2E2E2E2E2E2E2E2E2E2E2E2E2E2E2E2E2E2E2E2E2E2E2E2E2E2E2E2E2E2E2E2E2E2E2E2E2E2E2E2E2E2E2E2E2E2E2E2E2E2E2E2E2E2E2E2E2E2E2E2E2E2E2E2E2E2E2E2E2E2E2E2E2E2E2E2E2E2E2E2E2E2E2E2E2E2E2E2E2E2E2E2E2E2E2E2E2E2E2E2E2E2E2E2E2E2E2E2E2E2E2E2E2E2E2E2E2
310
E2E2E2E2E2E2E2E2E2E2E2E2E2E2E2E2E2E2E2E2E2E2E2E2E2E2E2E2E2E2E2E2E2E2E2E2E2E2E2E2E2E2E2E2E2E2E2E2E2E2E2E2E2E2E2E2E2E2E2E2E2E2E2E2E2E2E2E2E2E2E2E2E2E2E2E2E2E2E2E2E2E2E2E2E2E2E2E2E2E2E2E2E2E2E2E2E2E2E2E2E2E2E2E2E2E2E2E2E2E2E2E2E2E2E2E2E2E2E2E2E2E2E2E2E2E2E2
310
E2E2E2E2E2E2E2E2E2E2E2E2E2E2E2E2E2E2E2E2E2E2E2E2E2E2E2E2E2E2E2E2E2E2E2E2E2E2E2E2E2E2E2E2E2E2E2E2E2E2E2E2E2E2E2E2E2E2E2E2E2E2E2E2E2E2E2E2E2E2E2E2E2E2E2E2E2E2E2E2E2E2E2E2E2E2E2E2E2E2E2E2E2E2E2E2E2E2E2E2E2E2E2E2E2E2E2E2E2E2E2E2E2E2E2E2E2E2E2E2E2E2E2E2E2E2E2
310
E2E2E2E2E2E2E2E2E2E2E2E2E2E2E2E2E2E2E2E2E2E2E2E2E2E2E2E2E2E2E2E2E2E2E2E2E2E2E2E2E2E2E2E2E2E2E2E2E2E2E2E2E2E2E2E2E2E2E2E2E2E2E2E2E2E2E2E2E2E2E2E2E2E2E2E2E2E2E2E2E2E2E2E2E2E2E2E2E2E2E2E2E2E2E2E2E2E2E2E2E2E2E2E2E2E2E2E2E2E2E2E2E2E2E2E2E2E2E2E2E2E2E2E2E2E2E2
310
E2E2E2E2E2E2E2E2E2E2E2E2E2E2E2E2E2E2E2E2E2E2E2E2E2E2E2E2E2E2E2E2E2E2E2E2E2E2E2E2E2E2E2E2E2E2E2E2E2E2E2E2E2E2E2E2E2E2E2E2E2E2E2E2E2E2E2E2E2E2E2E2E2E2E2E2E2E2E2E2E2E2E2E2E2E2E2E2E2E2E2E2E2E2E2E2E2E2E2E2E2E2E2E2E2E2E2E2E2E2E2E2E2E2E2E2E2E2E2E2E2E2E2E2E2E2E2
310
E2E2E2E2E2E2E2E2E2E2E2E2E2E2E2E2E2E2E2E2E2E2E2E2E2E2E2E2E2E2E2E2E2E2E2E2E2E2E2E2E2E2E2E2E2E2E2E2E2E2E2E2E2E2E2E2E2E2E2E2E2E2E2E2E2E2E2E2E2E2E2E2E2E2E2E2E2E2E2E2E2E2E2E2E2E2E2E2E2E2E2E2E2E2E2E2E2E2E2E2E2E2E2E2E2E2E2E2E2E2E2E2E2E2E2E2E2E2E2E2E2E2E2E2E2E2E2
310
E2E2E2E2E2E2E2E2E2E2E2E2E2E2E2E2E2E2E2E2E2E2E2E2E2E2E2E2E2E2E2E2E2E2E2E2E2E2E2E2E2E2E2E2E2E2E2E2E2E2E2E2E2E2E2E2E2E2E2E2E2E2E2E2E2E2E2E2E2E2E2E2E2E2E2E2E2E2E2E2E2E2E2E2E2E2E2E2E2E2E2E2E2E2E2E2E2E2E2E2E2E2E2E2E2E2E2E2E2E2E2E2E2E2E2E2E2E2E2E2E2E2E2E2E2E2E2
310
E2E2E2E2E2E2E2E2E2E2E2E2E2E2E2E2E2E2E2E2E2E2E2E2E2E2E2E2E2E2E2E2E2E2E2E2E2E2E2E2E2E2E2E2E2E2E2E2E2E2E2E2E2E2E2E2E2E2E2E2E2E2E2E2E2E2E2E2E2E2E2E2E2E2E2E2E2E2E2E2E2E2E2E2E2E2E2E2E2E2E2E2E2E2E2E2E2E2E2E2E2E2E2E2E2E2E2E2E2E2E2E2E2E2E2E2E2E2E2E2E2E2E2E2E2E2E2
310
E2E2E2E2E2E2E2E2E2E2E2E2E2E2E2E2E2E2E2E2E2E2E2E2E2E2E2E2E2E2E2E2E2E2E2E2E2E2E2E2E2E2E2E2E2E2E2E2E2E2E2E2E2E2E2E2E2E2E2E2E2E2E2E2E2E2E2E2E2E2E2E2E2E2E2E2E2E2E2E2E2E2E2E2E2E2E2E2E2E2E2E2E2E2E2E2E2E2E2E2E2E2E2E2E2E2E2E2E2E2E2E2E2E2E2E2E2E2E2E2E2E2E2E2E2E2E2
310
E2E2E2E2E2E2E2E2E2E2E2E2E2E2E2E2E2E2E2E2E2E2E2E2E2E2E2E2E2E2E2E2E2E2E2E2E2E2E2E2E2E2E2E2E2E2E2E2E2E2E2E2E2E2E2E2E2E2E2E2E2E2E2E2E2E2E2E2E2E2E2E2E2E2E2E2E2E2E2E2E2E2E2E2E2E2E2E2E2E2E2E2E2E2E2E2E2E2E2E2E2E2E2E2E2E2E2E2E2E2E2E2E2E2E2E2E2E2E2E2E2E2E2E2E2E2E2
310
E2E2E2E2E2E2E2E2E2E2E2E2E2E2E2E2E2E2E2E2E2E2E2E2E2E2E2E2E2E2E2E2E2E2E2E2E2E2E2E2E2E2E2E2E2E2E2E2E2E2E2E2E2E2E2E2E2E2E2E2E2E2E2E2E2E2E2E2E2E2E2E2E2E2E2E2E2E2E2E2E2E2E2E2E2E2E2E2E2E2E2E2E2E2E2E2E2E2E2E2E2E2E2E2E2E2E2E2E2E2E2E2E2E2E2E2E2E2E2E2E2E2E2E2E2E2E2
310
E2E2E2E2E2E2E2E2E2E2E2E2E2E2E2E2E2E2E2E2E2E2E2E2E2E2E2E2E2E2E2E2E2E2E2E2E2E2E2E2E2E2E2E2E2E2E2E2E2E2E2E2E2E2E2E2E2E2E2E2E2E2E2E2E2E2E2E2E2E2E2E2E2E2E2E2E2E2E2E2E2E2E2E2E2E2E2E2E2E2E2E2E2E2E2E2E2E2E2E2E2E2E2E2E2E2E2E2E2E2E2E2E2E2E2E2E2E2E2E2E2E2E2E2E2E2E2
310
E2E2E2E2E2E2E2E2E2E2E2E2E2E2E2E2E2E2E2E2E2E2E2E2E2E2E2E2E2E2E2E2E2E2E2E2E2E2E2E2E2E2E2E2E2E2E2E2E2E2E2E2E2E2E2E2E2E2E2E2E2E2E2E2E2E2E2E2E2E2E2E2E2E2E2E2E2E2E2E2E2E2E2E2E2E2E2E2E2E2E2E2E2E2E2E2E2E2E2E2E2E2E2E2E2E2E2E2E2E2E2E2E2E2E2E2E2E2E2E2E2E2E2E2E2E2E2
310
E2E2E2E2E2E2E2E2E2E2E2E2E2E2E2E2E2E2E2E2E2E2E2E2E2E2E2E2E2E2E2E2E2E2E2E2E2E2E2E2E2E2E2E2E2E2E2E2E2E2E2E2E2E2E2E2E2E2E2E2E2E2E2E2E2E2E2E2E2E2E2E2E2E2E2E2E2E2E2E2E2E2E2E2E2E2E2E2E2E2E2E2E2E2E2E2E2E2E2E2E2E2E2E2E2E2E2E2E2E2E2E2E2E2E2E2E2E2E2E2E2E2E2E2E2E2E2
310
E2E2E2E2E2E2E2E2E2E2E2E2E2E2E2E2E2E2E2E2E2E2E2E2E2E2E2E2E2E2E2E2E2E2E2E2E2E2E2E2E2E2E2E2E2E2E2E2E2E2E2E2E2E2E2E2E2E2E2E2E2E2E2E2E2E2E2E2E2E2E2E2E2E2E2E2E2E2E2E2E2E2E2E2E2E2E2E2E2E2E2E2E2E2E2E2E2E2E2E2E2E2E2E2E2E2E2E2E2E2E2E2E2E2E2E2E2E2E2E2E2E2E2E2E2E2E2
310
E2E2E2E2E2E2E2E2E2E2E2E2E2E2E2E2E2E2E2E2E2E2E2E2E2E2E2E2E2E2E2E2E2E2E2E2E2E2E2E2E2E2E2E2E2E2E2E2E2E2E2E2E2E2E2E2E2E2E2E2E2E2E2E2E2E2E2E2E2E2E2E2E2E2E2E2E2E2E2E2E2E2E2E2E2E2E2E2E2E2E2E2E2E2E2E2E2E2E2E2E2E2E2E2E2E2E2E2E2E2E2E2E2E2E2E2E2E2E2E2E2E2E2E2E2E2E2
310
E2E2E2E2E2E2E2E2E2E2E2E2E2E2E2E2E2E2E2E2E2E2E2E2E2E2E2E2E2E2E2E2E2E2E2E2E2E2E2E2E2E2E2E2E2E2E2E2E2E2E2E2E2E2E2E2E2E2E2E2E2E2E2E2E2E2E2E2E2E2E2E2E2E2E2E2E2E2E2E2E2E2E2E2E2E2E2E2E2E2E2E2E2E2E2E2E2E2E2E2E2E2E2E2E2E2E2E2E2E2E2E2E2E2E2E2E2E2E2E2E2E2E2E2E2E2E2
310
E2E2E2E2E2E2E2E2E2E2E2E2E2E2E2E2E2E2E2E2E2E2E2E2E2E2E2E2E2E2E2E2E2E2E2E2E2E2E2E2E2E2E2E2E2E2E2E2E2E2E2E2E2E2E2E2E2E2E2E2E2E2E2E2E2E2E2E2E2E2E2E2E2E2E2E2E2E2E2E2E2E2E2E2E2E2E2E2E2E2E2E2E2E2E2E2E2E2E2E2E2E2E2E2E2E2E2E2E2E2E2E2E2E2E2E2E2E2E2E2E2E2E2E2E2E2E2
310
E2E2E2E2E2E2E2E2E2E2E2E2E2E2E2E2E2E2E2E2E2E2E2E2E2E2E2E2E2E2E2E2E2E2E2E2E2E2E2E2E2E2E2E2E2E2E2E2E2E2E2E2E2E2E2E2E2E2E2E2E2E2E2E2E2E2E2E2E2E2E2E2E2E2E2E2E2E2E2E2E2E2E2E2E2E2E2E2E2E2E2E2E2E2E2E2E2E2E2E2E2E2E2E2E2E2E2E2E2E2E2E2E2E2E2E2E2E2E2E2E2E2E2E2E2E2E2
310
E2E2E2E2E2E2E2E2E2E2E2E2E2E2E2E2E2E2E2E2E2E2E2E2E2E2E2E2E2E2E2E2E2E2E2E2E2E2E2E2E2E2E2E2E2E2E2E2E2E2E2E2E2E2E2E2E2E2E2E2E2E2E2E2E2E2E2E2E2E2E2E2E2E2E2E2E2E2E2E2E2E2E2E2E2E2E2E2E2E2E2E2E2E2E2E2E2E2E2E2E2E2E2E2E2E2E2E2E2E2E2E2E2E2E2E2E2E2E2E2E2E2E2E2E2E2E2
310
E2E2E2E2E2E2E2E2E2E2E2E2E2E2E2E2E2E2E2E2E2E2E2E2E2E2E2E2E2E2E2E2E2E2E2E2E2E2E2E2E2E2E2E2E2E2E2E2E2E2E2E2E2E2E2E2E2E2E2E2E2E2E2E2E2E2E2E2E2E2E2E2E2E2E2E2E2E2E2E2E2E2E2E2E2E2E2E2E2E2E2E2E2E2E2E2E2E2E2E2E2E2E2E2E2E2E2E2E2E2E2E2E2E2E2E2E2E2E2E2E2E2E2E2E2E2E2
310
E2E2E2E2E2E2E2E2E2E2E2E2E2E2E2E2E2E2E2E2E2E2E2E2E2E2E2E2E2E2E2E2E2E2E2E2E2E2E2E2E2E2E2E2E2E2E2E2E2E2E2E2E2E2E2E2E2E2E2E2E2E2E2E2E2E2E2E2E2E2E2E2E2E2E2E2E2E2E2E2E2E2E2E2E2E2E2E2E2E2E2E2E2E2E2E2E2E2E2E2E2E2E2E2E2E2E2E2E2E2E2E2E2E2E2E2E2E2E2E2E2E2E2E2E2E2E2
310
E2E2E2E2E2E2E2E2E2E2E2E2E2E2E2E2E2E2E2E2E2E2E2E2E2E2E2E2E2E2E2E2E2E2E2E2E2E2E2E2E2E2E2E2E2E2E2E2E2E2E2E2E2E2E2E2E2E2E2E2E2E2E2E2E2E2E2E2E2E2E2E2E2E2E2E2E2E2E2E2E2E2E2E2E2E2E2E2E2E2E2E2E2E2E2E2E2E2E2E2E2E2E2E2E2E2E2E2E2E2E2E2E2E2E2E2E2E2E2E2E2E2E2E2E2E2E2
310
E2E2E2E2E2E2E2E2E2E2E2E2E2E2E2E2E2E2E2E2E2E2E2E2E2E2E2E2E2E2E2E2E2E2E2E2E2E2E2E2E2E2E2E2E2E2E2E2E2E2E2E2E2E2E2E2E2E2E2E2E2E2E2E2E2E2E2E2E2E2E2E2E2E2E2E2E2E2E2E2E2E2E2E2E2E2E2E2E2E2E2E2E2E2E2E2E2E2E2E2E2E2E2E2E2E2E2E2E2E2E2E2E2E2E2E2E2E2E2E2E2E2E2E2E2E2E2
310
E2E2E2E2E2E2E2E2E2E2E2E2E2E2E2E2E2E2E2E2E2E2E2E2E2E2E2E2E2E2E2E2E2E2E2E2E2E2E2E2E2E2E2E2E2E2E2E2E2E2E2E2E2E2E2E2E2E2E2E2E2E2E2E2E2E2E2E2E2E2E2E2E2E2E2E2E2E2E2E2E2E2E2E2E2E2E2E2E2E2E2E2E2E2E2E2E2E2E2E2E2E2E2E2E2E2E2E2E2E2E2E2E2E2E2E2E2E2E2E2E2E2E2E2E2E2E2
310
E2E2E2E2E2E2E2E2E2E2E2E2E2E2E2E2E2E2E2E2E2E2E2E2E2E2E2E2E2E2E2E2E2E2E2E2E2E2E2E2E2E2E2E2E2E2E2E2E2E2E2E2E2E2E2E2E2E2E2E2E2E2E2E2E2E2E2E2E2E2E2E2E2E2E2E2E2E2E2E2E2E2E2E2E2E2E2E2E2E2E2E2E2E2E2E2E2E2E2E2E2E2E2E2E2E2E2E2E2E2E2E2E2E2E2E2E2E2E2E2E2E2E2E2E2E2E2
310
E2E2E2E2E2E2E2E2E2E2E2E2E2E2E2E2E2E2E2E2E2E2E2E2E2E2E2E2E2E2E2E2E2E2E2E2E2E2E2E2E2E2E2E2E2E2E2E2E2E2E2E2E2E2E2E2E2E2E2E2E2E2E2E2E2E2E2E2E2E2E2E2E2E2E2E2E2E2E2E2E2E2E2E2E2E2E2E2E2E2E2E2E2E2E2E2E2E2E2E2E2E2E2E2E2E2E2E2E2E2E2E2E2E2E2E2E2E2E2E2E2E2E2E2E2E2E2
310
E2E2E2E2E2E2E2E2E2E2E2E2E2E2E2E2E2E2E2E2E2E2E2E2E2E2E2E2E2E2E2E2E2E2E2E2E2E2E2E2E2E2E2E2E2E2E2E2E2E2E2E2E2E2E2E2E2E2E2E2E2E2E2E2E2E2E2E2E2E2E2E2E2E2E2E2E2E2E2E2E2E2E2E2E2E2E2E2E2E2E2E2E2E2E2E2E2E2E2E2E2E2E2E2E2E2E2E2E2E2E2E2E2E2E2E2E2E2E2E2E2E2E2E2E2E2E2
310
E2E2E2E2E2E2E2E2E2E2E2E2E2E2E2E2E2E2E2E2E2E2E2E2E2E2E2E2E2E2E2E2E2E2E2E2E2E2E2E2E2E2E2E2E2E2E2E2E2E2E2E2E2E2E2E2E2E2E2E2E2E2E2E2E2E2E2E2E2E2E2E2E2E2E2E2E2E2E2E2E2E2E2E2E2E2E2E2E2E2E2E2E2E2E2E2E2E2E2E2E2E2E2E2E2E2E2E2E2E2E2E2E2E2E2E2E2E2E2E2E2E2E2E2E2E2E2
310
E2E2E2E2E2E2E2E2E2E2E2E2E2E2E2E2E2E2E2E2E2E2E2E2E2E2E2E2E2E2E2E2E2E2E2E2E2E2E2E2E2E2E2E2E2E2E2E2E2E2E2E2E2E2E2E2E2E2E2E2E2E2E2E2E2E2E2E2E2E2E2E2E2E2E2E2E2E2E2E2E2E2E2E2E2E2E2E2E2E2E2E2E2E2E2E2E2E2E2E2E2E2E2E2E2E2E2E2E2E2E2E2E2E2E2E2E2E2E2E2E2E2E2E2E2E2E2
310
E2E2E2E2E2E2E2E2E2E2E2E2E2E2E2E2E2E2E2E2E2E2E2E2E2E2E2E2E2E2E2E2E2E2E2E2E2E2E2E2E2E2E2E2E2E2E2E2E2E2E2E2E2E2E2E2E2E2E2E2E2E2E2E2E2E2E2E2E2E2E2E2E2E2E2E2E2E2E2E2E2E2E2E2E2E2E2E2E2E2E2E2E2E2E2E2E2E2E2E2E2E2E2E2E2E2E2E2E2E2E2E2E2E2E2E2E2E2E2E2E2E2E2E2E2E2E2
310
E2E2E2E2E2E2E2E2E2E2E2E2E2E2E2E2E2E2E2E2E2E2E2E2E2E2E2E2E2E2E2E2E2E2E2E2E2E2E2E2E2E2E2E2E2E2E2E2E2E2E2E2E2E2E2E2E2E2E2E2E2E2E2E2E2E2E2E2E2E2E2E2E2E2E2E2E2E2E2E2E2E2E2E2E2E2E2E2E2E2E2E2E2E2E2E2E2E2E2E2E2E2E2E2E2E2E2E2E2E2E2E2E2E2E2E2E2E2E2E2E2E2E2E2E2E2E2
310
E2E2E2E2E2E2E2E2E2E2E2E2E2E2E2E2E2E2E2E2E2E2E2E2E2E2E2E2E2E2E2E2E2E2E2E2E2E2E2E2E2E2E2E2E2E2E2E2E2E2E2E2E2E2E2E2E2E2E2E2E2E2E2E2E2E2E2E2E2E2E2E2E2E2E2E2E2E2E2E2E2E2E2E2E2E2E2E2E2E2E2E2E2E2E2E2E2E2E2E2E2E2E2E2E2E2E2E2E2E2E2E2E2E2E2E2E2E2E2E2E2E2E2E2E2E2E2
310
E2E2E2E2E2E2E2E2E2E2E2E2E2E2E2E2E2E2E2E2E2E2E2E2E2E2E2E2E2E2E2E2E2E2E2E2E2E2E2E2E2E2E2E2E2E2E2E2E2E2E2E2E2E2E2E2E2E2E2E2E2E2E2E2E2E2E2E2E2E2E2E2E2E2E2E2E2E2E2E2E2E2E2E2E2E2E2E2E2E2E2E2E2E2E2E2E2E2E2E2E2E2E2E2E2E2E2E2E2E2E2E2E2E2E2E2E2E2E2E2E2E2E2E2E2E2E2
310
E2E2E2E2E2E2E2E2E2E2E2E2E2E2E2E2E2E2E2E2E2E2E2E2E2E2E2E2E2E2E2E2E2E2E2E2E2E2E2E2E2E2E2E2E2E2E2E2E2E2E2E2E2E2E2E2E2E2E2E2E2E2E2E2E2E2E2E2E2E2E2E2E2E2E2E2E2E2E2E2E2E2E2E2E2E2E2E2E2E2E2E2E2E2E2E2E2E2E2E2E2E2E2E2E2E2E2E2E2E2E2E2E2E2E2E2E2E2E2E2E2E2E2E2E2E2E2
310
E2E2E2E2E2E2E2E2E2E2E2E2E2E2E2E2E2E2E2E2E2E2E2E2E2E2E2E2E2E2E2E2E2E2E2E2E2E2E2E2E2E2E2E2E2E2E2E2E2E2E2E2E2E2E2E2E2E2E2E2E2E2E2E2E2E2E2E2E2E2E2E2E2E2E2E2E2E2E2E2E2E2E2E2E2E2E2E2E2E2E2E2E2E2E2E2E2E2E2E2E2E2E2E2E2E2E2E2E2E2E2E2E2E2E2E2E2E2E2E2E2E2E2E2E2E2E2
310
E2E2E2E2E2E2E2E2E2E2E2E2E2E2E2E2E2E2E2E2E2E2E2E2E2E2E2E2E2E2E2E2E2E2E2E2E2E2E2E2E2E2E2E2E2E2E2E2E2E2E2E2E2E2E2E2E2E2E2E2E2E2E2E2E2E2E2E2E2E2E2E2E2E2E2E2E2E2E2E2E2E2E2E2E2E2E2E2E2E2E2E2E2E2E2E2E2E2E2E2E2E2E2E2E2E2E2E2E2E2E2E2E2E2E2E2E2E2E2E2E2E2E2E2E2E2E2
310
E2E2E2E2E2E2E2E2E2E2E2E2E2E2E2E2E2E2E2E2E2E2E2E2E2E2E2E2E2E2E2E2E2E2E2E2E2E2
  0
XRECORD
  5
6BD
102
{ACAD_REACTORS
330
44
102
}
330
44
100
AcDbXrecord
280
     1
102
MATERIAL
148
0.0
149
0.0
149
0.0
 93
        0
 94
      127
282
     0
 72
     0
 77
     0
171
     0
175
     0
179
     0
273
     0
  0
XRECORD
  5
45
102
{ACAD_REACTORS
330
44
102
}
330
44
100
AcDbXrecord
280
     1
270
     1
271
     1
  0
XRECORD
  5
46
102
{ACAD_REACTORS
330
44
102
}
330
44
100
AcDbXrecord
280
     1
270
     1
271
     1
  0
XRECORD
  5
47
102
{ACAD_REACTORS
330
44
102
}
330
44
100
AcDbXrecord
280
     1
270
     1
271
     1
  0
XRECORD
  5
48
102
{ACAD_REACTORS
330
44
102
}
330
44
100
AcDbXrecord
280
     1
270
     1
271
     1
  0
XRECORD
  5
49
102
{ACAD_REACTORS
330
44
102
}
330
44
100
AcDbXrecord
280
     1
270
     1
271
     1
  0
XRECORD
  5
4A
102
{ACAD_REACTORS
330
44
102
}
330
44
100
AcDbXrecord
280
     1
270
     1
271
     1
  0
XRECORD
  5
6BC
102
{ACAD_REACTORS
330
3C
102
}
330
3C
100
AcDbXrecord
280
     1
102
MATERIAL
148
0.0
149
0.0
149
0.0
 93
        0
 94
      127
282
     0
 72
     0
 77
     0
171
     0
175
     0
179
     0
273
     0
  0
XRECORD
  5
3D
102
{ACAD_REACTORS
330
3C
102
}
330
3C
100
AcDbXrecord
280
     1
270
     1
271
     1
  0
XRECORD
  5
3E
102
{ACAD_REACTORS
330
3C
102
}
330
3C
100
AcDbXrecord
280
     1
270
     1
271
     1
  0
XRECORD
  5
3F
102
{ACAD_REACTORS
330
3C
102
}
330
3C
100
AcDbXrecord
280
     1
270
     1
271
     1
  0
XRECORD
  5
40
102
{ACAD_REACTORS
330
3C
102
}
330
3C
100
AcDbXrecord
280
     1
270
     1
271
     1
  0
XRECORD
  5
41
102
{ACAD_REACTORS
330
3C
102
}
330
3C
100
AcDbXrecord
280
     1
270
     1
271
     1
  0
XRECORD
  5
42
102
{ACAD_REACTORS
330
3C
102
}
330
3C
100
AcDbXrecord
280
     1
270
     1
271
     1
  0
XRECORD
  5
6B8
102
{ACAD_REACTORS
330
B
102
}
330
B
100
AcDbXrecord
280
     1
102
MATERIAL
148
0.0
149
0.0
149
0.0
 93
        0
 94
      127
282
     0
 72
     0
 77
     0
171
     0
175
     0
179
     0
273
     0
  0
XRECORD
  5
C
102
{ACAD_REACTORS
330
B
102
}
330
B
100
AcDbXrecord
280
     1
270
     1
271
     1
  0
XRECORD
  5
D
102
{ACAD_REACTORS
330
B
102
}
330
B
100
AcDbXrecord
280
     1
270
     1
271
     1
  0
XRECORD
  5
E
102
{ACAD_REACTORS
330
B
102
}
330
B
100
AcDbXrecord
280
     1
270
     1
271
     1
  0
XRECORD
  5
F
102
{ACAD_REACTORS
330
B
102
}
330
B
100
AcDbXrecord
280
     1
270
     1
271
     1
  0
XRECORD
  5
10
102
{ACAD_REACTORS
330
B
102
}
330
B
100
AcDbXrecord
280
     1
270
     1
271
     1
  0
XRECORD
  5
11
102
{ACAD_REACTORS
330
B
102
}
330
B
100
AcDbXrecord
280
     1
270
     1
271
     1
  0
CELLSTYLEMAP
  5
C89
102
{ACAD_REACTORS
330
618
102
}
330
618
100
AcDbCellStyleMap
 90
        3
300
CELLSTYLE
  1
TABLEFORMAT_BEGIN
 90
        5
170
     1
 91
        0
 92
    32768
 62
   257
 93
        1
300
CONTENTFORMAT
  1
CONTENTFORMAT_BEGIN
 90
        0
 91
        0
 92
        4
 93
        0
300

 40
0.0
140
1.0
 94
        5
 62
     0
340
21
144
6.0
309
CONTENTFORMAT_END
171
     1
301
MARGIN
  1
CELLMARGIN_BEGIN
 40
1.5
 40
1.5
 40
1.5
 40
1.5
 40
0.18
 40
0.18
309
CELLMARGIN_END
 94
        6
 95
        1
302
GRIDFORMAT
  1
GRIDFORMAT_BEGIN
 90
        0
 91
        1
 62
     0
 92
       -2
340
0
 93
        0
 40
0.045
309
GRIDFORMAT_END
 95
        2
302
GRIDFORMAT
  1
GRIDFORMAT_BEGIN
 90
        0
 91
        1
 62
     0
 92
       -2
340
0
 93
        0
 40
0.045
309
GRIDFORMAT_END
 95
        4
302
GRIDFORMAT
  1
GRIDFORMAT_BEGIN
 90
        0
 91
        1
 62
     0
 92
       -2
340
0
 93
        0
 40
0.045
309
GRIDFORMAT_END
 95
        8
302
GRIDFORMAT
  1
GRIDFORMAT_BEGIN
 90
        0
 91
        1
 62
     0
 92
       -2
340
0
 93
        0
 40
0.045
309
GRIDFORMAT_END
 95
       16
302
GRIDFORMAT
  1
GRIDFORMAT_BEGIN
 90
        0
 91
        1
 62
     0
 92
       -2
340
0
 93
        0
 40
0.045
309
GRIDFORMAT_END
 95
       32
302
GRIDFORMAT
  1
GRIDFORMAT_BEGIN
 90
        0
 91
        1
 62
     0
 92
       -2
340
0
 93
        0
 40
0.045
309
GRIDFORMAT_END
309
TABLEFORMAT_END
  1
CELLSTYLE_BEGIN
 90
        1
 91
        1
300
_TITLE
309
CELLSTYLE_END
300
CELLSTYLE
  1
TABLEFORMAT_BEGIN
 90
        5
170
     1
 91
        0
 92
        0
 62
   257
 93
        1
300
CONTENTFORMAT
  1
CONTENTFORMAT_BEGIN
 90
        0
 91
        0
 92
        4
 93
        0
300

 40
0.0
140
1.0
 94
        5
 62
     0
340
21
144
4.5
309
CONTENTFORMAT_END
171
     1
301
MARGIN
  1
CELLMARGIN_BEGIN
 40
1.5
 40
1.5
 40
1.5
 40
1.5
 40
0.18
 40
0.18
309
CELLMARGIN_END
 94
        6
 95
        1
302
GRIDFORMAT
  1
GRIDFORMAT_BEGIN
 90
        0
 91
        1
 62
     0
 92
       -2
340
0
 93
        0
 40
0.045
309
GRIDFORMAT_END
 95
        2
302
GRIDFORMAT
  1
GRIDFORMAT_BEGIN
 90
        0
 91
        1
 62
     0
 92
       -2
340
0
 93
        0
 40
0.045
309
GRIDFORMAT_END
 95
        4
302
GRIDFORMAT
  1
GRIDFORMAT_BEGIN
 90
        0
 91
        1
 62
     0
 92
       -2
340
0
 93
        0
 40
0.045
309
GRIDFORMAT_END
 95
        8
302
GRIDFORMAT
  1
GRIDFORMAT_BEGIN
 90
        0
 91
        1
 62
     0
 92
       -2
340
0
 93
        0
 40
0.045
309
GRIDFORMAT_END
 95
       16
302
GRIDFORMAT
  1
GRIDFORMAT_BEGIN
 90
        0
 91
        1
 62
     0
 92
       -2
340
0
 93
        0
 40
0.045
309
GRIDFORMAT_END
 95
       32
302
GRIDFORMAT
  1
GRIDFORMAT_BEGIN
 90
        0
 91
        1
 62
     0
 92
       -2
340
0
 93
        0
 40
0.045
309
GRIDFORMAT_END
309
TABLEFORMAT_END
  1
CELLSTYLE_BEGIN
 90
        2
 91
        1
300
_HEADER
309
CELLSTYLE_END
300
CELLSTYLE
  1
TABLEFORMAT_BEGIN
 90
        5
170
     1
 91
        0
 92
        0
 62
   257
 93
        1
300
CONTENTFORMAT
  1
CONTENTFORMAT_BEGIN
 90
        0
 91
        0
 92
        4
 93
        0
300

 40
0.0
140
1.0
 94
        2
 62
     0
340
21
144
4.5
309
CONTENTFORMAT_END
171
     1
301
MARGIN
  1
CELLMARGIN_BEGIN
 40
1.5
 40
1.5
 40
1.5
 40
1.5
 40
0.18
 40
0.18
309
CELLMARGIN_END
 94
        6
 95
        1
302
GRIDFORMAT
  1
GRIDFORMAT_BEGIN
 90
        0
 91
        1
 62
     0
 92
       -2
340
0
 93
        0
 40
0.045
309
GRIDFORMAT_END
 95
        2
302
GRIDFORMAT
  1
GRIDFORMAT_BEGIN
 90
        0
 91
        1
 62
     0
 92
       -2
340
0
 93
        0
 40
0.045
309
GRIDFORMAT_END
 95
        4
302
GRIDFORMAT
  1
GRIDFORMAT_BEGIN
 90
        0
 91
        1
 62
     0
 92
       -2
340
0
 93
        0
 40
0.045
309
GRIDFORMAT_END
 95
        8
302
GRIDFORMAT
  1
GRIDFORMAT_BEGIN
 90
        0
 91
        1
 62
     0
 92
       -2
340
0
 93
        0
 40
0.045
309
GRIDFORMAT_END
 95
       16
302
GRIDFORMAT
  1
GRIDFORMAT_BEGIN
 90
        0
 91
        1
 62
     0
 92
       -2
340
0
 93
        0
 40
0.045
309
GRIDFORMAT_END
 95
       32
302
GRIDFORMAT
  1
GRIDFORMAT_BEGIN
 90
        0
 91
        1
 62
     0
 92
       -2
340
0
 93
        0
 40
0.045
309
GRIDFORMAT_END
309
TABLEFORMAT_END
  1
CELLSTYLE_BEGIN
 90
        3
 91
        2
300
_DATA
309
CELLSTYLE_END
  0
XRECORD
  5
C92
102
{ACAD_REACTORS
330
618
102
}
330
618
100
AcDbXrecord
280
     1
102
ACAD_ROUNDTRIP_PRE2007_TABLESTYLE
 90
        4
 91
        0
  1

 92
        4
 93
        0
  2

 94
        4
 95
        0
  3

  0
ENDSEC
  0
EOF
