  0
SECTION
  2
HEADER
  9
$ACADVER
  1
AC1015
  9
$ACADMAINTVER
 70
    20
  9
$DWGCODEPAGE
  3
ANSI_932
  9
$INSBASE
 10
0.0
 20
0.0
 30
0.0
  9
$EXTMIN
 10
210.640652931625
 20
811.8105275859711
 30
-0.0015258207003583
  9
$EXTMAX
 10
615.9357084691525
 20
1316.680811174917
 30
0.0000000349246037
  9
$LIMMIN
 10
0.0
 20
0.0
  9
$LIMMAX
 10
420.0
 20
297.0
  9
$ORTHOMODE
 70
     1
  9
$REGENMODE
 70
     1
  9
$FILLMODE
 70
     1
  9
$QTEXTMODE
 70
     0
  9
$MIRRTEXT
 70
     0
  9
$LTSCALE
 40
1.0
  9
$ATTMODE
 70
     1
  9
$TEXTSIZE
 40
2.5
  9
$TRACEWID
 40
1.0
  9
$TEXTSTYLE
  7
Standard
  9
$CLAYER
  8
0
  9
$CELTYPE
  6
ByLayer
  9
$CECOLOR
 62
   256
  9
$CELTSCALE
 40
1.0
  9
$DISPSILH
 70
     0
  9
$DIMSCALE
 40
1.0
  9
$DIMASZ
 40
2.5
  9
$DIMEXO
 40
0.625
  9
$DIMDLI
 40
3.75
  9
$DIMRND
 40
0.0
  9
$DIMDLE
 40
0.0
  9
$DIMEXE
 40
1.25
  9
$DIMTP
 40
0.0
  9
$DIMTM
 40
0.0
  9
$DIMTXT
 40
2.5
  9
$DIMCEN
 40
2.5
  9
$DIMTSZ
 40
0.0
  9
$DIMTOL
 70
     0
  9
$DIMLIM
 70
     0
  9
$DIMTIH
 70
     0
  9
$DIMTOH
 70
     0
  9
$DIMSE1
 70
     0
  9
$DIMSE2
 70
     0
  9
$DIMTAD
 70
     1
  9
$DIMZIN
 70
     8
  9
$DIMBLK
  1

  9
$DIMASO
 70
     1
  9
$DIMSHO
 70
     1
  9
$DIMPOST
  1

  9
$DIMAPOST
  1

  9
$DIMALT
 70
     0
  9
$DIMALTD
 70
     3
  9
$DIMALTF
 40
0.03937007874016
  9
$DIMLFAC
 40
1.0
  9
$DIMTOFL
 70
     1
  9
$DIMTVP
 40
0.0
  9
$DIMTIX
 70
     0
  9
$DIMSOXD
 70
     0
  9
$DIMSAH
 70
     0
  9
$DIMBLK1
  1

  9
$DIMBLK2
  1

  9
$DIMSTYLE
  2
ISO-25
  9
$DIMCLRD
 70
     0
  9
$DIMCLRE
 70
     0
  9
$DIMCLRT
 70
     0
  9
$DIMTFAC
 40
1.0
  9
$DIMGAP
 40
0.625
  9
$DIMJUST
 70
     0
  9
$DIMSD1
 70
     0
  9
$DIMSD2
 70
     0
  9
$DIMTOLJ
 70
     0
  9
$DIMTZIN
 70
     8
  9
$DIMALTZ
 70
     0
  9
$DIMALTTZ
 70
     0
  9
$DIMUPT
 70
     0
  9
$DIMDEC
 70
     2
  9
$DIMTDEC
 70
     2
  9
$DIMALTU
 70
     2
  9
$DIMALTTD
 70
     3
  9
$DIMTXSTY
  7
Standard
  9
$DIMAUNIT
 70
     0
  9
$DIMADEC
 70
     0
  9
$DIMALTRND
 40
0.0
  9
$DIMAZIN
 70
     0
  9
$DIMDSEP
 70
    44
  9
$DIMATFIT
 70
     3
  9
$DIMFRAC
 70
     0
  9
$DIMLDRBLK
  1

  9
$DIMLUNIT
 70
     2
  9
$DIMLWD
 70
    -2
  9
$DIMLWE
 70
    -2
  9
$DIMTMOVE
 70
     0
  9
$LUNITS
 70
     2
  9
$LUPREC
 70
     2
  9
$SKETCHINC
 40
1.0
  9
$FILLETRAD
 40
0.0
  9
$AUNITS
 70
     0
  9
$AUPREC
 70
     0
  9
$MENU
  1
.
  9
$ELEVATION
 40
0.0
  9
$PELEVATION
 40
0.0
  9
$THICKNESS
 40
0.0
  9
$LIMCHECK
 70
     0
  9
$CHAMFERA
 40
0.0
  9
$CHAMFERB
 40
0.0
  9
$CHAMFERC
 40
0.0
  9
$CHAMFERD
 40
0.0
  9
$SKPOLY
 70
     0
  9
$TDCREATE
 40
2454354.690738924
  9
$TDUCREATE
 40
2454354.315738923
  9
$TDUPDATE
 40
2455610.580561181
  9
$TDUUPDATE
 40
2455610.205561181
  9
$TDINDWG
 40
0.0929114352
  9
$TDUSRTIMER
 40
0.0929032755
  9
$USRTIMER
 70
     1
  9
$ANGBASE
 50
0.0
  9
$ANGDIR
 70
     0
  9
$PDMODE
 70
     0
  9
$PDSIZE
 40
0.0
  9
$PLINEWID
 40
0.0
  9
$SPLFRAME
 70
     0
  9
$SPLINETYPE
 70
     6
  9
$SPLINESEGS
 70
     8
  9
$HANDSEED
  5
2805
  9
$SURFTAB1
 70
     6
  9
$SURFTAB2
 70
     6
  9
$SURFTYPE
 70
     6
  9
$SURFU
 70
     6
  9
$SURFV
 70
     6
  9
$UCSBASE
  2

  9
$UCSNAME
  2

  9
$UCSORG
 10
0.0
 20
0.0
 30
0.0
  9
$UCSXDIR
 10
1.0
 20
0.0
 30
0.0
  9
$UCSYDIR
 10
0.0
 20
1.0
 30
0.0
  9
$UCSORTHOREF
  2

  9
$UCSORTHOVIEW
 70
     0
  9
$UCSORGTOP
 10
0.0
 20
0.0
 30
0.0
  9
$UCSORGBOTTOM
 10
0.0
 20
0.0
 30
0.0
  9
$UCSORGLEFT
 10
0.0
 20
0.0
 30
0.0
  9
$UCSORGRIGHT
 10
0.0
 20
0.0
 30
0.0
  9
$UCSORGFRONT
 10
0.0
 20
0.0
 30
0.0
  9
$UCSORGBACK
 10
0.0
 20
0.0
 30
0.0
  9
$PUCSBASE
  2

  9
$PUCSNAME
  2

  9
$PUCSORG
 10
0.0
 20
0.0
 30
0.0
  9
$PUCSXDIR
 10
1.0
 20
0.0
 30
0.0
  9
$PUCSYDIR
 10
0.0
 20
1.0
 30
0.0
  9
$PUCSORTHOREF
  2

  9
$PUCSORTHOVIEW
 70
     0
  9
$PUCSORGTOP
 10
0.0
 20
0.0
 30
0.0
  9
$PUCSORGBOTTOM
 10
0.0
 20
0.0
 30
0.0
  9
$PUCSORGLEFT
 10
0.0
 20
0.0
 30
0.0
  9
$PUCSORGRIGHT
 10
0.0
 20
0.0
 30
0.0
  9
$PUCSORGFRONT
 10
0.0
 20
0.0
 30
0.0
  9
$PUCSORGBACK
 10
0.0
 20
0.0
 30
0.0
  9
$USERI1
 70
     0
  9
$USERI2
 70
     0
  9
$USERI3
 70
     0
  9
$USERI4
 70
     0
  9
$USERI5
 70
     0
  9
$USERR1
 40
0.0
  9
$USERR2
 40
0.0
  9
$USERR3
 40
0.0
  9
$USERR4
 40
0.0
  9
$USERR5
 40
0.0
  9
$WORLDVIEW
 70
     1
  9
$SHADEDGE
 70
     3
  9
$SHADEDIF
 70
    70
  9
$TILEMODE
 70
     1
  9
$MAXACTVP
 70
    64
  9
$PINSBASE
 10
0.0
 20
0.0
 30
0.0
  9
$PLIMCHECK
 70
     0
  9
$PEXTMIN
 10
29.06606628894806
 20
20.36233246326444
 30
0.0
  9
$PEXTMAX
 10
261.5945966005325
 20
183.2609921693801
 30
0.0
  9
$PLIMMIN
 10
-3.17498779296875
 20
-3.174999952316281
  9
$PLIMMAX
 10
293.8356628417969
 20
206.7983276844024
  9
$UNITMODE
 70
     0
  9
$VISRETAIN
 70
     1
  9
$PLINEGEN
 70
     0
  9
$PSLTSCALE
 70
     1
  9
$TREEDEPTH
 70
  3020
  9
$CMLSTYLE
  2
Standard
  9
$CMLJUST
 70
     0
  9
$CMLSCALE
 40
20.0
  9
$PROXYGRAPHICS
 70
     1
  9
$MEASUREMENT
 70
     1
  9
$CELWEIGHT
370
    -1
  9
$ENDCAPS
280
     0
  9
$JOINSTYLE
280
     0
  9
$LWDISPLAY
290
     0
  9
$INSUNITS
 70
     4
  9
$HYPERLINKBASE
  1

  9
$STYLESHEET
  1
KIHON1.ctb
  9
$XEDIT
290
     1
  9
$CEPSNTYPE
380
     0
  9
$PSTYLEMODE
290
     1
  9
$FINGERPRINTGUID
  2
{DD28B6F0-6A46-4203-99D8-E0CB2352CE3F}
  9
$VERSIONGUID
  2
{8F7F76AF-F1FB-44AF-B925-E03BFFDF86C9}
  9
$EXTNAMES
290
     1
  9
$PSVPSCALE
 40
0.0
  9
$OLESTARTUP
290
     0
  0
ENDSEC
  0
SECTION
  2
CLASSES
  0
CLASS
  1
ACDBDICTIONARYWDFLT
  2
AcDbDictionaryWithDefault
  3
ObjectDBX Classes
 90
        0
280
     0
281
     0
  0
CLASS
  1
DICTIONARYVAR
  2
AcDbDictionaryVar
  3
ObjectDBX Classes
 90
        0
280
     0
281
     0
  0
CLASS
  1
TABLESTYLE
  2
AcDbTableStyle
  3
ObjectDBX Classes
 90
     2047
280
     0
281
     0
  0
CLASS
  1
MATERIAL
  2
AcDbMaterial
  3
ObjectDBX Classes
 90
        0
280
     0
281
     0
  0
CLASS
  1
DIMASSOC
  2
AcDbDimAssoc
  3
"AcDbDimAssoc|Product Desc:     AcDim ARX App For Dimension|Company:          Autodesk, Inc.|WEB Address:      www.autodesk.com"
 90
    32768
280
     0
281
     0
  0
CLASS
  1
SORTENTSTABLE
  2
AcDbSortentsTable
  3
ObjectDBX Classes
 90
        0
280
     0
281
     0
  0
CLASS
  1
VISUALSTYLE
  2
AcDbVisualStyle
  3
ObjectDBX Classes
 90
     4095
280
     0
281
     0
  0
CLASS
  1
SCALE
  2
AcDbScale
  3
ObjectDBX Classes
 90
     1153
280
     0
281
     0
  0
CLASS
  1
MLEADERSTYLE
  2
AcDbMLeaderStyle
  3
ACDB_MLEADERSTYLE_CLASS
 90
     4095
280
     0
281
     0
  0
CLASS
  1
CELLSTYLEMAP
  2
AcDbCellStyleMap
  3
ObjectDBX Classes
 90
     1152
280
     0
281
     0
  0
CLASS
  1
ACDBPLACEHOLDER
  2
AcDbPlaceHolder
  3
ObjectDBX Classes
 90
        0
280
     0
281
     0
  0
CLASS
  1
LAYOUT
  2
AcDbLayout
  3
ObjectDBX Classes
 90
        0
280
     0
281
     0
  0
CLASS
  1
AMGSETTINGSOBJ
  2
AmgSettingsObj
  3
"AcadM|Product Description: AutoCAD Mechanical 2000|Company: Autodesk"
 90
        0
280
     0
281
     0
  0
CLASS
  1
ACME_DOCUMENT
  2
AcMeDbDoc
  3
AcMeServices
 90
        0
280
     0
281
     0
  0
CLASS
  1
ACMESCOPE
  2
AcMeScope
  3
AcMeServices
 90
        0
280
     0
281
     0
  0
CLASS
  1
ACMECOMMANDHISTORY
  2
AcMeCommandHistory
  3
AcMeServices
 90
        0
280
     0
281
     0
  0
CLASS
  1
ACIMSYSVARMAN
  2
AcImSysVarManager
  3
AcMeServices
 90
        0
280
     0
281
     0
  0
CLASS
  1
ACIMREALSYSVAR
  2
AcImRealSysVar
  3
AcMeServices
 90
        0
280
     0
281
     0
  0
CLASS
  1
ACIMINTSYSVAR
  2
AcImIntSysVar
  3
AcMeServices
 90
        0
280
     0
281
     0
  0
CLASS
  1
ACMEDRAWINGMAN
  2
AcMeDrawingMan
  3
AcMeServices
 90
        0
280
     0
281
     0
  0
CLASS
  1
ACMEVIEW
  2
AcMeView
  3
AcMeServices
 90
        0
280
     0
281
     0
  0
CLASS
  1
ACDBENTITYCACHE
  2
AcMeEntityCache
  3
AcMeServices
 90
        0
280
     0
281
     0
  0
CLASS
  1
GSMANAGER
  2
AcMeGSManager
  3
AcMeServices
 90
        0
280
     0
281
     0
  0
CLASS
  1
AMDTINTERNALREACTOR
  2
AmdtInternalReactor
  3
AcMeServices
 90
        0
280
     0
281
     0
  0
CLASS
  1
ACMESTATEMGR
  2
AcMeStateMgr
  3
AcMeServices
 90
        0
280
     0
281
     0
  0
CLASS
  1
ACGREFMASTER
  2
AcGrefMaster
  3
AcAttribServices
 90
        0
280
     0
281
     0
  0
CLASS
  1
AM_DRAWING_MGR
  2
AcDmDwgMgr
  3
AcMechDwgViewMgmt
 90
        0
280
     0
281
     0
  0
CLASS
  1
AM_DWG_DOCUMENT
  2
AcDmDwgDocument
  3
AcMechDwgViewMgmt
 90
        0
280
     0
281
     0
  0
CLASS
  1
AM_DWG_SHEET
  2
AcDmSheet
  3
AcMechDwgViewMgmt
 90
        0
280
     0
281
     0
  0
CLASS
  1
AM_VIEWDIMPARMAP
  2
AcDmViewDimParMap
  3
AcMechDwgViewMgmt
 90
        0
280
     0
281
     0
  0
CLASS
  1
AM_DWGMGR_NAME
  2
AcDmDwgMgrName
  3
AcMechDwgViewMgmt
 90
        0
280
     0
281
     0
  0
CLASS
  1
ACME_DATABASE
  2
AcMeDbDatabase
  3
AcMeServices
 90
        0
280
     0
281
     0
  0
CLASS
  1
ACRFINSADJUSTERMGR
  2
AcRfInsAdjusterMgr
  3
AcMeServices
 90
        0
280
     0
281
     0
  0
CLASS
  1
ACGREFACADMASTER
  2
AcGrefacadMaster
  3
AcGrefServices
 90
        0
280
     0
281
     0
  0
CLASS
  1
AMDTMENUSTATEMGR
  2
AmdtMenuStateMgr
  3
McadcomServices
 90
        0
280
     0
281
     0
  0
CLASS
  1
AMDTMCOMMENUSTATE
  2
AmdtMcomMenuState
  3
McadcomServices
 90
        0
280
     0
281
     0
  0
CLASS
  1
AMIMASTER
  2
AmiMaster
  3
AmiServices
 90
        0
280
     0
281
     0
  0
CLASS
  1
ASAPP
  2
AcAsAppObject
  3
AutoSurfServices
 90
        0
280
     0
281
     0
  0
CLASS
  1
IM_STATIC_MAN
  2
AcImStaticVarManager
  3
AcMeServices
 90
        0
280
     0
281
     0
  0
CLASS
  1
ACIMSTRSYSVAR
  2
AcImStrSysVar
  3
AcMeServices
 90
        0
280
     0
281
     0
  0
CLASS
  1
ACIMDBLSTATICVAR
  2
AcImDblStaticVar
  3
AcMeServices
 90
        0
280
     0
281
     0
  0
CLASS
  1
ACIMSTRSTATICVAR
  2
AcImStrStaticVar
  3
AcMeServices
 90
        0
280
     0
281
     0
  0
CLASS
  1
ACIMINTSTATICVAR
  2
AcImIntStaticVar
  3
AcMeServices
 90
        0
280
     0
281
     0
  0
CLASS
  1
ACASGREFMASTER
  2
AcAsGrefMaster
  3
AutoSurfResolverServices
 90
        0
280
     0
281
     0
  0
CLASS
  1
ACADGREFMODULE
  2
AcAdGrefModule
  3
AdGrefServices
 90
        0
280
     0
281
     0
  0
CLASS
  1
AMDTMAPISURFMOUDULE
  2
AmdtMApiSurfModule
  3
MApiSurfServices
 90
        0
280
     0
281
     0
  0
CLASS
  1
MAPIAMMOUDLE
  2
MApiAmModule
  3
MApiAmServices
 90
        0
280
     0
281
     0
  0
CLASS
  1
AMDTADMENUSTATE
  2
AmdtAdMenuState
  3
DesignerServices
 90
        0
280
     0
281
     0
  0
CLASS
  1
ADAPPL
  2
AcAdAppl
  3
DesignerServices
 90
        0
280
     0
281
     0
  0
CLASS
  1
DEPMGR
  2
AcAdDepMgr
  3
DesignerServices
 90
        0
280
     0
281
     0
  0
CLASS
  1
PARAMMGR
  2
AcAdParamMgr
  3
DesignerServices
 90
        0
280
     0
281
     0
  0
CLASS
  1
PARAMSCOPE
  2
AcAdParamScope
  3
DesignerServices
 90
        0
280
     0
281
     0
  0
CLASS
  1
NAMEDAPPL
  2
AcAdNamedAppl
  3
DesignerServices
 90
        0
280
     0
281
     0
  0
CLASS
  1
AMDTDMMENUSTATE
  2
AmdtDmMenuState
  3
AcMechDwgViewMgmt
 90
        0
280
     0
281
     0
  0
CLASS
  1
MAPIADMODULE
  2
MApiAdModule
  3
MApiAdServices
 90
        0
280
     0
281
     0
  0
CLASS
  1
AMDTAMMENUSTATE
  2
AmdtAmMenuState
  3
DesignerAssemblies
 90
        0
280
     0
281
     0
  0
CLASS
  1
ACAMPROJECT
  2
AcAmProject
  3
DesignerAssemblies
 90
        0
280
     0
281
     0
  0
CLASS
  1
ACAMGRCOMPDEF
  2
AcAmGrCompDef
  3
DesignerAssemblies
 90
        0
280
     0
281
     0
  0
CLASS
  1
ACCMCONTEXT
  2
AcCmContext
  3
DesignerAssemblies
 90
        0
280
     0
281
     0
  0
CLASS
  1
ACAMCOMPDEF
  2
AcAmCompDef
  3
DesignerAssemblies
 90
        0
280
     0
281
     0
  0
CLASS
  1
ACAMCOMPDEFMGR
  2
AcAmCompDefMgr
  3
DesignerAssemblies
 90
        0
280
     0
281
     0
  0
CLASS
  1
AMCONTEXTMGR
  2
AcAmContextMgr
  3
DesignerAssemblies
 90
        0
280
     0
281
     0
  0
CLASS
  1
ACAMCONTEXTMODELER
  2
AcAmContextModeler
  3
DesignerAssemblies
 90
        0
280
     0
281
     0
  0
CLASS
  1
ACMDATADICTIONARY
  2
AcmDataDictionary
  3
"AcmSymBB|Product Description: AutoCAD Mechanical 2004 DX|Company: Autodesk"
 90
        0
280
     0
281
     0
  0
CLASS
  1
ACMDATAENTRYBLOCK
  2
AcmDataEntryBlock
  3
"AcmSymBB|Product Description: AutoCAD Mechanical 2004 DX|Company: Autodesk"
 90
        0
280
     0
281
     0
  0
CLASS
  1
CATALOGSTATE
  2
AcAmCatalogState
  3
DesignerAssemblies
 90
        0
280
     0
281
     0
  0
CLASS
  1
ACAMGRCOMPDEFSET
  2
AcAmGrCompDefSet
  3
DesignerAssemblies
 90
        0
280
     0
281
     0
  0
CLASS
  1
AMDTBROWSERDBTAB
  2
AmdtBrowserDbTab
  3
McadcomServices
 90
        0
280
     0
281
     0
  0
CLASS
  1
CBROWSERAPPOBJECT
  2
CBrowserAppObject
  3
McadcomServices
 90
        0
280
     0
281
     0
  0
CLASS
  1
DM_PLACEHOLDER
  2
AcDmSelsetPlaceholder
  3
AcMechDwgViewMgmt
 90
        0
280
     0
281
     0
  0
CLASS
  1
ACMSTANDARDISO
  2
AcmStandardISO
  3
"Amdt_StdImp|Product Description: AutoCAD Mechanical 2004 DX|Company: Autodesk"
 90
        0
280
     0
281
     0
  0
CLASS
  1
AMGOBJPROPCFG
  2
AmgObjPropCfg
  3
"AmgLay|Product Description: AutoCAD Mechanical 2000|Company: Autodesk"
 90
        1
280
     0
281
     0
  0
CLASS
  1
AMDTEDGESTANDARDISO13715
  2
AmdtEdgeStdISO13715
  3
"Amdt_StdImp|Product Description: AutoCAD Mechanical 2004 DX|Company: Autodesk"
 90
        0
280
     0
281
     0
  0
CLASS
  1
ACMSURFSTANDARDISO
  2
AcmSurfTextStdISO
  3
"Amdt_StdImp|Product Description: AutoCAD Mechanical 2004 DX|Company: Autodesk"
 90
        0
280
     0
281
     0
  0
CLASS
  1
ACMFCFSTANDARDISO
  2
AcmFCFStdISO
  3
"Amdt_StdImp|Product Description: AutoCAD Mechanical 2004 DX|Company: Autodesk"
 90
        0
280
     0
281
     0
  0
CLASS
  1
ACMWELDSTANDARDISO
  2
AcmWeldingStdISO
  3
"Amdt_StdImp|Product Description: AutoCAD Mechanical 2004 DX|Company: Autodesk"
 90
        0
280
     0
281
     0
  0
CLASS
  1
ACMIDSTANDARDISO
  2
AcmIdStdISO
  3
"Amdt_StdImp|Product Description: AutoCAD Mechanical 2004 DX|Company: Autodesk"
 90
        0
280
     0
281
     0
  0
CLASS
  1
ACMDATUMSTANDARDISO
  2
AcmDatumStdISO
  3
"Amdt_StdImp|Product Description: AutoCAD Mechanical 2004 DX|Company: Autodesk"
 90
        0
280
     0
281
     0
  0
CLASS
  1
ACMBOMSTANDARDISO
  2
AcmBOMStdISO
  3
"Amdt_StdImp|Product Description: AutoCAD Mechanical 2004 DX|Company: Autodesk"
 90
        0
280
     0
281
     0
  0
CLASS
  1
ACMDETAILSTANDARDISO
  2
AmdtDetailSymStdISO
  3
"Amdt_StdImp|Product Description: AutoCAD Mechanical 2004 DX|Company: Autodesk"
 90
        0
280
     0
281
     0
  0
CLASS
  1
ACMSECTIONSTANDARDISO
  2
AmdtSectionSymStdISO
  3
"Amdt_StdImp|Product Description: AutoCAD Mechanical 2004 DX|Company: Autodesk"
 90
        0
280
     0
281
     0
  0
CLASS
  1
ACMCENTERLINESTANDARDISO
  2
AmdtCenterLineStdISO
  3
"Amdt_StdImp|Product Description: AutoCAD Mechanical 2004 DX|Company: Autodesk"
 90
        0
280
     0
281
     0
  0
CLASS
  1
ACMTHREADLINESTANDARDISO
  2
AmdtThreadLineStdISO
  3
"Amdt_StdImp|Product Description: AutoCAD Mechanical 2004 DX|Company: Autodesk"
 90
        0
280
     0
281
     0
  0
CLASS
  1
ACMNOTESTANDARDISO
  2
AmdtNoteStdISO
  3
"Amdt_StdImp|Product Description: AutoCAD Mechanical 2004 DX|Company: Autodesk"
 90
        0
280
     0
281
     0
  0
CLASS
  1
AMDTNOTETEMPLATEDB
  2
AmdtNoteTemplateDB
  3
AMDT_STDIMP_MODULE_NAME
 90
        0
280
     0
281
     0
  0
CLASS
  1
ACAMGLAYSTD
  2
AcAmgLayStd
  3
"AcAmgLayStd|Product Description: AutoCAD Mechanical 2000|Company: Autodesk"
 90
        0
280
     0
281
     0
  0
CLASS
  1
ACAMGDIMSTD
  2
AcAmgDimStd
  3
"AcAmgDimStd|Product Description: AutoCAD Mechanical 2000|Company: Autodesk"
 90
        0
280
     0
281
     0
  0
CLASS
  1
ACAMGHOLECHARTSTDISO
  2
AcAmgHoleChartStdISO
  3
ACMSYMBB_MODULE_NAME
 90
        0
280
     0
281
     0
  0
CLASS
  1
ACAMGTITLESTD
  2
AcAmgTitleStd
  3
"TITLEAPP"
 90
        0
280
     0
281
     0
  0
CLASS
  1
ACAMGFILTERDAT
  2
AcAmgFilterDat
  3
"AcadM|Product Description: AutoCAD Mechanical 2000|Company: Autodesk"
 90
        0
280
     0
281
     0
  0
CLASS
  1
LAYER_INDEX
  2
AcDbLayerIndex
  3
ObjectDBX Classes
 90
        0
280
     0
281
     0
  0
CLASS
  1
IDBUFFER
  2
AcDbIdBuffer
  3
ObjectDBX Classes
 90
        0
280
     0
281
     0
  0
ENDSEC
  0
SECTION
  2
TABLES
  0
TABLE
  2
VPORT
  5
8
102
{ACAD_XDICTIONARY
360
1808
102
}
330
0
100
AcDbSymbolTable
 70
     2
  0
VPORT
  5
27FD
330
8
100
AcDbSymbolTableRecord
100
AcDbViewportTableRecord
  2
*Active
 70
     0
 10
0.0
 20
0.0
 11
1.0
 21
1.0
 12
413.2881807003888
 22
1064.245669380444
 13
0.0
 23
0.0
 14
10.0
 24
10.0
 15
10.0
 25
10.0
 16
0.0
 26
0.0
 36
1.0
 17
0.0
 27
0.0
 37
0.0
 40
508.4764999002954
 41
1.398092967818831
 42
50.0
 43
0.0
 44
0.0
 50
0.0
 51
0.0
 71
     0
 72
  1000
 73
     1
 74
     3
 75
     0
 76
     0
 77
     0
 78
     0
281
     0
 65
     1
110
0.0
120
0.0
130
0.0
111
1.0
121
0.0
131
0.0
112
0.0
122
1.0
132
0.0
 79
     0
146
0.0
  0
ENDTAB
  0
TABLE
  2
LTYPE
  5
5
330
0
100
AcDbSymbolTable
 70
    17
  0
LTYPE
  5
14
330
5
100
AcDbSymbolTableRecord
100
AcDbLinetypeTableRecord
  2
ByBlock
 70
     0
  3

 72
    65
 73
     0
 40
0.0
  0
LTYPE
  5
15
330
5
100
AcDbSymbolTableRecord
100
AcDbLinetypeTableRecord
  2
ByLayer
 70
     0
  3

 72
    65
 73
     0
 40
0.0
  0
LTYPE
  5
16
330
5
100
AcDbSymbolTableRecord
100
AcDbLinetypeTableRecord
  2
Continuous
 70
     0
  3
Solid line
 72
    65
 73
     0
 40
0.0
  0
LTYPE
  5
1AE
330
5
100
AcDbSymbolTableRecord
100
AcDbLinetypeTableRecord
  2
DASHED2
 70
     0
  3
Dashed (.5x) _ _ _ _ _ _ _ _ _ _ _ _ _ _ _ _ _
 72
    65
 73
     2
 40
9.524999999999996
 49
6.349999999999997
 74
     0
 49
-3.174999999999998
 74
     0
  0
LTYPE
  5
270C
330
5
100
AcDbSymbolTableRecord
100
AcDbLinetypeTableRecord
  2
HIDDEN
 70
     0
  3
Hidden __ __ __ __ __ __ __ __ __ __ __ __ __ _
 72
    65
 73
     2
 40
9.524999999999998
 49
6.349999999999999
 74
     0
 49
-3.174999999999999
 74
     0
  0
LTYPE
  5
270D
330
5
100
AcDbSymbolTableRecord
100
AcDbLinetypeTableRecord
  2
PHANTOM2
 70
     0
  3
Phantom (.5x) ___ _ _ ___ _ _ ___ _ _ ___ _ _
 72
    65
 73
     6
 40
31.75
 49
15.875
 74
     0
 49
-3.174999999999999
 74
     0
 49
3.174999999999999
 74
     0
 49
-3.174999999999999
 74
     0
 49
3.174999999999999
 74
     0
 49
-3.174999999999999
 74
     0
  0
LTYPE
  5
270E
330
5
100
AcDbSymbolTableRecord
100
AcDbLinetypeTableRecord
  2
CENTER
 70
     0
  3
Center ____ _ ____ _ ____ _ ____ _ ____ _ ____
 72
    65
 73
     4
 40
50.8
 49
31.75
 74
     0
 49
-6.349999999999999
 74
     0
 49
6.349999999999999
 74
     0
 49
-6.349999999999999
 74
     0
  0
LTYPE
  5
275D
330
5
100
AcDbSymbolTableRecord
100
AcDbLinetypeTableRecord
  2
ASULTYPE
 70
     0
  3
実線
 72
    65
 73
     2
 40
3.0
 49
2.5
 74
     0
 49
0.5
 74
     0
  0
LTYPE
  5
275E
330
5
100
AcDbSymbolTableRecord
100
AcDbLinetypeTableRecord
  2
ASVLTYPE
 70
     0
  3
__ __ __ __ __ __ __ __ __ __ __ __ __ __ __ __ __ __ __ __ __
 72
    65
 73
     2
 40
0.75
 49
0.5
 74
     0
 49
-0.25
 74
     0
  0
LTYPE
  5
27A5
330
5
100
AcDbSymbolTableRecord
100
AcDbLinetypeTableRecord
  2
AM_ISO02W050
 70
     0
  3
__ __ __ __ __ __ __ __ __ __ __ __ __ __ __
 72
    65
 73
     2
 40
7.5
 49
6.0
 74
     0
 49
-1.5
 74
     0
  0
LTYPE
  5
27A6
330
5
100
AcDbSymbolTableRecord
100
AcDbLinetypeTableRecord
  2
AM_ISO08W050
 70
     0
  3
____ . ____ . ____ . ____ . ____ . ____ . ____
 72
    65
 73
     4
 40
18.0
 49
12.0
 74
     0
 49
-1.5
 74
     0
 49
3.0
 74
     0
 49
-1.5
 74
     0
  0
LTYPE
  5
27A7
330
5
100
AcDbSymbolTableRecord
100
AcDbLinetypeTableRecord
  2
AM_ISO09W050
 70
     0
  3
_____ . . _____ . . _____ . . ____ .. ____
 72
    65
 73
     6
 40
22.5
 49
12.0
 74
     0
 49
-1.5
 74
     0
 49
3.0
 74
     0
 49
-1.5
 74
     0
 49
3.0
 74
     0
 49
-1.5
 74
     0
  0
LTYPE
  5
27A8
330
5
100
AcDbSymbolTableRecord
100
AcDbLinetypeTableRecord
  2
Amconstr
 70
     0
  3
_______________________
 72
    65
 73
     2
 40
9999.0
 49
9999.0
 74
     0
 49
0.0
 74
     0
  0
LTYPE
  5
27A9
330
5
100
AcDbSymbolTableRecord
100
AcDbLinetypeTableRecord
  2
AM_ISO08W050x2
 70
     0
  3
__ . __ . __ . __ . __ . __
 72
    65
 73
     4
 40
9.0
 49
6.0
 74
     0
 49
-0.75
 74
     0
 49
1.5
 74
     0
 49
-0.75
 74
     0
  0
LTYPE
  5
27AA
330
5
100
AcDbSymbolTableRecord
100
AcDbLinetypeTableRecord
  2
AM_ISO02W050x2
 70
     0
  3
 _ _ _ _ _ _ _ _ _ _ _ _
 72
    65
 73
     2
 40
3.75
 49
3.0
 74
     0
 49
-0.75
 74
     0
  0
LTYPE
  5
27AD
330
5
100
AcDbSymbolTableRecord
100
AcDbLinetypeTableRecord
  2
Amzigzag
 70
     0
  3
/\/-/\/-/\/-/\/-/\/-/\/
 72
    65
 73
     2
 40
11.0001
 49
0.0001
 74
     4
 75
   136
340
27AC
 46
0.04
 50
0.0
 44
0.0
 45
0.0
 49
-11.0
 74
     0
  0
LTYPE
  5
27BC
330
5
100
AcDbSymbolTableRecord
100
AcDbLinetypeTableRecord
  2
ACISOWELD
 70
     0
  3
_ _ _ _ _
 72
    65
 73
     2
 40
2.0
 49
2.0
 74
     0
 49
-1.0
 74
     0
  0
LTYPE
  5
27BD
330
5
100
AcDbSymbolTableRecord
100
AcDbLinetypeTableRecord
  2
ACISOTGB
 70
     0
  3
__ . . __ . .
 72
    65
 73
     6
 40
9.0
 49
4.0
 74
     0
 49
-1.0
 74
     0
 49
1.0
 74
     0
 49
-1.0
 74
     0
 49
1.0
 74
     0
 49
-1.0
 74
     0
  0
LTYPE
  5
27BE
330
5
100
AcDbSymbolTableRecord
100
AcDbLinetypeTableRecord
  2
ACISOTGL
 70
     0
  3
_ _ _ _ _
 72
    65
 73
     2
 40
3.0
 49
2.0
 74
     0
 49
-1.0
 74
     0
  0
ENDTAB
  0
TABLE
  2
LAYER
  5
2
102
{ACAD_XDICTIONARY
360
1C1
102
}
330
0
100
AcDbSymbolTable
 70
     3
  0
LAYER
  5
10
102
{ACAD_XDICTIONARY
360
178C
102
}
330
2
100
AcDbSymbolTableRecord
100
AcDbLayerTableRecord
  2
0
 70
     0
 62
     7
  6
Continuous
370
    -3
390
F
  0
LAYER
  5
1AF
102
{ACAD_XDICTIONARY
360
1B0
102
}
330
2
100
AcDbSymbolTableRecord
100
AcDbLayerTableRecord
  2
かくれ線
 70
     0
 62
     2
  6
DASHED2
370
    15
390
F
  0
LAYER
  5
1B3
330
2
100
AcDbSymbolTableRecord
100
AcDbLayerTableRecord
  2
Defpoints
 70
     0
 62
     7
  6
Continuous
290
     0
370
    -3
390
F
  0
ENDTAB
  0
TABLE
  2
STYLE
  5
3
330
0
100
AcDbSymbolTable
 70
     6
  0
STYLE
  5
11
330
3
100
AcDbSymbolTableRecord
100
AcDbTextStyleTableRecord
  2
Standard
 70
     0
 40
0.0
 41
1.0
 50
0.0
 71
     0
 42
2.5
  3
txt.shx
  4
extfont2.shx
  0
STYLE
  5
1B6
330
3
100
AcDbSymbolTableRecord
100
AcDbTextStyleTableRecord
  2
CB
 70
     0
 40
2.5
 41
1.0
 50
0.0
 71
     0
 42
2.5
  3
MS Gothic.ttf
  4

1001
ACAD
1000
MS Gothic
1071
    32817
  0
STYLE
  5
27AC
330
3
100
AcDbSymbolTableRecord
100
AcDbTextStyleTableRecord
  2

 70
     1
 40
0.0
 41
1.0
 50
0.0
 71
     0
 42
2.5
  3
genltshp.shx
  4

  0
STYLE
  5
27AE
330
3
100
AcDbSymbolTableRecord
100
AcDbTextStyleTableRecord
  2
ACISOTS
 70
     0
 40
1.0
 41
1.0
 50
0.0
 71
     0
 42
2.5
  3
isocp.shx
  4
extfont.shx
  0
STYLE
  5
27BB
330
3
100
AcDbSymbolTableRecord
100
AcDbTextStyleTableRecord
  2
ACISOGDT
 70
     0
 40
0.0
 41
1.0
 50
0.0
 71
     0
 42
2.5
  3
AMGDT
  4

  0
ENDTAB
  0
TABLE
  2
VIEW
  5
6
330
0
100
AcDbSymbolTable
 70
     4
  0
VIEW
  5
15DF
330
6
100
AcDbSymbolTableRecord
100
AcDbViewTableRecord
  2
OLE1
 70
     0
 40
550.9033316255782
 10
517.312103107335
 20
1001.737015277941
 41
622.2794932048048
 11
0.0
 21
0.0
 31
1.0
 12
0.0
 22
0.0
 32
0.0
 42
50.0
 43
0.0
 44
0.0
 50
0.0
 71
     0
281
     0
 72
     0
  0
VIEW
  5
1605
330
6
100
AcDbSymbolTableRecord
100
AcDbViewTableRecord
  2
OLE2
 70
     0
 40
511.4154841477621
 10
547.3493217961971
 20
1007.621504323603
 41
610.0592947605325
 11
0.0
 21
0.0
 31
1.0
 12
0.0
 22
0.0
 32
0.0
 42
50.0
 43
0.0
 44
0.0
 50
0.0
 71
     0
281
     0
 72
     0
  0
VIEW
  5
173C
330
6
100
AcDbSymbolTableRecord
100
AcDbViewTableRecord
  2
OLE3
 70
     0
 40
544.4370527720906
 10
547.4719826956791
 20
995.4072048537783
 41
565.8154710746596
 11
0.0
 21
0.0
 31
1.0
 12
0.0
 22
0.0
 32
0.0
 42
50.0
 43
0.0
 44
0.0
 50
0.0
 71
     0
281
     0
 72
     0
  0
ENDTAB
  0
TABLE
  2
UCS
  5
7
330
0
100
AcDbSymbolTable
 70
     0
  0
ENDTAB
  0
TABLE
  2
APPID
  5
9
330
0
100
AcDbSymbolTable
 70
    22
  0
APPID
  5
12
330
9
100
AcDbSymbolTableRecord
100
AcDbRegAppTableRecord
  2
ACAD
 70
     0
  0
APPID
  5
9E
330
9
100
AcDbSymbolTableRecord
100
AcDbRegAppTableRecord
  2
ACAD_PSEXT
 70
     0
  0
APPID
  5
1BB
330
9
100
AcDbSymbolTableRecord
100
AcDbRegAppTableRecord
  2
ACAD_DSTYLE_DIMJOGGED_JOGANGLE_SYMBOL
 70
     0
  0
APPID
  5
1BC
330
9
100
AcDbSymbolTableRecord
100
AcDbRegAppTableRecord
  2
ACAD_DSTYLE_DIMINSPECT
 70
     0
  0
APPID
  5
1BD
330
9
100
AcDbSymbolTableRecord
100
AcDbRegAppTableRecord
  2
ACAD_DSTYLE_DIMARC_LENGTH_SYMBOL
 70
     0
  0
APPID
  5
A79
330
9
100
AcDbSymbolTableRecord
100
AcDbRegAppTableRecord
  2
ACAD_EXEMPT_FROM_CAD_STANDARDS
 70
     0
  0
APPID
  5
1785
330
9
100
AcDbSymbolTableRecord
100
AcDbRegAppTableRecord
  2
ACAD_MLEADERVER
 70
     0
  0
APPID
  5
26D8
330
9
100
AcDbSymbolTableRecord
100
AcDbRegAppTableRecord
  2
GENIUS_GENDIM_13
 70
     0
  0
APPID
  5
26D9
330
9
100
AcDbSymbolTableRecord
100
AcDbRegAppTableRecord
  2
GENIUS_GENDTOL_13
 70
     0
  0
APPID
  5
26DA
330
9
100
AcDbSymbolTableRecord
100
AcDbRegAppTableRecord
  2
GENIUS_GE3DTOL_13
 70
     0
  0
APPID
  5
26DD
330
9
100
AcDbSymbolTableRecord
100
AcDbRegAppTableRecord
  2
MCAD_NO_VIS
 70
     0
  0
APPID
  5
26DE
330
9
100
AcDbSymbolTableRecord
100
AcDbRegAppTableRecord
  2
ACAD_TEMP_GRAPHIC
 70
     0
  0
APPID
  5
2710
330
9
100
AcDbSymbolTableRecord
100
AcDbRegAppTableRecord
  2
AD_DRAW
 70
     0
  0
APPID
  5
2713
330
9
100
AcDbSymbolTableRecord
100
AcDbRegAppTableRecord
  2
ACATTRIBSERVICES
 70
     0
  0
APPID
  5
275F
330
9
100
AcDbSymbolTableRecord
100
AcDbRegAppTableRecord
  2
ASURF_PCURVE_APPNAME
 70
     0
  0
APPID
  5
2764
330
9
100
AcDbSymbolTableRecord
100
AcDbRegAppTableRecord
  2
AMG_3D2D_5.0
 70
     0
  0
APPID
  5
2795
330
9
100
AcDbSymbolTableRecord
100
AcDbRegAppTableRecord
  2
DESIGNERASSEMBLIES
 70
     0
  0
APPID
  5
279C
330
9
100
AcDbSymbolTableRecord
100
AcDbRegAppTableRecord
  2
ACADM_DIM_EDIT
 70
     0
  0
APPID
  5
279D
330
9
100
AcDbSymbolTableRecord
100
AcDbRegAppTableRecord
  2
AMDT_DM_ADJ
 70
     0
  0
APPID
  5
27E1
330
9
100
AcDbSymbolTableRecord
100
AcDbRegAppTableRecord
  2
GENIUS_GENSCREG_15
 70
     0
  0
APPID
  5
27E2
330
9
100
AcDbSymbolTableRecord
100
AcDbRegAppTableRecord
  2
GENIUS_GENODEF_13
 70
     0
  0
APPID
  5
27E3
330
9
100
AcDbSymbolTableRecord
100
AcDbRegAppTableRecord
  2
GENIUS_GENOBJ-N-SDF_13
 70
     0
  0
ENDTAB
  0
TABLE
  2
DIMSTYLE
  5
A
330
0
100
AcDbSymbolTable
 70
    11
100
AcDbDimStyleTable
 71
     1
340
27
  0
DIMSTYLE
105
27
102
{ACAD_REACTORS
330
22BB
102
}
330
A
100
AcDbSymbolTableRecord
100
AcDbDimStyleTableRecord
  2
ISO-25
 70
     0
 41
2.5
 42
0.625
 43
3.75
 44
1.25
 73
     0
 74
     0
 77
     1
 78
     8
140
2.5
141
2.5
143
0.03937007874016
147
0.625
171
     3
172
     1
271
     2
272
     2
274
     3
278
    44
283
     0
284
     8
340
11
  0
DIMSTYLE
105
1B7
330
A
100
AcDbSymbolTableRecord
100
AcDbDimStyleTableRecord
  2
AM_ISO$SF
 70
     0
  4
"
 41
2.5
 42
1.0
 43
10.0
 44
1.0
 47
0.1
 48
0.1
 73
     0
 74
     0
 75
     1
 76
     1
 77
     1
 78
     8
 79
     2
140
3.5
141
0.0
143
0.0393701
146
0.71
147
1.5
172
     1
176
   256
177
   256
178
     2
271
     2
272
     3
274
     4
283
     0
284
     8
340
11
371
    -1
372
    -1
1001
ACAD_DSTYLE_DIMJOGGED_JOGANGLE_SYMBOL
1070
   384
1040
0.7853981633974483
1001
ACAD_DSTYLE_DIMARC_LENGTH_SYMBOL
1070
   379
1070
     1
  0
DIMSTYLE
105
1B8
330
A
100
AcDbSymbolTableRecord
100
AcDbDimStyleTableRecord
  2
AM_ISO$SH
 70
     0
  4
"
 41
2.5
 42
1.0
 43
10.0
 44
1.0
 47
0.1
 48
0.1
 73
     0
 74
     0
 75
     1
 76
     1
 77
     1
 78
     8
 79
     2
140
3.5
141
0.0
143
0.0393701
144
2.0
146
0.71
147
1.5
172
     1
173
     1
176
   256
177
   256
178
     2
271
     2
272
     3
274
     4
283
     0
284
     8
340
11
343
F3
371
    -1
372
    -1
1001
ACAD_DSTYLE_DIMJOGGED_JOGANGLE_SYMBOL
1070
   384
1040
0.7853981633974483
1001
ACAD_DSTYLE_DIMARC_LENGTH_SYMBOL
1070
   379
1070
     1
  0
DIMSTYLE
105
1B9
330
A
100
AcDbSymbolTableRecord
100
AcDbDimStyleTableRecord
  2
AM_JIS
 70
     0
  4
"
 40
3.0
 41
3.0
 42
2.0
 43
10.0
 44
1.0
 47
0.1
 48
0.1
 73
     0
 74
     0
 77
     3
 78
     8
 79
     2
140
3.5
141
0.0
143
0.0393701
146
0.71
147
1.5
172
     1
176
   256
177
   256
178
   256
271
     2
272
     2
283
     0
284
     8
340
11
341
F7
342
F7
371
    -1
372
    -1
1001
ACAD_DSTYLE_DIMJOGGED_JOGANGLE_SYMBOL
1070
   384
1040
0.7853981633974483
1001
ACAD_DSTYLE_DIMARC_LENGTH_SYMBOL
1070
   379
1070
     1
  0
DIMSTYLE
105
1BA
102
{ACAD_REACTORS
330
227B
330
227C
330
227D
330
227E
330
227F
330
24C2
330
24C3
330
24C4
330
24C5
102
}
330
A
100
AcDbSymbolTableRecord
100
AcDbDimStyleTableRecord
  2
AM_JIS$0
 70
     0
  4
"
 40
3.0
 41
3.0
 42
2.0
 43
10.0
 44
1.0
 47
0.1
 48
0.1
 73
     0
 74
     0
 77
     3
 78
     8
 79
     2
140
3.5
141
0.0
143
0.0393701
146
0.71
147
1.5
172
     1
176
   256
177
   256
178
   256
271
     2
272
     2
283
     0
284
     8
340
11
341
F7
342
F7
371
    -1
372
    -1
1001
ACAD_DSTYLE_DIMJOGGED_JOGANGLE_SYMBOL
1070
   384
1040
0.7853981633974483
1001
ACAD_DSTYLE_DIMARC_LENGTH_SYMBOL
1070
   379
1070
     1
  0
DIMSTYLE
105
27CA
330
A
100
AcDbSymbolTableRecord
100
AcDbDimStyleTableRecord
  2
AM_ISO
 70
     0
  4
"
 41
2.5
 42
1.0
 43
10.0
 44
1.0
 47
0.1
 48
0.1
 73
     0
 74
     0
 77
     1
 78
     8
 79
     2
140
3.5
141
0.0
143
0.0393701
146
0.71
147
1.5
172
     1
176
   256
177
   256
178
     2
271
     2
272
     3
274
     4
283
     0
284
     8
340
11
371
    -1
372
    -1
1001
ACAD_DSTYLE_DIMARC_LENGTH_SYMBOL
1070
   379
1070
     1
1001
ACAD_DSTYLE_DIMJOGGED_JOGANGLE_SYMBOL
1070
   384
1040
0.7853981633974483
  0
DIMSTYLE
105
27D3
330
A
100
AcDbSymbolTableRecord
100
AcDbDimStyleTableRecord
  2
AM_ISO$3
 70
     0
  4
"
 41
2.5
 42
1.0
 43
10.0
 44
1.0
 47
0.1
 48
0.1
 73
     0
 77
     1
 78
     8
 79
     2
140
3.5
141
0.0
143
0.0393701
146
0.71
147
1.5
176
   256
177
   256
178
     2
271
     2
272
     3
274
     4
283
     0
284
     8
288
     1
289
     0
340
11
371
    -1
372
    -1
1001
ACAD_DSTYLE_DIMARC_LENGTH_SYMBOL
1070
   379
1070
     1
1001
ACAD_DSTYLE_DIMJOGGED_JOGANGLE_SYMBOL
1070
   384
1040
0.7853981633974483
  0
DIMSTYLE
105
27D6
330
A
100
AcDbSymbolTableRecord
100
AcDbDimStyleTableRecord
  2
AM_ISO$4
 70
     0
  4
"
 41
2.5
 42
1.0
 43
10.0
 44
1.0
 47
0.1
 48
0.1
 73
     0
 77
     1
 78
     8
 79
     2
140
3.5
141
0.0
143
0.0393701
146
0.71
147
1.5
176
   256
177
   256
178
     2
271
     2
272
     3
274
     4
283
     0
284
     8
288
     1
289
     0
340
11
371
    -1
372
    -1
1001
ACAD_DSTYLE_DIMARC_LENGTH_SYMBOL
1070
   379
1070
     1
1001
ACAD_DSTYLE_DIMJOGGED_JOGANGLE_SYMBOL
1070
   384
1040
0.7853981633974483
  0
DIMSTYLE
105
27D9
330
A
100
AcDbSymbolTableRecord
100
AcDbDimStyleTableRecord
  2
AM_ISO$6
 70
     0
  4
"
 41
2.5
 42
1.0
 43
10.0
 44
1.0
 47
0.1
 48
0.1
 73
     0
 74
     0
 78
     8
 79
     2
140
3.5
141
0.0
143
0.0393701
146
0.71
147
1.5
172
     1
176
   256
177
   256
178
     2
271
     2
272
     3
274
     4
283
     0
284
     8
340
11
371
    -1
372
    -1
1001
ACAD_DSTYLE_DIMARC_LENGTH_SYMBOL
1070
   379
1070
     1
1001
ACAD_DSTYLE_DIMJOGGED_JOGANGLE_SYMBOL
1070
   384
1040
0.7853981633974483
  0
DIMSTYLE
105
27DC
330
A
100
AcDbSymbolTableRecord
100
AcDbDimStyleTableRecord
  2
AM_ISO$7
 70
     0
  4
"
 41
2.5
 42
1.0
 43
10.0
 44
1.0
 47
0.1
 48
0.1
 73
     0
 74
     0
 77
     1
 78
     8
 79
     2
140
5.0
141
0.0
143
0.0393701
146
0.71
147
1.5
172
     1
176
   256
177
   256
178
     2
271
     2
272
     3
274
     4
283
     0
284
     8
340
11
371
    -1
372
    -1
1001
ACAD_DSTYLE_DIMARC_LENGTH_SYMBOL
1070
   379
1070
     1
1001
ACAD_DSTYLE_DIMJOGGED_JOGANGLE_SYMBOL
1070
   384
1040
0.7853981633974483
  0
ENDTAB
  0
TABLE
  2
BLOCK_RECORD
  5
1
330
0
100
AcDbSymbolTable
 70
    63
  0
BLOCK_RECORD
  5
1F
102
{ACAD_XDICTIONARY
360
15E9
102
}
330
1
100
AcDbSymbolTableRecord
100
AcDbBlockTableRecord
  2
*Model_Space
340
22
  0
BLOCK_RECORD
  5
182D
330
1
100
AcDbSymbolTableRecord
100
AcDbBlockTableRecord
  2
*Paper_Space
340
182E
  0
BLOCK_RECORD
  5
F3
330
1
100
AcDbSymbolTableRecord
100
AcDbBlockTableRecord
  2
GENAXEH
340
0
  0
BLOCK_RECORD
  5
F7
330
1
100
AcDbSymbolTableRecord
100
AcDbBlockTableRecord
  2
_OPEN30
340
0
102
{BLKREFS
331
16DB
331
16DC
331
16E4
331
16E5
331
16EE
331
16EF
331
16F7
331
16F8
331
1709
331
170A
331
18CE
331
18CF
331
18D8
331
18D9
331
18EB
331
18EC
331
18F4
331
18F5
331
18FD
331
18FE
331
1909
331
1912
331
193A
331
193B
331
1943
331
1944
331
194D
331
194E
331
19EC
331
19ED
331
19F8
331
19F9
331
197E
331
197F
331
198A
331
198B
331
1996
331
1997
331
19A2
331
19A3
331
19B0
331
19B1
331
19BC
331
19BD
331
19C8
331
19C9
331
19D4
331
19D5
331
19E0
331
19E1
331
2134
331
2135
331
213D
331
213E
331
216C
331
216D
331
2175
331
2176
331
2187
331
2188
331
21AC
331
21AD
331
21B5
331
21B6
331
21C0
331
21C1
331
21C9
331
21CA
331
21D2
331
21D3
331
21DB
331
21DC
331
220E
331
2219
331
221A
331
2225
331
2226
331
21E7
331
21E8
331
21F3
331
21F4
331
21FF
331
2314
331
2315
331
231D
331
2329
331
2331
331
2332
331
233A
331
233B
331
2361
331
2362
331
236D
331
236E
331
2379
331
237A
331
2385
331
2386
331
25F5
331
25F6
331
25FE
331
25FF
331
2607
331
2608
331
2610
331
2611
331
261A
331
261B
102
}
  0
BLOCK_RECORD
  5
FD
330
1
100
AcDbSymbolTableRecord
100
AcDbBlockTableRecord
  2
_DotSmall
340
0
102
{BLKREFS
331
1908
331
1911
331
220D
331
2200
331
231E
331
2328
102
}
  0
BLOCK_RECORD
  5
127C
330
1
100
AcDbSymbolTableRecord
100
AcDbBlockTableRecord
  2
*D3
340
0
  0
BLOCK_RECORD
  5
1289
330
1
100
AcDbSymbolTableRecord
100
AcDbBlockTableRecord
  2
*D4
340
0
  0
BLOCK_RECORD
  5
1297
330
1
100
AcDbSymbolTableRecord
100
AcDbBlockTableRecord
  2
*D5
340
0
  0
BLOCK_RECORD
  5
12A3
330
1
100
AcDbSymbolTableRecord
100
AcDbBlockTableRecord
  2
*D6
340
0
  0
BLOCK_RECORD
  5
12AF
330
1
100
AcDbSymbolTableRecord
100
AcDbBlockTableRecord
  2
*D7
340
0
  0
BLOCK_RECORD
  5
12BB
330
1
100
AcDbSymbolTableRecord
100
AcDbBlockTableRecord
  2
*D8
340
0
  0
BLOCK_RECORD
  5
12C7
330
1
100
AcDbSymbolTableRecord
100
AcDbBlockTableRecord
  2
*D9
340
0
  0
BLOCK_RECORD
  5
12D3
330
1
100
AcDbSymbolTableRecord
100
AcDbBlockTableRecord
  2
*D10
340
0
  0
BLOCK_RECORD
  5
12E0
330
1
100
AcDbSymbolTableRecord
100
AcDbBlockTableRecord
  2
*D11
340
0
  0
BLOCK_RECORD
  5
12EC
330
1
100
AcDbSymbolTableRecord
100
AcDbBlockTableRecord
  2
*D12
340
0
  0
BLOCK_RECORD
  5
12F8
330
1
100
AcDbSymbolTableRecord
100
AcDbBlockTableRecord
  2
*D13
340
0
  0
BLOCK_RECORD
  5
1304
330
1
100
AcDbSymbolTableRecord
100
AcDbBlockTableRecord
  2
*D14
340
0
  0
BLOCK_RECORD
  5
1311
330
1
100
AcDbSymbolTableRecord
100
AcDbBlockTableRecord
  2
*D15
340
0
  0
BLOCK_RECORD
  5
131E
330
1
100
AcDbSymbolTableRecord
100
AcDbBlockTableRecord
  2
*D16
340
0
  0
BLOCK_RECORD
  5
14C7
330
1
100
AcDbSymbolTableRecord
100
AcDbBlockTableRecord
  2
*D17
340
0
  0
BLOCK_RECORD
  5
188F
330
1
100
AcDbSymbolTableRecord
100
AcDbBlockTableRecord
  2
*D18
340
0
  0
BLOCK_RECORD
  5
1979
330
1
100
AcDbSymbolTableRecord
100
AcDbBlockTableRecord
  2
*D19
340
0
  0
BLOCK_RECORD
  5
1985
330
1
100
AcDbSymbolTableRecord
100
AcDbBlockTableRecord
  2
*D20
340
0
  0
BLOCK_RECORD
  5
1991
330
1
100
AcDbSymbolTableRecord
100
AcDbBlockTableRecord
  2
*D21
340
0
  0
BLOCK_RECORD
  5
199D
330
1
100
AcDbSymbolTableRecord
100
AcDbBlockTableRecord
  2
*D22
340
0
  0
BLOCK_RECORD
  5
19A9
330
1
100
AcDbSymbolTableRecord
100
AcDbBlockTableRecord
  2
*D23
340
0
  0
BLOCK_RECORD
  5
19B7
330
1
100
AcDbSymbolTableRecord
100
AcDbBlockTableRecord
  2
*D24
340
0
  0
BLOCK_RECORD
  5
19C3
330
1
100
AcDbSymbolTableRecord
100
AcDbBlockTableRecord
  2
*D25
340
0
  0
BLOCK_RECORD
  5
19CF
330
1
100
AcDbSymbolTableRecord
100
AcDbBlockTableRecord
  2
*D26
340
0
  0
BLOCK_RECORD
  5
19DB
330
1
100
AcDbSymbolTableRecord
100
AcDbBlockTableRecord
  2
*D27
340
0
  0
BLOCK_RECORD
  5
19E7
330
1
100
AcDbSymbolTableRecord
100
AcDbBlockTableRecord
  2
*D28
340
0
  0
BLOCK_RECORD
  5
19F3
330
1
100
AcDbSymbolTableRecord
100
AcDbBlockTableRecord
  2
*D29
340
0
  0
BLOCK_RECORD
  5
1FE1
330
1
100
AcDbSymbolTableRecord
100
AcDbBlockTableRecord
  2
*D30
340
0
  0
BLOCK_RECORD
  5
1FED
330
1
100
AcDbSymbolTableRecord
100
AcDbBlockTableRecord
  2
*D31
340
0
  0
BLOCK_RECORD
  5
1FF9
330
1
100
AcDbSymbolTableRecord
100
AcDbBlockTableRecord
  2
*D32
340
0
  0
BLOCK_RECORD
  5
2005
330
1
100
AcDbSymbolTableRecord
100
AcDbBlockTableRecord
  2
*D33
340
0
  0
BLOCK_RECORD
  5
2011
330
1
100
AcDbSymbolTableRecord
100
AcDbBlockTableRecord
  2
*D34
340
0
  0
BLOCK_RECORD
  5
201D
330
1
100
AcDbSymbolTableRecord
100
AcDbBlockTableRecord
  2
*D35
340
0
  0
BLOCK_RECORD
  5
202B
330
1
100
AcDbSymbolTableRecord
100
AcDbBlockTableRecord
  2
*D36
340
0
  0
BLOCK_RECORD
  5
2037
330
1
100
AcDbSymbolTableRecord
100
AcDbBlockTableRecord
  2
*D37
340
0
  0
BLOCK_RECORD
  5
2043
330
1
100
AcDbSymbolTableRecord
100
AcDbBlockTableRecord
  2
*D38
340
0
  0
BLOCK_RECORD
  5
204F
330
1
100
AcDbSymbolTableRecord
100
AcDbBlockTableRecord
  2
*D39
340
0
  0
BLOCK_RECORD
  5
2064
330
1
100
AcDbSymbolTableRecord
100
AcDbBlockTableRecord
  2
*D40
340
0
  0
BLOCK_RECORD
  5
21E1
330
1
100
AcDbSymbolTableRecord
100
AcDbBlockTableRecord
  2
*D41
340
0
  0
BLOCK_RECORD
  5
21EE
330
1
100
AcDbSymbolTableRecord
100
AcDbBlockTableRecord
  2
*D42
340
0
  0
BLOCK_RECORD
  5
21FA
330
1
100
AcDbSymbolTableRecord
100
AcDbBlockTableRecord
  2
*D43
340
0
  0
BLOCK_RECORD
  5
2206
330
1
100
AcDbSymbolTableRecord
100
AcDbBlockTableRecord
  2
*D44
340
0
  0
BLOCK_RECORD
  5
2214
330
1
100
AcDbSymbolTableRecord
100
AcDbBlockTableRecord
  2
*D45
340
0
  0
BLOCK_RECORD
  5
2220
330
1
100
AcDbSymbolTableRecord
100
AcDbBlockTableRecord
  2
*D46
340
0
  0
BLOCK_RECORD
  5
22BC
330
1
100
AcDbSymbolTableRecord
100
AcDbBlockTableRecord
  2
*D47
340
0
  0
BLOCK_RECORD
  5
22C9
330
1
100
AcDbSymbolTableRecord
100
AcDbBlockTableRecord
  2
*D48
340
0
  0
BLOCK_RECORD
  5
22D5
330
1
100
AcDbSymbolTableRecord
100
AcDbBlockTableRecord
  2
*D49
340
0
  0
BLOCK_RECORD
  5
22E1
330
1
100
AcDbSymbolTableRecord
100
AcDbBlockTableRecord
  2
*D50
340
0
  0
BLOCK_RECORD
  5
22EF
330
1
100
AcDbSymbolTableRecord
100
AcDbBlockTableRecord
  2
*D51
340
0
  0
BLOCK_RECORD
  5
22FB
330
1
100
AcDbSymbolTableRecord
100
AcDbBlockTableRecord
  2
*D52
340
0
  0
BLOCK_RECORD
  5
235C
330
1
100
AcDbSymbolTableRecord
100
AcDbBlockTableRecord
  2
*D53
340
0
  0
BLOCK_RECORD
  5
2368
330
1
100
AcDbSymbolTableRecord
100
AcDbBlockTableRecord
  2
*D54
340
0
  0
BLOCK_RECORD
  5
2374
330
1
100
AcDbSymbolTableRecord
100
AcDbBlockTableRecord
  2
*D55
340
0
  0
BLOCK_RECORD
  5
2380
330
1
100
AcDbSymbolTableRecord
100
AcDbBlockTableRecord
  2
*D56
340
0
  0
BLOCK_RECORD
  5
25C2
330
1
100
AcDbSymbolTableRecord
100
AcDbBlockTableRecord
  2
*D57
340
0
  0
BLOCK_RECORD
  5
25CE
330
1
100
AcDbSymbolTableRecord
100
AcDbBlockTableRecord
  2
*D58
340
0
  0
BLOCK_RECORD
  5
25DA
330
1
100
AcDbSymbolTableRecord
100
AcDbBlockTableRecord
  2
*D59
340
0
  0
BLOCK_RECORD
  5
25E6
330
1
100
AcDbSymbolTableRecord
100
AcDbBlockTableRecord
  2
*D60
340
0
  0
ENDTAB
  0
ENDSEC
  0
SECTION
  2
BLOCKS
  0
BLOCK
  5
20
330
1F
100
AcDbEntity
  8
0
100
AcDbBlockBegin
  2
*Model_Space
 70
     0
 10
0.0
 20
0.0
 30
0.0
  3
*Model_Space
  1

  0
ENDBLK
  5
21
330
1F
100
AcDbEntity
  8
0
100
AcDbBlockEnd
  0
BLOCK
  5
182F
330
182D
100
AcDbEntity
 67
     1
  8
0
100
AcDbBlockBegin
  2
*Paper_Space
 70
     0
 10
0.0
 20
0.0
 30
0.0
  3
*Paper_Space
  1

  0
ENDBLK
  5
1830
330
182D
100
AcDbEntity
 67
     1
  8
0
100
AcDbBlockEnd
  0
BLOCK
  5
F4
330
F3
100
AcDbEntity
  8
0
100
AcDbBlockBegin
  2
GENAXEH
 70
     0
 10
0.0
 20
0.0
 30
0.0
  3
GENAXEH
  1

  0
LINE
  5
F5
330
F3
100
AcDbEntity
  8
0
100
AcDbLine
 10
-1.0
 20
0.0
 30
0.0
 11
1.0
 21
0.0
 31
0.0
  0
ENDBLK
  5
F6
330
F3
100
AcDbEntity
  8
0
100
AcDbBlockEnd
  0
BLOCK
  5
F8
330
F7
100
AcDbEntity
  8
0
100
AcDbBlockBegin
  2
_OPEN30
 70
     0
 10
0.0
 20
0.0
 30
0.0
  3
_OPEN30
  1

  0
LINE
  5
F9
330
F7
100
AcDbEntity
  8
0
  6
ByBlock
 62
     0
100
AcDbLine
 10
-1.0
 20
0.26794919
 30
0.0
 11
0.0
 21
0.0
 31
0.0
  0
LINE
  5
FA
330
F7
100
AcDbEntity
  8
0
  6
ByBlock
 62
     0
100
AcDbLine
 10
0.0
 20
0.0
 30
0.0
 11
-1.0
 21
-0.26794919
 31
0.0
  0
LINE
  5
FB
330
F7
100
AcDbEntity
  8
0
  6
ByBlock
 62
     0
100
AcDbLine
 10
0.0
 20
0.0
 30
0.0
 11
-1.0
 21
0.0
 31
0.0
  0
ENDBLK
  5
FC
330
F7
100
AcDbEntity
  8
0
100
AcDbBlockEnd
  0
BLOCK
  5
FE
330
FD
100
AcDbEntity
  8
0
100
AcDbBlockBegin
  2
_DotSmall
 70
     0
 10
0.0
 20
0.0
 30
0.0
  3
_DotSmall
  1

  0
LWPOLYLINE
  5
FF
330
FD
100
AcDbEntity
  8
0
  6
ByBlock
 62
     0
100
AcDbPolyline
 90
        2
 70
     1
 43
0.5
 10
-0.0625
 20
0.0
 42
1.0
 10
0.0625
 20
0.0
 42
1.0
  0
ENDBLK
  5
100
330
FD
100
AcDbEntity
  8
0
100
AcDbBlockEnd
  0
BLOCK
  5
1287
330
127C
100
AcDbEntity
  8
0
100
AcDbBlockBegin
  2
*D3
 70
     1
 10
0.0
 20
0.0
 30
0.0
  3
*D3
  1

  0
LINE
  5
190E
330
127C
100
AcDbEntity
  8
0
100
AcDbLine
 10
388.1658092246817
 20
1131.414328215956
 30
0.0
 11
388.1658092246817
 21
1166.477431072831
 31
0.0
  0
LINE
  5
190F
330
127C
100
AcDbEntity
  8
0
100
AcDbLine
 10
414.1658092246816
 20
1134.414328215956
 30
0.0
 11
414.1658092246816
 21
1166.477431072831
 31
0.0
  0
LINE
  5
1910
330
127C
100
AcDbEntity
  8
0
100
AcDbLine
 10
388.1658092246817
 20
1163.477431072831
 30
0.0
 11
405.1658092246817
 21
1163.477431072831
 31
0.0
  0
INSERT
  5
1911
330
127C
100
AcDbEntity
  8
0
100
AcDbBlockReference
  2
_DotSmall
 10
388.1658092246817
 20
1163.477431072831
 30
0.0
 41
9.0
 42
9.0
 43
9.0
 50
180.0
  0
INSERT
  5
1912
330
127C
100
AcDbEntity
  8
0
100
AcDbBlockReference
  2
_OPEN30
 10
414.1658092246816
 20
1163.477431072831
 30
0.0
 41
9.0
 42
9.0
 43
9.0
  0
MTEXT
  5
1913
330
127C
100
AcDbEntity
  8
0
370
    50
100
AcDbMText
 10
405.1658092246817
 20
1173.227431072831
 30
0.0
 40
10.5
 41
0.0
 71
     5
 72
     1
  1
26
 73
     1
 44
1.0
1001
ACAD
1000
MTEXTBEGIN
1070
    73
1070
     1
1070
    44
1040
1.0
1070
    74
1070
     0
1000
MTEXTEND
  0
POINT
  5
1914
330
127C
100
AcDbEntity
  8
Defpoints
 62
     0
100
AcDbPoint
 10
388.1658092246817
 20
1125.414328215956
 30
0.0
  0
POINT
  5
1915
330
127C
100
AcDbEntity
  8
Defpoints
 62
     0
100
AcDbPoint
 10
414.1658092246816
 20
1128.414328215955
 30
0.0
  0
POINT
  5
1916
330
127C
100
AcDbEntity
  8
Defpoints
 62
     0
100
AcDbPoint
 10
414.1658092246816
 20
1163.477431072831
 30
0.0
  0
ENDBLK
  5
1288
330
127C
100
AcDbEntity
  8
0
100
AcDbBlockEnd
  0
BLOCK
  5
1295
330
1289
100
AcDbEntity
  8
0
100
AcDbBlockBegin
  2
*D4
 70
     1
 10
0.0
 20
0.0
 30
0.0
  3
*D4
  1

  0
LINE
  5
1903
330
1289
100
AcDbEntity
  8
0
100
AcDbLine
 10
388.1658092246817
 20
1131.414328215956
 30
0.0
 11
388.1658092246817
 21
1166.512982706322
 31
0.0
  0
LINE
  5
1904
330
1289
100
AcDbEntity
  8
0
100
AcDbLine
 10
382.1658092246819
 20
1072.414328215956
 30
0.0
 11
382.1658092246819
 21
1166.512982706322
 31
0.0
  0
LINE
  5
1905
330
1289
100
AcDbEntity
  8
0
100
AcDbLine
 10
388.1658092246817
 20
1163.512982706322
 30
0.0
 11
397.1658092246817
 21
1163.512982706322
 31
0.0
  0
LINE
  5
1906
330
1289
100
AcDbEntity
  8
0
100
AcDbLine
 10
373.1658092246819
 20
1163.512982706322
 30
0.0
 11
348.1658092246819
 21
1163.512982706322
 31
0.0
  0
LINE
  5
1907
330
1289
100
AcDbEntity
  8
0
100
AcDbLine
 10
388.1658092246817
 20
1163.512982706322
 30
0.0
 11
382.1658092246819
 21
1163.512982706322
 31
0.0
  0
INSERT
  5
1908
330
1289
100
AcDbEntity
  8
0
100
AcDbBlockReference
  2
_DotSmall
 10
388.1658092246817
 20
1163.512982706322
 30
0.0
 41
9.0
 42
9.0
 43
9.0
 50
180.0
  0
INSERT
  5
1909
330
1289
100
AcDbEntity
  8
0
100
AcDbBlockReference
  2
_OPEN30
 10
382.1658092246819
 20
1163.512982706322
 30
0.0
 41
9.0
 42
9.0
 43
9.0
  0
MTEXT
  5
190A
330
1289
100
AcDbEntity
  8
0
370
    50
100
AcDbMText
 10
356.1658092246819
 20
1173.262982706322
 30
0.0
 40
10.5
 41
0.0
 71
     5
 72
     1
  1
6
 73
     1
 44
1.0
1001
ACAD
1000
MTEXTBEGIN
1070
    73
1070
     1
1070
    44
1040
1.0
1070
    74
1070
     0
1000
MTEXTEND
  0
POINT
  5
190B
330
1289
100
AcDbEntity
  8
Defpoints
 62
     0
100
AcDbPoint
 10
388.1658092246817
 20
1125.414328215956
 30
0.0
  0
POINT
  5
190C
330
1289
100
AcDbEntity
  8
Defpoints
 62
     0
100
AcDbPoint
 10
382.1658092246819
 20
1066.414328215956
 30
0.0
  0
POINT
  5
190D
330
1289
100
AcDbEntity
  8
Defpoints
 62
     0
100
AcDbPoint
 10
382.1658092246819
 20
1163.512982706322
 30
0.0
  0
ENDBLK
  5
1296
330
1289
100
AcDbEntity
  8
0
100
AcDbBlockEnd
  0
BLOCK
  5
12A1
330
1297
100
AcDbEntity
  8
0
100
AcDbBlockBegin
  2
*D5
 70
     1
 10
0.0
 20
0.0
 30
0.0
  3
*D5
  1

  0
LINE
  5
18FA
330
1297
100
AcDbEntity
  8
0
100
AcDbLine
 10
512.1658092246816
 20
1132.414328215956
 30
0.0
 11
512.1658092246816
 21
1166.489969942971
 31
0.0
  0
LINE
  5
18FB
330
1297
100
AcDbEntity
  8
0
100
AcDbLine
 10
414.1658092246816
 20
1147.814328215956
 30
0.0
 11
414.1658092246816
 21
1166.489969942971
 31
0.0
  0
LINE
  5
18FC
330
1297
100
AcDbEntity
  8
0
100
AcDbLine
 10
503.1658092246816
 20
1163.489969942971
 30
0.0
 11
423.1658092246816
 21
1163.489969942971
 31
0.0
  0
INSERT
  5
18FD
330
1297
100
AcDbEntity
  8
0
100
AcDbBlockReference
  2
_OPEN30
 10
512.1658092246816
 20
1163.489969942971
 30
0.0
 41
9.0
 42
9.0
 43
9.0
  0
INSERT
  5
18FE
330
1297
100
AcDbEntity
  8
0
100
AcDbBlockReference
  2
_OPEN30
 10
414.1658092246816
 20
1163.489969942971
 30
0.0
 41
9.0
 42
9.0
 43
9.0
 50
180.0
  0
MTEXT
  5
18FF
330
1297
100
AcDbEntity
  8
0
370
    50
100
AcDbMText
 10
463.1658092246818
 20
1173.239969942971
 30
0.0
 40
10.5
 41
0.0
 71
     5
 72
     1
  1
98
 73
     1
 44
1.0
1001
ACAD
1000
MTEXTBEGIN
1070
    73
1070
     1
1070
    44
1040
1.0
1070
    74
1070
     0
1000
MTEXTEND
  0
POINT
  5
1900
330
1297
100
AcDbEntity
  8
Defpoints
 62
     0
100
AcDbPoint
 10
512.1658092246816
 20
1126.414328215955
 30
0.0
  0
POINT
  5
1901
330
1297
100
AcDbEntity
  8
Defpoints
 62
     0
100
AcDbPoint
 10
414.1658092246816
 20
1141.814328215956
 30
0.0
  0
POINT
  5
1902
330
1297
100
AcDbEntity
  8
Defpoints
 62
     0
100
AcDbPoint
 10
414.1658092246816
 20
1163.489969942971
 30
0.0
  0
ENDBLK
  5
12A2
330
1297
100
AcDbEntity
  8
0
100
AcDbBlockEnd
  0
BLOCK
  5
12AD
330
12A3
100
AcDbEntity
  8
0
100
AcDbBlockBegin
  2
*D6
 70
     1
 10
0.0
 20
0.0
 30
0.0
  3
*D6
  1

  0
LINE
  5
18F1
330
12A3
100
AcDbEntity
  8
0
100
AcDbLine
 10
512.1658092246816
 20
1132.414328215956
 30
0.0
 11
512.1658092246816
 21
1185.826276966016
 31
0.0
  0
LINE
  5
18F2
330
12A3
100
AcDbEntity
  8
0
100
AcDbLine
 10
382.1658092246819
 20
1072.414328215956
 30
0.0
 11
382.1658092246819
 21
1185.826276966016
 31
0.0
  0
LINE
  5
18F3
330
12A3
100
AcDbEntity
  8
0
100
AcDbLine
 10
503.1658092246816
 20
1182.826276966016
 30
0.0
 11
391.1658092246819
 21
1182.826276966016
 31
0.0
  0
INSERT
  5
18F4
330
12A3
100
AcDbEntity
  8
0
100
AcDbBlockReference
  2
_OPEN30
 10
512.1658092246816
 20
1182.826276966016
 30
0.0
 41
9.0
 42
9.0
 43
9.0
  0
INSERT
  5
18F5
330
12A3
100
AcDbEntity
  8
0
100
AcDbBlockReference
  2
_OPEN30
 10
382.1658092246819
 20
1182.826276966016
 30
0.0
 41
9.0
 42
9.0
 43
9.0
 50
180.0
  0
MTEXT
  5
18F6
330
12A3
100
AcDbEntity
  8
0
370
    50
100
AcDbMText
 10
447.1658092246816
 20
1192.576276966016
 30
0.0
 40
10.5
 41
0.0
 71
     5
 72
     1
  1
130
 73
     1
 44
1.0
1001
ACAD
1000
MTEXTBEGIN
1070
    73
1070
     1
1070
    44
1040
1.0
1070
    74
1070
     0
1000
MTEXTEND
  0
POINT
  5
18F7
330
12A3
100
AcDbEntity
  8
Defpoints
 62
     0
100
AcDbPoint
 10
512.1658092246816
 20
1126.414328215955
 30
0.0
  0
POINT
  5
18F8
330
12A3
100
AcDbEntity
  8
Defpoints
 62
     0
100
AcDbPoint
 10
382.1658092246819
 20
1066.414328215956
 30
0.0
  0
POINT
  5
18F9
330
12A3
100
AcDbEntity
  8
Defpoints
 62
     0
100
AcDbPoint
 10
382.1658092246819
 20
1182.826276966016
 30
0.0
  0
ENDBLK
  5
12AE
330
12A3
100
AcDbEntity
  8
0
100
AcDbBlockEnd
  0
BLOCK
  5
12B9
330
12AF
100
AcDbEntity
  8
0
100
AcDbBlockBegin
  2
*D7
 70
     1
 10
0.0
 20
0.0
 30
0.0
  3
*D7
  1

  0
LINE
  5
1706
330
12AF
100
AcDbEntity
  8
0
100
AcDbLine
 10
576.1066853693262
 20
812.4143282159566
 30
0.0
 11
576.1066853693262
 21
759.1644673211972
 31
0.0
  0
LINE
  5
1707
330
12AF
100
AcDbEntity
  8
0
100
AcDbLine
 10
766.1066853693263
 20
812.4143282159566
 30
0.0
 11
766.1066853693263
 21
759.1644673211972
 31
0.0
  0
LINE
  5
1708
330
12AF
100
AcDbEntity
  8
0
100
AcDbLine
 10
585.1066853693262
 20
762.1644673211972
 30
0.0
 11
757.1066853693261
 21
762.1644673211972
 31
0.0
  0
INSERT
  5
1709
330
12AF
100
AcDbEntity
  8
0
100
AcDbBlockReference
  2
_OPEN30
 10
576.1066853693262
 20
762.1644673211972
 30
0.0
 41
9.0
 42
9.0
 43
9.0
 50
180.0
  0
INSERT
  5
170A
330
12AF
100
AcDbEntity
  8
0
100
AcDbBlockReference
  2
_OPEN30
 10
766.1066853693263
 20
762.1644673211972
 30
0.0
 41
9.0
 42
9.0
 43
9.0
  0
MTEXT
  5
170B
330
12AF
100
AcDbEntity
  8
0
370
    50
100
AcDbMText
 10
671.1066853693262
 20
771.9144673211972
 30
0.0
 40
10.5
 41
0.0
 71
     5
 72
     1
  1
190
 73
     1
 44
1.0
1001
ACAD
1000
MTEXTBEGIN
1070
    73
1070
     1
1070
    44
1040
1.0
1070
    74
1070
     0
1000
MTEXTEND
  0
POINT
  5
170C
330
12AF
100
AcDbEntity
  8
Defpoints
 62
     0
100
AcDbPoint
 10
576.1066853693262
 20
818.4143282159565
 30
0.0
  0
POINT
  5
170D
330
12AF
100
AcDbEntity
  8
Defpoints
 62
     0
100
AcDbPoint
 10
766.1066853693263
 20
818.4143282159565
 30
0.0
  0
POINT
  5
170E
330
12AF
100
AcDbEntity
  8
Defpoints
 62
     0
100
AcDbPoint
 10
766.1066853693263
 20
762.1644673211972
 30
0.0
  0
ENDBLK
  5
12BA
330
12AF
100
AcDbEntity
  8
0
100
AcDbBlockEnd
  0
BLOCK
  5
12C5
330
12BB
100
AcDbEntity
  8
0
100
AcDbBlockBegin
  2
*D8
 70
     1
 10
0.0
 20
0.0
 30
0.0
  3
*D8
  1

  0
LINE
  5
18E8
330
12BB
100
AcDbEntity
  8
0
100
AcDbLine
 10
770.1066853693263
 20
816.4143282159566
 30
0.0
 11
809.4917591865861
 21
816.4143282159566
 31
0.0
  0
LINE
  5
18E9
330
12BB
100
AcDbEntity
  8
0
100
AcDbLine
 10
772.1573409261984
 20
1128.407115271129
 30
0.0
 11
809.4917591865861
 21
1128.407115271129
 31
0.0
  0
LINE
  5
18EA
330
12BB
100
AcDbEntity
  8
0
100
AcDbLine
 10
806.4917591865862
 20
825.4143282159565
 30
0.0
 11
806.4917591865862
 21
1119.40711527113
 31
0.0
  0
INSERT
  5
18EB
330
12BB
100
AcDbEntity
  8
0
100
AcDbBlockReference
  2
_OPEN30
 10
806.4917591865862
 20
816.4143282159566
 30
0.0
 41
9.0
 42
9.0
 43
9.0
 50
270.0
  0
INSERT
  5
18EC
330
12BB
100
AcDbEntity
  8
0
100
AcDbBlockReference
  2
_OPEN30
 10
806.4917591865862
 20
1128.407115271129
 30
0.0
 41
9.0
 42
9.0
 43
9.0
 50
90.0
  0
MTEXT
  5
18ED
330
12BB
100
AcDbEntity
  8
0
370
    50
100
AcDbMText
 10
796.7417591865861
 20
972.4107217435433
 30
0.0
 40
10.5
 41
0.0
 71
     5
 72
     1
  1
312
 11
0.0000000000000001
 21
1.0
 31
0.0
 73
     1
 44
1.0
1001
ACAD
1000
MTEXTBEGIN
1070
    73
1070
     1
1070
    44
1040
1.0
1070
    74
1070
     0
1000
MTEXTEND
  0
POINT
  5
18EE
330
12BB
100
AcDbEntity
  8
Defpoints
 62
     0
100
AcDbPoint
 10
764.1066853693263
 20
816.4143282159566
 30
0.0
  0
POINT
  5
18EF
330
12BB
100
AcDbEntity
  8
Defpoints
 62
     0
100
AcDbPoint
 10
766.1573409261984
 20
1128.407115271129
 30
0.0
  0
POINT
  5
18F0
330
12BB
100
AcDbEntity
  8
Defpoints
 62
     0
100
AcDbPoint
 10
806.4917591865862
 20
1128.407115271129
 30
0.0
  0
ENDBLK
  5
12C6
330
12BB
100
AcDbEntity
  8
0
100
AcDbBlockEnd
  0
BLOCK
  5
12D1
330
12C7
100
AcDbEntity
  8
0
100
AcDbBlockBegin
  2
*D9
 70
     1
 10
0.0
 20
0.0
 30
0.0
  3
*D9
  1

  0
LINE
  5
16F4
330
12C7
100
AcDbEntity
  8
0
100
AcDbLine
 10
505.1658092246817
 20
810.4143282159565
 30
0.0
 11
505.1658092246817
 21
778.4593086819333
 31
0.0
  0
LINE
  5
16F5
330
12C7
100
AcDbEntity
  8
0
100
AcDbLine
 10
382.1658092246817
 20
810.4143282159565
 30
0.0
 11
382.1658092246817
 21
778.4593086819333
 31
0.0
  0
LINE
  5
16F6
330
12C7
100
AcDbEntity
  8
0
100
AcDbLine
 10
496.1658092246818
 20
781.4593086819331
 30
0.0
 11
391.1658092246817
 21
781.4593086819331
 31
0.0
  0
INSERT
  5
16F7
330
12C7
100
AcDbEntity
  8
0
100
AcDbBlockReference
  2
_OPEN30
 10
505.1658092246817
 20
781.4593086819331
 30
0.0
 41
9.0
 42
9.0
 43
9.0
  0
INSERT
  5
16F8
330
12C7
100
AcDbEntity
  8
0
100
AcDbBlockReference
  2
_OPEN30
 10
382.1658092246817
 20
781.4593086819331
 30
0.0
 41
9.0
 42
9.0
 43
9.0
 50
180.0
  0
MTEXT
  5
16F9
330
12C7
100
AcDbEntity
  8
0
370
    50
100
AcDbMText
 10
443.6658092246816
 20
791.2093086819331
 30
0.0
 40
10.5
 41
0.0
 71
     5
 72
     1
  1
123（A0J2）
 73
     1
 44
1.0
1001
ACAD
1000
MTEXTBEGIN
1070
    73
1070
     1
1070
    44
1040
1.0
1070
    74
1070
     0
1000
MTEXTEND
  0
POINT
  5
16FA
330
12C7
100
AcDbEntity
  8
Defpoints
 62
     0
100
AcDbPoint
 10
505.1658092246817
 20
816.4143282159566
 30
0.0
  0
POINT
  5
16FB
330
12C7
100
AcDbEntity
  8
Defpoints
 62
     0
100
AcDbPoint
 10
382.1658092246817
 20
816.4143282159566
 30
0.0
  0
POINT
  5
16FC
330
12C7
100
AcDbEntity
  8
Defpoints
 62
     0
100
AcDbPoint
 10
382.1658092246817
 20
781.4593086819331
 30
0.0
  0
ENDBLK
  5
12D2
330
12C7
100
AcDbEntity
  8
0
100
AcDbBlockEnd
  0
BLOCK
  5
12DE
330
12D3
100
AcDbEntity
  8
0
100
AcDbBlockBegin
  2
*D10
 70
     1
 10
0.0
 20
0.0
 30
0.0
  3
*D10
  1

  0
LINE
  5
16EA
330
12D3
100
AcDbEntity
  8
0
100
AcDbLine
 10
505.1658092246817
 20
810.4143282159565
 30
0.0
 11
505.1658092246817
 21
756.8536651694728
 31
0.0
  0
LINE
  5
16EB
330
12D3
100
AcDbEntity
  8
0
100
AcDbLine
 10
539.6658092246816
 20
1023.814328215957
 30
0.0
 11
539.6658092246816
 21
756.8536651694728
 31
0.0
  0
LINE
  5
16EC
330
12D3
100
AcDbEntity
  8
0
100
AcDbLine
 10
530.6658092246816
 20
759.8536651694728
 30
0.0
 11
514.1658092246816
 21
759.8536651694728
 31
0.0
  0
LINE
  5
16ED
330
12D3
100
AcDbEntity
  8
0
100
AcDbLine
 10
505.1658092246817
 20
759.8536651694728
 30
0.0
 11
392.6658092246818
 21
759.8536651694728
 31
0.0
  0
INSERT
  5
16EE
330
12D3
100
AcDbEntity
  8
0
100
AcDbBlockReference
  2
_OPEN30
 10
539.6658092246816
 20
759.8536651694728
 30
0.0
 41
9.0
 42
9.0
 43
9.0
  0
INSERT
  5
16EF
330
12D3
100
AcDbEntity
  8
0
100
AcDbBlockReference
  2
_OPEN30
 10
505.1658092246817
 20
759.8536651694728
 30
0.0
 41
9.0
 42
9.0
 43
9.0
 50
180.0
  0
MTEXT
  5
16F0
330
12D3
100
AcDbEntity
  8
0
370
    50
100
AcDbMText
 10
444.4158092246818
 20
769.6036651694728
 30
0.0
 40
10.5
 41
0.0
 71
     5
 72
     1
  1
35（増加寸法）
 73
     1
 44
1.0
1001
ACAD
1000
MTEXTBEGIN
1070
    73
1070
     1
1070
    44
1040
1.0
1070
    74
1070
     0
1000
MTEXTEND
  0
POINT
  5
16F1
330
12D3
100
AcDbEntity
  8
Defpoints
 62
     0
100
AcDbPoint
 10
505.1658092246817
 20
816.4143282159566
 30
0.0
  0
POINT
  5
16F2
330
12D3
100
AcDbEntity
  8
Defpoints
 62
     0
100
AcDbPoint
 10
539.6658092246816
 20
1029.814328215957
 30
0.0
  0
POINT
  5
16F3
330
12D3
100
AcDbEntity
  8
Defpoints
 62
     0
100
AcDbPoint
 10
539.6658092246816
 20
759.8536651694728
 30
0.0
  0
ENDBLK
  5
12DF
330
12D3
100
AcDbEntity
  8
0
100
AcDbBlockEnd
  0
BLOCK
  5
12EA
330
12E0
100
AcDbEntity
  8
0
100
AcDbBlockBegin
  2
*D11
 70
     1
 10
0.0
 20
0.0
 30
0.0
  3
*D11
  1

  0
LINE
  5
16E1
330
12E0
100
AcDbEntity
  8
0
100
AcDbLine
 10
769.7166853693263
 20
1060.414328215957
 30
0.0
 11
789.6645760395181
 21
1060.414328215957
 31
0.0
  0
LINE
  5
16E2
330
12E0
100
AcDbEntity
  8
0
100
AcDbLine
 10
769.7166853693263
 20
822.4143282159564
 30
0.0
 11
789.6645760395181
 21
822.4143282159564
 31
0.0
  0
LINE
  5
16E3
330
12E0
100
AcDbEntity
  8
0
100
AcDbLine
 10
786.6645760395181
 20
1051.414328215956
 30
0.0
 11
786.6645760395181
 21
831.4143282159564
 31
0.0
  0
INSERT
  5
16E4
330
12E0
100
AcDbEntity
  8
0
100
AcDbBlockReference
  2
_OPEN30
 10
786.6645760395181
 20
1060.414328215957
 30
0.0
 41
9.0
 42
9.0
 43
9.0
 50
90.0
  0
INSERT
  5
16E5
330
12E0
100
AcDbEntity
  8
0
100
AcDbBlockReference
  2
_OPEN30
 10
786.6645760395181
 20
822.4143282159564
 30
0.0
 41
9.0
 42
9.0
 43
9.0
 50
270.0
  0
MTEXT
  5
16E6
330
12E0
100
AcDbEntity
  8
0
370
    50
100
AcDbMText
 10
776.914576039518
 20
941.4143282159567
 30
0.0
 40
10.5
 41
0.0
 71
     5
 72
     1
  1
238（取付ピッチ）
 11
0.0000000000000001
 21
1.0
 31
0.0
 73
     1
 44
1.0
1001
ACAD
1000
MTEXTBEGIN
1070
    73
1070
     1
1070
    44
1040
1.0
1070
    74
1070
     0
1000
MTEXTEND
  0
POINT
  5
16E7
330
12E0
100
AcDbEntity
  8
Defpoints
 62
     0
100
AcDbPoint
 10
763.7166853693263
 20
1060.414328215957
 30
0.0
  0
POINT
  5
16E8
330
12E0
100
AcDbEntity
  8
Defpoints
 62
     0
100
AcDbPoint
 10
763.7166853693263
 20
822.4143282159566
 30
0.0
  0
POINT
  5
16E9
330
12E0
100
AcDbEntity
  8
Defpoints
 62
     0
100
AcDbPoint
 10
786.6645760395181
 20
822.4143282159564
 30
0.0
  0
ENDBLK
  5
12EB
330
12E0
100
AcDbEntity
  8
0
100
AcDbBlockEnd
  0
BLOCK
  5
12F6
330
12EC
100
AcDbEntity
  8
0
100
AcDbBlockBegin
  2
*D12
 70
     1
 10
0.0
 20
0.0
 30
0.0
  3
*D12
  1

  0
LINE
  5
16D8
330
12EC
100
AcDbEntity
  8
0
100
AcDbLine
 10
581.1066853693262
 20
813.8043282159568
 30
0.0
 11
581.1066853693262
 21
778.4593086819334
 31
0.0
  0
LINE
  5
16D9
330
12EC
100
AcDbEntity
  8
0
100
AcDbLine
 10
761.1066853693261
 20
813.8043282159564
 30
0.0
 11
761.1066853693261
 21
778.4593086819334
 31
0.0
  0
LINE
  5
16DA
330
12EC
100
AcDbEntity
  8
0
100
AcDbLine
 10
590.1066853693262
 20
781.4593086819334
 30
0.0
 11
752.1066853693262
 21
781.4593086819334
 31
0.0
  0
INSERT
  5
16DB
330
12EC
100
AcDbEntity
  8
0
100
AcDbBlockReference
  2
_OPEN30
 10
581.1066853693262
 20
781.4593086819334
 30
0.0
 41
9.0
 42
9.0
 43
9.0
 50
180.0
  0
INSERT
  5
16DC
330
12EC
100
AcDbEntity
  8
0
100
AcDbBlockReference
  2
_OPEN30
 10
761.1066853693261
 20
781.4593086819334
 30
0.0
 41
9.0
 42
9.0
 43
9.0
  0
MTEXT
  5
16DD
330
12EC
100
AcDbEntity
  8
0
370
    50
100
AcDbMText
 10
671.1066853693262
 20
791.2093086819334
 30
0.0
 40
10.5
 41
0.0
 71
     5
 72
     1
  1
180（取付ピッチ）
 73
     1
 44
1.0
1001
ACAD
1000
MTEXTBEGIN
1070
    73
1070
     1
1070
    44
1040
1.0
1070
    74
1070
     0
1000
MTEXTEND
  0
POINT
  5
16DE
330
12EC
100
AcDbEntity
  8
Defpoints
 62
     0
100
AcDbPoint
 10
581.1066853693262
 20
819.8043282159567
 30
0.0
  0
POINT
  5
16DF
330
12EC
100
AcDbEntity
  8
Defpoints
 62
     0
100
AcDbPoint
 10
761.1066853693261
 20
819.8043282159567
 30
0.0
  0
POINT
  5
16E0
330
12EC
100
AcDbEntity
  8
Defpoints
 62
     0
100
AcDbPoint
 10
761.1066853693261
 20
781.4593086819334
 30
0.0
  0
ENDBLK
  5
12F7
330
12EC
100
AcDbEntity
  8
0
100
AcDbBlockEnd
  0
BLOCK
  5
1302
330
12F8
100
AcDbEntity
  8
0
100
AcDbBlockBegin
  2
*D13
 70
     1
 10
0.0
 20
0.0
 30
0.0
  3
*D13
  1

  0
LINE
  5
1940
330
12F8
100
AcDbEntity
  8
0
100
AcDbLine
 10
376.1658092246819
 20
1066.414328215956
 30
0.0
 11
339.7698937306576
 21
1066.414328215956
 31
0.0
  0
LINE
  5
1941
330
12F8
100
AcDbEntity
  8
0
100
AcDbLine
 10
376.1658092246817
 20
816.4143282159566
 30
0.0
 11
339.7698937306576
 21
816.4143282159566
 31
0.0
  0
LINE
  5
1942
330
12F8
100
AcDbEntity
  8
0
100
AcDbLine
 10
342.7698937306576
 20
1057.414328215956
 30
0.0
 11
342.7698937306575
 21
825.4143282159565
 31
0.0
  0
INSERT
  5
1943
330
12F8
100
AcDbEntity
  8
0
100
AcDbBlockReference
  2
_OPEN30
 10
342.7698937306576
 20
1066.414328215956
 30
0.0
 41
9.0
 42
9.0
 43
9.0
 50
90.0
  0
INSERT
  5
1944
330
12F8
100
AcDbEntity
  8
0
100
AcDbBlockReference
  2
_OPEN30
 10
342.7698937306575
 20
816.4143282159566
 30
0.0
 41
9.0
 42
9.0
 43
9.0
 50
270.0
  0
MTEXT
  5
1945
330
12F8
100
AcDbEntity
  8
0
370
    50
100
AcDbMText
 10
333.0198937306574
 20
941.4143282159564
 30
0.0
 40
10.5
 41
0.0
 71
     5
 72
     1
  1
250（A0J2）
 11
0.0000000000000001
 21
1.0
 31
0.0
 73
     1
 44
1.0
1001
ACAD
1000
MTEXTBEGIN
1070
    73
1070
     1
1070
    44
1040
1.0
1070
    74
1070
     0
1000
MTEXTEND
  0
POINT
  5
1946
330
12F8
100
AcDbEntity
  8
Defpoints
 62
     0
100
AcDbPoint
 10
382.1658092246819
 20
1066.414328215956
 30
0.0
  0
POINT
  5
1947
330
12F8
100
AcDbEntity
  8
Defpoints
 62
     0
100
AcDbPoint
 10
382.1658092246817
 20
816.4143282159566
 30
0.0
  0
POINT
  5
1948
330
12F8
100
AcDbEntity
  8
Defpoints
 62
     0
100
AcDbPoint
 10
342.7698937306575
 20
816.4143282159566
 30
0.0
  0
ENDBLK
  5
1303
330
12F8
100
AcDbEntity
  8
0
100
AcDbBlockEnd
  0
BLOCK
  5
130F
330
1304
100
AcDbEntity
  8
0
100
AcDbBlockBegin
  2
*D14
 70
     1
 10
0.0
 20
0.0
 30
0.0
  3
*D14
  1

  0
LINE
  5
1949
330
1304
100
AcDbEntity
  8
0
100
AcDbLine
 10
376.1658092246819
 20
1066.414328215956
 30
0.0
 11
313.8565188614515
 21
1066.414328215956
 31
0.0
  0
LINE
  5
194A
330
1304
100
AcDbEntity
  8
0
100
AcDbLine
 10
385.1658092246818
 20
1128.414328215956
 30
0.0
 11
313.8565188614515
 21
1128.414328215956
 31
0.0
  0
LINE
  5
194B
330
1304
100
AcDbEntity
  8
0
100
AcDbLine
 10
316.8565188614516
 20
1119.414328215956
 30
0.0
 11
316.8565188614516
 21
1075.414328215956
 31
0.0
  0
LINE
  5
194C
330
1304
100
AcDbEntity
  8
0
100
AcDbLine
 10
316.8565188614516
 20
1066.414328215956
 30
0.0
 11
316.8565188614516
 21
953.9143282159558
 31
0.0
  0
INSERT
  5
194D
330
1304
100
AcDbEntity
  8
0
100
AcDbBlockReference
  2
_OPEN30
 10
316.8565188614516
 20
1128.414328215956
 30
0.0
 41
9.0
 42
9.0
 43
9.0
 50
90.0
  0
INSERT
  5
194E
330
1304
100
AcDbEntity
  8
0
100
AcDbBlockReference
  2
_OPEN30
 10
316.8565188614516
 20
1066.414328215956
 30
0.0
 41
9.0
 42
9.0
 43
9.0
 50
270.0
  0
MTEXT
  5
194F
330
1304
100
AcDbEntity
  8
0
370
    50
100
AcDbMText
 10
307.1065188614514
 20
1005.664328215956
 30
0.0
 40
10.5
 41
0.0
 71
     5
 72
     1
  1
62（増加寸法）
 11
0.0000000000000001
 21
1.0
 31
0.0
 73
     1
 44
1.0
1001
ACAD
1000
MTEXTBEGIN
1070
    73
1070
     1
1070
    44
1040
1.0
1070
    74
1070
     0
1000
MTEXTEND
  0
POINT
  5
1950
330
1304
100
AcDbEntity
  8
Defpoints
 62
     0
100
AcDbPoint
 10
382.1658092246819
 20
1066.414328215956
 30
0.0
  0
POINT
  5
1951
330
1304
100
AcDbEntity
  8
Defpoints
 62
     0
100
AcDbPoint
 10
391.1658092246818
 20
1128.414328215956
 30
0.0
  0
POINT
  5
1952
330
1304
100
AcDbEntity
  8
Defpoints
 62
     0
100
AcDbPoint
 10
316.8565188614516
 20
1128.414328215956
 30
0.0
  0
ENDBLK
  5
1310
330
1304
100
AcDbEntity
  8
0
100
AcDbBlockEnd
  0
BLOCK
  5
131C
330
1311
100
AcDbEntity
  8
0
100
AcDbBlockBegin
  2
*D15
 70
     1
 10
0.0
 20
0.0
 30
0.0
  3
*D15
  1

  0
LINE
  5
18D4
330
1311
100
AcDbEntity
  8
0
100
AcDbLine
 10
512.1658092246816
 20
1132.414328215956
 30
0.0
 11
512.1658092246816
 21
1166.494153258004
 31
0.0
  0
LINE
  5
18D5
330
1311
100
AcDbEntity
  8
0
100
AcDbLine
 10
539.6658092246816
 20
1132.414328215956
 30
0.0
 11
539.6658092246816
 21
1166.494153258004
 31
0.0
  0
LINE
  5
18D6
330
1311
100
AcDbEntity
  8
0
100
AcDbLine
 10
521.1658092246816
 20
1163.494153258004
 30
0.0
 11
530.6658092246816
 21
1163.494153258004
 31
0.0
  0
LINE
  5
18D7
330
1311
100
AcDbEntity
  8
0
100
AcDbLine
 10
539.6658092246816
 20
1163.494153258004
 30
0.0
 11
702.5658092246819
 21
1163.494153258004
 31
0.0
  0
INSERT
  5
18D8
330
1311
100
AcDbEntity
  8
0
100
AcDbBlockReference
  2
_OPEN30
 10
512.1658092246816
 20
1163.494153258004
 30
0.0
 41
9.0
 42
9.0
 43
9.0
 50
180.0
  0
INSERT
  5
18D9
330
1311
100
AcDbEntity
  8
0
100
AcDbBlockReference
  2
_OPEN30
 10
539.6658092246816
 20
1163.494153258004
 30
0.0
 41
9.0
 42
9.0
 43
9.0
  0
MTEXT
  5
18DA
330
1311
100
AcDbEntity
  8
0
370
    50
100
AcDbMText
 10
625.6158092246818
 20
1173.244153258004
 30
0.0
 40
10.5
 41
0.0
 71
     5
 72
     1
  1
28（配線必要スペース）
 73
     1
 44
1.0
1001
ACAD
1000
MTEXTBEGIN
1070
    73
1070
     1
1070
    44
1040
1.0
1070
    74
1070
     0
1000
MTEXTEND
  0
POINT
  5
18DB
330
1311
100
AcDbEntity
  8
Defpoints
 62
     0
100
AcDbPoint
 10
512.1658092246816
 20
1126.414328215955
 30
0.0
  0
POINT
  5
18DC
330
1311
100
AcDbEntity
  8
Defpoints
 62
     0
100
AcDbPoint
 10
539.6658092246816
 20
1126.414328215955
 30
0.0
  0
POINT
  5
18DD
330
1311
100
AcDbEntity
  8
Defpoints
 62
     0
100
AcDbPoint
 10
539.6658092246816
 20
1163.494153258004
 30
0.0
  0
ENDBLK
  5
131D
330
1311
100
AcDbEntity
  8
0
100
AcDbBlockEnd
  0
BLOCK
  5
1328
330
131E
100
AcDbEntity
  8
0
100
AcDbBlockBegin
  2
*D16
 70
     1
 10
0.0
 20
0.0
 30
0.0
  3
*D16
  1

  0
LINE
  5
18CB
330
131E
100
AcDbEntity
  8
0
100
AcDbLine
 10
539.6658092246816
 20
1132.414328215956
 30
0.0
 11
539.6658092246816
 21
1203.815066229462
 31
0.0
  0
LINE
  5
18CC
330
131E
100
AcDbEntity
  8
0
100
AcDbLine
 10
382.1658092246819
 20
1072.414328215956
 30
0.0
 11
382.1658092246819
 21
1203.815066229462
 31
0.0
  0
LINE
  5
18CD
330
131E
100
AcDbEntity
  8
0
100
AcDbLine
 10
530.6658092246816
 20
1200.815066229462
 30
0.0
 11
391.1658092246819
 21
1200.815066229462
 31
0.0
  0
INSERT
  5
18CE
330
131E
100
AcDbEntity
  8
0
100
AcDbBlockReference
  2
_OPEN30
 10
539.6658092246816
 20
1200.815066229462
 30
0.0
 41
9.0
 42
9.0
 43
9.0
  0
INSERT
  5
18CF
330
131E
100
AcDbEntity
  8
0
100
AcDbBlockReference
  2
_OPEN30
 10
382.1658092246819
 20
1200.815066229462
 30
0.0
 41
9.0
 42
9.0
 43
9.0
 50
180.0
  0
MTEXT
  5
18D0
330
131E
100
AcDbEntity
  8
0
370
    50
100
AcDbMText
 10
460.9158092246818
 20
1210.565066229462
 30
0.0
 40
10.5
 41
0.0
 71
     5
 72
     1
  1
157
 73
     1
 44
1.0
1001
ACAD
1000
MTEXTBEGIN
1070
    73
1070
     1
1070
    44
1040
1.0
1070
    74
1070
     0
1000
MTEXTEND
  0
POINT
  5
18D1
330
131E
100
AcDbEntity
  8
Defpoints
 62
     0
100
AcDbPoint
 10
539.6658092246816
 20
1126.414328215955
 30
0.0
  0
POINT
  5
18D2
330
131E
100
AcDbEntity
  8
Defpoints
 62
     0
100
AcDbPoint
 10
382.1658092246819
 20
1066.414328215956
 30
0.0
  0
POINT
  5
18D3
330
131E
100
AcDbEntity
  8
Defpoints
 62
     0
100
AcDbPoint
 10
382.1658092246819
 20
1200.815066229462
 30
0.0
  0
ENDBLK
  5
1329
330
131E
100
AcDbEntity
  8
0
100
AcDbBlockEnd
  0
BLOCK
  5
14D1
330
14C7
100
AcDbEntity
  8
0
100
AcDbBlockBegin
  2
*D17
 70
     1
 10
0.0
 20
0.0
 30
0.0
  3
*D17
  1

  0
LINE
  5
1936
330
14C7
100
AcDbEntity
  8
0
 62
     0
370
    -2
100
AcDbLine
 10
383.2908092246818
 20
1128.414328215956
 30
0.0
 11
339.0198937306576
 21
1128.414328215956
 31
0.0
  0
LINE
  5
1937
330
14C7
100
AcDbEntity
  8
0
 62
     0
370
    -2
100
AcDbLine
 10
386.3101759412398
 20
1157.814328215957
 30
0.0
 11
339.0198937306577
 21
1157.814328215957
 31
0.0
  0
LINE
  5
1938
330
14C7
100
AcDbEntity
  8
0
 62
     0
370
    -2
100
AcDbLine
 10
342.7698937306576
 20
1135.914328215956
 30
0.0
 11
342.7698937306576
 21
1150.314328215957
 31
0.0
  0
LINE
  5
1939
330
14C7
100
AcDbEntity
  8
0
 62
     0
370
    -2
100
AcDbLine
 10
342.7698937306577
 20
1157.814328215957
 30
0.0
 11
342.7698937306577
 21
1253.064328215957
 31
0.0
  0
INSERT
  5
193A
330
14C7
100
AcDbEntity
  8
0
 62
     0
370
    -2
100
AcDbBlockReference
  2
_OPEN30
 10
342.7698937306576
 20
1128.414328215956
 30
0.0
 41
7.5
 42
7.5
 43
7.5
 50
270.0
  0
INSERT
  5
193B
330
14C7
100
AcDbEntity
  8
0
 62
     0
370
    -2
100
AcDbBlockReference
  2
_OPEN30
 10
342.7698937306577
 20
1157.814328215957
 30
0.0
 41
7.5
 42
7.5
 43
7.5
 50
90.0
  0
MTEXT
  5
193C
330
14C7
100
AcDbEntity
  8
0
 62
     0
370
    50
100
AcDbMText
 10
333.0198937306574
 20
1209.189328215957
 30
0.0
 40
10.5
 41
0.0
 71
     5
 72
     1
  1
30　　　　　
 11
0.0000000000000001
 21
1.0
 31
0.0
 73
     1
 44
1.0
1001
ACAD
1000
MTEXTBEGIN
1070
    73
1070
     1
1070
    44
1040
1.0
1070
    74
1070
     0
1000
MTEXTEND
  0
POINT
  5
193D
330
14C7
100
AcDbEntity
  8
Defpoints
 62
     0
100
AcDbPoint
 10
385.1658092246818
 20
1128.414328215956
 30
0.0
  0
POINT
  5
193E
330
14C7
100
AcDbEntity
  8
Defpoints
 62
     0
100
AcDbPoint
 10
388.1851759412398
 20
1157.814328215957
 30
0.0
  0
POINT
  5
193F
330
14C7
100
AcDbEntity
  8
Defpoints
 62
     0
100
AcDbPoint
 10
342.7698937306577
 20
1157.814328215957
 30
0.0
  0
ENDBLK
  5
14D2
330
14C7
100
AcDbEntity
  8
0
100
AcDbBlockEnd
  0
BLOCK
  5
1899
330
188F
100
AcDbEntity
  8
0
100
AcDbBlockBegin
  2
*D18
 70
     1
 10
0.0
 20
0.0
 30
0.0
  3
*D18
  1

  0
LINE
  5
18B8
330
188F
100
AcDbEntity
  8
0
 62
     0
370
    -2
100
AcDbLine
 10
766.7823409261984
 20
1128.414328215956
 30
0.0
 11
851.0844452494971
 21
1128.414328215956
 31
0.0
  0
LINE
  5
18B9
330
188F
100
AcDbEntity
  8
0
 62
     0
370
    -2
100
AcDbLine
 10
764.7316853693263
 20
816.4143282159566
 30
0.0
 11
851.0844452494971
 21
816.4143282159566
 31
0.0
  0
LINE
  5
18BA
330
188F
100
AcDbEntity
  8
0
 62
     0
370
    -2
100
AcDbLine
 10
849.834445249497
 20
1125.914328215956
 30
0.0
 11
849.834445249497
 21
818.9143282159564
 31
0.0
  0
SOLID
  5
18BB
330
188F
100
AcDbEntity
  8
0
 62
     0
100
AcDbTrace
 10
849.4177785828304
 20
1125.914328215956
 30
0.0
 11
850.2511119161638
 21
1125.914328215956
 31
0.0
 12
849.834445249497
 22
1128.414328215956
 32
0.0
 13
849.834445249497
 23
1128.414328215956
 33
0.0
  0
SOLID
  5
18BC
330
188F
100
AcDbEntity
  8
0
 62
     0
100
AcDbTrace
 10
849.4177785828304
 20
818.9143282159564
 30
0.0
 11
850.2511119161638
 21
818.9143282159564
 31
0.0
 12
849.834445249497
 22
816.4143282159566
 32
0.0
 13
849.834445249497
 23
816.4143282159566
 33
0.0
  0
MTEXT
  5
18BD
330
188F
100
AcDbEntity
  8
0
 62
     0
100
AcDbMText
 10
847.9594452494971
 20
972.4143282159568
 30
0.0
 40
2.5
 41
0.0
 71
     5
 72
     1
  1
312
 11
0.0000000000000001
 21
1.0
 31
0.0
 73
     1
 44
1.0
1001
ACAD
1000
MTEXTBEGIN
1070
    73
1070
     1
1070
    44
1040
1.0
1070
    74
1070
     0
1000
MTEXTEND
  0
POINT
  5
18BE
330
188F
100
AcDbEntity
  8
Defpoints
 62
     0
100
AcDbPoint
 10
766.1573409261984
 20
1128.414328215956
 30
0.0
  0
POINT
  5
18BF
330
188F
100
AcDbEntity
  8
Defpoints
 62
     0
100
AcDbPoint
 10
764.1066853693263
 20
816.4143282159566
 30
0.0
  0
POINT
  5
18C0
330
188F
100
AcDbEntity
  8
Defpoints
 62
     0
100
AcDbPoint
 10
849.834445249497
 20
816.4143282159566
 30
0.0
  0
ENDBLK
  5
189A
330
188F
100
AcDbEntity
  8
0
100
AcDbBlockEnd
  0
BLOCK
  5
197A
330
1979
100
AcDbEntity
  8
0
100
AcDbBlockBegin
  2
*D19
 70
     1
 10
0.0
 20
0.0
 30
0.0
  3
*D19
  1

  0
LINE
  5
197B
330
1979
100
AcDbEntity
  8
0
100
AcDbLine
 10
538.3437560617911
 20
510.511216746146
 30
0.0
 11
538.3437560617911
 21
551.5466573688796
 31
0.0
  0
LINE
  5
197C
330
1979
100
AcDbEntity
  8
0
100
AcDbLine
 10
626.3437560617911
 20
442.5112167461461
 30
0.0
 11
626.3437560617911
 21
551.5466573688796
 31
0.0
  0
LINE
  5
197D
330
1979
100
AcDbEntity
  8
0
100
AcDbLine
 10
547.3437560617911
 20
548.5466573688794
 30
0.0
 11
617.3437560617911
 21
548.5466573688794
 31
0.0
  0
INSERT
  5
197E
330
1979
100
AcDbEntity
  8
0
100
AcDbBlockReference
  2
_OPEN30
 10
538.3437560617911
 20
548.5466573688794
 30
0.0
 41
9.0
 42
9.0
 43
9.0
 50
180.0
  0
INSERT
  5
197F
330
1979
100
AcDbEntity
  8
0
100
AcDbBlockReference
  2
_OPEN30
 10
626.3437560617911
 20
548.5466573688794
 30
0.0
 41
9.0
 42
9.0
 43
9.0
  0
MTEXT
  5
1980
330
1979
100
AcDbEntity
  8
0
370
    50
100
AcDbMText
 10
582.3437560617911
 20
558.2966573688794
 30
0.0
 40
10.5
 41
0.0
 71
     5
 72
     1
  1
88
 73
     1
 44
1.0
1001
ACAD
1000
MTEXTBEGIN
1070
    73
1070
     1
1070
    44
1040
1.0
1070
    74
1070
     0
1000
MTEXTEND
  0
POINT
  5
1981
330
1979
100
AcDbEntity
  8
Defpoints
 62
     0
100
AcDbPoint
 10
538.3437560617911
 20
504.5112167461461
 30
0.0
  0
POINT
  5
1982
330
1979
100
AcDbEntity
  8
Defpoints
 62
     0
100
AcDbPoint
 10
626.3437560617911
 20
436.511216746146
 30
0.0
  0
POINT
  5
1983
330
1979
100
AcDbEntity
  8
Defpoints
 62
     0
100
AcDbPoint
 10
626.3437560617911
 20
548.5466573688794
 30
0.0
  0
ENDBLK
  5
1984
330
1979
100
AcDbEntity
  8
0
100
AcDbBlockEnd
  0
BLOCK
  5
1986
330
1985
100
AcDbEntity
  8
0
100
AcDbBlockBegin
  2
*D20
 70
     1
 10
0.0
 20
0.0
 30
0.0
  3
*D20
  1

  0
LINE
  5
1987
330
1985
100
AcDbEntity
  8
0
100
AcDbLine
 10
685.1345626503632
 20
250.5112167461462
 30
0.0
 11
685.1345626503632
 21
175.4229579641056
 31
0.0
  0
LINE
  5
1988
330
1985
100
AcDbEntity
  8
0
100
AcDbLine
 10
875.1345626503633
 20
250.511216746146
 30
0.0
 11
875.1345626503633
 21
175.4229579641056
 31
0.0
  0
LINE
  5
1989
330
1985
100
AcDbEntity
  8
0
100
AcDbLine
 10
694.1345626503633
 20
178.4229579641056
 30
0.0
 11
866.1345626503631
 21
178.4229579641056
 31
0.0
  0
INSERT
  5
198A
330
1985
100
AcDbEntity
  8
0
100
AcDbBlockReference
  2
_OPEN30
 10
685.1345626503632
 20
178.4229579641056
 30
0.0
 41
9.0
 42
9.0
 43
9.0
 50
180.0
  0
INSERT
  5
198B
330
1985
100
AcDbEntity
  8
0
100
AcDbBlockReference
  2
_OPEN30
 10
875.1345626503633
 20
178.4229579641056
 30
0.0
 41
9.0
 42
9.0
 43
9.0
  0
MTEXT
  5
198C
330
1985
100
AcDbEntity
  8
0
370
    50
100
AcDbMText
 10
780.1345626503633
 20
188.1729579641057
 30
0.0
 40
10.5
 41
0.0
 71
     5
 72
     1
  1
190
 73
     1
 44
1.0
1001
ACAD
1000
MTEXTBEGIN
1070
    73
1070
     1
1070
    44
1040
1.0
1070
    74
1070
     0
1000
MTEXTEND
  0
POINT
  5
198D
330
1985
100
AcDbEntity
  8
Defpoints
 62
     0
100
AcDbPoint
 10
685.1345626503632
 20
256.5112167461462
 30
0.0
  0
POINT
  5
198E
330
1985
100
AcDbEntity
  8
Defpoints
 62
     0
100
AcDbPoint
 10
875.1345626503633
 20
256.511216746146
 30
0.0
  0
POINT
  5
198F
330
1985
100
AcDbEntity
  8
Defpoints
 62
     0
100
AcDbPoint
 10
875.1345626503633
 20
178.4229579641056
 30
0.0
  0
ENDBLK
  5
1990
330
1985
100
AcDbEntity
  8
0
100
AcDbBlockEnd
  0
BLOCK
  5
1992
330
1991
100
AcDbEntity
  8
0
100
AcDbBlockBegin
  2
*D21
 70
     1
 10
0.0
 20
0.0
 30
0.0
  3
*D21
  1

  0
LINE
  5
1993
330
1991
100
AcDbEntity
  8
0
100
AcDbLine
 10
879.1345626503634
 20
254.511216746146
 30
0.0
 11
919.717131149938
 21
254.511216746146
 31
0.0
  0
LINE
  5
1994
330
1991
100
AcDbEntity
  8
0
100
AcDbLine
 10
879.1345626503634
 20
504.511216746146
 30
0.0
 11
919.717131149938
 21
504.511216746146
 31
0.0
  0
LINE
  5
1995
330
1991
100
AcDbEntity
  8
0
100
AcDbLine
 10
916.717131149938
 20
263.5112167461461
 30
0.0
 11
916.717131149938
 21
495.5112167461456
 31
0.0
  0
INSERT
  5
1996
330
1991
100
AcDbEntity
  8
0
100
AcDbBlockReference
  2
_OPEN30
 10
916.7171311499375
 20
254.511216746146
 30
0.0
 41
9.0
 42
9.0
 43
9.0
 50
270.0
  0
INSERT
  5
1997
330
1991
100
AcDbEntity
  8
0
100
AcDbBlockReference
  2
_OPEN30
 10
916.717131149938
 20
504.511216746146
 30
0.0
 41
9.0
 42
9.0
 43
9.0
 50
90.0
  0
MTEXT
  5
1998
330
1991
100
AcDbEntity
  8
0
370
    50
100
AcDbMText
 10
906.9671311499375
 20
379.5112167461462
 30
0.0
 40
10.5
 41
0.0
 71
     5
 72
     1
  1
250
 11
0.0000000000000001
 21
1.0
 31
0.0
 73
     1
 44
1.0
1001
ACAD
1000
MTEXTBEGIN
1070
    73
1070
     1
1070
    44
1040
1.0
1070
    74
1070
     0
1000
MTEXTEND
  0
POINT
  5
1999
330
1991
100
AcDbEntity
  8
Defpoints
 62
     0
100
AcDbPoint
 10
873.1345626503633
 20
254.511216746146
 30
0.0
  0
POINT
  5
199A
330
1991
100
AcDbEntity
  8
Defpoints
 62
     0
100
AcDbPoint
 10
873.1345626503633
 20
504.511216746146
 30
0.0
  0
POINT
  5
199B
330
1991
100
AcDbEntity
  8
Defpoints
 62
     0
100
AcDbPoint
 10
916.717131149938
 20
504.511216746146
 30
0.0
  0
ENDBLK
  5
199C
330
1991
100
AcDbEntity
  8
0
100
AcDbBlockEnd
  0
BLOCK
  5
199E
330
199D
100
AcDbEntity
  8
0
100
AcDbBlockBegin
  2
*D22
 70
     1
 10
0.0
 20
0.0
 30
0.0
  3
*D22
  1

  0
LINE
  5
199F
330
199D
100
AcDbEntity
  8
0
100
AcDbLine
 10
626.3437560617911
 20
442.5112167461461
 30
0.0
 11
626.3437560617911
 21
531.5112167561464
 31
0.0
  0
LINE
  5
19A0
330
199D
100
AcDbEntity
  8
0
100
AcDbLine
 10
544.3437560617911
 20
508.9112167461458
 30
0.0
 11
544.3437560617911
 21
531.5112167561464
 31
0.0
  0
LINE
  5
19A1
330
199D
100
AcDbEntity
  8
0
100
AcDbLine
 10
617.3437560617911
 20
528.5112167561464
 30
0.0
 11
553.3437560617911
 21
528.5112167561464
 31
0.0
  0
INSERT
  5
19A2
330
199D
100
AcDbEntity
  8
0
100
AcDbBlockReference
  2
_OPEN30
 10
626.3437560617911
 20
528.5112167561464
 30
0.0
 41
9.0
 42
9.0
 43
9.0
  0
INSERT
  5
19A3
330
199D
100
AcDbEntity
  8
0
100
AcDbBlockReference
  2
_OPEN30
 10
544.3437560617911
 20
528.5112167561464
 30
0.0
 41
9.0
 42
9.0
 43
9.0
 50
180.0
  0
MTEXT
  5
19A4
330
199D
100
AcDbEntity
  8
0
370
    50
100
AcDbMText
 10
585.3437560617911
 20
538.2612167561464
 30
0.0
 40
10.5
 41
0.0
 71
     5
 72
     1
  1
82
 73
     1
 44
1.0
1001
ACAD
1000
MTEXTBEGIN
1070
    73
1070
     1
1070
    44
1040
1.0
1070
    74
1070
     0
1000
MTEXTEND
  0
POINT
  5
19A5
330
199D
100
AcDbEntity
  8
Defpoints
 62
     0
100
AcDbPoint
 10
626.3437560617911
 20
436.511216746146
 30
0.0
  0
POINT
  5
19A6
330
199D
100
AcDbEntity
  8
Defpoints
 62
     0
100
AcDbPoint
 10
544.3437560617911
 20
502.9112167461461
 30
0.0
  0
POINT
  5
19A7
330
199D
100
AcDbEntity
  8
Defpoints
 62
     0
100
AcDbPoint
 10
544.3437560617911
 20
528.5112167561464
 30
0.0
  0
ENDBLK
  5
19A8
330
199D
100
AcDbEntity
  8
0
100
AcDbBlockEnd
  0
BLOCK
  5
19AA
330
19A9
100
AcDbEntity
  8
0
100
AcDbBlockBegin
  2
*D23
 70
     1
 10
0.0
 20
0.0
 30
0.0
  3
*D23
  1

  0
LINE
  5
19AB
330
19A9
100
AcDbEntity
  8
0
100
AcDbLine
 10
544.3437560617911
 20
508.9112167461458
 30
0.0
 11
544.3437560617911
 21
531.5112167561464
 31
0.0
  0
LINE
  5
19AC
330
19A9
100
AcDbEntity
  8
0
100
AcDbLine
 10
538.3437560617911
 20
510.511216746146
 30
0.0
 11
538.3437560617911
 21
531.5112167561464
 31
0.0
  0
LINE
  5
19AD
330
19A9
100
AcDbEntity
  8
0
100
AcDbLine
 10
553.3437560617911
 20
528.5112167561464
 30
0.0
 11
562.3437560617912
 21
528.5112167561464
 31
0.0
  0
LINE
  5
19AE
330
19A9
100
AcDbEntity
  8
0
100
AcDbLine
 10
529.3437560617912
 20
528.5112167561464
 30
0.0
 11
504.3437560617912
 21
528.5112167561464
 31
0.0
  0
LINE
  5
19AF
330
19A9
100
AcDbEntity
  8
0
100
AcDbLine
 10
544.3437560617911
 20
528.5112167561464
 30
0.0
 11
538.3437560617911
 21
528.5112167561464
 31
0.0
  0
INSERT
  5
19B0
330
19A9
100
AcDbEntity
  8
0
100
AcDbBlockReference
  2
_OPEN30
 10
544.3437560617911
 20
528.5112167561464
 30
0.0
 41
9.0
 42
9.0
 43
9.0
 50
180.0
  0
INSERT
  5
19B1
330
19A9
100
AcDbEntity
  8
0
100
AcDbBlockReference
  2
_OPEN30
 10
538.3437560617911
 20
528.5112167561464
 30
0.0
 41
9.0
 42
9.0
 43
9.0
  0
MTEXT
  5
19B2
330
19A9
100
AcDbEntity
  8
0
370
    50
100
AcDbMText
 10
512.3437560617912
 20
538.2612167561464
 30
0.0
 40
10.5
 41
0.0
 71
     5
 72
     1
  1
6
 73
     1
 44
1.0
1001
ACAD
1000
MTEXTBEGIN
1070
    73
1070
     1
1070
    44
1040
1.0
1070
    74
1070
     0
1000
MTEXTEND
  0
POINT
  5
19B3
330
19A9
100
AcDbEntity
  8
Defpoints
 62
     0
100
AcDbPoint
 10
544.3437560617911
 20
502.9112167461461
 30
0.0
  0
POINT
  5
19B4
330
19A9
100
AcDbEntity
  8
Defpoints
 62
     0
100
AcDbPoint
 10
538.3437560617911
 20
504.5112167461461
 30
0.0
  0
POINT
  5
19B5
330
19A9
100
AcDbEntity
  8
Defpoints
 62
     0
100
AcDbPoint
 10
538.3437560617911
 20
528.5112167561464
 30
0.0
  0
ENDBLK
  5
19B6
330
19A9
100
AcDbEntity
  8
0
100
AcDbBlockEnd
  0
BLOCK
  5
19B8
330
19B7
100
AcDbEntity
  8
0
100
AcDbBlockBegin
  2
*D24
 70
     1
 10
0.0
 20
0.0
 30
0.0
  3
*D24
  1

  0
LINE
  5
19B9
330
19B7
100
AcDbEntity
  8
0
100
AcDbLine
 10
661.343756061791
 20
248.5112167461462
 30
0.0
 11
661.343756061791
 21
200.9610683424617
 31
0.0
  0
LINE
  5
19BA
330
19B7
100
AcDbEntity
  8
0
100
AcDbLine
 10
538.3437560617911
 20
248.5112167461462
 30
0.0
 11
538.3437560617911
 21
200.9610683424617
 31
0.0
  0
LINE
  5
19BB
330
19B7
100
AcDbEntity
  8
0
100
AcDbLine
 10
652.343756061791
 20
203.9610683424617
 30
0.0
 11
547.343756061791
 21
203.9610683424617
 31
0.0
  0
INSERT
  5
19BC
330
19B7
100
AcDbEntity
  8
0
100
AcDbBlockReference
  2
_OPEN30
 10
661.343756061791
 20
203.9610683424617
 30
0.0
 41
9.0
 42
9.0
 43
9.0
  0
INSERT
  5
19BD
330
19B7
100
AcDbEntity
  8
0
100
AcDbBlockReference
  2
_OPEN30
 10
538.3437560617911
 20
203.9610683424617
 30
0.0
 41
9.0
 42
9.0
 43
9.0
 50
180.0
  0
MTEXT
  5
19BE
330
19B7
100
AcDbEntity
  8
0
370
    50
100
AcDbMText
 10
599.843756061791
 20
213.7110683424617
 30
0.0
 40
10.5
 41
0.0
 71
     5
 72
     1
  1
123（A0J2）
 73
     1
 44
1.0
1001
ACAD
1000
MTEXTBEGIN
1070
    73
1070
     1
1070
    44
1040
1.0
1070
    74
1070
     0
1000
MTEXTEND
  0
POINT
  5
19BF
330
19B7
100
AcDbEntity
  8
Defpoints
 62
     0
100
AcDbPoint
 10
661.343756061791
 20
254.5112167461462
 30
0.0
  0
POINT
  5
19C0
330
19B7
100
AcDbEntity
  8
Defpoints
 62
     0
100
AcDbPoint
 10
538.3437560617911
 20
254.5112167461462
 30
0.0
  0
POINT
  5
19C1
330
19B7
100
AcDbEntity
  8
Defpoints
 62
     0
100
AcDbPoint
 10
538.3437560617911
 20
203.9610683424617
 30
0.0
  0
ENDBLK
  5
19C2
330
19B7
100
AcDbEntity
  8
0
100
AcDbBlockEnd
  0
BLOCK
  5
19C4
330
19C3
100
AcDbEntity
  8
0
100
AcDbBlockBegin
  2
*D25
 70
     1
 10
0.0
 20
0.0
 30
0.0
  3
*D25
  1

  0
LINE
  5
19C5
330
19C3
100
AcDbEntity
  8
0
100
AcDbLine
 10
532.343756061791
 20
254.5112167461462
 30
0.0
 11
503.0307878562643
 21
254.5112167461462
 31
0.0
  0
LINE
  5
19C6
330
19C3
100
AcDbEntity
  8
0
100
AcDbLine
 10
532.3437560617911
 20
504.5112167461461
 30
0.0
 11
503.0307878562643
 21
504.5112167461461
 31
0.0
  0
LINE
  5
19C7
330
19C3
100
AcDbEntity
  8
0
100
AcDbLine
 10
506.0307878562643
 20
263.5112167461461
 30
0.0
 11
506.0307878562643
 21
495.5112167461461
 31
0.0
  0
INSERT
  5
19C8
330
19C3
100
AcDbEntity
  8
0
100
AcDbBlockReference
  2
_OPEN30
 10
506.0307878562643
 20
254.5112167461462
 30
0.0
 41
9.0
 42
9.0
 43
9.0
 50
270.0
  0
INSERT
  5
19C9
330
19C3
100
AcDbEntity
  8
0
100
AcDbBlockReference
  2
_OPEN30
 10
506.0307878562643
 20
504.5112167461461
 30
0.0
 41
9.0
 42
9.0
 43
9.0
 50
90.0
  0
MTEXT
  5
19CA
330
19C3
100
AcDbEntity
  8
0
370
    50
100
AcDbMText
 10
496.2807878562641
 20
379.5112167461462
 30
0.0
 40
10.5
 41
0.0
 71
     5
 72
     1
  1
250（A0J2）
 11
0.0000000000000001
 21
1.0
 31
0.0
 73
     1
 44
1.0
1001
ACAD
1000
MTEXTBEGIN
1070
    73
1070
     1
1070
    44
1040
1.0
1070
    74
1070
     0
1000
MTEXTEND
  0
POINT
  5
19CB
330
19C3
100
AcDbEntity
  8
Defpoints
 62
     0
100
AcDbPoint
 10
538.3437560617911
 20
254.5112167461462
 30
0.0
  0
POINT
  5
19CC
330
19C3
100
AcDbEntity
  8
Defpoints
 62
     0
100
AcDbPoint
 10
538.3437560617911
 20
504.5112167461461
 30
0.0
  0
POINT
  5
19CD
330
19C3
100
AcDbEntity
  8
Defpoints
 62
     0
100
AcDbPoint
 10
506.0307878562643
 20
504.5112167461461
 30
0.0
  0
ENDBLK
  5
19CE
330
19C3
100
AcDbEntity
  8
0
100
AcDbBlockEnd
  0
BLOCK
  5
19D0
330
19CF
100
AcDbEntity
  8
0
100
AcDbBlockBegin
  2
*D26
 70
     1
 10
0.0
 20
0.0
 30
0.0
  3
*D26
  1

  0
LINE
  5
19D1
330
19CF
100
AcDbEntity
  8
0
100
AcDbLine
 10
870.1345626503634
 20
251.901216746146
 30
0.0
 11
870.1345626503634
 21
197.745629004399
 31
0.0
  0
LINE
  5
19D2
330
19CF
100
AcDbEntity
  8
0
100
AcDbLine
 10
690.1345626503633
 20
251.9012167461461
 30
0.0
 11
690.1345626503633
 21
197.745629004399
 31
0.0
  0
LINE
  5
19D3
330
19CF
100
AcDbEntity
  8
0
100
AcDbLine
 10
861.1345626503632
 20
200.745629004399
 30
0.0
 11
699.1345626503633
 21
200.745629004399
 31
0.0
  0
INSERT
  5
19D4
330
19CF
100
AcDbEntity
  8
0
100
AcDbBlockReference
  2
_OPEN30
 10
870.1345626503634
 20
200.745629004399
 30
0.0
 41
9.0
 42
9.0
 43
9.0
  0
INSERT
  5
19D5
330
19CF
100
AcDbEntity
  8
0
100
AcDbBlockReference
  2
_OPEN30
 10
690.1345626503633
 20
200.745629004399
 30
0.0
 41
9.0
 42
9.0
 43
9.0
 50
180.0
  0
MTEXT
  5
19D6
330
19CF
100
AcDbEntity
  8
0
370
    50
100
AcDbMText
 10
780.1345626503633
 20
210.495629004399
 30
0.0
 40
10.5
 41
0.0
 71
     5
 72
     1
  1
180（取付ピッチ）
 73
     1
 44
1.0
1001
ACAD
1000
MTEXTBEGIN
1070
    73
1070
     1
1070
    44
1040
1.0
1070
    74
1070
     0
1000
MTEXTEND
  0
POINT
  5
19D7
330
19CF
100
AcDbEntity
  8
Defpoints
 62
     0
100
AcDbPoint
 10
870.1345626503634
 20
257.901216746146
 30
0.0
  0
POINT
  5
19D8
330
19CF
100
AcDbEntity
  8
Defpoints
 62
     0
100
AcDbPoint
 10
690.1345626503633
 20
257.9012167461461
 30
0.0
  0
POINT
  5
19D9
330
19CF
100
AcDbEntity
  8
Defpoints
 62
     0
100
AcDbPoint
 10
690.1345626503633
 20
200.745629004399
 30
0.0
  0
ENDBLK
  5
19DA
330
19CF
100
AcDbEntity
  8
0
100
AcDbBlockEnd
  0
BLOCK
  5
19DC
330
19DB
100
AcDbEntity
  8
0
100
AcDbBlockBegin
  2
*D27
 70
     1
 10
0.0
 20
0.0
 30
0.0
  3
*D27
  1

  0
LINE
  5
19DD
330
19DB
100
AcDbEntity
  8
0
100
AcDbLine
 10
878.7445626503632
 20
498.511216746146
 30
0.0
 11
899.8953204361283
 21
498.5112167461458
 31
0.0
  0
LINE
  5
19DE
330
19DB
100
AcDbEntity
  8
0
100
AcDbLine
 10
878.7445626503631
 20
260.511216746146
 30
0.0
 11
899.8953204361283
 21
260.511216746146
 31
0.0
  0
LINE
  5
19DF
330
19DB
100
AcDbEntity
  8
0
100
AcDbLine
 10
896.8953204361282
 20
489.5112167461459
 30
0.0
 11
896.8953204361282
 21
269.511216746146
 31
0.0
  0
INSERT
  5
19E0
330
19DB
100
AcDbEntity
  8
0
100
AcDbBlockReference
  2
_OPEN30
 10
896.8953204361282
 20
498.5112167461458
 30
0.0
 41
9.0
 42
9.0
 43
9.0
 50
90.0
  0
INSERT
  5
19E1
330
19DB
100
AcDbEntity
  8
0
100
AcDbBlockReference
  2
_OPEN30
 10
896.8953204361282
 20
260.511216746146
 30
0.0
 41
9.0
 42
9.0
 43
9.0
 50
270.0
  0
MTEXT
  5
19E2
330
19DB
100
AcDbEntity
  8
0
370
    50
100
AcDbMText
 10
887.1453204361282
 20
379.5112167461462
 30
0.0
 40
10.5
 41
0.0
 71
     5
 72
     1
  1
238（取付ピッチ）
 11
0.0000000000000001
 21
1.0
 31
0.0
 73
     1
 44
1.0
1001
ACAD
1000
MTEXTBEGIN
1070
    73
1070
     1
1070
    44
1040
1.0
1070
    74
1070
     0
1000
MTEXTEND
  0
POINT
  5
19E3
330
19DB
100
AcDbEntity
  8
Defpoints
 62
     0
100
AcDbPoint
 10
872.7445626503632
 20
498.511216746146
 30
0.0
  0
POINT
  5
19E4
330
19DB
100
AcDbEntity
  8
Defpoints
 62
     0
100
AcDbPoint
 10
872.7445626503632
 20
260.511216746146
 30
0.0
  0
POINT
  5
19E5
330
19DB
100
AcDbEntity
  8
Defpoints
 62
     0
100
AcDbPoint
 10
896.8953204361282
 20
260.511216746146
 30
0.0
  0
ENDBLK
  5
19E6
330
19DB
100
AcDbEntity
  8
0
100
AcDbBlockEnd
  0
BLOCK
  5
19E8
330
19E7
100
AcDbEntity
  8
0
100
AcDbBlockBegin
  2
*D28
 70
     1
 10
0.0
 20
0.0
 30
0.0
  3
*D28
  1

  0
LINE
  5
19E9
330
19E7
100
AcDbEntity
  8
0
 62
     0
370
    -2
100
AcDbLine
 10
538.3437560617911
 20
512.386216746146
 30
0.0
 11
538.3437560617911
 21
573.1639664699604
 31
0.0
  0
LINE
  5
19EA
330
19E7
100
AcDbEntity
  8
0
 62
     0
370
    -2
100
AcDbLine
 10
656.343756061791
 20
297.3862167461462
 30
0.0
 11
656.343756061791
 21
573.1639664699604
 31
0.0
  0
LINE
  5
19EB
330
19E7
100
AcDbEntity
  8
0
 62
     0
370
    -2
100
AcDbLine
 10
545.8437560617912
 20
569.4139664699604
 30
0.0
 11
648.843756061791
 21
569.4139664699604
 31
0.0
  0
INSERT
  5
19EC
330
19E7
100
AcDbEntity
  8
0
 62
     0
370
    -2
100
AcDbBlockReference
  2
_OPEN30
 10
538.3437560617911
 20
569.4139664699604
 30
0.0
 41
7.5
 42
7.5
 43
7.5
 50
180.0
  0
INSERT
  5
19ED
330
19E7
100
AcDbEntity
  8
0
 62
     0
370
    -2
100
AcDbBlockReference
  2
_OPEN30
 10
656.343756061791
 20
569.4139664699604
 30
0.0
 41
7.5
 42
7.5
 43
7.5
  0
MTEXT
  5
19EE
330
19E7
100
AcDbEntity
  8
0
 62
     0
370
    50
100
AcDbMText
 10
597.343756061791
 20
579.1639664699604
 30
0.0
 40
10.5
 41
0.0
 71
     5
 72
     1
  1
118
 73
     1
 44
1.0
1001
ACAD
1000
MTEXTBEGIN
1070
    73
1070
     1
1070
    44
1040
1.0
1070
    74
1070
     0
1000
MTEXTEND
  0
POINT
  5
19EF
330
19E7
100
AcDbEntity
  8
Defpoints
 62
     0
100
AcDbPoint
 10
538.3437560617911
 20
510.511216746146
 30
0.0
  0
POINT
  5
19F0
330
19E7
100
AcDbEntity
  8
Defpoints
 62
     0
100
AcDbPoint
 10
656.343756061791
 20
295.5112167461461
 30
0.0
  0
POINT
  5
19F1
330
19E7
100
AcDbEntity
  8
Defpoints
 62
     0
100
AcDbPoint
 10
656.343756061791
 20
569.4139664699604
 30
0.0
  0
ENDBLK
  5
19F2
330
19E7
100
AcDbEntity
  8
0
100
AcDbBlockEnd
  0
BLOCK
  5
19F4
330
19F3
100
AcDbEntity
  8
0
100
AcDbBlockBegin
  2
*D29
 70
     1
 10
0.0
 20
0.0
 30
0.0
  3
*D29
  1

  0
LINE
  5
19F5
330
19F3
100
AcDbEntity
  8
0
 62
     0
370
    -2
100
AcDbLine
 10
856.3845626503633
 20
262.6362167461461
 30
0.0
 11
856.3845626503633
 21
222.1951647090726
 31
0.0
  0
LINE
  5
19F6
330
19F3
100
AcDbEntity
  8
0
 62
     0
370
    -2
100
AcDbLine
 10
724.3845626503634
 20
262.6362167461461
 30
0.0
 11
724.3845626503634
 21
222.1951647090726
 31
0.0
  0
LINE
  5
19F7
330
19F3
100
AcDbEntity
  8
0
 62
     0
370
    -2
100
AcDbLine
 10
845.8845626503633
 20
225.9451647090726
 30
0.0
 11
734.8845626503633
 21
225.9451647090726
 31
0.0
  0
INSERT
  5
19F8
330
19F3
100
AcDbEntity
  8
0
 62
     0
370
    -2
100
AcDbBlockReference
  2
_OPEN30
 10
856.3845626503633
 20
225.9451647090726
 30
0.0
 41
10.5
 42
10.5
 43
10.5
  0
INSERT
  5
19F9
330
19F3
100
AcDbEntity
  8
0
 62
     0
370
    -2
100
AcDbBlockReference
  2
_OPEN30
 10
724.3845626503634
 20
225.9451647090726
 30
0.0
 41
10.5
 42
10.5
 43
10.5
 50
180.0
  0
MTEXT
  5
19FA
330
19F3
100
AcDbEntity
  8
0
 62
     0
100
AcDbMText
 10
790.3845626503633
 20
234.1951647090726
 30
0.0
 40
10.5
 41
0.0
 71
     5
 72
     1
  1
132
 73
     1
 44
1.0
1001
ACAD
1000
MTEXTBEGIN
1070
    73
1070
     1
1070
    44
1040
1.0
1070
    74
1070
     0
1000
MTEXTEND
  0
POINT
  5
19FB
330
19F3
100
AcDbEntity
  8
Defpoints
 62
     0
100
AcDbPoint
 10
856.3845626503633
 20
264.511216746146
 30
0.0
  0
POINT
  5
19FC
330
19F3
100
AcDbEntity
  8
Defpoints
 62
     0
100
AcDbPoint
 10
724.3845626503634
 20
264.5112167461462
 30
0.0
  0
POINT
  5
19FD
330
19F3
100
AcDbEntity
  8
Defpoints
 62
     0
100
AcDbPoint
 10
724.3845626503634
 20
225.9451647090726
 30
0.0
  0
ENDBLK
  5
19FE
330
19F3
100
AcDbEntity
  8
0
100
AcDbBlockEnd
  0
BLOCK
  5
1FEB
330
1FE1
100
AcDbEntity
  8
0
100
AcDbBlockBegin
  2
*D30
 70
     1
 10
0.0
 20
0.0
 30
0.0
  3
*D30
  1

  0
LINE
  5
21D8
330
1FE1
100
AcDbEntity
  8
0
 62
     0
370
    -2
100
AcDbLine
 10
-157.9263028607442
 20
1128.38694571678
 30
0.0
 11
-157.9263028607442
 21
1189.164695440594
 31
0.0
  0
LINE
  5
21D9
330
1FE1
100
AcDbEntity
  8
0
 62
     0
370
    -2
100
AcDbLine
 10
-39.9263028607445
 20
913.3869457167799
 30
0.0
 11
-39.92630286074449
 21
1189.164695440594
 31
0.0
  0
LINE
  5
21DA
330
1FE1
100
AcDbEntity
  8
0
 62
     0
370
    -2
100
AcDbLine
 10
-150.4263028607442
 20
1185.414695440594
 30
0.0
 11
-47.42630286074446
 21
1185.414695440594
 31
0.0
  0
INSERT
  5
21DB
330
1FE1
100
AcDbEntity
  8
0
 62
     0
370
    -2
100
AcDbBlockReference
  2
_OPEN30
 10
-157.9263028607442
 20
1185.414695440594
 30
0.0
 41
7.5
 42
7.5
 43
7.5
 50
180.0
  0
INSERT
  5
21DC
330
1FE1
100
AcDbEntity
  8
0
 62
     0
370
    -2
100
AcDbBlockReference
  2
_OPEN30
 10
-39.92630286074449
 20
1185.414695440594
 30
0.0
 41
7.5
 42
7.5
 43
7.5
  0
MTEXT
  5
21DD
330
1FE1
100
AcDbEntity
  8
0
 62
     0
370
    50
100
AcDbMText
 10
-98.92630286074441
 20
1195.164695440594
 30
0.0
 40
10.5
 41
0.0
 71
     5
 72
     1
  1
118
 73
     1
 44
1.0
1001
ACAD
1000
MTEXTBEGIN
1070
    73
1070
     1
1070
    44
1040
1.0
1070
    74
1070
     0
1000
MTEXTEND
  0
POINT
  5
21DE
330
1FE1
100
AcDbEntity
  8
Defpoints
 62
     0
100
AcDbPoint
 10
-157.9263028607442
 20
1126.51194571678
 30
0.0
  0
POINT
  5
21DF
330
1FE1
100
AcDbEntity
  8
Defpoints
 62
     0
100
AcDbPoint
 10
-39.9263028607445
 20
911.5119457167802
 30
0.0
  0
POINT
  5
21E0
330
1FE1
100
AcDbEntity
  8
Defpoints
 62
     0
100
AcDbPoint
 10
-39.92630286074449
 20
1185.414695440594
 30
0.0
  0
ENDBLK
  5
1FEC
330
1FE1
100
AcDbEntity
  8
0
100
AcDbBlockEnd
  0
BLOCK
  5
1FF7
330
1FED
100
AcDbEntity
  8
0
100
AcDbBlockBegin
  2
*D31
 70
     1
 10
0.0
 20
0.0
 30
0.0
  3
*D31
  1

  0
LINE
  5
21A9
330
1FED
100
AcDbEntity
  8
0
100
AcDbLine
 10
-157.9263028607442
 20
1126.51194571678
 30
0.0
 11
-157.9263028607442
 21
1167.547386339513
 31
0.0
  0
LINE
  5
21AA
330
1FED
100
AcDbEntity
  8
0
100
AcDbLine
 10
-69.92630286074427
 20
1058.511945716779
 30
0.0
 11
-69.92630286074427
 21
1167.547386339513
 31
0.0
  0
LINE
  5
21AB
330
1FED
100
AcDbEntity
  8
0
100
AcDbLine
 10
-148.9263028607442
 20
1164.547386339513
 30
0.0
 11
-78.92630286074427
 21
1164.547386339513
 31
0.0
  0
INSERT
  5
21AC
330
1FED
100
AcDbEntity
  8
0
100
AcDbBlockReference
  2
_OPEN30
 10
-157.9263028607442
 20
1164.547386339513
 30
0.0
 41
9.0
 42
9.0
 43
9.0
 50
180.0
  0
INSERT
  5
21AD
330
1FED
100
AcDbEntity
  8
0
100
AcDbBlockReference
  2
_OPEN30
 10
-69.92630286074427
 20
1164.547386339513
 30
0.0
 41
9.0
 42
9.0
 43
9.0
  0
MTEXT
  5
21AE
330
1FED
100
AcDbEntity
  8
0
370
    50
100
AcDbMText
 10
-113.9263028607442
 20
1174.297386339513
 30
0.0
 40
10.5
 41
0.0
 71
     5
 72
     1
  1
88
 73
     1
 44
1.0
1001
ACAD
1000
MTEXTBEGIN
1070
    73
1070
     1
1070
    44
1040
1.0
1070
    74
1070
     0
1000
MTEXTEND
  0
POINT
  5
21AF
330
1FED
100
AcDbEntity
  8
Defpoints
 62
     0
100
AcDbPoint
 10
-157.9263028607442
 20
1120.51194571678
 30
0.0
  0
POINT
  5
21B0
330
1FED
100
AcDbEntity
  8
Defpoints
 62
     0
100
AcDbPoint
 10
-69.92630286074427
 20
1052.51194571678
 30
0.0
  0
POINT
  5
21B1
330
1FED
100
AcDbEntity
  8
Defpoints
 62
     0
100
AcDbPoint
 10
-69.92630286074427
 20
1164.547386339513
 30
0.0
  0
ENDBLK
  5
1FF8
330
1FED
100
AcDbEntity
  8
0
100
AcDbBlockEnd
  0
BLOCK
  5
2003
330
1FF9
100
AcDbEntity
  8
0
100
AcDbBlockBegin
  2
*D32
 70
     1
 10
0.0
 20
0.0
 30
0.0
  3
*D32
  1

  0
LINE
  5
2131
330
1FF9
100
AcDbEntity
  8
0
100
AcDbLine
 10
439.3069107426452
 20
866.5119457167801
 30
0.0
 11
439.3069107426452
 21
791.4236869347396
 31
0.0
  0
LINE
  5
2132
330
1FF9
100
AcDbEntity
  8
0
100
AcDbLine
 10
629.306910742645
 20
866.5119457167799
 30
0.0
 11
629.306910742645
 21
791.4236869347396
 31
0.0
  0
LINE
  5
2133
330
1FF9
100
AcDbEntity
  8
0
100
AcDbLine
 10
448.3069107426452
 20
794.4236869347396
 30
0.0
 11
620.3069107426451
 21
794.4236869347396
 31
0.0
  0
INSERT
  5
2134
330
1FF9
100
AcDbEntity
  8
0
100
AcDbBlockReference
  2
_OPEN30
 10
439.3069107426452
 20
794.4236869347396
 30
0.0
 41
9.0
 42
9.0
 43
9.0
 50
180.0
  0
INSERT
  5
2135
330
1FF9
100
AcDbEntity
  8
0
100
AcDbBlockReference
  2
_OPEN30
 10
629.306910742645
 20
794.4236869347396
 30
0.0
 41
9.0
 42
9.0
 43
9.0
  0
MTEXT
  5
2136
330
1FF9
100
AcDbEntity
  8
0
370
    50
100
AcDbMText
 10
534.306910742645
 20
804.1736869347396
 30
0.0
 40
10.5
 41
0.0
 71
     5
 72
     1
  1
190
 73
     1
 44
1.0
1001
ACAD
1000
MTEXTBEGIN
1070
    73
1070
     1
1070
    44
1040
1.0
1070
    74
1070
     0
1000
MTEXTEND
  0
POINT
  5
2137
330
1FF9
100
AcDbEntity
  8
Defpoints
 62
     0
100
AcDbPoint
 10
439.3069107426452
 20
872.5119457167799
 30
0.0
  0
POINT
  5
2138
330
1FF9
100
AcDbEntity
  8
Defpoints
 62
     0
100
AcDbPoint
 10
629.306910742645
 20
872.5119457167799
 30
0.0
  0
POINT
  5
2139
330
1FF9
100
AcDbEntity
  8
Defpoints
 62
     0
100
AcDbPoint
 10
629.306910742645
 20
794.4236869347396
 30
0.0
  0
ENDBLK
  5
2004
330
1FF9
100
AcDbEntity
  8
0
100
AcDbBlockEnd
  0
BLOCK
  5
200F
330
2005
100
AcDbEntity
  8
0
100
AcDbBlockBegin
  2
*D33
 70
     1
 10
0.0
 20
0.0
 30
0.0
  3
*D33
  1

  0
LINE
  5
213A
330
2005
100
AcDbEntity
  8
0
100
AcDbLine
 10
633.306910742645
 20
870.5119457167798
 30
0.0
 11
673.88947924222
 21
870.5119457167798
 31
0.0
  0
LINE
  5
213B
330
2005
100
AcDbEntity
  8
0
100
AcDbLine
 10
633.3069107426453
 20
1120.51194571678
 30
0.0
 11
673.88947924222
 21
1120.51194571678
 31
0.0
  0
LINE
  5
213C
330
2005
100
AcDbEntity
  8
0
100
AcDbLine
 10
670.8894792422197
 20
879.5119457167798
 30
0.0
 11
670.8894792422197
 21
1111.51194571678
 31
0.0
  0
INSERT
  5
213D
330
2005
100
AcDbEntity
  8
0
100
AcDbBlockReference
  2
_OPEN30
 10
670.8894792422197
 20
870.5119457167798
 30
0.0
 41
9.0
 42
9.0
 43
9.0
 50
270.0
  0
INSERT
  5
213E
330
2005
100
AcDbEntity
  8
0
100
AcDbBlockReference
  2
_OPEN30
 10
670.8894792422197
 20
1120.51194571678
 30
0.0
 41
9.0
 42
9.0
 43
9.0
 50
90.0
  0
MTEXT
  5
213F
330
2005
100
AcDbEntity
  8
0
370
    50
100
AcDbMText
 10
661.1394792422197
 20
995.5119457167802
 30
0.0
 40
10.5
 41
0.0
 71
     5
 72
     1
  1
250
 11
0.0000000000000001
 21
1.0
 31
0.0
 73
     1
 44
1.0
1001
ACAD
1000
MTEXTBEGIN
1070
    73
1070
     1
1070
    44
1040
1.0
1070
    74
1070
     0
1000
MTEXTEND
  0
POINT
  5
2140
330
2005
100
AcDbEntity
  8
Defpoints
 62
     0
100
AcDbPoint
 10
627.3069107426453
 20
870.5119457167798
 30
0.0
  0
POINT
  5
2141
330
2005
100
AcDbEntity
  8
Defpoints
 62
     0
100
AcDbPoint
 10
627.3069107426453
 20
1120.51194571678
 30
0.0
  0
POINT
  5
2142
330
2005
100
AcDbEntity
  8
Defpoints
 62
     0
100
AcDbPoint
 10
670.8894792422197
 20
1120.51194571678
 30
0.0
  0
ENDBLK
  5
2010
330
2005
100
AcDbEntity
  8
0
100
AcDbBlockEnd
  0
BLOCK
  5
201B
330
2011
100
AcDbEntity
  8
0
100
AcDbBlockBegin
  2
*D34
 70
     1
 10
0.0
 20
0.0
 30
0.0
  3
*D34
  1

  0
LINE
  5
21B2
330
2011
100
AcDbEntity
  8
0
100
AcDbLine
 10
-69.92630286074427
 20
1058.511945716779
 30
0.0
 11
-69.92630286074427
 21
1147.51194572678
 31
0.0
  0
LINE
  5
21B3
330
2011
100
AcDbEntity
  8
0
100
AcDbLine
 10
-151.9263028607442
 20
1124.91194571678
 30
0.0
 11
-151.9263028607442
 21
1147.51194572678
 31
0.0
  0
LINE
  5
21B4
330
2011
100
AcDbEntity
  8
0
100
AcDbLine
 10
-78.92630286074427
 20
1144.51194572678
 30
0.0
 11
-142.9263028607443
 21
1144.51194572678
 31
0.0
  0
INSERT
  5
21B5
330
2011
100
AcDbEntity
  8
0
100
AcDbBlockReference
  2
_OPEN30
 10
-69.92630286074427
 20
1144.51194572678
 30
0.0
 41
9.0
 42
9.0
 43
9.0
  0
INSERT
  5
21B6
330
2011
100
AcDbEntity
  8
0
100
AcDbBlockReference
  2
_OPEN30
 10
-151.9263028607442
 20
1144.51194572678
 30
0.0
 41
9.0
 42
9.0
 43
9.0
 50
180.0
  0
MTEXT
  5
21B7
330
2011
100
AcDbEntity
  8
0
370
    50
100
AcDbMText
 10
-110.9263028607442
 20
1154.26194572678
 30
0.0
 40
10.5
 41
0.0
 71
     5
 72
     1
  1
82
 73
     1
 44
1.0
1001
ACAD
1000
MTEXTBEGIN
1070
    73
1070
     1
1070
    44
1040
1.0
1070
    74
1070
     0
1000
MTEXTEND
  0
POINT
  5
21B8
330
2011
100
AcDbEntity
  8
Defpoints
 62
     0
100
AcDbPoint
 10
-69.92630286074427
 20
1052.51194571678
 30
0.0
  0
POINT
  5
21B9
330
2011
100
AcDbEntity
  8
Defpoints
 62
     0
100
AcDbPoint
 10
-151.9263028607442
 20
1118.91194571678
 30
0.0
  0
POINT
  5
21BA
330
2011
100
AcDbEntity
  8
Defpoints
 62
     0
100
AcDbPoint
 10
-151.9263028607442
 20
1144.51194572678
 30
0.0
  0
ENDBLK
  5
201C
330
2011
100
AcDbEntity
  8
0
100
AcDbBlockEnd
  0
BLOCK
  5
2029
330
201D
100
AcDbEntity
  8
0
100
AcDbBlockBegin
  2
*D35
 70
     1
 10
0.0
 20
0.0
 30
0.0
  3
*D35
  1

  0
LINE
  5
21BB
330
201D
100
AcDbEntity
  8
0
100
AcDbLine
 10
-151.9263028607442
 20
1124.91194571678
 30
0.0
 11
-151.9263028607442
 21
1147.51194572678
 31
0.0
  0
LINE
  5
21BC
330
201D
100
AcDbEntity
  8
0
100
AcDbLine
 10
-157.9263028607442
 20
1126.51194571678
 30
0.0
 11
-157.9263028607442
 21
1147.51194572678
 31
0.0
  0
LINE
  5
21BD
330
201D
100
AcDbEntity
  8
0
100
AcDbLine
 10
-142.9263028607443
 20
1144.51194572678
 30
0.0
 11
-133.9263028607442
 21
1144.51194572678
 31
0.0
  0
LINE
  5
21BE
330
201D
100
AcDbEntity
  8
0
100
AcDbLine
 10
-166.9263028607443
 20
1144.51194572678
 30
0.0
 11
-191.9263028607441
 21
1144.51194572678
 31
0.0
  0
LINE
  5
21BF
330
201D
100
AcDbEntity
  8
0
100
AcDbLine
 10
-151.9263028607442
 20
1144.51194572678
 30
0.0
 11
-157.9263028607442
 21
1144.51194572678
 31
0.0
  0
INSERT
  5
21C0
330
201D
100
AcDbEntity
  8
0
100
AcDbBlockReference
  2
_OPEN30
 10
-151.9263028607442
 20
1144.51194572678
 30
0.0
 41
9.0
 42
9.0
 43
9.0
 50
180.0
  0
INSERT
  5
21C1
330
201D
100
AcDbEntity
  8
0
100
AcDbBlockReference
  2
_OPEN30
 10
-157.9263028607442
 20
1144.51194572678
 30
0.0
 41
9.0
 42
9.0
 43
9.0
  0
MTEXT
  5
21C2
330
201D
100
AcDbEntity
  8
0
370
    50
100
AcDbMText
 10
-183.9263028607441
 20
1154.26194572678
 30
0.0
 40
10.5
 41
0.0
 71
     5
 72
     1
  1
6
 73
     1
 44
1.0
1001
ACAD
1000
MTEXTBEGIN
1070
    73
1070
     1
1070
    44
1040
1.0
1070
    74
1070
     0
1000
MTEXTEND
  0
POINT
  5
21C3
330
201D
100
AcDbEntity
  8
Defpoints
 62
     0
100
AcDbPoint
 10
-151.9263028607442
 20
1118.91194571678
 30
0.0
  0
POINT
  5
21C4
330
201D
100
AcDbEntity
  8
Defpoints
 62
     0
100
AcDbPoint
 10
-157.9263028607442
 20
1120.51194571678
 30
0.0
  0
POINT
  5
21C5
330
201D
100
AcDbEntity
  8
Defpoints
 62
     0
100
AcDbPoint
 10
-157.9263028607442
 20
1144.51194572678
 30
0.0
  0
ENDBLK
  5
202A
330
201D
100
AcDbEntity
  8
0
100
AcDbBlockEnd
  0
BLOCK
  5
2035
330
202B
100
AcDbEntity
  8
0
100
AcDbBlockBegin
  2
*D36
 70
     1
 10
0.0
 20
0.0
 30
0.0
  3
*D36
  1

  0
LINE
  5
21C6
330
202B
100
AcDbEntity
  8
0
100
AcDbLine
 10
-34.9263028607445
 20
864.5119457167799
 30
0.0
 11
-34.9263028607445
 21
816.9617973130955
 31
0.0
  0
LINE
  5
21C7
330
202B
100
AcDbEntity
  8
0
100
AcDbLine
 10
-157.9263028607445
 20
864.5119457167799
 30
0.0
 11
-157.9263028607445
 21
816.9617973130955
 31
0.0
  0
LINE
  5
21C8
330
202B
100
AcDbEntity
  8
0
100
AcDbLine
 10
-43.92630286074449
 20
819.9617973130955
 30
0.0
 11
-148.9263028607445
 21
819.9617973130955
 31
0.0
  0
INSERT
  5
21C9
330
202B
100
AcDbEntity
  8
0
100
AcDbBlockReference
  2
_OPEN30
 10
-34.9263028607445
 20
819.9617973130955
 30
0.0
 41
9.0
 42
9.0
 43
9.0
  0
INSERT
  5
21CA
330
202B
100
AcDbEntity
  8
0
100
AcDbBlockReference
  2
_OPEN30
 10
-157.9263028607445
 20
819.9617973130955
 30
0.0
 41
9.0
 42
9.0
 43
9.0
 50
180.0
  0
MTEXT
  5
21CB
330
202B
100
AcDbEntity
  8
0
370
    50
100
AcDbMText
 10
-96.42630286074448
 20
829.7117973130955
 30
0.0
 40
10.5
 41
0.0
 71
     5
 72
     1
  1
123（A0J2）
 73
     1
 44
1.0
1001
ACAD
1000
MTEXTBEGIN
1070
    73
1070
     1
1070
    44
1040
1.0
1070
    74
1070
     0
1000
MTEXTEND
  0
POINT
  5
21CC
330
202B
100
AcDbEntity
  8
Defpoints
 62
     0
100
AcDbPoint
 10
-34.9263028607445
 20
870.5119457167798
 30
0.0
  0
POINT
  5
21CD
330
202B
100
AcDbEntity
  8
Defpoints
 62
     0
100
AcDbPoint
 10
-157.9263028607445
 20
870.5119457167798
 30
0.0
  0
POINT
  5
21CE
330
202B
100
AcDbEntity
  8
Defpoints
 62
     0
100
AcDbPoint
 10
-157.9263028607445
 20
819.9617973130955
 30
0.0
  0
ENDBLK
  5
2036
330
202B
100
AcDbEntity
  8
0
100
AcDbBlockEnd
  0
BLOCK
  5
2041
330
2037
100
AcDbEntity
  8
0
100
AcDbBlockBegin
  2
*D37
 70
     1
 10
0.0
 20
0.0
 30
0.0
  3
*D37
  1

  0
LINE
  5
21CF
330
2037
100
AcDbEntity
  8
0
100
AcDbLine
 10
-163.9263028607445
 20
870.5119457167798
 30
0.0
 11
-193.2392710662711
 21
870.5119457167798
 31
0.0
  0
LINE
  5
21D0
330
2037
100
AcDbEntity
  8
0
100
AcDbLine
 10
-163.9263028607443
 20
1120.51194571678
 30
0.0
 11
-193.2392710662711
 21
1120.51194571678
 31
0.0
  0
LINE
  5
21D1
330
2037
100
AcDbEntity
  8
0
100
AcDbLine
 10
-190.2392710662711
 20
879.5119457167798
 30
0.0
 11
-190.2392710662711
 21
1111.51194571678
 31
0.0
  0
INSERT
  5
21D2
330
2037
100
AcDbEntity
  8
0
100
AcDbBlockReference
  2
_OPEN30
 10
-190.2392710662711
 20
870.5119457167798
 30
0.0
 41
9.0
 42
9.0
 43
9.0
 50
270.0
  0
INSERT
  5
21D3
330
2037
100
AcDbEntity
  8
0
100
AcDbBlockReference
  2
_OPEN30
 10
-190.2392710662711
 20
1120.51194571678
 30
0.0
 41
9.0
 42
9.0
 43
9.0
 50
90.0
  0
MTEXT
  5
21D4
330
2037
100
AcDbEntity
  8
0
370
    50
100
AcDbMText
 10
-199.9892710662713
 20
995.5119457167798
 30
0.0
 40
10.5
 41
0.0
 71
     5
 72
     1
  1
250（A0J2）
 11
0.0000000000000001
 21
1.0
 31
0.0
 73
     1
 44
1.0
1001
ACAD
1000
MTEXTBEGIN
1070
    73
1070
     1
1070
    44
1040
1.0
1070
    74
1070
     0
1000
MTEXTEND
  0
POINT
  5
21D5
330
2037
100
AcDbEntity
  8
Defpoints
 62
     0
100
AcDbPoint
 10
-157.9263028607445
 20
870.5119457167798
 30
0.0
  0
POINT
  5
21D6
330
2037
100
AcDbEntity
  8
Defpoints
 62
     0
100
AcDbPoint
 10
-157.9263028607442
 20
1120.51194571678
 30
0.0
  0
POINT
  5
21D7
330
2037
100
AcDbEntity
  8
Defpoints
 62
     0
100
AcDbPoint
 10
-190.2392710662711
 20
1120.51194571678
 30
0.0
  0
ENDBLK
  5
2042
330
2037
100
AcDbEntity
  8
0
100
AcDbBlockEnd
  0
BLOCK
  5
204D
330
2043
100
AcDbEntity
  8
0
100
AcDbBlockBegin
  2
*D38
 70
     1
 10
0.0
 20
0.0
 30
0.0
  3
*D38
  1

  0
LINE
  5
2169
330
2043
100
AcDbEntity
  8
0
100
AcDbLine
 10
624.3069107426451
 20
867.9019457167797
 30
0.0
 11
624.3069107426451
 21
813.7463579750328
 31
0.0
  0
LINE
  5
216A
330
2043
100
AcDbEntity
  8
0
100
AcDbLine
 10
444.3069107426452
 20
867.9019457167797
 30
0.0
 11
444.3069107426452
 21
813.7463579750328
 31
0.0
  0
LINE
  5
216B
330
2043
100
AcDbEntity
  8
0
100
AcDbLine
 10
615.3069107426452
 20
816.7463579750327
 30
0.0
 11
453.3069107426451
 21
816.7463579750327
 31
0.0
  0
INSERT
  5
216C
330
2043
100
AcDbEntity
  8
0
100
AcDbBlockReference
  2
_OPEN30
 10
624.3069107426451
 20
816.7463579750327
 30
0.0
 41
9.0
 42
9.0
 43
9.0
  0
INSERT
  5
216D
330
2043
100
AcDbEntity
  8
0
100
AcDbBlockReference
  2
_OPEN30
 10
444.3069107426452
 20
816.7463579750327
 30
0.0
 41
9.0
 42
9.0
 43
9.0
 50
180.0
  0
MTEXT
  5
216E
330
2043
100
AcDbEntity
  8
0
370
    50
100
AcDbMText
 10
534.306910742645
 20
826.4963579750327
 30
0.0
 40
10.5
 41
0.0
 71
     5
 72
     1
  1
180（取付ピッチ）
 73
     1
 44
1.0
1001
ACAD
1000
MTEXTBEGIN
1070
    73
1070
     1
1070
    44
1040
1.0
1070
    74
1070
     0
1000
MTEXTEND
  0
POINT
  5
216F
330
2043
100
AcDbEntity
  8
Defpoints
 62
     0
100
AcDbPoint
 10
624.3069107426451
 20
873.9019457167799
 30
0.0
  0
POINT
  5
2170
330
2043
100
AcDbEntity
  8
Defpoints
 62
     0
100
AcDbPoint
 10
444.3069107426452
 20
873.9019457167799
 30
0.0
  0
POINT
  5
2171
330
2043
100
AcDbEntity
  8
Defpoints
 62
     0
100
AcDbPoint
 10
444.3069107426452
 20
816.7463579750327
 30
0.0
  0
ENDBLK
  5
204E
330
2043
100
AcDbEntity
  8
0
100
AcDbBlockEnd
  0
BLOCK
  5
2059
330
204F
100
AcDbEntity
  8
0
100
AcDbBlockBegin
  2
*D39
 70
     1
 10
0.0
 20
0.0
 30
0.0
  3
*D39
  1

  0
LINE
  5
2172
330
204F
100
AcDbEntity
  8
0
100
AcDbLine
 10
632.9169107426451
 20
1114.51194571678
 30
0.0
 11
654.06766852841
 21
1114.51194571678
 31
0.0
  0
LINE
  5
2173
330
204F
100
AcDbEntity
  8
0
100
AcDbLine
 10
632.9169107426451
 20
876.5119457167799
 30
0.0
 11
654.06766852841
 21
876.5119457167799
 31
0.0
  0
LINE
  5
2174
330
204F
100
AcDbEntity
  8
0
100
AcDbLine
 10
651.0676685284103
 20
1105.51194571678
 30
0.0
 11
651.0676685284103
 21
885.5119457167798
 31
0.0
  0
INSERT
  5
2175
330
204F
100
AcDbEntity
  8
0
100
AcDbBlockReference
  2
_OPEN30
 10
651.0676685284103
 20
1114.51194571678
 30
0.0
 41
9.0
 42
9.0
 43
9.0
 50
90.0
  0
INSERT
  5
2176
330
204F
100
AcDbEntity
  8
0
100
AcDbBlockReference
  2
_OPEN30
 10
651.0676685284103
 20
876.5119457167799
 30
0.0
 41
9.0
 42
9.0
 43
9.0
 50
270.0
  0
MTEXT
  5
2177
330
204F
100
AcDbEntity
  8
0
370
    50
100
AcDbMText
 10
641.3176685284097
 20
995.5119457167802
 30
0.0
 40
10.5
 41
0.0
 71
     5
 72
     1
  1
238（取付ピッチ）
 11
0.0000000000000001
 21
1.0
 31
0.0
 73
     1
 44
1.0
1001
ACAD
1000
MTEXTBEGIN
1070
    73
1070
     1
1070
    44
1040
1.0
1070
    74
1070
     0
1000
MTEXTEND
  0
POINT
  5
2178
330
204F
100
AcDbEntity
  8
Defpoints
 62
     0
100
AcDbPoint
 10
626.916910742645
 20
1114.51194571678
 30
0.0
  0
POINT
  5
2179
330
204F
100
AcDbEntity
  8
Defpoints
 62
     0
100
AcDbPoint
 10
626.916910742645
 20
876.5119457167799
 30
0.0
  0
POINT
  5
217A
330
204F
100
AcDbEntity
  8
Defpoints
 62
     0
100
AcDbPoint
 10
651.0676685284103
 20
876.5119457167799
 30
0.0
  0
ENDBLK
  5
205A
330
204F
100
AcDbEntity
  8
0
100
AcDbBlockEnd
  0
BLOCK
  5
206E
330
2064
100
AcDbEntity
  8
0
100
AcDbBlockBegin
  2
*D40
 70
     1
 10
0.0
 20
0.0
 30
0.0
  3
*D40
  1

  0
LINE
  5
2184
330
2064
100
AcDbEntity
  8
0
 62
     0
370
    -2
100
AcDbLine
 10
610.5569107426453
 20
878.6369457167799
 30
0.0
 11
610.5569107426453
 21
838.1958936797065
 31
0.0
  0
LINE
  5
2185
330
2064
100
AcDbEntity
  8
0
 62
     0
370
    -2
100
AcDbLine
 10
478.5569107426453
 20
878.6369457167801
 30
0.0
 11
478.5569107426453
 21
838.1958936797065
 31
0.0
  0
LINE
  5
2186
330
2064
100
AcDbEntity
  8
0
 62
     0
370
    -2
100
AcDbLine
 10
600.0569107426453
 20
841.9458936797067
 30
0.0
 11
489.0569107426453
 21
841.9458936797067
 31
0.0
  0
INSERT
  5
2187
330
2064
100
AcDbEntity
  8
0
 62
     0
370
    -2
100
AcDbBlockReference
  2
_OPEN30
 10
610.5569107426453
 20
841.9458936797067
 30
0.0
 41
10.5
 42
10.5
 43
10.5
  0
INSERT
  5
2188
330
2064
100
AcDbEntity
  8
0
 62
     0
370
    -2
100
AcDbBlockReference
  2
_OPEN30
 10
478.5569107426453
 20
841.9458936797067
 30
0.0
 41
10.5
 42
10.5
 43
10.5
 50
180.0
  0
MTEXT
  5
2189
330
2064
100
AcDbEntity
  8
0
 62
     0
100
AcDbMText
 10
544.5569107426453
 20
850.1958936797063
 30
0.0
 40
10.5
 41
0.0
 71
     5
 72
     1
  1
132
 73
     1
 44
1.0
1001
ACAD
1000
MTEXTBEGIN
1070
    73
1070
     1
1070
    44
1040
1.0
1070
    74
1070
     0
1000
MTEXTEND
  0
POINT
  5
218A
330
2064
100
AcDbEntity
  8
Defpoints
 62
     0
100
AcDbPoint
 10
610.5569107426453
 20
880.5119457167799
 30
0.0
  0
POINT
  5
218B
330
2064
100
AcDbEntity
  8
Defpoints
 62
     0
100
AcDbPoint
 10
478.5569107426453
 20
880.5119457167799
 30
0.0
  0
POINT
  5
218C
330
2064
100
AcDbEntity
  8
Defpoints
 62
     0
100
AcDbPoint
 10
478.5569107426453
 20
841.9458936797067
 30
0.0
  0
ENDBLK
  5
206F
330
2064
100
AcDbEntity
  8
0
100
AcDbBlockEnd
  0
BLOCK
  5
21E2
330
21E1
100
AcDbEntity
  8
0
100
AcDbBlockBegin
  2
*D41
 70
     1
 10
0.0
 20
0.0
 30
0.0
  3
*D41
  1

  0
LINE
  5
21E3
330
21E1
100
AcDbEntity
  8
0
100
AcDbLine
 10
504.3234917643355
 20
222.914325285238
 30
0.0
 11
504.3234917643355
 21
190.7724716890108
 31
0.0
  0
LINE
  5
21E4
330
21E1
100
AcDbEntity
  8
0
100
AcDbLine
 10
422.3234917643357
 20
222.914325285238
 30
0.0
 11
422.3234917643357
 21
190.7724716890108
 31
0.0
  0
LINE
  5
21E5
330
21E1
100
AcDbEntity
  8
0
100
AcDbLine
 10
495.3234917643356
 20
193.7724716890108
 30
0.0
 11
431.3234917643357
 21
193.7724716890108
 31
0.0
  0
LINE
  5
21E6
330
21E1
100
AcDbEntity
  8
0
100
AcDbLine
 10
422.3234917643357
 20
193.7724716890108
 30
0.0
 11
319.9734917643357
 21
193.7724716890108
 31
0.0
  0
INSERT
  5
21E7
330
21E1
100
AcDbEntity
  8
0
100
AcDbBlockReference
  2
_OPEN30
 10
504.3234917643355
 20
193.7724716890108
 30
0.0
 41
9.0
 42
9.0
 43
9.0
  0
INSERT
  5
21E8
330
21E1
100
AcDbEntity
  8
0
100
AcDbBlockReference
  2
_OPEN30
 10
422.3234917643357
 20
193.7724716890108
 30
0.0
 41
9.0
 42
9.0
 43
9.0
 50
180.0
  0
MTEXT
  5
21E9
330
21E1
100
AcDbEntity
  8
0
370
    50
100
AcDbMText
 10
366.6484917643357
 20
203.5224716890108
 30
0.0
 40
10.5
 41
0.0
 71
     5
 72
     1
  1
82（A0J2）
 73
     1
 44
1.0
1001
ACAD
1000
MTEXTBEGIN
1070
    73
1070
     1
1070
    44
1040
1.0
1070
    74
1070
     0
1000
MTEXTEND
  0
POINT
  5
21EA
330
21E1
100
AcDbEntity
  8
Defpoints
 62
     0
100
AcDbPoint
 10
504.3234917643355
 20
228.914325285238
 30
0.0
  0
POINT
  5
21EB
330
21E1
100
AcDbEntity
  8
Defpoints
 62
     0
100
AcDbPoint
 10
422.3234917643357
 20
228.914325285238
 30
0.0
  0
POINT
  5
21EC
330
21E1
100
AcDbEntity
  8
Defpoints
 62
     0
100
AcDbPoint
 10
422.3234917643357
 20
193.7724716890108
 30
0.0
  0
ENDBLK
  5
21ED
330
21E1
100
AcDbEntity
  8
0
100
AcDbBlockEnd
  0
BLOCK
  5
21EF
330
21EE
100
AcDbEntity
  8
0
100
AcDbBlockBegin
  2
*D42
 70
     1
 10
0.0
 20
0.0
 30
0.0
  3
*D42
  1

  0
LINE
  5
21F0
330
21EE
100
AcDbEntity
  8
0
100
AcDbLine
 10
416.3234917643356
 20
478.9143252852378
 30
0.0
 11
389.9136702046549
 21
478.9143252852378
 31
0.0
  0
LINE
  5
21F1
330
21EE
100
AcDbEntity
  8
0
100
AcDbLine
 10
416.3234917643356
 20
228.914325285238
 30
0.0
 11
389.9136702046549
 21
228.914325285238
 31
0.0
  0
LINE
  5
21F2
330
21EE
100
AcDbEntity
  8
0
100
AcDbLine
 10
392.9136702046548
 20
469.9143252852378
 30
0.0
 11
392.9136702046548
 21
237.9143252852379
 31
0.0
  0
INSERT
  5
21F3
330
21EE
100
AcDbEntity
  8
0
100
AcDbBlockReference
  2
_OPEN30
 10
392.9136702046548
 20
478.9143252852378
 30
0.0
 41
9.0
 42
9.0
 43
9.0
 50
90.0
  0
INSERT
  5
21F4
330
21EE
100
AcDbEntity
  8
0
100
AcDbBlockReference
  2
_OPEN30
 10
392.9136702046548
 20
228.914325285238
 30
0.0
 41
9.0
 42
9.0
 43
9.0
 50
270.0
  0
MTEXT
  5
21F5
330
21EE
100
AcDbEntity
  8
0
370
    50
100
AcDbMText
 10
383.1636702046548
 20
353.914325285238
 30
0.0
 40
10.5
 41
0.0
 71
     5
 72
     1
  1
250（A0J2）
 11
0.0000000000000001
 21
1.0
 31
0.0
 73
     1
 44
1.0
1001
ACAD
1000
MTEXTBEGIN
1070
    73
1070
     1
1070
    44
1040
1.0
1070
    74
1070
     0
1000
MTEXTEND
  0
POINT
  5
21F6
330
21EE
100
AcDbEntity
  8
Defpoints
 62
     0
100
AcDbPoint
 10
422.3234917643357
 20
478.9143252852378
 30
0.0
  0
POINT
  5
21F7
330
21EE
100
AcDbEntity
  8
Defpoints
 62
     0
100
AcDbPoint
 10
422.3234917643357
 20
228.914325285238
 30
0.0
  0
POINT
  5
21F8
330
21EE
100
AcDbEntity
  8
Defpoints
 62
     0
100
AcDbPoint
 10
392.9136702046548
 20
228.914325285238
 30
0.0
  0
ENDBLK
  5
21F9
330
21EE
100
AcDbEntity
  8
0
100
AcDbBlockEnd
  0
BLOCK
  5
21FB
330
21FA
100
AcDbEntity
  8
0
100
AcDbBlockBegin
  2
*D43
 70
     1
 10
0.0
 20
0.0
 30
0.0
  3
*D43
  1

  0
LINE
  5
21FC
330
21FA
100
AcDbEntity
  8
0
100
AcDbLine
 10
469.3234917643356
 20
416.9143252852379
 30
0.0
 11
469.3234917643356
 21
505.9143252952376
 31
0.0
  0
LINE
  5
21FD
330
21FA
100
AcDbEntity
  8
0
100
AcDbLine
 10
428.3234917643357
 20
483.3143252852378
 30
0.0
 11
428.3234917643357
 21
505.9143252952376
 31
0.0
  0
LINE
  5
21FE
330
21FA
100
AcDbEntity
  8
0
100
AcDbLine
 10
460.3234917643354
 20
502.9143252952378
 30
0.0
 11
428.3234917643357
 21
502.9143252952378
 31
0.0
  0
INSERT
  5
21FF
330
21FA
100
AcDbEntity
  8
0
100
AcDbBlockReference
  2
_OPEN30
 10
469.3234917643356
 20
502.9143252952378
 30
0.0
 41
9.0
 42
9.0
 43
9.0
  0
INSERT
  5
2200
330
21FA
100
AcDbEntity
  8
0
100
AcDbBlockReference
  2
_DotSmall
 10
428.3234917643357
 20
502.9143252952378
 30
0.0
 41
9.0
 42
9.0
 43
9.0
 50
180.0
  0
MTEXT
  5
2201
330
21FA
100
AcDbEntity
  8
0
370
    50
100
AcDbMText
 10
444.3234917643356
 20
512.6643252952378
 30
0.0
 40
10.5
 41
0.0
 71
     5
 72
     1
  1
41
 73
     1
 44
1.0
1001
ACAD
1000
MTEXTBEGIN
1070
    73
1070
     1
1070
    44
1040
1.0
1070
    74
1070
     0
1000
MTEXTEND
  0
POINT
  5
2202
330
21FA
100
AcDbEntity
  8
Defpoints
 62
     0
100
AcDbPoint
 10
469.3234917643356
 20
410.9143252852379
 30
0.0
  0
POINT
  5
2203
330
21FA
100
AcDbEntity
  8
Defpoints
 62
     0
100
AcDbPoint
 10
428.3234917643357
 20
477.3143252852378
 30
0.0
  0
POINT
  5
2204
330
21FA
100
AcDbEntity
  8
Defpoints
 62
     0
100
AcDbPoint
 10
428.3234917643357
 20
502.9143252952378
 30
0.0
  0
ENDBLK
  5
2205
330
21FA
100
AcDbEntity
  8
0
100
AcDbBlockEnd
  0
BLOCK
  5
2207
330
2206
100
AcDbEntity
  8
0
100
AcDbBlockBegin
  2
*D44
 70
     1
 10
0.0
 20
0.0
 30
0.0
  3
*D44
  1

  0
LINE
  5
2208
330
2206
100
AcDbEntity
  8
0
100
AcDbLine
 10
428.3234917643357
 20
483.3143252852378
 30
0.0
 11
428.3234917643357
 21
505.9143252952376
 31
0.0
  0
LINE
  5
2209
330
2206
100
AcDbEntity
  8
0
100
AcDbLine
 10
422.3234917643357
 20
484.9143252852377
 30
0.0
 11
422.3234917643357
 21
505.9143252952376
 31
0.0
  0
LINE
  5
220A
330
2206
100
AcDbEntity
  8
0
100
AcDbLine
 10
428.3234917643357
 20
502.9143252952378
 30
0.0
 11
437.3234917643356
 21
502.9143252952378
 31
0.0
  0
LINE
  5
220B
330
2206
100
AcDbEntity
  8
0
100
AcDbLine
 10
413.3234917643356
 20
502.9143252952378
 30
0.0
 11
388.3234917643357
 21
502.9143252952378
 31
0.0
  0
LINE
  5
220C
330
2206
100
AcDbEntity
  8
0
100
AcDbLine
 10
428.3234917643357
 20
502.9143252952378
 30
0.0
 11
422.3234917643357
 21
502.9143252952378
 31
0.0
  0
INSERT
  5
220D
330
2206
100
AcDbEntity
  8
0
100
AcDbBlockReference
  2
_DotSmall
 10
428.3234917643357
 20
502.9143252952378
 30
0.0
 41
9.0
 42
9.0
 43
9.0
 50
180.0
  0
INSERT
  5
220E
330
2206
100
AcDbEntity
  8
0
100
AcDbBlockReference
  2
_OPEN30
 10
422.3234917643357
 20
502.9143252952378
 30
0.0
 41
9.0
 42
9.0
 43
9.0
  0
MTEXT
  5
220F
330
2206
100
AcDbEntity
  8
0
370
    50
100
AcDbMText
 10
396.3234917643357
 20
512.6643252952378
 30
0.0
 40
10.5
 41
0.0
 71
     5
 72
     1
  1
6
 73
     1
 44
1.0
1001
ACAD
1000
MTEXTBEGIN
1070
    73
1070
     1
1070
    44
1040
1.0
1070
    74
1070
     0
1000
MTEXTEND
  0
POINT
  5
2210
330
2206
100
AcDbEntity
  8
Defpoints
 62
     0
100
AcDbPoint
 10
428.3234917643357
 20
477.3143252852378
 30
0.0
  0
POINT
  5
2211
330
2206
100
AcDbEntity
  8
Defpoints
 62
     0
100
AcDbPoint
 10
422.3234917643357
 20
478.9143252852378
 30
0.0
  0
POINT
  5
2212
330
2206
100
AcDbEntity
  8
Defpoints
 62
     0
100
AcDbPoint
 10
422.3234917643357
 20
502.9143252952378
 30
0.0
  0
ENDBLK
  5
2213
330
2206
100
AcDbEntity
  8
0
100
AcDbBlockEnd
  0
BLOCK
  5
2215
330
2214
100
AcDbEntity
  8
0
100
AcDbBlockBegin
  2
*D45
 70
     1
 10
0.0
 20
0.0
 30
0.0
  3
*D45
  1

  0
LINE
  5
2216
330
2214
100
AcDbEntity
  8
0
100
AcDbLine
 10
469.3234917643356
 20
416.9143252852379
 30
0.0
 11
469.3234917643356
 21
525.9143252952378
 31
0.0
  0
LINE
  5
2217
330
2214
100
AcDbEntity
  8
0
100
AcDbLine
 10
422.3234917643357
 20
484.9143252852377
 30
0.0
 11
422.3234917643357
 21
525.9143252952378
 31
0.0
  0
LINE
  5
2218
330
2214
100
AcDbEntity
  8
0
100
AcDbLine
 10
460.3234917643354
 20
522.9143252952378
 30
0.0
 11
431.3234917643357
 21
522.9143252952378
 31
0.0
  0
INSERT
  5
2219
330
2214
100
AcDbEntity
  8
0
100
AcDbBlockReference
  2
_OPEN30
 10
469.3234917643356
 20
522.9143252952378
 30
0.0
 41
9.0
 42
9.0
 43
9.0
  0
INSERT
  5
221A
330
2214
100
AcDbEntity
  8
0
100
AcDbBlockReference
  2
_OPEN30
 10
422.3234917643357
 20
522.9143252952378
 30
0.0
 41
9.0
 42
9.0
 43
9.0
 50
180.0
  0
MTEXT
  5
221B
330
2214
100
AcDbEntity
  8
0
370
    50
100
AcDbMText
 10
445.8234917643356
 20
532.6643252952378
 30
0.0
 40
10.5
 41
0.0
 71
     5
 72
     1
  1
47
 73
     1
 44
1.0
1001
ACAD
1000
MTEXTBEGIN
1070
    73
1070
     1
1070
    44
1040
1.0
1070
    74
1070
     0
1000
MTEXTEND
  0
POINT
  5
221C
330
2214
100
AcDbEntity
  8
Defpoints
 62
     0
100
AcDbPoint
 10
469.3234917643356
 20
410.9143252852379
 30
0.0
  0
POINT
  5
221D
330
2214
100
AcDbEntity
  8
Defpoints
 62
     0
100
AcDbPoint
 10
422.3234917643357
 20
478.9143252852378
 30
0.0
  0
POINT
  5
221E
330
2214
100
AcDbEntity
  8
Defpoints
 62
     0
100
AcDbPoint
 10
422.3234917643357
 20
522.9143252952378
 30
0.0
  0
ENDBLK
  5
221F
330
2214
100
AcDbEntity
  8
0
100
AcDbBlockEnd
  0
BLOCK
  5
2221
330
2220
100
AcDbEntity
  8
0
100
AcDbBlockBegin
  2
*D46
 70
     1
 10
0.0
 20
0.0
 30
0.0
  3
*D46
  1

  0
LINE
  5
2222
330
2220
100
AcDbEntity
  8
0
 62
     0
370
    -2
100
AcDbLine
 10
422.3234917643357
 20
485.7893252852377
 30
0.0
 11
422.3234917643357
 21
552.5400646978223
 31
0.0
  0
LINE
  5
2223
330
2220
100
AcDbEntity
  8
0
 62
     0
370
    -2
100
AcDbLine
 10
498.3234917643357
 20
269.7893252852379
 30
0.0
 11
498.3234917643357
 21
552.5400646978223
 31
0.0
  0
LINE
  5
2224
330
2220
100
AcDbEntity
  8
0
 62
     0
370
    -2
100
AcDbLine
 10
429.8234917643356
 20
542.0400646978223
 30
0.0
 11
490.8234917643357
 21
542.0400646978223
 31
0.0
  0
INSERT
  5
2225
330
2220
100
AcDbEntity
  8
0
 62
     0
370
    -2
100
AcDbBlockReference
  2
_OPEN30
 10
422.3234917643357
 20
542.0400646978223
 30
0.0
 41
7.5
 42
7.5
 43
7.5
 50
180.0
  0
INSERT
  5
2226
330
2220
100
AcDbEntity
  8
0
 62
     0
370
    -2
100
AcDbBlockReference
  2
_OPEN30
 10
498.3234917643357
 20
542.0400646978223
 30
0.0
 41
7.5
 42
7.5
 43
7.5
  0
MTEXT
  5
2227
330
2220
100
AcDbEntity
  8
0
 62
     0
370
    50
100
AcDbMText
 10
460.3234917643357
 20
551.7900646978223
 30
0.0
 40
10.5
 41
0.0
 71
     5
 72
     1
  1
77
 73
     1
 44
1.0
1001
ACAD
1000
MTEXTBEGIN
1070
    73
1070
     1
1070
    44
1040
1.0
1070
    74
1070
     0
1000
MTEXTEND
  0
POINT
  5
2228
330
2220
100
AcDbEntity
  8
Defpoints
 62
     0
100
AcDbPoint
 10
422.3234917643357
 20
483.9143252852379
 30
0.0
  0
POINT
  5
2229
330
2220
100
AcDbEntity
  8
Defpoints
 62
     0
100
AcDbPoint
 10
498.3234917643357
 20
267.9143252852378
 30
0.0
  0
POINT
  5
222A
330
2220
100
AcDbEntity
  8
Defpoints
 62
     0
100
AcDbPoint
 10
498.3234917643357
 20
542.0400646978223
 30
0.0
  0
ENDBLK
  5
222B
330
2220
100
AcDbEntity
  8
0
100
AcDbBlockEnd
  0
BLOCK
  5
22C7
330
22BC
100
AcDbEntity
  8
0
100
AcDbBlockBegin
  2
*D47
 70
     1
 10
0.0
 20
0.0
 30
0.0
  3
*D47
  1

  0
LINE
  5
2616
330
22BC
100
AcDbEntity
  8
0
100
AcDbLine
 10
395.0220644301333
 20
864.5119457167799
 30
0.0
 11
395.0220644301333
 21
832.3700921205528
 31
0.0
  0
LINE
  5
2617
330
22BC
100
AcDbEntity
  8
0
100
AcDbLine
 10
313.0220644301334
 20
864.5119457167799
 30
0.0
 11
313.0220644301334
 21
832.3700921205528
 31
0.0
  0
LINE
  5
2618
330
22BC
100
AcDbEntity
  8
0
100
AcDbLine
 10
386.0220644301333
 20
835.3700921205527
 30
0.0
 11
322.0220644301333
 21
835.3700921205527
 31
0.0
  0
LINE
  5
2619
330
22BC
100
AcDbEntity
  8
0
100
AcDbLine
 10
313.0220644301334
 20
835.3700921205527
 30
0.0
 11
210.6720644301333
 21
835.3700921205527
 31
0.0
  0
INSERT
  5
261A
330
22BC
100
AcDbEntity
  8
0
100
AcDbBlockReference
  2
_OPEN30
 10
395.0220644301333
 20
835.3700921205527
 30
0.0
 41
9.0
 42
9.0
 43
9.0
  0
INSERT
  5
261B
330
22BC
100
AcDbEntity
  8
0
100
AcDbBlockReference
  2
_OPEN30
 10
313.0220644301334
 20
835.3700921205527
 30
0.0
 41
9.0
 42
9.0
 43
9.0
 50
180.0
  0
MTEXT
  5
261C
330
22BC
100
AcDbEntity
  8
0
370
    50
100
AcDbMText
 10
257.3470644301333
 20
845.1200921205527
 30
0.0
 40
10.5
 41
0.0
 71
     5
 72
     1
  1
82（A0J2）
 73
     1
 44
1.0
1001
ACAD
1000
MTEXTBEGIN
1070
    73
1070
     1
1070
    44
1040
1.0
1070
    74
1070
     0
1000
MTEXTEND
  0
POINT
  5
261D
330
22BC
100
AcDbEntity
  8
Defpoints
 62
     0
100
AcDbPoint
 10
395.0220644301333
 20
870.5119457167798
 30
0.0
  0
POINT
  5
261E
330
22BC
100
AcDbEntity
  8
Defpoints
 62
     0
100
AcDbPoint
 10
313.0220644301334
 20
870.5119457167798
 30
0.0
  0
POINT
  5
261F
330
22BC
100
AcDbEntity
  8
Defpoints
 62
     0
100
AcDbPoint
 10
313.0220644301334
 20
835.3700921205527
 30
0.0
  0
ENDBLK
  5
22C8
330
22BC
100
AcDbEntity
  8
0
100
AcDbBlockEnd
  0
BLOCK
  5
22D3
330
22C9
100
AcDbEntity
  8
0
100
AcDbBlockBegin
  2
*D48
 70
     1
 10
0.0
 20
0.0
 30
0.0
  3
*D48
  1

  0
LINE
  5
2311
330
22C9
100
AcDbEntity
  8
0
100
AcDbLine
 10
307.0220644301334
 20
1120.51194571678
 30
0.0
 11
280.6122428704526
 21
1120.51194571678
 31
0.0
  0
LINE
  5
2312
330
22C9
100
AcDbEntity
  8
0
100
AcDbLine
 10
307.0220644301334
 20
870.5119457167798
 30
0.0
 11
280.6122428704525
 21
870.5119457167798
 31
0.0
  0
LINE
  5
2313
330
22C9
100
AcDbEntity
  8
0
100
AcDbLine
 10
283.6122428704527
 20
1111.51194571678
 30
0.0
 11
283.6122428704525
 21
879.5119457167798
 31
0.0
  0
INSERT
  5
2314
330
22C9
100
AcDbEntity
  8
0
100
AcDbBlockReference
  2
_OPEN30
 10
283.6122428704527
 20
1120.51194571678
 30
0.0
 41
9.0
 42
9.0
 43
9.0
 50
90.0
  0
INSERT
  5
2315
330
22C9
100
AcDbEntity
  8
0
100
AcDbBlockReference
  2
_OPEN30
 10
283.6122428704525
 20
870.5119457167798
 30
0.0
 41
9.0
 42
9.0
 43
9.0
 50
270.0
  0
MTEXT
  5
2316
330
22C9
100
AcDbEntity
  8
0
370
    50
100
AcDbMText
 10
273.8622428704524
 20
995.5119457167798
 30
0.0
 40
10.5
 41
0.0
 71
     5
 72
     1
  1
250（A0J2）
 11
0.0000000000000001
 21
1.0
 31
0.0
 73
     1
 44
1.0
1001
ACAD
1000
MTEXTBEGIN
1070
    73
1070
     1
1070
    44
1040
1.0
1070
    74
1070
     0
1000
MTEXTEND
  0
POINT
  5
2317
330
22C9
100
AcDbEntity
  8
Defpoints
 62
     0
100
AcDbPoint
 10
313.0220644301334
 20
1120.51194571678
 30
0.0
  0
POINT
  5
2318
330
22C9
100
AcDbEntity
  8
Defpoints
 62
     0
100
AcDbPoint
 10
313.0220644301334
 20
870.5119457167798
 30
0.0
  0
POINT
  5
2319
330
22C9
100
AcDbEntity
  8
Defpoints
 62
     0
100
AcDbPoint
 10
283.6122428704525
 20
870.5119457167798
 30
0.0
  0
ENDBLK
  5
22D4
330
22C9
100
AcDbEntity
  8
0
100
AcDbBlockEnd
  0
BLOCK
  5
22DF
330
22D5
100
AcDbEntity
  8
0
100
AcDbBlockBegin
  2
*D49
 70
     1
 10
0.0
 20
0.0
 30
0.0
  3
*D49
  1

  0
LINE
  5
231A
330
22D5
100
AcDbEntity
  8
0
100
AcDbLine
 10
360.0220644301332
 20
1058.51194571678
 30
0.0
 11
360.0220644301332
 21
1147.51194572678
 31
0.0
  0
LINE
  5
231B
330
22D5
100
AcDbEntity
  8
0
100
AcDbLine
 10
319.0220644301334
 20
1124.91194571678
 30
0.0
 11
319.0220644301334
 21
1147.51194572678
 31
0.0
  0
LINE
  5
231C
330
22D5
100
AcDbEntity
  8
0
100
AcDbLine
 10
351.0220644301333
 20
1144.51194572678
 30
0.0
 11
319.0220644301334
 21
1144.51194572678
 31
0.0
  0
INSERT
  5
231D
330
22D5
100
AcDbEntity
  8
0
100
AcDbBlockReference
  2
_OPEN30
 10
360.0220644301332
 20
1144.51194572678
 30
0.0
 41
9.0
 42
9.0
 43
9.0
  0
INSERT
  5
231E
330
22D5
100
AcDbEntity
  8
0
100
AcDbBlockReference
  2
_DotSmall
 10
319.0220644301334
 20
1144.51194572678
 30
0.0
 41
9.0
 42
9.0
 43
9.0
 50
180.0
  0
MTEXT
  5
231F
330
22D5
100
AcDbEntity
  8
0
370
    50
100
AcDbMText
 10
335.0220644301333
 20
1154.26194572678
 30
0.0
 40
10.5
 41
0.0
 71
     5
 72
     1
  1
41
 73
     1
 44
1.0
1001
ACAD
1000
MTEXTBEGIN
1070
    73
1070
     1
1070
    44
1040
1.0
1070
    74
1070
     0
1000
MTEXTEND
  0
POINT
  5
2320
330
22D5
100
AcDbEntity
  8
Defpoints
 62
     0
100
AcDbPoint
 10
360.0220644301332
 20
1052.51194571678
 30
0.0
  0
POINT
  5
2321
330
22D5
100
AcDbEntity
  8
Defpoints
 62
     0
100
AcDbPoint
 10
319.0220644301334
 20
1118.91194571678
 30
0.0
  0
POINT
  5
2322
330
22D5
100
AcDbEntity
  8
Defpoints
 62
     0
100
AcDbPoint
 10
319.0220644301334
 20
1144.51194572678
 30
0.0
  0
ENDBLK
  5
22E0
330
22D5
100
AcDbEntity
  8
0
100
AcDbBlockEnd
  0
BLOCK
  5
22ED
330
22E1
100
AcDbEntity
  8
0
100
AcDbBlockBegin
  2
*D50
 70
     1
 10
0.0
 20
0.0
 30
0.0
  3
*D50
  1

  0
LINE
  5
2323
330
22E1
100
AcDbEntity
  8
0
100
AcDbLine
 10
319.0220644301334
 20
1124.91194571678
 30
0.0
 11
319.0220644301334
 21
1147.51194572678
 31
0.0
  0
LINE
  5
2324
330
22E1
100
AcDbEntity
  8
0
100
AcDbLine
 10
313.0220644301334
 20
1126.51194571678
 30
0.0
 11
313.0220644301334
 21
1147.51194572678
 31
0.0
  0
LINE
  5
2325
330
22E1
100
AcDbEntity
  8
0
100
AcDbLine
 10
319.0220644301334
 20
1144.51194572678
 30
0.0
 11
328.0220644301333
 21
1144.51194572678
 31
0.0
  0
LINE
  5
2326
330
22E1
100
AcDbEntity
  8
0
100
AcDbLine
 10
304.0220644301334
 20
1144.51194572678
 30
0.0
 11
279.0220644301334
 21
1144.51194572678
 31
0.0
  0
LINE
  5
2327
330
22E1
100
AcDbEntity
  8
0
100
AcDbLine
 10
319.0220644301334
 20
1144.51194572678
 30
0.0
 11
313.0220644301334
 21
1144.51194572678
 31
0.0
  0
INSERT
  5
2328
330
22E1
100
AcDbEntity
  8
0
100
AcDbBlockReference
  2
_DotSmall
 10
319.0220644301334
 20
1144.51194572678
 30
0.0
 41
9.0
 42
9.0
 43
9.0
 50
180.0
  0
INSERT
  5
2329
330
22E1
100
AcDbEntity
  8
0
100
AcDbBlockReference
  2
_OPEN30
 10
313.0220644301334
 20
1144.51194572678
 30
0.0
 41
9.0
 42
9.0
 43
9.0
  0
MTEXT
  5
232A
330
22E1
100
AcDbEntity
  8
0
370
    50
100
AcDbMText
 10
287.0220644301333
 20
1154.26194572678
 30
0.0
 40
10.5
 41
0.0
 71
     5
 72
     1
  1
6
 73
     1
 44
1.0
1001
ACAD
1000
MTEXTBEGIN
1070
    73
1070
     1
1070
    44
1040
1.0
1070
    74
1070
     0
1000
MTEXTEND
  0
POINT
  5
232B
330
22E1
100
AcDbEntity
  8
Defpoints
 62
     0
100
AcDbPoint
 10
319.0220644301334
 20
1118.91194571678
 30
0.0
  0
POINT
  5
232C
330
22E1
100
AcDbEntity
  8
Defpoints
 62
     0
100
AcDbPoint
 10
313.0220644301334
 20
1120.51194571678
 30
0.0
  0
POINT
  5
232D
330
22E1
100
AcDbEntity
  8
Defpoints
 62
     0
100
AcDbPoint
 10
313.0220644301334
 20
1144.51194572678
 30
0.0
  0
ENDBLK
  5
22EE
330
22E1
100
AcDbEntity
  8
0
100
AcDbBlockEnd
  0
BLOCK
  5
22F9
330
22EF
100
AcDbEntity
  8
0
100
AcDbBlockBegin
  2
*D51
 70
     1
 10
0.0
 20
0.0
 30
0.0
  3
*D51
  1

  0
LINE
  5
232E
330
22EF
100
AcDbEntity
  8
0
100
AcDbLine
 10
360.0220644301332
 20
1058.51194571678
 30
0.0
 11
360.0220644301332
 21
1167.51194572678
 31
0.0
  0
LINE
  5
232F
330
22EF
100
AcDbEntity
  8
0
100
AcDbLine
 10
313.0220644301334
 20
1126.51194571678
 30
0.0
 11
313.0220644301334
 21
1167.51194572678
 31
0.0
  0
LINE
  5
2330
330
22EF
100
AcDbEntity
  8
0
100
AcDbLine
 10
351.0220644301333
 20
1164.51194572678
 30
0.0
 11
322.0220644301333
 21
1164.51194572678
 31
0.0
  0
INSERT
  5
2331
330
22EF
100
AcDbEntity
  8
0
100
AcDbBlockReference
  2
_OPEN30
 10
360.0220644301332
 20
1164.51194572678
 30
0.0
 41
9.0
 42
9.0
 43
9.0
  0
INSERT
  5
2332
330
22EF
100
AcDbEntity
  8
0
100
AcDbBlockReference
  2
_OPEN30
 10
313.0220644301334
 20
1164.51194572678
 30
0.0
 41
9.0
 42
9.0
 43
9.0
 50
180.0
  0
MTEXT
  5
2333
330
22EF
100
AcDbEntity
  8
0
370
    50
100
AcDbMText
 10
336.5220644301333
 20
1174.26194572678
 30
0.0
 40
10.5
 41
0.0
 71
     5
 72
     1
  1
47
 73
     1
 44
1.0
1001
ACAD
1000
MTEXTBEGIN
1070
    73
1070
     1
1070
    44
1040
1.0
1070
    74
1070
     0
1000
MTEXTEND
  0
POINT
  5
2334
330
22EF
100
AcDbEntity
  8
Defpoints
 62
     0
100
AcDbPoint
 10
360.0220644301332
 20
1052.51194571678
 30
0.0
  0
POINT
  5
2335
330
22EF
100
AcDbEntity
  8
Defpoints
 62
     0
100
AcDbPoint
 10
313.0220644301334
 20
1120.51194571678
 30
0.0
  0
POINT
  5
2336
330
22EF
100
AcDbEntity
  8
Defpoints
 62
     0
100
AcDbPoint
 10
313.0220644301334
 20
1164.51194572678
 30
0.0
  0
ENDBLK
  5
22FA
330
22EF
100
AcDbEntity
  8
0
100
AcDbBlockEnd
  0
BLOCK
  5
2305
330
22FB
100
AcDbEntity
  8
0
100
AcDbBlockBegin
  2
*D52
 70
     1
 10
0.0
 20
0.0
 30
0.0
  3
*D52
  1

  0
LINE
  5
2337
330
22FB
100
AcDbEntity
  8
0
 62
     0
370
    -2
100
AcDbLine
 10
313.0220644301334
 20
1127.386945716779
 30
0.0
 11
313.0220644301334
 21
1194.137685129364
 31
0.0
  0
LINE
  5
2338
330
22FB
100
AcDbEntity
  8
0
 62
     0
370
    -2
100
AcDbLine
 10
389.0220644301334
 20
911.3869457167799
 30
0.0
 11
389.0220644301334
 21
1194.137685129364
 31
0.0
  0
LINE
  5
2339
330
22FB
100
AcDbEntity
  8
0
 62
     0
370
    -2
100
AcDbLine
 10
320.5220644301334
 20
1183.637685129364
 30
0.0
 11
381.5220644301334
 21
1183.637685129364
 31
0.0
  0
INSERT
  5
233A
330
22FB
100
AcDbEntity
  8
0
 62
     0
370
    -2
100
AcDbBlockReference
  2
_OPEN30
 10
313.0220644301334
 20
1183.637685129364
 30
0.0
 41
7.5
 42
7.5
 43
7.5
 50
180.0
  0
INSERT
  5
233B
330
22FB
100
AcDbEntity
  8
0
 62
     0
370
    -2
100
AcDbBlockReference
  2
_OPEN30
 10
389.0220644301334
 20
1183.637685129364
 30
0.0
 41
7.5
 42
7.5
 43
7.5
  0
MTEXT
  5
233C
330
22FB
100
AcDbEntity
  8
0
 62
     0
370
    50
100
AcDbMText
 10
351.0220644301333
 20
1193.387685129364
 30
0.0
 40
10.5
 41
0.0
 71
     5
 72
     1
  1
77
 73
     1
 44
1.0
1001
ACAD
1000
MTEXTBEGIN
1070
    73
1070
     1
1070
    44
1040
1.0
1070
    74
1070
     0
1000
MTEXTEND
  0
POINT
  5
233D
330
22FB
100
AcDbEntity
  8
Defpoints
 62
     0
100
AcDbPoint
 10
313.0220644301334
 20
1125.511945716779
 30
0.0
  0
POINT
  5
233E
330
22FB
100
AcDbEntity
  8
Defpoints
 62
     0
100
AcDbPoint
 10
389.0220644301334
 20
909.5119457167799
 30
0.0
  0
POINT
  5
233F
330
22FB
100
AcDbEntity
  8
Defpoints
 62
     0
100
AcDbPoint
 10
389.0220644301334
 20
1183.637685129364
 30
0.0
  0
ENDBLK
  5
2306
330
22FB
100
AcDbEntity
  8
0
100
AcDbBlockEnd
  0
BLOCK
  5
235D
330
235C
100
AcDbEntity
  8
0
100
AcDbBlockBegin
  2
*D53
 70
     1
 10
0.0
 20
0.0
 30
0.0
  3
*D53
  1

  0
LINE
  5
235E
330
235C
100
AcDbEntity
  8
0
100
AcDbLine
 10
675.6083380768477
 20
226.3043252852378
 30
0.0
 11
675.6083380768477
 21
200.5224716890108
 31
0.0
  0
LINE
  5
235F
330
235C
100
AcDbEntity
  8
0
100
AcDbLine
 10
553.6083380768476
 20
226.304325285238
 30
0.0
 11
553.6083380768476
 21
200.5224716890108
 31
0.0
  0
LINE
  5
2360
330
235C
100
AcDbEntity
  8
0
100
AcDbLine
 10
666.6083380768477
 20
203.5224716890108
 30
0.0
 11
562.6083380768476
 21
203.5224716890108
 31
0.0
  0
INSERT
  5
2361
330
235C
100
AcDbEntity
  8
0
100
AcDbBlockReference
  2
_OPEN30
 10
675.6083380768477
 20
203.5224716890108
 30
0.0
 41
9.0
 42
9.0
 43
9.0
  0
INSERT
  5
2362
330
235C
100
AcDbEntity
  8
0
100
AcDbBlockReference
  2
_OPEN30
 10
553.6083380768476
 20
203.5224716890108
 30
0.0
 41
9.0
 42
9.0
 43
9.0
 50
180.0
  0
MTEXT
  5
2363
330
235C
100
AcDbEntity
  8
0
370
    50
100
AcDbMText
 10
619.1664428231106
 20
213.2724716890108
 30
0.0
 40
10.5
 41
0.0
 71
     5
 72
     1
  1
122（取付ピッチ）
 73
     1
 44
1.0
1001
ACAD
1000
MTEXTBEGIN
1070
    73
1070
     1
1070
    44
1040
1.0
1070
    74
1070
     0
1000
MTEXTEND
  0
POINT
  5
2364
330
235C
100
AcDbEntity
  8
Defpoints
 62
     0
100
AcDbPoint
 10
675.6083380768477
 20
232.3043252852378
 30
0.0
  0
POINT
  5
2365
330
235C
100
AcDbEntity
  8
Defpoints
 62
     0
100
AcDbPoint
 10
553.6083380768476
 20
232.304325285238
 30
0.0
  0
POINT
  5
2366
330
235C
100
AcDbEntity
  8
Defpoints
 62
     0
100
AcDbPoint
 10
553.6083380768476
 20
203.5224716890108
 30
0.0
  0
ENDBLK
  5
2367
330
235C
100
AcDbEntity
  8
0
100
AcDbBlockEnd
  0
BLOCK
  5
2369
330
2368
100
AcDbEntity
  8
0
100
AcDbBlockBegin
  2
*D54
 70
     1
 10
0.0
 20
0.0
 30
0.0
  3
*D54
  1

  0
LINE
  5
236A
330
2368
100
AcDbEntity
  8
0
100
AcDbLine
 10
680.6083380768477
 20
224.914325285238
 30
0.0
 11
680.6083380768477
 21
170.2650511968239
 31
0.0
  0
LINE
  5
236B
330
2368
100
AcDbEntity
  8
0
100
AcDbLine
 10
548.6083380768476
 20
224.914325285238
 30
0.0
 11
548.6083380768476
 21
170.2650511968239
 31
0.0
  0
LINE
  5
236C
330
2368
100
AcDbEntity
  8
0
100
AcDbLine
 10
671.6083380768477
 20
173.2650511968239
 30
0.0
 11
557.6083380768476
 21
173.2650511968239
 31
0.0
  0
INSERT
  5
236D
330
2368
100
AcDbEntity
  8
0
100
AcDbBlockReference
  2
_OPEN30
 10
680.6083380768477
 20
173.2650511968239
 30
0.0
 41
9.0
 42
9.0
 43
9.0
  0
INSERT
  5
236E
330
2368
100
AcDbEntity
  8
0
100
AcDbBlockReference
  2
_OPEN30
 10
548.6083380768476
 20
173.2650511968239
 30
0.0
 41
9.0
 42
9.0
 43
9.0
 50
180.0
  0
MTEXT
  5
236F
330
2368
100
AcDbEntity
  8
0
370
    50
100
AcDbMText
 10
614.6083380768478
 20
183.0150511968239
 30
0.0
 40
10.5
 41
0.0
 71
     5
 72
     1
  1
132
 73
     1
 44
1.0
1001
ACAD
1000
MTEXTBEGIN
1070
    73
1070
     1
1070
    44
1040
1.0
1070
    74
1070
     0
1000
MTEXTEND
  0
POINT
  5
2370
330
2368
100
AcDbEntity
  8
Defpoints
 62
     0
100
AcDbPoint
 10
680.6083380768477
 20
230.9143252852379
 30
0.0
  0
POINT
  5
2371
330
2368
100
AcDbEntity
  8
Defpoints
 62
     0
100
AcDbPoint
 10
548.6083380768476
 20
230.9143252852379
 30
0.0
  0
POINT
  5
2372
330
2368
100
AcDbEntity
  8
Defpoints
 62
     0
100
AcDbPoint
 10
548.6083380768476
 20
173.2650511968239
 30
0.0
  0
ENDBLK
  5
2373
330
2368
100
AcDbEntity
  8
0
100
AcDbBlockEnd
  0
BLOCK
  5
2375
330
2374
100
AcDbEntity
  8
0
100
AcDbBlockBegin
  2
*D55
 70
     1
 10
0.0
 20
0.0
 30
0.0
  3
*D55
  1

  0
LINE
  5
2376
330
2374
100
AcDbEntity
  8
0
100
AcDbLine
 10
684.2183380768476
 20
234.9143252852378
 30
0.0
 11
705.2183380768476
 21
234.9143252852378
 31
0.0
  0
LINE
  5
2377
330
2374
100
AcDbEntity
  8
0
100
AcDbLine
 10
684.2183380768477
 20
472.9143252852376
 30
0.0
 11
705.2183380768476
 21
472.9143252852376
 31
0.0
  0
LINE
  5
2378
330
2374
100
AcDbEntity
  8
0
100
AcDbLine
 10
702.2183380768476
 20
243.9143252852379
 30
0.0
 11
702.2183380768476
 21
463.9143252852377
 31
0.0
  0
INSERT
  5
2379
330
2374
100
AcDbEntity
  8
0
100
AcDbBlockReference
  2
_OPEN30
 10
702.2183380768476
 20
234.9143252852378
 30
0.0
 41
9.0
 42
9.0
 43
9.0
 50
270.0
  0
INSERT
  5
237A
330
2374
100
AcDbEntity
  8
0
100
AcDbBlockReference
  2
_OPEN30
 10
702.2183380768476
 20
472.9143252852376
 30
0.0
 41
9.0
 42
9.0
 43
9.0
 50
90.0
  0
MTEXT
  5
237B
330
2374
100
AcDbEntity
  8
0
370
    50
100
AcDbMText
 10
692.4683380768477
 20
353.914325285238
 30
0.0
 40
10.5
 41
0.0
 71
     5
 72
     1
  1
238（取付ピッチ）
 11
0.0000000000000001
 21
1.0
 31
0.0
 73
     1
 44
1.0
1001
ACAD
1000
MTEXTBEGIN
1070
    73
1070
     1
1070
    44
1040
1.0
1070
    74
1070
     0
1000
MTEXTEND
  0
POINT
  5
237C
330
2374
100
AcDbEntity
  8
Defpoints
 62
     0
100
AcDbPoint
 10
678.2183380768477
 20
234.9143252852378
 30
0.0
  0
POINT
  5
237D
330
2374
100
AcDbEntity
  8
Defpoints
 62
     0
100
AcDbPoint
 10
678.2183380768477
 20
472.9143252852376
 30
0.0
  0
POINT
  5
237E
330
2374
100
AcDbEntity
  8
Defpoints
 62
     0
100
AcDbPoint
 10
702.2183380768476
 20
472.9143252852376
 30
0.0
  0
ENDBLK
  5
237F
330
2374
100
AcDbEntity
  8
0
100
AcDbBlockEnd
  0
BLOCK
  5
2381
330
2380
100
AcDbEntity
  8
0
100
AcDbBlockBegin
  2
*D56
 70
     1
 10
0.0
 20
0.0
 30
0.0
  3
*D56
  1

  0
LINE
  5
2382
330
2380
100
AcDbEntity
  8
0
100
AcDbLine
 10
684.6083380768477
 20
228.914325285238
 30
0.0
 11
725.2183380768476
 21
228.9143252852378
 31
0.0
  0
LINE
  5
2383
330
2380
100
AcDbEntity
  8
0
100
AcDbLine
 10
684.6083380768477
 20
478.9143252852378
 30
0.0
 11
725.2183380768476
 21
478.9143252852378
 31
0.0
  0
LINE
  5
2384
330
2380
100
AcDbEntity
  8
0
100
AcDbLine
 10
722.2183380768476
 20
237.9143252852378
 30
0.0
 11
722.2183380768476
 21
469.9143252852378
 31
0.0
  0
INSERT
  5
2385
330
2380
100
AcDbEntity
  8
0
100
AcDbBlockReference
  2
_OPEN30
 10
722.2183380768476
 20
228.9143252852378
 30
0.0
 41
9.0
 42
9.0
 43
9.0
 50
270.0
  0
INSERT
  5
2386
330
2380
100
AcDbEntity
  8
0
100
AcDbBlockReference
  2
_OPEN30
 10
722.2183380768476
 20
478.9143252852378
 30
0.0
 41
9.0
 42
9.0
 43
9.0
 50
90.0
  0
MTEXT
  5
2387
330
2380
100
AcDbEntity
  8
0
370
    50
100
AcDbMText
 10
712.4683380768476
 20
353.914325285238
 30
0.0
 40
10.5
 41
0.0
 71
     5
 72
     1
  1
250
 11
0.0000000000000001
 21
1.0
 31
0.0
 73
     1
 44
1.0
1001
ACAD
1000
MTEXTBEGIN
1070
    73
1070
     1
1070
    44
1040
1.0
1070
    74
1070
     0
1000
MTEXTEND
  0
POINT
  5
2388
330
2380
100
AcDbEntity
  8
Defpoints
 62
     0
100
AcDbPoint
 10
678.6083380768477
 20
228.914325285238
 30
0.0
  0
POINT
  5
2389
330
2380
100
AcDbEntity
  8
Defpoints
 62
     0
100
AcDbPoint
 10
678.6083380768477
 20
478.9143252852378
 30
0.0
  0
POINT
  5
238A
330
2380
100
AcDbEntity
  8
Defpoints
 62
     0
100
AcDbPoint
 10
722.2183380768476
 20
478.9143252852378
 30
0.0
  0
ENDBLK
  5
238B
330
2380
100
AcDbEntity
  8
0
100
AcDbBlockEnd
  0
BLOCK
  5
25CC
330
25C2
100
AcDbEntity
  8
0
100
AcDbBlockBegin
  2
*D57
 70
     1
 10
0.0
 20
0.0
 30
0.0
  3
*D57
  1

  0
LINE
  5
25F2
330
25C2
100
AcDbEntity
  8
0
100
AcDbLine
 10
566.3069107426452
 20
867.9019457167797
 30
0.0
 11
566.3069107426452
 21
842.1200921205528
 31
0.0
  0
LINE
  5
25F3
330
25C2
100
AcDbEntity
  8
0
100
AcDbLine
 10
444.3069107426453
 20
867.9019457167797
 30
0.0
 11
444.3069107426453
 21
842.1200921205528
 31
0.0
  0
LINE
  5
25F4
330
25C2
100
AcDbEntity
  8
0
100
AcDbLine
 10
557.3069107426452
 20
845.1200921205527
 30
0.0
 11
453.3069107426453
 21
845.1200921205527
 31
0.0
  0
INSERT
  5
25F5
330
25C2
100
AcDbEntity
  8
0
100
AcDbBlockReference
  2
_OPEN30
 10
566.3069107426452
 20
845.1200921205527
 30
0.0
 41
9.0
 42
9.0
 43
9.0
  0
INSERT
  5
25F6
330
25C2
100
AcDbEntity
  8
0
100
AcDbBlockReference
  2
_OPEN30
 10
444.3069107426453
 20
845.1200921205527
 30
0.0
 41
9.0
 42
9.0
 43
9.0
 50
180.0
  0
MTEXT
  5
25F7
330
25C2
100
AcDbEntity
  8
0
370
    50
100
AcDbMText
 10
509.8650154889083
 20
854.8700921205528
 30
0.0
 40
10.5
 41
0.0
 71
     5
 72
     1
  1
122（取付ピッチ）
 73
     1
 44
1.0
1001
ACAD
1000
MTEXTBEGIN
1070
    73
1070
     1
1070
    44
1040
1.0
1070
    74
1070
     0
1000
MTEXTEND
  0
POINT
  5
25F8
330
25C2
100
AcDbEntity
  8
Defpoints
 62
     0
100
AcDbPoint
 10
566.3069107426452
 20
873.9019457167799
 30
0.0
  0
POINT
  5
25F9
330
25C2
100
AcDbEntity
  8
Defpoints
 62
     0
100
AcDbPoint
 10
444.3069107426453
 20
873.9019457167799
 30
0.0
  0
POINT
  5
25FA
330
25C2
100
AcDbEntity
  8
Defpoints
 62
     0
100
AcDbPoint
 10
444.3069107426453
 20
845.1200921205527
 30
0.0
  0
ENDBLK
  5
25CD
330
25C2
100
AcDbEntity
  8
0
100
AcDbBlockEnd
  0
BLOCK
  5
25D8
330
25CE
100
AcDbEntity
  8
0
100
AcDbBlockBegin
  2
*D58
 70
     1
 10
0.0
 20
0.0
 30
0.0
  3
*D58
  1

  0
LINE
  5
25FB
330
25CE
100
AcDbEntity
  8
0
100
AcDbLine
 10
571.3069107426453
 20
866.5119457167799
 30
0.0
 11
571.3069107426453
 21
811.8626716283657
 31
0.0
  0
LINE
  5
25FC
330
25CE
100
AcDbEntity
  8
0
100
AcDbLine
 10
439.3069107426454
 20
866.5119457167799
 30
0.0
 11
439.3069107426454
 21
811.8626716283657
 31
0.0
  0
LINE
  5
25FD
330
25CE
100
AcDbEntity
  8
0
100
AcDbLine
 10
562.306910742645
 20
814.8626716283658
 30
0.0
 11
448.3069107426453
 21
814.8626716283658
 31
0.0
  0
INSERT
  5
25FE
330
25CE
100
AcDbEntity
  8
0
100
AcDbBlockReference
  2
_OPEN30
 10
571.3069107426453
 20
814.8626716283658
 30
0.0
 41
9.0
 42
9.0
 43
9.0
  0
INSERT
  5
25FF
330
25CE
100
AcDbEntity
  8
0
100
AcDbBlockReference
  2
_OPEN30
 10
439.3069107426454
 20
814.8626716283658
 30
0.0
 41
9.0
 42
9.0
 43
9.0
 50
180.0
  0
MTEXT
  5
2600
330
25CE
100
AcDbEntity
  8
0
370
    50
100
AcDbMText
 10
505.3069107426453
 20
824.6126716283658
 30
0.0
 40
10.5
 41
0.0
 71
     5
 72
     1
  1
132
 73
     1
 44
1.0
1001
ACAD
1000
MTEXTBEGIN
1070
    73
1070
     1
1070
    44
1040
1.0
1070
    74
1070
     0
1000
MTEXTEND
  0
POINT
  5
2601
330
25CE
100
AcDbEntity
  8
Defpoints
 62
     0
100
AcDbPoint
 10
571.3069107426453
 20
872.5119457167799
 30
0.0
  0
POINT
  5
2602
330
25CE
100
AcDbEntity
  8
Defpoints
 62
     0
100
AcDbPoint
 10
439.3069107426454
 20
872.5119457167799
 30
0.0
  0
POINT
  5
2603
330
25CE
100
AcDbEntity
  8
Defpoints
 62
     0
100
AcDbPoint
 10
439.3069107426454
 20
814.8626716283658
 30
0.0
  0
ENDBLK
  5
25D9
330
25CE
100
AcDbEntity
  8
0
100
AcDbBlockEnd
  0
BLOCK
  5
25E4
330
25DA
100
AcDbEntity
  8
0
100
AcDbBlockBegin
  2
*D59
 70
     1
 10
0.0
 20
0.0
 30
0.0
  3
*D59
  1

  0
LINE
  5
2604
330
25DA
100
AcDbEntity
  8
0
100
AcDbLine
 10
574.9169107426452
 20
876.5119457167799
 30
0.0
 11
595.9169107426453
 21
876.5119457167799
 31
0.0
  0
LINE
  5
2605
330
25DA
100
AcDbEntity
  8
0
100
AcDbLine
 10
574.9169107426452
 20
1114.51194571678
 30
0.0
 11
595.9169107426453
 21
1114.51194571678
 31
0.0
  0
LINE
  5
2606
330
25DA
100
AcDbEntity
  8
0
100
AcDbLine
 10
592.9169107426453
 20
885.5119457167798
 30
0.0
 11
592.9169107426453
 21
1105.51194571678
 31
0.0
  0
INSERT
  5
2607
330
25DA
100
AcDbEntity
  8
0
100
AcDbBlockReference
  2
_OPEN30
 10
592.9169107426453
 20
876.5119457167799
 30
0.0
 41
9.0
 42
9.0
 43
9.0
 50
270.0
  0
INSERT
  5
2608
330
25DA
100
AcDbEntity
  8
0
100
AcDbBlockReference
  2
_OPEN30
 10
592.9169107426453
 20
1114.51194571678
 30
0.0
 41
9.0
 42
9.0
 43
9.0
 50
90.0
  0
MTEXT
  5
2609
330
25DA
100
AcDbEntity
  8
0
370
    50
100
AcDbMText
 10
583.1669107426453
 20
995.5119457167802
 30
0.0
 40
10.5
 41
0.0
 71
     5
 72
     1
  1
238（取付ピッチ）
 11
0.0000000000000001
 21
1.0
 31
0.0
 73
     1
 44
1.0
1001
ACAD
1000
MTEXTBEGIN
1070
    73
1070
     1
1070
    44
1040
1.0
1070
    74
1070
     0
1000
MTEXTEND
  0
POINT
  5
260A
330
25DA
100
AcDbEntity
  8
Defpoints
 62
     0
100
AcDbPoint
 10
568.9169107426453
 20
876.5119457167799
 30
0.0
  0
POINT
  5
260B
330
25DA
100
AcDbEntity
  8
Defpoints
 62
     0
100
AcDbPoint
 10
568.9169107426453
 20
1114.51194571678
 30
0.0
  0
POINT
  5
260C
330
25DA
100
AcDbEntity
  8
Defpoints
 62
     0
100
AcDbPoint
 10
592.9169107426453
 20
1114.51194571678
 30
0.0
  0
ENDBLK
  5
25E5
330
25DA
100
AcDbEntity
  8
0
100
AcDbBlockEnd
  0
BLOCK
  5
25F0
330
25E6
100
AcDbEntity
  8
0
100
AcDbBlockBegin
  2
*D60
 70
     1
 10
0.0
 20
0.0
 30
0.0
  3
*D60
  1

  0
LINE
  5
260D
330
25E6
100
AcDbEntity
  8
0
100
AcDbLine
 10
575.3069107426453
 20
870.5119457167798
 30
0.0
 11
615.9169107426452
 21
870.5119457167798
 31
0.0
  0
LINE
  5
260E
330
25E6
100
AcDbEntity
  8
0
100
AcDbLine
 10
575.3069107426453
 20
1120.51194571678
 30
0.0
 11
615.9169107426452
 21
1120.51194571678
 31
0.0
  0
LINE
  5
260F
330
25E6
100
AcDbEntity
  8
0
100
AcDbLine
 10
612.9169107426453
 20
879.5119457167798
 30
0.0
 11
612.9169107426453
 21
1111.51194571678
 31
0.0
  0
INSERT
  5
2610
330
25E6
100
AcDbEntity
  8
0
100
AcDbBlockReference
  2
_OPEN30
 10
612.9169107426453
 20
870.5119457167798
 30
0.0
 41
9.0
 42
9.0
 43
9.0
 50
270.0
  0
INSERT
  5
2611
330
25E6
100
AcDbEntity
  8
0
100
AcDbBlockReference
  2
_OPEN30
 10
612.9169107426453
 20
1120.51194571678
 30
0.0
 41
9.0
 42
9.0
 43
9.0
 50
90.0
  0
MTEXT
  5
2612
330
25E6
100
AcDbEntity
  8
0
370
    50
100
AcDbMText
 10
603.1669107426453
 20
995.5119457167802
 30
0.0
 40
10.5
 41
0.0
 71
     5
 72
     1
  1
250
 11
0.0000000000000001
 21
1.0
 31
0.0
 73
     1
 44
1.0
1001
ACAD
1000
MTEXTBEGIN
1070
    73
1070
     1
1070
    44
1040
1.0
1070
    74
1070
     0
1000
MTEXTEND
  0
POINT
  5
2613
330
25E6
100
AcDbEntity
  8
Defpoints
 62
     0
100
AcDbPoint
 10
569.3069107426453
 20
870.5119457167798
 30
0.0
  0
POINT
  5
2614
330
25E6
100
AcDbEntity
  8
Defpoints
 62
     0
100
AcDbPoint
 10
569.3069107426453
 20
1120.51194571678
 30
0.0
  0
POINT
  5
2615
330
25E6
100
AcDbEntity
  8
Defpoints
 62
     0
100
AcDbPoint
 10
612.9169107426453
 20
1120.51194571678
 30
0.0
  0
ENDBLK
  5
25F1
330
25E6
100
AcDbEntity
  8
0
100
AcDbBlockEnd
  0
ENDSEC
  0
SECTION
  2
ENTITIES
  0
MTEXT
  5
17E6
330
1F
100
AcDbEntity
  8
0
100
AcDbMText
 10
230.6027729199113
 20
1316.437581740838
 30
0.0
 40
20.0
 41
514.2231560346719
 71
     1
 72
     5
  1
{\fMS Gothic|b0|i0|c128|p49;別置きタイプ小型１段積み\P固定台セット SC-A0JQBSS使用}
 73
     1
 44
1.0
1001
ACAD
1000
ACAD_MTEXT_DEFINED_HEIGHT_BEGIN
1070
    46
1040
60.37234859499813
1000
ACAD_MTEXT_DEFINED_HEIGHT_END
1000
MTEXTBEGIN
1070
    73
1070
     1
1070
    44
1040
1.0
1070
    74
1070
     0
1000
MTEXTEND
  0
LWPOLYLINE
  5
2277
330
1F
100
AcDbEntity
  8
0
370
    50
100
AcDbPolyline
 90
        2
 70
     0
 43
0.0
 10
313.0220644301334
 20
1120.51194571678
 10
313.0220644301334
 20
870.5119457167798
  0
LWPOLYLINE
  5
2278
330
1F
100
AcDbEntity
  8
かくれ線
 62
     7
370
    50
100
AcDbPolyline
 90
        2
 70
     0
 43
0.0
 10
395.0220644301333
 20
1120.51194571678
 10
395.0220644301333
 20
870.5119457167798
  0
LWPOLYLINE
  5
2279
330
1F
100
AcDbEntity
  8
かくれ線
 62
     7
370
    50
100
AcDbPolyline
 90
        2
 70
     0
 43
0.0
 10
395.0220644301333
 20
870.5119457167798
 10
313.0220644301334
 20
870.5119457167798
  0
LWPOLYLINE
  5
227A
330
1F
100
AcDbEntity
  8
かくれ線
 62
     7
370
    50
100
AcDbPolyline
 90
        2
 70
     0
 43
0.0
 10
395.0220644301333
 20
1120.51194571678
 10
313.0220644301334
 20
1120.51194571678
  0
DIMENSION
  5
227B
330
1F
100
AcDbEntity
  8
0
370
    50
100
AcDbDimension
  2
*D47
 10
313.0220644301334
 20
835.3700921205527
 30
0.0
 11
257.3470644301333
 21
845.1200921205527
 31
0.0
 70
    32
  1
<>（A0J2）
 71
     5
 42
81.99999999999986
  3
AM_JIS$0
100
AcDbAlignedDimension
 13
395.0220644301333
 23
870.5119457167798
 33
0.0
 14
313.0220644301334
 24
870.5119457167798
 34
0.0
100
AcDbRotatedDimension
1001
ACAD_DSTYLE_DIMINSPECT
1070
   396
1000
100%
1070
   395
1000

1070
   394
1070
    33
1070
   393
1070
     0
1001
ACAD
1000
DSTYLE
1002
{
1070
    40
1040
3.0
1002
}
  0
DIMENSION
  5
227C
330
1F
100
AcDbEntity
  8
0
370
    50
100
AcDbDimension
  2
*D48
 10
283.6122428704525
 20
870.5119457167798
 30
0.0
 11
273.8622428704524
 21
995.5119457167798
 31
0.0
 70
    32
  1
<>（A0J2）
 71
     5
 42
249.9999999999998
  3
AM_JIS$0
100
AcDbAlignedDimension
 13
313.0220644301334
 23
1120.51194571678
 33
0.0
 14
313.0220644301334
 24
870.5119457167798
 34
0.0
 50
270.0
100
AcDbRotatedDimension
1001
ACAD_DSTYLE_DIMINSPECT
1070
   396
1000
100%
1070
   395
1000

1070
   394
1070
    33
1070
   393
1070
     0
1001
ACAD
1000
DSTYLE
1002
{
1070
    40
1040
3.0
1002
}
  0
DIMENSION
  5
227D
330
1F
100
AcDbEntity
  8
0
370
    50
100
AcDbDimension
  2
*D49
 10
319.0220644301334
 20
1144.51194572678
 30
0.0
 11
335.0220644301333
 21
1154.26194572678
 31
0.0
 70
    32
 71
     5
 42
40.99999999999988
  3
AM_JIS$0
100
AcDbAlignedDimension
 13
360.0220644301332
 23
1052.51194571678
 33
0.0
 14
319.0220644301334
 24
1118.91194571678
 34
0.0
100
AcDbRotatedDimension
1001
ACAD_DSTYLE_DIMINSPECT
1070
   396
1000
100%
1070
   395
1000

1070
   394
1070
    33
1070
   393
1070
     0
1001
ACAD
1000
DSTYLE
1002
{
1070
   343
1005
F7
1070
   342
1005
0
1070
   173
1070
     1
1070
   344
1005
FD
1070
    40
1040
3.0
1002
}
  0
DIMENSION
  5
227E
330
1F
100
AcDbEntity
  8
0
370
    50
100
AcDbDimension
  2
*D50
 10
313.0220644301334
 20
1144.51194572678
 30
0.0
 11
287.0220644301333
 21
1154.26194572678
 31
0.0
 70
    32
 71
     5
 42
6.0
  3
AM_JIS$0
100
AcDbAlignedDimension
 13
319.0220644301334
 23
1118.91194571678
 33
0.0
 14
313.0220644301334
 24
1120.51194571678
 34
0.0
100
AcDbRotatedDimension
1001
ACAD_DSTYLE_DIMINSPECT
1070
   396
1000
100%
1070
   395
1000

1070
   394
1070
    33
1070
   393
1070
     0
1001
ACAD
1000
DSTYLE
1002
{
1070
   343
1005
FD
1070
   342
1005
0
1070
   173
1070
     1
1070
   344
1005
F7
1070
    40
1040
3.0
1002
}
  0
DIMENSION
  5
227F
330
1F
100
AcDbEntity
  8
0
370
    50
100
AcDbDimension
  2
*D51
 10
313.0220644301334
 20
1164.51194572678
 30
0.0
 11
336.5220644301333
 21
1174.26194572678
 31
0.0
 70
    32
 71
     5
 42
46.99999999999988
  3
AM_JIS$0
100
AcDbAlignedDimension
 13
360.0220644301332
 23
1052.51194571678
 33
0.0
 14
313.0220644301334
 24
1120.51194571678
 34
0.0
100
AcDbRotatedDimension
1001
ACAD_DSTYLE_DIMINSPECT
1070
   396
1000
100%
1070
   395
1000

1070
   394
1070
    33
1070
   393
1070
     0
1001
ACAD
1000
DSTYLE
1002
{
1070
    40
1040
3.0
1002
}
  0
LINE
  5
2280
330
1F
100
AcDbEntity
  8
0
370
    50
100
AcDbLine
 10
317.4220644301333
 20
1110.11194571678
 30
0.0
 11
317.4220644301333
 21
1118.91194571678
 31
0.0
  0
LINE
  5
2281
330
1F
100
AcDbEntity
  8
0
370
    50
100
AcDbLine
 10
317.4220644301333
 20
1118.91194571678
 30
0.0
 11
314.4220644301333
 21
1118.91194571678
 31
0.0
  0
HATCH
  5
2282
330
1F
100
AcDbEntity
  8
0
370
    50
100
AcDbHatch
 10
0.0
 20
0.0
 30
0.0
210
0.0
220
0.0
230
1.0
  2
DOTS
 70
     0
 71
     1
 91
        1
 92
       33
 93
       13
 72
     1
 10
313.0220644301334
 20
1118.51194571678
 11
313.0220644301334
 21
872.5119457167799
 72
     1
 10
313.0220644301334
 20
1120.51194571678
 11
313.0220644301334
 21
1118.51194571678
 72
     1
 10
314.4220644301333
 20
1120.51194571678
 11
313.0220644301334
 21
1120.51194571678
 72
     1
 10
314.4220644301333
 20
1120.51194571678
 11
317.4220644301333
 21
1120.51194571678
 72
     2
 10
317.4220644301333
 20
1118.91194571678
 40
1.6
 50
0.0
 51
90.0
 73
     1
 72
     1
 10
319.0220644301334
 20
1108.51194571678
 11
319.0220644301334
 21
1118.91194571678
 72
     1
 10
319.0220644301334
 20
1052.51194571678
 11
319.0220644301334
 21
1108.51194571678
 72
     1
 10
319.0220644301334
 20
880.5119457167801
 11
319.0220644301334
 21
1052.51194571678
 72
     1
 10
319.0220644301334
 20
870.5119457167802
 11
319.0220644301334
 21
880.5119457167801
 72
     2
 10
317.4220644301333
 20
872.11194571678
 40
1.599999999999999
 50
270.0
 51
360.0
 73
     1
 72
     1
 10
317.4220644301333
 20
870.5119457167798
 11
314.4220644301333
 21
870.5119457167798
 72
     1
 10
313.0220644301334
 20
870.5119457167798
 11
314.4220644301333
 21
870.5119457167798
 72
     1
 10
313.0220644301334
 20
872.5119457167799
 11
313.0220644301334
 21
870.5119457167798
 97
       13
330
228C
330
2289
330
2287
330
2283
330
229A
330
2296
330
2295
330
22A9
330
22AC
330
2297
330
228F
330
2285
330
2286
 75
     0
 76
     1
 52
0.0
 41
2.0
 77
     0
 78
     1
 53
0.0
 43
-109.3014273342023
 44
641.5976204315419
 45
1.587499999999999
 46
3.174999999999998
 79
     2
 49
0.0
 49
-3.174999999999998
 98
        1
 10
-109.3014273342023
 20
641.5976204315419
1001
ACAD
1010
0.0
1020
0.0
1030
0.0
  0
LINE
  5
2283
102
{ACAD_REACTORS
330
2282
102
}
330
1F
100
AcDbEntity
  8
0
370
    50
100
AcDbLine
 10
314.4220644301333
 20
1120.51194571678
 30
0.0
 11
317.4220644301333
 21
1120.51194571678
 31
0.0
  0
LINE
  5
2284
330
1F
100
AcDbEntity
  8
0
370
    50
100
AcDbLine
 10
314.4220644301333
 20
870.5119457167798
 30
0.0
 11
314.4220644301333
 21
872.5119457167799
 31
0.0
  0
LINE
  5
2285
102
{ACAD_REACTORS
330
2282
102
}
330
1F
100
AcDbEntity
  8
0
370
    50
100
AcDbLine
 10
313.0220644301334
 20
870.5119457167798
 30
0.0
 11
314.4220644301333
 21
870.5119457167798
 31
0.0
  0
LINE
  5
2286
102
{ACAD_REACTORS
330
2282
102
}
330
1F
100
AcDbEntity
  8
0
370
    50
100
AcDbLine
 10
313.0220644301334
 20
872.5119457167799
 30
0.0
 11
313.0220644301334
 21
870.5119457167798
 31
0.0
  0
LINE
  5
2287
102
{ACAD_REACTORS
330
2282
102
}
330
1F
100
AcDbEntity
  8
0
370
    50
100
AcDbLine
 10
314.4220644301333
 20
1120.51194571678
 30
0.0
 11
313.0220644301334
 21
1120.51194571678
 31
0.0
  0
LINE
  5
2288
330
1F
100
AcDbEntity
  8
0
370
    50
100
AcDbLine
 10
314.4220644301333
 20
1118.51194571678
 30
0.0
 11
314.4220644301333
 21
1120.51194571678
 31
0.0
  0
LINE
  5
2289
102
{ACAD_REACTORS
330
2282
102
}
330
1F
100
AcDbEntity
  8
0
370
    50
100
AcDbLine
 10
313.0220644301334
 20
1120.51194571678
 30
0.0
 11
313.0220644301334
 21
1118.51194571678
 31
0.0
  0
LINE
  5
228A
330
1F
100
AcDbEntity
  8
0
370
    50
100
AcDbLine
 10
314.4220644301333
 20
882.5119457167799
 30
0.0
 11
314.4220644301333
 21
872.5119457167799
 31
0.0
  0
LINE
  5
228B
330
1F
100
AcDbEntity
  8
0
370
    50
100
AcDbLine
 10
314.4220644301333
 20
872.5119457167799
 30
0.0
 11
313.0220644301334
 21
872.5119457167799
 31
0.0
  0
LINE
  5
228C
102
{ACAD_REACTORS
330
2282
102
}
330
1F
100
AcDbEntity
  8
0
370
    50
100
AcDbLine
 10
313.0220644301334
 20
1118.51194571678
 30
0.0
 11
313.0220644301334
 21
872.5119457167799
 31
0.0
  0
LINE
  5
228D
330
1F
100
AcDbEntity
  8
0
370
    50
100
AcDbLine
 10
313.0220644301334
 20
1118.51194571678
 30
0.0
 11
314.4220644301333
 21
1118.51194571678
 31
0.0
  0
LINE
  5
228E
330
1F
100
AcDbEntity
  8
0
370
    50
100
AcDbLine
 10
314.4220644301333
 20
1118.51194571678
 30
0.0
 11
314.4220644301333
 21
1108.51194571678
 31
0.0
  0
LINE
  5
228F
102
{ACAD_REACTORS
330
2282
102
}
330
1F
100
AcDbEntity
  8
0
370
    50
100
AcDbLine
 10
317.4220644301333
 20
870.5119457167798
 30
0.0
 11
314.4220644301333
 21
870.5119457167798
 31
0.0
  0
LINE
  5
2290
330
1F
100
AcDbEntity
  8
0
370
    50
100
AcDbLine
 10
314.4220644301333
 20
872.11194571678
 30
0.0
 11
317.4220644301333
 21
872.11194571678
 31
0.0
  0
LINE
  5
2291
330
1F
100
AcDbEntity
  8
0
370
    50
100
AcDbLine
 10
317.4220644301333
 20
872.11194571678
 30
0.0
 11
317.4220644301333
 21
880.9119457167799
 31
0.0
  0
LINE
  5
2292
330
1F
100
AcDbEntity
  8
0
370
    50
100
AcDbLine
 10
314.4220644301333
 20
880.9119457167799
 30
0.0
 11
317.4220644301333
 21
880.9119457167799
 31
0.0
  0
LINE
  5
2293
330
1F
100
AcDbEntity
  8
0
370
    50
100
AcDbLine
 10
317.4220644301333
 20
1110.11194571678
 30
0.0
 11
314.4220644301333
 21
1110.11194571678
 31
0.0
  0
LINE
  5
2294
330
1F
100
AcDbEntity
  8
0
370
    50
100
AcDbLine
 10
319.0220644301334
 20
880.5119457167801
 30
0.0
 11
319.0220644301334
 21
872.11194571678
 31
0.0
  0
LINE
  5
2295
102
{ACAD_REACTORS
330
2282
102
}
330
1F
100
AcDbEntity
  8
0
370
    50
100
AcDbLine
 10
319.0220644301334
 20
1052.51194571678
 30
0.0
 11
319.0220644301334
 21
1108.51194571678
 31
0.0
  0
LINE
  5
2296
102
{ACAD_REACTORS
330
2282
102
}
330
1F
100
AcDbEntity
  8
0
370
    50
100
AcDbLine
 10
319.0220644301334
 20
1108.51194571678
 30
0.0
 11
319.0220644301334
 21
1118.91194571678
 31
0.0
  0
ARC
  5
2297
102
{ACAD_REACTORS
330
2282
102
}
330
1F
100
AcDbEntity
  8
0
370
    50
100
AcDbCircle
 10
317.4220644301333
 20
872.11194571678
 30
0.0
 40
1.599999999999999
100
AcDbArc
 50
270.0
 51
0.0
  0
ARC
  5
2298
330
1F
100
AcDbEntity
  8
0
370
    50
100
AcDbCircle
 10
317.4220644301333
 20
882.5119457167799
 30
0.0
 40
1.599999999999989
100
AcDbArc
 50
270.0
 51
0.0
  0
ARC
  5
2299
330
1F
100
AcDbEntity
  8
0
370
    50
100
AcDbCircle
 10
317.4220644301333
 20
1108.51194571678
 30
0.0
 40
1.599999999999999
100
AcDbArc
 50
0.0
 51
90.0
  0
ARC
  5
229A
102
{ACAD_REACTORS
330
2282
102
}
330
1F
100
AcDbEntity
  8
0
370
    50
100
AcDbCircle
 10
317.4220644301333
 20
1118.91194571678
 30
0.0
 40
1.6
100
AcDbArc
 50
0.0
 51
90.0
  0
LINE
  5
229B
330
1F
100
AcDbEntity
  8
0
370
    50
100
AcDbLine
 10
331.0220644301334
 20
1052.51194571678
 30
0.0
 11
360.0220644301332
 21
1052.51194571678
 31
0.0
  0
LINE
  5
229C
330
1F
100
AcDbEntity
  8
0
370
    50
100
AcDbLine
 10
331.0220644301334
 20
880.5119457167799
 30
0.0
 11
331.0220644301334
 21
882.5119457167799
 31
0.0
  0
LINE
  5
229D
330
1F
100
AcDbEntity
  8
0
370
    50
100
AcDbLine
 10
331.0220644301334
 20
1050.511945716779
 30
0.0
 11
331.0220644301334
 21
1052.51194571678
 31
0.0
  0
LINE
  5
229E
330
1F
100
AcDbEntity
  8
0
370
    50
100
AcDbLine
 10
331.0220644301334
 20
1050.51194571678
 30
0.0
 11
360.0220644301332
 21
1050.51194571678
 31
0.0
  0
LINE
  5
229F
330
1F
100
AcDbEntity
  8
0
370
    50
100
AcDbLine
 10
360.0220644301334
 20
882.5119457167799
 30
0.0
 11
331.0220644301334
 21
882.5119457167799
 31
0.0
  0
LINE
  5
22A0
330
1F
100
AcDbEntity
  8
0
370
    50
100
AcDbLine
 10
360.0220644301334
 20
880.5119457167799
 30
0.0
 11
360.0220644301334
 21
882.5119457167799
 31
0.0
  0
LINE
  5
22A1
330
1F
100
AcDbEntity
  8
0
370
    50
100
AcDbLine
 10
360.0220644301332
 20
1050.511945716779
 30
0.0
 11
360.0220644301334
 21
882.5119457167799
 31
0.0
  0
LINE
  5
22A2
330
1F
100
AcDbEntity
  8
0
370
    50
100
AcDbLine
 10
360.0220644301332
 20
1050.511945716779
 30
0.0
 11
360.0220644301332
 21
1052.51194571678
 31
0.0
  0
LINE
  5
22A3
330
1F
100
AcDbEntity
  8
0
370
    50
100
AcDbLine
 10
331.0220644301334
 20
880.5119457167799
 30
0.0
 11
360.0220644301334
 21
880.5119457167799
 31
0.0
  0
LINE
  5
22A4
330
1F
100
AcDbEntity
  8
0
370
    50
100
AcDbLine
 10
331.0220644301334
 20
880.5119457167799
 30
0.0
 11
331.0220644301334
 21
870.5119457167798
 31
0.0
  0
LINE
  5
22A5
330
1F
100
AcDbEntity
  8
0
370
    50
100
AcDbLine
 10
360.0220644301334
 20
880.5119457167799
 30
0.0
 11
360.0220644301334
 21
870.5119457167798
 31
0.0
  0
LINE
  5
22A6
330
1F
100
AcDbEntity
  8
0
370
    50
100
AcDbLine
 10
331.0220644301334
 20
870.5119457167798
 30
0.0
 11
360.0220644301334
 21
870.5119457167798
 31
0.0
  0
LINE
  5
22A7
330
1F
100
AcDbEntity
  8
0
370
    50
100
AcDbLine
 10
319.0220644301334
 20
1052.51194571678
 30
0.0
 11
331.0220644301334
 21
1052.51194571678
 31
0.0
  0
LINE
  5
22A8
330
1F
100
AcDbEntity
  8
0
370
    50
100
AcDbLine
 10
331.0220644301334
 20
880.5119457167801
 30
0.0
 11
331.0220644301334
 21
1052.51194571678
 31
0.0
  0
LINE
  5
22A9
102
{ACAD_REACTORS
330
2282
102
}
330
1F
100
AcDbEntity
  8
0
370
    50
100
AcDbLine
 10
319.0220644301334
 20
880.5119457167801
 30
0.0
 11
319.0220644301334
 21
1052.51194571678
 31
0.0
  0
LINE
  5
22AA
330
1F
100
AcDbEntity
  8
0
370
    50
100
AcDbLine
 10
331.0220644301334
 20
880.5119457167801
 30
0.0
 11
331.0220644301334
 21
870.5119457167802
 31
0.0
  0
LINE
  5
22AB
330
1F
100
AcDbEntity
  8
0
370
    50
100
AcDbLine
 10
331.0220644301334
 20
870.5119457167802
 30
0.0
 11
319.0220644301334
 21
870.5119457167802
 31
0.0
  0
LINE
  5
22AC
102
{ACAD_REACTORS
330
2282
102
}
330
1F
100
AcDbEntity
  8
0
370
    50
100
AcDbLine
 10
319.0220644301334
 20
870.5119457167802
 30
0.0
 11
319.0220644301334
 21
880.5119457167801
 31
0.0
  0
LINE
  5
22AD
330
1F
100
AcDbEntity
  8
0
370
    50
100
AcDbLine
 10
319.0220644301334
 20
880.5119457167801
 30
0.0
 11
331.0220644301334
 21
880.5119457167801
 31
0.0
  0
LINE
  5
22AE
330
1F
100
AcDbEntity
  8
0
370
    50
100
AcDbLine
 10
338.0220644301334
 20
1049.01194571678
 30
0.0
 11
331.0220644301334
 21
1049.01194571678
 31
0.0
  0
LINE
  5
22AF
330
1F
100
AcDbEntity
  8
0
370
    50
100
AcDbLine
 10
327.0220644301334
 20
886.0119457167799
 30
0.0
 11
327.0220644301334
 21
1047.011945716779
 31
0.0
  0
LINE
  5
22B0
330
1F
100
AcDbEntity
  8
0
370
    50
100
AcDbLine
 10
331.0220644301334
 20
884.0119457167801
 30
0.0
 11
338.0220644301334
 21
884.0119457167801
 31
0.0
  0
LINE
  5
22B1
330
1F
100
AcDbEntity
  8
0
370
    50
100
AcDbLine
 10
338.0220644301334
 20
886.0119457167799
 30
0.0
 11
338.0220644301334
 21
1047.011945716779
 31
0.0
  0
LINE
  5
22B2
330
1F
100
AcDbEntity
  8
0
370
    50
100
AcDbLine
 10
338.0220644301334
 20
886.0119457167799
 30
0.0
 11
338.0220644301334
 21
884.0119457167801
 31
0.0
  0
LINE
  5
22B3
330
1F
100
AcDbEntity
  8
0
370
    50
100
AcDbLine
 10
338.0220644301334
 20
1049.01194571678
 30
0.0
 11
338.0220644301334
 21
1047.011945716779
 31
0.0
  0
LINE
  5
22B4
330
1F
100
AcDbEntity
  8
0
370
    50
100
AcDbLine
 10
360.0220644301334
 20
870.5119457167798
 30
0.0
 11
386.0220644301333
 21
870.5119457167798
 31
0.0
  0
ARC
  5
22B5
330
1F
100
AcDbEntity
  8
0
370
    50
100
AcDbCircle
 10
386.0220644301333
 20
873.5119457167799
 30
0.0
 40
3.0
100
AcDbArc
 50
270.0
 51
0.0
  0
LINE
  5
22B6
330
1F
100
AcDbEntity
  8
0
370
    50
100
AcDbLine
 10
389.0220644301333
 20
873.5119457167799
 30
0.0
 11
389.0220644301334
 21
906.5119457167799
 31
0.0
  0
ARC
  5
22B7
330
1F
100
AcDbEntity
  8
0
370
    50
100
AcDbCircle
 10
386.0220644301334
 20
906.5119457167799
 30
0.0
 40
3.0
100
AcDbArc
 50
0.0
 51
90.0
  0
LINE
  5
22B8
330
1F
100
AcDbEntity
  8
0
370
    50
100
AcDbLine
 10
386.0220644301334
 20
909.5119457167799
 30
0.0
 11
360.0220644301334
 21
909.5119457167799
 31
0.0
  0
LINE
  5
22B9
330
1F
100
AcDbEntity
  8
0
370
    50
100
AcDbLine
 10
360.0220644301334
 20
909.5119457167799
 30
0.0
 11
371.0220644301334
 21
909.5119457167799
 31
0.0
  0
LINE
  5
22BA
330
1F
100
AcDbEntity
  8
0
370
    50
100
AcDbLine
 10
371.0220644301334
 20
909.5119457167799
 30
0.0
 11
371.0220644301334
 21
870.5119457167798
 31
0.0
  0
DIMENSION
  5
22BB
330
1F
100
AcDbEntity
  8
0
370
    50
100
AcDbDimension
  2
*D52
 10
389.0220644301334
 20
1183.637685129364
 30
0.0
 11
351.0220644301333
 21
1183.637685129364
 31
0.0
 70
   160
  1
77
 71
     5
 42
76.00000000000004
  3
ISO-25
100
AcDbAlignedDimension
 13
313.0220644301334
 23
1125.511945716779
 33
0.0
 14
389.0220644301334
 24
909.5119457167799
 34
0.0
100
AcDbRotatedDimension
1001
ACAD
1000
DSTYLE
1002
{
1070
   147
1040
1.5
1070
   140
1040
3.5
1070
    40
1040
3.0
1070
    44
1040
3.5
1070
   343
1005
F7
1070
   173
1070
     1
1070
   344
1005
F7
1002
}
  0
LINE
  5
24AA
330
1F
100
AcDbEntity
  8
0
370
    50
100
AcDbLine
 10
566.3069107426452
 20
876.5669457167799
 30
0.0
 11
566.3069107426452
 21
876.4569457167798
 31
0.0
  0
LINE
  5
24AB
330
1F
100
AcDbEntity
  8
0
370
    50
100
AcDbLine
 10
566.2519107426454
 20
876.5119457167799
 30
0.0
 11
566.3619107426455
 21
876.5119457167799
 31
0.0
  0
LINE
  5
24AC
330
1F
100
AcDbEntity
  8
0
370
    50
100
AcDbLine
 10
566.3069107426452
 20
879.1219457167798
 30
0.0
 11
566.3069107426452
 21
876.7229457167799
 31
0.0
  0
LINE
  5
24AD
330
1F
100
AcDbEntity
  8
0
370
    50
100
AcDbLine
 10
566.3069107426452
 20
876.3009457167797
 30
0.0
 11
566.3069107426452
 21
873.9019457167799
 31
0.0
  0
LINE
  5
24AE
330
1F
100
AcDbEntity
  8
0
370
    50
100
AcDbLine
 10
563.6969107426453
 20
876.5119457167799
 30
0.0
 11
566.0959107426452
 21
876.5119457167799
 31
0.0
  0
LINE
  5
24AF
330
1F
100
AcDbEntity
  8
0
370
    50
100
AcDbLine
 10
566.5179107426452
 20
876.5119457167799
 30
0.0
 11
568.9169107426453
 21
876.5119457167799
 31
0.0
  0
LINE
  5
24B0
330
1F
100
AcDbEntity
  8
0
370
    50
100
AcDbLine
 10
444.3069107426453
 20
876.5669457167799
 30
0.0
 11
444.3069107426453
 21
876.45694571678
 31
0.0
  0
LINE
  5
24B1
330
1F
100
AcDbEntity
  8
0
370
    50
100
AcDbLine
 10
444.2519107426455
 20
876.5119457167799
 30
0.0
 11
444.3619107426455
 21
876.5119457167799
 31
0.0
  0
LINE
  5
24B2
330
1F
100
AcDbEntity
  8
0
370
    50
100
AcDbLine
 10
444.3069107426453
 20
879.1219457167798
 30
0.0
 11
444.3069107426453
 21
876.7229457167799
 31
0.0
  0
LINE
  5
24B3
330
1F
100
AcDbEntity
  8
0
370
    50
100
AcDbLine
 10
444.3069107426453
 20
876.3009457167797
 30
0.0
 11
444.3069107426453
 21
873.9019457167799
 31
0.0
  0
LINE
  5
24B4
330
1F
100
AcDbEntity
  8
0
370
    50
100
AcDbLine
 10
441.6969107426455
 20
876.5119457167799
 30
0.0
 11
444.0959107426453
 21
876.5119457167799
 31
0.0
  0
LINE
  5
24B5
330
1F
100
AcDbEntity
  8
0
370
    50
100
AcDbLine
 10
444.5179107426453
 20
876.5119457167799
 30
0.0
 11
446.9169107426453
 21
876.5119457167799
 31
0.0
  0
LINE
  5
24B6
330
1F
100
AcDbEntity
  8
0
370
    50
100
AcDbLine
 10
444.3069107426453
 20
1114.56694571678
 30
0.0
 11
444.3069107426453
 21
1114.45694571678
 31
0.0
  0
LINE
  5
24B7
330
1F
100
AcDbEntity
  8
0
370
    50
100
AcDbLine
 10
444.2519107426455
 20
1114.51194571678
 30
0.0
 11
444.3619107426455
 21
1114.51194571678
 31
0.0
  0
LINE
  5
24B8
330
1F
100
AcDbEntity
  8
0
370
    50
100
AcDbLine
 10
444.3069107426453
 20
1117.12194571678
 30
0.0
 11
444.3069107426453
 21
1114.72294571678
 31
0.0
  0
LINE
  5
24B9
330
1F
100
AcDbEntity
  8
0
370
    50
100
AcDbLine
 10
444.3069107426453
 20
1114.30094571678
 30
0.0
 11
444.3069107426453
 21
1111.90194571678
 31
0.0
  0
LINE
  5
24BA
330
1F
100
AcDbEntity
  8
0
370
    50
100
AcDbLine
 10
441.6969107426455
 20
1114.51194571678
 30
0.0
 11
444.0959107426453
 21
1114.51194571678
 31
0.0
  0
LINE
  5
24BB
330
1F
100
AcDbEntity
  8
0
370
    50
100
AcDbLine
 10
444.5179107426453
 20
1114.51194571678
 30
0.0
 11
446.9169107426453
 21
1114.51194571678
 31
0.0
  0
LINE
  5
24BC
330
1F
100
AcDbEntity
  8
0
370
    50
100
AcDbLine
 10
566.3069107426452
 20
1114.56694571678
 30
0.0
 11
566.3069107426452
 21
1114.45694571678
 31
0.0
  0
LINE
  5
24BD
330
1F
100
AcDbEntity
  8
0
370
    50
100
AcDbLine
 10
566.2519107426454
 20
1114.51194571678
 30
0.0
 11
566.3619107426455
 21
1114.51194571678
 31
0.0
  0
LINE
  5
24BE
330
1F
100
AcDbEntity
  8
0
370
    50
100
AcDbLine
 10
566.3069107426452
 20
1117.12194571678
 30
0.0
 11
566.3069107426452
 21
1114.72294571678
 31
0.0
  0
LINE
  5
24BF
330
1F
100
AcDbEntity
  8
0
370
    50
100
AcDbLine
 10
566.3069107426452
 20
1114.30094571678
 30
0.0
 11
566.3069107426452
 21
1111.90194571678
 31
0.0
  0
LINE
  5
24C0
330
1F
100
AcDbEntity
  8
0
370
    50
100
AcDbLine
 10
563.6969107426453
 20
1114.51194571678
 30
0.0
 11
566.0959107426452
 21
1114.51194571678
 31
0.0
  0
LINE
  5
24C1
330
1F
100
AcDbEntity
  8
0
370
    50
100
AcDbLine
 10
566.5179107426452
 20
1114.51194571678
 30
0.0
 11
568.9169107426453
 21
1114.51194571678
 31
0.0
  0
DIMENSION
  5
24C2
330
1F
100
AcDbEntity
  8
0
370
    50
100
AcDbDimension
  2
*D57
 10
444.3069107426453
 20
845.1200921205527
 30
0.0
 11
509.8650154889083
 21
845.1200921205527
 31
0.0
 70
   160
  1
<>（取付ピッチ）
 71
     5
 42
122.0
  3
AM_JIS$0
100
AcDbAlignedDimension
 13
566.3069107426452
 23
873.9019457167799
 33
0.0
 14
444.3069107426453
 24
873.9019457167799
 34
0.0
100
AcDbRotatedDimension
1001
ACAD_DSTYLE_DIMINSPECT
1070
   396
1000
100%
1070
   395
1000

1070
   394
1070
    33
1070
   393
1070
     0
1001
ACAD
1000
DSTYLE
1002
{
1070
    40
1040
3.0
1002
}
  0
DIMENSION
  5
24C3
330
1F
100
AcDbEntity
  8
0
370
    50
100
AcDbDimension
  2
*D58
 10
439.3069107426454
 20
814.8626716283658
 30
0.0
 11
505.3069107426453
 21
824.6126716283658
 31
0.0
 70
    32
 71
     5
 42
132.0
  3
AM_JIS$0
100
AcDbAlignedDimension
 13
571.3069107426453
 23
872.5119457167799
 33
0.0
 14
439.3069107426454
 24
872.5119457167799
 34
0.0
100
AcDbRotatedDimension
1001
ACAD_DSTYLE_DIMINSPECT
1070
   396
1000
100%
1070
   395
1000

1070
   394
1070
    33
1070
   393
1070
     0
1001
ACAD
1000
DSTYLE
1002
{
1070
    40
1040
3.0
1002
}
  0
DIMENSION
  5
24C4
330
1F
100
AcDbEntity
  8
0
370
    50
100
AcDbDimension
  2
*D59
 10
592.9169107426453
 20
1114.51194571678
 30
0.0
 11
583.1669107426453
 21
995.5119457167802
 31
0.0
 70
    32
  1
<>（取付ピッチ）
 71
     5
 42
238.0
  3
AM_JIS$0
100
AcDbAlignedDimension
 13
568.9169107426453
 23
876.5119457167799
 33
0.0
 14
568.9169107426453
 24
1114.51194571678
 34
0.0
 50
270.0
100
AcDbRotatedDimension
1001
ACAD_DSTYLE_DIMINSPECT
1070
   396
1000
100%
1070
   395
1000

1070
   394
1070
    33
1070
   393
1070
     0
1001
ACAD
1000
DSTYLE
1002
{
1070
    40
1040
3.0
1002
}
  0
DIMENSION
  5
24C5
330
1F
100
AcDbEntity
  8
0
370
    50
100
AcDbDimension
  2
*D60
 10
612.9169107426453
 20
1120.51194571678
 30
0.0
 11
603.1669107426453
 21
995.5119457167802
 31
0.0
 70
    32
 71
     5
 42
250.0
  3
AM_JIS$0
100
AcDbAlignedDimension
 13
569.3069107426453
 23
870.5119457167798
 33
0.0
 14
569.3069107426453
 24
1120.51194571678
 34
0.0
 50
270.0
100
AcDbRotatedDimension
1001
ACAD_DSTYLE_DIMINSPECT
1070
   396
1000
100%
1070
   395
1000

1070
   394
1070
    33
1070
   393
1070
     0
1001
ACAD
1000
DSTYLE
1002
{
1070
    40
1040
3.0
1002
}
  0
LINE
  5
24C6
330
1F
100
AcDbEntity
  8
0
370
    50
100
AcDbLine
 10
452.8069107426452
 20
887.3169457167799
 30
0.0
 11
452.8069107426452
 21
887.2069457167798
 31
0.0
  0
LINE
  5
24C7
330
1F
100
AcDbEntity
  8
0
370
    50
100
AcDbLine
 10
452.7519107426453
 20
887.2619457167798
 30
0.0
 11
452.8619107426451
 21
887.2619457167798
 31
0.0
  0
LINE
  5
24C8
330
1F
100
AcDbEntity
  8
0
370
    50
100
AcDbLine
 10
452.8069107426452
 20
889.3719457167797
 30
0.0
 11
452.8069107426452
 21
887.4729457167799
 31
0.0
  0
LINE
  5
24C9
330
1F
100
AcDbEntity
  8
0
370
    50
100
AcDbLine
 10
452.8069107426452
 20
887.0509457167797
 30
0.0
 11
452.8069107426452
 21
885.1519457167798
 31
0.0
  0
LINE
  5
24CA
330
1F
100
AcDbEntity
  8
0
370
    50
100
AcDbLine
 10
450.6969107426453
 20
887.2619457167798
 30
0.0
 11
452.5959107426452
 21
887.2619457167798
 31
0.0
  0
LINE
  5
24CB
330
1F
100
AcDbEntity
  8
0
370
    50
100
AcDbLine
 10
453.0179107426453
 20
887.2619457167798
 30
0.0
 11
454.9169107426453
 21
887.2619457167798
 31
0.0
  0
LINE
  5
24CC
330
1F
100
AcDbEntity
  8
0
370
    50
100
AcDbLine
 10
444.3069107426453
 20
1045.81694571678
 30
0.0
 11
444.3069107426453
 21
1045.70694571678
 31
0.0
  0
LINE
  5
24CD
330
1F
100
AcDbEntity
  8
0
370
    50
100
AcDbLine
 10
444.2519107426453
 20
1045.76194571678
 30
0.0
 11
444.3619107426453
 21
1045.76194571678
 31
0.0
  0
LINE
  5
24CE
330
1F
100
AcDbEntity
  8
0
370
    50
100
AcDbLine
 10
444.3069107426453
 20
1047.87194571678
 30
0.0
 11
444.3069107426453
 21
1045.97294571678
 31
0.0
  0
LINE
  5
24CF
330
1F
100
AcDbEntity
  8
0
370
    50
100
AcDbLine
 10
444.3069107426453
 20
1045.55094571678
 30
0.0
 11
444.3069107426453
 21
1043.65194571678
 31
0.0
  0
LINE
  5
24D0
330
1F
100
AcDbEntity
  8
0
370
    50
100
AcDbLine
 10
442.1969107426453
 20
1045.76194571678
 30
0.0
 11
444.0959107426453
 21
1045.76194571678
 31
0.0
  0
LINE
  5
24D1
330
1F
100
AcDbEntity
  8
0
370
    50
100
AcDbLine
 10
444.5179107426453
 20
1045.76194571678
 30
0.0
 11
446.4169107426453
 21
1045.76194571678
 31
0.0
  0
HATCH
  5
24D2
330
1F
100
AcDbEntity
  8
0
370
    50
100
AcDbHatch
 10
0.0
 20
0.0
 30
0.0
210
0.0
220
0.0
230
1.0
  2
DOTS
 70
     0
 71
     1
 91
        1
 92
        1
 93
        5
 72
     1
 10
571.306910742645
 20
880.5119457167799
 11
556.3069107426452
 21
880.5119457167799
 72
     1
 10
556.3069107426452
 20
880.5119457167799
 11
556.3069107426452
 21
870.5119457167798
 72
     1
 10
556.3069107426453
 20
870.5119457167798
 11
569.3069107426453
 21
870.5119457167798
 72
     1
 10
569.3069107426453
 20
870.5119457167798
 11
571.3069107426453
 21
872.5119457167799
 72
     1
 10
571.3069107426453
 20
872.5119457167799
 11
571.3069107426453
 21
880.5119457167799
 97
        5
330
24FA
330
24FD
330
24D3
330
24DA
330
24DE
 75
     0
 76
     1
 52
0.0
 41
2.0
 77
     0
 78
     1
 53
0.0
 43
-109.3014273342023
 44
641.5976204315419
 45
1.587499999999999
 46
3.174999999999998
 79
     2
 49
0.0
 49
-3.174999999999998
 98
        1
 10
-109.3014273342023
 20
641.5976204315419
1001
ACAD
1010
0.0
1020
0.0
1030
0.0
  0
LINE
  5
24D3
102
{ACAD_REACTORS
330
24D2
102
}
330
1F
100
AcDbEntity
  8
0
370
    50
100
AcDbLine
 10
569.3069107426453
 20
870.5119457167798
 30
0.0
 11
556.3069107426453
 21
870.5119457167798
 31
0.0
  0
HATCH
  5
24D4
330
1F
100
AcDbEntity
  8
0
370
    50
100
AcDbHatch
 10
0.0
 20
0.0
 30
0.0
210
0.0
220
0.0
230
1.0
  2
DOTS
 70
     0
 71
     1
 91
        1
 92
        1
 93
        5
 72
     1
 10
454.3069107426451
 20
880.5119457167799
 11
439.3069107426454
 21
880.5119457167799
 72
     1
 10
439.3069107426454
 20
880.5119457167799
 11
439.3069107426454
 21
872.5119457167799
 72
     1
 10
439.3069107426454
 20
872.5119457167799
 11
441.3069107426453
 21
870.5119457167798
 72
     1
 10
441.3069107426453
 20
870.5119457167798
 11
454.3069107426453
 21
870.5119457167798
 72
     1
 10
454.3069107426451
 20
870.5119457167798
 11
454.3069107426451
 21
880.5119457167799
 97
        5
330
24F9
330
24DF
330
24D9
330
24D5
330
24FC
 75
     0
 76
     1
 52
0.0
 41
2.0
 77
     0
 78
     1
 53
0.0
 43
-109.3014273342023
 44
641.5976204315419
 45
1.587499999999999
 46
3.174999999999998
 79
     2
 49
0.0
 49
-3.174999999999998
 98
        1
 10
-109.3014273342023
 20
641.5976204315419
1001
ACAD
1010
0.0
1020
0.0
1030
0.0
  0
LINE
  5
24D5
102
{ACAD_REACTORS
330
24D4
102
}
330
1F
100
AcDbEntity
  8
0
370
    50
100
AcDbLine
 10
454.3069107426453
 20
870.5119457167798
 30
0.0
 11
441.3069107426453
 21
870.5119457167798
 31
0.0
  0
HATCH
  5
24D6
330
1F
100
AcDbEntity
  8
0
370
    50
100
AcDbHatch
 10
0.0
 20
0.0
 30
0.0
210
0.0
220
0.0
230
1.0
  2
DOTS
 70
     0
 71
     1
 91
        1
 92
        1
 93
       12
 72
     1
 10
558.8069107426453
 20
1052.51194571678
 11
571.3069107426453
 21
1052.51194571678
 72
     1
 10
571.3069107426453
 20
1052.51194571678
 11
571.3069107426453
 21
1108.51194571678
 72
     1
 10
571.3069107426453
 20
1108.51194571678
 11
571.3069107426453
 21
1118.51194571678
 72
     1
 10
571.3069107426453
 20
1118.51194571678
 11
569.3069107426453
 21
1120.51194571678
 72
     1
 10
569.3069107426453
 20
1120.51194571678
 11
556.3069107426453
 21
1120.51194571678
 72
     1
 10
556.3069107426453
 20
1120.51194571678
 11
454.3069107426453
 21
1120.51194571678
 72
     1
 10
454.3069107426453
 20
1120.51194571678
 11
441.3069107426453
 21
1120.51194571678
 72
     1
 10
441.3069107426453
 20
1120.51194571678
 11
439.3069107426454
 21
1118.51194571678
 72
     1
 10
439.3069107426454
 20
1118.51194571678
 11
439.3069107426454
 21
1108.51194571678
 72
     1
 10
439.3069107426454
 20
1108.51194571678
 11
439.3069107426454
 21
1052.51194571678
 72
     1
 10
439.3069107426454
 20
1052.51194571678
 11
469.8069107426453
 21
1052.51194571678
 72
     1
 10
469.8069107426453
 20
1052.51194571678
 11
558.8069107426453
 21
1052.51194571678
 97
       12
330
24F0
330
24E4
330
24DD
330
24DB
330
24D8
330
24E7
330
24D7
330
24DC
330
24E0
330
24E2
330
24F7
330
2500
 75
     0
 76
     1
 52
0.0
 41
2.0
 77
     0
 78
     1
 53
0.0
 43
-109.3014273342023
 44
641.5976204315419
 45
1.587499999999999
 46
3.174999999999998
 79
     2
 49
0.0
 49
-3.174999999999998
 98
        1
 10
-109.3014273342023
 20
641.5976204315419
1001
ACAD
1010
0.0
1020
0.0
1030
0.0
  0
LINE
  5
24D7
102
{ACAD_REACTORS
330
24D6
102
}
330
1F
100
AcDbEntity
  8
0
370
    50
100
AcDbLine
 10
441.3069107426453
 20
1120.51194571678
 30
0.0
 11
454.3069107426453
 21
1120.51194571678
 31
0.0
  0
LINE
  5
24D8
102
{ACAD_REACTORS
330
24D6
102
}
330
1F
100
AcDbEntity
  8
0
370
    50
100
AcDbLine
 10
556.3069107426453
 20
1120.51194571678
 30
0.0
 11
569.3069107426453
 21
1120.51194571678
 31
0.0
  0
LINE
  5
24D9
102
{ACAD_REACTORS
330
24D4
102
}
330
1F
100
AcDbEntity
  8
0
370
    50
100
AcDbLine
 10
441.3069107426453
 20
870.5119457167798
 30
0.0
 11
439.3069107426454
 21
872.5119457167799
 31
0.0
  0
LINE
  5
24DA
102
{ACAD_REACTORS
330
24D2
102
}
330
1F
100
AcDbEntity
  8
0
370
    50
100
AcDbLine
 10
571.3069107426453
 20
872.5119457167799
 30
0.0
 11
569.3069107426453
 21
870.5119457167798
 31
0.0
  0
LINE
  5
24DB
102
{ACAD_REACTORS
330
24D6
102
}
330
1F
100
AcDbEntity
  8
0
370
    50
100
AcDbLine
 10
569.3069107426453
 20
1120.51194571678
 30
0.0
 11
571.3069107426453
 21
1118.51194571678
 31
0.0
  0
LINE
  5
24DC
102
{ACAD_REACTORS
330
24D6
102
}
330
1F
100
AcDbEntity
  8
0
370
    50
100
AcDbLine
 10
439.3069107426454
 20
1118.51194571678
 30
0.0
 11
441.3069107426453
 21
1120.51194571678
 31
0.0
  0
LINE
  5
24DD
102
{ACAD_REACTORS
330
24D6
102
}
330
1F
100
AcDbEntity
  8
0
370
    50
100
AcDbLine
 10
571.3069107426453
 20
1108.51194571678
 30
0.0
 11
571.3069107426453
 21
1118.51194571678
 31
0.0
  0
LINE
  5
24DE
102
{ACAD_REACTORS
330
24D2
102
}
330
1F
100
AcDbEntity
  8
0
370
    50
100
AcDbLine
 10
571.3069107426453
 20
872.5119457167799
 30
0.0
 11
571.3069107426453
 21
880.5119457167799
 31
0.0
  0
LINE
  5
24DF
102
{ACAD_REACTORS
330
24D4
102
}
330
1F
100
AcDbEntity
  8
0
370
    50
100
AcDbLine
 10
439.3069107426454
 20
880.5119457167799
 30
0.0
 11
439.3069107426454
 21
872.5119457167799
 31
0.0
  0
LINE
  5
24E0
102
{ACAD_REACTORS
330
24D6
102
}
330
1F
100
AcDbEntity
  8
0
370
    50
100
AcDbLine
 10
439.3069107426454
 20
1118.51194571678
 30
0.0
 11
439.3069107426454
 21
1108.51194571678
 31
0.0
  0
LINE
  5
24E1
330
1F
100
AcDbEntity
  8
0
370
    50
100
AcDbLine
 10
454.3069107426453
 20
1110.11194571678
 30
0.0
 11
440.9069107426453
 21
1110.11194571678
 31
0.0
  0
LINE
  5
24E2
102
{ACAD_REACTORS
330
24D6
102
}
330
1F
100
AcDbEntity
  8
0
370
    50
100
AcDbLine
 10
439.3069107426454
 20
1108.51194571678
 30
0.0
 11
439.3069107426454
 21
1052.51194571678
 31
0.0
  0
LINE
  5
24E3
330
1F
100
AcDbEntity
  8
0
370
    50
100
AcDbLine
 10
569.7069107426454
 20
1110.11194571678
 30
0.0
 11
556.3069107426453
 21
1110.11194571678
 31
0.0
  0
LINE
  5
24E4
102
{ACAD_REACTORS
330
24D6
102
}
330
1F
100
AcDbEntity
  8
0
370
    50
100
AcDbLine
 10
571.3069107426453
 20
1052.51194571678
 30
0.0
 11
571.3069107426453
 21
1108.51194571678
 31
0.0
  0
LINE
  5
24E5
330
1F
100
AcDbEntity
  8
0
370
    50
100
AcDbLine
 10
454.3069107426453
 20
1108.51194571678
 30
0.0
 11
454.3069107426453
 21
1118.91194571678
 31
0.0
  0
LINE
  5
24E6
330
1F
100
AcDbEntity
  8
0
370
    50
100
AcDbLine
 10
556.3069107426453
 20
1108.51194571678
 30
0.0
 11
556.3069107426453
 21
1118.91194571678
 31
0.0
  0
LINE
  5
24E7
102
{ACAD_REACTORS
330
24D6
102
}
330
1F
100
AcDbEntity
  8
0
370
    50
100
AcDbLine
 10
556.3069107426453
 20
1120.51194571678
 30
0.0
 11
454.3069107426453
 21
1120.51194571678
 31
0.0
  0
CIRCLE
  5
24E8
330
1F
100
AcDbEntity
  8
0
370
    50
100
AcDbCircle
 10
566.3069107426452
 20
876.5119457167799
 30
0.0
 40
2.5
  0
CIRCLE
  5
24E9
330
1F
100
AcDbEntity
  8
0
370
    50
100
AcDbCircle
 10
444.3069107426453
 20
876.5119457167799
 30
0.0
 40
2.5
  0
CIRCLE
  5
24EA
330
1F
100
AcDbEntity
  8
0
370
    50
100
AcDbCircle
 10
444.3069107426453
 20
1114.51194571678
 30
0.0
 40
2.5
  0
CIRCLE
  5
24EB
330
1F
100
AcDbEntity
  8
0
370
    50
100
AcDbCircle
 10
566.3069107426452
 20
1114.51194571678
 30
0.0
 40
2.5
  0
ARC
  5
24EC
330
1F
100
AcDbEntity
  8
0
370
    50
100
AcDbCircle
 10
440.9069107426453
 20
1108.51194571678
 30
0.0
 40
1.600000000000022
100
AcDbArc
 50
90.0
 51
180.0
  0
ARC
  5
24ED
330
1F
100
AcDbEntity
  8
0
370
    50
100
AcDbCircle
 10
569.7069107426454
 20
1108.51194571678
 30
0.0
 40
1.599999999999994
100
AcDbArc
 50
0.0
 51
90.0
  0
LINE
  5
24EE
330
1F
100
AcDbEntity
  8
0
370
    50
100
AcDbLine
 10
556.3069107426453
 20
1120.51194571678
 30
0.0
 11
556.3069107426453
 21
1118.91194571678
 31
0.0
  0
LINE
  5
24EF
330
1F
100
AcDbEntity
  8
0
370
    50
100
AcDbLine
 10
454.3069107426453
 20
1118.91194571678
 30
0.0
 11
454.3069107426453
 21
1120.51194571678
 31
0.0
  0
LINE
  5
24F0
102
{ACAD_REACTORS
330
24D6
102
}
330
1F
100
AcDbEntity
  8
0
370
    50
100
AcDbLine
 10
558.8069107426453
 20
1052.51194571678
 30
0.0
 11
571.3069107426453
 21
1052.51194571678
 31
0.0
  0
LINE
  5
24F1
330
1F
100
AcDbEntity
  8
0
370
    50
100
AcDbLine
 10
571.3069107426453
 20
1052.51194571678
 30
0.0
 11
571.3069107426453
 21
880.5119457167799
 31
0.0
  0
LINE
  5
24F2
330
1F
100
AcDbEntity
  8
0
370
    50
100
AcDbLine
 10
439.3069107426454
 20
880.5119457167799
 30
0.0
 11
439.3069107426454
 21
882.5119457167799
 31
0.0
  0
LINE
  5
24F3
330
1F
100
AcDbEntity
  8
0
370
    50
100
AcDbLine
 10
457.8069107426451
 20
882.5119457167799
 30
0.0
 11
439.3069107426452
 21
882.5119457167799
 31
0.0
  0
LINE
  5
24F4
330
1F
100
AcDbEntity
  8
0
370
    50
100
AcDbLine
 10
457.8069107426453
 20
1050.511945716779
 30
0.0
 11
457.8069107426451
 21
882.5119457167799
 31
0.0
  0
LINE
  5
24F5
330
1F
100
AcDbEntity
  8
0
370
    50
100
AcDbLine
 10
439.3069107426454
 20
1050.511945716779
 30
0.0
 11
457.8069107426453
 21
1050.511945716779
 31
0.0
  0
LINE
  5
24F6
330
1F
100
AcDbEntity
  8
0
370
    50
100
AcDbLine
 10
439.3069107426454
 20
1050.511945716779
 30
0.0
 11
439.3069107426454
 21
1052.51194571678
 31
0.0
  0
LINE
  5
24F7
102
{ACAD_REACTORS
330
24D6
102
}
330
1F
100
AcDbEntity
  8
0
370
    50
100
AcDbLine
 10
439.3069107426454
 20
1052.51194571678
 30
0.0
 11
469.8069107426453
 21
1052.51194571678
 31
0.0
  0
LINE
  5
24F8
330
1F
100
AcDbEntity
  8
0
370
    50
100
AcDbLine
 10
558.8069107426453
 20
1022.51194571678
 30
0.0
 11
469.8069107426453
 21
1022.51194571678
 31
0.0
  0
LINE
  5
24F9
102
{ACAD_REACTORS
330
24D4
102
}
330
1F
100
AcDbEntity
  8
0
370
    50
100
AcDbLine
 10
454.3069107426451
 20
880.5119457167799
 30
0.0
 11
439.3069107426454
 21
880.5119457167799
 31
0.0
  0
LINE
  5
24FA
102
{ACAD_REACTORS
330
24D2
102
}
330
1F
100
AcDbEntity
  8
0
370
    50
100
AcDbLine
 10
571.306910742645
 20
880.5119457167799
 30
0.0
 11
556.3069107426452
 21
880.5119457167799
 31
0.0
  0
LINE
  5
24FB
330
1F
100
AcDbEntity
  8
0
370
    50
100
AcDbLine
 10
454.3069107426451
 20
870.5119457167798
 30
0.0
 11
556.3069107426452
 21
870.5119457167798
 31
0.0
  0
LINE
  5
24FC
102
{ACAD_REACTORS
330
24D4
102
}
330
1F
100
AcDbEntity
  8
0
370
    50
100
AcDbLine
 10
454.3069107426451
 20
880.5119457167799
 30
0.0
 11
454.3069107426451
 21
870.5119457167798
 31
0.0
  0
LINE
  5
24FD
102
{ACAD_REACTORS
330
24D2
102
}
330
1F
100
AcDbEntity
  8
0
370
    50
100
AcDbLine
 10
556.3069107426452
 20
880.5119457167799
 30
0.0
 11
556.3069107426452
 21
870.5119457167798
 31
0.0
  0
LINE
  5
24FE
330
1F
100
AcDbEntity
  8
0
370
    50
100
AcDbLine
 10
558.8069107426453
 20
1052.51194571678
 30
0.0
 11
558.8069107426453
 21
1022.51194571678
 31
0.0
  0
LINE
  5
24FF
330
1F
100
AcDbEntity
  8
0
370
    50
100
AcDbLine
 10
469.8069107426453
 20
1022.51194571678
 30
0.0
 11
469.8069107426453
 21
1052.51194571678
 31
0.0
  0
LINE
  5
2500
102
{ACAD_REACTORS
330
24D6
102
}
330
1F
100
AcDbEntity
  8
0
370
    50
100
AcDbLine
 10
469.8069107426453
 20
1052.51194571678
 30
0.0
 11
558.8069107426453
 21
1052.51194571678
 31
0.0
  0
LINE
  5
2501
330
1F
100
AcDbEntity
  8
0
370
    50
100
AcDbLine
 10
548.8069107426452
 20
1027.51194571678
 30
0.0
 11
479.8069107426453
 21
1027.51194571678
 31
0.0
  0
LINE
  5
2502
330
1F
100
AcDbEntity
  8
0
370
    50
100
AcDbLine
 10
548.8069107426452
 20
1035.51194571678
 30
0.0
 11
548.8069107426452
 21
1027.51194571678
 31
0.0
  0
LINE
  5
2503
330
1F
100
AcDbEntity
  8
0
370
    50
100
AcDbLine
 10
479.8069107426453
 20
1035.51194571678
 30
0.0
 11
548.8069107426452
 21
1035.51194571678
 31
0.0
  0
LINE
  5
2504
330
1F
100
AcDbEntity
  8
0
370
    50
100
AcDbLine
 10
479.8069107426453
 20
1027.51194571678
 30
0.0
 11
479.8069107426453
 21
1035.51194571678
 31
0.0
  0
LINE
  5
2505
330
1F
100
AcDbEntity
  8
0
370
    50
100
AcDbLine
 10
548.8069107426452
 20
1039.51194571678
 30
0.0
 11
479.8069107426453
 21
1039.51194571678
 31
0.0
  0
LINE
  5
2506
330
1F
100
AcDbEntity
  8
0
370
    50
100
AcDbLine
 10
548.8069107426452
 20
1047.51194571678
 30
0.0
 11
548.8069107426452
 21
1039.51194571678
 31
0.0
  0
LINE
  5
2507
330
1F
100
AcDbEntity
  8
0
370
    50
100
AcDbLine
 10
479.8069107426453
 20
1047.51194571678
 30
0.0
 11
548.8069107426452
 21
1047.51194571678
 31
0.0
  0
LINE
  5
2508
330
1F
100
AcDbEntity
  8
0
370
    50
100
AcDbLine
 10
479.8069107426453
 20
1039.51194571678
 30
0.0
 11
479.8069107426453
 21
1047.51194571678
 31
0.0
  0
LINE
  5
2509
330
1F
100
AcDbEntity
  8
0
370
    50
100
AcDbLine
 10
439.3069107426452
 20
882.5119457167799
 30
0.0
 11
439.3069107426452
 21
886.0119457167799
 31
0.0
  0
LINE
  5
250A
330
1F
100
AcDbEntity
  8
0
370
    50
100
AcDbLine
 10
439.3069107426454
 20
1047.011945716779
 30
0.0
 11
439.3069107426454
 21
1050.51194571678
 31
0.0
  0
LINE
  5
250B
330
1F
100
AcDbEntity
  8
0
370
    50
100
AcDbLine
 10
451.3069107426453
 20
1050.51194571678
 30
0.0
 11
451.3069107426453
 21
1049.01194571678
 31
0.0
  0
LINE
  5
250C
330
1F
100
AcDbEntity
  8
0
370
    50
100
AcDbLine
 10
441.306910742645
 20
882.5119457167801
 30
0.0
 11
441.306910742645
 21
884.0119457167801
 31
0.0
  0
LINE
  5
250D
330
1F
100
AcDbEntity
  8
0
370
    50
100
AcDbLine
 10
441.3069107426453
 20
1049.01194571678
 30
0.0
 11
455.3069107426453
 21
1049.01194571678
 31
0.0
  0
LINE
  5
250E
330
1F
100
AcDbEntity
  8
0
370
    50
100
AcDbLine
 10
457.3069107426453
 20
1047.011945716779
 30
0.0
 11
457.3069107426452
 21
886.0119457167799
 31
0.0
  0
LINE
  5
250F
330
1F
100
AcDbEntity
  8
0
370
    50
100
AcDbLine
 10
455.3069107426453
 20
884.0119457167801
 30
0.0
 11
441.306910742645
 21
884.0119457167801
 31
0.0
  0
LINE
  5
2510
330
1F
100
AcDbEntity
  8
0
370
    50
100
AcDbLine
 10
439.3069107426454
 20
886.0119457167799
 30
0.0
 11
439.3069107426454
 21
1047.011945716779
 31
0.0
  0
LINE
  5
2511
330
1F
100
AcDbEntity
  8
0
370
    50
100
AcDbLine
 10
449.3069107426451
 20
892.1119457167797
 30
0.0
 11
449.3069107426451
 21
1045.51194571678
 31
0.0
  0
LINE
  5
2512
330
1F
100
AcDbEntity
  8
0
370
    50
100
AcDbLine
 10
449.3069107426453
 20
1045.51194571678
 30
0.0
 11
456.3069107426453
 21
1045.51194571678
 31
0.0
  0
LINE
  5
2513
330
1F
100
AcDbEntity
  8
0
370
    50
100
AcDbLine
 10
456.3069107426453
 20
1045.51194571678
 30
0.0
 11
456.3069107426453
 21
892.1119457167797
 31
0.0
  0
LINE
  5
2514
330
1F
100
AcDbEntity
  8
0
370
    50
100
AcDbLine
 10
456.3069107426453
 20
892.1119457167797
 30
0.0
 11
449.3069107426451
 21
892.1119457167797
 31
0.0
  0
LINE
  5
2515
330
1F
100
AcDbEntity
  8
0
370
    50
100
AcDbLine
 10
448.3069107426453
 20
1041.21194571678
 30
0.0
 11
448.3069107426453
 21
887.8119457167796
 31
0.0
  0
LINE
  5
2516
330
1F
100
AcDbEntity
  8
0
370
    50
100
AcDbLine
 10
448.3069107426453
 20
887.8119457167796
 30
0.0
 11
441.306910742645
 21
887.8119457167796
 31
0.0
  0
LINE
  5
2517
330
1F
100
AcDbEntity
  8
0
370
    50
100
AcDbLine
 10
441.3069107426453
 20
887.8119457167796
 30
0.0
 11
441.3069107426453
 21
1041.21194571678
 31
0.0
  0
LINE
  5
2518
330
1F
100
AcDbEntity
  8
0
370
    50
100
AcDbLine
 10
441.3069107426453
 20
1041.21194571678
 30
0.0
 11
448.3069107426453
 21
1041.21194571678
 31
0.0
  0
LINE
  5
2519
330
1F
100
AcDbEntity
  8
0
370
    50
100
AcDbLine
 10
444.8069107426452
 20
892.91194571678
 30
0.0
 11
444.8069107426452
 21
889.9119457167799
 31
0.0
  0
LINE
  5
251A
330
1F
100
AcDbEntity
  8
0
370
    50
100
AcDbLine
 10
443.8069107426453
 20
892.91194571678
 30
0.0
 11
444.8069107426452
 21
892.91194571678
 31
0.0
  0
LINE
  5
251B
330
1F
100
AcDbEntity
  8
0
370
    50
100
AcDbLine
 10
443.8069107426453
 20
889.9119457167799
 30
0.0
 11
443.8069107426453
 21
892.91194571678
 31
0.0
  0
LINE
  5
251C
330
1F
100
AcDbEntity
  8
0
370
    50
100
AcDbLine
 10
444.8069107426452
 20
889.9119457167799
 30
0.0
 11
443.8069107426453
 21
889.9119457167799
 31
0.0
  0
LINE
  5
251D
330
1F
100
AcDbEntity
  8
0
370
    50
100
AcDbLine
 10
444.8069107426453
 20
1039.11194571678
 30
0.0
 11
444.8069107426453
 21
1036.11194571678
 31
0.0
  0
LINE
  5
251E
330
1F
100
AcDbEntity
  8
0
370
    50
100
AcDbLine
 10
443.8069107426453
 20
1039.11194571678
 30
0.0
 11
444.8069107426453
 21
1039.11194571678
 31
0.0
  0
LINE
  5
251F
330
1F
100
AcDbEntity
  8
0
370
    50
100
AcDbLine
 10
443.8069107426453
 20
1036.11194571678
 30
0.0
 11
443.8069107426453
 21
1039.11194571678
 31
0.0
  0
LINE
  5
2520
330
1F
100
AcDbEntity
  8
0
370
    50
100
AcDbLine
 10
444.8069107426453
 20
1036.11194571678
 30
0.0
 11
443.8069107426453
 21
1036.11194571678
 31
0.0
  0
LINE
  5
2521
330
1F
100
AcDbEntity
  8
0
370
    50
100
AcDbLine
 10
444.8069107426452
 20
944.5119457167798
 30
0.0
 11
444.8069107426452
 21
941.5119457167799
 31
0.0
  0
LINE
  5
2522
330
1F
100
AcDbEntity
  8
0
370
    50
100
AcDbLine
 10
443.8069107426453
 20
944.5119457167798
 30
0.0
 11
444.8069107426452
 21
944.5119457167798
 31
0.0
  0
LINE
  5
2523
330
1F
100
AcDbEntity
  8
0
370
    50
100
AcDbLine
 10
443.8069107426453
 20
941.5119457167799
 30
0.0
 11
443.8069107426453
 21
944.5119457167798
 31
0.0
  0
LINE
  5
2524
330
1F
100
AcDbEntity
  8
0
370
    50
100
AcDbLine
 10
444.8069107426452
 20
941.5119457167799
 30
0.0
 11
443.8069107426453
 21
941.5119457167799
 31
0.0
  0
LINE
  5
2525
330
1F
100
AcDbEntity
  8
0
370
    50
100
AcDbLine
 10
444.8069107426452
 20
935.9119457167798
 30
0.0
 11
444.8069107426452
 21
932.9119457167799
 31
0.0
  0
LINE
  5
2526
330
1F
100
AcDbEntity
  8
0
370
    50
100
AcDbLine
 10
443.8069107426453
 20
935.9119457167802
 30
0.0
 11
444.8069107426452
 21
935.9119457167802
 31
0.0
  0
LINE
  5
2527
330
1F
100
AcDbEntity
  8
0
370
    50
100
AcDbLine
 10
443.8069107426453
 20
932.91194571678
 30
0.0
 11
443.8069107426453
 21
935.9119457167802
 31
0.0
  0
LINE
  5
2528
330
1F
100
AcDbEntity
  8
0
370
    50
100
AcDbLine
 10
444.8069107426452
 20
932.91194571678
 30
0.0
 11
443.8069107426453
 21
932.91194571678
 31
0.0
  0
LINE
  5
2529
330
1F
100
AcDbEntity
  8
0
370
    50
100
AcDbLine
 10
444.8069107426452
 20
961.7119457167799
 30
0.0
 11
444.8069107426452
 21
958.71194571678
 31
0.0
  0
LINE
  5
252A
330
1F
100
AcDbEntity
  8
0
370
    50
100
AcDbLine
 10
443.8069107426453
 20
961.7119457167799
 30
0.0
 11
444.8069107426452
 21
961.7119457167799
 31
0.0
  0
LINE
  5
252B
330
1F
100
AcDbEntity
  8
0
370
    50
100
AcDbLine
 10
443.8069107426453
 20
958.71194571678
 30
0.0
 11
443.8069107426453
 21
961.7119457167799
 31
0.0
  0
LINE
  5
252C
330
1F
100
AcDbEntity
  8
0
370
    50
100
AcDbLine
 10
444.8069107426453
 20
958.71194571678
 30
0.0
 11
443.8069107426453
 21
958.71194571678
 31
0.0
  0
LINE
  5
252D
330
1F
100
AcDbEntity
  8
0
370
    50
100
AcDbLine
 10
444.8069107426452
 20
953.1119457167799
 30
0.0
 11
444.8069107426452
 21
950.1119457167799
 31
0.0
  0
LINE
  5
252E
330
1F
100
AcDbEntity
  8
0
370
    50
100
AcDbLine
 10
443.8069107426453
 20
953.1119457167799
 30
0.0
 11
444.8069107426452
 21
953.1119457167799
 31
0.0
  0
LINE
  5
252F
330
1F
100
AcDbEntity
  8
0
370
    50
100
AcDbLine
 10
443.8069107426453
 20
950.1119457167799
 30
0.0
 11
443.8069107426453
 21
953.1119457167799
 31
0.0
  0
LINE
  5
2530
330
1F
100
AcDbEntity
  8
0
370
    50
100
AcDbLine
 10
444.8069107426452
 20
950.1119457167799
 30
0.0
 11
443.8069107426453
 21
950.1119457167799
 31
0.0
  0
LINE
  5
2531
330
1F
100
AcDbEntity
  8
0
370
    50
100
AcDbLine
 10
444.8069107426452
 20
910.1119457167799
 30
0.0
 11
444.8069107426452
 21
907.1119457167799
 31
0.0
  0
LINE
  5
2532
330
1F
100
AcDbEntity
  8
0
370
    50
100
AcDbLine
 10
443.8069107426453
 20
910.1119457167799
 30
0.0
 11
444.8069107426452
 21
910.1119457167799
 31
0.0
  0
LINE
  5
2533
330
1F
100
AcDbEntity
  8
0
370
    50
100
AcDbLine
 10
443.8069107426453
 20
907.1119457167799
 30
0.0
 11
443.8069107426453
 21
910.1119457167799
 31
0.0
  0
LINE
  5
2534
330
1F
100
AcDbEntity
  8
0
370
    50
100
AcDbLine
 10
444.8069107426452
 20
907.1119457167799
 30
0.0
 11
443.8069107426453
 21
907.1119457167799
 31
0.0
  0
LINE
  5
2535
330
1F
100
AcDbEntity
  8
0
370
    50
100
AcDbLine
 10
444.8069107426452
 20
901.5119457167799
 30
0.0
 11
444.8069107426452
 21
898.5119457167799
 31
0.0
  0
LINE
  5
2536
330
1F
100
AcDbEntity
  8
0
370
    50
100
AcDbLine
 10
443.8069107426453
 20
901.5119457167799
 30
0.0
 11
444.8069107426452
 21
901.5119457167799
 31
0.0
  0
LINE
  5
2537
330
1F
100
AcDbEntity
  8
0
370
    50
100
AcDbLine
 10
443.8069107426453
 20
898.5119457167799
 30
0.0
 11
443.8069107426453
 21
901.5119457167799
 31
0.0
  0
LINE
  5
2538
330
1F
100
AcDbEntity
  8
0
370
    50
100
AcDbLine
 10
444.8069107426452
 20
898.5119457167799
 30
0.0
 11
443.8069107426453
 21
898.5119457167799
 31
0.0
  0
LINE
  5
2539
330
1F
100
AcDbEntity
  8
0
370
    50
100
AcDbLine
 10
444.8069107426452
 20
927.3119457167799
 30
0.0
 11
444.8069107426452
 21
924.31194571678
 31
0.0
  0
LINE
  5
253A
330
1F
100
AcDbEntity
  8
0
370
    50
100
AcDbLine
 10
443.8069107426453
 20
927.3119457167799
 30
0.0
 11
444.8069107426452
 21
927.3119457167799
 31
0.0
  0
LINE
  5
253B
330
1F
100
AcDbEntity
  8
0
370
    50
100
AcDbLine
 10
443.8069107426453
 20
924.31194571678
 30
0.0
 11
443.8069107426453
 21
927.3119457167799
 31
0.0
  0
LINE
  5
253C
330
1F
100
AcDbEntity
  8
0
370
    50
100
AcDbLine
 10
444.8069107426452
 20
924.31194571678
 30
0.0
 11
443.8069107426453
 21
924.31194571678
 31
0.0
  0
LINE
  5
253D
330
1F
100
AcDbEntity
  8
0
370
    50
100
AcDbLine
 10
444.8069107426452
 20
918.7119457167799
 30
0.0
 11
444.8069107426452
 21
915.71194571678
 31
0.0
  0
LINE
  5
253E
330
1F
100
AcDbEntity
  8
0
370
    50
100
AcDbLine
 10
443.8069107426453
 20
918.7119457167799
 30
0.0
 11
444.8069107426452
 21
918.7119457167799
 31
0.0
  0
LINE
  5
253F
330
1F
100
AcDbEntity
  8
0
370
    50
100
AcDbLine
 10
443.8069107426453
 20
915.71194571678
 30
0.0
 11
443.8069107426453
 21
918.7119457167799
 31
0.0
  0
LINE
  5
2540
330
1F
100
AcDbEntity
  8
0
370
    50
100
AcDbLine
 10
444.8069107426452
 20
915.71194571678
 30
0.0
 11
443.8069107426453
 21
915.71194571678
 31
0.0
  0
LINE
  5
2541
330
1F
100
AcDbEntity
  8
0
370
    50
100
AcDbLine
 10
444.8069107426453
 20
1013.31194571678
 30
0.0
 11
444.8069107426453
 21
1010.31194571678
 31
0.0
  0
LINE
  5
2542
330
1F
100
AcDbEntity
  8
0
370
    50
100
AcDbLine
 10
443.8069107426453
 20
1013.31194571678
 30
0.0
 11
444.8069107426453
 21
1013.31194571678
 31
0.0
  0
LINE
  5
2543
330
1F
100
AcDbEntity
  8
0
370
    50
100
AcDbLine
 10
443.8069107426453
 20
1010.31194571678
 30
0.0
 11
443.8069107426453
 21
1013.31194571678
 31
0.0
  0
LINE
  5
2544
330
1F
100
AcDbEntity
  8
0
370
    50
100
AcDbLine
 10
444.8069107426453
 20
1010.31194571678
 30
0.0
 11
443.8069107426453
 21
1010.31194571678
 31
0.0
  0
LINE
  5
2545
330
1F
100
AcDbEntity
  8
0
370
    50
100
AcDbLine
 10
444.8069107426453
 20
1004.71194571678
 30
0.0
 11
444.8069107426453
 21
1001.71194571678
 31
0.0
  0
LINE
  5
2546
330
1F
100
AcDbEntity
  8
0
370
    50
100
AcDbLine
 10
443.8069107426453
 20
1004.71194571678
 30
0.0
 11
444.8069107426453
 21
1004.71194571678
 31
0.0
  0
LINE
  5
2547
330
1F
100
AcDbEntity
  8
0
370
    50
100
AcDbLine
 10
443.8069107426453
 20
1001.71194571678
 30
0.0
 11
443.8069107426453
 21
1004.71194571678
 31
0.0
  0
LINE
  5
2548
330
1F
100
AcDbEntity
  8
0
370
    50
100
AcDbLine
 10
444.8069107426453
 20
1001.71194571678
 30
0.0
 11
443.8069107426453
 21
1001.71194571678
 31
0.0
  0
LINE
  5
2549
330
1F
100
AcDbEntity
  8
0
370
    50
100
AcDbLine
 10
444.8069107426453
 20
1030.51194571678
 30
0.0
 11
444.8069107426453
 21
1027.51194571678
 31
0.0
  0
LINE
  5
254A
330
1F
100
AcDbEntity
  8
0
370
    50
100
AcDbLine
 10
443.8069107426453
 20
1030.51194571678
 30
0.0
 11
444.8069107426453
 21
1030.51194571678
 31
0.0
  0
LINE
  5
254B
330
1F
100
AcDbEntity
  8
0
370
    50
100
AcDbLine
 10
443.8069107426453
 20
1027.51194571678
 30
0.0
 11
443.8069107426453
 21
1030.51194571678
 31
0.0
  0
LINE
  5
254C
330
1F
100
AcDbEntity
  8
0
370
    50
100
AcDbLine
 10
444.8069107426453
 20
1027.51194571678
 30
0.0
 11
443.8069107426453
 21
1027.51194571678
 31
0.0
  0
LINE
  5
254D
330
1F
100
AcDbEntity
  8
0
370
    50
100
AcDbLine
 10
444.8069107426453
 20
1021.91194571678
 30
0.0
 11
444.8069107426453
 21
1018.91194571678
 31
0.0
  0
LINE
  5
254E
330
1F
100
AcDbEntity
  8
0
370
    50
100
AcDbLine
 10
443.8069107426453
 20
1021.91194571678
 30
0.0
 11
444.8069107426453
 21
1021.91194571678
 31
0.0
  0
LINE
  5
254F
330
1F
100
AcDbEntity
  8
0
370
    50
100
AcDbLine
 10
443.8069107426453
 20
1018.91194571678
 30
0.0
 11
443.8069107426453
 21
1021.91194571678
 31
0.0
  0
LINE
  5
2550
330
1F
100
AcDbEntity
  8
0
370
    50
100
AcDbLine
 10
444.8069107426453
 20
1018.91194571678
 30
0.0
 11
443.8069107426453
 21
1018.91194571678
 31
0.0
  0
LINE
  5
2551
330
1F
100
AcDbEntity
  8
0
370
    50
100
AcDbLine
 10
444.8069107426452
 20
978.9119457167798
 30
0.0
 11
444.8069107426452
 21
975.9119457167797
 31
0.0
  0
LINE
  5
2552
330
1F
100
AcDbEntity
  8
0
370
    50
100
AcDbLine
 10
443.8069107426453
 20
978.9119457167798
 30
0.0
 11
444.8069107426452
 21
978.9119457167798
 31
0.0
  0
LINE
  5
2553
330
1F
100
AcDbEntity
  8
0
370
    50
100
AcDbLine
 10
443.8069107426453
 20
975.91194571678
 30
0.0
 11
443.8069107426453
 21
978.9119457167798
 31
0.0
  0
LINE
  5
2554
330
1F
100
AcDbEntity
  8
0
370
    50
100
AcDbLine
 10
444.8069107426453
 20
975.91194571678
 30
0.0
 11
443.8069107426453
 21
975.91194571678
 31
0.0
  0
LINE
  5
2555
330
1F
100
AcDbEntity
  8
0
370
    50
100
AcDbLine
 10
444.8069107426452
 20
970.3119457167799
 30
0.0
 11
444.8069107426452
 21
967.31194571678
 31
0.0
  0
LINE
  5
2556
330
1F
100
AcDbEntity
  8
0
370
    50
100
AcDbLine
 10
443.8069107426453
 20
970.3119457167799
 30
0.0
 11
444.8069107426452
 21
970.3119457167799
 31
0.0
  0
LINE
  5
2557
330
1F
100
AcDbEntity
  8
0
370
    50
100
AcDbLine
 10
443.8069107426453
 20
967.31194571678
 30
0.0
 11
443.8069107426453
 21
970.3119457167799
 31
0.0
  0
LINE
  5
2558
330
1F
100
AcDbEntity
  8
0
370
    50
100
AcDbLine
 10
444.8069107426453
 20
967.31194571678
 30
0.0
 11
443.8069107426453
 21
967.31194571678
 31
0.0
  0
LINE
  5
2559
330
1F
100
AcDbEntity
  8
0
370
    50
100
AcDbLine
 10
444.8069107426453
 20
996.1119457167798
 30
0.0
 11
444.8069107426453
 21
993.1119457167799
 31
0.0
  0
LINE
  5
255A
330
1F
100
AcDbEntity
  8
0
370
    50
100
AcDbLine
 10
443.8069107426453
 20
996.1119457167798
 30
0.0
 11
444.8069107426453
 21
996.1119457167798
 31
0.0
  0
LINE
  5
255B
330
1F
100
AcDbEntity
  8
0
370
    50
100
AcDbLine
 10
443.8069107426453
 20
993.1119457167799
 30
0.0
 11
443.8069107426453
 21
996.1119457167798
 31
0.0
  0
LINE
  5
255C
330
1F
100
AcDbEntity
  8
0
370
    50
100
AcDbLine
 10
444.8069107426453
 20
993.1119457167799
 30
0.0
 11
443.8069107426453
 21
993.1119457167799
 31
0.0
  0
LINE
  5
255D
330
1F
100
AcDbEntity
  8
0
370
    50
100
AcDbLine
 10
444.8069107426453
 20
987.5119457167798
 30
0.0
 11
444.8069107426453
 21
984.5119457167799
 31
0.0
  0
LINE
  5
255E
330
1F
100
AcDbEntity
  8
0
370
    50
100
AcDbLine
 10
443.8069107426453
 20
987.5119457167798
 30
0.0
 11
444.8069107426453
 21
987.5119457167798
 31
0.0
  0
LINE
  5
255F
330
1F
100
AcDbEntity
  8
0
370
    50
100
AcDbLine
 10
443.8069107426453
 20
984.5119457167799
 30
0.0
 11
443.8069107426453
 21
987.5119457167798
 31
0.0
  0
LINE
  5
2560
330
1F
100
AcDbEntity
  8
0
370
    50
100
AcDbLine
 10
444.8069107426453
 20
984.5119457167799
 30
0.0
 11
443.8069107426453
 21
984.5119457167799
 31
0.0
  0
LINE
  5
2561
330
1F
100
AcDbEntity
  8
0
370
    50
100
AcDbLine
 10
453.3069107426451
 20
897.2119457167799
 30
0.0
 11
453.3069107426451
 21
894.21194571678
 31
0.0
  0
LINE
  5
2562
330
1F
100
AcDbEntity
  8
0
370
    50
100
AcDbLine
 10
452.3069107426453
 20
897.2119457167799
 30
0.0
 11
453.3069107426451
 21
897.2119457167799
 31
0.0
  0
LINE
  5
2563
330
1F
100
AcDbEntity
  8
0
370
    50
100
AcDbLine
 10
452.3069107426453
 20
894.21194571678
 30
0.0
 11
452.3069107426453
 21
897.2119457167799
 31
0.0
  0
LINE
  5
2564
330
1F
100
AcDbEntity
  8
0
370
    50
100
AcDbLine
 10
453.3069107426451
 20
894.21194571678
 30
0.0
 11
452.3069107426453
 21
894.21194571678
 31
0.0
  0
LINE
  5
2565
330
1F
100
AcDbEntity
  8
0
370
    50
100
AcDbLine
 10
453.3069107426453
 20
1043.41194571678
 30
0.0
 11
453.3069107426453
 21
1040.41194571678
 31
0.0
  0
LINE
  5
2566
330
1F
100
AcDbEntity
  8
0
370
    50
100
AcDbLine
 10
452.3069107426453
 20
1043.41194571678
 30
0.0
 11
453.3069107426453
 21
1043.41194571678
 31
0.0
  0
LINE
  5
2567
330
1F
100
AcDbEntity
  8
0
370
    50
100
AcDbLine
 10
452.3069107426453
 20
1040.41194571678
 30
0.0
 11
452.3069107426453
 21
1043.41194571678
 31
0.0
  0
LINE
  5
2568
330
1F
100
AcDbEntity
  8
0
370
    50
100
AcDbLine
 10
453.3069107426453
 20
1040.41194571678
 30
0.0
 11
452.3069107426453
 21
1040.41194571678
 31
0.0
  0
LINE
  5
2569
330
1F
100
AcDbEntity
  8
0
370
    50
100
AcDbLine
 10
453.3069107426453
 20
948.8119457167799
 30
0.0
 11
453.3069107426453
 21
945.81194571678
 31
0.0
  0
LINE
  5
256A
330
1F
100
AcDbEntity
  8
0
370
    50
100
AcDbLine
 10
452.3069107426453
 20
948.8119457167798
 30
0.0
 11
453.3069107426453
 21
948.8119457167798
 31
0.0
  0
LINE
  5
256B
330
1F
100
AcDbEntity
  8
0
370
    50
100
AcDbLine
 10
452.3069107426453
 20
945.81194571678
 30
0.0
 11
452.3069107426453
 21
948.8119457167799
 31
0.0
  0
LINE
  5
256C
330
1F
100
AcDbEntity
  8
0
370
    50
100
AcDbLine
 10
453.3069107426453
 20
945.8119457167796
 30
0.0
 11
452.3069107426453
 21
945.8119457167796
 31
0.0
  0
LINE
  5
256D
330
1F
100
AcDbEntity
  8
0
370
    50
100
AcDbLine
 10
453.3069107426453
 20
940.2119457167799
 30
0.0
 11
453.3069107426453
 21
937.21194571678
 31
0.0
  0
LINE
  5
256E
330
1F
100
AcDbEntity
  8
0
370
    50
100
AcDbLine
 10
452.3069107426453
 20
940.2119457167799
 30
0.0
 11
453.3069107426453
 21
940.2119457167799
 31
0.0
  0
LINE
  5
256F
330
1F
100
AcDbEntity
  8
0
370
    50
100
AcDbLine
 10
452.3069107426453
 20
937.21194571678
 30
0.0
 11
452.3069107426453
 21
940.2119457167799
 31
0.0
  0
LINE
  5
2570
330
1F
100
AcDbEntity
  8
0
370
    50
100
AcDbLine
 10
453.3069107426453
 20
937.21194571678
 30
0.0
 11
452.3069107426453
 21
937.21194571678
 31
0.0
  0
LINE
  5
2571
330
1F
100
AcDbEntity
  8
0
370
    50
100
AcDbLine
 10
453.3069107426453
 20
966.0119457167798
 30
0.0
 11
453.3069107426453
 21
963.0119457167799
 31
0.0
  0
LINE
  5
2572
330
1F
100
AcDbEntity
  8
0
370
    50
100
AcDbLine
 10
452.3069107426453
 20
966.0119457167798
 30
0.0
 11
453.3069107426453
 21
966.0119457167798
 31
0.0
  0
LINE
  5
2573
330
1F
100
AcDbEntity
  8
0
370
    50
100
AcDbLine
 10
452.3069107426453
 20
963.0119457167799
 30
0.0
 11
452.3069107426453
 21
966.0119457167798
 31
0.0
  0
LINE
  5
2574
330
1F
100
AcDbEntity
  8
0
370
    50
100
AcDbLine
 10
453.3069107426453
 20
963.0119457167799
 30
0.0
 11
452.3069107426453
 21
963.0119457167799
 31
0.0
  0
LINE
  5
2575
330
1F
100
AcDbEntity
  8
0
370
    50
100
AcDbLine
 10
453.3069107426453
 20
957.4119457167798
 30
0.0
 11
453.3069107426453
 21
954.4119457167797
 31
0.0
  0
LINE
  5
2576
330
1F
100
AcDbEntity
  8
0
370
    50
100
AcDbLine
 10
452.3069107426453
 20
957.4119457167798
 30
0.0
 11
453.3069107426453
 21
957.4119457167798
 31
0.0
  0
LINE
  5
2577
330
1F
100
AcDbEntity
  8
0
370
    50
100
AcDbLine
 10
452.3069107426453
 20
954.41194571678
 30
0.0
 11
452.3069107426453
 21
957.4119457167798
 31
0.0
  0
LINE
  5
2578
330
1F
100
AcDbEntity
  8
0
370
    50
100
AcDbLine
 10
453.3069107426453
 20
954.41194571678
 30
0.0
 11
452.3069107426453
 21
954.41194571678
 31
0.0
  0
LINE
  5
2579
330
1F
100
AcDbEntity
  8
0
370
    50
100
AcDbLine
 10
453.3069107426451
 20
914.4119457167802
 30
0.0
 11
453.3069107426451
 21
911.4119457167799
 31
0.0
  0
LINE
  5
257A
330
1F
100
AcDbEntity
  8
0
370
    50
100
AcDbLine
 10
452.3069107426453
 20
914.4119457167802
 30
0.0
 11
453.3069107426451
 21
914.4119457167802
 31
0.0
  0
LINE
  5
257B
330
1F
100
AcDbEntity
  8
0
370
    50
100
AcDbLine
 10
452.3069107426453
 20
911.4119457167799
 30
0.0
 11
452.3069107426453
 21
914.4119457167802
 31
0.0
  0
LINE
  5
257C
330
1F
100
AcDbEntity
  8
0
370
    50
100
AcDbLine
 10
453.3069107426451
 20
911.4119457167799
 30
0.0
 11
452.3069107426453
 21
911.4119457167799
 31
0.0
  0
LINE
  5
257D
330
1F
100
AcDbEntity
  8
0
370
    50
100
AcDbLine
 10
453.3069107426451
 20
905.8119457167801
 30
0.0
 11
453.3069107426451
 21
902.8119457167797
 31
0.0
  0
LINE
  5
257E
330
1F
100
AcDbEntity
  8
0
370
    50
100
AcDbLine
 10
452.3069107426453
 20
905.8119457167801
 30
0.0
 11
453.3069107426451
 21
905.8119457167801
 31
0.0
  0
LINE
  5
257F
330
1F
100
AcDbEntity
  8
0
370
    50
100
AcDbLine
 10
452.3069107426453
 20
902.81194571678
 30
0.0
 11
452.3069107426453
 21
905.8119457167801
 31
0.0
  0
LINE
  5
2580
330
1F
100
AcDbEntity
  8
0
370
    50
100
AcDbLine
 10
453.3069107426451
 20
902.81194571678
 30
0.0
 11
452.3069107426453
 21
902.81194571678
 31
0.0
  0
LINE
  5
2581
330
1F
100
AcDbEntity
  8
0
370
    50
100
AcDbLine
 10
453.3069107426453
 20
931.6119457167799
 30
0.0
 11
453.3069107426453
 21
928.6119457167799
 31
0.0
  0
LINE
  5
2582
330
1F
100
AcDbEntity
  8
0
370
    50
100
AcDbLine
 10
452.3069107426453
 20
931.6119457167799
 30
0.0
 11
453.3069107426453
 21
931.6119457167799
 31
0.0
  0
LINE
  5
2583
330
1F
100
AcDbEntity
  8
0
370
    50
100
AcDbLine
 10
452.3069107426453
 20
928.6119457167799
 30
0.0
 11
452.3069107426453
 21
931.6119457167799
 31
0.0
  0
LINE
  5
2584
330
1F
100
AcDbEntity
  8
0
370
    50
100
AcDbLine
 10
453.3069107426453
 20
928.6119457167799
 30
0.0
 11
452.3069107426453
 21
928.6119457167799
 31
0.0
  0
LINE
  5
2585
330
1F
100
AcDbEntity
  8
0
370
    50
100
AcDbLine
 10
453.3069107426453
 20
923.0119457167798
 30
0.0
 11
453.3069107426453
 21
920.0119457167799
 31
0.0
  0
LINE
  5
2586
330
1F
100
AcDbEntity
  8
0
370
    50
100
AcDbLine
 10
452.3069107426453
 20
923.0119457167798
 30
0.0
 11
453.3069107426453
 21
923.0119457167798
 31
0.0
  0
LINE
  5
2587
330
1F
100
AcDbEntity
  8
0
370
    50
100
AcDbLine
 10
452.3069107426453
 20
920.0119457167799
 30
0.0
 11
452.3069107426453
 21
923.0119457167798
 31
0.0
  0
LINE
  5
2588
330
1F
100
AcDbEntity
  8
0
370
    50
100
AcDbLine
 10
453.3069107426453
 20
920.0119457167799
 30
0.0
 11
452.3069107426453
 21
920.0119457167799
 31
0.0
  0
LINE
  5
2589
330
1F
100
AcDbEntity
  8
0
370
    50
100
AcDbLine
 10
453.3069107426453
 20
1017.61194571678
 30
0.0
 11
453.3069107426453
 21
1014.61194571678
 31
0.0
  0
LINE
  5
258A
330
1F
100
AcDbEntity
  8
0
370
    50
100
AcDbLine
 10
452.3069107426453
 20
1017.61194571678
 30
0.0
 11
453.3069107426453
 21
1017.61194571678
 31
0.0
  0
LINE
  5
258B
330
1F
100
AcDbEntity
  8
0
370
    50
100
AcDbLine
 10
452.3069107426453
 20
1014.61194571678
 30
0.0
 11
452.3069107426453
 21
1017.61194571678
 31
0.0
  0
LINE
  5
258C
330
1F
100
AcDbEntity
  8
0
370
    50
100
AcDbLine
 10
453.3069107426453
 20
1014.61194571678
 30
0.0
 11
452.3069107426453
 21
1014.61194571678
 31
0.0
  0
LINE
  5
258D
330
1F
100
AcDbEntity
  8
0
370
    50
100
AcDbLine
 10
453.3069107426453
 20
1009.01194571678
 30
0.0
 11
453.3069107426453
 21
1006.01194571678
 31
0.0
  0
LINE
  5
258E
330
1F
100
AcDbEntity
  8
0
370
    50
100
AcDbLine
 10
452.3069107426453
 20
1009.01194571678
 30
0.0
 11
453.3069107426453
 21
1009.01194571678
 31
0.0
  0
LINE
  5
258F
330
1F
100
AcDbEntity
  8
0
370
    50
100
AcDbLine
 10
452.3069107426453
 20
1006.01194571678
 30
0.0
 11
452.3069107426453
 21
1009.01194571678
 31
0.0
  0
LINE
  5
2590
330
1F
100
AcDbEntity
  8
0
370
    50
100
AcDbLine
 10
453.3069107426453
 20
1006.01194571678
 30
0.0
 11
452.3069107426453
 21
1006.01194571678
 31
0.0
  0
LINE
  5
2591
330
1F
100
AcDbEntity
  8
0
370
    50
100
AcDbLine
 10
453.3069107426453
 20
1034.81194571678
 30
0.0
 11
453.3069107426453
 21
1031.81194571678
 31
0.0
  0
LINE
  5
2592
330
1F
100
AcDbEntity
  8
0
370
    50
100
AcDbLine
 10
452.3069107426453
 20
1034.81194571678
 30
0.0
 11
453.3069107426453
 21
1034.81194571678
 31
0.0
  0
LINE
  5
2593
330
1F
100
AcDbEntity
  8
0
370
    50
100
AcDbLine
 10
452.3069107426453
 20
1031.81194571678
 30
0.0
 11
452.3069107426453
 21
1034.81194571678
 31
0.0
  0
LINE
  5
2594
330
1F
100
AcDbEntity
  8
0
370
    50
100
AcDbLine
 10
453.3069107426453
 20
1031.81194571678
 30
0.0
 11
452.3069107426453
 21
1031.81194571678
 31
0.0
  0
LINE
  5
2595
330
1F
100
AcDbEntity
  8
0
370
    50
100
AcDbLine
 10
453.3069107426453
 20
1026.21194571678
 30
0.0
 11
453.3069107426453
 21
1023.21194571678
 31
0.0
  0
LINE
  5
2596
330
1F
100
AcDbEntity
  8
0
370
    50
100
AcDbLine
 10
452.3069107426453
 20
1026.21194571678
 30
0.0
 11
453.3069107426453
 21
1026.21194571678
 31
0.0
  0
LINE
  5
2597
330
1F
100
AcDbEntity
  8
0
370
    50
100
AcDbLine
 10
452.3069107426453
 20
1023.21194571678
 30
0.0
 11
452.3069107426453
 21
1026.21194571678
 31
0.0
  0
LINE
  5
2598
330
1F
100
AcDbEntity
  8
0
370
    50
100
AcDbLine
 10
453.3069107426453
 20
1023.21194571678
 30
0.0
 11
452.3069107426453
 21
1023.21194571678
 31
0.0
  0
LINE
  5
2599
330
1F
100
AcDbEntity
  8
0
370
    50
100
AcDbLine
 10
453.3069107426453
 20
983.2119457167799
 30
0.0
 11
453.3069107426453
 21
980.2119457167799
 31
0.0
  0
LINE
  5
259A
330
1F
100
AcDbEntity
  8
0
370
    50
100
AcDbLine
 10
452.3069107426453
 20
983.2119457167799
 30
0.0
 11
453.3069107426453
 21
983.2119457167799
 31
0.0
  0
LINE
  5
259B
330
1F
100
AcDbEntity
  8
0
370
    50
100
AcDbLine
 10
452.3069107426453
 20
980.2119457167799
 30
0.0
 11
452.3069107426453
 21
983.2119457167799
 31
0.0
  0
LINE
  5
259C
330
1F
100
AcDbEntity
  8
0
370
    50
100
AcDbLine
 10
453.3069107426453
 20
980.2119457167799
 30
0.0
 11
452.3069107426453
 21
980.2119457167799
 31
0.0
  0
LINE
  5
259D
330
1F
100
AcDbEntity
  8
0
370
    50
100
AcDbLine
 10
453.3069107426453
 20
974.6119457167798
 30
0.0
 11
453.3069107426453
 21
971.6119457167799
 31
0.0
  0
LINE
  5
259E
330
1F
100
AcDbEntity
  8
0
370
    50
100
AcDbLine
 10
452.3069107426453
 20
974.6119457167798
 30
0.0
 11
453.3069107426453
 21
974.6119457167798
 31
0.0
  0
LINE
  5
259F
330
1F
100
AcDbEntity
  8
0
370
    50
100
AcDbLine
 10
452.3069107426453
 20
971.6119457167799
 30
0.0
 11
452.3069107426453
 21
974.6119457167798
 31
0.0
  0
LINE
  5
25A0
330
1F
100
AcDbEntity
  8
0
370
    50
100
AcDbLine
 10
453.3069107426453
 20
971.6119457167799
 30
0.0
 11
452.3069107426453
 21
971.6119457167799
 31
0.0
  0
LINE
  5
25A1
330
1F
100
AcDbEntity
  8
0
370
    50
100
AcDbLine
 10
453.3069107426453
 20
1000.41194571678
 30
0.0
 11
453.3069107426453
 21
997.4119457167798
 31
0.0
  0
LINE
  5
25A2
330
1F
100
AcDbEntity
  8
0
370
    50
100
AcDbLine
 10
452.3069107426453
 20
1000.41194571678
 30
0.0
 11
453.3069107426453
 21
1000.41194571678
 31
0.0
  0
LINE
  5
25A3
330
1F
100
AcDbEntity
  8
0
370
    50
100
AcDbLine
 10
452.3069107426453
 20
997.4119457167798
 30
0.0
 11
452.3069107426453
 21
1000.41194571678
 31
0.0
  0
LINE
  5
25A4
330
1F
100
AcDbEntity
  8
0
370
    50
100
AcDbLine
 10
453.3069107426453
 20
997.4119457167798
 30
0.0
 11
452.3069107426453
 21
997.4119457167798
 31
0.0
  0
LINE
  5
25A5
330
1F
100
AcDbEntity
  8
0
370
    50
100
AcDbLine
 10
453.3069107426453
 20
991.8119457167799
 30
0.0
 11
453.3069107426453
 21
988.8119457167801
 31
0.0
  0
LINE
  5
25A6
330
1F
100
AcDbEntity
  8
0
370
    50
100
AcDbLine
 10
452.3069107426453
 20
991.8119457167799
 30
0.0
 11
453.3069107426453
 21
991.8119457167799
 31
0.0
  0
LINE
  5
25A7
330
1F
100
AcDbEntity
  8
0
370
    50
100
AcDbLine
 10
452.3069107426453
 20
988.8119457167801
 30
0.0
 11
452.3069107426453
 21
991.8119457167799
 31
0.0
  0
LINE
  5
25A8
330
1F
100
AcDbEntity
  8
0
370
    50
100
AcDbLine
 10
453.3069107426453
 20
988.8119457167798
 30
0.0
 11
452.3069107426453
 21
988.8119457167798
 31
0.0
  0
ARC
  5
25A9
330
1F
100
AcDbEntity
  8
0
370
    50
100
AcDbCircle
 10
455.3069107426453
 20
1047.011945716779
 30
0.0
 40
1.999999999999999
100
AcDbArc
 50
0.0
 51
90.0
  0
ARC
  5
25AA
330
1F
100
AcDbEntity
  8
0
370
    50
100
AcDbCircle
 10
455.3069107426453
 20
886.0119457167799
 30
0.0
 40
1.999999999999999
100
AcDbArc
 50
270.0
 51
0.0
  0
ARC
  5
25AB
330
1F
100
AcDbEntity
  8
0
370
    50
100
AcDbCircle
 10
441.306910742645
 20
886.0119457167799
 30
0.0
 40
1.999999999999999
100
AcDbArc
 50
180.0
 51
270.0
  0
ARC
  5
25AC
330
1F
100
AcDbEntity
  8
0
370
    50
100
AcDbCircle
 10
441.3069107426453
 20
1047.011945716779
 30
0.0
 40
1.999999999999999
100
AcDbArc
 50
90.0
 51
180.0
  0
CIRCLE
  5
25AD
330
1F
100
AcDbEntity
  8
0
370
    50
100
AcDbCircle
 10
452.8069107426452
 20
887.2619457167798
 30
0.0
 40
2.0
  0
CIRCLE
  5
25AE
330
1F
100
AcDbEntity
  8
0
370
    50
100
AcDbCircle
 10
444.3069107426453
 20
1045.76194571678
 30
0.0
 40
2.0
  0
LINE
  5
25AF
330
1F
100
AcDbEntity
  8
0
370
    50
100
AcDbLine
 10
454.3069107426453
 20
870.5119457167798
 30
0.0
 11
460.8069107426453
 21
870.5119457167798
 31
0.0
  0
LINE
  5
25B0
330
1F
100
AcDbEntity
  8
0
370
    50
100
AcDbLine
 10
460.8069107426453
 20
870.5119457167798
 30
0.0
 11
460.8069107426453
 21
909.5119457167799
 31
0.0
  0
LINE
  5
25B1
330
1F
100
AcDbEntity
  8
0
370
    50
100
AcDbLine
 10
460.8069107426453
 20
909.5119457167799
 30
0.0
 11
553.806910742645
 21
909.5119457167799
 31
0.0
  0
LINE
  5
25B2
330
1F
100
AcDbEntity
  8
0
370
    50
100
AcDbLine
 10
553.806910742645
 20
909.5119457167799
 30
0.0
 11
553.806910742645
 21
870.5119457167798
 31
0.0
  0
LINE
  5
25B3
330
1F
100
AcDbEntity
  8
0
370
    50
100
AcDbLine
 10
553.806910742645
 20
870.5119457167798
 30
0.0
 11
542.8069107426453
 21
870.5119457167798
 31
0.0
  0
LINE
  5
25B4
330
1F
100
AcDbEntity
  8
0
370
    50
100
AcDbLine
 10
542.8069107426453
 20
870.5119457167798
 30
0.0
 11
542.8069107426453
 21
909.5119457167799
 31
0.0
  0
LINE
  5
25B5
330
1F
100
AcDbEntity
  8
0
370
    50
100
AcDbLine
 10
460.8069107426453
 20
909.5119457167799
 30
0.0
 11
471.8069107426453
 21
909.5119457167799
 31
0.0
  0
LINE
  5
25B6
330
1F
100
AcDbEntity
  8
0
370
    50
100
AcDbLine
 10
471.8069107426453
 20
909.5119457167799
 30
0.0
 11
471.8069107426453
 21
870.5119457167798
 31
0.0
  0
CIRCLE
  5
25B7
330
1F
100
AcDbEntity
  8
0
370
    50
100
AcDbCircle
 10
465.8069107426453
 20
890.0119457167798
 30
0.0
 40
3.0
  0
CIRCLE
  5
25B8
330
1F
100
AcDbEntity
  8
0
370
    50
100
AcDbCircle
 10
548.8069107426452
 20
890.0119457167798
 30
0.0
 40
3.0
  0
LINE
  5
25B9
330
1F
100
AcDbEntity
  8
0
370
    50
100
AcDbLine
 10
465.8069107426453
 20
890.0119457167798
 30
0.0
 11
465.8069107426453
 21
890.0119457167798
 31
0.0
  0
LINE
  5
25BA
330
1F
100
AcDbEntity
  8
0
370
    50
100
AcDbLine
 10
465.8069107426453
 20
890.0119457167798
 30
0.0
 11
468.8185218104409
 21
890.0119457167798
 31
0.0
  0
LINE
  5
25BB
330
1F
100
AcDbEntity
  8
0
370
    50
100
AcDbLine
 10
468.8185218104409
 20
890.0119457167798
 30
0.0
 11
462.8189630563645
 21
890.0119457167798
 31
0.0
  0
LINE
  5
25BC
330
1F
100
AcDbEntity
  8
0
370
    50
100
AcDbLine
 10
465.8069107426453
 20
890.0119457167798
 30
0.0
 11
465.8069107426453
 21
887.0315714649805
 31
0.0
  0
LINE
  5
25BD
330
1F
100
AcDbEntity
  8
0
370
    50
100
AcDbLine
 10
465.8069107426453
 20
887.0315714649805
 30
0.0
 11
465.8069107426453
 21
893.0071168332124
 31
0.0
  0
LINE
  5
25BE
330
1F
100
AcDbEntity
  8
0
370
    50
100
AcDbLine
 10
548.8069107426452
 20
890.0119457167798
 30
0.0
 11
548.8069107426452
 21
893.0058125653996
 31
0.0
  0
LINE
  5
25BF
330
1F
100
AcDbEntity
  8
0
370
    50
100
AcDbLine
 10
548.8069107426452
 20
893.0058125653996
 30
0.0
 11
548.8069107426452
 21
887.0217771519676
 31
0.0
  0
LINE
  5
25C0
330
1F
100
AcDbEntity
  8
0
370
    50
100
AcDbLine
 10
548.8069107426452
 20
890.0119457167798
 30
0.0
 11
551.7983410457627
 21
890.0119457167798
 31
0.0
  0
LINE
  5
25C1
330
1F
100
AcDbEntity
  8
0
370
    50
100
AcDbLine
 10
551.7983410457627
 20
890.0119457167798
 30
0.0
 11
545.8116351704656
 21
890.0119457167798
 31
0.0
  0
VIEWPORT
  5
1834
102
{ACAD_XDICTIONARY
360
1835
102
}
330
182D
100
AcDbEntity
 67
     1
  8
0
100
AcDbViewport
 10
150.5513509028158
 20
95.4145582790322
 30
0.0
 40
281.9572979008398
 41
201.6727817040107
 68
     1
 69
     1
 12
150.5513509028158
 22
95.4145582790322
 13
0.0
 23
0.0
 14
10.0
 24
10.0
 15
10.0
 25
10.0
 16
0.0
 26
0.0
 36
1.0
 17
0.0
 27
0.0
 37
0.0
 42
50.0
 43
0.0
 44
0.0
 45
201.6727817040107
 50
0.0
 51
0.0
 72
  1000
 90
    32800
  1

281
     0
 71
     0
 74
     0
110
0.0
120
0.0
130
0.0
111
1.0
121
0.0
131
0.0
112
0.0
122
1.0
132
0.0
 79
     0
146
0.0
  0
VIEWPORT
  5
1838
102
{ACAD_XDICTIONARY
360
1839
102
}
330
182D
100
AcDbEntity
 67
     1
  8
0
100
AcDbViewport
 10
145.3303314447403
 20
101.8116623163223
 30
0.0
 40
232.5285303115845
 41
162.8986597061157
 68
     2
 69
     2
 12
455.1067757003495
 22
1057.739290853434
 13
0.0
 23
0.0
 14
10.0
 24
10.0
 15
10.0
 25
10.0
 16
0.0
 26
0.0
 36
1.0
 17
0.0
 27
0.0
 37
0.0
 42
50.0
 43
0.0
 44
0.0
 45
593.3514439145262
 50
0.0
 51
0.0
 72
  1000
 90
    32864
  1

281
     0
 71
     1
 74
     0
110
0.0
120
0.0
130
0.0
111
1.0
121
0.0
131
0.0
112
0.0
122
1.0
132
0.0
 79
     0
146
0.0
1001
GENIUS_GENSCREG_15
1000
PF
1040
0.0
1000
DF
1040
0.0
1000
MIN
1011
29.06606628894804
1021
20.36233246326444
1031
0.0
1000
MAX
1011
261.5945966005325
1021
183.2609921693801
1031
0.0
1000
FLAGS
1070
     4
1001
GENIUS_GENODEF_13
1002
{
1000
HIER
1070
     0
1002
}
1002
{
1000
MANEDIT
1070
     0
1002
}
1002
{
1000
NOSEL
1070
     0
1002
}
1002
{
1000
BEHIND
1070
     0
1002
}
1002
{
1000
OTHER
1070
     0
1002
}
1002
{
1000
REACTOR
1002
}
1001
GENIUS_GENOBJ-N-SDF_13
1002
{
1000
OWNER
1000
GEN
1002
}
  0
ENDSEC
  0
SECTION
  2
OBJECTS
  0
DICTIONARY
  5
C
330
0
100
AcDbDictionary
281
     1
  3
ACAD_2007HEADERVARS_RT
350
1874
  3
ACAD_COLOR
350
6B
  3
ACAD_GROUP
350
D
  3
ACAD_LAYOUT
350
1A
  3
ACAD_MATERIAL
350
6A
  3
ACAD_MLEADERSTYLE
350
1783
  3
ACAD_MLINESTYLE
350
17
  3
ACAD_PLOTSETTINGS
350
19
  3
ACAD_PLOTSTYLENAME
350
E
  3
ACAD_SCALELIST
350
1761
  3
ACAD_TABLESTYLE
350
7E
  3
ACAD_VISUALSTYLE
350
1750
  3
ACDB_RECOMPOSE_DATA
350
1805
  3
ACDBHEADERROUNDTRIPXREC
350
27FF
  3
AcDbVariableDictionary
350
5E
  3
AcmDictionary
350
2796
  3
AMG
350
26D5
  3
AMGSNAPSETTINGS
350
27E4
  3
DWGPROPS
350
27FE
  3
MAPISURF_MODULE
350
2762
  0
DICTIONARY
  5
1808
330
8
100
AcDbDictionary
280
     1
281
     1
  0
DICTIONARY
  5
1C1
330
2
100
AcDbDictionary
280
     1
281
     1
  3
ACAD_LAYERSTATES
360
1C2
  0
DICTIONARY
  5
178C
330
10
100
AcDbDictionary
280
     1
281
     1
  3
ADSK_XREC_LAYER_RECONCILED
360
178D
  0
DICTIONARY
  5
1B0
330
1AF
100
AcDbDictionary
280
     1
281
     1
  3
ADSK_XREC_LAYER_RECONCILED
360
1B2
  0
DICTIONARY
  5
15E9
330
1F
100
AcDbDictionary
280
     1
281
     1
  3
ACAD_INDEX
360
27F8
  3
ACAD_SORTENTS
360
15EA
  0
DICTIONARY
  5
1835
330
1834
100
AcDbDictionary
280
     1
281
     1
  3
ACAD_XREC_ROUNDTRIP
360
2803
  3
ASDK_XREC_ANNOTATION_SCALE_INFO
360
1836
  0
DICTIONARY
  5
1839
330
1838
100
AcDbDictionary
280
     1
281
     1
  3
ACAD_XREC_ROUNDTRIP
360
2804
  3
ASDK_XREC_ANNOTATION_SCALE_INFO
360
183A
  0
DICTIONARY
  5
1874
102
{ACAD_REACTORS
330
C
102
}
330
C
100
AcDbDictionary
281
     1
  3
DIMARCSYM
350
1875
  0
DICTIONARY
  5
6B
102
{ACAD_REACTORS
330
C
102
}
330
C
100
AcDbDictionary
281
     1
  0
DICTIONARY
  5
D
102
{ACAD_REACTORS
330
C
102
}
330
C
100
AcDbDictionary
281
     1
  3
*A1
350
A85
  3
*A2
350
A86
  0
DICTIONARY
  5
1A
102
{ACAD_REACTORS
330
C
102
}
330
C
100
AcDbDictionary
281
     1
  3
Model
350
22
  3
レイアウト1
350
182E
  0
DICTIONARY
  5
6A
102
{ACAD_REACTORS
330
C
102
}
330
C
100
AcDbDictionary
281
     1
  3
ByBlock
350
1748
  3
ByLayer
350
1740
  3
Global
350
1BE
  0
DICTIONARY
  5
1783
102
{ACAD_REACTORS
330
C
102
}
330
C
100
AcDbDictionary
281
     1
  3
Standard
350
1784
  0
DICTIONARY
  5
17
102
{ACAD_REACTORS
330
C
102
}
330
C
100
AcDbDictionary
281
     1
  3
Standard
350
18
  0
DICTIONARY
  5
19
102
{ACAD_REACTORS
330
C
102
}
330
C
100
AcDbDictionary
281
     1
  0
ACDBDICTIONARYWDFLT
  5
E
102
{ACAD_REACTORS
330
C
102
}
330
C
100
AcDbDictionary
281
     1
  3
Normal
350
F
100
AcDbDictionaryWithDefault
340
F
  0
DICTIONARY
  5
1761
102
{ACAD_REACTORS
330
C
102
}
330
C
100
AcDbDictionary
281
     1
  3
A0
350
1762
  3
A1
350
1763
  3
A2
350
1764
  3
A3
350
1765
  3
A4
350
1766
  3
A5
350
1767
  3
A6
350
1768
  3
A7
350
1769
  3
A8
350
176A
  3
A9
350
176B
  3
B0
350
176C
  3
B1
350
176D
  3
B2
350
176E
  3
B3
350
176F
  3
B4
350
1770
  3
B5
350
1771
  3
B6
350
1772
  3
B7
350
1773
  3
B8
350
1774
  3
B9
350
1775
  3
C0
350
1776
  3
C1
350
1777
  3
C2
350
1778
  3
C3
350
1779
  3
C4
350
177A
  3
C5
350
177B
  3
C6
350
177C
  3
C7
350
177D
  3
C8
350
177E
  3
C9
350
177F
  3
D0
350
1780
  3
D1
350
1781
  3
D2
350
1782
  0
DICTIONARY
  5
7E
102
{ACAD_REACTORS
330
C
102
}
330
C
100
AcDbDictionary
281
     1
  3
Standard
350
7F
  0
DICTIONARY
  5
1750
102
{ACAD_REACTORS
330
C
102
}
330
C
100
AcDbDictionary
281
     1
  3
2dWireframe
350
1756
  3
3D Hidden
350
1758
  3
3dWireframe
350
1757
  3
Basic
350
1755
  3
Brighten
350
175C
  3
ColorChange
350
1760
  3
Conceptual
350
1759
  3
Dim
350
175B
  3
Facepattern
350
175F
  3
Flat
350
1751
  3
FlatWithEdges
350
1752
  3
Gouraud
350
1753
  3
GouraudWithEdges
350
1754
  3
Linepattern
350
175E
  3
Realistic
350
175A
  3
Thicken
350
175D
  0
XRECORD
  5
1805
102
{ACAD_REACTORS
330
C
102
}
330
C
100
AcDbXrecord
280
     1
 90
        1
330
7F
  0
DICTIONARY
  5
27FF
102
{ACAD_REACTORS
330
C
102
}
330
C
100
AcDbDictionary
281
     1
  0
DICTIONARY
  5
5E
102
{ACAD_REACTORS
330
C
102
}
330
C
100
AcDbDictionary
281
     1
  3
CANNOSCALE
350
181E
  3
CMLEADERSTYLE
350
181D
  3
CTABLESTYLE
350
84
  3
DIMASSOC
350
5F
  3
HIDETEXT
350
63
  3
INDEXCTL
350
1871
  3
PROJECTNAME
350
1917
  3
SORTENTS
350
1870
  0
DICTIONARY
  5
2796
102
{ACAD_REACTORS
330
C
102
}
330
C
100
AcDbDictionary
281
     1
  3
AcmStdDictionary
350
27A2
  3
AMDTSECTSYM_ARROWCOLOR
350
27C1
  0
DICTIONARY
  5
26D5
102
{ACAD_REACTORS
330
C
102
}
330
C
100
AcDbDictionary
281
     1
  3
AcMgSettings
350
26D6
  0
DICTIONARY
  5
27E4
102
{ACAD_REACTORS
330
C
102
}
330
C
100
AcDbDictionary
281
     1
  3
DIMENSION
350
27E9
  3
FEA
350
27E8
  3
HATCH (1)
350
27E5
  3
HATCH (2)
350
27E6
  3
SIMPLE WELD
350
27EA
  3
SYMBOLS
350
27E7
  0
XRECORD
  5
27FE
102
{ACAD_REACTORS
330
C
102
}
330
C
100
AcDbXrecord
280
     1
  1
DWGPROPS COOKIE
  2

  3

  4

  6

  7

  8
A070040
  9

300
AmdtFileType=84
301
=
302
=
303
=
304
=
305
=
306
=
307
=
308
=
309
=
 40
0.0929112615740741
 41
2454354.690738924
 42
2455610.580561181
  1

 90
        1
  0
DICTIONARY
  5
1C2
102
{ACAD_REACTORS
330
1C1
102
}
330
1C1
100
AcDbDictionary
281
     1
  0
XRECORD
  5
178D
102
{ACAD_REACTORS
330
178C
102
}
330
178C
100
AcDbXrecord
280
     1
290
     1
  0
XRECORD
  5
1B2
102
{ACAD_REACTORS
330
1B0
102
}
330
1B0
100
AcDbXrecord
280
     1
290
     1
  0
DICTIONARY
  5
27F8
102
{ACAD_REACTORS
330
15E9
102
}
330
15E9
100
AcDbDictionary
281
     1
  3
*A1
350
27F9
  0
SORTENTSTABLE
  5
15EA
102
{ACAD_REACTORS
330
15E9
102
}
330
15E9
100
AcDbSortentsTable
330
1F
  0
XRECORD
  5
2803
102
{ACAD_REACTORS
330
1835
102
}
330
1835
100
AcDbXrecord
280
     1
102
SHADEPLOT
 70
     0
  0
XRECORD
  5
1836
102
{ACAD_REACTORS
330
1835
102
}
330
1835
100
AcDbXrecord
280
     1
 90
        1
340
1762
  0
XRECORD
  5
2804
102
{ACAD_REACTORS
330
1839
102
}
330
1839
100
AcDbXrecord
280
     1
102
SHADEPLOT
 70
     0
  0
XRECORD
  5
183A
102
{ACAD_REACTORS
330
1839
102
}
330
1839
100
AcDbXrecord
280
     1
 90
        1
340
1762
  0
XRECORD
  5
1875
102
{ACAD_REACTORS
330
1874
102
}
330
1874
100
AcDbXrecord
280
     1
 70
     1
  0
GROUP
  5
A85
102
{ACAD_REACTORS
330
D
102
}
330
D
100
AcDbGroup
300

 70
     1
 71
     1
  0
GROUP
  5
A86
102
{ACAD_REACTORS
330
D
102
}
330
D
100
AcDbGroup
300

 70
     1
 71
     1
  0
LAYOUT
  5
22
102
{ACAD_XDICTIONARY
360
2800
102
}
102
{ACAD_REACTORS
330
1A
102
}
330
1A
100
AcDbPlotSettings
  1

  2
Adobe PDF
  4
A4
  6

 40
3.174999952316284
 41
3.174999952316284
 42
3.175003051757812
 43
3.17498779296875
 44
209.9733276367187
 45
297.0318298339844
 46
0.0
 47
2.998751917953853
 48
0.0
 49
0.0
140
0.0
141
0.0
142
1.0
143
2.497142706110089
 70
 11956
 72
     1
 73
     1
 74
     0
  7
KIHON1.ctb
 75
     0
147
0.4004576901244642
148
-57.83947129452087
149
-810.0074194302962
100
AcDbLayout
  1
Model
 70
     1
 71
     0
 10
0.0
 20
0.0
 11
12.0
 21
9.0
 12
0.0
 22
0.0
 32
0.0
 14
0.0
 24
0.0
 34
0.0
 15
0.0
 25
0.0
 35
0.0
146
0.0
 13
0.0
 23
0.0
 33
0.0
 16
1.0
 26
0.0
 36
0.0
 17
0.0
 27
1.0
 37
0.0
 76
     0
330
1F
331
173E
1001
ACAD_PSEXT
1000
Adobe PDF
1000
Adobe PDF Converter
1000
My Documents
1000

1070
     0
  0
LAYOUT
  5
182E
102
{ACAD_XDICTIONARY
360
1842
102
}
102
{ACAD_REACTORS
330
1A
102
}
330
1A
100
AcDbPlotSettings
  1

  2
Microsoft Office Document Image Writer
  4
A4
  6

 40
3.174999952316281
 41
3.174999952316281
 42
3.175003051757812
 43
3.17498779296875
 44
209.9733276367186
 45
297.0106506347656
 46
0.0
 47
0.0
 48
0.0
 49
0.0
140
0.0
141
0.0
142
1.0
143
1.0
 70
   688
 72
     1
 73
     1
 74
     5
  7
KIHON1.ctb
 75
    16
147
1.0
148
0.0
149
0.0
100
AcDbLayout
  1
レイアウト1
 70
     1
 71
     1
 10
-3.17498779296875
 20
-3.174999952316281
 11
293.8356628417969
 21
206.7983276844024
 12
0.0
 22
0.0
 32
0.0
 14
29.06606628894806
 24
20.36233246326444
 34
0.0
 15
261.5945966005325
 25
183.2609921693801
 35
0.0
146
0.0
 13
0.0
 23
0.0
 33
0.0
 16
1.0
 26
0.0
 36
0.0
 17
0.0
 27
1.0
 37
0.0
 76
     0
330
182D
331
1834
1001
ACAD_PSEXT
1000
Microsoft Office Document Image Writer
1000
Microsoft Office Document Image Writer Driver
1000
Microsoft Document Imaging Writer Port:
1000

1070
     0
  0
MATERIAL
  5
1748
102
{ACAD_XDICTIONARY
360
1749
102
}
102
{ACAD_REACTORS
330
6A
102
}
330
6A
100
AcDbMaterial
  1
ByBlock
 72
     0
 43
0.0008202099737533
 43
0.0
 43
0.0
 43
0.0
 43
0.0
 43
0.0008202099737533
 43
0.0
 43
0.0
 43
0.0
 43
0.0
 43
1.0
 43
0.0
 43
0.0
 43
0.0
 43
0.0
 43
1.0
 77
     0
 47
0.0008202099737533
 47
0.0
 47
0.0
 47
0.0
 47
0.0
 47
0.0008202099737533
 47
0.0
 47
0.0
 47
0.0
 47
0.0
 47
1.0
 47
0.0
 47
0.0
 47
0.0
 47
0.0
 47
1.0
171
     0
 49
0.0008202099737533
 49
0.0
 49
0.0
 49
0.0
 49
0.0
 49
0.0008202099737533
 49
0.0
 49
0.0
 49
0.0
 49
0.0
 49
1.0
 49
0.0
 49
0.0
 49
0.0
 49
0.0
 49
1.0
175
     0
142
0.0008202099737533
142
0.0
142
0.0
142
0.0
142
0.0
142
0.0008202099737533
142
0.0
142
0.0
142
0.0
142
0.0
142
1.0
142
0.0
142
0.0
142
0.0
142
0.0
142
1.0
179
     0
144
0.0008202099737533
144
0.0
144
0.0
144
0.0
144
0.0
144
0.0008202099737533
144
0.0
144
0.0
144
0.0
144
0.0
144
1.0
144
0.0
144
0.0
144
0.0
144
0.0
144
1.0
147
0.0008202099737533
147
0.0
147
0.0
147
0.0
147
0.0
147
0.0008202099737533
147
0.0
147
0.0
147
0.0
147
0.0
147
1.0
147
0.0
147
0.0
147
0.0
147
0.0
147
1.0
  0
MATERIAL
  5
1740
102
{ACAD_XDICTIONARY
360
1741
102
}
102
{ACAD_REACTORS
330
6A
102
}
330
6A
100
AcDbMaterial
  1
ByLayer
 72
     0
 43
0.0008202099737533
 43
0.0
 43
0.0
 43
0.0
 43
0.0
 43
0.0008202099737533
 43
0.0
 43
0.0
 43
0.0
 43
0.0
 43
1.0
 43
0.0
 43
0.0
 43
0.0
 43
0.0
 43
1.0
 77
     0
 47
0.0008202099737533
 47
0.0
 47
0.0
 47
0.0
 47
0.0
 47
0.0008202099737533
 47
0.0
 47
0.0
 47
0.0
 47
0.0
 47
1.0
 47
0.0
 47
0.0
 47
0.0
 47
0.0
 47
1.0
171
     0
 49
0.0008202099737533
 49
0.0
 49
0.0
 49
0.0
 49
0.0
 49
0.0008202099737533
 49
0.0
 49
0.0
 49
0.0
 49
0.0
 49
1.0
 49
0.0
 49
0.0
 49
0.0
 49
0.0
 49
1.0
175
     0
142
0.0008202099737533
142
0.0
142
0.0
142
0.0
142
0.0
142
0.0008202099737533
142
0.0
142
0.0
142
0.0
142
0.0
142
1.0
142
0.0
142
0.0
142
0.0
142
0.0
142
1.0
179
     0
144
0.0008202099737533
144
0.0
144
0.0
144
0.0
144
0.0
144
0.0008202099737533
144
0.0
144
0.0
144
0.0
144
0.0
144
1.0
144
0.0
144
0.0
144
0.0
144
0.0
144
1.0
147
0.0008202099737533
147
0.0
147
0.0
147
0.0
147
0.0
147
0.0008202099737533
147
0.0
147
0.0
147
0.0
147
0.0
147
1.0
147
0.0
147
0.0
147
0.0
147
0.0
147
1.0
  0
MATERIAL
  5
1BE
102
{ACAD_XDICTIONARY
360
1879
102
}
102
{ACAD_REACTORS
330
6A
102
}
330
6A
100
AcDbMaterial
  1
Global
 71
     1
 72
     0
 44
1.0
 76
     1
 77
     0
140
0.0
175
     0
145
1.5
1001
ACAD
1070
    -1
1070
     3
1070
     0
1000
Glass - Clear
1071
        0
  0
MLEADERSTYLE
  5
1784
102
{ACAD_REACTORS
330
1783
102
}
330
1783
100
AcDbMLeaderStyle
170
     2
171
     1
172
     0
 90
        2
 40
0.0
 41
0.0
173
     1
 91
-1056964608
340
14
 92
       -2
290
     1
 42
2.0
291
     1
 43
0.36
  3
Standard
 44
4.0
300

342
11
174
     1
178
     6
175
     1
176
     0
 93
-1056964608
 45
4.0
292
     0
297
     0
 46
4.0
 94
-1056964608
 47
1.0
 49
1.0
140
1.0
293
     1
141
0.0
294
     1
177
     0
142
1.0
295
     0
296
     0
143
0.125
1001
ACAD_MLEADERVER
1070
     2
1001
ACAD
1001
ACAD
1001
ACAD
1001
ACAD
1001
ACAD
1001
ACAD
1000
AcRTDxfName
1000
MLEADERSTYLE
  0
MLINESTYLE
  5
18
102
{ACAD_REACTORS
330
17
102
}
330
17
100
AcDbMlineStyle
  2
STANDARD
 70
     0
  3

 62
   256
 51
90.0
 52
90.0
 71
     2
 49
0.5
 62
   256
  6
BYLAYER
 49
-0.5
 62
   256
  6
BYLAYER
  0
ACDBPLACEHOLDER
  5
F
102
{ACAD_REACTORS
330
E
102
}
330
E
  0
SCALE
  5
1762
102
{ACAD_REACTORS
330
1761
102
}
330
1761
100
AcDbScale
 70
     0
300
1:1
140
1.0
141
1.0
290
     1
1001
ACAD
1001
ACAD
1001
ACAD
1001
ACAD
1001
ACAD
1001
ACAD
1000
AcRTDxfName
1000
SCALE
  0
SCALE
  5
1763
102
{ACAD_REACTORS
330
1761
102
}
330
1761
100
AcDbScale
 70
     0
300
1:2
140
1.0
141
2.0
290
     0
1001
ACAD
1001
ACAD
1001
ACAD
1001
ACAD
1001
ACAD
1001
ACAD
1000
AcRTDxfName
1000
SCALE
  0
SCALE
  5
1764
102
{ACAD_REACTORS
330
1761
102
}
330
1761
100
AcDbScale
 70
     0
300
1:4
140
1.0
141
4.0
290
     0
1001
ACAD
1001
ACAD
1001
ACAD
1001
ACAD
1001
ACAD
1001
ACAD
1000
AcRTDxfName
1000
SCALE
  0
SCALE
  5
1765
102
{ACAD_REACTORS
330
1761
102
}
330
1761
100
AcDbScale
 70
     0
300
1:5
140
1.0
141
5.0
290
     0
1001
ACAD
1001
ACAD
1001
ACAD
1001
ACAD
1001
ACAD
1001
ACAD
1000
AcRTDxfName
1000
SCALE
  0
SCALE
  5
1766
102
{ACAD_REACTORS
330
1761
102
}
330
1761
100
AcDbScale
 70
     0
300
1:8
140
1.0
141
8.0
290
     0
1001
ACAD
1001
ACAD
1001
ACAD
1001
ACAD
1001
ACAD
1001
ACAD
1000
AcRTDxfName
1000
SCALE
  0
SCALE
  5
1767
102
{ACAD_REACTORS
330
1761
102
}
330
1761
100
AcDbScale
 70
     0
300
1:10
140
1.0
141
10.0
290
     0
1001
ACAD
1001
ACAD
1001
ACAD
1001
ACAD
1001
ACAD
1001
ACAD
1000
AcRTDxfName
1000
SCALE
  0
SCALE
  5
1768
102
{ACAD_REACTORS
330
1761
102
}
330
1761
100
AcDbScale
 70
     0
300
1:16
140
1.0
141
16.0
290
     0
1001
ACAD
1001
ACAD
1001
ACAD
1001
ACAD
1001
ACAD
1001
ACAD
1000
AcRTDxfName
1000
SCALE
  0
SCALE
  5
1769
102
{ACAD_REACTORS
330
1761
102
}
330
1761
100
AcDbScale
 70
     0
300
1:20
140
1.0
141
20.0
290
     0
1001
ACAD
1001
ACAD
1001
ACAD
1001
ACAD
1001
ACAD
1001
ACAD
1000
AcRTDxfName
1000
SCALE
  0
SCALE
  5
176A
102
{ACAD_REACTORS
330
1761
102
}
330
1761
100
AcDbScale
 70
     0
300
1:30
140
1.0
141
30.0
290
     0
1001
ACAD
1001
ACAD
1001
ACAD
1001
ACAD
1001
ACAD
1001
ACAD
1000
AcRTDxfName
1000
SCALE
  0
SCALE
  5
176B
102
{ACAD_REACTORS
330
1761
102
}
330
1761
100
AcDbScale
 70
     0
300
1:40
140
1.0
141
40.0
290
     0
1001
ACAD
1001
ACAD
1001
ACAD
1001
ACAD
1001
ACAD
1001
ACAD
1000
AcRTDxfName
1000
SCALE
  0
SCALE
  5
176C
102
{ACAD_REACTORS
330
1761
102
}
330
1761
100
AcDbScale
 70
     0
300
1:50
140
1.0
141
50.0
290
     0
1001
ACAD
1001
ACAD
1001
ACAD
1001
ACAD
1001
ACAD
1001
ACAD
1000
AcRTDxfName
1000
SCALE
  0
SCALE
  5
176D
102
{ACAD_REACTORS
330
1761
102
}
330
1761
100
AcDbScale
 70
     0
300
1:100
140
1.0
141
100.0
290
     0
1001
ACAD
1001
ACAD
1001
ACAD
1001
ACAD
1001
ACAD
1001
ACAD
1000
AcRTDxfName
1000
SCALE
  0
SCALE
  5
176E
102
{ACAD_REACTORS
330
1761
102
}
330
1761
100
AcDbScale
 70
     0
300
2:1
140
2.0
141
1.0
290
     0
1001
ACAD
1001
ACAD
1001
ACAD
1001
ACAD
1001
ACAD
1001
ACAD
1000
AcRTDxfName
1000
SCALE
  0
SCALE
  5
176F
102
{ACAD_REACTORS
330
1761
102
}
330
1761
100
AcDbScale
 70
     0
300
4:1
140
4.0
141
1.0
290
     0
1001
ACAD
1001
ACAD
1001
ACAD
1001
ACAD
1001
ACAD
1001
ACAD
1000
AcRTDxfName
1000
SCALE
  0
SCALE
  5
1770
102
{ACAD_REACTORS
330
1761
102
}
330
1761
100
AcDbScale
 70
     0
300
8:1
140
8.0
141
1.0
290
     0
1001
ACAD
1001
ACAD
1001
ACAD
1001
ACAD
1001
ACAD
1001
ACAD
1000
AcRTDxfName
1000
SCALE
  0
SCALE
  5
1771
102
{ACAD_REACTORS
330
1761
102
}
330
1761
100
AcDbScale
 70
     0
300
10:1
140
10.0
141
1.0
290
     0
1001
ACAD
1001
ACAD
1001
ACAD
1001
ACAD
1001
ACAD
1001
ACAD
1000
AcRTDxfName
1000
SCALE
  0
SCALE
  5
1772
102
{ACAD_REACTORS
330
1761
102
}
330
1761
100
AcDbScale
 70
     0
300
100:1
140
100.0
141
1.0
290
     0
1001
ACAD
1001
ACAD
1001
ACAD
1001
ACAD
1001
ACAD
1001
ACAD
1000
AcRTDxfName
1000
SCALE
  0
SCALE
  5
1773
102
{ACAD_REACTORS
330
1761
102
}
330
1761
100
AcDbScale
 70
     0
300
1/128" = 1'-0"
140
0.0078125
141
12.0
290
     0
1001
ACAD
1001
ACAD
1001
ACAD
1001
ACAD
1001
ACAD
1001
ACAD
1000
AcRTDxfName
1000
SCALE
  0
SCALE
  5
1774
102
{ACAD_REACTORS
330
1761
102
}
330
1761
100
AcDbScale
 70
     0
300
1/64" = 1'-0"
140
0.015625
141
12.0
290
     0
1001
ACAD
1001
ACAD
1001
ACAD
1001
ACAD
1001
ACAD
1001
ACAD
1000
AcRTDxfName
1000
SCALE
  0
SCALE
  5
1775
102
{ACAD_REACTORS
330
1761
102
}
330
1761
100
AcDbScale
 70
     0
300
1/32" = 1'-0"
140
0.03125
141
12.0
290
     0
1001
ACAD
1001
ACAD
1001
ACAD
1001
ACAD
1001
ACAD
1001
ACAD
1000
AcRTDxfName
1000
SCALE
  0
SCALE
  5
1776
102
{ACAD_REACTORS
330
1761
102
}
330
1761
100
AcDbScale
 70
     0
300
1/16" = 1'-0"
140
0.0625
141
12.0
290
     0
1001
ACAD
1001
ACAD
1001
ACAD
1001
ACAD
1001
ACAD
1001
ACAD
1000
AcRTDxfName
1000
SCALE
  0
SCALE
  5
1777
102
{ACAD_REACTORS
330
1761
102
}
330
1761
100
AcDbScale
 70
     0
300
3/32" = 1'-0"
140
0.09375
141
12.0
290
     0
1001
ACAD
1001
ACAD
1001
ACAD
1001
ACAD
1001
ACAD
1001
ACAD
1000
AcRTDxfName
1000
SCALE
  0
SCALE
  5
1778
102
{ACAD_REACTORS
330
1761
102
}
330
1761
100
AcDbScale
 70
     0
300
1/8" = 1'-0"
140
0.125
141
12.0
290
     0
1001
ACAD
1001
ACAD
1001
ACAD
1001
ACAD
1001
ACAD
1001
ACAD
1000
AcRTDxfName
1000
SCALE
  0
SCALE
  5
1779
102
{ACAD_REACTORS
330
1761
102
}
330
1761
100
AcDbScale
 70
     0
300
3/16" = 1'-0"
140
0.1875
141
12.0
290
     0
1001
ACAD
1001
ACAD
1001
ACAD
1001
ACAD
1001
ACAD
1001
ACAD
1000
AcRTDxfName
1000
SCALE
  0
SCALE
  5
177A
102
{ACAD_REACTORS
330
1761
102
}
330
1761
100
AcDbScale
 70
     0
300
1/4" = 1'-0"
140
0.25
141
12.0
290
     0
1001
ACAD
1001
ACAD
1001
ACAD
1001
ACAD
1001
ACAD
1001
ACAD
1000
AcRTDxfName
1000
SCALE
  0
SCALE
  5
177B
102
{ACAD_REACTORS
330
1761
102
}
330
1761
100
AcDbScale
 70
     0
300
3/8" = 1'-0"
140
0.375
141
12.0
290
     0
1001
ACAD
1001
ACAD
1001
ACAD
1001
ACAD
1001
ACAD
1001
ACAD
1000
AcRTDxfName
1000
SCALE
  0
SCALE
  5
177C
102
{ACAD_REACTORS
330
1761
102
}
330
1761
100
AcDbScale
 70
     0
300
1/2" = 1'-0"
140
0.5
141
12.0
290
     0
1001
ACAD
1001
ACAD
1001
ACAD
1001
ACAD
1001
ACAD
1001
ACAD
1000
AcRTDxfName
1000
SCALE
  0
SCALE
  5
177D
102
{ACAD_REACTORS
330
1761
102
}
330
1761
100
AcDbScale
 70
     0
300
3/4" = 1'-0"
140
0.75
141
12.0
290
     0
1001
ACAD
1001
ACAD
1001
ACAD
1001
ACAD
1001
ACAD
1001
ACAD
1000
AcRTDxfName
1000
SCALE
  0
SCALE
  5
177E
102
{ACAD_REACTORS
330
1761
102
}
330
1761
100
AcDbScale
 70
     0
300
1" = 1'-0"
140
1.0
141
12.0
290
     0
1001
ACAD
1001
ACAD
1001
ACAD
1001
ACAD
1001
ACAD
1001
ACAD
1000
AcRTDxfName
1000
SCALE
  0
SCALE
  5
177F
102
{ACAD_REACTORS
330
1761
102
}
330
1761
100
AcDbScale
 70
     0
300
1-1/2" = 1'-0"
140
1.5
141
12.0
290
     0
1001
ACAD
1001
ACAD
1001
ACAD
1001
ACAD
1001
ACAD
1001
ACAD
1000
AcRTDxfName
1000
SCALE
  0
SCALE
  5
1780
102
{ACAD_REACTORS
330
1761
102
}
330
1761
100
AcDbScale
 70
     0
300
3" = 1'-0"
140
3.0
141
12.0
290
     0
1001
ACAD
1001
ACAD
1001
ACAD
1001
ACAD
1001
ACAD
1001
ACAD
1000
AcRTDxfName
1000
SCALE
  0
SCALE
  5
1781
102
{ACAD_REACTORS
330
1761
102
}
330
1761
100
AcDbScale
 70
     0
300
6" = 1'-0"
140
6.0
141
12.0
290
     0
1001
ACAD
1001
ACAD
1001
ACAD
1001
ACAD
1001
ACAD
1001
ACAD
1000
AcRTDxfName
1000
SCALE
  0
SCALE
  5
1782
102
{ACAD_REACTORS
330
1761
102
}
330
1761
100
AcDbScale
 70
     0
300
1'-0" = 1'-0"
140
12.0
141
12.0
290
     0
1001
ACAD
1001
ACAD
1001
ACAD
1001
ACAD
1001
ACAD
1001
ACAD
1000
AcRTDxfName
1000
SCALE
  0
TABLESTYLE
  5
7F
102
{ACAD_XDICTIONARY
360
1803
102
}
102
{ACAD_REACTORS
330
7E
102
}
330
7E
100
AcDbTableStyle
  3
Standard
 70
     0
 71
     0
 40
1.5
 41
1.5
280
     0
281
     0
  7
Standard
140
4.5
170
     2
 62
     0
 63
     7
283
     0
274
    -2
284
     1
 64
     0
275
    -2
285
     1
 65
     0
276
    -2
286
     1
 66
     0
277
    -2
287
     1
 67
     0
278
    -2
288
     1
 68
     0
279
    -2
289
     1
 69
     0
  7
Standard
140
6.0
170
     5
 62
     0
 63
     7
283
     0
274
    -2
284
     1
 64
     0
275
    -2
285
     1
 65
     0
276
    -2
286
     1
 66
     0
277
    -2
287
     1
 67
     0
278
    -2
288
     1
 68
     0
279
    -2
289
     1
 69
     0
  7
Standard
140
4.5
170
     5
 62
     0
 63
     7
283
     0
274
    -2
284
     1
 64
     0
275
    -2
285
     1
 65
     0
276
    -2
286
     1
 66
     0
277
    -2
287
     1
 67
     0
278
    -2
288
     1
 68
     0
279
    -2
289
     1
 69
     0
  0
VISUALSTYLE
  5
1756
102
{ACAD_REACTORS
330
1750
102
}
330
1750
100
AcDbVisualStyle
  2
2dWireframe
 70
     4
 71
     0
 72
     2
 73
     0
 90
        0
 40
-0.6
 41
-30.0
 62
     5
 63
     7
 74
     1
 91
        4
 64
     7
 65
   257
 75
     1
175
     1
 42
1.0
 92
        0
 66
   257
 43
1.0
 76
     1
 77
     6
 78
     2
 67
     7
 79
     5
170
     0
171
     0
290
     0
174
     0
 93
        1
 44
0.0
173
     0
291
     0
 45
0.0
1001
ACAD
1000
AcDbSavedByObjectVersion
1070
     0
1001
ACAD
1001
ACAD
1001
ACAD
1001
ACAD
1001
ACAD
1001
ACAD
1000
AcRTDxfName
1000
VISUALSTYLE
  0
VISUALSTYLE
  5
1758
102
{ACAD_REACTORS
330
1750
102
}
330
1750
100
AcDbVisualStyle
  2
3D Hidden
 70
     6
 71
     1
 72
     2
 73
     2
 90
        0
 40
-0.6
 41
-30.0
 62
     5
 63
     7
 74
     2
 91
        2
 64
     7
 65
   257
 75
     2
175
     1
 42
40.0
 92
        0
 66
   257
 43
1.0
 76
     1
 77
     6
 78
     2
 67
     7
 79
     3
170
     0
171
     0
290
     0
174
     0
 93
        1
 44
0.0
173
     0
291
     0
 45
0.0
1001
ACAD
1000
AcDbSavedByObjectVersion
1070
     0
1001
ACAD
1001
ACAD
1001
ACAD
1001
ACAD
1001
ACAD
1001
ACAD
1000
AcRTDxfName
1000
VISUALSTYLE
  0
VISUALSTYLE
  5
1757
102
{ACAD_REACTORS
330
1750
102
}
330
1750
100
AcDbVisualStyle
  2
3dWireframe
 70
     5
 71
     0
 72
     2
 73
     0
 90
        0
 40
-0.6
 41
-30.0
 62
     5
 63
     7
 74
     1
 91
        4
 64
     7
 65
   257
 75
     1
175
     1
 42
1.0
 92
        0
 66
   257
 43
1.0
 76
     1
 77
     6
 78
     2
 67
     7
 79
     5
170
     0
171
     0
290
     0
174
     0
 93
        1
 44
0.0
173
     0
291
     0
 45
0.0
1001
ACAD
1000
AcDbSavedByObjectVersion
1070
     0
1001
ACAD
1001
ACAD
1001
ACAD
1001
ACAD
1001
ACAD
1001
ACAD
1000
AcRTDxfName
1000
VISUALSTYLE
  0
VISUALSTYLE
  5
1755
102
{ACAD_REACTORS
330
1750
102
}
330
1750
100
AcDbVisualStyle
  2
Basic
 70
     7
 71
     1
 72
     0
 73
     1
 90
        0
 40
-0.6
 41
-30.0
 62
     5
 63
     7
 74
     0
 91
        4
 64
     7
 65
   257
 75
     1
175
     1
 42
1.0
 92
        8
 66
     7
 43
1.0
 76
     1
 77
     6
 78
     2
 67
     7
 79
     5
170
     0
171
     0
290
     0
174
     0
 93
        1
 44
0.0
173
     0
291
     1
 45
0.0
1001
ACAD
1000
AcDbSavedByObjectVersion
1070
     0
1001
ACAD
1001
ACAD
1001
ACAD
1001
ACAD
1001
ACAD
1001
ACAD
1000
AcRTDxfName
1000
VISUALSTYLE
  0
VISUALSTYLE
  5
175C
102
{ACAD_REACTORS
330
1750
102
}
330
1750
100
AcDbVisualStyle
  2
Brighten
 70
    12
 71
     2
 72
     2
 73
     0
 90
        0
 40
-0.6
 41
-30.0
 62
     5
 63
     7
 74
     1
 91
        4
 64
     7
 65
   257
 75
     1
175
     1
 42
1.0
 92
        8
 66
     7
 43
1.0
 76
     1
 77
     6
 78
     2
 67
     7
 79
     5
170
     0
171
     0
290
     0
174
     0
 93
        1
 44
50.0
173
     0
291
     1
 45
0.0
1001
ACAD
1000
AcDbSavedByObjectVersion
1070
     0
1001
ACAD
1001
ACAD
1001
ACAD
1001
ACAD
1001
ACAD
1001
ACAD
1000
AcRTDxfName
1000
VISUALSTYLE
  0
VISUALSTYLE
  5
1760
102
{ACAD_REACTORS
330
1750
102
}
330
1750
100
AcDbVisualStyle
  2
ColorChange
 70
    16
 71
     2
 72
     2
 73
     3
 90
        0
 40
-0.6
 41
-30.0
 62
     5
 63
     8
 74
     1
 91
        4
 64
     7
 65
   257
 75
     1
175
     1
 42
1.0
 92
        8
 66
     8
 43
1.0
 76
     1
 77
     6
 78
     2
 67
     7
 79
     5
170
     0
171
     0
290
     0
174
     0
 93
        1
 44
0.0
173
     0
291
     1
 45
0.0
1001
ACAD
1000
AcDbSavedByObjectVersion
1070
     0
1001
ACAD
1001
ACAD
1001
ACAD
1001
ACAD
1001
ACAD
1001
ACAD
1000
AcRTDxfName
1000
VISUALSTYLE
  0
VISUALSTYLE
  5
1759
102
{ACAD_REACTORS
330
1750
102
}
330
1750
100
AcDbVisualStyle
  2
Conceptual
 70
     9
 71
     3
 72
     2
 73
     0
 90
        0
 40
-0.6
 41
-30.0
 62
     5
 63
     7
 74
     2
 91
        2
 64
     7
 65
   257
 75
     1
175
     1
 42
40.0
 92
        8
 66
     7
 43
1.0
 76
     1
 77
     6
 78
     2
 67
     7
 79
     3
170
     0
171
     0
290
     0
174
     0
 93
        1
 44
0.0
173
     0
291
     0
 45
0.0
1001
ACAD
1000
AcDbSavedByObjectVersion
1070
     0
1001
ACAD
1001
ACAD
1001
ACAD
1001
ACAD
1001
ACAD
1001
ACAD
1000
AcRTDxfName
1000
VISUALSTYLE
  0
VISUALSTYLE
  5
175B
102
{ACAD_REACTORS
330
1750
102
}
330
1750
100
AcDbVisualStyle
  2
Dim
 70
    11
 71
     2
 72
     2
 73
     0
 90
        0
 40
-0.6
 41
-30.0
 62
     5
 63
     7
 74
     1
 91
        4
 64
     7
 65
   257
 75
     1
175
     1
 42
1.0
 92
        8
 66
     7
 43
1.0
 76
     1
 77
     6
 78
     2
 67
     7
 79
     5
170
     0
171
     0
290
     0
174
     0
 93
        1
 44
-50.0
173
     0
291
     1
 45
0.0
1001
ACAD
1000
AcDbSavedByObjectVersion
1070
     0
1001
ACAD
1001
ACAD
1001
ACAD
1001
ACAD
1001
ACAD
1001
ACAD
1000
AcRTDxfName
1000
VISUALSTYLE
  0
VISUALSTYLE
  5
175F
102
{ACAD_REACTORS
330
1750
102
}
330
1750
100
AcDbVisualStyle
  2
Facepattern
 70
    15
 71
     2
 72
     2
 73
     0
 90
        0
 40
-0.6
 41
-30.0
 62
     5
 63
     7
 74
     1
 91
        4
 64
     7
 65
   257
 75
     1
175
     1
 42
1.0
 92
        8
 66
     7
 43
1.0
 76
     1
 77
     6
 78
     2
 67
     7
 79
     5
170
     0
171
     0
290
     0
174
     0
 93
        1
 44
0.0
173
     0
291
     1
 45
0.0
1001
ACAD
1000
AcDbSavedByObjectVersion
1070
     0
1001
ACAD
1001
ACAD
1001
ACAD
1001
ACAD
1001
ACAD
1001
ACAD
1000
AcRTDxfName
1000
VISUALSTYLE
  0
VISUALSTYLE
  5
1751
102
{ACAD_REACTORS
330
1750
102
}
330
1750
100
AcDbVisualStyle
  2
Flat
 70
     0
 71
     2
 72
     1
 73
     1
 90
        2
 40
-0.6
 41
30.0
 62
     5
 63
     7
 74
     0
 91
        4
 64
     7
 65
   257
 75
     1
175
     1
 42
1.0
 92
        8
 66
     7
 43
1.0
 76
     1
 77
     6
 78
     2
 67
     7
 79
     5
170
     0
171
     0
290
     0
174
     0
 93
       13
 44
0.0
173
     0
291
     1
 45
0.0
1001
ACAD
1000
AcDbSavedByObjectVersion
1070
     0
1001
ACAD
1001
ACAD
1001
ACAD
1001
ACAD
1001
ACAD
1001
ACAD
1000
AcRTDxfName
1000
VISUALSTYLE
  0
VISUALSTYLE
  5
1752
102
{ACAD_REACTORS
330
1750
102
}
330
1750
100
AcDbVisualStyle
  2
FlatWithEdges
 70
     1
 71
     2
 72
     1
 73
     1
 90
        2
 40
-0.6
 41
30.0
 62
     5
 63
     7
 74
     1
 91
        4
 64
     7
 65
   257
 75
     1
175
     1
 42
1.0
 92
        0
 66
   257
 43
1.0
 76
     1
 77
     6
 78
     2
 67
     7
 79
     5
170
     0
171
     0
290
     0
174
     0
 93
       13
 44
0.0
173
     0
291
     1
 45
0.0
1001
ACAD
1000
AcDbSavedByObjectVersion
1070
     0
1001
ACAD
1001
ACAD
1001
ACAD
1001
ACAD
1001
ACAD
1001
ACAD
1000
AcRTDxfName
1000
VISUALSTYLE
  0
VISUALSTYLE
  5
1753
102
{ACAD_REACTORS
330
1750
102
}
330
1750
100
AcDbVisualStyle
  2
Gouraud
 70
     2
 71
     2
 72
     2
 73
     1
 90
        2
 40
-0.6
 41
30.0
 62
     5
 63
     7
 74
     0
 91
        4
 64
     7
 65
   257
 75
     1
175
     1
 42
1.0
 92
        0
 66
     7
 43
1.0
 76
     1
 77
     6
 78
     2
 67
     7
 79
     5
170
     0
171
     0
290
     0
174
     0
 93
       13
 44
0.0
173
     0
291
     1
 45
0.0
1001
ACAD
1000
AcDbSavedByObjectVersion
1070
     0
1001
ACAD
1001
ACAD
1001
ACAD
1001
ACAD
1001
ACAD
1001
ACAD
1000
AcRTDxfName
1000
VISUALSTYLE
  0
VISUALSTYLE
  5
1754
102
{ACAD_REACTORS
330
1750
102
}
330
1750
100
AcDbVisualStyle
  2
GouraudWithEdges
 70
     3
 71
     2
 72
     2
 73
     1
 90
        2
 40
-0.6
 41
30.0
 62
     5
 63
     7
 74
     1
 91
        4
 64
     7
 65
   257
 75
     1
175
     1
 42
1.0
 92
        0
 66
   257
 43
1.0
 76
     1
 77
     6
 78
     2
 67
     7
 79
     5
170
     0
171
     0
290
     0
174
     0
 93
       13
 44
0.0
173
     0
291
     1
 45
0.0
1001
ACAD
1000
AcDbSavedByObjectVersion
1070
     0
1001
ACAD
1001
ACAD
1001
ACAD
1001
ACAD
1001
ACAD
1001
ACAD
1000
AcRTDxfName
1000
VISUALSTYLE
  0
VISUALSTYLE
  5
175E
102
{ACAD_REACTORS
330
1750
102
}
330
1750
100
AcDbVisualStyle
  2
Linepattern
 70
    14
 71
     2
 72
     2
 73
     0
 90
        0
 40
-0.6
 41
-30.0
 62
     5
 63
     7
 74
     1
 91
        4
 64
     7
 65
   257
 75
     7
175
     7
 42
1.0
 92
        8
 66
     7
 43
1.0
 76
     1
 77
     6
 78
     2
 67
     7
 79
     5
170
     0
171
     0
290
     0
174
     0
 93
        1
 44
0.0
173
     0
291
     1
 45
0.0
1001
ACAD
1000
AcDbSavedByObjectVersion
1070
     0
1001
ACAD
1001
ACAD
1001
ACAD
1001
ACAD
1001
ACAD
1001
ACAD
1000
AcRTDxfName
1000
VISUALSTYLE
  0
VISUALSTYLE
  5
175A
102
{ACAD_REACTORS
330
1750
102
}
330
1750
100
AcDbVisualStyle
  2
Realistic
 70
     8
 71
     2
 72
     2
 73
     0
 90
        0
 40
-0.6
 41
-30.0
 62
     5
 63
     7
 74
     1
 91
        0
 64
     7
 65
   257
 75
     1
175
     1
 42
1.0
 92
        8
 66
     8
 43
1.0
 76
     1
 77
     6
 78
     2
 67
     7
 79
     5
170
     0
171
     0
290
     0
174
     0
 93
       13
 44
0.0
173
     0
291
     0
 45
0.0
1001
ACAD
1000
AcDbSavedByObjectVersion
1070
     0
1001
ACAD
1001
ACAD
1001
ACAD
1001
ACAD
1001
ACAD
1001
ACAD
1000
AcRTDxfName
1000
VISUALSTYLE
  0
VISUALSTYLE
  5
175D
102
{ACAD_REACTORS
330
1750
102
}
330
1750
100
AcDbVisualStyle
  2
Thicken
 70
    13
 71
     2
 72
     2
 73
     0
 90
        0
 40
-0.6
 41
-30.0
 62
     5
 63
     7
 74
     1
 91
        4
 64
     7
 65
   257
 75
     1
175
     1
 42
1.0
 92
       12
 66
     7
 43
1.0
 76
     1
 77
     6
 78
     2
 67
     7
 79
     5
170
     0
171
     0
290
     0
174
     0
 93
        1
 44
0.0
173
     0
291
     1
 45
0.0
1001
ACAD
1000
AcDbSavedByObjectVersion
1070
     0
1001
ACAD
1001
ACAD
1001
ACAD
1001
ACAD
1001
ACAD
1001
ACAD
1000
AcRTDxfName
1000
VISUALSTYLE
  0
DICTIONARYVAR
  5
181E
102
{ACAD_REACTORS
330
5E
102
}
330
5E
100
DictionaryVariables
280
     0
  1
1:1
  0
DICTIONARYVAR
  5
181D
102
{ACAD_REACTORS
330
5E
102
}
330
5E
100
DictionaryVariables
280
     0
  1
STANDARD
  0
DICTIONARYVAR
  5
84
102
{ACAD_REACTORS
330
5E
102
}
330
5E
100
DictionaryVariables
280
     0
  1
STANDARD
  0
DICTIONARYVAR
  5
5F
102
{ACAD_REACTORS
330
5E
102
}
330
5E
100
DictionaryVariables
280
     0
  1
2
  0
DICTIONARYVAR
  5
63
102
{ACAD_REACTORS
330
5E
102
}
330
5E
100
DictionaryVariables
280
     0
  1
1
  0
DICTIONARYVAR
  5
1871
102
{ACAD_REACTORS
330
5E
102
}
330
5E
100
DictionaryVariables
280
     0
  1
1
  0
DICTIONARYVAR
  5
1917
102
{ACAD_REACTORS
330
5E
102
}
330
5E
100
DictionaryVariables
280
     0
  1

  0
DICTIONARYVAR
  5
1870
102
{ACAD_REACTORS
330
5E
102
}
330
5E
100
DictionaryVariables
280
     0
  1
127
  0
DICTIONARY
  5
27A2
102
{ACAD_REACTORS
330
2796
102
}
330
2796
100
AcDbDictionary
281
     1
  0
XRECORD
  5
27C1
102
{ACAD_REACTORS
330
2796
102
}
330
2796
100
AcDbXrecord
280
     1
 90
-1023410169
  0
DICTIONARY
  5
26D6
102
{ACAD_REACTORS
330
26D5
102
}
330
26D5
100
AcDbDictionary
281
     1
  3
DWGSETTINGS
350
26D7
  3
TRANSSETTINGS
350
26DB
  0
ACAMGFILTERDAT
  5
27E9
102
{ACAD_REACTORS
330
27E4
102
}
330
27E4
100
AcAmgFilterDat
 70
    15
  1
DIMENSION,AMDT_*_DIM
  2
*
  3
*
  4
*
  5
*
290
     1
  0
ACAMGFILTERDAT
  5
27E8
102
{ACAD_REACTORS
330
27E4
102
}
330
27E4
100
AcAmgFilterDat
 70
    15
  1
*
  2
AM_FEA-AM_*
  3
*
  4
*
  5
*
290
     1
  0
ACAMGFILTERDAT
  5
27E5
102
{ACAD_REACTORS
330
27E4
102
}
330
27E4
100
AcAmgFilterDat
 70
    15
  1
HATCH
  2
*
  3
*
  4
*
  5
*
290
     1
  0
ACAMGFILTERDAT
  5
27E6
102
{ACAD_REACTORS
330
27E4
102
}
330
27E4
100
AcAmgFilterDat
 70
    15
  1
LINE
  2
8,8N,*-8,*-8N,AM_8,AM_8N,*-AM_8,*-AM_8N
  3
*
  4
*
  5
INSERT,STDPART2D
290
     1
  0
ACAMGFILTERDAT
  5
27EA
102
{ACAD_REACTORS
330
27E4
102
}
330
27E4
100
AcAmgFilterDat
 70
    15
  1
ARC
  2
AM_5
  3
*
  4
2
  5
INSERT
290
     0
  0
ACAMGFILTERDAT
  5
27E7
102
{ACAD_REACTORS
330
27E4
102
}
330
27E4
100
AcAmgFilterDat
 70
    15
  1
ACMFCFRAME,ACMDATUMTARGET,ACMDATUMID,ACMWELDSYM,ACMSURFSYM,ACMFEATID,ACMPARTREF,ACMBALLOON,AMDTEDGESYM,AMGSCREWCALCTABLE
  2
*
  3
*
  4
*
  5
*
290
     1
  0
LAYER_INDEX
  5
27F9
102
{ACAD_REACTORS
330
27F8
102
}
330
27F8
100
AcDbIndex
 40
2455610.580561181
100
AcDbLayerIndex
  8
0
360
27FA
 90
      347
  8
かくれ線
360
27FB
 90
        3
  8
Defpoints
360
27FC
 90
        0
  0
DICTIONARY
  5
2800
330
22
100
AcDbDictionary
280
     1
281
     1
  3
ACAD_XREC_ROUNDTRIP
360
2801
  0
DICTIONARY
  5
1842
330
182E
100
AcDbDictionary
280
     1
281
     1
  3
ACAD_XREC_ROUNDTRIP
360
2802
  3
ADSK_XREC_LAYOUTTHUMBNAIL
360
1843
  0
DICTIONARY
  5
1749
330
1748
100
AcDbDictionary
280
     1
281
     1
  3
ACAD_XREC_ROUNDTRIP
360
187C
  3
BUMPTILE
360
174B
  3
DIFFUSETILE
360
174A
  3
OPACITYTILE
360
174E
  3
REFLECTIONTILE
360
174D
  3
REFRACTIONTILE
360
174F
  3
SPECULARTILE
360
174C
  0
DICTIONARY
  5
1741
330
1740
100
AcDbDictionary
280
     1
281
     1
  3
ACAD_XREC_ROUNDTRIP
360
187B
  3
BUMPTILE
360
1743
  3
DIFFUSETILE
360
1742
  3
OPACITYTILE
360
1746
  3
REFLECTIONTILE
360
1745
  3
REFRACTIONTILE
360
1747
  3
SPECULARTILE
360
1744
  0
DICTIONARY
  5
1879
330
1BE
100
AcDbDictionary
280
     1
281
     1
  3
ACAD_XREC_ROUNDTRIP
360
187A
  0
DICTIONARY
  5
1803
330
7F
100
AcDbDictionary
280
     1
281
     1
  3
ACAD_ROUNDTRIP_2008_TABLESTYLE_CELLSTYLEMAP
360
1872
  3
ACAD_XREC_ROUNDTRIP
360
1878
  0
IDBUFFER
  5
27FA
330
0
100
AcDbIdBuffer
330
2557
330
2558
330
2559
330
255A
330
255B
330
255C
330
255D
330
255E
330
255F
330
2560
330
2561
330
2562
330
2563
330
2564
330
2565
330
2566
330
2567
330
2568
330
2569
330
256A
330
256B
330
256C
330
256D
330
256E
330
256F
330
2570
330
2571
330
2572
330
2573
330
2574
330
2575
330
2576
330
2577
330
2578
330
2579
330
257A
330
257B
330
257C
330
257D
330
257E
330
257F
330
2580
330
2581
330
2582
330
2583
330
2584
330
2585
330
2586
330
2587
330
2588
330
2589
330
258A
330
258B
330
258C
330
258D
330
258E
330
258F
330
2590
330
2591
330
2592
330
2593
330
2594
330
2595
330
2596
330
2597
330
2598
330
2599
330
259A
330
259B
330
259C
330
259D
330
259E
330
259F
330
25A0
330
25A1
330
25A2
330
25A3
330
25A4
330
25A5
330
25A6
330
25A7
330
25A8
330
25A9
330
25AA
330
25AB
330
25AC
330
25AD
330
25AE
330
25AF
330
25B0
330
25B1
330
25B2
330
25B3
330
25B4
330
25B5
330
25B6
330
25B7
330
25B8
330
25B9
330
25BA
330
25BB
330
25BC
330
25BD
330
25BE
330
25BF
330
25C0
330
25C1
330
17E6
330
2277
330
227B
330
227C
330
227D
330
227E
330
227F
330
2280
330
2281
330
2282
330
2283
330
2284
330
2285
330
2286
330
2287
330
2288
330
2289
330
228A
330
228B
330
228C
330
228D
330
228E
330
228F
330
2290
330
2291
330
2292
330
2293
330
2294
330
2295
330
2296
330
2297
330
2298
330
2299
330
229A
330
229B
330
229C
330
229D
330
229E
330
229F
330
22A0
330
22A1
330
22A2
330
22A3
330
22A4
330
22A5
330
22A6
330
22A7
330
22A8
330
22A9
330
22AA
330
22AB
330
22AC
330
22AD
330
22AE
330
22AF
330
22B0
330
22B1
330
22B2
330
22B3
330
22B4
330
22B5
330
22B6
330
22B7
330
22B8
330
22B9
330
22BA
330
22BB
330
24AA
330
24AB
330
24AC
330
24AD
330
24AE
330
24AF
330
24B0
330
24B1
330
24B2
330
24B3
330
24B4
330
24B5
330
24B6
330
24B7
330
24B8
330
24B9
330
24BA
330
24BB
330
24BC
330
24BD
330
24BE
330
24BF
330
24C0
330
24C1
330
24C2
330
24C3
330
24C4
330
24C5
330
24C6
330
24C7
330
24C8
330
24C9
330
24CA
330
24CB
330
24CC
330
24CD
330
24CE
330
24CF
330
24D0
330
24D1
330
24D2
330
24D3
330
24D4
330
24D5
330
24D6
330
24D7
330
24D8
330
24D9
330
24DA
330
24DB
330
24DC
330
24DD
330
24DE
330
24DF
330
24E0
330
24E1
330
24E2
330
24E3
330
24E4
330
24E5
330
24E6
330
24E7
330
24E8
330
24E9
330
24EA
330
24EB
330
24EC
330
24ED
330
24EE
330
24EF
330
24F0
330
24F1
330
24F2
330
24F3
330
24F4
330
24F5
330
24F6
330
24F7
330
24F8
330
24F9
330
24FA
330
24FB
330
24FC
330
24FD
330
24FE
330
24FF
330
2500
330
2501
330
2502
330
2503
330
2504
330
2505
330
2506
330
2507
330
2508
330
2509
330
250A
330
250B
330
250C
330
250D
330
250E
330
250F
330
2510
330
2511
330
2512
330
2513
330
2514
330
2515
330
2516
330
2517
330
2518
330
2519
330
251A
330
251B
330
251C
330
251D
330
251E
330
251F
330
2520
330
2521
330
2522
330
2523
330
2524
330
2525
330
2526
330
2527
330
2528
330
2529
330
252A
330
252B
330
252C
330
252D
330
252E
330
252F
330
2530
330
2531
330
2532
330
2533
330
2534
330
2535
330
2536
330
2537
330
2538
330
2539
330
253A
330
253B
330
253C
330
253D
330
253E
330
253F
330
2540
330
2541
330
2542
330
2543
330
2544
330
2545
330
2546
330
2547
330
2548
330
2549
330
254A
330
254B
330
254C
330
254D
330
254E
330
254F
330
2550
330
2551
330
2552
330
2553
330
2554
330
2555
330
2556
  0
IDBUFFER
  5
27FB
330
0
100
AcDbIdBuffer
330
2278
330
2279
330
227A
  0
IDBUFFER
  5
27FC
330
0
100
AcDbIdBuffer
  0
XRECORD
  5
2801
102
{ACAD_REACTORS
330
2800
102
}
330
2800
100
AcDbXrecord
280
     1
102
SHADEPLOT
 70
     0
102
SHADEPLOTRESLEVEL
 70
     2
102
SHADEPLOTCUSTOMDPI
 70
   300
  0
XRECORD
  5
2802
102
{ACAD_REACTORS
330
1842
102
}
330
1842
100
AcDbXrecord
280
     1
102
SHADEPLOT
 70
     0
102
SHADEPLOTRESLEVEL
 70
     2
102
SHADEPLOTCUSTOMDPI
 70
   300
  0
XRECORD
  5
1843
102
{ACAD_REACTORS
330
1842
102
}
330
1842
100
AcDbXrecord
280
     1
310
28000000B40000007F00000001000800000000004C590000000000000000000000010000000000000000000000000000FFFFFF000000000000000000000000000000000000000000000000000000000000000000330000006600000099000000CC000000FF00000000330000333300006633000099330000CC330000FF3300
310
0000660000336600006666000099660000CC660000FF66000000990000339900006699000099990000CC990000FF99000000CC000033CC000066CC000099CC0000CCCC0000FFCC000000FF000033FF000066FF000099FF0000CCFF0000FFFF000000003300330033006600330099003300CC003300FF003300003333003333
310
33006633330099333300CC333300FF33330000663300336633006666330099663300CC663300FF66330000993300339933006699330099993300CC993300FF99330000CC330033CC330066CC330099CC3300CCCC3300FFCC330000FF330033FF330066FF330099FF3300CCFF3300FFFF330000006600330066006600660099
310
006600CC006600FF00660000336600333366006633660099336600CC336600FF33660000666600336666006666660099666600CC666600FF66660000996600339966006699660099996600CC996600FF99660000CC660033CC660066CC660099CC6600CCCC6600FFCC660000FF660033FF660066FF660099FF6600CCFF6600
310
FFFF660000009900330099006600990099009900CC009900FF00990000339900333399006633990099339900CC339900FF33990000669900336699006666990099669900CC669900FF66990000999900339999006699990099999900CC999900FF99990000CC990033CC990066CC990099CC9900CCCC9900FFCC990000FF99
310
0033FF990066FF990099FF9900CCFF9900FFFF99000000CC003300CC006600CC009900CC00CC00CC00FF00CC000033CC003333CC006633CC009933CC00CC33CC00FF33CC000066CC003366CC006666CC009966CC00CC66CC00FF66CC000099CC003399CC006699CC009999CC00CC99CC00FF99CC0000CCCC0033CCCC0066CC
310
CC0099CCCC00CCCCCC00FFCCCC0000FFCC0033FFCC0066FFCC0099FFCC00CCFFCC00FFFFCC000000FF003300FF006600FF009900FF00CC00FF00FF00FF000033FF003333FF006633FF009933FF00CC33FF00FF33FF000066FF003366FF006666FF009966FF00CC66FF00FF66FF000099FF003399FF006699FF009999FF00CC
310
99FF00FF99FF0000CCFF0033CCFF0066CCFF0099CCFF00CCCCFF00FFCCFF0000FFFF0033FFFF0066FFFF0099FFFF00CCFFFF00FFFFFF00000000000D0D0D001A1A1A00282828003535350043434300505050005D5D5D006B6B6B00787878008686860093939300A1A1A100AEAEAE00BBBBBB00C9C9C900D6D6D600E4E4E400
310
F1F1F100FFFFFF0000000000000000000000000000000000000000000000000000000000000000000000000000000000F5F5F5F5F5F5F5F5F5F5F5F5F5F5F5F5F5F5F5F5F5F5F5F5F5F5F5F5F5F5F5F5F5F5F5F5F5F5F5F5F5F5F5F5F5F5F5F5F5F5F5F5F5F5F5F5F5F5F5F5F5F5F5F5F5F5F5F5F5F5F5F5F5F5F5F5F5F5F5
310
F5F5F5F5F5F5F5F5F5F5F5F5F5F5F5F5F5F5F5F5F5F5F5F5F5F5F5F5F5F5F5F5F5F5F5F5F5F5F5F5F5F5F5F5F5F5F5F5F5F5F5F5F5F5F5F5F5F5F5F5F5F5F5F5F5F5F5F5F5F5F5F5F5F5F5F5F5F5F5F5F5F5F5F5F5F5F5F5F5F5F5F5F5F5F5F5F5F5F5F5F5F5E2E2E2E2E2E2E2E2E2E2E2E2E2E2E2E2E2E2E2E2E2E2E2E2E2
310
E2E2E2E2E2E2E2E2E2E2E2E2E2E2E2E2E2E2E2E2E2E2E2E2E2E2E2E2E2E2E2E2E2E2E2E2E2E2E2E2E2E2E2E2E2E2E2E2E2E2E2E2E2E2E2E2E2E2E2E2E2E2E2E2E2E2E2E2E2E2E2E2E2E2E2E2E2E2E2E2E2E2E2E2E2E2E2E2E2E2E2E2E2E2E2E2E2E2E2E2E2E2E2E2E2E2E2E2E2E2E2E2E2E2E2E2E2E2E2E2E2E2E2E2E2E2E2
310
E2E2E2E2E2E2E2E2E2E2E2E2E2E2E2E2E2E2E2E2E2E2E2E2E2E2F5F5E2F5F5F5F5F5F5F5F5F5E2E2E2E2E2E2E2E2E2F5F5F5F5F5F5F5F5F5F5F5F5F5F5F5F5E2E2E2E2E2E2E2E2E2F5F5F5F5F5F5F5F5F5F5F5F5F5F5F5F5E2E2E2E2E2E2E2E2E2F5F5F5F5F5F5F5F5F5F5F5F5F5F5F5F5E2E2E2E2E2E2E2E2E2F5F5F5F5F5
310
F5F5F5F5F5F5F5F5F5F5F5E2E2E2E2E2E2E2E2E2F5F5F5F5F5F5F5F5F5F5F5F5F5F5F5F5E2E2E2E2E2E2E2E2E2F5F5F5F5F5F5F5F5F5F5F5F5F5F5F5F5E2E2E2E2E2E2E2E2E2F5F5F5F5F5F5F5F5E2F5F5E2F5E2E2E2E2E2E2E2E2E2E2E2E2E2E2E2E2E2E2E2E2E2E2E2E2E2E2E2E2E2E2E2E2E2E2E2E2E2E2E2E2E2E2E2E2
310
E2E2E2E2E2E2E2E2E2E2E2E2E2E2E2E2E2E2E2E2E2E2E2E2E2E2E2E2E2E2E2E2E2E2E2E2E2E2E2E2E2E2E2E2E2E2E2E2E2E2E2E2E2E2E2E2E2E2E2E2E2E2E2E2E2E2E2E2E2E2E2E2E2E2E2E2E2E2E2E2E2E2E2E2E2E2E2E2E2E2E2E2E2E2E2E2E2E2E2E2E2E2E2E2E2E2E2E2E2E2E2E2E2E2E2E2E2E2E2E2E2E2E2E2E2E2E2
310
E2E2E2F5E2F5F5E2F5E2E2E2E2E2E2E2E2E2E2E2E2E2E2E2E2E2E2E2E2E2E2E2E2E2E2E2E2E2E2E2E2E2E2E2E2E2E2E2E2E2E2E2E2E2E2E2E2E2E2E2E2E2E2E2E2E2E2E2E2E2E2E2E2E2E2E2E2E2E2E2E2E2E2E2E2E2E2E2E2E2E2E2E2E2E2E2E2E2E2E2E2E2E2E2E2E2E2E2E2E2E2E2E2E2E2E2E2E2E2E2E2E2E2E2E2E2E2
310
E2E2E2E2E2E2E2E2E2E2E2E2E2E2E2E2E2E2E2E2E2E2E2E2E2E2E2E2E2E2E2E2E2E2E2E2E2E2E2E2E2E2E2E2E2E2E2E2E2E2E2E2E2E2E2E2F5E2F5F5E2F5E2E2E2E2E2E2E2E2E2E2E2E2E2E2E2E2E2E2E2E2E2E2E2E2E2E2E2E2E2E2E2E2E2E2E2E2E2E2E2E2E2E2E2E2E2E2E2E2E2E2E2E2E2E2E2E2E2E2E2E2E2E2E2E2E2
310
E2E2E2E2E2E2E2E2E2E2E2E2E2E2E2E2E2E2E2E2E2E2E2E2E2E2E2E2E2E2E2E2E2E2E2E2E2E2E2E2E2E2E2E2E2E2E2E2E2E2E2E2E2E2E2E2E2E2E2E2E2E2E2E2E2E2E2E2E2E2E2E2E2E2E2E2E2E2E2E2E2E2E2E2E2E2E2E2E2E2E2E2E2E2E2E2E2E2E2E2E2E2E2E2E2E2E2E2E2F5E2F5F5E2F5E2E2E2E2E2E2E2E2E2E2E2E2
310
E2E2E2E2E2E2E2E2E2E2E2E2E2E2E2E2E2E2E2E2E2E2E2E2E2E2E2E2E2E2E2E2E2E2E2E2E2E2E2E2E2E2E2E2E2E2E2E2E2E2E2E2E2E2E2E2E2E2E2E2E2E2E2E2E2E2E2E2E2E2E2E2E2E2E2E2E2E2E2E2E2E2E2E2E2E2E2E2E2E2E2E2E2E2E2E2E2E2E2E2E2E2E2E2E2E2E2E2E2E2E2E2E2E2E2E2E2E2E2E2E2E2E2E2E2E2E2
310
E2E2E2E2E2E2E2E2E2E2E2E2E2E2E2E2E2E2E2E2E2E2E2E2E2E2E2E2E2E2E2E2E2E2E2F5E2F5F5E2F5E2E2E2E2E2E2E2E2E2E2E2E2E2E2E2E2E2E2E2E2E2E2E2E2E2E2E2E2E2E2E2E2E2E2E2E2E2E2E2E2E2E2E2E2E2E2E2E2E2E2E2E2E2E2E2E2E2E2E2E2E2E2E2E2E2E2E2E2E2E2E2E2E2E2E2E2E2E2E2E2E2E2E2E2E2E2
310
E2E2E2E2E2E2E2E2E2E2E2E2E2E2E2E2E2E2E2E2E2E2E2E2E2E2E2E2E2E2E2E2E2E2E2E2E2E2E2E2E2E2E2E2E2E2E2E2E2E2E2E2E2E2E2E2E2E2E2E2E2E2E2E2E2E2E2E2E2E2E2E2E2E2E2E2E2E2E2E2E2E2E2E2E2E2E2E2F5E2F5F5E2F5E2E2E2E2E2E2E2E2E2E2E2E2E2E2E2E2E2E2E2E2E2E2E2E2E2E2E2E2E2E2E2E2E2
310
E2E2E2E2E2E2E2E2E2E2E2E2E2E2E2E2E2E2E2E2E2E2E2E2E2E2E2E2E2E2E2E2E2E2E2E2E2E2E2E2E2E2E2E2E2E2E2E2E2E2E2E2E2E2E2E2E2E2E2E2E2E2E2E2E2E2E2E2E2E2E2E2E2E2E2E2E2E2E2E2E2E2E2E2E2E2E2E2E2E2E2E2E2E2E2E2E2E2E2E2E2E2E2E2E2E2E2E2E2E2E2E2E2E2E2E2E2E2E2E2E2E2E2E2E2E2E2
310
E2E2E2E2E2E2E2E2E2E2E2E2E2E2F5E2F5F5E2F5E2E2E2E2E2E2E2E2E2E2E2E2E2E2E2E2E2E2E2E2E2E2E2E2E2E2E2E2E2E2E2E2E2E2E2E2E2E2E2E2E2E2E2E2E2E2E2E2E2E2E2E2E2E2E2E2E2E2E2E2E2E2E2E2E2E2E2E2E2E2E2E2E2E2E2E2E2E2E2E2E2E2E2E2E2E2E2E2E2E2E2E2E2E2E2E2E2E2E2E2E2E2E2E2E2E2E2
310
E2E2E2E2E2E2E2E2E2E2E2E2E2E2E2E2E2E2E2E2E2E2E2E2E2E2E2E2E2E2E2E2E2E2E2E2E2E2E2E2E2E2E2E2E2E2E2E2E2E2E2E2E2E2E2E2E2E2E2E2E2E2E2E2E2E2E2F5E2F5F5E2E2E2E2E2E2E2E2E2E2E2E2E2E2E2E2E2E2E2E2E2E2E2E2E2E2E2E2E2E2E2E2E2E2E2E2E2E2E2E2E2E2E2E2E2E2E2E2E2E2E2E2E2E2E2E2
310
E2E2E2E2E2E2E2E2E2E2E2E2E2E2E2E2E2E2E2E2E2E2E2E2E2E2E2E2E2E2E2E2E2E2E2E2E2E2E2E2E2E2E2E2E2E2E2E2E2E2E2E2E2E2E2E2E2E2E2E2E2E2E2E2E2E2E2E2E2E2E2E2E2E2E2E2E2E2E2E2E2E2E2E2E2E2E2E2E2E2E2E2E2E2E2E2E2E2E2E2E2E2E2E2E2E2E2E2E2E2E2E2E2E2E2E2E2E2E2E2E2E2F5F5E2E2E2
310
E2E2E2E2E2E2E2E2E2E2E2E2E2E2E2E2E2E2E2E2E2E2E2E2E2E2E2E2E2E2E2E2E2E2E2E2E2E2E2E2E2E2E2E2E2E2E2E2E2E2E2E2E2E2E2E2E2E2E2E2E2E2E2E2E2E2E2E2E2E2E2E2E2E2E2E2E2E2E2E2E2E2E2E2E2E2E2E2E2E2E2E2E2E2E2E2E2E2E2E2E2E2E2E2E2E2E2E2E2E2E2E2E2E2E2E2E2E2E2E2E2E2E2E2E2E2E2
310
E2E2E2E2E2E2E2E2E2E2E2E2E2E2E2E2E2E2E2E2E2E2E2E2E2E2E2E2E2E2E2E2E2E2E2E2E2E2E2E2E2E2E2E2E2E2E2E2F5F5E2E2E2E2E2E2E2E2E2E2E2E2E2E2E2E2E2E2E2E2E2E2E2E2E2E2E2E2E2E2E2E2E2E2E2E2E2E2E2E2E2E2E2E2E2E2E2E2E2E2E2E2E2E2E2E2E2E2E2E2E2E2E2E2E2E2E2E2E2E2E2E2E2E2E2E2E2
310
E2E2E2E2E2E2E2E2E2E2E2E2E2E2E2E2E2E2E2E2E2E2E2E2E2E2E2E2E2E2E2E2E2E2E2E2E2E2E2E2E2E2E2E2E2E2E2E2E2E2E2E2E2E2E2E2E2E2E2E2E2E2E2E2E2E2E2E2E2E2E2E2E2E2E2E2E2E2E2E2E2E2E2E2E2E2E2E2E2E2E2E2E2E2E2E2E2E2E2E2E2F5F5E2E2E2E2E2E2E2E2E2E2E2E2E2E2E2E2E2E2E2E2E2E2E2E2
310
E2E2E2E2E2E2E2E2E2E2E2E2E2E2E2E2E2E2E2E2E2E2E2E2E2E2E2E2E2E2E2E2E2E2E2E2E2E2E2E2E2E2E2E2E2E2E2E2E2E2E2E2E2E2E2E2E2E2E2E2E2E2E2E2E2E2E2E2E2E2E2E2E2E2E2E2E2E2E2E2E2E2E2E2E2E2E2E2E2E2E2E2E2E2E2E2E2E2E2E2E2E2E2E2E2E2E2E2E2E2E2E2E2E2E2E2E2E2E2E2E2E2E2E2E2E2E2
310
E2E2E2E2E2E2E2E2E2E2E2E2E2E2E2E2E2E2E2E2E2E2E2E2E2E2E2F5F5E2E2E2E2E2E2E2E2E2E2E2E2E2E2E2E2E2E2E2F5F5F5F5F5F5F5F5F5F5F5F5F5F5F5F5F5F5F5F5F5F5F5F5F5F5F5F5F5F5F5F5F5F5F5F5F5F5F5F5F5F5F5F5F5F5F5F5F5F5F5F5F5F5F5F5F5F5F5F5F5F5F5F5F5F5F5F5F5F5F5F5F5F5F5F5F5F5F5
310
F5F5F5F5F5F5F5F5F5F5F5F5F5F5F5F5F5F5F5F5F5F5F5F5F5F5F5F5F5F5F5F5F5F5F5F5F5F5F5F5F5F5F5F5F5F5F5F5F5F5F5F5F5F5F5F5F5F5F5F5F5E2E2E2E2E2E2E2E2E2E2E2E2E2E2E2E2E2E2E2F5F5E2E2E2E2E2E2E2E2E2E2E2E2E2E2E2E2E2E2E2F5E2E2E2E2E2E2E2E2E2E2E2E2E2E2E2E2E2E2E2E2E2E2E2E2E2
310
E2E2E2E2E2E2E2E2E2E2E2E2E2E2E2E2E2E2E2E2E2E2E2E2E2E2E2E2E2E2E2E2E2E2E2E2E2E2E2E2E2E2E2E2E2E2E2E2E2E2E2E2E2E2E2E2E2E2E2E2E2E2E2E2E2E2E2E2E2E2E2E2E2E2E2E2E2E2E2E2E2E2E2E2E2E2E2E2E2E2E2E2E2E2E2E2E2E2E2E2E2E2E2E2E2E2E2E2E2E2E2E2E2F5E2E2E2E2E2E2E2E2E2E2E2E2E2
310
E2E2E2E2E2E2F5F5E2E2E2E2E2E2E2E2E2E2E2E2E2E2E2E2E2E2E2F5E2E2E2E2E2E2E2E2E2E2E2E2E2E2E2E2E2E2E2E2E2E2E2E2E2E2E2E2E2E2E2E2E2E2E2E2E2E2E2E2E2E2E2E2E2E2E2E2E2E2E2E2E2E2E2E2E2E2E2E2E2E2E2E2E2E2E2E2E2E2E2E2E2E2E2E2E2E2E2E2E2E2E2E2E2E2E2E2E2E2E2E2E2E2E2E2E2E2E2
310
E2E2E2E2E2E2E2E2E2E2E2E2E2E2E2E2E2E2E2E2E2E2E2E2E2E2E2E2E2E2E2E2E2E2E2E2E2E2E2F5E2E2E2E2E2E2E2E2E2E2E2E2E2E2E2E2E2E2E2F5F5E2E2E2E2E2E2E2E2E2E2E2E2E2E2E2E2E2E2E2F5E2E2E2E2E2E2E2E2E2E2E2E2E2E2E2E2E2E2E2E2E2E2E2E2E2E2E2E2E2E2E2E2E2E2E2E2E2E2E2E2E2E2E2E2E2E2
310
E2E2E2E2E2E2E2E2E2E2E2E2E2E2E2E2E2E2E2E2E2E2E2E2E2E2E2E2E2E2E2E2E2E2E2E2E2E2E2E2E2E2E2E2E2E2E2E2E2E2E2E2E2E2E2E2E2E2E2E2E2E2E2E2E2E2E2E2E2E2E2E2E2E2E2E2E2E2E2E2E2E2E2E2E2E2E2E2E2E2E2E2F5E2E2E2E2E2E2E2E2E2E2E2E2E2E2E2E2E2E2E2F5F5E2E2E2E2E2E2E2E2E2E2E2E2E2
310
E2E2E2E2E2E2F5E2E2E2E2E2E2E2E2E2E2E2E2E2E2E2E2E2E2E2E2E2E2E2E2E2E2E2E2E2E2E2E2E2E2E2E2E2E2E2E2E2E2E2E2E2E2E2E2E2E2E2E2E2E2E2E2E2E2E2E2E2E2E2E2E2E2E2E2E2E2E2E2E2E2E2E2E2E2E2E2E2E2E2E2E2E2E2E2E2E2E2E2E2E2E2E2E2E2E2E2E2E2E2E2E2E2E2E2E2E2E2E2E2E2E2E2E2E2E2E2
310
E2E2E2E2E2E2E2E2E2E2E2E2E2E2E2E2E2E2F5E2E2E2E2E2E2E2E2E2E2E2E2E2E2E2E2E2E2E2F5F5E2F5E2E2E2E2E2E2E2E2E2E2E2E2E2E2E2E2E2F5E2E2E2E2E2E2E2E2E2E2E2E2E2E2E2E2E2E2E2E2E2E2E2E2E2E2E2E2E2E2E2E2E2E2E2E2E2E2E2E2E2E2E2E2E2E2E2E2E2E2E2E2E2E2E2E2E2E2E2E2E2E2E2E2E2E2E2
310
E2E2E2E2E2E2E2E2E2E2E2E2E2E2E2E2E2E2E2E2E2E2E2E2E2E2E2E2E2E2E2E2E2E2E2E2E2E2E2E2E2E2E2E2E2E2E2E2E2E2E2E2E2E2E2E2E2E2E2E2E2E2E2E2E2E2E2E2E2E2E2F5E2E2E2E2E2E2E2E2E2E2E2E2E2E2E2E2E2F5E2F5F5E2F5E2E2E2E2E2E2E2E2E2E2E2E2E2E2E2E2E2F5E2E2E2E2E2E2E2E2E2E2E2E2E2E2
310
E2E2E2E2E2E2E2E2E2E2E2E2E2E2E2E2E2E2E2E2E2E2E2E2E2E2E2E2E2E2E2E2E2E2E2E2E2E2E2E2E2E2E2E2E2E2E2E2E2E2E2E2E2E2E2E2E2E2E2E2E2E2E2E2E2E2E2E2E2E2E2E2E2E2E2E2E2E2E2E2E2E2E2E2E2E2E2E2E2E2E2E2E2E2E2E2E2E2E2E2E2E2E2E2E2E2E2E2E2E2E2E2E2E2E2E2E2E2E2E2E2E2E2E2F5E2E2
310
E2E2E2E2E2E2E2E2E2E2E2E2E2E2E2F5E2F5F5E2F5E2E2E2E2E2E2E2E2E2E2E2E2E2E2E2E2E2F5E2E2E2E2E2E2E2E2E2E2E2E2E2E2E2E2E2E2E2E2E2E2E2E2E2E2E2E2E2E2E2E2E2E2E2E2E2E2E2E2E2E2E2E2E2E2E2E2E2E2E2E2E2E2E2E2E2E2E2E2E2E2E2E2E2E2E2E2E2E2E2E2E2E2E2E2E2E2E2E2E2E2E2E2E2E2E2E2
310
E2E2E2E2E2E2E2E2E2E2E2E2E2E2E2E2E2E2E2E2E2E2E2E2E2E2E2E2E2E2E2E2E2E2E2E2E2E2E2E2E2E2E2E2E2E2E2E2E2E2F5E2E2E2E2E2E2E2E2E2E2E2E2E2E2E2E2E2F5E2F5F5E2F5E2E2E2E2E2E2E2E2E2E2E2E2E2E2E2E2E2F5E2E2E2E2E2E2E2E2E2E2E2E2E2E2E2E2E2E2E2E2E2E2E2E2E2E2E2E2E2E2E2E2E2E2E2
310
E2E2E2E2E2E2E2E2E2E2E2E2E2E2E2E2E2E2E2E2E2E2E2E2E2E2E2E2E2E2E2F5F5E2E2E2E2E2E2E2E2E2E2E2E2E2E2E2E2E2E2F5E2F5E2E2E2E2E2E2E2E2E2E2E2E2E2E2E2E2E2E2E2E2E2E2E2E2E2E2E2E2E2E2E2E2E2E2E2E2E2E2E2E2E2E2E2E2E2E2E2E2E2F5E2E2E2E2E2E2E2E2E2E2E2E2E2E2E2E2E2F5E2F5F5E2F5
310
E2E2E2E2E2E2E2E2E2E2E2E2E2E2E2E2E2F5E2E2E2E2E2E2E2E2E2E2E2E2E2E2E2E2E2E2E2E2E2E2E2E2E2E2E2E2E2E2E2E2E2E2E2E2E2E2E2E2E2E2E2E2E2E2E2E2E2E2E2E2E2E2E2E2E2E2E2E2E2E2E2E2E2E2F5F5F5F5F5F5F5F5F5F5F5F5F5F5F5F5F5F5F5F5F5F5F5E2E2E2E2E2E2E2E2E2E2E2E2E2E2E2E2E2E2E2E2
310
E2E2E2E2E2E2E2E2E2E2E2E2E2E2E2E2E2E2E2E2E2E2E2E2E2E2E2E2E2F5E2E2E2E2E2E2E2E2E2E2E2E2E2E2E2E2E2F5E2F5F5E2F5E2E2E2E2E2E2E2E2E2E2E2E2E2E2E2E2E2F5E2E2E2E2E2E2E2E2E2E2E2E2E2E2E2E2E2E2E2E2E2E2E2E2E2E2E2E2E2E2E2E2E2E2E2E2E2E2E2E2E2E2E2E2E2E2E2E2E2E2E2E2E2E2E2E2
310
E2E2E2E2E2E2E2E2E2E2F5E2E2E2E2E2E2E2E2F5F5F5F5F5E2E2E2E2E2E2E2E2F5E2E2E2E2E2E2E2E2E2E2E2E2E2E2E2E2E2E2E2E2E2E2E2E2E2E2E2E2E2E2E2E2E2E2E2E2E2E2E2E2E2E2E2E2E2E2E2E2E2F5E2E2E2E2E2E2E2E2E2E2E2E2E2E2E2E2E2F5E2F5F5E2F5E2E2E2E2E2E2E2E2E2E2E2E2E2E2E2E2E2F5E2E2E2
310
E2E2E2E2E2E2E2E2E2E2E2E2E2E2E2E2E2E2E2E2E2E2E2E2E2E2E2E2E2E2E2E2E2E2E2E2E2E2E2E2E2E2E2E2E2E2E2E2E2E2E2E2E2E2E2E2E2E2E2E2E2E2E2F5E2E2E2E2E2E2E2E2F5F5F5F5F5E2E2E2E2E2E2E2E2F5E2E2E2E2E2E2E2E2E2E2E2E2E2E2E2E2E2E2E2E2E2E2E2E2E2E2E2E2E2E2E2E2E2E2E2E2E2E2E2E2E2
310
E2E2E2E2E2E2E2E2F5E2E2E2E2E2E2E2E2E2E2E2E2E2E2E2E2E2F5E2F5F5E2F5E2E2E2E2E2E2E2E2E2E2E2E2E2E2E2E2E2F5E2E2E2E2E2E2E2E2E2E2E2E2E2E2E2E2E2E2E2E2E2E2E2E2E2E2E2E2F5F5F5F5F5F5F5F5F5F5F5F5F5F5F5F5F5F5F5F5F5F5F5F5F5F5F5F5F5F5F5F5E2E2E2E2E2E2F5E2E2E2E2E2E2E2E2E2E2
310
E2E2E2E2E2E2E2E2E2E2E2F5E2E2E2E2E2E2E2E2E2E2E2E2E2E2E2E2E2E2E2E2E2E2E2E2E2E2E2E2E2E2E2E2E2E2E2E2E2E2E2E2E2E2E2E2E2E2E2E2E2F5E2E2E2E2E2E2E2E2E2E2E2E2E2E2E2E2E2F5E2F5F5E2F5E2E2E2E2E2E2E2E2E2E2E2E2E2E2E2E2E2F5E2E2E2E2E2E2E2E2E2E2E2E2E2E2E2E2E2E2E2E2E2E2E2E2
310
E2E2E2E2E2F5F5F5F5E2F5F5F5F5F5F5F5F5F5E2E2F5F5F5E2E2E2E2E2E2E2E2E2F5F5F5E2E2E2E2E2E2F5F5F5E2E2E2E2E2E2E2E2E2E2E2E2E2E2E2E2F5E2F5F5E2E2E2E2E2E2E2E2E2E2E2E2E2E2E2E2E2E2E2E2E2E2E2E2E2E2E2E2E2E2E2E2E2E2E2E2E2E2E2E2E2E2E2E2E2E2E2E2E2F5E2E2E2E2E2E2E2E2E2E2E2E2
310
E2E2E2E2E2F5E2F5F5E2F5E2E2E2E2E2E2E2E2E2E2E2E2E2E2E2E2E2F5E2E2E2E2E2E2E2E2E2E2E2E2E2E2E2E2E2E2E2E2E2E2E2E2E2E2E2E2E2F5F5F5F5E2F5F5F5F5E2F5F5F5F5E2E2F5E2E2E2E2E2E2E2E2E2E2E2E2E2F5E2E2E2E2E2E2F5F5F5F5F5F5F5F5F5F5F5F5F5F5F5F5F5F5F5F5F5F5F5E2E2E2E2E2E2E2E2E2
310
E2E2E2E2E2E2E2E2E2E2E2E2E2E2E2E2E2E2E2E2E2E2E2E2E2E2E2E2E2E2E2E2E2E2E2E2E2E2E2E2F5E2E2E2E2E2E2E2E2E2E2E2E2E2E2E2E2E2F5E2F5F5E2F5E2E2E2E2E2E2E2E2E2E2E2E2E2E2E2E2E2F5E2E2E2E2E2E2E2E2E2E2E2E2E2E2E2E2E2E2E2E2E2E2E2E2E2E2E2E2E2F5F5F5F5E2F5F5E2F5E2F5F5E2F5E2E2
310
F5E2E2E2E2E2E2E2E2E2E2E2E2E2F5E2E2E2E2E2E2F5F5F5F5F5F5F5E2F5F5F5F5F5F5F5E2F5F5F5F5F5F5F5E2E2E2E2E2E2E2E2E2E2E2E2E2E2E2E2E2E2E2E2E2E2E2E2E2E2E2E2E2E2E2E2E2E2E2E2E2E2E2E2E2E2E2E2E2E2E2E2E2F5E2E2E2E2E2E2E2E2E2E2E2E2E2E2E2E2E2F5E2F5F5E2F5E2E2E2E2E2E2E2E2E2E2
310
E2E2E2E2E2E2E2F5E2E2E2E2E2E2E2E2E2E2E2E2E2E2E2E2E2E2E2E2E2E2E2E2E2E2E2E2E2E2E2E2E2E2E2E2E2E2E2E2E2E2E2E2E2F5E2E2E2E2E2E2E2E2E2E2E2E2E2F5E2E2E2E2E2E2F5F5F5F5F5F5F5E2F5F5F5F5F5F5F5F5F5F5F5E2F5F5F5E2E2E2E2E2E2E2E2E2E2E2E2E2E2E2E2E2E2E2E2E2E2E2E2E2E2E2E2E2E2
310
E2E2E2E2E2E2E2E2E2E2E2E2E2E2E2E2E2E2E2F5E2E2E2E2E2E2E2E2E2E2E2E2E2E2E2E2E2F5E2F5F5E2F5E2E2E2E2E2E2E2E2E2E2E2E2E2E2E2E2E2F5E2E2E2E2E2E2E2E2E2E2E2E2E2E2E2E2E2E2E2E2E2E2E2E2E2E2E2E2E2E2E2E2E2E2E2E2E2E2E2E2E2E2E2E2E2F5E2E2E2E2E2E2E2E2E2E2E2E2E2F5E2E2E2E2E2E2
310
F5F5E2E2E2E2E2E2E2E2E2E2E2E2E2E2E2E2E2E2E2F5F5E2E2E2E2E2E2E2E2E2E2E2E2E2E2E2E2E2E2E2E2E2E2E2E2E2E2E2E2E2E2E2E2E2E2E2E2E2E2E2E2E2E2E2E2E2E2E2E2E2F5E2E2E2E2E2E2E2E2E2E2E2E2E2E2E2E2E2F5E2F5F5E2F5E2E2E2E2E2E2E2E2E2E2E2E2E2E2E2E2E2F5E2E2E2E2E2E2E2E2E2E2E2E2E2
310
E2E2E2E2E2E2E2E2E2E2E2E2E2E2E2E2E2E2E2E2E2E2E2E2E2E2E2F5F5F5F5F5F5F5F5F5F5F5F5F5F5F5F5F5F5F5F5E2E2E2E2E2E2F5F5F5F5F5F5F5F5F5F5F5F5F5F5F5F5F5F5F5F5F5F5F5F5F5F5F5F5F5F5E2E2E2E2E2E2E2E2E2E2E2E2E2E2E2E2E2E2E2E2E2E2E2E2E2E2E2E2E2E2E2E2E2E2E2E2E2E2E2E2E2E2F5E2
310
E2E2E2E2E2E2E2E2E2E2E2E2E2E2E2E2F5E2F5F5E2F5E2E2E2E2E2E2E2E2E2E2E2E2E2E2E2E2E2F5E2E2E2E2E2E2E2E2E2E2E2E2E2E2E2E2E2E2E2E2E2E2E2E2E2E2E2E2E2E2E2E2E2E2E2E2E2E2E2E2F5F5E2E2E2F5F5E2F5E2E2E2E2F5E2F5E2E2F5F5E2E2E2E2E2E2F5F5F5F5E2F5E2E2E2E2E2E2E2E2E2E2E2F5E2F5F5
310
F5F5F5F5F5F5E2F5F5E2E2E2E2E2E2E2E2E2E2E2E2E2E2E2E2E2E2E2E2E2E2E2E2E2E2E2E2E2E2E2E2E2E2E2E2E2E2E2E2E2E2F5E2E2E2E2E2E2E2E2E2E2E2E2E2E2E2E2E2F5E2F5F5E2F5E2E2E2E2E2E2E2E2E2E2E2E2E2E2E2E2E2F5E2E2E2E2E2E2E2E2E2E2E2E2E2E2E2E2E2E2E2E2E2E2E2E2E2E2E2E2E2E2E2E2E2E2
310
E2E2E2E2E2E2F5E2E2E2E2F5F5F5F5F5F5F5F5F5E2F5E2E2F5F5E2E2E2E2E2E2F5F5F5F5E2F5E2E2E2E2E2E2E2E2E2E2E2F5E2F5F5F5F5E2E2F5F5E2F5E2E2E2E2E2E2E2E2E2E2E2E2E2E2E2E2E2E2E2E2E2E2E2E2E2E2E2E2E2E2E2E2E2E2E2E2E2E2E2E2E2E2E2F5E2E2E2E2E2E2E2E2E2E2E2E2E2E2E2E2E2F5E2F5F5E2
310
E2E2E2E2E2E2E2E2E2E2E2E2E2E2E2E2E2E2F5E2E2E2E2E2E2E2E2E2E2E2E2E2E2E2E2E2E2E2E2E2E2E2E2E2E2E2E2E2E2E2E2E2E2E2E2E2E2E2E2F5E2E2E2E2F5F5F5F5F5E2E2E2F5E2F5E2E2F5E2E2E2E2E2E2E2F5F5F5F5F5F5E2E2E2E2E2E2E2E2E2E2E2F5F5F5E2E2F5E2E2F5E2E2F5E2E2E2E2E2E2E2E2E2E2E2E2E2
310
E2E2E2E2E2E2E2E2E2E2E2E2E2E2E2E2E2E2E2E2E2E2E2E2E2E2E2E2E2E2F5E2E2E2E2E2E2E2E2E2E2E2E2E2E2E2E2E2E2E2F5F5E2E2E2E2E2E2E2E2E2E2E2E2E2E2E2E2E2E2E2F5E2E2E2E2E2E2E2E2E2E2E2E2E2E2E2E2E2E2E2E2E2E2E2E2E2E2E2E2E2E2E2E2E2E2E2E2E2E2E2E2F5E2E2E2E2F5F5F5F5F5E2E2E2F5E2
310
F5E2E2F5F5E2E2E2E2E2E2F5F5F5F5F5F5E2E2E2E2E2E2E2E2E2E2E2F5F5F5E2E2F5E2E2F5E2E2F5E2E2E2E2E2E2E2E2E2E2E2E2E2E2E2E2E2E2E2E2E2E2E2E2E2E2E2E2E2E2E2E2E2E2E2E2E2E2E2E2E2E2E2F5E2E2E2E2E2E2E2E2E2E2E2E2E2E2E2E2E2E2E2F5F5E2E2E2E2E2E2E2E2E2E2E2E2E2E2E2E2E2E2E2F5E2E2
310
E2E2E2E2E2E2E2E2E2E2E2E2E2E2E2E2E2E2E2E2E2E2E2E2E2E2E2E2E2E2E2E2E2E2E2E2E2E2F5E2E2E2E2F5F5F5F5F5E2E2E2F5E2F5E2E2F5F5E2E2E2E2E2E2F5F5F5F5E2F5E2E2E2E2E2E2E2E2E2E2E2F5E2F5E2E2F5E2E2F5E2E2F5E2E2E2E2E2E2E2E2E2E2E2E2E2E2E2E2E2E2E2E2E2E2E2E2E2E2E2E2E2E2E2E2E2E2
310
E2E2E2E2E2E2E2E2E2F5E2E2E2E2E2E2E2E2E2E2E2E2E2E2E2E2E2E2E2F5F5E2E2E2E2E2E2E2E2E2E2E2E2E2E2E2E2E2E2E2F5E2E2E2E2E2E2E2E2E2E2E2E2E2E2E2E2E2E2E2E2E2E2E2E2E2E2E2E2E2E2E2E2E2E2E2E2E2E2E2E2F5E2E2E2E2F5F5F5F5F5E2E2E2F5F5F5F5F5F5F5E2E2E2E2E2E2F5F5F5F5F5F5F5F5F5F5
310
F5F5F5F5F5F5F5F5F5F5E2E2F5E2E2F5E2E2F5E2E2E2E2E2E2E2E2E2E2E2E2E2E2E2E2E2E2E2E2E2E2E2E2E2E2E2E2E2E2E2E2E2E2E2E2E2E2E2E2E2E2E2F5E2E2E2E2E2E2E2E2E2E2E2E2E2E2E2E2E2E2E2F5F5E2E2E2E2E2E2E2E2E2E2E2E2E2E2E2E2E2E2E2F5E2E2E2E2E2E2E2E2E2E2E2E2E2E2E2E2E2E2E2E2E2E2E2
310
E2E2E2E2E2E2E2E2E2E2E2E2E2E2E2E2E2F5E2E2E2E2F5F5F5F5F5E2E2E2F5E2E2E2E2F5F5E2E2E2E2E2E2F5F5F5F5E2E2E2E2E2E2E2E2E2E2E2E2E2E2E2E2E2E2F5E2E2F5E2E2F5E2E2E2E2E2E2E2E2E2E2E2E2E2E2E2E2E2E2E2E2E2E2E2E2E2E2E2E2E2E2E2E2E2E2E2E2E2E2E2E2E2E2E2F5E2E2E2E2E2E2E2E2E2E2E2
310
E2E2E2E2E2E2E2E2F5F5E2E2E2E2E2E2E2E2E2E2E2E2E2E2E2E2E2E2E2F5E2E2E2E2E2E2E2E2E2E2E2E2E2E2E2E2E2E2E2E2E2E2E2E2E2E2E2E2E2E2E2E2E2E2E2E2E2E2E2E2F5E2E2E2E2F5F5F5F5F5E2E2E2F5E2E2E2E2F5F5E2E2E2E2E2E2F5F5F5F5E2E2E2E2E2E2E2E2E2E2E2E2E2E2E2E2E2E2F5E2E2F5E2E2F5E2E2
310
E2E2E2E2E2E2E2E2E2E2E2E2E2E2E2E2E2E2E2E2E2E2E2E2E2E2E2E2E2E2E2E2E2E2E2E2E2E2E2E2E2F5E2E2E2E2E2E2E2E2E2E2E2E2E2E2E2E2E2E2E2F5F5E2E2E2E2E2E2E2E2E2E2E2E2E2E2E2E2E2E2E2F5E2E2E2E2E2E2E2E2E2E2E2E2E2E2E2E2E2E2E2E2E2E2E2E2E2E2E2E2E2E2E2E2E2E2E2E2E2E2E2E2F5E2E2E2
310
E2F5F5F5F5F5E2E2E2F5E2E2E2E2F5E2E2E2E2E2E2E2F5F5F5F5E2E2E2E2E2E2E2E2E2E2E2E2E2E2E2E2E2E2F5E2E2F5E2E2F5E2E2E2E2E2E2E2E2E2E2E2E2E2E2E2E2E2E2E2E2E2E2E2E2E2E2E2E2E2E2E2E2E2E2E2E2E2E2E2E2E2E2E2F5E2E2E2E2E2E2E2E2E2E2E2E2E2E2E2E2E2E2E2F5F5E2E2E2E2E2E2E2E2E2E2E2
310
E2E2E2E2E2E2E2E2F5E2E2E2E2E2E2E2E2E2E2E2E2E2E2E2E2E2E2E2E2E2E2E2E2E2E2E2E2E2E2E2E2E2E2E2E2E2E2E2E2F5E2E2E2E2F5F5F5F5F5E2E2E2F5E2E2E2E2F5F5E2E2E2E2E2E2F5F5F5F5E2E2E2E2E2E2E2E2E2E2E2E2E2E2E2E2E2E2F5E2E2F5E2E2F5E2E2E2E2E2E2E2E2E2E2E2E2E2E2E2E2E2E2E2E2E2E2E2
310
E2E2E2E2E2E2E2E2E2E2E2E2E2E2E2E2E2E2E2E2F5E2E2E2E2E2E2E2E2E2E2E2E2E2E2E2E2E2E2E2F5F5E2F5E2E2E2E2E2E2E2E2E2E2E2E2E2E2E2E2E2F5E2E2E2E2E2E2E2E2E2E2E2E2E2E2E2E2E2E2E2E2E2E2E2E2E2E2E2E2E2E2E2E2E2E2E2E2E2E2E2E2F5E2E2E2E2F5F5F5F5F5E2E2E2F5E2E2E2E2F5F5E2E2E2E2E2
310
E2F5F5F5F5E2E2E2E2E2E2E2E2E2E2E2E2E2E2E2E2E2E2F5F5F5F5E2E2F5E2E2E2E2E2E2E2E2E2E2E2E2E2E2E2E2E2E2E2E2E2E2E2E2E2E2E2E2E2E2E2E2E2E2E2E2E2E2E2E2E2E2E2F5E2E2E2E2E2E2E2E2E2E2E2E2E2E2E2E2E2F5E2F5F5E2F5E2E2E2E2E2E2E2E2E2E2E2E2E2E2E2E2E2F5E2E2E2E2E2E2E2E2E2E2E2E2
310
E2E2E2E2E2E2E2E2E2E2E2E2E2E2E2E2E2E2E2E2E2E2E2E2E2E2E2E2F5E2E2E2E2F5F5F5F5F5E2E2E2F5E2E2E2E2F5F5E2E2E2E2E2E2F5F5F5F5E2E2E2E2E2E2E2E2E2E2E2E2E2E2E2E2E2E2F5F5F5F5E2E2F5E2E2E2E2E2E2E2E2E2E2E2E2E2E2E2E2E2E2E2E2E2E2E2E2E2E2E2E2E2E2E2E2E2E2E2E2E2E2E2E2E2E2E2F5
310
E2E2E2E2E2E2E2E2E2E2E2E2E2E2E2E2E2F5E2F5F5E2F5E2E2E2E2E2E2E2E2E2E2E2E2E2E2E2E2E2F5E2E2E2E2E2E2E2E2E2E2E2E2E2E2E2E2E2E2E2E2E2E2E2E2E2E2E2E2E2E2E2E2E2E2E2E2E2E2F5F5F5E2E2E2E2F5F5F5F5F5E2E2E2F5E2E2E2E2F5F5E2E2E2E2E2E2F5F5F5F5E2E2E2E2E2E2E2E2E2E2E2E2E2E2E2E2
310
E2E2F5F5F5F5E2E2F5E2E2E2E2E2E2E2E2E2E2E2E2E2E2E2E2E2E2E2E2E2E2E2E2E2E2E2E2E2E2E2E2E2E2E2E2E2E2E2E2E2E2E2F5E2E2E2E2E2E2E2E2E2E2E2E2E2E2E2E2E2F5E2F5F5E2F5E2E2E2E2E2E2E2E2E2E2E2E2E2E2E2E2E2F5E2E2E2E2E2E2E2E2E2E2E2E2E2E2E2E2E2E2E2E2E2E2E2E2E2E2E2E2E2E2E2E2E2
310
E2E2E2E2E2F5F5F5E2E2E2E2F5F5F5F5F5E2E2E2F5E2E2E2E2F5F5E2E2E2E2E2E2F5F5F5F5E2E2E2E2E2E2E2E2E2E2E2E2E2E2E2E2E2E2F5F5F5F5E2E2F5E2E2E2E2E2E2E2E2E2E2E2E2E2E2E2E2E2E2E2E2E2E2E2E2E2E2E2E2E2E2E2E2E2E2E2E2E2E2E2E2E2E2E2F5E2E2E2E2E2E2E2E2E2E2E2E2E2E2E2E2E2F5E2F5F5
310
E2F5E2E2E2E2E2E2E2E2E2E2E2E2E2E2E2E2E2F5E2E2E2E2E2E2E2E2E2E2E2E2E2E2E2E2E2E2E2E2E2E2E2E2E2E2E2E2E2E2E2E2E2E2E2E2E2E2F5F5F5E2E2E2E2F5F5F5F5F5E2E2E2F5E2E2E2E2F5E2E2E2E2E2E2E2F5F5F5F5E2E2E2E2E2E2E2E2E2E2E2E2E2E2E2E2E2E2F5F5F5F5E2E2F5E2E2E2E2E2E2E2E2E2E2E2E2
310
E2E2E2E2E2E2E2E2E2E2E2E2E2E2E2E2E2E2E2E2E2E2E2E2E2E2E2E2E2E2E2F5E2E2E2E2E2E2E2E2E2E2E2E2E2E2E2E2E2F5E2F5F5E2F5E2E2E2E2E2E2E2E2E2E2E2E2E2E2E2E2E2F5E2E2E2E2E2E2E2E2E2E2E2E2E2E2E2E2E2E2E2E2E2E2E2E2E2E2E2E2E2E2E2E2E2E2E2E2E2E2F5F5F5E2E2E2E2F5F5F5F5F5E2E2E2F5
310
E2E2E2E2F5F5E2E2E2E2E2E2F5F5F5F5E2E2E2E2E2E2E2E2E2E2E2E2E2E2E2E2E2E2F5F5F5F5E2E2F5E2E2E2E2E2E2E2E2E2E2E2E2E2E2E2E2E2E2E2E2E2E2E2E2E2E2E2E2E2E2E2E2E2E2E2E2E2E2E2E2E2E2E2F5E2E2E2E2E2E2E2E2E2E2E2E2E2E2E2E2E2F5E2F5F5E2F5E2E2E2E2E2E2E2E2E2E2E2E2E2E2E2E2E2F5E2
310
E2E2E2E2E2E2E2E2E2E2E2E2E2E2E2E2E2E2E2E2E2E2E2E2E2E2E2E2E2E2E2E2E2E2E2E2E2F5F5F5E2E2E2E2F5F5F5F5F5E2E2E2F5E2E2E2E2F5F5E2E2E2E2E2E2F5F5F5F5E2E2E2E2E2E2E2E2E2E2E2E2E2E2E2E2E2E2F5F5F5F5E2E2F5E2E2E2E2E2E2E2E2E2E2E2E2E2E2E2E2E2E2E2E2E2E2E2E2E2E2E2E2E2E2E2E2E2
310
E2E2E2E2E2E2E2E2E2E2F5E2E2E2E2E2E2E2E2E2E2E2E2E2E2E2E2E2F5E2F5F5E2F5E2E2E2E2E2E2E2E2E2E2E2E2E2E2E2E2E2F5E2E2E2E2E2E2E2E2E2E2E2E2E2E2E2E2E2E2E2E2E2E2E2E2E2E2E2E2E2E2E2E2E2E2E2E2E2E2E2E2F5E2E2E2E2F5F5F5F5F5E2E2E2F5E2E2E2E2F5F5E2E2E2E2E2E2F5F5F5F5E2E2E2E2E2
310
E2E2E2E2E2E2E2E2E2E2E2E2E2F5F5F5F5E2E2F5E2E2E2E2E2E2E2E2E2E2E2E2E2E2E2E2E2E2E2E2E2E2E2E2E2E2E2E2E2E2E2E2E2E2E2E2E2E2E2E2E2E2E2F5E2E2E2E2E2E2E2E2E2E2E2E2E2E2E2E2E2F5E2F5F5E2F5E2E2E2E2E2E2E2E2E2E2E2E2E2E2E2E2E2F5E2E2E2E2E2E2E2E2E2E2E2E2E2E2E2E2E2E2E2E2E2E2
310
E2E2E2E2E2E2E2E2E2E2E2E2E2E2E2E2F5F5F5E2E2E2E2F5F5F5F5F5E2E2E2F5E2E2E2E2F5F5E2E2E2E2E2E2F5F5F5F5E2E2E2E2E2E2E2E2E2E2E2E2E2E2E2E2E2E2F5F5F5F5F5F5F5E2E2E2E2E2E2E2E2E2E2E2E2E2E2E2E2E2E2E2E2E2E2E2E2E2E2E2E2E2E2E2E2E2E2E2E2E2E2E2E2E2E2E2F5E2E2E2E2E2E2E2E2E2E2
310
E2E2E2E2E2E2E2F5E2F5F5E2F5E2E2E2E2E2E2E2E2E2E2E2E2E2E2E2E2E2F5E2E2E2E2E2E2E2E2E2E2E2E2E2E2E2E2E2E2E2E2E2E2E2E2E2E2E2E2E2E2E2E2E2E2E2E2E2E2E2F5F5E2E2E2E2F5F5F5F5F5E2E2E2F5E2E2E2E2F5F5E2E2E2E2E2E2F5F5F5F5E2E2E2E2E2E2E2E2E2E2E2E2E2E2E2E2E2E2F5F5F5F5F5F5F5E2
310
E2E2E2E2E2E2E2E2E2E2E2E2E2E2E2E2E2E2E2E2E2E2E2E2E2E2E2E2E2E2E2E2E2E2E2E2E2E2E2E2E2E2F5E2E2E2E2E2E2E2E2E2E2E2E2E2E2E2E2E2F5E2F5F5E2F5E2E2E2E2E2E2E2E2E2E2E2E2E2E2E2E2E2F5E2E2E2E2E2E2E2E2E2E2E2E2E2E2E2E2E2E2E2E2E2E2E2E2E2E2E2E2E2E2E2E2E2E2E2E2E2E2F5F5F5E2E2
310
E2E2F5F5F5F5F5E2E2E2F5E2E2E2E2F5E2E2E2E2E2E2E2F5F5F5F5E2E2E2E2E2E2E2E2E2E2E2E2E2E2E2E2E2E2F5F5F5F5F5F5F5E2E2E2E2E2E2E2E2E2E2E2E2E2E2E2E2E2E2E2E2E2E2E2E2E2E2E2E2E2E2E2E2E2E2E2E2E2E2E2E2E2E2E2F5E2E2E2E2E2E2E2E2E2E2E2E2E2E2E2E2E2F5E2F5F5E2F5E2E2E2E2E2E2E2E2
310
E2E2E2E2E2E2E2E2E2F5E2E2E2E2E2E2E2E2E2E2E2E2E2E2E2E2E2E2E2E2E2E2E2E2E2E2E2E2E2E2E2E2E2E2E2E2E2E2F5F5F5E2E2E2E2F5F5F5F5F5E2E2E2F5E2E2E2E2F5F5E2E2E2E2E2E2F5F5F5F5E2E2E2E2E2E2E2E2E2E2E2E2E2E2E2E2E2E2F5F5F5F5F5F5F5E2E2E2E2E2E2E2E2E2E2E2E2E2E2E2E2E2E2E2E2E2E2
310
E2E2E2E2E2E2E2E2E2E2E2E2E2E2E2E2E2E2E2E2E2F5E2E2E2E2E2E2E2E2E2E2E2E2E2E2E2E2E2F5E2F5F5E2F5E2E2E2E2E2E2E2E2E2E2E2E2E2E2E2E2E2F5E2E2E2E2E2E2E2E2E2E2E2E2E2E2E2E2E2E2E2E2E2E2E2E2E2E2E2E2E2E2E2E2E2E2E2E2E2E2F5F5F5E2E2E2E2F5F5F5F5F5E2E2E2F5E2E2E2E2F5F5E2E2E2E2
310
E2E2F5F5F5F5E2E2E2E2E2E2E2E2E2E2E2E2E2E2E2E2E2E2F5F5F5F5F5F5F5E2E2E2E2E2E2E2E2E2E2E2E2E2E2E2E2E2E2E2E2E2E2E2E2E2E2E2E2E2E2E2E2E2E2E2E2E2E2E2E2E2E2E2F5E2E2E2E2E2E2E2E2E2E2E2E2E2E2E2E2E2F5E2F5F5E2F5E2E2E2E2E2E2E2E2E2E2E2E2E2E2E2E2E2F5E2E2E2E2E2E2E2E2E2E2E2
310
E2E2E2E2E2E2E2E2E2E2E2E2E2E2E2E2E2E2E2E2E2E2E2E2E2E2E2F5F5F5E2E2E2E2F5F5F5F5F5E2E2E2F5E2E2E2E2F5F5E2E2E2E2E2E2F5F5F5F5E2E2E2E2E2E2E2E2E2E2E2E2E2E2E2E2E2E2F5F5F5F5E2E2F5E2E2E2E2E2E2E2E2E2E2E2E2E2E2E2E2E2E2E2E2E2E2E2E2E2E2E2E2E2E2E2E2E2E2E2E2E2E2E2E2E2E2E2
310
F5E2E2E2E2E2E2E2E2E2E2E2E2E2E2E2E2E2F5E2F5F5E2F5E2E2E2E2E2E2E2E2E2E2E2E2E2E2E2E2E2F5E2E2E2E2E2E2E2E2E2E2E2E2E2E2E2E2E2E2E2E2E2E2E2E2E2E2E2E2E2E2E2E2E2E2E2E2E2E2F5F5F5E2E2E2E2F5F5F5F5F5E2E2E2F5E2E2E2E2F5F5E2E2E2E2E2E2F5F5F5F5E2F5F5F5F5F5F5F5F5F5F5F5F5F5F5
310
F5F5E2F5F5F5F5E2E2F5E2E2E2E2E2E2E2E2E2E2E2E2E2E2E2E2E2E2E2E2E2E2E2E2E2E2E2E2E2E2E2E2E2E2E2E2E2E2E2E2E2E2E2F5E2E2E2E2E2E2E2E2E2E2E2E2E2E2E2E2E2F5E2F5F5E2F5E2E2E2E2E2E2E2E2E2E2E2E2E2E2E2E2E2F5E2E2E2E2E2E2E2E2E2E2E2E2E2E2E2E2E2E2E2E2E2E2E2E2E2E2E2E2E2E2E2E2
310
E2E2E2E2E2E2F5F5F5E2E2E2E2F5F5F5F5F5E2E2E2F5E2E2E2E2F5E2E2E2E2E2E2E2F5F5F5F5E2F5E2F5F5F5F5F5F5F5F5F5F5F5F5E2F5E2F5F5F5F5E2E2F5E2E2E2E2E2E2E2E2E2E2E2E2E2E2E2E2E2E2E2E2E2E2E2E2E2E2E2E2E2E2E2E2E2E2E2E2E2E2E2E2E2E2E2F5E2E2E2E2E2E2E2E2E2E2E2E2E2E2E2E2E2F5E2F5
310
F5E2E2E2E2E2E2E2E2E2E2E2E2E2E2E2E2E2E2E2F5E2E2E2E2E2E2E2E2E2E2E2E2E2E2E2E2E2E2E2E2E2E2E2E2E2E2E2E2E2E2E2E2E2E2E2E2E2E2F5F5F5E2E2E2E2F5F5F5F5F5E2E2E2F5E2E2E2E2F5F5E2E2E2E2E2E2F5F5F5F5E2F5E2F5F5F5F5F5F5F5F5F5F5F5F5E2F5E2F5F5F5F5E2E2F5E2E2E2E2E2E2E2E2E2E2E2
310
E2E2E2E2E2E2E2E2E2E2E2E2E2E2E2E2E2E2E2E2E2E2E2E2E2E2E2E2E2E2E2E2F5E2E2E2E2E2E2E2E2E2E2E2E2E2E2E2E2E2E2E2F5F5E2E2E2E2E2E2E2E2E2E2E2E2E2E2E2E2E2E2E2F5E2E2E2E2E2E2E2E2E2E2E2E2E2E2E2E2E2E2E2E2E2E2E2E2E2E2E2E2E2E2E2E2E2E2E2E2E2E2E2E2F5E2E2E2E2F5F5F5F5F5E2E2E2
310
F5E2E2E2E2F5F5E2E2E2E2E2E2F5F5F5F5E2F5E2F5F5F5F5F5F5F5F5F5F5F5F5E2F5E2F5F5F5F5E2E2F5E2E2E2E2E2E2E2E2E2E2E2E2E2E2E2E2E2E2E2E2E2E2E2E2E2E2E2E2E2E2E2E2E2E2E2E2E2E2E2E2E2E2E2F5E2E2E2E2E2E2E2E2E2E2E2E2E2E2E2E2E2E2E2F5F5E2E2E2E2E2E2E2E2E2E2E2E2E2E2E2E2E2E2E2F5
310
E2E2E2E2E2E2E2E2E2E2E2E2E2E2E2E2E2E2E2E2E2E2E2E2E2E2E2E2E2E2E2E2E2E2E2E2E2E2E2E2F5E2E2E2E2F5F5F5F5F5E2E2E2F5E2E2E2E2F5F5E2E2E2E2E2E2F5F5F5F5E2F5E2F5F5F5F5F5F5F5F5F5F5F5F5E2F5E2F5F5F5F5E2E2F5E2E2E2E2E2E2E2E2E2E2E2E2E2E2E2E2E2E2E2E2E2E2E2E2E2E2E2E2E2E2E2E2
310
E2E2E2E2E2E2E2E2E2E2E2F5E2E2E2E2E2E2E2E2E2E2E2E2E2E2E2E2E2E2E2F5F5E2E2E2E2E2E2E2E2E2E2E2E2E2E2E2E2E2E2E2F5E2E2E2E2E2E2E2E2E2E2E2E2E2E2E2E2E2E2E2E2E2E2E2E2E2E2E2E2E2E2E2E2E2E2E2E2E2E2E2E2F5E2E2E2E2F5F5F5F5F5F5F5F5F5E2E2E2E2F5F5E2E2E2E2E2E2F5F5F5F5F5F5F5F5
310
F5F5F5F5F5F5F5F5F5F5F5F5F5F5F5E2F5F5E2E2F5E2E2E2E2E2E2E2E2E2E2E2E2E2E2E2E2E2E2E2E2E2E2E2E2E2E2E2E2E2E2E2E2E2E2E2E2E2E2E2E2E2E2E2F5E2E2E2E2E2E2E2E2E2E2E2E2E2E2E2E2E2E2E2F5F5E2E2E2E2E2E2E2E2E2E2E2E2E2E2E2E2E2E2E2F5E2E2E2E2E2E2E2E2E2E2E2E2E2E2E2E2E2E2E2E2E2
310
E2E2E2E2E2E2E2E2E2E2E2E2E2E2E2E2E2E2E2F5E2E2E2E2F5F5E2E2E2E2E2E2F5E2E2E2E2F5F5E2E2E2E2E2E2F5F5F5F5F5F5F5F5F5F5F5F5F5F5F5F5F5F5F5F5F5F5F5E2E2F5E2E2F5E2E2E2E2E2E2E2E2E2E2E2E2E2E2E2E2E2E2E2E2E2E2E2E2E2E2E2E2E2E2E2E2E2E2E2E2E2E2E2E2E2E2E2F5E2E2E2E2E2E2E2E2E2
310
E2E2E2E2E2E2E2E2E2E2F5F5E2E2E2E2E2E2E2E2E2E2E2E2E2E2E2E2E2E2E2F5E2E2E2E2E2E2E2E2E2E2E2E2E2E2E2E2E2E2E2E2E2E2E2E2E2E2E2E2E2E2E2E2E2E2E2E2E2E2E2E2F5E2E2E2E2F5F5E2E2E2E2E2E2F5E2E2E2E2F5E2E2E2E2E2E2E2F5F5F5F5F5F5F5F5F5F5F5F5F5F5F5F5F5F5F5F5F5F5F5E2E2F5E2E2F5
310
E2E2E2E2E2E2E2E2E2E2E2E2E2E2E2E2E2E2E2E2E2E2E2E2E2E2E2E2E2E2E2E2E2E2E2E2E2E2E2E2E2E2E2F5E2E2E2E2E2E2E2E2E2E2E2E2E2E2E2E2E2E2E2F5F5E2E2E2E2E2E2E2E2E2E2E2E2E2E2E2E2E2E2E2F5E2E2E2E2E2E2E2E2E2E2E2E2E2E2E2E2E2E2E2E2E2E2E2E2E2E2E2E2E2E2E2E2E2E2E2E2E2E2E2E2F5E2
310
E2E2E2F5F5E2E2E2E2E2E2F5E2E2E2E2F5F5E2E2E2E2E2E2F5F5F5F5F5F5F5F5F5F5F5F5F5F5F5F5F5F5F5F5F5F5F5E2E2F5E2E2F5E2E2E2E2E2E2E2E2E2E2E2E2E2E2E2E2E2E2E2E2E2E2E2E2E2E2E2E2E2E2E2E2E2E2E2E2E2E2E2E2E2E2E2F5E2E2E2E2E2E2E2E2E2E2E2E2E2E2E2E2E2E2E2F5F5E2E2E2E2E2E2E2E2E2
310
E2E2E2E2E2E2E2E2E2E2F5E2E2E2E2E2E2E2E2E2E2E2E2E2E2E2E2E2E2E2E2E2E2E2E2E2E2E2E2E2E2E2E2E2E2E2E2E2E2E2E2F5E2E2E2E2F5F5E2E2E2E2E2E2F5E2E2E2E2F5F5E2E2E2E2E2E2F5F5F5F5F5F5F5F5F5F5F5F5F5F5F5F5F5F5F5F5F5F5F5E2E2F5E2E2F5E2E2E2E2E2E2E2E2E2E2E2E2E2E2E2E2E2E2E2E2E2
310
E2E2E2E2E2E2E2E2E2E2E2E2E2E2E2E2E2E2E2E2E2E2F5E2E2E2E2E2E2E2E2E2E2E2E2E2E2E2E2E2E2E2F5F5E2E2E2E2E2E2E2E2E2E2E2E2E2E2E2E2E2E2E2F5E2E2E2E2E2E2E2E2E2E2E2E2E2E2E2E2E2E2E2E2E2E2E2E2E2E2E2E2E2E2E2E2E2E2E2E2E2E2E2E2F5E2E2E2E2F5F5E2E2E2E2E2E2F5E2E2E2E2F5F5E2E2E2
310
E2E2E2F5F5F5F5F5F5F5F5F5F5F5F5F5F5F5F5F5F5F5F5F5F5F5E2E2F5E2E2F5E2E2E2E2E2E2E2E2E2E2E2E2E2E2E2E2E2E2E2E2E2E2E2E2E2E2E2E2E2E2E2E2E2E2E2E2E2E2E2E2E2E2E2F5E2E2E2E2E2E2E2E2E2E2E2E2E2E2E2E2E2E2E2F5F5E2F5E2E2E2E2E2E2E2E2E2E2E2E2E2E2E2E2E2F5E2E2E2E2E2E2E2E2E2E2
310
E2E2E2E2E2E2E2E2E2E2E2E2E2E2E2E2E2E2E2E2E2E2E2E2E2E2E2E2E2E2F5E2E2E2E2F5F5E2E2E2E2E2E2F5E2E2E2E2F5F5E2E2E2E2E2E2F5F5F5F5F5F5F5F5F5F5F5F5F5F5F5F5F5F5F5F5F5F5F5E2E2F5E2E2F5E2E2E2E2E2E2E2E2E2E2E2E2E2E2E2E2E2E2E2E2E2E2E2E2E2E2E2E2E2E2E2E2E2E2E2E2E2E2E2E2E2E2
310
E2F5E2E2E2E2E2E2E2E2E2E2E2E2E2E2E2E2E2F5E2F5F5E2F5E2E2E2E2E2E2E2E2E2E2E2E2E2E2E2E2E2F5E2E2E2E2E2E2E2E2E2E2E2E2E2E2E2E2E2E2E2E2E2E2E2E2E2E2E2E2E2E2E2E2E2E2E2E2E2E2E2E2F5E2E2E2E2F5F5E2E2E2E2E2E2F5E2E2E2E2F5F5E2E2E2E2E2E2F5F5F5F5F5F5F5F5F5F5F5F5F5F5F5F5F5F5
310
F5F5F5F5F5E2E2F5E2E2F5E2E2E2E2E2E2E2E2E2E2E2E2E2E2E2E2E2E2E2E2E2E2E2E2E2E2E2E2E2E2E2E2E2E2E2E2E2E2E2E2E2E2E2F5E2E2E2E2E2E2E2E2E2E2E2E2E2E2E2E2E2F5E2F5F5E2F5E2E2E2E2E2E2E2E2E2E2E2E2E2E2E2E2E2F5E2E2E2E2E2E2E2E2E2E2E2E2E2E2E2E2E2E2E2E2E2E2E2E2E2E2E2E2E2E2E2
310
E2E2E2E2E2E2E2E2E2F5E2E2E2E2F5F5E2E2E2E2E2E2F5E2E2E2E2F5E2E2E2E2E2E2E2F5F5F5F5F5F5F5F5F5F5F5F5F5F5F5F5F5F5F5F5F5F5F5E2E2F5E2E2F5E2E2E2E2E2E2E2E2E2E2E2E2E2E2E2E2E2E2E2E2E2E2E2E2E2E2E2E2E2E2E2E2E2E2E2E2E2E2E2E2E2E2E2F5E2E2E2E2E2E2E2E2E2E2E2E2E2E2E2E2E2F5E2
310
F5F5E2F5E2E2E2E2E2E2E2E2E2E2E2E2E2E2E2E2E2F5E2E2E2E2E2E2E2E2E2E2E2E2E2E2E2E2E2E2E2E2E2E2E2E2E2E2E2E2E2E2E2E2E2E2E2E2E2E2E2E2F5E2E2E2E2F5F5E2E2E2E2E2E2F5E2E2E2E2F5F5E2E2E2E2E2E2F5F5F5F5F5F5F5F5F5F5F5F5F5F5F5F5F5F5F5F5F5F5F5E2E2F5F5E2F5E2E2E2E2E2E2E2E2E2E2
310
E2E2E2E2E2E2E2E2E2E2E2E2E2E2E2E2E2E2E2E2E2E2E2E2E2E2E2E2E2E2E2E2E2F5E2E2E2E2E2E2E2E2E2E2E2E2E2E2E2E2E2F5E2F5F5E2F5E2E2E2E2E2E2E2E2E2E2E2E2E2E2E2E2E2F5E2E2E2E2E2E2E2E2E2E2E2E2E2E2E2E2E2E2E2E2E2E2E2E2E2E2E2E2E2E2E2E2E2E2E2E2E2E2E2E2F5F5E2E2E2F5F5E2E2E2E2E2
310
E2F5E2E2E2E2F5F5E2E2E2E2E2E2F5F5F5F5F5F5F5F5F5F5F5F5F5F5F5F5F5F5F5F5F5F5F5F5F5F5F5E2F5F5E2E2E2E2E2E2E2E2E2E2E2E2E2E2E2E2E2E2E2E2E2E2E2E2E2E2E2E2E2E2E2E2E2E2E2E2E2E2E2E2E2E2F5E2E2E2E2E2E2E2E2E2E2E2E2E2E2E2E2E2F5E2F5F5E2F5E2E2E2E2E2E2E2E2E2E2E2E2E2E2E2E2E2
310
F5E2E2E2E2E2E2E2E2E2E2E2E2E2E2E2E2E2E2E2E2E2E2E2E2E2E2E2E2E2E2E2E2E2E2E2E2E2E2E2E2F5F5F5F5F5F5F5F5F5E2F5F5F5F5F5E2F5F5F5F5E2E2E2E2E2E2F5F5F5F5F5F5F5F5F5F5F5F5F5F5F5F5F5F5F5F5F5F5F5F5F5F5F5F5F5F5E2E2E2E2E2E2E2E2E2E2E2E2E2E2E2E2E2E2E2E2E2E2E2E2E2E2E2E2E2E2
310
E2E2E2E2E2E2E2E2E2E2E2E2F5E2E2E2E2E2E2E2E2E2E2E2E2E2E2E2E2E2F5E2F5F5E2F5E2E2E2E2E2E2E2E2E2E2E2E2E2E2E2E2E2F5E2E2E2E2E2E2E2E2E2E2E2E2E2E2E2E2E2E2E2E2E2E2E2E2E2E2E2E2E2E2E2E2E2E2E2E2E2E2E2E2E2E2E2E2E2F5F5E2E2E2E2E2E2F5E2E2E2E2F5E2E2E2E2E2E2E2E2E2E2E2E2E2E2
310
E2E2E2E2E2E2E2E2E2E2E2E2E2E2E2E2E2E2E2E2E2E2E2E2E2E2E2E2E2E2E2E2E2E2E2E2E2E2E2E2E2E2E2E2E2E2E2E2E2E2E2E2E2E2E2E2E2E2E2E2E2E2E2E2E2F5E2E2E2E2E2E2E2E2E2E2E2E2E2E2E2E2E2F5E2F5F5E2F5E2E2E2E2E2E2E2E2E2E2E2E2E2E2E2E2E2F5E2E2E2E2E2E2E2E2E2E2E2E2E2E2E2E2E2E2E2E2
310
E2E2E2E2E2E2E2E2E2E2E2E2E2E2E2E2E2E2E2E2E2E2E2E2E2F5F5E2E2E2E2E2E2F5E2E2E2E2F5E2E2E2E2E2E2E2E2E2E2E2E2E2E2E2E2E2E2E2E2E2E2E2E2E2E2E2E2E2E2E2E2E2E2E2E2E2E2E2E2E2E2E2E2E2E2E2E2E2E2E2E2E2E2E2E2E2E2E2E2E2E2E2E2E2E2E2E2E2E2E2E2E2E2E2E2E2E2E2F5E2E2E2E2E2E2E2E2
310
E2E2E2E2E2E2E2E2E2F5E2F5F5E2F5E2E2E2E2E2E2E2E2E2E2E2E2E2E2E2E2E2F5E2E2E2E2E2E2E2E2E2E2E2E2E2E2E2E2E2E2E2E2E2E2E2E2E2E2E2E2E2E2E2E2E2E2E2E2E2E2E2E2E2E2E2E2E2F5F5E2E2E2E2E2E2F5E2E2E2E2F5E2E2E2E2E2E2E2E2E2E2E2E2E2E2E2E2E2E2E2E2E2E2E2E2E2E2E2E2E2E2E2E2E2E2E2
310
E2E2E2E2E2E2E2E2E2E2E2E2E2E2E2E2E2E2E2E2E2E2E2E2E2E2E2E2E2E2E2E2E2E2E2E2E2E2E2E2E2E2E2E2F5E2E2E2E2E2E2E2E2E2E2E2E2E2E2E2E2E2F5E2F5F5E2F5E2E2E2E2E2E2E2E2E2E2E2E2E2E2E2E2E2F5E2E2E2E2E2E2E2E2E2E2E2E2E2E2E2E2E2E2E2E2E2E2E2E2E2E2E2E2E2E2E2E2E2E2E2E2E2E2E2E2F5
310
F5F5F5F5F5F5F5F5F5F5F5F5F5E2E2E2E2F5E2E2E2E2E2E2E2E2E2E2E2E2E2E2E2E2E2E2E2E2E2E2E2E2E2E2E2E2E2E2E2E2E2E2E2E2E2E2E2E2E2E2E2E2E2E2E2E2E2E2E2E2E2E2E2E2E2E2E2E2E2E2E2E2E2E2E2E2E2E2E2E2E2E2E2E2E2E2E2F5E2E2E2E2E2E2E2E2E2E2E2E2E2E2E2E2E2F5E2F5F5E2F5E2E2E2E2E2E2
310
E2E2E2E2E2E2E2E2E2E2E2F5E2E2E2E2E2E2E2E2E2E2E2E2E2E2E2E2E2E2E2E2E2E2E2E2E2E2E2E2E2E2E2E2E2E2E2E2E2E2E2E2F5F5E2E2F5F5F5E2F5F5F5F5F5F5E2E2E2E2F5E2E2E2E2E2E2E2E2E2E2E2E2E2E2E2E2E2E2E2E2E2E2E2E2E2E2E2E2E2E2E2E2E2E2E2E2E2E2E2E2E2E2E2E2E2E2E2E2E2E2E2E2E2E2E2E2
310
E2E2E2E2E2E2E2E2E2E2E2E2E2E2E2E2E2E2E2E2E2E2E2F5E2E2E2E2E2E2E2E2E2E2E2E2E2E2E2E2E2F5E2F5F5E2F5E2E2E2E2E2E2E2E2E2E2E2E2E2E2E2E2E2F5E2E2E2E2E2E2E2E2E2E2E2E2E2E2E2E2E2E2E2E2E2E2E2E2E2E2E2E2E2E2E2E2E2E2E2E2E2E2E2E2F5F5E2E2E2F5E2E2F5F5F5E2E2F5E2E2E2E2F5E2E2E2
310
E2E2E2E2E2E2E2E2E2E2E2E2E2E2E2E2E2E2E2E2E2E2E2E2E2E2E2E2E2E2E2E2E2E2E2E2E2E2E2E2E2E2E2E2E2E2E2E2E2E2E2E2E2E2E2E2E2E2E2E2E2E2E2E2E2E2E2E2E2E2E2E2E2E2E2E2F5E2E2E2E2E2E2E2E2E2E2E2E2E2E2E2E2E2F5E2F5F5E2F5E2E2E2E2E2E2E2E2E2E2E2E2E2E2E2E2E2F5E2E2E2E2E2E2E2E2E2
310
E2E2E2E2E2E2E2E2E2E2E2E2E2E2E2E2E2E2E2E2E2E2E2E2E2E2E2E2E2E2E2E2F5E2E2E2F5E2F5F5F5F5F5E2F5E2E2E2E2F5E2E2E2E2E2E2E2E2E2E2E2E2E2E2E2E2E2E2E2E2E2E2E2E2E2E2E2E2E2E2E2E2E2E2E2E2E2E2E2E2E2E2E2E2E2E2E2E2E2E2E2E2E2E2E2E2E2E2E2E2E2E2E2E2E2E2E2E2E2E2E2E2E2E2E2E2E2
310
E2E2F5E2E2E2E2E2E2E2E2E2E2E2E2E2E2E2E2E2F5E2F5F5E2F5E2E2E2E2E2E2E2E2E2E2E2E2E2E2E2E2E2F5E2E2E2E2E2E2E2E2E2E2E2E2E2E2E2E2E2E2E2E2E2E2E2E2E2E2E2E2E2E2E2E2E2E2E2E2E2E2E2E2E2E2E2E2E2F5F5F5F5F5F5F5F5F5E2E2E2E2F5E2E2E2E2E2E2E2E2E2E2E2E2E2E2E2E2E2E2E2E2E2E2E2E2
310
E2E2E2E2E2E2E2E2E2E2E2E2E2E2E2E2E2E2E2E2E2E2E2E2E2E2E2E2E2E2E2E2E2E2E2E2E2E2E2E2E2E2E2E2E2E2E2E2E2E2E2E2E2E2E2F5E2E2E2E2E2E2E2E2E2E2E2E2E2E2E2E2E2F5E2F5F5E2F5E2E2E2E2E2E2E2E2E2E2E2E2E2E2E2E2E2F5E2E2E2E2E2E2E2E2E2E2E2E2E2E2E2E2E2E2E2E2E2E2E2E2E2E2E2E2E2E2
310
E2E2E2E2E2E2E2E2E2E2E2E2E2E2E2F5E2E2F5F5F5E2E2E2E2E2E2E2F5E2E2E2E2E2E2E2E2E2E2E2E2E2E2E2E2E2E2E2E2E2E2E2E2E2E2E2E2E2E2E2E2E2E2E2E2E2E2E2E2E2E2E2E2E2E2E2E2E2E2E2E2E2E2E2E2E2E2E2E2E2E2E2E2E2E2E2E2E2E2E2E2E2E2E2E2E2E2E2F5E2E2E2E2E2E2E2E2E2E2E2E2E2E2E2E2E2F5
310
E2F5F5E2F5E2E2E2E2E2E2E2E2E2E2E2E2E2E2E2E2E2F5E2E2E2E2E2E2E2E2E2E2E2E2E2E2E2E2E2E2E2E2E2E2E2E2E2E2E2E2E2E2E2E2E2E2E2E2E2E2E2E2E2E2E2E2E2F5E2E2F5F5F5E2E2E2E2E2E2E2F5E2E2E2E2E2E2E2E2E2E2E2E2E2E2E2E2E2E2E2E2E2E2E2E2E2E2E2E2E2E2E2E2E2E2E2E2E2E2E2E2E2E2E2E2E2
310
E2E2E2E2E2E2E2E2E2E2E2E2E2E2E2E2E2E2E2E2E2E2E2E2E2E2E2E2E2E2E2E2E2E2F5E2E2E2E2E2E2E2E2E2E2E2E2E2E2E2E2E2F5E2F5F5E2E2E2E2E2E2E2E2E2E2E2E2E2E2E2E2E2E2E2F5E2E2E2E2E2E2E2E2E2E2E2E2E2E2E2E2E2E2E2E2E2E2E2E2E2E2E2E2E2E2E2E2E2E2E2E2E2E2E2E2E2E2E2E2E2F5F5F5F5F5F5
310
F5F5F5F5F5F5F5F5E2E2E2E2E2E2E2E2E2E2E2E2E2E2E2E2E2E2E2E2E2E2E2E2E2E2E2E2E2E2E2E2E2E2E2E2E2E2E2E2E2E2E2E2E2E2E2E2E2E2E2E2E2E2E2E2E2E2E2E2E2E2E2E2E2E2E2E2E2E2E2E2E2E2E2E2E2E2E2F5E2E2E2E2E2E2E2E2E2E2E2E2E2E2E2E2E2E2E2F5F5E2E2E2E2E2E2E2E2E2E2E2E2E2E2E2E2E2E2
310
E2F5E2E2E2E2E2E2E2E2E2E2E2E2E2E2E2E2E2E2E2E2E2E2E2E2E2E2E2E2E2E2E2E2E2E2E2E2E2E2E2E2E2E2E2E2E2F5E2E2E2E2F5E2F5E2E2E2E2E2F5E2E2E2E2E2E2E2E2E2E2E2E2E2E2E2E2E2E2E2E2E2E2E2E2E2E2E2E2E2E2E2E2E2E2E2E2E2E2E2E2E2E2E2E2E2E2E2E2E2E2E2E2E2E2E2E2E2E2E2E2E2E2E2E2E2E2
310
E2E2E2E2E2E2E2E2E2E2E2E2E2F5E2E2E2E2E2E2E2E2E2E2E2E2E2E2E2E2E2E2E2F5F5E2E2E2E2E2E2E2E2E2E2E2E2E2E2E2E2E2E2E2F5E2E2E2E2E2E2E2E2E2E2E2E2E2E2E2E2E2E2E2E2E2E2E2E2E2E2E2E2E2E2E2E2E2E2E2E2E2E2E2E2E2E2E2E2E2F5E2E2E2E2F5F5F5F5E2E2E2E2F5E2E2E2E2E2E2E2E2E2E2E2E2E2
310
E2E2E2E2E2E2E2E2E2E2E2E2E2E2E2E2E2E2E2E2E2E2E2E2E2E2E2E2E2E2E2E2E2E2E2E2E2E2E2E2E2E2E2E2E2E2E2E2E2E2E2E2E2E2E2E2E2E2E2E2E2E2E2E2E2E2F5E2E2E2E2E2E2E2E2E2E2E2E2E2E2E2E2E2E2E2F5F5E2E2E2E2E2E2E2E2E2E2E2E2E2E2E2E2E2E2E2F5E2E2E2E2E2E2E2E2E2E2E2E2E2E2E2E2E2E2E2
310
E2E2E2E2E2E2E2E2E2E2E2E2E2E2E2E2E2E2E2E2E2E2E2E2E2E2E2E2E2E2E2E2E2E2E2E2E2E2E2E2E2E2E2E2E2E2E2E2E2E2E2E2E2E2E2E2E2E2E2E2E2E2E2E2E2E2E2E2E2E2E2E2E2E2E2E2E2E2E2E2E2E2E2E2E2E2E2E2E2E2E2E2E2E2E2E2E2E2E2E2E2E2E2E2E2E2E2E2E2E2E2E2E2E2E2E2E2E2E2F5E2E2E2E2E2E2E2
310
E2E2E2E2E2E2E2E2E2E2E2E2F5F5E2E2E2E2E2E2E2E2E2E2E2E2E2E2E2E2E2E2E2F5E2E2E2E2E2E2E2E2E2E2E2E2E2E2E2E2E2E2E2E2E2E2E2E2E2E2E2E2E2E2E2E2E2E2E2E2E2E2E2E2E2E2E2E2E2E2E2E2E2E2E2E2E2E2E2E2E2E2E2E2E2E2E2E2E2E2E2E2E2E2E2E2E2E2E2E2E2E2E2E2E2E2E2E2E2E2E2E2E2E2E2E2E2
310
E2E2E2E2E2E2E2E2E2E2E2E2E2E2E2E2E2E2E2E2E2E2E2E2E2E2E2E2E2E2E2E2E2E2E2E2E2E2E2E2E2E2E2E2E2F5E2E2E2E2E2E2E2E2E2E2E2E2E2E2E2E2E2E2E2F5F5E2E2E2E2E2E2E2E2E2E2E2E2E2E2E2E2E2E2E2F5E2E2E2E2E2E2E2E2E2E2E2E2E2E2E2E2E2E2E2E2E2E2E2E2E2E2E2E2E2E2E2E2E2E2E2E2E2E2E2E2
310
E2E2E2E2E2E2E2E2E2E2E2E2E2E2E2E2E2E2E2E2E2E2E2E2E2E2E2E2E2E2E2E2E2E2E2E2E2E2E2E2E2E2E2E2E2E2E2E2E2E2E2E2E2E2E2E2E2E2E2E2E2E2E2E2E2E2E2E2E2E2E2E2E2E2E2E2E2E2E2E2E2E2E2E2E2E2E2E2E2E2E2E2E2E2E2E2E2E2F5E2E2E2E2E2E2E2E2E2E2E2E2E2E2E2E2E2E2E2F5F5E2E2E2E2E2E2E2
310
E2E2E2E2E2E2E2E2E2E2E2E2F5E2E2E2E2E2E2E2E2E2E2E2E2E2E2E2E2E2E2E2E2E2E2E2E2E2E2E2E2E2E2E2E2E2E2E2E2E2E2E2E2E2E2E2E2E2E2E2E2E2E2E2E2E2E2E2E2E2E2E2E2E2E2E2E2E2E2E2E2E2E2E2E2E2E2E2E2E2E2E2E2E2E2E2E2E2E2E2E2E2E2E2E2E2E2E2E2E2E2E2E2E2E2E2E2E2E2E2E2E2E2E2E2E2E2
310
E2E2E2E2E2E2E2E2E2E2E2E2E2E2E2E2E2E2E2E2E2E2E2E2F5E2E2E2E2E2E2E2E2E2E2E2E2E2E2E2E2E2E2E2F5F5E2E2E2E2E2E2E2E2E2E2E2E2E2E2E2E2E2E2E2F5E2E2E2E2E2E2E2E2E2E2E2E2E2E2E2E2E2E2E2E2E2E2E2E2E2E2E2E2E2E2E2E2E2E2E2E2E2E2E2E2E2E2E2E2E2E2E2E2E2E2E2E2E2E2E2E2E2E2E2E2E2
310
E2E2E2E2E2E2E2E2E2E2E2E2E2E2E2E2E2E2E2E2E2E2E2E2E2E2E2E2E2E2E2E2E2E2E2E2E2E2E2E2E2E2E2E2E2E2E2E2E2E2E2E2E2E2E2E2E2E2E2E2E2E2E2E2E2E2E2E2E2E2E2E2E2E2E2E2E2F5E2E2E2E2E2E2E2E2E2E2E2E2E2E2E2E2E2E2E2F5F5E2F5E2E2E2E2E2E2E2E2E2E2E2E2E2E2E2E2E2F5E2E2E2E2E2E2E2E2
310
E2E2E2E2E2E2E2E2E2E2E2E2E2E2E2E2E2E2E2E2E2E2E2E2E2E2E2E2E2E2E2E2E2E2E2E2E2E2E2E2E2E2E2E2E2E2E2E2E2E2E2E2E2E2E2E2E2E2E2E2E2E2E2E2E2E2E2E2E2E2E2E2E2E2E2E2E2E2E2E2E2E2E2E2E2E2E2E2E2E2E2E2E2E2E2E2E2E2E2E2E2E2E2E2E2E2E2E2E2E2E2E2E2E2E2E2E2E2E2E2E2E2E2E2E2E2E2
310
E2E2E2F5E2E2E2E2E2E2E2E2E2E2E2E2E2E2E2E2E2F5E2F5F5E2F5E2E2E2E2E2E2E2E2E2E2E2E2E2E2E2E2E2F5E2E2E2E2E2E2E2E2E2E2E2E2E2E2E2E2E2E2E2E2E2E2E2E2E2E2E2E2E2E2E2E2E2E2E2E2E2E2E2E2E2E2E2E2E2E2E2E2E2E2E2E2E2E2E2E2E2E2E2E2E2E2E2E2E2E2E2E2E2E2E2E2E2E2E2E2E2E2E2E2E2E2
310
E2E2E2E2E2E2E2E2E2E2E2E2E2E2E2E2E2E2E2E2E2E2E2E2E2E2E2E2E2E2E2E2E2E2E2E2E2E2E2E2E2E2E2E2E2E2E2E2E2E2E2E2E2E2E2E2F5E2E2E2E2E2E2E2E2E2E2E2E2E2E2E2E2E2F5E2F5F5E2F5E2E2E2E2E2E2E2E2E2E2E2E2E2E2E2E2E2F5E2E2E2E2E2E2E2E2E2E2E2E2E2E2E2E2E2E2E2E2E2E2E2E2E2E2E2E2E2
310
E2E2E2E2E2E2E2E2E2E2E2E2E2E2E2E2E2E2E2E2E2E2E2E2E2E2E2E2E2E2E2E2E2E2E2E2E2E2E2E2E2E2E2E2E2E2E2E2E2E2E2E2E2E2E2E2E2E2E2E2E2E2E2E2E2E2E2E2E2E2E2E2E2E2E2E2E2E2E2E2E2E2E2E2E2E2E2E2E2E2E2E2E2E2E2E2E2E2E2E2E2E2E2E2E2E2E2E2E2F5E2E2E2E2E2E2E2E2E2E2E2E2E2E2E2E2E2
310
F5E2F5F5E2F5E2E2E2E2E2E2E2E2E2E2E2E2E2E2E2E2E2F5E2E2E2E2E2E2E2E2E2E2E2E2E2E2E2E2E2E2E2E2E2E2E2E2E2E2E2E2E2E2E2E2E2E2E2E2E2E2E2E2E2E2E2E2E2E2E2E2E2E2E2E2E2E2E2E2E2E2E2E2E2E2E2E2E2E2E2E2E2E2E2E2E2E2E2E2E2E2E2E2E2E2E2E2E2E2E2E2E2E2E2E2E2E2E2E2E2E2E2E2E2E2E2
310
E2E2E2E2E2E2E2E2E2E2E2E2E2E2E2E2E2E2E2E2E2E2E2E2E2E2E2E2E2E2E2E2E2E2E2F5E2E2E2E2E2E2E2E2E2E2E2E2E2E2E2E2E2F5E2F5F5E2F5E2E2E2E2E2E2E2E2E2E2E2E2E2E2E2E2E2F5E2E2E2E2E2E2E2E2E2E2E2E2E2E2E2E2E2E2E2E2E2E2E2E2E2E2E2E2E2E2E2E2F5F5F5F5F5F5F5F5F5F5F5F5F5F5F5F5F5F5
310
F5F5F5F5F5F5F5F5F5F5F5F5F5F5F5F5F5F5F5F5F5F5F5F5F5F5F5F5F5F5F5F5F5F5F5F5F5F5F5E2E2E2E2E2E2E2E2E2E2E2E2E2E2E2E2E2E2E2E2E2E2E2E2E2E2E2E2E2E2E2E2E2E2E2E2E2E2E2E2E2E2E2E2E2E2E2E2E2F5E2E2E2E2E2E2E2E2E2E2E2E2E2E2E2E2E2F5E2F5F5E2F5E2E2E2E2E2E2E2E2E2E2E2E2E2E2E2
310
E2E2F5E2E2E2E2E2E2E2E2E2E2E2E2E2E2E2E2E2E2E2E2E2E2E2E2E2E2E2E2E2E2E2E2F5F5F5F5F5F5F5F5F5F5F5F5F5F5F5F5F5F5F5F5F5F5F5F5F5F5F5F5F5F5F5F5F5F5F5F5F5F5F5F5F5F5F5F5F5F5F5F5F5F5F5F5F5F5F5F5F5E2E2E2E2E2E2E2E2E2E2E2E2E2E2E2E2E2E2E2E2E2E2E2E2E2E2E2E2E2E2E2E2E2E2E2
310
E2E2E2E2E2E2E2E2E2E2E2E2E2E2F5E2E2E2E2E2E2E2E2E2E2E2E2E2E2E2E2E2F5E2F5F5E2F5E2E2E2E2E2E2E2E2E2E2E2E2E2E2E2E2E2F5E2E2E2E2E2E2E2E2E2E2E2E2E2E2E2E2E2E2E2E2E2E2E2E2E2E2E2E2E2E2E2E2F5F5F5F5F5F5F5F5F5F5F5F5F5F5F5F5F5F5F5F5F5F5F5F5F5F5F5F5F5F5F5F5F5F5F5F5F5F5F5
310
F5F5F5F5F5F5F5F5F5F5F5F5F5F5F5F5F5F5E2E2E2E2E2E2E2E2E2E2E2E2E2E2E2E2E2E2E2E2E2E2E2E2E2E2E2E2E2E2E2E2E2E2E2E2E2E2E2E2E2E2E2E2E2E2E2E2E2F5E2E2E2E2E2E2E2E2E2E2E2E2E2E2E2E2E2F5E2F5F5E2F5E2E2E2E2E2E2E2E2E2E2E2E2E2E2E2E2E2F5E2E2E2E2E2E2E2E2E2E2E2E2E2E2E2E2E2E2
310
E2E2E2E2E2E2E2E2E2E2E2E2E2E2F5F5F5F5F5F5F5F5F5F5F5F5F5F5F5F5F5F5F5F5F5F5F5F5F5F5F5F5F5F5F5F5F5F5F5F5F5F5F5F5F5F5F5F5F5F5F5F5F5F5F5F5F5F5F5F5F5E2E2E2E2E2E2E2E2E2E2E2E2E2E2E2E2E2E2E2E2E2E2E2E2E2E2E2E2E2E2E2E2E2E2E2E2E2E2E2E2E2E2E2E2E2E2E2E2E2F5E2E2E2E2E2E2
310
E2E2E2E2E2E2E2E2E2E2E2F5E2F5F5E2F5E2E2E2E2E2E2E2E2E2E2E2E2E2E2E2E2E2F5E2E2E2E2E2E2E2E2E2E2E2E2E2E2E2E2E2E2E2E2E2E2E2E2E2E2E2E2E2E2E2E2E2E2E2E2E2E2E2E2E2E2E2E2E2E2E2E2E2E2E2E2E2E2E2E2E2E2E2E2E2E2E2E2E2E2E2E2E2E2E2E2E2E2E2E2E2E2E2E2E2E2E2E2E2E2E2E2E2E2E2E2
310
E2E2E2E2E2E2E2E2E2E2E2E2E2E2E2E2E2E2E2E2E2E2E2E2E2E2E2E2E2E2E2E2E2E2E2E2E2E2E2E2E2E2E2E2E2E2F5E2E2E2E2E2E2E2E2E2E2E2E2E2E2E2E2E2F5E2F5F5E2F5E2E2E2E2E2E2E2E2E2E2E2E2E2E2E2E2E2F5E2E2E2E2E2E2E2E2E2E2E2E2E2E2E2E2E2E2E2E2E2E2E2E2E2E2E2E2E2E2E2E2E2E2E2E2E2E2E2
310
E2E2E2E2E2E2E2E2E2E2E2E2E2E2E2E2E2E2E2E2E2E2E2E2E2E2E2E2E2E2E2E2E2E2E2E2E2E2E2E2E2E2E2E2E2E2E2E2E2E2E2E2E2E2E2E2E2E2E2E2E2E2E2E2E2E2E2E2E2E2E2E2E2E2E2E2E2E2E2E2E2E2E2E2E2E2E2E2E2E2E2E2E2E2E2E2E2E2E2F5E2E2E2E2E2E2E2E2E2E2E2E2E2E2E2E2E2F5E2F5F5E2F5E2E2E2E2
310
E2E2E2E2E2E2E2E2E2E2E2E2E2F5E2E2E2E2E2E2E2E2E2E2E2E2E2E2E2E2E2E2E2E2E2E2E2E2E2E2E2E2E2E2E2E2F5F5F5F5F5F5F5F5F5F5F5F5F5F5F5F5F5F5F5F5F5F5F5F5F5F5F5F5F5F5F5F5F5F5F5F5F5F5F5F5F5F5F5F5F5F5F5F5F5F5F5E2E2E2E2E2E2E2E2E2E2E2E2E2E2E2E2E2E2E2E2E2E2E2E2E2E2E2E2E2E2
310
E2E2E2E2E2E2E2E2E2E2E2E2E2E2E2E2E2E2E2E2E2E2E2E2E2F5E2E2E2E2E2E2E2E2E2E2E2E2E2E2E2E2E2F5E2F5F5E2F5E2E2E2E2E2E2E2E2E2E2E2E2E2E2E2E2E2F5E2E2E2E2E2E2E2E2E2E2E2E2E2E2E2E2E2E2E2E2E2E2E2E2E2E2E2E2E2E2E2E2F5F5F5F5F5F5F5F5F5F5F5F5F5F5F5F5F5F5F5F5F5F5F5F5F5F5F5F5
310
F5F5F5F5F5F5F5F5F5F5F5F5F5F5F5F5F5F5F5F5F5F5F5E2E2E2E2E2E2E2E2E2E2E2E2E2E2E2E2E2E2E2E2E2E2E2E2E2E2E2E2E2E2E2E2E2E2E2E2E2E2E2E2E2E2E2E2E2E2E2E2E2E2E2E2E2E2E2F5E2E2E2E2E2E2E2E2E2E2E2E2E2E2E2E2E2F5E2F5F5E2F5E2E2E2E2E2E2E2E2E2E2E2E2E2E2E2E2E2F5E2E2E2E2E2E2E2
310
E2E2E2E2E2E2E2E2E2E2E2E2E2E2E2E2E2E2E2E2E2E2E2E2E2F5F5F5F5F5F5F5F5F5F5F5F5F5F5F5F5F5F5F5F5F5F5F5F5F5F5F5F5F5F5F5F5F5F5F5F5F5F5F5F5F5F5F5F5F5F5F5F5F5F5F5E2E2E2E2E2E2E2E2E2E2E2E2E2E2E2E2E2E2E2E2E2E2E2E2E2E2E2E2E2E2E2E2E2E2E2E2E2E2E2E2E2E2E2E2E2E2E2E2E2E2E2
310
E2E2E2E2F5E2E2E2E2E2E2E2E2E2E2E2E2E2E2E2E2E2F5E2F5F5E2F5E2E2E2E2E2E2E2E2E2E2E2E2E2E2E2E2E2F5E2E2E2E2E2E2E2E2E2E2E2E2E2E2E2E2E2E2E2E2E2E2E2E2E2E2E2E2E2E2E2E2F5F5F5F5F5F5F5F5F5F5F5F5F5F5F5F5F5F5F5F5F5F5F5F5F5F5F5F5F5F5F5F5F5F5F5F5F5F5F5F5F5F5F5F5F5F5F5F5F5
310
F5F5E2E2E2E2E2E2E2E2E2E2E2E2E2E2E2E2E2E2E2E2E2E2E2E2E2E2E2E2E2E2E2E2E2E2E2E2E2E2E2E2E2E2E2E2E2E2E2E2E2E2E2E2E2E2E2F5E2E2E2E2E2E2E2E2E2E2E2E2E2E2E2E2E2F5E2F5F5E2F5E2E2E2E2E2E2E2E2E2E2E2E2E2E2E2E2E2F5E2E2E2E2E2E2E2E2E2E2E2E2E2E2E2E2E2E2E2E2E2E2E2E2E2E2E2E2
310
E2E2E2E2E2E2E2E2E2E2E2E2E2E2E2E2E2E2E2E2E2E2E2E2E2E2E2E2E2E2E2E2E2E2E2E2E2E2E2E2E2E2E2E2E2E2E2E2E2E2E2E2E2E2E2E2E2E2E2E2E2E2E2E2E2E2E2E2E2E2E2E2E2E2E2E2E2E2E2E2E2E2E2E2E2E2E2E2E2E2E2E2E2E2E2E2E2E2E2E2E2E2E2E2E2E2E2E2E2E2F5E2E2E2E2E2E2E2E2E2E2E2E2E2E2E2E2
310
E2F5E2F5F5E2F5E2E2E2E2E2E2E2E2E2E2E2E2E2E2E2E2E2F5E2E2E2E2E2E2E2E2E2E2E2E2E2E2E2E2E2E2E2E2E2E2E2E2E2E2E2E2E2E2E2E2E2E2E2E2E2E2E2E2E2E2E2E2E2E2E2E2E2E2E2E2E2E2E2E2E2E2E2E2E2E2E2E2E2E2E2E2E2E2E2E2E2E2E2E2E2E2E2E2E2E2E2E2E2E2E2E2E2E2E2E2E2E2E2E2E2E2E2E2E2E2
310
E2E2E2E2E2E2E2E2E2E2E2E2E2E2E2E2E2E2E2E2E2E2E2E2E2E2E2E2E2E2E2E2E2E2E2E2F5E2E2E2E2E2E2E2E2E2E2E2E2E2E2E2E2E2F5E2F5F5E2E2E2E2E2E2E2E2E2E2E2E2E2E2E2E2E2E2E2F5E2E2E2E2E2E2E2E2E2E2E2E2E2E2E2E2E2E2E2E2E2E2E2E2E2E2E2E2E2E2E2E2E2E2E2E2E2E2E2E2E2E2E2E2E2E2E2E2E2
310
E2E2E2E2E2E2E2E2E2E2E2E2E2E2E2E2E2E2E2E2E2E2E2E2E2E2E2E2E2E2E2E2E2E2E2E2E2E2E2E2E2E2E2E2E2E2E2E2E2E2E2E2E2E2E2E2E2E2E2E2E2E2E2E2E2E2E2E2E2E2E2E2E2E2E2E2E2E2E2E2E2E2E2E2E2E2E2E2E2F5E2E2E2E2E2E2E2E2E2E2E2E2E2E2E2E2E2E2E2F5F5E2E2E2E2E2E2E2E2E2E2E2E2E2E2E2E2
310
E2E2E2F5E2E2E2E2E2E2E2E2E2E2E2E2E2E2E2E2E2E2E2E2E2E2E2E2E2E2E2E2E2E2E2E2E2E2E2E2E2E2E2E2E2E2E2E2E2E2E2E2E2E2E2E2E2E2E2E2E2E2E2E2E2E2E2E2E2E2E2E2E2E2E2E2E2E2E2E2E2E2E2E2E2E2E2E2E2E2E2E2E2E2E2E2E2E2E2E2E2E2E2E2E2E2E2E2E2E2E2E2E2E2E2E2E2E2E2E2E2E2E2E2E2E2E2
310
E2E2E2E2E2E2E2E2E2E2E2E2E2E2E2F5E2E2E2E2E2E2E2E2E2E2E2E2E2E2E2E2E2E2E2F5F5E2E2E2E2E2E2E2E2E2E2E2E2E2E2E2E2E2E2E2F5E2E2E2E2E2E2E2E2E2E2E2E2E2E2E2E2E2E2E2E2E2E2E2E2E2E2E2E2E2E2E2E2E2E2E2E2E2E2E2E2E2E2E2E2E2E2E2E2E2E2E2E2E2E2E2E2E2E2E2E2E2E2E2E2E2E2E2E2E2E2
310
E2E2E2E2E2E2E2E2E2E2E2E2E2E2E2E2E2E2E2E2E2E2E2E2E2E2E2E2E2E2E2E2E2E2E2E2E2E2E2E2E2E2E2E2E2E2E2E2E2E2E2E2E2E2E2E2E2E2E2E2E2E2E2E2E2E2E2E2F5E2E2E2E2E2E2E2E2E2E2E2E2E2E2E2E2E2E2E2F5F5E2E2E2E2E2E2E2E2E2E2E2E2E2E2E2E2E2E2E2F5E2E2E2E2E2E2E2E2E2E2E2E2E2E2E2E2E2
310
E2E2E2E2E2E2E2E2E2E2E2E2E2E2E2E2E2E2E2E2E2E2E2E2E2E2E2E2E2E2E2E2E2E2E2E2E2E2E2E2E2E2E2E2E2E2E2E2E2E2E2E2E2E2E2E2E2E2E2E2E2E2E2E2E2E2E2E2E2E2E2E2E2E2E2E2E2E2E2E2E2E2E2E2E2E2E2E2E2E2E2E2E2E2E2E2E2E2E2E2E2E2E2E2E2E2E2E2E2E2E2E2E2E2E2E2E2E2E2E2E2F5E2E2E2E2E2
310
E2E2E2E2E2E2E2E2E2E2E2E2E2E2F5F5E2E2E2E2E2E2E2E2E2E2E2E2E2E2E2E2E2E2E2F5F5F5F5F5F5F5F5F5F5F5F5F5F5F5F5F5F5F5F5F5F5F5F5F5F5F5F5F5F5F5F5F5F5F5F5F5F5F5F5F5F5F5F5F5F5F5F5F5F5F5F5F5F5F5F5F5F5F5F5F5F5F5F5F5F5F5F5F5F5F5F5F5F5F5F5F5F5F5F5F5F5F5F5F5F5F5F5F5F5F5F5
310
F5F5F5F5F5F5F5F5F5F5F5F5F5F5F5F5F5F5F5F5F5F5F5F5F5F5F5F5F5F5F5F5F5F5F5F5F5F5F5F5F5F5F5F5F5F5F5F5E2E2E2E2E2E2E2E2E2E2E2E2E2E2E2E2E2E2E2F5F5E2E2E2E2E2E2E2E2E2E2E2E2E2E2E2E2E2E2E2E2E2E2E2E2E2E2E2E2E2E2E2E2E2E2E2E2E2E2E2E2E2E2E2E2E2E2E2E2E2E2E2E2E2E2E2E2E2E2
310
E2E2E2E2E2E2E2E2E2E2E2E2E2E2E2E2E2E2E2E2E2E2E2E2E2E2E2E2E2E2E2E2E2E2E2E2E2E2E2E2E2E2E2E2E2E2E2E2E2E2E2E2E2E2E2E2E2E2E2E2E2E2E2E2E2E2E2E2E2E2E2E2E2E2E2E2E2E2E2E2E2E2E2E2E2E2E2E2E2E2E2E2E2E2E2E2E2E2E2E2E2E2E2E2E2E2E2E2E2E2E2E2E2E2E2E2E2E2E2E2F5F5E2E2E2E2E2
310
E2E2E2E2E2E2E2E2E2E2E2E2E2E2E2E2E2E2E2E2E2E2E2E2E2E2E2E2E2E2E2E2E2E2E2E2E2E2E2E2E2E2E2E2E2E2E2E2E2E2E2E2E2E2E2E2E2E2E2E2E2E2E2E2E2E2E2E2E2E2E2E2E2E2E2E2E2E2E2E2E2E2E2E2E2E2E2E2E2E2E2E2E2E2E2E2E2E2E2E2E2E2E2E2E2E2E2E2E2E2E2E2E2E2E2E2E2E2E2E2E2E2E2E2E2E2E2
310
E2E2E2E2E2E2E2E2E2E2E2E2E2E2E2E2E2E2E2E2E2E2E2E2E2E2E2E2E2E2E2E2E2E2E2E2E2E2E2E2E2E2E2E2E2E2F5F5E2E2E2E2E2E2E2E2E2E2E2E2E2E2E2E2E2E2E2E2E2E2E2E2E2E2E2E2E2E2E2E2E2E2E2E2E2E2E2E2E2E2E2E2E2E2E2E2E2E2E2E2E2E2E2E2E2E2E2E2E2E2E2E2E2E2E2E2E2E2E2E2E2E2E2E2E2E2E2
310
E2E2E2E2E2E2E2E2E2E2E2E2E2E2E2E2E2E2E2E2E2E2E2E2E2E2E2E2E2E2E2E2E2E2E2E2E2E2E2E2E2E2E2E2E2E2E2E2E2E2E2E2E2E2E2E2E2E2E2E2E2E2E2E2E2E2E2E2E2E2E2E2E2E2E2E2E2E2E2E2E2E2E2E2E2E2E2E2E2E2E2E2E2E2E2E2E2E2E2F5F5E2E2E2E2E2E2E2E2E2E2E2E2E2E2E2E2E2E2E2E2E2E2E2E2E2E2
310
E2E2E2E2E2E2E2E2E2E2E2E2E2E2E2E2E2E2E2E2E2E2E2E2E2E2E2E2E2E2E2E2E2E2E2E2E2E2E2E2E2E2E2E2E2E2E2E2E2E2E2E2E2E2E2E2E2E2E2E2E2E2E2E2E2E2E2E2E2E2E2E2E2E2E2E2E2E2E2E2E2E2E2E2E2E2E2E2E2E2E2E2E2E2E2E2E2E2E2E2E2E2E2E2E2E2E2E2E2E2E2E2E2E2E2E2E2E2E2E2E2E2E2E2E2E2E2
310
E2E2E2E2E2E2E2E2E2E2E2E2E2E2E2E2E2E2E2E2E2E2E2E2E2F5F5E2F5E2E2E2E2E2E2E2E2E2E2E2E2E2E2E2E2E2E2E2E2E2E2E2E2E2E2E2E2E2E2E2E2E2E2E2E2E2E2E2E2E2E2E2E2E2E2E2E2E2E2E2E2E2E2E2E2E2E2E2E2E2E2E2E2E2E2E2E2E2E2E2E2E2E2E2E2E2E2E2E2E2E2E2E2E2E2E2E2E2E2E2E2E2E2E2E2E2E2
310
E2E2E2E2E2E2E2E2E2E2E2E2E2E2E2E2E2E2E2E2E2E2E2E2E2E2E2E2E2E2E2E2E2E2E2E2E2E2E2E2E2E2E2E2E2E2E2E2E2E2E2E2E2E2E2E2E2E2E2E2E2E2E2E2E2E2E2E2E2E2E2E2E2E2E2E2F5E2F5F5E2F5E2E2E2E2E2E2E2E2E2E2E2E2E2E2E2E2E2E2E2E2E2E2E2E2E2E2E2E2E2E2E2E2E2E2E2E2E2E2E2E2E2E2E2E2E2
310
E2E2E2E2E2E2E2E2E2E2E2E2E2E2E2E2E2E2E2E2E2E2E2E2E2E2E2E2E2E2E2E2E2E2E2E2E2E2E2E2E2E2E2E2E2E2E2E2E2E2E2E2E2E2E2E2E2E2E2E2E2E2E2E2E2E2E2E2E2E2E2E2E2E2E2E2E2E2E2E2E2E2E2E2E2E2E2E2E2E2E2E2E2E2E2E2E2E2E2E2E2E2E2E2E2E2E2E2E2E2E2E2E2E2E2E2E2E2E2E2E2E2E2E2E2E2E2
310
E2E2F5E2F5F5E2F5E2E2E2E2E2E2E2E2E2E2E2E2E2E2E2E2E2E2E2E2E2E2E2E2E2E2E2E2E2E2E2E2E2E2E2E2E2E2E2E2E2E2E2E2E2E2E2E2E2E2E2E2E2E2E2E2E2E2E2E2E2E2E2E2E2E2E2E2E2E2E2E2E2E2E2E2E2E2E2E2E2E2E2E2E2E2E2E2E2E2E2E2E2E2E2E2E2E2E2E2E2E2E2E2E2E2E2E2E2E2E2E2E2E2E2E2E2E2E2
310
E2E2E2E2E2E2E2E2E2E2E2E2E2E2E2E2E2E2E2E2E2E2E2E2E2E2E2E2E2E2E2E2E2E2E2E2E2E2E2E2E2E2E2E2E2E2E2E2E2E2E2E2E2E2E2F5E2F5F5E2F5E2E2E2E2E2E2E2E2E2E2E2E2E2E2E2E2E2E2E2E2E2E2E2E2E2E2E2E2E2E2E2E2E2E2E2E2E2E2E2E2E2E2E2E2E2E2E2E2E2E2E2E2E2E2E2E2E2E2E2E2E2E2E2E2E2E2
310
E2E2E2E2E2E2E2E2E2E2E2E2E2E2E2E2E2E2E2E2E2E2E2E2E2E2E2E2E2E2E2E2E2E2E2E2E2E2E2E2E2E2E2E2E2E2E2E2E2E2E2E2E2E2E2E2E2E2E2E2E2E2E2E2E2E2E2E2E2E2E2E2E2E2E2E2E2E2E2E2E2E2E2E2E2E2E2E2E2E2E2E2E2E2E2E2E2E2E2E2E2E2E2E2E2E2E2E2F5E2F5F5E2F5E2E2E2E2E2E2E2E2E2E2E2E2E2
310
E2E2E2E2E2E2E2E2E2E2E2E2E2E2E2E2E2E2E2E2E2E2E2E2E2E2E2E2E2E2E2E2E2E2E2E2E2E2E2E2E2E2E2E2E2E2E2E2E2E2E2E2E2E2E2E2E2E2E2E2E2E2E2E2E2E2E2E2E2E2E2E2E2E2E2E2E2E2E2E2E2E2E2E2E2E2E2E2E2E2E2E2E2E2E2E2E2E2E2E2E2E2E2E2E2E2E2E2E2E2E2E2E2E2E2E2E2E2E2E2E2E2E2E2E2E2E2
310
E2E2E2E2E2E2E2E2E2E2E2E2E2E2E2E2E2E2E2E2E2E2E2E2E2E2E2E2E2E2E2E2E2E2F5E2F5F5E2F5E2E2E2E2E2E2E2E2E2E2E2E2E2E2E2E2E2E2E2E2E2E2E2E2E2E2E2E2E2E2E2E2E2E2E2E2E2E2E2E2E2E2E2E2E2E2E2E2E2E2E2E2E2E2E2E2E2E2E2E2E2E2E2E2E2E2E2E2E2E2E2E2E2E2E2E2E2E2E2E2E2E2E2E2E2E2E2
310
E2E2E2E2E2E2E2E2E2E2E2E2E2E2E2E2E2E2E2E2E2E2E2E2E2E2E2E2E2E2E2E2E2E2E2E2E2E2E2E2E2E2E2E2E2E2E2E2E2E2E2E2E2E2E2E2E2E2E2E2E2E2E2E2E2E2E2E2E2E2E2E2E2E2E2E2E2E2E2E2E2E2E2E2E2E2E2F5E2F5F5E2F5E2E2E2E2E2E2E2E2E2E2E2E2E2E2E2E2E2E2E2E2E2E2E2E2E2E2E2E2E2E2E2E2E2E2
310
E2E2E2E2E2E2E2E2E2E2E2E2E2E2E2E2E2E2E2E2E2E2E2E2E2E2E2E2E2E2E2E2E2E2E2E2E2E2E2E2E2E2E2E2E2E2E2E2E2E2E2E2E2E2E2E2E2E2E2E2E2E2E2E2E2E2E2E2E2E2E2E2E2E2E2E2E2E2E2E2E2E2E2E2E2E2E2E2E2E2E2E2E2E2E2E2E2E2E2E2E2E2E2E2E2E2E2E2E2E2E2E2E2E2E2E2E2E2E2E2E2E2E2E2E2E2E2
310
E2E2E2E2E2E2E2E2E2E2E2E2E2F5E2F5F5E2F5F5F5F5F5F5F5F5F5E2E2E2E2E2E2E2E2E2F5F5F5F5F5F5F5F5F5F5F5F5F5F5F5F5E2E2E2E2E2E2E2E2E2F5F5F5F5F5F5F5F5F5F5F5F5F5F5F5F5E2E2E2E2E2E2E2E2E2F5F5F5F5F5F5F5F5F5F5F5F5F5F5F5F5E2E2E2E2E2E2E2E2E2F5F5F5F5F5F5F5F5F5F5F5F5F5F5F5F5
310
E2E2E2E2E2E2E2E2E2F5F5F5F5F5F5F5F5F5F5F5F5F5F5F5F5E2E2E2E2E2E2E2E2E2F5F5F5F5F5F5F5F5F5F5F5F5F5F5F5F5E2E2E2E2E2E2E2E2E2F5F5F5F5F5F5F5F5E2F5F5E2E2E2E2E2E2E2E2E2E2E2E2E2E2E2E2E2E2E2E2E2E2E2E2E2E2E2E2E2E2E2E2E2E2E2E2E2E2E2E2E2E2E2E2E2E2E2E2E2E2E2E2E2E2E2E2E2
310
E2E2E2E2E2E2E2E2E2E2E2E2E2E2E2E2E2E2E2E2E2E2E2E2E2E2E2E2E2E2E2E2E2E2E2E2E2E2E2E2E2E2E2E2E2E2E2E2E2E2E2E2E2E2E2E2E2E2E2E2E2E2E2E2E2E2E2E2E2E2E2E2E2E2E2E2E2E2E2E2E2E2E2E2E2E2E2E2E2E2E2E2E2E2E2E2E2E2E2E2E2E2E2E2E2E2E2E2E2E2E2E2E2E2E2E2E2E2E2E2E2F5F5F5F5F5F5
310
F5F5F5F5F5F5F5F5F5F5F5F5F5F5F5F5F5F5F5F5F5F5F5F5F5F5F5F5F5F5F5F5F5F5F5F5F5F5F5F5F5F5F5F5F5F5F5F5F5F5F5F5F5F5F5F5F5F5F5F5F5F5F5F5F5F5F5F5F5F5F5F5F5F5F5F5F5F5F5F5F5F5F5F5F5F5F5F5F5F5F5F5F5F5F5F5F5F5F5F5F5F5F5F5F5F5F5F5F5F5F5F5F5F5F5F5F5F5F5F5F5F5F5F5F5F5F5
310
F5F5F5F5F5F5F5F5F5F5F5F5F5F5F5F5F5F5F5F5F5F5F5F5F5F5F5F5F5F5F5F5F5F5F5F5F5F5F5F5F5F5F5F5F5F5F5F5
  0
XRECORD
  5
187C
102
{ACAD_REACTORS
330
1749
102
}
330
1749
100
AcDbXrecord
280
     1
102
MATERIAL
148
0.0
149
0.0
149
0.0
 93
        0
 94
      127
282
     0
 72
     0
 77
     0
171
     0
175
     0
179
     0
273
     0
  0
XRECORD
  5
174B
102
{ACAD_REACTORS
330
1749
102
}
330
1749
100
AcDbXrecord
280
     1
270
     1
271
     1
  0
XRECORD
  5
174A
102
{ACAD_REACTORS
330
1749
102
}
330
1749
100
AcDbXrecord
280
     1
270
     1
271
     1
  0
XRECORD
  5
174E
102
{ACAD_REACTORS
330
1749
102
}
330
1749
100
AcDbXrecord
280
     1
270
     1
271
     1
  0
XRECORD
  5
174D
102
{ACAD_REACTORS
330
1749
102
}
330
1749
100
AcDbXrecord
280
     1
270
     1
271
     1
  0
XRECORD
  5
174F
102
{ACAD_REACTORS
330
1749
102
}
330
1749
100
AcDbXrecord
280
     1
270
     1
271
     1
  0
XRECORD
  5
174C
102
{ACAD_REACTORS
330
1749
102
}
330
1749
100
AcDbXrecord
280
     1
270
     1
271
     1
  0
XRECORD
  5
187B
102
{ACAD_REACTORS
330
1741
102
}
330
1741
100
AcDbXrecord
280
     1
102
MATERIAL
148
0.0
149
0.0
149
0.0
 93
        0
 94
      127
282
     0
 72
     0
 77
     0
171
     0
175
     0
179
     0
273
     0
  0
XRECORD
  5
1743
102
{ACAD_REACTORS
330
1741
102
}
330
1741
100
AcDbXrecord
280
     1
270
     1
271
     1
  0
XRECORD
  5
1742
102
{ACAD_REACTORS
330
1741
102
}
330
1741
100
AcDbXrecord
280
     1
270
     1
271
     1
  0
XRECORD
  5
1746
102
{ACAD_REACTORS
330
1741
102
}
330
1741
100
AcDbXrecord
280
     1
270
     1
271
     1
  0
XRECORD
  5
1745
102
{ACAD_REACTORS
330
1741
102
}
330
1741
100
AcDbXrecord
280
     1
270
     1
271
     1
  0
XRECORD
  5
1747
102
{ACAD_REACTORS
330
1741
102
}
330
1741
100
AcDbXrecord
280
     1
270
     1
271
     1
  0
XRECORD
  5
1744
102
{ACAD_REACTORS
330
1741
102
}
330
1741
100
AcDbXrecord
280
     1
270
     1
271
     1
  0
XRECORD
  5
187A
102
{ACAD_REACTORS
330
1879
102
}
330
1879
100
AcDbXrecord
280
     1
102
MATERIAL
148
0.0
149
0.0
149
0.0
 93
        0
 94
       63
282
     0
 72
     0
 77
     0
171
     1
175
     0
179
     1
273
     0
  0
CELLSTYLEMAP
  5
1872
102
{ACAD_REACTORS
330
1803
102
}
330
1803
100
AcDbCellStyleMap
 90
        3
300
CELLSTYLE
  1
TABLEFORMAT_BEGIN
 90
        5
170
     1
 91
        0
 92
    32768
 62
   257
 93
        1
300
CONTENTFORMAT
  1
CONTENTFORMAT_BEGIN
 90
        0
 91
        0
 92
        4
 93
        0
300

 40
0.0
140
1.0
 94
        5
 62
     0
340
11
144
6.0
309
CONTENTFORMAT_END
171
     1
301
MARGIN
  1
CELLMARGIN_BEGIN
 40
1.5
 40
1.5
 40
1.5
 40
1.5
 40
0.18
 40
0.18
309
CELLMARGIN_END
 94
        6
 95
        1
302
GRIDFORMAT
  1
GRIDFORMAT_BEGIN
 90
        0
 91
        1
 62
     0
 92
       -2
340
0
 93
        0
 40
0.045
309
GRIDFORMAT_END
 95
        2
302
GRIDFORMAT
  1
GRIDFORMAT_BEGIN
 90
        0
 91
        1
 62
     0
 92
       -2
340
0
 93
        0
 40
0.045
309
GRIDFORMAT_END
 95
        4
302
GRIDFORMAT
  1
GRIDFORMAT_BEGIN
 90
        0
 91
        1
 62
     0
 92
       -2
340
0
 93
        0
 40
0.045
309
GRIDFORMAT_END
 95
        8
302
GRIDFORMAT
  1
GRIDFORMAT_BEGIN
 90
        0
 91
        1
 62
     0
 92
       -2
340
0
 93
        0
 40
0.045
309
GRIDFORMAT_END
 95
       16
302
GRIDFORMAT
  1
GRIDFORMAT_BEGIN
 90
        0
 91
        1
 62
     0
 92
       -2
340
0
 93
        0
 40
0.045
309
GRIDFORMAT_END
 95
       32
302
GRIDFORMAT
  1
GRIDFORMAT_BEGIN
 90
        0
 91
        1
 62
     0
 92
       -2
340
0
 93
        0
 40
0.045
309
GRIDFORMAT_END
309
TABLEFORMAT_END
  1
CELLSTYLE_BEGIN
 90
        1
 91
        1
300
_TITLE
309
CELLSTYLE_END
300
CELLSTYLE
  1
TABLEFORMAT_BEGIN
 90
        5
170
     1
 91
        0
 92
        0
 62
   257
 93
        1
300
CONTENTFORMAT
  1
CONTENTFORMAT_BEGIN
 90
        0
 91
        0
 92
        4
 93
        0
300

 40
0.0
140
1.0
 94
        5
 62
     0
340
11
144
4.5
309
CONTENTFORMAT_END
171
     1
301
MARGIN
  1
CELLMARGIN_BEGIN
 40
1.5
 40
1.5
 40
1.5
 40
1.5
 40
0.18
 40
0.18
309
CELLMARGIN_END
 94
        6
 95
        1
302
GRIDFORMAT
  1
GRIDFORMAT_BEGIN
 90
        0
 91
        1
 62
     0
 92
       -2
340
0
 93
        0
 40
0.045
309
GRIDFORMAT_END
 95
        2
302
GRIDFORMAT
  1
GRIDFORMAT_BEGIN
 90
        0
 91
        1
 62
     0
 92
       -2
340
0
 93
        0
 40
0.045
309
GRIDFORMAT_END
 95
        4
302
GRIDFORMAT
  1
GRIDFORMAT_BEGIN
 90
        0
 91
        1
 62
     0
 92
       -2
340
0
 93
        0
 40
0.045
309
GRIDFORMAT_END
 95
        8
302
GRIDFORMAT
  1
GRIDFORMAT_BEGIN
 90
        0
 91
        1
 62
     0
 92
       -2
340
0
 93
        0
 40
0.045
309
GRIDFORMAT_END
 95
       16
302
GRIDFORMAT
  1
GRIDFORMAT_BEGIN
 90
        0
 91
        1
 62
     0
 92
       -2
340
0
 93
        0
 40
0.045
309
GRIDFORMAT_END
 95
       32
302
GRIDFORMAT
  1
GRIDFORMAT_BEGIN
 90
        0
 91
        1
 62
     0
 92
       -2
340
0
 93
        0
 40
0.045
309
GRIDFORMAT_END
309
TABLEFORMAT_END
  1
CELLSTYLE_BEGIN
 90
        2
 91
        1
300
_HEADER
309
CELLSTYLE_END
300
CELLSTYLE
  1
TABLEFORMAT_BEGIN
 90
        5
170
     1
 91
        0
 92
        0
 62
   257
 93
        1
300
CONTENTFORMAT
  1
CONTENTFORMAT_BEGIN
 90
        0
 91
        0
 92
        4
 93
        0
300

 40
0.0
140
1.0
 94
        2
 62
     0
340
11
144
4.5
309
CONTENTFORMAT_END
171
     1
301
MARGIN
  1
CELLMARGIN_BEGIN
 40
1.5
 40
1.5
 40
1.5
 40
1.5
 40
0.18
 40
0.18
309
CELLMARGIN_END
 94
        6
 95
        1
302
GRIDFORMAT
  1
GRIDFORMAT_BEGIN
 90
        0
 91
        1
 62
     0
 92
       -2
340
0
 93
        0
 40
0.045
309
GRIDFORMAT_END
 95
        2
302
GRIDFORMAT
  1
GRIDFORMAT_BEGIN
 90
        0
 91
        1
 62
     0
 92
       -2
340
0
 93
        0
 40
0.045
309
GRIDFORMAT_END
 95
        4
302
GRIDFORMAT
  1
GRIDFORMAT_BEGIN
 90
        0
 91
        1
 62
     0
 92
       -2
340
0
 93
        0
 40
0.045
309
GRIDFORMAT_END
 95
        8
302
GRIDFORMAT
  1
GRIDFORMAT_BEGIN
 90
        0
 91
        1
 62
     0
 92
       -2
340
0
 93
        0
 40
0.045
309
GRIDFORMAT_END
 95
       16
302
GRIDFORMAT
  1
GRIDFORMAT_BEGIN
 90
        0
 91
        1
 62
     0
 92
       -2
340
0
 93
        0
 40
0.045
309
GRIDFORMAT_END
 95
       32
302
GRIDFORMAT
  1
GRIDFORMAT_BEGIN
 90
        0
 91
        1
 62
     0
 92
       -2
340
0
 93
        0
 40
0.045
309
GRIDFORMAT_END
309
TABLEFORMAT_END
  1
CELLSTYLE_BEGIN
 90
        3
 91
        2
300
_DATA
309
CELLSTYLE_END
1001
ACAD
1001
ACAD
1001
ACAD
1001
ACAD
1001
ACAD
1001
ACAD
1000
AcRTDxfName
1000
CELLSTYLEMAP
  0
XRECORD
  5
1878
102
{ACAD_REACTORS
330
1803
102
}
330
1803
100
AcDbXrecord
280
     1
102
ACAD_ROUNDTRIP_PRE2007_TABLESTYLE
 90
        4
 91
        0
  1

 92
        4
 93
        0
  2

 94
        4
 95
        0
  3

  0
ENDSEC
  0
EOF
