  0
SECTION
  2
HEADER
  9
$ACADVER
  1
AC1015
  9
$ACADMAINTVER
 70
    20
  9
$DWGCODEPAGE
  3
ANSI_932
  9
$INSBASE
 10
0.0
 20
0.0
 30
0.0
  9
$EXTMIN
 10
245.1713100449326
 20
791.4084276070147
 30
-0.0015258207003583
  9
$EXTMAX
 10
673.9100462860953
 20
1304.904030134237
 30
0.0000000349246037
  9
$LIMMIN
 10
0.0
 20
0.0
  9
$LIMMAX
 10
420.0
 20
297.0
  9
$ORTHOMODE
 70
     1
  9
$REGENMODE
 70
     1
  9
$FILLMODE
 70
     1
  9
$QTEXTMODE
 70
     0
  9
$MIRRTEXT
 70
     0
  9
$LTSCALE
 40
1.0
  9
$ATTMODE
 70
     1
  9
$TEXTSIZE
 40
2.5
  9
$TRACEWID
 40
1.0
  9
$TEXTSTYLE
  7
Standard
  9
$CLAYER
  8
0
  9
$CELTYPE
  6
ByLayer
  9
$CECOLOR
 62
   256
  9
$CELTSCALE
 40
1.0
  9
$DISPSILH
 70
     0
  9
$DIMSCALE
 40
1.0
  9
$DIMASZ
 40
2.5
  9
$DIMEXO
 40
0.625
  9
$DIMDLI
 40
3.75
  9
$DIMRND
 40
0.0
  9
$DIMDLE
 40
0.0
  9
$DIMEXE
 40
1.25
  9
$DIMTP
 40
0.0
  9
$DIMTM
 40
0.0
  9
$DIMTXT
 40
2.5
  9
$DIMCEN
 40
2.5
  9
$DIMTSZ
 40
0.0
  9
$DIMTOL
 70
     0
  9
$DIMLIM
 70
     0
  9
$DIMTIH
 70
     0
  9
$DIMTOH
 70
     0
  9
$DIMSE1
 70
     0
  9
$DIMSE2
 70
     0
  9
$DIMTAD
 70
     1
  9
$DIMZIN
 70
     8
  9
$DIMBLK
  1

  9
$DIMASO
 70
     1
  9
$DIMSHO
 70
     1
  9
$DIMPOST
  1

  9
$DIMAPOST
  1

  9
$DIMALT
 70
     0
  9
$DIMALTD
 70
     3
  9
$DIMALTF
 40
0.03937007874016
  9
$DIMLFAC
 40
1.0
  9
$DIMTOFL
 70
     1
  9
$DIMTVP
 40
0.0
  9
$DIMTIX
 70
     0
  9
$DIMSOXD
 70
     0
  9
$DIMSAH
 70
     0
  9
$DIMBLK1
  1

  9
$DIMBLK2
  1

  9
$DIMSTYLE
  2
ISO-25
  9
$DIMCLRD
 70
     0
  9
$DIMCLRE
 70
     0
  9
$DIMCLRT
 70
     0
  9
$DIMTFAC
 40
1.0
  9
$DIMGAP
 40
0.625
  9
$DIMJUST
 70
     0
  9
$DIMSD1
 70
     0
  9
$DIMSD2
 70
     0
  9
$DIMTOLJ
 70
     0
  9
$DIMTZIN
 70
     8
  9
$DIMALTZ
 70
     0
  9
$DIMALTTZ
 70
     0
  9
$DIMUPT
 70
     0
  9
$DIMDEC
 70
     2
  9
$DIMTDEC
 70
     2
  9
$DIMALTU
 70
     2
  9
$DIMALTTD
 70
     3
  9
$DIMTXSTY
  7
Standard
  9
$DIMAUNIT
 70
     0
  9
$DIMADEC
 70
     0
  9
$DIMALTRND
 40
0.0
  9
$DIMAZIN
 70
     0
  9
$DIMDSEP
 70
    44
  9
$DIMATFIT
 70
     3
  9
$DIMFRAC
 70
     0
  9
$DIMLDRBLK
  1

  9
$DIMLUNIT
 70
     2
  9
$DIMLWD
 70
    -2
  9
$DIMLWE
 70
    -2
  9
$DIMTMOVE
 70
     0
  9
$LUNITS
 70
     2
  9
$LUPREC
 70
     2
  9
$SKETCHINC
 40
1.0
  9
$FILLETRAD
 40
0.0
  9
$AUNITS
 70
     0
  9
$AUPREC
 70
     0
  9
$MENU
  1
.
  9
$ELEVATION
 40
0.0
  9
$PELEVATION
 40
0.0
  9
$THICKNESS
 40
0.0
  9
$LIMCHECK
 70
     0
  9
$CHAMFERA
 40
0.0
  9
$CHAMFERB
 40
0.0
  9
$CHAMFERC
 40
0.0
  9
$CHAMFERD
 40
0.0
  9
$SKPOLY
 70
     0
  9
$TDCREATE
 40
2454354.690738924
  9
$TDUCREATE
 40
2454354.315738923
  9
$TDUPDATE
 40
2455610.579609039
  9
$TDUUPDATE
 40
2455610.204609040
  9
$TDINDWG
 40
0.0901832292
  9
$TDUSRTIMER
 40
0.0901778125
  9
$USRTIMER
 70
     1
  9
$ANGBASE
 50
0.0
  9
$ANGDIR
 70
     0
  9
$PDMODE
 70
     0
  9
$PDSIZE
 40
0.0
  9
$PLINEWID
 40
0.0
  9
$SPLFRAME
 70
     0
  9
$SPLINETYPE
 70
     6
  9
$SPLINESEGS
 70
     8
  9
$HANDSEED
  5
236B
  9
$SURFTAB1
 70
     6
  9
$SURFTAB2
 70
     6
  9
$SURFTYPE
 70
     6
  9
$SURFU
 70
     6
  9
$SURFV
 70
     6
  9
$UCSBASE
  2

  9
$UCSNAME
  2

  9
$UCSORG
 10
0.0
 20
0.0
 30
0.0
  9
$UCSXDIR
 10
1.0
 20
0.0
 30
0.0
  9
$UCSYDIR
 10
0.0
 20
1.0
 30
0.0
  9
$UCSORTHOREF
  2

  9
$UCSORTHOVIEW
 70
     0
  9
$UCSORGTOP
 10
0.0
 20
0.0
 30
0.0
  9
$UCSORGBOTTOM
 10
0.0
 20
0.0
 30
0.0
  9
$UCSORGLEFT
 10
0.0
 20
0.0
 30
0.0
  9
$UCSORGRIGHT
 10
0.0
 20
0.0
 30
0.0
  9
$UCSORGFRONT
 10
0.0
 20
0.0
 30
0.0
  9
$UCSORGBACK
 10
0.0
 20
0.0
 30
0.0
  9
$PUCSBASE
  2

  9
$PUCSNAME
  2

  9
$PUCSORG
 10
0.0
 20
0.0
 30
0.0
  9
$PUCSXDIR
 10
1.0
 20
0.0
 30
0.0
  9
$PUCSYDIR
 10
0.0
 20
1.0
 30
0.0
  9
$PUCSORTHOREF
  2

  9
$PUCSORTHOVIEW
 70
     0
  9
$PUCSORGTOP
 10
0.0
 20
0.0
 30
0.0
  9
$PUCSORGBOTTOM
 10
0.0
 20
0.0
 30
0.0
  9
$PUCSORGLEFT
 10
0.0
 20
0.0
 30
0.0
  9
$PUCSORGRIGHT
 10
0.0
 20
0.0
 30
0.0
  9
$PUCSORGFRONT
 10
0.0
 20
0.0
 30
0.0
  9
$PUCSORGBACK
 10
0.0
 20
0.0
 30
0.0
  9
$USERI1
 70
     0
  9
$USERI2
 70
     0
  9
$USERI3
 70
     0
  9
$USERI4
 70
     0
  9
$USERI5
 70
     0
  9
$USERR1
 40
0.0
  9
$USERR2
 40
0.0
  9
$USERR3
 40
0.0
  9
$USERR4
 40
0.0
  9
$USERR5
 40
0.0
  9
$WORLDVIEW
 70
     1
  9
$SHADEDGE
 70
     3
  9
$SHADEDIF
 70
    70
  9
$TILEMODE
 70
     1
  9
$MAXACTVP
 70
    64
  9
$PINSBASE
 10
0.0
 20
0.0
 30
0.0
  9
$PLIMCHECK
 70
     0
  9
$PEXTMIN
 10
29.06606628894806
 20
20.36233246326444
 30
0.0
  9
$PEXTMAX
 10
261.5945966005325
 20
183.2609921693801
 30
0.0
  9
$PLIMMIN
 10
-3.17498779296875
 20
-3.174999952316281
  9
$PLIMMAX
 10
293.8356628417969
 20
206.7983276844024
  9
$UNITMODE
 70
     0
  9
$VISRETAIN
 70
     1
  9
$PLINEGEN
 70
     0
  9
$PSLTSCALE
 70
     1
  9
$TREEDEPTH
 70
  3020
  9
$CMLSTYLE
  2
Standard
  9
$CMLJUST
 70
     0
  9
$CMLSCALE
 40
20.0
  9
$PROXYGRAPHICS
 70
     1
  9
$MEASUREMENT
 70
     1
  9
$CELWEIGHT
370
    -1
  9
$ENDCAPS
280
     0
  9
$JOINSTYLE
280
     0
  9
$LWDISPLAY
290
     0
  9
$INSUNITS
 70
     4
  9
$HYPERLINKBASE
  1

  9
$STYLESHEET
  1
KIHON1.ctb
  9
$XEDIT
290
     1
  9
$CEPSNTYPE
380
     0
  9
$PSTYLEMODE
290
     1
  9
$FINGERPRINTGUID
  2
{DD28B6F0-6A46-4203-99D8-E0CB2352CE3F}
  9
$VERSIONGUID
  2
{95FEEFEF-6101-47C5-A10C-710346BF39FC}
  9
$EXTNAMES
290
     1
  9
$PSVPSCALE
 40
0.0
  9
$OLESTARTUP
290
     0
  0
ENDSEC
  0
SECTION
  2
CLASSES
  0
CLASS
  1
ACDBDICTIONARYWDFLT
  2
AcDbDictionaryWithDefault
  3
ObjectDBX Classes
 90
        0
280
     0
281
     0
  0
CLASS
  1
DICTIONARYVAR
  2
AcDbDictionaryVar
  3
ObjectDBX Classes
 90
        0
280
     0
281
     0
  0
CLASS
  1
TABLESTYLE
  2
AcDbTableStyle
  3
ObjectDBX Classes
 90
     2047
280
     0
281
     0
  0
CLASS
  1
MATERIAL
  2
AcDbMaterial
  3
ObjectDBX Classes
 90
        0
280
     0
281
     0
  0
CLASS
  1
DIMASSOC
  2
AcDbDimAssoc
  3
"AcDbDimAssoc|Product Desc:     AcDim ARX App For Dimension|Company:          Autodesk, Inc.|WEB Address:      www.autodesk.com"
 90
        0
280
     0
281
     0
  0
CLASS
  1
SORTENTSTABLE
  2
AcDbSortentsTable
  3
ObjectDBX Classes
 90
        0
280
     0
281
     0
  0
CLASS
  1
VISUALSTYLE
  2
AcDbVisualStyle
  3
ObjectDBX Classes
 90
     4095
280
     0
281
     0
  0
CLASS
  1
SCALE
  2
AcDbScale
  3
ObjectDBX Classes
 90
     1153
280
     0
281
     0
  0
CLASS
  1
MLEADERSTYLE
  2
AcDbMLeaderStyle
  3
ACDB_MLEADERSTYLE_CLASS
 90
     4095
280
     0
281
     0
  0
CLASS
  1
CELLSTYLEMAP
  2
AcDbCellStyleMap
  3
ObjectDBX Classes
 90
     1152
280
     0
281
     0
  0
CLASS
  1
ACDBPLACEHOLDER
  2
AcDbPlaceHolder
  3
ObjectDBX Classes
 90
        0
280
     0
281
     0
  0
CLASS
  1
LAYOUT
  2
AcDbLayout
  3
ObjectDBX Classes
 90
        0
280
     0
281
     0
  0
CLASS
  1
AMGSETTINGSOBJ
  2
AmgSettingsObj
  3
"AcadM|Product Description: AutoCAD Mechanical 2000|Company: Autodesk"
 90
        0
280
     0
281
     0
  0
CLASS
  1
ACME_DOCUMENT
  2
AcMeDbDoc
  3
AcMeServices
 90
        0
280
     0
281
     0
  0
CLASS
  1
ACMESCOPE
  2
AcMeScope
  3
AcMeServices
 90
        0
280
     0
281
     0
  0
CLASS
  1
ACMECOMMANDHISTORY
  2
AcMeCommandHistory
  3
AcMeServices
 90
        0
280
     0
281
     0
  0
CLASS
  1
ACIMSYSVARMAN
  2
AcImSysVarManager
  3
AcMeServices
 90
        0
280
     0
281
     0
  0
CLASS
  1
ACIMREALSYSVAR
  2
AcImRealSysVar
  3
AcMeServices
 90
        0
280
     0
281
     0
  0
CLASS
  1
ACIMINTSYSVAR
  2
AcImIntSysVar
  3
AcMeServices
 90
        0
280
     0
281
     0
  0
CLASS
  1
ACMEDRAWINGMAN
  2
AcMeDrawingMan
  3
AcMeServices
 90
        0
280
     0
281
     0
  0
CLASS
  1
ACMEVIEW
  2
AcMeView
  3
AcMeServices
 90
        0
280
     0
281
     0
  0
CLASS
  1
ACDBENTITYCACHE
  2
AcMeEntityCache
  3
AcMeServices
 90
        0
280
     0
281
     0
  0
CLASS
  1
GSMANAGER
  2
AcMeGSManager
  3
AcMeServices
 90
        0
280
     0
281
     0
  0
CLASS
  1
AMDTINTERNALREACTOR
  2
AmdtInternalReactor
  3
AcMeServices
 90
        0
280
     0
281
     0
  0
CLASS
  1
ACMESTATEMGR
  2
AcMeStateMgr
  3
AcMeServices
 90
        0
280
     0
281
     0
  0
CLASS
  1
ACGREFMASTER
  2
AcGrefMaster
  3
AcAttribServices
 90
        0
280
     0
281
     0
  0
CLASS
  1
AM_DRAWING_MGR
  2
AcDmDwgMgr
  3
AcMechDwgViewMgmt
 90
        0
280
     0
281
     0
  0
CLASS
  1
AM_DWG_DOCUMENT
  2
AcDmDwgDocument
  3
AcMechDwgViewMgmt
 90
        0
280
     0
281
     0
  0
CLASS
  1
AM_DWG_SHEET
  2
AcDmSheet
  3
AcMechDwgViewMgmt
 90
        0
280
     0
281
     0
  0
CLASS
  1
AM_VIEWDIMPARMAP
  2
AcDmViewDimParMap
  3
AcMechDwgViewMgmt
 90
        0
280
     0
281
     0
  0
CLASS
  1
AM_DWGMGR_NAME
  2
AcDmDwgMgrName
  3
AcMechDwgViewMgmt
 90
        0
280
     0
281
     0
  0
CLASS
  1
ACME_DATABASE
  2
AcMeDbDatabase
  3
AcMeServices
 90
        0
280
     0
281
     0
  0
CLASS
  1
ACRFINSADJUSTERMGR
  2
AcRfInsAdjusterMgr
  3
AcMeServices
 90
        0
280
     0
281
     0
  0
CLASS
  1
ACGREFACADMASTER
  2
AcGrefacadMaster
  3
AcGrefServices
 90
        0
280
     0
281
     0
  0
CLASS
  1
AMDTMENUSTATEMGR
  2
AmdtMenuStateMgr
  3
McadcomServices
 90
        0
280
     0
281
     0
  0
CLASS
  1
AMDTMCOMMENUSTATE
  2
AmdtMcomMenuState
  3
McadcomServices
 90
        0
280
     0
281
     0
  0
CLASS
  1
AMIMASTER
  2
AmiMaster
  3
AmiServices
 90
        0
280
     0
281
     0
  0
CLASS
  1
ASAPP
  2
AcAsAppObject
  3
AutoSurfServices
 90
        0
280
     0
281
     0
  0
CLASS
  1
IM_STATIC_MAN
  2
AcImStaticVarManager
  3
AcMeServices
 90
        0
280
     0
281
     0
  0
CLASS
  1
ACIMSTRSYSVAR
  2
AcImStrSysVar
  3
AcMeServices
 90
        0
280
     0
281
     0
  0
CLASS
  1
ACIMDBLSTATICVAR
  2
AcImDblStaticVar
  3
AcMeServices
 90
        0
280
     0
281
     0
  0
CLASS
  1
ACIMSTRSTATICVAR
  2
AcImStrStaticVar
  3
AcMeServices
 90
        0
280
     0
281
     0
  0
CLASS
  1
ACIMINTSTATICVAR
  2
AcImIntStaticVar
  3
AcMeServices
 90
        0
280
     0
281
     0
  0
CLASS
  1
ACASGREFMASTER
  2
AcAsGrefMaster
  3
AutoSurfResolverServices
 90
        0
280
     0
281
     0
  0
CLASS
  1
ACADGREFMODULE
  2
AcAdGrefModule
  3
AdGrefServices
 90
        0
280
     0
281
     0
  0
CLASS
  1
AMDTMAPISURFMOUDULE
  2
AmdtMApiSurfModule
  3
MApiSurfServices
 90
        0
280
     0
281
     0
  0
CLASS
  1
MAPIAMMOUDLE
  2
MApiAmModule
  3
MApiAmServices
 90
        0
280
     0
281
     0
  0
CLASS
  1
AMDTADMENUSTATE
  2
AmdtAdMenuState
  3
DesignerServices
 90
        0
280
     0
281
     0
  0
CLASS
  1
ADAPPL
  2
AcAdAppl
  3
DesignerServices
 90
        0
280
     0
281
     0
  0
CLASS
  1
DEPMGR
  2
AcAdDepMgr
  3
DesignerServices
 90
        0
280
     0
281
     0
  0
CLASS
  1
PARAMMGR
  2
AcAdParamMgr
  3
DesignerServices
 90
        0
280
     0
281
     0
  0
CLASS
  1
PARAMSCOPE
  2
AcAdParamScope
  3
DesignerServices
 90
        0
280
     0
281
     0
  0
CLASS
  1
NAMEDAPPL
  2
AcAdNamedAppl
  3
DesignerServices
 90
        0
280
     0
281
     0
  0
CLASS
  1
AMDTDMMENUSTATE
  2
AmdtDmMenuState
  3
AcMechDwgViewMgmt
 90
        0
280
     0
281
     0
  0
CLASS
  1
MAPIADMODULE
  2
MApiAdModule
  3
MApiAdServices
 90
        0
280
     0
281
     0
  0
CLASS
  1
AMDTAMMENUSTATE
  2
AmdtAmMenuState
  3
DesignerAssemblies
 90
        0
280
     0
281
     0
  0
CLASS
  1
ACAMPROJECT
  2
AcAmProject
  3
DesignerAssemblies
 90
        0
280
     0
281
     0
  0
CLASS
  1
ACAMGRCOMPDEF
  2
AcAmGrCompDef
  3
DesignerAssemblies
 90
        0
280
     0
281
     0
  0
CLASS
  1
ACCMCONTEXT
  2
AcCmContext
  3
DesignerAssemblies
 90
        0
280
     0
281
     0
  0
CLASS
  1
ACAMCOMPDEF
  2
AcAmCompDef
  3
DesignerAssemblies
 90
        0
280
     0
281
     0
  0
CLASS
  1
ACAMCOMPDEFMGR
  2
AcAmCompDefMgr
  3
DesignerAssemblies
 90
        0
280
     0
281
     0
  0
CLASS
  1
AMCONTEXTMGR
  2
AcAmContextMgr
  3
DesignerAssemblies
 90
        0
280
     0
281
     0
  0
CLASS
  1
ACAMCONTEXTMODELER
  2
AcAmContextModeler
  3
DesignerAssemblies
 90
        0
280
     0
281
     0
  0
CLASS
  1
ACMDATADICTIONARY
  2
AcmDataDictionary
  3
"AcmSymBB|Product Description: AutoCAD Mechanical 2004 DX|Company: Autodesk"
 90
        0
280
     0
281
     0
  0
CLASS
  1
ACMDATAENTRYBLOCK
  2
AcmDataEntryBlock
  3
"AcmSymBB|Product Description: AutoCAD Mechanical 2004 DX|Company: Autodesk"
 90
        0
280
     0
281
     0
  0
CLASS
  1
CATALOGSTATE
  2
AcAmCatalogState
  3
DesignerAssemblies
 90
        0
280
     0
281
     0
  0
CLASS
  1
ACAMGRCOMPDEFSET
  2
AcAmGrCompDefSet
  3
DesignerAssemblies
 90
        0
280
     0
281
     0
  0
CLASS
  1
AMDTBROWSERDBTAB
  2
AmdtBrowserDbTab
  3
McadcomServices
 90
        0
280
     0
281
     0
  0
CLASS
  1
CBROWSERAPPOBJECT
  2
CBrowserAppObject
  3
McadcomServices
 90
        0
280
     0
281
     0
  0
CLASS
  1
DM_PLACEHOLDER
  2
AcDmSelsetPlaceholder
  3
AcMechDwgViewMgmt
 90
        0
280
     0
281
     0
  0
CLASS
  1
ACMSTANDARDISO
  2
AcmStandardISO
  3
"Amdt_StdImp|Product Description: AutoCAD Mechanical 2004 DX|Company: Autodesk"
 90
        0
280
     0
281
     0
  0
CLASS
  1
AMGOBJPROPCFG
  2
AmgObjPropCfg
  3
"AmgLay|Product Description: AutoCAD Mechanical 2000|Company: Autodesk"
 90
        1
280
     0
281
     0
  0
CLASS
  1
AMDTEDGESTANDARDISO13715
  2
AmdtEdgeStdISO13715
  3
"Amdt_StdImp|Product Description: AutoCAD Mechanical 2004 DX|Company: Autodesk"
 90
        0
280
     0
281
     0
  0
CLASS
  1
ACMSURFSTANDARDISO
  2
AcmSurfTextStdISO
  3
"Amdt_StdImp|Product Description: AutoCAD Mechanical 2004 DX|Company: Autodesk"
 90
        0
280
     0
281
     0
  0
CLASS
  1
ACMFCFSTANDARDISO
  2
AcmFCFStdISO
  3
"Amdt_StdImp|Product Description: AutoCAD Mechanical 2004 DX|Company: Autodesk"
 90
        0
280
     0
281
     0
  0
CLASS
  1
ACMWELDSTANDARDISO
  2
AcmWeldingStdISO
  3
"Amdt_StdImp|Product Description: AutoCAD Mechanical 2004 DX|Company: Autodesk"
 90
        0
280
     0
281
     0
  0
CLASS
  1
ACMIDSTANDARDISO
  2
AcmIdStdISO
  3
"Amdt_StdImp|Product Description: AutoCAD Mechanical 2004 DX|Company: Autodesk"
 90
        0
280
     0
281
     0
  0
CLASS
  1
ACMDATUMSTANDARDISO
  2
AcmDatumStdISO
  3
"Amdt_StdImp|Product Description: AutoCAD Mechanical 2004 DX|Company: Autodesk"
 90
        0
280
     0
281
     0
  0
CLASS
  1
ACMBOMSTANDARDISO
  2
AcmBOMStdISO
  3
"Amdt_StdImp|Product Description: AutoCAD Mechanical 2004 DX|Company: Autodesk"
 90
        0
280
     0
281
     0
  0
CLASS
  1
ACMDETAILSTANDARDISO
  2
AmdtDetailSymStdISO
  3
"Amdt_StdImp|Product Description: AutoCAD Mechanical 2004 DX|Company: Autodesk"
 90
        0
280
     0
281
     0
  0
CLASS
  1
ACMSECTIONSTANDARDISO
  2
AmdtSectionSymStdISO
  3
"Amdt_StdImp|Product Description: AutoCAD Mechanical 2004 DX|Company: Autodesk"
 90
        0
280
     0
281
     0
  0
CLASS
  1
ACMCENTERLINESTANDARDISO
  2
AmdtCenterLineStdISO
  3
"Amdt_StdImp|Product Description: AutoCAD Mechanical 2004 DX|Company: Autodesk"
 90
        0
280
     0
281
     0
  0
CLASS
  1
ACMTHREADLINESTANDARDISO
  2
AmdtThreadLineStdISO
  3
"Amdt_StdImp|Product Description: AutoCAD Mechanical 2004 DX|Company: Autodesk"
 90
        0
280
     0
281
     0
  0
CLASS
  1
ACMNOTESTANDARDISO
  2
AmdtNoteStdISO
  3
"Amdt_StdImp|Product Description: AutoCAD Mechanical 2004 DX|Company: Autodesk"
 90
        0
280
     0
281
     0
  0
CLASS
  1
AMDTNOTETEMPLATEDB
  2
AmdtNoteTemplateDB
  3
AMDT_STDIMP_MODULE_NAME
 90
        0
280
     0
281
     0
  0
CLASS
  1
ACAMGLAYSTD
  2
AcAmgLayStd
  3
"AcAmgLayStd|Product Description: AutoCAD Mechanical 2000|Company: Autodesk"
 90
        0
280
     0
281
     0
  0
CLASS
  1
ACAMGDIMSTD
  2
AcAmgDimStd
  3
"AcAmgDimStd|Product Description: AutoCAD Mechanical 2000|Company: Autodesk"
 90
        0
280
     0
281
     0
  0
CLASS
  1
ACAMGHOLECHARTSTDISO
  2
AcAmgHoleChartStdISO
  3
ACMSYMBB_MODULE_NAME
 90
        0
280
     0
281
     0
  0
CLASS
  1
ACAMGTITLESTD
  2
AcAmgTitleStd
  3
"TITLEAPP"
 90
        0
280
     0
281
     0
  0
CLASS
  1
ACAMGFILTERDAT
  2
AcAmgFilterDat
  3
"AcadM|Product Description: AutoCAD Mechanical 2000|Company: Autodesk"
 90
        0
280
     0
281
     0
  0
CLASS
  1
LAYER_INDEX
  2
AcDbLayerIndex
  3
ObjectDBX Classes
 90
        0
280
     0
281
     0
  0
CLASS
  1
IDBUFFER
  2
AcDbIdBuffer
  3
ObjectDBX Classes
 90
        0
280
     0
281
     0
  0
ENDSEC
  0
SECTION
  2
TABLES
  0
TABLE
  2
VPORT
  5
8
102
{ACAD_XDICTIONARY
360
1808
102
}
330
0
100
AcDbSymbolTable
 70
     2
  0
VPORT
  5
2363
330
8
100
AcDbSymbolTableRecord
100
AcDbViewportTableRecord
  2
*Active
 70
     0
 10
0.0
 20
0.0
 11
1.0
 21
1.0
 12
459.540678165514
 22
1048.156228870626
 13
0.0
 23
0.0
 14
10.0
 24
10.0
 15
10.0
 25
10.0
 16
0.0
 26
0.0
 36
1.0
 17
0.0
 27
0.0
 37
0.0
 40
517.1634282595596
 41
1.398092967818831
 42
50.0
 43
0.0
 44
0.0
 50
0.0
 51
0.0
 71
     0
 72
  1000
 73
     1
 74
     3
 75
     0
 76
     0
 77
     0
 78
     0
281
     0
 65
     1
110
0.0
120
0.0
130
0.0
111
1.0
121
0.0
131
0.0
112
0.0
122
1.0
132
0.0
 79
     0
146
0.0
  0
ENDTAB
  0
TABLE
  2
LTYPE
  5
5
330
0
100
AcDbSymbolTable
 70
    17
  0
LTYPE
  5
14
330
5
100
AcDbSymbolTableRecord
100
AcDbLinetypeTableRecord
  2
ByBlock
 70
     0
  3

 72
    65
 73
     0
 40
0.0
  0
LTYPE
  5
15
330
5
100
AcDbSymbolTableRecord
100
AcDbLinetypeTableRecord
  2
ByLayer
 70
     0
  3

 72
    65
 73
     0
 40
0.0
  0
LTYPE
  5
16
330
5
100
AcDbSymbolTableRecord
100
AcDbLinetypeTableRecord
  2
Continuous
 70
     0
  3
Solid line
 72
    65
 73
     0
 40
0.0
  0
LTYPE
  5
1AE
330
5
100
AcDbSymbolTableRecord
100
AcDbLinetypeTableRecord
  2
DASHED2
 70
     0
  3
Dashed (.5x) _ _ _ _ _ _ _ _ _ _ _ _ _ _ _ _ _
 72
    65
 73
     2
 40
9.524999999999996
 49
6.349999999999997
 74
     0
 49
-3.174999999999998
 74
     0
  0
LTYPE
  5
2272
330
5
100
AcDbSymbolTableRecord
100
AcDbLinetypeTableRecord
  2
HIDDEN
 70
     0
  3
Hidden __ __ __ __ __ __ __ __ __ __ __ __ __ _
 72
    65
 73
     2
 40
9.524999999999998
 49
6.349999999999999
 74
     0
 49
-3.174999999999999
 74
     0
  0
LTYPE
  5
2273
330
5
100
AcDbSymbolTableRecord
100
AcDbLinetypeTableRecord
  2
PHANTOM2
 70
     0
  3
Phantom (.5x) ___ _ _ ___ _ _ ___ _ _ ___ _ _
 72
    65
 73
     6
 40
31.75
 49
15.875
 74
     0
 49
-3.174999999999999
 74
     0
 49
3.174999999999999
 74
     0
 49
-3.174999999999999
 74
     0
 49
3.174999999999999
 74
     0
 49
-3.174999999999999
 74
     0
  0
LTYPE
  5
2274
330
5
100
AcDbSymbolTableRecord
100
AcDbLinetypeTableRecord
  2
CENTER
 70
     0
  3
Center ____ _ ____ _ ____ _ ____ _ ____ _ ____
 72
    65
 73
     4
 40
50.8
 49
31.75
 74
     0
 49
-6.349999999999999
 74
     0
 49
6.349999999999999
 74
     0
 49
-6.349999999999999
 74
     0
  0
LTYPE
  5
22C3
330
5
100
AcDbSymbolTableRecord
100
AcDbLinetypeTableRecord
  2
ASULTYPE
 70
     0
  3
実線
 72
    65
 73
     2
 40
3.0
 49
2.5
 74
     0
 49
0.5
 74
     0
  0
LTYPE
  5
22C4
330
5
100
AcDbSymbolTableRecord
100
AcDbLinetypeTableRecord
  2
ASVLTYPE
 70
     0
  3
__ __ __ __ __ __ __ __ __ __ __ __ __ __ __ __ __ __ __ __ __
 72
    65
 73
     2
 40
0.75
 49
0.5
 74
     0
 49
-0.25
 74
     0
  0
LTYPE
  5
230B
330
5
100
AcDbSymbolTableRecord
100
AcDbLinetypeTableRecord
  2
AM_ISO02W050
 70
     0
  3
__ __ __ __ __ __ __ __ __ __ __ __ __ __ __
 72
    65
 73
     2
 40
7.5
 49
6.0
 74
     0
 49
-1.5
 74
     0
  0
LTYPE
  5
230C
330
5
100
AcDbSymbolTableRecord
100
AcDbLinetypeTableRecord
  2
AM_ISO08W050
 70
     0
  3
____ . ____ . ____ . ____ . ____ . ____ . ____
 72
    65
 73
     4
 40
18.0
 49
12.0
 74
     0
 49
-1.5
 74
     0
 49
3.0
 74
     0
 49
-1.5
 74
     0
  0
LTYPE
  5
230D
330
5
100
AcDbSymbolTableRecord
100
AcDbLinetypeTableRecord
  2
AM_ISO09W050
 70
     0
  3
_____ . . _____ . . _____ . . ____ .. ____
 72
    65
 73
     6
 40
22.5
 49
12.0
 74
     0
 49
-1.5
 74
     0
 49
3.0
 74
     0
 49
-1.5
 74
     0
 49
3.0
 74
     0
 49
-1.5
 74
     0
  0
LTYPE
  5
230E
330
5
100
AcDbSymbolTableRecord
100
AcDbLinetypeTableRecord
  2
Amconstr
 70
     0
  3
_______________________
 72
    65
 73
     2
 40
9999.0
 49
9999.0
 74
     0
 49
0.0
 74
     0
  0
LTYPE
  5
230F
330
5
100
AcDbSymbolTableRecord
100
AcDbLinetypeTableRecord
  2
AM_ISO08W050x2
 70
     0
  3
__ . __ . __ . __ . __ . __
 72
    65
 73
     4
 40
9.0
 49
6.0
 74
     0
 49
-0.75
 74
     0
 49
1.5
 74
     0
 49
-0.75
 74
     0
  0
LTYPE
  5
2310
330
5
100
AcDbSymbolTableRecord
100
AcDbLinetypeTableRecord
  2
AM_ISO02W050x2
 70
     0
  3
 _ _ _ _ _ _ _ _ _ _ _ _
 72
    65
 73
     2
 40
3.75
 49
3.0
 74
     0
 49
-0.75
 74
     0
  0
LTYPE
  5
2313
330
5
100
AcDbSymbolTableRecord
100
AcDbLinetypeTableRecord
  2
Amzigzag
 70
     0
  3
/\/-/\/-/\/-/\/-/\/-/\/
 72
    65
 73
     2
 40
11.0001
 49
0.0001
 74
     4
 75
   136
340
2312
 46
0.04
 50
0.0
 44
0.0
 45
0.0
 49
-11.0
 74
     0
  0
LTYPE
  5
2322
330
5
100
AcDbSymbolTableRecord
100
AcDbLinetypeTableRecord
  2
ACISOWELD
 70
     0
  3
_ _ _ _ _
 72
    65
 73
     2
 40
2.0
 49
2.0
 74
     0
 49
-1.0
 74
     0
  0
LTYPE
  5
2323
330
5
100
AcDbSymbolTableRecord
100
AcDbLinetypeTableRecord
  2
ACISOTGB
 70
     0
  3
__ . . __ . .
 72
    65
 73
     6
 40
9.0
 49
4.0
 74
     0
 49
-1.0
 74
     0
 49
1.0
 74
     0
 49
-1.0
 74
     0
 49
1.0
 74
     0
 49
-1.0
 74
     0
  0
LTYPE
  5
2324
330
5
100
AcDbSymbolTableRecord
100
AcDbLinetypeTableRecord
  2
ACISOTGL
 70
     0
  3
_ _ _ _ _
 72
    65
 73
     2
 40
3.0
 49
2.0
 74
     0
 49
-1.0
 74
     0
  0
ENDTAB
  0
TABLE
  2
LAYER
  5
2
102
{ACAD_XDICTIONARY
360
1C1
102
}
330
0
100
AcDbSymbolTable
 70
     3
  0
LAYER
  5
10
102
{ACAD_XDICTIONARY
360
178C
102
}
330
2
100
AcDbSymbolTableRecord
100
AcDbLayerTableRecord
  2
0
 70
     0
 62
     7
  6
Continuous
370
    -3
390
F
  0
LAYER
  5
1AF
102
{ACAD_XDICTIONARY
360
1B0
102
}
330
2
100
AcDbSymbolTableRecord
100
AcDbLayerTableRecord
  2
かくれ線
 70
     0
 62
     2
  6
DASHED2
370
    15
390
F
  0
LAYER
  5
1B3
330
2
100
AcDbSymbolTableRecord
100
AcDbLayerTableRecord
  2
Defpoints
 70
     0
 62
     7
  6
Continuous
290
     0
370
    -3
390
F
  0
ENDTAB
  0
TABLE
  2
STYLE
  5
3
330
0
100
AcDbSymbolTable
 70
     6
  0
STYLE
  5
11
330
3
100
AcDbSymbolTableRecord
100
AcDbTextStyleTableRecord
  2
Standard
 70
     0
 40
0.0
 41
1.0
 50
0.0
 71
     0
 42
2.5
  3
txt.shx
  4
extfont2.shx
  0
STYLE
  5
1B6
330
3
100
AcDbSymbolTableRecord
100
AcDbTextStyleTableRecord
  2
CB
 70
     0
 40
2.5
 41
1.0
 50
0.0
 71
     0
 42
2.5
  3
MS Gothic.ttf
  4

1001
ACAD
1000
MS Gothic
1071
    32817
  0
STYLE
  5
2312
330
3
100
AcDbSymbolTableRecord
100
AcDbTextStyleTableRecord
  2

 70
     1
 40
0.0
 41
1.0
 50
0.0
 71
     0
 42
2.5
  3
genltshp.shx
  4

  0
STYLE
  5
2314
330
3
100
AcDbSymbolTableRecord
100
AcDbTextStyleTableRecord
  2
ACISOTS
 70
     0
 40
1.0
 41
1.0
 50
0.0
 71
     0
 42
2.5
  3
isocp.shx
  4
extfont.shx
  0
STYLE
  5
2321
330
3
100
AcDbSymbolTableRecord
100
AcDbTextStyleTableRecord
  2
ACISOGDT
 70
     0
 40
0.0
 41
1.0
 50
0.0
 71
     0
 42
2.5
  3
AMGDT
  4

  0
ENDTAB
  0
TABLE
  2
VIEW
  5
6
330
0
100
AcDbSymbolTable
 70
     4
  0
VIEW
  5
15DF
330
6
100
AcDbSymbolTableRecord
100
AcDbViewTableRecord
  2
OLE1
 70
     0
 40
550.9033316255782
 10
517.312103107335
 20
1001.737015277941
 41
622.2794932048048
 11
0.0
 21
0.0
 31
1.0
 12
0.0
 22
0.0
 32
0.0
 42
50.0
 43
0.0
 44
0.0
 50
0.0
 71
     0
281
     0
 72
     0
  0
VIEW
  5
1605
330
6
100
AcDbSymbolTableRecord
100
AcDbViewTableRecord
  2
OLE2
 70
     0
 40
511.4154841477621
 10
547.3493217961971
 20
1007.621504323603
 41
610.0592947605325
 11
0.0
 21
0.0
 31
1.0
 12
0.0
 22
0.0
 32
0.0
 42
50.0
 43
0.0
 44
0.0
 50
0.0
 71
     0
281
     0
 72
     0
  0
VIEW
  5
173C
330
6
100
AcDbSymbolTableRecord
100
AcDbViewTableRecord
  2
OLE3
 70
     0
 40
544.4370527720906
 10
547.4719826956791
 20
995.4072048537783
 41
565.8154710746596
 11
0.0
 21
0.0
 31
1.0
 12
0.0
 22
0.0
 32
0.0
 42
50.0
 43
0.0
 44
0.0
 50
0.0
 71
     0
281
     0
 72
     0
  0
ENDTAB
  0
TABLE
  2
UCS
  5
7
330
0
100
AcDbSymbolTable
 70
     0
  0
ENDTAB
  0
TABLE
  2
APPID
  5
9
330
0
100
AcDbSymbolTable
 70
    22
  0
APPID
  5
12
330
9
100
AcDbSymbolTableRecord
100
AcDbRegAppTableRecord
  2
ACAD
 70
     0
  0
APPID
  5
9E
330
9
100
AcDbSymbolTableRecord
100
AcDbRegAppTableRecord
  2
ACAD_PSEXT
 70
     0
  0
APPID
  5
1BB
330
9
100
AcDbSymbolTableRecord
100
AcDbRegAppTableRecord
  2
ACAD_DSTYLE_DIMJOGGED_JOGANGLE_SYMBOL
 70
     0
  0
APPID
  5
1BC
330
9
100
AcDbSymbolTableRecord
100
AcDbRegAppTableRecord
  2
ACAD_DSTYLE_DIMINSPECT
 70
     0
  0
APPID
  5
1BD
330
9
100
AcDbSymbolTableRecord
100
AcDbRegAppTableRecord
  2
ACAD_DSTYLE_DIMARC_LENGTH_SYMBOL
 70
     0
  0
APPID
  5
A79
330
9
100
AcDbSymbolTableRecord
100
AcDbRegAppTableRecord
  2
ACAD_EXEMPT_FROM_CAD_STANDARDS
 70
     0
  0
APPID
  5
1785
330
9
100
AcDbSymbolTableRecord
100
AcDbRegAppTableRecord
  2
ACAD_MLEADERVER
 70
     0
  0
APPID
  5
223E
330
9
100
AcDbSymbolTableRecord
100
AcDbRegAppTableRecord
  2
GENIUS_GENDIM_13
 70
     0
  0
APPID
  5
223F
330
9
100
AcDbSymbolTableRecord
100
AcDbRegAppTableRecord
  2
GENIUS_GENDTOL_13
 70
     0
  0
APPID
  5
2240
330
9
100
AcDbSymbolTableRecord
100
AcDbRegAppTableRecord
  2
GENIUS_GE3DTOL_13
 70
     0
  0
APPID
  5
2243
330
9
100
AcDbSymbolTableRecord
100
AcDbRegAppTableRecord
  2
MCAD_NO_VIS
 70
     0
  0
APPID
  5
2244
330
9
100
AcDbSymbolTableRecord
100
AcDbRegAppTableRecord
  2
ACAD_TEMP_GRAPHIC
 70
     0
  0
APPID
  5
2276
330
9
100
AcDbSymbolTableRecord
100
AcDbRegAppTableRecord
  2
AD_DRAW
 70
     0
  0
APPID
  5
2279
330
9
100
AcDbSymbolTableRecord
100
AcDbRegAppTableRecord
  2
ACATTRIBSERVICES
 70
     0
  0
APPID
  5
22C5
330
9
100
AcDbSymbolTableRecord
100
AcDbRegAppTableRecord
  2
ASURF_PCURVE_APPNAME
 70
     0
  0
APPID
  5
22CA
330
9
100
AcDbSymbolTableRecord
100
AcDbRegAppTableRecord
  2
AMG_3D2D_5.0
 70
     0
  0
APPID
  5
22FB
330
9
100
AcDbSymbolTableRecord
100
AcDbRegAppTableRecord
  2
DESIGNERASSEMBLIES
 70
     0
  0
APPID
  5
2302
330
9
100
AcDbSymbolTableRecord
100
AcDbRegAppTableRecord
  2
ACADM_DIM_EDIT
 70
     0
  0
APPID
  5
2303
330
9
100
AcDbSymbolTableRecord
100
AcDbRegAppTableRecord
  2
AMDT_DM_ADJ
 70
     0
  0
APPID
  5
2347
330
9
100
AcDbSymbolTableRecord
100
AcDbRegAppTableRecord
  2
GENIUS_GENSCREG_15
 70
     0
  0
APPID
  5
2348
330
9
100
AcDbSymbolTableRecord
100
AcDbRegAppTableRecord
  2
GENIUS_GENOBJ-N-SDF_13
 70
     0
  0
APPID
  5
2349
330
9
100
AcDbSymbolTableRecord
100
AcDbRegAppTableRecord
  2
GENIUS_GENODEF_13
 70
     0
  0
ENDTAB
  0
TABLE
  2
DIMSTYLE
  5
A
330
0
100
AcDbSymbolTable
 70
    11
100
AcDbDimStyleTable
 71
     1
340
27
  0
DIMSTYLE
105
27
102
{ACAD_REACTORS
330
1FDD
330
1FDE
102
}
330
A
100
AcDbSymbolTableRecord
100
AcDbDimStyleTableRecord
  2
ISO-25
 70
     0
 41
2.5
 42
0.625
 43
3.75
 44
1.25
 73
     0
 74
     0
 77
     1
 78
     8
140
2.5
141
2.5
143
0.03937007874016
147
0.625
171
     3
172
     1
271
     2
272
     2
274
     3
278
    44
283
     0
284
     8
340
11
  0
DIMSTYLE
105
1B7
330
A
100
AcDbSymbolTableRecord
100
AcDbDimStyleTableRecord
  2
AM_ISO$SF
 70
     0
  4
"
 41
2.5
 42
1.0
 43
10.0
 44
1.0
 47
0.1
 48
0.1
 73
     0
 74
     0
 75
     1
 76
     1
 77
     1
 78
     8
 79
     2
140
3.5
141
0.0
143
0.0393701
146
0.71
147
1.5
172
     1
176
   256
177
   256
178
     2
271
     2
272
     3
274
     4
283
     0
284
     8
340
11
371
    -1
372
    -1
1001
ACAD_DSTYLE_DIMJOGGED_JOGANGLE_SYMBOL
1070
   384
1040
0.7853981633974483
1001
ACAD_DSTYLE_DIMARC_LENGTH_SYMBOL
1070
   379
1070
     1
  0
DIMSTYLE
105
1B8
330
A
100
AcDbSymbolTableRecord
100
AcDbDimStyleTableRecord
  2
AM_ISO$SH
 70
     0
  4
"
 41
2.5
 42
1.0
 43
10.0
 44
1.0
 47
0.1
 48
0.1
 73
     0
 74
     0
 75
     1
 76
     1
 77
     1
 78
     8
 79
     2
140
3.5
141
0.0
143
0.0393701
144
2.0
146
0.71
147
1.5
172
     1
173
     1
176
   256
177
   256
178
     2
271
     2
272
     3
274
     4
283
     0
284
     8
340
11
343
F3
371
    -1
372
    -1
1001
ACAD_DSTYLE_DIMJOGGED_JOGANGLE_SYMBOL
1070
   384
1040
0.7853981633974483
1001
ACAD_DSTYLE_DIMARC_LENGTH_SYMBOL
1070
   379
1070
     1
  0
DIMSTYLE
105
1B9
330
A
100
AcDbSymbolTableRecord
100
AcDbDimStyleTableRecord
  2
AM_JIS
 70
     0
  4
"
 40
3.0
 41
3.0
 42
2.0
 43
10.0
 44
1.0
 47
0.1
 48
0.1
 73
     0
 74
     0
 77
     3
 78
     8
 79
     2
140
3.5
141
0.0
143
0.0393701
146
0.71
147
1.5
172
     1
176
   256
177
   256
178
   256
271
     2
272
     2
283
     0
284
     8
340
11
341
F7
342
F7
371
    -1
372
    -1
1001
ACAD_DSTYLE_DIMJOGGED_JOGANGLE_SYMBOL
1070
   384
1040
0.7853981633974483
1001
ACAD_DSTYLE_DIMARC_LENGTH_SYMBOL
1070
   379
1070
     1
  0
DIMSTYLE
105
1BA
102
{ACAD_REACTORS
330
1E85
330
1E86
330
1E87
330
1E88
330
1E89
330
1E8E
330
1E8F
330
1E90
330
1E91
102
}
330
A
100
AcDbSymbolTableRecord
100
AcDbDimStyleTableRecord
  2
AM_JIS$0
 70
     0
  4
"
 40
3.0
 41
3.0
 42
2.0
 43
10.0
 44
1.0
 47
0.1
 48
0.1
 73
     0
 74
     0
 77
     3
 78
     8
 79
     2
140
3.5
141
0.0
143
0.0393701
146
0.71
147
1.5
172
     1
176
   256
177
   256
178
   256
271
     2
272
     2
283
     0
284
     8
340
11
341
F7
342
F7
371
    -1
372
    -1
1001
ACAD_DSTYLE_DIMJOGGED_JOGANGLE_SYMBOL
1070
   384
1040
0.7853981633974483
1001
ACAD_DSTYLE_DIMARC_LENGTH_SYMBOL
1070
   379
1070
     1
  0
DIMSTYLE
105
2330
330
A
100
AcDbSymbolTableRecord
100
AcDbDimStyleTableRecord
  2
AM_ISO
 70
     0
  4
"
 41
2.5
 42
1.0
 43
10.0
 44
1.0
 47
0.1
 48
0.1
 73
     0
 74
     0
 77
     1
 78
     8
 79
     2
140
3.5
141
0.0
143
0.0393701
146
0.71
147
1.5
172
     1
176
   256
177
   256
178
     2
271
     2
272
     3
274
     4
283
     0
284
     8
340
11
371
    -1
372
    -1
1001
ACAD_DSTYLE_DIMARC_LENGTH_SYMBOL
1070
   379
1070
     1
1001
ACAD_DSTYLE_DIMJOGGED_JOGANGLE_SYMBOL
1070
   384
1040
0.7853981633974483
  0
DIMSTYLE
105
2339
330
A
100
AcDbSymbolTableRecord
100
AcDbDimStyleTableRecord
  2
AM_ISO$3
 70
     0
  4
"
 41
2.5
 42
1.0
 43
10.0
 44
1.0
 47
0.1
 48
0.1
 73
     0
 77
     1
 78
     8
 79
     2
140
3.5
141
0.0
143
0.0393701
146
0.71
147
1.5
176
   256
177
   256
178
     2
271
     2
272
     3
274
     4
283
     0
284
     8
288
     1
289
     0
340
11
371
    -1
372
    -1
1001
ACAD_DSTYLE_DIMARC_LENGTH_SYMBOL
1070
   379
1070
     1
1001
ACAD_DSTYLE_DIMJOGGED_JOGANGLE_SYMBOL
1070
   384
1040
0.7853981633974483
  0
DIMSTYLE
105
233C
330
A
100
AcDbSymbolTableRecord
100
AcDbDimStyleTableRecord
  2
AM_ISO$4
 70
     0
  4
"
 41
2.5
 42
1.0
 43
10.0
 44
1.0
 47
0.1
 48
0.1
 73
     0
 77
     1
 78
     8
 79
     2
140
3.5
141
0.0
143
0.0393701
146
0.71
147
1.5
176
   256
177
   256
178
     2
271
     2
272
     3
274
     4
283
     0
284
     8
288
     1
289
     0
340
11
371
    -1
372
    -1
1001
ACAD_DSTYLE_DIMARC_LENGTH_SYMBOL
1070
   379
1070
     1
1001
ACAD_DSTYLE_DIMJOGGED_JOGANGLE_SYMBOL
1070
   384
1040
0.7853981633974483
  0
DIMSTYLE
105
233F
330
A
100
AcDbSymbolTableRecord
100
AcDbDimStyleTableRecord
  2
AM_ISO$6
 70
     0
  4
"
 41
2.5
 42
1.0
 43
10.0
 44
1.0
 47
0.1
 48
0.1
 73
     0
 74
     0
 78
     8
 79
     2
140
3.5
141
0.0
143
0.0393701
146
0.71
147
1.5
172
     1
176
   256
177
   256
178
     2
271
     2
272
     3
274
     4
283
     0
284
     8
340
11
371
    -1
372
    -1
1001
ACAD_DSTYLE_DIMARC_LENGTH_SYMBOL
1070
   379
1070
     1
1001
ACAD_DSTYLE_DIMJOGGED_JOGANGLE_SYMBOL
1070
   384
1040
0.7853981633974483
  0
DIMSTYLE
105
2342
330
A
100
AcDbSymbolTableRecord
100
AcDbDimStyleTableRecord
  2
AM_ISO$7
 70
     0
  4
"
 41
2.5
 42
1.0
 43
10.0
 44
1.0
 47
0.1
 48
0.1
 73
     0
 74
     0
 77
     1
 78
     8
 79
     2
140
5.0
141
0.0
143
0.0393701
146
0.71
147
1.5
172
     1
176
   256
177
   256
178
     2
271
     2
272
     3
274
     4
283
     0
284
     8
340
11
371
    -1
372
    -1
1001
ACAD_DSTYLE_DIMARC_LENGTH_SYMBOL
1070
   379
1070
     1
1001
ACAD_DSTYLE_DIMJOGGED_JOGANGLE_SYMBOL
1070
   384
1040
0.7853981633974483
  0
ENDTAB
  0
TABLE
  2
BLOCK_RECORD
  5
1
330
0
100
AcDbSymbolTable
 70
    43
  0
BLOCK_RECORD
  5
1F
102
{ACAD_XDICTIONARY
360
15E9
102
}
330
1
100
AcDbSymbolTableRecord
100
AcDbBlockTableRecord
  2
*Model_Space
340
22
  0
BLOCK_RECORD
  5
182D
330
1
100
AcDbSymbolTableRecord
100
AcDbBlockTableRecord
  2
*Paper_Space
340
182E
  0
BLOCK_RECORD
  5
F3
330
1
100
AcDbSymbolTableRecord
100
AcDbBlockTableRecord
  2
GENAXEH
340
0
  0
BLOCK_RECORD
  5
F7
330
1
100
AcDbSymbolTableRecord
100
AcDbBlockTableRecord
  2
_OPEN30
340
0
102
{BLKREFS
331
16DB
331
16DC
331
16E4
331
16E5
331
16EE
331
16EF
331
16F7
331
16F8
331
1709
331
170A
331
18CE
331
18CF
331
18D8
331
18D9
331
18EB
331
18EC
331
18F4
331
18F5
331
18FD
331
18FE
331
1909
331
1912
331
193A
331
193B
331
1943
331
1944
331
194D
331
194E
331
19EC
331
19ED
331
19F8
331
19F9
331
197E
331
197F
331
198A
331
198B
331
1996
331
1997
331
19A2
331
19A3
331
19B0
331
19B1
331
19BC
331
19BD
331
19C8
331
19C9
331
19D4
331
19D5
331
19E0
331
19E1
331
212B
331
212C
331
2134
331
2135
331
213D
331
213E
331
2146
331
2147
331
2151
331
2152
331
215A
331
215B
331
2163
331
2164
331
216C
331
216D
331
2175
331
2176
331
217E
331
217F
331
2187
331
2188
102
}
  0
BLOCK_RECORD
  5
FD
330
1
100
AcDbSymbolTableRecord
100
AcDbBlockTableRecord
  2
_DotSmall
340
0
102
{BLKREFS
331
1908
331
1911
102
}
  0
BLOCK_RECORD
  5
127C
330
1
100
AcDbSymbolTableRecord
100
AcDbBlockTableRecord
  2
*D3
340
0
  0
BLOCK_RECORD
  5
1289
330
1
100
AcDbSymbolTableRecord
100
AcDbBlockTableRecord
  2
*D4
340
0
  0
BLOCK_RECORD
  5
1297
330
1
100
AcDbSymbolTableRecord
100
AcDbBlockTableRecord
  2
*D5
340
0
  0
BLOCK_RECORD
  5
12A3
330
1
100
AcDbSymbolTableRecord
100
AcDbBlockTableRecord
  2
*D6
340
0
  0
BLOCK_RECORD
  5
12AF
330
1
100
AcDbSymbolTableRecord
100
AcDbBlockTableRecord
  2
*D7
340
0
  0
BLOCK_RECORD
  5
12BB
330
1
100
AcDbSymbolTableRecord
100
AcDbBlockTableRecord
  2
*D8
340
0
  0
BLOCK_RECORD
  5
12C7
330
1
100
AcDbSymbolTableRecord
100
AcDbBlockTableRecord
  2
*D9
340
0
  0
BLOCK_RECORD
  5
12D3
330
1
100
AcDbSymbolTableRecord
100
AcDbBlockTableRecord
  2
*D10
340
0
  0
BLOCK_RECORD
  5
12E0
330
1
100
AcDbSymbolTableRecord
100
AcDbBlockTableRecord
  2
*D11
340
0
  0
BLOCK_RECORD
  5
12EC
330
1
100
AcDbSymbolTableRecord
100
AcDbBlockTableRecord
  2
*D12
340
0
  0
BLOCK_RECORD
  5
12F8
330
1
100
AcDbSymbolTableRecord
100
AcDbBlockTableRecord
  2
*D13
340
0
  0
BLOCK_RECORD
  5
1304
330
1
100
AcDbSymbolTableRecord
100
AcDbBlockTableRecord
  2
*D14
340
0
  0
BLOCK_RECORD
  5
1311
330
1
100
AcDbSymbolTableRecord
100
AcDbBlockTableRecord
  2
*D15
340
0
  0
BLOCK_RECORD
  5
131E
330
1
100
AcDbSymbolTableRecord
100
AcDbBlockTableRecord
  2
*D16
340
0
  0
BLOCK_RECORD
  5
14C7
330
1
100
AcDbSymbolTableRecord
100
AcDbBlockTableRecord
  2
*D17
340
0
  0
BLOCK_RECORD
  5
188F
330
1
100
AcDbSymbolTableRecord
100
AcDbBlockTableRecord
  2
*D18
340
0
  0
BLOCK_RECORD
  5
1979
330
1
100
AcDbSymbolTableRecord
100
AcDbBlockTableRecord
  2
*D19
340
0
  0
BLOCK_RECORD
  5
1985
330
1
100
AcDbSymbolTableRecord
100
AcDbBlockTableRecord
  2
*D20
340
0
  0
BLOCK_RECORD
  5
1991
330
1
100
AcDbSymbolTableRecord
100
AcDbBlockTableRecord
  2
*D21
340
0
  0
BLOCK_RECORD
  5
199D
330
1
100
AcDbSymbolTableRecord
100
AcDbBlockTableRecord
  2
*D22
340
0
  0
BLOCK_RECORD
  5
19A9
330
1
100
AcDbSymbolTableRecord
100
AcDbBlockTableRecord
  2
*D23
340
0
  0
BLOCK_RECORD
  5
19B7
330
1
100
AcDbSymbolTableRecord
100
AcDbBlockTableRecord
  2
*D24
340
0
  0
BLOCK_RECORD
  5
19C3
330
1
100
AcDbSymbolTableRecord
100
AcDbBlockTableRecord
  2
*D25
340
0
  0
BLOCK_RECORD
  5
19CF
330
1
100
AcDbSymbolTableRecord
100
AcDbBlockTableRecord
  2
*D26
340
0
  0
BLOCK_RECORD
  5
19DB
330
1
100
AcDbSymbolTableRecord
100
AcDbBlockTableRecord
  2
*D27
340
0
  0
BLOCK_RECORD
  5
19E7
330
1
100
AcDbSymbolTableRecord
100
AcDbBlockTableRecord
  2
*D28
340
0
  0
BLOCK_RECORD
  5
19F3
330
1
100
AcDbSymbolTableRecord
100
AcDbBlockTableRecord
  2
*D29
340
0
  0
BLOCK_RECORD
  5
1FE1
330
1
100
AcDbSymbolTableRecord
100
AcDbBlockTableRecord
  2
*D30
340
0
  0
BLOCK_RECORD
  5
1FED
330
1
100
AcDbSymbolTableRecord
100
AcDbBlockTableRecord
  2
*D31
340
0
  0
BLOCK_RECORD
  5
1FF9
330
1
100
AcDbSymbolTableRecord
100
AcDbBlockTableRecord
  2
*D32
340
0
  0
BLOCK_RECORD
  5
2005
330
1
100
AcDbSymbolTableRecord
100
AcDbBlockTableRecord
  2
*D33
340
0
  0
BLOCK_RECORD
  5
2011
330
1
100
AcDbSymbolTableRecord
100
AcDbBlockTableRecord
  2
*D34
340
0
  0
BLOCK_RECORD
  5
201D
330
1
100
AcDbSymbolTableRecord
100
AcDbBlockTableRecord
  2
*D35
340
0
  0
BLOCK_RECORD
  5
202B
330
1
100
AcDbSymbolTableRecord
100
AcDbBlockTableRecord
  2
*D36
340
0
  0
BLOCK_RECORD
  5
2037
330
1
100
AcDbSymbolTableRecord
100
AcDbBlockTableRecord
  2
*D37
340
0
  0
BLOCK_RECORD
  5
2043
330
1
100
AcDbSymbolTableRecord
100
AcDbBlockTableRecord
  2
*D38
340
0
  0
BLOCK_RECORD
  5
204F
330
1
100
AcDbSymbolTableRecord
100
AcDbBlockTableRecord
  2
*D39
340
0
  0
BLOCK_RECORD
  5
2064
330
1
100
AcDbSymbolTableRecord
100
AcDbBlockTableRecord
  2
*D40
340
0
  0
ENDTAB
  0
ENDSEC
  0
SECTION
  2
BLOCKS
  0
BLOCK
  5
20
330
1F
100
AcDbEntity
  8
0
100
AcDbBlockBegin
  2
*Model_Space
 70
     0
 10
0.0
 20
0.0
 30
0.0
  3
*Model_Space
  1

  0
ENDBLK
  5
21
330
1F
100
AcDbEntity
  8
0
100
AcDbBlockEnd
  0
BLOCK
  5
182F
330
182D
100
AcDbEntity
 67
     1
  8
0
100
AcDbBlockBegin
  2
*Paper_Space
 70
     0
 10
0.0
 20
0.0
 30
0.0
  3
*Paper_Space
  1

  0
ENDBLK
  5
1830
330
182D
100
AcDbEntity
 67
     1
  8
0
100
AcDbBlockEnd
  0
BLOCK
  5
F4
330
F3
100
AcDbEntity
  8
0
100
AcDbBlockBegin
  2
GENAXEH
 70
     0
 10
0.0
 20
0.0
 30
0.0
  3
GENAXEH
  1

  0
LINE
  5
F5
330
F3
100
AcDbEntity
  8
0
100
AcDbLine
 10
-1.0
 20
0.0
 30
0.0
 11
1.0
 21
0.0
 31
0.0
  0
ENDBLK
  5
F6
330
F3
100
AcDbEntity
  8
0
100
AcDbBlockEnd
  0
BLOCK
  5
F8
330
F7
100
AcDbEntity
  8
0
100
AcDbBlockBegin
  2
_OPEN30
 70
     0
 10
0.0
 20
0.0
 30
0.0
  3
_OPEN30
  1

  0
LINE
  5
F9
330
F7
100
AcDbEntity
  8
0
  6
ByBlock
 62
     0
100
AcDbLine
 10
-1.0
 20
0.26794919
 30
0.0
 11
0.0
 21
0.0
 31
0.0
  0
LINE
  5
FA
330
F7
100
AcDbEntity
  8
0
  6
ByBlock
 62
     0
100
AcDbLine
 10
0.0
 20
0.0
 30
0.0
 11
-1.0
 21
-0.26794919
 31
0.0
  0
LINE
  5
FB
330
F7
100
AcDbEntity
  8
0
  6
ByBlock
 62
     0
100
AcDbLine
 10
0.0
 20
0.0
 30
0.0
 11
-1.0
 21
0.0
 31
0.0
  0
ENDBLK
  5
FC
330
F7
100
AcDbEntity
  8
0
100
AcDbBlockEnd
  0
BLOCK
  5
FE
330
FD
100
AcDbEntity
  8
0
100
AcDbBlockBegin
  2
_DotSmall
 70
     0
 10
0.0
 20
0.0
 30
0.0
  3
_DotSmall
  1

  0
LWPOLYLINE
  5
FF
330
FD
100
AcDbEntity
  8
0
  6
ByBlock
 62
     0
100
AcDbPolyline
 90
        2
 70
     1
 43
0.5
 10
-0.0625
 20
0.0
 42
1.0
 10
0.0625
 20
0.0
 42
1.0
  0
ENDBLK
  5
100
330
FD
100
AcDbEntity
  8
0
100
AcDbBlockEnd
  0
BLOCK
  5
1287
330
127C
100
AcDbEntity
  8
0
100
AcDbBlockBegin
  2
*D3
 70
     1
 10
0.0
 20
0.0
 30
0.0
  3
*D3
  1

  0
LINE
  5
190E
330
127C
100
AcDbEntity
  8
0
100
AcDbLine
 10
388.1658092246817
 20
1131.414328215956
 30
0.0
 11
388.1658092246817
 21
1166.477431072831
 31
0.0
  0
LINE
  5
190F
330
127C
100
AcDbEntity
  8
0
100
AcDbLine
 10
414.1658092246816
 20
1134.414328215956
 30
0.0
 11
414.1658092246816
 21
1166.477431072831
 31
0.0
  0
LINE
  5
1910
330
127C
100
AcDbEntity
  8
0
100
AcDbLine
 10
388.1658092246817
 20
1163.477431072831
 30
0.0
 11
405.1658092246817
 21
1163.477431072831
 31
0.0
  0
INSERT
  5
1911
330
127C
100
AcDbEntity
  8
0
100
AcDbBlockReference
  2
_DotSmall
 10
388.1658092246817
 20
1163.477431072831
 30
0.0
 41
9.0
 42
9.0
 43
9.0
 50
180.0
  0
INSERT
  5
1912
330
127C
100
AcDbEntity
  8
0
100
AcDbBlockReference
  2
_OPEN30
 10
414.1658092246816
 20
1163.477431072831
 30
0.0
 41
9.0
 42
9.0
 43
9.0
  0
MTEXT
  5
1913
330
127C
100
AcDbEntity
  8
0
370
    50
100
AcDbMText
 10
405.1658092246817
 20
1173.227431072831
 30
0.0
 40
10.5
 41
0.0
 71
     5
 72
     1
  1
26
 73
     1
 44
1.0
1001
ACAD
1000
MTEXTBEGIN
1070
    73
1070
     1
1070
    44
1040
1.0
1070
    74
1070
     0
1000
MTEXTEND
  0
POINT
  5
1914
330
127C
100
AcDbEntity
  8
Defpoints
 62
     0
100
AcDbPoint
 10
388.1658092246817
 20
1125.414328215956
 30
0.0
  0
POINT
  5
1915
330
127C
100
AcDbEntity
  8
Defpoints
 62
     0
100
AcDbPoint
 10
414.1658092246816
 20
1128.414328215955
 30
0.0
  0
POINT
  5
1916
330
127C
100
AcDbEntity
  8
Defpoints
 62
     0
100
AcDbPoint
 10
414.1658092246816
 20
1163.477431072831
 30
0.0
  0
ENDBLK
  5
1288
330
127C
100
AcDbEntity
  8
0
100
AcDbBlockEnd
  0
BLOCK
  5
1295
330
1289
100
AcDbEntity
  8
0
100
AcDbBlockBegin
  2
*D4
 70
     1
 10
0.0
 20
0.0
 30
0.0
  3
*D4
  1

  0
LINE
  5
1903
330
1289
100
AcDbEntity
  8
0
100
AcDbLine
 10
388.1658092246817
 20
1131.414328215956
 30
0.0
 11
388.1658092246817
 21
1166.512982706322
 31
0.0
  0
LINE
  5
1904
330
1289
100
AcDbEntity
  8
0
100
AcDbLine
 10
382.1658092246819
 20
1072.414328215956
 30
0.0
 11
382.1658092246819
 21
1166.512982706322
 31
0.0
  0
LINE
  5
1905
330
1289
100
AcDbEntity
  8
0
100
AcDbLine
 10
388.1658092246817
 20
1163.512982706322
 30
0.0
 11
397.1658092246817
 21
1163.512982706322
 31
0.0
  0
LINE
  5
1906
330
1289
100
AcDbEntity
  8
0
100
AcDbLine
 10
373.1658092246819
 20
1163.512982706322
 30
0.0
 11
348.1658092246819
 21
1163.512982706322
 31
0.0
  0
LINE
  5
1907
330
1289
100
AcDbEntity
  8
0
100
AcDbLine
 10
388.1658092246817
 20
1163.512982706322
 30
0.0
 11
382.1658092246819
 21
1163.512982706322
 31
0.0
  0
INSERT
  5
1908
330
1289
100
AcDbEntity
  8
0
100
AcDbBlockReference
  2
_DotSmall
 10
388.1658092246817
 20
1163.512982706322
 30
0.0
 41
9.0
 42
9.0
 43
9.0
 50
180.0
  0
INSERT
  5
1909
330
1289
100
AcDbEntity
  8
0
100
AcDbBlockReference
  2
_OPEN30
 10
382.1658092246819
 20
1163.512982706322
 30
0.0
 41
9.0
 42
9.0
 43
9.0
  0
MTEXT
  5
190A
330
1289
100
AcDbEntity
  8
0
370
    50
100
AcDbMText
 10
356.1658092246819
 20
1173.262982706322
 30
0.0
 40
10.5
 41
0.0
 71
     5
 72
     1
  1
6
 73
     1
 44
1.0
1001
ACAD
1000
MTEXTBEGIN
1070
    73
1070
     1
1070
    44
1040
1.0
1070
    74
1070
     0
1000
MTEXTEND
  0
POINT
  5
190B
330
1289
100
AcDbEntity
  8
Defpoints
 62
     0
100
AcDbPoint
 10
388.1658092246817
 20
1125.414328215956
 30
0.0
  0
POINT
  5
190C
330
1289
100
AcDbEntity
  8
Defpoints
 62
     0
100
AcDbPoint
 10
382.1658092246819
 20
1066.414328215956
 30
0.0
  0
POINT
  5
190D
330
1289
100
AcDbEntity
  8
Defpoints
 62
     0
100
AcDbPoint
 10
382.1658092246819
 20
1163.512982706322
 30
0.0
  0
ENDBLK
  5
1296
330
1289
100
AcDbEntity
  8
0
100
AcDbBlockEnd
  0
BLOCK
  5
12A1
330
1297
100
AcDbEntity
  8
0
100
AcDbBlockBegin
  2
*D5
 70
     1
 10
0.0
 20
0.0
 30
0.0
  3
*D5
  1

  0
LINE
  5
18FA
330
1297
100
AcDbEntity
  8
0
100
AcDbLine
 10
512.1658092246816
 20
1132.414328215956
 30
0.0
 11
512.1658092246816
 21
1166.489969942971
 31
0.0
  0
LINE
  5
18FB
330
1297
100
AcDbEntity
  8
0
100
AcDbLine
 10
414.1658092246816
 20
1147.814328215956
 30
0.0
 11
414.1658092246816
 21
1166.489969942971
 31
0.0
  0
LINE
  5
18FC
330
1297
100
AcDbEntity
  8
0
100
AcDbLine
 10
503.1658092246816
 20
1163.489969942971
 30
0.0
 11
423.1658092246816
 21
1163.489969942971
 31
0.0
  0
INSERT
  5
18FD
330
1297
100
AcDbEntity
  8
0
100
AcDbBlockReference
  2
_OPEN30
 10
512.1658092246816
 20
1163.489969942971
 30
0.0
 41
9.0
 42
9.0
 43
9.0
  0
INSERT
  5
18FE
330
1297
100
AcDbEntity
  8
0
100
AcDbBlockReference
  2
_OPEN30
 10
414.1658092246816
 20
1163.489969942971
 30
0.0
 41
9.0
 42
9.0
 43
9.0
 50
180.0
  0
MTEXT
  5
18FF
330
1297
100
AcDbEntity
  8
0
370
    50
100
AcDbMText
 10
463.1658092246818
 20
1173.239969942971
 30
0.0
 40
10.5
 41
0.0
 71
     5
 72
     1
  1
98
 73
     1
 44
1.0
1001
ACAD
1000
MTEXTBEGIN
1070
    73
1070
     1
1070
    44
1040
1.0
1070
    74
1070
     0
1000
MTEXTEND
  0
POINT
  5
1900
330
1297
100
AcDbEntity
  8
Defpoints
 62
     0
100
AcDbPoint
 10
512.1658092246816
 20
1126.414328215955
 30
0.0
  0
POINT
  5
1901
330
1297
100
AcDbEntity
  8
Defpoints
 62
     0
100
AcDbPoint
 10
414.1658092246816
 20
1141.814328215956
 30
0.0
  0
POINT
  5
1902
330
1297
100
AcDbEntity
  8
Defpoints
 62
     0
100
AcDbPoint
 10
414.1658092246816
 20
1163.489969942971
 30
0.0
  0
ENDBLK
  5
12A2
330
1297
100
AcDbEntity
  8
0
100
AcDbBlockEnd
  0
BLOCK
  5
12AD
330
12A3
100
AcDbEntity
  8
0
100
AcDbBlockBegin
  2
*D6
 70
     1
 10
0.0
 20
0.0
 30
0.0
  3
*D6
  1

  0
LINE
  5
18F1
330
12A3
100
AcDbEntity
  8
0
100
AcDbLine
 10
512.1658092246816
 20
1132.414328215956
 30
0.0
 11
512.1658092246816
 21
1185.826276966016
 31
0.0
  0
LINE
  5
18F2
330
12A3
100
AcDbEntity
  8
0
100
AcDbLine
 10
382.1658092246819
 20
1072.414328215956
 30
0.0
 11
382.1658092246819
 21
1185.826276966016
 31
0.0
  0
LINE
  5
18F3
330
12A3
100
AcDbEntity
  8
0
100
AcDbLine
 10
503.1658092246816
 20
1182.826276966016
 30
0.0
 11
391.1658092246819
 21
1182.826276966016
 31
0.0
  0
INSERT
  5
18F4
330
12A3
100
AcDbEntity
  8
0
100
AcDbBlockReference
  2
_OPEN30
 10
512.1658092246816
 20
1182.826276966016
 30
0.0
 41
9.0
 42
9.0
 43
9.0
  0
INSERT
  5
18F5
330
12A3
100
AcDbEntity
  8
0
100
AcDbBlockReference
  2
_OPEN30
 10
382.1658092246819
 20
1182.826276966016
 30
0.0
 41
9.0
 42
9.0
 43
9.0
 50
180.0
  0
MTEXT
  5
18F6
330
12A3
100
AcDbEntity
  8
0
370
    50
100
AcDbMText
 10
447.1658092246816
 20
1192.576276966016
 30
0.0
 40
10.5
 41
0.0
 71
     5
 72
     1
  1
130
 73
     1
 44
1.0
1001
ACAD
1000
MTEXTBEGIN
1070
    73
1070
     1
1070
    44
1040
1.0
1070
    74
1070
     0
1000
MTEXTEND
  0
POINT
  5
18F7
330
12A3
100
AcDbEntity
  8
Defpoints
 62
     0
100
AcDbPoint
 10
512.1658092246816
 20
1126.414328215955
 30
0.0
  0
POINT
  5
18F8
330
12A3
100
AcDbEntity
  8
Defpoints
 62
     0
100
AcDbPoint
 10
382.1658092246819
 20
1066.414328215956
 30
0.0
  0
POINT
  5
18F9
330
12A3
100
AcDbEntity
  8
Defpoints
 62
     0
100
AcDbPoint
 10
382.1658092246819
 20
1182.826276966016
 30
0.0
  0
ENDBLK
  5
12AE
330
12A3
100
AcDbEntity
  8
0
100
AcDbBlockEnd
  0
BLOCK
  5
12B9
330
12AF
100
AcDbEntity
  8
0
100
AcDbBlockBegin
  2
*D7
 70
     1
 10
0.0
 20
0.0
 30
0.0
  3
*D7
  1

  0
LINE
  5
1706
330
12AF
100
AcDbEntity
  8
0
100
AcDbLine
 10
576.1066853693262
 20
812.4143282159566
 30
0.0
 11
576.1066853693262
 21
759.1644673211972
 31
0.0
  0
LINE
  5
1707
330
12AF
100
AcDbEntity
  8
0
100
AcDbLine
 10
766.1066853693263
 20
812.4143282159566
 30
0.0
 11
766.1066853693263
 21
759.1644673211972
 31
0.0
  0
LINE
  5
1708
330
12AF
100
AcDbEntity
  8
0
100
AcDbLine
 10
585.1066853693262
 20
762.1644673211972
 30
0.0
 11
757.1066853693261
 21
762.1644673211972
 31
0.0
  0
INSERT
  5
1709
330
12AF
100
AcDbEntity
  8
0
100
AcDbBlockReference
  2
_OPEN30
 10
576.1066853693262
 20
762.1644673211972
 30
0.0
 41
9.0
 42
9.0
 43
9.0
 50
180.0
  0
INSERT
  5
170A
330
12AF
100
AcDbEntity
  8
0
100
AcDbBlockReference
  2
_OPEN30
 10
766.1066853693263
 20
762.1644673211972
 30
0.0
 41
9.0
 42
9.0
 43
9.0
  0
MTEXT
  5
170B
330
12AF
100
AcDbEntity
  8
0
370
    50
100
AcDbMText
 10
671.1066853693262
 20
771.9144673211972
 30
0.0
 40
10.5
 41
0.0
 71
     5
 72
     1
  1
190
 73
     1
 44
1.0
1001
ACAD
1000
MTEXTBEGIN
1070
    73
1070
     1
1070
    44
1040
1.0
1070
    74
1070
     0
1000
MTEXTEND
  0
POINT
  5
170C
330
12AF
100
AcDbEntity
  8
Defpoints
 62
     0
100
AcDbPoint
 10
576.1066853693262
 20
818.4143282159565
 30
0.0
  0
POINT
  5
170D
330
12AF
100
AcDbEntity
  8
Defpoints
 62
     0
100
AcDbPoint
 10
766.1066853693263
 20
818.4143282159565
 30
0.0
  0
POINT
  5
170E
330
12AF
100
AcDbEntity
  8
Defpoints
 62
     0
100
AcDbPoint
 10
766.1066853693263
 20
762.1644673211972
 30
0.0
  0
ENDBLK
  5
12BA
330
12AF
100
AcDbEntity
  8
0
100
AcDbBlockEnd
  0
BLOCK
  5
12C5
330
12BB
100
AcDbEntity
  8
0
100
AcDbBlockBegin
  2
*D8
 70
     1
 10
0.0
 20
0.0
 30
0.0
  3
*D8
  1

  0
LINE
  5
18E8
330
12BB
100
AcDbEntity
  8
0
100
AcDbLine
 10
770.1066853693263
 20
816.4143282159566
 30
0.0
 11
809.4917591865861
 21
816.4143282159566
 31
0.0
  0
LINE
  5
18E9
330
12BB
100
AcDbEntity
  8
0
100
AcDbLine
 10
772.1573409261984
 20
1128.407115271129
 30
0.0
 11
809.4917591865861
 21
1128.407115271129
 31
0.0
  0
LINE
  5
18EA
330
12BB
100
AcDbEntity
  8
0
100
AcDbLine
 10
806.4917591865862
 20
825.4143282159565
 30
0.0
 11
806.4917591865862
 21
1119.40711527113
 31
0.0
  0
INSERT
  5
18EB
330
12BB
100
AcDbEntity
  8
0
100
AcDbBlockReference
  2
_OPEN30
 10
806.4917591865862
 20
816.4143282159566
 30
0.0
 41
9.0
 42
9.0
 43
9.0
 50
270.0
  0
INSERT
  5
18EC
330
12BB
100
AcDbEntity
  8
0
100
AcDbBlockReference
  2
_OPEN30
 10
806.4917591865862
 20
1128.407115271129
 30
0.0
 41
9.0
 42
9.0
 43
9.0
 50
90.0
  0
MTEXT
  5
18ED
330
12BB
100
AcDbEntity
  8
0
370
    50
100
AcDbMText
 10
796.7417591865861
 20
972.4107217435433
 30
0.0
 40
10.5
 41
0.0
 71
     5
 72
     1
  1
312
 11
0.0000000000000001
 21
1.0
 31
0.0
 73
     1
 44
1.0
1001
ACAD
1000
MTEXTBEGIN
1070
    73
1070
     1
1070
    44
1040
1.0
1070
    74
1070
     0
1000
MTEXTEND
  0
POINT
  5
18EE
330
12BB
100
AcDbEntity
  8
Defpoints
 62
     0
100
AcDbPoint
 10
764.1066853693263
 20
816.4143282159566
 30
0.0
  0
POINT
  5
18EF
330
12BB
100
AcDbEntity
  8
Defpoints
 62
     0
100
AcDbPoint
 10
766.1573409261984
 20
1128.407115271129
 30
0.0
  0
POINT
  5
18F0
330
12BB
100
AcDbEntity
  8
Defpoints
 62
     0
100
AcDbPoint
 10
806.4917591865862
 20
1128.407115271129
 30
0.0
  0
ENDBLK
  5
12C6
330
12BB
100
AcDbEntity
  8
0
100
AcDbBlockEnd
  0
BLOCK
  5
12D1
330
12C7
100
AcDbEntity
  8
0
100
AcDbBlockBegin
  2
*D9
 70
     1
 10
0.0
 20
0.0
 30
0.0
  3
*D9
  1

  0
LINE
  5
16F4
330
12C7
100
AcDbEntity
  8
0
100
AcDbLine
 10
505.1658092246817
 20
810.4143282159565
 30
0.0
 11
505.1658092246817
 21
778.4593086819333
 31
0.0
  0
LINE
  5
16F5
330
12C7
100
AcDbEntity
  8
0
100
AcDbLine
 10
382.1658092246817
 20
810.4143282159565
 30
0.0
 11
382.1658092246817
 21
778.4593086819333
 31
0.0
  0
LINE
  5
16F6
330
12C7
100
AcDbEntity
  8
0
100
AcDbLine
 10
496.1658092246818
 20
781.4593086819331
 30
0.0
 11
391.1658092246817
 21
781.4593086819331
 31
0.0
  0
INSERT
  5
16F7
330
12C7
100
AcDbEntity
  8
0
100
AcDbBlockReference
  2
_OPEN30
 10
505.1658092246817
 20
781.4593086819331
 30
0.0
 41
9.0
 42
9.0
 43
9.0
  0
INSERT
  5
16F8
330
12C7
100
AcDbEntity
  8
0
100
AcDbBlockReference
  2
_OPEN30
 10
382.1658092246817
 20
781.4593086819331
 30
0.0
 41
9.0
 42
9.0
 43
9.0
 50
180.0
  0
MTEXT
  5
16F9
330
12C7
100
AcDbEntity
  8
0
370
    50
100
AcDbMText
 10
443.6658092246816
 20
791.2093086819331
 30
0.0
 40
10.5
 41
0.0
 71
     5
 72
     1
  1
123（A0J2）
 73
     1
 44
1.0
1001
ACAD
1000
MTEXTBEGIN
1070
    73
1070
     1
1070
    44
1040
1.0
1070
    74
1070
     0
1000
MTEXTEND
  0
POINT
  5
16FA
330
12C7
100
AcDbEntity
  8
Defpoints
 62
     0
100
AcDbPoint
 10
505.1658092246817
 20
816.4143282159566
 30
0.0
  0
POINT
  5
16FB
330
12C7
100
AcDbEntity
  8
Defpoints
 62
     0
100
AcDbPoint
 10
382.1658092246817
 20
816.4143282159566
 30
0.0
  0
POINT
  5
16FC
330
12C7
100
AcDbEntity
  8
Defpoints
 62
     0
100
AcDbPoint
 10
382.1658092246817
 20
781.4593086819331
 30
0.0
  0
ENDBLK
  5
12D2
330
12C7
100
AcDbEntity
  8
0
100
AcDbBlockEnd
  0
BLOCK
  5
12DE
330
12D3
100
AcDbEntity
  8
0
100
AcDbBlockBegin
  2
*D10
 70
     1
 10
0.0
 20
0.0
 30
0.0
  3
*D10
  1

  0
LINE
  5
16EA
330
12D3
100
AcDbEntity
  8
0
100
AcDbLine
 10
505.1658092246817
 20
810.4143282159565
 30
0.0
 11
505.1658092246817
 21
756.8536651694728
 31
0.0
  0
LINE
  5
16EB
330
12D3
100
AcDbEntity
  8
0
100
AcDbLine
 10
539.6658092246816
 20
1023.814328215957
 30
0.0
 11
539.6658092246816
 21
756.8536651694728
 31
0.0
  0
LINE
  5
16EC
330
12D3
100
AcDbEntity
  8
0
100
AcDbLine
 10
530.6658092246816
 20
759.8536651694728
 30
0.0
 11
514.1658092246816
 21
759.8536651694728
 31
0.0
  0
LINE
  5
16ED
330
12D3
100
AcDbEntity
  8
0
100
AcDbLine
 10
505.1658092246817
 20
759.8536651694728
 30
0.0
 11
392.6658092246818
 21
759.8536651694728
 31
0.0
  0
INSERT
  5
16EE
330
12D3
100
AcDbEntity
  8
0
100
AcDbBlockReference
  2
_OPEN30
 10
539.6658092246816
 20
759.8536651694728
 30
0.0
 41
9.0
 42
9.0
 43
9.0
  0
INSERT
  5
16EF
330
12D3
100
AcDbEntity
  8
0
100
AcDbBlockReference
  2
_OPEN30
 10
505.1658092246817
 20
759.8536651694728
 30
0.0
 41
9.0
 42
9.0
 43
9.0
 50
180.0
  0
MTEXT
  5
16F0
330
12D3
100
AcDbEntity
  8
0
370
    50
100
AcDbMText
 10
444.4158092246818
 20
769.6036651694728
 30
0.0
 40
10.5
 41
0.0
 71
     5
 72
     1
  1
35（増加寸法）
 73
     1
 44
1.0
1001
ACAD
1000
MTEXTBEGIN
1070
    73
1070
     1
1070
    44
1040
1.0
1070
    74
1070
     0
1000
MTEXTEND
  0
POINT
  5
16F1
330
12D3
100
AcDbEntity
  8
Defpoints
 62
     0
100
AcDbPoint
 10
505.1658092246817
 20
816.4143282159566
 30
0.0
  0
POINT
  5
16F2
330
12D3
100
AcDbEntity
  8
Defpoints
 62
     0
100
AcDbPoint
 10
539.6658092246816
 20
1029.814328215957
 30
0.0
  0
POINT
  5
16F3
330
12D3
100
AcDbEntity
  8
Defpoints
 62
     0
100
AcDbPoint
 10
539.6658092246816
 20
759.8536651694728
 30
0.0
  0
ENDBLK
  5
12DF
330
12D3
100
AcDbEntity
  8
0
100
AcDbBlockEnd
  0
BLOCK
  5
12EA
330
12E0
100
AcDbEntity
  8
0
100
AcDbBlockBegin
  2
*D11
 70
     1
 10
0.0
 20
0.0
 30
0.0
  3
*D11
  1

  0
LINE
  5
16E1
330
12E0
100
AcDbEntity
  8
0
100
AcDbLine
 10
769.7166853693263
 20
1060.414328215957
 30
0.0
 11
789.6645760395181
 21
1060.414328215957
 31
0.0
  0
LINE
  5
16E2
330
12E0
100
AcDbEntity
  8
0
100
AcDbLine
 10
769.7166853693263
 20
822.4143282159564
 30
0.0
 11
789.6645760395181
 21
822.4143282159564
 31
0.0
  0
LINE
  5
16E3
330
12E0
100
AcDbEntity
  8
0
100
AcDbLine
 10
786.6645760395181
 20
1051.414328215956
 30
0.0
 11
786.6645760395181
 21
831.4143282159564
 31
0.0
  0
INSERT
  5
16E4
330
12E0
100
AcDbEntity
  8
0
100
AcDbBlockReference
  2
_OPEN30
 10
786.6645760395181
 20
1060.414328215957
 30
0.0
 41
9.0
 42
9.0
 43
9.0
 50
90.0
  0
INSERT
  5
16E5
330
12E0
100
AcDbEntity
  8
0
100
AcDbBlockReference
  2
_OPEN30
 10
786.6645760395181
 20
822.4143282159564
 30
0.0
 41
9.0
 42
9.0
 43
9.0
 50
270.0
  0
MTEXT
  5
16E6
330
12E0
100
AcDbEntity
  8
0
370
    50
100
AcDbMText
 10
776.914576039518
 20
941.4143282159567
 30
0.0
 40
10.5
 41
0.0
 71
     5
 72
     1
  1
238（取付ピッチ）
 11
0.0000000000000001
 21
1.0
 31
0.0
 73
     1
 44
1.0
1001
ACAD
1000
MTEXTBEGIN
1070
    73
1070
     1
1070
    44
1040
1.0
1070
    74
1070
     0
1000
MTEXTEND
  0
POINT
  5
16E7
330
12E0
100
AcDbEntity
  8
Defpoints
 62
     0
100
AcDbPoint
 10
763.7166853693263
 20
1060.414328215957
 30
0.0
  0
POINT
  5
16E8
330
12E0
100
AcDbEntity
  8
Defpoints
 62
     0
100
AcDbPoint
 10
763.7166853693263
 20
822.4143282159566
 30
0.0
  0
POINT
  5
16E9
330
12E0
100
AcDbEntity
  8
Defpoints
 62
     0
100
AcDbPoint
 10
786.6645760395181
 20
822.4143282159564
 30
0.0
  0
ENDBLK
  5
12EB
330
12E0
100
AcDbEntity
  8
0
100
AcDbBlockEnd
  0
BLOCK
  5
12F6
330
12EC
100
AcDbEntity
  8
0
100
AcDbBlockBegin
  2
*D12
 70
     1
 10
0.0
 20
0.0
 30
0.0
  3
*D12
  1

  0
LINE
  5
16D8
330
12EC
100
AcDbEntity
  8
0
100
AcDbLine
 10
581.1066853693262
 20
813.8043282159568
 30
0.0
 11
581.1066853693262
 21
778.4593086819334
 31
0.0
  0
LINE
  5
16D9
330
12EC
100
AcDbEntity
  8
0
100
AcDbLine
 10
761.1066853693261
 20
813.8043282159564
 30
0.0
 11
761.1066853693261
 21
778.4593086819334
 31
0.0
  0
LINE
  5
16DA
330
12EC
100
AcDbEntity
  8
0
100
AcDbLine
 10
590.1066853693262
 20
781.4593086819334
 30
0.0
 11
752.1066853693262
 21
781.4593086819334
 31
0.0
  0
INSERT
  5
16DB
330
12EC
100
AcDbEntity
  8
0
100
AcDbBlockReference
  2
_OPEN30
 10
581.1066853693262
 20
781.4593086819334
 30
0.0
 41
9.0
 42
9.0
 43
9.0
 50
180.0
  0
INSERT
  5
16DC
330
12EC
100
AcDbEntity
  8
0
100
AcDbBlockReference
  2
_OPEN30
 10
761.1066853693261
 20
781.4593086819334
 30
0.0
 41
9.0
 42
9.0
 43
9.0
  0
MTEXT
  5
16DD
330
12EC
100
AcDbEntity
  8
0
370
    50
100
AcDbMText
 10
671.1066853693262
 20
791.2093086819334
 30
0.0
 40
10.5
 41
0.0
 71
     5
 72
     1
  1
180（取付ピッチ）
 73
     1
 44
1.0
1001
ACAD
1000
MTEXTBEGIN
1070
    73
1070
     1
1070
    44
1040
1.0
1070
    74
1070
     0
1000
MTEXTEND
  0
POINT
  5
16DE
330
12EC
100
AcDbEntity
  8
Defpoints
 62
     0
100
AcDbPoint
 10
581.1066853693262
 20
819.8043282159567
 30
0.0
  0
POINT
  5
16DF
330
12EC
100
AcDbEntity
  8
Defpoints
 62
     0
100
AcDbPoint
 10
761.1066853693261
 20
819.8043282159567
 30
0.0
  0
POINT
  5
16E0
330
12EC
100
AcDbEntity
  8
Defpoints
 62
     0
100
AcDbPoint
 10
761.1066853693261
 20
781.4593086819334
 30
0.0
  0
ENDBLK
  5
12F7
330
12EC
100
AcDbEntity
  8
0
100
AcDbBlockEnd
  0
BLOCK
  5
1302
330
12F8
100
AcDbEntity
  8
0
100
AcDbBlockBegin
  2
*D13
 70
     1
 10
0.0
 20
0.0
 30
0.0
  3
*D13
  1

  0
LINE
  5
1940
330
12F8
100
AcDbEntity
  8
0
100
AcDbLine
 10
376.1658092246819
 20
1066.414328215956
 30
0.0
 11
339.7698937306576
 21
1066.414328215956
 31
0.0
  0
LINE
  5
1941
330
12F8
100
AcDbEntity
  8
0
100
AcDbLine
 10
376.1658092246817
 20
816.4143282159566
 30
0.0
 11
339.7698937306576
 21
816.4143282159566
 31
0.0
  0
LINE
  5
1942
330
12F8
100
AcDbEntity
  8
0
100
AcDbLine
 10
342.7698937306576
 20
1057.414328215956
 30
0.0
 11
342.7698937306575
 21
825.4143282159565
 31
0.0
  0
INSERT
  5
1943
330
12F8
100
AcDbEntity
  8
0
100
AcDbBlockReference
  2
_OPEN30
 10
342.7698937306576
 20
1066.414328215956
 30
0.0
 41
9.0
 42
9.0
 43
9.0
 50
90.0
  0
INSERT
  5
1944
330
12F8
100
AcDbEntity
  8
0
100
AcDbBlockReference
  2
_OPEN30
 10
342.7698937306575
 20
816.4143282159566
 30
0.0
 41
9.0
 42
9.0
 43
9.0
 50
270.0
  0
MTEXT
  5
1945
330
12F8
100
AcDbEntity
  8
0
370
    50
100
AcDbMText
 10
333.0198937306574
 20
941.4143282159564
 30
0.0
 40
10.5
 41
0.0
 71
     5
 72
     1
  1
250（A0J2）
 11
0.0000000000000001
 21
1.0
 31
0.0
 73
     1
 44
1.0
1001
ACAD
1000
MTEXTBEGIN
1070
    73
1070
     1
1070
    44
1040
1.0
1070
    74
1070
     0
1000
MTEXTEND
  0
POINT
  5
1946
330
12F8
100
AcDbEntity
  8
Defpoints
 62
     0
100
AcDbPoint
 10
382.1658092246819
 20
1066.414328215956
 30
0.0
  0
POINT
  5
1947
330
12F8
100
AcDbEntity
  8
Defpoints
 62
     0
100
AcDbPoint
 10
382.1658092246817
 20
816.4143282159566
 30
0.0
  0
POINT
  5
1948
330
12F8
100
AcDbEntity
  8
Defpoints
 62
     0
100
AcDbPoint
 10
342.7698937306575
 20
816.4143282159566
 30
0.0
  0
ENDBLK
  5
1303
330
12F8
100
AcDbEntity
  8
0
100
AcDbBlockEnd
  0
BLOCK
  5
130F
330
1304
100
AcDbEntity
  8
0
100
AcDbBlockBegin
  2
*D14
 70
     1
 10
0.0
 20
0.0
 30
0.0
  3
*D14
  1

  0
LINE
  5
1949
330
1304
100
AcDbEntity
  8
0
100
AcDbLine
 10
376.1658092246819
 20
1066.414328215956
 30
0.0
 11
313.8565188614515
 21
1066.414328215956
 31
0.0
  0
LINE
  5
194A
330
1304
100
AcDbEntity
  8
0
100
AcDbLine
 10
385.1658092246818
 20
1128.414328215956
 30
0.0
 11
313.8565188614515
 21
1128.414328215956
 31
0.0
  0
LINE
  5
194B
330
1304
100
AcDbEntity
  8
0
100
AcDbLine
 10
316.8565188614516
 20
1119.414328215956
 30
0.0
 11
316.8565188614516
 21
1075.414328215956
 31
0.0
  0
LINE
  5
194C
330
1304
100
AcDbEntity
  8
0
100
AcDbLine
 10
316.8565188614516
 20
1066.414328215956
 30
0.0
 11
316.8565188614516
 21
953.9143282159558
 31
0.0
  0
INSERT
  5
194D
330
1304
100
AcDbEntity
  8
0
100
AcDbBlockReference
  2
_OPEN30
 10
316.8565188614516
 20
1128.414328215956
 30
0.0
 41
9.0
 42
9.0
 43
9.0
 50
90.0
  0
INSERT
  5
194E
330
1304
100
AcDbEntity
  8
0
100
AcDbBlockReference
  2
_OPEN30
 10
316.8565188614516
 20
1066.414328215956
 30
0.0
 41
9.0
 42
9.0
 43
9.0
 50
270.0
  0
MTEXT
  5
194F
330
1304
100
AcDbEntity
  8
0
370
    50
100
AcDbMText
 10
307.1065188614514
 20
1005.664328215956
 30
0.0
 40
10.5
 41
0.0
 71
     5
 72
     1
  1
62（増加寸法）
 11
0.0000000000000001
 21
1.0
 31
0.0
 73
     1
 44
1.0
1001
ACAD
1000
MTEXTBEGIN
1070
    73
1070
     1
1070
    44
1040
1.0
1070
    74
1070
     0
1000
MTEXTEND
  0
POINT
  5
1950
330
1304
100
AcDbEntity
  8
Defpoints
 62
     0
100
AcDbPoint
 10
382.1658092246819
 20
1066.414328215956
 30
0.0
  0
POINT
  5
1951
330
1304
100
AcDbEntity
  8
Defpoints
 62
     0
100
AcDbPoint
 10
391.1658092246818
 20
1128.414328215956
 30
0.0
  0
POINT
  5
1952
330
1304
100
AcDbEntity
  8
Defpoints
 62
     0
100
AcDbPoint
 10
316.8565188614516
 20
1128.414328215956
 30
0.0
  0
ENDBLK
  5
1310
330
1304
100
AcDbEntity
  8
0
100
AcDbBlockEnd
  0
BLOCK
  5
131C
330
1311
100
AcDbEntity
  8
0
100
AcDbBlockBegin
  2
*D15
 70
     1
 10
0.0
 20
0.0
 30
0.0
  3
*D15
  1

  0
LINE
  5
18D4
330
1311
100
AcDbEntity
  8
0
100
AcDbLine
 10
512.1658092246816
 20
1132.414328215956
 30
0.0
 11
512.1658092246816
 21
1166.494153258004
 31
0.0
  0
LINE
  5
18D5
330
1311
100
AcDbEntity
  8
0
100
AcDbLine
 10
539.6658092246816
 20
1132.414328215956
 30
0.0
 11
539.6658092246816
 21
1166.494153258004
 31
0.0
  0
LINE
  5
18D6
330
1311
100
AcDbEntity
  8
0
100
AcDbLine
 10
521.1658092246816
 20
1163.494153258004
 30
0.0
 11
530.6658092246816
 21
1163.494153258004
 31
0.0
  0
LINE
  5
18D7
330
1311
100
AcDbEntity
  8
0
100
AcDbLine
 10
539.6658092246816
 20
1163.494153258004
 30
0.0
 11
702.5658092246819
 21
1163.494153258004
 31
0.0
  0
INSERT
  5
18D8
330
1311
100
AcDbEntity
  8
0
100
AcDbBlockReference
  2
_OPEN30
 10
512.1658092246816
 20
1163.494153258004
 30
0.0
 41
9.0
 42
9.0
 43
9.0
 50
180.0
  0
INSERT
  5
18D9
330
1311
100
AcDbEntity
  8
0
100
AcDbBlockReference
  2
_OPEN30
 10
539.6658092246816
 20
1163.494153258004
 30
0.0
 41
9.0
 42
9.0
 43
9.0
  0
MTEXT
  5
18DA
330
1311
100
AcDbEntity
  8
0
370
    50
100
AcDbMText
 10
625.6158092246818
 20
1173.244153258004
 30
0.0
 40
10.5
 41
0.0
 71
     5
 72
     1
  1
28（配線必要スペース）
 73
     1
 44
1.0
1001
ACAD
1000
MTEXTBEGIN
1070
    73
1070
     1
1070
    44
1040
1.0
1070
    74
1070
     0
1000
MTEXTEND
  0
POINT
  5
18DB
330
1311
100
AcDbEntity
  8
Defpoints
 62
     0
100
AcDbPoint
 10
512.1658092246816
 20
1126.414328215955
 30
0.0
  0
POINT
  5
18DC
330
1311
100
AcDbEntity
  8
Defpoints
 62
     0
100
AcDbPoint
 10
539.6658092246816
 20
1126.414328215955
 30
0.0
  0
POINT
  5
18DD
330
1311
100
AcDbEntity
  8
Defpoints
 62
     0
100
AcDbPoint
 10
539.6658092246816
 20
1163.494153258004
 30
0.0
  0
ENDBLK
  5
131D
330
1311
100
AcDbEntity
  8
0
100
AcDbBlockEnd
  0
BLOCK
  5
1328
330
131E
100
AcDbEntity
  8
0
100
AcDbBlockBegin
  2
*D16
 70
     1
 10
0.0
 20
0.0
 30
0.0
  3
*D16
  1

  0
LINE
  5
18CB
330
131E
100
AcDbEntity
  8
0
100
AcDbLine
 10
539.6658092246816
 20
1132.414328215956
 30
0.0
 11
539.6658092246816
 21
1203.815066229462
 31
0.0
  0
LINE
  5
18CC
330
131E
100
AcDbEntity
  8
0
100
AcDbLine
 10
382.1658092246819
 20
1072.414328215956
 30
0.0
 11
382.1658092246819
 21
1203.815066229462
 31
0.0
  0
LINE
  5
18CD
330
131E
100
AcDbEntity
  8
0
100
AcDbLine
 10
530.6658092246816
 20
1200.815066229462
 30
0.0
 11
391.1658092246819
 21
1200.815066229462
 31
0.0
  0
INSERT
  5
18CE
330
131E
100
AcDbEntity
  8
0
100
AcDbBlockReference
  2
_OPEN30
 10
539.6658092246816
 20
1200.815066229462
 30
0.0
 41
9.0
 42
9.0
 43
9.0
  0
INSERT
  5
18CF
330
131E
100
AcDbEntity
  8
0
100
AcDbBlockReference
  2
_OPEN30
 10
382.1658092246819
 20
1200.815066229462
 30
0.0
 41
9.0
 42
9.0
 43
9.0
 50
180.0
  0
MTEXT
  5
18D0
330
131E
100
AcDbEntity
  8
0
370
    50
100
AcDbMText
 10
460.9158092246818
 20
1210.565066229462
 30
0.0
 40
10.5
 41
0.0
 71
     5
 72
     1
  1
157
 73
     1
 44
1.0
1001
ACAD
1000
MTEXTBEGIN
1070
    73
1070
     1
1070
    44
1040
1.0
1070
    74
1070
     0
1000
MTEXTEND
  0
POINT
  5
18D1
330
131E
100
AcDbEntity
  8
Defpoints
 62
     0
100
AcDbPoint
 10
539.6658092246816
 20
1126.414328215955
 30
0.0
  0
POINT
  5
18D2
330
131E
100
AcDbEntity
  8
Defpoints
 62
     0
100
AcDbPoint
 10
382.1658092246819
 20
1066.414328215956
 30
0.0
  0
POINT
  5
18D3
330
131E
100
AcDbEntity
  8
Defpoints
 62
     0
100
AcDbPoint
 10
382.1658092246819
 20
1200.815066229462
 30
0.0
  0
ENDBLK
  5
1329
330
131E
100
AcDbEntity
  8
0
100
AcDbBlockEnd
  0
BLOCK
  5
14D1
330
14C7
100
AcDbEntity
  8
0
100
AcDbBlockBegin
  2
*D17
 70
     1
 10
0.0
 20
0.0
 30
0.0
  3
*D17
  1

  0
LINE
  5
1936
330
14C7
100
AcDbEntity
  8
0
 62
     0
370
    -2
100
AcDbLine
 10
383.2908092246818
 20
1128.414328215956
 30
0.0
 11
339.0198937306576
 21
1128.414328215956
 31
0.0
  0
LINE
  5
1937
330
14C7
100
AcDbEntity
  8
0
 62
     0
370
    -2
100
AcDbLine
 10
386.3101759412398
 20
1157.814328215957
 30
0.0
 11
339.0198937306577
 21
1157.814328215957
 31
0.0
  0
LINE
  5
1938
330
14C7
100
AcDbEntity
  8
0
 62
     0
370
    -2
100
AcDbLine
 10
342.7698937306576
 20
1135.914328215956
 30
0.0
 11
342.7698937306576
 21
1150.314328215957
 31
0.0
  0
LINE
  5
1939
330
14C7
100
AcDbEntity
  8
0
 62
     0
370
    -2
100
AcDbLine
 10
342.7698937306577
 20
1157.814328215957
 30
0.0
 11
342.7698937306577
 21
1253.064328215957
 31
0.0
  0
INSERT
  5
193A
330
14C7
100
AcDbEntity
  8
0
 62
     0
370
    -2
100
AcDbBlockReference
  2
_OPEN30
 10
342.7698937306576
 20
1128.414328215956
 30
0.0
 41
7.5
 42
7.5
 43
7.5
 50
270.0
  0
INSERT
  5
193B
330
14C7
100
AcDbEntity
  8
0
 62
     0
370
    -2
100
AcDbBlockReference
  2
_OPEN30
 10
342.7698937306577
 20
1157.814328215957
 30
0.0
 41
7.5
 42
7.5
 43
7.5
 50
90.0
  0
MTEXT
  5
193C
330
14C7
100
AcDbEntity
  8
0
 62
     0
370
    50
100
AcDbMText
 10
333.0198937306574
 20
1209.189328215957
 30
0.0
 40
10.5
 41
0.0
 71
     5
 72
     1
  1
30　　　　　
 11
0.0000000000000001
 21
1.0
 31
0.0
 73
     1
 44
1.0
1001
ACAD
1000
MTEXTBEGIN
1070
    73
1070
     1
1070
    44
1040
1.0
1070
    74
1070
     0
1000
MTEXTEND
  0
POINT
  5
193D
330
14C7
100
AcDbEntity
  8
Defpoints
 62
     0
100
AcDbPoint
 10
385.1658092246818
 20
1128.414328215956
 30
0.0
  0
POINT
  5
193E
330
14C7
100
AcDbEntity
  8
Defpoints
 62
     0
100
AcDbPoint
 10
388.1851759412398
 20
1157.814328215957
 30
0.0
  0
POINT
  5
193F
330
14C7
100
AcDbEntity
  8
Defpoints
 62
     0
100
AcDbPoint
 10
342.7698937306577
 20
1157.814328215957
 30
0.0
  0
ENDBLK
  5
14D2
330
14C7
100
AcDbEntity
  8
0
100
AcDbBlockEnd
  0
BLOCK
  5
1899
330
188F
100
AcDbEntity
  8
0
100
AcDbBlockBegin
  2
*D18
 70
     1
 10
0.0
 20
0.0
 30
0.0
  3
*D18
  1

  0
LINE
  5
18B8
330
188F
100
AcDbEntity
  8
0
 62
     0
370
    -2
100
AcDbLine
 10
766.7823409261984
 20
1128.414328215956
 30
0.0
 11
851.0844452494971
 21
1128.414328215956
 31
0.0
  0
LINE
  5
18B9
330
188F
100
AcDbEntity
  8
0
 62
     0
370
    -2
100
AcDbLine
 10
764.7316853693263
 20
816.4143282159566
 30
0.0
 11
851.0844452494971
 21
816.4143282159566
 31
0.0
  0
LINE
  5
18BA
330
188F
100
AcDbEntity
  8
0
 62
     0
370
    -2
100
AcDbLine
 10
849.834445249497
 20
1125.914328215956
 30
0.0
 11
849.834445249497
 21
818.9143282159564
 31
0.0
  0
SOLID
  5
18BB
330
188F
100
AcDbEntity
  8
0
 62
     0
100
AcDbTrace
 10
849.4177785828304
 20
1125.914328215956
 30
0.0
 11
850.2511119161638
 21
1125.914328215956
 31
0.0
 12
849.834445249497
 22
1128.414328215956
 32
0.0
 13
849.834445249497
 23
1128.414328215956
 33
0.0
  0
SOLID
  5
18BC
330
188F
100
AcDbEntity
  8
0
 62
     0
100
AcDbTrace
 10
849.4177785828304
 20
818.9143282159564
 30
0.0
 11
850.2511119161638
 21
818.9143282159564
 31
0.0
 12
849.834445249497
 22
816.4143282159566
 32
0.0
 13
849.834445249497
 23
816.4143282159566
 33
0.0
  0
MTEXT
  5
18BD
330
188F
100
AcDbEntity
  8
0
 62
     0
100
AcDbMText
 10
847.9594452494971
 20
972.4143282159568
 30
0.0
 40
2.5
 41
0.0
 71
     5
 72
     1
  1
312
 11
0.0000000000000001
 21
1.0
 31
0.0
 73
     1
 44
1.0
1001
ACAD
1000
MTEXTBEGIN
1070
    73
1070
     1
1070
    44
1040
1.0
1070
    74
1070
     0
1000
MTEXTEND
  0
POINT
  5
18BE
330
188F
100
AcDbEntity
  8
Defpoints
 62
     0
100
AcDbPoint
 10
766.1573409261984
 20
1128.414328215956
 30
0.0
  0
POINT
  5
18BF
330
188F
100
AcDbEntity
  8
Defpoints
 62
     0
100
AcDbPoint
 10
764.1066853693263
 20
816.4143282159566
 30
0.0
  0
POINT
  5
18C0
330
188F
100
AcDbEntity
  8
Defpoints
 62
     0
100
AcDbPoint
 10
849.834445249497
 20
816.4143282159566
 30
0.0
  0
ENDBLK
  5
189A
330
188F
100
AcDbEntity
  8
0
100
AcDbBlockEnd
  0
BLOCK
  5
197A
330
1979
100
AcDbEntity
  8
0
100
AcDbBlockBegin
  2
*D19
 70
     1
 10
0.0
 20
0.0
 30
0.0
  3
*D19
  1

  0
LINE
  5
197B
330
1979
100
AcDbEntity
  8
0
100
AcDbLine
 10
538.3437560617911
 20
510.511216746146
 30
0.0
 11
538.3437560617911
 21
551.5466573688796
 31
0.0
  0
LINE
  5
197C
330
1979
100
AcDbEntity
  8
0
100
AcDbLine
 10
626.3437560617911
 20
442.5112167461461
 30
0.0
 11
626.3437560617911
 21
551.5466573688796
 31
0.0
  0
LINE
  5
197D
330
1979
100
AcDbEntity
  8
0
100
AcDbLine
 10
547.3437560617911
 20
548.5466573688794
 30
0.0
 11
617.3437560617911
 21
548.5466573688794
 31
0.0
  0
INSERT
  5
197E
330
1979
100
AcDbEntity
  8
0
100
AcDbBlockReference
  2
_OPEN30
 10
538.3437560617911
 20
548.5466573688794
 30
0.0
 41
9.0
 42
9.0
 43
9.0
 50
180.0
  0
INSERT
  5
197F
330
1979
100
AcDbEntity
  8
0
100
AcDbBlockReference
  2
_OPEN30
 10
626.3437560617911
 20
548.5466573688794
 30
0.0
 41
9.0
 42
9.0
 43
9.0
  0
MTEXT
  5
1980
330
1979
100
AcDbEntity
  8
0
370
    50
100
AcDbMText
 10
582.3437560617911
 20
558.2966573688794
 30
0.0
 40
10.5
 41
0.0
 71
     5
 72
     1
  1
88
 73
     1
 44
1.0
1001
ACAD
1000
MTEXTBEGIN
1070
    73
1070
     1
1070
    44
1040
1.0
1070
    74
1070
     0
1000
MTEXTEND
  0
POINT
  5
1981
330
1979
100
AcDbEntity
  8
Defpoints
 62
     0
100
AcDbPoint
 10
538.3437560617911
 20
504.5112167461461
 30
0.0
  0
POINT
  5
1982
330
1979
100
AcDbEntity
  8
Defpoints
 62
     0
100
AcDbPoint
 10
626.3437560617911
 20
436.511216746146
 30
0.0
  0
POINT
  5
1983
330
1979
100
AcDbEntity
  8
Defpoints
 62
     0
100
AcDbPoint
 10
626.3437560617911
 20
548.5466573688794
 30
0.0
  0
ENDBLK
  5
1984
330
1979
100
AcDbEntity
  8
0
100
AcDbBlockEnd
  0
BLOCK
  5
1986
330
1985
100
AcDbEntity
  8
0
100
AcDbBlockBegin
  2
*D20
 70
     1
 10
0.0
 20
0.0
 30
0.0
  3
*D20
  1

  0
LINE
  5
1987
330
1985
100
AcDbEntity
  8
0
100
AcDbLine
 10
685.1345626503632
 20
250.5112167461462
 30
0.0
 11
685.1345626503632
 21
175.4229579641056
 31
0.0
  0
LINE
  5
1988
330
1985
100
AcDbEntity
  8
0
100
AcDbLine
 10
875.1345626503633
 20
250.511216746146
 30
0.0
 11
875.1345626503633
 21
175.4229579641056
 31
0.0
  0
LINE
  5
1989
330
1985
100
AcDbEntity
  8
0
100
AcDbLine
 10
694.1345626503633
 20
178.4229579641056
 30
0.0
 11
866.1345626503631
 21
178.4229579641056
 31
0.0
  0
INSERT
  5
198A
330
1985
100
AcDbEntity
  8
0
100
AcDbBlockReference
  2
_OPEN30
 10
685.1345626503632
 20
178.4229579641056
 30
0.0
 41
9.0
 42
9.0
 43
9.0
 50
180.0
  0
INSERT
  5
198B
330
1985
100
AcDbEntity
  8
0
100
AcDbBlockReference
  2
_OPEN30
 10
875.1345626503633
 20
178.4229579641056
 30
0.0
 41
9.0
 42
9.0
 43
9.0
  0
MTEXT
  5
198C
330
1985
100
AcDbEntity
  8
0
370
    50
100
AcDbMText
 10
780.1345626503633
 20
188.1729579641057
 30
0.0
 40
10.5
 41
0.0
 71
     5
 72
     1
  1
190
 73
     1
 44
1.0
1001
ACAD
1000
MTEXTBEGIN
1070
    73
1070
     1
1070
    44
1040
1.0
1070
    74
1070
     0
1000
MTEXTEND
  0
POINT
  5
198D
330
1985
100
AcDbEntity
  8
Defpoints
 62
     0
100
AcDbPoint
 10
685.1345626503632
 20
256.5112167461462
 30
0.0
  0
POINT
  5
198E
330
1985
100
AcDbEntity
  8
Defpoints
 62
     0
100
AcDbPoint
 10
875.1345626503633
 20
256.511216746146
 30
0.0
  0
POINT
  5
198F
330
1985
100
AcDbEntity
  8
Defpoints
 62
     0
100
AcDbPoint
 10
875.1345626503633
 20
178.4229579641056
 30
0.0
  0
ENDBLK
  5
1990
330
1985
100
AcDbEntity
  8
0
100
AcDbBlockEnd
  0
BLOCK
  5
1992
330
1991
100
AcDbEntity
  8
0
100
AcDbBlockBegin
  2
*D21
 70
     1
 10
0.0
 20
0.0
 30
0.0
  3
*D21
  1

  0
LINE
  5
1993
330
1991
100
AcDbEntity
  8
0
100
AcDbLine
 10
879.1345626503634
 20
254.511216746146
 30
0.0
 11
919.717131149938
 21
254.511216746146
 31
0.0
  0
LINE
  5
1994
330
1991
100
AcDbEntity
  8
0
100
AcDbLine
 10
879.1345626503634
 20
504.511216746146
 30
0.0
 11
919.717131149938
 21
504.511216746146
 31
0.0
  0
LINE
  5
1995
330
1991
100
AcDbEntity
  8
0
100
AcDbLine
 10
916.717131149938
 20
263.5112167461461
 30
0.0
 11
916.717131149938
 21
495.5112167461456
 31
0.0
  0
INSERT
  5
1996
330
1991
100
AcDbEntity
  8
0
100
AcDbBlockReference
  2
_OPEN30
 10
916.7171311499375
 20
254.511216746146
 30
0.0
 41
9.0
 42
9.0
 43
9.0
 50
270.0
  0
INSERT
  5
1997
330
1991
100
AcDbEntity
  8
0
100
AcDbBlockReference
  2
_OPEN30
 10
916.717131149938
 20
504.511216746146
 30
0.0
 41
9.0
 42
9.0
 43
9.0
 50
90.0
  0
MTEXT
  5
1998
330
1991
100
AcDbEntity
  8
0
370
    50
100
AcDbMText
 10
906.9671311499375
 20
379.5112167461462
 30
0.0
 40
10.5
 41
0.0
 71
     5
 72
     1
  1
250
 11
0.0000000000000001
 21
1.0
 31
0.0
 73
     1
 44
1.0
1001
ACAD
1000
MTEXTBEGIN
1070
    73
1070
     1
1070
    44
1040
1.0
1070
    74
1070
     0
1000
MTEXTEND
  0
POINT
  5
1999
330
1991
100
AcDbEntity
  8
Defpoints
 62
     0
100
AcDbPoint
 10
873.1345626503633
 20
254.511216746146
 30
0.0
  0
POINT
  5
199A
330
1991
100
AcDbEntity
  8
Defpoints
 62
     0
100
AcDbPoint
 10
873.1345626503633
 20
504.511216746146
 30
0.0
  0
POINT
  5
199B
330
1991
100
AcDbEntity
  8
Defpoints
 62
     0
100
AcDbPoint
 10
916.717131149938
 20
504.511216746146
 30
0.0
  0
ENDBLK
  5
199C
330
1991
100
AcDbEntity
  8
0
100
AcDbBlockEnd
  0
BLOCK
  5
199E
330
199D
100
AcDbEntity
  8
0
100
AcDbBlockBegin
  2
*D22
 70
     1
 10
0.0
 20
0.0
 30
0.0
  3
*D22
  1

  0
LINE
  5
199F
330
199D
100
AcDbEntity
  8
0
100
AcDbLine
 10
626.3437560617911
 20
442.5112167461461
 30
0.0
 11
626.3437560617911
 21
531.5112167561464
 31
0.0
  0
LINE
  5
19A0
330
199D
100
AcDbEntity
  8
0
100
AcDbLine
 10
544.3437560617911
 20
508.9112167461458
 30
0.0
 11
544.3437560617911
 21
531.5112167561464
 31
0.0
  0
LINE
  5
19A1
330
199D
100
AcDbEntity
  8
0
100
AcDbLine
 10
617.3437560617911
 20
528.5112167561464
 30
0.0
 11
553.3437560617911
 21
528.5112167561464
 31
0.0
  0
INSERT
  5
19A2
330
199D
100
AcDbEntity
  8
0
100
AcDbBlockReference
  2
_OPEN30
 10
626.3437560617911
 20
528.5112167561464
 30
0.0
 41
9.0
 42
9.0
 43
9.0
  0
INSERT
  5
19A3
330
199D
100
AcDbEntity
  8
0
100
AcDbBlockReference
  2
_OPEN30
 10
544.3437560617911
 20
528.5112167561464
 30
0.0
 41
9.0
 42
9.0
 43
9.0
 50
180.0
  0
MTEXT
  5
19A4
330
199D
100
AcDbEntity
  8
0
370
    50
100
AcDbMText
 10
585.3437560617911
 20
538.2612167561464
 30
0.0
 40
10.5
 41
0.0
 71
     5
 72
     1
  1
82
 73
     1
 44
1.0
1001
ACAD
1000
MTEXTBEGIN
1070
    73
1070
     1
1070
    44
1040
1.0
1070
    74
1070
     0
1000
MTEXTEND
  0
POINT
  5
19A5
330
199D
100
AcDbEntity
  8
Defpoints
 62
     0
100
AcDbPoint
 10
626.3437560617911
 20
436.511216746146
 30
0.0
  0
POINT
  5
19A6
330
199D
100
AcDbEntity
  8
Defpoints
 62
     0
100
AcDbPoint
 10
544.3437560617911
 20
502.9112167461461
 30
0.0
  0
POINT
  5
19A7
330
199D
100
AcDbEntity
  8
Defpoints
 62
     0
100
AcDbPoint
 10
544.3437560617911
 20
528.5112167561464
 30
0.0
  0
ENDBLK
  5
19A8
330
199D
100
AcDbEntity
  8
0
100
AcDbBlockEnd
  0
BLOCK
  5
19AA
330
19A9
100
AcDbEntity
  8
0
100
AcDbBlockBegin
  2
*D23
 70
     1
 10
0.0
 20
0.0
 30
0.0
  3
*D23
  1

  0
LINE
  5
19AB
330
19A9
100
AcDbEntity
  8
0
100
AcDbLine
 10
544.3437560617911
 20
508.9112167461458
 30
0.0
 11
544.3437560617911
 21
531.5112167561464
 31
0.0
  0
LINE
  5
19AC
330
19A9
100
AcDbEntity
  8
0
100
AcDbLine
 10
538.3437560617911
 20
510.511216746146
 30
0.0
 11
538.3437560617911
 21
531.5112167561464
 31
0.0
  0
LINE
  5
19AD
330
19A9
100
AcDbEntity
  8
0
100
AcDbLine
 10
553.3437560617911
 20
528.5112167561464
 30
0.0
 11
562.3437560617912
 21
528.5112167561464
 31
0.0
  0
LINE
  5
19AE
330
19A9
100
AcDbEntity
  8
0
100
AcDbLine
 10
529.3437560617912
 20
528.5112167561464
 30
0.0
 11
504.3437560617912
 21
528.5112167561464
 31
0.0
  0
LINE
  5
19AF
330
19A9
100
AcDbEntity
  8
0
100
AcDbLine
 10
544.3437560617911
 20
528.5112167561464
 30
0.0
 11
538.3437560617911
 21
528.5112167561464
 31
0.0
  0
INSERT
  5
19B0
330
19A9
100
AcDbEntity
  8
0
100
AcDbBlockReference
  2
_OPEN30
 10
544.3437560617911
 20
528.5112167561464
 30
0.0
 41
9.0
 42
9.0
 43
9.0
 50
180.0
  0
INSERT
  5
19B1
330
19A9
100
AcDbEntity
  8
0
100
AcDbBlockReference
  2
_OPEN30
 10
538.3437560617911
 20
528.5112167561464
 30
0.0
 41
9.0
 42
9.0
 43
9.0
  0
MTEXT
  5
19B2
330
19A9
100
AcDbEntity
  8
0
370
    50
100
AcDbMText
 10
512.3437560617912
 20
538.2612167561464
 30
0.0
 40
10.5
 41
0.0
 71
     5
 72
     1
  1
6
 73
     1
 44
1.0
1001
ACAD
1000
MTEXTBEGIN
1070
    73
1070
     1
1070
    44
1040
1.0
1070
    74
1070
     0
1000
MTEXTEND
  0
POINT
  5
19B3
330
19A9
100
AcDbEntity
  8
Defpoints
 62
     0
100
AcDbPoint
 10
544.3437560617911
 20
502.9112167461461
 30
0.0
  0
POINT
  5
19B4
330
19A9
100
AcDbEntity
  8
Defpoints
 62
     0
100
AcDbPoint
 10
538.3437560617911
 20
504.5112167461461
 30
0.0
  0
POINT
  5
19B5
330
19A9
100
AcDbEntity
  8
Defpoints
 62
     0
100
AcDbPoint
 10
538.3437560617911
 20
528.5112167561464
 30
0.0
  0
ENDBLK
  5
19B6
330
19A9
100
AcDbEntity
  8
0
100
AcDbBlockEnd
  0
BLOCK
  5
19B8
330
19B7
100
AcDbEntity
  8
0
100
AcDbBlockBegin
  2
*D24
 70
     1
 10
0.0
 20
0.0
 30
0.0
  3
*D24
  1

  0
LINE
  5
19B9
330
19B7
100
AcDbEntity
  8
0
100
AcDbLine
 10
661.343756061791
 20
248.5112167461462
 30
0.0
 11
661.343756061791
 21
200.9610683424617
 31
0.0
  0
LINE
  5
19BA
330
19B7
100
AcDbEntity
  8
0
100
AcDbLine
 10
538.3437560617911
 20
248.5112167461462
 30
0.0
 11
538.3437560617911
 21
200.9610683424617
 31
0.0
  0
LINE
  5
19BB
330
19B7
100
AcDbEntity
  8
0
100
AcDbLine
 10
652.343756061791
 20
203.9610683424617
 30
0.0
 11
547.343756061791
 21
203.9610683424617
 31
0.0
  0
INSERT
  5
19BC
330
19B7
100
AcDbEntity
  8
0
100
AcDbBlockReference
  2
_OPEN30
 10
661.343756061791
 20
203.9610683424617
 30
0.0
 41
9.0
 42
9.0
 43
9.0
  0
INSERT
  5
19BD
330
19B7
100
AcDbEntity
  8
0
100
AcDbBlockReference
  2
_OPEN30
 10
538.3437560617911
 20
203.9610683424617
 30
0.0
 41
9.0
 42
9.0
 43
9.0
 50
180.0
  0
MTEXT
  5
19BE
330
19B7
100
AcDbEntity
  8
0
370
    50
100
AcDbMText
 10
599.843756061791
 20
213.7110683424617
 30
0.0
 40
10.5
 41
0.0
 71
     5
 72
     1
  1
123（A0J2）
 73
     1
 44
1.0
1001
ACAD
1000
MTEXTBEGIN
1070
    73
1070
     1
1070
    44
1040
1.0
1070
    74
1070
     0
1000
MTEXTEND
  0
POINT
  5
19BF
330
19B7
100
AcDbEntity
  8
Defpoints
 62
     0
100
AcDbPoint
 10
661.343756061791
 20
254.5112167461462
 30
0.0
  0
POINT
  5
19C0
330
19B7
100
AcDbEntity
  8
Defpoints
 62
     0
100
AcDbPoint
 10
538.3437560617911
 20
254.5112167461462
 30
0.0
  0
POINT
  5
19C1
330
19B7
100
AcDbEntity
  8
Defpoints
 62
     0
100
AcDbPoint
 10
538.3437560617911
 20
203.9610683424617
 30
0.0
  0
ENDBLK
  5
19C2
330
19B7
100
AcDbEntity
  8
0
100
AcDbBlockEnd
  0
BLOCK
  5
19C4
330
19C3
100
AcDbEntity
  8
0
100
AcDbBlockBegin
  2
*D25
 70
     1
 10
0.0
 20
0.0
 30
0.0
  3
*D25
  1

  0
LINE
  5
19C5
330
19C3
100
AcDbEntity
  8
0
100
AcDbLine
 10
532.343756061791
 20
254.5112167461462
 30
0.0
 11
503.0307878562643
 21
254.5112167461462
 31
0.0
  0
LINE
  5
19C6
330
19C3
100
AcDbEntity
  8
0
100
AcDbLine
 10
532.3437560617911
 20
504.5112167461461
 30
0.0
 11
503.0307878562643
 21
504.5112167461461
 31
0.0
  0
LINE
  5
19C7
330
19C3
100
AcDbEntity
  8
0
100
AcDbLine
 10
506.0307878562643
 20
263.5112167461461
 30
0.0
 11
506.0307878562643
 21
495.5112167461461
 31
0.0
  0
INSERT
  5
19C8
330
19C3
100
AcDbEntity
  8
0
100
AcDbBlockReference
  2
_OPEN30
 10
506.0307878562643
 20
254.5112167461462
 30
0.0
 41
9.0
 42
9.0
 43
9.0
 50
270.0
  0
INSERT
  5
19C9
330
19C3
100
AcDbEntity
  8
0
100
AcDbBlockReference
  2
_OPEN30
 10
506.0307878562643
 20
504.5112167461461
 30
0.0
 41
9.0
 42
9.0
 43
9.0
 50
90.0
  0
MTEXT
  5
19CA
330
19C3
100
AcDbEntity
  8
0
370
    50
100
AcDbMText
 10
496.2807878562641
 20
379.5112167461462
 30
0.0
 40
10.5
 41
0.0
 71
     5
 72
     1
  1
250（A0J2）
 11
0.0000000000000001
 21
1.0
 31
0.0
 73
     1
 44
1.0
1001
ACAD
1000
MTEXTBEGIN
1070
    73
1070
     1
1070
    44
1040
1.0
1070
    74
1070
     0
1000
MTEXTEND
  0
POINT
  5
19CB
330
19C3
100
AcDbEntity
  8
Defpoints
 62
     0
100
AcDbPoint
 10
538.3437560617911
 20
254.5112167461462
 30
0.0
  0
POINT
  5
19CC
330
19C3
100
AcDbEntity
  8
Defpoints
 62
     0
100
AcDbPoint
 10
538.3437560617911
 20
504.5112167461461
 30
0.0
  0
POINT
  5
19CD
330
19C3
100
AcDbEntity
  8
Defpoints
 62
     0
100
AcDbPoint
 10
506.0307878562643
 20
504.5112167461461
 30
0.0
  0
ENDBLK
  5
19CE
330
19C3
100
AcDbEntity
  8
0
100
AcDbBlockEnd
  0
BLOCK
  5
19D0
330
19CF
100
AcDbEntity
  8
0
100
AcDbBlockBegin
  2
*D26
 70
     1
 10
0.0
 20
0.0
 30
0.0
  3
*D26
  1

  0
LINE
  5
19D1
330
19CF
100
AcDbEntity
  8
0
100
AcDbLine
 10
870.1345626503634
 20
251.901216746146
 30
0.0
 11
870.1345626503634
 21
197.745629004399
 31
0.0
  0
LINE
  5
19D2
330
19CF
100
AcDbEntity
  8
0
100
AcDbLine
 10
690.1345626503633
 20
251.9012167461461
 30
0.0
 11
690.1345626503633
 21
197.745629004399
 31
0.0
  0
LINE
  5
19D3
330
19CF
100
AcDbEntity
  8
0
100
AcDbLine
 10
861.1345626503632
 20
200.745629004399
 30
0.0
 11
699.1345626503633
 21
200.745629004399
 31
0.0
  0
INSERT
  5
19D4
330
19CF
100
AcDbEntity
  8
0
100
AcDbBlockReference
  2
_OPEN30
 10
870.1345626503634
 20
200.745629004399
 30
0.0
 41
9.0
 42
9.0
 43
9.0
  0
INSERT
  5
19D5
330
19CF
100
AcDbEntity
  8
0
100
AcDbBlockReference
  2
_OPEN30
 10
690.1345626503633
 20
200.745629004399
 30
0.0
 41
9.0
 42
9.0
 43
9.0
 50
180.0
  0
MTEXT
  5
19D6
330
19CF
100
AcDbEntity
  8
0
370
    50
100
AcDbMText
 10
780.1345626503633
 20
210.495629004399
 30
0.0
 40
10.5
 41
0.0
 71
     5
 72
     1
  1
180（取付ピッチ）
 73
     1
 44
1.0
1001
ACAD
1000
MTEXTBEGIN
1070
    73
1070
     1
1070
    44
1040
1.0
1070
    74
1070
     0
1000
MTEXTEND
  0
POINT
  5
19D7
330
19CF
100
AcDbEntity
  8
Defpoints
 62
     0
100
AcDbPoint
 10
870.1345626503634
 20
257.901216746146
 30
0.0
  0
POINT
  5
19D8
330
19CF
100
AcDbEntity
  8
Defpoints
 62
     0
100
AcDbPoint
 10
690.1345626503633
 20
257.9012167461461
 30
0.0
  0
POINT
  5
19D9
330
19CF
100
AcDbEntity
  8
Defpoints
 62
     0
100
AcDbPoint
 10
690.1345626503633
 20
200.745629004399
 30
0.0
  0
ENDBLK
  5
19DA
330
19CF
100
AcDbEntity
  8
0
100
AcDbBlockEnd
  0
BLOCK
  5
19DC
330
19DB
100
AcDbEntity
  8
0
100
AcDbBlockBegin
  2
*D27
 70
     1
 10
0.0
 20
0.0
 30
0.0
  3
*D27
  1

  0
LINE
  5
19DD
330
19DB
100
AcDbEntity
  8
0
100
AcDbLine
 10
878.7445626503632
 20
498.511216746146
 30
0.0
 11
899.8953204361283
 21
498.5112167461458
 31
0.0
  0
LINE
  5
19DE
330
19DB
100
AcDbEntity
  8
0
100
AcDbLine
 10
878.7445626503631
 20
260.511216746146
 30
0.0
 11
899.8953204361283
 21
260.511216746146
 31
0.0
  0
LINE
  5
19DF
330
19DB
100
AcDbEntity
  8
0
100
AcDbLine
 10
896.8953204361282
 20
489.5112167461459
 30
0.0
 11
896.8953204361282
 21
269.511216746146
 31
0.0
  0
INSERT
  5
19E0
330
19DB
100
AcDbEntity
  8
0
100
AcDbBlockReference
  2
_OPEN30
 10
896.8953204361282
 20
498.5112167461458
 30
0.0
 41
9.0
 42
9.0
 43
9.0
 50
90.0
  0
INSERT
  5
19E1
330
19DB
100
AcDbEntity
  8
0
100
AcDbBlockReference
  2
_OPEN30
 10
896.8953204361282
 20
260.511216746146
 30
0.0
 41
9.0
 42
9.0
 43
9.0
 50
270.0
  0
MTEXT
  5
19E2
330
19DB
100
AcDbEntity
  8
0
370
    50
100
AcDbMText
 10
887.1453204361282
 20
379.5112167461462
 30
0.0
 40
10.5
 41
0.0
 71
     5
 72
     1
  1
238（取付ピッチ）
 11
0.0000000000000001
 21
1.0
 31
0.0
 73
     1
 44
1.0
1001
ACAD
1000
MTEXTBEGIN
1070
    73
1070
     1
1070
    44
1040
1.0
1070
    74
1070
     0
1000
MTEXTEND
  0
POINT
  5
19E3
330
19DB
100
AcDbEntity
  8
Defpoints
 62
     0
100
AcDbPoint
 10
872.7445626503632
 20
498.511216746146
 30
0.0
  0
POINT
  5
19E4
330
19DB
100
AcDbEntity
  8
Defpoints
 62
     0
100
AcDbPoint
 10
872.7445626503632
 20
260.511216746146
 30
0.0
  0
POINT
  5
19E5
330
19DB
100
AcDbEntity
  8
Defpoints
 62
     0
100
AcDbPoint
 10
896.8953204361282
 20
260.511216746146
 30
0.0
  0
ENDBLK
  5
19E6
330
19DB
100
AcDbEntity
  8
0
100
AcDbBlockEnd
  0
BLOCK
  5
19E8
330
19E7
100
AcDbEntity
  8
0
100
AcDbBlockBegin
  2
*D28
 70
     1
 10
0.0
 20
0.0
 30
0.0
  3
*D28
  1

  0
LINE
  5
19E9
330
19E7
100
AcDbEntity
  8
0
 62
     0
370
    -2
100
AcDbLine
 10
538.3437560617911
 20
512.386216746146
 30
0.0
 11
538.3437560617911
 21
573.1639664699604
 31
0.0
  0
LINE
  5
19EA
330
19E7
100
AcDbEntity
  8
0
 62
     0
370
    -2
100
AcDbLine
 10
656.343756061791
 20
297.3862167461462
 30
0.0
 11
656.343756061791
 21
573.1639664699604
 31
0.0
  0
LINE
  5
19EB
330
19E7
100
AcDbEntity
  8
0
 62
     0
370
    -2
100
AcDbLine
 10
545.8437560617912
 20
569.4139664699604
 30
0.0
 11
648.843756061791
 21
569.4139664699604
 31
0.0
  0
INSERT
  5
19EC
330
19E7
100
AcDbEntity
  8
0
 62
     0
370
    -2
100
AcDbBlockReference
  2
_OPEN30
 10
538.3437560617911
 20
569.4139664699604
 30
0.0
 41
7.5
 42
7.5
 43
7.5
 50
180.0
  0
INSERT
  5
19ED
330
19E7
100
AcDbEntity
  8
0
 62
     0
370
    -2
100
AcDbBlockReference
  2
_OPEN30
 10
656.343756061791
 20
569.4139664699604
 30
0.0
 41
7.5
 42
7.5
 43
7.5
  0
MTEXT
  5
19EE
330
19E7
100
AcDbEntity
  8
0
 62
     0
370
    50
100
AcDbMText
 10
597.343756061791
 20
579.1639664699604
 30
0.0
 40
10.5
 41
0.0
 71
     5
 72
     1
  1
118
 73
     1
 44
1.0
1001
ACAD
1000
MTEXTBEGIN
1070
    73
1070
     1
1070
    44
1040
1.0
1070
    74
1070
     0
1000
MTEXTEND
  0
POINT
  5
19EF
330
19E7
100
AcDbEntity
  8
Defpoints
 62
     0
100
AcDbPoint
 10
538.3437560617911
 20
510.511216746146
 30
0.0
  0
POINT
  5
19F0
330
19E7
100
AcDbEntity
  8
Defpoints
 62
     0
100
AcDbPoint
 10
656.343756061791
 20
295.5112167461461
 30
0.0
  0
POINT
  5
19F1
330
19E7
100
AcDbEntity
  8
Defpoints
 62
     0
100
AcDbPoint
 10
656.343756061791
 20
569.4139664699604
 30
0.0
  0
ENDBLK
  5
19F2
330
19E7
100
AcDbEntity
  8
0
100
AcDbBlockEnd
  0
BLOCK
  5
19F4
330
19F3
100
AcDbEntity
  8
0
100
AcDbBlockBegin
  2
*D29
 70
     1
 10
0.0
 20
0.0
 30
0.0
  3
*D29
  1

  0
LINE
  5
19F5
330
19F3
100
AcDbEntity
  8
0
 62
     0
370
    -2
100
AcDbLine
 10
856.3845626503633
 20
262.6362167461461
 30
0.0
 11
856.3845626503633
 21
222.1951647090726
 31
0.0
  0
LINE
  5
19F6
330
19F3
100
AcDbEntity
  8
0
 62
     0
370
    -2
100
AcDbLine
 10
724.3845626503634
 20
262.6362167461461
 30
0.0
 11
724.3845626503634
 21
222.1951647090726
 31
0.0
  0
LINE
  5
19F7
330
19F3
100
AcDbEntity
  8
0
 62
     0
370
    -2
100
AcDbLine
 10
845.8845626503633
 20
225.9451647090726
 30
0.0
 11
734.8845626503633
 21
225.9451647090726
 31
0.0
  0
INSERT
  5
19F8
330
19F3
100
AcDbEntity
  8
0
 62
     0
370
    -2
100
AcDbBlockReference
  2
_OPEN30
 10
856.3845626503633
 20
225.9451647090726
 30
0.0
 41
10.5
 42
10.5
 43
10.5
  0
INSERT
  5
19F9
330
19F3
100
AcDbEntity
  8
0
 62
     0
370
    -2
100
AcDbBlockReference
  2
_OPEN30
 10
724.3845626503634
 20
225.9451647090726
 30
0.0
 41
10.5
 42
10.5
 43
10.5
 50
180.0
  0
MTEXT
  5
19FA
330
19F3
100
AcDbEntity
  8
0
 62
     0
100
AcDbMText
 10
790.3845626503633
 20
234.1951647090726
 30
0.0
 40
10.5
 41
0.0
 71
     5
 72
     1
  1
132
 73
     1
 44
1.0
1001
ACAD
1000
MTEXTBEGIN
1070
    73
1070
     1
1070
    44
1040
1.0
1070
    74
1070
     0
1000
MTEXTEND
  0
POINT
  5
19FB
330
19F3
100
AcDbEntity
  8
Defpoints
 62
     0
100
AcDbPoint
 10
856.3845626503633
 20
264.511216746146
 30
0.0
  0
POINT
  5
19FC
330
19F3
100
AcDbEntity
  8
Defpoints
 62
     0
100
AcDbPoint
 10
724.3845626503634
 20
264.5112167461462
 30
0.0
  0
POINT
  5
19FD
330
19F3
100
AcDbEntity
  8
Defpoints
 62
     0
100
AcDbPoint
 10
724.3845626503634
 20
225.9451647090726
 30
0.0
  0
ENDBLK
  5
19FE
330
19F3
100
AcDbEntity
  8
0
100
AcDbBlockEnd
  0
BLOCK
  5
1FEB
330
1FE1
100
AcDbEntity
  8
0
100
AcDbBlockBegin
  2
*D30
 70
     1
 10
0.0
 20
0.0
 30
0.0
  3
*D30
  1

  0
LINE
  5
217B
330
1FE1
100
AcDbEntity
  8
0
 62
     0
370
    -2
100
AcDbLine
 10
292.5161041540732
 20
1128.38694571678
 30
0.0
 11
292.5161041540732
 21
1189.164695440594
 31
0.0
  0
LINE
  5
217C
330
1FE1
100
AcDbEntity
  8
0
 62
     0
370
    -2
100
AcDbLine
 10
410.5161041540728
 20
913.3869457167799
 30
0.0
 11
410.5161041540728
 21
1189.164695440594
 31
0.0
  0
LINE
  5
217D
330
1FE1
100
AcDbEntity
  8
0
 62
     0
370
    -2
100
AcDbLine
 10
300.0161041540732
 20
1185.414695440594
 30
0.0
 11
403.0161041540726
 21
1185.414695440594
 31
0.0
  0
INSERT
  5
217E
330
1FE1
100
AcDbEntity
  8
0
 62
     0
370
    -2
100
AcDbBlockReference
  2
_OPEN30
 10
292.5161041540732
 20
1185.414695440594
 30
0.0
 41
7.5
 42
7.5
 43
7.5
 50
180.0
  0
INSERT
  5
217F
330
1FE1
100
AcDbEntity
  8
0
 62
     0
370
    -2
100
AcDbBlockReference
  2
_OPEN30
 10
410.5161041540728
 20
1185.414695440594
 30
0.0
 41
7.5
 42
7.5
 43
7.5
  0
MTEXT
  5
2180
330
1FE1
100
AcDbEntity
  8
0
 62
     0
370
    50
100
AcDbMText
 10
351.5161041540731
 20
1195.164695440594
 30
0.0
 40
10.5
 41
0.0
 71
     5
 72
     1
  1
118
 73
     1
 44
1.0
1001
ACAD
1000
MTEXTBEGIN
1070
    73
1070
     1
1070
    44
1040
1.0
1070
    74
1070
     0
1000
MTEXTEND
  0
POINT
  5
2181
330
1FE1
100
AcDbEntity
  8
Defpoints
 62
     0
100
AcDbPoint
 10
292.5161041540732
 20
1126.51194571678
 30
0.0
  0
POINT
  5
2182
330
1FE1
100
AcDbEntity
  8
Defpoints
 62
     0
100
AcDbPoint
 10
410.5161041540728
 20
911.5119457167802
 30
0.0
  0
POINT
  5
2183
330
1FE1
100
AcDbEntity
  8
Defpoints
 62
     0
100
AcDbPoint
 10
410.5161041540728
 20
1185.414695440594
 30
0.0
  0
ENDBLK
  5
1FEC
330
1FE1
100
AcDbEntity
  8
0
100
AcDbBlockEnd
  0
BLOCK
  5
1FF7
330
1FED
100
AcDbEntity
  8
0
100
AcDbBlockBegin
  2
*D31
 70
     1
 10
0.0
 20
0.0
 30
0.0
  3
*D31
  1

  0
LINE
  5
2128
330
1FED
100
AcDbEntity
  8
0
100
AcDbLine
 10
292.5161041540732
 20
1126.51194571678
 30
0.0
 11
292.5161041540732
 21
1167.547386339513
 31
0.0
  0
LINE
  5
2129
330
1FED
100
AcDbEntity
  8
0
100
AcDbLine
 10
380.5161041540732
 20
1058.511945716779
 30
0.0
 11
380.5161041540732
 21
1167.547386339513
 31
0.0
  0
LINE
  5
212A
330
1FED
100
AcDbEntity
  8
0
100
AcDbLine
 10
301.5161041540732
 20
1164.547386339513
 30
0.0
 11
371.5161041540732
 21
1164.547386339513
 31
0.0
  0
INSERT
  5
212B
330
1FED
100
AcDbEntity
  8
0
100
AcDbBlockReference
  2
_OPEN30
 10
292.5161041540732
 20
1164.547386339513
 30
0.0
 41
9.0
 42
9.0
 43
9.0
 50
180.0
  0
INSERT
  5
212C
330
1FED
100
AcDbEntity
  8
0
100
AcDbBlockReference
  2
_OPEN30
 10
380.5161041540732
 20
1164.547386339513
 30
0.0
 41
9.0
 42
9.0
 43
9.0
  0
MTEXT
  5
212D
330
1FED
100
AcDbEntity
  8
0
370
    50
100
AcDbMText
 10
336.5161041540732
 20
1174.297386339513
 30
0.0
 40
10.5
 41
0.0
 71
     5
 72
     1
  1
88
 73
     1
 44
1.0
1001
ACAD
1000
MTEXTBEGIN
1070
    73
1070
     1
1070
    44
1040
1.0
1070
    74
1070
     0
1000
MTEXTEND
  0
POINT
  5
212E
330
1FED
100
AcDbEntity
  8
Defpoints
 62
     0
100
AcDbPoint
 10
292.5161041540732
 20
1120.51194571678
 30
0.0
  0
POINT
  5
212F
330
1FED
100
AcDbEntity
  8
Defpoints
 62
     0
100
AcDbPoint
 10
380.5161041540732
 20
1052.51194571678
 30
0.0
  0
POINT
  5
2130
330
1FED
100
AcDbEntity
  8
Defpoints
 62
     0
100
AcDbPoint
 10
380.5161041540732
 20
1164.547386339513
 30
0.0
  0
ENDBLK
  5
1FF8
330
1FED
100
AcDbEntity
  8
0
100
AcDbBlockEnd
  0
BLOCK
  5
2003
330
1FF9
100
AcDbEntity
  8
0
100
AcDbBlockBegin
  2
*D32
 70
     1
 10
0.0
 20
0.0
 30
0.0
  3
*D32
  1

  0
LINE
  5
2131
330
1FF9
100
AcDbEntity
  8
0
100
AcDbLine
 10
439.3069107426452
 20
866.5119457167801
 30
0.0
 11
439.3069107426452
 21
791.4236869347396
 31
0.0
  0
LINE
  5
2132
330
1FF9
100
AcDbEntity
  8
0
100
AcDbLine
 10
629.306910742645
 20
866.5119457167799
 30
0.0
 11
629.306910742645
 21
791.4236869347396
 31
0.0
  0
LINE
  5
2133
330
1FF9
100
AcDbEntity
  8
0
100
AcDbLine
 10
448.3069107426452
 20
794.4236869347396
 30
0.0
 11
620.3069107426451
 21
794.4236869347396
 31
0.0
  0
INSERT
  5
2134
330
1FF9
100
AcDbEntity
  8
0
100
AcDbBlockReference
  2
_OPEN30
 10
439.3069107426452
 20
794.4236869347396
 30
0.0
 41
9.0
 42
9.0
 43
9.0
 50
180.0
  0
INSERT
  5
2135
330
1FF9
100
AcDbEntity
  8
0
100
AcDbBlockReference
  2
_OPEN30
 10
629.306910742645
 20
794.4236869347396
 30
0.0
 41
9.0
 42
9.0
 43
9.0
  0
MTEXT
  5
2136
330
1FF9
100
AcDbEntity
  8
0
370
    50
100
AcDbMText
 10
534.306910742645
 20
804.1736869347396
 30
0.0
 40
10.5
 41
0.0
 71
     5
 72
     1
  1
190
 73
     1
 44
1.0
1001
ACAD
1000
MTEXTBEGIN
1070
    73
1070
     1
1070
    44
1040
1.0
1070
    74
1070
     0
1000
MTEXTEND
  0
POINT
  5
2137
330
1FF9
100
AcDbEntity
  8
Defpoints
 62
     0
100
AcDbPoint
 10
439.3069107426452
 20
872.5119457167799
 30
0.0
  0
POINT
  5
2138
330
1FF9
100
AcDbEntity
  8
Defpoints
 62
     0
100
AcDbPoint
 10
629.306910742645
 20
872.5119457167799
 30
0.0
  0
POINT
  5
2139
330
1FF9
100
AcDbEntity
  8
Defpoints
 62
     0
100
AcDbPoint
 10
629.306910742645
 20
794.4236869347396
 30
0.0
  0
ENDBLK
  5
2004
330
1FF9
100
AcDbEntity
  8
0
100
AcDbBlockEnd
  0
BLOCK
  5
200F
330
2005
100
AcDbEntity
  8
0
100
AcDbBlockBegin
  2
*D33
 70
     1
 10
0.0
 20
0.0
 30
0.0
  3
*D33
  1

  0
LINE
  5
213A
330
2005
100
AcDbEntity
  8
0
100
AcDbLine
 10
633.306910742645
 20
870.5119457167798
 30
0.0
 11
673.88947924222
 21
870.5119457167798
 31
0.0
  0
LINE
  5
213B
330
2005
100
AcDbEntity
  8
0
100
AcDbLine
 10
633.3069107426453
 20
1120.51194571678
 30
0.0
 11
673.88947924222
 21
1120.51194571678
 31
0.0
  0
LINE
  5
213C
330
2005
100
AcDbEntity
  8
0
100
AcDbLine
 10
670.8894792422197
 20
879.5119457167798
 30
0.0
 11
670.8894792422197
 21
1111.51194571678
 31
0.0
  0
INSERT
  5
213D
330
2005
100
AcDbEntity
  8
0
100
AcDbBlockReference
  2
_OPEN30
 10
670.8894792422197
 20
870.5119457167798
 30
0.0
 41
9.0
 42
9.0
 43
9.0
 50
270.0
  0
INSERT
  5
213E
330
2005
100
AcDbEntity
  8
0
100
AcDbBlockReference
  2
_OPEN30
 10
670.8894792422197
 20
1120.51194571678
 30
0.0
 41
9.0
 42
9.0
 43
9.0
 50
90.0
  0
MTEXT
  5
213F
330
2005
100
AcDbEntity
  8
0
370
    50
100
AcDbMText
 10
661.1394792422197
 20
995.5119457167802
 30
0.0
 40
10.5
 41
0.0
 71
     5
 72
     1
  1
250
 11
0.0000000000000001
 21
1.0
 31
0.0
 73
     1
 44
1.0
1001
ACAD
1000
MTEXTBEGIN
1070
    73
1070
     1
1070
    44
1040
1.0
1070
    74
1070
     0
1000
MTEXTEND
  0
POINT
  5
2140
330
2005
100
AcDbEntity
  8
Defpoints
 62
     0
100
AcDbPoint
 10
627.3069107426453
 20
870.5119457167798
 30
0.0
  0
POINT
  5
2141
330
2005
100
AcDbEntity
  8
Defpoints
 62
     0
100
AcDbPoint
 10
627.3069107426453
 20
1120.51194571678
 30
0.0
  0
POINT
  5
2142
330
2005
100
AcDbEntity
  8
Defpoints
 62
     0
100
AcDbPoint
 10
670.8894792422197
 20
1120.51194571678
 30
0.0
  0
ENDBLK
  5
2010
330
2005
100
AcDbEntity
  8
0
100
AcDbBlockEnd
  0
BLOCK
  5
201B
330
2011
100
AcDbEntity
  8
0
100
AcDbBlockBegin
  2
*D34
 70
     1
 10
0.0
 20
0.0
 30
0.0
  3
*D34
  1

  0
LINE
  5
2143
330
2011
100
AcDbEntity
  8
0
100
AcDbLine
 10
380.5161041540732
 20
1058.511945716779
 30
0.0
 11
380.5161041540732
 21
1147.51194572678
 31
0.0
  0
LINE
  5
2144
330
2011
100
AcDbEntity
  8
0
100
AcDbLine
 10
298.5161041540731
 20
1124.91194571678
 30
0.0
 11
298.5161041540731
 21
1147.51194572678
 31
0.0
  0
LINE
  5
2145
330
2011
100
AcDbEntity
  8
0
100
AcDbLine
 10
371.5161041540732
 20
1144.51194572678
 30
0.0
 11
307.5161041540732
 21
1144.51194572678
 31
0.0
  0
INSERT
  5
2146
330
2011
100
AcDbEntity
  8
0
100
AcDbBlockReference
  2
_OPEN30
 10
380.5161041540732
 20
1144.51194572678
 30
0.0
 41
9.0
 42
9.0
 43
9.0
  0
INSERT
  5
2147
330
2011
100
AcDbEntity
  8
0
100
AcDbBlockReference
  2
_OPEN30
 10
298.5161041540731
 20
1144.51194572678
 30
0.0
 41
9.0
 42
9.0
 43
9.0
 50
180.0
  0
MTEXT
  5
2148
330
2011
100
AcDbEntity
  8
0
370
    50
100
AcDbMText
 10
339.5161041540732
 20
1154.26194572678
 30
0.0
 40
10.5
 41
0.0
 71
     5
 72
     1
  1
82
 73
     1
 44
1.0
1001
ACAD
1000
MTEXTBEGIN
1070
    73
1070
     1
1070
    44
1040
1.0
1070
    74
1070
     0
1000
MTEXTEND
  0
POINT
  5
2149
330
2011
100
AcDbEntity
  8
Defpoints
 62
     0
100
AcDbPoint
 10
380.5161041540732
 20
1052.51194571678
 30
0.0
  0
POINT
  5
214A
330
2011
100
AcDbEntity
  8
Defpoints
 62
     0
100
AcDbPoint
 10
298.5161041540731
 20
1118.91194571678
 30
0.0
  0
POINT
  5
214B
330
2011
100
AcDbEntity
  8
Defpoints
 62
     0
100
AcDbPoint
 10
298.5161041540731
 20
1144.51194572678
 30
0.0
  0
ENDBLK
  5
201C
330
2011
100
AcDbEntity
  8
0
100
AcDbBlockEnd
  0
BLOCK
  5
2029
330
201D
100
AcDbEntity
  8
0
100
AcDbBlockBegin
  2
*D35
 70
     1
 10
0.0
 20
0.0
 30
0.0
  3
*D35
  1

  0
LINE
  5
214C
330
201D
100
AcDbEntity
  8
0
100
AcDbLine
 10
298.5161041540731
 20
1124.91194571678
 30
0.0
 11
298.5161041540731
 21
1147.51194572678
 31
0.0
  0
LINE
  5
214D
330
201D
100
AcDbEntity
  8
0
100
AcDbLine
 10
292.5161041540732
 20
1126.51194571678
 30
0.0
 11
292.5161041540732
 21
1147.51194572678
 31
0.0
  0
LINE
  5
214E
330
201D
100
AcDbEntity
  8
0
100
AcDbLine
 10
307.5161041540732
 20
1144.51194572678
 30
0.0
 11
316.5161041540732
 21
1144.51194572678
 31
0.0
  0
LINE
  5
214F
330
201D
100
AcDbEntity
  8
0
100
AcDbLine
 10
283.5161041540732
 20
1144.51194572678
 30
0.0
 11
258.5161041540732
 21
1144.51194572678
 31
0.0
  0
LINE
  5
2150
330
201D
100
AcDbEntity
  8
0
100
AcDbLine
 10
298.5161041540731
 20
1144.51194572678
 30
0.0
 11
292.5161041540732
 21
1144.51194572678
 31
0.0
  0
INSERT
  5
2151
330
201D
100
AcDbEntity
  8
0
100
AcDbBlockReference
  2
_OPEN30
 10
298.5161041540731
 20
1144.51194572678
 30
0.0
 41
9.0
 42
9.0
 43
9.0
 50
180.0
  0
INSERT
  5
2152
330
201D
100
AcDbEntity
  8
0
100
AcDbBlockReference
  2
_OPEN30
 10
292.5161041540732
 20
1144.51194572678
 30
0.0
 41
9.0
 42
9.0
 43
9.0
  0
MTEXT
  5
2153
330
201D
100
AcDbEntity
  8
0
370
    50
100
AcDbMText
 10
266.5161041540732
 20
1154.26194572678
 30
0.0
 40
10.5
 41
0.0
 71
     5
 72
     1
  1
6
 73
     1
 44
1.0
1001
ACAD
1000
MTEXTBEGIN
1070
    73
1070
     1
1070
    44
1040
1.0
1070
    74
1070
     0
1000
MTEXTEND
  0
POINT
  5
2154
330
201D
100
AcDbEntity
  8
Defpoints
 62
     0
100
AcDbPoint
 10
298.5161041540731
 20
1118.91194571678
 30
0.0
  0
POINT
  5
2155
330
201D
100
AcDbEntity
  8
Defpoints
 62
     0
100
AcDbPoint
 10
292.5161041540732
 20
1120.51194571678
 30
0.0
  0
POINT
  5
2156
330
201D
100
AcDbEntity
  8
Defpoints
 62
     0
100
AcDbPoint
 10
292.5161041540732
 20
1144.51194572678
 30
0.0
  0
ENDBLK
  5
202A
330
201D
100
AcDbEntity
  8
0
100
AcDbBlockEnd
  0
BLOCK
  5
2035
330
202B
100
AcDbEntity
  8
0
100
AcDbBlockBegin
  2
*D36
 70
     1
 10
0.0
 20
0.0
 30
0.0
  3
*D36
  1

  0
LINE
  5
2157
330
202B
100
AcDbEntity
  8
0
100
AcDbLine
 10
415.5161041540726
 20
864.5119457167799
 30
0.0
 11
415.5161041540726
 21
816.9617973130955
 31
0.0
  0
LINE
  5
2158
330
202B
100
AcDbEntity
  8
0
100
AcDbLine
 10
292.516104154073
 20
864.5119457167799
 30
0.0
 11
292.516104154073
 21
816.9617973130955
 31
0.0
  0
LINE
  5
2159
330
202B
100
AcDbEntity
  8
0
100
AcDbLine
 10
406.5161041540727
 20
819.9617973130955
 30
0.0
 11
301.516104154073
 21
819.9617973130955
 31
0.0
  0
INSERT
  5
215A
330
202B
100
AcDbEntity
  8
0
100
AcDbBlockReference
  2
_OPEN30
 10
415.5161041540726
 20
819.9617973130955
 30
0.0
 41
9.0
 42
9.0
 43
9.0
  0
INSERT
  5
215B
330
202B
100
AcDbEntity
  8
0
100
AcDbBlockReference
  2
_OPEN30
 10
292.516104154073
 20
819.9617973130955
 30
0.0
 41
9.0
 42
9.0
 43
9.0
 50
180.0
  0
MTEXT
  5
215C
330
202B
100
AcDbEntity
  8
0
370
    50
100
AcDbMText
 10
354.0161041540731
 20
829.7117973130955
 30
0.0
 40
10.5
 41
0.0
 71
     5
 72
     1
  1
123（A0J2）
 73
     1
 44
1.0
1001
ACAD
1000
MTEXTBEGIN
1070
    73
1070
     1
1070
    44
1040
1.0
1070
    74
1070
     0
1000
MTEXTEND
  0
POINT
  5
215D
330
202B
100
AcDbEntity
  8
Defpoints
 62
     0
100
AcDbPoint
 10
415.5161041540726
 20
870.5119457167798
 30
0.0
  0
POINT
  5
215E
330
202B
100
AcDbEntity
  8
Defpoints
 62
     0
100
AcDbPoint
 10
292.516104154073
 20
870.5119457167798
 30
0.0
  0
POINT
  5
215F
330
202B
100
AcDbEntity
  8
Defpoints
 62
     0
100
AcDbPoint
 10
292.516104154073
 20
819.9617973130955
 30
0.0
  0
ENDBLK
  5
2036
330
202B
100
AcDbEntity
  8
0
100
AcDbBlockEnd
  0
BLOCK
  5
2041
330
2037
100
AcDbEntity
  8
0
100
AcDbBlockBegin
  2
*D37
 70
     1
 10
0.0
 20
0.0
 30
0.0
  3
*D37
  1

  0
LINE
  5
2160
330
2037
100
AcDbEntity
  8
0
100
AcDbLine
 10
286.516104154073
 20
870.5119457167798
 30
0.0
 11
257.2031359485463
 21
870.5119457167798
 31
0.0
  0
LINE
  5
2161
330
2037
100
AcDbEntity
  8
0
100
AcDbLine
 10
286.5161041540732
 20
1120.51194571678
 30
0.0
 11
257.2031359485464
 21
1120.51194571678
 31
0.0
  0
LINE
  5
2162
330
2037
100
AcDbEntity
  8
0
100
AcDbLine
 10
260.2031359485463
 20
879.5119457167798
 30
0.0
 11
260.2031359485463
 21
1111.51194571678
 31
0.0
  0
INSERT
  5
2163
330
2037
100
AcDbEntity
  8
0
100
AcDbBlockReference
  2
_OPEN30
 10
260.2031359485463
 20
870.5119457167798
 30
0.0
 41
9.0
 42
9.0
 43
9.0
 50
270.0
  0
INSERT
  5
2164
330
2037
100
AcDbEntity
  8
0
100
AcDbBlockReference
  2
_OPEN30
 10
260.2031359485463
 20
1120.51194571678
 30
0.0
 41
9.0
 42
9.0
 43
9.0
 50
90.0
  0
MTEXT
  5
2165
330
2037
100
AcDbEntity
  8
0
370
    50
100
AcDbMText
 10
250.4531359485461
 20
995.5119457167802
 30
0.0
 40
10.5
 41
0.0
 71
     5
 72
     1
  1
250（A0J2）
 11
0.0000000000000001
 21
1.0
 31
0.0
 73
     1
 44
1.0
1001
ACAD
1000
MTEXTBEGIN
1070
    73
1070
     1
1070
    44
1040
1.0
1070
    74
1070
     0
1000
MTEXTEND
  0
POINT
  5
2166
330
2037
100
AcDbEntity
  8
Defpoints
 62
     0
100
AcDbPoint
 10
292.516104154073
 20
870.5119457167798
 30
0.0
  0
POINT
  5
2167
330
2037
100
AcDbEntity
  8
Defpoints
 62
     0
100
AcDbPoint
 10
292.5161041540732
 20
1120.51194571678
 30
0.0
  0
POINT
  5
2168
330
2037
100
AcDbEntity
  8
Defpoints
 62
     0
100
AcDbPoint
 10
260.2031359485463
 20
1120.51194571678
 30
0.0
  0
ENDBLK
  5
2042
330
2037
100
AcDbEntity
  8
0
100
AcDbBlockEnd
  0
BLOCK
  5
204D
330
2043
100
AcDbEntity
  8
0
100
AcDbBlockBegin
  2
*D38
 70
     1
 10
0.0
 20
0.0
 30
0.0
  3
*D38
  1

  0
LINE
  5
2169
330
2043
100
AcDbEntity
  8
0
100
AcDbLine
 10
624.3069107426451
 20
867.9019457167797
 30
0.0
 11
624.3069107426451
 21
813.7463579750328
 31
0.0
  0
LINE
  5
216A
330
2043
100
AcDbEntity
  8
0
100
AcDbLine
 10
444.3069107426452
 20
867.9019457167797
 30
0.0
 11
444.3069107426452
 21
813.7463579750328
 31
0.0
  0
LINE
  5
216B
330
2043
100
AcDbEntity
  8
0
100
AcDbLine
 10
615.3069107426452
 20
816.7463579750327
 30
0.0
 11
453.3069107426451
 21
816.7463579750327
 31
0.0
  0
INSERT
  5
216C
330
2043
100
AcDbEntity
  8
0
100
AcDbBlockReference
  2
_OPEN30
 10
624.3069107426451
 20
816.7463579750327
 30
0.0
 41
9.0
 42
9.0
 43
9.0
  0
INSERT
  5
216D
330
2043
100
AcDbEntity
  8
0
100
AcDbBlockReference
  2
_OPEN30
 10
444.3069107426452
 20
816.7463579750327
 30
0.0
 41
9.0
 42
9.0
 43
9.0
 50
180.0
  0
MTEXT
  5
216E
330
2043
100
AcDbEntity
  8
0
370
    50
100
AcDbMText
 10
534.306910742645
 20
826.4963579750327
 30
0.0
 40
10.5
 41
0.0
 71
     5
 72
     1
  1
180（取付ピッチ）
 73
     1
 44
1.0
1001
ACAD
1000
MTEXTBEGIN
1070
    73
1070
     1
1070
    44
1040
1.0
1070
    74
1070
     0
1000
MTEXTEND
  0
POINT
  5
216F
330
2043
100
AcDbEntity
  8
Defpoints
 62
     0
100
AcDbPoint
 10
624.3069107426451
 20
873.9019457167799
 30
0.0
  0
POINT
  5
2170
330
2043
100
AcDbEntity
  8
Defpoints
 62
     0
100
AcDbPoint
 10
444.3069107426452
 20
873.9019457167799
 30
0.0
  0
POINT
  5
2171
330
2043
100
AcDbEntity
  8
Defpoints
 62
     0
100
AcDbPoint
 10
444.3069107426452
 20
816.7463579750327
 30
0.0
  0
ENDBLK
  5
204E
330
2043
100
AcDbEntity
  8
0
100
AcDbBlockEnd
  0
BLOCK
  5
2059
330
204F
100
AcDbEntity
  8
0
100
AcDbBlockBegin
  2
*D39
 70
     1
 10
0.0
 20
0.0
 30
0.0
  3
*D39
  1

  0
LINE
  5
2172
330
204F
100
AcDbEntity
  8
0
100
AcDbLine
 10
632.9169107426451
 20
1114.51194571678
 30
0.0
 11
654.06766852841
 21
1114.51194571678
 31
0.0
  0
LINE
  5
2173
330
204F
100
AcDbEntity
  8
0
100
AcDbLine
 10
632.9169107426451
 20
876.5119457167799
 30
0.0
 11
654.06766852841
 21
876.5119457167799
 31
0.0
  0
LINE
  5
2174
330
204F
100
AcDbEntity
  8
0
100
AcDbLine
 10
651.0676685284103
 20
1105.51194571678
 30
0.0
 11
651.0676685284103
 21
885.5119457167798
 31
0.0
  0
INSERT
  5
2175
330
204F
100
AcDbEntity
  8
0
100
AcDbBlockReference
  2
_OPEN30
 10
651.0676685284103
 20
1114.51194571678
 30
0.0
 41
9.0
 42
9.0
 43
9.0
 50
90.0
  0
INSERT
  5
2176
330
204F
100
AcDbEntity
  8
0
100
AcDbBlockReference
  2
_OPEN30
 10
651.0676685284103
 20
876.5119457167799
 30
0.0
 41
9.0
 42
9.0
 43
9.0
 50
270.0
  0
MTEXT
  5
2177
330
204F
100
AcDbEntity
  8
0
370
    50
100
AcDbMText
 10
641.3176685284097
 20
995.5119457167802
 30
0.0
 40
10.5
 41
0.0
 71
     5
 72
     1
  1
238（取付ピッチ）
 11
0.0000000000000001
 21
1.0
 31
0.0
 73
     1
 44
1.0
1001
ACAD
1000
MTEXTBEGIN
1070
    73
1070
     1
1070
    44
1040
1.0
1070
    74
1070
     0
1000
MTEXTEND
  0
POINT
  5
2178
330
204F
100
AcDbEntity
  8
Defpoints
 62
     0
100
AcDbPoint
 10
626.916910742645
 20
1114.51194571678
 30
0.0
  0
POINT
  5
2179
330
204F
100
AcDbEntity
  8
Defpoints
 62
     0
100
AcDbPoint
 10
626.916910742645
 20
876.5119457167799
 30
0.0
  0
POINT
  5
217A
330
204F
100
AcDbEntity
  8
Defpoints
 62
     0
100
AcDbPoint
 10
651.0676685284103
 20
876.5119457167799
 30
0.0
  0
ENDBLK
  5
205A
330
204F
100
AcDbEntity
  8
0
100
AcDbBlockEnd
  0
BLOCK
  5
206E
330
2064
100
AcDbEntity
  8
0
100
AcDbBlockBegin
  2
*D40
 70
     1
 10
0.0
 20
0.0
 30
0.0
  3
*D40
  1

  0
LINE
  5
2184
330
2064
100
AcDbEntity
  8
0
 62
     0
370
    -2
100
AcDbLine
 10
610.5569107426453
 20
878.6369457167799
 30
0.0
 11
610.5569107426453
 21
838.1958936797065
 31
0.0
  0
LINE
  5
2185
330
2064
100
AcDbEntity
  8
0
 62
     0
370
    -2
100
AcDbLine
 10
478.5569107426453
 20
878.6369457167801
 30
0.0
 11
478.5569107426453
 21
838.1958936797065
 31
0.0
  0
LINE
  5
2186
330
2064
100
AcDbEntity
  8
0
 62
     0
370
    -2
100
AcDbLine
 10
600.0569107426453
 20
841.9458936797067
 30
0.0
 11
489.0569107426453
 21
841.9458936797067
 31
0.0
  0
INSERT
  5
2187
330
2064
100
AcDbEntity
  8
0
 62
     0
370
    -2
100
AcDbBlockReference
  2
_OPEN30
 10
610.5569107426453
 20
841.9458936797067
 30
0.0
 41
10.5
 42
10.5
 43
10.5
  0
INSERT
  5
2188
330
2064
100
AcDbEntity
  8
0
 62
     0
370
    -2
100
AcDbBlockReference
  2
_OPEN30
 10
478.5569107426453
 20
841.9458936797067
 30
0.0
 41
10.5
 42
10.5
 43
10.5
 50
180.0
  0
MTEXT
  5
2189
330
2064
100
AcDbEntity
  8
0
 62
     0
100
AcDbMText
 10
544.5569107426453
 20
850.1958936797063
 30
0.0
 40
10.5
 41
0.0
 71
     5
 72
     1
  1
132
 73
     1
 44
1.0
1001
ACAD
1000
MTEXTBEGIN
1070
    73
1070
     1
1070
    44
1040
1.0
1070
    74
1070
     0
1000
MTEXTEND
  0
POINT
  5
218A
330
2064
100
AcDbEntity
  8
Defpoints
 62
     0
100
AcDbPoint
 10
610.5569107426453
 20
880.5119457167799
 30
0.0
  0
POINT
  5
218B
330
2064
100
AcDbEntity
  8
Defpoints
 62
     0
100
AcDbPoint
 10
478.5569107426453
 20
880.5119457167799
 30
0.0
  0
POINT
  5
218C
330
2064
100
AcDbEntity
  8
Defpoints
 62
     0
100
AcDbPoint
 10
478.5569107426453
 20
841.9458936797067
 30
0.0
  0
ENDBLK
  5
206F
330
2064
100
AcDbEntity
  8
0
100
AcDbBlockEnd
  0
ENDSEC
  0
SECTION
  2
ENTITIES
  0
MTEXT
  5
17E6
330
1F
100
AcDbEntity
  8
0
100
AcDbMText
 10
249.6564086016797
 20
1304.661160115444
 30
0.0
 40
20.0
 41
481.2750437582439
 71
     1
 72
     5
  1
{\fMS Gothic|b0|i0|c128|p49;別置きタイプ２段積み\P固定台セット SC-A0JQBSL使用}
 73
     1
 44
1.0
1001
ACAD
1000
ACAD_MTEXT_DEFINED_HEIGHT_BEGIN
1070
    46
1040
60.37234859499813
1000
ACAD_MTEXT_DEFINED_HEIGHT_END
1000
MTEXTBEGIN
1070
    73
1070
     1
1070
    44
1040
1.0
1070
    74
1070
     0
1000
MTEXTEND
  0
LINE
  5
1CF3
330
1F
100
AcDbEntity
  8
0
370
    50
100
AcDbLine
 10
492.5569107426453
 20
914.4119457167798
 30
0.0
 11
492.5569107426453
 21
911.4119457167799
 31
0.0
  0
LINE
  5
1CF4
330
1F
100
AcDbEntity
  8
0
370
    50
100
AcDbLine
 10
491.5569107426454
 20
914.4119457167798
 30
0.0
 11
492.5569107426453
 21
914.4119457167798
 31
0.0
  0
LINE
  5
1CF5
330
1F
100
AcDbEntity
  8
0
370
    50
100
AcDbLine
 10
491.5569107426454
 20
911.4119457167799
 30
0.0
 11
491.5569107426454
 21
914.4119457167798
 31
0.0
  0
LINE
  5
1CF6
330
1F
100
AcDbEntity
  8
0
370
    50
100
AcDbLine
 10
492.5569107426453
 20
911.4119457167799
 30
0.0
 11
491.5569107426454
 21
911.4119457167799
 31
0.0
  0
LINE
  5
1CF7
330
1F
100
AcDbEntity
  8
0
370
    50
100
AcDbLine
 10
492.5569107426453
 20
905.8119457167801
 30
0.0
 11
492.5569107426453
 21
902.81194571678
 31
0.0
  0
LINE
  5
1CF8
330
1F
100
AcDbEntity
  8
0
370
    50
100
AcDbLine
 10
491.5569107426454
 20
905.8119457167801
 30
0.0
 11
492.5569107426453
 21
905.8119457167801
 31
0.0
  0
LINE
  5
1CF9
330
1F
100
AcDbEntity
  8
0
370
    50
100
AcDbLine
 10
491.5569107426454
 20
902.81194571678
 30
0.0
 11
491.5569107426454
 21
905.8119457167801
 31
0.0
  0
LINE
  5
1CFA
330
1F
100
AcDbEntity
  8
0
370
    50
100
AcDbLine
 10
492.5569107426453
 20
902.81194571678
 30
0.0
 11
491.5569107426454
 21
902.81194571678
 31
0.0
  0
LINE
  5
1CFB
330
1F
100
AcDbEntity
  8
0
370
    50
100
AcDbLine
 10
492.5569107426453
 20
931.6119457167799
 30
0.0
 11
492.5569107426453
 21
928.6119457167799
 31
0.0
  0
LINE
  5
1CFC
330
1F
100
AcDbEntity
  8
0
370
    50
100
AcDbLine
 10
491.5569107426454
 20
931.6119457167799
 30
0.0
 11
492.5569107426453
 21
931.6119457167799
 31
0.0
  0
LINE
  5
1CFD
330
1F
100
AcDbEntity
  8
0
370
    50
100
AcDbLine
 10
491.5569107426454
 20
928.6119457167799
 30
0.0
 11
491.5569107426454
 21
931.6119457167799
 31
0.0
  0
LINE
  5
1CFE
330
1F
100
AcDbEntity
  8
0
370
    50
100
AcDbLine
 10
492.5569107426453
 20
928.6119457167799
 30
0.0
 11
491.5569107426454
 21
928.6119457167799
 31
0.0
  0
LINE
  5
1CFF
330
1F
100
AcDbEntity
  8
0
370
    50
100
AcDbLine
 10
492.5569107426453
 20
923.0119457167798
 30
0.0
 11
492.5569107426453
 21
920.0119457167799
 31
0.0
  0
LINE
  5
1D00
330
1F
100
AcDbEntity
  8
0
370
    50
100
AcDbLine
 10
491.5569107426454
 20
923.0119457167798
 30
0.0
 11
492.5569107426453
 21
923.0119457167798
 31
0.0
  0
LINE
  5
1D01
330
1F
100
AcDbEntity
  8
0
370
    50
100
AcDbLine
 10
491.5569107426454
 20
920.0119457167799
 30
0.0
 11
491.5569107426454
 21
923.01194571678
 31
0.0
  0
LINE
  5
1D02
330
1F
100
AcDbEntity
  8
0
370
    50
100
AcDbLine
 10
492.5569107426453
 20
920.0119457167799
 30
0.0
 11
491.5569107426454
 21
920.0119457167799
 31
0.0
  0
LINE
  5
1D03
330
1F
100
AcDbEntity
  8
0
370
    50
100
AcDbLine
 10
492.5569107426453
 20
1017.61194571678
 30
0.0
 11
492.5569107426453
 21
1014.611945716779
 31
0.0
  0
LINE
  5
1D04
330
1F
100
AcDbEntity
  8
0
370
    50
100
AcDbLine
 10
491.5569107426454
 20
1017.61194571678
 30
0.0
 11
492.5569107426453
 21
1017.61194571678
 31
0.0
  0
LINE
  5
1D05
330
1F
100
AcDbEntity
  8
0
370
    50
100
AcDbLine
 10
491.5569107426454
 20
1014.611945716779
 30
0.0
 11
491.5569107426454
 21
1017.61194571678
 31
0.0
  0
LINE
  5
1D06
330
1F
100
AcDbEntity
  8
0
370
    50
100
AcDbLine
 10
492.5569107426453
 20
1014.611945716779
 30
0.0
 11
491.5569107426454
 21
1014.611945716779
 31
0.0
  0
LINE
  5
1D07
330
1F
100
AcDbEntity
  8
0
370
    50
100
AcDbLine
 10
492.5569107426453
 20
1009.01194571678
 30
0.0
 11
492.5569107426453
 21
1006.01194571678
 31
0.0
  0
LINE
  5
1D08
330
1F
100
AcDbEntity
  8
0
370
    50
100
AcDbLine
 10
491.5569107426454
 20
1009.01194571678
 30
0.0
 11
492.5569107426453
 21
1009.01194571678
 31
0.0
  0
LINE
  5
1D09
330
1F
100
AcDbEntity
  8
0
370
    50
100
AcDbLine
 10
491.5569107426454
 20
1006.01194571678
 30
0.0
 11
491.5569107426454
 21
1009.01194571678
 31
0.0
  0
LINE
  5
1D0A
330
1F
100
AcDbEntity
  8
0
370
    50
100
AcDbLine
 10
492.5569107426453
 20
1006.01194571678
 30
0.0
 11
491.5569107426454
 21
1006.01194571678
 31
0.0
  0
LINE
  5
1D0B
330
1F
100
AcDbEntity
  8
0
370
    50
100
AcDbLine
 10
492.5569107426453
 20
1034.81194571678
 30
0.0
 11
492.5569107426453
 21
1031.81194571678
 31
0.0
  0
LINE
  5
1D0C
330
1F
100
AcDbEntity
  8
0
370
    50
100
AcDbLine
 10
491.5569107426454
 20
1034.81194571678
 30
0.0
 11
492.5569107426453
 21
1034.81194571678
 31
0.0
  0
LINE
  5
1D0D
330
1F
100
AcDbEntity
  8
0
370
    50
100
AcDbLine
 10
491.5569107426454
 20
1031.81194571678
 30
0.0
 11
491.5569107426454
 21
1034.81194571678
 31
0.0
  0
LINE
  5
1D0E
330
1F
100
AcDbEntity
  8
0
370
    50
100
AcDbLine
 10
492.5569107426453
 20
1031.81194571678
 30
0.0
 11
491.5569107426454
 21
1031.81194571678
 31
0.0
  0
LINE
  5
1D0F
330
1F
100
AcDbEntity
  8
0
370
    50
100
AcDbLine
 10
492.5569107426453
 20
1026.21194571678
 30
0.0
 11
492.5569107426453
 21
1023.21194571678
 31
0.0
  0
LINE
  5
1D10
330
1F
100
AcDbEntity
  8
0
370
    50
100
AcDbLine
 10
491.5569107426454
 20
1026.21194571678
 30
0.0
 11
492.5569107426453
 21
1026.21194571678
 31
0.0
  0
LINE
  5
1D11
330
1F
100
AcDbEntity
  8
0
370
    50
100
AcDbLine
 10
491.5569107426454
 20
1023.21194571678
 30
0.0
 11
491.5569107426454
 21
1026.21194571678
 31
0.0
  0
LINE
  5
1D12
330
1F
100
AcDbEntity
  8
0
370
    50
100
AcDbLine
 10
492.5569107426453
 20
1023.21194571678
 30
0.0
 11
491.5569107426454
 21
1023.21194571678
 31
0.0
  0
LINE
  5
1D13
330
1F
100
AcDbEntity
  8
0
370
    50
100
AcDbLine
 10
492.5569107426453
 20
983.2119457167799
 30
0.0
 11
492.5569107426453
 21
980.2119457167799
 31
0.0
  0
LINE
  5
1D14
330
1F
100
AcDbEntity
  8
0
370
    50
100
AcDbLine
 10
491.5569107426454
 20
983.2119457167799
 30
0.0
 11
492.5569107426453
 21
983.2119457167799
 31
0.0
  0
LINE
  5
1D15
330
1F
100
AcDbEntity
  8
0
370
    50
100
AcDbLine
 10
491.5569107426454
 20
980.2119457167799
 30
0.0
 11
491.5569107426454
 21
983.2119457167799
 31
0.0
  0
LINE
  5
1D16
330
1F
100
AcDbEntity
  8
0
370
    50
100
AcDbLine
 10
492.5569107426453
 20
980.2119457167799
 30
0.0
 11
491.5569107426454
 21
980.2119457167799
 31
0.0
  0
LINE
  5
1D17
330
1F
100
AcDbEntity
  8
0
370
    50
100
AcDbLine
 10
492.5569107426453
 20
974.6119457167798
 30
0.0
 11
492.5569107426453
 21
971.6119457167799
 31
0.0
  0
LINE
  5
1D18
330
1F
100
AcDbEntity
  8
0
370
    50
100
AcDbLine
 10
491.5569107426454
 20
974.6119457167798
 30
0.0
 11
492.5569107426453
 21
974.6119457167798
 31
0.0
  0
LINE
  5
1D19
330
1F
100
AcDbEntity
  8
0
370
    50
100
AcDbLine
 10
491.5569107426454
 20
971.6119457167799
 30
0.0
 11
491.5569107426454
 21
974.6119457167798
 31
0.0
  0
LINE
  5
1D1A
330
1F
100
AcDbEntity
  8
0
370
    50
100
AcDbLine
 10
492.5569107426453
 20
971.6119457167799
 30
0.0
 11
491.5569107426454
 21
971.6119457167799
 31
0.0
  0
LINE
  5
1D1B
330
1F
100
AcDbEntity
  8
0
370
    50
100
AcDbLine
 10
492.5569107426453
 20
1000.41194571678
 30
0.0
 11
492.5569107426453
 21
997.41194571678
 31
0.0
  0
LINE
  5
1D1C
330
1F
100
AcDbEntity
  8
0
370
    50
100
AcDbLine
 10
491.5569107426454
 20
1000.41194571678
 30
0.0
 11
492.5569107426453
 21
1000.41194571678
 31
0.0
  0
LINE
  5
1D1D
330
1F
100
AcDbEntity
  8
0
370
    50
100
AcDbLine
 10
491.5569107426454
 20
997.41194571678
 30
0.0
 11
491.5569107426454
 21
1000.41194571678
 31
0.0
  0
LINE
  5
1D1E
330
1F
100
AcDbEntity
  8
0
370
    50
100
AcDbLine
 10
492.5569107426453
 20
997.41194571678
 30
0.0
 11
491.5569107426454
 21
997.41194571678
 31
0.0
  0
LINE
  5
1D1F
330
1F
100
AcDbEntity
  8
0
370
    50
100
AcDbLine
 10
492.5569107426453
 20
991.8119457167799
 30
0.0
 11
492.5569107426453
 21
988.81194571678
 31
0.0
  0
LINE
  5
1D20
330
1F
100
AcDbEntity
  8
0
370
    50
100
AcDbLine
 10
491.5569107426454
 20
991.8119457167799
 30
0.0
 11
492.5569107426453
 21
991.8119457167799
 31
0.0
  0
LINE
  5
1D21
330
1F
100
AcDbEntity
  8
0
370
    50
100
AcDbLine
 10
491.5569107426454
 20
988.81194571678
 30
0.0
 11
491.5569107426454
 21
991.8119457167799
 31
0.0
  0
LINE
  5
1D22
330
1F
100
AcDbEntity
  8
0
370
    50
100
AcDbLine
 10
492.5569107426453
 20
988.81194571678
 30
0.0
 11
491.5569107426454
 21
988.81194571678
 31
0.0
  0
ARC
  5
1D23
330
1F
100
AcDbEntity
  8
0
370
    50
100
AcDbCircle
 10
494.5569107426453
 20
1047.011945716779
 30
0.0
 40
1.999999999999999
100
AcDbArc
 50
0.0
 51
90.0
  0
ARC
  5
1D24
330
1F
100
AcDbEntity
  8
0
370
    50
100
AcDbCircle
 10
494.5569107426453
 20
886.0119457167799
 30
0.0
 40
1.999999999999999
100
AcDbArc
 50
270.0
 51
0.0
  0
ARC
  5
1D25
330
1F
100
AcDbEntity
  8
0
370
    50
100
AcDbCircle
 10
480.5569107426453
 20
886.0119457167799
 30
0.0
 40
1.999999999999999
100
AcDbArc
 50
180.0
 51
270.0
  0
ARC
  5
1D26
330
1F
100
AcDbEntity
  8
0
370
    50
100
AcDbCircle
 10
480.5569107426453
 20
1047.011945716779
 30
0.0
 40
1.999999999999999
100
AcDbArc
 50
90.0
 51
180.0
  0
CIRCLE
  5
1D27
330
1F
100
AcDbEntity
  8
0
370
    50
100
AcDbCircle
 10
492.0569107426453
 20
887.2619457167798
 30
0.0
 40
2.0
  0
CIRCLE
  5
1D28
330
1F
100
AcDbEntity
  8
0
370
    50
100
AcDbCircle
 10
483.5569107426453
 20
1045.76194571678
 30
0.0
 40
2.0
  0
LINE
  5
1D29
330
1F
100
AcDbEntity
  8
0
370
    50
100
AcDbLine
 10
441.3069107426453
 20
1049.01194571678
 30
0.0
 11
455.3069107426453
 21
1049.01194571678
 31
0.0
  0
LINE
  5
1D2A
330
1F
100
AcDbEntity
  8
0
370
    50
100
AcDbLine
 10
457.3069107426453
 20
1047.011945716779
 30
0.0
 11
457.3069107426453
 21
886.0119457167799
 31
0.0
  0
LINE
  5
1D2B
330
1F
100
AcDbEntity
  8
0
370
    50
100
AcDbLine
 10
455.3069107426451
 20
884.0119457167801
 30
0.0
 11
441.306910742645
 21
884.0119457167801
 31
0.0
  0
LINE
  5
1D2C
330
1F
100
AcDbEntity
  8
0
370
    50
100
AcDbLine
 10
439.3069107426452
 20
886.0119457167799
 30
0.0
 11
439.3069107426454
 21
1047.011945716779
 31
0.0
  0
LINE
  5
1D2D
330
1F
100
AcDbEntity
  8
0
370
    50
100
AcDbLine
 10
449.3069107426451
 20
892.1119457167799
 30
0.0
 11
449.3069107426453
 21
1045.51194571678
 31
0.0
  0
LINE
  5
1D2E
330
1F
100
AcDbEntity
  8
0
370
    50
100
AcDbLine
 10
449.3069107426453
 20
1045.51194571678
 30
0.0
 11
456.3069107426453
 21
1045.51194571678
 31
0.0
  0
LINE
  5
1D2F
330
1F
100
AcDbEntity
  8
0
370
    50
100
AcDbLine
 10
456.3069107426453
 20
1045.51194571678
 30
0.0
 11
456.3069107426452
 21
892.1119457167799
 31
0.0
  0
LINE
  5
1D30
330
1F
100
AcDbEntity
  8
0
370
    50
100
AcDbLine
 10
456.3069107426452
 20
892.1119457167799
 30
0.0
 11
449.3069107426451
 21
892.1119457167799
 31
0.0
  0
LINE
  5
1D31
330
1F
100
AcDbEntity
  8
0
370
    50
100
AcDbLine
 10
448.3069107426453
 20
1041.21194571678
 30
0.0
 11
448.3069107426452
 21
887.81194571678
 31
0.0
  0
LINE
  5
1D32
330
1F
100
AcDbEntity
  8
0
370
    50
100
AcDbLine
 10
448.3069107426452
 20
887.81194571678
 30
0.0
 11
441.306910742645
 21
887.81194571678
 31
0.0
  0
LINE
  5
1D33
330
1F
100
AcDbEntity
  8
0
370
    50
100
AcDbLine
 10
441.306910742645
 20
887.81194571678
 30
0.0
 11
441.3069107426453
 21
1041.21194571678
 31
0.0
  0
LINE
  5
1D34
330
1F
100
AcDbEntity
  8
0
370
    50
100
AcDbLine
 10
441.3069107426453
 20
1041.21194571678
 30
0.0
 11
448.3069107426453
 21
1041.21194571678
 31
0.0
  0
LINE
  5
1D35
330
1F
100
AcDbEntity
  8
0
370
    50
100
AcDbLine
 10
444.8069107426452
 20
892.91194571678
 30
0.0
 11
444.8069107426452
 21
889.9119457167801
 31
0.0
  0
LINE
  5
1D36
330
1F
100
AcDbEntity
  8
0
370
    50
100
AcDbLine
 10
443.8069107426452
 20
892.91194571678
 30
0.0
 11
444.8069107426452
 21
892.91194571678
 31
0.0
  0
LINE
  5
1D37
330
1F
100
AcDbEntity
  8
0
370
    50
100
AcDbLine
 10
443.8069107426452
 20
889.9119457167801
 30
0.0
 11
443.8069107426452
 21
892.91194571678
 31
0.0
  0
LINE
  5
1D38
330
1F
100
AcDbEntity
  8
0
370
    50
100
AcDbLine
 10
444.8069107426452
 20
889.9119457167801
 30
0.0
 11
443.8069107426452
 21
889.9119457167801
 31
0.0
  0
LINE
  5
1D39
330
1F
100
AcDbEntity
  8
0
370
    50
100
AcDbLine
 10
444.8069107426453
 20
1039.11194571678
 30
0.0
 11
444.8069107426453
 21
1036.11194571678
 31
0.0
  0
LINE
  5
1D3A
330
1F
100
AcDbEntity
  8
0
370
    50
100
AcDbLine
 10
443.8069107426453
 20
1039.11194571678
 30
0.0
 11
444.8069107426453
 21
1039.11194571678
 31
0.0
  0
LINE
  5
1D3B
330
1F
100
AcDbEntity
  8
0
370
    50
100
AcDbLine
 10
443.8069107426453
 20
1036.11194571678
 30
0.0
 11
443.8069107426453
 21
1039.11194571678
 31
0.0
  0
LINE
  5
1D3C
330
1F
100
AcDbEntity
  8
0
370
    50
100
AcDbLine
 10
444.8069107426453
 20
1036.11194571678
 30
0.0
 11
443.8069107426453
 21
1036.11194571678
 31
0.0
  0
LINE
  5
1D3D
330
1F
100
AcDbEntity
  8
0
370
    50
100
AcDbLine
 10
444.8069107426452
 20
944.5119457167802
 30
0.0
 11
444.8069107426452
 21
941.5119457167799
 31
0.0
  0
LINE
  5
1D3E
330
1F
100
AcDbEntity
  8
0
370
    50
100
AcDbLine
 10
443.8069107426452
 20
944.5119457167802
 30
0.0
 11
444.8069107426452
 21
944.5119457167802
 31
0.0
  0
LINE
  5
1D3F
330
1F
100
AcDbEntity
  8
0
370
    50
100
AcDbLine
 10
443.8069107426452
 20
941.5119457167799
 30
0.0
 11
443.8069107426452
 21
944.5119457167802
 31
0.0
  0
LINE
  5
1D40
330
1F
100
AcDbEntity
  8
0
370
    50
100
AcDbLine
 10
444.8069107426452
 20
941.5119457167799
 30
0.0
 11
443.8069107426452
 21
941.5119457167799
 31
0.0
  0
LINE
  5
1D41
330
1F
100
AcDbEntity
  8
0
370
    50
100
AcDbLine
 10
444.8069107426452
 20
935.9119457167802
 30
0.0
 11
444.8069107426452
 21
932.91194571678
 31
0.0
  0
LINE
  5
1D42
330
1F
100
AcDbEntity
  8
0
370
    50
100
AcDbLine
 10
443.8069107426452
 20
935.9119457167802
 30
0.0
 11
444.8069107426452
 21
935.9119457167802
 31
0.0
  0
LINE
  5
1D43
330
1F
100
AcDbEntity
  8
0
370
    50
100
AcDbLine
 10
443.8069107426452
 20
932.91194571678
 30
0.0
 11
443.8069107426452
 21
935.9119457167802
 31
0.0
  0
LINE
  5
1D44
330
1F
100
AcDbEntity
  8
0
370
    50
100
AcDbLine
 10
444.8069107426452
 20
932.91194571678
 30
0.0
 11
443.8069107426452
 21
932.91194571678
 31
0.0
  0
LINE
  5
1D45
330
1F
100
AcDbEntity
  8
0
370
    50
100
AcDbLine
 10
444.8069107426453
 20
961.7119457167799
 30
0.0
 11
444.8069107426453
 21
958.71194571678
 31
0.0
  0
LINE
  5
1D46
330
1F
100
AcDbEntity
  8
0
370
    50
100
AcDbLine
 10
443.8069107426453
 20
961.7119457167799
 30
0.0
 11
444.8069107426453
 21
961.7119457167799
 31
0.0
  0
LINE
  5
1D47
330
1F
100
AcDbEntity
  8
0
370
    50
100
AcDbLine
 10
443.8069107426453
 20
958.71194571678
 30
0.0
 11
443.8069107426453
 21
961.7119457167799
 31
0.0
  0
LINE
  5
1D48
330
1F
100
AcDbEntity
  8
0
370
    50
100
AcDbLine
 10
444.8069107426453
 20
958.71194571678
 30
0.0
 11
443.8069107426453
 21
958.71194571678
 31
0.0
  0
LINE
  5
1D49
330
1F
100
AcDbEntity
  8
0
370
    50
100
AcDbLine
 10
444.8069107426453
 20
953.11194571678
 30
0.0
 11
444.8069107426453
 21
950.1119457167799
 31
0.0
  0
LINE
  5
1D4A
330
1F
100
AcDbEntity
  8
0
370
    50
100
AcDbLine
 10
443.8069107426453
 20
953.11194571678
 30
0.0
 11
444.8069107426453
 21
953.11194571678
 31
0.0
  0
LINE
  5
1D4B
330
1F
100
AcDbEntity
  8
0
370
    50
100
AcDbLine
 10
443.8069107426453
 20
950.1119457167799
 30
0.0
 11
443.8069107426453
 21
953.11194571678
 31
0.0
  0
LINE
  5
1D4C
330
1F
100
AcDbEntity
  8
0
370
    50
100
AcDbLine
 10
444.8069107426453
 20
950.1119457167799
 30
0.0
 11
443.8069107426453
 21
950.1119457167799
 31
0.0
  0
LINE
  5
1D4D
330
1F
100
AcDbEntity
  8
0
370
    50
100
AcDbLine
 10
444.8069107426452
 20
910.1119457167799
 30
0.0
 11
444.8069107426452
 21
907.1119457167799
 31
0.0
  0
LINE
  5
1D4E
330
1F
100
AcDbEntity
  8
0
370
    50
100
AcDbLine
 10
443.8069107426452
 20
910.1119457167799
 30
0.0
 11
444.8069107426452
 21
910.1119457167799
 31
0.0
  0
LINE
  5
1D4F
330
1F
100
AcDbEntity
  8
0
370
    50
100
AcDbLine
 10
443.8069107426452
 20
907.1119457167799
 30
0.0
 11
443.8069107426452
 21
910.1119457167799
 31
0.0
  0
LINE
  5
1D50
330
1F
100
AcDbEntity
  8
0
370
    50
100
AcDbLine
 10
444.8069107426452
 20
907.1119457167799
 30
0.0
 11
443.8069107426452
 21
907.1119457167799
 31
0.0
  0
LINE
  5
1D51
330
1F
100
AcDbEntity
  8
0
370
    50
100
AcDbLine
 10
444.8069107426452
 20
901.51194571678
 30
0.0
 11
444.8069107426452
 21
898.5119457167799
 31
0.0
  0
LINE
  5
1D52
330
1F
100
AcDbEntity
  8
0
370
    50
100
AcDbLine
 10
443.8069107426452
 20
901.51194571678
 30
0.0
 11
444.8069107426452
 21
901.51194571678
 31
0.0
  0
LINE
  5
1D53
330
1F
100
AcDbEntity
  8
0
370
    50
100
AcDbLine
 10
443.8069107426452
 20
898.5119457167799
 30
0.0
 11
443.8069107426452
 21
901.51194571678
 31
0.0
  0
LINE
  5
1D54
330
1F
100
AcDbEntity
  8
0
370
    50
100
AcDbLine
 10
444.8069107426452
 20
898.5119457167799
 30
0.0
 11
443.8069107426452
 21
898.5119457167799
 31
0.0
  0
LINE
  5
1D55
330
1F
100
AcDbEntity
  8
0
370
    50
100
AcDbLine
 10
444.8069107426452
 20
927.3119457167799
 30
0.0
 11
444.8069107426452
 21
924.31194571678
 31
0.0
  0
LINE
  5
1D56
330
1F
100
AcDbEntity
  8
0
370
    50
100
AcDbLine
 10
443.8069107426452
 20
927.3119457167799
 30
0.0
 11
444.8069107426452
 21
927.3119457167799
 31
0.0
  0
LINE
  5
1D57
330
1F
100
AcDbEntity
  8
0
370
    50
100
AcDbLine
 10
443.8069107426452
 20
924.31194571678
 30
0.0
 11
443.8069107426452
 21
927.3119457167799
 31
0.0
  0
LINE
  5
1D58
330
1F
100
AcDbEntity
  8
0
370
    50
100
AcDbLine
 10
444.8069107426452
 20
924.31194571678
 30
0.0
 11
443.8069107426452
 21
924.31194571678
 31
0.0
  0
LINE
  5
1D59
330
1F
100
AcDbEntity
  8
0
370
    50
100
AcDbLine
 10
444.8069107426452
 20
918.7119457167799
 30
0.0
 11
444.8069107426452
 21
915.71194571678
 31
0.0
  0
LINE
  5
1D5A
330
1F
100
AcDbEntity
  8
0
370
    50
100
AcDbLine
 10
443.8069107426452
 20
918.7119457167799
 30
0.0
 11
444.8069107426452
 21
918.7119457167799
 31
0.0
  0
LINE
  5
1D5B
330
1F
100
AcDbEntity
  8
0
370
    50
100
AcDbLine
 10
443.8069107426452
 20
915.71194571678
 30
0.0
 11
443.8069107426452
 21
918.7119457167799
 31
0.0
  0
LINE
  5
1D5C
330
1F
100
AcDbEntity
  8
0
370
    50
100
AcDbLine
 10
444.8069107426452
 20
915.71194571678
 30
0.0
 11
443.8069107426452
 21
915.71194571678
 31
0.0
  0
LINE
  5
1D5D
330
1F
100
AcDbEntity
  8
0
370
    50
100
AcDbLine
 10
444.8069107426453
 20
1013.31194571678
 30
0.0
 11
444.8069107426453
 21
1010.31194571678
 31
0.0
  0
LINE
  5
1D5E
330
1F
100
AcDbEntity
  8
0
370
    50
100
AcDbLine
 10
443.8069107426453
 20
1013.31194571678
 30
0.0
 11
444.8069107426453
 21
1013.31194571678
 31
0.0
  0
LINE
  5
1D5F
330
1F
100
AcDbEntity
  8
0
370
    50
100
AcDbLine
 10
443.8069107426453
 20
1010.31194571678
 30
0.0
 11
443.8069107426453
 21
1013.31194571678
 31
0.0
  0
LINE
  5
1D60
330
1F
100
AcDbEntity
  8
0
370
    50
100
AcDbLine
 10
444.8069107426453
 20
1010.31194571678
 30
0.0
 11
443.8069107426453
 21
1010.31194571678
 31
0.0
  0
LINE
  5
1D61
330
1F
100
AcDbEntity
  8
0
370
    50
100
AcDbLine
 10
444.8069107426453
 20
1004.71194571678
 30
0.0
 11
444.8069107426453
 21
1001.71194571678
 31
0.0
  0
LINE
  5
1D62
330
1F
100
AcDbEntity
  8
0
370
    50
100
AcDbLine
 10
443.8069107426453
 20
1004.71194571678
 30
0.0
 11
444.8069107426453
 21
1004.71194571678
 31
0.0
  0
LINE
  5
1D63
330
1F
100
AcDbEntity
  8
0
370
    50
100
AcDbLine
 10
443.8069107426453
 20
1001.71194571678
 30
0.0
 11
443.8069107426453
 21
1004.71194571678
 31
0.0
  0
LINE
  5
1D64
330
1F
100
AcDbEntity
  8
0
370
    50
100
AcDbLine
 10
444.8069107426453
 20
1001.71194571678
 30
0.0
 11
443.8069107426453
 21
1001.71194571678
 31
0.0
  0
LINE
  5
1D65
330
1F
100
AcDbEntity
  8
0
370
    50
100
AcDbLine
 10
444.8069107426453
 20
1030.51194571678
 30
0.0
 11
444.8069107426453
 21
1027.51194571678
 31
0.0
  0
LINE
  5
1D66
330
1F
100
AcDbEntity
  8
0
370
    50
100
AcDbLine
 10
443.8069107426453
 20
1030.51194571678
 30
0.0
 11
444.8069107426453
 21
1030.51194571678
 31
0.0
  0
LINE
  5
1D67
330
1F
100
AcDbEntity
  8
0
370
    50
100
AcDbLine
 10
443.8069107426453
 20
1027.51194571678
 30
0.0
 11
443.8069107426453
 21
1030.51194571678
 31
0.0
  0
LINE
  5
1D68
330
1F
100
AcDbEntity
  8
0
370
    50
100
AcDbLine
 10
444.8069107426453
 20
1027.51194571678
 30
0.0
 11
443.8069107426453
 21
1027.51194571678
 31
0.0
  0
LINE
  5
1D69
330
1F
100
AcDbEntity
  8
0
370
    50
100
AcDbLine
 10
444.8069107426453
 20
1021.91194571678
 30
0.0
 11
444.8069107426453
 21
1018.91194571678
 31
0.0
  0
LINE
  5
1D6A
330
1F
100
AcDbEntity
  8
0
370
    50
100
AcDbLine
 10
443.8069107426453
 20
1021.91194571678
 30
0.0
 11
444.8069107426453
 21
1021.91194571678
 31
0.0
  0
LINE
  5
1D6B
330
1F
100
AcDbEntity
  8
0
370
    50
100
AcDbLine
 10
443.8069107426453
 20
1018.91194571678
 30
0.0
 11
443.8069107426453
 21
1021.91194571678
 31
0.0
  0
LINE
  5
1D6C
330
1F
100
AcDbEntity
  8
0
370
    50
100
AcDbLine
 10
444.8069107426453
 20
1018.91194571678
 30
0.0
 11
443.8069107426453
 21
1018.91194571678
 31
0.0
  0
LINE
  5
1D6D
330
1F
100
AcDbEntity
  8
0
370
    50
100
AcDbLine
 10
444.8069107426453
 20
978.9119457167798
 30
0.0
 11
444.8069107426453
 21
975.91194571678
 31
0.0
  0
LINE
  5
1D6E
330
1F
100
AcDbEntity
  8
0
370
    50
100
AcDbLine
 10
443.8069107426453
 20
978.9119457167798
 30
0.0
 11
444.8069107426453
 21
978.9119457167798
 31
0.0
  0
LINE
  5
1D6F
330
1F
100
AcDbEntity
  8
0
370
    50
100
AcDbLine
 10
443.8069107426453
 20
975.91194571678
 30
0.0
 11
443.8069107426453
 21
978.9119457167798
 31
0.0
  0
LINE
  5
1D70
330
1F
100
AcDbEntity
  8
0
370
    50
100
AcDbLine
 10
444.8069107426453
 20
975.91194571678
 30
0.0
 11
443.8069107426453
 21
975.91194571678
 31
0.0
  0
LINE
  5
1D71
330
1F
100
AcDbEntity
  8
0
370
    50
100
AcDbLine
 10
444.8069107426453
 20
970.3119457167799
 30
0.0
 11
444.8069107426453
 21
967.31194571678
 31
0.0
  0
LINE
  5
1D72
330
1F
100
AcDbEntity
  8
0
370
    50
100
AcDbLine
 10
443.8069107426453
 20
970.3119457167799
 30
0.0
 11
444.8069107426453
 21
970.3119457167799
 31
0.0
  0
LINE
  5
1D73
330
1F
100
AcDbEntity
  8
0
370
    50
100
AcDbLine
 10
443.8069107426453
 20
967.31194571678
 30
0.0
 11
443.8069107426453
 21
970.3119457167799
 31
0.0
  0
LINE
  5
1D74
330
1F
100
AcDbEntity
  8
0
370
    50
100
AcDbLine
 10
444.8069107426453
 20
967.31194571678
 30
0.0
 11
443.8069107426453
 21
967.31194571678
 31
0.0
  0
LINE
  5
1D75
330
1F
100
AcDbEntity
  8
0
370
    50
100
AcDbLine
 10
444.8069107426453
 20
996.11194571678
 30
0.0
 11
444.8069107426453
 21
993.1119457167799
 31
0.0
  0
LINE
  5
1D76
330
1F
100
AcDbEntity
  8
0
370
    50
100
AcDbLine
 10
443.8069107426453
 20
996.11194571678
 30
0.0
 11
444.8069107426453
 21
996.11194571678
 31
0.0
  0
LINE
  5
1D77
330
1F
100
AcDbEntity
  8
0
370
    50
100
AcDbLine
 10
443.8069107426453
 20
993.1119457167799
 30
0.0
 11
443.8069107426453
 21
996.11194571678
 31
0.0
  0
LINE
  5
1D78
330
1F
100
AcDbEntity
  8
0
370
    50
100
AcDbLine
 10
444.8069107426453
 20
993.1119457167799
 30
0.0
 11
443.8069107426453
 21
993.1119457167799
 31
0.0
  0
LINE
  5
1D79
330
1F
100
AcDbEntity
  8
0
370
    50
100
AcDbLine
 10
444.8069107426453
 20
987.5119457167798
 30
0.0
 11
444.8069107426453
 21
984.5119457167799
 31
0.0
  0
LINE
  5
1D7A
330
1F
100
AcDbEntity
  8
0
370
    50
100
AcDbLine
 10
443.8069107426453
 20
987.5119457167798
 30
0.0
 11
444.8069107426453
 21
987.5119457167798
 31
0.0
  0
LINE
  5
1D7B
330
1F
100
AcDbEntity
  8
0
370
    50
100
AcDbLine
 10
443.8069107426453
 20
984.5119457167799
 30
0.0
 11
443.8069107426453
 21
987.5119457167798
 31
0.0
  0
LINE
  5
1D7C
330
1F
100
AcDbEntity
  8
0
370
    50
100
AcDbLine
 10
444.8069107426453
 20
984.5119457167799
 30
0.0
 11
443.8069107426453
 21
984.5119457167799
 31
0.0
  0
LINE
  5
1D7D
330
1F
100
AcDbEntity
  8
0
370
    50
100
AcDbLine
 10
453.3069107426451
 20
897.2119457167801
 30
0.0
 11
453.3069107426451
 21
894.21194571678
 31
0.0
  0
LINE
  5
1D7E
330
1F
100
AcDbEntity
  8
0
370
    50
100
AcDbLine
 10
452.3069107426452
 20
897.2119457167801
 30
0.0
 11
453.3069107426451
 21
897.2119457167801
 31
0.0
  0
LINE
  5
1D7F
330
1F
100
AcDbEntity
  8
0
370
    50
100
AcDbLine
 10
452.3069107426452
 20
894.21194571678
 30
0.0
 11
452.3069107426452
 21
897.2119457167801
 31
0.0
  0
LINE
  5
1D80
330
1F
100
AcDbEntity
  8
0
370
    50
100
AcDbLine
 10
453.3069107426451
 20
894.21194571678
 30
0.0
 11
452.3069107426452
 21
894.21194571678
 31
0.0
  0
LINE
  5
1D81
330
1F
100
AcDbEntity
  8
0
370
    50
100
AcDbLine
 10
453.3069107426453
 20
1043.41194571678
 30
0.0
 11
453.3069107426453
 21
1040.41194571678
 31
0.0
  0
LINE
  5
1D82
330
1F
100
AcDbEntity
  8
0
370
    50
100
AcDbLine
 10
452.3069107426453
 20
1043.41194571678
 30
0.0
 11
453.3069107426453
 21
1043.41194571678
 31
0.0
  0
LINE
  5
1D83
330
1F
100
AcDbEntity
  8
0
370
    50
100
AcDbLine
 10
452.3069107426453
 20
1040.41194571678
 30
0.0
 11
452.3069107426453
 21
1043.41194571678
 31
0.0
  0
LINE
  5
1D84
330
1F
100
AcDbEntity
  8
0
370
    50
100
AcDbLine
 10
453.3069107426453
 20
1040.41194571678
 30
0.0
 11
452.3069107426453
 21
1040.41194571678
 31
0.0
  0
LINE
  5
1D85
330
1F
100
AcDbEntity
  8
0
370
    50
100
AcDbLine
 10
453.3069107426453
 20
948.8119457167799
 30
0.0
 11
453.3069107426453
 21
945.81194571678
 31
0.0
  0
LINE
  5
1D86
330
1F
100
AcDbEntity
  8
0
370
    50
100
AcDbLine
 10
452.3069107426453
 20
948.8119457167799
 30
0.0
 11
453.3069107426453
 21
948.8119457167799
 31
0.0
  0
LINE
  5
1D87
330
1F
100
AcDbEntity
  8
0
370
    50
100
AcDbLine
 10
452.3069107426453
 20
945.81194571678
 30
0.0
 11
452.3069107426453
 21
948.8119457167799
 31
0.0
  0
LINE
  5
1D88
330
1F
100
AcDbEntity
  8
0
370
    50
100
AcDbLine
 10
453.3069107426451
 20
945.81194571678
 30
0.0
 11
452.3069107426452
 21
945.81194571678
 31
0.0
  0
LINE
  5
1D89
330
1F
100
AcDbEntity
  8
0
370
    50
100
AcDbLine
 10
453.3069107426453
 20
940.2119457167799
 30
0.0
 11
453.3069107426453
 21
937.21194571678
 31
0.0
  0
LINE
  5
1D8A
330
1F
100
AcDbEntity
  8
0
370
    50
100
AcDbLine
 10
452.3069107426453
 20
940.2119457167799
 30
0.0
 11
453.3069107426453
 21
940.2119457167799
 31
0.0
  0
LINE
  5
1D8B
330
1F
100
AcDbEntity
  8
0
370
    50
100
AcDbLine
 10
452.3069107426453
 20
937.21194571678
 30
0.0
 11
452.3069107426453
 21
940.2119457167799
 31
0.0
  0
LINE
  5
1D8C
330
1F
100
AcDbEntity
  8
0
370
    50
100
AcDbLine
 10
453.3069107426451
 20
937.21194571678
 30
0.0
 11
452.3069107426452
 21
937.21194571678
 31
0.0
  0
LINE
  5
1D8D
330
1F
100
AcDbEntity
  8
0
370
    50
100
AcDbLine
 10
453.3069107426453
 20
966.0119457167802
 30
0.0
 11
453.3069107426453
 21
963.0119457167799
 31
0.0
  0
LINE
  5
1D8E
330
1F
100
AcDbEntity
  8
0
370
    50
100
AcDbLine
 10
452.3069107426453
 20
966.0119457167802
 30
0.0
 11
453.3069107426453
 21
966.0119457167802
 31
0.0
  0
LINE
  5
1D8F
330
1F
100
AcDbEntity
  8
0
370
    50
100
AcDbLine
 10
452.3069107426453
 20
963.0119457167799
 30
0.0
 11
452.3069107426453
 21
966.0119457167802
 31
0.0
  0
LINE
  5
1D90
330
1F
100
AcDbEntity
  8
0
370
    50
100
AcDbLine
 10
453.3069107426453
 20
963.0119457167799
 30
0.0
 11
452.3069107426453
 21
963.0119457167799
 31
0.0
  0
LINE
  5
1D91
330
1F
100
AcDbEntity
  8
0
370
    50
100
AcDbLine
 10
453.3069107426453
 20
957.4119457167798
 30
0.0
 11
453.3069107426453
 21
954.41194571678
 31
0.0
  0
LINE
  5
1D92
330
1F
100
AcDbEntity
  8
0
370
    50
100
AcDbLine
 10
452.3069107426453
 20
957.4119457167798
 30
0.0
 11
453.3069107426453
 21
957.4119457167798
 31
0.0
  0
LINE
  5
1D93
330
1F
100
AcDbEntity
  8
0
370
    50
100
AcDbLine
 10
452.3069107426453
 20
954.41194571678
 30
0.0
 11
452.3069107426453
 21
957.4119457167798
 31
0.0
  0
LINE
  5
1D94
330
1F
100
AcDbEntity
  8
0
370
    50
100
AcDbLine
 10
453.3069107426453
 20
954.41194571678
 30
0.0
 11
452.3069107426453
 21
954.41194571678
 31
0.0
  0
LINE
  5
1D95
330
1F
100
AcDbEntity
  8
0
370
    50
100
AcDbLine
 10
453.3069107426451
 20
914.4119457167802
 30
0.0
 11
453.3069107426451
 21
911.4119457167799
 31
0.0
  0
LINE
  5
1D96
330
1F
100
AcDbEntity
  8
0
370
    50
100
AcDbLine
 10
452.3069107426452
 20
914.4119457167802
 30
0.0
 11
453.3069107426451
 21
914.4119457167802
 31
0.0
  0
LINE
  5
1D97
330
1F
100
AcDbEntity
  8
0
370
    50
100
AcDbLine
 10
452.3069107426452
 20
911.4119457167799
 30
0.0
 11
452.3069107426452
 21
914.4119457167802
 31
0.0
  0
LINE
  5
1D98
330
1F
100
AcDbEntity
  8
0
370
    50
100
AcDbLine
 10
453.3069107426451
 20
911.4119457167799
 30
0.0
 11
452.3069107426452
 21
911.4119457167799
 31
0.0
  0
LINE
  5
1D99
330
1F
100
AcDbEntity
  8
0
370
    50
100
AcDbLine
 10
453.3069107426451
 20
905.8119457167801
 30
0.0
 11
453.3069107426451
 21
902.81194571678
 31
0.0
  0
LINE
  5
1D9A
330
1F
100
AcDbEntity
  8
0
370
    50
100
AcDbLine
 10
452.3069107426452
 20
905.8119457167801
 30
0.0
 11
453.3069107426451
 21
905.8119457167801
 31
0.0
  0
LINE
  5
1D9B
330
1F
100
AcDbEntity
  8
0
370
    50
100
AcDbLine
 10
452.3069107426452
 20
902.81194571678
 30
0.0
 11
452.3069107426452
 21
905.8119457167801
 31
0.0
  0
LINE
  5
1D9C
330
1F
100
AcDbEntity
  8
0
370
    50
100
AcDbLine
 10
453.3069107426451
 20
902.81194571678
 30
0.0
 11
452.3069107426452
 21
902.81194571678
 31
0.0
  0
LINE
  5
1D9D
330
1F
100
AcDbEntity
  8
0
370
    50
100
AcDbLine
 10
453.3069107426451
 20
931.61194571678
 30
0.0
 11
453.3069107426451
 21
928.6119457167799
 31
0.0
  0
LINE
  5
1D9E
330
1F
100
AcDbEntity
  8
0
370
    50
100
AcDbLine
 10
452.3069107426453
 20
931.61194571678
 30
0.0
 11
453.3069107426453
 21
931.61194571678
 31
0.0
  0
LINE
  5
1D9F
330
1F
100
AcDbEntity
  8
0
370
    50
100
AcDbLine
 10
452.3069107426452
 20
928.6119457167799
 30
0.0
 11
452.3069107426452
 21
931.61194571678
 31
0.0
  0
LINE
  5
1DA0
330
1F
100
AcDbEntity
  8
0
370
    50
100
AcDbLine
 10
453.3069107426451
 20
928.6119457167799
 30
0.0
 11
452.3069107426452
 21
928.6119457167799
 31
0.0
  0
LINE
  5
1DA1
330
1F
100
AcDbEntity
  8
0
370
    50
100
AcDbLine
 10
453.3069107426451
 20
923.01194571678
 30
0.0
 11
453.3069107426451
 21
920.0119457167799
 31
0.0
  0
LINE
  5
1DA2
330
1F
100
AcDbEntity
  8
0
370
    50
100
AcDbLine
 10
452.3069107426452
 20
923.01194571678
 30
0.0
 11
453.3069107426451
 21
923.01194571678
 31
0.0
  0
LINE
  5
1DA3
330
1F
100
AcDbEntity
  8
0
370
    50
100
AcDbLine
 10
452.3069107426452
 20
920.0119457167799
 30
0.0
 11
452.3069107426452
 21
923.01194571678
 31
0.0
  0
LINE
  5
1DA4
330
1F
100
AcDbEntity
  8
0
370
    50
100
AcDbLine
 10
453.3069107426451
 20
920.0119457167799
 30
0.0
 11
452.3069107426452
 21
920.0119457167799
 31
0.0
  0
LINE
  5
1DA5
330
1F
100
AcDbEntity
  8
0
370
    50
100
AcDbLine
 10
453.3069107426453
 20
1017.61194571678
 30
0.0
 11
453.3069107426453
 21
1014.61194571678
 31
0.0
  0
LINE
  5
1DA6
330
1F
100
AcDbEntity
  8
0
370
    50
100
AcDbLine
 10
452.3069107426453
 20
1017.61194571678
 30
0.0
 11
453.3069107426453
 21
1017.61194571678
 31
0.0
  0
LINE
  5
1DA7
330
1F
100
AcDbEntity
  8
0
370
    50
100
AcDbLine
 10
452.3069107426453
 20
1014.61194571678
 30
0.0
 11
452.3069107426453
 21
1017.61194571678
 31
0.0
  0
LINE
  5
1DA8
330
1F
100
AcDbEntity
  8
0
370
    50
100
AcDbLine
 10
453.3069107426453
 20
1014.61194571678
 30
0.0
 11
452.3069107426453
 21
1014.61194571678
 31
0.0
  0
LINE
  5
1DA9
330
1F
100
AcDbEntity
  8
0
370
    50
100
AcDbLine
 10
453.3069107426453
 20
1009.01194571678
 30
0.0
 11
453.3069107426453
 21
1006.01194571678
 31
0.0
  0
LINE
  5
1DAA
330
1F
100
AcDbEntity
  8
0
370
    50
100
AcDbLine
 10
452.3069107426453
 20
1009.01194571678
 30
0.0
 11
453.3069107426453
 21
1009.01194571678
 31
0.0
  0
LINE
  5
1DAB
330
1F
100
AcDbEntity
  8
0
370
    50
100
AcDbLine
 10
452.3069107426453
 20
1006.01194571678
 30
0.0
 11
452.3069107426453
 21
1009.01194571678
 31
0.0
  0
LINE
  5
1DAC
330
1F
100
AcDbEntity
  8
0
370
    50
100
AcDbLine
 10
453.3069107426453
 20
1006.01194571678
 30
0.0
 11
452.3069107426453
 21
1006.01194571678
 31
0.0
  0
LINE
  5
1DAD
330
1F
100
AcDbEntity
  8
0
370
    50
100
AcDbLine
 10
453.3069107426453
 20
1034.81194571678
 30
0.0
 11
453.3069107426453
 21
1031.81194571678
 31
0.0
  0
LINE
  5
1DAE
330
1F
100
AcDbEntity
  8
0
370
    50
100
AcDbLine
 10
452.3069107426453
 20
1034.81194571678
 30
0.0
 11
453.3069107426453
 21
1034.81194571678
 31
0.0
  0
LINE
  5
1DAF
330
1F
100
AcDbEntity
  8
0
370
    50
100
AcDbLine
 10
452.3069107426453
 20
1031.81194571678
 30
0.0
 11
452.3069107426453
 21
1034.81194571678
 31
0.0
  0
LINE
  5
1DB0
330
1F
100
AcDbEntity
  8
0
370
    50
100
AcDbLine
 10
453.3069107426453
 20
1031.81194571678
 30
0.0
 11
452.3069107426453
 21
1031.81194571678
 31
0.0
  0
LINE
  5
1DB1
330
1F
100
AcDbEntity
  8
0
370
    50
100
AcDbLine
 10
453.3069107426453
 20
1026.21194571678
 30
0.0
 11
453.3069107426453
 21
1023.21194571678
 31
0.0
  0
LINE
  5
1DB2
330
1F
100
AcDbEntity
  8
0
370
    50
100
AcDbLine
 10
452.3069107426453
 20
1026.21194571678
 30
0.0
 11
453.3069107426453
 21
1026.21194571678
 31
0.0
  0
LINE
  5
1DB3
330
1F
100
AcDbEntity
  8
0
370
    50
100
AcDbLine
 10
452.3069107426453
 20
1023.21194571678
 30
0.0
 11
452.3069107426453
 21
1026.21194571678
 31
0.0
  0
LINE
  5
1DB4
330
1F
100
AcDbEntity
  8
0
370
    50
100
AcDbLine
 10
453.3069107426453
 20
1023.21194571678
 30
0.0
 11
452.3069107426453
 21
1023.21194571678
 31
0.0
  0
LINE
  5
1DB5
330
1F
100
AcDbEntity
  8
0
370
    50
100
AcDbLine
 10
453.3069107426453
 20
983.2119457167802
 30
0.0
 11
453.3069107426453
 21
980.2119457167799
 31
0.0
  0
LINE
  5
1DB6
330
1F
100
AcDbEntity
  8
0
370
    50
100
AcDbLine
 10
452.3069107426453
 20
983.2119457167802
 30
0.0
 11
453.3069107426453
 21
983.2119457167802
 31
0.0
  0
LINE
  5
1DB7
330
1F
100
AcDbEntity
  8
0
370
    50
100
AcDbLine
 10
452.3069107426453
 20
980.2119457167799
 30
0.0
 11
452.3069107426453
 21
983.2119457167802
 31
0.0
  0
LINE
  5
1DB8
330
1F
100
AcDbEntity
  8
0
370
    50
100
AcDbLine
 10
453.3069107426453
 20
980.2119457167799
 30
0.0
 11
452.3069107426453
 21
980.2119457167799
 31
0.0
  0
LINE
  5
1DB9
330
1F
100
AcDbEntity
  8
0
370
    50
100
AcDbLine
 10
453.3069107426453
 20
974.61194571678
 30
0.0
 11
453.3069107426453
 21
971.6119457167799
 31
0.0
  0
LINE
  5
1DBA
330
1F
100
AcDbEntity
  8
0
370
    50
100
AcDbLine
 10
452.3069107426453
 20
974.61194571678
 30
0.0
 11
453.3069107426453
 21
974.61194571678
 31
0.0
  0
LINE
  5
1DBB
330
1F
100
AcDbEntity
  8
0
370
    50
100
AcDbLine
 10
452.3069107426453
 20
971.6119457167799
 30
0.0
 11
452.3069107426453
 21
974.61194571678
 31
0.0
  0
LINE
  5
1DBC
330
1F
100
AcDbEntity
  8
0
370
    50
100
AcDbLine
 10
453.3069107426453
 20
971.6119457167799
 30
0.0
 11
452.3069107426453
 21
971.6119457167799
 31
0.0
  0
LINE
  5
1DBD
330
1F
100
AcDbEntity
  8
0
370
    50
100
AcDbLine
 10
453.3069107426453
 20
1000.41194571678
 30
0.0
 11
453.3069107426453
 21
997.41194571678
 31
0.0
  0
LINE
  5
1DBE
330
1F
100
AcDbEntity
  8
0
370
    50
100
AcDbLine
 10
452.3069107426453
 20
1000.41194571678
 30
0.0
 11
453.3069107426453
 21
1000.41194571678
 31
0.0
  0
LINE
  5
1DBF
330
1F
100
AcDbEntity
  8
0
370
    50
100
AcDbLine
 10
452.3069107426453
 20
997.41194571678
 30
0.0
 11
452.3069107426453
 21
1000.41194571678
 31
0.0
  0
LINE
  5
1DC0
330
1F
100
AcDbEntity
  8
0
370
    50
100
AcDbLine
 10
453.3069107426453
 20
997.41194571678
 30
0.0
 11
452.3069107426453
 21
997.41194571678
 31
0.0
  0
LINE
  5
1DC1
330
1F
100
AcDbEntity
  8
0
370
    50
100
AcDbLine
 10
453.3069107426453
 20
991.8119457167799
 30
0.0
 11
453.3069107426453
 21
988.81194571678
 31
0.0
  0
LINE
  5
1DC2
330
1F
100
AcDbEntity
  8
0
370
    50
100
AcDbLine
 10
452.3069107426453
 20
991.8119457167799
 30
0.0
 11
453.3069107426453
 21
991.8119457167799
 31
0.0
  0
LINE
  5
1DC3
330
1F
100
AcDbEntity
  8
0
370
    50
100
AcDbLine
 10
452.3069107426453
 20
988.81194571678
 30
0.0
 11
452.3069107426453
 21
991.8119457167799
 31
0.0
  0
LINE
  5
1DC4
330
1F
100
AcDbEntity
  8
0
370
    50
100
AcDbLine
 10
453.3069107426453
 20
988.81194571678
 30
0.0
 11
452.3069107426453
 21
988.81194571678
 31
0.0
  0
ARC
  5
1DC5
330
1F
100
AcDbEntity
  8
0
370
    50
100
AcDbCircle
 10
455.3069107426453
 20
1047.011945716779
 30
0.0
 40
1.999999999999999
100
AcDbArc
 50
0.0
 51
90.0
  0
ARC
  5
1DC6
330
1F
100
AcDbEntity
  8
0
370
    50
100
AcDbCircle
 10
455.3069107426451
 20
886.0119457167799
 30
0.0
 40
1.999999999999999
100
AcDbArc
 50
270.0
 51
0.0
  0
ARC
  5
1DC7
330
1F
100
AcDbEntity
  8
0
370
    50
100
AcDbCircle
 10
441.306910742645
 20
886.0119457167799
 30
0.0
 40
1.999999999999999
100
AcDbArc
 50
180.0
 51
270.0
  0
ARC
  5
1DC8
330
1F
100
AcDbEntity
  8
0
370
    50
100
AcDbCircle
 10
441.3069107426453
 20
1047.011945716779
 30
0.0
 40
1.999999999999999
100
AcDbArc
 50
90.0
 51
180.0
  0
CIRCLE
  5
1DC9
330
1F
100
AcDbEntity
  8
0
370
    50
100
AcDbCircle
 10
452.8069107426452
 20
887.26194571678
 30
0.0
 40
2.0
  0
CIRCLE
  5
1DCA
330
1F
100
AcDbEntity
  8
0
370
    50
100
AcDbCircle
 10
444.3069107426453
 20
1045.76194571678
 30
0.0
 40
2.0
  0
LINE
  5
1DCB
330
1F
100
AcDbEntity
  8
0
370
    50
100
AcDbLine
 10
613.3069107426453
 20
1049.01194571678
 30
0.0
 11
627.3069107426453
 21
1049.01194571678
 31
0.0
  0
LINE
  5
1DCC
330
1F
100
AcDbEntity
  8
0
370
    50
100
AcDbLine
 10
629.3069107426453
 20
1047.011945716779
 30
0.0
 11
629.3069107426453
 21
886.0119457167797
 31
0.0
  0
LINE
  5
1DCD
330
1F
100
AcDbEntity
  8
0
370
    50
100
AcDbLine
 10
627.3069107426453
 20
884.0119457167798
 30
0.0
 11
613.306910742645
 21
884.0119457167798
 31
0.0
  0
LINE
  5
1DCE
330
1F
100
AcDbEntity
  8
0
370
    50
100
AcDbLine
 10
611.3069107426452
 20
886.0119457167797
 30
0.0
 11
611.3069107426452
 21
1047.011945716779
 31
0.0
  0
LINE
  5
1DCF
330
1F
100
AcDbEntity
  8
0
370
    50
100
AcDbLine
 10
621.306910742645
 20
892.1119457167797
 30
0.0
 11
621.3069107426453
 21
1045.51194571678
 31
0.0
  0
LINE
  5
1DD0
330
1F
100
AcDbEntity
  8
0
370
    50
100
AcDbLine
 10
621.3069107426453
 20
1045.51194571678
 30
0.0
 11
628.3069107426452
 21
1045.51194571678
 31
0.0
  0
LINE
  5
1DD1
330
1F
100
AcDbEntity
  8
0
370
    50
100
AcDbLine
 10
628.3069107426452
 20
1045.51194571678
 30
0.0
 11
628.3069107426451
 21
892.1119457167797
 31
0.0
  0
LINE
  5
1DD2
330
1F
100
AcDbEntity
  8
0
370
    50
100
AcDbLine
 10
628.3069107426451
 20
892.1119457167797
 30
0.0
 11
621.306910742645
 21
892.1119457167797
 31
0.0
  0
LINE
  5
1DD3
330
1F
100
AcDbEntity
  8
0
370
    50
100
AcDbLine
 10
620.3069107426452
 20
1041.211945716779
 30
0.0
 11
620.3069107426451
 21
887.8119457167796
 31
0.0
  0
LINE
  5
1DD4
330
1F
100
AcDbEntity
  8
0
370
    50
100
AcDbLine
 10
620.3069107426451
 20
887.8119457167796
 30
0.0
 11
613.306910742645
 21
887.8119457167796
 31
0.0
  0
LINE
  5
1DD5
330
1F
100
AcDbEntity
  8
0
370
    50
100
AcDbLine
 10
613.306910742645
 20
887.8119457167796
 30
0.0
 11
613.3069107426453
 21
1041.211945716779
 31
0.0
  0
LINE
  5
1DD6
330
1F
100
AcDbEntity
  8
0
370
    50
100
AcDbLine
 10
613.3069107426453
 20
1041.211945716779
 30
0.0
 11
620.3069107426452
 21
1041.211945716779
 31
0.0
  0
LINE
  5
1DD7
330
1F
100
AcDbEntity
  8
0
370
    50
100
AcDbLine
 10
616.806910742645
 20
892.9119457167798
 30
0.0
 11
616.806910742645
 21
889.9119457167797
 31
0.0
  0
LINE
  5
1DD8
330
1F
100
AcDbEntity
  8
0
370
    50
100
AcDbLine
 10
615.8069107426451
 20
892.9119457167798
 30
0.0
 11
616.806910742645
 21
892.9119457167798
 31
0.0
  0
LINE
  5
1DD9
330
1F
100
AcDbEntity
  8
0
370
    50
100
AcDbLine
 10
615.8069107426451
 20
889.9119457167799
 30
0.0
 11
615.8069107426451
 21
892.9119457167798
 31
0.0
  0
LINE
  5
1DDA
330
1F
100
AcDbEntity
  8
0
370
    50
100
AcDbLine
 10
616.806910742645
 20
889.9119457167797
 30
0.0
 11
615.8069107426451
 21
889.9119457167797
 31
0.0
  0
LINE
  5
1DDB
330
1F
100
AcDbEntity
  8
0
370
    50
100
AcDbLine
 10
616.8069107426453
 20
1039.111945716779
 30
0.0
 11
616.8069107426453
 21
1036.11194571678
 31
0.0
  0
LINE
  5
1DDC
330
1F
100
AcDbEntity
  8
0
370
    50
100
AcDbLine
 10
615.8069107426452
 20
1039.111945716779
 30
0.0
 11
616.8069107426453
 21
1039.111945716779
 31
0.0
  0
LINE
  5
1DDD
330
1F
100
AcDbEntity
  8
0
370
    50
100
AcDbLine
 10
615.8069107426452
 20
1036.11194571678
 30
0.0
 11
615.8069107426452
 21
1039.111945716779
 31
0.0
  0
LINE
  5
1DDE
330
1F
100
AcDbEntity
  8
0
370
    50
100
AcDbLine
 10
616.8069107426453
 20
1036.11194571678
 30
0.0
 11
615.8069107426452
 21
1036.11194571678
 31
0.0
  0
LINE
  5
1DDF
330
1F
100
AcDbEntity
  8
0
370
    50
100
AcDbLine
 10
616.806910742645
 20
944.5119457167798
 30
0.0
 11
616.806910742645
 21
941.5119457167797
 31
0.0
  0
LINE
  5
1DE0
330
1F
100
AcDbEntity
  8
0
370
    50
100
AcDbLine
 10
615.8069107426451
 20
944.5119457167798
 30
0.0
 11
616.806910742645
 21
944.5119457167798
 31
0.0
  0
LINE
  5
1DE1
330
1F
100
AcDbEntity
  8
0
370
    50
100
AcDbLine
 10
615.8069107426451
 20
941.5119457167797
 30
0.0
 11
615.8069107426451
 21
944.5119457167798
 31
0.0
  0
LINE
  5
1DE2
330
1F
100
AcDbEntity
  8
0
370
    50
100
AcDbLine
 10
616.806910742645
 20
941.5119457167797
 30
0.0
 11
615.8069107426451
 21
941.5119457167797
 31
0.0
  0
LINE
  5
1DE3
330
1F
100
AcDbEntity
  8
0
370
    50
100
AcDbLine
 10
616.806910742645
 20
935.9119457167798
 30
0.0
 11
616.806910742645
 21
932.9119457167797
 31
0.0
  0
LINE
  5
1DE4
330
1F
100
AcDbEntity
  8
0
370
    50
100
AcDbLine
 10
615.8069107426451
 20
935.9119457167798
 30
0.0
 11
616.806910742645
 21
935.9119457167798
 31
0.0
  0
LINE
  5
1DE5
330
1F
100
AcDbEntity
  8
0
370
    50
100
AcDbLine
 10
615.8069107426451
 20
932.9119457167799
 30
0.0
 11
615.8069107426451
 21
935.9119457167798
 31
0.0
  0
LINE
  5
1DE6
330
1F
100
AcDbEntity
  8
0
370
    50
100
AcDbLine
 10
616.806910742645
 20
932.9119457167797
 30
0.0
 11
615.8069107426451
 21
932.9119457167797
 31
0.0
  0
LINE
  5
1DE7
330
1F
100
AcDbEntity
  8
0
370
    50
100
AcDbLine
 10
616.8069107426453
 20
961.7119457167799
 30
0.0
 11
616.8069107426453
 21
958.7119457167798
 31
0.0
  0
LINE
  5
1DE8
330
1F
100
AcDbEntity
  8
0
370
    50
100
AcDbLine
 10
615.8069107426452
 20
961.7119457167799
 30
0.0
 11
616.8069107426453
 21
961.7119457167799
 31
0.0
  0
LINE
  5
1DE9
330
1F
100
AcDbEntity
  8
0
370
    50
100
AcDbLine
 10
615.8069107426452
 20
958.7119457167798
 30
0.0
 11
615.8069107426452
 21
961.7119457167799
 31
0.0
  0
LINE
  5
1DEA
330
1F
100
AcDbEntity
  8
0
370
    50
100
AcDbLine
 10
616.8069107426453
 20
958.7119457167798
 30
0.0
 11
615.8069107426452
 21
958.7119457167798
 31
0.0
  0
LINE
  5
1DEB
330
1F
100
AcDbEntity
  8
0
370
    50
100
AcDbLine
 10
616.8069107426453
 20
953.1119457167799
 30
0.0
 11
616.8069107426453
 21
950.1119457167796
 31
0.0
  0
LINE
  5
1DEC
330
1F
100
AcDbEntity
  8
0
370
    50
100
AcDbLine
 10
615.8069107426452
 20
953.1119457167799
 30
0.0
 11
616.8069107426453
 21
953.1119457167799
 31
0.0
  0
LINE
  5
1DED
330
1F
100
AcDbEntity
  8
0
370
    50
100
AcDbLine
 10
615.8069107426452
 20
950.1119457167796
 30
0.0
 11
615.8069107426452
 21
953.1119457167799
 31
0.0
  0
LINE
  5
1DEE
330
1F
100
AcDbEntity
  8
0
370
    50
100
AcDbLine
 10
616.8069107426453
 20
950.1119457167796
 30
0.0
 11
615.8069107426452
 21
950.1119457167796
 31
0.0
  0
LINE
  5
1DEF
330
1F
100
AcDbEntity
  8
0
370
    50
100
AcDbLine
 10
616.806910742645
 20
910.1119457167795
 30
0.0
 11
616.806910742645
 21
907.1119457167798
 31
0.0
  0
LINE
  5
1DF0
330
1F
100
AcDbEntity
  8
0
370
    50
100
AcDbLine
 10
615.8069107426451
 20
910.1119457167795
 30
0.0
 11
616.806910742645
 21
910.1119457167795
 31
0.0
  0
LINE
  5
1DF1
330
1F
100
AcDbEntity
  8
0
370
    50
100
AcDbLine
 10
615.8069107426451
 20
907.1119457167798
 30
0.0
 11
615.8069107426451
 21
910.1119457167795
 31
0.0
  0
LINE
  5
1DF2
330
1F
100
AcDbEntity
  8
0
370
    50
100
AcDbLine
 10
616.806910742645
 20
907.1119457167798
 30
0.0
 11
615.8069107426451
 21
907.1119457167798
 31
0.0
  0
LINE
  5
1DF3
330
1F
100
AcDbEntity
  8
0
370
    50
100
AcDbLine
 10
616.806910742645
 20
901.5119457167797
 30
0.0
 11
616.806910742645
 21
898.5119457167797
 31
0.0
  0
LINE
  5
1DF4
330
1F
100
AcDbEntity
  8
0
370
    50
100
AcDbLine
 10
615.8069107426451
 20
901.5119457167797
 30
0.0
 11
616.806910742645
 21
901.5119457167797
 31
0.0
  0
LINE
  5
1DF5
330
1F
100
AcDbEntity
  8
0
370
    50
100
AcDbLine
 10
615.8069107426451
 20
898.5119457167797
 30
0.0
 11
615.8069107426451
 21
901.5119457167797
 31
0.0
  0
LINE
  5
1DF6
330
1F
100
AcDbEntity
  8
0
370
    50
100
AcDbLine
 10
616.806910742645
 20
898.5119457167797
 30
0.0
 11
615.8069107426451
 21
898.5119457167797
 31
0.0
  0
LINE
  5
1DF7
330
1F
100
AcDbEntity
  8
0
370
    50
100
AcDbLine
 10
616.806910742645
 20
927.3119457167798
 30
0.0
 11
616.806910742645
 21
924.3119457167797
 31
0.0
  0
LINE
  5
1DF8
330
1F
100
AcDbEntity
  8
0
370
    50
100
AcDbLine
 10
615.8069107426451
 20
927.3119457167798
 30
0.0
 11
616.806910742645
 21
927.3119457167798
 31
0.0
  0
LINE
  5
1DF9
330
1F
100
AcDbEntity
  8
0
370
    50
100
AcDbLine
 10
615.8069107426451
 20
924.3119457167797
 30
0.0
 11
615.8069107426451
 21
927.3119457167798
 31
0.0
  0
LINE
  5
1DFA
330
1F
100
AcDbEntity
  8
0
370
    50
100
AcDbLine
 10
616.806910742645
 20
924.3119457167797
 30
0.0
 11
615.8069107426451
 21
924.3119457167797
 31
0.0
  0
LINE
  5
1DFB
330
1F
100
AcDbEntity
  8
0
370
    50
100
AcDbLine
 10
616.806910742645
 20
918.7119457167796
 30
0.0
 11
616.806910742645
 21
915.7119457167798
 31
0.0
  0
LINE
  5
1DFC
330
1F
100
AcDbEntity
  8
0
370
    50
100
AcDbLine
 10
615.8069107426451
 20
918.7119457167796
 30
0.0
 11
616.806910742645
 21
918.7119457167796
 31
0.0
  0
LINE
  5
1DFD
330
1F
100
AcDbEntity
  8
0
370
    50
100
AcDbLine
 10
615.8069107426451
 20
915.7119457167798
 30
0.0
 11
615.8069107426451
 21
918.7119457167796
 31
0.0
  0
LINE
  5
1DFE
330
1F
100
AcDbEntity
  8
0
370
    50
100
AcDbLine
 10
616.806910742645
 20
915.7119457167798
 30
0.0
 11
615.8069107426451
 21
915.7119457167798
 31
0.0
  0
LINE
  5
1DFF
330
1F
100
AcDbEntity
  8
0
370
    50
100
AcDbLine
 10
616.8069107426453
 20
1013.31194571678
 30
0.0
 11
616.8069107426453
 21
1010.31194571678
 31
0.0
  0
LINE
  5
1E00
330
1F
100
AcDbEntity
  8
0
370
    50
100
AcDbLine
 10
615.8069107426452
 20
1013.31194571678
 30
0.0
 11
616.8069107426453
 21
1013.31194571678
 31
0.0
  0
LINE
  5
1E01
330
1F
100
AcDbEntity
  8
0
370
    50
100
AcDbLine
 10
615.8069107426452
 20
1010.31194571678
 30
0.0
 11
615.8069107426452
 21
1013.31194571678
 31
0.0
  0
LINE
  5
1E02
330
1F
100
AcDbEntity
  8
0
370
    50
100
AcDbLine
 10
616.8069107426453
 20
1010.31194571678
 30
0.0
 11
615.8069107426452
 21
1010.31194571678
 31
0.0
  0
LINE
  5
1E03
330
1F
100
AcDbEntity
  8
0
370
    50
100
AcDbLine
 10
616.8069107426453
 20
1004.711945716779
 30
0.0
 11
616.8069107426453
 21
1001.71194571678
 31
0.0
  0
LINE
  5
1E04
330
1F
100
AcDbEntity
  8
0
370
    50
100
AcDbLine
 10
615.8069107426452
 20
1004.711945716779
 30
0.0
 11
616.8069107426453
 21
1004.711945716779
 31
0.0
  0
LINE
  5
1E05
330
1F
100
AcDbEntity
  8
0
370
    50
100
AcDbLine
 10
615.8069107426452
 20
1001.71194571678
 30
0.0
 11
615.8069107426452
 21
1004.711945716779
 31
0.0
  0
LINE
  5
1E06
330
1F
100
AcDbEntity
  8
0
370
    50
100
AcDbLine
 10
616.8069107426453
 20
1001.71194571678
 30
0.0
 11
615.8069107426452
 21
1001.71194571678
 31
0.0
  0
LINE
  5
1E07
330
1F
100
AcDbEntity
  8
0
370
    50
100
AcDbLine
 10
616.8069107426453
 20
1030.51194571678
 30
0.0
 11
616.8069107426453
 21
1027.51194571678
 31
0.0
  0
LINE
  5
1E08
330
1F
100
AcDbEntity
  8
0
370
    50
100
AcDbLine
 10
615.8069107426452
 20
1030.51194571678
 30
0.0
 11
616.8069107426453
 21
1030.51194571678
 31
0.0
  0
LINE
  5
1E09
330
1F
100
AcDbEntity
  8
0
370
    50
100
AcDbLine
 10
615.8069107426452
 20
1027.51194571678
 30
0.0
 11
615.8069107426452
 21
1030.51194571678
 31
0.0
  0
LINE
  5
1E0A
330
1F
100
AcDbEntity
  8
0
370
    50
100
AcDbLine
 10
616.8069107426453
 20
1027.51194571678
 30
0.0
 11
615.8069107426452
 21
1027.51194571678
 31
0.0
  0
LINE
  5
1E0B
330
1F
100
AcDbEntity
  8
0
370
    50
100
AcDbLine
 10
616.8069107426453
 20
1021.91194571678
 30
0.0
 11
616.8069107426453
 21
1018.91194571678
 31
0.0
  0
LINE
  5
1E0C
330
1F
100
AcDbEntity
  8
0
370
    50
100
AcDbLine
 10
615.8069107426452
 20
1021.91194571678
 30
0.0
 11
616.8069107426453
 21
1021.91194571678
 31
0.0
  0
LINE
  5
1E0D
330
1F
100
AcDbEntity
  8
0
370
    50
100
AcDbLine
 10
615.8069107426452
 20
1018.91194571678
 30
0.0
 11
615.8069107426452
 21
1021.91194571678
 31
0.0
  0
LINE
  5
1E0E
330
1F
100
AcDbEntity
  8
0
370
    50
100
AcDbLine
 10
616.8069107426453
 20
1018.91194571678
 30
0.0
 11
615.8069107426452
 21
1018.91194571678
 31
0.0
  0
LINE
  5
1E0F
330
1F
100
AcDbEntity
  8
0
370
    50
100
AcDbLine
 10
616.8069107426453
 20
978.9119457167798
 30
0.0
 11
616.8069107426453
 21
975.9119457167797
 31
0.0
  0
LINE
  5
1E10
330
1F
100
AcDbEntity
  8
0
370
    50
100
AcDbLine
 10
615.8069107426452
 20
978.9119457167798
 30
0.0
 11
616.8069107426453
 21
978.9119457167798
 31
0.0
  0
LINE
  5
1E11
330
1F
100
AcDbEntity
  8
0
370
    50
100
AcDbLine
 10
615.8069107426452
 20
975.9119457167797
 30
0.0
 11
615.8069107426452
 21
978.9119457167798
 31
0.0
  0
LINE
  5
1E12
330
1F
100
AcDbEntity
  8
0
370
    50
100
AcDbLine
 10
616.8069107426453
 20
975.9119457167797
 30
0.0
 11
615.8069107426452
 21
975.9119457167797
 31
0.0
  0
LINE
  5
1E13
330
1F
100
AcDbEntity
  8
0
370
    50
100
AcDbLine
 10
616.8069107426453
 20
970.3119457167799
 30
0.0
 11
616.8069107426453
 21
967.3119457167798
 31
0.0
  0
LINE
  5
1E14
330
1F
100
AcDbEntity
  8
0
370
    50
100
AcDbLine
 10
615.8069107426452
 20
970.3119457167799
 30
0.0
 11
616.8069107426453
 21
970.3119457167799
 31
0.0
  0
LINE
  5
1E15
330
1F
100
AcDbEntity
  8
0
370
    50
100
AcDbLine
 10
615.8069107426452
 20
967.3119457167798
 30
0.0
 11
615.8069107426452
 21
970.3119457167799
 31
0.0
  0
LINE
  5
1E16
330
1F
100
AcDbEntity
  8
0
370
    50
100
AcDbLine
 10
616.8069107426453
 20
967.3119457167798
 30
0.0
 11
615.8069107426452
 21
967.3119457167798
 31
0.0
  0
LINE
  5
1E17
330
1F
100
AcDbEntity
  8
0
370
    50
100
AcDbLine
 10
616.8069107426453
 20
996.1119457167798
 30
0.0
 11
616.8069107426453
 21
993.1119457167795
 31
0.0
  0
LINE
  5
1E18
330
1F
100
AcDbEntity
  8
0
370
    50
100
AcDbLine
 10
615.8069107426452
 20
996.1119457167798
 30
0.0
 11
616.8069107426453
 21
996.1119457167798
 31
0.0
  0
LINE
  5
1E19
330
1F
100
AcDbEntity
  8
0
370
    50
100
AcDbLine
 10
615.8069107426452
 20
993.1119457167795
 30
0.0
 11
615.8069107426452
 21
996.1119457167798
 31
0.0
  0
LINE
  5
1E1A
330
1F
100
AcDbEntity
  8
0
370
    50
100
AcDbLine
 10
616.8069107426453
 20
993.1119457167795
 30
0.0
 11
615.8069107426452
 21
993.1119457167795
 31
0.0
  0
LINE
  5
1E1B
330
1F
100
AcDbEntity
  8
0
370
    50
100
AcDbLine
 10
616.8069107426453
 20
987.5119457167798
 30
0.0
 11
616.8069107426453
 21
984.5119457167799
 31
0.0
  0
LINE
  5
1E1C
330
1F
100
AcDbEntity
  8
0
370
    50
100
AcDbLine
 10
615.8069107426452
 20
987.5119457167798
 30
0.0
 11
616.8069107426453
 21
987.5119457167798
 31
0.0
  0
LINE
  5
1E1D
330
1F
100
AcDbEntity
  8
0
370
    50
100
AcDbLine
 10
615.8069107426452
 20
984.5119457167799
 30
0.0
 11
615.8069107426452
 21
987.5119457167798
 31
0.0
  0
LINE
  5
1E1E
330
1F
100
AcDbEntity
  8
0
370
    50
100
AcDbLine
 10
616.8069107426453
 20
984.5119457167799
 30
0.0
 11
615.8069107426452
 21
984.5119457167799
 31
0.0
  0
LINE
  5
1E1F
330
1F
100
AcDbEntity
  8
0
370
    50
100
AcDbLine
 10
625.306910742645
 20
897.2119457167798
 30
0.0
 11
625.306910742645
 21
894.2119457167798
 31
0.0
  0
LINE
  5
1E20
330
1F
100
AcDbEntity
  8
0
370
    50
100
AcDbLine
 10
624.3069107426451
 20
897.2119457167798
 30
0.0
 11
625.306910742645
 21
897.2119457167798
 31
0.0
  0
LINE
  5
1E21
330
1F
100
AcDbEntity
  8
0
370
    50
100
AcDbLine
 10
624.3069107426451
 20
894.2119457167798
 30
0.0
 11
624.3069107426451
 21
897.2119457167798
 31
0.0
  0
LINE
  5
1E22
330
1F
100
AcDbEntity
  8
0
370
    50
100
AcDbLine
 10
625.306910742645
 20
894.2119457167798
 30
0.0
 11
624.3069107426451
 21
894.2119457167798
 31
0.0
  0
LINE
  5
1E23
330
1F
100
AcDbEntity
  8
0
370
    50
100
AcDbLine
 10
625.3069107426453
 20
1043.41194571678
 30
0.0
 11
625.3069107426453
 21
1040.41194571678
 31
0.0
  0
LINE
  5
1E24
330
1F
100
AcDbEntity
  8
0
370
    50
100
AcDbLine
 10
624.3069107426452
 20
1043.41194571678
 30
0.0
 11
625.3069107426453
 21
1043.41194571678
 31
0.0
  0
LINE
  5
1E25
330
1F
100
AcDbEntity
  8
0
370
    50
100
AcDbLine
 10
624.3069107426452
 20
1040.41194571678
 30
0.0
 11
624.3069107426452
 21
1043.41194571678
 31
0.0
  0
LINE
  5
1E26
330
1F
100
AcDbEntity
  8
0
370
    50
100
AcDbLine
 10
625.3069107426453
 20
1040.41194571678
 30
0.0
 11
624.3069107426452
 21
1040.41194571678
 31
0.0
  0
LINE
  5
1E27
330
1F
100
AcDbEntity
  8
0
370
    50
100
AcDbLine
 10
625.3069107426453
 20
948.8119457167798
 30
0.0
 11
625.306910742645
 21
945.8119457167796
 31
0.0
  0
LINE
  5
1E28
330
1F
100
AcDbEntity
  8
0
370
    50
100
AcDbLine
 10
624.3069107426452
 20
948.8119457167798
 30
0.0
 11
625.3069107426453
 21
948.8119457167798
 31
0.0
  0
LINE
  5
1E29
330
1F
100
AcDbEntity
  8
0
370
    50
100
AcDbLine
 10
624.3069107426451
 20
945.8119457167796
 30
0.0
 11
624.3069107426452
 21
948.8119457167798
 31
0.0
  0
LINE
  5
1E2A
330
1F
100
AcDbEntity
  8
0
370
    50
100
AcDbLine
 10
625.3069107426453
 20
945.8119457167796
 30
0.0
 11
624.3069107426452
 21
945.8119457167796
 31
0.0
  0
LINE
  5
1E2B
330
1F
100
AcDbEntity
  8
0
370
    50
100
AcDbLine
 10
625.306910742645
 20
940.2119457167795
 30
0.0
 11
625.306910742645
 21
937.2119457167798
 31
0.0
  0
LINE
  5
1E2C
330
1F
100
AcDbEntity
  8
0
370
    50
100
AcDbLine
 10
624.3069107426451
 20
940.2119457167795
 30
0.0
 11
625.306910742645
 21
940.2119457167795
 31
0.0
  0
LINE
  5
1E2D
330
1F
100
AcDbEntity
  8
0
370
    50
100
AcDbLine
 10
624.3069107426451
 20
937.2119457167798
 30
0.0
 11
624.3069107426451
 21
940.2119457167795
 31
0.0
  0
LINE
  5
1E2E
330
1F
100
AcDbEntity
  8
0
370
    50
100
AcDbLine
 10
625.3069107426453
 20
937.2119457167798
 30
0.0
 11
624.3069107426452
 21
937.2119457167798
 31
0.0
  0
LINE
  5
1E2F
330
1F
100
AcDbEntity
  8
0
370
    50
100
AcDbLine
 10
625.3069107426453
 20
966.0119457167798
 30
0.0
 11
625.3069107426453
 21
963.0119457167797
 31
0.0
  0
LINE
  5
1E30
330
1F
100
AcDbEntity
  8
0
370
    50
100
AcDbLine
 10
624.3069107426452
 20
966.0119457167798
 30
0.0
 11
625.3069107426453
 21
966.0119457167798
 31
0.0
  0
LINE
  5
1E31
330
1F
100
AcDbEntity
  8
0
370
    50
100
AcDbLine
 10
624.3069107426452
 20
963.0119457167797
 30
0.0
 11
624.3069107426452
 21
966.0119457167798
 31
0.0
  0
LINE
  5
1E32
330
1F
100
AcDbEntity
  8
0
370
    50
100
AcDbLine
 10
625.3069107426453
 20
963.0119457167797
 30
0.0
 11
624.3069107426452
 21
963.0119457167797
 31
0.0
  0
LINE
  5
1E33
330
1F
100
AcDbEntity
  8
0
370
    50
100
AcDbLine
 10
625.3069107426453
 20
957.4119457167798
 30
0.0
 11
625.3069107426453
 21
954.4119457167797
 31
0.0
  0
LINE
  5
1E34
330
1F
100
AcDbEntity
  8
0
370
    50
100
AcDbLine
 10
624.3069107426452
 20
957.4119457167798
 30
0.0
 11
625.3069107426453
 21
957.4119457167798
 31
0.0
  0
LINE
  5
1E35
330
1F
100
AcDbEntity
  8
0
370
    50
100
AcDbLine
 10
624.3069107426452
 20
954.4119457167797
 30
0.0
 11
624.3069107426452
 21
957.4119457167798
 31
0.0
  0
LINE
  5
1E36
330
1F
100
AcDbEntity
  8
0
370
    50
100
AcDbLine
 10
625.3069107426453
 20
954.4119457167797
 30
0.0
 11
624.3069107426452
 21
954.4119457167797
 31
0.0
  0
LINE
  5
1E37
330
1F
100
AcDbEntity
  8
0
370
    50
100
AcDbLine
 10
625.306910742645
 20
914.4119457167798
 30
0.0
 11
625.306910742645
 21
911.4119457167797
 31
0.0
  0
LINE
  5
1E38
330
1F
100
AcDbEntity
  8
0
370
    50
100
AcDbLine
 10
624.3069107426451
 20
914.4119457167798
 30
0.0
 11
625.306910742645
 21
914.4119457167798
 31
0.0
  0
LINE
  5
1E39
330
1F
100
AcDbEntity
  8
0
370
    50
100
AcDbLine
 10
624.3069107426451
 20
911.4119457167797
 30
0.0
 11
624.3069107426451
 21
914.4119457167798
 31
0.0
  0
LINE
  5
1E3A
330
1F
100
AcDbEntity
  8
0
370
    50
100
AcDbLine
 10
625.306910742645
 20
911.4119457167797
 30
0.0
 11
624.3069107426451
 21
911.4119457167797
 31
0.0
  0
LINE
  5
1E3B
330
1F
100
AcDbEntity
  8
0
370
    50
100
AcDbLine
 10
625.306910742645
 20
905.8119457167798
 30
0.0
 11
625.306910742645
 21
902.8119457167797
 31
0.0
  0
LINE
  5
1E3C
330
1F
100
AcDbEntity
  8
0
370
    50
100
AcDbLine
 10
624.3069107426451
 20
905.8119457167798
 30
0.0
 11
625.306910742645
 21
905.8119457167798
 31
0.0
  0
LINE
  5
1E3D
330
1F
100
AcDbEntity
  8
0
370
    50
100
AcDbLine
 10
624.3069107426451
 20
902.8119457167797
 30
0.0
 11
624.3069107426451
 21
905.8119457167798
 31
0.0
  0
LINE
  5
1E3E
330
1F
100
AcDbEntity
  8
0
370
    50
100
AcDbLine
 10
625.306910742645
 20
902.8119457167797
 30
0.0
 11
624.3069107426451
 21
902.8119457167797
 31
0.0
  0
LINE
  5
1E3F
330
1F
100
AcDbEntity
  8
0
370
    50
100
AcDbLine
 10
625.306910742645
 20
931.6119457167799
 30
0.0
 11
625.306910742645
 21
928.6119457167798
 31
0.0
  0
LINE
  5
1E40
330
1F
100
AcDbEntity
  8
0
370
    50
100
AcDbLine
 10
624.3069107426451
 20
931.6119457167799
 30
0.0
 11
625.306910742645
 21
931.6119457167799
 31
0.0
  0
LINE
  5
1E41
330
1F
100
AcDbEntity
  8
0
370
    50
100
AcDbLine
 10
624.3069107426451
 20
928.6119457167798
 30
0.0
 11
624.3069107426451
 21
931.6119457167799
 31
0.0
  0
LINE
  5
1E42
330
1F
100
AcDbEntity
  8
0
370
    50
100
AcDbLine
 10
625.306910742645
 20
928.6119457167798
 30
0.0
 11
624.3069107426451
 21
928.6119457167798
 31
0.0
  0
LINE
  5
1E43
330
1F
100
AcDbEntity
  8
0
370
    50
100
AcDbLine
 10
625.306910742645
 20
923.0119457167798
 30
0.0
 11
625.306910742645
 21
920.0119457167797
 31
0.0
  0
LINE
  5
1E44
330
1F
100
AcDbEntity
  8
0
370
    50
100
AcDbLine
 10
624.3069107426451
 20
923.0119457167798
 30
0.0
 11
625.306910742645
 21
923.0119457167798
 31
0.0
  0
LINE
  5
1E45
330
1F
100
AcDbEntity
  8
0
370
    50
100
AcDbLine
 10
624.3069107426451
 20
920.0119457167799
 30
0.0
 11
624.3069107426451
 21
923.0119457167798
 31
0.0
  0
LINE
  5
1E46
330
1F
100
AcDbEntity
  8
0
370
    50
100
AcDbLine
 10
625.306910742645
 20
920.0119457167797
 30
0.0
 11
624.3069107426451
 21
920.0119457167797
 31
0.0
  0
LINE
  5
1E47
330
1F
100
AcDbEntity
  8
0
370
    50
100
AcDbLine
 10
625.3069107426453
 20
1017.61194571678
 30
0.0
 11
625.3069107426453
 21
1014.611945716779
 31
0.0
  0
LINE
  5
1E48
330
1F
100
AcDbEntity
  8
0
370
    50
100
AcDbLine
 10
624.3069107426452
 20
1017.61194571678
 30
0.0
 11
625.3069107426453
 21
1017.61194571678
 31
0.0
  0
LINE
  5
1E49
330
1F
100
AcDbEntity
  8
0
370
    50
100
AcDbLine
 10
624.3069107426452
 20
1014.611945716779
 30
0.0
 11
624.3069107426452
 21
1017.61194571678
 31
0.0
  0
LINE
  5
1E4A
330
1F
100
AcDbEntity
  8
0
370
    50
100
AcDbLine
 10
625.3069107426453
 20
1014.611945716779
 30
0.0
 11
624.3069107426452
 21
1014.611945716779
 31
0.0
  0
LINE
  5
1E4B
330
1F
100
AcDbEntity
  8
0
370
    50
100
AcDbLine
 10
625.3069107426453
 20
1009.01194571678
 30
0.0
 11
625.3069107426453
 21
1006.01194571678
 31
0.0
  0
LINE
  5
1E4C
330
1F
100
AcDbEntity
  8
0
370
    50
100
AcDbLine
 10
624.3069107426452
 20
1009.01194571678
 30
0.0
 11
625.3069107426453
 21
1009.01194571678
 31
0.0
  0
LINE
  5
1E4D
330
1F
100
AcDbEntity
  8
0
370
    50
100
AcDbLine
 10
624.3069107426452
 20
1006.01194571678
 30
0.0
 11
624.3069107426452
 21
1009.01194571678
 31
0.0
  0
LINE
  5
1E4E
330
1F
100
AcDbEntity
  8
0
370
    50
100
AcDbLine
 10
625.3069107426453
 20
1006.01194571678
 30
0.0
 11
624.3069107426452
 21
1006.01194571678
 31
0.0
  0
LINE
  5
1E4F
330
1F
100
AcDbEntity
  8
0
370
    50
100
AcDbLine
 10
625.3069107426453
 20
1034.81194571678
 30
0.0
 11
625.3069107426453
 21
1031.81194571678
 31
0.0
  0
LINE
  5
1E50
330
1F
100
AcDbEntity
  8
0
370
    50
100
AcDbLine
 10
624.3069107426452
 20
1034.81194571678
 30
0.0
 11
625.3069107426453
 21
1034.81194571678
 31
0.0
  0
LINE
  5
1E51
330
1F
100
AcDbEntity
  8
0
370
    50
100
AcDbLine
 10
624.3069107426452
 20
1031.81194571678
 30
0.0
 11
624.3069107426452
 21
1034.81194571678
 31
0.0
  0
LINE
  5
1E52
330
1F
100
AcDbEntity
  8
0
370
    50
100
AcDbLine
 10
625.3069107426453
 20
1031.81194571678
 30
0.0
 11
624.3069107426452
 21
1031.81194571678
 31
0.0
  0
LINE
  5
1E53
330
1F
100
AcDbEntity
  8
0
370
    50
100
AcDbLine
 10
625.3069107426453
 20
1026.211945716779
 30
0.0
 11
625.3069107426453
 21
1023.21194571678
 31
0.0
  0
LINE
  5
1E54
330
1F
100
AcDbEntity
  8
0
370
    50
100
AcDbLine
 10
624.3069107426452
 20
1026.211945716779
 30
0.0
 11
625.3069107426453
 21
1026.211945716779
 31
0.0
  0
LINE
  5
1E55
330
1F
100
AcDbEntity
  8
0
370
    50
100
AcDbLine
 10
624.3069107426452
 20
1023.21194571678
 30
0.0
 11
624.3069107426452
 21
1026.211945716779
 31
0.0
  0
LINE
  5
1E56
330
1F
100
AcDbEntity
  8
0
370
    50
100
AcDbLine
 10
625.3069107426453
 20
1023.21194571678
 30
0.0
 11
624.3069107426452
 21
1023.21194571678
 31
0.0
  0
LINE
  5
1E57
330
1F
100
AcDbEntity
  8
0
370
    50
100
AcDbLine
 10
625.3069107426453
 20
983.2119457167795
 30
0.0
 11
625.3069107426453
 21
980.2119457167798
 31
0.0
  0
LINE
  5
1E58
330
1F
100
AcDbEntity
  8
0
370
    50
100
AcDbLine
 10
624.3069107426452
 20
983.2119457167795
 30
0.0
 11
625.3069107426453
 21
983.2119457167795
 31
0.0
  0
LINE
  5
1E59
330
1F
100
AcDbEntity
  8
0
370
    50
100
AcDbLine
 10
624.3069107426452
 20
980.2119457167798
 30
0.0
 11
624.3069107426452
 21
983.2119457167795
 31
0.0
  0
LINE
  5
1E5A
330
1F
100
AcDbEntity
  8
0
370
    50
100
AcDbLine
 10
625.3069107426453
 20
980.2119457167798
 30
0.0
 11
624.3069107426452
 21
980.2119457167798
 31
0.0
  0
LINE
  5
1E5B
330
1F
100
AcDbEntity
  8
0
370
    50
100
AcDbLine
 10
625.3069107426453
 20
974.6119457167798
 30
0.0
 11
625.3069107426453
 21
971.6119457167796
 31
0.0
  0
LINE
  5
1E5C
330
1F
100
AcDbEntity
  8
0
370
    50
100
AcDbLine
 10
624.3069107426452
 20
974.6119457167798
 30
0.0
 11
625.3069107426453
 21
974.6119457167798
 31
0.0
  0
LINE
  5
1E5D
330
1F
100
AcDbEntity
  8
0
370
    50
100
AcDbLine
 10
624.3069107426452
 20
971.6119457167796
 30
0.0
 11
624.3069107426452
 21
974.6119457167798
 31
0.0
  0
LINE
  5
1E5E
330
1F
100
AcDbEntity
  8
0
370
    50
100
AcDbLine
 10
625.3069107426453
 20
971.6119457167796
 30
0.0
 11
624.3069107426452
 21
971.6119457167796
 31
0.0
  0
LINE
  5
1E5F
330
1F
100
AcDbEntity
  8
0
370
    50
100
AcDbLine
 10
625.3069107426453
 20
1000.41194571678
 30
0.0
 11
625.3069107426453
 21
997.4119457167798
 31
0.0
  0
LINE
  5
1E60
330
1F
100
AcDbEntity
  8
0
370
    50
100
AcDbLine
 10
624.3069107426452
 20
1000.41194571678
 30
0.0
 11
625.3069107426453
 21
1000.41194571678
 31
0.0
  0
LINE
  5
1E61
330
1F
100
AcDbEntity
  8
0
370
    50
100
AcDbLine
 10
624.3069107426452
 20
997.4119457167798
 30
0.0
 11
624.3069107426452
 21
1000.41194571678
 31
0.0
  0
LINE
  5
1E62
330
1F
100
AcDbEntity
  8
0
370
    50
100
AcDbLine
 10
625.3069107426453
 20
997.4119457167798
 30
0.0
 11
624.3069107426452
 21
997.4119457167798
 31
0.0
  0
LINE
  5
1E63
330
1F
100
AcDbEntity
  8
0
370
    50
100
AcDbLine
 10
625.3069107426453
 20
991.8119457167799
 30
0.0
 11
625.3069107426453
 21
988.8119457167798
 31
0.0
  0
LINE
  5
1E64
330
1F
100
AcDbEntity
  8
0
370
    50
100
AcDbLine
 10
624.3069107426452
 20
991.8119457167799
 30
0.0
 11
625.3069107426453
 21
991.8119457167799
 31
0.0
  0
LINE
  5
1E65
330
1F
100
AcDbEntity
  8
0
370
    50
100
AcDbLine
 10
624.3069107426452
 20
988.8119457167798
 30
0.0
 11
624.3069107426452
 21
991.8119457167799
 31
0.0
  0
LINE
  5
1E66
330
1F
100
AcDbEntity
  8
0
370
    50
100
AcDbLine
 10
625.3069107426453
 20
988.8119457167798
 30
0.0
 11
624.3069107426452
 21
988.8119457167798
 31
0.0
  0
ARC
  5
1E67
330
1F
100
AcDbEntity
  8
0
370
    50
100
AcDbCircle
 10
627.3069107426453
 20
1047.011945716779
 30
0.0
 40
1.999999999999999
100
AcDbArc
 50
0.0
 51
90.0
  0
ARC
  5
1E68
330
1F
100
AcDbEntity
  8
0
370
    50
100
AcDbCircle
 10
627.3069107426453
 20
886.0119457167797
 30
0.0
 40
1.999999999999999
100
AcDbArc
 50
270.0
 51
0.0
  0
ARC
  5
1E69
330
1F
100
AcDbEntity
  8
0
370
    50
100
AcDbCircle
 10
613.306910742645
 20
886.0119457167797
 30
0.0
 40
1.999999999999999
100
AcDbArc
 50
180.0
 51
270.0
  0
ARC
  5
1E6A
330
1F
100
AcDbEntity
  8
0
370
    50
100
AcDbCircle
 10
613.3069107426453
 20
1047.011945716779
 30
0.0
 40
1.999999999999999
100
AcDbArc
 50
90.0
 51
180.0
  0
CIRCLE
  5
1E6B
330
1F
100
AcDbEntity
  8
0
370
    50
100
AcDbCircle
 10
624.806910742645
 20
887.2619457167798
 30
0.0
 40
2.0
  0
CIRCLE
  5
1E6C
330
1F
100
AcDbEntity
  8
0
370
    50
100
AcDbCircle
 10
616.3069107426452
 20
1045.76194571678
 30
0.0
 40
2.0
  0
LINE
  5
1E6D
330
1F
100
AcDbEntity
  8
0
370
    50
100
AcDbLine
 10
624.3069107426451
 20
876.5669457167799
 30
0.0
 11
624.3069107426451
 21
876.45694571678
 31
0.0
  0
LINE
  5
1E6E
330
1F
100
AcDbEntity
  8
0
370
    50
100
AcDbLine
 10
624.2519107426451
 20
876.5119457167799
 30
0.0
 11
624.3619107426452
 21
876.5119457167799
 31
0.0
  0
LINE
  5
1E6F
330
1F
100
AcDbEntity
  8
0
370
    50
100
AcDbLine
 10
624.3069107426451
 20
879.1219457167798
 30
0.0
 11
624.3069107426451
 21
876.7229457167799
 31
0.0
  0
LINE
  5
1E70
330
1F
100
AcDbEntity
  8
0
370
    50
100
AcDbLine
 10
624.3069107426451
 20
876.3009457167797
 30
0.0
 11
624.3069107426451
 21
873.9019457167799
 31
0.0
  0
LINE
  5
1E71
330
1F
100
AcDbEntity
  8
0
370
    50
100
AcDbLine
 10
621.6969107426453
 20
876.5119457167799
 30
0.0
 11
624.095910742645
 21
876.5119457167799
 31
0.0
  0
LINE
  5
1E72
330
1F
100
AcDbEntity
  8
0
370
    50
100
AcDbLine
 10
624.5179107426451
 20
876.5119457167799
 30
0.0
 11
626.916910742645
 21
876.5119457167799
 31
0.0
  0
LINE
  5
1E73
330
1F
100
AcDbEntity
  8
0
370
    50
100
AcDbLine
 10
444.3069107426452
 20
876.5669457167799
 30
0.0
 11
444.3069107426452
 21
876.45694571678
 31
0.0
  0
LINE
  5
1E74
330
1F
100
AcDbEntity
  8
0
370
    50
100
AcDbLine
 10
444.2519107426451
 20
876.5119457167799
 30
0.0
 11
444.3619107426451
 21
876.5119457167799
 31
0.0
  0
LINE
  5
1E75
330
1F
100
AcDbEntity
  8
0
370
    50
100
AcDbLine
 10
444.3069107426452
 20
879.1219457167798
 30
0.0
 11
444.3069107426452
 21
876.7229457167799
 31
0.0
  0
LINE
  5
1E76
330
1F
100
AcDbEntity
  8
0
370
    50
100
AcDbLine
 10
444.3069107426452
 20
876.3009457167797
 30
0.0
 11
444.3069107426452
 21
873.9019457167799
 31
0.0
  0
LINE
  5
1E77
330
1F
100
AcDbEntity
  8
0
370
    50
100
AcDbLine
 10
441.6969107426451
 20
876.5119457167799
 30
0.0
 11
444.0959107426452
 21
876.5119457167799
 31
0.0
  0
LINE
  5
1E78
330
1F
100
AcDbEntity
  8
0
370
    50
100
AcDbLine
 10
444.5179107426452
 20
876.5119457167799
 30
0.0
 11
446.916910742645
 21
876.5119457167799
 31
0.0
  0
LINE
  5
1E79
330
1F
100
AcDbEntity
  8
0
370
    50
100
AcDbLine
 10
444.3069107426453
 20
1114.56694571678
 30
0.0
 11
444.3069107426453
 21
1114.45694571678
 31
0.0
  0
LINE
  5
1E7A
330
1F
100
AcDbEntity
  8
0
370
    50
100
AcDbLine
 10
444.2519107426453
 20
1114.51194571678
 30
0.0
 11
444.3619107426451
 21
1114.51194571678
 31
0.0
  0
LINE
  5
1E7B
330
1F
100
AcDbEntity
  8
0
370
    50
100
AcDbLine
 10
444.3069107426453
 20
1117.12194571678
 30
0.0
 11
444.3069107426453
 21
1114.72294571678
 31
0.0
  0
LINE
  5
1E7C
330
1F
100
AcDbEntity
  8
0
370
    50
100
AcDbLine
 10
444.3069107426453
 20
1114.30094571678
 30
0.0
 11
444.3069107426453
 21
1111.90194571678
 31
0.0
  0
LINE
  5
1E7D
330
1F
100
AcDbEntity
  8
0
370
    50
100
AcDbLine
 10
441.6969107426451
 20
1114.51194571678
 30
0.0
 11
444.0959107426452
 21
1114.51194571678
 31
0.0
  0
LINE
  5
1E7E
330
1F
100
AcDbEntity
  8
0
370
    50
100
AcDbLine
 10
444.5179107426452
 20
1114.51194571678
 30
0.0
 11
446.9169107426453
 21
1114.51194571678
 31
0.0
  0
LINE
  5
1E7F
330
1F
100
AcDbEntity
  8
0
370
    50
100
AcDbLine
 10
624.3069107426452
 20
1114.566945716779
 30
0.0
 11
624.3069107426452
 21
1114.45694571678
 31
0.0
  0
LINE
  5
1E80
330
1F
100
AcDbEntity
  8
0
370
    50
100
AcDbLine
 10
624.2519107426452
 20
1114.51194571678
 30
0.0
 11
624.3619107426452
 21
1114.51194571678
 31
0.0
  0
LINE
  5
1E81
330
1F
100
AcDbEntity
  8
0
370
    50
100
AcDbLine
 10
624.3069107426452
 20
1117.12194571678
 30
0.0
 11
624.3069107426452
 21
1114.72294571678
 31
0.0
  0
LINE
  5
1E82
330
1F
100
AcDbEntity
  8
0
370
    50
100
AcDbLine
 10
624.3069107426452
 20
1114.30094571678
 30
0.0
 11
624.3069107426452
 21
1111.90194571678
 31
0.0
  0
LINE
  5
1E83
330
1F
100
AcDbEntity
  8
0
370
    50
100
AcDbLine
 10
621.6969107426453
 20
1114.51194571678
 30
0.0
 11
624.095910742645
 21
1114.51194571678
 31
0.0
  0
LINE
  5
1E84
330
1F
100
AcDbEntity
  8
0
370
    50
100
AcDbLine
 10
624.5179107426451
 20
1114.51194571678
 30
0.0
 11
626.9169107426453
 21
1114.51194571678
 31
0.0
  0
DIMENSION
  5
1E85
330
1F
100
AcDbEntity
  8
0
370
    50
100
AcDbDimension
  2
*D31
 10
380.5161041540732
 20
1164.547386339513
 30
0.0
 11
336.5161041540732
 21
1174.297386339513
 31
0.0
 70
    32
 71
     5
 42
88.0
  3
AM_JIS$0
100
AcDbAlignedDimension
 13
292.5161041540732
 23
1120.51194571678
 33
0.0
 14
380.5161041540732
 24
1052.51194571678
 34
0.0
100
AcDbRotatedDimension
  0
DIMENSION
  5
1E86
330
1F
100
AcDbEntity
  8
0
370
    50
100
AcDbDimension
  2
*D32
 10
629.306910742645
 20
794.4236869347396
 30
0.0
 11
534.306910742645
 21
794.4236869347396
 31
0.0
 70
   160
 71
     5
 42
190.0
  3
AM_JIS$0
100
AcDbAlignedDimension
 13
439.3069107426452
 23
872.5119457167799
 33
0.0
 14
629.306910742645
 24
872.5119457167799
 34
0.0
100
AcDbRotatedDimension
  0
DIMENSION
  5
1E87
330
1F
100
AcDbEntity
  8
0
370
    50
100
AcDbDimension
  2
*D33
 10
670.8894792422197
 20
1120.51194571678
 30
0.0
 11
661.1394792422197
 21
995.5119457167802
 31
0.0
 70
    32
 71
     5
 42
250.0
  3
AM_JIS$0
100
AcDbAlignedDimension
 13
627.3069107426453
 23
870.5119457167798
 33
0.0
 14
627.3069107426453
 24
1120.51194571678
 34
0.0
 50
270.0
100
AcDbRotatedDimension
  0
DIMENSION
  5
1E88
330
1F
100
AcDbEntity
  8
0
370
    50
100
AcDbDimension
  2
*D34
 10
298.5161041540731
 20
1144.51194572678
 30
0.0
 11
339.5161041540732
 21
1154.26194572678
 31
0.0
 70
    32
 71
     5
 42
82.0
  3
AM_JIS$0
100
AcDbAlignedDimension
 13
380.5161041540732
 23
1052.51194571678
 33
0.0
 14
298.5161041540731
 24
1118.91194571678
 34
0.0
100
AcDbRotatedDimension
  0
DIMENSION
  5
1E89
330
1F
100
AcDbEntity
  8
0
370
    50
100
AcDbDimension
  2
*D35
 10
292.5161041540732
 20
1144.51194572678
 30
0.0
 11
266.5161041540732
 21
1154.26194572678
 31
0.0
 70
    32
 71
     5
 42
6.0
  3
AM_JIS$0
100
AcDbAlignedDimension
 13
298.5161041540731
 23
1118.91194571678
 33
0.0
 14
292.5161041540732
 24
1120.51194571678
 34
0.0
100
AcDbRotatedDimension
  0
LWPOLYLINE
  5
1E8A
330
1F
100
AcDbEntity
  8
0
370
    50
100
AcDbPolyline
 90
        2
 70
     0
 43
0.0
 10
292.516104154073
 20
870.5119457167798
 10
292.5161041540732
 20
1120.51194571678
  0
LWPOLYLINE
  5
1E8B
330
1F
100
AcDbEntity
  8
かくれ線
 62
     7
370
    50
100
AcDbPolyline
 90
        2
 70
     0
 43
0.0
 10
415.5161041540726
 20
870.5119457167798
 10
415.5161041540731
 20
1120.51194571678
  0
LWPOLYLINE
  5
1E8C
330
1F
100
AcDbEntity
  8
かくれ線
 62
     7
370
    50
100
AcDbPolyline
 90
        2
 70
     0
 43
0.0
 10
415.5161041540726
 20
870.5119457167798
 10
292.516104154073
 20
870.5119457167798
  0
LWPOLYLINE
  5
1E8D
330
1F
100
AcDbEntity
  8
かくれ線
 62
     7
370
    50
100
AcDbPolyline
 90
        2
 70
     0
 43
0.0
 10
415.5161041540731
 20
1120.51194571678
 10
292.5161041540732
 20
1120.51194571678
  0
DIMENSION
  5
1E8E
330
1F
100
AcDbEntity
  8
0
370
    50
100
AcDbDimension
  2
*D36
 10
292.516104154073
 20
819.9617973130955
 30
0.0
 11
354.0161041540731
 21
829.7117973130955
 31
0.0
 70
    32
  1
<>（A0J2）
 71
     5
 42
123.0
  3
AM_JIS$0
100
AcDbAlignedDimension
 13
415.5161041540726
 23
870.5119457167798
 33
0.0
 14
292.516104154073
 24
870.5119457167798
 34
0.0
100
AcDbRotatedDimension
1001
ACAD
1000
DSTYLE
1002
{
1070
    40
1040
3.0
1002
}
1001
ACAD_DSTYLE_DIMINSPECT
1070
   396
1000
100%
1070
   395
1000

1070
   394
1070
    33
1070
   393
1070
     0
  0
DIMENSION
  5
1E8F
330
1F
100
AcDbEntity
  8
0
370
    50
100
AcDbDimension
  2
*D37
 10
260.2031359485463
 20
1120.51194571678
 30
0.0
 11
250.4531359485461
 21
995.5119457167802
 31
0.0
 70
    32
  1
<>（A0J2）
 71
     5
 42
249.9999999999996
  3
AM_JIS$0
100
AcDbAlignedDimension
 13
292.516104154073
 23
870.5119457167798
 33
0.0
 14
292.5161041540732
 24
1120.51194571678
 34
0.0
 50
270.0
100
AcDbRotatedDimension
1001
ACAD
1000
DSTYLE
1002
{
1070
    40
1040
3.0
1002
}
1001
ACAD_DSTYLE_DIMINSPECT
1070
   396
1000
100%
1070
   395
1000

1070
   394
1070
    33
1070
   393
1070
     0
  0
DIMENSION
  5
1E90
330
1F
100
AcDbEntity
  8
0
370
    50
100
AcDbDimension
  2
*D38
 10
444.3069107426452
 20
816.7463579750327
 30
0.0
 11
534.306910742645
 21
816.7463579750327
 31
0.0
 70
   160
  1
<>（取付ピッチ）
 71
     5
 42
180.0
  3
AM_JIS$0
100
AcDbAlignedDimension
 13
624.3069107426451
 23
873.9019457167799
 33
0.0
 14
444.3069107426452
 24
873.9019457167799
 34
0.0
100
AcDbRotatedDimension
1001
ACAD_DSTYLE_DIMINSPECT
1070
   396
1000
100%
1070
   395
1000

1070
   394
1070
    33
1070
   393
1070
     0
  0
DIMENSION
  5
1E91
330
1F
100
AcDbEntity
  8
0
370
    50
100
AcDbDimension
  2
*D39
 10
651.0676685284103
 20
876.5119457167799
 30
0.0
 11
641.3176685284097
 21
995.5119457167802
 31
0.0
 70
    32
  1
<>（取付ピッチ）
 71
     5
 42
238.0
  3
AM_JIS$0
100
AcDbAlignedDimension
 13
626.916910742645
 23
1114.51194571678
 33
0.0
 14
626.916910742645
 24
876.5119457167799
 34
0.0
 50
270.0
100
AcDbRotatedDimension
1001
ACAD_DSTYLE_DIMINSPECT
1070
   396
1000
100%
1070
   395
1000

1070
   394
1070
    33
1070
   393
1070
     0
  0
LINE
  5
1E92
330
1F
100
AcDbEntity
  8
0
370
    50
100
AcDbLine
 10
492.0569107426452
 20
887.3169457167799
 30
0.0
 11
492.0569107426452
 21
887.20694571678
 31
0.0
  0
LINE
  5
1E93
330
1F
100
AcDbEntity
  8
0
370
    50
100
AcDbLine
 10
492.0019107426451
 20
887.2619457167798
 30
0.0
 11
492.1119107426451
 21
887.2619457167798
 31
0.0
  0
LINE
  5
1E94
330
1F
100
AcDbEntity
  8
0
370
    50
100
AcDbLine
 10
492.0569107426452
 20
889.3719457167799
 30
0.0
 11
492.0569107426452
 21
887.4729457167799
 31
0.0
  0
LINE
  5
1E95
330
1F
100
AcDbEntity
  8
0
370
    50
100
AcDbLine
 10
492.0569107426452
 20
887.0509457167797
 30
0.0
 11
492.0569107426452
 21
885.1519457167798
 31
0.0
  0
LINE
  5
1E96
330
1F
100
AcDbEntity
  8
0
370
    50
100
AcDbLine
 10
489.9469107426453
 20
887.2619457167798
 30
0.0
 11
491.8459107426452
 21
887.2619457167798
 31
0.0
  0
LINE
  5
1E97
330
1F
100
AcDbEntity
  8
0
370
    50
100
AcDbLine
 10
492.2679107426452
 20
887.2619457167798
 30
0.0
 11
494.166910742645
 21
887.2619457167798
 31
0.0
  0
LINE
  5
1E98
330
1F
100
AcDbEntity
  8
0
370
    50
100
AcDbLine
 10
452.8069107426452
 20
887.3169457167799
 30
0.0
 11
452.8069107426452
 21
887.20694571678
 31
0.0
  0
LINE
  5
1E99
330
1F
100
AcDbEntity
  8
0
370
    50
100
AcDbLine
 10
452.7519107426451
 20
887.26194571678
 30
0.0
 11
452.8619107426451
 21
887.26194571678
 31
0.0
  0
LINE
  5
1E9A
330
1F
100
AcDbEntity
  8
0
370
    50
100
AcDbLine
 10
452.8069107426452
 20
889.3719457167801
 30
0.0
 11
452.8069107426452
 21
887.47294571678
 31
0.0
  0
LINE
  5
1E9B
330
1F
100
AcDbEntity
  8
0
370
    50
100
AcDbLine
 10
452.8069107426452
 20
887.05094571678
 30
0.0
 11
452.8069107426452
 21
885.1519457167801
 31
0.0
  0
LINE
  5
1E9C
330
1F
100
AcDbEntity
  8
0
370
    50
100
AcDbLine
 10
450.6969107426453
 20
887.26194571678
 30
0.0
 11
452.5959107426452
 21
887.26194571678
 31
0.0
  0
LINE
  5
1E9D
330
1F
100
AcDbEntity
  8
0
370
    50
100
AcDbLine
 10
453.0179107426452
 20
887.26194571678
 30
0.0
 11
454.9169107426449
 21
887.26194571678
 31
0.0
  0
LINE
  5
1E9E
330
1F
100
AcDbEntity
  8
0
370
    50
100
AcDbLine
 10
624.806910742645
 20
887.3169457167797
 30
0.0
 11
624.806910742645
 21
887.2069457167798
 31
0.0
  0
LINE
  5
1E9F
330
1F
100
AcDbEntity
  8
0
370
    50
100
AcDbLine
 10
624.7519107426451
 20
887.2619457167798
 30
0.0
 11
624.8619107426452
 21
887.2619457167798
 31
0.0
  0
LINE
  5
1EA0
330
1F
100
AcDbEntity
  8
0
370
    50
100
AcDbLine
 10
624.806910742645
 20
889.3719457167797
 30
0.0
 11
624.806910742645
 21
887.4729457167799
 31
0.0
  0
LINE
  5
1EA1
330
1F
100
AcDbEntity
  8
0
370
    50
100
AcDbLine
 10
624.806910742645
 20
887.0509457167797
 30
0.0
 11
624.806910742645
 21
885.1519457167798
 31
0.0
  0
LINE
  5
1EA2
330
1F
100
AcDbEntity
  8
0
370
    50
100
AcDbLine
 10
622.6969107426453
 20
887.2619457167798
 30
0.0
 11
624.595910742645
 21
887.2619457167798
 31
0.0
  0
LINE
  5
1EA3
330
1F
100
AcDbEntity
  8
0
370
    50
100
AcDbLine
 10
625.017910742645
 20
887.2619457167798
 30
0.0
 11
626.916910742645
 21
887.2619457167798
 31
0.0
  0
LINE
  5
1EA4
330
1F
100
AcDbEntity
  8
0
370
    50
100
AcDbLine
 10
483.5569107426453
 20
1045.816945716779
 30
0.0
 11
483.5569107426453
 21
1045.70694571678
 31
0.0
  0
LINE
  5
1EA5
330
1F
100
AcDbEntity
  8
0
370
    50
100
AcDbLine
 10
483.5019107426453
 20
1045.76194571678
 30
0.0
 11
483.6119107426451
 21
1045.76194571678
 31
0.0
  0
LINE
  5
1EA6
330
1F
100
AcDbEntity
  8
0
370
    50
100
AcDbLine
 10
483.5569107426453
 20
1047.87194571678
 30
0.0
 11
483.5569107426453
 21
1045.97294571678
 31
0.0
  0
LINE
  5
1EA7
330
1F
100
AcDbEntity
  8
0
370
    50
100
AcDbLine
 10
483.5569107426453
 20
1045.55094571678
 30
0.0
 11
483.5569107426453
 21
1043.65194571678
 31
0.0
  0
LINE
  5
1EA8
330
1F
100
AcDbEntity
  8
0
370
    50
100
AcDbLine
 10
481.4469107426453
 20
1045.76194571678
 30
0.0
 11
483.3459107426452
 21
1045.76194571678
 31
0.0
  0
LINE
  5
1EA9
330
1F
100
AcDbEntity
  8
0
370
    50
100
AcDbLine
 10
483.7679107426452
 20
1045.76194571678
 30
0.0
 11
485.6669107426453
 21
1045.76194571678
 31
0.0
  0
LINE
  5
1EAA
330
1F
100
AcDbEntity
  8
0
370
    50
100
AcDbLine
 10
444.3069107426453
 20
1045.81694571678
 30
0.0
 11
444.3069107426453
 21
1045.70694571678
 31
0.0
  0
LINE
  5
1EAB
330
1F
100
AcDbEntity
  8
0
370
    50
100
AcDbLine
 10
444.2519107426453
 20
1045.76194571678
 30
0.0
 11
444.3619107426451
 21
1045.76194571678
 31
0.0
  0
LINE
  5
1EAC
330
1F
100
AcDbEntity
  8
0
370
    50
100
AcDbLine
 10
444.3069107426453
 20
1047.87194571678
 30
0.0
 11
444.3069107426453
 21
1045.97294571678
 31
0.0
  0
LINE
  5
1EAD
330
1F
100
AcDbEntity
  8
0
370
    50
100
AcDbLine
 10
444.3069107426453
 20
1045.55094571678
 30
0.0
 11
444.3069107426453
 21
1043.65194571678
 31
0.0
  0
LINE
  5
1EAE
330
1F
100
AcDbEntity
  8
0
370
    50
100
AcDbLine
 10
442.1969107426453
 20
1045.76194571678
 30
0.0
 11
444.0959107426452
 21
1045.76194571678
 31
0.0
  0
LINE
  5
1EAF
330
1F
100
AcDbEntity
  8
0
370
    50
100
AcDbLine
 10
444.5179107426452
 20
1045.76194571678
 30
0.0
 11
446.4169107426453
 21
1045.76194571678
 31
0.0
  0
LINE
  5
1EB0
330
1F
100
AcDbEntity
  8
0
370
    50
100
AcDbLine
 10
616.3069107426452
 20
1045.816945716779
 30
0.0
 11
616.3069107426452
 21
1045.70694571678
 31
0.0
  0
LINE
  5
1EB1
330
1F
100
AcDbEntity
  8
0
370
    50
100
AcDbLine
 10
616.2519107426454
 20
1045.76194571678
 30
0.0
 11
616.3619107426452
 21
1045.76194571678
 31
0.0
  0
LINE
  5
1EB2
330
1F
100
AcDbEntity
  8
0
370
    50
100
AcDbLine
 10
616.3069107426452
 20
1047.87194571678
 30
0.0
 11
616.3069107426452
 21
1045.972945716779
 31
0.0
  0
LINE
  5
1EB3
330
1F
100
AcDbEntity
  8
0
370
    50
100
AcDbLine
 10
616.3069107426452
 20
1045.550945716779
 30
0.0
 11
616.3069107426452
 21
1043.65194571678
 31
0.0
  0
LINE
  5
1EB4
330
1F
100
AcDbEntity
  8
0
370
    50
100
AcDbLine
 10
614.1969107426453
 20
1045.76194571678
 30
0.0
 11
616.095910742645
 21
1045.76194571678
 31
0.0
  0
LINE
  5
1EB5
330
1F
100
AcDbEntity
  8
0
370
    50
100
AcDbLine
 10
616.5179107426451
 20
1045.76194571678
 30
0.0
 11
618.4169107426453
 21
1045.76194571678
 31
0.0
  0
LINE
  5
1EB6
330
1F
100
AcDbEntity
  8
0
370
    50
100
AcDbLine
 10
296.9161041540731
 20
1110.11194571678
 30
0.0
 11
296.9161041540731
 21
1118.91194571678
 31
0.0
  0
LINE
  5
1EB7
330
1F
100
AcDbEntity
  8
0
370
    50
100
AcDbLine
 10
296.9161041540731
 20
1118.91194571678
 30
0.0
 11
293.9161041540732
 21
1118.91194571678
 31
0.0
  0
HATCH
  5
1EB8
330
1F
100
AcDbEntity
  8
0
370
    50
100
AcDbHatch
 10
0.0
 20
0.0
 30
0.0
210
0.0
220
0.0
230
1.0
  2
DOTS
 70
     0
 71
     1
 91
        1
 92
       33
 93
       13
 72
     1
 10
293.9161041540732
 20
1120.51194571678
 11
296.9161041540731
 21
1120.51194571678
 72
     2
 10
296.9161041540731
 20
1118.91194571678
 40
1.6
 50
0.0
 51
90.0
 73
     1
 72
     1
 10
298.5161041540731
 20
1108.51194571678
 11
298.5161041540731
 21
1118.91194571678
 72
     1
 10
293.9161041540732
 20
1120.51194571678
 11
292.5161041540732
 21
1120.51194571678
 72
     1
 10
292.5161041540732
 20
1120.51194571678
 11
292.5161041540732
 21
1118.51194571678
 72
     1
 10
292.5161041540732
 20
1118.51194571678
 11
292.516104154073
 21
872.5119457167799
 72
     1
 10
298.5161041540731
 20
1052.51194571678
 11
298.5161041540731
 21
1108.51194571678
 72
     1
 10
298.516104154073
 20
880.5119457167801
 11
298.5161041540731
 21
1052.51194571678
 72
     1
 10
292.516104154073
 20
872.5119457167799
 11
292.516104154073
 21
870.5119457167798
 72
     1
 10
292.516104154073
 20
870.5119457167798
 11
293.9161041540728
 21
870.5119457167798
 72
     1
 10
296.9161041540729
 20
870.5119457167798
 11
293.9161041540728
 21
870.5119457167798
 72
     2
 10
296.9161041540729
 20
872.11194571678
 40
1.599999999999999
 50
270.0
 51
360.0
 73
     1
 72
     1
 10
298.516104154073
 20
870.5119457167798
 11
298.516104154073
 21
880.5119457167799
 97
       13
330
1EB9
330
1ED0
330
1ECC
330
1EBD
330
1EBF
330
1EC2
330
1ECB
330
1EF0
330
1EBC
330
1EBB
330
1EC5
330
1ECD
330
1EF3
 75
     0
 76
     1
 52
0.0
 41
2.0
 77
     0
 78
     1
 53
0.0
 43
-245.827651907718
 44
616.0007289706339
 45
1.587499999999999
 46
3.174999999999998
 79
     2
 49
0.0
 49
-3.174999999999998
 98
        1
 10
-245.827651907718
 20
616.0007289706339
1001
ACAD
1010
0.0
1020
0.0
1030
0.0
  0
LINE
  5
1EB9
102
{ACAD_REACTORS
330
1EB8
102
}
330
1F
100
AcDbEntity
  8
0
370
    50
100
AcDbLine
 10
293.9161041540732
 20
1120.51194571678
 30
0.0
 11
296.9161041540731
 21
1120.51194571678
 31
0.0
  0
LINE
  5
1EBA
330
1F
100
AcDbEntity
  8
0
370
    50
100
AcDbLine
 10
293.9161041540728
 20
870.5119457167798
 30
0.0
 11
293.9161041540728
 21
872.5119457167799
 31
0.0
  0
LINE
  5
1EBB
102
{ACAD_REACTORS
330
1EB8
102
}
330
1F
100
AcDbEntity
  8
0
370
    50
100
AcDbLine
 10
292.516104154073
 20
870.5119457167798
 30
0.0
 11
293.9161041540728
 21
870.5119457167798
 31
0.0
  0
LINE
  5
1EBC
102
{ACAD_REACTORS
330
1EB8
102
}
330
1F
100
AcDbEntity
  8
0
370
    50
100
AcDbLine
 10
292.516104154073
 20
872.5119457167799
 30
0.0
 11
292.516104154073
 21
870.5119457167798
 31
0.0
  0
LINE
  5
1EBD
102
{ACAD_REACTORS
330
1EB8
102
}
330
1F
100
AcDbEntity
  8
0
370
    50
100
AcDbLine
 10
293.9161041540732
 20
1120.51194571678
 30
0.0
 11
292.5161041540732
 21
1120.51194571678
 31
0.0
  0
LINE
  5
1EBE
330
1F
100
AcDbEntity
  8
0
370
    50
100
AcDbLine
 10
293.9161041540732
 20
1118.51194571678
 30
0.0
 11
293.9161041540732
 21
1120.51194571678
 31
0.0
  0
LINE
  5
1EBF
102
{ACAD_REACTORS
330
1EB8
102
}
330
1F
100
AcDbEntity
  8
0
370
    50
100
AcDbLine
 10
292.5161041540732
 20
1120.51194571678
 30
0.0
 11
292.5161041540732
 21
1118.51194571678
 31
0.0
  0
LINE
  5
1EC0
330
1F
100
AcDbEntity
  8
0
370
    50
100
AcDbLine
 10
293.9161041540728
 20
882.5119457167799
 30
0.0
 11
293.9161041540728
 21
872.5119457167799
 31
0.0
  0
LINE
  5
1EC1
330
1F
100
AcDbEntity
  8
0
370
    50
100
AcDbLine
 10
293.9161041540728
 20
872.5119457167799
 30
0.0
 11
292.516104154073
 21
872.5119457167799
 31
0.0
  0
LINE
  5
1EC2
102
{ACAD_REACTORS
330
1EB8
102
}
330
1F
100
AcDbEntity
  8
0
370
    50
100
AcDbLine
 10
292.5161041540732
 20
1118.51194571678
 30
0.0
 11
292.516104154073
 21
872.5119457167799
 31
0.0
  0
LINE
  5
1EC3
330
1F
100
AcDbEntity
  8
0
370
    50
100
AcDbLine
 10
292.5161041540732
 20
1118.51194571678
 30
0.0
 11
293.9161041540732
 21
1118.51194571678
 31
0.0
  0
LINE
  5
1EC4
330
1F
100
AcDbEntity
  8
0
370
    50
100
AcDbLine
 10
293.9161041540732
 20
1118.51194571678
 30
0.0
 11
293.9161041540732
 21
1108.51194571678
 31
0.0
  0
LINE
  5
1EC5
102
{ACAD_REACTORS
330
1EB8
102
}
330
1F
100
AcDbEntity
  8
0
370
    50
100
AcDbLine
 10
296.9161041540729
 20
870.5119457167798
 30
0.0
 11
293.9161041540728
 21
870.5119457167798
 31
0.0
  0
LINE
  5
1EC6
330
1F
100
AcDbEntity
  8
0
370
    50
100
AcDbLine
 10
293.9161041540728
 20
872.11194571678
 30
0.0
 11
296.9161041540729
 21
872.11194571678
 31
0.0
  0
LINE
  5
1EC7
330
1F
100
AcDbEntity
  8
0
370
    50
100
AcDbLine
 10
296.9161041540729
 20
872.11194571678
 30
0.0
 11
296.9161041540729
 21
880.9119457167801
 31
0.0
  0
LINE
  5
1EC8
330
1F
100
AcDbEntity
  8
0
370
    50
100
AcDbLine
 10
293.9161041540728
 20
880.9119457167801
 30
0.0
 11
296.9161041540729
 21
880.9119457167801
 31
0.0
  0
LINE
  5
1EC9
330
1F
100
AcDbEntity
  8
0
370
    50
100
AcDbLine
 10
296.9161041540731
 20
1110.11194571678
 30
0.0
 11
293.9161041540732
 21
1110.11194571678
 31
0.0
  0
LINE
  5
1ECA
330
1F
100
AcDbEntity
  8
0
370
    50
100
AcDbLine
 10
298.516104154073
 20
880.5119457167799
 30
0.0
 11
298.516104154073
 21
872.11194571678
 31
0.0
  0
LINE
  5
1ECB
102
{ACAD_REACTORS
330
1EB8
102
}
330
1F
100
AcDbEntity
  8
0
370
    50
100
AcDbLine
 10
298.5161041540731
 20
1052.51194571678
 30
0.0
 11
298.5161041540731
 21
1108.51194571678
 31
0.0
  0
LINE
  5
1ECC
102
{ACAD_REACTORS
330
1EB8
102
}
330
1F
100
AcDbEntity
  8
0
370
    50
100
AcDbLine
 10
298.5161041540731
 20
1108.51194571678
 30
0.0
 11
298.5161041540731
 21
1118.91194571678
 31
0.0
  0
ARC
  5
1ECD
102
{ACAD_REACTORS
330
1EB8
102
}
330
1F
100
AcDbEntity
  8
0
370
    50
100
AcDbCircle
 10
296.9161041540729
 20
872.11194571678
 30
0.0
 40
1.599999999999999
100
AcDbArc
 50
270.0
 51
0.0
  0
ARC
  5
1ECE
330
1F
100
AcDbEntity
  8
0
370
    50
100
AcDbCircle
 10
296.9161041540729
 20
882.5119457167799
 30
0.0
 40
1.599999999999989
100
AcDbArc
 50
270.0
 51
0.0
  0
ARC
  5
1ECF
330
1F
100
AcDbEntity
  8
0
370
    50
100
AcDbCircle
 10
296.9161041540731
 20
1108.51194571678
 30
0.0
 40
1.599999999999999
100
AcDbArc
 50
0.0
 51
90.0
  0
ARC
  5
1ED0
102
{ACAD_REACTORS
330
1EB8
102
}
330
1F
100
AcDbEntity
  8
0
370
    50
100
AcDbCircle
 10
296.9161041540731
 20
1118.91194571678
 30
0.0
 40
1.6
100
AcDbArc
 50
0.0
 51
90.0
  0
LINE
  5
1ED1
330
1F
100
AcDbEntity
  8
0
370
    50
100
AcDbLine
 10
351.5161041540732
 20
1052.51194571678
 30
0.0
 11
380.5161041540732
 21
1052.51194571678
 31
0.0
  0
LINE
  5
1ED2
330
1F
100
AcDbEntity
  8
0
370
    50
100
AcDbLine
 10
351.516104154073
 20
880.5119457167799
 30
0.0
 11
351.516104154073
 21
882.5119457167799
 31
0.0
  0
LINE
  5
1ED3
330
1F
100
AcDbEntity
  8
0
370
    50
100
AcDbLine
 10
351.5161041540732
 20
1050.511945716779
 30
0.0
 11
351.5161041540732
 21
1052.51194571678
 31
0.0
  0
LINE
  5
1ED4
330
1F
100
AcDbEntity
  8
0
370
    50
100
AcDbLine
 10
351.5161041540732
 20
1050.511945716779
 30
0.0
 11
380.5161041540732
 21
1050.511945716779
 31
0.0
  0
LINE
  5
1ED5
330
1F
100
AcDbEntity
  8
0
370
    50
100
AcDbLine
 10
380.516104154073
 20
882.5119457167799
 30
0.0
 11
351.516104154073
 21
882.5119457167799
 31
0.0
  0
LINE
  5
1ED6
330
1F
100
AcDbEntity
  8
0
370
    50
100
AcDbLine
 10
380.516104154073
 20
880.5119457167799
 30
0.0
 11
380.516104154073
 21
882.5119457167799
 31
0.0
  0
LINE
  5
1ED7
330
1F
100
AcDbEntity
  8
0
370
    50
100
AcDbLine
 10
380.5161041540732
 20
1050.511945716779
 30
0.0
 11
380.516104154073
 21
882.5119457167799
 31
0.0
  0
LINE
  5
1ED8
330
1F
100
AcDbEntity
  8
0
370
    50
100
AcDbLine
 10
380.5161041540732
 20
1050.511945716779
 30
0.0
 11
380.5161041540732
 21
1052.51194571678
 31
0.0
  0
LINE
  5
1ED9
330
1F
100
AcDbEntity
  8
0
370
    50
100
AcDbLine
 10
351.516104154073
 20
880.5119457167799
 30
0.0
 11
380.516104154073
 21
880.5119457167799
 31
0.0
  0
LINE
  5
1EDA
330
1F
100
AcDbEntity
  8
0
370
    50
100
AcDbLine
 10
351.516104154073
 20
880.5119457167799
 30
0.0
 11
351.516104154073
 21
870.5119457167798
 31
0.0
  0
LINE
  5
1EDB
330
1F
100
AcDbEntity
  8
0
370
    50
100
AcDbLine
 10
380.516104154073
 20
880.5119457167799
 30
0.0
 11
380.516104154073
 21
870.5119457167798
 31
0.0
  0
LINE
  5
1EDC
330
1F
100
AcDbEntity
  8
0
370
    50
100
AcDbLine
 10
351.516104154073
 20
870.5119457167798
 30
0.0
 11
380.516104154073
 21
870.5119457167798
 31
0.0
  0
LINE
  5
1EDD
330
1F
100
AcDbEntity
  8
0
370
    50
100
AcDbLine
 10
339.5161041540732
 20
1052.51194571678
 30
0.0
 11
351.5161041540732
 21
1052.51194571678
 31
0.0
  0
LINE
  5
1EDE
330
1F
100
AcDbEntity
  8
0
370
    50
100
AcDbLine
 10
351.516104154073
 20
880.5119457167801
 30
0.0
 11
351.5161041540732
 21
1052.51194571678
 31
0.0
  0
LINE
  5
1EDF
330
1F
100
AcDbEntity
  8
0
370
    50
100
AcDbLine
 10
351.516104154073
 20
880.5119457167799
 30
0.0
 11
351.516104154073
 21
870.5119457167798
 31
0.0
  0
LINE
  5
1EE0
330
1F
100
AcDbEntity
  8
0
370
    50
100
AcDbLine
 10
351.516104154073
 20
870.5119457167798
 30
0.0
 11
339.516104154073
 21
870.5119457167798
 31
0.0
  0
LINE
  5
1EE1
330
1F
100
AcDbEntity
  8
0
370
    50
100
AcDbLine
 10
339.516104154073
 20
880.5119457167799
 30
0.0
 11
351.516104154073
 21
880.5119457167799
 31
0.0
  0
LINE
  5
1EE2
330
1F
100
AcDbEntity
  8
0
370
    50
100
AcDbLine
 10
310.516104154073
 20
880.5119457167799
 30
0.0
 11
310.516104154073
 21
882.5119457167799
 31
0.0
  0
LINE
  5
1EE3
330
1F
100
AcDbEntity
  8
0
370
    50
100
AcDbLine
 10
310.5161041540732
 20
1050.511945716779
 30
0.0
 11
310.5161041540732
 21
1052.51194571678
 31
0.0
  0
LINE
  5
1EE4
330
1F
100
AcDbEntity
  8
0
370
    50
100
AcDbLine
 10
310.5161041540732
 20
1052.51194571678
 30
0.0
 11
339.5161041540732
 21
1052.51194571678
 31
0.0
  0
LINE
  5
1EE5
330
1F
100
AcDbEntity
  8
0
370
    50
100
AcDbLine
 10
310.5161041540732
 20
1050.511945716779
 30
0.0
 11
339.5161041540732
 21
1050.511945716779
 31
0.0
  0
LINE
  5
1EE6
330
1F
100
AcDbEntity
  8
0
370
    50
100
AcDbLine
 10
339.516104154073
 20
882.5119457167799
 30
0.0
 11
310.516104154073
 21
882.5119457167799
 31
0.0
  0
LINE
  5
1EE7
330
1F
100
AcDbEntity
  8
0
370
    50
100
AcDbLine
 10
339.516104154073
 20
880.5119457167799
 30
0.0
 11
339.516104154073
 21
882.5119457167799
 31
0.0
  0
LINE
  5
1EE8
330
1F
100
AcDbEntity
  8
0
370
    50
100
AcDbLine
 10
339.5161041540732
 20
1050.511945716779
 30
0.0
 11
339.516104154073
 21
882.5119457167799
 31
0.0
  0
LINE
  5
1EE9
330
1F
100
AcDbEntity
  8
0
370
    50
100
AcDbLine
 10
339.5161041540732
 20
1050.511945716779
 30
0.0
 11
339.5161041540732
 21
1052.51194571678
 31
0.0
  0
LINE
  5
1EEA
330
1F
100
AcDbEntity
  8
0
370
    50
100
AcDbLine
 10
310.516104154073
 20
880.5119457167799
 30
0.0
 11
339.516104154073
 21
880.5119457167799
 31
0.0
  0
LINE
  5
1EEB
330
1F
100
AcDbEntity
  8
0
370
    50
100
AcDbLine
 10
310.516104154073
 20
880.5119457167799
 30
0.0
 11
310.516104154073
 21
870.5119457167798
 31
0.0
  0
LINE
  5
1EEC
330
1F
100
AcDbEntity
  8
0
370
    50
100
AcDbLine
 10
339.516104154073
 20
880.5119457167799
 30
0.0
 11
339.516104154073
 21
870.5119457167798
 31
0.0
  0
LINE
  5
1EED
330
1F
100
AcDbEntity
  8
0
370
    50
100
AcDbLine
 10
310.516104154073
 20
870.5119457167798
 30
0.0
 11
339.516104154073
 21
870.5119457167798
 31
0.0
  0
LINE
  5
1EEE
330
1F
100
AcDbEntity
  8
0
370
    50
100
AcDbLine
 10
298.5161041540731
 20
1052.51194571678
 30
0.0
 11
310.5161041540732
 21
1052.51194571678
 31
0.0
  0
LINE
  5
1EEF
330
1F
100
AcDbEntity
  8
0
370
    50
100
AcDbLine
 10
310.516104154073
 20
880.5119457167801
 30
0.0
 11
310.5161041540732
 21
1052.51194571678
 31
0.0
  0
LINE
  5
1EF0
102
{ACAD_REACTORS
330
1EB8
102
}
330
1F
100
AcDbEntity
  8
0
370
    50
100
AcDbLine
 10
298.516104154073
 20
880.5119457167801
 30
0.0
 11
298.5161041540731
 21
1052.51194571678
 31
0.0
  0
LINE
  5
1EF1
330
1F
100
AcDbEntity
  8
0
370
    50
100
AcDbLine
 10
310.516104154073
 20
880.5119457167799
 30
0.0
 11
310.516104154073
 21
870.5119457167798
 31
0.0
  0
LINE
  5
1EF2
330
1F
100
AcDbEntity
  8
0
370
    50
100
AcDbLine
 10
310.516104154073
 20
870.5119457167798
 30
0.0
 11
298.516104154073
 21
870.5119457167798
 31
0.0
  0
LINE
  5
1EF3
102
{ACAD_REACTORS
330
1EB8
102
}
330
1F
100
AcDbEntity
  8
0
370
    50
100
AcDbLine
 10
298.516104154073
 20
870.5119457167798
 30
0.0
 11
298.516104154073
 21
880.5119457167799
 31
0.0
  0
LINE
  5
1EF4
330
1F
100
AcDbEntity
  8
0
370
    50
100
AcDbLine
 10
298.516104154073
 20
880.5119457167799
 30
0.0
 11
310.516104154073
 21
880.5119457167799
 31
0.0
  0
LINE
  5
1EF5
330
1F
100
AcDbEntity
  8
0
370
    50
100
AcDbLine
 10
358.5161041540732
 20
1049.01194571678
 30
0.0
 11
351.5161041540732
 21
1049.01194571678
 31
0.0
  0
LINE
  5
1EF6
330
1F
100
AcDbEntity
  8
0
370
    50
100
AcDbLine
 10
347.516104154073
 20
886.0119457167799
 30
0.0
 11
347.5161041540732
 21
1047.011945716779
 31
0.0
  0
LINE
  5
1EF7
330
1F
100
AcDbEntity
  8
0
370
    50
100
AcDbLine
 10
351.516104154073
 20
884.0119457167801
 30
0.0
 11
358.5161041540731
 21
884.0119457167801
 31
0.0
  0
LINE
  5
1EF8
330
1F
100
AcDbEntity
  8
0
370
    50
100
AcDbLine
 10
358.5161041540731
 20
886.0119457167799
 30
0.0
 11
358.5161041540732
 21
1047.011945716779
 31
0.0
  0
LINE
  5
1EF9
330
1F
100
AcDbEntity
  8
0
370
    50
100
AcDbLine
 10
358.5161041540731
 20
886.0119457167799
 30
0.0
 11
358.5161041540731
 21
884.0119457167801
 31
0.0
  0
LINE
  5
1EFA
330
1F
100
AcDbEntity
  8
0
370
    50
100
AcDbLine
 10
358.5161041540732
 20
1049.01194571678
 30
0.0
 11
358.5161041540732
 21
1047.011945716779
 31
0.0
  0
LINE
  5
1EFB
330
1F
100
AcDbEntity
  8
0
370
    50
100
AcDbLine
 10
317.5161041540732
 20
1049.01194571678
 30
0.0
 11
310.5161041540732
 21
1049.01194571678
 31
0.0
  0
LINE
  5
1EFC
330
1F
100
AcDbEntity
  8
0
370
    50
100
AcDbLine
 10
306.516104154073
 20
886.0119457167799
 30
0.0
 11
306.5161041540731
 21
1047.011945716779
 31
0.0
  0
LINE
  5
1EFD
330
1F
100
AcDbEntity
  8
0
370
    50
100
AcDbLine
 10
310.516104154073
 20
884.0119457167801
 30
0.0
 11
317.516104154073
 21
884.0119457167801
 31
0.0
  0
LINE
  5
1EFE
330
1F
100
AcDbEntity
  8
0
370
    50
100
AcDbLine
 10
317.516104154073
 20
886.0119457167799
 30
0.0
 11
317.5161041540732
 21
1047.011945716779
 31
0.0
  0
LINE
  5
1EFF
330
1F
100
AcDbEntity
  8
0
370
    50
100
AcDbLine
 10
317.516104154073
 20
886.0119457167799
 30
0.0
 11
317.516104154073
 21
884.0119457167801
 31
0.0
  0
LINE
  5
1F00
330
1F
100
AcDbEntity
  8
0
370
    50
100
AcDbLine
 10
317.5161041540732
 20
1049.01194571678
 30
0.0
 11
317.5161041540732
 21
1047.011945716779
 31
0.0
  0
HATCH
  5
1F01
330
1F
100
AcDbEntity
  8
0
370
    50
100
AcDbHatch
 10
0.0
 20
0.0
 30
0.0
210
0.0
220
0.0
230
1.0
  2
DOTS
 70
     0
 71
     1
 91
        1
 92
        1
 93
        5
 72
     1
 10
629.3069107426453
 20
880.5119457167799
 11
614.3069107426453
 21
880.5119457167799
 72
     1
 10
614.3069107426453
 20
880.5119457167799
 11
614.3069107426453
 21
870.5119457167798
 72
     1
 10
614.3069107426453
 20
870.5119457167798
 11
627.3069107426453
 21
870.5119457167798
 72
     1
 10
627.3069107426453
 20
870.5119457167798
 11
629.3069107426453
 21
872.5119457167799
 72
     1
 10
629.3069107426453
 20
872.5119457167798
 11
629.3069107426453
 21
880.5119457167799
 97
        5
330
1F49
330
1F4D
330
1F02
330
1F09
330
1F0D
 75
     0
 76
     1
 52
0.0
 41
2.0
 77
     0
 78
     1
 53
0.0
 43
-245.827651907718
 44
616.0007289706339
 45
1.587499999999999
 46
3.174999999999998
 79
     2
 49
0.0
 49
-3.174999999999998
 98
        1
 10
-245.827651907718
 20
616.0007289706339
1001
ACAD
1010
0.0
1020
0.0
1030
0.0
  0
LINE
  5
1F02
102
{ACAD_REACTORS
330
1F01
102
}
330
1F
100
AcDbEntity
  8
0
370
    50
100
AcDbLine
 10
627.3069107426453
 20
870.5119457167798
 30
0.0
 11
614.3069107426453
 21
870.5119457167798
 31
0.0
  0
HATCH
  5
1F03
330
1F
100
AcDbEntity
  8
0
370
    50
100
AcDbHatch
 10
0.0
 20
0.0
 30
0.0
210
0.0
220
0.0
230
1.0
  2
DOTS
 70
     0
 71
     1
 91
        1
 92
        1
 93
        5
 72
     1
 10
454.3069107426451
 20
880.5119457167799
 11
439.3069107426452
 21
880.5119457167799
 72
     1
 10
439.3069107426454
 20
880.5119457167799
 11
439.3069107426454
 21
872.5119457167799
 72
     1
 10
439.3069107426454
 20
872.5119457167799
 11
441.3069107426453
 21
870.5119457167798
 72
     1
 10
441.3069107426453
 20
870.5119457167798
 11
454.3069107426453
 21
870.5119457167798
 72
     1
 10
454.3069107426451
 20
870.5119457167798
 11
454.3069107426451
 21
880.5119457167799
 97
        5
330
1F48
330
1F0E
330
1F08
330
1F04
330
1F4C
 75
     0
 76
     1
 52
0.0
 41
2.0
 77
     0
 78
     1
 53
0.0
 43
-245.827651907718
 44
616.0007289706339
 45
1.587499999999999
 46
3.174999999999998
 79
     2
 49
0.0
 49
-3.174999999999998
 98
        1
 10
-245.827651907718
 20
616.0007289706339
1001
ACAD
1010
0.0
1020
0.0
1030
0.0
  0
LINE
  5
1F04
102
{ACAD_REACTORS
330
1F03
102
}
330
1F
100
AcDbEntity
  8
0
370
    50
100
AcDbLine
 10
454.3069107426453
 20
870.5119457167798
 30
0.0
 11
441.3069107426453
 21
870.5119457167798
 31
0.0
  0
HATCH
  5
1F05
330
1F
100
AcDbEntity
  8
0
370
    50
100
AcDbHatch
 10
0.0
 20
0.0
 30
0.0
210
0.0
220
0.0
230
1.0
  2
DOTS
 70
     0
 71
     1
 91
        1
 92
        1
 93
       14
 72
     1
 10
614.3069107426453
 20
1120.51194571678
 11
454.3069107426453
 21
1120.51194571678
 72
     1
 10
454.3069107426453
 20
1120.51194571678
 11
441.3069107426453
 21
1120.51194571678
 72
     1
 10
441.3069107426453
 20
1120.51194571678
 11
439.3069107426454
 21
1118.51194571678
 72
     1
 10
439.3069107426454
 20
1118.51194571678
 11
439.3069107426454
 21
1108.51194571678
 72
     1
 10
439.3069107426454
 20
1108.51194571678
 11
439.3069107426454
 21
1052.51194571678
 72
     1
 10
439.3069107426454
 20
1052.51194571678
 11
478.5569107426453
 21
1052.51194571678
 72
     1
 10
478.5569107426453
 20
1052.51194571678
 11
509.0569107426453
 21
1052.51194571678
 72
     1
 10
509.0569107426453
 20
1052.51194571678
 11
598.0569107426453
 21
1052.51194571678
 72
     1
 10
598.0569107426453
 20
1052.51194571678
 11
610.5569107426453
 21
1052.51194571678
 72
     1
 10
610.5569107426453
 20
1052.51194571678
 11
629.3069107426453
 21
1052.51194571678
 72
     1
 10
629.3069107426453
 20
1052.51194571678
 11
629.3069107426453
 21
1108.51194571678
 72
     1
 10
629.3069107426453
 20
1108.51194571678
 11
629.3069107426453
 21
1118.51194571678
 72
     1
 10
629.3069107426453
 20
1118.51194571678
 11
627.3069107426453
 21
1120.51194571678
 72
     1
 10
627.3069107426453
 20
1120.51194571678
 11
614.3069107426453
 21
1120.51194571678
 97
       14
330
1F16
330
1F06
330
1F0B
330
1F0F
330
1F11
330
1F47
330
1F26
330
1F2F
330
1F1F
330
1F3C
330
1F13
330
1F0C
330
1F0A
330
1F07
 75
     0
 76
     1
 52
0.0
 41
2.0
 77
     0
 78
     1
 53
0.0
 43
-245.827651907718
 44
616.0007289706339
 45
1.587499999999999
 46
3.174999999999998
 79
     2
 49
0.0
 49
-3.174999999999998
 98
        1
 10
-245.827651907718
 20
616.0007289706339
1001
ACAD
1010
0.0
1020
0.0
1030
0.0
  0
LINE
  5
1F06
102
{ACAD_REACTORS
330
1F05
102
}
330
1F
100
AcDbEntity
  8
0
370
    50
100
AcDbLine
 10
441.3069107426453
 20
1120.51194571678
 30
0.0
 11
454.3069107426453
 21
1120.51194571678
 31
0.0
  0
LINE
  5
1F07
102
{ACAD_REACTORS
330
1F05
102
}
330
1F
100
AcDbEntity
  8
0
370
    50
100
AcDbLine
 10
614.3069107426453
 20
1120.51194571678
 30
0.0
 11
627.3069107426453
 21
1120.51194571678
 31
0.0
  0
LINE
  5
1F08
102
{ACAD_REACTORS
330
1F03
102
}
330
1F
100
AcDbEntity
  8
0
370
    50
100
AcDbLine
 10
441.3069107426453
 20
870.5119457167798
 30
0.0
 11
439.3069107426454
 21
872.5119457167799
 31
0.0
  0
LINE
  5
1F09
102
{ACAD_REACTORS
330
1F01
102
}
330
1F
100
AcDbEntity
  8
0
370
    50
100
AcDbLine
 10
629.3069107426453
 20
872.5119457167799
 30
0.0
 11
627.3069107426453
 21
870.5119457167798
 31
0.0
  0
LINE
  5
1F0A
102
{ACAD_REACTORS
330
1F05
102
}
330
1F
100
AcDbEntity
  8
0
370
    50
100
AcDbLine
 10
627.3069107426453
 20
1120.51194571678
 30
0.0
 11
629.3069107426453
 21
1118.51194571678
 31
0.0
  0
LINE
  5
1F0B
102
{ACAD_REACTORS
330
1F05
102
}
330
1F
100
AcDbEntity
  8
0
370
    50
100
AcDbLine
 10
439.3069107426454
 20
1118.51194571678
 30
0.0
 11
441.3069107426453
 21
1120.51194571678
 31
0.0
  0
LINE
  5
1F0C
102
{ACAD_REACTORS
330
1F05
102
}
330
1F
100
AcDbEntity
  8
0
370
    50
100
AcDbLine
 10
629.3069107426453
 20
1108.51194571678
 30
0.0
 11
629.3069107426453
 21
1118.51194571678
 31
0.0
  0
LINE
  5
1F0D
102
{ACAD_REACTORS
330
1F01
102
}
330
1F
100
AcDbEntity
  8
0
370
    50
100
AcDbLine
 10
629.3069107426453
 20
872.5119457167798
 30
0.0
 11
629.3069107426453
 21
880.5119457167799
 31
0.0
  0
LINE
  5
1F0E
102
{ACAD_REACTORS
330
1F03
102
}
330
1F
100
AcDbEntity
  8
0
370
    50
100
AcDbLine
 10
439.3069107426454
 20
880.5119457167799
 30
0.0
 11
439.3069107426454
 21
872.5119457167799
 31
0.0
  0
LINE
  5
1F0F
102
{ACAD_REACTORS
330
1F05
102
}
330
1F
100
AcDbEntity
  8
0
370
    50
100
AcDbLine
 10
439.3069107426454
 20
1118.51194571678
 30
0.0
 11
439.3069107426454
 21
1108.51194571678
 31
0.0
  0
LINE
  5
1F10
330
1F
100
AcDbEntity
  8
0
370
    50
100
AcDbLine
 10
454.3069107426453
 20
1110.11194571678
 30
0.0
 11
440.9069107426453
 21
1110.11194571678
 31
0.0
  0
LINE
  5
1F11
102
{ACAD_REACTORS
330
1F05
102
}
330
1F
100
AcDbEntity
  8
0
370
    50
100
AcDbLine
 10
439.3069107426454
 20
1108.51194571678
 30
0.0
 11
439.3069107426454
 21
1052.51194571678
 31
0.0
  0
LINE
  5
1F12
330
1F
100
AcDbEntity
  8
0
370
    50
100
AcDbLine
 10
627.7069107426455
 20
1110.11194571678
 30
0.0
 11
614.3069107426453
 21
1110.11194571678
 31
0.0
  0
LINE
  5
1F13
102
{ACAD_REACTORS
330
1F05
102
}
330
1F
100
AcDbEntity
  8
0
370
    50
100
AcDbLine
 10
629.3069107426453
 20
1052.51194571678
 30
0.0
 11
629.3069107426453
 21
1108.51194571678
 31
0.0
  0
LINE
  5
1F14
330
1F
100
AcDbEntity
  8
0
370
    50
100
AcDbLine
 10
454.3069107426453
 20
1108.51194571678
 30
0.0
 11
454.3069107426453
 21
1118.91194571678
 31
0.0
  0
LINE
  5
1F15
330
1F
100
AcDbEntity
  8
0
370
    50
100
AcDbLine
 10
614.3069107426453
 20
1108.51194571678
 30
0.0
 11
614.3069107426453
 21
1118.91194571678
 31
0.0
  0
LINE
  5
1F16
102
{ACAD_REACTORS
330
1F05
102
}
330
1F
100
AcDbEntity
  8
0
370
    50
100
AcDbLine
 10
614.3069107426453
 20
1120.51194571678
 30
0.0
 11
454.3069107426453
 21
1120.51194571678
 31
0.0
  0
CIRCLE
  5
1F17
330
1F
100
AcDbEntity
  8
0
370
    50
100
AcDbCircle
 10
624.3069107426452
 20
876.5119457167799
 30
0.0
 40
2.5
  0
CIRCLE
  5
1F18
330
1F
100
AcDbEntity
  8
0
370
    50
100
AcDbCircle
 10
444.3069107426453
 20
876.5119457167799
 30
0.0
 40
2.5
  0
CIRCLE
  5
1F19
330
1F
100
AcDbEntity
  8
0
370
    50
100
AcDbCircle
 10
444.3069107426453
 20
1114.51194571678
 30
0.0
 40
2.5
  0
CIRCLE
  5
1F1A
330
1F
100
AcDbEntity
  8
0
370
    50
100
AcDbCircle
 10
624.3069107426452
 20
1114.51194571678
 30
0.0
 40
2.5
  0
ARC
  5
1F1B
330
1F
100
AcDbEntity
  8
0
370
    50
100
AcDbCircle
 10
440.9069107426453
 20
1108.51194571678
 30
0.0
 40
1.600000000000022
100
AcDbArc
 50
90.0
 51
180.0
  0
ARC
  5
1F1C
330
1F
100
AcDbEntity
  8
0
370
    50
100
AcDbCircle
 10
627.7069107426455
 20
1108.51194571678
 30
0.0
 40
1.599999999999994
100
AcDbArc
 50
0.0
 51
90.0
  0
LINE
  5
1F1D
330
1F
100
AcDbEntity
  8
0
370
    50
100
AcDbLine
 10
614.3069107426453
 20
1120.51194571678
 30
0.0
 11
614.3069107426453
 21
1118.91194571678
 31
0.0
  0
LINE
  5
1F1E
330
1F
100
AcDbEntity
  8
0
370
    50
100
AcDbLine
 10
454.3069107426453
 20
1118.91194571678
 30
0.0
 11
454.3069107426453
 21
1120.51194571678
 31
0.0
  0
LINE
  5
1F1F
102
{ACAD_REACTORS
330
1F05
102
}
330
1F
100
AcDbEntity
  8
0
370
    50
100
AcDbLine
 10
598.0569107426453
 20
1052.51194571678
 30
0.0
 11
610.5569107426453
 21
1052.51194571678
 31
0.0
  0
LINE
  5
1F20
102
{ACAD_REACTORS
330
1FE0
102
}
330
1F
100
AcDbEntity
  8
0
370
    50
100
AcDbLine
 10
610.5569107426453
 20
1052.51194571678
 30
0.0
 11
610.5569107426453
 21
880.5119457167799
 31
0.0
  0
LINE
  5
1F21
330
1F
100
AcDbEntity
  8
0
370
    50
100
AcDbLine
 10
478.5569107426453
 20
880.5119457167799
 30
0.0
 11
478.5569107426453
 21
882.5119457167799
 31
0.0
  0
LINE
  5
1F22
330
1F
100
AcDbEntity
  8
0
370
    50
100
AcDbLine
 10
497.0569107426453
 20
882.5119457167799
 30
0.0
 11
478.5569107426453
 21
882.5119457167799
 31
0.0
  0
LINE
  5
1F23
330
1F
100
AcDbEntity
  8
0
370
    50
100
AcDbLine
 10
497.0569107426453
 20
1050.511945716779
 30
0.0
 11
497.0569107426453
 21
882.5119457167799
 31
0.0
  0
LINE
  5
1F24
330
1F
100
AcDbEntity
  8
0
370
    50
100
AcDbLine
 10
478.5569107426453
 20
1050.511945716779
 30
0.0
 11
497.0569107426453
 21
1050.511945716779
 31
0.0
  0
LINE
  5
1F25
330
1F
100
AcDbEntity
  8
0
370
    50
100
AcDbLine
 10
478.5569107426453
 20
1050.511945716779
 30
0.0
 11
478.5569107426453
 21
1052.51194571678
 31
0.0
  0
LINE
  5
1F26
102
{ACAD_REACTORS
330
1F05
102
}
330
1F
100
AcDbEntity
  8
0
370
    50
100
AcDbLine
 10
478.5569107426453
 20
1052.51194571678
 30
0.0
 11
509.0569107426453
 21
1052.51194571678
 31
0.0
  0
LINE
  5
1F27
330
1F
100
AcDbEntity
  8
0
370
    50
100
AcDbLine
 10
598.0569107426453
 20
1022.51194571678
 30
0.0
 11
509.0569107426453
 21
1022.51194571678
 31
0.0
  0
LINE
  5
1F28
102
{ACAD_REACTORS
330
1FE0
102
}
330
1F
100
AcDbEntity
  8
0
370
    50
100
AcDbLine
 10
493.5569107426453
 20
880.5119457167799
 30
0.0
 11
478.5569107426453
 21
880.5119457167799
 31
0.0
  0
LINE
  5
1F29
330
1F
100
AcDbEntity
  8
0
370
    50
100
AcDbLine
 10
610.556910742645
 20
880.5119457167799
 30
0.0
 11
595.5569107426453
 21
880.5119457167799
 31
0.0
  0
LINE
  5
1F2A
330
1F
100
AcDbEntity
  8
0
370
    50
100
AcDbLine
 10
493.5569107426453
 20
870.5119457167798
 30
0.0
 11
595.5569107426453
 21
870.5119457167798
 31
0.0
  0
LINE
  5
1F2B
330
1F
100
AcDbEntity
  8
0
370
    50
100
AcDbLine
 10
493.5569107426453
 20
880.5119457167799
 30
0.0
 11
493.5569107426453
 21
870.5119457167798
 31
0.0
  0
LINE
  5
1F2C
330
1F
100
AcDbEntity
  8
0
370
    50
100
AcDbLine
 10
595.5569107426453
 20
880.5119457167799
 30
0.0
 11
595.5569107426453
 21
870.5119457167798
 31
0.0
  0
LINE
  5
1F2D
330
1F
100
AcDbEntity
  8
0
370
    50
100
AcDbLine
 10
598.0569107426453
 20
1052.51194571678
 30
0.0
 11
598.0569107426453
 21
1022.51194571678
 31
0.0
  0
LINE
  5
1F2E
330
1F
100
AcDbEntity
  8
0
370
    50
100
AcDbLine
 10
509.0569107426453
 20
1022.51194571678
 30
0.0
 11
509.0569107426453
 21
1052.51194571678
 31
0.0
  0
LINE
  5
1F2F
102
{ACAD_REACTORS
330
1F05
102
}
330
1F
100
AcDbEntity
  8
0
370
    50
100
AcDbLine
 10
509.0569107426453
 20
1052.51194571678
 30
0.0
 11
598.0569107426453
 21
1052.51194571678
 31
0.0
  0
LINE
  5
1F30
330
1F
100
AcDbEntity
  8
0
370
    50
100
AcDbLine
 10
588.0569107426453
 20
1027.51194571678
 30
0.0
 11
519.0569107426453
 21
1027.51194571678
 31
0.0
  0
LINE
  5
1F31
330
1F
100
AcDbEntity
  8
0
370
    50
100
AcDbLine
 10
588.0569107426453
 20
1035.51194571678
 30
0.0
 11
588.0569107426453
 21
1027.51194571678
 31
0.0
  0
LINE
  5
1F32
330
1F
100
AcDbEntity
  8
0
370
    50
100
AcDbLine
 10
519.0569107426453
 20
1035.51194571678
 30
0.0
 11
588.0569107426453
 21
1035.51194571678
 31
0.0
  0
LINE
  5
1F33
330
1F
100
AcDbEntity
  8
0
370
    50
100
AcDbLine
 10
519.0569107426453
 20
1027.51194571678
 30
0.0
 11
519.0569107426453
 21
1035.51194571678
 31
0.0
  0
LINE
  5
1F34
330
1F
100
AcDbEntity
  8
0
370
    50
100
AcDbLine
 10
588.0569107426453
 20
1039.51194571678
 30
0.0
 11
519.0569107426453
 21
1039.51194571678
 31
0.0
  0
LINE
  5
1F35
330
1F
100
AcDbEntity
  8
0
370
    50
100
AcDbLine
 10
588.0569107426453
 20
1047.51194571678
 30
0.0
 11
588.0569107426453
 21
1039.51194571678
 31
0.0
  0
LINE
  5
1F36
330
1F
100
AcDbEntity
  8
0
370
    50
100
AcDbLine
 10
519.0569107426453
 20
1047.51194571678
 30
0.0
 11
588.0569107426453
 21
1047.51194571678
 31
0.0
  0
LINE
  5
1F37
330
1F
100
AcDbEntity
  8
0
370
    50
100
AcDbLine
 10
519.0569107426453
 20
1039.51194571678
 30
0.0
 11
519.0569107426453
 21
1047.51194571678
 31
0.0
  0
LINE
  5
1F38
330
1F
100
AcDbEntity
  8
0
370
    50
100
AcDbLine
 10
478.5569107426452
 20
882.5119457167799
 30
0.0
 11
478.5569107426452
 21
886.0119457167799
 31
0.0
  0
LINE
  5
1F39
330
1F
100
AcDbEntity
  8
0
370
    50
100
AcDbLine
 10
478.5569107426453
 20
1047.011945716779
 30
0.0
 11
478.5569107426453
 21
1050.511945716779
 31
0.0
  0
LINE
  5
1F3A
330
1F
100
AcDbEntity
  8
0
370
    50
100
AcDbLine
 10
490.5569107426453
 20
1050.511945716779
 30
0.0
 11
490.5569107426453
 21
1049.01194571678
 31
0.0
  0
LINE
  5
1F3B
330
1F
100
AcDbEntity
  8
0
370
    50
100
AcDbLine
 10
480.5569107426451
 20
882.5119457167799
 30
0.0
 11
480.5569107426451
 21
884.0119457167801
 31
0.0
  0
LINE
  5
1F3C
102
{ACAD_REACTORS
330
1F05
102
}
330
1F
100
AcDbEntity
  8
0
370
    50
100
AcDbLine
 10
610.5569107426453
 20
1052.51194571678
 30
0.0
 11
629.3069107426453
 21
1052.51194571678
 31
0.0
  0
LINE
  5
1F3D
330
1F
100
AcDbEntity
  8
0
370
    50
100
AcDbLine
 10
629.3069107426453
 20
1052.51194571678
 30
0.0
 11
629.3069107426453
 21
1050.511945716779
 31
0.0
  0
LINE
  5
1F3E
330
1F
100
AcDbEntity
  8
0
370
    50
100
AcDbLine
 10
610.8069107426453
 20
1050.511945716779
 30
0.0
 11
629.3069107426453
 21
1050.511945716779
 31
0.0
  0
LINE
  5
1F3F
330
1F
100
AcDbEntity
  8
0
370
    50
100
AcDbLine
 10
610.8069107426453
 20
882.5119457167799
 30
0.0
 11
610.8069107426453
 21
1050.511945716779
 31
0.0
  0
LINE
  5
1F40
330
1F
100
AcDbEntity
  8
0
370
    50
100
AcDbLine
 10
629.306910742645
 20
882.5119457167799
 30
0.0
 11
610.8069107426453
 21
882.5119457167799
 31
0.0
  0
LINE
  5
1F41
330
1F
100
AcDbEntity
  8
0
370
    50
100
AcDbLine
 10
629.3069107426453
 20
882.5119457167799
 30
0.0
 11
629.3069107426453
 21
880.5119457167799
 31
0.0
  0
LINE
  5
1F42
330
1F
100
AcDbEntity
  8
0
370
    50
100
AcDbLine
 10
439.3069107426452
 20
880.5119457167799
 30
0.0
 11
439.3069107426452
 21
882.5119457167799
 31
0.0
  0
LINE
  5
1F43
330
1F
100
AcDbEntity
  8
0
370
    50
100
AcDbLine
 10
457.8069107426451
 20
882.5119457167799
 30
0.0
 11
439.3069107426452
 21
882.5119457167799
 31
0.0
  0
LINE
  5
1F44
330
1F
100
AcDbEntity
  8
0
370
    50
100
AcDbLine
 10
457.8069107426453
 20
1050.511945716779
 30
0.0
 11
457.8069107426453
 21
882.5119457167799
 31
0.0
  0
LINE
  5
1F45
330
1F
100
AcDbEntity
  8
0
370
    50
100
AcDbLine
 10
439.3069107426454
 20
1050.511945716779
 30
0.0
 11
457.8069107426453
 21
1050.511945716779
 31
0.0
  0
LINE
  5
1F46
330
1F
100
AcDbEntity
  8
0
370
    50
100
AcDbLine
 10
439.3069107426454
 20
1050.511945716779
 30
0.0
 11
439.3069107426454
 21
1052.51194571678
 31
0.0
  0
LINE
  5
1F47
102
{ACAD_REACTORS
330
1F05
102
}
330
1F
100
AcDbEntity
  8
0
370
    50
100
AcDbLine
 10
439.3069107426454
 20
1052.51194571678
 30
0.0
 11
478.5569107426453
 21
1052.51194571678
 31
0.0
  0
LINE
  5
1F48
102
{ACAD_REACTORS
330
1F03
102
}
330
1F
100
AcDbEntity
  8
0
370
    50
100
AcDbLine
 10
454.3069107426451
 20
880.5119457167799
 30
0.0
 11
439.3069107426452
 21
880.5119457167799
 31
0.0
  0
LINE
  5
1F49
102
{ACAD_REACTORS
330
1F01
102
}
330
1F
100
AcDbEntity
  8
0
370
    50
100
AcDbLine
 10
629.3069107426453
 20
880.5119457167799
 30
0.0
 11
614.3069107426453
 21
880.5119457167799
 31
0.0
  0
LINE
  5
1F4A
330
1F
100
AcDbEntity
  8
0
370
    50
100
AcDbLine
 10
454.3069107426451
 20
870.5119457167798
 30
0.0
 11
493.5569107426451
 21
870.5119457167798
 31
0.0
  0
LINE
  5
1F4B
330
1F
100
AcDbEntity
  8
0
370
    50
100
AcDbLine
 10
595.5569107426453
 20
870.5119457167798
 30
0.0
 11
614.3069107426453
 21
870.5119457167798
 31
0.0
  0
LINE
  5
1F4C
102
{ACAD_REACTORS
330
1F03
102
}
330
1F
100
AcDbEntity
  8
0
370
    50
100
AcDbLine
 10
454.3069107426451
 20
880.5119457167799
 30
0.0
 11
454.3069107426451
 21
870.5119457167798
 31
0.0
  0
LINE
  5
1F4D
102
{ACAD_REACTORS
330
1F01
102
}
330
1F
100
AcDbEntity
  8
0
370
    50
100
AcDbLine
 10
614.3069107426453
 20
880.5119457167799
 30
0.0
 11
614.3069107426453
 21
870.5119457167798
 31
0.0
  0
LINE
  5
1F4E
330
1F
100
AcDbEntity
  8
0
370
    50
100
AcDbLine
 10
439.3069107426452
 20
882.5119457167799
 30
0.0
 11
439.3069107426452
 21
886.0119457167799
 31
0.0
  0
LINE
  5
1F4F
330
1F
100
AcDbEntity
  8
0
370
    50
100
AcDbLine
 10
439.3069107426454
 20
1047.011945716779
 30
0.0
 11
439.3069107426454
 21
1050.511945716779
 31
0.0
  0
LINE
  5
1F50
330
1F
100
AcDbEntity
  8
0
370
    50
100
AcDbLine
 10
629.3069107426453
 20
1050.511945716779
 30
0.0
 11
629.3069107426453
 21
1047.011945716779
 31
0.0
  0
LINE
  5
1F51
330
1F
100
AcDbEntity
  8
0
370
    50
100
AcDbLine
 10
629.3069107426453
 20
886.0119457167797
 30
0.0
 11
629.3069107426453
 21
882.5119457167799
 31
0.0
  0
LINE
  5
1F52
330
1F
100
AcDbEntity
  8
0
370
    50
100
AcDbLine
 10
627.3069107426453
 20
884.0119457167798
 30
0.0
 11
627.3069107426453
 21
882.5119457167799
 31
0.0
  0
LINE
  5
1F53
330
1F
100
AcDbEntity
  8
0
370
    50
100
AcDbLine
 10
617.3069107426453
 20
1044.029894909211
 30
0.0
 11
617.3069107426453
 21
1047.493996524348
 31
0.0
  0
LINE
  5
1F54
330
1F
100
AcDbEntity
  8
0
370
    50
100
AcDbLine
 10
617.3069107426453
 20
1049.01194571678
 30
0.0
 11
617.3069107426453
 21
1050.511945716779
 31
0.0
  0
LINE
  5
1F55
330
1F
100
AcDbEntity
  8
0
370
    50
100
AcDbLine
 10
451.3069107426453
 20
1050.511945716779
 30
0.0
 11
451.3069107426453
 21
1049.01194571678
 31
0.0
  0
LINE
  5
1F56
330
1F
100
AcDbEntity
  8
0
370
    50
100
AcDbLine
 10
441.3069107426453
 20
882.5119457167799
 30
0.0
 11
441.3069107426453
 21
884.0119457167801
 31
0.0
  0
LINE
  5
1F57
330
1F
100
AcDbEntity
  8
0
370
    50
100
AcDbLine
 10
480.5569107426453
 20
1049.01194571678
 30
0.0
 11
494.5569107426453
 21
1049.01194571678
 31
0.0
  0
LINE
  5
1F58
330
1F
100
AcDbEntity
  8
0
370
    50
100
AcDbLine
 10
496.5569107426453
 20
1047.011945716779
 30
0.0
 11
496.5569107426453
 21
886.0119457167799
 31
0.0
  0
LINE
  5
1F59
330
1F
100
AcDbEntity
  8
0
370
    50
100
AcDbLine
 10
494.5569107426453
 20
884.0119457167801
 30
0.0
 11
480.5569107426453
 21
884.0119457167801
 31
0.0
  0
LINE
  5
1F5A
330
1F
100
AcDbEntity
  8
0
370
    50
100
AcDbLine
 10
478.5569107426453
 20
886.0119457167799
 30
0.0
 11
478.5569107426453
 21
1047.011945716779
 31
0.0
  0
LINE
  5
1F5B
330
1F
100
AcDbEntity
  8
0
370
    50
100
AcDbLine
 10
488.5569107426453
 20
892.1119457167799
 30
0.0
 11
488.5569107426453
 21
1045.51194571678
 31
0.0
  0
LINE
  5
1F5C
330
1F
100
AcDbEntity
  8
0
370
    50
100
AcDbLine
 10
488.5569107426453
 20
1045.51194571678
 30
0.0
 11
495.5569107426454
 21
1045.51194571678
 31
0.0
  0
LINE
  5
1F5D
330
1F
100
AcDbEntity
  8
0
370
    50
100
AcDbLine
 10
495.5569107426454
 20
1045.51194571678
 30
0.0
 11
495.5569107426454
 21
892.1119457167799
 31
0.0
  0
LINE
  5
1F5E
330
1F
100
AcDbEntity
  8
0
370
    50
100
AcDbLine
 10
495.5569107426454
 20
892.1119457167799
 30
0.0
 11
488.5569107426453
 21
892.1119457167799
 31
0.0
  0
LINE
  5
1F5F
330
1F
100
AcDbEntity
  8
0
370
    50
100
AcDbLine
 10
487.5569107426453
 20
1041.211945716779
 30
0.0
 11
487.5569107426453
 21
887.8119457167796
 31
0.0
  0
LINE
  5
1F60
330
1F
100
AcDbEntity
  8
0
370
    50
100
AcDbLine
 10
487.5569107426453
 20
887.8119457167796
 30
0.0
 11
480.5569107426453
 21
887.8119457167796
 31
0.0
  0
LINE
  5
1F61
330
1F
100
AcDbEntity
  8
0
370
    50
100
AcDbLine
 10
480.5569107426453
 20
887.8119457167796
 30
0.0
 11
480.5569107426453
 21
1041.211945716779
 31
0.0
  0
LINE
  5
1F62
330
1F
100
AcDbEntity
  8
0
370
    50
100
AcDbLine
 10
480.5569107426453
 20
1041.211945716779
 30
0.0
 11
487.5569107426453
 21
1041.211945716779
 31
0.0
  0
LINE
  5
1F63
330
1F
100
AcDbEntity
  8
0
370
    50
100
AcDbLine
 10
484.0569107426453
 20
892.9119457167798
 30
0.0
 11
484.0569107426453
 21
889.9119457167799
 31
0.0
  0
LINE
  5
1F64
330
1F
100
AcDbEntity
  8
0
370
    50
100
AcDbLine
 10
483.0569107426454
 20
892.9119457167798
 30
0.0
 11
484.0569107426453
 21
892.9119457167798
 31
0.0
  0
LINE
  5
1F65
330
1F
100
AcDbEntity
  8
0
370
    50
100
AcDbLine
 10
483.0569107426454
 20
889.9119457167799
 30
0.0
 11
483.0569107426454
 21
892.91194571678
 31
0.0
  0
LINE
  5
1F66
330
1F
100
AcDbEntity
  8
0
370
    50
100
AcDbLine
 10
484.0569107426453
 20
889.9119457167799
 30
0.0
 11
483.0569107426454
 21
889.9119457167799
 31
0.0
  0
LINE
  5
1F67
330
1F
100
AcDbEntity
  8
0
370
    50
100
AcDbLine
 10
484.0569107426453
 20
1039.111945716779
 30
0.0
 11
484.0569107426453
 21
1036.11194571678
 31
0.0
  0
LINE
  5
1F68
330
1F
100
AcDbEntity
  8
0
370
    50
100
AcDbLine
 10
483.0569107426454
 20
1039.111945716779
 30
0.0
 11
484.0569107426453
 21
1039.111945716779
 31
0.0
  0
LINE
  5
1F69
330
1F
100
AcDbEntity
  8
0
370
    50
100
AcDbLine
 10
483.0569107426454
 20
1036.11194571678
 30
0.0
 11
483.0569107426454
 21
1039.111945716779
 31
0.0
  0
LINE
  5
1F6A
330
1F
100
AcDbEntity
  8
0
370
    50
100
AcDbLine
 10
484.0569107426453
 20
1036.11194571678
 30
0.0
 11
483.0569107426454
 21
1036.11194571678
 31
0.0
  0
LINE
  5
1F6B
330
1F
100
AcDbEntity
  8
0
370
    50
100
AcDbLine
 10
484.0569107426453
 20
944.5119457167798
 30
0.0
 11
484.0569107426453
 21
941.5119457167799
 31
0.0
  0
LINE
  5
1F6C
330
1F
100
AcDbEntity
  8
0
370
    50
100
AcDbLine
 10
483.0569107426454
 20
944.5119457167798
 30
0.0
 11
484.0569107426453
 21
944.5119457167798
 31
0.0
  0
LINE
  5
1F6D
330
1F
100
AcDbEntity
  8
0
370
    50
100
AcDbLine
 10
483.0569107426454
 20
941.5119457167799
 30
0.0
 11
483.0569107426454
 21
944.5119457167798
 31
0.0
  0
LINE
  5
1F6E
330
1F
100
AcDbEntity
  8
0
370
    50
100
AcDbLine
 10
484.0569107426453
 20
941.5119457167799
 30
0.0
 11
483.0569107426454
 21
941.5119457167799
 31
0.0
  0
LINE
  5
1F6F
330
1F
100
AcDbEntity
  8
0
370
    50
100
AcDbLine
 10
484.0569107426453
 20
935.9119457167798
 30
0.0
 11
484.0569107426453
 21
932.9119457167799
 31
0.0
  0
LINE
  5
1F70
330
1F
100
AcDbEntity
  8
0
370
    50
100
AcDbLine
 10
483.0569107426454
 20
935.9119457167798
 30
0.0
 11
484.0569107426453
 21
935.9119457167798
 31
0.0
  0
LINE
  5
1F71
330
1F
100
AcDbEntity
  8
0
370
    50
100
AcDbLine
 10
483.0569107426454
 20
932.91194571678
 30
0.0
 11
483.0569107426454
 21
935.9119457167802
 31
0.0
  0
LINE
  5
1F72
330
1F
100
AcDbEntity
  8
0
370
    50
100
AcDbLine
 10
484.0569107426453
 20
932.9119457167799
 30
0.0
 11
483.0569107426454
 21
932.9119457167799
 31
0.0
  0
LINE
  5
1F73
330
1F
100
AcDbEntity
  8
0
370
    50
100
AcDbLine
 10
484.0569107426453
 20
961.7119457167799
 30
0.0
 11
484.0569107426453
 21
958.71194571678
 31
0.0
  0
LINE
  5
1F74
330
1F
100
AcDbEntity
  8
0
370
    50
100
AcDbLine
 10
483.0569107426454
 20
961.7119457167799
 30
0.0
 11
484.0569107426453
 21
961.7119457167799
 31
0.0
  0
LINE
  5
1F75
330
1F
100
AcDbEntity
  8
0
370
    50
100
AcDbLine
 10
483.0569107426454
 20
958.71194571678
 30
0.0
 11
483.0569107426454
 21
961.7119457167799
 31
0.0
  0
LINE
  5
1F76
330
1F
100
AcDbEntity
  8
0
370
    50
100
AcDbLine
 10
484.0569107426453
 20
958.71194571678
 30
0.0
 11
483.0569107426454
 21
958.71194571678
 31
0.0
  0
LINE
  5
1F77
330
1F
100
AcDbEntity
  8
0
370
    50
100
AcDbLine
 10
484.0569107426453
 20
953.1119457167799
 30
0.0
 11
484.0569107426453
 21
950.1119457167799
 31
0.0
  0
LINE
  5
1F78
330
1F
100
AcDbEntity
  8
0
370
    50
100
AcDbLine
 10
483.0569107426454
 20
953.1119457167799
 30
0.0
 11
484.0569107426453
 21
953.1119457167799
 31
0.0
  0
LINE
  5
1F79
330
1F
100
AcDbEntity
  8
0
370
    50
100
AcDbLine
 10
483.0569107426454
 20
950.1119457167799
 30
0.0
 11
483.0569107426454
 21
953.1119457167799
 31
0.0
  0
LINE
  5
1F7A
330
1F
100
AcDbEntity
  8
0
370
    50
100
AcDbLine
 10
484.0569107426453
 20
950.1119457167799
 30
0.0
 11
483.0569107426454
 21
950.1119457167799
 31
0.0
  0
LINE
  5
1F7B
330
1F
100
AcDbEntity
  8
0
370
    50
100
AcDbLine
 10
484.0569107426453
 20
910.1119457167799
 30
0.0
 11
484.0569107426453
 21
907.1119457167799
 31
0.0
  0
LINE
  5
1F7C
330
1F
100
AcDbEntity
  8
0
370
    50
100
AcDbLine
 10
483.0569107426454
 20
910.1119457167799
 30
0.0
 11
484.0569107426453
 21
910.1119457167799
 31
0.0
  0
LINE
  5
1F7D
330
1F
100
AcDbEntity
  8
0
370
    50
100
AcDbLine
 10
483.0569107426454
 20
907.1119457167799
 30
0.0
 11
483.0569107426454
 21
910.1119457167799
 31
0.0
  0
LINE
  5
1F7E
330
1F
100
AcDbEntity
  8
0
370
    50
100
AcDbLine
 10
484.0569107426453
 20
907.1119457167799
 30
0.0
 11
483.0569107426454
 21
907.1119457167799
 31
0.0
  0
LINE
  5
1F7F
330
1F
100
AcDbEntity
  8
0
370
    50
100
AcDbLine
 10
484.0569107426453
 20
901.5119457167799
 30
0.0
 11
484.0569107426453
 21
898.5119457167799
 31
0.0
  0
LINE
  5
1F80
330
1F
100
AcDbEntity
  8
0
370
    50
100
AcDbLine
 10
483.0569107426454
 20
901.5119457167799
 30
0.0
 11
484.0569107426453
 21
901.5119457167799
 31
0.0
  0
LINE
  5
1F81
330
1F
100
AcDbEntity
  8
0
370
    50
100
AcDbLine
 10
483.0569107426454
 20
898.5119457167799
 30
0.0
 11
483.0569107426454
 21
901.5119457167799
 31
0.0
  0
LINE
  5
1F82
330
1F
100
AcDbEntity
  8
0
370
    50
100
AcDbLine
 10
484.0569107426453
 20
898.5119457167799
 30
0.0
 11
483.0569107426454
 21
898.5119457167799
 31
0.0
  0
LINE
  5
1F83
330
1F
100
AcDbEntity
  8
0
370
    50
100
AcDbLine
 10
484.0569107426453
 20
927.3119457167799
 30
0.0
 11
484.0569107426453
 21
924.31194571678
 31
0.0
  0
LINE
  5
1F84
330
1F
100
AcDbEntity
  8
0
370
    50
100
AcDbLine
 10
483.0569107426454
 20
927.3119457167799
 30
0.0
 11
484.0569107426453
 21
927.3119457167799
 31
0.0
  0
LINE
  5
1F85
330
1F
100
AcDbEntity
  8
0
370
    50
100
AcDbLine
 10
483.0569107426454
 20
924.31194571678
 30
0.0
 11
483.0569107426454
 21
927.3119457167799
 31
0.0
  0
LINE
  5
1F86
330
1F
100
AcDbEntity
  8
0
370
    50
100
AcDbLine
 10
484.0569107426453
 20
924.31194571678
 30
0.0
 11
483.0569107426454
 21
924.31194571678
 31
0.0
  0
LINE
  5
1F87
330
1F
100
AcDbEntity
  8
0
370
    50
100
AcDbLine
 10
484.0569107426453
 20
918.7119457167799
 30
0.0
 11
484.0569107426453
 21
915.71194571678
 31
0.0
  0
LINE
  5
1F88
330
1F
100
AcDbEntity
  8
0
370
    50
100
AcDbLine
 10
483.0569107426454
 20
918.7119457167799
 30
0.0
 11
484.0569107426453
 21
918.7119457167799
 31
0.0
  0
LINE
  5
1F89
330
1F
100
AcDbEntity
  8
0
370
    50
100
AcDbLine
 10
483.0569107426454
 20
915.71194571678
 30
0.0
 11
483.0569107426454
 21
918.7119457167799
 31
0.0
  0
LINE
  5
1F8A
330
1F
100
AcDbEntity
  8
0
370
    50
100
AcDbLine
 10
484.0569107426453
 20
915.71194571678
 30
0.0
 11
483.0569107426454
 21
915.71194571678
 31
0.0
  0
LINE
  5
1F8B
330
1F
100
AcDbEntity
  8
0
370
    50
100
AcDbLine
 10
484.0569107426453
 20
1013.31194571678
 30
0.0
 11
484.0569107426453
 21
1010.31194571678
 31
0.0
  0
LINE
  5
1F8C
330
1F
100
AcDbEntity
  8
0
370
    50
100
AcDbLine
 10
483.0569107426454
 20
1013.31194571678
 30
0.0
 11
484.0569107426453
 21
1013.31194571678
 31
0.0
  0
LINE
  5
1F8D
330
1F
100
AcDbEntity
  8
0
370
    50
100
AcDbLine
 10
483.0569107426454
 20
1010.31194571678
 30
0.0
 11
483.0569107426454
 21
1013.31194571678
 31
0.0
  0
LINE
  5
1F8E
330
1F
100
AcDbEntity
  8
0
370
    50
100
AcDbLine
 10
484.0569107426453
 20
1010.31194571678
 30
0.0
 11
483.0569107426454
 21
1010.31194571678
 31
0.0
  0
LINE
  5
1F8F
330
1F
100
AcDbEntity
  8
0
370
    50
100
AcDbLine
 10
484.0569107426453
 20
1004.71194571678
 30
0.0
 11
484.0569107426453
 21
1001.71194571678
 31
0.0
  0
LINE
  5
1F90
330
1F
100
AcDbEntity
  8
0
370
    50
100
AcDbLine
 10
483.0569107426454
 20
1004.71194571678
 30
0.0
 11
484.0569107426453
 21
1004.71194571678
 31
0.0
  0
LINE
  5
1F91
330
1F
100
AcDbEntity
  8
0
370
    50
100
AcDbLine
 10
483.0569107426454
 20
1001.71194571678
 30
0.0
 11
483.0569107426454
 21
1004.71194571678
 31
0.0
  0
LINE
  5
1F92
330
1F
100
AcDbEntity
  8
0
370
    50
100
AcDbLine
 10
484.0569107426453
 20
1001.71194571678
 30
0.0
 11
483.0569107426454
 21
1001.71194571678
 31
0.0
  0
LINE
  5
1F93
330
1F
100
AcDbEntity
  8
0
370
    50
100
AcDbLine
 10
484.0569107426453
 20
1030.51194571678
 30
0.0
 11
484.0569107426453
 21
1027.51194571678
 31
0.0
  0
LINE
  5
1F94
330
1F
100
AcDbEntity
  8
0
370
    50
100
AcDbLine
 10
483.0569107426454
 20
1030.51194571678
 30
0.0
 11
484.0569107426453
 21
1030.51194571678
 31
0.0
  0
LINE
  5
1F95
330
1F
100
AcDbEntity
  8
0
370
    50
100
AcDbLine
 10
483.0569107426454
 20
1027.51194571678
 30
0.0
 11
483.0569107426454
 21
1030.51194571678
 31
0.0
  0
LINE
  5
1F96
330
1F
100
AcDbEntity
  8
0
370
    50
100
AcDbLine
 10
484.0569107426453
 20
1027.51194571678
 30
0.0
 11
483.0569107426454
 21
1027.51194571678
 31
0.0
  0
LINE
  5
1F97
330
1F
100
AcDbEntity
  8
0
370
    50
100
AcDbLine
 10
484.0569107426453
 20
1021.91194571678
 30
0.0
 11
484.0569107426453
 21
1018.91194571678
 31
0.0
  0
LINE
  5
1F98
330
1F
100
AcDbEntity
  8
0
370
    50
100
AcDbLine
 10
483.0569107426454
 20
1021.91194571678
 30
0.0
 11
484.0569107426453
 21
1021.91194571678
 31
0.0
  0
LINE
  5
1F99
330
1F
100
AcDbEntity
  8
0
370
    50
100
AcDbLine
 10
483.0569107426454
 20
1018.91194571678
 30
0.0
 11
483.0569107426454
 21
1021.91194571678
 31
0.0
  0
LINE
  5
1F9A
330
1F
100
AcDbEntity
  8
0
370
    50
100
AcDbLine
 10
484.0569107426453
 20
1018.91194571678
 30
0.0
 11
483.0569107426454
 21
1018.91194571678
 31
0.0
  0
LINE
  5
1F9B
330
1F
100
AcDbEntity
  8
0
370
    50
100
AcDbLine
 10
484.0569107426453
 20
978.9119457167798
 30
0.0
 11
484.0569107426453
 21
975.9119457167797
 31
0.0
  0
LINE
  5
1F9C
330
1F
100
AcDbEntity
  8
0
370
    50
100
AcDbLine
 10
483.0569107426454
 20
978.9119457167798
 30
0.0
 11
484.0569107426453
 21
978.9119457167798
 31
0.0
  0
LINE
  5
1F9D
330
1F
100
AcDbEntity
  8
0
370
    50
100
AcDbLine
 10
483.0569107426454
 20
975.91194571678
 30
0.0
 11
483.0569107426454
 21
978.9119457167798
 31
0.0
  0
LINE
  5
1F9E
330
1F
100
AcDbEntity
  8
0
370
    50
100
AcDbLine
 10
484.0569107426453
 20
975.9119457167797
 30
0.0
 11
483.0569107426454
 21
975.9119457167797
 31
0.0
  0
LINE
  5
1F9F
330
1F
100
AcDbEntity
  8
0
370
    50
100
AcDbLine
 10
484.0569107426453
 20
970.3119457167799
 30
0.0
 11
484.0569107426453
 21
967.31194571678
 31
0.0
  0
LINE
  5
1FA0
330
1F
100
AcDbEntity
  8
0
370
    50
100
AcDbLine
 10
483.0569107426454
 20
970.3119457167799
 30
0.0
 11
484.0569107426453
 21
970.3119457167799
 31
0.0
  0
LINE
  5
1FA1
330
1F
100
AcDbEntity
  8
0
370
    50
100
AcDbLine
 10
483.0569107426454
 20
967.31194571678
 30
0.0
 11
483.0569107426454
 21
970.3119457167799
 31
0.0
  0
LINE
  5
1FA2
330
1F
100
AcDbEntity
  8
0
370
    50
100
AcDbLine
 10
484.0569107426453
 20
967.31194571678
 30
0.0
 11
483.0569107426454
 21
967.31194571678
 31
0.0
  0
LINE
  5
1FA3
330
1F
100
AcDbEntity
  8
0
370
    50
100
AcDbLine
 10
484.0569107426453
 20
996.1119457167798
 30
0.0
 11
484.0569107426453
 21
993.1119457167795
 31
0.0
  0
LINE
  5
1FA4
330
1F
100
AcDbEntity
  8
0
370
    50
100
AcDbLine
 10
483.0569107426454
 20
996.1119457167798
 30
0.0
 11
484.0569107426453
 21
996.1119457167798
 31
0.0
  0
LINE
  5
1FA5
330
1F
100
AcDbEntity
  8
0
370
    50
100
AcDbLine
 10
483.0569107426454
 20
993.1119457167795
 30
0.0
 11
483.0569107426454
 21
996.1119457167798
 31
0.0
  0
LINE
  5
1FA6
330
1F
100
AcDbEntity
  8
0
370
    50
100
AcDbLine
 10
484.0569107426453
 20
993.1119457167795
 30
0.0
 11
483.0569107426454
 21
993.1119457167795
 31
0.0
  0
LINE
  5
1FA7
330
1F
100
AcDbEntity
  8
0
370
    50
100
AcDbLine
 10
484.0569107426453
 20
987.5119457167798
 30
0.0
 11
484.0569107426453
 21
984.5119457167799
 31
0.0
  0
LINE
  5
1FA8
330
1F
100
AcDbEntity
  8
0
370
    50
100
AcDbLine
 10
483.0569107426454
 20
987.5119457167798
 30
0.0
 11
484.0569107426453
 21
987.5119457167798
 31
0.0
  0
LINE
  5
1FA9
330
1F
100
AcDbEntity
  8
0
370
    50
100
AcDbLine
 10
483.0569107426454
 20
984.5119457167799
 30
0.0
 11
483.0569107426454
 21
987.5119457167798
 31
0.0
  0
LINE
  5
1FAA
330
1F
100
AcDbEntity
  8
0
370
    50
100
AcDbLine
 10
484.0569107426453
 20
984.5119457167799
 30
0.0
 11
483.0569107426454
 21
984.5119457167799
 31
0.0
  0
LINE
  5
1FAB
330
1F
100
AcDbEntity
  8
0
370
    50
100
AcDbLine
 10
492.5569107426453
 20
897.2119457167799
 30
0.0
 11
492.5569107426453
 21
894.21194571678
 31
0.0
  0
LINE
  5
1FAC
330
1F
100
AcDbEntity
  8
0
370
    50
100
AcDbLine
 10
491.5569107426454
 20
897.2119457167799
 30
0.0
 11
492.5569107426453
 21
897.2119457167799
 31
0.0
  0
LINE
  5
1FAD
330
1F
100
AcDbEntity
  8
0
370
    50
100
AcDbLine
 10
491.5569107426454
 20
894.21194571678
 30
0.0
 11
491.5569107426454
 21
897.2119457167799
 31
0.0
  0
LINE
  5
1FAE
330
1F
100
AcDbEntity
  8
0
370
    50
100
AcDbLine
 10
492.5569107426453
 20
894.21194571678
 30
0.0
 11
491.5569107426454
 21
894.21194571678
 31
0.0
  0
LINE
  5
1FAF
330
1F
100
AcDbEntity
  8
0
370
    50
100
AcDbLine
 10
492.5569107426453
 20
1043.41194571678
 30
0.0
 11
492.5569107426453
 21
1040.41194571678
 31
0.0
  0
LINE
  5
1FB0
330
1F
100
AcDbEntity
  8
0
370
    50
100
AcDbLine
 10
491.5569107426454
 20
1043.41194571678
 30
0.0
 11
492.5569107426453
 21
1043.41194571678
 31
0.0
  0
LINE
  5
1FB1
330
1F
100
AcDbEntity
  8
0
370
    50
100
AcDbLine
 10
491.5569107426454
 20
1040.41194571678
 30
0.0
 11
491.5569107426454
 21
1043.41194571678
 31
0.0
  0
LINE
  5
1FB2
330
1F
100
AcDbEntity
  8
0
370
    50
100
AcDbLine
 10
492.5569107426453
 20
1040.41194571678
 30
0.0
 11
491.5569107426454
 21
1040.41194571678
 31
0.0
  0
LINE
  5
1FB3
330
1F
100
AcDbEntity
  8
0
370
    50
100
AcDbLine
 10
492.5569107426453
 20
948.8119457167799
 30
0.0
 11
492.5569107426453
 21
945.81194571678
 31
0.0
  0
LINE
  5
1FB4
330
1F
100
AcDbEntity
  8
0
370
    50
100
AcDbLine
 10
491.5569107426454
 20
948.8119457167799
 30
0.0
 11
492.5569107426453
 21
948.8119457167799
 31
0.0
  0
LINE
  5
1FB5
330
1F
100
AcDbEntity
  8
0
370
    50
100
AcDbLine
 10
491.5569107426454
 20
945.81194571678
 30
0.0
 11
491.5569107426454
 21
948.8119457167799
 31
0.0
  0
LINE
  5
1FB6
330
1F
100
AcDbEntity
  8
0
370
    50
100
AcDbLine
 10
492.5569107426453
 20
945.81194571678
 30
0.0
 11
491.5569107426454
 21
945.81194571678
 31
0.0
  0
LINE
  5
1FB7
330
1F
100
AcDbEntity
  8
0
370
    50
100
AcDbLine
 10
492.5569107426453
 20
940.2119457167799
 30
0.0
 11
492.5569107426453
 21
937.21194571678
 31
0.0
  0
LINE
  5
1FB8
330
1F
100
AcDbEntity
  8
0
370
    50
100
AcDbLine
 10
491.5569107426454
 20
940.2119457167799
 30
0.0
 11
492.5569107426453
 21
940.2119457167799
 31
0.0
  0
LINE
  5
1FB9
330
1F
100
AcDbEntity
  8
0
370
    50
100
AcDbLine
 10
491.5569107426454
 20
937.21194571678
 30
0.0
 11
491.5569107426454
 21
940.2119457167799
 31
0.0
  0
LINE
  5
1FBA
330
1F
100
AcDbEntity
  8
0
370
    50
100
AcDbLine
 10
492.5569107426453
 20
937.21194571678
 30
0.0
 11
491.5569107426454
 21
937.21194571678
 31
0.0
  0
LINE
  5
1FBB
330
1F
100
AcDbEntity
  8
0
370
    50
100
AcDbLine
 10
492.5569107426453
 20
966.0119457167798
 30
0.0
 11
492.5569107426453
 21
963.0119457167799
 31
0.0
  0
LINE
  5
1FBC
330
1F
100
AcDbEntity
  8
0
370
    50
100
AcDbLine
 10
491.5569107426454
 20
966.0119457167798
 30
0.0
 11
492.5569107426453
 21
966.0119457167798
 31
0.0
  0
LINE
  5
1FBD
330
1F
100
AcDbEntity
  8
0
370
    50
100
AcDbLine
 10
491.5569107426454
 20
963.0119457167799
 30
0.0
 11
491.5569107426454
 21
966.0119457167798
 31
0.0
  0
LINE
  5
1FBE
330
1F
100
AcDbEntity
  8
0
370
    50
100
AcDbLine
 10
492.5569107426453
 20
963.0119457167799
 30
0.0
 11
491.5569107426454
 21
963.0119457167799
 31
0.0
  0
LINE
  5
1FBF
330
1F
100
AcDbEntity
  8
0
370
    50
100
AcDbLine
 10
492.5569107426453
 20
957.4119457167798
 30
0.0
 11
492.5569107426453
 21
954.4119457167797
 31
0.0
  0
LINE
  5
1FC0
330
1F
100
AcDbEntity
  8
0
370
    50
100
AcDbLine
 10
491.5569107426454
 20
957.4119457167798
 30
0.0
 11
492.5569107426453
 21
957.4119457167798
 31
0.0
  0
LINE
  5
1FC1
330
1F
100
AcDbEntity
  8
0
370
    50
100
AcDbLine
 10
491.5569107426454
 20
954.4119457167797
 30
0.0
 11
491.5569107426454
 21
957.4119457167798
 31
0.0
  0
LINE
  5
1FC2
330
1F
100
AcDbEntity
  8
0
370
    50
100
AcDbLine
 10
492.5569107426453
 20
954.4119457167797
 30
0.0
 11
491.5569107426454
 21
954.4119457167797
 31
0.0
  0
LINE
  5
1FC3
330
1F
100
AcDbEntity
  8
0
370
    50
100
AcDbLine
 10
380.516104154073
 20
870.5119457167798
 30
0.0
 11
407.5161041540728
 21
870.5119457167798
 31
0.0
  0
LINE
  5
1FC4
330
1F
100
AcDbEntity
  8
0
370
    50
100
AcDbLine
 10
410.5161041540728
 20
873.5119457167799
 30
0.0
 11
410.5161041540728
 21
906.5119457167799
 31
0.0
  0
ARC
  5
1FC5
330
1F
100
AcDbEntity
  8
0
370
    50
100
AcDbCircle
 10
407.5161041540728
 20
873.5119457167799
 30
0.0
 40
3.0
100
AcDbArc
 50
270.0
 51
0.0
  0
ARC
  5
1FC6
330
1F
100
AcDbEntity
  8
0
370
    50
100
AcDbCircle
 10
407.5161041540728
 20
906.5119457167799
 30
0.0
 40
3.0
100
AcDbArc
 50
0.0
 51
90.0
  0
LINE
  5
1FC7
330
1F
100
AcDbEntity
  8
0
370
    50
100
AcDbLine
 10
407.5161041540728
 20
909.51194571678
 30
0.0
 11
380.516104154073
 21
909.51194571678
 31
0.0
  0
LINE
  5
1FC8
330
1F
100
AcDbEntity
  8
0
370
    50
100
AcDbLine
 10
380.516104154073
 20
870.5119457167798
 30
0.0
 11
391.5161041540731
 21
870.5119457167798
 31
0.0
  0
LINE
  5
1FC9
330
1F
100
AcDbEntity
  8
0
370
    50
100
AcDbLine
 10
391.5161041540731
 20
870.5119457167798
 30
0.0
 11
391.5161041540731
 21
909.51194571678
 31
0.0
  0
LINE
  5
1FCA
330
1F
100
AcDbEntity
  8
0
370
    50
100
AcDbLine
 10
493.5569107426453
 20
870.5119457167798
 30
0.0
 11
500.0569107426453
 21
870.5119457167798
 31
0.0
  0
LINE
  5
1FCB
330
1F
100
AcDbEntity
  8
0
370
    50
100
AcDbLine
 10
500.0569107426453
 20
870.5119457167798
 30
0.0
 11
500.0569107426453
 21
909.51194571678
 31
0.0
  0
LINE
  5
1FCC
330
1F
100
AcDbEntity
  8
0
370
    50
100
AcDbLine
 10
500.0569107426453
 20
909.51194571678
 30
0.0
 11
593.0569107426452
 21
909.51194571678
 31
0.0
  0
LINE
  5
1FCD
330
1F
100
AcDbEntity
  8
0
370
    50
100
AcDbLine
 10
593.0569107426452
 20
909.51194571678
 30
0.0
 11
593.0569107426452
 21
870.5119457167798
 31
0.0
  0
LINE
  5
1FCE
330
1F
100
AcDbEntity
  8
0
370
    50
100
AcDbLine
 10
593.0569107426452
 20
870.5119457167798
 30
0.0
 11
582.0569107426453
 21
870.5119457167798
 31
0.0
  0
LINE
  5
1FCF
330
1F
100
AcDbEntity
  8
0
370
    50
100
AcDbLine
 10
582.0569107426453
 20
870.5119457167798
 30
0.0
 11
582.0569107426453
 21
909.51194571678
 31
0.0
  0
LINE
  5
1FD0
330
1F
100
AcDbEntity
  8
0
370
    50
100
AcDbLine
 10
582.0569107426453
 20
909.51194571678
 30
0.0
 11
511.0569107426453
 21
909.51194571678
 31
0.0
  0
LINE
  5
1FD1
330
1F
100
AcDbEntity
  8
0
370
    50
100
AcDbLine
 10
511.0569107426453
 20
909.51194571678
 30
0.0
 11
511.0569107426453
 21
870.5119457167798
 31
0.0
  0
CIRCLE
  5
1FD2
330
1F
100
AcDbEntity
  8
0
370
    50
100
AcDbCircle
 10
505.0569107426453
 20
890.0119457167802
 30
0.0
 40
3.0
  0
CIRCLE
  5
1FD3
330
1F
100
AcDbEntity
  8
0
370
    50
100
AcDbCircle
 10
588.0569107426453
 20
890.0119457167802
 30
0.0
 40
3.0
  0
LINE
  5
1FD4
330
1F
100
AcDbEntity
  8
0
370
    50
100
AcDbLine
 10
505.0569107426453
 20
890.0119457167802
 30
0.0
 11
505.0569107426453
 21
890.0119457167802
 31
0.0
  0
LINE
  5
1FD5
330
1F
100
AcDbEntity
  8
0
370
    50
100
AcDbLine
 10
505.0569107426453
 20
890.0119457167802
 30
0.0
 11
508.0582339568492
 21
890.0119457167802
 31
0.0
  0
LINE
  5
1FD6
330
1F
100
AcDbEntity
  8
0
370
    50
100
AcDbLine
 10
508.0582339568492
 20
890.0119457167802
 30
0.0
 11
502.0663793892381
 21
890.0119457167802
 31
0.0
  0
LINE
  5
1FD7
330
1F
100
AcDbEntity
  8
0
370
    50
100
AcDbLine
 10
505.0569107426453
 20
890.0119457167802
 30
0.0
 11
505.0569107426453
 21
887.0147158878424
 31
0.0
  0
LINE
  5
1FD8
330
1F
100
AcDbEntity
  8
0
370
    50
100
AcDbLine
 10
505.0569107426453
 20
887.0147158878424
 30
0.0
 11
505.0569107426453
 21
892.9921998847529
 31
0.0
  0
LINE
  5
1FD9
330
1F
100
AcDbEntity
  8
0
370
    50
100
AcDbLine
 10
588.0569107426453
 20
890.0119457167802
 30
0.0
 11
588.0569107426453
 21
887.008016818361
 31
0.0
  0
LINE
  5
1FDA
330
1F
100
AcDbEntity
  8
0
370
    50
100
AcDbLine
 10
588.0569107426453
 20
887.008016818361
 30
0.0
 11
588.0569107426453
 21
893.0054038874159
 31
0.0
  0
LINE
  5
1FDB
330
1F
100
AcDbEntity
  8
0
370
    50
100
AcDbLine
 10
588.0569107426453
 20
890.0119457167802
 30
0.0
 11
591.0562642299963
 21
890.0119457167802
 31
0.0
  0
LINE
  5
1FDC
330
1F
100
AcDbEntity
  8
0
370
    50
100
AcDbLine
 10
591.0562642299963
 20
890.0119457167802
 30
0.0
 11
585.0652182039775
 21
890.0119457167802
 31
0.0
  0
DIMENSION
  5
1FDD
330
1F
100
AcDbEntity
  8
0
370
    50
100
AcDbDimension
  2
*D30
 10
410.5161041540728
 20
1185.414695440594
 30
0.0
 11
351.5161041540731
 21
1195.164695440594
 31
0.0
 70
    32
 71
     5
 42
117.9999999999997
  3
ISO-25
100
AcDbAlignedDimension
 13
292.5161041540732
 23
1126.51194571678
 33
0.0
 14
410.5161041540728
 24
911.5119457167802
 34
0.0
100
AcDbRotatedDimension
1001
ACAD
1000
DSTYLE
1002
{
1070
    40
1040
3.0
1070
   147
1040
1.5
1070
   140
1040
3.5
1070
   343
1005
F7
1070
   173
1070
     1
1070
   344
1005
F7
1002
}
  0
DIMENSION
  5
1FDE
102
{ACAD_XDICTIONARY
360
1FDF
102
}
102
{ACAD_REACTORS
330
1FE0
102
}
330
1F
100
AcDbEntity
  8
0
100
AcDbDimension
  2
*D40
 10
478.5569107426453
 20
841.9458936797067
 30
0.0
 11
544.5569107426453
 21
850.1958936797063
 31
0.0
 70
    32
 71
     5
 42
132.0
  3
ISO-25
100
AcDbAlignedDimension
 13
610.5569107426453
 23
880.5119457167799
 33
0.0
 14
478.5569107426453
 24
880.5119457167799
 34
0.0
100
AcDbRotatedDimension
1001
ACAD
1000
DSTYLE
1002
{
1070
    40
1040
3.0
1070
   147
1040
1.0
1070
   140
1040
3.5
1070
    41
1040
3.5
1070
   343
1005
F7
1070
   173
1070
     1
1070
   344
1005
F7
1002
}
  0
VIEWPORT
  5
1834
102
{ACAD_XDICTIONARY
360
1835
102
}
330
182D
100
AcDbEntity
 67
     1
  8
0
100
AcDbViewport
 10
175.1985982975889
 20
101.1467445136302
 30
0.0
 40
281.9309088184509
 41
201.6539066484913
 68
     1
 69
     1
 12
175.1985982975889
 22
101.1467445136302
 13
0.0
 23
0.0
 14
10.0
 24
10.0
 15
10.0
 25
10.0
 16
0.0
 26
0.0
 36
1.0
 17
0.0
 27
0.0
 37
0.0
 42
50.0
 43
0.0
 44
0.0
 45
201.6539066484913
 50
0.0
 51
0.0
 72
  1000
 90
    32800
  1

281
     0
 71
     0
 74
     0
110
0.0
120
0.0
130
0.0
111
1.0
121
0.0
131
0.0
112
0.0
122
1.0
132
0.0
 79
     0
146
0.0
  0
VIEWPORT
  5
1838
102
{ACAD_XDICTIONARY
360
1839
102
}
330
182D
100
AcDbEntity
 67
     1
  8
0
100
AcDbViewport
 10
145.3303314447403
 20
101.8116623163223
 30
0.0
 40
232.5285303115845
 41
162.8986597061157
 68
     2
 69
     2
 12
455.3782907843475
 22
1050.794394095429
 13
0.0
 23
0.0
 14
10.0
 24
10.0
 15
10.0
 25
10.0
 16
0.0
 26
0.0
 36
1.0
 17
0.0
 27
0.0
 37
0.0
 42
50.0
 43
0.0
 44
0.0
 45
594.0599579044459
 50
0.0
 51
0.0
 72
  1000
 90
    32864
  1

281
     0
 71
     1
 74
     0
110
0.0
120
0.0
130
0.0
111
1.0
121
0.0
131
0.0
112
0.0
122
1.0
132
0.0
 79
     0
146
0.0
1001
GENIUS_GENSCREG_15
1000
PF
1040
0.0
1000
DF
1040
0.0
1000
MIN
1011
29.06606628894804
1021
20.36233246326444
1031
0.0
1000
MAX
1011
261.5945966005325
1021
183.2609921693801
1031
0.0
1000
FLAGS
1070
     4
1001
GENIUS_GENOBJ-N-SDF_13
1002
{
1000
OWNER
1000
GEN
1002
}
1001
GENIUS_GENODEF_13
1002
{
1000
HIER
1070
     0
1002
}
1002
{
1000
MANEDIT
1070
     0
1002
}
1002
{
1000
NOSEL
1070
     0
1002
}
1002
{
1000
BEHIND
1070
     0
1002
}
1002
{
1000
OTHER
1070
     0
1002
}
1002
{
1000
REACTOR
1002
}
  0
ENDSEC
  0
SECTION
  2
OBJECTS
  0
DICTIONARY
  5
C
330
0
100
AcDbDictionary
281
     1
  3
ACAD_2007HEADERVARS_RT
350
1874
  3
ACAD_COLOR
350
6B
  3
ACAD_GROUP
350
D
  3
ACAD_LAYOUT
350
1A
  3
ACAD_MATERIAL
350
6A
  3
ACAD_MLEADERSTYLE
350
1783
  3
ACAD_MLINESTYLE
350
17
  3
ACAD_PLOTSETTINGS
350
19
  3
ACAD_PLOTSTYLENAME
350
E
  3
ACAD_SCALELIST
350
1761
  3
ACAD_TABLESTYLE
350
7E
  3
ACAD_VISUALSTYLE
350
1750
  3
ACDB_RECOMPOSE_DATA
350
1805
  3
ACDBHEADERROUNDTRIPXREC
350
2365
  3
AcDbVariableDictionary
350
5E
  3
AcmDictionary
350
22FC
  3
AMG
350
223B
  3
AMGSNAPSETTINGS
350
234F
  3
DWGPROPS
350
2364
  3
MAPISURF_MODULE
350
22C8
  0
DICTIONARY
  5
1808
330
8
100
AcDbDictionary
280
     1
281
     1
  0
DICTIONARY
  5
1C1
330
2
100
AcDbDictionary
280
     1
281
     1
  3
ACAD_LAYERSTATES
360
1C2
  0
DICTIONARY
  5
178C
330
10
100
AcDbDictionary
280
     1
281
     1
  3
ADSK_XREC_LAYER_RECONCILED
360
178D
  0
DICTIONARY
  5
1B0
330
1AF
100
AcDbDictionary
280
     1
281
     1
  3
ADSK_XREC_LAYER_RECONCILED
360
1B2
  0
DICTIONARY
  5
15E9
330
1F
100
AcDbDictionary
280
     1
281
     1
  3
ACAD_INDEX
360
235E
  3
ACAD_SORTENTS
360
15EA
  0
DICTIONARY
  5
1FDF
330
1FDE
100
AcDbDictionary
280
     1
281
     1
  3
ACAD_DIMASSOC
360
1FE0
  0
DICTIONARY
  5
1835
330
1834
100
AcDbDictionary
280
     1
281
     1
  3
ACAD_XREC_ROUNDTRIP
360
2369
  3
ASDK_XREC_ANNOTATION_SCALE_INFO
360
1836
  0
DICTIONARY
  5
1839
330
1838
100
AcDbDictionary
280
     1
281
     1
  3
ACAD_XREC_ROUNDTRIP
360
236A
  3
ASDK_XREC_ANNOTATION_SCALE_INFO
360
183A
  0
DICTIONARY
  5
1874
102
{ACAD_REACTORS
330
C
102
}
330
C
100
AcDbDictionary
281
     1
  3
DIMARCSYM
350
1875
  0
DICTIONARY
  5
6B
102
{ACAD_REACTORS
330
C
102
}
330
C
100
AcDbDictionary
281
     1
  0
DICTIONARY
  5
D
102
{ACAD_REACTORS
330
C
102
}
330
C
100
AcDbDictionary
281
     1
  3
*A1
350
A85
  3
*A2
350
A86
  0
DICTIONARY
  5
1A
102
{ACAD_REACTORS
330
C
102
}
330
C
100
AcDbDictionary
281
     1
  3
Model
350
22
  3
レイアウト1
350
182E
  0
DICTIONARY
  5
6A
102
{ACAD_REACTORS
330
C
102
}
330
C
100
AcDbDictionary
281
     1
  3
ByBlock
350
1748
  3
ByLayer
350
1740
  3
Global
350
1BE
  0
DICTIONARY
  5
1783
102
{ACAD_REACTORS
330
C
102
}
330
C
100
AcDbDictionary
281
     1
  3
Standard
350
1784
  0
DICTIONARY
  5
17
102
{ACAD_REACTORS
330
C
102
}
330
C
100
AcDbDictionary
281
     1
  3
Standard
350
18
  0
DICTIONARY
  5
19
102
{ACAD_REACTORS
330
C
102
}
330
C
100
AcDbDictionary
281
     1
  0
ACDBDICTIONARYWDFLT
  5
E
102
{ACAD_REACTORS
330
C
102
}
330
C
100
AcDbDictionary
281
     1
  3
Normal
350
F
100
AcDbDictionaryWithDefault
340
F
  0
DICTIONARY
  5
1761
102
{ACAD_REACTORS
330
C
102
}
330
C
100
AcDbDictionary
281
     1
  3
A0
350
1762
  3
A1
350
1763
  3
A2
350
1764
  3
A3
350
1765
  3
A4
350
1766
  3
A5
350
1767
  3
A6
350
1768
  3
A7
350
1769
  3
A8
350
176A
  3
A9
350
176B
  3
B0
350
176C
  3
B1
350
176D
  3
B2
350
176E
  3
B3
350
176F
  3
B4
350
1770
  3
B5
350
1771
  3
B6
350
1772
  3
B7
350
1773
  3
B8
350
1774
  3
B9
350
1775
  3
C0
350
1776
  3
C1
350
1777
  3
C2
350
1778
  3
C3
350
1779
  3
C4
350
177A
  3
C5
350
177B
  3
C6
350
177C
  3
C7
350
177D
  3
C8
350
177E
  3
C9
350
177F
  3
D0
350
1780
  3
D1
350
1781
  3
D2
350
1782
  0
DICTIONARY
  5
7E
102
{ACAD_REACTORS
330
C
102
}
330
C
100
AcDbDictionary
281
     1
  3
Standard
350
7F
  0
DICTIONARY
  5
1750
102
{ACAD_REACTORS
330
C
102
}
330
C
100
AcDbDictionary
281
     1
  3
2dWireframe
350
1756
  3
3D Hidden
350
1758
  3
3dWireframe
350
1757
  3
Basic
350
1755
  3
Brighten
350
175C
  3
ColorChange
350
1760
  3
Conceptual
350
1759
  3
Dim
350
175B
  3
Facepattern
350
175F
  3
Flat
350
1751
  3
FlatWithEdges
350
1752
  3
Gouraud
350
1753
  3
GouraudWithEdges
350
1754
  3
Linepattern
350
175E
  3
Realistic
350
175A
  3
Thicken
350
175D
  0
XRECORD
  5
1805
102
{ACAD_REACTORS
330
C
102
}
330
C
100
AcDbXrecord
280
     1
 90
        1
330
7F
  0
DICTIONARY
  5
2365
102
{ACAD_REACTORS
330
C
102
}
330
C
100
AcDbDictionary
281
     1
  0
DICTIONARY
  5
5E
102
{ACAD_REACTORS
330
C
102
}
330
C
100
AcDbDictionary
281
     1
  3
CANNOSCALE
350
181E
  3
CMLEADERSTYLE
350
181D
  3
CTABLESTYLE
350
84
  3
DIMASSOC
350
5F
  3
HIDETEXT
350
63
  3
INDEXCTL
350
1871
  3
PROJECTNAME
350
1917
  3
SORTENTS
350
1870
  0
DICTIONARY
  5
22FC
102
{ACAD_REACTORS
330
C
102
}
330
C
100
AcDbDictionary
281
     1
  3
AcmStdDictionary
350
2308
  3
AMDTSECTSYM_ARROWCOLOR
350
2327
  0
DICTIONARY
  5
223B
102
{ACAD_REACTORS
330
C
102
}
330
C
100
AcDbDictionary
281
     1
  3
AcMgSettings
350
223C
  0
DICTIONARY
  5
234F
102
{ACAD_REACTORS
330
C
102
}
330
C
100
AcDbDictionary
281
     1
  3
DIMENSION
350
2354
  3
FEA
350
2353
  3
HATCH (1)
350
2350
  3
HATCH (2)
350
2351
  3
SIMPLE WELD
350
2355
  3
SYMBOLS
350
2352
  0
XRECORD
  5
2364
102
{ACAD_REACTORS
330
C
102
}
330
C
100
AcDbXrecord
280
     1
  1
DWGPROPS COOKIE
  2

  3

  4

  6

  7

  8
A070040
  9

300
AmdtFileType=84
301
=
302
=
303
=
304
=
305
=
306
=
307
=
308
=
309
=
 40
0.0901830555555556
 41
2454354.690738924
 42
2455610.579609039
  1

 90
        1
  0
DICTIONARY
  5
1C2
102
{ACAD_REACTORS
330
1C1
102
}
330
1C1
100
AcDbDictionary
281
     1
  0
XRECORD
  5
178D
102
{ACAD_REACTORS
330
178C
102
}
330
178C
100
AcDbXrecord
280
     1
290
     1
  0
XRECORD
  5
1B2
102
{ACAD_REACTORS
330
1B0
102
}
330
1B0
100
AcDbXrecord
280
     1
290
     1
  0
DICTIONARY
  5
235E
102
{ACAD_REACTORS
330
15E9
102
}
330
15E9
100
AcDbDictionary
281
     1
  3
*A1
350
235F
  0
SORTENTSTABLE
  5
15EA
102
{ACAD_REACTORS
330
15E9
102
}
330
15E9
100
AcDbSortentsTable
330
1F
  0
DIMASSOC
  5
1FE0
102
{ACAD_REACTORS
330
1FDF
102
}
330
1FDF
100
AcDbDimAssoc
330
1FDE
 90
        3
 70
     0
 71
     0
  1
AcDbOsnapPointRef
 72
     1
331
1F20
 73
     2
 91
        0
 40
1.0
 10
0.0
 20
0.0
 30
2.000000000000000E+50
 75
     0
  1
AcDbOsnapPointRef
 72
     1
331
1F28
 73
     2
 91
        0
 40
1.0
 10
0.0
 20
0.0
 30
2.000000000000000E+50
 75
     0
  0
XRECORD
  5
2369
102
{ACAD_REACTORS
330
1835
102
}
330
1835
100
AcDbXrecord
280
     1
102
SHADEPLOT
 70
     0
  0
XRECORD
  5
1836
102
{ACAD_REACTORS
330
1835
102
}
330
1835
100
AcDbXrecord
280
     1
 90
        1
340
1762
  0
XRECORD
  5
236A
102
{ACAD_REACTORS
330
1839
102
}
330
1839
100
AcDbXrecord
280
     1
102
SHADEPLOT
 70
     0
  0
XRECORD
  5
183A
102
{ACAD_REACTORS
330
1839
102
}
330
1839
100
AcDbXrecord
280
     1
 90
        1
340
1762
  0
XRECORD
  5
1875
102
{ACAD_REACTORS
330
1874
102
}
330
1874
100
AcDbXrecord
280
     1
 70
     1
  0
GROUP
  5
A85
102
{ACAD_REACTORS
330
D
102
}
330
D
100
AcDbGroup
300

 70
     1
 71
     1
  0
GROUP
  5
A86
102
{ACAD_REACTORS
330
D
102
}
330
D
100
AcDbGroup
300

 70
     1
 71
     1
  0
LAYOUT
  5
22
102
{ACAD_XDICTIONARY
360
2366
102
}
102
{ACAD_REACTORS
330
1A
102
}
330
1A
100
AcDbPlotSettings
  1

  2
Adobe PDF
  4
A4
  6

 40
3.174999952316284
 41
3.174999952316284
 42
3.175003051757812
 43
3.17498779296875
 44
209.9733276367187
 45
297.0318298339844
 46
0.0
 47
2.998751917953853
 48
0.0
 49
0.0
140
0.0
141
0.0
142
1.0
143
2.539804460970128
 70
 11956
 72
     1
 73
     1
 74
     0
  7
KIHON1.ctb
 75
     0
147
0.3937310983452758
148
-98.01940203412938
149
-789.5745147408461
100
AcDbLayout
  1
Model
 70
     1
 71
     0
 10
0.0
 20
0.0
 11
12.0
 21
9.0
 12
0.0
 22
0.0
 32
0.0
 14
0.0
 24
0.0
 34
0.0
 15
0.0
 25
0.0
 35
0.0
146
0.0
 13
0.0
 23
0.0
 33
0.0
 16
1.0
 26
0.0
 36
0.0
 17
0.0
 27
1.0
 37
0.0
 76
     0
330
1F
331
173E
1001
ACAD_PSEXT
1000
Adobe PDF
1000
Adobe PDF Converter
1000
My Documents
1000

1070
     0
  0
LAYOUT
  5
182E
102
{ACAD_XDICTIONARY
360
1842
102
}
102
{ACAD_REACTORS
330
1A
102
}
330
1A
100
AcDbPlotSettings
  1

  2
Microsoft Office Document Image Writer
  4
A4
  6

 40
3.174999952316281
 41
3.174999952316281
 42
3.175003051757812
 43
3.17498779296875
 44
209.9733276367186
 45
297.0106506347656
 46
0.0
 47
0.0
 48
0.0
 49
0.0
140
0.0
141
0.0
142
1.0
143
1.0
 70
   688
 72
     1
 73
     1
 74
     5
  7
KIHON1.ctb
 75
    16
147
1.0
148
0.0
149
0.0
100
AcDbLayout
  1
レイアウト1
 70
     1
 71
     1
 10
-3.17498779296875
 20
-3.174999952316281
 11
293.8356628417969
 21
206.7983276844024
 12
0.0
 22
0.0
 32
0.0
 14
29.06606628894806
 24
20.36233246326444
 34
0.0
 15
261.5945966005325
 25
183.2609921693801
 35
0.0
146
0.0
 13
0.0
 23
0.0
 33
0.0
 16
1.0
 26
0.0
 36
0.0
 17
0.0
 27
1.0
 37
0.0
 76
     0
330
182D
331
1834
1001
ACAD_PSEXT
1000
Microsoft Office Document Image Writer
1000
Microsoft Office Document Image Writer Driver
1000
Microsoft Document Imaging Writer Port:
1000

1070
     0
  0
MATERIAL
  5
1748
102
{ACAD_XDICTIONARY
360
1749
102
}
102
{ACAD_REACTORS
330
6A
102
}
330
6A
100
AcDbMaterial
  1
ByBlock
 72
     0
 43
0.0008202099737533
 43
0.0
 43
0.0
 43
0.0
 43
0.0
 43
0.0008202099737533
 43
0.0
 43
0.0
 43
0.0
 43
0.0
 43
1.0
 43
0.0
 43
0.0
 43
0.0
 43
0.0
 43
1.0
 77
     0
 47
0.0008202099737533
 47
0.0
 47
0.0
 47
0.0
 47
0.0
 47
0.0008202099737533
 47
0.0
 47
0.0
 47
0.0
 47
0.0
 47
1.0
 47
0.0
 47
0.0
 47
0.0
 47
0.0
 47
1.0
171
     0
 49
0.0008202099737533
 49
0.0
 49
0.0
 49
0.0
 49
0.0
 49
0.0008202099737533
 49
0.0
 49
0.0
 49
0.0
 49
0.0
 49
1.0
 49
0.0
 49
0.0
 49
0.0
 49
0.0
 49
1.0
175
     0
142
0.0008202099737533
142
0.0
142
0.0
142
0.0
142
0.0
142
0.0008202099737533
142
0.0
142
0.0
142
0.0
142
0.0
142
1.0
142
0.0
142
0.0
142
0.0
142
0.0
142
1.0
179
     0
144
0.0008202099737533
144
0.0
144
0.0
144
0.0
144
0.0
144
0.0008202099737533
144
0.0
144
0.0
144
0.0
144
0.0
144
1.0
144
0.0
144
0.0
144
0.0
144
0.0
144
1.0
147
0.0008202099737533
147
0.0
147
0.0
147
0.0
147
0.0
147
0.0008202099737533
147
0.0
147
0.0
147
0.0
147
0.0
147
1.0
147
0.0
147
0.0
147
0.0
147
0.0
147
1.0
  0
MATERIAL
  5
1740
102
{ACAD_XDICTIONARY
360
1741
102
}
102
{ACAD_REACTORS
330
6A
102
}
330
6A
100
AcDbMaterial
  1
ByLayer
 72
     0
 43
0.0008202099737533
 43
0.0
 43
0.0
 43
0.0
 43
0.0
 43
0.0008202099737533
 43
0.0
 43
0.0
 43
0.0
 43
0.0
 43
1.0
 43
0.0
 43
0.0
 43
0.0
 43
0.0
 43
1.0
 77
     0
 47
0.0008202099737533
 47
0.0
 47
0.0
 47
0.0
 47
0.0
 47
0.0008202099737533
 47
0.0
 47
0.0
 47
0.0
 47
0.0
 47
1.0
 47
0.0
 47
0.0
 47
0.0
 47
0.0
 47
1.0
171
     0
 49
0.0008202099737533
 49
0.0
 49
0.0
 49
0.0
 49
0.0
 49
0.0008202099737533
 49
0.0
 49
0.0
 49
0.0
 49
0.0
 49
1.0
 49
0.0
 49
0.0
 49
0.0
 49
0.0
 49
1.0
175
     0
142
0.0008202099737533
142
0.0
142
0.0
142
0.0
142
0.0
142
0.0008202099737533
142
0.0
142
0.0
142
0.0
142
0.0
142
1.0
142
0.0
142
0.0
142
0.0
142
0.0
142
1.0
179
     0
144
0.0008202099737533
144
0.0
144
0.0
144
0.0
144
0.0
144
0.0008202099737533
144
0.0
144
0.0
144
0.0
144
0.0
144
1.0
144
0.0
144
0.0
144
0.0
144
0.0
144
1.0
147
0.0008202099737533
147
0.0
147
0.0
147
0.0
147
0.0
147
0.0008202099737533
147
0.0
147
0.0
147
0.0
147
0.0
147
1.0
147
0.0
147
0.0
147
0.0
147
0.0
147
1.0
  0
MATERIAL
  5
1BE
102
{ACAD_XDICTIONARY
360
1879
102
}
102
{ACAD_REACTORS
330
6A
102
}
330
6A
100
AcDbMaterial
  1
Global
 71
     1
 72
     0
 44
1.0
 76
     1
 77
     0
140
0.0
175
     0
145
1.5
1001
ACAD
1070
    -1
1070
     3
1070
     0
1000
Glass - Clear
1071
        0
  0
MLEADERSTYLE
  5
1784
102
{ACAD_REACTORS
330
1783
102
}
330
1783
100
AcDbMLeaderStyle
170
     2
171
     1
172
     0
 90
        2
 40
0.0
 41
0.0
173
     1
 91
-1056964608
340
14
 92
       -2
290
     1
 42
2.0
291
     1
 43
0.36
  3
Standard
 44
4.0
300

342
11
174
     1
178
     6
175
     1
176
     0
 93
-1056964608
 45
4.0
292
     0
297
     0
 46
4.0
 94
-1056964608
 47
1.0
 49
1.0
140
1.0
293
     1
141
0.0
294
     1
177
     0
142
1.0
295
     0
296
     0
143
0.125
1001
ACAD_MLEADERVER
1070
     2
1001
ACAD
1001
ACAD
1001
ACAD
1001
ACAD
1001
ACAD
1001
ACAD
1000
AcRTDxfName
1000
MLEADERSTYLE
  0
MLINESTYLE
  5
18
102
{ACAD_REACTORS
330
17
102
}
330
17
100
AcDbMlineStyle
  2
STANDARD
 70
     0
  3

 62
   256
 51
90.0
 52
90.0
 71
     2
 49
0.5
 62
   256
  6
BYLAYER
 49
-0.5
 62
   256
  6
BYLAYER
  0
ACDBPLACEHOLDER
  5
F
102
{ACAD_REACTORS
330
E
102
}
330
E
  0
SCALE
  5
1762
102
{ACAD_REACTORS
330
1761
102
}
330
1761
100
AcDbScale
 70
     0
300
1:1
140
1.0
141
1.0
290
     1
1001
ACAD
1001
ACAD
1001
ACAD
1001
ACAD
1001
ACAD
1001
ACAD
1000
AcRTDxfName
1000
SCALE
  0
SCALE
  5
1763
102
{ACAD_REACTORS
330
1761
102
}
330
1761
100
AcDbScale
 70
     0
300
1:2
140
1.0
141
2.0
290
     0
1001
ACAD
1001
ACAD
1001
ACAD
1001
ACAD
1001
ACAD
1001
ACAD
1000
AcRTDxfName
1000
SCALE
  0
SCALE
  5
1764
102
{ACAD_REACTORS
330
1761
102
}
330
1761
100
AcDbScale
 70
     0
300
1:4
140
1.0
141
4.0
290
     0
1001
ACAD
1001
ACAD
1001
ACAD
1001
ACAD
1001
ACAD
1001
ACAD
1000
AcRTDxfName
1000
SCALE
  0
SCALE
  5
1765
102
{ACAD_REACTORS
330
1761
102
}
330
1761
100
AcDbScale
 70
     0
300
1:5
140
1.0
141
5.0
290
     0
1001
ACAD
1001
ACAD
1001
ACAD
1001
ACAD
1001
ACAD
1001
ACAD
1000
AcRTDxfName
1000
SCALE
  0
SCALE
  5
1766
102
{ACAD_REACTORS
330
1761
102
}
330
1761
100
AcDbScale
 70
     0
300
1:8
140
1.0
141
8.0
290
     0
1001
ACAD
1001
ACAD
1001
ACAD
1001
ACAD
1001
ACAD
1001
ACAD
1000
AcRTDxfName
1000
SCALE
  0
SCALE
  5
1767
102
{ACAD_REACTORS
330
1761
102
}
330
1761
100
AcDbScale
 70
     0
300
1:10
140
1.0
141
10.0
290
     0
1001
ACAD
1001
ACAD
1001
ACAD
1001
ACAD
1001
ACAD
1001
ACAD
1000
AcRTDxfName
1000
SCALE
  0
SCALE
  5
1768
102
{ACAD_REACTORS
330
1761
102
}
330
1761
100
AcDbScale
 70
     0
300
1:16
140
1.0
141
16.0
290
     0
1001
ACAD
1001
ACAD
1001
ACAD
1001
ACAD
1001
ACAD
1001
ACAD
1000
AcRTDxfName
1000
SCALE
  0
SCALE
  5
1769
102
{ACAD_REACTORS
330
1761
102
}
330
1761
100
AcDbScale
 70
     0
300
1:20
140
1.0
141
20.0
290
     0
1001
ACAD
1001
ACAD
1001
ACAD
1001
ACAD
1001
ACAD
1001
ACAD
1000
AcRTDxfName
1000
SCALE
  0
SCALE
  5
176A
102
{ACAD_REACTORS
330
1761
102
}
330
1761
100
AcDbScale
 70
     0
300
1:30
140
1.0
141
30.0
290
     0
1001
ACAD
1001
ACAD
1001
ACAD
1001
ACAD
1001
ACAD
1001
ACAD
1000
AcRTDxfName
1000
SCALE
  0
SCALE
  5
176B
102
{ACAD_REACTORS
330
1761
102
}
330
1761
100
AcDbScale
 70
     0
300
1:40
140
1.0
141
40.0
290
     0
1001
ACAD
1001
ACAD
1001
ACAD
1001
ACAD
1001
ACAD
1001
ACAD
1000
AcRTDxfName
1000
SCALE
  0
SCALE
  5
176C
102
{ACAD_REACTORS
330
1761
102
}
330
1761
100
AcDbScale
 70
     0
300
1:50
140
1.0
141
50.0
290
     0
1001
ACAD
1001
ACAD
1001
ACAD
1001
ACAD
1001
ACAD
1001
ACAD
1000
AcRTDxfName
1000
SCALE
  0
SCALE
  5
176D
102
{ACAD_REACTORS
330
1761
102
}
330
1761
100
AcDbScale
 70
     0
300
1:100
140
1.0
141
100.0
290
     0
1001
ACAD
1001
ACAD
1001
ACAD
1001
ACAD
1001
ACAD
1001
ACAD
1000
AcRTDxfName
1000
SCALE
  0
SCALE
  5
176E
102
{ACAD_REACTORS
330
1761
102
}
330
1761
100
AcDbScale
 70
     0
300
2:1
140
2.0
141
1.0
290
     0
1001
ACAD
1001
ACAD
1001
ACAD
1001
ACAD
1001
ACAD
1001
ACAD
1000
AcRTDxfName
1000
SCALE
  0
SCALE
  5
176F
102
{ACAD_REACTORS
330
1761
102
}
330
1761
100
AcDbScale
 70
     0
300
4:1
140
4.0
141
1.0
290
     0
1001
ACAD
1001
ACAD
1001
ACAD
1001
ACAD
1001
ACAD
1001
ACAD
1000
AcRTDxfName
1000
SCALE
  0
SCALE
  5
1770
102
{ACAD_REACTORS
330
1761
102
}
330
1761
100
AcDbScale
 70
     0
300
8:1
140
8.0
141
1.0
290
     0
1001
ACAD
1001
ACAD
1001
ACAD
1001
ACAD
1001
ACAD
1001
ACAD
1000
AcRTDxfName
1000
SCALE
  0
SCALE
  5
1771
102
{ACAD_REACTORS
330
1761
102
}
330
1761
100
AcDbScale
 70
     0
300
10:1
140
10.0
141
1.0
290
     0
1001
ACAD
1001
ACAD
1001
ACAD
1001
ACAD
1001
ACAD
1001
ACAD
1000
AcRTDxfName
1000
SCALE
  0
SCALE
  5
1772
102
{ACAD_REACTORS
330
1761
102
}
330
1761
100
AcDbScale
 70
     0
300
100:1
140
100.0
141
1.0
290
     0
1001
ACAD
1001
ACAD
1001
ACAD
1001
ACAD
1001
ACAD
1001
ACAD
1000
AcRTDxfName
1000
SCALE
  0
SCALE
  5
1773
102
{ACAD_REACTORS
330
1761
102
}
330
1761
100
AcDbScale
 70
     0
300
1/128" = 1'-0"
140
0.0078125
141
12.0
290
     0
1001
ACAD
1001
ACAD
1001
ACAD
1001
ACAD
1001
ACAD
1001
ACAD
1000
AcRTDxfName
1000
SCALE
  0
SCALE
  5
1774
102
{ACAD_REACTORS
330
1761
102
}
330
1761
100
AcDbScale
 70
     0
300
1/64" = 1'-0"
140
0.015625
141
12.0
290
     0
1001
ACAD
1001
ACAD
1001
ACAD
1001
ACAD
1001
ACAD
1001
ACAD
1000
AcRTDxfName
1000
SCALE
  0
SCALE
  5
1775
102
{ACAD_REACTORS
330
1761
102
}
330
1761
100
AcDbScale
 70
     0
300
1/32" = 1'-0"
140
0.03125
141
12.0
290
     0
1001
ACAD
1001
ACAD
1001
ACAD
1001
ACAD
1001
ACAD
1001
ACAD
1000
AcRTDxfName
1000
SCALE
  0
SCALE
  5
1776
102
{ACAD_REACTORS
330
1761
102
}
330
1761
100
AcDbScale
 70
     0
300
1/16" = 1'-0"
140
0.0625
141
12.0
290
     0
1001
ACAD
1001
ACAD
1001
ACAD
1001
ACAD
1001
ACAD
1001
ACAD
1000
AcRTDxfName
1000
SCALE
  0
SCALE
  5
1777
102
{ACAD_REACTORS
330
1761
102
}
330
1761
100
AcDbScale
 70
     0
300
3/32" = 1'-0"
140
0.09375
141
12.0
290
     0
1001
ACAD
1001
ACAD
1001
ACAD
1001
ACAD
1001
ACAD
1001
ACAD
1000
AcRTDxfName
1000
SCALE
  0
SCALE
  5
1778
102
{ACAD_REACTORS
330
1761
102
}
330
1761
100
AcDbScale
 70
     0
300
1/8" = 1'-0"
140
0.125
141
12.0
290
     0
1001
ACAD
1001
ACAD
1001
ACAD
1001
ACAD
1001
ACAD
1001
ACAD
1000
AcRTDxfName
1000
SCALE
  0
SCALE
  5
1779
102
{ACAD_REACTORS
330
1761
102
}
330
1761
100
AcDbScale
 70
     0
300
3/16" = 1'-0"
140
0.1875
141
12.0
290
     0
1001
ACAD
1001
ACAD
1001
ACAD
1001
ACAD
1001
ACAD
1001
ACAD
1000
AcRTDxfName
1000
SCALE
  0
SCALE
  5
177A
102
{ACAD_REACTORS
330
1761
102
}
330
1761
100
AcDbScale
 70
     0
300
1/4" = 1'-0"
140
0.25
141
12.0
290
     0
1001
ACAD
1001
ACAD
1001
ACAD
1001
ACAD
1001
ACAD
1001
ACAD
1000
AcRTDxfName
1000
SCALE
  0
SCALE
  5
177B
102
{ACAD_REACTORS
330
1761
102
}
330
1761
100
AcDbScale
 70
     0
300
3/8" = 1'-0"
140
0.375
141
12.0
290
     0
1001
ACAD
1001
ACAD
1001
ACAD
1001
ACAD
1001
ACAD
1001
ACAD
1000
AcRTDxfName
1000
SCALE
  0
SCALE
  5
177C
102
{ACAD_REACTORS
330
1761
102
}
330
1761
100
AcDbScale
 70
     0
300
1/2" = 1'-0"
140
0.5
141
12.0
290
     0
1001
ACAD
1001
ACAD
1001
ACAD
1001
ACAD
1001
ACAD
1001
ACAD
1000
AcRTDxfName
1000
SCALE
  0
SCALE
  5
177D
102
{ACAD_REACTORS
330
1761
102
}
330
1761
100
AcDbScale
 70
     0
300
3/4" = 1'-0"
140
0.75
141
12.0
290
     0
1001
ACAD
1001
ACAD
1001
ACAD
1001
ACAD
1001
ACAD
1001
ACAD
1000
AcRTDxfName
1000
SCALE
  0
SCALE
  5
177E
102
{ACAD_REACTORS
330
1761
102
}
330
1761
100
AcDbScale
 70
     0
300
1" = 1'-0"
140
1.0
141
12.0
290
     0
1001
ACAD
1001
ACAD
1001
ACAD
1001
ACAD
1001
ACAD
1001
ACAD
1000
AcRTDxfName
1000
SCALE
  0
SCALE
  5
177F
102
{ACAD_REACTORS
330
1761
102
}
330
1761
100
AcDbScale
 70
     0
300
1-1/2" = 1'-0"
140
1.5
141
12.0
290
     0
1001
ACAD
1001
ACAD
1001
ACAD
1001
ACAD
1001
ACAD
1001
ACAD
1000
AcRTDxfName
1000
SCALE
  0
SCALE
  5
1780
102
{ACAD_REACTORS
330
1761
102
}
330
1761
100
AcDbScale
 70
     0
300
3" = 1'-0"
140
3.0
141
12.0
290
     0
1001
ACAD
1001
ACAD
1001
ACAD
1001
ACAD
1001
ACAD
1001
ACAD
1000
AcRTDxfName
1000
SCALE
  0
SCALE
  5
1781
102
{ACAD_REACTORS
330
1761
102
}
330
1761
100
AcDbScale
 70
     0
300
6" = 1'-0"
140
6.0
141
12.0
290
     0
1001
ACAD
1001
ACAD
1001
ACAD
1001
ACAD
1001
ACAD
1001
ACAD
1000
AcRTDxfName
1000
SCALE
  0
SCALE
  5
1782
102
{ACAD_REACTORS
330
1761
102
}
330
1761
100
AcDbScale
 70
     0
300
1'-0" = 1'-0"
140
12.0
141
12.0
290
     0
1001
ACAD
1001
ACAD
1001
ACAD
1001
ACAD
1001
ACAD
1001
ACAD
1000
AcRTDxfName
1000
SCALE
  0
TABLESTYLE
  5
7F
102
{ACAD_XDICTIONARY
360
1803
102
}
102
{ACAD_REACTORS
330
7E
102
}
330
7E
100
AcDbTableStyle
  3
Standard
 70
     0
 71
     0
 40
1.5
 41
1.5
280
     0
281
     0
  7
Standard
140
4.5
170
     2
 62
     0
 63
     7
283
     0
274
    -2
284
     1
 64
     0
275
    -2
285
     1
 65
     0
276
    -2
286
     1
 66
     0
277
    -2
287
     1
 67
     0
278
    -2
288
     1
 68
     0
279
    -2
289
     1
 69
     0
  7
Standard
140
6.0
170
     5
 62
     0
 63
     7
283
     0
274
    -2
284
     1
 64
     0
275
    -2
285
     1
 65
     0
276
    -2
286
     1
 66
     0
277
    -2
287
     1
 67
     0
278
    -2
288
     1
 68
     0
279
    -2
289
     1
 69
     0
  7
Standard
140
4.5
170
     5
 62
     0
 63
     7
283
     0
274
    -2
284
     1
 64
     0
275
    -2
285
     1
 65
     0
276
    -2
286
     1
 66
     0
277
    -2
287
     1
 67
     0
278
    -2
288
     1
 68
     0
279
    -2
289
     1
 69
     0
  0
VISUALSTYLE
  5
1756
102
{ACAD_REACTORS
330
1750
102
}
330
1750
100
AcDbVisualStyle
  2
2dWireframe
 70
     4
 71
     0
 72
     2
 73
     0
 90
        0
 40
-0.6
 41
-30.0
 62
     5
 63
     7
 74
     1
 91
        4
 64
     7
 65
   257
 75
     1
175
     1
 42
1.0
 92
        0
 66
   257
 43
1.0
 76
     1
 77
     6
 78
     2
 67
     7
 79
     5
170
     0
171
     0
290
     0
174
     0
 93
        1
 44
0.0
173
     0
291
     0
 45
0.0
1001
ACAD
1000
AcDbSavedByObjectVersion
1070
     0
1001
ACAD
1001
ACAD
1001
ACAD
1001
ACAD
1001
ACAD
1001
ACAD
1000
AcRTDxfName
1000
VISUALSTYLE
  0
VISUALSTYLE
  5
1758
102
{ACAD_REACTORS
330
1750
102
}
330
1750
100
AcDbVisualStyle
  2
3D Hidden
 70
     6
 71
     1
 72
     2
 73
     2
 90
        0
 40
-0.6
 41
-30.0
 62
     5
 63
     7
 74
     2
 91
        2
 64
     7
 65
   257
 75
     2
175
     1
 42
40.0
 92
        0
 66
   257
 43
1.0
 76
     1
 77
     6
 78
     2
 67
     7
 79
     3
170
     0
171
     0
290
     0
174
     0
 93
        1
 44
0.0
173
     0
291
     0
 45
0.0
1001
ACAD
1000
AcDbSavedByObjectVersion
1070
     0
1001
ACAD
1001
ACAD
1001
ACAD
1001
ACAD
1001
ACAD
1001
ACAD
1000
AcRTDxfName
1000
VISUALSTYLE
  0
VISUALSTYLE
  5
1757
102
{ACAD_REACTORS
330
1750
102
}
330
1750
100
AcDbVisualStyle
  2
3dWireframe
 70
     5
 71
     0
 72
     2
 73
     0
 90
        0
 40
-0.6
 41
-30.0
 62
     5
 63
     7
 74
     1
 91
        4
 64
     7
 65
   257
 75
     1
175
     1
 42
1.0
 92
        0
 66
   257
 43
1.0
 76
     1
 77
     6
 78
     2
 67
     7
 79
     5
170
     0
171
     0
290
     0
174
     0
 93
        1
 44
0.0
173
     0
291
     0
 45
0.0
1001
ACAD
1000
AcDbSavedByObjectVersion
1070
     0
1001
ACAD
1001
ACAD
1001
ACAD
1001
ACAD
1001
ACAD
1001
ACAD
1000
AcRTDxfName
1000
VISUALSTYLE
  0
VISUALSTYLE
  5
1755
102
{ACAD_REACTORS
330
1750
102
}
330
1750
100
AcDbVisualStyle
  2
Basic
 70
     7
 71
     1
 72
     0
 73
     1
 90
        0
 40
-0.6
 41
-30.0
 62
     5
 63
     7
 74
     0
 91
        4
 64
     7
 65
   257
 75
     1
175
     1
 42
1.0
 92
        8
 66
     7
 43
1.0
 76
     1
 77
     6
 78
     2
 67
     7
 79
     5
170
     0
171
     0
290
     0
174
     0
 93
        1
 44
0.0
173
     0
291
     1
 45
0.0
1001
ACAD
1000
AcDbSavedByObjectVersion
1070
     0
1001
ACAD
1001
ACAD
1001
ACAD
1001
ACAD
1001
ACAD
1001
ACAD
1000
AcRTDxfName
1000
VISUALSTYLE
  0
VISUALSTYLE
  5
175C
102
{ACAD_REACTORS
330
1750
102
}
330
1750
100
AcDbVisualStyle
  2
Brighten
 70
    12
 71
     2
 72
     2
 73
     0
 90
        0
 40
-0.6
 41
-30.0
 62
     5
 63
     7
 74
     1
 91
        4
 64
     7
 65
   257
 75
     1
175
     1
 42
1.0
 92
        8
 66
     7
 43
1.0
 76
     1
 77
     6
 78
     2
 67
     7
 79
     5
170
     0
171
     0
290
     0
174
     0
 93
        1
 44
50.0
173
     0
291
     1
 45
0.0
1001
ACAD
1000
AcDbSavedByObjectVersion
1070
     0
1001
ACAD
1001
ACAD
1001
ACAD
1001
ACAD
1001
ACAD
1001
ACAD
1000
AcRTDxfName
1000
VISUALSTYLE
  0
VISUALSTYLE
  5
1760
102
{ACAD_REACTORS
330
1750
102
}
330
1750
100
AcDbVisualStyle
  2
ColorChange
 70
    16
 71
     2
 72
     2
 73
     3
 90
        0
 40
-0.6
 41
-30.0
 62
     5
 63
     8
 74
     1
 91
        4
 64
     7
 65
   257
 75
     1
175
     1
 42
1.0
 92
        8
 66
     8
 43
1.0
 76
     1
 77
     6
 78
     2
 67
     7
 79
     5
170
     0
171
     0
290
     0
174
     0
 93
        1
 44
0.0
173
     0
291
     1
 45
0.0
1001
ACAD
1000
AcDbSavedByObjectVersion
1070
     0
1001
ACAD
1001
ACAD
1001
ACAD
1001
ACAD
1001
ACAD
1001
ACAD
1000
AcRTDxfName
1000
VISUALSTYLE
  0
VISUALSTYLE
  5
1759
102
{ACAD_REACTORS
330
1750
102
}
330
1750
100
AcDbVisualStyle
  2
Conceptual
 70
     9
 71
     3
 72
     2
 73
     0
 90
        0
 40
-0.6
 41
-30.0
 62
     5
 63
     7
 74
     2
 91
        2
 64
     7
 65
   257
 75
     1
175
     1
 42
40.0
 92
        8
 66
     7
 43
1.0
 76
     1
 77
     6
 78
     2
 67
     7
 79
     3
170
     0
171
     0
290
     0
174
     0
 93
        1
 44
0.0
173
     0
291
     0
 45
0.0
1001
ACAD
1000
AcDbSavedByObjectVersion
1070
     0
1001
ACAD
1001
ACAD
1001
ACAD
1001
ACAD
1001
ACAD
1001
ACAD
1000
AcRTDxfName
1000
VISUALSTYLE
  0
VISUALSTYLE
  5
175B
102
{ACAD_REACTORS
330
1750
102
}
330
1750
100
AcDbVisualStyle
  2
Dim
 70
    11
 71
     2
 72
     2
 73
     0
 90
        0
 40
-0.6
 41
-30.0
 62
     5
 63
     7
 74
     1
 91
        4
 64
     7
 65
   257
 75
     1
175
     1
 42
1.0
 92
        8
 66
     7
 43
1.0
 76
     1
 77
     6
 78
     2
 67
     7
 79
     5
170
     0
171
     0
290
     0
174
     0
 93
        1
 44
-50.0
173
     0
291
     1
 45
0.0
1001
ACAD
1000
AcDbSavedByObjectVersion
1070
     0
1001
ACAD
1001
ACAD
1001
ACAD
1001
ACAD
1001
ACAD
1001
ACAD
1000
AcRTDxfName
1000
VISUALSTYLE
  0
VISUALSTYLE
  5
175F
102
{ACAD_REACTORS
330
1750
102
}
330
1750
100
AcDbVisualStyle
  2
Facepattern
 70
    15
 71
     2
 72
     2
 73
     0
 90
        0
 40
-0.6
 41
-30.0
 62
     5
 63
     7
 74
     1
 91
        4
 64
     7
 65
   257
 75
     1
175
     1
 42
1.0
 92
        8
 66
     7
 43
1.0
 76
     1
 77
     6
 78
     2
 67
     7
 79
     5
170
     0
171
     0
290
     0
174
     0
 93
        1
 44
0.0
173
     0
291
     1
 45
0.0
1001
ACAD
1000
AcDbSavedByObjectVersion
1070
     0
1001
ACAD
1001
ACAD
1001
ACAD
1001
ACAD
1001
ACAD
1001
ACAD
1000
AcRTDxfName
1000
VISUALSTYLE
  0
VISUALSTYLE
  5
1751
102
{ACAD_REACTORS
330
1750
102
}
330
1750
100
AcDbVisualStyle
  2
Flat
 70
     0
 71
     2
 72
     1
 73
     1
 90
        2
 40
-0.6
 41
30.0
 62
     5
 63
     7
 74
     0
 91
        4
 64
     7
 65
   257
 75
     1
175
     1
 42
1.0
 92
        8
 66
     7
 43
1.0
 76
     1
 77
     6
 78
     2
 67
     7
 79
     5
170
     0
171
     0
290
     0
174
     0
 93
       13
 44
0.0
173
     0
291
     1
 45
0.0
1001
ACAD
1000
AcDbSavedByObjectVersion
1070
     0
1001
ACAD
1001
ACAD
1001
ACAD
1001
ACAD
1001
ACAD
1001
ACAD
1000
AcRTDxfName
1000
VISUALSTYLE
  0
VISUALSTYLE
  5
1752
102
{ACAD_REACTORS
330
1750
102
}
330
1750
100
AcDbVisualStyle
  2
FlatWithEdges
 70
     1
 71
     2
 72
     1
 73
     1
 90
        2
 40
-0.6
 41
30.0
 62
     5
 63
     7
 74
     1
 91
        4
 64
     7
 65
   257
 75
     1
175
     1
 42
1.0
 92
        0
 66
   257
 43
1.0
 76
     1
 77
     6
 78
     2
 67
     7
 79
     5
170
     0
171
     0
290
     0
174
     0
 93
       13
 44
0.0
173
     0
291
     1
 45
0.0
1001
ACAD
1000
AcDbSavedByObjectVersion
1070
     0
1001
ACAD
1001
ACAD
1001
ACAD
1001
ACAD
1001
ACAD
1001
ACAD
1000
AcRTDxfName
1000
VISUALSTYLE
  0
VISUALSTYLE
  5
1753
102
{ACAD_REACTORS
330
1750
102
}
330
1750
100
AcDbVisualStyle
  2
Gouraud
 70
     2
 71
     2
 72
     2
 73
     1
 90
        2
 40
-0.6
 41
30.0
 62
     5
 63
     7
 74
     0
 91
        4
 64
     7
 65
   257
 75
     1
175
     1
 42
1.0
 92
        0
 66
     7
 43
1.0
 76
     1
 77
     6
 78
     2
 67
     7
 79
     5
170
     0
171
     0
290
     0
174
     0
 93
       13
 44
0.0
173
     0
291
     1
 45
0.0
1001
ACAD
1000
AcDbSavedByObjectVersion
1070
     0
1001
ACAD
1001
ACAD
1001
ACAD
1001
ACAD
1001
ACAD
1001
ACAD
1000
AcRTDxfName
1000
VISUALSTYLE
  0
VISUALSTYLE
  5
1754
102
{ACAD_REACTORS
330
1750
102
}
330
1750
100
AcDbVisualStyle
  2
GouraudWithEdges
 70
     3
 71
     2
 72
     2
 73
     1
 90
        2
 40
-0.6
 41
30.0
 62
     5
 63
     7
 74
     1
 91
        4
 64
     7
 65
   257
 75
     1
175
     1
 42
1.0
 92
        0
 66
   257
 43
1.0
 76
     1
 77
     6
 78
     2
 67
     7
 79
     5
170
     0
171
     0
290
     0
174
     0
 93
       13
 44
0.0
173
     0
291
     1
 45
0.0
1001
ACAD
1000
AcDbSavedByObjectVersion
1070
     0
1001
ACAD
1001
ACAD
1001
ACAD
1001
ACAD
1001
ACAD
1001
ACAD
1000
AcRTDxfName
1000
VISUALSTYLE
  0
VISUALSTYLE
  5
175E
102
{ACAD_REACTORS
330
1750
102
}
330
1750
100
AcDbVisualStyle
  2
Linepattern
 70
    14
 71
     2
 72
     2
 73
     0
 90
        0
 40
-0.6
 41
-30.0
 62
     5
 63
     7
 74
     1
 91
        4
 64
     7
 65
   257
 75
     7
175
     7
 42
1.0
 92
        8
 66
     7
 43
1.0
 76
     1
 77
     6
 78
     2
 67
     7
 79
     5
170
     0
171
     0
290
     0
174
     0
 93
        1
 44
0.0
173
     0
291
     1
 45
0.0
1001
ACAD
1000
AcDbSavedByObjectVersion
1070
     0
1001
ACAD
1001
ACAD
1001
ACAD
1001
ACAD
1001
ACAD
1001
ACAD
1000
AcRTDxfName
1000
VISUALSTYLE
  0
VISUALSTYLE
  5
175A
102
{ACAD_REACTORS
330
1750
102
}
330
1750
100
AcDbVisualStyle
  2
Realistic
 70
     8
 71
     2
 72
     2
 73
     0
 90
        0
 40
-0.6
 41
-30.0
 62
     5
 63
     7
 74
     1
 91
        0
 64
     7
 65
   257
 75
     1
175
     1
 42
1.0
 92
        8
 66
     8
 43
1.0
 76
     1
 77
     6
 78
     2
 67
     7
 79
     5
170
     0
171
     0
290
     0
174
     0
 93
       13
 44
0.0
173
     0
291
     0
 45
0.0
1001
ACAD
1000
AcDbSavedByObjectVersion
1070
     0
1001
ACAD
1001
ACAD
1001
ACAD
1001
ACAD
1001
ACAD
1001
ACAD
1000
AcRTDxfName
1000
VISUALSTYLE
  0
VISUALSTYLE
  5
175D
102
{ACAD_REACTORS
330
1750
102
}
330
1750
100
AcDbVisualStyle
  2
Thicken
 70
    13
 71
     2
 72
     2
 73
     0
 90
        0
 40
-0.6
 41
-30.0
 62
     5
 63
     7
 74
     1
 91
        4
 64
     7
 65
   257
 75
     1
175
     1
 42
1.0
 92
       12
 66
     7
 43
1.0
 76
     1
 77
     6
 78
     2
 67
     7
 79
     5
170
     0
171
     0
290
     0
174
     0
 93
        1
 44
0.0
173
     0
291
     1
 45
0.0
1001
ACAD
1000
AcDbSavedByObjectVersion
1070
     0
1001
ACAD
1001
ACAD
1001
ACAD
1001
ACAD
1001
ACAD
1001
ACAD
1000
AcRTDxfName
1000
VISUALSTYLE
  0
DICTIONARYVAR
  5
181E
102
{ACAD_REACTORS
330
5E
102
}
330
5E
100
DictionaryVariables
280
     0
  1
1:1
  0
DICTIONARYVAR
  5
181D
102
{ACAD_REACTORS
330
5E
102
}
330
5E
100
DictionaryVariables
280
     0
  1
STANDARD
  0
DICTIONARYVAR
  5
84
102
{ACAD_REACTORS
330
5E
102
}
330
5E
100
DictionaryVariables
280
     0
  1
STANDARD
  0
DICTIONARYVAR
  5
5F
102
{ACAD_REACTORS
330
5E
102
}
330
5E
100
DictionaryVariables
280
     0
  1
2
  0
DICTIONARYVAR
  5
63
102
{ACAD_REACTORS
330
5E
102
}
330
5E
100
DictionaryVariables
280
     0
  1
1
  0
DICTIONARYVAR
  5
1871
102
{ACAD_REACTORS
330
5E
102
}
330
5E
100
DictionaryVariables
280
     0
  1
1
  0
DICTIONARYVAR
  5
1917
102
{ACAD_REACTORS
330
5E
102
}
330
5E
100
DictionaryVariables
280
     0
  1

  0
DICTIONARYVAR
  5
1870
102
{ACAD_REACTORS
330
5E
102
}
330
5E
100
DictionaryVariables
280
     0
  1
127
  0
DICTIONARY
  5
2308
102
{ACAD_REACTORS
330
22FC
102
}
330
22FC
100
AcDbDictionary
281
     1
  0
XRECORD
  5
2327
102
{ACAD_REACTORS
330
22FC
102
}
330
22FC
100
AcDbXrecord
280
     1
 90
-1023410169
  0
DICTIONARY
  5
223C
102
{ACAD_REACTORS
330
223B
102
}
330
223B
100
AcDbDictionary
281
     1
  3
DWGSETTINGS
350
223D
  3
TRANSSETTINGS
350
2241
  0
ACAMGFILTERDAT
  5
2354
102
{ACAD_REACTORS
330
234F
102
}
330
234F
100
AcAmgFilterDat
 70
    15
  1
DIMENSION,AMDT_*_DIM
  2
*
  3
*
  4
*
  5
*
290
     1
  0
ACAMGFILTERDAT
  5
2353
102
{ACAD_REACTORS
330
234F
102
}
330
234F
100
AcAmgFilterDat
 70
    15
  1
*
  2
AM_FEA-AM_*
  3
*
  4
*
  5
*
290
     1
  0
ACAMGFILTERDAT
  5
2350
102
{ACAD_REACTORS
330
234F
102
}
330
234F
100
AcAmgFilterDat
 70
    15
  1
HATCH
  2
*
  3
*
  4
*
  5
*
290
     1
  0
ACAMGFILTERDAT
  5
2351
102
{ACAD_REACTORS
330
234F
102
}
330
234F
100
AcAmgFilterDat
 70
    15
  1
LINE
  2
8,8N,*-8,*-8N,AM_8,AM_8N,*-AM_8,*-AM_8N
  3
*
  4
*
  5
INSERT,STDPART2D
290
     1
  0
ACAMGFILTERDAT
  5
2355
102
{ACAD_REACTORS
330
234F
102
}
330
234F
100
AcAmgFilterDat
 70
    15
  1
ARC
  2
AM_5
  3
*
  4
2
  5
INSERT
290
     0
  0
ACAMGFILTERDAT
  5
2352
102
{ACAD_REACTORS
330
234F
102
}
330
234F
100
AcAmgFilterDat
 70
    15
  1
ACMFCFRAME,ACMDATUMTARGET,ACMDATUMID,ACMWELDSYM,ACMSURFSYM,ACMFEATID,ACMPARTREF,ACMBALLOON,AMDTEDGESYM,AMGSCREWCALCTABLE
  2
*
  3
*
  4
*
  5
*
290
     1
  0
LAYER_INDEX
  5
235F
102
{ACAD_REACTORS
330
235E
102
}
330
235E
100
AcDbIndex
 40
2455610.579609039
100
AcDbLayerIndex
  8
0
360
2360
 90
      746
  8
かくれ線
360
2361
 90
        3
  8
Defpoints
360
2362
 90
        0
  0
DICTIONARY
  5
2366
330
22
100
AcDbDictionary
280
     1
281
     1
  3
ACAD_XREC_ROUNDTRIP
360
2367
  0
DICTIONARY
  5
1842
330
182E
100
AcDbDictionary
280
     1
281
     1
  3
ACAD_XREC_ROUNDTRIP
360
2368
  3
ADSK_XREC_LAYOUTTHUMBNAIL
360
1843
  0
DICTIONARY
  5
1749
330
1748
100
AcDbDictionary
280
     1
281
     1
  3
ACAD_XREC_ROUNDTRIP
360
187C
  3
BUMPTILE
360
174B
  3
DIFFUSETILE
360
174A
  3
OPACITYTILE
360
174E
  3
REFLECTIONTILE
360
174D
  3
REFRACTIONTILE
360
174F
  3
SPECULARTILE
360
174C
  0
DICTIONARY
  5
1741
330
1740
100
AcDbDictionary
280
     1
281
     1
  3
ACAD_XREC_ROUNDTRIP
360
187B
  3
BUMPTILE
360
1743
  3
DIFFUSETILE
360
1742
  3
OPACITYTILE
360
1746
  3
REFLECTIONTILE
360
1745
  3
REFRACTIONTILE
360
1747
  3
SPECULARTILE
360
1744
  0
DICTIONARY
  5
1879
330
1BE
100
AcDbDictionary
280
     1
281
     1
  3
ACAD_XREC_ROUNDTRIP
360
187A
  0
DICTIONARY
  5
1803
330
7F
100
AcDbDictionary
280
     1
281
     1
  3
ACAD_ROUNDTRIP_2008_TABLESTYLE_CELLSTYLEMAP
360
1872
  3
ACAD_XREC_ROUNDTRIP
360
1878
  0
IDBUFFER
  5
2360
330
0
100
AcDbIdBuffer
330
1EE5
330
1EE6
330
1EE7
330
1EE8
330
1EE9
330
1EEA
330
1EEB
330
1EEC
330
1EED
330
1EEE
330
1EEF
330
1EF0
330
1EF1
330
1EF2
330
1EF3
330
1EF4
330
1EF5
330
1EF6
330
1EF7
330
1EF8
330
1EF9
330
1EFA
330
1EFB
330
1EFC
330
1EFD
330
1EFE
330
1EFF
330
1F00
330
1F01
330
1F02
330
1F03
330
1F04
330
1F05
330
1F06
330
1F07
330
1F08
330
1F09
330
1F0A
330
1F0B
330
1F0C
330
1F0D
330
1F0E
330
1F0F
330
1F10
330
1F11
330
1F12
330
1F13
330
1F14
330
1F15
330
1F16
330
1F17
330
1F18
330
1F19
330
1F1A
330
1F1B
330
1F1C
330
1F1D
330
1F1E
330
1F1F
330
1F20
330
1F21
330
1F22
330
1F23
330
1F24
330
1F25
330
1F26
330
1F27
330
1F28
330
1F29
330
1F2A
330
1F2B
330
1F2C
330
1F2D
330
1F2E
330
1F2F
330
1F30
330
1F31
330
1F32
330
1F33
330
1F34
330
1F35
330
1F36
330
1F37
330
1F38
330
1F39
330
1F3A
330
1F3B
330
1F3C
330
1F3D
330
1F3E
330
1F3F
330
1F40
330
1F41
330
1F42
330
1F43
330
1F44
330
1F45
330
1F46
330
1F47
330
1F48
330
1F49
330
1F4A
330
1F4B
330
1F4C
330
1F4D
330
1F4E
330
1F4F
330
1F50
330
1F51
330
1F52
330
1F53
330
1F54
330
1F55
330
1F56
330
1F57
330
1F58
330
1F59
330
1F5A
330
1F5B
330
1F5C
330
1F5D
330
1F5E
330
1F5F
330
1F60
330
1F61
330
1F62
330
1F63
330
1F64
330
1F65
330
1F66
330
1F67
330
1F68
330
1F69
330
1F6A
330
1F6B
330
1F6C
330
1F6D
330
1F6E
330
1F6F
330
1F70
330
1F71
330
1F72
330
1F73
330
1F74
330
1F75
330
1F76
330
1F77
330
1F78
330
1F79
330
1F7A
330
1F7B
330
1F7C
330
1F7D
330
1F7E
330
1F7F
330
1F80
330
1F81
330
1F82
330
1F83
330
1F84
330
1F85
330
1F86
330
1F87
330
1F88
330
1F89
330
1F8A
330
1F8B
330
1F8C
330
1F8D
330
1F8E
330
1F8F
330
1F90
330
1F91
330
1F92
330
1F93
330
1F94
330
1F95
330
1F96
330
1F97
330
1F98
330
1F99
330
1F9A
330
1F9B
330
1F9C
330
1F9D
330
1F9E
330
1F9F
330
1FA0
330
1FA1
330
1FA2
330
1FA3
330
1FA4
330
1FA5
330
1FA6
330
1FA7
330
1FA8
330
1FA9
330
1FAA
330
1FAB
330
1FAC
330
1FAD
330
1FAE
330
1FAF
330
1FB0
330
1FB1
330
1FB2
330
1FB3
330
1FB4
330
1FB5
330
1FB6
330
1FB7
330
1FB8
330
1FB9
330
1FBA
330
1FBB
330
1FBC
330
1FBD
330
1FBE
330
1FBF
330
1FC0
330
1FC1
330
1FC2
330
1FC3
330
1FC4
330
1FC5
330
1FC6
330
1FC7
330
1FC8
330
1FC9
330
1FCA
330
1FCB
330
1FCC
330
1FCD
330
1FCE
330
1FCF
330
1FD0
330
1FD1
330
1FD2
330
1FD3
330
1FD4
330
1FD5
330
1FD6
330
1FD7
330
1FD8
330
1FD9
330
1FDA
330
1FDB
330
1FDC
330
1FDD
330
1FDE
330
17E6
330
1CF3
330
1CF4
330
1CF5
330
1CF6
330
1CF7
330
1CF8
330
1CF9
330
1CFA
330
1CFB
330
1CFC
330
1CFD
330
1CFE
330
1CFF
330
1D00
330
1D01
330
1D02
330
1D03
330
1D04
330
1D05
330
1D06
330
1D07
330
1D08
330
1D09
330
1D0A
330
1D0B
330
1D0C
330
1D0D
330
1D0E
330
1D0F
330
1D10
330
1D11
330
1D12
330
1D13
330
1D14
330
1D15
330
1D16
330
1D17
330
1D18
330
1D19
330
1D1A
330
1D1B
330
1D1C
330
1D1D
330
1D1E
330
1D1F
330
1D20
330
1D21
330
1D22
330
1D23
330
1D24
330
1D25
330
1D26
330
1D27
330
1D28
330
1D29
330
1D2A
330
1D2B
330
1D2C
330
1D2D
330
1D2E
330
1D2F
330
1D30
330
1D31
330
1D32
330
1D33
330
1D34
330
1D35
330
1D36
330
1D37
330
1D38
330
1D39
330
1D3A
330
1D3B
330
1D3C
330
1D3D
330
1D3E
330
1D3F
330
1D40
330
1D41
330
1D42
330
1D43
330
1D44
330
1D45
330
1D46
330
1D47
330
1D48
330
1D49
330
1D4A
330
1D4B
330
1D4C
330
1D4D
330
1D4E
330
1D4F
330
1D50
330
1D51
330
1D52
330
1D53
330
1D54
330
1D55
330
1D56
330
1D57
330
1D58
330
1D59
330
1D5A
330
1D5B
330
1D5C
330
1D5D
330
1D5E
330
1D5F
330
1D60
330
1D61
330
1D62
330
1D63
330
1D64
330
1D65
330
1D66
330
1D67
330
1D68
330
1D69
330
1D6A
330
1D6B
330
1D6C
330
1D6D
330
1D6E
330
1D6F
330
1D70
330
1D71
330
1D72
330
1D73
330
1D74
330
1D75
330
1D76
330
1D77
330
1D78
330
1D79
330
1D7A
330
1D7B
330
1D7C
330
1D7D
330
1D7E
330
1D7F
330
1D80
330
1D81
330
1D82
330
1D83
330
1D84
330
1D85
330
1D86
330
1D87
330
1D88
330
1D89
330
1D8A
330
1D8B
330
1D8C
330
1D8D
330
1D8E
330
1D8F
330
1D90
330
1D91
330
1D92
330
1D93
330
1D94
330
1D95
330
1D96
330
1D97
330
1D98
330
1D99
330
1D9A
330
1D9B
330
1D9C
330
1D9D
330
1D9E
330
1D9F
330
1DA0
330
1DA1
330
1DA2
330
1DA3
330
1DA4
330
1DA5
330
1DA6
330
1DA7
330
1DA8
330
1DA9
330
1DAA
330
1DAB
330
1DAC
330
1DAD
330
1DAE
330
1DAF
330
1DB0
330
1DB1
330
1DB2
330
1DB3
330
1DB4
330
1DB5
330
1DB6
330
1DB7
330
1DB8
330
1DB9
330
1DBA
330
1DBB
330
1DBC
330
1DBD
330
1DBE
330
1DBF
330
1DC0
330
1DC1
330
1DC2
330
1DC3
330
1DC4
330
1DC5
330
1DC6
330
1DC7
330
1DC8
330
1DC9
330
1DCA
330
1DCB
330
1DCC
330
1DCD
330
1DCE
330
1DCF
330
1DD0
330
1DD1
330
1DD2
330
1DD3
330
1DD4
330
1DD5
330
1DD6
330
1DD7
330
1DD8
330
1DD9
330
1DDA
330
1DDB
330
1DDC
330
1DDD
330
1DDE
330
1DDF
330
1DE0
330
1DE1
330
1DE2
330
1DE3
330
1DE4
330
1DE5
330
1DE6
330
1DE7
330
1DE8
330
1DE9
330
1DEA
330
1DEB
330
1DEC
330
1DED
330
1DEE
330
1DEF
330
1DF0
330
1DF1
330
1DF2
330
1DF3
330
1DF4
330
1DF5
330
1DF6
330
1DF7
330
1DF8
330
1DF9
330
1DFA
330
1DFB
330
1DFC
330
1DFD
330
1DFE
330
1DFF
330
1E00
330
1E01
330
1E02
330
1E03
330
1E04
330
1E05
330
1E06
330
1E07
330
1E08
330
1E09
330
1E0A
330
1E0B
330
1E0C
330
1E0D
330
1E0E
330
1E0F
330
1E10
330
1E11
330
1E12
330
1E13
330
1E14
330
1E15
330
1E16
330
1E17
330
1E18
330
1E19
330
1E1A
330
1E1B
330
1E1C
330
1E1D
330
1E1E
330
1E1F
330
1E20
330
1E21
330
1E22
330
1E23
330
1E24
330
1E25
330
1E26
330
1E27
330
1E28
330
1E29
330
1E2A
330
1E2B
330
1E2C
330
1E2D
330
1E2E
330
1E2F
330
1E30
330
1E31
330
1E32
330
1E33
330
1E34
330
1E35
330
1E36
330
1E37
330
1E38
330
1E39
330
1E3A
330
1E3B
330
1E3C
330
1E3D
330
1E3E
330
1E3F
330
1E40
330
1E41
330
1E42
330
1E43
330
1E44
330
1E45
330
1E46
330
1E47
330
1E48
330
1E49
330
1E4A
330
1E4B
330
1E4C
330
1E4D
330
1E4E
330
1E4F
330
1E50
330
1E51
330
1E52
330
1E53
330
1E54
330
1E55
330
1E56
330
1E57
330
1E58
330
1E59
330
1E5A
330
1E5B
330
1E5C
330
1E5D
330
1E5E
330
1E5F
330
1E60
330
1E61
330
1E62
330
1E63
330
1E64
330
1E65
330
1E66
330
1E67
330
1E68
330
1E69
330
1E6A
330
1E6B
330
1E6C
330
1E6D
330
1E6E
330
1E6F
330
1E70
330
1E71
330
1E72
330
1E73
330
1E74
330
1E75
330
1E76
330
1E77
330
1E78
330
1E79
330
1E7A
330
1E7B
330
1E7C
330
1E7D
330
1E7E
330
1E7F
330
1E80
330
1E81
330
1E82
330
1E83
330
1E84
330
1E85
330
1E86
330
1E87
330
1E88
330
1E89
330
1E8A
330
1E8E
330
1E8F
330
1E90
330
1E91
330
1E92
330
1E93
330
1E94
330
1E95
330
1E96
330
1E97
330
1E98
330
1E99
330
1E9A
330
1E9B
330
1E9C
330
1E9D
330
1E9E
330
1E9F
330
1EA0
330
1EA1
330
1EA2
330
1EA3
330
1EA4
330
1EA5
330
1EA6
330
1EA7
330
1EA8
330
1EA9
330
1EAA
330
1EAB
330
1EAC
330
1EAD
330
1EAE
330
1EAF
330
1EB0
330
1EB1
330
1EB2
330
1EB3
330
1EB4
330
1EB5
330
1EB6
330
1EB7
330
1EB8
330
1EB9
330
1EBA
330
1EBB
330
1EBC
330
1EBD
330
1EBE
330
1EBF
330
1EC0
330
1EC1
330
1EC2
330
1EC3
330
1EC4
330
1EC5
330
1EC6
330
1EC7
330
1EC8
330
1EC9
330
1ECA
330
1ECB
330
1ECC
330
1ECD
330
1ECE
330
1ECF
330
1ED0
330
1ED1
330
1ED2
330
1ED3
330
1ED4
330
1ED5
330
1ED6
330
1ED7
330
1ED8
330
1ED9
330
1EDA
330
1EDB
330
1EDC
330
1EDD
330
1EDE
330
1EDF
330
1EE0
330
1EE1
330
1EE2
330
1EE3
330
1EE4
  0
IDBUFFER
  5
2361
330
0
100
AcDbIdBuffer
330
1E8B
330
1E8C
330
1E8D
  0
IDBUFFER
  5
2362
330
0
100
AcDbIdBuffer
  0
XRECORD
  5
2367
102
{ACAD_REACTORS
330
2366
102
}
330
2366
100
AcDbXrecord
280
     1
102
SHADEPLOT
 70
     0
102
SHADEPLOTRESLEVEL
 70
     2
102
SHADEPLOTCUSTOMDPI
 70
   300
  0
XRECORD
  5
2368
102
{ACAD_REACTORS
330
1842
102
}
330
1842
100
AcDbXrecord
280
     1
102
SHADEPLOT
 70
     0
102
SHADEPLOTRESLEVEL
 70
     2
102
SHADEPLOTCUSTOMDPI
 70
   300
  0
XRECORD
  5
1843
102
{ACAD_REACTORS
330
1842
102
}
330
1842
100
AcDbXrecord
280
     1
310
28000000B40000007F00000001000800000000004C590000000000000000000000010000000000000000000000000000FFFFFF000000000000000000000000000000000000000000000000000000000000000000330000006600000099000000CC000000FF00000000330000333300006633000099330000CC330000FF3300
310
0000660000336600006666000099660000CC660000FF66000000990000339900006699000099990000CC990000FF99000000CC000033CC000066CC000099CC0000CCCC0000FFCC000000FF000033FF000066FF000099FF0000CCFF0000FFFF000000003300330033006600330099003300CC003300FF003300003333003333
310
33006633330099333300CC333300FF33330000663300336633006666330099663300CC663300FF66330000993300339933006699330099993300CC993300FF99330000CC330033CC330066CC330099CC3300CCCC3300FFCC330000FF330033FF330066FF330099FF3300CCFF3300FFFF330000006600330066006600660099
310
006600CC006600FF00660000336600333366006633660099336600CC336600FF33660000666600336666006666660099666600CC666600FF66660000996600339966006699660099996600CC996600FF99660000CC660033CC660066CC660099CC6600CCCC6600FFCC660000FF660033FF660066FF660099FF6600CCFF6600
310
FFFF660000009900330099006600990099009900CC009900FF00990000339900333399006633990099339900CC339900FF33990000669900336699006666990099669900CC669900FF66990000999900339999006699990099999900CC999900FF99990000CC990033CC990066CC990099CC9900CCCC9900FFCC990000FF99
310
0033FF990066FF990099FF9900CCFF9900FFFF99000000CC003300CC006600CC009900CC00CC00CC00FF00CC000033CC003333CC006633CC009933CC00CC33CC00FF33CC000066CC003366CC006666CC009966CC00CC66CC00FF66CC000099CC003399CC006699CC009999CC00CC99CC00FF99CC0000CCCC0033CCCC0066CC
310
CC0099CCCC00CCCCCC00FFCCCC0000FFCC0033FFCC0066FFCC0099FFCC00CCFFCC00FFFFCC000000FF003300FF006600FF009900FF00CC00FF00FF00FF000033FF003333FF006633FF009933FF00CC33FF00FF33FF000066FF003366FF006666FF009966FF00CC66FF00FF66FF000099FF003399FF006699FF009999FF00CC
310
99FF00FF99FF0000CCFF0033CCFF0066CCFF0099CCFF00CCCCFF00FFCCFF0000FFFF0033FFFF0066FFFF0099FFFF00CCFFFF00FFFFFF00000000000D0D0D001A1A1A00282828003535350043434300505050005D5D5D006B6B6B00787878008686860093939300A1A1A100AEAEAE00BBBBBB00C9C9C900D6D6D600E4E4E400
310
F1F1F100FFFFFF0000000000000000000000000000000000000000000000000000000000000000000000000000000000F5F5F5F5F5F5F5F5F5F5F5F5F5F5F5F5F5F5F5F5F5F5F5F5F5F5F5F5F5F5F5F5F5F5F5F5F5F5F5F5F5F5F5F5F5F5F5F5F5F5F5F5F5F5F5F5F5F5F5F5F5F5F5F5F5F5F5F5F5F5F5F5F5F5F5F5F5F5F5
310
F5F5F5F5F5F5F5F5F5F5F5F5F5F5F5F5F5F5F5F5F5F5F5F5F5F5F5F5F5F5F5F5F5F5F5F5F5F5F5F5F5F5F5F5F5F5F5F5F5F5F5F5F5F5F5F5F5F5F5F5F5F5F5F5F5F5F5F5F5F5F5F5F5F5F5F5F5F5F5F5F5F5F5F5F5F5F5F5F5F5F5F5F5F5F5F5F5F5F5F5F5F5E2E2E2E2E2E2E2E2E2E2E2E2E2E2E2E2E2E2E2E2E2E2E2E2E2
310
E2E2E2E2E2E2E2E2E2E2E2E2E2E2E2E2E2E2E2E2E2E2E2E2E2E2E2E2E2E2E2E2E2E2E2E2E2E2E2E2E2E2E2E2E2E2E2E2E2E2E2E2E2E2E2E2E2E2E2E2E2E2E2E2E2E2E2E2E2E2E2E2E2E2E2E2E2E2E2E2E2E2E2E2E2E2E2E2E2E2E2E2E2E2E2E2E2E2E2E2E2E2E2E2E2E2E2E2E2E2E2E2E2E2E2E2E2E2E2E2E2E2E2E2E2E2E2
310
E2E2E2E2E2E2E2E2E2E2E2E2E2E2E2E2E2E2E2E2E2E2E2E2E2E2F5F5E2F5F5F5F5F5F5F5F5F5E2E2E2E2E2E2E2E2E2F5F5F5F5F5F5F5F5F5F5F5F5F5F5F5F5E2E2E2E2E2E2E2E2E2F5F5F5F5F5F5F5F5F5F5F5F5F5F5F5F5E2E2E2E2E2E2E2E2E2F5F5F5F5F5F5F5F5F5F5F5F5F5F5F5F5E2E2E2E2E2E2E2E2E2F5F5F5F5F5
310
F5F5F5F5F5F5F5F5F5F5F5E2E2E2E2E2E2E2E2E2F5F5F5F5F5F5F5F5F5F5F5F5F5F5F5F5E2E2E2E2E2E2E2E2E2F5F5F5F5F5F5F5F5F5F5F5F5F5F5F5F5E2E2E2E2E2E2E2E2E2F5F5F5F5F5F5F5F5E2F5F5E2F5E2E2E2E2E2E2E2E2E2E2E2E2E2E2E2E2E2E2E2E2E2E2E2E2E2E2E2E2E2E2E2E2E2E2E2E2E2E2E2E2E2E2E2E2
310
E2E2E2E2E2E2E2E2E2E2E2E2E2E2E2E2E2E2E2E2E2E2E2E2E2E2E2E2E2E2E2E2E2E2E2E2E2E2E2E2E2E2E2E2E2E2E2E2E2E2E2E2E2E2E2E2E2E2E2E2E2E2E2E2E2E2E2E2E2E2E2E2E2E2E2E2E2E2E2E2E2E2E2E2E2E2E2E2E2E2E2E2E2E2E2E2E2E2E2E2E2E2E2E2E2E2E2E2E2E2E2E2E2E2E2E2E2E2E2E2E2E2E2E2E2E2E2
310
E2E2E2F5E2F5F5E2F5E2E2E2E2E2E2E2E2E2E2E2E2E2E2E2E2E2E2E2E2E2E2E2E2E2E2E2E2E2E2E2E2E2E2E2E2E2E2E2E2E2E2E2E2E2E2E2E2E2E2E2E2E2E2E2E2E2E2E2E2E2E2E2E2E2E2E2E2E2E2E2E2E2E2E2E2E2E2E2E2E2E2E2E2E2E2E2E2E2E2E2E2E2E2E2E2E2E2E2E2E2E2E2E2E2E2E2E2E2E2E2E2E2E2E2E2E2E2
310
E2E2E2E2E2E2E2E2E2E2E2E2E2E2E2E2E2E2E2E2E2E2E2E2E2E2E2E2E2E2E2E2E2E2E2E2E2E2E2E2E2E2E2E2E2E2E2E2E2E2E2E2E2E2E2E2F5E2F5F5E2F5E2E2E2E2E2E2E2E2E2E2E2E2E2E2E2E2E2E2E2E2E2E2E2E2E2E2E2E2E2E2E2E2E2E2E2E2E2E2E2E2E2E2E2E2E2E2E2E2E2E2E2E2E2E2E2E2E2E2E2E2E2E2E2E2E2
310
E2E2E2E2E2E2E2E2E2E2E2E2E2E2E2E2E2E2E2E2E2E2E2E2E2E2E2E2E2E2E2E2E2E2E2E2E2E2E2E2E2E2E2E2E2E2E2E2E2E2E2E2E2E2E2E2E2E2E2E2E2E2E2E2E2E2E2E2E2E2E2E2E2E2E2E2E2E2E2E2E2E2E2E2E2E2E2E2E2E2E2E2E2E2E2E2E2E2E2E2E2E2E2E2E2E2E2E2E2F5E2F5F5E2F5E2E2E2E2E2E2E2E2E2E2E2E2
310
E2E2E2E2E2E2E2E2E2E2E2E2E2E2E2E2E2E2E2E2E2E2E2E2E2E2E2E2E2E2E2E2E2E2E2E2E2E2E2E2E2E2E2E2E2E2E2E2E2E2E2E2E2E2E2E2E2E2E2E2E2E2E2E2E2E2E2E2E2E2E2E2E2E2E2E2E2E2E2E2E2E2E2E2E2E2E2E2E2E2E2E2E2E2E2E2E2E2E2E2E2E2E2E2E2E2E2E2E2E2E2E2E2E2E2E2E2E2E2E2E2E2E2E2E2E2E2
310
E2E2E2E2E2E2E2E2E2E2E2E2E2E2E2E2E2E2E2E2E2E2E2E2E2E2E2E2E2E2E2E2E2E2E2F5E2F5F5E2F5E2E2E2E2E2E2E2E2E2E2E2E2E2E2E2E2E2E2E2E2E2E2E2E2E2E2E2E2E2E2E2E2E2E2E2E2E2E2E2E2E2E2E2E2E2E2E2E2E2E2E2E2E2E2E2E2E2E2E2E2E2E2E2E2E2E2E2E2E2E2E2E2E2E2E2E2E2E2E2E2E2E2E2E2E2E2
310
E2E2E2E2E2E2E2E2E2E2E2E2E2E2E2E2E2E2E2E2E2E2E2E2E2E2E2E2E2E2E2E2E2E2E2E2E2E2E2E2E2E2E2E2E2E2E2E2E2E2E2E2E2E2E2E2E2E2E2E2E2E2E2E2E2E2E2E2E2E2E2E2E2E2E2E2E2E2E2E2E2E2E2E2E2E2E2E2F5E2F5F5E2F5E2E2E2E2E2E2E2E2E2E2E2E2E2E2E2E2E2E2E2E2E2E2E2E2E2E2E2E2E2E2E2E2E2
310
E2E2E2E2E2E2E2E2E2E2E2E2E2E2E2E2E2E2E2E2E2E2E2E2E2E2E2E2E2E2E2E2E2E2E2E2E2E2E2E2E2E2E2E2E2E2E2E2E2E2E2E2E2E2E2E2E2E2E2E2E2E2E2E2E2E2E2E2E2E2E2E2E2E2E2E2E2E2E2E2E2E2E2E2E2E2E2E2E2E2E2E2E2E2E2E2E2E2E2E2E2E2E2E2E2E2E2E2E2E2E2E2E2E2E2E2E2E2E2E2E2E2E2E2E2E2E2
310
E2E2E2E2E2E2E2E2E2E2E2E2E2E2F5E2F5F5E2F5E2E2E2E2E2E2E2E2E2E2E2E2E2E2E2E2E2E2E2E2E2E2E2E2E2E2E2E2E2E2E2E2E2E2E2E2E2E2E2E2E2E2E2E2E2E2E2E2E2E2E2E2E2E2E2E2E2E2E2E2E2E2E2E2E2E2E2E2E2E2E2E2E2E2E2E2E2E2E2E2E2E2E2E2E2E2E2E2E2E2E2E2E2E2E2E2E2E2E2E2E2E2E2E2E2E2E2
310
E2E2E2E2E2E2E2E2E2E2E2E2E2E2E2E2E2E2E2E2E2E2E2E2E2E2E2E2E2E2E2E2E2E2E2E2E2E2E2E2E2E2E2E2E2E2E2E2E2E2E2E2E2E2E2E2E2E2E2E2E2E2E2E2E2E2E2F5E2F5F5E2E2E2E2E2E2E2E2E2E2E2E2E2E2E2E2E2E2E2E2E2E2E2E2E2E2E2E2E2E2E2E2E2E2E2E2E2E2E2E2E2E2E2E2E2E2E2E2E2E2E2E2E2E2E2E2
310
E2E2E2E2E2E2E2E2E2E2E2E2E2E2E2E2E2E2E2E2E2E2E2E2E2E2E2E2E2E2E2E2E2E2E2E2E2E2E2E2E2E2E2E2E2E2E2E2E2E2E2E2E2E2E2E2E2E2E2E2E2E2E2E2E2E2E2E2E2E2E2E2E2E2E2E2E2E2E2E2E2E2E2E2E2E2E2E2E2E2E2E2E2E2E2E2E2E2E2E2E2E2E2E2E2E2E2E2E2E2E2E2E2E2E2E2E2E2E2E2E2E2F5F5E2E2E2
310
E2E2E2E2E2E2E2E2E2E2E2E2E2E2E2E2E2E2E2E2E2E2E2E2E2E2E2E2E2E2E2E2E2E2E2E2E2E2E2E2E2E2E2E2E2E2E2E2E2E2E2E2E2E2E2E2E2E2E2E2E2E2E2E2E2E2E2E2E2E2E2E2E2E2E2E2E2E2E2E2E2E2E2E2E2E2E2E2E2E2E2E2E2E2E2E2E2E2E2E2E2E2E2E2E2E2E2E2E2E2E2E2E2E2E2E2E2E2E2E2E2E2E2E2E2E2E2
310
E2E2E2E2E2E2E2E2E2E2E2E2E2E2E2E2E2E2E2E2E2E2E2E2E2E2E2E2E2E2E2E2E2E2E2E2E2E2E2E2E2E2E2E2E2E2E2E2F5F5E2E2E2E2E2E2E2E2E2E2E2E2E2E2E2E2E2E2E2E2E2E2E2E2E2E2E2E2E2E2E2E2E2E2E2E2E2E2E2E2E2E2E2E2E2E2E2E2E2E2E2E2E2E2E2E2E2E2E2E2E2E2E2E2E2E2E2E2E2E2E2E2E2E2E2E2E2
310
E2E2E2E2E2E2E2E2E2E2E2E2E2E2E2E2E2E2E2E2E2E2E2E2E2E2E2E2E2E2E2E2E2E2E2E2E2E2E2E2E2E2E2E2E2E2E2E2E2E2E2E2E2E2E2E2E2E2E2E2E2E2E2E2E2E2E2E2E2E2E2E2E2E2E2E2E2E2E2E2E2E2E2E2E2E2E2E2E2E2E2E2E2E2E2E2E2E2E2E2E2F5F5E2E2E2E2E2E2E2E2E2E2E2E2E2E2E2E2E2E2E2E2E2E2E2E2
310
E2E2E2E2E2E2E2E2E2E2E2E2E2E2E2E2E2E2E2E2E2E2E2E2E2E2E2E2E2E2E2E2E2E2E2E2E2E2E2E2E2E2E2E2E2E2E2E2E2E2E2E2E2E2E2E2E2E2E2E2E2E2E2E2E2E2E2E2E2E2E2E2E2E2E2E2E2E2E2E2E2E2E2E2E2E2E2E2E2E2E2E2E2E2E2E2E2E2E2E2E2E2E2E2E2E2E2E2E2E2E2E2E2E2E2E2E2E2E2E2E2E2E2E2E2E2E2
310
E2E2E2E2E2E2E2E2E2E2E2E2E2E2E2E2E2E2E2E2E2E2E2E2E2E2E2F5F5E2E2E2E2E2E2E2E2E2E2E2E2E2E2E2E2E2E2E2F5F5F5F5F5F5F5F5F5F5F5F5F5F5F5F5F5F5F5F5F5F5F5F5F5F5F5F5F5F5F5F5F5F5F5F5F5F5F5F5F5F5F5F5F5F5F5F5F5F5F5F5F5F5F5F5F5F5F5F5F5F5F5F5F5F5F5F5F5F5F5F5F5F5F5F5F5F5F5
310
F5F5F5F5F5F5F5F5F5F5F5F5F5F5F5F5F5F5F5F5F5F5F5F5F5F5F5F5F5F5F5F5F5F5F5F5F5F5F5F5F5F5F5F5F5F5F5F5F5F5F5F5F5F5F5F5F5F5F5F5F5E2E2E2E2E2E2E2E2E2E2E2E2E2E2E2E2E2E2E2F5F5E2E2E2E2E2E2E2E2E2E2E2E2E2E2E2E2E2E2E2F5E2E2E2E2E2E2E2E2E2E2E2E2E2E2E2E2E2E2E2E2E2E2E2E2E2
310
E2E2E2E2E2E2E2E2E2E2E2E2E2E2E2E2E2E2E2E2E2E2E2E2E2E2E2E2E2E2E2E2E2E2E2E2E2E2E2E2E2E2E2E2E2E2E2E2E2E2E2E2E2E2E2E2E2E2E2E2E2E2E2E2E2E2E2E2E2E2E2E2E2E2E2E2E2E2E2E2E2E2E2E2E2E2E2E2E2E2E2E2E2E2E2E2E2E2E2E2E2E2E2E2E2E2E2E2E2E2E2E2E2F5E2E2E2E2E2E2E2E2E2E2E2E2E2
310
E2E2E2E2E2E2F5F5E2E2E2E2E2E2E2E2E2E2E2E2E2E2E2E2E2E2E2F5E2E2E2E2E2E2E2E2E2E2E2E2E2E2E2E2E2E2E2E2E2E2E2E2E2E2E2E2E2E2E2E2E2E2E2E2E2E2E2E2E2E2E2E2E2E2E2E2E2E2E2E2E2E2E2E2E2E2E2E2E2E2E2E2E2E2E2E2E2E2E2E2E2E2E2E2E2E2E2E2E2E2E2E2E2E2E2E2E2E2E2E2E2E2E2E2E2E2E2
310
E2E2E2E2E2E2E2E2E2E2E2E2E2E2E2E2E2E2E2E2E2E2E2E2E2E2E2E2E2E2E2E2E2E2E2E2E2E2E2F5E2E2E2E2E2E2E2E2E2E2E2E2E2E2E2E2E2E2E2F5F5E2E2E2E2E2E2E2E2E2E2E2E2E2E2E2E2E2E2E2F5E2E2E2E2E2E2E2E2E2E2E2E2E2E2E2E2E2E2E2E2E2E2E2E2E2E2E2E2E2E2E2E2E2E2E2E2E2E2E2E2E2E2E2E2E2E2
310
E2E2E2E2E2E2E2E2E2E2E2E2E2E2E2E2E2E2E2E2E2E2E2E2E2E2E2E2E2E2E2E2E2E2E2E2E2E2E2E2E2E2E2E2E2E2E2E2E2E2E2E2E2E2E2E2E2E2E2E2E2E2E2E2E2E2E2E2E2E2E2E2E2E2E2E2E2E2E2E2E2E2E2E2E2E2E2E2E2E2E2E2F5E2E2E2E2E2E2E2E2E2E2E2E2E2E2E2E2E2E2E2F5F5E2E2E2E2E2E2E2E2E2E2E2E2E2
310
E2E2E2E2E2E2F5E2E2E2E2E2E2E2E2E2E2E2E2E2E2E2E2E2E2E2E2E2E2E2E2E2E2E2E2E2E2E2E2E2E2E2E2E2E2E2E2E2E2E2E2E2E2E2E2E2E2E2E2E2E2E2E2E2E2E2E2E2E2E2E2E2E2E2E2E2E2E2E2E2E2E2E2E2E2E2E2E2E2E2E2E2E2E2E2E2E2E2E2E2E2E2E2E2E2E2E2E2E2E2E2E2E2E2E2E2E2E2E2E2E2E2E2E2E2E2E2
310
E2E2E2E2E2E2E2E2E2E2E2E2E2E2E2E2E2E2F5E2E2E2E2E2E2E2E2E2E2E2E2E2E2E2E2E2E2E2F5F5E2F5E2E2E2E2E2E2E2E2E2E2E2E2E2E2E2E2E2F5E2E2E2E2E2E2E2E2E2E2E2E2E2E2E2E2E2E2E2E2E2E2E2E2E2E2E2E2E2E2E2E2E2E2E2E2E2E2E2E2E2E2E2E2E2E2E2E2E2E2E2E2E2E2E2E2E2E2E2E2E2E2E2E2E2E2E2
310
E2E2E2E2E2E2E2E2E2E2E2E2E2E2E2E2E2E2E2E2E2E2E2E2E2E2E2E2E2E2E2E2E2E2E2E2E2E2E2E2E2E2E2E2E2E2E2E2E2E2E2E2E2E2E2E2E2E2E2E2E2E2E2E2E2E2E2E2E2E2E2F5E2E2E2E2E2E2E2E2E2E2E2E2E2E2E2E2E2F5E2F5F5E2F5E2E2E2E2E2E2E2E2E2E2E2E2E2E2E2E2E2F5E2E2E2E2E2E2E2E2E2E2E2E2E2E2
310
E2E2E2E2E2E2E2E2E2E2E2E2E2E2E2E2E2E2E2E2E2E2E2E2E2E2E2E2E2E2E2E2E2E2E2E2E2E2E2E2E2E2E2E2E2E2E2E2E2E2E2E2F5F5E2E2E2E2E2E2E2E2E2E2E2E2E2E2E2E2E2E2E2E2E2E2E2E2E2E2E2E2F5F5E2E2E2E2E2E2E2E2E2E2E2E2E2E2E2E2E2E2E2E2E2E2E2E2E2E2E2E2E2E2E2E2E2E2E2E2E2E2E2E2F5E2E2
310
E2E2E2E2E2E2E2E2E2E2E2E2E2E2E2F5E2F5F5E2F5E2E2E2E2E2E2E2E2E2E2E2E2E2E2E2E2E2F5E2E2E2E2E2E2E2E2E2E2E2E2E2E2E2E2E2E2E2E2E2E2E2E2E2E2E2E2E2E2E2E2E2E2E2E2E2E2E2E2E2E2E2E2E2E2E2E2E2E2E2E2E2E2E2E2E2E2E2E2E2E2E2E2E2E2F5F5F5F5F5F5F5F5F5F5F5F5F5F5F5F5F5F5F5F5F5F5
310
F5F5F5F5F5F5F5F5F5F5E2E2E2E2E2E2E2E2E2E2E2E2E2E2E2E2E2E2E2E2E2E2E2E2E2E2E2E2E2E2E2E2E2E2E2E2E2E2E2E2F5E2E2E2E2E2E2E2E2E2E2E2E2E2E2E2E2E2F5E2F5F5E2F5E2E2E2E2E2E2E2E2E2E2E2E2E2E2E2E2E2F5E2E2E2E2E2E2E2E2E2E2E2E2E2E2E2E2E2E2E2E2E2E2E2E2E2E2E2E2E2E2E2E2E2E2E2
310
E2E2E2E2E2E2E2E2E2E2E2E2E2E2E2E2E2E2E2E2E2E2E2E2E2E2E2E2E2E2E2F5E2E2E2E2E2E2E2E2E2E2E2E2E2F5F5F5F5E2E2E2E2E2E2E2E2E2E2E2E2E2F5E2E2E2E2E2E2E2E2E2E2E2E2E2E2E2E2E2E2E2E2E2E2E2E2E2E2E2E2E2E2E2E2E2E2E2E2E2E2E2E2F5E2E2E2E2E2E2E2E2E2E2E2E2E2E2E2E2E2F5E2F5F5E2F5
310
E2E2E2E2E2E2E2E2E2E2E2E2E2E2E2E2E2F5E2E2E2E2E2E2E2E2E2E2E2E2E2E2E2E2E2E2E2E2E2E2E2E2E2E2E2E2E2E2E2E2E2E2E2E2E2E2E2E2E2E2E2E2E2E2E2E2E2E2E2E2E2E2E2E2E2E2E2E2E2E2E2E2E2E2F5E2E2E2E2E2E2E2E2E2E2E2E2E2F5F5F5F5E2E2E2E2E2E2E2E2E2E2E2E2E2F5E2E2E2E2E2E2E2E2E2E2E2
310
E2E2E2E2E2E2E2E2E2E2E2E2E2E2E2E2E2E2E2E2E2E2E2E2E2E2E2E2E2F5E2E2E2E2E2E2E2E2E2E2E2E2E2E2E2E2E2F5E2F5F5E2F5E2E2E2E2E2E2E2E2E2E2E2E2E2E2E2E2E2F5E2E2E2E2E2E2E2E2E2E2E2E2E2E2E2E2E2E2E2E2E2E2E2E2E2E2E2E2E2E2E2E2E2E2E2E2E2E2E2E2E2E2F5F5E2E2E2E2E2E2E2E2E2E2E2E2
310
E2E2E2E2F5E2F5E2E2E2F5F5F5F5F5F5F5F5F5F5F5F5F5F5F5F5F5F5F5F5F5F5F5F5F5F5F5F5F5F5F5F5E2E2E2E2E2E2E2E2E2E2E2E2E2E2E2E2E2E2E2E2E2E2E2E2E2E2E2E2E2E2E2E2E2E2E2E2E2E2E2E2F5E2E2E2E2E2E2E2E2E2E2E2E2E2E2E2E2E2F5E2F5F5E2F5E2E2E2E2E2E2E2E2E2E2E2E2E2E2E2E2E2F5E2E2E2
310
E2E2E2E2E2E2E2E2E2E2E2E2E2E2E2E2E2E2E2E2E2E2E2E2E2E2E2E2E2E2E2E2E2E2E2E2E2E2E2F5F5F5F5F5F5F5F5F5F5F5F5F5F5F5F5F5F5F5F5F5E2E2E2F5F5F5E2E2E2F5F5F5F5F5E2F5F5F5F5F5F5F5F5F5F5F5F5F5E2E2E2E2F5F5F5E2E2E2E2E2E2E2E2E2E2E2E2E2E2E2E2E2E2E2E2E2E2E2E2E2E2E2E2E2E2E2E2
310
E2E2E2E2E2E2E2E2F5E2E2E2E2E2E2E2E2E2E2E2E2E2E2E2E2E2F5E2F5F5E2F5E2E2E2E2E2E2E2E2E2E2E2E2E2E2E2E2E2F5E2E2E2E2E2E2E2E2E2E2E2E2E2E2E2E2E2E2E2E2E2E2E2E2E2E2E2E2E2E2E2E2E2E2E2E2E2E2E2E2E2E2F5E2F5F5F5F5F5E2F5F5F5F5F5F5F5F5F5E2E2E2F5E2E2E2F5F5E2E2E2E2F5F5F5F5F5
310
E2F5F5F5F5F5F5F5F5F5F5F5F5F5E2E2E2E2E2F5F5E2E2E2E2E2E2E2E2E2E2E2E2E2E2E2E2E2E2E2E2E2E2E2E2E2E2E2E2E2E2E2E2E2E2E2E2E2E2E2E2F5E2E2E2E2E2E2E2E2E2E2E2E2E2E2E2E2E2F5E2F5F5E2F5E2E2E2E2E2E2E2E2E2E2E2E2E2E2E2E2E2F5E2E2E2E2E2E2E2E2E2E2E2E2E2E2E2E2E2E2E2E2E2E2E2E2
310
E2E2E2E2E2E2E2E2E2E2E2E2E2E2E2E2E2E2F5E2F5F5F5F5F5E2F5E2F5F5F5F5F5F5F5E2E2E2F5E2E2E2F5F5E2E2E2E2E2F5F5F5F5E2F5F5F5F5F5E2F5E2E2E2E2F5E2E2E2E2E2E2F5F5E2E2E2E2E2E2E2E2E2E2E2E2E2E2E2E2E2E2E2E2E2E2E2E2E2E2E2E2E2E2E2E2E2E2E2E2E2E2E2E2F5E2E2E2E2E2E2E2E2E2E2E2E2
310
E2E2E2E2E2F5E2F5F5E2F5E2E2E2E2E2E2E2E2E2E2E2E2E2E2E2E2E2F5E2E2E2E2E2E2E2E2E2E2E2E2E2E2E2E2E2E2E2E2E2E2E2E2E2E2E2E2E2E2E2E2E2E2E2E2E2E2E2E2E2E2F5E2E2E2E2E2E2E2E2E2E2E2E2E2E2E2E2E2E2E2F5E2E2E2F5F5E2E2E2E2F5F5F5F5F5F5F5F5F5F5F5F5F5F5F5F5F5F5F5F5F5F5F5E2F5F5
310
E2E2E2E2E2E2E2E2E2E2E2E2E2E2E2E2E2E2E2E2E2E2E2E2E2E2E2E2E2E2E2E2E2E2E2E2E2E2E2E2F5E2E2E2E2E2E2E2E2E2E2E2E2E2E2E2E2E2F5E2F5F5E2F5E2E2E2E2E2E2E2E2E2E2E2E2E2E2E2E2E2F5E2E2E2E2E2E2E2E2E2E2E2E2E2E2E2E2E2E2E2E2E2E2E2E2E2E2E2E2E2E2E2E2E2E2E2E2E2E2E2E2E2E2F5E2E2
310
E2E2E2E2E2E2E2E2E2E2E2E2E2E2E2E2E2F5E2E2E2F5F5E2E2E2E2F5F5F5E2E2E2E2E2E2F5F5F5F5F5E2E2E2E2E2E2F5F5F5E2F5F5E2E2E2E2E2E2E2E2E2E2E2E2E2E2E2E2E2E2E2E2E2E2E2E2E2E2E2E2E2E2E2E2E2E2E2E2E2E2E2E2F5E2E2E2E2E2E2E2E2E2E2E2E2E2E2E2E2E2F5E2F5F5E2F5E2E2E2E2E2E2E2E2E2E2
310
E2E2E2E2E2E2E2F5E2E2E2E2E2E2E2E2E2E2E2E2E2E2E2E2E2E2E2E2E2E2E2E2E2E2E2E2E2E2E2E2E2E2E2E2E2E2E2E2E2E2F5E2E2E2E2E2E2E2E2E2E2E2E2E2E2E2E2E2E2E2F5E2E2E2F5F5E2E2E2E2F5E2E2E2E2E2E2E2E2F5F5F5F5F5E2E2E2E2E2E2E2E2F5E2F5F5E2E2E2E2E2E2E2E2E2E2E2E2E2E2E2E2E2E2E2E2E2
310
E2E2E2E2E2E2E2E2E2E2E2E2E2E2E2E2E2E2E2F5E2E2E2E2E2E2E2E2E2E2E2E2E2E2E2E2E2F5E2F5F5E2F5E2E2E2E2E2E2E2E2E2E2E2E2E2E2E2E2E2F5E2E2E2E2E2E2E2E2E2E2E2E2E2E2E2E2E2E2E2E2E2E2E2E2E2E2E2E2E2E2E2E2E2E2E2E2E2E2E2E2E2E2F5E2E2E2E2E2E2E2E2E2E2E2E2E2E2E2E2E2E2E2F5E2E2E2
310
F5F5E2E2E2E2F5E2E2E2E2E2E2E2E2F5E2F5F5F5E2E2E2E2E2E2E2E2F5E2F5F5E2E2E2E2E2E2E2E2E2E2E2E2E2E2E2E2E2E2E2E2E2E2E2E2E2E2E2E2E2E2E2E2E2E2E2E2E2E2E2E2F5E2E2E2E2E2E2E2E2E2E2E2E2E2E2E2E2E2F5E2F5F5E2F5E2E2E2E2E2E2E2E2E2E2E2E2E2E2E2E2E2F5E2E2E2E2E2E2E2E2E2E2E2E2E2
310
E2E2E2E2E2E2E2E2E2E2E2E2E2E2E2E2E2E2E2E2E2E2E2E2E2E2E2E2E2F5E2E2E2E2E2E2E2E2E2E2E2E2E2E2E2E2E2E2E2F5E2E2E2F5F5E2E2E2E2F5E2E2E2E2E2E2E2E2E2E2E2E2E2E2E2E2E2E2E2E2E2F5E2F5F5E2E2E2E2E2E2E2E2E2E2E2E2E2E2E2E2E2E2E2E2E2E2E2E2E2E2E2E2E2E2E2E2E2E2E2E2E2E2E2E2F5E2
310
E2E2E2E2E2E2E2E2E2E2E2E2E2E2E2E2F5E2F5F5E2F5E2E2E2E2E2E2E2E2E2E2E2E2E2E2E2E2E2F5E2E2E2E2E2E2E2E2E2E2E2E2E2E2E2E2E2E2E2E2E2E2E2E2E2E2E2E2E2E2E2E2E2E2E2E2F5F5F5F5F5F5F5F5F5F5F5F5F5F5F5F5F5F5F5F5F5F5F5F5F5F5F5E2E2E2F5F5F5F5F5F5F5F5F5F5F5F5F5F5F5F5F5F5F5F5F5
310
F5F5F5F5F5F5F5F5F5F5F5F5F5F5F5F5F5F5E2E2E2E2E2E2E2E2E2E2E2E2E2E2E2E2E2E2E2E2E2E2E2E2E2E2E2E2E2E2E2E2E2F5E2E2E2E2E2E2E2E2E2E2E2E2E2E2E2E2E2F5E2F5F5E2F5E2E2E2E2E2E2E2E2E2E2E2E2E2E2E2E2E2F5E2E2E2E2E2E2E2E2E2E2E2E2E2E2E2E2E2E2E2E2E2E2E2E2E2E2E2E2E2E2E2E2E2E2
310
E2E2F5F5E2E2E2E2F5F5E2F5E2E2E2F5E2F5E2E2E2E2F5E2F5E2E2F5F5E2E2E2F5F5F5E2E2E2F5E2E2F5F5E2F5E2E2E2E2E2E2E2E2E2E2F5E2F5F5E2F5F5F5F5F5F5F5F5E2E2F5E2E2E2E2E2E2E2E2E2E2E2E2E2E2E2E2E2E2E2E2E2E2E2E2E2E2E2E2E2E2E2E2E2F5E2E2E2E2E2E2E2E2E2E2E2E2E2E2E2E2E2F5E2F5F5E2
310
E2E2E2E2E2E2E2E2E2E2E2E2E2E2E2E2E2E2F5E2E2E2E2E2E2E2E2E2E2E2E2E2E2E2E2E2E2E2E2E2E2E2E2E2E2E2E2E2E2E2E2E2E2E2E2F5F5E2E2E2E2F5F5F5F5F5F5F5F5F5F5F5F5F5F5F5E2F5E2E2F5F5E2E2E2F5F5F5F5E2E2F5F5F5F5F5E2F5E2E2E2E2E2E2E2E2E2E2F5E2F5F5F5F5F5F5F5E2E2E2F5E2E2F5E2E2E2
310
E2E2E2E2E2E2E2E2E2E2E2E2E2E2E2E2E2E2E2E2E2E2E2E2E2E2E2E2E2E2F5E2E2E2E2E2E2E2E2E2E2E2E2E2E2E2E2E2E2E2F5F5E2E2E2E2E2E2E2E2E2E2E2E2E2E2E2E2E2E2E2F5E2E2E2E2E2E2E2E2E2E2E2E2E2E2E2E2E2E2E2E2E2E2E2E2E2E2E2E2E2E2E2E2E2E2E2E2F5E2E2E2E2E2F5F5F5F5F5E2E2F5E2F5E2F5E2
310
E2F5E2F5E2E2F5F5E2E2E2F5F5F5F5E2E2F5F5F5F5F5F5F5E2E2E2E2E2E2E2E2E2E2F5F5F5E2E2F5F5F5F5E2E2F5F5E2E2F5E2E2E2E2E2E2E2E2E2E2E2E2E2E2E2E2E2E2E2E2E2E2E2E2E2E2E2E2E2E2E2E2E2F5E2E2E2E2E2E2E2E2E2E2E2E2E2E2E2E2E2E2E2F5F5E2E2E2E2E2E2E2E2E2E2E2E2E2E2E2E2E2E2E2F5E2E2
310
E2E2E2E2E2E2E2E2E2E2E2E2E2E2E2E2E2E2E2E2E2E2E2E2E2E2E2E2E2E2E2E2E2E2F5E2E2E2E2E2F5F5F5F5F5E2E2F5E2F5E2F5E2E2F5E2F5E2E2F5E2E2E2E2F5F5F5F5E2E2F5F5F5F5F5F5F5E2E2E2E2E2E2E2E2E2E2F5F5F5E2E2F5F5F5F5E2E2E2F5E2E2F5E2E2E2E2E2E2E2E2E2E2E2E2E2E2E2E2E2E2E2E2E2E2E2E2
310
E2E2E2E2E2E2E2E2E2F5E2E2E2E2E2E2E2E2E2E2E2E2E2E2E2E2E2E2E2F5F5E2E2E2E2E2E2E2E2E2E2E2E2E2E2E2E2E2E2E2F5E2E2E2E2E2E2E2E2E2E2E2E2E2E2E2E2E2E2E2E2E2E2E2E2E2E2E2E2E2E2E2E2E2E2E2E2F5E2E2E2E2E2F5F5F5F5F5E2E2F5E2F5E2F5E2E2F5E2F5E2E2F5F5E2E2E2F5F5F5F5E2E2F5F5F5F5
310
F5E2F5E2E2E2E2E2E2E2E2E2E2F5E2F5E2E2F5F5F5F5E2E2E2F5E2E2F5E2E2E2E2E2E2E2E2E2E2E2E2E2E2E2E2E2E2E2E2E2E2E2E2E2E2E2E2E2E2E2E2E2F5E2E2E2E2E2E2E2E2E2E2E2E2E2E2E2E2E2E2E2F5F5E2E2E2E2E2E2E2E2E2E2E2E2E2E2E2E2E2E2E2F5E2E2E2E2E2E2E2E2E2E2E2E2E2E2E2E2E2E2E2E2E2E2E2
310
E2E2E2E2E2E2E2E2E2E2E2E2E2F5E2E2E2E2E2F5F5F5F5F5E2E2F5E2F5E2F5E2E2F5E2F5E2E2F5F5E2E2E2F5F5F5F5E2E2F5F5F5F5F5E2F5E2E2E2E2E2E2E2E2E2E2F5E2F5E2E2F5F5F5F5E2E2E2F5E2E2F5E2E2E2E2E2E2E2E2E2E2E2E2E2E2E2E2E2E2E2E2E2E2E2E2E2E2E2E2E2E2E2E2E2F5E2E2E2E2E2E2E2E2E2E2E2
310
E2E2E2E2E2E2E2E2F5F5E2E2E2E2E2E2E2E2E2E2E2E2E2E2E2E2E2E2E2F5E2E2E2E2E2E2E2E2E2E2E2E2E2E2E2E2E2E2E2E2E2E2E2E2E2E2E2E2E2E2E2E2E2E2E2E2F5E2E2E2E2E2F5F5F5F5F5E2E2F5E2F5E2F5E2E2F5F5F5F5F5F5F5E2E2E2F5F5F5F5E2E2F5F5F5F5F5F5F5F5F5F5F5F5F5F5F5F5F5F5F5F5E2E2F5F5F5
310
F5E2E2E2F5E2E2F5E2E2E2E2E2E2E2E2E2E2E2E2E2E2E2E2E2E2E2E2E2E2E2E2E2E2E2E2E2E2E2E2E2F5E2E2E2E2E2E2E2E2E2E2E2E2E2E2E2E2E2E2E2F5F5E2E2E2E2E2E2E2E2E2E2E2E2E2E2E2E2E2E2E2F5E2E2E2E2E2E2E2E2E2E2E2E2E2E2E2E2E2E2E2E2E2E2E2E2E2E2E2E2E2E2E2E2E2E2E2E2F5E2E2E2E2E2F5F5
310
F5F5F5E2E2F5E2F5E2F5E2E2F5E2E2E2E2F5F5E2E2E2F5F5F5F5E2E2F5F5F5F5E2E2E2E2E2E2E2E2E2E2E2E2E2E2E2E2E2E2F5F5F5F5E2E2E2F5E2E2F5E2E2E2E2E2E2E2E2E2E2E2E2E2E2E2E2E2E2E2E2E2E2E2E2E2E2E2E2E2E2E2E2E2F5E2E2E2E2E2E2E2E2E2E2E2E2E2E2E2E2E2E2E2F5F5E2E2E2E2E2E2E2E2E2E2E2
310
E2E2E2E2E2E2E2E2F5E2E2E2E2E2E2E2E2E2E2E2E2E2E2E2E2E2E2E2E2E2E2E2E2E2E2E2E2E2E2E2E2E2E2E2E2F5E2E2E2E2E2F5F5F5F5F5E2E2F5E2F5E2F5E2E2F5E2E2E2E2F5E2E2E2E2F5F5F5F5E2E2F5F5F5F5E2E2E2E2E2E2E2E2E2E2E2E2E2E2E2E2E2E2F5F5F5F5E2E2E2F5E2E2F5E2E2E2E2E2E2E2E2E2E2E2E2E2
310
E2E2E2E2E2E2E2E2E2E2E2E2E2E2E2E2E2E2E2E2F5E2E2E2E2E2E2E2E2E2E2E2E2E2E2E2E2E2E2E2F5F5E2F5E2E2E2E2E2E2E2E2E2E2E2E2E2E2E2E2E2F5E2E2E2E2E2E2E2E2E2E2E2E2E2E2E2E2E2E2E2E2E2E2E2E2E2E2E2E2E2E2E2E2E2E2E2E2F5E2E2E2E2E2F5F5F5F5F5E2E2F5E2F5E2F5E2E2F5E2E2E2E2F5F5E2E2
310
E2F5F5F5F5E2E2F5F5F5F5E2E2E2E2E2E2E2E2E2E2E2E2E2E2E2E2E2E2F5F5F5F5E2E2E2F5E2E2F5E2E2E2E2E2E2E2E2E2E2E2E2E2E2E2E2E2E2E2E2E2E2E2E2E2E2E2E2E2E2E2E2E2F5E2E2E2E2E2E2E2E2E2E2E2E2E2E2E2E2E2F5E2F5F5E2F5E2E2E2E2E2E2E2E2E2E2E2E2E2E2E2E2E2F5E2E2E2E2E2E2E2E2E2E2E2E2
310
E2E2E2E2E2E2E2E2E2E2E2E2E2E2E2E2E2E2E2E2E2E2E2E2F5E2E2E2E2E2F5F5F5F5F5E2E2F5E2F5E2F5E2E2F5E2E2E2E2F5F5E2E2E2F5F5F5F5E2E2F5F5F5F5E2E2E2E2E2E2E2E2E2E2E2E2E2E2E2E2E2E2F5F5F5F5F5F5F5F5E2E2F5E2E2E2E2E2E2E2E2E2E2E2E2E2E2E2E2E2E2E2E2E2E2E2E2E2E2E2E2E2E2E2E2E2F5
310
E2E2E2E2E2E2E2E2E2E2E2E2E2E2E2E2E2F5E2F5F5E2F5E2E2E2E2E2E2E2E2E2E2E2E2E2E2E2E2E2F5E2E2E2E2E2E2E2E2E2E2E2E2E2E2E2E2E2E2E2E2E2E2E2E2E2E2E2E2E2E2E2E2E2E2E2E2F5E2E2E2E2E2F5F5F5F5F5E2E2F5E2F5E2F5E2E2F5E2E2E2E2F5F5E2E2E2F5F5F5F5E2E2F5F5F5F5E2E2E2E2E2E2E2E2E2E2
310
E2E2E2E2E2E2E2E2F5F5F5F5F5F5F5F5E2E2F5E2E2E2E2E2E2E2E2E2E2E2E2E2E2E2E2E2E2E2E2E2E2E2E2E2E2E2E2E2E2E2E2E2F5E2E2E2E2E2E2E2E2E2E2E2E2E2E2E2E2E2F5E2F5F5E2F5E2E2E2E2E2E2E2E2E2E2E2E2E2E2E2E2E2F5E2E2E2E2E2E2E2E2E2E2E2E2E2E2E2E2E2E2E2E2E2E2E2E2E2E2E2E2E2E2E2E2E2
310
E2F5F5F5E2E2E2E2E2F5F5F5F5F5E2E2F5E2F5E2F5E2E2F5E2E2E2E2F5F5E2E2E2F5F5F5F5E2E2F5F5F5F5E2E2E2E2E2E2E2E2E2E2E2E2E2E2E2E2E2E2F5F5F5F5F5F5F5F5E2E2F5E2E2E2E2E2E2E2E2E2E2E2E2E2E2E2E2E2E2E2E2E2E2E2E2E2E2E2E2E2E2E2E2E2F5E2E2E2E2E2E2E2E2E2E2E2E2E2E2E2E2E2F5E2F5F5
310
E2F5E2E2E2E2E2E2E2E2E2E2E2E2E2E2E2E2E2F5E2E2E2E2E2E2E2E2E2E2E2E2E2E2E2E2E2E2E2E2E2E2E2E2E2E2E2E2E2E2E2E2E2E2F5F5F5E2E2E2E2E2F5F5F5F5F5E2E2F5E2F5E2F5E2E2F5E2E2E2E2F5F5E2E2E2F5F5F5F5E2E2F5F5F5F5E2E2E2E2E2E2E2E2E2E2E2E2E2E2E2E2E2E2F5F5F5F5F5F5F5F5E2E2F5E2E2
310
E2E2E2E2E2E2E2E2E2E2E2E2E2E2E2E2E2E2E2E2E2E2E2E2E2E2E2E2E2E2E2F5E2E2E2E2E2E2E2E2E2E2E2E2E2E2E2E2E2F5E2F5F5E2F5E2E2E2E2E2E2E2E2E2E2E2E2E2E2E2E2E2F5E2E2E2E2E2E2E2E2E2E2E2E2E2E2E2E2E2E2E2E2E2E2E2E2E2E2E2E2E2E2E2E2E2E2F5F5F5E2E2E2E2E2F5F5F5F5F5E2E2F5E2F5E2F5
310
E2E2F5E2E2E2E2F5E2E2E2E2F5F5F5F5E2E2F5F5F5F5E2E2E2E2E2E2E2E2E2E2E2E2E2E2E2E2E2E2F5F5F5F5F5F5F5F5E2E2F5E2E2E2E2E2E2E2E2E2E2E2E2E2E2E2E2E2E2E2E2E2E2E2E2E2E2E2E2E2E2E2E2E2F5E2E2E2E2E2E2E2E2E2E2E2E2E2E2E2E2E2F5E2F5F5E2F5E2E2E2E2E2E2E2E2E2E2E2E2E2E2E2E2E2F5E2
310
E2E2E2E2E2E2E2E2E2E2E2E2E2E2E2E2E2E2E2E2E2E2E2E2E2E2E2E2E2E2E2E2E2F5F5F5E2E2E2E2E2F5F5F5F5F5E2E2F5E2F5E2F5E2E2F5E2E2E2E2F5F5E2E2E2F5F5F5F5E2E2F5F5F5F5E2E2E2E2E2E2E2E2E2E2E2E2E2E2E2E2E2E2F5F5F5F5F5F5F5F5E2E2F5E2E2E2E2E2E2E2E2E2E2E2E2E2E2E2E2E2E2E2E2E2E2E2
310
E2E2E2E2E2E2E2E2E2E2F5E2E2E2E2E2E2E2E2E2E2E2E2E2E2E2E2E2F5E2F5F5E2F5E2E2E2E2E2E2E2E2E2E2E2E2E2E2E2E2E2F5E2E2E2E2E2E2E2E2E2E2E2E2E2E2E2E2E2E2E2E2E2E2E2E2E2E2E2E2E2E2E2E2E2E2F5F5F5E2E2E2E2E2F5F5F5F5F5E2E2F5E2F5E2F5E2E2F5E2E2E2E2F5F5E2E2E2F5F5F5F5E2E2F5F5F5
310
F5E2E2E2E2E2E2E2E2E2E2E2E2E2E2E2E2E2E2F5F5F5F5E2F5E2F5E2E2F5E2E2E2E2E2E2E2E2E2E2E2E2E2E2E2E2E2E2E2E2E2E2E2E2E2E2E2E2E2E2E2E2E2F5E2E2E2E2E2E2E2E2E2E2E2E2E2E2E2E2E2F5E2F5F5E2F5E2E2E2E2E2E2E2E2E2E2E2E2E2E2E2E2E2F5E2E2E2E2E2E2E2E2E2E2E2E2E2E2E2E2E2E2E2E2E2E2
310
E2E2E2E2E2E2E2E2E2E2E2E2E2E2F5E2E2E2E2E2F5F5F5F5F5E2E2F5E2F5E2F5E2E2F5E2E2E2E2F5F5E2E2E2F5F5F5F5E2E2F5F5F5F5E2E2E2E2E2E2E2E2E2E2E2E2E2E2E2E2E2E2F5F5F5F5F5F5F5F5E2E2F5E2E2E2E2E2E2E2E2E2E2E2E2E2E2E2E2E2E2E2E2E2E2E2E2E2E2E2E2E2E2E2E2E2F5E2E2E2E2E2E2E2E2E2E2
310
E2E2E2E2E2E2E2F5E2F5F5E2F5E2E2E2E2E2E2E2E2E2E2E2E2E2E2E2E2E2F5E2E2E2E2E2E2E2E2E2E2E2E2E2E2E2E2E2E2E2E2E2E2E2E2E2E2E2E2E2E2E2E2E2E2F5F5F5E2E2E2E2E2F5F5F5F5F5E2E2F5E2F5E2F5E2E2F5E2E2E2E2F5F5E2E2E2F5F5F5F5E2E2F5F5F5F5E2E2E2E2E2E2E2E2E2E2E2E2E2E2E2E2E2E2F5F5
310
F5F5F5F5F5F5F5F5F5E2E2E2E2E2E2E2E2E2E2E2E2E2E2E2E2E2E2E2E2E2E2E2E2E2E2E2E2E2E2E2E2E2F5E2E2E2E2E2E2E2E2E2E2E2E2E2E2E2E2E2F5E2F5F5E2F5E2E2E2E2E2E2E2E2E2E2E2E2E2E2E2E2E2F5E2E2E2E2E2E2E2E2E2E2E2E2E2E2E2E2E2E2E2E2E2E2E2E2E2E2E2E2E2E2E2E2E2E2F5F5F5E2E2E2E2E2F5
310
F5F5F5F5E2E2F5E2F5E2F5E2E2F5E2E2E2E2F5F5E2E2E2F5F5F5F5E2E2F5F5F5F5E2E2E2E2E2E2E2E2E2E2E2E2E2E2E2E2E2E2F5F5F5F5F5F5F5F5F5F5F5E2E2E2E2E2E2E2E2E2E2E2E2E2E2E2E2E2E2E2E2E2E2E2E2E2E2E2E2E2E2E2E2E2F5E2E2E2E2E2E2E2E2E2E2E2E2E2E2E2E2E2F5E2F5F5E2F5E2E2E2E2E2E2E2E2
310
E2E2E2E2E2E2E2E2E2F5E2E2E2E2E2E2E2E2E2E2E2E2E2E2E2E2E2E2E2E2E2E2E2E2E2E2E2E2E2E2E2E2E2E2F5F5F5E2E2E2E2E2F5F5F5F5F5E2E2F5E2F5E2F5E2E2F5E2E2E2E2F5E2E2E2E2F5F5F5F5E2E2F5F5F5F5E2E2E2E2E2E2E2E2E2E2E2E2E2E2E2E2E2E2F5F5F5F5F5F5F5F5F5F5F5E2E2E2E2E2E2E2E2E2E2E2E2
310
E2E2E2E2E2E2E2E2E2E2E2E2E2E2E2E2E2E2E2E2E2F5E2E2E2E2E2E2E2E2E2E2E2E2E2E2E2E2E2F5E2F5F5E2F5E2E2E2E2E2E2E2E2E2E2E2E2E2E2E2E2E2F5E2E2E2E2E2E2E2E2E2E2E2E2E2E2E2E2E2E2E2E2E2E2E2E2E2E2E2E2E2E2E2E2E2E2F5F5F5E2E2E2E2E2F5F5F5F5F5E2E2F5E2F5E2F5E2E2F5E2E2E2E2F5F5E2
310
E2E2F5F5F5F5E2E2F5F5F5F5E2E2E2E2E2E2E2E2E2E2E2E2E2E2E2E2E2E2F5F5F5F5F5F5F5F5F5F5F5E2E2E2E2E2E2E2E2E2E2E2E2E2E2E2E2E2E2E2E2E2E2E2E2E2E2E2E2E2E2E2E2E2F5E2E2E2E2E2E2E2E2E2E2E2E2E2E2E2E2E2F5E2F5F5E2F5E2E2E2E2E2E2E2E2E2E2E2E2E2E2E2E2E2F5E2E2E2E2E2E2E2E2E2E2E2
310
E2E2E2E2E2E2E2E2E2E2E2E2E2E2E2E2E2E2E2E2E2E2E2F5F5F5E2E2E2E2E2F5F5F5F5F5E2E2F5E2F5E2F5E2E2F5E2E2E2E2F5F5E2E2E2F5F5F5F5E2E2F5F5F5F5E2E2E2E2E2E2E2E2E2E2E2E2E2E2E2E2E2E2F5F5F5F5F5F5F5F5F5F5F5E2E2E2E2E2E2E2E2E2E2E2E2E2E2E2E2E2E2E2E2E2E2E2E2E2E2E2E2E2E2E2E2E2
310
F5E2E2E2E2E2E2E2E2E2E2E2E2E2E2E2E2E2F5E2F5F5E2F5E2E2E2E2E2E2E2E2E2E2E2E2E2E2E2E2E2F5E2E2E2E2E2E2E2E2E2E2E2E2E2E2E2E2E2E2E2E2E2E2E2E2E2E2E2E2E2E2E2E2E2E2E2E2F5E2E2E2E2E2F5F5F5F5F5E2E2F5E2F5E2F5E2E2F5E2E2E2E2F5F5E2E2E2F5F5F5F5E2E2F5F5F5F5E2E2E2E2E2E2E2E2E2
310
E2E2E2E2E2E2E2E2E2F5F5F5F5F5F5F5F5E2E2F5E2E2E2E2E2E2E2E2E2E2E2E2E2E2E2E2E2E2E2E2E2E2E2E2E2E2E2E2E2E2E2E2E2F5E2E2E2E2E2E2E2E2E2E2E2E2E2E2E2E2E2F5E2F5F5E2F5E2E2E2E2E2E2E2E2E2E2E2E2E2E2E2E2E2F5E2E2E2E2E2E2E2E2E2E2E2E2E2E2E2E2E2E2E2E2E2E2E2E2E2E2E2E2E2E2E2E2
310
E2E2F5F5F5E2E2E2E2E2F5F5F5F5F5E2E2F5E2F5E2F5E2E2F5E2E2E2E2F5F5E2E2E2F5F5F5F5E2E2F5F5F5F5E2F5F5F5F5F5F5F5F5F5F5F5F5F5F5F5F5E2F5F5F5F5E2F5F5F5E2E2F5E2E2E2E2E2E2E2E2E2E2E2E2E2E2E2E2E2E2E2E2E2E2E2E2E2E2E2E2E2E2E2E2E2F5E2E2E2E2E2E2E2E2E2E2E2E2E2E2E2E2E2F5E2F5
310
F5E2E2E2E2E2E2E2E2E2E2E2E2E2E2E2E2E2E2E2F5E2E2E2E2E2E2E2E2E2E2E2E2E2E2E2E2E2E2E2E2E2E2E2E2E2E2E2E2E2E2E2E2E2E2F5F5F5E2E2E2E2E2F5F5F5F5F5E2E2F5E2F5E2F5E2E2F5E2E2E2E2F5F5E2E2E2F5F5F5F5E2E2F5F5F5F5E2F5E2F5F5F5F5F5F5F5F5F5F5F5F5E2F5E2F5F5F5F5E2F5F5F5E2E2F5E2
310
E2E2E2E2E2E2E2E2E2E2E2E2E2E2E2E2E2E2E2E2E2E2E2E2E2E2E2E2E2E2E2E2F5E2E2E2E2E2E2E2E2E2E2E2E2E2E2E2E2E2E2E2F5F5E2E2E2E2E2E2E2E2E2E2E2E2E2E2E2E2E2E2E2F5E2E2E2E2E2E2E2E2E2E2E2E2E2E2E2E2E2E2E2E2E2E2E2E2E2E2E2E2E2E2E2E2E2E2F5F5F5E2E2E2E2E2F5F5F5F5F5E2E2F5E2F5E2
310
F5E2E2F5E2E2E2E2F5E2E2E2E2F5F5F5F5E2E2F5F5F5F5E2F5E2F5F5F5F5F5F5F5F5F5F5F5F5E2F5E2F5F5F5F5E2F5F5F5E2E2F5E2E2E2E2E2E2E2E2E2E2E2E2E2E2E2E2E2E2E2E2E2E2E2E2E2E2E2E2E2E2E2E2E2F5E2E2E2E2E2E2E2E2E2E2E2E2E2E2E2E2E2E2E2F5F5E2E2E2E2E2E2E2E2E2E2E2E2E2E2E2E2E2E2E2F5
310
E2E2E2E2E2E2E2E2E2E2E2E2E2E2E2E2E2E2E2E2E2E2E2E2E2E2E2E2E2E2E2E2E2E2F5F5F5E2E2E2E2E2F5F5F5F5F5E2E2F5E2F5E2F5E2E2F5E2E2E2E2F5F5E2E2E2F5F5F5F5E2E2F5F5F5F5E2F5E2F5F5F5F5F5F5F5F5F5F5F5F5E2F5E2F5F5F5F5F5F5F5F5E2E2F5E2E2E2E2E2E2E2E2E2E2E2E2E2E2E2E2E2E2E2E2E2E2
310
E2E2E2E2E2E2E2E2E2E2E2F5E2E2E2E2E2E2E2E2E2E2E2E2E2E2E2E2E2E2E2F5F5E2E2E2E2E2E2E2E2E2E2E2E2E2E2E2E2E2E2E2F5E2E2E2E2E2E2E2E2E2E2E2E2E2E2E2E2E2E2E2E2E2E2E2E2E2E2E2E2E2E2E2E2E2E2E2E2F5E2E2E2E2E2F5F5F5F5F5E2E2F5E2F5E2F5E2E2F5E2E2E2E2F5F5E2E2E2F5F5F5F5E2E2F5F5
310
F5F5E2F5E2F5F5F5F5F5F5F5F5F5F5F5F5E2F5E2F5F5F5F5F5E2F5F5E2E2F5E2E2E2E2E2E2E2E2E2E2E2E2E2E2E2E2E2E2E2E2E2E2E2E2E2E2E2E2E2E2E2E2E2F5E2E2E2E2E2E2E2E2E2E2E2E2E2E2E2E2E2E2E2F5F5E2E2E2E2E2E2E2E2E2E2E2E2E2E2E2E2E2E2E2F5E2E2E2E2E2E2E2E2E2E2E2E2E2E2E2E2E2E2E2E2E2
310
E2E2E2E2E2E2E2E2E2E2E2E2E2E2E2F5E2E2E2E2E2F5F5F5F5F5F5F5F5F5F5F5F5F5F5F5E2E2E2E2F5F5E2E2E2F5F5F5F5F5F5F5F5F5F5F5F5F5F5F5F5F5F5F5F5F5F5F5F5F5F5F5F5F5F5F5F5E2F5E2F5E2E2F5E2E2E2E2E2E2E2E2E2E2E2E2E2E2E2E2E2E2E2E2E2E2E2E2E2E2E2E2E2E2E2E2E2F5E2E2E2E2E2E2E2E2E2
310
E2E2E2E2E2E2E2E2E2E2F5F5E2E2E2E2E2E2E2E2E2E2E2E2E2E2E2E2E2E2E2F5E2E2E2E2E2E2E2E2E2E2E2E2E2E2E2E2E2E2E2E2E2E2E2E2E2E2E2E2E2E2E2E2E2E2E2E2F5E2E2E2E2E2F5F5E2E2E2E2E2E2E2E2E2E2E2E2F5E2E2E2E2F5F5E2E2E2F5F5F5F5F5F5F5F5F5F5F5F5F5F5F5F5F5F5F5F5F5F5F5F5F5F5F5F5F5
310
F5F5F5E2E2E2F5E2E2F5E2E2E2E2E2E2E2E2E2E2E2E2E2E2E2E2E2E2E2E2E2E2E2E2E2E2E2E2E2E2E2E2E2F5E2E2E2E2E2E2E2E2E2E2E2E2E2E2E2E2E2E2E2F5F5E2E2E2E2E2E2E2E2E2E2E2E2E2E2E2E2E2E2E2F5E2E2E2E2E2E2E2E2E2E2E2E2E2E2E2E2E2E2E2E2E2E2E2E2E2E2E2E2E2E2E2E2E2E2E2E2F5E2E2E2E2E2
310
F5F5E2E2E2E2E2E2E2E2E2E2E2E2F5E2E2E2E2F5E2E2E2E2F5F5F5F5F5F5F5F5F5F5F5F5F5F5F5F5F5F5F5F5F5F5F5F5F5F5F5F5F5F5F5F5E2E2E2F5E2E2F5E2E2E2E2E2E2E2E2E2E2E2E2E2E2E2E2E2E2E2E2E2E2E2E2E2E2E2E2E2E2E2E2E2F5E2E2E2E2E2E2E2E2E2E2E2E2E2E2E2E2E2E2E2F5F5E2E2E2E2E2E2E2E2E2
310
E2E2E2E2E2E2E2E2E2E2F5E2E2E2E2E2E2E2E2E2E2E2E2E2E2E2E2E2E2E2E2E2E2E2E2E2E2E2E2E2E2E2E2E2E2E2E2F5E2E2E2E2E2F5F5E2E2E2E2E2E2E2E2E2E2E2E2F5E2E2E2E2F5F5E2E2E2F5F5F5F5F5F5F5F5F5F5F5F5F5F5F5F5F5F5F5F5F5F5F5F5F5F5F5F5F5F5F5F5E2E2E2F5E2E2F5E2E2E2E2E2E2E2E2E2E2E2
310
E2E2E2E2E2E2E2E2E2E2E2E2E2E2E2E2E2E2E2E2E2E2F5E2E2E2E2E2E2E2E2E2E2E2E2E2E2E2E2E2E2E2F5F5E2E2E2E2E2E2E2E2E2E2E2E2E2E2E2E2E2E2E2F5E2E2E2E2E2E2E2E2E2E2E2E2E2E2E2E2E2E2E2E2E2E2E2E2E2E2E2E2E2E2E2E2E2E2E2E2F5E2E2E2E2E2F5F5E2E2E2E2E2E2E2E2E2E2E2E2F5E2E2E2E2F5F5
310
E2E2E2F5F5F5F5F5F5F5F5F5F5F5F5F5F5F5F5F5F5F5F5F5F5F5F5F5F5F5F5F5F5F5F5E2E2E2F5E2E2F5E2E2E2E2E2E2E2E2E2E2E2E2E2E2E2E2E2E2E2E2E2E2E2E2E2E2E2E2E2E2E2E2E2F5E2E2E2E2E2E2E2E2E2E2E2E2E2E2E2E2E2E2E2F5F5E2F5E2E2E2E2E2E2E2E2E2E2E2E2E2E2E2E2E2F5E2E2E2E2E2E2E2E2E2E2
310
E2E2E2E2E2E2E2E2E2E2E2E2E2E2E2E2E2E2E2E2E2E2E2E2E2E2F5E2E2E2E2E2F5F5E2E2E2E2E2E2E2E2E2E2E2E2F5E2E2E2E2F5F5E2E2E2F5F5F5F5F5F5F5F5F5F5F5F5F5F5F5F5F5F5F5F5F5F5F5F5F5F5F5F5F5F5F5F5E2E2E2F5E2E2F5E2E2E2E2E2E2E2E2E2E2E2E2E2E2E2E2E2E2E2E2E2E2E2E2E2E2E2E2E2E2E2E2
310
E2F5E2E2E2E2E2E2E2E2E2E2E2E2E2E2E2E2E2F5E2F5F5E2F5E2E2E2E2E2E2E2E2E2E2E2E2E2E2E2E2E2F5E2E2E2E2E2E2E2E2E2E2E2E2E2E2E2E2E2E2E2E2E2E2E2E2E2E2E2E2E2E2E2E2E2E2E2E2F5E2E2E2E2E2F5F5E2E2E2E2E2E2E2E2E2E2E2E2F5E2E2E2E2F5F5E2E2E2F5F5F5F5F5F5F5F5F5F5F5F5F5F5F5F5F5F5
310
F5F5F5F5F5F5F5F5F5F5F5F5F5F5E2E2E2F5E2E2F5E2E2E2E2E2E2E2E2E2E2E2E2E2E2E2E2E2E2E2E2E2E2E2E2E2E2E2E2E2E2E2E2E2F5E2E2E2E2E2E2E2E2E2E2E2E2E2E2E2E2E2F5E2F5F5E2F5E2E2E2E2E2E2E2E2E2E2E2E2E2E2E2E2E2F5E2E2E2E2E2E2E2E2E2E2E2E2E2E2E2E2E2E2E2E2E2E2E2E2E2E2E2E2E2E2E2
310
E2E2E2E2E2F5E2E2E2E2E2F5F5E2E2E2E2E2E2E2E2E2E2E2E2F5E2E2E2E2F5F5E2E2E2F5F5F5F5F5F5F5F5F5F5F5F5F5F5F5F5F5F5F5F5F5F5F5F5F5F5F5F5F5F5F5F5E2E2E2F5E2E2F5E2E2E2E2E2E2E2E2E2E2E2E2E2E2E2E2E2E2E2E2E2E2E2E2E2E2E2E2E2E2E2E2E2F5E2E2E2E2E2E2E2E2E2E2E2E2E2E2E2E2E2F5E2
310
F5F5E2F5E2E2E2E2E2E2E2E2E2E2E2E2E2E2E2E2E2F5E2E2E2E2E2E2E2E2E2E2E2E2E2E2E2E2E2E2E2E2E2E2E2E2E2E2E2E2E2E2E2E2E2E2E2E2F5E2E2E2E2E2F5F5E2E2E2E2E2E2E2E2E2E2E2E2F5E2E2E2E2F5E2E2E2E2F5F5F5F5F5F5F5F5F5F5F5F5F5F5F5F5F5F5F5F5F5F5F5F5F5F5F5F5F5F5F5F5E2E2E2F5E2E2F5
310
E2E2E2E2E2E2E2E2E2E2E2E2E2E2E2E2E2E2E2E2E2E2E2E2E2E2E2E2E2E2E2E2E2F5E2E2E2E2E2E2E2E2E2E2E2E2E2E2E2E2E2F5E2F5F5E2F5E2E2E2E2E2E2E2E2E2E2E2E2E2E2E2E2E2F5E2E2E2E2E2E2E2E2E2E2E2E2E2E2E2E2E2E2E2E2E2E2E2E2E2E2E2E2E2E2E2E2E2E2E2E2F5E2E2E2E2E2F5F5E2E2E2E2E2E2E2E2
310
E2E2E2E2F5E2E2E2E2F5F5E2E2E2F5F5F5F5F5F5F5F5F5F5F5F5F5F5F5F5F5F5F5F5F5F5F5F5F5F5F5F5F5F5F5F5E2E2F5F5E2E2F5E2E2E2E2E2E2E2E2E2E2E2E2E2E2E2E2E2E2E2E2E2E2E2E2E2E2E2E2E2E2E2E2E2F5E2E2E2E2E2E2E2E2E2E2E2E2E2E2E2E2E2F5E2F5F5E2F5E2E2E2E2E2E2E2E2E2E2E2E2E2E2E2E2E2
310
F5E2E2E2E2E2E2E2E2E2E2E2E2E2E2E2E2E2E2E2E2E2E2E2E2E2E2E2E2E2E2E2E2E2E2E2E2F5F5E2E2E2E2F5F5E2E2E2E2E2E2E2E2E2E2E2E2F5E2E2E2E2F5F5E2E2E2F5F5F5F5F5F5F5F5F5F5F5F5F5F5F5F5F5F5F5F5F5F5F5F5F5F5F5F5F5F5F5F5E2E2E2F5E2E2F5E2E2E2E2E2E2E2E2E2E2E2E2E2E2E2E2E2E2E2E2E2
310
E2E2E2E2E2E2E2E2E2E2E2E2F5E2E2E2E2E2E2E2E2E2E2E2E2E2E2E2E2E2F5E2F5F5E2F5E2E2E2E2E2E2E2E2E2E2E2E2E2E2E2E2E2F5E2E2E2E2E2E2E2E2E2E2E2E2E2E2E2E2E2E2E2E2E2E2E2E2E2E2E2E2E2E2E2E2E2E2E2E2F5F5E2E2E2E2F5F5E2E2E2E2E2E2E2E2E2E2E2E2F5E2E2E2E2F5F5E2E2E2F5F5F5F5F5F5F5
310
F5F5F5F5F5F5F5F5F5F5F5F5F5F5F5F5F5F5F5F5F5F5F5F5F5F5F5F5F5E2E2F5E2E2E2E2E2E2E2E2E2E2E2E2E2E2E2E2E2E2E2E2E2E2E2E2E2E2E2E2E2E2E2E2E2F5E2E2E2E2E2E2E2E2E2E2E2E2E2E2E2E2E2F5E2F5F5E2F5E2E2E2E2E2E2E2E2E2E2E2E2E2E2E2E2E2F5E2E2E2E2E2E2E2E2E2E2E2E2E2E2E2E2E2E2E2E2
310
E2E2E2E2E2E2E2E2E2E2E2E2E2E2E2E2F5F5F5F5F5F5F5F5F5F5E2F5F5F5F5F5E2F5F5F5F5F5E2F5F5F5F5E2E2E2F5F5F5F5F5F5F5F5F5F5F5F5F5F5F5F5F5F5F5F5F5F5F5F5F5F5F5F5F5F5F5F5F5F5F5F5F5F5F5E2E2E2E2E2E2E2E2E2E2E2E2E2E2E2E2E2E2E2E2E2E2E2E2E2E2E2E2E2E2E2E2E2F5E2E2E2E2E2E2E2E2
310
E2E2E2E2E2E2E2E2E2F5E2F5F5E2F5E2E2E2E2E2E2E2E2E2E2E2E2E2E2E2E2E2F5E2E2E2E2E2E2E2E2E2E2E2E2E2E2E2E2E2E2E2E2E2E2E2E2E2E2E2E2E2E2E2E2E2E2E2E2E2E2E2E2E2E2F5F5E2E2E2E2E2E2E2E2E2E2E2E2F5E2E2E2E2F5E2E2E2E2E2E2E2E2E2E2E2E2E2E2E2E2E2E2E2E2E2E2E2E2E2E2E2E2E2E2E2E2
310
E2E2E2E2E2E2E2E2E2E2E2E2E2E2E2E2E2E2E2E2E2E2E2E2E2E2E2E2E2E2E2E2E2E2E2E2E2E2E2E2E2E2E2E2F5E2E2E2E2E2E2E2E2E2E2E2E2E2E2E2E2E2F5E2F5F5E2F5E2E2E2E2E2E2E2E2E2E2E2E2E2E2E2E2E2F5E2E2E2E2E2E2E2E2E2E2E2E2E2E2E2E2E2E2E2E2E2E2E2E2E2E2E2E2E2E2E2E2E2E2E2E2E2E2E2E2E2
310
E2F5F5E2E2E2E2E2E2E2E2E2E2E2E2F5E2E2E2E2F5E2E2E2E2E2E2E2E2E2E2E2E2E2E2E2E2E2E2E2E2E2E2E2E2E2E2E2E2E2E2E2E2E2E2E2E2E2E2E2E2E2E2E2E2E2E2E2E2E2E2E2E2E2E2E2E2E2E2E2E2E2E2E2E2E2E2E2E2E2E2E2E2E2E2E2E2F5E2E2E2E2E2E2E2E2E2E2E2E2E2E2E2E2E2F5E2F5F5E2F5E2E2E2E2E2E2
310
E2E2E2E2E2E2E2E2E2E2E2F5E2E2E2E2E2E2E2E2E2E2E2E2E2E2E2E2E2E2E2E2E2E2E2E2E2E2E2E2E2E2E2E2E2E2E2E2E2E2E2E2F5E2F5F5F5E2E2E2E2E2E2E2E2E2E2F5F5E2E2E2E2F5E2E2E2E2E2E2E2E2E2E2E2E2E2E2E2E2E2E2E2E2E2E2E2E2E2E2E2E2E2E2E2E2E2E2E2E2E2E2E2E2E2E2E2E2E2E2E2E2E2E2E2E2E2
310
E2E2E2E2E2E2E2E2E2E2E2E2E2E2E2E2E2E2E2E2E2E2E2F5E2E2E2E2E2E2E2E2E2E2E2E2E2E2E2E2E2F5E2F5F5E2F5E2E2E2E2E2E2E2E2E2E2E2E2E2E2E2E2E2F5E2E2E2E2E2E2E2E2E2E2E2E2E2E2E2E2E2E2E2E2E2E2E2E2E2E2E2E2E2E2E2E2E2E2E2E2F5F5F5F5F5F5F5F5F5F5F5F5F5F5F5F5F5F5F5F5F5E2E2E2E2F5
310
E2E2E2E2E2E2E2E2E2E2E2E2E2E2E2E2E2E2E2E2E2E2E2E2E2E2E2E2E2E2E2E2E2E2E2E2E2E2E2E2E2E2E2E2E2E2E2E2E2E2E2E2E2E2E2E2E2E2E2E2E2E2E2E2E2E2E2E2E2E2E2E2E2E2E2E2F5E2E2E2E2E2E2E2E2E2E2E2E2E2E2E2E2E2F5E2F5F5E2F5E2E2E2E2E2E2E2E2E2E2E2E2E2E2E2E2E2F5E2E2E2E2E2E2E2E2E2
310
E2E2E2E2E2E2E2E2E2E2E2E2E2E2E2E2E2E2E2E2E2E2E2E2E2E2E2E2F5F5E2E2E2F5E2E2E2E2E2F5F5F5F5E2E2E2E2F5E2E2E2E2F5E2E2E2E2E2E2E2E2E2E2E2E2E2E2E2E2E2E2E2E2E2E2E2E2E2E2E2E2E2E2E2E2E2E2E2E2E2E2E2E2E2E2E2E2E2E2E2E2E2E2E2E2E2E2E2E2E2E2E2E2E2E2E2E2E2E2E2E2E2E2E2E2E2E2
310
E2E2F5E2E2E2E2E2E2E2E2E2E2E2E2E2E2E2E2E2F5E2F5F5E2F5E2E2E2E2E2E2E2E2E2E2E2E2E2E2E2E2E2F5E2E2E2E2E2E2E2E2E2E2E2E2E2E2E2E2E2E2E2E2E2E2E2E2E2E2E2E2E2E2E2E2E2E2E2E2E2F5F5E2E2E2F5F5E2E2E2E2F5F5F5F5E2E2E2F5F5E2E2E2E2F5E2E2E2E2E2E2E2E2E2E2E2E2E2E2E2E2E2E2E2E2E2
310
E2E2E2E2E2E2E2E2E2E2E2E2E2E2E2E2E2E2E2E2E2E2E2E2E2E2E2E2E2E2E2E2E2E2E2E2E2E2E2E2E2E2E2E2E2E2E2E2E2E2E2E2E2E2E2F5E2E2E2E2E2E2E2E2E2E2E2E2E2E2E2E2E2F5E2F5F5E2F5E2E2E2E2E2E2E2E2E2E2E2E2E2E2E2E2E2F5E2E2E2E2E2E2E2E2E2E2E2E2E2E2E2E2E2E2E2E2E2E2E2E2E2E2E2E2E2E2
310
E2E2E2E2E2E2E2E2E2E2E2E2F5F5F5F5F5F5F5F5F5F5F5F5F5F5F5E2E2E2E2F5E2E2E2E2E2E2E2E2E2E2E2E2E2E2E2E2E2E2E2E2E2E2E2E2E2E2E2E2E2E2E2E2E2E2E2E2E2E2E2E2E2E2E2E2E2E2E2E2E2E2E2E2E2E2E2E2E2E2E2E2E2E2E2E2E2E2E2E2E2E2E2E2E2E2E2E2F5E2E2E2E2E2E2E2E2E2E2E2E2E2E2E2E2E2F5
310
E2F5F5E2F5E2E2E2E2E2E2E2E2E2E2E2E2E2E2E2E2E2F5E2E2E2E2E2E2E2E2E2E2E2E2E2E2E2E2E2E2E2E2E2E2E2E2E2E2E2E2E2E2E2E2E2E2E2E2E2E2E2E2E2E2F5E2E2E2E2E2F5F5F5E2E2E2E2E2E2E2E2E2E2F5E2E2E2E2E2E2E2E2E2E2E2E2E2E2E2E2E2E2E2E2E2E2E2E2E2E2E2E2E2E2E2E2E2E2E2E2E2E2E2E2E2E2
310
E2E2E2E2E2E2E2E2E2E2E2E2E2E2E2E2E2E2E2E2E2E2E2E2E2E2E2E2E2E2E2E2E2E2F5E2E2E2E2E2E2E2E2E2E2E2E2E2E2E2E2E2F5E2F5F5E2E2E2E2E2E2E2E2E2E2E2E2E2E2E2E2E2E2E2F5E2E2E2E2E2E2E2E2E2E2E2E2E2E2E2E2E2E2E2E2E2E2E2E2E2E2E2E2E2E2E2E2E2E2E2E2E2E2E2E2E2E2F5E2E2E2E2E2F5F5F5
310
E2E2E2E2E2E2E2E2E2E2F5E2E2E2E2E2E2E2E2E2E2E2E2E2E2E2E2E2E2E2E2E2E2E2E2E2E2E2E2E2E2E2E2E2E2E2E2E2E2E2E2E2E2E2E2E2E2E2E2E2E2E2E2E2E2E2E2E2E2E2E2E2E2E2E2E2E2E2E2E2E2E2E2E2E2E2E2F5E2E2E2E2E2E2E2E2E2E2E2E2E2E2E2E2E2E2E2F5F5E2E2E2E2E2E2E2E2E2E2E2E2E2E2E2E2E2E2
310
E2F5E2E2E2E2E2E2E2E2E2E2E2E2E2E2E2E2E2E2E2E2E2E2E2E2E2E2E2E2E2E2E2E2E2E2E2E2E2E2E2E2E2E2F5F5F5F5F5F5F5F5F5F5F5F5F5F5F5F5F5F5F5F5E2E2E2E2E2E2E2E2E2E2E2E2E2E2E2E2E2E2E2E2E2E2E2E2E2E2E2E2E2E2E2E2E2E2E2E2E2E2E2E2E2E2E2E2E2E2E2E2E2E2E2E2E2E2E2E2E2E2E2E2E2E2E2
310
E2E2E2E2E2E2E2E2E2E2E2E2E2F5E2E2E2E2E2E2E2E2E2E2E2E2E2E2E2E2E2E2E2F5F5E2E2E2E2E2E2E2E2E2E2E2E2E2E2E2E2E2E2E2F5E2E2E2E2E2E2E2E2E2E2E2E2E2E2E2E2E2E2E2E2E2E2E2E2E2E2E2E2E2E2E2E2E2E2E2E2E2E2E2E2E2E2F5F5E2E2E2E2E2E2F5F5F5F5E2E2E2E2E2E2F5F5E2E2E2E2E2E2E2E2E2E2
310
E2E2E2E2E2E2E2E2E2E2E2E2E2E2E2E2E2E2E2E2E2E2E2E2E2E2E2E2E2E2E2E2E2E2E2E2E2E2E2E2E2E2E2E2E2E2E2E2E2E2E2E2E2E2E2E2E2E2E2E2E2E2E2E2E2E2F5E2E2E2E2E2E2E2E2E2E2E2E2E2E2E2E2E2E2E2F5F5E2E2E2E2E2E2E2E2E2E2E2E2E2E2E2E2E2E2E2F5E2E2E2E2E2E2E2E2E2E2E2E2E2E2E2E2E2E2E2
310
E2E2E2E2E2E2E2E2E2E2E2E2E2E2E2E2E2E2E2E2E2E2E2E2E2E2E2E2E2E2E2F5F5F5F5E2E2E2E2E2E2E2E2E2E2E2E2E2E2E2E2E2E2E2E2E2E2E2E2E2E2E2E2E2E2E2E2E2E2E2E2E2E2E2E2E2E2E2E2E2E2E2E2E2E2E2E2E2E2E2E2E2E2E2E2E2E2E2E2E2E2E2E2E2E2E2E2E2E2E2E2E2E2E2E2E2E2E2E2F5E2E2E2E2E2E2E2
310
E2E2E2E2E2E2E2E2E2E2E2E2F5F5E2E2E2E2E2E2E2E2E2E2E2E2E2E2E2E2E2E2E2F5E2E2E2E2E2E2E2E2E2E2E2E2E2E2E2E2E2E2E2E2E2E2E2E2E2E2E2E2E2E2E2E2E2E2E2E2E2E2E2E2E2E2E2E2E2E2E2E2E2E2F5F5F5F5E2E2E2E2E2E2E2E2E2E2E2E2E2E2E2E2E2E2E2E2E2E2E2E2E2E2E2E2E2E2E2E2E2E2E2E2E2E2E2
310
E2E2E2E2E2E2E2E2E2E2E2E2E2E2E2E2E2E2E2E2E2E2E2E2E2E2E2E2E2E2E2E2E2E2E2E2E2E2E2E2E2E2E2E2E2F5E2E2E2E2E2E2E2E2E2E2E2E2E2E2E2E2E2E2E2F5F5E2E2E2E2E2E2E2E2E2E2E2E2E2E2E2E2E2E2E2F5E2E2E2E2E2E2E2E2E2E2E2E2E2E2E2E2E2E2E2E2E2E2E2E2E2E2E2E2E2E2E2E2E2E2E2E2E2E2E2E2
310
E2E2E2E2E2E2E2E2E2E2E2E2E2E2E2E2E2E2E2E2E2E2E2E2E2E2E2E2E2E2E2E2E2E2E2E2E2E2E2E2E2E2E2E2E2E2E2E2E2E2E2E2E2E2E2E2E2E2E2E2E2E2E2E2E2E2E2E2E2E2E2E2E2E2E2E2E2E2E2E2E2E2E2E2E2E2E2E2E2E2E2E2E2E2E2E2E2E2F5E2E2E2E2E2E2E2E2E2E2E2E2E2E2E2E2E2E2E2F5F5E2E2E2E2E2E2E2
310
E2E2E2E2E2E2E2E2E2E2E2E2F5E2E2E2E2E2E2E2E2E2E2E2E2E2E2E2E2E2E2E2E2E2E2E2E2E2E2E2E2E2E2E2E2E2E2E2E2E2E2E2E2E2E2E2E2E2E2E2E2E2E2E2E2E2E2E2E2E2E2E2E2E2E2E2E2E2E2E2E2E2E2E2E2E2E2E2E2E2E2E2E2E2E2E2E2E2E2E2E2E2E2E2E2E2E2E2E2E2E2E2E2E2E2E2E2E2E2E2E2E2E2E2E2E2E2
310
E2E2E2E2E2E2E2E2E2E2E2E2E2E2E2E2E2E2E2E2E2E2E2E2F5E2E2E2E2E2E2E2E2E2E2E2E2E2E2E2E2E2E2E2F5F5E2E2E2E2E2E2E2E2E2E2E2E2E2E2E2E2E2E2E2F5E2E2E2E2E2E2E2E2E2E2E2E2E2E2E2E2E2E2E2E2E2E2E2E2E2E2E2E2E2E2E2E2E2E2E2E2E2E2E2E2E2E2E2E2E2E2E2E2E2E2E2E2E2E2E2E2E2E2E2E2E2
310
E2E2E2E2E2E2E2E2E2E2E2E2E2E2E2E2E2E2E2E2E2E2E2E2E2E2E2E2E2E2E2E2E2E2E2E2E2E2E2E2E2E2E2E2E2E2E2E2E2E2E2E2E2E2E2E2E2E2E2E2E2E2E2E2E2E2E2E2E2E2E2E2E2E2E2E2E2F5E2E2E2E2E2E2E2E2E2E2E2E2E2E2E2E2E2E2E2F5F5E2F5E2E2E2E2E2E2E2E2E2E2E2E2E2E2E2E2E2F5E2E2E2E2E2E2E2E2
310
E2E2E2E2E2E2E2E2E2E2E2E2E2E2E2E2E2E2E2E2E2E2E2E2E2E2E2E2E2E2E2E2E2E2E2E2E2E2E2E2E2E2E2E2E2E2E2E2E2E2E2E2E2E2E2E2E2E2E2E2E2E2E2E2E2E2E2E2E2E2E2E2E2E2E2E2E2E2E2E2E2E2E2E2E2E2E2E2E2E2E2E2E2E2E2E2E2E2E2E2E2E2E2E2E2E2E2E2E2E2E2E2E2E2E2E2E2E2E2E2E2E2E2E2E2E2E2
310
E2E2E2F5E2E2E2E2E2E2E2E2E2E2E2E2E2E2E2E2E2F5E2F5F5E2F5E2E2E2E2E2E2E2E2E2E2E2E2E2E2E2E2E2F5E2E2E2E2E2E2E2E2E2E2E2E2E2E2E2E2E2E2E2E2E2E2E2E2E2E2E2E2E2E2E2E2E2E2E2E2E2E2E2E2E2E2E2E2E2E2E2E2E2E2E2E2E2E2E2E2E2E2E2E2E2E2E2E2E2E2E2E2E2E2E2E2E2E2E2E2E2E2E2E2E2E2
310
E2E2E2E2E2E2E2E2E2E2E2E2E2E2E2E2E2E2E2E2E2E2E2E2E2E2E2E2E2E2E2E2E2E2E2E2E2E2E2E2E2E2E2E2E2E2E2E2E2E2E2E2E2E2E2E2F5E2E2E2E2E2E2E2E2E2E2E2E2E2E2E2E2E2F5E2F5F5E2F5E2E2E2E2E2E2E2E2E2E2E2E2E2E2E2E2E2F5E2E2E2E2E2E2E2E2E2E2E2E2E2E2E2E2E2E2E2E2E2E2E2E2E2E2E2E2E2
310
E2E2E2E2E2E2E2E2E2E2E2E2E2E2E2E2E2E2E2E2E2E2E2E2E2E2E2E2E2E2E2E2E2E2E2E2E2E2E2E2E2E2E2E2E2E2E2E2E2E2E2E2E2E2E2E2E2E2E2E2E2E2E2E2E2E2E2E2E2E2E2E2E2E2E2E2E2E2E2E2E2E2E2E2E2E2E2E2E2E2E2E2E2E2E2E2E2E2E2E2E2E2E2E2E2E2E2E2E2F5E2E2E2E2E2E2E2E2E2E2E2E2E2E2E2E2E2
310
F5E2F5F5E2F5E2E2E2E2E2E2E2E2E2E2E2E2E2E2E2E2E2F5E2E2E2E2E2E2E2E2E2E2E2E2E2E2E2E2E2E2E2E2E2E2E2E2E2E2E2E2E2E2E2E2E2E2E2F5F5F5F5F5F5F5F5F5F5F5F5F5F5F5F5F5F5F5F5F5F5F5F5F5F5F5F5F5F5F5F5F5F5F5F5F5F5F5F5F5F5F5F5F5F5F5F5F5F5F5F5F5F5F5F5F5E2E2E2E2E2E2E2E2E2E2E2
310
E2E2E2E2E2E2E2E2E2E2E2E2E2E2E2E2E2E2E2E2E2E2E2E2E2E2E2E2E2E2E2E2E2E2E2F5E2E2E2E2E2E2E2E2E2E2E2E2E2E2E2E2E2F5E2F5F5E2F5E2E2E2E2E2E2E2E2E2E2E2E2E2E2E2E2E2F5E2E2E2E2E2E2E2E2E2E2E2E2E2E2E2E2E2E2E2E2E2E2E2E2E2E2E2E2E2E2E2E2E2E2E2F5F5F5F5F5F5F5F5F5F5F5F5F5F5F5
310
F5F5F5F5F5F5F5F5F5F5F5F5F5F5F5F5F5F5F5F5F5F5F5F5F5F5F5F5F5F5F5F5F5F5F5F5F5F5F5F5F5F5E2E2E2E2E2E2E2E2E2E2E2E2E2E2E2E2E2E2E2E2E2E2E2E2E2E2E2E2E2E2E2E2E2E2E2E2E2E2E2E2E2E2E2E2E2E2F5E2E2E2E2E2E2E2E2E2E2E2E2E2E2E2E2E2F5E2F5F5E2F5E2E2E2E2E2E2E2E2E2E2E2E2E2E2E2
310
E2E2F5E2E2E2E2E2E2E2E2E2E2E2E2E2E2E2E2E2E2E2E2E2E2E2E2E2E2E2E2E2E2E2E2E2E2E2F5F5F5F5F5F5F5F5F5F5F5F5F5F5F5F5F5F5F5F5F5F5F5F5F5F5F5F5F5F5F5F5F5F5F5F5F5F5F5F5F5F5F5F5F5F5F5F5F5F5F5F5F5F5F5F5F5E2E2E2E2E2E2E2E2E2E2E2E2E2E2E2E2E2E2E2E2E2E2E2E2E2E2E2E2E2E2E2E2
310
E2E2E2E2E2E2E2E2E2E2E2E2E2E2F5E2E2E2E2E2E2E2E2E2E2E2E2E2E2E2E2E2F5E2F5F5E2F5E2E2E2E2E2E2E2E2E2E2E2E2E2E2E2E2E2F5E2E2E2E2E2E2E2E2E2E2E2E2E2E2E2E2E2E2E2E2E2E2E2E2E2E2E2E2E2E2E2E2E2E2E2F5F5F5F5F5F5F5F5F5F5F5F5F5F5F5F5F5F5F5F5F5F5F5F5F5F5F5F5F5F5F5F5F5F5F5F5
310
F5F5F5F5F5F5F5F5F5F5F5F5F5F5F5F5F5F5F5F5F5E2E2E2E2E2E2E2E2E2E2E2E2E2E2E2E2E2E2E2E2E2E2E2E2E2E2E2E2E2E2E2E2E2E2E2E2E2E2E2E2E2E2E2E2E2E2F5E2E2E2E2E2E2E2E2E2E2E2E2E2E2E2E2E2F5E2F5F5E2F5E2E2E2E2E2E2E2E2E2E2E2E2E2E2E2E2E2F5E2E2E2E2E2E2E2E2E2E2E2E2E2E2E2E2E2E2
310
E2E2E2E2E2E2E2E2E2E2E2E2E2E2E2E2E2E2E2E2E2E2E2E2E2E2E2E2E2E2E2E2E2E2E2E2E2E2E2E2E2E2E2E2E2E2E2E2E2E2E2E2E2E2E2E2E2E2E2E2E2E2E2E2E2E2E2E2E2E2E2E2E2E2E2E2E2E2E2E2E2E2E2E2E2E2E2E2E2E2E2E2E2E2E2E2E2E2E2E2E2E2E2E2E2E2E2E2E2E2E2E2E2E2E2E2E2E2E2E2F5E2E2E2E2E2E2
310
E2E2E2E2E2E2E2E2E2E2E2F5E2F5F5E2F5E2E2E2E2E2E2E2E2E2E2E2E2E2E2E2E2E2F5E2E2E2E2E2E2E2E2E2E2E2E2E2E2E2E2E2E2E2E2E2E2E2E2E2E2E2E2E2E2E2E2E2E2E2E2E2E2E2E2E2E2E2E2E2E2E2E2E2E2E2E2E2E2E2E2E2E2E2E2E2E2E2E2E2E2E2E2E2E2E2E2E2E2E2E2E2E2E2E2E2E2E2E2E2E2E2E2E2E2E2E2
310
E2E2E2E2E2E2E2E2E2E2E2E2E2E2E2E2E2E2E2E2E2E2E2E2E2E2E2E2E2E2E2E2E2E2E2E2E2E2E2E2E2E2E2E2E2E2F5E2E2E2E2E2E2E2E2E2E2E2E2E2E2E2E2E2F5E2F5F5E2F5E2E2E2E2E2E2E2E2E2E2E2E2E2E2E2E2E2F5E2E2E2E2E2E2E2E2E2E2E2E2E2E2E2E2E2E2E2E2E2E2E2E2E2E2E2E2E2E2E2E2E2E2E2F5F5F5F5
310
F5F5F5F5F5F5F5F5F5F5F5F5F5F5F5F5F5F5F5F5F5F5F5F5F5F5F5F5F5F5F5F5F5F5F5F5F5F5E2E2E2E2E2E2E2E2E2E2E2E2E2E2E2E2E2E2E2E2E2E2E2E2E2E2E2E2E2E2E2E2E2E2E2E2E2E2E2E2E2E2E2E2E2E2E2E2E2E2E2E2E2E2E2E2E2E2E2E2E2F5E2E2E2E2E2E2E2E2E2E2E2E2E2E2E2E2E2F5E2F5F5E2F5E2E2E2E2
310
E2E2E2E2E2E2E2E2E2E2E2E2E2F5E2E2E2E2E2E2E2E2E2E2E2E2E2E2E2E2E2E2E2E2E2E2E2E2E2E2E2E2E2E2E2E2E2E2E2F5F5F5F5F5F5F5F5F5F5F5F5F5F5F5F5F5F5F5F5F5F5F5F5F5F5F5F5F5F5F5F5F5F5F5F5F5F5F5F5F5F5E2E2E2E2E2E2E2E2E2E2E2E2E2E2E2E2E2E2E2E2E2E2E2E2E2E2E2E2E2E2E2E2E2E2E2E2
310
E2E2E2E2E2E2E2E2E2E2E2E2E2E2E2E2E2E2E2E2E2E2E2E2E2F5E2E2E2E2E2E2E2E2E2E2E2E2E2E2E2E2E2F5E2F5F5E2F5E2E2E2E2E2E2E2E2E2E2E2E2E2E2E2E2E2F5E2E2E2E2E2E2E2E2E2E2E2E2E2E2E2E2E2E2E2E2E2E2E2E2E2E2E2E2E2E2E2E2E2E2E2F5F5F5F5F5F5F5F5F5F5F5F5F5F5F5F5F5F5F5F5F5F5F5F5F5
310
F5F5F5F5F5F5F5F5F5F5F5F5F5F5F5F5F5E2E2E2E2E2E2E2E2E2E2E2E2E2E2E2E2E2E2E2E2E2E2E2E2E2E2E2E2E2E2E2E2E2E2E2E2E2E2E2E2E2E2E2E2E2E2E2E2E2E2E2E2E2E2E2E2E2E2E2E2E2F5E2E2E2E2E2E2E2E2E2E2E2E2E2E2E2E2E2F5E2F5F5E2F5E2E2E2E2E2E2E2E2E2E2E2E2E2E2E2E2E2F5E2E2E2E2E2E2E2
310
E2E2E2E2E2E2E2E2E2E2E2E2E2E2E2E2E2E2E2E2E2E2E2E2E2E2E2E2F5F5F5F5F5F5F5F5F5F5F5F5F5F5F5F5F5F5F5F5F5F5F5F5F5F5F5F5F5F5F5F5F5F5F5F5F5F5F5F5F5F5E2E2E2E2E2E2E2E2E2E2E2E2E2E2E2E2E2E2E2E2E2E2E2E2E2E2E2E2E2E2E2E2E2E2E2E2E2E2E2E2E2E2E2E2E2E2E2E2E2E2E2E2E2E2E2E2E2
310
E2E2E2E2F5E2E2E2E2E2E2E2E2E2E2E2E2E2E2E2E2E2F5E2F5F5E2F5E2E2E2E2E2E2E2E2E2E2E2E2E2E2E2E2E2F5E2E2E2E2E2E2E2E2E2E2E2E2E2E2E2E2E2E2E2E2E2E2E2E2E2E2E2E2E2E2E2E2E2E2E2E2E2E2E2E2E2E2E2E2E2E2E2E2E2E2E2E2E2E2E2E2E2E2E2E2E2E2E2E2E2E2E2E2E2E2E2E2E2E2E2E2E2E2E2E2E2
310
E2E2E2E2E2E2E2E2E2E2E2E2E2E2E2E2E2E2E2E2E2E2E2E2E2E2E2E2E2E2E2E2E2E2E2E2E2E2E2E2E2E2E2E2E2E2E2E2E2E2E2E2E2E2E2E2E2F5E2E2E2E2E2E2E2E2E2E2E2E2E2E2E2E2E2F5E2F5F5E2F5E2E2E2E2E2E2E2E2E2E2E2E2E2E2E2E2E2F5E2E2E2E2E2E2E2E2E2E2E2E2E2E2E2E2E2E2E2E2E2E2E2E2E2E2E2E2
310
E2E2E2E2E2E2E2E2E2E2E2E2E2E2E2E2E2E2E2E2E2E2E2E2E2E2E2E2E2E2E2E2E2E2E2E2E2E2E2E2E2E2E2E2E2E2E2E2E2E2E2E2E2E2E2E2E2E2E2E2E2E2E2E2E2E2E2E2E2E2E2E2E2E2E2E2E2E2E2E2E2E2E2E2E2E2E2E2E2E2E2E2E2E2E2E2E2E2E2E2E2E2E2E2E2E2E2E2E2E2F5E2E2E2E2E2E2E2E2E2E2E2E2E2E2E2E2
310
E2F5E2F5F5E2F5E2E2E2E2E2E2E2E2E2E2E2E2E2E2E2E2E2F5E2E2E2E2E2E2E2E2E2E2E2E2E2E2E2E2E2E2E2E2E2E2E2E2E2E2E2E2E2E2E2E2E2E2E2E2E2E2E2E2E2E2E2E2E2E2E2E2E2E2E2E2E2E2E2E2E2E2E2E2E2E2E2E2E2E2E2E2E2E2E2E2E2E2E2E2E2E2E2E2E2E2E2E2E2E2E2E2E2E2E2E2E2E2E2E2E2E2E2E2E2E2
310
E2E2E2E2E2E2E2E2E2E2E2E2E2E2E2E2E2E2E2E2E2E2E2E2E2E2E2E2E2E2E2E2E2E2E2E2F5E2E2E2E2E2E2E2E2E2E2E2E2E2E2E2E2E2F5E2F5F5E2E2E2E2E2E2E2E2E2E2E2E2E2E2E2E2E2E2E2F5E2E2E2E2E2E2E2E2E2E2E2E2E2E2E2E2E2E2E2E2E2E2E2E2E2E2E2E2E2E2E2E2E2E2E2E2E2E2E2E2E2E2E2E2E2E2E2E2E2
310
E2E2E2E2E2E2E2E2E2E2E2E2E2E2E2E2E2E2E2E2E2E2E2E2E2E2E2E2E2E2E2E2E2E2E2E2E2E2E2E2E2E2E2E2E2E2E2E2E2E2E2E2E2E2E2E2E2E2E2E2E2E2E2E2E2E2E2E2E2E2E2E2E2E2E2E2E2E2E2E2E2E2E2E2E2E2E2E2E2F5E2E2E2E2E2E2E2E2E2E2E2E2E2E2E2E2E2E2E2F5F5E2E2E2E2E2E2E2E2E2E2E2E2E2E2E2E2
310
E2E2E2F5E2E2E2E2E2E2E2E2E2E2E2E2E2E2E2E2E2E2E2E2E2E2E2E2E2E2E2E2E2E2E2E2E2E2E2E2E2E2E2E2E2E2E2E2E2E2E2E2E2E2E2E2E2E2E2E2E2E2E2E2E2E2E2E2E2E2E2E2E2E2E2E2E2E2E2E2E2E2E2E2E2E2E2E2E2E2E2E2E2E2E2E2E2E2E2E2E2E2E2E2E2E2E2E2E2E2E2E2E2E2E2E2E2E2E2E2E2E2E2E2E2E2E2
310
E2E2E2E2E2E2E2E2E2E2E2E2E2E2E2F5E2E2E2E2E2E2E2E2E2E2E2E2E2E2E2E2E2E2E2F5F5E2E2E2E2E2E2E2E2E2E2E2E2E2E2E2E2E2E2E2F5E2E2E2E2E2E2E2E2E2E2E2E2E2E2E2E2E2E2E2E2E2E2E2E2E2E2E2E2E2E2E2E2E2E2E2E2E2E2E2E2E2E2E2E2E2E2E2E2E2E2E2E2E2E2E2E2E2E2E2E2E2E2E2E2E2E2E2E2E2E2
310
E2E2E2E2E2E2E2E2E2E2E2E2E2E2E2E2E2E2E2E2E2E2E2E2E2E2E2E2E2E2E2E2E2E2E2E2E2E2E2E2E2E2E2E2E2E2E2E2E2E2E2E2E2E2E2E2E2E2E2E2E2E2E2E2E2E2E2E2F5E2E2E2E2E2E2E2E2E2E2E2E2E2E2E2E2E2E2E2F5F5E2E2E2E2E2E2E2E2E2E2E2E2E2E2E2E2E2E2E2F5E2E2E2E2E2E2E2E2E2E2E2E2E2E2E2E2E2
310
E2E2E2E2E2E2E2E2E2E2E2E2E2E2E2E2E2E2E2E2E2E2E2E2E2E2E2E2E2E2E2E2E2E2E2E2E2E2E2E2E2E2E2E2E2E2E2E2E2E2E2E2E2E2E2E2E2E2E2E2E2E2E2E2E2E2E2E2E2E2E2E2E2E2E2E2E2E2E2E2E2E2E2E2E2E2E2E2E2E2E2E2E2E2E2E2E2E2E2E2E2E2E2E2E2E2E2E2E2E2E2E2E2E2E2E2E2E2E2E2E2F5E2E2E2E2E2
310
E2E2E2E2E2E2E2E2E2E2E2E2E2E2F5F5E2E2E2E2E2E2E2E2E2E2E2E2E2E2E2E2E2E2E2F5F5F5F5F5F5F5F5F5F5F5F5F5F5F5F5F5F5F5F5F5F5F5F5F5F5F5F5F5F5F5F5F5F5F5F5F5F5F5F5F5F5F5F5F5F5F5F5F5F5F5F5F5F5F5F5F5F5F5F5F5F5F5F5F5F5F5F5F5F5F5F5F5F5F5F5F5F5F5F5F5F5F5F5F5F5F5F5F5F5F5F5
310
F5F5F5F5F5F5F5F5F5F5F5F5F5F5F5F5F5F5F5F5F5F5F5F5F5F5F5F5F5F5F5F5F5F5F5F5F5F5F5F5F5F5F5F5F5F5F5F5E2E2E2E2E2E2E2E2E2E2E2E2E2E2E2E2E2E2E2F5F5E2E2E2E2E2E2E2E2E2E2E2E2E2E2E2E2E2E2E2E2E2E2E2E2E2E2E2E2E2E2E2E2E2E2E2E2E2E2E2E2E2E2E2E2E2E2E2E2E2E2E2E2E2E2E2E2E2E2
310
E2E2E2E2E2E2E2E2E2E2E2E2E2E2E2E2E2E2E2E2E2E2E2E2E2E2E2E2E2E2E2E2E2E2E2E2E2E2E2E2E2E2E2E2E2E2E2E2E2E2E2E2E2E2E2E2E2E2E2E2E2E2E2E2E2E2E2E2E2E2E2E2E2E2E2E2E2E2E2E2E2E2E2E2E2E2E2E2E2E2E2E2E2E2E2E2E2E2E2E2E2E2E2E2E2E2E2E2E2E2E2E2E2E2E2E2E2E2E2E2F5F5E2E2E2E2E2
310
E2E2E2E2E2E2E2E2E2E2E2E2E2E2E2E2E2E2E2E2E2E2E2E2E2E2E2E2E2E2E2E2E2E2E2E2E2E2E2E2E2E2E2E2E2E2E2E2E2E2E2E2E2E2E2E2E2E2E2E2E2E2E2E2E2E2E2E2E2E2E2E2E2E2E2E2E2E2E2E2E2E2E2E2E2E2E2E2E2E2E2E2E2E2E2E2E2E2E2E2E2E2E2E2E2E2E2E2E2E2E2E2E2E2E2E2E2E2E2E2E2E2E2E2E2E2E2
310
E2E2E2E2E2E2E2E2E2E2E2E2E2E2E2E2E2E2E2E2E2E2E2E2E2E2E2E2E2E2E2E2E2E2E2E2E2E2E2E2E2E2E2E2E2E2F5F5E2E2E2E2E2E2E2E2E2E2E2E2E2E2E2E2E2E2E2E2E2E2E2E2E2E2E2E2E2E2E2E2E2E2E2E2E2E2E2E2E2E2E2E2E2E2E2E2E2E2E2E2E2E2E2E2E2E2E2E2E2E2E2E2E2E2E2E2E2E2E2E2E2E2E2E2E2E2E2
310
E2E2E2E2E2E2E2E2E2E2E2E2E2E2E2E2E2E2E2E2E2E2E2E2E2E2E2E2E2E2E2E2E2E2E2E2E2E2E2E2E2E2E2E2E2E2E2E2E2E2E2E2E2E2E2E2E2E2E2E2E2E2E2E2E2E2E2E2E2E2E2E2E2E2E2E2E2E2E2E2E2E2E2E2E2E2E2E2E2E2E2E2E2E2E2E2E2E2E2F5F5E2E2E2E2E2E2E2E2E2E2E2E2E2E2E2E2E2E2E2E2E2E2E2E2E2E2
310
E2E2E2E2E2E2E2E2E2E2E2E2E2E2E2E2E2E2E2E2E2E2E2E2E2E2E2E2E2E2E2E2E2E2E2E2E2E2E2E2E2E2E2E2E2E2E2E2E2E2E2E2E2E2E2E2E2E2E2E2E2E2E2E2E2E2E2E2E2E2E2E2E2E2E2E2E2E2E2E2E2E2E2E2E2E2E2E2E2E2E2E2E2E2E2E2E2E2E2E2E2E2E2E2E2E2E2E2E2E2E2E2E2E2E2E2E2E2E2E2E2E2E2E2E2E2E2
310
E2E2E2E2E2E2E2E2E2E2E2E2E2E2E2E2E2E2E2E2E2E2E2E2E2F5F5E2F5E2E2E2E2E2E2E2E2E2E2E2E2E2E2E2E2E2E2E2E2E2E2E2E2E2E2E2E2E2E2E2E2E2E2E2E2E2E2E2E2E2E2E2E2E2E2E2E2E2E2E2E2E2E2E2E2E2E2E2E2E2E2E2E2E2E2E2E2E2E2E2E2E2E2E2E2E2E2E2E2E2E2E2E2E2E2E2E2E2E2E2E2E2E2E2E2E2E2
310
E2E2E2E2E2E2E2E2E2E2E2E2E2E2E2E2E2E2E2E2E2E2E2E2E2E2E2E2E2E2E2E2E2E2E2E2E2E2E2E2E2E2E2E2E2E2E2E2E2E2E2E2E2E2E2E2E2E2E2E2E2E2E2E2E2E2E2E2E2E2E2E2E2E2E2E2F5E2F5F5E2F5E2E2E2E2E2E2E2E2E2E2E2E2E2E2E2E2E2E2E2E2E2E2E2E2E2E2E2E2E2E2E2E2E2E2E2E2E2E2E2E2E2E2E2E2E2
310
E2E2E2E2E2E2E2E2E2E2E2E2E2E2E2E2E2E2E2E2E2E2E2E2E2E2E2E2E2E2E2E2E2E2E2E2E2E2E2E2E2E2E2E2E2E2E2E2E2E2E2E2E2E2E2E2E2E2E2E2E2E2E2E2E2E2E2E2E2E2E2E2E2E2E2E2E2E2E2E2E2E2E2E2E2E2E2E2E2E2E2E2E2E2E2E2E2E2E2E2E2E2E2E2E2E2E2E2E2E2E2E2E2E2E2E2E2E2E2E2E2E2E2E2E2E2E2
310
E2E2F5E2F5F5E2F5E2E2E2E2E2E2E2E2E2E2E2E2E2E2E2E2E2E2E2E2E2E2E2E2E2E2E2E2E2E2E2E2E2E2E2E2E2E2E2E2E2E2E2E2E2E2E2E2E2E2E2E2E2E2E2E2E2E2E2E2E2E2E2E2E2E2E2E2E2E2E2E2E2E2E2E2E2E2E2E2E2E2E2E2E2E2E2E2E2E2E2E2E2E2E2E2E2E2E2E2E2E2E2E2E2E2E2E2E2E2E2E2E2E2E2E2E2E2E2
310
E2E2E2E2E2E2E2E2E2E2E2E2E2E2E2E2E2E2E2E2E2E2E2E2E2E2E2E2E2E2E2E2E2E2E2E2E2E2E2E2E2E2E2E2E2E2E2E2E2E2E2E2E2E2E2F5E2F5F5E2F5E2E2E2E2E2E2E2E2E2E2E2E2E2E2E2E2E2E2E2E2E2E2E2E2E2E2E2E2E2E2E2E2E2E2E2E2E2E2E2E2E2E2E2E2E2E2E2E2E2E2E2E2E2E2E2E2E2E2E2E2E2E2E2E2E2E2
310
E2E2E2E2E2E2E2E2E2E2E2E2E2E2E2E2E2E2E2E2E2E2E2E2E2E2E2E2E2E2E2E2E2E2E2E2E2E2E2E2E2E2E2E2E2E2E2E2E2E2E2E2E2E2E2E2E2E2E2E2E2E2E2E2E2E2E2E2E2E2E2E2E2E2E2E2E2E2E2E2E2E2E2E2E2E2E2E2E2E2E2E2E2E2E2E2E2E2E2E2E2E2E2E2E2E2E2E2F5E2F5F5E2F5E2E2E2E2E2E2E2E2E2E2E2E2E2
310
E2E2E2E2E2E2E2E2E2E2E2E2E2E2E2E2E2E2E2E2E2E2E2E2E2E2E2E2E2E2E2E2E2E2E2E2E2E2E2E2E2E2E2E2E2E2E2E2E2E2E2E2E2E2E2E2E2E2E2E2E2E2E2E2E2E2E2E2E2E2E2E2E2E2E2E2E2E2E2E2E2E2E2E2E2E2E2E2E2E2E2E2E2E2E2E2E2E2E2E2E2E2E2E2E2E2E2E2E2E2E2E2E2E2E2E2E2E2E2E2E2E2E2E2E2E2E2
310
E2E2E2E2E2E2E2E2E2E2E2E2E2E2E2E2E2E2E2E2E2E2E2E2E2E2E2E2E2E2E2E2E2E2F5E2F5F5E2F5E2E2E2E2E2E2E2E2E2E2E2E2E2E2E2E2E2E2E2E2E2E2E2E2E2E2E2E2E2E2E2E2E2E2E2E2E2E2E2E2E2E2E2E2E2E2E2E2E2E2E2E2E2E2E2E2E2E2E2E2E2E2E2E2E2E2E2E2E2E2E2E2E2E2E2E2E2E2E2E2E2E2E2E2E2E2E2
310
E2E2E2E2E2E2E2E2E2E2E2E2E2E2E2E2E2E2E2E2E2E2E2E2E2E2E2E2E2E2E2E2E2E2E2E2E2E2E2E2E2E2E2E2E2E2E2E2E2E2E2E2E2E2E2E2E2E2E2E2E2E2E2E2E2E2E2E2E2E2E2E2E2E2E2E2E2E2E2E2E2E2E2E2E2E2E2F5E2F5F5E2F5E2E2E2E2E2E2E2E2E2E2E2E2E2E2E2E2E2E2E2E2E2E2E2E2E2E2E2E2E2E2E2E2E2E2
310
E2E2E2E2E2E2E2E2E2E2E2E2E2E2E2E2E2E2E2E2E2E2E2E2E2E2E2E2E2E2E2E2E2E2E2E2E2E2E2E2E2E2E2E2E2E2E2E2E2E2E2E2E2E2E2E2E2E2E2E2E2E2E2E2E2E2E2E2E2E2E2E2E2E2E2E2E2E2E2E2E2E2E2E2E2E2E2E2E2E2E2E2E2E2E2E2E2E2E2E2E2E2E2E2E2E2E2E2E2E2E2E2E2E2E2E2E2E2E2E2E2E2E2E2E2E2E2
310
E2E2E2E2E2E2E2E2E2E2E2E2E2F5E2F5F5E2F5F5F5F5F5F5F5F5F5E2E2E2E2E2E2E2E2E2F5F5F5F5F5F5F5F5F5F5F5F5F5F5F5F5E2E2E2E2E2E2E2E2E2F5F5F5F5F5F5F5F5F5F5F5F5F5F5F5F5E2E2E2E2E2E2E2E2E2F5F5F5F5F5F5F5F5F5F5F5F5F5F5F5F5E2E2E2E2E2E2E2E2E2F5F5F5F5F5F5F5F5F5F5F5F5F5F5F5F5
310
E2E2E2E2E2E2E2E2E2F5F5F5F5F5F5F5F5F5F5F5F5F5F5F5F5E2E2E2E2E2E2E2E2E2F5F5F5F5F5F5F5F5F5F5F5F5F5F5F5F5E2E2E2E2E2E2E2E2E2F5F5F5F5F5F5F5F5E2F5F5E2E2E2E2E2E2E2E2E2E2E2E2E2E2E2E2E2E2E2E2E2E2E2E2E2E2E2E2E2E2E2E2E2E2E2E2E2E2E2E2E2E2E2E2E2E2E2E2E2E2E2E2E2E2E2E2E2
310
E2E2E2E2E2E2E2E2E2E2E2E2E2E2E2E2E2E2E2E2E2E2E2E2E2E2E2E2E2E2E2E2E2E2E2E2E2E2E2E2E2E2E2E2E2E2E2E2E2E2E2E2E2E2E2E2E2E2E2E2E2E2E2E2E2E2E2E2E2E2E2E2E2E2E2E2E2E2E2E2E2E2E2E2E2E2E2E2E2E2E2E2E2E2E2E2E2E2E2E2E2E2E2E2E2E2E2E2E2E2E2E2E2E2E2E2E2E2E2E2E2F5F5F5F5F5F5
310
F5F5F5F5F5F5F5F5F5F5F5F5F5F5F5F5F5F5F5F5F5F5F5F5F5F5F5F5F5F5F5F5F5F5F5F5F5F5F5F5F5F5F5F5F5F5F5F5F5F5F5F5F5F5F5F5F5F5F5F5F5F5F5F5F5F5F5F5F5F5F5F5F5F5F5F5F5F5F5F5F5F5F5F5F5F5F5F5F5F5F5F5F5F5F5F5F5F5F5F5F5F5F5F5F5F5F5F5F5F5F5F5F5F5F5F5F5F5F5F5F5F5F5F5F5F5F5
310
F5F5F5F5F5F5F5F5F5F5F5F5F5F5F5F5F5F5F5F5F5F5F5F5F5F5F5F5F5F5F5F5F5F5F5F5F5F5F5F5F5F5F5F5F5F5F5F5
  0
XRECORD
  5
187C
102
{ACAD_REACTORS
330
1749
102
}
330
1749
100
AcDbXrecord
280
     1
102
MATERIAL
148
0.0
149
0.0
149
0.0
 93
        0
 94
      127
282
     0
 72
     0
 77
     0
171
     0
175
     0
179
     0
273
     0
  0
XRECORD
  5
174B
102
{ACAD_REACTORS
330
1749
102
}
330
1749
100
AcDbXrecord
280
     1
270
     1
271
     1
  0
XRECORD
  5
174A
102
{ACAD_REACTORS
330
1749
102
}
330
1749
100
AcDbXrecord
280
     1
270
     1
271
     1
  0
XRECORD
  5
174E
102
{ACAD_REACTORS
330
1749
102
}
330
1749
100
AcDbXrecord
280
     1
270
     1
271
     1
  0
XRECORD
  5
174D
102
{ACAD_REACTORS
330
1749
102
}
330
1749
100
AcDbXrecord
280
     1
270
     1
271
     1
  0
XRECORD
  5
174F
102
{ACAD_REACTORS
330
1749
102
}
330
1749
100
AcDbXrecord
280
     1
270
     1
271
     1
  0
XRECORD
  5
174C
102
{ACAD_REACTORS
330
1749
102
}
330
1749
100
AcDbXrecord
280
     1
270
     1
271
     1
  0
XRECORD
  5
187B
102
{ACAD_REACTORS
330
1741
102
}
330
1741
100
AcDbXrecord
280
     1
102
MATERIAL
148
0.0
149
0.0
149
0.0
 93
        0
 94
      127
282
     0
 72
     0
 77
     0
171
     0
175
     0
179
     0
273
     0
  0
XRECORD
  5
1743
102
{ACAD_REACTORS
330
1741
102
}
330
1741
100
AcDbXrecord
280
     1
270
     1
271
     1
  0
XRECORD
  5
1742
102
{ACAD_REACTORS
330
1741
102
}
330
1741
100
AcDbXrecord
280
     1
270
     1
271
     1
  0
XRECORD
  5
1746
102
{ACAD_REACTORS
330
1741
102
}
330
1741
100
AcDbXrecord
280
     1
270
     1
271
     1
  0
XRECORD
  5
1745
102
{ACAD_REACTORS
330
1741
102
}
330
1741
100
AcDbXrecord
280
     1
270
     1
271
     1
  0
XRECORD
  5
1747
102
{ACAD_REACTORS
330
1741
102
}
330
1741
100
AcDbXrecord
280
     1
270
     1
271
     1
  0
XRECORD
  5
1744
102
{ACAD_REACTORS
330
1741
102
}
330
1741
100
AcDbXrecord
280
     1
270
     1
271
     1
  0
XRECORD
  5
187A
102
{ACAD_REACTORS
330
1879
102
}
330
1879
100
AcDbXrecord
280
     1
102
MATERIAL
148
0.0
149
0.0
149
0.0
 93
        0
 94
       63
282
     0
 72
     0
 77
     0
171
     1
175
     0
179
     1
273
     0
  0
CELLSTYLEMAP
  5
1872
102
{ACAD_REACTORS
330
1803
102
}
330
1803
100
AcDbCellStyleMap
 90
        3
300
CELLSTYLE
  1
TABLEFORMAT_BEGIN
 90
        5
170
     1
 91
        0
 92
    32768
 62
   257
 93
        1
300
CONTENTFORMAT
  1
CONTENTFORMAT_BEGIN
 90
        0
 91
        0
 92
        4
 93
        0
300

 40
0.0
140
1.0
 94
        5
 62
     0
340
11
144
6.0
309
CONTENTFORMAT_END
171
     1
301
MARGIN
  1
CELLMARGIN_BEGIN
 40
1.5
 40
1.5
 40
1.5
 40
1.5
 40
0.18
 40
0.18
309
CELLMARGIN_END
 94
        6
 95
        1
302
GRIDFORMAT
  1
GRIDFORMAT_BEGIN
 90
        0
 91
        1
 62
     0
 92
       -2
340
0
 93
        0
 40
0.045
309
GRIDFORMAT_END
 95
        2
302
GRIDFORMAT
  1
GRIDFORMAT_BEGIN
 90
        0
 91
        1
 62
     0
 92
       -2
340
0
 93
        0
 40
0.045
309
GRIDFORMAT_END
 95
        4
302
GRIDFORMAT
  1
GRIDFORMAT_BEGIN
 90
        0
 91
        1
 62
     0
 92
       -2
340
0
 93
        0
 40
0.045
309
GRIDFORMAT_END
 95
        8
302
GRIDFORMAT
  1
GRIDFORMAT_BEGIN
 90
        0
 91
        1
 62
     0
 92
       -2
340
0
 93
        0
 40
0.045
309
GRIDFORMAT_END
 95
       16
302
GRIDFORMAT
  1
GRIDFORMAT_BEGIN
 90
        0
 91
        1
 62
     0
 92
       -2
340
0
 93
        0
 40
0.045
309
GRIDFORMAT_END
 95
       32
302
GRIDFORMAT
  1
GRIDFORMAT_BEGIN
 90
        0
 91
        1
 62
     0
 92
       -2
340
0
 93
        0
 40
0.045
309
GRIDFORMAT_END
309
TABLEFORMAT_END
  1
CELLSTYLE_BEGIN
 90
        1
 91
        1
300
_TITLE
309
CELLSTYLE_END
300
CELLSTYLE
  1
TABLEFORMAT_BEGIN
 90
        5
170
     1
 91
        0
 92
        0
 62
   257
 93
        1
300
CONTENTFORMAT
  1
CONTENTFORMAT_BEGIN
 90
        0
 91
        0
 92
        4
 93
        0
300

 40
0.0
140
1.0
 94
        5
 62
     0
340
11
144
4.5
309
CONTENTFORMAT_END
171
     1
301
MARGIN
  1
CELLMARGIN_BEGIN
 40
1.5
 40
1.5
 40
1.5
 40
1.5
 40
0.18
 40
0.18
309
CELLMARGIN_END
 94
        6
 95
        1
302
GRIDFORMAT
  1
GRIDFORMAT_BEGIN
 90
        0
 91
        1
 62
     0
 92
       -2
340
0
 93
        0
 40
0.045
309
GRIDFORMAT_END
 95
        2
302
GRIDFORMAT
  1
GRIDFORMAT_BEGIN
 90
        0
 91
        1
 62
     0
 92
       -2
340
0
 93
        0
 40
0.045
309
GRIDFORMAT_END
 95
        4
302
GRIDFORMAT
  1
GRIDFORMAT_BEGIN
 90
        0
 91
        1
 62
     0
 92
       -2
340
0
 93
        0
 40
0.045
309
GRIDFORMAT_END
 95
        8
302
GRIDFORMAT
  1
GRIDFORMAT_BEGIN
 90
        0
 91
        1
 62
     0
 92
       -2
340
0
 93
        0
 40
0.045
309
GRIDFORMAT_END
 95
       16
302
GRIDFORMAT
  1
GRIDFORMAT_BEGIN
 90
        0
 91
        1
 62
     0
 92
       -2
340
0
 93
        0
 40
0.045
309
GRIDFORMAT_END
 95
       32
302
GRIDFORMAT
  1
GRIDFORMAT_BEGIN
 90
        0
 91
        1
 62
     0
 92
       -2
340
0
 93
        0
 40
0.045
309
GRIDFORMAT_END
309
TABLEFORMAT_END
  1
CELLSTYLE_BEGIN
 90
        2
 91
        1
300
_HEADER
309
CELLSTYLE_END
300
CELLSTYLE
  1
TABLEFORMAT_BEGIN
 90
        5
170
     1
 91
        0
 92
        0
 62
   257
 93
        1
300
CONTENTFORMAT
  1
CONTENTFORMAT_BEGIN
 90
        0
 91
        0
 92
        4
 93
        0
300

 40
0.0
140
1.0
 94
        2
 62
     0
340
11
144
4.5
309
CONTENTFORMAT_END
171
     1
301
MARGIN
  1
CELLMARGIN_BEGIN
 40
1.5
 40
1.5
 40
1.5
 40
1.5
 40
0.18
 40
0.18
309
CELLMARGIN_END
 94
        6
 95
        1
302
GRIDFORMAT
  1
GRIDFORMAT_BEGIN
 90
        0
 91
        1
 62
     0
 92
       -2
340
0
 93
        0
 40
0.045
309
GRIDFORMAT_END
 95
        2
302
GRIDFORMAT
  1
GRIDFORMAT_BEGIN
 90
        0
 91
        1
 62
     0
 92
       -2
340
0
 93
        0
 40
0.045
309
GRIDFORMAT_END
 95
        4
302
GRIDFORMAT
  1
GRIDFORMAT_BEGIN
 90
        0
 91
        1
 62
     0
 92
       -2
340
0
 93
        0
 40
0.045
309
GRIDFORMAT_END
 95
        8
302
GRIDFORMAT
  1
GRIDFORMAT_BEGIN
 90
        0
 91
        1
 62
     0
 92
       -2
340
0
 93
        0
 40
0.045
309
GRIDFORMAT_END
 95
       16
302
GRIDFORMAT
  1
GRIDFORMAT_BEGIN
 90
        0
 91
        1
 62
     0
 92
       -2
340
0
 93
        0
 40
0.045
309
GRIDFORMAT_END
 95
       32
302
GRIDFORMAT
  1
GRIDFORMAT_BEGIN
 90
        0
 91
        1
 62
     0
 92
       -2
340
0
 93
        0
 40
0.045
309
GRIDFORMAT_END
309
TABLEFORMAT_END
  1
CELLSTYLE_BEGIN
 90
        3
 91
        2
300
_DATA
309
CELLSTYLE_END
1001
ACAD
1001
ACAD
1001
ACAD
1001
ACAD
1001
ACAD
1001
ACAD
1000
AcRTDxfName
1000
CELLSTYLEMAP
  0
XRECORD
  5
1878
102
{ACAD_REACTORS
330
1803
102
}
330
1803
100
AcDbXrecord
280
     1
102
ACAD_ROUNDTRIP_PRE2007_TABLESTYLE
 90
        4
 91
        0
  1

 92
        4
 93
        0
  2

 94
        4
 95
        0
  3

  0
ENDSEC
  0
EOF
