  0
SECTION
  2
HEADER
  9
$ACADVER
  1
AC1015
  9
$ACADMAINTVER
 70
    20
  9
$DWGCODEPAGE
  3
ANSI_932
  9
$INSBASE
 10
0.0
 20
0.0
 30
0.0
  9
$EXTMIN
 10
143.7515359149122
 20
17.14253193282373
 30
0.0
  9
$EXTMAX
 10
600.2816773015632
 20
202.5226387758813
 30
0.0
  9
$LIMMIN
 10
0.0
 20
0.0
  9
$LIMMAX
 10
230.0
 20
150.0
  9
$ORTHOMODE
 70
     1
  9
$REGENMODE
 70
     1
  9
$FILLMODE
 70
     1
  9
$QTEXTMODE
 70
     0
  9
$MIRRTEXT
 70
     1
  9
$LTSCALE
 40
0.2525
  9
$ATTMODE
 70
     1
  9
$TEXTSIZE
 40
2.5
  9
$TRACEWID
 40
1.0
  9
$TEXTSTYLE
  7
STANDARD
  9
$CLAYER
  8
0
  9
$CELTYPE
  6
BYLAYER
  9
$CECOLOR
 62
   256
  9
$CELTSCALE
 40
1.0
  9
$DISPSILH
 70
     0
  9
$DIMSCALE
 40
0.5050505050505051
  9
$DIMASZ
 40
2.5
  9
$DIMEXO
 40
0.625
  9
$DIMDLI
 40
3.75
  9
$DIMRND
 40
0.0
  9
$DIMDLE
 40
0.0
  9
$DIMEXE
 40
1.25
  9
$DIMTP
 40
0.0
  9
$DIMTM
 40
0.0
  9
$DIMTXT
 40
3.5
  9
$DIMCEN
 40
0.0
  9
$DIMTSZ
 40
0.0
  9
$DIMTOL
 70
     0
  9
$DIMLIM
 70
     0
  9
$DIMTIH
 70
     0
  9
$DIMTOH
 70
     0
  9
$DIMSE1
 70
     0
  9
$DIMSE2
 70
     0
  9
$DIMTAD
 70
     1
  9
$DIMZIN
 70
     8
  9
$DIMBLK
  1

  9
$DIMASO
 70
     1
  9
$DIMSHO
 70
     1
  9
$DIMPOST
  1

  9
$DIMAPOST
  1

  9
$DIMALT
 70
     0
  9
$DIMALTD
 70
     4
  9
$DIMALTF
 40
0.0394
  9
$DIMLFAC
 40
1.0
  9
$DIMTOFL
 70
     1
  9
$DIMTVP
 40
0.0
  9
$DIMTIX
 70
     0
  9
$DIMSOXD
 70
     0
  9
$DIMSAH
 70
     1
  9
$DIMBLK1
  1
OPEN30
  9
$DIMBLK2
  1
OPEN30
  9
$DIMSTYLE
  2
ISO-25_WS
  9
$DIMCLRD
 70
   256
  9
$DIMCLRE
 70
     8
  9
$DIMCLRT
 70
     8
  9
$DIMTFAC
 40
1.0
  9
$DIMGAP
 40
0.625
  9
$DIMJUST
 70
     0
  9
$DIMSD1
 70
     0
  9
$DIMSD2
 70
     0
  9
$DIMTOLJ
 70
     1
  9
$DIMTZIN
 70
     0
  9
$DIMALTZ
 70
     0
  9
$DIMALTTZ
 70
     0
  9
$DIMUPT
 70
     0
  9
$DIMDEC
 70
     3
  9
$DIMTDEC
 70
     3
  9
$DIMALTU
 70
     8
  9
$DIMALTTD
 70
     4
  9
$DIMTXSTY
  7
STANDARD
  9
$DIMAUNIT
 70
     0
  9
$DIMADEC
 70
     0
  9
$DIMALTRND
 40
0.0
  9
$DIMAZIN
 70
     0
  9
$DIMDSEP
 70
    46
  9
$DIMATFIT
 70
     3
  9
$DIMFRAC
 70
     0
  9
$DIMLDRBLK
  1

  9
$DIMLUNIT
 70
     2
  9
$DIMLWD
 70
    -2
  9
$DIMLWE
 70
    -2
  9
$DIMTMOVE
 70
     0
  9
$LUNITS
 70
     2
  9
$LUPREC
 70
     4
  9
$SKETCHINC
 40
1.0
  9
$FILLETRAD
 40
1.5
  9
$AUNITS
 70
     0
  9
$AUPREC
 70
     0
  9
$MENU
  1
.
  9
$ELEVATION
 40
0.0
  9
$PELEVATION
 40
0.0
  9
$THICKNESS
 40
0.0
  9
$LIMCHECK
 70
     0
  9
$CHAMFERA
 40
5.050505050505051
  9
$CHAMFERB
 40
5.050505050505051
  9
$CHAMFERC
 40
10.1010101010101
  9
$CHAMFERD
 40
0.0
  9
$SKPOLY
 70
     1
  9
$TDCREATE
 40
2451219.393276725
  9
$TDUCREATE
 40
2451219.018276725
  9
$TDUPDATE
 40
2455722.561998136
  9
$TDUUPDATE
 40
2455722.186998137
  9
$TDINDWG
 40
1.5047902662
  9
$TDUSRTIMER
 40
1.5047902662
  9
$USRTIMER
 70
     1
  9
$ANGBASE
 50
0.0
  9
$ANGDIR
 70
     0
  9
$PDMODE
 70
     0
  9
$PDSIZE
 40
0.0
  9
$PLINEWID
 40
0.0
  9
$SPLFRAME
 70
     0
  9
$SPLINETYPE
 70
     6
  9
$SPLINESEGS
 70
     8
  9
$HANDSEED
  5
3A66
  9
$SURFTAB1
 70
     6
  9
$SURFTAB2
 70
     6
  9
$SURFTYPE
 70
     6
  9
$SURFU
 70
     6
  9
$SURFV
 70
     6
  9
$UCSBASE
  2

  9
$UCSNAME
  2

  9
$UCSORG
 10
0.0
 20
0.0
 30
0.0
  9
$UCSXDIR
 10
1.0
 20
0.0
 30
0.0
  9
$UCSYDIR
 10
0.0
 20
1.0
 30
0.0
  9
$UCSORTHOREF
  2

  9
$UCSORTHOVIEW
 70
     0
  9
$UCSORGTOP
 10
0.0
 20
0.0
 30
0.0
  9
$UCSORGBOTTOM
 10
0.0
 20
0.0
 30
0.0
  9
$UCSORGLEFT
 10
0.0
 20
0.0
 30
0.0
  9
$UCSORGRIGHT
 10
0.0
 20
0.0
 30
0.0
  9
$UCSORGFRONT
 10
0.0
 20
0.0
 30
0.0
  9
$UCSORGBACK
 10
0.0
 20
0.0
 30
0.0
  9
$PUCSBASE
  2

  9
$PUCSNAME
  2

  9
$PUCSORG
 10
0.0
 20
0.0
 30
0.0
  9
$PUCSXDIR
 10
1.0
 20
0.0
 30
0.0
  9
$PUCSYDIR
 10
0.0
 20
1.0
 30
0.0
  9
$PUCSORTHOREF
  2

  9
$PUCSORTHOVIEW
 70
     0
  9
$PUCSORGTOP
 10
0.0
 20
0.0
 30
0.0
  9
$PUCSORGBOTTOM
 10
0.0
 20
0.0
 30
0.0
  9
$PUCSORGLEFT
 10
0.0
 20
0.0
 30
0.0
  9
$PUCSORGRIGHT
 10
0.0
 20
0.0
 30
0.0
  9
$PUCSORGFRONT
 10
0.0
 20
0.0
 30
0.0
  9
$PUCSORGBACK
 10
0.0
 20
0.0
 30
0.0
  9
$USERI1
 70
     0
  9
$USERI2
 70
     0
  9
$USERI3
 70
     0
  9
$USERI4
 70
     0
  9
$USERI5
 70
     0
  9
$USERR1
 40
0.0
  9
$USERR2
 40
0.0
  9
$USERR3
 40
0.0
  9
$USERR4
 40
0.0
  9
$USERR5
 40
0.0
  9
$WORLDVIEW
 70
     1
  9
$SHADEDGE
 70
     3
  9
$SHADEDIF
 70
    70
  9
$TILEMODE
 70
     0
  9
$MAXACTVP
 70
    48
  9
$PINSBASE
 10
0.0
 20
0.0
 30
0.0
  9
$PLIMCHECK
 70
     0
  9
$PEXTMIN
 10
2.63496497082599
 20
0.4636415418750062
 30
-0.0015258207003583
  9
$PEXTMAX
 10
284.9901285355327
 20
196.6408090550544
 30
0.0000000349246037
  9
$PLIMMIN
 10
-5.873748779296875
 20
-5.873749732971191
  9
$PLIMMAX
 10
291.05224609375
 20
204.0995779037475
  9
$UNITMODE
 70
     0
  9
$VISRETAIN
 70
     1
  9
$PLINEGEN
 70
     0
  9
$PSLTSCALE
 70
     1
  9
$TREEDEPTH
 70
  3020
  9
$CMLSTYLE
  2
STANDARD
  9
$CMLJUST
 70
     0
  9
$CMLSCALE
 40
1.0
  9
$PROXYGRAPHICS
 70
     1
  9
$MEASUREMENT
 70
     1
  9
$CELWEIGHT
370
    -1
  9
$ENDCAPS
280
     0
  9
$JOINSTYLE
280
     0
  9
$LWDISPLAY
290
     0
  9
$INSUNITS
 70
     0
  9
$HYPERLINKBASE
  1

  9
$STYLESHEET
  1

  9
$XEDIT
290
     1
  9
$CEPSNTYPE
380
     0
  9
$PSTYLEMODE
290
     1
  9
$FINGERPRINTGUID
  2
{2B92E75F-D1AC-4ECD-AE9D-002FA89FFD04}
  9
$VERSIONGUID
  2
{2075F5B9-55B5-48D5-9879-0A5845966B0E}
  9
$EXTNAMES
290
     1
  9
$PSVPSCALE
 40
0.0
  9
$OLESTARTUP
290
     0
  0
ENDSEC
  0
SECTION
  2
CLASSES
  0
CLASS
  1
DICTIONARYVAR
  2
AcDbDictionaryVar
  3
ObjectDBX Classes
 90
        0
280
     0
281
     0
  0
CLASS
  1
LWPOLYLINE
  2
AcDbPolyline
  3
ObjectDBX Classes
 90
        0
280
     0
281
     1
  0
CLASS
  1
HATCH
  2
AcDbHatch
  3
ObjectDBX Classes
 90
        0
280
     0
281
     1
  0
CLASS
  1
ACDBDICTIONARYWDFLT
  2
AcDbDictionaryWithDefault
  3
ObjectDBX Classes
 90
        0
280
     0
281
     0
  0
CLASS
  1
ACDBPLACEHOLDER
  2
AcDbPlaceHolder
  3
ObjectDBX Classes
 90
        0
280
     0
281
     0
  0
CLASS
  1
LAYOUT
  2
AcDbLayout
  3
ObjectDBX Classes
 90
        0
280
     0
281
     0
  0
CLASS
  1
TABLESTYLE
  2
AcDbTableStyle
  3
ObjectDBX Classes
 90
     2047
280
     0
281
     0
  0
CLASS
  1
SORTENTSTABLE
  2
AcDbSortentsTable
  3
ObjectDBX Classes
 90
        0
280
     0
281
     0
  0
CLASS
  1
MATERIAL
  2
AcDbMaterial
  3
ObjectDBX Classes
 90
        0
280
     0
281
     0
  0
CLASS
  1
VISUALSTYLE
  2
AcDbVisualStyle
  3
ObjectDBX Classes
 90
     4095
280
     0
281
     0
  0
CLASS
  1
SCALE
  2
AcDbScale
  3
ObjectDBX Classes
 90
     1153
280
     0
281
     0
  0
CLASS
  1
MLEADERSTYLE
  2
AcDbMLeaderStyle
  3
ACDB_MLEADERSTYLE_CLASS
 90
     4095
280
     0
281
     0
  0
CLASS
  1
CELLSTYLEMAP
  2
AcDbCellStyleMap
  3
ObjectDBX Classes
 90
     1152
280
     0
281
     0
  0
ENDSEC
  0
SECTION
  2
TABLES
  0
TABLE
  2
VPORT
  5
8
102
{ACAD_XDICTIONARY
360
2964
102
}
330
0
100
AcDbSymbolTable
 70
     2
  0
VPORT
  5
3A4C
330
8
100
AcDbSymbolTableRecord
100
AcDbViewportTableRecord
  2
*Active
 70
     0
 10
0.0
 20
0.0
 11
1.0
 21
1.0
 12
371.6255026546881
 22
67.12100992611246
 13
0.0
 23
0.0
 14
1.0
 24
1.0
 15
2.0
 25
2.0
 16
0.0
 26
0.0
 36
1.0
 17
0.0
 27
0.0
 37
0.0
 40
454.6844552476929
 41
1.64625
 42
50.0
 43
0.0
 44
0.0
 50
0.0
 51
0.0
 71
     0
 72
   100
 73
     1
 74
     1
 75
     0
 76
     0
 77
     0
 78
     0
281
     0
 65
     1
110
0.0
120
0.0
130
0.0
111
1.0
121
0.0
131
0.0
112
0.0
122
1.0
132
0.0
 79
     0
146
0.0
  0
ENDTAB
  0
TABLE
  2
LTYPE
  5
5
330
0
100
AcDbSymbolTable
 70
    48
  0
LTYPE
  5
14
330
5
100
AcDbSymbolTableRecord
100
AcDbLinetypeTableRecord
  2
BYBLOCK
 70
     0
  3

 72
    65
 73
     0
 40
0.0
  0
LTYPE
  5
15
330
5
100
AcDbSymbolTableRecord
100
AcDbLinetypeTableRecord
  2
BYLAYER
 70
     0
  3

 72
    65
 73
     0
 40
0.0
  0
LTYPE
  5
16
330
5
100
AcDbSymbolTableRecord
100
AcDbLinetypeTableRecord
  2
CONTINUOUS
 70
     0
  3
Solid line
 72
    65
 73
     0
 40
0.0
  0
LTYPE
  5
83
330
5
100
AcDbSymbolTableRecord
100
AcDbLinetypeTableRecord
  2
HIDDEN
 70
     0
  3
Hidden __ __ __ __ __ __ __ __ __ __ __ __ __ _
 72
    65
 73
     2
 40
9.524999999999998
 49
6.349999999999999
 74
     0
 49
-3.174999999999999
 74
     0
  0
LTYPE
  5
84
330
5
100
AcDbSymbolTableRecord
100
AcDbLinetypeTableRecord
  2
CENTER
 70
     0
  3
Center ____ _ ____ _ ____ _ ____ _ ____ _ ____
 72
    65
 73
     4
 40
50.8
 49
31.75
 74
     0
 49
-6.349999999999999
 74
     0
 49
6.349999999999999
 74
     0
 49
-6.349999999999999
 74
     0
  0
LTYPE
  5
17CF
330
5
100
AcDbSymbolTableRecord
100
AcDbLinetypeTableRecord
  2
PHANTOM2
 70
     0
  3
Phantom (.5x) ___ _ _ ___ _ _ ___ _ _ ___ _ _
 72
    65
 73
     6
 40
1.25
 49
0.625
 74
     0
 49
-0.125
 74
     0
 49
0.125
 74
     0
 49
-0.125
 74
     0
 49
0.125
 74
     0
 49
-0.125
 74
     0
  0
LTYPE
  5
17D0
330
5
100
AcDbSymbolTableRecord
100
AcDbLinetypeTableRecord
  2
ASULTYPE
 70
     0
  3
実線
 72
    65
 73
     2
 40
3.0
 49
2.5
 74
     0
 49
0.5
 74
     0
  0
LTYPE
  5
17D1
330
5
100
AcDbSymbolTableRecord
100
AcDbLinetypeTableRecord
  2
ASVLTYPE
 70
     0
  3
__ __ __ __ __ __ __ __ __ __ __ __ __ __ __ __ __ __ __ __ __
 72
    65
 73
     2
 40
0.75
 49
0.5
 74
     0
 49
-0.25
 74
     0
  0
LTYPE
  5
17D2
330
5
100
AcDbSymbolTableRecord
100
AcDbLinetypeTableRecord
  2
ACAD_ISO02W100
 70
     0
  3
ISO dash __ __ __ __ __ __ __ __ __ __ __ __ __
 72
    65
 73
     2
 40
15.0
 49
12.0
 74
     0
 49
-3.0
 74
     0
  0
LTYPE
  5
17D3
330
5
100
AcDbSymbolTableRecord
100
AcDbLinetypeTableRecord
  2
ACAD_ISO03W100
 70
     0
  3
ISO dash space __    __    __    __    __    __
 72
    65
 73
     2
 40
30.0
 49
12.0
 74
     0
 49
-18.0
 74
     0
  0
LTYPE
  5
17D4
330
5
100
AcDbSymbolTableRecord
100
AcDbLinetypeTableRecord
  2
ACAD_ISO04W100
 70
     0
  3
ISO long-dash dot ____ . ____ . ____ . ____ . _
 72
    65
 73
     4
 40
30.5
 49
24.0
 74
     0
 49
-3.0
 74
     0
 49
0.5
 74
     0
 49
-3.0
 74
     0
  0
LTYPE
  5
17D5
330
5
100
AcDbSymbolTableRecord
100
AcDbLinetypeTableRecord
  2
ACAD_ISO05W100
 70
     0
  3
ISO long-dash double-dot ____ .. ____ .. ____ .
 72
    65
 73
     6
 40
34.0
 49
24.0
 74
     0
 49
-3.0
 74
     0
 49
0.5
 74
     0
 49
-3.0
 74
     0
 49
0.5
 74
     0
 49
-3.0
 74
     0
  0
LTYPE
  5
17D6
330
5
100
AcDbSymbolTableRecord
100
AcDbLinetypeTableRecord
  2
ACAD_ISO06W100
 70
     0
  3
ISO long-dash triple-dot ____ ... ____ ... ____
 72
    65
 73
     8
 40
37.5
 49
24.0
 74
     0
 49
-3.0
 74
     0
 49
0.5
 74
     0
 49
-3.0
 74
     0
 49
0.5
 74
     0
 49
-3.0
 74
     0
 49
0.5
 74
     0
 49
-3.0
 74
     0
  0
LTYPE
  5
17D7
330
5
100
AcDbSymbolTableRecord
100
AcDbLinetypeTableRecord
  2
ACAD_ISO07W100
 70
     0
  3
ISO dot . . . . . . . . . . . . . . . . . . . .
 72
    65
 73
     2
 40
3.5
 49
0.5
 74
     0
 49
-3.0
 74
     0
  0
LTYPE
  5
17D8
330
5
100
AcDbSymbolTableRecord
100
AcDbLinetypeTableRecord
  2
ACAD_ISO08W100
 70
     0
  3
ISO long-dash short-dash ____ __ ____ __ ____ _
 72
    65
 73
     4
 40
36.0
 49
24.0
 74
     0
 49
-3.0
 74
     0
 49
6.0
 74
     0
 49
-3.0
 74
     0
  0
LTYPE
  5
17D9
330
5
100
AcDbSymbolTableRecord
100
AcDbLinetypeTableRecord
  2
ACAD_ISO09W100
 70
     0
  3
ISO long-dash double-short-dash ____ __ __ ____
 72
    65
 73
     6
 40
45.0
 49
24.0
 74
     0
 49
-3.0
 74
     0
 49
6.0
 74
     0
 49
-3.0
 74
     0
 49
6.0
 74
     0
 49
-3.0
 74
     0
  0
LTYPE
  5
17DA
330
5
100
AcDbSymbolTableRecord
100
AcDbLinetypeTableRecord
  2
ACAD_ISO10W100
 70
     0
  3
ISO dash dot __ . __ . __ . __ . __ . __ . __ .
 72
    65
 73
     4
 40
18.5
 49
12.0
 74
     0
 49
-3.0
 74
     0
 49
0.5
 74
     0
 49
-3.0
 74
     0
  0
LTYPE
  5
17DB
330
5
100
AcDbSymbolTableRecord
100
AcDbLinetypeTableRecord
  2
ACAD_ISO11W100
 70
     0
  3
ISO double-dash dot __ __ . __ __ . __ __ . __ 
 72
    65
 73
     6
 40
33.5
 49
12.0
 74
     0
 49
-3.0
 74
     0
 49
12.0
 74
     0
 49
-3.0
 74
     0
 49
0.5
 74
     0
 49
-3.0
 74
     0
  0
LTYPE
  5
17DC
330
5
100
AcDbSymbolTableRecord
100
AcDbLinetypeTableRecord
  2
ACAD_ISO12W100
 70
     0
  3
ISO dash double-dot __ . . __ . . __ . . __ . .
 72
    65
 73
     6
 40
22.0
 49
12.0
 74
     0
 49
-3.0
 74
     0
 49
0.5
 74
     0
 49
-3.0
 74
     0
 49
0.5
 74
     0
 49
-3.0
 74
     0
  0
LTYPE
  5
17DD
330
5
100
AcDbSymbolTableRecord
100
AcDbLinetypeTableRecord
  2
ACAD_ISO13W100
 70
     0
  3
ISO double-dash double-dot __ __ . . __ __ . . 
 72
    65
 73
     8
 40
37.0
 49
12.0
 74
     0
 49
-3.0
 74
     0
 49
12.0
 74
     0
 49
-3.0
 74
     0
 49
0.5
 74
     0
 49
-3.0
 74
     0
 49
0.5
 74
     0
 49
-3.0
 74
     0
  0
LTYPE
  5
17DE
330
5
100
AcDbSymbolTableRecord
100
AcDbLinetypeTableRecord
  2
ACAD_ISO14W100
 70
     0
  3
ISO dash triple-dot __ . . . __ . . . __ . . . 
 72
    65
 73
     8
 40
25.5
 49
12.0
 74
     0
 49
-3.0
 74
     0
 49
0.5
 74
     0
 49
-3.0
 74
     0
 49
0.5
 74
     0
 49
-3.0
 74
     0
 49
0.5
 74
     0
 49
-3.0
 74
     0
  0
LTYPE
  5
17DF
330
5
100
AcDbSymbolTableRecord
100
AcDbLinetypeTableRecord
  2
ACAD_ISO15W100
 70
     0
  3
ISO double-dash triple-dot __ __ . . . __ __ . 
 72
    65
 73
    10
 40
40.49999999999999
 49
12.0
 74
     0
 49
-3.0
 74
     0
 49
12.0
 74
     0
 49
-3.0
 74
     0
 49
0.5
 74
     0
 49
-3.0
 74
     0
 49
0.5
 74
     0
 49
-3.0
 74
     0
 49
0.5
 74
     0
 49
-3.0
 74
     0
  0
LTYPE
  5
17E0
330
5
100
AcDbSymbolTableRecord
100
AcDbLinetypeTableRecord
  2
BATTING
 70
     0
  3
Batting SSSSSSSSSSSSSSSSSSSSSSSSSSSSSSSSSSSSSSS
 72
    65
 73
     4
 40
0.4001000000000001
 49
0.0001
 74
     0
 49
-0.1
 74
     4
 75
   134
340
82
 46
0.1
 50
0.0
 44
-0.1
 45
0.0
 49
-0.2
 74
     4
 75
   134
340
82
 46
0.1
 50
180.0
 44
0.1
 45
0.0
 49
-0.1
 74
     0
  0
LTYPE
  5
17E1
330
5
100
AcDbSymbolTableRecord
100
AcDbLinetypeTableRecord
  2
BORDER
 70
     0
  3
Border __ __ . __ __ . __ __ . __ __ . __ __ .
 72
    65
 73
     6
 40
1.75
 49
0.5
 74
     0
 49
-0.25
 74
     0
 49
0.5
 74
     0
 49
-0.25
 74
     0
 49
0.0
 74
     0
 49
-0.25
 74
     0
  0
LTYPE
  5
17E2
330
5
100
AcDbSymbolTableRecord
100
AcDbLinetypeTableRecord
  2
BORDER2
 70
     0
  3
Border (.5x) __.__.__.__.__.__.__.__.__.__.__.
 72
    65
 73
     6
 40
0.875
 49
0.25
 74
     0
 49
-0.125
 74
     0
 49
0.25
 74
     0
 49
-0.125
 74
     0
 49
0.0
 74
     0
 49
-0.125
 74
     0
  0
LTYPE
  5
17E3
330
5
100
AcDbSymbolTableRecord
100
AcDbLinetypeTableRecord
  2
BORDERX2
 70
     0
  3
Border (2x) ____  ____  .  ____  ____  .  ___
 72
    65
 73
     6
 40
3.5
 49
1.0
 74
     0
 49
-0.5
 74
     0
 49
1.0
 74
     0
 49
-0.5
 74
     0
 49
0.0
 74
     0
 49
-0.5
 74
     0
  0
LTYPE
  5
17E4
330
5
100
AcDbSymbolTableRecord
100
AcDbLinetypeTableRecord
  2
CENTER2
 70
     0
  3
Center (.5x) ___ _ ___ _ ___ _ ___ _ ___ _ ___
 72
    65
 73
     4
 40
1.125
 49
0.75
 74
     0
 49
-0.125
 74
     0
 49
0.125
 74
     0
 49
-0.125
 74
     0
  0
LTYPE
  5
17E5
330
5
100
AcDbSymbolTableRecord
100
AcDbLinetypeTableRecord
  2
CENTERX2
 70
     0
  3
Center (2x) ________  __  ________  __  _____
 72
    65
 73
     4
 40
4.0
 49
2.5
 74
     0
 49
-0.5
 74
     0
 49
0.5
 74
     0
 49
-0.5
 74
     0
  0
LTYPE
  5
17E6
330
5
100
AcDbSymbolTableRecord
100
AcDbLinetypeTableRecord
  2
DASHDOT
 70
     0
  3
Dash dot __ . __ . __ . __ . __ . __ . __ . __
 72
    65
 73
     4
 40
1.0
 49
0.5
 74
     0
 49
-0.25
 74
     0
 49
0.0
 74
     0
 49
-0.25
 74
     0
  0
LTYPE
  5
17E7
330
5
100
AcDbSymbolTableRecord
100
AcDbLinetypeTableRecord
  2
DASHDOT2
 70
     0
  3
Dash dot (.5x) _._._._._._._._._._._._._._._.
 72
    65
 73
     4
 40
0.5
 49
0.25
 74
     0
 49
-0.125
 74
     0
 49
0.0
 74
     0
 49
-0.125
 74
     0
  0
LTYPE
  5
17E8
330
5
100
AcDbSymbolTableRecord
100
AcDbLinetypeTableRecord
  2
DASHDOTX2
 70
     0
  3
Dash dot (2x) ____  .  ____  .  ____  .  ___
 72
    65
 73
     4
 40
2.0
 49
1.0
 74
     0
 49
-0.5
 74
     0
 49
0.0
 74
     0
 49
-0.5
 74
     0
  0
LTYPE
  5
17E9
330
5
100
AcDbSymbolTableRecord
100
AcDbLinetypeTableRecord
  2
DASHED
 70
     0
  3
Dashed __ __ __ __ __ __ __ __ __ __ __ __ __ _
 72
    65
 73
     2
 40
0.75
 49
0.5
 74
     0
 49
-0.25
 74
     0
  0
LTYPE
  5
17EA
330
5
100
AcDbSymbolTableRecord
100
AcDbLinetypeTableRecord
  2
DASHED2
 70
     0
  3
Dashed (.5x) _ _ _ _ _ _ _ _ _ _ _ _ _ _ _ _ _
 72
    65
 73
     2
 40
0.375
 49
0.25
 74
     0
 49
-0.125
 74
     0
  0
LTYPE
  5
17EB
330
5
100
AcDbSymbolTableRecord
100
AcDbLinetypeTableRecord
  2
DASHEDX2
 70
     0
  3
Dashed (2x) ____  ____  ____  ____  ____  ___
 72
    65
 73
     2
 40
1.5
 49
1.0
 74
     0
 49
-0.5
 74
     0
  0
LTYPE
  5
17EC
330
5
100
AcDbSymbolTableRecord
100
AcDbLinetypeTableRecord
  2
DIVIDE
 70
     0
  3
Divide ____ . . ____ . . ____ . . ____ . . ____
 72
    65
 73
     6
 40
1.25
 49
0.5
 74
     0
 49
-0.25
 74
     0
 49
0.0
 74
     0
 49
-0.25
 74
     0
 49
0.0
 74
     0
 49
-0.25
 74
     0
  0
LTYPE
  5
17ED
330
5
100
AcDbSymbolTableRecord
100
AcDbLinetypeTableRecord
  2
DIVIDE2
 70
     0
  3
Divide (.5x) __..__..__..__..__..__..__..__.._
 72
    65
 73
     6
 40
0.625
 49
0.25
 74
     0
 49
-0.125
 74
     0
 49
0.0
 74
     0
 49
-0.125
 74
     0
 49
0.0
 74
     0
 49
-0.125
 74
     0
  0
LTYPE
  5
17EE
330
5
100
AcDbSymbolTableRecord
100
AcDbLinetypeTableRecord
  2
DIVIDEX2
 70
     0
  3
Divide (2x) ________  .  .  ________  .  .  _
 72
    65
 73
     6
 40
2.5
 49
1.0
 74
     0
 49
-0.5
 74
     0
 49
0.0
 74
     0
 49
-0.5
 74
     0
 49
0.0
 74
     0
 49
-0.5
 74
     0
  0
LTYPE
  5
17EF
330
5
100
AcDbSymbolTableRecord
100
AcDbLinetypeTableRecord
  2
DOT
 70
     0
  3
Dot . . . . . . . . . . . . . . . . . . . . . .
 72
    65
 73
     2
 40
0.25
 49
0.0
 74
     0
 49
-0.25
 74
     0
  0
LTYPE
  5
17F0
330
5
100
AcDbSymbolTableRecord
100
AcDbLinetypeTableRecord
  2
DOT2
 70
     0
  3
Dot (.5x) .....................................
 72
    65
 73
     2
 40
0.125
 49
0.0
 74
     0
 49
-0.125
 74
     0
  0
LTYPE
  5
17F1
330
5
100
AcDbSymbolTableRecord
100
AcDbLinetypeTableRecord
  2
DOTX2
 70
     0
  3
Dot (2x) .  .  .  .  .  .  .  .  .  .  .  .  . 
 72
    65
 73
     2
 40
0.5
 49
0.0
 74
     0
 49
-0.5
 74
     0
  0
LTYPE
  5
17F2
330
5
100
AcDbSymbolTableRecord
100
AcDbLinetypeTableRecord
  2
FENCELINE1
 70
     0
  3
Fenceline circle ----0-----0----0-----0----0---
 72
    65
 73
     4
 40
1.45
 49
0.25
 74
     0
 49
-0.1
 74
     4
 75
   133
340
82
 46
0.1
 50
0.0
 44
-0.1
 45
0.0
 49
-0.1
 74
     0
 49
1.0
 74
     0
  0
LTYPE
  5
17F3
330
5
100
AcDbSymbolTableRecord
100
AcDbLinetypeTableRecord
  2
FENCELINE2
 70
     0
  3
Fenceline square ----[]-----[]----[]-----[]----
 72
    65
 73
     4
 40
1.45
 49
0.25
 74
     0
 49
-0.1
 74
     4
 75
   132
340
82
 46
0.1
 50
0.0
 44
-0.1
 45
0.0
 49
-0.1
 74
     0
 49
1.0
 74
     0
  0
LTYPE
  5
17F4
330
5
100
AcDbSymbolTableRecord
100
AcDbLinetypeTableRecord
  2
GAS_LINE
 70
     0
  3
Gas line ----GAS----GAS----GAS----GAS----GAS---
 72
    65
 73
     3
 40
0.95
 49
0.5
 74
     0
 49
-0.2
 74
     2
 75
     0
340
10
 46
0.1
 50
0.0
 44
-0.1
 45
-0.05
  9
GAS
 49
-0.25
 74
     0
  0
LTYPE
  5
17F5
330
5
100
AcDbSymbolTableRecord
100
AcDbLinetypeTableRecord
  2
HIDDEN2
 70
     0
  3
Hidden (.5x) _ _ _ _ _ _ _ _ _ _ _ _ _ _ _ _ _
 72
    65
 73
     2
 40
0.1875
 49
0.125
 74
     0
 49
-0.0625
 74
     0
  0
LTYPE
  5
17F6
330
5
100
AcDbSymbolTableRecord
100
AcDbLinetypeTableRecord
  2
HIDDENX2
 70
     0
  3
Hidden (2x) ____ ____ ____ ____ ____ ____ ____
 72
    65
 73
     2
 40
0.75
 49
0.5
 74
     0
 49
-0.25
 74
     0
  0
LTYPE
  5
17F7
330
5
100
AcDbSymbolTableRecord
100
AcDbLinetypeTableRecord
  2
HOT_WATER_SUPPLY
 70
     0
  3
Hot water supply ---- HW ---- HW ---- HW ----
 72
    65
 73
     3
 40
0.9
 49
0.5
 74
     0
 49
-0.2
 74
     2
 75
     0
340
10
 46
0.1
 50
0.0
 44
-0.1
 45
-0.05
  9
HW
 49
-0.2
 74
     0
  0
LTYPE
  5
17F8
330
5
100
AcDbSymbolTableRecord
100
AcDbLinetypeTableRecord
  2
PHANTOM
 70
     0
  3
Phantom ______  __  __  ______  __  __  ______
 72
    65
 73
     6
 40
2.5
 49
1.25
 74
     0
 49
-0.25
 74
     0
 49
0.25
 74
     0
 49
-0.25
 74
     0
 49
0.25
 74
     0
 49
-0.25
 74
     0
  0
LTYPE
  5
17F9
330
5
100
AcDbSymbolTableRecord
100
AcDbLinetypeTableRecord
  2
PHANTOMX2
 70
     0
  3
Phantom (2x) ____________    ____    ____   _
 72
    65
 73
     6
 40
5.0
 49
2.5
 74
     0
 49
-0.5
 74
     0
 49
0.5
 74
     0
 49
-0.5
 74
     0
 49
0.5
 74
     0
 49
-0.5
 74
     0
  0
LTYPE
  5
17FA
330
5
100
AcDbSymbolTableRecord
100
AcDbLinetypeTableRecord
  2
TRACKS
 70
     0
  3
Tracks -|-|-|-|-|-|-|-|-|-|-|-|-|-|-|-|-|-|-|-|
 72
    65
 73
     2
 40
0.3
 49
0.15
 74
     4
 75
   130
340
82
 46
0.25
 50
0.0
 44
0.0
 45
0.0
 49
0.15
 74
     0
  0
LTYPE
  5
17FB
330
5
100
AcDbSymbolTableRecord
100
AcDbLinetypeTableRecord
  2
ZIGZAG
 70
     0
  3
Zig zag /\/\/\/\/\/\/\/\/\/\/\/\/\/\/\/\/\/\/\/
 72
    65
 73
     4
 40
0.8001000000000001
 49
0.0001
 74
     0
 49
-0.2
 74
     4
 75
   131
340
82
 46
0.2
 50
0.0
 44
-0.2
 45
0.0
 49
-0.4
 74
     4
 75
   131
340
82
 46
0.2
 50
180.0
 44
0.2
 45
0.0
 49
-0.2
 74
     0
  0
ENDTAB
  0
TABLE
  2
LAYER
  5
2
102
{ACAD_XDICTIONARY
360
1978
102
}
330
0
100
AcDbSymbolTable
 70
    20
  0
LAYER
  5
F
102
{ACAD_XDICTIONARY
360
2939
102
}
330
2
100
AcDbSymbolTableRecord
100
AcDbLayerTableRecord
  2
0
 70
     0
 62
     7
  6
CONTINUOUS
370
    -3
390
140C
  0
LAYER
  5
7E
102
{ACAD_XDICTIONARY
360
293B
102
}
330
2
100
AcDbSymbolTableRecord
100
AcDbLayerTableRecord
  2
図
 70
     0
 62
     4
  6
CONTINUOUS
370
    -3
390
140C
  0
LAYER
  5
7F
102
{ACAD_XDICTIONARY
360
293D
102
}
330
2
100
AcDbSymbolTableRecord
100
AcDbLayerTableRecord
  2
寸法
 70
     0
 62
     8
  6
CONTINUOUS
370
    -3
390
140C
  0
LAYER
  5
14F
102
{ACAD_XDICTIONARY
360
38D1
102
}
330
2
100
AcDbSymbolTableRecord
100
AcDbLayerTableRecord
  2
DEFPOINTS
 70
     0
 62
     7
  6
CONTINUOUS
290
     0
370
    -3
390
140C
  0
LAYER
  5
235
102
{ACAD_XDICTIONARY
360
293F
102
}
330
2
100
AcDbSymbolTableRecord
100
AcDbLayerTableRecord
  2
CENTER
 70
     0
 62
     1
  6
CONTINUOUS
370
    -3
390
140C
  0
LAYER
  5
9E6
102
{ACAD_XDICTIONARY
360
2941
102
}
330
2
100
AcDbSymbolTableRecord
100
AcDbLayerTableRecord
  2
VIEW1
 70
     0
 62
    -7
  6
CONTINUOUS
370
    -3
390
140C
  0
LAYER
  5
9F8
102
{ACAD_XDICTIONARY
360
2943
102
}
330
2
100
AcDbSymbolTableRecord
100
AcDbLayerTableRecord
  2
図面太枠
 70
     0
 62
     3
  6
CONTINUOUS
370
    -3
390
140C
  0
LAYER
  5
17FC
102
{ACAD_XDICTIONARY
360
2945
102
}
330
2
100
AcDbSymbolTableRecord
100
AcDbLayerTableRecord
  2
AM_TR
 70
     0
 62
     7
  6
CONTINUOUS
370
    -3
390
140C
  0
LAYER
  5
17FD
102
{ACAD_XDICTIONARY
360
2947
102
}
330
2
100
AcDbSymbolTableRecord
100
AcDbLayerTableRecord
  2
AM_BM
 70
     0
 62
     7
  6
CONTINUOUS
370
    -3
390
140C
  0
LAYER
  5
17FE
102
{ACAD_XDICTIONARY
360
2949
102
}
330
2
100
AcDbSymbolTableRecord
100
AcDbLayerTableRecord
  2
AM_BL
 70
     0
 62
     7
  6
CONTINUOUS
370
    -3
390
140C
  0
LAYER
  5
17FF
102
{ACAD_XDICTIONARY
360
294B
102
}
330
2
100
AcDbSymbolTableRecord
100
AcDbLayerTableRecord
  2
AM_VIEWS
 70
     0
 62
     7
  6
CONTINUOUS
370
    -3
390
140C
  0
LAYER
  5
1800
102
{ACAD_XDICTIONARY
360
294D
102
}
330
2
100
AcDbSymbolTableRecord
100
AcDbLayerTableRecord
  2
AM_PARDIM
 70
     0
 62
     3
  6
CONTINUOUS
370
    -3
390
140C
  0
LAYER
  5
1801
102
{ACAD_XDICTIONARY
360
294F
102
}
330
2
100
AcDbSymbolTableRecord
100
AcDbLayerTableRecord
  2
AM_REFDIM
 70
     0
 62
     4
  6
CONTINUOUS
370
    -3
390
140C
  0
LAYER
  5
1802
102
{ACAD_XDICTIONARY
360
2951
102
}
330
2
100
AcDbSymbolTableRecord
100
AcDbLayerTableRecord
  2
AM_VIS
 70
     0
 62
     7
  6
CONTINUOUS
370
    -3
390
140C
  0
LAYER
  5
1803
102
{ACAD_XDICTIONARY
360
2953
102
}
330
2
100
AcDbSymbolTableRecord
100
AcDbLayerTableRecord
  2
AM_HID
 70
     0
 62
     7
  6
HIDDEN
370
    -3
390
140C
  0
LAYER
  5
1804
102
{ACAD_XDICTIONARY
360
2955
102
}
330
2
100
AcDbSymbolTableRecord
100
AcDbLayerTableRecord
  2
ZUMENWAKU
 70
     0
 62
     3
  6
CONTINUOUS
370
    -3
390
140C
  0
LAYER
  5
1805
102
{ACAD_XDICTIONARY
360
2957
102
}
330
2
100
AcDbSymbolTableRecord
100
AcDbLayerTableRecord
  2
GAIKEI
 70
     0
 62
     4
  6
CONTINUOUS
370
    -3
390
140C
  0
LAYER
  5
1806
102
{ACAD_XDICTIONARY
360
2959
102
}
330
2
100
AcDbSymbolTableRecord
100
AcDbLayerTableRecord
  2
SUNPOU
 70
     0
 62
     9
  6
CONTINUOUS
370
    -3
390
140C
  0
LAYER
  5
1807
102
{ACAD_XDICTIONARY
360
295B
102
}
330
2
100
AcDbSymbolTableRecord
100
AcDbLayerTableRecord
  2
KAKURE
 70
     0
 62
     2
  6
DASHEDX2
370
    -3
390
140C
  0
LAYER
  5
1808
102
{ACAD_XDICTIONARY
360
295D
102
}
330
2
100
AcDbSymbolTableRecord
100
AcDbLayerTableRecord
  2
HIHYOUJI
 70
     0
 62
     7
  6
DASHEDX2
370
    -3
390
140C
  0
ENDTAB
  0
TABLE
  2
STYLE
  5
3
330
0
100
AcDbSymbolTable
 70
     6
  0
STYLE
  5
10
330
3
100
AcDbSymbolTableRecord
100
AcDbTextStyleTableRecord
  2
STANDARD
 70
     0
 40
2.5
 41
1.0
 50
0.0
 71
     0
 42
2.5
  3
romans.shx
  4
bigfont.shx
  0
STYLE
  5
82
330
3
100
AcDbSymbolTableRecord
100
AcDbTextStyleTableRecord
  2

 70
     1
 40
0.0
 41
1.0
 50
0.0
 71
     0
 42
1.262626262626262
  3
ltypeshp.shx
  4

  0
STYLE
  5
6EB
330
3
100
AcDbSymbolTableRecord
100
AcDbTextStyleTableRecord
  2
MSG
 70
     0
 40
0.0
 41
1.0
 50
0.0
 71
     0
 42
2.5
  3
MS Gothic.ttf
  4

1001
ACAD
1000
MS Gothic
1071
    32817
  0
STYLE
  5
8E9
330
3
100
AcDbSymbolTableRecord
100
AcDbTextStyleTableRecord
  2
ROMANS
 70
     0
 40
0.0
 41
1.0
 50
0.0
 71
     0
 42
2.5
  3
romans.shx
  4
bigfont.shx
  0
STYLE
  5
E6F
330
3
100
AcDbSymbolTableRecord
100
AcDbTextStyleTableRecord
  2
CB
 70
     0
 40
0.0
 41
1.0
 50
0.0
 71
     0
 42
2.5
  3
MS Gothic.ttf
  4

1001
ACAD
1000
MS Gothic
1071
    32817
  0
ENDTAB
  0
TABLE
  2
VIEW
  5
6
330
0
100
AcDbSymbolTable
 70
     2
  0
ENDTAB
  0
TABLE
  2
UCS
  5
7
330
0
100
AcDbSymbolTable
 70
     0
  0
ENDTAB
  0
TABLE
  2
APPID
  5
9
330
0
100
AcDbSymbolTable
 70
    15
  0
APPID
  5
11
330
9
100
AcDbSymbolTableRecord
100
AcDbRegAppTableRecord
  2
ACAD
 70
     0
  0
APPID
  5
6C8
330
9
100
AcDbSymbolTableRecord
100
AcDbRegAppTableRecord
  2
CONTENTBLOCKICON
 70
     0
  0
APPID
  5
6C9
330
9
100
AcDbSymbolTableRecord
100
AcDbRegAppTableRecord
  2
CONTENTBLOCKDESCRIPTION
 70
     0
  0
APPID
  5
1809
330
9
100
AcDbSymbolTableRecord
100
AcDbRegAppTableRecord
  2
MCAD_NO_VIS
 70
     0
  0
APPID
  5
180A
330
9
100
AcDbSymbolTableRecord
100
AcDbRegAppTableRecord
  2
AD_DRAW
 70
     0
  0
APPID
  5
180B
330
9
100
AcDbSymbolTableRecord
100
AcDbRegAppTableRecord
  2
DESIGNERASSEMBLIES
 70
     0
  0
APPID
  5
180C
330
9
100
AcDbSymbolTableRecord
100
AcDbRegAppTableRecord
  2
ASURF_PCURVE_APPNAME
 70
     0
  0
APPID
  5
1D0A
330
9
100
AcDbSymbolTableRecord
100
AcDbRegAppTableRecord
  2
ACAD_PSEXT
 70
     0
  0
APPID
  5
1DC9
330
9
100
AcDbSymbolTableRecord
100
AcDbRegAppTableRecord
  2
ACAD_DSTYLE_DIMEXT_LENGTH
 70
     0
  0
APPID
  5
1DCA
330
9
100
AcDbSymbolTableRecord
100
AcDbRegAppTableRecord
  2
ACAD_DSTYLE_DIMEXT_ENABLED
 70
     0
  0
APPID
  5
1DCB
330
9
100
AcDbSymbolTableRecord
100
AcDbRegAppTableRecord
  2
ACAD_DSTYLE_DIMJOGGED_JOGANGLE_SYMBOL
 70
     0
  0
APPID
  5
1DCC
330
9
100
AcDbSymbolTableRecord
100
AcDbRegAppTableRecord
  2
ACAD_DSTYLE_DIMARC_LENGTH_SYMBOL
 70
     0
  0
APPID
  5
292E
330
9
100
AcDbSymbolTableRecord
100
AcDbRegAppTableRecord
  2
ACAD_MLEADERVER
 70
     0
  0
APPID
  5
29DD
330
9
100
AcDbSymbolTableRecord
100
AcDbRegAppTableRecord
  2
GENIUS_GENDTOL_13
 70
     0
  0
APPID
  5
349F
330
9
100
AcDbSymbolTableRecord
100
AcDbRegAppTableRecord
  2
ACAD_EXEMPT_FROM_CAD_STANDARDS
 70
     0
  0
ENDTAB
  0
TABLE
  2
DIMSTYLE
  5
A
330
0
100
AcDbSymbolTable
 70
    21
100
AcDbDimStyleTable
 71
     2
340
7D
340
29DC
  0
DIMSTYLE
105
1D
102
{ACAD_REACTORS
330
3A4A
102
}
330
A
100
AcDbSymbolTableRecord
100
AcDbDimStyleTableRecord
  2
STANDARD
 70
     0
 41
2.5
 42
0.625
 43
3.75
 44
1.25
 73
     0
 74
     0
 77
     1
 78
     8
140
2.5
141
2.5
143
0.0394
147
0.625
171
     4
172
     1
273
     8
274
     4
277
     6
340
10
  0
DIMSTYLE
105
25
330
A
100
AcDbSymbolTableRecord
100
AcDbDimStyleTableRecord
  2
ISO-35
 70
     0
 41
3.5
 42
0.875
 43
5.25
 44
1.75
 73
     0
 74
     0
 77
     1
 78
     8
140
3.5
141
3.5
143
0.0394
147
0.875
171
     4
172
     1
273
     8
274
     4
277
     6
340
10
  0
DIMSTYLE
105
26
330
A
100
AcDbSymbolTableRecord
100
AcDbDimStyleTableRecord
  2
ISO-5
 70
     0
 41
5.0
 42
1.25
 43
7.5
 44
2.5
 73
     0
 74
     0
 77
     1
 78
     8
140
5.0
141
5.0
143
0.0394
147
1.25
171
     4
172
     1
273
     8
274
     4
277
     6
340
10
  0
DIMSTYLE
105
27
330
A
100
AcDbSymbolTableRecord
100
AcDbDimStyleTableRecord
  2
ISO-7
 70
     0
 41
7.0
 42
1.75
 43
10.5
 44
3.5
 73
     0
 74
     0
 77
     1
 78
     8
140
7.0
141
7.0
143
0.0394
147
1.75
171
     4
172
     1
273
     8
274
     4
277
     6
340
10
  0
DIMSTYLE
105
28
330
A
100
AcDbSymbolTableRecord
100
AcDbDimStyleTableRecord
  2
ISO1
 70
     0
 41
10.0
 42
2.5
 43
15.0
 44
5.0
 73
     0
 74
     0
 77
     1
 78
     8
140
10.0
141
10.0
143
0.0394
147
2.5
171
     4
172
     1
273
     8
274
     4
277
     6
340
10
  0
DIMSTYLE
105
29
330
A
100
AcDbSymbolTableRecord
100
AcDbDimStyleTableRecord
  2
ISO1-4
 70
     0
 41
14.0
 42
3.5
 43
21.0
 44
7.0
 74
     0
 77
     1
 78
     8
140
14.0
141
14.0
143
0.0394
145
5.599999999999999
147
3.5
172
     1
273
     8
277
     6
340
10
  0
DIMSTYLE
105
2A
330
A
100
AcDbSymbolTableRecord
100
AcDbDimStyleTableRecord
  2
ISO2
 70
     0
 41
20.0
 42
5.0
 43
30.0
 44
10.0
 73
     0
 74
     0
 77
     1
 78
     8
140
20.0
141
20.0
143
0.0394
147
5.0
171
     4
172
     1
273
     8
274
     4
277
     6
340
10
  0
DIMSTYLE
105
60
330
A
100
AcDbSymbolTableRecord
100
AcDbDimStyleTableRecord
  2
ISO-4
 70
     0
 41
14.0
 42
3.5
 43
21.0
 44
7.0
 73
     0
 74
     0
 77
     1
 78
     8
140
14.0
141
14.0
143
0.0394
147
3.5
171
     4
172
     1
273
     8
274
     4
277
     6
340
10
  0
DIMSTYLE
105
62
330
A
100
AcDbSymbolTableRecord
100
AcDbDimStyleTableRecord
  2
ISO-25
 70
     0
 41
2.5
 42
0.625
 43
3.75
 44
1.25
 73
     0
 74
     0
 77
     1
 78
     8
140
2.5
141
2.5
143
0.0394
147
0.625
171
     4
172
     1
273
     8
274
     4
277
     6
340
10
  0
DIMSTYLE
105
7D
330
A
100
AcDbSymbolTableRecord
100
AcDbDimStyleTableRecord
  2
ISO-25_WS
 70
     0
 40
0.5050505050505051
 41
2.5
 42
0.625
 43
3.75
 44
1.25
 73
     0
 74
     0
 77
     1
 78
     8
140
3.5
141
0.0
143
0.0394
147
0.625
171
     4
172
     1
173
     1
176
     8
177
     8
178
     8
271
     2
273
     8
274
     4
340
10
341
24E
343
24E
344
24E
  0
DIMSTYLE
105
4E3
330
A
100
AcDbSymbolTableRecord
100
AcDbDimStyleTableRecord
  2
ISO-25_WS３桁$0
 70
     0
 40
0.5050505050505051
 41
2.5
 42
0.625
 43
3.75
 44
1.25
 73
     0
 74
     0
 77
     1
 78
     8
140
3.5
141
0.0
143
0.0394
147
0.625
171
     4
172
     1
173
     1
271
     3
273
     8
274
     4
340
10
341
24E
343
24E
344
24E
  0
DIMSTYLE
105
4E4
330
A
100
AcDbSymbolTableRecord
100
AcDbDimStyleTableRecord
  2
ISO-25_WS３桁
 70
     0
 40
0.5050505050505051
 41
2.5
 42
0.625
 43
3.75
 44
1.25
 73
     0
 74
     0
 77
     1
 78
     8
140
3.5
141
0.0
143
0.0394
147
0.625
171
     4
172
     1
173
     1
271
     2
273
     8
274
     4
340
10
341
24E
343
24E
344
24E
  0
DIMSTYLE
105
B72
330
A
100
AcDbSymbolTableRecord
100
AcDbDimStyleTableRecord
  2
ISO-25_WS３桁$3
 70
     0
 40
0.5050505050505051
 41
2.5
 42
0.625
 43
3.75
 44
1.25
 73
     0
 74
     0
 77
     1
 78
     8
140
3.5
141
0.0
143
0.0394
147
0.625
171
     4
172
     1
173
     1
271
     2
273
     8
274
     4
340
10
341
24E
343
24E
344
24E
  0
DIMSTYLE
105
B73
330
A
100
AcDbSymbolTableRecord
100
AcDbDimStyleTableRecord
  2
ISO-25_WS３桁$4
 70
     0
 40
0.5050505050505051
 41
2.5
 42
0.625
 43
3.75
 44
1.25
 73
     0
 74
     0
 77
     1
 78
     8
140
3.5
141
0.0
143
0.0394
147
0.625
171
     4
172
     1
173
     1
271
     2
273
     8
274
     4
340
10
341
24E
343
24E
344
24E
  0
DIMSTYLE
105
B74
330
A
100
AcDbSymbolTableRecord
100
AcDbDimStyleTableRecord
  2
ISO-25_WS３桁$6
 70
     0
 40
0.5050505050505051
 41
2.5
 42
0.625
 43
3.75
 44
1.25
 73
     0
 74
     0
 77
     1
 78
     8
140
3.5
141
0.0
143
0.0394
147
0.625
171
     4
172
     1
173
     1
271
     2
273
     8
274
     4
340
10
341
24E
343
24E
344
24E
  0
DIMSTYLE
105
B75
330
A
100
AcDbSymbolTableRecord
100
AcDbDimStyleTableRecord
  2
ISO-25_WS３桁$2
 70
     0
 40
0.5050505050505051
 41
2.5
 42
0.625
 43
3.75
 44
1.25
 73
     0
 74
     0
 77
     1
 78
     8
140
3.5
141
0.0
143
0.0394
147
0.625
171
     4
172
     1
173
     1
179
     2
271
     2
273
     8
274
     4
340
10
341
24E
343
24E
344
24E
  0
DIMSTYLE
105
B76
330
A
100
AcDbSymbolTableRecord
100
AcDbDimStyleTableRecord
  2
ISO-25_WS３桁$7
 70
     0
 40
0.5050505050505051
 41
2.5
 42
0.625
 43
3.75
 44
1.25
 73
     0
 74
     0
 77
     1
 78
     8
140
3.5
141
0.0
143
0.0394
147
0.625
171
     4
172
     1
173
     1
271
     2
273
     8
274
     4
340
10
341
24E
343
24E
344
24E
  0
DIMSTYLE
105
C01
330
A
100
AcDbSymbolTableRecord
100
AcDbDimStyleTableRecord
  2
ISO-25_WS_MK
 70
     0
 40
0.5050505050505051
 41
2.5
 42
0.625
 43
3.75
 44
1.25
 73
     0
 74
     0
 77
     1
 78
     8
140
2.5
141
0.0
143
0.0394
147
0.625
171
     4
172
     1
173
     1
271
     2
273
     8
274
     4
340
10
341
24E
343
24E
344
24E
  0
DIMSTYLE
105
22F4
330
A
100
AcDbSymbolTableRecord
100
AcDbDimStyleTableRecord
  2
STANDARD_WS
 70
     0
 41
2.5
 42
2.0
 43
3.75
 44
1.25
 73
     0
 74
     0
 77
     1
 78
     8
140
2.5
141
2.5
143
0.0394
147
1.0
171
     4
172
     1
273
     8
274
     4
340
10
341
24E
342
24E
1001
ACAD_DSTYLE_DIMJOGGED_JOGANGLE_SYMBOL
1070
   384
1040
0.7853981633974483
1001
ACAD_DSTYLE_DIMEXT_LENGTH
1070
   378
1040
1.25
  0
DIMSTYLE
105
29DC
102
{ACAD_REACTORS
330
2FAA
330
2F5D
330
2F57
330
2EA5
330
3356
330
2FA8
330
35C8
330
35BB
330
35AE
330
35A1
330
37E7
330
37DA
102
}
330
A
100
AcDbSymbolTableRecord
100
AcDbDimStyleTableRecord
  2
STANDARD１
 70
     0
 41
3.0
 42
2.0
 43
8.0
 44
1.0
 47
0.5
 48
0.5
 71
     1
 73
     0
 74
     0
 77
     1
 78
     8
140
3.0
141
-3.5
147
1.0
172
     1
279
     1
284
     8
340
E6F
341
24E
342
24E
343
24E
344
1D04
1001
ACAD_DSTYLE_DIMJOGGED_JOGANGLE_SYMBOL
1070
   384
1040
0.7853981633974483
  0
ENDTAB
  0
TABLE
  2
BLOCK_RECORD
  5
1
330
0
100
AcDbSymbolTable
 70
    19
  0
BLOCK_RECORD
  5
1A
102
{ACAD_XDICTIONARY
360
37B9
102
}
330
1
100
AcDbSymbolTableRecord
100
AcDbBlockTableRecord
  2
*MODEL_SPACE
340
140F
  0
BLOCK_RECORD
  5
38F9
330
1
100
AcDbSymbolTableRecord
100
AcDbBlockTableRecord
  2
*Paper_Space
340
38FA
  0
BLOCK_RECORD
  5
24E
330
1
100
AcDbSymbolTableRecord
100
AcDbBlockTableRecord
  2
_OPEN30
340
0
102
{BLKREFS
331
34CC
331
34CD
331
34D4
331
34D5
331
34F0
331
34F1
331
34F9
331
34FA
331
359C
331
359D
331
361B
331
361C
331
362A
331
362B
331
3632
331
3633
331
363B
331
363C
331
373C
331
373D
331
382C
331
382D
331
3855
331
3856
102
}
  0
BLOCK_RECORD
  5
6C3
330
1
100
AcDbSymbolTableRecord
100
AcDbBlockTableRecord
  2
風船
340
0
310
2800000020000000200000000100040000000000000200000000000000000000000000000000000000000000000080000080000000808000800000008000800080800000C0C0C000808080000000FF0000FF000000FFFF00FF000000FF00FF00FFFF0000FFFFFF00FFFFFFFFFFFFFFFFFFFFFFFFFFFFFFFFFFFFFFFFFFFFFF
310
FFFFFFFFFFFFFFFFFFFFFFFFFFFFFFFFFFFFFFFFFFFFFFFFFFFFFFFFFFFFFFFFFFFFFFFFFFFFFFFFFFFFFFFFFFFFFFFFFFFFFFFFFFFFFFFFFFFFFFFFFFF99999FFFFFFFFFFFFFFFFFFFFFFF9999FFFFF999FFFFFFFFFFFFFFFFFFF9FFFFFFFFFFFF9FFFFFFFFFFFFFFFFF9FFFFFFFFFFFFFF9FFFFFFFFFFFFFFF9FFFFFFFFF
310
FFFFFFF9FFFFFFFFFFFFF9FFFFFFFFFFFFFFFFFF9FFFFFFFFFFFF9FFFFFFF999999FFFFF9FFFFFFFFFFFF9FFFFFFF9FFFF9FFFFFF9FFFFFFFFFF9FFFFFFFF9FFFF9FFFFFF9FFFFFFFFFF9FFFFFFFF9FFFF9FFFFFF9FFFFFFFFFF9FFFFFFFF9FFFF9FFFFFFF9FFFFFFFFF9FFFFFFFF9FFFF9FFFFFFF9FFFFFFFFF9FFFFFFFF9
310
FFFF9FFFFFFF9FFFFFFFFF9FFFFFFFF9FFFF9FFFFFF9FFFFFFFFFFF9FFFFFFF9FFFF9FFFFFF9FFFFFFFFFFF9FFFFFFF9FFFF9FFFFF9FFFFFFFFFFFF9FFFFFFF999999FFFFF9FFFFFFFFFFFFF9FFFFFFFFFFFFFFFF9FFFFFFFFFFFFFFF9FFFFFFFFFFFFFF9FFFFFFFFFFFFFFFFF9FFFFFFFFFFFF9FFFFFFFFFFFFFFFFFFF99F
310
FFFFFFF99FFFFFFFFFFFFFFFFFFFFFF999FFF99FFFFFFFFFFFFFFFFFFFFFFFFFFF999FFFFFFFFFFFFFFFFFFFFFFFFFFFFFFFFFFFFFFFFFFFFFFFFFFFFFFFFFFFFFFFFFFFFFFFFFFFFFFFFFFFFFFFFFFFFFFFFFFFFFFFFFFFFFFFFFFFFFFFFFFFFFFFFFFFFFFFFFFFFFFFFFFF
  0
BLOCK_RECORD
  5
6EC
330
1
100
AcDbSymbolTableRecord
100
AcDbBlockTableRecord
  2
A4枠
340
0
  0
BLOCK_RECORD
  5
12B1
330
1
100
AcDbSymbolTableRecord
100
AcDbBlockTableRecord
  2
A4枠PA7003
340
0
  0
BLOCK_RECORD
  5
180D
330
1
100
AcDbSymbolTableRecord
100
AcDbBlockTableRecord
  2
枠A4品名
340
0
  0
BLOCK_RECORD
  5
1D04
330
1
100
AcDbSymbolTableRecord
100
AcDbBlockTableRecord
  2
_OPEN
340
0
  0
BLOCK_RECORD
  5
3366
330
1
100
AcDbSymbolTableRecord
100
AcDbBlockTableRecord
  2
*D6
340
0
  0
BLOCK_RECORD
  5
3372
330
1
100
AcDbSymbolTableRecord
100
AcDbBlockTableRecord
  2
*D7
340
0
  0
BLOCK_RECORD
  5
337E
330
1
100
AcDbSymbolTableRecord
100
AcDbBlockTableRecord
  2
*D8
340
0
  0
BLOCK_RECORD
  5
338A
330
1
100
AcDbSymbolTableRecord
100
AcDbBlockTableRecord
  2
*D9
340
0
  0
BLOCK_RECORD
  5
3396
330
1
100
AcDbSymbolTableRecord
100
AcDbBlockTableRecord
  2
*D10
340
0
  0
BLOCK_RECORD
  5
33A2
330
1
100
AcDbSymbolTableRecord
100
AcDbBlockTableRecord
  2
*D11
340
0
  0
BLOCK_RECORD
  5
35A2
330
1
100
AcDbSymbolTableRecord
100
AcDbBlockTableRecord
  2
*D12
340
0
  0
BLOCK_RECORD
  5
35AF
330
1
100
AcDbSymbolTableRecord
100
AcDbBlockTableRecord
  2
*D13
340
0
  0
BLOCK_RECORD
  5
35BC
330
1
100
AcDbSymbolTableRecord
100
AcDbBlockTableRecord
  2
*D14
340
0
  0
BLOCK_RECORD
  5
35C9
330
1
100
AcDbSymbolTableRecord
100
AcDbBlockTableRecord
  2
*D15
340
0
  0
BLOCK_RECORD
  5
37DB
330
1
100
AcDbSymbolTableRecord
100
AcDbBlockTableRecord
  2
*D16
340
0
  0
BLOCK_RECORD
  5
37E8
330
1
100
AcDbSymbolTableRecord
100
AcDbBlockTableRecord
  2
*D17
340
0
  0
ENDTAB
  0
ENDSEC
  0
SECTION
  2
BLOCKS
  0
BLOCK
  5
1B
330
1A
100
AcDbEntity
  8
0
100
AcDbBlockBegin
  2
*MODEL_SPACE
 70
     0
 10
0.0
 20
0.0
 30
0.0
  3
*MODEL_SPACE
  1

  0
ENDBLK
  5
1C
330
1A
100
AcDbEntity
  8
0
100
AcDbBlockEnd
  0
BLOCK
  5
38FB
330
38F9
100
AcDbEntity
 67
     1
  8
0
100
AcDbBlockBegin
  2
*Paper_Space
 70
     0
 10
0.0
 20
0.0
 30
0.0
  3
*Paper_Space
  1

  0
ENDBLK
  5
38FC
330
38F9
100
AcDbEntity
 67
     1
  8
0
100
AcDbBlockEnd
  0
BLOCK
  5
24F
330
24E
100
AcDbEntity
  8
0
100
AcDbBlockBegin
  2
_OPEN30
 70
     0
 10
0.0
 20
0.0
 30
0.0
  3
_OPEN30
  1

  0
LINE
  5
250
330
24E
100
AcDbEntity
  8
0
  6
ByBlock
 62
     0
100
AcDbLine
 10
-1.0
 20
0.26794919
 30
0.0
 11
0.0
 21
0.0
 31
0.0
  0
LINE
  5
251
330
24E
100
AcDbEntity
  8
0
  6
ByBlock
 62
     0
100
AcDbLine
 10
0.0
 20
0.0
 30
0.0
 11
-1.0
 21
-0.26794919
 31
0.0
  0
LINE
  5
252
330
24E
100
AcDbEntity
  8
0
  6
ByBlock
 62
     0
100
AcDbLine
 10
0.0
 20
0.0
 30
0.0
 11
-1.0
 21
0.0
 31
0.0
  0
ENDBLK
  5
253
330
24E
100
AcDbEntity
  8
0
100
AcDbBlockEnd
  0
BLOCK
  5
6C4
330
6C3
100
AcDbEntity
  8
0
100
AcDbBlockBegin
  2
風船
 70
     0
 10
0.0
 20
0.0
 30
0.0
  3
風船
  1

  0
MTEXT
  5
6C5
330
6C3
100
AcDbEntity
  8
寸法
  6
Continuous
100
AcDbMText
 10
101.4729661751776
 20
69.36779005330379
 30
0.0
 40
3.0
 41
6.0
 71
     1
 72
     5
  1
2
 73
     1
 44
1.0
1001
ACAD
1000
MTEXTBEGIN
1070
    73
1070
     1
1070
    44
1040
1.0
1070
    74
1070
     0
1000
MTEXTEND
  0
CIRCLE
  5
6C6
330
6C3
100
AcDbEntity
  8
寸法
  6
Continuous
100
AcDbCircle
 10
102.0
 20
68.0
 30
0.0
 40
3.0
  0
ENDBLK
  5
6C7
330
6C3
100
AcDbEntity
  8
0
100
AcDbBlockEnd
  0
BLOCK
  5
7E4
330
6EC
100
AcDbEntity
  8
0
100
AcDbBlockBegin
  2
A4枠
 70
     0
 10
0.0
 20
0.0
 30
0.0
  3
A4枠
  1

  0
LINE
  5
10A5
330
6EC
100
AcDbEntity
  8
図面太枠
100
AcDbLine
 10
193.0
 20
284.0
 30
0.0
 11
193.0
 21
289.5
 31
0.0
  0
LINE
  5
10A6
330
6EC
100
AcDbEntity
  8
図面太枠
100
AcDbLine
 10
193.0
 20
-3.5
 30
0.0
 11
193.0
 21
4.0
 31
0.0
  0
LWPOLYLINE
  5
10A7
330
6EC
100
AcDbEntity
  8
図面太枠
100
AcDbPolyline
 90
        2
 70
     0
 43
0.25
 10
396.0
 20
144.0
 10
403.0
 20
144.0
  0
LWPOLYLINE
  5
10A8
330
6EC
100
AcDbEntity
  8
図面太枠
100
AcDbPolyline
 90
        2
 70
     0
 43
0.25
 10
4.0
 20
144.0
 10
-2.5
 20
144.0
  0
LINE
  5
10A9
330
6EC
100
AcDbEntity
  8
0
100
AcDbLine
 10
389.0
 20
44.0
 30
0.0
 11
389.0
 21
46.0
 31
0.0
  0
LINE
  5
10AA
330
6EC
100
AcDbEntity
  8
0
100
AcDbLine
 10
379.0
 20
44.0
 30
0.0
 11
379.0
 21
46.0
 31
0.0
  0
LINE
  5
10AB
330
6EC
100
AcDbEntity
  8
0
100
AcDbLine
 10
369.0
 20
44.0
 30
0.0
 11
369.0
 21
46.0
 31
0.0
  0
LINE
  5
10AC
330
6EC
100
AcDbEntity
  8
0
100
AcDbLine
 10
359.0
 20
44.0
 30
0.0
 11
359.0
 21
46.0
 31
0.0
  0
LINE
  5
10AD
330
6EC
100
AcDbEntity
  8
0
100
AcDbLine
 10
349.0
 20
44.0
 30
0.0
 11
349.0
 21
46.0
 31
0.0
  0
LINE
  5
10AE
330
6EC
100
AcDbEntity
  8
0
100
AcDbLine
 10
339.0
 20
44.0
 30
0.0
 11
339.0
 21
46.0
 31
0.0
  0
LINE
  5
10AF
330
6EC
100
AcDbEntity
  8
0
100
AcDbLine
 10
329.0
 20
44.0
 30
0.0
 11
329.0
 21
46.0
 31
0.0
  0
LINE
  5
10B0
330
6EC
100
AcDbEntity
  8
0
100
AcDbLine
 10
319.0
 20
44.0
 30
0.0
 11
319.0
 21
46.0
 31
0.0
  0
LINE
  5
10B1
330
6EC
100
AcDbEntity
  8
0
100
AcDbLine
 10
309.0
 20
44.0
 30
0.0
 11
309.0
 21
46.0
 31
0.0
  0
LINE
  5
10B2
330
6EC
100
AcDbEntity
  8
0
100
AcDbLine
 10
299.0
 20
44.0
 30
0.0
 11
299.0
 21
46.0
 31
0.0
  0
LINE
  5
10B3
330
6EC
100
AcDbEntity
  8
0
100
AcDbLine
 10
289.0
 20
44.0
 30
0.0
 11
289.0
 21
46.0
 31
0.0
  0
LINE
  5
10B4
330
6EC
100
AcDbEntity
  8
0
100
AcDbLine
 10
279.0
 20
44.0
 30
0.0
 11
279.0
 21
46.0
 31
0.0
  0
LINE
  5
10B5
330
6EC
100
AcDbEntity
  8
0
100
AcDbLine
 10
269.0
 20
44.0
 30
0.0
 11
269.0
 21
46.0
 31
0.0
  0
LINE
  5
10B6
330
6EC
100
AcDbEntity
  8
0
100
AcDbLine
 10
259.0
 20
44.0
 30
0.0
 11
259.0
 21
46.0
 31
0.0
  0
LINE
  5
10B7
330
6EC
100
AcDbEntity
  8
0
100
AcDbLine
 10
249.0
 20
44.0
 30
0.0
 11
249.0
 21
46.0
 31
0.0
  0
LINE
  5
10B8
330
6EC
100
AcDbEntity
  8
0
100
AcDbLine
 10
239.0
 20
44.0
 30
0.0
 11
239.0
 21
46.0
 31
0.0
  0
LINE
  5
10B9
330
6EC
100
AcDbEntity
  8
0
100
AcDbLine
 10
229.0
 20
44.0
 30
0.0
 11
229.0
 21
46.0
 31
0.0
  0
LINE
  5
10BA
330
6EC
100
AcDbEntity
  8
0
100
AcDbLine
 10
219.0
 20
44.0
 30
0.0
 11
219.0
 21
46.0
 31
0.0
  0
LINE
  5
10BB
330
6EC
100
AcDbEntity
  8
0
100
AcDbLine
 10
209.0
 20
44.0
 30
0.0
 11
209.0
 21
46.0
 31
0.0
  0
LINE
  5
10BC
330
6EC
100
AcDbEntity
  8
0
100
AcDbLine
 10
199.0
 20
44.0
 30
0.0
 11
199.0
 21
46.0
 31
0.0
  0
LINE
  5
10BD
330
6EC
100
AcDbEntity
  8
0
100
AcDbLine
 10
189.0
 20
44.0
 30
0.0
 11
189.0
 21
46.0
 31
0.0
  0
LINE
  5
10BE
330
6EC
100
AcDbEntity
  8
0
100
AcDbLine
 10
179.0
 20
44.0
 30
0.0
 11
179.0
 21
46.0
 31
0.0
  0
LINE
  5
10BF
330
6EC
100
AcDbEntity
  8
0
100
AcDbLine
 10
169.0
 20
44.0
 30
0.0
 11
169.0
 21
46.0
 31
0.0
  0
LINE
  5
10C0
330
6EC
100
AcDbEntity
  8
0
100
AcDbLine
 10
159.0
 20
44.0
 30
0.0
 11
159.0
 21
46.0
 31
0.0
  0
LINE
  5
10C1
330
6EC
100
AcDbEntity
  8
0
100
AcDbLine
 10
149.0
 20
44.0
 30
0.0
 11
149.0
 21
46.0
 31
0.0
  0
LINE
  5
10C2
330
6EC
100
AcDbEntity
  8
0
100
AcDbLine
 10
139.0
 20
44.0
 30
0.0
 11
139.0
 21
46.0
 31
0.0
  0
LINE
  5
10C3
330
6EC
100
AcDbEntity
  8
0
100
AcDbLine
 10
129.0
 20
44.0
 30
0.0
 11
129.0
 21
46.0
 31
0.0
  0
LINE
  5
10C4
330
6EC
100
AcDbEntity
  8
0
100
AcDbLine
 10
119.0
 20
44.0
 30
0.0
 11
119.0
 21
46.0
 31
0.0
  0
LINE
  5
10C5
330
6EC
100
AcDbEntity
  8
0
100
AcDbLine
 10
109.0
 20
44.0
 30
0.0
 11
109.0
 21
46.0
 31
0.0
  0
LINE
  5
10C6
330
6EC
100
AcDbEntity
  8
0
100
AcDbLine
 10
99.0
 20
44.0
 30
0.0
 11
99.0
 21
46.0
 31
0.0
  0
LINE
  5
10C7
330
6EC
100
AcDbEntity
  8
0
100
AcDbLine
 10
89.0
 20
44.0
 30
0.0
 11
89.0
 21
46.0
 31
0.0
  0
LINE
  5
10C8
330
6EC
100
AcDbEntity
  8
0
100
AcDbLine
 10
79.0
 20
44.0
 30
0.0
 11
79.0
 21
46.0
 31
0.0
  0
LINE
  5
10C9
330
6EC
100
AcDbEntity
  8
0
100
AcDbLine
 10
69.0
 20
44.0
 30
0.0
 11
69.0
 21
46.0
 31
0.0
  0
LINE
  5
10CA
330
6EC
100
AcDbEntity
  8
0
100
AcDbLine
 10
59.0
 20
44.0
 30
0.0
 11
59.0
 21
46.0
 31
0.0
  0
LINE
  5
10CB
330
6EC
100
AcDbEntity
  8
0
100
AcDbLine
 10
49.0
 20
44.0
 30
0.0
 11
49.0
 21
46.0
 31
0.0
  0
LINE
  5
10CC
330
6EC
100
AcDbEntity
  8
0
100
AcDbLine
 10
39.0
 20
44.0
 30
0.0
 11
39.0
 21
46.0
 31
0.0
  0
LINE
  5
10CD
330
6EC
100
AcDbEntity
  8
0
100
AcDbLine
 10
29.0
 20
44.0
 30
0.0
 11
29.0
 21
46.0
 31
0.0
  0
LINE
  5
10CE
330
6EC
100
AcDbEntity
  8
0
100
AcDbLine
 10
19.0
 20
44.0
 30
0.0
 11
19.0
 21
46.0
 31
0.0
  0
LINE
  5
10CF
330
6EC
100
AcDbEntity
  8
0
100
AcDbLine
 10
9.0
 20
44.0
 30
0.0
 11
9.0
 21
46.0
 31
0.0
  0
LINE
  5
10D0
330
6EC
100
AcDbEntity
  8
0
100
AcDbLine
 10
4.0
 20
44.0
 30
0.0
 11
9.0
 21
44.0
 31
0.0
  0
LINE
  5
10D1
330
6EC
100
AcDbEntity
  8
0
100
AcDbLine
 10
394.0
 20
44.0
 30
0.0
 11
394.0
 21
47.0
 31
0.0
  0
LINE
  5
10D2
330
6EC
100
AcDbEntity
  8
0
100
AcDbLine
 10
384.0
 20
44.0
 30
0.0
 11
384.0
 21
47.0
 31
0.0
  0
LINE
  5
10D3
330
6EC
100
AcDbEntity
  8
0
100
AcDbLine
 10
374.0
 20
44.0
 30
0.0
 11
374.0
 21
47.0
 31
0.0
  0
LINE
  5
10D4
330
6EC
100
AcDbEntity
  8
0
100
AcDbLine
 10
364.0
 20
44.0
 30
0.0
 11
364.0
 21
47.0
 31
0.0
  0
LINE
  5
10D5
330
6EC
100
AcDbEntity
  8
0
100
AcDbLine
 10
354.0
 20
44.0
 30
0.0
 11
354.0
 21
47.0
 31
0.0
  0
LINE
  5
10D6
330
6EC
100
AcDbEntity
  8
0
100
AcDbLine
 10
344.0
 20
44.0
 30
0.0
 11
344.0
 21
47.0
 31
0.0
  0
LINE
  5
10D7
330
6EC
100
AcDbEntity
  8
0
100
AcDbLine
 10
334.0
 20
44.0
 30
0.0
 11
334.0
 21
47.0
 31
0.0
  0
LINE
  5
10D8
330
6EC
100
AcDbEntity
  8
0
100
AcDbLine
 10
324.0
 20
44.0
 30
0.0
 11
324.0
 21
47.0
 31
0.0
  0
LINE
  5
10D9
330
6EC
100
AcDbEntity
  8
0
100
AcDbLine
 10
314.0
 20
44.0
 30
0.0
 11
314.0
 21
47.0
 31
0.0
  0
LINE
  5
10DA
330
6EC
100
AcDbEntity
  8
0
100
AcDbLine
 10
304.0
 20
44.0
 30
0.0
 11
304.0
 21
47.0
 31
0.0
  0
LINE
  5
10DB
330
6EC
100
AcDbEntity
  8
0
100
AcDbLine
 10
294.0
 20
44.0
 30
0.0
 11
294.0
 21
47.0
 31
0.0
  0
LINE
  5
10DC
330
6EC
100
AcDbEntity
  8
0
100
AcDbLine
 10
284.0
 20
44.0
 30
0.0
 11
284.0
 21
47.0
 31
0.0
  0
LINE
  5
10DD
330
6EC
100
AcDbEntity
  8
0
100
AcDbLine
 10
274.0
 20
44.0
 30
0.0
 11
274.0
 21
47.0
 31
0.0
  0
LINE
  5
10DE
330
6EC
100
AcDbEntity
  8
0
100
AcDbLine
 10
264.0
 20
44.0
 30
0.0
 11
264.0
 21
47.0
 31
0.0
  0
LINE
  5
10DF
330
6EC
100
AcDbEntity
  8
0
100
AcDbLine
 10
254.0
 20
44.0
 30
0.0
 11
254.0
 21
47.0
 31
0.0
  0
LINE
  5
10E0
330
6EC
100
AcDbEntity
  8
0
100
AcDbLine
 10
244.0
 20
44.0
 30
0.0
 11
244.0
 21
47.0
 31
0.0
  0
LINE
  5
10E1
330
6EC
100
AcDbEntity
  8
0
100
AcDbLine
 10
234.0
 20
44.0
 30
0.0
 11
234.0
 21
47.0
 31
0.0
  0
LINE
  5
10E2
330
6EC
100
AcDbEntity
  8
0
100
AcDbLine
 10
224.0
 20
44.0
 30
0.0
 11
224.0
 21
47.0
 31
0.0
  0
LINE
  5
10E3
330
6EC
100
AcDbEntity
  8
0
100
AcDbLine
 10
214.0
 20
44.0
 30
0.0
 11
214.0
 21
47.0
 31
0.0
  0
LINE
  5
10E4
330
6EC
100
AcDbEntity
  8
0
100
AcDbLine
 10
204.0
 20
44.0
 30
0.0
 11
204.0
 21
47.0
 31
0.0
  0
LINE
  5
10E5
330
6EC
100
AcDbEntity
  8
0
100
AcDbLine
 10
194.0
 20
44.0
 30
0.0
 11
194.0
 21
47.0
 31
0.0
  0
LINE
  5
10E6
330
6EC
100
AcDbEntity
  8
0
100
AcDbLine
 10
184.0
 20
44.0
 30
0.0
 11
184.0
 21
47.0
 31
0.0
  0
LINE
  5
10E7
330
6EC
100
AcDbEntity
  8
0
100
AcDbLine
 10
174.0
 20
44.0
 30
0.0
 11
174.0
 21
47.0
 31
0.0
  0
LINE
  5
10E8
330
6EC
100
AcDbEntity
  8
0
100
AcDbLine
 10
164.0
 20
44.0
 30
0.0
 11
164.0
 21
47.0
 31
0.0
  0
LINE
  5
10E9
330
6EC
100
AcDbEntity
  8
0
100
AcDbLine
 10
154.0
 20
44.0
 30
0.0
 11
154.0
 21
47.0
 31
0.0
  0
LINE
  5
10EA
330
6EC
100
AcDbEntity
  8
0
100
AcDbLine
 10
144.0
 20
44.0
 30
0.0
 11
144.0
 21
47.0
 31
0.0
  0
LINE
  5
10EB
330
6EC
100
AcDbEntity
  8
0
100
AcDbLine
 10
134.0
 20
44.0
 30
0.0
 11
134.0
 21
47.0
 31
0.0
  0
LINE
  5
10EC
330
6EC
100
AcDbEntity
  8
0
100
AcDbLine
 10
124.0
 20
44.0
 30
0.0
 11
124.0
 21
47.0
 31
0.0
  0
LINE
  5
10ED
330
6EC
100
AcDbEntity
  8
0
100
AcDbLine
 10
114.0
 20
44.0
 30
0.0
 11
114.0
 21
47.0
 31
0.0
  0
LINE
  5
10EE
330
6EC
100
AcDbEntity
  8
0
100
AcDbLine
 10
104.0
 20
44.0
 30
0.0
 11
104.0
 21
47.0
 31
0.0
  0
LINE
  5
10EF
330
6EC
100
AcDbEntity
  8
0
100
AcDbLine
 10
94.0
 20
44.0
 30
0.0
 11
94.0
 21
47.0
 31
0.0
  0
LINE
  5
10F0
330
6EC
100
AcDbEntity
  8
0
100
AcDbLine
 10
84.0
 20
44.0
 30
0.0
 11
84.0
 21
47.0
 31
0.0
  0
LINE
  5
10F1
330
6EC
100
AcDbEntity
  8
0
100
AcDbLine
 10
74.0
 20
44.0
 30
0.0
 11
74.0
 21
47.0
 31
0.0
  0
LINE
  5
10F2
330
6EC
100
AcDbEntity
  8
0
100
AcDbLine
 10
64.0
 20
44.0
 30
0.0
 11
64.0
 21
47.0
 31
0.0
  0
LINE
  5
10F3
330
6EC
100
AcDbEntity
  8
0
100
AcDbLine
 10
54.0
 20
44.0
 30
0.0
 11
54.0
 21
47.0
 31
0.0
  0
LINE
  5
10F4
330
6EC
100
AcDbEntity
  8
0
100
AcDbLine
 10
44.0
 20
44.0
 30
0.0
 11
44.0
 21
47.0
 31
0.0
  0
LINE
  5
10F5
330
6EC
100
AcDbEntity
  8
0
100
AcDbLine
 10
34.0
 20
44.0
 30
0.0
 11
34.0
 21
47.0
 31
0.0
  0
LINE
  5
10F6
330
6EC
100
AcDbEntity
  8
0
100
AcDbLine
 10
24.0
 20
44.0
 30
0.0
 11
24.0
 21
47.0
 31
0.0
  0
LINE
  5
10F7
330
6EC
100
AcDbEntity
  8
0
100
AcDbLine
 10
14.0
 20
44.0
 30
0.0
 11
14.0
 21
47.0
 31
0.0
  0
LINE
  5
10F8
330
6EC
100
AcDbEntity
  8
0
100
AcDbLine
 10
4.0
 20
44.0
 30
0.0
 11
14.0
 21
44.0
 31
0.0
  0
LINE
  5
10F9
330
6EC
100
AcDbEntity
  8
0
100
AcDbLine
 10
4.0
 20
44.0
 30
0.0
 11
4.0
 21
47.0
 31
0.0
  0
TEXT
  5
10FA
330
6EC
100
AcDbEntity
  8
0
100
AcDbText
 10
1.0
 20
263.0
 30
0.0
 40
2.5
  1
A
  7
ROMANS
100
AcDbText
  0
TEXT
  5
10FB
330
6EC
100
AcDbEntity
  8
0
100
AcDbText
 10
1.0
 20
214.5
 30
0.0
 40
2.5
  1
B
  7
ROMANS
100
AcDbText
  0
TEXT
  5
10FC
330
6EC
100
AcDbEntity
  8
0
100
AcDbText
 10
1.0
 20
166.0
 30
0.0
 40
2.5
  1
C
  7
ROMANS
100
AcDbText
  0
TEXT
  5
10FD
330
6EC
100
AcDbEntity
  8
0
100
AcDbText
 10
1.0
 20
117.5
 30
0.0
 40
2.5
  1
D
  7
ROMANS
100
AcDbText
  0
TEXT
  5
10FE
330
6EC
100
AcDbEntity
  8
0
100
AcDbText
 10
1.0
 20
69.0
 30
0.0
 40
2.5
  1
E
  7
ROMANS
100
AcDbText
  0
TEXT
  5
10FF
330
6EC
100
AcDbEntity
  8
0
100
AcDbText
 10
29.0
 20
1.0
 30
0.0
 40
2.5
  1
1
  7
ROMANS
100
AcDbText
  0
TEXT
  5
1100
330
6EC
100
AcDbEntity
  8
0
100
AcDbText
 10
78.0
 20
1.0
 30
0.0
 40
2.5
  1
2
  7
ROMANS
100
AcDbText
  0
TEXT
  5
1101
330
6EC
100
AcDbEntity
  8
0
100
AcDbText
 10
127.0
 20
1.0
 30
0.0
 40
2.5
  1
3
  7
ROMANS
100
AcDbText
  0
TEXT
  5
1102
330
6EC
100
AcDbEntity
  8
0
100
AcDbText
 10
176.0
 20
1.0
 30
0.0
 40
2.5
  1
4
  7
ROMANS
100
AcDbText
  0
TEXT
  5
1103
330
6EC
100
AcDbEntity
  8
0
100
AcDbText
 10
225.0
 20
1.0
 30
0.0
 40
2.5
  1
5
  7
ROMANS
100
AcDbText
  0
TEXT
  5
1104
330
6EC
100
AcDbEntity
  8
0
100
AcDbText
 10
274.0
 20
1.0
 30
0.0
 40
2.5
  1
6
  7
ROMANS
100
AcDbText
  0
TEXT
  5
1105
330
6EC
100
AcDbEntity
  8
0
100
AcDbText
 10
323.0
 20
1.0
 30
0.0
 40
2.5
  1
7
  7
ROMANS
100
AcDbText
  0
TEXT
  5
1106
330
6EC
100
AcDbEntity
  8
0
100
AcDbText
 10
372.0
 20
1.0
 30
0.0
 40
2.5
  1
8
  7
ROMANS
100
AcDbText
  0
TEXT
  5
1107
330
6EC
100
AcDbEntity
  8
0
100
AcDbText
 10
396.5
 20
69.0
 30
0.0
 40
2.5
  1
E
  7
ROMANS
100
AcDbText
  0
TEXT
  5
1108
330
6EC
100
AcDbEntity
  8
0
100
AcDbText
 10
396.5
 20
117.5
 30
0.0
 40
2.5
  1
D
  7
ROMANS
100
AcDbText
  0
TEXT
  5
1109
330
6EC
100
AcDbEntity
  8
0
100
AcDbText
 10
396.5
 20
166.0
 30
0.0
 40
2.5
  1
C
  7
ROMANS
100
AcDbText
  0
TEXT
  5
110A
330
6EC
100
AcDbEntity
  8
0
100
AcDbText
 10
396.5
 20
214.5
 30
0.0
 40
2.5
  1
B
  7
ROMANS
100
AcDbText
  0
TEXT
  5
110B
330
6EC
100
AcDbEntity
  8
0
100
AcDbText
 10
396.5
 20
263.0
 30
0.0
 40
2.5
  1
A
  7
ROMANS
100
AcDbText
  0
TEXT
  5
110C
330
6EC
100
AcDbEntity
  8
0
100
AcDbText
 10
372.0
 20
284.5
 30
0.0
 40
2.5
  1
8
  7
ROMANS
100
AcDbText
  0
TEXT
  5
110D
330
6EC
100
AcDbEntity
  8
0
100
AcDbText
 10
323.0
 20
284.5
 30
0.0
 40
2.5
  1
7
  7
ROMANS
100
AcDbText
  0
TEXT
  5
110E
330
6EC
100
AcDbEntity
  8
0
100
AcDbText
 10
274.0
 20
284.5
 30
0.0
 40
2.5
  1
6
  7
ROMANS
100
AcDbText
  0
TEXT
  5
110F
330
6EC
100
AcDbEntity
  8
0
100
AcDbText
 10
225.0
 20
284.5
 30
0.0
 40
2.5
  1
5
  7
ROMANS
100
AcDbText
  0
TEXT
  5
1110
330
6EC
100
AcDbEntity
  8
0
100
AcDbText
 10
176.0
 20
284.5
 30
0.0
 40
2.5
  1
4
  7
ROMANS
100
AcDbText
  0
TEXT
  5
1111
330
6EC
100
AcDbEntity
  8
0
100
AcDbText
 10
127.0
 20
284.5
 30
0.0
 40
2.5
  1
3
  7
ROMANS
100
AcDbText
  0
TEXT
  5
1112
330
6EC
100
AcDbEntity
  8
0
100
AcDbText
 10
78.0
 20
284.5
 30
0.0
 40
2.5
  1
2
  7
ROMANS
100
AcDbText
  0
TEXT
  5
1113
330
6EC
100
AcDbEntity
  8
0
100
AcDbText
 10
29.0
 20
284.5
 30
0.0
 40
2.5
  1
1
  7
ROMANS
100
AcDbText
  0
LINE
  5
1114
330
6EC
100
AcDbEntity
  8
0
100
AcDbLine
 10
4.0
 20
238.0
 30
0.0
 11
0.0
 21
238.0
 31
0.0
  0
LINE
  5
1115
330
6EC
100
AcDbEntity
  8
0
100
AcDbLine
 10
4.0
 20
189.5
 30
0.0
 11
0.0
 21
189.5
 31
0.0
  0
LINE
  5
1116
330
6EC
100
AcDbEntity
  8
0
100
AcDbLine
 10
4.0
 20
141.0
 30
0.0
 11
0.0
 21
141.0
 31
0.0
  0
LINE
  5
1117
330
6EC
100
AcDbEntity
  8
0
100
AcDbLine
 10
4.0
 20
92.5
 30
0.0
 11
0.0
 21
92.5
 31
0.0
  0
LINE
  5
1118
330
6EC
100
AcDbEntity
  8
0
100
AcDbLine
 10
4.0
 20
44.0
 30
0.0
 11
0.0
 21
44.0
 31
0.0
  0
LINE
  5
1119
330
6EC
100
AcDbEntity
  8
0
100
AcDbLine
 10
53.0
 20
284.0
 30
0.0
 11
53.0
 21
288.0
 31
0.0
  0
LINE
  5
111A
330
6EC
100
AcDbEntity
  8
0
100
AcDbLine
 10
102.0
 20
284.0
 30
0.0
 11
102.0
 21
288.0
 31
0.0
  0
LINE
  5
111B
330
6EC
100
AcDbEntity
  8
0
100
AcDbLine
 10
151.0
 20
284.0
 30
0.0
 11
151.0
 21
288.0
 31
0.0
  0
LINE
  5
111C
330
6EC
100
AcDbEntity
  8
0
100
AcDbLine
 10
200.0
 20
284.0
 30
0.0
 11
200.0
 21
288.0
 31
0.0
  0
LINE
  5
111D
330
6EC
100
AcDbEntity
  8
0
100
AcDbLine
 10
249.0
 20
284.0
 30
0.0
 11
249.0
 21
288.0
 31
0.0
  0
LINE
  5
111E
330
6EC
100
AcDbEntity
  8
0
100
AcDbLine
 10
298.0
 20
284.0
 30
0.0
 11
298.0
 21
288.0
 31
0.0
  0
LINE
  5
111F
330
6EC
100
AcDbEntity
  8
0
100
AcDbLine
 10
347.0
 20
284.0
 30
0.0
 11
347.0
 21
288.0
 31
0.0
  0
LINE
  5
1120
330
6EC
100
AcDbEntity
  8
0
100
AcDbLine
 10
396.0
 20
238.0
 30
0.0
 11
400.0
 21
238.0
 31
0.0
  0
LINE
  5
1121
330
6EC
100
AcDbEntity
  8
0
100
AcDbLine
 10
396.0
 20
189.5
 30
0.0
 11
400.0
 21
189.5
 31
0.0
  0
LINE
  5
1122
330
6EC
100
AcDbEntity
  8
0
100
AcDbLine
 10
396.0
 20
141.0
 30
0.0
 11
400.0
 21
141.0
 31
0.0
  0
LINE
  5
1123
330
6EC
100
AcDbEntity
  8
0
100
AcDbLine
 10
396.0
 20
92.5
 30
0.0
 11
400.0
 21
92.5
 31
0.0
  0
LINE
  5
1124
330
6EC
100
AcDbEntity
  8
0
100
AcDbLine
 10
396.0
 20
44.0
 30
0.0
 11
400.0
 21
44.0
 31
0.0
  0
LINE
  5
1125
330
6EC
100
AcDbEntity
  8
0
100
AcDbLine
 10
347.0
 20
4.0
 30
0.0
 11
347.0
 21
0.0
 31
0.0
  0
LINE
  5
1126
330
6EC
100
AcDbEntity
  8
0
100
AcDbLine
 10
298.0
 20
4.0
 30
0.0
 11
298.0
 21
0.0
 31
0.0
  0
LINE
  5
1127
330
6EC
100
AcDbEntity
  8
0
100
AcDbLine
 10
249.0
 20
4.0
 30
0.0
 11
249.0
 21
0.0
 31
0.0
  0
LINE
  5
1128
330
6EC
100
AcDbEntity
  8
0
100
AcDbLine
 10
200.0
 20
4.0
 30
0.0
 11
200.0
 21
0.0
 31
0.0
  0
LINE
  5
1129
330
6EC
100
AcDbEntity
  8
0
100
AcDbLine
 10
151.0
 20
4.0
 30
0.0
 11
151.0
 21
0.0
 31
0.0
  0
LINE
  5
112A
330
6EC
100
AcDbEntity
  8
0
100
AcDbLine
 10
102.0
 20
4.0
 30
0.0
 11
102.0
 21
0.0
 31
0.0
  0
LINE
  5
112B
330
6EC
100
AcDbEntity
  8
0
100
AcDbLine
 10
53.0
 20
4.0
 30
0.0
 11
53.0
 21
0.0
 31
0.0
  0
LINE
  5
112C
330
6EC
100
AcDbEntity
  8
0
100
AcDbLine
 10
4.0
 20
4.0
 30
0.0
 11
53.0
 21
4.0
 31
0.0
  0
LINE
  5
112D
330
6EC
100
AcDbEntity
  8
0
100
AcDbLine
 10
200.0
 20
34.0
 30
0.0
 11
200.0
 21
41.0
 31
0.0
  0
LINE
  5
112E
330
6EC
100
AcDbEntity
  8
0
100
AcDbLine
 10
196.5
 20
37.5
 30
0.0
 11
203.5
 21
37.5
 31
0.0
  0
LINE
  5
112F
330
6EC
100
AcDbEntity
  8
0
100
AcDbLine
 10
204.5
 20
37.5
 30
0.0
 11
216.0
 21
37.5
 31
0.0
  0
LWPOLYLINE
  5
1130
330
6EC
100
AcDbEntity
  8
0
100
AcDbPolyline
 90
        4
 70
     1
 43
0.0
 10
205.0
 20
35.5
 10
205.0
 20
39.5
 10
215.0
 20
40.49999999999999
 10
215.0
 20
34.5
  0
CIRCLE
  5
1131
330
6EC
100
AcDbEntity
  8
0
100
AcDbCircle
 10
200.0
 20
37.5
 30
0.0
 40
2.0
  0
CIRCLE
  5
1132
330
6EC
100
AcDbEntity
  8
0
100
AcDbCircle
 10
200.0
 20
37.5
 30
0.0
 40
3.0
  0
TEXT
  5
1133
330
6EC
100
AcDbEntity
  8
0
100
AcDbText
 10
209.0
 20
27.5
 30
0.0
 40
1.5
  1
mm
100
AcDbText
  0
TEXT
  5
1134
330
6EC
100
AcDbEntity
  8
0
100
AcDbText
 10
220.0
 20
36.0
 30
0.0
 40
4.5
  1
三菱電機システムサービス株式会社
 41
0.7800000000000001
  7
CB
100
AcDbText
  0
TEXT
  5
1135
330
6EC
100
AcDbEntity
  8
0
100
AcDbText
 10
256.0
 20
27.0
 30
0.0
 40
3.0
  1
-
100
AcDbText
  0
TEXT
  5
1136
330
6EC
100
AcDbEntity
  8
0
100
AcDbText
 10
244.5
 20
27.0
 30
0.0
 40
3.0
  1
-
100
AcDbText
  0
TEXT
  5
1137
330
6EC
100
AcDbEntity
  8
0
100
AcDbText
 10
204.0
 20
12.0
 30
0.0
 40
4.0
  1
:
100
AcDbText
  0
TEXT
  5
1138
330
6EC
100
AcDbEntity
  8
0
100
AcDbText
 10
202.0
 20
6.0
 30
0.0
 40
2.0
  1
NTS
100
AcDbText
  0
TEXT
  5
1139
330
6EC
100
AcDbEntity
  8
0
100
AcDbText
 10
8.0
 20
27.0
 30
0.0
 40
2.0
  1
CHANGE
 50
90.0
100
AcDbText
  0
TEXT
  5
113A
330
6EC
100
AcDbEntity
  8
0
100
AcDbText
 10
196.0
 20
27.5
 30
0.0
 40
2.0
  1
DIM．IN
100
AcDbText
  0
TEXT
  5
113B
330
6EC
100
AcDbEntity
  8
0
100
AcDbText
 10
205.0
 20
20.0
 30
0.0
 40
2.0
  1
SCALE
100
AcDbText
  0
TEXT
  5
113C
330
6EC
100
AcDbEntity
  8
0
100
AcDbText
 10
219.5
 20
4.5
 30
0.0
 40
2.0
  1
DESIGNED
100
AcDbText
  0
TEXT
  5
113D
330
6EC
100
AcDbEntity
  8
0
100
AcDbText
 10
219.5
 20
11.5
 30
0.0
 40
2.0
  1
CHECKED
100
AcDbText
  0
TEXT
  5
113E
330
6EC
100
AcDbEntity
  8
0
100
AcDbText
 10
221.5
 20
18.5
 30
0.0
 40
2.0
  1
DRAWN
100
AcDbText
  0
TEXT
  5
113F
330
6EC
100
AcDbEntity
  8
0
100
AcDbText
 10
222.0
 20
25.5
 30
0.0
 40
2.0
  1
DATE
100
AcDbText
  0
TEXT
  5
1140
330
6EC
100
AcDbEntity
  8
0
100
AcDbText
 10
279.5
 20
25.5
 30
0.0
 40
2.0
  1
APROVED
100
AcDbText
  0
TEXT
  5
1141
330
6EC
100
AcDbEntity
  8
0
100
AcDbText
 10
8.0
 20
8.0
 30
0.0
 40
2.5
  1
改      定
 50
90.0
100
AcDbText
  0
TEXT
  5
1142
330
6EC
100
AcDbEntity
  8
0
100
AcDbText
 10
164.0
 20
40.0
 30
0.0
 40
2.5
  1
出 図 先 (        )
100
AcDbText
  0
TEXT
  5
1143
330
6EC
100
AcDbEntity
  8
0
100
AcDbText
 10
196.0
 20
20.0
 30
0.0
 40
2.5
  1
尺度
100
AcDbText
  0
TEXT
  5
1144
330
6EC
100
AcDbEntity
  8
0
100
AcDbText
 10
221.5
 20
7.5
 30
0.0
 40
2.5
  1
設   計
100
AcDbText
  0
TEXT
  5
1145
330
6EC
100
AcDbEntity
  8
0
100
AcDbText
 10
221.5
 20
14.5
 30
0.0
 40
2.5
  1
照   査
100
AcDbText
  0
TEXT
  5
1146
330
6EC
100
AcDbEntity
  8
0
100
AcDbText
 10
221.5
 20
21.5
 30
0.0
 40
2.5
  1
作   成
100
AcDbText
  0
TEXT
  5
1147
330
6EC
100
AcDbEntity
  8
0
100
AcDbText
 10
220.5
 20
28.5
 30
0.0
 40
2.5
  1
作成日付
100
AcDbText
  0
TEXT
  5
1148
330
6EC
100
AcDbEntity
  8
0
100
AcDbText
 10
279.5
 20
28.5
 30
0.0
 40
2.5
  1
検     認
100
AcDbText
  0
TEXT
  5
1149
330
6EC
100
AcDbEntity
  8
0
100
AcDbText
 10
307.3681872564118
 20
15.10732533172768
 30
0.0
 40
2.0
  1
DWG.No.
100
AcDbText
  0
TEXT
  5
114A
330
6EC
100
AcDbEntity
  8
0
100
AcDbText
 10
307.8904209695793
 20
31.02303825050262
 30
0.0
 40
2.0
  1
TITLE
100
AcDbText
  0
LINE
  5
114B
330
6EC
100
AcDbEntity
  8
0
100
AcDbLine
 10
9.5
 20
4.0
 30
0.0
 11
9.5
 21
44.0
 31
0.0
  0
LINE
  5
114C
330
6EC
100
AcDbEntity
  8
0
100
AcDbLine
 10
4.0
 20
4.0
 30
0.0
 11
9.5
 21
4.0
 31
0.0
  0
LINE
  5
114D
330
6EC
100
AcDbEntity
  8
0
100
AcDbLine
 10
387.0
 20
4.0
 30
0.0
 11
387.0
 21
18.0
 31
0.0
  0
LINE
  5
114E
330
6EC
100
AcDbEntity
  8
0
100
AcDbLine
 10
396.0
 20
4.0
 30
0.0
 11
387.0
 21
4.0
 31
0.0
  0
LINE
  5
114F
330
6EC
100
AcDbEntity
  8
0
100
AcDbLine
 10
396.0
 20
18.0
 30
0.0
 11
305.0
 21
18.0
 31
0.0
  0
LINE
  5
1150
330
6EC
100
AcDbEntity
  8
0
100
AcDbLine
 10
396.0
 20
34.0
 30
0.0
 11
305.0
 21
34.0
 31
0.0
  0
LINE
  5
1151
330
6EC
100
AcDbEntity
  8
0
100
AcDbLine
 10
396.0
 20
44.0
 30
0.0
 11
396.0
 21
34.0
 31
0.0
  0
LINE
  5
1152
330
6EC
100
AcDbEntity
  8
0
100
AcDbLine
 10
188.0
 20
4.0
 30
0.0
 11
188.0
 21
39.0
 31
0.0
  0
LINE
  5
1153
330
6EC
100
AcDbEntity
  8
0
100
AcDbLine
 10
178.0
 20
4.0
 30
0.0
 11
178.0
 21
39.0
 31
0.0
  0
LINE
  5
1154
330
6EC
100
AcDbEntity
  8
0
100
AcDbLine
 10
173.0
 20
4.0
 30
0.0
 11
173.0
 21
39.0
 31
0.0
  0
LINE
  5
1155
330
6EC
100
AcDbEntity
  8
0
100
AcDbLine
 10
163.0
 20
4.0
 30
0.0
 11
168.0
 21
4.0
 31
0.0
  0
LINE
  5
1156
330
6EC
100
AcDbEntity
  8
0
100
AcDbLine
 10
163.0
 20
9.0
 30
0.0
 11
193.0
 21
9.0
 31
0.0
  0
LINE
  5
1157
330
6EC
100
AcDbEntity
  8
0
100
AcDbLine
 10
163.0
 20
14.0
 30
0.0
 11
193.0
 21
14.0
 31
0.0
  0
LINE
  5
1158
330
6EC
100
AcDbEntity
  8
0
100
AcDbLine
 10
163.0
 20
19.0
 30
0.0
 11
193.0
 21
19.0
 31
0.0
  0
LINE
  5
1159
330
6EC
100
AcDbEntity
  8
0
100
AcDbLine
 10
163.0
 20
24.0
 30
0.0
 11
193.0
 21
24.0
 31
0.0
  0
LINE
  5
115A
330
6EC
100
AcDbEntity
  8
0
100
AcDbLine
 10
163.0
 20
29.0
 30
0.0
 11
193.0
 21
29.0
 31
0.0
  0
LINE
  5
115B
330
6EC
100
AcDbEntity
  8
0
100
AcDbLine
 10
163.0
 20
34.0
 30
0.0
 11
193.0
 21
34.0
 31
0.0
  0
LINE
  5
115C
330
6EC
100
AcDbEntity
  8
0
100
AcDbLine
 10
163.0
 20
39.0
 30
0.0
 11
193.0
 21
39.0
 31
0.0
  0
LINE
  5
115D
330
6EC
100
AcDbEntity
  8
0
100
AcDbLine
 10
163.0
 20
44.0
 30
0.0
 11
163.0
 21
39.0
 31
0.0
  0
LINE
  5
115E
330
6EC
100
AcDbEntity
  8
0
100
AcDbLine
 10
270.0
 20
32.0
 30
0.0
 11
270.0
 21
4.0
 31
0.0
  0
LINE
  5
115F
330
6EC
100
AcDbEntity
  8
0
100
AcDbLine
 10
235.0
 20
32.0
 30
0.0
 11
235.0
 21
4.0
 31
0.0
  0
LINE
  5
1160
330
6EC
100
AcDbEntity
  8
0
100
AcDbLine
 10
218.0
 20
11.0
 30
0.0
 11
270.0
 21
11.0
 31
0.0
  0
LINE
  5
1161
330
6EC
100
AcDbEntity
  8
0
100
AcDbLine
 10
193.0
 20
18.0
 30
0.0
 11
270.0
 21
18.0
 31
0.0
  0
LINE
  5
1162
330
6EC
100
AcDbEntity
  8
0
100
AcDbLine
 10
193.0
 20
25.0
 30
0.0
 11
305.0
 21
25.0
 31
0.0
  0
LINE
  5
1163
330
6EC
100
AcDbEntity
  8
0
100
AcDbLine
 10
193.0
 20
32.0
 30
0.0
 11
305.0
 21
32.0
 31
0.0
  0
LINE
  5
1164
330
6EC
100
AcDbEntity
  8
0
100
AcDbLine
 10
163.0
 20
44.0
 30
0.0
 11
163.0
 21
32.0
 31
0.0
  0
LINE
  5
1165
330
6EC
100
AcDbEntity
  8
0
100
AcDbLine
 10
305.0
 20
44.0
 30
0.0
 11
305.0
 21
4.0
 31
0.0
  0
LINE
  5
1166
330
6EC
100
AcDbEntity
  8
0
100
AcDbLine
 10
218.0
 20
44.0
 30
0.0
 11
218.0
 21
4.0
 31
0.0
  0
LINE
  5
1167
330
6EC
100
AcDbEntity
  8
0
100
AcDbLine
 10
193.0
 20
44.0
 30
0.0
 11
218.0
 21
44.0
 31
0.0
  0
LWPOLYLINE
  5
1168
330
6EC
100
AcDbEntity
  8
図面太枠
100
AcDbPolyline
 90
        2
 70
     0
 43
0.25
 10
193.0
 20
44.0
 10
193.0
 20
4.0
  0
LWPOLYLINE
  5
1169
330
6EC
100
AcDbEntity
  8
図面太枠
100
AcDbPolyline
 90
        3
 70
     0
 43
0.25
 10
4.0
 20
44.0
 10
163.0
 20
44.0
 10
163.0
 20
4.0
  0
LWPOLYLINE
  5
116A
330
6EC
100
AcDbEntity
  8
図面太枠
100
AcDbPolyline
 90
        3
 70
     0
 43
0.25
 10
4.0
 20
4.0
 10
4.0
 20
44.0
 10
396.0
 20
44.0
  0
LWPOLYLINE
  5
116B
330
6EC
100
AcDbEntity
  8
図面太枠
100
AcDbPolyline
 90
        2
 70
     0
 43
0.25
 10
4.0
 20
4.0
 10
4.0
 20
284.0
  0
LWPOLYLINE
  5
116C
330
6EC
100
AcDbEntity
  8
図面太枠
100
AcDbPolyline
 90
        2
 70
     1
 43
0.25
 10
396.0
 20
284.0
 10
4.0
 20
284.0
  0
LWPOLYLINE
  5
116D
330
6EC
100
AcDbEntity
  8
0
100
AcDbPolyline
 90
        2
 70
     0
 43
0.25
 10
4.0
 20
4.0
 10
396.0
 20
4.0
  0
LWPOLYLINE
  5
116E
330
6EC
100
AcDbEntity
  8
図面太枠
100
AcDbPolyline
 90
        2
 70
     0
 43
0.25
 10
396.0
 20
4.0
 10
396.0
 20
284.0
  0
LWPOLYLINE
  5
116F
330
6EC
100
AcDbEntity
  8
図面太枠
100
AcDbPolyline
 90
        2
 70
     0
 43
0.25
 10
4.0
 20
4.0
 10
396.0
 20
4.0
  0
LINE
  5
1170
330
6EC
100
AcDbEntity
  8
0
100
AcDbLine
 10
396.0
 20
284.0
 30
0.0
 11
376.0
 21
284.0
 31
0.0
  0
LINE
  5
1171
330
6EC
100
AcDbEntity
  8
0
100
AcDbLine
 10
376.0
 20
284.0
 30
0.0
 11
376.0
 21
257.5
 31
0.0
  0
LINE
  5
1172
330
6EC
100
AcDbEntity
  8
0
100
AcDbLine
 10
361.0
 20
284.0
 30
0.0
 11
361.0
 21
257.5
 31
0.0
  0
LINE
  5
1173
330
6EC
100
AcDbEntity
  8
0
100
AcDbLine
 10
326.0
 20
284.0
 30
0.0
 11
326.0
 21
257.5
 31
0.0
  0
LINE
  5
1174
330
6EC
100
AcDbEntity
  8
0
100
AcDbLine
 10
326.0
 20
284.0
 30
0.0
 11
326.0
 21
257.5
 31
0.0
  0
LINE
  5
1175
330
6EC
100
AcDbEntity
  8
0
100
AcDbLine
 10
286.0
 20
284.0
 30
0.0
 11
286.0
 21
257.5
 31
0.0
  0
LINE
  5
1176
330
6EC
100
AcDbEntity
  8
0
100
AcDbLine
 10
276.0
 20
284.0
 30
0.0
 11
276.0
 21
257.5
 31
0.0
  0
LINE
  5
1177
330
6EC
100
AcDbEntity
  8
0
100
AcDbLine
 10
276.0
 20
257.5
 30
0.0
 11
396.0
 21
257.5
 31
0.0
  0
LINE
  5
1178
330
6EC
100
AcDbEntity
  8
0
100
AcDbLine
 10
276.0
 20
262.5
 30
0.0
 11
396.0
 21
262.5
 31
0.0
  0
LINE
  5
1179
330
6EC
100
AcDbEntity
  8
0
100
AcDbLine
 10
276.0
 20
267.5
 30
0.0
 11
396.0
 21
267.5
 31
0.0
  0
LINE
  5
117A
330
6EC
100
AcDbEntity
  8
0
100
AcDbLine
 10
276.0
 20
272.5
 30
0.0
 11
396.0
 21
272.5
 31
0.0
  0
LINE
  5
117B
330
6EC
100
AcDbEntity
  8
0
100
AcDbLine
 10
276.0
 20
277.5
 30
0.0
 11
396.0
 21
277.5
 31
0.0
  0
TEXT
  5
117C
330
6EC
100
AcDbEntity
  8
0
100
AcDbText
 10
278.0
 20
279.0
 30
0.0
 40
2.5
  1
品 番
100
AcDbText
  0
TEXT
  5
117D
330
6EC
100
AcDbEntity
  8
0
100
AcDbText
 10
298.0
 20
279.0
 30
0.0
 40
2.5
  1
品      名
100
AcDbText
  0
TEXT
  5
117E
330
6EC
100
AcDbEntity
  8
0
100
AcDbText
 10
333.5
 20
279.0
 30
0.0
 40
2.5
  1
 材料 ・ 寸法
100
AcDbText
  0
TEXT
  5
117F
330
6EC
100
AcDbEntity
  8
0
100
AcDbText
 10
363.0
 20
281.0
 30
0.0
 40
2.5
  1
所要数
100
AcDbText
  0
TEXT
  5
1180
330
6EC
100
AcDbEntity
  8
0
100
AcDbText
 10
372.5
 20
278.0
 30
0.0
 40
2.5
  1
個
100
AcDbText
  0
TEXT
  5
1181
330
6EC
100
AcDbEntity
  8
0
100
AcDbText
 10
380.0
 20
279.0
 30
0.0
 40
2.5
  1
備    考
100
AcDbText
  0
LINE
  5
1182
330
6EC
100
AcDbEntity
  8
0
100
AcDbLine
 10
374.5
 20
282.5
 30
0.0
 11
369.0
 21
278.5
 31
0.0
  0
MTEXT
  5
1183
330
6EC
100
AcDbEntity
  8
0
 48
5.0
100
AcDbMText
 10
280.0
 20
276.0
 30
0.0
 40
2.5
 41
8.0
 71
     1
 72
     5
  1
1
 73
     1
 44
1.0
1001
ACAD
1000
MTEXTBEGIN
1070
    73
1070
     1
1070
    44
1040
1.0
1070
    74
1070
     0
1000
MTEXTEND
  0
MTEXT
  5
1184
330
6EC
100
AcDbEntity
  8
0
 48
5.0
100
AcDbMText
 10
287.5
 20
276.0
 30
0.0
 40
2.5
 41
30.5
 71
     1
 72
     5
  1
プラグハウジングＡ
 73
     1
 44
1.0
1001
ACAD
1000
MTEXTBEGIN
1070
    73
1070
     1
1070
    44
1040
1.0
1070
    74
1070
     0
1000
MTEXTEND
  0
MTEXT
  5
1185
330
6EC
100
AcDbEntity
  8
0
 48
5.0
100
AcDbMText
 10
280.0
 20
271.0
 30
0.0
 40
2.5
 41
8.0
 71
     1
 72
     5
  1
2
 73
     1
 44
1.0
1001
ACAD
1000
MTEXTBEGIN
1070
    73
1070
     1
1070
    44
1040
1.0
1070
    74
1070
     0
1000
MTEXTEND
  0
MTEXT
  5
1186
330
6EC
100
AcDbEntity
  8
0
 48
5.0
100
AcDbMText
 10
280.0
 20
266.0
 30
0.0
 40
2.5
 41
8.0
 71
     1
 72
     5
  1
3
 73
     1
 44
1.0
1001
ACAD
1000
MTEXTBEGIN
1070
    73
1070
     1
1070
    44
1040
1.0
1070
    74
1070
     0
1000
MTEXTEND
  0
MTEXT
  5
1187
330
6EC
100
AcDbEntity
  8
0
 48
5.0
100
AcDbMText
 10
280.0
 20
261.0
 30
0.0
 40
2.5
 41
8.0
 71
     1
 72
     5
  1
4
 73
     1
 44
1.0
1001
ACAD
1000
MTEXTBEGIN
1070
    73
1070
     1
1070
    44
1040
1.0
1070
    74
1070
     0
1000
MTEXTEND
  0
MTEXT
  5
1188
330
6EC
100
AcDbEntity
  8
0
 48
5.0
100
AcDbMText
 10
287.5
 20
271.0
 30
0.0
 40
2.5
 41
30.5
 71
     1
 72
     5
  1
プラグハウジングＢ
 73
     1
 44
1.0
1001
ACAD
1000
MTEXTBEGIN
1070
    73
1070
     1
1070
    44
1040
1.0
1070
    74
1070
     0
1000
MTEXTEND
  0
MTEXT
  5
1189
330
6EC
100
AcDbEntity
  8
0
 48
5.0
100
AcDbMText
 10
287.5
 20
266.0
 30
0.0
 40
2.5
 41
30.5
 71
     1
 72
     5
  1
フェルールＡＳＳＹ
 73
     1
 44
1.0
1001
ACAD
1000
MTEXTBEGIN
1070
    73
1070
     1
1070
    44
1040
1.0
1070
    74
1070
     0
1000
MTEXTEND
  0
MTEXT
  5
118A
330
6EC
100
AcDbEntity
  8
0
 48
5.0
100
AcDbMText
 10
287.5
 20
261.0
 30
0.0
 40
2.5
 41
35.0
 71
     1
 72
     5
  1
ゴムスリーブ＆キャップ
 73
     1
 44
1.0
1001
ACAD
1000
MTEXTBEGIN
1070
    73
1070
     1
1070
    44
1040
1.0
1070
    74
1070
     0
1000
MTEXTEND
  0
MTEXT
  5
118B
330
6EC
100
AcDbEntity
  8
0
 48
5.0
100
AcDbMText
 10
328.0
 20
271.0
 30
0.0
 40
2.5
 41
15.0
 71
     1
 72
     5
  1
合成樹脂
 73
     1
 44
1.0
1001
ACAD
1000
MTEXTBEGIN
1070
    73
1070
     1
1070
    44
1040
1.0
1070
    74
1070
     0
1000
MTEXTEND
  0
MTEXT
  5
118C
330
6EC
100
AcDbEntity
  8
0
 48
5.0
100
AcDbMText
 10
328.0
 20
266.0
 30
0.0
 40
2.5
 41
29.0
 71
     1
 72
     5
  1
ステンレス＋銅合金
 73
     1
 44
1.0
1001
ACAD
1000
MTEXTBEGIN
1070
    73
1070
     1
1070
    44
1040
1.0
1070
    74
1070
     0
1000
MTEXTEND
  0
MTEXT
  5
118D
330
6EC
100
AcDbEntity
  8
0
 48
5.0
100
AcDbMText
 10
328.0
 20
261.0
 30
0.0
 40
2.5
 41
15.0
 71
     1
 72
     5
  1
軟質塩ビ
 73
     1
 44
1.0
1001
ACAD
1000
MTEXTBEGIN
1070
    73
1070
     1
1070
    44
1040
1.0
1070
    74
1070
     0
1000
MTEXTEND
  0
MTEXT
  5
118E
330
6EC
100
AcDbEntity
  8
0
 48
5.0
100
AcDbMText
 10
367.5
 20
271.0
 30
0.0
 40
2.5
 41
4.5
 71
     1
 72
     5
  1
1
 73
     1
 44
1.0
1001
ACAD
1000
MTEXTBEGIN
1070
    73
1070
     1
1070
    44
1040
1.0
1070
    74
1070
     0
1000
MTEXTEND
  0
MTEXT
  5
118F
330
6EC
100
AcDbEntity
  8
0
 48
5.0
100
AcDbMText
 10
367.5
 20
266.0
 30
0.0
 40
2.5
 41
4.5
 71
     1
 72
     5
  1
2
 73
     1
 44
1.0
1001
ACAD
1000
MTEXTBEGIN
1070
    73
1070
     1
1070
    44
1040
1.0
1070
    74
1070
     0
1000
MTEXTEND
  0
MTEXT
  5
1190
330
6EC
100
AcDbEntity
  8
0
 48
5.0
100
AcDbMText
 10
367.5
 20
261.0
 30
0.0
 40
2.5
 41
4.5
 71
     1
 72
     5
  1
1
 73
     1
 44
1.0
1001
ACAD
1000
MTEXTBEGIN
1070
    73
1070
     1
1070
    44
1040
1.0
1070
    74
1070
     0
1000
MTEXTEND
  0
MTEXT
  5
1191
330
6EC
100
AcDbEntity
  8
0
 48
5.0
100
AcDbMText
 10
316.0
 20
41.0
 30
0.0
 40
6.0
 41
67.5
 71
     1
 72
     5
  1
光コネクタ
  7
ROMANS
 73
     1
 44
1.0
1001
ACAD
1000
MTEXTBEGIN
1070
    73
1070
     1
1070
    44
1040
1.0
1070
    74
1070
     0
1000
MTEXTEND
  0
MTEXT
  5
1192
330
6EC
100
AcDbEntity
  8
0
 48
5.0
100
AcDbMText
 10
316.0
 20
27.0
 30
0.0
 40
5.0
 41
64.0
 71
     1
 72
     5
  1
ＣＡ７００３
  7
ROMANS
 73
     1
 44
1.0
1001
ACAD
1000
MTEXTBEGIN
1070
    73
1070
     1
1070
    44
1040
1.0
1070
    74
1070
     0
1000
MTEXTEND
  0
MTEXT
  5
1193
330
6EC
100
AcDbEntity
  8
0
 48
5.0
100
AcDbMText
 10
309.0
 20
13.0
 30
0.0
 40
8.0
 41
80.0
 71
     1
 72
     5
  1
Ｘ３Ｍ００３３６
  7
ROMANS
 73
     1
 44
1.0
1001
ACAD
1000
MTEXTBEGIN
1070
    73
1070
     1
1070
    44
1040
1.0
1070
    74
1070
     0
1000
MTEXTEND
  0
MTEXT
  5
1194
330
6EC
100
AcDbEntity
  8
0
 48
5.0
100
AcDbMText
 10
238.0
 20
30.0
 30
0.0
 40
2.5
 41
30.0
 71
     1
 72
     5
  1
'99     2     10
 73
     1
 44
1.0
1001
ACAD
1000
MTEXTBEGIN
1070
    73
1070
     1
1070
    44
1040
1.0
1070
    74
1070
     0
1000
MTEXTEND
  0
MTEXT
  5
1195
330
6EC
100
AcDbEntity
  8
0
 48
5.0
100
AcDbMText
 10
243.5
 20
23.0
 30
0.0
 40
3.0
 41
25.0
 71
     1
 72
     5
  1
加   藤（祐）
 73
     1
 44
1.0
1001
ACAD
1000
MTEXTBEGIN
1070
    73
1070
     1
1070
    44
1040
1.0
1070
    74
1070
     0
1000
MTEXTEND
  0
ELLIPSE
  5
1196
330
6EC
100
AcDbEntity
  8
0
 48
5.0
100
AcDbEllipse
 10
204.5
 20
7.5
 30
0.0
 11
-5.0
 21
0.0
 31
0.0
210
0.0
220
0.0
230
1.0
 40
0.5
 41
0.0
 42
6.283185307179586
  0
MTEXT
  5
1197
330
6EC
100
AcDbEntity
  8
0
 48
5.0
100
AcDbMText
 10
328.0
 20
276.0
 30
0.0
 40
2.5
 41
15.0
 71
     1
 72
     5
  1
合成樹脂
 73
     1
 44
1.0
1001
ACAD
1000
MTEXTBEGIN
1070
    73
1070
     1
1070
    44
1040
1.0
1070
    74
1070
     0
1000
MTEXTEND
  0
MTEXT
  5
1198
330
6EC
100
AcDbEntity
  8
0
 48
5.0
100
AcDbMText
 10
367.5
 20
276.0
 30
0.0
 40
2.5
 41
4.5
 71
     1
 72
     5
  1
1
 73
     1
 44
1.0
1001
ACAD
1000
MTEXTBEGIN
1070
    73
1070
     1
1070
    44
1040
1.0
1070
    74
1070
     0
1000
MTEXTEND
  0
ENDBLK
  5
7E5
330
6EC
100
AcDbEntity
  8
0
100
AcDbBlockEnd
  0
BLOCK
  5
139D
330
12B1
100
AcDbEntity
  8
0
100
AcDbBlockBegin
  2
A4枠PA7003
 70
     0
 10
0.0
 20
0.0
 30
0.0
  3
A4枠PA7003
  1

  0
LINE
  5
12B2
330
12B1
100
AcDbEntity
  8
図面太枠
100
AcDbLine
 10
193.0
 20
284.0
 30
0.0
 11
193.0
 21
289.5
 31
0.0
  0
LINE
  5
12B3
330
12B1
100
AcDbEntity
  8
図面太枠
100
AcDbLine
 10
193.0
 20
-3.5
 30
0.0
 11
193.0
 21
4.0
 31
0.0
  0
LWPOLYLINE
  5
12B4
330
12B1
100
AcDbEntity
  8
図面太枠
100
AcDbPolyline
 90
        2
 70
     0
 43
0.25
 10
396.0
 20
144.0
 10
403.0
 20
144.0
  0
LWPOLYLINE
  5
12B5
330
12B1
100
AcDbEntity
  8
図面太枠
100
AcDbPolyline
 90
        2
 70
     0
 43
0.25
 10
4.0
 20
144.0
 10
-2.5
 20
144.0
  0
LINE
  5
12B6
330
12B1
100
AcDbEntity
  8
0
100
AcDbLine
 10
389.0
 20
44.0
 30
0.0
 11
389.0
 21
46.0
 31
0.0
  0
LINE
  5
12B7
330
12B1
100
AcDbEntity
  8
0
100
AcDbLine
 10
379.0
 20
44.0
 30
0.0
 11
379.0
 21
46.0
 31
0.0
  0
LINE
  5
12B8
330
12B1
100
AcDbEntity
  8
0
100
AcDbLine
 10
369.0
 20
44.0
 30
0.0
 11
369.0
 21
46.0
 31
0.0
  0
LINE
  5
12B9
330
12B1
100
AcDbEntity
  8
0
100
AcDbLine
 10
359.0
 20
44.0
 30
0.0
 11
359.0
 21
46.0
 31
0.0
  0
LINE
  5
12BA
330
12B1
100
AcDbEntity
  8
0
100
AcDbLine
 10
349.0
 20
44.0
 30
0.0
 11
349.0
 21
46.0
 31
0.0
  0
LINE
  5
12BB
330
12B1
100
AcDbEntity
  8
0
100
AcDbLine
 10
339.0
 20
44.0
 30
0.0
 11
339.0
 21
46.0
 31
0.0
  0
LINE
  5
12BC
330
12B1
100
AcDbEntity
  8
0
100
AcDbLine
 10
329.0
 20
44.0
 30
0.0
 11
329.0
 21
46.0
 31
0.0
  0
LINE
  5
12BD
330
12B1
100
AcDbEntity
  8
0
100
AcDbLine
 10
319.0
 20
44.0
 30
0.0
 11
319.0
 21
46.0
 31
0.0
  0
LINE
  5
12BE
330
12B1
100
AcDbEntity
  8
0
100
AcDbLine
 10
309.0
 20
44.0
 30
0.0
 11
309.0
 21
46.0
 31
0.0
  0
LINE
  5
12BF
330
12B1
100
AcDbEntity
  8
0
100
AcDbLine
 10
299.0
 20
44.0
 30
0.0
 11
299.0
 21
46.0
 31
0.0
  0
LINE
  5
12C0
330
12B1
100
AcDbEntity
  8
0
100
AcDbLine
 10
289.0
 20
44.0
 30
0.0
 11
289.0
 21
46.0
 31
0.0
  0
LINE
  5
12C1
330
12B1
100
AcDbEntity
  8
0
100
AcDbLine
 10
279.0
 20
44.0
 30
0.0
 11
279.0
 21
46.0
 31
0.0
  0
LINE
  5
12C2
330
12B1
100
AcDbEntity
  8
0
100
AcDbLine
 10
269.0
 20
44.0
 30
0.0
 11
269.0
 21
46.0
 31
0.0
  0
LINE
  5
12C3
330
12B1
100
AcDbEntity
  8
0
100
AcDbLine
 10
259.0
 20
44.0
 30
0.0
 11
259.0
 21
46.0
 31
0.0
  0
LINE
  5
12C4
330
12B1
100
AcDbEntity
  8
0
100
AcDbLine
 10
249.0
 20
44.0
 30
0.0
 11
249.0
 21
46.0
 31
0.0
  0
LINE
  5
12C5
330
12B1
100
AcDbEntity
  8
0
100
AcDbLine
 10
239.0
 20
44.0
 30
0.0
 11
239.0
 21
46.0
 31
0.0
  0
LINE
  5
12C6
330
12B1
100
AcDbEntity
  8
0
100
AcDbLine
 10
229.0
 20
44.0
 30
0.0
 11
229.0
 21
46.0
 31
0.0
  0
LINE
  5
12C7
330
12B1
100
AcDbEntity
  8
0
100
AcDbLine
 10
219.0
 20
44.0
 30
0.0
 11
219.0
 21
46.0
 31
0.0
  0
LINE
  5
12C8
330
12B1
100
AcDbEntity
  8
0
100
AcDbLine
 10
209.0
 20
44.0
 30
0.0
 11
209.0
 21
46.0
 31
0.0
  0
LINE
  5
12C9
330
12B1
100
AcDbEntity
  8
0
100
AcDbLine
 10
199.0
 20
44.0
 30
0.0
 11
199.0
 21
46.0
 31
0.0
  0
LINE
  5
12CA
330
12B1
100
AcDbEntity
  8
0
100
AcDbLine
 10
189.0
 20
44.0
 30
0.0
 11
189.0
 21
46.0
 31
0.0
  0
LINE
  5
12CB
330
12B1
100
AcDbEntity
  8
0
100
AcDbLine
 10
179.0
 20
44.0
 30
0.0
 11
179.0
 21
46.0
 31
0.0
  0
LINE
  5
12CC
330
12B1
100
AcDbEntity
  8
0
100
AcDbLine
 10
169.0
 20
44.0
 30
0.0
 11
169.0
 21
46.0
 31
0.0
  0
LINE
  5
12CD
330
12B1
100
AcDbEntity
  8
0
100
AcDbLine
 10
159.0
 20
44.0
 30
0.0
 11
159.0
 21
46.0
 31
0.0
  0
LINE
  5
12CE
330
12B1
100
AcDbEntity
  8
0
100
AcDbLine
 10
149.0
 20
44.0
 30
0.0
 11
149.0
 21
46.0
 31
0.0
  0
LINE
  5
12CF
330
12B1
100
AcDbEntity
  8
0
100
AcDbLine
 10
139.0
 20
44.0
 30
0.0
 11
139.0
 21
46.0
 31
0.0
  0
LINE
  5
12D0
330
12B1
100
AcDbEntity
  8
0
100
AcDbLine
 10
129.0
 20
44.0
 30
0.0
 11
129.0
 21
46.0
 31
0.0
  0
LINE
  5
12D1
330
12B1
100
AcDbEntity
  8
0
100
AcDbLine
 10
119.0
 20
44.0
 30
0.0
 11
119.0
 21
46.0
 31
0.0
  0
LINE
  5
12D2
330
12B1
100
AcDbEntity
  8
0
100
AcDbLine
 10
109.0
 20
44.0
 30
0.0
 11
109.0
 21
46.0
 31
0.0
  0
LINE
  5
12D3
330
12B1
100
AcDbEntity
  8
0
100
AcDbLine
 10
99.0
 20
44.0
 30
0.0
 11
99.0
 21
46.0
 31
0.0
  0
LINE
  5
12D4
330
12B1
100
AcDbEntity
  8
0
100
AcDbLine
 10
89.0
 20
44.0
 30
0.0
 11
89.0
 21
46.0
 31
0.0
  0
LINE
  5
12D5
330
12B1
100
AcDbEntity
  8
0
100
AcDbLine
 10
79.0
 20
44.0
 30
0.0
 11
79.0
 21
46.0
 31
0.0
  0
LINE
  5
12D6
330
12B1
100
AcDbEntity
  8
0
100
AcDbLine
 10
69.0
 20
44.0
 30
0.0
 11
69.0
 21
46.0
 31
0.0
  0
LINE
  5
12D7
330
12B1
100
AcDbEntity
  8
0
100
AcDbLine
 10
59.0
 20
44.0
 30
0.0
 11
59.0
 21
46.0
 31
0.0
  0
LINE
  5
12D8
330
12B1
100
AcDbEntity
  8
0
100
AcDbLine
 10
49.0
 20
44.0
 30
0.0
 11
49.0
 21
46.0
 31
0.0
  0
LINE
  5
12D9
330
12B1
100
AcDbEntity
  8
0
100
AcDbLine
 10
39.0
 20
44.0
 30
0.0
 11
39.0
 21
46.0
 31
0.0
  0
LINE
  5
12DA
330
12B1
100
AcDbEntity
  8
0
100
AcDbLine
 10
29.0
 20
44.0
 30
0.0
 11
29.0
 21
46.0
 31
0.0
  0
LINE
  5
12DB
330
12B1
100
AcDbEntity
  8
0
100
AcDbLine
 10
19.0
 20
44.0
 30
0.0
 11
19.0
 21
46.0
 31
0.0
  0
LINE
  5
12DC
330
12B1
100
AcDbEntity
  8
0
100
AcDbLine
 10
9.0
 20
44.0
 30
0.0
 11
9.0
 21
46.0
 31
0.0
  0
LINE
  5
12DD
330
12B1
100
AcDbEntity
  8
0
100
AcDbLine
 10
4.0
 20
44.0
 30
0.0
 11
9.0
 21
44.0
 31
0.0
  0
LINE
  5
12DE
330
12B1
100
AcDbEntity
  8
0
100
AcDbLine
 10
394.0
 20
44.0
 30
0.0
 11
394.0
 21
47.0
 31
0.0
  0
LINE
  5
12DF
330
12B1
100
AcDbEntity
  8
0
100
AcDbLine
 10
384.0
 20
44.0
 30
0.0
 11
384.0
 21
47.0
 31
0.0
  0
LINE
  5
12E0
330
12B1
100
AcDbEntity
  8
0
100
AcDbLine
 10
374.0
 20
44.0
 30
0.0
 11
374.0
 21
47.0
 31
0.0
  0
LINE
  5
12E1
330
12B1
100
AcDbEntity
  8
0
100
AcDbLine
 10
364.0
 20
44.0
 30
0.0
 11
364.0
 21
47.0
 31
0.0
  0
LINE
  5
12E2
330
12B1
100
AcDbEntity
  8
0
100
AcDbLine
 10
354.0
 20
44.0
 30
0.0
 11
354.0
 21
47.0
 31
0.0
  0
LINE
  5
12E3
330
12B1
100
AcDbEntity
  8
0
100
AcDbLine
 10
344.0
 20
44.0
 30
0.0
 11
344.0
 21
47.0
 31
0.0
  0
LINE
  5
12E4
330
12B1
100
AcDbEntity
  8
0
100
AcDbLine
 10
334.0
 20
44.0
 30
0.0
 11
334.0
 21
47.0
 31
0.0
  0
LINE
  5
12E5
330
12B1
100
AcDbEntity
  8
0
100
AcDbLine
 10
324.0
 20
44.0
 30
0.0
 11
324.0
 21
47.0
 31
0.0
  0
LINE
  5
12E6
330
12B1
100
AcDbEntity
  8
0
100
AcDbLine
 10
314.0
 20
44.0
 30
0.0
 11
314.0
 21
47.0
 31
0.0
  0
LINE
  5
12E7
330
12B1
100
AcDbEntity
  8
0
100
AcDbLine
 10
304.0
 20
44.0
 30
0.0
 11
304.0
 21
47.0
 31
0.0
  0
LINE
  5
12E8
330
12B1
100
AcDbEntity
  8
0
100
AcDbLine
 10
294.0
 20
44.0
 30
0.0
 11
294.0
 21
47.0
 31
0.0
  0
LINE
  5
12E9
330
12B1
100
AcDbEntity
  8
0
100
AcDbLine
 10
284.0
 20
44.0
 30
0.0
 11
284.0
 21
47.0
 31
0.0
  0
LINE
  5
12EA
330
12B1
100
AcDbEntity
  8
0
100
AcDbLine
 10
274.0
 20
44.0
 30
0.0
 11
274.0
 21
47.0
 31
0.0
  0
LINE
  5
12EB
330
12B1
100
AcDbEntity
  8
0
100
AcDbLine
 10
264.0
 20
44.0
 30
0.0
 11
264.0
 21
47.0
 31
0.0
  0
LINE
  5
12EC
330
12B1
100
AcDbEntity
  8
0
100
AcDbLine
 10
254.0
 20
44.0
 30
0.0
 11
254.0
 21
47.0
 31
0.0
  0
LINE
  5
12ED
330
12B1
100
AcDbEntity
  8
0
100
AcDbLine
 10
244.0
 20
44.0
 30
0.0
 11
244.0
 21
47.0
 31
0.0
  0
LINE
  5
12EE
330
12B1
100
AcDbEntity
  8
0
100
AcDbLine
 10
234.0
 20
44.0
 30
0.0
 11
234.0
 21
47.0
 31
0.0
  0
LINE
  5
12EF
330
12B1
100
AcDbEntity
  8
0
100
AcDbLine
 10
224.0
 20
44.0
 30
0.0
 11
224.0
 21
47.0
 31
0.0
  0
LINE
  5
12F0
330
12B1
100
AcDbEntity
  8
0
100
AcDbLine
 10
214.0
 20
44.0
 30
0.0
 11
214.0
 21
47.0
 31
0.0
  0
LINE
  5
12F1
330
12B1
100
AcDbEntity
  8
0
100
AcDbLine
 10
204.0
 20
44.0
 30
0.0
 11
204.0
 21
47.0
 31
0.0
  0
LINE
  5
12F2
330
12B1
100
AcDbEntity
  8
0
100
AcDbLine
 10
194.0
 20
44.0
 30
0.0
 11
194.0
 21
47.0
 31
0.0
  0
LINE
  5
12F3
330
12B1
100
AcDbEntity
  8
0
100
AcDbLine
 10
184.0
 20
44.0
 30
0.0
 11
184.0
 21
47.0
 31
0.0
  0
LINE
  5
12F4
330
12B1
100
AcDbEntity
  8
0
100
AcDbLine
 10
174.0
 20
44.0
 30
0.0
 11
174.0
 21
47.0
 31
0.0
  0
LINE
  5
12F5
330
12B1
100
AcDbEntity
  8
0
100
AcDbLine
 10
164.0
 20
44.0
 30
0.0
 11
164.0
 21
47.0
 31
0.0
  0
LINE
  5
12F6
330
12B1
100
AcDbEntity
  8
0
100
AcDbLine
 10
154.0
 20
44.0
 30
0.0
 11
154.0
 21
47.0
 31
0.0
  0
LINE
  5
12F7
330
12B1
100
AcDbEntity
  8
0
100
AcDbLine
 10
144.0
 20
44.0
 30
0.0
 11
144.0
 21
47.0
 31
0.0
  0
LINE
  5
12F8
330
12B1
100
AcDbEntity
  8
0
100
AcDbLine
 10
134.0
 20
44.0
 30
0.0
 11
134.0
 21
47.0
 31
0.0
  0
LINE
  5
12F9
330
12B1
100
AcDbEntity
  8
0
100
AcDbLine
 10
124.0
 20
44.0
 30
0.0
 11
124.0
 21
47.0
 31
0.0
  0
LINE
  5
12FA
330
12B1
100
AcDbEntity
  8
0
100
AcDbLine
 10
114.0
 20
44.0
 30
0.0
 11
114.0
 21
47.0
 31
0.0
  0
LINE
  5
12FB
330
12B1
100
AcDbEntity
  8
0
100
AcDbLine
 10
104.0
 20
44.0
 30
0.0
 11
104.0
 21
47.0
 31
0.0
  0
LINE
  5
12FC
330
12B1
100
AcDbEntity
  8
0
100
AcDbLine
 10
94.0
 20
44.0
 30
0.0
 11
94.0
 21
47.0
 31
0.0
  0
LINE
  5
12FD
330
12B1
100
AcDbEntity
  8
0
100
AcDbLine
 10
84.0
 20
44.0
 30
0.0
 11
84.0
 21
47.0
 31
0.0
  0
LINE
  5
12FE
330
12B1
100
AcDbEntity
  8
0
100
AcDbLine
 10
74.0
 20
44.0
 30
0.0
 11
74.0
 21
47.0
 31
0.0
  0
LINE
  5
12FF
330
12B1
100
AcDbEntity
  8
0
100
AcDbLine
 10
64.0
 20
44.0
 30
0.0
 11
64.0
 21
47.0
 31
0.0
  0
LINE
  5
1300
330
12B1
100
AcDbEntity
  8
0
100
AcDbLine
 10
54.0
 20
44.0
 30
0.0
 11
54.0
 21
47.0
 31
0.0
  0
LINE
  5
1301
330
12B1
100
AcDbEntity
  8
0
100
AcDbLine
 10
44.0
 20
44.0
 30
0.0
 11
44.0
 21
47.0
 31
0.0
  0
LINE
  5
1302
330
12B1
100
AcDbEntity
  8
0
100
AcDbLine
 10
34.0
 20
44.0
 30
0.0
 11
34.0
 21
47.0
 31
0.0
  0
LINE
  5
1303
330
12B1
100
AcDbEntity
  8
0
100
AcDbLine
 10
24.0
 20
44.0
 30
0.0
 11
24.0
 21
47.0
 31
0.0
  0
LINE
  5
1304
330
12B1
100
AcDbEntity
  8
0
100
AcDbLine
 10
14.0
 20
44.0
 30
0.0
 11
14.0
 21
47.0
 31
0.0
  0
LINE
  5
1305
330
12B1
100
AcDbEntity
  8
0
100
AcDbLine
 10
4.0
 20
44.0
 30
0.0
 11
14.0
 21
44.0
 31
0.0
  0
LINE
  5
1306
330
12B1
100
AcDbEntity
  8
0
100
AcDbLine
 10
4.0
 20
44.0
 30
0.0
 11
4.0
 21
47.0
 31
0.0
  0
TEXT
  5
1307
330
12B1
100
AcDbEntity
  8
0
100
AcDbText
 10
1.0
 20
263.0
 30
0.0
 40
2.5
  1
A
  7
ROMANS
100
AcDbText
  0
TEXT
  5
1308
330
12B1
100
AcDbEntity
  8
0
100
AcDbText
 10
1.0
 20
214.5
 30
0.0
 40
2.5
  1
B
  7
ROMANS
100
AcDbText
  0
TEXT
  5
1309
330
12B1
100
AcDbEntity
  8
0
100
AcDbText
 10
1.0
 20
166.0
 30
0.0
 40
2.5
  1
C
  7
ROMANS
100
AcDbText
  0
TEXT
  5
130A
330
12B1
100
AcDbEntity
  8
0
100
AcDbText
 10
1.0
 20
117.5
 30
0.0
 40
2.5
  1
D
  7
ROMANS
100
AcDbText
  0
TEXT
  5
130B
330
12B1
100
AcDbEntity
  8
0
100
AcDbText
 10
1.0
 20
69.0
 30
0.0
 40
2.5
  1
E
  7
ROMANS
100
AcDbText
  0
TEXT
  5
130C
330
12B1
100
AcDbEntity
  8
0
100
AcDbText
 10
29.0
 20
1.0
 30
0.0
 40
2.5
  1
1
  7
ROMANS
100
AcDbText
  0
TEXT
  5
130D
330
12B1
100
AcDbEntity
  8
0
100
AcDbText
 10
78.0
 20
1.0
 30
0.0
 40
2.5
  1
2
  7
ROMANS
100
AcDbText
  0
TEXT
  5
130E
330
12B1
100
AcDbEntity
  8
0
100
AcDbText
 10
127.0
 20
1.0
 30
0.0
 40
2.5
  1
3
  7
ROMANS
100
AcDbText
  0
TEXT
  5
130F
330
12B1
100
AcDbEntity
  8
0
100
AcDbText
 10
176.0
 20
1.0
 30
0.0
 40
2.5
  1
4
  7
ROMANS
100
AcDbText
  0
TEXT
  5
1310
330
12B1
100
AcDbEntity
  8
0
100
AcDbText
 10
225.0
 20
1.0
 30
0.0
 40
2.5
  1
5
  7
ROMANS
100
AcDbText
  0
TEXT
  5
1311
330
12B1
100
AcDbEntity
  8
0
100
AcDbText
 10
274.0
 20
1.0
 30
0.0
 40
2.5
  1
6
  7
ROMANS
100
AcDbText
  0
TEXT
  5
1312
330
12B1
100
AcDbEntity
  8
0
100
AcDbText
 10
323.0
 20
1.0
 30
0.0
 40
2.5
  1
7
  7
ROMANS
100
AcDbText
  0
TEXT
  5
1313
330
12B1
100
AcDbEntity
  8
0
100
AcDbText
 10
372.0
 20
1.0
 30
0.0
 40
2.5
  1
8
  7
ROMANS
100
AcDbText
  0
TEXT
  5
1314
330
12B1
100
AcDbEntity
  8
0
100
AcDbText
 10
396.5
 20
69.0
 30
0.0
 40
2.5
  1
E
  7
ROMANS
100
AcDbText
  0
TEXT
  5
1315
330
12B1
100
AcDbEntity
  8
0
100
AcDbText
 10
396.5
 20
117.5
 30
0.0
 40
2.5
  1
D
  7
ROMANS
100
AcDbText
  0
TEXT
  5
1316
330
12B1
100
AcDbEntity
  8
0
100
AcDbText
 10
396.5
 20
166.0
 30
0.0
 40
2.5
  1
C
  7
ROMANS
100
AcDbText
  0
TEXT
  5
1317
330
12B1
100
AcDbEntity
  8
0
100
AcDbText
 10
396.5
 20
214.5
 30
0.0
 40
2.5
  1
B
  7
ROMANS
100
AcDbText
  0
TEXT
  5
1318
330
12B1
100
AcDbEntity
  8
0
100
AcDbText
 10
396.5
 20
263.0
 30
0.0
 40
2.5
  1
A
  7
ROMANS
100
AcDbText
  0
TEXT
  5
1319
330
12B1
100
AcDbEntity
  8
0
100
AcDbText
 10
372.0
 20
284.5
 30
0.0
 40
2.5
  1
8
  7
ROMANS
100
AcDbText
  0
TEXT
  5
131A
330
12B1
100
AcDbEntity
  8
0
100
AcDbText
 10
323.0
 20
284.5
 30
0.0
 40
2.5
  1
7
  7
ROMANS
100
AcDbText
  0
TEXT
  5
131B
330
12B1
100
AcDbEntity
  8
0
100
AcDbText
 10
274.0
 20
284.5
 30
0.0
 40
2.5
  1
6
  7
ROMANS
100
AcDbText
  0
TEXT
  5
131C
330
12B1
100
AcDbEntity
  8
0
100
AcDbText
 10
225.0
 20
284.5
 30
0.0
 40
2.5
  1
5
  7
ROMANS
100
AcDbText
  0
TEXT
  5
131D
330
12B1
100
AcDbEntity
  8
0
100
AcDbText
 10
176.0
 20
284.5
 30
0.0
 40
2.5
  1
4
  7
ROMANS
100
AcDbText
  0
TEXT
  5
131E
330
12B1
100
AcDbEntity
  8
0
100
AcDbText
 10
127.0
 20
284.5
 30
0.0
 40
2.5
  1
3
  7
ROMANS
100
AcDbText
  0
TEXT
  5
131F
330
12B1
100
AcDbEntity
  8
0
100
AcDbText
 10
78.0
 20
284.5
 30
0.0
 40
2.5
  1
2
  7
ROMANS
100
AcDbText
  0
TEXT
  5
1320
330
12B1
100
AcDbEntity
  8
0
100
AcDbText
 10
29.0
 20
284.5
 30
0.0
 40
2.5
  1
1
  7
ROMANS
100
AcDbText
  0
LINE
  5
1321
330
12B1
100
AcDbEntity
  8
0
100
AcDbLine
 10
4.0
 20
238.0
 30
0.0
 11
0.0
 21
238.0
 31
0.0
  0
LINE
  5
1322
330
12B1
100
AcDbEntity
  8
0
100
AcDbLine
 10
4.0
 20
189.5
 30
0.0
 11
0.0
 21
189.5
 31
0.0
  0
LINE
  5
1323
330
12B1
100
AcDbEntity
  8
0
100
AcDbLine
 10
4.0
 20
141.0
 30
0.0
 11
0.0
 21
141.0
 31
0.0
  0
LINE
  5
1324
330
12B1
100
AcDbEntity
  8
0
100
AcDbLine
 10
4.0
 20
92.5
 30
0.0
 11
0.0
 21
92.5
 31
0.0
  0
LINE
  5
1325
330
12B1
100
AcDbEntity
  8
0
100
AcDbLine
 10
4.0
 20
44.0
 30
0.0
 11
0.0
 21
44.0
 31
0.0
  0
LINE
  5
1326
330
12B1
100
AcDbEntity
  8
0
100
AcDbLine
 10
53.0
 20
284.0
 30
0.0
 11
53.0
 21
288.0
 31
0.0
  0
LINE
  5
1327
330
12B1
100
AcDbEntity
  8
0
100
AcDbLine
 10
102.0
 20
284.0
 30
0.0
 11
102.0
 21
288.0
 31
0.0
  0
LINE
  5
1328
330
12B1
100
AcDbEntity
  8
0
100
AcDbLine
 10
151.0
 20
284.0
 30
0.0
 11
151.0
 21
288.0
 31
0.0
  0
LINE
  5
1329
330
12B1
100
AcDbEntity
  8
0
100
AcDbLine
 10
200.0
 20
284.0
 30
0.0
 11
200.0
 21
288.0
 31
0.0
  0
LINE
  5
132A
330
12B1
100
AcDbEntity
  8
0
100
AcDbLine
 10
249.0
 20
284.0
 30
0.0
 11
249.0
 21
288.0
 31
0.0
  0
LINE
  5
132B
330
12B1
100
AcDbEntity
  8
0
100
AcDbLine
 10
298.0
 20
284.0
 30
0.0
 11
298.0
 21
288.0
 31
0.0
  0
LINE
  5
132C
330
12B1
100
AcDbEntity
  8
0
100
AcDbLine
 10
347.0
 20
284.0
 30
0.0
 11
347.0
 21
288.0
 31
0.0
  0
LINE
  5
132D
330
12B1
100
AcDbEntity
  8
0
100
AcDbLine
 10
396.0
 20
238.0
 30
0.0
 11
400.0
 21
238.0
 31
0.0
  0
LINE
  5
132E
330
12B1
100
AcDbEntity
  8
0
100
AcDbLine
 10
396.0
 20
189.5
 30
0.0
 11
400.0
 21
189.5
 31
0.0
  0
LINE
  5
132F
330
12B1
100
AcDbEntity
  8
0
100
AcDbLine
 10
396.0
 20
141.0
 30
0.0
 11
400.0
 21
141.0
 31
0.0
  0
LINE
  5
1330
330
12B1
100
AcDbEntity
  8
0
100
AcDbLine
 10
396.0
 20
92.5
 30
0.0
 11
400.0
 21
92.5
 31
0.0
  0
LINE
  5
1331
330
12B1
100
AcDbEntity
  8
0
100
AcDbLine
 10
396.0
 20
44.0
 30
0.0
 11
400.0
 21
44.0
 31
0.0
  0
LINE
  5
1332
330
12B1
100
AcDbEntity
  8
0
100
AcDbLine
 10
347.0
 20
4.0
 30
0.0
 11
347.0
 21
0.0
 31
0.0
  0
LINE
  5
1333
330
12B1
100
AcDbEntity
  8
0
100
AcDbLine
 10
298.0
 20
4.0
 30
0.0
 11
298.0
 21
0.0
 31
0.0
  0
LINE
  5
1334
330
12B1
100
AcDbEntity
  8
0
100
AcDbLine
 10
249.0
 20
4.0
 30
0.0
 11
249.0
 21
0.0
 31
0.0
  0
LINE
  5
1335
330
12B1
100
AcDbEntity
  8
0
100
AcDbLine
 10
200.0
 20
4.0
 30
0.0
 11
200.0
 21
0.0
 31
0.0
  0
LINE
  5
1336
330
12B1
100
AcDbEntity
  8
0
100
AcDbLine
 10
151.0
 20
4.0
 30
0.0
 11
151.0
 21
0.0
 31
0.0
  0
LINE
  5
1337
330
12B1
100
AcDbEntity
  8
0
100
AcDbLine
 10
102.0
 20
4.0
 30
0.0
 11
102.0
 21
0.0
 31
0.0
  0
LINE
  5
1338
330
12B1
100
AcDbEntity
  8
0
100
AcDbLine
 10
53.0
 20
4.0
 30
0.0
 11
53.0
 21
0.0
 31
0.0
  0
LINE
  5
1339
330
12B1
100
AcDbEntity
  8
0
100
AcDbLine
 10
4.0
 20
4.0
 30
0.0
 11
53.0
 21
4.0
 31
0.0
  0
LINE
  5
133A
330
12B1
100
AcDbEntity
  8
0
100
AcDbLine
 10
200.0
 20
34.0
 30
0.0
 11
200.0
 21
41.0
 31
0.0
  0
LINE
  5
133B
330
12B1
100
AcDbEntity
  8
0
100
AcDbLine
 10
196.5
 20
37.5
 30
0.0
 11
203.5
 21
37.5
 31
0.0
  0
LINE
  5
133C
330
12B1
100
AcDbEntity
  8
0
100
AcDbLine
 10
204.5
 20
37.5
 30
0.0
 11
216.0
 21
37.5
 31
0.0
  0
LWPOLYLINE
  5
133D
330
12B1
100
AcDbEntity
  8
0
100
AcDbPolyline
 90
        4
 70
     1
 43
0.0
 10
205.0
 20
35.5
 10
205.0
 20
39.5
 10
215.0
 20
40.49999999999999
 10
215.0
 20
34.5
  0
CIRCLE
  5
133E
330
12B1
100
AcDbEntity
  8
0
100
AcDbCircle
 10
200.0
 20
37.5
 30
0.0
 40
2.0
  0
CIRCLE
  5
133F
330
12B1
100
AcDbEntity
  8
0
100
AcDbCircle
 10
200.0
 20
37.5
 30
0.0
 40
3.0
  0
TEXT
  5
1340
330
12B1
100
AcDbEntity
  8
0
100
AcDbText
 10
209.0
 20
27.5
 30
0.0
 40
1.5
  1
mm
100
AcDbText
  0
TEXT
  5
1341
330
12B1
100
AcDbEntity
  8
0
100
AcDbText
 10
220.0
 20
36.0
 30
0.0
 40
4.5
  1
三菱電機システムサービス株式会社
 41
0.7800000000000001
  7
CB
100
AcDbText
  0
TEXT
  5
1342
330
12B1
100
AcDbEntity
  8
0
100
AcDbText
 10
256.0
 20
27.0
 30
0.0
 40
3.0
  1
-
100
AcDbText
  0
TEXT
  5
1343
330
12B1
100
AcDbEntity
  8
0
100
AcDbText
 10
244.5
 20
27.0
 30
0.0
 40
3.0
  1
-
100
AcDbText
  0
TEXT
  5
1344
330
12B1
100
AcDbEntity
  8
0
100
AcDbText
 10
204.0
 20
12.0
 30
0.0
 40
4.0
  1
:
100
AcDbText
  0
TEXT
  5
1345
330
12B1
100
AcDbEntity
  8
0
100
AcDbText
 10
202.0
 20
6.0
 30
0.0
 40
2.0
  1
NTS
100
AcDbText
  0
TEXT
  5
1346
330
12B1
100
AcDbEntity
  8
0
100
AcDbText
 10
8.0
 20
27.0
 30
0.0
 40
2.0
  1
CHANGE
 50
90.0
100
AcDbText
  0
TEXT
  5
1347
330
12B1
100
AcDbEntity
  8
0
100
AcDbText
 10
196.0
 20
27.5
 30
0.0
 40
2.0
  1
DIM．IN
100
AcDbText
  0
TEXT
  5
1348
330
12B1
100
AcDbEntity
  8
0
100
AcDbText
 10
205.0
 20
20.0
 30
0.0
 40
2.0
  1
SCALE
100
AcDbText
  0
TEXT
  5
1349
330
12B1
100
AcDbEntity
  8
0
100
AcDbText
 10
219.5
 20
4.5
 30
0.0
 40
2.0
  1
DESIGNED
100
AcDbText
  0
TEXT
  5
134A
330
12B1
100
AcDbEntity
  8
0
100
AcDbText
 10
219.5
 20
11.5
 30
0.0
 40
2.0
  1
CHECKED
100
AcDbText
  0
TEXT
  5
134B
330
12B1
100
AcDbEntity
  8
0
100
AcDbText
 10
221.5
 20
18.5
 30
0.0
 40
2.0
  1
DRAWN
100
AcDbText
  0
TEXT
  5
134C
330
12B1
100
AcDbEntity
  8
0
100
AcDbText
 10
222.0
 20
25.5
 30
0.0
 40
2.0
  1
DATE
100
AcDbText
  0
TEXT
  5
134D
330
12B1
100
AcDbEntity
  8
0
100
AcDbText
 10
279.5
 20
25.5
 30
0.0
 40
2.0
  1
APROVED
100
AcDbText
  0
TEXT
  5
134E
330
12B1
100
AcDbEntity
  8
0
100
AcDbText
 10
8.0
 20
8.0
 30
0.0
 40
2.5
  1
改      定
 50
90.0
100
AcDbText
  0
TEXT
  5
134F
330
12B1
100
AcDbEntity
  8
0
100
AcDbText
 10
164.0
 20
40.0
 30
0.0
 40
2.5
  1
出 図 先 (        )
100
AcDbText
  0
TEXT
  5
1350
330
12B1
100
AcDbEntity
  8
0
100
AcDbText
 10
196.0
 20
20.0
 30
0.0
 40
2.5
  1
尺度
100
AcDbText
  0
TEXT
  5
1351
330
12B1
100
AcDbEntity
  8
0
100
AcDbText
 10
221.5
 20
7.5
 30
0.0
 40
2.5
  1
設   計
100
AcDbText
  0
TEXT
  5
1352
330
12B1
100
AcDbEntity
  8
0
100
AcDbText
 10
221.5
 20
14.5
 30
0.0
 40
2.5
  1
照   査
100
AcDbText
  0
TEXT
  5
1353
330
12B1
100
AcDbEntity
  8
0
100
AcDbText
 10
221.5
 20
21.5
 30
0.0
 40
2.5
  1
作   成
100
AcDbText
  0
TEXT
  5
1354
330
12B1
100
AcDbEntity
  8
0
100
AcDbText
 10
220.5
 20
28.5
 30
0.0
 40
2.5
  1
作成日付
100
AcDbText
  0
TEXT
  5
1355
330
12B1
100
AcDbEntity
  8
0
100
AcDbText
 10
279.5
 20
28.5
 30
0.0
 40
2.5
  1
検     認
100
AcDbText
  0
TEXT
  5
1356
330
12B1
100
AcDbEntity
  8
0
100
AcDbText
 10
307.3681872564118
 20
15.10732533172768
 30
0.0
 40
2.0
  1
DWG.No.
100
AcDbText
  0
TEXT
  5
1357
330
12B1
100
AcDbEntity
  8
0
100
AcDbText
 10
307.8904209695793
 20
31.02303825050262
 30
0.0
 40
2.0
  1
TITLE
100
AcDbText
  0
LINE
  5
1358
330
12B1
100
AcDbEntity
  8
0
100
AcDbLine
 10
9.5
 20
4.0
 30
0.0
 11
9.5
 21
44.0
 31
0.0
  0
LINE
  5
1359
330
12B1
100
AcDbEntity
  8
0
100
AcDbLine
 10
4.0
 20
4.0
 30
0.0
 11
9.5
 21
4.0
 31
0.0
  0
LINE
  5
135A
330
12B1
100
AcDbEntity
  8
0
100
AcDbLine
 10
387.0
 20
4.0
 30
0.0
 11
387.0
 21
18.0
 31
0.0
  0
LINE
  5
135B
330
12B1
100
AcDbEntity
  8
0
100
AcDbLine
 10
396.0
 20
4.0
 30
0.0
 11
387.0
 21
4.0
 31
0.0
  0
LINE
  5
135C
330
12B1
100
AcDbEntity
  8
0
100
AcDbLine
 10
396.0
 20
18.0
 30
0.0
 11
305.0
 21
18.0
 31
0.0
  0
LINE
  5
135D
330
12B1
100
AcDbEntity
  8
0
100
AcDbLine
 10
396.0
 20
34.0
 30
0.0
 11
305.0
 21
34.0
 31
0.0
  0
LINE
  5
135E
330
12B1
100
AcDbEntity
  8
0
100
AcDbLine
 10
396.0
 20
44.0
 30
0.0
 11
396.0
 21
34.0
 31
0.0
  0
LINE
  5
135F
330
12B1
100
AcDbEntity
  8
0
100
AcDbLine
 10
188.0
 20
4.0
 30
0.0
 11
188.0
 21
39.0
 31
0.0
  0
LINE
  5
1360
330
12B1
100
AcDbEntity
  8
0
100
AcDbLine
 10
178.0
 20
4.0
 30
0.0
 11
178.0
 21
39.0
 31
0.0
  0
LINE
  5
1361
330
12B1
100
AcDbEntity
  8
0
100
AcDbLine
 10
173.0
 20
4.0
 30
0.0
 11
173.0
 21
39.0
 31
0.0
  0
LINE
  5
1362
330
12B1
100
AcDbEntity
  8
0
100
AcDbLine
 10
163.0
 20
4.0
 30
0.0
 11
168.0
 21
4.0
 31
0.0
  0
LINE
  5
1363
330
12B1
100
AcDbEntity
  8
0
100
AcDbLine
 10
163.0
 20
9.0
 30
0.0
 11
193.0
 21
9.0
 31
0.0
  0
LINE
  5
1364
330
12B1
100
AcDbEntity
  8
0
100
AcDbLine
 10
163.0
 20
14.0
 30
0.0
 11
193.0
 21
14.0
 31
0.0
  0
LINE
  5
1365
330
12B1
100
AcDbEntity
  8
0
100
AcDbLine
 10
163.0
 20
19.0
 30
0.0
 11
193.0
 21
19.0
 31
0.0
  0
LINE
  5
1366
330
12B1
100
AcDbEntity
  8
0
100
AcDbLine
 10
163.0
 20
24.0
 30
0.0
 11
193.0
 21
24.0
 31
0.0
  0
LINE
  5
1367
330
12B1
100
AcDbEntity
  8
0
100
AcDbLine
 10
163.0
 20
29.0
 30
0.0
 11
193.0
 21
29.0
 31
0.0
  0
LINE
  5
1368
330
12B1
100
AcDbEntity
  8
0
100
AcDbLine
 10
163.0
 20
34.0
 30
0.0
 11
193.0
 21
34.0
 31
0.0
  0
LINE
  5
1369
330
12B1
100
AcDbEntity
  8
0
100
AcDbLine
 10
163.0
 20
39.0
 30
0.0
 11
193.0
 21
39.0
 31
0.0
  0
LINE
  5
136A
330
12B1
100
AcDbEntity
  8
0
100
AcDbLine
 10
163.0
 20
44.0
 30
0.0
 11
163.0
 21
39.0
 31
0.0
  0
LINE
  5
136B
330
12B1
100
AcDbEntity
  8
0
100
AcDbLine
 10
270.0
 20
32.0
 30
0.0
 11
270.0
 21
4.0
 31
0.0
  0
LINE
  5
136C
330
12B1
100
AcDbEntity
  8
0
100
AcDbLine
 10
235.0
 20
32.0
 30
0.0
 11
235.0
 21
4.0
 31
0.0
  0
LINE
  5
136D
330
12B1
100
AcDbEntity
  8
0
100
AcDbLine
 10
218.0
 20
11.0
 30
0.0
 11
270.0
 21
11.0
 31
0.0
  0
LINE
  5
136E
330
12B1
100
AcDbEntity
  8
0
100
AcDbLine
 10
193.0
 20
18.0
 30
0.0
 11
270.0
 21
18.0
 31
0.0
  0
LINE
  5
136F
330
12B1
100
AcDbEntity
  8
0
100
AcDbLine
 10
193.0
 20
25.0
 30
0.0
 11
305.0
 21
25.0
 31
0.0
  0
LINE
  5
1370
330
12B1
100
AcDbEntity
  8
0
100
AcDbLine
 10
193.0
 20
32.0
 30
0.0
 11
305.0
 21
32.0
 31
0.0
  0
LINE
  5
1371
330
12B1
100
AcDbEntity
  8
0
100
AcDbLine
 10
163.0
 20
44.0
 30
0.0
 11
163.0
 21
32.0
 31
0.0
  0
LINE
  5
1372
330
12B1
100
AcDbEntity
  8
0
100
AcDbLine
 10
305.0
 20
44.0
 30
0.0
 11
305.0
 21
4.0
 31
0.0
  0
LINE
  5
1373
330
12B1
100
AcDbEntity
  8
0
100
AcDbLine
 10
218.0
 20
44.0
 30
0.0
 11
218.0
 21
4.0
 31
0.0
  0
LINE
  5
1374
330
12B1
100
AcDbEntity
  8
0
100
AcDbLine
 10
193.0
 20
44.0
 30
0.0
 11
218.0
 21
44.0
 31
0.0
  0
LWPOLYLINE
  5
1375
330
12B1
100
AcDbEntity
  8
図面太枠
100
AcDbPolyline
 90
        2
 70
     0
 43
0.25
 10
193.0
 20
44.0
 10
193.0
 20
4.0
  0
LWPOLYLINE
  5
1376
330
12B1
100
AcDbEntity
  8
図面太枠
100
AcDbPolyline
 90
        3
 70
     0
 43
0.25
 10
4.0
 20
44.0
 10
163.0
 20
44.0
 10
163.0
 20
4.0
  0
LWPOLYLINE
  5
1377
330
12B1
100
AcDbEntity
  8
図面太枠
100
AcDbPolyline
 90
        3
 70
     0
 43
0.25
 10
4.0
 20
4.0
 10
4.0
 20
44.0
 10
396.0
 20
44.0
  0
LWPOLYLINE
  5
1378
330
12B1
100
AcDbEntity
  8
図面太枠
100
AcDbPolyline
 90
        2
 70
     0
 43
0.25
 10
4.0
 20
4.0
 10
4.0
 20
284.0
  0
LWPOLYLINE
  5
1379
330
12B1
100
AcDbEntity
  8
図面太枠
100
AcDbPolyline
 90
        2
 70
     1
 43
0.25
 10
396.0
 20
284.0
 10
4.0
 20
284.0
  0
LWPOLYLINE
  5
137A
330
12B1
100
AcDbEntity
  8
0
100
AcDbPolyline
 90
        2
 70
     0
 43
0.25
 10
4.0
 20
4.0
 10
396.0
 20
4.0
  0
LWPOLYLINE
  5
137B
330
12B1
100
AcDbEntity
  8
図面太枠
100
AcDbPolyline
 90
        2
 70
     0
 43
0.25
 10
396.0
 20
4.0
 10
396.0
 20
284.0
  0
LWPOLYLINE
  5
137C
330
12B1
100
AcDbEntity
  8
図面太枠
100
AcDbPolyline
 90
        2
 70
     0
 43
0.25
 10
4.0
 20
4.0
 10
396.0
 20
4.0
  0
LINE
  5
137D
330
12B1
100
AcDbEntity
  8
0
100
AcDbLine
 10
396.0
 20
284.0
 30
0.0
 11
376.0
 21
284.0
 31
0.0
  0
LINE
  5
137E
330
12B1
100
AcDbEntity
  8
0
100
AcDbLine
 10
376.0
 20
284.0
 30
0.0
 11
376.0
 21
267.5
 31
0.0
  0
LINE
  5
137F
330
12B1
100
AcDbEntity
  8
0
100
AcDbLine
 10
361.0
 20
284.0
 30
0.0
 11
361.0
 21
267.5
 31
0.0
  0
LINE
  5
1380
330
12B1
100
AcDbEntity
  8
0
100
AcDbLine
 10
326.0
 20
284.0
 30
0.0
 11
326.0
 21
267.5
 31
0.0
  0
LINE
  5
1381
330
12B1
100
AcDbEntity
  8
0
100
AcDbLine
 10
326.0
 20
284.0
 30
0.0
 11
326.0
 21
267.5
 31
0.0
  0
LINE
  5
1382
330
12B1
100
AcDbEntity
  8
0
100
AcDbLine
 10
286.0
 20
284.0
 30
0.0
 11
286.0
 21
267.5
 31
0.0
  0
LINE
  5
1383
330
12B1
100
AcDbEntity
  8
0
100
AcDbLine
 10
276.0
 20
284.0
 30
0.0
 11
276.0
 21
267.5
 31
0.0
  0
LINE
  5
1384
330
12B1
100
AcDbEntity
  8
0
100
AcDbLine
 10
276.0
 20
267.5
 30
0.0
 11
396.0
 21
267.5
 31
0.0
  0
LINE
  5
1385
330
12B1
100
AcDbEntity
  8
0
100
AcDbLine
 10
276.0
 20
272.5
 30
0.0
 11
396.0
 21
272.5
 31
0.0
  0
LINE
  5
1386
330
12B1
100
AcDbEntity
  8
0
100
AcDbLine
 10
276.0
 20
277.5
 30
0.0
 11
396.0
 21
277.5
 31
0.0
  0
TEXT
  5
1387
330
12B1
100
AcDbEntity
  8
0
100
AcDbText
 10
278.0
 20
279.0
 30
0.0
 40
2.5
  1
品 番
100
AcDbText
  0
TEXT
  5
1388
330
12B1
100
AcDbEntity
  8
0
100
AcDbText
 10
298.0
 20
279.0
 30
0.0
 40
2.5
  1
品      名
100
AcDbText
  0
TEXT
  5
1389
330
12B1
100
AcDbEntity
  8
0
100
AcDbText
 10
333.5
 20
279.0
 30
0.0
 40
2.5
  1
 材料 ・ 寸法
100
AcDbText
  0
TEXT
  5
138A
330
12B1
100
AcDbEntity
  8
0
100
AcDbText
 10
363.0
 20
281.0
 30
0.0
 40
2.5
  1
所要数
100
AcDbText
  0
TEXT
  5
138B
330
12B1
100
AcDbEntity
  8
0
100
AcDbText
 10
372.5
 20
278.0
 30
0.0
 40
2.5
  1
個
100
AcDbText
  0
TEXT
  5
138C
330
12B1
100
AcDbEntity
  8
0
100
AcDbText
 10
380.0
 20
279.0
 30
0.0
 40
2.5
  1
備    考
100
AcDbText
  0
LINE
  5
138D
330
12B1
100
AcDbEntity
  8
0
100
AcDbLine
 10
374.5
 20
282.5
 30
0.0
 11
369.0
 21
278.5
 31
0.0
  0
MTEXT
  5
138E
330
12B1
100
AcDbEntity
  8
0
 48
5.0
100
AcDbMText
 10
280.0
 20
276.0
 30
0.0
 40
2.5
 41
8.0
 71
     1
 72
     5
  1
1
 73
     1
 44
1.0
1001
ACAD
1000
MTEXTBEGIN
1070
    73
1070
     1
1070
    44
1040
1.0
1070
    74
1070
     0
1000
MTEXTEND
  0
MTEXT
  5
138F
330
12B1
100
AcDbEntity
  8
0
 48
5.0
100
AcDbMText
 10
287.5
 20
276.0
 30
0.0
 40
2.5
 41
30.5
 71
     1
 72
     5
  1
プラグホルダー
 73
     1
 44
1.0
1001
ACAD
1000
MTEXTBEGIN
1070
    73
1070
     1
1070
    44
1040
1.0
1070
    74
1070
     0
1000
MTEXTEND
  0
MTEXT
  5
1390
330
12B1
100
AcDbEntity
  8
0
 48
5.0
100
AcDbMText
 10
280.0
 20
271.0
 30
0.0
 40
2.5
 41
8.0
 71
     1
 72
     5
  1
2
 73
     1
 44
1.0
1001
ACAD
1000
MTEXTBEGIN
1070
    73
1070
     1
1070
    44
1040
1.0
1070
    74
1070
     0
1000
MTEXTEND
  0
MTEXT
  5
1391
330
12B1
100
AcDbEntity
  8
0
 48
5.0
100
AcDbMText
 10
287.5
 20
271.0
 30
0.0
 40
2.5
 41
30.5
 71
     1
 72
     5
  1
割スリーブ
 73
     1
 44
1.0
1001
ACAD
1000
MTEXTBEGIN
1070
    73
1070
     1
1070
    44
1040
1.0
1070
    74
1070
     0
1000
MTEXTEND
  0
MTEXT
  5
1392
330
12B1
100
AcDbEntity
  8
0
 48
5.0
100
AcDbMText
 10
328.0
 20
271.0
 30
0.0
 40
2.5
 41
15.0
 71
     1
 72
     5
  1
銅合金
 73
     1
 44
1.0
1001
ACAD
1000
MTEXTBEGIN
1070
    73
1070
     1
1070
    44
1040
1.0
1070
    74
1070
     0
1000
MTEXTEND
  0
MTEXT
  5
1393
330
12B1
100
AcDbEntity
  8
0
 48
5.0
100
AcDbMText
 10
367.5
 20
271.0
 30
0.0
 40
2.5
 41
4.5
 71
     1
 72
     5
  1

 73
     1
 44
1.0
1001
ACAD
1000
MTEXTBEGIN
1070
    73
1070
     1
1070
    44
1040
1.0
1070
    74
1070
     0
1000
MTEXTEND
  0
MTEXT
  5
1394
330
12B1
100
AcDbEntity
  8
0
 48
5.0
100
AcDbMText
 10
316.0
 20
41.0
 30
0.0
 40
6.0
 41
67.5
 71
     1
 72
     5
  1
光アダプタ
  7
ROMANS
 73
     1
 44
1.0
1001
ACAD
1000
MTEXTBEGIN
1070
    73
1070
     1
1070
    44
1040
1.0
1070
    74
1070
     0
1000
MTEXTEND
  0
MTEXT
  5
1395
330
12B1
100
AcDbEntity
  8
0
 48
5.0
100
AcDbMText
 10
316.0
 20
27.0
 30
0.0
 40
5.0
 41
64.0
 71
     1
 72
     5
  1
PＡ７００３
  7
ROMANS
 73
     1
 44
1.0
1001
ACAD
1000
MTEXTBEGIN
1070
    73
1070
     1
1070
    44
1040
1.0
1070
    74
1070
     0
1000
MTEXTEND
  0
MTEXT
  5
1396
330
12B1
100
AcDbEntity
  8
0
 48
5.0
100
AcDbMText
 10
309.0
 20
13.0
 30
0.0
 40
8.0
 41
80.0
 71
     1
 72
     5
  1
Ｘ３Ｍ００３３８
  7
ROMANS
 73
     1
 44
1.0
1001
ACAD
1000
MTEXTBEGIN
1070
    73
1070
     1
1070
    44
1040
1.0
1070
    74
1070
     0
1000
MTEXTEND
  0
MTEXT
  5
1397
330
12B1
100
AcDbEntity
  8
0
 48
5.0
100
AcDbMText
 10
238.0
 20
30.0
 30
0.0
 40
2.5
 41
30.0
 71
     1
 72
     5
  1
'99     2     10
 73
     1
 44
1.0
1001
ACAD
1000
MTEXTBEGIN
1070
    73
1070
     1
1070
    44
1040
1.0
1070
    74
1070
     0
1000
MTEXTEND
  0
MTEXT
  5
1398
330
12B1
100
AcDbEntity
  8
0
 48
5.0
100
AcDbMText
 10
243.5
 20
23.0
 30
0.0
 40
3.0
 41
25.0
 71
     1
 72
     5
  1
加   藤（祐）
 73
     1
 44
1.0
1001
ACAD
1000
MTEXTBEGIN
1070
    73
1070
     1
1070
    44
1040
1.0
1070
    74
1070
     0
1000
MTEXTEND
  0
ELLIPSE
  5
1399
330
12B1
100
AcDbEntity
  8
0
 48
5.0
100
AcDbEllipse
 10
204.5
 20
7.5
 30
0.0
 11
-5.0
 21
0.0
 31
0.0
210
0.0
220
0.0
230
1.0
 40
0.5
 41
0.0
 42
6.283185307179586
  0
MTEXT
  5
139A
330
12B1
100
AcDbEntity
  8
0
 48
5.0
100
AcDbMText
 10
328.0
 20
276.0
 30
0.0
 40
2.5
 41
15.0
 71
     1
 72
     5
  1
合成樹脂
 73
     1
 44
1.0
1001
ACAD
1000
MTEXTBEGIN
1070
    73
1070
     1
1070
    44
1040
1.0
1070
    74
1070
     0
1000
MTEXTEND
  0
MTEXT
  5
139B
330
12B1
100
AcDbEntity
  8
0
 48
5.0
100
AcDbMText
 10
367.5
 20
276.0
 30
0.0
 40
2.5
 41
4.5
 71
     1
 72
     5
  1
２
 73
     1
 44
1.0
1001
ACAD
1000
MTEXTBEGIN
1070
    73
1070
     1
1070
    44
1040
1.0
1070
    74
1070
     0
1000
MTEXTEND
  0
MTEXT
  5
139C
330
12B1
100
AcDbEntity
  8
0
 48
5.0
100
AcDbMText
 10
367.5
 20
271.0
 30
0.0
 40
2.5
 41
4.5
 71
     1
 72
     5
  1
２
 73
     1
 44
1.0
1001
ACAD
1000
MTEXTBEGIN
1070
    73
1070
     1
1070
    44
1040
1.0
1070
    74
1070
     0
1000
MTEXTEND
  0
ENDBLK
  5
139E
330
12B1
100
AcDbEntity
  8
0
100
AcDbBlockEnd
  0
BLOCK
  5
18B6
330
180D
100
AcDbEntity
  8
0
100
AcDbBlockBegin
  2
枠A4品名
 70
     0
 10
0.0
 20
0.0
 30
0.0
  3
枠A4品名
  1

  0
LWPOLYLINE
  5
180E
330
180D
100
AcDbEntity
  8
ZUMENWAKU
100
AcDbPolyline
 90
        4
 70
     1
 43
0.5
 10
8.0
 20
9.0
 10
290.0
 20
9.0
 10
290.0
 20
192.0
 10
8.0
 20
192.0
  0
LWPOLYLINE
  5
180F
330
180D
100
AcDbEntity
  8
ZUMENWAKU
100
AcDbPolyline
 90
        3
 70
     0
 43
0.5
 10
8.0
 20
9.0
 10
8.0
 20
40.0
 10
290.0
 20
40.0
  0
LWPOLYLINE
  5
1810
330
180D
100
AcDbEntity
  8
ZUMENWAKU
100
AcDbPolyline
 90
        3
 70
     0
 43
0.5
 10
8.0
 20
40.0
 10
124.0
 20
40.0
 10
124.0
 20
9.0
  0
LINE
  5
1811
330
180D
100
AcDbEntity
  8
0
100
AcDbLine
 10
8.0
 20
9.0
 30
0.0
 11
14.0
 21
9.0
 31
0.0
  0
LINE
  5
1812
330
180D
100
AcDbEntity
  8
ZUMENWAKU
100
AcDbLine
 10
14.0
 20
9.0
 30
0.0
 11
14.0
 21
40.0
 31
0.0
  0
LINE
  5
1813
330
180D
100
AcDbEntity
  8
0
100
AcDbLine
 10
124.0
 20
9.0
 30
0.0
 11
124.0
 21
9.0
 31
0.0
  0
LWPOLYLINE
  5
1814
330
180D
100
AcDbEntity
  8
ZUMENWAKU
100
AcDbPolyline
 90
        3
 70
     0
 43
0.5
 10
124.0
 20
40.0
 10
140.5
 20
40.0
 10
140.5
 20
9.0
  0
LINE
  5
1815
330
180D
100
AcDbEntity
  8
0
100
AcDbLine
 10
124.0
 20
40.0
 30
0.0
 11
135.0
 21
40.0
 31
0.0
  0
LINE
  5
1816
330
180D
100
AcDbEntity
  8
0
100
AcDbLine
 10
135.0
 20
34.0
 30
0.0
 11
135.0
 21
9.0
 31
0.0
  0
LINE
  5
1817
330
180D
100
AcDbEntity
  8
0
100
AcDbLine
 10
140.5
 20
9.0
 30
0.0
 11
160.5
 21
9.0
 31
0.0
  0
LINE
  5
1818
330
180D
100
AcDbEntity
  8
0
100
AcDbLine
 10
160.5
 20
9.0
 30
0.0
 11
160.5
 21
40.0
 31
0.0
  0
LINE
  5
1819
330
180D
100
AcDbEntity
  8
0
100
AcDbLine
 10
175.5
 20
9.0
 30
0.0
 11
175.5
 21
29.0
 31
0.0
  0
LINE
  5
181A
330
180D
100
AcDbEntity
  8
0
100
AcDbLine
 10
200.5
 20
9.0
 30
0.0
 11
200.5
 21
29.0
 31
0.0
  0
LINE
  5
181B
330
180D
100
AcDbEntity
  8
0
100
AcDbLine
 10
230.5
 20
9.0
 30
0.0
 11
230.5
 21
40.0
 31
0.0
  0
LINE
  5
181C
330
180D
100
AcDbEntity
  8
0
100
AcDbLine
 10
230.5
 20
9.0
 30
0.0
 11
230.5
 21
14.0
 31
0.0
  0
LINE
  5
181D
330
180D
100
AcDbEntity
  8
0
100
AcDbLine
 10
200.5
 20
14.0
 30
0.0
 11
160.5
 21
14.0
 31
0.0
  0
LINE
  5
181E
330
180D
100
AcDbEntity
  8
0
100
AcDbLine
 10
200.5
 20
19.0
 30
0.0
 11
124.0
 21
19.0
 31
0.0
  0
LINE
  5
181F
330
180D
100
AcDbEntity
  8
0
100
AcDbLine
 10
230.5
 20
24.0
 30
0.0
 11
124.0
 21
24.0
 31
0.0
  0
LINE
  5
1820
330
180D
100
AcDbEntity
  8
0
100
AcDbLine
 10
230.5
 20
29.0
 30
0.0
 11
124.0
 21
29.0
 31
0.0
  0
LINE
  5
1821
330
180D
100
AcDbEntity
  8
0
100
AcDbLine
 10
140.5
 20
34.0
 30
0.0
 11
124.0
 21
34.0
 31
0.0
  0
LINE
  5
1822
330
180D
100
AcDbEntity
  8
0
100
AcDbLine
 10
140.5
 20
14.0
 30
0.0
 11
124.0
 21
14.0
 31
0.0
  0
LINE
  5
1823
330
180D
100
AcDbEntity
  8
0
100
AcDbLine
 10
290.0
 20
9.0
 30
0.0
 11
290.0
 21
21.0
 31
0.0
  0
LINE
  5
1824
330
180D
100
AcDbEntity
  8
0
100
AcDbLine
 10
290.0
 20
21.0
 30
0.0
 11
230.5
 21
21.0
 31
0.0
  0
LINE
  5
1825
330
180D
100
AcDbEntity
  8
0
100
AcDbLine
 10
290.0
 20
34.0
 30
0.0
 11
230.5
 21
34.0
 31
0.0
  0
LINE
  5
1826
330
180D
100
AcDbEntity
  8
0
100
AcDbLine
 10
290.0
 20
9.0
 30
0.0
 11
284.0
 21
9.0
 31
0.0
  0
LINE
  5
1827
330
180D
100
AcDbEntity
  8
0
100
AcDbLine
 10
284.0
 20
9.0
 30
0.0
 11
284.0
 21
21.0
 31
0.0
  0
TEXT
  5
1828
330
180D
100
AcDbEntity
  8
0
100
AcDbText
 10
232.0
 20
31.5
 30
0.0
 40
2.0
  1
TITLE
100
AcDbText
  0
TEXT
  5
1829
330
180D
100
AcDbEntity
  8
0
100
AcDbText
 10
232.0
 20
18.5
 30
0.0
 40
2.0
  1
DWG.No.
100
AcDbText
  0
TEXT
  5
182A
330
180D
100
AcDbEntity
  8
0
100
AcDbText
 10
209.1918845455416
 20
26.5
 30
0.0
 40
2.0
  1
検      認
100
AcDbText
  0
TEXT
  5
182B
330
180D
100
AcDbEntity
  8
0
100
AcDbText
 10
162.0
 20
26.5
 30
0.0
 40
2.0
  1
 作成日付
100
AcDbText
  0
TEXT
  5
182C
330
180D
100
AcDbEntity
  8
0
100
AcDbText
 10
163.5
 20
21.5
 30
0.0
 40
2.0
  1
作   成
100
AcDbText
  0
TEXT
  5
182D
330
180D
100
AcDbEntity
  8
0
100
AcDbText
 10
163.5
 20
16.5
 30
0.0
 40
2.0
  1
照   査
100
AcDbText
  0
TEXT
  5
182E
330
180D
100
AcDbEntity
  8
0
100
AcDbText
 10
163.5
 20
11.5
 30
0.0
 40
2.0
  1
設   計
100
AcDbText
  0
TEXT
  5
182F
330
180D
100
AcDbEntity
  8
0
100
AcDbText
 10
142.0
 20
20.5
 30
0.0
 40
2.0
  1
尺度   SCALE
100
AcDbText
  0
TEXT
  5
1830
330
180D
100
AcDbEntity
  8
0
100
AcDbText
 10
125.0
 20
36.0
 30
0.0
 40
2.0
  1
出図先(     )
 41
0.95
100
AcDbText
  0
TEXT
  5
1831
330
180D
100
AcDbEntity
  8
0
100
AcDbText
 10
125.0
 20
30.5
 30
0.0
 40
2.0
  1
控
100
AcDbText
  0
TEXT
  5
1832
330
180D
100
AcDbEntity
  8
0
100
AcDbText
 10
163.5
 20
24.5
 30
0.0
 40
1.5
  1
 DATE
100
AcDbText
  0
TEXT
  5
1833
330
180D
100
AcDbEntity
  8
0
100
AcDbText
 10
163.5
 20
19.5
 30
0.0
 40
1.5
  1
DRAWN
100
AcDbText
  0
TEXT
  5
1834
330
180D
100
AcDbEntity
  8
0
100
AcDbText
 10
162.5
 20
14.5
 30
0.0
 40
1.5
  1
CHECKED
100
AcDbText
  0
TEXT
  5
1835
330
180D
100
AcDbEntity
  8
0
100
AcDbText
 10
162.0
 20
9.5
 30
0.0
 40
1.5
  1
DESIGNED
100
AcDbText
  0
TEXT
  5
1836
330
180D
100
AcDbEntity
  8
0
100
AcDbText
 10
142.0
 20
25.5
 30
0.0
 40
1.5
  1
DIM.IN
100
AcDbText
  0
TEXT
  5
1837
330
180D
100
AcDbEntity
  8
0
100
AcDbText
 10
209.1918845455416
 20
24.5
 30
0.0
 40
1.5
  1
APPROVED
100
AcDbText
  0
TEXT
  5
1838
330
180D
100
AcDbEntity
  8
0
100
AcDbText
 10
146.0
 20
11.0
 30
0.0
 40
1.5
  1
  NTS
100
AcDbText
  0
TEXT
  5
1839
330
180D
100
AcDbEntity
  8
0
100
AcDbText
 10
148.5
 20
14.5
 30
0.0
 40
3.0
  1
:
100
AcDbText
  0
TEXT
  5
183A
330
180D
100
AcDbEntity
  8
0
100
AcDbText
 10
164.5
 20
32.5
 30
0.0
 40
3.5
  1
三菱電機システムサービス株式会社
 41
0.75
  7
MSG
100
AcDbText
  0
TEXT
  5
183B
330
180D
100
AcDbEntity
  8
0
100
AcDbText
 10
12.5
 20
11.0
 30
0.0
 40
2.5
  1
改    定
 50
90.0
100
AcDbText
  0
TEXT
  5
183C
330
180D
100
AcDbEntity
  8
0
100
AcDbText
 10
12.5
 20
26.0
 30
0.0
 40
2.0
  1
CHANGE
 50
90.0
100
AcDbText
  0
LINE
  5
183D
330
180D
100
AcDbEntity
  8
0
100
AcDbLine
 10
290.0
 20
40.0
 30
0.0
 11
294.0
 21
40.0
 31
0.0
  0
LINE
  5
183E
330
180D
100
AcDbEntity
  8
0
100
AcDbLine
 10
290.0
 20
78.0
 30
0.0
 11
294.0
 21
78.0
 31
0.0
  0
LINE
  5
183F
330
180D
100
AcDbEntity
  8
0
100
AcDbLine
 10
290.0
 20
116.0
 30
0.0
 11
294.0
 21
116.0
 31
0.0
  0
LINE
  5
1840
330
180D
100
AcDbEntity
  8
0
100
AcDbLine
 10
290.0
 20
154.0
 30
0.0
 11
294.0
 21
154.0
 31
0.0
  0
LINE
  5
1841
330
180D
100
AcDbEntity
  8
0
100
AcDbLine
 10
8.0
 20
40.0
 30
0.0
 11
4.0
 21
40.0
 31
0.0
  0
LINE
  5
1842
330
180D
100
AcDbEntity
  8
0
100
AcDbLine
 10
8.0
 20
78.0
 30
0.0
 11
4.0
 21
78.0
 31
0.0
  0
LINE
  5
1843
330
180D
100
AcDbEntity
  8
0
100
AcDbLine
 10
8.0
 20
116.0
 30
0.0
 11
4.0
 21
116.0
 31
0.0
  0
LINE
  5
1844
330
180D
100
AcDbEntity
  8
0
100
AcDbLine
 10
8.0
 20
154.0
 30
0.0
 11
4.0
 21
154.0
 31
0.0
  0
LINE
  5
1845
330
180D
100
AcDbEntity
  8
ZUMENWAKU
100
AcDbLine
 10
8.0
 20
192.0
 30
0.0
 11
64.5
 21
192.0
 31
0.0
  0
LINE
  5
1846
330
180D
100
AcDbEntity
  8
0
100
AcDbLine
 10
64.5
 20
192.0
 30
0.0
 11
64.5
 21
196.0
 31
0.0
  0
LINE
  5
1847
330
180D
100
AcDbEntity
  8
0
100
AcDbLine
 10
121.0
 20
192.0
 30
0.0
 11
121.0
 21
196.0
 31
0.0
  0
LINE
  5
1848
330
180D
100
AcDbEntity
  8
0
100
AcDbLine
 10
177.5
 20
192.0
 30
0.0
 11
177.5
 21
196.0
 31
0.0
  0
LINE
  5
1849
330
180D
100
AcDbEntity
  8
0
100
AcDbLine
 10
234.0
 20
192.0
 30
0.0
 11
234.0
 21
196.0
 31
0.0
  0
LINE
  5
184A
330
180D
100
AcDbEntity
  8
0
100
AcDbLine
 10
8.0
 20
9.0
 30
0.0
 11
64.5
 21
9.0
 31
0.0
  0
LINE
  5
184B
330
180D
100
AcDbEntity
  8
0
100
AcDbLine
 10
64.5
 20
9.0
 30
0.0
 11
64.5
 21
5.0
 31
0.0
  0
LINE
  5
184C
330
180D
100
AcDbEntity
  8
0
100
AcDbLine
 10
121.0
 20
9.0
 30
0.0
 11
121.0
 21
5.0
 31
0.0
  0
LINE
  5
184D
330
180D
100
AcDbEntity
  8
0
100
AcDbLine
 10
177.5
 20
9.0
 30
0.0
 11
177.5
 21
5.0
 31
0.0
  0
LINE
  5
184E
330
180D
100
AcDbEntity
  8
0
100
AcDbLine
 10
234.0
 20
9.0
 30
0.0
 11
234.0
 21
5.0
 31
0.0
  0
LINE
  5
184F
330
180D
100
AcDbEntity
  8
0
100
AcDbLine
 10
8.0
 20
9.0
 30
0.0
 11
36.0
 21
9.0
 31
0.0
  0
LINE
  5
1850
330
180D
100
AcDbEntity
  8
0
100
AcDbLine
 10
290.0
 20
40.0
 30
0.0
 11
290.0
 21
58.0
 31
0.0
  0
TEXT
  5
1851
330
180D
100
AcDbEntity
  8
0
100
AcDbText
 10
36.0
 20
192.5
 30
0.0
 40
2.5
  1
1
  7
MSG
100
AcDbText
  0
TEXT
  5
1852
330
180D
100
AcDbEntity
  8
0
100
AcDbText
 10
92.5
 20
192.5
 30
0.0
 40
2.5
  1
2
  7
MSG
100
AcDbText
  0
TEXT
  5
1853
330
180D
100
AcDbEntity
  8
0
100
AcDbText
 10
149.0
 20
192.5
 30
0.0
 40
2.5
  1
3
  7
MSG
100
AcDbText
  0
TEXT
  5
1854
330
180D
100
AcDbEntity
  8
0
100
AcDbText
 10
205.5
 20
192.5
 30
0.0
 40
2.5
  1
4
  7
MSG
100
AcDbText
  0
TEXT
  5
1855
330
180D
100
AcDbEntity
  8
0
100
AcDbText
 10
262.0
 20
192.5
 30
0.0
 40
2.5
  1
5
  7
MSG
100
AcDbText
  0
TEXT
  5
1856
330
180D
100
AcDbEntity
  8
0
100
AcDbText
 10
36.0
 20
6.0
 30
0.0
 40
2.5
  1
1
  7
MSG
100
AcDbText
  0
TEXT
  5
1857
330
180D
100
AcDbEntity
  8
0
100
AcDbText
 10
92.5
 20
6.0
 30
0.0
 40
2.5
  1
2
  7
MSG
100
AcDbText
  0
TEXT
  5
1858
330
180D
100
AcDbEntity
  8
0
100
AcDbText
 10
149.0
 20
6.0
 30
0.0
 40
2.5
  1
3
  7
MSG
100
AcDbText
  0
TEXT
  5
1859
330
180D
100
AcDbEntity
  8
0
100
AcDbText
 10
205.5
 20
6.0
 30
0.0
 40
2.5
  1
4
  7
MSG
100
AcDbText
  0
TEXT
  5
185A
330
180D
100
AcDbEntity
  8
0
100
AcDbText
 10
262.0
 20
6.0
 30
0.0
 40
2.5
  1
5
  7
MSG
100
AcDbText
  0
TEXT
  5
185B
330
180D
100
AcDbEntity
  8
0
100
AcDbText
 10
290.5
 20
172.0
 30
0.0
 40
2.5
  1
A
  7
MSG
100
AcDbText
  0
TEXT
  5
185C
330
180D
100
AcDbEntity
  8
0
100
AcDbText
 10
290.5
 20
134.0
 30
0.0
 40
2.5
  1
B
  7
MSG
100
AcDbText
  0
TEXT
  5
185D
330
180D
100
AcDbEntity
  8
0
100
AcDbText
 10
290.5
 20
96.0
 30
0.0
 40
2.5
  1
C
  7
MSG
100
AcDbText
  0
TEXT
  5
185E
330
180D
100
AcDbEntity
  8
0
100
AcDbText
 10
290.5
 20
58.0
 30
0.0
 40
2.5
  1
D
  7
MSG
100
AcDbText
  0
TEXT
  5
185F
330
180D
100
AcDbEntity
  8
0
100
AcDbText
 10
5.0
 20
58.0
 30
0.0
 40
2.5
  1
D
  7
MSG
100
AcDbText
  0
TEXT
  5
1860
330
180D
100
AcDbEntity
  8
0
100
AcDbText
 10
5.0
 20
96.0
 30
0.0
 40
2.5
  1
C
  7
MSG
100
AcDbText
  0
TEXT
  5
1861
330
180D
100
AcDbEntity
  8
0
100
AcDbText
 10
5.0
 20
134.0
 30
0.0
 40
2.5
  1
B
  7
MSG
100
AcDbText
  0
TEXT
  5
1862
330
180D
100
AcDbEntity
  8
0
100
AcDbText
 10
5.0
 20
172.0
 30
0.0
 40
2.5
  1
A
  7
MSG
100
AcDbText
  0
LWPOLYLINE
  5
1863
330
180D
100
AcDbEntity
  8
0
100
AcDbPolyline
 90
        2
 70
     0
 10
290.0
 20
100.5
 40
0.2
 41
0.2
 10
290.0
 20
100.5
 40
0.0
 41
0.0
  0
LWPOLYLINE
  5
1864
330
180D
100
AcDbEntity
  8
ZUMENWAKU
100
AcDbPolyline
 90
        2
 70
     0
 43
0.2
 10
8.0
 20
100.5
 10
4.0
 20
100.5
  0
LWPOLYLINE
  5
1865
330
180D
100
AcDbEntity
  8
0
100
AcDbPolyline
 90
        2
 70
     0
 43
0.2
 10
149.0
 20
9.0
 10
149.0
 20
2.5
  0
LWPOLYLINE
  5
1866
330
180D
100
AcDbEntity
  8
0
100
AcDbPolyline
 90
        2
 70
     0
 43
0.2
 10
149.0373092383328
 20
192.0348838619283
 10
149.0373092383328
 20
199.0
  0
LWPOLYLINE
  5
1867
330
180D
100
AcDbEntity
  8
ZUMENWAKU
100
AcDbPolyline
 90
        2
 70
     0
 43
0.2
 10
290.0776605601444
 20
100.2906975129531
 10
294.0
 20
100.2906975129531
  0
LINE
  5
1868
330
180D
100
AcDbEntity
  8
0
100
AcDbLine
 10
290.0
 20
192.0
 30
0.0
 11
270.0
 21
192.0
 31
0.0
  0
LINE
  5
1869
330
180D
100
AcDbEntity
  8
0
100
AcDbLine
 10
270.0
 20
192.0
 30
0.0
 11
270.0
 21
150.0
 31
0.0
  0
LINE
  5
186A
330
180D
100
AcDbEntity
  8
0
100
AcDbLine
 10
255.0
 20
192.0
 30
0.0
 11
255.0
 21
150.0
 31
0.0
  0
LINE
  5
186B
330
180D
100
AcDbEntity
  8
0
100
AcDbLine
 10
220.0
 20
192.0
 30
0.0
 11
220.0
 21
150.0
 31
0.0
  0
LINE
  5
186C
330
180D
100
AcDbEntity
  8
0
100
AcDbLine
 10
195.0
 20
192.0
 30
0.0
 11
195.0
 21
150.0
 31
0.0
  0
LINE
  5
186D
330
180D
100
AcDbEntity
  8
0
100
AcDbLine
 10
155.0
 20
192.0
 30
0.0
 11
155.0
 21
150.0
 31
0.0
  0
LINE
  5
186E
330
180D
100
AcDbEntity
  8
0
100
AcDbLine
 10
145.0
 20
192.0
 30
0.0
 11
145.0
 21
150.0
 31
0.0
  0
LINE
  5
186F
330
180D
100
AcDbEntity
  8
0
100
AcDbLine
 10
145.0
 20
150.0
 30
0.0
 11
290.0
 21
150.0
 31
0.0
  0
LINE
  5
1870
330
180D
100
AcDbEntity
  8
0
100
AcDbLine
 10
145.0
 20
155.0
 30
0.0
 11
290.0
 21
155.0
 31
0.0
  0
LINE
  5
1871
330
180D
100
AcDbEntity
  8
0
100
AcDbLine
 10
145.0
 20
160.0
 30
0.0
 11
290.0
 21
160.0
 31
0.0
  0
LINE
  5
1872
330
180D
100
AcDbEntity
  8
0
100
AcDbLine
 10
145.0
 20
165.0
 30
0.0
 11
290.0
 21
165.0
 31
0.0
  0
LINE
  5
1873
330
180D
100
AcDbEntity
  8
0
100
AcDbLine
 10
145.0
 20
170.0
 30
0.0
 11
290.0
 21
170.0
 31
0.0
  0
LINE
  5
1874
330
180D
100
AcDbEntity
  8
0
100
AcDbLine
 10
145.0
 20
175.0
 30
0.0
 11
290.0
 21
175.0
 31
0.0
  0
LINE
  5
1875
330
180D
100
AcDbEntity
  8
0
100
AcDbLine
 10
145.0
 20
180.0
 30
0.0
 11
290.0
 21
180.0
 31
0.0
  0
LINE
  5
1876
330
180D
100
AcDbEntity
  8
0
100
AcDbLine
 10
145.0
 20
185.0
 30
0.0
 11
290.0
 21
185.0
 31
0.0
  0
TEXT
  5
1877
330
180D
100
AcDbEntity
  8
0
100
AcDbText
 10
147.0
 20
187.0
 30
0.0
 40
2.5
  1
品 番
100
AcDbText
  0
TEXT
  5
1878
330
180D
100
AcDbEntity
  8
0
100
AcDbText
 10
164.0
 20
187.0
 30
0.0
 40
2.5
  1
  品      名
100
AcDbText
  0
TEXT
  5
1879
330
180D
100
AcDbEntity
  8
0
100
AcDbText
 10
196.0
 20
188.5
 30
0.0
 40
2.5
  1
 部品番号又ハ
100
AcDbText
  0
TEXT
  5
187A
330
180D
100
AcDbEntity
  8
0
100
AcDbText
 10
196.0
 20
185.5
 30
0.0
 40
2.5
  1
 図面番号
100
AcDbText
  0
TEXT
  5
187B
330
180D
100
AcDbEntity
  8
0
100
AcDbText
 10
224.0
 20
187.0
 30
0.0
 40
2.5
  1
  材料  ・  寸法
100
AcDbText
  0
TEXT
  5
187C
330
180D
100
AcDbEntity
  8
0
100
AcDbText
 10
255.5
 20
188.5
 30
0.0
 40
2.5
  1
所要数
100
AcDbText
  0
TEXT
  5
187D
330
180D
100
AcDbEntity
  8
0
100
AcDbText
 10
267.0
 20
185.5
 30
0.0
 40
2.5
  1
個
100
AcDbText
  0
TEXT
  5
187E
330
180D
100
AcDbEntity
  8
0
100
AcDbText
 10
272.0
 20
187.0
 30
0.0
 40
2.5
  1
  備   考
100
AcDbText
  0
LINE
  5
187F
330
180D
100
AcDbEntity
  8
0
100
AcDbLine
 10
267.8830458108059
 20
190.6857904266632
 30
0.0
 11
262.5218263304639
 21
185.8644607774656
 31
0.0
  0
MTEXT
  5
1880
330
180D
100
AcDbEntity
  8
0
100
AcDbMText
 10
153.0
 20
26.0
 30
0.0
 40
1.5
 41
5.5
 71
     4
 72
     5
  1
mm
 73
     1
 44
1.0
1001
ACAD
1000
MTEXTBEGIN
1070
    73
1070
     1
1070
    44
1040
1.0
1070
    74
1070
     0
1000
MTEXTEND
  0
CIRCLE
  5
1881
330
180D
100
AcDbEntity
  8
0
100
AcDbCircle
 10
146.0
 20
34.0
 30
0.0
 40
2.0
  0
CIRCLE
  5
1882
330
180D
100
AcDbEntity
  8
0
100
AcDbCircle
 10
146.0
 20
34.0
 30
0.0
 40
3.0
  0
LINE
  5
1883
330
180D
100
AcDbEntity
  8
0
100
AcDbLine
 10
150.5
 20
36.0
 30
0.0
 11
150.5
 21
32.0
 31
0.0
  0
LINE
  5
1884
330
180D
100
AcDbEntity
  8
0
100
AcDbLine
 10
158.5
 20
37.0
 30
0.0
 11
158.5
 21
31.0
 31
0.0
  0
LINE
  5
1885
330
180D
100
AcDbEntity
  8
0
100
AcDbLine
 10
150.5
 20
36.0
 30
0.0
 11
158.5
 21
37.0
 31
0.0
  0
LINE
  5
1886
330
180D
100
AcDbEntity
  8
0
100
AcDbLine
 10
158.5
 20
31.0
 30
0.0
 11
150.5
 21
32.0
 31
0.0
  0
LINE
  5
1887
330
180D
100
AcDbEntity
  8
CENTER
100
AcDbLine
 10
146.0
 20
34.0
 30
0.0
 11
159.5
 21
34.0
 31
0.0
  0
LINE
  5
1888
330
180D
100
AcDbEntity
  8
CENTER
100
AcDbLine
 10
146.0
 20
34.0
 30
0.0
 11
142.0
 21
34.0
 31
0.0
  0
LINE
  5
1889
330
180D
100
AcDbEntity
  8
CENTER
100
AcDbLine
 10
146.0
 20
34.0
 30
0.0
 11
146.0
 21
38.5
 31
0.0
  0
LINE
  5
188A
330
180D
100
AcDbEntity
  8
CENTER
100
AcDbLine
 10
146.0
 20
34.0
 30
0.0
 11
146.0
 21
30.0
 31
0.0
  0
TEXT
  5
188B
330
180D
100
AcDbEntity
  8
0
100
AcDbText
 10
146.5
 20
181.0
 30
0.0
 40
2.5
  1
H01
100
AcDbText
  0
TEXT
  5
188C
330
180D
100
AcDbEntity
  8
0
100
AcDbText
 10
148.5
 20
181.5
 30
0.0
 40
2.5
  1

100
AcDbText
  0
TEXT
  5
188D
330
180D
100
AcDbEntity
  8
0
100
AcDbText
 10
156.0
 20
181.0
 30
0.0
 40
2.5
  1
オブジェクト編集で変更
100
AcDbText
  0
TEXT
  5
188E
330
180D
100
AcDbEntity
  8
0
100
AcDbText
 10
197.6031844701914
 20
180.8987557506253
 30
0.0
 40
2.5
  1
してください
100
AcDbText
  0
TEXT
  5
188F
330
180D
100
AcDbEntity
  8
0
100
AcDbText
 10
221.0
 20
181.0
 30
0.0
 40
2.5
  1
赤黄青にAのアイコンです
100
AcDbText
  0
TEXT
  5
1890
330
180D
100
AcDbEntity
  8
0
100
AcDbText
 10
260.4356686603871
 20
181.2950156425781
 30
0.0
 40
2.5
  1
数
100
AcDbText
  0
LINE
  5
1891
330
180D
100
AcDbEntity
  8
0
100
AcDbLine
 10
190.6700635431906
 20
26.29506654724554
 30
0.0
 11
194.1566878362297
 21
26.29506654724554
 31
0.0
  0
LINE
  5
1892
330
180D
100
AcDbEntity
  8
0
100
AcDbLine
 10
181.2356681882157
 20
26.29506654724554
 30
0.0
 11
184.7222924812548
 21
26.29506654724554
 31
0.0
  0
TEXT
  5
1893
330
180D
100
AcDbEntity
  8
0
100
AcDbText
 10
146.5
 20
175.9486520450592
 30
0.0
 40
2.5
  1
H02
100
AcDbText
  0
TEXT
  5
1894
330
180D
100
AcDbEntity
  8
0
100
AcDbText
 10
146.5
 20
171.1077764334856
 30
0.0
 40
2.5
  1
H03
100
AcDbText
  0
TEXT
  5
1895
330
180D
100
AcDbEntity
  8
0
100
AcDbText
 10
146.5
 20
166.2669013312219
 30
0.0
 40
2.5
  1
H04
100
AcDbText
  0
TEXT
  5
1896
330
180D
100
AcDbEntity
  8
0
100
AcDbText
 10
146.5
 20
161.2155533762811
 30
0.0
 40
2.5
  1
H05
100
AcDbText
  0
TEXT
  5
1897
330
180D
100
AcDbEntity
  8
0
100
AcDbText
 10
146.5
 20
156.1642049120304
 30
0.0
 40
2.5
  1
H06
100
AcDbText
  0
TEXT
  5
1898
330
180D
100
AcDbEntity
  8
0
100
AcDbText
 10
146.5
 20
151.1128569570896
 30
0.0
 40
2.5
  1
H07
100
AcDbText
  0
TEXT
  5
1899
330
180D
100
AcDbEntity
  8
0
100
AcDbText
 10
156.0
 20
175.9486520450592
 30
0.0
 40
2.5
  1
オブジェクト編集で変更
100
AcDbText
  0
TEXT
  5
189A
330
180D
100
AcDbEntity
  8
0
100
AcDbText
 10
156.0
 20
171.3182492861627
 30
0.0
 40
2.5
  1
オブジェクト編集で変更
100
AcDbText
  0
TEXT
  5
189B
330
180D
100
AcDbEntity
  8
0
100
AcDbText
 10
156.0
 20
166.2669013312219
 30
0.0
 40
2.5
  1
オブジェクト編集で変更
100
AcDbText
  0
TEXT
  5
189C
330
180D
100
AcDbEntity
  8
0
100
AcDbText
 10
156.0
 20
161.2155533762811
 30
0.0
 40
2.5
  1
オブジェクト編集で変更
100
AcDbText
  0
TEXT
  5
189D
330
180D
100
AcDbEntity
  8
0
100
AcDbText
 10
156.0
 20
156.1642049120304
 30
0.0
 40
2.5
  1
オブジェクト編集で変更
100
AcDbText
  0
TEXT
  5
189E
330
180D
100
AcDbEntity
  8
0
100
AcDbText
 10
156.0
 20
151.1128569570896
 30
0.0
 40
2.5
  1
オブジェクト編集で変更
100
AcDbText
  0
TEXT
  5
189F
330
180D
100
AcDbEntity
  8
0
100
AcDbText
 10
197.6031844701914
 20
176.0578806483616
 30
0.0
 40
2.5
  1
してください
100
AcDbText
  0
TEXT
  5
18A0
330
180D
100
AcDbEntity
  8
0
100
AcDbText
 10
197.6031844701914
 20
171.0065321841109
 30
0.0
 40
2.5
  1
してください
100
AcDbText
  0
TEXT
  5
18A1
330
180D
100
AcDbEntity
  8
0
100
AcDbText
 10
197.6031844701914
 20
166.1656570818472
 30
0.0
 40
2.5
  1
してください
100
AcDbText
  0
TEXT
  5
18A2
330
180D
100
AcDbEntity
  8
0
100
AcDbText
 10
197.6031844701914
 20
160.9038362742294
 30
0.0
 40
2.5
  1
してください
100
AcDbText
  0
TEXT
  5
18A3
330
180D
100
AcDbEntity
  8
0
100
AcDbText
 10
197.6031844701914
 20
155.8524878099787
 30
0.0
 40
2.5
  1
してください
100
AcDbText
  0
TEXT
  5
18A4
330
180D
100
AcDbEntity
  8
0
100
AcDbText
 10
197.6031844701914
 20
151.011612707715
 30
0.0
 40
2.5
  1
してください
100
AcDbText
  0
TEXT
  5
18A5
330
180D
100
AcDbEntity
  8
0
100
AcDbText
 10
221.0
 20
175.9486520450592
 30
0.0
 40
2.5
  1
赤黄青にAのアイコンです
100
AcDbText
  0
TEXT
  5
18A6
330
180D
100
AcDbEntity
  8
0
100
AcDbText
 10
221.0
 20
171.3182492861627
 30
0.0
 40
2.5
  1
赤黄青にAのアイコンです
100
AcDbText
  0
TEXT
  5
18A7
330
180D
100
AcDbEntity
  8
0
100
AcDbText
 10
221.0
 20
166.266901331222
 30
0.0
 40
2.5
  1
赤黄青にAのアイコンです
100
AcDbText
  0
TEXT
  5
18A8
330
180D
100
AcDbEntity
  8
0
100
AcDbText
 10
221.0
 20
161.2155533762812
 30
0.0
 40
2.5
  1
赤黄青にAのアイコンです
100
AcDbText
  0
TEXT
  5
18A9
330
180D
100
AcDbEntity
  8
0
100
AcDbText
 10
221.0
 20
156.1642049120304
 30
0.0
 40
2.5
  1
赤黄青にAのアイコンです
100
AcDbText
  0
TEXT
  5
18AA
330
180D
100
AcDbEntity
  8
0
100
AcDbText
 10
221.0
 20
151.3233298097668
 30
0.0
 40
2.5
  1
赤黄青にAのアイコンです
100
AcDbText
  0
TEXT
  5
18AB
330
180D
100
AcDbEntity
  8
0
100
AcDbText
 10
260.4356686603871
 20
176.0331948349603
 30
0.0
 40
2.5
  1
数
100
AcDbText
  0
TEXT
  5
18AC
330
180D
100
AcDbEntity
  8
0
100
AcDbText
 10
260.4356686603871
 20
171.1923192233866
 30
0.0
 40
2.5
  1
数
100
AcDbText
  0
TEXT
  5
18AD
330
180D
100
AcDbEntity
  8
0
100
AcDbText
 10
260.4356686603871
 20
166.1409712684459
 30
0.0
 40
2.5
  1
数
100
AcDbText
  0
TEXT
  5
18AE
330
180D
100
AcDbEntity
  8
0
100
AcDbText
 10
260.4356686603871
 20
161.0896233135052
 30
0.0
 40
2.5
  1
数
100
AcDbText
  0
TEXT
  5
18AF
330
180D
100
AcDbEntity
  8
0
100
AcDbText
 10
260.4356686603871
 20
156.0382748492544
 30
0.0
 40
2.5
  1
数
100
AcDbText
  0
TEXT
  5
18B0
330
180D
100
AcDbEntity
  8
0
100
AcDbText
 10
260.4356686603871
 20
151.1973997469907
 30
0.0
 40
2.5
  1
数
100
AcDbText
  0
MTEXT
  5
18B1
330
180D
100
AcDbEntity
  8
0
100
AcDbMText
 10
233.4980843718166
 20
38.00474323526328
 30
0.0
 40
2.5
 41
34.6015
 71
     1
 72
     5
  1
製品名（型名）
  7
MSG
 73
     1
 44
1.0
1001
ACAD
1000
MTEXTBEGIN
1070
    73
1070
     1
1070
    44
1040
1.0
1070
    74
1070
     0
1000
MTEXTEND
  0
MTEXT
  5
18B2
330
180D
100
AcDbEntity
  8
0
100
AcDbMText
 10
237.7488877494529
 20
28.14525244174695
 30
0.0
 40
4.0
 41
33.6664
 71
     1
 72
     5
  1
品名（部品名）
  7
MSG
 73
     1
 44
1.0
1001
ACAD
1000
MTEXTBEGIN
1070
    73
1070
     1
1070
    44
1040
1.0
1070
    74
1070
     0
1000
MTEXTEND
  0
MTEXT
  5
18B3
330
180D
100
AcDbEntity
  8
0
100
AcDbMText
 10
231.4779843055941
 20
16.07587716187015
 30
0.0
 40
5.0
 41
49.73439924023086
 71
     1
 72
     5
  1
Ｚ３Ｍ００００１
  7
MSG
 73
     1
 44
1.0
1001
ACAD
1000
MTEXTBEGIN
1070
    73
1070
     1
1070
    44
1040
1.0
1070
    74
1070
     0
1000
MTEXTEND
  0
MTEXT
  5
18B4
330
180D
100
AcDbEntity
  8
0
100
AcDbMText
 10
176.5514907683024
 20
27.76351832404629
 30
0.0
 40
2.0
 41
26.852
 71
     1
 72
     5
  1
'02    01    01
 73
     1
 44
1.0
1001
ACAD
1000
MTEXTBEGIN
1070
    73
1070
     1
1070
    44
1040
1.0
1070
    74
1070
     0
1000
MTEXTEND
  0
MTEXT
  5
18B5
330
180D
100
AcDbEntity
  8
0
100
AcDbMText
 10
181.8755844280182
 20
22.67213224677744
 30
0.0
 40
2.5
 41
15.1621
 71
     1
 72
     5
  1
名　前
  7
MSG
 73
     1
 44
1.0
1001
ACAD
1000
MTEXTBEGIN
1070
    73
1070
     1
1070
    44
1040
1.0
1070
    74
1070
     0
1000
MTEXTEND
  0
ENDBLK
  5
18B7
330
180D
100
AcDbEntity
  8
0
100
AcDbBlockEnd
  0
BLOCK
  5
1D05
330
1D04
100
AcDbEntity
  8
0
 48
5.0
100
AcDbBlockBegin
  2
_OPEN
 70
     0
 10
0.0
 20
0.0
 30
0.0
  3
_OPEN
  1

  0
LINE
  5
1D06
330
1D04
100
AcDbEntity
  8
0
  6
ByBlock
 62
     0
 48
5.0
100
AcDbLine
 10
-1.0
 20
0.1666666666666666
 30
0.0
 11
0.0
 21
0.0
 31
0.0
  0
LINE
  5
1D07
330
1D04
100
AcDbEntity
  8
0
  6
ByBlock
 62
     0
 48
5.0
100
AcDbLine
 10
0.0
 20
0.0
 30
0.0
 11
-1.0
 21
-0.1666666666666666
 31
0.0
  0
LINE
  5
1D08
330
1D04
100
AcDbEntity
  8
0
  6
ByBlock
 62
     0
 48
5.0
100
AcDbLine
 10
0.0
 20
0.0
 30
0.0
 11
-1.0
 21
0.0
 31
0.0
  0
ENDBLK
  5
1D09
330
1D04
100
AcDbEntity
  8
0
 48
5.0
100
AcDbBlockEnd
  0
BLOCK
  5
3370
330
3366
100
AcDbEntity
  8
0
100
AcDbBlockBegin
  2
*D6
 70
     1
 10
0.0
 20
0.0
 30
0.0
  3
*D6
  1

  0
LINE
  5
3738
330
3366
100
AcDbEntity
  8
0
 62
     0
 48
5.0
370
    -2
100
AcDbLine
 10
265.8351850067848
 20
76.54296360930292
 30
0.0
 11
265.8351850067848
 21
31.89329059361771
 31
0.0
  0
LINE
  5
3739
330
3366
100
AcDbEntity
  8
0
 62
     0
 48
5.0
370
    -2
100
AcDbLine
 10
483.2018606333017
 20
76.5428581055804
 30
0.0
 11
483.2018606333017
 21
31.89329059361771
 31
0.0
  0
LINE
  5
373A
330
3366
100
AcDbEntity
  8
0
 62
     0
 48
5.0
370
    -2
100
AcDbLine
 10
268.8351850067848
 20
32.89329059361771
 30
0.0
 11
480.2018606333017
 21
32.89329059361771
 31
0.0
  0
MTEXT
  5
373B
330
3366
100
AcDbEntity
  8
0
 62
     0
 48
5.0
100
AcDbMText
 10
364.5933483351392
 20
37.9929341795108
 30
0.0
 40
6.0
 41
0.0
 71
     5
 72
     1
  1
\A1;L[m]
  7
CB
 73
     1
 44
1.0
1001
ACAD
1000
MTEXTBEGIN
1070
    73
1070
     1
1070
    44
1040
1.0
1070
    74
1070
     0
1000
MTEXTEND
  0
INSERT
  5
373C
330
3366
100
AcDbEntity
  8
0
 62
     0
 48
5.0
370
    -2
100
AcDbBlockReference
  2
_OPEN30
 10
265.8351850067848
 20
32.89329059361771
 30
0.0
 41
3.0
 42
3.0
 43
3.0
 50
180.0
  0
INSERT
  5
373D
330
3366
100
AcDbEntity
  8
0
 62
     0
 48
5.0
370
    -2
100
AcDbBlockReference
  2
_OPEN30
 10
483.2018606333017
 20
32.89329059361771
 30
0.0
 41
3.0
 42
3.0
 43
3.0
  0
POINT
  5
373E
330
3366
100
AcDbEntity
  8
DEFPOINTS
 62
     0
 48
5.0
100
AcDbPoint
 10
265.8351850067848
 20
78.54296360930291
 30
0.0
  0
POINT
  5
373F
330
3366
100
AcDbEntity
  8
DEFPOINTS
 62
     0
 48
5.0
100
AcDbPoint
 10
483.2018606333017
 20
78.54285810558039
 30
0.0
  0
POINT
  5
3740
330
3366
100
AcDbEntity
  8
DEFPOINTS
 62
     0
 48
5.0
100
AcDbPoint
 10
483.2018606333017
 20
32.89329059361771
 30
0.0
  0
ENDBLK
  5
3371
330
3366
100
AcDbEntity
  8
0
100
AcDbBlockEnd
  0
BLOCK
  5
337C
330
3372
100
AcDbEntity
  8
0
100
AcDbBlockBegin
  2
*D7
 70
     1
 10
0.0
 20
0.0
 30
0.0
  3
*D7
  1

  0
LINE
  5
3598
330
3372
100
AcDbEntity
  8
0
 62
     0
 48
5.0
370
    -2
100
AcDbLine
 10
265.8351850067848
 20
76.54296360930292
 30
0.0
 11
265.8351850067848
 21
31.93334761737037
 31
0.0
  0
LINE
  5
3599
330
3372
100
AcDbEntity
  8
0
 62
     0
 48
5.0
370
    -2
100
AcDbLine
 10
229.5243915205709
 20
51.34843463762393
 30
0.0
 11
229.5243915205709
 21
31.93334761737037
 31
0.0
  0
LINE
  5
359A
330
3372
100
AcDbEntity
  8
0
 62
     0
 48
5.0
370
    -2
100
AcDbLine
 10
262.8351850067848
 20
32.93334761737037
 30
0.0
 11
232.5243915205708
 21
32.93334761737037
 31
0.0
  0
MTEXT
  5
359B
330
3372
100
AcDbEntity
  8
0
 62
     0
 48
5.0
100
AcDbMText
 10
247.7591448663705
 20
38.48644483994024
 30
0.0
 40
6.0
 41
0.0
 71
     5
 72
     1
  1
\A1;(40)
  7
CB
 73
     1
 44
1.0
1001
ACAD
1000
MTEXTBEGIN
1070
    73
1070
     1
1070
    44
1040
1.0
1070
    74
1070
     0
1000
MTEXTEND
  0
INSERT
  5
359C
330
3372
100
AcDbEntity
  8
0
 62
     0
 48
5.0
370
    -2
100
AcDbBlockReference
  2
_OPEN30
 10
265.8351850067848
 20
32.93334761737037
 30
0.0
 41
3.0
 42
3.0
 43
3.0
  0
INSERT
  5
359D
330
3372
100
AcDbEntity
  8
0
 62
     0
 48
5.0
370
    -2
100
AcDbBlockReference
  2
_OPEN30
 10
229.5243915205709
 20
32.93334761737037
 30
0.0
 41
3.0
 42
3.0
 43
3.0
 50
180.0
  0
POINT
  5
359E
330
3372
100
AcDbEntity
  8
DEFPOINTS
 62
     0
 48
5.0
100
AcDbPoint
 10
265.8351850067848
 20
78.54296360930291
 30
0.0
  0
POINT
  5
359F
330
3372
100
AcDbEntity
  8
DEFPOINTS
 62
     0
 48
5.0
100
AcDbPoint
 10
229.5243915205709
 20
53.34843463762394
 30
0.0
  0
POINT
  5
35A0
330
3372
100
AcDbEntity
  8
DEFPOINTS
 62
     0
 48
5.0
100
AcDbPoint
 10
229.5243915205709
 20
32.93334761737037
 30
0.0
  0
ENDBLK
  5
337D
330
3372
100
AcDbEntity
  8
0
100
AcDbBlockEnd
  0
BLOCK
  5
3388
330
337E
100
AcDbEntity
  8
0
100
AcDbBlockBegin
  2
*D8
 70
     1
 10
0.0
 20
0.0
 30
0.0
  3
*D8
  1

  0
LINE
  5
34D1
330
337E
100
AcDbEntity
  8
0
 62
     0
 48
5.0
370
    -2
100
AcDbLine
 10
265.8351850067848
 20
76.54296360930292
 30
0.0
 11
265.8351850067848
 21
60.36523853333012
 31
0.0
  0
LINE
  5
34D2
330
337E
100
AcDbEntity
  8
0
 62
     0
 48
5.0
370
    -2
100
AcDbLine
 10
295.8351850067848
 20
76.54296360930292
 30
0.0
 11
295.8351850067848
 21
60.36523853333012
 31
0.0
  0
LINE
  5
34D3
330
337E
100
AcDbEntity
  8
0
 62
     0
 48
5.0
370
    -2
100
AcDbLine
 10
268.8351850067848
 20
61.36523853333011
 30
0.0
 11
292.8351850067848
 21
61.36523853333011
 31
0.0
  0
INSERT
  5
34D4
330
337E
100
AcDbEntity
  8
0
 62
     0
 48
5.0
370
    -2
100
AcDbBlockReference
  2
_OPEN30
 10
265.8351850067848
 20
61.36523853333011
 30
0.0
 41
3.0
 42
3.0
 43
3.0
 50
180.0
  0
INSERT
  5
34D5
330
337E
100
AcDbEntity
  8
0
 62
     0
 48
5.0
370
    -2
100
AcDbBlockReference
  2
_OPEN30
 10
295.8351850067848
 20
61.36523853333011
 30
0.0
 41
3.0
 42
3.0
 43
3.0
  0
MTEXT
  5
34D6
330
337E
100
AcDbEntity
  8
0
 62
     0
 48
5.0
100
AcDbMText
 10
280.8351850067848
 20
65.8677766043961
 30
0.0
 40
6.0
 41
0.0
 71
     5
 72
     1
  1
\A1;(30)
  7
CB
 73
     1
 44
1.0
1001
ACAD
1000
MTEXTBEGIN
1070
    73
1070
     1
1070
    44
1040
1.0
1070
    74
1070
     0
1000
MTEXTEND
  0
POINT
  5
34D7
330
337E
100
AcDbEntity
  8
DEFPOINTS
 62
     0
 48
5.0
100
AcDbPoint
 10
265.8351850067848
 20
78.54296360930291
 30
0.0
  0
POINT
  5
34D8
330
337E
100
AcDbEntity
  8
DEFPOINTS
 62
     0
 48
5.0
100
AcDbPoint
 10
295.8351850067848
 20
78.54296360930291
 30
0.0
  0
POINT
  5
34D9
330
337E
100
AcDbEntity
  8
DEFPOINTS
 62
     0
 48
5.0
100
AcDbPoint
 10
295.8351850067848
 20
61.36523853333011
 30
0.0
  0
ENDBLK
  5
3389
330
337E
100
AcDbEntity
  8
0
100
AcDbBlockEnd
  0
BLOCK
  5
3394
330
338A
100
AcDbEntity
  8
0
100
AcDbBlockBegin
  2
*D9
 70
     1
 10
0.0
 20
0.0
 30
0.0
  3
*D9
  1

  0
LINE
  5
34F5
330
338A
100
AcDbEntity
  8
0
 62
     0
 48
5.0
370
    -2
100
AcDbLine
 10
483.2018606333017
 20
76.54285810558045
 30
0.0
 11
483.2018606333017
 21
63.4648396320307
 31
0.0
  0
LINE
  5
34F6
330
338A
100
AcDbEntity
  8
0
 62
     0
 48
5.0
370
    -2
100
AcDbLine
 10
453.2018606333017
 20
76.54285810558045
 30
0.0
 11
453.2018606333017
 21
63.4648396320307
 31
0.0
  0
LINE
  5
34F7
330
338A
100
AcDbEntity
  8
0
 62
     0
 48
5.0
370
    -2
100
AcDbLine
 10
480.2018606333017
 20
64.4648396320307
 30
0.0
 11
456.2018606333016
 21
64.4648396320307
 31
0.0
  0
MTEXT
  5
34F8
330
338A
100
AcDbEntity
  8
0
 62
     0
 48
5.0
100
AcDbMText
 10
467.0920680042498
 20
68.96737770309669
 30
0.0
 40
6.0
 41
0.0
 71
     5
 72
     1
  1
\A1;(30)
  7
CB
 73
     1
 44
1.0
1001
ACAD
1000
MTEXTBEGIN
1070
    73
1070
     1
1070
    44
1040
1.0
1070
    74
1070
     0
1000
MTEXTEND
  0
INSERT
  5
34F9
330
338A
100
AcDbEntity
  8
0
 62
     0
 48
5.0
370
    -2
100
AcDbBlockReference
  2
_OPEN30
 10
483.2018606333017
 20
64.4648396320307
 30
0.0
 41
3.0
 42
3.0
 43
3.0
  0
INSERT
  5
34FA
330
338A
100
AcDbEntity
  8
0
 62
     0
 48
5.0
370
    -2
100
AcDbBlockReference
  2
_OPEN30
 10
453.2018606333017
 20
64.4648396320307
 30
0.0
 41
3.0
 42
3.0
 43
3.0
 50
180.0
  0
POINT
  5
34FB
330
338A
100
AcDbEntity
  8
DEFPOINTS
 62
     0
 48
5.0
100
AcDbPoint
 10
483.2018606333017
 20
78.54285810558045
 30
0.0
  0
POINT
  5
34FC
330
338A
100
AcDbEntity
  8
DEFPOINTS
 62
     0
 48
5.0
100
AcDbPoint
 10
453.2018606333017
 20
78.54285810558045
 30
0.0
  0
POINT
  5
34FD
330
338A
100
AcDbEntity
  8
DEFPOINTS
 62
     0
 48
5.0
100
AcDbPoint
 10
453.2018606333017
 20
64.4648396320307
 30
0.0
  0
ENDBLK
  5
3395
330
338A
100
AcDbEntity
  8
0
100
AcDbBlockEnd
  0
BLOCK
  5
33A0
330
3396
100
AcDbEntity
  8
0
100
AcDbBlockBegin
  2
*D10
 70
     1
 10
0.0
 20
0.0
 30
0.0
  3
*D10
  1

  0
LINE
  5
34C8
330
3396
100
AcDbEntity
  8
0
 62
     0
 48
5.0
370
    -2
100
AcDbLine
 10
483.2018606333017
 20
76.5428581055804
 30
0.0
 11
483.2018606333017
 21
31.91893706025791
 31
0.0
  0
LINE
  5
34C9
330
3396
100
AcDbEntity
  8
0
 62
     0
 48
5.0
370
    -2
100
AcDbLine
 10
523.2018606333017
 20
48.55785810558041
 30
0.0
 11
523.2018606333017
 21
31.91893706025791
 31
0.0
  0
LINE
  5
34CA
330
3396
100
AcDbEntity
  8
0
 62
     0
 48
5.0
370
    -2
100
AcDbLine
 10
486.2018606333016
 20
32.91893706025791
 30
0.0
 11
520.2018606333017
 21
32.91893706025791
 31
0.0
  0
MTEXT
  5
34CB
330
3396
100
AcDbEntity
  8
0
 62
     0
 48
5.0
100
AcDbMText
 10
503.1921207270241
 20
37.4214751313239
 30
0.0
 40
6.0
 41
0.0
 71
     5
 72
     1
  1
\A1;(40)
  7
CB
 73
     1
 44
1.0
1001
ACAD
1000
MTEXTBEGIN
1070
    73
1070
     1
1070
    44
1040
1.0
1070
    74
1070
     0
1000
MTEXTEND
  0
INSERT
  5
34CC
330
3396
100
AcDbEntity
  8
0
 62
     0
 48
5.0
370
    -2
100
AcDbBlockReference
  2
_OPEN30
 10
483.2018606333017
 20
32.91893706025791
 30
0.0
 41
3.0
 42
3.0
 43
3.0
 50
180.0
  0
INSERT
  5
34CD
330
3396
100
AcDbEntity
  8
0
 62
     0
 48
5.0
370
    -2
100
AcDbBlockReference
  2
_OPEN30
 10
523.2018606333017
 20
32.91893706025791
 30
0.0
 41
3.0
 42
3.0
 43
3.0
  0
POINT
  5
34CE
330
3396
100
AcDbEntity
  8
DEFPOINTS
 62
     0
 48
5.0
100
AcDbPoint
 10
483.2018606333017
 20
78.54285810558039
 30
0.0
  0
POINT
  5
34CF
330
3396
100
AcDbEntity
  8
DEFPOINTS
 62
     0
 48
5.0
100
AcDbPoint
 10
523.2018606333017
 20
50.55785810558041
 30
0.0
  0
POINT
  5
34D0
330
3396
100
AcDbEntity
  8
DEFPOINTS
 62
     0
 48
5.0
100
AcDbPoint
 10
523.2018606333017
 20
32.91893706025791
 30
0.0
  0
ENDBLK
  5
33A1
330
3396
100
AcDbEntity
  8
0
100
AcDbBlockEnd
  0
BLOCK
  5
33AC
330
33A2
100
AcDbEntity
  8
0
100
AcDbBlockBegin
  2
*D11
 70
     1
 10
0.0
 20
0.0
 30
0.0
  3
*D11
  1

  0
LINE
  5
34EC
330
33A2
100
AcDbEntity
  8
0
 62
     0
 48
5.0
370
    -2
100
AcDbLine
 10
483.2018606333017
 20
76.5428581055804
 30
0.0
 11
483.2018606333017
 21
51.60771358082667
 31
0.0
  0
LINE
  5
34ED
330
33A2
100
AcDbEntity
  8
0
 62
     0
 48
5.0
370
    -2
100
AcDbLine
 10
436.0120954677553
 20
78.04796360930291
 30
0.0
 11
436.0120954677553
 21
51.60771358082667
 31
0.0
  0
LINE
  5
34EE
330
33A2
100
AcDbEntity
  8
0
 62
     0
 48
5.0
370
    -2
100
AcDbLine
 10
480.2018606333017
 20
52.60771358082667
 30
0.0
 11
439.0120954677552
 21
52.60771358082667
 31
0.0
  0
MTEXT
  5
34EF
330
33A2
100
AcDbEntity
  8
0
 62
     0
 48
5.0
100
AcDbMText
 10
459.202377089759
 20
57.11025165189266
 30
0.0
 40
6.0
 41
0.0
 71
     5
 72
     1
  1
\A1;(100)
  7
CB
 73
     1
 44
1.0
1001
ACAD
1000
MTEXTBEGIN
1070
    73
1070
     1
1070
    44
1040
1.0
1070
    74
1070
     0
1000
MTEXTEND
  0
INSERT
  5
34F0
330
33A2
100
AcDbEntity
  8
0
 62
     0
 48
5.0
370
    -2
100
AcDbBlockReference
  2
_OPEN30
 10
483.2018606333017
 20
52.60771358082667
 30
0.0
 41
3.0
 42
3.0
 43
3.0
  0
INSERT
  5
34F1
330
33A2
100
AcDbEntity
  8
0
 62
     0
 48
5.0
370
    -2
100
AcDbBlockReference
  2
_OPEN30
 10
436.0120954677553
 20
52.60771358082667
 30
0.0
 41
3.0
 42
3.0
 43
3.0
 50
180.0
  0
POINT
  5
34F2
330
33A2
100
AcDbEntity
  8
DEFPOINTS
 62
     0
 48
5.0
100
AcDbPoint
 10
483.2018606333017
 20
78.54285810558039
 30
0.0
  0
POINT
  5
34F3
330
33A2
100
AcDbEntity
  8
DEFPOINTS
 62
     0
 48
5.0
100
AcDbPoint
 10
436.0120954677553
 20
80.0479636093029
 30
0.0
  0
POINT
  5
34F4
330
33A2
100
AcDbEntity
  8
DEFPOINTS
 62
     0
 48
5.0
100
AcDbPoint
 10
436.0120954677553
 20
52.60771358082667
 30
0.0
  0
ENDBLK
  5
33AD
330
33A2
100
AcDbEntity
  8
0
100
AcDbBlockEnd
  0
BLOCK
  5
35AC
330
35A2
100
AcDbEntity
  8
0
100
AcDbBlockBegin
  2
*D12
 70
     1
 10
0.0
 20
0.0
 30
0.0
  3
*D12
  1

  0
LINE
  5
3618
330
35A2
100
AcDbEntity
  8
0
 62
     0
 48
5.0
370
    -2
100
AcDbLine
 10
182.2950783944403
 20
119.2981030560398
 30
0.0
 11
166.5527070616892
 21
119.2981030560398
 31
0.0
  0
LINE
  5
3619
330
35A2
100
AcDbEntity
  8
0
 62
     0
 48
5.0
370
    -2
100
AcDbLine
 10
182.2950783944402
 20
51.29827905603986
 30
0.0
 11
166.5527070616892
 21
51.29827905603987
 31
0.0
  0
LINE
  5
361A
330
35A2
100
AcDbEntity
  8
0
 62
     0
 48
5.0
370
    -2
100
AcDbLine
 10
167.5527070616892
 20
116.2981030560398
 30
0.0
 11
167.5527070616892
 21
54.29827905603986
 31
0.0
  0
INSERT
  5
361B
330
35A2
100
AcDbEntity
  8
0
 62
     0
 48
5.0
370
    -2
100
AcDbBlockReference
  2
_OPEN30
 10
167.5527070616892
 20
119.2981030560398
 30
0.0
 41
3.0
 42
3.0
 43
3.0
 50
90.0
  0
INSERT
  5
361C
330
35A2
100
AcDbEntity
  8
0
 62
     0
 48
5.0
370
    -2
100
AcDbBlockReference
  2
_OPEN30
 10
167.5527070616892
 20
51.29827905603987
 30
0.0
 41
3.0
 42
3.0
 43
3.0
 50
270.0
  0
MTEXT
  5
361D
330
35A2
100
AcDbEntity
  8
0
 62
     0
 48
5.0
100
AcDbMText
 10
163.0501689906232
 20
85.29819105603989
 30
0.0
 40
6.0
 41
0.0
 71
     5
 72
     1
  1
\A1;(54)
  7
CB
 11
0.0000000000000001
 21
1.0
 31
0.0
 73
     1
 44
1.0
1001
ACAD
1000
MTEXTBEGIN
1070
    73
1070
     1
1070
    44
1040
1.0
1070
    74
1070
     0
1000
MTEXTEND
  0
POINT
  5
361E
330
35A2
100
AcDbEntity
  8
DEFPOINTS
 62
     0
 48
5.0
100
AcDbPoint
 10
184.2950783944402
 20
119.2981030560398
 30
0.0
  0
POINT
  5
361F
330
35A2
100
AcDbEntity
  8
DEFPOINTS
 62
     0
 48
5.0
100
AcDbPoint
 10
184.2950783944402
 20
51.29827905603986
 30
0.0
  0
POINT
  5
3620
330
35A2
100
AcDbEntity
  8
DEFPOINTS
 62
     0
 48
5.0
100
AcDbPoint
 10
167.5527070616892
 20
51.29827905603987
 30
0.0
  0
ENDBLK
  5
35AD
330
35A2
100
AcDbEntity
  8
0
100
AcDbBlockEnd
  0
BLOCK
  5
35B9
330
35AF
100
AcDbEntity
  8
0
100
AcDbBlockBegin
  2
*D13
 70
     1
 10
0.0
 20
0.0
 30
0.0
  3
*D13
  1

  0
LINE
  5
3621
330
35AF
100
AcDbEntity
  8
0
 62
     0
 48
5.0
370
    -2
100
AcDbLine
 10
184.2950783944402
 20
49.29827905603985
 30
0.0
 11
184.2950783944402
 21
31.93334761737037
 31
0.0
  0
LINE
  5
3622
330
35AF
100
AcDbEntity
  8
0
 62
     0
 48
5.0
370
    -2
100
AcDbLine
 10
190.3953253944402
 20
49.29827905603985
 30
0.0
 11
190.3953253944402
 21
31.93334761737037
 31
0.0
  0
LINE
  5
3623
330
35AF
100
AcDbEntity
  8
0
 62
     0
 48
5.0
370
    -2
100
AcDbLine
 10
181.2950783944402
 20
32.93334761737037
 30
0.0
 11
178.2950783944402
 21
32.93334761737037
 31
0.0
  0
LINE
  5
3624
330
35AF
100
AcDbEntity
  8
0
 62
     0
 48
5.0
370
    -2
100
AcDbLine
 10
193.3953253944402
 20
32.93334761737037
 30
0.0
 11
196.3953253944402
 21
32.93334761737037
 31
0.0
  0
LINE
  5
3625
330
35AF
100
AcDbEntity
  8
0
 62
     0
 48
5.0
370
    -2
100
AcDbLine
 10
187.3452018944402
 20
32.93334761737037
 30
0.0
 11
191.2474861583996
 21
19.9257334041724
 31
0.0
  0
LINE
  5
3626
330
35AF
100
AcDbEntity
  8
0
 62
     0
 48
5.0
370
    -2
100
AcDbLine
 10
191.2474861583996
 20
19.9257334041724
 30
0.0
 11
201.3185521482473
 21
19.9257334041724
 31
0.0
  0
MTEXT
  5
3627
330
35AF
100
AcDbEntity
  8
0
 62
     0
 48
5.0
100
AcDbMText
 10
196.2830191533234
 20
24.42827147523839
 30
0.0
 40
6.0
 41
0.0
 71
     5
 72
     1
  1
\A1;(6)
  7
CB
 73
     1
 44
1.0
1001
ACAD
1000
MTEXTBEGIN
1070
    73
1070
     1
1070
    44
1040
1.0
1070
    74
1070
     0
1000
MTEXTEND
  0
LINE
  5
3628
330
35AF
100
AcDbEntity
  8
0
 62
     0
 48
5.0
370
    -2
100
AcDbLine
 10
184.2950783944402
 20
32.93334761737037
 30
0.0
 11
190.3953253944402
 21
32.93334761737037
 31
0.0
  0
LINE
  5
3629
330
35AF
100
AcDbEntity
  8
0
 62
     0
 48
5.0
370
    -2
100
AcDbLine
 10
184.2950783944402
 20
32.93334761737037
 30
0.0
 11
190.3953253944402
 21
32.93334761737037
 31
0.0
  0
INSERT
  5
362A
330
35AF
100
AcDbEntity
  8
0
 62
     0
 48
5.0
370
    -2
100
AcDbBlockReference
  2
_OPEN30
 10
184.2950783944402
 20
32.93334761737037
 30
0.0
 41
3.0
 42
3.0
 43
3.0
  0
INSERT
  5
362B
330
35AF
100
AcDbEntity
  8
0
 62
     0
 48
5.0
370
    -2
100
AcDbBlockReference
  2
_OPEN30
 10
190.3953253944402
 20
32.93334761737037
 30
0.0
 41
3.0
 42
3.0
 43
3.0
 50
180.0
  0
POINT
  5
362C
330
35AF
100
AcDbEntity
  8
DEFPOINTS
 62
     0
 48
5.0
100
AcDbPoint
 10
184.2950783944402
 20
51.29827905603986
 30
0.0
  0
POINT
  5
362D
330
35AF
100
AcDbEntity
  8
DEFPOINTS
 62
     0
 48
5.0
100
AcDbPoint
 10
190.3953253944402
 20
51.29827905603986
 30
0.0
  0
POINT
  5
362E
330
35AF
100
AcDbEntity
  8
DEFPOINTS
 62
     0
 48
5.0
100
AcDbPoint
 10
190.3953253944402
 20
32.93334761737037
 30
0.0
  0
ENDBLK
  5
35BA
330
35AF
100
AcDbEntity
  8
0
100
AcDbBlockEnd
  0
BLOCK
  5
35C6
330
35BC
100
AcDbEntity
  8
0
100
AcDbBlockBegin
  2
*D14
 70
     1
 10
0.0
 20
0.0
 30
0.0
  3
*D14
  1

  0
LINE
  5
362F
330
35BC
100
AcDbEntity
  8
0
 62
     0
 48
5.0
370
    -2
100
AcDbLine
 10
213.1243734436818
 20
49.59827735603989
 30
0.0
 11
213.1243734436818
 21
31.93334761737037
 31
0.0
  0
LINE
  5
3630
330
35BC
100
AcDbEntity
  8
0
 62
     0
 48
5.0
370
    -2
100
AcDbLine
 10
229.5243915205709
 20
51.34843463762393
 30
0.0
 11
229.5243915205709
 21
31.93334761737037
 31
0.0
  0
LINE
  5
3631
330
35BC
100
AcDbEntity
  8
0
 62
     0
 48
5.0
370
    -2
100
AcDbLine
 10
216.1243734436818
 20
32.93334761737037
 30
0.0
 11
226.5243915205708
 21
32.93334761737037
 31
0.0
  0
INSERT
  5
3632
330
35BC
100
AcDbEntity
  8
0
 62
     0
 48
5.0
370
    -2
100
AcDbBlockReference
  2
_OPEN30
 10
213.1243734436818
 20
32.93334761737037
 30
0.0
 41
3.0
 42
3.0
 43
3.0
 50
180.0
  0
INSERT
  5
3633
330
35BC
100
AcDbEntity
  8
0
 62
     0
 48
5.0
370
    -2
100
AcDbBlockReference
  2
_OPEN30
 10
229.5243915205709
 20
32.93334761737037
 30
0.0
 41
3.0
 42
3.0
 43
3.0
  0
MTEXT
  5
3634
330
35BC
100
AcDbEntity
  8
0
 62
     0
 48
5.0
100
AcDbMText
 10
221.3243824821263
 20
37.43588568843636
 30
0.0
 40
6.0
 41
0.0
 71
     5
 72
     1
  1
\A1;(17)
  7
CB
 73
     1
 44
1.0
1001
ACAD
1000
MTEXTBEGIN
1070
    73
1070
     1
1070
    44
1040
1.0
1070
    74
1070
     0
1000
MTEXTEND
  0
POINT
  5
3635
330
35BC
100
AcDbEntity
  8
DEFPOINTS
 62
     0
 48
5.0
100
AcDbPoint
 10
213.1243734436818
 20
51.59827735603989
 30
0.0
  0
POINT
  5
3636
330
35BC
100
AcDbEntity
  8
DEFPOINTS
 62
     0
 48
5.0
100
AcDbPoint
 10
229.5243915205709
 20
53.34843463762394
 30
0.0
  0
POINT
  5
3637
330
35BC
100
AcDbEntity
  8
DEFPOINTS
 62
     0
 48
5.0
100
AcDbPoint
 10
229.5243915205709
 20
32.93334761737037
 30
0.0
  0
ENDBLK
  5
35C7
330
35BC
100
AcDbEntity
  8
0
100
AcDbBlockEnd
  0
BLOCK
  5
35D3
330
35C9
100
AcDbEntity
  8
0
100
AcDbBlockBegin
  2
*D15
 70
     1
 10
0.0
 20
0.0
 30
0.0
  3
*D15
  1

  0
LINE
  5
3638
330
35C9
100
AcDbEntity
  8
0
 62
     0
 48
5.0
370
    -2
100
AcDbLine
 10
523.2018606333017
 20
48.55785810558041
 30
0.0
 11
523.2018606333017
 21
31.91893706025791
 31
0.0
  0
LINE
  5
3639
330
35C9
100
AcDbEntity
  8
0
 62
     0
 48
5.0
370
    -2
100
AcDbLine
 10
547.2018606333017
 20
49.80785810558041
 30
0.0
 11
547.2018606333017
 21
31.91893706025791
 31
0.0
  0
LINE
  5
363A
330
35C9
100
AcDbEntity
  8
0
 62
     0
 48
5.0
370
    -2
100
AcDbLine
 10
526.2018606333017
 20
32.91893706025791
 30
0.0
 11
544.2018606333017
 21
32.91893706025791
 31
0.0
  0
INSERT
  5
363B
330
35C9
100
AcDbEntity
  8
0
 62
     0
 48
5.0
370
    -2
100
AcDbBlockReference
  2
_OPEN30
 10
523.2018606333017
 20
32.91893706025791
 30
0.0
 41
3.0
 42
3.0
 43
3.0
 50
180.0
  0
INSERT
  5
363C
330
35C9
100
AcDbEntity
  8
0
 62
     0
 48
5.0
370
    -2
100
AcDbBlockReference
  2
_OPEN30
 10
547.2018606333017
 20
32.91893706025791
 30
0.0
 41
3.0
 42
3.0
 43
3.0
  0
MTEXT
  5
363D
330
35C9
100
AcDbEntity
  8
0
 62
     0
 48
5.0
100
AcDbMText
 10
535.2018606333017
 20
37.4214751313239
 30
0.0
 40
6.0
 41
0.0
 71
     5
 72
     1
  1
\A1;(23)
  7
CB
 73
     1
 44
1.0
1001
ACAD
1000
MTEXTBEGIN
1070
    73
1070
     1
1070
    44
1040
1.0
1070
    74
1070
     0
1000
MTEXTEND
  0
POINT
  5
363E
330
35C9
100
AcDbEntity
  8
DEFPOINTS
 62
     0
 48
5.0
100
AcDbPoint
 10
523.2018606333017
 20
50.55785810558041
 30
0.0
  0
POINT
  5
363F
330
35C9
100
AcDbEntity
  8
DEFPOINTS
 62
     0
 48
5.0
100
AcDbPoint
 10
547.2018606333017
 20
51.80785810558041
 30
0.0
  0
POINT
  5
3640
330
35C9
100
AcDbEntity
  8
DEFPOINTS
 62
     0
 48
5.0
100
AcDbPoint
 10
547.2018606333017
 20
32.91893706025791
 30
0.0
  0
ENDBLK
  5
35D4
330
35C9
100
AcDbEntity
  8
0
100
AcDbBlockEnd
  0
BLOCK
  5
37E5
330
37DB
100
AcDbEntity
  8
0
100
AcDbBlockBegin
  2
*D16
 70
     1
 10
0.0
 20
0.0
 30
0.0
  3
*D16
  1

  0
LINE
  5
3852
330
37DB
100
AcDbEntity
  8
0
 62
     0
 48
5.0
370
    -2
100
AcDbLine
 10
582.1107889836398
 20
120.0378581055804
 30
0.0
 11
600.2816773015632
 21
120.0378581055804
 31
0.0
  0
LINE
  5
3853
330
37DB
100
AcDbEntity
  8
0
 62
     0
 48
5.0
370
    -2
100
AcDbLine
 10
582.1107889836398
 20
50.55785810558041
 30
0.0
 11
600.2816773015632
 21
50.5578581055804
 31
0.0
  0
LINE
  5
3854
330
37DB
100
AcDbEntity
  8
0
 62
     0
 48
5.0
370
    -2
100
AcDbLine
 10
599.2816773015633
 20
117.0378581055804
 30
0.0
 11
599.2816773015633
 21
53.5578581055804
 31
0.0
  0
INSERT
  5
3855
330
37DB
100
AcDbEntity
  8
0
 62
     0
 48
5.0
370
    -2
100
AcDbBlockReference
  2
_OPEN30
 10
599.2816773015633
 20
120.0378581055804
 30
0.0
 41
3.0
 42
3.0
 43
3.0
 50
90.0
  0
INSERT
  5
3856
330
37DB
100
AcDbEntity
  8
0
 62
     0
 48
5.0
370
    -2
100
AcDbBlockReference
  2
_OPEN30
 10
599.2816773015633
 20
50.5578581055804
 30
0.0
 41
3.0
 42
3.0
 43
3.0
 50
270.0
  0
MTEXT
  5
3857
330
37DB
100
AcDbEntity
  8
0
 62
     0
 48
5.0
100
AcDbMText
 10
594.7791392304973
 20
85.29785810558051
 30
0.0
 40
6.0
 41
0.0
 71
     5
 72
     1
  1
\A1;(70)
  7
CB
 11
0.0000000000000001
 21
1.0
 31
0.0
 73
     1
 44
1.0
1001
ACAD
1000
MTEXTBEGIN
1070
    73
1070
     1
1070
    44
1040
1.0
1070
    74
1070
     0
1000
MTEXTEND
  0
POINT
  5
3858
330
37DB
100
AcDbEntity
  8
DEFPOINTS
 62
     0
 48
5.0
100
AcDbPoint
 10
580.1107889836398
 20
120.0378581055804
 30
0.0
  0
POINT
  5
3859
330
37DB
100
AcDbEntity
  8
DEFPOINTS
 62
     0
 48
5.0
100
AcDbPoint
 10
580.1107889836398
 20
50.55785810558041
 30
0.0
  0
POINT
  5
385A
330
37DB
100
AcDbEntity
  8
DEFPOINTS
 62
     0
 48
5.0
100
AcDbPoint
 10
599.2816773015633
 20
50.5578581055804
 30
0.0
  0
ENDBLK
  5
37E6
330
37DB
100
AcDbEntity
  8
0
100
AcDbBlockEnd
  0
BLOCK
  5
37F3
330
37E8
100
AcDbEntity
  8
0
100
AcDbBlockBegin
  2
*D17
 70
     1
 10
0.0
 20
0.0
 30
0.0
  3
*D17
  1

  0
LINE
  5
3826
330
37E8
100
AcDbEntity
  8
0
 62
     0
 48
5.0
370
    -2
100
AcDbLine
 10
571.8607889836398
 20
48.5578581055804
 30
0.0
 11
571.8607889836398
 21
31.91893706025791
 31
0.0
  0
LINE
  5
3827
330
37E8
100
AcDbEntity
  8
0
 62
     0
 48
5.0
370
    -2
100
AcDbLine
 10
580.4264455492964
 20
48.55785810558041
 30
0.0
 11
580.4264455492964
 21
31.91893706025791
 31
0.0
  0
LINE
  5
3828
330
37E8
100
AcDbEntity
  8
0
 62
     0
 48
5.0
370
    -2
100
AcDbLine
 10
574.8607889836399
 20
32.91893706025791
 30
0.0
 11
577.4264455492964
 21
32.91893706025791
 31
0.0
  0
LINE
  5
3829
330
37E8
100
AcDbEntity
  8
0
 62
     0
 48
5.0
370
    -2
100
AcDbLine
 10
576.1436172664681
 20
32.91893706025791
 30
0.0
 11
580.0459015304275
 21
19.91132284705994
 31
0.0
  0
LINE
  5
382A
330
37E8
100
AcDbEntity
  8
0
 62
     0
 48
5.0
370
    -2
100
AcDbLine
 10
580.0459015304275
 20
19.91132284705994
 30
0.0
 11
590.1169675202752
 21
19.91132284705994
 31
0.0
  0
MTEXT
  5
382B
330
37E8
100
AcDbEntity
  8
0
 62
     0
 48
5.0
100
AcDbMText
 10
585.0814345253513
 20
24.41386091812594
 30
0.0
 40
6.0
 41
0.0
 71
     5
 72
     1
  1
\A1;(9)
  7
CB
 73
     1
 44
1.0
1001
ACAD
1000
MTEXTBEGIN
1070
    73
1070
     1
1070
    44
1040
1.0
1070
    74
1070
     0
1000
MTEXTEND
  0
INSERT
  5
382C
330
37E8
100
AcDbEntity
  8
0
 62
     0
 48
5.0
370
    -2
100
AcDbBlockReference
  2
_OPEN30
 10
571.8607889836398
 20
32.91893706025791
 30
0.0
 41
3.0
 42
3.0
 43
3.0
 50
180.0
  0
INSERT
  5
382D
330
37E8
100
AcDbEntity
  8
0
 62
     0
 48
5.0
370
    -2
100
AcDbBlockReference
  2
_OPEN30
 10
580.4264455492964
 20
32.91893706025791
 30
0.0
 41
3.0
 42
3.0
 43
3.0
  0
POINT
  5
382E
330
37E8
100
AcDbEntity
  8
DEFPOINTS
 62
     0
 48
5.0
100
AcDbPoint
 10
571.8607889836398
 20
50.5578581055804
 30
0.0
  0
POINT
  5
382F
330
37E8
100
AcDbEntity
  8
DEFPOINTS
 62
     0
 48
5.0
100
AcDbPoint
 10
580.4264455492964
 20
50.55785810558041
 30
0.0
  0
POINT
  5
3830
330
37E8
100
AcDbEntity
  8
DEFPOINTS
 62
     0
 48
5.0
100
AcDbPoint
 10
580.4264455492964
 20
32.91893706025791
 30
0.0
  0
ENDBLK
  5
37F4
330
37E8
100
AcDbEntity
  8
0
100
AcDbBlockEnd
  0
ENDSEC
  0
SECTION
  2
ENTITIES
  0
DIMENSION
  5
2EA5
330
1A
100
AcDbEntity
  8
0
 62
     0
 48
5.0
100
AcDbDimension
  2
*D6
 10
483.2018606333017
 20
32.89329059361771
 30
0.0
 11
364.5933483351392
 21
33.53608138763263
 31
0.0
 70
   160
  1
L[m]
 71
     5
 42
217.3666756265169
  3
STANDARD１
100
AcDbAlignedDimension
 13
265.8351850067848
 23
78.54296360930291
 33
0.0
 14
483.2018606333017
 24
78.54285810558039
 34
0.0
100
AcDbRotatedDimension
1001
ACAD
1000
DSTYLE
1002
{
1070
   140
1040
6.0
1070
   341
1005
0
1002
}
  0
CIRCLE
  5
2EA6
330
1A
100
AcDbEntity
  8
図
 62
     0
 48
5.0
100
AcDbCircle
 10
469.4195774011682
 20
124.5176136786774
 30
0.0
 40
5.0
  0
LEADER
  5
2EA7
330
1A
100
AcDbEntity
  8
図
 62
     0
 48
5.0
100
AcDbLeader
  3
STANDARD
 76
     2
 10
408.2520174735554
 20
88.12790407950936
 30
0.0
 10
422.4478070536138
 20
119.9093984551921
 30
0.0
1001
ACAD
1000
DSTYLE
1002
{
1070
    41
1040
3.0
1070
   341
1005
24E
1070
   340
1005
E6F
1002
}
  0
MTEXT
  5
2EA8
330
1A
100
AcDbEntity
  8
図
 62
     0
 48
5.0
100
AcDbMText
 10
413.4662983599177
 20
85.44593200501337
 30
0.0
 40
3.0
 41
45.09159421567491
 71
     5
 72
     5
  1
SC-A0JQC□M　806070
  7
CB
 73
     1
 44
1.0
1001
ACAD
1000
ACAD_MTEXT_DEFINED_HEIGHT_BEGIN
1070
    46
1040
5.108717315436604
1000
ACAD_MTEXT_DEFINED_HEIGHT_END
1000
MTEXTBEGIN
1070
    73
1070
     1
1070
    44
1040
1.0
1070
    74
1070
     0
1000
MTEXTEND
  0
MTEXT
  5
2EA9
330
1A
100
AcDbEntity
  8
図
 62
     0
 48
5.0
100
AcDbMText
 10
469.4195774011682
 20
124.5176136786774
 30
0.0
 40
5.0
 41
5.0
 71
     5
 72
     5
  1
3
  7
CB
 73
     1
 44
1.0
1001
ACAD
1000
MTEXTBEGIN
1070
    73
1070
     1
1070
    44
1040
1.0
1070
    74
1070
     0
1000
MTEXTEND
  0
CIRCLE
  5
2EAA
330
1A
100
AcDbEntity
  8
図
 62
     0
 48
5.0
100
AcDbCircle
 10
424.3880009753748
 20
124.5176136786774
 30
0.0
 40
5.0
  0
MTEXT
  5
2EAB
330
1A
100
AcDbEntity
  8
図
 62
     0
 48
5.0
100
AcDbMText
 10
424.3880009753748
 20
124.5176136786774
 30
0.0
 40
5.0
 41
5.0
 71
     5
 72
     5
  1
5
  7
CB
 73
     1
 44
1.0
1001
ACAD
1000
MTEXTBEGIN
1070
    73
1070
     1
1070
    44
1040
1.0
1070
    74
1070
     0
1000
MTEXTEND
  0
MTEXT
  5
2EAD
330
1A
100
AcDbEntity
  8
図
 62
     0
 48
5.0
100
AcDbMText
 10
511.986627687062
 20
155.2054998438286
 30
0.0
 40
5.0
 41
0.0
 71
     4
 72
     5
  1
シーケンサ側
  7
CB
 73
     1
 44
1.0
1001
ACAD
1000
MTEXTBEGIN
1070
    73
1070
     1
1070
    44
1040
1.0
1070
    74
1070
     0
1000
MTEXTEND
  0
LEADER
  5
2EAE
330
1A
100
AcDbEntity
  8
図
 62
     0
 48
5.0
100
AcDbLeader
  3
STANDARD
 76
     2
 10
221.7907152254193
 20
119.2982833560398
 30
0.0
 10
233.8245052528416
 20
136.2257963031239
 30
0.0
211
-1.0
221
0.0
231
0.0
210
0.0
220
0.0
230
-1.0
1001
ACAD
1000
DSTYLE
1002
{
1070
    41
1040
3.0
1070
   341
1005
24E
1070
   340
1005
E6F
1002
}
  0
CIRCLE
  5
2EAF
330
1A
100
AcDbEntity
  8
図
 62
     0
 48
5.0
100
AcDbCircle
 10
236.5733776583426
 20
140.4023619375028
 30
0.0
 40
5.0
  0
MTEXT
  5
2EB0
330
1A
100
AcDbEntity
  8
図
 62
     0
 48
5.0
100
AcDbMText
 10
236.5733776583426
 20
140.4023619375028
 30
0.0
 40
5.0
 41
5.0
 71
     5
 72
     5
  1
2
  7
CB
 73
     1
 44
1.0
1001
ACAD
1000
MTEXTBEGIN
1070
    73
1070
     1
1070
    44
1040
1.0
1070
    74
1070
     0
1000
MTEXTEND
  0
CIRCLE
  5
2EB3
330
1A
100
AcDbEntity
  8
図
 62
     0
 48
5.0
100
AcDbCircle
 10
515.3270589896938
 20
140.4023619375028
 30
0.0
 40
5.0
  0
MTEXT
  5
2EB4
330
1A
100
AcDbEntity
  8
図
 62
     0
 48
5.0
100
AcDbMText
 10
302.8965488028017
 20
124.5176136786774
 30
0.0
 40
5.0
 41
5.0
 71
     5
 72
     5
  1
6
  7
CB
 73
     1
 44
1.0
1001
ACAD
1000
MTEXTBEGIN
1070
    73
1070
     1
1070
    44
1040
1.0
1070
    74
1070
     0
1000
MTEXTEND
  0
CIRCLE
  5
2EB5
330
1A
100
AcDbEntity
  8
図
 62
     0
 48
5.0
100
AcDbCircle
 10
302.8965488028017
 20
124.5176136786774
 30
0.0
 40
5.0
  0
LINE
  5
2EB9
330
1A
100
AcDbEntity
  8
図
 62
     0
 48
5.0
100
AcDbLine
 10
339.2619537003263
 20
89.54796360930291
 30
0.0
 11
359.0658498601001
 21
89.54796360930291
 31
0.0
  0
LINE
  5
2EBA
330
1A
100
AcDbEntity
  8
図
 62
     0
 48
5.0
100
AcDbLine
 10
359.0658498601001
 20
81.04796360930292
 30
0.0
 11
339.2619537003263
 21
81.04796360930292
 31
0.0
  0
CIRCLE
  5
2EBB
330
1A
100
AcDbEntity
  8
図
 62
     0
 48
5.0
100
AcDbCircle
 10
446.1690735729261
 20
124.5176136786774
 30
0.0
 40
5.0
  0
MTEXT
  5
2EBC
330
1A
100
AcDbEntity
  8
図
 62
     0
 48
5.0
100
AcDbMText
 10
446.1690735729261
 20
124.5176136786774
 30
0.0
 40
5.0
 41
5.0
 71
     5
 72
     5
  1
4
  7
CB
 73
     1
 44
1.0
1001
ACAD
1000
MTEXTBEGIN
1070
    73
1070
     1
1070
    44
1040
1.0
1070
    74
1070
     0
1000
MTEXTEND
  0
MTEXT
  5
2EBD
330
1A
100
AcDbEntity
  8
図
 62
     0
 48
5.0
100
AcDbMText
 10
253.455332051228
 20
23.56385172977805
 30
0.0
 40
5.0
 41
396.1791206500712
 71
     1
 72
     5
  1
注）本ケーブルに規定する使用部材は、欧州RoHS指令に適合しております。  
  7
CB
 73
     1
 44
1.0
1001
ACAD
1000
ACAD_MTEXT_DEFINED_HEIGHT_BEGIN
1070
    46
1040
9.089034256486865
1000
ACAD_MTEXT_DEFINED_HEIGHT_END
1000
MTEXTBEGIN
1070
    73
1070
     1
1070
    44
1040
1.0
1070
    74
1070
     0
1000
MTEXTEND
  0
LINE
  5
2EBF
330
1A
100
AcDbEntity
  8
図
 62
     0
 48
5.0
100
AcDbLine
 10
390.9205012520803
 20
88.00029066273172
 30
0.0
 11
436.0120954677553
 21
88.00029066273172
 31
0.0
  0
LINE
  5
2EC0
330
1A
100
AcDbEntity
  8
図
 62
     0
 48
5.0
100
AcDbLine
 10
436.0120954677553
 20
82.89157334729507
 30
0.0
 11
390.9205012520803
 21
82.89157334729512
 31
0.0
  0
LINE
  5
2EC1
330
1A
100
AcDbEntity
  8
図
 62
     0
 48
5.0
100
AcDbLine
 10
390.9205012520803
 20
82.89157334729512
 30
0.0
 11
390.9205012520803
 21
88.00029066273172
 31
0.0
  0
LINE
  5
2EC2
330
1A
100
AcDbEntity
  8
図
 62
     0
 48
5.0
100
AcDbLine
 10
295.8351850067848
 20
90.05317461674783
 30
0.0
 11
295.8351850067848
 21
80.54296360930292
 31
0.0
  0
LINE
  5
2EC3
330
1A
100
AcDbEntity
  8
図
 62
     0
 48
5.0
100
AcDbLine
 10
295.8351850067848
 20
80.54296360930292
 30
0.0
 11
295.8351850067848
 21
80.54296360930292
 31
0.0
  0
LINE
  5
2EC4
330
1A
100
AcDbEntity
  8
図
 62
     0
 48
5.0
100
AcDbLine
 10
295.8351850067848
 20
78.54296360930291
 30
0.0
 11
263.094361379038
 21
78.54296360930286
 31
0.0
  0
ARC
  5
2EC5
330
1A
100
AcDbEntity
  8
図
 62
     0
 48
5.0
100
AcDbCircle
 10
263.094361379038
 20
79.04296360930286
 30
0.0
 40
0.5
100
AcDbArc
 50
180.0
 51
270.0
  0
LINE
  5
2EC6
330
1A
100
AcDbEntity
  8
図
  6
Continuous
 62
     0
100
AcDbLine
 10
453.2018606333017
 20
89.54796360930291
 30
0.0
 11
453.2018606333017
 21
81.04796360930292
 31
0.0
  0
LINE
  5
2EC7
330
1A
100
AcDbEntity
  8
0
  6
Continuous
 62
     0
100
AcDbLine
 10
190.3953023944402
 20
86.49828035603983
 30
0.0
 11
190.8953023944402
 21
86.49828035603983
 31
0.0
  0
LINE
  5
2EC8
330
1A
100
AcDbEntity
  8
0
  6
Continuous
 62
     0
100
AcDbLine
 10
190.8953023944402
 20
86.49828035603983
 30
0.0
 11
190.8953023944402
 21
84.0982821560398
 31
0.0
  0
LINE
  5
2EC9
330
1A
100
AcDbEntity
  8
0
  6
Continuous
 62
     0
100
AcDbLine
 10
190.3953023944402
 20
84.0982821560398
 30
0.0
 11
190.8953023944402
 21
84.0982821560398
 31
0.0
  0
LINE
  5
2ECA
330
1A
100
AcDbEntity
  8
0
  6
Continuous
 62
     0
100
AcDbLine
 10
190.3953023944402
 20
83.59828120603983
 30
0.0
 11
191.3953023944402
 21
83.59828120603983
 31
0.0
  0
LINE
  5
2ECB
330
1A
100
AcDbEntity
  8
0
  6
Continuous
 62
     0
100
AcDbLine
 10
190.3953023944402
 20
86.99828120603982
 30
0.0
 11
191.3953023944402
 21
86.99828120603982
 31
0.0
  0
LINE
  5
2ECC
330
1A
100
AcDbEntity
  8
図
 62
     0
 48
5.0
100
AcDbLine
 10
184.2950783944402
 20
51.29827905603986
 30
0.0
 11
184.2950783944402
 21
119.2982790560398
 31
0.0
  0
LINE
  5
2ECD
330
1A
100
AcDbEntity
  8
0
  6
Continuous
 62
     0
100
AcDbLine
 10
185.4700773944402
 20
53.04837825603982
 30
0.0
 11
189.2202763944402
 21
53.04837825603982
 31
0.0
  0
LINE
  5
2ECE
330
1A
100
AcDbEntity
  8
0
  6
Continuous
 62
     0
100
AcDbLine
 10
186.0950773944401
 20
51.64827755603988
 30
0.0
 11
186.0950773944401
 21
52.74837515603985
 31
0.0
  0
LINE
  5
2ECF
330
1A
100
AcDbEntity
  8
0
  6
Continuous
 62
     0
100
AcDbLine
 10
188.5952763944402
 20
51.94827675603988
 30
0.0
 11
188.5952763944402
 21
52.74837515603985
 31
0.0
  0
LINE
  5
2ED0
330
1A
100
AcDbEntity
  8
0
  6
Continuous
 62
     0
100
AcDbLine
 10
187.2950743944402
 20
51.64827755603988
 30
0.0
 11
187.2950743944402
 21
52.74837515603985
 31
0.0
  0
LINE
  5
2ED1
330
1A
100
AcDbEntity
  8
0
  6
Continuous
 62
     0
100
AcDbLine
 10
185.4700773944402
 20
52.74837515603985
 30
0.0
 11
189.2202763944402
 21
52.74837515603985
 31
0.0
  0
LINE
  5
2ED2
330
1A
100
AcDbEntity
  8
0
  6
Continuous
 62
     0
100
AcDbLine
 10
188.6703263944402
 20
51.29877495603984
 30
0.0
 11
188.6703263944402
 21
52.74837515603985
 31
0.0
  0
LINE
  5
2ED3
330
1A
100
AcDbEntity
  8
0
  6
Continuous
 62
     0
100
AcDbLine
 10
185.4700773944402
 20
51.29877495603984
 30
0.0
 11
185.4700773944402
 21
53.04837825603982
 31
0.0
  0
LINE
  5
2ED4
330
1A
100
AcDbEntity
  8
0
  6
Continuous
 62
     0
100
AcDbLine
 10
189.2202763944402
 20
51.29877495603984
 30
0.0
 11
189.2202763944402
 21
53.04837825603982
 31
0.0
  0
LINE
  5
2ED5
330
1A
100
AcDbEntity
  8
0
  6
Continuous
 62
     0
100
AcDbLine
 10
187.3950773944402
 20
51.94827675603988
 30
0.0
 11
187.3950773944402
 21
52.74837515603985
 31
0.0
  0
LINE
  5
2ED6
330
1A
100
AcDbEntity
  8
0
  6
Continuous
 62
     0
100
AcDbLine
 10
188.5952763944402
 20
51.94827675603988
 30
0.0
 11
187.3950773944402
 21
51.94827675603988
 31
0.0
  0
LINE
  5
2ED7
330
1A
100
AcDbEntity
  8
0
  6
Continuous
 62
     0
100
AcDbLine
 10
187.2950743944402
 20
51.64827755603988
 30
0.0
 11
186.0950773944401
 21
51.64827755603988
 31
0.0
  0
LINE
  5
2ED8
330
1A
100
AcDbEntity
  8
0
  6
Continuous
 62
     0
100
AcDbLine
 10
184.2950783944402
 20
53.34837745603983
 30
0.0
 11
184.9450763944402
 21
53.34837745603983
 31
0.0
  0
LINE
  5
2ED9
330
1A
100
AcDbEntity
  8
0
  6
Continuous
 62
     0
100
AcDbLine
 10
189.8452763944402
 20
53.34837745603983
 30
0.0
 11
190.3953253944402
 21
53.34837745603983
 31
0.0
  0
LINE
  5
2EDA
330
1A
100
AcDbEntity
  8
0
  6
Continuous
 62
     0
100
AcDbLine
 10
190.3952793944402
 20
51.29827905603986
 30
0.0
 11
189.7202763944402
 21
51.29827905603986
 31
0.0
  0
LINE
  5
2EDB
330
1A
100
AcDbEntity
  8
0
  6
Continuous
 62
     0
100
AcDbLine
 10
184.9700773944402
 20
51.29827905603986
 30
0.0
 11
184.2950783944402
 21
51.29827905603986
 31
0.0
  0
LINE
  5
2EDC
330
1A
100
AcDbEntity
  8
0
  6
Continuous
 62
     0
100
AcDbLine
 10
184.2950783944402
 20
51.29827905603986
 30
0.0
 11
190.3953253944402
 21
51.29827905603986
 31
0.0
  0
LINE
  5
2EDD
330
1A
100
AcDbEntity
  8
0
  6
Continuous
 62
     0
100
AcDbLine
 10
184.2950783944402
 20
51.29827905603986
 30
0.0
 11
184.2950783944402
 21
53.34837745603983
 31
0.0
  0
LINE
  5
2EDE
330
1A
100
AcDbEntity
  8
0
  6
Continuous
 62
     0
100
AcDbLine
 10
190.1952783944402
 20
53.34842705603984
 30
0.0
 11
190.3952793944402
 21
53.34842705603984
 31
0.0
  0
LINE
  5
2EDF
330
1A
100
AcDbEntity
  8
0
  6
Continuous
 62
     0
100
AcDbLine
 10
189.7202763944402
 20
119.2982790560398
 30
0.0
 11
190.3952793944402
 21
119.2982790560398
 31
0.0
  0
LINE
  5
2EE0
330
1A
100
AcDbEntity
  8
0
  6
Continuous
 62
     0
100
AcDbLine
 10
189.2202763944402
 20
117.5482720560397
 30
0.0
 11
185.4700773944402
 21
117.5482720560397
 31
0.0
  0
LINE
  5
2EE1
330
1A
100
AcDbEntity
  8
0
  6
Continuous
 62
     0
100
AcDbLine
 10
186.0950773944402
 20
118.1481560560398
 30
0.0
 11
186.0200773944402
 21
118.1481560560398
 31
0.0
  0
LINE
  5
2EE2
330
1A
100
AcDbEntity
  8
0
  6
Continuous
 62
     0
100
AcDbLine
 10
187.3950773944402
 20
118.1481560560398
 30
0.0
 11
187.2950743944403
 21
118.1481560560398
 31
0.0
  0
LINE
  5
2EE3
330
1A
100
AcDbEntity
  8
0
  6
Continuous
 62
     0
100
AcDbLine
 10
187.3950773944402
 20
118.9483040560398
 30
0.0
 11
188.5952763944402
 21
118.9483040560398
 31
0.0
  0
LINE
  5
2EE4
330
1A
100
AcDbEntity
  8
0
  6
Continuous
 62
     0
100
AcDbLine
 10
186.0950773944402
 20
118.6482940560398
 30
0.0
 11
187.2950743944403
 21
118.6482940560398
 31
0.0
  0
LINE
  5
2EE5
330
1A
100
AcDbEntity
  8
0
  6
Continuous
 62
     0
100
AcDbLine
 10
188.5952763944402
 20
118.9483040560398
 30
0.0
 11
188.5952763944402
 21
117.8482750560398
 31
0.0
  0
LINE
  5
2EE6
330
1A
100
AcDbEntity
  8
0
  6
Continuous
 62
     0
100
AcDbLine
 10
184.2950783944402
 20
119.2982790560398
 30
0.0
 11
184.9700773944402
 21
119.2982790560398
 31
0.0
  0
LINE
  5
2EE7
330
1A
100
AcDbEntity
  8
0
  6
Continuous
 62
     0
100
AcDbLine
 10
186.0950773944402
 20
118.6482940560398
 30
0.0
 11
186.0950773944402
 21
117.8482750560398
 31
0.0
  0
LINE
  5
2EE8
330
1A
100
AcDbEntity
  8
0
  6
Continuous
 62
     0
100
AcDbLine
 10
187.2950743944403
 20
118.6482940560398
 30
0.0
 11
187.2950743944403
 21
117.8482750560398
 31
0.0
  0
LINE
  5
2EE9
330
1A
100
AcDbEntity
  8
0
  6
Continuous
 62
     0
100
AcDbLine
 10
187.3950773944402
 20
118.9483040560398
 30
0.0
 11
187.3950773944402
 21
117.8482750560398
 31
0.0
  0
LINE
  5
2EEA
330
1A
100
AcDbEntity
  8
0
  6
Continuous
 62
     0
100
AcDbLine
 10
190.3953253944402
 20
117.2482230560398
 30
0.0
 11
189.8452763944402
 21
117.2482230560398
 31
0.0
  0
LINE
  5
2EEB
330
1A
100
AcDbEntity
  8
0
  6
Continuous
 62
     0
100
AcDbLine
 10
184.9450763944402
 20
117.2482230560398
 30
0.0
 11
184.2950783944402
 21
117.2482230560398
 31
0.0
  0
LINE
  5
2EEC
330
1A
100
AcDbEntity
  8
0
  6
Continuous
 62
     0
100
AcDbLine
 10
189.2202763944402
 20
117.8482750560398
 30
0.0
 11
185.4700773944402
 21
117.8482750560398
 31
0.0
  0
LINE
  5
2EED
330
1A
100
AcDbEntity
  8
0
  6
Continuous
 62
     0
100
AcDbLine
 10
188.6703263944403
 20
118.1481560560398
 30
0.0
 11
188.5952763944402
 21
118.1481560560398
 31
0.0
  0
LINE
  5
2EEE
330
1A
100
AcDbEntity
  8
0
  6
Continuous
 62
     0
100
AcDbLine
 10
186.0200773944402
 20
117.8482750560398
 30
0.0
 11
186.0200773944402
 21
119.2981030560398
 31
0.0
  0
LINE
  5
2EEF
330
1A
100
AcDbEntity
  8
0
  6
Continuous
 62
     0
100
AcDbLine
 10
188.6703263944403
 20
117.8482750560398
 30
0.0
 11
188.6703263944403
 21
119.2981030560398
 31
0.0
  0
LINE
  5
2EF0
330
1A
100
AcDbEntity
  8
0
  6
Continuous
 62
     0
100
AcDbLine
 10
185.4700773944402
 20
117.5482720560397
 30
0.0
 11
185.4700773944402
 21
119.2981030560398
 31
0.0
  0
LINE
  5
2EF1
330
1A
100
AcDbEntity
  8
0
  6
Continuous
 62
     0
100
AcDbLine
 10
189.2202763944402
 20
117.5482720560397
 30
0.0
 11
189.2202763944402
 21
119.2981030560398
 31
0.0
  0
LINE
  5
2EF2
330
1A
100
AcDbEntity
  8
0
  6
Continuous
 62
     0
100
AcDbLine
 10
184.2950783944402
 20
117.2482230560398
 30
0.0
 11
184.2950783944402
 21
119.2981030560398
 31
0.0
  0
LINE
  5
2EF3
330
1A
100
AcDbEntity
  8
0
  6
Continuous
 62
     0
100
AcDbLine
 10
190.3953253944402
 20
119.2981030560398
 30
0.0
 11
184.2950783944402
 21
119.2981030560398
 31
0.0
  0
LINE
  5
2EF4
330
1A
100
AcDbEntity
  8
図
 62
     0
 48
5.0
100
AcDbLine
 10
190.3953253944402
 20
51.29827905603986
 30
0.0
 11
190.3952793944402
 21
119.2982790560398
 31
0.0
  0
LINE
  5
2EF5
330
1A
100
AcDbEntity
  8
図
 62
     0
 48
5.0
100
AcDbLine
 10
189.8452763944402
 20
117.2482230560398
 30
0.0
 11
189.8452763944402
 21
53.34837745603983
 31
0.0
  0
LINE
  5
2EF6
330
1A
100
AcDbEntity
  8
図
 62
     0
 48
5.0
100
AcDbLine
 10
184.9450763944402
 20
53.34837745603983
 30
0.0
 11
184.9450763944402
 21
117.2482230560398
 31
0.0
  0
LINE
  5
2EF7
330
1A
100
AcDbEntity
  8
図
 62
     0
 48
5.0
100
AcDbLine
 10
191.3953023944402
 20
83.59828120603983
 30
0.0
 11
191.3953023944402
 21
86.99828120603982
 31
0.0
  0
LINE
  5
2EF8
330
1A
100
AcDbEntity
  8
0
  6
Continuous
 62
     0
100
AcDbLine
 10
219.7243738436818
 20
114.8243339360398
 30
0.0
 11
219.7243738436818
 21
116.6719329660398
 31
0.0
  0
LINE
  5
2EF9
330
1A
100
AcDbEntity
  8
0
  6
Continuous
 62
     0
100
AcDbLine
 10
213.6243863136818
 20
119.2982614560399
 30
0.0
 11
213.1243853858648
 21
118.9982617560398
 31
0.0
  0
LINE
  5
2EFA
330
1A
100
AcDbEntity
  8
0
  6
Continuous
 62
     0
100
AcDbLine
 10
219.7243738436818
 20
53.34828535603986
 30
0.0
 11
219.7243738436818
 21
51.29828335603986
 31
0.0
  0
LINE
  5
2EFB
330
1A
100
AcDbEntity
  8
0
  6
Continuous
 62
     0
100
AcDbLine
 10
213.6243734436818
 20
51.29828335603986
 30
0.0
 11
223.7243734436818
 21
51.29828335603986
 31
0.0
  0
LINE
  5
2EFC
330
1A
100
AcDbEntity
  8
0
  6
Continuous
 62
     0
100
AcDbLine
 10
213.1243734436818
 20
52.44829135603987
 30
0.0
 11
213.1243734436818
 21
51.59827735603989
 31
0.0
  0
LINE
  5
2EFD
330
1A
100
AcDbEntity
  8
0
  6
Continuous
 62
     0
100
AcDbLine
 10
223.7243734436818
 20
119.2982833560398
 30
0.0
 11
223.7243734436818
 21
102.0381849560398
 31
0.0
  0
LINE
  5
2EFE
330
1A
100
AcDbEntity
  8
0
  6
Continuous
 62
     0
100
AcDbLine
 10
213.1243734436818
 20
118.9982841560399
 30
0.0
 11
213.1243734436818
 21
118.1482856560398
 31
0.0
  0
LINE
  5
2EFF
330
1A
100
AcDbEntity
  8
0
  6
Continuous
 62
     0
100
AcDbLine
 10
223.7243734436818
 20
119.2982833560398
 30
0.0
 11
213.6243734436818
 21
119.2982833560398
 31
0.0
  0
LINE
  5
2F00
330
1A
100
AcDbEntity
  8
0
  6
Continuous
 62
     0
100
AcDbLine
 10
219.7243738436818
 20
119.2982833560398
 30
0.0
 11
219.7243738436818
 21
117.2481353560398
 31
0.0
  0
LINE
  5
2F01
330
1A
100
AcDbEntity
  8
0
  6
Continuous
 62
     0
100
AcDbLine
 10
213.6243863136818
 20
119.2982614560399
 30
0.0
 11
213.1243853858648
 21
118.9982617560398
 31
0.0
  0
LINE
  5
2F02
330
1A
100
AcDbEntity
  8
0
  6
Continuous
 62
     0
100
AcDbLine
 10
213.1244103850538
 20
51.59836935603988
 30
0.0
 11
213.6244139736818
 21
51.29836735603987
 31
0.0
  0
LINE
  5
2F03
330
1A
100
AcDbEntity
  8
0
  6
Continuous
 62
     0
100
AcDbLine
 10
219.7243738436818
 20
51.29836735603987
 30
0.0
 11
213.6243734436818
 21
51.29836735603987
 31
0.0
  0
LINE
  5
2F04
330
1A
100
AcDbEntity
  8
0
  6
Continuous
 62
     0
100
AcDbLine
 10
213.1243734436818
 20
118.9982841560399
 30
0.0
 11
213.1243734436818
 21
52.44829135603987
 31
0.0
  0
LINE
  5
2F05
330
1A
100
AcDbEntity
  8
0
  6
Continuous
 62
     0
100
AcDbLine
 10
219.7243738436818
 20
119.2982833560398
 30
0.0
 11
219.7243738436818
 21
53.34828535603986
 31
0.0
  0
LINE
  5
2F06
330
1A
100
AcDbEntity
  8
0
  6
Continuous
 62
     0
100
AcDbLine
 10
219.7243738436818
 20
119.2982833560398
 30
0.0
 11
213.6243734436818
 21
119.2982833560398
 31
0.0
  0
LINE
  5
2F07
330
1A
100
AcDbEntity
  8
0
  6
Continuous
 62
     0
100
AcDbLine
 10
213.6243533836818
 20
51.29845835603987
 30
0.0
 11
213.1244023995138
 21
51.59845935603988
 31
0.0
  0
LINE
  5
2F08
330
1A
100
AcDbEntity
  8
0
  6
Continuous
 62
     0
100
AcDbLine
 10
219.7244753436818
 20
114.8243851960399
 30
0.0
 11
219.7244258436818
 21
116.6719346360398
 31
0.0
  0
LINE
  5
2F09
330
1A
100
AcDbEntity
  8
0
  6
Continuous
 62
     0
100
AcDbLine
 10
216.1243734436818
 20
86.99828120603982
 30
0.0
 11
213.1243734436818
 21
86.99828120603982
 31
0.0
  0
LINE
  5
2F0A
330
1A
100
AcDbEntity
  8
図
 62
     0
 48
5.0
100
AcDbLine
 10
223.7243734436818
 20
119.2982833560398
 30
0.0
 11
223.7243734436818
 21
51.29828335603986
 31
0.0
  0
LINE
  5
2F0B
330
1A
100
AcDbEntity
  8
図
 62
     0
 48
5.0
100
AcDbLine
 10
213.1243734436818
 20
87.42328775603985
 30
0.0
 11
213.1243734436818
 21
84.02328775603988
 31
0.0
  0
LINE
  5
2F0C
330
1A
100
AcDbEntity
  8
図
 62
     0
 48
5.0
100
AcDbLine
 10
216.1243734436818
 20
86.99828120603982
 30
0.0
 11
216.1243734436818
 21
83.59828120603983
 31
0.0
  0
LINE
  5
2F0D
330
1A
100
AcDbEntity
  8
図
 62
     0
 48
5.0
100
AcDbLine
 10
216.1243734436818
 20
83.59828120603983
 30
0.0
 11
213.1243734436818
 21
83.59828120603983
 31
0.0
  0
LINE
  5
2F0E
330
1A
100
AcDbEntity
  8
図
 62
     0
 48
5.0
100
AcDbLine
 10
223.7243734436818
 20
119.2982833560398
 30
0.0
 11
227.6243734436818
 21
119.2982833560398
 31
0.0
  0
LINE
  5
2F0F
330
1A
100
AcDbEntity
  8
図
 62
     0
 48
5.0
100
AcDbLine
 10
229.5243734436818
 20
117.2481353560398
 30
0.0
 11
229.5243734436818
 21
53.34842488490074
 31
0.0
  0
LINE
  5
2F10
330
1A
100
AcDbEntity
  8
図
 62
     0
 48
5.0
100
AcDbLine
 10
223.7243734436818
 20
117.2481353560398
 30
0.0
 11
227.6243734436818
 21
117.2481353560398
 31
0.0
  0
LINE
  5
2F11
330
1A
100
AcDbEntity
  8
図
 62
     0
 48
5.0
100
AcDbLine
 10
227.6243734436818
 20
119.2982833560398
 30
0.0
 11
227.6243734436818
 21
119.2982833560398
 31
0.0
  0
LINE
  5
2F12
330
1A
100
AcDbEntity
  8
図
 62
     0
 48
5.0
100
AcDbLine
 10
227.6243734436818
 20
119.2982833560398
 30
0.0
 11
227.6243734436818
 21
117.2481353560398
 31
0.0
  0
LINE
  5
2F13
330
1A
100
AcDbEntity
  8
図
 62
     0
 48
5.0
100
AcDbLine
 10
227.6243734436818
 20
118.2732093560398
 30
0.0
 11
229.5243734436818
 21
117.2481353560398
 31
0.0
  0
LINE
  5
2F14
330
1A
100
AcDbEntity
  8
図
 62
     0
 48
5.0
100
AcDbLine
 10
223.7243926805239
 20
51.29828335604532
 30
0.0
 11
227.6243926805233
 21
51.29828556262424
 31
0.0
  0
LINE
  5
2F15
330
1A
100
AcDbEntity
  8
図
 62
     0
 48
5.0
100
AcDbLine
 10
223.7243915205717
 20
53.34843135604495
 30
0.0
 11
227.6243915205712
 21
53.34843356262394
 31
0.0
  0
LINE
  5
2F16
330
1A
100
AcDbEntity
  8
図
 62
     0
 48
5.0
100
AcDbLine
 10
227.6243926805233
 20
51.29828556262424
 30
0.0
 11
227.6243926805233
 21
51.29828556262424
 31
0.0
  0
LINE
  5
2F17
330
1A
100
AcDbEntity
  8
図
 62
     0
 48
5.0
100
AcDbLine
 10
227.6243926805233
 20
51.29828556262424
 30
0.0
 11
227.6243915205712
 21
53.34843356262394
 31
0.0
  0
LINE
  5
2F18
330
1A
100
AcDbEntity
  8
図
 62
     0
 48
5.0
100
AcDbLine
 10
227.6243921005472
 20
52.32335956262409
 30
0.0
 11
229.5243915205709
 21
53.34843463762394
 31
0.0
  0
LINE
  5
2F19
330
1A
100
AcDbEntity
  8
図
 62
     0
 48
5.0
100
AcDbLine
 10
227.6243734436818
 20
117.2481353560398
 30
0.0
 11
223.7243734436818
 21
117.2481353560398
 31
0.0
  0
LINE
  5
2F1A
330
1A
100
AcDbEntity
  8
図
 62
     0
 48
5.0
100
AcDbLine
 10
224.8642051112533
 20
117.2481353560398
 30
0.0
 11
224.8642051112533
 21
53.34843200093951
 31
0.0
  0
LINE
  5
2F1B
330
1A
100
AcDbEntity
  8
図
 62
     0
 48
5.0
100
AcDbLine
 10
229.5243734436818
 20
116.4132801204703
 30
0.0
 11
229.5243734436818
 21
54.18328012047033
 31
0.0
  0
LINE
  5
2F1C
330
1A
100
AcDbEntity
  8
図
 62
     0
 48
5.0
100
AcDbLine
 10
229.5243734436819
 20
116.4131746167478
 30
0.0
 11
241.199730576351
 21
116.4131746167478
 31
0.0
  0
LINE
  5
2F1D
330
1A
100
AcDbEntity
  8
図
 62
     0
 48
5.0
100
AcDbLine
 10
229.5243734436818
 20
54.18317461674786
 30
0.0
 11
241.199730576351
 21
54.18317461674783
 31
0.0
  0
LINE
  5
2F1E
330
1A
100
AcDbEntity
  8
図
  6
HIDDEN
 62
     0
 48
0.3
100
AcDbLine
 10
265.8351850067848
 20
89.54796360930291
 30
0.0
 11
265.8351850067848
 21
81.04796360930292
 31
0.0
  0
LINE
  5
2F1F
330
1A
100
AcDbEntity
  8
図
 62
     0
 48
5.0
100
AcDbLine
 10
295.8351850067848
 20
89.54796360930291
 30
0.0
 11
397.2377422776554
 21
89.54796360930291
 31
0.0
  0
LINE
  5
2F20
330
1A
100
AcDbEntity
  8
図
 62
     0
 48
5.0
100
AcDbLine
 10
397.2377422776554
 20
89.54796360930291
 30
0.0
 11
453.2018606333017
 21
89.54785810558044
 31
0.0
  0
LINE
  5
2F21
330
1A
100
AcDbEntity
  8
図
 62
     0
 48
5.0
100
AcDbLine
 10
295.8351850067848
 20
81.04796360930292
 30
0.0
 11
400.8560880939729
 21
81.04796360930292
 31
0.0
  0
LINE
  5
2F22
330
1A
100
AcDbEntity
  8
図
 62
     0
 48
5.0
100
AcDbLine
 10
400.8560880939729
 20
81.04796360930292
 30
0.0
 11
419.5470567487753
 21
81.04796360930292
 31
0.0
  0
LINE
  5
2F23
330
1A
100
AcDbEntity
  8
図
  6
HIDDEN
 62
     0
 48
0.3
100
AcDbLine
 10
265.8351850067848
 20
89.29796360930291
 30
0.0
 11
265.8351850067848
 21
81.2979636093029
 31
0.0
  0
LINE
  5
2F24
330
1A
100
AcDbEntity
  8
図
 62
     0
 48
5.0
100
AcDbLine
 10
262.0942647571454
 20
89.29817461674778
 30
0.0
 11
258.141428330652
 21
89.29817461674785
 31
0.0
  0
LINE
  5
2F25
330
1A
100
AcDbEntity
  8
図
 62
     0
 48
5.0
100
AcDbLine
 10
262.094361379038
 20
81.29817461674784
 30
0.0
 11
258.141428330652
 21
81.29817461674784
 31
0.0
  0
LINE
  5
2F26
330
1A
100
AcDbEntity
  8
図
 62
     0
 48
5.0
100
AcDbLine
 10
229.5243734436818
 20
116.4132801204703
 30
0.0
 11
229.5243734436818
 21
115.1432801204703
 31
0.0
  0
LINE
  5
2F27
330
1A
100
AcDbEntity
  8
図
 62
     0
 48
5.0
100
AcDbLine
 10
229.5243734436819
 20
115.1431746167478
 30
0.0
 11
241.199730576351
 21
115.1431746167478
 31
0.0
  0
LINE
  5
2F28
330
1A
100
AcDbEntity
  8
図
 62
     0
 48
5.0
100
AcDbLine
 10
229.5243734436819
 20
113.8731746167477
 30
0.0
 11
241.199730576351
 21
113.8731746167477
 31
0.0
  0
LINE
  5
2F29
330
1A
100
AcDbEntity
  8
図
 62
     0
 48
5.0
100
AcDbLine
 10
229.5243734436819
 20
112.6031746167478
 30
0.0
 11
241.199730576351
 21
112.6031746167478
 31
0.0
  0
LINE
  5
2F2A
330
1A
100
AcDbEntity
  8
図
 62
     0
 48
5.0
100
AcDbLine
 10
229.5243734436819
 20
111.3331746167478
 30
0.0
 11
241.199730576351
 21
111.3331746167478
 31
0.0
  0
LINE
  5
2F2B
330
1A
100
AcDbEntity
  8
図
 62
     0
 48
5.0
100
AcDbLine
 10
229.5243734436818
 20
110.0631746167478
 30
0.0
 11
241.199730576351
 21
110.0631746167477
 31
0.0
  0
LINE
  5
2F2C
330
1A
100
AcDbEntity
  8
図
 62
     0
 48
5.0
100
AcDbLine
 10
229.5243734436818
 20
108.7931746167478
 30
0.0
 11
241.199730576351
 21
108.7931746167477
 31
0.0
  0
LINE
  5
2F2D
330
1A
100
AcDbEntity
  8
図
 62
     0
 48
5.0
100
AcDbLine
 10
229.5243734436818
 20
107.5231746167477
 30
0.0
 11
241.199730576351
 21
107.5231746167477
 31
0.0
  0
LINE
  5
2F2E
330
1A
100
AcDbEntity
  8
図
 62
     0
 48
5.0
100
AcDbLine
 10
229.5243734436818
 20
106.2531746167477
 30
0.0
 11
241.199730576351
 21
106.2531746167477
 31
0.0
  0
LINE
  5
2F2F
330
1A
100
AcDbEntity
  8
図
 62
     0
 48
5.0
100
AcDbLine
 10
229.5243734436818
 20
104.9831746167477
 30
0.0
 11
241.199730576351
 21
104.9831746167477
 31
0.0
  0
LINE
  5
2F30
330
1A
100
AcDbEntity
  8
図
 62
     0
 48
5.0
100
AcDbLine
 10
229.5243734436818
 20
103.7131746167476
 30
0.0
 11
241.199730576351
 21
103.7131746167476
 31
0.0
  0
LINE
  5
2F31
330
1A
100
AcDbEntity
  8
図
 62
     0
 48
5.0
100
AcDbLine
 10
229.5243734436818
 20
102.4431746167477
 30
0.0
 11
241.199730576351
 21
102.4431746167477
 31
0.0
  0
LINE
  5
2F32
330
1A
100
AcDbEntity
  8
図
 62
     0
 48
5.0
100
AcDbLine
 10
229.5243734436818
 20
101.1731746167477
 30
0.0
 11
241.199730576351
 21
101.1731746167477
 31
0.0
  0
LINE
  5
2F33
330
1A
100
AcDbEntity
  8
図
 62
     0
 48
5.0
100
AcDbLine
 10
229.5243734436818
 20
99.90317461674775
 30
0.0
 11
241.199730576351
 21
99.9031746167477
 31
0.0
  0
LINE
  5
2F34
330
1A
100
AcDbEntity
  8
図
 62
     0
 48
5.0
100
AcDbLine
 10
229.5243734436818
 20
98.63317461674771
 30
0.0
 11
241.199730576351
 21
98.63317461674766
 31
0.0
  0
LINE
  5
2F35
330
1A
100
AcDbEntity
  8
図
 62
     0
 48
5.0
100
AcDbLine
 10
229.5243734436818
 20
97.36317461674767
 30
0.0
 11
241.199730576351
 21
97.36317461674767
 31
0.0
  0
LINE
  5
2F36
330
1A
100
AcDbEntity
  8
図
 62
     0
 48
5.0
100
AcDbLine
 10
229.5243734436818
 20
96.0931746167477
 30
0.0
 11
241.199730576351
 21
96.0931746167477
 31
0.0
  0
LINE
  5
2F37
330
1A
100
AcDbEntity
  8
図
 62
     0
 48
5.0
100
AcDbLine
 10
229.5243734436818
 20
94.82317461674771
 30
0.0
 11
241.199730576351
 21
94.82317461674766
 31
0.0
  0
LINE
  5
2F38
330
1A
100
AcDbEntity
  8
図
 62
     0
 48
5.0
100
AcDbLine
 10
229.5243734436818
 20
93.55317461674767
 30
0.0
 11
241.1997305763509
 21
93.55317461674761
 31
0.0
  0
LINE
  5
2F39
330
1A
100
AcDbEntity
  8
図
 62
     0
 48
5.0
100
AcDbLine
 10
229.5243734436818
 20
92.28317461674762
 30
0.0
 11
241.199730576351
 21
92.28317461674762
 31
0.0
  0
LINE
  5
2F3A
330
1A
100
AcDbEntity
  8
図
 62
     0
 48
5.0
100
AcDbLine
 10
229.5243734436818
 20
91.01317461674765
 30
0.0
 11
241.199730576351
 21
91.01317461674765
 31
0.0
  0
LINE
  5
2F3B
330
1A
100
AcDbEntity
  8
図
 62
     0
 48
5.0
100
AcDbLine
 10
229.5243734436818
 20
89.74317461674766
 30
0.0
 11
241.199730576351
 21
89.74317461674761
 31
0.0
  0
LINE
  5
2F3C
330
1A
100
AcDbEntity
  8
図
 62
     0
 48
5.0
100
AcDbLine
 10
229.5243734436818
 20
88.47317461674762
 30
0.0
 11
241.1997305763509
 21
88.47317461674757
 31
0.0
  0
LINE
  5
2F3D
330
1A
100
AcDbEntity
  8
図
 62
     0
 48
5.0
100
AcDbLine
 10
229.5243734436818
 20
87.20317461674758
 30
0.0
 11
241.199730576351
 21
87.20317461674758
 31
0.0
  0
LINE
  5
2F3E
330
1A
100
AcDbEntity
  8
図
 62
     0
 48
5.0
100
AcDbLine
 10
229.5243734436818
 20
85.93317461674761
 30
0.0
 11
241.199730576351
 21
85.93317461674761
 31
0.0
  0
LINE
  5
2F3F
330
1A
100
AcDbEntity
  8
図
 62
     0
 48
5.0
100
AcDbLine
 10
229.5243734436818
 20
84.66317461674757
 30
0.0
 11
241.199730576351
 21
84.66317461674757
 31
0.0
  0
LINE
  5
2F40
330
1A
100
AcDbEntity
  8
図
 62
     0
 48
5.0
100
AcDbLine
 10
229.5243734436818
 20
83.39317461674758
 30
0.0
 11
241.199730576351
 21
83.39317461674752
 31
0.0
  0
LINE
  5
2F41
330
1A
100
AcDbEntity
  8
図
 62
     0
 48
5.0
100
AcDbLine
 10
229.5243734436818
 20
82.12317461674755
 30
0.0
 11
241.199730576351
 21
82.12317461674755
 31
0.0
  0
LINE
  5
2F42
330
1A
100
AcDbEntity
  8
図
 62
     0
 48
5.0
100
AcDbLine
 10
229.5243734436818
 20
80.85317461674756
 30
0.0
 11
241.199730576351
 21
80.85317461674756
 31
0.0
  0
LINE
  5
2F43
330
1A
100
AcDbEntity
  8
図
 62
     0
 48
5.0
100
AcDbLine
 10
229.5243734436818
 20
79.58317461674752
 30
0.0
 11
241.199730576351
 21
79.58317461674752
 31
0.0
  0
LINE
  5
2F44
330
1A
100
AcDbEntity
  8
図
 62
     0
 48
5.0
100
AcDbLine
 10
229.5243734436818
 20
78.31317461674754
 30
0.0
 11
241.199730576351
 21
78.31317461674749
 31
0.0
  0
LINE
  5
2F45
330
1A
100
AcDbEntity
  8
図
 62
     0
 48
5.0
100
AcDbLine
 10
229.5243734436818
 20
77.04317461674751
 30
0.0
 11
241.199730576351
 21
77.04317461674751
 31
0.0
  0
LINE
  5
2F46
330
1A
100
AcDbEntity
  8
図
 62
     0
 48
5.0
100
AcDbLine
 10
229.5243734436818
 20
75.77317461674752
 30
0.0
 11
241.199730576351
 21
75.77317461674752
 31
0.0
  0
LINE
  5
2F47
330
1A
100
AcDbEntity
  8
図
 62
     0
 48
5.0
100
AcDbLine
 10
229.5243734436818
 20
74.50317461674749
 30
0.0
 11
241.1997305763509
 21
74.50317461674749
 31
0.0
  0
LINE
  5
2F48
330
1A
100
AcDbEntity
  8
図
 62
     0
 48
5.0
100
AcDbLine
 10
229.5243734436818
 20
73.23317461674744
 30
0.0
 11
241.1997305763509
 21
73.23317461674744
 31
0.0
  0
LINE
  5
2F49
330
1A
100
AcDbEntity
  8
図
 62
     0
 48
5.0
100
AcDbLine
 10
229.5243734436818
 20
71.96317461674746
 30
0.0
 11
241.199730576351
 21
71.96317461674746
 31
0.0
  0
LINE
  5
2F4A
330
1A
100
AcDbEntity
  8
図
 62
     0
 48
5.0
100
AcDbLine
 10
229.5243734436818
 20
70.69317461674748
 30
0.0
 11
241.1997305763509
 21
70.69317461674746
 31
0.0
  0
LINE
  5
2F4B
330
1A
100
AcDbEntity
  8
図
 62
     0
 48
5.0
100
AcDbLine
 10
229.5243734436818
 20
69.42317461674747
 30
0.0
 11
241.1997305763509
 21
69.42317461674744
 31
0.0
  0
LINE
  5
2F4C
330
1A
100
AcDbEntity
  8
図
 62
     0
 48
5.0
100
AcDbLine
 10
229.5243734436818
 20
68.15317461674746
 30
0.0
 11
241.1997305763509
 21
68.15317461674744
 31
0.0
  0
LINE
  5
2F4D
330
1A
100
AcDbEntity
  8
図
 62
     0
 48
5.0
100
AcDbLine
 10
229.5243734436818
 20
66.88317461674742
 30
0.0
 11
241.199730576351
 21
66.88317461674742
 31
0.0
  0
LINE
  5
2F4E
330
1A
100
AcDbEntity
  8
図
 62
     0
 48
5.0
100
AcDbLine
 10
229.5243734436818
 20
65.61317461674744
 30
0.0
 11
241.1997305763509
 21
65.61317461674741
 31
0.0
  0
LINE
  5
2F4F
330
1A
100
AcDbEntity
  8
図
 62
     0
 48
5.0
100
AcDbLine
 10
229.5243734436818
 20
64.34317461674741
 30
0.0
 11
241.199730576351
 21
64.34317461674741
 31
0.0
  0
LINE
  5
2F50
330
1A
100
AcDbEntity
  8
図
 62
     0
 48
5.0
100
AcDbLine
 10
229.5243734436818
 20
63.07317461674742
 30
0.0
 11
241.1997305763509
 21
63.07317461674739
 31
0.0
  0
LINE
  5
2F51
330
1A
100
AcDbEntity
  8
図
 62
     0
 48
5.0
100
AcDbLine
 10
229.5243734436818
 20
61.80317461674741
 30
0.0
 11
241.199730576351
 21
61.80317461674738
 31
0.0
  0
LINE
  5
2F52
330
1A
100
AcDbEntity
  8
図
 62
     0
 48
5.0
100
AcDbLine
 10
229.5243734436818
 20
60.53317461674737
 30
0.0
 11
241.199730576351
 21
60.53317461674737
 31
0.0
  0
LINE
  5
2F53
330
1A
100
AcDbEntity
  8
図
 62
     0
 48
5.0
100
AcDbLine
 10
229.5243734436818
 20
59.26317461674739
 30
0.0
 11
241.199730576351
 21
59.26317461674736
 31
0.0
  0
LINE
  5
2F54
330
1A
100
AcDbEntity
  8
図
 62
     0
 48
5.0
100
AcDbLine
 10
229.5243734436818
 20
57.99317461674736
 30
0.0
 11
241.1997305763509
 21
57.99317461674736
 31
0.0
  0
LINE
  5
2F55
330
1A
100
AcDbEntity
  8
図
 62
     0
 48
5.0
100
AcDbLine
 10
229.5243734436818
 20
56.72317461674734
 30
0.0
 11
241.199730576351
 21
56.72317461674734
 31
0.0
  0
LINE
  5
2F56
330
1A
100
AcDbEntity
  8
図
 62
     0
 48
5.0
100
AcDbLine
 10
229.5243734436818
 20
55.45317461674736
 30
0.0
 11
241.199730576351
 21
55.45317461674733
 31
0.0
  0
DIMENSION
  5
2F57
330
1A
100
AcDbEntity
  8
0
 62
     0
 48
5.0
100
AcDbDimension
  2
*D7
 10
229.5243915205709
 20
32.93334761737037
 30
0.0
 11
247.7591448663705
 21
33.98390676887425
 31
0.0
 70
   160
  1
(40)
 71
     5
 42
36.31079348621395
  3
STANDARD１
100
AcDbAlignedDimension
 13
265.8351850067848
 23
78.54296360930291
 33
0.0
 14
229.5243915205709
 24
53.34843463762394
 34
0.0
100
AcDbRotatedDimension
1001
GENIUS_GENDTOL_13
1000
TolAcTol
1000

1000

1040
40.0
1001
ACAD
1000
DSTYLE
1002
{
1070
   140
1040
6.0
1070
   341
1005
0
1002
}
  0
SPLINE
  5
2F58
330
1A
100
AcDbEntity
  8
図
 62
     0
 48
5.0
100
AcDbSpline
210
0.0
220
0.0
230
1.0
 70
     8
 71
     3
 72
    11
 73
     7
 74
     5
 42
0.0000000001
 43
0.0000000001
 44
0.0000000001
 40
0.0
 40
0.0
 40
0.0
 40
0.0
 40
5.413291649136743
 40
18.24969746546686
 40
28.99686411673089
 40
34.38305173644601
 40
34.38305173644601
 40
34.38305173644601
 40
34.38305173644601
 10
241.199730576351
 20
116.4131746167478
 30
0.0
 10
242.9618353514087
 20
115.7693961233716
 30
0.0
 10
248.9023759931432
 20
113.599041466651
 30
0.0
 10
251.1492514470206
 20
103.0220129732767
 30
0.0
 10
250.8797706351383
 20
91.83214705334806
 30
0.0
 10
256.3238872799711
 20
89.93240981729448
 30
0.0
 10
258.141428330652
 20
89.29817461674785
 30
0.0
 11
241.199730576351
 21
116.4131746167478
 31
0.0
 11
246.0877843918375
 21
114.0870928521658
 31
0.0
 11
250.7047641514406
 21
102.1097470618445
 31
0.0
 11
253.3123259621216
 21
91.68371174473955
 31
0.0
 11
258.141428330652
 21
89.29817461674785
 31
0.0
  0
SPLINE
  5
2F59
330
1A
100
AcDbEntity
  8
図
 62
     0
 48
5.0
100
AcDbSpline
210
0.0
220
0.0
230
1.0
 70
     8
 71
     3
 72
    11
 73
     7
 74
     5
 42
0.0000000001
 43
0.0000000001
 44
0.0000000001
 40
0.0
 40
0.0
 40
0.0
 40
0.0
 40
5.397779320743702
 40
18.26809280664316
 40
29.01525945790716
 40
34.40144707762228
 40
34.40144707762228
 40
34.40144707762228
 40
34.40144707762228
 10
241.199730576351
 20
54.18338562419283
 30
0.0
 10
242.9620860833539
 20
54.81414677146966
 30
0.0
 10
248.9265525884043
 20
56.94887709158402
 30
0.0
 10
251.1409412309574
 20
67.57032161730214
 30
0.0
 10
250.8806541065179
 20
78.76350452979152
 30
0.0
 10
256.3241084065467
 20
80.66392299308919
 30
0.0
 10
258.141428330652
 20
81.29838562419278
 30
0.0
 11
241.199730576351
 21
54.18338562419283
 31
0.0
 11
246.0877843918375
 21
56.47313484460008
 31
0.0
 11
250.7047641514406
 21
68.48681317909615
 31
0.0
 11
253.3123259621216
 21
78.91284849620106
 31
0.0
 11
258.141428330652
 21
81.29838562419278
 31
0.0
  0
LINE
  5
2F5C
330
1A
100
AcDbEntity
  8
図
 62
     0
 48
5.0
100
AcDbLine
 10
436.0120954677553
 20
88.00029066273172
 30
0.0
 11
436.0120954677553
 21
82.89157334729507
 31
0.0
  0
DIMENSION
  5
2F5D
330
1A
100
AcDbEntity
  8
0
 62
     0
 48
5.0
100
AcDbDimension
  2
*D8
 10
295.8351850067848
 20
61.36523853333011
 30
0.0
 11
280.8351850067848
 21
65.8677766043961
 31
0.0
 70
    32
  1
(30)
 71
     5
 42
30.0
  3
STANDARD１
100
AcDbAlignedDimension
 13
265.8351850067848
 23
78.54296360930291
 33
0.0
 14
295.8351850067848
 24
78.54296360930291
 34
0.0
100
AcDbRotatedDimension
1001
GENIUS_GENDTOL_13
1000
TolAcTol
1000

1000

1040
30.0
1001
ACAD
1000
DSTYLE
1002
{
1070
   140
1040
6.0
1070
   341
1005
0
1002
}
  0
LINE
  5
2F5E
330
1A
100
AcDbEntity
  8
図
 62
     0
 48
5.0
100
AcDbLine
 10
415.9287109324576
 20
89.54796360930291
 30
0.0
 11
416.6094398195266
 21
89.54796360930291
 31
0.0
  0
LINE
  5
2F5F
330
1A
100
AcDbEntity
  8
図
 62
     0
 48
5.0
100
AcDbLine
 10
419.5470567487753
 20
81.04796360930292
 30
0.0
 11
420.2277856358442
 21
81.04796360930292
 31
0.0
  0
LINE
  5
2F60
330
1A
100
AcDbEntity
  8
図
 62
     0
 48
5.0
100
AcDbLine
 10
420.2277856358442
 20
81.04796360930292
 30
0.0
 11
453.2018606333017
 21
81.04785810558045
 31
0.0
  0
LEADER
  5
2F61
330
1A
100
AcDbEntity
  8
図
 62
     0
 48
5.0
100
AcDbLeader
  3
STANDARD１
 76
     2
 10
445.3544757142588
 20
89.54796360930291
 30
0.0
 10
466.5850566292818
 20
120.3986948892687
 30
0.0
1001
ACAD
1000
DSTYLE
1002
{
1070
   147
1040
1.0
1070
    77
1070
     0
1070
   341
1005
24E
1002
}
  0
LEADER
  5
2F62
330
1A
100
AcDbEntity
  8
図
 62
     0
 48
5.0
100
AcDbLeader
  3
STANDARD１
 76
     2
 10
428.3513421858992
 20
89.54796360930291
 30
0.0
 10
443.8991408251697
 20
120.0625709941834
 30
0.0
1001
ACAD
1000
DSTYLE
1002
{
1070
   147
1040
1.0
1070
    77
1070
     0
1070
   341
1005
24E
1002
}
  0
LEADER
  5
2F63
330
1A
100
AcDbEntity
  8
図
 62
     0
 48
5.0
100
AcDbLeader
  3
STANDARD１
 76
     2
 10
282.7597709712574
 20
91.94737604972468
 30
0.0
 10
300.5596471352784
 20
120.0973319459904
 30
0.0
1001
ACAD
1000
DSTYLE
1002
{
1070
   147
1040
1.0
1070
    77
1070
     0
1070
   341
1005
24E
1002
}
  0
LINE
  5
2F64
330
1A
100
AcDbEntity
  8
図
 62
     0
 48
5.0
100
AcDbLine
 10
387.9205012520803
 20
80.0479636093029
 30
0.0
 11
387.9205012520803
 21
90.54796360930291
 31
0.0
  0
LINE
  5
2F65
330
1A
100
AcDbEntity
  8
図
 62
     0
 48
5.0
100
AcDbLine
 10
439.0120954677552
 20
90.54796360930291
 30
0.0
 11
439.0120954677552
 21
80.0479636093029
 31
0.0
  0
LINE
  5
2F66
330
1A
100
AcDbEntity
  8
図
  6
HIDDEN
 62
     0
 48
0.3
100
AcDbLine
 10
453.2018606333017
 20
89.54785810558044
 30
0.0
 11
483.2018606333017
 21
89.54796360930291
 31
0.0
  0
LINE
  5
2F67
330
1A
100
AcDbEntity
  8
図
 62
     0
 48
5.0
100
AcDbLine
 10
215.3591512602953
 20
116.7347358953452
 30
0.0
 11
219.7243738436818
 21
115.1856739803216
 31
0.0
  0
LINE
  5
2F68
330
1A
100
AcDbEntity
  8
図
 62
     0
 48
5.0
100
AcDbLine
 10
215.3591512602953
 20
116.7347358953452
 30
0.0
 11
219.7243738436818
 21
118.2732093560398
 31
0.0
  0
LINE
  5
2F6B
330
1A
100
AcDbEntity
  8
図
 62
     0
 48
5.0
100
AcDbLine
 10
262.5943613790381
 20
80.79817461674783
 30
0.0
 11
262.594361379038
 21
79.04296360930286
 31
0.0
  0
ARC
  5
2F6C
330
1A
100
AcDbEntity
  8
図
 62
     0
 48
5.0
100
AcDbCircle
 10
262.094361379038
 20
80.79817461674783
 30
0.0
 40
0.5
100
AcDbArc
 50
0.0
 51
90.0
  0
LINE
  5
2F6D
330
1A
100
AcDbEntity
  8
図
 62
     0
 48
5.0
100
AcDbLine
 10
295.8351850067848
 20
92.05317461674784
 30
0.0
 11
295.8351850067848
 21
78.54296360930291
 31
0.0
  0
LINE
  5
2F6E
330
1A
100
AcDbEntity
  8
図
 62
     0
 48
5.0
100
AcDbLine
 10
295.8350399734801
 20
92.05317461519085
 30
0.0
 11
263.0942163493378
 21
92.05283884859843
 31
0.0
  0
ARC
  5
2F6F
330
1A
100
AcDbEntity
  8
図
 62
     0
 48
5.0
100
AcDbCircle
 10
263.0942270844258
 20
91.55283884871371
 30
0.0
 40
0.5
100
AcDbArc
 50
90.00123015047487
 51
180.0012301504748
  0
LINE
  5
2F70
330
1A
100
AcDbEntity
  8
図
 62
     0
 48
5.0
100
AcDbLine
 10
262.5942647570302
 20
89.79818535183587
 30
0.0
 11
262.594227084541
 21
91.55282811362562
 31
0.0
  0
ARC
  5
2F71
330
1A
100
AcDbEntity
  8
図
 62
     0
 48
5.0
100
AcDbCircle
 10
262.0942647571454
 20
89.79817461674779
 30
0.0
 40
0.5
100
AcDbArc
 50
270.0
 51
0.0012301504781195
  0
LINE
  5
2F72
330
1A
100
AcDbEntity
  8
図
  6
HIDDEN
 62
     0
 48
0.3
100
AcDbLine
 10
265.8351850067849
 20
89.54796360930279
 30
0.0
 11
295.8351850067848
 21
89.54796360930291
 31
0.0
  0
LINE
  5
2F73
330
1A
100
AcDbEntity
  8
図
  6
HIDDEN
 62
     0
 48
0.3
100
AcDbLine
 10
295.8351850067847
 20
81.04796360930292
 30
0.0
 11
265.8351850067848
 21
81.04796360930292
 31
0.0
  0
LINE
  5
2F74
330
1A
100
AcDbEntity
  8
図
 62
     0
 48
5.0
100
AcDbLine
 10
258.141428330652
 20
89.29817461674785
 30
0.0
 11
258.1414283306521
 21
81.29817461674784
 31
0.0
  0
MTEXT
  5
2F93
330
1A
100
AcDbEntity
  8
図
 62
     0
 48
5.0
100
AcDbMText
 10
515.3270589896938
 20
140.4023619375028
 30
0.0
 40
5.0
 41
5.0
 71
     5
 72
     5
  1
1
  7
CB
 73
     1
 44
1.0
1001
ACAD
1000
MTEXTBEGIN
1070
    73
1070
     1
1070
    44
1040
1.0
1070
    74
1070
     0
1000
MTEXTEND
  0
HATCH
  5
2F94
330
1A
100
AcDbEntity
  8
0
 62
     0
 48
5.0
100
AcDbHatch
 10
0.0
 20
0.0
 30
0.0
210
0.0
220
0.0
230
1.0
  2
ANSI37
 70
     0
 71
     1
 91
        1
 92
        7
 72
     0
 73
     1
 93
        6
 10
523.2018606333017
 20
50.55785810558042
 10
523.2018606333017
 20
55.55785810558041
 10
513.7018606333017
 20
55.55785810558041
 10
513.7018606333017
 20
53.82785810558042
 10
513.7018606333017
 20
52.38785810558042
 10
513.7018606333018
 20
50.55785810558042
 97
        6
330
2FCC
330
2FD4
330
2FD2
330
2FD3
330
2FCA
330
2F95
 75
     0
 76
     1
 52
0.0
 41
8.0
 77
     0
 78
     2
 53
45.0
 43
136.5272381943821
 44
-81.6518747729923
 45
-0.7071067811865475
 46
0.7071067811865476
 79
     0
 53
135.0
 43
136.5272381943821
 44
-81.6518747729923
 45
-0.7071067811865476
 46
-0.7071067811865475
 79
     0
 47
0.0370729851407547
 98
        1
 10
518.144938692677
 20
52.32939120996878
1001
ACAD
1010
0.0
1020
0.0
1030
0.0
  0
LWPOLYLINE
  5
2F95
102
{ACAD_REACTORS
330
2F94
102
}
330
1A
100
AcDbEntity
  8
0
 62
     0
 48
5.0
100
AcDbPolyline
 90
        6
 70
     0
 43
0.0
 10
545.7018606333017
 20
51.80785810558041
 10
545.7018606333017
 20
50.55785810558041
 10
523.2018606333017
 20
50.55785810558041
 10
523.2018606333017
 20
120.0378581055804
 10
545.7018606333017
 20
120.0378581055804
 10
545.7018606333017
 20
118.8878581055804
  0
LINE
  5
2F96
330
1A
100
AcDbEntity
  8
図
 62
     0
 48
5.0
100
AcDbLine
 10
453.2018606333017
 20
90.05306911302538
 30
0.0
 11
453.2018606333017
 21
80.54285810558045
 31
0.0
  0
LINE
  5
2F97
330
1A
100
AcDbEntity
  8
図
 62
     0
 48
5.0
100
AcDbLine
 10
453.2018606333017
 20
80.54285810558045
 30
0.0
 11
453.2018606333017
 21
80.54285810558045
 31
0.0
  0
LINE
  5
2F98
330
1A
100
AcDbEntity
  8
図
 62
     0
 48
5.0
100
AcDbLine
 10
453.2018606333017
 20
78.54285810558045
 30
0.0
 11
485.9426842610485
 21
78.54285810558039
 31
0.0
  0
ARC
  5
2F99
330
1A
100
AcDbEntity
  8
図
 62
     0
 48
5.0
100
AcDbCircle
 10
485.9426842610485
 20
79.0428581055804
 30
0.0
 40
0.5
100
AcDbArc
 50
270.0
 51
0.0
  0
LINE
  5
2F9A
330
1A
100
AcDbEntity
  8
図
  6
HIDDEN
 62
     0
 48
0.3
100
AcDbLine
 10
483.2018606333017
 20
89.54785810558044
 30
0.0
 11
483.2018606333017
 21
81.04785810558045
 31
0.0
  0
LINE
  5
2F9B
330
1A
100
AcDbEntity
  8
図
  6
HIDDEN
 62
     0
 48
0.3
100
AcDbLine
 10
523.2018606333017
 20
89.54785810558044
 30
0.0
 11
523.2018606333017
 21
81.04785810558045
 31
0.0
  0
LINE
  5
2F9C
330
1A
100
AcDbEntity
  8
図
 62
     0
 48
5.0
100
AcDbLine
 10
486.942780882941
 20
89.29806911302533
 30
0.0
 11
490.8956173094344
 21
89.29806911302538
 31
0.0
  0
LINE
  5
2F9D
330
1A
100
AcDbEntity
  8
図
 62
     0
 48
5.0
100
AcDbLine
 10
486.9426842610484
 20
81.29806911302537
 30
0.0
 11
490.8956173094344
 21
81.29806911302537
 31
0.0
  0
LINE
  5
2F9E
330
1A
100
AcDbEntity
  8
図
 62
     0
 48
5.0
100
AcDbLine
 10
486.4426842610484
 20
80.79806911302538
 30
0.0
 11
486.4426842610485
 21
79.0428581055804
 31
0.0
  0
ARC
  5
2F9F
330
1A
100
AcDbEntity
  8
図
 62
     0
 48
5.0
100
AcDbCircle
 10
486.9426842610484
 20
80.79806911302538
 30
0.0
 40
0.5
100
AcDbArc
 50
90.0
 51
180.0
  0
LINE
  5
2FA0
330
1A
100
AcDbEntity
  8
図
 62
     0
 48
5.0
100
AcDbLine
 10
453.2018606333017
 20
92.05306911302537
 30
0.0
 11
453.2018606333017
 21
78.54285810558045
 31
0.0
  0
LINE
  5
2FA1
330
1A
100
AcDbEntity
  8
図
 62
     0
 48
5.0
100
AcDbLine
 10
453.2020056666064
 20
92.05306911146838
 30
0.0
 11
485.9428292907487
 21
92.05273334487598
 31
0.0
  0
ARC
  5
2FA2
330
1A
100
AcDbEntity
  8
図
 62
     0
 48
5.0
100
AcDbCircle
 10
485.9428185556606
 20
91.55273334499126
 30
0.0
 40
0.5
100
AcDbArc
 50
359.9987698495251
 51
89.99876984952514
  0
LINE
  5
2FA3
330
1A
100
AcDbEntity
  8
図
 62
     0
 48
5.0
100
AcDbLine
 10
486.4427808830562
 20
89.79807984811342
 30
0.0
 11
486.4428185555454
 21
91.55272260990315
 31
0.0
  0
ARC
  5
2FA4
330
1A
100
AcDbEntity
  8
図
 62
     0
 48
5.0
100
AcDbCircle
 10
486.942780882941
 20
89.79806911302532
 30
0.0
 40
0.5
100
AcDbArc
 50
179.9987698495218
 51
270.0
  0
LINE
  5
2FA5
330
1A
100
AcDbEntity
  8
図
  6
HIDDEN
 62
     0
 48
0.3
100
AcDbLine
 10
483.2018606333017
 20
89.54785810558034
 30
0.0
 11
453.2018606333017
 21
89.54785810558044
 31
0.0
  0
LINE
  5
2FA6
330
1A
100
AcDbEntity
  8
図
 62
     0
 48
5.0
100
AcDbLine
 10
490.8956173094344
 20
89.29806911302538
 30
0.0
 11
490.8956173094344
 21
81.29806911302537
 31
0.0
  0
LINE
  5
2FA7
330
1A
100
AcDbEntity
  8
図
  6
HIDDEN
 62
     0
 48
0.3
100
AcDbLine
 10
483.2018606333017
 20
81.04785810558032
 30
0.0
 11
453.2018606333017
 21
81.04785810558045
 31
0.0
  0
DIMENSION
  5
2FA8
330
1A
100
AcDbEntity
  8
0
 62
     0
 48
5.0
100
AcDbDimension
  2
*D9
 10
453.2018606333017
 20
64.4648396320307
 30
0.0
 11
467.0920680042498
 21
64.4648396320307
 31
0.0
 70
   160
  1
(30)
 71
     5
 42
30.0
  3
STANDARD１
100
AcDbAlignedDimension
 13
483.2018606333017
 23
78.54285810558045
 33
0.0
 14
453.2018606333017
 24
78.54285810558045
 34
0.0
100
AcDbRotatedDimension
1001
GENIUS_GENDTOL_13
1000
TolAcTol
1000

1000

1040
30.0
1001
ACAD
1000
DSTYLE
1002
{
1070
   140
1040
6.0
1070
   341
1005
0
1002
}
  0
LINE
  5
2FA9
330
1A
100
AcDbEntity
  8
0
 62
     0
 48
5.0
100
AcDbLine
 10
513.4287432141572
 20
85.29806911302538
 30
0.0
 11
523.2018606333017
 21
85.29785810558044
 31
0.0
  0
DIMENSION
  5
2FAA
330
1A
100
AcDbEntity
  8
0
 62
     0
 48
5.0
100
AcDbDimension
  2
*D10
 10
523.2018606333017
 20
32.91893706025791
 30
0.0
 11
503.1921207270241
 21
32.91893706025791
 31
0.0
 70
   160
  1
(40)
 71
     5
 42
40.00000000000006
  3
STANDARD１
100
AcDbAlignedDimension
 13
483.2018606333017
 23
78.54285810558039
 33
0.0
 14
523.2018606333017
 24
50.55785810558041
 34
0.0
100
AcDbRotatedDimension
1001
GENIUS_GENDTOL_13
1000
TolAcTol
1000

1000

1040
40.0
1001
ACAD
1000
DSTYLE
1002
{
1070
   140
1040
6.0
1070
   341
1005
0
1002
}
  0
LINE
  5
2FAB
330
1A
100
AcDbEntity
  8
0
 62
     0
 48
5.0
100
AcDbLine
 10
513.4287432141572
 20
61.16806911302536
 30
0.0
 11
523.2018606333017
 21
61.16806911302536
 31
0.0
  0
LINE
  5
2FAC
330
1A
100
AcDbEntity
  8
0
 62
     0
 48
5.0
100
AcDbLine
 10
513.4287432141572
 20
73.23306911302532
 30
0.0
 11
523.2018606333017
 21
73.23306911302532
 31
0.0
  0
LINE
  5
2FAD
330
1A
100
AcDbEntity
  8
0
 62
     0
 48
5.0
100
AcDbLine
 10
513.4287432141572
 20
70.82006911302534
 30
0.0
 11
523.2018606333017
 21
70.82006911302534
 31
0.0
  0
LINE
  5
2FAE
330
1A
100
AcDbEntity
  8
0
 62
     0
 48
5.0
100
AcDbLine
 10
513.4287432141572
 20
68.40706911302532
 30
0.0
 11
523.2018606333017
 21
68.40706911302532
 31
0.0
  0
LINE
  5
2FAF
330
1A
100
AcDbEntity
  8
0
 62
     0
 48
5.0
100
AcDbLine
 10
513.4287432141572
 20
65.99406911302532
 30
0.0
 11
523.2018606333017
 21
65.99406911302532
 31
0.0
  0
LINE
  5
2FB0
330
1A
100
AcDbEntity
  8
0
 62
     0
 48
5.0
100
AcDbLine
 10
513.4287432141572
 20
63.58106911302531
 30
0.0
 11
523.2018606333017
 21
63.58106911302531
 31
0.0
  0
LINE
  5
2FB1
330
1A
100
AcDbEntity
  8
0
 62
     0
 48
5.0
100
AcDbLine
 10
513.4287432141572
 20
73.23306911302532
 30
0.0
 11
523.2018606333017
 21
73.23306911302532
 31
0.0
  0
LINE
  5
2FB2
330
1A
100
AcDbEntity
  8
0
 62
     0
 48
5.0
100
AcDbLine
 10
513.4287432141572
 20
75.64606911302533
 30
0.0
 11
523.2018606333017
 21
75.64606911302533
 31
0.0
  0
LINE
  5
2FB3
330
1A
100
AcDbEntity
  8
0
 62
     0
 48
5.0
100
AcDbLine
 10
513.4287432141572
 20
78.05906911302535
 30
0.0
 11
523.2018606333017
 21
78.05906911302535
 31
0.0
  0
LINE
  5
2FB4
330
1A
100
AcDbEntity
  8
0
 62
     0
 48
5.0
100
AcDbLine
 10
513.4287432141572
 20
80.47206911302536
 30
0.0
 11
523.2018606333017
 21
80.47206911302536
 31
0.0
  0
LINE
  5
2FB5
330
1A
100
AcDbEntity
  8
0
 62
     0
 48
5.0
100
AcDbLine
 10
513.4287432141572
 20
82.88506911302537
 30
0.0
 11
523.2018606333017
 21
82.88506911302537
 31
0.0
  0
LINE
  5
2FB6
330
1A
100
AcDbEntity
  8
0
 62
     0
 48
5.0
100
AcDbLine
 10
513.4287432141572
 20
78.05906911302535
 30
0.0
 11
523.2018606333017
 21
78.05906911302535
 31
0.0
  0
LINE
  5
2FB7
330
1A
100
AcDbEntity
  8
0
 62
     0
 48
5.0
100
AcDbLine
 10
513.4287432141572
 20
73.23306911302532
 30
0.0
 11
523.2018606333017
 21
73.23306911302532
 31
0.0
  0
LINE
  5
2FB8
330
1A
100
AcDbEntity
  8
0
 62
     0
 48
5.0
100
AcDbLine
 10
513.4287432141572
 20
85.29806911302538
 30
0.0
 11
523.2018606333017
 21
85.29806911302538
 31
0.0
  0
LINE
  5
2FB9
330
1A
100
AcDbEntity
  8
0
 62
     0
 48
5.0
100
AcDbLine
 10
513.4287432141572
 20
85.29806911302538
 30
0.0
 11
523.2018606333017
 21
85.29806911302538
 31
0.0
  0
LINE
  5
2FBA
330
1A
100
AcDbEntity
  8
0
 62
     0
 48
5.0
100
AcDbLine
 10
513.2018606333017
 20
109.4280691130253
 30
0.0
 11
523.2018606333017
 21
109.4280691130253
 31
0.0
  0
LINE
  5
2FBB
330
1A
100
AcDbEntity
  8
0
 62
     0
 48
5.0
100
AcDbLine
 10
532.2018606333016
 20
109.4280691130253
 30
0.0
 11
538.4686585563704
 21
109.4280691130253
 31
0.0
  0
LINE
  5
2FBC
330
1A
100
AcDbEntity
  8
0
 62
     0
 48
5.0
100
AcDbLine
 10
513.2018606333017
 20
97.36306911302532
 30
0.0
 11
523.2018606333017
 21
97.36306911302532
 31
0.0
  0
LINE
  5
2FBD
330
1A
100
AcDbEntity
  8
0
 62
     0
 48
5.0
100
AcDbLine
 10
513.2018606333017
 20
99.77606911302533
 30
0.0
 11
523.2018606333017
 21
99.77606911302533
 31
0.0
  0
LINE
  5
2FBE
330
1A
100
AcDbEntity
  8
0
 62
     0
 48
5.0
100
AcDbLine
 10
513.2018606333017
 20
102.1890691130253
 30
0.0
 11
523.2018606333017
 21
102.1890691130253
 31
0.0
  0
LINE
  5
2FBF
330
1A
100
AcDbEntity
  8
0
 62
     0
 48
5.0
100
AcDbLine
 10
513.2018606333017
 20
104.6020691130253
 30
0.0
 11
523.2018606333017
 21
104.6020691130253
 31
0.0
  0
LINE
  5
2FC0
330
1A
100
AcDbEntity
  8
0
 62
     0
 48
5.0
100
AcDbLine
 10
513.2018606333017
 20
107.0150691130253
 30
0.0
 11
523.2018606333017
 21
107.0150691130253
 31
0.0
  0
LINE
  5
2FC1
330
1A
100
AcDbEntity
  8
0
 62
     0
 48
5.0
100
AcDbLine
 10
513.2018606333017
 20
94.9500691130253
 30
0.0
 11
523.2018606333017
 21
94.9500691130253
 31
0.0
  0
LINE
  5
2FC2
330
1A
100
AcDbEntity
  8
0
 62
     0
 48
5.0
100
AcDbLine
 10
513.2018606333017
 20
92.53706911302529
 30
0.0
 11
523.2018606333017
 21
92.53706911302529
 31
0.0
  0
LINE
  5
2FC3
330
1A
100
AcDbEntity
  8
0
 62
     0
 48
5.0
100
AcDbLine
 10
513.2018606333017
 20
90.12406911302528
 30
0.0
 11
523.2018606333017
 21
90.12406911302528
 31
0.0
  0
LINE
  5
2FC4
330
1A
100
AcDbEntity
  8
0
 62
     0
 48
5.0
100
AcDbLine
 10
513.2018606333017
 20
87.71106911302528
 30
0.0
 11
523.2018606333017
 21
87.71106911302528
 31
0.0
  0
LINE
  5
2FC5
330
1A
100
AcDbEntity
  8
0
 62
     0
 48
5.0
100
AcDbLine
 10
513.2018606333017
 20
92.53706911302529
 30
0.0
 11
523.2018606333017
 21
92.53706911302529
 31
0.0
  0
LINE
  5
2FC6
330
1A
100
AcDbEntity
  8
0
 62
     0
 48
5.0
100
AcDbLine
 10
513.2018606333017
 20
97.36306911302532
 30
0.0
 11
523.2018606333017
 21
97.36306911302532
 31
0.0
  0
LINE
  5
2FC7
330
1A
100
AcDbEntity
  8
0
 62
     0
 48
5.0
100
AcDbLine
 10
513.2018606333017
 20
97.36306911302532
 30
0.0
 11
523.2018606333017
 21
97.36306911302532
 31
0.0
  0
SPLINE
  5
2FC8
330
1A
100
AcDbEntity
  8
0
 62
     0
 48
5.0
100
AcDbSpline
210
0.0
220
0.0
230
1.0
 70
     8
 71
     3
 72
    12
 73
     8
 74
     6
 42
0.0000000001
 43
0.0000000001
 44
0.0000000001
 12
0.9462513588647002
 22
-0.3234321657576877
 32
0.0
 13
-1.0
 23
0.0
 33
0.0
 40
0.0
 40
0.0
 40
0.0
 40
0.0
 40
3.202094402796445
 40
11.82062249753788
 40
17.64475003895777
 40
25.14912235638476
 40
34.40717969516771
 40
34.40717969516771
 40
34.40717969516771
 40
34.40717969516771
 10
513.4287432141575
 20
61.16806911302536
 30
0.0
 10
514.438738607444
 20
60.82284900380635
 30
0.0
 10
505.8873572191529
 20
63.91493573346313
 30
0.0
 10
508.0393239708087
 20
69.53837569309844
 30
0.0
 10
506.6597790840375
 20
77.20173826425401
 30
0.0
 10
499.7156057569262
 20
81.98981506507404
 30
0.0
 10
493.9816364223622
 20
81.29806911302537
 30
0.0
 10
490.8956173094345
 20
81.29806911302537
 30
0.0
 11
513.4287432141575
 21
61.16806911302536
 31
0.0
 11
510.5390679817036
 21
62.54762904842607
 31
0.0
 11
507.4296029398377
 21
70.58567941361175
 31
0.0
 11
506.142926646591
 21
76.26590174509866
 31
0.0
 11
500.1384422979908
 21
80.76720950906898
 31
0.0
 11
490.8956173094345
 21
81.29806911302537
 31
0.0
  0
SPLINE
  5
2FC9
330
1A
100
AcDbEntity
  8
0
 62
     0
 48
5.0
100
AcDbSpline
210
0.0
220
0.0
230
1.0
 70
     8
 71
     3
 72
    12
 73
     8
 74
     6
 42
0.0000000001
 43
0.0000000001
 44
0.0000000001
 12
0.9462513588647002
 22
0.3234321657576876
 32
0.0
 13
-1.0
 23
0.0
 33
0.0
 40
0.0
 40
0.0
 40
0.0
 40
0.0
 40
3.202094402796445
 40
11.82062249753784
 40
17.64475003895773
 40
25.14912235638471
 40
34.40717969516767
 40
34.40717969516767
 40
34.40717969516767
 40
34.40717969516767
 10
513.4287432141575
 20
109.4276470981355
 30
0.0
 10
514.438738607444
 20
109.7728672073545
 30
0.0
 10
505.8873572191529
 20
106.6807804776977
 30
0.0
 10
508.0393239708087
 20
101.0573405180624
 30
0.0
 10
506.6597790840375
 20
93.3939779469069
 30
0.0
 10
499.7156057569262
 20
88.60590114608681
 30
0.0
 10
493.9816364223622
 20
89.29764709813552
 30
0.0
 10
490.8956173094345
 20
89.29764709813552
 30
0.0
 11
513.4287432141575
 21
109.4276470981355
 31
0.0
 11
510.5390679817036
 21
108.0480871627347
 31
0.0
 11
507.4296029398377
 21
100.0100367975491
 31
0.0
 11
506.142926646591
 21
94.32981446606223
 31
0.0
 11
500.1384422979908
 21
89.82850670209192
 31
0.0
 11
490.8956173094345
 21
89.29764709813552
 31
0.0
  0
LINE
  5
2FCA
102
{ACAD_REACTORS
330
2F94
102
}
330
1A
100
AcDbEntity
  8
0
 62
     0
 48
5.0
100
AcDbLine
 10
523.2018606333017
 20
50.55785810558041
 30
0.0
 11
513.5018606333017
 21
50.55785810558041
 31
0.0
  0
LINE
  5
2FCB
330
1A
100
AcDbEntity
  8
0
 62
     0
 48
5.0
100
AcDbLine
 10
513.2018606333017
 20
50.85785810558042
 30
0.0
 11
513.5018606333017
 21
50.55785810558041
 31
0.0
  0
LINE
  5
2FCC
102
{ACAD_REACTORS
330
2F94
102
}
330
1A
100
AcDbEntity
  8
0
 62
     0
 48
5.0
100
AcDbLine
 10
513.4018606333016
 20
55.55785810558041
 30
0.0
 11
523.2018606333017
 21
55.55785810558041
 31
0.0
  0
LINE
  5
2FCD
330
1A
100
AcDbEntity
  8
0
 62
     0
 48
5.0
100
AcDbLine
 10
513.2018606333017
 20
50.85785810558042
 30
0.0
 11
513.2018606333017
 21
52.38785810558042
 31
0.0
  0
LINE
  5
2FCE
330
1A
100
AcDbEntity
  8
0
 62
     0
 48
5.0
100
AcDbLine
 10
513.2018606333017
 20
52.38785810558042
 30
0.0
 11
513.7018606333017
 21
52.38785810558042
 31
0.0
  0
LINE
  5
2FCF
330
1A
100
AcDbEntity
  8
0
 62
     0
 48
5.0
100
AcDbLine
 10
513.2018606333017
 20
55.35785810558042
 30
0.0
 11
513.4018606333016
 21
55.55785810558041
 31
0.0
  0
LINE
  5
2FD0
330
1A
100
AcDbEntity
  8
0
 62
     0
 48
5.0
100
AcDbLine
 10
513.2018606333017
 20
55.35785810558042
 30
0.0
 11
513.2018606333017
 21
53.82785810558042
 31
0.0
  0
LINE
  5
2FD1
330
1A
100
AcDbEntity
  8
0
 62
     0
 48
5.0
100
AcDbLine
 10
513.2018606333017
 20
53.82785810558042
 30
0.0
 11
513.7018606333017
 21
53.82785810558042
 31
0.0
  0
LINE
  5
2FD2
102
{ACAD_REACTORS
330
2F94
102
}
330
1A
100
AcDbEntity
  8
0
 62
     0
 48
5.0
100
AcDbLine
 10
513.7018606333017
 20
52.38785810558042
 30
0.0
 11
513.7018606333017
 21
53.82785810558042
 31
0.0
  0
LINE
  5
2FD3
102
{ACAD_REACTORS
330
2F94
102
}
330
1A
100
AcDbEntity
  8
0
 62
     0
 48
5.0
100
AcDbLine
 10
513.7018606333017
 20
52.38785810558042
 30
0.0
 11
513.7018606333017
 21
50.55785810558041
 31
0.0
  0
LINE
  5
2FD4
102
{ACAD_REACTORS
330
2F94
102
}
330
1A
100
AcDbEntity
  8
0
 62
     0
 48
5.0
100
AcDbLine
 10
513.7018606333017
 20
53.82785810558042
 30
0.0
 11
513.7018606333017
 21
55.55785810558041
 31
0.0
  0
HATCH
  5
2FD5
330
1A
100
AcDbEntity
  8
0
 62
     0
 48
5.0
100
AcDbHatch
 10
0.0
 20
0.0
 30
0.0
210
0.0
220
0.0
230
1.0
  2
ANSI37
 70
     0
 71
     0
 91
        1
 92
        7
 72
     0
 73
     1
 93
        6
 10
523.2018606333017
 20
120.0378581055804
 10
513.7018606333017
 20
120.0378581055804
 10
513.7018606333017
 20
118.3078581055804
 10
513.7018606333017
 20
116.8678581055804
 10
513.7018606333017
 20
115.0378581055804
 10
523.2018606333017
 20
115.0378581055804
 97
        0
 75
     0
 76
     1
 52
0.0
 41
8.0
 77
     0
 78
     2
 53
45.0
 43
136.5272381943821
 44
-81.6518747729923
 45
-0.7071067811865475
 46
0.7071067811865476
 79
     0
 53
135.0
 43
136.5272381943821
 44
-81.6518747729923
 45
-0.7071067811865476
 46
-0.7071067811865475
 79
     0
 47
0.0370729851407547
 98
        1
 10
518.144938692677
 20
116.8093912099688
1001
ACAD
1010
0.0
1020
0.0
1030
0.0
  0
LINE
  5
2FD6
330
1A
100
AcDbEntity
  8
0
 62
     0
 48
5.0
100
AcDbLine
 10
523.2018606333017
 20
115.0378581055804
 30
0.0
 11
513.5018606333017
 21
115.0378581055804
 31
0.0
  0
LINE
  5
2FD7
330
1A
100
AcDbEntity
  8
0
 62
     0
 48
5.0
100
AcDbLine
 10
513.2018606333017
 20
115.3378581055804
 30
0.0
 11
513.5018606333017
 21
115.0378581055804
 31
0.0
  0
LINE
  5
2FD8
330
1A
100
AcDbEntity
  8
0
 62
     0
 48
5.0
100
AcDbLine
 10
513.4018606333016
 20
120.0378581055804
 30
0.0
 11
523.2018606333017
 21
120.0378581055804
 31
0.0
  0
LINE
  5
2FD9
330
1A
100
AcDbEntity
  8
0
 62
     0
 48
5.0
100
AcDbLine
 10
513.2018606333017
 20
115.3378581055804
 30
0.0
 11
513.2018606333017
 21
116.8678581055804
 31
0.0
  0
LINE
  5
2FDA
330
1A
100
AcDbEntity
  8
0
 62
     0
 48
5.0
100
AcDbLine
 10
513.2018606333017
 20
116.8678581055804
 30
0.0
 11
513.7018606333017
 21
116.8678581055804
 31
0.0
  0
LINE
  5
2FDB
330
1A
100
AcDbEntity
  8
0
 62
     0
 48
5.0
100
AcDbLine
 10
513.2018606333017
 20
119.8378581055804
 30
0.0
 11
513.4018606333016
 21
120.0378581055804
 31
0.0
  0
LINE
  5
2FDC
330
1A
100
AcDbEntity
  8
0
 62
     0
 48
5.0
100
AcDbLine
 10
513.2018606333017
 20
119.8378581055804
 30
0.0
 11
513.2018606333017
 21
118.3078581055804
 31
0.0
  0
LINE
  5
2FDD
330
1A
100
AcDbEntity
  8
0
 62
     0
 48
5.0
100
AcDbLine
 10
513.2018606333017
 20
118.3078581055804
 30
0.0
 11
513.7018606333017
 21
118.3078581055804
 31
0.0
  0
LINE
  5
2FDE
330
1A
100
AcDbEntity
  8
0
 62
     0
 48
5.0
100
AcDbLine
 10
513.7018606333017
 20
116.8678581055804
 30
0.0
 11
513.7018606333017
 21
118.3078581055804
 31
0.0
  0
LINE
  5
2FDF
330
1A
100
AcDbEntity
  8
0
 62
     0
 48
5.0
100
AcDbLine
 10
513.7018606333017
 20
116.8678581055804
 30
0.0
 11
513.7018606333017
 21
115.0378581055804
 31
0.0
  0
LINE
  5
2FE0
330
1A
100
AcDbEntity
  8
0
 62
     0
 48
5.0
100
AcDbLine
 10
513.7018606333017
 20
118.3078581055804
 30
0.0
 11
513.7018606333017
 21
120.0378581055804
 31
0.0
  0
LINE
  5
2FE1
330
1A
100
AcDbEntity
  8
0
 62
     0
 48
5.0
100
AcDbLine
 10
547.2018606333017
 20
51.80785810558041
 30
0.0
 11
550.4018606333017
 21
51.80785810558041
 31
0.0
  0
LINE
  5
2FE2
330
1A
100
AcDbEntity
  8
0
 62
     0
 48
5.0
100
AcDbLine
 10
550.7018606333017
 20
52.10785810558042
 30
0.0
 11
550.4018606333017
 21
51.80785810558041
 31
0.0
  0
LINE
  5
2FE3
330
1A
100
AcDbEntity
  8
0
 62
     0
 48
5.0
100
AcDbLine
 10
547.2018606333016
 20
54.4078581055804
 30
0.0
 11
550.4018606333016
 21
54.40785810558043
 31
0.0
  0
LINE
  5
2FE4
330
1A
100
AcDbEntity
  8
0
 62
     0
 48
5.0
100
AcDbLine
 10
550.7018606333017
 20
54.10785810558042
 30
0.0
 11
550.7018606333017
 21
52.10785810558042
 31
0.0
  0
LINE
  5
2FE5
330
1A
100
AcDbEntity
  8
0
 62
     0
 48
5.0
100
AcDbLine
 10
550.4018606333016
 20
54.40785810558043
 30
0.0
 11
550.7018606333017
 21
54.10785810558042
 31
0.0
  0
LINE
  5
2FE6
330
1A
100
AcDbEntity
  8
0
 62
     0
 48
5.0
100
AcDbLine
 10
550.4018606333016
 20
54.40785810558043
 30
0.0
 11
550.4018606333016
 21
51.80785810558035
 31
0.0
  0
LINE
  5
2FE7
330
1A
100
AcDbEntity
  8
0
 62
     0
 48
5.0
100
AcDbLine
 10
547.2018606333017
 20
116.2878581055804
 30
0.0
 11
550.4018606333017
 21
116.2878581055804
 31
0.0
  0
LINE
  5
2FE8
330
1A
100
AcDbEntity
  8
0
 62
     0
 48
5.0
100
AcDbLine
 10
550.7018606333017
 20
116.5878581055804
 30
0.0
 11
550.4018606333017
 21
116.2878581055804
 31
0.0
  0
LINE
  5
2FE9
330
1A
100
AcDbEntity
  8
0
 62
     0
 48
5.0
100
AcDbLine
 10
547.2018606333016
 20
118.8878581055804
 30
0.0
 11
550.4018606333016
 21
118.8878581055804
 31
0.0
  0
LINE
  5
2FEA
330
1A
100
AcDbEntity
  8
0
 62
     0
 48
5.0
100
AcDbLine
 10
550.7018606333017
 20
118.5878581055804
 30
0.0
 11
550.7018606333017
 21
116.5878581055804
 31
0.0
  0
LINE
  5
2FEB
330
1A
100
AcDbEntity
  8
0
 62
     0
 48
5.0
100
AcDbLine
 10
550.4018606333016
 20
118.8878581055804
 30
0.0
 11
550.7018606333017
 21
118.5878581055804
 31
0.0
  0
LINE
  5
2FEC
330
1A
100
AcDbEntity
  8
0
 62
     0
 48
5.0
100
AcDbLine
 10
550.4018606333016
 20
118.8878581055804
 30
0.0
 11
550.4018606333016
 21
116.2878581055803
 31
0.0
  0
LINE
  5
2FED
330
1A
100
AcDbEntity
  8
0
  6
HIDDEN
 62
     0
 48
0.1
100
AcDbLine
 10
550.7018606333017
 20
54.10785810558042
 30
0.0
 11
547.6183789890447
 21
54.10785810558042
 31
0.0
  0
LINE
  5
2FEE
330
1A
100
AcDbEntity
  8
0
  6
HIDDEN
 62
     0
 48
0.1
100
AcDbLine
 10
550.7018606333017
 20
52.10785810558042
 30
0.0
 11
547.6183789890447
 21
52.10785810558042
 31
0.0
  0
LINE
  5
2FEF
330
1A
100
AcDbEntity
  8
0
  6
HIDDEN
 62
     0
 48
0.1
100
AcDbLine
 10
550.7018606333017
 20
118.5878581055804
 30
0.0
 11
547.6183789890447
 21
118.5878581055804
 31
0.0
  0
LINE
  5
2FF0
330
1A
100
AcDbEntity
  8
0
  6
HIDDEN
 62
     0
 48
0.1
100
AcDbLine
 10
550.7018606333017
 20
116.5878581055804
 30
0.0
 11
547.6183789890447
 21
116.5878581055804
 31
0.0
  0
LINE
  5
2FF1
330
1A
100
AcDbEntity
  8
0
 62
     0
 48
5.0
100
AcDbLine
 10
547.2018606333016
 20
118.8878581055804
 30
0.0
 11
547.2018606333017
 21
51.80785810558041
 31
0.0
  0
LINE
  5
2FF2
330
1A
100
AcDbEntity
  8
0
 62
     0
 48
5.0
100
AcDbLine
 10
547.2018606333017
 20
51.80785810558041
 30
0.0
 11
532.2018606333017
 21
51.80785810558041
 31
0.0
  0
LINE
  5
2FF3
330
1A
100
AcDbEntity
  8
0
 62
     0
 48
5.0
100
AcDbLine
 10
547.2018606333016
 20
118.8878581055804
 30
0.0
 11
532.2018606333016
 21
118.8878581055804
 31
0.0
  0
LINE
  5
2FF4
330
1A
100
AcDbEntity
  8
0
 62
     0
 48
5.0
100
AcDbLine
 10
532.2018606333016
 20
118.8878581055804
 30
0.0
 11
532.2018606333016
 21
51.80785810558041
 31
0.0
  0
LINE
  5
2FF5
330
1A
100
AcDbEntity
  8
0
 62
     0
 48
5.0
100
AcDbLine
 10
537.2018606333016
 20
118.8878581055804
 30
0.0
 11
537.2018606333017
 21
109.4280691130253
 31
0.0
  0
LINE
  5
2FF6
330
1A
100
AcDbEntity
  8
0
 62
     0
 48
5.0
100
AcDbLine
 10
537.2018606333015
 20
61.16806911302532
 30
0.0
 11
537.2018606333016
 21
51.80785810558041
 31
0.0
  0
LINE
  5
2FF7
330
1A
100
AcDbEntity
  8
0
 62
     0
 48
5.0
100
AcDbLine
 10
531.9553261439009
 20
61.16806911302536
 30
0.0
 11
538.4686585563704
 21
61.16806911302532
 31
0.0
  0
LINE
  5
2FF8
330
1A
100
AcDbEntity
  8
0
 62
     0
 48
5.0
100
AcDbLine
 10
532.4287432141573
 20
61.16806911302536
 30
0.0
 11
538.4686585563704
 21
61.16806911302532
 31
0.0
  0
LINE
  5
2FF9
330
1A
100
AcDbEntity
  8
0
 62
     0
 48
5.0
100
AcDbLine
 10
532.4287432141573
 20
73.23306911302532
 30
0.0
 11
538.4686585563704
 21
73.23306911302532
 31
0.0
  0
LINE
  5
2FFA
330
1A
100
AcDbEntity
  8
0
 62
     0
 48
5.0
100
AcDbLine
 10
532.4287432141573
 20
70.82006911302534
 30
0.0
 11
538.4686585563704
 21
70.82006911302534
 31
0.0
  0
LINE
  5
2FFB
330
1A
100
AcDbEntity
  8
0
 62
     0
 48
5.0
100
AcDbLine
 10
532.4287432141573
 20
68.40706911302532
 30
0.0
 11
538.4686585563704
 21
68.4070691130253
 31
0.0
  0
LINE
  5
2FFC
330
1A
100
AcDbEntity
  8
0
 62
     0
 48
5.0
100
AcDbLine
 10
532.4287432141573
 20
65.99406911302532
 30
0.0
 11
538.4686585563704
 21
65.99406911302532
 31
0.0
  0
LINE
  5
2FFD
330
1A
100
AcDbEntity
  8
0
 62
     0
 48
5.0
100
AcDbLine
 10
532.4287432141573
 20
63.58106911302531
 30
0.0
 11
538.4686585563704
 21
63.58106911302531
 31
0.0
  0
LINE
  5
2FFE
330
1A
100
AcDbEntity
  8
0
 62
     0
 48
5.0
100
AcDbLine
 10
532.4287432141573
 20
75.64606911302533
 30
0.0
 11
538.4686585563704
 21
75.64606911302539
 31
0.0
  0
LINE
  5
2FFF
330
1A
100
AcDbEntity
  8
0
 62
     0
 48
5.0
100
AcDbLine
 10
532.4287432141573
 20
78.05906911302535
 30
0.0
 11
538.4686585563704
 21
78.05906911302535
 31
0.0
  0
LINE
  5
3000
330
1A
100
AcDbEntity
  8
0
 62
     0
 48
5.0
100
AcDbLine
 10
532.4287432141573
 20
80.47206911302536
 30
0.0
 11
538.4686585563704
 21
80.47206911302536
 31
0.0
  0
LINE
  5
3001
330
1A
100
AcDbEntity
  8
0
 62
     0
 48
5.0
100
AcDbLine
 10
532.4287432141573
 20
82.88506911302537
 30
0.0
 11
538.4686585563704
 21
82.88506911302537
 31
0.0
  0
LINE
  5
3002
330
1A
100
AcDbEntity
  8
0
 62
     0
 48
5.0
100
AcDbLine
 10
532.4287432141573
 20
85.29806911302538
 30
0.0
 11
538.4686585563704
 21
85.29806911302538
 31
0.0
  0
LINE
  5
3003
330
1A
100
AcDbEntity
  8
0
 62
     0
 48
5.0
100
AcDbLine
 10
532.2018606333016
 20
97.36306911302532
 30
0.0
 11
538.4686585563704
 21
97.36306911302532
 31
0.0
  0
LINE
  5
3004
330
1A
100
AcDbEntity
  8
0
 62
     0
 48
5.0
100
AcDbLine
 10
532.2018606333016
 20
99.77606911302533
 30
0.0
 11
538.4686585563704
 21
99.77606911302533
 31
0.0
  0
LINE
  5
3005
330
1A
100
AcDbEntity
  8
0
 62
     0
 48
5.0
100
AcDbLine
 10
532.2018606333016
 20
102.1890691130253
 30
0.0
 11
538.4686585563704
 21
102.1890691130253
 31
0.0
  0
LINE
  5
3006
330
1A
100
AcDbEntity
  8
0
 62
     0
 48
5.0
100
AcDbLine
 10
532.2018606333016
 20
104.6020691130253
 30
0.0
 11
538.4686585563704
 21
104.6020691130253
 31
0.0
  0
LINE
  5
3007
330
1A
100
AcDbEntity
  8
0
 62
     0
 48
5.0
100
AcDbLine
 10
532.2018606333016
 20
107.0150691130253
 30
0.0
 11
538.4686585563704
 21
107.0150691130253
 31
0.0
  0
LINE
  5
3008
330
1A
100
AcDbEntity
  8
0
 62
     0
 48
5.0
100
AcDbLine
 10
532.2018606333016
 20
94.9500691130253
 30
0.0
 11
538.4686585563704
 21
94.9500691130253
 31
0.0
  0
LINE
  5
3009
330
1A
100
AcDbEntity
  8
0
 62
     0
 48
5.0
100
AcDbLine
 10
532.2018606333016
 20
92.53706911302529
 30
0.0
 11
538.4686585563704
 21
92.53706911302529
 31
0.0
  0
LINE
  5
300A
330
1A
100
AcDbEntity
  8
0
 62
     0
 48
5.0
100
AcDbLine
 10
532.2018606333016
 20
90.12406911302528
 30
0.0
 11
538.4686585563704
 21
90.12406911302528
 31
0.0
  0
LINE
  5
300B
330
1A
100
AcDbEntity
  8
0
 62
     0
 48
5.0
100
AcDbLine
 10
532.2018606333016
 20
87.71106911302528
 30
0.0
 11
538.4686585563704
 21
87.71106911302528
 31
0.0
  0
LINE
  5
300C
330
1A
100
AcDbEntity
  8
0
 62
     0
 48
5.0
100
AcDbLine
 10
538.4686585563704
 20
109.4280691130253
 30
0.0
 11
538.4686585563705
 21
61.16806911302536
 31
0.0
  0
LEADER
  5
3340
330
1A
100
AcDbEntity
  8
図
 62
     0
 48
5.0
100
AcDbLeader
  3
STANDARD１
 76
     2
 10
523.2018606333017
 20
120.0378581055804
 30
0.0
 10
517.130389905958
 20
135.7388870950227
 30
0.0
1001
ACAD
1000
DSTYLE
1002
{
1070
    77
1070
     0
1002
}
  0
CIRCLE
  5
3341
330
1A
100
AcDbEntity
  8
図
 62
     0
 48
5.0
100
AcDbCircle
 10
485.2610597909343
 20
124.5176136786774
 30
0.0
 40
5.0
  0
MTEXT
  5
3342
330
1A
100
AcDbEntity
  8
図
 62
     0
 48
5.0
100
AcDbMText
 10
485.2610597909343
 20
124.6004169275221
 30
0.0
 40
5.0
 41
5.0
 71
     5
 72
     5
  1
6
  7
CB
 73
     1
 44
1.0
1001
ACAD
1000
MTEXTBEGIN
1070
    73
1070
     1
1070
    44
1040
1.0
1070
    74
1070
     0
1000
MTEXTEND
  0
LEADER
  5
3343
330
1A
100
AcDbEntity
  8
図
 62
     0
 48
5.0
100
AcDbLeader
  3
STANDARD１
 76
     2
 10
469.5724174786775
 20
92.05290122817215
 30
0.0
 10
483.0855127350594
 20
120.0157257405259
 30
0.0
1001
ACAD
1000
DSTYLE
1002
{
1070
    77
1070
     0
1002
}
  0
DIMENSION
  5
3356
330
1A
100
AcDbEntity
  8
0
 62
     0
 48
5.0
100
AcDbDimension
  2
*D11
 10
436.0120954677553
 20
52.60771358082667
 30
0.0
 11
459.202377089759
 21
52.60771358082667
 31
0.0
 70
   160
  1
(100)
 71
     5
 42
47.18976516554642
  3
STANDARD１
100
AcDbAlignedDimension
 13
483.2018606333017
 23
78.54285810558039
 33
0.0
 14
436.0120954677553
 24
80.0479636093029
 34
0.0
100
AcDbRotatedDimension
1001
GENIUS_GENDTOL_13
1000
TolAcLim
1000

1000

1040
100.0
1001
ACAD
1000
DSTYLE
1002
{
1070
   140
1040
6.0
1070
   341
1005
0
1002
}
  0
LINE
  5
335F
330
1A
100
AcDbEntity
  8
0
 48
5.0
100
AcDbLine
 10
387.9205012520803
 20
80.0479636093029
 30
0.0
 11
439.0120954677552
 21
80.0479636093029
 31
0.0
  0
LINE
  5
3360
330
1A
100
AcDbEntity
  8
0
 48
5.0
100
AcDbLine
 10
439.0120954677552
 20
90.54796360930291
 30
0.0
 11
387.9205012520803
 21
90.54796360930291
 31
0.0
  0
MTEXT
  5
3566
330
1A
100
AcDbEntity
  8
図
 62
     0
 48
5.0
100
AcDbMText
 10
169.9643570465346
 20
155.2054998438286
 30
0.0
 40
5.0
 41
0.0
 71
     4
 72
     5
  1
インタフェースユニット側
  7
CB
 73
     1
 44
1.0
1001
ACAD
1000
MTEXTBEGIN
1070
    73
1070
     1
1070
    44
1040
1.0
1070
    74
1070
     0
1000
MTEXTEND
  0
DIMENSION
  5
35A1
330
1A
100
AcDbEntity
  8
0
 62
     0
 48
5.0
100
AcDbDimension
  2
*D12
 10
167.5527070616892
 20
51.29827905603987
 30
0.0
 11
163.0501689906232
 21
85.29819105603989
 31
0.0
 70
    32
  1
(54)
 71
     5
 42
67.99982400000001
  3
STANDARD１
100
AcDbAlignedDimension
 13
184.2950783944402
 23
119.2981030560398
 33
0.0
 14
184.2950783944402
 24
51.29827905603986
 34
0.0
 50
90.0
100
AcDbRotatedDimension
1001
ACAD
1000
DSTYLE
1002
{
1070
   140
1040
6.0
1070
   341
1005
0
1002
}
  0
DIMENSION
  5
35AE
330
1A
100
AcDbEntity
  8
0
 62
     0
 48
5.0
100
AcDbDimension
  2
*D13
 10
190.3953253944402
 20
32.93334761737037
 30
0.0
 11
192.2474861583996
 21
24.42827147523839
 31
0.0
 70
    32
  1
(6)
 71
     5
 42
6.100246999999967
  3
STANDARD１
100
AcDbAlignedDimension
 13
184.2950783944402
 23
51.29827905603986
 33
0.0
 14
190.3953253944402
 24
51.29827905603986
 34
0.0
100
AcDbRotatedDimension
1001
ACAD
1000
DSTYLE
1002
{
1070
   140
1040
6.0
1070
   341
1005
0
1002
}
  0
DIMENSION
  5
35BB
330
1A
100
AcDbEntity
  8
0
 62
     0
 48
5.0
100
AcDbDimension
  2
*D14
 10
229.5243915205709
 20
32.93334761737037
 30
0.0
 11
221.3243824821263
 21
37.43588568843636
 31
0.0
 70
    32
  1
(17)
 71
     5
 42
16.40001807688907
  3
STANDARD１
100
AcDbAlignedDimension
 13
213.1243734436818
 23
51.59827735603989
 33
0.0
 14
229.5243915205709
 24
53.34843463762394
 34
0.0
100
AcDbRotatedDimension
1001
ACAD
1000
DSTYLE
1002
{
1070
   140
1040
6.0
1070
   341
1005
0
1002
}
  0
DIMENSION
  5
35C8
330
1A
100
AcDbEntity
  8
0
 62
     0
 48
5.0
100
AcDbDimension
  2
*D15
 10
547.2018606333017
 20
32.91893706025791
 30
0.0
 11
535.2018606333017
 21
37.4214751313239
 31
0.0
 70
    32
  1
(23)
 71
     5
 42
24.0
  3
STANDARD１
100
AcDbAlignedDimension
 13
523.2018606333017
 23
50.55785810558041
 33
0.0
 14
547.2018606333017
 24
51.80785810558041
 34
0.0
100
AcDbRotatedDimension
1001
ACAD
1000
DSTYLE
1002
{
1070
   140
1040
6.0
1070
   341
1005
0
1002
}
  0
LINE
  5
37B5
330
1A
100
AcDbEntity
  8
0
100
AcDbLine
 10
571.8607889836398
 20
120.0378581055804
 30
0.0
 11
580.1107889836398
 21
120.0378581055804
 31
0.0
  0
LINE
  5
37B6
330
1A
100
AcDbEntity
  8
0
100
AcDbLine
 10
571.8607889836398
 20
50.5578581055804
 30
0.0
 11
580.1107889836398
 21
50.55785810558041
 31
0.0
  0
LINE
  5
37B7
330
1A
100
AcDbEntity
  8
0
100
AcDbLine
 10
580.1107889836398
 20
120.0378581055804
 30
0.0
 11
580.1107889836398
 21
50.90921824047382
 31
0.0
  0
LINE
  5
37B8
330
1A
100
AcDbEntity
  8
0
100
AcDbLine
 10
571.8607889836398
 20
120.0378581055804
 30
0.0
 11
571.8607889836398
 21
50.55785810558039
 31
0.0
  0
CIRCLE
  5
37BE
330
1A
100
AcDbEntity
  8
0
100
AcDbCircle
 10
575.9857889836399
 20
117.2878581055804
 30
0.0
 40
1.27
  0
ARC
  5
37C0
330
1A
100
AcDbEntity
  8
0
100
AcDbCircle
 10
575.9857889836399
 20
117.2878581055804
 30
0.0
 40
2.750000000000032
100
AcDbArc
 50
180.0
 51
0.0000000000047373
  0
LINE
  5
37C1
330
1A
100
AcDbEntity
  8
0
100
AcDbLine
 10
573.2357889836399
 20
117.2878581055804
 30
0.0
 11
573.2357889836399
 21
119.3075106549853
 31
0.0
  0
LINE
  5
37C2
330
1A
100
AcDbEntity
  8
0
100
AcDbLine
 10
578.7357889836401
 20
117.2878581055806
 30
0.0
 11
578.7357889836398
 21
119.3075106549853
 31
0.0
  0
LINE
  5
37C3
330
1A
100
AcDbEntity
  8
0
100
AcDbLine
 10
573.2357889836399
 20
119.3075106549853
 30
0.0
 11
578.7357889836397
 21
119.3075106549853
 31
0.0
  0
LINE
  5
37C4
330
1A
100
AcDbEntity
  8
0
100
AcDbLine
 10
573.8840197803996
 20
120.0378581055804
 30
0.0
 11
573.8840197803995
 21
119.3075106549853
 31
0.0
  0
LINE
  5
37C5
330
1A
100
AcDbEntity
  8
0
100
AcDbLine
 10
578.0875581868801
 20
120.0378581055804
 30
0.0
 11
578.0875581868801
 21
119.3075106549853
 31
0.0
  0
LINE
  5
37C6
330
1A
100
AcDbEntity
  8
0
100
AcDbLine
 10
573.2357889836399
 20
51.28820555617551
 30
0.0
 11
578.7357889836397
 21
51.28820555617553
 31
0.0
  0
LINE
  5
37C7
330
1A
100
AcDbEntity
  8
0
100
AcDbLine
 10
578.0875581868801
 20
50.55785810558041
 30
0.0
 11
578.0875581868801
 21
51.28820555617551
 31
0.0
  0
LINE
  5
37C8
330
1A
100
AcDbEntity
  8
0
100
AcDbLine
 10
573.8840197803996
 20
50.55785810558041
 30
0.0
 11
573.8840197803995
 21
51.28820555617551
 31
0.0
  0
CIRCLE
  5
37C9
330
1A
100
AcDbEntity
  8
0
100
AcDbCircle
 10
575.9857889836399
 20
53.30785810558042
 30
0.0
 40
1.27
  0
ARC
  5
37CA
330
1A
100
AcDbEntity
  8
0
100
AcDbCircle
 10
575.9857889836399
 20
53.30785810558042
 30
0.0
 40
2.750000000000032
100
AcDbArc
 50
359.9999999999951
 51
180.0
  0
LINE
  5
37CB
330
1A
100
AcDbEntity
  8
0
100
AcDbLine
 10
573.2357889836399
 20
53.30785810558042
 30
0.0
 11
573.2357889836399
 21
51.28820555617553
 31
0.0
  0
LINE
  5
37CC
330
1A
100
AcDbEntity
  8
0
100
AcDbLine
 10
578.7357889836401
 20
53.30785810558019
 30
0.0
 11
578.7357889836398
 21
51.28820555617548
 31
0.0
  0
LINE
  5
37CF
330
1A
100
AcDbEntity
  8
0
100
AcDbLine
 10
578.6069039006605
 20
110.6818818773813
 30
0.0
 11
578.6069039006605
 21
85.29785810558042
 31
0.0
  0
LINE
  5
37D0
330
1A
100
AcDbEntity
  8
0
100
AcDbLine
 10
573.3646740666194
 20
109.5179788113133
 30
0.0
 11
573.3646740666194
 21
85.29785810558042
 31
0.0
  0
LINE
  5
37D1
330
1A
100
AcDbEntity
  8
0
100
AcDbLine
 10
576.415836103693
 20
112.0132065184792
 30
0.0
 11
574.1736062696518
 21
110.8493034524112
 31
0.0
  0
ARC
  5
37D3
330
1A
100
AcDbEntity
  8
0
100
AcDbCircle
 10
577.1069039006605
 20
110.6818818773813
 30
0.0
 40
1.5
100
AcDbArc
 50
0.000000000000007
 51
117.4330523713062
  0
ARC
  5
37D4
330
1A
100
AcDbEntity
  8
0
100
AcDbCircle
 10
574.8646740666194
 20
109.5179788113133
 30
0.0
 40
1.5
100
AcDbArc
 50
117.4330523713061
 51
180.0
  0
LINE
  5
37D5
330
1A
100
AcDbEntity
  8
0
100
AcDbLine
 10
578.6069039006605
 20
59.91383433377949
 30
0.0
 11
578.6069039006605
 21
85.29785810558042
 31
0.0
  0
ARC
  5
37D6
330
1A
100
AcDbEntity
  8
0
100
AcDbCircle
 10
577.1069039006605
 20
59.91383433377949
 30
0.0
 40
1.5
100
AcDbArc
 50
242.5669476286938
 51
0.000000000000007
  0
LINE
  5
37D7
330
1A
100
AcDbEntity
  8
0
100
AcDbLine
 10
573.3646740666194
 20
61.0777373998475
 30
0.0
 11
573.3646740666194
 21
85.29785810558042
 31
0.0
  0
ARC
  5
37D8
330
1A
100
AcDbEntity
  8
0
100
AcDbCircle
 10
574.8646740666194
 20
61.0777373998475
 30
0.0
 40
1.5
100
AcDbArc
 50
180.0
 51
242.5669476286939
  0
LINE
  5
37D9
330
1A
100
AcDbEntity
  8
0
100
AcDbLine
 10
576.415836103693
 20
58.58250969268161
 30
0.0
 11
574.1736062696518
 21
59.74641275874962
 31
0.0
  0
DIMENSION
  5
37DA
330
1A
100
AcDbEntity
  8
0
 62
     0
 48
5.0
100
AcDbDimension
  2
*D16
 10
599.2816773015633
 20
50.5578581055804
 30
0.0
 11
594.7791392304973
 21
85.29785810558051
 31
0.0
 70
    32
  1
(70)
 71
     5
 42
69.48000000000003
  3
STANDARD１
100
AcDbAlignedDimension
 13
580.1107889836398
 23
120.0378581055804
 33
0.0
 14
580.1107889836398
 24
50.55785810558041
 34
0.0
 50
90.0
100
AcDbRotatedDimension
1001
ACAD
1000
DSTYLE
1002
{
1070
   140
1040
6.0
1070
   341
1005
0
1002
}
  0
DIMENSION
  5
37E7
330
1A
100
AcDbEntity
  8
0
 62
     0
 48
5.0
100
AcDbDimension
  2
*D17
 10
580.4264455492964
 20
32.91893706025791
 30
0.0
 11
581.0459015304274
 21
24.41386091812594
 31
0.0
 70
    32
  1
(9)
 71
     5
 42
8.565656565656581
  3
STANDARD１
100
AcDbAlignedDimension
 13
571.8607889836398
 23
50.5578581055804
 33
0.0
 14
580.4264455492964
 24
50.55785810558041
 34
0.0
100
AcDbRotatedDimension
1001
ACAD
1000
DSTYLE
1002
{
1070
   140
1040
6.0
1070
   341
1005
0
1002
}
  0
TEXT
  5
39B9
330
1A
100
AcDbEntity
  8
図
 62
     0
 48
5.0
100
AcDbText
 10
143.7515359149122
 20
193.588628623597
 30
0.0
 40
8.0
  1
A0J2リニューアルツールシーケンサ接続ケーブル
  7
CB
100
AcDbText
  0
LEADER
  5
3A4A
330
1A
100
AcDbEntity
  8
図
 62
     0
 48
5.0
100
AcDbLeader
  3
STANDARD
 73
     0
 74
     0
 75
     1
 40
7.583756345177664
 41
72.94416243654821
 76
     3
 10
322.89845665648
 20
81.04796360930292
 30
0.0
 10
336.2148356558037
 20
56.29866300349521
 30
0.0
 10
339.2148356558037
 20
56.29866300349521
 30
0.0
340
3A4B
1001
ACAD
1000
DSTYLE
1002
{
1070
    41
1040
3.0
1070
   340
1005
E6F
1070
   341
1005
24E
1002
}
  0
MTEXT
  5
3A4B
102
{ACAD_REACTORS
330
3A4A
102
}
330
1A
100
AcDbEntity
  8
0
100
AcDbMText
 10
339.8398356558037
 20
56.92366300349521
 30
0.0
 40
6.0
 41
0.0
 71
     7
 72
     1
  1
\A1;ケーブル外径：φ9.5
  7
CB
 73
     1
 44
1.0
1001
ACAD
1000
MTEXTBEGIN
1070
    73
1070
     1
1070
    44
1040
1.0
1070
    74
1070
     0
1000
MTEXTEND
  0
VIEWPORT
  5
3905
102
{ACAD_XDICTIONARY
360
3A62
102
}
330
38F9
100
AcDbEntity
 67
     1
  8
0
100
AcDbViewport
 10
167.7792994272595
 20
106.6412963910571
 30
0.0
 40
423.9955466633879
 41
257.5523442146624
 68
     1
 69
     1
 12
167.7792994272595
 22
106.6412963910571
 13
0.0
 23
0.0
 14
10.0
 24
10.0
 15
10.0
 25
10.0
 16
0.0
 26
0.0
 36
1.0
 17
0.0
 27
0.0
 37
0.0
 42
50.0
 43
0.0
 44
0.0
 45
257.5523442146624
 50
0.0
 51
0.0
 72
   100
 90
    32800
  1

281
     0
 71
     1
 74
     0
110
0.0
120
0.0
130
0.0
111
1.0
121
0.0
131
0.0
112
0.0
122
1.0
132
0.0
 79
     0
146
0.0
  0
VIEWPORT
  5
3907
102
{ACAD_XDICTIONARY
360
3A64
102
}
330
38F9
100
AcDbEntity
 67
     1
  8
0
 62
     3
370
    40
100
AcDbViewport
 10
143.8051437805517
 20
98.55168640101783
 30
0.0
 40
282.3274641489305
 41
196.1561339733188
 68
     2
 69
     2
 12
377.0875705665153
 22
54.98024319346129
 13
0.0
 23
0.0
 14
1.0
 24
1.0
 15
2.0
 25
2.0
 16
0.0
 26
0.0
 36
1.0
 17
0.0
 27
0.0
 37
0.0
 42
50.0
 43
0.0
 44
0.0
 45
354.7967245085019
 50
0.0
 51
0.0
 72
   100
 90
    32800
  1

281
     0
 71
     1
 74
     0
110
0.0
120
0.0
130
0.0
111
1.0
121
0.0
131
0.0
112
0.0
122
1.0
132
0.0
 79
     0
146
0.0
  0
LINE
  5
3963
330
38F9
100
AcDbEntity
 67
     1
  8
0
100
AcDbLine
 10
170.9927351887181
 20
61.97958477682714
 30
0.0
 11
170.9927351887181
 21
26.40244875135914
 31
0.0
  0
LINE
  5
3964
330
38F9
100
AcDbEntity
 67
     1
  8
0
100
AcDbLine
 10
151.8593730083686
 20
61.8990782216613
 30
0.0
 11
151.8593730083686
 21
26.40244875135913
 31
0.0
  0
LINE
  5
3965
330
38F9
100
AcDbEntity
 67
     1
  8
0
100
AcDbLine
 10
102.278116031725
 20
61.8990782216613
 30
0.0
 11
102.2781160317249
 21
26.40244875135913
 31
0.0
  0
LINE
  5
3966
330
38F9
100
AcDbEntity
 67
     1
  8
0
100
AcDbLine
 10
34.1116598235053
 20
61.8990782216613
 30
0.0
 11
34.11165982350528
 21
26.4024487513591
 31
0.0
  0
LINE
  5
3967
330
38F9
100
AcDbEntity
 67
     1
  8
0
100
AcDbLine
 10
21.24962528752539
 20
61.8990782216613
 30
0.0
 11
21.24962528752539
 21
26.4024487513591
 31
0.0
  0
LINE
  5
3968
330
38F9
100
AcDbEntity
 67
     1
  8
0
100
AcDbLine
 10
21.24962528752539
 20
50.37907822166127
 30
0.0
 11
193.1258998007002
 21
50.37907822166124
 31
0.0
  0
LINE
  5
3969
330
38F9
100
AcDbEntity
 67
     1
  8
0
100
AcDbLine
 10
21.24962528752539
 20
55.17907822166129
 30
0.0
 11
193.1258998007002
 21
55.17907822166129
 31
0.0
  0
TEXT
  5
396A
330
38F9
100
AcDbEntity
 67
     1
  8
0
100
AcDbText
 10
22.76916027995052
 20
57.09907822166129
 30
0.0
 40
3.0
  1
品 番
  7
CB
100
AcDbText
  0
TEXT
  5
396B
330
38F9
100
AcDbEntity
 67
     1
  8
0
100
AcDbText
 10
53.27698955741066
 20
57.09907822166129
 30
0.0
 40
3.0
  1
部  品  名
  7
CB
100
AcDbText
  0
TEXT
  5
396C
330
38F9
100
AcDbEntity
 67
     1
  8
0
100
AcDbText
 10
117.4470922678411
 20
57.09907822166129
 30
0.0
 40
3.0
  1
  材  料  
  7
CB
100
AcDbText
  0
TEXT
  5
396D
330
38F9
100
AcDbEntity
 67
     1
  8
0
100
AcDbText
 10
152.439324446418
 20
58.53907822166128
 30
0.0
 40
3.0
  1
所要数
  7
CB
100
AcDbText
  0
TEXT
  5
396E
330
38F9
100
AcDbEntity
 67
     1
  8
0
100
AcDbText
 10
165.6914613295174
 20
55.65907822166127
 30
0.0
 40
3.0
  1
個
  7
CB
100
AcDbText
  0
LINE
  5
396F
330
38F9
100
AcDbEntity
 67
     1
  8
0
100
AcDbLine
 10
167.252777376719
 20
60.63743703125796
 30
0.0
 11
162.1060066755906
 21
56.00896056802825
 31
0.0
  0
TEXT
  5
3970
330
38F9
100
AcDbEntity
 67
     1
  8
0
100
AcDbText
 10
25.71481867232315
 20
51.74821830975412
 30
0.0
 40
3.0
  1
1
  7
CB
100
AcDbText
  0
TEXT
  5
3971
330
38F9
100
AcDbEntity
 67
     1
  8
0
100
AcDbText
 10
35.80094828340626
 20
51.33907822166129
 30
0.0
 40
3.0
  1
FCN４０Pコネクタ
  7
CB
100
AcDbText
  0
TEXT
  5
3972
330
38F9
100
AcDbEntity
 67
     1
  8
0
100
AcDbText
 10
160.1178613372118
 20
51.62229323853631
 30
0.0
 40
3.0
  1
1
  7
CB
100
AcDbText
  0
LINE
  5
3973
330
38F9
100
AcDbEntity
 67
     1
  8
0
100
AcDbLine
 10
21.26613645333951
 20
45.58686839822722
 30
0.0
 11
193.1258998007003
 21
45.58686839822722
 31
0.0
  0
TEXT
  5
3974
330
38F9
100
AcDbEntity
 67
     1
  8
0
100
AcDbText
 10
35.75971321865121
 20
46.90913252193446
 30
0.0
 40
3.0
  1
MILコネクタ
  7
CB
100
AcDbText
  0
LINE
  5
3975
330
38F9
100
AcDbEntity
 67
     1
  8
0
100
AcDbLine
 10
21.24962528752539
 20
61.97958477682714
 30
0.0
 11
193.1258998007003
 21
61.97958477682714
 31
0.0
  0
LINE
  5
3976
330
38F9
100
AcDbEntity
 67
     1
  8
0
100
AcDbLine
 10
21.24962528752537
 20
40.78686839822721
 30
0.0
 11
193.1258998007003
 21
40.78686839822721
 31
0.0
  0
LINE
  5
3977
330
38F9
100
AcDbEntity
 67
     1
  8
0
100
AcDbLine
 10
21.24962528752537
 20
45.58686839822722
 30
0.0
 11
193.1258998007003
 21
45.58686839822722
 31
0.0
  0
LINE
  5
3978
330
38F9
100
AcDbEntity
 67
     1
  8
0
100
AcDbLine
 10
21.26613645333949
 20
35.99465857479317
 30
0.0
 11
193.1258998007004
 21
35.99465857479317
 31
0.0
  0
TEXT
  5
3979
330
38F9
100
AcDbEntity
 67
     1
  8
0
100
AcDbText
 10
35.75971321865119
 20
42.10913252193446
 30
0.0
 40
3.0
  1
丸型４０芯ケーブル（シールドなし）
  7
CB
100
AcDbText
  0
TEXT
  5
397A
330
38F9
100
AcDbEntity
 67
     1
  8
0
100
AcDbText
 10
104.9583443251568
 20
41.77798151732352
 30
0.0
 40
3.0
  1
2464 VVP28×20p
  7
CB
100
AcDbText
  0
LINE
  5
397B
330
38F9
100
AcDbEntity
 67
     1
  8
0
100
AcDbLine
 10
21.24962528752539
 20
31.19465857479318
 30
0.0
 11
193.1258998007003
 21
31.19465857479314
 31
0.0
  0
LINE
  5
397C
330
38F9
100
AcDbEntity
 67
     1
  8
0
100
AcDbLine
 10
21.24962528752539
 20
35.99465857479317
 30
0.0
 11
193.1258998007003
 21
35.99465857479314
 31
0.0
  0
TEXT
  5
397D
330
38F9
100
AcDbEntity
 67
     1
  8
0
100
AcDbText
 10
35.80094828340626
 20
36.94686839822722
 30
0.0
 40
3.0
  1
保護チューブ
  7
CB
100
AcDbText
  0
TEXT
  5
397E
330
38F9
100
AcDbEntity
 67
     1
  8
0
100
AcDbText
 10
104.8655266101024
 20
36.94686839822722
 30
0.0
 40
3.0
  1
スミチューブV(300V)透明
  7
CB
100
AcDbText
  0
TEXT
  5
397F
330
38F9
100
AcDbEntity
 67
     1
  8
0
100
AcDbText
 10
160.1178613372118
 20
37.23008341510225
 30
0.0
 40
3.0
  1
1
  7
CB
100
AcDbText
  0
TEXT
  5
3980
330
38F9
100
AcDbEntity
 67
     1
  8
0
100
AcDbText
 10
160.1178613372118
 20
27.3787354397891
 30
0.0
 40
3.0
  1
2
  7
CB
100
AcDbText
  0
LINE
  5
3981
330
38F9
100
AcDbEntity
 67
     1
  8
0
100
AcDbLine
 10
21.26613645333951
 20
26.4024487513591
 30
0.0
 11
193.1258998007003
 21
26.40244875135907
 31
0.0
  0
TEXT
  5
3982
330
38F9
100
AcDbEntity
 67
     1
  8
0
100
AcDbText
 10
35.75971321865121
 20
32.51692269850039
 30
0.0
 40
3.0
  1
形名・製造番号シール
  7
CB
100
AcDbText
  0
LINE
  5
3983
330
38F9
100
AcDbEntity
 67
     1
  8
0
100
AcDbLine
 10
21.24962528752539
 20
26.4024487513591
 30
0.0
 11
193.1258998007004
 21
26.40244875135914
 31
0.0
  0
TEXT
  5
3984
330
38F9
100
AcDbEntity
 67
     1
  8
0
100
AcDbText
 10
35.81745944922037
 20
27.35465857479316
 30
0.0
 40
3.0
  1
収縮チューブ
  7
CB
100
AcDbText
  0
TEXT
  5
3985
330
38F9
100
AcDbEntity
 67
     1
  8
0
100
AcDbText
 10
104.8820377759165
 20
27.35465857479316
 30
0.0
 40
3.0
  1
スミチューブ F(Z) 黒
  7
CB
100
AcDbText
  0
TEXT
  5
3986
330
38F9
100
AcDbEntity
 67
     1
  8
0
100
AcDbText
 10
25.73132983813728
 20
46.95600848632007
 30
0.0
 40
3.0
  1
2
  7
CB
100
AcDbText
  0
TEXT
  5
3987
330
38F9
100
AcDbEntity
 67
     1
  8
0
100
AcDbText
 10
25.71481867232315
 20
42.15600848632006
 30
0.0
 40
3.0
  1
3
  7
CB
100
AcDbText
  0
TEXT
  5
3988
330
38F9
100
AcDbEntity
 67
     1
  8
0
100
AcDbText
 10
25.71481867232315
 20
37.36379866288601
 30
0.0
 40
3.0
  1
4
  7
CB
100
AcDbText
  0
TEXT
  5
3989
330
38F9
100
AcDbEntity
 67
     1
  8
0
100
AcDbText
 10
25.71481867232315
 20
32.563798662886
 30
0.0
 40
3.0
  1
5
  7
CB
100
AcDbText
  0
TEXT
  5
398A
330
38F9
100
AcDbEntity
 67
     1
  8
0
100
AcDbText
 10
25.71481867232315
 20
27.77158883945194
 30
0.0
 40
3.0
  1
6
  7
CB
100
AcDbText
  0
LINE
  5
398B
330
38F9
100
AcDbEntity
 67
     1
  8
0
100
AcDbLine
 10
193.1258998007003
 20
61.97958477682714
 30
0.0
 11
193.1258998007004
 21
26.40244875135914
 31
0.0
  0
TEXT
  5
398C
330
38F9
100
AcDbEntity
 67
     1
  8
0
100
AcDbText
 10
172.2664486038814
 20
41.7709452632232
 30
0.0
 40
3.0
  1
AWG28,20対
  7
CB
100
AcDbText
  0
TEXT
  5
398D
330
38F9
100
AcDbEntity
 67
     1
  8
0
100
AcDbText
 10
160.1178613372118
 20
46.83008341510231
 30
0.0
 40
3.0
  1
1
  7
CB
100
AcDbText
  0
TEXT
  5
398E
330
38F9
100
AcDbEntity
 67
     1
  8
0
100
AcDbText
 10
160.1178613372118
 20
42.03008341510225
 30
0.0
 40
3.0
  1
1
  7
CB
100
AcDbText
  0
TEXT
  5
398F
330
38F9
100
AcDbEntity
 67
     1
  8
0
100
AcDbText
 10
160.1178613372118
 20
32.4378735916682
 30
0.0
 40
3.0
  1
1
  7
CB
100
AcDbText
  0
TEXT
  5
3990
330
38F9
100
AcDbEntity
 67
     1
  8
0
100
AcDbText
 10
177.8523643071189
 20
57.09907822166129
 30
0.0
 40
3.0
  1
備　考
  7
CB
100
AcDbText
  0
LINE
  5
3991
330
38F9
100
AcDbEntity
 67
     1
  8
0
100
AcDbLine
 10
111.4484913806992
 20
33.59465857479317
 30
0.0
 11
134.4197475277964
 21
33.59465857479317
 31
0.0
  0
LINE
  5
3992
330
38F9
100
AcDbEntity
 67
     1
  8
0
100
AcDbLine
 10
111.4484913806992
 20
47.98686839822724
 30
0.0
 11
134.4197475277964
 21
47.98686839822724
 31
0.0
  0
LINE
  5
3993
330
38F9
100
AcDbEntity
 67
     1
  8
0
100
AcDbLine
 10
111.4484913806993
 20
52.77907822166127
 30
0.0
 11
134.4197475277965
 21
52.77907822166127
 31
0.0
  0
LINE
  5
3994
330
38F9
100
AcDbEntity
 67
     1
  8
0
100
AcDbLine
 10
242.5486608298405
 20
57.18737495339302
 30
0.0
 11
242.5486608298405
 21
26.40244875135903
 31
0.0
  0
LINE
  5
3995
330
38F9
100
AcDbEntity
 67
     1
  8
0
100
AcDbLine
 10
213.3675761772428
 20
57.18737495339302
 30
0.0
 11
213.3675761772428
 21
26.48295530652492
 31
0.0
  0
LINE
  5
3996
330
38F9
100
AcDbEntity
 67
     1
  8
0
100
AcDbLine
 10
213.3675761772428
 20
45.58686839822716
 30
0.0
 11
271.7032088056433
 21
45.58686839822712
 31
0.0
  0
LINE
  5
3997
330
38F9
100
AcDbEntity
 67
     1
  8
0
100
AcDbLine
 10
213.3675761772428
 20
50.38686839822718
 30
0.0
 11
271.7032088056433
 21
50.38686839822716
 31
0.0
  0
TEXT
  5
3998
330
38F9
100
AcDbEntity
 67
     1
  8
0
100
AcDbText
 10
215.5502479859852
 20
52.30686839822717
 30
0.0
 40
3.0
  1
ケーブル長[L]
  7
CB
100
AcDbText
  0
TEXT
  5
3999
330
38F9
100
AcDbEntity
 67
     1
  8
0
100
AcDbText
 10
221.6650021565302
 20
46.54686839822717
 30
0.0
 40
3.0
  1
0.35m
  7
CB
 72
     2
 11
231.4111950499313
 21
46.54686839822717
 31
0.0
100
AcDbText
  0
LINE
  5
399A
330
38F9
100
AcDbEntity
 67
     1
  8
0
100
AcDbLine
 10
213.3840873430569
 20
40.79465857479311
 30
0.0
 11
271.7032088056433
 21
40.79465857479312
 31
0.0
  0
TEXT
  5
399B
330
38F9
100
AcDbEntity
 67
     1
  8
0
100
AcDbText
 10
227.4714828278157
 20
42.11692269850035
 30
0.0
 40
3.0
  1
1m
  7
CB
 72
     2
 11
231.3699599851762
 21
42.11692269850035
 31
0.0
100
AcDbText
  0
LINE
  5
399C
330
38F9
100
AcDbEntity
 67
     1
  8
0
100
AcDbLine
 10
213.3675761772428
 20
57.18737495339302
 30
0.0
 11
271.7032088056433
 21
57.18737495339306
 31
0.0
  0
LINE
  5
399D
330
38F9
100
AcDbEntity
 67
     1
  8
0
100
AcDbLine
 10
213.3675761772428
 20
35.99465857479311
 30
0.0
 11
271.7032088056433
 21
35.99465857479311
 31
0.0
  0
LINE
  5
399E
330
38F9
100
AcDbEntity
 67
     1
  8
0
100
AcDbLine
 10
213.3675761772428
 20
40.79465857479311
 30
0.0
 11
271.7032088056433
 21
40.79465857479311
 31
0.0
  0
LINE
  5
399F
330
38F9
100
AcDbEntity
 67
     1
  8
0
100
AcDbLine
 10
213.3840873430569
 20
31.20244875135906
 30
0.0
 11
271.7032088056433
 21
31.20244875135906
 31
0.0
  0
TEXT
  5
39A0
330
38F9
100
AcDbEntity
 67
     1
  8
0
100
AcDbText
 10
227.4714828278157
 20
37.31692269850035
 30
0.0
 40
3.0
  1
2m
  7
CB
 72
     2
 11
231.3699599851761
 21
37.31692269850035
 31
0.0
100
AcDbText
  0
LINE
  5
39A1
330
38F9
100
AcDbEntity
 67
     1
  8
0
100
AcDbLine
 10
213.3675761772428
 20
26.40244875135906
 30
0.0
 11
271.7032088056433
 21
26.40244875135901
 31
0.0
  0
LINE
  5
39A2
330
38F9
100
AcDbEntity
 67
     1
  8
0
100
AcDbLine
 10
213.3675761772428
 20
31.20244875135906
 30
0.0
 11
271.7032088056433
 21
31.20244875135903
 31
0.0
  0
TEXT
  5
39A3
330
38F9
100
AcDbEntity
 67
     1
  8
0
100
AcDbText
 10
227.5127178925708
 20
32.15465857479311
 30
0.0
 40
3.0
  1
3m
  7
CB
 72
     2
 11
231.4111950499313
 21
32.15465857479311
 31
0.0
100
AcDbText
  0
TEXT
  5
39A4
330
38F9
100
AcDbEntity
 67
     1
  8
0
100
AcDbText
 10
227.4714828278157
 20
27.72471287506629
 30
0.0
 40
3.0
  1
5m
  7
CB
 72
     2
 11
231.3699599851762
 21
27.72471287506629
 31
0.0
100
AcDbText
  0
TEXT
  5
39A5
330
38F9
100
AcDbEntity
 67
     1
  8
0
100
AcDbText
 10
250.0396102051273
 20
52.30686839822717
 30
0.0
 40
3.0
  1
形　名
  7
CB
100
AcDbText
  0
TEXT
  5
39A6
330
38F9
100
AcDbEntity
 67
     1
  8
0
100
AcDbText
 10
246.8797874586204
 20
46.54686839822716
 30
0.0
 40
3.0
  1
SC-A0JQC03M
  7
CB
100
AcDbText
  0
TEXT
  5
39A7
330
38F9
100
AcDbEntity
 67
     1
  8
0
100
AcDbText
 10
246.8797874586204
 20
36.95465857479311
 30
0.0
 40
3.0
  1
SC-A0JQC20M
  7
CB
100
AcDbText
  0
TEXT
  5
39A8
330
38F9
100
AcDbEntity
 67
     1
  8
0
100
AcDbText
 10
246.8797874586204
 20
32.16244875135904
 30
0.0
 40
3.0
  1
SC-A0JQC30M
  7
CB
100
AcDbText
  0
TEXT
  5
39A9
330
38F9
100
AcDbEntity
 67
     1
  8
0
100
AcDbText
 10
246.8797874586204
 20
27.36244875135904
 30
0.0
 40
3.0
  1
SC-A0JQC50M
  7
CB
100
AcDbText
  0
TEXT
  5
39AA
330
38F9
100
AcDbEntity
 67
     1
  8
0
100
AcDbText
 10
246.8797874586204
 20
41.7546585747931
 30
0.0
 40
3.0
  1
SC-A0JQC10M
  7
CB
100
AcDbText
  0
LINE
  5
39AB
330
38F9
100
AcDbEntity
 67
     1
  8
0
100
AcDbLine
 10
271.7032088056433
 20
57.18737495339302
 30
0.0
 11
271.7032088056433
 21
26.40244875135901
 31
0.0
  0
TEXT
  5
39F3
330
38F9
100
AcDbEntity
 67
     1
  8
0
100
AcDbText
 10
188.5841157513154
 20
3.313600144145649
 30
0.0
 40
4.5
  1
三菱電機システムサービス株式会社
  7
CB
100
AcDbText
  0
LINE
  5
39FC
330
38F9
100
AcDbEntity
 67
     1
  8
0
 62
     3
370
    40
100
AcDbLine
 10
284.968875855017
 20
10.47361941435844
 30
0.0
 11
183.8720786774659
 21
10.47361941435844
 31
0.0
  0
LINE
  5
39FD
330
38F9
100
AcDbEntity
 67
     1
  8
0
 62
     3
370
    40
100
AcDbLine
 10
183.8720786774659
 20
10.47361941435844
 30
0.0
 11
183.8720786774658
 21
0.4736194143584386
 31
0.0
  0
TEXT
  5
39FE
330
38F9
100
AcDbEntity
 67
     1
  8
0
100
AcDbText
 10
249.5628207982202
 20
14.36939382859617
 30
0.0
 40
4.0
  1
単位[mm]
  7
CB
100
AcDbText
  0
ENDSEC
  0
SECTION
  2
OBJECTS
  0
DICTIONARY
  5
C
330
0
100
AcDbDictionary
281
     1
  3
ACAD_2007HEADERVARS_RT
350
38C9
  3
ACAD_COLOR
350
196D
  3
ACAD_GROUP
350
D
  3
ACAD_LAYOUT
350
140D
  3
ACAD_MATERIAL
350
196C
  3
ACAD_MLEADERSTYLE
350
292C
  3
ACAD_MLINESTYLE
350
E
  3
ACAD_PLOTSETTINGS
350
140E
  3
ACAD_PLOTSTYLENAME
350
140B
  3
ACAD_SCALELIST
350
290A
  3
ACAD_TABLESTYLE
350
196E
  3
ACAD_VISUALSTYLE
350
28F9
  3
AcadDim
350
3A49
  3
ACDB_RECOMPOSE_DATA
350
2961
  3
ACDBHEADERROUNDTRIPXREC
350
3A5E
  3
ACDBVARIABLEDICTIONARY
350
5D
  3
DWGPROPS
350
3A5D
  0
DICTIONARY
  5
2964
330
8
100
AcDbDictionary
280
     1
281
     1
  3
ACAD_XREC_ROUNDTRIP
360
38CB
  0
DICTIONARY
  5
1978
330
2
100
AcDbDictionary
280
     1
281
     1
  3
ACAD_LAYERSTATES
360
1979
  0
DICTIONARY
  5
2939
330
F
100
AcDbDictionary
280
     1
281
     1
  3
ACAD_XREC_ROUNDTRIP
360
38CC
  3
ADSK_XREC_LAYER_RECONCILED
360
293A
  0
DICTIONARY
  5
293B
330
7E
100
AcDbDictionary
280
     1
281
     1
  3
ACAD_XREC_ROUNDTRIP
360
38CF
  3
ADSK_XREC_LAYER_RECONCILED
360
293C
  0
DICTIONARY
  5
293D
330
7F
100
AcDbDictionary
280
     1
281
     1
  3
ACAD_XREC_ROUNDTRIP
360
38D0
  3
ADSK_XREC_LAYER_RECONCILED
360
293E
  0
DICTIONARY
  5
38D1
330
14F
100
AcDbDictionary
280
     1
281
     1
  3
ACAD_XREC_ROUNDTRIP
360
38D2
  0
DICTIONARY
  5
293F
330
235
100
AcDbDictionary
280
     1
281
     1
  3
ACAD_XREC_ROUNDTRIP
360
38D3
  3
ADSK_XREC_LAYER_RECONCILED
360
2940
  0
DICTIONARY
  5
2941
330
9E6
100
AcDbDictionary
280
     1
281
     1
  3
ACAD_XREC_ROUNDTRIP
360
38D4
  3
ADSK_XREC_LAYER_RECONCILED
360
2942
  0
DICTIONARY
  5
2943
330
9F8
100
AcDbDictionary
280
     1
281
     1
  3
ACAD_XREC_ROUNDTRIP
360
38D5
  3
ADSK_XREC_LAYER_RECONCILED
360
2944
  0
DICTIONARY
  5
2945
330
17FC
100
AcDbDictionary
280
     1
281
     1
  3
ACAD_XREC_ROUNDTRIP
360
38D8
  3
ADSK_XREC_LAYER_RECONCILED
360
2946
  0
DICTIONARY
  5
2947
330
17FD
100
AcDbDictionary
280
     1
281
     1
  3
ACAD_XREC_ROUNDTRIP
360
38D9
  3
ADSK_XREC_LAYER_RECONCILED
360
2948
  0
DICTIONARY
  5
2949
330
17FE
100
AcDbDictionary
280
     1
281
     1
  3
ACAD_XREC_ROUNDTRIP
360
38DA
  3
ADSK_XREC_LAYER_RECONCILED
360
294A
  0
DICTIONARY
  5
294B
330
17FF
100
AcDbDictionary
280
     1
281
     1
  3
ACAD_XREC_ROUNDTRIP
360
38DB
  3
ADSK_XREC_LAYER_RECONCILED
360
294C
  0
DICTIONARY
  5
294D
330
1800
100
AcDbDictionary
280
     1
281
     1
  3
ACAD_XREC_ROUNDTRIP
360
38DC
  3
ADSK_XREC_LAYER_RECONCILED
360
294E
  0
DICTIONARY
  5
294F
330
1801
100
AcDbDictionary
280
     1
281
     1
  3
ACAD_XREC_ROUNDTRIP
360
38DD
  3
ADSK_XREC_LAYER_RECONCILED
360
2950
  0
DICTIONARY
  5
2951
330
1802
100
AcDbDictionary
280
     1
281
     1
  3
ACAD_XREC_ROUNDTRIP
360
38DE
  3
ADSK_XREC_LAYER_RECONCILED
360
2952
  0
DICTIONARY
  5
2953
330
1803
100
AcDbDictionary
280
     1
281
     1
  3
ACAD_XREC_ROUNDTRIP
360
38DF
  3
ADSK_XREC_LAYER_RECONCILED
360
2954
  0
DICTIONARY
  5
2955
330
1804
100
AcDbDictionary
280
     1
281
     1
  3
ACAD_XREC_ROUNDTRIP
360
38E0
  3
ADSK_XREC_LAYER_RECONCILED
360
2956
  0
DICTIONARY
  5
2957
330
1805
100
AcDbDictionary
280
     1
281
     1
  3
ACAD_XREC_ROUNDTRIP
360
38E1
  3
ADSK_XREC_LAYER_RECONCILED
360
2958
  0
DICTIONARY
  5
2959
330
1806
100
AcDbDictionary
280
     1
281
     1
  3
ACAD_XREC_ROUNDTRIP
360
38E2
  3
ADSK_XREC_LAYER_RECONCILED
360
295A
  0
DICTIONARY
  5
295B
330
1807
100
AcDbDictionary
280
     1
281
     1
  3
ACAD_XREC_ROUNDTRIP
360
38E3
  3
ADSK_XREC_LAYER_RECONCILED
360
295C
  0
DICTIONARY
  5
295D
330
1808
100
AcDbDictionary
280
     1
281
     1
  3
ACAD_XREC_ROUNDTRIP
360
38E4
  3
ADSK_XREC_LAYER_RECONCILED
360
295E
  0
DICTIONARY
  5
37B9
330
1A
100
AcDbDictionary
280
     1
281
     1
  3
ACAD_SORTENTS
360
37BA
  0
DICTIONARY
  5
3A62
330
3905
100
AcDbDictionary
280
     1
281
     1
  3
ACAD_XREC_ROUNDTRIP
360
3A63
  0
DICTIONARY
  5
3A64
330
3907
100
AcDbDictionary
280
     1
281
     1
  3
ACAD_XREC_ROUNDTRIP
360
3A65
  0
DICTIONARY
  5
38C9
102
{ACAD_REACTORS
330
C
102
}
330
C
100
AcDbDictionary
281
     1
  3
DIMFXL
350
38CA
  0
DICTIONARY
  5
196D
102
{ACAD_REACTORS
330
C
102
}
330
C
100
AcDbDictionary
281
     1
  0
DICTIONARY
  5
D
102
{ACAD_REACTORS
330
C
102
}
330
C
100
AcDbDictionary
281
     1
  0
DICTIONARY
  5
140D
102
{ACAD_REACTORS
330
C
102
}
330
C
100
AcDbDictionary
281
     1
  3
Model
350
140F
  3
レイアウト1
350
38FA
  0
DICTIONARY
  5
196C
102
{ACAD_REACTORS
330
C
102
}
330
C
100
AcDbDictionary
281
     1
  3
ByBlock
350
28E9
  3
ByLayer
350
28E1
  3
Global
350
28F1
  0
DICTIONARY
  5
292C
102
{ACAD_REACTORS
330
C
102
}
330
C
100
AcDbDictionary
281
     1
  3
Standard
350
292D
  0
DICTIONARY
  5
E
102
{ACAD_REACTORS
330
C
102
}
330
C
100
AcDbDictionary
281
     1
  3
STANDARD
350
13
  0
DICTIONARY
  5
140E
102
{ACAD_REACTORS
330
C
102
}
330
C
100
AcDbDictionary
281
     1
  0
ACDBDICTIONARYWDFLT
  5
140B
102
{ACAD_REACTORS
330
C
102
}
330
C
100
AcDbDictionary
281
     1
  3
Normal
350
140C
100
AcDbDictionaryWithDefault
340
140C
  0
DICTIONARY
  5
290A
102
{ACAD_REACTORS
330
C
102
}
330
C
100
AcDbDictionary
281
     1
  3
A0
350
290B
  3
A1
350
290C
  3
A2
350
290D
  3
A3
350
290E
  3
A4
350
290F
  3
A5
350
2910
  3
A6
350
2911
  3
A7
350
2912
  3
A8
350
2913
  3
A9
350
2914
  3
B0
350
2915
  3
B1
350
2916
  3
B2
350
2917
  3
B3
350
2918
  3
B4
350
2919
  3
B5
350
291A
  3
B6
350
291B
  3
B7
350
291C
  3
B8
350
291D
  3
B9
350
291E
  3
C0
350
291F
  3
C1
350
2920
  3
C2
350
2921
  3
C3
350
2922
  3
C4
350
2923
  3
C5
350
2924
  3
C6
350
2925
  3
C7
350
2926
  3
C8
350
2927
  3
C9
350
2928
  3
D0
350
2929
  3
D1
350
292A
  3
D2
350
292B
  0
DICTIONARY
  5
196E
102
{ACAD_REACTORS
330
C
102
}
330
C
100
AcDbDictionary
281
     1
  3
Standard
350
196F
  0
DICTIONARY
  5
28F9
102
{ACAD_REACTORS
330
C
102
}
330
C
100
AcDbDictionary
281
     1
  3
2dWireframe
350
28FF
  3
3D Hidden
350
2901
  3
3dWireframe
350
2900
  3
Basic
350
28FE
  3
Brighten
350
2905
  3
ColorChange
350
2909
  3
Conceptual
350
2902
  3
Dim
350
2904
  3
Facepattern
350
2908
  3
Flat
350
28FA
  3
FlatWithEdges
350
28FB
  3
Gouraud
350
28FC
  3
GouraudWithEdges
350
28FD
  3
Linepattern
350
2907
  3
Realistic
350
2903
  3
Thicken
350
2906
  0
XRECORD
  5
3A49
102
{ACAD_REACTORS
330
C
102
}
330
C
100
AcDbXrecord
280
     1
 90
   990106
  3
OPEN30
 60
     0
 61
     0
 62
     1
 63
     3
 64
     1
 65
     0
 66
     0
 67
     3
 68
     1
 69
     0
 70
     0
 71
     0
 72
     0
 40
0.0
170
     0
340
3A4B
  0
XRECORD
  5
2961
102
{ACAD_REACTORS
330
C
102
}
330
C
100
AcDbXrecord
280
     1
 90
        1
330
196F
  0
DICTIONARY
  5
3A5E
102
{ACAD_REACTORS
330
C
102
}
330
C
100
AcDbDictionary
281
     1
  0
DICTIONARY
  5
5D
102
{ACAD_REACTORS
330
C
102
}
330
C
100
AcDbDictionary
281
     1
  3
CANNOSCALE
350
2984
  3
CMLEADERSTYLE
350
2983
  3
CTABLESTYLE
350
198A
  3
DIMADEC
350
5E
  3
DIMASSOC
350
17AF
  3
PROJECTNAME
350
3A5C
  3
SORTENTS
350
3A5B
  0
XRECORD
  5
3A5D
102
{ACAD_REACTORS
330
C
102
}
330
C
100
AcDbXrecord
280
     1
  1
DWGPROPS COOKIE
  2

  3

  4

  6

  7

  8
A070040
  9

300
=
301
=
302
=
303
=
304
=
305
=
306
=
307
=
308
=
309
=
 40
1.504790081018518
 41
2451219.393276725
 42
2455722.561998136
  1

 90
        0
  0
XRECORD
  5
38CB
102
{ACAD_REACTORS
330
2964
102
}
330
2964
100
AcDbXrecord
280
     1
102
VTR_0.000_0.000_1.000_1.000_VISUALSTYLE
340
28FF
102
VTR_0.000_0.000_1.000_1.000_GRIDDISPLAY
 70
     3
102
VTR_0.000_0.000_1.000_1.000_GRIDMAJOR
 70
     5
102
VTR_0.000_0.000_1.000_1.000_DEFAULTLIGHTING
280
     1
102
VTR_0.000_0.000_1.000_1.000_DEFAULTLIGHTINGTYPE
 70
     1
102
VTR_0.000_0.000_1.000_1.000_BRIGHTNESS
141
0.0
102
VTR_0.000_0.000_1.000_1.000_CONTRAST
142
0.0
  0
DICTIONARY
  5
1979
102
{ACAD_REACTORS
330
1978
102
}
330
1978
100
AcDbDictionary
281
     1
  0
XRECORD
  5
38CC
102
{ACAD_REACTORS
330
2939
102
}
330
2939
100
AcDbXrecord
280
     1
102
MATERIAL
340
28F1
  0
XRECORD
  5
293A
102
{ACAD_REACTORS
330
2939
102
}
330
2939
100
AcDbXrecord
280
     1
290
     1
  0
XRECORD
  5
38CF
102
{ACAD_REACTORS
330
293B
102
}
330
293B
100
AcDbXrecord
280
     1
102
MATERIAL
340
28F1
  0
XRECORD
  5
293C
102
{ACAD_REACTORS
330
293B
102
}
330
293B
100
AcDbXrecord
280
     1
290
     1
  0
XRECORD
  5
38D0
102
{ACAD_REACTORS
330
293D
102
}
330
293D
100
AcDbXrecord
280
     1
102
MATERIAL
340
28F1
  0
XRECORD
  5
293E
102
{ACAD_REACTORS
330
293D
102
}
330
293D
100
AcDbXrecord
280
     1
290
     1
  0
XRECORD
  5
38D2
102
{ACAD_REACTORS
330
38D1
102
}
330
38D1
100
AcDbXrecord
280
     1
102
MATERIAL
340
28F1
  0
XRECORD
  5
38D3
102
{ACAD_REACTORS
330
293F
102
}
330
293F
100
AcDbXrecord
280
     1
102
MATERIAL
340
28F1
  0
XRECORD
  5
2940
102
{ACAD_REACTORS
330
293F
102
}
330
293F
100
AcDbXrecord
280
     1
290
     1
  0
XRECORD
  5
38D4
102
{ACAD_REACTORS
330
2941
102
}
330
2941
100
AcDbXrecord
280
     1
102
MATERIAL
340
28F1
  0
XRECORD
  5
2942
102
{ACAD_REACTORS
330
2941
102
}
330
2941
100
AcDbXrecord
280
     1
290
     1
  0
XRECORD
  5
38D5
102
{ACAD_REACTORS
330
2943
102
}
330
2943
100
AcDbXrecord
280
     1
102
MATERIAL
340
28F1
  0
XRECORD
  5
2944
102
{ACAD_REACTORS
330
2943
102
}
330
2943
100
AcDbXrecord
280
     1
290
     1
  0
XRECORD
  5
38D8
102
{ACAD_REACTORS
330
2945
102
}
330
2945
100
AcDbXrecord
280
     1
102
MATERIAL
340
28F1
  0
XRECORD
  5
2946
102
{ACAD_REACTORS
330
2945
102
}
330
2945
100
AcDbXrecord
280
     1
290
     1
  0
XRECORD
  5
38D9
102
{ACAD_REACTORS
330
2947
102
}
330
2947
100
AcDbXrecord
280
     1
102
MATERIAL
340
28F1
  0
XRECORD
  5
2948
102
{ACAD_REACTORS
330
2947
102
}
330
2947
100
AcDbXrecord
280
     1
290
     1
  0
XRECORD
  5
38DA
102
{ACAD_REACTORS
330
2949
102
}
330
2949
100
AcDbXrecord
280
     1
102
MATERIAL
340
28F1
  0
XRECORD
  5
294A
102
{ACAD_REACTORS
330
2949
102
}
330
2949
100
AcDbXrecord
280
     1
290
     1
  0
XRECORD
  5
38DB
102
{ACAD_REACTORS
330
294B
102
}
330
294B
100
AcDbXrecord
280
     1
102
MATERIAL
340
28F1
  0
XRECORD
  5
294C
102
{ACAD_REACTORS
330
294B
102
}
330
294B
100
AcDbXrecord
280
     1
290
     1
  0
XRECORD
  5
38DC
102
{ACAD_REACTORS
330
294D
102
}
330
294D
100
AcDbXrecord
280
     1
102
MATERIAL
340
28F1
  0
XRECORD
  5
294E
102
{ACAD_REACTORS
330
294D
102
}
330
294D
100
AcDbXrecord
280
     1
290
     1
  0
XRECORD
  5
38DD
102
{ACAD_REACTORS
330
294F
102
}
330
294F
100
AcDbXrecord
280
     1
102
MATERIAL
340
28F1
  0
XRECORD
  5
2950
102
{ACAD_REACTORS
330
294F
102
}
330
294F
100
AcDbXrecord
280
     1
290
     1
  0
XRECORD
  5
38DE
102
{ACAD_REACTORS
330
2951
102
}
330
2951
100
AcDbXrecord
280
     1
102
MATERIAL
340
28F1
  0
XRECORD
  5
2952
102
{ACAD_REACTORS
330
2951
102
}
330
2951
100
AcDbXrecord
280
     1
290
     1
  0
XRECORD
  5
38DF
102
{ACAD_REACTORS
330
2953
102
}
330
2953
100
AcDbXrecord
280
     1
102
MATERIAL
340
28F1
  0
XRECORD
  5
2954
102
{ACAD_REACTORS
330
2953
102
}
330
2953
100
AcDbXrecord
280
     1
290
     1
  0
XRECORD
  5
38E0
102
{ACAD_REACTORS
330
2955
102
}
330
2955
100
AcDbXrecord
280
     1
102
MATERIAL
340
28F1
  0
XRECORD
  5
2956
102
{ACAD_REACTORS
330
2955
102
}
330
2955
100
AcDbXrecord
280
     1
290
     1
  0
XRECORD
  5
38E1
102
{ACAD_REACTORS
330
2957
102
}
330
2957
100
AcDbXrecord
280
     1
102
MATERIAL
340
28F1
  0
XRECORD
  5
2958
102
{ACAD_REACTORS
330
2957
102
}
330
2957
100
AcDbXrecord
280
     1
290
     1
  0
XRECORD
  5
38E2
102
{ACAD_REACTORS
330
2959
102
}
330
2959
100
AcDbXrecord
280
     1
102
MATERIAL
340
28F1
  0
XRECORD
  5
295A
102
{ACAD_REACTORS
330
2959
102
}
330
2959
100
AcDbXrecord
280
     1
290
     1
  0
XRECORD
  5
38E3
102
{ACAD_REACTORS
330
295B
102
}
330
295B
100
AcDbXrecord
280
     1
102
MATERIAL
340
28F1
  0
XRECORD
  5
295C
102
{ACAD_REACTORS
330
295B
102
}
330
295B
100
AcDbXrecord
280
     1
290
     1
  0
XRECORD
  5
38E4
102
{ACAD_REACTORS
330
295D
102
}
330
295D
100
AcDbXrecord
280
     1
102
MATERIAL
340
28F1
  0
XRECORD
  5
295E
102
{ACAD_REACTORS
330
295D
102
}
330
295D
100
AcDbXrecord
280
     1
290
     1
  0
SORTENTSTABLE
  5
37BA
102
{ACAD_REACTORS
330
37B9
102
}
330
37B9
100
AcDbSortentsTable
330
1A
331
37D1
  5
37D4
331
2F49
  5
2F49
331
2ED3
  5
2ED3
331
2F12
  5
2F12
331
2FA0
  5
2FA0
331
2FDF
  5
2FDF
331
2F51
  5
2F51
331
2EDB
  5
2EDB
331
2F1A
  5
2F1A
331
2FA8
  5
2FA8
331
3356
  5
3356
331
2FE7
  5
2FE7
331
2EE3
  5
2EE3
331
2F22
  5
2F22
331
2F59
  5
2F59
331
2FB0
  5
2FB0
331
2FEF
  5
2FEF
331
2F2A
  5
2F2A
331
2EB4
  5
2EB4
331
2EEB
  5
2EEB
331
2F61
  5
2F61
331
2FB8
  5
2FB8
331
2FF7
  5
2FF7
331
2F32
  5
2F32
331
2EF3
  5
2EF3
331
2EBC
  5
2EBC
331
2FC0
  5
2FC0
331
2FC8
  5
2FC8
331
2F3A
  5
2F3A
331
2EFB
  5
2EFB
331
2EC4
  5
2EC4
331
2F71
  5
2F71
331
2FFF
  5
2FFF
331
3007
  5
3007
331
2F03
  5
2F03
331
2ECC
  5
2ECC
331
2F42
  5
2F42
331
2FD0
  5
2FD0
331
37C2
  5
37C5
331
2F0B
  5
2F0B
331
2F99
  5
2F99
331
37CA
  5
37CA
331
2FD8
  5
2FD8
331
2F4A
  5
2F4A
331
2ED4
  5
2ED4
331
2F13
  5
2F13
331
2FA1
  5
2FA1
331
2FE0
  5
2FE0
331
2F52
  5
2F52
331
2EDC
  5
2EDC
331
2EA5
  5
2EA5
331
2F1B
  5
2F1B
331
2FA9
  5
2FA9
331
335F
  5
335F
331
2FE8
  5
2FE8
331
2F23
  5
2F23
331
2EE4
  5
2EE4
331
2EAD
  5
2EAD
331
2FB1
  5
2FB1
331
2FB9
  5
2FB9
331
2EEC
  5
2EEC
331
2EB5
  5
2EB5
331
2F2B
  5
2F2B
331
2F62
  5
2F62
331
2FF0
  5
2FF0
331
2FF8
  5
2FF8
331
2EF4
  5
2EF4
331
2EBD
  5
2EBD
331
2F33
  5
2F33
331
2FC1
  5
2FC1
331
3000
  5
3000
331
2F3B
  5
2F3B
331
2EC5
  5
2EC5
331
2EFC
  5
2EFC
331
2F72
  5
2F72
331
2FC9
  5
2FC9
331
3008
  5
3008
331
2F43
  5
2F43
331
2F04
  5
2F04
331
2ECD
  5
2ECD
331
2FD1
  5
2FD1
331
37C3
  5
37B6
331
2F0C
  5
2F0C
331
2F9A
  5
2F9A
331
3340
  5
3340
331
37CB
  5
37CB
331
37D3
  5
37D0
331
2FD9
  5
2FD9
331
2F4B
  5
2F4B
331
2ED5
  5
2ED5
331
2F14
  5
2F14
331
2FA2
  5
2FA2
331
2FE1
  5
2FE1
331
2F53
  5
2F53
331
2EDD
  5
2EDD
331
2EA6
  5
2EA6
331
2F1C
  5
2F1C
331
2FAA
  5
2FAA
331
3360
  5
3360
331
2FE9
  5
2FE9
331
2EE5
  5
2EE5
331
2EAE
  5
2EAE
331
2F24
  5
2F24
331
2FB2
  5
2FB2
331
2FF1
  5
2FF1
331
2F2C
  5
2F2C
331
2EED
  5
2EED
331
2F63
  5
2F63
331
2FBA
  5
2FBA
331
3566
  5
3566
331
2FF9
  5
2FF9
331
2FC2
  5
2FC2
331
2F34
  5
2F34
331
2EF5
  5
2EF5
331
2F6B
  5
2F6B
331
2FCA
  5
2FCA
331
2EFD
  5
2EFD
331
2EC6
  5
2EC6
331
2F3C
  5
2F3C
331
2F73
  5
2F73
331
3001
  5
3001
331
37C4
  5
37C0
331
3009
  5
3009
331
2F05
  5
2F05
331
2ECE
  5
2ECE
331
2F44
  5
2F44
331
2F93
  5
2F93
331
2FD2
  5
2FD2
331
35AE
  5
35AE
331
3341
  5
3341
331
2F0D
  5
2F0D
331
2F9B
  5
2F9B
331
37CC
  5
37CC
331
37D4
  5
37D3
331
2FDA
  5
2FDA
331
2F4C
  5
2F4C
331
2ED6
  5
2ED6
331
2F15
  5
2F15
331
2FA3
  5
2FA3
331
2FE2
  5
2FE2
331
2F54
  5
2F54
331
2EDE
  5
2EDE
331
2EA7
  5
2EA7
331
2F1D
  5
2F1D
331
2FAB
  5
2FAB
331
2FEA
  5
2FEA
331
2FB3
  5
2FB3
331
2F25
  5
2F25
331
2EE6
  5
2EE6
331
2EAF
  5
2EAF
331
2F5C
  5
2F5C
331
2FBB
  5
2FBB
331
2EEE
  5
2EEE
331
2F2D
  5
2F2D
331
2F64
  5
2F64
331
2FF2
  5
2FF2
331
37B5
  5
37B5
331
2FFA
  5
2FFA
331
2EF6
  5
2EF6
331
2EBF
  5
2EBF
331
2F35
  5
2F35
331
2F6C
  5
2F6C
331
2FC3
  5
2FC3
331
3002
  5
3002
331
2F3D
  5
2F3D
331
2EC7
  5
2EC7
331
2EFE
  5
2EFE
331
2F74
  5
2F74
331
2FCB
  5
2FCB
331
300A
  5
300A
331
2FD3
  5
2FD3
331
2F45
  5
2F45
331
2F06
  5
2F06
331
2ECF
  5
2ECF
331
2F94
  5
2F94
331
37C5
  5
37BE
331
2F0E
  5
2F0E
331
2F9C
  5
2F9C
331
3342
  5
3342
331
2FDB
  5
2FDB
331
2F4D
  5
2F4D
331
2ED7
  5
2ED7
331
2F16
  5
2F16
331
2FA4
  5
2FA4
331
2FE3
  5
2FE3
331
2F55
  5
2F55
331
2EDF
  5
2EDF
331
2EA8
  5
2EA8
331
2F1E
  5
2F1E
331
2FAC
  5
2FAC
331
2FEB
  5
2FEB
331
2F26
  5
2F26
331
2EB0
  5
2EB0
331
2EE7
  5
2EE7
331
2F5D
  5
2F5D
331
2FB4
  5
2FB4
331
2FF3
  5
2FF3
331
2FBC
  5
2FBC
331
2F2E
  5
2F2E
331
2EEF
  5
2EEF
331
2F65
  5
2F65
331
37B6
  5
37B7
331
37BE
  5
37C2
331
2FFB
  5
2FFB
331
2FC4
  5
2FC4
331
2F36
  5
2F36
331
2EF7
  5
2EF7
331
2EC0
  5
2EC0
331
2F6D
  5
2F6D
331
2EFF
  5
2EFF
331
2EC8
  5
2EC8
331
2F3E
  5
2F3E
331
2FCC
  5
2FCC
331
3003
  5
3003
331
300B
  5
300B
331
2F07
  5
2F07
331
2F46
  5
2F46
331
2F95
  5
2F95
331
2FD4
  5
2FD4
331
37C6
  5
37C6
331
3343
  5
3343
331
2F0F
  5
2F0F
331
2F9D
  5
2F9D
331
2ED0
  5
2ED0
331
2FDC
  5
2FDC
331
2F4E
  5
2F4E
331
2ED8
  5
2ED8
331
2F17
  5
2F17
331
2FA5
  5
2FA5
331
2FE4
  5
2FE4
331
2F56
  5
2F56
331
2F1F
  5
2F1F
331
2EA9
  5
2EA9
331
2EE0
  5
2EE0
331
2FAD
  5
2FAD
331
35C8
  5
35C8
331
2FB5
  5
2FB5
331
2F27
  5
2F27
331
2EE8
  5
2EE8
331
2F5E
  5
2F5E
331
2FEC
  5
2FEC
331
2FBD
  5
2FBD
331
2F2F
  5
2F2F
331
2F66
  5
2F66
331
2FF4
  5
2FF4
331
37B7
  5
37B8
331
35A1
  5
35A1
331
2EF0
  5
2EF0
331
2EB9
  5
2EB9
331
2FFC
  5
2FFC
331
2F37
  5
2F37
331
2EC1
  5
2EC1
331
2EF8
  5
2EF8
331
2F6E
  5
2F6E
331
2FC5
  5
2FC5
331
3004
  5
3004
331
2F3F
  5
2F3F
331
2EC9
  5
2EC9
331
2F00
  5
2F00
331
2FCD
  5
2FCD
331
300C
  5
300C
331
2FD5
  5
2FD5
331
2F47
  5
2F47
331
2F08
  5
2F08
331
2F96
  5
2F96
331
37C7
  5
37C7
331
2F9E
  5
2F9E
331
37CF
  5
37CF
331
2ED1
  5
2ED1
331
2F10
  5
2F10
331
2FDD
  5
2FDD
331
2F4F
  5
2F4F
331
2ED9
  5
2ED9
331
2F18
  5
2F18
331
2FA6
  5
2FA6
331
2FE5
  5
2FE5
331
2F57
  5
2F57
331
2EE1
  5
2EE1
331
2EAA
  5
2EAA
331
2F20
  5
2F20
331
2FAE
  5
2FAE
331
2FED
  5
2FED
331
2F28
  5
2F28
331
2EE9
  5
2EE9
331
2F5F
  5
2F5F
331
2FB6
  5
2FB6
331
2FF5
  5
2FF5
331
2FBE
  5
2FBE
331
2F67
  5
2F67
331
37B8
  5
37BB
331
2F30
  5
2F30
331
2EBA
  5
2EBA
331
2EF1
  5
2EF1
331
2FC6
  5
2FC6
331
2F38
  5
2F38
331
2EF9
  5
2EF9
331
2EC2
  5
2EC2
331
2F6F
  5
2F6F
331
2FFD
  5
2FFD
331
2FCE
  5
2FCE
331
2F01
  5
2F01
331
2ECA
  5
2ECA
331
2F40
  5
2F40
331
3005
  5
3005
331
37C0
  5
37C3
331
2F09
  5
2F09
331
2F97
  5
2F97
331
2FD6
  5
2FD6
331
37C8
  5
37C8
331
37D0
  5
37D1
331
2F9F
  5
2F9F
331
2F48
  5
2F48
331
2ED2
  5
2ED2
331
2F11
  5
2F11
331
2FDE
  5
2FDE
331
2F50
  5
2F50
331
2EDA
  5
2EDA
331
2F19
  5
2F19
331
2FA7
  5
2FA7
331
2FE6
  5
2FE6
331
2FAF
  5
2FAF
331
2F21
  5
2F21
331
2EE2
  5
2EE2
331
2EAB
  5
2EAB
331
2F58
  5
2F58
331
2FB7
  5
2FB7
331
2F29
  5
2F29
331
2EEA
  5
2EEA
331
2EB3
  5
2EB3
331
2F60
  5
2F60
331
2FEE
  5
2FEE
331
2FBF
  5
2FBF
331
2FF6
  5
2FF6
331
2EF2
  5
2EF2
331
2EBB
  5
2EBB
331
2F31
  5
2F31
331
2F68
  5
2F68
331
2FFE
  5
2FFE
331
2F39
  5
2F39
331
2EC3
  5
2EC3
331
2EFA
  5
2EFA
331
2F70
  5
2F70
331
2FC7
  5
2FC7
331
3006
  5
3006
331
2FCF
  5
2FCF
331
2F41
  5
2F41
331
2ECB
  5
2ECB
331
2F02
  5
2F02
331
37C1
  5
37C4
331
37C9
  5
37C9
331
2FD7
  5
2FD7
331
2F0A
  5
2F0A
331
2F98
  5
2F98
331
35BB
  5
35BB
  0
XRECORD
  5
3A63
102
{ACAD_REACTORS
330
3A62
102
}
330
3A62
100
AcDbXrecord
280
     1
102
SHADEPLOT
 70
     0
  0
XRECORD
  5
3A65
102
{ACAD_REACTORS
330
3A64
102
}
330
3A64
100
AcDbXrecord
280
     1
102
SHADEPLOT
 70
     0
  0
XRECORD
  5
38CA
102
{ACAD_REACTORS
330
38C9
102
}
330
38C9
100
AcDbXrecord
280
     1
 40
1.25
  0
LAYOUT
  5
140F
102
{ACAD_XDICTIONARY
360
3A5F
102
}
102
{ACAD_REACTORS
330
140D
102
}
330
140D
100
AcDbPlotSettings
  1

  2
なし
  4

  6

 40
0.0
 41
0.0
 42
0.0
 43
0.0
 44
0.0
 45
0.0
 46
0.0
 47
0.0
 48
0.0
 49
0.0
140
0.0
141
0.0
142
1.0
143
1.0
 70
  1712
 72
     0
 73
     0
 74
     0
  7

 75
     0
147
1.0
148
0.0
149
0.0
100
AcDbLayout
  1
Model
 70
     1
 71
     0
 10
0.0
 20
0.0
 11
12.0
 21
9.0
 12
0.0
 22
0.0
 32
0.0
 14
0.0
 24
0.0
 34
0.0
 15
0.0
 25
0.0
 35
0.0
146
0.0
 13
0.0
 23
0.0
 33
0.0
 16
1.0
 26
0.0
 36
0.0
 17
0.0
 27
1.0
 37
0.0
 76
     0
330
1A
  0
LAYOUT
  5
38FA
102
{ACAD_XDICTIONARY
360
390C
102
}
102
{ACAD_REACTORS
330
140D
102
}
330
140D
100
AcDbPlotSettings
  1

  2
LBP3970
  4
A4
  6

 40
5.873749732971191
 41
5.873747825622558
 42
5.873748779296875
 43
5.873748779296875
 44
209.9733276367187
 45
296.9259948730469
 46
0.0
 47
0.0
 48
0.0
 49
0.0
140
0.0
141
0.0
142
1.0
143
1.0
 70
   688
 72
     1
 73
     1
 74
     5
  7

 75
    16
147
1.0
148
0.0
149
0.0
100
AcDbLayout
  1
レイアウト1
 70
     1
 71
     1
 10
-5.873748779296875
 20
-5.873749732971191
 11
291.05224609375
 21
204.0995779037475
 12
0.0
 22
0.0
 32
0.0
 14
2.63496497082599
 24
0.4636415418750062
 34
-0.0015258207003583
 15
284.9901285355327
 25
196.6408090550544
 35
0.0000000349246037
146
0.0
 13
0.0
 23
0.0
 33
0.0
 16
1.0
 26
0.0
 36
0.0
 17
0.0
 27
1.0
 37
0.0
 76
     0
330
38F9
331
3905
1001
ACAD_PSEXT
1000
LBP3970
1000
Canon LBP3920/3970 LIPSLX
1000
IP_10.100.103.243
1000

1070
     0
  0
MATERIAL
  5
28E9
102
{ACAD_XDICTIONARY
360
28EA
102
}
102
{ACAD_REACTORS
330
196C
102
}
330
196C
100
AcDbMaterial
  1
ByBlock
 72
     0
 73
     2
 43
0.0208333333333333
 43
0.0
 43
0.0
 43
0.0
 43
0.0
 43
0.0208333333333333
 43
0.0
 43
0.0
 43
0.0
 43
0.0
 43
1.0
 43
0.0
 43
0.0
 43
0.0
 43
0.0
 43
1.0
 77
     0
 78
     2
 47
0.0208333333333333
 47
0.0
 47
0.0
 47
0.0
 47
0.0
 47
0.0208333333333333
 47
0.0
 47
0.0
 47
0.0
 47
0.0
 47
1.0
 47
0.0
 47
0.0
 47
0.0
 47
0.0
 47
1.0
171
     0
172
     2
 49
0.0208333333333333
 49
0.0
 49
0.0
 49
0.0
 49
0.0
 49
0.0208333333333333
 49
0.0
 49
0.0
 49
0.0
 49
0.0
 49
1.0
 49
0.0
 49
0.0
 49
0.0
 49
0.0
 49
1.0
175
     0
176
     2
142
0.0208333333333333
142
0.0
142
0.0
142
0.0
142
0.0
142
0.0208333333333333
142
0.0
142
0.0
142
0.0
142
0.0
142
1.0
142
0.0
142
0.0
142
0.0
142
0.0
142
1.0
179
     0
270
     2
144
0.0208333333333333
144
0.0
144
0.0
144
0.0
144
0.0
144
0.0208333333333333
144
0.0
144
0.0
144
0.0
144
0.0
144
1.0
144
0.0
144
0.0
144
0.0
144
0.0
144
1.0
274
     2
147
0.0208333333333333
147
0.0
147
0.0
147
0.0
147
0.0
147
0.0208333333333333
147
0.0
147
0.0
147
0.0
147
0.0
147
1.0
147
0.0
147
0.0
147
0.0
147
0.0
147
1.0
  0
MATERIAL
  5
28E1
102
{ACAD_XDICTIONARY
360
28E2
102
}
102
{ACAD_REACTORS
330
196C
102
}
330
196C
100
AcDbMaterial
  1
ByLayer
 72
     0
 73
     2
 43
0.0208333333333333
 43
0.0
 43
0.0
 43
0.0
 43
0.0
 43
0.0208333333333333
 43
0.0
 43
0.0
 43
0.0
 43
0.0
 43
1.0
 43
0.0
 43
0.0
 43
0.0
 43
0.0
 43
1.0
 77
     0
 78
     2
 47
0.0208333333333333
 47
0.0
 47
0.0
 47
0.0
 47
0.0
 47
0.0208333333333333
 47
0.0
 47
0.0
 47
0.0
 47
0.0
 47
1.0
 47
0.0
 47
0.0
 47
0.0
 47
0.0
 47
1.0
171
     0
172
     2
 49
0.0208333333333333
 49
0.0
 49
0.0
 49
0.0
 49
0.0
 49
0.0208333333333333
 49
0.0
 49
0.0
 49
0.0
 49
0.0
 49
1.0
 49
0.0
 49
0.0
 49
0.0
 49
0.0
 49
1.0
175
     0
176
     2
142
0.0208333333333333
142
0.0
142
0.0
142
0.0
142
0.0
142
0.0208333333333333
142
0.0
142
0.0
142
0.0
142
0.0
142
1.0
142
0.0
142
0.0
142
0.0
142
0.0
142
1.0
179
     0
270
     2
144
0.0208333333333333
144
0.0
144
0.0
144
0.0
144
0.0
144
0.0208333333333333
144
0.0
144
0.0
144
0.0
144
0.0
144
1.0
144
0.0
144
0.0
144
0.0
144
0.0
144
1.0
274
     2
147
0.0208333333333333
147
0.0
147
0.0
147
0.0
147
0.0
147
0.0208333333333333
147
0.0
147
0.0
147
0.0
147
0.0
147
1.0
147
0.0
147
0.0
147
0.0
147
0.0
147
1.0
  0
MATERIAL
  5
28F1
102
{ACAD_XDICTIONARY
360
28F2
102
}
102
{ACAD_REACTORS
330
196C
102
}
330
196C
100
AcDbMaterial
  1
Global
 72
     0
 73
     2
 43
0.0208333333333333
 43
0.0
 43
0.0
 43
0.0
 43
0.0
 43
0.0208333333333333
 43
0.0
 43
0.0
 43
0.0
 43
0.0
 43
1.0
 43
0.0
 43
0.0
 43
0.0
 43
0.0
 43
1.0
 77
     0
 78
     2
 47
0.0208333333333333
 47
0.0
 47
0.0
 47
0.0
 47
0.0
 47
0.0208333333333333
 47
0.0
 47
0.0
 47
0.0
 47
0.0
 47
1.0
 47
0.0
 47
0.0
 47
0.0
 47
0.0
 47
1.0
171
     0
172
     2
 49
0.0208333333333333
 49
0.0
 49
0.0
 49
0.0
 49
0.0
 49
0.0208333333333333
 49
0.0
 49
0.0
 49
0.0
 49
0.0
 49
1.0
 49
0.0
 49
0.0
 49
0.0
 49
0.0
 49
1.0
175
     0
176
     2
142
0.0208333333333333
142
0.0
142
0.0
142
0.0
142
0.0
142
0.0208333333333333
142
0.0
142
0.0
142
0.0
142
0.0
142
1.0
142
0.0
142
0.0
142
0.0
142
0.0
142
1.0
179
     0
270
     2
144
0.0208333333333333
144
0.0
144
0.0
144
0.0
144
0.0
144
0.0208333333333333
144
0.0
144
0.0
144
0.0
144
0.0
144
1.0
144
0.0
144
0.0
144
0.0
144
0.0
144
1.0
274
     2
147
0.0208333333333333
147
0.0
147
0.0
147
0.0
147
0.0
147
0.0208333333333333
147
0.0
147
0.0
147
0.0
147
0.0
147
1.0
147
0.0
147
0.0
147
0.0
147
0.0
147
1.0
  0
ACAD_PROXY_OBJECT
  5
292D
102
{ACAD_REACTORS
330
292C
102
}
330
292C
100
AcDbProxyObject
 90
      499
 91
      511
 95
  4980761
 70
     0
 93
      744
310
40901902A40600000030400FEFFFFFF8000000000000008102B5E8DC0F42B5CFD095374616E646172640000000000000004102405064068000000C1000000000000000410000000000000004102000000304015D90000000000000C03F00
340
14
340
0
340
10
340
0
 94
        0
1001
ACAD_MLEADERVER
1070
     2
1001
ACAD
1000
AcRTDxfName
1000
MLEADERSTYLE
  0
MLINESTYLE
  5
13
102
{ACAD_REACTORS
330
E
102
}
330
E
100
AcDbMlineStyle
  2
STANDARD
 70
     0
  3

 62
     0
 51
90.0
 52
90.0
 71
     2
 49
0.5
 62
   256
  6
BYLAYER
 49
-0.5
 62
   256
  6
BYLAYER
  0
ACDBPLACEHOLDER
  5
140C
102
{ACAD_REACTORS
330
140B
102
}
330
140B
  0
ACAD_PROXY_OBJECT
  5
290B
102
{ACAD_REACTORS
330
290A
102
}
330
290A
100
AcDbProxyObject
 90
      499
 91
      510
 95
  4980761
 70
     0
 93
       49
310
904313A3100598
 94
        0
1001
ACAD
1000
AcRTDxfName
1000
SCALE
  0
ACAD_PROXY_OBJECT
  5
290C
102
{ACAD_REACTORS
330
290A
102
}
330
290A
100
AcDbProxyObject
 90
      499
 91
      510
 95
  4980761
 70
     0
 93
      113
310
904313A32004000000000000004004
 94
        0
1001
ACAD
1000
AcRTDxfName
1000
SCALE
  0
ACAD_PROXY_OBJECT
  5
290D
102
{ACAD_REACTORS
330
290A
102
}
330
290A
100
AcDbProxyObject
 90
      499
 91
      510
 95
  4980761
 70
     0
 93
      113
310
904313A34004000000000000104000
 94
        0
1001
ACAD
1000
AcRTDxfName
1000
SCALE
  0
ACAD_PROXY_OBJECT
  5
290E
102
{ACAD_REACTORS
330
290A
102
}
330
290A
100
AcDbProxyObject
 90
      499
 91
      510
 95
  4980761
 70
     0
 93
      113
310
904313A35004000000000000144004
 94
        0
1001
ACAD
1000
AcRTDxfName
1000
SCALE
  0
ACAD_PROXY_OBJECT
  5
290F
102
{ACAD_REACTORS
330
290A
102
}
330
290A
100
AcDbProxyObject
 90
      499
 91
      510
 95
  4980761
 70
     0
 93
      113
310
904313A38004000000000000204000
 94
        0
1001
ACAD
1000
AcRTDxfName
1000
SCALE
  0
ACAD_PROXY_OBJECT
  5
2910
102
{ACAD_REACTORS
330
290A
102
}
330
290A
100
AcDbProxyObject
 90
      499
 91
      510
 95
  4980761
 70
     0
 93
      121
310
905313A3130004000000000000244009
 94
        0
1001
ACAD
1000
AcRTDxfName
1000
SCALE
  0
ACAD_PROXY_OBJECT
  5
2911
102
{ACAD_REACTORS
330
290A
102
}
330
290A
100
AcDbProxyObject
 90
      499
 91
      510
 95
  4980761
 70
     0
 93
      121
310
905313A3136004000000000000304000
 94
        0
1001
ACAD
1000
AcRTDxfName
1000
SCALE
  0
ACAD_PROXY_OBJECT
  5
2912
102
{ACAD_REACTORS
330
290A
102
}
330
290A
100
AcDbProxyObject
 90
      499
 91
      510
 95
  4980761
 70
     0
 93
      121
310
905313A3230004000000000000344009
 94
        0
1001
ACAD
1000
AcRTDxfName
1000
SCALE
  0
ACAD_PROXY_OBJECT
  5
2913
102
{ACAD_REACTORS
330
290A
102
}
330
290A
100
AcDbProxyObject
 90
      499
 91
      510
 95
  4980761
 70
     0
 93
      121
310
905313A33300040000000000003E4000
 94
        0
1001
ACAD
1000
AcRTDxfName
1000
SCALE
  0
ACAD_PROXY_OBJECT
  5
2914
102
{ACAD_REACTORS
330
290A
102
}
330
290A
100
AcDbProxyObject
 90
      499
 91
      510
 95
  4980761
 70
     0
 93
      121
310
905313A3430004000000000000444009
 94
        0
1001
ACAD
1000
AcRTDxfName
1000
SCALE
  0
ACAD_PROXY_OBJECT
  5
2915
102
{ACAD_REACTORS
330
290A
102
}
330
290A
100
AcDbProxyObject
 90
      499
 91
      510
 95
  4980761
 70
     0
 93
      121
310
905313A3530004000000000000494000
 94
        0
1001
ACAD
1000
AcRTDxfName
1000
SCALE
  0
ACAD_PROXY_OBJECT
  5
2916
102
{ACAD_REACTORS
330
290A
102
}
330
290A
100
AcDbProxyObject
 90
      499
 91
      510
 95
  4980761
 70
     0
 93
      129
310
906313A313030004000000000000594002
 94
        0
1001
ACAD
1000
AcRTDxfName
1000
SCALE
  0
ACAD_PROXY_OBJECT
  5
2917
102
{ACAD_REACTORS
330
290A
102
}
330
290A
100
AcDbProxyObject
 90
      499
 91
      510
 95
  4980761
 70
     0
 93
      113
310
904323A31000000000000000010140
 94
        0
1001
ACAD
1000
AcRTDxfName
1000
SCALE
  0
ACAD_PROXY_OBJECT
  5
2918
102
{ACAD_REACTORS
330
290A
102
}
330
290A
100
AcDbProxyObject
 90
      499
 91
      510
 95
  4980761
 70
     0
 93
      113
310
904343A31000000000000000410159
 94
        0
1001
ACAD
1000
AcRTDxfName
1000
SCALE
  0
ACAD_PROXY_OBJECT
  5
2919
102
{ACAD_REACTORS
330
290A
102
}
330
290A
100
AcDbProxyObject
 90
      499
 91
      510
 95
  4980761
 70
     0
 93
      113
310
904383A31000000000000000810140
 94
        0
1001
ACAD
1000
AcRTDxfName
1000
SCALE
  0
ACAD_PROXY_OBJECT
  5
291A
102
{ACAD_REACTORS
330
290A
102
}
330
290A
100
AcDbProxyObject
 90
      499
 91
      510
 95
  4980761
 70
     0
 93
      121
310
90531303A31000000000000000910140
 94
        0
1001
ACAD
1000
AcRTDxfName
1000
SCALE
  0
ACAD_PROXY_OBJECT
  5
291B
102
{ACAD_REACTORS
330
290A
102
}
330
290A
100
AcDbProxyObject
 90
      499
 91
      510
 95
  4980761
 70
     0
 93
      129
310
9063130303A31000000000000001650100
 94
        0
1001
ACAD
1000
AcRTDxfName
1000
SCALE
  0
ACAD_PROXY_OBJECT
  5
291C
102
{ACAD_REACTORS
330
290A
102
}
330
290A
100
AcDbProxyObject
 90
      499
 91
      510
 95
  4980761
 70
     0
 93
      265
310
90F312F31323822203D2031272D302200000000000000200FC00000000000028407B
 94
        0
1001
ACAD
1000
AcRTDxfName
1000
SCALE
  0
ACAD_PROXY_OBJECT
  5
291D
102
{ACAD_REACTORS
330
290A
102
}
330
290A
100
AcDbProxyObject
 90
      499
 91
      510
 95
  4980761
 70
     0
 93
      257
310
90E312F363422203D2031272D302200000000000000240FC000000000000284000
 94
        0
1001
ACAD
1000
AcRTDxfName
1000
SCALE
  0
ACAD_PROXY_OBJECT
  5
291E
102
{ACAD_REACTORS
330
290A
102
}
330
290A
100
AcDbProxyObject
 90
      499
 91
      510
 95
  4980761
 70
     0
 93
      257
310
90E312F333222203D2031272D302200000000000000280FC000000000000284040
 94
        0
1001
ACAD
1000
AcRTDxfName
1000
SCALE
  0
ACAD_PROXY_OBJECT
  5
291F
102
{ACAD_REACTORS
330
290A
102
}
330
290A
100
AcDbProxyObject
 90
      499
 91
      510
 95
  4980761
 70
     0
 93
      257
310
90E312F313622203D2031272D3022000000000000002C0FC000000000000284000
 94
        0
1001
ACAD
1000
AcRTDxfName
1000
SCALE
  0
ACAD_PROXY_OBJECT
  5
2920
102
{ACAD_REACTORS
330
290A
102
}
330
290A
100
AcDbProxyObject
 90
      499
 91
      510
 95
  4980761
 70
     0
 93
      257
310
90E332F333222203D2031272D3022000000000000002E0FC000000000000284040
 94
        0
1001
ACAD
1000
AcRTDxfName
1000
SCALE
  0
ACAD_PROXY_OBJECT
  5
2921
102
{ACAD_REACTORS
330
290A
102
}
330
290A
100
AcDbProxyObject
 90
      499
 91
      510
 95
  4980761
 70
     0
 93
      249
310
90D312F3822203D2031272D302200000000000000300FC000000000000284040
 94
        0
1001
ACAD
1000
AcRTDxfName
1000
SCALE
  0
ACAD_PROXY_OBJECT
  5
2922
102
{ACAD_REACTORS
330
290A
102
}
330
290A
100
AcDbProxyObject
 90
      499
 91
      510
 95
  4980761
 70
     0
 93
      257
310
90E332F313622203D2031272D302200000000000000320FC000000000000284040
 94
        0
1001
ACAD
1000
AcRTDxfName
1000
SCALE
  0
ACAD_PROXY_OBJECT
  5
2923
102
{ACAD_REACTORS
330
290A
102
}
330
290A
100
AcDbProxyObject
 90
      499
 91
      510
 95
  4980761
 70
     0
 93
      249
310
90D312F3422203D2031272D302200000000000000340FC000000000000284040
 94
        0
1001
ACAD
1000
AcRTDxfName
1000
SCALE
  0
ACAD_PROXY_OBJECT
  5
2924
102
{ACAD_REACTORS
330
290A
102
}
330
290A
100
AcDbProxyObject
 90
      499
 91
      510
 95
  4980761
 70
     0
 93
      249
310
90D332F3822203D2031272D302200000000000000360FC000000000000284040
 94
        0
1001
ACAD
1000
AcRTDxfName
1000
SCALE
  0
ACAD_PROXY_OBJECT
  5
2925
102
{ACAD_REACTORS
330
290A
102
}
330
290A
100
AcDbProxyObject
 90
      499
 91
      510
 95
  4980761
 70
     0
 93
      249
310
90D312F3222203D2031272D302200000000000000380FC000000000000284040
 94
        0
1001
ACAD
1000
AcRTDxfName
1000
SCALE
  0
ACAD_PROXY_OBJECT
  5
2926
102
{ACAD_REACTORS
330
290A
102
}
330
290A
100
AcDbProxyObject
 90
      499
 91
      510
 95
  4980761
 70
     0
 93
      249
310
90D332F3422203D2031272D3022000000000000003A0FC000000000000284040
 94
        0
1001
ACAD
1000
AcRTDxfName
1000
SCALE
  0
ACAD_PROXY_OBJECT
  5
2927
102
{ACAD_REACTORS
330
290A
102
}
330
290A
100
AcDbProxyObject
 90
      499
 91
      510
 95
  4980761
 70
     0
 93
      169
310
90B3122203D2031272D3022004000000000000284000
 94
        0
1001
ACAD
1000
AcRTDxfName
1000
SCALE
  0
ACAD_PROXY_OBJECT
  5
2928
102
{ACAD_REACTORS
330
290A
102
}
330
290A
100
AcDbProxyObject
 90
      499
 91
      510
 95
  4980761
 70
     0
 93
      265
310
90F312D312F3222203D2031272D3022000000000000003E0FC00000000000028407B
 94
        0
1001
ACAD
1000
AcRTDxfName
1000
SCALE
  0
ACAD_PROXY_OBJECT
  5
2929
102
{ACAD_REACTORS
330
290A
102
}
330
290A
100
AcDbProxyObject
 90
      499
 91
      510
 95
  4980761
 70
     0
 93
      233
310
90B3322203D2031272D30220000000000000002100000000000000284028
 94
        0
1001
ACAD
1000
AcRTDxfName
1000
SCALE
  0
ACAD_PROXY_OBJECT
  5
292A
102
{ACAD_REACTORS
330
290A
102
}
330
290A
100
AcDbProxyObject
 90
      499
 91
      510
 95
  4980761
 70
     0
 93
      233
310
90B3622203D2031272D30220000000000000006100000000000000284000
 94
        0
1001
ACAD
1000
AcRTDxfName
1000
SCALE
  0
ACAD_PROXY_OBJECT
  5
292B
102
{ACAD_REACTORS
330
290A
102
}
330
290A
100
AcDbProxyObject
 90
      499
 91
      510
 95
  4980761
 70
     0
 93
      257
310
90E31272D3022203D2031272D3022000000000000000A100000000000000284000
 94
        0
1001
ACAD
1000
AcRTDxfName
1000
SCALE
  0
TABLESTYLE
  5
196F
102
{ACAD_XDICTIONARY
360
295F
102
}
102
{ACAD_REACTORS
330
196E
102
}
330
196E
100
AcDbTableStyle
  3
Standard
 70
     0
 71
     0
 40
1.5
 41
1.5
280
     0
281
     0
  7
STANDARD
140
4.5
170
     2
 62
     0
 63
     7
283
     0
274
    -2
284
     1
 64
     0
275
    -2
285
     1
 65
     0
276
    -2
286
     1
 66
     0
277
    -2
287
     1
 67
     0
278
    -2
288
     1
 68
     0
279
    -2
289
     1
 69
     0
  7
STANDARD
140
6.0
170
     5
 62
     0
 63
     7
283
     0
274
    -2
284
     1
 64
     0
275
    -2
285
     1
 65
     0
276
    -2
286
     1
 66
     0
277
    -2
287
     1
 67
     0
278
    -2
288
     1
 68
     0
279
    -2
289
     1
 69
     0
  7
STANDARD
140
4.5
170
     5
 62
     0
 63
     7
283
     0
274
    -2
284
     1
 64
     0
275
    -2
285
     1
 65
     0
276
    -2
286
     1
 66
     0
277
    -2
287
     1
 67
     0
278
    -2
288
     1
 68
     0
279
    -2
289
     1
 69
     0
  0
ACAD_PROXY_OBJECT
  5
28FF
102
{ACAD_REACTORS
330
28F9
102
}
330
28F9
100
AcDbProxyObject
 90
      499
 91
      509
 95
  4980761
 70
     0
 93
      598
310
430C9915DA5C99599C985B59401049028333333333333E3BF0000000000000FB023FFFFFF0802405048070000C3008000000C800405A000000320014050640A01C00030C010500920280D3
 94
        0
1001
ACAD
1000
AcDbSavedByObjectVersion
1070
     0
1000
AcRTDxfName
1000
VISUALSTYLE
  0
ACAD_PROXY_OBJECT
  5
2901
102
{ACAD_REACTORS
330
28F9
102
}
330
28F9
100
AcDbProxyObject
 90
      499
 91
      509
 95
  4980761
 70
     0
 93
      662
310
428CD108121A5919195B8010640502408333333333333E3BF0000000000000FB023FFFFFF0802409028070000C3008000000C8004080000000000004440A000000320014050640A01C00030C010300920280D0
 94
        0
1001
ACAD
1000
AcDbSavedByObjectVersion
1070
     0
1000
AcRTDxfName
1000
VISUALSTYLE
  0
ACAD_PROXY_OBJECT
  5
2900
102
{ACAD_REACTORS
330
28F9
102
}
330
28F9
100
AcDbProxyObject
 90
      499
 91
      509
 95
  4980761
 70
     0
 93
      598
310
430CD915DA5C99599C985B59401059028333333333333E3BF0000000000000FB023FFFFFF0802405048070000C3008000000C800405A000000320014050640A01C00030C010500920280D0
 94
        0
1001
ACAD
1000
AcDbSavedByObjectVersion
1070
     0
1000
AcRTDxfName
1000
VISUALSTYLE
  0
ACAD_PROXY_OBJECT
  5
28FE
102
{ACAD_REACTORS
330
28F9
102
}
330
28F9
100
AcDbProxyObject
 90
      499
 91
      509
 95
  4980761
 70
     0
 93
      558
310
4190985CDA58C0107406404333333333333E3BF0000000000000FB023FFFFFF08029048070000C3008000000C80040542201C00030C014050640A01C00030C010500920280D6
 94
        0
1001
ACAD
1000
AcDbSavedByObjectVersion
1070
     0
1000
AcRTDxfName
1000
VISUALSTYLE
  0
ACAD_PROXY_OBJECT
  5
2905
102
{ACAD_REACTORS
330
28F9
102
}
330
28F9
100
AcDbProxyObject
 90
      499
 91
      509
 95
  4980761
 70
     0
 93
      598
310
42509C9A59DA1D195B8010C409028333333333333E3BF0000000000000FB023FFFFFF0802405048070000C3008000000C80040542201C00030C014050640A01C00030C010500920280A657
 94
        0
1001
ACAD
1000
AcDbSavedByObjectVersion
1070
     0
1000
AcRTDxfName
1000
VISUALSTYLE
  0
ACAD_PROXY_OBJECT
  5
2909
102
{ACAD_REACTORS
330
28F9
102
}
330
28F9
100
AcDbProxyObject
 90
      499
 91
      509
 95
  4980761
 70
     0
 93
      622
310
4310DBDB1BDC90DA185B99D9401104090240C333333333333E3BF0000000000000FB0220202030802405048070000C3008000000C800405422202020308014050640A01C00030C010500920280D4
 94
        0
1001
ACAD
1000
AcDbSavedByObjectVersion
1070
     0
1000
AcRTDxfName
1000
VISUALSTYLE
  0
ACAD_PROXY_OBJECT
  5
2902
102
{ACAD_REACTORS
330
28F9
102
}
330
28F9
100
AcDbProxyObject
 90
      499
 91
      509
 95
  4980761
 70
     0
 93
      670
310
42D0DBDB98D95C1D1D585B0010940D028333333333333E3BF0000000000000FB023FFFFFF0802409028070000C3008000000C800404000000000000444042201C00030C014050640A01C00030C010300920280D0
 94
        0
1001
ACAD
1000
AcDbSavedByObjectVersion
1070
     0
1000
AcRTDxfName
1000
VISUALSTYLE
  0
ACAD_PROXY_OBJECT
  5
2904
102
{ACAD_REACTORS
330
28F9
102
}
330
28F9
100
AcDbProxyObject
 90
      499
 91
      509
 95
  4980761
 70
     0
 93
      582
310
41111A5B4010B409028333333333333E3BF0000000000000FB023FFFFFF0802405048070000C3008000000C80040542201C00030C014050640A01C00030C01050092028099DFFFFFF4
 94
        0
1001
ACAD
1000
AcDbSavedByObjectVersion
1070
     0
1000
AcRTDxfName
1000
VISUALSTYLE
  0
ACAD_PROXY_OBJECT
  5
2908
102
{ACAD_REACTORS
330
28F9
102
}
330
28F9
100
AcDbProxyObject
 90
      499
 91
      509
 95
  4980761
 70
     0
 93
      614
310
43119858D95C185D1D195C9B8010F409028333333333333E3BF0000000000000FB023FFFFFF0802405048070000C3008000000C80040542201C00030C014050640A01C00030C010500920280D5
 94
        0
1001
ACAD
1000
AcDbSavedByObjectVersion
1070
     0
1000
AcRTDxfName
1000
VISUALSTYLE
  0
ACAD_PROXY_OBJECT
  5
28FA
102
{ACAD_REACTORS
330
28F9
102
}
330
28F9
100
AcDbProxyObject
 90
      499
 91
      509
 95
  4980761
 70
     0
 93
      558
310
41519B185D00240901404333333333333E3BF0000000000000F9023FFFFFF0801029048070000C3008000000C80040542201C00030C014050640A01C00030C010500920286D4
 94
        0
1001
ACAD
1000
AcDbSavedByObjectVersion
1070
     0
1000
AcRTDxfName
1000
VISUALSTYLE
  0
ACAD_PROXY_OBJECT
  5
28FB
102
{ACAD_REACTORS
330
28F9
102
}
330
28F9
100
AcDbProxyObject
 90
      499
 91
      509
 95
  4980761
 70
     0
 93
      638
310
43919B185D15DA5D1A115919D95CC010140901404333333333333E3BF0000000000000F9023FFFFFF080102405048070000C3008000000C800405A000000320014050640A01C00030C010500920286D4
 94
        0
1001
ACAD
1000
AcDbSavedByObjectVersion
1070
     0
1000
AcRTDxfName
1000
VISUALSTYLE
  0
ACAD_PROXY_OBJECT
  5
28FC
102
{ACAD_REACTORS
330
28F9
102
}
330
28F9
100
AcDbProxyObject
 90
      499
 91
      509
 95
  4980761
 70
     0
 93
      582
310
4211DBDD5C985D590010240902404333333333333E3BF0000000000000F9023FFFFFF0801029048070000C3008000000C800405A01C00030C014050640A01C00030C010500920286D4
 94
        0
1001
ACAD
1000
AcDbSavedByObjectVersion
1070
     0
1000
AcRTDxfName
1000
VISUALSTYLE
  0
ACAD_PROXY_OBJECT
  5
28FD
102
{ACAD_REACTORS
330
28F9
102
}
330
28F9
100
AcDbProxyObject
 90
      499
 91
      509
 95
  4980761
 70
     0
 93
      662
310
4451DBDD5C985D5915DA5D1A115919D95CC010340902404333333333333E3BF0000000000000F9023FFFFFF080102405048070000C3008000000C800405A000000320014050640A01C00030C010500920286D4
 94
        0
1001
ACAD
1000
AcDbSavedByObjectVersion
1070
     0
1000
AcRTDxfName
1000
VISUALSTYLE
  0
ACAD_PROXY_OBJECT
  5
2907
102
{ACAD_REACTORS
330
28F9
102
}
330
28F9
100
AcDbProxyObject
 90
      499
 91
      509
 95
  4980761
 70
     0
 93
      614
310
43131A5B995C185D1D195C9B8010E409028333333333333E3BF0000000000000FB023FFFFFF0802405048070000C3008000000C80041D42201C00030C014050640A01C00030C010500920E80D4
 94
        0
1001
ACAD
1000
AcDbSavedByObjectVersion
1070
     0
1000
AcRTDxfName
1000
VISUALSTYLE
  0
ACAD_PROXY_OBJECT
  5
2903
102
{ACAD_REACTORS
330
28F9
102
}
330
28F9
100
AcDbProxyObject
 90
      499
 91
      509
 95
  4980761
 70
     0
 93
      590
310
429499585B1A5CDD1A58C0108409028333333333333E3BF0000000000000FB023FFFFFF08024068070000C3008000000C8004054221E1E1E308014050640A01C00030C010500920286D0
 94
        0
1001
ACAD
1000
AcDbSavedByObjectVersion
1070
     0
1000
AcRTDxfName
1000
VISUALSTYLE
  0
ACAD_PROXY_OBJECT
  5
2906
102
{ACAD_REACTORS
330
28F9
102
}
330
28F9
100
AcDbProxyObject
 90
      499
 91
      509
 95
  4980761
 70
     0
 93
      582
310
42151A1A58DAD95B8010D409028333333333333E3BF0000000000000FB023FFFFFF0802405048070000C3008000000C80040543201C00030C014050640A01C00030C010500920280D4
 94
        0
1001
ACAD
1000
AcDbSavedByObjectVersion
1070
     0
1000
AcRTDxfName
1000
VISUALSTYLE
  0
DICTIONARYVAR
  5
2984
102
{ACAD_REACTORS
330
5D
102
}
330
5D
100
DictionaryVariables
280
     0
  1
1:1
  0
DICTIONARYVAR
  5
2983
102
{ACAD_REACTORS
330
5D
102
}
330
5D
100
DictionaryVariables
280
     0
  1
STANDARD
  0
DICTIONARYVAR
  5
198A
102
{ACAD_REACTORS
330
5D
102
}
330
5D
100
DictionaryVariables
280
     0
  1
STANDARD
  0
DICTIONARYVAR
  5
5E
102
{ACAD_REACTORS
330
5D
102
}
330
5D
100
DictionaryVariables
280
     0
  1
0
  0
DICTIONARYVAR
  5
17AF
102
{ACAD_REACTORS
330
5D
102
}
330
5D
100
DictionaryVariables
280
     0
  1
1
  0
DICTIONARYVAR
  5
3A5C
102
{ACAD_REACTORS
330
5D
102
}
330
5D
100
DictionaryVariables
280
     0
  1

  0
DICTIONARYVAR
  5
3A5B
102
{ACAD_REACTORS
330
5D
102
}
330
5D
100
DictionaryVariables
280
     0
  1
1
  0
DICTIONARY
  5
3A5F
330
140F
100
AcDbDictionary
280
     1
281
     1
  3
ACAD_XREC_ROUNDTRIP
360
3A60
  0
DICTIONARY
  5
390C
330
38FA
100
AcDbDictionary
280
     1
281
     1
  3
ACAD_XREC_ROUNDTRIP
360
3A61
  3
ADSK_XREC_LAYOUTTHUMBNAIL
360
390D
  0
DICTIONARY
  5
28EA
330
28E9
100
AcDbDictionary
280
     1
281
     1
  3
ACAD_XREC_ROUNDTRIP
360
38E7
  3
BUMPTILE
360
28EC
  3
DIFFUSETILE
360
28EB
  3
OPACITYTILE
360
28EF
  3
REFLECTIONTILE
360
28EE
  3
REFRACTIONTILE
360
28F0
  3
SPECULARTILE
360
28ED
  0
DICTIONARY
  5
28E2
330
28E1
100
AcDbDictionary
280
     1
281
     1
  3
ACAD_XREC_ROUNDTRIP
360
38E6
  3
BUMPTILE
360
28E4
  3
DIFFUSETILE
360
28E3
  3
OPACITYTILE
360
28E7
  3
REFLECTIONTILE
360
28E6
  3
REFRACTIONTILE
360
28E8
  3
SPECULARTILE
360
28E5
  0
DICTIONARY
  5
28F2
330
28F1
100
AcDbDictionary
280
     1
281
     1
  3
ACAD_XREC_ROUNDTRIP
360
38E8
  3
BUMPTILE
360
28F4
  3
DIFFUSETILE
360
28F3
  3
OPACITYTILE
360
28F7
  3
REFLECTIONTILE
360
28F6
  3
REFRACTIONTILE
360
28F8
  3
SPECULARTILE
360
28F5
  0
DICTIONARY
  5
295F
330
196F
100
AcDbDictionary
280
     1
281
     1
  3
ACAD_ROUNDTRIP_2008_TABLESTYLE_CELLSTYLEMAP
360
38C8
  3
ACAD_XREC_ROUNDTRIP
360
38E5
  0
XRECORD
  5
3A60
102
{ACAD_REACTORS
330
3A5F
102
}
330
3A5F
100
AcDbXrecord
280
     1
102
SHADEPLOT
 70
     0
102
SHADEPLOTRESLEVEL
 70
     2
102
SHADEPLOTCUSTOMDPI
 70
   300
  0
XRECORD
  5
3A61
102
{ACAD_REACTORS
330
390C
102
}
330
390C
100
AcDbXrecord
280
     1
102
SHADEPLOT
 70
     0
102
SHADEPLOTRESLEVEL
 70
     2
102
SHADEPLOTCUSTOMDPI
 70
   300
  0
XRECORD
  5
390D
102
{ACAD_REACTORS
330
390C
102
}
330
390C
100
AcDbXrecord
280
     1
310
28000000B40000007F00000001000800000000004C590000000000000000000000010000000000000000000000000000FFFFFF000000000000000000000000000000000000000000000000000000000000000000330000006600000099000000CC000000FF00000000330000333300006633000099330000CC330000FF3300
310
0000660000336600006666000099660000CC660000FF66000000990000339900006699000099990000CC990000FF99000000CC000033CC000066CC000099CC0000CCCC0000FFCC000000FF000033FF000066FF000099FF0000CCFF0000FFFF000000003300330033006600330099003300CC003300FF003300003333003333
310
33006633330099333300CC333300FF33330000663300336633006666330099663300CC663300FF66330000993300339933006699330099993300CC993300FF99330000CC330033CC330066CC330099CC3300CCCC3300FFCC330000FF330033FF330066FF330099FF3300CCFF3300FFFF330000006600330066006600660099
310
006600CC006600FF00660000336600333366006633660099336600CC336600FF33660000666600336666006666660099666600CC666600FF66660000996600339966006699660099996600CC996600FF99660000CC660033CC660066CC660099CC6600CCCC6600FFCC660000FF660033FF660066FF660099FF6600CCFF6600
310
FFFF660000009900330099006600990099009900CC009900FF00990000339900333399006633990099339900CC339900FF33990000669900336699006666990099669900CC669900FF66990000999900339999006699990099999900CC999900FF99990000CC990033CC990066CC990099CC9900CCCC9900FFCC990000FF99
310
0033FF990066FF990099FF9900CCFF9900FFFF99000000CC003300CC006600CC009900CC00CC00CC00FF00CC000033CC003333CC006633CC009933CC00CC33CC00FF33CC000066CC003366CC006666CC009966CC00CC66CC00FF66CC000099CC003399CC006699CC009999CC00CC99CC00FF99CC0000CCCC0033CCCC0066CC
310
CC0099CCCC00CCCCCC00FFCCCC0000FFCC0033FFCC0066FFCC0099FFCC00CCFFCC00FFFFCC000000FF003300FF006600FF009900FF00CC00FF00FF00FF000033FF003333FF006633FF009933FF00CC33FF00FF33FF000066FF003366FF006666FF009966FF00CC66FF00FF66FF000099FF003399FF006699FF009999FF00CC
310
99FF00FF99FF0000CCFF0033CCFF0066CCFF0099CCFF00CCCCFF00FFCCFF0000FFFF0033FFFF0066FFFF0099FFFF00CCFFFF00FFFFFF00000000000D0D0D001A1A1A00282828003535350043434300505050005D5D5D006B6B6B00787878008686860093939300A1A1A100AEAEAE00BBBBBB00C9C9C900D6D6D600E4E4E400
310
F1F1F100FFFFFF0000000000000000000000000000000000000000000000000000000000000000000000000000000000F5F5F5F5F5F5F5F5F5F5F5F5F5F5F5F5F5F5F5F5F5F5F5F5F5F5F5F5F5F5F5F5F5F5F5F5F5F5F5F5F5F5F5F5F5F5F5F5F5F5F5F5F5F5F5F5F5F5F5F5F5F5F5F5F5F5F5F5F5F5F5F5F5F5F5F5F5F5F5
310
F5F5F5F5F5F5F5F5F5F5F5F5F5F5F5F5F5F5F5F5F5F5F5F5F5F5F5F5F5F5F5F5F5F5F5F5F5F5F5F5F5F5F5F5F5F5F5F5F5F5F5F5F5F5F5F5F5F5F5F5F5F5F5F5F5F5F5F5F5F5F5F5F5F5F5F5F5F5F5F5F5F5F5F5F5F5F5F5F5F5F5F5F5F5F5F5F5F5F5F5EFF5E2E2E2E2E2E2E2E2E2E2E2E2E2E2E2E2E2E2E2E2E2E2E2E2E2
310
E2E2E2E2E2E2E2E2E2E2E2E2E2E2E2E2E2E2E2E2E2E2E2E2E2E2E2E2E2E2E2E2E2E2E2E2E2E2E2E2E2E2E2E2E2E2E2E2E2E2E2E2E2E2E2E2E2E2E2E2E2E2E2E2E2E2E2E2E2E2E2E2E2E2E2E2E2E2E2E2E2E2E2E2E2E2E2E2E2E2E2E2E2E2E2E2E2E2E2E2E2E2E2E2E2E2E2E2E2E2E2E2E2E2E2E2E2E2E2E2E2E2E2E2E2E2E2
310
E2E2E2E2E2E2E2E2E2E2E2E2E2E2E2E2E2E2E2E2E2E2E2E2F5F5EFF5E2E2E2E2E2E2E2E2E2E2E2E2E2E2E2E2E2E2E2E2E2E2E2E2E2E2E2E2E2E2E2E2E2E2E2E2E2E2E2E2E2E2E2E2E2E2E2E2E2E2E2E2E2E2E2E2E2E2E2E2E2E2E2E2E2E2E2E2E2E2E2E2E2E2E2E2E2E2E2E2E2E2E2E2E2E2E2E2E2E2E2E2E2E2E2E2E2E2E2
310
E2E2E2E2E2E2E2E2E2E2E2E2E2E2E2E2E2E2E2E2E2E2E2E2E2E2E2E2E2E2E2E2E2E2E2E2E2E2E2E2E2E2E2E2E2E2E2E2E2E2E2E2E2E2E2E2E2E2E2E2E2E2E2E2E2E2E2E2E2E2E2E2E2E2E2E2E2F5F5EFF5E2E2E2E2E2E2E2E2E2E2E2E2E2E2E2E2E2E2E2E2E2E2E2E2E2E2E2E2E2E2E2E2E2E2E2E2E2E2E2E2E2E2E2E2E2E2
310
E2E2E2E2E2E2E2E2E2E2E2E2E2E2E2E2E2E2E2E2E2E2E2E2E2E2E2E2E2E2E2E2E2E2E2E2E2E2E2E2E2E2E2E2E2E2E2E2E2E2E2E2E2E2E2E2E2E2E2E2E2E2E2E2E2E2E2E2E2E2E2E2E2E2E2E2E2E2E2E2E2E2E2E2E2E2E2E2E2E2E2E2E2E2E2E2E2E2E2E2E2E2E2E2E2E2E2E2E2E2E2E2E2E2E2E2E2E2E2E2E2E2E2E2E2E2E2
310
E2E2E2F5F5EFF5E2E2F5F52828282828282828282828282828282828282828282828282828282828282828282828282828282828282828282828282828282828282828282828282828282828282828282828282828282828282828282828282828282828282828282828282828282828282828282828282828282828282828
310
282828282828282828282828282828282828282828282828282828282828282828282828282828282828282828282828282828282828E2E2F5F5EFF5E2E2F5E228E2E2E2E2E2E2E2E2E2E2E2E2E2E2E2E2E2E2E2E2E2E2E2E2E2E2E2E2E2E2E2E2E2E2E2E2E2E2E2E2E2E2E2E2E2E2E2E2E2E2E2E2E2E2E2E2E2E2E2E2E2E2
310
E2E2E2E2E2E2E2E2E2E2E2E2E2E2E2E2E2E2E2E2E2E2E2E2E2E2E2E2E2E2E2E2E2E2E2E2E2E2E2E2E2E2E2E2E228E2E2F5F5F5F5F5F5F5F5F5F5F5F5F5F5F5F5F5F5F5F5F5F5F5F5F5F5F5F5F5F5F5F5F5F5F5F5F5F5F5F5F5F5F5F5F5F5F5F5F5F5F5F5F5F5F5F5E2E228E2E2F5F5EFF5E2E2F5E228E2E2E2E2E2E2E2E2E2
310
E2E2E2E2E2E2E2E2E2E2E2E2E2E2E2E2E2E2E2E2E2E2E2E2E2E2E2E2E2E2E2E2E2E2E2E2E2E2E2E2E2E2E2E2E2E2E2E2E2E2E2E2E2E2E2E2E2E2E2E2E2E2E2E2E2E2E2E2E2E2E2E2E2E2E2E2E2E2E2E2E2E2E2E2E2E2E2E2E2E2E2E2E2E2E2E2E2E228E2E2F5F5F5F5F5F5F5F5F5F5F5F5F5F5F5F5F5F5F5F5F5F5F5F5F5F5
310
F5F5F5F5F5F5F5F5F5F5F5F5F5F5F5F5F5F5F5F5F5F5F5F5F5F5F5F5F5F5E2E228E2E2F5F5EFF5E2E2F5E228E2E2E2E2E2E2E2E2E2E2E2E2E2E2E2E2E2E2E2E2E2E2E2E2E2E2E2E2E2E2E2E2E2E2E2E2E2E2E2E2E2E2E2E2E2E2E2E2E2E2E2E2E2E2E2E2E2E2E2E2E2E2E2E2E2E2E2E2E2E2E2E2E2E2E2E2E2E2E2E2E2E2E2
310
E2E2E2E2E2E2E2E2E2E2E2E2E2E2E2E2E2E2E2E2E2E2E2E228E2E2F5F5F5F5F5F5F5F5F5F5F5F5F5F5F5F5F5F5F5F5F5F5F5F5F5F5F5F5F5F5F5F5F5F5F5F5F5F5F5F5F5F5F5F5F5F5F5F5F5F5F5F5F5F5F5F5E2E228E2E2F5F5EFF5E2E2F5E228E2E2E2E2E2E2E2E2E2E2E2E2E2E2E2E2E2E2E2E2E2E2E2E2E2E2E2E2E2E2
310
E2E2E2E2E2E2E2E2E2E2E2E2E2E2E2E2E2E2E2E2E2E2E2E2E2E2E2E2E2E2E2E2E2E2E2E2E2E2E2E2E2E2E2E2E2E2E2E2E2E2E2E2E2E2E2E2E2E2E2E2E2E2E2E2E2E2E2E2E2E2E2E2E2E2E2E2E228E2E2F5F5F5F5F5F5F5F5F5F5F5F5F5F5F5F5F5F5F5F5F5F5F5F5F5F5F5F5F5F5F5F5F5F5F5F5F5F5F5F5F5F5F5F5F5F5F5
310
F5F5F5F5F5F5F5F5F5E2E228E2E2F5F5EFF5E2E2F5E228E2E2E2E2E2E2E2E2E2E2E2E2E2E2E2E2E2E2E2E2E2E2E2E2E2E2E2E2E2E2E2E2E2E2E2E2E2E2E2E2E2E2E2E2E2E2E2E2E2E2E2E2E2E2E2E2E2E2E2E2E2E2E2E2E2E2E2E2E2E2E2E2E2E2E2E2E2E2E2E2E2E2E2E2E2E2E2E2E2E2E2E2E2E2E2E2E2E2E2E2E2E2E2E2
310
E2E2E228E2E2E2E2E2E2E2E2E2E2E2E2E2E2E2E2E2E2E2E2E2E2E2E2E2E2E2E2E2E2E2E2E2E2E2E2E2E2E2E2E2E2E2E2E2E2E2E2E2E2E2E2E2E2E2E2E2E2E2E228E2E2F5F5EFF5E2E2F5E228E2E2E2E2E2E2E2E2E2E2E2E2E2E2E2E2E2E2E2E2E2E2E2E2E2E2E2E2E2E2E2E2E2E2E2E2E2E2E2E2E2E2E2E2E2E2E2E2E2E2E2
310
E2E2E2E2E2E2E2E2E2E2E2E2E2E2E2E2E2E2E2E2E2E2E2E2E2E2E2E2E2E2E2E2E2E2E2E2E2E2E2E2E2E2E2E2E2E2E2E2E2E2E2E2E2E2E2E22828282828282828282828282828282828282828282828282828282828282828282828282828282828282828282828282828282828282828282828282828E2E2F5F5EFF5E2E2F5
310
E228E2E2E2E2E2E2E2E2E2E2E2E2E2E2E2E2E2E2E2E2E2E2E2E2E2E2E2E2E2E2E2E2E2E2E2E2E2E2E2E2E2E2E2E2E2E2E2E2E2E2E2E2E2E2E2E2E2E2E2E2E2E2E2E2E2E2E2E2E2E2E2E2E2E2E2E2E2E2E2E2E2E2E2E2E2E2E2E2E2E2E2E2E2E2E2E2E2E2E2E2E2E2E2E2E2E2E2E2E2E2E2E2E2E2E2E2E2E2E2E2E2E2E2E2E2
310
E2E2E2E2E2E2E2E2E2E2E2E2E2E2E2E2E2E2E2E2E2E2E2E2E2E2E2E2E2E2E2E2E2E2E2E2E2E2E2E2E2E2E228E2E2F5F5EFF5E2E2E2E228E2E2E2E2E2E2E2E2E2E2E2E2E2E2E2E2E2E2E2E2E2E2E2E2E2E2E2E2E2E2E2E2E2E2E2E2E2E2E2E2E2E2E2E2E2E2E2E2E2E2E2E2E2E2E2E2E2E2E2E2E2E2E2E2E2E2E2E2E2E2E2E2
310
E2E2E2E2E2E2E2E2E2E2E2E2E2E2E2E2E2E2E2E2E2E2E2E2E2E2E2E2E2E2E2E2E2E2E2E2E2E2E2E2E2E2E2E2E2E2E2E2E2E2E2E2E2E2E2E2E2E2E2E2E2E2E2E2E2E2E2E2E2E2E2E2E2E2F5F5F5F5F5F5F5F5F5F5F5F5F5E2E2E2E2E2E2E2E2E228E2E2F5F5EFF5E2E2E2E228E2E2E2E2E2E2E2E2E2E2E2E2E2E2E2E2E2E2E2
310
E2E2E2E2E2E2E2E2E2E2E2E2E2E2E2E2E2E2E2E2E2E2E2E2E2E2E2E2E2E2E2E2E2E2E2E2E2E2E2E2E2E2E2E2E2E2E2E2E2E2E2E2E2E2E2E2E2E2E2E2E2E2E2E2E2E2E2E2E2E2E2E2E2E2E2E2E2E2E2E2E2E2E2E2E2E2E2E2E2E2E2E2E2E2E2E2E2E2E2E2E2E2E2E2E2E2E2E2E2E2E2E2E2E2E2E2E2E2E2E2E2E2E2E2E2E2E2
310
F5F5F5F5F5F5F5F5F5F5F5F5F5E2E2E2E2E2E2E2E2E228E2E2F5F5EFF5E2E2E2E228E2E2E2E2E2E2E2E2E2E2E2E2E2E2E2E2E2E2E2E2E2E2E2E2E2E2E2E2E2E2E2E2E2E2E2E2E2E2E2E2E2E2E2E2E2E2E2E2E2E2E2E2E2E2E2E2E2E2E2E2E2E2E2E2E2E2E2E2E2E2E2E2E2E2E2E2E2E2E2E2E2E2E2E2E2E2E2E2E2E2E2E2E2
310
E2E2E2E2E2E2E2E2E2E2E2E2E2E2E2E2E2E2E2E2E2E2E2E2E2E2E2E2E2E2E2E2E2E2E2E2E2E2E2E2E2E2E2E2E2E2E2E2E2E2E2E2E2F5F5F5F5F5F5F5F5F5F5F5F5F5E2E2E2E2E2E2E2E2E228E2E2F5F5EFF5E2E2E2E228E2E2E2E2E2E2E2E2E2E2E2E2E2E2E2E2E2E2E2E2E2E2E2E2E2E2E2E2E2E2E2E2E2E2E2E2E2E2E2E2
310
E2E2E2E2E2E2E2E2E2E2E2E2E2E2E2E2E2E2E2E2E2E2E2E2E2E2E2E2E2E2E2E2E2E2E2E2E2E2E2E2E2E2E2E2E2E2E2E2E2E2E2E2E2E2E2E2E2E2E2E2E2E2E2E2E2E2E2E2E2E2E2E2E2E2E2E2E2E2E2E2E2E2E2E2E2E2E2E2E2E2E2E2E2E2E2E2E2E2E2E2E2E2E2E2E2E2E2E2E2E2E2E2E2E2E2E2E2E2E2E2E2E2E2E2E2E2E2
310
E228E2E2F5F5EFF5E2E2E2E228E2E2E2E2E2E2E2E2E2E2E2E2E2E2E2E2E2E2E2E2E2E2E2E2E2E2E2E2E2E2E2E2E2E2E2E2E2E2E2E2E2E2E2E2E2E2E2E2E2E2E2E2E2E2E2E2E2E2E2E2E2E2E2E2E2E2E2E2E2E2E2E2E2E2E2E2E2E2E2E2E2E2E2E2E2E2E2E2E2E2E2E2E2E2E2E2E2E2E2E2E2E2E2E2E2E2E2E2E2E2E2E2E2E2
310
E2E2E2E2E2E2E2E2E2E2E2E2E2E2E2E2E2E2E2E2E2E2E2E2E2E2E2E2E2E2E2E2E2E2E2E2E2E2E2E2E2E2E2E2E2E2E2E2E2E2E2E2E2E228E2E2F5F5EFF5E2E2E2E228E2E2E2E2E2E2E2E2E2E2E2E2E2E2E2E2E2E2E2E2E2E2E2E2E2E2E2E2E2E2E2E2E2E2E2E2E2E2E2E2E2E2E2E2E2E2E2E2E2E2E2E2E2E2E2E2E2E2E2E2E2
310
E2E2E2E2E2E2E2E2E2E2E2E2E2E2E2E2E2E2E2E2E2E2E2E2E2E2E2E2E2E2E2E2E2E2E2E2E2E2E2E2E2E2E2E2E2E2E2E2E2E2E2E2E2E2E2E2E2E2E2E2E2E2E2E2E2E2E2E2E2E2E2E2E2E2E2E2E2E2E2E2E2E2E2E2E2E2E2E2E2E2E2E2E2E2E2E2E2E2E2E2E2E2E2E2E2E2E228E2E2F5F5EFF5E2E2E2E228E2E2E2E2E2E2E2E2
310
E2E2E2E2E2E2E2E2E2E2E2E2E2E2E2E2E2E2E2E2E2E2E2E2E2E2E2E2E2E2E2E2E2E2E2E2E2E2E2E2E2E2E2E2E2E2E2E2E2E2E2E2E2E2E2E2E2E2E2E2E2E2E2E2E2E2E2E2E2E2E2E2E2E2E2E2E2E2E2E2E2E2E2E2E2E2E2E2E2E2E2E2E2E2E2E2E2E2E2E2E2E2E2E2E2E2E2E2E2E2E2E2E2E2E2E2E2E2E2E2E2E2E2E2E2E2E2
310
E2E2E2E2E2E2E2E2E2E2E2E2E2E2E2E2E2E2E2E2E2E2E2E2E2E2E2E2E2E2E2E2E228E2E2F5F5EFF5E2E2E2E228E2E2E2E2E2E2E2E2E2E2F5F5F5F5F5F5F5F5F5F5F5F5F5F5F5F5F5F5F5F5F5F5F5F5F5F5F5F5F5F5F5F5F5F5F5F5F5F5F5F5F5F5F5F5F5F5F5F5F5F5F5F5F5F5F5F5F5F5F5F5F5F5F5F5F5F5F5F5F5F5F5F5
310
F5F5F5F5F5F5F5F5F5F5F5F5F5F5F5F5F5F5F5F5F5F5F5F5F5F5F5F5F5F5F5F5E2E2E2E2E2E2E2E2E2E2E2F5F5F5F5F5F5F5F5F5F5F5F5F5F5F5F5F5F5F5F5F5F5F5F5F5F5F5F5F5F5F5F5F5F5F5F5E2E2E2E2E2E2E228E2E2F5F5EFF5E2E2E2E228E2E2E2E2E2E2E2E2E2E2F5E2E2F5F5E2E2E2F5F5F5F5F5F5F5F5F5F5F5
310
F5F5F5F5E2E2E2E2E2E2E2E2E2E2E2E2E2E2E2E2E2E2E2E2E2E2E2E2E2F5E2F5F5F5F5F5F5F5F5F5F5F5F5F5F5F5F5F5F5F5F5F5F5F5E2E2E2E2E2F5E2E2E2E2F5F5E2E2E2E2F5E2E2E2E2E2E2E2E2E2E2E2E2E2F5E2E2E2E2E2E2E2E2E2E2E2F5E2E2E2E2E2E2E2F5F5F5E2E2E2E2E2E2F5E2E2F5F5F5F5F5F5F5F5F5F5F5
310
F5F5E2E2F5E2E2E2E2E2E2E228E2E2F5F5EFF5E2E2F5E228E2E2E2E2E2E2E2E2E2E2F5E2E2F5F5E2E2E2F5F5F5F5F5F5F5F5F5F5F5F5F5F5F5E2E2E2E2E2E2E2E2E2E2E2E2E2E2E2E2E2E2E2E2E2E2E2E2E2F5E2F5F5F5F5F5F5F5F5F5F5F5F5F5F5F5F5F5F5F5F5F5F5F5E2E2E2E2E2F5E2E2E2E2F5F5E2E2E2E2F5E2E2E2
310
E2E2E2E2E2E2E2E2E2E2F5E2E2E2E2E2E2E2E2E2E2E2F5E2E2E2E2E2E2E2F5F5F5E2E2E2E2E2E2F5E2E2F5F5F5F5F5F5F5F5F5F5F5F5F5E2E2F5E2E2E2E2E2E2E228E2E2F5F5EFF5E2E2F5E228E2E2E2E2E2E2E2E2E2E2F5F5F5F5F5F5F5F5F5F5F5F5F5F5F5F5F5F5F5F5F5F5F5F5F5F5F5F5F5F5F5F5F5F5F5F5F5F5F5F5
310
F5F5F5F5F5F5F5F5F5F5F5F5F5F5F5F5F5F5F5F5F5F5F5F5F5F5F5F5F5F5F5F5F5F5F5F5F5F5F5F5F5F5F5F5F5F5F5F5F5F5F5F5F5F5F5F5F5F5F5F5F5F5F5F5E2E2E2E2E2E2E2E2E2E2E2F5F5F5F5F5F5F5F5F5F5F5F5F5F5F5F5F5F5F5F5F5F5F5F5F5F5F5F5F5F5F5F5F5F5F5F5E2E2E2E2E2E2E228E2E2F5F5EFF5E2E2
310
F5E228E2E2E2E2E2E2E2E2E2E2F5E2E2F5F5E2E2E2F5F5F5F5F5F5F5F5F5F5F5F5F5F5F5F5F5F5F5F5F5F5F5F5E2E2E2E2E2E2E2E2E2E2E2E2E2E2E2E2F5E2E2E2E2E2E2E2E2E2E2E2E2E2E2E2E2E2E2E2E2E2E2E2E2E2E2E2E2E2F5E2E2E2E2F5F5E2E2E2E2F5E2E2E2E2E2E2E2E2E2E2E2E2E2F5E2E2E2E2E2E2E2E2E2E2
310
E2F5E2E2E2E2E2E2E2F5F5F5E2E2E2E2E2E2F5E2E2F5F5F5F5F5F5F5F5F5F5F5F5F5E2E2F5E2E2E2E2E2E2E228E2E2F5F5EFF5E2E2F5E228E2E2E2E2E2E2E2E2E2E2F5E2E2F5F5E2E2E2F5F5F5F5F5F5F5F5F5F5F5F5F5F5F5F5F5F5F5F5F5F5F5F5E2E2E2E2E2E2E2E2E2E2E2E2E2E2E2E2F5E2E2E2E2E2F5F5F5F5F5F5F5
310
F5F5F5F5F5F5F5F5E2E2E2E2E2E2E2E2E2F5E2E2E2E2F5F5E2E2E2E2F5E2E2E2E2E2E2E2E2E2E2E2E2E2F5E2E2E2E2E2E2E2E2E2E2E2F5E2E2E2E2E2E2E2F5F5F5E2E2E2E2E2E2F5E2E2F5F5F5F5F5F5F5F5F5F5F5F5F5E2E2F5E2E2E2E2E2E2E228E2E2F5F5EFF5E2E2F5E228E2E2E2E2E2E2E2E2E2E2F5F5F5F5F5F5F5F5
310
F5F5F5F5F5F5F5F5F5F5F5F5F5F5F5F5F5F5F5F5F5F5F5F5F5F5F5F5F5F5F5F5F5F5F5F5F5F5F5F5F5F5F5F5F5F5F5F5F5F5F5F5F5F5F5F5F5F5F5F5F5F5F5F5F5F5F5F5F5F5F5F5F5F5F5F5F5F5F5F5F5F5F5F5F5F5F5F5F5F5F5F5F5F5F5F5E2E2E2E2E2E2E2E2E2E2E2F5F5F5F5F5F5F5F5F5F5F5F5F5F5F5F5F5F5F5F5
310
F5F5F5F5F5F5F5F5F5F5F5F5F5F5F5F5E2E2E2E2E2E2E228E2E2F5F5EFF5E2E2F5E228E2E2E2E2E2E2E2E2E2E2F5E2E2F5F5E2E2E2F5F5F5F5F5F5F5F5F5F5F5F5F5F5F5E2E2E2E2E2E2E2E2E2E2E2E2E2E2E2E2E2E2E2E2E2E2E2E2E2F5E2F5F5F5F5F5F5F5F5F5F5F5F5F5F5F5F5F5F5F5F5F5F5F5F5F5F5F5E2F5E2E2E2
310
E2F5F5E2E2E2E2F5E2E2E2E2E2E2E2E2E2E2E2E2E2F5E2E2E2E2E2E2E2E2E2E2E2F5E2E2E2E2E2E2E2F5F5F5E2E2E2E2E2E2F5E2E2F5F5F5F5F5F5F5F5F5F5F5F5F5E2E2F5E2E2E2E2E2E2E228E2E2F5F5EFF5E2E2F5E228E2E2E2E2E2E2E2E2E2E2F5E2E2F5F5E2E2E2F5F5F5F5F5F5F5F5F5F5F5F5F5F5F5E2E2E2E2E2E2
310
E2E2E2E2E2E2E2E2E2E2E2E2E2E2E2E2E2E2E2F5E2F5F5F5F5F5F5F5F5F5F5F5F5F5F5F5F5F5F5F5F5F5F5F5F5F5F5F5E2F5E2E2E2E2F5F5E2E2E2E2F5E2E2E2E2E2E2E2E2E2E2E2E2E2F5E2E2E2E2E2E2E2E2E2E2E2F5E2E2E2E2E2E2E2F5F5F5E2E2E2E2E2E2F5E2E2F5F5F5F5F5F5F5F5F5F5F5F5F5E2E2F5E2E2E2E2E2
310
E2E228E2E2F5F5EFF5E2E2F5E228E2E2E2E2E2E2E2E2E2E2F5F5F5F5F5F5F5F5F5F5F5F5F5F5F5F5F5F5F5F5F5F5F5F5F5F5F5F5F5F5F5F5F5F5F5F5F5F5F5F5F5F5F5F5F5F5F5F5F5F5F5F5F5F5F5F5F5F5F5F5F5F5F5F5F5F5F5F5F5F5F5F5F5F5F5F5F5F5F5F5F5F5F5F5F5F5F5F5F5F5F5F5F5F5F5F5F5F5F5F5F5F5F5
310
F5E2E2E2E2E2E2E2E2E2E2E2F5F5F5F5F5F5F5F5F5F5F5F5F5F5F5F5F5F5F5F5F5F5F5F5F5F5F5F5F5F5F5F5F5F5F5F5E2E2E2E2E2E2E228E2E2F5F5EFF5E2E2F5E228E2E2E2E2E2E2E2E2E2E2F5E2E2F5F5E2E2E2F5F5F5F5F5F5F5F5F5F5F5F5F5F5F5F5F5F5F5F5F5F5F5F5F5F5F5F5F5F5F5F5F5F5F5F5F5F5F5F5F5E2
310
F5F5F5F5F5F5F5F5F5F5F5F5F5F5F5F5F5E2E2E2E2E2E2E2E2E2E2E2F5E2E2E2E2F5F5E2E2E2E2F5F5F5F5F5F5F5F5F5F5F5F5F5E2F5E2E2E2E2E2E2E2E2E2E2E2F5E2E2E2E2E2E2E2F5F5F5E2E2E2E2E2E2F5E2E2F5F5F5F5F5F5F5F5F5F5F5F5F5E2E2F5E2E2E2E2E2E2E228E2E2F5F5EFF5E2E2F5E228E2E2E2E2E2E2E2
310
E2E2E2F5E2E2F5F5E2E2E2F5F5F5F5F5F5F5F5F5F5F5F5F5F5F5F5F5F5F5F5F5F5F5F5F5F5F5F5F5F5F5F5F5F5F5F5F5F5F5F5F5E2F5F5F5F5F5F5F5F5F5F5F5F5F5F5F5F5F5E2E2E2E2E2E2E2E2E2E2E2F5E2E2E2E2F5F5E2E2E2E2F5F5F5F5F5F5F5F5F5F5F5F5F5E2F5E2E2E2E2E2E2E2E2E2E2E2F5E2E2E2E2E2E2E2F5
310
F5F5E2E2E2E2E2E2F5E2E2F5F5F5F5F5F5F5F5F5F5F5F5F5E2E2F5E2E2E2E2E2E2E228E2E2F5F5EFF5E2E2F5E228E2E2E2E2E2E2E2E2E2E2F5F5F5F5F5F5F5F5F5F5F5F5F5F5F5F5F5F5F5F5F5F5F5F5F5F5F5F5F5F5F5F5F5F5F5F5F5F5F5F5F5F5F5F5F5F5F5F5F5F5F5F5F5F5F5F5F5F5F5F5F5F5F5F5F5F5F5F5F5F5F5
310
F5F5F5F5F5F5F5F5F5F5F5F5F5F5F5F5F5F5F5F5F5F5F5F5F5F5F5F5F5F5F5F5F5E2E2E2E2E2E2E2E2E2E2E2F5F5F5F5F5F5F5F5F5F5F5F5F5F5F5F5F5F5F5F5F5F5F5F5F5F5F5F5F5F5F5F5F5F5F5F5E2E2E2E2E2E2E228E2E2F5F5EFF5E2E2F5E228E2E2E2E2E2E2E2E2E2E2F5E2E2F5F5E2E2E2F5F5F5F5F5F5F5F5F5F5
310
F5F5F5E2E2E2E2E2E2E2E2E2E2E2E2E2E2E2E2E2E2E2E2E2E2E2E2E2E2E2F5E2E2E2E2E2F5F5F5F5F5F5F5F5F5F5F5F5F5F5F5E2E2E2E2E2E2E2E2E2F5E2E2E2E2F5F5E2E2E2E2F5E2E2E2E2E2E2E2E2E2E2E2E2E2F5E2E2E2E2E2E2E2E2E2E2E2F5E2E2E2E2F5F5F5F5F5F5E2E2E2E2E2E2F5E2E2F5F5F5F5F5F5F5F5F5F5
310
F5F5F5E2E2F5E2E2E2E2E2E2E228E2E2F5F5EFF5E2E2F5E228E2E2E2E2E2E2E2E2E2E2F5E2E2F5F5E2E2E2F5F5F5F5F5F5F5F5F5F5F5F5F5E2E2E2E2E2E2E2E2E2E2E2E2E2E2E2E2E2E2E2E2E2E2E2E2E2E2E2F5E2E2E2E2E2E2E2E2E2E2E2E2E2E2E2E2E2E2E2E2E2E2E2E2E2E2E2E2E2F5E2E2E2E2F5F5E2E2E2E2F5E2E2
310
E2E2E2E2E2E2E2E2E2E2E2F5E2E2E2E2E2E2E2E2E2E2E2F5E2E2E2E2F5F5F5F5F5F5E2E2E2E2E2E2F5E2E2F5F5F5F5F5F5F5F5F5F5F5F5F5E2E2F5E2E2E2E2E2E2E228E2E2F5F5EFF5E2E2F5E228E2E2E2E2E2E2E2E2E2E2F5F5F5F5F5F5F5F5F5F5F5F5F5F5F5F5F5F5F5F5F5F5F5F5F5F5F5F5F5F5F5F5F5F5F5F5F5F5F5
310
F5F5F5F5F5F5F5F5F5F5F5F5F5F5F5F5F5F5F5F5F5F5F5F5F5F5F5F5F5F5F5F5F5F5F5F5F5F5F5F5F5F5F5F5F5F5F5F5F5F5F5F5F5F5F5F5F5F5F5F5F5F5F5F5F5E2E2E2E2E2E2E2E2E2E2E2F5F5F5F5F5F5F5F5F5F5F5F5F5F5F5F5F5F5F5F5F5F5F5F5F5F5F5F5F5F5F5F5F5F5F5F5E2E2E2E2E2E2E228E2E2F5F5EFF5E2
310
E2F5E228E2E2E2E2E2E2E2E2E2E2F5E2E2F5F5E2E2E2F5F5F5F5F5F5F5F5F5F5F5F5F5F5F5F5F5F5F5E2E2E2E2E2E2E2E2E2E2E2E2E2E2E2E2E2E2E2E2E2F5E2E2E2E2E2F5F5F5F5F5F5F5F5F5F5F5F5F5F5F5E2E2E2E2E2E2E2E2E2F5E2E2E2E2F5F5E2E2E2E2F5E2E2E2E2E2E2E2E2E2E2E2E2E2F5E2E2E2E2E2E2E2E2E2
310
E2E2F5F5F5F5F5F5F5F5F5F5F5F5F5F5F5F5E2F5E2E2E2E2F5F5F5F5F5F5F5E2E2E2E2E2E2F5E2E2E2E2E2E2E228E2E2F5F5EFF5E2E2E2E228E2E2E2E2E2E2E2E2E2E2F5E2E2F5F5E2E2E2F5E2E2E2E2E2E2E2E2E2E2E2E2E2E2E2E2E2E2E2E2E2E2E2E2E2E2E2E2E2E2E2E2E2E2E2E2E2E2E2F5E2E2E2E2E2E2E2E2E2E2E2
310
E2E2E2E2E2E2E2E2E2E2E2E2E2E2E2E2E2E2F5E2E2E2E2E2E2E2F5F5F5F5E2E2E2E2E2E2E2E2E2E2E2E2E2F5E2E2E2E2E2E2E2E2E2E2E2F5F5F5F5F5F5F5F5F5F5F5F5F5F5F5F5E2F5E2E2E2E2F5F5F5F5F5F5F5E2E2E2E2E2E2F5E2E2E2E2E2E2E228E2E2F5F5EFF5E2E2E2E228E2E2E2E2E2E2E2E2E2E2F5F5F5F5F5F5F5
310
F5F5F5F5F5F5F5F5F5F5F5F5F5F5F5F5F5F5F5F5F5F5F5F5F5F5F5F5F5F5F5F5F5F5F5F5F5F5F5F5F5F5F5F5F5F5F5F5F5F5F5F5F5F5F5F5F5F5F5F5F5F5F5F5F5F5F5F5F5F5F5F5F5F5F5F5F5F5F5F5F5F5F5F5F5F5F5F5F5F5F5F5F5F5F5F5F5E2E2E2E2E2E2E2E2E2E2E2F5E2E2E2E2E2E2E2E2E2E2E2E2E2E2E2E2F5E2
310
E2E2E2E2E2E2E2E2E2E2E2E2E2E2E2E2F5E2E2E2E2E2E2E228E2E2F5F5EFF5E2E2E2E228E2E2E2E2E2E2E2E2E2E2F5F5F5F5F5F5F5E2F5E2E2E2E2E2E2E2E2E2E2F5F5F5F5F5F5F5F5F5F5F5F5E2E2E2E2E2E2E2E2E2E2E2E2E2E2E2E2E2F5E2E2E2E2E2E2E2E2F5F5F5F5F5F5F5F5F5F5F5F5E2E2E2E2E2E2E2E2E2F5F5F5
310
F5F5F5F5F5F5F5F5F5E2E2E2E2F5F5F5F5F5F5F5E2E2F5E2E2E2E2E2E2E2E2E2E2E2F5F5F5F5F5F5F5F5F5F5F5F5F5F5F5F5F5F5F5F5F5F5F5F5F5F5F5F5F5F5F5F5F5F5F5F5E2E2E2E2E2E2E228E2E2F5F5EFF5E2E2E2E228E2E2E2E2E2E2E2E2E2E2F5F5F5F5F5F5F5E2F5E2E2E2E2E2E2E2E2E2E2F5F5F5F5F5F5F5F5F5
310
F5F5F5E2E2E2E2E2E2E2E2E2E2E2E2E2E2E2E2E2F5E2E2E2E2E2E2E2E2F5F5F5F5F5F5F5F5F5F5F5F5E2E2E2E2E2E2E2E2E2F5F5F5F5F5F5F5E2F5E2E2F5E2E2E2E2F5F5F5F5F5F5F5E2E2F5E2E2E2E2E2E2E2E2E2E2E2E2E2E2E2E2E2E2E2E2E2E2E2E2E2E2E2E2E2E2E2E2E2E2E2E2E2E2E2E2E2E2E2E2E2E2E2E2E2E2E2
310
E2E2E228E2E2F5F5EFF5E2E2E2E228E2E2E2E2E2E2E2E2E2E2F5E2E2E2E2E2E2E2F5E2E2E2E2E2E2E2E2E2E2E2E2E2E2E2E2E2E2E2E2E2E2E2E2E2E2E2E2E2E2E2E2E2E2E2E2E2E2E2F5E2E2E2E2E2E2E2E2E2E2E2E2E2E2E2E2E2E2E2E2E2E2E2E2E2E2E2E2E2F5F5F5F5F5F5F5E2E2F5E2F5E2E2E2E2E2E2E2E2E2E2E2E2
310
E2F5E2E2E2E2E2E2E2E2E2E2E2E2E2E2E2E2E2E2E2E2E2E2E2E2E2E2E2E2E2E2E2E2E2E2E2E2E2E2E2E2E2E2E2E2E2E2E2E2E2E2E2E2E2E228E2E2F5F5EFF5E2E2E2E228E2E2E2E2E2E2E2E2E2E2F5F5F5F5F5F5F5F5F5F5F5F5F5F5F5F5F5F5F5F5F5F5F5F5F5F5F5F5F5F5F5F5F5F5F5F5F5F5F5F5F5F5F5F5F5F5F5F5F5
310
F5F5F5F5F5F5F5F5F5F5F5F5F5F5F5F5F5F5F5F5F5F5F5F5F5F5F5F5F5F5F5F5F5F5F5F5F5F5F5F5F5F5F5F5F5F5F5F5F5F5F5F5F5F5F5E2E2E2E2E2E2E2E2E2E2E2E2E2E2E2E2E2E2E2E2E2E2E2E2E2E2E2E2E2E2E2E2E2E2E2E2E2E2E2E2E2E2E2E2E2E2E2E2E2E2E2E2E2E228E2E2F5F5EFF5E2E2E2E228E2E2E2E2E2E2
310
E2E2E2E2E2E2E2E2E2E2E2E2E2E2E2E2E2E2E2E2E2E2E2E2E2E2E2E2E2E2E2E2E2E2E2E2E2E2E2E2E2E2E2E2E2E2E2E2E2E2E2E2E2E2E2E2E2E2E2E2E2E2E2E2E2E2E2E2E2E2E2E2E2E2E2E2E2E2E2E2E2E2E2E2E2E2E2E2E2E2E2E2E2E2E2E2E2E2E2E2E2E2E2E2E2E2E2E2E2E2E2E2E2E2E2E2E2E2E2E2E2E2E2E2E2E2E2
310
E2E2E2E2E2E2E2E2E2E2E2E2E2E2E2E2E2E2E2E2E2E2E2E2E2E2E2E2E2E2E2E2E2E2E228E2E2F5F5EFF5E2E2E2E228E2E2E2E2E2E2E2E2E2E2E2E2E2E2E2E2E2E2E2E2E2E2E2E2E2E2E2E2E2E2E2E2E2E2E2E2E2E2E2E2E2E2E2E2E2E2E2E2E2E2E2E2E2E2E2E2E2E2E2E2E2E2E2E2E2E2E2E2E2E2E2E2E2E2E2E2E2E2E2E2
310
E2E2E2E2E2E2E2E2E2E2E2E2E2E2E2E2E2E2E2E2E2E2E2E2E2E2E2E2E2E2E2E2E2E2E2E2E2E2E2E2E2E2E2E2E2E2E2E2E2E2E2E2E2E2E2E2E2E2E2E2E2E2E2E2E2E2E2E2E2E2E2E2E2E2E2E2E2E2E2E2E2E2E2E2E2E2E2E228E2E2F5F5EFF5E2E2F5E228E2E2E2E2E2E2E2E2E2E2E2E2E2E2E2E2E2E2E2E2E2E2E2E2E2E2E2
310
E2E2E2E2E2E2E2E2E2E2E2E2E2E2E2E2E2E2E2E2E2E2E2E2E2E2E2E2E2E2E2E2E2E2E2E2E2E2E2E2E2E2E2E2E2E2E2E2E2E2E2E2E2E2E2E2E2E2E2E2E2E2E2E2E2E2E2E2E2E2E2E2E2E2E2E2E2E2E2E2E2E2E2E2E2E2E2E2E2E2E2E2E2E2E2E2E2E2E2E2E2E2E2E2E2E2E2E2E2E2E2E2E2E2E2E2E2E2E2E2E2E2E2E2E2E2E2
310
E2E2E2E2E2E2E2E2E2E2E2E2E2E228E2E2F5F5EFF5E2E2F5E228E2E2E2E2E2E2E2E2E2E2E2E2E2E2E2E2E2E2E2E2E2E2E2E2E2E2E2E2E2E2E2E2E2E2E2E2E2E2E2E2E2E2E2E2E2E2E2E2E2E2E2E2E2E2E2E2E2E2E2E2E2E2E2E2E2E2E2E2E2E2E2E2E2E2E2E2E2E2E2E2E2E2E2E2E2E2E2E2E2E2E2E2E2E2E2E2E2E2E2E2E2
310
E2E2E2E2E2E2E2E2E2E2E2E2E2E2E2E2E2E2E2E2E2E2E2E2E2E2E2E2E2E2E2E2E2E2E2E2E2E2E2E2E2E2E2E2E2E2E2E2E2E2E2E2E2E2E2E2E2E2E2E2E2E2E2E2E2E2E228E2E2F5F5EFF5E2E2F5E228E2E2E2E2E2E2E2E2E2E2E2E2E2E2E2E2E2E2E2E2E2E2E2E2E2E2E2E2E2E2E2E2E2E2E2E2E2E2E2E2E2E2E2E2E2E2E2E2
310
E2E2E2E2E2E2E2E2E2E2E2E2E2E2E2E2E2E2E2E2E2E2E2E2E2E2E2E2E2E2E2E2E2E2E2E2E2E2E2E2E2E2E2E2E2E2E2E2E2E2E2E2E2E2E2E2E2E2E2E2E2E2E2E2E2E2E2E2E2E2E2E2E2E2E2E2E2E2E2E2E2E2E2E2E2E2E2E2E2E2E2E2E2E2E2E2E2E2E2E2E2E2E2E2E2E2E2E2E2E2E2E2E2E2E2E2E2E2E2E228E2E2F5F5EFF5
310
E2E2F5E228E2E2E2E2E2E2E2E2E2E2E2E2E2E2E2E2E2E2E2E2E2E2E2E2E2E2E2E2E2E2E2E2E2E2E2E2E2E2E2E2E2E2E2E2E2E2E2E2E2E2E2E2E2E2E2E2E2E2E2E2E2E2E2E2E2E2E2E2E2E2E2E2E2E2E2E2E2E2E2E2E2E2E2E2E2E2E2E2E2E2E2E2E2E2E2E2E2E2E2E2E2E2E2E2E2E2E2E2E2E2E2E2E2E2E2E2E2E2E2E2E2E2
310
E2E2E2E2E2E2E2E2E2E2E2E2E2E2E2E2E2E2E2E2E2E2E2E2E2E2E2E2E2E2E2E2E2E2E2E2E2E2E2E2E2E2E2E2E2E228E2E2F5F5EFF5E2E2F5E228E2E2E2E2E2E2E2E2E2E2E2E2E2E2E2E2E2E2E2E2E2E2E2E2E2E2E2E2E2E2E2E2E2E2E2E2E2E2E2E2E2E2E2E2E2E2E2E2E2E2E2E2E2E2E2E2E2E2E2E2E2E2E2E2E2E2E2E2E2
310
E2E2E2E2E2E2E2E2E2E2E2E2E2E2E2E2E2E2E2E2E2E2E2E2E2E2E2E2E2E2E2E2E2E2E2E2E2E2E2E2E2E2E2E2E2E2E2E2E2E2E2E2E2E2E2E2E2E2E2E2E2E2E2E2E2E2E2E2E2E2E2E2E2E2E2E2E2E2E2E2E2E2E2E2E2E2E2E2E2E2E2E2E2E2E2E2E2E2E228E2E2F5F5EFF5E2E2F5E228E2E2E2E2E2E2E2E2E2E2E2E2E2E2E2E2
310
E2E2E2E2E2E2E2E2E2E2E2E2E2E2E2E2E2E2E2E2E2E2E2E2E2E2E2E2E2E2E2E2E2E2E2E2E2E2E2E2E2E2E2E2E2E2E2E2E2E2E2E2E2E2E2E2E2E2E2E2E2E2E2E2E2E2E2E2E2E2E2E2E2E2E2E2E2E2E2E2E2E2E2E2E2E2E2E2E2E2E2E2E2E2E2E2E2E2E2E2E2E2E2E2E2E2E2E2E2E2E2E2E2E2E2E2E2E2E2E2E2E2E2E2E2E2E2
310
E2E2E2E2E2E2E2E2E2E2E2E2E2E2E2E2E2E2E2E2E2E2E2E2E228E2E2F5F5EFF5E2E2F5E228E2E2E2E2E2E2E2E2E2E2E2E2E2E2E2E2E2E2E2E2E2E2E2E2E2E2E2E2E2E2E2E2E2E2E2E2E2E2E2E2E2E2F5F5F5F5F5F5F5F5F5F5F5F5F5F5F5F5F5F5F5F5F5F5F5F5F5F5F5F5F5F5F5F5F5F5F5F5F5F5F5F5F5F5F5F5F5F5F5F5
310
F5F5F5F5F5F5F5F5F5F5F5F5F5F5F5F5F5F5F5F5F5F5F5F5F5F5F5E2E2E2E2E2E2E2E2E2E2E2E2E2E2E2E2E2E2E2E2E2E2E2E2E2E2E2E2E2E2E2E2E2E2E2E2E2E2E2E2E2E2E2E2E2E2E2E2E2E2E228E2E2F5F5EFF5E2E2F5E228E2E2E2E2E2E2E2E2E2E2E2E2E2E2E2E2E2E2E2E2E2F5F5F5F5F5E2E2E2E2E2E2E2E2E2E2E2
310
E2E2E2E2E2F5F5F5F5F5F5F5F5F5F5F5F5F5F5F5F5F5F5F5F5F5F5F5F5F5F5F5F5F5F5F5F5F5F5F5F5F5F5F5F5F5F5F5F5F5F5F5F5F5F5F5F5F5F5F5F5F5F5F5F5F5F5F5F5F5F5F5F5F5F5F5F5F5F5F5E2E2E2E2E2E2E2E2E2E2E2E2E2E2E2E2E2E2E2E2E2E2E2E2E2E2E2E2E2E2E2E2E2F5F5F5F5E2E2E2E2E2E2E2E2E2E2
310
E2E2E2E228E2E2F5F5EFF5E2E2F5E228E2E2E2E2E2E2E2E2E2E2E2E2E2E2E2E2E2E2E2E2E2F5F5F5F5E2E2E2E2E2E2E2E2E2E2E2E2E2E2E2E2E2E2E2E2E2E2E2E2E2E2E2E2E2E2E2E2E2E2E2E2E2E2E2E2E2E2E2E2E2E2E2E2E2E2E2E2E2E2E2E2E2E2E2E2E2E2E2E2E2E2E2E2E2E2E2E2E2E2E2E2E2E2E2E2E2E2E2E2E2E2
310
E2E2E2E2E2E2E2E2E2E2E2E2E2E2E2E2E2E2E2E2E2E2E2E2E2E2E2E2E2E2E2E2E2E2E2E2E2E2E2F5F5F5E2E2E2E2E2E2E2E2E2E2E2E2E2E2E228E2E2F5F5EFF5E2E2F5E228E2E2E2E2E2E2E2E2E2E2E2E2E2E2E2E2E2E2E2E2E2F5F5F5F5E2E2E2E2E2E2E2E2E2E2E2E2E2E2E2E2E2E2E2E2E2E2E2E2E2E2E2E2E2E2E2E2E2
310
E2E2E2E2E2E2E2E2E2E2E2E2E2E2E2E2E2E2E2E2E2E2E2E2E2E2E2E2E2E2E2E2E2E2E2E2E2E2E2E2E2E2E2E2E2E2E2E2E2E2E2E2E2E2E2E2E2E2E2E2E2E2E2E2E2E2E2E2E2E2E2E2E2E2E2E2E2E2E2E2E2E2E2E2E2E2E2E2E2E2E2E2F5F5F5E2E2E2E2E2E2E2E2E2E2E2E2E2E2E228E2E2F5F5EFF5E2E2F5E228E2E2E2E2E2
310
E2E2E2E2E2E2E2E2E2E2E2E2E2E2E2E2F5E2E2E2E2E2E2E2E2E2E2E2E2E2E2E2E2E2E2E2E2E2E2E2E2E2E2E2E2E2E2E2E2E2E2E2E2E2E2E2E2E2E2E2E2E2E2E2E2E2E2E2E2E2E2E2E2E2E2E2E2E2E2E2E2E2E2E2E2E2E2E2E2E2E2E2E2E2E2E2E2E2E2E2E2E2E2E2E2E2E2E2E2E2E2E2E2E2E2E2E2E2E2E2E2E2E2E2E2E2E2
310
E2E2E2E2E2E2E2E2E2E2E2E2E2E2E2E2E2F5E2E2E2E2E2E2E2E2E2E2E2E2E2E2E2E2E2E228E2E2F5F5EFF5E2E2F5E228E2E2E2E2E2E2E2E2E2E2E2E2E2E2E2E2E2F5F5F5F5F5F5F5E2E2E2E2E2F5F5F5F5F5F5F5F5F5F5F5F5F5F5F5F5F5F5F5F5F5F5F5F5F5F5F5F5F5F5F5F5F5F5F5F5F5F5F5F5F5F5F5F5F5F5F5F5F5F5
310
F5F5F5F5F5F5F5F5F5F5F5F5F5F5F5F5F5F5F5F5F5F5F5F5F5F5F5F5F5F5F5F5F5F5F5F5F5F5F5F5F5F5F5F5F5F5F5F5F5F5F5F5F5F5F5F5F5F5F5F5F5E2E2E2E2E2E2E2F5F5F5F5E2E2E2E2E2E2E2E2E2E2E2E2E2E2E2E2E228E2E2F5F5EFF5E2E2F5E228E2E2E2E2E2E2E2E2E2E2E2E2E2E2E2E2E2E2E2F5E2F5E2E2E2E2
310
E2E2E2F5F5F5F5F5F5E2E2E2F5F5F5F5F5E2E2E2F5E2E2E2E2E2E2E2E2E2E2E2E2E2E2E2E2E2E2E2E2E2E2E2E2E2E2E2E2E2E2F5F5F5F5F5E2E2E2E2E2E2E2E2E2E2E2E2E2E2E2E2E2E2E2E2E2E2E2E2E2E2E2E2E2E2E2E2E2E2E2E2F5E2E2E2F5F5F5F5F5E2E2E2E2F5E2F5F5F5F5F5E2F5E2E2E2E2E2E2E2F5E2E2F5E2E2
310
E2E2E2E2E2E2E2E2E2E2E2E2E2E2E228E2E2F5F5EFF5E2E2F5E228E2E2E2E2E2E2E2E2E2E2E2E2E2E2E2E2E2E2E2F5E2F5E2E2E2E2E2E2E2F5F5F5F5F5F5E2E2E2F5F5F5F5F5E2E2E2F5E2E2E2E2E2E2E2E2E2E2E2E2E2E2E2E2E2E2E2E2E2E2E2E2E2E2E2E2E2E2F5F5F5F5F5E2E2E2E2E2E2E2E2E2E2E2E2E2E2E2E2E2E2
310
E2E2E2E2E2E2E2E2E2E2E2E2E2E2E2E2E2E2F5E2E2E2F5F5F5F5F5E2E2E2E2F5E2F5F5F5F5F5E2F5E2E2E2E2E2E2E2F5E2E2F5E2E2E2E2E2E2E2E2E2E2E2E2E2E2E2E2E228E2E2F5F5EFF5E2E2F5E228E2E2E2E2E2E2E2E2E2E2E2E2E2E2E2E2E2E2E2F5E2F5E2E2E2E2E2E2E2F5E2E2E2E2F5E2E2E2E2E2E2E2E2E2E2E2F5
310
E2E2E2E2E2E2E2E2E2E2E2E2E2E2E2E2E2E2E2E2E2E2E2E2E2E2E2E2E2E2E2E2E2E2E2E2E2E2E2E2E2E2E2E2E2E2E2E2E2E2E2E2E2E2E2E2E2E2E2E2E2E2E2E2E2E2E2E2E2E2E2F5E2E2E2E2E2E2E2E2E2E2E2E2F5E2E2E2E2E2E2E2F5E2E2E2E2E2E2E2F5E2E2F5E2E2E2E2E2E2E2E2E2E2E2E2E2E2E2E2E228E2E2F5F5EF
310
F5E2E2E2E228E2E2E2E2E2E2E2E2E2E2E2E2E2E2E2E2E2E2E2F5E2F5E2E2E2E2E2E2E2F5E2E2E2E2F5E2E2E2E2E2E2E2E2E2E2E2F5E2E2E2E2E2E2E2E2E2E2E2E2E2E2E2E2E2E2E2E2E2E2E2E2E2E2E2E2E2E2E2E2E2E2E2E2E2E2E2E2E2E2E2E2E2E2E2E2E2E2E2E2E2E2E2E2E2E2E2E2E2E2E2E2E2E2E2E2E2E2E2F5E2E2
310
E2E2E2E2E2E2E2E2E2E2F5E2E2E2E2E2E2E2F5E2E2E2E2E2E2E2F5E2E2F5E2E2E2E2E2E2E2E2E2E2E2E2E2E2E2E2E228E2E2F5F5EFF5E2E2E2E228E2E2E2E2E2E2E2E2E2E2E2E2E2E2E2E2E2E2E2F5E2F5E2E2E2E2E2E2E2F5E2E2E2E2F5E2E2E2E2E2E2E2E2E2E2E2F5E2E2E2E2E2E2E2E2E2E2E2E2E2E2E2E2E2E2E2E2E2
310
E2E2E2E2E2E2E2E2E2E2E2E2E2E2E2E2E2E2E2E2E2E2E2E2E2E2E2E2E2E2E2E2E2E2E2E2E2E2E2E2E2E2E2E2E2E2E2E2E2E2F5E2E2E2E2E2E2E2E2E2E2E2E2F5E2E2E2E2E2E2E2F5E2E2E2E2E2E2E2F5E2E2F5E2E2E2E2E2E2E2E2E2E2E2E2E2E2E2E2E228E2E2F5F5EFF5E2E2E2E228E2E2E2E2E2E2E2E2E2E2E2E2E2E2F5
310
F5F5F5F5F5F5F5E2E2E2E2E2E2E2F5F5F5F5F5F5E2E2E2E2E2E2E2E2E2E2E2F5E2E2E2E2E2E2E2E2E2E2E2E2E2E2E2E2E2E2E2E2E2E2E2E2E2E2E2E2E2E2E2E2E2E2E2E2E2E2E2E2E2E2E2E2E2E2E2E2E2E2E2E2E2E2E2F5F5E2E2E2E2E2E2E2E2E2E2E2E2E2F5F5E2E2E2E2E2E2E2E2E2F5F5F5F5F5F5F5F5F5F5F5F5F5E2
310
E2E2E2E2E2F5F5F5F5F5F5F5F5F5F5F5E2E2E2E2E2E2E2E2E2E228E2E2F5F5EFF5E2E2E2E228E2E2E2E2E2E2E2E2E2E2E2E2E2E2F5E2E2E2E2F5F5F5E2E2E2E2E2E2E2F5E2F5F5F5F5F5F5F5F5E2E2E2E2E2E2E2F5E2E2E2E2E2E2E2E2E2E2E2E2E2E2E2E2E2E2E2E2E2E2E2E2E2E2E2E2E2E2E2E2E2E2E2E2E2E2E2E2E2E2
310
E2E2E2E2E2E2E2E2E2E2E2E2E2F5F5F5F5F5F5F5F5F5F5F5F5F5F5F5F5F5E2E2E2E2E2E2E2E2E2F5F5F5F5E2E2F5E2F5E2E2F5F5E2E2E2E2E2E2F5F5F5F5E2E2E2E2E2F5F5E2E2E2E2E2E2E2E2E2E228E2E2F5F5EFF5E2E2E2E228E2E2E2E2E2E2E2E2E2E2E2E2E2E2F5E2E2E2E2F5F5F5E2E2E2E2E2E2E2F5E2F5F5F5F5F5
310
F5F5F5F5F5E2E2E2E2E2F5E2E2E2E2E2E2E2E2E2E2E2E2E2E2E2E2E2E2E2E2E2E2E2F5F5F5F5F5F5F5F5F5F5F5F5F5F5F5F5F5F5F5F5F5F5F5F5F5F5E2E2E2E2E2E2F5E2E2E2E2F5F5F5F5F5F5E2E2E2E2E2F5E2E2E2E2E2E2E2E2E2F5F5F5F5E2E2F5E2F5E2E2F5E2E2E2E2E2E2E2F5F5F5F5E2E2E2E2E2F5E2E2E2E2E2E2
310
E2E2E2E2E228E2E2F5F5EFF5E2E2E2E228E2E2E2E2E2E2E2E2E2E2E2E2E2E2F5E2E2E2E2F5F5F5E2E2E2E2E2E2E2F5E2F5F5F5F5F5F5F5F5E2F5E2E2E2E2E2F5F5E2E2E2E2E2E2E2F5F5E2E2E2E2E2E2E2E2E2E2E2E2F5E2F5F5F5F5F5F5F5F5F5F5F5F5F5F5F5F5F5F5F5F5F5F5F5F5E2E2E2E2E2E2E2F5E2E2E2E2F5F5F5
310
F5F5F5E2E2E2E2E2F5E2E2E2E2E2E2E2E2E2E2E2E2F5E2E2F5E2F5E2E2F5E2E2E2E2E2E2E2F5F5F5F5E2E2E2E2E2F5E2E2E2E2E2E2E2E2E2E2E228E2E2F5F5EFF5E2E2E2E228E2E2E2E2E2E2E2E2E2E2E2E2E2E2F5E2E2E2E2F5F5F5E2E2E2E2E2E2E2F5E2F5F5F5F5F5F5F5F5E2E2F5E2E2E2E2F5F5F5F5F5F5F5F5F5F5F5
310
E2E2E2E2E2E2E2E2E2E2E2E2F5E2F5F5F5F5F5F5F5F5F5F5F5F5F5F5F5F5F5F5F5F5F5F5F5F5E2E2E2E2E2E2E2F5E2E2E2E2E2F5F5E2E2E2E2E2E2E2F5F5E2E2E2E2E2E2E2E2F5F5F5F5F5E2E2F5F5F5E2E2F5E2E2E2E2E2E2E2F5F5F5F5E2E2E2E2E2F5E2E2E2E2E2E2E2E2E2E2E228E2E2F5F5EFF5E2E2E2E228E2E2E2E2
310
E2E2E2E2E2E2E2E2E2E2F5E2E2E2E2F5F5F5E2E2E2E2E2E2E2F5E2F5F5F5F5F5F5F5F5E2E2F5E2E2E2E2F5E2E2F5F5F5F5F5E2E2F5E2E2E2E2E2E2E2E2E2E2E2F5E2E2E2E2E2E2E2E2E2E2E2E2E2E2E2E2E2E2E2E2E2E2E2E2E2E2E2E2E2E2E2E2E2F5E2E2E2E2E2F5F5F5F5F5F5F5F5F5F5F5E2E2E2E2E2E2E2F5E2F5F5F5
310
F5E2E2F5F5F5E2E2F5E2E2E2E2E2E2E2F5F5F5F5E2E2E2E2E2F5E2E2E2E2E2E2E2E2E2E2E228E2E2F5F5EFF5E2E2E2E228E2E2E2E2E2E2E2E2E2E2E2E2E2E2F5E2E2E2E2F5F5F5E2E2E2E2E2E2E2F5E2F5F5F5F5F5F5F5F5E2E2F5E2E2E2E2F5E2E2E2E2E2E2E2E2E2F5E2E2E2E2E2E2E2E2E2E2E2F5E2E2E2E2E2E2E2E2E2
310
E2E2E2E2E2E2E2E2E2E2E2E2E2E2E2E2E2E2E2E2E2E2E2E2F5E2E2E2E2E2F5E2F5F5F5F5F5E2E2E2F5E2E2E2E2E2E2E2F5E2F5F5F5F5E2E2F5F5F5E2E2F5E2E2E2E2E2E2E2F5F5F5F5E2E2E2E2E2F5E2E2E2E2E2E2E2E2E2E2E228E2E2F5F5EFF5E2E2F5E228E2E2E2E2E2E2E2E2E2E2E2E2E2E2F5E2E2E2E2F5F5F5E2E2E2
310
E2E2E2E2F5E2F5F5F5F5F5F5F5F5E2E2F5E2E2E2E2F5E2E2E2E2E2E2E2E2E2F5E2E2E2E2E2E2E2E2E2E2F5E2E2E2E2E2E2E2E2E2E2E2E2E2E2E2E2E2E2E2E2E2E2E2E2E2E2E2E2E2E2E2E2E2E2F5E2E2E2E2E2F5E2E2E2E2E2E2E2E2E2F5E2E2E2E2E2E2E2F5E2F5F5F5F5E2E2F5F5F5E2E2F5E2E2E2E2E2E2E2F5F5F5F5E2
310
E2E2E2E2F5E2E2E2E2E2E2E2E2E2E2E228E2E2F5F5EFF5E2E2F5E228E2E2E2E2E2E2E2E2E2E2E2E2E2E2F5E2E2E2E2F5F5F5E2E2E2E2E2E2E2F5E2F5F5F5F5F5F5F5F5E2E2E2F5E2E2E2F5E2E2E2E2E2E2E2E2E2F5E2E2E2E2E2E2E2E2E2E2F5E2E2E2E2E2E2E2E2E2E2E2E2E2E2E2E2E2E2E2E2E2E2E2E2E2E2E2E2E2E2E2
310
E2E2E2F5E2E2E2E2E2F5E2E2E2E2E2E2E2E2E2F5E2E2E2E2E2E2E2F5E2F5F5F5F5E2E2F5F5F5E2E2F5E2E2E2E2E2E2E2F5F5F5F5E2E2E2E2E2F5E2E2E2E2E2E2E2E2E2E2E228E2E2F5F5EFF5E2E2F5E228E2E2E2E2E2E2E2E2E2E2E2F5F5F5F5E2E2E2E2F5F5F5E2E2E2E2E2E2E2F5E2F5F5F5F5F5F5F5F5E2E2E2F5E2E2F5
310
F5F5F5F5F5F5F5F5F5F5F5E2E2E2E2E2E2E2E2F5F5E2E2E2E2E2E2E2E2E2E2E2E2E2E2E2E2E2E2E2E2E2E2E2E2E2E2E2E2E2E2E2E2E2E2E2F5E2E2E2E2E2F5F5F5F5F5F5F5F5F5F5F5F5E2E2E2E2E2F5E2E2F5F5F5F5E2E2F5F5F5E2E2F5E2E2E2E2E2E2E2F5F5F5F5E2E2F5F5F5F5E2E2E2E2E2E2E2E2E2E2E228E2E2F5F5
310
EFF5E2E2F5E228E2E2E2E2E2E2E2E2E2E2E2F5F5F5F5E2E2E2E2F5F5F5E2E2E2E2E2E2E2F5E2F5F5F5F5F5F5F5F5E2E2E2F5F5F5F5F5F5F5F5F5F5F5F5F5F5F5F5F5F5F5F5F5F5F5F5F5F5F5F5F5F5F5F5F5F5F5F5F5F5F5F5F5F5F5F5F5F5F5F5F5F5F5F5F5F5F5F5F5F5F5F5F5F5F5F5F5F5F5F5F5F5F5F5F5F5F5F5F5F5
310
F5F5F5F5F5E2E2E2F5F5F5F5E2E2F5F5F5E2E2F5E2E2E2E2E2E2E2F5F5F5F5E2E2F5F5F5F5E2E2E2E2E2E2E2E2E2E2E228E2E2F5F5EFF5E2E2F5E228E2E2E2E2E2E2E2E2E2E2E2F5F5F5F5E2E2E2E2F5F5F5F5E2E2E2E2E2E2F5F5F5F5F5F5F5F5F5F5E2E2E2E2E2F5E2F5E2E2E2E2E2E2E2E2E2F5E2E2E2E2E2E2E2E2E2E2
310
E2E2E2E2E2E2E2E2E2E2E2E2E2E2E2E2E2E2E2E2F5F5F5F5F5F5F5F5F5F5F5F5F5F5F5F5F5E2E2E2E2F5E2E2E2E2E2E2E2E2E2F5E2E2F5E2E2E2E2E2E2F5F5F5F5E2E2F5F5F5E2E2F5E2E2E2E2E2E2E2F5F5F5F5E2E2F5F5F5F5E2E2E2E2E2E2E2E2E2E2E228E2E2F5F5EFF5E2E2F5E228E2E2E2E2E2E2E2E2E2E2E2F5F5F5
310
F5E2E2E2E2F5F5F5F5E2E2E2E2E2E2F5F5F5F5F5F5F5F5F5F5E2E2E2E2E2F5E2F5E2E2E2E2E2E2E2E2E2F5E2E2E2E2E2E2E2E2E2E2E2E2E2E2E2E2E2E2E2E2E2E2E2E2E2E2E2E2E2E2F5F5F5F5F5F5F5F5F5F5F5F5F5F5F5F5F5E2E2E2E2F5E2E2E2E2E2E2E2E2E2F5E2E2F5E2E2E2E2E2E2F5F5F5F5E2E2F5F5F5E2E2F5E2
310
E2E2E2E2E2E2F5F5F5F5E2E2F5F5F5F5E2E2E2E2E2E2E2E2E2E2E228E2E2F5F5EFF5E2E2F5E228E2E2E2E2E2E2E2E2E2E2E2F5F5F5F5E2E2E2E2F5F5F5E2E2E2E2E2E2E2F5E2F5F5F5F5F5F5F5F5E2E2E2F5F5F5F5F5F5F5F5F5F5F5F5F5F5F5F5F5F5F5F5F5F5F5F5F5F5F5F5F5F5F5F5F5F5F5F5F5F5F5F5F5F5F5F5F5F5
310
F5F5F5F5F5F5F5F5F5F5F5F5F5F5F5F5F5F5F5F5F5F5F5F5F5F5F5F5F5F5F5F5F5F5F5F5F5E2E2E2F5F5F5F5E2E2F5F5F5E2E2F5E2E2E2E2E2E2E2F5F5F5F5E2E2F5F5F5F5E2E2E2E2E2E2E2E2E2E2E228E2E2F5F5EFF5E2E2F5E228E2E2E2E2E2E2E2E2E2E2E2E2E2E2F5E2E2E2E2F5F5F5E2E2E2E2E2E2E2F5E2F5F5F5F5
310
F5F5F5F5E2E2E2F5E2E2F5F5F5F5F5F5F5F5F5F5F5F5E2E2E2E2E2E2E2E2E2E2E2E2E2E2E2E2E2E2E2E2E2E2E2E2E2E2E2E2E2E2E2E2E2E2E2E2E2F5E2E2E2E2E2F5F5E2E2E2E2F5E2F5F5F5F5F5F5F5F5F5F5F5F5E2E2E2E2E2F5E2E2F5F5F5F5E2E2F5F5F5E2E2F5E2E2E2E2E2E2E2F5F5F5F5E2E2E2E2E2F5E2E2E2E2E2
310
E2E2E2E2E2E228E2E2F5F5EFF5E2E2F5E228E2E2E2E2E2E2E2E2E2E2E2E2E2E2F5E2E2E2E2F5F5F5E2E2E2E2E2E2E2F5E2F5F5F5F5F5F5F5F5E2E2E2F5E2E2E2E2E2E2E2E2E2F5E2E2E2E2E2E2E2E2E2E2E2E2E2E2E2E2E2E2E2E2E2E2E2E2E2E2E2E2E2E2E2E2E2E2E2E2E2E2E2E2E2E2F5E2E2E2E2E2F5E2E2E2E2E2F5E2
310
E2E2E2E2E2F5E2E2E2E2E2E2E2E2E2E2E2F5E2F5F5F5F5E2E2F5F5F5E2E2F5E2E2E2E2E2E2E2F5F5F5F5E2E2E2E2E2F5E2E2E2E2E2E2E2E2E2E2E228E2E2F5F5EFF5E2E2F5E228E2E2E2E2E2E2E2E2E2E2E2E2E2E2F5E2E2E2E2F5F5F5E2E2E2E2E2E2E2F5E2F5F5F5F5F5F5F5F5E2E2F5E2E2E2E2E2E2E2E2E2E2E2F5E2E2
310
E2E2E2E2E2E2E2E2E2E2E2E2E2E2E2E2E2E2E2E2E2E2E2E2E2E2E2E2E2E2E2E2E2E2E2E2E2E2E2F5E2E2E2E2E2F5E2E2E2E2E2E2F5E2E2E2E2E2E2F5E2E2E2E2E2E2E2E2E2E2F5E2F5F5F5F5E2E2F5F5F5E2E2F5E2E2E2E2E2E2E2F5F5F5F5E2E2E2E2E2F5E2E2E2E2E2E2E2E2E2E2E228E2E2F5F5EFF5E2E2F5E228E2E2E2
310
E2E2E2E2E2E2E2E2E2E2E2F5E2E2E2E2F5F5F5E2E2E2E2E2E2E2F5E2F5F5F5F5F5F5F5F5E2E2F5E2E2E2E2E2E2E2E2E2E2E2E2F5E2E2E2E2E2E2E2E2E2E2E2E2E2E2E2E2E2E2E2E2E2E2E2E2E2E2E2E2E2E2E2E2E2E2E2E2E2E2E2E2E2F5E2E2E2E2E2F5E2E2E2E2E2F5E2E2E2E2E2E2F5E2E2E2E2E2E2E2E2E2E2F5E2F5F5
310
F5F5E2E2F5F5F5E2E2F5E2E2E2E2E2E2E2F5F5F5F5E2E2E2E2E2F5E2E2E2E2E2E2E2E2E2E2E228E2E2F5F5EFF5E2E2F5E228E2E2E2E2E2E2E2E2E2E2E2E2E2E2F5E2E2E2E2F5F5F5E2E2E2E2E2E2E2F5E2F5F5F5F5F5F5F5F5E2E2F5E2E2E2E2E2E2E2E2E2E2E2E2F5E2E2E2E2E2E2E2E2E2E2E2E2E2E2E2E2E2E2E2E2E2E2
310
E2E2E2E2E2E2E2E2E2E2E2E2E2E2E2E2E2E2E2F5E2E2E2E2E2F5E2E2E2E2E2E2F5E2E2E2E2E2E2F5E2E2E2E2E2E2E2E2E2F5E2F5F5F5F5E2E2F5F5F5E2E2F5E2E2E2E2E2E2E2F5F5F5F5E2E2E2E2E2F5E2E2E2E2E2E2E2E2E2E2E228E2E2F5F5EFF5E2E2F5E228E2E2E2E2E2E2E2E2E2E2E2E2E2E2F5E2E2E2E2F5F5F5E2E2
310
E2E2E2E2E2F5E2F5F5F5F5F5F5F5F5E2E2F5E2E2E2E2E2E2E2E2E2E2E2E2E2F5E2E2E2E2E2E2E2E2E2E2E2E2E2E2E2E2E2E2E2E2E2E2E2E2E2E2E2E2E2E2E2E2E2E2E2E2E2E2E2E2F5E2E2E2E2E2E2F5E2E2E2E2E2E2F5E2E2E2E2E2F5E2E2E2E2E2E2E2E2E2E2F5F5F5F5F5E2E2F5F5F5E2E2F5E2E2E2E2E2E2E2F5F5F5F5
310
E2E2E2E2E2F5E2E2E2E2E2E2E2E2E2E2E228E2E2F5F5EFF5E2E2F5E228E2E2E2E2E2E2E2E2E2E2E2E2E2E2F5E2E2E2E2F5F5F5E2E2E2E2E2E2E2F5E2F5F5F5F5F5F5F5F5E2F5E2E2E2E2E2E2E2E2E2E2E2E2E2E2E2F5E2E2E2E2E2E2E2E2E2E2E2E2E2E2E2E2E2E2E2E2E2E2E2E2E2E2E2E2E2E2E2E2E2E2E2E2E2E2E2E2F5
310
E2E2E2E2E2F5E2E2E2E2E2E2E2F5E2E2E2E2E2F5E2E2E2E2E2E2E2E2E2E2F5F5F5F5E2E2F5F5F5E2E2F5E2E2E2E2E2E2E2F5F5F5F5E2E2E2E2E2F5E2E2E2E2E2E2E2E2E2E2E228E2E2F5F5EFF5E2E2F5E228E2E2E2E2E2E2E2E2E2E2E2E2E2E2F5E2E2E2E2F5F5F5E2E2E2E2E2E2E2F5E2F5F5F5F5F5F5F5F5E2F5E2E2E2E2
310
E2E2E2E2E2E2E2E2E2E2E2E2F5E2E2E2E2E2E2E2E2E2E2E2E2E2E2E2E2E2E2E2E2E2E2E2E2E2E2E2E2E2E2E2E2E2E2E2E2E2E2E2F5E2E2E2E2E2E2F5E2E2E2E2E2E2F5E2E2E2E2E2F5E2E2E2E2E2E2E2E2E2E2F5F5F5F5E2E2F5E2F5E2E2F5E2E2E2E2E2E2E2F5F5F5F5E2E2E2E2E2F5E2E2E2E2E2E2E2E2E2E2E228E2E2F5
310
F5EFF5E2E2E2E228E2E2E2E2E2E2E2E2E2E2E2E2E2E2F5E2E2E2E2F5F5F5E2E2E2E2E2E2E2F5F5F5F5F5F5F5F5F5F5F5E2E2E2E2E2E2E2E2E2E2E2E2E2E2E2E2E2F5E2E2E2E2E2E2E2E2E2E2E2E2E2E2E2E2E2E2E2E2E2E2E2E2E2E2E2E2E2E2E2E2E2E2E2E2E2E2E2E2F5E2E2E2E2E2F5E2E2E2E2E2E2E2F5E2E2E2E2E2F5
310
E2E2E2E2E2E2E2E2E2F5F5F5F5E2E2F5E2F5E2E2F5F5E2E2E2E2E2E2F5F5F5F5E2E2E2E2E2F5F5E2E2E2E2E2E2E2E2E2E228E2E2F5F5EFF5E2E2E2E228E2E2E2E2E2E2E2E2E2E2E2E2E2E2F5F5F5F5F5F5F5F5E2E2E2E2E2E2E2F5F5F5F5F5F5E2E2E2E2E2E2E2E2E2E2E2E2E2E2E2E2E2E2E2E2E2E2E2F5F5E2E2E2E2E2E2
310
E2E2E2E2E2E2E2E2E2E2E2E2E2E2E2E2E2E2E2E2E2E2E2E2E2E2E2E2E2E2E2E2F5F5E2E2E2E2E2F5F5F5E2E2E2E2E2F5F5E2E2E2F5F5E2E2E2E2E2E2E2E2F5F5F5F5F5F5F5F5F5F5F5F5F5E2E2E2E2E2E2F5F5F5F5F5F5F5F5F5F5F5E2E2E2E2E2E2E2E2E2E228E2E2F5F5EFF5E2E2E2E228E2E2E2E2E2E2E2E2E2E2E2E2E2
310
E2E2E2E2E2E2E2E2E2E2E2E2E2E2E2E2E2E2E2F5E2E2E2E2E2E2E2E2E2E2E2E2E2E2E2E2E2E2E2E2E2E2E2E2F5F5F5F5E2E2E2E2E2E2E2E2E2E2E2E2E2E2E2E2E2E2E2E2E2E2E2E2E2E2E2E2E2E2E2E2E2E2E2E2F5F5F5F5E2E2E2F5F5F5F5E2E2E2E2F5F5F5F5E2F5F5F5F5E2E2E2E2E2E2E2E2E2E2F5E2E2E2E2E2E2E2E2
310
E2E2E2E2E2E2E2E2E2E2E2E2E2E2E2E2E2E2E2E2E2E2E2E2E2E2E2E228E2E2F5F5EFF5E2E2E2E228E2E2E2E2E2E2E2E2E2E2E2E2E2E2E2E2E2E2E2E2E2E2E2E2E2E2E2E2E2E2E2E2E2F5E2E2E2E2E2E2E2E2E2E2E2E2E2E2E2E2E2E2E2E2E2E2E2F5E2E2F5E2E2E2E2E2E2E2E2E2E2E2E2E2E2E2E2E2E2E2E2E2E2E2E2E2E2
310
E2E2E2E2E2E2E2E2E2E2F5E2E2F5E2E2E2F5E2E2F5E2E2E2E2F5E2E2F5E2F5E2E2F5E2E2E2E2E2E2E2E2E2E2F5E2E2E2E2E2E2E2E2E2E2E2E2E2E2E2E2E2E2E2E2E2E2E2E2E2E2E2E2E2E2E2E2E2E2E2E228E2E2F5F5EFF5E2E2E2E228E2E2E2E2E2E2E2E2E2E2E2E2E2E2E2E2E2E2E2E2E2E2E2E2E2E2E2E2E2E2E2E2E2E2
310
F5E2E2E2E2E2E2E2E2E2E2E2E2E2E2E2E2E2E2E2E2E2E2E2F5F5E2E2E2E2E2E2E2E2E2E2E2E2E2E2E2E2E2E2E2E2E2E2E2E2E2E2E2E2E2E2E2E2E2E2E2E2E2E2F5F5E2E2E2E2E2F5F5F5E2E2E2E2E2F5F5E2E2E2F5F5E2E2E2E2E2E2E2E2E2E2F5E2E2E2E2E2E2E2E2E2E2E2E2E2E2E2E2E2E2E2E2E2E2E2E2E2E2E2E2E2E2
310
E2E2E2E2E2E2E228E2E2F5F5EFF5E2E2E2E228E2E2E2E2E2E2E2E2E2E2E2E2E2E2E2E2E2E2E2E2E2E2E2E2E2E2E2E2E2E2E2E2E2E2E2F5E2E2E2E2E2E2E2E2E2E2E2E2E2E2E2E2E2E2E2E2E2E2E2E2E2E2E2E2E2E2E2E2E2E2E2E2E2E2E2E2E2E2E2E2E2E2E2E2E2E2E2E2E2E2E2E2E2E2E2E2E2E2E2E2E2E2E2E2E2E2E2E2
310
E2E2E2E2E2E2E2E2E2E2E2E2E2E2E2E2E2E2E2E2E2E2F5E2E2E2E2E2E2E2E2E2E2E2E2E2E2E2E2E2E2E2E2E2E2E2E2E2E2E2E2E2E2E2E2E2E2E2E2E228E2E2F5F5EFF5E2E2E2E228E2E2E2E2E2E2E2E2E2E2E2E2E2E2E2E2E2E2E2E2E2E2E2E2E2E2E2E2E2E2E2E2E2E2E2E2F5F5F5E2E2E2E2E2E2E2E2E2E2E2E2E2E2E2E2
310
E2E2E2E2E2E2E2E2E2E2E2E2E2E2E2E2E2E2E2E2E2E2E2E2E2E2E2E2E2E2E2E2E2E2E2E2E2E2E2E2E2E2E2E2E2E2E2E2E2E2E2E2E2E2E2E2E2E2E2E2E2E2E2E2E2E2E2E2E2E2E2E2E2F5F5E2E2E2E2E2E2E2E2E2E2E2E2E2E2E2E2E2E2E2E2E2E2E2E2E2E2E2E2E2E2E2E2E2E2E2E2E2E228E2E2F5F5EFF5E2E2E2E228E2E2
310
E2E2E2E2E2E2E2E2E2E2E2E2E2E2E2E2E2E2E2E2E2E2E2E2E2E2E2E2E2E2E2E2E2F5F5F5F5E2E2E2E2E2E2E2E2E2E2E2E2E2E2E2E2E2E2E2E2E2E2E2E2E2E2E2E2E2E2E2E2E2E2E2E2E2E2E2E2E2E2E2E2E2E2E2E2E2E2E2E2E2E2E2E2E2E2E2E2E2E2E2E2E2E2E2E2E2E2E2E2E2E2E2E2E2E2E2E2E2E2E2E2E2E2E2E2F5F5
310
F5F5E2E2E2E2E2E2E2E2E2E2E2E2E2E2E2E2E2E2E2E2E2E2E2E2E2E2E2E2E2E2E2E2E2E2E2E2E228E2E2F5F5EFF5E2E2F5E228E2E2E2E2E2E2E2E2E2E2E2E2E2E2E2E2E2E2E2E2E2E2E2E2E2E2E2E2E2E2E2E2E2E2E2F5F5F5F5E2E2E2E2E2E2E2E2E2E2E2E2E2E2E2E2E2E2E2E2E2E2E2E2E2E2E2E2E2E2E2E2E2E2E2E2E2
310
E2E2E2E2E2E2E2E2E2E2E2E2E2E2E2E2E2E2E2E2E2E2E2E2E2E2E2E2E2E2E2E2E2E2E2E2E2E2E2E2E2E2E2E2E2E2E2E2E2E2E2F5F5F5F5E2E2E2E2E2E2E2E2E2E2E2E2E2E2E2E2E2E2E2E2E2E2E2E2E2E2E2E2E2E2E2E2E2E2E2E2E228E2E2F5F5EFF5E2E2F5E228E2E2E2E2E2E2E2E2E2E2E2E2E2E2E2E2E2E2E2E2E2E2E2
310
E2E2E2E2E2E2E2E2E2E2E2E2F5F5F5F5E2E2E2E2E2E2E2E2E2E2E2E2E2E2E2E2E2E2E2E2E2E2E2E2E2E2E2E2E2E2E2E2E2E2E2E2E2E2E2E2E2E2E2E2E2E2E2E2E2E2E2E2E2E2E2E2E2E2E2E2E2E2E2E2E2E2E2E2E2E2E2E2E2E2E2E2E2E2E2E2E2E2E2E2E2E2E2E2F5F5F5F5E2E2E2E2E2E2E2E2E2E2E2E2E2E2E2E2E2E2E2
310
E2E2E2E2E2E2E2E2E2E2E2E2E2E2E2E2E2E228E2E2F5F5EFF5E2E2F5E228E2E2E2E2E2E2E2E2E2E2E2E2E2E2E2E2E2E2E2E2E2E2E2E2E2E2E2E2E2E2E2E2E2E2E2E2E2E2E2E2E2E2E2E2E2E2E2E2E2E2E2E2E2E2E2E2E2E2E2E2E2E2E2E2E2E2E2E2E2E2E2E2E2E2E2E2E2E2E2E2E2E2E2E2E2E2E2E2E2E2E2E2E2E2E2E2E2
310
E2E2E2E2E2E2E2E2E2E2E2E2E2E2E2E2E2E2E2E2E2E2E2E2E2E2E2E2E2E2E2E2E2E2E2E2E2E2E2E2E2E2E2E2E2E2E2E2E2E2E2E2E2E2E2E2E2E2E2E2E2E2E2E2E2E2E2E2E2E2E228E2E2F5F5EFF5E2E2F5E228E2E2E2E2E2E2E2E2E2E2E2E2E2E2E2E2E2E2E2E2E2E2E2E2E2E2E2E2E2E2E2E2E2E2E2E2E2E2E2E2E2E2E2E2
310
E2E2E2E2E2E2E2E2E2E2E2E2E2E2E2E2E2E2E2E2E2E2E2E2E2E2E2E2E2E2E2E2E2E2E2E2E2E2E2E2E2E2E2E2E2E2E2E2E2E2E2E2E2E2E2E2E2E2E2E2E2E2E2E2E2E2E2E2E2E2E2E2E2E2E2E2E2E2E2E2E2E2E2E2E2E2E2E2E2E2E2E2E2E2E2E2E2E2E2E2E2E2E2E2E2E2E2E2E2E2E2E2E2E2E2E2E2E2E2E2E2E2E2E228E2E2
310
F5F5EFF5E2E2F5E228E2E2E2E2E2E2E2E2E2E2E2E2E2E2E2F5F5F5F5F5F5F5F5F5F5F5F5F5F5F5F5F5F5F5F5F5F5F5F5F5E2E2E2E2E2E2E2E2E2E2E2E2E2E2E2E2E2E2E2E2E2E2E2E2E2E2E2E2E2E2E2E2E2E2E2E2E2E2E2E2E2E2E2E2E2E2E2E2E2E2E2E2E2E2E2E2E2E2E2E2E2E2E2E2E2E2E2E2E2E2E2E2E2E2E2E2E2E2
310
E2E2E2E2E2E2E2E2E2F5F5F5F5F5F5F5F5F5F5F5F5F5E2E2E2E2E2E2E2E2E2E2E2E2E2E2E2E2E2E2E2E2E2E2E2E2E2E2E2E228E2E2F5F5EFF5E2E2F5E228E2E2E2E2E2E2E2E2E2E2E2E2E2E2E2F5F5F5F5F5F5F5F5F5F5F5F5F5F5F5F5F5F5F5F5F5F5F5F5F5E2E2E2E2E2E2E2E2E2E2E2E2E2E2E2E2E2E2E2E2E2E2E2E2E2
310
E2E2E2E2E2E2E2E2E2E2E2E2E2E2E2E2E2E2E2E2E2E2E2E2E2E2E2E2E2E2E2E2E2E2E2E2E2E2E2E2E2E2E2E2E2E2E2E2E2E2E2E2E2E2E2E2E2E2E2E2E2E2F5F5F5F5F5F5F5F5F5F5F5F5F5E2E2E2E2E2E2E2E2E2E2E2E2E2E2E2E2E2E2E2E2E2E2E2E2E2E2E2E228E2E2F5F5EFF5E2E2F5E228E2E2E2E2E2E2E2E2E2E2E2E2
310
E2E2E2E2E2E2E2E2E2E2E2E2E2E2E2E2E2E2E2E2E2E2E2E2E2E2E2E2E2E2E2E2E2E2E2E2E2E2E2E2E2E2E2E2E2E2E2E2E2E2E2E2E2E2E2E2E2E2E2E2E2E2E2E2E2E2E2E2E2E2E2E2E2E2E2E2E2E2E2E2E2E2E2E2E2E2E2E2E2E2E2E2E2E2E2E2E2E2E2E2E2E2E2E2E2E2E2E2E2E2E2E2E2E2E2E2E2E2E2E2E2E2E2E2E2E2E2
310
E2E2E2E2E2E2E2E2E2E2E2E2E2E2E2E2E2E2E2E2E2E2E2E2E2E2E2E2E228E2E2F5F5EFF5E2E2F5E228E2E2E2E2E2E2E2E2E2E2E2E2E2E2E2E2E2E2E2E2E2E2E2E2E2E2E2E2E2E2E2E2E2E2E2E2E2E2E2E2E2E2E2E2E2E2E2E2E2E2E2E2E2E2E2E2E2E2E2E2E2E2E2E2E2E2E2E2E2E2E2E2E2E2E2E2E2E2E2E2E2E2E2E2E2E2
310
E2E2E2E2E2E2E2E2E2E2E2E2E2E2E2E2E2E2E2E2E2E2E2E2E2E2E2E2E2E2E2E2E2E2E2E2E2E2E2E2E2E2E2E2E2E2E2E2E2E2E2E2E2E2E2E2E2E2E2E2E2E2E2E2E2E2E2E2E2E2E2E2E2E2E2E2E2E2E2E2E2E228E2E2F5F5EFF5E2E2F5E228E2E2E2E2E2E2E2E2E2E2E2E2E2E2E2E2E2E2E2E2E2E2E2E2E2E2E2E2E2E2E2E2E2
310
E2E2E2E2E2E2E2E2E2E2E2E2E2E2E2E2E2E2E2E2E2E2E2E2E2E2E2E2E2E2E2E2E2E2E2E2E2E2E2E2E2E2E2E2E2E2E2E2E2E2E2E2E2E2E2E2E2E2E2E2E2E2E2E2E2E2E2E2E2E2E2E2E2E2E2E2E2E2E2E2E2E2E2E2E2E2E2E2E2E2E2E2E2E2E2E2E2E2E2E2E2E2E2E2E2E2E2E2E2E2E2E2E2E2E2E2E2E2E2E2E2E2E2E2E2E2E2
310
E2E2E2E2E2E2E2E228E2E2F5F5EFF5E2E2F5E228E2E2E2E2E2E2E2E2E2E2E2E2E2E2E2E2E2E2E2E2E2E2E2E2E2E2E2E2E2E2E2E2E2E2E2E2E2E2E2E2E2E2E2E2E2E2E2E2E2E2E2E2E2E2E2E2E2E2E2E2E2E2E2E2E2E2E2E2E2E2E2E2E2E2E2E2E2E2E2E2E2E2E2E2E2E2E2E2E2E2E2E2E2E2E2E2E2E2E2E2E2E2E2E2E2E2E2
310
E2E2E2E2E2E2E2E2E2E2E2E2E2E2E2E2E2E2E2E2E2E2E2E2E2E2E2E2E2E2E2E2E2E2E2E2E2E2E2E2E2E2E2E2E2E2E2E2E2E2E2E2E2E2E2E2E2E2E2E2E228E2E2F5F5EFF5E2E2F5E228E2E2E2E2E2E2E2E2E2E2E2E2E2E2E2E2E2E2E2E2E2E2E2E2E2E2E2E2E2E2E2E2E2E2E2E2E2E2E2E2E2E2E2E2E2E2E2E2E2E2E2E2E2E2
310
E2E2E2E2E2E2E2E2E2E2E2E2E2E2E2E2E2E2E2E2E2E2E2E2E2E2E2E2E2E2E2E2E2E2E2E2E2E2E2E2E2E2E2E2E2E2E2E2E2E2E2E2E2E2E2E2E2E2E2E2E2E2E2E2E2E2E2E2E2E2E2E2E2E2E2E2E2E2E2E2E2E2E2E2E2E2E2E2E2E2E2E2E2E2E2E2E2E2E2E2E2E2E2E2E2E2E2E2E2E2E2E2E2E228E2E2F5F5EFF5E2E2F5E228E2
310
E2E2E2E2E2E2E2E2E2E2E2E2E2E2E2E2E2E2E2E2E2E2E2E2E2E2E2E2E2E2E2E2E2E2E2E2E2E2E2E2E2E2E2E2E2E2E2E2E2E2E2E2E2E2E2E2E2E2E2E2E2E2E2E2E2E2E2E2E2E2E2E2E2E2E2E2E2E2E2E2E2E2E2E2E2E2E2E2E2E2E2E2E2E2E2E2E2E2E2E2E2E2E2E2E2E2E2E2E2E2E2E2E2E2E2E2E2E2E2E2E2E2E2E2E2E2E2
310
E2E2E2E2E2E2E2E2E2E2E2E2E2E2E2E2E2E2E2E2E2E2E2E2E2E2E2E2E2E2E2E2E2E2E2E2E2E2E2E228E2E2F5F5EFF5E2E2F5E228E2E2E2E2E2E2E2E2E2E2E2E2E2E2E2E2E2E2E2E2E2E2E2E2E2E2E2E2E2E2E2E2E2E2E2E2E2E2E2E2E2E2E2E2E2E2E2E2E2E2E2E2E2E2E2E2E2E2E2E2E2E2E2E2E2E2E2E2E2E2E2E2E2E2E2
310
E2E2E2E2E2E2E2E2E2E2E2E2E2E2E2E2E2E2E2E2E2E2E2E2E2E2E2E2E2E2E2E2E2E2E2E2E2E2E2E2E2E2E2E2E2E2E2E2E2E2E2E2E2E2E2E2E2E2E2E2E2E2E2E2E2E2E2E2E2E2E2E2E2E2E2E2E2E2E2E2E2E2E2E2E2E2E2E2E2E2E2E2E228E2E2F5F5EFF5E2E2F5E228E2E2E2E2E2E2E2E2E2E2E2E2E2E2E2E2E2E2E2E2E2E2
310
E2E2E2E2E2E2E2E2E2E2E2E2E2E2E2E2E2E2E2E2E2E2E2E2E2E2E2E2E2E2E2E2E2E2E2E2E2E2E2E2E2E2E2E2E2E2E2E2E2E2E2E2E2E2E2E2E2E2E2E2E2E2E2E2E2E2E2E2E2E2E2E2E2E2E2E2E2E2E2E2E2E2E2E2E2E2E2E2E2E2E2E2E2E2E2E2E2E2E2E2E2E2E2E2E2E2E2E2E2E2E2E2E2E2E2E2E2E2E2E2E2E2E2E2E2E2E2
310
E2E2E2E2E2E2E2E2E2E2E2E2E2E2E2E2E2E2E228E2E2F5F5EFF5E2E2F5E228E2E2E2E2E2E2E2E2E2E2E2E2E2E2E2E2E2E2E2E2E2E2E2E2E2E2E2E2E2E2E2E2E2E2E2E2E2E2E2E2E2E2E2E2E2E2E2E2E2E2E2E2E2E2E2E2E2E2E2E2E2E2E2E2E2E2E2E2E2E2E2E2E2E2E2E2E2E2E2E2E2E2E2E2E2E2E2E2E2E2E2E2E2E2E2E2
310
E2E2E2E2E2E2E2E2E2E2E2E2E2E2E2E2E2E2E2E2E2E2E2E2E2E2E2E2E2E2E2E2E2E2E2E2E2E2E2E2E2E2E2E2E2E2E2E2E2E2E2E2E2E2E2E2E2E2E2E2E2E2E2E2E2E2E2E2E2E2E2E228E2E2F5F5EFF5E2E2E2E228E2E2E2E2E2E2E2E2E2E2E2E2E2E2E2E2E2E2E2E2E2E2E2E2E2E2E2E2E2E2E2E2E2E2E2E2E2E2E2E2E2E2E2
310
E2E2E2E2E2E2E2E2E2E2E2E2E2E2E2E2E2E2E2E2E2E2E2E2E2E2E2E2E2E2E2E2E2E2E2E2E2E2E2E2E2E2E2E2E2E2E2E2E2E2E2E2E2E2E2E2E2E2E2E2E2E2E2E2E2E2E2E2E2E2E2E2E2E2E2E2E2E2E2E2E2E2E2E2E2E2E2E2E2E2E2E2E2E2E2E2E2E2E2E2E2E2E2E2E2E2E2E2E2E2E2E2E2E2E2E2E2E2E2E2E2E2E2E2E228E2
310
E2F5F5EFF5E2E2E2E228E2E2E2E2E2E2E2E2E2E2E2E2E2E2E2E2E2E2E2E2E2E2E2E2E2E2E2E2E2E2E2E2E2E2E2E2E2E2E2E2E2E2E2E2E2E2E2E2E2E2E2E2E2E2E2E2E2E2E2E2E2E2E2E2E2E2E2E2E2E2E2E2E2E2E2E2E2E2E2E2E2E2E2E2E2E2E2E2E2E2E2E2E2E2E2E2E2E2E2E2E2E2E2E2E2E2E2E2E2E2E2E2E2E2E2E2E2
310
E2E2E2E2E2E2E2E2E2E2E2E2E2E2E2E2E2E2E2E2E2E2E2E2E2E2E2E2E2E2E2E2E2E2E2E2E2E2E2E2E2E2E2E2E2E2E2E2E2E2E228E2E2F5F5EFF5E2E2E2E228E2E2E2E2E2E2F5F5F5F5F5F5F5F5F5F5F5F5F5F5F5F5F5F5F5F5F5F5F5F5F5F5F5F5F5F5F5F5F5F5F5F5F5F5F5F5F5F5F5F5F5F5F5F5F5F5F5F5F5F5F5F5F5F5
310
F5F5F5F5F5F5F5F5F5F5F5F5F5F5F5F5F5E2E2E2E2E2E2E2E2E2E2E2E2E2E2E2E2E2E2E2E2E2E2E2E2E2E2E2E2E2E2E2E2E2E2E2E2E2E2E2E2E2E2E2E2E2E2E2E2E2E2E2E2E2E2E2E2E2E2E2E2E2E2E2E2E2E2E2E2E2E2E2E2E2E2E2E2E2E2E2E2E2E2E2E2E2E2E228E2E2F5F5EFF5E2E2E2E228E2E2E2E2E2E2F5F5F5F5F5
310
F5F5F5F5F5F5F5F5F5F5F5F5F5F5F5F5F5F5F5F5F5F5F5F5F5F5F5F5F5F5F5F5F5F5F5F5F5F5F5F5F5F5F5F5F5F5F5F5F5F5F5F5F5F5F5F5F5F5F5F5F5F5F5F5F5F5F5F5F5F5E2E2E2E2E2E2E2E2E2E2E2E2E2E2E2E2E2E2E2E2E2E2E2E2E2E2E2E2E2E2E2E2E2E2E2E2E2E2E2E2E2E2E2E2E2E2E2E2E2E2E2E2E2E2E2E2E2
310
E2E2E2E2E2E2E2E2E2E2E2E2E2E2E2E2E2E2E2E2E2E2E2E2E2E2E2E2E2E228E2E2F5F5EFF5E2E2E2E228E2E2E2E2E2E2F5F5F5F5F5F5F5F5F5F5F5F5F5F5F5F5F5F5F5F5F5F5F5F5F5F5F5F5F5F5F5F5F5F5F5F5F5F5F5F5F5F5F5F5F5F5F5F5F5F5F5F5F5F5F5F5F5F5F5F5F5F5F5F5F5F5F5F5F5F5F5F5F5F5F5E2E2E2E2
310
E2E2E2E2E2E2E2E2E2E2E2E2E2E2E2E2E2E2E2E2E2E2E2E2E2E2E2E2E2E2E2E2E2E2E2E2E2E2E2E2E2E2E2E2E2E2E2E2E2E2E2E2E2E2E2E2E2E2E2E2E2E2E2E2E2E2E2E2E2E2E2E2E2E2E2E2E2E2E2E2E2E2E228E2E2F5F5EFF5E2E2E2E228E2E2E2E2E2E2E2E2E2E2E2E2E2E2E2E2E2E2E2E2E2E2E2E2E2E2E2E2E2E2E2E2
310
E2E2E2E2E2E2E2E2E2E2E2E2E2E2E2E2E2E2E2E2E2E2E2E2E2E2E2E2E2E2E2E2E2E2E2E2E2E2E2E2E2E2E2E2E2E2E2E2E2E2E2E2E2E2E2E2E2E2E2E2E2E2E2E2E2E2E2E2E2E2E2E2E2E2E2E2E2E2E2E2E2E2E2E2E2E2E2E2E2E2E2E2E2E2E2E2E2E2E2E2E2E2E2E2E2E2E2E2E2E2E2E2E2E2E2E2E2E2E2E2E2E2E2E2E2E2E2
310
E2E2E2E2E2E2E2E2E228E2E2F5F5EFF5E2E2E2E228E2E2E2E2E2E2E2E2E2E2E2E2E2E2E2E2E2E2E2E2E2E2E2E2E2E2E2E2E2E2E2E2E2E2E2E2E2E2E2E2E2E2E2E2E2E2E2E2E2E2E2E2E2E2E2E2E2E2E2E2E2E2E2E2E2E2E2E2E2E2E2E2E2E2E2E2E2E2E2E2E2E2E2E2E2E2E2E2E2E2E2E2E2E2E2E2E2E2E2E2E2E2E2E2E2E2
310
E2E2E2E2E2E2E2E2E2E2E2E2E2E2E2E2E2E2E2E2E2E2E2E2E2E2E2E2E2E2E2E2E2E2E2E2E2E2E2E2E2E2E2E2E2E2E2E2E2E2E2E2E2E2E2E2E2E2E2E2E2E228E2E2F5F5EFF5E2E2E2E228E2E2E2E2E2E2E2E2E2E2E2E2E2E2E2E2E2E2E2E2E2E2E2E2E2E2E2E2E2E2E2E2E2E2E2E2E2E2E2E2E2E2E2E2E2E2E2E2E2E2E2E2E2
310
E2E2E2E2E2E2E2E2E2E2E2E2E2E2E2E2E2E2E2E2E2E2E2E2E2E2E2E2E2E2E2E2E2E2E2E2E2E2E2E2E2E2E2E2E2E2E2E2E2E2E2E2E2E2E2E2E2E2E2E2E2E2E2E2E2E2E2E2E2E2E2E2E2E2E2E2E2E2E2E2E2E2E2E2E2E2E2E2E2E2E2E2E2E2E2E2E2E2E2E2E2E2E2E2E2E2E2E2E2E2E2E2E2E2E228E2E2F5F5EFF5E2E2E2E228
310
E2E2E2E2E2E2E2E2E2E2E2E2E2E2E2E2E2E2E2E2E2E2E2E2E2E2E2E2E2E2E2E2E2E2E2E2E2E2E2E2E2E2E2E2E2E2E2E2E2E2E2E2E2E2E2E2E2E2E2E2E2E2E2E2E2E2E2E2E2E2E2E2E2E2E2E2E2E2E2E2E2E2E2E2E2E2E2E2E2E2E2E2E2E2E2E2E2E2E2E2E2E2E2E2E2E2E2E2E2E2E2E2E2E2E2E2E2E2E2E2E2E2E2E2E2E2E2
310
E2E2E2E2E2E2E2E2E2E2E2E2E2E2E2E2E2E2E2E2E2E2E2E2E2E2E2E2E2E2E2E2E2E2E2E2E2E2E2E2E228E2E2F5F5EFF5E2E2F5E228E2E2E2E2E2E2E2E2E2E2E2E2E2E2E2E2E2E2E2E2E2E2E2E2E2E2E2E2E2E2E2E2E2E2E2E2E2E2E2E2E2E2E2E2E2E2E2E2E2E2E2E2E2E2E2E2E2E2E2E2E2E2E2E2E2E2E2E2E2E2E2E2E2E2
310
E2E2E2E2E2E2E2E2E2E2E2E2E2E2E2E2E2E2E2E2E2E2E2E2E2E2E2E2E2E2E2E2E2E2E2E2E2E2E2E2E2E2E2E2E2E2E2E2E2E2E2E2E2E2E2E2E2E2E2E2E2E2E2E2E2E2E2E2E2E2E2E2E2E2E2E2E2E2E2E2E2E2E2E2E2E2E2E2E2E2E2E2E2E228E2E2F5F5EFF5E2E2F5E228E2E2E2E2E2E2E2E2E2E2E2E2E2E2E2E2E2E2E2E2E2
310
E2E2E2E2E2E2E2E2E2E2E2E2E2E2E2E2E2E2E2E2E2E2E2E2E2E2E2E2E2E2E2E2E2E2E2E2E2E2E2E2E2E2E2E2E2E2E2E2E2E2E2E2E2E2E2E2E2E2E2E2E2E2E2E2E2E2E2E2E2E2E2E2E2E2E2E2E2E2E2E2E2E2E2E2E2E2E2E2E2E2E2E2E2E2E2E2E2E2E2E2E2E2E2E2E2E2E2E2E2E2E2E2E2E2E2E2E2E2E2E2E2E2E2E2E2E2E2
310
E2E2E2E2E2E2E2E2E2E2E2E2E2E2E2E2E2E2E2E228E2E2F5F5EFF5E2E2F5E228E2E2E2E2E2E2E2E2E2E2E2E2E2E2E2E2E2E2E2E2E2E2E2E2E2E2E2E2E2E2E2E2E2E2E2E2E2E2E2E2E2E2E2E2E2E2E2E2E2E2E2E2E2E2E2E2E2E2E2E2E2E2E2E2E2E2E2E2E2E2E2E2E2E2E2E2E2E2E2E2E2E2E2E2E2E2E2E2E2E2E2E2E2E2E2
310
E2E2E2E2E2E2E2E2E2E2E2E2E2E2E2E2E2E2E2E2E2E2E2E2E2E2E2E2E2E2E2E2E2E2E2E2E2E2E2E2E2E2E2E2E2E2E2E2E2E2E2E2E2E2E2E2E2E2E2E2E2E2E2E2E2E2E2E2E2E2E2E2E228E2E2F5F5EFF5E2E2F5E228E2E2E2E2E2E2E2E2E2E2E2E2E2E2E2E2E2E2E2E2E2E2E2E2E2E2E2E2E2E2E2E2E2E2E2E2E2E2E2E2E2E2
310
E2E2E2E2E2E2E2E2E2E2E2E2E2E2E2E2E2E2E2E2E2E2E2E2E2E2E2E2E2E2E2E2E2E2E2E2E2E2E2E2E2E2E2E2E2E2E2E2E2E2E2E2E2E2E2E2E2E2E2E2E2E2E2E2E2E2E2E2E2E2E2E2E2E2E2E2E2E2E2E2E2E2E2E2E2E2E2E2E2E2E2E2E2E2E2E2E2E2E2E2E2E2E2E2E2E2E2E2E2E2E2E2E2E2E2E2E2E2E2E2E2E2E2E2E2E228
310
E2E2F5F5EFF5E2E2F5E228E2E2E2E2E2E2E2E2E2E2E2E2E2E2E2E2E2E2E2E2E2E2E2E2E2E2E2E2E2E2E2E2E2E2E2E2E2E2E2E2E2E2E2E2E2E2E2E2E2E2E2E2E2E2E2E2E2E2E2E2E2E2E2E2E2E2E2E2E2E2E2E2E2E2E2E2E2E2E2E2E2E2E2E2E2E2E2E2E2E2E2E2E2E2E2E2E2E2E2E2E2E2E2E2E2E2E2E2E2E2E2E2E2E2E2E2
310
E2E2E2E2E2E2E2E2E2E2E2E2E2E2E2E2E2E2E2E2E2E2E2E2E2E2E2E2E2E2E2E2E2E2E2E2E2E2E2E2E2E2E2E2E2E2E2E2E2E2E2E228E2E2F5F5EFF5E2E2F5E228E2E2E2E2E2E2E2E2E2E2E2E2E2E2E2E2E2E2E2E2E2E2E2E2E2E2E2E2E2E2E2E2E2E2E2E2E2E2E2E2E2E2E2E2E2E2E2E2E2E2E2E2E2E2E2E2E2E2E2E2E2E2E2
310
E2E2E2E2E2E2E2E2E2E2E2E2E2E2E2E2E2E2E2E2E2E2E2E2E2E2E2E2E2E2E2E2E2E2E2E2E2E2E2E2E2E2E2E2E2E2E2E2E2E2E2E2E2E2E2E2E2E2E2E2E2E2E2E2E2E2E2E2E2E2E2E2E2E2E2E2E2E2E2E2E2E2E2E2E2E2E2E2E2E2E2E2E2E2E2E2E2E2E2E2E2E2E2E2E228E2E2F5F5EFF5E2E2F5E22828282828282828282828
310
28282828282828282828282828282828282828282828282828282828282828282828282828282828282828282828282828282828282828282828282828282828282828282828282828282828282828282828282828282828282828282828282828282828282828282828282828282828282828282828282828282828282828
310
2828282828282828282828282828282828282828282828282828282828282828E2E2F5F5EFF5E2E2F5F5F5F5F5F5F5F5E2E2E2E2E2E2E2E2E2F5F5F5F5F5F5F5F5F5F5F5F5F5F5F5F5E2E2E2E2E2E2E2E2E2F5F5F5F5F5F5F5F5F5F5F5F5F5F5F5E2E2E2E2E2E2E2E2E2F5F5F5F5F5F5F5F5F5F5F5F5F5F5F5F5E2E2E2E2E2
310
E2E2E2F5F5F5F5F5F5F5F5F5F5F5F5F5F5F5F5E2E2E2E2E2E2E2E2E2F5F5F5F5F5F5F5F5F5F5F5F5F5F5F5E2E2E2E2E2E2E2E2E2F5F5F5F5F5F5F5F5F5F5F5F5F5F5F5F5E2E2E2E2E2E2E2E2E2F5F5F5F5F5F5F5F5E2E2F5F5EFF5E2E2E2E2E2E2E2E2E2E2E2E2E2E2E2E2E2E2E2E2E2E2E2E2E2E2E2E2E2E2E2E2E2E2E2E2
310
E2E2E2E2E2E2E2E2E2E2E2E2E2E2E2E2E2E2E2E2E2E2E2E2E2E2E2E2E2E2E2E2E2E2E2E2E2E2E2E2E2E2E2E2E2E2E2E2E2E2E2E2E2E2E2E2E2E2E2E2E2E2E2E2E2E2E2E2E2E2E2E2E2E2E2E2E2E2E2E2E2E2E2E2E2E2E2E2E2E2E2E2E2E2E2E2E2E2E2E2E2E2E2E2E2E2E2E2E2E2E2E2E2E2E2E2E2E2E2E2E2E2E2E2E2E2E2
310
E2E2E2E2E2E2E2E2E2E2E2E2E2F5F5EFF5E2E2E2E2E2E2E2E2E2E2E2E2E2E2E2E2E2E2E2E2E2E2E2E2E2E2E2E2E2E2E2E2E2E2E2E2E2E2E2E2E2E2E2E2E2E2E2E2E2E2E2E2E2E2E2E2E2E2E2E2E2E2E2E2E2E2E2E2E2E2E2E2E2E2E2E2E2E2E2E2E2E2E2E2E2E2E2E2E2E2E2E2E2E2E2E2E2E2E2E2E2E2E2E2E2E2E2E2E2E2
310
E2E2E2E2E2E2E2E2E2E2E2E2E2E2E2E2E2E2E2E2E2E2E2E2E2E2E2E2E2E2E2E2E2E2E2E2E2E2E2E2E2E2E2E2E2E2E2E2E2E2E2E2E2E2E2E2E2E2E2E2E2E2E2E2E2E2F5F5EFF5E2E2E2E2E2E2E2E2E2E2E2E2E2E2E2E2E2E2E2E2E2E2E2E2E2E2E2E2E2E2E2E2E2E2E2E2E2E2E2E2E2E2E2E2E2E2E2E2E2E2E2E2E2E2E2E2E2
310
E2E2E2E2E2E2E2E2E2E2E2E2E2E2E2E2E2E2E2E2E2E2E2E2E2E2E2E2E2E2E2E2E2E2E2E2E2E2E2E2E2E2E2E2E2E2E2E2E2E2E2E2E2E2E2E2E2E2E2E2E2E2E2E2E2E2E2E2E2E2E2E2E2E2E2E2E2E2E2E2E2E2E2E2E2E2E2E2E2E2E2E2E2E2E2E2E2E2E2E2E2E2E2E2E2E2E2E2E2E2E2E2E2E2E2E2E2E2E2F5EFEFF5F5F5F5F5
310
F5F5F5F5F5F5F5F5F5F5F5F5F5F5F5F5F5F5F5F5F5F5F5F5F5F5F5F5F5F5F5F5F5F5F5F5F5F5F5F5F5F5F5F5F5F5F5F5F5F5F5F5F5F5F5F5F5F5F5F5F5F5F5F5F5F5F5F5F5F5F5F5F5F5F5F5F5F5F5F5F5F5F5F5F5F5F5F5F5F5F5F5F5F5F5F5F5F5F5F5F5F5F5F5F5F5F5F5F5F5F5F5F5F5F5F5F5F5F5F5F5F5F5F5F5F5F5
310
F5F5F5F5F5F5F5F5F5F5F5F5F5F5F5F5F5F5F5F5F5F5F5F5F5F5F5F5F5F5F5F5F5F5F5F5F5F5F5F5F5F5F5F5F5F5EFEF
  0
XRECORD
  5
38E7
102
{ACAD_REACTORS
330
28EA
102
}
330
28EA
100
AcDbXrecord
280
     1
102
MATERIAL
148
0.0
149
0.0
149
0.0
 93
        0
 94
      127
282
     0
 72
     0
 77
     0
171
     0
175
     0
179
     0
273
     0
  0
XRECORD
  5
28EC
102
{ACAD_REACTORS
330
28EA
102
}
330
28EA
100
AcDbXrecord
280
     1
270
     1
271
     1
  0
XRECORD
  5
28EB
102
{ACAD_REACTORS
330
28EA
102
}
330
28EA
100
AcDbXrecord
280
     1
270
     1
271
     1
  0
XRECORD
  5
28EF
102
{ACAD_REACTORS
330
28EA
102
}
330
28EA
100
AcDbXrecord
280
     1
270
     1
271
     1
  0
XRECORD
  5
28EE
102
{ACAD_REACTORS
330
28EA
102
}
330
28EA
100
AcDbXrecord
280
     1
270
     1
271
     1
  0
XRECORD
  5
28F0
102
{ACAD_REACTORS
330
28EA
102
}
330
28EA
100
AcDbXrecord
280
     1
270
     1
271
     1
  0
XRECORD
  5
28ED
102
{ACAD_REACTORS
330
28EA
102
}
330
28EA
100
AcDbXrecord
280
     1
270
     1
271
     1
  0
XRECORD
  5
38E6
102
{ACAD_REACTORS
330
28E2
102
}
330
28E2
100
AcDbXrecord
280
     1
102
MATERIAL
148
0.0
149
0.0
149
0.0
 93
        0
 94
      127
282
     0
 72
     0
 77
     0
171
     0
175
     0
179
     0
273
     0
  0
XRECORD
  5
28E4
102
{ACAD_REACTORS
330
28E2
102
}
330
28E2
100
AcDbXrecord
280
     1
270
     1
271
     1
  0
XRECORD
  5
28E3
102
{ACAD_REACTORS
330
28E2
102
}
330
28E2
100
AcDbXrecord
280
     1
270
     1
271
     1
  0
XRECORD
  5
28E7
102
{ACAD_REACTORS
330
28E2
102
}
330
28E2
100
AcDbXrecord
280
     1
270
     1
271
     1
  0
XRECORD
  5
28E6
102
{ACAD_REACTORS
330
28E2
102
}
330
28E2
100
AcDbXrecord
280
     1
270
     1
271
     1
  0
XRECORD
  5
28E8
102
{ACAD_REACTORS
330
28E2
102
}
330
28E2
100
AcDbXrecord
280
     1
270
     1
271
     1
  0
XRECORD
  5
28E5
102
{ACAD_REACTORS
330
28E2
102
}
330
28E2
100
AcDbXrecord
280
     1
270
     1
271
     1
  0
XRECORD
  5
38E8
102
{ACAD_REACTORS
330
28F2
102
}
330
28F2
100
AcDbXrecord
280
     1
102
MATERIAL
148
0.0
149
0.0
149
0.0
 93
        0
 94
      127
282
     0
 72
     0
 77
     0
171
     0
175
     0
179
     0
273
     0
  0
XRECORD
  5
28F4
102
{ACAD_REACTORS
330
28F2
102
}
330
28F2
100
AcDbXrecord
280
     1
270
     1
271
     1
  0
XRECORD
  5
28F3
102
{ACAD_REACTORS
330
28F2
102
}
330
28F2
100
AcDbXrecord
280
     1
270
     1
271
     1
  0
XRECORD
  5
28F7
102
{ACAD_REACTORS
330
28F2
102
}
330
28F2
100
AcDbXrecord
280
     1
270
     1
271
     1
  0
XRECORD
  5
28F6
102
{ACAD_REACTORS
330
28F2
102
}
330
28F2
100
AcDbXrecord
280
     1
270
     1
271
     1
  0
XRECORD
  5
28F8
102
{ACAD_REACTORS
330
28F2
102
}
330
28F2
100
AcDbXrecord
280
     1
270
     1
271
     1
  0
XRECORD
  5
28F5
102
{ACAD_REACTORS
330
28F2
102
}
330
28F2
100
AcDbXrecord
280
     1
270
     1
271
     1
  0
ACAD_PROXY_OBJECT
  5
38C8
102
{ACAD_REACTORS
330
295F
102
}
330
295F
100
AcDbProxyObject
 90
      499
 91
      512
 95
  4980761
 70
     0
 93
     5232
310
40D054060020000020000003200101A412A5058000000C10000000000000006101010000000000003E0FC000000000000F83F0000000000003E0FC000000000000F83F02B5E8DC0F42B1CFC0AD7A3703D0AC73F419019018000000C1003FBFFFFFE02B5E8DC0F42A9CFD029018000000C1003FBFFFFFE02B5E8DC0F42A9CFD
310
049018000000C1003FBFFFFFE02B5E8DC0F42A9CFD089018000000C1003FBFFFFFE02B5E8DC0F42A9CFD109018000000C1003FBFFFFFE02B5E8DC0F42A9CFD209018000000C1003FBFFFFFE02B5E8DC0F42A9CFD01405075F5449544C450041501A8000000C800406904A94160000003040000000000000012404040000000
310
00000F83F0000000000003E0FC000000000000F83F0000000000003E0FC0AD7A3703D0AC73F02B5E8DC0F42B1CFD0640640600000030400FEFFFFFF80AD7A3703D0AA73F40A40600000030400FEFFFFFF80AD7A3703D0AA73F41240600000030400FEFFFFFF80AD7A3703D0AA73F42240600000030400FEFFFFFF80AD7A370
310
3D0AA73F44240600000030400FEFFFFFF80AD7A3703D0AA73F48240600000030400FEFFFFFF80AD7A3703D0AA73F409014217D2115051115480105406A0000003200101A412A5028000000C10000000000000004901010000000000003E0FC000000000000F83F0000000000003E0FC000000000000F83F02B5E8DC0F42B1C
310
FC0AD7A3703D0AC73F419019018000000C1003FBFFFFFE02B5E8DC0F42A9CFD029018000000C1003FBFFFFFE02B5E8DC0F42A9CFD049018000000C1003FBFFFFFE02B5E8DC0F42A9CFD089018000000C1003FBFFFFFE02B5E8DC0F42A9CFD109018000000C1003FBFFFFFE02B5E8DC0F42A9CFD209018000000C1003FBFFFF
310
FE02B5E8DC0F42A9CFD03409065F444154410000
340
10
340
0
340
0
340
0
340
0
340
0
340
0
340
10
340
0
340
0
340
0
340
0
340
0
340
0
340
10
340
0
340
0
340
0
340
0
340
0
340
0
 94
        0
1001
ACAD
1000
AcRTDxfName
1000
CELLSTYLEMAP
  0
XRECORD
  5
38E5
102
{ACAD_REACTORS
330
295F
102
}
330
295F
100
AcDbXrecord
280
     1
102
ACAD_ROUNDTRIP_PRE2007_TABLESTYLE
 90
        4
 91
        0
  1

 92
        4
 93
        0
  2

 94
        4
 95
        0
  3

  0
ENDSEC
  0
EOF
