  0
SECTION
  2
HEADER
  9
$ACADVER
  1
AC1015
  9
$ACADMAINTVER
 70
    20
  9
$DWGCODEPAGE
  3
ANSI_932
  9
$INSBASE
 10
0.0
 20
0.0
 30
0.0
  9
$EXTMIN
 10
3915.491690226742
 20
-744.1379011065764
 30
-0.0015258207003583
  9
$EXTMAX
 10
4559.982796393621
 20
691.5533819490215
 30
0.0000000349246037
  9
$LIMMIN
 10
0.0
 20
0.0
  9
$LIMMAX
 10
420.0
 20
297.0
  9
$ORTHOMODE
 70
     0
  9
$REGENMODE
 70
     1
  9
$FILLMODE
 70
     1
  9
$QTEXTMODE
 70
     0
  9
$MIRRTEXT
 70
     1
  9
$LTSCALE
 40
1.0
  9
$ATTMODE
 70
     1
  9
$TEXTSIZE
 40
62.5215949741746
  9
$TRACEWID
 40
1.0
  9
$TEXTSTYLE
  7
STANDARD
  9
$CLAYER
  8
SIZE
  9
$CELTYPE
  6
BYLAYER
  9
$CECOLOR
 62
   256
  9
$CELTSCALE
 40
1.0
  9
$DISPSILH
 70
     0
  9
$DIMSCALE
 40
10.0
  9
$DIMASZ
 40
2.0
  9
$DIMEXO
 40
1.0
  9
$DIMDLI
 40
3.75
  9
$DIMRND
 40
0.5
  9
$DIMDLE
 40
0.0
  9
$DIMEXE
 40
1.0
  9
$DIMTP
 40
0.0
  9
$DIMTM
 40
0.0
  9
$DIMTXT
 40
2.0
  9
$DIMCEN
 40
2.5
  9
$DIMTSZ
 40
0.0
  9
$DIMTOL
 70
     0
  9
$DIMLIM
 70
     0
  9
$DIMTIH
 70
     0
  9
$DIMTOH
 70
     0
  9
$DIMSE1
 70
     0
  9
$DIMSE2
 70
     0
  9
$DIMTAD
 70
     1
  9
$DIMZIN
 70
     8
  9
$DIMBLK
  1

  9
$DIMASO
 70
     1
  9
$DIMSHO
 70
     1
  9
$DIMPOST
  1

  9
$DIMAPOST
  1

  9
$DIMALT
 70
     0
  9
$DIMALTD
 70
     4
  9
$DIMALTF
 40
0.0394
  9
$DIMLFAC
 40
1.0
  9
$DIMTOFL
 70
     1
  9
$DIMTVP
 40
0.0
  9
$DIMTIX
 70
     0
  9
$DIMSOXD
 70
     0
  9
$DIMSAH
 70
     1
  9
$DIMBLK1
  1
OPEN30
  9
$DIMBLK2
  1
OPEN30
  9
$DIMSTYLE
  2
STANDARD
  9
$DIMCLRD
 70
     0
  9
$DIMCLRE
 70
     0
  9
$DIMCLRT
 70
     0
  9
$DIMTFAC
 40
1.0
  9
$DIMGAP
 40
1.0
  9
$DIMJUST
 70
     0
  9
$DIMSD1
 70
     0
  9
$DIMSD2
 70
     0
  9
$DIMTOLJ
 70
     1
  9
$DIMTZIN
 70
     8
  9
$DIMALTZ
 70
     0
  9
$DIMALTTZ
 70
     0
  9
$DIMUPT
 70
     0
  9
$DIMDEC
 70
     1
  9
$DIMTDEC
 70
     1
  9
$DIMALTU
 70
     8
  9
$DIMALTTD
 70
     4
  9
$DIMTXSTY
  7
STANDARD
  9
$DIMAUNIT
 70
     0
  9
$DIMADEC
 70
     0
  9
$DIMALTRND
 40
0.0
  9
$DIMAZIN
 70
     0
  9
$DIMDSEP
 70
    46
  9
$DIMATFIT
 70
     3
  9
$DIMFRAC
 70
     0
  9
$DIMLDRBLK
  1
OPEN30
  9
$DIMLUNIT
 70
     2
  9
$DIMLWD
 70
    -2
  9
$DIMLWE
 70
    -2
  9
$DIMTMOVE
 70
     0
  9
$LUNITS
 70
     2
  9
$LUPREC
 70
     2
  9
$SKETCHINC
 40
1.0
  9
$FILLETRAD
 40
10.0
  9
$AUNITS
 70
     0
  9
$AUPREC
 70
     0
  9
$MENU
  1
.
  9
$ELEVATION
 40
0.0
  9
$PELEVATION
 40
0.0
  9
$THICKNESS
 40
0.0
  9
$LIMCHECK
 70
     0
  9
$CHAMFERA
 40
10.0
  9
$CHAMFERB
 40
10.0
  9
$CHAMFERC
 40
20.0
  9
$CHAMFERD
 40
0.0
  9
$SKPOLY
 70
     0
  9
$TDCREATE
 40
2451324.468257373
  9
$TDUCREATE
 40
2451324.093257373
  9
$TDUPDATE
 40
2455894.691360012
  9
$TDUUPDATE
 40
2455894.316360012
  9
$TDINDWG
 40
2.0132422917
  9
$TDUSRTIMER
 40
2.0132415625
  9
$USRTIMER
 70
     1
  9
$ANGBASE
 50
0.0
  9
$ANGDIR
 70
     0
  9
$PDMODE
 70
     0
  9
$PDSIZE
 40
0.0
  9
$PLINEWID
 40
0.0
  9
$SPLFRAME
 70
     0
  9
$SPLINETYPE
 70
     6
  9
$SPLINESEGS
 70
     8
  9
$HANDSEED
  5
268C
  9
$SURFTAB1
 70
     6
  9
$SURFTAB2
 70
     6
  9
$SURFTYPE
 70
     6
  9
$SURFU
 70
     6
  9
$SURFV
 70
     6
  9
$UCSBASE
  2

  9
$UCSNAME
  2

  9
$UCSORG
 10
0.0
 20
0.0
 30
0.0
  9
$UCSXDIR
 10
1.0
 20
0.0
 30
0.0
  9
$UCSYDIR
 10
0.0
 20
1.0
 30
0.0
  9
$UCSORTHOREF
  2

  9
$UCSORTHOVIEW
 70
     0
  9
$UCSORGTOP
 10
0.0
 20
0.0
 30
0.0
  9
$UCSORGBOTTOM
 10
0.0
 20
0.0
 30
0.0
  9
$UCSORGLEFT
 10
0.0
 20
0.0
 30
0.0
  9
$UCSORGRIGHT
 10
0.0
 20
0.0
 30
0.0
  9
$UCSORGFRONT
 10
0.0
 20
0.0
 30
0.0
  9
$UCSORGBACK
 10
0.0
 20
0.0
 30
0.0
  9
$PUCSBASE
  2

  9
$PUCSNAME
  2

  9
$PUCSORG
 10
0.0
 20
0.0
 30
0.0
  9
$PUCSXDIR
 10
1.0
 20
0.0
 30
0.0
  9
$PUCSYDIR
 10
0.0
 20
1.0
 30
0.0
  9
$PUCSORTHOREF
  2

  9
$PUCSORTHOVIEW
 70
     0
  9
$PUCSORGTOP
 10
0.0
 20
0.0
 30
0.0
  9
$PUCSORGBOTTOM
 10
0.0
 20
0.0
 30
0.0
  9
$PUCSORGLEFT
 10
0.0
 20
0.0
 30
0.0
  9
$PUCSORGRIGHT
 10
0.0
 20
0.0
 30
0.0
  9
$PUCSORGFRONT
 10
0.0
 20
0.0
 30
0.0
  9
$PUCSORGBACK
 10
0.0
 20
0.0
 30
0.0
  9
$USERI1
 70
     0
  9
$USERI2
 70
     0
  9
$USERI3
 70
     0
  9
$USERI4
 70
     0
  9
$USERI5
 70
     0
  9
$USERR1
 40
0.0
  9
$USERR2
 40
0.0
  9
$USERR3
 40
0.0
  9
$USERR4
 40
0.0
  9
$USERR5
 40
0.0
  9
$WORLDVIEW
 70
     1
  9
$SHADEDGE
 70
     3
  9
$SHADEDIF
 70
    70
  9
$TILEMODE
 70
     1
  9
$MAXACTVP
 70
    48
  9
$PINSBASE
 10
0.0
 20
0.0
 30
0.0
  9
$PLIMCHECK
 70
     0
  9
$PEXTMIN
 10
-1439.804583653114
 20
-1400.237631316938
 30
0.0
  9
$PEXTMAX
 10
2872.968780515991
 20
1675.790811506817
 30
0.0
  9
$PLIMMIN
 10
0.0
 20
0.0
  9
$PLIMMAX
 10
12.0
 20
9.0
  9
$UNITMODE
 70
     0
  9
$VISRETAIN
 70
     1
  9
$PLINEGEN
 70
     0
  9
$PSLTSCALE
 70
     1
  9
$TREEDEPTH
 70
  3020
  9
$CMLSTYLE
  2
STANDARD
  9
$CMLJUST
 70
     0
  9
$CMLSCALE
 40
20.0
  9
$PROXYGRAPHICS
 70
     1
  9
$MEASUREMENT
 70
     1
  9
$CELWEIGHT
370
    -1
  9
$ENDCAPS
280
     0
  9
$JOINSTYLE
280
     0
  9
$LWDISPLAY
290
     0
  9
$INSUNITS
 70
     0
  9
$HYPERLINKBASE
  1

  9
$STYLESHEET
  1

  9
$XEDIT
290
     1
  9
$CEPSNTYPE
380
     0
  9
$PSTYLEMODE
290
     1
  9
$FINGERPRINTGUID
  2
{7B48495B-9D62-4076-8CB1-8ACA882609AE}
  9
$VERSIONGUID
  2
{6FE7997E-C19F-4ED7-81F4-001E065FB06D}
  9
$EXTNAMES
290
     1
  9
$PSVPSCALE
 40
0.0
  9
$OLESTARTUP
290
     0
  0
ENDSEC
  0
SECTION
  2
CLASSES
  0
CLASS
  1
ACDBDICTIONARYWDFLT
  2
AcDbDictionaryWithDefault
  3
ObjectDBX Classes
 90
        0
280
     0
281
     0
  0
CLASS
  1
ACDBPLACEHOLDER
  2
AcDbPlaceHolder
  3
ObjectDBX Classes
 90
        0
280
     0
281
     0
  0
CLASS
  1
LAYOUT
  2
AcDbLayout
  3
ObjectDBX Classes
 90
        0
280
     0
281
     0
  0
CLASS
  1
ACME_DOCUMENT
  2
AcMeDbDoc
  3
AcMeServices
 90
     1024
280
     0
281
     0
  0
CLASS
  1
AMGSETTINGSOBJ
  2
AmgSettingsObj
  3
"AcadM|Product Description: AutoCAD Mechanical|Company: Autodesk, Inc."
 90
     1024
280
     0
281
     0
  0
CLASS
  1
ACMESCOPE
  2
AcMeScope
  3
AcMeServices
 90
     1024
280
     0
281
     0
  0
CLASS
  1
ACMECOMMANDHISTORY
  2
AcMeCommandHistory
  3
AcMeServices
 90
     1024
280
     0
281
     0
  0
CLASS
  1
DICTIONARYVAR
  2
AcDbDictionaryVar
  3
ObjectDBX Classes
 90
        0
280
     0
281
     0
  0
CLASS
  1
ACIMSYSVARMAN
  2
AcImSysVarManager
  3
AcMeServices
 90
     1024
280
     0
281
     0
  0
CLASS
  1
ACIMREALSYSVAR
  2
AcImRealSysVar
  3
AcMeServices
 90
     1024
280
     0
281
     0
  0
CLASS
  1
ACIMINTSYSVAR
  2
AcImIntSysVar
  3
AcMeServices
 90
     1024
280
     0
281
     0
  0
CLASS
  1
ACMEDRAWINGMAN
  2
AcMeDrawingMan
  3
AcMeServices
 90
     1024
280
     0
281
     0
  0
CLASS
  1
ACMEVIEW
  2
AcMeView
  3
AcMeServices
 90
     1024
280
     0
281
     0
  0
CLASS
  1
ACDBENTITYCACHE
  2
AcMeEntityCache
  3
AcMeServices
 90
     1024
280
     0
281
     0
  0
CLASS
  1
GSMANAGER
  2
AcMeGSManager
  3
AcMeServices
 90
     1024
280
     0
281
     0
  0
CLASS
  1
AMDTINTERNALREACTOR
  2
AmdtInternalReactor
  3
AcMeServices
 90
     1024
280
     0
281
     0
  0
CLASS
  1
ACMESTATEMGR
  2
AcMeStateMgr
  3
AcMeServices
 90
     1024
280
     0
281
     0
  0
CLASS
  1
ACGREFMASTER
  2
AcGrefMaster
  3
AcAttribServices
 90
     1024
280
     0
281
     0
  0
CLASS
  1
AM_DRAWING_MGR
  2
AcDmDwgMgr
  3
AcMechDwgViewMgmt
 90
     1024
280
     0
281
     0
  0
CLASS
  1
AM_DWG_DOCUMENT
  2
AcDmDwgDocument
  3
AcMechDwgViewMgmt
 90
     1024
280
     0
281
     0
  0
CLASS
  1
AM_DWG_SHEET
  2
AcDmSheet
  3
AcMechDwgViewMgmt
 90
     1024
280
     0
281
     0
  0
CLASS
  1
AM_VIEWDIMPARMAP
  2
AcDmViewDimParMap
  3
AcMechDwgViewMgmt
 90
     1024
280
     0
281
     0
  0
CLASS
  1
AM_DWGMGR_NAME
  2
AcDmDwgMgrName
  3
AcMechDwgViewMgmt
 90
     1024
280
     0
281
     0
  0
CLASS
  1
ACME_DATABASE
  2
AcMeDbDatabase
  3
AcMeServices
 90
     1024
280
     0
281
     0
  0
CLASS
  1
ACRFINSADJUSTERMGR
  2
AcRfInsAdjusterMgr
  3
AcMeServices
 90
     1024
280
     0
281
     0
  0
CLASS
  1
ACGREFACADMASTER
  2
AcGrefacadMaster
  3
AcGrefServices
 90
     1024
280
     0
281
     0
  0
CLASS
  1
AMDTMENUSTATEMGR
  2
AmdtMenuStateMgr
  3
McadcomServices
 90
     1024
280
     0
281
     0
  0
CLASS
  1
AMDTMCOMMENUSTATE
  2
AmdtMcomMenuState
  3
McadcomServices
 90
     1024
280
     0
281
     0
  0
CLASS
  1
AMIMASTER
  2
AmiMaster
  3
AmiServices
 90
     1024
280
     0
281
     0
  0
CLASS
  1
ASAPP
  2
AcAsAppObject
  3
AutoSurfServices
 90
     1024
280
     0
281
     0
  0
CLASS
  1
IM_STATIC_MAN
  2
AcImStaticVarManager
  3
AcMeServices
 90
     1024
280
     0
281
     0
  0
CLASS
  1
ACIMSTRSYSVAR
  2
AcImStrSysVar
  3
AcMeServices
 90
     1024
280
     0
281
     0
  0
CLASS
  1
ACIMDBLSTATICVAR
  2
AcImDblStaticVar
  3
AcMeServices
 90
     1024
280
     0
281
     0
  0
CLASS
  1
ACIMSTRSTATICVAR
  2
AcImStrStaticVar
  3
AcMeServices
 90
     1024
280
     0
281
     0
  0
CLASS
  1
ACIMINTSTATICVAR
  2
AcImIntStaticVar
  3
AcMeServices
 90
     1024
280
     0
281
     0
  0
CLASS
  1
ACASGREFMASTER
  2
AcAsGrefMaster
  3
AutoSurfResolverServices
 90
     1024
280
     0
281
     0
  0
CLASS
  1
ACADGREFMODULE
  2
AcAdGrefModule
  3
AdGrefServices
 90
     1024
280
     0
281
     0
  0
CLASS
  1
AMDTMAPISURFMOUDULE
  2
AmdtMApiSurfModule
  3
MApiSurfServices
 90
    33792
280
     0
281
     0
  0
CLASS
  1
MAPIAMMOUDLE
  2
MApiAmModule
  3
MApiAmServices
 90
     1024
280
     0
281
     0
  0
CLASS
  1
AMDTADMENUSTATE
  2
AmdtAdMenuState
  3
DesignerServices
 90
     1024
280
     0
281
     0
  0
CLASS
  1
ADAPPL
  2
AcAdAppl
  3
DesignerServices
 90
     1024
280
     0
281
     0
  0
CLASS
  1
DEPMGR
  2
AcAdDepMgr
  3
DesignerServices
 90
     1024
280
     0
281
     0
  0
CLASS
  1
PARAMMGR
  2
AcAdParamMgr
  3
DesignerServices
 90
     1024
280
     0
281
     0
  0
CLASS
  1
PARAMSCOPE
  2
AcAdParamScope
  3
DesignerServices
 90
     1024
280
     0
281
     0
  0
CLASS
  1
NAMEDAPPL
  2
AcAdNamedAppl
  3
DesignerServices
 90
     1024
280
     0
281
     0
  0
CLASS
  1
ADHNTMPLT
  2
AdHoleNoteTemplateMgr
  3
DesignerServices
 90
    33792
280
     0
281
     0
  0
CLASS
  1
AM_HNTEMPLATE_MGR_NAME
  2
AdHoleNoteTemplateMgrName
  3
DesignerServices
 90
    33792
280
     0
281
     0
  0
CLASS
  1
AMDTDMMENUSTATE
  2
AmdtDmMenuState
  3
AcMechDwgViewMgmt
 90
     1024
280
     0
281
     0
  0
CLASS
  1
MAPIADMODULE
  2
MApiAdModule
  3
MApiAdServices
 90
     1024
280
     0
281
     0
  0
CLASS
  1
AMDTAMMENUSTATE
  2
AmdtAmMenuState
  3
DesignerAssemblies
 90
     1024
280
     0
281
     0
  0
CLASS
  1
ACAMPROJECT
  2
AcAmProject
  3
DesignerAssemblies
 90
     1024
280
     0
281
     0
  0
CLASS
  1
ACAMGRCOMPDEF
  2
AcAmGrCompDef
  3
DesignerAssemblies
 90
     1024
280
     0
281
     0
  0
CLASS
  1
ACCMCONTEXT
  2
AcCmContext
  3
DesignerAssemblies
 90
     1024
280
     0
281
     0
  0
CLASS
  1
ACAMCOMPDEF
  2
AcAmCompDef
  3
DesignerAssemblies
 90
     1024
280
     0
281
     0
  0
CLASS
  1
ACAMCOMPDEFMGR
  2
AcAmCompDefMgr
  3
DesignerAssemblies
 90
     1024
280
     0
281
     0
  0
CLASS
  1
AMCONTEXTMGR
  2
AcAmContextMgr
  3
DesignerAssemblies
 90
     1024
280
     0
281
     0
  0
CLASS
  1
ACAMCONTEXTMODELER
  2
AcAmContextModeler
  3
DesignerAssemblies
 90
     1024
280
     0
281
     0
  0
CLASS
  1
ACMDATADICTIONARY
  2
AcmDataDictionary
  3
"AcmSymBB|Product Description: AutoCAD Mechanical|Company: Autodesk, Inc."
 90
     1024
280
     0
281
     0
  0
CLASS
  1
ACMDATAENTRYBLOCK
  2
AcmDataEntryBlock
  3
AcmSymBB|Product Description: AutoCAD Mechanical|Company: Autodesk, Inc.
 90
     1024
280
     0
281
     0
  0
CLASS
  1
CATALOGSTATE
  2
AcAmCatalogState
  3
DesignerAssemblies
 90
     1024
280
     0
281
     0
  0
CLASS
  1
ACAMGRCOMPDEFSET
  2
AcAmGrCompDefSet
  3
DesignerAssemblies
 90
     1024
280
     0
281
     0
  0
CLASS
  1
AMDTBROWSERDBTAB
  2
AmdtBrowserDbTab
  3
McadcomServices
 90
     1024
280
     0
281
     0
  0
CLASS
  1
CBROWSERAPPOBJECT
  2
CBrowserAppObject
  3
McadcomServices
 90
     1024
280
     0
281
     0
  0
CLASS
  1
DM_PLACEHOLDER
  2
AcDmSelsetPlaceholder
  3
AcMechDwgViewMgmt
 90
     1024
280
     0
281
     0
  0
CLASS
  1
ACMSTANDARDISO
  2
AcmStandardISO
  3
"Amdt_StdImp|Product Description: AutoCAD Mechanical|Company: Autodesk, Inc."
 90
     1024
280
     0
281
     0
  0
CLASS
  1
AMGOBJPROPCFG
  2
AmgObjPropCfg
  3
"AmgLay|Product Description: AutoCAD Mechanical|Company: Autodesk, Inc."
 90
     1025
280
     0
281
     0
  0
CLASS
  1
AMDTEDGESTANDARDISO
  2
AmdtEdgeStdISO
  3
"Amdt_StdImp|Product Description: AutoCAD Mechanical|Company: Autodesk, Inc."
 90
    33792
280
     0
281
     0
  0
CLASS
  1
ACMSURFSTANDARDISO
  2
AcmSurfTextStdISO
  3
"Amdt_StdImp|Product Description: AutoCAD Mechanical|Company: Autodesk, Inc."
 90
    33792
280
     0
281
     0
  0
CLASS
  1
ACMFCFSTANDARDISO
  2
AcmFCFStdISO
  3
"Amdt_StdImp|Product Description: AutoCAD Mechanical|Company: Autodesk, Inc."
 90
     1024
280
     0
281
     0
  0
CLASS
  1
ACMWELDSTANDARDISO
  2
AcmWeldingStdISO
  3
"Amdt_StdImp|Product Description: AutoCAD Mechanical|Company: Autodesk, Inc."
 90
     1024
280
     0
281
     0
  0
CLASS
  1
ACMIDSTANDARDISO
  2
AcmIdStdISO
  3
"Amdt_StdImp|Product Description: AutoCAD Mechanical|Company: Autodesk, Inc."
 90
     1024
280
     0
281
     0
  0
CLASS
  1
ACMDATUMSTANDARDISO
  2
AcmDatumStdISO
  3
"Amdt_StdImp|Product Description: AutoCAD Mechanical|Company: Autodesk, Inc."
 90
     1024
280
     0
281
     0
  0
CLASS
  1
ACMBOMSTANDARDISO
  2
AcmBOMStdISO
  3
"Amdt_StdImp|Product Description: AutoCAD Mechanical|Company: Autodesk, Inc."
 90
     1024
280
     0
281
     0
  0
CLASS
  1
ACMDETAILSTANDARDISO
  2
AmdtDetailSymStdISO
  3
"Amdt_StdImp|Product Description: AutoCAD Mechanical|Company: Autodesk, Inc."
 90
     1024
280
     0
281
     0
  0
CLASS
  1
ACMSECTIONSTANDARDISO
  2
AmdtSectionSymStdISO
  3
"Amdt_StdImp|Product Description: AutoCAD Mechanical|Company: Autodesk, Inc."
 90
    33792
280
     0
281
     0
  0
CLASS
  1
ACMCENTERLINESTANDARDISO
  2
AmdtCenterLineStdISO
  3
"Amdt_StdImp|Product Description: AutoCAD Mechanical|Company: Autodesk, Inc."
 90
     1024
280
     0
281
     0
  0
CLASS
  1
ACMTHREADLINESTANDARDISO
  2
AmdtThreadLineStdISO
  3
"Amdt_StdImp|Product Description: AutoCAD Mechanical|Company: Autodesk, Inc."
 90
     1024
280
     0
281
     0
  0
CLASS
  1
ACAMGLAYSTD
  2
AcAmgLayStd
  3
"AmgLay|Product Description: AutoCAD Mechanical|Company: Autodesk, Inc."
 90
     1024
280
     0
281
     0
  0
CLASS
  1
ACAMGDIMSTD
  2
AcAmgDimStd
  3
"AmgDim|Product Description: AutoCAD Mechanical|Company: Autodesk, Inc."
 90
     1024
280
     0
281
     0
  0
CLASS
  1
ACAMGTITLESTD
  2
AcAmgTitleStd
  3
"AmgTitle|Product Description: AutoCAD Mechanical|Company: Autodesk, Inc."
 90
     4095
280
     0
281
     0
  0
CLASS
  1
ACAMGFILTERDAT
  2
AcAmgFilterDat
  3
"AcadM|Product Description: AutoCAD Mechanical|Company: Autodesk, Inc."
 90
     1024
280
     0
281
     0
  0
CLASS
  1
AMDTFORMULAUPDATEDISPATCHER
  2
AmdtFormulaUpdateDispatcher
  3
AcMeServices
 90
    33792
280
     0
281
     0
  0
CLASS
  1
LAYER_INDEX
  2
AcDbLayerIndex
  3
ObjectDBX Classes
 90
        0
280
     0
281
     0
  0
CLASS
  1
IDBUFFER
  2
AcDbIdBuffer
  3
ObjectDBX Classes
 90
        0
280
     0
281
     0
  0
CLASS
  1
TABLESTYLE
  2
AcDbTableStyle
  3
ObjectDBX Classes
 90
     4095
280
     0
281
     0
  0
CLASS
  1
ACMNOTESTANDARDISO
  2
AmdtNoteStdISO
  3
"Amdt_StdImp|Product Description: AutoCAD Mechanical|Company: Autodesk, Inc."
 90
     1024
280
     0
281
     0
  0
CLASS
  1
AMDTNOTETEMPLATEDB
  2
AmdtNoteTemplateDB
  3
AcmSymBB|Product Description: AutoCAD Mechanical|Company: Autodesk, Inc.
 90
     1024
280
     0
281
     0
  0
CLASS
  1
ACAMEXTERNALCOMPDEF
  2
AcAmExternalCompDef
  3
DesignerAssemblies
 90
    33792
280
     0
281
     0
  0
CLASS
  1
ACCMBODY
  2
AcCmBody
  3
DesignerAssemblies
 90
    33792
280
     0
281
     0
  0
CLASS
  1
ACAMCOMPENT
  2
AcAmCompEnt
  3
DesignerAssemblies
 90
    33792
280
     0
281
     1
  0
CLASS
  1
ACAMCOMPFEEDBACK
  2
AcAmCompFeedback
  3
DesignerAssemblies
 90
    33792
280
     0
281
     0
  0
CLASS
  1
ACAMCOMP
  2
AcAmComp
  3
DesignerAssemblies
 90
    33792
280
     0
281
     0
  0
CLASS
  1
ACAMCOMPENTCLONE
  2
AcAmCompEntClone
  3
DesignerAssemblies
 90
    33792
280
     0
281
     1
  0
CLASS
  1
ACAMCLONEREACTOR
  2
AcAmGrCompCloneReactor
  3
DesignerAssemblies
 90
    33792
280
     0
281
     0
  0
CLASS
  1
EDGEID
  2
AcAdEdgeId
  3
DesignerServices
 90
    33792
280
     0
281
     0
  0
CLASS
  1
ACADPARTLINEDGRES
  2
AcAdPartLinEdgRes
  3
AdGrefServices
 90
    33792
280
     0
281
     0
  0
CLASS
  1
ACRFINSADJ
  2
AcRfInsAdjuster
  3
AcMeServices
 90
    33792
280
     0
281
     0
  0
CLASS
  1
STREFID
  2
AcAdStraightRefId
  3
DesignerServices
 90
    33792
280
     0
281
     0
  0
CLASS
  1
ACMEAXIS
  2
AcImAxisDisplay
  3
AcMeServices
 90
    33792
280
     0
281
     1
  0
CLASS
  1
FACEID
  2
AcAdFaceId
  3
DesignerServices
 90
    33792
280
     0
281
     0
  0
CLASS
  1
DEPEDGESECONDARYDEPID
  2
AcAdDepEdgeSecondaryDepId
  3
DesignerServices
 90
    33792
280
     0
281
     0
  0
CLASS
  1
ACADPARTPLANARFACERES
  2
AcAdPartPlanarFaceRes
  3
AdGrefServices
 90
    33792
280
     0
281
     0
  0
CLASS
  1
ACMEPOINT
  2
AcImPointDisplay
  3
AcMeServices
 90
    33792
280
     0
281
     1
  0
CLASS
  1
ACMELINEARARROW
  2
AcImLinearArrowDisplay
  3
AcMeServices
 90
    33792
280
     0
281
     1
  0
CLASS
  1
ACAMEXPR
  2
AcAmExpr
  3
DesignerAssemblies
 90
    33792
280
     0
281
     0
  0
CLASS
  1
ACCMDISTPLPL
  2
AcCmDistPlPl
  3
DesignerAssemblies
 90
    33792
280
     0
281
     0
  0
CLASS
  1
ACCMCONSTREACTOR
  2
AcCmConstraintReactor
  3
DesignerAssemblies
 90
    33792
280
     0
281
     0
  0
CLASS
  1
ACCMDISTPTLN
  2
AcCmDistPtLn
  3
DesignerAssemblies
 90
    33792
280
     0
281
     0
  0
CLASS
  1
AM_VIEW_SELECT_FILTER
  2
AcDmSelectViewEntFilter
  3
AcMechDwgViewMgmt
 90
    33792
280
     0
281
     0
  0
CLASS
  1
AM_GREF_PLANE
  2
AcDmGrefPlnDef
  3
AcMechDwgViewMgmt
 90
    33792
280
     0
281
     0
  0
CLASS
  1
AM_GREF_AXIS
  2
AcDmGrefAxisDef
  3
AcMechDwgViewMgmt
 90
    33792
280
     0
281
     0
  0
CLASS
  1
AM_BASE_VIEW_ORIENT
  2
AcDmBaseViewOr
  3
AcMechDwgViewMgmt
 90
    33792
280
     0
281
     0
  0
CLASS
  1
AM_DWG_VIEWPORT
  2
AcDmViewport
  3
AcMechDwgViewMgmt
 90
    33792
280
     0
281
     0
  0
CLASS
  1
AM_VIEW_DISPLAY
  2
AcDmDwgViewDisplay
  3
AcMechDwgViewMgmt
 90
    33792
280
     0
281
     0
  0
CLASS
  1
AM_CLDFLTS
  2
AcDmClDflts
  3
AcMechDwgViewMgmt
 90
    33792
280
     0
281
     0
  0
CLASS
  1
AM_BASE_VIEW
  2
AcDmBaseView
  3
AcMechDwgViewMgmt
 90
    33792
280
     0
281
     0
  0
CLASS
  1
ACMEPLINE
  2
AcImPlineDisplay
  3
AcMeServices
 90
    33792
280
     0
281
     1
  0
CLASS
  1
ACDMPARTVIEWDATA
  2
AcDmPartViewData
  3
AcMechDwgViewMgmt
 90
    33792
280
     0
281
     0
  0
CLASS
  1
ACDMDISPLAYATTRIBS
  2
AcDmDisplayAttribs
  3
AcMechDwgViewMgmt
 90
    33792
280
     0
281
     0
  0
CLASS
  1
ACDMBODYINSTANCEDATA
  2
AcDmBodyInstanceData
  3
AcMechDwgViewMgmt
 90
    33792
280
     0
281
     0
  0
CLASS
  1
ACDMVWEDLINE
  2
AcDmViewEdgeLine
  3
AcMechDwgViewMgmt
 90
    33792
280
     0
281
     1
  0
CLASS
  1
ACDMVWEDARC
  2
AcDmViewEdgeArc
  3
AcMechDwgViewMgmt
 90
    33792
280
     0
281
     1
  0
CLASS
  1
AM_ISO_VIEW_ORIENT
  2
AcDmIsoViewOr
  3
AcMechDwgViewMgmt
 90
    33792
280
     0
281
     0
  0
CLASS
  1
AM_ISO_VIEW
  2
AcDmIsoView
  3
AcMechDwgViewMgmt
 90
    33792
280
     0
281
     0
  0
CLASS
  1
AM_ORTHO_VIEW_ORIENT
  2
AcDmOrthoViewOr
  3
AcMechDwgViewMgmt
 90
    33792
280
     0
281
     0
  0
CLASS
  1
AM_ORTHO_VIEW
  2
AcDmOrthoView
  3
AcMechDwgViewMgmt
 90
    33792
280
     0
281
     0
  0
CLASS
  1
ACAMVIEWREACTOR
  2
AcAmViewReactor
  3
DesignerAssemblies
 90
    33792
280
     0
281
     0
  0
CLASS
  1
AMVIEW
  2
AcAmView
  3
DesignerAssemblies
 90
    33792
280
     0
281
     0
  0
CLASS
  1
ACAMVIEWCONTEXT
  2
AcAmViewContext
  3
DesignerAssemblies
 90
    33792
280
     0
281
     0
  0
CLASS
  1
ACAMCOMPENTVIEW
  2
AcAmCompEntView
  3
DesignerAssemblies
 90
    33792
280
     0
281
     1
  0
CLASS
  1
ACAMCOMPVIEWREACTOR
  2
AcAmGrCompViewReactor
  3
DesignerAssemblies
 90
    33792
280
     0
281
     0
  0
CLASS
  1
ACAMVIEWENTITYFILTER
  2
AcAmViewEntityFilter
  3
DesignerAssemblies
 90
    33792
280
     0
281
     0
  0
CLASS
  1
ACDMVWEDCIRC
  2
AcDmViewEdgeCircle
  3
AcMechDwgViewMgmt
 90
    33792
280
     0
281
     1
  0
CLASS
  1
AM_ADCIRCTRLINE
  2
AcAdBullsEyeCl
  3
DesignerServices
 90
    33792
280
     0
281
     0
  0
CLASS
  1
AM_ADLINCTRLINE
  2
AcAdLineCl
  3
DesignerServices
 90
    33792
280
     0
281
     0
  0
CLASS
  1
ACDMVIEWGEOM
  2
AcDmViewGeometry
  3
AcMechDwgViewMgmt
 90
    33792
280
     0
281
     1
  0
CLASS
  1
ACCMDISTLNLN
  2
AcCmDistLnLn
  3
DesignerAssemblies
 90
    33792
280
     0
281
     0
  0
CLASS
  1
ACAMXREFCONTEXTMODELER
  2
AcAmXrefContextModeler
  3
DesignerAssemblies
 90
    33792
280
     0
281
     0
  0
CLASS
  1
CNRREFID
  2
AcAdCornerId
  3
DesignerServices
 90
    33792
280
     0
281
     0
  0
CLASS
  1
ACADPARTPOINTRES
  2
AcAdPartPointRes
  3
AdGrefServices
 90
    33792
280
     0
281
     0
  0
CLASS
  1
AM_VIEWDIMLINEAR
  2
AcDmViewDimLinear
  3
AcMechDwgViewMgmt
 90
    33792
280
     0
281
     0
  0
CLASS
  1
PARAM
  2
AcAdParam
  3
DesignerServices
 90
    33792
280
     0
281
     0
  0
CLASS
  1
SORTENTSTABLE
  2
AcDbSortentsTable
  3
ObjectDBX Classes
 90
        0
280
     0
281
     0
  0
CLASS
  1
ACADPARTCIRCEDGRES
  2
AcAdPartCircEdgRes
  3
AdGrefServices
 90
    33792
280
     0
281
     0
  0
CLASS
  1
AM_VIEWDIMRADIUS
  2
AcDmViewDimRadius
  3
AcMechDwgViewMgmt
 90
    33792
280
     0
281
     0
  0
CLASS
  1
DEPEDGEPATTERNINSTANCE
  2
AcAdDepEdgePatternInstance
  3
DesignerServices
 90
    33792
280
     0
281
     0
  0
CLASS
  1
FEEDBACK
  2
AcAmFeedback
  3
DesignerAssemblies
 90
    33792
280
     0
281
     1
  0
CLASS
  1
ACAMTRIAXISSYMBOL
  2
AcAmTriAxisSymbol
  3
DesignerAssemblies
 90
    33792
280
     0
281
     0
  0
CLASS
  1
ACAMTEXTCIRCLESYMBOL
  2
AcAmTextCircleSymbol
  3
DesignerAssemblies
 90
    33792
280
     0
281
     0
  0
CLASS
  1
ACDMVISEDIT
  2
AcDmViewEntityVisEdit
  3
AcMechDwgViewMgmt
 90
    33792
280
     0
281
     0
  0
CLASS
  1
SILEDGEID
  2
AcAdSilhouetteEdgeId
  3
DesignerServices
 90
    33792
280
     0
281
     0
  0
CLASS
  1
MATERIAL
  2
AcDbMaterial
  3
ObjectDBX Classes
 90
     1153
280
     0
281
     0
  0
CLASS
  1
VISUALSTYLE
  2
AcDbVisualStyle
  3
ObjectDBX Classes
 90
     4095
280
     0
281
     0
  0
CLASS
  1
SCALE
  2
AcDbScale
  3
ObjectDBX Classes
 90
     1153
280
     0
281
     0
  0
CLASS
  1
MLEADERSTYLE
  2
AcDbMLeaderStyle
  3
ACDB_MLEADERSTYLE_CLASS
 90
     4095
280
     0
281
     0
  0
CLASS
  1
EXACTERMXREFMAP
  2
ExAcTermXrefMap
  3
EXAC_SERVICE
 90
    33793
280
     0
281
     0
  0
CLASS
  1
NPOCOLLECTION
  2
AcDbImpNonPersistentObjectsCollection
  3
ObjectDBX Classes
 90
     1153
280
     0
281
     0
  0
CLASS
  1
ACRFATTGENMGR
  2
AcRfAttGeneralMgr
  3
AcAttribServices
 90
     1024
280
     0
281
     0
  0
CLASS
  1
ACRFOBJATTMGR
  2
AcRfObjAttGroupMgr
  3
AcAttribServices
 90
     1024
280
     0
281
     0
  0
CLASS
  1
ACRFMCADAPIATTHOLDER
  2
AcRfMCADAPIAttHolder
  3
AcAttribServices
 90
     1024
280
     0
281
     0
  0
CLASS
  1
AMDTSYSATTR
  2
AmdtSystemAttribute
  3
AcAttribServices
 90
     1024
280
     0
281
     0
  0
CLASS
  1
ACMTAPERSTANDARDISO
  2
AcmTaperStdISO
  3
"Amdt_StdImp|Product Description: AutoCAD Mechanical|Company: Autodesk, Inc."
 90
     1024
280
     0
281
     0
  0
CLASS
  1
ACMANOOTATIONVIEWSTANDARDISO
  2
AmdtAnViewStdISO
  3
"Amdt_StdImp|Product Description: AutoCAD Mechanical|Company: Autodesk, Inc."
 90
     1024
280
     0
281
     0
  0
CLASS
  1
SOLID_BACKGROUND
  2
AcDbSolidBackground
  3
SCENEOE
 90
     4095
280
     0
281
     0
  0
CLASS
  1
CELLSTYLEMAP
  2
AcDbCellStyleMap
  3
ObjectDBX Classes
 90
     1152
280
     0
281
     0
  0
CLASS
  1
AM_ABS_AXIS
  2
AcDmAbsAxisDef
  3
AcMechDwgViewMgmt
 90
    33792
280
     0
281
     0
  0
CLASS
  1
AM_ABS_PLANE
  2
AcDmAbsPlnDef
  3
AcMechDwgViewMgmt
 90
    33792
280
     0
281
     0
  0
CLASS
  1
MULTILEADER
  2
AcDbMLeader
  3
ACDB_MLEADER_CLASS
 90
     1025
280
     0
281
     1
  0
CLASS
  1
AMDTEDGESTANDARDISO13715
  2
AmdtEdgeStdISO13715
  3
"Amdt_StdImp|Product Description: AutoCAD Mechanical|Company: Autodesk, Inc."
 90
     1024
280
     0
281
     0
  0
CLASS
  1
ACMSURFSTANDARDISO2002
  2
AcmSurfTextStdISO2002
  3
"Amdt_StdImp|Product Description: AutoCAD Mechanical|Company: Autodesk, Inc."
 90
     1024
280
     0
281
     0
  0
CLASS
  1
ACMSECTIONSTANDARDISO2001
  2
AmdtSectionSymStdISO2001
  3
"Amdt_StdImp|Product Description: AutoCAD Mechanical|Company: Autodesk, Inc."
 90
     1024
280
     0
281
     0
  0
CLASS
  1
ACAMGHOLECHARTSTDISO
  2
AcAmgHoleChartStdISO
  3
AmgDim|Product Description: AutoCAD Mechanical|Company: Autodesk, Inc.
 90
     1024
280
     0
281
     0
  0
ENDSEC
  0
SECTION
  2
TABLES
  0
TABLE
  2
VPORT
  5
2A
330
0
100
AcDbSymbolTable
 70
     1
  0
VPORT
  5
BB9
330
2A
100
AcDbSymbolTableRecord
100
AcDbViewportTableRecord
  2
*Active
 70
     0
 10
0.0
 20
0.0
 11
1.0
 21
1.0
 12
830.2487032488492
 22
192.5963947512654
 13
0.0
 23
0.0
 14
10.0
 24
10.0
 15
10.0
 25
10.0
 16
0.0
 26
0.0
 36
8338.697177379099
 17
3407.488540061332
 27
-218.8886543300429
 37
0.0000000000000038
 40
1444.683086498535
 41
1.672936259143155
 42
50.0
 43
0.0
 44
0.0
 50
0.0
 51
0.0
 71
     0
 72
  2000
 73
     1
 74
     0
 75
     0
 76
     0
 77
     0
 78
     0
281
     4
 65
     0
110
0.0
120
0.0
130
0.0
111
1.0
121
0.0
131
0.0
112
0.0
122
1.0
132
0.0
 79
     0
146
0.0
  0
ENDTAB
  0
TABLE
  2
LTYPE
  5
25
330
0
100
AcDbSymbolTable
 70
    11
  0
LTYPE
  5
26
330
25
100
AcDbSymbolTableRecord
100
AcDbLinetypeTableRecord
  2
BYBLOCK
 70
     0
  3

 72
    65
 73
     0
 40
0.0
  0
LTYPE
  5
27
330
25
100
AcDbSymbolTableRecord
100
AcDbLinetypeTableRecord
  2
BYLAYER
 70
     0
  3

 72
    65
 73
     0
 40
0.0
  0
LTYPE
  5
14
330
25
100
AcDbSymbolTableRecord
100
AcDbLinetypeTableRecord
  2
CONTINUOUS
 70
     0
  3
Solid line
 72
    65
 73
     0
 40
0.0
  0
LTYPE
  5
81
330
25
100
AcDbSymbolTableRecord
100
AcDbLinetypeTableRecord
  2
HIDDEN
 70
     0
  3
Hidden __ __ __ __ __ __ __ __ __ __ __ __ __ _
 72
    65
 73
     2
 40
0.375
 49
0.25
 74
     0
 49
-0.125
 74
     0
  0
LTYPE
  5
624
330
25
100
AcDbSymbolTableRecord
100
AcDbLinetypeTableRecord
  2
AM_ISO08W050
 70
     0
  3
____ . ____ . ____ . ____ . ____ . ____ . ____
 72
    65
 73
     4
 40
18.0
 49
12.0
 74
     0
 49
-1.5
 74
     0
 49
3.0
 74
     0
 49
-1.5
 74
     0
  0
LTYPE
  5
C0F
330
25
100
AcDbSymbolTableRecord
100
AcDbLinetypeTableRecord
  2
DASHDOT
 70
     0
  3
____ _ ____ _ ____ _ ____ _ ____ _ ____ _ ____
 72
    65
 73
     4
 40
5.5
 49
4.0
 74
     0
 49
-0.6
 74
     0
 49
0.3
 74
     0
 49
-0.6
 74
     0
  0
LTYPE
  5
171D
330
25
100
AcDbSymbolTableRecord
100
AcDbLinetypeTableRecord
  2
PHANTOM2
 70
     0
  3
Phantom (.5x) ___ _ _ ___ _ _ ___ _ _ ___ _ _
 72
    65
 73
     6
 40
31.75
 49
15.875
 74
     0
 49
-3.174999999999998
 74
     0
 49
3.174999999999998
 74
     0
 49
-3.174999999999998
 74
     0
 49
3.174999999999998
 74
     0
 49
-3.174999999999998
 74
     0
  0
LTYPE
  5
171E
330
25
100
AcDbSymbolTableRecord
100
AcDbLinetypeTableRecord
  2
CENTER
 70
     0
  3
Center ____ _ ____ _ ____ _ ____ _ ____ _ ____
 72
    65
 73
     4
 40
50.8
 49
31.75
 74
     0
 49
-6.349999999999997
 74
     0
 49
6.349999999999997
 74
     0
 49
-6.349999999999997
 74
     0
  0
LTYPE
  5
176C
330
25
100
AcDbSymbolTableRecord
100
AcDbLinetypeTableRecord
  2
ASULTYPE
 70
     0
  3
実線
 72
    65
 73
     2
 40
3.0
 49
2.5
 74
     0
 49
0.5
 74
     0
  0
LTYPE
  5
176D
330
25
100
AcDbSymbolTableRecord
100
AcDbLinetypeTableRecord
  2
ASVLTYPE
 70
     0
  3
__ __ __ __ __ __ __ __ __ __ __ __ __ __ __ __ __ __ __ __ __
 72
    65
 73
     2
 40
0.75
 49
0.5
 74
     0
 49
-0.25
 74
     0
  0
LTYPE
  5
17C1
330
25
100
AcDbSymbolTableRecord
100
AcDbLinetypeTableRecord
  2
ACISOWELD
 70
     0
  3
_ _ _ _ _
 72
    65
 73
     2
 40
2.0
 49
2.0
 74
     0
 49
-1.0
 74
     0
  0
LTYPE
  5
17C2
330
25
100
AcDbSymbolTableRecord
100
AcDbLinetypeTableRecord
  2
ACISOTGB
 70
     0
  3
__ . . __ . .
 72
    65
 73
     6
 40
9.0
 49
4.0
 74
     0
 49
-1.0
 74
     0
 49
1.0
 74
     0
 49
-1.0
 74
     0
 49
1.0
 74
     0
 49
-1.0
 74
     0
  0
LTYPE
  5
17C3
330
25
100
AcDbSymbolTableRecord
100
AcDbLinetypeTableRecord
  2
ACISOTGL
 70
     0
  3
_ _ _ _ _
 72
    65
 73
     2
 40
3.0
 49
2.0
 74
     0
 49
-1.0
 74
     0
  0
ENDTAB
  0
TABLE
  2
LAYER
  5
1F
102
{ACAD_XDICTIONARY
360
20
102
}
330
0
100
AcDbSymbolTable
 70
     9
  0
LAYER
  5
5
102
{ACAD_XDICTIONARY
360
6
102
}
330
1F
100
AcDbSymbolTableRecord
100
AcDbLayerTableRecord
  2
0
 70
     0
 62
     7
  6
CONTINUOUS
370
    -3
390
8
  0
LAYER
  5
B89
330
1F
100
AcDbSymbolTableRecord
100
AcDbLayerTableRecord
  2
Defpoints
 70
     0
 62
     7
  6
CONTINUOUS
290
     0
370
    -3
390
8
  0
LAYER
  5
C10
102
{ACAD_XDICTIONARY
360
C11
102
}
330
1F
100
AcDbSymbolTableRecord
100
AcDbLayerTableRecord
  2
SIZE
 70
     0
 62
    30
  6
CONTINUOUS
370
    -3
390
8
  0
LAYER
  5
C12
102
{ACAD_XDICTIONARY
360
C13
102
}
330
1F
100
AcDbSymbolTableRecord
100
AcDbLayerTableRecord
  2
OUTLINE
 70
     0
 62
     3
  6
CONTINUOUS
370
    -3
390
8
  0
LAYER
  5
C16
102
{ACAD_XDICTIONARY
360
C17
102
}
330
1F
100
AcDbSymbolTableRecord
100
AcDbLayerTableRecord
  2
BASIS
 70
     0
 62
     6
  6
DASHDOT
370
    -3
390
8
  0
LAYER
  5
C18
102
{ACAD_XDICTIONARY
360
C19
102
}
330
1F
100
AcDbSymbolTableRecord
100
AcDbLayerTableRecord
  2
NOTE
 70
     0
 62
     4
  6
CONTINUOUS
370
    -3
390
8
  0
LAYER
  5
C1A
102
{ACAD_XDICTIONARY
360
C1B
102
}
330
1F
100
AcDbSymbolTableRecord
100
AcDbLayerTableRecord
  2
ARRANGE
 70
     0
 62
     1
  6
CONTINUOUS
370
    -3
390
8
  0
LAYER
  5
C1C
102
{ACAD_XDICTIONARY
360
C1D
102
}
330
1F
100
AcDbSymbolTableRecord
100
AcDbLayerTableRecord
  2
ETC
 70
     0
 62
    61
  6
CONTINUOUS
370
    -3
390
8
  0
LAYER
  5
1F2E
102
{ACAD_XDICTIONARY
360
1F2F
102
}
330
1F
100
AcDbSymbolTableRecord
100
AcDbLayerTableRecord
  2
HID
 70
     0
 62
     3
  6
HIDDEN
370
    25
390
8
1001
AcAecLayerStandard
1000

1000

  0
ENDTAB
  0
TABLE
  2
STYLE
  5
22
330
0
100
AcDbSymbolTable
 70
     4
  0
STYLE
  5
23
330
22
100
AcDbSymbolTableRecord
100
AcDbTextStyleTableRecord
  2
STANDARD
 70
     0
 40
0.0
 41
1.0
 50
0.0
 71
     0
 42
62.5215949741746
  3
romans.shx
  4
extfont.shx
  0
STYLE
  5
C1E
330
22
100
AcDbSymbolTableRecord
100
AcDbTextStyleTableRecord
  2
STANDARD1
 70
     0
 40
0.0
 41
1.0
 50
0.0
 71
     0
 42
3.5
  3
MONOTXT
  4
BIGFONT
  0
STYLE
  5
17B1
330
22
100
AcDbSymbolTableRecord
100
AcDbTextStyleTableRecord
  2
ACISOTS
 70
     0
 40
1.0
 41
1.0
 50
0.0
 71
     0
 42
62.5215949741746
  3
isocp.shx
  4
extfont.shx
  0
STYLE
  5
17C0
330
22
100
AcDbSymbolTableRecord
100
AcDbTextStyleTableRecord
  2
ACISOGDT
 70
     0
 40
0.0
 41
1.0
 50
0.0
 71
     0
 42
62.5215949741746
  3
amgdt.shx
  4

  0
ENDTAB
  0
TABLE
  2
VIEW
  5
28
330
0
100
AcDbSymbolTable
 70
     0
  0
ENDTAB
  0
TABLE
  2
UCS
  5
29
330
0
100
AcDbSymbolTable
 70
     0
  0
ENDTAB
  0
TABLE
  2
APPID
  5
2E
330
0
100
AcDbSymbolTable
 70
    22
  0
APPID
  5
2F
330
2E
100
AcDbSymbolTableRecord
100
AcDbRegAppTableRecord
  2
ACAD
 70
     0
  0
APPID
  5
38
330
2E
100
AcDbSymbolTableRecord
100
AcDbRegAppTableRecord
  2
ACAD_DSTYLE_DIMJOGGED_JOGANGLE_SYMBOL
 70
     0
  0
APPID
  5
7C
330
2E
100
AcDbSymbolTableRecord
100
AcDbRegAppTableRecord
  2
AcAecLayerStandard
 70
     0
  0
APPID
  5
1E
330
2E
100
AcDbSymbolTableRecord
100
AcDbRegAppTableRecord
  2
ACAD_PSEXT
 70
     0
  0
APPID
  5
AFF
330
2E
100
AcDbSymbolTableRecord
100
AcDbRegAppTableRecord
  2
ACATTRIBSERVICES
 70
     0
  0
APPID
  5
B18
330
2E
100
AcDbSymbolTableRecord
100
AcDbRegAppTableRecord
  2
ACAD_MLEADERVER
 70
     0
  0
APPID
  5
B21
330
2E
100
AcDbSymbolTableRecord
100
AcDbRegAppTableRecord
  2
ACAD_EXEMPT_FROM_CAD_STANDARDS
 70
     0
  0
APPID
  5
B5E
330
2E
100
AcDbSymbolTableRecord
100
AcDbRegAppTableRecord
  2
ACAD_DSTYLE_DIMJAG
 70
     0
  0
APPID
  5
B5F
330
2E
100
AcDbSymbolTableRecord
100
AcDbRegAppTableRecord
  2
ACAD_DSTYLE_DIMTALN
 70
     0
  0
APPID
  5
B6F
330
2E
100
AcDbSymbolTableRecord
100
AcDbRegAppTableRecord
  2
ACAD_DSTYLE_DIMEXT_LENGTH
 70
     0
  0
APPID
  5
16E9
330
2E
100
AcDbSymbolTableRecord
100
AcDbRegAppTableRecord
  2
GENIUS_GENDIM_13
 70
     0
  0
APPID
  5
16EA
330
2E
100
AcDbSymbolTableRecord
100
AcDbRegAppTableRecord
  2
GENIUS_GENDTOL_13
 70
     0
  0
APPID
  5
16EB
330
2E
100
AcDbSymbolTableRecord
100
AcDbRegAppTableRecord
  2
GENIUS_GE3DTOL_13
 70
     0
  0
APPID
  5
16EE
330
2E
100
AcDbSymbolTableRecord
100
AcDbRegAppTableRecord
  2
MCAD_NO_VIS
 70
     0
  0
APPID
  5
16EF
330
2E
100
AcDbSymbolTableRecord
100
AcDbRegAppTableRecord
  2
ACAD_TEMP_GRAPHIC
 70
     0
  0
APPID
  5
1720
330
2E
100
AcDbSymbolTableRecord
100
AcDbRegAppTableRecord
  2
AD_DRAW
 70
     0
  0
APPID
  5
176E
330
2E
100
AcDbSymbolTableRecord
100
AcDbRegAppTableRecord
  2
ASURF_PCURVE_APPNAME
 70
     0
  0
APPID
  5
1773
330
2E
100
AcDbSymbolTableRecord
100
AcDbRegAppTableRecord
  2
AMG_3D2D_5.0
 70
     0
  0
APPID
  5
17A4
330
2E
100
AcDbSymbolTableRecord
100
AcDbRegAppTableRecord
  2
DESIGNERASSEMBLIES
 70
     0
  0
APPID
  5
17A8
330
2E
100
AcDbSymbolTableRecord
100
AcDbRegAppTableRecord
  2
ACADM_DIM_EDIT
 70
     0
  0
APPID
  5
17A9
330
2E
100
AcDbSymbolTableRecord
100
AcDbRegAppTableRecord
  2
AMDT_DM_ADJ
 70
     0
  0
APPID
  5
197B
330
2E
100
AcDbSymbolTableRecord
100
AcDbRegAppTableRecord
  2
ACAD_DSTYLE_DIMARC_LENGTH_SYMBOL
 70
     0
  0
ENDTAB
  0
TABLE
  2
DIMSTYLE
  5
30
330
0
100
AcDbSymbolTable
 70
    10
100
AcDbDimStyleTable
 71
     1
340
31
  0
DIMSTYLE
105
31
102
{ACAD_REACTORS
330
229A
330
22A7
330
22B4
330
22C1
330
22CE
102
}
330
30
100
AcDbSymbolTableRecord
100
AcDbDimStyleTableRecord
  2
STANDARD
 70
     0
 40
0.0
 41
2.0
 42
1.0
 43
3.75
 44
1.0
 73
     0
 74
     0
 77
     1
 78
     8
140
2.0
141
2.5
143
0.0394
147
1.0
171
     4
172
     1
173
     1
271
     0
272
     0
273
     8
274
     4
284
     8
340
23
341
32
343
32
344
32
1001
ACAD_DSTYLE_DIMEXT_LENGTH
1070
   378
1040
15.0
1001
ACAD_DSTYLE_DIMJOGGED_JOGANGLE_SYMBOL
1070
   384
1040
1.570796326794896
  0
DIMSTYLE
105
17CE
330
30
100
AcDbSymbolTableRecord
100
AcDbDimStyleTableRecord
  2
AM_ISO
 70
     0
  4
"
 41
2.5
 42
1.0
 43
10.0
 44
1.0
 47
0.1
 48
0.1
 73
     0
 74
     0
 77
     1
 78
     8
 79
     2
140
3.5
141
0.0
143
0.0393701
146
0.71
147
1.5
172
     1
176
   256
177
   256
178
     2
271
     2
272
     3
274
     4
283
     0
284
     8
340
23
371
    -1
372
    -1
1001
ACAD_DSTYLE_DIMARC_LENGTH_SYMBOL
1070
   379
1070
     1
  0
DIMSTYLE
105
17CF
330
30
100
AcDbSymbolTableRecord
100
AcDbDimStyleTableRecord
  2
AM_ISO$3
 70
     0
  4
"
 41
2.5
 42
1.0
 43
10.0
 44
1.0
 47
0.1
 48
0.1
 73
     0
 77
     1
 78
     8
 79
     2
140
3.5
141
0.0
143
0.0393701
146
0.71
147
1.5
176
   256
177
   256
178
     2
271
     2
272
     3
274
     4
283
     0
284
     8
288
     1
289
     0
340
23
371
    -1
372
    -1
1001
ACAD_DSTYLE_DIMARC_LENGTH_SYMBOL
1070
   379
1070
     1
  0
DIMSTYLE
105
17D0
330
30
100
AcDbSymbolTableRecord
100
AcDbDimStyleTableRecord
  2
AM_ISO$4
 70
     0
  4
"
 41
2.5
 42
1.0
 43
10.0
 44
1.0
 47
0.1
 48
0.1
 73
     0
 77
     1
 78
     8
 79
     2
140
3.5
141
0.0
143
0.0393701
146
0.71
147
1.5
176
   256
177
   256
178
     2
271
     2
272
     3
274
     4
283
     0
284
     8
288
     1
289
     0
340
23
371
    -1
372
    -1
1001
ACAD_DSTYLE_DIMARC_LENGTH_SYMBOL
1070
   379
1070
     1
  0
DIMSTYLE
105
17D1
330
30
100
AcDbSymbolTableRecord
100
AcDbDimStyleTableRecord
  2
AM_ISO$6
 70
     0
  4
"
 41
2.5
 42
1.0
 43
10.0
 44
1.0
 47
0.1
 48
0.1
 73
     0
 74
     0
 78
     8
 79
     2
140
3.5
141
0.0
143
0.0393701
146
0.71
147
1.5
172
     1
176
   256
177
   256
178
     2
271
     2
272
     3
274
     4
283
     0
284
     8
340
23
371
    -1
372
    -1
1001
ACAD_DSTYLE_DIMARC_LENGTH_SYMBOL
1070
   379
1070
     1
  0
DIMSTYLE
105
17D2
330
30
100
AcDbSymbolTableRecord
100
AcDbDimStyleTableRecord
  2
AM_ISO$7
 70
     0
  4
"
 41
2.5
 42
1.0
 43
10.0
 44
1.0
 47
0.1
 48
0.1
 73
     0
 74
     0
 77
     1
 78
     8
 79
     2
140
5.0
141
0.0
143
0.0393701
146
0.71
147
1.5
172
     1
176
   256
177
   256
178
     2
271
     2
272
     3
274
     4
283
     0
284
     8
340
23
371
    -1
372
    -1
1001
ACAD_DSTYLE_DIMARC_LENGTH_SYMBOL
1070
   379
1070
     1
  0
DIMSTYLE
105
17D3
330
30
100
AcDbSymbolTableRecord
100
AcDbDimStyleTableRecord
  2
AM_ISO$SF
 70
     0
  4
"
 41
2.5
 42
1.0
 43
10.0
 44
1.0
 47
0.1
 48
0.1
 73
     0
 74
     0
 75
     1
 76
     1
 77
     1
 78
     8
 79
     2
140
3.5
141
0.0
143
0.0393701
146
0.71
147
1.5
172
     1
176
   256
177
   256
178
     2
271
     2
272
     3
274
     4
283
     0
284
     8
340
23
371
    -1
372
    -1
1001
ACAD_DSTYLE_DIMARC_LENGTH_SYMBOL
1070
   379
1070
     1
  0
DIMSTYLE
105
17D8
330
30
100
AcDbSymbolTableRecord
100
AcDbDimStyleTableRecord
  2
AM_ISO$SH
 70
     0
  4
"
 41
2.5
 42
1.0
 43
10.0
 44
1.0
 47
0.1
 48
0.1
 73
     0
 74
     0
 75
     1
 76
     1
 77
     1
 78
     8
 79
     2
140
3.5
141
0.0
143
0.0393701
144
2.0
146
0.71
147
1.5
172
     1
173
     1
176
   256
177
   256
178
     2
271
     2
272
     3
274
     4
283
     0
284
     8
340
23
343
17D4
371
    -1
372
    -1
1001
ACAD_DSTYLE_DIMARC_LENGTH_SYMBOL
1070
   379
1070
     1
  0
DIMSTYLE
105
17E7
330
30
100
AcDbSymbolTableRecord
100
AcDbDimStyleTableRecord
  2
STANDARD1
 70
     0
 40
10.0
 41
2.5
 42
0.625
 43
3.75
 44
1.25
 77
     1
 78
     8
140
2.5
141
0.0
147
1.0
173
     1
284
     8
340
23
341
32
343
32
344
32
  0
DIMSTYLE
105
17E8
330
30
100
AcDbSymbolTableRecord
100
AcDbDimStyleTableRecord
  2
AM_JIS
 70
     0
  4
"
 40
10.0
 41
2.5
 42
1.0
 43
10.0
 44
1.0
 47
0.1
 48
0.1
 73
     0
 74
     0
 77
     3
 78
     8
 79
     2
140
3.5
141
0.0
143
0.0393701
146
0.71
147
1.5
172
     1
176
   256
177
   256
178
     2
271
     2
272
     3
274
     4
283
     0
284
     8
340
23
341
32
342
32
343
32
344
32
371
    -1
372
    -1
1001
ACAD_DSTYLE_DIMJOGGED_JOGANGLE_SYMBOL
1070
   384
1040
0.7853981633974483
1001
ACAD_DSTYLE_DIMARC_LENGTH_SYMBOL
1070
   379
1070
     1
  0
ENDTAB
  0
TABLE
  2
BLOCK_RECORD
  5
1
330
0
100
AcDbSymbolTable
 70
    45
  0
BLOCK_RECORD
  5
2
102
{ACAD_XDICTIONARY
360
3
102
}
330
1
100
AcDbSymbolTableRecord
100
AcDbBlockTableRecord
  2
*MODEL_SPACE
340
16
  0
BLOCK_RECORD
  5
18
330
1
100
AcDbSymbolTableRecord
100
AcDbBlockTableRecord
  2
*Paper_Space
340
1B
  0
BLOCK_RECORD
  5
32
330
1
100
AcDbSymbolTableRecord
100
AcDbBlockTableRecord
  2
_OPEN30
340
0
102
{BLKREFS
331
16B7
331
16B8
331
16C9
331
16CA
331
1930
331
1931
331
193D
331
193E
331
194A
331
194B
331
195B
331
195C
331
1DA5
331
1DA6
331
1DB2
331
1DB3
331
1DBF
331
1DC0
331
1DCC
331
1DCD
331
1DD9
331
1DDA
331
1DE6
331
1DE7
331
1DF3
331
1DF4
331
1E00
331
1E01
331
1EF7
331
1EF8
331
1F03
331
1F04
331
1F0F
331
1F10
331
1F1B
331
1F1C
331
1F27
331
1F28
331
2264
331
2265
331
2270
331
2271
331
227C
331
227D
331
2288
331
2289
331
2294
331
2295
331
22A1
331
22A2
331
22AE
331
22AF
331
22BB
331
22BC
331
22C8
331
22C9
331
22D5
331
22D6
331
22E1
331
22E2
331
22ED
331
22EE
331
22F9
331
22FA
331
2305
331
2306
331
2311
331
2312
331
264C
331
264D
331
2658
331
2659
331
2664
331
2665
331
2670
331
2671
331
267C
331
267D
102
}
  0
BLOCK_RECORD
  5
B8A
330
1
100
AcDbSymbolTableRecord
100
AcDbBlockTableRecord
  2
*D1
340
0
  0
BLOCK_RECORD
  5
B97
330
1
100
AcDbSymbolTableRecord
100
AcDbBlockTableRecord
  2
*D2
340
0
  0
BLOCK_RECORD
  5
BA4
330
1
100
AcDbSymbolTableRecord
100
AcDbBlockTableRecord
  2
*D3
340
0
  0
BLOCK_RECORD
  5
C0A
330
1
100
AcDbSymbolTableRecord
100
AcDbBlockTableRecord
  2
_DOTBLANK
340
0
  0
BLOCK_RECORD
  5
17D4
330
1
100
AcDbSymbolTableRecord
100
AcDbBlockTableRecord
  2
GENAXEH
340
0
  0
BLOCK_RECORD
  5
1937
330
1
100
AcDbSymbolTableRecord
100
AcDbBlockTableRecord
  2
*D6
340
0
  0
BLOCK_RECORD
  5
1944
330
1
100
AcDbSymbolTableRecord
100
AcDbBlockTableRecord
  2
*D7
340
0
  0
BLOCK_RECORD
  5
1955
330
1
100
AcDbSymbolTableRecord
100
AcDbBlockTableRecord
  2
*D8
340
0
  0
BLOCK_RECORD
  5
1D9F
330
1
100
AcDbSymbolTableRecord
100
AcDbBlockTableRecord
  2
*D9
340
0
  0
BLOCK_RECORD
  5
1DAC
330
1
100
AcDbSymbolTableRecord
100
AcDbBlockTableRecord
  2
*D10
340
0
  0
BLOCK_RECORD
  5
1DB9
330
1
100
AcDbSymbolTableRecord
100
AcDbBlockTableRecord
  2
*D11
340
0
  0
BLOCK_RECORD
  5
1DC6
330
1
100
AcDbSymbolTableRecord
100
AcDbBlockTableRecord
  2
*D12
340
0
  0
BLOCK_RECORD
  5
1DD3
330
1
100
AcDbSymbolTableRecord
100
AcDbBlockTableRecord
  2
*D13
340
0
  0
BLOCK_RECORD
  5
1DE0
330
1
100
AcDbSymbolTableRecord
100
AcDbBlockTableRecord
  2
*D14
340
0
  0
BLOCK_RECORD
  5
1DED
330
1
100
AcDbSymbolTableRecord
100
AcDbBlockTableRecord
  2
*D15
340
0
  0
BLOCK_RECORD
  5
1DFA
330
1
100
AcDbSymbolTableRecord
100
AcDbBlockTableRecord
  2
*D16
340
0
  0
BLOCK_RECORD
  5
1EF2
330
1
100
AcDbSymbolTableRecord
100
AcDbBlockTableRecord
  2
*D18
340
0
  0
BLOCK_RECORD
  5
1EFE
330
1
100
AcDbSymbolTableRecord
100
AcDbBlockTableRecord
  2
*D19
340
0
  0
BLOCK_RECORD
  5
1F0A
330
1
100
AcDbSymbolTableRecord
100
AcDbBlockTableRecord
  2
*D20
340
0
  0
BLOCK_RECORD
  5
1F16
330
1
100
AcDbSymbolTableRecord
100
AcDbBlockTableRecord
  2
*D21
340
0
  0
BLOCK_RECORD
  5
1F22
330
1
100
AcDbSymbolTableRecord
100
AcDbBlockTableRecord
  2
*D22
340
0
  0
BLOCK_RECORD
  5
225E
330
1
100
AcDbSymbolTableRecord
100
AcDbBlockTableRecord
  2
*D24
340
0
  0
BLOCK_RECORD
  5
226A
330
1
100
AcDbSymbolTableRecord
100
AcDbBlockTableRecord
  2
*D25
340
0
  0
BLOCK_RECORD
  5
2276
330
1
100
AcDbSymbolTableRecord
100
AcDbBlockTableRecord
  2
*D26
340
0
  0
BLOCK_RECORD
  5
2282
330
1
100
AcDbSymbolTableRecord
100
AcDbBlockTableRecord
  2
*D27
340
0
  0
BLOCK_RECORD
  5
228E
330
1
100
AcDbSymbolTableRecord
100
AcDbBlockTableRecord
  2
*D28
340
0
  0
BLOCK_RECORD
  5
229B
330
1
100
AcDbSymbolTableRecord
100
AcDbBlockTableRecord
  2
*D29
340
0
  0
BLOCK_RECORD
  5
22A8
330
1
100
AcDbSymbolTableRecord
100
AcDbBlockTableRecord
  2
*D30
340
0
  0
BLOCK_RECORD
  5
22B5
330
1
100
AcDbSymbolTableRecord
100
AcDbBlockTableRecord
  2
*D31
340
0
  0
BLOCK_RECORD
  5
22C2
330
1
100
AcDbSymbolTableRecord
100
AcDbBlockTableRecord
  2
*D32
340
0
  0
BLOCK_RECORD
  5
22CF
330
1
100
AcDbSymbolTableRecord
100
AcDbBlockTableRecord
  2
*D33
340
0
  0
BLOCK_RECORD
  5
22DC
330
1
100
AcDbSymbolTableRecord
100
AcDbBlockTableRecord
  2
*D34
340
0
  0
BLOCK_RECORD
  5
22E8
330
1
100
AcDbSymbolTableRecord
100
AcDbBlockTableRecord
  2
*D35
340
0
  0
BLOCK_RECORD
  5
22F4
330
1
100
AcDbSymbolTableRecord
100
AcDbBlockTableRecord
  2
*D36
340
0
  0
BLOCK_RECORD
  5
2300
330
1
100
AcDbSymbolTableRecord
100
AcDbBlockTableRecord
  2
*D37
340
0
  0
BLOCK_RECORD
  5
230C
330
1
100
AcDbSymbolTableRecord
100
AcDbBlockTableRecord
  2
*D38
340
0
  0
BLOCK_RECORD
  5
2646
330
1
100
AcDbSymbolTableRecord
100
AcDbBlockTableRecord
  2
*D40
340
0
  0
BLOCK_RECORD
  5
2652
330
1
100
AcDbSymbolTableRecord
100
AcDbBlockTableRecord
  2
*D41
340
0
  0
BLOCK_RECORD
  5
265E
330
1
100
AcDbSymbolTableRecord
100
AcDbBlockTableRecord
  2
*D42
340
0
  0
BLOCK_RECORD
  5
266A
330
1
100
AcDbSymbolTableRecord
100
AcDbBlockTableRecord
  2
*D43
340
0
  0
BLOCK_RECORD
  5
2676
330
1
100
AcDbSymbolTableRecord
100
AcDbBlockTableRecord
  2
*D44
340
0
  0
ENDTAB
  0
ENDSEC
  0
SECTION
  2
BLOCKS
  0
BLOCK
  5
4
330
2
100
AcDbEntity
  8
0
100
AcDbBlockBegin
  2
*MODEL_SPACE
 70
     0
 10
0.0
 20
0.0
 30
0.0
  3
*MODEL_SPACE
  1

  0
ENDBLK
  5
15
330
2
100
AcDbEntity
  8
0
100
AcDbBlockEnd
  0
BLOCK
  5
19
330
18
100
AcDbEntity
 67
     1
  8
0
100
AcDbBlockBegin
  2
*Paper_Space
 70
     0
 10
0.0
 20
0.0
 30
0.0
  3
*Paper_Space
  1

  0
ENDBLK
  5
1A
330
18
100
AcDbEntity
 67
     1
  8
0
100
AcDbBlockEnd
  0
BLOCK
  5
33
330
32
100
AcDbEntity
  8
0
100
AcDbBlockBegin
  2
_OPEN30
 70
     0
 10
0.0
 20
0.0
 30
0.0
  3
_OPEN30
  1

  0
LINE
  5
34
330
32
100
AcDbEntity
  8
0
  6
ByBlock
 62
     0
100
AcDbLine
 10
-1.0
 20
0.26794919
 30
0.0
 11
0.0
 21
0.0
 31
0.0
  0
LINE
  5
35
330
32
100
AcDbEntity
  8
0
  6
ByBlock
 62
     0
100
AcDbLine
 10
0.0
 20
0.0
 30
0.0
 11
-1.0
 21
-0.26794919
 31
0.0
  0
LINE
  5
36
330
32
100
AcDbEntity
  8
0
  6
ByBlock
 62
     0
100
AcDbLine
 10
0.0
 20
0.0
 30
0.0
 11
-1.0
 21
0.0
 31
0.0
  0
ENDBLK
  5
37
330
32
100
AcDbEntity
  8
0
100
AcDbBlockEnd
  0
BLOCK
  5
B94
330
B8A
100
AcDbEntity
  8
0
100
AcDbBlockBegin
  2
*D1
 70
     1
 10
0.0
 20
0.0
 30
0.0
  3
*D1
  1

  0
LINE
  5
192D
330
B8A
100
AcDbEntity
  8
SIZE
 62
     0
370
    -2
100
AcDbLine
 10
-309.4855110895245
 20
-329.5556583977946
 30
0.0
 11
-309.4855110895245
 21
-397.1325484327433
 31
0.0
  0
LINE
  5
192E
330
B8A
100
AcDbEntity
  8
SIZE
 62
     0
370
    -2
100
AcDbLine
 10
569.5144889104621
 20
-329.5556583977696
 30
0.0
 11
569.5144889104621
 21
-397.1325484327433
 31
0.0
  0
LINE
  5
192F
330
B8A
100
AcDbEntity
  8
SIZE
 62
     0
370
    -2
100
AcDbLine
 10
-289.4855110895245
 20
-387.1325484327433
 30
0.0
 11
549.514488910462
 21
-387.1325484327433
 31
0.0
  0
INSERT
  5
1930
330
B8A
100
AcDbEntity
  8
SIZE
 62
     0
370
    -2
100
AcDbBlockReference
  2
_OPEN30
 10
-309.4855110895245
 20
-387.1325484327433
 30
0.0
 41
20.0
 42
20.0
 43
20.0
 50
180.0
  0
INSERT
  5
1931
330
B8A
100
AcDbEntity
  8
SIZE
 62
     0
370
    -2
100
AcDbBlockReference
  2
_OPEN30
 10
569.5144889104621
 20
-387.1325484327433
 30
0.0
 41
20.0
 42
20.0
 43
20.0
  0
MTEXT
  5
1932
330
B8A
100
AcDbEntity
  8
SIZE
 62
     0
100
AcDbMText
 10
130.0144889104688
 20
-367.1325484327433
 30
0.0
 40
20.0
 41
0.0
 71
     5
 72
     1
  1
\A1;879
 73
     1
 44
1.0
1001
ACAD
1000
MTEXTBEGIN
1070
    73
1070
     1
1070
    44
1040
1.0
1070
    74
1070
     0
1000
MTEXTEND
  0
POINT
  5
1933
330
B8A
100
AcDbEntity
  8
Defpoints
 62
     0
100
AcDbPoint
 10
-309.4855110895245
 20
-319.5556583977946
 30
0.0
  0
POINT
  5
1934
330
B8A
100
AcDbEntity
  8
Defpoints
 62
     0
100
AcDbPoint
 10
569.5144889104621
 20
-319.5556583977696
 30
0.0
  0
POINT
  5
1935
330
B8A
100
AcDbEntity
  8
Defpoints
 62
     0
100
AcDbPoint
 10
569.5144889104621
 20
-387.1325484327433
 30
0.0
  0
ENDBLK
  5
B95
330
B8A
100
AcDbEntity
  8
0
100
AcDbBlockEnd
  0
BLOCK
  5
BA1
330
B97
100
AcDbEntity
  8
0
100
AcDbBlockBegin
  2
*D2
 70
     1
 10
0.0
 20
0.0
 30
0.0
  3
*D2
  1

  0
LINE
  5
16B4
330
B97
100
AcDbEntity
  8
SIZE
 62
     0
370
    -2
100
AcDbLine
 10
-325.9855110895246
 20
-324.5556583977947
 30
0.0
 11
-325.9855110895246
 21
-441.5373076871635
 31
0.0
  0
LINE
  5
16B5
330
B97
100
AcDbEntity
  8
SIZE
 62
     0
370
    -2
100
AcDbLine
 10
586.0144889104623
 20
-324.5556583977697
 30
0.0
 11
586.0144889104623
 21
-441.5373076871635
 31
0.0
  0
LINE
  5
16B6
330
B97
100
AcDbEntity
  8
SIZE
 62
     0
370
    -2
100
AcDbLine
 10
-315.9855110895246
 20
-436.5373076871635
 30
0.0
 11
576.0144889104623
 21
-436.5373076871635
 31
0.0
  0
INSERT
  5
16B7
330
B97
100
AcDbEntity
  8
SIZE
 62
     0
370
    -2
100
AcDbBlockReference
  2
_OPEN30
 10
-325.9855110895246
 20
-436.5373076871635
 30
0.0
 41
10.0
 42
10.0
 43
10.0
 50
180.0
  0
INSERT
  5
16B8
330
B97
100
AcDbEntity
  8
SIZE
 62
     0
370
    -2
100
AcDbBlockReference
  2
_OPEN30
 10
586.0144889104623
 20
-436.5373076871635
 30
0.0
 41
10.0
 42
10.0
 43
10.0
  0
MTEXT
  5
16B9
330
B97
100
AcDbEntity
  8
SIZE
 62
     0
100
AcDbMText
 10
130.0144889104688
 20
-426.5373076871631
 30
0.0
 40
10.0
 41
0.0
 71
     5
 72
     1
  1
\A1;912
 73
     1
 44
1.0
1001
ACAD
1000
MTEXTBEGIN
1070
    73
1070
     1
1070
    44
1040
1.0
1070
    74
1070
     0
1000
MTEXTEND
  0
POINT
  5
16BA
330
B97
100
AcDbEntity
  8
Defpoints
 62
     0
100
AcDbPoint
 10
-325.9855110895246
 20
-319.5556583977947
 30
0.0
  0
POINT
  5
16BB
330
B97
100
AcDbEntity
  8
Defpoints
 62
     0
100
AcDbPoint
 10
586.0144889104623
 20
-319.5556583977697
 30
0.0
  0
POINT
  5
16BC
330
B97
100
AcDbEntity
  8
Defpoints
 62
     0
100
AcDbPoint
 10
586.0144889104623
 20
-436.5373076871635
 30
0.0
  0
ENDBLK
  5
BA2
330
B97
100
AcDbEntity
  8
0
100
AcDbBlockEnd
  0
BLOCK
  5
BAE
330
BA4
100
AcDbEntity
  8
0
100
AcDbBlockBegin
  2
*D3
 70
     1
 10
0.0
 20
0.0
 30
0.0
  3
*D3
  1

  0
LINE
  5
16C6
330
BA4
100
AcDbEntity
  8
SIZE
 62
     0
370
    -2
100
AcDbLine
 10
-289.9855110895382
 20
519.2886459369541
 30
0.0
 11
-381.0765739426713
 21
519.2886459369541
 31
0.0
  0
LINE
  5
16C7
330
BA4
100
AcDbEntity
  8
SIZE
 62
     0
370
    -2
100
AcDbLine
 10
-330.9855110895246
 20
-319.5556583977947
 30
0.0
 11
-381.0765739426715
 21
-319.5556583977947
 31
0.0
  0
LINE
  5
16C8
330
BA4
100
AcDbEntity
  8
SIZE
 62
     0
370
    -2
100
AcDbLine
 10
-376.0765739426714
 20
509.2886459369537
 30
0.0
 11
-376.0765739426715
 21
-309.5556583977947
 31
0.0
  0
INSERT
  5
16C9
330
BA4
100
AcDbEntity
  8
SIZE
 62
     0
370
    -2
100
AcDbBlockReference
  2
_OPEN30
 10
-376.0765739426714
 20
519.2886459369541
 30
0.0
 41
10.0
 42
10.0
 43
10.0
 50
90.0
  0
INSERT
  5
16CA
330
BA4
100
AcDbEntity
  8
SIZE
 62
     0
370
    -2
100
AcDbBlockReference
  2
_OPEN30
 10
-376.0765739426715
 20
-319.5556583977947
 30
0.0
 41
10.0
 42
10.0
 43
10.0
 50
270.0
  0
MTEXT
  5
16CB
330
BA4
100
AcDbEntity
  8
SIZE
 62
     0
100
AcDbMText
 10
-386.0765739426715
 20
99.8664937695797
 30
0.0
 40
10.0
 41
0.0
 71
     5
 72
     1
  1
\A1;839
 11
0.0000000000000001
 21
1.0
 31
0.0
 73
     1
 44
1.0
1001
ACAD
1000
MTEXTBEGIN
1070
    73
1070
     1
1070
    44
1040
1.0
1070
    74
1070
     0
1000
MTEXTEND
  0
POINT
  5
16CC
330
BA4
100
AcDbEntity
  8
Defpoints
 62
     0
100
AcDbPoint
 10
-284.9855110895382
 20
519.2886459369541
 30
0.0
  0
POINT
  5
16CD
330
BA4
100
AcDbEntity
  8
Defpoints
 62
     0
100
AcDbPoint
 10
-325.9855110895246
 20
-319.5556583977947
 30
0.0
  0
POINT
  5
16CE
330
BA4
100
AcDbEntity
  8
Defpoints
 62
     0
100
AcDbPoint
 10
-376.0765739426715
 20
-319.5556583977947
 30
0.0
  0
ENDBLK
  5
BAF
330
BA4
100
AcDbEntity
  8
0
100
AcDbBlockEnd
  0
BLOCK
  5
C0B
330
C0A
100
AcDbEntity
  8
0
100
AcDbBlockBegin
  2
_DOTBLANK
 70
     0
 10
0.0
 20
0.0
 30
0.0
  3
_DOTBLANK
  1

  0
CIRCLE
  5
C0C
330
C0A
100
AcDbEntity
  8
0
  6
Continuous
 62
     7
100
AcDbCircle
 10
0.0
 20
0.0
 30
0.0
 40
0.5
  0
LINE
  5
C0D
330
C0A
100
AcDbEntity
  8
0
  6
Continuous
 62
     7
100
AcDbLine
 10
-0.5
 20
0.0
 30
0.0
 11
-1.0
 21
0.0
 31
0.0
  0
ENDBLK
  5
C0E
330
C0A
100
AcDbEntity
  8
0
100
AcDbBlockEnd
  0
BLOCK
  5
17D6
330
17D4
100
AcDbEntity
  8
0
100
AcDbBlockBegin
  2
GENAXEH
 70
     0
 10
0.0
 20
0.0
 30
0.0
  3
GENAXEH
  1

  0
LINE
  5
17D5
330
17D4
100
AcDbEntity
  8
0
100
AcDbLine
 10
-1.0
 20
0.0
 30
0.0
 11
1.0
 21
0.0
 31
0.0
  0
ENDBLK
  5
17D7
330
17D4
100
AcDbEntity
  8
0
100
AcDbBlockEnd
  0
BLOCK
  5
1938
330
1937
100
AcDbEntity
  8
0
100
AcDbBlockBegin
  2
*D6
 70
     1
 10
0.0
 20
0.0
 30
0.0
  3
*D6
  1

  0
LINE
  5
193A
330
1937
100
AcDbEntity
  8
SIZE
 62
     0
370
    -2
100
AcDbLine
 10
996.4346699659632
 20
-346.5119693281392
 30
0.0
 11
996.4346699659632
 21
-397.6458762804644
 31
0.0
  0
LINE
  5
193B
330
1937
100
AcDbEntity
  8
SIZE
 62
     0
370
    -2
100
AcDbLine
 10
1872.434669965944
 20
-346.5119693281392
 30
0.0
 11
1872.434669965944
 21
-397.6458762804644
 31
0.0
  0
LINE
  5
193C
330
1937
100
AcDbEntity
  8
SIZE
 62
     0
370
    -2
100
AcDbLine
 10
1016.434669965963
 20
-387.6458762804645
 30
0.0
 11
1852.434669965944
 21
-387.6458762804645
 31
0.0
  0
INSERT
  5
193D
330
1937
100
AcDbEntity
  8
SIZE
 62
     0
370
    -2
100
AcDbBlockReference
  2
_OPEN30
 10
996.4346699659632
 20
-387.6458762804645
 30
0.0
 41
20.0
 42
20.0
 43
20.0
 50
180.0
  0
INSERT
  5
193E
330
1937
100
AcDbEntity
  8
SIZE
 62
     0
370
    -2
100
AcDbBlockReference
  2
_OPEN30
 10
1872.434669965944
 20
-387.6458762804645
 30
0.0
 41
20.0
 42
20.0
 43
20.0
  0
MTEXT
  5
193F
330
1937
100
AcDbEntity
  8
SIZE
 62
     0
100
AcDbMText
 10
1434.434669965954
 20
-367.6458762804645
 30
0.0
 40
20.0
 41
0.0
 71
     5
 72
     1
  1
\A1;876
 73
     1
 44
1.0
1001
ACAD
1000
MTEXTBEGIN
1070
    73
1070
     1
1070
    44
1040
1.0
1070
    74
1070
     0
1000
MTEXTEND
  0
POINT
  5
1940
330
1937
100
AcDbEntity
  8
Defpoints
 62
     0
100
AcDbPoint
 10
996.4346699659632
 20
-336.5119693281392
 30
0.0
  0
POINT
  5
1941
330
1937
100
AcDbEntity
  8
Defpoints
 62
     0
100
AcDbPoint
 10
1872.434669965944
 20
-336.5119693281392
 30
0.0
  0
POINT
  5
1942
330
1937
100
AcDbEntity
  8
Defpoints
 62
     0
100
AcDbPoint
 10
1872.434669965944
 20
-387.6458762804645
 30
0.0
  0
ENDBLK
  5
1939
330
1937
100
AcDbEntity
  8
0
100
AcDbBlockEnd
  0
BLOCK
  5
1945
330
1944
100
AcDbEntity
  8
0
100
AcDbBlockBegin
  2
*D7
 70
     1
 10
0.0
 20
0.0
 30
0.0
  3
*D7
  1

  0
LINE
  5
1947
330
1944
100
AcDbEntity
  8
SIZE
 62
     0
370
    -2
100
AcDbLine
 10
978.4346699659426
 20
-333.011969328139
 30
0.0
 11
978.4346699659426
 21
-442.1831528996071
 31
0.0
  0
LINE
  5
1948
330
1944
100
AcDbEntity
  8
SIZE
 62
     0
370
    -2
100
AcDbLine
 10
1890.434669965943
 20
-333.011969328139
 30
0.0
 11
1890.434669965943
 21
-442.1831528996071
 31
0.0
  0
LINE
  5
1949
330
1944
100
AcDbEntity
  8
SIZE
 62
     0
370
    -2
100
AcDbLine
 10
998.4346699659427
 20
-432.183152899607
 30
0.0
 11
1870.434669965943
 21
-432.183152899607
 31
0.0
  0
INSERT
  5
194A
330
1944
100
AcDbEntity
  8
SIZE
 62
     0
370
    -2
100
AcDbBlockReference
  2
_OPEN30
 10
978.4346699659426
 20
-432.183152899607
 30
0.0
 41
20.0
 42
20.0
 43
20.0
 50
180.0
  0
INSERT
  5
194B
330
1944
100
AcDbEntity
  8
SIZE
 62
     0
370
    -2
100
AcDbBlockReference
  2
_OPEN30
 10
1890.434669965943
 20
-432.183152899607
 30
0.0
 41
20.0
 42
20.0
 43
20.0
  0
MTEXT
  5
194C
330
1944
100
AcDbEntity
  8
SIZE
 62
     0
100
AcDbMText
 10
1434.434669965943
 20
-412.1831528996071
 30
0.0
 40
20.0
 41
0.0
 71
     5
 72
     1
  1
\A1;912
 73
     1
 44
1.0
1001
ACAD
1000
MTEXTBEGIN
1070
    73
1070
     1
1070
    44
1040
1.0
1070
    74
1070
     0
1000
MTEXTEND
  0
POINT
  5
194D
330
1944
100
AcDbEntity
  8
Defpoints
 62
     0
100
AcDbPoint
 10
978.4346699659426
 20
-323.011969328139
 30
0.0
  0
POINT
  5
194E
330
1944
100
AcDbEntity
  8
Defpoints
 62
     0
100
AcDbPoint
 10
1890.434669965943
 20
-323.011969328139
 30
0.0
  0
POINT
  5
194F
330
1944
100
AcDbEntity
  8
Defpoints
 62
     0
100
AcDbPoint
 10
1890.434669965943
 20
-432.183152899607
 30
0.0
  0
ENDBLK
  5
1946
330
1944
100
AcDbEntity
  8
0
100
AcDbBlockEnd
  0
BLOCK
  5
1956
330
1955
100
AcDbEntity
  8
0
100
AcDbBlockBegin
  2
*D8
 70
     1
 10
0.0
 20
0.0
 30
0.0
  3
*D8
  1

  0
LINE
  5
1958
330
1955
100
AcDbEntity
  8
SIZE
 62
     0
370
    -2
100
AcDbLine
 10
1002.934669965941
 20
515.8630589847083
 30
0.0
 11
918.0388972567808
 21
515.8630589847083
 31
0.0
  0
LINE
  5
1959
330
1955
100
AcDbEntity
  8
SIZE
 62
     0
370
    -2
100
AcDbLine
 10
968.4346699659426
 20
-323.0119693281388
 30
0.0
 11
918.0388972567804
 21
-323.0119693281388
 31
0.0
  0
LINE
  5
195A
330
1955
100
AcDbEntity
  8
SIZE
 62
     0
370
    -2
100
AcDbLine
 10
928.0388972567807
 20
495.8630589847083
 30
0.0
 11
928.0388972567804
 21
-303.0119693281388
 31
0.0
  0
INSERT
  5
195B
330
1955
100
AcDbEntity
  8
SIZE
 62
     0
370
    -2
100
AcDbBlockReference
  2
_OPEN30
 10
928.0388972567807
 20
515.8630589847083
 30
0.0
 41
20.0
 42
20.0
 43
20.0
 50
90.0
  0
INSERT
  5
195C
330
1955
100
AcDbEntity
  8
SIZE
 62
     0
370
    -2
100
AcDbBlockReference
  2
_OPEN30
 10
928.0388972567804
 20
-323.0119693281388
 30
0.0
 41
20.0
 42
20.0
 43
20.0
 50
270.0
  0
MTEXT
  5
195D
330
1955
100
AcDbEntity
  8
SIZE
 62
     0
100
AcDbMText
 10
908.0388972567803
 20
96.42554482828494
 30
0.0
 40
20.0
 41
0.0
 71
     5
 72
     1
  1
\A1;839
 11
0.0000000000000001
 21
1.0
 31
0.0
 73
     1
 44
1.0
1001
ACAD
1000
MTEXTBEGIN
1070
    73
1070
     1
1070
    44
1040
1.0
1070
    74
1070
     0
1000
MTEXTEND
  0
POINT
  5
195E
330
1955
100
AcDbEntity
  8
Defpoints
 62
     0
100
AcDbPoint
 10
1012.934669965941
 20
515.8630589847083
 30
0.0
  0
POINT
  5
195F
330
1955
100
AcDbEntity
  8
Defpoints
 62
     0
100
AcDbPoint
 10
978.4346699659426
 20
-323.0119693281388
 30
0.0
  0
POINT
  5
1960
330
1955
100
AcDbEntity
  8
Defpoints
 62
     0
100
AcDbPoint
 10
928.0388972567804
 20
-323.0119693281388
 30
0.0
  0
ENDBLK
  5
1957
330
1955
100
AcDbEntity
  8
0
100
AcDbBlockEnd
  0
BLOCK
  5
1DA0
330
1D9F
100
AcDbEntity
  8
0
100
AcDbBlockBegin
  2
*D9
 70
     1
 10
0.0
 20
0.0
 30
0.0
  3
*D9
  1

  0
LINE
  5
1DA2
330
1D9F
100
AcDbEntity
  8
SIZE
 62
     0
370
    -2
100
AcDbLine
 10
2762.327006929457
 20
511.8793116688855
 30
0.0
 11
2714.385851848158
 21
511.8793116688855
 31
0.0
  0
LINE
  5
1DA3
330
1D9F
100
AcDbEntity
  8
SIZE
 62
     0
370
    -2
100
AcDbLine
 10
2762.327006929457
 20
22.87931166888563
 30
0.0
 11
2714.385851848158
 21
22.87931166888565
 31
0.0
  0
LINE
  5
1DA4
330
1D9F
100
AcDbEntity
  8
SIZE
 62
     0
370
    -2
100
AcDbLine
 10
2724.385851848158
 20
491.8793116688853
 30
0.0
 11
2724.385851848158
 21
42.87931166888564
 31
0.0
  0
INSERT
  5
1DA5
330
1D9F
100
AcDbEntity
  8
SIZE
 62
     0
370
    -2
100
AcDbBlockReference
  2
_OPEN30
 10
2724.385851848158
 20
511.8793116688855
 30
0.0
 41
20.0
 42
20.0
 43
20.0
 50
90.0
  0
INSERT
  5
1DA6
330
1D9F
100
AcDbEntity
  8
SIZE
 62
     0
370
    -2
100
AcDbBlockReference
  2
_OPEN30
 10
2724.385851848158
 20
22.87931166888565
 30
0.0
 41
20.0
 42
20.0
 43
20.0
 50
270.0
  0
MTEXT
  5
1DA7
330
1D9F
100
AcDbEntity
  8
SIZE
 62
     0
100
AcDbMText
 10
2704.385851848158
 20
267.379311668886
 30
0.0
 40
20.0
 41
0.0
 71
     5
 72
     1
  1
\A1;489
 11
0.0000000000000001
 21
1.0
 31
0.0
 73
     1
 44
1.0
1001
ACAD
1000
MTEXTBEGIN
1070
    73
1070
     1
1070
    44
1040
1.0
1070
    74
1070
     0
1000
MTEXTEND
  0
POINT
  5
1DA8
330
1D9F
100
AcDbEntity
  8
Defpoints
 62
     0
100
AcDbPoint
 10
2772.327006929457
 20
511.8793116688855
 30
0.0
  0
POINT
  5
1DA9
330
1D9F
100
AcDbEntity
  8
Defpoints
 62
     0
100
AcDbPoint
 10
2772.327006929457
 20
22.87931166888563
 30
0.0
  0
POINT
  5
1DAA
330
1D9F
100
AcDbEntity
  8
Defpoints
 62
     0
100
AcDbPoint
 10
2724.385851848158
 20
22.87931166888565
 30
0.0
  0
ENDBLK
  5
1DA1
330
1D9F
100
AcDbEntity
  8
0
100
AcDbBlockEnd
  0
BLOCK
  5
1DAD
330
1DAC
100
AcDbEntity
  8
0
100
AcDbBlockBegin
  2
*D10
 70
     1
 10
0.0
 20
0.0
 30
0.0
  3
*D10
  1

  0
LINE
  5
1DAF
330
1DAC
100
AcDbEntity
  8
SIZE
 62
     0
370
    -2
100
AcDbLine
 10
2762.327006929457
 20
22.87931166888563
 30
0.0
 11
2714.385851848158
 21
22.87931166888565
 31
0.0
  0
LINE
  5
1DB0
330
1DAC
100
AcDbEntity
  8
SIZE
 62
     0
370
    -2
100
AcDbLine
 10
2762.327005936793
 20
-475.1206883311142
 30
0.0
 11
2714.385851848158
 21
-475.1206883311142
 31
0.0
  0
LINE
  5
1DB1
330
1DAC
100
AcDbEntity
  8
SIZE
 62
     0
370
    -2
100
AcDbLine
 10
2724.385851848158
 20
2.879311668885647
 30
0.0
 11
2724.385851848158
 21
-455.1206883311142
 31
0.0
  0
INSERT
  5
1DB2
330
1DAC
100
AcDbEntity
  8
SIZE
 62
     0
370
    -2
100
AcDbBlockReference
  2
_OPEN30
 10
2724.385851848158
 20
22.87931166888565
 30
0.0
 41
20.0
 42
20.0
 43
20.0
 50
90.0
  0
INSERT
  5
1DB3
330
1DAC
100
AcDbEntity
  8
SIZE
 62
     0
370
    -2
100
AcDbBlockReference
  2
_OPEN30
 10
2724.385851848158
 20
-475.1206883311142
 30
0.0
 41
20.0
 42
20.0
 43
20.0
 50
270.0
  0
MTEXT
  5
1DB4
330
1DAC
100
AcDbEntity
  8
SIZE
 62
     0
100
AcDbMText
 10
2704.385851848158
 20
-226.1206883311138
 30
0.0
 40
20.0
 41
0.0
 71
     5
 72
     1
  1
\A1;498
 11
0.0000000000000001
 21
1.0
 31
0.0
 73
     1
 44
1.0
1001
ACAD
1000
MTEXTBEGIN
1070
    73
1070
     1
1070
    44
1040
1.0
1070
    74
1070
     0
1000
MTEXTEND
  0
POINT
  5
1DB5
330
1DAC
100
AcDbEntity
  8
Defpoints
 62
     0
100
AcDbPoint
 10
2772.327006929457
 20
22.87931166888563
 30
0.0
  0
POINT
  5
1DB6
330
1DAC
100
AcDbEntity
  8
Defpoints
 62
     0
100
AcDbPoint
 10
2772.327005936793
 20
-475.1206883311142
 30
0.0
  0
POINT
  5
1DB7
330
1DAC
100
AcDbEntity
  8
Defpoints
 62
     0
100
AcDbPoint
 10
2724.385851848158
 20
-475.1206883311142
 30
0.0
  0
ENDBLK
  5
1DAE
330
1DAC
100
AcDbEntity
  8
0
100
AcDbBlockEnd
  0
BLOCK
  5
1DBA
330
1DB9
100
AcDbEntity
  8
0
100
AcDbBlockBegin
  2
*D11
 70
     1
 10
0.0
 20
0.0
 30
0.0
  3
*D11
  1

  0
LINE
  5
1DBC
330
1DB9
100
AcDbEntity
  8
SIZE
 62
     0
370
    -2
100
AcDbLine
 10
2762.327005936793
 20
-475.1206883311142
 30
0.0
 11
2714.385851848158
 21
-475.1206883311142
 31
0.0
  0
LINE
  5
1DBD
330
1DB9
100
AcDbEntity
  8
SIZE
 62
     0
370
    -2
100
AcDbLine
 10
2798.827005690001
 20
-720.5069770222894
 30
0.0
 11
2714.385851848158
 21
-720.5069770222894
 31
0.0
  0
LINE
  5
1DBE
330
1DB9
100
AcDbEntity
  8
SIZE
 62
     0
370
    -2
100
AcDbLine
 10
2724.385851848158
 20
-495.1206883311142
 30
0.0
 11
2724.385851848158
 21
-700.5069770222895
 31
0.0
  0
INSERT
  5
1DBF
330
1DB9
100
AcDbEntity
  8
SIZE
 62
     0
370
    -2
100
AcDbBlockReference
  2
_OPEN30
 10
2724.385851848158
 20
-475.1206883311142
 30
0.0
 41
20.0
 42
20.0
 43
20.0
 50
90.0
  0
INSERT
  5
1DC0
330
1DB9
100
AcDbEntity
  8
SIZE
 62
     0
370
    -2
100
AcDbBlockReference
  2
_OPEN30
 10
2724.385851848158
 20
-720.5069770222894
 30
0.0
 41
20.0
 42
20.0
 43
20.0
 50
270.0
  0
MTEXT
  5
1DC1
330
1DB9
100
AcDbEntity
  8
SIZE
 62
     0
100
AcDbMText
 10
2704.385851848158
 20
-597.8138326767012
 30
0.0
 40
20.0
 41
0.0
 71
     5
 72
     1
  1
\A1;245.5
 11
0.0000000000000001
 21
1.0
 31
0.0
 73
     1
 44
1.0
1001
ACAD
1000
MTEXTBEGIN
1070
    73
1070
     1
1070
    44
1040
1.0
1070
    74
1070
     0
1000
MTEXTEND
  0
POINT
  5
1DC2
330
1DB9
100
AcDbEntity
  8
Defpoints
 62
     0
100
AcDbPoint
 10
2772.327005936793
 20
-475.1206883311142
 30
0.0
  0
POINT
  5
1DC3
330
1DB9
100
AcDbEntity
  8
Defpoints
 62
     0
100
AcDbPoint
 10
2808.82700569
 20
-720.5069770222894
 30
0.0
  0
POINT
  5
1DC4
330
1DB9
100
AcDbEntity
  8
Defpoints
 62
     0
100
AcDbPoint
 10
2724.385851848158
 20
-720.5069770222894
 30
0.0
  0
ENDBLK
  5
1DBB
330
1DB9
100
AcDbEntity
  8
0
100
AcDbBlockEnd
  0
BLOCK
  5
1DC7
330
1DC6
100
AcDbEntity
  8
0
100
AcDbBlockBegin
  2
*D12
 70
     1
 10
0.0
 20
0.0
 30
0.0
  3
*D12
  1

  0
LINE
  5
1DC9
330
1DC6
100
AcDbEntity
  8
SIZE
 62
     0
370
    -2
100
AcDbLine
 10
3282.327005936794
 20
-475.1206888068273
 30
0.0
 11
3339.925708835958
 21
-475.1206888068273
 31
0.0
  0
LINE
  5
1DCA
330
1DC6
100
AcDbEntity
  8
SIZE
 62
     0
370
    -2
100
AcDbLine
 10
3276.82700564273
 20
-767.5069623831862
 30
0.0
 11
3339.925708835958
 21
-767.5069623831863
 31
0.0
  0
LINE
  5
1DCB
330
1DC6
100
AcDbEntity
  8
SIZE
 62
     0
370
    -2
100
AcDbLine
 10
3329.925708835958
 20
-495.1206888068274
 30
0.0
 11
3329.925708835958
 21
-747.5069623831862
 31
0.0
  0
INSERT
  5
1DCC
330
1DC6
100
AcDbEntity
  8
SIZE
 62
     0
370
    -2
100
AcDbBlockReference
  2
_OPEN30
 10
3329.925708835958
 20
-475.1206888068273
 30
0.0
 41
20.0
 42
20.0
 43
20.0
 50
90.0
  0
INSERT
  5
1DCD
330
1DC6
100
AcDbEntity
  8
SIZE
 62
     0
370
    -2
100
AcDbBlockReference
  2
_OPEN30
 10
3329.925708835958
 20
-767.5069623831863
 30
0.0
 41
20.0
 42
20.0
 43
20.0
 50
270.0
  0
MTEXT
  5
1DCE
330
1DC6
100
AcDbEntity
  8
SIZE
 62
     0
100
AcDbMText
 10
3309.925708835958
 20
-621.3138255950062
 30
0.0
 40
20.0
 41
0.0
 71
     5
 72
     1
  1
\A1;292.5
 11
0.0000000000000001
 21
1.0
 31
0.0
 73
     1
 44
1.0
1001
ACAD
1000
MTEXTBEGIN
1070
    73
1070
     1
1070
    44
1040
1.0
1070
    74
1070
     0
1000
MTEXTEND
  0
POINT
  5
1DCF
330
1DC6
100
AcDbEntity
  8
Defpoints
 62
     0
100
AcDbPoint
 10
3272.327005936794
 20
-475.1206888068273
 30
0.0
  0
POINT
  5
1DD0
330
1DC6
100
AcDbEntity
  8
Defpoints
 62
     0
100
AcDbPoint
 10
3266.82700564273
 20
-767.5069623831862
 30
0.0
  0
POINT
  5
1DD1
330
1DC6
100
AcDbEntity
  8
Defpoints
 62
     0
100
AcDbPoint
 10
3329.925708835958
 20
-767.5069623831863
 30
0.0
  0
ENDBLK
  5
1DC8
330
1DC6
100
AcDbEntity
  8
0
100
AcDbBlockEnd
  0
BLOCK
  5
1DD4
330
1DD3
100
AcDbEntity
  8
0
100
AcDbBlockBegin
  2
*D13
 70
     1
 10
0.0
 20
0.0
 30
0.0
  3
*D13
  1

  0
LINE
  5
1DD6
330
1DD3
100
AcDbEntity
  8
SIZE
 62
     0
370
    -2
100
AcDbLine
 10
3224.827005636696
 20
-773.5069604404216
 30
0.0
 11
2666.929781465833
 21
-773.5069604404214
 31
0.0
  0
LINE
  5
1DD7
330
1DD3
100
AcDbEntity
  8
SIZE
 62
     0
370
    -2
100
AcDbLine
 10
2768.827006885381
 20
520.8793111971979
 30
0.0
 11
2666.929781465833
 21
520.8793111971979
 31
0.0
  0
LINE
  5
1DD8
330
1DD3
100
AcDbEntity
  8
SIZE
 62
     0
370
    -2
100
AcDbLine
 10
2676.929781465833
 20
-753.5069604404214
 30
0.0
 11
2676.929781465833
 21
500.8793111971979
 31
0.0
  0
INSERT
  5
1DD9
330
1DD3
100
AcDbEntity
  8
SIZE
 62
     0
370
    -2
100
AcDbBlockReference
  2
_OPEN30
 10
2676.929781465833
 20
-773.5069604404214
 30
0.0
 41
20.0
 42
20.0
 43
20.0
 50
270.0
  0
INSERT
  5
1DDA
330
1DD3
100
AcDbEntity
  8
SIZE
 62
     0
370
    -2
100
AcDbBlockReference
  2
_OPEN30
 10
2676.929781465833
 20
520.8793111971979
 30
0.0
 41
20.0
 42
20.0
 43
20.0
 50
90.0
  0
MTEXT
  5
1DDB
330
1DD3
100
AcDbEntity
  8
SIZE
 62
     0
100
AcDbMText
 10
2656.929781465833
 20
-126.3138246216114
 30
0.0
 40
20.0
 41
0.0
 71
     5
 72
     1
  1
\A1;1294.5
 11
0.0000000000000001
 21
1.0
 31
0.0
 73
     1
 44
1.0
1001
ACAD
1000
MTEXTBEGIN
1070
    73
1070
     1
1070
    44
1040
1.0
1070
    74
1070
     0
1000
MTEXTEND
  0
POINT
  5
1DDC
330
1DD3
100
AcDbEntity
  8
Defpoints
 62
     0
100
AcDbPoint
 10
3234.827005636696
 20
-773.5069604404216
 30
0.0
  0
POINT
  5
1DDD
330
1DD3
100
AcDbEntity
  8
Defpoints
 62
     0
100
AcDbPoint
 10
2778.827006885381
 20
520.8793111971979
 30
0.0
  0
POINT
  5
1DDE
330
1DD3
100
AcDbEntity
  8
Defpoints
 62
     0
100
AcDbPoint
 10
2676.929781465833
 20
520.8793111971979
 30
0.0
  0
ENDBLK
  5
1DD5
330
1DD3
100
AcDbEntity
  8
0
100
AcDbBlockEnd
  0
BLOCK
  5
1DE1
330
1DE0
100
AcDbEntity
  8
0
100
AcDbBlockBegin
  2
*D14
 70
     1
 10
0.0
 20
0.0
 30
0.0
  3
*D14
  1

  0
LINE
  5
1DE3
330
1DE0
100
AcDbEntity
  8
SIZE
 62
     0
370
    -2
100
AcDbLine
 10
2822.32700569
 20
-744.0069770222894
 30
0.0
 11
2822.32700569
 21
-845.8272182761897
 31
0.0
  0
LINE
  5
1DE4
330
1DE0
100
AcDbEntity
  8
SIZE
 62
     0
370
    -2
100
AcDbLine
 10
3253.32700564273
 20
-791.0069623831861
 30
0.0
 11
3253.32700564273
 21
-845.8272182761897
 31
0.0
  0
LINE
  5
1DE5
330
1DE0
100
AcDbEntity
  8
SIZE
 62
     0
370
    -2
100
AcDbLine
 10
2842.32700569
 20
-835.8272182761897
 30
0.0
 11
3233.32700564273
 21
-835.8272182761897
 31
0.0
  0
INSERT
  5
1DE6
330
1DE0
100
AcDbEntity
  8
SIZE
 62
     0
370
    -2
100
AcDbBlockReference
  2
_OPEN30
 10
2822.32700569
 20
-835.8272182761897
 30
0.0
 41
20.0
 42
20.0
 43
20.0
 50
180.0
  0
INSERT
  5
1DE7
330
1DE0
100
AcDbEntity
  8
SIZE
 62
     0
370
    -2
100
AcDbBlockReference
  2
_OPEN30
 10
3253.32700564273
 20
-835.8272182761897
 30
0.0
 41
20.0
 42
20.0
 43
20.0
  0
MTEXT
  5
1DE8
330
1DE0
100
AcDbEntity
  8
SIZE
 62
     0
100
AcDbMText
 10
3037.827005666365
 20
-815.8272182761896
 30
0.0
 40
20.0
 41
0.0
 71
     5
 72
     1
  1
\A1;431
 73
     1
 44
1.0
1001
ACAD
1000
MTEXTBEGIN
1070
    73
1070
     1
1070
    44
1040
1.0
1070
    74
1070
     0
1000
MTEXTEND
  0
POINT
  5
1DE9
330
1DE0
100
AcDbEntity
  8
Defpoints
 62
     0
100
AcDbPoint
 10
2822.32700569
 20
-734.0069770222894
 30
0.0
  0
POINT
  5
1DEA
330
1DE0
100
AcDbEntity
  8
Defpoints
 62
     0
100
AcDbPoint
 10
3253.32700564273
 20
-781.0069623831862
 30
0.0
  0
POINT
  5
1DEB
330
1DE0
100
AcDbEntity
  8
Defpoints
 62
     0
100
AcDbPoint
 10
3253.32700564273
 20
-835.8272182761897
 30
0.0
  0
ENDBLK
  5
1DE2
330
1DE0
100
AcDbEntity
  8
0
100
AcDbBlockEnd
  0
BLOCK
  5
1DEE
330
1DED
100
AcDbEntity
  8
0
100
AcDbBlockBegin
  2
*D15
 70
     1
 10
0.0
 20
0.0
 30
0.0
  3
*D15
  1

  0
LINE
  5
1DF0
330
1DED
100
AcDbEntity
  8
SIZE
 62
     0
370
    -2
100
AcDbLine
 10
2785.827006929457
 20
535.3793116688855
 30
0.0
 11
2785.827006929457
 21
573.8673980388328
 31
0.0
  0
LINE
  5
1DF1
330
1DED
100
AcDbEntity
  8
SIZE
 62
     0
370
    -2
100
AcDbLine
 10
3258.827006929458
 20
535.3793111931723
 30
0.0
 11
3258.827006929458
 21
573.8673980388328
 31
0.0
  0
LINE
  5
1DF2
330
1DED
100
AcDbEntity
  8
SIZE
 62
     0
370
    -2
100
AcDbLine
 10
2805.827006929457
 20
563.8673980388327
 30
0.0
 11
3238.827006929457
 21
563.8673980388327
 31
0.0
  0
INSERT
  5
1DF3
330
1DED
100
AcDbEntity
  8
SIZE
 62
     0
370
    -2
100
AcDbBlockReference
  2
_OPEN30
 10
2785.827006929457
 20
563.8673980388327
 30
0.0
 41
20.0
 42
20.0
 43
20.0
 50
180.0
  0
INSERT
  5
1DF4
330
1DED
100
AcDbEntity
  8
SIZE
 62
     0
370
    -2
100
AcDbBlockReference
  2
_OPEN30
 10
3258.827006929458
 20
563.8673980388327
 30
0.0
 41
20.0
 42
20.0
 43
20.0
  0
MTEXT
  5
1DF5
330
1DED
100
AcDbEntity
  8
SIZE
 62
     0
100
AcDbMText
 10
3022.327006929457
 20
583.8673980388327
 30
0.0
 40
20.0
 41
0.0
 71
     5
 72
     1
  1
\A1;473
 73
     1
 44
1.0
1001
ACAD
1000
MTEXTBEGIN
1070
    73
1070
     1
1070
    44
1040
1.0
1070
    74
1070
     0
1000
MTEXTEND
  0
POINT
  5
1DF6
330
1DED
100
AcDbEntity
  8
Defpoints
 62
     0
100
AcDbPoint
 10
2785.827006929457
 20
525.3793116688853
 30
0.0
  0
POINT
  5
1DF7
330
1DED
100
AcDbEntity
  8
Defpoints
 62
     0
100
AcDbPoint
 10
3258.827006929458
 20
525.3793111931725
 30
0.0
  0
POINT
  5
1DF8
330
1DED
100
AcDbEntity
  8
Defpoints
 62
     0
100
AcDbPoint
 10
3258.827006929458
 20
563.8673980388327
 30
0.0
  0
ENDBLK
  5
1DEF
330
1DED
100
AcDbEntity
  8
0
100
AcDbBlockEnd
  0
BLOCK
  5
1DFB
330
1DFA
100
AcDbEntity
  8
0
100
AcDbBlockBegin
  2
*D16
 70
     1
 10
0.0
 20
0.0
 30
0.0
  3
*D16
  1

  0
LINE
  5
1DFD
330
1DFA
100
AcDbEntity
  8
SIZE
 62
     0
370
    -2
100
AcDbLine
 10
3266.827006937505
 20
529.8793111851266
 30
0.0
 11
3266.827006937505
 21
615.7576775999244
 31
0.0
  0
LINE
  5
1DFE
330
1DFA
100
AcDbEntity
  8
SIZE
 62
     0
370
    -2
100
AcDbLine
 10
2777.827006937503
 20
529.8793116769315
 30
0.0
 11
2777.827006937503
 21
615.7576775999244
 31
0.0
  0
LINE
  5
1DFF
330
1DFA
100
AcDbEntity
  8
SIZE
 62
     0
370
    -2
100
AcDbLine
 10
3246.827006937503
 20
605.7576775999242
 30
0.0
 11
2797.827006937503
 21
605.7576775999242
 31
0.0
  0
INSERT
  5
1E00
330
1DFA
100
AcDbEntity
  8
SIZE
 62
     0
370
    -2
100
AcDbBlockReference
  2
_OPEN30
 10
3266.827006937505
 20
605.7576775999242
 30
0.0
 41
20.0
 42
20.0
 43
20.0
  0
INSERT
  5
1E01
330
1DFA
100
AcDbEntity
  8
SIZE
 62
     0
370
    -2
100
AcDbBlockReference
  2
_OPEN30
 10
2777.827006937503
 20
605.7576775999242
 30
0.0
 41
20.0
 42
20.0
 43
20.0
 50
180.0
  0
MTEXT
  5
1E02
330
1DFA
100
AcDbEntity
  8
SIZE
 62
     0
100
AcDbMText
 10
3022.327006937503
 20
625.7576775999242
 30
0.0
 40
20.0
 41
0.0
 71
     5
 72
     1
  1
\A1;489
 73
     1
 44
1.0
1001
ACAD
1000
MTEXTBEGIN
1070
    73
1070
     1
1070
    44
1040
1.0
1070
    74
1070
     0
1000
MTEXTEND
  0
POINT
  5
1E03
330
1DFA
100
AcDbEntity
  8
Defpoints
 62
     0
100
AcDbPoint
 10
3266.827006937505
 20
519.8793111851266
 30
0.0
  0
POINT
  5
1E04
330
1DFA
100
AcDbEntity
  8
Defpoints
 62
     0
100
AcDbPoint
 10
2777.827006937503
 20
519.8793116769317
 30
0.0
  0
POINT
  5
1E05
330
1DFA
100
AcDbEntity
  8
Defpoints
 62
     0
100
AcDbPoint
 10
2777.827006937503
 20
605.7576775999242
 30
0.0
  0
ENDBLK
  5
1DFC
330
1DFA
100
AcDbEntity
  8
0
100
AcDbBlockEnd
  0
BLOCK
  5
1EF3
330
1EF2
100
AcDbEntity
  8
0
100
AcDbBlockBegin
  2
*D18
 70
     1
 10
0.0
 20
0.0
 30
0.0
  3
*D18
  1

  0
LINE
  5
1EF4
330
1EF2
100
AcDbEntity
  8
SIZE
 62
     0
370
    -2
100
AcDbLine
 10
3352.299687335182
 20
-1825.337722079987
 30
0.0
 11
3352.299687335182
 21
-1742.735475135779
 31
0.0
  0
LINE
  5
1EF5
330
1EF2
100
AcDbEntity
  8
SIZE
 62
     0
370
    -2
100
AcDbLine
 10
3816.299687335181
 20
-1825.337722079986
 30
0.0
 11
3816.299687335181
 21
-1742.735475135779
 31
0.0
  0
LINE
  5
1EF6
330
1EF2
100
AcDbEntity
  8
SIZE
 62
     0
370
    -2
100
AcDbLine
 10
3362.299687335182
 20
-1747.735475135779
 30
0.0
 11
3806.299687335182
 21
-1747.735475135779
 31
0.0
  0
INSERT
  5
1EF7
330
1EF2
100
AcDbEntity
  8
SIZE
 62
     0
370
    -2
100
AcDbBlockReference
  2
_OPEN30
 10
3352.299687335182
 20
-1747.735475135779
 30
0.0
 41
10.0
 42
10.0
 43
10.0
 50
180.0
  0
INSERT
  5
1EF8
330
1EF2
100
AcDbEntity
  8
SIZE
 62
     0
370
    -2
100
AcDbBlockReference
  2
_OPEN30
 10
3816.299687335181
 20
-1747.735475135779
 30
0.0
 41
10.0
 42
10.0
 43
10.0
  0
MTEXT
  5
1EF9
330
1EF2
100
AcDbEntity
  8
SIZE
 62
     0
100
AcDbMText
 10
3584.299687335182
 20
-1737.735475135779
 30
0.0
 40
10.0
 41
0.0
 71
     5
 72
     1
  1
\A1;464
 73
     1
 44
1.0
1001
ACAD
1000
MTEXTBEGIN
1070
    73
1070
     1
1070
    44
1040
1.0
1070
    74
1070
     0
1000
MTEXTEND
  0
POINT
  5
1EFA
330
1EF2
100
AcDbEntity
  8
Defpoints
 62
     0
100
AcDbPoint
 10
3352.299687335182
 20
-1830.337722079987
 30
0.0
  0
POINT
  5
1EFB
330
1EF2
100
AcDbEntity
  8
Defpoints
 62
     0
100
AcDbPoint
 10
3816.299687335181
 20
-1830.337722079986
 30
0.0
  0
POINT
  5
1EFC
330
1EF2
100
AcDbEntity
  8
Defpoints
 62
     0
100
AcDbPoint
 10
3816.299687335181
 20
-1747.735475135779
 30
0.0
  0
ENDBLK
  5
1EFD
330
1EF2
100
AcDbEntity
  8
0
100
AcDbBlockEnd
  0
BLOCK
  5
1EFF
330
1EFE
100
AcDbEntity
  8
0
100
AcDbBlockBegin
  2
*D19
 70
     1
 10
0.0
 20
0.0
 30
0.0
  3
*D19
  1

  0
LINE
  5
1F00
330
1EFE
100
AcDbEntity
  8
SIZE
 62
     0
370
    -2
100
AcDbLine
 10
3347.299687335182
 20
-1830.337722079987
 30
0.0
 11
3285.87937302037
 21
-1830.337722079987
 31
0.0
  0
LINE
  5
1F01
330
1EFE
100
AcDbEntity
  8
SIZE
 62
     0
370
    -2
100
AcDbLine
 10
3347.299687335182
 20
-2412.337722079987
 30
0.0
 11
3285.87937302037
 21
-2412.337722079987
 31
0.0
  0
LINE
  5
1F02
330
1EFE
100
AcDbEntity
  8
SIZE
 62
     0
370
    -2
100
AcDbLine
 10
3290.879373020369
 20
-1840.337722079986
 30
0.0
 11
3290.879373020369
 21
-2402.337722079987
 31
0.0
  0
INSERT
  5
1F03
330
1EFE
100
AcDbEntity
  8
SIZE
 62
     0
370
    -2
100
AcDbBlockReference
  2
_OPEN30
 10
3290.879373020369
 20
-1830.337722079987
 30
0.0
 41
10.0
 42
10.0
 43
10.0
 50
90.0
  0
INSERT
  5
1F04
330
1EFE
100
AcDbEntity
  8
SIZE
 62
     0
370
    -2
100
AcDbBlockReference
  2
_OPEN30
 10
3290.879373020369
 20
-2412.337722079987
 30
0.0
 41
10.0
 42
10.0
 43
10.0
 50
270.0
  0
MTEXT
  5
1F05
330
1EFE
100
AcDbEntity
  8
SIZE
 62
     0
100
AcDbMText
 10
3280.87937302037
 20
-2121.337722079986
 30
0.0
 40
10.0
 41
0.0
 71
     5
 72
     1
  1
\A1;582
 11
0.0000000000000001
 21
1.0
 31
0.0
 73
     1
 44
1.0
1001
ACAD
1000
MTEXTBEGIN
1070
    73
1070
     1
1070
    44
1040
1.0
1070
    74
1070
     0
1000
MTEXTEND
  0
POINT
  5
1F06
330
1EFE
100
AcDbEntity
  8
Defpoints
 62
     0
100
AcDbPoint
 10
3352.299687335182
 20
-1830.337722079987
 30
0.0
  0
POINT
  5
1F07
330
1EFE
100
AcDbEntity
  8
Defpoints
 62
     0
100
AcDbPoint
 10
3352.299687335182
 20
-2412.337722079987
 30
0.0
  0
POINT
  5
1F08
330
1EFE
100
AcDbEntity
  8
Defpoints
 62
     0
100
AcDbPoint
 10
3290.879373020369
 20
-2412.337722079987
 30
0.0
  0
ENDBLK
  5
1F09
330
1EFE
100
AcDbEntity
  8
0
100
AcDbBlockEnd
  0
BLOCK
  5
1F0B
330
1F0A
100
AcDbEntity
  8
0
100
AcDbBlockBegin
  2
*D20
 70
     1
 10
0.0
 20
0.0
 30
0.0
  3
*D20
  1

  0
LINE
  5
1F0C
330
1F0A
100
AcDbEntity
  8
SIZE
 62
     0
370
    -2
100
AcDbLine
 10
3347.299687335182
 20
-2412.337722079987
 30
0.0
 11
3285.237929455933
 21
-2412.337722079987
 31
0.0
  0
LINE
  5
1F0D
330
1F0A
100
AcDbEntity
  8
SIZE
 62
     0
370
    -2
100
AcDbLine
 10
3347.299687335182
 20
-2994.337722079987
 30
0.0
 11
3285.237929455933
 21
-2994.337722079987
 31
0.0
  0
LINE
  5
1F0E
330
1F0A
100
AcDbEntity
  8
SIZE
 62
     0
370
    -2
100
AcDbLine
 10
3290.237929455933
 20
-2422.337722079987
 30
0.0
 11
3290.237929455933
 21
-2984.337722079987
 31
0.0
  0
INSERT
  5
1F0F
330
1F0A
100
AcDbEntity
  8
SIZE
 62
     0
370
    -2
100
AcDbBlockReference
  2
_OPEN30
 10
3290.237929455933
 20
-2412.337722079987
 30
0.0
 41
10.0
 42
10.0
 43
10.0
 50
90.0
  0
INSERT
  5
1F10
330
1F0A
100
AcDbEntity
  8
SIZE
 62
     0
370
    -2
100
AcDbBlockReference
  2
_OPEN30
 10
3290.237929455933
 20
-2994.337722079987
 30
0.0
 41
10.0
 42
10.0
 43
10.0
 50
270.0
  0
MTEXT
  5
1F11
330
1F0A
100
AcDbEntity
  8
SIZE
 62
     0
100
AcDbMText
 10
3280.237929455934
 20
-2703.337722079986
 30
0.0
 40
10.0
 41
0.0
 71
     5
 72
     1
  1
\A1;582
 11
0.0000000000000001
 21
1.0
 31
0.0
 73
     1
 44
1.0
1001
ACAD
1000
MTEXTBEGIN
1070
    73
1070
     1
1070
    44
1040
1.0
1070
    74
1070
     0
1000
MTEXTEND
  0
POINT
  5
1F12
330
1F0A
100
AcDbEntity
  8
Defpoints
 62
     0
100
AcDbPoint
 10
3352.299687335182
 20
-2412.337722079987
 30
0.0
  0
POINT
  5
1F13
330
1F0A
100
AcDbEntity
  8
Defpoints
 62
     0
100
AcDbPoint
 10
3352.299687335182
 20
-2994.337722079987
 30
0.0
  0
POINT
  5
1F14
330
1F0A
100
AcDbEntity
  8
Defpoints
 62
     0
100
AcDbPoint
 10
3290.237929455933
 20
-2994.337722079987
 30
0.0
  0
ENDBLK
  5
1F15
330
1F0A
100
AcDbEntity
  8
0
100
AcDbBlockEnd
  0
BLOCK
  5
1F17
330
1F16
100
AcDbEntity
  8
0
100
AcDbBlockBegin
  2
*D21
 70
     1
 10
0.0
 20
0.0
 30
0.0
  3
*D21
  1

  0
LINE
  5
1F18
330
1F16
100
AcDbEntity
  8
SIZE
 62
     0
370
    -2
100
AcDbLine
 10
3824.299687335182
 20
-1802.337722079985
 30
0.0
 11
3824.299687335182
 21
-1707.433427235093
 31
0.0
  0
LINE
  5
1F19
330
1F16
100
AcDbEntity
  8
SIZE
 62
     0
370
    -2
100
AcDbLine
 10
3344.299687335182
 20
-1802.337722079987
 30
0.0
 11
3344.299687335182
 21
-1707.433427235093
 31
0.0
  0
LINE
  5
1F1A
330
1F16
100
AcDbEntity
  8
SIZE
 62
     0
370
    -2
100
AcDbLine
 10
3814.299687335182
 20
-1712.433427235093
 30
0.0
 11
3354.299687335182
 21
-1712.433427235093
 31
0.0
  0
INSERT
  5
1F1B
330
1F16
100
AcDbEntity
  8
SIZE
 62
     0
370
    -2
100
AcDbBlockReference
  2
_OPEN30
 10
3824.299687335182
 20
-1712.433427235093
 30
0.0
 41
10.0
 42
10.0
 43
10.0
  0
INSERT
  5
1F1C
330
1F16
100
AcDbEntity
  8
SIZE
 62
     0
370
    -2
100
AcDbBlockReference
  2
_OPEN30
 10
3344.299687335182
 20
-1712.433427235093
 30
0.0
 41
10.0
 42
10.0
 43
10.0
 50
180.0
  0
MTEXT
  5
1F1D
330
1F16
100
AcDbEntity
  8
SIZE
 62
     0
100
AcDbMText
 10
3584.299687335182
 20
-1702.433427235093
 30
0.0
 40
10.0
 41
0.0
 71
     5
 72
     1
  1
\A1;480
 73
     1
 44
1.0
1001
ACAD
1000
MTEXTBEGIN
1070
    73
1070
     1
1070
    44
1040
1.0
1070
    74
1070
     0
1000
MTEXTEND
  0
POINT
  5
1F1E
330
1F16
100
AcDbEntity
  8
Defpoints
 62
     0
100
AcDbPoint
 10
3824.299687335182
 20
-1807.337722079985
 30
0.0
  0
POINT
  5
1F1F
330
1F16
100
AcDbEntity
  8
Defpoints
 62
     0
100
AcDbPoint
 10
3344.299687335182
 20
-1807.337722079987
 30
0.0
  0
POINT
  5
1F20
330
1F16
100
AcDbEntity
  8
Defpoints
 62
     0
100
AcDbPoint
 10
3344.299687335182
 20
-1712.433427235093
 30
0.0
  0
ENDBLK
  5
1F21
330
1F16
100
AcDbEntity
  8
0
100
AcDbBlockEnd
  0
BLOCK
  5
1F23
330
1F22
100
AcDbEntity
  8
0
100
AcDbBlockBegin
  2
*D22
 70
     1
 10
0.0
 20
0.0
 30
0.0
  3
*D22
  1

  0
LINE
  5
1F24
330
1F22
100
AcDbEntity
  8
SIZE
 62
     0
370
    -2
100
AcDbLine
 10
3345.299687335181
 20
-1798.333989646529
 30
0.0
 11
3233.847402477543
 21
-1798.333989646529
 31
0.0
  0
LINE
  5
1F25
330
1F22
100
AcDbEntity
  8
SIZE
 62
     0
370
    -2
100
AcDbLine
 10
3339.299687335182
 20
-3009.337722079987
 30
0.0
 11
3233.847402477543
 21
-3009.337722079987
 31
0.0
  0
LINE
  5
1F26
330
1F22
100
AcDbEntity
  8
SIZE
 62
     0
370
    -2
100
AcDbLine
 10
3238.847402477543
 20
-1808.333989646529
 30
0.0
 11
3238.847402477543
 21
-2999.337722079987
 31
0.0
  0
INSERT
  5
1F27
330
1F22
100
AcDbEntity
  8
SIZE
 62
     0
370
    -2
100
AcDbBlockReference
  2
_OPEN30
 10
3238.847402477543
 20
-1798.333989646529
 30
0.0
 41
10.0
 42
10.0
 43
10.0
 50
90.0
  0
INSERT
  5
1F28
330
1F22
100
AcDbEntity
  8
SIZE
 62
     0
370
    -2
100
AcDbBlockReference
  2
_OPEN30
 10
3238.847402477543
 20
-3009.337722079987
 30
0.0
 41
10.0
 42
10.0
 43
10.0
 50
270.0
  0
MTEXT
  5
1F29
330
1F22
100
AcDbEntity
  8
SIZE
 62
     0
100
AcDbMText
 10
3228.847402477543
 20
-2403.835855863257
 30
0.0
 40
10.0
 41
0.0
 71
     5
 72
     1
  1
\A1;1211
 11
0.0000000000000001
 21
1.0
 31
0.0
 73
     1
 44
1.0
1001
ACAD
1000
MTEXTBEGIN
1070
    73
1070
     1
1070
    44
1040
1.0
1070
    74
1070
     0
1000
MTEXTEND
  0
POINT
  5
1F2A
330
1F22
100
AcDbEntity
  8
Defpoints
 62
     0
100
AcDbPoint
 10
3350.299687335182
 20
-1798.333989646529
 30
0.0
  0
POINT
  5
1F2B
330
1F22
100
AcDbEntity
  8
Defpoints
 62
     0
100
AcDbPoint
 10
3344.299687335182
 20
-3009.337722079987
 30
0.0
  0
POINT
  5
1F2C
330
1F22
100
AcDbEntity
  8
Defpoints
 62
     0
100
AcDbPoint
 10
3238.847402477543
 20
-3009.337722079987
 30
0.0
  0
ENDBLK
  5
1F2D
330
1F22
100
AcDbEntity
  8
0
100
AcDbBlockEnd
  0
BLOCK
  5
225F
330
225E
100
AcDbEntity
  8
0
100
AcDbBlockBegin
  2
*D24
 70
     1
 10
0.0
 20
0.0
 30
0.0
  3
*D24
  1

  0
LINE
  5
2261
330
225E
100
AcDbEntity
  8
SIZE
 62
     0
370
    -2
100
AcDbLine
 10
4087.963059207441
 20
465.2006637228039
 30
0.0
 11
4087.963059207441
 21
547.8029106670117
 31
0.0
  0
LINE
  5
2262
330
225E
100
AcDbEntity
  8
SIZE
 62
     0
370
    -2
100
AcDbLine
 10
4551.96305920744
 20
465.2006637228048
 30
0.0
 11
4551.96305920744
 21
547.8029106670117
 31
0.0
  0
LINE
  5
2263
330
225E
100
AcDbEntity
  8
SIZE
 62
     0
370
    -2
100
AcDbLine
 10
4097.963059207442
 20
542.8029106670116
 30
0.0
 11
4541.963059207441
 21
542.8029106670116
 31
0.0
  0
INSERT
  5
2264
330
225E
100
AcDbEntity
  8
SIZE
 62
     0
370
    -2
100
AcDbBlockReference
  2
_OPEN30
 10
4087.963059207441
 20
542.8029106670116
 30
0.0
 41
10.0
 42
10.0
 43
10.0
 50
180.0
  0
INSERT
  5
2265
330
225E
100
AcDbEntity
  8
SIZE
 62
     0
370
    -2
100
AcDbBlockReference
  2
_OPEN30
 10
4551.96305920744
 20
542.8029106670116
 30
0.0
 41
10.0
 42
10.0
 43
10.0
  0
MTEXT
  5
2266
330
225E
100
AcDbEntity
  8
SIZE
 62
     0
100
AcDbMText
 10
4319.963059207442
 20
552.8029106670117
 30
0.0
 40
10.0
 41
0.0
 71
     5
 72
     1
  1
\A1;464
 73
     1
 44
1.0
1001
ACAD
1000
MTEXTBEGIN
1070
    73
1070
     1
1070
    44
1040
1.0
1070
    74
1070
     0
1000
MTEXTEND
  0
POINT
  5
2267
330
225E
100
AcDbEntity
  8
Defpoints
 62
     0
100
AcDbPoint
 10
4087.963059207441
 20
460.2006637228039
 30
0.0
  0
POINT
  5
2268
330
225E
100
AcDbEntity
  8
Defpoints
 62
     0
100
AcDbPoint
 10
4551.96305920744
 20
460.2006637228048
 30
0.0
  0
POINT
  5
2269
330
225E
100
AcDbEntity
  8
Defpoints
 62
     0
100
AcDbPoint
 10
4551.96305920744
 20
542.8029106670116
 30
0.0
  0
ENDBLK
  5
2260
330
225E
100
AcDbEntity
  8
0
100
AcDbBlockEnd
  0
BLOCK
  5
226B
330
226A
100
AcDbEntity
  8
0
100
AcDbBlockBegin
  2
*D25
 70
     1
 10
0.0
 20
0.0
 30
0.0
  3
*D25
  1

  0
LINE
  5
226D
330
226A
100
AcDbEntity
  8
SIZE
 62
     0
370
    -2
100
AcDbLine
 10
4082.963059207441
 20
460.2006637228039
 30
0.0
 11
4021.542744892629
 21
460.2006637228039
 31
0.0
  0
LINE
  5
226E
330
226A
100
AcDbEntity
  8
SIZE
 62
     0
370
    -2
100
AcDbLine
 10
4082.963059207441
 20
-121.7993362771965
 30
0.0
 11
4021.542744892629
 21
-121.7993362771965
 31
0.0
  0
LINE
  5
226F
330
226A
100
AcDbEntity
  8
SIZE
 62
     0
370
    -2
100
AcDbLine
 10
4026.542744892629
 20
450.2006637228039
 30
0.0
 11
4026.542744892629
 21
-111.7993362771965
 31
0.0
  0
INSERT
  5
2270
330
226A
100
AcDbEntity
  8
SIZE
 62
     0
370
    -2
100
AcDbBlockReference
  2
_OPEN30
 10
4026.542744892629
 20
460.2006637228039
 30
0.0
 41
10.0
 42
10.0
 43
10.0
 50
90.0
  0
INSERT
  5
2271
330
226A
100
AcDbEntity
  8
SIZE
 62
     0
370
    -2
100
AcDbBlockReference
  2
_OPEN30
 10
4026.542744892629
 20
-121.7993362771965
 30
0.0
 41
10.0
 42
10.0
 43
10.0
 50
270.0
  0
MTEXT
  5
2272
330
226A
100
AcDbEntity
  8
SIZE
 62
     0
100
AcDbMText
 10
4016.542744892629
 20
169.2006637228044
 30
0.0
 40
10.0
 41
0.0
 71
     5
 72
     1
  1
\A1;582
 11
0.0000000000000001
 21
1.0
 31
0.0
 73
     1
 44
1.0
1001
ACAD
1000
MTEXTBEGIN
1070
    73
1070
     1
1070
    44
1040
1.0
1070
    74
1070
     0
1000
MTEXTEND
  0
POINT
  5
2273
330
226A
100
AcDbEntity
  8
Defpoints
 62
     0
100
AcDbPoint
 10
4087.963059207441
 20
460.2006637228039
 30
0.0
  0
POINT
  5
2274
330
226A
100
AcDbEntity
  8
Defpoints
 62
     0
100
AcDbPoint
 10
4087.963059207441
 20
-121.7993362771965
 30
0.0
  0
POINT
  5
2275
330
226A
100
AcDbEntity
  8
Defpoints
 62
     0
100
AcDbPoint
 10
4026.542744892629
 20
-121.7993362771965
 30
0.0
  0
ENDBLK
  5
226C
330
226A
100
AcDbEntity
  8
0
100
AcDbBlockEnd
  0
BLOCK
  5
2277
330
2276
100
AcDbEntity
  8
0
100
AcDbBlockBegin
  2
*D26
 70
     1
 10
0.0
 20
0.0
 30
0.0
  3
*D26
  1

  0
LINE
  5
2279
330
2276
100
AcDbEntity
  8
SIZE
 62
     0
370
    -2
100
AcDbLine
 10
4082.963059207441
 20
-121.7993362771965
 30
0.0
 11
4020.901301328193
 21
-121.7993362771965
 31
0.0
  0
LINE
  5
227A
330
2276
100
AcDbEntity
  8
SIZE
 62
     0
370
    -2
100
AcDbLine
 10
4082.963059207441
 20
-703.7993362771965
 30
0.0
 11
4020.901301328193
 21
-703.7993362771965
 31
0.0
  0
LINE
  5
227B
330
2276
100
AcDbEntity
  8
SIZE
 62
     0
370
    -2
100
AcDbLine
 10
4025.901301328193
 20
-131.7993362771965
 30
0.0
 11
4025.901301328193
 21
-693.7993362771964
 31
0.0
  0
INSERT
  5
227C
330
2276
100
AcDbEntity
  8
SIZE
 62
     0
370
    -2
100
AcDbBlockReference
  2
_OPEN30
 10
4025.901301328193
 20
-121.7993362771965
 30
0.0
 41
10.0
 42
10.0
 43
10.0
 50
90.0
  0
INSERT
  5
227D
330
2276
100
AcDbEntity
  8
SIZE
 62
     0
370
    -2
100
AcDbBlockReference
  2
_OPEN30
 10
4025.901301328193
 20
-703.7993362771965
 30
0.0
 41
10.0
 42
10.0
 43
10.0
 50
270.0
  0
MTEXT
  5
227E
330
2276
100
AcDbEntity
  8
SIZE
 62
     0
100
AcDbMText
 10
4015.901301328193
 20
-412.7993362771958
 30
0.0
 40
10.0
 41
0.0
 71
     5
 72
     1
  1
\A1;582
 11
0.0000000000000001
 21
1.0
 31
0.0
 73
     1
 44
1.0
1001
ACAD
1000
MTEXTBEGIN
1070
    73
1070
     1
1070
    44
1040
1.0
1070
    74
1070
     0
1000
MTEXTEND
  0
POINT
  5
227F
330
2276
100
AcDbEntity
  8
Defpoints
 62
     0
100
AcDbPoint
 10
4087.963059207441
 20
-121.7993362771965
 30
0.0
  0
POINT
  5
2280
330
2276
100
AcDbEntity
  8
Defpoints
 62
     0
100
AcDbPoint
 10
4087.963059207441
 20
-703.7993362771965
 30
0.0
  0
POINT
  5
2281
330
2276
100
AcDbEntity
  8
Defpoints
 62
     0
100
AcDbPoint
 10
4025.901301328193
 20
-703.7993362771965
 30
0.0
  0
ENDBLK
  5
2278
330
2276
100
AcDbEntity
  8
0
100
AcDbBlockEnd
  0
BLOCK
  5
2283
330
2282
100
AcDbEntity
  8
0
100
AcDbBlockBegin
  2
*D27
 70
     1
 10
0.0
 20
0.0
 30
0.0
  3
*D27
  1

  0
LINE
  5
2285
330
2282
100
AcDbEntity
  8
SIZE
 62
     0
370
    -2
100
AcDbLine
 10
4559.963059207442
 20
488.2006637228057
 30
0.0
 11
4559.963059207442
 21
583.1049585676971
 31
0.0
  0
LINE
  5
2286
330
2282
100
AcDbEntity
  8
SIZE
 62
     0
370
    -2
100
AcDbLine
 10
4079.963059207442
 20
488.2006637228039
 30
0.0
 11
4079.963059207442
 21
583.1049585676971
 31
0.0
  0
LINE
  5
2287
330
2282
100
AcDbEntity
  8
SIZE
 62
     0
370
    -2
100
AcDbLine
 10
4549.963059207441
 20
578.1049585676972
 30
0.0
 11
4089.963059207441
 21
578.1049585676972
 31
0.0
  0
INSERT
  5
2288
330
2282
100
AcDbEntity
  8
SIZE
 62
     0
370
    -2
100
AcDbBlockReference
  2
_OPEN30
 10
4559.963059207442
 20
578.1049585676972
 30
0.0
 41
10.0
 42
10.0
 43
10.0
  0
INSERT
  5
2289
330
2282
100
AcDbEntity
  8
SIZE
 62
     0
370
    -2
100
AcDbBlockReference
  2
_OPEN30
 10
4079.963059207442
 20
578.1049585676972
 30
0.0
 41
10.0
 42
10.0
 43
10.0
 50
180.0
  0
MTEXT
  5
228A
330
2282
100
AcDbEntity
  8
SIZE
 62
     0
100
AcDbMText
 10
4319.963059207442
 20
588.1049585676971
 30
0.0
 40
10.0
 41
0.0
 71
     5
 72
     1
  1
\A1;480
 73
     1
 44
1.0
1001
ACAD
1000
MTEXTBEGIN
1070
    73
1070
     1
1070
    44
1040
1.0
1070
    74
1070
     0
1000
MTEXTEND
  0
POINT
  5
228B
330
2282
100
AcDbEntity
  8
Defpoints
 62
     0
100
AcDbPoint
 10
4559.963059207442
 20
483.2006637228057
 30
0.0
  0
POINT
  5
228C
330
2282
100
AcDbEntity
  8
Defpoints
 62
     0
100
AcDbPoint
 10
4079.963059207442
 20
483.2006637228039
 30
0.0
  0
POINT
  5
228D
330
2282
100
AcDbEntity
  8
Defpoints
 62
     0
100
AcDbPoint
 10
4079.963059207442
 20
578.1049585676972
 30
0.0
  0
ENDBLK
  5
2284
330
2282
100
AcDbEntity
  8
0
100
AcDbBlockEnd
  0
BLOCK
  5
228F
330
228E
100
AcDbEntity
  8
0
100
AcDbBlockBegin
  2
*D28
 70
     1
 10
0.0
 20
0.0
 30
0.0
  3
*D28
  1

  0
LINE
  5
2291
330
228E
100
AcDbEntity
  8
SIZE
 62
     0
370
    -2
100
AcDbLine
 10
4080.963059207442
 20
492.204396156262
 30
0.0
 11
3969.510774349803
 21
492.204396156262
 31
0.0
  0
LINE
  5
2292
330
228E
100
AcDbEntity
  8
SIZE
 62
     0
370
    -2
100
AcDbLine
 10
4074.963059207441
 20
-718.7993362771964
 30
0.0
 11
3969.510774349803
 21
-718.7993362771964
 31
0.0
  0
LINE
  5
2293
330
228E
100
AcDbEntity
  8
SIZE
 62
     0
370
    -2
100
AcDbLine
 10
3974.510774349803
 20
482.2043961562619
 30
0.0
 11
3974.510774349803
 21
-708.7993362771965
 31
0.0
  0
INSERT
  5
2294
330
228E
100
AcDbEntity
  8
SIZE
 62
     0
370
    -2
100
AcDbBlockReference
  2
_OPEN30
 10
3974.510774349803
 20
492.204396156262
 30
0.0
 41
10.0
 42
10.0
 43
10.0
 50
90.0
  0
INSERT
  5
2295
330
228E
100
AcDbEntity
  8
SIZE
 62
     0
370
    -2
100
AcDbBlockReference
  2
_OPEN30
 10
3974.510774349803
 20
-718.7993362771964
 30
0.0
 41
10.0
 42
10.0
 43
10.0
 50
270.0
  0
MTEXT
  5
2296
330
228E
100
AcDbEntity
  8
SIZE
 62
     0
100
AcDbMText
 10
3964.510774349803
 20
-113.2974700604666
 30
0.0
 40
10.0
 41
0.0
 71
     5
 72
     1
  1
\A1;1211
 11
0.0000000000000001
 21
1.0
 31
0.0
 73
     1
 44
1.0
1001
ACAD
1000
MTEXTBEGIN
1070
    73
1070
     1
1070
    44
1040
1.0
1070
    74
1070
     0
1000
MTEXTEND
  0
POINT
  5
2297
330
228E
100
AcDbEntity
  8
Defpoints
 62
     0
100
AcDbPoint
 10
4085.963059207442
 20
492.204396156262
 30
0.0
  0
POINT
  5
2298
330
228E
100
AcDbEntity
  8
Defpoints
 62
     0
100
AcDbPoint
 10
4079.963059207442
 20
-718.7993362771964
 30
0.0
  0
POINT
  5
2299
330
228E
100
AcDbEntity
  8
Defpoints
 62
     0
100
AcDbPoint
 10
3974.510774349803
 20
-718.7993362771964
 30
0.0
  0
ENDBLK
  5
2290
330
228E
100
AcDbEntity
  8
0
100
AcDbBlockEnd
  0
BLOCK
  5
229C
330
229B
100
AcDbEntity
  8
0
100
AcDbBlockBegin
  2
*D29
 70
     1
 10
0.0
 20
0.0
 30
0.0
  3
*D29
  1

  0
LINE
  5
229E
330
229B
100
AcDbEntity
  8
SIZE
 62
     0
370
    -2
100
AcDbLine
 10
4087.963059207441
 20
477.6907202843329
 30
0.0
 11
4087.963059207441
 21
542.8838318051096
 31
0.0
  0
LINE
  5
229F
330
229B
100
AcDbEntity
  8
SIZE
 62
     0
370
    -2
100
AcDbLine
 10
4551.96305920744
 20
477.6907202843329
 30
0.0
 11
4551.96305920744
 21
542.8838318051096
 31
0.0
  0
LINE
  5
22A0
330
229B
100
AcDbEntity
  8
SIZE
 62
     0
370
    -2
100
AcDbLine
 10
4107.963059207441
 20
532.8838318051095
 30
0.0
 11
4531.96305920744
 21
532.8838318051095
 31
0.0
  0
INSERT
  5
22A1
330
229B
100
AcDbEntity
  8
SIZE
 62
     0
370
    -2
100
AcDbBlockReference
  2
_OPEN30
 10
4087.963059207441
 20
532.8838318051095
 30
0.0
 41
20.0
 42
20.0
 43
20.0
 50
180.0
  0
INSERT
  5
22A2
330
229B
100
AcDbEntity
  8
SIZE
 62
     0
370
    -2
100
AcDbBlockReference
  2
_OPEN30
 10
4551.96305920744
 20
532.8838318051095
 30
0.0
 41
20.0
 42
20.0
 43
20.0
  0
MTEXT
  5
22A3
330
229B
100
AcDbEntity
  8
SIZE
 62
     0
100
AcDbMText
 10
4319.963059207441
 20
552.8838318051096
 30
0.0
 40
20.0
 41
0.0
 71
     5
 72
     1
  1
\A1;464
 73
     1
 44
1.0
1001
ACAD
1000
MTEXTBEGIN
1070
    73
1070
     1
1070
    44
1040
1.0
1070
    74
1070
     0
1000
MTEXTEND
  0
POINT
  5
22A4
330
229B
100
AcDbEntity
  8
Defpoints
 62
     0
100
AcDbPoint
 10
4087.963059207441
 20
467.6907202843328
 30
0.0
  0
POINT
  5
22A5
330
229B
100
AcDbEntity
  8
Defpoints
 62
     0
100
AcDbPoint
 10
4551.96305920744
 20
467.6907202843328
 30
0.0
  0
POINT
  5
22A6
330
229B
100
AcDbEntity
  8
Defpoints
 62
     0
100
AcDbPoint
 10
4551.96305920744
 20
532.8838318051095
 30
0.0
  0
ENDBLK
  5
229D
330
229B
100
AcDbEntity
  8
0
100
AcDbBlockEnd
  0
BLOCK
  5
22A9
330
22A8
100
AcDbEntity
  8
0
100
AcDbBlockBegin
  2
*D30
 70
     1
 10
0.0
 20
0.0
 30
0.0
  3
*D30
  1

  0
LINE
  5
22AB
330
22A8
100
AcDbEntity
  8
SIZE
 62
     0
370
    -2
100
AcDbLine
 10
4079.963059207442
 20
493.2006637228039
 30
0.0
 11
4079.963059207442
 21
587.0433988268866
 31
0.0
  0
LINE
  5
22AC
330
22A8
100
AcDbEntity
  8
SIZE
 62
     0
370
    -2
100
AcDbLine
 10
4559.963059207442
 20
493.2006637228038
 30
0.0
 11
4559.963059207442
 21
587.0433988268866
 31
0.0
  0
LINE
  5
22AD
330
22A8
100
AcDbEntity
  8
SIZE
 62
     0
370
    -2
100
AcDbLine
 10
4099.963059207442
 20
577.0433988268865
 30
0.0
 11
4539.963059207441
 21
577.0433988268865
 31
0.0
  0
INSERT
  5
22AE
330
22A8
100
AcDbEntity
  8
SIZE
 62
     0
370
    -2
100
AcDbBlockReference
  2
_OPEN30
 10
4079.963059207442
 20
577.0433988268865
 30
0.0
 41
20.0
 42
20.0
 43
20.0
 50
180.0
  0
INSERT
  5
22AF
330
22A8
100
AcDbEntity
  8
SIZE
 62
     0
370
    -2
100
AcDbBlockReference
  2
_OPEN30
 10
4559.963059207442
 20
577.0433988268865
 30
0.0
 41
20.0
 42
20.0
 43
20.0
  0
MTEXT
  5
22B0
330
22A8
100
AcDbEntity
  8
SIZE
 62
     0
100
AcDbMText
 10
4319.963059207442
 20
597.0433988268865
 30
0.0
 40
20.0
 41
0.0
 71
     5
 72
     1
  1
\A1;480
 73
     1
 44
1.0
1001
ACAD
1000
MTEXTBEGIN
1070
    73
1070
     1
1070
    44
1040
1.0
1070
    74
1070
     0
1000
MTEXTEND
  0
POINT
  5
22B1
330
22A8
100
AcDbEntity
  8
Defpoints
 62
     0
100
AcDbPoint
 10
4079.963059207442
 20
483.2006637228039
 30
0.0
  0
POINT
  5
22B2
330
22A8
100
AcDbEntity
  8
Defpoints
 62
     0
100
AcDbPoint
 10
4559.963059207442
 20
483.2006637228039
 30
0.0
  0
POINT
  5
22B3
330
22A8
100
AcDbEntity
  8
Defpoints
 62
     0
100
AcDbPoint
 10
4559.963059207442
 20
577.0433988268865
 30
0.0
  0
ENDBLK
  5
22AA
330
22A8
100
AcDbEntity
  8
0
100
AcDbBlockEnd
  0
BLOCK
  5
22B6
330
22B5
100
AcDbEntity
  8
0
100
AcDbBlockBegin
  2
*D31
 70
     1
 10
0.0
 20
0.0
 30
0.0
  3
*D31
  1

  0
LINE
  5
22B8
330
22B5
100
AcDbEntity
  8
SIZE
 62
     0
370
    -2
100
AcDbLine
 10
4071.463059207442
 20
460.2006637228039
 30
0.0
 11
4013.560062552921
 21
460.2006637228039
 31
0.0
  0
LINE
  5
22B9
330
22B5
100
AcDbEntity
  8
SIZE
 62
     0
370
    -2
100
AcDbLine
 10
4071.463059207442
 20
-121.7993362771965
 30
0.0
 11
4013.560062552921
 21
-121.7993362771965
 31
0.0
  0
LINE
  5
22BA
330
22B5
100
AcDbEntity
  8
SIZE
 62
     0
370
    -2
100
AcDbLine
 10
4023.560062552922
 20
440.2006637228039
 30
0.0
 11
4023.560062552922
 21
-101.7993362771965
 31
0.0
  0
INSERT
  5
22BB
330
22B5
100
AcDbEntity
  8
SIZE
 62
     0
370
    -2
100
AcDbBlockReference
  2
_OPEN30
 10
4023.560062552922
 20
460.2006637228039
 30
0.0
 41
20.0
 42
20.0
 43
20.0
 50
90.0
  0
INSERT
  5
22BC
330
22B5
100
AcDbEntity
  8
SIZE
 62
     0
370
    -2
100
AcDbBlockReference
  2
_OPEN30
 10
4023.560062552922
 20
-121.7993362771965
 30
0.0
 41
20.0
 42
20.0
 43
20.0
 50
270.0
  0
MTEXT
  5
22BD
330
22B5
100
AcDbEntity
  8
SIZE
 62
     0
100
AcDbMText
 10
4003.560062552923
 20
169.2006637228043
 30
0.0
 40
20.0
 41
0.0
 71
     5
 72
     1
  1
\A1;582
 11
0.0000000000000001
 21
1.0
 31
0.0
 73
     1
 44
1.0
1001
ACAD
1000
MTEXTBEGIN
1070
    73
1070
     1
1070
    44
1040
1.0
1070
    74
1070
     0
1000
MTEXTEND
  0
POINT
  5
22BE
330
22B5
100
AcDbEntity
  8
Defpoints
 62
     0
100
AcDbPoint
 10
4081.463059207441
 20
460.2006637228039
 30
0.0
  0
POINT
  5
22BF
330
22B5
100
AcDbEntity
  8
Defpoints
 62
     0
100
AcDbPoint
 10
4081.463059207441
 20
-121.7993362771965
 30
0.0
  0
POINT
  5
22C0
330
22B5
100
AcDbEntity
  8
Defpoints
 62
     0
100
AcDbPoint
 10
4023.560062552922
 20
-121.7993362771965
 30
0.0
  0
ENDBLK
  5
22B7
330
22B5
100
AcDbEntity
  8
0
100
AcDbBlockEnd
  0
BLOCK
  5
22C3
330
22C2
100
AcDbEntity
  8
0
100
AcDbBlockBegin
  2
*D32
 70
     1
 10
0.0
 20
0.0
 30
0.0
  3
*D32
  1

  0
LINE
  5
22C5
330
22C2
100
AcDbEntity
  8
SIZE
 62
     0
370
    -2
100
AcDbLine
 10
4071.463059207442
 20
-121.7993362771965
 30
0.0
 11
4013.560062552921
 21
-121.7993362771965
 31
0.0
  0
LINE
  5
22C6
330
22C2
100
AcDbEntity
  8
SIZE
 62
     0
370
    -2
100
AcDbLine
 10
4071.463059207442
 20
-703.7993362771965
 30
0.0
 11
4013.560062552921
 21
-703.7993362771965
 31
0.0
  0
LINE
  5
22C7
330
22C2
100
AcDbEntity
  8
SIZE
 62
     0
370
    -2
100
AcDbLine
 10
4023.560062552922
 20
-141.7993362771965
 30
0.0
 11
4023.560062552922
 21
-683.7993362771965
 31
0.0
  0
INSERT
  5
22C8
330
22C2
100
AcDbEntity
  8
SIZE
 62
     0
370
    -2
100
AcDbBlockReference
  2
_OPEN30
 10
4023.560062552922
 20
-121.7993362771965
 30
0.0
 41
20.0
 42
20.0
 43
20.0
 50
90.0
  0
INSERT
  5
22C9
330
22C2
100
AcDbEntity
  8
SIZE
 62
     0
370
    -2
100
AcDbBlockReference
  2
_OPEN30
 10
4023.560062552922
 20
-703.7993362771965
 30
0.0
 41
20.0
 42
20.0
 43
20.0
 50
270.0
  0
MTEXT
  5
22CA
330
22C2
100
AcDbEntity
  8
SIZE
 62
     0
100
AcDbMText
 10
4003.560062552923
 20
-412.7993362771958
 30
0.0
 40
20.0
 41
0.0
 71
     5
 72
     1
  1
\A1;582
 11
0.0000000000000001
 21
1.0
 31
0.0
 73
     1
 44
1.0
1001
ACAD
1000
MTEXTBEGIN
1070
    73
1070
     1
1070
    44
1040
1.0
1070
    74
1070
     0
1000
MTEXTEND
  0
POINT
  5
22CB
330
22C2
100
AcDbEntity
  8
Defpoints
 62
     0
100
AcDbPoint
 10
4081.463059207441
 20
-121.7993362771965
 30
0.0
  0
POINT
  5
22CC
330
22C2
100
AcDbEntity
  8
Defpoints
 62
     0
100
AcDbPoint
 10
4081.463059207441
 20
-703.7993362771965
 30
0.0
  0
POINT
  5
22CD
330
22C2
100
AcDbEntity
  8
Defpoints
 62
     0
100
AcDbPoint
 10
4023.560062552922
 20
-703.7993362771965
 30
0.0
  0
ENDBLK
  5
22C4
330
22C2
100
AcDbEntity
  8
0
100
AcDbBlockEnd
  0
BLOCK
  5
22D0
330
22CF
100
AcDbEntity
  8
0
100
AcDbBlockBegin
  2
*D33
 70
     1
 10
0.0
 20
0.0
 30
0.0
  3
*D33
  1

  0
LINE
  5
22D2
330
22CF
100
AcDbEntity
  8
SIZE
 62
     0
370
    -2
100
AcDbLine
 10
4075.963059207441
 20
492.2041295308579
 30
0.0
 11
3962.667443209335
 21
492.204129530858
 31
0.0
  0
LINE
  5
22D3
330
22CF
100
AcDbEntity
  8
SIZE
 62
     0
370
    -2
100
AcDbLine
 10
4069.963059207442
 20
-718.7993362771964
 30
0.0
 11
3962.667443209335
 21
-718.7993362771964
 31
0.0
  0
LINE
  5
22D4
330
22CF
100
AcDbEntity
  8
SIZE
 62
     0
370
    -2
100
AcDbLine
 10
3972.667443209335
 20
472.2041295308579
 30
0.0
 11
3972.667443209335
 21
-698.7993362771965
 31
0.0
  0
INSERT
  5
22D5
330
22CF
100
AcDbEntity
  8
SIZE
 62
     0
370
    -2
100
AcDbBlockReference
  2
_OPEN30
 10
3972.667443209335
 20
492.2041295308579
 30
0.0
 41
20.0
 42
20.0
 43
20.0
 50
90.0
  0
INSERT
  5
22D6
330
22CF
100
AcDbEntity
  8
SIZE
 62
     0
370
    -2
100
AcDbBlockReference
  2
_OPEN30
 10
3972.667443209335
 20
-718.7993362771964
 30
0.0
 41
20.0
 42
20.0
 43
20.0
 50
270.0
  0
MTEXT
  5
22D7
330
22CF
100
AcDbEntity
  8
SIZE
 62
     0
100
AcDbMText
 10
3952.667443209334
 20
-113.2976033731686
 30
0.0
 40
20.0
 41
0.0
 71
     5
 72
     1
  1
\A1;1211
 11
0.0000000000000001
 21
1.0
 31
0.0
 73
     1
 44
1.0
1001
ACAD
1000
MTEXTBEGIN
1070
    73
1070
     1
1070
    44
1040
1.0
1070
    74
1070
     0
1000
MTEXTEND
  0
POINT
  5
22D8
330
22CF
100
AcDbEntity
  8
Defpoints
 62
     0
100
AcDbPoint
 10
4085.963059207442
 20
492.2041295308579
 30
0.0
  0
POINT
  5
22D9
330
22CF
100
AcDbEntity
  8
Defpoints
 62
     0
100
AcDbPoint
 10
4079.963059207442
 20
-718.7993362771964
 30
0.0
  0
POINT
  5
22DA
330
22CF
100
AcDbEntity
  8
Defpoints
 62
     0
100
AcDbPoint
 10
3972.667443209335
 20
-718.7993362771964
 30
0.0
  0
ENDBLK
  5
22D1
330
22CF
100
AcDbEntity
  8
0
100
AcDbBlockEnd
  0
BLOCK
  5
22DD
330
22DC
100
AcDbEntity
  8
0
100
AcDbBlockBegin
  2
*D34
 70
     1
 10
0.0
 20
0.0
 30
0.0
  3
*D34
  1

  0
LINE
  5
22DE
330
22DC
100
AcDbEntity
  8
SIZE
 62
     0
370
    -2
100
AcDbLine
 10
3352.299687335182
 20
-1825.337722079987
 30
0.0
 11
3352.299687335182
 21
-1742.735475135779
 31
0.0
  0
LINE
  5
22DF
330
22DC
100
AcDbEntity
  8
SIZE
 62
     0
370
    -2
100
AcDbLine
 10
3816.299687335181
 20
-1825.337722079986
 30
0.0
 11
3816.299687335181
 21
-1742.735475135779
 31
0.0
  0
LINE
  5
22E0
330
22DC
100
AcDbEntity
  8
SIZE
 62
     0
370
    -2
100
AcDbLine
 10
3362.299687335182
 20
-1747.735475135779
 30
0.0
 11
3806.299687335182
 21
-1747.735475135779
 31
0.0
  0
INSERT
  5
22E1
330
22DC
100
AcDbEntity
  8
SIZE
 62
     0
370
    -2
100
AcDbBlockReference
  2
_OPEN30
 10
3352.299687335182
 20
-1747.735475135779
 30
0.0
 41
10.0
 42
10.0
 43
10.0
 50
180.0
  0
INSERT
  5
22E2
330
22DC
100
AcDbEntity
  8
SIZE
 62
     0
370
    -2
100
AcDbBlockReference
  2
_OPEN30
 10
3816.299687335181
 20
-1747.735475135779
 30
0.0
 41
10.0
 42
10.0
 43
10.0
  0
MTEXT
  5
22E3
330
22DC
100
AcDbEntity
  8
SIZE
 62
     0
100
AcDbMText
 10
3584.299687335182
 20
-1737.735475135779
 30
0.0
 40
10.0
 41
0.0
 71
     5
 72
     1
  1
\A1;464
 73
     1
 44
1.0
1001
ACAD
1000
MTEXTBEGIN
1070
    73
1070
     1
1070
    44
1040
1.0
1070
    74
1070
     0
1000
MTEXTEND
  0
POINT
  5
22E4
330
22DC
100
AcDbEntity
  8
Defpoints
 62
     0
100
AcDbPoint
 10
3352.299687335182
 20
-1830.337722079987
 30
0.0
  0
POINT
  5
22E5
330
22DC
100
AcDbEntity
  8
Defpoints
 62
     0
100
AcDbPoint
 10
3816.299687335181
 20
-1830.337722079986
 30
0.0
  0
POINT
  5
22E6
330
22DC
100
AcDbEntity
  8
Defpoints
 62
     0
100
AcDbPoint
 10
3816.299687335181
 20
-1747.735475135779
 30
0.0
  0
ENDBLK
  5
22E7
330
22DC
100
AcDbEntity
  8
0
100
AcDbBlockEnd
  0
BLOCK
  5
22E9
330
22E8
100
AcDbEntity
  8
0
100
AcDbBlockBegin
  2
*D35
 70
     1
 10
0.0
 20
0.0
 30
0.0
  3
*D35
  1

  0
LINE
  5
22EA
330
22E8
100
AcDbEntity
  8
SIZE
 62
     0
370
    -2
100
AcDbLine
 10
3347.299687335182
 20
-1830.337722079987
 30
0.0
 11
3285.87937302037
 21
-1830.337722079987
 31
0.0
  0
LINE
  5
22EB
330
22E8
100
AcDbEntity
  8
SIZE
 62
     0
370
    -2
100
AcDbLine
 10
3347.299687335182
 20
-2412.337722079987
 30
0.0
 11
3285.87937302037
 21
-2412.337722079987
 31
0.0
  0
LINE
  5
22EC
330
22E8
100
AcDbEntity
  8
SIZE
 62
     0
370
    -2
100
AcDbLine
 10
3290.879373020369
 20
-1840.337722079986
 30
0.0
 11
3290.879373020369
 21
-2402.337722079987
 31
0.0
  0
INSERT
  5
22ED
330
22E8
100
AcDbEntity
  8
SIZE
 62
     0
370
    -2
100
AcDbBlockReference
  2
_OPEN30
 10
3290.879373020369
 20
-1830.337722079987
 30
0.0
 41
10.0
 42
10.0
 43
10.0
 50
90.0
  0
INSERT
  5
22EE
330
22E8
100
AcDbEntity
  8
SIZE
 62
     0
370
    -2
100
AcDbBlockReference
  2
_OPEN30
 10
3290.879373020369
 20
-2412.337722079987
 30
0.0
 41
10.0
 42
10.0
 43
10.0
 50
270.0
  0
MTEXT
  5
22EF
330
22E8
100
AcDbEntity
  8
SIZE
 62
     0
100
AcDbMText
 10
3280.87937302037
 20
-2121.337722079986
 30
0.0
 40
10.0
 41
0.0
 71
     5
 72
     1
  1
\A1;582
 11
0.0000000000000001
 21
1.0
 31
0.0
 73
     1
 44
1.0
1001
ACAD
1000
MTEXTBEGIN
1070
    73
1070
     1
1070
    44
1040
1.0
1070
    74
1070
     0
1000
MTEXTEND
  0
POINT
  5
22F0
330
22E8
100
AcDbEntity
  8
Defpoints
 62
     0
100
AcDbPoint
 10
3352.299687335182
 20
-1830.337722079987
 30
0.0
  0
POINT
  5
22F1
330
22E8
100
AcDbEntity
  8
Defpoints
 62
     0
100
AcDbPoint
 10
3352.299687335182
 20
-2412.337722079987
 30
0.0
  0
POINT
  5
22F2
330
22E8
100
AcDbEntity
  8
Defpoints
 62
     0
100
AcDbPoint
 10
3290.879373020369
 20
-2412.337722079987
 30
0.0
  0
ENDBLK
  5
22F3
330
22E8
100
AcDbEntity
  8
0
100
AcDbBlockEnd
  0
BLOCK
  5
22F5
330
22F4
100
AcDbEntity
  8
0
100
AcDbBlockBegin
  2
*D36
 70
     1
 10
0.0
 20
0.0
 30
0.0
  3
*D36
  1

  0
LINE
  5
22F6
330
22F4
100
AcDbEntity
  8
SIZE
 62
     0
370
    -2
100
AcDbLine
 10
3347.299687335182
 20
-2412.337722079987
 30
0.0
 11
3285.237929455933
 21
-2412.337722079987
 31
0.0
  0
LINE
  5
22F7
330
22F4
100
AcDbEntity
  8
SIZE
 62
     0
370
    -2
100
AcDbLine
 10
3347.299687335182
 20
-2994.337722079987
 30
0.0
 11
3285.237929455933
 21
-2994.337722079987
 31
0.0
  0
LINE
  5
22F8
330
22F4
100
AcDbEntity
  8
SIZE
 62
     0
370
    -2
100
AcDbLine
 10
3290.237929455933
 20
-2422.337722079987
 30
0.0
 11
3290.237929455933
 21
-2984.337722079987
 31
0.0
  0
INSERT
  5
22F9
330
22F4
100
AcDbEntity
  8
SIZE
 62
     0
370
    -2
100
AcDbBlockReference
  2
_OPEN30
 10
3290.237929455933
 20
-2412.337722079987
 30
0.0
 41
10.0
 42
10.0
 43
10.0
 50
90.0
  0
INSERT
  5
22FA
330
22F4
100
AcDbEntity
  8
SIZE
 62
     0
370
    -2
100
AcDbBlockReference
  2
_OPEN30
 10
3290.237929455933
 20
-2994.337722079987
 30
0.0
 41
10.0
 42
10.0
 43
10.0
 50
270.0
  0
MTEXT
  5
22FB
330
22F4
100
AcDbEntity
  8
SIZE
 62
     0
100
AcDbMText
 10
3280.237929455934
 20
-2703.337722079986
 30
0.0
 40
10.0
 41
0.0
 71
     5
 72
     1
  1
\A1;582
 11
0.0000000000000001
 21
1.0
 31
0.0
 73
     1
 44
1.0
1001
ACAD
1000
MTEXTBEGIN
1070
    73
1070
     1
1070
    44
1040
1.0
1070
    74
1070
     0
1000
MTEXTEND
  0
POINT
  5
22FC
330
22F4
100
AcDbEntity
  8
Defpoints
 62
     0
100
AcDbPoint
 10
3352.299687335182
 20
-2412.337722079987
 30
0.0
  0
POINT
  5
22FD
330
22F4
100
AcDbEntity
  8
Defpoints
 62
     0
100
AcDbPoint
 10
3352.299687335182
 20
-2994.337722079987
 30
0.0
  0
POINT
  5
22FE
330
22F4
100
AcDbEntity
  8
Defpoints
 62
     0
100
AcDbPoint
 10
3290.237929455933
 20
-2994.337722079987
 30
0.0
  0
ENDBLK
  5
22FF
330
22F4
100
AcDbEntity
  8
0
100
AcDbBlockEnd
  0
BLOCK
  5
2301
330
2300
100
AcDbEntity
  8
0
100
AcDbBlockBegin
  2
*D37
 70
     1
 10
0.0
 20
0.0
 30
0.0
  3
*D37
  1

  0
LINE
  5
2302
330
2300
100
AcDbEntity
  8
SIZE
 62
     0
370
    -2
100
AcDbLine
 10
3824.299687335182
 20
-1802.337722079985
 30
0.0
 11
3824.299687335182
 21
-1707.433427235093
 31
0.0
  0
LINE
  5
2303
330
2300
100
AcDbEntity
  8
SIZE
 62
     0
370
    -2
100
AcDbLine
 10
3344.299687335182
 20
-1802.337722079987
 30
0.0
 11
3344.299687335182
 21
-1707.433427235093
 31
0.0
  0
LINE
  5
2304
330
2300
100
AcDbEntity
  8
SIZE
 62
     0
370
    -2
100
AcDbLine
 10
3814.299687335182
 20
-1712.433427235093
 30
0.0
 11
3354.299687335182
 21
-1712.433427235093
 31
0.0
  0
INSERT
  5
2305
330
2300
100
AcDbEntity
  8
SIZE
 62
     0
370
    -2
100
AcDbBlockReference
  2
_OPEN30
 10
3824.299687335182
 20
-1712.433427235093
 30
0.0
 41
10.0
 42
10.0
 43
10.0
  0
INSERT
  5
2306
330
2300
100
AcDbEntity
  8
SIZE
 62
     0
370
    -2
100
AcDbBlockReference
  2
_OPEN30
 10
3344.299687335182
 20
-1712.433427235093
 30
0.0
 41
10.0
 42
10.0
 43
10.0
 50
180.0
  0
MTEXT
  5
2307
330
2300
100
AcDbEntity
  8
SIZE
 62
     0
100
AcDbMText
 10
3584.299687335182
 20
-1702.433427235093
 30
0.0
 40
10.0
 41
0.0
 71
     5
 72
     1
  1
\A1;480
 73
     1
 44
1.0
1001
ACAD
1000
MTEXTBEGIN
1070
    73
1070
     1
1070
    44
1040
1.0
1070
    74
1070
     0
1000
MTEXTEND
  0
POINT
  5
2308
330
2300
100
AcDbEntity
  8
Defpoints
 62
     0
100
AcDbPoint
 10
3824.299687335182
 20
-1807.337722079985
 30
0.0
  0
POINT
  5
2309
330
2300
100
AcDbEntity
  8
Defpoints
 62
     0
100
AcDbPoint
 10
3344.299687335182
 20
-1807.337722079987
 30
0.0
  0
POINT
  5
230A
330
2300
100
AcDbEntity
  8
Defpoints
 62
     0
100
AcDbPoint
 10
3344.299687335182
 20
-1712.433427235093
 30
0.0
  0
ENDBLK
  5
230B
330
2300
100
AcDbEntity
  8
0
100
AcDbBlockEnd
  0
BLOCK
  5
230D
330
230C
100
AcDbEntity
  8
0
100
AcDbBlockBegin
  2
*D38
 70
     1
 10
0.0
 20
0.0
 30
0.0
  3
*D38
  1

  0
LINE
  5
230E
330
230C
100
AcDbEntity
  8
SIZE
 62
     0
370
    -2
100
AcDbLine
 10
3345.299687335181
 20
-1798.333989646529
 30
0.0
 11
3233.847402477543
 21
-1798.333989646529
 31
0.0
  0
LINE
  5
230F
330
230C
100
AcDbEntity
  8
SIZE
 62
     0
370
    -2
100
AcDbLine
 10
3339.299687335182
 20
-3009.337722079987
 30
0.0
 11
3233.847402477543
 21
-3009.337722079987
 31
0.0
  0
LINE
  5
2310
330
230C
100
AcDbEntity
  8
SIZE
 62
     0
370
    -2
100
AcDbLine
 10
3238.847402477543
 20
-1808.333989646529
 30
0.0
 11
3238.847402477543
 21
-2999.337722079987
 31
0.0
  0
INSERT
  5
2311
330
230C
100
AcDbEntity
  8
SIZE
 62
     0
370
    -2
100
AcDbBlockReference
  2
_OPEN30
 10
3238.847402477543
 20
-1798.333989646529
 30
0.0
 41
10.0
 42
10.0
 43
10.0
 50
90.0
  0
INSERT
  5
2312
330
230C
100
AcDbEntity
  8
SIZE
 62
     0
370
    -2
100
AcDbBlockReference
  2
_OPEN30
 10
3238.847402477543
 20
-3009.337722079987
 30
0.0
 41
10.0
 42
10.0
 43
10.0
 50
270.0
  0
MTEXT
  5
2313
330
230C
100
AcDbEntity
  8
SIZE
 62
     0
100
AcDbMText
 10
3228.847402477543
 20
-2403.835855863257
 30
0.0
 40
10.0
 41
0.0
 71
     5
 72
     1
  1
\A1;1211
 11
0.0000000000000001
 21
1.0
 31
0.0
 73
     1
 44
1.0
1001
ACAD
1000
MTEXTBEGIN
1070
    73
1070
     1
1070
    44
1040
1.0
1070
    74
1070
     0
1000
MTEXTEND
  0
POINT
  5
2314
330
230C
100
AcDbEntity
  8
Defpoints
 62
     0
100
AcDbPoint
 10
3350.299687335182
 20
-1798.333989646529
 30
0.0
  0
POINT
  5
2315
330
230C
100
AcDbEntity
  8
Defpoints
 62
     0
100
AcDbPoint
 10
3344.299687335182
 20
-3009.337722079987
 30
0.0
  0
POINT
  5
2316
330
230C
100
AcDbEntity
  8
Defpoints
 62
     0
100
AcDbPoint
 10
3238.847402477543
 20
-3009.337722079987
 30
0.0
  0
ENDBLK
  5
2317
330
230C
100
AcDbEntity
  8
0
100
AcDbBlockEnd
  0
BLOCK
  5
2647
330
2646
100
AcDbEntity
  8
0
100
AcDbBlockBegin
  2
*D40
 70
     1
 10
0.0
 20
0.0
 30
0.0
  3
*D40
  1

  0
LINE
  5
2649
330
2646
100
AcDbEntity
  8
SIZE
 62
     0
370
    -2
100
AcDbLine
 10
4982.024483322959
 20
478.6060499138138
 30
0.0
 11
4982.024483322959
 21
561.2082968580216
 31
0.0
  0
LINE
  5
264A
330
2646
100
AcDbEntity
  8
SIZE
 62
     0
370
    -2
100
AcDbLine
 10
5446.024483322958
 20
478.6060499138147
 30
0.0
 11
5446.024483322958
 21
561.2082968580216
 31
0.0
  0
LINE
  5
264B
330
2646
100
AcDbEntity
  8
SIZE
 62
     0
370
    -2
100
AcDbLine
 10
4992.024483322959
 20
556.2082968580216
 30
0.0
 11
5436.02448332296
 21
556.2082968580216
 31
0.0
  0
INSERT
  5
264C
330
2646
100
AcDbEntity
  8
SIZE
 62
     0
370
    -2
100
AcDbBlockReference
  2
_OPEN30
 10
4982.024483322959
 20
556.2082968580216
 30
0.0
 41
10.0
 42
10.0
 43
10.0
 50
180.0
  0
INSERT
  5
264D
330
2646
100
AcDbEntity
  8
SIZE
 62
     0
370
    -2
100
AcDbBlockReference
  2
_OPEN30
 10
5446.024483322958
 20
556.2082968580216
 30
0.0
 41
10.0
 42
10.0
 43
10.0
  0
MTEXT
  5
264E
330
2646
100
AcDbEntity
  8
SIZE
 62
     0
100
AcDbMText
 10
5214.024483322958
 20
566.2082968580216
 30
0.0
 40
10.0
 41
0.0
 71
     5
 72
     1
  1
\A1;464
 73
     1
 44
1.0
1001
ACAD
1000
MTEXTBEGIN
1070
    73
1070
     1
1070
    44
1040
1.0
1070
    74
1070
     0
1000
MTEXTEND
  0
POINT
  5
264F
330
2646
100
AcDbEntity
  8
Defpoints
 62
     0
100
AcDbPoint
 10
4982.024483322959
 20
473.6060499138138
 30
0.0
  0
POINT
  5
2650
330
2646
100
AcDbEntity
  8
Defpoints
 62
     0
100
AcDbPoint
 10
5446.024483322958
 20
473.6060499138147
 30
0.0
  0
POINT
  5
2651
330
2646
100
AcDbEntity
  8
Defpoints
 62
     0
100
AcDbPoint
 10
5446.024483322958
 20
556.2082968580216
 30
0.0
  0
ENDBLK
  5
2648
330
2646
100
AcDbEntity
  8
0
100
AcDbBlockEnd
  0
BLOCK
  5
2653
330
2652
100
AcDbEntity
  8
0
100
AcDbBlockBegin
  2
*D41
 70
     1
 10
0.0
 20
0.0
 30
0.0
  3
*D41
  1

  0
LINE
  5
2655
330
2652
100
AcDbEntity
  8
SIZE
 62
     0
370
    -2
100
AcDbLine
 10
4977.024483322959
 20
473.6060499138138
 30
0.0
 11
4915.604169008147
 21
473.6060499138138
 31
0.0
  0
LINE
  5
2656
330
2652
100
AcDbEntity
  8
SIZE
 62
     0
370
    -2
100
AcDbLine
 10
4977.024483322959
 20
-108.3939500861865
 30
0.0
 11
4915.604169008147
 21
-108.3939500861865
 31
0.0
  0
LINE
  5
2657
330
2652
100
AcDbEntity
  8
SIZE
 62
     0
370
    -2
100
AcDbLine
 10
4920.604169008147
 20
463.6060499138138
 30
0.0
 11
4920.604169008147
 21
-98.39395008618657
 31
0.0
  0
INSERT
  5
2658
330
2652
100
AcDbEntity
  8
SIZE
 62
     0
370
    -2
100
AcDbBlockReference
  2
_OPEN30
 10
4920.604169008147
 20
473.6060499138138
 30
0.0
 41
10.0
 42
10.0
 43
10.0
 50
90.0
  0
INSERT
  5
2659
330
2652
100
AcDbEntity
  8
SIZE
 62
     0
370
    -2
100
AcDbBlockReference
  2
_OPEN30
 10
4920.604169008147
 20
-108.3939500861865
 30
0.0
 41
10.0
 42
10.0
 43
10.0
 50
270.0
  0
MTEXT
  5
265A
330
2652
100
AcDbEntity
  8
SIZE
 62
     0
100
AcDbMText
 10
4910.604169008147
 20
182.6060499138143
 30
0.0
 40
10.0
 41
0.0
 71
     5
 72
     1
  1
\A1;582
 11
0.0000000000000001
 21
1.0
 31
0.0
 73
     1
 44
1.0
1001
ACAD
1000
MTEXTBEGIN
1070
    73
1070
     1
1070
    44
1040
1.0
1070
    74
1070
     0
1000
MTEXTEND
  0
POINT
  5
265B
330
2652
100
AcDbEntity
  8
Defpoints
 62
     0
100
AcDbPoint
 10
4982.024483322959
 20
473.6060499138138
 30
0.0
  0
POINT
  5
265C
330
2652
100
AcDbEntity
  8
Defpoints
 62
     0
100
AcDbPoint
 10
4982.024483322959
 20
-108.3939500861865
 30
0.0
  0
POINT
  5
265D
330
2652
100
AcDbEntity
  8
Defpoints
 62
     0
100
AcDbPoint
 10
4920.604169008147
 20
-108.3939500861865
 30
0.0
  0
ENDBLK
  5
2654
330
2652
100
AcDbEntity
  8
0
100
AcDbBlockEnd
  0
BLOCK
  5
265F
330
265E
100
AcDbEntity
  8
0
100
AcDbBlockBegin
  2
*D42
 70
     1
 10
0.0
 20
0.0
 30
0.0
  3
*D42
  1

  0
LINE
  5
2661
330
265E
100
AcDbEntity
  8
SIZE
 62
     0
370
    -2
100
AcDbLine
 10
4977.024483322959
 20
-108.3939500861865
 30
0.0
 11
4914.962725443711
 21
-108.3939500861865
 31
0.0
  0
LINE
  5
2662
330
265E
100
AcDbEntity
  8
SIZE
 62
     0
370
    -2
100
AcDbLine
 10
4977.024483322959
 20
-690.3939500861866
 30
0.0
 11
4914.962725443711
 21
-690.3939500861866
 31
0.0
  0
LINE
  5
2663
330
265E
100
AcDbEntity
  8
SIZE
 62
     0
370
    -2
100
AcDbLine
 10
4919.962725443711
 20
-118.3939500861865
 30
0.0
 11
4919.962725443711
 21
-680.3939500861865
 31
0.0
  0
INSERT
  5
2664
330
265E
100
AcDbEntity
  8
SIZE
 62
     0
370
    -2
100
AcDbBlockReference
  2
_OPEN30
 10
4919.962725443711
 20
-108.3939500861865
 30
0.0
 41
10.0
 42
10.0
 43
10.0
 50
90.0
  0
INSERT
  5
2665
330
265E
100
AcDbEntity
  8
SIZE
 62
     0
370
    -2
100
AcDbBlockReference
  2
_OPEN30
 10
4919.962725443711
 20
-690.3939500861866
 30
0.0
 41
10.0
 42
10.0
 43
10.0
 50
270.0
  0
MTEXT
  5
2666
330
265E
100
AcDbEntity
  8
SIZE
 62
     0
100
AcDbMText
 10
4909.962725443711
 20
-399.3939500861857
 30
0.0
 40
10.0
 41
0.0
 71
     5
 72
     1
  1
\A1;582
 11
0.0000000000000001
 21
1.0
 31
0.0
 73
     1
 44
1.0
1001
ACAD
1000
MTEXTBEGIN
1070
    73
1070
     1
1070
    44
1040
1.0
1070
    74
1070
     0
1000
MTEXTEND
  0
POINT
  5
2667
330
265E
100
AcDbEntity
  8
Defpoints
 62
     0
100
AcDbPoint
 10
4982.024483322959
 20
-108.3939500861865
 30
0.0
  0
POINT
  5
2668
330
265E
100
AcDbEntity
  8
Defpoints
 62
     0
100
AcDbPoint
 10
4982.024483322959
 20
-690.3939500861866
 30
0.0
  0
POINT
  5
2669
330
265E
100
AcDbEntity
  8
Defpoints
 62
     0
100
AcDbPoint
 10
4919.962725443711
 20
-690.3939500861866
 30
0.0
  0
ENDBLK
  5
2660
330
265E
100
AcDbEntity
  8
0
100
AcDbBlockEnd
  0
BLOCK
  5
266B
330
266A
100
AcDbEntity
  8
0
100
AcDbBlockBegin
  2
*D43
 70
     1
 10
0.0
 20
0.0
 30
0.0
  3
*D43
  1

  0
LINE
  5
266D
330
266A
100
AcDbEntity
  8
SIZE
 62
     0
370
    -2
100
AcDbLine
 10
5454.024483322959
 20
501.6060499138156
 30
0.0
 11
5454.024483322959
 21
596.5103447587071
 31
0.0
  0
LINE
  5
266E
330
266A
100
AcDbEntity
  8
SIZE
 62
     0
370
    -2
100
AcDbLine
 10
4974.024483322959
 20
501.6060499138139
 30
0.0
 11
4974.024483322959
 21
596.5103447587071
 31
0.0
  0
LINE
  5
266F
330
266A
100
AcDbEntity
  8
SIZE
 62
     0
370
    -2
100
AcDbLine
 10
5444.024483322959
 20
591.510344758707
 30
0.0
 11
4984.024483322959
 21
591.510344758707
 31
0.0
  0
INSERT
  5
2670
330
266A
100
AcDbEntity
  8
SIZE
 62
     0
370
    -2
100
AcDbBlockReference
  2
_OPEN30
 10
5454.024483322959
 20
591.510344758707
 30
0.0
 41
10.0
 42
10.0
 43
10.0
  0
INSERT
  5
2671
330
266A
100
AcDbEntity
  8
SIZE
 62
     0
370
    -2
100
AcDbBlockReference
  2
_OPEN30
 10
4974.024483322959
 20
591.510344758707
 30
0.0
 41
10.0
 42
10.0
 43
10.0
 50
180.0
  0
MTEXT
  5
2672
330
266A
100
AcDbEntity
  8
SIZE
 62
     0
100
AcDbMText
 10
5214.024483322958
 20
601.5103447587071
 30
0.0
 40
10.0
 41
0.0
 71
     5
 72
     1
  1
\A1;480
 73
     1
 44
1.0
1001
ACAD
1000
MTEXTBEGIN
1070
    73
1070
     1
1070
    44
1040
1.0
1070
    74
1070
     0
1000
MTEXTEND
  0
POINT
  5
2673
330
266A
100
AcDbEntity
  8
Defpoints
 62
     0
100
AcDbPoint
 10
5454.024483322959
 20
496.6060499138157
 30
0.0
  0
POINT
  5
2674
330
266A
100
AcDbEntity
  8
Defpoints
 62
     0
100
AcDbPoint
 10
4974.024483322959
 20
496.6060499138138
 30
0.0
  0
POINT
  5
2675
330
266A
100
AcDbEntity
  8
Defpoints
 62
     0
100
AcDbPoint
 10
4974.024483322959
 20
591.510344758707
 30
0.0
  0
ENDBLK
  5
266C
330
266A
100
AcDbEntity
  8
0
100
AcDbBlockEnd
  0
BLOCK
  5
2677
330
2676
100
AcDbEntity
  8
0
100
AcDbBlockBegin
  2
*D44
 70
     1
 10
0.0
 20
0.0
 30
0.0
  3
*D44
  1

  0
LINE
  5
2679
330
2676
100
AcDbEntity
  8
SIZE
 62
     0
370
    -2
100
AcDbLine
 10
4975.024483322959
 20
505.6097823472718
 30
0.0
 11
4863.57219846532
 21
505.6097823472718
 31
0.0
  0
LINE
  5
267A
330
2676
100
AcDbEntity
  8
SIZE
 62
     0
370
    -2
100
AcDbLine
 10
4969.024483322959
 20
-705.3939500861865
 30
0.0
 11
4863.57219846532
 21
-705.3939500861864
 31
0.0
  0
LINE
  5
267B
330
2676
100
AcDbEntity
  8
SIZE
 62
     0
370
    -2
100
AcDbLine
 10
4868.57219846532
 20
495.6097823472719
 30
0.0
 11
4868.57219846532
 21
-695.3939500861865
 31
0.0
  0
INSERT
  5
267C
330
2676
100
AcDbEntity
  8
SIZE
 62
     0
370
    -2
100
AcDbBlockReference
  2
_OPEN30
 10
4868.57219846532
 20
505.6097823472718
 30
0.0
 41
10.0
 42
10.0
 43
10.0
 50
90.0
  0
INSERT
  5
267D
330
2676
100
AcDbEntity
  8
SIZE
 62
     0
370
    -2
100
AcDbBlockReference
  2
_OPEN30
 10
4868.57219846532
 20
-705.3939500861865
 30
0.0
 41
10.0
 42
10.0
 43
10.0
 50
270.0
  0
MTEXT
  5
267E
330
2676
100
AcDbEntity
  8
SIZE
 62
     0
100
AcDbMText
 10
4858.572198465321
 20
-99.89208386945653
 30
0.0
 40
10.0
 41
0.0
 71
     5
 72
     1
  1
\A1;1211
 11
0.0000000000000001
 21
1.0
 31
0.0
 73
     1
 44
1.0
1001
ACAD
1000
MTEXTBEGIN
1070
    73
1070
     1
1070
    44
1040
1.0
1070
    74
1070
     0
1000
MTEXTEND
  0
POINT
  5
267F
330
2676
100
AcDbEntity
  8
Defpoints
 62
     0
100
AcDbPoint
 10
4980.024483322959
 20
505.6097823472718
 30
0.0
  0
POINT
  5
2680
330
2676
100
AcDbEntity
  8
Defpoints
 62
     0
100
AcDbPoint
 10
4974.024483322959
 20
-705.3939500861865
 30
0.0
  0
POINT
  5
2681
330
2676
100
AcDbEntity
  8
Defpoints
 62
     0
100
AcDbPoint
 10
4868.57219846532
 20
-705.3939500861865
 30
0.0
  0
ENDBLK
  5
2678
330
2676
100
AcDbEntity
  8
0
100
AcDbBlockEnd
  0
ENDSEC
  0
SECTION
  2
ENTITIES
  0
MTEXT
  5
B60
330
2
100
AcDbEntity
  8
ETC
100
AcDbMText
 10
4030.049643156753
 20
691.4724060784327
 30
0.0
 40
40.0
 41
651.9792552343242
 71
     1
 72
     5
  1
AG1S-KK88SD-3
 73
     1
 44
1.0
1001
ACAD
1000
MTEXTBEGIN
1070
    73
1070
     1
1070
    44
1040
1.0
1070
    74
1070
     0
1000
MTEXTEND
  0
MULTILEADER
  5
1E06
330
2
100
AcDbEntity
  8
NOTE
 92
      976
310
D00300001B0000000C00000010000000050000000C00000016000000000000C00C00000013000000112700003C0000000600000002000000E622E4ADCC2EAF40F24BC5BD506080400000000000000000C79DF85B142EAF40F24BC5BD5060804000000000000000000C0000001300000001000000880000001D0000000077BC
310
D3EBB230406E1EAFCD67032640000000000000000088B0D2B4A9EAAF406E1EAFCD670326C00077BCD3EBB230400000000000000000DC98915F07E27C400000000000000000000000000000000000000000000034400000000000000000000000000000000000000000000000000000000000000000000000000000F03F0C00
310
000016000000040000C30C00000017000000FDFFFFFF540000002000000002000000000000000000F0BF498A025C1426D13F000000000000000000000000000000000000000000000000000000000000000000000000000000000000000000000000000000000000F03F0C00000016000000040000C30C00000017000000FD
310
FFFFFF540000002000000002000000000000000000000000000000000000000000000000000000000000000000F0BF498A025C1426D1BF000000000000000000000000000000000000000000000000000000000000F03F0C00000016000000040000C30C00000017000000FDFFFFFF54000000200000000200000000000000
310
0000000000000000000000000000000000000000000000000000F0BF0000000000000000000000000000000000000000000000000000000000000000000000000000F03F080000001F0000000C00000016000000000000C00C00000013000000891300003C00000006000000020000009A372BDD43C9AF40CF11FF9D22927D
310
400000000000000000E622E4ADCC2EAF40F24BC5BD5060804000000000000000000C000000130000009A3A00003C00000006000000020000009691352B0897AE40F24BC5BD506080400000000000000000C79DF85B142EAF40F24BC5BD5060804000000000000000000C00000016000000000000C00C00000012000000FF7F
310
00000C00000017000000FFFFFFFF0C00000016000000000000C00C00000013000000993A0000B00000000B0000001CF34DB1698FAE40F24BC5BD50808040000000000000000000000000000000000000000000000000000000000000F03F000000000000F03F0000000000000000000000000000000036817E5C552B323230
310
3537000B000000010000000000000000003440000000000000F03F0000000000000000000000000000F03F0000000000000000000000000000000000000000726F6D616E732E7368780000657874666F6E742E73687800
100
AcDbMLeader
300
CONTEXT_DATA{
 40
1.0
 10
3913.515954660436
 20
536.0394244588662
 30
0.0
 41
20.0
140
20.0
145
2.0
174
     1
175
     6
176
     0
177
     0
290
     1
304
6×%%C7
 11
0.0
 21
0.0
 31
1.0
340
23
 12
3915.515954660437
 22
548.0394244588662
 32
0.0
 13
1.0
 23
0.0
 33
0.0
 42
0.0
 43
0.0
 44
0.0
 45
1.0
170
     1
 90
-1073741824
171
     1
172
     5
 91
-1073741824
141
0.0
 92
 12836860
291
     0
292
     0
173
     0
293
     0
142
0.0
143
0.0
294
     0
295
     0
296
     0
110
4085.331457695054
120
462.1268001258265
130
0.0
111
1.0
121
0.0
131
0.0
112
0.0
122
1.0
132
0.0
297
     0
302
LEADER{
290
     1
291
     1
 10
3991.399764184246
 20
524.0394244588663
 30
0.0
 11
-1.0
 21
0.0
 31
0.0
 90
        0
 40
0.36
304
LEADER_LINE{
 10
4085.331457695054
 20
462.1268001258265
 30
0.0
 91
        0
305
}
303
}
301
}
340
B17
 90
 67454208
170
     1
 91
-1056964608
341
26
171
    -2
290
     1
291
     1
 41
0.36
342
32
 42
20.0
172
     2
343
23
173
     1
 95
        6
174
     1
175
     2
 92
-1056964608
292
     0
 93
-1056964608
 10
1.0
 20
1.0
 30
1.0
 43
0.0
176
     0
293
     0
294
     0
178
     0
179
     1
 45
1.0
1001
ACAD_MLEADERVER
1070
     2
  0
ELLIPSE
  5
20E8
330
2
100
AcDbEntity
  8
OUTLINE
 48
50.0
100
AcDbEllipse
 10
4200.963059207441
 20
258.6568919786036
 30
0.0
 11
-2.0
 21
0.0
 31
0.0
210
0.0
220
0.0
230
1.0
 40
0.9218631515885006
 41
2.118925548696345
 42
7.305852412073031
  0
ELLIPSE
  5
20E9
330
2
100
AcDbEntity
  8
OUTLINE
 48
50.0
100
AcDbEllipse
 10
4200.963059207441
 20
258.2693763921516
 30
0.0
 11
2.0
 21
0.0
 31
0.0
210
0.0
220
0.0
230
1.0
 40
0.9218631515885006
 41
0.1052847268104402
 42
3.036307926779351
  0
ELLIPSE
  5
20EC
330
2
100
AcDbEntity
  8
OUTLINE
 48
50.0
100
AcDbEllipse
 10
4438.963059207441
 20
258.6568919786036
 30
0.0
 11
-2.0
 21
0.0
 31
0.0
210
0.0
220
0.0
230
1.0
 40
0.9218631515885006
 41
2.118925548696345
 42
7.305852412073031
  0
ELLIPSE
  5
20ED
330
2
100
AcDbEntity
  8
OUTLINE
 48
50.0
100
AcDbEllipse
 10
4438.963059207441
 20
258.2693763921516
 30
0.0
 11
2.0
 21
0.0
 31
0.0
210
0.0
220
0.0
230
1.0
 40
0.9218631515885006
 41
0.1052847268104402
 42
3.036307926779351
  0
ELLIPSE
  5
20EF
330
2
100
AcDbEntity
  8
OUTLINE
 48
50.0
100
AcDbEllipse
 10
4091.963059207442
 20
-252.9771571530134
 30
0.0
 11
-2.5
 21
0.0
 31
0.0
210
0.0
220
0.0
230
1.0
 40
0.9218631515885006
 41
0.0000000000000002
 42
6.283185307179584
  0
ELLIPSE
  5
20F0
330
2
100
AcDbEntity
  8
OUTLINE
 48
50.0
100
AcDbEllipse
 10
4091.963059207442
 20
-253.3646727394664
 30
0.0
 11
2.5
 21
0.0
 31
0.0
210
0.0
220
0.0
230
1.0
 40
0.9218631515885006
 41
0.0841716141076183
 42
3.057421039482174
  0
ELLIPSE
  5
20F2
330
2
100
AcDbEntity
  8
OUTLINE
 48
50.0
100
AcDbEllipse
 10
4091.963059207442
 20
-68.60452683531343
 30
0.0
 11
-2.5
 21
0.0
 31
0.0
210
0.0
220
0.0
230
1.0
 40
0.9218631515885006
 41
0.0000000000000002
 42
6.283185307179584
  0
ELLIPSE
  5
20F3
330
2
100
AcDbEntity
  8
OUTLINE
 48
50.0
100
AcDbEllipse
 10
4091.963059207442
 20
-68.99204242176643
 30
0.0
 11
2.5
 21
0.0
 31
0.0
210
0.0
220
0.0
230
1.0
 40
0.9218631515885006
 41
0.0841716141075948
 42
3.057421039482198
  0
ELLIPSE
  5
20F5
330
2
100
AcDbEntity
  8
OUTLINE
 48
50.0
100
AcDbEllipse
 10
4091.963059207442
 20
115.7681034823865
 30
0.0
 11
-2.5
 21
0.0
 31
0.0
210
0.0
220
0.0
230
1.0
 40
0.9218631515885006
 41
0.0000000000000002
 42
6.283185307179584
  0
ELLIPSE
  5
20F6
330
2
100
AcDbEntity
  8
OUTLINE
 48
50.0
100
AcDbEllipse
 10
4091.963059207442
 20
115.3805878959344
 30
0.0
 11
2.5
 21
0.0
 31
0.0
210
0.0
220
0.0
230
1.0
 40
0.9218631515885006
 41
0.084171614107634
 42
3.057421039482158
  0
ELLIPSE
  5
20F8
330
2
100
AcDbEntity
  8
OUTLINE
 48
50.0
100
AcDbEllipse
 10
4547.963059207442
 20
-252.9771571530134
 30
0.0
 11
-2.5
 21
0.0
 31
0.0
210
0.0
220
0.0
230
1.0
 40
0.9218631515885006
 41
0.0000000000000002
 42
6.283185307179584
  0
ELLIPSE
  5
20F9
330
2
100
AcDbEntity
  8
OUTLINE
 48
50.0
100
AcDbEllipse
 10
4547.963059207442
 20
-253.3646727394664
 30
0.0
 11
2.5
 21
0.0
 31
0.0
210
0.0
220
0.0
230
1.0
 40
0.9218631515885006
 41
0.0841716141076027
 42
3.05742103948219
  0
ELLIPSE
  5
20FB
330
2
100
AcDbEntity
  8
OUTLINE
 48
50.0
100
AcDbEllipse
 10
4547.963059207442
 20
-68.60452683531343
 30
0.0
 11
-2.5
 21
0.0
 31
0.0
210
0.0
220
0.0
230
1.0
 40
0.9218631515885006
 41
0.0000000000000002
 42
6.283185307179584
  0
ELLIPSE
  5
20FC
330
2
100
AcDbEntity
  8
OUTLINE
 48
50.0
100
AcDbEllipse
 10
4547.963059207442
 20
-68.99204242176643
 30
0.0
 11
2.5
 21
0.0
 31
0.0
210
0.0
220
0.0
230
1.0
 40
0.9218631515885006
 41
0.0841716141076105
 42
3.057421039482181
  0
ELLIPSE
  5
20FE
330
2
100
AcDbEntity
  8
OUTLINE
 48
50.0
100
AcDbEllipse
 10
4547.963059207442
 20
115.7681034823865
 30
0.0
 11
-2.5
 21
0.0
 31
0.0
210
0.0
220
0.0
230
1.0
 40
0.9218631515885006
 41
0.0000000000000002
 42
6.283185307179584
  0
ELLIPSE
  5
20FF
330
2
100
AcDbEntity
  8
OUTLINE
 48
50.0
100
AcDbEllipse
 10
4547.963059207442
 20
115.3805878959344
 30
0.0
 11
2.5
 21
0.0
 31
0.0
210
0.0
220
0.0
230
1.0
 40
0.9218631515885006
 41
0.084171614107634
 42
3.057421039482158
  0
ELLIPSE
  5
2101
330
2
100
AcDbEntity
  8
OUTLINE
 48
50.0
100
AcDbEllipse
 10
4200.963059207441
 20
-307.0261249121324
 30
0.0
 11
-2.0
 21
0.0
 31
0.0
210
0.0
220
0.0
230
1.0
 40
0.7033947028105044
 41
0.0000000000000002
 42
6.283185307179584
  0
ELLIPSE
  5
2102
330
2
100
AcDbEntity
  8
OUTLINE
 48
50.0
100
AcDbEllipse
 10
4200.963059207441
 20
-306.3153254382594
 30
0.0
 11
2.0
 21
0.0
 31
0.0
210
0.0
220
0.0
230
1.0
 40
0.7033947028105044
 41
3.396991975832958
 42
6.027785984936418
  0
ELLIPSE
  5
2104
330
2
100
AcDbEntity
  8
OUTLINE
 48
50.0
100
AcDbEllipse
 10
4438.963059207441
 20
-307.0261249121324
 30
0.0
 11
-2.0
 21
0.0
 31
0.0
210
0.0
220
0.0
230
1.0
 40
0.7033947028105044
 41
0.0000000000000002
 42
6.283185307179584
  0
ELLIPSE
  5
2105
330
2
100
AcDbEntity
  8
OUTLINE
 48
50.0
100
AcDbEllipse
 10
4438.963059207441
 20
-306.3153254382594
 30
0.0
 11
2.0
 21
0.0
 31
0.0
210
0.0
220
0.0
230
1.0
 40
0.7033947028105044
 41
3.396991975832958
 42
6.027785984936418
  0
LINE
  5
2107
330
2
100
AcDbEntity
  8
HID
  6
HIDDEN
 48
50.0
100
AcDbLine
 10
4080.963059207441
 20
483.2006637204974
 30
0.0
 11
4558.963059207441
 21
483.2006637204974
 31
0.0
  0
LINE
  5
2108
330
2
100
AcDbEntity
  8
HID
  6
HIDDEN
 48
50.0
100
AcDbLine
 10
4080.963059207441
 20
483.2043964761622
 30
0.0
 11
4558.963059207441
 21
483.2043964761622
 31
0.0
  0
LINE
  5
2109
330
2
100
AcDbEntity
  8
OUTLINE
 48
50.0
100
AcDbLine
 10
4080.963059207441
 20
484.2041298152146
 30
0.0
 11
4080.963059207441
 21
484.2005452969186
 31
0.0
  0
LINE
  5
210A
330
2
100
AcDbEntity
  8
OUTLINE
 48
50.0
100
AcDbLine
 10
4558.963059207441
 20
484.2005452969186
 30
0.0
 11
4558.963059207441
 21
484.2041298152146
 31
0.0
  0
LINE
  5
210B
330
2
100
AcDbEntity
  8
OUTLINE
 48
50.0
100
AcDbLine
 10
4080.963059207441
 20
484.2005452969186
 30
0.0
 11
4080.963059207441
 21
268.5575589403895
 31
0.0
  0
LINE
  5
210C
330
2
100
AcDbEntity
  8
OUTLINE
 48
50.0
100
AcDbLine
 10
4080.963059207441
 20
484.2005452969186
 30
0.0
 11
4558.963059207441
 21
484.2005452969186
 31
0.0
  0
LINE
  5
210D
330
2
100
AcDbEntity
  8
OUTLINE
 48
50.0
100
AcDbLine
 10
4558.963059207441
 20
268.5575589403895
 30
0.0
 11
4558.963059207441
 21
484.2005452969186
 31
0.0
  0
LINE
  5
210E
330
2
100
AcDbEntity
  8
OUTLINE
 48
50.0
100
AcDbLine
 10
4080.963059207441
 20
268.5575589403895
 30
0.0
 11
4080.963059207441
 21
254.5679974625884
 31
0.0
  0
LINE
  5
210F
330
2
100
AcDbEntity
  8
OUTLINE
 48
50.0
100
AcDbLine
 10
4080.963059207441
 20
268.5575589403895
 30
0.0
 11
4558.963059207441
 21
268.5575589403895
 31
0.0
  0
LINE
  5
2110
330
2
100
AcDbEntity
  8
OUTLINE
 48
50.0
100
AcDbLine
 10
4558.963059207441
 20
254.5679974625896
 30
0.0
 11
4558.963059207441
 21
268.5575589403895
 31
0.0
  0
LINE
  5
2111
330
2
100
AcDbEntity
  8
OUTLINE
 48
50.0
100
AcDbLine
 10
4080.963059207441
 20
487.2043963339854
 30
0.0
 11
4080.963059207441
 21
487.2041297085805
 31
0.0
  0
LINE
  5
2112
330
2
100
AcDbEntity
  8
OUTLINE
 48
50.0
100
AcDbLine
 10
4085.963059207442
 20
492.204396156262
 30
0.0
 11
4080.963059207441
 21
487.2043963339854
 31
0.0
  0
LINE
  5
2113
330
2
100
AcDbEntity
  8
OUTLINE
 48
50.0
100
AcDbLine
 10
4085.963059207442
 20
492.2041295308579
 30
0.0
 11
4085.963059207442
 21
492.204396156262
 31
0.0
  0
LINE
  5
2114
330
2
100
AcDbEntity
  8
OUTLINE
 48
50.0
100
AcDbLine
 10
4085.963059207442
 20
492.204396156262
 30
0.0
 11
4553.963059207442
 21
492.204396156262
 31
0.0
  0
LINE
  5
2115
330
2
100
AcDbEntity
  8
OUTLINE
 48
50.0
100
AcDbLine
 10
4558.963059207441
 20
484.2041298152137
 30
0.0
 11
4558.963059207441
 21
487.2041297085805
 31
0.0
  0
LINE
  5
2116
330
2
100
AcDbEntity
  8
OUTLINE
 48
50.0
100
AcDbLine
 10
4080.963059207441
 20
484.2041298152137
 30
0.0
 11
4558.963059207441
 21
484.2041298152137
 31
0.0
  0
LINE
  5
2117
330
2
100
AcDbEntity
  8
OUTLINE
 48
50.0
100
AcDbLine
 10
4080.963059207441
 20
487.2041297085805
 30
0.0
 11
4080.963059207441
 21
484.2041298152137
 31
0.0
  0
LINE
  5
2118
330
2
100
AcDbEntity
  8
OUTLINE
 48
50.0
100
AcDbLine
 10
4080.963059207441
 20
487.2041297085805
 30
0.0
 11
4085.963059207442
 21
492.2041295308566
 31
0.0
  0
LINE
  5
2119
330
2
100
AcDbEntity
  8
OUTLINE
 48
50.0
100
AcDbLine
 10
4085.963059207442
 20
492.2041295308579
 30
0.0
 11
4553.963059207442
 21
492.2041295308579
 31
0.0
  0
LINE
  5
211A
330
2
100
AcDbEntity
  8
OUTLINE
 48
50.0
100
AcDbLine
 10
4558.963059207441
 20
487.2041297085805
 30
0.0
 11
4558.963059207441
 21
487.2043963339854
 31
0.0
  0
LINE
  5
211B
330
2
100
AcDbEntity
  8
OUTLINE
 48
50.0
100
AcDbLine
 10
4553.963059207442
 20
492.2041295308579
 30
0.0
 11
4558.963059207441
 21
487.2041297085805
 31
0.0
  0
LINE
  5
211C
330
2
100
AcDbEntity
  8
OUTLINE
 48
50.0
100
AcDbLine
 10
4553.963059207442
 20
492.204396156262
 30
0.0
 11
4553.963059207442
 21
492.2041295308579
 31
0.0
  0
LINE
  5
211D
330
2
100
AcDbEntity
  8
OUTLINE
 48
50.0
100
AcDbLine
 10
4558.963059207441
 20
487.2043963339854
 30
0.0
 11
4553.963059207442
 21
492.204396156262
 31
0.0
  0
LINE
  5
211E
330
2
100
AcDbEntity
  8
OUTLINE
 48
50.0
100
AcDbLine
 10
4558.963059207441
 20
254.1864801098175
 30
0.0
 11
4558.963059207441
 21
254.5679974625896
 31
0.0
  0
LINE
  5
211F
330
2
100
AcDbEntity
  8
OUTLINE
 48
50.0
100
AcDbLine
 10
4558.963059207441
 20
254.5679974625896
 30
0.0
 11
4553.963059207442
 21
249.9571980297135
 31
0.0
  0
LINE
  5
2122
330
2
100
AcDbEntity
  8
OUTLINE
 48
50.0
100
AcDbLine
 10
4085.963059207442
 20
249.9571980297126
 30
0.0
 11
4553.963059207442
 21
249.9571980297126
 31
0.0
  0
LINE
  5
2123
330
2
100
AcDbEntity
  8
OUTLINE
 48
50.0
100
AcDbLine
 10
4553.963059207442
 20
249.9571980297146
 30
0.0
 11
4553.963059207442
 21
249.5771629980645
 31
0.0
  0
LINE
  5
2126
330
2
100
AcDbEntity
  8
OUTLINE
 48
50.0
100
AcDbLine
 10
4080.963059207441
 20
254.5679974625896
 30
0.0
 11
4080.963059207441
 21
254.1864801098175
 31
0.0
  0
LINE
  5
2127
330
2
100
AcDbEntity
  8
OUTLINE
 48
50.0
100
AcDbLine
 10
4085.963059207442
 20
249.9571980297135
 30
0.0
 11
4080.963059207441
 21
254.5679974625896
 31
0.0
  0
LINE
  5
2129
330
2
100
AcDbEntity
  8
OUTLINE
 48
50.0
100
AcDbLine
 10
4085.963059207442
 20
249.5771629980645
 30
0.0
 11
4085.963059207442
 21
249.9571980297146
 31
0.0
  0
LINE
  5
212B
330
2
100
AcDbEntity
  8
OUTLINE
 48
50.0
100
AcDbLine
 10
4090.463059207442
 20
461.9412700711525
 30
0.0
 11
4093.463059207442
 21
461.9412700711525
 31
0.0
  0
LINE
  5
212C
330
2
100
AcDbEntity
  8
OUTLINE
 48
50.0
100
AcDbLine
 10
4093.463059207442
 20
461.2708434522008
 30
0.0
 11
4090.463059207442
 21
461.2708434522008
 31
0.0
  0
LINE
  5
212D
330
2
100
AcDbEntity
  8
OUTLINE
 48
50.0
100
AcDbLine
 10
4093.463059207442
 20
461.9412700711525
 30
0.0
 11
4093.463059207442
 21
459.7153425482044
 31
0.0
  0
LINE
  5
212F
330
2
100
AcDbEntity
  8
OUTLINE
 48
50.0
100
AcDbLine
 10
4093.463059207442
 20
459.7153425482044
 30
0.0
 11
4090.463059207442
 21
459.7153425482044
 31
0.0
  0
LINE
  5
2132
330
2
100
AcDbEntity
  8
OUTLINE
 48
50.0
100
AcDbLine
 10
4090.463059207442
 20
459.7153425482044
 30
0.0
 11
4090.463059207442
 21
461.9412700711515
 31
0.0
  0
LINE
  5
2133
330
2
100
AcDbEntity
  8
OUTLINE
 48
50.0
100
AcDbLine
 10
4546.463059207442
 20
461.9412700711525
 30
0.0
 11
4549.463059207442
 21
461.9412700711525
 31
0.0
  0
LINE
  5
2134
330
2
100
AcDbEntity
  8
OUTLINE
 48
50.0
100
AcDbLine
 10
4549.463059207442
 20
461.2708434522008
 30
0.0
 11
4546.463059207442
 21
461.2708434522008
 31
0.0
  0
LINE
  5
2135
330
2
100
AcDbEntity
  8
OUTLINE
 48
50.0
100
AcDbLine
 10
4549.463059207442
 20
461.9412700711525
 30
0.0
 11
4549.463059207442
 21
459.7153425482044
 31
0.0
  0
LINE
  5
2137
330
2
100
AcDbEntity
  8
OUTLINE
 48
50.0
100
AcDbLine
 10
4549.463059207442
 20
459.7153425482044
 30
0.0
 11
4546.463059207442
 21
459.7153425482044
 31
0.0
  0
LINE
  5
213A
330
2
100
AcDbEntity
  8
OUTLINE
 48
50.0
100
AcDbLine
 10
4546.463059207442
 20
459.7153425482044
 30
0.0
 11
4546.463059207442
 21
461.9412700711515
 31
0.0
  0
ELLIPSE
  5
2147
330
2
100
AcDbEntity
  8
OUTLINE
 48
50.0
100
AcDbEllipse
 10
4438.963059207441
 20
259.1787968954636
 30
0.0
 11
-2.5
 21
0.0
 31
0.0
210
0.0
220
0.0
230
1.0
 40
0.9221598865750831
 41
0.0000000000000002
 42
6.283185307179584
  0
ELLIPSE
  5
2148
330
2
100
AcDbEntity
  8
OUTLINE
 48
50.0
100
AcDbEllipse
 10
4200.963059207441
 20
259.1787968954636
 30
0.0
 11
-2.5
 21
0.0
 31
0.0
210
0.0
220
0.0
230
1.0
 40
0.9221598865750831
 41
0.0000000000000002
 42
6.283185307179584
  0
ELLIPSE
  5
214B
330
2
100
AcDbEntity
  8
OUTLINE
 48
50.0
100
AcDbEllipse
 10
4091.963059207442
 20
434.1587089936253
 30
0.0
 11
-2.5
 21
0.0
 31
0.0
210
0.0
220
0.0
230
1.0
 40
0.7419758409824384
 41
0.0000000000000002
 42
6.283185307179584
  0
ELLIPSE
  5
214C
330
2
100
AcDbEntity
  8
OUTLINE
 48
50.0
100
AcDbEllipse
 10
4091.963059207442
 20
433.4882823746745
 30
0.0
 11
2.5
 21
0.0
 31
0.0
210
0.0
220
0.0
230
1.0
 40
0.7419758409824384
 41
0.1817122204532165
 42
2.959880433136576
  0
ELLIPSE
  5
214E
330
2
100
AcDbEntity
  8
OUTLINE
 48
50.0
100
AcDbEllipse
 10
4091.963059207442
 20
308.0228160266104
 30
0.0
 11
-2.5
 21
0.0
 31
0.0
210
0.0
220
0.0
230
1.0
 40
0.7419758409824384
 41
0.0000000000000002
 42
6.283185307179584
  0
ELLIPSE
  5
214F
330
2
100
AcDbEntity
  8
OUTLINE
 48
50.0
100
AcDbEllipse
 10
4091.963059207442
 20
307.3523894076597
 30
0.0
 11
2.5
 21
0.0
 31
0.0
210
0.0
220
0.0
230
1.0
 40
0.7419758409824384
 41
0.1817122204530901
 42
2.959880433136703
  0
ELLIPSE
  5
2151
330
2
100
AcDbEntity
  8
OUTLINE
 48
50.0
100
AcDbEllipse
 10
4547.963059207442
 20
434.1587089936253
 30
0.0
 11
-2.5
 21
0.0
 31
0.0
210
0.0
220
0.0
230
1.0
 40
0.7419758409824384
 41
0.0000000000000002
 42
6.283185307179584
  0
ELLIPSE
  5
2152
330
2
100
AcDbEntity
  8
OUTLINE
 48
50.0
100
AcDbEllipse
 10
4547.963059207442
 20
433.4882823746745
 30
0.0
 11
2.5
 21
0.0
 31
0.0
210
0.0
220
0.0
230
1.0
 40
0.7419758409824384
 41
0.1817122204532165
 42
2.959880433136576
  0
ELLIPSE
  5
2154
330
2
100
AcDbEntity
  8
OUTLINE
 48
50.0
100
AcDbEllipse
 10
4547.963059207442
 20
308.0228160266104
 30
0.0
 11
-2.5
 21
0.0
 31
0.0
210
0.0
220
0.0
230
1.0
 40
0.7419758409824384
 41
0.0000000000000002
 42
6.283185307179584
  0
ELLIPSE
  5
2155
330
2
100
AcDbEntity
  8
OUTLINE
 48
50.0
100
AcDbEllipse
 10
4547.963059207442
 20
307.3523894076597
 30
0.0
 11
2.5
 21
0.0
 31
0.0
210
0.0
220
0.0
230
1.0
 40
0.7419758409824384
 41
0.1817122204530901
 42
2.959880433136703
  0
LINE
  5
2158
330
2
100
AcDbEntity
  8
NOTE
 48
50.0
100
AcDbLine
 10
4551.96305920744
 20
460.2006637228057
 30
0.0
 11
4551.96305920744
 21
460.2006637228057
 31
0.0
  0
LINE
  5
2159
330
2
100
AcDbEntity
  8
NOTE
 48
50.0
100
AcDbLine
 10
4551.96305920744
 20
460.2006637228057
 30
0.0
 11
4551.96305920744
 21
460.2006637228057
 31
0.0
  0
LINE
  5
215A
330
2
100
AcDbEntity
  8
NOTE
 48
50.0
100
AcDbLine
 10
4545.463059207441
 20
460.2006637228057
 30
0.0
 11
4551.96305920744
 21
460.2006637228057
 31
0.0
  0
LINE
  5
215B
330
2
100
AcDbEntity
  8
NOTE
 48
50.0
100
AcDbLine
 10
4551.96305920744
 20
460.2006637228057
 30
0.0
 11
4558.463059207442
 21
460.2006637228057
 31
0.0
  0
LINE
  5
215C
330
2
100
AcDbEntity
  8
NOTE
 48
50.0
100
AcDbLine
 10
4551.96305920744
 20
453.7006637228057
 30
0.0
 11
4551.96305920744
 21
460.2006637228057
 31
0.0
  0
LINE
  5
215D
330
2
100
AcDbEntity
  8
NOTE
 48
50.0
100
AcDbLine
 10
4551.96305920744
 20
460.2006637228057
 30
0.0
 11
4551.96305920744
 21
466.7006637228057
 31
0.0
  0
LINE
  5
215E
330
2
100
AcDbEntity
  8
NOTE
 48
50.0
100
AcDbLine
 10
4551.96305920744
 20
-121.7993362771947
 30
0.0
 11
4551.96305920744
 21
-121.7993362771947
 31
0.0
  0
LINE
  5
215F
330
2
100
AcDbEntity
  8
NOTE
 48
50.0
100
AcDbLine
 10
4551.96305920744
 20
-121.7993362771947
 30
0.0
 11
4551.96305920744
 21
-121.7993362771947
 31
0.0
  0
LINE
  5
2160
330
2
100
AcDbEntity
  8
NOTE
 48
50.0
100
AcDbLine
 10
4545.463059207441
 20
-121.7993362771947
 30
0.0
 11
4551.96305920744
 21
-121.7993362771947
 31
0.0
  0
LINE
  5
2161
330
2
100
AcDbEntity
  8
NOTE
 48
50.0
100
AcDbLine
 10
4551.96305920744
 20
-121.7993362771947
 30
0.0
 11
4558.463059207442
 21
-121.7993362771947
 31
0.0
  0
LINE
  5
2162
330
2
100
AcDbEntity
  8
NOTE
 48
50.0
100
AcDbLine
 10
4551.96305920744
 20
-128.2993362771947
 30
0.0
 11
4551.96305920744
 21
-121.7993362771947
 31
0.0
  0
LINE
  5
2163
330
2
100
AcDbEntity
  8
NOTE
 48
50.0
100
AcDbLine
 10
4551.96305920744
 20
-121.7993362771947
 30
0.0
 11
4551.96305920744
 21
-115.2993362771956
 31
0.0
  0
LINE
  5
2164
330
2
100
AcDbEntity
  8
NOTE
 48
50.0
100
AcDbLine
 10
4551.96305920744
 20
-703.7993362771942
 30
0.0
 11
4551.96305920744
 21
-703.7993362771942
 31
0.0
  0
LINE
  5
2165
330
2
100
AcDbEntity
  8
NOTE
 48
50.0
100
AcDbLine
 10
4551.96305920744
 20
-703.7993362771942
 30
0.0
 11
4551.96305920744
 21
-703.7993362771942
 31
0.0
  0
LINE
  5
2166
330
2
100
AcDbEntity
  8
NOTE
 48
50.0
100
AcDbLine
 10
4545.463059207441
 20
-703.7993362771942
 30
0.0
 11
4551.96305920744
 21
-703.7993362771942
 31
0.0
  0
LINE
  5
2167
330
2
100
AcDbEntity
  8
NOTE
 48
50.0
100
AcDbLine
 10
4551.96305920744
 20
-703.7993362771942
 30
0.0
 11
4558.463059207442
 21
-703.7993362771942
 31
0.0
  0
LINE
  5
2168
330
2
100
AcDbEntity
  8
NOTE
 48
50.0
100
AcDbLine
 10
4551.96305920744
 20
-710.2993362771956
 30
0.0
 11
4551.96305920744
 21
-703.7993362771942
 31
0.0
  0
LINE
  5
2169
330
2
100
AcDbEntity
  8
NOTE
 48
50.0
100
AcDbLine
 10
4551.96305920744
 20
-703.7993362771942
 30
0.0
 11
4551.96305920744
 21
-697.2993362771942
 31
0.0
  0
LINE
  5
216B
330
2
100
AcDbEntity
  8
NOTE
 48
50.0
100
AcDbLine
 10
4087.963059207441
 20
460.2006637228039
 30
0.0
 11
4087.963059207441
 21
460.2006637228039
 31
0.0
  0
LINE
  5
216C
330
2
100
AcDbEntity
  8
NOTE
 48
50.0
100
AcDbLine
 10
4087.963059207441
 20
460.2006637228039
 30
0.0
 11
4087.963059207441
 21
460.2006637228039
 31
0.0
  0
LINE
  5
216D
330
2
100
AcDbEntity
  8
NOTE
 48
50.0
100
AcDbLine
 10
4081.463059207441
 20
460.2006637228039
 30
0.0
 11
4087.963059207441
 21
460.2006637228039
 31
0.0
  0
LINE
  5
216E
330
2
100
AcDbEntity
  8
NOTE
 48
50.0
100
AcDbLine
 10
4087.963059207441
 20
460.2006637228039
 30
0.0
 11
4094.463059207441
 21
460.2006637228039
 31
0.0
  0
LINE
  5
216F
330
2
100
AcDbEntity
  8
NOTE
 48
50.0
100
AcDbLine
 10
4087.963059207441
 20
453.7006637228039
 30
0.0
 11
4087.963059207441
 21
460.2006637228039
 31
0.0
  0
LINE
  5
2170
330
2
100
AcDbEntity
  8
NOTE
 48
50.0
100
AcDbLine
 10
4087.963059207441
 20
460.2006637228039
 30
0.0
 11
4087.963059207441
 21
466.7006637228048
 31
0.0
  0
LINE
  5
2171
330
2
100
AcDbEntity
  8
NOTE
 48
50.0
100
AcDbLine
 10
4087.963059207441
 20
-121.7993362771965
 30
0.0
 11
4087.963059207441
 21
-121.7993362771965
 31
0.0
  0
LINE
  5
2172
330
2
100
AcDbEntity
  8
NOTE
 48
50.0
100
AcDbLine
 10
4087.963059207441
 20
-121.7993362771965
 30
0.0
 11
4087.963059207441
 21
-121.7993362771965
 31
0.0
  0
LINE
  5
2173
330
2
100
AcDbEntity
  8
NOTE
 48
50.0
100
AcDbLine
 10
4081.463059207441
 20
-121.7993362771965
 30
0.0
 11
4087.963059207441
 21
-121.7993362771965
 31
0.0
  0
LINE
  5
2174
330
2
100
AcDbEntity
  8
NOTE
 48
50.0
100
AcDbLine
 10
4087.963059207441
 20
-121.7993362771965
 30
0.0
 11
4094.463059207441
 21
-121.7993362771965
 31
0.0
  0
LINE
  5
2175
330
2
100
AcDbEntity
  8
NOTE
 48
50.0
100
AcDbLine
 10
4087.963059207441
 20
-128.2993362771965
 30
0.0
 11
4087.963059207441
 21
-121.7993362771965
 31
0.0
  0
LINE
  5
2176
330
2
100
AcDbEntity
  8
NOTE
 48
50.0
100
AcDbLine
 10
4087.963059207441
 20
-121.7993362771965
 30
0.0
 11
4087.963059207441
 21
-115.2993362771965
 31
0.0
  0
LINE
  5
2177
330
2
100
AcDbEntity
  8
NOTE
 48
50.0
100
AcDbLine
 10
4087.963059207441
 20
-703.7993362771965
 30
0.0
 11
4087.963059207441
 21
-703.7993362771965
 31
0.0
  0
LINE
  5
2178
330
2
100
AcDbEntity
  8
NOTE
 48
50.0
100
AcDbLine
 10
4087.963059207441
 20
-703.7993362771965
 30
0.0
 11
4087.963059207441
 21
-703.7993362771965
 31
0.0
  0
LINE
  5
2179
330
2
100
AcDbEntity
  8
NOTE
 48
50.0
100
AcDbLine
 10
4081.463059207441
 20
-703.7993362771965
 30
0.0
 11
4087.963059207441
 21
-703.7993362771965
 31
0.0
  0
LINE
  5
217A
330
2
100
AcDbEntity
  8
NOTE
 48
50.0
100
AcDbLine
 10
4087.963059207441
 20
-703.7993362771965
 30
0.0
 11
4094.463059207441
 21
-703.7993362771965
 31
0.0
  0
LINE
  5
217B
330
2
100
AcDbEntity
  8
NOTE
 48
50.0
100
AcDbLine
 10
4087.963059207441
 20
-710.2993362771974
 30
0.0
 11
4087.963059207441
 21
-703.7993362771965
 31
0.0
  0
LINE
  5
217C
330
2
100
AcDbEntity
  8
NOTE
 48
50.0
100
AcDbLine
 10
4087.963059207441
 20
-703.7993362771965
 30
0.0
 11
4087.963059207441
 21
-697.2993362771974
 31
0.0
  0
LINE
  5
217E
330
2
100
AcDbEntity
  8
OUTLINE
 48
50.0
100
AcDbLine
 10
4559.963059207442
 20
-299.4578303188916
 30
0.0
 11
4559.963059207442
 21
-718.7993362771956
 31
0.0
  0
LINE
  5
217F
330
2
100
AcDbEntity
  8
OUTLINE
 48
50.0
100
AcDbLine
 10
4558.963059207441
 20
-696.2993362771956
 30
0.0
 11
4558.963059207441
 21
-718.7993362771956
 31
0.0
  0
LINE
  5
2180
330
2
100
AcDbEntity
  8
HID
  6
HIDDEN
 48
50.0
100
AcDbLine
 10
4544.963059207442
 20
482.2006637228049
 30
0.0
 11
4544.963059207442
 21
468.3611469032919
 31
0.0
  0
LINE
  5
2181
330
2
100
AcDbEntity
  8
HID
  6
HIDDEN
 48
50.0
100
AcDbLine
 10
4544.963059207442
 20
467.6907202843337
 30
0.0
 11
4544.963059207442
 21
453.5216300837808
 31
0.0
  0
LINE
  5
2182
330
2
100
AcDbEntity
  8
HID
  6
HIDDEN
 48
50.0
100
AcDbLine
 10
4544.963059207442
 20
452.8512034648217
 30
0.0
 11
4544.963059207442
 21
-696.2993362771956
 31
0.0
  0
LINE
  5
2183
330
2
100
AcDbEntity
  8
OUTLINE
 48
50.0
100
AcDbLine
 10
4544.963059207442
 20
-696.2993362771956
 30
0.0
 11
4544.963059207442
 21
-718.7993362771956
 31
0.0
  0
LINE
  5
2184
330
2
100
AcDbEntity
  8
HID
  6
HIDDEN
 48
50.0
100
AcDbLine
 10
4544.963059207442
 20
482.2006637228049
 30
0.0
 11
4544.963059207442
 21
483.2006637228048
 31
0.0
  0
LINE
  5
2188
330
2
100
AcDbEntity
  8
HID
  6
HIDDEN
 48
50.0
100
AcDbLine
 10
4544.963059207442
 20
453.5216300837799
 30
0.0
 11
4544.963059207442
 21
452.8512034648217
 31
0.0
  0
LINE
  5
218A
330
2
100
AcDbEntity
  8
OUTLINE
 48
50.0
100
AcDbLine
 10
4559.963059207442
 20
483.2006637228048
 30
0.0
 11
4558.963059207439
 21
483.2006637228048
 31
0.0
  0
LINE
  5
218B
330
2
100
AcDbEntity
  8
HID
  6
HIDDEN
 48
50.0
100
AcDbLine
 10
4558.963059207439
 20
483.2006637228048
 30
0.0
 11
4539.963059207443
 21
483.2006637228048
 31
0.0
  0
LINE
  5
218C
330
2
100
AcDbEntity
  8
OUTLINE
 48
50.0
100
AcDbLine
 10
4559.963059207442
 20
483.2006637228057
 30
0.0
 11
4559.963059207442
 21
270.2535973628037
 31
0.0
  0
LINE
  5
2192
330
2
100
AcDbEntity
  8
HID
  6
HIDDEN
 48
50.0
100
AcDbLine
 10
4544.963059207442
 20
467.6907202843337
 30
0.0
 11
4544.963059207442
 21
468.3611469032928
 31
0.0
  0
LINE
  5
2196
330
2
100
AcDbEntity
  8
OUTLINE
 48
50.0
100
AcDbLine
 10
4559.963059207442
 20
-718.7993362771956
 30
0.0
 11
4558.963059207441
 21
-718.7993362771956
 31
0.0
  0
LINE
  5
2197
330
2
100
AcDbEntity
  8
OUTLINE
 48
50.0
100
AcDbLine
 10
4558.963059207441
 20
-718.7993362771956
 30
0.0
 11
4544.963059207442
 21
-718.7993362771956
 31
0.0
  0
LINE
  5
2198
330
2
100
AcDbEntity
  8
OUTLINE
 48
50.0
100
AcDbLine
 10
4544.963059207442
 20
-696.2993362771956
 30
0.0
 11
4558.963059207441
 21
-696.2993362771956
 31
0.0
  0
LINE
  5
219B
330
2
100
AcDbEntity
  8
OUTLINE
 48
50.0
100
AcDbLine
 10
4544.963059207442
 20
-696.2993362771956
 30
0.0
 11
4539.963059207443
 21
-691.2993362771965
 31
0.0
  0
LINE
  5
219E
330
2
100
AcDbEntity
  8
OUTLINE
 48
50.0
100
AcDbLine
 10
4539.963059207443
 20
-314.0600719402385
 30
0.0
 11
4539.963059207443
 21
-691.2993362771965
 31
0.0
  0
LINE
  5
219F
330
2
100
AcDbEntity
  8
OUTLINE
 48
50.0
100
AcDbLine
 10
4559.963059207442
 20
270.2535973628026
 30
0.0
 11
4558.963059207441
 21
270.2535973628026
 31
0.0
  0
LINE
  5
21A0
330
2
100
AcDbEntity
  8
OUTLINE
 48
50.0
100
AcDbLine
 10
4559.963059207442
 20
270.2535973628017
 30
0.0
 11
4559.963059207442
 21
-299.4578303188916
 31
0.0
  0
LINE
  5
21A1
330
2
100
AcDbEntity
  8
OUTLINE
 48
50.0
100
AcDbLine
 10
4559.963059207442
 20
-299.4578303188916
 30
0.0
 11
4558.963059207441
 21
-299.4578303188916
 31
0.0
  0
ARC
  5
21BB
330
2
100
AcDbEntity
  8
OUTLINE
 48
50.0
100
AcDbCircle
 10
4551.96305920744
 20
460.2006637228048
 30
0.0
 40
3.5
100
AcDbArc
 50
162.1957676183326
 51
187.9704983590136
  0
ARC
  5
21BC
330
2
100
AcDbEntity
  8
HID
  6
HIDDEN
 48
50.0
100
AcDbCircle
 10
4551.96305920744
 20
460.2006637228048
 30
0.0
 40
3.5
100
AcDbArc
 50
187.9704983590136
 51
162.1957676183326
  0
CIRCLE
  5
21BD
330
2
100
AcDbEntity
  8
HID
  6
HIDDEN
 48
50.0
100
AcDbCircle
 10
4551.96305920744
 20
-121.7993362771956
 30
0.0
 40
3.5
  0
CIRCLE
  5
21BE
330
2
100
AcDbEntity
  8
OUTLINE
 48
50.0
100
AcDbCircle
 10
4551.96305920744
 20
-703.7993362771965
 30
0.0
 40
3.5
  0
ELLIPSE
  5
21BF
330
2
100
AcDbEntity
  8
OUTLINE
 48
50.0
100
AcDbEllipse
 10
4547.963059207442
 20
432.8178557584794
 30
0.0
 11
2.0
 21
0.0
 31
0.0
210
0.0
220
0.0
230
1.0
 40
0.7419758409756163
 41
0.2278589501840741
 42
2.913733703405676
  0
ELLIPSE
  5
21C1
330
2
100
AcDbEntity
  8
OUTLINE
 48
50.0
100
AcDbEllipse
 10
4547.963059207442
 20
306.6819627926245
 30
0.0
 11
2.0
 21
0.0
 31
0.0
210
0.0
220
0.0
230
1.0
 40
0.7419758409756163
 41
0.2278589501840946
 42
2.913733703405698
  0
ELLIPSE
  5
21C4
330
2
100
AcDbEntity
  8
OUTLINE
 48
50.0
100
AcDbEllipse
 10
4547.963059207442
 20
307.3523894115835
 30
0.0
 11
-2.0
 21
0.0
 31
0.0
210
0.0
220
0.0
230
1.0
 40
0.7419758409756163
 41
2.733740303589319
 42
6.691037657180059
  0
ELLIPSE
  5
21C6
330
2
100
AcDbEntity
  8
OUTLINE
 48
50.0
100
AcDbEllipse
 10
4547.963059207442
 20
433.4882823774385
 30
0.0
 11
-2.0
 21
0.0
 31
0.0
210
0.0
220
0.0
230
1.0
 40
0.7419758409756163
 41
2.733740305187962
 42
6.691037655581411
  0
ELLIPSE
  5
21C7
330
2
100
AcDbEntity
  8
OUTLINE
 48
50.0
100
AcDbEllipse
 10
4547.963059207442
 20
-253.7521883259185
 30
0.0
 11
2.0
 21
0.0
 31
0.0
210
0.0
220
0.0
230
1.0
 40
0.9218631515885004
 41
0.1052847268102987
 42
3.036307926779493
  0
ELLIPSE
  5
21C9
330
2
100
AcDbEntity
  8
OUTLINE
 48
50.0
100
AcDbEllipse
 10
4547.963059207442
 20
-69.3795580082176
 30
0.0
 11
2.0
 21
0.0
 31
0.0
210
0.0
220
0.0
230
1.0
 40
0.9218631515885004
 41
0.1052847268103378
 42
3.036307926779443
  0
ELLIPSE
  5
21CB
330
2
100
AcDbEntity
  8
OUTLINE
 48
50.0
100
AcDbEllipse
 10
4547.963059207442
 20
114.9930723094824
 30
0.0
 11
2.0
 21
0.0
 31
0.0
210
0.0
220
0.0
230
1.0
 40
0.9218631515885004
 41
0.1052847268103573
 42
3.036307926779435
  0
ELLIPSE
  5
21CD
330
2
100
AcDbEntity
  8
OUTLINE
 48
50.0
100
AcDbEllipse
 10
4547.963059207442
 20
-253.3646727394664
 30
0.0
 11
-2.0
 21
0.0
 31
0.0
210
0.0
220
0.0
230
1.0
 40
0.9218631515885004
 41
0.0000000000000002
 42
6.283185307179584
  0
ELLIPSE
  5
21CE
330
2
100
AcDbEntity
  8
OUTLINE
 48
50.0
100
AcDbEllipse
 10
4547.963059207442
 20
-68.99204242176551
 30
0.0
 11
-2.0
 21
0.0
 31
0.0
210
0.0
220
0.0
230
1.0
 40
0.9218631515885004
 41
0.0000000000000002
 42
6.283185307179584
  0
ELLIPSE
  5
21CF
330
2
100
AcDbEntity
  8
OUTLINE
 48
50.0
100
AcDbEllipse
 10
4547.963059207442
 20
115.3805878959344
 30
0.0
 11
-2.0
 21
0.0
 31
0.0
210
0.0
220
0.0
230
1.0
 40
0.9218631515885004
 41
0.0000000000000002
 42
6.283185307179584
  0
ELLIPSE
  5
21D0
330
2
100
AcDbEntity
  8
OUTLINE
 48
50.0
100
AcDbEllipse
 10
4547.963059207442
 20
-378.9280634240843
 30
0.0
 11
-2.0
 21
0.0
 31
0.0
210
0.0
220
0.0
230
1.0
 40
0.7032763991609992
 41
0.0000000000000002
 42
6.283185307179584
  0
ELLIPSE
  5
21D1
330
2
100
AcDbEntity
  8
OUTLINE
 48
50.0
100
AcDbEllipse
 10
4547.963059207442
 20
-378.2171468984764
 30
0.0
 11
2.0
 21
0.0
 31
0.0
210
0.0
220
0.0
230
1.0
 40
0.7032763991609992
 41
3.397078903106963
 42
6.02769905766241
  0
ELLIPSE
  5
21D3
330
2
100
AcDbEntity
  8
OUTLINE
 48
50.0
100
AcDbEllipse
 10
4547.963059207442
 20
-625.0748031304344
 30
0.0
 11
-2.0
 21
0.0
 31
0.0
210
0.0
220
0.0
230
1.0
 40
0.7032763991609992
 41
0.0000000000000002
 42
6.283185307179584
  0
ELLIPSE
  5
21D4
330
2
100
AcDbEntity
  8
OUTLINE
 48
50.0
100
AcDbEllipse
 10
4547.963059207442
 20
-624.3638866048252
 30
0.0
 11
2.0
 21
0.0
 31
0.0
210
0.0
220
0.0
230
1.0
 40
0.7032763991609992
 41
3.397078903106985
 42
6.027699057662394
  0
LINE
  5
21D6
330
2
100
AcDbEntity
  8
OUTLINE
 48
50.0
100
AcDbLine
 10
4079.963059207442
 20
270.2535973628017
 30
0.0
 11
4079.963059207442
 21
-299.4578303188916
 31
0.0
  0
LINE
  5
21D7
330
2
100
AcDbEntity
  8
HID
  6
HIDDEN
 48
50.0
100
AcDbLine
 10
4094.963059207443
 20
482.2006637228049
 30
0.0
 11
4094.963059207443
 21
483.2006637228039
 31
0.0
  0
LINE
  5
21D8
330
2
100
AcDbEntity
  8
OUTLINE
 48
50.0
100
AcDbLine
 10
4080.963059207441
 20
270.2535973628017
 30
0.0
 11
4079.963059207442
 21
270.2535973628017
 31
0.0
  0
LINE
  5
21D9
330
2
100
AcDbEntity
  8
OUTLINE
 48
50.0
100
AcDbLine
 10
4079.963059207442
 20
483.2006637228039
 30
0.0
 11
4079.963059207442
 21
270.2535973628017
 31
0.0
  0
LINE
  5
21DA
330
2
100
AcDbEntity
  8
HID
  6
HIDDEN
 48
50.0
100
AcDbLine
 10
4099.963059207442
 20
483.2006637228039
 30
0.0
 11
4080.963059207441
 21
483.2006637228039
 31
0.0
  0
LINE
  5
21DB
330
2
100
AcDbEntity
  8
OUTLINE
 48
50.0
100
AcDbLine
 10
4080.963059207441
 20
483.2006637228039
 30
0.0
 11
4079.963059207442
 21
483.2006637228039
 31
0.0
  0
LINE
  5
21E1
330
2
100
AcDbEntity
  8
HID
  6
HIDDEN
 48
50.0
100
AcDbLine
 10
4094.963059207443
 20
452.8512034648208
 30
0.0
 11
4094.963059207443
 21
453.5216300837799
 31
0.0
  0
LINE
  5
21E8
330
2
100
AcDbEntity
  8
HID
  6
HIDDEN
 48
50.0
100
AcDbLine
 10
4094.963059207443
 20
468.3611469032919
 30
0.0
 11
4094.963059207443
 21
467.6907202843328
 31
0.0
  0
LINE
  5
21EC
330
2
100
AcDbEntity
  8
OUTLINE
 48
50.0
100
AcDbLine
 10
4080.963059207441
 20
-718.7993362771964
 30
0.0
 11
4079.963059207442
 21
-718.7993362771964
 31
0.0
  0
LINE
  5
21ED
330
2
100
AcDbEntity
  8
OUTLINE
 48
50.0
100
AcDbLine
 10
4079.963059207442
 20
-299.4578303188926
 30
0.0
 11
4079.963059207442
 21
-718.7993362771964
 31
0.0
  0
LINE
  5
21EF
330
2
100
AcDbEntity
  8
OUTLINE
 48
50.0
100
AcDbLine
 10
4080.963059207441
 20
-299.4578303188926
 30
0.0
 11
4079.963059207442
 21
-299.4578303188926
 31
0.0
  0
LINE
  5
21F0
330
2
100
AcDbEntity
  8
OUTLINE
 48
50.0
100
AcDbLine
 10
4094.963059207443
 20
-718.7993362771964
 30
0.0
 11
4080.963059207441
 21
-718.7993362771964
 31
0.0
  0
LINE
  5
21F1
330
2
100
AcDbEntity
  8
OUTLINE
 48
50.0
100
AcDbLine
 10
4094.963059207443
 20
-718.7993362771964
 30
0.0
 11
4094.963059207443
 21
-696.2993362771965
 31
0.0
  0
LINE
  5
21F2
330
2
100
AcDbEntity
  8
HID
  6
HIDDEN
 48
50.0
100
AcDbLine
 10
4094.963059207443
 20
-696.2993362771965
 30
0.0
 11
4094.963059207443
 21
452.8512034648208
 31
0.0
  0
LINE
  5
21F3
330
2
100
AcDbEntity
  8
HID
  6
HIDDEN
 48
50.0
100
AcDbLine
 10
4094.963059207443
 20
453.5216300837799
 30
0.0
 11
4094.963059207443
 21
467.6907202843328
 31
0.0
  0
LINE
  5
21F4
330
2
100
AcDbEntity
  8
HID
  6
HIDDEN
 48
50.0
100
AcDbLine
 10
4094.963059207443
 20
468.3611469032919
 30
0.0
 11
4094.963059207443
 21
482.2006637228049
 31
0.0
  0
LINE
  5
21F5
330
2
100
AcDbEntity
  8
OUTLINE
 48
50.0
100
AcDbLine
 10
4080.963059207441
 20
-696.2993362771965
 30
0.0
 11
4094.963059207443
 21
-696.2993362771965
 31
0.0
  0
LINE
  5
21F6
330
2
100
AcDbEntity
  8
OUTLINE
 48
50.0
100
AcDbLine
 10
4099.963059207442
 20
-691.2993362771965
 30
0.0
 11
4094.963059207443
 21
-696.2993362771965
 31
0.0
  0
LINE
  5
21F8
330
2
100
AcDbEntity
  8
OUTLINE
 48
50.0
100
AcDbLine
 10
4099.963059207442
 20
-314.0600719402385
 30
0.0
 11
4099.963059207442
 21
-691.2993362771965
 31
0.0
  0
LINE
  5
21FB
330
2
100
AcDbEntity
  8
OUTLINE
 48
50.0
100
AcDbLine
 10
4080.963059207441
 20
-718.7993362771964
 30
0.0
 11
4080.963059207441
 21
-696.2993362771965
 31
0.0
  0
ELLIPSE
  5
2214
330
2
100
AcDbEntity
  8
OUTLINE
 48
50.0
100
AcDbEllipse
 10
4091.963059207442
 20
115.3805878959335
 30
0.0
 11
-2.0
 21
0.0
 31
0.0
210
0.0
220
0.0
230
1.0
 40
0.9218631515885004
 41
0.0000000000000002
 42
6.283185307179584
  0
ELLIPSE
  5
2215
330
2
100
AcDbEntity
  8
OUTLINE
 48
50.0
100
AcDbEllipse
 10
4092.13055444374
 20
-68.99204242176643
 30
0.0
 11
-2.0
 21
0.0
 31
0.0
210
0.0
220
0.0
230
1.0
 40
0.9218631515885004
 41
0.0000000000000002
 42
6.283185307179584
  0
ELLIPSE
  5
2216
330
2
100
AcDbEntity
  8
OUTLINE
 48
50.0
100
AcDbEllipse
 10
4092.160963718844
 20
-253.3646727394664
 30
0.0
 11
-2.0
 21
0.0
 31
0.0
210
0.0
220
0.0
230
1.0
 40
0.9218631515885004
 41
0.0000000000000002
 42
6.283185307179584
  0
ELLIPSE
  5
2218
330
2
100
AcDbEntity
  8
OUTLINE
 48
50.0
100
AcDbEllipse
 10
4091.879967740042
 20
307.3523894115826
 30
0.0
 11
-2.0
 21
0.0
 31
0.0
210
0.0
220
0.0
230
1.0
 40
0.7419758409756163
 41
2.645923449550599
 42
6.595452031404907
  0
ELLIPSE
  5
221A
330
2
100
AcDbEntity
  8
OUTLINE
 48
50.0
100
AcDbEllipse
 10
4091.963059207442
 20
433.4882823774376
 30
0.0
 11
-2.0
 21
0.0
 31
0.0
210
0.0
220
0.0
230
1.0
 40
0.7419758409756163
 41
2.733740305189836
 42
6.691037655579648
  0
ELLIPSE
  5
221B
330
2
100
AcDbEntity
  8
OUTLINE
 48
50.0
100
AcDbEllipse
 10
4091.963059207442
 20
432.8178557584785
 30
0.0
 11
2.000000000000643
 21
0.0
 31
0.0
210
0.0
220
0.0
230
1.0
 40
0.7419758409756163
 41
0.2278589501847408
 42
2.913733703405011
  0
ELLIPSE
  5
221D
330
2
100
AcDbEntity
  8
OUTLINE
 48
50.0
100
AcDbEllipse
 10
4091.879967740042
 20
306.6819627926245
 30
0.0
 11
2.000000000002879
 21
0.0
 31
0.0
210
0.0
220
0.0
230
1.0
 40
0.7419758409756163
 41
0.2278589501870254
 42
2.913733703402943
  0
ARC
  5
221F
330
2
100
AcDbEntity
  8
HID
  6
HIDDEN
 48
50.0
100
AcDbCircle
 10
4087.963059207441
 20
460.2006637228039
 30
0.0
 40
3.5
100
AcDbArc
 50
17.80423238166736
 51
352.0295016409864
  0
ARC
  5
2220
330
2
100
AcDbEntity
  8
OUTLINE
 48
50.0
100
AcDbCircle
 10
4087.963059207441
 20
460.2006637228039
 30
0.0
 40
3.5
100
AcDbArc
 50
352.0295016409864
 51
17.80423238166736
  0
CIRCLE
  5
2221
330
2
100
AcDbEntity
  8
HID
  6
HIDDEN
 48
50.0
100
AcDbCircle
 10
4087.963059207441
 20
-121.7993362771965
 30
0.0
 40
3.5
  0
CIRCLE
  5
2222
330
2
100
AcDbEntity
  8
OUTLINE
 48
50.0
100
AcDbCircle
 10
4087.963059207441
 20
-703.7993362771965
 30
0.0
 40
3.5
  0
ELLIPSE
  5
2223
330
2
100
AcDbEntity
  8
OUTLINE
 48
50.0
100
AcDbEllipse
 10
4092.160963718844
 20
-253.7521883259194
 30
0.0
 11
1.999999999997605
 21
0.0
 31
0.0
210
0.0
220
0.0
230
1.0
 40
0.9218631515885004
 41
0.1052847268048458
 42
3.036307926784921
  0
ELLIPSE
  5
2225
330
2
100
AcDbEntity
  8
OUTLINE
 48
50.0
100
AcDbEllipse
 10
4092.13055444374
 20
-69.37955800821942
 30
0.0
 11
1.999999999997653
 21
0.0
 31
0.0
210
0.0
220
0.0
230
1.0
 40
0.9218631515885004
 41
0.1052847268050492
 42
3.036307926784886
  0
ELLIPSE
  5
2227
330
2
100
AcDbEntity
  8
OUTLINE
 48
50.0
100
AcDbEllipse
 10
4091.963059207442
 20
114.9930723094801
 30
0.0
 11
1.999999999997698
 21
0.0
 31
0.0
210
0.0
220
0.0
230
1.0
 40
0.9218631515885004
 41
0.1052847268051306
 42
3.036307926784662
  0
ELLIPSE
  5
2229
330
2
100
AcDbEntity
  8
OUTLINE
 48
50.0
100
AcDbEllipse
 10
4091.963059207442
 20
-378.9280634240852
 30
0.0
 11
-2.0
 21
0.0
 31
0.0
210
0.0
220
0.0
230
1.0
 40
0.7032763991609987
 41
0.0000000000000002
 42
6.283185307179584
  0
ELLIPSE
  5
222A
330
2
100
AcDbEntity
  8
OUTLINE
 48
50.0
100
AcDbEllipse
 10
4091.963059207442
 20
-378.2171468984764
 30
0.0
 11
2.0
 21
0.0
 31
0.0
210
0.0
220
0.0
230
1.0
 40
0.7032763991609987
 41
3.397078903106963
 42
6.02769905766241
  0
ELLIPSE
  5
222C
330
2
100
AcDbEntity
  8
OUTLINE
 48
50.0
100
AcDbEllipse
 10
4091.963059207442
 20
-625.0748031304344
 30
0.0
 11
-2.0
 21
0.0
 31
0.0
210
0.0
220
0.0
230
1.0
 40
0.7032763991609987
 41
0.0000000000000002
 42
6.283185307179584
  0
ELLIPSE
  5
222D
330
2
100
AcDbEntity
  8
OUTLINE
 48
50.0
100
AcDbEllipse
 10
4091.963059207442
 20
-624.3638866048265
 30
0.0
 11
2.0
 21
0.0
 31
0.0
210
0.0
220
0.0
230
1.0
 40
0.7032763991609987
 41
3.397078903106963
 42
6.02769905766241
  0
LINE
  5
222F
330
2
100
AcDbEntity
  8
OUTLINE
 48
50.0
100
AcDbLine
 10
4080.963059207441
 20
254.1864801098175
 30
0.0
 11
4080.963059207441
 21
-299.9921778840274
 31
0.0
  0
LINE
  5
2230
330
2
100
AcDbEntity
  8
OUTLINE
 48
50.0
100
AcDbLine
 10
4558.963059207441
 20
-299.9921778840274
 30
0.0
 11
4558.963059207441
 21
254.1864801098175
 31
0.0
  0
LINE
  5
2236
330
2
100
AcDbEntity
  8
OUTLINE
 48
50.0
100
AcDbLine
 10
4199.900799080336
 20
259.8315478080788
 30
0.0
 11
4202.025319334548
 21
259.8315478080788
 31
0.0
  0
LINE
  5
2238
330
2
100
AcDbEntity
  8
OUTLINE
 48
50.0
100
AcDbLine
 10
4437.900799080336
 20
259.8315478080788
 30
0.0
 11
4440.025319334549
 21
259.8315478080788
 31
0.0
  0
LINE
  5
2245
330
2
100
AcDbEntity
  8
OUTLINE
 48
50.0
100
AcDbLine
 10
4539.963059207443
 20
-314.0600719402385
 30
0.0
 11
4539.963059207443
 21
-313.3566772374272
 31
0.0
  0
LINE
  5
2246
330
2
100
AcDbEntity
  8
OUTLINE
 48
50.0
100
AcDbLine
 10
4099.963059207442
 20
-314.0600719402385
 30
0.0
 11
4539.963059207443
 21
-314.0600719402385
 31
0.0
  0
LINE
  5
2247
330
2
100
AcDbEntity
  8
OUTLINE
 48
50.0
100
AcDbLine
 10
4099.963059207442
 20
-313.3566772374272
 30
0.0
 11
4099.963059207442
 21
-314.0600719402385
 31
0.0
  0
LINE
  5
2248
330
2
100
AcDbEntity
  8
OUTLINE
 48
50.0
100
AcDbLine
 10
4085.963059207442
 20
-313.3566772374272
 30
0.0
 11
4099.963059207442
 21
-313.3566772374272
 31
0.0
  0
LINE
  5
2249
330
2
100
AcDbEntity
  8
OUTLINE
 48
50.0
100
AcDbLine
 10
4085.963059207442
 20
-313.3566772374272
 30
0.0
 11
4080.963059207441
 21
-309.8397037233742
 31
0.0
  0
LINE
  5
224A
330
2
100
AcDbEntity
  8
OUTLINE
 48
50.0
100
AcDbLine
 10
4080.963059207441
 20
-299.9921778840274
 30
0.0
 11
4080.963059207441
 21
-309.8397037233742
 31
0.0
  0
LINE
  5
224B
330
2
100
AcDbEntity
  8
OUTLINE
 48
50.0
100
AcDbLine
 10
4080.963059207441
 20
-299.9921778840274
 30
0.0
 11
4558.963059207441
 21
-299.9921778840274
 31
0.0
  0
LINE
  5
224C
330
2
100
AcDbEntity
  8
OUTLINE
 48
50.0
100
AcDbLine
 10
4558.963059207441
 20
-309.8397037233742
 30
0.0
 11
4558.963059207441
 21
-299.9921778840274
 31
0.0
  0
LINE
  5
224F
330
2
100
AcDbEntity
  8
OUTLINE
 48
50.0
100
AcDbLine
 10
4539.963059207443
 20
-313.3566772374272
 30
0.0
 11
4553.963059207442
 21
-313.3566772374272
 31
0.0
  0
LINE
  5
2251
330
2
100
AcDbEntity
  8
OUTLINE
 48
50.0
100
AcDbLine
 10
4558.963059207441
 20
-309.8397037233742
 30
0.0
 11
4553.963059207442
 21
-313.3566772374272
 31
0.0
  0
LINE
  5
225A
330
2
100
AcDbEntity
  8
BASIS
  6
DASHDOT
 62
     6
100
AcDbLine
 10
4319.963059207442
 20
-744.0935778457212
 30
0.0
 11
4319.963059207442
 21
516.3732943188168
 31
0.0
  0
LINE
  5
225B
330
2
100
AcDbEntity
  8
ARRANGE
  6
Continuous
 62
     1
100
AcDbLine
 10
4303.278941643038
 20
-735.4834538415982
 30
0.0
 11
4336.647176771847
 21
-702.1152187127916
 31
0.0
  0
LINE
  5
225C
330
2
100
AcDbEntity
  8
ARRANGE
  6
Continuous
 62
     1
100
AcDbLine
 10
4303.278941643038
 20
-702.1152187127916
 30
0.0
 11
4336.647176771847
 21
-735.4834538415982
 31
0.0
  0
CIRCLE
  5
225D
330
2
100
AcDbEntity
  8
ARRANGE
100
AcDbCircle
 10
4319.963059207442
 20
-718.7993362771942
 30
0.0
 40
15.0
  0
DIMENSION
  5
229A
330
2
100
AcDbEntity
  8
SIZE
100
AcDbDimension
  2
*D29
 10
4551.96305920744
 20
532.8838318051095
 30
0.0
 11
4319.963059207441
 21
552.8838318051096
 31
0.0
 70
    32
 71
     5
 42
463.999999999999
  3
STANDARD
100
AcDbAlignedDimension
 13
4087.963059207441
 23
467.6907202843328
 33
0.0
 14
4551.96305920744
 24
467.6907202843328
 34
0.0
100
AcDbRotatedDimension
1001
ACAD
1000
DSTYLE
1002
{
1070
    40
1040
10.0
1070
    45
1040
0.5
1070
    50
1040
0.7853981633974483
1070
    90
1070
     1
1070
   271
1070
     1
1070
   272
1070
     1
1002
}
  0
DIMENSION
  5
22A7
330
2
100
AcDbEntity
  8
SIZE
100
AcDbDimension
  2
*D30
 10
4559.963059207442
 20
577.0433988268865
 30
0.0
 11
4319.963059207442
 21
597.0433988268865
 31
0.0
 70
    32
 71
     5
 42
480.0
  3
STANDARD
100
AcDbAlignedDimension
 13
4079.963059207442
 23
483.2006637228039
 33
0.0
 14
4559.963059207442
 24
483.2006637228039
 34
0.0
100
AcDbRotatedDimension
1001
ACAD
1000
DSTYLE
1002
{
1070
    40
1040
10.0
1070
    45
1040
0.5
1070
    50
1040
0.7853981633974483
1070
    90
1070
     1
1070
   271
1070
     1
1070
   272
1070
     1
1002
}
  0
DIMENSION
  5
22B4
330
2
100
AcDbEntity
  8
SIZE
100
AcDbDimension
  2
*D31
 10
4023.560062552922
 20
-121.7993362771965
 30
0.0
 11
4003.560062552923
 21
169.2006637228043
 31
0.0
 70
    32
 71
     5
 42
582.0000000000004
  3
STANDARD
100
AcDbAlignedDimension
 13
4081.463059207441
 23
460.2006637228039
 33
0.0
 14
4081.463059207441
 24
-121.7993362771965
 34
0.0
 50
90.0
100
AcDbRotatedDimension
1001
ACAD
1000
DSTYLE
1002
{
1070
    40
1040
10.0
1070
    45
1040
0.5
1070
    50
1040
0.7853981633974483
1070
    90
1070
     1
1070
   271
1070
     1
1070
   272
1070
     1
1002
}
  0
DIMENSION
  5
22C1
330
2
100
AcDbEntity
  8
SIZE
100
AcDbDimension
  2
*D32
 10
4023.560062552922
 20
-703.7993362771965
 30
0.0
 11
4003.560062552923
 21
-412.7993362771958
 31
0.0
 70
    32
 71
     5
 42
582.0
  3
STANDARD
100
AcDbAlignedDimension
 13
4081.463059207441
 23
-121.7993362771965
 33
0.0
 14
4081.463059207441
 24
-703.7993362771965
 34
0.0
 50
90.0
100
AcDbRotatedDimension
1001
ACAD
1000
DSTYLE
1002
{
1070
   279
1070
     1
1070
    40
1040
10.0
1070
    45
1040
0.5
1070
    50
1040
0.7853981633974483
1070
    90
1070
     1
1070
   271
1070
     1
1070
   272
1070
     1
1002
}
  0
DIMENSION
  5
22CE
330
2
100
AcDbEntity
  8
SIZE
100
AcDbDimension
  2
*D33
 10
3972.667443209335
 20
-718.7993362771964
 30
0.0
 11
3952.667443209334
 21
-113.2976033731686
 31
0.0
 70
    32
 71
     5
 42
1211.003465808054
  3
STANDARD
100
AcDbAlignedDimension
 13
4085.963059207442
 23
492.2041295308579
 33
0.0
 14
4079.963059207442
 24
-718.7993362771964
 34
0.0
 50
90.0
100
AcDbRotatedDimension
1001
ACAD
1000
DSTYLE
1002
{
1070
    40
1040
10.0
1070
    45
1040
0.5
1070
    50
1040
0.7853981633974483
1070
    90
1070
     1
1070
   271
1070
     1
1070
   272
1070
     1
1002
}
  0
ENDSEC
  0
SECTION
  2
OBJECTS
  0
DICTIONARY
  5
A
330
0
100
AcDbDictionary
281
     1
  3
ACAD_2007HEADERVARS_RT
350
2685
  3
ACAD_BACKGROUND
350
B1D
  3
ACAD_COLOR
350
4D
  3
ACAD_GROUP
350
3A
  3
ACAD_LAYOUT
350
17
  3
ACAD_MATERIAL
350
C
  3
ACAD_MLEADERSTYLE
350
B16
  3
ACAD_MLINESTYLE
350
3B
  3
ACAD_PLOTSETTINGS
350
3C
  3
ACAD_PLOTSTYLENAME
350
9
  3
ACAD_SCALELIST
350
4E
  3
ACAD_TABLESTYLE
350
4F
  3
ACAD_VISUALSTYLE
350
2D
  3
ACDB_RECOMPOSE_DATA
350
B02
  3
AcDbVariableDictionary
350
B03
  3
AcmDictionary
350
AFC
  3
AMG
350
16E6
  3
AMGSNAPSETTINGS
350
17DB
  3
DWGPROPS
350
2684
  0
DICTIONARY
  5
20
330
1F
100
AcDbDictionary
280
     1
281
     1
  3
ACAD_LAYERFILTERS
360
1D91
  3
ACAD_LAYERSTATES
360
21
  3
ACLYDICTIONARY
360
1D90
  0
DICTIONARY
  5
6
330
5
100
AcDbDictionary
280
     1
281
     1
  3
ADSK_XREC_LAYER_RECONCILED
360
7
  0
DICTIONARY
  5
C11
330
C10
100
AcDbDictionary
280
     1
281
     1
  0
DICTIONARY
  5
C13
330
C12
100
AcDbDictionary
280
     1
281
     1
  0
DICTIONARY
  5
C17
330
C16
100
AcDbDictionary
280
     1
281
     1
  0
DICTIONARY
  5
C19
330
C18
100
AcDbDictionary
280
     1
281
     1
  0
DICTIONARY
  5
C1B
330
C1A
100
AcDbDictionary
280
     1
281
     1
  0
DICTIONARY
  5
C1D
330
C1C
100
AcDbDictionary
280
     1
281
     1
  0
DICTIONARY
  5
1F2F
330
1F2E
100
AcDbDictionary
280
     1
281
     1
  0
DICTIONARY
  5
3
330
2
100
AcDbDictionary
280
     1
281
     1
  3
ACAD_INDEX
360
1967
  3
ACAD_SORTENTS
360
B34
  0
DICTIONARY
  5
2685
102
{ACAD_REACTORS
330
A
102
}
330
A
100
AcDbDictionary
281
     1
  3
DIMARCSYM
350
2687
  3
DIMFXL
350
2686
  0
DICTIONARY
  5
B1D
102
{ACAD_REACTORS
330
A
102
}
330
A
100
AcDbDictionary
281
     1
  0
DICTIONARY
  5
4D
102
{ACAD_REACTORS
330
A
102
}
330
A
100
AcDbDictionary
281
     1
  0
DICTIONARY
  5
3A
102
{ACAD_REACTORS
330
A
102
}
330
A
100
AcDbDictionary
281
     1
  0
DICTIONARY
  5
17
102
{ACAD_REACTORS
330
A
102
}
330
A
100
AcDbDictionary
281
     1
  3
Model
350
16
  3
レイアウト1
350
1B
  0
DICTIONARY
  5
C
102
{ACAD_REACTORS
330
A
102
}
330
A
100
AcDbDictionary
281
     1
  3
ByBlock
350
45
  3
ByLayer
350
3D
  3
Global
350
B
  0
DICTIONARY
  5
B16
102
{ACAD_REACTORS
330
A
102
}
330
A
100
AcDbDictionary
281
     1
  3
Standard
350
B17
  0
DICTIONARY
  5
3B
102
{ACAD_REACTORS
330
A
102
}
330
A
100
AcDbDictionary
281
     1
  3
STANDARD
350
53
  0
DICTIONARY
  5
3C
102
{ACAD_REACTORS
330
A
102
}
330
A
100
AcDbDictionary
281
     1
  0
ACDBDICTIONARYWDFLT
  5
9
102
{ACAD_REACTORS
330
A
102
}
330
A
100
AcDbDictionary
281
     1
  3
Normal
350
8
100
AcDbDictionaryWithDefault
340
8
  0
DICTIONARY
  5
4E
102
{ACAD_REACTORS
330
A
102
}
330
A
100
AcDbDictionary
281
     1
  3
*A1
350
C1F
  3
A0
350
57
  3
A1
350
58
  3
A2
350
59
  3
A3
350
5A
  3
A4
350
5B
  3
A5
350
5C
  3
A6
350
5D
  3
A7
350
5E
  3
A8
350
5F
  3
A9
350
60
  3
B0
350
61
  3
B1
350
62
  3
B2
350
63
  3
B3
350
64
  3
B4
350
65
  3
B5
350
66
  3
B6
350
67
  3
B7
350
68
  3
B8
350
69
  3
B9
350
6A
  3
C0
350
6B
  3
C1
350
6C
  3
C2
350
6D
  3
C3
350
6E
  3
C4
350
6F
  3
C5
350
70
  3
C6
350
71
  3
C7
350
72
  3
C8
350
73
  3
C9
350
74
  3
D0
350
75
  3
D1
350
76
  3
D2
350
77
  0
DICTIONARY
  5
4F
102
{ACAD_REACTORS
330
A
102
}
330
A
100
AcDbDictionary
281
     1
  3
Standard
350
54
  0
DICTIONARY
  5
2D
102
{ACAD_REACTORS
330
A
102
}
330
A
100
AcDbDictionary
281
     1
  3
2dWireframe
350
B0D
  3
3D Hidden
350
B0E
  3
3dWireframe
350
56
  3
Basic
350
B0C
  3
Brighten
350
B11
  3
ColorChange
350
B15
  3
Conceptual
350
B0F
  3
Dim
350
B10
  3
Facepattern
350
B14
  3
Flat
350
B09
  3
FlatWithEdges
350
B0A
  3
Gouraud
350
2C
  3
GouraudWithEdges
350
B0B
  3
Linepattern
350
B13
  3
Realistic
350
55
  3
Thicken
350
B12
  0
XRECORD
  5
B02
102
{ACAD_REACTORS
330
A
102
}
330
A
100
AcDbXrecord
280
     1
 90
        1
330
54
  0
DICTIONARY
  5
B03
102
{ACAD_REACTORS
330
A
102
}
330
A
100
AcDbDictionary
281
     1
  3
CANNOSCALE
350
B06
  3
CMLEADERSTYLE
350
B05
  3
CTABLESTYLE
350
B04
  3
DIMASSOC
350
B7B
  3
HIDETEXT
350
B7A
  3
INDEXCTL
350
B79
  3
LIGHTINGUNITS
350
B07
  3
MSLTSCALE
350
B77
  3
SORTENTS
350
B78
  0
DICTIONARY
  5
AFC
102
{ACAD_REACTORS
330
A
102
}
330
A
100
AcDbDictionary
281
     1
  3
AcmStdDictionary
350
17AE
  3
AMDTSECTSYM_ARROWCOLOR
350
17C5
  0
DICTIONARY
  5
16E6
102
{ACAD_REACTORS
330
A
102
}
330
A
100
AcDbDictionary
281
     1
  3
AcMgSettings
350
16E7
  0
DICTIONARY
  5
17DB
102
{ACAD_REACTORS
330
A
102
}
330
A
100
AcDbDictionary
281
     1
  3
DIMENSION
350
17E0
  3
FEA
350
17DF
  3
HATCH (1)
350
17DC
  3
HATCH (2)
350
17DD
  3
SIMPLE WELD
350
17E1
  3
SYMBOLS
350
17DE
  0
XRECORD
  5
2684
102
{ACAD_REACTORS
330
A
102
}
330
A
100
AcDbXrecord
280
     1
  1
DWGPROPS COOKIE
  2

  3

  4

  6

  7

  8
W000135
  9

300
AmdtFileType=84
301
=
302
=
303
=
304
=
305
=
306
=
307
=
308
=
309
=
 40
2.013242060185185
 41
2451324.468257373
 42
2455894.691360012
  1

 90
        1
  0
DICTIONARY
  5
1D91
102
{ACAD_REACTORS
330
20
102
}
330
20
100
AcDbDictionary
281
     1
  0
DICTIONARY
  5
21
102
{ACAD_REACTORS
330
20
102
}
330
20
100
AcDbDictionary
281
     1
  0
DICTIONARY
  5
1D90
102
{ACAD_REACTORS
330
20
102
}
330
20
100
AcDbDictionary
281
     1
1001
ACAD
1000
<All
  0
XRECORD
  5
7
102
{ACAD_REACTORS
330
6
102
}
330
6
100
AcDbXrecord
280
     1
290
     1
  0
DICTIONARY
  5
1967
102
{ACAD_REACTORS
330
3
102
}
330
3
100
AcDbDictionary
281
     1
  3
*A1
350
1968
  0
SORTENTSTABLE
  5
B34
102
{ACAD_REACTORS
330
3
102
}
330
3
100
AcDbSortentsTable
330
2
  0
XRECORD
  5
2687
102
{ACAD_REACTORS
330
2685
102
}
330
2685
100
AcDbXrecord
280
     1
 70
     1
  0
XRECORD
  5
2686
102
{ACAD_REACTORS
330
2685
102
}
330
2685
100
AcDbXrecord
280
     1
 40
15.0
  0
LAYOUT
  5
16
102
{ACAD_XDICTIONARY
360
2688
102
}
102
{ACAD_REACTORS
330
17
102
}
330
17
100
AcDbPlotSettings
  1

  2
なし
  4

  6

 40
0.0
 41
0.0
 42
0.0
 43
0.0
 44
0.0
 45
0.0
 46
0.0
 47
0.0
 48
0.0
 49
0.0
140
0.0
141
0.0
142
1.0
143
1.0
 70
  1712
 72
     0
 73
     0
 74
     0
  7

 75
     0
147
1.0
148
0.0
149
0.0
100
AcDbLayout
  1
Model
 70
     1
 71
     0
 10
0.0
 20
0.0
 11
12.0
 21
9.0
 12
0.0
 22
0.0
 32
0.0
 14
0.0
 24
0.0
 34
0.0
 15
0.0
 25
0.0
 35
0.0
146
0.0
 13
0.0
 23
0.0
 33
0.0
 16
1.0
 26
0.0
 36
0.0
 17
0.0
 27
1.0
 37
0.0
 76
     0
330
2
331
BB9
  0
LAYOUT
  5
1B
102
{ACAD_XDICTIONARY
360
1C
102
}
102
{ACAD_REACTORS
330
17
102
}
330
17
100
AcDbPlotSettings
  1

  2
Microsoft XPS Document Writer
  4
A4
  6

 40
3.174999952316281
 41
3.174999952316281
 42
3.175003051757812
 43
3.17498779296875
 44
210.0156707763672
 45
297.0106506347656
 46
0.0
 47
0.0
 48
0.0
 49
0.0
140
0.0
141
0.0
142
1.0
143
1.0
 70
   688
 72
     1
 73
     1
 74
     5
  7

 75
    16
147
1.0
148
0.0
149
0.0
100
AcDbLayout
  1
レイアウト1
 70
     1
 71
     1
 10
0.0
 20
0.0
 11
12.0
 21
9.0
 12
0.0
 22
0.0
 32
0.0
 14
-1439.804583653114
 24
-1400.237631316938
 34
0.0
 15
2872.968780515991
 25
1675.790811506817
 35
0.0
146
0.0
 13
0.0
 23
0.0
 33
0.0
 16
1.0
 26
0.0
 36
0.0
 17
0.0
 27
1.0
 37
0.0
 76
     0
330
18
1001
ACAD_PSEXT
1000
Microsoft XPS Document Writer
1000
Microsoft XPS Document Writer
1000
XPSPort:
1000

1070
     0
  0
MATERIAL
  5
45
102
{ACAD_XDICTIONARY
360
46
102
}
102
{ACAD_REACTORS
330
C
102
}
330
C
100
AcDbMaterial
  1
ByBlock
 72
     0
 43
0.0208333333333333
 43
0.0
 43
0.0
 43
0.0
 43
0.0
 43
0.0208333333333333
 43
0.0
 43
0.0
 43
0.0
 43
0.0
 43
1.0
 43
0.0
 43
0.0
 43
0.0
 43
0.0
 43
1.0
 77
     0
 47
0.0208333333333333
 47
0.0
 47
0.0
 47
0.0
 47
0.0
 47
0.0208333333333333
 47
0.0
 47
0.0
 47
0.0
 47
0.0
 47
1.0
 47
0.0
 47
0.0
 47
0.0
 47
0.0
 47
1.0
171
     0
 49
0.0208333333333333
 49
0.0
 49
0.0
 49
0.0
 49
0.0
 49
0.0208333333333333
 49
0.0
 49
0.0
 49
0.0
 49
0.0
 49
1.0
 49
0.0
 49
0.0
 49
0.0
 49
0.0
 49
1.0
175
     0
142
0.0208333333333333
142
0.0
142
0.0
142
0.0
142
0.0
142
0.0208333333333333
142
0.0
142
0.0
142
0.0
142
0.0
142
1.0
142
0.0
142
0.0
142
0.0
142
0.0
142
1.0
179
     0
144
0.0208333333333333
144
0.0
144
0.0
144
0.0
144
0.0
144
0.0208333333333333
144
0.0
144
0.0
144
0.0
144
0.0
144
1.0
144
0.0
144
0.0
144
0.0
144
0.0
144
1.0
147
0.0208333333333333
147
0.0
147
0.0
147
0.0
147
0.0
147
0.0208333333333333
147
0.0
147
0.0
147
0.0
147
0.0
147
1.0
147
0.0
147
0.0
147
0.0
147
0.0
147
1.0
  0
MATERIAL
  5
3D
102
{ACAD_XDICTIONARY
360
3E
102
}
102
{ACAD_REACTORS
330
C
102
}
330
C
100
AcDbMaterial
  1
ByLayer
 72
     0
 43
0.0208333333333333
 43
0.0
 43
0.0
 43
0.0
 43
0.0
 43
0.0208333333333333
 43
0.0
 43
0.0
 43
0.0
 43
0.0
 43
1.0
 43
0.0
 43
0.0
 43
0.0
 43
0.0
 43
1.0
 77
     0
 47
0.0208333333333333
 47
0.0
 47
0.0
 47
0.0
 47
0.0
 47
0.0208333333333333
 47
0.0
 47
0.0
 47
0.0
 47
0.0
 47
1.0
 47
0.0
 47
0.0
 47
0.0
 47
0.0
 47
1.0
171
     0
 49
0.0208333333333333
 49
0.0
 49
0.0
 49
0.0
 49
0.0
 49
0.0208333333333333
 49
0.0
 49
0.0
 49
0.0
 49
0.0
 49
1.0
 49
0.0
 49
0.0
 49
0.0
 49
0.0
 49
1.0
175
     0
142
0.0208333333333333
142
0.0
142
0.0
142
0.0
142
0.0
142
0.0208333333333333
142
0.0
142
0.0
142
0.0
142
0.0
142
1.0
142
0.0
142
0.0
142
0.0
142
0.0
142
1.0
179
     0
144
0.0208333333333333
144
0.0
144
0.0
144
0.0
144
0.0
144
0.0208333333333333
144
0.0
144
0.0
144
0.0
144
0.0
144
1.0
144
0.0
144
0.0
144
0.0
144
0.0
144
1.0
147
0.0208333333333333
147
0.0
147
0.0
147
0.0
147
0.0
147
0.0208333333333333
147
0.0
147
0.0
147
0.0
147
0.0
147
1.0
147
0.0
147
0.0
147
0.0
147
0.0
147
1.0
  0
MATERIAL
  5
B
102
{ACAD_XDICTIONARY
360
D
102
}
102
{ACAD_REACTORS
330
C
102
}
330
C
100
AcDbMaterial
  1
Global
 72
     0
 43
0.0208333333333333
 43
0.0
 43
0.0
 43
0.0
 43
0.0
 43
0.0208333333333333
 43
0.0
 43
0.0
 43
0.0
 43
0.0
 43
1.0
 43
0.0
 43
0.0
 43
0.0
 43
0.0
 43
1.0
 77
     0
 47
0.0208333333333333
 47
0.0
 47
0.0
 47
0.0
 47
0.0
 47
0.0208333333333333
 47
0.0
 47
0.0
 47
0.0
 47
0.0
 47
1.0
 47
0.0
 47
0.0
 47
0.0
 47
0.0
 47
1.0
171
     0
 49
0.0208333333333333
 49
0.0
 49
0.0
 49
0.0
 49
0.0
 49
0.0208333333333333
 49
0.0
 49
0.0
 49
0.0
 49
0.0
 49
1.0
 49
0.0
 49
0.0
 49
0.0
 49
0.0
 49
1.0
175
     0
142
0.0208333333333333
142
0.0
142
0.0
142
0.0
142
0.0
142
0.0208333333333333
142
0.0
142
0.0
142
0.0
142
0.0
142
1.0
142
0.0
142
0.0
142
0.0
142
0.0
142
1.0
179
     0
144
0.0208333333333333
144
0.0
144
0.0
144
0.0
144
0.0
144
0.0208333333333333
144
0.0
144
0.0
144
0.0
144
0.0
144
1.0
144
0.0
144
0.0
144
0.0
144
0.0
144
1.0
147
0.0208333333333333
147
0.0
147
0.0
147
0.0
147
0.0
147
0.0208333333333333
147
0.0
147
0.0
147
0.0
147
0.0
147
1.0
147
0.0
147
0.0
147
0.0
147
0.0
147
1.0
  0
MLEADERSTYLE
  5
B17
102
{ACAD_REACTORS
330
B16
330
1E06
330
20C0
330
24A8
102
}
330
B16
100
AcDbMLeaderStyle
170
     2
171
     1
172
     0
 90
        2
 40
0.0
 41
0.0
173
     1
 91
-1056964608
340
26
 92
       -2
290
     1
 42
2.0
291
     1
 43
0.36
  3
Standard
 44
4.0
300

342
23
174
     1
178
     6
175
     1
176
     0
 93
-1056964608
 45
4.0
292
     0
297
     0
 46
4.0
 94
-1056964608
 47
1.0
 49
1.0
140
1.0
293
     1
141
0.0
294
     1
177
     0
142
1.0
295
     0
296
     0
143
0.125
1001
ACAD_MLEADERVER
1070
     2
  0
MLINESTYLE
  5
53
102
{ACAD_REACTORS
330
3B
102
}
330
3B
100
AcDbMlineStyle
  2
STANDARD
 70
     0
  3

 62
   256
 51
90.0
 52
90.0
 71
     2
 49
0.5
 62
   256
  6
BYLAYER
 49
-0.5
 62
   256
  6
BYLAYER
  0
ACDBPLACEHOLDER
  5
8
102
{ACAD_REACTORS
330
9
102
}
330
9
  0
SCALE
  5
C1F
102
{ACAD_REACTORS
330
4E
102
}
330
4E
100
AcDbScale
 70
     0
300
1:5_XREF
140
1.0
141
5.0
290
     0
  0
SCALE
  5
57
102
{ACAD_REACTORS
330
4E
102
}
330
4E
100
AcDbScale
 70
     0
300
1:1
140
1.0
141
1.0
290
     1
  0
SCALE
  5
58
102
{ACAD_REACTORS
330
4E
102
}
330
4E
100
AcDbScale
 70
     0
300
1:2
140
1.0
141
2.0
290
     0
  0
SCALE
  5
59
102
{ACAD_REACTORS
330
4E
102
}
330
4E
100
AcDbScale
 70
     0
300
1:4
140
1.0
141
4.0
290
     0
  0
SCALE
  5
5A
102
{ACAD_REACTORS
330
4E
102
}
330
4E
100
AcDbScale
 70
     0
300
1:5
140
1.0
141
5.0
290
     0
  0
SCALE
  5
5B
102
{ACAD_REACTORS
330
4E
102
}
330
4E
100
AcDbScale
 70
     0
300
1:8
140
1.0
141
8.0
290
     0
  0
SCALE
  5
5C
102
{ACAD_REACTORS
330
4E
102
}
330
4E
100
AcDbScale
 70
     0
300
1:10
140
1.0
141
10.0
290
     0
  0
SCALE
  5
5D
102
{ACAD_REACTORS
330
4E
102
}
330
4E
100
AcDbScale
 70
     0
300
1:16
140
1.0
141
16.0
290
     0
  0
SCALE
  5
5E
102
{ACAD_REACTORS
330
4E
102
}
330
4E
100
AcDbScale
 70
     0
300
1:20
140
1.0
141
20.0
290
     0
  0
SCALE
  5
5F
102
{ACAD_REACTORS
330
4E
102
}
330
4E
100
AcDbScale
 70
     0
300
1:30
140
1.0
141
30.0
290
     0
  0
SCALE
  5
60
102
{ACAD_REACTORS
330
4E
102
}
330
4E
100
AcDbScale
 70
     0
300
1:40
140
1.0
141
40.0
290
     0
  0
SCALE
  5
61
102
{ACAD_REACTORS
330
4E
102
}
330
4E
100
AcDbScale
 70
     0
300
1:50
140
1.0
141
50.0
290
     0
  0
SCALE
  5
62
102
{ACAD_REACTORS
330
4E
102
}
330
4E
100
AcDbScale
 70
     0
300
1:100
140
1.0
141
100.0
290
     0
  0
SCALE
  5
63
102
{ACAD_REACTORS
330
4E
102
}
330
4E
100
AcDbScale
 70
     0
300
2:1
140
2.0
141
1.0
290
     0
  0
SCALE
  5
64
102
{ACAD_REACTORS
330
4E
102
}
330
4E
100
AcDbScale
 70
     0
300
4:1
140
4.0
141
1.0
290
     0
  0
SCALE
  5
65
102
{ACAD_REACTORS
330
4E
102
}
330
4E
100
AcDbScale
 70
     0
300
8:1
140
8.0
141
1.0
290
     0
  0
SCALE
  5
66
102
{ACAD_REACTORS
330
4E
102
}
330
4E
100
AcDbScale
 70
     0
300
10:1
140
10.0
141
1.0
290
     0
  0
SCALE
  5
67
102
{ACAD_REACTORS
330
4E
102
}
330
4E
100
AcDbScale
 70
     0
300
100:1
140
100.0
141
1.0
290
     0
  0
SCALE
  5
68
102
{ACAD_REACTORS
330
4E
102
}
330
4E
100
AcDbScale
 70
     0
300
1/128" = 1'-0"
140
0.0078125
141
12.0
290
     0
  0
SCALE
  5
69
102
{ACAD_REACTORS
330
4E
102
}
330
4E
100
AcDbScale
 70
     0
300
1/64" = 1'-0"
140
0.015625
141
12.0
290
     0
  0
SCALE
  5
6A
102
{ACAD_REACTORS
330
4E
102
}
330
4E
100
AcDbScale
 70
     0
300
1/32" = 1'-0"
140
0.03125
141
12.0
290
     0
  0
SCALE
  5
6B
102
{ACAD_REACTORS
330
4E
102
}
330
4E
100
AcDbScale
 70
     0
300
1/16" = 1'-0"
140
0.0625
141
12.0
290
     0
  0
SCALE
  5
6C
102
{ACAD_REACTORS
330
4E
102
}
330
4E
100
AcDbScale
 70
     0
300
3/32" = 1'-0"
140
0.09375
141
12.0
290
     0
  0
SCALE
  5
6D
102
{ACAD_REACTORS
330
4E
102
}
330
4E
100
AcDbScale
 70
     0
300
1/8" = 1'-0"
140
0.125
141
12.0
290
     0
  0
SCALE
  5
6E
102
{ACAD_REACTORS
330
4E
102
}
330
4E
100
AcDbScale
 70
     0
300
3/16" = 1'-0"
140
0.1875
141
12.0
290
     0
  0
SCALE
  5
6F
102
{ACAD_REACTORS
330
4E
102
}
330
4E
100
AcDbScale
 70
     0
300
1/4" = 1'-0"
140
0.25
141
12.0
290
     0
  0
SCALE
  5
70
102
{ACAD_REACTORS
330
4E
102
}
330
4E
100
AcDbScale
 70
     0
300
3/8" = 1'-0"
140
0.375
141
12.0
290
     0
  0
SCALE
  5
71
102
{ACAD_REACTORS
330
4E
102
}
330
4E
100
AcDbScale
 70
     0
300
1/2" = 1'-0"
140
0.5
141
12.0
290
     0
  0
SCALE
  5
72
102
{ACAD_REACTORS
330
4E
102
}
330
4E
100
AcDbScale
 70
     0
300
3/4" = 1'-0"
140
0.75
141
12.0
290
     0
  0
SCALE
  5
73
102
{ACAD_REACTORS
330
4E
102
}
330
4E
100
AcDbScale
 70
     0
300
1" = 1'-0"
140
1.0
141
12.0
290
     0
  0
SCALE
  5
74
102
{ACAD_REACTORS
330
4E
102
}
330
4E
100
AcDbScale
 70
     0
300
1-1/2" = 1'-0"
140
1.5
141
12.0
290
     0
  0
SCALE
  5
75
102
{ACAD_REACTORS
330
4E
102
}
330
4E
100
AcDbScale
 70
     0
300
3" = 1'-0"
140
3.0
141
12.0
290
     0
  0
SCALE
  5
76
102
{ACAD_REACTORS
330
4E
102
}
330
4E
100
AcDbScale
 70
     0
300
6" = 1'-0"
140
6.0
141
12.0
290
     0
  0
SCALE
  5
77
102
{ACAD_REACTORS
330
4E
102
}
330
4E
100
AcDbScale
 70
     0
300
1'-0" = 1'-0"
140
12.0
141
12.0
290
     0
  0
TABLESTYLE
  5
54
102
{ACAD_XDICTIONARY
360
B00
102
}
102
{ACAD_REACTORS
330
4F
102
}
330
4F
100
AcDbTableStyle
  3
Standard
 70
     0
 71
     0
 40
1.5
 41
1.5
280
     0
281
     0
  7
STANDARD
140
4.5
170
     2
 62
     0
 63
     7
283
     0
274
    -2
284
     1
 64
     0
275
    -2
285
     1
 65
     0
276
    -2
286
     1
 66
     0
277
    -2
287
     1
 67
     0
278
    -2
288
     1
 68
     0
279
    -2
289
     1
 69
     0
  7
STANDARD
140
6.0
170
     5
 62
     0
 63
     7
283
     0
274
    -2
284
     1
 64
     0
275
    -2
285
     1
 65
     0
276
    -2
286
     1
 66
     0
277
    -2
287
     1
 67
     0
278
    -2
288
     1
 68
     0
279
    -2
289
     1
 69
     0
  7
STANDARD
140
4.5
170
     5
 62
     0
 63
     7
283
     0
274
    -2
284
     1
 64
     0
275
    -2
285
     1
 65
     0
276
    -2
286
     1
 66
     0
277
    -2
287
     1
 67
     0
278
    -2
288
     1
 68
     0
279
    -2
289
     1
 69
     0
  0
VISUALSTYLE
  5
B0D
102
{ACAD_REACTORS
330
2D
102
}
330
2D
100
AcDbVisualStyle
  2
2dWireframe
 70
     4
 71
     0
 72
     2
 73
     0
 90
        0
 40
-0.6
 41
-30.0
 62
     5
 63
     7
 74
     1
 91
        4
 64
     7
 65
   257
 75
     1
175
     1
 42
1.0
 92
        0
 66
   257
 43
1.0
 76
     1
 77
     6
 78
     2
 67
     7
 79
     5
170
     0
171
     0
290
     0
174
     0
 93
        1
 44
0.0
173
     0
291
     0
 45
0.0
1001
ACAD
1000
AcDbSavedByObjectVersion
1070
     0
1000
AcDbSavedByObjectVersion
1070
     0
1000
AcDbSavedByObjectVersion
1070
     0
1000
AcDbSavedByObjectVersion
1070
     0
1000
AcDbSavedByObjectVersion
1070
     0
1000
AcDbSavedByObjectVersion
1070
     0
  0
VISUALSTYLE
  5
B0E
102
{ACAD_REACTORS
330
2D
102
}
330
2D
100
AcDbVisualStyle
  2
3D Hidden
 70
     6
 71
     1
 72
     2
 73
     2
 90
        0
 40
-0.6
 41
-30.0
 62
     5
 63
     7
 74
     2
 91
        2
 64
     7
 65
   257
 75
     2
175
     1
 42
40.0
 92
        0
 66
   257
 43
1.0
 76
     1
 77
     6
 78
     2
 67
     7
 79
     3
170
     0
171
     0
290
     0
174
     0
 93
        1
 44
0.0
173
     0
291
     0
 45
0.0
1001
ACAD
1000
AcDbSavedByObjectVersion
1070
     0
1000
AcDbSavedByObjectVersion
1070
     0
1000
AcDbSavedByObjectVersion
1070
     0
1000
AcDbSavedByObjectVersion
1070
     0
1000
AcDbSavedByObjectVersion
1070
     0
1000
AcDbSavedByObjectVersion
1070
     0
  0
VISUALSTYLE
  5
56
102
{ACAD_REACTORS
330
2D
102
}
330
2D
100
AcDbVisualStyle
  2
3dWireframe
 70
     5
 71
     0
 72
     2
 73
     0
 90
        0
 40
-0.6
 41
-30.0
 62
     5
 63
     7
 74
     1
 91
        4
 64
     7
 65
   257
 75
     1
175
     1
 42
1.0
 92
        0
 66
   257
 43
1.0
 76
     1
 77
     6
 78
     2
 67
     7
 79
     5
170
     0
171
     0
290
     0
174
     0
 93
        1
 44
0.0
173
     0
291
     0
 45
0.0
1001
ACAD
1000
AcDbSavedByObjectVersion
1070
     0
1000
AcDbSavedByObjectVersion
1070
     0
1000
AcDbSavedByObjectVersion
1070
     0
1000
AcDbSavedByObjectVersion
1070
     0
1000
AcDbSavedByObjectVersion
1070
     0
1000
AcDbSavedByObjectVersion
1070
     0
  0
VISUALSTYLE
  5
B0C
102
{ACAD_REACTORS
330
2D
102
}
330
2D
100
AcDbVisualStyle
  2
Basic
 70
     7
 71
     1
 72
     0
 73
     1
 90
        0
 40
-0.6
 41
-30.0
 62
     5
 63
     7
 74
     0
 91
        4
 64
     7
 65
   257
 75
     1
175
     1
 42
1.0
 92
        8
 66
     7
 43
1.0
 76
     1
 77
     6
 78
     2
 67
     7
 79
     5
170
     0
171
     0
290
     0
174
     0
 93
        1
 44
0.0
173
     0
291
     1
 45
0.0
1001
ACAD
1000
AcDbSavedByObjectVersion
1070
     0
1000
AcDbSavedByObjectVersion
1070
     0
1000
AcDbSavedByObjectVersion
1070
     0
1000
AcDbSavedByObjectVersion
1070
     0
1000
AcDbSavedByObjectVersion
1070
     0
1000
AcDbSavedByObjectVersion
1070
     0
  0
VISUALSTYLE
  5
B11
102
{ACAD_REACTORS
330
2D
102
}
330
2D
100
AcDbVisualStyle
  2
Brighten
 70
    12
 71
     2
 72
     2
 73
     0
 90
        0
 40
-0.6
 41
-30.0
 62
     5
 63
     7
 74
     1
 91
        4
 64
     7
 65
   257
 75
     1
175
     1
 42
1.0
 92
        8
 66
     7
 43
1.0
 76
     1
 77
     6
 78
     2
 67
     7
 79
     5
170
     0
171
     0
290
     0
174
     0
 93
        1
 44
50.0
173
     0
291
     1
 45
0.0
1001
ACAD
1000
AcDbSavedByObjectVersion
1070
     0
1000
AcDbSavedByObjectVersion
1070
     0
1000
AcDbSavedByObjectVersion
1070
     0
1000
AcDbSavedByObjectVersion
1070
     0
1000
AcDbSavedByObjectVersion
1070
     0
1000
AcDbSavedByObjectVersion
1070
     0
  0
VISUALSTYLE
  5
B15
102
{ACAD_REACTORS
330
2D
102
}
330
2D
100
AcDbVisualStyle
  2
ColorChange
 70
    16
 71
     2
 72
     2
 73
     3
 90
        0
 40
-0.6
 41
-30.0
 62
     5
 63
     8
 74
     1
 91
        4
 64
     7
 65
   257
 75
     1
175
     1
 42
1.0
 92
        8
 66
     8
 43
1.0
 76
     1
 77
     6
 78
     2
 67
     7
 79
     5
170
     0
171
     0
290
     0
174
     0
 93
        1
 44
0.0
173
     0
291
     1
 45
0.0
1001
ACAD
1000
AcDbSavedByObjectVersion
1070
     0
1000
AcDbSavedByObjectVersion
1070
     0
1000
AcDbSavedByObjectVersion
1070
     0
1000
AcDbSavedByObjectVersion
1070
     0
1000
AcDbSavedByObjectVersion
1070
     0
1000
AcDbSavedByObjectVersion
1070
     0
  0
VISUALSTYLE
  5
B0F
102
{ACAD_REACTORS
330
2D
102
}
330
2D
100
AcDbVisualStyle
  2
Conceptual
 70
     9
 71
     3
 72
     2
 73
     0
 90
        0
 40
-0.6
 41
-30.0
 62
     5
 63
     7
 74
     2
 91
        2
 64
     7
 65
   257
 75
     1
175
     1
 42
40.0
 92
        8
 66
     7
 43
1.0
 76
     1
 77
     6
 78
     2
 67
     7
 79
     3
170
     0
171
     0
290
     0
174
     0
 93
        1
 44
0.0
173
     0
291
     0
 45
0.0
1001
ACAD
1000
AcDbSavedByObjectVersion
1070
     0
1000
AcDbSavedByObjectVersion
1070
     0
1000
AcDbSavedByObjectVersion
1070
     0
1000
AcDbSavedByObjectVersion
1070
     0
1000
AcDbSavedByObjectVersion
1070
     0
1000
AcDbSavedByObjectVersion
1070
     0
  0
VISUALSTYLE
  5
B10
102
{ACAD_REACTORS
330
2D
102
}
330
2D
100
AcDbVisualStyle
  2
Dim
 70
    11
 71
     2
 72
     2
 73
     0
 90
        0
 40
-0.6
 41
-30.0
 62
     5
 63
     7
 74
     1
 91
        4
 64
     7
 65
   257
 75
     1
175
     1
 42
1.0
 92
        8
 66
     7
 43
1.0
 76
     1
 77
     6
 78
     2
 67
     7
 79
     5
170
     0
171
     0
290
     0
174
     0
 93
        1
 44
-50.0
173
     0
291
     1
 45
0.0
1001
ACAD
1000
AcDbSavedByObjectVersion
1070
     0
1000
AcDbSavedByObjectVersion
1070
     0
1000
AcDbSavedByObjectVersion
1070
     0
1000
AcDbSavedByObjectVersion
1070
     0
1000
AcDbSavedByObjectVersion
1070
     0
1000
AcDbSavedByObjectVersion
1070
     0
  0
VISUALSTYLE
  5
B14
102
{ACAD_REACTORS
330
2D
102
}
330
2D
100
AcDbVisualStyle
  2
Facepattern
 70
    15
 71
     2
 72
     2
 73
     0
 90
        0
 40
-0.6
 41
-30.0
 62
     5
 63
     7
 74
     1
 91
        4
 64
     7
 65
   257
 75
     1
175
     1
 42
1.0
 92
        8
 66
     7
 43
1.0
 76
     1
 77
     6
 78
     2
 67
     7
 79
     5
170
     0
171
     0
290
     0
174
     0
 93
        1
 44
0.0
173
     0
291
     1
 45
0.0
1001
ACAD
1000
AcDbSavedByObjectVersion
1070
     0
1000
AcDbSavedByObjectVersion
1070
     0
1000
AcDbSavedByObjectVersion
1070
     0
1000
AcDbSavedByObjectVersion
1070
     0
1000
AcDbSavedByObjectVersion
1070
     0
1000
AcDbSavedByObjectVersion
1070
     0
  0
VISUALSTYLE
  5
B09
102
{ACAD_REACTORS
330
2D
102
}
330
2D
100
AcDbVisualStyle
  2
Flat
 70
     0
 71
     2
 72
     1
 73
     1
 90
        2
 40
-0.6
 41
30.0
 62
     5
 63
     7
 74
     0
 91
        4
 64
     7
 65
   257
 75
     1
175
     1
 42
1.0
 92
        8
 66
     7
 43
1.0
 76
     1
 77
     6
 78
     2
 67
     7
 79
     5
170
     0
171
     0
290
     0
174
     0
 93
       13
 44
0.0
173
     0
291
     1
 45
0.0
1001
ACAD
1000
AcDbSavedByObjectVersion
1070
     0
1000
AcDbSavedByObjectVersion
1070
     0
1000
AcDbSavedByObjectVersion
1070
     0
1000
AcDbSavedByObjectVersion
1070
     0
1000
AcDbSavedByObjectVersion
1070
     0
1000
AcDbSavedByObjectVersion
1070
     0
  0
VISUALSTYLE
  5
B0A
102
{ACAD_REACTORS
330
2D
102
}
330
2D
100
AcDbVisualStyle
  2
FlatWithEdges
 70
     1
 71
     2
 72
     1
 73
     1
 90
        2
 40
-0.6
 41
30.0
 62
     5
 63
     7
 74
     1
 91
        4
 64
     7
 65
   257
 75
     1
175
     1
 42
1.0
 92
        0
 66
   257
 43
1.0
 76
     1
 77
     6
 78
     2
 67
     7
 79
     5
170
     0
171
     0
290
     0
174
     0
 93
       13
 44
0.0
173
     0
291
     1
 45
0.0
1001
ACAD
1000
AcDbSavedByObjectVersion
1070
     0
1000
AcDbSavedByObjectVersion
1070
     0
1000
AcDbSavedByObjectVersion
1070
     0
1000
AcDbSavedByObjectVersion
1070
     0
1000
AcDbSavedByObjectVersion
1070
     0
1000
AcDbSavedByObjectVersion
1070
     0
  0
VISUALSTYLE
  5
2C
102
{ACAD_REACTORS
330
2D
102
}
330
2D
100
AcDbVisualStyle
  2
Gouraud
 70
     2
 71
     2
 72
     2
 73
     1
 90
        2
 40
-0.6
 41
30.0
 62
     5
 63
     7
 74
     0
 91
        4
 64
     7
 65
   257
 75
     1
175
     1
 42
1.0
 92
        0
 66
     7
 43
1.0
 76
     1
 77
     6
 78
     2
 67
     7
 79
     5
170
     0
171
     0
290
     0
174
     0
 93
       13
 44
0.0
173
     0
291
     1
 45
0.0
1001
ACAD
1000
AcDbSavedByObjectVersion
1070
     0
1000
AcDbSavedByObjectVersion
1070
     0
1000
AcDbSavedByObjectVersion
1070
     0
1000
AcDbSavedByObjectVersion
1070
     0
1000
AcDbSavedByObjectVersion
1070
     0
1000
AcDbSavedByObjectVersion
1070
     0
  0
VISUALSTYLE
  5
B0B
102
{ACAD_REACTORS
330
2D
102
}
330
2D
100
AcDbVisualStyle
  2
GouraudWithEdges
 70
     3
 71
     2
 72
     2
 73
     1
 90
        2
 40
-0.6
 41
30.0
 62
     5
 63
     7
 74
     1
 91
        4
 64
     7
 65
   257
 75
     1
175
     1
 42
1.0
 92
        0
 66
   257
 43
1.0
 76
     1
 77
     6
 78
     2
 67
     7
 79
     5
170
     0
171
     0
290
     0
174
     0
 93
       13
 44
0.0
173
     0
291
     1
 45
0.0
1001
ACAD
1000
AcDbSavedByObjectVersion
1070
     0
1000
AcDbSavedByObjectVersion
1070
     0
1000
AcDbSavedByObjectVersion
1070
     0
1000
AcDbSavedByObjectVersion
1070
     0
1000
AcDbSavedByObjectVersion
1070
     0
1000
AcDbSavedByObjectVersion
1070
     0
  0
VISUALSTYLE
  5
B13
102
{ACAD_REACTORS
330
2D
102
}
330
2D
100
AcDbVisualStyle
  2
Linepattern
 70
    14
 71
     2
 72
     2
 73
     0
 90
        0
 40
-0.6
 41
-30.0
 62
     5
 63
     7
 74
     1
 91
        4
 64
     7
 65
   257
 75
     7
175
     7
 42
1.0
 92
        8
 66
     7
 43
1.0
 76
     1
 77
     6
 78
     2
 67
     7
 79
     5
170
     0
171
     0
290
     0
174
     0
 93
        1
 44
0.0
173
     0
291
     1
 45
0.0
1001
ACAD
1000
AcDbSavedByObjectVersion
1070
     0
1000
AcDbSavedByObjectVersion
1070
     0
1000
AcDbSavedByObjectVersion
1070
     0
1000
AcDbSavedByObjectVersion
1070
     0
1000
AcDbSavedByObjectVersion
1070
     0
1000
AcDbSavedByObjectVersion
1070
     0
  0
VISUALSTYLE
  5
55
102
{ACAD_REACTORS
330
2D
102
}
330
2D
100
AcDbVisualStyle
  2
Realistic
 70
     8
 71
     2
 72
     2
 73
     0
 90
        0
 40
-0.6
 41
-30.0
 62
     5
 63
     7
 74
     1
 91
        0
 64
     7
 65
   257
 75
     1
175
     1
 42
1.0
 92
        8
 66
     8
 43
1.0
 76
     1
 77
     6
 78
     2
 67
     7
 79
     5
170
     0
171
     0
290
     0
174
     0
 93
       13
 44
0.0
173
     0
291
     0
 45
0.0
1001
ACAD
1000
AcDbSavedByObjectVersion
1070
     0
1000
AcDbSavedByObjectVersion
1070
     0
1000
AcDbSavedByObjectVersion
1070
     0
1000
AcDbSavedByObjectVersion
1070
     0
1000
AcDbSavedByObjectVersion
1070
     0
1000
AcDbSavedByObjectVersion
1070
     0
  0
VISUALSTYLE
  5
B12
102
{ACAD_REACTORS
330
2D
102
}
330
2D
100
AcDbVisualStyle
  2
Thicken
 70
    13
 71
     2
 72
     2
 73
     0
 90
        0
 40
-0.6
 41
-30.0
 62
     5
 63
     7
 74
     1
 91
        4
 64
     7
 65
   257
 75
     1
175
     1
 42
1.0
 92
       12
 66
     7
 43
1.0
 76
     1
 77
     6
 78
     2
 67
     7
 79
     5
170
     0
171
     0
290
     0
174
     0
 93
        1
 44
0.0
173
     0
291
     1
 45
0.0
1001
ACAD
1000
AcDbSavedByObjectVersion
1070
     0
1000
AcDbSavedByObjectVersion
1070
     0
1000
AcDbSavedByObjectVersion
1070
     0
1000
AcDbSavedByObjectVersion
1070
     0
1000
AcDbSavedByObjectVersion
1070
     0
1000
AcDbSavedByObjectVersion
1070
     0
  0
DICTIONARYVAR
  5
B06
102
{ACAD_REACTORS
330
B03
102
}
330
B03
100
DictionaryVariables
280
     0
  1
1:1
  0
DICTIONARYVAR
  5
B05
102
{ACAD_REACTORS
330
B03
102
}
330
B03
100
DictionaryVariables
280
     0
  1
STANDARD
  0
DICTIONARYVAR
  5
B04
102
{ACAD_REACTORS
330
B03
102
}
330
B03
100
DictionaryVariables
280
     0
  1
STANDARD
  0
DICTIONARYVAR
  5
B7B
102
{ACAD_REACTORS
330
B03
102
}
330
B03
100
DictionaryVariables
280
     0
  1
1
  0
DICTIONARYVAR
  5
B7A
102
{ACAD_REACTORS
330
B03
102
}
330
B03
100
DictionaryVariables
280
     0
  1
1
  0
DICTIONARYVAR
  5
B79
102
{ACAD_REACTORS
330
B03
102
}
330
B03
100
DictionaryVariables
280
     0
  1
1
  0
DICTIONARYVAR
  5
B07
102
{ACAD_REACTORS
330
B03
102
}
330
B03
100
DictionaryVariables
280
     0
  1
0
  0
DICTIONARYVAR
  5
B77
102
{ACAD_REACTORS
330
B03
102
}
330
B03
100
DictionaryVariables
280
     0
  1
1
  0
DICTIONARYVAR
  5
B78
102
{ACAD_REACTORS
330
B03
102
}
330
B03
100
DictionaryVariables
280
     0
  1
127
  0
DICTIONARY
  5
17AE
102
{ACAD_REACTORS
330
AFC
102
}
330
AFC
100
AcDbDictionary
281
     1
  0
XRECORD
  5
17C5
102
{ACAD_REACTORS
330
AFC
102
}
330
AFC
100
AcDbXrecord
280
     1
 90
-1023410169
  0
DICTIONARY
  5
16E7
102
{ACAD_REACTORS
330
16E6
102
}
330
16E6
100
AcDbDictionary
281
     1
  3
DWGSETTINGS
350
1E1B
  3
TRANSSETTINGS
350
1E1C
  0
ACAMGFILTERDAT
  5
17E0
102
{ACAD_REACTORS
330
17DB
102
}
330
17DB
100
AcAmgFilterDat
 70
    15
  1
DIMENSION,AMDT_*_DIM
  2
*
  3
*
  4
*
  5
*
290
     1
  0
ACAMGFILTERDAT
  5
17DF
102
{ACAD_REACTORS
330
17DB
102
}
330
17DB
100
AcAmgFilterDat
 70
    15
  1
*
  2
AM_FEA-AM_*
  3
*
  4
*
  5
*
290
     1
  0
ACAMGFILTERDAT
  5
17DC
102
{ACAD_REACTORS
330
17DB
102
}
330
17DB
100
AcAmgFilterDat
 70
    15
  1
HATCH
  2
*
  3
*
  4
*
  5
*
290
     1
  0
ACAMGFILTERDAT
  5
17DD
102
{ACAD_REACTORS
330
17DB
102
}
330
17DB
100
AcAmgFilterDat
 70
    15
  1
LINE
  2
8,8N,*-8,*-8N,AM_8,AM_8N,*-AM_8,*-AM_8N
  3
*
  4
*
  5
INSERT,STDPART2D
290
     1
  0
ACAMGFILTERDAT
  5
17E1
102
{ACAD_REACTORS
330
17DB
102
}
330
17DB
100
AcAmgFilterDat
 70
    15
  1
ARC
  2
AM_5
  3
*
  4
2
  5
INSERT
290
     0
  0
ACAMGFILTERDAT
  5
17DE
102
{ACAD_REACTORS
330
17DB
102
}
330
17DB
100
AcAmgFilterDat
 70
    15
  1
ACMFCFRAME,ACMDATUMTARGET,ACMDATUMID,ACMWELDSYM,ACMSURFSYM,ACMFEATID,ACMPARTREF,ACMBALLOON,AMDTEDGESYM,AMGSCREWCALCTABLE
  2
*
  3
*
  4
*
  5
*
290
     1
  0
LAYER_INDEX
  5
1968
102
{ACAD_REACTORS
330
1967
102
}
330
1967
100
AcDbIndex
 40
2455894.691360012
100
AcDbLayerIndex
  8
0
360
1969
 90
        0
  8
Defpoints
360
196A
 90
        0
  8
SIZE
360
196B
 90
        5
  8
OUTLINE
360
196C
 90
      140
  8
BASIS
360
196D
 90
        1
  8
NOTE
360
196E
 90
       37
  8
ARRANGE
360
196F
 90
        3
  8
ETC
360
1970
 90
        1
  8
HID
360
2682
 90
       20
  0
DICTIONARY
  5
2688
330
16
100
AcDbDictionary
280
     1
281
     1
  3
ACAD_XREC_ROUNDTRIP
360
2689
  0
DICTIONARY
  5
1C
330
1B
100
AcDbDictionary
280
     1
281
     1
  3
ACAD_XREC_ROUNDTRIP
360
268A
  3
ADSK_XREC_LAYOUTTHUMBNAIL
360
1D
  0
DICTIONARY
  5
46
330
45
100
AcDbDictionary
280
     1
281
     1
  3
ACAD_XREC_ROUNDTRIP
360
B71
  3
BUMPTILE
360
47
  3
DIFFUSETILE
360
48
  3
OPACITYTILE
360
49
  3
REFLECTIONTILE
360
4A
  3
REFRACTIONTILE
360
4B
  3
SPECULARTILE
360
4C
  0
DICTIONARY
  5
3E
330
3D
100
AcDbDictionary
280
     1
281
     1
  3
ACAD_XREC_ROUNDTRIP
360
B70
  3
BUMPTILE
360
3F
  3
DIFFUSETILE
360
40
  3
OPACITYTILE
360
41
  3
REFLECTIONTILE
360
42
  3
REFRACTIONTILE
360
43
  3
SPECULARTILE
360
44
  0
DICTIONARY
  5
D
330
B
100
AcDbDictionary
280
     1
281
     1
  3
ACAD_XREC_ROUNDTRIP
360
B69
  3
BUMPTILE
360
E
  3
DIFFUSETILE
360
F
  3
OPACITYTILE
360
10
  3
REFLECTIONTILE
360
11
  3
REFRACTIONTILE
360
12
  3
SPECULARTILE
360
13
  0
DICTIONARY
  5
B00
330
54
100
AcDbDictionary
280
     1
281
     1
  3
ACAD_ROUNDTRIP_2008_TABLESTYLE_CELLSTYLEMAP
360
2683
  3
ACAD_XREC_ROUNDTRIP
360
268B
  0
IDBUFFER
  5
1969
330
0
100
AcDbIdBuffer
  0
IDBUFFER
  5
196A
330
0
100
AcDbIdBuffer
  0
IDBUFFER
  5
196B
330
0
100
AcDbIdBuffer
330
229A
330
22A7
330
22B4
330
22C1
330
22CE
  0
IDBUFFER
  5
196C
330
0
100
AcDbIdBuffer
330
20E8
330
20E9
330
20EC
330
20ED
330
20EF
330
20F0
330
20F2
330
20F3
330
20F5
330
20F6
330
20F8
330
20F9
330
20FB
330
20FC
330
20FE
330
20FF
330
2101
330
2102
330
2104
330
2105
330
2109
330
210A
330
210B
330
210C
330
210D
330
210E
330
210F
330
2110
330
2111
330
2112
330
2113
330
2114
330
2115
330
2116
330
2117
330
2118
330
2119
330
211A
330
211B
330
211C
330
211D
330
211E
330
211F
330
2122
330
2123
330
2126
330
2127
330
2129
330
212B
330
212C
330
212D
330
212F
330
2132
330
2133
330
2134
330
2135
330
2137
330
213A
330
2147
330
2148
330
214B
330
214C
330
214E
330
214F
330
2151
330
2152
330
2154
330
2155
330
217E
330
217F
330
2183
330
218A
330
218C
330
2196
330
2197
330
2198
330
219B
330
219E
330
219F
330
21A0
330
21A1
330
21BB
330
21BE
330
21BF
330
21C1
330
21C4
330
21C6
330
21C7
330
21C9
330
21CB
330
21CD
330
21CE
330
21CF
330
21D0
330
21D1
330
21D3
330
21D4
330
21D6
330
21D8
330
21D9
330
21DB
330
21EC
330
21ED
330
21EF
330
21F0
330
21F1
330
21F5
330
21F6
330
21F8
330
21FB
330
2214
330
2215
330
2216
330
2218
330
221A
330
221B
330
221D
330
2220
330
2222
330
2223
330
2225
330
2227
330
2229
330
222A
330
222C
330
222D
330
222F
330
2230
330
2236
330
2238
330
2245
330
2246
330
2247
330
2248
330
2249
330
224A
330
224B
330
224C
330
224F
330
2251
  0
IDBUFFER
  5
196D
330
0
100
AcDbIdBuffer
330
225A
  0
IDBUFFER
  5
196E
330
0
100
AcDbIdBuffer
330
1E06
330
2158
330
2159
330
215A
330
215B
330
215C
330
215D
330
215E
330
215F
330
2160
330
2161
330
2162
330
2163
330
2164
330
2165
330
2166
330
2167
330
2168
330
2169
330
216B
330
216C
330
216D
330
216E
330
216F
330
2170
330
2171
330
2172
330
2173
330
2174
330
2175
330
2176
330
2177
330
2178
330
2179
330
217A
330
217B
330
217C
  0
IDBUFFER
  5
196F
330
0
100
AcDbIdBuffer
330
225B
330
225C
330
225D
  0
IDBUFFER
  5
1970
330
0
100
AcDbIdBuffer
330
B60
  0
IDBUFFER
  5
2682
330
0
100
AcDbIdBuffer
330
21F3
330
21F4
330
221F
330
2221
330
2107
330
2108
330
2180
330
2181
330
2182
330
2184
330
2188
330
218B
330
2192
330
21BC
330
21BD
330
21D7
330
21DA
330
21E1
330
21E8
330
21F2
  0
XRECORD
  5
2689
102
{ACAD_REACTORS
330
2688
102
}
330
2688
100
AcDbXrecord
280
     1
102
SHADEPLOT
 70
     0
102
SHADEPLOTRESLEVEL
 70
     2
102
SHADEPLOTCUSTOMDPI
 70
   300
  0
XRECORD
  5
268A
102
{ACAD_REACTORS
330
1C
102
}
330
1C
100
AcDbXrecord
280
     1
102
SHADEPLOT
 70
     0
102
SHADEPLOTRESLEVEL
 70
     2
102
SHADEPLOTCUSTOMDPI
 70
   300
  0
XRECORD
  5
1D
102
{ACAD_REACTORS
330
1C
102
}
330
1C
100
AcDbXrecord
280
     1
310
28000000B4000000870000000100080000000000EC5E0000000000000000000000010000000000000000000000000000FFFFFF000000000000000000000000000000000000000000000000000000000000000000330000006600000099000000CC000000FF00000000330000333300006633000099330000CC330000FF3300
310
0000660000336600006666000099660000CC660000FF66000000990000339900006699000099990000CC990000FF99000000CC000033CC000066CC000099CC0000CCCC0000FFCC000000FF000033FF000066FF000099FF0000CCFF0000FFFF000000003300330033006600330099003300CC003300FF003300003333003333
310
33006633330099333300CC333300FF33330000663300336633006666330099663300CC663300FF66330000993300339933006699330099993300CC993300FF99330000CC330033CC330066CC330099CC3300CCCC3300FFCC330000FF330033FF330066FF330099FF3300CCFF3300FFFF330000006600330066006600660099
310
006600CC006600FF00660000336600333366006633660099336600CC336600FF33660000666600336666006666660099666600CC666600FF66660000996600339966006699660099996600CC996600FF99660000CC660033CC660066CC660099CC6600CCCC6600FFCC660000FF660033FF660066FF660099FF6600CCFF6600
310
FFFF660000009900330099006600990099009900CC009900FF00990000339900333399006633990099339900CC339900FF33990000669900336699006666990099669900CC669900FF66990000999900339999006699990099999900CC999900FF99990000CC990033CC990066CC990099CC9900CCCC9900FFCC990000FF99
310
0033FF990066FF990099FF9900CCFF9900FFFF99000000CC003300CC006600CC009900CC00CC00CC00FF00CC000033CC003333CC006633CC009933CC00CC33CC00FF33CC000066CC003366CC006666CC009966CC00CC66CC00FF66CC000099CC003399CC006699CC009999CC00CC99CC00FF99CC0000CCCC0033CCCC0066CC
310
CC0099CCCC00CCCCCC00FFCCCC0000FFCC0033FFCC0066FFCC0099FFCC00CCFFCC00FFFFCC000000FF003300FF006600FF009900FF00CC00FF00FF00FF000033FF003333FF006633FF009933FF00CC33FF00FF33FF000066FF003366FF006666FF009966FF00CC66FF00FF66FF000099FF003399FF006699FF009999FF00CC
310
99FF00FF99FF0000CCFF0033CCFF0066CCFF0099CCFF00CCCCFF00FFCCFF0000FFFF0033FFFF0066FFFF0099FFFF00CCFFFF00FFFFFF00000000000D0D0D001A1A1A00282828003535350043434300505050005D5D5D006B6B6B00787878008686860093939300A1A1A100AEAEAE00BBBBBB00C9C9C900D6D6D600E4E4E400
310
F1F1F100FFFFFF0000000000000000000000000000000000000000000000000000000000000000000000000000000000E2E2E2E2E2E2E2E2E2E2E2E2E2E2E2E2E2E2E2E2E2E2E2E2E2E2E2E2E2E2E2E2E2E2E2E2E2E2E2E2E2E2E2E2E2E2E2E2E2E2E2E2E2E2E2E2E2E2E2E2E2E2E2E2E2E2E2E2E2E2E2E2E2E2E2E2E2E2E2
310
E2E2E2E2E2E2E2E2E2E2E2E2E2E2E2E2E2E2E2E2E2E2E2E2E2E2E2E2E2E2E2E2E2E2E2E2E2E2E2E2E2E2E2E2E2E2E2E2E2E2E2E2E2E2E2E2E2E2E2E2E2E2E2E2E2E2E2E2E2E2E2E2E2E2E2E2E2E2E2E2E2E2E2E2E2E2E2E2E2E2E2E2E2E2E2E2E2E2E2E2E2E2E2E2E2E2E2E2E2E2E2E2E2E2E2E2E2E2E2E2E2E2E2E2E2E2E2
310
E2E2E2E2E2E2E2E2E2E2E2E2E2E2E2E2E2E2E2E2E2E2E2E2E2E2E2E2E2E2E2E2E2E2E2E2E2E2E2E2E2E2E2E2E2E2E2E2E2E2E2E2E2E2E2E2E2E2E2E2E2E2E2E2E2E2E2E2E2E2E2E2E2E2E2E2E2E2E2E2E2E2E2E2E2E2E2E2E2E2E2E2E2E2E2E2E2E2E2E2E2E2E2E2E2E2E2E2E2E2E2E2E2E2E2E2E2E2E2E2E2E2E2E2E2E2E2
310
E2E2E2E2E2E2E2E2E2E2E2E2E2E2E2E2E2E2E2E2E2E2E2E2E2E2E2E2E2E2E2E2E2E2E2E2E2E2E2E2E2E2E2E2E2E2E2E2E2E2E2E2E2E2E2E2E2E2E2E2E2E2E2E2E2E2E2E2E2E2E2E2E2E2E2E2E2E2E2E2E2E2E2E2E2E2E2E2E2E2E2E2E2E2E2E2E2E2E2E2E2E2E2E2E2E2E2E2E2E2E2E2E2E2E2E2E2E2E2E2E2E2E2E2E2E2E2
310
E2E2E2E2E2E2E2E2E2E2E2E2E2E2E2E2E2E2E2E2E2E2E2E2E2E2E2E2E2E2E2E2E2E2E2E2E2E2E2E2E2E2E2E2E2E2E2E2E2E2E2E2E2E2E2E2E2E2E2E2E2E2E2E2E2E2E2E2E2E2E2E2E2E2E2E2E2E2E2E2E2E2E2E2E2E2E2E2E2E2E2E2E2E2E2E2E2E2E2E2E2E2E2E2E2E2E2E2E2E2E2E2E2E2E2E2E2E2E2E2E2E2E2E2E2E2E2
310
E2E2E2E2E2E2E2E2E2E2E2E2E2E2E2E2E2E2E2E2E2E2E2E2E2E2E2E2E2E2E2E2E2E2E2E2E2E2E2E2E2E2E2E2E2E2E2E2E2E2E2E2E2E2E2E2E2E2E2E2E2E2E2E2E2E2E2E2E2E2E2E2E2E2E2E2E2E2E2E2E2E2E2E2E2E2E2E2E2E2E2E2E2E2E2E2E2E2E2E2E2E2E2E2E2E2E2E2E2E2E2E2E2E2E2E2E2E2E2E2E2E2E2E2E2E2E2
310
E2E2E2E2E2E2E2E2E2E2E2E2E2E2E2E2E2E2E2E2E2E2E2E2E2E2E2E2E2E2E2E2E2E2E2E2E2E2E2E2E2E2E2E2E2E2E2E2E2E2E2E2E2E2E2E2E2E2E2E2E2E2E2E2E2E2E2E2E2E2E2E2E2E2E2E2E2E2E2E2E2E2E2E2E2E2E2E2E2E2E2E2E2E2E2E2E2E2E2E2E2E2E2E2E2E2E2E2E2E2E2E2E2E2E2E2E2E2E2E2E2E2E2E2E2E2E2
310
E2E2E2E2E2E2E2E2E2E2E2E2E2E2E2E2E2E2E2E2E2E2E2E2E2E2E2E2E2E2E2E2E2E2E2E2E2E2E2E2E2E2E2E2E2E2E2E2E2E2E2E2E2E2E2E2E2E2E2E2E2E2E2E2E2E2E2E2E2E2E2E2E2E2E2E2E2E2E2E2E2E2E2E2E2E2E2E2E2E2E2E2E2E2E2E2E2E2E2E2E2E2E2E2E2E2E2E2E2E2E2E2E2E2E2E2E2E2E2E2E2E2E2E2E2E2E2
310
E2E2E2E2E2E2E2E2E2E2E2E2E2E2E2E2E2E2E2E2E2E2E2E2E2E2E2E2E2E2E2E2E2E2E2E2E2E2E2E2E2E2E2E2E2E2E2E2E2E2E2E2E2E2E2E2E2E2E2E2E2E2E2E2E2E2E2E2E2E2E2E2E2E2E2E2E2E2E2E2E2E2E2E2E2E2E2E2E2E2E2E2E2E2E2E2E2E2E2E2E2E2E2E2E2E2E2E2E2E2E2E2E2E2E2E2E2E2E2E2E2E2E2E2E2E2E2
310
E2E2E2E2E2E2E2E2E2E2E2E2E2E2E2E2E2E2E2E2E2E2E2E2E2E2E2E2E2E2E2E2E2E2E2E2E2E2E2E2E2E2E2E2E2E2E2E2E2E2E2E2E2E2E2E2E2E2E2E2E2E2E2E2E2E2E2E2E2E2E2E2E2E2E2E2E2E2E2E2E2E2E2E2E2E2E2E2E2E2E2E2E2E2E2E2E2E2E2E2E2E2E2E2E2E2E2E2E2E2E2E2E2E2E2E2E2E2E2E2E2E2E2E2E2E2E2
310
E2E2E2E2E2E2E2E2E2E2E2E2E2E2E2E2E2E2E2E2E2E2E2E2E2E2E2E2E2E2E2E2E2E2E2E2E2E2E2E2E2E2E2E2E2E2E2E2E2E2E2E2E2E2E2E2E2E2E2E2E2E2E2E2E2E2E2E2E2E2E2E2E2E2E2E2E2E2E2E2E2E2E2E2E2E2E2E2E2E2E2E2E2E2E2E2E2E2E2E2E2E2E2E2E2E2E2E2E2E2E2E2E2E2E2E2E2E2E2E2E2E2E2E2E2E2E2
310
E2E2E2E2E2E2E2E2E2E2E2E2E2E2E2E2E2E2E2E2E2E2E2E2E2E2E2E2E2E2E2E2E2E2E2E2E2E2E2E2E2E2E2E2E2E2E2E2E2E2E2E2E2E2E2E2E2E2E2E2E2E2E2E2E2E2E2E2E2E2E2E2E2E2E2E2E2E2E2E2E2E2E2E2E2E2E2E2E2E2E2E2E2E2E2E2E2E2E2E2E2E2E2E2E2E2E2E2E2E2E2E2E2E2E2E2E2E2E2E2E2E2E2E2E2E2E2
310
E2E2E2E2E2E2E2E2E2E2E2E2E2E2E2E2E2E2E2E2E2E2E2E2E2E2E2E2E2E2E2E2E2E2E2E2E2E2E2E2E2E2E2E2E2E2E2E2E2E2E2E2E2E2E2E2E2E2E2E2E2E2E2E2E2E2E2E2E2E2E2E2E2E2E2E2E2E2E2E2E2E2E2E2E2E2E2E2E2E2E2E2E2E2E2E2E2E2E2E2E2E2E2E2E2E2E2E2E2E2E2E2E2E2E2E2E2E2E2E2E2E2E2E2E2E2E2
310
E2E2E2E2E2E2E2E2E2E2E2E2E2E2E2E2E2E2E2E2E2E2E2E2E2E2E2E2E2E2E2E2E2E2E2E2E2E2E2E2E2E2E2E2E2E2E2E2E2E2E2E2E2E2E2E2E2E2E2E2E2E2E2E2E2E2E2E2E2E2E2E2E2E2E2E2E2E2E2E2E2E2E2E2E2E2E2E2E2E2E2E2E2E2E2E2E2E2E2E2E2E2E2E2E2E2E2E2E2E2E2E2E2E2E2E2E2E2E2E2E2E2E2E2E2E2E2
310
E2E2E2E2E2E2E2E2E2E2E2E2E2E2E2E2E2E2E2E2E2E2E2E2E2E2E2E2E2E2E2E2E2E2E2E2E2E2E2E2E2E2E2E2E2E2E2E2E2E2E2E2E2E2E2E2E2E2E2E2E2E2E2E2E2E2E2E2E2E2E2E2E2E2E2E2E2E2E2E2E2E2E2E2E2E2E2E2E2E2E2E2E2E2E2E2E2E2E2E2E2E2E2E2E2E2E2E2E2E2E2E2E2E2E2E2E2E2E2E2E2E2E2E2E2E2E2
310
E2E2E2E2E2E2E2E2E2E2E2E2E2E2E2E2E2E2E2E2E2E2E2E2E2E2E2E2E2E2E2E2E2E2E2E2E2E2E2E2E2E2E2E2E2E2E2E2E2E2E2E2E2E2E2E2E2E2E2E2E2E2E2E2E2E2E2E2E2E2E2E2E2E2E2E2E2E2E2E2E2E2E2E2E2E2E2E2E2E2E2E2E2E2E2E2E2E2E2E2E2E2E2E2E2E2E2E2E2E2E2E2E2E2E2E2E2E2E2E2E2E2E2E2E2E2E2
310
E2E2E2E2E2E2E2E2E2E2E2E2E2E2E2E2E2E2E2E2E2E2E2E2E2E2E2E2E2E2E2E2E2E2E2E2E2E2E2E2E2E2E2E2E2E2E2E2E2E2E2E2E2E2E2E2E2E2E2E2E2E2E2E2E2E2E2E2E2E2E2E2E2E2E2E2E2E2E2E2E2E2E2E2E2E2E2E2E2E2E2E2E2E2E2E2E2E2E2E2E2E2E2E2E2E2E2E2E2E2E2E2E2E2E2E2E2E2E2E2E2E2E2E2E2E2E2
310
E2E2E2E2E2E2E2E2E2E2E2E2E2E2E2E2E2E2E2E2E2E2E2E2E2E2E2E2E2E2E2E2E2E2E2E2E2E2E2E2E2E2E2E2E2E2E2E2E2E2E2E2E2E2E2E2E2E2E2E2E2E2E2E2E2E2E2E2E2E2E2E2E2E2E2E2E2E2E2E2E2E2E2E2E2E2E2E2E2E2E2E2E2E2E2E2E2E2E2E2E2E2E2E2E2E2E2E2E2E2E2E2E2E2E2E2E2E2E2E2E2E2E2E2E2E2E2
310
E2E2E2E2E2E2E2E2E2E2E2E2E2E2E2E2E2E2E2E2E2E2E2E2E2E2E2E2E2E2E2E2E2E2E2E2E2E2E2E2E2E2E2E2E2E2E2E2E2E2E2E2E2E2E2E2E2E2E2E2E2E2E2E2E2E2E2E2E2E2E2E2E2E2E2E2E2E2E2E2E2E2E2E2E2E2E2E2E2E2E2E2E2E2E2E2E2E2E2E2E2E2E2E2E2E2E2E2E2E2E2E2E2E2E2E2E2E2E2E2E2E2E2E2E2E2E2
310
E2E2E2E2E2E2E2E2E2E2E2E2E2E2E2E2E2E2E2E2E2E2E2E2E2E2E2E2E2E2E2E2E2E2E2E2E2E2E2E2E2E2E2E2E2E2E2E2E2E2E2E2E2E2E2E2E2E2E2E2E2E2E2E2E2E2E2E2E2E2E2E2E2E2E2E2E2E2E2E2E2E2E2E2E2E2E2E2E2E2E2E2E2E2E2E2E2E2E2E2E2E2E2E2E2E2E2E2E2E2E2E2E2E2E2E2E2E2E2E2E2E2E2E2E2E2E2
310
E2E2E2E2E2E2E2E2E2E2E2E2E2E2E2E2E2E2E2E2E2E2E2E2E2E2E2E2E2E2E2E2E2E2E2E2E2E2E2E2E2E2E2E2E2E2E2E2E2E2E2E2E2E2E2E2E2E2E2E2E2E2E2E2E2E2E2E2E2E2E2E2E2E2E2E2E2E2E2E2E2E2E2E2E2E2E2E2E2E2E2E2E2E2E2E2E2E2E2E2E2E2E2E2E2E2E2E2E2E2E2E2E2E2E2E2E2E2E2E2E2E2E2E2E2E2E2
310
E2E2E2E2E2E2E2E2E2E2E2E2E2E2E2E2E2E2E2E2E2E2E2E2E2E2E2E2E2E2E2E2E2E2E2E2E2E2E2E2E2E2E2E2E2E2E2E2E2E2E2E2E2E2E2E2E2E2E2E2E2E2E2E2E2E2E2E2E2E2E2E2E2E2E2E2E2E2E2E2E2E2E2E2E2E2E2E2E2E2E2E2E2E2E2E2E2E2E2E2E2E2E2E2E2E2E2E2E2E2E2E2E2E2E2E2E2E2E2E2E2E2E2E2E2E2E2
310
E2E2E2E2E2E2E2E2E2E2E2E2E2E2E2E2E2E2E2E2E2E2E2E2E2E2E2E2E2E2E2E2E2E2E2E2E2E2E2E2E2E2E2E2E2E2E2E2E2E2E2E2E2E2E2E2E2E2E2E2E2E2E2E2E2E2E2E2E2E2E2E2E2E2E2E2E2E2E2E2E2E2E2E2E2E2E2E2E2E2E2E2E2E2E2E2E2E2E2E2E2E2E2E2E2E2E2E2E2E2E2E2E2E2E2E2E2E2E2E2E2E2E2E2E2E2E2
310
E2E2E2E2E2E2E2E2E2E2E2E2E2E2E2E2E2E2E2E2E2E2E2E2E2E2E2E2E2E2E2E2E2E2E2E2E2E2E2E2E2E2E2E2E2E2E2E2E2E2E2E2E2E2E2E2E2E2E2E2E2E2E2E2E2E2E2E2E2E2E2E2E2E2E2E2E2E2E2E2E2E2E2E2E2E2E2E2E2E2E2E2E2E2E2E2E2E2E2E2E2E2E2E2E2E2E2E2E2E2E2E2E2E2E2E2E2E2E2E2E2E2E2E2E2E2E2
310
E2E2E2E2E2E2E2E2E2E2E2E2E2E2E2E2E2E2E2E2E2E2E2E2E2E2E2E2E2E2E2E2E2E2E2E2E2E2E2E2E2E2E2E2E2E2E2E2E2E2E2E2E2E2E2E2E2E2E2E2E2E2E2E2E2E2E2E2E2E2E2E2E2E2E2E2E2E2E2E2E2E2E2E2E2E2E2E2E2E2E2E2E2E2E2E2E2E2E2E2E2E2E2E2E2E2E2E2E2E2E2E2E2E2E2E2E2E2E2E2E2E2E2E2E2E2E2
310
E2E2E2E2E2E2E2E2E2E2E2E2E2E2E2E2E2E2E2E2E2E2E2E2E2E2E2E2E2E2E2E2E2E2E2E2E2E2E2E2E2E2E2E2E2E2E2E2E2E2E2E2E2E2E2E2E2E2E2E2E2E2E2E2E2E2E2E2E2E2E2E2E2E2E2E2E2E2E2E2E2E2E2E2E2E2E2E2E2E2E2E2E2E2E2E2E2E2E2E2E2E2E2E2E2E2E2E2E2E2E2E2E2E2E2E2E2E2E2E2E2E2E2E2E2E2E2
310
E2E2E2E2E2E2E2E2E2E2E2E2E2E2E2E2E2E2E2E2E2E2E2E2E2E2E2E2E2E2E2E2E2E2E2E2E2E2E2E2E2E2E2E2E2E2E2E2E2E2E2E2E2E2E2E2E2E2E2E2E2E2E2E2E2E2E2E2E2E2E2E2E2E2E2E2E2E2E2E2E2E2E2E2E2E2E2E2E2E2E2E2E2E2E2E2E2E2E2E2E2E2E2E2E2E2E2E2E2E2E2E2E2E2E2E2E2E2E2E2E2E2E2E2E2E2E2
310
E2E2E2E2E2E2E2E2E2E2E2E2E2E2E2E2E2E2E2E2E2E2E2E2E2E2E2E2E2E2E2E2E2E2E2E2E2E2E2E2E2E2E2E2E2E2E2E2E2E2E2E2E2E2E2E2E2E2E2E2E2E2E2E2E2E2E2E2E2E2E2E2E2E2E2E2E2E2E2E2E2E2E2E2E2E2E2E2E2E2E2E2E2E2E2E2E2E2E2E2E2E2E2E2E2E2E2E2E2E2E2E2E2E2E2E2E2E2E2E2E2E2E2E2E2E2E2
310
E2E2E2E2E2E2E2E2E2E2E2E2E2E2E2E2E2E2E2E2E2E2E2E2E2E2E2E2E2E2E2E2E2E2E2E2E2E2E2E2E2E2E2E2E2E2E2E2E2E2E2E2E2E2E2E2E2E2E2E2E2E2E2E2E2E2E2E2E2E2E2E2E2E2E2E2E2E2E2E2E2E2E2E2E2E2E2E2E2E2E2E2E2E2E2E2E2E2E2E2E2E2E2E2E2E2E2E2E2E2E2E2E2E2E2E2E2E2E2E2E2E2E2E2E2E2E2
310
E2E2E2E2E2E2E2E2E2E2E2E2E2E2E2E2E2E2E2E2E2E2E2E2E2E2E2E2E2E2E2E2E2E2E2E2E2E2E2E2E2E2E2E2E2E2E2E2E2E2E2E2E2E2E2E2E2E2E2E2E2E2E2E2E2E2E2E2E2E2E2E2E2E2E2E2E2E2E2E2E2E2E2E2E2E2E2E2E2E2E2E2E2E2E2E2E2E2E2E2E2E2E2E2E2E2E2E2E2E2E2E2E2E2E2E2E2E2E2E2E2E2E2E2E2E2E2
310
E2E2E2E2E2E2E2E2E2E2E2E2E2E2E2E2E2E2E2E2E2E2E2E2E2E2E2E2E2E2E2E2E2E2E2E2E2E2E2E2E2E2E2E2E2E2E2E2E2E2E2E2E2E2E2E2E2E2E2E2E2E2E2E2E2E2E2E2E2E2E2E2E2E2E2E2E2E2E2E2E2E2E2E2E2E2E2E2E2E2E2E2E2E2E2E2E2E2E2E2E2E2E2E2E2E2E2E2E2E2E2E2E2E2E2E2E2E2E2E2E2E2E2E2E2E2E2
310
E2E2E2E2E2E2E2E2E2E2E2E2E2E2E2E2E2E2E2E2E2E2E2E2E2E2E2E2E2E2E2E2E2E2E2E2E2E2E2E2E2E2E2E2E2E2E2E2E2E2E2E2E2E2E2E2E2E2E2E2E2E2E2E2E2E2E2E2E2E2E2E2E2E2E2E2E2E2E2E2E2E2E2E2E2E2E2E2E2E2E2E2E2E2E2E2E2E2E2E2E2E2E2E2E2E2E2E2E2E2E2E2E2E2E2E2E2E2E2E2E2E2E2E2E2E2E2
310
E2E2E2E2E2E2E2E2E2E2E2E2E2E2E2E2E2E2E2E2E2E2E2E2E2E2E2E2E2E2E2E2E2E2E2E2E2E2E2E2E2E2E2E2E2E2E2E2E2E2E2E2E2E2E2E2E2E2E2E2E2E2E2E2E2E2E2E2E2E2E2E2E2E2E2E2E2E2E2E2E2E2E2E2E2E2E2E2E2E2E2E2E2E2E2E2E2E2E2E2E2E2E2E2E2E2E2E2E2E2E2E2E2E2E2E2E2E2E2E2E2E2E2E2E2E2E2
310
E2E2E2E2E2E2E2E2E2E2E2E2E2E2E2E2E2E2E2E2E2E2E2E2E2E2E2E2E2E2E2E2E2E2E2E2E2E2E2E2E2E2E2E2E2E2E2E2E2E2E2E2E2E2E2E2E2E2E2E2E2E2E2E2E2E2E2E2E2E2E2E2E2E2E2E2E2E2E2E2E2E2E2E2E2E2E2E2E2E2E2E2E2E2E2E2E2E2E2E2E2E2E2E2E2E2E2E2E2E2E2E2E2E2E2E2E2E2E2E2E2E2E2E2E2E2E2
310
E2E2E2E2E2E2E2E2E2E2E2E2E2E2E2E2E2E2E2E2E2E2E2E2E2E2E2E2E2E2E2E2E2E2E2E2E2E2E2E2E2E2E2E2E2E2E2E2E2E2E2E2E2E2E2E2E2E2E2E2E2E2E2E2E2E2E2E2E2E2E2E2E2E2E2E2E2E2E2E2E2E2E2E2E2E2E2E2E2E2E2E2E2E2E2E2E2E2E2E2E2E2E2E2E2E2E2E2E2E2E2E2E2E2E2E2E2E2E2E2E2E2E2E2E2E2E2
310
E2E2E2E2E2E2E2E2E2E2E2E2E2E2E2E2E2E2E2E2E2E2E2E2E2E2E2E2E2E2E2E2E2E2E2E2E2E2E2E2E2E2E2E2E2E2E2E2E2E2E2E2E2E2E2E2E2E2E2E2E2E2E2E2E2E2E2E2E2E2E2E2E2E2E2E2E2E2E2E2E2E2E2E2E2E2E2E2E2E2E2E2E2E2E2E2E2E2E2E2E2E2E2E2E2E2E2E2E2E2E2E2E2E2E2E2E2E2E2E2E2E2E2E2E2E2E2
310
E2E2E2E2E2E2E2E2E2E2E2E2E2E2E2E2E2E2E2E2E2E2E2E2E2E2E2E2E2E2E2E2E2E2E2E2E2E2E2E2E2E2E2E2E2E2E2E2E2E2E2E2E2E2E2E2E2E2E2E2E2E2E2E2E2E2E2E2E2E2E2E2E2E2E2E2E2E2E2E2E2E2E2E2E2E2E2E2E2E2E2E2E2E2E2E2E2E2E2E2E2E2E2E2E2E2E2E2E2E2E2E2E2E2E2E2E2E2E2E2E2E2E2E2E2E2E2
310
E2E2E2E2E2E2E2E2E2E2E2E2E2E2E2E2E2E2E2E2E2E2E2E2E2E2E2E2E2E2E2E2E2E2E2E2E2E2E2E2E2E2E2E2E2E2E2E2E2E2E2E2E2E2E2E2E2E2E2E2E2E2E2E2E2E2E2E2E2E2E2E2E2E2E2E2E2E2E2E2E2E2E2E2E2E2E2E2E2E2E2E2E2E2E2E2E2E2E2E2E2E2E2E2E2E2E2E2E2E2E2E2E2E2E2E2E2E2E2E2E2E2E2E2E2E2E2
310
E2E2E2E2E2E2E2E2E2E2E2E2E2E2E2E2E2E2E2E2E2E2E2E2E2E2E2E2E2E2E2E2E2E2E2E2E2E2E2E2E2E2E2E2E2E2E2E2E2E2E2E2E2E2E2E2E2E2E2E2E2E2E2E2E2E2E2E2E2E2E2E2E2E2E2E2E2E2E2E2E2E2E2E2E2E2E2E2E2E2E2E2E2E2E2E2E2E2E2E2E2E2E2E2E2E2E2E2E2E2E2E2E2E2E2E2E2E2E2E2E2E2E2E2E2E2E2
310
E2E2E2E2E2E2E2E2E2E2E2E2E2E2E2E2E2E2E2E2E2E2E2E2E2E2E2E2E2E2E2E2E2E2E2E2E2E2E2E2E2E2E2E2E2E2E2E2E2E2E2E2E2E2E2E2E2E2E2E2E2E2E2E2E2E2E2E2E2E2E2E2E2E2E2E2E2E2E2E2E2E2E2E2E2E2E2E2E2E2E2E2E2E2E2E2E2E2E2E2E2E2E2E2E2E2E2E2E2E2E2E2E2E2E2E2E2E2E2E2E2E2E2E2E2E2E2
310
E2E2E2E2E2E2E2E2E2E2E2E2E2E2E2E2E2E2E2E2E2E2E2E2E2E2E2E2E2E2E2E2E2E2E2E2E2E2E2E2E2E2E2E2E2E2E2E2E2E2E2E2E2E2E2E2E2E2E2E2E2E2E2E2E2E2E2E2E2E2E2E2E2E2E2E2E2E2E2E2E2E2E2E2E2E2E2E2E2E2E2E2E2E2E2E2E2E2E2E2E2E2E2E2E2E2E2E2E2E2E2E2E2E2E2E2E2E2E2E2E2E2E2E2E2E2E2
310
E2E2E2E2E2E2E2E2E2E2E2E2E2E2E2E2E2E2E2E2E2E2E2E2E2E2E2E2E2E2E2E2E2E2E2E2E2E2E2E2E2E2E2E2E2E2E2E2E2E2E2E2E2E2E2E2E2E2E2E2E2E2E2E2E2E2E2E2E2E2E2E2E2E2E2E2E2E2E2E2E2E2E2E2E2E2E2E2E2E2E2E2E2E2E2E2E2E2E2E2E2E2E2E2E2E2E2E2E2E2E2E2E2E2E2E2E2E2E2E2E2E2E2E2E2E2E2
310
E2E2E2E2E2E2E2E2E2E2E2E2E2E2E2E2E2E2E2E2E2E2E2E2E2E2E2E2E2E2E2E2E2E2E2E2E2E2E2E2E2E2E2E2E2E2E2E2E2E2E2E2E2E2E2E2E2E2E2E2E2E2E2E2E2E2E2E2E2E2E2E2E2E2E2E2E2E2E2E2E2E2E2E2E2E2E2E2E2E2E2E2E2E2E2E2E2E2E2E2E2E2E2E2E2E2E2E2E2E2E2E2E2E2E2E2E2E2E2E2E2E2E2E2E2E2E2
310
E2E2E2E2E2E2E2E2E2E2E2E2E2E2E2E2E2E2E2E2E2E2E2E2E2E2E2E2E2E2E2E2E2E2E2E2E2E2E2E2E2E2E2E2E2E2E2E2E2E2E2E2E2E2E2E2E2E2E2E2E2E2E2E2E2E2E2E2E2E2E2E2E2E2E2E2E2E2E2E2E2E2E2E2E2E2E2E2E2E2E2E2E2E2E2E2E2E2E2E2E2E2E2E2E2E2E2E2E2E2E2E2E2E2E2E2E2E2E2E2E2E2E2E2E2E2E2
310
E2E2E2E2E2E2E2E2E2E2E2E2E2E2E2E2E2E2E2E2E2E2E2E2E2E2E2E2E2E2E2E2E2E2E2E2E2E2E2E2E2E2E2E2E2E2E2E2E2E2E2E2E2E2E2E2E2E2E2E2E2E2E2E2E2E2E2E2E2E2E2E2E2E2E2E2E2E2E2E2E2E2E2E2E2E2E2E2E2E2E2E2E2E2E2E2E2E2E2E2E2E2E2E2E2E2E2E2E2E2E2E2E2E2E2E2E2E2E2E2E2E2E2E2E2E2E2
310
E2E2E2E2E2E2E2E2E2E2E2E2E2E2E2E2E2E2E2E2E2E2E2E2E2E2E2E2E2E2E2E2E2E2E2E2E2E2E2E2E2E2E2E2E2E2E2E2E2E2E2E2E2E2E2E2E2E2E2E2E2E2E2E2E2E2E2E2E2E2E2E2E2E2E2E2E2E2E2E2E2E2E2E2E2E2E2E2E2E2E2E2E2E2E2E2E2E2E2E2E2E2E2E2E2E2E2E2E2E2E2E2E2E2E2E2E2E2E2E2E2E2E2E2E2E2E2
310
E2E2E2E2E2E2E2E2E2E2E2E2E2E2E2E2E2E2E2E2E2E2E2E2E2E2E2E2E2E2E2E2E2E2E2E2E2E2E2E2E2E2E2E2E2E2E2E2E2E2E2E2E2E2E2E2E2E2E2E2E2E2E2E2E2E2E2E2E2E2E2E2E2E2E2E2E2E2E2E2E2E2E2E2E2E2E2E2E2E2E2E2E2E2E2E2E2E2E2E2E2E2E2E2E2E2E2E2E2E2E2E2E2E2E2E2E2E2E2E2E2E2E2E2E2E2E2
310
E2E2E2E2E2E2E2E2E2E2E2E2E2E2E2E2E2E2E2E2E2E2E2E2E2E2E2E2E2E2E2E2E2E2E2E2E2E2E2E2E2E2E2E2E2E2E2E2E2E2E2E2E2E2E2E2E2E2E2E2E2E2E2E2E2E2E2E2E2E2E2E2E2E2E2E2E2E2E2E2E2E2E2E2E2E2E2E2E2E2E2E2E2E2E2E2E2E2E2E2E2E2E2E2E2E2E2E2E2E2E2E2E2E2E2E2E2E2E2E2E2E2E2E2E2E2E2
310
E2E2E2E2E2E2E2E2E2E2E2E2E2E2E2E2E2E2E2E2E2E2E2E2E2E2E2E2E2E2E2E2E2E2E2E2E2E2E2E2E2E2E2E2E2E2E2E2E2E2E2E2E2E2E2E2E2E2E2E2E2E2E2E2E2E2E2E2E2E2E2E2E2E2E2E2E2E2E2E2E2E2E2E2E2E2E2E2E2E2E2E2E2E2E2E2E2E2E2E2E2E2E2E2E2E2E2E2E2E2E2E2E2E2E2E2E2E2E2E2E2E2E2E2E2E2E2
310
E2E2E2E2E2E2E2E2E2E2E2E2E2E2E2E2E2E2E2E2E2E2E2E2E2E2E2E2E2E2E2E2E2E2E2E2E2E2E2E2E2E2E2E2E2E2E2E2E2E2E2E2E2E2E2E2E2E2E2E2E2E2E2E2E2E2E2E2E2E2E2E2E2E2E2E2E2E2E2E2E2E2E2E2E2E2E2E2E2E2E2E2E2E2E2E2E2E2E2E2E2E2E2E2E2E2E2E2E2E2E2E2E2E2E2E2E2E2E2E2E2E2E2E2E2E2E2
310
E2E2E2E2E2E2E2E2E2E2E2E2E2E2E2E2E2E2E2E2E2E2E2E2E2E2E2E2E2E2E2E2E2E2E2E2E2E2E2E2E2E2E2E2E2E2E2E2E2E2E2E2E2E2E2E2E2E2E2E2E2E2E2E2E2E2E2E2E2E2E2E2E2E2E2E2E2E2E2E2E2E2E2E2E2E2E2E2E2E2E2E2E2E2E2E2E2E2E2E2E2E2E2E2E2E2E2E2E2E2E2E2E2E2E2E2E2E2E2E2E2E2E2E2E2E2E2
310
E2E2E2E2E2E2E2E2E2E2E2E2E2E2E2E2E2E2E2E2E2E2E2E2E2E2E2E2E2E2E2E2E2E2E2E2E2E2E2E2E2E2E2E2E2E2E2E2E2E2E2E2E2E2E2E2E2E2E2E2E2E2E2E2E2E2E2E2E2E2E2E2E2E2E2E2E2E2E2E2E2E2E2E2E2E2E2E2E2E2E2E2E2E2E2E2E2E2E2E2E2E2E2E2E2E2E2E2E2E2E2E2E2E2E2E2E2E2E2E2E2E2E2E2E2E2E2
310
E2E2E2E2E2E2E2E2E2E2E2E2E2E2E2E2E2E2E2E2E2E2E2E2E2E2E2E2E2E2E2E2E2E2E2E2E2E2E2E2E2E2E2E2E2E2E2E2E2E2E2E2E2E2E2E2E2E2E2E2E2E2E2E2E2E2E2E2E2E2E2E2E2E2E2E2E2E2E2E2E2E2E2E2E2E2E2E2E2E2E2E2E2E2E2E2E2E2E2E2E2E2E2E2E2E2E2E2E2E2E2E2E2E2E2E2E2E2E2E2E2E2E2E2E2E2E2
310
E2E2E2E2E2E2E2E2E2E2E2E2E2E2E2E2E2E2E2E2E2E2E2E2E2E2E2E2E2E2E2E2E2E2E2E2E2E2E2E2E2E2E2E2E2E2E2E2E2E2E2E2E2E2E2E2E2E2E2E2E2E2E2E2E2E2E2E2E2E2E2E2E2E2E2E2E2E2E2E2E2E2E2E2E2E2E2E2E2E2E2E2E2E2E2E2E2E2E2E2E2E2E2E2E2E2E2E2E2E2E2E2E2E2E2E2E2E2E2E2E2E2E2E2E2E2E2
310
E2E2E2E2E2E2E2E2E2E2E2E2E2E2E2E2E2E2E2E2E2E2E2E2E2E2E2E2E2E2E2E2E2E2E2E2E2E2E2E2E2E2E2E2E2E2E2E2E2E2E2E2E2E2E2E2E2E2E2E2E2E2E2E2E2E2E2E2E2E2E2E2E2E2E2E2E2E2E2E2E2E2E2E2E2E2E2E2E2E2E2E2E2E2E2E2E2E2E2E2E2E2E2E2E2E2E2E2E2E2E2E2E2E2E2E2E2E2E2E2E2E2E2E2E2E2E2
310
E2E2E2E2E2E2E2E2E2E2E2E2E2E2E2E2E2E2E2E2E2E2E2E2E2E2E2E2E2E2E2E2E2E2E2E2E2E2E2E2E2E2E2E2E2E2E2E2E2E2E2E2E2E2E2E2E2E2E2E2E2E2E2E2E2E2E2E2E2E2E2E2E2E2E2E2E2E2E2E2E2E2E2E2E2E2E2E2E2E2E2E2E2E2E2E2E2E2E2E2E2E2E2E2E2E2E2E2E2E2E2E2E2E2E2E2E2E2E2E2E2E2E2E2E2E2E2
310
E2E2E2E2E2E2E2E2E2E2E2E2E2E2E2E2E2E2E2E2E2E2E2E2E2E2E2E2E2E2E2E2E2E2E2E2E2E2E2E2E2E2E2E2E2E2E2E2E2E2E2E2E2E2E2E2E2E2E2E2E2E2E2E2E2E2E2E2E2E2E2E2E2E2E2E2E2E2E2E2E2E2E2E2E2E2E2E2E2E2E2E2E2E2E2E2E2E2E2E2E2E2E2E2E2E2E2E2E2E2E2E2E2E2E2E2E2E2E2E2E2E2E2E2E2E2E2
310
E2E2E2E2E2E2E2E2E2E2E2E2E2E2E2E2E2E2E2E2E2E2E2E2E2E2E2E2E2E2E2E2E2E2E2E2E2E2E2E2E2E2E2E2E2E2E2E2E2E2E2E2E2E2E2E2E2E2E2E2E2E2E2E2E2E2E2E2E2E2E2E2E2E2E2E2E2E2E2E2E2E2E2E2E2E2E2E2E2E2E2E2E2E2E2E2E2E2E2E2E2E2E2E2E2E2E2E2E2E2E2E2E2E2E2E2E2E2E2E2E2E2E2E2E2E2E2
310
E2E2E2E2E2E2E2E2E2E2E2E2E2E2E2E2E2E2E2E2E2E2E2E2E2E2E2E2E2E2E2E2E2E2E2E2E2E2E2E2E2E2E2E2E2E2E2E2E2E2E2E2E2E2E2E2E2E2E2E2E2E2E2E2E2E2E2E2E2E2E2E2E2E2E2E2E2E2E2E2E2E2E2E2E2E2E2E2E2E2E2E2E2E2E2E2E2E2E2E2E2E2E2E2E2E2E2E2E2E2E2E2E2E2E2E2E2E2E2E2E2E2E2E2E2E2E2
310
E2E2E2E2E2E2E2E2E2E2E2E2E2E2E2E2E2E2E2E2E2E2E2E2E2E2E2E2E2E2E2E2E2E2E2E2E2E2E2E2E2E2E2E2E2E2E2E2E2E2E2E2E2E2E2E2E2E2E2E2E2E2E2E2E2E2E2E2E2E2E2E2E2E2E2E2E2E2E2E2E2E2E2E2E2E2E2E2E2E2E2E2E2E2E2E2E2E2E2E2E2E2E2E2E2E2E2E2E2E2E2E2E2E2E2E2E2E2E2E2E2E2E2E2E2E2E2
310
E2E2E2E2E2E2E2E2E2E2E2E2E2E2E2E2E2E2E2E2E2E2E2E2E2E2E2E2E2E2E2E2E2E2E2E2E2E2E2E2E2E2E2E2E2E2E2E2E2E2E2E2E2E2E2E2E2E2E2E2E2E2E2E2E2E2E2E2E2E2E2E2E2E2E2E2E2E2E2E2E2E2E2E2E2E2E2E2E2E2E2E2E2E2E2E2E2E2E2E2E2E2E2E2E2E2E2E2E2E2E2E2E2E2E2E2E2E2E2E2E2E2E2E2E2E2E2
310
E2E2E2E2E2E2E2E2E2E2E2E2E2E2E2E2E2E2E2E2E2E2E2E2E2E2E2E2E2E2E2E2E2E2E2E2E2E2E2E2E2E2E2E2E2E2E2E2E2E2E2E2E2E2E2E2E2E2E2E2E2E2E2E2E2E2E2E2E2E2E2E2E2E2E2E2E2E2E2E2E2E2E2E2E2E2E2E2E2E2E2E2E2E2E2E2E2E2E2E2E2E2E2E2E2E2E2E2E2E2E2E2E2E2E2E2E2E2E2E2E2E2E2E2E2E2E2
310
E2E2E2E2E2E2E2E2E2E2E2E2E2E2E2E2E2E2E2E2E2E2E2E2E2E2E2E2E2E2E2E2E2E2E2E2E2E2E2E2E2E2E2E2E2E2E2E2E2E2E2E2E2E2E2E2E2E2E2E2E2E2E2E2E2E2E2E2E2E2E2E2E2E2E2E2E2E2E2E2E2E2E2E2E2E2E2E2E2E2E2E2E2E2E2E2E2E2E2E2E2E2E2E2E2E2E2E2E2E2E2E2E2E2E2E2E2E2E2E2E2E2E2E2E2E2E2
310
E2E2E2E2E2E2E2E2E2E2E2E2E2E2E2E2E2E2E2E2E2E2E2E2E2E2E2E2E2E2E2E2E2E2E2E2E2E2E2E2E2E2E2E2E2E2E2E2E2E2E2E2E2E2E2E2E2E2E2E2E2E2E2E2E2E2E2E2E2E2E2E2E2E2E2E2E2E2E2E2E2E2E2E2E2E2E2E2E2E2E2E2E2E2E2E2E2E2E2E2E2E2E2E2E2E2E2E2E2E2E2E2E2E2E2E2E2E2E2E2E2E2E2E2E2E2E2
310
E2E2E2E2E2E2E2E2E2E2E2E2E2E2E2E2E2E2E2E2E2E2E2E2E2E2E2E2E2E2E2E2E2E2E2E2E2E2E2E2E2E2E2E2E2E2E2E2E2E2E2E2E2E2E2E2E2E2E2E2E2E2E2E2E2E2E2E2E2E2E2E2E2E2E2E2E2E2E2E2E2E2E2E2E2E2E2E2E2E2E2E2E2E2E2E2E2E2E2E2E2E2E2E2E2E2E2E2E2E2E2E2E2E2E2E2E2E2E2E2E2E2E2E2E2E2E2
310
E2E2E2E2E2E2E2E2E2E2E2E2E2E2E2E2E2E2E2E2E2E2E2E2E2E2E2E2E2E2E2E2E2E2E2E2E2E2E2E2E2E2E2E2E2E2E2E2E2E2E2E2E2E2E2E2E2E2E2E2E2E2E2E2E2E2E2E2E2E2E2E2E2E2E2E2E2E2E2E2E2E2E2E2E2E2E2E2E2E2E2E2E2E2E2E2E2E2E2E2E2E2E2E2E2E2E2E2E2E2E2E2E2E2E2E2E2E2E2E2E2E2E2E2E2E2E2
310
E2E2E2E2E2E2E2E2E2E2E2E2E2E2E2E2E2E2E2E2E2E2E2E2E2E2E2E2E2E2E2E2E2E2E2E2E2E2E2E2E2E2E2E2E2E2E2E2E2E2E2E2E2E2E2E2E2E2E2E2E2E2E2E2E2E2E2E2E2E2E2E2E2E2E2E2E2E2E2E2E2E2E2E2E2E2E2E2E2E2E2E2E2E2E2E2E2E2E2E2E2E2E2E2E2E2E2E2E2E2E2E2E2E2E2E2E2E2E2E2E2E2E2E2E2E2E2
310
E2E2E2E2E2E2E2E2E2E2E2E2E2E2E2E2E2E2E2E2E2E2E2E2E2E2E2E2E2E2E2E2E2E2E2E2E2E2E2E2E2E2E2E2E2E2E2E2E2E2E2E2E2E2E2E2E2E2E2E2E2E2E2E2E2E2E2E2E2E2E2E2E2E2E2E2E2E2E2E2E2E2E2E2E2E2E2E2E2E2E2E2E2E2E2E2E2E2E2E2E2E2E2E2E2E2E2E2E2E2E2E2E2E2E2E2E2E2E2E2E2E2E2E2E2E2E2
310
E2E2E2E2E2E2E2E2E2E2E2E2E2E2E2E2E2E2E2E2E2E2E2E2E2E2E2E2E2E2E2E2E2E2E2E2E2E2E2E2E2E2E2E2E2E2E2E2E2E2E2E2E2E2E2E2E2E2E2E2E2E2E2E2E2E2E2E2E2E2E2E2E2E2E2E2E2E2E2E2E2E2E2E2E2E2E2E2E2E2E2E2E2E2E2E2E2E2E2E2E2E2E2E2E2E2E2E2E2E2E2E2E2E2E2E2E2E2E2E2E2E2E2E2E2E2E2
310
E2E2E2E2E2E2E2E2E2E2E2E2E2E2E2E2E2E2E2E2E2E2E2E2E2E2E2E2E2E2E2E2E2E2E2E2E2E2E2E2E2E2E2E2E2E2E2E2E2E2E2E2E2E2E2E2E2E2E2E2E2E2E2E2E2E2E2E2E2E2E2E2E2E2E2E2E2E2E2E2E2E2E2E2E2E2E2E2E2E2E2E2E2E2E2E2E2E2E2E2E2E2E2E2E2E2E2E2E2E2E2E2E2E2E2E2E2E2E2E2E2E2E2E2E2E2E2
310
E2E2E2E2E2E2E2E2E2E2E2E2E2E2E2E2E2E2E2E2E2E2E2E2E2E2E2E2E2E2E2E2E2E2E2E2E2E2E2E2E2E2E2E2E2E2E2E2E2E2E2E2E2E2E2E2E2E2E2E2E2E2E2E2E2E2E2E2E2E2E2E2E2E2E2E2E2E2E2E2E2E2E2E2E2E2E2E2E2E2E2E2E2E2E2E2E2E2E2E2E2E2E2E2E2E2E2E2E2E2E2E2E2E2E2E2E2E2E2E2E2E2E2E2E2E2E2
310
E2E2E2E2E2E2E2E2E2E2E2E2E2E2E2E2E2E2E2E2E2E2E2E2E2E2E2E2E2E2E2E2E2E2E2E2E2E2E2E2E2E2E2E2E2E2E2E2E2E2E2E2E2E2E2E2E2E2E2E2E2E2E2E2E2E2E2E2E2E2E2E2E2E2E2E2E2E2E2E2E2E2E2E2E2E2E2E2E2E2E2E2E2E2E2E2E2E2E2E2E2E2E2E2E2E2E2E2E2E2E2E2E2E2E2E2E2E2E2E2E2E2E2E2E2E2E2
310
E2E2E2E2E2E2E2E2E2E2E2E2E2E2E2E2E2E2E2E2E2E2E2E2E2E2E2E2E2E2E2E2E2E2E2E2E2E2E2E2E2E2E2E2E2E2E2E2E2E2E2E2E2E2E2E2E2E2E2E2E2E2E2E2E2E2E2E2E2E2E2E2E2E2E2E2E2E2E2E2E2E2E2E2E2E2E2E2E2E2E2E2E2E2E2E2E2E2E2E2E2E2E2E2E2E2E2E2E2E2E2E2E2E2E2E2E2E2E2E2E2E2E2E2E2E2E2
310
E2E2E2E2E2E2E2E2E2E2E2E2E2E2E2E2E2E2E2E2E2E2E2E2E2E2E2E2E2E2E2E2E2E2E2E2E2E2E2E2E2E2E2E2E2E2E2E2E2E2E2E2E2E2E2E2E2E2E2E2E2E2E2E2E2E2E2E2E2E2E2E2E2E2E2E2E2E2E2E2E2E2E2E2E2E2E2E2E2E2E2E2E2E2E2E2E2E2E2E2E2E2E2E2E2E2E2E2E2E2E2E2E2E2E2E2E2E2E2E2E2E2E2E2E2E2E2
310
E2E2E2E2E2E2E2E2E2E2E2E2E2E2E2E2E2E2E2E2E2E2E2E2E2E2E2E2E2E2E2E2E2E2E2E2E2E2E2E2E2E2E2E2E2E2E2E2E2E2E2E2E2E2E2E2E2E2E2E2E2E2E2E2E2E2E2E2E2E2E2E2E2E2E2E2E2E2E2E2E2E2E2E2E2E2E2E2E2E2E2E2E2E2E2E2E2E2E2E2E2E2E2E2E2E2E2E2E2E2E2E2E2E2E2E2E2E2E2E2E2E2E2E2E2E2E2
310
E2E2E2E2E2E2E2E2E2E2E2E2E2E2E2E2E2E2E2E2E2E2E2E2E2E2E2E2E2E2E2E2E2E2E2E2E2E2E2E2E2E2E2E2E2E2E2E2E2E2E2E2E2E2E2E2E2E2E2E2E2E2E2E2E2E2E2E2E2E2E2E2E2E2E2E2E2E2E2E2E2E2E2E2E2E2E2E2E2E2E2E2E2E2E2E2E2E2E2E2E2E2E2E2E2E2E2E2E2E2E2E2E2E2E2E2E2E2E2E2E2E2E2E2E2E2E2
310
E2E2E2E2E2E2E2E2E2E2E2E2E2E2E2E2E2E2E2E2E2E2E2E2E2E2E2E2E2E2E2E2E2E2E2E2E2E2E2E2E2E2E2E2E2E2E2E2E2E2E2E2E2E2E2E2E2E2E2E2E2E2E2E2E2E2E2E2E2E2E2E2E2E2E2E2E2E2E2E2E2E2E2E2E2E2E2E2E2E2E2E2E2E2E2E2E2E2E2E2E2E2E2E2E2E2E2E2E2E2E2E2E2E2E2E2E2E2E2E2E2E2E2E2E2E2E2
310
E2E2E2E2E2E2E2E2E2E2E2E2E2E2E2E2E2E2E2E2E2E2E2E2E2E2E2E2E2E2E2E2E2E2E2E2E2E2E2E2E2E2E2E2E2E2E2E2E2E2E2E2E2E2E2E2E2E2E2E2E2E2E2E2E2E2E2E2E2E2E2E2E2E2E2E2E2E2E2E2E2E2E2E2E2E2E2E2E2E2E2E2E2E2E2E2E2E2E2E2E2E2E2E2E2E2E2E2E2E2E2E2E2E2E2E2E2E2E2E2E2E2E2E2E2E2E2
310
E2E2E2E2E2E2E2E2E2E2E2E2E2E2E2E2E2E2E2E2E2E2E2E2E2E2E2E2E2E2E2E2E2E2E2E2E2E2E2E2E2E2E2E2E2E2E2E2E2E2E2E2E2E2E2E2E2E2E2E2E2E2E2E2E2E2E2E2E2E2E2E2E2E2E2E2E2E2E2E2E2E2E2E2E2E2E2E2E2E2E2E2E2E2E2E2E2E2E2E2E2E2E2E2E2E2E2E2E2E2E2E2E2E2E2E2E2E2E2E2E2E2E2E2E2E2E2
310
E2E2E2E2E2E2E2E2E2E2E2E2E2E2E2E2E2E2E2E2E2E2E2E2E2E2E2E2E2E2E2E2E2E2E2E2E2E2E2E2E2E2E2E2E2E2E2E2E2E2E2E2E2E2E2E2E2E2E2E2E2E2E2E2E2E2E2E2E2E2E2E2E2E2E2E2E2E2E2E2E2E2E2E2E2E2E2E2E2E2E2E2E2E2E2E2E2E2E2E2E2E2E2E2E2E2E2E2E2E2E2E2E2E2E2E2E2E2E2E2E2E2E2E2E2E2E2
310
E2E2E2E2E2E2E2E2E2E2E2E2E2E2E2E2E2E2E2E2E2E2E2E2E2E2E2E2E2E2E2E2E2E2E2E2E2E2E2E2E2E2E2E2E2E2E2E2E2E2E2E2E2E2E2E2E2E2E2E2E2E2E2E2E2E2E2E2E2E2E2E2E2E2E2E2E2E2E2E2E2E2E2E2E2E2E2E2E2E2E2E2E2E2E2E2E2E2E2E2E2E2E2E2E2E2E2E2E2E2E2E2E2E2E2E2E2E2E2E2E2E2E2E2E2E2E2
310
E2E2E2E2E2E2E2E2E2E2E2E2E2E2E2E2E2E2E2E2E2E2E2E2E2E2E2E2E2E2E2E2E2E2E2E2E2E2E2E2E2E2E2E2E2E2E2E2E2E2E2E2E2E2E2E2E2E2E2E2E2E2E2E2E2E2E2E2E2E2E2E2E2E2E2E2E2E2E2E2E2E2E2E2E2E2E2E2E2E2E2E2E2E2E2E2E2E2E2E2E2E2E2E2E2E2E2E2E2E2E2E2E2E2E2E2E2E2E2E2E2E2E2E2E2E2E2
310
E2E2E2E2E2E2E2E2E2E2E2E2E2E2E2E2E2E2E2E2E2E2E2E2E2E2E2E2E2E2E2E2E2E2E2E2E2E2E2E2E2E2E2E2E2E2E2E2E2E2E2E2E2E2E2E2E2E2E2E2E2E2E2E2E2E2E2E2E2E2E2E2E2E2E2E2E2E2E2E2E2E2E2E2E2E2E2E2E2E2E2E2E2E2E2E2E2E2E2E2E2E2E2E2E2E2E2E2E2E2E2E2E2E2E2E2E2E2E2E2E2E2E2E2E2E2E2
310
E2E2E2E2E2E2E2E2E2E2E2E2E2E2E2E2E2E2E2E2E2E2E2E2E2E2E2E2E2E2E2E2E2E2E2E2E2E2E2E2E2E2E2E2E2E2E2E2E2E2E2E2E2E2E2E2E2E2E2E2E2E2E2E2E2E2E2E2E2E2E2E2E2E2E2E2E2E2E2E2E2E2E2E2E2E2E2E2E2E2E2E2E2E2E2E2E2E2E2E2E2E2E2E2E2E2E2E2E2E2E2E2E2E2E2E2E2E2E2E2E2E2E2E2E2E2E2
310
E2E2E2E2E2E2E2E2E2E2E2E2E2E2E2E2E2E2E2E2E2E2E2E2E2E2E2E2E2E2E2E2E2E2E2E2E2E2E2E2E2E2E2E2E2E2E2E2E2E2E2E2E2E2E2E2E2E2E2E2E2E2E2E2E2E2E2E2E2E2E2E2E2E2E2E2E2E2E2E2E2E2E2E2E2E2E2E2E2E2E2E2E2E2E2E2E2E2E2E2E2E2E2E2E2E2E2E2E2E2E2E2E2E2E2E2E2E2E2E2E2E2E2E2E2E2E2
310
E2E2E2E2E2E2E2E2E2E2E2E2E2E2E2E2E2E2E2E2E2E2E2E2E2E2E2E2E2E2E2E2E2E2E2E2E2E2E2E2E2E2E2E2E2E2E2E2E2E2E2E2E2E2E2E2E2E2E2E2E2E2E2E2E2E2E2E2E2E2E2E2E2E2E2E2E2E2E2E2E2E2E2E2E2E2E2E2E2E2E2E2E2E2E2E2E2E2E2E2E2E2E2E2E2E2E2E2E2E2E2E2E2E2E2E2E2E2E2E2E2E2E2E2E2E2E2
310
E2E2E2E2E2E2E2E2E2E2E2E2E2E2E2E2E2E2E2E2E2E2E2E2E2E2E2E2E2E2E2E2E2E2E2E2E2E2E2E2E2E2E2E2E2E2E2E2E2E2E2E2E2E2E2E2E2E2E2E2E2E2E2E2E2E2E2E2E2E2E2E2E2E2E2E2E2E2E2E2E2E2E2E2E2E2E2E2E2E2E2E2E2E2E2E2E2E2E2E2E2E2E2E2E2E2E2E2E2E2E2E2E2E2E2E2E2E2E2E2E2E2E2E2E2E2E2
310
E2E2E2E2E2E2E2E2E2E2E2E2E2E2E2E2E2E2E2E2E2E2E2E2E2E2E2E2E2E2E2E2E2E2E2E2E2E2E2E2E2E2E2E2E2E2E2E2E2E2E2E2E2E2E2E2E2E2E2E2E2E2E2E2E2E2E2E2E2E2E2E2E2E2E2E2E2E2E2E2E2E2E2E2E2E2E2E2E2E2E2E2E2E2E2E2E2E2E2E2E2E2E2E2E2E2E2E2E2E2E2E2E2E2E2E2E2E2E2E2E2E2E2E2E2E2E2
310
E2E2E2E2E2E2E2E2E2E2E2E2E2E2E2E2E2E2E2E2E2E2E2E2E2E2E2E2E2E2E2E2E2E2E2E2E2E2E2E2E2E2E2E2E2E2E2E2E2E2E2E2E2E2E2E2E2E2E2E2E2E2E2E2E2E2E2E2E2E2E2E2E2E2E2E2E2E2E2E2E2E2E2E2E2E2E2E2E2E2E2E2E2E2E2E2E2E2E2E2E2E2E2E2E2E2E2E2E2E2E2E2E2E2E2E2E2E2E2E2E2E2E2E2E2E2E2
310
E2E2E2E2E2E2E2E2E2E2E2E2E2E2E2E2E2E2E2E2E2E2E2E2E2E2E2E2E2E2E2E2E2E2E2E2E2E2E2E2E2E2E2E2E2E2E2E2E2E2E2E2E2E2E2E2E2E2E2E2E2E2E2E2E2E2E2E2E2E2E2E2E2E2E2E2E2E2E2E2E2E2E2E2E2E2E2E2E2E2E2E2E2E2E2E2E2E2E2E2E2E2E2E2E2E2E2E2E2E2E2E2E2E2E2E2E2E2E2E2E2E2E2E2E2E2E2
310
E2E2E2E2E2E2E2E2E2E2E2E2E2E2E2E2E2E2E2E2E2E2E2E2E2E2E2E2E2E2E2E2E2E2E2E2E2E2E2E2E2E2E2E2E2E2E2E2E2E2E2E2E2E2E2E2E2E2E2E2E2E2E2E2E2E2E2E2E2E2E2E2E2E2E2E2E2E2E2E2E2E2E2E2E2E2E2E2E2E2E2E2E2E2E2E2E2E2E2E2E2E2E2E2E2E2E2E2E2E2E2E2E2E2E2E2E2E2E2E2E2E2E2E2E2E2E2
310
E2E2E2E2E2E2E2E2E2E2E2E2E2E2E2E2E2E2E2E2E2E2E2E2E2E2E2E2E2E2E2E2E2E2E2E2E2E2E2E2E2E2E2E2E2E2E2E2E2E2E2E2E2E2E2E2E2E2E2E2E2E2E2E2E2E2E2E2E2E2E2E2E2E2E2E2E2E2E2E2E2E2E2E2E2E2E2E2E2E2E2E2E2E2E2E2E2E2E2E2E2E2E2E2E2E2E2E2E2E2E2E2E2E2E2E2E2E2E2E2E2E2E2E2E2E2E2
310
E2E2E2E2E2E2E2E2E2E2E2E2E2E2E2E2E2E2E2E2E2E2E2E2E2E2E2E2E2E2E2E2E2E2E2E2E2E2E2E2E2E2E2E2E2E2E2E2E2E2E2E2E2E2E2E2E2E2E2E2E2E2E2E2E2E2E2E2E2E2E2E2E2E2E2E2E2E2E2E2E2E2E2E2E2E2E2E2E2E2E2E2E2E2E2E2E2E2E2E2E2E2E2E2E2E2E2E2E2E2E2E2E2E2E2E2E2E2E2E2E2E2E2E2E2E2E2
310
E2E2E2E2E2E2E2E2E2E2E2E2E2E2E2E2E2E2E2E2E2E2E2E2E2E2E2E2E2E2E2E2E2E2E2E2E2E2E2E2E2E2E2E2E2E2E2E2E2E2E2E2E2E2E2E2E2E2E2E2E2E2E2E2E2E2E2E2E2E2E2E2E2E2E2E2E2E2E2E2E2E2E2E2E2E2E2E2E2E2E2E2E2E2E2E2E2E2E2E2E2E2E2E2E2E2E2E2E2E2E2E2E2E2E2E2E2E2E2E2E2E2E2E2E2E2E2
310
E2E2E2E2E2E2E2E2E2E2E2E2E2E2E2E2E2E2E2E2E2E2E2E2E2E2E2E2E2E2E2E2E2E2E2E2E2E2E2E2E2E2E2E2E2E2E2E2E2E2E2E2E2E2E2E2E2E2E2E2E2E2E2E2E2E2E2E2E2E2E2E2E2E2E2E2E2E2E2E2E2E2E2E2E2E2E2E2E2E2E2E2E2E2E2E2E2E2E2E2E2E2E2E2E2E2E2E2E2E2E2E2E2E2E2E2E2E2E2E2E2E2E2E2E2E2E2
310
E2E2E2E2E2E2E2E2E2E2E2E2E2E2E2E2E2E2E2E2E2E2E2E2E2E2E2E2E2E2E2E2E2E2E2E2E2E2E2E2E2E2E2E2E2E2E2E2E2E2E2E2E2E2E2E2E2E2E2E2E2E2E2E2E2E2E2E2E2E2E2E2E2E2E2E2E2E2E2E2E2E2E2E2E2E2E2E2E2E2E2E2E2E2E2E2E2E2E2E2E2E2E2E2E2E2E2E2E2E2E2E2E2E2E2E2E2E2E2E2E2E2E2E2E2E2E2
310
E2E2E2E2E2E2E2E2E2E2E2E2E2E2E2E2E2E2E2E2E2E2E2E2E2E2E2E2E2E2E2E2E2E2E2E2E2E2E2E2E2E2E2E2E2E2E2E2E2E2E2E2E2E2E2E2E2E2E2E2E2E2E2E2E2E2E2E2E2E2E2E2E2E2E2E2E2E2E2E2E2E2E2E2E2E2E2E2E2E2E2E2E2E2E2E2E2E2E2E2E2E2E2E2E2E2E2E2E2E2E2E2E2E2E2E2E2E2E2E2E2E2E2E2E2E2E2
310
E2E2E2E2E2E2E2E2E2E2E2E2E2E2E2E2E2E2E2E2E2E2E2E2E2E2E2E2E2E2E2E2E2E2E2E2E2E2E2E2E2E2E2E2E2E2E2E2E2E2E2E2E2E2E2E2E2E2E2E2E2E2E2E2E2E2E2E2E2E2E2E2E2E2E2E2E2E2E2E2E2E2E2E2E2E2E2E2E2E2E2E2E2E2E2E2E2E2E2E2E2E2E2E2E2E2E2E2E2E2E2E2E2E2E2E2E2E2E2E2E2E2E2E2E2E2E2
310
E2E2E2E2E2E2E2E2E2E2E2E2E2E2E2E2E2E2E2E2E2E2E2E2E2E2E2E2E2E2E2E2E2E2E2E2E2E2E2E2E2E2E2E2E2E2E2E2E2E2E2E2E2E2E2E2E2E2E2E2E2E2E2E2E2E2E2E2E2E2E2E2E2E2E2E2E2E2E2E2E2E2E2E2E2E2E2E2E2E2E2E2E2E2E2E2E2E2E2E2E2E2E2E2E2E2E2E2E2E2E2E2E2E2E2E2E2E2E2E2E2E2E2E2E2E2E2
310
E2E2E2E2E2E2E2E2E2E2E2E2E2E2E2E2E2E2E2E2E2E2E2E2E2E2E2E2E2E2E2E2E2E2E2E2E2E2E2E2E2E2E2E2E2E2E2E2E2E2E2E2E2E2E2E2E2E2E2E2E2E2E2E2E2E2E2E2E2E2E2E2E2E2E2E2E2E2E2E2E2E2E2E2E2E2E2E2E2E2E2E2E2E2E2E2E2E2E2E2E2E2E2E2E2E2E2E2E2E2E2E2E2E2E2E2E2E2E2E2E2E2E2E2E2E2E2
310
E2E2E2E2E2E2E2E2E2E2E2E2E2E2E2E2E2E2E2E2E2E2E2E2E2E2E2E2E2E2E2E2E2E2E2E2E2E2E2E2E2E2E2E2E2E2E2E2E2E2E2E2E2E2E2E2E2E2E2E2E2E2E2E2E2E2E2E2E2E2E2E2E2E2E2E2E2E2E2E2E2E2E2E2E2E2E2E2E2E2E2E2E2E2E2E2E2E2E2E2E2E2E2E2E2E2E2E2E2E2E2E2E2E2E2E2E2E2E2E2E2E2E2E2E2E2E2
310
E2E2E2E2E2E2E2E2E2E2E2E2E2E2E2E2E2E2E2E2E2E2E2E2E2E2E2E2E2E2E2E2E2E2E2E2E2E2E2E2E2E2E2E2E2E2E2E2E2E2E2E2E2E2E2E2E2E2E2E2E2E2E2E2E2E2E2E2E2E2E2E2E2E2E2E2E2E2E2E2E2E2E2E2E2E2E2E2E2E2E2E2E2E2E2E2E2E2E2E2E2E2E2E2E2E2E2E2E2E2E2E2E2E2E2E2E2E2E2E2E2E2E2E2E2E2E2
310
E2E2E2E2E2E2E2E2E2E2E2E2E2E2E2E2E2E2E2E2E2E2E2E2E2E2E2E2E2E2E2E2E2E2E2E2E2E2E2E2E2E2E2E2E2E2E2E2E2E2E2E2E2E2E2E2E2E2E2E2E2E2E2E2E2E2E2E2E2E2E2E2E2E2E2E2E2E2E2E2E2E2E2E2E2E2E2E2E2E2E2E2E2E2E2E2E2E2E2E2E2E2E2E2E2E2E2E2E2E2E2E2E2E2E2E2E2E2E2E2E2E2E2E2E2E2E2
310
E2E2E2E2E2E2E2E2E2E2E2E2E2E2E2E2E2E2E2E2E2E2E2E2E2E2E2E2E2E2E2E2E2E2E2E2E2E2E2E2E2E2E2E2E2E2E2E2E2E2E2E2E2E2E2E2E2E2E2E2E2E2E2E2E2E2E2E2E2E2E2E2E2E2E2E2E2E2E2E2E2E2E2E2E2E2E2E2E2E2E2E2E2E2E2E2E2E2E2E2E2E2E2E2E2E2E2E2E2E2E2E2E2E2E2E2E2E2E2E2E2E2E2E2E2E2E2
310
E2E2E2E2E2E2E2E2E2E2E2E2E2E2E2E2E2E2E2E2E2E2E2E2E2E2E2E2E2E2E2E2E2E2E2E2E2E2E2E2E2E2E2E2E2E2E2E2E2E2E2E2E2E2E2E2E2E2E2E2E2E2E2E2E2E2E2E2E2E2E2E2E2E2E2E2E2E2E2E2E2E2E2E2E2E2E2E2E2E2E2E2E2E2E2E2E2E2E2E2E2E2E2E2E2E2E2E2E2E2E2E2E2E2E2E2E2E2E2E2E2E2E2E2E2E2E2
310
E2E2E2E2E2E2E2E2E2E2E2E2E2E2E2E2E2E2E2E2E2E2E2E2E2E2E2E2E2E2E2E2E2E2E2E2E2E2E2E2E2E2E2E2E2E2E2E2E2E2E2E2E2E2E2E2E2E2E2E2E2E2E2E2E2E2E2E2E2E2E2E2E2E2E2E2E2E2E2E2E2E2E2E2E2E2E2E2E2E2E2E2E2E2E2E2E2E2E2E2E2E2E2E2E2E2E2E2E2E2E2E2E2E2E2E2E2E2E2E2E2E2E2E2E2E2E2
310
E2E2E2E2E2E2E2E2E2E2E2E2E2E2E2E2E2E2E2E2E2E2E2E2E2E2E2E2E2E2E2E2E2E2E2E2E2E2E2E2E2E2E2E2E2E2E2E2E2E2E2E2E2E2E2E2E2E2E2E2E2E2E2E2E2E2E2E2E2E2E2E2E2E2E2E2E2E2E2E2E2E2E2E2E2E2E2E2E2E2E2E2E2E2E2E2E2E2E2E2E2E2E2E2E2E2E2E2E2E2E2E2E2E2E2E2E2E2E2E2E2E2E2E2E2E2E2
310
E2E2E2E2E2E2E2E2E2E2E2E2E2E2E2E2E2E2E2E2E2E2E2E2E2E2E2E2E2E2E2E2E2E2E2E2E2E2E2E2E2E2E2E2E2E2E2E2E2E2E2E2E2E2E2E2E2E2E2E2E2E2E2E2E2E2E2E2E2E2E2E2E2E2E2E2E2E2E2E2E2E2E2E2E2E2E2E2E2E2E2E2E2E2E2E2E2E2E2E2E2E2E2E2E2E2E2E2E2E2E2E2E2E2E2E2E2E2E2E2E2E2E2E2E2E2E2
310
E2E2E2E2E2E2E2E2E2E2E2E2E2E2E2E2E2E2E2E2E2E2E2E2E2E2E2E2E2E2E2E2E2E2E2E2E2E2E2E2E2E2E2E2E2E2E2E2E2E2E2E2E2E2E2E2E2E2E2E2E2E2E2E2E2E2E2E2E2E2E2E2E2E2E2E2E2E2E2E2E2E2E2E2E2E2E2E2E2E2E2E2E2E2E2E2E2E2E2E2E2E2E2E2E2E2E2E2E2E2E2E2E2E2E2E2E2E2E2E2E2E2E2E2E2E2E2
310
E2E2E2E2E2E2E2E2E2E2E2E2E2E2E2E2E2E2E2E2E2E2E2E2E2E2E2E2E2E2E2E2E2E2E2E2E2E2E2E2E2E2E2E2E2E2E2E2E2E2E2E2E2E2E2E2E2E2E2E2E2E2E2E2E2E2E2E2E2E2E2E2E2E2E2E2E2E2E2E2E2E2E2E2E2E2E2E2E2E2E2E2E2E2E2E2E2E2E2E2E2E2E2E2E2E2E2E2E2E2E2E2E2E2E2E2E2E2E2E2E2E2E2E2E2E2E2
310
E2E2E2E2E2E2E2E2E2E2E2E2E2E2E2E2E2E2E2E2E2E2E2E2E2E2E2E2E2E2E2E2E2E2E2E2E2E2E2E2E2E2E2E2E2E2E2E2E2E2E2E2E2E2E2E2E2E2E2E2E2E2E2E2E2E2E2E2E2E2E2E2E2E2E2E2E2E2E2E2E2E2E2E2E2E2E2E2E2E2E2E2E2E2E2E2E2E2E2E2E2E2E2E2E2E2E2E2E2E2E2E2E2E2E2E2E2E2E2E2E2E2E2E2E2E2E2
310
E2E2E2E2E2E2E2E2E2E2E2E2E2E2E2E2E2E2E2E2E2E2E2E2E2E2E2E2E2E2E2E2E2E2E2E2E2E2E2E2E2E2E2E2E2E2E2E2E2E2E2E2E2E2E2E2E2E2E2E2E2E2E2E2E2E2E2E2E2E2E2E2E2E2E2E2E2E2E2E2E2E2E2E2E2E2E2E2E2E2E2E2E2E2E2E2E2E2E2E2E2E2E2E2E2E2E2E2E2E2E2E2E2E2E2E2E2E2E2E2E2E2E2E2E2E2E2
310
E2E2E2E2E2E2E2E2E2E2E2E2E2E2E2E2E2E2E2E2E2E2E2E2E2E2E2E2E2E2E2E2E2E2E2E2E2E2E2E2E2E2E2E2E2E2E2E2E2E2E2E2E2E2E2E2E2E2E2E2E2E2E2E2E2E2E2E2E2E2E2E2E2E2E2E2E2E2E2E2E2E2E2E2E2E2E2E2E2E2E2E2E2E2E2E2E2E2E2E2E2E2E2E2E2E2E2E2E2E2E2E2E2E2E2E2E2E2E2E2E2E2E2E2E2E2E2
310
E2E2E2E2E2E2E2E2E2E2E2E2E2E2E2E2E2E2E2E2E2E2E2E2E2E2E2E2E2E2E2E2E2E2E2E2E2E2E2E2E2E2E2E2E2E2E2E2E2E2E2E2E2E2E2E2E2E2E2E2E2E2E2E2E2E2E2E2E2E2E2E2E2E2E2E2E2E2E2E2E2E2E2E2E2E2E2E2E2E2E2E2E2E2E2E2E2E2E2E2E2E2E2E2E2E2E2E2E2E2E2E2E2E2E2E2E2E2E2E2E2E2E2E2E2E2E2
310
E2E2E2E2E2E2E2E2E2E2E2E2E2E2E2E2E2E2E2E2E2E2E2E2E2E2E2E2E2E2E2E2E2E2E2E2E2E2E2E2E2E2E2E2E2E2E2E2E2E2E2E2E2E2E2E2E2E2E2E2E2E2E2E2E2E2E2E2E2E2E2E2E2E2E2E2E2E2E2E2E2E2E2E2E2E2E2E2E2E2E2E2E2E2E2E2E2E2E2E2E2E2E2E2E2E2E2E2E2E2E2E2E2E2E2E2E2E2E2E2E2E2E2E2E2E2E2
310
E2E2E2E2E2E2E2E2E2E2E2E2E2E2E2E2E2E2E2E2E2E2E2E2E2E2E2E2E2E2E2E2E2E2E2E2E2E2E2E2E2E2E2E2E2E2E2E2E2E2E2E2E2E2E2E2E2E2E2E2E2E2E2E2E2E2E2E2E2E2E2E2E2E2E2E2E2E2E2E2E2E2E2E2E2E2E2E2E2E2E2E2E2E2E2E2E2E2E2E2E2E2E2E2E2E2E2E2E2E2E2E2E2E2E2E2E2E2E2E2E2E2E2E2E2E2E2
310
E2E2E2E2E2E2E2E2E2E2E2E2E2E2E2E2E2E2E2E2E2E2E2E2E2E2E2E2E2E2E2E2E2E2E2E2E2E2E2E2E2E2E2E2E2E2E2E2E2E2E2E2E2E2E2E2E2E2E2E2E2E2E2E2E2E2E2E2E2E2E2E2E2E2E2E2E2E2E2E2E2E2E2E2E2E2E2E2E2E2E2E2E2E2E2E2E2E2E2E2E2E2E2E2E2E2E2E2E2E2E2E2E2E2E2E2E2E2E2E2E2E2E2E2E2E2E2
310
E2E2E2E2E2E2E2E2E2E2E2E2E2E2E2E2E2E2E2E2E2E2E2E2E2E2E2E2E2E2E2E2E2E2E2E2E2E2E2E2E2E2E2E2E2E2E2E2E2E2E2E2E2E2E2E2E2E2E2E2E2E2E2E2E2E2E2E2E2E2E2E2E2E2E2E2E2E2E2E2E2E2E2E2E2E2E2E2E2E2E2E2E2E2E2E2E2E2E2E2E2E2E2E2E2E2E2E2E2E2E2E2E2E2E2E2E2E2E2E2E2E2E2E2E2E2E2
310
E2E2E2E2E2E2E2E2E2E2E2E2E2E2E2E2E2E2E2E2E2E2E2E2E2E2E2E2E2E2E2E2E2E2E2E2E2E2E2E2E2E2E2E2E2E2E2E2E2E2E2E2E2E2E2E2E2E2E2E2E2E2E2E2E2E2E2E2E2E2E2E2E2E2E2E2E2E2E2E2E2E2E2E2E2E2E2E2E2E2E2E2E2E2E2E2E2E2E2E2E2E2E2E2E2E2E2E2E2E2E2E2E2E2E2E2E2E2E2E2E2E2E2E2E2E2E2
310
E2E2E2E2E2E2E2E2E2E2E2E2E2E2E2E2E2E2E2E2E2E2E2E2E2E2E2E2E2E2E2E2E2E2E2E2E2E2E2E2E2E2E2E2E2E2E2E2E2E2E2E2E2E2E2E2E2E2E2E2E2E2E2E2E2E2E2E2E2E2E2E2E2E2E2E2E2E2E2E2E2E2E2E2E2E2E2E2E2E2E2E2E2E2E2E2E2E2E2E2E2E2E2E2E2E2E2E2E2E2E2E2E2E2E2E2E2E2E2E2E2E2E2E2E2E2E2
310
E2E2E2E2E2E2E2E2E2E2E2E2E2E2E2E2E2E2E2E2E2E2E2E2E2E2E2E2E2E2E2E2E2E2E2E2E2E2E2E2E2E2E2E2E2E2E2E2E2E2E2E2E2E2E2E2E2E2E2E2E2E2E2E2E2E2E2E2E2E2E2E2E2E2E2E2E2E2E2E2E2E2E2E2E2E2E2E2E2E2E2E2E2E2E2E2E2E2E2E2E2E2E2E2E2E2E2E2E2E2E2E2E2E2E2E2E2E2E2E2E2E2E2E2E2E2E2
310
E2E2E2E2E2E2E2E2E2E2E2E2E2E2E2E2E2E2E2E2E2E2E2E2E2E2E2E2E2E2E2E2E2E2E2E2E2E2E2E2E2E2E2E2E2E2E2E2E2E2E2E2E2E2E2E2E2E2E2E2E2E2E2E2E2E2E2E2E2E2E2E2E2E2E2E2E2E2E2E2E2E2E2E2E2E2E2E2E2E2E2E2E2E2E2E2E2E2E2E2E2E2E2E2E2E2E2E2E2E2E2E2E2E2E2E2E2E2E2E2E2E2E2E2E2E2E2
310
E2E2E2E2E2E2E2E2E2E2E2E2E2E2E2E2E2E2E2E2E2E2E2E2E2E2E2E2E2E2E2E2E2E2E2E2E2E2E2E2E2E2E2E2E2E2E2E2E2E2E2E2E2E2E2E2E2E2E2E2E2E2E2E2E2E2E2E2E2E2E2E2E2E2E2E2E2E2E2E2E2E2E2E2E2E2E2E2E2E2E2E2E2E2E2E2E2E2E2E2E2E2E2E2E2E2E2E2E2E2E2E2E2E2E2E2E2E2E2E2E2E2E2E2E2E2E2
310
E2E2E2E2E2E2E2E2E2E2E2E2E2E2E2E2E2E2E2E2E2E2E2E2E2E2E2E2E2E2E2E2E2E2E2E2E2E2E2E2E2E2E2E2E2E2E2E2E2E2E2E2E2E2E2E2E2E2E2E2E2E2E2E2E2E2E2E2E2E2E2E2E2E2E2E2E2E2E2E2E2E2E2E2E2E2E2E2E2E2E2E2E2E2E2E2E2E2E2E2E2E2E2E2E2E2E2E2E2E2E2E2E2E2E2E2E2E2E2E2E2E2E2E2E2E2E2
310
E2E2E2E2E2E2E2E2E2E2E2E2E2E2E2E2E2E2E2E2E2E2E2E2E2E2E2E2E2E2E2E2E2E2E2E2E2E2E2E2E2E2E2E2E2E2E2E2E2E2E2E2E2E2E2E2E2E2E2E2E2E2E2E2E2E2E2E2E2E2E2E2E2E2E2E2E2E2E2E2E2E2E2E2E2E2E2E2E2E2E2E2E2E2E2E2E2E2E2E2E2E2E2E2E2E2E2E2E2E2E2E2E2E2E2E2E2E2E2E2E2E2E2E2E2E2E2
310
E2E2E2E2E2E2E2E2E2E2E2E2E2E2E2E2E2E2E2E2E2E2E2E2E2E2E2E2E2E2E2E2E2E2E2E2E2E2E2E2E2E2E2E2E2E2E2E2E2E2E2E2E2E2E2E2E2E2E2E2E2E2E2E2E2E2E2E2E2E2E2E2E2E2E2E2E2E2E2E2E2E2E2E2E2E2E2E2E2E2E2E2E2E2E2E2E2E2E2E2E2E2E2E2E2E2E2E2E2E2E2E2E2E2E2E2E2E2E2E2E2E2E2E2E2E2E2
310
E2E2E2E2E2E2E2E2E2E2E2E2E2E2E2E2E2E2E2E2E2E2E2E2E2E2E2E2E2E2E2E2E2E2E2E2E2E2E2E2E2E2E2E2E2E2E2E2E2E2E2E2E2E2E2E2E2E2E2E2E2E2E2E2E2E2E2E2E2E2E2E2E2E2E2E2E2E2E2E2E2E2E2E2E2E2E2E2E2E2E2E2E2E2E2E2E2E2E2E2E2E2E2E2E2E2E2E2E2E2E2E2E2E2E2E2E2E2E2E2E2E2E2E2E2E2E2
310
E2E2E2E2E2E2E2E2E2E2E2E2E2E2E2E2E2E2E2E2E2E2E2E2E2E2E2E2E2E2E2E2E2E2E2E2E2E2E2E2E2E2E2E2E2E2E2E2E2E2E2E2E2E2E2E2E2E2E2E2E2E2E2E2E2E2E2E2E2E2E2E2E2E2E2E2E2E2E2E2E2E2E2E2E2E2E2E2E2E2E2E2E2E2E2E2E2E2E2E2E2E2E2E2E2E2E2E2E2E2E2E2E2E2E2E2E2E2E2E2E2E2E2E2E2E2E2
310
E2E2E2E2E2E2E2E2E2E2E2E2E2E2E2E2E2E2E2E2E2E2E2E2E2E2E2E2E2E2E2E2E2E2E2E2E2E2E2E2E2E2E2E2E2E2E2E2E2E2E2E2E2E2E2E2E2E2E2E2E2E2E2E2E2E2E2E2E2E2E2E2E2E2E2E2E2E2E2E2E2E2E2E2E2E2E2E2E2E2E2E2E2E2E2E2E2E2E2E2E2E2E2E2E2E2E2E2E2E2E2E2E2E2E2E2E2E2E2E2E2E2E2E2E2E2E2
310
E2E2E2E2E2E2E2E2E2E2E2E2E2E2E2E2E2E2E2E2E2E2E2E2E2E2E2E2E2E2E2E2E2E2E2E2E2E2E2E2E2E2E2E2E2E2E2E2E2E2E2E2E2E2E2E2E2E2E2E2E2E2E2E2E2E2E2E2E2E2E2E2E2E2E2E2E2E2E2E2E2E2E2E2E2E2E2E2E2E2E2E2E2E2E2E2E2E2E2E2E2E2E2E2E2E2E2E2E2E2E2E2E2E2E2E2E2E2E2E2E2E2E2E2E2E2E2
310
E2E2E2E2E2E2E2E2E2E2E2E2E2E2E2E2E2E2E2E2E2E2E2E2E2E2E2E2E2E2E2E2E2E2E2E2E2E2E2E2E2E2E2E2E2E2E2E2E2E2E2E2E2E2E2E2E2E2E2E2E2E2E2E2E2E2E2E2E2E2E2E2E2E2E2E2E2E2E2E2E2E2E2E2E2E2E2E2E2E2E2E2E2E2E2E2E2E2E2E2E2E2E2E2E2E2E2E2E2E2E2E2E2E2E2E2E2E2E2E2E2E2E2E2E2E2E2
310
E2E2E2E2E2E2E2E2E2E2E2E2E2E2E2E2E2E2E2E2E2E2E2E2E2E2E2E2E2E2E2E2E2E2E2E2E2E2E2E2E2E2E2E2E2E2E2E2E2E2E2E2E2E2E2E2E2E2E2E2E2E2E2E2E2E2E2E2E2E2E2E2E2E2E2E2E2E2E2E2E2E2E2E2E2E2E2E2E2E2E2E2E2E2E2E2E2E2E2E2E2E2E2E2E2E2E2E2E2E2E2E2E2E2E2E2E2E2E2E2E2E2E2E2E2E2E2
310
E2E2E2E2E2E2E2E2E2E2E2E2E2E2E2E2E2E2E2E2E2E2E2E2E2E2E2E2E2E2E2E2E2E2E2E2E2E2E2E2E2E2E2E2E2E2E2E2E2E2E2E2E2E2E2E2E2E2E2E2E2E2E2E2E2E2E2E2E2E2E2E2E2E2E2E2E2E2E2E2E2E2E2E2E2E2E2E2E2E2E2E2E2E2E2E2E2E2E2E2E2E2E2E2E2E2E2E2E2E2E2E2E2E2E2E2E2E2E2E2E2E2E2E2E2E2E2
310
E2E2E2E2E2E2E2E2E2E2E2E2E2E2E2E2E2E2E2E2E2E2E2E2E2E2E2E2E2E2E2E2E2E2E2E2E2E2E2E2E2E2E2E2E2E2E2E2E2E2E2E2E2E2E2E2E2E2E2E2E2E2E2E2E2E2E2E2E2E2E2E2E2E2E2E2E2E2E2E2E2E2E2E2E2E2E2E2E2E2E2E2E2E2E2E2E2E2E2E2E2E2E2E2E2E2E2E2E2E2E2E2E2E2E2E2E2E2E2E2E2E2E2E2E2E2E2
310
E2E2E2E2E2E2E2E2E2E2E2E2E2E2E2E2E2E2E2E2E2E2E2E2E2E2E2E2E2E2E2E2E2E2E2E2E2E2E2E2E2E2E2E2E2E2E2E2E2E2E2E2E2E2E2E2E2E2E2E2E2E2E2E2E2E2E2E2E2E2E2E2E2E2E2E2E2E2E2E2E2E2E2E2E2E2E2E2E2E2E2E2E2E2E2E2E2E2E2E2E2E2E2E2E2E2E2E2E2E2E2E2E2E2E2E2E2E2E2E2E2E2E2E2E2E2E2
310
E2E2E2E2E2E2E2E2E2E2E2E2E2E2E2E2E2E2E2E2E2E2E2E2E2E2E2E2E2E2E2E2E2E2E2E2E2E2E2E2E2E2E2E2E2E2E2E2E2E2E2E2E2E2E2E2E2E2E2E2E2E2E2E2E2E2E2E2E2E2E2E2E2E2E2E2E2E2E2E2E2E2E2E2E2E2E2E2E2E2E2E2E2E2E2E2E2E2E2E2E2E2E2E2E2E2E2E2E2E2E2E2E2E2E2E2E2E2E2E2E2E2E2E2E2E2E2
310
E2E2E2E2E2E2E2E2E2E2E2E2E2E2E2E2E2E2E2E2E2E2E2E2E2E2E2E2E2E2E2E2E2E2E2E2E2E2E2E2E2E2E2E2E2E2E2E2E2E2E2E2E2E2E2E2E2E2E2E2E2E2E2E2E2E2E2E2E2E2E2E2E2E2E2E2E2E2E2E2E2E2E2E2E2E2E2E2E2E2E2E2E2E2E2E2E2E2E2E2E2E2E2E2E2E2E2E2E2E2E2E2E2E2E2E2E2E2E2E2E2E2E2E2E2E2E2
310
E2E2E2E2E2E2E2E2E2E2E2E2E2E2E2E2E2E2E2E2E2E2E2E2E2E2E2E2E2E2E2E2E2E2E2E2E2E2E2E2E2E2E2E2E2E2E2E2E2E2E2E2E2E2E2E2E2E2E2E2E2E2E2E2E2E2E2E2E2E2E2E2E2E2E2E2E2E2E2E2E2E2E2E2E2E2E2E2E2E2E2E2E2E2E2E2E2E2E2E2E2E2E2E2E2E2E2E2E2E2E2E2E2E2E2E2E2E2E2E2E2E2E2E2E2E2E2
310
E2E2E2E2E2E2E2E2E2E2E2E2E2E2E2E2E2E2E2E2E2E2E2E2E2E2E2E2E2E2E2E2E2E2E2E2E2E2E2E2E2E2E2E2E2E2E2E2E2E2E2E2E2E2E2E2E2E2E2E2E2E2E2E2E2E2E2E2E2E2E2E2E2E2E2E2E2E2E2E2E2E2E2E2E2E2E2E2E2E2E2E2E2E2E2E2E2E2E2E2E2E2E2E2E2E2E2E2E2E2E2E2E2E2E2E2E2E2E2E2E2E2E2E2E2E2E2
310
E2E2E2E2E2E2E2E2E2E2E2E2E2E2E2E2E2E2E2E2E2E2E2E2E2E2E2E2E2E2E2E2E2E2E2E2E2E2E2E2E2E2E2E2E2E2E2E2E2E2E2E2E2E2E2E2E2E2E2E2E2E2E2E2E2E2E2E2E2E2E2E2E2E2E2E2E2E2E2E2E2E2E2E2E2E2E2E2E2E2E2E2E2E2E2E2E2E2E2E2E2E2E2E2E2E2E2E2E2E2E2E2E2E2E2E2E2E2E2E2E2E2E2E2E2E2E2
310
E2E2E2E2E2E2E2E2E2E2E2E2E2E2E2E2E2E2E2E2E2E2E2E2E2E2E2E2E2E2E2E2E2E2E2E2E2E2E2E2E2E2E2E2E2E2E2E2E2E2E2E2E2E2E2E2E2E2E2E2E2E2E2E2E2E2E2E2E2E2E2E2E2E2E2E2E2E2E2E2E2E2E2E2E2E2E2E2E2E2E2E2E2E2E2E2E2E2E2E2E2E2E2E2E2E2E2E2E2E2E2E2E2E2E2E2E2E2E2E2E2E2E2E2E2E2E2
310
E2E2E2E2E2E2E2E2E2E2E2E2E2E2E2E2E2E2E2E2E2E2E2E2E2E2E2E2E2E2E2E2E2E2E2E2E2E2E2E2E2E2E2E2E2E2E2E2E2E2E2E2E2E2E2E2E2E2E2E2E2E2E2E2E2E2E2E2E2E2E2E2E2E2E2E2E2E2E2E2E2E2E2E2E2E2E2E2E2E2E2E2E2E2E2E2E2E2E2E2E2E2E2E2E2E2E2E2E2E2E2E2E2E2E2E2E2E2E2E2E2E2E2E2E2E2E2
310
E2E2E2E2E2E2E2E2E2E2E2E2E2E2E2E2E2E2E2E2E2E2E2E2E2E2E2E2E2E2E2E2E2E2E2E2E2E2E2E2E2E2E2E2E2E2E2E2E2E2E2E2E2E2E2E2E2E2E2E2E2E2E2E2E2E2E2E2E2E2E2E2E2E2E2E2E2E2E2E2E2E2E2E2E2E2E2E2E2E2E2E2E2E2E2E2E2E2E2E2E2E2E2E2E2E2E2E2E2E2E2E2E2E2E2E2E2E2E2E2E2E2E2E2E2E2E2
310
E2E2E2E2E2E2E2E2E2E2E2E2E2E2E2E2E2E2E2E2E2E2E2E2E2E2E2E2E2E2E2E2E2E2E2E2E2E2E2E2E2E2E2E2E2E2E2E2E2E2E2E2E2E2E2E2E2E2E2E2E2E2E2E2E2E2E2E2E2E2E2E2E2E2E2E2E2E2E2E2E2E2E2E2E2E2E2E2E2E2E2E2E2E2E2E2E2E2E2E2E2E2E2E2E2E2E2E2E2E2E2E2E2E2E2E2E2E2E2E2E2E2E2E2E2E2E2
310
E2E2E2E2E2E2E2E2E2E2E2E2E2E2E2E2E2E2E2E2E2E2E2E2E2E2E2E2E2E2E2E2E2E2E2E2E2E2E2E2E2E2E2E2E2E2E2E2E2E2E2E2E2E2E2E2E2E2E2E2E2E2E2E2E2E2E2E2E2E2E2E2E2E2E2E2E2E2E2E2E2E2E2E2E2E2E2E2E2E2E2E2E2E2E2E2E2E2E2E2E2E2E2E2E2E2E2E2E2E2E2E2E2E2E2E2E2E2E2E2E2E2E2E2E2E2E2
310
E2E2E2E2E2E2E2E2E2E2E2E2E2E2E2E2E2E2E2E2E2E2E2E2E2E2E2E2E2E2E2E2E2E2E2E2E2E2E2E2E2E2E2E2E2E2E2E2E2E2E2E2E2E2E2E2E2E2E2E2E2E2E2E2E2E2E2E2E2E2E2E2E2E2E2E2E2E2E2E2E2E2E2E2E2E2E2E2E2E2E2E2E2E2E2E2E2E2E2E2E2E2E2E2E2E2E2E2E2E2E2E2E2E2E2E2E2E2E2E2E2E2E2E2E2E2E2
310
E2E2E2E2E2E2E2E2E2E2E2E2E2E2E2E2E2E2E2E2E2E2E2E2E2E2E2E2E2E2E2E2E2E2E2E2E2E2E2E2E2E2E2E2E2E2E2E2E2E2E2E2E2E2E2E2E2E2E2E2E2E2E2E2E2E2E2E2E2E2E2E2E2E2E2E2E2E2E2E2E2E2E2E2E2E2E2E2E2E2E2E2E2E2E2E2E2E2E2E2E2E2E2E2E2E2E2E2E2E2E2E2E2E2E2E2E2E2E2E2E2E2E2E2E2E2E2
310
E2E2E2E2E2E2E2E2E2E2E2E2E2E2E2E2E2E2E2E2E2E2E2E2E2E2E2E2E2E2E2E2E2E2E2E2E2E2E2E2E2E2E2E2E2E2E2E2E2E2E2E2E2E2E2E2E2E2E2E2E2E2E2E2E2E2E2E2E2E2E2E2E2E2E2E2E2E2E2E2E2E2E2E2E2E2E2E2E2E2E2E2E2E2E2E2E2E2E2E2E2E2E2E2E2E2E2E2E2E2E2E2E2E2E2E2E2E2E2E2E2E2E2E2E2E2E2
310
E2E2E2E2E2E2E2E2E2E2E2E2E2E2E2E2E2E2E2E2E2E2E2E2E2E2E2E2E2E2E2E2E2E2E2E2E2E2E2E2E2E2E2E2E2E2E2E2E2E2E2E2E2E2E2E2E2E2E2E2E2E2E2E2E2E2E2E2E2E2E2E2E2E2E2E2E2E2E2E2E2E2E2E2E2E2E2E2E2E2E2E2E2E2E2E2E2E2E2E2E2E2E2E2E2E2E2E2E2E2E2E2E2E2E2E2E2E2E2E2E2E2E2E2E2E2E2
310
E2E2E2E2E2E2E2E2E2E2E2E2E2E2E2E2E2E2E2E2E2E2E2E2E2E2E2E2E2E2E2E2E2E2E2E2E2E2E2E2E2E2E2E2E2E2E2E2E2E2E2E2E2E2E2E2E2E2E2E2E2E2E2E2E2E2E2E2E2E2E2E2E2E2E2E2E2E2E2E2E2E2E2E2E2E2E2E2E2E2E2E2E2E2E2E2E2E2E2E2E2E2E2E2E2E2E2E2E2E2E2E2E2E2E2E2E2E2E2E2E2E2E2E2E2E2E2
310
E2E2E2E2E2E2E2E2E2E2E2E2E2E2E2E2E2E2E2E2E2E2E2E2E2E2E2E2E2E2E2E2E2E2E2E2E2E2E2E2E2E2E2E2E2E2E2E2E2E2E2E2E2E2E2E2E2E2E2E2E2E2E2E2E2E2E2E2E2E2E2E2E2E2E2E2E2E2E2E2E2E2E2E2E2E2E2E2E2E2E2E2E2E2E2E2E2E2E2E2E2E2E2E2E2E2E2E2E2E2E2E2E2E2E2E2E2E2E2E2E2E2E2E2E2E2E2
310
E2E2E2E2E2E2E2E2E2E2E2E2E2E2E2E2E2E2E2E2E2E2E2E2E2E2E2E2E2E2E2E2E2E2E2E2E2E2E2E2E2E2E2E2E2E2E2E2E2E2E2E2E2E2E2E2E2E2E2E2E2E2E2E2E2E2E2E2E2E2E2E2E2E2E2E2E2E2E2E2E2E2E2E2E2E2E2E2E2E2E2E2E2E2E2E2E2E2E2E2E2E2E2E2E2E2E2E2E2E2E2E2E2E2E2E2E2E2E2E2E2E2E2E2E2E2E2
310
E2E2E2E2E2E2E2E2E2E2E2E2E2E2E2E2E2E2E2E2E2E2E2E2E2E2E2E2E2E2E2E2E2E2E2E2E2E2E2E2E2E2E2E2E2E2E2E2E2E2E2E2E2E2E2E2E2E2E2E2E2E2E2E2E2E2E2E2E2E2E2E2E2E2E2E2E2E2E2E2E2E2E2E2E2E2E2E2E2E2E2E2E2E2E2E2E2E2E2E2E2E2E2E2E2E2E2E2E2E2E2E2E2E2E2E2E2E2E2E2E2E2E2E2E2E2E2
310
E2E2E2E2E2E2E2E2E2E2E2E2E2E2E2E2E2E2E2E2E2E2E2E2E2E2E2E2E2E2E2E2E2E2E2E2E2E2E2E2E2E2E2E2E2E2E2E2E2E2E2E2E2E2E2E2E2E2E2E2E2E2E2E2E2E2E2E2E2E2E2E2E2E2E2E2E2E2E2E2E2E2E2E2E2E2E2E2E2E2E2E2E2E2E2E2E2E2E2E2E2E2E2E2E2E2E2E2E2E2E2E2E2E2E2E2E2E2E2E2E2E2E2E2E2E2E2
310
E2E2E2E2E2E2E2E2E2E2E2E2E2E2E2E2E2E2E2E2E2E2E2E2E2E2E2E2E2E2E2E2E2E2E2E2E2E2E2E2E2E2E2E2E2E2E2E2E2E2E2E2E2E2E2E2E2E2E2E2E2E2E2E2E2E2E2E2E2E2E2E2E2E2E2E2E2E2E2E2E2E2E2E2E2E2E2E2E2E2E2E2E2E2E2E2E2E2E2E2E2E2E2E2E2E2E2E2E2E2E2E2E2E2E2E2E2E2E2E2E2E2E2E2E2E2E2
310
E2E2E2E2E2E2E2E2E2E2E2E2E2E2E2E2E2E2E2E2E2E2E2E2E2E2E2E2E2E2E2E2E2E2E2E2E2E2E2E2E2E2E2E2E2E2E2E2E2E2E2E2E2E2E2E2E2E2E2E2E2E2E2E2E2E2E2E2E2E2E2E2E2E2E2E2E2E2E2E2E2E2E2E2E2E2E2E2E2E2E2E2E2E2E2E2E2E2E2E2E2E2E2E2E2E2E2E2E2E2E2E2E2E2E2E2E2E2E2E2E2E2E2E2E2E2E2
310
E2E2E2E2E2E2E2E2E2E2E2E2E2E2E2E2E2E2E2E2E2E2E2E2E2E2E2E2E2E2E2E2E2E2E2E2E2E2E2E2E2E2E2E2E2E2E2E2E2E2E2E2E2E2E2E2E2E2E2E2E2E2E2E2E2E2E2E2E2E2E2E2E2E2E2E2E2E2E2E2E2E2E2E2E2E2E2E2E2E2E2E2E2E2E2E2E2E2E2E2E2E2E2E2E2E2E2E2E2E2E2E2E2E2E2E2E2E2E2E2E2E2E2E2E2E2E2
310
E2E2E2E2E2E2E2E2E2E2E2E2E2E2E2E2E2E2E2E2E2E2E2E2E2E2E2E2E2E2E2E2E2E2E2E2E2E2E2E2E2E2E2E2E2E2E2E2E2E2E2E2E2E2E2E2E2E2E2E2E2E2E2E2E2E2E2E2E2E2E2E2E2E2E2E2E2E2E2E2E2E2E2E2E2E2E2E2E2E2E2E2E2E2E2E2E2E2E2E2E2E2E2E2E2E2E2E2E2E2E2E2E2E2E2E2E2E2E2E2E2E2E2E2E2E2E2
310
E2E2E2E2E2E2E2E2E2E2E2E2E2E2E2E2E2E2E2E2E2E2E2E2E2E2E2E2E2E2E2E2E2E2E2E2E2E2E2E2E2E2E2E2E2E2E2E2E2E2E2E2E2E2E2E2E2E2E2E2E2E2E2E2E2E2E2E2E2E2E2E2E2E2E2E2E2E2E2E2E2E2E2E2E2E2E2E2E2E2E2E2E2E2E2E2E2E2E2E2E2E2E2E2E2E2E2E2E2E2E2E2E2E2E2E2E2E2E2E2E2E2E2E2E2E2E2
310
E2E2E2E2E2E2E2E2E2E2E2E2E2E2E2E2E2E2E2E2E2E2E2E2E2E2E2E2E2E2E2E2E2E2E2E2E2E2E2E2E2E2E2E2E2E2E2E2E2E2E2E2E2E2E2E2E2E2E2E2E2E2E2E2E2E2E2E2E2E2E2E2E2E2E2E2E2E2E2E2E2E2E2E2E2E2E2E2E2E2E2E2E2E2E2E2E2E2E2E2E2E2E2E2E2E2E2E2E2E2E2E2E2E2E2E2E2E2E2E2E2E2E2E2E2E2E2
310
E2E2E2E2E2E2E2E2E2E2E2E2E2E2E2E2E2E2E2E2E2E2E2E2E2E2E2E2E2E2E2E2E2E2E2E2E2E2E2E2E2E2E2E2E2E2E2E2E2E2E2E2E2E2E2E2E2E2E2E2E2E2E2E2E2E2E2E2E2E2E2E2E2E2E2E2E2E2E2E2E2E2E2E2E2E2E2E2E2E2E2E2E2E2E2E2E2E2E2E2E2E2E2E2E2E2E2E2E2E2E2E2E2E2E2E2E2E2E2E2E2E2E2E2E2E2E2
310
E2E2E2E2E2E2E2E2E2E2E2E2E2E2E2E2E2E2E2E2E2E2E2E2E2E2E2E2E2E2E2E2E2E2E2E2E2E2E2E2E2E2E2E2E2E2E2E2E2E2E2E2E2E2E2E2E2E2E2E2E2E2E2E2E2E2E2E2E2E2E2E2E2E2E2E2E2E2E2E2E2E2E2E2E2E2E2E2E2E2E2E2E2E2E2E2E2E2E2E2E2E2E2E2E2E2E2E2E2E2E2E2E2E2E2E2E2E2E2E2E2E2E2E2E2E2E2
310
E2E2E2E2E2E2E2E2E2E2E2E2E2E2E2E2E2E2E2E2E2E2E2E2E2E2E2E2E2E2E2E2E2E2E2E2E2E2E2E2E2E2E2E2E2E2E2E2E2E2E2E2E2E2E2E2E2E2E2E2E2E2E2E2E2E2E2E2E2E2E2E2E2E2E2E2E2E2E2E2E2E2E2E2E2E2E2E2E2E2E2E2E2E2E2E2E2E2E2E2E2E2E2E2E2E2E2E2E2E2E2E2E2E2E2E2E2E2E2E2E2E2E2E2E2E2E2
310
E2E2E2E2E2E2E2E2E2E2E2E2E2E2E2E2E2E2E2E2E2E2E2E2E2E2E2E2E2E2E2E2E2E2E2E2E2E2E2E2E2E2E2E2E2E2E2E2E2E2E2E2E2E2E2E2E2E2E2E2E2E2E2E2E2E2E2E2E2E2E2E2E2E2E2E2E2E2E2E2E2E2E2E2E2E2E2E2E2E2E2E2E2E2E2E2E2E2E2E2E2E2E2E2E2E2E2E2E2E2E2E2E2E2E2E2E2E2E2E2E2E2E2E2E2E2E2
310
E2E2E2E2E2E2E2E2E2E2E2E2E2E2E2E2E2E2E2E2E2E2E2E2E2E2E2E2E2E2E2E2E2E2E2E2E2E2E2E2E2E2E2E2E2E2E2E2E2E2E2E2E2E2E2E2E2E2E2E2E2E2E2E2E2E2E2E2E2E2E2E2E2E2E2E2E2E2E2E2E2E2E2E2E2E2E2E2E2E2E2E2E2E2E2E2E2E2E2E2E2E2E2E2E2E2E2E2E2E2E2E2E2E2E2E2E2E2E2E2E2E2E2E2E2E2E2
310
E2E2E2E2E2E2E2E2E2E2E2E2E2E2E2E2E2E2E2E2E2E2E2E2E2E2E2E2E2E2E2E2E2E2E2E2E2E2E2E2E2E2E2E2E2E2E2E2E2E2E2E2E2E2E2E2E2E2E2E2E2E2E2E2E2E2E2E2E2E2E2E2E2E2E2E2E2E2E2E2E2E2E2E2E2E2E2E2E2E2E2E2E2E2E2E2E2E2E2E2E2E2E2E2E2E2E2E2E2E2E2E2E2E2E2E2E2E2E2E2E2E2E2E2E2E2E2
310
E2E2E2E2E2E2E2E2E2E2E2E2E2E2E2E2E2E2E2E2E2E2E2E2E2E2E2E2E2E2E2E2E2E2E2E2E2E2E2E2E2E2E2E2E2E2E2E2E2E2E2E2E2E2E2E2E2E2E2E2E2E2E2E2E2E2E2E2E2E2E2E2E2E2E2E2E2E2E2E2E2E2E2E2E2E2E2E2E2E2E2E2E2E2E2E2E2E2E2E2E2E2E2E2E2E2E2E2E2E2E2E2E2E2E2E2E2E2E2E2E2E2E2E2E2E2E2
310
E2E2E2E2E2E2E2E2E2E2E2E2E2E2E2E2E2E2E2E2E2E2E2E2E2E2E2E2E2E2E2E2E2E2E2E2E2E2E2E2E2E2E2E2E2E2E2E2E2E2E2E2E2E2E2E2E2E2E2E2E2E2E2E2E2E2E2E2E2E2E2E2E2E2E2E2E2E2E2E2E2E2E2E2E2E2E2E2E2E2E2E2E2E2E2E2E2E2E2E2E2E2E2E2E2E2E2E2E2E2E2E2E2E2E2E2E2E2E2E2E2E2E2E2E2E2E2
310
E2E2E2E2E2E2E2E2E2E2E2E2E2E2E2E2E2E2E2E2E2E2E2E2E2E2E2E2E2E2E2E2E2E2E2E2E2E2E2E2E2E2E2E2E2E2E2E2E2E2E2E2E2E2E2E2E2E2E2E2E2E2E2E2E2E2E2E2E2E2E2E2E2E2E2E2E2E2E2E2E2E2E2E2E2E2E2E2E2E2E2E2E2E2E2E2E2E2E2E2E2E2E2E2E2E2E2E2E2E2E2E2E2E2E2E2E2E2E2E2E2E2E2E2E2E2E2
310
E2E2E2E2E2E2E2E2E2E2E2E2E2E2E2E2E2E2E2E2E2E2E2E2E2E2E2E2E2E2E2E2E2E2E2E2E2E2E2E2E2E2E2E2E2E2E2E2E2E2E2E2E2E2E2E2E2E2E2E2E2E2E2E2E2E2E2E2E2E2E2E2E2E2E2E2E2E2E2E2E2E2E2E2E2E2E2E2E2E2E2E2E2E2E2E2E2E2E2E2E2E2E2E2E2E2E2E2E2E2E2E2E2E2E2E2E2E2E2E2E2E2E2E2E2E2E2
310
E2E2E2E2E2E2E2E2E2E2E2E2E2E2E2E2E2E2E2E2E2E2E2E2E2E2E2E2E2E2E2E2E2E2E2E2E2E2E2E2E2E2E2E2E2E2E2E2E2E2E2E2E2E2E2E2E2E2E2E2E2E2E2E2E2E2E2E2E2E2E2E2E2E2E2E2E2E2E2E2E2E2E2E2E2E2E2E2E2E2E2E2E2E2E2E2E2E2E2E2E2E2E2E2E2E2E2E2E2E2E2E2E2E2E2E2E2E2E2E2E2E2E2E2E2E2E2
310
E2E2E2E2E2E2E2E2E2E2E2E2E2E2E2E2E2E2E2E2E2E2E2E2E2E2E2E2E2E2E2E2E2E2E2E2E2E2E2E2E2E2E2E2E2E2E2E2E2E2E2E2E2E2E2E2E2E2E2E2E2E2E2E2E2E2E2E2E2E2E2E2E2E2E2E2E2E2E2E2E2E2E2E2E2E2E2E2E2E2E2E2E2E2E2E2E2E2E2E2E2E2E2E2E2E2E2E2E2E2E2E2E2E2E2E2E2E2E2E2E2E2E2E2E2E2E2
310
E2E2E2E2E2E2E2E2E2E2E2E2E2E2E2E2E2E2E2E2E2E2E2E2E2E2E2E2E2E2E2E2E2E2E2E2E2E2E2E2E2E2E2E2E2E2E2E2E2E2E2E2E2E2E2E2E2E2E2E2E2E2E2E2E2E2E2E2E2E2E2E2E2E2E2E2E2E2E2E2E2E2E2E2E2E2E2E2E2E2E2E2E2E2E2E2E2E2E2E2E2E2E2E2E2E2E2E2E2E2E2E2E2E2E2E2E2E2E2E2E2E2E2E2E2E2E2
310
E2E2E2E2E2E2E2E2E2E2E2E2E2E2E2E2E2E2E2E2E2E2E2E2E2E2E2E2E2E2E2E2E2E2E2E2E2E2E2E2E2E2E2E2E2E2E2E2E2E2E2E2E2E2E2E2E2E2E2E2E2E2E2E2E2E2E2E2E2E2E2E2E2E2E2E2E2E2E2E2E2E2E2E2E2E2E2E2E2E2E2E2E2E2E2E2E2E2E2E2E2E2E2E2E2E2E2E2E2E2E2E2E2E2E2E2E2E2E2E2E2E2E2E2E2E2E2
310
E2E2E2E2E2E2E2E2E2E2E2E2E2E2E2E2E2E2E2E2E2E2E2E2E2E2E2E2E2E2E2E2E2E2E2E2E2E2E2E2E2E2E2E2E2E2E2E2E2E2E2E2E2E2E2E2E2E2E2E2E2E2E2E2E2E2E2E2E2E2E2E2E2E2E2E2E2E2E2E2E2E2E2E2E2E2E2E2E2E2E2E2E2E2E2E2E2E2E2E2E2E2E2E2E2E2E2E2E2E2E2E2E2E2E2E2E2E2E2E2E2E2E2E2E2E2E2
310
E2E2E2E2E2E2E2E2E2E2E2E2E2E2E2E2E2E2E2E2E2E2E2E2E2E2E2E2E2E2E2E2E2E2E2E2E2E2E2E2E2E2E2E2E2E2E2E2E2E2E2E2E2E2E2E2E2E2E2E2E2E2E2E2E2E2E2E2E2E2E2E2E2E2E2E2E2E2E2E2E2E2E2E2E2E2E2E2E2E2E2E2E2E2E2E2E2E2E2E2E2E2E2E2E2E2E2E2E2E2E2E2E2E2E2E2E2E2E2E2E2E2E2E2E2E2E2
310
E2E2E2E2E2E2E2E2E2E2E2E2E2E2E2E2E2E2E2E2E2E2E2E2E2E2E2E2E2E2E2E2E2E2E2E2E2E2E2E2E2E2E2E2E2E2E2E2E2E2E2E2E2E2E2E2E2E2E2E2E2E2E2E2E2E2E2E2E2E2E2E2E2E2E2E2E2E2E2E2E2E2E2E2E2E2E2E2E2E2E2E2E2E2E2E2E2E2E2E2E2E2E2E2E2E2E2E2E2E2E2E2E2E2E2E2E2E2E2E2E2E2E2E2E2E2E2
310
E2E2E2E2E2E2E2E2E2E2E2E2E2E2E2E2E2E2E2E2E2E2E2E2E2E2E2E2E2E2E2E2E2E2E2E2E2E2E2E2E2E2E2E2E2E2E2E2E2E2E2E2E2E2E2E2E2E2E2E2E2E2E2E2E2E2E2E2E2E2E2E2E2E2E2E2E2E2E2E2E2E2E2E2E2E2E2E2E2E2E2E2E2E2E2E2E2E2E2E2E2E2E2E2E2E2E2E2E2E2E2E2E2E2E2E2E2E2E2E2E2E2E2E2E2E2E2
310
E2E2E2E2E2E2E2E2E2E2E2E2E2E2E2E2E2E2E2E2E2E2E2E2E2E2E2E2E2E2E2E2E2E2E2E2E2E2E2E2E2E2E2E2E2E2E2E2E2E2E2E2E2E2E2E2E2E2E2E2E2E2E2E2E2E2E2E2E2E2E2E2E2E2E2E2E2E2E2E2E2E2E2E2E2E2E2E2E2E2E2E2E2E2E2E2E2E2E2E2E2E2E2E2E2E2E2E2E2E2E2E2E2E2E2E2E2E2E2E2E2E2E2E2E2E2E2
310
E2E2E2E2E2E2E2E2E2E2E2E2E2E2E2E2E2E2E2E2E2E2E2E2E2E2E2E2E2E2E2E2E2E2E2E2E2E2E2E2E2E2E2E2E2E2E2E2E2E2E2E2E2E2E2E2E2E2E2E2E2E2E2E2E2E2E2E2E2E2E2E2E2E2E2E2E2E2E2E2E2E2E2E2E2E2E2E2E2E2E2E2E2E2E2E2E2E2E2E2E2E2E2E2E2E2E2E2E2E2E2E2E2E2E2E2E2E2E2E2E2E2E2E2E2E2E2
310
E2E2E2E2E2E2E2E2E2E2E2E2E2E2E2E2E2E2E2E2E2E2E2E2E2E2E2E2E2E2E2E2E2E2E2E2E2E2E2E2E2E2E2E2E2E2E2E2E2E2E2E2E2E2E2E2E2E2E2E2E2E2E2E2E2E2E2E2E2E2E2E2E2E2E2E2E2E2E2E2E2E2E2E2E2E2E2E2E2E2E2E2E2E2E2E2E2E2E2E2E2E2E2E2E2E2E2E2E2E2E2E2E2E2E2E2E2E2E2E2E2E2E2E2E2E2E2
310
E2E2E2E2E2E2E2E2E2E2E2E2E2E2E2E2E2E2E2E2E2E2E2E2E2E2E2E2E2E2E2E2E2E2E2E2E2E2E2E2E2E2E2E2E2E2E2E2E2E2E2E2E2E2E2E2E2E2E2E2E2E2E2E2E2E2E2E2E2E2E2E2E2E2E2E2E2E2E2E2E2E2E2E2E2E2E2E2E2E2E2E2E2E2E2E2E2E2E2E2E2E2E2E2E2E2E2E2E2E2E2E2E2E2E2E2E2E2E2E2E2E2E2E2E2E2E2
310
E2E2E2E2E2E2E2E2E2E2E2E2E2E2E2E2E2E2E2E2E2E2E2E2E2E2E2E2E2E2E2E2E2E2E2E2E2E2E2E2E2E2E2E2E2E2E2E2E2E2E2E2E2E2E2E2E2E2E2E2E2E2E2E2E2E2E2E2E2E2E2E2E2E2E2E2E2E2E2E2E2E2E2E2E2E2E2E2E2E2E2E2E2E2E2E2E2E2E2E2E2E2E2E2E2E2E2E2E2E2E2E2E2E2E2E2E2E2E2E2E2E2E2E2E2E2E2
310
E2E2E2E2E2E2E2E2E2E2E2E2E2E2E2E2E2E2E2E2E2E2E2E2E2E2E2E2E2E2E2E2E2E2E2E2E2E2E2E2E2E2E2E2E2E2E2E2E2E2E2E2E2E2E2E2E2E2E2E2E2E2E2E2E2E2E2E2E2E2E2E2E2E2E2E2E2E2E2E2E2E2E2E2E2E2E2E2E2E2E2E2E2E2E2E2E2E2E2E2E2E2E2E2E2E2E2E2E2E2E2E2E2E2E2E2E2E2E2E2E2E2E2E2E2E2E2
310
E2E2E2E2E2E2E2E2E2E2E2E2E2E2E2E2E2E2E2E2E2E2E2E2E2E2E2E2E2E2E2E2E2E2E2E2E2E2E2E2E2E2E2E2E2E2E2E2E2E2E2E2E2E2E2E2E2E2E2E2E2E2E2E2E2E2E2E2E2E2E2E2E2E2E2E2E2E2E2E2E2E2E2E2E2E2E2E2E2E2E2E2E2E2E2E2E2E2E2E2E2E2E2E2E2E2E2E2E2E2E2E2E2E2E2E2E2E2E2E2E2E2E2E2E2E2E2
310
E2E2E2E2E2E2E2E2E2E2E2E2E2E2E2E2E2E2E2E2E2E2E2E2E2E2E2E2E2E2E2E2E2E2E2E2E2E2E2E2E2E2E2E2E2E2E2E2E2E2E2E2E2E2E2E2E2E2E2E2E2E2E2E2E2E2E2E2E2E2E2E2E2E2E2E2E2E2E2E2E2E2E2E2E2E2E2E2E2E2E2E2E2E2E2E2E2E2E2E2E2E2E2E2E2E2E2E2E2E2E2E2E2E2E2E2E2E2E2E2E2E2E2E2E2E2E2
310
E2E2E2E2E2E2E2E2E2E2E2E2E2E2E2E2E2E2E2E2E2E2E2E2E2E2E2E2E2E2E2E2E2E2E2E2E2E2E2E2E2E2E2E2E2E2E2E2E2E2E2E2E2E2E2E2E2E2E2E2E2E2E2E2E2E2E2E2E2E2E2E2E2E2E2E2E2E2E2E2E2E2E2E2E2E2E2E2E2E2E2E2E2E2E2E2E2E2E2E2E2E2E2E2E2E2E2E2E2E2E2E2E2E2E2E2E2E2E2E2E2E2E2E2E2E2E2
310
E2E2E2E2E2E2E2E2E2E2E2E2E2E2E2E2E2E2E2E2E2E2E2E2E2E2E2E2E2E2E2E2E2E2E2E2E2E2E2E2E2E2E2E2E2E2E2E2E2E2E2E2E2E2E2E2E2E2E2E2E2E2E2E2E2E2E2E2E2E2E2E2E2E2E2E2E2E2E2E2E2E2E2E2E2E2E2E2E2E2E2E2E2E2E2E2E2E2E2E2E2E2E2E2E2E2E2E2E2E2E2E2E2E2E2E2E2E2E2E2E2E2E2E2E2E2E2
310
E2E2E2E2E2E2E2E2E2E2E2E2E2E2E2E2E2E2E2E2E2E2E2E2E2E2E2E2E2E2E2E2E2E2E2E2E2E2E2E2E2E2E2E2E2E2E2E2E2E2E2E2E2E2E2E2E2E2E2E2E2E2E2E2E2E2E2E2E2E2E2E2E2E2E2E2E2E2E2E2E2E2E2E2E2E2E2E2E2E2E2E2E2E2E2E2E2E2E2E2E2E2E2E2E2E2E2E2E2E2E2E2E2E2E2E2E2E2E2E2E2E2E2E2E2E2E2
310
E2E2E2E2E2E2E2E2E2E2E2E2E2E2E2E2E2E2E2E2E2E2E2E2E2E2E2E2E2E2E2E2E2E2E2E2E2E2E2E2E2E2E2E2E2E2E2E2E2E2E2E2E2E2E2E2E2E2E2E2E2E2E2E2E2E2E2E2E2E2E2E2E2E2E2E2E2E2E2E2E2E2E2E2E2E2E2E2E2E2E2E2E2E2E2E2E2E2E2E2E2E2E2E2E2E2E2E2E2E2E2E2E2E2E2E2E2E2E2E2E2E2E2E2E2E2E2
310
E2E2E2E2E2E2E2E2E2E2E2E2E2E2E2E2E2E2E2E2E2E2E2E2E2E2E2E2E2E2E2E2E2E2E2E2E2E2E2E2E2E2E2E2E2E2E2E2E2E2E2E2E2E2E2E2E2E2E2E2E2E2E2E2E2E2E2E2E2E2E2E2E2E2E2E2E2E2E2E2E2E2E2E2E2E2E2E2E2E2E2E2E2E2E2E2E2E2E2E2E2E2E2E2E2E2E2E2E2E2E2E2E2E2E2E2E2E2E2E2E2E2E2E2E2E2E2
310
E2E2E2E2E2E2E2E2E2E2E2E2E2E2E2E2E2E2E2E2E2E2E2E2E2E2E2E2E2E2E2E2E2E2E2E2E2E2E2E2E2E2E2E2E2E2E2E2E2E2E2E2E2E2E2E2E2E2E2E2E2E2E2E2E2E2E2E2E2E2E2E2E2E2E2E2E2E2E2E2E2E2E2E2E2E2E2E2E2E2E2
  0
XRECORD
  5
B71
102
{ACAD_REACTORS
330
46
102
}
330
46
100
AcDbXrecord
280
     1
102
MATERIAL
148
0.0
149
0.0
149
0.0
 93
        0
 94
      127
282
     0
 72
     0
 77
     0
171
     0
175
     0
179
     0
273
     0
  0
XRECORD
  5
47
102
{ACAD_REACTORS
330
46
102
}
330
46
100
AcDbXrecord
280
     1
270
     1
271
     1
  0
XRECORD
  5
48
102
{ACAD_REACTORS
330
46
102
}
330
46
100
AcDbXrecord
280
     1
270
     1
271
     1
  0
XRECORD
  5
49
102
{ACAD_REACTORS
330
46
102
}
330
46
100
AcDbXrecord
280
     1
270
     1
271
     1
  0
XRECORD
  5
4A
102
{ACAD_REACTORS
330
46
102
}
330
46
100
AcDbXrecord
280
     1
270
     1
271
     1
  0
XRECORD
  5
4B
102
{ACAD_REACTORS
330
46
102
}
330
46
100
AcDbXrecord
280
     1
270
     1
271
     1
  0
XRECORD
  5
4C
102
{ACAD_REACTORS
330
46
102
}
330
46
100
AcDbXrecord
280
     1
270
     1
271
     1
  0
XRECORD
  5
B70
102
{ACAD_REACTORS
330
3E
102
}
330
3E
100
AcDbXrecord
280
     1
102
MATERIAL
148
0.0
149
0.0
149
0.0
 93
        0
 94
      127
282
     0
 72
     0
 77
     0
171
     0
175
     0
179
     0
273
     0
  0
XRECORD
  5
3F
102
{ACAD_REACTORS
330
3E
102
}
330
3E
100
AcDbXrecord
280
     1
270
     1
271
     1
  0
XRECORD
  5
40
102
{ACAD_REACTORS
330
3E
102
}
330
3E
100
AcDbXrecord
280
     1
270
     1
271
     1
  0
XRECORD
  5
41
102
{ACAD_REACTORS
330
3E
102
}
330
3E
100
AcDbXrecord
280
     1
270
     1
271
     1
  0
XRECORD
  5
42
102
{ACAD_REACTORS
330
3E
102
}
330
3E
100
AcDbXrecord
280
     1
270
     1
271
     1
  0
XRECORD
  5
43
102
{ACAD_REACTORS
330
3E
102
}
330
3E
100
AcDbXrecord
280
     1
270
     1
271
     1
  0
XRECORD
  5
44
102
{ACAD_REACTORS
330
3E
102
}
330
3E
100
AcDbXrecord
280
     1
270
     1
271
     1
  0
XRECORD
  5
B69
102
{ACAD_REACTORS
330
D
102
}
330
D
100
AcDbXrecord
280
     1
102
MATERIAL
148
0.0
149
0.0
149
0.0
 93
        0
 94
      127
282
     0
 72
     0
 77
     0
171
     0
175
     0
179
     0
273
     0
  0
XRECORD
  5
E
102
{ACAD_REACTORS
330
D
102
}
330
D
100
AcDbXrecord
280
     1
270
     1
271
     1
  0
XRECORD
  5
F
102
{ACAD_REACTORS
330
D
102
}
330
D
100
AcDbXrecord
280
     1
270
     1
271
     1
  0
XRECORD
  5
10
102
{ACAD_REACTORS
330
D
102
}
330
D
100
AcDbXrecord
280
     1
270
     1
271
     1
  0
XRECORD
  5
11
102
{ACAD_REACTORS
330
D
102
}
330
D
100
AcDbXrecord
280
     1
270
     1
271
     1
  0
XRECORD
  5
12
102
{ACAD_REACTORS
330
D
102
}
330
D
100
AcDbXrecord
280
     1
270
     1
271
     1
  0
XRECORD
  5
13
102
{ACAD_REACTORS
330
D
102
}
330
D
100
AcDbXrecord
280
     1
270
     1
271
     1
  0
CELLSTYLEMAP
  5
2683
102
{ACAD_REACTORS
330
B00
102
}
330
B00
100
AcDbCellStyleMap
 90
        3
300
CELLSTYLE
  1
TABLEFORMAT_BEGIN
 90
        5
170
     1
 91
        0
 92
    32768
 62
   257
 93
        1
300
CONTENTFORMAT
  1
CONTENTFORMAT_BEGIN
 90
        0
 91
        0
 92
        4
 93
        0
300

 40
0.0
140
1.0
 94
        5
 62
     0
340
23
144
6.0
309
CONTENTFORMAT_END
171
     1
301
MARGIN
  1
CELLMARGIN_BEGIN
 40
1.5
 40
1.5
 40
1.5
 40
1.5
 40
0.18
 40
0.18
309
CELLMARGIN_END
 94
        6
 95
        1
302
GRIDFORMAT
  1
GRIDFORMAT_BEGIN
 90
        0
 91
        1
 62
     0
 92
       -2
340
0
 93
        0
 40
0.045
309
GRIDFORMAT_END
 95
        2
302
GRIDFORMAT
  1
GRIDFORMAT_BEGIN
 90
        0
 91
        1
 62
     0
 92
       -2
340
0
 93
        0
 40
0.045
309
GRIDFORMAT_END
 95
        4
302
GRIDFORMAT
  1
GRIDFORMAT_BEGIN
 90
        0
 91
        1
 62
     0
 92
       -2
340
0
 93
        0
 40
0.045
309
GRIDFORMAT_END
 95
        8
302
GRIDFORMAT
  1
GRIDFORMAT_BEGIN
 90
        0
 91
        1
 62
     0
 92
       -2
340
0
 93
        0
 40
0.045
309
GRIDFORMAT_END
 95
       16
302
GRIDFORMAT
  1
GRIDFORMAT_BEGIN
 90
        0
 91
        1
 62
     0
 92
       -2
340
0
 93
        0
 40
0.045
309
GRIDFORMAT_END
 95
       32
302
GRIDFORMAT
  1
GRIDFORMAT_BEGIN
 90
        0
 91
        1
 62
     0
 92
       -2
340
0
 93
        0
 40
0.045
309
GRIDFORMAT_END
309
TABLEFORMAT_END
  1
CELLSTYLE_BEGIN
 90
        1
 91
        1
300
_TITLE
309
CELLSTYLE_END
300
CELLSTYLE
  1
TABLEFORMAT_BEGIN
 90
        5
170
     1
 91
        0
 92
        0
 62
   257
 93
        1
300
CONTENTFORMAT
  1
CONTENTFORMAT_BEGIN
 90
        0
 91
        0
 92
        4
 93
        0
300

 40
0.0
140
1.0
 94
        5
 62
     0
340
23
144
4.5
309
CONTENTFORMAT_END
171
     1
301
MARGIN
  1
CELLMARGIN_BEGIN
 40
1.5
 40
1.5
 40
1.5
 40
1.5
 40
0.18
 40
0.18
309
CELLMARGIN_END
 94
        6
 95
        1
302
GRIDFORMAT
  1
GRIDFORMAT_BEGIN
 90
        0
 91
        1
 62
     0
 92
       -2
340
0
 93
        0
 40
0.045
309
GRIDFORMAT_END
 95
        2
302
GRIDFORMAT
  1
GRIDFORMAT_BEGIN
 90
        0
 91
        1
 62
     0
 92
       -2
340
0
 93
        0
 40
0.045
309
GRIDFORMAT_END
 95
        4
302
GRIDFORMAT
  1
GRIDFORMAT_BEGIN
 90
        0
 91
        1
 62
     0
 92
       -2
340
0
 93
        0
 40
0.045
309
GRIDFORMAT_END
 95
        8
302
GRIDFORMAT
  1
GRIDFORMAT_BEGIN
 90
        0
 91
        1
 62
     0
 92
       -2
340
0
 93
        0
 40
0.045
309
GRIDFORMAT_END
 95
       16
302
GRIDFORMAT
  1
GRIDFORMAT_BEGIN
 90
        0
 91
        1
 62
     0
 92
       -2
340
0
 93
        0
 40
0.045
309
GRIDFORMAT_END
 95
       32
302
GRIDFORMAT
  1
GRIDFORMAT_BEGIN
 90
        0
 91
        1
 62
     0
 92
       -2
340
0
 93
        0
 40
0.045
309
GRIDFORMAT_END
309
TABLEFORMAT_END
  1
CELLSTYLE_BEGIN
 90
        2
 91
        1
300
_HEADER
309
CELLSTYLE_END
300
CELLSTYLE
  1
TABLEFORMAT_BEGIN
 90
        5
170
     1
 91
        0
 92
        0
 62
   257
 93
        1
300
CONTENTFORMAT
  1
CONTENTFORMAT_BEGIN
 90
        0
 91
        0
 92
        4
 93
        0
300

 40
0.0
140
1.0
 94
        2
 62
     0
340
23
144
4.5
309
CONTENTFORMAT_END
171
     1
301
MARGIN
  1
CELLMARGIN_BEGIN
 40
1.5
 40
1.5
 40
1.5
 40
1.5
 40
0.18
 40
0.18
309
CELLMARGIN_END
 94
        6
 95
        1
302
GRIDFORMAT
  1
GRIDFORMAT_BEGIN
 90
        0
 91
        1
 62
     0
 92
       -2
340
0
 93
        0
 40
0.045
309
GRIDFORMAT_END
 95
        2
302
GRIDFORMAT
  1
GRIDFORMAT_BEGIN
 90
        0
 91
        1
 62
     0
 92
       -2
340
0
 93
        0
 40
0.045
309
GRIDFORMAT_END
 95
        4
302
GRIDFORMAT
  1
GRIDFORMAT_BEGIN
 90
        0
 91
        1
 62
     0
 92
       -2
340
0
 93
        0
 40
0.045
309
GRIDFORMAT_END
 95
        8
302
GRIDFORMAT
  1
GRIDFORMAT_BEGIN
 90
        0
 91
        1
 62
     0
 92
       -2
340
0
 93
        0
 40
0.045
309
GRIDFORMAT_END
 95
       16
302
GRIDFORMAT
  1
GRIDFORMAT_BEGIN
 90
        0
 91
        1
 62
     0
 92
       -2
340
0
 93
        0
 40
0.045
309
GRIDFORMAT_END
 95
       32
302
GRIDFORMAT
  1
GRIDFORMAT_BEGIN
 90
        0
 91
        1
 62
     0
 92
       -2
340
0
 93
        0
 40
0.045
309
GRIDFORMAT_END
309
TABLEFORMAT_END
  1
CELLSTYLE_BEGIN
 90
        3
 91
        2
300
_DATA
309
CELLSTYLE_END
  0
XRECORD
  5
268B
102
{ACAD_REACTORS
330
B00
102
}
330
B00
100
AcDbXrecord
280
     1
102
ACAD_ROUNDTRIP_PRE2007_TABLESTYLE
 90
        4
 91
        0
  1

 92
        4
 93
        0
  2

 94
        4
 95
        0
  3

  0
ENDSEC
  0
EOF
