  0
SECTION
  2
HEADER
  9
$ACADVER
  1
AC1015
  9
$ACADMAINTVER
 70
    20
  9
$DWGCODEPAGE
  3
ANSI_932
  9
$INSBASE
 10
0.0
 20
0.0
 30
0.0
  9
$EXTMIN
 10
4265.795972295624
 20
827.6245012336525
 30
0.0
  9
$EXTMAX
 10
6198.547383941519
 20
1824.616308270158
 30
0.0
  9
$LIMMIN
 10
0.0
 20
0.0
  9
$LIMMAX
 10
420.0
 20
297.0
  9
$ORTHOMODE
 70
     0
  9
$REGENMODE
 70
     1
  9
$FILLMODE
 70
     1
  9
$QTEXTMODE
 70
     0
  9
$MIRRTEXT
 70
     1
  9
$LTSCALE
 40
1.0
  9
$ATTMODE
 70
     1
  9
$TEXTSIZE
 40
62.5215949741746
  9
$TRACEWID
 40
1.0
  9
$TEXTSTYLE
  7
STANDARD
  9
$CLAYER
  8
SIZE
  9
$CELTYPE
  6
BYLAYER
  9
$CECOLOR
 62
   256
  9
$CELTSCALE
 40
1.0
  9
$DISPSILH
 70
     0
  9
$DIMSCALE
 40
10.0
  9
$DIMASZ
 40
2.0
  9
$DIMEXO
 40
1.0
  9
$DIMDLI
 40
3.75
  9
$DIMRND
 40
0.5
  9
$DIMDLE
 40
0.0
  9
$DIMEXE
 40
1.0
  9
$DIMTP
 40
0.0
  9
$DIMTM
 40
0.0
  9
$DIMTXT
 40
2.0
  9
$DIMCEN
 40
2.5
  9
$DIMTSZ
 40
0.0
  9
$DIMTOL
 70
     0
  9
$DIMLIM
 70
     0
  9
$DIMTIH
 70
     0
  9
$DIMTOH
 70
     0
  9
$DIMSE1
 70
     0
  9
$DIMSE2
 70
     0
  9
$DIMTAD
 70
     1
  9
$DIMZIN
 70
     8
  9
$DIMBLK
  1

  9
$DIMASO
 70
     1
  9
$DIMSHO
 70
     1
  9
$DIMPOST
  1

  9
$DIMAPOST
  1

  9
$DIMALT
 70
     0
  9
$DIMALTD
 70
     4
  9
$DIMALTF
 40
0.0394
  9
$DIMLFAC
 40
1.0
  9
$DIMTOFL
 70
     1
  9
$DIMTVP
 40
0.0
  9
$DIMTIX
 70
     0
  9
$DIMSOXD
 70
     0
  9
$DIMSAH
 70
     1
  9
$DIMBLK1
  1
OPEN30
  9
$DIMBLK2
  1
OPEN30
  9
$DIMSTYLE
  2
STANDARD
  9
$DIMCLRD
 70
     0
  9
$DIMCLRE
 70
     0
  9
$DIMCLRT
 70
     0
  9
$DIMTFAC
 40
1.0
  9
$DIMGAP
 40
1.0
  9
$DIMJUST
 70
     0
  9
$DIMSD1
 70
     0
  9
$DIMSD2
 70
     0
  9
$DIMTOLJ
 70
     1
  9
$DIMTZIN
 70
     8
  9
$DIMALTZ
 70
     0
  9
$DIMALTTZ
 70
     0
  9
$DIMUPT
 70
     0
  9
$DIMDEC
 70
     1
  9
$DIMTDEC
 70
     1
  9
$DIMALTU
 70
     8
  9
$DIMALTTD
 70
     4
  9
$DIMTXSTY
  7
STANDARD
  9
$DIMAUNIT
 70
     0
  9
$DIMADEC
 70
     0
  9
$DIMALTRND
 40
0.0
  9
$DIMAZIN
 70
     0
  9
$DIMDSEP
 70
    46
  9
$DIMATFIT
 70
     3
  9
$DIMFRAC
 70
     0
  9
$DIMLDRBLK
  1
OPEN30
  9
$DIMLUNIT
 70
     2
  9
$DIMLWD
 70
    -2
  9
$DIMLWE
 70
    -2
  9
$DIMTMOVE
 70
     0
  9
$LUNITS
 70
     2
  9
$LUPREC
 70
     2
  9
$SKETCHINC
 40
1.0
  9
$FILLETRAD
 40
10.0
  9
$AUNITS
 70
     0
  9
$AUPREC
 70
     0
  9
$MENU
  1
.
  9
$ELEVATION
 40
0.0
  9
$PELEVATION
 40
0.0
  9
$THICKNESS
 40
0.0
  9
$LIMCHECK
 70
     0
  9
$CHAMFERA
 40
10.0
  9
$CHAMFERB
 40
10.0
  9
$CHAMFERC
 40
20.0
  9
$CHAMFERD
 40
0.0
  9
$SKPOLY
 70
     0
  9
$TDCREATE
 40
2451324.468257373
  9
$TDUCREATE
 40
2451324.093257373
  9
$TDUPDATE
 40
2455894.565244734
  9
$TDUUPDATE
 40
2455894.190244734
  9
$TDINDWG
 40
2.0845896644
  9
$TDUSRTIMER
 40
2.0845885764
  9
$USRTIMER
 70
     1
  9
$ANGBASE
 50
0.0
  9
$ANGDIR
 70
     0
  9
$PDMODE
 70
     0
  9
$PDSIZE
 40
0.0
  9
$PLINEWID
 40
0.0
  9
$SPLFRAME
 70
     0
  9
$SPLINETYPE
 70
     6
  9
$SPLINESEGS
 70
     8
  9
$HANDSEED
  5
28F6
  9
$SURFTAB1
 70
     6
  9
$SURFTAB2
 70
     6
  9
$SURFTYPE
 70
     6
  9
$SURFU
 70
     6
  9
$SURFV
 70
     6
  9
$UCSBASE
  2

  9
$UCSNAME
  2

  9
$UCSORG
 10
0.0
 20
0.0
 30
0.0
  9
$UCSXDIR
 10
1.0
 20
0.0
 30
0.0
  9
$UCSYDIR
 10
0.0
 20
1.0
 30
0.0
  9
$UCSORTHOREF
  2

  9
$UCSORTHOVIEW
 70
     0
  9
$UCSORGTOP
 10
0.0
 20
0.0
 30
0.0
  9
$UCSORGBOTTOM
 10
0.0
 20
0.0
 30
0.0
  9
$UCSORGLEFT
 10
0.0
 20
0.0
 30
0.0
  9
$UCSORGRIGHT
 10
0.0
 20
0.0
 30
0.0
  9
$UCSORGFRONT
 10
0.0
 20
0.0
 30
0.0
  9
$UCSORGBACK
 10
0.0
 20
0.0
 30
0.0
  9
$PUCSBASE
  2

  9
$PUCSNAME
  2

  9
$PUCSORG
 10
0.0
 20
0.0
 30
0.0
  9
$PUCSXDIR
 10
1.0
 20
0.0
 30
0.0
  9
$PUCSYDIR
 10
0.0
 20
1.0
 30
0.0
  9
$PUCSORTHOREF
  2

  9
$PUCSORTHOVIEW
 70
     0
  9
$PUCSORGTOP
 10
0.0
 20
0.0
 30
0.0
  9
$PUCSORGBOTTOM
 10
0.0
 20
0.0
 30
0.0
  9
$PUCSORGLEFT
 10
0.0
 20
0.0
 30
0.0
  9
$PUCSORGRIGHT
 10
0.0
 20
0.0
 30
0.0
  9
$PUCSORGFRONT
 10
0.0
 20
0.0
 30
0.0
  9
$PUCSORGBACK
 10
0.0
 20
0.0
 30
0.0
  9
$USERI1
 70
     0
  9
$USERI2
 70
     0
  9
$USERI3
 70
     0
  9
$USERI4
 70
     0
  9
$USERI5
 70
     0
  9
$USERR1
 40
0.0
  9
$USERR2
 40
0.0
  9
$USERR3
 40
0.0
  9
$USERR4
 40
0.0
  9
$USERR5
 40
0.0
  9
$WORLDVIEW
 70
     1
  9
$SHADEDGE
 70
     3
  9
$SHADEDIF
 70
    70
  9
$TILEMODE
 70
     1
  9
$MAXACTVP
 70
    48
  9
$PINSBASE
 10
0.0
 20
0.0
 30
0.0
  9
$PLIMCHECK
 70
     0
  9
$PEXTMIN
 10
-1439.804583653114
 20
-1400.237631316938
 30
0.0
  9
$PEXTMAX
 10
2872.968780515991
 20
1675.790811506817
 30
0.0
  9
$PLIMMIN
 10
0.0
 20
0.0
  9
$PLIMMAX
 10
12.0
 20
9.0
  9
$UNITMODE
 70
     0
  9
$VISRETAIN
 70
     1
  9
$PLINEGEN
 70
     0
  9
$PSLTSCALE
 70
     1
  9
$TREEDEPTH
 70
  3020
  9
$CMLSTYLE
  2
STANDARD
  9
$CMLJUST
 70
     0
  9
$CMLSCALE
 40
20.0
  9
$PROXYGRAPHICS
 70
     1
  9
$MEASUREMENT
 70
     1
  9
$CELWEIGHT
370
    -1
  9
$ENDCAPS
280
     0
  9
$JOINSTYLE
280
     0
  9
$LWDISPLAY
290
     0
  9
$INSUNITS
 70
     0
  9
$HYPERLINKBASE
  1

  9
$STYLESHEET
  1

  9
$XEDIT
290
     1
  9
$CEPSNTYPE
380
     0
  9
$PSTYLEMODE
290
     1
  9
$FINGERPRINTGUID
  2
{7B48495B-9D62-4076-8CB1-8ACA882609AE}
  9
$VERSIONGUID
  2
{8487C51E-59C9-4C40-A0D7-7AAD7D45A9C4}
  9
$EXTNAMES
290
     1
  9
$PSVPSCALE
 40
0.0
  9
$OLESTARTUP
290
     0
  0
ENDSEC
  0
SECTION
  2
CLASSES
  0
CLASS
  1
ACDBDICTIONARYWDFLT
  2
AcDbDictionaryWithDefault
  3
ObjectDBX Classes
 90
        0
280
     0
281
     0
  0
CLASS
  1
ACDBPLACEHOLDER
  2
AcDbPlaceHolder
  3
ObjectDBX Classes
 90
        0
280
     0
281
     0
  0
CLASS
  1
LAYOUT
  2
AcDbLayout
  3
ObjectDBX Classes
 90
        0
280
     0
281
     0
  0
CLASS
  1
ACME_DOCUMENT
  2
AcMeDbDoc
  3
AcMeServices
 90
     1024
280
     0
281
     0
  0
CLASS
  1
AMGSETTINGSOBJ
  2
AmgSettingsObj
  3
"AcadM|Product Description: AutoCAD Mechanical|Company: Autodesk, Inc."
 90
     1024
280
     0
281
     0
  0
CLASS
  1
ACMESCOPE
  2
AcMeScope
  3
AcMeServices
 90
     1024
280
     0
281
     0
  0
CLASS
  1
ACMECOMMANDHISTORY
  2
AcMeCommandHistory
  3
AcMeServices
 90
     1024
280
     0
281
     0
  0
CLASS
  1
DICTIONARYVAR
  2
AcDbDictionaryVar
  3
ObjectDBX Classes
 90
        0
280
     0
281
     0
  0
CLASS
  1
ACIMSYSVARMAN
  2
AcImSysVarManager
  3
AcMeServices
 90
     1024
280
     0
281
     0
  0
CLASS
  1
ACIMREALSYSVAR
  2
AcImRealSysVar
  3
AcMeServices
 90
     1024
280
     0
281
     0
  0
CLASS
  1
ACIMINTSYSVAR
  2
AcImIntSysVar
  3
AcMeServices
 90
     1024
280
     0
281
     0
  0
CLASS
  1
ACMEDRAWINGMAN
  2
AcMeDrawingMan
  3
AcMeServices
 90
     1024
280
     0
281
     0
  0
CLASS
  1
ACMEVIEW
  2
AcMeView
  3
AcMeServices
 90
     1024
280
     0
281
     0
  0
CLASS
  1
ACDBENTITYCACHE
  2
AcMeEntityCache
  3
AcMeServices
 90
     1024
280
     0
281
     0
  0
CLASS
  1
GSMANAGER
  2
AcMeGSManager
  3
AcMeServices
 90
     1024
280
     0
281
     0
  0
CLASS
  1
AMDTINTERNALREACTOR
  2
AmdtInternalReactor
  3
AcMeServices
 90
     1024
280
     0
281
     0
  0
CLASS
  1
ACMESTATEMGR
  2
AcMeStateMgr
  3
AcMeServices
 90
     1024
280
     0
281
     0
  0
CLASS
  1
ACGREFMASTER
  2
AcGrefMaster
  3
AcAttribServices
 90
     1024
280
     0
281
     0
  0
CLASS
  1
AM_DRAWING_MGR
  2
AcDmDwgMgr
  3
AcMechDwgViewMgmt
 90
     1024
280
     0
281
     0
  0
CLASS
  1
AM_DWG_DOCUMENT
  2
AcDmDwgDocument
  3
AcMechDwgViewMgmt
 90
     1024
280
     0
281
     0
  0
CLASS
  1
AM_DWG_SHEET
  2
AcDmSheet
  3
AcMechDwgViewMgmt
 90
     1024
280
     0
281
     0
  0
CLASS
  1
AM_VIEWDIMPARMAP
  2
AcDmViewDimParMap
  3
AcMechDwgViewMgmt
 90
     1024
280
     0
281
     0
  0
CLASS
  1
AM_DWGMGR_NAME
  2
AcDmDwgMgrName
  3
AcMechDwgViewMgmt
 90
     1024
280
     0
281
     0
  0
CLASS
  1
ACME_DATABASE
  2
AcMeDbDatabase
  3
AcMeServices
 90
     1024
280
     0
281
     0
  0
CLASS
  1
ACRFINSADJUSTERMGR
  2
AcRfInsAdjusterMgr
  3
AcMeServices
 90
     1024
280
     0
281
     0
  0
CLASS
  1
ACGREFACADMASTER
  2
AcGrefacadMaster
  3
AcGrefServices
 90
     1024
280
     0
281
     0
  0
CLASS
  1
AMDTMENUSTATEMGR
  2
AmdtMenuStateMgr
  3
McadcomServices
 90
     1024
280
     0
281
     0
  0
CLASS
  1
AMDTMCOMMENUSTATE
  2
AmdtMcomMenuState
  3
McadcomServices
 90
     1024
280
     0
281
     0
  0
CLASS
  1
AMIMASTER
  2
AmiMaster
  3
AmiServices
 90
     1024
280
     0
281
     0
  0
CLASS
  1
ASAPP
  2
AcAsAppObject
  3
AutoSurfServices
 90
     1024
280
     0
281
     0
  0
CLASS
  1
IM_STATIC_MAN
  2
AcImStaticVarManager
  3
AcMeServices
 90
     1024
280
     0
281
     0
  0
CLASS
  1
ACIMSTRSYSVAR
  2
AcImStrSysVar
  3
AcMeServices
 90
     1024
280
     0
281
     0
  0
CLASS
  1
ACIMDBLSTATICVAR
  2
AcImDblStaticVar
  3
AcMeServices
 90
     1024
280
     0
281
     0
  0
CLASS
  1
ACIMSTRSTATICVAR
  2
AcImStrStaticVar
  3
AcMeServices
 90
     1024
280
     0
281
     0
  0
CLASS
  1
ACIMINTSTATICVAR
  2
AcImIntStaticVar
  3
AcMeServices
 90
     1024
280
     0
281
     0
  0
CLASS
  1
ACASGREFMASTER
  2
AcAsGrefMaster
  3
AutoSurfResolverServices
 90
     1024
280
     0
281
     0
  0
CLASS
  1
ACADGREFMODULE
  2
AcAdGrefModule
  3
AdGrefServices
 90
     1024
280
     0
281
     0
  0
CLASS
  1
AMDTMAPISURFMOUDULE
  2
AmdtMApiSurfModule
  3
MApiSurfServices
 90
     1024
280
     0
281
     0
  0
CLASS
  1
MAPIAMMOUDLE
  2
MApiAmModule
  3
MApiAmServices
 90
     1024
280
     0
281
     0
  0
CLASS
  1
AMDTADMENUSTATE
  2
AmdtAdMenuState
  3
DesignerServices
 90
     1024
280
     0
281
     0
  0
CLASS
  1
ADAPPL
  2
AcAdAppl
  3
DesignerServices
 90
     1024
280
     0
281
     0
  0
CLASS
  1
DEPMGR
  2
AcAdDepMgr
  3
DesignerServices
 90
     1024
280
     0
281
     0
  0
CLASS
  1
PARAMMGR
  2
AcAdParamMgr
  3
DesignerServices
 90
     1024
280
     0
281
     0
  0
CLASS
  1
PARAMSCOPE
  2
AcAdParamScope
  3
DesignerServices
 90
     1024
280
     0
281
     0
  0
CLASS
  1
NAMEDAPPL
  2
AcAdNamedAppl
  3
DesignerServices
 90
     1024
280
     0
281
     0
  0
CLASS
  1
ADHNTMPLT
  2
AdHoleNoteTemplateMgr
  3
DesignerServices
 90
    33792
280
     0
281
     0
  0
CLASS
  1
AM_HNTEMPLATE_MGR_NAME
  2
AdHoleNoteTemplateMgrName
  3
DesignerServices
 90
    33792
280
     0
281
     0
  0
CLASS
  1
AMDTDMMENUSTATE
  2
AmdtDmMenuState
  3
AcMechDwgViewMgmt
 90
     1024
280
     0
281
     0
  0
CLASS
  1
MAPIADMODULE
  2
MApiAdModule
  3
MApiAdServices
 90
     1024
280
     0
281
     0
  0
CLASS
  1
AMDTAMMENUSTATE
  2
AmdtAmMenuState
  3
DesignerAssemblies
 90
     1024
280
     0
281
     0
  0
CLASS
  1
ACAMPROJECT
  2
AcAmProject
  3
DesignerAssemblies
 90
     1024
280
     0
281
     0
  0
CLASS
  1
ACAMGRCOMPDEF
  2
AcAmGrCompDef
  3
DesignerAssemblies
 90
     1024
280
     0
281
     0
  0
CLASS
  1
ACCMCONTEXT
  2
AcCmContext
  3
DesignerAssemblies
 90
     1024
280
     0
281
     0
  0
CLASS
  1
ACAMCOMPDEF
  2
AcAmCompDef
  3
DesignerAssemblies
 90
     1024
280
     0
281
     0
  0
CLASS
  1
ACAMCOMPDEFMGR
  2
AcAmCompDefMgr
  3
DesignerAssemblies
 90
     1024
280
     0
281
     0
  0
CLASS
  1
AMCONTEXTMGR
  2
AcAmContextMgr
  3
DesignerAssemblies
 90
     1024
280
     0
281
     0
  0
CLASS
  1
ACAMCONTEXTMODELER
  2
AcAmContextModeler
  3
DesignerAssemblies
 90
     1024
280
     0
281
     0
  0
CLASS
  1
ACMDATADICTIONARY
  2
AcmDataDictionary
  3
"AcmSymBB|Product Description: AutoCAD Mechanical|Company: Autodesk, Inc."
 90
     1024
280
     0
281
     0
  0
CLASS
  1
ACMDATAENTRYBLOCK
  2
AcmDataEntryBlock
  3
AcmSymBB|Product Description: AutoCAD Mechanical|Company: Autodesk, Inc.
 90
     1024
280
     0
281
     0
  0
CLASS
  1
CATALOGSTATE
  2
AcAmCatalogState
  3
DesignerAssemblies
 90
     1024
280
     0
281
     0
  0
CLASS
  1
ACAMGRCOMPDEFSET
  2
AcAmGrCompDefSet
  3
DesignerAssemblies
 90
     1024
280
     0
281
     0
  0
CLASS
  1
AMDTBROWSERDBTAB
  2
AmdtBrowserDbTab
  3
McadcomServices
 90
     1024
280
     0
281
     0
  0
CLASS
  1
CBROWSERAPPOBJECT
  2
CBrowserAppObject
  3
McadcomServices
 90
     1024
280
     0
281
     0
  0
CLASS
  1
DM_PLACEHOLDER
  2
AcDmSelsetPlaceholder
  3
AcMechDwgViewMgmt
 90
     1024
280
     0
281
     0
  0
CLASS
  1
ACMSTANDARDISO
  2
AcmStandardISO
  3
"Amdt_StdImp|Product Description: AutoCAD Mechanical|Company: Autodesk, Inc."
 90
     1024
280
     0
281
     0
  0
CLASS
  1
AMGOBJPROPCFG
  2
AmgObjPropCfg
  3
"AmgLay|Product Description: AutoCAD Mechanical|Company: Autodesk, Inc."
 90
     1025
280
     0
281
     0
  0
CLASS
  1
AMDTEDGESTANDARDISO
  2
AmdtEdgeStdISO
  3
"Amdt_StdImp|Product Description: AutoCAD Mechanical|Company: Autodesk, Inc."
 90
    33792
280
     0
281
     0
  0
CLASS
  1
ACMSURFSTANDARDISO
  2
AcmSurfTextStdISO
  3
"Amdt_StdImp|Product Description: AutoCAD Mechanical|Company: Autodesk, Inc."
 90
    33792
280
     0
281
     0
  0
CLASS
  1
ACMFCFSTANDARDISO
  2
AcmFCFStdISO
  3
"Amdt_StdImp|Product Description: AutoCAD Mechanical|Company: Autodesk, Inc."
 90
     1024
280
     0
281
     0
  0
CLASS
  1
ACMWELDSTANDARDISO
  2
AcmWeldingStdISO
  3
"Amdt_StdImp|Product Description: AutoCAD Mechanical|Company: Autodesk, Inc."
 90
     1024
280
     0
281
     0
  0
CLASS
  1
ACMIDSTANDARDISO
  2
AcmIdStdISO
  3
"Amdt_StdImp|Product Description: AutoCAD Mechanical|Company: Autodesk, Inc."
 90
     1024
280
     0
281
     0
  0
CLASS
  1
ACMDATUMSTANDARDISO
  2
AcmDatumStdISO
  3
"Amdt_StdImp|Product Description: AutoCAD Mechanical|Company: Autodesk, Inc."
 90
     1024
280
     0
281
     0
  0
CLASS
  1
ACMBOMSTANDARDISO
  2
AcmBOMStdISO
  3
"Amdt_StdImp|Product Description: AutoCAD Mechanical|Company: Autodesk, Inc."
 90
     1024
280
     0
281
     0
  0
CLASS
  1
ACMDETAILSTANDARDISO
  2
AmdtDetailSymStdISO
  3
"Amdt_StdImp|Product Description: AutoCAD Mechanical|Company: Autodesk, Inc."
 90
     1024
280
     0
281
     0
  0
CLASS
  1
ACMSECTIONSTANDARDISO
  2
AmdtSectionSymStdISO
  3
"Amdt_StdImp|Product Description: AutoCAD Mechanical|Company: Autodesk, Inc."
 90
    33792
280
     0
281
     0
  0
CLASS
  1
ACMCENTERLINESTANDARDISO
  2
AmdtCenterLineStdISO
  3
"Amdt_StdImp|Product Description: AutoCAD Mechanical|Company: Autodesk, Inc."
 90
     1024
280
     0
281
     0
  0
CLASS
  1
ACMTHREADLINESTANDARDISO
  2
AmdtThreadLineStdISO
  3
"Amdt_StdImp|Product Description: AutoCAD Mechanical|Company: Autodesk, Inc."
 90
     1024
280
     0
281
     0
  0
CLASS
  1
ACAMGLAYSTD
  2
AcAmgLayStd
  3
"AmgLay|Product Description: AutoCAD Mechanical|Company: Autodesk, Inc."
 90
     1024
280
     0
281
     0
  0
CLASS
  1
ACAMGDIMSTD
  2
AcAmgDimStd
  3
"AmgDim|Product Description: AutoCAD Mechanical|Company: Autodesk, Inc."
 90
     1024
280
     0
281
     0
  0
CLASS
  1
ACAMGTITLESTD
  2
AcAmgTitleStd
  3
"AmgTitle|Product Description: AutoCAD Mechanical|Company: Autodesk, Inc."
 90
     4095
280
     0
281
     0
  0
CLASS
  1
ACAMGFILTERDAT
  2
AcAmgFilterDat
  3
"AcadM|Product Description: AutoCAD Mechanical|Company: Autodesk, Inc."
 90
     1024
280
     0
281
     0
  0
CLASS
  1
AMDTFORMULAUPDATEDISPATCHER
  2
AmdtFormulaUpdateDispatcher
  3
AcMeServices
 90
    33792
280
     0
281
     0
  0
CLASS
  1
LAYER_INDEX
  2
AcDbLayerIndex
  3
ObjectDBX Classes
 90
        0
280
     0
281
     0
  0
CLASS
  1
IDBUFFER
  2
AcDbIdBuffer
  3
ObjectDBX Classes
 90
        0
280
     0
281
     0
  0
CLASS
  1
TABLESTYLE
  2
AcDbTableStyle
  3
ObjectDBX Classes
 90
     4095
280
     0
281
     0
  0
CLASS
  1
ACMNOTESTANDARDISO
  2
AmdtNoteStdISO
  3
"Amdt_StdImp|Product Description: AutoCAD Mechanical|Company: Autodesk, Inc."
 90
     1024
280
     0
281
     0
  0
CLASS
  1
AMDTNOTETEMPLATEDB
  2
AmdtNoteTemplateDB
  3
AcmSymBB|Product Description: AutoCAD Mechanical|Company: Autodesk, Inc.
 90
     1024
280
     0
281
     0
  0
CLASS
  1
ACAMEXTERNALCOMPDEF
  2
AcAmExternalCompDef
  3
DesignerAssemblies
 90
    33792
280
     0
281
     0
  0
CLASS
  1
ACCMBODY
  2
AcCmBody
  3
DesignerAssemblies
 90
    33792
280
     0
281
     0
  0
CLASS
  1
ACAMCOMPENT
  2
AcAmCompEnt
  3
DesignerAssemblies
 90
    33792
280
     0
281
     1
  0
CLASS
  1
ACAMCOMPFEEDBACK
  2
AcAmCompFeedback
  3
DesignerAssemblies
 90
    33792
280
     0
281
     0
  0
CLASS
  1
ACAMCOMP
  2
AcAmComp
  3
DesignerAssemblies
 90
    33792
280
     0
281
     0
  0
CLASS
  1
ACAMCOMPENTCLONE
  2
AcAmCompEntClone
  3
DesignerAssemblies
 90
    33792
280
     0
281
     1
  0
CLASS
  1
ACAMCLONEREACTOR
  2
AcAmGrCompCloneReactor
  3
DesignerAssemblies
 90
    33792
280
     0
281
     0
  0
CLASS
  1
EDGEID
  2
AcAdEdgeId
  3
DesignerServices
 90
    33792
280
     0
281
     0
  0
CLASS
  1
ACADPARTLINEDGRES
  2
AcAdPartLinEdgRes
  3
AdGrefServices
 90
    33792
280
     0
281
     0
  0
CLASS
  1
ACRFINSADJ
  2
AcRfInsAdjuster
  3
AcMeServices
 90
    33792
280
     0
281
     0
  0
CLASS
  1
STREFID
  2
AcAdStraightRefId
  3
DesignerServices
 90
    33792
280
     0
281
     0
  0
CLASS
  1
ACMEAXIS
  2
AcImAxisDisplay
  3
AcMeServices
 90
    33792
280
     0
281
     1
  0
CLASS
  1
FACEID
  2
AcAdFaceId
  3
DesignerServices
 90
    33792
280
     0
281
     0
  0
CLASS
  1
DEPEDGESECONDARYDEPID
  2
AcAdDepEdgeSecondaryDepId
  3
DesignerServices
 90
    33792
280
     0
281
     0
  0
CLASS
  1
ACADPARTPLANARFACERES
  2
AcAdPartPlanarFaceRes
  3
AdGrefServices
 90
    33792
280
     0
281
     0
  0
CLASS
  1
ACMEPOINT
  2
AcImPointDisplay
  3
AcMeServices
 90
    33792
280
     0
281
     1
  0
CLASS
  1
ACMELINEARARROW
  2
AcImLinearArrowDisplay
  3
AcMeServices
 90
    33792
280
     0
281
     1
  0
CLASS
  1
ACAMEXPR
  2
AcAmExpr
  3
DesignerAssemblies
 90
    33792
280
     0
281
     0
  0
CLASS
  1
ACCMDISTPLPL
  2
AcCmDistPlPl
  3
DesignerAssemblies
 90
    33792
280
     0
281
     0
  0
CLASS
  1
ACCMCONSTREACTOR
  2
AcCmConstraintReactor
  3
DesignerAssemblies
 90
    33792
280
     0
281
     0
  0
CLASS
  1
ACCMDISTPTLN
  2
AcCmDistPtLn
  3
DesignerAssemblies
 90
    33792
280
     0
281
     0
  0
CLASS
  1
AM_VIEW_SELECT_FILTER
  2
AcDmSelectViewEntFilter
  3
AcMechDwgViewMgmt
 90
    33792
280
     0
281
     0
  0
CLASS
  1
AM_GREF_PLANE
  2
AcDmGrefPlnDef
  3
AcMechDwgViewMgmt
 90
    33792
280
     0
281
     0
  0
CLASS
  1
AM_GREF_AXIS
  2
AcDmGrefAxisDef
  3
AcMechDwgViewMgmt
 90
    33792
280
     0
281
     0
  0
CLASS
  1
AM_BASE_VIEW_ORIENT
  2
AcDmBaseViewOr
  3
AcMechDwgViewMgmt
 90
    33792
280
     0
281
     0
  0
CLASS
  1
AM_DWG_VIEWPORT
  2
AcDmViewport
  3
AcMechDwgViewMgmt
 90
    33792
280
     0
281
     0
  0
CLASS
  1
AM_VIEW_DISPLAY
  2
AcDmDwgViewDisplay
  3
AcMechDwgViewMgmt
 90
    33792
280
     0
281
     0
  0
CLASS
  1
AM_CLDFLTS
  2
AcDmClDflts
  3
AcMechDwgViewMgmt
 90
    33792
280
     0
281
     0
  0
CLASS
  1
AM_BASE_VIEW
  2
AcDmBaseView
  3
AcMechDwgViewMgmt
 90
    33792
280
     0
281
     0
  0
CLASS
  1
ACMEPLINE
  2
AcImPlineDisplay
  3
AcMeServices
 90
    33792
280
     0
281
     1
  0
CLASS
  1
ACDMPARTVIEWDATA
  2
AcDmPartViewData
  3
AcMechDwgViewMgmt
 90
    33792
280
     0
281
     0
  0
CLASS
  1
ACDMDISPLAYATTRIBS
  2
AcDmDisplayAttribs
  3
AcMechDwgViewMgmt
 90
    33792
280
     0
281
     0
  0
CLASS
  1
ACDMBODYINSTANCEDATA
  2
AcDmBodyInstanceData
  3
AcMechDwgViewMgmt
 90
    33792
280
     0
281
     0
  0
CLASS
  1
ACDMVWEDLINE
  2
AcDmViewEdgeLine
  3
AcMechDwgViewMgmt
 90
    33792
280
     0
281
     1
  0
CLASS
  1
ACDMVWEDARC
  2
AcDmViewEdgeArc
  3
AcMechDwgViewMgmt
 90
    33792
280
     0
281
     1
  0
CLASS
  1
AM_ISO_VIEW_ORIENT
  2
AcDmIsoViewOr
  3
AcMechDwgViewMgmt
 90
    33792
280
     0
281
     0
  0
CLASS
  1
AM_ISO_VIEW
  2
AcDmIsoView
  3
AcMechDwgViewMgmt
 90
    33792
280
     0
281
     0
  0
CLASS
  1
AM_ORTHO_VIEW_ORIENT
  2
AcDmOrthoViewOr
  3
AcMechDwgViewMgmt
 90
    33792
280
     0
281
     0
  0
CLASS
  1
AM_ORTHO_VIEW
  2
AcDmOrthoView
  3
AcMechDwgViewMgmt
 90
    33792
280
     0
281
     0
  0
CLASS
  1
ACAMVIEWREACTOR
  2
AcAmViewReactor
  3
DesignerAssemblies
 90
    33792
280
     0
281
     0
  0
CLASS
  1
AMVIEW
  2
AcAmView
  3
DesignerAssemblies
 90
    33792
280
     0
281
     0
  0
CLASS
  1
ACAMVIEWCONTEXT
  2
AcAmViewContext
  3
DesignerAssemblies
 90
    33792
280
     0
281
     0
  0
CLASS
  1
ACAMCOMPENTVIEW
  2
AcAmCompEntView
  3
DesignerAssemblies
 90
    33792
280
     0
281
     1
  0
CLASS
  1
ACAMCOMPVIEWREACTOR
  2
AcAmGrCompViewReactor
  3
DesignerAssemblies
 90
    33792
280
     0
281
     0
  0
CLASS
  1
ACAMVIEWENTITYFILTER
  2
AcAmViewEntityFilter
  3
DesignerAssemblies
 90
    33792
280
     0
281
     0
  0
CLASS
  1
ACDMVWEDCIRC
  2
AcDmViewEdgeCircle
  3
AcMechDwgViewMgmt
 90
    33792
280
     0
281
     1
  0
CLASS
  1
AM_ADCIRCTRLINE
  2
AcAdBullsEyeCl
  3
DesignerServices
 90
    33792
280
     0
281
     0
  0
CLASS
  1
AM_ADLINCTRLINE
  2
AcAdLineCl
  3
DesignerServices
 90
    33792
280
     0
281
     0
  0
CLASS
  1
ACDMVIEWGEOM
  2
AcDmViewGeometry
  3
AcMechDwgViewMgmt
 90
    33792
280
     0
281
     1
  0
CLASS
  1
ACCMDISTLNLN
  2
AcCmDistLnLn
  3
DesignerAssemblies
 90
    33792
280
     0
281
     0
  0
CLASS
  1
ACAMXREFCONTEXTMODELER
  2
AcAmXrefContextModeler
  3
DesignerAssemblies
 90
    33792
280
     0
281
     0
  0
CLASS
  1
CNRREFID
  2
AcAdCornerId
  3
DesignerServices
 90
    33792
280
     0
281
     0
  0
CLASS
  1
ACADPARTPOINTRES
  2
AcAdPartPointRes
  3
AdGrefServices
 90
    33792
280
     0
281
     0
  0
CLASS
  1
AM_VIEWDIMLINEAR
  2
AcDmViewDimLinear
  3
AcMechDwgViewMgmt
 90
    33792
280
     0
281
     0
  0
CLASS
  1
PARAM
  2
AcAdParam
  3
DesignerServices
 90
    33792
280
     0
281
     0
  0
CLASS
  1
SORTENTSTABLE
  2
AcDbSortentsTable
  3
ObjectDBX Classes
 90
        0
280
     0
281
     0
  0
CLASS
  1
ACADPARTCIRCEDGRES
  2
AcAdPartCircEdgRes
  3
AdGrefServices
 90
    33792
280
     0
281
     0
  0
CLASS
  1
AM_VIEWDIMRADIUS
  2
AcDmViewDimRadius
  3
AcMechDwgViewMgmt
 90
    33792
280
     0
281
     0
  0
CLASS
  1
DEPEDGEPATTERNINSTANCE
  2
AcAdDepEdgePatternInstance
  3
DesignerServices
 90
    33792
280
     0
281
     0
  0
CLASS
  1
FEEDBACK
  2
AcAmFeedback
  3
DesignerAssemblies
 90
    33792
280
     0
281
     1
  0
CLASS
  1
ACAMTRIAXISSYMBOL
  2
AcAmTriAxisSymbol
  3
DesignerAssemblies
 90
    33792
280
     0
281
     0
  0
CLASS
  1
ACAMTEXTCIRCLESYMBOL
  2
AcAmTextCircleSymbol
  3
DesignerAssemblies
 90
    33792
280
     0
281
     0
  0
CLASS
  1
ACDMVISEDIT
  2
AcDmViewEntityVisEdit
  3
AcMechDwgViewMgmt
 90
    33792
280
     0
281
     0
  0
CLASS
  1
SILEDGEID
  2
AcAdSilhouetteEdgeId
  3
DesignerServices
 90
    33792
280
     0
281
     0
  0
CLASS
  1
MATERIAL
  2
AcDbMaterial
  3
ObjectDBX Classes
 90
     1153
280
     0
281
     0
  0
CLASS
  1
VISUALSTYLE
  2
AcDbVisualStyle
  3
ObjectDBX Classes
 90
     4095
280
     0
281
     0
  0
CLASS
  1
SCALE
  2
AcDbScale
  3
ObjectDBX Classes
 90
     1153
280
     0
281
     0
  0
CLASS
  1
MLEADERSTYLE
  2
AcDbMLeaderStyle
  3
ACDB_MLEADERSTYLE_CLASS
 90
     4095
280
     0
281
     0
  0
CLASS
  1
EXACTERMXREFMAP
  2
ExAcTermXrefMap
  3
EXAC_SERVICE
 90
    33793
280
     0
281
     0
  0
CLASS
  1
NPOCOLLECTION
  2
AcDbImpNonPersistentObjectsCollection
  3
ObjectDBX Classes
 90
     1153
280
     0
281
     0
  0
CLASS
  1
ACRFATTGENMGR
  2
AcRfAttGeneralMgr
  3
AcAttribServices
 90
     1024
280
     0
281
     0
  0
CLASS
  1
ACRFOBJATTMGR
  2
AcRfObjAttGroupMgr
  3
AcAttribServices
 90
     1024
280
     0
281
     0
  0
CLASS
  1
ACRFMCADAPIATTHOLDER
  2
AcRfMCADAPIAttHolder
  3
AcAttribServices
 90
     1024
280
     0
281
     0
  0
CLASS
  1
AMDTSYSATTR
  2
AmdtSystemAttribute
  3
AcAttribServices
 90
     1024
280
     0
281
     0
  0
CLASS
  1
ACMTAPERSTANDARDISO
  2
AcmTaperStdISO
  3
"Amdt_StdImp|Product Description: AutoCAD Mechanical|Company: Autodesk, Inc."
 90
     1024
280
     0
281
     0
  0
CLASS
  1
ACMANOOTATIONVIEWSTANDARDISO
  2
AmdtAnViewStdISO
  3
"Amdt_StdImp|Product Description: AutoCAD Mechanical|Company: Autodesk, Inc."
 90
     1024
280
     0
281
     0
  0
CLASS
  1
SOLID_BACKGROUND
  2
AcDbSolidBackground
  3
SCENEOE
 90
     4095
280
     0
281
     0
  0
CLASS
  1
CELLSTYLEMAP
  2
AcDbCellStyleMap
  3
ObjectDBX Classes
 90
     1152
280
     0
281
     0
  0
CLASS
  1
AM_ABS_AXIS
  2
AcDmAbsAxisDef
  3
AcMechDwgViewMgmt
 90
    33792
280
     0
281
     0
  0
CLASS
  1
AM_ABS_PLANE
  2
AcDmAbsPlnDef
  3
AcMechDwgViewMgmt
 90
    33792
280
     0
281
     0
  0
CLASS
  1
MULTILEADER
  2
AcDbMLeader
  3
ACDB_MLEADER_CLASS
 90
     1025
280
     0
281
     1
  0
CLASS
  1
AMDTEDGESTANDARDISO13715
  2
AmdtEdgeStdISO13715
  3
"Amdt_StdImp|Product Description: AutoCAD Mechanical|Company: Autodesk, Inc."
 90
     1024
280
     0
281
     0
  0
CLASS
  1
ACMSURFSTANDARDISO2002
  2
AcmSurfTextStdISO2002
  3
"Amdt_StdImp|Product Description: AutoCAD Mechanical|Company: Autodesk, Inc."
 90
     1024
280
     0
281
     0
  0
CLASS
  1
ACMSECTIONSTANDARDISO2001
  2
AmdtSectionSymStdISO2001
  3
"Amdt_StdImp|Product Description: AutoCAD Mechanical|Company: Autodesk, Inc."
 90
     1024
280
     0
281
     0
  0
CLASS
  1
ACAMGHOLECHARTSTDISO
  2
AcAmgHoleChartStdISO
  3
AmgDim|Product Description: AutoCAD Mechanical|Company: Autodesk, Inc.
 90
     1024
280
     0
281
     0
  0
ENDSEC
  0
SECTION
  2
TABLES
  0
TABLE
  2
VPORT
  5
2A
330
0
100
AcDbSymbolTable
 70
     1
  0
VPORT
  5
C17
330
2A
100
AcDbSymbolTableRecord
100
AcDbViewportTableRecord
  2
*Active
 70
     0
 10
0.0
 20
0.0
 11
1.0
 21
1.0
 12
0.0
 22
0.0
 13
0.0
 23
0.0
 14
10.0
 24
10.0
 15
10.0
 25
10.0
 16
0.0
 26
0.0
 36
12761.45037234066
 17
5396.338665320847
 27
1326.121662363123
 37
0.0
 40
1160.368435760221
 41
1.956112852664576
 42
50.0
 43
0.0
 44
0.0
 50
0.0
 51
0.0
 71
     0
 72
  2000
 73
     1
 74
     0
 75
     0
 76
     0
 77
     0
 78
     0
281
     4
 65
     0
110
0.0
120
0.0
130
0.0
111
1.0
121
0.0
131
0.0
112
0.0
122
1.0
132
0.0
 79
     0
146
0.0
  0
ENDTAB
  0
TABLE
  2
LTYPE
  5
25
330
0
100
AcDbSymbolTable
 70
    12
  0
LTYPE
  5
26
330
25
100
AcDbSymbolTableRecord
100
AcDbLinetypeTableRecord
  2
BYBLOCK
 70
     0
  3

 72
    65
 73
     0
 40
0.0
  0
LTYPE
  5
27
330
25
100
AcDbSymbolTableRecord
100
AcDbLinetypeTableRecord
  2
BYLAYER
 70
     0
  3

 72
    65
 73
     0
 40
0.0
  0
LTYPE
  5
14
330
25
100
AcDbSymbolTableRecord
100
AcDbLinetypeTableRecord
  2
CONTINUOUS
 70
     0
  3
Solid line
 72
    65
 73
     0
 40
0.0
  0
LTYPE
  5
81
330
25
100
AcDbSymbolTableRecord
100
AcDbLinetypeTableRecord
  2
HIDDEN
 70
     0
  3
Hidden __ __ __ __ __ __ __ __ __ __ __ __ __ _
 72
    65
 73
     2
 40
0.375
 49
0.25
 74
     0
 49
-0.125
 74
     0
  0
LTYPE
  5
624
330
25
100
AcDbSymbolTableRecord
100
AcDbLinetypeTableRecord
  2
AM_ISO08W050
 70
     0
  3
____ . ____ . ____ . ____ . ____ . ____ . ____
 72
    65
 73
     4
 40
18.0
 49
12.0
 74
     0
 49
-1.5
 74
     0
 49
3.0
 74
     0
 49
-1.5
 74
     0
  0
LTYPE
  5
CB5
330
25
100
AcDbSymbolTableRecord
100
AcDbLinetypeTableRecord
  2
DASHDOT
 70
     0
  3
____ _ ____ _ ____ _ ____ _ ____ _ ____ _ ____
 72
    65
 73
     4
 40
5.5
 49
4.0
 74
     0
 49
-0.6
 74
     0
 49
0.3
 74
     0
 49
-0.6
 74
     0
  0
LTYPE
  5
12A4
330
25
100
AcDbSymbolTableRecord
100
AcDbLinetypeTableRecord
  2
PHANTOM2
 70
     0
  3
Phantom (.5x) ___ _ _ ___ _ _ ___ _ _ ___ _ _
 72
    65
 73
     6
 40
31.75
 49
15.875
 74
     0
 49
-3.174999999999998
 74
     0
 49
3.174999999999998
 74
     0
 49
-3.174999999999998
 74
     0
 49
3.174999999999998
 74
     0
 49
-3.174999999999998
 74
     0
  0
LTYPE
  5
12A5
330
25
100
AcDbSymbolTableRecord
100
AcDbLinetypeTableRecord
  2
CENTER
 70
     0
  3
Center ____ _ ____ _ ____ _ ____ _ ____ _ ____
 72
    65
 73
     4
 40
50.8
 49
31.75
 74
     0
 49
-6.349999999999997
 74
     0
 49
6.349999999999997
 74
     0
 49
-6.349999999999997
 74
     0
  0
LTYPE
  5
12F3
330
25
100
AcDbSymbolTableRecord
100
AcDbLinetypeTableRecord
  2
ASULTYPE
 70
     0
  3
実線
 72
    65
 73
     2
 40
3.0
 49
2.5
 74
     0
 49
0.5
 74
     0
  0
LTYPE
  5
12F4
330
25
100
AcDbSymbolTableRecord
100
AcDbLinetypeTableRecord
  2
ASVLTYPE
 70
     0
  3
__ __ __ __ __ __ __ __ __ __ __ __ __ __ __ __ __ __ __ __ __
 72
    65
 73
     2
 40
0.75
 49
0.5
 74
     0
 49
-0.25
 74
     0
  0
LTYPE
  5
1348
330
25
100
AcDbSymbolTableRecord
100
AcDbLinetypeTableRecord
  2
ACISOWELD
 70
     0
  3
_ _ _ _ _
 72
    65
 73
     2
 40
2.0
 49
2.0
 74
     0
 49
-1.0
 74
     0
  0
LTYPE
  5
1349
330
25
100
AcDbSymbolTableRecord
100
AcDbLinetypeTableRecord
  2
ACISOTGB
 70
     0
  3
__ . . __ . .
 72
    65
 73
     6
 40
9.0
 49
4.0
 74
     0
 49
-1.0
 74
     0
 49
1.0
 74
     0
 49
-1.0
 74
     0
 49
1.0
 74
     0
 49
-1.0
 74
     0
  0
LTYPE
  5
134A
330
25
100
AcDbSymbolTableRecord
100
AcDbLinetypeTableRecord
  2
ACISOTGL
 70
     0
  3
_ _ _ _ _
 72
    65
 73
     2
 40
3.0
 49
2.0
 74
     0
 49
-1.0
 74
     0
  0
LTYPE
  5
1B5C
330
25
100
AcDbSymbolTableRecord
100
AcDbLinetypeTableRecord
  2
DASHED
 70
     0
  3
Dashed __ __ __ __ __ __ __ __ __ __ __ __ __ _
 72
    65
 73
     2
 40
0.75
 49
0.5
 74
     0
 49
-0.25
 74
     0
  0
ENDTAB
  0
TABLE
  2
LAYER
  5
1F
102
{ACAD_XDICTIONARY
360
20
102
}
330
0
100
AcDbSymbolTable
 70
     8
  0
LAYER
  5
5
102
{ACAD_XDICTIONARY
360
6
102
}
330
1F
100
AcDbSymbolTableRecord
100
AcDbLayerTableRecord
  2
0
 70
     0
 62
     7
  6
CONTINUOUS
370
    -3
390
8
  0
LAYER
  5
B88
330
1F
100
AcDbSymbolTableRecord
100
AcDbLayerTableRecord
  2
Defpoints
 70
     0
 62
     7
  6
CONTINUOUS
290
     0
370
    -3
390
8
  0
LAYER
  5
CB6
102
{ACAD_XDICTIONARY
360
CB7
102
}
330
1F
100
AcDbSymbolTableRecord
100
AcDbLayerTableRecord
  2
SIZE
 70
     0
 62
    30
  6
CONTINUOUS
370
    -3
390
8
  0
LAYER
  5
CB8
102
{ACAD_XDICTIONARY
360
CB9
102
}
330
1F
100
AcDbSymbolTableRecord
100
AcDbLayerTableRecord
  2
OUTLINE
 70
     0
 62
     3
  6
CONTINUOUS
370
    -3
390
8
  0
LAYER
  5
CBC
102
{ACAD_XDICTIONARY
360
CBD
102
}
330
1F
100
AcDbSymbolTableRecord
100
AcDbLayerTableRecord
  2
BASIS
 70
     0
 62
     6
  6
DASHDOT
370
    -3
390
8
  0
LAYER
  5
CBE
102
{ACAD_XDICTIONARY
360
CBF
102
}
330
1F
100
AcDbSymbolTableRecord
100
AcDbLayerTableRecord
  2
NOTE
 70
     0
 62
     4
  6
CONTINUOUS
370
    -3
390
8
  0
LAYER
  5
CC0
102
{ACAD_XDICTIONARY
360
CC1
102
}
330
1F
100
AcDbSymbolTableRecord
100
AcDbLayerTableRecord
  2
ARRANGE
 70
     0
 62
     1
  6
CONTINUOUS
370
    -3
390
8
  0
LAYER
  5
CC2
102
{ACAD_XDICTIONARY
360
CC3
102
}
330
1F
100
AcDbSymbolTableRecord
100
AcDbLayerTableRecord
  2
ETC
 70
     0
 62
    61
  6
CONTINUOUS
370
    -3
390
8
  0
ENDTAB
  0
TABLE
  2
STYLE
  5
22
330
0
100
AcDbSymbolTable
 70
     4
  0
STYLE
  5
23
330
22
100
AcDbSymbolTableRecord
100
AcDbTextStyleTableRecord
  2
STANDARD
 70
     0
 40
0.0
 41
1.0
 50
0.0
 71
     0
 42
62.5215949741746
  3
romans.shx
  4
extfont.shx
  0
STYLE
  5
CC4
330
22
100
AcDbSymbolTableRecord
100
AcDbTextStyleTableRecord
  2
STANDARD1
 70
     0
 40
0.0
 41
1.0
 50
0.0
 71
     0
 42
3.5
  3
MONOTXT
  4
BIGFONT
  0
STYLE
  5
1338
330
22
100
AcDbSymbolTableRecord
100
AcDbTextStyleTableRecord
  2
ACISOTS
 70
     0
 40
1.0
 41
1.0
 50
0.0
 71
     0
 42
62.5215949741746
  3
isocp.shx
  4
extfont.shx
  0
STYLE
  5
1347
330
22
100
AcDbSymbolTableRecord
100
AcDbTextStyleTableRecord
  2
ACISOGDT
 70
     0
 40
0.0
 41
1.0
 50
0.0
 71
     0
 42
62.5215949741746
  3
amgdt.shx
  4

  0
ENDTAB
  0
TABLE
  2
VIEW
  5
28
330
0
100
AcDbSymbolTable
 70
     0
  0
ENDTAB
  0
TABLE
  2
UCS
  5
29
330
0
100
AcDbSymbolTable
 70
     0
  0
ENDTAB
  0
TABLE
  2
APPID
  5
2E
330
0
100
AcDbSymbolTable
 70
    24
  0
APPID
  5
2F
330
2E
100
AcDbSymbolTableRecord
100
AcDbRegAppTableRecord
  2
ACAD
 70
     0
  0
APPID
  5
38
330
2E
100
AcDbSymbolTableRecord
100
AcDbRegAppTableRecord
  2
ACAD_DSTYLE_DIMJOGGED_JOGANGLE_SYMBOL
 70
     0
  0
APPID
  5
7C
330
2E
100
AcDbSymbolTableRecord
100
AcDbRegAppTableRecord
  2
AcAecLayerStandard
 70
     0
  0
APPID
  5
1E
330
2E
100
AcDbSymbolTableRecord
100
AcDbRegAppTableRecord
  2
ACAD_PSEXT
 70
     0
  0
APPID
  5
AFF
330
2E
100
AcDbSymbolTableRecord
100
AcDbRegAppTableRecord
  2
ACATTRIBSERVICES
 70
     0
  0
APPID
  5
B18
330
2E
100
AcDbSymbolTableRecord
100
AcDbRegAppTableRecord
  2
ACAD_MLEADERVER
 70
     0
  0
APPID
  5
B21
330
2E
100
AcDbSymbolTableRecord
100
AcDbRegAppTableRecord
  2
ACAD_EXEMPT_FROM_CAD_STANDARDS
 70
     0
  0
APPID
  5
B5E
330
2E
100
AcDbSymbolTableRecord
100
AcDbRegAppTableRecord
  2
ACAD_DSTYLE_DIMJAG
 70
     0
  0
APPID
  5
B5F
330
2E
100
AcDbSymbolTableRecord
100
AcDbRegAppTableRecord
  2
ACAD_DSTYLE_DIMTALN
 70
     0
  0
APPID
  5
B6F
330
2E
100
AcDbSymbolTableRecord
100
AcDbRegAppTableRecord
  2
ACAD_DSTYLE_DIMEXT_LENGTH
 70
     0
  0
APPID
  5
1270
330
2E
100
AcDbSymbolTableRecord
100
AcDbRegAppTableRecord
  2
GENIUS_GENDIM_13
 70
     0
  0
APPID
  5
1271
330
2E
100
AcDbSymbolTableRecord
100
AcDbRegAppTableRecord
  2
GENIUS_GENDTOL_13
 70
     0
  0
APPID
  5
1272
330
2E
100
AcDbSymbolTableRecord
100
AcDbRegAppTableRecord
  2
GENIUS_GE3DTOL_13
 70
     0
  0
APPID
  5
1275
330
2E
100
AcDbSymbolTableRecord
100
AcDbRegAppTableRecord
  2
MCAD_NO_VIS
 70
     0
  0
APPID
  5
1276
330
2E
100
AcDbSymbolTableRecord
100
AcDbRegAppTableRecord
  2
ACAD_TEMP_GRAPHIC
 70
     0
  0
APPID
  5
12A7
330
2E
100
AcDbSymbolTableRecord
100
AcDbRegAppTableRecord
  2
AD_DRAW
 70
     0
  0
APPID
  5
12F5
330
2E
100
AcDbSymbolTableRecord
100
AcDbRegAppTableRecord
  2
ASURF_PCURVE_APPNAME
 70
     0
  0
APPID
  5
12FA
330
2E
100
AcDbSymbolTableRecord
100
AcDbRegAppTableRecord
  2
AMG_3D2D_5.0
 70
     0
  0
APPID
  5
132B
330
2E
100
AcDbSymbolTableRecord
100
AcDbRegAppTableRecord
  2
DESIGNERASSEMBLIES
 70
     0
  0
APPID
  5
132F
330
2E
100
AcDbSymbolTableRecord
100
AcDbRegAppTableRecord
  2
ACADM_DIM_EDIT
 70
     0
  0
APPID
  5
1330
330
2E
100
AcDbSymbolTableRecord
100
AcDbRegAppTableRecord
  2
AMDT_DM_ADJ
 70
     0
  0
APPID
  5
15D5
330
2E
100
AcDbSymbolTableRecord
100
AcDbRegAppTableRecord
  2
ACAD_DSTYLE_DIMRADIAL_EXTENSION
 70
     0
  0
APPID
  5
1668
330
2E
100
AcDbSymbolTableRecord
100
AcDbRegAppTableRecord
  2
ACAD_DSTYLE_DIMINSPECT
 70
     0
  0
APPID
  5
16AA
330
2E
100
AcDbSymbolTableRecord
100
AcDbRegAppTableRecord
  2
ACAD_DSTYLE_DIMARC_LENGTH_SYMBOL
 70
     0
  0
ENDTAB
  0
TABLE
  2
DIMSTYLE
  5
30
330
0
100
AcDbSymbolTable
 70
    10
100
AcDbDimStyleTable
 71
     3
340
31
340
136E
340
1355
  0
DIMSTYLE
105
31
102
{ACAD_REACTORS
330
2729
330
2736
330
2745
330
2752
330
275F
330
276C
330
2779
330
2786
330
2793
102
}
330
30
100
AcDbSymbolTableRecord
100
AcDbDimStyleTableRecord
  2
STANDARD
 70
     0
 40
0.0
 41
2.0
 42
1.0
 43
3.75
 44
1.0
 73
     0
 74
     0
 77
     1
 78
     8
140
2.0
141
2.5
143
0.0394
147
1.0
171
     4
172
     1
173
     1
271
     0
272
     0
273
     8
274
     4
284
     8
340
23
341
32
343
32
344
32
1001
ACAD_DSTYLE_DIMEXT_LENGTH
1070
   378
1040
15.0
1001
ACAD_DSTYLE_DIMJOGGED_JOGANGLE_SYMBOL
1070
   384
1040
1.570796326794896
  0
DIMSTYLE
105
1355
330
30
100
AcDbSymbolTableRecord
100
AcDbDimStyleTableRecord
  2
AM_ISO
 70
     0
  4
"
 41
2.5
 42
1.0
 43
10.0
 44
1.0
 47
0.1
 48
0.1
 73
     0
 74
     0
 77
     1
 78
     8
 79
     2
140
3.5
141
0.0
143
0.0393701
146
0.71
147
1.5
172
     1
176
   256
177
   256
178
     2
271
     2
272
     3
274
     4
283
     0
284
     8
340
23
371
    -1
372
    -1
1001
ACAD_DSTYLE_DIMARC_LENGTH_SYMBOL
1070
   379
1070
     1
  0
DIMSTYLE
105
1356
330
30
100
AcDbSymbolTableRecord
100
AcDbDimStyleTableRecord
  2
AM_ISO$3
 70
     0
  4
"
 41
2.5
 42
1.0
 43
10.0
 44
1.0
 47
0.1
 48
0.1
 73
     0
 77
     1
 78
     8
 79
     2
140
3.5
141
0.0
143
0.0393701
146
0.71
147
1.5
176
   256
177
   256
178
     2
271
     2
272
     3
274
     4
283
     0
284
     8
288
     1
289
     0
340
23
371
    -1
372
    -1
1001
ACAD_DSTYLE_DIMARC_LENGTH_SYMBOL
1070
   379
1070
     1
  0
DIMSTYLE
105
1357
330
30
100
AcDbSymbolTableRecord
100
AcDbDimStyleTableRecord
  2
AM_ISO$4
 70
     0
  4
"
 41
2.5
 42
1.0
 43
10.0
 44
1.0
 47
0.1
 48
0.1
 73
     0
 77
     1
 78
     8
 79
     2
140
3.5
141
0.0
143
0.0393701
146
0.71
147
1.5
176
   256
177
   256
178
     2
271
     2
272
     3
274
     4
283
     0
284
     8
288
     1
289
     0
340
23
371
    -1
372
    -1
1001
ACAD_DSTYLE_DIMARC_LENGTH_SYMBOL
1070
   379
1070
     1
  0
DIMSTYLE
105
1358
330
30
100
AcDbSymbolTableRecord
100
AcDbDimStyleTableRecord
  2
AM_ISO$6
 70
     0
  4
"
 41
2.5
 42
1.0
 43
10.0
 44
1.0
 47
0.1
 48
0.1
 73
     0
 74
     0
 78
     8
 79
     2
140
3.5
141
0.0
143
0.0393701
146
0.71
147
1.5
172
     1
176
   256
177
   256
178
     2
271
     2
272
     3
274
     4
283
     0
284
     8
340
23
371
    -1
372
    -1
1001
ACAD_DSTYLE_DIMARC_LENGTH_SYMBOL
1070
   379
1070
     1
  0
DIMSTYLE
105
1359
330
30
100
AcDbSymbolTableRecord
100
AcDbDimStyleTableRecord
  2
AM_ISO$7
 70
     0
  4
"
 41
2.5
 42
1.0
 43
10.0
 44
1.0
 47
0.1
 48
0.1
 73
     0
 74
     0
 77
     1
 78
     8
 79
     2
140
5.0
141
0.0
143
0.0393701
146
0.71
147
1.5
172
     1
176
   256
177
   256
178
     2
271
     2
272
     3
274
     4
283
     0
284
     8
340
23
371
    -1
372
    -1
1001
ACAD_DSTYLE_DIMARC_LENGTH_SYMBOL
1070
   379
1070
     1
  0
DIMSTYLE
105
135A
330
30
100
AcDbSymbolTableRecord
100
AcDbDimStyleTableRecord
  2
AM_ISO$SF
 70
     0
  4
"
 41
2.5
 42
1.0
 43
10.0
 44
1.0
 47
0.1
 48
0.1
 73
     0
 74
     0
 75
     1
 76
     1
 77
     1
 78
     8
 79
     2
140
3.5
141
0.0
143
0.0393701
146
0.71
147
1.5
172
     1
176
   256
177
   256
178
     2
271
     2
272
     3
274
     4
283
     0
284
     8
340
23
371
    -1
372
    -1
1001
ACAD_DSTYLE_DIMARC_LENGTH_SYMBOL
1070
   379
1070
     1
  0
DIMSTYLE
105
135F
330
30
100
AcDbSymbolTableRecord
100
AcDbDimStyleTableRecord
  2
AM_ISO$SH
 70
     0
  4
"
 41
2.5
 42
1.0
 43
10.0
 44
1.0
 47
0.1
 48
0.1
 73
     0
 74
     0
 75
     1
 76
     1
 77
     1
 78
     8
 79
     2
140
3.5
141
0.0
143
0.0393701
144
2.0
146
0.71
147
1.5
172
     1
173
     1
176
   256
177
   256
178
     2
271
     2
272
     3
274
     4
283
     0
284
     8
340
23
343
135B
371
    -1
372
    -1
1001
ACAD_DSTYLE_DIMARC_LENGTH_SYMBOL
1070
   379
1070
     1
  0
DIMSTYLE
105
136E
330
30
100
AcDbSymbolTableRecord
100
AcDbDimStyleTableRecord
  2
STANDARD1
 70
     0
 40
10.0
 41
2.0
 42
0.625
 43
3.75
 44
1.25
 77
     1
 78
     8
140
2.0
141
0.0
147
1.0
173
     1
284
     8
340
23
341
32
343
32
344
32
1001
ACAD_DSTYLE_DIMJAG
1070
   388
1040
1.5
1001
ACAD_DSTYLE_DIMTALN
1070
   392
1070
     0
  0
DIMSTYLE
105
136F
330
30
100
AcDbSymbolTableRecord
100
AcDbDimStyleTableRecord
  2
AM_JIS
 70
     0
  4
"
 40
10.0
 41
2.5
 42
1.0
 43
10.0
 44
1.0
 47
0.1
 48
0.1
 73
     0
 74
     0
 77
     3
 78
     8
 79
     2
140
3.5
141
0.0
143
0.0393701
146
0.71
147
1.5
172
     1
176
   256
177
   256
178
     2
271
     2
272
     3
274
     4
283
     0
284
     8
340
23
341
32
342
32
343
32
344
32
371
    -1
372
    -1
1001
ACAD_DSTYLE_DIMJOGGED_JOGANGLE_SYMBOL
1070
   384
1040
0.7853981633974483
1001
ACAD_DSTYLE_DIMARC_LENGTH_SYMBOL
1070
   379
1070
     1
  0
ENDTAB
  0
TABLE
  2
BLOCK_RECORD
  5
1
330
0
100
AcDbSymbolTable
 70
    40
  0
BLOCK_RECORD
  5
2
102
{ACAD_XDICTIONARY
360
3
102
}
330
1
100
AcDbSymbolTableRecord
100
AcDbBlockTableRecord
  2
*MODEL_SPACE
340
16
  0
BLOCK_RECORD
  5
18
330
1
100
AcDbSymbolTableRecord
100
AcDbBlockTableRecord
  2
*Paper_Space
340
1B
  0
BLOCK_RECORD
  5
32
330
1
100
AcDbSymbolTableRecord
100
AcDbBlockTableRecord
  2
_OPEN30
340
0
102
{BLKREFS
331
1218
331
1219
331
1221
331
1222
331
122A
331
122B
331
1233
331
1234
331
123C
331
123D
331
1245
331
1246
331
124E
331
124F
331
1566
331
1567
331
1573
331
1574
331
1580
331
1581
331
15BD
331
15BE
331
15C6
331
15C7
331
15CF
331
15D0
331
1690
331
1EAC
331
1EAD
331
1EB9
331
1EBA
331
2125
331
2126
331
2287
331
2288
331
2290
331
2291
331
2299
331
229A
331
22A2
331
22A3
331
22AB
331
22AC
331
22B6
331
22B7
331
22BF
331
22C0
331
22C8
331
22C9
331
22D1
331
22D2
331
2730
331
2731
331
273F
331
2740
331
274C
331
274D
331
2759
331
275A
331
2766
331
2767
331
2773
331
2774
331
2780
331
2781
331
278D
331
278E
331
279A
331
279B
102
}
  0
BLOCK_RECORD
  5
B89
330
1
100
AcDbSymbolTableRecord
100
AcDbBlockTableRecord
  2
*D1
340
0
  0
BLOCK_RECORD
  5
B96
330
1
100
AcDbSymbolTableRecord
100
AcDbBlockTableRecord
  2
*D2
340
0
  0
BLOCK_RECORD
  5
BA3
330
1
100
AcDbSymbolTableRecord
100
AcDbBlockTableRecord
  2
*D3
340
0
  0
BLOCK_RECORD
  5
BB0
330
1
100
AcDbSymbolTableRecord
100
AcDbBlockTableRecord
  2
*D4
340
0
  0
BLOCK_RECORD
  5
BCF
330
1
100
AcDbSymbolTableRecord
100
AcDbBlockTableRecord
  2
*D5
340
0
  0
BLOCK_RECORD
  5
BF9
330
1
100
AcDbSymbolTableRecord
100
AcDbBlockTableRecord
  2
*D6
340
0
  0
BLOCK_RECORD
  5
C06
330
1
100
AcDbSymbolTableRecord
100
AcDbBlockTableRecord
  2
*D7
340
0
  0
BLOCK_RECORD
  5
CB0
330
1
100
AcDbSymbolTableRecord
100
AcDbBlockTableRecord
  2
_DOTBLANK
340
0
  0
BLOCK_RECORD
  5
135B
330
1
100
AcDbSymbolTableRecord
100
AcDbBlockTableRecord
  2
GENAXEH
340
0
  0
BLOCK_RECORD
  5
1560
330
1
100
AcDbSymbolTableRecord
100
AcDbBlockTableRecord
  2
*D10
340
0
  0
BLOCK_RECORD
  5
156D
330
1
100
AcDbSymbolTableRecord
100
AcDbBlockTableRecord
  2
*D11
340
0
  0
BLOCK_RECORD
  5
157A
330
1
100
AcDbSymbolTableRecord
100
AcDbBlockTableRecord
  2
*D12
340
0
  0
BLOCK_RECORD
  5
1587
330
1
100
AcDbSymbolTableRecord
100
AcDbBlockTableRecord
  2
*D13
340
0
  0
BLOCK_RECORD
  5
1594
330
1
100
AcDbSymbolTableRecord
100
AcDbBlockTableRecord
  2
*D14
340
0
  0
BLOCK_RECORD
  5
15A1
330
1
100
AcDbSymbolTableRecord
100
AcDbBlockTableRecord
  2
*D15
340
0
  0
BLOCK_RECORD
  5
15AE
330
1
100
AcDbSymbolTableRecord
100
AcDbBlockTableRecord
  2
*D16
340
0
  0
BLOCK_RECORD
  5
15D7
330
1
100
AcDbSymbolTableRecord
100
AcDbBlockTableRecord
  2
*D17
340
0
  0
BLOCK_RECORD
  5
160A
330
1
100
AcDbSymbolTableRecord
100
AcDbBlockTableRecord
  2
*D18
340
0
  0
BLOCK_RECORD
  5
1E8E
330
1
100
AcDbSymbolTableRecord
100
AcDbBlockTableRecord
  2
*D19
340
0
  0
BLOCK_RECORD
  5
1EB3
330
1
100
AcDbSymbolTableRecord
100
AcDbBlockTableRecord
  2
*D20
340
0
  0
BLOCK_RECORD
  5
1EC2
330
1
100
AcDbSymbolTableRecord
100
AcDbBlockTableRecord
  2
*D21
340
0
  0
BLOCK_RECORD
  5
1ECF
330
1
100
AcDbSymbolTableRecord
100
AcDbBlockTableRecord
  2
*D22
340
0
  0
BLOCK_RECORD
  5
1EDC
330
1
100
AcDbSymbolTableRecord
100
AcDbBlockTableRecord
  2
*D23
340
0
  0
BLOCK_RECORD
  5
1EE9
330
1
100
AcDbSymbolTableRecord
100
AcDbBlockTableRecord
  2
*D24
340
0
  0
BLOCK_RECORD
  5
201B
330
1
100
AcDbSymbolTableRecord
100
AcDbBlockTableRecord
  2
*D25
340
0
  0
BLOCK_RECORD
  5
211F
330
1
100
AcDbSymbolTableRecord
100
AcDbBlockTableRecord
  2
*D26
340
0
  0
BLOCK_RECORD
  5
214B
330
1
100
AcDbSymbolTableRecord
100
AcDbBlockTableRecord
  2
*D27
340
0
  0
BLOCK_RECORD
  5
2158
330
1
100
AcDbSymbolTableRecord
100
AcDbBlockTableRecord
  2
*D28
340
0
  0
BLOCK_RECORD
  5
216A
330
1
100
AcDbSymbolTableRecord
100
AcDbBlockTableRecord
  2
*D29
340
0
  0
BLOCK_RECORD
  5
272A
330
1
100
AcDbSymbolTableRecord
100
AcDbBlockTableRecord
  2
*D30
340
0
  0
BLOCK_RECORD
  5
2737
330
1
100
AcDbSymbolTableRecord
100
AcDbBlockTableRecord
  2
*D31
340
0
  0
BLOCK_RECORD
  5
2746
330
1
100
AcDbSymbolTableRecord
100
AcDbBlockTableRecord
  2
*D32
340
0
  0
BLOCK_RECORD
  5
2753
330
1
100
AcDbSymbolTableRecord
100
AcDbBlockTableRecord
  2
*D33
340
0
  0
BLOCK_RECORD
  5
2760
330
1
100
AcDbSymbolTableRecord
100
AcDbBlockTableRecord
  2
*D34
340
0
  0
BLOCK_RECORD
  5
276D
330
1
100
AcDbSymbolTableRecord
100
AcDbBlockTableRecord
  2
*D35
340
0
  0
BLOCK_RECORD
  5
277A
330
1
100
AcDbSymbolTableRecord
100
AcDbBlockTableRecord
  2
*D36
340
0
  0
BLOCK_RECORD
  5
2787
330
1
100
AcDbSymbolTableRecord
100
AcDbBlockTableRecord
  2
*D37
340
0
  0
BLOCK_RECORD
  5
2794
330
1
100
AcDbSymbolTableRecord
100
AcDbBlockTableRecord
  2
*D38
340
0
  0
ENDTAB
  0
ENDSEC
  0
SECTION
  2
BLOCKS
  0
BLOCK
  5
4
330
2
100
AcDbEntity
  8
0
100
AcDbBlockBegin
  2
*MODEL_SPACE
 70
     0
 10
0.0
 20
0.0
 30
0.0
  3
*MODEL_SPACE
  1

  0
ENDBLK
  5
15
330
2
100
AcDbEntity
  8
0
100
AcDbBlockEnd
  0
BLOCK
  5
19
330
18
100
AcDbEntity
 67
     1
  8
0
100
AcDbBlockBegin
  2
*Paper_Space
 70
     0
 10
0.0
 20
0.0
 30
0.0
  3
*Paper_Space
  1

  0
ENDBLK
  5
1A
330
18
100
AcDbEntity
 67
     1
  8
0
100
AcDbBlockEnd
  0
BLOCK
  5
33
330
32
100
AcDbEntity
  8
0
100
AcDbBlockBegin
  2
_OPEN30
 70
     0
 10
0.0
 20
0.0
 30
0.0
  3
_OPEN30
  1

  0
LINE
  5
34
330
32
100
AcDbEntity
  8
0
  6
ByBlock
 62
     0
100
AcDbLine
 10
-1.0
 20
0.26794919
 30
0.0
 11
0.0
 21
0.0
 31
0.0
  0
LINE
  5
35
330
32
100
AcDbEntity
  8
0
  6
ByBlock
 62
     0
100
AcDbLine
 10
0.0
 20
0.0
 30
0.0
 11
-1.0
 21
-0.26794919
 31
0.0
  0
LINE
  5
36
330
32
100
AcDbEntity
  8
0
  6
ByBlock
 62
     0
100
AcDbLine
 10
0.0
 20
0.0
 30
0.0
 11
-1.0
 21
0.0
 31
0.0
  0
ENDBLK
  5
37
330
32
100
AcDbEntity
  8
0
100
AcDbBlockEnd
  0
BLOCK
  5
B93
330
B89
100
AcDbEntity
  8
0
100
AcDbBlockBegin
  2
*D1
 70
     1
 10
0.0
 20
0.0
 30
0.0
  3
*D1
  1

  0
LINE
  5
124B
330
B89
100
AcDbEntity
  8
SIZE
 62
     0
370
    -2
100
AcDbLine
 10
-314.4855110895245
 20
1535.830811506845
 30
0.0
 11
-361.7170233088361
 21
1535.830811506845
 31
0.0
  0
LINE
  5
124C
330
B89
100
AcDbEntity
  8
SIZE
 62
     0
370
    -2
100
AcDbLine
 10
-314.4855110895245
 20
1385.830811506845
 30
0.0
 11
-361.7170233088362
 21
1385.830811506845
 31
0.0
  0
LINE
  5
124D
330
B89
100
AcDbEntity
  8
SIZE
 62
     0
370
    -2
100
AcDbLine
 10
-356.7170233088361
 20
1525.830811506845
 30
0.0
 11
-356.7170233088362
 21
1395.830811506845
 31
0.0
  0
INSERT
  5
124E
330
B89
100
AcDbEntity
  8
SIZE
 62
     0
370
    -2
100
AcDbBlockReference
  2
_OPEN30
 10
-356.7170233088361
 20
1535.830811506845
 30
0.0
 41
10.0
 42
10.0
 43
10.0
 50
90.0
  0
INSERT
  5
124F
330
B89
100
AcDbEntity
  8
SIZE
 62
     0
370
    -2
100
AcDbBlockReference
  2
_OPEN30
 10
-356.7170233088362
 20
1385.830811506845
 30
0.0
 41
10.0
 42
10.0
 43
10.0
 50
270.0
  0
MTEXT
  5
1250
330
B89
100
AcDbEntity
  8
SIZE
 62
     0
100
AcDbMText
 10
-366.7170233088364
 20
1460.830811506845
 30
0.0
 40
10.0
 41
0.0
 71
     5
 72
     1
  1
\A1;150
 11
0.0000000000000001
 21
1.0
 31
0.0
 73
     1
 44
1.0
1001
ACAD
1000
MTEXTBEGIN
1070
    73
1070
     1
1070
    44
1040
1.0
1070
    74
1070
     0
1000
MTEXTEND
  0
POINT
  5
1251
330
B89
100
AcDbEntity
  8
Defpoints
 62
     0
100
AcDbPoint
 10
-309.4855110895245
 20
1535.830811506845
 30
0.0
  0
POINT
  5
1252
330
B89
100
AcDbEntity
  8
Defpoints
 62
     0
100
AcDbPoint
 10
-309.4855110895245
 20
1385.830811506845
 30
0.0
  0
POINT
  5
1253
330
B89
100
AcDbEntity
  8
Defpoints
 62
     0
100
AcDbPoint
 10
-356.7170233088362
 20
1385.830811506845
 30
0.0
  0
ENDBLK
  5
B94
330
B89
100
AcDbEntity
  8
0
100
AcDbBlockEnd
  0
BLOCK
  5
BA0
330
B96
100
AcDbEntity
  8
0
100
AcDbBlockBegin
  2
*D2
 70
     1
 10
0.0
 20
0.0
 30
0.0
  3
*D2
  1

  0
LINE
  5
1242
330
B96
100
AcDbEntity
  8
SIZE
 62
     0
370
    -2
100
AcDbLine
 10
-314.4855110895245
 20
1385.830811506845
 30
0.0
 11
-361.388124300869
 21
1385.830811506845
 31
0.0
  0
LINE
  5
1243
330
B96
100
AcDbEntity
  8
SIZE
 62
     0
370
    -2
100
AcDbLine
 10
-314.4855110895245
 20
1235.830811506845
 30
0.0
 11
-361.388124300869
 21
1235.830811506845
 31
0.0
  0
LINE
  5
1244
330
B96
100
AcDbEntity
  8
SIZE
 62
     0
370
    -2
100
AcDbLine
 10
-356.388124300869
 20
1375.830811506845
 30
0.0
 11
-356.388124300869
 21
1245.830811506845
 31
0.0
  0
INSERT
  5
1245
330
B96
100
AcDbEntity
  8
SIZE
 62
     0
370
    -2
100
AcDbBlockReference
  2
_OPEN30
 10
-356.388124300869
 20
1385.830811506845
 30
0.0
 41
10.0
 42
10.0
 43
10.0
 50
90.0
  0
INSERT
  5
1246
330
B96
100
AcDbEntity
  8
SIZE
 62
     0
370
    -2
100
AcDbBlockReference
  2
_OPEN30
 10
-356.388124300869
 20
1235.830811506845
 30
0.0
 41
10.0
 42
10.0
 43
10.0
 50
270.0
  0
MTEXT
  5
1247
330
B96
100
AcDbEntity
  8
SIZE
 62
     0
100
AcDbMText
 10
-366.3881243008692
 20
1310.830811506845
 30
0.0
 40
10.0
 41
0.0
 71
     5
 72
     1
  1
\A1;150
 11
0.0000000000000001
 21
1.0
 31
0.0
 73
     1
 44
1.0
1001
ACAD
1000
MTEXTBEGIN
1070
    73
1070
     1
1070
    44
1040
1.0
1070
    74
1070
     0
1000
MTEXTEND
  0
POINT
  5
1248
330
B96
100
AcDbEntity
  8
Defpoints
 62
     0
100
AcDbPoint
 10
-309.4855110895245
 20
1385.830811506845
 30
0.0
  0
POINT
  5
1249
330
B96
100
AcDbEntity
  8
Defpoints
 62
     0
100
AcDbPoint
 10
-309.4855110895245
 20
1235.830811506845
 30
0.0
  0
POINT
  5
124A
330
B96
100
AcDbEntity
  8
Defpoints
 62
     0
100
AcDbPoint
 10
-356.388124300869
 20
1235.830811506845
 30
0.0
  0
ENDBLK
  5
BA1
330
B96
100
AcDbEntity
  8
0
100
AcDbBlockEnd
  0
BLOCK
  5
BAD
330
BA3
100
AcDbEntity
  8
0
100
AcDbBlockBegin
  2
*D3
 70
     1
 10
0.0
 20
0.0
 30
0.0
  3
*D3
  1

  0
LINE
  5
1239
330
BA3
100
AcDbEntity
  8
SIZE
 62
     0
370
    -2
100
AcDbLine
 10
-314.4855110895245
 20
1235.830811506845
 30
0.0
 11
-361.2300528975047
 21
1235.830811506845
 31
0.0
  0
LINE
  5
123A
330
BA3
100
AcDbEntity
  8
SIZE
 62
     0
370
    -2
100
AcDbLine
 10
-314.4855110895245
 20
1085.830811506845
 30
0.0
 11
-361.2300528975047
 21
1085.830811506845
 31
0.0
  0
LINE
  5
123B
330
BA3
100
AcDbEntity
  8
SIZE
 62
     0
370
    -2
100
AcDbLine
 10
-356.2300528975047
 20
1225.830811506845
 30
0.0
 11
-356.2300528975047
 21
1095.830811506845
 31
0.0
  0
INSERT
  5
123C
330
BA3
100
AcDbEntity
  8
SIZE
 62
     0
370
    -2
100
AcDbBlockReference
  2
_OPEN30
 10
-356.2300528975047
 20
1235.830811506845
 30
0.0
 41
10.0
 42
10.0
 43
10.0
 50
90.0
  0
INSERT
  5
123D
330
BA3
100
AcDbEntity
  8
SIZE
 62
     0
370
    -2
100
AcDbBlockReference
  2
_OPEN30
 10
-356.2300528975047
 20
1085.830811506845
 30
0.0
 41
10.0
 42
10.0
 43
10.0
 50
270.0
  0
MTEXT
  5
123E
330
BA3
100
AcDbEntity
  8
SIZE
 62
     0
100
AcDbMText
 10
-366.2300528975048
 20
1160.830811506845
 30
0.0
 40
10.0
 41
0.0
 71
     5
 72
     1
  1
\A1;150
 11
0.0000000000000001
 21
1.0
 31
0.0
 73
     1
 44
1.0
1001
ACAD
1000
MTEXTBEGIN
1070
    73
1070
     1
1070
    44
1040
1.0
1070
    74
1070
     0
1000
MTEXTEND
  0
POINT
  5
123F
330
BA3
100
AcDbEntity
  8
Defpoints
 62
     0
100
AcDbPoint
 10
-309.4855110895245
 20
1235.830811506845
 30
0.0
  0
POINT
  5
1240
330
BA3
100
AcDbEntity
  8
Defpoints
 62
     0
100
AcDbPoint
 10
-309.4855110895245
 20
1085.830811506845
 30
0.0
  0
POINT
  5
1241
330
BA3
100
AcDbEntity
  8
Defpoints
 62
     0
100
AcDbPoint
 10
-356.2300528975047
 20
1085.830811506845
 30
0.0
  0
ENDBLK
  5
BAE
330
BA3
100
AcDbEntity
  8
0
100
AcDbBlockEnd
  0
BLOCK
  5
BBA
330
BB0
100
AcDbEntity
  8
0
100
AcDbBlockBegin
  2
*D4
 70
     1
 10
0.0
 20
0.0
 30
0.0
  3
*D4
  1

  0
LINE
  5
1230
330
BB0
100
AcDbEntity
  8
SIZE
 62
     0
370
    -2
100
AcDbLine
 10
-314.4855110895245
 20
1085.830811506845
 30
0.0
 11
-361.4686313380586
 21
1085.830811506845
 31
0.0
  0
LINE
  5
1231
330
BB0
100
AcDbEntity
  8
SIZE
 62
     0
370
    -2
100
AcDbLine
 10
-314.4855110895245
 20
935.8308115068448
 30
0.0
 11
-361.4686313380586
 21
935.8308115068448
 31
0.0
  0
LINE
  5
1232
330
BB0
100
AcDbEntity
  8
SIZE
 62
     0
370
    -2
100
AcDbLine
 10
-356.4686313380586
 20
1075.830811506845
 30
0.0
 11
-356.4686313380586
 21
945.8308115068447
 31
0.0
  0
INSERT
  5
1233
330
BB0
100
AcDbEntity
  8
SIZE
 62
     0
370
    -2
100
AcDbBlockReference
  2
_OPEN30
 10
-356.4686313380586
 20
1085.830811506845
 30
0.0
 41
10.0
 42
10.0
 43
10.0
 50
90.0
  0
INSERT
  5
1234
330
BB0
100
AcDbEntity
  8
SIZE
 62
     0
370
    -2
100
AcDbBlockReference
  2
_OPEN30
 10
-356.4686313380586
 20
935.8308115068448
 30
0.0
 41
10.0
 42
10.0
 43
10.0
 50
270.0
  0
MTEXT
  5
1235
330
BB0
100
AcDbEntity
  8
SIZE
 62
     0
100
AcDbMText
 10
-366.4686313380588
 20
1010.830811506845
 30
0.0
 40
10.0
 41
0.0
 71
     5
 72
     1
  1
\A1;150
 11
0.0000000000000001
 21
1.0
 31
0.0
 73
     1
 44
1.0
1001
ACAD
1000
MTEXTBEGIN
1070
    73
1070
     1
1070
    44
1040
1.0
1070
    74
1070
     0
1000
MTEXTEND
  0
POINT
  5
1236
330
BB0
100
AcDbEntity
  8
Defpoints
 62
     0
100
AcDbPoint
 10
-309.4855110895245
 20
1085.830811506845
 30
0.0
  0
POINT
  5
1237
330
BB0
100
AcDbEntity
  8
Defpoints
 62
     0
100
AcDbPoint
 10
-309.4855110895245
 20
935.8308115068448
 30
0.0
  0
POINT
  5
1238
330
BB0
100
AcDbEntity
  8
Defpoints
 62
     0
100
AcDbPoint
 10
-356.4686313380586
 20
935.8308115068448
 30
0.0
  0
ENDBLK
  5
BBB
330
BB0
100
AcDbEntity
  8
0
100
AcDbBlockEnd
  0
BLOCK
  5
BD9
330
BCF
100
AcDbEntity
  8
0
100
AcDbBlockBegin
  2
*D5
 70
     1
 10
0.0
 20
0.0
 30
0.0
  3
*D5
  1

  0
LINE
  5
1227
330
BCF
100
AcDbEntity
  8
SIZE
 62
     0
370
    -2
100
AcDbLine
 10
-243.9855110895382
 20
1616.830811506845
 30
0.0
 11
-410.8898055096611
 21
1616.830811506845
 31
0.0
  0
LINE
  5
1228
330
BCF
100
AcDbEntity
  8
SIZE
 62
     0
370
    -2
100
AcDbLine
 10
-282.4855110895383
 20
854.8308115068449
 30
0.0
 11
-410.8898055096613
 21
854.8308115068449
 31
0.0
  0
LINE
  5
1229
330
BCF
100
AcDbEntity
  8
SIZE
 62
     0
370
    -2
100
AcDbLine
 10
-405.889805509661
 20
1606.830811506845
 30
0.0
 11
-405.889805509661
 21
864.8308115068449
 31
0.0
  0
INSERT
  5
122A
330
BCF
100
AcDbEntity
  8
SIZE
 62
     0
370
    -2
100
AcDbBlockReference
  2
_OPEN30
 10
-405.889805509661
 20
1616.830811506845
 30
0.0
 41
10.0
 42
10.0
 43
10.0
 50
90.0
  0
INSERT
  5
122B
330
BCF
100
AcDbEntity
  8
SIZE
 62
     0
370
    -2
100
AcDbBlockReference
  2
_OPEN30
 10
-405.889805509661
 20
854.8308115068449
 30
0.0
 41
10.0
 42
10.0
 43
10.0
 50
270.0
  0
MTEXT
  5
122C
330
BCF
100
AcDbEntity
  8
SIZE
 62
     0
100
AcDbMText
 10
-415.8898055096614
 20
1235.830811506845
 30
0.0
 40
10.0
 41
0.0
 71
     5
 72
     1
  1
\A1;762
 11
0.0000000000000001
 21
1.0
 31
0.0
 73
     1
 44
1.0
1001
ACAD
1000
MTEXTBEGIN
1070
    73
1070
     1
1070
    44
1040
1.0
1070
    74
1070
     0
1000
MTEXTEND
  0
POINT
  5
122D
330
BCF
100
AcDbEntity
  8
Defpoints
 62
     0
100
AcDbPoint
 10
-238.9855110895382
 20
1616.830811506845
 30
0.0
  0
POINT
  5
122E
330
BCF
100
AcDbEntity
  8
Defpoints
 62
     0
100
AcDbPoint
 10
-277.4855110895383
 20
854.8308115068449
 30
0.0
  0
POINT
  5
122F
330
BCF
100
AcDbEntity
  8
Defpoints
 62
     0
100
AcDbPoint
 10
-405.889805509661
 20
854.8308115068449
 30
0.0
  0
ENDBLK
  5
BDA
330
BCF
100
AcDbEntity
  8
0
100
AcDbBlockEnd
  0
BLOCK
  5
C03
330
BF9
100
AcDbEntity
  8
0
100
AcDbBlockBegin
  2
*D6
 70
     1
 10
0.0
 20
0.0
 30
0.0
  3
*D6
  1

  0
LINE
  5
121E
330
BF9
100
AcDbEntity
  8
SIZE
 62
     0
370
    -2
100
AcDbLine
 10
-325.9855110895246
 20
1573.830811506845
 30
0.0
 11
-325.9855110895246
 21
1706.751057515776
 31
0.0
  0
LINE
  5
121F
330
BF9
100
AcDbEntity
  8
SIZE
 62
     0
370
    -2
100
AcDbLine
 10
586.0144889104623
 20
1573.830811506845
 30
0.0
 11
586.0144889104623
 21
1706.751057515776
 31
0.0
  0
LINE
  5
1220
330
BF9
100
AcDbEntity
  8
SIZE
 62
     0
370
    -2
100
AcDbLine
 10
-315.9855110895246
 20
1701.751057515776
 30
0.0
 11
576.0144889104623
 21
1701.751057515776
 31
0.0
  0
INSERT
  5
1221
330
BF9
100
AcDbEntity
  8
SIZE
 62
     0
370
    -2
100
AcDbBlockReference
  2
_OPEN30
 10
-325.9855110895246
 20
1701.751057515776
 30
0.0
 41
10.0
 42
10.0
 43
10.0
 50
180.0
  0
INSERT
  5
1222
330
BF9
100
AcDbEntity
  8
SIZE
 62
     0
370
    -2
100
AcDbBlockReference
  2
_OPEN30
 10
586.0144889104623
 20
1701.751057515776
 30
0.0
 41
10.0
 42
10.0
 43
10.0
  0
MTEXT
  5
1223
330
BF9
100
AcDbEntity
  8
SIZE
 62
     0
100
AcDbMText
 10
130.0144889104688
 20
1711.751057515776
 30
0.0
 40
10.0
 41
0.0
 71
     5
 72
     1
  1
\A1;912
 73
     1
 44
1.0
1001
ACAD
1000
MTEXTBEGIN
1070
    73
1070
     1
1070
    44
1040
1.0
1070
    74
1070
     0
1000
MTEXTEND
  0
POINT
  5
1224
330
BF9
100
AcDbEntity
  8
Defpoints
 62
     0
100
AcDbPoint
 10
-325.9855110895246
 20
1568.830811506845
 30
0.0
  0
POINT
  5
1225
330
BF9
100
AcDbEntity
  8
Defpoints
 62
     0
100
AcDbPoint
 10
586.0144889104623
 20
1568.830811506845
 30
0.0
  0
POINT
  5
1226
330
BF9
100
AcDbEntity
  8
Defpoints
 62
     0
100
AcDbPoint
 10
586.0144889104623
 20
1701.751057515776
 30
0.0
  0
ENDBLK
  5
C04
330
BF9
100
AcDbEntity
  8
0
100
AcDbBlockEnd
  0
BLOCK
  5
C10
330
C06
100
AcDbEntity
  8
0
100
AcDbBlockBegin
  2
*D7
 70
     1
 10
0.0
 20
0.0
 30
0.0
  3
*D7
  1

  0
LINE
  5
1215
330
C06
100
AcDbEntity
  8
SIZE
 62
     0
370
    -2
100
AcDbLine
 10
-309.4855110895245
 20
1540.830811506845
 30
0.0
 11
-309.4855110895245
 21
1659.422882102099
 31
0.0
  0
LINE
  5
1216
330
C06
100
AcDbEntity
  8
SIZE
 62
     0
370
    -2
100
AcDbLine
 10
569.5144889104623
 20
1540.830811506845
 30
0.0
 11
569.5144889104623
 21
1659.422882102099
 31
0.0
  0
LINE
  5
1217
330
C06
100
AcDbEntity
  8
SIZE
 62
     0
370
    -2
100
AcDbLine
 10
-299.4855110895245
 20
1654.422882102099
 30
0.0
 11
559.5144889104623
 21
1654.422882102099
 31
0.0
  0
INSERT
  5
1218
330
C06
100
AcDbEntity
  8
SIZE
 62
     0
370
    -2
100
AcDbBlockReference
  2
_OPEN30
 10
-309.4855110895245
 20
1654.422882102099
 30
0.0
 41
10.0
 42
10.0
 43
10.0
 50
180.0
  0
INSERT
  5
1219
330
C06
100
AcDbEntity
  8
SIZE
 62
     0
370
    -2
100
AcDbBlockReference
  2
_OPEN30
 10
569.5144889104623
 20
1654.422882102099
 30
0.0
 41
10.0
 42
10.0
 43
10.0
  0
MTEXT
  5
121A
330
C06
100
AcDbEntity
  8
SIZE
 62
     0
100
AcDbMText
 10
130.0144889104689
 20
1664.422882102099
 30
0.0
 40
10.0
 41
0.0
 71
     5
 72
     1
  1
\A1;879
 73
     1
 44
1.0
1001
ACAD
1000
MTEXTBEGIN
1070
    73
1070
     1
1070
    44
1040
1.0
1070
    74
1070
     0
1000
MTEXTEND
  0
POINT
  5
121B
330
C06
100
AcDbEntity
  8
Defpoints
 62
     0
100
AcDbPoint
 10
-309.4855110895245
 20
1535.830811506845
 30
0.0
  0
POINT
  5
121C
330
C06
100
AcDbEntity
  8
Defpoints
 62
     0
100
AcDbPoint
 10
569.5144889104623
 20
1535.830811506845
 30
0.0
  0
POINT
  5
121D
330
C06
100
AcDbEntity
  8
Defpoints
 62
     0
100
AcDbPoint
 10
569.5144889104623
 20
1654.422882102099
 30
0.0
  0
ENDBLK
  5
C11
330
C06
100
AcDbEntity
  8
0
100
AcDbBlockEnd
  0
BLOCK
  5
CB1
330
CB0
100
AcDbEntity
  8
0
100
AcDbBlockBegin
  2
_DOTBLANK
 70
     0
 10
0.0
 20
0.0
 30
0.0
  3
_DOTBLANK
  1

  0
CIRCLE
  5
CB2
330
CB0
100
AcDbEntity
  8
0
  6
Continuous
 62
     7
100
AcDbCircle
 10
0.0
 20
0.0
 30
0.0
 40
0.5
  0
LINE
  5
CB3
330
CB0
100
AcDbEntity
  8
0
  6
Continuous
 62
     7
100
AcDbLine
 10
-0.5
 20
0.0
 30
0.0
 11
-1.0
 21
0.0
 31
0.0
  0
ENDBLK
  5
CB4
330
CB0
100
AcDbEntity
  8
0
100
AcDbBlockEnd
  0
BLOCK
  5
135D
330
135B
100
AcDbEntity
  8
0
100
AcDbBlockBegin
  2
GENAXEH
 70
     0
 10
0.0
 20
0.0
 30
0.0
  3
GENAXEH
  1

  0
LINE
  5
135C
330
135B
100
AcDbEntity
  8
0
100
AcDbLine
 10
-1.0
 20
0.0
 30
0.0
 11
1.0
 21
0.0
 31
0.0
  0
ENDBLK
  5
135E
330
135B
100
AcDbEntity
  8
0
100
AcDbBlockEnd
  0
BLOCK
  5
1561
330
1560
100
AcDbEntity
  8
0
100
AcDbBlockBegin
  2
*D10
 70
     1
 10
0.0
 20
0.0
 30
0.0
  3
*D10
  1

  0
LINE
  5
1563
330
1560
100
AcDbEntity
  8
SIZE
 62
     0
370
    -2
100
AcDbLine
 10
1073.918421634096
 20
1586.498912144865
 30
0.0
 11
1073.918421634096
 21
1691.476658569712
 31
0.0
  0
LINE
  5
1564
330
1560
100
AcDbEntity
  8
SIZE
 62
     0
370
    -2
100
AcDbLine
 10
1949.918421634099
 20
1586.498912144858
 30
0.0
 11
1949.918421634099
 21
1691.476658569712
 31
0.0
  0
LINE
  5
1565
330
1560
100
AcDbEntity
  8
SIZE
 62
     0
370
    -2
100
AcDbLine
 10
1093.918421634096
 20
1681.476658569712
 30
0.0
 11
1929.918421634099
 21
1681.476658569712
 31
0.0
  0
INSERT
  5
1566
330
1560
100
AcDbEntity
  8
SIZE
 62
     0
370
    -2
100
AcDbBlockReference
  2
_OPEN30
 10
1073.918421634096
 20
1681.476658569712
 30
0.0
 41
20.0
 42
20.0
 43
20.0
 50
180.0
  0
INSERT
  5
1567
330
1560
100
AcDbEntity
  8
SIZE
 62
     0
370
    -2
100
AcDbBlockReference
  2
_OPEN30
 10
1949.918421634099
 20
1681.476658569712
 30
0.0
 41
20.0
 42
20.0
 43
20.0
  0
MTEXT
  5
1568
330
1560
100
AcDbEntity
  8
SIZE
 62
     0
100
AcDbMText
 10
1511.918421634098
 20
1701.476658569712
 30
0.0
 40
20.0
 41
0.0
 71
     5
 72
     1
  1
\A1;876
 73
     1
 44
1.0
1001
ACAD
1000
MTEXTBEGIN
1070
    73
1070
     1
1070
    44
1040
1.0
1070
    74
1070
     0
1000
MTEXTEND
  0
POINT
  5
1569
330
1560
100
AcDbEntity
  8
Defpoints
 62
     0
100
AcDbPoint
 10
1073.918421634096
 20
1576.498912144865
 30
0.0
  0
POINT
  5
156A
330
1560
100
AcDbEntity
  8
Defpoints
 62
     0
100
AcDbPoint
 10
1949.918421634099
 20
1576.498912144858
 30
0.0
  0
POINT
  5
156B
330
1560
100
AcDbEntity
  8
Defpoints
 62
     0
100
AcDbPoint
 10
1949.918421634099
 20
1681.476658569712
 30
0.0
  0
ENDBLK
  5
1562
330
1560
100
AcDbEntity
  8
0
100
AcDbBlockEnd
  0
BLOCK
  5
156E
330
156D
100
AcDbEntity
  8
0
100
AcDbBlockBegin
  2
*D11
 70
     1
 10
0.0
 20
0.0
 30
0.0
  3
*D11
  1

  0
LINE
  5
1570
330
156D
100
AcDbEntity
  8
SIZE
 62
     0
370
    -2
100
AcDbLine
 10
1055.918421634096
 20
1585.998912144865
 30
0.0
 11
1055.918421634096
 21
1735.910474793192
 31
0.0
  0
LINE
  5
1571
330
156D
100
AcDbEntity
  8
SIZE
 62
     0
370
    -2
100
AcDbLine
 10
1967.918421634097
 20
1585.998912144858
 30
0.0
 11
1967.918421634097
 21
1735.910474793192
 31
0.0
  0
LINE
  5
1572
330
156D
100
AcDbEntity
  8
SIZE
 62
     0
370
    -2
100
AcDbLine
 10
1075.918421634096
 20
1725.910474793192
 30
0.0
 11
1947.918421634097
 21
1725.910474793192
 31
0.0
  0
INSERT
  5
1573
330
156D
100
AcDbEntity
  8
SIZE
 62
     0
370
    -2
100
AcDbBlockReference
  2
_OPEN30
 10
1055.918421634096
 20
1725.910474793192
 30
0.0
 41
20.0
 42
20.0
 43
20.0
 50
180.0
  0
INSERT
  5
1574
330
156D
100
AcDbEntity
  8
SIZE
 62
     0
370
    -2
100
AcDbBlockReference
  2
_OPEN30
 10
1967.918421634097
 20
1725.910474793192
 30
0.0
 41
20.0
 42
20.0
 43
20.0
  0
MTEXT
  5
1575
330
156D
100
AcDbEntity
  8
SIZE
 62
     0
100
AcDbMText
 10
1511.918421634097
 20
1745.910474793192
 30
0.0
 40
20.0
 41
0.0
 71
     5
 72
     1
  1
\A1;912
 73
     1
 44
1.0
1001
ACAD
1000
MTEXTBEGIN
1070
    73
1070
     1
1070
    44
1040
1.0
1070
    74
1070
     0
1000
MTEXTEND
  0
POINT
  5
1576
330
156D
100
AcDbEntity
  8
Defpoints
 62
     0
100
AcDbPoint
 10
1055.918421634096
 20
1575.998912144865
 30
0.0
  0
POINT
  5
1577
330
156D
100
AcDbEntity
  8
Defpoints
 62
     0
100
AcDbPoint
 10
1967.918421634097
 20
1575.998912144858
 30
0.0
  0
POINT
  5
1578
330
156D
100
AcDbEntity
  8
Defpoints
 62
     0
100
AcDbPoint
 10
1967.918421634097
 20
1725.910474793192
 30
0.0
  0
ENDBLK
  5
156F
330
156D
100
AcDbEntity
  8
0
100
AcDbBlockEnd
  0
BLOCK
  5
157B
330
157A
100
AcDbEntity
  8
0
100
AcDbBlockBegin
  2
*D12
 70
     1
 10
0.0
 20
0.0
 30
0.0
  3
*D12
  1

  0
LINE
  5
157D
330
157A
100
AcDbEntity
  8
SIZE
 62
     0
370
    -2
100
AcDbLine
 10
1050.418421634096
 20
1562.998912144865
 30
0.0
 11
1001.578957738109
 21
1562.998912144865
 31
0.0
  0
LINE
  5
157E
330
157A
100
AcDbEntity
  8
SIZE
 62
     0
370
    -2
100
AcDbLine
 10
1050.418421634096
 20
1412.998912144865
 30
0.0
 11
1001.578957738109
 21
1412.998912144865
 31
0.0
  0
LINE
  5
157F
330
157A
100
AcDbEntity
  8
SIZE
 62
     0
370
    -2
100
AcDbLine
 10
1011.578957738109
 20
1542.998912144865
 30
0.0
 11
1011.578957738109
 21
1432.998912144865
 31
0.0
  0
INSERT
  5
1580
330
157A
100
AcDbEntity
  8
SIZE
 62
     0
370
    -2
100
AcDbBlockReference
  2
_OPEN30
 10
1011.578957738109
 20
1562.998912144865
 30
0.0
 41
20.0
 42
20.0
 43
20.0
 50
90.0
  0
INSERT
  5
1581
330
157A
100
AcDbEntity
  8
SIZE
 62
     0
370
    -2
100
AcDbBlockReference
  2
_OPEN30
 10
1011.578957738109
 20
1412.998912144865
 30
0.0
 41
20.0
 42
20.0
 43
20.0
 50
270.0
  0
MTEXT
  5
1582
330
157A
100
AcDbEntity
  8
SIZE
 62
     0
100
AcDbMText
 10
991.578957738109
 20
1487.998912144865
 30
0.0
 40
20.0
 41
0.0
 71
     5
 72
     1
  1
\A1;150
 11
0.0000000000000001
 21
1.0
 31
0.0
 73
     1
 44
1.0
1001
ACAD
1000
MTEXTBEGIN
1070
    73
1070
     1
1070
    44
1040
1.0
1070
    74
1070
     0
1000
MTEXTEND
  0
POINT
  5
1583
330
157A
100
AcDbEntity
  8
Defpoints
 62
     0
100
AcDbPoint
 10
1060.418421634096
 20
1562.998912144865
 30
0.0
  0
POINT
  5
1584
330
157A
100
AcDbEntity
  8
Defpoints
 62
     0
100
AcDbPoint
 10
1060.418421634096
 20
1412.998912144865
 30
0.0
  0
POINT
  5
1585
330
157A
100
AcDbEntity
  8
Defpoints
 62
     0
100
AcDbPoint
 10
1011.578957738109
 20
1412.998912144865
 30
0.0
  0
ENDBLK
  5
157C
330
157A
100
AcDbEntity
  8
0
100
AcDbBlockEnd
  0
BLOCK
  5
1588
330
1587
100
AcDbEntity
  8
0
100
AcDbBlockBegin
  2
*D13
 70
     1
 10
0.0
 20
0.0
 30
0.0
  3
*D13
  1

  0
LINE
  5
15BA
330
1587
100
AcDbEntity
  8
SIZE
 62
     0
370
    -2
100
AcDbLine
 10
1050.418421634096
 20
1412.998912144865
 30
0.0
 11
1001.578957738109
 21
1412.998912144865
 31
0.0
  0
LINE
  5
15BB
330
1587
100
AcDbEntity
  8
SIZE
 62
     0
370
    -2
100
AcDbLine
 10
1030.595420559354
 20
1263.003295767508
 30
0.0
 11
1001.578957738109
 21
1263.003295767508
 31
0.0
  0
LINE
  5
15BC
330
1587
100
AcDbEntity
  8
SIZE
 62
     0
370
    -2
100
AcDbLine
 10
1011.578957738109
 20
1392.998912144865
 30
0.0
 11
1011.578957738109
 21
1283.003295767508
 31
0.0
  0
INSERT
  5
15BD
330
1587
100
AcDbEntity
  8
SIZE
 62
     0
370
    -2
100
AcDbBlockReference
  2
_OPEN30
 10
1011.578957738109
 20
1412.998912144865
 30
0.0
 41
20.0
 42
20.0
 43
20.0
 50
90.0
  0
INSERT
  5
15BE
330
1587
100
AcDbEntity
  8
SIZE
 62
     0
370
    -2
100
AcDbBlockReference
  2
_OPEN30
 10
1011.578957738109
 20
1263.003295767508
 30
0.0
 41
20.0
 42
20.0
 43
20.0
 50
270.0
  0
MTEXT
  5
15BF
330
1587
100
AcDbEntity
  8
SIZE
 62
     0
100
AcDbMText
 10
991.578957738109
 20
1338.001103956187
 30
0.0
 40
20.0
 41
0.0
 71
     5
 72
     1
  1
\A1;150
 11
0.0000000000000001
 21
1.0
 31
0.0
 73
     1
 44
1.0
1001
ACAD
1000
MTEXTBEGIN
1070
    73
1070
     1
1070
    44
1040
1.0
1070
    74
1070
     0
1000
MTEXTEND
  0
POINT
  5
15C0
330
1587
100
AcDbEntity
  8
Defpoints
 62
     0
100
AcDbPoint
 10
1060.418421634096
 20
1412.998912144865
 30
0.0
  0
POINT
  5
15C1
330
1587
100
AcDbEntity
  8
Defpoints
 62
     0
100
AcDbPoint
 10
1040.595420559354
 20
1263.003295767508
 30
0.0
  0
POINT
  5
15C2
330
1587
100
AcDbEntity
  8
Defpoints
 62
     0
100
AcDbPoint
 10
1011.578957738109
 20
1263.003295767508
 30
0.0
  0
ENDBLK
  5
1589
330
1587
100
AcDbEntity
  8
0
100
AcDbBlockEnd
  0
BLOCK
  5
1595
330
1594
100
AcDbEntity
  8
0
100
AcDbBlockBegin
  2
*D14
 70
     1
 10
0.0
 20
0.0
 30
0.0
  3
*D14
  1

  0
LINE
  5
15C3
330
1594
100
AcDbEntity
  8
SIZE
 62
     0
370
    -2
100
AcDbLine
 10
1030.595420559354
 20
1263.003295767508
 30
0.0
 11
1001.578957738109
 21
1263.003295767508
 31
0.0
  0
LINE
  5
15C4
330
1594
100
AcDbEntity
  8
SIZE
 62
     0
370
    -2
100
AcDbLine
 10
1050.418421634096
 20
1112.998912144865
 30
0.0
 11
1001.578957738109
 21
1112.998912144865
 31
0.0
  0
LINE
  5
15C5
330
1594
100
AcDbEntity
  8
SIZE
 62
     0
370
    -2
100
AcDbLine
 10
1011.578957738109
 20
1243.003295767508
 30
0.0
 11
1011.578957738109
 21
1132.998912144865
 31
0.0
  0
INSERT
  5
15C6
330
1594
100
AcDbEntity
  8
SIZE
 62
     0
370
    -2
100
AcDbBlockReference
  2
_OPEN30
 10
1011.578957738109
 20
1263.003295767508
 30
0.0
 41
20.0
 42
20.0
 43
20.0
 50
90.0
  0
INSERT
  5
15C7
330
1594
100
AcDbEntity
  8
SIZE
 62
     0
370
    -2
100
AcDbBlockReference
  2
_OPEN30
 10
1011.578957738109
 20
1112.998912144865
 30
0.0
 41
20.0
 42
20.0
 43
20.0
 50
270.0
  0
MTEXT
  5
15C8
330
1594
100
AcDbEntity
  8
SIZE
 62
     0
100
AcDbMText
 10
991.578957738109
 20
1188.001103956187
 30
0.0
 40
20.0
 41
0.0
 71
     5
 72
     1
  1
\A1;150
 11
0.0000000000000001
 21
1.0
 31
0.0
 73
     1
 44
1.0
1001
ACAD
1000
MTEXTBEGIN
1070
    73
1070
     1
1070
    44
1040
1.0
1070
    74
1070
     0
1000
MTEXTEND
  0
POINT
  5
15C9
330
1594
100
AcDbEntity
  8
Defpoints
 62
     0
100
AcDbPoint
 10
1040.595420559354
 20
1263.003295767508
 30
0.0
  0
POINT
  5
15CA
330
1594
100
AcDbEntity
  8
Defpoints
 62
     0
100
AcDbPoint
 10
1060.418421634096
 20
1112.998912144865
 30
0.0
  0
POINT
  5
15CB
330
1594
100
AcDbEntity
  8
Defpoints
 62
     0
100
AcDbPoint
 10
1011.578957738109
 20
1112.998912144865
 30
0.0
  0
ENDBLK
  5
1596
330
1594
100
AcDbEntity
  8
0
100
AcDbBlockEnd
  0
BLOCK
  5
15A2
330
15A1
100
AcDbEntity
  8
0
100
AcDbBlockBegin
  2
*D15
 70
     1
 10
0.0
 20
0.0
 30
0.0
  3
*D15
  1

  0
LINE
  5
15CC
330
15A1
100
AcDbEntity
  8
SIZE
 62
     0
370
    -2
100
AcDbLine
 10
1050.418421634096
 20
1112.998912144865
 30
0.0
 11
1001.578957738109
 21
1112.998912144865
 31
0.0
  0
LINE
  5
15CD
330
15A1
100
AcDbEntity
  8
SIZE
 62
     0
370
    -2
100
AcDbLine
 10
1050.418421634096
 20
962.9989121448652
 30
0.0
 11
1001.578957738109
 21
962.9989121448652
 31
0.0
  0
LINE
  5
15CE
330
15A1
100
AcDbEntity
  8
SIZE
 62
     0
370
    -2
100
AcDbLine
 10
1011.578957738109
 20
1092.998912144865
 30
0.0
 11
1011.578957738109
 21
982.9989121448653
 31
0.0
  0
INSERT
  5
15CF
330
15A1
100
AcDbEntity
  8
SIZE
 62
     0
370
    -2
100
AcDbBlockReference
  2
_OPEN30
 10
1011.578957738109
 20
1112.998912144865
 30
0.0
 41
20.0
 42
20.0
 43
20.0
 50
90.0
  0
INSERT
  5
15D0
330
15A1
100
AcDbEntity
  8
SIZE
 62
     0
370
    -2
100
AcDbBlockReference
  2
_OPEN30
 10
1011.578957738109
 20
962.9989121448652
 30
0.0
 41
20.0
 42
20.0
 43
20.0
 50
270.0
  0
MTEXT
  5
15D1
330
15A1
100
AcDbEntity
  8
SIZE
 62
     0
100
AcDbMText
 10
991.578957738109
 20
1037.998912144865
 30
0.0
 40
20.0
 41
0.0
 71
     5
 72
     1
  1
\A1;150
 11
0.0000000000000001
 21
1.0
 31
0.0
 73
     1
 44
1.0
1001
ACAD
1000
MTEXTBEGIN
1070
    73
1070
     1
1070
    44
1040
1.0
1070
    74
1070
     0
1000
MTEXTEND
  0
POINT
  5
15D2
330
15A1
100
AcDbEntity
  8
Defpoints
 62
     0
100
AcDbPoint
 10
1060.418421634096
 20
1112.998912144865
 30
0.0
  0
POINT
  5
15D3
330
15A1
100
AcDbEntity
  8
Defpoints
 62
     0
100
AcDbPoint
 10
1060.418421634096
 20
962.9989121448652
 30
0.0
  0
POINT
  5
15D4
330
15A1
100
AcDbEntity
  8
Defpoints
 62
     0
100
AcDbPoint
 10
1011.578957738109
 20
962.9989121448652
 30
0.0
  0
ENDBLK
  5
15A3
330
15A1
100
AcDbEntity
  8
0
100
AcDbBlockEnd
  0
BLOCK
  5
15AF
330
15AE
100
AcDbEntity
  8
0
100
AcDbBlockBegin
  2
*D16
 70
     1
 10
0.0
 20
0.0
 30
0.0
  3
*D16
  1

  0
LINE
  5
22CE
330
15AE
100
AcDbEntity
  8
SIZE
 62
     0
 48
50.0
370
    -2
100
AcDbLine
 10
2287.904703458519
 20
895.9989121448582
 30
0.0
 11
2132.975705051977
 21
895.9989121448582
 31
0.0
  0
LINE
  5
22CF
330
15AE
100
AcDbEntity
  8
SIZE
 62
     0
 48
50.0
370
    -2
100
AcDbLine
 10
2317.904703458523
 20
1629.998912144858
 30
0.0
 11
2132.975705051977
 21
1629.998912144858
 31
0.0
  0
LINE
  5
22D0
330
15AE
100
AcDbEntity
  8
SIZE
 62
     0
 48
50.0
370
    -2
100
AcDbLine
 10
2142.975705051977
 20
915.9989121448582
 30
0.0
 11
2142.975705051977
 21
1609.998912144858
 31
0.0
  0
INSERT
  5
22D1
330
15AE
100
AcDbEntity
  8
SIZE
 62
     0
 48
50.0
370
    -2
100
AcDbBlockReference
  2
_OPEN30
 10
2142.975705051977
 20
895.9989121448582
 30
0.0
 41
20.0
 42
20.0
 43
20.0
 50
270.0
  0
INSERT
  5
22D2
330
15AE
100
AcDbEntity
  8
SIZE
 62
     0
 48
50.0
370
    -2
100
AcDbBlockReference
  2
_OPEN30
 10
2142.975705051977
 20
1629.998912144858
 30
0.0
 41
20.0
 42
20.0
 43
20.0
 50
90.0
  0
MTEXT
  5
22D3
330
15AE
100
AcDbEntity
  8
SIZE
 62
     0
 48
50.0
100
AcDbMText
 10
2122.975705051977
 20
1262.998912144858
 30
0.0
 40
20.0
 41
0.0
 71
     5
 72
     1
  1
\A1;734
 11
0.0000000000000001
 21
1.0
 31
0.0
 73
     1
 44
1.0
1001
ACAD
1000
MTEXTBEGIN
1070
    73
1070
     1
1070
    44
1040
1.0
1070
    74
1070
     0
1000
MTEXTEND
  0
POINT
  5
22D4
330
15AE
100
AcDbEntity
  8
Defpoints
 62
     0
 48
50.0
100
AcDbPoint
 10
2297.904703458519
 20
895.9989121448582
 30
0.0
  0
POINT
  5
22D5
330
15AE
100
AcDbEntity
  8
Defpoints
 62
     0
 48
50.0
100
AcDbPoint
 10
2327.904703458523
 20
1629.998912144858
 30
0.0
  0
POINT
  5
22D6
330
15AE
100
AcDbEntity
  8
Defpoints
 62
     0
 48
50.0
100
AcDbPoint
 10
2142.975705051977
 20
1629.998912144858
 30
0.0
  0
ENDBLK
  5
15B0
330
15AE
100
AcDbEntity
  8
0
100
AcDbBlockEnd
  0
BLOCK
  5
15D8
330
15D7
100
AcDbEntity
  8
0
100
AcDbBlockBegin
  2
*D17
 70
     1
 10
0.0
 20
0.0
 30
0.0
  3
*D17
  1

  0
LINE
  5
1602
330
15D7
100
AcDbEntity
  8
SIZE
100
AcDbLine
 10
1061.720804107804
 20
1589.206990321924
 30
0.0
 11
1023.385329793412
 21
1678.931354047263
 31
0.0
  0
LINE
  5
1603
330
15D7
100
AcDbEntity
  8
SIZE
100
AcDbLine
 10
1023.385329793412
 20
1678.931354047263
 30
0.0
 11
981.9567583648407
 21
1678.931354047263
 31
0.0
  0
SOLID
  5
1604
330
15D7
100
AcDbEntity
  8
SIZE
100
AcDbTrace
 10
1065.552394484567
 20
1590.844068907639
 30
0.0
 11
1057.889213731041
 21
1587.569911736209
 31
0.0
 12
1071.543275622095
 22
1566.217448061345
 32
0.0
 13
1071.543275622095
 23
1566.217448061345
 33
0.0
  0
MTEXT
  5
1605
102
{ACAD_XDICTIONARY
360
28F4
102
}
330
15D7
100
AcDbEntity
  8
SIZE
 62
     2
100
AcDbMText
 10
997.6710440791277
 20
1698.931354047264
 30
0.0
 40
20.0
 41
0.0
 71
     5
 72
     1
  1
\U+22057
 73
     1
 44
1.0
1001
ACAD
1000
MTEXTBEGIN
1070
    73
1070
     1
1070
    44
1040
1.0
1070
    74
1070
     0
1000
MTEXTEND
  0
ARC
  5
1606
330
15D7
100
AcDbEntity
  8
SIZE
100
AcDbCircle
 10
1014.316363944915
 20
1601.649728461688
 30
0.0
 40
3.499999999999771
100
AcDbArc
 50
270.0000000000001
 51
328.2361070036568
  0
POINT
  5
1607
330
15D7
100
AcDbEntity
  8
Defpoints
 62
     0
100
AcDbPoint
 10
1071.543275622095
 20
1566.217448061345
 30
0.0
  0
POINT
  5
1608
330
15D7
100
AcDbEntity
  8
Defpoints
 62
     0
100
AcDbPoint
 10
1074.293567646096
 20
1559.780376228384
 30
0.0
  0
ENDBLK
  5
15D9
330
15D7
100
AcDbEntity
  8
0
100
AcDbBlockEnd
  0
BLOCK
  5
160B
330
160A
100
AcDbEntity
  8
0
100
AcDbBlockBegin
  2
*D18
 70
     1
 10
0.0
 20
0.0
 30
0.0
  3
*D18
  1

  0
LINE
  5
168D
330
160A
100
AcDbEntity
  8
NOTE
 62
     0
370
    -2
100
AcDbLine
 10
886.0409392145001
 20
1711.64293990896
 30
0.0
 11
953.3742725478335
 21
1711.64293990896
 31
0.0
  0
LINE
  5
168E
330
160A
100
AcDbEntity
  8
NOTE
 62
     0
370
    -2
100
AcDbLine
 10
953.3742725478335
 20
1711.64293990896
 30
0.0
 11
1058.190891449092
 21
1581.311472169334
 31
0.0
  0
MTEXT
  5
168F
330
160A
100
AcDbEntity
  8
NOTE
 62
     0
100
AcDbMText
 10
909.5647487383097
 20
1731.64293990896
 30
0.0
 40
20.0
 41
0.0
 71
     5
 72
     1
  1
\A1;10×
 73
     1
 44
1.0
1001
ACAD
1000
MTEXTBEGIN
1070
    73
1070
     1
1070
    44
1040
1.0
1070
    74
1070
     0
1000
MTEXTEND
  0
INSERT
  5
1690
330
160A
100
AcDbEntity
  8
NOTE
 62
     0
370
    -2
100
AcDbBlockReference
  2
_OPEN30
 10
1070.724959691648
 20
1565.726314701701
 30
0.0
 41
20.0
 42
20.0
 43
20.0
 50
308.8073228777204
  0
POINT
  5
1691
330
160A
100
AcDbEntity
  8
Defpoints
 62
     0
100
AcDbPoint
 10
1070.724959691648
 20
1565.726314701701
 30
0.0
  0
POINT
  5
1692
330
160A
100
AcDbEntity
  8
Defpoints
 62
     0
100
AcDbPoint
 10
1072.918421634096
 20
1562.998912144865
 30
0.0
  0
ENDBLK
  5
160C
330
160A
100
AcDbEntity
  8
0
100
AcDbBlockEnd
  0
BLOCK
  5
1E8F
330
1E8E
100
AcDbEntity
  8
0
100
AcDbBlockBegin
  2
*D19
 70
     1
 10
0.0
 20
0.0
 30
0.0
  3
*D19
  1

  0
LINE
  5
1EA7
330
1E8E
100
AcDbEntity
  8
SIZE
 62
     0
370
    -2
100
AcDbLine
 10
3116.404703458523
 20
1586.498907409567
 30
0.0
 11
3116.404703458523
 21
1690.664077364081
 31
0.0
  0
LINE
  5
1EA8
330
1E8E
100
AcDbEntity
  8
SIZE
 62
     0
370
    -2
100
AcDbLine
 10
3165.404703458508
 20
1586.498907407894
 30
0.0
 11
3165.404703458508
 21
1690.664077364081
 31
0.0
  0
LINE
  5
1EA9
330
1E8E
100
AcDbEntity
  8
SIZE
 62
     0
370
    -2
100
AcDbLine
 10
3096.404703458523
 20
1680.664077364081
 30
0.0
 11
3076.404703458523
 21
1680.664077364081
 31
0.0
  0
LINE
  5
1EAA
330
1E8E
100
AcDbEntity
  8
SIZE
 62
     0
370
    -2
100
AcDbLine
 10
3185.404703458508
 20
1680.664077364081
 30
0.0
 11
3205.404703458508
 21
1680.664077364081
 31
0.0
  0
LINE
  5
1EAB
330
1E8E
100
AcDbEntity
  8
SIZE
 62
     0
370
    -2
100
AcDbLine
 10
3116.404703458523
 20
1680.664077364081
 30
0.0
 11
3165.404703458508
 21
1680.664077364081
 31
0.0
  0
INSERT
  5
1EAC
330
1E8E
100
AcDbEntity
  8
SIZE
 62
     0
370
    -2
100
AcDbBlockReference
  2
_OPEN30
 10
3116.404703458523
 20
1680.664077364081
 30
0.0
 41
20.0
 42
20.0
 43
20.0
  0
INSERT
  5
1EAD
330
1E8E
100
AcDbEntity
  8
SIZE
 62
     0
370
    -2
100
AcDbBlockReference
  2
_OPEN30
 10
3165.404703458508
 20
1680.664077364081
 30
0.0
 41
20.0
 42
20.0
 43
20.0
 50
180.0
  0
MTEXT
  5
1EAE
330
1E8E
100
AcDbEntity
  8
SIZE
 62
     0
100
AcDbMText
 10
3140.904703458515
 20
1700.664077364081
 30
0.0
 40
20.0
 41
0.0
 71
     5
 72
     1
  1
\A1;49
 73
     1
 44
1.0
1001
ACAD
1000
MTEXTBEGIN
1070
    73
1070
     1
1070
    44
1040
1.0
1070
    74
1070
     0
1000
MTEXTEND
  0
POINT
  5
1EAF
330
1E8E
100
AcDbEntity
  8
Defpoints
 62
     0
100
AcDbPoint
 10
3116.404703458523
 20
1576.498907409567
 30
0.0
  0
POINT
  5
1EB0
330
1E8E
100
AcDbEntity
  8
Defpoints
 62
     0
100
AcDbPoint
 10
3165.404703458508
 20
1576.498907407894
 30
0.0
  0
POINT
  5
1EB1
330
1E8E
100
AcDbEntity
  8
Defpoints
 62
     0
100
AcDbPoint
 10
3165.404703458508
 20
1680.664077364081
 30
0.0
  0
ENDBLK
  5
1E90
330
1E8E
100
AcDbEntity
  8
0
100
AcDbBlockEnd
  0
BLOCK
  5
1EB4
330
1EB3
100
AcDbEntity
  8
0
100
AcDbBlockBegin
  2
*D20
 70
     1
 10
0.0
 20
0.0
 30
0.0
  3
*D20
  1

  0
LINE
  5
1EB6
330
1EB3
100
AcDbEntity
  8
SIZE
 62
     0
370
    -2
100
AcDbLine
 10
2285.404703458516
 20
1586.498907409199
 30
0.0
 11
2285.404703458516
 21
1736.210984860122
 31
0.0
  0
LINE
  5
1EB7
330
1EB3
100
AcDbEntity
  8
SIZE
 62
     0
370
    -2
100
AcDbLine
 10
3996.404703458519
 20
1586.498907409199
 30
0.0
 11
3996.404703458519
 21
1736.210984860122
 31
0.0
  0
LINE
  5
1EB8
330
1EB3
100
AcDbEntity
  8
SIZE
 62
     0
370
    -2
100
AcDbLine
 10
2305.404703458516
 20
1726.210984860121
 30
0.0
 11
3976.404703458519
 21
1726.210984860121
 31
0.0
  0
INSERT
  5
1EB9
330
1EB3
100
AcDbEntity
  8
SIZE
 62
     0
370
    -2
100
AcDbBlockReference
  2
_OPEN30
 10
2285.404703458516
 20
1726.210984860121
 30
0.0
 41
20.0
 42
20.0
 43
20.0
 50
180.0
  0
INSERT
  5
1EBA
330
1EB3
100
AcDbEntity
  8
SIZE
 62
     0
370
    -2
100
AcDbBlockReference
  2
_OPEN30
 10
3996.404703458519
 20
1726.210984860121
 30
0.0
 41
20.0
 42
20.0
 43
20.0
  0
MTEXT
  5
1EBB
330
1EB3
100
AcDbEntity
  8
SIZE
 62
     0
100
AcDbMText
 10
3140.904703458518
 20
1746.210984860121
 30
0.0
 40
20.0
 41
0.0
 71
     5
 72
     1
  1
\A1;1711
 73
     1
 44
1.0
1001
ACAD
1000
MTEXTBEGIN
1070
    73
1070
     1
1070
    44
1040
1.0
1070
    74
1070
     0
1000
MTEXTEND
  0
POINT
  5
1EBC
330
1EB3
100
AcDbEntity
  8
Defpoints
 62
     0
100
AcDbPoint
 10
2285.404703458516
 20
1576.4989074092
 30
0.0
  0
POINT
  5
1EBD
330
1EB3
100
AcDbEntity
  8
Defpoints
 62
     0
100
AcDbPoint
 10
3996.404703458519
 20
1576.4989074092
 30
0.0
  0
POINT
  5
1EBE
330
1EB3
100
AcDbEntity
  8
Defpoints
 62
     0
100
AcDbPoint
 10
3996.404703458519
 20
1726.210984860121
 30
0.0
  0
ENDBLK
  5
1EB5
330
1EB3
100
AcDbEntity
  8
0
100
AcDbBlockEnd
  0
BLOCK
  5
1EC3
330
1EC2
100
AcDbEntity
  8
0
100
AcDbBlockBegin
  2
*D21
 70
     1
 10
0.0
 20
0.0
 30
0.0
  3
*D21
  1

  0
LINE
  5
228D
330
1EC2
100
AcDbEntity
  8
SIZE
 62
     0
 48
50.0
370
    -2
100
AcDbLine
 10
2261.904703458516
 20
1562.998907409199
 30
0.0
 11
2177.381406941597
 21
1562.998907409199
 31
0.0
  0
LINE
  5
228E
330
1EC2
100
AcDbEntity
  8
SIZE
 62
     0
 48
50.0
370
    -2
100
AcDbLine
 10
2261.904703458516
 20
1412.998907409199
 30
0.0
 11
2177.381406941597
 21
1412.998907409199
 31
0.0
  0
LINE
  5
228F
330
1EC2
100
AcDbEntity
  8
SIZE
 62
     0
 48
50.0
370
    -2
100
AcDbLine
 10
2187.381406941597
 20
1542.998907409199
 30
0.0
 11
2187.381406941597
 21
1432.998907409199
 31
0.0
  0
INSERT
  5
2290
330
1EC2
100
AcDbEntity
  8
SIZE
 62
     0
 48
50.0
370
    -2
100
AcDbBlockReference
  2
_OPEN30
 10
2187.381406941597
 20
1562.998907409199
 30
0.0
 41
20.0
 42
20.0
 43
20.0
 50
90.0
  0
INSERT
  5
2291
330
1EC2
100
AcDbEntity
  8
SIZE
 62
     0
 48
50.0
370
    -2
100
AcDbBlockReference
  2
_OPEN30
 10
2187.381406941597
 20
1412.998907409199
 30
0.0
 41
20.0
 42
20.0
 43
20.0
 50
270.0
  0
MTEXT
  5
2292
330
1EC2
100
AcDbEntity
  8
SIZE
 62
     0
 48
50.0
100
AcDbMText
 10
2167.381406941597
 20
1487.998907409199
 30
0.0
 40
20.0
 41
0.0
 71
     5
 72
     1
  1
\A1;150
 11
0.0000000000000001
 21
1.0
 31
0.0
 73
     1
 44
1.0
1001
ACAD
1000
MTEXTBEGIN
1070
    73
1070
     1
1070
    44
1040
1.0
1070
    74
1070
     0
1000
MTEXTEND
  0
POINT
  5
2293
330
1EC2
100
AcDbEntity
  8
Defpoints
 62
     0
 48
50.0
100
AcDbPoint
 10
2271.904703458516
 20
1562.998907409199
 30
0.0
  0
POINT
  5
2294
330
1EC2
100
AcDbEntity
  8
Defpoints
 62
     0
 48
50.0
100
AcDbPoint
 10
2271.904703458516
 20
1412.998907409199
 30
0.0
  0
POINT
  5
2295
330
1EC2
100
AcDbEntity
  8
Defpoints
 62
     0
 48
50.0
100
AcDbPoint
 10
2187.381406941597
 20
1412.998907409199
 30
0.0
  0
ENDBLK
  5
1EC4
330
1EC2
100
AcDbEntity
  8
0
100
AcDbBlockEnd
  0
BLOCK
  5
1ED0
330
1ECF
100
AcDbEntity
  8
0
100
AcDbBlockBegin
  2
*D22
 70
     1
 10
0.0
 20
0.0
 30
0.0
  3
*D22
  1

  0
LINE
  5
2284
330
1ECF
100
AcDbEntity
  8
SIZE
 62
     0
 48
50.0
370
    -2
100
AcDbLine
 10
2261.904703458516
 20
1412.998907409199
 30
0.0
 11
2177.381406941597
 21
1412.998907409199
 31
0.0
  0
LINE
  5
2285
330
1ECF
100
AcDbEntity
  8
SIZE
 62
     0
 48
50.0
370
    -2
100
AcDbLine
 10
2235.147696735446
 20
1263.003295767502
 30
0.0
 11
2177.381406941597
 21
1263.003295767502
 31
0.0
  0
LINE
  5
2286
330
1ECF
100
AcDbEntity
  8
SIZE
 62
     0
 48
50.0
370
    -2
100
AcDbLine
 10
2187.381406941597
 20
1392.998907409199
 30
0.0
 11
2187.381406941597
 21
1283.003295767502
 31
0.0
  0
INSERT
  5
2287
330
1ECF
100
AcDbEntity
  8
SIZE
 62
     0
 48
50.0
370
    -2
100
AcDbBlockReference
  2
_OPEN30
 10
2187.381406941597
 20
1412.998907409199
 30
0.0
 41
20.0
 42
20.0
 43
20.0
 50
90.0
  0
INSERT
  5
2288
330
1ECF
100
AcDbEntity
  8
SIZE
 62
     0
 48
50.0
370
    -2
100
AcDbBlockReference
  2
_OPEN30
 10
2187.381406941597
 20
1263.003295767502
 30
0.0
 41
20.0
 42
20.0
 43
20.0
 50
270.0
  0
MTEXT
  5
2289
330
1ECF
100
AcDbEntity
  8
SIZE
 62
     0
 48
50.0
100
AcDbMText
 10
2167.381406941597
 20
1338.001101588351
 30
0.0
 40
20.0
 41
0.0
 71
     5
 72
     1
  1
\A1;150
 11
0.0000000000000001
 21
1.0
 31
0.0
 73
     1
 44
1.0
1001
ACAD
1000
MTEXTBEGIN
1070
    73
1070
     1
1070
    44
1040
1.0
1070
    74
1070
     0
1000
MTEXTEND
  0
POINT
  5
228A
330
1ECF
100
AcDbEntity
  8
Defpoints
 62
     0
 48
50.0
100
AcDbPoint
 10
2271.904703458516
 20
1412.998907409199
 30
0.0
  0
POINT
  5
228B
330
1ECF
100
AcDbEntity
  8
Defpoints
 62
     0
 48
50.0
100
AcDbPoint
 10
2245.147696735446
 20
1263.003295767502
 30
0.0
  0
POINT
  5
228C
330
1ECF
100
AcDbEntity
  8
Defpoints
 62
     0
 48
50.0
100
AcDbPoint
 10
2187.381406941597
 20
1263.003295767502
 30
0.0
  0
ENDBLK
  5
1ED1
330
1ECF
100
AcDbEntity
  8
0
100
AcDbBlockEnd
  0
BLOCK
  5
1EDD
330
1EDC
100
AcDbEntity
  8
0
100
AcDbBlockBegin
  2
*D23
 70
     1
 10
0.0
 20
0.0
 30
0.0
  3
*D23
  1

  0
LINE
  5
229F
330
1EDC
100
AcDbEntity
  8
SIZE
 62
     0
 48
50.0
370
    -2
100
AcDbLine
 10
2235.147696735446
 20
1263.003295767502
 30
0.0
 11
2177.381406941597
 21
1263.003295767502
 31
0.0
  0
LINE
  5
22A0
330
1EDC
100
AcDbEntity
  8
SIZE
 62
     0
 48
50.0
370
    -2
100
AcDbLine
 10
2261.904703458516
 20
1112.998907409199
 30
0.0
 11
2177.381406941597
 21
1112.998907409199
 31
0.0
  0
LINE
  5
22A1
330
1EDC
100
AcDbEntity
  8
SIZE
 62
     0
 48
50.0
370
    -2
100
AcDbLine
 10
2187.381406941597
 20
1243.003295767502
 30
0.0
 11
2187.381406941597
 21
1132.998907409199
 31
0.0
  0
INSERT
  5
22A2
330
1EDC
100
AcDbEntity
  8
SIZE
 62
     0
 48
50.0
370
    -2
100
AcDbBlockReference
  2
_OPEN30
 10
2187.381406941597
 20
1263.003295767502
 30
0.0
 41
20.0
 42
20.0
 43
20.0
 50
90.0
  0
INSERT
  5
22A3
330
1EDC
100
AcDbEntity
  8
SIZE
 62
     0
 48
50.0
370
    -2
100
AcDbBlockReference
  2
_OPEN30
 10
2187.381406941597
 20
1112.998907409199
 30
0.0
 41
20.0
 42
20.0
 43
20.0
 50
270.0
  0
MTEXT
  5
22A4
330
1EDC
100
AcDbEntity
  8
SIZE
 62
     0
 48
50.0
100
AcDbMText
 10
2167.381406941597
 20
1188.001101588351
 30
0.0
 40
20.0
 41
0.0
 71
     5
 72
     1
  1
\A1;150
 11
0.0000000000000001
 21
1.0
 31
0.0
 73
     1
 44
1.0
1001
ACAD
1000
MTEXTBEGIN
1070
    73
1070
     1
1070
    44
1040
1.0
1070
    74
1070
     0
1000
MTEXTEND
  0
POINT
  5
22A5
330
1EDC
100
AcDbEntity
  8
Defpoints
 62
     0
 48
50.0
100
AcDbPoint
 10
2245.147696735446
 20
1263.003295767502
 30
0.0
  0
POINT
  5
22A6
330
1EDC
100
AcDbEntity
  8
Defpoints
 62
     0
 48
50.0
100
AcDbPoint
 10
2271.904703458516
 20
1112.998907409199
 30
0.0
  0
POINT
  5
22A7
330
1EDC
100
AcDbEntity
  8
Defpoints
 62
     0
 48
50.0
100
AcDbPoint
 10
2187.381406941597
 20
1112.998907409199
 30
0.0
  0
ENDBLK
  5
1EDE
330
1EDC
100
AcDbEntity
  8
0
100
AcDbBlockEnd
  0
BLOCK
  5
1EEA
330
1EE9
100
AcDbEntity
  8
0
100
AcDbBlockBegin
  2
*D24
 70
     1
 10
0.0
 20
0.0
 30
0.0
  3
*D24
  1

  0
LINE
  5
2296
330
1EE9
100
AcDbEntity
  8
SIZE
 62
     0
 48
50.0
370
    -2
100
AcDbLine
 10
2261.904703458516
 20
1112.998907409199
 30
0.0
 11
2177.381406941595
 21
1112.998907409199
 31
0.0
  0
LINE
  5
2297
330
1EE9
100
AcDbEntity
  8
SIZE
 62
     0
 48
50.0
370
    -2
100
AcDbLine
 10
2261.904703458516
 20
962.9989074091996
 30
0.0
 11
2177.381406941595
 21
962.9989074091996
 31
0.0
  0
LINE
  5
2298
330
1EE9
100
AcDbEntity
  8
SIZE
 62
     0
 48
50.0
370
    -2
100
AcDbLine
 10
2187.381406941595
 20
1092.998907409199
 30
0.0
 11
2187.381406941595
 21
982.9989074091995
 31
0.0
  0
INSERT
  5
2299
330
1EE9
100
AcDbEntity
  8
SIZE
 62
     0
 48
50.0
370
    -2
100
AcDbBlockReference
  2
_OPEN30
 10
2187.381406941595
 20
1112.998907409199
 30
0.0
 41
20.0
 42
20.0
 43
20.0
 50
90.0
  0
INSERT
  5
229A
330
1EE9
100
AcDbEntity
  8
SIZE
 62
     0
 48
50.0
370
    -2
100
AcDbBlockReference
  2
_OPEN30
 10
2187.381406941595
 20
962.9989074091996
 30
0.0
 41
20.0
 42
20.0
 43
20.0
 50
270.0
  0
MTEXT
  5
229B
330
1EE9
100
AcDbEntity
  8
SIZE
 62
     0
 48
50.0
100
AcDbMText
 10
2167.381406941595
 20
1037.998907409199
 30
0.0
 40
20.0
 41
0.0
 71
     5
 72
     1
  1
\A1;150
 11
0.0000000000000001
 21
1.0
 31
0.0
 73
     1
 44
1.0
1001
ACAD
1000
MTEXTBEGIN
1070
    73
1070
     1
1070
    44
1040
1.0
1070
    74
1070
     0
1000
MTEXTEND
  0
POINT
  5
229C
330
1EE9
100
AcDbEntity
  8
Defpoints
 62
     0
 48
50.0
100
AcDbPoint
 10
2271.904703458516
 20
1112.998907409199
 30
0.0
  0
POINT
  5
229D
330
1EE9
100
AcDbEntity
  8
Defpoints
 62
     0
 48
50.0
100
AcDbPoint
 10
2271.904703458516
 20
962.9989074091996
 30
0.0
  0
POINT
  5
229E
330
1EE9
100
AcDbEntity
  8
Defpoints
 62
     0
 48
50.0
100
AcDbPoint
 10
2187.381406941595
 20
962.9989074091996
 30
0.0
  0
ENDBLK
  5
1EEB
330
1EE9
100
AcDbEntity
  8
0
100
AcDbBlockEnd
  0
BLOCK
  5
201C
330
201B
100
AcDbEntity
  8
0
100
AcDbBlockBegin
  2
*D25
 70
     1
 10
0.0
 20
0.0
 30
0.0
  3
*D25
  1

  0
LINE
  5
22C5
330
201B
100
AcDbEntity
  8
SIZE
 62
     0
 48
50.0
370
    -2
100
AcDbLine
 10
2268.904703458517
 20
1585.998907409199
 30
0.0
 11
2268.904703458517
 21
1781.741488437188
 31
0.0
  0
LINE
  5
22C6
330
201B
100
AcDbEntity
  8
SIZE
 62
     0
 48
50.0
370
    -2
100
AcDbLine
 10
4012.904703458519
 20
1585.998907407893
 30
0.0
 11
4012.904703458519
 21
1781.741488437188
 31
0.0
  0
LINE
  5
22C7
330
201B
100
AcDbEntity
  8
SIZE
 62
     0
 48
50.0
370
    -2
100
AcDbLine
 10
2288.904703458518
 20
1771.741488437188
 30
0.0
 11
3992.90470345852
 21
1771.741488437188
 31
0.0
  0
INSERT
  5
22C8
330
201B
100
AcDbEntity
  8
SIZE
 62
     0
 48
50.0
370
    -2
100
AcDbBlockReference
  2
_OPEN30
 10
2268.904703458517
 20
1771.741488437188
 30
0.0
 41
20.0
 42
20.0
 43
20.0
 50
180.0
  0
INSERT
  5
22C9
330
201B
100
AcDbEntity
  8
SIZE
 62
     0
 48
50.0
370
    -2
100
AcDbBlockReference
  2
_OPEN30
 10
4012.904703458519
 20
1771.741488437188
 30
0.0
 41
20.0
 42
20.0
 43
20.0
  0
MTEXT
  5
22CA
330
201B
100
AcDbEntity
  8
SIZE
 62
     0
 48
50.0
100
AcDbMText
 10
3140.904703458518
 20
1791.741488437188
 30
0.0
 40
20.0
 41
0.0
 71
     5
 72
     1
  1
\A1;1744
 73
     1
 44
1.0
1001
ACAD
1000
MTEXTBEGIN
1070
    73
1070
     1
1070
    44
1040
1.0
1070
    74
1070
     0
1000
MTEXTEND
  0
POINT
  5
22CB
330
201B
100
AcDbEntity
  8
Defpoints
 62
     0
 48
50.0
100
AcDbPoint
 10
2268.904703458517
 20
1575.998907409199
 30
0.0
  0
POINT
  5
22CC
330
201B
100
AcDbEntity
  8
Defpoints
 62
     0
 48
50.0
100
AcDbPoint
 10
4012.904703458519
 20
1575.998907407893
 30
0.0
  0
POINT
  5
22CD
330
201B
100
AcDbEntity
  8
Defpoints
 62
     0
 48
50.0
100
AcDbPoint
 10
4012.904703458519
 20
1771.741488437188
 30
0.0
  0
ENDBLK
  5
201D
330
201B
100
AcDbEntity
  8
0
100
AcDbBlockEnd
  0
BLOCK
  5
2120
330
211F
100
AcDbEntity
  8
0
100
AcDbBlockBegin
  2
*D26
 70
     1
 10
0.0
 20
0.0
 30
0.0
  3
*D26
  1

  0
LINE
  5
2122
330
211F
100
AcDbEntity
  8
SIZE
 62
     0
370
    -2
100
AcDbLine
 10
3996.404703458519
 20
1586.498907407894
 30
0.0
 11
3996.404703458519
 21
1683.142875741904
 31
0.0
  0
LINE
  5
2123
330
211F
100
AcDbEntity
  8
SIZE
 62
     0
370
    -2
100
AcDbLine
 10
3165.404703458508
 20
1586.498907407894
 30
0.0
 11
3165.404703458508
 21
1683.142875741904
 31
0.0
  0
LINE
  5
2124
330
211F
100
AcDbEntity
  8
SIZE
 62
     0
370
    -2
100
AcDbLine
 10
3976.404703458519
 20
1673.142875741904
 30
0.0
 11
3185.404703458508
 21
1673.142875741904
 31
0.0
  0
INSERT
  5
2125
330
211F
100
AcDbEntity
  8
SIZE
 62
     0
370
    -2
100
AcDbBlockReference
  2
_OPEN30
 10
3996.404703458519
 20
1673.142875741904
 30
0.0
 41
20.0
 42
20.0
 43
20.0
  0
INSERT
  5
2126
330
211F
100
AcDbEntity
  8
SIZE
 62
     0
370
    -2
100
AcDbBlockReference
  2
_OPEN30
 10
3165.404703458508
 20
1673.142875741904
 30
0.0
 41
20.0
 42
20.0
 43
20.0
 50
180.0
  0
MTEXT
  5
2127
330
211F
100
AcDbEntity
  8
SIZE
 62
     0
100
AcDbMText
 10
3580.904703458514
 20
1693.142875741903
 30
0.0
 40
20.0
 41
0.0
 71
     5
 72
     1
  1
\A1;831
 73
     1
 44
1.0
1001
ACAD
1000
MTEXTBEGIN
1070
    73
1070
     1
1070
    44
1040
1.0
1070
    74
1070
     0
1000
MTEXTEND
  0
POINT
  5
2128
330
211F
100
AcDbEntity
  8
Defpoints
 62
     0
100
AcDbPoint
 10
3996.404703458519
 20
1576.498907407894
 30
0.0
  0
POINT
  5
2129
330
211F
100
AcDbEntity
  8
Defpoints
 62
     0
100
AcDbPoint
 10
3165.404703458508
 20
1576.498907407894
 30
0.0
  0
POINT
  5
212A
330
211F
100
AcDbEntity
  8
Defpoints
 62
     0
100
AcDbPoint
 10
3165.404703458508
 20
1673.142875741904
 30
0.0
  0
ENDBLK
  5
2121
330
211F
100
AcDbEntity
  8
0
100
AcDbBlockEnd
  0
BLOCK
  5
214C
330
214B
100
AcDbEntity
  8
0
100
AcDbBlockBegin
  2
*D27
 70
     1
 10
0.0
 20
0.0
 30
0.0
  3
*D27
  1

  0
LINE
  5
22BC
330
214B
100
AcDbEntity
  8
SIZE
 62
     0
 48
50.0
370
    -2
100
AcDbLine
 10
3996.404703458519
 20
1586.498907407894
 30
0.0
 11
3996.404703458519
 21
1734.536384508107
 31
0.0
  0
LINE
  5
22BD
330
214B
100
AcDbEntity
  8
SIZE
 62
     0
 48
50.0
370
    -2
100
AcDbLine
 10
3165.404703458508
 20
1586.498907407894
 30
0.0
 11
3165.404703458508
 21
1734.536384508107
 31
0.0
  0
LINE
  5
22BE
330
214B
100
AcDbEntity
  8
SIZE
 62
     0
 48
50.0
370
    -2
100
AcDbLine
 10
3976.404703458519
 20
1724.536384508107
 30
0.0
 11
3185.404703458508
 21
1724.536384508107
 31
0.0
  0
INSERT
  5
22BF
330
214B
100
AcDbEntity
  8
SIZE
 62
     0
 48
50.0
370
    -2
100
AcDbBlockReference
  2
_OPEN30
 10
3996.404703458519
 20
1724.536384508107
 30
0.0
 41
20.0
 42
20.0
 43
20.0
  0
INSERT
  5
22C0
330
214B
100
AcDbEntity
  8
SIZE
 62
     0
 48
50.0
370
    -2
100
AcDbBlockReference
  2
_OPEN30
 10
3165.404703458508
 20
1724.536384508107
 30
0.0
 41
20.0
 42
20.0
 43
20.0
 50
180.0
  0
MTEXT
  5
22C1
330
214B
100
AcDbEntity
  8
SIZE
 62
     0
 48
50.0
100
AcDbMText
 10
3580.904703458514
 20
1744.536384508107
 30
0.0
 40
20.0
 41
0.0
 71
     5
 72
     1
  1
\A1;831
 73
     1
 44
1.0
1001
ACAD
1000
MTEXTBEGIN
1070
    73
1070
     1
1070
    44
1040
1.0
1070
    74
1070
     0
1000
MTEXTEND
  0
POINT
  5
22C2
330
214B
100
AcDbEntity
  8
Defpoints
 62
     0
 48
50.0
100
AcDbPoint
 10
3996.404703458519
 20
1576.498907407894
 30
0.0
  0
POINT
  5
22C3
330
214B
100
AcDbEntity
  8
Defpoints
 62
     0
 48
50.0
100
AcDbPoint
 10
3165.404703458508
 20
1576.498907407894
 30
0.0
  0
POINT
  5
22C4
330
214B
100
AcDbEntity
  8
Defpoints
 62
     0
 48
50.0
100
AcDbPoint
 10
3165.404703458508
 20
1724.536384508107
 30
0.0
  0
ENDBLK
  5
214D
330
214B
100
AcDbEntity
  8
0
100
AcDbBlockEnd
  0
BLOCK
  5
2159
330
2158
100
AcDbEntity
  8
0
100
AcDbBlockBegin
  2
*D28
 70
     1
 10
0.0
 20
0.0
 30
0.0
  3
*D28
  1

  0
LINE
  5
22B1
330
2158
100
AcDbEntity
  8
SIZE
 62
     0
 48
50.0
370
    -2
100
AcDbLine
 10
3165.404703458508
 20
1586.498907407894
 30
0.0
 11
3165.404703458508
 21
1734.536384508107
 31
0.0
  0
LINE
  5
22B2
330
2158
100
AcDbEntity
  8
SIZE
 62
     0
 48
50.0
370
    -2
100
AcDbLine
 10
3116.404703458523
 20
1586.498907409567
 30
0.0
 11
3116.404703458523
 21
1734.536384508107
 31
0.0
  0
LINE
  5
22B3
330
2158
100
AcDbEntity
  8
SIZE
 62
     0
 48
50.0
370
    -2
100
AcDbLine
 10
3185.404703458508
 20
1724.536384508107
 30
0.0
 11
3205.404703458508
 21
1724.536384508107
 31
0.0
  0
LINE
  5
22B4
330
2158
100
AcDbEntity
  8
SIZE
 62
     0
 48
50.0
370
    -2
100
AcDbLine
 10
3096.404703458523
 20
1724.536384508107
 30
0.0
 11
3076.404703458523
 21
1724.536384508107
 31
0.0
  0
LINE
  5
22B5
330
2158
100
AcDbEntity
  8
SIZE
 62
     0
 48
50.0
370
    -2
100
AcDbLine
 10
3165.404703458508
 20
1724.536384508107
 30
0.0
 11
3116.404703458523
 21
1724.536384508107
 31
0.0
  0
INSERT
  5
22B6
330
2158
100
AcDbEntity
  8
SIZE
 62
     0
 48
50.0
370
    -2
100
AcDbBlockReference
  2
_OPEN30
 10
3165.404703458508
 20
1724.536384508107
 30
0.0
 41
20.0
 42
20.0
 43
20.0
 50
180.0
  0
INSERT
  5
22B7
330
2158
100
AcDbEntity
  8
SIZE
 62
     0
 48
50.0
370
    -2
100
AcDbBlockReference
  2
_OPEN30
 10
3116.404703458523
 20
1724.536384508107
 30
0.0
 41
20.0
 42
20.0
 43
20.0
  0
MTEXT
  5
22B8
330
2158
100
AcDbEntity
  8
SIZE
 62
     0
 48
50.0
100
AcDbMText
 10
3140.904703458517
 20
1744.536384508107
 30
0.0
 40
20.0
 41
0.0
 71
     5
 72
     1
  1
\A1;49
 73
     1
 44
1.0
1001
ACAD
1000
MTEXTBEGIN
1070
    73
1070
     1
1070
    44
1040
1.0
1070
    74
1070
     0
1000
MTEXTEND
  0
POINT
  5
22B9
330
2158
100
AcDbEntity
  8
Defpoints
 62
     0
 48
50.0
100
AcDbPoint
 10
3165.404703458508
 20
1576.498907407894
 30
0.0
  0
POINT
  5
22BA
330
2158
100
AcDbEntity
  8
Defpoints
 62
     0
 48
50.0
100
AcDbPoint
 10
3116.404703458523
 20
1576.498907409567
 30
0.0
  0
POINT
  5
22BB
330
2158
100
AcDbEntity
  8
Defpoints
 62
     0
 48
50.0
100
AcDbPoint
 10
3116.404703458523
 20
1724.536384508107
 30
0.0
  0
ENDBLK
  5
215A
330
2158
100
AcDbEntity
  8
0
100
AcDbBlockEnd
  0
BLOCK
  5
216B
330
216A
100
AcDbEntity
  8
0
100
AcDbBlockBegin
  2
*D29
 70
     1
 10
0.0
 20
0.0
 30
0.0
  3
*D29
  1

  0
LINE
  5
22A8
330
216A
100
AcDbEntity
  8
SIZE
 62
     0
 48
50.0
370
    -2
100
AcDbLine
 10
3116.404703458523
 20
1586.498907409567
 30
0.0
 11
3116.404703458523
 21
1734.536384508107
 31
0.0
  0
LINE
  5
22A9
330
216A
100
AcDbEntity
  8
SIZE
 62
     0
 48
50.0
370
    -2
100
AcDbLine
 10
2285.404703458516
 20
1586.498907409567
 30
0.0
 11
2285.404703458516
 21
1734.536384508107
 31
0.0
  0
LINE
  5
22AA
330
216A
100
AcDbEntity
  8
SIZE
 62
     0
 48
50.0
370
    -2
100
AcDbLine
 10
3096.404703458523
 20
1724.536384508107
 30
0.0
 11
2305.404703458516
 21
1724.536384508107
 31
0.0
  0
INSERT
  5
22AB
330
216A
100
AcDbEntity
  8
SIZE
 62
     0
 48
50.0
370
    -2
100
AcDbBlockReference
  2
_OPEN30
 10
3116.404703458523
 20
1724.536384508107
 30
0.0
 41
20.0
 42
20.0
 43
20.0
  0
INSERT
  5
22AC
330
216A
100
AcDbEntity
  8
SIZE
 62
     0
 48
50.0
370
    -2
100
AcDbBlockReference
  2
_OPEN30
 10
2285.404703458516
 20
1724.536384508107
 30
0.0
 41
20.0
 42
20.0
 43
20.0
 50
180.0
  0
MTEXT
  5
22AD
330
216A
100
AcDbEntity
  8
SIZE
 62
     0
 48
50.0
100
AcDbMText
 10
2700.904703458519
 20
1744.536384508107
 30
0.0
 40
20.0
 41
0.0
 71
     5
 72
     1
  1
\A1;831
 73
     1
 44
1.0
1001
ACAD
1000
MTEXTBEGIN
1070
    73
1070
     1
1070
    44
1040
1.0
1070
    74
1070
     0
1000
MTEXTEND
  0
POINT
  5
22AE
330
216A
100
AcDbEntity
  8
Defpoints
 62
     0
 48
50.0
100
AcDbPoint
 10
3116.404703458523
 20
1576.498907409567
 30
0.0
  0
POINT
  5
22AF
330
216A
100
AcDbEntity
  8
Defpoints
 62
     0
 48
50.0
100
AcDbPoint
 10
2285.404703458516
 20
1576.498907409567
 30
0.0
  0
POINT
  5
22B0
330
216A
100
AcDbEntity
  8
Defpoints
 62
     0
 48
50.0
100
AcDbPoint
 10
2285.404703458516
 20
1724.536384508107
 30
0.0
  0
ENDBLK
  5
216C
330
216A
100
AcDbEntity
  8
0
100
AcDbBlockEnd
  0
BLOCK
  5
272B
330
272A
100
AcDbEntity
  8
0
100
AcDbBlockBegin
  2
*D30
 70
     1
 10
0.0
 20
0.0
 30
0.0
  3
*D30
  1

  0
LINE
  5
272D
330
272A
100
AcDbEntity
  8
SIZE
 62
     0
370
    -2
100
AcDbLine
 10
4450.460204444467
 20
1560.787818229131
 30
0.0
 11
4450.460204444467
 21
1668.139984263021
 31
0.0
  0
LINE
  5
272E
330
272A
100
AcDbEntity
  8
SIZE
 62
     0
370
    -2
100
AcDbLine
 10
5279.460204444466
 20
1560.787818229132
 30
0.0
 11
5279.460204444466
 21
1668.139984263021
 31
0.0
  0
LINE
  5
272F
330
272A
100
AcDbEntity
  8
SIZE
 62
     0
370
    -2
100
AcDbLine
 10
4470.460204444467
 20
1658.139984263021
 30
0.0
 11
5259.460204444465
 21
1658.139984263021
 31
0.0
  0
INSERT
  5
2730
330
272A
100
AcDbEntity
  8
SIZE
 62
     0
370
    -2
100
AcDbBlockReference
  2
_OPEN30
 10
4450.460204444467
 20
1658.139984263021
 30
0.0
 41
20.0
 42
20.0
 43
20.0
 50
180.0
  0
INSERT
  5
2731
330
272A
100
AcDbEntity
  8
SIZE
 62
     0
370
    -2
100
AcDbBlockReference
  2
_OPEN30
 10
5279.460204444466
 20
1658.139984263021
 30
0.0
 41
20.0
 42
20.0
 43
20.0
  0
MTEXT
  5
2732
330
272A
100
AcDbEntity
  8
SIZE
 62
     0
100
AcDbMText
 10
4864.960204444468
 20
1678.139984263021
 30
0.0
 40
20.0
 41
0.0
 71
     5
 72
     1
  1
\A1;829
 73
     1
 44
1.0
1001
ACAD
1000
MTEXTBEGIN
1070
    73
1070
     1
1070
    44
1040
1.0
1070
    74
1070
     0
1000
MTEXTEND
  0
POINT
  5
2733
330
272A
100
AcDbEntity
  8
Defpoints
 62
     0
100
AcDbPoint
 10
4450.460204444467
 20
1550.787818229131
 30
0.0
  0
POINT
  5
2734
330
272A
100
AcDbEntity
  8
Defpoints
 62
     0
100
AcDbPoint
 10
5279.460204444466
 20
1550.787818229132
 30
0.0
  0
POINT
  5
2735
330
272A
100
AcDbEntity
  8
Defpoints
 62
     0
100
AcDbPoint
 10
5279.460204444466
 20
1658.139984263021
 30
0.0
  0
ENDBLK
  5
272C
330
272A
100
AcDbEntity
  8
0
100
AcDbBlockEnd
  0
BLOCK
  5
2738
330
2737
100
AcDbEntity
  8
0
100
AcDbBlockBegin
  2
*D31
 70
     1
 10
0.0
 20
0.0
 30
0.0
  3
*D31
  1

  0
LINE
  5
273A
330
2737
100
AcDbEntity
  8
SIZE
 62
     0
370
    -2
100
AcDbLine
 10
5279.460204444466
 20
1560.787818229132
 30
0.0
 11
5279.460204444466
 21
1668.139984263021
 31
0.0
  0
LINE
  5
273B
330
2737
100
AcDbEntity
  8
SIZE
 62
     0
370
    -2
100
AcDbLine
 10
5330.460204444467
 20
1560.787818229132
 30
0.0
 11
5330.460204444467
 21
1668.139984263021
 31
0.0
  0
LINE
  5
273C
330
2737
100
AcDbEntity
  8
SIZE
 62
     0
370
    -2
100
AcDbLine
 10
5259.460204444465
 20
1658.139984263021
 30
0.0
 11
5239.460204444466
 21
1658.139984263021
 31
0.0
  0
LINE
  5
273D
330
2737
100
AcDbEntity
  8
SIZE
 62
     0
370
    -2
100
AcDbLine
 10
5350.460204444467
 20
1658.139984263021
 30
0.0
 11
5370.460204444468
 21
1658.139984263021
 31
0.0
  0
LINE
  5
273E
330
2737
100
AcDbEntity
  8
SIZE
 62
     0
370
    -2
100
AcDbLine
 10
5279.460204444466
 20
1658.139984263021
 30
0.0
 11
5330.460204444467
 21
1658.139984263021
 31
0.0
  0
INSERT
  5
273F
330
2737
100
AcDbEntity
  8
SIZE
 62
     0
370
    -2
100
AcDbBlockReference
  2
_OPEN30
 10
5279.460204444466
 20
1658.139984263021
 30
0.0
 41
20.0
 42
20.0
 43
20.0
  0
INSERT
  5
2740
330
2737
100
AcDbEntity
  8
SIZE
 62
     0
370
    -2
100
AcDbBlockReference
  2
_OPEN30
 10
5330.460204444467
 20
1658.139984263021
 30
0.0
 41
20.0
 42
20.0
 43
20.0
 50
180.0
  0
MTEXT
  5
2741
330
2737
100
AcDbEntity
  8
SIZE
 62
     0
100
AcDbMText
 10
5304.960204444467
 20
1678.139984263021
 30
0.0
 40
20.0
 41
0.0
 71
     5
 72
     1
  1
\A1;51
 73
     1
 44
1.0
1001
ACAD
1000
MTEXTBEGIN
1070
    73
1070
     1
1070
    44
1040
1.0
1070
    74
1070
     0
1000
MTEXTEND
  0
POINT
  5
2742
330
2737
100
AcDbEntity
  8
Defpoints
 62
     0
100
AcDbPoint
 10
5279.460204444466
 20
1550.787818229132
 30
0.0
  0
POINT
  5
2743
330
2737
100
AcDbEntity
  8
Defpoints
 62
     0
100
AcDbPoint
 10
5330.460204444467
 20
1550.787818229132
 30
0.0
  0
POINT
  5
2744
330
2737
100
AcDbEntity
  8
Defpoints
 62
     0
100
AcDbPoint
 10
5330.460204444467
 20
1658.139984263021
 30
0.0
  0
ENDBLK
  5
2739
330
2737
100
AcDbEntity
  8
0
100
AcDbBlockEnd
  0
BLOCK
  5
2747
330
2746
100
AcDbEntity
  8
0
100
AcDbBlockBegin
  2
*D32
 70
     1
 10
0.0
 20
0.0
 30
0.0
  3
*D32
  1

  0
LINE
  5
2749
330
2746
100
AcDbEntity
  8
SIZE
 62
     0
370
    -2
100
AcDbLine
 10
5330.460204444467
 20
1560.787818229132
 30
0.0
 11
5330.460204444467
 21
1668.139984263021
 31
0.0
  0
LINE
  5
274A
330
2746
100
AcDbEntity
  8
SIZE
 62
     0
370
    -2
100
AcDbLine
 10
6159.460204444466
 20
1560.787818229132
 30
0.0
 11
6159.460204444466
 21
1668.139984263021
 31
0.0
  0
LINE
  5
274B
330
2746
100
AcDbEntity
  8
SIZE
 62
     0
370
    -2
100
AcDbLine
 10
5350.460204444467
 20
1658.139984263021
 30
0.0
 11
6139.460204444468
 21
1658.139984263021
 31
0.0
  0
INSERT
  5
274C
330
2746
100
AcDbEntity
  8
SIZE
 62
     0
370
    -2
100
AcDbBlockReference
  2
_OPEN30
 10
5330.460204444467
 20
1658.139984263021
 30
0.0
 41
20.0
 42
20.0
 43
20.0
 50
180.0
  0
INSERT
  5
274D
330
2746
100
AcDbEntity
  8
SIZE
 62
     0
370
    -2
100
AcDbBlockReference
  2
_OPEN30
 10
6159.460204444466
 20
1658.139984263021
 30
0.0
 41
20.0
 42
20.0
 43
20.0
  0
MTEXT
  5
274E
330
2746
100
AcDbEntity
  8
SIZE
 62
     0
100
AcDbMText
 10
5744.960204444467
 20
1678.139984263021
 30
0.0
 40
20.0
 41
0.0
 71
     5
 72
     1
  1
\A1;829
 73
     1
 44
1.0
1001
ACAD
1000
MTEXTBEGIN
1070
    73
1070
     1
1070
    44
1040
1.0
1070
    74
1070
     0
1000
MTEXTEND
  0
POINT
  5
274F
330
2746
100
AcDbEntity
  8
Defpoints
 62
     0
100
AcDbPoint
 10
5330.460204444467
 20
1550.787818229132
 30
0.0
  0
POINT
  5
2750
330
2746
100
AcDbEntity
  8
Defpoints
 62
     0
100
AcDbPoint
 10
6159.460204444466
 20
1550.787818229132
 30
0.0
  0
POINT
  5
2751
330
2746
100
AcDbEntity
  8
Defpoints
 62
     0
100
AcDbPoint
 10
6159.460204444466
 20
1658.139984263021
 30
0.0
  0
ENDBLK
  5
2748
330
2746
100
AcDbEntity
  8
0
100
AcDbBlockEnd
  0
BLOCK
  5
2754
330
2753
100
AcDbEntity
  8
0
100
AcDbBlockBegin
  2
*D33
 70
     1
 10
0.0
 20
0.0
 30
0.0
  3
*D33
  1

  0
LINE
  5
2756
330
2753
100
AcDbEntity
  8
SIZE
 62
     0
370
    -2
100
AcDbLine
 10
4426.960204444467
 20
1537.287818229131
 30
0.0
 11
4372.646953372884
 21
1537.287818229131
 31
0.0
  0
LINE
  5
2757
330
2753
100
AcDbEntity
  8
SIZE
 62
     0
370
    -2
100
AcDbLine
 10
4426.960204444467
 20
1387.287818229131
 30
0.0
 11
4372.646953372884
 21
1387.287818229131
 31
0.0
  0
LINE
  5
2758
330
2753
100
AcDbEntity
  8
SIZE
 62
     0
370
    -2
100
AcDbLine
 10
4382.646953372884
 20
1517.287818229131
 30
0.0
 11
4382.646953372884
 21
1407.287818229131
 31
0.0
  0
INSERT
  5
2759
330
2753
100
AcDbEntity
  8
SIZE
 62
     0
370
    -2
100
AcDbBlockReference
  2
_OPEN30
 10
4382.646953372884
 20
1537.287818229131
 30
0.0
 41
20.0
 42
20.0
 43
20.0
 50
90.0
  0
INSERT
  5
275A
330
2753
100
AcDbEntity
  8
SIZE
 62
     0
370
    -2
100
AcDbBlockReference
  2
_OPEN30
 10
4382.646953372884
 20
1387.287818229131
 30
0.0
 41
20.0
 42
20.0
 43
20.0
 50
270.0
  0
MTEXT
  5
275B
330
2753
100
AcDbEntity
  8
SIZE
 62
     0
100
AcDbMText
 10
4362.646953372884
 20
1462.287818229132
 30
0.0
 40
20.0
 41
0.0
 71
     5
 72
     1
  1
\A1;150
 11
0.0000000000000001
 21
1.0
 31
0.0
 73
     1
 44
1.0
1001
ACAD
1000
MTEXTBEGIN
1070
    73
1070
     1
1070
    44
1040
1.0
1070
    74
1070
     0
1000
MTEXTEND
  0
POINT
  5
275C
330
2753
100
AcDbEntity
  8
Defpoints
 62
     0
100
AcDbPoint
 10
4436.960204444467
 20
1537.287818229131
 30
0.0
  0
POINT
  5
275D
330
2753
100
AcDbEntity
  8
Defpoints
 62
     0
100
AcDbPoint
 10
4436.960204444467
 20
1387.287818229131
 30
0.0
  0
POINT
  5
275E
330
2753
100
AcDbEntity
  8
Defpoints
 62
     0
100
AcDbPoint
 10
4382.646953372884
 20
1387.287818229131
 30
0.0
  0
ENDBLK
  5
2755
330
2753
100
AcDbEntity
  8
0
100
AcDbBlockEnd
  0
BLOCK
  5
2761
330
2760
100
AcDbEntity
  8
0
100
AcDbBlockBegin
  2
*D34
 70
     1
 10
0.0
 20
0.0
 30
0.0
  3
*D34
  1

  0
LINE
  5
2763
330
2760
100
AcDbEntity
  8
SIZE
 62
     0
370
    -2
100
AcDbLine
 10
4426.960204444467
 20
1387.287818229131
 30
0.0
 11
4372.646953372884
 21
1387.287818229131
 31
0.0
  0
LINE
  5
2764
330
2760
100
AcDbEntity
  8
SIZE
 62
     0
370
    -2
100
AcDbLine
 10
4399.203197721392
 20
1237.287818229134
 30
0.0
 11
4372.646953372884
 21
1237.287818229134
 31
0.0
  0
LINE
  5
2765
330
2760
100
AcDbEntity
  8
SIZE
 62
     0
370
    -2
100
AcDbLine
 10
4382.646953372884
 20
1367.287818229131
 30
0.0
 11
4382.646953372884
 21
1257.287818229134
 31
0.0
  0
INSERT
  5
2766
330
2760
100
AcDbEntity
  8
SIZE
 62
     0
370
    -2
100
AcDbBlockReference
  2
_OPEN30
 10
4382.646953372884
 20
1387.287818229131
 30
0.0
 41
20.0
 42
20.0
 43
20.0
 50
90.0
  0
INSERT
  5
2767
330
2760
100
AcDbEntity
  8
SIZE
 62
     0
370
    -2
100
AcDbBlockReference
  2
_OPEN30
 10
4382.646953372884
 20
1237.287818229134
 30
0.0
 41
20.0
 42
20.0
 43
20.0
 50
270.0
  0
MTEXT
  5
2768
330
2760
100
AcDbEntity
  8
SIZE
 62
     0
100
AcDbMText
 10
4362.646953372884
 20
1312.287818229133
 30
0.0
 40
20.0
 41
0.0
 71
     5
 72
     1
  1
\A1;150
 11
0.0000000000000001
 21
1.0
 31
0.0
 73
     1
 44
1.0
1001
ACAD
1000
MTEXTBEGIN
1070
    73
1070
     1
1070
    44
1040
1.0
1070
    74
1070
     0
1000
MTEXTEND
  0
POINT
  5
2769
330
2760
100
AcDbEntity
  8
Defpoints
 62
     0
100
AcDbPoint
 10
4436.960204444467
 20
1387.287818229131
 30
0.0
  0
POINT
  5
276A
330
2760
100
AcDbEntity
  8
Defpoints
 62
     0
100
AcDbPoint
 10
4409.203197721391
 20
1237.287818229134
 30
0.0
  0
POINT
  5
276B
330
2760
100
AcDbEntity
  8
Defpoints
 62
     0
100
AcDbPoint
 10
4382.646953372884
 20
1237.287818229134
 30
0.0
  0
ENDBLK
  5
2762
330
2760
100
AcDbEntity
  8
0
100
AcDbBlockEnd
  0
BLOCK
  5
276E
330
276D
100
AcDbEntity
  8
0
100
AcDbBlockBegin
  2
*D35
 70
     1
 10
0.0
 20
0.0
 30
0.0
  3
*D35
  1

  0
LINE
  5
2770
330
276D
100
AcDbEntity
  8
SIZE
 62
     0
370
    -2
100
AcDbLine
 10
4399.203197721392
 20
1237.287818229134
 30
0.0
 11
4372.646953372884
 21
1237.287818229134
 31
0.0
  0
LINE
  5
2771
330
276D
100
AcDbEntity
  8
SIZE
 62
     0
370
    -2
100
AcDbLine
 10
4426.960204444467
 20
1087.287818229131
 30
0.0
 11
4372.646953372884
 21
1087.287818229131
 31
0.0
  0
LINE
  5
2772
330
276D
100
AcDbEntity
  8
SIZE
 62
     0
370
    -2
100
AcDbLine
 10
4382.646953372884
 20
1217.287818229134
 30
0.0
 11
4382.646953372884
 21
1107.287818229131
 31
0.0
  0
INSERT
  5
2773
330
276D
100
AcDbEntity
  8
SIZE
 62
     0
370
    -2
100
AcDbBlockReference
  2
_OPEN30
 10
4382.646953372884
 20
1237.287818229134
 30
0.0
 41
20.0
 42
20.0
 43
20.0
 50
90.0
  0
INSERT
  5
2774
330
276D
100
AcDbEntity
  8
SIZE
 62
     0
370
    -2
100
AcDbBlockReference
  2
_OPEN30
 10
4382.646953372884
 20
1087.287818229131
 30
0.0
 41
20.0
 42
20.0
 43
20.0
 50
270.0
  0
MTEXT
  5
2775
330
276D
100
AcDbEntity
  8
SIZE
 62
     0
100
AcDbMText
 10
4362.646953372884
 20
1162.287818229133
 30
0.0
 40
20.0
 41
0.0
 71
     5
 72
     1
  1
\A1;150
 11
0.0000000000000001
 21
1.0
 31
0.0
 73
     1
 44
1.0
1001
ACAD
1000
MTEXTBEGIN
1070
    73
1070
     1
1070
    44
1040
1.0
1070
    74
1070
     0
1000
MTEXTEND
  0
POINT
  5
2776
330
276D
100
AcDbEntity
  8
Defpoints
 62
     0
100
AcDbPoint
 10
4409.203197721391
 20
1237.287818229134
 30
0.0
  0
POINT
  5
2777
330
276D
100
AcDbEntity
  8
Defpoints
 62
     0
100
AcDbPoint
 10
4436.960204444467
 20
1087.287818229131
 30
0.0
  0
POINT
  5
2778
330
276D
100
AcDbEntity
  8
Defpoints
 62
     0
100
AcDbPoint
 10
4382.646953372884
 20
1087.287818229131
 30
0.0
  0
ENDBLK
  5
276F
330
276D
100
AcDbEntity
  8
0
100
AcDbBlockEnd
  0
BLOCK
  5
277B
330
277A
100
AcDbEntity
  8
0
100
AcDbBlockBegin
  2
*D36
 70
     1
 10
0.0
 20
0.0
 30
0.0
  3
*D36
  1

  0
LINE
  5
277D
330
277A
100
AcDbEntity
  8
SIZE
 62
     0
370
    -2
100
AcDbLine
 10
4426.960204444467
 20
1087.287818229131
 30
0.0
 11
4372.646953372884
 21
1087.287818229131
 31
0.0
  0
LINE
  5
277E
330
277A
100
AcDbEntity
  8
SIZE
 62
     0
370
    -2
100
AcDbLine
 10
4426.960204444467
 20
937.2878182291312
 30
0.0
 11
4372.646953372884
 21
937.2878182291312
 31
0.0
  0
LINE
  5
277F
330
277A
100
AcDbEntity
  8
SIZE
 62
     0
370
    -2
100
AcDbLine
 10
4382.646953372884
 20
1067.287818229131
 30
0.0
 11
4382.646953372884
 21
957.2878182291317
 31
0.0
  0
INSERT
  5
2780
330
277A
100
AcDbEntity
  8
SIZE
 62
     0
370
    -2
100
AcDbBlockReference
  2
_OPEN30
 10
4382.646953372884
 20
1087.287818229131
 30
0.0
 41
20.0
 42
20.0
 43
20.0
 50
90.0
  0
INSERT
  5
2781
330
277A
100
AcDbEntity
  8
SIZE
 62
     0
370
    -2
100
AcDbBlockReference
  2
_OPEN30
 10
4382.646953372884
 20
937.2878182291312
 30
0.0
 41
20.0
 42
20.0
 43
20.0
 50
270.0
  0
MTEXT
  5
2782
330
277A
100
AcDbEntity
  8
SIZE
 62
     0
100
AcDbMText
 10
4362.646953372884
 20
1012.287818229132
 30
0.0
 40
20.0
 41
0.0
 71
     5
 72
     1
  1
\A1;150
 11
0.0000000000000001
 21
1.0
 31
0.0
 73
     1
 44
1.0
1001
ACAD
1000
MTEXTBEGIN
1070
    73
1070
     1
1070
    44
1040
1.0
1070
    74
1070
     0
1000
MTEXTEND
  0
POINT
  5
2783
330
277A
100
AcDbEntity
  8
Defpoints
 62
     0
100
AcDbPoint
 10
4436.960204444467
 20
1087.287818229131
 30
0.0
  0
POINT
  5
2784
330
277A
100
AcDbEntity
  8
Defpoints
 62
     0
100
AcDbPoint
 10
4436.960204444467
 20
937.2878182291312
 30
0.0
  0
POINT
  5
2785
330
277A
100
AcDbEntity
  8
Defpoints
 62
     0
100
AcDbPoint
 10
4382.646953372884
 20
937.2878182291312
 30
0.0
  0
ENDBLK
  5
277C
330
277A
100
AcDbEntity
  8
0
100
AcDbBlockEnd
  0
BLOCK
  5
2788
330
2787
100
AcDbEntity
  8
0
100
AcDbBlockBegin
  2
*D37
 70
     1
 10
0.0
 20
0.0
 30
0.0
  3
*D37
  1

  0
LINE
  5
278A
330
2787
100
AcDbEntity
  8
SIZE
 62
     0
370
    -2
100
AcDbLine
 10
4433.960204444467
 20
1580.287818229131
 30
0.0
 11
4433.960204444467
 21
1714.230913945594
 31
0.0
  0
LINE
  5
278B
330
2787
100
AcDbEntity
  8
SIZE
 62
     0
370
    -2
100
AcDbLine
 10
6175.960204444468
 20
1580.287818229131
 30
0.0
 11
6175.960204444468
 21
1714.230913945594
 31
0.0
  0
LINE
  5
278C
330
2787
100
AcDbEntity
  8
SIZE
 62
     0
370
    -2
100
AcDbLine
 10
4453.960204444467
 20
1704.230913945593
 30
0.0
 11
6155.960204444467
 21
1704.230913945593
 31
0.0
  0
INSERT
  5
278D
330
2787
100
AcDbEntity
  8
SIZE
 62
     0
370
    -2
100
AcDbBlockReference
  2
_OPEN30
 10
4433.960204444467
 20
1704.230913945593
 30
0.0
 41
20.0
 42
20.0
 43
20.0
 50
180.0
  0
INSERT
  5
278E
330
2787
100
AcDbEntity
  8
SIZE
 62
     0
370
    -2
100
AcDbBlockReference
  2
_OPEN30
 10
6175.960204444468
 20
1704.230913945593
 30
0.0
 41
20.0
 42
20.0
 43
20.0
  0
MTEXT
  5
278F
330
2787
100
AcDbEntity
  8
SIZE
 62
     0
100
AcDbMText
 10
5304.960204444467
 20
1724.230913945594
 30
0.0
 40
20.0
 41
0.0
 71
     5
 72
     1
  1
\A1;1742
 73
     1
 44
1.0
1001
ACAD
1000
MTEXTBEGIN
1070
    73
1070
     1
1070
    44
1040
1.0
1070
    74
1070
     0
1000
MTEXTEND
  0
POINT
  5
2790
330
2787
100
AcDbEntity
  8
Defpoints
 62
     0
100
AcDbPoint
 10
4433.960204444467
 20
1570.287818229131
 30
0.0
  0
POINT
  5
2791
330
2787
100
AcDbEntity
  8
Defpoints
 62
     0
100
AcDbPoint
 10
6175.960204444468
 20
1570.287818229131
 30
0.0
  0
POINT
  5
2792
330
2787
100
AcDbEntity
  8
Defpoints
 62
     0
100
AcDbPoint
 10
6175.960204444468
 20
1704.230913945593
 30
0.0
  0
ENDBLK
  5
2789
330
2787
100
AcDbEntity
  8
0
100
AcDbBlockEnd
  0
BLOCK
  5
2795
330
2794
100
AcDbEntity
  8
0
100
AcDbBlockBegin
  2
*D38
 70
     1
 10
0.0
 20
0.0
 30
0.0
  3
*D38
  1

  0
LINE
  5
2797
330
2794
100
AcDbEntity
  8
SIZE
 62
     0
370
    -2
100
AcDbLine
 10
4469.960204444464
 20
1614.9475135489
 30
0.0
 11
4324.624892302296
 21
1614.9475135489
 31
0.0
  0
LINE
  5
2798
330
2794
100
AcDbEntity
  8
SIZE
 62
     0
370
    -2
100
AcDbLine
 10
4464.960204444465
 20
859.0221909444098
 30
0.0
 11
4324.624892302296
 21
859.02219094441
 31
0.0
  0
LINE
  5
2799
330
2794
100
AcDbEntity
  8
SIZE
 62
     0
370
    -2
100
AcDbLine
 10
4334.624892302296
 20
1594.947513548899
 30
0.0
 11
4334.624892302296
 21
879.0221909444099
 31
0.0
  0
INSERT
  5
279A
330
2794
100
AcDbEntity
  8
SIZE
 62
     0
370
    -2
100
AcDbBlockReference
  2
_OPEN30
 10
4334.624892302296
 20
1614.9475135489
 30
0.0
 41
20.0
 42
20.0
 43
20.0
 50
90.0
  0
INSERT
  5
279B
330
2794
100
AcDbEntity
  8
SIZE
 62
     0
370
    -2
100
AcDbBlockReference
  2
_OPEN30
 10
4334.624892302296
 20
859.02219094441
 30
0.0
 41
20.0
 42
20.0
 43
20.0
 50
270.0
  0
MTEXT
  5
279C
330
2794
100
AcDbEntity
  8
SIZE
 62
     0
100
AcDbMText
 10
4314.624892302298
 20
1236.984852246655
 30
0.0
 40
20.0
 41
0.0
 71
     5
 72
     1
  1
\A1;756
 11
0.0000000000000001
 21
1.0
 31
0.0
 73
     1
 44
1.0
1001
ACAD
1000
MTEXTBEGIN
1070
    73
1070
     1
1070
    44
1040
1.0
1070
    74
1070
     0
1000
MTEXTEND
  0
POINT
  5
279D
330
2794
100
AcDbEntity
  8
Defpoints
 62
     0
100
AcDbPoint
 10
4479.960204444465
 20
1614.9475135489
 30
0.0
  0
POINT
  5
279E
330
2794
100
AcDbEntity
  8
Defpoints
 62
     0
100
AcDbPoint
 10
4474.960204444465
 20
859.0221909444098
 30
0.0
  0
POINT
  5
279F
330
2794
100
AcDbEntity
  8
Defpoints
 62
     0
100
AcDbPoint
 10
4334.624892302296
 20
859.02219094441
 30
0.0
  0
ENDBLK
  5
2796
330
2794
100
AcDbEntity
  8
0
100
AcDbBlockEnd
  0
ENDSEC
  0
SECTION
  2
ENTITIES
  0
MTEXT
  5
B60
330
2
100
AcDbEntity
  8
ETC
 48
50.0
100
AcDbMText
 10
5038.229915657432
 20
1824.616308270158
 30
0.0
 40
40.0
 41
651.9792552343242
 71
     1
 72
     5
  1
AG1T-KK77TD-1
 73
     1
 44
1.0
1001
ACAD
1000
MTEXTBEGIN
1070
    73
1070
     1
1070
    44
1040
1.0
1070
    74
1070
     0
1000
MTEXTEND
  0
MULTILEADER
  5
1EBF
330
2
100
AcDbEntity
  8
NOTE
 48
50.0
 92
     1148
310
7C0400001C0000000C00000010000000050000000C00000016000000000000C00C00000013000000112700003C000000060000000200000068CC468C0F12B140F110DE9F4BE999400000000000000000D9095163B311B140F110DE9F4BE9994000000000000000000C0000001300000001000000880000001D000000CEE432
310
E346D5254068354FD408C230400000000000000000D39F22EB1E5FB14068354FD408C230C0CEE432E346D5254000000000000000008119161A1E1098400000000000000000000000000000000000000000000034400000000000000000000000000000000000000000000000000000000000000000000000000000F03F0C00
310
000016000000040000C30C00000017000000FDFFFFFF540000002000000002000000000000000000F0BF498A025C1426D13F000000000000000000000000000000000000000000000000000000000000000000000000000000000000000000000000000000000000F03F0C00000016000000040000C30C00000017000000FD
310
FFFFFF540000002000000002000000000000000000000000000000000000000000000000000000000000000000F0BF498A025C1426D1BF000000000000000000000000000000000000000000000000000000000000F03F0C00000016000000040000C30C00000017000000FDFFFFFF54000000200000000200000000000000
310
0000000000000000000000000000000000000000000000000000F0BF0000000000000000000000000000000000000000000000000000000000000000000000000000F03F080000001F0000000C00000016000000000000C00C00000013000000891300003C00000006000000020000006106B1473454B1405756673D265398
310
40000000000000000068CC468C0F12B140F110DE9F4BE9994000000000000000000C000000130000009A3A00003C00000006000000020000003A22D7C4CBA9B040F510DE9F4BE999400000000000000000D8095163B311B140F510DE9F4BE9994000000000000000000C00000016000000000000C00C00000012000000FF7F
310
00000C00000017000000FFFFFFFF0C00000016000000000000C00C00000013000000993A0000AC0000000B0000005F6B69E914A4B040F510DE9F4BF99940000000000000000000000000000000000000000000000000000000000000F03F000000000000F03F000000000000000000000000000000003138817E0000410004
310
000000010000000000000000003440000000000000F03F0000000000000000000000000000F03F0000000000000000000000000000000000000000726F6D616E732E7368780000657874666F6E742E73687800B00000000B000000CC462057F0A6B040A0BB884AF67399400000000000000000000000000000000000000000
310
00000000000000000000F03F000000000000F03F0000000000000000000000000000000039817E3792B78C8A0036511D08000000010000000000000000003440000000000000F03F0000000000000000000000000000F03F0000000000000000000000000000000000000000726F6D616E732E7368780000657874666F6E74
310
2E73687800
100
AcDbMLeader
300
CONTEXT_DATA{
 40
1.0
 10
4263.795972295624
 20
1670.32385203341
 30
0.0
 41
20.0
140
20.0
145
2.0
174
     1
175
     6
176
     0
177
     0
290
     1
304
18×\P9×7長穴
 11
0.0
 21
0.0
 31
1.0
340
23
 12
4265.795972295624
 22
1682.32385203341
 32
0.0
 13
1.0
 23
0.0
 33
0.0
 42
0.0
 43
0.0
 44
0.0
 45
1.0
170
     1
 90
-1073741824
171
     1
172
     5
 91
-1073741824
141
0.0
 92
 12640252
291
     0
292
     0
173
     0
293
     0
142
0.0
143
0.0
294
     0
295
     0
296
     0
110
4447.120775379199
120
1540.029396386439
130
0.0
111
1.0
121
0.0
131
0.0
112
0.0
122
1.0
132
0.0
297
     0
302
LEADER{
290
     1
291
     1
 10
4370.060734200386
 20
1658.323852033409
 30
0.0
 11
-1.0
 21
0.0
 31
0.0
 90
        0
 40
0.359999999999998
304
LEADER_LINE{
 10
4447.120775379199
 20
1540.029396386439
 30
0.0
 91
        0
305
}
303
}
301
}
340
B17
 90
 67454336
170
     1
 91
-1056964608
341
26
171
    -2
290
     1
291
     1
 41
0.36
342
32
 42
20.0
172
     2
343
23
173
     1
 95
        6
174
     1
175
     2
 92
-1056964608
292
     0
 93
-1056964608
 10
1.0
 20
1.0
 30
1.0
 43
0.0
176
     0
293
     0
294
     0
178
     0
179
     1
 45
1.0
1001
ACAD_MLEADERVER
1070
     2
  0
LINE
  5
256C
330
2
100
AcDbEntity
  8
OUTLINE
 48
50.0
100
AcDbLine
 10
4479.405895393014
 20
1615.287818229131
 30
0.0
 11
4504.960204444468
 21
1615.287818229131
 31
0.0
  0
LINE
  5
256D
330
2
100
AcDbEntity
  8
OUTLINE
 48
50.0
100
AcDbLine
 10
4474.960204444466
 20
1615.287818229131
 30
0.0
 11
4479.405895393014
 21
1615.287818229131
 31
0.0
  0
LINE
  5
256E
330
2
100
AcDbEntity
  8
OUTLINE
 48
50.0
100
AcDbLine
 10
5274.960204444467
 20
1615.287818229131
 30
0.0
 11
5300.514513495921
 21
1615.287818229131
 31
0.0
  0
LINE
  5
256F
330
2
100
AcDbEntity
  8
OUTLINE
 48
50.0
100
AcDbLine
 10
5300.514513495921
 20
1615.287818229131
 30
0.0
 11
5304.960204444467
 21
1615.287818229131
 31
0.0
  0
LINE
  5
2570
330
2
100
AcDbEntity
  8
OUTLINE
 48
50.0
100
AcDbLine
 10
5304.960204444467
 20
1615.287818229131
 30
0.0
 11
5304.960204444467
 21
1614.287818229131
 31
0.0
  0
LINE
  5
2571
330
2
100
AcDbEntity
  8
OUTLINE
 48
50.0
100
AcDbLine
 10
5300.20648417272
 20
1614.732118620054
 30
0.0
 11
5300.514513495921
 21
1615.287818229131
 31
0.0
  0
ELLIPSE
  5
2572
330
2
100
AcDbEntity
  8
OUTLINE
 48
50.0
100
AcDbEllipse
 10
4748.960204444467
 20
1592.547705843507
 30
0.0
 11
2.0
 21
0.0000000000000003
 31
0.0
210
0.0
220
0.0
230
1.0
 40
0.8746197071393961
 41
5.409559468678104
 42
10.29840379926801
  0
ELLIPSE
  5
2573
330
2
100
AcDbEntity
  8
OUTLINE
 48
50.0
100
AcDbEllipse
 10
4748.960204444467
 20
1592.062896223261
 30
0.0
 11
-2.0
 21
-0.0000000000000003
 31
0.0
210
0.0
220
0.0
230
1.0
 40
0.8746197071393961
 41
3.280617325412188
 42
6.14416063535719
  0
ELLIPSE
  5
2574
330
2
100
AcDbEntity
  8
OUTLINE
 48
50.0
100
AcDbEllipse
 10
5030.960204444467
 20
1592.547705843507
 30
0.0
 11
2.0
 21
0.0000000000000003
 31
0.0
210
0.0
220
0.0
230
1.0
 40
0.8746197071393961
 41
5.409559468678104
 42
10.29840379926801
  0
ELLIPSE
  5
2575
330
2
100
AcDbEntity
  8
OUTLINE
 48
50.0
100
AcDbEllipse
 10
5030.960204444467
 20
1592.062896223261
 30
0.0
 11
-2.0
 21
-0.0000000000000003
 31
0.0
210
0.0
220
0.0
230
1.0
 40
0.8746197071393961
 41
3.280617325412188
 42
6.14416063535719
  0
LINE
  5
2576
330
2
100
AcDbEntity
  8
OUTLINE
 48
50.0
100
AcDbLine
 10
5274.960204444465
 20
859.0219323710948
 30
0.0
 11
4504.960204444464
 21
859.0219323710948
 31
0.0
  0
LINE
  5
2577
330
2
100
AcDbEntity
  8
OUTLINE
 48
50.0
100
AcDbLine
 10
4504.960204444464
 20
859.0219323710948
 30
0.0
 11
4479.960204444465
 21
859.0219323710948
 31
0.0
  0
LINE
  5
2578
330
2
100
AcDbEntity
  8
OUTLINE
 48
50.0
100
AcDbLine
 10
5299.960204444466
 20
859.0219323710948
 30
0.0
 11
5274.960204444465
 21
859.0219323710948
 31
0.0
  0
LINE
  5
2579
330
2
100
AcDbEntity
  8
OUTLINE
 48
50.0
100
AcDbLine
 10
4474.960204444465
 20
859.0234838109859
 30
0.0
 11
4474.960204444465
 21
859.0221909444101
 31
0.0
  0
LINE
  5
257A
330
2
100
AcDbEntity
  8
OUTLINE
 48
50.0
100
AcDbLine
 10
5304.960204444466
 20
859.0234838109854
 30
0.0
 11
4474.960204444465
 21
859.0234838109854
 31
0.0
  0
LINE
  5
257B
330
2
100
AcDbEntity
  8
OUTLINE
 48
50.0
100
AcDbLine
 10
4474.960204444465
 20
1610.574540377881
 30
0.0
 11
4474.960204444465
 21
859.0234838109861
 31
0.0
  0
LINE
  5
257C
330
2
100
AcDbEntity
  8
OUTLINE
 48
50.0
100
AcDbLine
 10
4474.960204444466
 20
1610.574540377881
 30
0.0
 11
4479.960204444465
 21
1614.9475135489
 31
0.0
  0
LINE
  5
257D
330
2
100
AcDbEntity
  8
OUTLINE
 48
50.0
100
AcDbLine
 10
5299.960204444466
 20
1614.9475135489
 30
0.0
 11
4479.960204444465
 21
1614.9475135489
 31
0.0
  0
LINE
  5
257E
330
2
100
AcDbEntity
  8
OUTLINE
 48
50.0
100
AcDbLine
 10
5304.960204444466
 20
859.0234838109859
 30
0.0
 11
5304.960204444466
 21
859.0221909444101
 31
0.0
  0
LINE
  5
257F
330
2
100
AcDbEntity
  8
OUTLINE
 48
50.0
100
AcDbLine
 10
5304.960204444466
 20
1610.574540377881
 30
0.0
 11
5304.960204444466
 21
859.0234838109861
 31
0.0
  0
LINE
  5
2580
330
2
100
AcDbEntity
  8
OUTLINE
 48
50.0
100
AcDbLine
 10
5299.960204444466
 20
1614.9475135489
 30
0.0
 11
5304.960204444466
 21
1610.574540377881
 31
0.0
  0
LINE
  5
2581
330
2
100
AcDbEntity
  8
OUTLINE
 48
50.0
100
AcDbLine
 10
5299.960204444466
 20
859.0219323710948
 30
0.0
 11
5304.960204444466
 21
859.0221909444098
 31
0.0
  0
LINE
  5
2582
330
2
100
AcDbEntity
  8
OUTLINE
 48
50.0
100
AcDbLine
 10
4474.960204444465
 20
859.0221909444098
 30
0.0
 11
4479.960204444465
 21
859.0219323710948
 31
0.0
  0
ELLIPSE
  5
2583
330
2
100
AcDbEntity
  8
OUTLINE
 48
50.0
100
AcDbEllipse
 10
4559.960204444464
 20
859.0227080910395
 30
0.0
 11
-2.0
 21
0.0
 31
0.0
210
0.0
220
0.0
230
1.0
 40
0.0000517146630204
 41
0.0000000000000002
 42
6.283185307174849
  0
ELLIPSE
  5
2584
330
2
100
AcDbEntity
  8
OUTLINE
 48
50.0
100
AcDbEllipse
 10
4779.960204444464
 20
859.0227080910395
 30
0.0
 11
-2.0
 21
0.0
 31
0.0
210
0.0
220
0.0
230
1.0
 40
0.0000517146630204
 41
0.0000000000000002
 42
6.283185307174849
  0
ELLIPSE
  5
2585
330
2
100
AcDbEntity
  8
OUTLINE
 48
50.0
100
AcDbEllipse
 10
4999.960204444466
 20
859.0227080910395
 30
0.0
 11
-2.0
 21
0.0
 31
0.0
210
0.0
220
0.0
230
1.0
 40
0.0000517146630204
 41
0.0000000000000002
 42
6.283185307174849
  0
ELLIPSE
  5
2586
330
2
100
AcDbEntity
  8
OUTLINE
 48
50.0
100
AcDbEllipse
 10
4488.960204444463
 20
869.9083592053721
 30
0.0
 11
-2.5
 21
0.0
 31
0.0
210
0.0
220
0.0
230
1.0
 40
0.8745946342037113
 41
3.252696422483191
 42
6.172081538286187
  0
ELLIPSE
  5
2587
330
2
100
AcDbEntity
  8
OUTLINE
 48
50.0
100
AcDbEllipse
 10
4488.960204444463
 20
1053.573232388151
 30
0.0
 11
-2.5
 21
0.0
 31
0.0
210
0.0
220
0.0
230
1.0
 40
0.8745946342037113
 41
3.252696422483413
 42
6.172081538285985
  0
ELLIPSE
  5
2588
330
2
100
AcDbEntity
  8
OUTLINE
 48
50.0
100
AcDbEllipse
 10
4488.960204444463
 20
1237.23810557093
 30
0.0
 11
-2.5
 21
0.0
 31
0.0
210
0.0
220
0.0
230
1.0
 40
0.8745946342037113
 41
3.252696422483191
 42
6.172081538286187
  0
ELLIPSE
  5
2589
330
2
100
AcDbEntity
  8
OUTLINE
 48
50.0
100
AcDbEllipse
 10
4488.960204444463
 20
1420.902978753709
 30
0.0
 11
-2.5
 21
0.0
 31
0.0
210
0.0
220
0.0
230
1.0
 40
0.8745946342037113
 41
3.252696422483191
 42
6.172081538286187
  0
ELLIPSE
  5
258A
330
2
100
AcDbEntity
  8
OUTLINE
 48
50.0
100
AcDbEllipse
 10
5290.960204444465
 20
869.9083592053721
 30
0.0
 11
-2.5
 21
0.0
 31
0.0
210
0.0
220
0.0
230
1.0
 40
0.8745946342037113
 41
3.252696422483201
 42
6.172081538286177
  0
ELLIPSE
  5
258B
330
2
100
AcDbEntity
  8
OUTLINE
 48
50.0
100
AcDbEllipse
 10
5290.960204444465
 20
1053.573232388151
 30
0.0
 11
-2.5
 21
0.0
 31
0.0
210
0.0
220
0.0
230
1.0
 40
0.8745946342037113
 41
3.252696422483403
 42
6.172081538285974
  0
ELLIPSE
  5
258C
330
2
100
AcDbEntity
  8
OUTLINE
 48
50.0
100
AcDbEllipse
 10
5290.960204444465
 20
1237.23810557093
 30
0.0
 11
-2.5
 21
0.0
 31
0.0
210
0.0
220
0.0
230
1.0
 40
0.8745946342037113
 41
3.252696422483201
 42
6.172081538286177
  0
ELLIPSE
  5
258D
330
2
100
AcDbEntity
  8
OUTLINE
 48
50.0
100
AcDbEllipse
 10
5290.960204444465
 20
1420.902978753709
 30
0.0
 11
-2.5
 21
0.0
 31
0.0
210
0.0
220
0.0
230
1.0
 40
0.8745946342037113
 41
3.252696422483201
 42
6.172081538286177
  0
ELLIPSE
  5
258E
330
2
100
AcDbEntity
  8
OUTLINE
 48
50.0
100
AcDbEllipse
 10
4748.960204444466
 20
1592.597792843545
 30
0.0
 11
-2.5
 21
0.0
 31
0.0
210
0.0
220
0.0
230
1.0
 40
0.8745946342037113
 41
3.252696422483446
 42
6.172081538285931
  0
ELLIPSE
  5
258F
330
2
100
AcDbEntity
  8
OUTLINE
 48
50.0
100
AcDbEllipse
 10
5030.960204444466
 20
1592.597792843545
 30
0.0
 11
-2.5
 21
0.0
 31
0.0
210
0.0
220
0.0
230
1.0
 40
0.8745946342037113
 41
3.252696422483446
 42
6.172081538285931
  0
ELLIPSE
  5
2590
330
2
100
AcDbEntity
  8
OUTLINE
 48
50.0
100
AcDbEllipse
 10
5290.960204444465
 20
1421.387833603971
 30
0.0
 11
2.5
 21
0.0
 31
0.0
210
0.0
220
0.0
230
1.0
 40
0.8745946342037099
 41
0.0000000000000002
 42
6.283185307179585
  0
ELLIPSE
  5
2591
330
2
100
AcDbEntity
  8
OUTLINE
 48
50.0
100
AcDbEllipse
 10
5290.960204444465
 20
1237.722960421191
 30
0.0
 11
2.5
 21
0.0
 31
0.0
210
0.0
220
0.0
230
1.0
 40
0.8745946342037099
 41
0.0000000000000002
 42
6.283185307179585
  0
ELLIPSE
  5
2592
330
2
100
AcDbEntity
  8
OUTLINE
 48
50.0
100
AcDbEllipse
 10
5290.960204444465
 20
1054.058087238412
 30
0.0
 11
2.5
 21
0.0
 31
0.0
210
0.0
220
0.0
230
1.0
 40
0.8745946342037099
 41
0.0000000000000002
 42
6.283185307179585
  0
ELLIPSE
  5
2593
330
2
100
AcDbEntity
  8
OUTLINE
 48
50.0
100
AcDbEllipse
 10
5290.960204444465
 20
870.3932140556334
 30
0.0
 11
2.5
 21
0.0
 31
0.0
210
0.0
220
0.0
230
1.0
 40
0.8745946342037099
 41
0.0000000000000002
 42
6.283185307179585
  0
ELLIPSE
  5
2594
330
2
100
AcDbEntity
  8
OUTLINE
 48
50.0
100
AcDbEllipse
 10
4488.960204444463
 20
1421.387833603971
 30
0.0
 11
2.5
 21
0.0
 31
0.0
210
0.0
220
0.0
230
1.0
 40
0.8745946342037099
 41
0.0000000000000002
 42
6.283185307179585
  0
ELLIPSE
  5
2595
330
2
100
AcDbEntity
  8
OUTLINE
 48
50.0
100
AcDbEllipse
 10
4488.960204444463
 20
1237.722960421191
 30
0.0
 11
2.5
 21
0.0
 31
0.0
210
0.0
220
0.0
230
1.0
 40
0.8745946342037099
 41
0.0000000000000002
 42
6.283185307179585
  0
ELLIPSE
  5
2596
330
2
100
AcDbEntity
  8
OUTLINE
 48
50.0
100
AcDbEllipse
 10
4488.960204444463
 20
1054.058087238412
 30
0.0
 11
2.5
 21
0.0
 31
0.0
210
0.0
220
0.0
230
1.0
 40
0.8745946342037099
 41
0.0000000000000002
 42
6.283185307179585
  0
ELLIPSE
  5
2597
330
2
100
AcDbEntity
  8
OUTLINE
 48
50.0
100
AcDbEllipse
 10
4488.960204444463
 20
870.3932140556334
 30
0.0
 11
2.5
 21
0.0
 31
0.0
210
0.0
220
0.0
230
1.0
 40
0.8745946342037099
 41
0.0000000000000002
 42
6.283185307179585
  0
ELLIPSE
  5
2598
330
2
100
AcDbEntity
  8
OUTLINE
 48
50.0
100
AcDbEllipse
 10
4748.960204444466
 20
1593.082647693807
 30
0.0
 11
2.5
 21
0.0
 31
0.0
210
0.0
220
0.0
230
1.0
 40
0.8745946342037099
 41
0.0000000000000002
 42
6.283185307179585
  0
ELLIPSE
  5
2599
330
2
100
AcDbEntity
  8
OUTLINE
 48
50.0
100
AcDbEllipse
 10
5030.960204444466
 20
1593.082647693807
 30
0.0
 11
2.5
 21
0.0
 31
0.0
210
0.0
220
0.0
230
1.0
 40
0.8745946342037099
 41
0.0000000000000002
 42
6.283185307179585
  0
ELLIPSE
  5
259A
330
2
100
AcDbEntity
  8
OUTLINE
 48
50.0
100
AcDbEllipse
 10
5290.960204444465
 20
1605.05270678675
 30
0.0
 11
2.5
 21
0.0
 31
0.0
210
0.0
220
0.0
230
1.0
 40
0.8745946342037099
 41
0.0000000000000002
 42
6.283185307179585
  0
ELLIPSE
  5
259B
330
2
100
AcDbEntity
  8
OUTLINE
 48
50.0
100
AcDbEllipse
 10
5290.960204444465
 20
1604.567851936488
 30
0.0
 11
-2.5
 21
0.0
 31
0.0
210
0.0
220
0.0
230
1.0
 40
0.8745946342037113
 41
3.252696422483359
 42
6.172081538286018
  0
ELLIPSE
  5
259C
330
2
100
AcDbEntity
  8
OUTLINE
 48
50.0
100
AcDbEllipse
 10
4488.960204444463
 20
1605.05270678675
 30
0.0
 11
2.5
 21
0.0
 31
0.0
210
0.0
220
0.0
230
1.0
 40
0.8745946342037099
 41
0.0000000000000002
 42
6.283185307179585
  0
ELLIPSE
  5
259D
330
2
100
AcDbEntity
  8
OUTLINE
 48
50.0
100
AcDbEllipse
 10
4488.960204444463
 20
1604.567851936488
 30
0.0
 11
-2.5
 21
0.0
 31
0.0
210
0.0
220
0.0
230
1.0
 40
0.8745946342037113
 41
3.252696422483368
 42
6.172081538286027
  0
ELLIPSE
  5
259E
330
2
100
AcDbEntity
  8
OUTLINE
 48
50.0
100
AcDbEllipse
 10
5259.960204444466
 20
1240.346744323803
 30
0.0
 11
2.049999999999998
 21
0.0
 31
0.0
210
0.0
220
0.0
230
1.0
 40
0.8745946342037099
 41
0.0000000000000002
 42
6.283185307179585
  0
ELLIPSE
  5
259F
330
2
100
AcDbEntity
  8
OUTLINE
 48
50.0
100
AcDbEllipse
 10
5259.960204444466
 20
1239.861889473541
 30
0.0
 11
-2.049999999999998
 21
0.0
 31
0.0
210
0.0
220
0.0
230
1.0
 40
0.8745946342037115
 41
3.277221913681439
 42
6.147556047087937
  0
ELLIPSE
  5
25A0
330
2
100
AcDbEntity
  8
OUTLINE
 48
50.0
100
AcDbEllipse
 10
5074.960204444465
 20
1235.09917651858
 30
0.0
 11
2.049999999999998
 21
0.0
 31
0.0
210
0.0
220
0.0
230
1.0
 40
0.8745946342037099
 41
0.0000000000000002
 42
6.283185307179585
  0
ELLIPSE
  5
25A1
330
2
100
AcDbEntity
  8
OUTLINE
 48
50.0
100
AcDbEllipse
 10
5074.960204444465
 20
1234.614321668319
 30
0.0
 11
-2.049999999999998
 21
0.0
 31
0.0
210
0.0
220
0.0
230
1.0
 40
0.8745946342037115
 41
3.277221913681178
 42
6.147556047088198
  0
ELLIPSE
  5
25A2
330
2
100
AcDbEntity
  8
OUTLINE
 48
50.0
100
AcDbEllipse
 10
4889.960204444466
 20
1240.346744323803
 30
0.0
 11
2.049999999999998
 21
0.0
 31
0.0
210
0.0
220
0.0
230
1.0
 40
0.8745946342037099
 41
0.0000000000000002
 42
6.283185307179585
  0
ELLIPSE
  5
25A3
330
2
100
AcDbEntity
  8
OUTLINE
 48
50.0
100
AcDbEllipse
 10
4889.960204444466
 20
1239.861889473541
 30
0.0
 11
-2.049999999999998
 21
0.0
 31
0.0
210
0.0
220
0.0
230
1.0
 40
0.8745946342037115
 41
3.277221913681439
 42
6.147556047087937
  0
ELLIPSE
  5
25A4
330
2
100
AcDbEntity
  8
OUTLINE
 48
50.0
100
AcDbEllipse
 10
4704.960204444463
 20
1235.09917651858
 30
0.0
 11
2.049999999999998
 21
0.0
 31
0.0
210
0.0
220
0.0
230
1.0
 40
0.8745946342037099
 41
0.0000000000000002
 42
6.283185307179585
  0
ELLIPSE
  5
25A5
330
2
100
AcDbEntity
  8
OUTLINE
 48
50.0
100
AcDbEllipse
 10
4704.960204444463
 20
1234.614321668319
 30
0.0
 11
-2.049999999999998
 21
0.0
 31
0.0
210
0.0
220
0.0
230
1.0
 40
0.8745946342037115
 41
3.277221913681193
 42
6.147556047088182
  0
ELLIPSE
  5
25A6
330
2
100
AcDbEntity
  8
OUTLINE
 48
50.0
100
AcDbEllipse
 10
5219.960204444465
 20
859.0227080910395
 30
0.0
 11
-2.0
 21
0.0
 31
0.0
210
0.0
220
0.0
230
1.0
 40
0.0000517146630204
 41
0.0000000000000002
 42
6.283185307174849
  0
ELLIPSE
  5
25A7
330
2
100
AcDbEntity
  8
OUTLINE
 48
50.0
100
AcDbEllipse
 10
4519.960204444465
 20
1240.346744323803
 30
0.0
 11
2.049999999999998
 21
0.0
 31
0.0
210
0.0
220
0.0
230
1.0
 40
0.8745946342037099
 41
0.0000000000000002
 42
6.283185307179585
  0
ELLIPSE
  5
25A8
330
2
100
AcDbEntity
  8
OUTLINE
 48
50.0
100
AcDbEllipse
 10
4519.960204444465
 20
1239.861889473541
 30
0.0
 11
-2.049999999999998
 21
0.0
 31
0.0
210
0.0
220
0.0
230
1.0
 40
0.8745946342037115
 41
3.277221913681439
 42
6.147556047087937
  0
ELLIPSE
  5
25A9
330
2
100
AcDbEntity
  8
OUTLINE
 48
50.0
100
AcDbEllipse
 10
5074.960204444465
 20
1234.614321668322
 30
0.0
 11
2.049999999999999
 21
0.0
 31
0.0
210
0.0
220
0.0
230
1.0
 40
0.8745946342037111
 41
0.1356292600931353
 42
3.005963393501711
  0
ELLIPSE
  5
25AA
330
2
100
AcDbEntity
  8
OUTLINE
 48
50.0
100
AcDbEllipse
 10
4889.960204444466
 20
1239.861889473544
 30
0.0
 11
2.049999999999999
 21
0.0
 31
0.0
210
0.0
220
0.0
230
1.0
 40
0.8745946342037111
 41
0.1356292600932035
 42
3.00596339350145
  0
ELLIPSE
  5
25AB
330
2
100
AcDbEntity
  8
OUTLINE
 48
50.0
100
AcDbEllipse
 10
4704.960204444465
 20
1234.614321668322
 30
0.0
 11
2.049999999999999
 21
0.0
 31
0.0
210
0.0
220
0.0
230
1.0
 40
0.8745946342037111
 41
0.1356292600941856
 42
3.005963393502269
  0
ELLIPSE
  5
25AC
330
2
100
AcDbEntity
  8
OUTLINE
 48
50.0
100
AcDbEllipse
 10
4519.960204444465
 20
1239.861889473544
 30
0.0
 11
2.049999999999999
 21
0.0
 31
0.0
210
0.0
220
0.0
230
1.0
 40
0.8745946342037111
 41
0.1356292600941856
 42
3.005963393502269
  0
ELLIPSE
  5
25AD
330
2
100
AcDbEntity
  8
OUTLINE
 48
50.0
100
AcDbEllipse
 10
5074.960204444465
 20
1234.12946681806
 30
0.0
 11
-2.049999999999999
 21
0.0
 31
0.0
210
0.0
220
0.0
230
1.0
 40
0.8745946342037111
 41
3.415429845649107
 42
6.009348115122969
  0
ELLIPSE
  5
25AE
330
2
100
AcDbEntity
  8
OUTLINE
 48
50.0
100
AcDbEllipse
 10
4889.960204444466
 20
1239.377034623283
 30
0.0
 11
-2.049999999999999
 21
0.0
 31
0.0
210
0.0
220
0.0
230
1.0
 40
0.8745946342037111
 41
3.415429845649346
 42
6.009348115122651
  0
ELLIPSE
  5
25AF
330
2
100
AcDbEntity
  8
OUTLINE
 48
50.0
100
AcDbEllipse
 10
4704.960204444465
 20
1234.12946681806
 30
0.0
 11
-2.049999999999999
 21
0.0
 31
0.0
210
0.0
220
0.0
230
1.0
 40
0.8745946342037111
 41
3.415429845649585
 42
6.009348115123
  0
ELLIPSE
  5
25B0
330
2
100
AcDbEntity
  8
OUTLINE
 48
50.0
100
AcDbEllipse
 10
4519.960204444465
 20
1239.377034623282
 30
0.0
 11
-2.049999999999999
 21
0.0
 31
0.0
210
0.0
220
0.0
230
1.0
 40
0.8745946342037111
 41
3.415429845649346
 42
6.009348115123238
  0
ELLIPSE
  5
25B1
330
2
100
AcDbEntity
  8
OUTLINE
 48
50.0
100
AcDbEllipse
 10
5259.960204444467
 20
1239.861889473544
 30
0.0
 11
2.049999999999999
 21
0.0
 31
0.0
210
0.0
220
0.0
230
1.0
 40
0.8745946342037111
 41
0.1356292600931353
 42
3.005963393501711
  0
ELLIPSE
  5
25B2
330
2
100
AcDbEntity
  8
OUTLINE
 48
50.0
100
AcDbEllipse
 10
5259.960204444467
 20
1239.377034623283
 30
0.0
 11
-2.049999999999999
 21
0.0
 31
0.0
210
0.0
220
0.0
230
1.0
 40
0.8745946342037111
 41
3.415429845649107
 42
6.009348115122888
  0
LINE
  5
25B3
330
2
100
AcDbEntity
  8
NOTE
 48
50.0
100
AcDbLine
 10
6158.960204444468
 20
937.2878182291319
 30
0.0
 11
6159.960204444466
 21
937.2878182291319
 31
0.0
  0
LINE
  5
25B4
330
2
100
AcDbEntity
  8
NOTE
 48
50.0
100
AcDbLine
 10
6159.460204444466
 20
936.7878182291319
 30
0.0
 11
6159.460204444466
 21
937.787818229132
 31
0.0
  0
LINE
  5
25B5
330
2
100
AcDbEntity
  8
NOTE
 48
50.0
100
AcDbLine
 10
6145.960204444467
 20
937.2878182291319
 30
0.0
 11
6157.960204444466
 21
937.2878182291319
 31
0.0
  0
LINE
  5
25B6
330
2
100
AcDbEntity
  8
NOTE
 48
50.0
100
AcDbLine
 10
6160.960204444466
 20
937.2878182291319
 30
0.0
 11
6172.960204444468
 21
937.2878182291319
 31
0.0
  0
LINE
  5
25B7
330
2
100
AcDbEntity
  8
NOTE
 48
50.0
100
AcDbLine
 10
6159.460204444466
 20
923.787818229132
 30
0.0
 11
6159.460204444466
 21
935.7878182291319
 31
0.0
  0
LINE
  5
25B8
330
2
100
AcDbEntity
  8
NOTE
 48
50.0
100
AcDbLine
 10
6159.460204444466
 20
938.787818229132
 30
0.0
 11
6159.460204444466
 21
950.7878182291319
 31
0.0
  0
ELLIPSE
  5
25B9
330
2
100
AcDbEntity
  8
OUTLINE
 48
50.0
100
AcDbEllipse
 10
5578.960204444467
 20
1592.547705843507
 30
0.0
 11
2.0
 21
0.0000000000000021
 31
0.0
210
0.0
220
0.0
230
1.0
 40
0.8746197071393957
 41
5.409559468669231
 42
10.29840379925613
  0
ELLIPSE
  5
25BA
330
2
100
AcDbEntity
  8
OUTLINE
 48
50.0
100
AcDbEllipse
 10
5578.960204444467
 20
1592.062896223261
 30
0.0
 11
-2.0
 21
-0.0000000000000021
 31
0.0
210
0.0
220
0.0
230
1.0
 40
0.8746197071393957
 41
3.280617325412185
 42
6.144160635357187
  0
ELLIPSE
  5
25BB
330
2
100
AcDbEntity
  8
OUTLINE
 48
50.0
100
AcDbEllipse
 10
5860.960204444467
 20
1592.547705843507
 30
0.0
 11
2.0
 21
0.0000000000000021
 31
0.0
210
0.0
220
0.0
230
1.0
 40
0.8746197071393957
 41
5.40955946866762
 42
10.29840379925753
  0
ELLIPSE
  5
25BC
330
2
100
AcDbEntity
  8
OUTLINE
 48
50.0
100
AcDbEllipse
 10
5860.960204444467
 20
1592.062896223261
 30
0.0
 11
-2.0
 21
-0.0000000000000021
 31
0.0
210
0.0
220
0.0
230
1.0
 40
0.8746197071393957
 41
3.280617325412193
 42
6.144160635357179
  0
LINE
  5
25BD
330
2
100
AcDbEntity
  8
OUTLINE
 48
50.0
100
AcDbLine
 10
6104.960204444468
 20
859.0219323710941
 30
0.0
 11
5334.960204444468
 21
859.0219323710952
 31
0.0
  0
LINE
  5
25BE
330
2
100
AcDbEntity
  8
OUTLINE
 48
50.0
100
AcDbLine
 10
5334.960204444468
 20
859.0219323710952
 30
0.0
 11
5309.960204444468
 21
859.0219323710952
 31
0.0
  0
LINE
  5
25BF
330
2
100
AcDbEntity
  8
OUTLINE
 48
50.0
100
AcDbLine
 10
6129.960204444468
 20
859.0219323710941
 30
0.0
 11
6104.960204444468
 21
859.0219323710941
 31
0.0
  0
LINE
  5
25C0
330
2
100
AcDbEntity
  8
OUTLINE
 48
50.0
100
AcDbLine
 10
5304.960204444468
 20
859.0234838109861
 30
0.0
 11
5304.960204444468
 21
859.0221909444109
 31
0.0
  0
LINE
  5
25C1
330
2
100
AcDbEntity
  8
OUTLINE
 48
50.0
100
AcDbLine
 10
6134.960204444467
 20
859.0234838109854
 30
0.0
 11
5304.960204444468
 21
859.0234838109861
 31
0.0
  0
LINE
  5
25C2
330
2
100
AcDbEntity
  8
OUTLINE
 48
50.0
100
AcDbLine
 10
5304.960204444469
 20
1610.574540377882
 30
0.0
 11
5304.960204444468
 21
859.0234838109868
 31
0.0
  0
LINE
  5
25C3
330
2
100
AcDbEntity
  8
OUTLINE
 48
50.0
100
AcDbLine
 10
5304.960204444469
 20
1610.574540377882
 30
0.0
 11
5309.960204444469
 21
1614.9475135489
 31
0.0
  0
LINE
  5
25C4
330
2
100
AcDbEntity
  8
OUTLINE
 48
50.0
100
AcDbLine
 10
6129.960204444468
 20
1614.9475135489
 30
0.0
 11
5309.960204444469
 21
1614.9475135489
 31
0.0
  0
LINE
  5
25C5
330
2
100
AcDbEntity
  8
OUTLINE
 48
50.0
100
AcDbLine
 10
6134.960204444467
 20
859.0234838109854
 30
0.0
 11
6134.960204444467
 21
859.0221909444098
 31
0.0
  0
LINE
  5
25C6
330
2
100
AcDbEntity
  8
OUTLINE
 48
50.0
100
AcDbLine
 10
6134.960204444469
 20
1610.574540377881
 30
0.0
 11
6134.960204444467
 21
859.0234838109859
 31
0.0
  0
LINE
  5
25C7
330
2
100
AcDbEntity
  8
OUTLINE
 48
50.0
100
AcDbLine
 10
6129.960204444468
 20
1614.9475135489
 30
0.0
 11
6134.960204444469
 21
1610.574540377881
 31
0.0
  0
LINE
  5
25C8
330
2
100
AcDbEntity
  8
OUTLINE
 48
50.0
100
AcDbLine
 10
6129.960204444468
 20
859.0219323710948
 30
0.0
 11
6134.960204444467
 21
859.0221909444098
 31
0.0
  0
LINE
  5
25C9
330
2
100
AcDbEntity
  8
OUTLINE
 48
50.0
100
AcDbLine
 10
5304.960204444468
 20
859.0221909444109
 30
0.0
 11
5309.960204444468
 21
859.0219323710957
 31
0.0
  0
ELLIPSE
  5
25CA
330
2
100
AcDbEntity
  8
OUTLINE
 48
50.0
100
AcDbEllipse
 10
5389.960204444468
 20
859.0227080910404
 30
0.0
 11
-1.999999999999999
 21
0.0000000000000022
 31
0.0
210
0.0
220
0.0
230
1.0
 40
0.0000517146630197
 41
0.0000000000217109
 42
6.283185307192024
  0
ELLIPSE
  5
25CB
330
2
100
AcDbEntity
  8
OUTLINE
 48
50.0
100
AcDbEllipse
 10
5609.960204444468
 20
859.0227080910397
 30
0.0
 11
-2.0
 21
0.0000000000000022
 31
0.0
210
0.0
220
0.0
230
1.0
 40
0.0000517146630197
 41
0.0000000000217109
 42
6.283185307192024
  0
ELLIPSE
  5
25CC
330
2
100
AcDbEntity
  8
OUTLINE
 48
50.0
100
AcDbEllipse
 10
5829.960204444468
 20
859.0227080910397
 30
0.0
 11
-1.999999999999999
 21
0.0000000000000022
 31
0.0
210
0.0
220
0.0
230
1.0
 40
0.0000517146630197
 41
0.0000000000217109
 42
6.283185307192024
  0
ELLIPSE
  5
25CD
330
2
100
AcDbEntity
  8
OUTLINE
 48
50.0
100
AcDbEllipse
 10
5318.960204444469
 20
869.9083592053728
 30
0.0
 11
-2.5
 21
0.0000000000000005
 31
0.0
210
0.0
220
0.0
230
1.0
 40
0.8745946342037116
 41
3.252696422483403
 42
6.172081538285977
  0
ELLIPSE
  5
25CE
330
2
100
AcDbEntity
  8
OUTLINE
 48
50.0
100
AcDbEllipse
 10
5318.960204444469
 20
1053.573232388152
 30
0.0
 11
-2.5
 21
0.0000000000000005
 31
0.0
210
0.0
220
0.0
230
1.0
 40
0.8745946342037116
 41
3.252696422483403
 42
6.172081538285977
  0
ELLIPSE
  5
25CF
330
2
100
AcDbEntity
  8
OUTLINE
 48
50.0
100
AcDbEllipse
 10
5318.960204444469
 20
1237.238105570931
 30
0.0
 11
-2.5
 21
0.0000000000000005
 31
0.0
210
0.0
220
0.0
230
1.0
 40
0.8745946342037116
 41
3.252696422483403
 42
6.172081538285977
  0
ELLIPSE
  5
25D0
330
2
100
AcDbEntity
  8
OUTLINE
 48
50.0
100
AcDbEllipse
 10
5318.960204444469
 20
1420.90297875371
 30
0.0
 11
-2.5
 21
0.0000000000000005
 31
0.0
210
0.0
220
0.0
230
1.0
 40
0.8745946342037116
 41
3.252696422483403
 42
6.172081538285977
  0
ELLIPSE
  5
25D1
330
2
100
AcDbEntity
  8
OUTLINE
 48
50.0
100
AcDbEllipse
 10
6120.960204444468
 20
869.9083592053721
 30
0.0
 11
-2.5
 21
0.0000000000000005
 31
0.0
210
0.0
220
0.0
230
1.0
 40
0.8745946342037116
 41
3.252696422483403
 42
6.172081538285977
  0
ELLIPSE
  5
25D2
330
2
100
AcDbEntity
  8
OUTLINE
 48
50.0
100
AcDbEllipse
 10
6120.960204444469
 20
1053.573232388151
 30
0.0
 11
-2.5
 21
0.0000000000000005
 31
0.0
210
0.0
220
0.0
230
1.0
 40
0.8745946342037116
 41
3.252696422483403
 42
6.172081538285977
  0
ELLIPSE
  5
25D3
330
2
100
AcDbEntity
  8
OUTLINE
 48
50.0
100
AcDbEllipse
 10
6120.960204444469
 20
1237.23810557093
 30
0.0
 11
-2.5
 21
0.0000000000000005
 31
0.0
210
0.0
220
0.0
230
1.0
 40
0.8745946342037116
 41
3.252696422483403
 42
6.172081538285977
  0
ELLIPSE
  5
25D4
330
2
100
AcDbEntity
  8
OUTLINE
 48
50.0
100
AcDbEllipse
 10
6120.960204444469
 20
1420.902978753709
 30
0.0
 11
-2.5
 21
0.0000000000000005
 31
0.0
210
0.0
220
0.0
230
1.0
 40
0.8745946342037116
 41
3.252696422483403
 42
6.172081538285977
  0
ELLIPSE
  5
25D5
330
2
100
AcDbEntity
  8
OUTLINE
 48
50.0
100
AcDbEllipse
 10
5578.960204444469
 20
1592.597792843546
 30
0.0
 11
-2.5
 21
0.0000000000000005
 31
0.0
210
0.0
220
0.0
230
1.0
 40
0.8745946342037116
 41
3.252696422483448
 42
6.172081538285932
  0
ELLIPSE
  5
25D6
330
2
100
AcDbEntity
  8
OUTLINE
 48
50.0
100
AcDbEllipse
 10
5860.960204444469
 20
1592.597792843545
 30
0.0
 11
-2.5
 21
0.0000000000000005
 31
0.0
210
0.0
220
0.0
230
1.0
 40
0.8745946342037116
 41
3.252696422483448
 42
6.172081538285932
  0
ELLIPSE
  5
25D7
330
2
100
AcDbEntity
  8
OUTLINE
 48
50.0
100
AcDbEllipse
 10
6120.960204444469
 20
1421.387833603971
 30
0.0
 11
2.5
 21
-0.0000000000000005
 31
0.0
210
0.0
220
0.0
230
1.0
 40
0.8745946342037104
 41
0.0000000000000002
 42
6.283185307179585
  0
ELLIPSE
  5
25D8
330
2
100
AcDbEntity
  8
OUTLINE
 48
50.0
100
AcDbEllipse
 10
6120.960204444469
 20
1237.722960421191
 30
0.0
 11
2.5
 21
-0.0000000000000005
 31
0.0
210
0.0
220
0.0
230
1.0
 40
0.8745946342037104
 41
0.0000000000000002
 42
6.283185307179585
  0
ELLIPSE
  5
25D9
330
2
100
AcDbEntity
  8
OUTLINE
 48
50.0
100
AcDbEllipse
 10
6120.960204444469
 20
1054.058087238412
 30
0.0
 11
2.5
 21
-0.0000000000000005
 31
0.0
210
0.0
220
0.0
230
1.0
 40
0.8745946342037104
 41
0.0000000000000002
 42
6.283185307179585
  0
ELLIPSE
  5
25DA
330
2
100
AcDbEntity
  8
OUTLINE
 48
50.0
100
AcDbEllipse
 10
6120.960204444468
 20
870.3932140556334
 30
0.0
 11
2.5
 21
-0.0000000000000005
 31
0.0
210
0.0
220
0.0
230
1.0
 40
0.8745946342037104
 41
0.0000000000000002
 42
6.283185307179585
  0
ELLIPSE
  5
25DB
330
2
100
AcDbEntity
  8
OUTLINE
 48
50.0
100
AcDbEllipse
 10
5318.960204444469
 20
1421.387833603971
 30
0.0
 11
2.5
 21
-0.0000000000000005
 31
0.0
210
0.0
220
0.0
230
1.0
 40
0.8745946342037104
 41
0.0000000000000002
 42
6.283185307179585
  0
ELLIPSE
  5
25DC
330
2
100
AcDbEntity
  8
OUTLINE
 48
50.0
100
AcDbEllipse
 10
5318.960204444469
 20
1237.722960421192
 30
0.0
 11
2.5
 21
-0.0000000000000005
 31
0.0
210
0.0
220
0.0
230
1.0
 40
0.8745946342037104
 41
0.0000000000000002
 42
6.283185307179585
  0
ELLIPSE
  5
25DD
330
2
100
AcDbEntity
  8
OUTLINE
 48
50.0
100
AcDbEllipse
 10
5318.960204444469
 20
1054.058087238413
 30
0.0
 11
2.5
 21
-0.0000000000000005
 31
0.0
210
0.0
220
0.0
230
1.0
 40
0.8745946342037104
 41
0.0000000000000002
 42
6.283185307179585
  0
ELLIPSE
  5
25DE
330
2
100
AcDbEntity
  8
OUTLINE
 48
50.0
100
AcDbEllipse
 10
5318.960204444469
 20
870.3932140556345
 30
0.0
 11
2.5
 21
-0.0000000000000005
 31
0.0
210
0.0
220
0.0
230
1.0
 40
0.8745946342037104
 41
0.0000000000000002
 42
6.283185307179585
  0
ELLIPSE
  5
25DF
330
2
100
AcDbEntity
  8
OUTLINE
 48
50.0
100
AcDbEllipse
 10
5578.960204444469
 20
1593.082647693807
 30
0.0
 11
2.5
 21
-0.0000000000000005
 31
0.0
210
0.0
220
0.0
230
1.0
 40
0.8745946342037104
 41
0.0000000000000002
 42
6.283185307179585
  0
ELLIPSE
  5
25E0
330
2
100
AcDbEntity
  8
OUTLINE
 48
50.0
100
AcDbEllipse
 10
5860.960204444469
 20
1593.082647693807
 30
0.0
 11
2.5
 21
-0.0000000000000005
 31
0.0
210
0.0
220
0.0
230
1.0
 40
0.8745946342037104
 41
0.0000000000000002
 42
6.283185307179585
  0
ELLIPSE
  5
25E1
330
2
100
AcDbEntity
  8
OUTLINE
 48
50.0
100
AcDbEllipse
 10
6120.960204444469
 20
1605.05270678675
 30
0.0
 11
2.5
 21
-0.0000000000000005
 31
0.0
210
0.0
220
0.0
230
1.0
 40
0.8745946342037104
 41
0.0000000000000002
 42
6.283185307179585
  0
ELLIPSE
  5
25E2
330
2
100
AcDbEntity
  8
OUTLINE
 48
50.0
100
AcDbEllipse
 10
6120.960204444469
 20
1604.567851936488
 30
0.0
 11
-2.5
 21
0.0000000000000005
 31
0.0
210
0.0
220
0.0
230
1.0
 40
0.8745946342037116
 41
3.252696422483201
 42
6.172081538286177
  0
ELLIPSE
  5
25E3
330
2
100
AcDbEntity
  8
OUTLINE
 48
50.0
100
AcDbEllipse
 10
5318.960204444469
 20
1605.052706786751
 30
0.0
 11
2.5
 21
-0.0000000000000005
 31
0.0
210
0.0
220
0.0
230
1.0
 40
0.8745946342037104
 41
0.0000000000000002
 42
6.283185307179585
  0
ELLIPSE
  5
25E4
330
2
100
AcDbEntity
  8
OUTLINE
 48
50.0
100
AcDbEllipse
 10
5318.960204444469
 20
1604.567851936489
 30
0.0
 11
-2.5
 21
0.0000000000000005
 31
0.0
210
0.0
220
0.0
230
1.0
 40
0.8745946342037116
 41
3.252696422483359
 42
6.172081538286018
  0
ELLIPSE
  5
25E5
330
2
100
AcDbEntity
  8
OUTLINE
 48
50.0
100
AcDbEllipse
 10
6089.960204444469
 20
1240.346744323803
 30
0.0
 11
2.049999999999998
 21
-0.0000000000000005
 31
0.0
210
0.0
220
0.0
230
1.0
 40
0.8745946342037104
 41
0.0000000000000002
 42
6.283185307179585
  0
ELLIPSE
  5
25E6
330
2
100
AcDbEntity
  8
OUTLINE
 48
50.0
100
AcDbEllipse
 10
6089.960204444469
 20
1239.861889473541
 30
0.0
 11
-2.049999999999998
 21
0.0000000000000005
 31
0.0
210
0.0
220
0.0
230
1.0
 40
0.8745946342037116
 41
3.277221913681433
 42
6.147556047087945
  0
ELLIPSE
  5
25E7
330
2
100
AcDbEntity
  8
OUTLINE
 48
50.0
100
AcDbEllipse
 10
5904.960204444469
 20
1235.099176518581
 30
0.0
 11
2.049999999999998
 21
-0.0000000000000005
 31
0.0
210
0.0
220
0.0
230
1.0
 40
0.8745946342037104
 41
0.0000000000000002
 42
6.283185307179585
  0
ELLIPSE
  5
25E8
330
2
100
AcDbEntity
  8
OUTLINE
 48
50.0
100
AcDbEllipse
 10
5904.960204444469
 20
1234.614321668319
 30
0.0
 11
-2.049999999999998
 21
0.0000000000000005
 31
0.0
210
0.0
220
0.0
230
1.0
 40
0.8745946342037116
 41
3.277221913681685
 42
6.147556047087691
  0
ELLIPSE
  5
25E9
330
2
100
AcDbEntity
  8
OUTLINE
 48
50.0
100
AcDbEllipse
 10
5719.960204444469
 20
1240.346744323803
 30
0.0
 11
2.049999999999998
 21
-0.0000000000000005
 31
0.0
210
0.0
220
0.0
230
1.0
 40
0.8745946342037104
 41
0.0000000000000002
 42
6.283185307179585
  0
ELLIPSE
  5
25EA
330
2
100
AcDbEntity
  8
OUTLINE
 48
50.0
100
AcDbEllipse
 10
5719.960204444469
 20
1239.861889473542
 30
0.0
 11
-2.049999999999998
 21
0.0000000000000005
 31
0.0
210
0.0
220
0.0
230
1.0
 40
0.8745946342037116
 41
3.277221913681439
 42
6.147556047087954
  0
ELLIPSE
  5
25EB
330
2
100
AcDbEntity
  8
OUTLINE
 48
50.0
100
AcDbEllipse
 10
5534.96020444447
 20
1235.099176518581
 30
0.0
 11
2.049999999999998
 21
-0.0000000000000005
 31
0.0
210
0.0
220
0.0
230
1.0
 40
0.8745946342037104
 41
0.0000000000000002
 42
6.283185307179585
  0
ELLIPSE
  5
25EC
330
2
100
AcDbEntity
  8
OUTLINE
 48
50.0
100
AcDbEllipse
 10
5534.96020444447
 20
1234.61432166832
 30
0.0
 11
-2.049999999999998
 21
0.0000000000000005
 31
0.0
210
0.0
220
0.0
230
1.0
 40
0.8745946342037116
 41
3.277221913681439
 42
6.147556047087954
  0
ELLIPSE
  5
25ED
330
2
100
AcDbEntity
  8
OUTLINE
 48
50.0
100
AcDbEllipse
 10
6049.960204444468
 20
859.0227080910395
 30
0.0
 11
-1.999999999999999
 21
0.0000000000000022
 31
0.0
210
0.0
220
0.0
230
1.0
 40
0.0000517146630197
 41
0.0000000000217109
 42
6.283185307192024
  0
ELLIPSE
  5
25EE
330
2
100
AcDbEntity
  8
OUTLINE
 48
50.0
100
AcDbEllipse
 10
5349.960204444469
 20
1240.346744323804
 30
0.0
 11
2.049999999999998
 21
-0.0000000000000005
 31
0.0
210
0.0
220
0.0
230
1.0
 40
0.8745946342037104
 41
0.0000000000000002
 42
6.283185307179585
  0
ELLIPSE
  5
25EF
330
2
100
AcDbEntity
  8
OUTLINE
 48
50.0
100
AcDbEllipse
 10
5349.960204444469
 20
1239.861889473542
 30
0.0
 11
-2.049999999999998
 21
0.0000000000000005
 31
0.0
210
0.0
220
0.0
230
1.0
 40
0.8745946342037116
 41
3.277221913681439
 42
6.147556047087954
  0
ELLIPSE
  5
25F0
330
2
100
AcDbEntity
  8
OUTLINE
 48
50.0
100
AcDbEllipse
 10
5904.960204444472
 20
1234.614321668319
 30
0.0
 11
2.049999999999998
 21
-0.0000000000000173
 31
0.0
210
0.0
220
0.0
230
1.0
 40
0.8745946342037116
 41
0.135629260096265
 42
3.00596339350303
  0
ELLIPSE
  5
25F1
330
2
100
AcDbEntity
  8
OUTLINE
 48
50.0
100
AcDbEllipse
 10
5719.960204444472
 20
1239.861889473542
 30
0.0
 11
2.049999999999998
 21
-0.0000000000000173
 31
0.0
210
0.0
220
0.0
230
1.0
 40
0.8745946342037116
 41
0.135629260096265
 42
3.005963393502778
  0
ELLIPSE
  5
25F2
330
2
100
AcDbEntity
  8
OUTLINE
 48
50.0
100
AcDbEllipse
 10
5534.960204444472
 20
1234.61432166832
 30
0.0
 11
2.049999999999998
 21
-0.0000000000000173
 31
0.0
210
0.0
220
0.0
230
1.0
 40
0.8745946342037116
 41
0.1356292600955135
 42
3.005963393503285
  0
ELLIPSE
  5
25F3
330
2
100
AcDbEntity
  8
OUTLINE
 48
50.0
100
AcDbEllipse
 10
5349.960204444471
 20
1239.861889473543
 30
0.0
 11
2.049999999999998
 21
-0.0000000000000173
 31
0.0
210
0.0
220
0.0
230
1.0
 40
0.8745946342037116
 41
0.135629260095774
 42
3.005963393503285
  0
ELLIPSE
  5
25F4
330
2
100
AcDbEntity
  8
OUTLINE
 48
50.0
100
AcDbEllipse
 10
5904.960204444472
 20
1234.129466818058
 30
0.0
 11
-2.049999999999998
 21
0.0000000000000173
 31
0.0
210
0.0
220
0.0
230
1.0
 40
0.8745946342037116
 41
3.415429845650966
 42
6.009348115122985
  0
ELLIPSE
  5
25F5
330
2
100
AcDbEntity
  8
OUTLINE
 48
50.0
100
AcDbEllipse
 10
5719.960204444472
 20
1239.377034623281
 30
0.0
 11
-2.049999999999998
 21
0.0000000000000173
 31
0.0
210
0.0
220
0.0
230
1.0
 40
0.8745946342037116
 41
3.415429845651183
 42
6.009348115122985
  0
ELLIPSE
  5
25F6
330
2
100
AcDbEntity
  8
OUTLINE
 48
50.0
100
AcDbEllipse
 10
5534.960204444472
 20
1234.129466818059
 30
0.0
 11
-2.049999999999998
 21
0.0000000000000173
 31
0.0
210
0.0
220
0.0
230
1.0
 40
0.8745946342037116
 41
3.415429845650727
 42
6.009348115122985
  0
ELLIPSE
  5
25F7
330
2
100
AcDbEntity
  8
OUTLINE
 48
50.0
100
AcDbEllipse
 10
5349.960204444471
 20
1239.377034623282
 30
0.0
 11
-2.049999999999998
 21
0.0000000000000173
 31
0.0
210
0.0
220
0.0
230
1.0
 40
0.8745946342037116
 41
3.415429845650727
 42
6.009348115123255
  0
ELLIPSE
  5
25F8
330
2
100
AcDbEntity
  8
OUTLINE
 48
50.0
100
AcDbEllipse
 10
6089.960204444472
 20
1239.861889473541
 30
0.0
 11
2.049999999999998
 21
-0.0000000000000173
 31
0.0
210
0.0
220
0.0
230
1.0
 40
0.8745946342037116
 41
0.1356292600965181
 42
3.00596339350303
  0
ELLIPSE
  5
25F9
330
2
100
AcDbEntity
  8
OUTLINE
 48
50.0
100
AcDbEllipse
 10
6089.960204444472
 20
1239.377034623279
 30
0.0
 11
-2.049999999999998
 21
0.0000000000000173
 31
0.0
210
0.0
220
0.0
230
1.0
 40
0.8745946342037116
 41
3.415429845651234
 42
6.009348115122985
  0
LINE
  5
25FA
330
2
100
AcDbEntity
  8
OUTLINE
 48
50.0
100
AcDbLine
 10
5304.960204444467
 20
1610.574540377881
 30
0.0
 11
5304.960204444467
 21
1614.287818229132
 31
0.0
  0
LINE
  5
25FB
330
2
100
AcDbEntity
  8
OUTLINE
 48
50.0
100
AcDbLine
 10
5303.960204444468
 20
1613.772673079393
 30
0.0
 11
5303.960204444468
 21
1614.287818229132
 31
0.0
  0
LINE
  5
25FC
330
2
100
AcDbEntity
  8
OUTLINE
 48
50.0
100
AcDbLine
 10
5303.960204444468
 20
1614.287818229132
 30
0.0
 11
5304.960204444467
 21
1614.287818229132
 31
0.0
  0
LINE
  5
25FD
330
2
100
AcDbEntity
  8
OUTLINE
 48
50.0
100
AcDbLine
 10
5303.960204444468
 20
1614.287818229132
 30
0.0
 11
5300.714491395205
 21
1614.287818229132
 31
0.0
  0
LINE
  5
25FE
330
2
100
AcDbEntity
  8
OUTLINE
  6
HIDDEN
 48
50.0
100
AcDbLine
 10
5303.960204444468
 20
1613.287818229132
 30
0.0
 11
5303.960204444468
 21
1613.772673079393
 31
0.0
  0
LINE
  5
25FF
330
2
100
AcDbEntity
  8
OUTLINE
 48
50.0
100
AcDbLine
 10
5303.960204444468
 20
1613.772673079393
 30
0.0
 11
5301.303501583003
 21
1613.772673079393
 31
0.0
  0
LINE
  5
2600
330
2
100
AcDbEntity
  8
OUTLINE
  6
HIDDEN
 48
50.0
100
AcDbLine
 10
5303.960204444468
 20
861.287818229132
 30
0.0
 11
5303.960204444468
 21
1613.287818229132
 31
0.0
  0
LINE
  5
2601
330
2
100
AcDbEntity
  8
OUTLINE
  6
HIDDEN
 48
50.0
100
AcDbLine
 10
5280.460204444467
 20
1533.787818229132
 30
0.0
 11
5278.460204444467
 21
1533.787818229132
 31
0.0
  0
LINE
  5
2602
330
2
100
AcDbEntity
  8
OUTLINE
  6
HIDDEN
 48
50.0
100
AcDbLine
 10
5278.460204444467
 20
1540.787818229132
 30
0.0
 11
5280.460204444467
 21
1540.787818229132
 31
0.0
  0
LINE
  5
2603
330
2
100
AcDbEntity
  8
OUTLINE
  6
HIDDEN
 48
50.0
100
AcDbLine
 10
5278.460204444467
 20
1090.787818229132
 30
0.0
 11
5280.460204444467
 21
1090.787818229132
 31
0.0
  0
LINE
  5
2604
330
2
100
AcDbEntity
  8
OUTLINE
  6
HIDDEN
 48
50.0
100
AcDbLine
 10
5280.460204444467
 20
1083.787818229132
 30
0.0
 11
5278.460204444467
 21
1083.787818229132
 31
0.0
  0
LINE
  5
2605
330
2
100
AcDbEntity
  8
OUTLINE
  6
HIDDEN
 48
50.0
100
AcDbLine
 10
5278.460204444467
 20
940.787818229132
 30
0.0
 11
5280.460204444467
 21
940.787818229132
 31
0.0
  0
LINE
  5
2606
330
2
100
AcDbEntity
  8
OUTLINE
  6
HIDDEN
 48
50.0
100
AcDbLine
 10
5280.460204444467
 20
933.7878182291319
 30
0.0
 11
5278.460204444467
 21
933.7878182291319
 31
0.0
  0
LINE
  5
2607
330
2
100
AcDbEntity
  8
OUTLINE
  6
HIDDEN
 48
50.0
100
AcDbLine
 10
5278.460204444467
 20
1390.787818229132
 30
0.0
 11
5280.460204444467
 21
1390.787818229132
 31
0.0
  0
LINE
  5
2608
330
2
100
AcDbEntity
  8
OUTLINE
  6
HIDDEN
 48
50.0
100
AcDbLine
 10
5280.460204444467
 20
1383.787818229132
 30
0.0
 11
5278.460204444467
 21
1383.787818229132
 31
0.0
  0
LINE
  5
2609
330
2
100
AcDbEntity
  8
OUTLINE
  6
HIDDEN
 48
50.0
100
AcDbLine
 10
5263.960204444467
 20
1596.787818229132
 30
0.0
 11
5263.960204444467
 21
1374.787818229132
 31
0.0
  0
LINE
  5
260A
330
2
100
AcDbEntity
  8
OUTLINE
  6
HIDDEN
 48
50.0
100
AcDbLine
 10
5263.960204444467
 20
1596.787818229132
 30
0.0
 11
5275.960204444468
 21
1608.787818229132
 31
0.0
  0
LINE
  5
260B
330
2
100
AcDbEntity
  8
OUTLINE
  6
HIDDEN
 48
50.0
100
AcDbLine
 10
5303.960204444468
 20
1609.287818229132
 30
0.0
 11
5276.960204444467
 21
1609.287818229132
 31
0.0
  0
LINE
  5
260C
330
2
100
AcDbEntity
  8
OUTLINE
  6
HIDDEN
 48
50.0
100
AcDbLine
 10
5303.960204444468
 20
865.2878182291319
 30
0.0
 11
5276.960204444467
 21
865.2878182291319
 31
0.0
  0
LINE
  5
260D
330
2
100
AcDbEntity
  8
OUTLINE
  6
HIDDEN
 48
50.0
100
AcDbLine
 10
5275.960204444468
 20
865.787818229132
 30
0.0
 11
5263.960204444467
 21
877.7878182291319
 31
0.0
  0
LINE
  5
260E
330
2
100
AcDbEntity
  8
OUTLINE
  6
HIDDEN
 48
50.0
100
AcDbLine
 10
5263.960204444467
 20
1099.787818229132
 30
0.0
 11
5263.960204444467
 21
877.7878182291319
 31
0.0
  0
LINE
  5
260F
330
2
100
AcDbEntity
  8
OUTLINE
  6
HIDDEN
 48
50.0
100
AcDbLine
 10
5276.460204444467
 20
1112.287818229132
 30
0.0
 11
5263.960204444467
 21
1099.787818229132
 31
0.0
  0
LINE
  5
2610
330
2
100
AcDbEntity
  8
OUTLINE
  6
HIDDEN
 48
50.0
100
AcDbLine
 10
5263.960204444467
 20
1374.787818229132
 30
0.0
 11
5276.460204444467
 21
1362.287818229132
 31
0.0
  0
LINE
  5
2611
330
2
100
AcDbEntity
  8
OUTLINE
  6
HIDDEN
 48
50.0
100
AcDbLine
 10
5276.460204444467
 20
1362.287818229132
 30
0.0
 11
5276.460204444467
 21
1112.287818229132
 31
0.0
  0
ELLIPSE
  5
2612
330
2
100
AcDbEntity
  8
OUTLINE
 48
50.0
100
AcDbEllipse
 10
5290.960204444467
 20
869.9083592053725
 30
0.0
 11
2.25
 21
0.0
 31
0.0
210
0.0
220
0.0
230
1.0
 40
0.8745946342037116
 41
5.922607130419856
 42
9.785356137536556
  0
ELLIPSE
  5
2613
330
2
100
AcDbEntity
  8
OUTLINE
 48
50.0
100
AcDbEllipse
 10
5290.960204444467
 20
1053.573232388152
 30
0.0
 11
2.25
 21
0.0
 31
0.0
210
0.0
220
0.0
230
1.0
 40
0.8745946342037116
 41
5.922607130419351
 42
9.785356137537013
  0
ELLIPSE
  5
2614
330
2
100
AcDbEntity
  8
OUTLINE
 48
50.0
100
AcDbEllipse
 10
5290.960204444467
 20
1237.238105570931
 30
0.0
 11
2.25
 21
0.0
 31
0.0
210
0.0
220
0.0
230
1.0
 40
0.8745946342037116
 41
5.922607130418657
 42
9.785356137537755
  0
ELLIPSE
  5
2615
330
2
100
AcDbEntity
  8
OUTLINE
 48
50.0
100
AcDbEllipse
 10
5290.960204444467
 20
1420.902978753711
 30
0.0
 11
2.25
 21
0.0
 31
0.0
210
0.0
220
0.0
230
1.0
 40
0.8745946342037116
 41
5.922607130418612
 42
9.785356137538
  0
ELLIPSE
  5
2616
330
2
100
AcDbEntity
  8
OUTLINE
 48
50.0
100
AcDbEllipse
 10
5290.960204444467
 20
1604.56785193649
 30
0.0
 11
2.25
 21
0.0
 31
0.0
210
0.0
220
0.0
230
1.0
 40
0.8745946342037116
 41
5.922607130418565
 42
9.785356137537755
  0
ELLIPSE
  5
2617
330
2
100
AcDbEntity
  8
OUTLINE
 48
50.0
100
AcDbEllipse
 10
5290.960204444467
 20
1604.082997086151
 30
0.0
 11
-2.25
 21
0.0
 31
0.0
210
0.0
220
0.0
230
1.0
 40
0.8745946342038017
 41
3.265101234637505
 42
6.159676726131872
  0
ELLIPSE
  5
2618
330
2
100
AcDbEntity
  8
OUTLINE
 48
50.0
100
AcDbEllipse
 10
5290.960204444467
 20
1420.418123903372
 30
0.0
 11
-2.25
 21
0.0
 31
0.0
210
0.0
220
0.0
230
1.0
 40
0.8745946342038017
 41
3.265101234637455
 42
6.159676726131923
  0
ELLIPSE
  5
2619
330
2
100
AcDbEntity
  8
OUTLINE
 48
50.0
100
AcDbEllipse
 10
5290.960204444467
 20
1236.753250720592
 30
0.0
 11
-2.25
 21
0.0
 31
0.0
210
0.0
220
0.0
230
1.0
 40
0.8745946342038017
 41
3.265101234637455
 42
6.159676726131923
  0
ELLIPSE
  5
261A
330
2
100
AcDbEntity
  8
OUTLINE
 48
50.0
100
AcDbEllipse
 10
5290.960204444467
 20
1053.088377537813
 30
0.0
 11
-2.25
 21
0.0
 31
0.0
210
0.0
220
0.0
230
1.0
 40
0.8745946342038017
 41
3.265101234637728
 42
6.15967672613165
  0
ELLIPSE
  5
261B
330
2
100
AcDbEntity
  8
OUTLINE
 48
50.0
100
AcDbEllipse
 10
5290.960204444467
 20
869.4235043550339
 30
0.0
 11
-2.25
 21
0.0
 31
0.0
210
0.0
220
0.0
230
1.0
 40
0.8745946342038017
 41
3.265101234637728
 42
6.15967672613165
  0
ARC
  5
261C
330
2
100
AcDbEntity
  8
OUTLINE
  6
HIDDEN
 48
50.0
100
AcDbCircle
 10
5278.460204444467
 20
1537.287818229132
 30
0.0
 40
3.5
100
AcDbArc
 50
90.0
 51
270.0
  0
ARC
  5
261D
330
2
100
AcDbEntity
  8
OUTLINE
  6
HIDDEN
 48
50.0
100
AcDbCircle
 10
5280.460204444467
 20
1537.287818229132
 30
0.0
 40
3.5
100
AcDbArc
 50
270.0
 51
90.0
  0
ARC
  5
261E
330
2
100
AcDbEntity
  8
OUTLINE
  6
HIDDEN
 48
50.0
100
AcDbCircle
 10
5278.460204444467
 20
1087.287818229132
 30
0.0
 40
3.5
100
AcDbArc
 50
90.0
 51
270.0
  0
ARC
  5
261F
330
2
100
AcDbEntity
  8
OUTLINE
  6
HIDDEN
 48
50.0
100
AcDbCircle
 10
5280.460204444467
 20
1087.287818229132
 30
0.0
 40
3.5
100
AcDbArc
 50
270.0
 51
90.0
  0
ARC
  5
2620
330
2
100
AcDbEntity
  8
OUTLINE
  6
HIDDEN
 48
50.0
100
AcDbCircle
 10
5278.460204444467
 20
937.2878182291319
 30
0.0
 40
3.5
100
AcDbArc
 50
90.0
 51
270.0
  0
ARC
  5
2621
330
2
100
AcDbEntity
  8
OUTLINE
  6
HIDDEN
 48
50.0
100
AcDbCircle
 10
5280.460204444467
 20
937.2878182291319
 30
0.0
 40
3.5
100
AcDbArc
 50
270.0
 51
90.0
  0
ARC
  5
2622
330
2
100
AcDbEntity
  8
OUTLINE
  6
HIDDEN
 48
50.0
100
AcDbCircle
 10
5278.460204444467
 20
1387.287818229132
 30
0.0
 40
3.5
100
AcDbArc
 50
90.0
 51
270.0
  0
ARC
  5
2623
330
2
100
AcDbEntity
  8
OUTLINE
  6
HIDDEN
 48
50.0
100
AcDbCircle
 10
5280.460204444467
 20
1387.287818229132
 30
0.0
 40
3.5
100
AcDbArc
 50
270.0
 51
90.0
  0
LINE
  5
2624
330
2
100
AcDbEntity
  8
OUTLINE
 48
50.0
100
AcDbLine
 10
4473.960204444467
 20
860.2878182291311
 30
0.0
 11
4473.960204444467
 21
1614.287818229131
 31
0.0
  0
LINE
  5
2625
330
2
100
AcDbEntity
  8
OUTLINE
 48
50.0
100
AcDbLine
 10
4473.960204444467
 20
1614.287818229131
 30
0.0
 11
4479.205917493723
 21
1614.287818229131
 31
0.0
  0
LINE
  5
2626
330
2
100
AcDbEntity
  8
OUTLINE
 48
50.0
100
AcDbLine
 10
4473.960204444467
 20
860.2878182291313
 30
0.0
 11
4474.960204444465
 21
860.2878182291313
 31
0.0
  0
LINE
  5
2627
330
2
100
AcDbEntity
  8
OUTLINE
 48
50.0
100
AcDbLine
 10
4449.460204444467
 20
940.7878182291312
 30
0.0
 11
4451.460204444467
 21
940.7878182291312
 31
0.0
  0
LINE
  5
2628
330
2
100
AcDbEntity
  8
OUTLINE
 48
50.0
100
AcDbLine
 10
4451.460204444467
 20
933.787818229131
 30
0.0
 11
4449.460204444467
 21
933.787818229131
 31
0.0
  0
LINE
  5
2629
330
2
100
AcDbEntity
  8
OUTLINE
 48
50.0
100
AcDbLine
 10
4449.460204444467
 20
1090.787818229131
 30
0.0
 11
4451.460204444467
 21
1090.787818229131
 31
0.0
  0
LINE
  5
262A
330
2
100
AcDbEntity
  8
OUTLINE
 48
50.0
100
AcDbLine
 10
4451.460204444467
 20
1083.787818229131
 30
0.0
 11
4449.460204444467
 21
1083.787818229131
 31
0.0
  0
LINE
  5
262B
330
2
100
AcDbEntity
  8
OUTLINE
 48
50.0
100
AcDbLine
 10
4449.460204444467
 20
1240.787818229131
 30
0.0
 11
4451.460204444467
 21
1240.787818229131
 31
0.0
  0
LINE
  5
262C
330
2
100
AcDbEntity
  8
OUTLINE
 48
50.0
100
AcDbLine
 10
4451.460204444467
 20
1233.787818229131
 30
0.0
 11
4449.460204444467
 21
1233.787818229131
 31
0.0
  0
LINE
  5
262D
330
2
100
AcDbEntity
  8
OUTLINE
 48
50.0
100
AcDbLine
 10
4449.460204444467
 20
1390.787818229131
 30
0.0
 11
4451.460204444467
 21
1390.787818229131
 31
0.0
  0
LINE
  5
262E
330
2
100
AcDbEntity
  8
OUTLINE
 48
50.0
100
AcDbLine
 10
4451.460204444467
 20
1383.787818229131
 30
0.0
 11
4449.460204444467
 21
1383.787818229131
 31
0.0
  0
LINE
  5
262F
330
2
100
AcDbEntity
  8
OUTLINE
 48
50.0
100
AcDbLine
 10
4449.460204444467
 20
1540.787818229131
 30
0.0
 11
4451.460204444467
 21
1540.787818229131
 31
0.0
  0
LINE
  5
2630
330
2
100
AcDbEntity
  8
OUTLINE
 48
50.0
100
AcDbLine
 10
4451.460204444467
 20
1533.787818229131
 30
0.0
 11
4449.460204444467
 21
1533.787818229131
 31
0.0
  0
LINE
  5
2631
330
2
100
AcDbEntity
  8
OUTLINE
 48
50.0
100
AcDbLine
 10
4473.960204444467
 20
1612.239037741326
 30
0.0
 11
4433.960204444467
 21
1570.287818229131
 31
0.0
  0
LINE
  5
2632
330
2
100
AcDbEntity
  8
OUTLINE
 48
50.0
100
AcDbLine
 10
4433.960204444467
 20
1570.287818229131
 30
0.0
 11
4433.960204444467
 21
904.287818229131
 31
0.0
  0
LINE
  5
2633
330
2
100
AcDbEntity
  8
OUTLINE
 48
50.0
100
AcDbLine
 10
4433.960204444467
 20
904.287818229131
 30
0.0
 11
4473.960204444467
 21
862.3365987169359
 31
0.0
  0
ELLIPSE
  5
2634
330
2
100
AcDbEntity
  8
OUTLINE
 48
50.0
100
AcDbEllipse
 10
4488.960204444467
 20
869.4235043551106
 30
0.0
 11
-2.0
 21
0.0
 31
0.0
210
0.0
220
0.0
230
1.0
 40
0.8745946342037115
 41
3.280634391687069
 42
6.144143569082308
  0
ELLIPSE
  5
2635
330
2
100
AcDbEntity
  8
OUTLINE
 48
50.0
100
AcDbEllipse
 10
4488.960204444467
 20
869.9083592053712
 30
0.0
 11
2.0
 21
0.0
 31
0.0
210
0.0
220
0.0
230
1.0
 40
0.8745946342037115
 41
5.215557799402653
 42
10.49240546855614
  0
ELLIPSE
  5
2636
330
2
100
AcDbEntity
  8
OUTLINE
 48
50.0
100
AcDbEllipse
 10
4488.960204444467
 20
1053.573232388152
 30
0.0
 11
2.0
 21
0.0
 31
0.0
210
0.0
220
0.0
230
1.0
 40
0.8745946342037115
 41
5.215557799393644
 42
10.49240546856524
  0
ELLIPSE
  5
2637
330
2
100
AcDbEntity
  8
OUTLINE
 48
50.0
100
AcDbEllipse
 10
4488.960204444467
 20
1053.088377537891
 30
0.0
 11
-2.0
 21
0.0
 31
0.0
210
0.0
220
0.0
230
1.0
 40
0.8745946342037115
 41
3.28063439168732
 42
6.144143569082057
  0
ELLIPSE
  5
2638
330
2
100
AcDbEntity
  8
OUTLINE
 48
50.0
100
AcDbEllipse
 10
4488.960204444467
 20
1237.238105570929
 30
0.0
 11
2.0
 21
0.0
 31
0.0
210
0.0
220
0.0
230
1.0
 40
0.8745946342037115
 41
5.215557799402749
 42
10.49240546855614
  0
ELLIPSE
  5
2639
330
2
100
AcDbEntity
  8
OUTLINE
 48
50.0
100
AcDbEllipse
 10
4488.960204444467
 20
1236.753250720667
 30
0.0
 11
-2.0
 21
0.0
 31
0.0
210
0.0
220
0.0
230
1.0
 40
0.8745946342037115
 41
3.280634391687518
 42
6.14414356908186
  0
ELLIPSE
  5
263A
330
2
100
AcDbEntity
  8
OUTLINE
 48
50.0
100
AcDbEllipse
 10
4488.960204444467
 20
1420.902978753706
 30
0.0
 11
2.0
 21
0.0
 31
0.0
210
0.0
220
0.0
230
1.0
 40
0.8745946342037115
 41
5.215557799411535
 42
10.49240546854726
  0
ELLIPSE
  5
263B
330
2
100
AcDbEntity
  8
OUTLINE
 48
50.0
100
AcDbEllipse
 10
4488.960204444467
 20
1420.418123903445
 30
0.0
 11
-2.0
 21
0.0
 31
0.0
210
0.0
220
0.0
230
1.0
 40
0.8745946342037115
 41
3.28063439168732
 42
6.144143569082057
  0
ELLIPSE
  5
263C
330
2
100
AcDbEntity
  8
OUTLINE
 48
50.0
100
AcDbEllipse
 10
4488.960204444467
 20
1604.567851936494
 30
0.0
 11
2.0
 21
0.0
 31
0.0
210
0.0
220
0.0
230
1.0
 40
0.8745946342037115
 41
5.215557799371288
 42
10.4924054685875
  0
ELLIPSE
  5
263D
330
2
100
AcDbEntity
  8
OUTLINE
 48
50.0
100
AcDbEllipse
 10
4488.960204444467
 20
1604.082997086233
 30
0.0
 11
-2.0
 21
0.0
 31
0.0
210
0.0
220
0.0
230
1.0
 40
0.8745946342037115
 41
3.280634391687015
 42
6.144143569082364
  0
ARC
  5
263E
330
2
100
AcDbEntity
  8
OUTLINE
 48
50.0
100
AcDbCircle
 10
4451.460204444467
 20
937.287818229131
 30
0.0
 40
3.5
100
AcDbArc
 50
270.0
 51
90.0
  0
ARC
  5
263F
330
2
100
AcDbEntity
  8
OUTLINE
 48
50.0
100
AcDbCircle
 10
4449.460204444467
 20
937.287818229131
 30
0.0
 40
3.5
100
AcDbArc
 50
90.0
 51
270.0
  0
ARC
  5
2640
330
2
100
AcDbEntity
  8
OUTLINE
 48
50.0
100
AcDbCircle
 10
4451.460204444467
 20
1087.287818229131
 30
0.0
 40
3.5
100
AcDbArc
 50
270.0
 51
90.0
  0
ARC
  5
2641
330
2
100
AcDbEntity
  8
OUTLINE
 48
50.0
100
AcDbCircle
 10
4449.460204444467
 20
1087.287818229131
 30
0.0
 40
3.5
100
AcDbArc
 50
90.0
 51
270.0
  0
ARC
  5
2642
330
2
100
AcDbEntity
  8
OUTLINE
 48
50.0
100
AcDbCircle
 10
4451.460204444467
 20
1237.287818229131
 30
0.0
 40
3.5
100
AcDbArc
 50
270.0
 51
90.0
  0
ARC
  5
2643
330
2
100
AcDbEntity
  8
OUTLINE
 48
50.0
100
AcDbCircle
 10
4449.460204444467
 20
1237.287818229131
 30
0.0
 40
3.5
100
AcDbArc
 50
90.0
 51
270.0
  0
ARC
  5
2644
330
2
100
AcDbEntity
  8
OUTLINE
 48
50.0
100
AcDbCircle
 10
4451.460204444467
 20
1387.287818229131
 30
0.0
 40
3.5
100
AcDbArc
 50
270.0
 51
90.0
  0
ARC
  5
2645
330
2
100
AcDbEntity
  8
OUTLINE
 48
50.0
100
AcDbCircle
 10
4449.460204444467
 20
1387.287818229131
 30
0.0
 40
3.5
100
AcDbArc
 50
90.0
 51
270.0
  0
ARC
  5
2646
330
2
100
AcDbEntity
  8
OUTLINE
 48
50.0
100
AcDbCircle
 10
4451.460204444467
 20
1537.287818229131
 30
0.0
 40
3.5
100
AcDbArc
 50
270.0
 51
90.0
  0
ARC
  5
2647
330
2
100
AcDbEntity
  8
OUTLINE
 48
50.0
100
AcDbCircle
 10
4449.460204444467
 20
1537.287818229131
 30
0.0
 40
3.5
100
AcDbArc
 50
90.0
 51
270.0
  0
LINE
  5
2648
330
2
100
AcDbEntity
  8
OUTLINE
 48
50.0
100
AcDbLine
 10
5274.960204444467
 20
1614.9475135489
 30
0.0
 11
5274.960204444467
 21
1615.287818229132
 31
0.0
  0
LINE
  5
2649
330
2
100
AcDbEntity
  8
OUTLINE
 48
50.0
100
AcDbLine
 10
4504.960204444468
 20
1615.287818229132
 30
0.0
 11
4504.960204444468
 21
1614.9475135489
 31
0.0
  0
LINE
  5
264A
330
2
100
AcDbEntity
  8
OUTLINE
 48
50.0
100
AcDbLine
 10
4479.405895393012
 20
1615.287818229131
 30
0.0
 11
4479.713924716212
 21
1614.732118620057
 31
0.0
  0
LINE
  5
264B
330
2
100
AcDbEntity
  8
OUTLINE
 48
50.0
100
AcDbLine
 10
4474.960204444466
 20
1614.287818229131
 30
0.0
 11
4474.960204444466
 21
1615.287818229131
 31
0.0
  0
LINE
  5
264C
330
2
100
AcDbEntity
  8
OUTLINE
 48
50.0
100
AcDbLine
 10
4504.960204444468
 20
1615.287818229131
 30
0.0
 11
5274.960204444467
 21
1615.287818229131
 31
0.0
  0
LINE
  5
264D
330
2
100
AcDbEntity
  8
OUTLINE
 48
50.0
100
AcDbLine
 10
6130.71449139521
 20
1614.287818229131
 30
0.0
 11
6135.960204444466
 21
1614.287818229131
 31
0.0
  0
LINE
  5
264E
330
2
100
AcDbEntity
  8
OUTLINE
 48
50.0
100
AcDbLine
 10
6135.960204444466
 20
860.2878182291311
 30
0.0
 11
6135.960204444466
 21
1614.287818229131
 31
0.0
  0
LINE
  5
264F
330
2
100
AcDbEntity
  8
OUTLINE
 48
50.0
100
AcDbLine
 10
6134.960204444467
 20
860.2878182291311
 30
0.0
 11
6135.960204444466
 21
860.2878182291311
 31
0.0
  0
LINE
  5
2650
330
2
100
AcDbEntity
  8
OUTLINE
 48
50.0
100
AcDbLine
 10
6175.960204444468
 20
1570.287818229131
 30
0.0
 11
6135.960204444466
 21
1612.239037741326
 31
0.0
  0
LINE
  5
2651
330
2
100
AcDbEntity
  8
OUTLINE
 48
50.0
100
AcDbLine
 10
6175.960204444468
 20
904.2878182291316
 30
0.0
 11
6175.960204444468
 21
1570.287818229131
 31
0.0
  0
LINE
  5
2652
330
2
100
AcDbEntity
  8
OUTLINE
 48
50.0
100
AcDbLine
 10
6158.460204444466
 20
1540.787818229131
 30
0.0
 11
6160.460204444468
 21
1540.787818229131
 31
0.0
  0
LINE
  5
2653
330
2
100
AcDbEntity
  8
OUTLINE
 48
50.0
100
AcDbLine
 10
6160.460204444468
 20
1533.787818229131
 30
0.0
 11
6158.460204444466
 21
1533.787818229131
 31
0.0
  0
LINE
  5
2654
330
2
100
AcDbEntity
  8
OUTLINE
 48
50.0
100
AcDbLine
 10
6160.460204444468
 20
1383.787818229131
 30
0.0
 11
6158.460204444466
 21
1383.787818229131
 31
0.0
  0
LINE
  5
2655
330
2
100
AcDbEntity
  8
OUTLINE
 48
50.0
100
AcDbLine
 10
6158.460204444466
 20
1390.787818229131
 30
0.0
 11
6160.460204444468
 21
1390.787818229131
 31
0.0
  0
LINE
  5
2656
330
2
100
AcDbEntity
  8
OUTLINE
 48
50.0
100
AcDbLine
 10
6160.460204444468
 20
1233.787818229131
 30
0.0
 11
6158.460204444466
 21
1233.787818229131
 31
0.0
  0
LINE
  5
2657
330
2
100
AcDbEntity
  8
OUTLINE
 48
50.0
100
AcDbLine
 10
6158.460204444466
 20
1240.787818229131
 30
0.0
 11
6160.460204444468
 21
1240.787818229131
 31
0.0
  0
LINE
  5
2658
330
2
100
AcDbEntity
  8
OUTLINE
 48
50.0
100
AcDbLine
 10
6160.460204444468
 20
1083.787818229131
 30
0.0
 11
6158.460204444466
 21
1083.787818229131
 31
0.0
  0
LINE
  5
2659
330
2
100
AcDbEntity
  8
OUTLINE
 48
50.0
100
AcDbLine
 10
6158.460204444466
 20
1090.787818229131
 30
0.0
 11
6160.460204444468
 21
1090.787818229131
 31
0.0
  0
LINE
  5
265A
330
2
100
AcDbEntity
  8
OUTLINE
 48
50.0
100
AcDbLine
 10
6160.460204444468
 20
933.7878182291316
 30
0.0
 11
6158.460204444466
 21
933.7878182291316
 31
0.0
  0
LINE
  5
265B
330
2
100
AcDbEntity
  8
OUTLINE
 48
50.0
100
AcDbLine
 10
6158.460204444466
 20
940.7878182291312
 30
0.0
 11
6160.460204444468
 21
940.7878182291312
 31
0.0
  0
LINE
  5
265C
330
2
100
AcDbEntity
  8
OUTLINE
 48
50.0
100
AcDbLine
 10
6135.960204444466
 20
862.3365987169368
 30
0.0
 11
6175.960204444468
 21
904.2878182291316
 31
0.0
  0
ELLIPSE
  5
265D
330
2
100
AcDbEntity
  8
OUTLINE
 48
50.0
100
AcDbEllipse
 10
6120.960204444466
 20
869.4235043551106
 30
0.0
 11
-2.0
 21
0.0000000000000008
 31
0.0
210
0.0
220
0.0
230
1.0
 40
0.8745946342037116
 41
3.280634391687062
 42
6.144143569082316
  0
ELLIPSE
  5
265E
330
2
100
AcDbEntity
  8
OUTLINE
 48
50.0
100
AcDbEllipse
 10
6120.960204444466
 20
869.9083592053707
 30
0.0
 11
2.0
 21
-0.0000000000000008
 31
0.0
210
0.0
220
0.0
230
1.0
 40
0.8745946342037116
 41
5.215557799398784
 42
10.4924054685481
  0
ELLIPSE
  5
265F
330
2
100
AcDbEntity
  8
OUTLINE
 48
50.0
100
AcDbEllipse
 10
6120.960204444466
 20
1053.573232388152
 30
0.0
 11
2.0
 21
-0.0000000000000008
 31
0.0
210
0.0
220
0.0
230
1.0
 40
0.8745946342037116
 41
5.215557799387442
 42
10.49240546855877
  0
ELLIPSE
  5
2660
330
2
100
AcDbEntity
  8
OUTLINE
 48
50.0
100
AcDbEllipse
 10
6120.960204444466
 20
1053.088377537891
 30
0.0
 11
-2.0
 21
0.0000000000000008
 31
0.0
210
0.0
220
0.0
230
1.0
 40
0.8745946342037116
 41
3.280634391687315
 42
6.144143569082065
  0
ELLIPSE
  5
2661
330
2
100
AcDbEntity
  8
OUTLINE
 48
50.0
100
AcDbEllipse
 10
6120.960204444466
 20
1237.238105570929
 30
0.0
 11
2.0
 21
-0.0000000000000008
 31
0.0
210
0.0
220
0.0
230
1.0
 40
0.8745946342037116
 41
5.215557799395726
 42
10.49240546854909
  0
ELLIPSE
  5
2662
330
2
100
AcDbEntity
  8
OUTLINE
 48
50.0
100
AcDbEllipse
 10
6120.960204444466
 20
1236.753250720667
 30
0.0
 11
-2.0
 21
0.0000000000000008
 31
0.0
210
0.0
220
0.0
230
1.0
 40
0.8745946342037116
 41
3.280634391687573
 42
6.144143569081807
  0
ELLIPSE
  5
2663
330
2
100
AcDbEntity
  8
OUTLINE
 48
50.0
100
AcDbEllipse
 10
6120.960204444466
 20
1420.902978753706
 30
0.0
 11
2.0
 21
-0.0000000000000008
 31
0.0
210
0.0
220
0.0
230
1.0
 40
0.8745946342037116
 41
5.215557799404169
 42
10.49240546853974
  0
ELLIPSE
  5
2664
330
2
100
AcDbEntity
  8
OUTLINE
 48
50.0
100
AcDbEllipse
 10
6120.960204444466
 20
1420.418123903445
 30
0.0
 11
-2.0
 21
0.0000000000000008
 31
0.0
210
0.0
220
0.0
230
1.0
 40
0.8745946342037116
 41
3.280634391687518
 42
6.14414356908186
  0
ELLIPSE
  5
2665
330
2
100
AcDbEntity
  8
OUTLINE
 48
50.0
100
AcDbEllipse
 10
6120.960204444466
 20
1604.567851936494
 30
0.0
 11
2.0
 21
-0.0000000000000008
 31
0.0
210
0.0
220
0.0
230
1.0
 40
0.8745946342037116
 41
5.215557799363199
 42
10.49240546857956
  0
ELLIPSE
  5
2666
330
2
100
AcDbEntity
  8
OUTLINE
 48
50.0
100
AcDbEllipse
 10
6120.960204444466
 20
1604.082997086233
 30
0.0
 11
-2.0
 21
0.0000000000000008
 31
0.0
210
0.0
220
0.0
230
1.0
 40
0.8745946342037116
 41
3.280634391687315
 42
6.144143569082065
  0
ARC
  5
2667
330
2
100
AcDbEntity
  8
OUTLINE
 48
50.0
100
AcDbCircle
 10
6160.460204444468
 20
1537.287818229131
 30
0.0
 40
3.5
100
AcDbArc
 50
270.0
 51
90.0
  0
ARC
  5
2668
330
2
100
AcDbEntity
  8
OUTLINE
 48
50.0
100
AcDbCircle
 10
6158.460204444466
 20
1537.287818229131
 30
0.0
 40
3.5
100
AcDbArc
 50
90.0
 51
270.0
  0
ARC
  5
2669
330
2
100
AcDbEntity
  8
OUTLINE
 48
50.0
100
AcDbCircle
 10
6158.460204444466
 20
1387.287818229131
 30
0.0
 40
3.5
100
AcDbArc
 50
90.0
 51
270.0
  0
ARC
  5
266A
330
2
100
AcDbEntity
  8
OUTLINE
 48
50.0
100
AcDbCircle
 10
6160.460204444468
 20
1387.287818229131
 30
0.0
 40
3.5
100
AcDbArc
 50
270.0
 51
90.0
  0
ARC
  5
266B
330
2
100
AcDbEntity
  8
OUTLINE
 48
50.0
100
AcDbCircle
 10
6158.460204444466
 20
1237.287818229132
 30
0.0
 40
3.5
100
AcDbArc
 50
90.0
 51
270.0
  0
ARC
  5
266C
330
2
100
AcDbEntity
  8
OUTLINE
 48
50.0
100
AcDbCircle
 10
6160.460204444468
 20
1237.287818229132
 30
0.0
 40
3.5
100
AcDbArc
 50
270.0
 51
90.0
  0
ARC
  5
266D
330
2
100
AcDbEntity
  8
OUTLINE
 48
50.0
100
AcDbCircle
 10
6158.460204444466
 20
1087.287818229131
 30
0.0
 40
3.5
100
AcDbArc
 50
90.0
 51
270.0
  0
ARC
  5
266E
330
2
100
AcDbEntity
  8
OUTLINE
 48
50.0
100
AcDbCircle
 10
6160.460204444468
 20
1087.287818229131
 30
0.0
 40
3.5
100
AcDbArc
 50
270.0
 51
90.0
  0
ARC
  5
266F
330
2
100
AcDbEntity
  8
OUTLINE
 48
50.0
100
AcDbCircle
 10
6158.460204444466
 20
937.2878182291312
 30
0.0
 40
3.5
100
AcDbArc
 50
90.0
 51
270.0
  0
ARC
  5
2670
330
2
100
AcDbEntity
  8
OUTLINE
 48
50.0
100
AcDbCircle
 10
6160.460204444468
 20
937.2878182291312
 30
0.0
 40
3.5
100
AcDbArc
 50
270.0
 51
90.0
  0
LINE
  5
2671
330
2
100
AcDbEntity
  8
OUTLINE
  6
HIDDEN
 48
50.0
100
AcDbLine
 10
5305.960204444467
 20
1613.772673079393
 30
0.0
 11
5305.960204444467
 21
1613.287818229131
 31
0.0
  0
LINE
  5
2672
330
2
100
AcDbEntity
  8
OUTLINE
  6
HIDDEN
 48
50.0
100
AcDbLine
 10
5305.960204444467
 20
1613.287818229131
 30
0.0
 11
5305.960204444467
 21
861.2878182291311
 31
0.0
  0
LINE
  5
2673
330
2
100
AcDbEntity
  8
OUTLINE
  6
HIDDEN
 48
50.0
100
AcDbLine
 10
5332.960204444468
 20
1609.28781822913
 30
0.0
 11
5333.460204444467
 21
1609.28781822913
 31
0.0
  0
LINE
  5
2674
330
2
100
AcDbEntity
  8
OUTLINE
 48
50.0
100
AcDbLine
 10
5304.960204444467
 20
1610.574540377881
 30
0.0
 11
5304.960204444467
 21
1614.287818229131
 31
0.0
  0
LINE
  5
2675
330
2
100
AcDbEntity
  8
OUTLINE
 48
50.0
100
AcDbLine
 10
5304.960204444467
 20
1614.287818229131
 30
0.0
 11
5305.960204444467
 21
1614.287818229131
 31
0.0
  0
LINE
  5
2676
330
2
100
AcDbEntity
  8
OUTLINE
 48
50.0
100
AcDbLine
 10
5305.960204444467
 20
1613.772673079393
 30
0.0
 11
5305.960204444467
 21
1614.287818229131
 31
0.0
  0
LINE
  5
2677
330
2
100
AcDbEntity
  8
OUTLINE
 48
50.0
100
AcDbLine
 10
5305.960204444467
 20
1613.772673079393
 30
0.0
 11
5308.61690730593
 21
1613.772673079393
 31
0.0
  0
LINE
  5
2678
330
2
100
AcDbEntity
  8
OUTLINE
 48
50.0
100
AcDbLine
 10
5305.960204444467
 20
1614.287818229131
 30
0.0
 11
5309.205917493727
 21
1614.287818229131
 31
0.0
  0
LINE
  5
2679
330
2
100
AcDbEntity
  8
OUTLINE
  6
HIDDEN
 48
50.0
100
AcDbLine
 10
5333.960204444467
 20
1608.787818229131
 30
0.0
 11
5333.460204444467
 21
1609.28781822913
 31
0.0
  0
LINE
  5
267A
330
2
100
AcDbEntity
  8
OUTLINE
  6
HIDDEN
 48
50.0
100
AcDbLine
 10
5329.460204444467
 20
1540.787818229131
 30
0.0
 11
5331.460204444468
 21
1540.787818229131
 31
0.0
  0
LINE
  5
267B
330
2
100
AcDbEntity
  8
OUTLINE
  6
HIDDEN
 48
50.0
100
AcDbLine
 10
5331.460204444468
 20
1533.787818229131
 30
0.0
 11
5329.460204444467
 21
1533.787818229131
 31
0.0
  0
LINE
  5
267C
330
2
100
AcDbEntity
  8
OUTLINE
  6
HIDDEN
 48
50.0
100
AcDbLine
 10
5329.460204444467
 20
1390.787818229131
 30
0.0
 11
5331.460204444468
 21
1390.787818229131
 31
0.0
  0
LINE
  5
267D
330
2
100
AcDbEntity
  8
OUTLINE
  6
HIDDEN
 48
50.0
100
AcDbLine
 10
5331.460204444468
 20
1383.787818229131
 30
0.0
 11
5329.460204444467
 21
1383.787818229131
 31
0.0
  0
LINE
  5
267E
330
2
100
AcDbEntity
  8
OUTLINE
  6
HIDDEN
 48
50.0
100
AcDbLine
 10
5329.460204444467
 20
1090.787818229131
 30
0.0
 11
5331.460204444468
 21
1090.787818229131
 31
0.0
  0
LINE
  5
267F
330
2
100
AcDbEntity
  8
OUTLINE
  6
HIDDEN
 48
50.0
100
AcDbLine
 10
5331.460204444468
 20
1083.787818229131
 30
0.0
 11
5329.460204444467
 21
1083.787818229131
 31
0.0
  0
LINE
  5
2680
330
2
100
AcDbEntity
  8
OUTLINE
  6
HIDDEN
 48
50.0
100
AcDbLine
 10
5329.460204444467
 20
940.7878182291312
 30
0.0
 11
5331.460204444468
 21
940.7878182291312
 31
0.0
  0
LINE
  5
2681
330
2
100
AcDbEntity
  8
OUTLINE
  6
HIDDEN
 48
50.0
100
AcDbLine
 10
5331.460204444468
 20
933.7878182291316
 30
0.0
 11
5329.460204444467
 21
933.7878182291316
 31
0.0
  0
LINE
  5
2682
330
2
100
AcDbEntity
  8
OUTLINE
  6
HIDDEN
 48
50.0
100
AcDbLine
 10
5305.960204444467
 20
865.2878182291315
 30
0.0
 11
5332.960204444468
 21
865.2878182291315
 31
0.0
  0
LINE
  5
2683
330
2
100
AcDbEntity
  8
OUTLINE
  6
HIDDEN
 48
50.0
100
AcDbLine
 10
5305.960204444467
 20
1609.28781822913
 30
0.0
 11
5332.960204444468
 21
1609.28781822913
 31
0.0
  0
LINE
  5
2684
330
2
100
AcDbEntity
  8
OUTLINE
  6
HIDDEN
 48
50.0
100
AcDbLine
 10
5333.960204444467
 20
1608.787818229131
 30
0.0
 11
5345.960204444467
 21
1596.787818229131
 31
0.0
  0
LINE
  5
2685
330
2
100
AcDbEntity
  8
OUTLINE
  6
HIDDEN
 48
50.0
100
AcDbLine
 10
5345.960204444467
 20
1374.787818229131
 30
0.0
 11
5345.960204444467
 21
1596.787818229131
 31
0.0
  0
LINE
  5
2686
330
2
100
AcDbEntity
  8
OUTLINE
  6
HIDDEN
 48
50.0
100
AcDbLine
 10
5333.460204444467
 20
1362.287818229132
 30
0.0
 11
5345.960204444467
 21
1374.787818229131
 31
0.0
  0
LINE
  5
2687
330
2
100
AcDbEntity
  8
OUTLINE
  6
HIDDEN
 48
50.0
100
AcDbLine
 10
5333.460204444467
 20
1112.287818229131
 30
0.0
 11
5333.460204444467
 21
1362.287818229132
 31
0.0
  0
LINE
  5
2688
330
2
100
AcDbEntity
  8
OUTLINE
  6
HIDDEN
 48
50.0
100
AcDbLine
 10
5345.960204444467
 20
1099.787818229132
 30
0.0
 11
5333.460204444467
 21
1112.287818229132
 31
0.0
  0
LINE
  5
2689
330
2
100
AcDbEntity
  8
OUTLINE
  6
HIDDEN
 48
50.0
100
AcDbLine
 10
5345.960204444467
 20
877.7878182291315
 30
0.0
 11
5345.960204444467
 21
1099.787818229131
 31
0.0
  0
LINE
  5
268A
330
2
100
AcDbEntity
  8
OUTLINE
  6
HIDDEN
 48
50.0
100
AcDbLine
 10
5345.960204444467
 20
877.7878182291315
 30
0.0
 11
5333.960204444467
 21
865.7878182291312
 31
0.0
  0
ELLIPSE
  5
268B
330
2
100
AcDbEntity
  8
OUTLINE
 48
50.0
100
AcDbEllipse
 10
5318.960204444469
 20
869.4235043551106
 30
0.0
 11
-2.25
 21
0.000000000000003
 31
0.0
210
0.0
220
0.0
230
1.0
 40
0.8745946342037584
 41
3.265101234617726
 42
6.159676726151657
  0
ELLIPSE
  5
268C
330
2
100
AcDbEntity
  8
OUTLINE
 48
50.0
100
AcDbEllipse
 10
5318.960204444469
 20
1053.08837753789
 30
0.0
 11
-2.25
 21
0.000000000000003
 31
0.0
210
0.0
220
0.0
230
1.0
 40
0.8745946342037584
 41
3.265101234617902
 42
6.159676726151482
  0
ELLIPSE
  5
268D
330
2
100
AcDbEntity
  8
OUTLINE
 48
50.0
100
AcDbEllipse
 10
5318.960204444469
 20
1236.753250720669
 30
0.0
 11
-2.25
 21
0.000000000000003
 31
0.0
210
0.0
220
0.0
230
1.0
 40
0.8745946342037584
 41
3.265101234617678
 42
6.159676726151705
  0
ELLIPSE
  5
268E
330
2
100
AcDbEntity
  8
OUTLINE
 48
50.0
100
AcDbEllipse
 10
5318.960204444469
 20
1420.418123903449
 30
0.0
 11
-2.25
 21
0.000000000000003
 31
0.0
210
0.0
220
0.0
230
1.0
 40
0.8745946342037584
 41
3.265101234617902
 42
6.159676726151482
  0
ELLIPSE
  5
268F
330
2
100
AcDbEntity
  8
OUTLINE
 48
50.0
100
AcDbEllipse
 10
5318.960204444469
 20
1604.082997086228
 30
0.0
 11
-2.25
 21
0.000000000000003
 31
0.0
210
0.0
220
0.0
230
1.0
 40
0.8745946342037584
 41
3.265101234617726
 42
6.159676726151657
  0
ELLIPSE
  5
2690
330
2
100
AcDbEntity
  8
OUTLINE
 48
50.0
100
AcDbEllipse
 10
5318.960204444469
 20
1604.56785193649
 30
0.0
 11
2.25
 21
-0.000000000000003
 31
0.0
210
0.0
220
0.0
230
1.0
 40
0.8745946342037116
 41
5.922607130413445
 42
9.785356137529158
  0
ELLIPSE
  5
2691
330
2
100
AcDbEntity
  8
OUTLINE
 48
50.0
100
AcDbEllipse
 10
5318.960204444469
 20
1420.902978753711
 30
0.0
 11
2.25
 21
-0.000000000000003
 31
0.0
210
0.0
220
0.0
230
1.0
 40
0.8745946342037116
 41
5.922607130413196
 42
9.785356137529863
  0
ELLIPSE
  5
2692
330
2
100
AcDbEntity
  8
OUTLINE
 48
50.0
100
AcDbEllipse
 10
5318.960204444469
 20
1237.238105570931
 30
0.0
 11
2.25
 21
-0.000000000000003
 31
0.0
210
0.0
220
0.0
230
1.0
 40
0.8745946342037116
 41
5.922607130414689
 42
9.785356137530355
  0
ELLIPSE
  5
2693
330
2
100
AcDbEntity
  8
OUTLINE
 48
50.0
100
AcDbEllipse
 10
5318.960204444469
 20
1053.573232388151
 30
0.0
 11
2.25
 21
-0.000000000000003
 31
0.0
210
0.0
220
0.0
230
1.0
 40
0.8745946342037116
 41
5.922607130415678
 42
9.785356137529863
  0
ELLIPSE
  5
2694
330
2
100
AcDbEntity
  8
OUTLINE
 48
50.0
100
AcDbEllipse
 10
5318.960204444469
 20
869.9083592053721
 30
0.0
 11
2.25
 21
-0.000000000000003
 31
0.0
210
0.0
220
0.0
230
1.0
 40
0.8745946342037116
 41
5.922607130416629
 42
9.785356137529863
  0
ARC
  5
2695
330
2
100
AcDbEntity
  8
OUTLINE
  6
HIDDEN
 48
50.0
100
AcDbCircle
 10
5331.460204444468
 20
1537.287818229131
 30
0.0
 40
3.5
100
AcDbArc
 50
270.0
 51
90.0
  0
ARC
  5
2696
330
2
100
AcDbEntity
  8
OUTLINE
  6
HIDDEN
 48
50.0
100
AcDbCircle
 10
5329.460204444467
 20
1537.287818229131
 30
0.0
 40
3.5
100
AcDbArc
 50
90.0
 51
270.0
  0
ARC
  5
2697
330
2
100
AcDbEntity
  8
OUTLINE
  6
HIDDEN
 48
50.0
100
AcDbCircle
 10
5329.460204444467
 20
1387.287818229131
 30
0.0
 40
3.5
100
AcDbArc
 50
90.0
 51
270.0
  0
ARC
  5
2698
330
2
100
AcDbEntity
  8
OUTLINE
  6
HIDDEN
 48
50.0
100
AcDbCircle
 10
5331.460204444468
 20
1387.287818229131
 30
0.0
 40
3.5
100
AcDbArc
 50
270.0
 51
90.0
  0
ARC
  5
2699
330
2
100
AcDbEntity
  8
OUTLINE
  6
HIDDEN
 48
50.0
100
AcDbCircle
 10
5329.460204444467
 20
1087.287818229131
 30
0.0
 40
3.5
100
AcDbArc
 50
90.0
 51
270.0
  0
ARC
  5
269A
330
2
100
AcDbEntity
  8
OUTLINE
  6
HIDDEN
 48
50.0
100
AcDbCircle
 10
5331.460204444468
 20
1087.287818229131
 30
0.0
 40
3.5
100
AcDbArc
 50
270.0
 51
90.0
  0
ARC
  5
269B
330
2
100
AcDbEntity
  8
OUTLINE
  6
HIDDEN
 48
50.0
100
AcDbCircle
 10
5329.460204444467
 20
937.2878182291312
 30
0.0
 40
3.5
100
AcDbArc
 50
90.0
 51
270.0
  0
ARC
  5
269C
330
2
100
AcDbEntity
  8
OUTLINE
  6
HIDDEN
 48
50.0
100
AcDbCircle
 10
5331.460204444468
 20
937.2878182291312
 30
0.0
 40
3.5
100
AcDbArc
 50
270.0
 51
90.0
  0
LINE
  5
269D
330
2
100
AcDbEntity
  8
OUTLINE
 48
50.0
100
AcDbLine
 10
6104.960204444466
 20
1614.9475135489
 30
0.0
 11
6104.960204444466
 21
1615.287818229132
 31
0.0
  0
LINE
  5
269E
330
2
100
AcDbEntity
  8
OUTLINE
 48
50.0
100
AcDbLine
 10
5334.960204444467
 20
1615.287818229132
 30
0.0
 11
5334.960204444467
 21
1614.9475135489
 31
0.0
  0
LINE
  5
269F
330
2
100
AcDbEntity
  8
OUTLINE
 48
50.0
100
AcDbLine
 10
5309.405895393014
 20
1615.287818229131
 30
0.0
 11
5309.713924716214
 21
1614.732118620055
 31
0.0
  0
LINE
  5
26A0
330
2
100
AcDbEntity
  8
OUTLINE
 48
50.0
100
AcDbLine
 10
5304.960204444467
 20
1614.287818229131
 30
0.0
 11
5304.960204444467
 21
1615.287818229131
 31
0.0
  0
LINE
  5
26A1
330
2
100
AcDbEntity
  8
OUTLINE
 48
50.0
100
AcDbLine
 10
5334.960204444467
 20
1615.287818229131
 30
0.0
 11
6104.960204444466
 21
1615.287818229131
 31
0.0
  0
LINE
  5
26A2
330
2
100
AcDbEntity
  8
OUTLINE
 48
50.0
100
AcDbLine
 10
5309.405895393014
 20
1615.287818229131
 30
0.0
 11
5334.960204444467
 21
1615.287818229131
 31
0.0
  0
LINE
  5
26A3
330
2
100
AcDbEntity
  8
OUTLINE
 48
50.0
100
AcDbLine
 10
5304.960204444467
 20
1615.287818229131
 30
0.0
 11
5309.405895393014
 21
1615.287818229131
 31
0.0
  0
LINE
  5
26A4
330
2
100
AcDbEntity
  8
OUTLINE
 48
50.0
100
AcDbLine
 10
6104.960204444466
 20
1615.287818229131
 30
0.0
 11
6130.514513495921
 21
1615.287818229131
 31
0.0
  0
LINE
  5
26A5
330
2
100
AcDbEntity
  8
OUTLINE
 48
50.0
100
AcDbLine
 10
6130.514513495921
 20
1615.287818229131
 30
0.0
 11
6134.960204444467
 21
1615.287818229131
 31
0.0
  0
LINE
  5
26A6
330
2
100
AcDbEntity
  8
OUTLINE
 48
50.0
100
AcDbLine
 10
6134.960204444467
 20
1615.287818229131
 30
0.0
 11
6134.960204444467
 21
1614.287818229131
 31
0.0
  0
LINE
  5
26A7
330
2
100
AcDbEntity
  8
OUTLINE
 48
50.0
100
AcDbLine
 10
6130.206484172722
 20
1614.732118620056
 30
0.0
 11
6130.514513495921
 21
1615.287818229131
 31
0.0
  0
LINE
  5
26A8
330
2
100
AcDbEntity
  8
NOTE
 48
50.0
100
AcDbLine
 10
6158.960204444468
 20
1087.287818229132
 30
0.0
 11
6159.960204444466
 21
1087.287818229132
 31
0.0
  0
LINE
  5
26A9
330
2
100
AcDbEntity
  8
NOTE
 48
50.0
100
AcDbLine
 10
6159.460204444466
 20
1086.787818229132
 30
0.0
 11
6159.460204444466
 21
1087.787818229132
 31
0.0
  0
LINE
  5
26AA
330
2
100
AcDbEntity
  8
NOTE
 48
50.0
100
AcDbLine
 10
6145.960204444467
 20
1087.287818229132
 30
0.0
 11
6157.960204444466
 21
1087.287818229132
 31
0.0
  0
LINE
  5
26AB
330
2
100
AcDbEntity
  8
NOTE
 48
50.0
100
AcDbLine
 10
6160.960204444466
 20
1087.287818229132
 30
0.0
 11
6172.960204444468
 21
1087.287818229132
 31
0.0
  0
LINE
  5
26AC
330
2
100
AcDbEntity
  8
NOTE
 48
50.0
100
AcDbLine
 10
6159.460204444466
 20
1073.787818229132
 30
0.0
 11
6159.460204444466
 21
1085.787818229132
 31
0.0
  0
LINE
  5
26AD
330
2
100
AcDbEntity
  8
NOTE
 48
50.0
100
AcDbLine
 10
6159.460204444466
 20
1088.787818229132
 30
0.0
 11
6159.460204444466
 21
1100.787818229132
 31
0.0
  0
LINE
  5
26AE
330
2
100
AcDbEntity
  8
NOTE
 48
50.0
100
AcDbLine
 10
6158.960204444468
 20
1237.287818229132
 30
0.0
 11
6159.960204444466
 21
1237.287818229132
 31
0.0
  0
LINE
  5
26AF
330
2
100
AcDbEntity
  8
NOTE
 48
50.0
100
AcDbLine
 10
6159.460204444466
 20
1236.787818229132
 30
0.0
 11
6159.460204444466
 21
1237.787818229132
 31
0.0
  0
LINE
  5
26B0
330
2
100
AcDbEntity
  8
NOTE
 48
50.0
100
AcDbLine
 10
6145.960204444467
 20
1237.287818229132
 30
0.0
 11
6157.960204444466
 21
1237.287818229132
 31
0.0
  0
LINE
  5
26B1
330
2
100
AcDbEntity
  8
NOTE
 48
50.0
100
AcDbLine
 10
6160.960204444466
 20
1237.287818229132
 30
0.0
 11
6172.960204444468
 21
1237.287818229132
 31
0.0
  0
LINE
  5
26B2
330
2
100
AcDbEntity
  8
NOTE
 48
50.0
100
AcDbLine
 10
6159.460204444466
 20
1223.787818229132
 30
0.0
 11
6159.460204444466
 21
1235.787818229132
 31
0.0
  0
LINE
  5
26B3
330
2
100
AcDbEntity
  8
NOTE
 48
50.0
100
AcDbLine
 10
6159.460204444466
 20
1238.787818229132
 30
0.0
 11
6159.460204444466
 21
1250.787818229132
 31
0.0
  0
LINE
  5
26B4
330
2
100
AcDbEntity
  8
NOTE
 48
50.0
100
AcDbLine
 10
6158.960204444468
 20
1387.287818229132
 30
0.0
 11
6159.960204444466
 21
1387.287818229132
 31
0.0
  0
LINE
  5
26B5
330
2
100
AcDbEntity
  8
NOTE
 48
50.0
100
AcDbLine
 10
6159.460204444466
 20
1386.787818229132
 30
0.0
 11
6159.460204444466
 21
1387.787818229132
 31
0.0
  0
LINE
  5
26B6
330
2
100
AcDbEntity
  8
NOTE
 48
50.0
100
AcDbLine
 10
6145.960204444467
 20
1387.287818229132
 30
0.0
 11
6157.960204444466
 21
1387.287818229132
 31
0.0
  0
LINE
  5
26B7
330
2
100
AcDbEntity
  8
NOTE
 48
50.0
100
AcDbLine
 10
6160.960204444466
 20
1387.287818229132
 30
0.0
 11
6172.960204444468
 21
1387.287818229132
 31
0.0
  0
LINE
  5
26B8
330
2
100
AcDbEntity
  8
NOTE
 48
50.0
100
AcDbLine
 10
6159.460204444466
 20
1373.787818229132
 30
0.0
 11
6159.460204444466
 21
1385.787818229132
 31
0.0
  0
LINE
  5
26B9
330
2
100
AcDbEntity
  8
NOTE
 48
50.0
100
AcDbLine
 10
6159.460204444466
 20
1388.787818229132
 30
0.0
 11
6159.460204444466
 21
1400.787818229132
 31
0.0
  0
LINE
  5
26BA
330
2
100
AcDbEntity
  8
NOTE
 48
50.0
100
AcDbLine
 10
6158.960204444468
 20
1537.287818229132
 30
0.0
 11
6159.960204444466
 21
1537.287818229132
 31
0.0
  0
LINE
  5
26BB
330
2
100
AcDbEntity
  8
NOTE
 48
50.0
100
AcDbLine
 10
6159.460204444466
 20
1536.787818229132
 30
0.0
 11
6159.460204444466
 21
1537.787818229132
 31
0.0
  0
LINE
  5
26BC
330
2
100
AcDbEntity
  8
NOTE
 48
50.0
100
AcDbLine
 10
6145.960204444467
 20
1537.287818229132
 30
0.0
 11
6157.960204444466
 21
1537.287818229132
 31
0.0
  0
LINE
  5
26BD
330
2
100
AcDbEntity
  8
NOTE
 48
50.0
100
AcDbLine
 10
6160.960204444466
 20
1537.287818229132
 30
0.0
 11
6172.960204444468
 21
1537.287818229132
 31
0.0
  0
LINE
  5
26BE
330
2
100
AcDbEntity
  8
NOTE
 48
50.0
100
AcDbLine
 10
6159.460204444466
 20
1523.787818229132
 30
0.0
 11
6159.460204444466
 21
1535.787818229132
 31
0.0
  0
LINE
  5
26BF
330
2
100
AcDbEntity
  8
NOTE
 48
50.0
100
AcDbLine
 10
6159.460204444466
 20
1538.787818229132
 30
0.0
 11
6159.460204444466
 21
1550.787818229132
 31
0.0
  0
LINE
  5
26C0
330
2
100
AcDbEntity
  8
NOTE
 48
50.0
100
AcDbLine
 10
5329.960204444468
 20
937.2878182291319
 30
0.0
 11
5330.960204444467
 21
937.2878182291319
 31
0.0
  0
LINE
  5
26C1
330
2
100
AcDbEntity
  8
NOTE
 48
50.0
100
AcDbLine
 10
5330.460204444467
 20
936.7878182291319
 30
0.0
 11
5330.460204444467
 21
937.787818229132
 31
0.0
  0
LINE
  5
26C2
330
2
100
AcDbEntity
  8
NOTE
 48
50.0
100
AcDbLine
 10
5316.960204444467
 20
937.2878182291319
 30
0.0
 11
5328.960204444467
 21
937.2878182291319
 31
0.0
  0
LINE
  5
26C3
330
2
100
AcDbEntity
  8
NOTE
 48
50.0
100
AcDbLine
 10
5331.960204444467
 20
937.2878182291319
 30
0.0
 11
5343.960204444467
 21
937.2878182291319
 31
0.0
  0
LINE
  5
26C4
330
2
100
AcDbEntity
  8
NOTE
 48
50.0
100
AcDbLine
 10
5330.460204444467
 20
923.787818229132
 30
0.0
 11
5330.460204444467
 21
935.7878182291319
 31
0.0
  0
LINE
  5
26C5
330
2
100
AcDbEntity
  8
NOTE
 48
50.0
100
AcDbLine
 10
5330.460204444467
 20
938.787818229132
 30
0.0
 11
5330.460204444467
 21
950.7878182291319
 31
0.0
  0
LINE
  5
26C6
330
2
100
AcDbEntity
  8
NOTE
 48
50.0
100
AcDbLine
 10
5278.960204444466
 20
937.2878182291325
 30
0.0
 11
5279.960204444467
 21
937.2878182291325
 31
0.0
  0
LINE
  5
26C7
330
2
100
AcDbEntity
  8
NOTE
 48
50.0
100
AcDbLine
 10
5279.460204444466
 20
936.7878182291324
 30
0.0
 11
5279.460204444466
 21
937.7878182291324
 31
0.0
  0
LINE
  5
26C8
330
2
100
AcDbEntity
  8
NOTE
 48
50.0
100
AcDbLine
 10
5265.960204444468
 20
937.2878182291325
 30
0.0
 11
5277.960204444466
 21
937.2878182291325
 31
0.0
  0
LINE
  5
26C9
330
2
100
AcDbEntity
  8
NOTE
 48
50.0
100
AcDbLine
 10
5280.960204444467
 20
937.2878182291325
 30
0.0
 11
5292.960204444465
 21
937.2878182291325
 31
0.0
  0
LINE
  5
26CA
330
2
100
AcDbEntity
  8
NOTE
 48
50.0
100
AcDbLine
 10
5279.460204444466
 20
923.7878182291323
 30
0.0
 11
5279.460204444466
 21
935.7878182291324
 31
0.0
  0
LINE
  5
26CB
330
2
100
AcDbEntity
  8
NOTE
 48
50.0
100
AcDbLine
 10
5279.460204444466
 20
938.7878182291323
 30
0.0
 11
5279.460204444466
 21
950.7878182291324
 31
0.0
  0
LINE
  5
26CC
330
2
100
AcDbEntity
  8
NOTE
 48
50.0
100
AcDbLine
 10
5329.960204444468
 20
1087.287818229132
 30
0.0
 11
5330.960204444467
 21
1087.287818229132
 31
0.0
  0
LINE
  5
26CD
330
2
100
AcDbEntity
  8
NOTE
 48
50.0
100
AcDbLine
 10
5330.460204444467
 20
1086.787818229132
 30
0.0
 11
5330.460204444467
 21
1087.787818229132
 31
0.0
  0
LINE
  5
26CE
330
2
100
AcDbEntity
  8
NOTE
 48
50.0
100
AcDbLine
 10
5316.960204444467
 20
1087.287818229132
 30
0.0
 11
5328.960204444467
 21
1087.287818229132
 31
0.0
  0
LINE
  5
26CF
330
2
100
AcDbEntity
  8
NOTE
 48
50.0
100
AcDbLine
 10
5331.960204444467
 20
1087.287818229132
 30
0.0
 11
5343.960204444467
 21
1087.287818229132
 31
0.0
  0
LINE
  5
26D0
330
2
100
AcDbEntity
  8
NOTE
 48
50.0
100
AcDbLine
 10
5330.460204444467
 20
1073.787818229132
 30
0.0
 11
5330.460204444467
 21
1085.787818229132
 31
0.0
  0
LINE
  5
26D1
330
2
100
AcDbEntity
  8
NOTE
 48
50.0
100
AcDbLine
 10
5330.460204444467
 20
1088.787818229132
 30
0.0
 11
5330.460204444467
 21
1100.787818229132
 31
0.0
  0
LINE
  5
26D2
330
2
100
AcDbEntity
  8
NOTE
 48
50.0
100
AcDbLine
 10
5278.960204444466
 20
1087.287818229132
 30
0.0
 11
5279.960204444467
 21
1087.287818229132
 31
0.0
  0
LINE
  5
26D3
330
2
100
AcDbEntity
  8
NOTE
 48
50.0
100
AcDbLine
 10
5279.460204444466
 20
1086.787818229132
 30
0.0
 11
5279.460204444466
 21
1087.787818229132
 31
0.0
  0
LINE
  5
26D4
330
2
100
AcDbEntity
  8
NOTE
 48
50.0
100
AcDbLine
 10
5265.960204444468
 20
1087.287818229132
 30
0.0
 11
5277.960204444466
 21
1087.287818229132
 31
0.0
  0
LINE
  5
26D5
330
2
100
AcDbEntity
  8
NOTE
 48
50.0
100
AcDbLine
 10
5280.960204444467
 20
1087.287818229132
 30
0.0
 11
5292.960204444465
 21
1087.287818229132
 31
0.0
  0
LINE
  5
26D6
330
2
100
AcDbEntity
  8
NOTE
 48
50.0
100
AcDbLine
 10
5279.460204444466
 20
1073.787818229132
 30
0.0
 11
5279.460204444466
 21
1085.787818229132
 31
0.0
  0
LINE
  5
26D7
330
2
100
AcDbEntity
  8
NOTE
 48
50.0
100
AcDbLine
 10
5279.460204444466
 20
1088.787818229132
 30
0.0
 11
5279.460204444466
 21
1100.787818229132
 31
0.0
  0
LINE
  5
26D8
330
2
100
AcDbEntity
  8
NOTE
 48
50.0
100
AcDbLine
 10
5278.960204444466
 20
1387.287818229132
 30
0.0
 11
5279.960204444467
 21
1387.287818229132
 31
0.0
  0
LINE
  5
26D9
330
2
100
AcDbEntity
  8
NOTE
 48
50.0
100
AcDbLine
 10
5279.460204444466
 20
1386.787818229132
 30
0.0
 11
5279.460204444466
 21
1387.787818229132
 31
0.0
  0
LINE
  5
26DA
330
2
100
AcDbEntity
  8
NOTE
 48
50.0
100
AcDbLine
 10
5265.960204444468
 20
1387.287818229132
 30
0.0
 11
5277.960204444466
 21
1387.287818229132
 31
0.0
  0
LINE
  5
26DB
330
2
100
AcDbEntity
  8
NOTE
 48
50.0
100
AcDbLine
 10
5280.960204444467
 20
1387.287818229132
 30
0.0
 11
5292.960204444465
 21
1387.287818229132
 31
0.0
  0
LINE
  5
26DC
330
2
100
AcDbEntity
  8
NOTE
 48
50.0
100
AcDbLine
 10
5279.460204444466
 20
1373.787818229132
 30
0.0
 11
5279.460204444466
 21
1385.787818229132
 31
0.0
  0
LINE
  5
26DD
330
2
100
AcDbEntity
  8
NOTE
 48
50.0
100
AcDbLine
 10
5279.460204444466
 20
1388.787818229132
 30
0.0
 11
5279.460204444466
 21
1400.787818229132
 31
0.0
  0
LINE
  5
26DE
330
2
100
AcDbEntity
  8
NOTE
 48
50.0
100
AcDbLine
 10
5329.960204444468
 20
1387.287818229132
 30
0.0
 11
5330.960204444467
 21
1387.287818229132
 31
0.0
  0
LINE
  5
26DF
330
2
100
AcDbEntity
  8
NOTE
 48
50.0
100
AcDbLine
 10
5330.460204444467
 20
1386.787818229132
 30
0.0
 11
5330.460204444467
 21
1387.787818229132
 31
0.0
  0
LINE
  5
26E0
330
2
100
AcDbEntity
  8
NOTE
 48
50.0
100
AcDbLine
 10
5316.960204444467
 20
1387.287818229132
 30
0.0
 11
5328.960204444467
 21
1387.287818229132
 31
0.0
  0
LINE
  5
26E1
330
2
100
AcDbEntity
  8
NOTE
 48
50.0
100
AcDbLine
 10
5331.960204444467
 20
1387.287818229132
 30
0.0
 11
5343.960204444467
 21
1387.287818229132
 31
0.0
  0
LINE
  5
26E2
330
2
100
AcDbEntity
  8
NOTE
 48
50.0
100
AcDbLine
 10
5330.460204444467
 20
1373.787818229132
 30
0.0
 11
5330.460204444467
 21
1385.787818229132
 31
0.0
  0
LINE
  5
26E3
330
2
100
AcDbEntity
  8
NOTE
 48
50.0
100
AcDbLine
 10
5330.460204444467
 20
1388.787818229132
 30
0.0
 11
5330.460204444467
 21
1400.787818229132
 31
0.0
  0
LINE
  5
26E4
330
2
100
AcDbEntity
  8
NOTE
 48
50.0
100
AcDbLine
 10
5329.960204444468
 20
1537.287818229132
 30
0.0
 11
5330.960204444467
 21
1537.287818229132
 31
0.0
  0
LINE
  5
26E5
330
2
100
AcDbEntity
  8
NOTE
 48
50.0
100
AcDbLine
 10
5330.460204444467
 20
1536.787818229132
 30
0.0
 11
5330.460204444467
 21
1537.787818229132
 31
0.0
  0
LINE
  5
26E6
330
2
100
AcDbEntity
  8
NOTE
 48
50.0
100
AcDbLine
 10
5316.960204444467
 20
1537.287818229132
 30
0.0
 11
5328.960204444467
 21
1537.287818229132
 31
0.0
  0
LINE
  5
26E7
330
2
100
AcDbEntity
  8
NOTE
 48
50.0
100
AcDbLine
 10
5331.960204444467
 20
1537.287818229132
 30
0.0
 11
5343.960204444467
 21
1537.287818229132
 31
0.0
  0
LINE
  5
26E8
330
2
100
AcDbEntity
  8
NOTE
 48
50.0
100
AcDbLine
 10
5330.460204444467
 20
1523.787818229132
 30
0.0
 11
5330.460204444467
 21
1535.787818229132
 31
0.0
  0
LINE
  5
26E9
330
2
100
AcDbEntity
  8
NOTE
 48
50.0
100
AcDbLine
 10
5330.460204444467
 20
1538.787818229132
 30
0.0
 11
5330.460204444467
 21
1550.787818229132
 31
0.0
  0
LINE
  5
26EA
330
2
100
AcDbEntity
  8
NOTE
 48
50.0
100
AcDbLine
 10
5278.960204444466
 20
1537.287818229132
 30
0.0
 11
5279.960204444467
 21
1537.287818229132
 31
0.0
  0
LINE
  5
26EB
330
2
100
AcDbEntity
  8
NOTE
 48
50.0
100
AcDbLine
 10
5279.460204444466
 20
1536.787818229132
 30
0.0
 11
5279.460204444466
 21
1537.787818229132
 31
0.0
  0
LINE
  5
26EC
330
2
100
AcDbEntity
  8
NOTE
 48
50.0
100
AcDbLine
 10
5265.960204444468
 20
1537.287818229132
 30
0.0
 11
5277.960204444466
 21
1537.287818229132
 31
0.0
  0
LINE
  5
26ED
330
2
100
AcDbEntity
  8
NOTE
 48
50.0
100
AcDbLine
 10
5280.960204444467
 20
1537.287818229132
 30
0.0
 11
5292.960204444465
 21
1537.287818229132
 31
0.0
  0
LINE
  5
26EE
330
2
100
AcDbEntity
  8
NOTE
 48
50.0
100
AcDbLine
 10
5279.460204444466
 20
1523.787818229132
 30
0.0
 11
5279.460204444466
 21
1535.787818229132
 31
0.0
  0
LINE
  5
26EF
330
2
100
AcDbEntity
  8
NOTE
 48
50.0
100
AcDbLine
 10
5279.460204444466
 20
1538.787818229132
 30
0.0
 11
5279.460204444466
 21
1550.787818229132
 31
0.0
  0
LINE
  5
26F0
330
2
100
AcDbEntity
  8
NOTE
 48
50.0
100
AcDbLine
 10
4449.960204444467
 20
937.2878182291312
 30
0.0
 11
4450.960204444467
 21
937.2878182291312
 31
0.0
  0
LINE
  5
26F1
330
2
100
AcDbEntity
  8
NOTE
 48
50.0
100
AcDbLine
 10
4450.460204444467
 20
936.7878182291317
 30
0.0
 11
4450.460204444467
 21
937.7878182291317
 31
0.0
  0
LINE
  5
26F2
330
2
100
AcDbEntity
  8
NOTE
 48
50.0
100
AcDbLine
 10
4436.960204444467
 20
937.2878182291312
 30
0.0
 11
4448.960204444467
 21
937.2878182291312
 31
0.0
  0
LINE
  5
26F3
330
2
100
AcDbEntity
  8
NOTE
 48
50.0
100
AcDbLine
 10
4451.960204444467
 20
937.2878182291312
 30
0.0
 11
4463.960204444467
 21
937.2878182291312
 31
0.0
  0
LINE
  5
26F4
330
2
100
AcDbEntity
  8
NOTE
 48
50.0
100
AcDbLine
 10
4450.460204444467
 20
923.7878182291312
 30
0.0
 11
4450.460204444467
 21
935.7878182291315
 31
0.0
  0
LINE
  5
26F5
330
2
100
AcDbEntity
  8
NOTE
 48
50.0
100
AcDbLine
 10
4450.460204444467
 20
938.7878182291316
 30
0.0
 11
4450.460204444467
 21
950.7878182291316
 31
0.0
  0
LINE
  5
26F6
330
2
100
AcDbEntity
  8
NOTE
 48
50.0
100
AcDbLine
 10
4449.960204444467
 20
1087.287818229131
 30
0.0
 11
4450.960204444467
 21
1087.287818229131
 31
0.0
  0
LINE
  5
26F7
330
2
100
AcDbEntity
  8
NOTE
 48
50.0
100
AcDbLine
 10
4450.460204444467
 20
1086.787818229131
 30
0.0
 11
4450.460204444467
 21
1087.787818229131
 31
0.0
  0
LINE
  5
26F8
330
2
100
AcDbEntity
  8
NOTE
 48
50.0
100
AcDbLine
 10
4436.960204444467
 20
1087.287818229131
 30
0.0
 11
4448.960204444467
 21
1087.287818229131
 31
0.0
  0
LINE
  5
26F9
330
2
100
AcDbEntity
  8
NOTE
 48
50.0
100
AcDbLine
 10
4451.960204444467
 20
1087.287818229131
 30
0.0
 11
4463.960204444467
 21
1087.287818229131
 31
0.0
  0
LINE
  5
26FA
330
2
100
AcDbEntity
  8
NOTE
 48
50.0
100
AcDbLine
 10
4450.460204444467
 20
1073.787818229131
 30
0.0
 11
4450.460204444467
 21
1085.787818229131
 31
0.0
  0
LINE
  5
26FB
330
2
100
AcDbEntity
  8
NOTE
 48
50.0
100
AcDbLine
 10
4450.460204444467
 20
1088.787818229131
 30
0.0
 11
4450.460204444467
 21
1100.787818229131
 31
0.0
  0
LINE
  5
26FC
330
2
100
AcDbEntity
  8
NOTE
 48
50.0
100
AcDbLine
 10
4449.960204444467
 20
1237.287818229132
 30
0.0
 11
4450.960204444467
 21
1237.287818229132
 31
0.0
  0
LINE
  5
26FD
330
2
100
AcDbEntity
  8
NOTE
 48
50.0
100
AcDbLine
 10
4450.460204444467
 20
1236.787818229131
 30
0.0
 11
4450.460204444467
 21
1237.787818229131
 31
0.0
  0
LINE
  5
26FE
330
2
100
AcDbEntity
  8
NOTE
 48
50.0
100
AcDbLine
 10
4436.960204444467
 20
1237.287818229132
 30
0.0
 11
4448.960204444467
 21
1237.287818229132
 31
0.0
  0
LINE
  5
26FF
330
2
100
AcDbEntity
  8
NOTE
 48
50.0
100
AcDbLine
 10
4451.960204444467
 20
1237.287818229132
 30
0.0
 11
4463.960204444467
 21
1237.287818229132
 31
0.0
  0
LINE
  5
2700
330
2
100
AcDbEntity
  8
NOTE
 48
50.0
100
AcDbLine
 10
4450.460204444467
 20
1223.787818229131
 30
0.0
 11
4450.460204444467
 21
1235.787818229131
 31
0.0
  0
LINE
  5
2701
330
2
100
AcDbEntity
  8
NOTE
 48
50.0
100
AcDbLine
 10
4450.460204444467
 20
1238.787818229131
 30
0.0
 11
4450.460204444467
 21
1250.787818229131
 31
0.0
  0
LINE
  5
2702
330
2
100
AcDbEntity
  8
NOTE
 48
50.0
100
AcDbLine
 10
4449.960204444467
 20
1387.287818229131
 30
0.0
 11
4450.960204444467
 21
1387.287818229131
 31
0.0
  0
LINE
  5
2703
330
2
100
AcDbEntity
  8
NOTE
 48
50.0
100
AcDbLine
 10
4450.460204444467
 20
1386.787818229131
 30
0.0
 11
4450.460204444467
 21
1387.787818229131
 31
0.0
  0
LINE
  5
2704
330
2
100
AcDbEntity
  8
NOTE
 48
50.0
100
AcDbLine
 10
4436.960204444467
 20
1387.287818229131
 30
0.0
 11
4448.960204444467
 21
1387.287818229131
 31
0.0
  0
LINE
  5
2705
330
2
100
AcDbEntity
  8
NOTE
 48
50.0
100
AcDbLine
 10
4451.960204444467
 20
1387.287818229131
 30
0.0
 11
4463.960204444467
 21
1387.287818229131
 31
0.0
  0
LINE
  5
2706
330
2
100
AcDbEntity
  8
NOTE
 48
50.0
100
AcDbLine
 10
4450.460204444467
 20
1373.787818229131
 30
0.0
 11
4450.460204444467
 21
1385.787818229131
 31
0.0
  0
LINE
  5
2707
330
2
100
AcDbEntity
  8
NOTE
 48
50.0
100
AcDbLine
 10
4450.460204444467
 20
1388.787818229131
 30
0.0
 11
4450.460204444467
 21
1400.787818229131
 31
0.0
  0
LINE
  5
2708
330
2
100
AcDbEntity
  8
NOTE
 48
50.0
100
AcDbLine
 10
4449.960204444467
 20
1537.287818229131
 30
0.0
 11
4450.960204444467
 21
1537.287818229131
 31
0.0
  0
LINE
  5
2709
330
2
100
AcDbEntity
  8
NOTE
 48
50.0
100
AcDbLine
 10
4450.460204444467
 20
1536.787818229131
 30
0.0
 11
4450.460204444467
 21
1537.787818229131
 31
0.0
  0
LINE
  5
270A
330
2
100
AcDbEntity
  8
NOTE
 48
50.0
100
AcDbLine
 10
4436.960204444467
 20
1537.287818229131
 30
0.0
 11
4448.960204444467
 21
1537.287818229131
 31
0.0
  0
LINE
  5
270B
330
2
100
AcDbEntity
  8
NOTE
 48
50.0
100
AcDbLine
 10
4451.960204444467
 20
1537.287818229131
 30
0.0
 11
4463.960204444467
 21
1537.287818229131
 31
0.0
  0
LINE
  5
270C
330
2
100
AcDbEntity
  8
NOTE
 48
50.0
100
AcDbLine
 10
4450.460204444467
 20
1523.787818229131
 30
0.0
 11
4450.460204444467
 21
1535.787818229131
 31
0.0
  0
LINE
  5
270D
330
2
100
AcDbEntity
  8
NOTE
 48
50.0
100
AcDbLine
 10
4450.460204444467
 20
1538.78781822913
 30
0.0
 11
4450.460204444467
 21
1550.787818229131
 31
0.0
  0
LINE
  5
2715
330
2
100
AcDbEntity
  8
OUTLINE
 48
50.0
100
AcDbLine
 10
5304.960204444468
 20
1584.40419402739
 30
0.0
 11
5304.960204444466
 21
884.0524631565363
 31
0.0
  0
LINE
  5
2716
330
2
100
AcDbEntity
  8
OUTLINE
 48
50.0
100
AcDbLine
 10
5304.960204444468
 20
1584.404194028786
 30
0.0
 11
5304.960204444468
 21
884.05246315761
 31
0.0
  0
LINE
  5
2717
330
2
100
AcDbEntity
  8
BASIS
  6
DASHDOT
 62
     6
 48
50.0
100
AcDbLine
 10
5304.960204444467
 20
827.6245012336525
 30
0.0
 11
5304.960204444467
 21
1640.752377939226
 31
0.0
  0
LINE
  5
2718
330
2
100
AcDbEntity
  8
ARRANGE
  6
Continuous
 62
     1
 48
50.0
100
AcDbLine
 10
5288.276086880062
 20
1220.60370066473
 30
0.0
 11
5321.644322008871
 21
1253.971935793537
 31
0.0
  0
LINE
  5
2719
330
2
100
AcDbEntity
  8
ARRANGE
  6
Continuous
 62
     1
 48
50.0
100
AcDbLine
 10
5288.276086880062
 20
1253.971935793537
 30
0.0
 11
5321.644322008871
 21
1220.60370066473
 31
0.0
  0
CIRCLE
  5
271A
330
2
100
AcDbEntity
  8
ARRANGE
 48
50.0
100
AcDbCircle
 10
5304.960204444467
 20
1237.287818229134
 30
0.0
 40
15.0
  0
LINE
  5
271B
330
2
100
AcDbEntity
  8
BASIS
 48
50.0
100
AcDbLine
 10
6198.547383941519
 20
1237.287818229134
 30
0.0
 11
4409.203197721391
 21
1237.287818229134
 31
0.0
  0
DIMENSION
  5
2729
330
2
100
AcDbEntity
  8
SIZE
100
AcDbDimension
  2
*D30
 10
5279.460204444466
 20
1658.139984263021
 30
0.0
 11
4864.960204444468
 21
1678.139984263021
 31
0.0
 70
    32
 71
     5
 42
828.999999999999
  3
STANDARD
100
AcDbAlignedDimension
 13
4450.460204444467
 23
1550.787818229131
 33
0.0
 14
5279.460204444466
 24
1550.787818229132
 34
0.0
100
AcDbRotatedDimension
1001
ACAD
1000
DSTYLE
1002
{
1070
    40
1040
10.0
1070
    45
1040
0.5
1070
    50
1040
0.7853981633974483
1070
    90
1070
     1
1070
   271
1070
     1
1070
   272
1070
     1
1002
}
  0
DIMENSION
  5
2736
330
2
100
AcDbEntity
  8
SIZE
100
AcDbDimension
  2
*D31
 10
5330.460204444467
 20
1658.139984263021
 30
0.0
 11
5304.960204444467
 21
1678.139984263021
 31
0.0
 70
    32
 71
     5
 42
51.00000000000091
  3
STANDARD
100
AcDbAlignedDimension
 13
5279.460204444466
 23
1550.787818229132
 33
0.0
 14
5330.460204444467
 24
1550.787818229132
 34
0.0
100
AcDbRotatedDimension
1001
ACAD
1000
DSTYLE
1002
{
1070
   279
1070
     1
1070
    40
1040
10.0
1070
    45
1040
0.5
1070
    50
1040
0.7853981633974483
1070
    90
1070
     1
1070
   271
1070
     1
1070
   272
1070
     1
1002
}
  0
DIMENSION
  5
2745
330
2
100
AcDbEntity
  8
SIZE
100
AcDbDimension
  2
*D32
 10
6159.460204444466
 20
1658.139984263021
 30
0.0
 11
5744.960204444467
 21
1678.139984263021
 31
0.0
 70
    32
 71
     5
 42
829.0
  3
STANDARD
100
AcDbAlignedDimension
 13
5330.460204444467
 23
1550.787818229132
 33
0.0
 14
6159.460204444466
 24
1550.787818229132
 34
0.0
100
AcDbRotatedDimension
1001
ACAD
1000
DSTYLE
1002
{
1070
   279
1070
     1
1070
    40
1040
10.0
1070
    45
1040
0.5
1070
    50
1040
0.7853981633974483
1070
    90
1070
     1
1070
   271
1070
     1
1070
   272
1070
     1
1002
}
  0
DIMENSION
  5
2752
330
2
100
AcDbEntity
  8
SIZE
100
AcDbDimension
  2
*D33
 10
4382.646953372884
 20
1387.287818229131
 30
0.0
 11
4362.646953372884
 21
1462.287818229132
 31
0.0
 70
    32
 71
     5
 42
150.0
  3
STANDARD
100
AcDbAlignedDimension
 13
4436.960204444467
 23
1537.287818229131
 33
0.0
 14
4436.960204444467
 24
1387.287818229131
 34
0.0
 50
90.0
100
AcDbRotatedDimension
1001
ACAD
1000
DSTYLE
1002
{
1070
    40
1040
10.0
1070
    45
1040
0.5
1070
    50
1040
0.7853981633974483
1070
    90
1070
     1
1070
   271
1070
     1
1070
   272
1070
     1
1002
}
  0
DIMENSION
  5
275F
330
2
100
AcDbEntity
  8
SIZE
100
AcDbDimension
  2
*D34
 10
4382.646953372884
 20
1237.287818229134
 30
0.0
 11
4362.646953372884
 21
1312.287818229133
 31
0.0
 70
    32
 71
     5
 42
149.999999999997
  3
STANDARD
100
AcDbAlignedDimension
 13
4436.960204444467
 23
1387.287818229131
 33
0.0
 14
4409.203197721391
 24
1237.287818229134
 34
0.0
 50
90.0
100
AcDbRotatedDimension
1001
ACAD
1000
DSTYLE
1002
{
1070
   279
1070
     1
1070
    40
1040
10.0
1070
    45
1040
0.5
1070
    50
1040
0.7853981633974483
1070
    90
1070
     1
1070
   271
1070
     1
1070
   272
1070
     1
1002
}
  0
DIMENSION
  5
276C
330
2
100
AcDbEntity
  8
SIZE
100
AcDbDimension
  2
*D35
 10
4382.646953372884
 20
1087.287818229131
 30
0.0
 11
4362.646953372884
 21
1162.287818229133
 31
0.0
 70
    32
 71
     5
 42
150.0000000000029
  3
STANDARD
100
AcDbAlignedDimension
 13
4409.203197721391
 23
1237.287818229134
 33
0.0
 14
4436.960204444467
 24
1087.287818229131
 34
0.0
 50
90.0
100
AcDbRotatedDimension
1001
ACAD
1000
DSTYLE
1002
{
1070
   279
1070
     1
1070
    40
1040
10.0
1070
    45
1040
0.5
1070
    50
1040
0.7853981633974483
1070
    90
1070
     1
1070
   271
1070
     1
1070
   272
1070
     1
1002
}
  0
DIMENSION
  5
2779
330
2
100
AcDbEntity
  8
SIZE
100
AcDbDimension
  2
*D36
 10
4382.646953372884
 20
937.2878182291312
 30
0.0
 11
4362.646953372884
 21
1012.287818229132
 31
0.0
 70
    32
 71
     5
 42
149.9999999999999
  3
STANDARD
100
AcDbAlignedDimension
 13
4436.960204444467
 23
1087.287818229131
 33
0.0
 14
4436.960204444467
 24
937.2878182291312
 34
0.0
 50
90.0
100
AcDbRotatedDimension
1001
ACAD
1000
DSTYLE
1002
{
1070
   279
1070
     1
1070
    40
1040
10.0
1070
    45
1040
0.5
1070
    50
1040
0.7853981633974483
1070
    90
1070
     1
1070
   271
1070
     1
1070
   272
1070
     1
1002
}
  0
DIMENSION
  5
2786
330
2
100
AcDbEntity
  8
SIZE
100
AcDbDimension
  2
*D37
 10
6175.960204444468
 20
1704.230913945593
 30
0.0
 11
5304.960204444467
 21
1724.230913945594
 31
0.0
 70
    32
 71
     5
 42
1742.0
  3
STANDARD
100
AcDbAlignedDimension
 13
4433.960204444467
 23
1570.287818229131
 33
0.0
 14
6175.960204444468
 24
1570.287818229131
 34
0.0
100
AcDbRotatedDimension
1001
ACAD
1000
DSTYLE
1002
{
1070
    40
1040
10.0
1070
    45
1040
0.5
1070
    50
1040
0.7853981633974483
1070
    90
1070
     1
1070
   271
1070
     1
1070
   272
1070
     1
1002
}
  0
DIMENSION
  5
2793
330
2
100
AcDbEntity
  8
SIZE
100
AcDbDimension
  2
*D38
 10
4334.624892302296
 20
859.02219094441
 30
0.0
 11
4314.624892302298
 21
1236.984852246655
 31
0.0
 70
    32
 71
     5
 42
755.9253226044895
  3
STANDARD
100
AcDbAlignedDimension
 13
4479.960204444465
 23
1614.9475135489
 33
0.0
 14
4474.960204444465
 24
859.0221909444098
 34
0.0
 50
90.0
100
AcDbRotatedDimension
1001
ACAD
1000
DSTYLE
1002
{
1070
    40
1040
10.0
1070
    45
1040
0.5
1070
    50
1040
0.7853981633974483
1070
    90
1070
     1
1070
   271
1070
     1
1070
   272
1070
     1
1002
}
  0
ENDSEC
  0
SECTION
  2
OBJECTS
  0
DICTIONARY
  5
A
330
0
100
AcDbDictionary
281
     1
  3
ACAD_2007HEADERVARS_RT
350
28ED
  3
ACAD_BACKGROUND
350
B1D
  3
ACAD_COLOR
350
4D
  3
ACAD_GROUP
350
3A
  3
ACAD_LAYOUT
350
17
  3
ACAD_MATERIAL
350
C
  3
ACAD_MLEADERSTYLE
350
B16
  3
ACAD_MLINESTYLE
350
3B
  3
ACAD_PLOTSETTINGS
350
3C
  3
ACAD_PLOTSTYLENAME
350
9
  3
ACAD_SCALELIST
350
4E
  3
ACAD_TABLESTYLE
350
4F
  3
ACAD_VISUALSTYLE
350
2D
  3
ACDB_RECOMPOSE_DATA
350
B02
  3
AcDbVariableDictionary
350
B03
  3
AcmDictionary
350
AFC
  3
AMG
350
126D
  3
AMGSNAPSETTINGS
350
1362
  3
DWGPROPS
350
28EC
  3
MAPISURF_MODULE
350
2892
  0
DICTIONARY
  5
20
330
1F
100
AcDbDictionary
280
     1
281
     1
  3
ACAD_LAYERFILTERS
360
271D
  3
ACAD_LAYERSTATES
360
21
  3
ACLYDICTIONARY
360
271C
  0
DICTIONARY
  5
6
330
5
100
AcDbDictionary
280
     1
281
     1
  3
ADSK_XREC_LAYER_RECONCILED
360
7
  0
DICTIONARY
  5
CB7
330
CB6
100
AcDbDictionary
280
     1
281
     1
  0
DICTIONARY
  5
CB9
330
CB8
100
AcDbDictionary
280
     1
281
     1
  0
DICTIONARY
  5
CBD
330
CBC
100
AcDbDictionary
280
     1
281
     1
  0
DICTIONARY
  5
CBF
330
CBE
100
AcDbDictionary
280
     1
281
     1
  0
DICTIONARY
  5
CC1
330
CC0
100
AcDbDictionary
280
     1
281
     1
  0
DICTIONARY
  5
CC3
330
CC2
100
AcDbDictionary
280
     1
281
     1
  0
DICTIONARY
  5
3
330
2
100
AcDbDictionary
280
     1
281
     1
  3
ACAD_INDEX
360
1547
  3
ACAD_SORTENTS
360
B34
  0
DICTIONARY
  5
28F4
330
1605
100
AcDbDictionary
280
     1
281
     1
  3
ACAD_MTEXT_RT
360
28F5
  0
DICTIONARY
  5
28ED
102
{ACAD_REACTORS
330
A
102
}
330
A
100
AcDbDictionary
281
     1
  3
DIMARCSYM
350
28EF
  3
DIMFXL
350
28EE
  0
DICTIONARY
  5
B1D
102
{ACAD_REACTORS
330
A
102
}
330
A
100
AcDbDictionary
281
     1
  0
DICTIONARY
  5
4D
102
{ACAD_REACTORS
330
A
102
}
330
A
100
AcDbDictionary
281
     1
  0
DICTIONARY
  5
3A
102
{ACAD_REACTORS
330
A
102
}
330
A
100
AcDbDictionary
281
     1
  0
DICTIONARY
  5
17
102
{ACAD_REACTORS
330
A
102
}
330
A
100
AcDbDictionary
281
     1
  3
Model
350
16
  3
レイアウト1
350
1B
  0
DICTIONARY
  5
C
102
{ACAD_REACTORS
330
A
102
}
330
A
100
AcDbDictionary
281
     1
  3
ByBlock
350
45
  3
ByLayer
350
3D
  3
Global
350
B
  0
DICTIONARY
  5
B16
102
{ACAD_REACTORS
330
A
102
}
330
A
100
AcDbDictionary
281
     1
  3
Standard
350
B17
  0
DICTIONARY
  5
3B
102
{ACAD_REACTORS
330
A
102
}
330
A
100
AcDbDictionary
281
     1
  3
STANDARD
350
53
  0
DICTIONARY
  5
3C
102
{ACAD_REACTORS
330
A
102
}
330
A
100
AcDbDictionary
281
     1
  0
ACDBDICTIONARYWDFLT
  5
9
102
{ACAD_REACTORS
330
A
102
}
330
A
100
AcDbDictionary
281
     1
  3
Normal
350
8
100
AcDbDictionaryWithDefault
340
8
  0
DICTIONARY
  5
4E
102
{ACAD_REACTORS
330
A
102
}
330
A
100
AcDbDictionary
281
     1
  3
*A1
350
CC5
  3
*A2
350
1B63
  3
*A3
350
1B64
  3
A0
350
57
  3
A1
350
58
  3
A2
350
59
  3
A3
350
5A
  3
A4
350
5B
  3
A5
350
5C
  3
A6
350
5D
  3
A7
350
5E
  3
A8
350
5F
  3
A9
350
60
  3
B0
350
61
  3
B1
350
62
  3
B2
350
63
  3
B3
350
64
  3
B4
350
65
  3
B5
350
66
  3
B6
350
67
  3
B7
350
68
  3
B8
350
69
  3
B9
350
6A
  3
C0
350
6B
  3
C1
350
6C
  3
C2
350
6D
  3
C3
350
6E
  3
C4
350
6F
  3
C5
350
70
  3
C6
350
71
  3
C7
350
72
  3
C8
350
73
  3
C9
350
74
  3
D0
350
75
  3
D1
350
76
  3
D2
350
77
  0
DICTIONARY
  5
4F
102
{ACAD_REACTORS
330
A
102
}
330
A
100
AcDbDictionary
281
     1
  3
Standard
350
54
  0
DICTIONARY
  5
2D
102
{ACAD_REACTORS
330
A
102
}
330
A
100
AcDbDictionary
281
     1
  3
2dWireframe
350
B0D
  3
3D Hidden
350
B0E
  3
3dWireframe
350
56
  3
Basic
350
B0C
  3
Brighten
350
B11
  3
ColorChange
350
B15
  3
Conceptual
350
B0F
  3
Dim
350
B10
  3
Facepattern
350
B14
  3
Flat
350
B09
  3
FlatWithEdges
350
B0A
  3
Gouraud
350
2C
  3
GouraudWithEdges
350
B0B
  3
Linepattern
350
B13
  3
Realistic
350
55
  3
Thicken
350
B12
  0
XRECORD
  5
B02
102
{ACAD_REACTORS
330
A
102
}
330
A
100
AcDbXrecord
280
     1
 90
        1
330
54
  0
DICTIONARY
  5
B03
102
{ACAD_REACTORS
330
A
102
}
330
A
100
AcDbDictionary
281
     1
  3
CANNOSCALE
350
B06
  3
CMLEADERSTYLE
350
B05
  3
CTABLESTYLE
350
B04
  3
DIMASSOC
350
B7B
  3
HIDETEXT
350
B7A
  3
INDEXCTL
350
B79
  3
LIGHTINGUNITS
350
B07
  3
MSLTSCALE
350
B77
  3
SORTENTS
350
B78
  0
DICTIONARY
  5
AFC
102
{ACAD_REACTORS
330
A
102
}
330
A
100
AcDbDictionary
281
     1
  3
AcmStdDictionary
350
1335
  3
AMDTSECTSYM_ARROWCOLOR
350
134C
  0
DICTIONARY
  5
126D
102
{ACAD_REACTORS
330
A
102
}
330
A
100
AcDbDictionary
281
     1
  3
AcMgSettings
350
126E
  0
DICTIONARY
  5
1362
102
{ACAD_REACTORS
330
A
102
}
330
A
100
AcDbDictionary
281
     1
  3
DIMENSION
350
1367
  3
FEA
350
1366
  3
HATCH (1)
350
1363
  3
HATCH (2)
350
1364
  3
SIMPLE WELD
350
1368
  3
SYMBOLS
350
1365
  0
XRECORD
  5
28EC
102
{ACAD_REACTORS
330
A
102
}
330
A
100
AcDbXrecord
280
     1
  1
DWGPROPS COOKIE
  2

  3

  4

  6

  7

  8
W000135
  9

300
AmdtFileType=84
301
=
302
=
303
=
304
=
305
=
306
=
307
=
308
=
309
=
 40
2.084589548611111
 41
2451324.468257373
 42
2455894.565244734
  1

 90
        1
  0
DICTIONARY
  5
271D
102
{ACAD_REACTORS
330
20
102
}
330
20
100
AcDbDictionary
281
     1
  0
DICTIONARY
  5
21
102
{ACAD_REACTORS
330
20
102
}
330
20
100
AcDbDictionary
281
     1
  0
DICTIONARY
  5
271C
102
{ACAD_REACTORS
330
20
102
}
330
20
100
AcDbDictionary
281
     1
1001
ACAD
1000
<All
  0
XRECORD
  5
7
102
{ACAD_REACTORS
330
6
102
}
330
6
100
AcDbXrecord
280
     1
290
     1
  0
DICTIONARY
  5
1547
102
{ACAD_REACTORS
330
3
102
}
330
3
100
AcDbDictionary
281
     1
  3
*A1
350
1548
  0
SORTENTSTABLE
  5
B34
102
{ACAD_REACTORS
330
3
102
}
330
3
100
AcDbSortentsTable
330
2
331
B60
  5
B60
  0
XRECORD
  5
28F5
102
{ACAD_REACTORS
330
28F4
102
}
330
28F4
100
AcDbXrecord
280
     1
 40
1940.0
  1
\U+22057
  0
XRECORD
  5
28EF
102
{ACAD_REACTORS
330
28ED
102
}
330
28ED
100
AcDbXrecord
280
     1
 70
     1
  0
XRECORD
  5
28EE
102
{ACAD_REACTORS
330
28ED
102
}
330
28ED
100
AcDbXrecord
280
     1
 40
15.0
  0
LAYOUT
  5
16
102
{ACAD_XDICTIONARY
360
28F0
102
}
102
{ACAD_REACTORS
330
17
102
}
330
17
100
AcDbPlotSettings
  1

  2
なし
  4

  6

 40
0.0
 41
0.0
 42
0.0
 43
0.0
 44
0.0
 45
0.0
 46
0.0
 47
0.0
 48
0.0
 49
0.0
140
0.0
141
0.0
142
1.0
143
1.0
 70
  1712
 72
     0
 73
     0
 74
     0
  7

 75
     0
147
1.0
148
0.0
149
0.0
100
AcDbLayout
  1
Model
 70
     1
 71
     0
 10
0.0
 20
0.0
 11
12.0
 21
9.0
 12
0.0
 22
0.0
 32
0.0
 14
0.0
 24
0.0
 34
0.0
 15
0.0
 25
0.0
 35
0.0
146
0.0
 13
0.0
 23
0.0
 33
0.0
 16
1.0
 26
0.0
 36
0.0
 17
0.0
 27
1.0
 37
0.0
 76
     0
330
2
331
C17
  0
LAYOUT
  5
1B
102
{ACAD_XDICTIONARY
360
1C
102
}
102
{ACAD_REACTORS
330
17
102
}
330
17
100
AcDbPlotSettings
  1

  2
Microsoft XPS Document Writer
  4
A4
  6

 40
3.174999952316281
 41
3.174999952316281
 42
3.175003051757812
 43
3.17498779296875
 44
210.0156707763672
 45
297.0106506347656
 46
0.0
 47
0.0
 48
0.0
 49
0.0
140
0.0
141
0.0
142
1.0
143
1.0
 70
   688
 72
     1
 73
     1
 74
     5
  7

 75
    16
147
1.0
148
0.0
149
0.0
100
AcDbLayout
  1
レイアウト1
 70
     1
 71
     1
 10
0.0
 20
0.0
 11
12.0
 21
9.0
 12
0.0
 22
0.0
 32
0.0
 14
-1439.804583653114
 24
-1400.237631316938
 34
0.0
 15
2872.968780515991
 25
1675.790811506817
 35
0.0
146
0.0
 13
0.0
 23
0.0
 33
0.0
 16
1.0
 26
0.0
 36
0.0
 17
0.0
 27
1.0
 37
0.0
 76
     0
330
18
1001
ACAD_PSEXT
1000
Microsoft XPS Document Writer
1000
Microsoft XPS Document Writer
1000
XPSPort:
1000

1070
     0
  0
MATERIAL
  5
45
102
{ACAD_XDICTIONARY
360
46
102
}
102
{ACAD_REACTORS
330
C
102
}
330
C
100
AcDbMaterial
  1
ByBlock
 72
     0
 43
0.0208333333333333
 43
0.0
 43
0.0
 43
0.0
 43
0.0
 43
0.0208333333333333
 43
0.0
 43
0.0
 43
0.0
 43
0.0
 43
1.0
 43
0.0
 43
0.0
 43
0.0
 43
0.0
 43
1.0
 77
     0
 47
0.0208333333333333
 47
0.0
 47
0.0
 47
0.0
 47
0.0
 47
0.0208333333333333
 47
0.0
 47
0.0
 47
0.0
 47
0.0
 47
1.0
 47
0.0
 47
0.0
 47
0.0
 47
0.0
 47
1.0
171
     0
 49
0.0208333333333333
 49
0.0
 49
0.0
 49
0.0
 49
0.0
 49
0.0208333333333333
 49
0.0
 49
0.0
 49
0.0
 49
0.0
 49
1.0
 49
0.0
 49
0.0
 49
0.0
 49
0.0
 49
1.0
175
     0
142
0.0208333333333333
142
0.0
142
0.0
142
0.0
142
0.0
142
0.0208333333333333
142
0.0
142
0.0
142
0.0
142
0.0
142
1.0
142
0.0
142
0.0
142
0.0
142
0.0
142
1.0
179
     0
144
0.0208333333333333
144
0.0
144
0.0
144
0.0
144
0.0
144
0.0208333333333333
144
0.0
144
0.0
144
0.0
144
0.0
144
1.0
144
0.0
144
0.0
144
0.0
144
0.0
144
1.0
147
0.0208333333333333
147
0.0
147
0.0
147
0.0
147
0.0
147
0.0208333333333333
147
0.0
147
0.0
147
0.0
147
0.0
147
1.0
147
0.0
147
0.0
147
0.0
147
0.0
147
1.0
  0
MATERIAL
  5
3D
102
{ACAD_XDICTIONARY
360
3E
102
}
102
{ACAD_REACTORS
330
C
102
}
330
C
100
AcDbMaterial
  1
ByLayer
 72
     0
 43
0.0208333333333333
 43
0.0
 43
0.0
 43
0.0
 43
0.0
 43
0.0208333333333333
 43
0.0
 43
0.0
 43
0.0
 43
0.0
 43
1.0
 43
0.0
 43
0.0
 43
0.0
 43
0.0
 43
1.0
 77
     0
 47
0.0208333333333333
 47
0.0
 47
0.0
 47
0.0
 47
0.0
 47
0.0208333333333333
 47
0.0
 47
0.0
 47
0.0
 47
0.0
 47
1.0
 47
0.0
 47
0.0
 47
0.0
 47
0.0
 47
1.0
171
     0
 49
0.0208333333333333
 49
0.0
 49
0.0
 49
0.0
 49
0.0
 49
0.0208333333333333
 49
0.0
 49
0.0
 49
0.0
 49
0.0
 49
1.0
 49
0.0
 49
0.0
 49
0.0
 49
0.0
 49
1.0
175
     0
142
0.0208333333333333
142
0.0
142
0.0
142
0.0
142
0.0
142
0.0208333333333333
142
0.0
142
0.0
142
0.0
142
0.0
142
1.0
142
0.0
142
0.0
142
0.0
142
0.0
142
1.0
179
     0
144
0.0208333333333333
144
0.0
144
0.0
144
0.0
144
0.0
144
0.0208333333333333
144
0.0
144
0.0
144
0.0
144
0.0
144
1.0
144
0.0
144
0.0
144
0.0
144
0.0
144
1.0
147
0.0208333333333333
147
0.0
147
0.0
147
0.0
147
0.0
147
0.0208333333333333
147
0.0
147
0.0
147
0.0
147
0.0
147
1.0
147
0.0
147
0.0
147
0.0
147
0.0
147
1.0
  0
MATERIAL
  5
B
102
{ACAD_XDICTIONARY
360
D
102
}
102
{ACAD_REACTORS
330
C
102
}
330
C
100
AcDbMaterial
  1
Global
 72
     0
 43
0.0208333333333333
 43
0.0
 43
0.0
 43
0.0
 43
0.0
 43
0.0208333333333333
 43
0.0
 43
0.0
 43
0.0
 43
0.0
 43
1.0
 43
0.0
 43
0.0
 43
0.0
 43
0.0
 43
1.0
 77
     0
 47
0.0208333333333333
 47
0.0
 47
0.0
 47
0.0
 47
0.0
 47
0.0208333333333333
 47
0.0
 47
0.0
 47
0.0
 47
0.0
 47
1.0
 47
0.0
 47
0.0
 47
0.0
 47
0.0
 47
1.0
171
     0
 49
0.0208333333333333
 49
0.0
 49
0.0
 49
0.0
 49
0.0
 49
0.0208333333333333
 49
0.0
 49
0.0
 49
0.0
 49
0.0
 49
1.0
 49
0.0
 49
0.0
 49
0.0
 49
0.0
 49
1.0
175
     0
142
0.0208333333333333
142
0.0
142
0.0
142
0.0
142
0.0
142
0.0208333333333333
142
0.0
142
0.0
142
0.0
142
0.0
142
1.0
142
0.0
142
0.0
142
0.0
142
0.0
142
1.0
179
     0
144
0.0208333333333333
144
0.0
144
0.0
144
0.0
144
0.0
144
0.0208333333333333
144
0.0
144
0.0
144
0.0
144
0.0
144
1.0
144
0.0
144
0.0
144
0.0
144
0.0
144
1.0
147
0.0208333333333333
147
0.0
147
0.0
147
0.0
147
0.0
147
0.0208333333333333
147
0.0
147
0.0
147
0.0
147
0.0
147
1.0
147
0.0
147
0.0
147
0.0
147
0.0
147
1.0
  0
MLEADERSTYLE
  5
B17
102
{ACAD_REACTORS
330
B16
330
1EBF
102
}
330
B16
100
AcDbMLeaderStyle
170
     2
171
     1
172
     0
 90
        2
 40
0.0
 41
0.0
173
     1
 91
-1056964608
340
26
 92
       -2
290
     1
 42
2.0
291
     1
 43
0.36
  3
Standard
 44
4.0
300

342
23
174
     1
178
     6
175
     1
176
     0
 93
-1056964608
 45
4.0
292
     0
297
     0
 46
4.0
 94
-1056964608
 47
1.0
 49
1.0
140
1.0
293
     1
141
0.0
294
     1
177
     0
142
1.0
295
     0
296
     0
143
0.125
1001
ACAD_MLEADERVER
1070
     2
  0
MLINESTYLE
  5
53
102
{ACAD_REACTORS
330
3B
102
}
330
3B
100
AcDbMlineStyle
  2
STANDARD
 70
     0
  3

 62
   256
 51
90.0
 52
90.0
 71
     2
 49
0.5
 62
   256
  6
BYLAYER
 49
-0.5
 62
   256
  6
BYLAYER
  0
ACDBPLACEHOLDER
  5
8
102
{ACAD_REACTORS
330
9
102
}
330
9
  0
SCALE
  5
CC5
102
{ACAD_REACTORS
330
4E
102
}
330
4E
100
AcDbScale
 70
     0
300
1:5_XREF
140
1.0
141
5.0
290
     0
  0
SCALE
  5
1B63
102
{ACAD_REACTORS
330
4E
102
}
330
4E
100
AcDbScale
 70
     0
300
1:5_XREF_XREF
140
1.0
141
5.0
290
     0
  0
SCALE
  5
1B64
102
{ACAD_REACTORS
330
4E
102
}
330
4E
100
AcDbScale
 70
     0
300
1:5_XREF_XREF_XREF_XREF
140
1.0
141
5.0
290
     0
  0
SCALE
  5
57
102
{ACAD_REACTORS
330
4E
102
}
330
4E
100
AcDbScale
 70
     0
300
1:1
140
1.0
141
1.0
290
     1
  0
SCALE
  5
58
102
{ACAD_REACTORS
330
4E
102
}
330
4E
100
AcDbScale
 70
     0
300
1:2
140
1.0
141
2.0
290
     0
  0
SCALE
  5
59
102
{ACAD_REACTORS
330
4E
102
}
330
4E
100
AcDbScale
 70
     0
300
1:4
140
1.0
141
4.0
290
     0
  0
SCALE
  5
5A
102
{ACAD_REACTORS
330
4E
102
}
330
4E
100
AcDbScale
 70
     0
300
1:5
140
1.0
141
5.0
290
     0
  0
SCALE
  5
5B
102
{ACAD_REACTORS
330
4E
102
}
330
4E
100
AcDbScale
 70
     0
300
1:8
140
1.0
141
8.0
290
     0
  0
SCALE
  5
5C
102
{ACAD_REACTORS
330
4E
102
}
330
4E
100
AcDbScale
 70
     0
300
1:10
140
1.0
141
10.0
290
     0
  0
SCALE
  5
5D
102
{ACAD_REACTORS
330
4E
102
}
330
4E
100
AcDbScale
 70
     0
300
1:16
140
1.0
141
16.0
290
     0
  0
SCALE
  5
5E
102
{ACAD_REACTORS
330
4E
102
}
330
4E
100
AcDbScale
 70
     0
300
1:20
140
1.0
141
20.0
290
     0
  0
SCALE
  5
5F
102
{ACAD_REACTORS
330
4E
102
}
330
4E
100
AcDbScale
 70
     0
300
1:30
140
1.0
141
30.0
290
     0
  0
SCALE
  5
60
102
{ACAD_REACTORS
330
4E
102
}
330
4E
100
AcDbScale
 70
     0
300
1:40
140
1.0
141
40.0
290
     0
  0
SCALE
  5
61
102
{ACAD_REACTORS
330
4E
102
}
330
4E
100
AcDbScale
 70
     0
300
1:50
140
1.0
141
50.0
290
     0
  0
SCALE
  5
62
102
{ACAD_REACTORS
330
4E
102
}
330
4E
100
AcDbScale
 70
     0
300
1:100
140
1.0
141
100.0
290
     0
  0
SCALE
  5
63
102
{ACAD_REACTORS
330
4E
102
}
330
4E
100
AcDbScale
 70
     0
300
2:1
140
2.0
141
1.0
290
     0
  0
SCALE
  5
64
102
{ACAD_REACTORS
330
4E
102
}
330
4E
100
AcDbScale
 70
     0
300
4:1
140
4.0
141
1.0
290
     0
  0
SCALE
  5
65
102
{ACAD_REACTORS
330
4E
102
}
330
4E
100
AcDbScale
 70
     0
300
8:1
140
8.0
141
1.0
290
     0
  0
SCALE
  5
66
102
{ACAD_REACTORS
330
4E
102
}
330
4E
100
AcDbScale
 70
     0
300
10:1
140
10.0
141
1.0
290
     0
  0
SCALE
  5
67
102
{ACAD_REACTORS
330
4E
102
}
330
4E
100
AcDbScale
 70
     0
300
100:1
140
100.0
141
1.0
290
     0
  0
SCALE
  5
68
102
{ACAD_REACTORS
330
4E
102
}
330
4E
100
AcDbScale
 70
     0
300
1/128" = 1'-0"
140
0.0078125
141
12.0
290
     0
  0
SCALE
  5
69
102
{ACAD_REACTORS
330
4E
102
}
330
4E
100
AcDbScale
 70
     0
300
1/64" = 1'-0"
140
0.015625
141
12.0
290
     0
  0
SCALE
  5
6A
102
{ACAD_REACTORS
330
4E
102
}
330
4E
100
AcDbScale
 70
     0
300
1/32" = 1'-0"
140
0.03125
141
12.0
290
     0
  0
SCALE
  5
6B
102
{ACAD_REACTORS
330
4E
102
}
330
4E
100
AcDbScale
 70
     0
300
1/16" = 1'-0"
140
0.0625
141
12.0
290
     0
  0
SCALE
  5
6C
102
{ACAD_REACTORS
330
4E
102
}
330
4E
100
AcDbScale
 70
     0
300
3/32" = 1'-0"
140
0.09375
141
12.0
290
     0
  0
SCALE
  5
6D
102
{ACAD_REACTORS
330
4E
102
}
330
4E
100
AcDbScale
 70
     0
300
1/8" = 1'-0"
140
0.125
141
12.0
290
     0
  0
SCALE
  5
6E
102
{ACAD_REACTORS
330
4E
102
}
330
4E
100
AcDbScale
 70
     0
300
3/16" = 1'-0"
140
0.1875
141
12.0
290
     0
  0
SCALE
  5
6F
102
{ACAD_REACTORS
330
4E
102
}
330
4E
100
AcDbScale
 70
     0
300
1/4" = 1'-0"
140
0.25
141
12.0
290
     0
  0
SCALE
  5
70
102
{ACAD_REACTORS
330
4E
102
}
330
4E
100
AcDbScale
 70
     0
300
3/8" = 1'-0"
140
0.375
141
12.0
290
     0
  0
SCALE
  5
71
102
{ACAD_REACTORS
330
4E
102
}
330
4E
100
AcDbScale
 70
     0
300
1/2" = 1'-0"
140
0.5
141
12.0
290
     0
  0
SCALE
  5
72
102
{ACAD_REACTORS
330
4E
102
}
330
4E
100
AcDbScale
 70
     0
300
3/4" = 1'-0"
140
0.75
141
12.0
290
     0
  0
SCALE
  5
73
102
{ACAD_REACTORS
330
4E
102
}
330
4E
100
AcDbScale
 70
     0
300
1" = 1'-0"
140
1.0
141
12.0
290
     0
  0
SCALE
  5
74
102
{ACAD_REACTORS
330
4E
102
}
330
4E
100
AcDbScale
 70
     0
300
1-1/2" = 1'-0"
140
1.5
141
12.0
290
     0
  0
SCALE
  5
75
102
{ACAD_REACTORS
330
4E
102
}
330
4E
100
AcDbScale
 70
     0
300
3" = 1'-0"
140
3.0
141
12.0
290
     0
  0
SCALE
  5
76
102
{ACAD_REACTORS
330
4E
102
}
330
4E
100
AcDbScale
 70
     0
300
6" = 1'-0"
140
6.0
141
12.0
290
     0
  0
SCALE
  5
77
102
{ACAD_REACTORS
330
4E
102
}
330
4E
100
AcDbScale
 70
     0
300
1'-0" = 1'-0"
140
12.0
141
12.0
290
     0
  0
TABLESTYLE
  5
54
102
{ACAD_XDICTIONARY
360
B00
102
}
102
{ACAD_REACTORS
330
4F
102
}
330
4F
100
AcDbTableStyle
  3
Standard
 70
     0
 71
     0
 40
1.5
 41
1.5
280
     0
281
     0
  7
STANDARD
140
4.5
170
     2
 62
     0
 63
     7
283
     0
274
    -2
284
     1
 64
     0
275
    -2
285
     1
 65
     0
276
    -2
286
     1
 66
     0
277
    -2
287
     1
 67
     0
278
    -2
288
     1
 68
     0
279
    -2
289
     1
 69
     0
  7
STANDARD
140
6.0
170
     5
 62
     0
 63
     7
283
     0
274
    -2
284
     1
 64
     0
275
    -2
285
     1
 65
     0
276
    -2
286
     1
 66
     0
277
    -2
287
     1
 67
     0
278
    -2
288
     1
 68
     0
279
    -2
289
     1
 69
     0
  7
STANDARD
140
4.5
170
     5
 62
     0
 63
     7
283
     0
274
    -2
284
     1
 64
     0
275
    -2
285
     1
 65
     0
276
    -2
286
     1
 66
     0
277
    -2
287
     1
 67
     0
278
    -2
288
     1
 68
     0
279
    -2
289
     1
 69
     0
  0
VISUALSTYLE
  5
B0D
102
{ACAD_REACTORS
330
2D
102
}
330
2D
100
AcDbVisualStyle
  2
2dWireframe
 70
     4
 71
     0
 72
     2
 73
     0
 90
        0
 40
-0.6
 41
-30.0
 62
     5
 63
     7
 74
     1
 91
        4
 64
     7
 65
   257
 75
     1
175
     1
 42
1.0
 92
        0
 66
   257
 43
1.0
 76
     1
 77
     6
 78
     2
 67
     7
 79
     5
170
     0
171
     0
290
     0
174
     0
 93
        1
 44
0.0
173
     0
291
     0
 45
0.0
1001
ACAD
1000
AcDbSavedByObjectVersion
1070
     0
1000
AcDbSavedByObjectVersion
1070
     0
1000
AcDbSavedByObjectVersion
1070
     0
1000
AcDbSavedByObjectVersion
1070
     0
1000
AcDbSavedByObjectVersion
1070
     0
1000
AcDbSavedByObjectVersion
1070
     0
1000
AcDbSavedByObjectVersion
1070
     0
1000
AcDbSavedByObjectVersion
1070
     0
1000
AcDbSavedByObjectVersion
1070
     0
1000
AcDbSavedByObjectVersion
1070
     0
1000
AcDbSavedByObjectVersion
1070
     0
1000
AcDbSavedByObjectVersion
1070
     0
1000
AcDbSavedByObjectVersion
1070
     0
  0
VISUALSTYLE
  5
B0E
102
{ACAD_REACTORS
330
2D
102
}
330
2D
100
AcDbVisualStyle
  2
3D Hidden
 70
     6
 71
     1
 72
     2
 73
     2
 90
        0
 40
-0.6
 41
-30.0
 62
     5
 63
     7
 74
     2
 91
        2
 64
     7
 65
   257
 75
     2
175
     1
 42
40.0
 92
        0
 66
   257
 43
1.0
 76
     1
 77
     6
 78
     2
 67
     7
 79
     3
170
     0
171
     0
290
     0
174
     0
 93
        1
 44
0.0
173
     0
291
     0
 45
0.0
1001
ACAD
1000
AcDbSavedByObjectVersion
1070
     0
1000
AcDbSavedByObjectVersion
1070
     0
1000
AcDbSavedByObjectVersion
1070
     0
1000
AcDbSavedByObjectVersion
1070
     0
1000
AcDbSavedByObjectVersion
1070
     0
1000
AcDbSavedByObjectVersion
1070
     0
1000
AcDbSavedByObjectVersion
1070
     0
1000
AcDbSavedByObjectVersion
1070
     0
1000
AcDbSavedByObjectVersion
1070
     0
1000
AcDbSavedByObjectVersion
1070
     0
1000
AcDbSavedByObjectVersion
1070
     0
1000
AcDbSavedByObjectVersion
1070
     0
1000
AcDbSavedByObjectVersion
1070
     0
  0
VISUALSTYLE
  5
56
102
{ACAD_REACTORS
330
2D
102
}
330
2D
100
AcDbVisualStyle
  2
3dWireframe
 70
     5
 71
     0
 72
     2
 73
     0
 90
        0
 40
-0.6
 41
-30.0
 62
     5
 63
     7
 74
     1
 91
        4
 64
     7
 65
   257
 75
     1
175
     1
 42
1.0
 92
        0
 66
   257
 43
1.0
 76
     1
 77
     6
 78
     2
 67
     7
 79
     5
170
     0
171
     0
290
     0
174
     0
 93
        1
 44
0.0
173
     0
291
     0
 45
0.0
1001
ACAD
1000
AcDbSavedByObjectVersion
1070
     0
1000
AcDbSavedByObjectVersion
1070
     0
1000
AcDbSavedByObjectVersion
1070
     0
1000
AcDbSavedByObjectVersion
1070
     0
1000
AcDbSavedByObjectVersion
1070
     0
1000
AcDbSavedByObjectVersion
1070
     0
1000
AcDbSavedByObjectVersion
1070
     0
1000
AcDbSavedByObjectVersion
1070
     0
1000
AcDbSavedByObjectVersion
1070
     0
1000
AcDbSavedByObjectVersion
1070
     0
1000
AcDbSavedByObjectVersion
1070
     0
1000
AcDbSavedByObjectVersion
1070
     0
1000
AcDbSavedByObjectVersion
1070
     0
  0
VISUALSTYLE
  5
B0C
102
{ACAD_REACTORS
330
2D
102
}
330
2D
100
AcDbVisualStyle
  2
Basic
 70
     7
 71
     1
 72
     0
 73
     1
 90
        0
 40
-0.6
 41
-30.0
 62
     5
 63
     7
 74
     0
 91
        4
 64
     7
 65
   257
 75
     1
175
     1
 42
1.0
 92
        8
 66
     7
 43
1.0
 76
     1
 77
     6
 78
     2
 67
     7
 79
     5
170
     0
171
     0
290
     0
174
     0
 93
        1
 44
0.0
173
     0
291
     1
 45
0.0
1001
ACAD
1000
AcDbSavedByObjectVersion
1070
     0
1000
AcDbSavedByObjectVersion
1070
     0
1000
AcDbSavedByObjectVersion
1070
     0
1000
AcDbSavedByObjectVersion
1070
     0
1000
AcDbSavedByObjectVersion
1070
     0
1000
AcDbSavedByObjectVersion
1070
     0
1000
AcDbSavedByObjectVersion
1070
     0
1000
AcDbSavedByObjectVersion
1070
     0
1000
AcDbSavedByObjectVersion
1070
     0
1000
AcDbSavedByObjectVersion
1070
     0
1000
AcDbSavedByObjectVersion
1070
     0
1000
AcDbSavedByObjectVersion
1070
     0
1000
AcDbSavedByObjectVersion
1070
     0
  0
VISUALSTYLE
  5
B11
102
{ACAD_REACTORS
330
2D
102
}
330
2D
100
AcDbVisualStyle
  2
Brighten
 70
    12
 71
     2
 72
     2
 73
     0
 90
        0
 40
-0.6
 41
-30.0
 62
     5
 63
     7
 74
     1
 91
        4
 64
     7
 65
   257
 75
     1
175
     1
 42
1.0
 92
        8
 66
     7
 43
1.0
 76
     1
 77
     6
 78
     2
 67
     7
 79
     5
170
     0
171
     0
290
     0
174
     0
 93
        1
 44
50.0
173
     0
291
     1
 45
0.0
1001
ACAD
1000
AcDbSavedByObjectVersion
1070
     0
1000
AcDbSavedByObjectVersion
1070
     0
1000
AcDbSavedByObjectVersion
1070
     0
1000
AcDbSavedByObjectVersion
1070
     0
1000
AcDbSavedByObjectVersion
1070
     0
1000
AcDbSavedByObjectVersion
1070
     0
1000
AcDbSavedByObjectVersion
1070
     0
1000
AcDbSavedByObjectVersion
1070
     0
1000
AcDbSavedByObjectVersion
1070
     0
1000
AcDbSavedByObjectVersion
1070
     0
1000
AcDbSavedByObjectVersion
1070
     0
1000
AcDbSavedByObjectVersion
1070
     0
1000
AcDbSavedByObjectVersion
1070
     0
  0
VISUALSTYLE
  5
B15
102
{ACAD_REACTORS
330
2D
102
}
330
2D
100
AcDbVisualStyle
  2
ColorChange
 70
    16
 71
     2
 72
     2
 73
     3
 90
        0
 40
-0.6
 41
-30.0
 62
     5
 63
     8
 74
     1
 91
        4
 64
     7
 65
   257
 75
     1
175
     1
 42
1.0
 92
        8
 66
     8
 43
1.0
 76
     1
 77
     6
 78
     2
 67
     7
 79
     5
170
     0
171
     0
290
     0
174
     0
 93
        1
 44
0.0
173
     0
291
     1
 45
0.0
1001
ACAD
1000
AcDbSavedByObjectVersion
1070
     0
1000
AcDbSavedByObjectVersion
1070
     0
1000
AcDbSavedByObjectVersion
1070
     0
1000
AcDbSavedByObjectVersion
1070
     0
1000
AcDbSavedByObjectVersion
1070
     0
1000
AcDbSavedByObjectVersion
1070
     0
1000
AcDbSavedByObjectVersion
1070
     0
1000
AcDbSavedByObjectVersion
1070
     0
1000
AcDbSavedByObjectVersion
1070
     0
1000
AcDbSavedByObjectVersion
1070
     0
1000
AcDbSavedByObjectVersion
1070
     0
1000
AcDbSavedByObjectVersion
1070
     0
1000
AcDbSavedByObjectVersion
1070
     0
  0
VISUALSTYLE
  5
B0F
102
{ACAD_REACTORS
330
2D
102
}
330
2D
100
AcDbVisualStyle
  2
Conceptual
 70
     9
 71
     3
 72
     2
 73
     0
 90
        0
 40
-0.6
 41
-30.0
 62
     5
 63
     7
 74
     2
 91
        2
 64
     7
 65
   257
 75
     1
175
     1
 42
40.0
 92
        8
 66
     7
 43
1.0
 76
     1
 77
     6
 78
     2
 67
     7
 79
     3
170
     0
171
     0
290
     0
174
     0
 93
        1
 44
0.0
173
     0
291
     0
 45
0.0
1001
ACAD
1000
AcDbSavedByObjectVersion
1070
     0
1000
AcDbSavedByObjectVersion
1070
     0
1000
AcDbSavedByObjectVersion
1070
     0
1000
AcDbSavedByObjectVersion
1070
     0
1000
AcDbSavedByObjectVersion
1070
     0
1000
AcDbSavedByObjectVersion
1070
     0
1000
AcDbSavedByObjectVersion
1070
     0
1000
AcDbSavedByObjectVersion
1070
     0
1000
AcDbSavedByObjectVersion
1070
     0
1000
AcDbSavedByObjectVersion
1070
     0
1000
AcDbSavedByObjectVersion
1070
     0
1000
AcDbSavedByObjectVersion
1070
     0
1000
AcDbSavedByObjectVersion
1070
     0
  0
VISUALSTYLE
  5
B10
102
{ACAD_REACTORS
330
2D
102
}
330
2D
100
AcDbVisualStyle
  2
Dim
 70
    11
 71
     2
 72
     2
 73
     0
 90
        0
 40
-0.6
 41
-30.0
 62
     5
 63
     7
 74
     1
 91
        4
 64
     7
 65
   257
 75
     1
175
     1
 42
1.0
 92
        8
 66
     7
 43
1.0
 76
     1
 77
     6
 78
     2
 67
     7
 79
     5
170
     0
171
     0
290
     0
174
     0
 93
        1
 44
-50.0
173
     0
291
     1
 45
0.0
1001
ACAD
1000
AcDbSavedByObjectVersion
1070
     0
1000
AcDbSavedByObjectVersion
1070
     0
1000
AcDbSavedByObjectVersion
1070
     0
1000
AcDbSavedByObjectVersion
1070
     0
1000
AcDbSavedByObjectVersion
1070
     0
1000
AcDbSavedByObjectVersion
1070
     0
1000
AcDbSavedByObjectVersion
1070
     0
1000
AcDbSavedByObjectVersion
1070
     0
1000
AcDbSavedByObjectVersion
1070
     0
1000
AcDbSavedByObjectVersion
1070
     0
1000
AcDbSavedByObjectVersion
1070
     0
1000
AcDbSavedByObjectVersion
1070
     0
1000
AcDbSavedByObjectVersion
1070
     0
  0
VISUALSTYLE
  5
B14
102
{ACAD_REACTORS
330
2D
102
}
330
2D
100
AcDbVisualStyle
  2
Facepattern
 70
    15
 71
     2
 72
     2
 73
     0
 90
        0
 40
-0.6
 41
-30.0
 62
     5
 63
     7
 74
     1
 91
        4
 64
     7
 65
   257
 75
     1
175
     1
 42
1.0
 92
        8
 66
     7
 43
1.0
 76
     1
 77
     6
 78
     2
 67
     7
 79
     5
170
     0
171
     0
290
     0
174
     0
 93
        1
 44
0.0
173
     0
291
     1
 45
0.0
1001
ACAD
1000
AcDbSavedByObjectVersion
1070
     0
1000
AcDbSavedByObjectVersion
1070
     0
1000
AcDbSavedByObjectVersion
1070
     0
1000
AcDbSavedByObjectVersion
1070
     0
1000
AcDbSavedByObjectVersion
1070
     0
1000
AcDbSavedByObjectVersion
1070
     0
1000
AcDbSavedByObjectVersion
1070
     0
1000
AcDbSavedByObjectVersion
1070
     0
1000
AcDbSavedByObjectVersion
1070
     0
1000
AcDbSavedByObjectVersion
1070
     0
1000
AcDbSavedByObjectVersion
1070
     0
1000
AcDbSavedByObjectVersion
1070
     0
1000
AcDbSavedByObjectVersion
1070
     0
  0
VISUALSTYLE
  5
B09
102
{ACAD_REACTORS
330
2D
102
}
330
2D
100
AcDbVisualStyle
  2
Flat
 70
     0
 71
     2
 72
     1
 73
     1
 90
        2
 40
-0.6
 41
30.0
 62
     5
 63
     7
 74
     0
 91
        4
 64
     7
 65
   257
 75
     1
175
     1
 42
1.0
 92
        8
 66
     7
 43
1.0
 76
     1
 77
     6
 78
     2
 67
     7
 79
     5
170
     0
171
     0
290
     0
174
     0
 93
       13
 44
0.0
173
     0
291
     1
 45
0.0
1001
ACAD
1000
AcDbSavedByObjectVersion
1070
     0
1000
AcDbSavedByObjectVersion
1070
     0
1000
AcDbSavedByObjectVersion
1070
     0
1000
AcDbSavedByObjectVersion
1070
     0
1000
AcDbSavedByObjectVersion
1070
     0
1000
AcDbSavedByObjectVersion
1070
     0
1000
AcDbSavedByObjectVersion
1070
     0
1000
AcDbSavedByObjectVersion
1070
     0
1000
AcDbSavedByObjectVersion
1070
     0
1000
AcDbSavedByObjectVersion
1070
     0
1000
AcDbSavedByObjectVersion
1070
     0
1000
AcDbSavedByObjectVersion
1070
     0
1000
AcDbSavedByObjectVersion
1070
     0
  0
VISUALSTYLE
  5
B0A
102
{ACAD_REACTORS
330
2D
102
}
330
2D
100
AcDbVisualStyle
  2
FlatWithEdges
 70
     1
 71
     2
 72
     1
 73
     1
 90
        2
 40
-0.6
 41
30.0
 62
     5
 63
     7
 74
     1
 91
        4
 64
     7
 65
   257
 75
     1
175
     1
 42
1.0
 92
        0
 66
   257
 43
1.0
 76
     1
 77
     6
 78
     2
 67
     7
 79
     5
170
     0
171
     0
290
     0
174
     0
 93
       13
 44
0.0
173
     0
291
     1
 45
0.0
1001
ACAD
1000
AcDbSavedByObjectVersion
1070
     0
1000
AcDbSavedByObjectVersion
1070
     0
1000
AcDbSavedByObjectVersion
1070
     0
1000
AcDbSavedByObjectVersion
1070
     0
1000
AcDbSavedByObjectVersion
1070
     0
1000
AcDbSavedByObjectVersion
1070
     0
1000
AcDbSavedByObjectVersion
1070
     0
1000
AcDbSavedByObjectVersion
1070
     0
1000
AcDbSavedByObjectVersion
1070
     0
1000
AcDbSavedByObjectVersion
1070
     0
1000
AcDbSavedByObjectVersion
1070
     0
1000
AcDbSavedByObjectVersion
1070
     0
1000
AcDbSavedByObjectVersion
1070
     0
  0
VISUALSTYLE
  5
2C
102
{ACAD_REACTORS
330
2D
102
}
330
2D
100
AcDbVisualStyle
  2
Gouraud
 70
     2
 71
     2
 72
     2
 73
     1
 90
        2
 40
-0.6
 41
30.0
 62
     5
 63
     7
 74
     0
 91
        4
 64
     7
 65
   257
 75
     1
175
     1
 42
1.0
 92
        0
 66
     7
 43
1.0
 76
     1
 77
     6
 78
     2
 67
     7
 79
     5
170
     0
171
     0
290
     0
174
     0
 93
       13
 44
0.0
173
     0
291
     1
 45
0.0
1001
ACAD
1000
AcDbSavedByObjectVersion
1070
     0
1000
AcDbSavedByObjectVersion
1070
     0
1000
AcDbSavedByObjectVersion
1070
     0
1000
AcDbSavedByObjectVersion
1070
     0
1000
AcDbSavedByObjectVersion
1070
     0
1000
AcDbSavedByObjectVersion
1070
     0
1000
AcDbSavedByObjectVersion
1070
     0
1000
AcDbSavedByObjectVersion
1070
     0
1000
AcDbSavedByObjectVersion
1070
     0
1000
AcDbSavedByObjectVersion
1070
     0
1000
AcDbSavedByObjectVersion
1070
     0
1000
AcDbSavedByObjectVersion
1070
     0
1000
AcDbSavedByObjectVersion
1070
     0
  0
VISUALSTYLE
  5
B0B
102
{ACAD_REACTORS
330
2D
102
}
330
2D
100
AcDbVisualStyle
  2
GouraudWithEdges
 70
     3
 71
     2
 72
     2
 73
     1
 90
        2
 40
-0.6
 41
30.0
 62
     5
 63
     7
 74
     1
 91
        4
 64
     7
 65
   257
 75
     1
175
     1
 42
1.0
 92
        0
 66
   257
 43
1.0
 76
     1
 77
     6
 78
     2
 67
     7
 79
     5
170
     0
171
     0
290
     0
174
     0
 93
       13
 44
0.0
173
     0
291
     1
 45
0.0
1001
ACAD
1000
AcDbSavedByObjectVersion
1070
     0
1000
AcDbSavedByObjectVersion
1070
     0
1000
AcDbSavedByObjectVersion
1070
     0
1000
AcDbSavedByObjectVersion
1070
     0
1000
AcDbSavedByObjectVersion
1070
     0
1000
AcDbSavedByObjectVersion
1070
     0
1000
AcDbSavedByObjectVersion
1070
     0
1000
AcDbSavedByObjectVersion
1070
     0
1000
AcDbSavedByObjectVersion
1070
     0
1000
AcDbSavedByObjectVersion
1070
     0
1000
AcDbSavedByObjectVersion
1070
     0
1000
AcDbSavedByObjectVersion
1070
     0
1000
AcDbSavedByObjectVersion
1070
     0
  0
VISUALSTYLE
  5
B13
102
{ACAD_REACTORS
330
2D
102
}
330
2D
100
AcDbVisualStyle
  2
Linepattern
 70
    14
 71
     2
 72
     2
 73
     0
 90
        0
 40
-0.6
 41
-30.0
 62
     5
 63
     7
 74
     1
 91
        4
 64
     7
 65
   257
 75
     7
175
     7
 42
1.0
 92
        8
 66
     7
 43
1.0
 76
     1
 77
     6
 78
     2
 67
     7
 79
     5
170
     0
171
     0
290
     0
174
     0
 93
        1
 44
0.0
173
     0
291
     1
 45
0.0
1001
ACAD
1000
AcDbSavedByObjectVersion
1070
     0
1000
AcDbSavedByObjectVersion
1070
     0
1000
AcDbSavedByObjectVersion
1070
     0
1000
AcDbSavedByObjectVersion
1070
     0
1000
AcDbSavedByObjectVersion
1070
     0
1000
AcDbSavedByObjectVersion
1070
     0
1000
AcDbSavedByObjectVersion
1070
     0
1000
AcDbSavedByObjectVersion
1070
     0
1000
AcDbSavedByObjectVersion
1070
     0
1000
AcDbSavedByObjectVersion
1070
     0
1000
AcDbSavedByObjectVersion
1070
     0
1000
AcDbSavedByObjectVersion
1070
     0
1000
AcDbSavedByObjectVersion
1070
     0
  0
VISUALSTYLE
  5
55
102
{ACAD_REACTORS
330
2D
102
}
330
2D
100
AcDbVisualStyle
  2
Realistic
 70
     8
 71
     2
 72
     2
 73
     0
 90
        0
 40
-0.6
 41
-30.0
 62
     5
 63
     7
 74
     1
 91
        0
 64
     7
 65
   257
 75
     1
175
     1
 42
1.0
 92
        8
 66
     8
 43
1.0
 76
     1
 77
     6
 78
     2
 67
     7
 79
     5
170
     0
171
     0
290
     0
174
     0
 93
       13
 44
0.0
173
     0
291
     0
 45
0.0
1001
ACAD
1000
AcDbSavedByObjectVersion
1070
     0
1000
AcDbSavedByObjectVersion
1070
     0
1000
AcDbSavedByObjectVersion
1070
     0
1000
AcDbSavedByObjectVersion
1070
     0
1000
AcDbSavedByObjectVersion
1070
     0
1000
AcDbSavedByObjectVersion
1070
     0
1000
AcDbSavedByObjectVersion
1070
     0
1000
AcDbSavedByObjectVersion
1070
     0
1000
AcDbSavedByObjectVersion
1070
     0
1000
AcDbSavedByObjectVersion
1070
     0
1000
AcDbSavedByObjectVersion
1070
     0
1000
AcDbSavedByObjectVersion
1070
     0
1000
AcDbSavedByObjectVersion
1070
     0
  0
VISUALSTYLE
  5
B12
102
{ACAD_REACTORS
330
2D
102
}
330
2D
100
AcDbVisualStyle
  2
Thicken
 70
    13
 71
     2
 72
     2
 73
     0
 90
        0
 40
-0.6
 41
-30.0
 62
     5
 63
     7
 74
     1
 91
        4
 64
     7
 65
   257
 75
     1
175
     1
 42
1.0
 92
       12
 66
     7
 43
1.0
 76
     1
 77
     6
 78
     2
 67
     7
 79
     5
170
     0
171
     0
290
     0
174
     0
 93
        1
 44
0.0
173
     0
291
     1
 45
0.0
1001
ACAD
1000
AcDbSavedByObjectVersion
1070
     0
1000
AcDbSavedByObjectVersion
1070
     0
1000
AcDbSavedByObjectVersion
1070
     0
1000
AcDbSavedByObjectVersion
1070
     0
1000
AcDbSavedByObjectVersion
1070
     0
1000
AcDbSavedByObjectVersion
1070
     0
1000
AcDbSavedByObjectVersion
1070
     0
1000
AcDbSavedByObjectVersion
1070
     0
1000
AcDbSavedByObjectVersion
1070
     0
1000
AcDbSavedByObjectVersion
1070
     0
1000
AcDbSavedByObjectVersion
1070
     0
1000
AcDbSavedByObjectVersion
1070
     0
1000
AcDbSavedByObjectVersion
1070
     0
  0
DICTIONARYVAR
  5
B06
102
{ACAD_REACTORS
330
B03
102
}
330
B03
100
DictionaryVariables
280
     0
  1
1:1
  0
DICTIONARYVAR
  5
B05
102
{ACAD_REACTORS
330
B03
102
}
330
B03
100
DictionaryVariables
280
     0
  1
STANDARD
  0
DICTIONARYVAR
  5
B04
102
{ACAD_REACTORS
330
B03
102
}
330
B03
100
DictionaryVariables
280
     0
  1
STANDARD
  0
DICTIONARYVAR
  5
B7B
102
{ACAD_REACTORS
330
B03
102
}
330
B03
100
DictionaryVariables
280
     0
  1
1
  0
DICTIONARYVAR
  5
B7A
102
{ACAD_REACTORS
330
B03
102
}
330
B03
100
DictionaryVariables
280
     0
  1
1
  0
DICTIONARYVAR
  5
B79
102
{ACAD_REACTORS
330
B03
102
}
330
B03
100
DictionaryVariables
280
     0
  1
1
  0
DICTIONARYVAR
  5
B07
102
{ACAD_REACTORS
330
B03
102
}
330
B03
100
DictionaryVariables
280
     0
  1
0
  0
DICTIONARYVAR
  5
B77
102
{ACAD_REACTORS
330
B03
102
}
330
B03
100
DictionaryVariables
280
     0
  1
1
  0
DICTIONARYVAR
  5
B78
102
{ACAD_REACTORS
330
B03
102
}
330
B03
100
DictionaryVariables
280
     0
  1
127
  0
DICTIONARY
  5
1335
102
{ACAD_REACTORS
330
AFC
102
}
330
AFC
100
AcDbDictionary
281
     1
  0
XRECORD
  5
134C
102
{ACAD_REACTORS
330
AFC
102
}
330
AFC
100
AcDbXrecord
280
     1
 90
-1023410169
  0
DICTIONARY
  5
126E
102
{ACAD_REACTORS
330
126D
102
}
330
126D
100
AcDbDictionary
281
     1
  3
DWGSETTINGS
350
2814
  3
TRANSSETTINGS
350
2815
  0
ACAMGFILTERDAT
  5
1367
102
{ACAD_REACTORS
330
1362
102
}
330
1362
100
AcAmgFilterDat
 70
    15
  1
DIMENSION,AMDT_*_DIM
  2
*
  3
*
  4
*
  5
*
290
     1
  0
ACAMGFILTERDAT
  5
1366
102
{ACAD_REACTORS
330
1362
102
}
330
1362
100
AcAmgFilterDat
 70
    15
  1
*
  2
AM_FEA-AM_*
  3
*
  4
*
  5
*
290
     1
  0
ACAMGFILTERDAT
  5
1363
102
{ACAD_REACTORS
330
1362
102
}
330
1362
100
AcAmgFilterDat
 70
    15
  1
HATCH
  2
*
  3
*
  4
*
  5
*
290
     1
  0
ACAMGFILTERDAT
  5
1364
102
{ACAD_REACTORS
330
1362
102
}
330
1362
100
AcAmgFilterDat
 70
    15
  1
LINE
  2
8,8N,*-8,*-8N,AM_8,AM_8N,*-AM_8,*-AM_8N
  3
*
  4
*
  5
INSERT,STDPART2D
290
     1
  0
ACAMGFILTERDAT
  5
1368
102
{ACAD_REACTORS
330
1362
102
}
330
1362
100
AcAmgFilterDat
 70
    15
  1
ARC
  2
AM_5
  3
*
  4
2
  5
INSERT
290
     0
  0
ACAMGFILTERDAT
  5
1365
102
{ACAD_REACTORS
330
1362
102
}
330
1362
100
AcAmgFilterDat
 70
    15
  1
ACMFCFRAME,ACMDATUMTARGET,ACMDATUMID,ACMWELDSYM,ACMSURFSYM,ACMFEATID,ACMPARTREF,ACMBALLOON,AMDTEDGESYM,AMGSCREWCALCTABLE
  2
*
  3
*
  4
*
  5
*
290
     1
  0
LAYER_INDEX
  5
1548
102
{ACAD_REACTORS
330
1547
102
}
330
1547
100
AcDbIndex
 40
2455894.565244734
100
AcDbLayerIndex
  8
0
360
1549
 90
        0
  8
Defpoints
360
154A
 90
        0
  8
SIZE
360
154B
 90
        9
  8
OUTLINE
360
154C
 90
      312
  8
BASIS
360
154D
 90
        2
  8
NOTE
360
154E
 90
      109
  8
ARRANGE
360
154F
 90
        3
  8
ETC
360
1550
 90
        1
  0
DICTIONARY
  5
28F0
330
16
100
AcDbDictionary
280
     1
281
     1
  3
ACAD_XREC_ROUNDTRIP
360
28F1
  0
DICTIONARY
  5
1C
330
1B
100
AcDbDictionary
280
     1
281
     1
  3
ACAD_XREC_ROUNDTRIP
360
28F2
  3
ADSK_XREC_LAYOUTTHUMBNAIL
360
1D
  0
DICTIONARY
  5
46
330
45
100
AcDbDictionary
280
     1
281
     1
  3
ACAD_XREC_ROUNDTRIP
360
B71
  3
BUMPTILE
360
47
  3
DIFFUSETILE
360
48
  3
OPACITYTILE
360
49
  3
REFLECTIONTILE
360
4A
  3
REFRACTIONTILE
360
4B
  3
SPECULARTILE
360
4C
  0
DICTIONARY
  5
3E
330
3D
100
AcDbDictionary
280
     1
281
     1
  3
ACAD_XREC_ROUNDTRIP
360
B70
  3
BUMPTILE
360
3F
  3
DIFFUSETILE
360
40
  3
OPACITYTILE
360
41
  3
REFLECTIONTILE
360
42
  3
REFRACTIONTILE
360
43
  3
SPECULARTILE
360
44
  0
DICTIONARY
  5
D
330
B
100
AcDbDictionary
280
     1
281
     1
  3
ACAD_XREC_ROUNDTRIP
360
B69
  3
BUMPTILE
360
E
  3
DIFFUSETILE
360
F
  3
OPACITYTILE
360
10
  3
REFLECTIONTILE
360
11
  3
REFRACTIONTILE
360
12
  3
SPECULARTILE
360
13
  0
DICTIONARY
  5
B00
330
54
100
AcDbDictionary
280
     1
281
     1
  3
ACAD_ROUNDTRIP_2008_TABLESTYLE_CELLSTYLEMAP
360
28EB
  3
ACAD_XREC_ROUNDTRIP
360
28F3
  0
IDBUFFER
  5
1549
330
0
100
AcDbIdBuffer
  0
IDBUFFER
  5
154A
330
0
100
AcDbIdBuffer
  0
IDBUFFER
  5
154B
330
0
100
AcDbIdBuffer
330
2729
330
2736
330
2745
330
2752
330
275F
330
276C
330
2779
330
2786
330
2793
  0
IDBUFFER
  5
154C
330
0
100
AcDbIdBuffer
330
256C
330
256D
330
256E
330
256F
330
2570
330
2571
330
2572
330
2573
330
2574
330
2575
330
2576
330
2577
330
2578
330
2579
330
257A
330
257B
330
257C
330
257D
330
257E
330
257F
330
2580
330
2581
330
2582
330
2583
330
2584
330
2585
330
2586
330
2587
330
2588
330
2589
330
258A
330
258B
330
258C
330
258D
330
258E
330
258F
330
2590
330
2591
330
2592
330
2593
330
2594
330
2595
330
2596
330
2597
330
2598
330
2599
330
259A
330
259B
330
259C
330
259D
330
259E
330
259F
330
25A0
330
25A1
330
25A2
330
25A3
330
25A4
330
25A5
330
25A6
330
25A7
330
25A8
330
25A9
330
25AA
330
25AB
330
25AC
330
25AD
330
25AE
330
25AF
330
25B0
330
25B1
330
25B2
330
25B9
330
25BA
330
25BB
330
25BC
330
25BD
330
25BE
330
25BF
330
25C0
330
25C1
330
25C2
330
25C3
330
25C4
330
25C5
330
25C6
330
25C7
330
25C8
330
25C9
330
25CA
330
25CB
330
25CC
330
25CD
330
25CE
330
25CF
330
25D0
330
25D1
330
25D2
330
25D3
330
25D4
330
25D5
330
25D6
330
25D7
330
25D8
330
25D9
330
25DA
330
25DB
330
25DC
330
25DD
330
25DE
330
25DF
330
25E0
330
25E1
330
25E2
330
25E3
330
25E4
330
25E5
330
25E6
330
25E7
330
25E8
330
25E9
330
25EA
330
25EB
330
25EC
330
25ED
330
25EE
330
25EF
330
25F0
330
25F1
330
25F2
330
25F3
330
25F4
330
25F5
330
25F6
330
25F7
330
25F8
330
25F9
330
25FA
330
25FB
330
25FC
330
25FD
330
25FE
330
25FF
330
2600
330
2601
330
2602
330
2603
330
2604
330
2605
330
2606
330
2607
330
2608
330
2609
330
260A
330
260B
330
260C
330
260D
330
260E
330
260F
330
2610
330
2611
330
2612
330
2613
330
2614
330
2615
330
2616
330
2617
330
2618
330
2619
330
261A
330
261B
330
261C
330
261D
330
261E
330
261F
330
2620
330
2621
330
2622
330
2623
330
2624
330
2625
330
2626
330
2627
330
2628
330
2629
330
262A
330
262B
330
262C
330
262D
330
262E
330
262F
330
2630
330
2631
330
2632
330
2633
330
2634
330
2635
330
2636
330
2637
330
2638
330
2639
330
263A
330
263B
330
263C
330
263D
330
263E
330
263F
330
2640
330
2641
330
2642
330
2643
330
2644
330
2645
330
2646
330
2647
330
2648
330
2649
330
264A
330
264B
330
264C
330
264D
330
264E
330
264F
330
2650
330
2651
330
2652
330
2653
330
2654
330
2655
330
2656
330
2657
330
2658
330
2659
330
265A
330
265B
330
265C
330
265D
330
265E
330
265F
330
2660
330
2661
330
2662
330
2663
330
2664
330
2665
330
2666
330
2667
330
2668
330
2669
330
266A
330
266B
330
266C
330
266D
330
266E
330
266F
330
2670
330
2671
330
2672
330
2673
330
2674
330
2675
330
2676
330
2677
330
2678
330
2679
330
267A
330
267B
330
267C
330
267D
330
267E
330
267F
330
2680
330
2681
330
2682
330
2683
330
2684
330
2685
330
2686
330
2687
330
2688
330
2689
330
268A
330
268B
330
268C
330
268D
330
268E
330
268F
330
2690
330
2691
330
2692
330
2693
330
2694
330
2695
330
2696
330
2697
330
2698
330
2699
330
269A
330
269B
330
269C
330
269D
330
269E
330
269F
330
26A0
330
26A1
330
26A2
330
26A3
330
26A4
330
26A5
330
26A6
330
26A7
330
2715
330
2716
  0
IDBUFFER
  5
154D
330
0
100
AcDbIdBuffer
330
2717
330
271B
  0
IDBUFFER
  5
154E
330
0
100
AcDbIdBuffer
330
1EBF
330
25B3
330
25B4
330
25B5
330
25B6
330
25B7
330
25B8
330
26A8
330
26A9
330
26AA
330
26AB
330
26AC
330
26AD
330
26AE
330
26AF
330
26B0
330
26B1
330
26B2
330
26B3
330
26B4
330
26B5
330
26B6
330
26B7
330
26B8
330
26B9
330
26BA
330
26BB
330
26BC
330
26BD
330
26BE
330
26BF
330
26C0
330
26C1
330
26C2
330
26C3
330
26C4
330
26C5
330
26C6
330
26C7
330
26C8
330
26C9
330
26CA
330
26CB
330
26CC
330
26CD
330
26CE
330
26CF
330
26D0
330
26D1
330
26D2
330
26D3
330
26D4
330
26D5
330
26D6
330
26D7
330
26D8
330
26D9
330
26DA
330
26DB
330
26DC
330
26DD
330
26DE
330
26DF
330
26E0
330
26E1
330
26E2
330
26E3
330
26E4
330
26E5
330
26E6
330
26E7
330
26E8
330
26E9
330
26EA
330
26EB
330
26EC
330
26ED
330
26EE
330
26EF
330
26F0
330
26F1
330
26F2
330
26F3
330
26F4
330
26F5
330
26F6
330
26F7
330
26F8
330
26F9
330
26FA
330
26FB
330
26FC
330
26FD
330
26FE
330
26FF
330
2700
330
2701
330
2702
330
2703
330
2704
330
2705
330
2706
330
2707
330
2708
330
2709
330
270A
330
270B
330
270C
330
270D
  0
IDBUFFER
  5
154F
330
0
100
AcDbIdBuffer
330
2718
330
2719
330
271A
  0
IDBUFFER
  5
1550
330
0
100
AcDbIdBuffer
330
B60
  0
XRECORD
  5
28F1
102
{ACAD_REACTORS
330
28F0
102
}
330
28F0
100
AcDbXrecord
280
     1
102
SHADEPLOT
 70
     0
102
SHADEPLOTRESLEVEL
 70
     2
102
SHADEPLOTCUSTOMDPI
 70
   300
  0
XRECORD
  5
28F2
102
{ACAD_REACTORS
330
1C
102
}
330
1C
100
AcDbXrecord
280
     1
102
SHADEPLOT
 70
     0
102
SHADEPLOTRESLEVEL
 70
     2
102
SHADEPLOTCUSTOMDPI
 70
   300
  0
XRECORD
  5
1D
102
{ACAD_REACTORS
330
1C
102
}
330
1C
100
AcDbXrecord
280
     1
310
28000000B4000000870000000100080000000000EC5E0000000000000000000000010000000000000000000000000000FFFFFF000000000000000000000000000000000000000000000000000000000000000000330000006600000099000000CC000000FF00000000330000333300006633000099330000CC330000FF3300
310
0000660000336600006666000099660000CC660000FF66000000990000339900006699000099990000CC990000FF99000000CC000033CC000066CC000099CC0000CCCC0000FFCC000000FF000033FF000066FF000099FF0000CCFF0000FFFF000000003300330033006600330099003300CC003300FF003300003333003333
310
33006633330099333300CC333300FF33330000663300336633006666330099663300CC663300FF66330000993300339933006699330099993300CC993300FF99330000CC330033CC330066CC330099CC3300CCCC3300FFCC330000FF330033FF330066FF330099FF3300CCFF3300FFFF330000006600330066006600660099
310
006600CC006600FF00660000336600333366006633660099336600CC336600FF33660000666600336666006666660099666600CC666600FF66660000996600339966006699660099996600CC996600FF99660000CC660033CC660066CC660099CC6600CCCC6600FFCC660000FF660033FF660066FF660099FF6600CCFF6600
310
FFFF660000009900330099006600990099009900CC009900FF00990000339900333399006633990099339900CC339900FF33990000669900336699006666990099669900CC669900FF66990000999900339999006699990099999900CC999900FF99990000CC990033CC990066CC990099CC9900CCCC9900FFCC990000FF99
310
0033FF990066FF990099FF9900CCFF9900FFFF99000000CC003300CC006600CC009900CC00CC00CC00FF00CC000033CC003333CC006633CC009933CC00CC33CC00FF33CC000066CC003366CC006666CC009966CC00CC66CC00FF66CC000099CC003399CC006699CC009999CC00CC99CC00FF99CC0000CCCC0033CCCC0066CC
310
CC0099CCCC00CCCCCC00FFCCCC0000FFCC0033FFCC0066FFCC0099FFCC00CCFFCC00FFFFCC000000FF003300FF006600FF009900FF00CC00FF00FF00FF000033FF003333FF006633FF009933FF00CC33FF00FF33FF000066FF003366FF006666FF009966FF00CC66FF00FF66FF000099FF003399FF006699FF009999FF00CC
310
99FF00FF99FF0000CCFF0033CCFF0066CCFF0099CCFF00CCCCFF00FFCCFF0000FFFF0033FFFF0066FFFF0099FFFF00CCFFFF00FFFFFF00000000000D0D0D001A1A1A00282828003535350043434300505050005D5D5D006B6B6B00787878008686860093939300A1A1A100AEAEAE00BBBBBB00C9C9C900D6D6D600E4E4E400
310
F1F1F100FFFFFF0000000000000000000000000000000000000000000000000000000000000000000000000000000000E2E2E2E2E2E2E2E2E2E2E2E2E2E2E2E2E2E2E2E2E2E2E2E2E2E2E2E2E2E2E2E2E2E2E2E2E2E2E2E2E2E2E2E2E2E2E2E2E2E2E2E2E2E2E2E2E2E2E2E2E2E2E2E2E2E2E2E2E2E2E2E2E2E2E2E2E2E2E2
310
E2E2E2E2E2E2E2E2E2E2E2E2E2E2E2E2E2E2E2E2E2E2E2E2E2E2E2E2E2E2E2E2E2E2E2E2E2E2E2E2E2E2E2E2E2E2E2E2E2E2E2E2E2E2E2E2E2E2E2E2E2E2E2E2E2E2E2E2E2E2E2E2E2E2E2E2E2E2E2E2E2E2E2E2E2E2E2E2E2E2E2E2E2E2E2E2E2E2E2E2E2E2E2E2E2E2E2E2E2E2E2E2E2E2E2E2E2E2E2E2E2E2E2E2E2E2E2
310
E2E2E2E2E2E2E2E2E2E2E2E2E2E2E2E2E2E2E2E2E2E2E2E2E2E2E2E2E2E2E2E2E2E2E2E2E2E2E2E2E2E2E2E2E2E2E2E2E2E2E2E2E2E2E2E2E2E2E2E2E2E2E2E2E2E2E2E2E2E2E2E2E2E2E2E2E2E2E2E2E2E2E2E2E2E2E2E2E2E2E2E2E2E2E2E2E2E2E2E2E2E2E2E2E2E2E2E2E2E2E2E2E2E2E2E2E2E2E2E2E2E2E2E2E2E2E2
310
E2E2E2E2E2E2E2E2E2E2E2E2E2E2E2E2E2E2E2E2E2E2E2E2E2E2E2E2E2E2E2E2E2E2E2E2E2E2E2E2E2E2E2E2E2E2E2E2E2E2E2E2E2E2E2E2E2E2E2E2E2E2E2E2E2E2E2E2E2E2E2E2E2E2E2E2E2E2E2E2E2E2E2E2E2E2E2E2E2E2E2E2E2E2E2E2E2E2E2E2E2E2E2E2E2E2E2E2E2E2E2E2E2E2E2E2E2E2E2E2E2E2E2E2E2E2E2
310
E2E2E2E2E2E2E2E2E2E2E2E2E2E2E2E2E2E2E2E2E2E2E2E2E2E2E2E2E2E2E2E2E2E2E2E2E2E2E2E2E2E2E2E2E2E2E2E2E2E2E2E2E2E2E2E2E2E2E2E2E2E2E2E2E2E2E2E2E2E2E2E2E2E2E2E2E2E2E2E2E2E2E2E2E2E2E2E2E2E2E2E2E2E2E2E2E2E2E2E2E2E2E2E2E2E2E2E2E2E2E2E2E2E2E2E2E2E2E2E2E2E2E2E2E2E2E2
310
E2E2E2E2E2E2E2E2E2E2E2E2E2E2E2E2E2E2E2E2E2E2E2E2E2E2E2E2E2E2E2E2E2E2E2E2E2E2E2E2E2E2E2E2E2E2E2E2E2E2E2E2E2E2E2E2E2E2E2E2E2E2E2E2E2E2E2E2E2E2E2E2E2E2E2E2E2E2E2E2E2E2E2E2E2E2E2E2E2E2E2E2E2E2E2E2E2E2E2E2E2E2E2E2E2E2E2E2E2E2E2E2E2E2E2E2E2E2E2E2E2E2E2E2E2E2E2
310
E2E2E2E2E2E2E2E2E2E2E2E2E2E2E2E2E2E2E2E2E2E2E2E2E2E2E2E2E2E2E2E2E2E2E2E2E2E2E2E2E2E2E2E2E2E2E2E2E2E2E2E2E2E2E2E2E2E2E2E2E2E2E2E2E2E2E2E2E2E2E2E2E2E2E2E2E2E2E2E2E2E2E2E2E2E2E2E2E2E2E2E2E2E2E2E2E2E2E2E2E2E2E2E2E2E2E2E2E2E2E2E2E2E2E2E2E2E2E2E2E2E2E2E2E2E2E2
310
E2E2E2E2E2E2E2E2E2E2E2E2E2E2E2E2E2E2E2E2E2E2E2E2E2E2E2E2E2E2E2E2E2E2E2E2E2E2E2E2E2E2E2E2E2E2E2E2E2E2E2E2E2E2E2E2E2E2E2E2E2E2E2E2E2E2E2E2E2E2E2E2E2E2E2E2E2E2E2E2E2E2E2E2E2E2E2E2E2E2E2E2E2E2E2E2E2E2E2E2E2E2E2E2E2E2E2E2E2E2E2E2E2E2E2E2E2E2E2E2E2E2E2E2E2E2E2
310
E2E2E2E2E2E2E2E2E2E2E2E2E2E2E2E2E2E2E2E2E2E2E2E2E2E2E2E2E2E2E2E2E2E2E2E2E2E2E2E2E2E2E2E2E2E2E2E2E2E2E2E2E2E2E2E2E2E2E2E2E2E2E2E2E2E2E2E2E2E2E2E2E2E2E2E2E2E2E2E2E2E2E2E2E2E2E2E2E2E2E2E2E2E2E2E2E2E2E2E2E2E2E2E2E2E2E2E2E2E2E2E2E2E2E2E2E2E2E2E2E2E2E2E2E2E2E2
310
E2E2E2E2E2E2E2E2E2E2E2E2E2E2E2E2E2E2E2E2E2E2E2E2E2E2E2E2E2E2E2E2E2E2E2E2E2E2E2E2E2E2E2E2E2E2E2E2E2E2E2E2E2E2E2E2E2E2E2E2E2E2E2E2E2E2E2E2E2E2E2E2E2E2E2E2E2E2E2E2E2E2E2E2E2E2E2E2E2E2E2E2E2E2E2E2E2E2E2E2E2E2E2E2E2E2E2E2E2E2E2E2E2E2E2E2E2E2E2E2E2E2E2E2E2E2E2
310
E2E2E2E2E2E2E2E2E2E2E2E2E2E2E2E2E2E2E2E2E2E2E2E2E2E2E2E2E2E2E2E2E2E2E2E2E2E2E2E2E2E2E2E2E2E2E2E2E2E2E2E2E2E2E2E2E2E2E2E2E2E2E2E2E2E2E2E2E2E2E2E2E2E2E2E2E2E2E2E2E2E2E2E2E2E2E2E2E2E2E2E2E2E2E2E2E2E2E2E2E2E2E2E2E2E2E2E2E2E2E2E2E2E2E2E2E2E2E2E2E2E2E2E2E2E2E2
310
E2E2E2E2E2E2E2E2E2E2E2E2E2E2E2E2E2E2E2E2E2E2E2E2E2E2E2E2E2E2E2E2E2E2E2E2E2E2E2E2E2E2E2E2E2E2E2E2E2E2E2E2E2E2E2E2E2E2E2E2E2E2E2E2E2E2E2E2E2E2E2E2E2E2E2E2E2E2E2E2E2E2E2E2E2E2E2E2E2E2E2E2E2E2E2E2E2E2E2E2E2E2E2E2E2E2E2E2E2E2E2E2E2E2E2E2E2E2E2E2E2E2E2E2E2E2E2
310
E2E2E2E2E2E2E2E2E2E2E2E2E2E2E2E2E2E2E2E2E2E2E2E2E2E2E2E2E2E2E2E2E2E2E2E2E2E2E2E2E2E2E2E2E2E2E2E2E2E2E2E2E2E2E2E2E2E2E2E2E2E2E2E2E2E2E2E2E2E2E2E2E2E2E2E2E2E2E2E2E2E2E2E2E2E2E2E2E2E2E2E2E2E2E2E2E2E2E2E2E2E2E2E2E2E2E2E2E2E2E2E2E2E2E2E2E2E2E2E2E2E2E2E2E2E2E2
310
E2E2E2E2E2E2E2E2E2E2E2E2E2E2E2E2E2E2E2E2E2E2E2E2E2E2E2E2E2E2E2E2E2E2E2E2E2E2E2E2E2E2E2E2E2E2E2E2E2E2E2E2E2E2E2E2E2E2E2E2E2E2E2E2E2E2E2E2E2E2E2E2E2E2E2E2E2E2E2E2E2E2E2E2E2E2E2E2E2E2E2E2E2E2E2E2E2E2E2E2E2E2E2E2E2E2E2E2E2E2E2E2E2E2E2E2E2E2E2E2E2E2E2E2E2E2E2
310
E2E2E2E2E2E2E2E2E2E2E2E2E2E2E2E2E2E2E2E2E2E2E2E2E2E2E2E2E2E2E2E2E2E2E2E2E2E2E2E2E2E2E2E2E2E2E2E2E2E2E2E2E2E2E2E2E2E2E2E2E2E2E2E2E2E2E2E2E2E2E2E2E2E2E2E2E2E2E2E2E2E2E2E2E2E2E2E2E2E2E2E2E2E2E2E2E2E2E2E2E2E2E2E2E2E2E2E2E2E2E2E2E2E2E2E2E2E2E2E2E2E2E2E2E2E2E2
310
E2E2E2E2E2E2E2E2E2E2E2E2E2E2E2E2E2E2E2E2E2E2E2E2E2E2E2E2E2E2E2E2E2E2E2E2E2E2E2E2E2E2E2E2E2E2E2E2E2E2E2E2E2E2E2E2E2E2E2E2E2E2E2E2E2E2E2E2E2E2E2E2E2E2E2E2E2E2E2E2E2E2E2E2E2E2E2E2E2E2E2E2E2E2E2E2E2E2E2E2E2E2E2E2E2E2E2E2E2E2E2E2E2E2E2E2E2E2E2E2E2E2E2E2E2E2E2
310
E2E2E2E2E2E2E2E2E2E2E2E2E2E2E2E2E2E2E2E2E2E2E2E2E2E2E2E2E2E2E2E2E2E2E2E2E2E2E2E2E2E2E2E2E2E2E2E2E2E2E2E2E2E2E2E2E2E2E2E2E2E2E2E2E2E2E2E2E2E2E2E2E2E2E2E2E2E2E2E2E2E2E2E2E2E2E2E2E2E2E2E2E2E2E2E2E2E2E2E2E2E2E2E2E2E2E2E2E2E2E2E2E2E2E2E2E2E2E2E2E2E2E2E2E2E2E2
310
E2E2E2E2E2E2E2E2E2E2E2E2E2E2E2E2E2E2E2E2E2E2E2E2E2E2E2E2E2E2E2E2E2E2E2E2E2E2E2E2E2E2E2E2E2E2E2E2E2E2E2E2E2E2E2E2E2E2E2E2E2E2E2E2E2E2E2E2E2E2E2E2E2E2E2E2E2E2E2E2E2E2E2E2E2E2E2E2E2E2E2E2E2E2E2E2E2E2E2E2E2E2E2E2E2E2E2E2E2E2E2E2E2E2E2E2E2E2E2E2E2E2E2E2E2E2E2
310
E2E2E2E2E2E2E2E2E2E2E2E2E2E2E2E2E2E2E2E2E2E2E2E2E2E2E2E2E2E2E2E2E2E2E2E2E2E2E2E2E2E2E2E2E2E2E2E2E2E2E2E2E2E2E2E2E2E2E2E2E2E2E2E2E2E2E2E2E2E2E2E2E2E2E2E2E2E2E2E2E2E2E2E2E2E2E2E2E2E2E2E2E2E2E2E2E2E2E2E2E2E2E2E2E2E2E2E2E2E2E2E2E2E2E2E2E2E2E2E2E2E2E2E2E2E2E2
310
E2E2E2E2E2E2E2E2E2E2E2E2E2E2E2E2E2E2E2E2E2E2E2E2E2E2E2E2E2E2E2E2E2E2E2E2E2E2E2E2E2E2E2E2E2E2E2E2E2E2E2E2E2E2E2E2E2E2E2E2E2E2E2E2E2E2E2E2E2E2E2E2E2E2E2E2E2E2E2E2E2E2E2E2E2E2E2E2E2E2E2E2E2E2E2E2E2E2E2E2E2E2E2E2E2E2E2E2E2E2E2E2E2E2E2E2E2E2E2E2E2E2E2E2E2E2E2
310
E2E2E2E2E2E2E2E2E2E2E2E2E2E2E2E2E2E2E2E2E2E2E2E2E2E2E2E2E2E2E2E2E2E2E2E2E2E2E2E2E2E2E2E2E2E2E2E2E2E2E2E2E2E2E2E2E2E2E2E2E2E2E2E2E2E2E2E2E2E2E2E2E2E2E2E2E2E2E2E2E2E2E2E2E2E2E2E2E2E2E2E2E2E2E2E2E2E2E2E2E2E2E2E2E2E2E2E2E2E2E2E2E2E2E2E2E2E2E2E2E2E2E2E2E2E2E2
310
E2E2E2E2E2E2E2E2E2E2E2E2E2E2E2E2E2E2E2E2E2E2E2E2E2E2E2E2E2E2E2E2E2E2E2E2E2E2E2E2E2E2E2E2E2E2E2E2E2E2E2E2E2E2E2E2E2E2E2E2E2E2E2E2E2E2E2E2E2E2E2E2E2E2E2E2E2E2E2E2E2E2E2E2E2E2E2E2E2E2E2E2E2E2E2E2E2E2E2E2E2E2E2E2E2E2E2E2E2E2E2E2E2E2E2E2E2E2E2E2E2E2E2E2E2E2E2
310
E2E2E2E2E2E2E2E2E2E2E2E2E2E2E2E2E2E2E2E2E2E2E2E2E2E2E2E2E2E2E2E2E2E2E2E2E2E2E2E2E2E2E2E2E2E2E2E2E2E2E2E2E2E2E2E2E2E2E2E2E2E2E2E2E2E2E2E2E2E2E2E2E2E2E2E2E2E2E2E2E2E2E2E2E2E2E2E2E2E2E2E2E2E2E2E2E2E2E2E2E2E2E2E2E2E2E2E2E2E2E2E2E2E2E2E2E2E2E2E2E2E2E2E2E2E2E2
310
E2E2E2E2E2E2E2E2E2E2E2E2E2E2E2E2E2E2E2E2E2E2E2E2E2E2E2E2E2E2E2E2E2E2E2E2E2E2E2E2E2E2E2E2E2E2E2E2E2E2E2E2E2E2E2E2E2E2E2E2E2E2E2E2E2E2E2E2E2E2E2E2E2E2E2E2E2E2E2E2E2E2E2E2E2E2E2E2E2E2E2E2E2E2E2E2E2E2E2E2E2E2E2E2E2E2E2E2E2E2E2E2E2E2E2E2E2E2E2E2E2E2E2E2E2E2E2
310
E2E2E2E2E2E2E2E2E2E2E2E2E2E2E2E2E2E2E2E2E2E2E2E2E2E2E2E2E2E2E2E2E2E2E2E2E2E2E2E2E2E2E2E2E2E2E2E2E2E2E2E2E2E2E2E2E2E2E2E2E2E2E2E2E2E2E2E2E2E2E2E2E2E2E2E2E2E2E2E2E2E2E2E2E2E2E2E2E2E2E2E2E2E2E2E2E2E2E2E2E2E2E2E2E2E2E2E2E2E2E2E2E2E2E2E2E2E2E2E2E2E2E2E2E2E2E2
310
E2E2E2E2E2E2E2E2E2E2E2E2E2E2E2E2E2E2E2E2E2E2E2E2E2E2E2E2E2E2E2E2E2E2E2E2E2E2E2E2E2E2E2E2E2E2E2E2E2E2E2E2E2E2E2E2E2E2E2E2E2E2E2E2E2E2E2E2E2E2E2E2E2E2E2E2E2E2E2E2E2E2E2E2E2E2E2E2E2E2E2E2E2E2E2E2E2E2E2E2E2E2E2E2E2E2E2E2E2E2E2E2E2E2E2E2E2E2E2E2E2E2E2E2E2E2E2
310
E2E2E2E2E2E2E2E2E2E2E2E2E2E2E2E2E2E2E2E2E2E2E2E2E2E2E2E2E2E2E2E2E2E2E2E2E2E2E2E2E2E2E2E2E2E2E2E2E2E2E2E2E2E2E2E2E2E2E2E2E2E2E2E2E2E2E2E2E2E2E2E2E2E2E2E2E2E2E2E2E2E2E2E2E2E2E2E2E2E2E2E2E2E2E2E2E2E2E2E2E2E2E2E2E2E2E2E2E2E2E2E2E2E2E2E2E2E2E2E2E2E2E2E2E2E2E2
310
E2E2E2E2E2E2E2E2E2E2E2E2E2E2E2E2E2E2E2E2E2E2E2E2E2E2E2E2E2E2E2E2E2E2E2E2E2E2E2E2E2E2E2E2E2E2E2E2E2E2E2E2E2E2E2E2E2E2E2E2E2E2E2E2E2E2E2E2E2E2E2E2E2E2E2E2E2E2E2E2E2E2E2E2E2E2E2E2E2E2E2E2E2E2E2E2E2E2E2E2E2E2E2E2E2E2E2E2E2E2E2E2E2E2E2E2E2E2E2E2E2E2E2E2E2E2E2
310
E2E2E2E2E2E2E2E2E2E2E2E2E2E2E2E2E2E2E2E2E2E2E2E2E2E2E2E2E2E2E2E2E2E2E2E2E2E2E2E2E2E2E2E2E2E2E2E2E2E2E2E2E2E2E2E2E2E2E2E2E2E2E2E2E2E2E2E2E2E2E2E2E2E2E2E2E2E2E2E2E2E2E2E2E2E2E2E2E2E2E2E2E2E2E2E2E2E2E2E2E2E2E2E2E2E2E2E2E2E2E2E2E2E2E2E2E2E2E2E2E2E2E2E2E2E2E2
310
E2E2E2E2E2E2E2E2E2E2E2E2E2E2E2E2E2E2E2E2E2E2E2E2E2E2E2E2E2E2E2E2E2E2E2E2E2E2E2E2E2E2E2E2E2E2E2E2E2E2E2E2E2E2E2E2E2E2E2E2E2E2E2E2E2E2E2E2E2E2E2E2E2E2E2E2E2E2E2E2E2E2E2E2E2E2E2E2E2E2E2E2E2E2E2E2E2E2E2E2E2E2E2E2E2E2E2E2E2E2E2E2E2E2E2E2E2E2E2E2E2E2E2E2E2E2E2
310
E2E2E2E2E2E2E2E2E2E2E2E2E2E2E2E2E2E2E2E2E2E2E2E2E2E2E2E2E2E2E2E2E2E2E2E2E2E2E2E2E2E2E2E2E2E2E2E2E2E2E2E2E2E2E2E2E2E2E2E2E2E2E2E2E2E2E2E2E2E2E2E2E2E2E2E2E2E2E2E2E2E2E2E2E2E2E2E2E2E2E2E2E2E2E2E2E2E2E2E2E2E2E2E2E2E2E2E2E2E2E2E2E2E2E2E2E2E2E2E2E2E2E2E2E2E2E2
310
E2E2E2E2E2E2E2E2E2E2E2E2E2E2E2E2E2E2E2E2E2E2E2E2E2E2E2E2E2E2E2E2E2E2E2E2E2E2E2E2E2E2E2E2E2E2E2E2E2E2E2E2E2E2E2E2E2E2E2E2E2E2E2E2E2E2E2E2E2E2E2E2E2E2E2E2E2E2E2E2E2E2E2E2E2E2E2E2E2E2E2E2E2E2E2E2E2E2E2E2E2E2E2E2E2E2E2E2E2E2E2E2E2E2E2E2E2E2E2E2E2E2E2E2E2E2E2
310
E2E2E2E2E2E2E2E2E2E2E2E2E2E2E2E2E2E2E2E2E2E2E2E2E2E2E2E2E2E2E2E2E2E2E2E2E2E2E2E2E2E2E2E2E2E2E2E2E2E2E2E2E2E2E2E2E2E2E2E2E2E2E2E2E2E2E2E2E2E2E2E2E2E2E2E2E2E2E2E2E2E2E2E2E2E2E2E2E2E2E2E2E2E2E2E2E2E2E2E2E2E2E2E2E2E2E2E2E2E2E2E2E2E2E2E2E2E2E2E2E2E2E2E2E2E2E2
310
E2E2E2E2E2E2E2E2E2E2E2E2E2E2E2E2E2E2E2E2E2E2E2E2E2E2E2E2E2E2E2E2E2E2E2E2E2E2E2E2E2E2E2E2E2E2E2E2E2E2E2E2E2E2E2E2E2E2E2E2E2E2E2E2E2E2E2E2E2E2E2E2E2E2E2E2E2E2E2E2E2E2E2E2E2E2E2E2E2E2E2E2E2E2E2E2E2E2E2E2E2E2E2E2E2E2E2E2E2E2E2E2E2E2E2E2E2E2E2E2E2E2E2E2E2E2E2
310
E2E2E2E2E2E2E2E2E2E2E2E2E2E2E2E2E2E2E2E2E2E2E2E2E2E2E2E2E2E2E2E2E2E2E2E2E2E2E2E2E2E2E2E2E2E2E2E2E2E2E2E2E2E2E2E2E2E2E2E2E2E2E2E2E2E2E2E2E2E2E2E2E2E2E2E2E2E2E2E2E2E2E2E2E2E2E2E2E2E2E2E2E2E2E2E2E2E2E2E2E2E2E2E2E2E2E2E2E2E2E2E2E2E2E2E2E2E2E2E2E2E2E2E2E2E2E2
310
E2E2E2E2E2E2E2E2E2E2E2E2E2E2E2E2E2E2E2E2E2E2E2E2E2E2E2E2E2E2E2E2E2E2E2E2E2E2E2E2E2E2E2E2E2E2E2E2E2E2E2E2E2E2E2E2E2E2E2E2E2E2E2E2E2E2E2E2E2E2E2E2E2E2E2E2E2E2E2E2E2E2E2E2E2E2E2E2E2E2E2E2E2E2E2E2E2E2E2E2E2E2E2E2E2E2E2E2E2E2E2E2E2E2E2E2E2E2E2E2E2E2E2E2E2E2E2
310
E2E2E2E2E2E2E2E2E2E2E2E2E2E2E2E2E2E2E2E2E2E2E2E2E2E2E2E2E2E2E2E2E2E2E2E2E2E2E2E2E2E2E2E2E2E2E2E2E2E2E2E2E2E2E2E2E2E2E2E2E2E2E2E2E2E2E2E2E2E2E2E2E2E2E2E2E2E2E2E2E2E2E2E2E2E2E2E2E2E2E2E2E2E2E2E2E2E2E2E2E2E2E2E2E2E2E2E2E2E2E2E2E2E2E2E2E2E2E2E2E2E2E2E2E2E2E2
310
E2E2E2E2E2E2E2E2E2E2E2E2E2E2E2E2E2E2E2E2E2E2E2E2E2E2E2E2E2E2E2E2E2E2E2E2E2E2E2E2E2E2E2E2E2E2E2E2E2E2E2E2E2E2E2E2E2E2E2E2E2E2E2E2E2E2E2E2E2E2E2E2E2E2E2E2E2E2E2E2E2E2E2E2E2E2E2E2E2E2E2E2E2E2E2E2E2E2E2E2E2E2E2E2E2E2E2E2E2E2E2E2E2E2E2E2E2E2E2E2E2E2E2E2E2E2E2
310
E2E2E2E2E2E2E2E2E2E2E2E2E2E2E2E2E2E2E2E2E2E2E2E2E2E2E2E2E2E2E2E2E2E2E2E2E2E2E2E2E2E2E2E2E2E2E2E2E2E2E2E2E2E2E2E2E2E2E2E2E2E2E2E2E2E2E2E2E2E2E2E2E2E2E2E2E2E2E2E2E2E2E2E2E2E2E2E2E2E2E2E2E2E2E2E2E2E2E2E2E2E2E2E2E2E2E2E2E2E2E2E2E2E2E2E2E2E2E2E2E2E2E2E2E2E2E2
310
E2E2E2E2E2E2E2E2E2E2E2E2E2E2E2E2E2E2E2E2E2E2E2E2E2E2E2E2E2E2E2E2E2E2E2E2E2E2E2E2E2E2E2E2E2E2E2E2E2E2E2E2E2E2E2E2E2E2E2E2E2E2E2E2E2E2E2E2E2E2E2E2E2E2E2E2E2E2E2E2E2E2E2E2E2E2E2E2E2E2E2E2E2E2E2E2E2E2E2E2E2E2E2E2E2E2E2E2E2E2E2E2E2E2E2E2E2E2E2E2E2E2E2E2E2E2E2
310
E2E2E2E2E2E2E2E2E2E2E2E2E2E2E2E2E2E2E2E2E2E2E2E2E2E2E2E2E2E2E2E2E2E2E2E2E2E2E2E2E2E2E2E2E2E2E2E2E2E2E2E2E2E2E2E2E2E2E2E2E2E2E2E2E2E2E2E2E2E2E2E2E2E2E2E2E2E2E2E2E2E2E2E2E2E2E2E2E2E2E2E2E2E2E2E2E2E2E2E2E2E2E2E2E2E2E2E2E2E2E2E2E2E2E2E2E2E2E2E2E2E2E2E2E2E2E2
310
E2E2E2E2E2E2E2E2E2E2E2E2E2E2E2E2E2E2E2E2E2E2E2E2E2E2E2E2E2E2E2E2E2E2E2E2E2E2E2E2E2E2E2E2E2E2E2E2E2E2E2E2E2E2E2E2E2E2E2E2E2E2E2E2E2E2E2E2E2E2E2E2E2E2E2E2E2E2E2E2E2E2E2E2E2E2E2E2E2E2E2E2E2E2E2E2E2E2E2E2E2E2E2E2E2E2E2E2E2E2E2E2E2E2E2E2E2E2E2E2E2E2E2E2E2E2E2
310
E2E2E2E2E2E2E2E2E2E2E2E2E2E2E2E2E2E2E2E2E2E2E2E2E2E2E2E2E2E2E2E2E2E2E2E2E2E2E2E2E2E2E2E2E2E2E2E2E2E2E2E2E2E2E2E2E2E2E2E2E2E2E2E2E2E2E2E2E2E2E2E2E2E2E2E2E2E2E2E2E2E2E2E2E2E2E2E2E2E2E2E2E2E2E2E2E2E2E2E2E2E2E2E2E2E2E2E2E2E2E2E2E2E2E2E2E2E2E2E2E2E2E2E2E2E2E2
310
E2E2E2E2E2E2E2E2E2E2E2E2E2E2E2E2E2E2E2E2E2E2E2E2E2E2E2E2E2E2E2E2E2E2E2E2E2E2E2E2E2E2E2E2E2E2E2E2E2E2E2E2E2E2E2E2E2E2E2E2E2E2E2E2E2E2E2E2E2E2E2E2E2E2E2E2E2E2E2E2E2E2E2E2E2E2E2E2E2E2E2E2E2E2E2E2E2E2E2E2E2E2E2E2E2E2E2E2E2E2E2E2E2E2E2E2E2E2E2E2E2E2E2E2E2E2E2
310
E2E2E2E2E2E2E2E2E2E2E2E2E2E2E2E2E2E2E2E2E2E2E2E2E2E2E2E2E2E2E2E2E2E2E2E2E2E2E2E2E2E2E2E2E2E2E2E2E2E2E2E2E2E2E2E2E2E2E2E2E2E2E2E2E2E2E2E2E2E2E2E2E2E2E2E2E2E2E2E2E2E2E2E2E2E2E2E2E2E2E2E2E2E2E2E2E2E2E2E2E2E2E2E2E2E2E2E2E2E2E2E2E2E2E2E2E2E2E2E2E2E2E2E2E2E2E2
310
E2E2E2E2E2E2E2E2E2E2E2E2E2E2E2E2E2E2E2E2E2E2E2E2E2E2E2E2E2E2E2E2E2E2E2E2E2E2E2E2E2E2E2E2E2E2E2E2E2E2E2E2E2E2E2E2E2E2E2E2E2E2E2E2E2E2E2E2E2E2E2E2E2E2E2E2E2E2E2E2E2E2E2E2E2E2E2E2E2E2E2E2E2E2E2E2E2E2E2E2E2E2E2E2E2E2E2E2E2E2E2E2E2E2E2E2E2E2E2E2E2E2E2E2E2E2E2
310
E2E2E2E2E2E2E2E2E2E2E2E2E2E2E2E2E2E2E2E2E2E2E2E2E2E2E2E2E2E2E2E2E2E2E2E2E2E2E2E2E2E2E2E2E2E2E2E2E2E2E2E2E2E2E2E2E2E2E2E2E2E2E2E2E2E2E2E2E2E2E2E2E2E2E2E2E2E2E2E2E2E2E2E2E2E2E2E2E2E2E2E2E2E2E2E2E2E2E2E2E2E2E2E2E2E2E2E2E2E2E2E2E2E2E2E2E2E2E2E2E2E2E2E2E2E2E2
310
E2E2E2E2E2E2E2E2E2E2E2E2E2E2E2E2E2E2E2E2E2E2E2E2E2E2E2E2E2E2E2E2E2E2E2E2E2E2E2E2E2E2E2E2E2E2E2E2E2E2E2E2E2E2E2E2E2E2E2E2E2E2E2E2E2E2E2E2E2E2E2E2E2E2E2E2E2E2E2E2E2E2E2E2E2E2E2E2E2E2E2E2E2E2E2E2E2E2E2E2E2E2E2E2E2E2E2E2E2E2E2E2E2E2E2E2E2E2E2E2E2E2E2E2E2E2E2
310
E2E2E2E2E2E2E2E2E2E2E2E2E2E2E2E2E2E2E2E2E2E2E2E2E2E2E2E2E2E2E2E2E2E2E2E2E2E2E2E2E2E2E2E2E2E2E2E2E2E2E2E2E2E2E2E2E2E2E2E2E2E2E2E2E2E2E2E2E2E2E2E2E2E2E2E2E2E2E2E2E2E2E2E2E2E2E2E2E2E2E2E2E2E2E2E2E2E2E2E2E2E2E2E2E2E2E2E2E2E2E2E2E2E2E2E2E2E2E2E2E2E2E2E2E2E2E2
310
E2E2E2E2E2E2E2E2E2E2E2E2E2E2E2E2E2E2E2E2E2E2E2E2E2E2E2E2E2E2E2E2E2E2E2E2E2E2E2E2E2E2E2E2E2E2E2E2E2E2E2E2E2E2E2E2E2E2E2E2E2E2E2E2E2E2E2E2E2E2E2E2E2E2E2E2E2E2E2E2E2E2E2E2E2E2E2E2E2E2E2E2E2E2E2E2E2E2E2E2E2E2E2E2E2E2E2E2E2E2E2E2E2E2E2E2E2E2E2E2E2E2E2E2E2E2E2
310
E2E2E2E2E2E2E2E2E2E2E2E2E2E2E2E2E2E2E2E2E2E2E2E2E2E2E2E2E2E2E2E2E2E2E2E2E2E2E2E2E2E2E2E2E2E2E2E2E2E2E2E2E2E2E2E2E2E2E2E2E2E2E2E2E2E2E2E2E2E2E2E2E2E2E2E2E2E2E2E2E2E2E2E2E2E2E2E2E2E2E2E2E2E2E2E2E2E2E2E2E2E2E2E2E2E2E2E2E2E2E2E2E2E2E2E2E2E2E2E2E2E2E2E2E2E2E2
310
E2E2E2E2E2E2E2E2E2E2E2E2E2E2E2E2E2E2E2E2E2E2E2E2E2E2E2E2E2E2E2E2E2E2E2E2E2E2E2E2E2E2E2E2E2E2E2E2E2E2E2E2E2E2E2E2E2E2E2E2E2E2E2E2E2E2E2E2E2E2E2E2E2E2E2E2E2E2E2E2E2E2E2E2E2E2E2E2E2E2E2E2E2E2E2E2E2E2E2E2E2E2E2E2E2E2E2E2E2E2E2E2E2E2E2E2E2E2E2E2E2E2E2E2E2E2E2
310
E2E2E2E2E2E2E2E2E2E2E2E2E2E2E2E2E2E2E2E2E2E2E2E2E2E2E2E2E2E2E2E2E2E2E2E2E2E2E2E2E2E2E2E2E2E2E2E2E2E2E2E2E2E2E2E2E2E2E2E2E2E2E2E2E2E2E2E2E2E2E2E2E2E2E2E2E2E2E2E2E2E2E2E2E2E2E2E2E2E2E2E2E2E2E2E2E2E2E2E2E2E2E2E2E2E2E2E2E2E2E2E2E2E2E2E2E2E2E2E2E2E2E2E2E2E2E2
310
E2E2E2E2E2E2E2E2E2E2E2E2E2E2E2E2E2E2E2E2E2E2E2E2E2E2E2E2E2E2E2E2E2E2E2E2E2E2E2E2E2E2E2E2E2E2E2E2E2E2E2E2E2E2E2E2E2E2E2E2E2E2E2E2E2E2E2E2E2E2E2E2E2E2E2E2E2E2E2E2E2E2E2E2E2E2E2E2E2E2E2E2E2E2E2E2E2E2E2E2E2E2E2E2E2E2E2E2E2E2E2E2E2E2E2E2E2E2E2E2E2E2E2E2E2E2E2
310
E2E2E2E2E2E2E2E2E2E2E2E2E2E2E2E2E2E2E2E2E2E2E2E2E2E2E2E2E2E2E2E2E2E2E2E2E2E2E2E2E2E2E2E2E2E2E2E2E2E2E2E2E2E2E2E2E2E2E2E2E2E2E2E2E2E2E2E2E2E2E2E2E2E2E2E2E2E2E2E2E2E2E2E2E2E2E2E2E2E2E2E2E2E2E2E2E2E2E2E2E2E2E2E2E2E2E2E2E2E2E2E2E2E2E2E2E2E2E2E2E2E2E2E2E2E2E2
310
E2E2E2E2E2E2E2E2E2E2E2E2E2E2E2E2E2E2E2E2E2E2E2E2E2E2E2E2E2E2E2E2E2E2E2E2E2E2E2E2E2E2E2E2E2E2E2E2E2E2E2E2E2E2E2E2E2E2E2E2E2E2E2E2E2E2E2E2E2E2E2E2E2E2E2E2E2E2E2E2E2E2E2E2E2E2E2E2E2E2E2E2E2E2E2E2E2E2E2E2E2E2E2E2E2E2E2E2E2E2E2E2E2E2E2E2E2E2E2E2E2E2E2E2E2E2E2
310
E2E2E2E2E2E2E2E2E2E2E2E2E2E2E2E2E2E2E2E2E2E2E2E2E2E2E2E2E2E2E2E2E2E2E2E2E2E2E2E2E2E2E2E2E2E2E2E2E2E2E2E2E2E2E2E2E2E2E2E2E2E2E2E2E2E2E2E2E2E2E2E2E2E2E2E2E2E2E2E2E2E2E2E2E2E2E2E2E2E2E2E2E2E2E2E2E2E2E2E2E2E2E2E2E2E2E2E2E2E2E2E2E2E2E2E2E2E2E2E2E2E2E2E2E2E2E2
310
E2E2E2E2E2E2E2E2E2E2E2E2E2E2E2E2E2E2E2E2E2E2E2E2E2E2E2E2E2E2E2E2E2E2E2E2E2E2E2E2E2E2E2E2E2E2E2E2E2E2E2E2E2E2E2E2E2E2E2E2E2E2E2E2E2E2E2E2E2E2E2E2E2E2E2E2E2E2E2E2E2E2E2E2E2E2E2E2E2E2E2E2E2E2E2E2E2E2E2E2E2E2E2E2E2E2E2E2E2E2E2E2E2E2E2E2E2E2E2E2E2E2E2E2E2E2E2
310
E2E2E2E2E2E2E2E2E2E2E2E2E2E2E2E2E2E2E2E2E2E2E2E2E2E2E2E2E2E2E2E2E2E2E2E2E2E2E2E2E2E2E2E2E2E2E2E2E2E2E2E2E2E2E2E2E2E2E2E2E2E2E2E2E2E2E2E2E2E2E2E2E2E2E2E2E2E2E2E2E2E2E2E2E2E2E2E2E2E2E2E2E2E2E2E2E2E2E2E2E2E2E2E2E2E2E2E2E2E2E2E2E2E2E2E2E2E2E2E2E2E2E2E2E2E2E2
310
E2E2E2E2E2E2E2E2E2E2E2E2E2E2E2E2E2E2E2E2E2E2E2E2E2E2E2E2E2E2E2E2E2E2E2E2E2E2E2E2E2E2E2E2E2E2E2E2E2E2E2E2E2E2E2E2E2E2E2E2E2E2E2E2E2E2E2E2E2E2E2E2E2E2E2E2E2E2E2E2E2E2E2E2E2E2E2E2E2E2E2E2E2E2E2E2E2E2E2E2E2E2E2E2E2E2E2E2E2E2E2E2E2E2E2E2E2E2E2E2E2E2E2E2E2E2E2
310
E2E2E2E2E2E2E2E2E2E2E2E2E2E2E2E2E2E2E2E2E2E2E2E2E2E2E2E2E2E2E2E2E2E2E2E2E2E2E2E2E2E2E2E2E2E2E2E2E2E2E2E2E2E2E2E2E2E2E2E2E2E2E2E2E2E2E2E2E2E2E2E2E2E2E2E2E2E2E2E2E2E2E2E2E2E2E2E2E2E2E2E2E2E2E2E2E2E2E2E2E2E2E2E2E2E2E2E2E2E2E2E2E2E2E2E2E2E2E2E2E2E2E2E2E2E2E2
310
E2E2E2E2E2E2E2E2E2E2E2E2E2E2E2E2E2E2E2E2E2E2E2E2E2E2E2E2E2E2E2E2E2E2E2E2E2E2E2E2E2E2E2E2E2E2E2E2E2E2E2E2E2E2E2E2E2E2E2E2E2E2E2E2E2E2E2E2E2E2E2E2E2E2E2E2E2E2E2E2E2E2E2E2E2E2E2E2E2E2E2E2E2E2E2E2E2E2E2E2E2E2E2E2E2E2E2E2E2E2E2E2E2E2E2E2E2E2E2E2E2E2E2E2E2E2E2
310
E2E2E2E2E2E2E2E2E2E2E2E2E2E2E2E2E2E2E2E2E2E2E2E2E2E2E2E2E2E2E2E2E2E2E2E2E2E2E2E2E2E2E2E2E2E2E2E2E2E2E2E2E2E2E2E2E2E2E2E2E2E2E2E2E2E2E2E2E2E2E2E2E2E2E2E2E2E2E2E2E2E2E2E2E2E2E2E2E2E2E2E2E2E2E2E2E2E2E2E2E2E2E2E2E2E2E2E2E2E2E2E2E2E2E2E2E2E2E2E2E2E2E2E2E2E2E2
310
E2E2E2E2E2E2E2E2E2E2E2E2E2E2E2E2E2E2E2E2E2E2E2E2E2E2E2E2E2E2E2E2E2E2E2E2E2E2E2E2E2E2E2E2E2E2E2E2E2E2E2E2E2E2E2E2E2E2E2E2E2E2E2E2E2E2E2E2E2E2E2E2E2E2E2E2E2E2E2E2E2E2E2E2E2E2E2E2E2E2E2E2E2E2E2E2E2E2E2E2E2E2E2E2E2E2E2E2E2E2E2E2E2E2E2E2E2E2E2E2E2E2E2E2E2E2E2
310
E2E2E2E2E2E2E2E2E2E2E2E2E2E2E2E2E2E2E2E2E2E2E2E2E2E2E2E2E2E2E2E2E2E2E2E2E2E2E2E2E2E2E2E2E2E2E2E2E2E2E2E2E2E2E2E2E2E2E2E2E2E2E2E2E2E2E2E2E2E2E2E2E2E2E2E2E2E2E2E2E2E2E2E2E2E2E2E2E2E2E2E2E2E2E2E2E2E2E2E2E2E2E2E2E2E2E2E2E2E2E2E2E2E2E2E2E2E2E2E2E2E2E2E2E2E2E2
310
E2E2E2E2E2E2E2E2E2E2E2E2E2E2E2E2E2E2E2E2E2E2E2E2E2E2E2E2E2E2E2E2E2E2E2E2E2E2E2E2E2E2E2E2E2E2E2E2E2E2E2E2E2E2E2E2E2E2E2E2E2E2E2E2E2E2E2E2E2E2E2E2E2E2E2E2E2E2E2E2E2E2E2E2E2E2E2E2E2E2E2E2E2E2E2E2E2E2E2E2E2E2E2E2E2E2E2E2E2E2E2E2E2E2E2E2E2E2E2E2E2E2E2E2E2E2E2
310
E2E2E2E2E2E2E2E2E2E2E2E2E2E2E2E2E2E2E2E2E2E2E2E2E2E2E2E2E2E2E2E2E2E2E2E2E2E2E2E2E2E2E2E2E2E2E2E2E2E2E2E2E2E2E2E2E2E2E2E2E2E2E2E2E2E2E2E2E2E2E2E2E2E2E2E2E2E2E2E2E2E2E2E2E2E2E2E2E2E2E2E2E2E2E2E2E2E2E2E2E2E2E2E2E2E2E2E2E2E2E2E2E2E2E2E2E2E2E2E2E2E2E2E2E2E2E2
310
E2E2E2E2E2E2E2E2E2E2E2E2E2E2E2E2E2E2E2E2E2E2E2E2E2E2E2E2E2E2E2E2E2E2E2E2E2E2E2E2E2E2E2E2E2E2E2E2E2E2E2E2E2E2E2E2E2E2E2E2E2E2E2E2E2E2E2E2E2E2E2E2E2E2E2E2E2E2E2E2E2E2E2E2E2E2E2E2E2E2E2E2E2E2E2E2E2E2E2E2E2E2E2E2E2E2E2E2E2E2E2E2E2E2E2E2E2E2E2E2E2E2E2E2E2E2E2
310
E2E2E2E2E2E2E2E2E2E2E2E2E2E2E2E2E2E2E2E2E2E2E2E2E2E2E2E2E2E2E2E2E2E2E2E2E2E2E2E2E2E2E2E2E2E2E2E2E2E2E2E2E2E2E2E2E2E2E2E2E2E2E2E2E2E2E2E2E2E2E2E2E2E2E2E2E2E2E2E2E2E2E2E2E2E2E2E2E2E2E2E2E2E2E2E2E2E2E2E2E2E2E2E2E2E2E2E2E2E2E2E2E2E2E2E2E2E2E2E2E2E2E2E2E2E2E2
310
E2E2E2E2E2E2E2E2E2E2E2E2E2E2E2E2E2E2E2E2E2E2E2E2E2E2E2E2E2E2E2E2E2E2E2E2E2E2E2E2E2E2E2E2E2E2E2E2E2E2E2E2E2E2E2E2E2E2E2E2E2E2E2E2E2E2E2E2E2E2E2E2E2E2E2E2E2E2E2E2E2E2E2E2E2E2E2E2E2E2E2E2E2E2E2E2E2E2E2E2E2E2E2E2E2E2E2E2E2E2E2E2E2E2E2E2E2E2E2E2E2E2E2E2E2E2E2
310
E2E2E2E2E2E2E2E2E2E2E2E2E2E2E2E2E2E2E2E2E2E2E2E2E2E2E2E2E2E2E2E2E2E2E2E2E2E2E2E2E2E2E2E2E2E2E2E2E2E2E2E2E2E2E2E2E2E2E2E2E2E2E2E2E2E2E2E2E2E2E2E2E2E2E2E2E2E2E2E2E2E2E2E2E2E2E2E2E2E2E2E2E2E2E2E2E2E2E2E2E2E2E2E2E2E2E2E2E2E2E2E2E2E2E2E2E2E2E2E2E2E2E2E2E2E2E2
310
E2E2E2E2E2E2E2E2E2E2E2E2E2E2E2E2E2E2E2E2E2E2E2E2E2E2E2E2E2E2E2E2E2E2E2E2E2E2E2E2E2E2E2E2E2E2E2E2E2E2E2E2E2E2E2E2E2E2E2E2E2E2E2E2E2E2E2E2E2E2E2E2E2E2E2E2E2E2E2E2E2E2E2E2E2E2E2E2E2E2E2E2E2E2E2E2E2E2E2E2E2E2E2E2E2E2E2E2E2E2E2E2E2E2E2E2E2E2E2E2E2E2E2E2E2E2E2
310
E2E2E2E2E2E2E2E2E2E2E2E2E2E2E2E2E2E2E2E2E2E2E2E2E2E2E2E2E2E2E2E2E2E2E2E2E2E2E2E2E2E2E2E2E2E2E2E2E2E2E2E2E2E2E2E2E2E2E2E2E2E2E2E2E2E2E2E2E2E2E2E2E2E2E2E2E2E2E2E2E2E2E2E2E2E2E2E2E2E2E2E2E2E2E2E2E2E2E2E2E2E2E2E2E2E2E2E2E2E2E2E2E2E2E2E2E2E2E2E2E2E2E2E2E2E2E2
310
E2E2E2E2E2E2E2E2E2E2E2E2E2E2E2E2E2E2E2E2E2E2E2E2E2E2E2E2E2E2E2E2E2E2E2E2E2E2E2E2E2E2E2E2E2E2E2E2E2E2E2E2E2E2E2E2E2E2E2E2E2E2E2E2E2E2E2E2E2E2E2E2E2E2E2E2E2E2E2E2E2E2E2E2E2E2E2E2E2E2E2E2E2E2E2E2E2E2E2E2E2E2E2E2E2E2E2E2E2E2E2E2E2E2E2E2E2E2E2E2E2E2E2E2E2E2E2
310
E2E2E2E2E2E2E2E2E2E2E2E2E2E2E2E2E2E2E2E2E2E2E2E2E2E2E2E2E2E2E2E2E2E2E2E2E2E2E2E2E2E2E2E2E2E2E2E2E2E2E2E2E2E2E2E2E2E2E2E2E2E2E2E2E2E2E2E2E2E2E2E2E2E2E2E2E2E2E2E2E2E2E2E2E2E2E2E2E2E2E2E2E2E2E2E2E2E2E2E2E2E2E2E2E2E2E2E2E2E2E2E2E2E2E2E2E2E2E2E2E2E2E2E2E2E2E2
310
E2E2E2E2E2E2E2E2E2E2E2E2E2E2E2E2E2E2E2E2E2E2E2E2E2E2E2E2E2E2E2E2E2E2E2E2E2E2E2E2E2E2E2E2E2E2E2E2E2E2E2E2E2E2E2E2E2E2E2E2E2E2E2E2E2E2E2E2E2E2E2E2E2E2E2E2E2E2E2E2E2E2E2E2E2E2E2E2E2E2E2E2E2E2E2E2E2E2E2E2E2E2E2E2E2E2E2E2E2E2E2E2E2E2E2E2E2E2E2E2E2E2E2E2E2E2E2
310
E2E2E2E2E2E2E2E2E2E2E2E2E2E2E2E2E2E2E2E2E2E2E2E2E2E2E2E2E2E2E2E2E2E2E2E2E2E2E2E2E2E2E2E2E2E2E2E2E2E2E2E2E2E2E2E2E2E2E2E2E2E2E2E2E2E2E2E2E2E2E2E2E2E2E2E2E2E2E2E2E2E2E2E2E2E2E2E2E2E2E2E2E2E2E2E2E2E2E2E2E2E2E2E2E2E2E2E2E2E2E2E2E2E2E2E2E2E2E2E2E2E2E2E2E2E2E2
310
E2E2E2E2E2E2E2E2E2E2E2E2E2E2E2E2E2E2E2E2E2E2E2E2E2E2E2E2E2E2E2E2E2E2E2E2E2E2E2E2E2E2E2E2E2E2E2E2E2E2E2E2E2E2E2E2E2E2E2E2E2E2E2E2E2E2E2E2E2E2E2E2E2E2E2E2E2E2E2E2E2E2E2E2E2E2E2E2E2E2E2E2E2E2E2E2E2E2E2E2E2E2E2E2E2E2E2E2E2E2E2E2E2E2E2E2E2E2E2E2E2E2E2E2E2E2E2
310
E2E2E2E2E2E2E2E2E2E2E2E2E2E2E2E2E2E2E2E2E2E2E2E2E2E2E2E2E2E2E2E2E2E2E2E2E2E2E2E2E2E2E2E2E2E2E2E2E2E2E2E2E2E2E2E2E2E2E2E2E2E2E2E2E2E2E2E2E2E2E2E2E2E2E2E2E2E2E2E2E2E2E2E2E2E2E2E2E2E2E2E2E2E2E2E2E2E2E2E2E2E2E2E2E2E2E2E2E2E2E2E2E2E2E2E2E2E2E2E2E2E2E2E2E2E2E2
310
E2E2E2E2E2E2E2E2E2E2E2E2E2E2E2E2E2E2E2E2E2E2E2E2E2E2E2E2E2E2E2E2E2E2E2E2E2E2E2E2E2E2E2E2E2E2E2E2E2E2E2E2E2E2E2E2E2E2E2E2E2E2E2E2E2E2E2E2E2E2E2E2E2E2E2E2E2E2E2E2E2E2E2E2E2E2E2E2E2E2E2E2E2E2E2E2E2E2E2E2E2E2E2E2E2E2E2E2E2E2E2E2E2E2E2E2E2E2E2E2E2E2E2E2E2E2E2
310
E2E2E2E2E2E2E2E2E2E2E2E2E2E2E2E2E2E2E2E2E2E2E2E2E2E2E2E2E2E2E2E2E2E2E2E2E2E2E2E2E2E2E2E2E2E2E2E2E2E2E2E2E2E2E2E2E2E2E2E2E2E2E2E2E2E2E2E2E2E2E2E2E2E2E2E2E2E2E2E2E2E2E2E2E2E2E2E2E2E2E2E2E2E2E2E2E2E2E2E2E2E2E2E2E2E2E2E2E2E2E2E2E2E2E2E2E2E2E2E2E2E2E2E2E2E2E2
310
E2E2E2E2E2E2E2E2E2E2E2E2E2E2E2E2E2E2E2E2E2E2E2E2E2E2E2E2E2E2E2E2E2E2E2E2E2E2E2E2E2E2E2E2E2E2E2E2E2E2E2E2E2E2E2E2E2E2E2E2E2E2E2E2E2E2E2E2E2E2E2E2E2E2E2E2E2E2E2E2E2E2E2E2E2E2E2E2E2E2E2E2E2E2E2E2E2E2E2E2E2E2E2E2E2E2E2E2E2E2E2E2E2E2E2E2E2E2E2E2E2E2E2E2E2E2E2
310
E2E2E2E2E2E2E2E2E2E2E2E2E2E2E2E2E2E2E2E2E2E2E2E2E2E2E2E2E2E2E2E2E2E2E2E2E2E2E2E2E2E2E2E2E2E2E2E2E2E2E2E2E2E2E2E2E2E2E2E2E2E2E2E2E2E2E2E2E2E2E2E2E2E2E2E2E2E2E2E2E2E2E2E2E2E2E2E2E2E2E2E2E2E2E2E2E2E2E2E2E2E2E2E2E2E2E2E2E2E2E2E2E2E2E2E2E2E2E2E2E2E2E2E2E2E2E2
310
E2E2E2E2E2E2E2E2E2E2E2E2E2E2E2E2E2E2E2E2E2E2E2E2E2E2E2E2E2E2E2E2E2E2E2E2E2E2E2E2E2E2E2E2E2E2E2E2E2E2E2E2E2E2E2E2E2E2E2E2E2E2E2E2E2E2E2E2E2E2E2E2E2E2E2E2E2E2E2E2E2E2E2E2E2E2E2E2E2E2E2E2E2E2E2E2E2E2E2E2E2E2E2E2E2E2E2E2E2E2E2E2E2E2E2E2E2E2E2E2E2E2E2E2E2E2E2
310
E2E2E2E2E2E2E2E2E2E2E2E2E2E2E2E2E2E2E2E2E2E2E2E2E2E2E2E2E2E2E2E2E2E2E2E2E2E2E2E2E2E2E2E2E2E2E2E2E2E2E2E2E2E2E2E2E2E2E2E2E2E2E2E2E2E2E2E2E2E2E2E2E2E2E2E2E2E2E2E2E2E2E2E2E2E2E2E2E2E2E2E2E2E2E2E2E2E2E2E2E2E2E2E2E2E2E2E2E2E2E2E2E2E2E2E2E2E2E2E2E2E2E2E2E2E2E2
310
E2E2E2E2E2E2E2E2E2E2E2E2E2E2E2E2E2E2E2E2E2E2E2E2E2E2E2E2E2E2E2E2E2E2E2E2E2E2E2E2E2E2E2E2E2E2E2E2E2E2E2E2E2E2E2E2E2E2E2E2E2E2E2E2E2E2E2E2E2E2E2E2E2E2E2E2E2E2E2E2E2E2E2E2E2E2E2E2E2E2E2E2E2E2E2E2E2E2E2E2E2E2E2E2E2E2E2E2E2E2E2E2E2E2E2E2E2E2E2E2E2E2E2E2E2E2E2
310
E2E2E2E2E2E2E2E2E2E2E2E2E2E2E2E2E2E2E2E2E2E2E2E2E2E2E2E2E2E2E2E2E2E2E2E2E2E2E2E2E2E2E2E2E2E2E2E2E2E2E2E2E2E2E2E2E2E2E2E2E2E2E2E2E2E2E2E2E2E2E2E2E2E2E2E2E2E2E2E2E2E2E2E2E2E2E2E2E2E2E2E2E2E2E2E2E2E2E2E2E2E2E2E2E2E2E2E2E2E2E2E2E2E2E2E2E2E2E2E2E2E2E2E2E2E2E2
310
E2E2E2E2E2E2E2E2E2E2E2E2E2E2E2E2E2E2E2E2E2E2E2E2E2E2E2E2E2E2E2E2E2E2E2E2E2E2E2E2E2E2E2E2E2E2E2E2E2E2E2E2E2E2E2E2E2E2E2E2E2E2E2E2E2E2E2E2E2E2E2E2E2E2E2E2E2E2E2E2E2E2E2E2E2E2E2E2E2E2E2E2E2E2E2E2E2E2E2E2E2E2E2E2E2E2E2E2E2E2E2E2E2E2E2E2E2E2E2E2E2E2E2E2E2E2E2
310
E2E2E2E2E2E2E2E2E2E2E2E2E2E2E2E2E2E2E2E2E2E2E2E2E2E2E2E2E2E2E2E2E2E2E2E2E2E2E2E2E2E2E2E2E2E2E2E2E2E2E2E2E2E2E2E2E2E2E2E2E2E2E2E2E2E2E2E2E2E2E2E2E2E2E2E2E2E2E2E2E2E2E2E2E2E2E2E2E2E2E2E2E2E2E2E2E2E2E2E2E2E2E2E2E2E2E2E2E2E2E2E2E2E2E2E2E2E2E2E2E2E2E2E2E2E2E2
310
E2E2E2E2E2E2E2E2E2E2E2E2E2E2E2E2E2E2E2E2E2E2E2E2E2E2E2E2E2E2E2E2E2E2E2E2E2E2E2E2E2E2E2E2E2E2E2E2E2E2E2E2E2E2E2E2E2E2E2E2E2E2E2E2E2E2E2E2E2E2E2E2E2E2E2E2E2E2E2E2E2E2E2E2E2E2E2E2E2E2E2E2E2E2E2E2E2E2E2E2E2E2E2E2E2E2E2E2E2E2E2E2E2E2E2E2E2E2E2E2E2E2E2E2E2E2E2
310
E2E2E2E2E2E2E2E2E2E2E2E2E2E2E2E2E2E2E2E2E2E2E2E2E2E2E2E2E2E2E2E2E2E2E2E2E2E2E2E2E2E2E2E2E2E2E2E2E2E2E2E2E2E2E2E2E2E2E2E2E2E2E2E2E2E2E2E2E2E2E2E2E2E2E2E2E2E2E2E2E2E2E2E2E2E2E2E2E2E2E2E2E2E2E2E2E2E2E2E2E2E2E2E2E2E2E2E2E2E2E2E2E2E2E2E2E2E2E2E2E2E2E2E2E2E2E2
310
E2E2E2E2E2E2E2E2E2E2E2E2E2E2E2E2E2E2E2E2E2E2E2E2E2E2E2E2E2E2E2E2E2E2E2E2E2E2E2E2E2E2E2E2E2E2E2E2E2E2E2E2E2E2E2E2E2E2E2E2E2E2E2E2E2E2E2E2E2E2E2E2E2E2E2E2E2E2E2E2E2E2E2E2E2E2E2E2E2E2E2E2E2E2E2E2E2E2E2E2E2E2E2E2E2E2E2E2E2E2E2E2E2E2E2E2E2E2E2E2E2E2E2E2E2E2E2
310
E2E2E2E2E2E2E2E2E2E2E2E2E2E2E2E2E2E2E2E2E2E2E2E2E2E2E2E2E2E2E2E2E2E2E2E2E2E2E2E2E2E2E2E2E2E2E2E2E2E2E2E2E2E2E2E2E2E2E2E2E2E2E2E2E2E2E2E2E2E2E2E2E2E2E2E2E2E2E2E2E2E2E2E2E2E2E2E2E2E2E2E2E2E2E2E2E2E2E2E2E2E2E2E2E2E2E2E2E2E2E2E2E2E2E2E2E2E2E2E2E2E2E2E2E2E2E2
310
E2E2E2E2E2E2E2E2E2E2E2E2E2E2E2E2E2E2E2E2E2E2E2E2E2E2E2E2E2E2E2E2E2E2E2E2E2E2E2E2E2E2E2E2E2E2E2E2E2E2E2E2E2E2E2E2E2E2E2E2E2E2E2E2E2E2E2E2E2E2E2E2E2E2E2E2E2E2E2E2E2E2E2E2E2E2E2E2E2E2E2E2E2E2E2E2E2E2E2E2E2E2E2E2E2E2E2E2E2E2E2E2E2E2E2E2E2E2E2E2E2E2E2E2E2E2E2
310
E2E2E2E2E2E2E2E2E2E2E2E2E2E2E2E2E2E2E2E2E2E2E2E2E2E2E2E2E2E2E2E2E2E2E2E2E2E2E2E2E2E2E2E2E2E2E2E2E2E2E2E2E2E2E2E2E2E2E2E2E2E2E2E2E2E2E2E2E2E2E2E2E2E2E2E2E2E2E2E2E2E2E2E2E2E2E2E2E2E2E2E2E2E2E2E2E2E2E2E2E2E2E2E2E2E2E2E2E2E2E2E2E2E2E2E2E2E2E2E2E2E2E2E2E2E2E2
310
E2E2E2E2E2E2E2E2E2E2E2E2E2E2E2E2E2E2E2E2E2E2E2E2E2E2E2E2E2E2E2E2E2E2E2E2E2E2E2E2E2E2E2E2E2E2E2E2E2E2E2E2E2E2E2E2E2E2E2E2E2E2E2E2E2E2E2E2E2E2E2E2E2E2E2E2E2E2E2E2E2E2E2E2E2E2E2E2E2E2E2E2E2E2E2E2E2E2E2E2E2E2E2E2E2E2E2E2E2E2E2E2E2E2E2E2E2E2E2E2E2E2E2E2E2E2E2
310
E2E2E2E2E2E2E2E2E2E2E2E2E2E2E2E2E2E2E2E2E2E2E2E2E2E2E2E2E2E2E2E2E2E2E2E2E2E2E2E2E2E2E2E2E2E2E2E2E2E2E2E2E2E2E2E2E2E2E2E2E2E2E2E2E2E2E2E2E2E2E2E2E2E2E2E2E2E2E2E2E2E2E2E2E2E2E2E2E2E2E2E2E2E2E2E2E2E2E2E2E2E2E2E2E2E2E2E2E2E2E2E2E2E2E2E2E2E2E2E2E2E2E2E2E2E2E2
310
E2E2E2E2E2E2E2E2E2E2E2E2E2E2E2E2E2E2E2E2E2E2E2E2E2E2E2E2E2E2E2E2E2E2E2E2E2E2E2E2E2E2E2E2E2E2E2E2E2E2E2E2E2E2E2E2E2E2E2E2E2E2E2E2E2E2E2E2E2E2E2E2E2E2E2E2E2E2E2E2E2E2E2E2E2E2E2E2E2E2E2E2E2E2E2E2E2E2E2E2E2E2E2E2E2E2E2E2E2E2E2E2E2E2E2E2E2E2E2E2E2E2E2E2E2E2E2
310
E2E2E2E2E2E2E2E2E2E2E2E2E2E2E2E2E2E2E2E2E2E2E2E2E2E2E2E2E2E2E2E2E2E2E2E2E2E2E2E2E2E2E2E2E2E2E2E2E2E2E2E2E2E2E2E2E2E2E2E2E2E2E2E2E2E2E2E2E2E2E2E2E2E2E2E2E2E2E2E2E2E2E2E2E2E2E2E2E2E2E2E2E2E2E2E2E2E2E2E2E2E2E2E2E2E2E2E2E2E2E2E2E2E2E2E2E2E2E2E2E2E2E2E2E2E2E2
310
E2E2E2E2E2E2E2E2E2E2E2E2E2E2E2E2E2E2E2E2E2E2E2E2E2E2E2E2E2E2E2E2E2E2E2E2E2E2E2E2E2E2E2E2E2E2E2E2E2E2E2E2E2E2E2E2E2E2E2E2E2E2E2E2E2E2E2E2E2E2E2E2E2E2E2E2E2E2E2E2E2E2E2E2E2E2E2E2E2E2E2E2E2E2E2E2E2E2E2E2E2E2E2E2E2E2E2E2E2E2E2E2E2E2E2E2E2E2E2E2E2E2E2E2E2E2E2
310
E2E2E2E2E2E2E2E2E2E2E2E2E2E2E2E2E2E2E2E2E2E2E2E2E2E2E2E2E2E2E2E2E2E2E2E2E2E2E2E2E2E2E2E2E2E2E2E2E2E2E2E2E2E2E2E2E2E2E2E2E2E2E2E2E2E2E2E2E2E2E2E2E2E2E2E2E2E2E2E2E2E2E2E2E2E2E2E2E2E2E2E2E2E2E2E2E2E2E2E2E2E2E2E2E2E2E2E2E2E2E2E2E2E2E2E2E2E2E2E2E2E2E2E2E2E2E2
310
E2E2E2E2E2E2E2E2E2E2E2E2E2E2E2E2E2E2E2E2E2E2E2E2E2E2E2E2E2E2E2E2E2E2E2E2E2E2E2E2E2E2E2E2E2E2E2E2E2E2E2E2E2E2E2E2E2E2E2E2E2E2E2E2E2E2E2E2E2E2E2E2E2E2E2E2E2E2E2E2E2E2E2E2E2E2E2E2E2E2E2E2E2E2E2E2E2E2E2E2E2E2E2E2E2E2E2E2E2E2E2E2E2E2E2E2E2E2E2E2E2E2E2E2E2E2E2
310
E2E2E2E2E2E2E2E2E2E2E2E2E2E2E2E2E2E2E2E2E2E2E2E2E2E2E2E2E2E2E2E2E2E2E2E2E2E2E2E2E2E2E2E2E2E2E2E2E2E2E2E2E2E2E2E2E2E2E2E2E2E2E2E2E2E2E2E2E2E2E2E2E2E2E2E2E2E2E2E2E2E2E2E2E2E2E2E2E2E2E2E2E2E2E2E2E2E2E2E2E2E2E2E2E2E2E2E2E2E2E2E2E2E2E2E2E2E2E2E2E2E2E2E2E2E2E2
310
E2E2E2E2E2E2E2E2E2E2E2E2E2E2E2E2E2E2E2E2E2E2E2E2E2E2E2E2E2E2E2E2E2E2E2E2E2E2E2E2E2E2E2E2E2E2E2E2E2E2E2E2E2E2E2E2E2E2E2E2E2E2E2E2E2E2E2E2E2E2E2E2E2E2E2E2E2E2E2E2E2E2E2E2E2E2E2E2E2E2E2E2E2E2E2E2E2E2E2E2E2E2E2E2E2E2E2E2E2E2E2E2E2E2E2E2E2E2E2E2E2E2E2E2E2E2E2
310
E2E2E2E2E2E2E2E2E2E2E2E2E2E2E2E2E2E2E2E2E2E2E2E2E2E2E2E2E2E2E2E2E2E2E2E2E2E2E2E2E2E2E2E2E2E2E2E2E2E2E2E2E2E2E2E2E2E2E2E2E2E2E2E2E2E2E2E2E2E2E2E2E2E2E2E2E2E2E2E2E2E2E2E2E2E2E2E2E2E2E2E2E2E2E2E2E2E2E2E2E2E2E2E2E2E2E2E2E2E2E2E2E2E2E2E2E2E2E2E2E2E2E2E2E2E2E2
310
E2E2E2E2E2E2E2E2E2E2E2E2E2E2E2E2E2E2E2E2E2E2E2E2E2E2E2E2E2E2E2E2E2E2E2E2E2E2E2E2E2E2E2E2E2E2E2E2E2E2E2E2E2E2E2E2E2E2E2E2E2E2E2E2E2E2E2E2E2E2E2E2E2E2E2E2E2E2E2E2E2E2E2E2E2E2E2E2E2E2E2E2E2E2E2E2E2E2E2E2E2E2E2E2E2E2E2E2E2E2E2E2E2E2E2E2E2E2E2E2E2E2E2E2E2E2E2
310
E2E2E2E2E2E2E2E2E2E2E2E2E2E2E2E2E2E2E2E2E2E2E2E2E2E2E2E2E2E2E2E2E2E2E2E2E2E2E2E2E2E2E2E2E2E2E2E2E2E2E2E2E2E2E2E2E2E2E2E2E2E2E2E2E2E2E2E2E2E2E2E2E2E2E2E2E2E2E2E2E2E2E2E2E2E2E2E2E2E2E2E2E2E2E2E2E2E2E2E2E2E2E2E2E2E2E2E2E2E2E2E2E2E2E2E2E2E2E2E2E2E2E2E2E2E2E2
310
E2E2E2E2E2E2E2E2E2E2E2E2E2E2E2E2E2E2E2E2E2E2E2E2E2E2E2E2E2E2E2E2E2E2E2E2E2E2E2E2E2E2E2E2E2E2E2E2E2E2E2E2E2E2E2E2E2E2E2E2E2E2E2E2E2E2E2E2E2E2E2E2E2E2E2E2E2E2E2E2E2E2E2E2E2E2E2E2E2E2E2E2E2E2E2E2E2E2E2E2E2E2E2E2E2E2E2E2E2E2E2E2E2E2E2E2E2E2E2E2E2E2E2E2E2E2E2
310
E2E2E2E2E2E2E2E2E2E2E2E2E2E2E2E2E2E2E2E2E2E2E2E2E2E2E2E2E2E2E2E2E2E2E2E2E2E2E2E2E2E2E2E2E2E2E2E2E2E2E2E2E2E2E2E2E2E2E2E2E2E2E2E2E2E2E2E2E2E2E2E2E2E2E2E2E2E2E2E2E2E2E2E2E2E2E2E2E2E2E2E2E2E2E2E2E2E2E2E2E2E2E2E2E2E2E2E2E2E2E2E2E2E2E2E2E2E2E2E2E2E2E2E2E2E2E2
310
E2E2E2E2E2E2E2E2E2E2E2E2E2E2E2E2E2E2E2E2E2E2E2E2E2E2E2E2E2E2E2E2E2E2E2E2E2E2E2E2E2E2E2E2E2E2E2E2E2E2E2E2E2E2E2E2E2E2E2E2E2E2E2E2E2E2E2E2E2E2E2E2E2E2E2E2E2E2E2E2E2E2E2E2E2E2E2E2E2E2E2E2E2E2E2E2E2E2E2E2E2E2E2E2E2E2E2E2E2E2E2E2E2E2E2E2E2E2E2E2E2E2E2E2E2E2E2
310
E2E2E2E2E2E2E2E2E2E2E2E2E2E2E2E2E2E2E2E2E2E2E2E2E2E2E2E2E2E2E2E2E2E2E2E2E2E2E2E2E2E2E2E2E2E2E2E2E2E2E2E2E2E2E2E2E2E2E2E2E2E2E2E2E2E2E2E2E2E2E2E2E2E2E2E2E2E2E2E2E2E2E2E2E2E2E2E2E2E2E2E2E2E2E2E2E2E2E2E2E2E2E2E2E2E2E2E2E2E2E2E2E2E2E2E2E2E2E2E2E2E2E2E2E2E2E2
310
E2E2E2E2E2E2E2E2E2E2E2E2E2E2E2E2E2E2E2E2E2E2E2E2E2E2E2E2E2E2E2E2E2E2E2E2E2E2E2E2E2E2E2E2E2E2E2E2E2E2E2E2E2E2E2E2E2E2E2E2E2E2E2E2E2E2E2E2E2E2E2E2E2E2E2E2E2E2E2E2E2E2E2E2E2E2E2E2E2E2E2E2E2E2E2E2E2E2E2E2E2E2E2E2E2E2E2E2E2E2E2E2E2E2E2E2E2E2E2E2E2E2E2E2E2E2E2
310
E2E2E2E2E2E2E2E2E2E2E2E2E2E2E2E2E2E2E2E2E2E2E2E2E2E2E2E2E2E2E2E2E2E2E2E2E2E2E2E2E2E2E2E2E2E2E2E2E2E2E2E2E2E2E2E2E2E2E2E2E2E2E2E2E2E2E2E2E2E2E2E2E2E2E2E2E2E2E2E2E2E2E2E2E2E2E2E2E2E2E2E2E2E2E2E2E2E2E2E2E2E2E2E2E2E2E2E2E2E2E2E2E2E2E2E2E2E2E2E2E2E2E2E2E2E2E2
310
E2E2E2E2E2E2E2E2E2E2E2E2E2E2E2E2E2E2E2E2E2E2E2E2E2E2E2E2E2E2E2E2E2E2E2E2E2E2E2E2E2E2E2E2E2E2E2E2E2E2E2E2E2E2E2E2E2E2E2E2E2E2E2E2E2E2E2E2E2E2E2E2E2E2E2E2E2E2E2E2E2E2E2E2E2E2E2E2E2E2E2E2E2E2E2E2E2E2E2E2E2E2E2E2E2E2E2E2E2E2E2E2E2E2E2E2E2E2E2E2E2E2E2E2E2E2E2
310
E2E2E2E2E2E2E2E2E2E2E2E2E2E2E2E2E2E2E2E2E2E2E2E2E2E2E2E2E2E2E2E2E2E2E2E2E2E2E2E2E2E2E2E2E2E2E2E2E2E2E2E2E2E2E2E2E2E2E2E2E2E2E2E2E2E2E2E2E2E2E2E2E2E2E2E2E2E2E2E2E2E2E2E2E2E2E2E2E2E2E2E2E2E2E2E2E2E2E2E2E2E2E2E2E2E2E2E2E2E2E2E2E2E2E2E2E2E2E2E2E2E2E2E2E2E2E2
310
E2E2E2E2E2E2E2E2E2E2E2E2E2E2E2E2E2E2E2E2E2E2E2E2E2E2E2E2E2E2E2E2E2E2E2E2E2E2E2E2E2E2E2E2E2E2E2E2E2E2E2E2E2E2E2E2E2E2E2E2E2E2E2E2E2E2E2E2E2E2E2E2E2E2E2E2E2E2E2E2E2E2E2E2E2E2E2E2E2E2E2E2E2E2E2E2E2E2E2E2E2E2E2E2E2E2E2E2E2E2E2E2E2E2E2E2E2E2E2E2E2E2E2E2E2E2E2
310
E2E2E2E2E2E2E2E2E2E2E2E2E2E2E2E2E2E2E2E2E2E2E2E2E2E2E2E2E2E2E2E2E2E2E2E2E2E2E2E2E2E2E2E2E2E2E2E2E2E2E2E2E2E2E2E2E2E2E2E2E2E2E2E2E2E2E2E2E2E2E2E2E2E2E2E2E2E2E2E2E2E2E2E2E2E2E2E2E2E2E2E2E2E2E2E2E2E2E2E2E2E2E2E2E2E2E2E2E2E2E2E2E2E2E2E2E2E2E2E2E2E2E2E2E2E2E2
310
E2E2E2E2E2E2E2E2E2E2E2E2E2E2E2E2E2E2E2E2E2E2E2E2E2E2E2E2E2E2E2E2E2E2E2E2E2E2E2E2E2E2E2E2E2E2E2E2E2E2E2E2E2E2E2E2E2E2E2E2E2E2E2E2E2E2E2E2E2E2E2E2E2E2E2E2E2E2E2E2E2E2E2E2E2E2E2E2E2E2E2E2E2E2E2E2E2E2E2E2E2E2E2E2E2E2E2E2E2E2E2E2E2E2E2E2E2E2E2E2E2E2E2E2E2E2E2
310
E2E2E2E2E2E2E2E2E2E2E2E2E2E2E2E2E2E2E2E2E2E2E2E2E2E2E2E2E2E2E2E2E2E2E2E2E2E2E2E2E2E2E2E2E2E2E2E2E2E2E2E2E2E2E2E2E2E2E2E2E2E2E2E2E2E2E2E2E2E2E2E2E2E2E2E2E2E2E2E2E2E2E2E2E2E2E2E2E2E2E2E2E2E2E2E2E2E2E2E2E2E2E2E2E2E2E2E2E2E2E2E2E2E2E2E2E2E2E2E2E2E2E2E2E2E2E2
310
E2E2E2E2E2E2E2E2E2E2E2E2E2E2E2E2E2E2E2E2E2E2E2E2E2E2E2E2E2E2E2E2E2E2E2E2E2E2E2E2E2E2E2E2E2E2E2E2E2E2E2E2E2E2E2E2E2E2E2E2E2E2E2E2E2E2E2E2E2E2E2E2E2E2E2E2E2E2E2E2E2E2E2E2E2E2E2E2E2E2E2E2E2E2E2E2E2E2E2E2E2E2E2E2E2E2E2E2E2E2E2E2E2E2E2E2E2E2E2E2E2E2E2E2E2E2E2
310
E2E2E2E2E2E2E2E2E2E2E2E2E2E2E2E2E2E2E2E2E2E2E2E2E2E2E2E2E2E2E2E2E2E2E2E2E2E2E2E2E2E2E2E2E2E2E2E2E2E2E2E2E2E2E2E2E2E2E2E2E2E2E2E2E2E2E2E2E2E2E2E2E2E2E2E2E2E2E2E2E2E2E2E2E2E2E2E2E2E2E2E2E2E2E2E2E2E2E2E2E2E2E2E2E2E2E2E2E2E2E2E2E2E2E2E2E2E2E2E2E2E2E2E2E2E2E2
310
E2E2E2E2E2E2E2E2E2E2E2E2E2E2E2E2E2E2E2E2E2E2E2E2E2E2E2E2E2E2E2E2E2E2E2E2E2E2E2E2E2E2E2E2E2E2E2E2E2E2E2E2E2E2E2E2E2E2E2E2E2E2E2E2E2E2E2E2E2E2E2E2E2E2E2E2E2E2E2E2E2E2E2E2E2E2E2E2E2E2E2E2E2E2E2E2E2E2E2E2E2E2E2E2E2E2E2E2E2E2E2E2E2E2E2E2E2E2E2E2E2E2E2E2E2E2E2
310
E2E2E2E2E2E2E2E2E2E2E2E2E2E2E2E2E2E2E2E2E2E2E2E2E2E2E2E2E2E2E2E2E2E2E2E2E2E2E2E2E2E2E2E2E2E2E2E2E2E2E2E2E2E2E2E2E2E2E2E2E2E2E2E2E2E2E2E2E2E2E2E2E2E2E2E2E2E2E2E2E2E2E2E2E2E2E2E2E2E2E2E2E2E2E2E2E2E2E2E2E2E2E2E2E2E2E2E2E2E2E2E2E2E2E2E2E2E2E2E2E2E2E2E2E2E2E2
310
E2E2E2E2E2E2E2E2E2E2E2E2E2E2E2E2E2E2E2E2E2E2E2E2E2E2E2E2E2E2E2E2E2E2E2E2E2E2E2E2E2E2E2E2E2E2E2E2E2E2E2E2E2E2E2E2E2E2E2E2E2E2E2E2E2E2E2E2E2E2E2E2E2E2E2E2E2E2E2E2E2E2E2E2E2E2E2E2E2E2E2E2E2E2E2E2E2E2E2E2E2E2E2E2E2E2E2E2E2E2E2E2E2E2E2E2E2E2E2E2E2E2E2E2E2E2E2
310
E2E2E2E2E2E2E2E2E2E2E2E2E2E2E2E2E2E2E2E2E2E2E2E2E2E2E2E2E2E2E2E2E2E2E2E2E2E2E2E2E2E2E2E2E2E2E2E2E2E2E2E2E2E2E2E2E2E2E2E2E2E2E2E2E2E2E2E2E2E2E2E2E2E2E2E2E2E2E2E2E2E2E2E2E2E2E2E2E2E2E2E2E2E2E2E2E2E2E2E2E2E2E2E2E2E2E2E2E2E2E2E2E2E2E2E2E2E2E2E2E2E2E2E2E2E2E2
310
E2E2E2E2E2E2E2E2E2E2E2E2E2E2E2E2E2E2E2E2E2E2E2E2E2E2E2E2E2E2E2E2E2E2E2E2E2E2E2E2E2E2E2E2E2E2E2E2E2E2E2E2E2E2E2E2E2E2E2E2E2E2E2E2E2E2E2E2E2E2E2E2E2E2E2E2E2E2E2E2E2E2E2E2E2E2E2E2E2E2E2E2E2E2E2E2E2E2E2E2E2E2E2E2E2E2E2E2E2E2E2E2E2E2E2E2E2E2E2E2E2E2E2E2E2E2E2
310
E2E2E2E2E2E2E2E2E2E2E2E2E2E2E2E2E2E2E2E2E2E2E2E2E2E2E2E2E2E2E2E2E2E2E2E2E2E2E2E2E2E2E2E2E2E2E2E2E2E2E2E2E2E2E2E2E2E2E2E2E2E2E2E2E2E2E2E2E2E2E2E2E2E2E2E2E2E2E2E2E2E2E2E2E2E2E2E2E2E2E2E2E2E2E2E2E2E2E2E2E2E2E2E2E2E2E2E2E2E2E2E2E2E2E2E2E2E2E2E2E2E2E2E2E2E2E2
310
E2E2E2E2E2E2E2E2E2E2E2E2E2E2E2E2E2E2E2E2E2E2E2E2E2E2E2E2E2E2E2E2E2E2E2E2E2E2E2E2E2E2E2E2E2E2E2E2E2E2E2E2E2E2E2E2E2E2E2E2E2E2E2E2E2E2E2E2E2E2E2E2E2E2E2E2E2E2E2E2E2E2E2E2E2E2E2E2E2E2E2E2E2E2E2E2E2E2E2E2E2E2E2E2E2E2E2E2E2E2E2E2E2E2E2E2E2E2E2E2E2E2E2E2E2E2E2
310
E2E2E2E2E2E2E2E2E2E2E2E2E2E2E2E2E2E2E2E2E2E2E2E2E2E2E2E2E2E2E2E2E2E2E2E2E2E2E2E2E2E2E2E2E2E2E2E2E2E2E2E2E2E2E2E2E2E2E2E2E2E2E2E2E2E2E2E2E2E2E2E2E2E2E2E2E2E2E2E2E2E2E2E2E2E2E2E2E2E2E2E2E2E2E2E2E2E2E2E2E2E2E2E2E2E2E2E2E2E2E2E2E2E2E2E2E2E2E2E2E2E2E2E2E2E2E2
310
E2E2E2E2E2E2E2E2E2E2E2E2E2E2E2E2E2E2E2E2E2E2E2E2E2E2E2E2E2E2E2E2E2E2E2E2E2E2E2E2E2E2E2E2E2E2E2E2E2E2E2E2E2E2E2E2E2E2E2E2E2E2E2E2E2E2E2E2E2E2E2E2E2E2E2E2E2E2E2E2E2E2E2E2E2E2E2E2E2E2E2E2E2E2E2E2E2E2E2E2E2E2E2E2E2E2E2E2E2E2E2E2E2E2E2E2E2E2E2E2E2E2E2E2E2E2E2
310
E2E2E2E2E2E2E2E2E2E2E2E2E2E2E2E2E2E2E2E2E2E2E2E2E2E2E2E2E2E2E2E2E2E2E2E2E2E2E2E2E2E2E2E2E2E2E2E2E2E2E2E2E2E2E2E2E2E2E2E2E2E2E2E2E2E2E2E2E2E2E2E2E2E2E2E2E2E2E2E2E2E2E2E2E2E2E2E2E2E2E2E2E2E2E2E2E2E2E2E2E2E2E2E2E2E2E2E2E2E2E2E2E2E2E2E2E2E2E2E2E2E2E2E2E2E2E2
310
E2E2E2E2E2E2E2E2E2E2E2E2E2E2E2E2E2E2E2E2E2E2E2E2E2E2E2E2E2E2E2E2E2E2E2E2E2E2E2E2E2E2E2E2E2E2E2E2E2E2E2E2E2E2E2E2E2E2E2E2E2E2E2E2E2E2E2E2E2E2E2E2E2E2E2E2E2E2E2E2E2E2E2E2E2E2E2E2E2E2E2E2E2E2E2E2E2E2E2E2E2E2E2E2E2E2E2E2E2E2E2E2E2E2E2E2E2E2E2E2E2E2E2E2E2E2E2
310
E2E2E2E2E2E2E2E2E2E2E2E2E2E2E2E2E2E2E2E2E2E2E2E2E2E2E2E2E2E2E2E2E2E2E2E2E2E2E2E2E2E2E2E2E2E2E2E2E2E2E2E2E2E2E2E2E2E2E2E2E2E2E2E2E2E2E2E2E2E2E2E2E2E2E2E2E2E2E2E2E2E2E2E2E2E2E2E2E2E2E2E2E2E2E2E2E2E2E2E2E2E2E2E2E2E2E2E2E2E2E2E2E2E2E2E2E2E2E2E2E2E2E2E2E2E2E2
310
E2E2E2E2E2E2E2E2E2E2E2E2E2E2E2E2E2E2E2E2E2E2E2E2E2E2E2E2E2E2E2E2E2E2E2E2E2E2E2E2E2E2E2E2E2E2E2E2E2E2E2E2E2E2E2E2E2E2E2E2E2E2E2E2E2E2E2E2E2E2E2E2E2E2E2E2E2E2E2E2E2E2E2E2E2E2E2E2E2E2E2E2E2E2E2E2E2E2E2E2E2E2E2E2E2E2E2E2E2E2E2E2E2E2E2E2E2E2E2E2E2E2E2E2E2E2E2
310
E2E2E2E2E2E2E2E2E2E2E2E2E2E2E2E2E2E2E2E2E2E2E2E2E2E2E2E2E2E2E2E2E2E2E2E2E2E2E2E2E2E2E2E2E2E2E2E2E2E2E2E2E2E2E2E2E2E2E2E2E2E2E2E2E2E2E2E2E2E2E2E2E2E2E2E2E2E2E2E2E2E2E2E2E2E2E2E2E2E2E2E2E2E2E2E2E2E2E2E2E2E2E2E2E2E2E2E2E2E2E2E2E2E2E2E2E2E2E2E2E2E2E2E2E2E2E2
310
E2E2E2E2E2E2E2E2E2E2E2E2E2E2E2E2E2E2E2E2E2E2E2E2E2E2E2E2E2E2E2E2E2E2E2E2E2E2E2E2E2E2E2E2E2E2E2E2E2E2E2E2E2E2E2E2E2E2E2E2E2E2E2E2E2E2E2E2E2E2E2E2E2E2E2E2E2E2E2E2E2E2E2E2E2E2E2E2E2E2E2E2E2E2E2E2E2E2E2E2E2E2E2E2E2E2E2E2E2E2E2E2E2E2E2E2E2E2E2E2E2E2E2E2E2E2E2
310
E2E2E2E2E2E2E2E2E2E2E2E2E2E2E2E2E2E2E2E2E2E2E2E2E2E2E2E2E2E2E2E2E2E2E2E2E2E2E2E2E2E2E2E2E2E2E2E2E2E2E2E2E2E2E2E2E2E2E2E2E2E2E2E2E2E2E2E2E2E2E2E2E2E2E2E2E2E2E2E2E2E2E2E2E2E2E2E2E2E2E2E2E2E2E2E2E2E2E2E2E2E2E2E2E2E2E2E2E2E2E2E2E2E2E2E2E2E2E2E2E2E2E2E2E2E2E2
310
E2E2E2E2E2E2E2E2E2E2E2E2E2E2E2E2E2E2E2E2E2E2E2E2E2E2E2E2E2E2E2E2E2E2E2E2E2E2E2E2E2E2E2E2E2E2E2E2E2E2E2E2E2E2E2E2E2E2E2E2E2E2E2E2E2E2E2E2E2E2E2E2E2E2E2E2E2E2E2E2E2E2E2E2E2E2E2E2E2E2E2E2E2E2E2E2E2E2E2E2E2E2E2E2E2E2E2E2E2E2E2E2E2E2E2E2E2E2E2E2E2E2E2E2E2E2E2
310
E2E2E2E2E2E2E2E2E2E2E2E2E2E2E2E2E2E2E2E2E2E2E2E2E2E2E2E2E2E2E2E2E2E2E2E2E2E2E2E2E2E2E2E2E2E2E2E2E2E2E2E2E2E2E2E2E2E2E2E2E2E2E2E2E2E2E2E2E2E2E2E2E2E2E2E2E2E2E2E2E2E2E2E2E2E2E2E2E2E2E2E2E2E2E2E2E2E2E2E2E2E2E2E2E2E2E2E2E2E2E2E2E2E2E2E2E2E2E2E2E2E2E2E2E2E2E2
310
E2E2E2E2E2E2E2E2E2E2E2E2E2E2E2E2E2E2E2E2E2E2E2E2E2E2E2E2E2E2E2E2E2E2E2E2E2E2E2E2E2E2E2E2E2E2E2E2E2E2E2E2E2E2E2E2E2E2E2E2E2E2E2E2E2E2E2E2E2E2E2E2E2E2E2E2E2E2E2E2E2E2E2E2E2E2E2E2E2E2E2E2E2E2E2E2E2E2E2E2E2E2E2E2E2E2E2E2E2E2E2E2E2E2E2E2E2E2E2E2E2E2E2E2E2E2E2
310
E2E2E2E2E2E2E2E2E2E2E2E2E2E2E2E2E2E2E2E2E2E2E2E2E2E2E2E2E2E2E2E2E2E2E2E2E2E2E2E2E2E2E2E2E2E2E2E2E2E2E2E2E2E2E2E2E2E2E2E2E2E2E2E2E2E2E2E2E2E2E2E2E2E2E2E2E2E2E2E2E2E2E2E2E2E2E2E2E2E2E2E2E2E2E2E2E2E2E2E2E2E2E2E2E2E2E2E2E2E2E2E2E2E2E2E2E2E2E2E2E2E2E2E2E2E2E2
310
E2E2E2E2E2E2E2E2E2E2E2E2E2E2E2E2E2E2E2E2E2E2E2E2E2E2E2E2E2E2E2E2E2E2E2E2E2E2E2E2E2E2E2E2E2E2E2E2E2E2E2E2E2E2E2E2E2E2E2E2E2E2E2E2E2E2E2E2E2E2E2E2E2E2E2E2E2E2E2E2E2E2E2E2E2E2E2E2E2E2E2E2E2E2E2E2E2E2E2E2E2E2E2E2E2E2E2E2E2E2E2E2E2E2E2E2E2E2E2E2E2E2E2E2E2E2E2
310
E2E2E2E2E2E2E2E2E2E2E2E2E2E2E2E2E2E2E2E2E2E2E2E2E2E2E2E2E2E2E2E2E2E2E2E2E2E2E2E2E2E2E2E2E2E2E2E2E2E2E2E2E2E2E2E2E2E2E2E2E2E2E2E2E2E2E2E2E2E2E2E2E2E2E2E2E2E2E2E2E2E2E2E2E2E2E2E2E2E2E2E2E2E2E2E2E2E2E2E2E2E2E2E2E2E2E2E2E2E2E2E2E2E2E2E2E2E2E2E2E2E2E2E2E2E2E2
310
E2E2E2E2E2E2E2E2E2E2E2E2E2E2E2E2E2E2E2E2E2E2E2E2E2E2E2E2E2E2E2E2E2E2E2E2E2E2E2E2E2E2E2E2E2E2E2E2E2E2E2E2E2E2E2E2E2E2E2E2E2E2E2E2E2E2E2E2E2E2E2E2E2E2E2E2E2E2E2E2E2E2E2E2E2E2E2E2E2E2E2E2E2E2E2E2E2E2E2E2E2E2E2E2E2E2E2E2E2E2E2E2E2E2E2E2E2E2E2E2E2E2E2E2E2E2E2
310
E2E2E2E2E2E2E2E2E2E2E2E2E2E2E2E2E2E2E2E2E2E2E2E2E2E2E2E2E2E2E2E2E2E2E2E2E2E2E2E2E2E2E2E2E2E2E2E2E2E2E2E2E2E2E2E2E2E2E2E2E2E2E2E2E2E2E2E2E2E2E2E2E2E2E2E2E2E2E2E2E2E2E2E2E2E2E2E2E2E2E2E2E2E2E2E2E2E2E2E2E2E2E2E2E2E2E2E2E2E2E2E2E2E2E2E2E2E2E2E2E2E2E2E2E2E2E2
310
E2E2E2E2E2E2E2E2E2E2E2E2E2E2E2E2E2E2E2E2E2E2E2E2E2E2E2E2E2E2E2E2E2E2E2E2E2E2E2E2E2E2E2E2E2E2E2E2E2E2E2E2E2E2E2E2E2E2E2E2E2E2E2E2E2E2E2E2E2E2E2E2E2E2E2E2E2E2E2E2E2E2E2E2E2E2E2E2E2E2E2E2E2E2E2E2E2E2E2E2E2E2E2E2E2E2E2E2E2E2E2E2E2E2E2E2E2E2E2E2E2E2E2E2E2E2E2
310
E2E2E2E2E2E2E2E2E2E2E2E2E2E2E2E2E2E2E2E2E2E2E2E2E2E2E2E2E2E2E2E2E2E2E2E2E2E2E2E2E2E2E2E2E2E2E2E2E2E2E2E2E2E2E2E2E2E2E2E2E2E2E2E2E2E2E2E2E2E2E2E2E2E2E2E2E2E2E2E2E2E2E2E2E2E2E2E2E2E2E2E2E2E2E2E2E2E2E2E2E2E2E2E2E2E2E2E2E2E2E2E2E2E2E2E2E2E2E2E2E2E2E2E2E2E2E2
310
E2E2E2E2E2E2E2E2E2E2E2E2E2E2E2E2E2E2E2E2E2E2E2E2E2E2E2E2E2E2E2E2E2E2E2E2E2E2E2E2E2E2E2E2E2E2E2E2E2E2E2E2E2E2E2E2E2E2E2E2E2E2E2E2E2E2E2E2E2E2E2E2E2E2E2E2E2E2E2E2E2E2E2E2E2E2E2E2E2E2E2E2E2E2E2E2E2E2E2E2E2E2E2E2E2E2E2E2E2E2E2E2E2E2E2E2E2E2E2E2E2E2E2E2E2E2E2
310
E2E2E2E2E2E2E2E2E2E2E2E2E2E2E2E2E2E2E2E2E2E2E2E2E2E2E2E2E2E2E2E2E2E2E2E2E2E2E2E2E2E2E2E2E2E2E2E2E2E2E2E2E2E2E2E2E2E2E2E2E2E2E2E2E2E2E2E2E2E2E2E2E2E2E2E2E2E2E2E2E2E2E2E2E2E2E2E2E2E2E2E2E2E2E2E2E2E2E2E2E2E2E2E2E2E2E2E2E2E2E2E2E2E2E2E2E2E2E2E2E2E2E2E2E2E2E2
310
E2E2E2E2E2E2E2E2E2E2E2E2E2E2E2E2E2E2E2E2E2E2E2E2E2E2E2E2E2E2E2E2E2E2E2E2E2E2E2E2E2E2E2E2E2E2E2E2E2E2E2E2E2E2E2E2E2E2E2E2E2E2E2E2E2E2E2E2E2E2E2E2E2E2E2E2E2E2E2E2E2E2E2E2E2E2E2E2E2E2E2E2E2E2E2E2E2E2E2E2E2E2E2E2E2E2E2E2E2E2E2E2E2E2E2E2E2E2E2E2E2E2E2E2E2E2E2
310
E2E2E2E2E2E2E2E2E2E2E2E2E2E2E2E2E2E2E2E2E2E2E2E2E2E2E2E2E2E2E2E2E2E2E2E2E2E2E2E2E2E2E2E2E2E2E2E2E2E2E2E2E2E2E2E2E2E2E2E2E2E2E2E2E2E2E2E2E2E2E2E2E2E2E2E2E2E2E2E2E2E2E2E2E2E2E2E2E2E2E2E2E2E2E2E2E2E2E2E2E2E2E2E2E2E2E2E2E2E2E2E2E2E2E2E2E2E2E2E2E2E2E2E2E2E2E2
310
E2E2E2E2E2E2E2E2E2E2E2E2E2E2E2E2E2E2E2E2E2E2E2E2E2E2E2E2E2E2E2E2E2E2E2E2E2E2E2E2E2E2E2E2E2E2E2E2E2E2E2E2E2E2E2E2E2E2E2E2E2E2E2E2E2E2E2E2E2E2E2E2E2E2E2E2E2E2E2E2E2E2E2E2E2E2E2E2E2E2E2E2E2E2E2E2E2E2E2E2E2E2E2E2E2E2E2E2E2E2E2E2E2E2E2E2E2E2E2E2E2E2E2E2E2E2E2
310
E2E2E2E2E2E2E2E2E2E2E2E2E2E2E2E2E2E2E2E2E2E2E2E2E2E2E2E2E2E2E2E2E2E2E2E2E2E2E2E2E2E2E2E2E2E2E2E2E2E2E2E2E2E2E2E2E2E2E2E2E2E2E2E2E2E2E2E2E2E2E2E2E2E2E2E2E2E2E2E2E2E2E2E2E2E2E2E2E2E2E2E2E2E2E2E2E2E2E2E2E2E2E2E2E2E2E2E2E2E2E2E2E2E2E2E2E2E2E2E2E2E2E2E2E2E2E2
310
E2E2E2E2E2E2E2E2E2E2E2E2E2E2E2E2E2E2E2E2E2E2E2E2E2E2E2E2E2E2E2E2E2E2E2E2E2E2E2E2E2E2E2E2E2E2E2E2E2E2E2E2E2E2E2E2E2E2E2E2E2E2E2E2E2E2E2E2E2E2E2E2E2E2E2E2E2E2E2E2E2E2E2E2E2E2E2E2E2E2E2E2E2E2E2E2E2E2E2E2E2E2E2E2E2E2E2E2E2E2E2E2E2E2E2E2E2E2E2E2E2E2E2E2E2E2E2
310
E2E2E2E2E2E2E2E2E2E2E2E2E2E2E2E2E2E2E2E2E2E2E2E2E2E2E2E2E2E2E2E2E2E2E2E2E2E2E2E2E2E2E2E2E2E2E2E2E2E2E2E2E2E2E2E2E2E2E2E2E2E2E2E2E2E2E2E2E2E2E2E2E2E2E2E2E2E2E2E2E2E2E2E2E2E2E2E2E2E2E2E2E2E2E2E2E2E2E2E2E2E2E2E2E2E2E2E2E2E2E2E2E2E2E2E2E2E2E2E2E2E2E2E2E2E2E2
310
E2E2E2E2E2E2E2E2E2E2E2E2E2E2E2E2E2E2E2E2E2E2E2E2E2E2E2E2E2E2E2E2E2E2E2E2E2E2E2E2E2E2E2E2E2E2E2E2E2E2E2E2E2E2E2E2E2E2E2E2E2E2E2E2E2E2E2E2E2E2E2E2E2E2E2E2E2E2E2E2E2E2E2E2E2E2E2E2E2E2E2E2E2E2E2E2E2E2E2E2E2E2E2E2E2E2E2E2E2E2E2E2E2E2E2E2E2E2E2E2E2E2E2E2E2E2E2
310
E2E2E2E2E2E2E2E2E2E2E2E2E2E2E2E2E2E2E2E2E2E2E2E2E2E2E2E2E2E2E2E2E2E2E2E2E2E2E2E2E2E2E2E2E2E2E2E2E2E2E2E2E2E2E2E2E2E2E2E2E2E2E2E2E2E2E2E2E2E2E2E2E2E2E2E2E2E2E2E2E2E2E2E2E2E2E2E2E2E2E2E2E2E2E2E2E2E2E2E2E2E2E2E2E2E2E2E2E2E2E2E2E2E2E2E2E2E2E2E2E2E2E2E2E2E2E2
310
E2E2E2E2E2E2E2E2E2E2E2E2E2E2E2E2E2E2E2E2E2E2E2E2E2E2E2E2E2E2E2E2E2E2E2E2E2E2E2E2E2E2E2E2E2E2E2E2E2E2E2E2E2E2E2E2E2E2E2E2E2E2E2E2E2E2E2E2E2E2E2E2E2E2E2E2E2E2E2E2E2E2E2E2E2E2E2E2E2E2E2E2E2E2E2E2E2E2E2E2E2E2E2E2E2E2E2E2E2E2E2E2E2E2E2E2E2E2E2E2E2E2E2E2E2E2E2
310
E2E2E2E2E2E2E2E2E2E2E2E2E2E2E2E2E2E2E2E2E2E2E2E2E2E2E2E2E2E2E2E2E2E2E2E2E2E2E2E2E2E2E2E2E2E2E2E2E2E2E2E2E2E2E2E2E2E2E2E2E2E2E2E2E2E2E2E2E2E2E2E2E2E2E2E2E2E2E2E2E2E2E2E2E2E2E2E2E2E2E2E2E2E2E2E2E2E2E2E2E2E2E2E2E2E2E2E2E2E2E2E2E2E2E2E2E2E2E2E2E2E2E2E2E2E2E2
310
E2E2E2E2E2E2E2E2E2E2E2E2E2E2E2E2E2E2E2E2E2E2E2E2E2E2E2E2E2E2E2E2E2E2E2E2E2E2E2E2E2E2E2E2E2E2E2E2E2E2E2E2E2E2E2E2E2E2E2E2E2E2E2E2E2E2E2E2E2E2E2E2E2E2E2E2E2E2E2E2E2E2E2E2E2E2E2E2E2E2E2E2E2E2E2E2E2E2E2E2E2E2E2E2E2E2E2E2E2E2E2E2E2E2E2E2E2E2E2E2E2E2E2E2E2E2E2
310
E2E2E2E2E2E2E2E2E2E2E2E2E2E2E2E2E2E2E2E2E2E2E2E2E2E2E2E2E2E2E2E2E2E2E2E2E2E2E2E2E2E2E2E2E2E2E2E2E2E2E2E2E2E2E2E2E2E2E2E2E2E2E2E2E2E2E2E2E2E2E2E2E2E2E2E2E2E2E2E2E2E2E2E2E2E2E2E2E2E2E2E2E2E2E2E2E2E2E2E2E2E2E2E2E2E2E2E2E2E2E2E2E2E2E2E2E2E2E2E2E2E2E2E2E2E2E2
310
E2E2E2E2E2E2E2E2E2E2E2E2E2E2E2E2E2E2E2E2E2E2E2E2E2E2E2E2E2E2E2E2E2E2E2E2E2E2E2E2E2E2E2E2E2E2E2E2E2E2E2E2E2E2E2E2E2E2E2E2E2E2E2E2E2E2E2E2E2E2E2E2E2E2E2E2E2E2E2E2E2E2E2E2E2E2E2E2E2E2E2E2E2E2E2E2E2E2E2E2E2E2E2E2E2E2E2E2E2E2E2E2E2E2E2E2E2E2E2E2E2E2E2E2E2E2E2
310
E2E2E2E2E2E2E2E2E2E2E2E2E2E2E2E2E2E2E2E2E2E2E2E2E2E2E2E2E2E2E2E2E2E2E2E2E2E2E2E2E2E2E2E2E2E2E2E2E2E2E2E2E2E2E2E2E2E2E2E2E2E2E2E2E2E2E2E2E2E2E2E2E2E2E2E2E2E2E2E2E2E2E2E2E2E2E2E2E2E2E2E2E2E2E2E2E2E2E2E2E2E2E2E2E2E2E2E2E2E2E2E2E2E2E2E2E2E2E2E2E2E2E2E2E2E2E2
310
E2E2E2E2E2E2E2E2E2E2E2E2E2E2E2E2E2E2E2E2E2E2E2E2E2E2E2E2E2E2E2E2E2E2E2E2E2E2E2E2E2E2E2E2E2E2E2E2E2E2E2E2E2E2E2E2E2E2E2E2E2E2E2E2E2E2E2E2E2E2E2E2E2E2E2E2E2E2E2E2E2E2E2E2E2E2E2E2E2E2E2E2E2E2E2E2E2E2E2E2E2E2E2E2E2E2E2E2E2E2E2E2E2E2E2E2E2E2E2E2E2E2E2E2E2E2E2
310
E2E2E2E2E2E2E2E2E2E2E2E2E2E2E2E2E2E2E2E2E2E2E2E2E2E2E2E2E2E2E2E2E2E2E2E2E2E2E2E2E2E2E2E2E2E2E2E2E2E2E2E2E2E2E2E2E2E2E2E2E2E2E2E2E2E2E2E2E2E2E2E2E2E2E2E2E2E2E2E2E2E2E2E2E2E2E2E2E2E2E2E2E2E2E2E2E2E2E2E2E2E2E2E2E2E2E2E2E2E2E2E2E2E2E2E2E2E2E2E2E2E2E2E2E2E2E2
310
E2E2E2E2E2E2E2E2E2E2E2E2E2E2E2E2E2E2E2E2E2E2E2E2E2E2E2E2E2E2E2E2E2E2E2E2E2E2E2E2E2E2E2E2E2E2E2E2E2E2E2E2E2E2E2E2E2E2E2E2E2E2E2E2E2E2E2E2E2E2E2E2E2E2E2E2E2E2E2E2E2E2E2E2E2E2E2E2E2E2E2E2E2E2E2E2E2E2E2E2E2E2E2E2E2E2E2E2E2E2E2E2E2E2E2E2E2E2E2E2E2E2E2E2E2E2E2
310
E2E2E2E2E2E2E2E2E2E2E2E2E2E2E2E2E2E2E2E2E2E2E2E2E2E2E2E2E2E2E2E2E2E2E2E2E2E2E2E2E2E2E2E2E2E2E2E2E2E2E2E2E2E2E2E2E2E2E2E2E2E2E2E2E2E2E2E2E2E2E2E2E2E2E2E2E2E2E2E2E2E2E2E2E2E2E2E2E2E2E2E2E2E2E2E2E2E2E2E2E2E2E2E2E2E2E2E2E2E2E2E2E2E2E2E2E2E2E2E2E2E2E2E2E2E2E2
310
E2E2E2E2E2E2E2E2E2E2E2E2E2E2E2E2E2E2E2E2E2E2E2E2E2E2E2E2E2E2E2E2E2E2E2E2E2E2E2E2E2E2E2E2E2E2E2E2E2E2E2E2E2E2E2E2E2E2E2E2E2E2E2E2E2E2E2E2E2E2E2E2E2E2E2E2E2E2E2E2E2E2E2E2E2E2E2E2E2E2E2E2E2E2E2E2E2E2E2E2E2E2E2E2E2E2E2E2E2E2E2E2E2E2E2E2E2E2E2E2E2E2E2E2E2E2E2
310
E2E2E2E2E2E2E2E2E2E2E2E2E2E2E2E2E2E2E2E2E2E2E2E2E2E2E2E2E2E2E2E2E2E2E2E2E2E2E2E2E2E2E2E2E2E2E2E2E2E2E2E2E2E2E2E2E2E2E2E2E2E2E2E2E2E2E2E2E2E2E2E2E2E2E2E2E2E2E2E2E2E2E2E2E2E2E2E2E2E2E2E2E2E2E2E2E2E2E2E2E2E2E2E2E2E2E2E2E2E2E2E2E2E2E2E2E2E2E2E2E2E2E2E2E2E2E2
310
E2E2E2E2E2E2E2E2E2E2E2E2E2E2E2E2E2E2E2E2E2E2E2E2E2E2E2E2E2E2E2E2E2E2E2E2E2E2E2E2E2E2E2E2E2E2E2E2E2E2E2E2E2E2E2E2E2E2E2E2E2E2E2E2E2E2E2E2E2E2E2E2E2E2E2E2E2E2E2E2E2E2E2E2E2E2E2E2E2E2E2E2E2E2E2E2E2E2E2E2E2E2E2E2E2E2E2E2E2E2E2E2E2E2E2E2E2E2E2E2E2E2E2E2E2E2E2
310
E2E2E2E2E2E2E2E2E2E2E2E2E2E2E2E2E2E2E2E2E2E2E2E2E2E2E2E2E2E2E2E2E2E2E2E2E2E2E2E2E2E2E2E2E2E2E2E2E2E2E2E2E2E2E2E2E2E2E2E2E2E2E2E2E2E2E2E2E2E2E2E2E2E2E2E2E2E2E2E2E2E2E2E2E2E2E2E2E2E2E2E2E2E2E2E2E2E2E2E2E2E2E2E2E2E2E2E2E2E2E2E2E2E2E2E2E2E2E2E2E2E2E2E2E2E2E2
310
E2E2E2E2E2E2E2E2E2E2E2E2E2E2E2E2E2E2E2E2E2E2E2E2E2E2E2E2E2E2E2E2E2E2E2E2E2E2E2E2E2E2E2E2E2E2E2E2E2E2E2E2E2E2E2E2E2E2E2E2E2E2E2E2E2E2E2E2E2E2E2E2E2E2E2E2E2E2E2E2E2E2E2E2E2E2E2E2E2E2E2E2E2E2E2E2E2E2E2E2E2E2E2E2E2E2E2E2E2E2E2E2E2E2E2E2E2E2E2E2E2E2E2E2E2E2E2
310
E2E2E2E2E2E2E2E2E2E2E2E2E2E2E2E2E2E2E2E2E2E2E2E2E2E2E2E2E2E2E2E2E2E2E2E2E2E2E2E2E2E2E2E2E2E2E2E2E2E2E2E2E2E2E2E2E2E2E2E2E2E2E2E2E2E2E2E2E2E2E2E2E2E2E2E2E2E2E2E2E2E2E2E2E2E2E2E2E2E2E2E2E2E2E2E2E2E2E2E2E2E2E2E2E2E2E2E2E2E2E2E2E2E2E2E2E2E2E2E2E2E2E2E2E2E2E2
310
E2E2E2E2E2E2E2E2E2E2E2E2E2E2E2E2E2E2E2E2E2E2E2E2E2E2E2E2E2E2E2E2E2E2E2E2E2E2E2E2E2E2E2E2E2E2E2E2E2E2E2E2E2E2E2E2E2E2E2E2E2E2E2E2E2E2E2E2E2E2E2E2E2E2E2E2E2E2E2E2E2E2E2E2E2E2E2E2E2E2E2E2E2E2E2E2E2E2E2E2E2E2E2E2E2E2E2E2E2E2E2E2E2E2E2E2E2E2E2E2E2E2E2E2E2E2E2
310
E2E2E2E2E2E2E2E2E2E2E2E2E2E2E2E2E2E2E2E2E2E2E2E2E2E2E2E2E2E2E2E2E2E2E2E2E2E2E2E2E2E2E2E2E2E2E2E2E2E2E2E2E2E2E2E2E2E2E2E2E2E2E2E2E2E2E2E2E2E2E2E2E2E2E2E2E2E2E2E2E2E2E2E2E2E2E2E2E2E2E2E2E2E2E2E2E2E2E2E2E2E2E2E2E2E2E2E2E2E2E2E2E2E2E2E2E2E2E2E2E2E2E2E2E2E2E2
310
E2E2E2E2E2E2E2E2E2E2E2E2E2E2E2E2E2E2E2E2E2E2E2E2E2E2E2E2E2E2E2E2E2E2E2E2E2E2E2E2E2E2E2E2E2E2E2E2E2E2E2E2E2E2E2E2E2E2E2E2E2E2E2E2E2E2E2E2E2E2E2E2E2E2E2E2E2E2E2E2E2E2E2E2E2E2E2E2E2E2E2E2E2E2E2E2E2E2E2E2E2E2E2E2E2E2E2E2E2E2E2E2E2E2E2E2E2E2E2E2E2E2E2E2E2E2E2
310
E2E2E2E2E2E2E2E2E2E2E2E2E2E2E2E2E2E2E2E2E2E2E2E2E2E2E2E2E2E2E2E2E2E2E2E2E2E2E2E2E2E2E2E2E2E2E2E2E2E2E2E2E2E2E2E2E2E2E2E2E2E2E2E2E2E2E2E2E2E2E2E2E2E2E2E2E2E2E2E2E2E2E2E2E2E2E2E2E2E2E2E2E2E2E2E2E2E2E2E2E2E2E2E2E2E2E2E2E2E2E2E2E2E2E2E2E2E2E2E2E2E2E2E2E2E2E2
310
E2E2E2E2E2E2E2E2E2E2E2E2E2E2E2E2E2E2E2E2E2E2E2E2E2E2E2E2E2E2E2E2E2E2E2E2E2E2E2E2E2E2E2E2E2E2E2E2E2E2E2E2E2E2E2E2E2E2E2E2E2E2E2E2E2E2E2E2E2E2E2E2E2E2E2E2E2E2E2E2E2E2E2E2E2E2E2E2E2E2E2E2E2E2E2E2E2E2E2E2E2E2E2E2E2E2E2E2E2E2E2E2E2E2E2E2E2E2E2E2E2E2E2E2E2E2E2
310
E2E2E2E2E2E2E2E2E2E2E2E2E2E2E2E2E2E2E2E2E2E2E2E2E2E2E2E2E2E2E2E2E2E2E2E2E2E2E2E2E2E2E2E2E2E2E2E2E2E2E2E2E2E2E2E2E2E2E2E2E2E2E2E2E2E2E2E2E2E2E2E2E2E2E2E2E2E2E2E2E2E2E2E2E2E2E2E2E2E2E2E2E2E2E2E2E2E2E2E2E2E2E2E2E2E2E2E2E2E2E2E2E2E2E2E2E2E2E2E2E2E2E2E2E2E2E2
310
E2E2E2E2E2E2E2E2E2E2E2E2E2E2E2E2E2E2E2E2E2E2E2E2E2E2E2E2E2E2E2E2E2E2E2E2E2E2E2E2E2E2E2E2E2E2E2E2E2E2E2E2E2E2E2E2E2E2E2E2E2E2E2E2E2E2E2E2E2E2E2E2E2E2E2E2E2E2E2E2E2E2E2E2E2E2E2E2E2E2E2E2E2E2E2E2E2E2E2E2E2E2E2E2E2E2E2E2E2E2E2E2E2E2E2E2E2E2E2E2E2E2E2E2E2E2E2
310
E2E2E2E2E2E2E2E2E2E2E2E2E2E2E2E2E2E2E2E2E2E2E2E2E2E2E2E2E2E2E2E2E2E2E2E2E2E2E2E2E2E2E2E2E2E2E2E2E2E2E2E2E2E2E2E2E2E2E2E2E2E2E2E2E2E2E2E2E2E2E2E2E2E2E2E2E2E2E2E2E2E2E2E2E2E2E2E2E2E2E2E2E2E2E2E2E2E2E2E2E2E2E2E2E2E2E2E2E2E2E2E2E2E2E2E2E2E2E2E2E2E2E2E2E2E2E2
310
E2E2E2E2E2E2E2E2E2E2E2E2E2E2E2E2E2E2E2E2E2E2E2E2E2E2E2E2E2E2E2E2E2E2E2E2E2E2E2E2E2E2E2E2E2E2E2E2E2E2E2E2E2E2E2E2E2E2E2E2E2E2E2E2E2E2E2E2E2E2E2E2E2E2E2E2E2E2E2E2E2E2E2E2E2E2E2E2E2E2E2E2E2E2E2E2E2E2E2E2E2E2E2E2E2E2E2E2E2E2E2E2E2E2E2E2E2E2E2E2E2E2E2E2E2E2E2
310
E2E2E2E2E2E2E2E2E2E2E2E2E2E2E2E2E2E2E2E2E2E2E2E2E2E2E2E2E2E2E2E2E2E2E2E2E2E2E2E2E2E2E2E2E2E2E2E2E2E2E2E2E2E2E2E2E2E2E2E2E2E2E2E2E2E2E2E2E2E2E2E2E2E2E2E2E2E2E2E2E2E2E2E2E2E2E2E2E2E2E2E2E2E2E2E2E2E2E2E2E2E2E2E2E2E2E2E2E2E2E2E2E2E2E2E2E2E2E2E2E2E2E2E2E2E2E2
310
E2E2E2E2E2E2E2E2E2E2E2E2E2E2E2E2E2E2E2E2E2E2E2E2E2E2E2E2E2E2E2E2E2E2E2E2E2E2E2E2E2E2E2E2E2E2E2E2E2E2E2E2E2E2E2E2E2E2E2E2E2E2E2E2E2E2E2E2E2E2E2E2E2E2E2E2E2E2E2E2E2E2E2E2E2E2E2E2E2E2E2E2E2E2E2E2E2E2E2E2E2E2E2E2E2E2E2E2E2E2E2E2E2E2E2E2E2E2E2E2E2E2E2E2E2E2E2
310
E2E2E2E2E2E2E2E2E2E2E2E2E2E2E2E2E2E2E2E2E2E2E2E2E2E2E2E2E2E2E2E2E2E2E2E2E2E2E2E2E2E2E2E2E2E2E2E2E2E2E2E2E2E2E2E2E2E2E2E2E2E2E2E2E2E2E2E2E2E2E2E2E2E2E2E2E2E2E2E2E2E2E2E2E2E2E2E2E2E2E2E2E2E2E2E2E2E2E2E2E2E2E2E2E2E2E2E2E2E2E2E2E2E2E2E2E2E2E2E2E2E2E2E2E2E2E2
310
E2E2E2E2E2E2E2E2E2E2E2E2E2E2E2E2E2E2E2E2E2E2E2E2E2E2E2E2E2E2E2E2E2E2E2E2E2E2E2E2E2E2E2E2E2E2E2E2E2E2E2E2E2E2E2E2E2E2E2E2E2E2E2E2E2E2E2E2E2E2E2E2E2E2E2E2E2E2E2E2E2E2E2E2E2E2E2E2E2E2E2E2E2E2E2E2E2E2E2E2E2E2E2E2E2E2E2E2E2E2E2E2E2E2E2E2E2E2E2E2E2E2E2E2E2E2E2
310
E2E2E2E2E2E2E2E2E2E2E2E2E2E2E2E2E2E2E2E2E2E2E2E2E2E2E2E2E2E2E2E2E2E2E2E2E2E2E2E2E2E2E2E2E2E2E2E2E2E2E2E2E2E2E2E2E2E2E2E2E2E2E2E2E2E2E2E2E2E2E2E2E2E2E2E2E2E2E2E2E2E2E2E2E2E2E2E2E2E2E2E2E2E2E2E2E2E2E2E2E2E2E2E2E2E2E2E2E2E2E2E2E2E2E2E2E2E2E2E2E2E2E2E2E2E2E2
310
E2E2E2E2E2E2E2E2E2E2E2E2E2E2E2E2E2E2E2E2E2E2E2E2E2E2E2E2E2E2E2E2E2E2E2E2E2E2E2E2E2E2E2E2E2E2E2E2E2E2E2E2E2E2E2E2E2E2E2E2E2E2E2E2E2E2E2E2E2E2E2E2E2E2E2E2E2E2E2E2E2E2E2E2E2E2E2E2E2E2E2E2E2E2E2E2E2E2E2E2E2E2E2E2E2E2E2E2E2E2E2E2E2E2E2E2E2E2E2E2E2E2E2E2E2E2E2
310
E2E2E2E2E2E2E2E2E2E2E2E2E2E2E2E2E2E2E2E2E2E2E2E2E2E2E2E2E2E2E2E2E2E2E2E2E2E2E2E2E2E2E2E2E2E2E2E2E2E2E2E2E2E2E2E2E2E2E2E2E2E2E2E2E2E2E2E2E2E2E2E2E2E2E2E2E2E2E2E2E2E2E2E2E2E2E2E2E2E2E2E2E2E2E2E2E2E2E2E2E2E2E2E2E2E2E2E2E2E2E2E2E2E2E2E2E2E2E2E2E2E2E2E2E2E2E2
310
E2E2E2E2E2E2E2E2E2E2E2E2E2E2E2E2E2E2E2E2E2E2E2E2E2E2E2E2E2E2E2E2E2E2E2E2E2E2E2E2E2E2E2E2E2E2E2E2E2E2E2E2E2E2E2E2E2E2E2E2E2E2E2E2E2E2E2E2E2E2E2E2E2E2E2E2E2E2E2E2E2E2E2E2E2E2E2E2E2E2E2E2E2E2E2E2E2E2E2E2E2E2E2E2E2E2E2E2E2E2E2E2E2E2E2E2E2E2E2E2E2E2E2E2E2E2E2
310
E2E2E2E2E2E2E2E2E2E2E2E2E2E2E2E2E2E2E2E2E2E2E2E2E2E2E2E2E2E2E2E2E2E2E2E2E2E2E2E2E2E2E2E2E2E2E2E2E2E2E2E2E2E2E2E2E2E2E2E2E2E2E2E2E2E2E2E2E2E2E2E2E2E2E2E2E2E2E2E2E2E2E2E2E2E2E2E2E2E2E2E2E2E2E2E2E2E2E2E2E2E2E2E2E2E2E2E2E2E2E2E2E2E2E2E2E2E2E2E2E2E2E2E2E2E2E2
310
E2E2E2E2E2E2E2E2E2E2E2E2E2E2E2E2E2E2E2E2E2E2E2E2E2E2E2E2E2E2E2E2E2E2E2E2E2E2E2E2E2E2E2E2E2E2E2E2E2E2E2E2E2E2E2E2E2E2E2E2E2E2E2E2E2E2E2E2E2E2E2E2E2E2E2E2E2E2E2E2E2E2E2E2E2E2E2E2E2E2E2
  0
XRECORD
  5
B71
102
{ACAD_REACTORS
330
46
102
}
330
46
100
AcDbXrecord
280
     1
102
MATERIAL
148
0.0
149
0.0
149
0.0
 93
        0
 94
      127
282
     0
 72
     0
 77
     0
171
     0
175
     0
179
     0
273
     0
  0
XRECORD
  5
47
102
{ACAD_REACTORS
330
46
102
}
330
46
100
AcDbXrecord
280
     1
270
     1
271
     1
  0
XRECORD
  5
48
102
{ACAD_REACTORS
330
46
102
}
330
46
100
AcDbXrecord
280
     1
270
     1
271
     1
  0
XRECORD
  5
49
102
{ACAD_REACTORS
330
46
102
}
330
46
100
AcDbXrecord
280
     1
270
     1
271
     1
  0
XRECORD
  5
4A
102
{ACAD_REACTORS
330
46
102
}
330
46
100
AcDbXrecord
280
     1
270
     1
271
     1
  0
XRECORD
  5
4B
102
{ACAD_REACTORS
330
46
102
}
330
46
100
AcDbXrecord
280
     1
270
     1
271
     1
  0
XRECORD
  5
4C
102
{ACAD_REACTORS
330
46
102
}
330
46
100
AcDbXrecord
280
     1
270
     1
271
     1
  0
XRECORD
  5
B70
102
{ACAD_REACTORS
330
3E
102
}
330
3E
100
AcDbXrecord
280
     1
102
MATERIAL
148
0.0
149
0.0
149
0.0
 93
        0
 94
      127
282
     0
 72
     0
 77
     0
171
     0
175
     0
179
     0
273
     0
  0
XRECORD
  5
3F
102
{ACAD_REACTORS
330
3E
102
}
330
3E
100
AcDbXrecord
280
     1
270
     1
271
     1
  0
XRECORD
  5
40
102
{ACAD_REACTORS
330
3E
102
}
330
3E
100
AcDbXrecord
280
     1
270
     1
271
     1
  0
XRECORD
  5
41
102
{ACAD_REACTORS
330
3E
102
}
330
3E
100
AcDbXrecord
280
     1
270
     1
271
     1
  0
XRECORD
  5
42
102
{ACAD_REACTORS
330
3E
102
}
330
3E
100
AcDbXrecord
280
     1
270
     1
271
     1
  0
XRECORD
  5
43
102
{ACAD_REACTORS
330
3E
102
}
330
3E
100
AcDbXrecord
280
     1
270
     1
271
     1
  0
XRECORD
  5
44
102
{ACAD_REACTORS
330
3E
102
}
330
3E
100
AcDbXrecord
280
     1
270
     1
271
     1
  0
XRECORD
  5
B69
102
{ACAD_REACTORS
330
D
102
}
330
D
100
AcDbXrecord
280
     1
102
MATERIAL
148
0.0
149
0.0
149
0.0
 93
        0
 94
      127
282
     0
 72
     0
 77
     0
171
     0
175
     0
179
     0
273
     0
  0
XRECORD
  5
E
102
{ACAD_REACTORS
330
D
102
}
330
D
100
AcDbXrecord
280
     1
270
     1
271
     1
  0
XRECORD
  5
F
102
{ACAD_REACTORS
330
D
102
}
330
D
100
AcDbXrecord
280
     1
270
     1
271
     1
  0
XRECORD
  5
10
102
{ACAD_REACTORS
330
D
102
}
330
D
100
AcDbXrecord
280
     1
270
     1
271
     1
  0
XRECORD
  5
11
102
{ACAD_REACTORS
330
D
102
}
330
D
100
AcDbXrecord
280
     1
270
     1
271
     1
  0
XRECORD
  5
12
102
{ACAD_REACTORS
330
D
102
}
330
D
100
AcDbXrecord
280
     1
270
     1
271
     1
  0
XRECORD
  5
13
102
{ACAD_REACTORS
330
D
102
}
330
D
100
AcDbXrecord
280
     1
270
     1
271
     1
  0
CELLSTYLEMAP
  5
28EB
102
{ACAD_REACTORS
330
B00
102
}
330
B00
100
AcDbCellStyleMap
 90
        3
300
CELLSTYLE
  1
TABLEFORMAT_BEGIN
 90
        5
170
     1
 91
        0
 92
    32768
 62
   257
 93
        1
300
CONTENTFORMAT
  1
CONTENTFORMAT_BEGIN
 90
        0
 91
        0
 92
        4
 93
        0
300

 40
0.0
140
1.0
 94
        5
 62
     0
340
23
144
6.0
309
CONTENTFORMAT_END
171
     1
301
MARGIN
  1
CELLMARGIN_BEGIN
 40
1.5
 40
1.5
 40
1.5
 40
1.5
 40
0.18
 40
0.18
309
CELLMARGIN_END
 94
        6
 95
        1
302
GRIDFORMAT
  1
GRIDFORMAT_BEGIN
 90
        0
 91
        1
 62
     0
 92
       -2
340
0
 93
        0
 40
0.045
309
GRIDFORMAT_END
 95
        2
302
GRIDFORMAT
  1
GRIDFORMAT_BEGIN
 90
        0
 91
        1
 62
     0
 92
       -2
340
0
 93
        0
 40
0.045
309
GRIDFORMAT_END
 95
        4
302
GRIDFORMAT
  1
GRIDFORMAT_BEGIN
 90
        0
 91
        1
 62
     0
 92
       -2
340
0
 93
        0
 40
0.045
309
GRIDFORMAT_END
 95
        8
302
GRIDFORMAT
  1
GRIDFORMAT_BEGIN
 90
        0
 91
        1
 62
     0
 92
       -2
340
0
 93
        0
 40
0.045
309
GRIDFORMAT_END
 95
       16
302
GRIDFORMAT
  1
GRIDFORMAT_BEGIN
 90
        0
 91
        1
 62
     0
 92
       -2
340
0
 93
        0
 40
0.045
309
GRIDFORMAT_END
 95
       32
302
GRIDFORMAT
  1
GRIDFORMAT_BEGIN
 90
        0
 91
        1
 62
     0
 92
       -2
340
0
 93
        0
 40
0.045
309
GRIDFORMAT_END
309
TABLEFORMAT_END
  1
CELLSTYLE_BEGIN
 90
        1
 91
        1
300
_TITLE
309
CELLSTYLE_END
300
CELLSTYLE
  1
TABLEFORMAT_BEGIN
 90
        5
170
     1
 91
        0
 92
        0
 62
   257
 93
        1
300
CONTENTFORMAT
  1
CONTENTFORMAT_BEGIN
 90
        0
 91
        0
 92
        4
 93
        0
300

 40
0.0
140
1.0
 94
        5
 62
     0
340
23
144
4.5
309
CONTENTFORMAT_END
171
     1
301
MARGIN
  1
CELLMARGIN_BEGIN
 40
1.5
 40
1.5
 40
1.5
 40
1.5
 40
0.18
 40
0.18
309
CELLMARGIN_END
 94
        6
 95
        1
302
GRIDFORMAT
  1
GRIDFORMAT_BEGIN
 90
        0
 91
        1
 62
     0
 92
       -2
340
0
 93
        0
 40
0.045
309
GRIDFORMAT_END
 95
        2
302
GRIDFORMAT
  1
GRIDFORMAT_BEGIN
 90
        0
 91
        1
 62
     0
 92
       -2
340
0
 93
        0
 40
0.045
309
GRIDFORMAT_END
 95
        4
302
GRIDFORMAT
  1
GRIDFORMAT_BEGIN
 90
        0
 91
        1
 62
     0
 92
       -2
340
0
 93
        0
 40
0.045
309
GRIDFORMAT_END
 95
        8
302
GRIDFORMAT
  1
GRIDFORMAT_BEGIN
 90
        0
 91
        1
 62
     0
 92
       -2
340
0
 93
        0
 40
0.045
309
GRIDFORMAT_END
 95
       16
302
GRIDFORMAT
  1
GRIDFORMAT_BEGIN
 90
        0
 91
        1
 62
     0
 92
       -2
340
0
 93
        0
 40
0.045
309
GRIDFORMAT_END
 95
       32
302
GRIDFORMAT
  1
GRIDFORMAT_BEGIN
 90
        0
 91
        1
 62
     0
 92
       -2
340
0
 93
        0
 40
0.045
309
GRIDFORMAT_END
309
TABLEFORMAT_END
  1
CELLSTYLE_BEGIN
 90
        2
 91
        1
300
_HEADER
309
CELLSTYLE_END
300
CELLSTYLE
  1
TABLEFORMAT_BEGIN
 90
        5
170
     1
 91
        0
 92
        0
 62
   257
 93
        1
300
CONTENTFORMAT
  1
CONTENTFORMAT_BEGIN
 90
        0
 91
        0
 92
        4
 93
        0
300

 40
0.0
140
1.0
 94
        2
 62
     0
340
23
144
4.5
309
CONTENTFORMAT_END
171
     1
301
MARGIN
  1
CELLMARGIN_BEGIN
 40
1.5
 40
1.5
 40
1.5
 40
1.5
 40
0.18
 40
0.18
309
CELLMARGIN_END
 94
        6
 95
        1
302
GRIDFORMAT
  1
GRIDFORMAT_BEGIN
 90
        0
 91
        1
 62
     0
 92
       -2
340
0
 93
        0
 40
0.045
309
GRIDFORMAT_END
 95
        2
302
GRIDFORMAT
  1
GRIDFORMAT_BEGIN
 90
        0
 91
        1
 62
     0
 92
       -2
340
0
 93
        0
 40
0.045
309
GRIDFORMAT_END
 95
        4
302
GRIDFORMAT
  1
GRIDFORMAT_BEGIN
 90
        0
 91
        1
 62
     0
 92
       -2
340
0
 93
        0
 40
0.045
309
GRIDFORMAT_END
 95
        8
302
GRIDFORMAT
  1
GRIDFORMAT_BEGIN
 90
        0
 91
        1
 62
     0
 92
       -2
340
0
 93
        0
 40
0.045
309
GRIDFORMAT_END
 95
       16
302
GRIDFORMAT
  1
GRIDFORMAT_BEGIN
 90
        0
 91
        1
 62
     0
 92
       -2
340
0
 93
        0
 40
0.045
309
GRIDFORMAT_END
 95
       32
302
GRIDFORMAT
  1
GRIDFORMAT_BEGIN
 90
        0
 91
        1
 62
     0
 92
       -2
340
0
 93
        0
 40
0.045
309
GRIDFORMAT_END
309
TABLEFORMAT_END
  1
CELLSTYLE_BEGIN
 90
        3
 91
        2
300
_DATA
309
CELLSTYLE_END
  0
XRECORD
  5
28F3
102
{ACAD_REACTORS
330
B00
102
}
330
B00
100
AcDbXrecord
280
     1
102
ACAD_ROUNDTRIP_PRE2007_TABLESTYLE
 90
        4
 91
        0
  1

 92
        4
 93
        0
  2

 94
        4
 95
        0
  3

  0
ENDSEC
  0
EOF
