  0
SECTION
  2
HEADER
  9
$ACADVER
  1
AC1015
  9
$ACADMAINTVER
 70
    20
  9
$DWGCODEPAGE
  3
ANSI_932
  9
$INSBASE
 10
0.0
 20
0.0
 30
0.0
  9
$EXTMIN
 10
1667.333563074855
 20
-1596.933022526485
 30
-0.0000000349181948
  9
$EXTMAX
 10
2065.97142524735
 20
-1253.332919197301
 30
0.0000000814935747
  9
$LIMMIN
 10
0.0
 20
0.0
  9
$LIMMAX
 10
420.0
 20
297.0
  9
$ORTHOMODE
 70
     0
  9
$REGENMODE
 70
     1
  9
$FILLMODE
 70
     1
  9
$QTEXTMODE
 70
     0
  9
$MIRRTEXT
 70
     1
  9
$LTSCALE
 40
1.0
  9
$ATTMODE
 70
     1
  9
$TEXTSIZE
 40
43.66586864911549
  9
$TRACEWID
 40
1.0
  9
$TEXTSTYLE
  7
Standard
  9
$CLAYER
  8
SIZE
  9
$CELTYPE
  6
ByLayer
  9
$CECOLOR
 62
   256
  9
$CELTSCALE
 40
1.0
  9
$DISPSILH
 70
     0
  9
$DIMSCALE
 40
5.0
  9
$DIMASZ
 40
2.5
  9
$DIMEXO
 40
0.625
  9
$DIMDLI
 40
3.75
  9
$DIMRND
 40
0.5
  9
$DIMDLE
 40
0.0
  9
$DIMEXE
 40
1.25
  9
$DIMTP
 40
0.0
  9
$DIMTM
 40
0.0
  9
$DIMTXT
 40
2.5
  9
$DIMCEN
 40
2.5
  9
$DIMTSZ
 40
0.0
  9
$DIMTOL
 70
     0
  9
$DIMLIM
 70
     0
  9
$DIMTIH
 70
     0
  9
$DIMTOH
 70
     0
  9
$DIMSE1
 70
     0
  9
$DIMSE2
 70
     0
  9
$DIMTAD
 70
     1
  9
$DIMZIN
 70
     8
  9
$DIMBLK
  1
OPEN30
  9
$DIMASO
 70
     1
  9
$DIMSHO
 70
     1
  9
$DIMPOST
  1

  9
$DIMAPOST
  1

  9
$DIMALT
 70
     0
  9
$DIMALTD
 70
     3
  9
$DIMALTF
 40
0.03937007874016
  9
$DIMLFAC
 40
1.0
  9
$DIMTOFL
 70
     1
  9
$DIMTVP
 40
0.0
  9
$DIMTIX
 70
     0
  9
$DIMSOXD
 70
     0
  9
$DIMSAH
 70
     0
  9
$DIMBLK1
  1

  9
$DIMBLK2
  1

  9
$DIMSTYLE
  2
ISO-25
  9
$DIMCLRD
 70
     0
  9
$DIMCLRE
 70
     0
  9
$DIMCLRT
 70
     0
  9
$DIMTFAC
 40
1.0
  9
$DIMGAP
 40
0.625
  9
$DIMJUST
 70
     0
  9
$DIMSD1
 70
     0
  9
$DIMSD2
 70
     0
  9
$DIMTOLJ
 70
     0
  9
$DIMTZIN
 70
     8
  9
$DIMALTZ
 70
     0
  9
$DIMALTTZ
 70
     0
  9
$DIMUPT
 70
     0
  9
$DIMDEC
 70
     1
  9
$DIMTDEC
 70
     1
  9
$DIMALTU
 70
     2
  9
$DIMALTTD
 70
     3
  9
$DIMTXSTY
  7
Standard
  9
$DIMAUNIT
 70
     0
  9
$DIMADEC
 70
     0
  9
$DIMALTRND
 40
0.0
  9
$DIMAZIN
 70
     0
  9
$DIMDSEP
 70
    46
  9
$DIMATFIT
 70
     3
  9
$DIMFRAC
 70
     0
  9
$DIMLDRBLK
  1
DOTSMALL
  9
$DIMLUNIT
 70
     2
  9
$DIMLWD
 70
    -2
  9
$DIMLWE
 70
    -2
  9
$DIMTMOVE
 70
     0
  9
$LUNITS
 70
     2
  9
$LUPREC
 70
     2
  9
$SKETCHINC
 40
1.0
  9
$FILLETRAD
 40
10.0
  9
$AUNITS
 70
     0
  9
$AUPREC
 70
     0
  9
$MENU
  1
.
  9
$ELEVATION
 40
0.0
  9
$PELEVATION
 40
0.0
  9
$THICKNESS
 40
0.0
  9
$LIMCHECK
 70
     0
  9
$CHAMFERA
 40
10.0
  9
$CHAMFERB
 40
10.0
  9
$CHAMFERC
 40
20.0
  9
$CHAMFERD
 40
0.0
  9
$SKPOLY
 70
     0
  9
$TDCREATE
 40
2451686.550481944
  9
$TDUCREATE
 40
2451686.175481945
  9
$TDUPDATE
 40
2455888.599572292
  9
$TDUUPDATE
 40
2455888.224572292
  9
$TDINDWG
 40
1.9502385880
  9
$TDUSRTIMER
 40
1.9502358912
  9
$USRTIMER
 70
     1
  9
$ANGBASE
 50
0.0
  9
$ANGDIR
 70
     0
  9
$PDMODE
 70
     0
  9
$PDSIZE
 40
0.0
  9
$PLINEWID
 40
0.0
  9
$SPLFRAME
 70
     0
  9
$SPLINETYPE
 70
     6
  9
$SPLINESEGS
 70
     8
  9
$HANDSEED
  5
1762
  9
$SURFTAB1
 70
     6
  9
$SURFTAB2
 70
     6
  9
$SURFTYPE
 70
     6
  9
$SURFU
 70
     6
  9
$SURFV
 70
     6
  9
$UCSBASE
  2

  9
$UCSNAME
  2

  9
$UCSORG
 10
0.0
 20
0.0
 30
0.0
  9
$UCSXDIR
 10
1.0
 20
0.0
 30
0.0
  9
$UCSYDIR
 10
0.0
 20
1.0
 30
0.0
  9
$UCSORTHOREF
  2

  9
$UCSORTHOVIEW
 70
     0
  9
$UCSORGTOP
 10
0.0
 20
0.0
 30
0.0
  9
$UCSORGBOTTOM
 10
0.0
 20
0.0
 30
0.0
  9
$UCSORGLEFT
 10
0.0
 20
0.0
 30
0.0
  9
$UCSORGRIGHT
 10
0.0
 20
0.0
 30
0.0
  9
$UCSORGFRONT
 10
0.0
 20
0.0
 30
0.0
  9
$UCSORGBACK
 10
0.0
 20
0.0
 30
0.0
  9
$PUCSBASE
  2

  9
$PUCSNAME
  2

  9
$PUCSORG
 10
0.0
 20
0.0
 30
0.0
  9
$PUCSXDIR
 10
1.0
 20
0.0
 30
0.0
  9
$PUCSYDIR
 10
0.0
 20
1.0
 30
0.0
  9
$PUCSORTHOREF
  2

  9
$PUCSORTHOVIEW
 70
     0
  9
$PUCSORGTOP
 10
0.0
 20
0.0
 30
0.0
  9
$PUCSORGBOTTOM
 10
0.0
 20
0.0
 30
0.0
  9
$PUCSORGLEFT
 10
0.0
 20
0.0
 30
0.0
  9
$PUCSORGRIGHT
 10
0.0
 20
0.0
 30
0.0
  9
$PUCSORGFRONT
 10
0.0
 20
0.0
 30
0.0
  9
$PUCSORGBACK
 10
0.0
 20
0.0
 30
0.0
  9
$USERI1
 70
     0
  9
$USERI2
 70
     0
  9
$USERI3
 70
     0
  9
$USERI4
 70
     0
  9
$USERI5
 70
     0
  9
$USERR1
 40
0.0
  9
$USERR2
 40
0.0
  9
$USERR3
 40
0.0
  9
$USERR4
 40
0.0
  9
$USERR5
 40
0.0
  9
$WORLDVIEW
 70
     1
  9
$SHADEDGE
 70
     3
  9
$SHADEDIF
 70
    70
  9
$TILEMODE
 70
     1
  9
$MAXACTVP
 70
    48
  9
$PINSBASE
 10
0.0
 20
0.0
 30
0.0
  9
$PLIMCHECK
 70
     0
  9
$PEXTMIN
 10
-482.5570203788593
 20
-554.5000790420147
 30
0.0
  9
$PEXTMAX
 10
1228.446899927119
 20
810.2670212442529
 30
0.0
  9
$PLIMMIN
 10
0.0
 20
0.0
  9
$PLIMMAX
 10
12.0
 20
9.0
  9
$UNITMODE
 70
     0
  9
$VISRETAIN
 70
     1
  9
$PLINEGEN
 70
     0
  9
$PSLTSCALE
 70
     1
  9
$TREEDEPTH
 70
  3020
  9
$CMLSTYLE
  2
Standard
  9
$CMLJUST
 70
     0
  9
$CMLSCALE
 40
20.0
  9
$PROXYGRAPHICS
 70
     1
  9
$MEASUREMENT
 70
     1
  9
$CELWEIGHT
370
    -1
  9
$ENDCAPS
280
     0
  9
$JOINSTYLE
280
     0
  9
$LWDISPLAY
290
     0
  9
$INSUNITS
 70
     4
  9
$HYPERLINKBASE
  1

  9
$STYLESHEET
  1

  9
$XEDIT
290
     1
  9
$CEPSNTYPE
380
     0
  9
$PSTYLEMODE
290
     1
  9
$FINGERPRINTGUID
  2
{BCA838A6-D992-48E2-AB7F-FE3879482CE6}
  9
$VERSIONGUID
  2
{9B3E3966-1280-43F7-A6FA-EF54633292EC}
  9
$EXTNAMES
290
     1
  9
$PSVPSCALE
 40
0.0
  9
$OLESTARTUP
290
     0
  0
ENDSEC
  0
SECTION
  2
CLASSES
  0
CLASS
  1
ACDBDICTIONARYWDFLT
  2
AcDbDictionaryWithDefault
  3
ObjectDBX Classes
 90
        0
280
     0
281
     0
  0
CLASS
  1
ACDBPLACEHOLDER
  2
AcDbPlaceHolder
  3
ObjectDBX Classes
 90
        0
280
     0
281
     0
  0
CLASS
  1
LAYOUT
  2
AcDbLayout
  3
ObjectDBX Classes
 90
        0
280
     0
281
     0
  0
CLASS
  1
ACME_DOCUMENT
  2
AcMeDoc
  3
AcMeServices
 90
    32768
280
     1
281
     0
  0
CLASS
  1
ACMESTATEMGR
  2
AcMeStateMgr
  3
AcMeServices
 90
     1024
280
     0
281
     0
  0
CLASS
  1
ACMESCOPE
  2
AcMeScope
  3
AcMeServices
 90
     1024
280
     0
281
     0
  0
CLASS
  1
ACMECOMMANDHISTORY
  2
AcMeCommandHistory
  3
AcMeServices
 90
     1024
280
     0
281
     0
  0
CLASS
  1
ACRFINSADJUSTERMGR
  2
AcRfInsAdjusterMgr
  3
AcMeServices
 90
     1024
280
     0
281
     0
  0
CLASS
  1
DICTIONARYVAR
  2
AcDbDictionaryVar
  3
ObjectDBX Classes
 90
        0
280
     0
281
     0
  0
CLASS
  1
ACIMSYSVARMAN
  2
AcImSysVarManager
  3
AcMeServices
 90
     1024
280
     0
281
     0
  0
CLASS
  1
ACIMREALSYSVAR
  2
AcImRealSysVar
  3
AcMeServices
 90
     1024
280
     0
281
     0
  0
CLASS
  1
ACIMINTSYSVAR
  2
AcImIntSysVar
  3
AcMeServices
 90
     1024
280
     0
281
     0
  0
CLASS
  1
ACMEDRAWINGMAN
  2
AcMeDrawingMan
  3
AcMeServices
 90
     1024
280
     0
281
     0
  0
CLASS
  1
ACMEVIEW
  2
AcMeView
  3
AcMeServices
 90
     1024
280
     0
281
     0
  0
CLASS
  1
ACDBENTITYCACHE
  2
AcMeEntityCache
  3
AcMeServices
 90
     1024
280
     0
281
     0
  0
CLASS
  1
ACGREFMASTER
  2
AcGrefMaster
  3
AcAttribServices
 90
     1024
280
     0
281
     0
  0
CLASS
  1
AMIMASTER
  2
AmiMaster
  3
AmiServices
 90
     1024
280
     0
281
     0
  0
CLASS
  1
ACASGREFMASTER
  2
AcAsGrefMaster
  3
AutoSurfResolverServices
 90
     1024
280
     0
281
     0
  0
CLASS
  1
ADAPPL
  2
AcAdAppl
  3
DesignerServices
 90
     1024
280
     0
281
     0
  0
CLASS
  1
DEPMGR
  2
AcAdDepMgr
  3
DesignerServices
 90
     1024
280
     0
281
     0
  0
CLASS
  1
PARAMMGR
  2
AcAdParamMgr
  3
DesignerServices
 90
     1024
280
     0
281
     0
  0
CLASS
  1
PARAMSCOPE
  2
AcAdParamScope
  3
DesignerServices
 90
     1024
280
     0
281
     0
  0
CLASS
  1
ACIMSTRSYSVAR
  2
AcImStrSysVar
  3
AcMeServices
 90
     1024
280
     0
281
     0
  0
CLASS
  1
NAMEDAPPL
  2
AcAdNamedAppl
  3
DesignerServices
 90
     1024
280
     0
281
     0
  0
CLASS
  1
ADHNTMPLT
  2
AdHoleNoteTemplateMgr
  3
DesignerServices
 90
    33792
280
     0
281
     0
  0
CLASS
  1
AM_HNTEMPLATE_MGR_NAME
  2
AdHoleNoteTemplateMgrName
  3
DesignerServices
 90
    33792
280
     0
281
     0
  0
CLASS
  1
ACADGREFMODULE
  2
AcAdGrefModule
  3
AdGrefServices
 90
     1024
280
     0
281
     0
  0
CLASS
  1
AM_DRAWING_MGR
  2
AcDmDwgMgr
  3
AcMechDwgViewMgmt
 90
     1024
280
     0
281
     0
  0
CLASS
  1
AM_DWG_DOCUMENT
  2
AcDmDwgDocument
  3
AcMechDwgViewMgmt
 90
     1024
280
     0
281
     0
  0
CLASS
  1
AM_DWG_SHEET
  2
AcDmSheet
  3
AcMechDwgViewMgmt
 90
     1024
280
     0
281
     0
  0
CLASS
  1
AM_VIEWDIMPARMAP
  2
AcDmViewDimParMap
  3
AcMechDwgViewMgmt
 90
     1024
280
     0
281
     0
  0
CLASS
  1
AM_DWGMGR_NAME
  2
AcDmDwgMgrName
  3
AcMechDwgViewMgmt
 90
     1024
280
     0
281
     0
  0
CLASS
  1
ACAMPROJECT
  2
AcAmProject
  3
DesignerAssemblies
 90
     1024
280
     0
281
     0
  0
CLASS
  1
ACAMGRCOMPSET
  2
AcAmGrCompSet
  3
DesignerAssemblies
 90
    32768
280
     1
281
     0
  0
CLASS
  1
ACAMGRCOMPDEFSET
  2
AcAmGrCompDefSet
  3
DesignerAssemblies
 90
     1024
280
     0
281
     0
  0
CLASS
  1
ACAMGRCOMPDEF
  2
AcAmGrCompDef
  3
DesignerAssemblies
 90
     1024
280
     0
281
     0
  0
CLASS
  1
ACCMCONTEXT
  2
AcCmContext
  3
DesignerAssemblies
 90
     1024
280
     0
281
     0
  0
CLASS
  1
ACAMCOMPDEF
  2
AcAmCompDef
  3
DesignerAssemblies
 90
     1024
280
     0
281
     0
  0
CLASS
  1
ACAMCOMPDEFMGR
  2
AcAmCompDefMgr
  3
DesignerAssemblies
 90
     1024
280
     0
281
     0
  0
CLASS
  1
AMCONTEXTMGR
  2
AcAmContextMgr
  3
DesignerAssemblies
 90
     1024
280
     0
281
     0
  0
CLASS
  1
ACAMCONTEXTMODELER
  2
AcAmContextModeler
  3
DesignerAssemblies
 90
     1024
280
     0
281
     0
  0
CLASS
  1
ACMDATADICTIONARY
  2
AcmDataDictionary
  3
"AcmSymBB|Product Description: AutoCAD Mechanical|Company: Autodesk, Inc."
 90
     1024
280
     0
281
     0
  0
CLASS
  1
ACMDATAENTRYBLOCK
  2
AcmDataEntryBlock
  3
AcmSymBB|Product Description: AutoCAD Mechanical|Company: Autodesk, Inc.
 90
     1024
280
     0
281
     0
  0
CLASS
  1
ACDMVIEWGEOM
  2
AcDmViewGeometry
  3
AcMechDwgViewMgmt
 90
    33792
280
     0
281
     1
  0
CLASS
  1
CBROWSERAPPOBJECT
  2
CBrowserAppObject
  3
McadcomServices
 90
     1024
280
     0
281
     0
  0
CLASS
  1
IM_STATIC_MAN
  2
AcImStaticVarManager
  3
AcMeServices
 90
     1024
280
     0
281
     0
  0
CLASS
  1
ASAPP
  2
AcAsAppObject
  3
AutoSurfServices
 90
     1024
280
     0
281
     0
  0
CLASS
  1
ACIMDBLSTATICVAR
  2
AcImDblStaticVar
  3
AcMeServices
 90
     1024
280
     0
281
     0
  0
CLASS
  1
ACIMSTRSTATICVAR
  2
AcImStrStaticVar
  3
AcMeServices
 90
     1024
280
     0
281
     0
  0
CLASS
  1
ACIMINTSTATICVAR
  2
AcImIntStaticVar
  3
AcMeServices
 90
     1024
280
     0
281
     0
  0
CLASS
  1
CATALOGSTATE
  2
AcAmCatalogState
  3
DesignerAssemblies
 90
     1024
280
     0
281
     0
  0
CLASS
  1
DM_PLACEHOLDER
  2
AcDmSelsetPlaceholder
  3
AcMechDwgViewMgmt
 90
     1024
280
     0
281
     0
  0
CLASS
  1
LAYER_INDEX
  2
AcDbLayerIndex
  3
ObjectDBX Classes
 90
        0
280
     0
281
     0
  0
CLASS
  1
IDBUFFER
  2
AcDbIdBuffer
  3
ObjectDBX Classes
 90
        0
280
     0
281
     0
  0
CLASS
  1
ACAMEXTERNALCOMPDEF
  2
AcAmExternalCompDef
  3
DesignerAssemblies
 90
    33792
280
     0
281
     0
  0
CLASS
  1
ACCMBODY
  2
AcCmBody
  3
DesignerAssemblies
 90
    33792
280
     0
281
     0
  0
CLASS
  1
ACAMGRCOMP
  2
AcAmGrComp
  3
DesignerAssemblies
 90
    33792
280
     0
281
     0
  0
CLASS
  1
ACAMCOMPFEEDBACK
  2
AcAmCompFeedback
  3
DesignerAssemblies
 90
    33792
280
     0
281
     0
  0
CLASS
  1
ACAMCOMP
  2
AcAmComp
  3
DesignerAssemblies
 90
    33792
280
     0
281
     0
  0
CLASS
  1
ACAMGRCOMPCLONE
  2
AcAmGrCompClone
  3
DesignerAssemblies
 90
    33792
280
     0
281
     0
  0
CLASS
  1
ACAMCLONEREACTOR
  2
AcAmGrCompCloneReactor
  3
DesignerAssemblies
 90
    33792
280
     0
281
     0
  0
CLASS
  1
AGDICTIONARY
  2
AgDictionary
  3
AccelView
 90
    33793
280
     0
281
     0
  0
CLASS
  1
EDGEID
  2
AcAdEdgeId
  3
DesignerServices
 90
    33792
280
     0
281
     0
  0
CLASS
  1
ACADPARTLINEDGRES
  2
AcAdPartLinEdgRes
  3
AdGrefServices
 90
    33792
280
     0
281
     0
  0
CLASS
  1
ACRFINSADJ
  2
AcRfInsAdjuster
  3
AcMeServices
 90
    33792
280
     0
281
     0
  0
CLASS
  1
STREFID
  2
AcAdStraightRefId
  3
DesignerServices
 90
    33792
280
     0
281
     0
  0
CLASS
  1
ACMEAXIS
  2
AcImAxisDisplay
  3
AcMeServices
 90
    33792
280
     0
281
     1
  0
CLASS
  1
FACEID
  2
AcAdFaceId
  3
DesignerServices
 90
    33792
280
     0
281
     0
  0
CLASS
  1
DEPEDGESECONDARYDEPID
  2
AcAdDepEdgeSecondaryDepId
  3
DesignerServices
 90
    33792
280
     0
281
     0
  0
CLASS
  1
ACADPARTPLANARFACERES
  2
AcAdPartPlanarFaceRes
  3
AdGrefServices
 90
    33792
280
     0
281
     0
  0
CLASS
  1
ACMEPOINT
  2
AcImPointDisplay
  3
AcMeServices
 90
    33792
280
     0
281
     1
  0
CLASS
  1
ACMELINEARARROW
  2
AcImLinearArrowDisplay
  3
AcMeServices
 90
    33792
280
     0
281
     1
  0
CLASS
  1
ACAMEXPR
  2
AcAmExpr
  3
DesignerAssemblies
 90
    33792
280
     0
281
     0
  0
CLASS
  1
ACCMDISTPLPL
  2
AcCmDistPlPl
  3
DesignerAssemblies
 90
    33792
280
     0
281
     0
  0
CLASS
  1
ACCMCONSTREACTOR
  2
AcCmConstraintReactor
  3
DesignerAssemblies
 90
    33792
280
     0
281
     0
  0
CLASS
  1
ACAMVIEWENTITYFILTER
  2
AcAmViewEntityFilter
  3
DesignerAssemblies
 90
    33792
280
     0
281
     0
  0
CLASS
  1
ACAMGRBLOCKRECORD
  2
AcAmGrBlockRecord
  3
DesignerAssemblies
 90
    33792
280
     0
281
     0
  0
CLASS
  1
ACAMVIEWREACTOR
  2
AcAmViewReactor
  3
DesignerAssemblies
 90
    33792
280
     0
281
     0
  0
CLASS
  1
AMVIEW
  2
AcAmView
  3
DesignerAssemblies
 90
    33792
280
     0
281
     0
  0
CLASS
  1
ACAMVIEWCONTEXT
  2
AcAmViewContext
  3
DesignerAssemblies
 90
    33792
280
     0
281
     0
  0
CLASS
  1
ACAMCOMPVIEWREACTOR
  2
AcAmGrCompViewReactor
  3
DesignerAssemblies
 90
    33792
280
     0
281
     0
  0
CLASS
  1
ACAMGRCOMPVIEW
  2
AcAmGrCompView
  3
DesignerAssemblies
 90
    33792
280
     0
281
     0
  0
CLASS
  1
SURFACEID
  2
AcAdSurfaceId
  3
DesignerServices
 90
    33792
280
     0
281
     0
  0
CLASS
  1
AM_GREF_PLANE
  2
AcDmGrefPlnDef
  3
AcMechDwgViewMgmt
 90
    33792
280
     0
281
     0
  0
CLASS
  1
AM_GREF_AXIS
  2
AcDmGrefAxisDef
  3
AcMechDwgViewMgmt
 90
    33792
280
     0
281
     0
  0
CLASS
  1
AM_BASE_VIEW_ORIENT
  2
AcDmBaseViewOr
  3
AcMechDwgViewMgmt
 90
    33792
280
     0
281
     0
  0
CLASS
  1
AM_DWG_VIEWPORT
  2
AcDmViewport
  3
AcMechDwgViewMgmt
 90
    33792
280
     0
281
     0
  0
CLASS
  1
AM_VIEW_DISPLAY
  2
AcDmDwgViewDisplay
  3
AcMechDwgViewMgmt
 90
    33792
280
     0
281
     0
  0
CLASS
  1
AM_BASE_VIEW
  2
AcDmBaseView
  3
AcMechDwgViewMgmt
 90
    33792
280
     0
281
     0
  0
CLASS
  1
ACDMVWEDLINE
  2
AcDmViewEdgeLine
  3
AcMechDwgViewMgmt
 90
    33792
280
     0
281
     1
  0
CLASS
  1
ACDMVWEDARC
  2
AcDmViewEdgeArc
  3
AcMechDwgViewMgmt
 90
    33792
280
     0
281
     1
  0
CLASS
  1
ACDMVWEDCIRC
  2
AcDmViewEdgeCircle
  3
AcMechDwgViewMgmt
 90
    33792
280
     0
281
     1
  0
CLASS
  1
AM_ORTHO_VIEW_ORIENT
  2
AcDmOrthoViewOr
  3
AcMechDwgViewMgmt
 90
    33792
280
     0
281
     0
  0
CLASS
  1
AM_ORTHO_VIEW
  2
AcDmOrthoView
  3
AcMechDwgViewMgmt
 90
    33792
280
     0
281
     0
  0
CLASS
  1
CNRREFID
  2
AcAdCornerId
  3
DesignerServices
 90
    33792
280
     0
281
     0
  0
CLASS
  1
ACADPARTPOINTRES
  2
AcAdPartPointRes
  3
AdGrefServices
 90
    33792
280
     0
281
     0
  0
CLASS
  1
AM_VIEWDIMLINEAR
  2
AcDmViewDimLinear
  3
AcMechDwgViewMgmt
 90
    33792
280
     0
281
     0
  0
CLASS
  1
ACADPARTCIRCEDGRES
  2
AcAdPartCircEdgRes
  3
AdGrefServices
 90
    33792
280
     0
281
     0
  0
CLASS
  1
CIRREFID
  2
AcAdCircleRefId
  3
DesignerServices
 90
    33792
280
     0
281
     0
  0
CLASS
  1
ACADPARTCYLINDERFACERES
  2
AcAdPartCylinderFaceRes
  3
AdGrefServices
 90
    33792
280
     0
281
     0
  0
CLASS
  1
ACCMDISTLNLN
  2
AcCmDistLnLn
  3
DesignerAssemblies
 90
    33792
280
     0
281
     0
  0
CLASS
  1
ACMECIRCARC
  2
AcImCircArcDisplay
  3
AcMeServices
 90
    33792
280
     0
281
     1
  0
CLASS
  1
ACCMDISTPTLN
  2
AcCmDistPtLn
  3
DesignerAssemblies
 90
    33792
280
     0
281
     0
  0
CLASS
  1
ACRFATTGENMGR
  2
AcRfAttGeneralMgr
  3
AcAttribServices
 90
     1024
280
     0
281
     0
  0
CLASS
  1
FEEDBACK
  2
AcAmFeedback
  3
DesignerAssemblies
 90
    33792
280
     0
281
     1
  0
CLASS
  1
ACAMTRIAXISSYMBOL
  2
AcAmTriAxisSymbol
  3
DesignerAssemblies
 90
    33792
280
     0
281
     0
  0
CLASS
  1
ACAMROTAXISSYMBOL
  2
AcAmRotAxisSymbol
  3
DesignerAssemblies
 90
    33792
280
     0
281
     0
  0
CLASS
  1
ACAMTEXTCIRCLESYMBOL
  2
AcAmTextCircleSymbol
  3
DesignerAssemblies
 90
    33792
280
     0
281
     0
  0
CLASS
  1
ACCMTANCLCL
  2
AcCmTanClCl
  3
AcCmServices
 90
    33792
280
     0
281
     0
  0
CLASS
  1
ACCMANGVECVEC
  2
AcCmAngVecVec
  3
DesignerAssemblies
 90
    33792
280
     0
281
     0
  0
CLASS
  1
ACMEROTATIONARROW
  2
AcImRotationArrowDisplay
  3
AcMeServices
 90
    33792
280
     0
281
     1
  0
CLASS
  1
ACDMVWEDSPLINE
  2
AcDmViewEdgeSpline
  3
AcMechDwgViewMgmt
 90
    33792
280
     0
281
     1
  0
CLASS
  1
SILEDGEID
  2
AcAdSilhouetteEdgeId
  3
DesignerServices
 90
    33792
280
     0
281
     0
  0
CLASS
  1
ACAMVECTORSYMBOL
  2
AcAmVectorSymbol
  3
DesignerAssemblies
 90
    33792
280
     0
281
     0
  0
CLASS
  1
ACCMTANCLPL
  2
AcCmTanClPl
  3
AcCmServices
 90
    33792
280
     0
281
     0
  0
CLASS
  1
AM_VIEW_SELECT_FILTER
  2
AcDmSelectViewEntFilter
  3
AcMechDwgViewMgmt
 90
    33792
280
     0
281
     0
  0
CLASS
  1
ACME_DATABASE
  2
AcMeDbDatabase
  3
AcMeServices
 90
     1024
280
     0
281
     0
  0
CLASS
  1
ACME_DOCUMENT
  2
AcMeDbDoc
  3
AcMeServices
 90
     1024
280
     0
281
     0
  0
CLASS
  1
AMGSETTINGSOBJ
  2
AmgSettingsObj
  3
"AcadM|Product Description: AutoCAD Mechanical|Company: Autodesk, Inc."
 90
     1024
280
     0
281
     0
  0
CLASS
  1
GSMANAGER
  2
AcMeGSManager
  3
AcMeServices
 90
     1024
280
     0
281
     0
  0
CLASS
  1
AMDTINTERNALREACTOR
  2
AmdtInternalReactor
  3
AcMeServices
 90
     1024
280
     0
281
     0
  0
CLASS
  1
ACGREFACADMASTER
  2
AcGrefacadMaster
  3
AcGrefServices
 90
     1024
280
     0
281
     0
  0
CLASS
  1
AMDTMENUSTATEMGR
  2
AmdtMenuStateMgr
  3
McadcomServices
 90
     1024
280
     0
281
     0
  0
CLASS
  1
AMDTMCOMMENUSTATE
  2
AmdtMcomMenuState
  3
McadcomServices
 90
     1024
280
     0
281
     0
  0
CLASS
  1
MAPIAMMOUDLE
  2
MApiAmModule
  3
MApiAmServices
 90
     1024
280
     0
281
     0
  0
CLASS
  1
AMDTDMMENUSTATE
  2
AmdtDmMenuState
  3
AcMechDwgViewMgmt
 90
     1024
280
     0
281
     0
  0
CLASS
  1
AMDTADMENUSTATE
  2
AmdtAdMenuState
  3
DesignerServices
 90
     1024
280
     0
281
     0
  0
CLASS
  1
AMDTAMMENUSTATE
  2
AmdtAmMenuState
  3
DesignerAssemblies
 90
     1024
280
     0
281
     0
  0
CLASS
  1
MAPIADMODULE
  2
MApiAdModule
  3
MApiAdServices
 90
     1024
280
     0
281
     0
  0
CLASS
  1
ACAMCOMPENT
  2
AcAmCompEnt
  3
DesignerAssemblies
 90
    33792
280
     0
281
     1
  0
CLASS
  1
ACAMCOMPENTCLONE
  2
AcAmCompEntClone
  3
DesignerAssemblies
 90
    33792
280
     0
281
     1
  0
CLASS
  1
ACAMCOMPENTVIEW
  2
AcAmCompEntView
  3
DesignerAssemblies
 90
    33792
280
     0
281
     1
  0
CLASS
  1
AM_CLDFLTS
  2
AcDmClDflts
  3
AcMechDwgViewMgmt
 90
    33792
280
     0
281
     0
  0
CLASS
  1
AMDTBROWSERDBTAB
  2
AmdtBrowserDbTab
  3
McadcomServices
 90
     1024
280
     0
281
     0
  0
CLASS
  1
AMGOBJPROPCFG
  2
AmgObjPropCfg
  3
"AmgLay|Product Description: AutoCAD Mechanical|Company: Autodesk, Inc."
 90
     1025
280
     0
281
     0
  0
CLASS
  1
ACDMVWEDELLIPSE
  2
AcDmViewEdgeEllipse
  3
AcMechDwgViewMgmt
 90
    33792
280
     0
281
     1
  0
CLASS
  1
ACAMGFILTERDAT
  2
AcAmgFilterDat
  3
"AcadM|Product Description: AutoCAD Mechanical|Company: Autodesk, Inc."
 90
     1024
280
     0
281
     0
  0
CLASS
  1
AMDTMAPISURFMOUDULE
  2
AmdtMApiSurfModule
  3
MApiSurfServices
 90
     1024
280
     0
281
     0
  0
CLASS
  1
ACDMPARTVIEWDATA
  2
AcDmPartViewData
  3
AcMechDwgViewMgmt
 90
    33792
280
     0
281
     0
  0
CLASS
  1
ACDMDISPLAYATTRIBS
  2
AcDmDisplayAttribs
  3
AcMechDwgViewMgmt
 90
    33792
280
     0
281
     0
  0
CLASS
  1
ACDMBODYINSTANCEDATA
  2
AcDmBodyInstanceData
  3
AcMechDwgViewMgmt
 90
    33792
280
     0
281
     0
  0
CLASS
  1
ACMSTANDARDISO
  2
AcmStandardISO
  3
"Amdt_StdImp|Product Description: AutoCAD Mechanical|Company: Autodesk, Inc."
 90
     1024
280
     0
281
     0
  0
CLASS
  1
AMDTEDGESTANDARDISO
  2
AmdtEdgeStdISO
  3
"Amdt_StdImp|Product Description: AutoCAD Mechanical|Company: Autodesk, Inc."
 90
    33792
280
     0
281
     0
  0
CLASS
  1
ACMSURFSTANDARDISO
  2
AcmSurfTextStdISO
  3
"Amdt_StdImp|Product Description: AutoCAD Mechanical|Company: Autodesk, Inc."
 90
    33792
280
     0
281
     0
  0
CLASS
  1
ACMFCFSTANDARDISO
  2
AcmFCFStdISO
  3
"Amdt_StdImp|Product Description: AutoCAD Mechanical|Company: Autodesk, Inc."
 90
     1024
280
     0
281
     0
  0
CLASS
  1
ACMWELDSTANDARDISO
  2
AcmWeldingStdISO
  3
"Amdt_StdImp|Product Description: AutoCAD Mechanical|Company: Autodesk, Inc."
 90
     1024
280
     0
281
     0
  0
CLASS
  1
ACMIDSTANDARDISO
  2
AcmIdStdISO
  3
"Amdt_StdImp|Product Description: AutoCAD Mechanical|Company: Autodesk, Inc."
 90
     1024
280
     0
281
     0
  0
CLASS
  1
ACMDATUMSTANDARDISO
  2
AcmDatumStdISO
  3
"Amdt_StdImp|Product Description: AutoCAD Mechanical|Company: Autodesk, Inc."
 90
     1024
280
     0
281
     0
  0
CLASS
  1
ACMBOMSTANDARDISO
  2
AcmBOMStdISO
  3
"Amdt_StdImp|Product Description: AutoCAD Mechanical|Company: Autodesk, Inc."
 90
     1024
280
     0
281
     0
  0
CLASS
  1
ACMDETAILSTANDARDISO
  2
AmdtDetailSymStdISO
  3
"Amdt_StdImp|Product Description: AutoCAD Mechanical|Company: Autodesk, Inc."
 90
     1024
280
     0
281
     0
  0
CLASS
  1
ACMSECTIONSTANDARDISO
  2
AmdtSectionSymStdISO
  3
"Amdt_StdImp|Product Description: AutoCAD Mechanical|Company: Autodesk, Inc."
 90
    33792
280
     0
281
     0
  0
CLASS
  1
ACMCENTERLINESTANDARDISO
  2
AmdtCenterLineStdISO
  3
"Amdt_StdImp|Product Description: AutoCAD Mechanical|Company: Autodesk, Inc."
 90
     1024
280
     0
281
     0
  0
CLASS
  1
ACMTHREADLINESTANDARDISO
  2
AmdtThreadLineStdISO
  3
"Amdt_StdImp|Product Description: AutoCAD Mechanical|Company: Autodesk, Inc."
 90
     1024
280
     0
281
     0
  0
CLASS
  1
ACAMGLAYSTD
  2
AcAmgLayStd
  3
"AmgLay|Product Description: AutoCAD Mechanical|Company: Autodesk, Inc."
 90
     1024
280
     0
281
     0
  0
CLASS
  1
ACAMGDIMSTD
  2
AcAmgDimStd
  3
"AmgDim|Product Description: AutoCAD Mechanical|Company: Autodesk, Inc."
 90
     1024
280
     0
281
     0
  0
CLASS
  1
ACAMGTITLESTD
  2
AcAmgTitleStd
  3
"AmgTitle|Product Description: AutoCAD Mechanical|Company: Autodesk, Inc."
 90
     4095
280
     0
281
     0
  0
CLASS
  1
AMDTFORMULAUPDATEDISPATCHER
  2
AmdtFormulaUpdateDispatcher
  3
AcMeServices
 90
    33792
280
     0
281
     0
  0
CLASS
  1
PARAM
  2
AcAdParam
  3
DesignerServices
 90
    33792
280
     0
281
     0
  0
CLASS
  1
ACMEPLINE
  2
AcImPlineDisplay
  3
AcMeServices
 90
    33792
280
     0
281
     1
  0
CLASS
  1
ACCMDISTLNPL
  2
AcCmDistLnPl
  3
AcCmServices
 90
    33792
280
     0
281
     0
  0
CLASS
  1
ACCMDISTPTPL
  2
AcCmDistPtPl
  3
DesignerAssemblies
 90
    33792
280
     0
281
     0
  0
CLASS
  1
ACMNOTESTANDARDISO
  2
AmdtNoteStdISO
  3
"Amdt_StdImp|Product Description: AutoCAD Mechanical|Company: Autodesk, Inc."
 90
     1024
280
     0
281
     0
  0
CLASS
  1
AMDTNOTETEMPLATEDB
  2
AmdtNoteTemplateDB
  3
AcmSymBB|Product Description: AutoCAD Mechanical|Company: Autodesk, Inc.
 90
     1024
280
     0
281
     0
  0
CLASS
  1
TABLESTYLE
  2
AcDbTableStyle
  3
ObjectDBX Classes
 90
     4095
280
     0
281
     0
  0
CLASS
  1
AM_ABS_AXIS
  2
AcDmAbsAxisDef
  3
AcMechDwgViewMgmt
 90
    33792
280
     0
281
     0
  0
CLASS
  1
AM_ABS_PLANE
  2
AcDmAbsPlnDef
  3
AcMechDwgViewMgmt
 90
    33792
280
     0
281
     0
  0
CLASS
  1
AM_VIEW_GROUP_FILTER
  2
AcDmGroupViewEntFilter
  3
AcMechDwgViewMgmt
 90
    33792
280
     0
281
     0
  0
CLASS
  1
ACMSTANDARDJIS
  2
AcmStandardJIS
  3
"Amdt_StdImp|Product Description: AutoCAD Mechanical|Company: Autodesk, Inc."
 90
    33792
280
     0
281
     0
  0
CLASS
  1
ACMSURFSTANDARDJIS
  2
AcmSurfTextStdJIS
  3
"Amdt_StdImp|Product Description: AutoCAD Mechanical|Company: Autodesk, Inc."
 90
    33792
280
     0
281
     0
  0
CLASS
  1
ACMFCFSTANDARDJIS
  2
AcmFCFStdJIS
  3
"Amdt_StdImp|Product Description: AutoCAD Mechanical|Company: Autodesk, Inc."
 90
    33792
280
     0
281
     0
  0
CLASS
  1
ACMWELDSTANDARDJIS
  2
AcmWeldingStdJIS
  3
"Amdt_StdImp|Product Description: AutoCAD Mechanical|Company: Autodesk, Inc."
 90
    33792
280
     0
281
     0
  0
CLASS
  1
ACMIDSTANDARDJIS
  2
AcmIdStdJIS
  3
"Amdt_StdImp|Product Description: AutoCAD Mechanical|Company: Autodesk, Inc."
 90
    33792
280
     0
281
     0
  0
CLASS
  1
ACMDATUMSTANDARDJIS
  2
AcmDatumStdJIS
  3
"Amdt_StdImp|Product Description: AutoCAD Mechanical|Company: Autodesk, Inc."
 90
    33792
280
     0
281
     0
  0
CLASS
  1
ACMBOMSTANDARDJIS
  2
AcmBOMStdJIS
  3
"Amdt_StdImp|Product Description: AutoCAD Mechanical|Company: Autodesk, Inc."
 90
    33792
280
     0
281
     0
  0
CLASS
  1
ACMDETAILSTANDARDJIS
  2
AmdtDetailSymStdJIS
  3
"Amdt_StdImp|Product Description: AutoCAD Mechanical|Company: Autodesk, Inc."
 90
    33792
280
     0
281
     0
  0
CLASS
  1
ACMSECTIONSTANDARDJIS
  2
AmdtSectionSymStdJIS
  3
"Amdt_StdImp|Product Description: AutoCAD Mechanical|Company: Autodesk, Inc."
 90
    33792
280
     0
281
     0
  0
CLASS
  1
ACMCENTERLINESTANDARDJIS
  2
AmdtCenterLineStdJIS
  3
"Amdt_StdImp|Product Description: AutoCAD Mechanical|Company: Autodesk, Inc."
 90
    33792
280
     0
281
     0
  0
CLASS
  1
ACMTHREADLINESTANDARDJIS
  2
AmdtThreadLineStdJIS
  3
"Amdt_StdImp|Product Description: AutoCAD Mechanical|Company: Autodesk, Inc."
 90
    33792
280
     0
281
     0
  0
CLASS
  1
ACMNOTESTANDARDJIS
  2
AmdtNoteStdJIS
  3
"Amdt_StdImp|Product Description: AutoCAD Mechanical|Company: Autodesk, Inc."
 90
    33792
280
     0
281
     0
  0
CLASS
  1
MATERIAL
  2
AcDbMaterial
  3
ObjectDBX Classes
 90
     1153
280
     0
281
     0
  0
CLASS
  1
VISUALSTYLE
  2
AcDbVisualStyle
  3
ObjectDBX Classes
 90
     4095
280
     0
281
     0
  0
CLASS
  1
SCALE
  2
AcDbScale
  3
ObjectDBX Classes
 90
     1153
280
     0
281
     0
  0
CLASS
  1
MLEADERSTYLE
  2
AcDbMLeaderStyle
  3
ACDB_MLEADERSTYLE_CLASS
 90
     4095
280
     0
281
     0
  0
CLASS
  1
EXACTERMXREFMAP
  2
ExAcTermXrefMap
  3
EXAC_SERVICE
 90
    33793
280
     0
281
     0
  0
CLASS
  1
NPOCOLLECTION
  2
AcDbImpNonPersistentObjectsCollection
  3
ObjectDBX Classes
 90
     1153
280
     0
281
     0
  0
CLASS
  1
ACMTAPERSTANDARDISO
  2
AcmTaperStdISO
  3
"Amdt_StdImp|Product Description: AutoCAD Mechanical|Company: Autodesk, Inc."
 90
     1024
280
     0
281
     0
  0
CLASS
  1
ACMANOOTATIONVIEWSTANDARDISO
  2
AmdtAnViewStdISO
  3
"Amdt_StdImp|Product Description: AutoCAD Mechanical|Company: Autodesk, Inc."
 90
     1024
280
     0
281
     0
  0
CLASS
  1
ACMTAPERSTANDARDJIS
  2
AcmTaperStdJIS
  3
"Amdt_StdImp|Product Description: AutoCAD Mechanical|Company: Autodesk, Inc."
 90
    33792
280
     0
281
     0
  0
CLASS
  1
ACMANOOTATIONVIEWSTANDARDJIS
  2
AmdtAnViewStdJIS
  3
"Amdt_StdImp|Product Description: AutoCAD Mechanical|Company: Autodesk, Inc."
 90
    33792
280
     0
281
     0
  0
CLASS
  1
SOLID_BACKGROUND
  2
AcDbSolidBackground
  3
SCENEOE
 90
     4095
280
     0
281
     0
  0
CLASS
  1
AM_ADCIRCTRLINE
  2
AcAdBullsEyeCl
  3
DesignerServices
 90
    33792
280
     0
281
     0
  0
CLASS
  1
AM_ADLINCTRLINE
  2
AcAdLineCl
  3
DesignerServices
 90
    33792
280
     0
281
     0
  0
CLASS
  1
CELLSTYLEMAP
  2
AcDbCellStyleMap
  3
ObjectDBX Classes
 90
     1152
280
     0
281
     0
  0
CLASS
  1
MULTILEADER
  2
AcDbMLeader
  3
ACDB_MLEADER_CLASS
 90
     1025
280
     0
281
     1
  0
CLASS
  1
ACRFOBJATTMGR
  2
AcRfObjAttGroupMgr
  3
AcAttribServices
 90
     1024
280
     0
281
     0
  0
CLASS
  1
ACRFMCADAPIATTHOLDER
  2
AcRfMCADAPIAttHolder
  3
AcAttribServices
 90
     1024
280
     0
281
     0
  0
CLASS
  1
AMDTSYSATTR
  2
AmdtSystemAttribute
  3
AcAttribServices
 90
     1024
280
     0
281
     0
  0
CLASS
  1
AMDTEDGESTANDARDISO13715
  2
AmdtEdgeStdISO13715
  3
"Amdt_StdImp|Product Description: AutoCAD Mechanical|Company: Autodesk, Inc."
 90
     1024
280
     0
281
     0
  0
CLASS
  1
ACMSURFSTANDARDISO2002
  2
AcmSurfTextStdISO2002
  3
"Amdt_StdImp|Product Description: AutoCAD Mechanical|Company: Autodesk, Inc."
 90
     1024
280
     0
281
     0
  0
CLASS
  1
ACMSECTIONSTANDARDISO2001
  2
AmdtSectionSymStdISO2001
  3
"Amdt_StdImp|Product Description: AutoCAD Mechanical|Company: Autodesk, Inc."
 90
     1024
280
     0
281
     0
  0
CLASS
  1
ACAMGHOLECHARTSTDISO
  2
AcAmgHoleChartStdISO
  3
AmgDim|Product Description: AutoCAD Mechanical|Company: Autodesk, Inc.
 90
     1024
280
     0
281
     0
  0
CLASS
  1
SORTENTSTABLE
  2
AcDbSortentsTable
  3
ObjectDBX Classes
 90
        0
280
     0
281
     0
  0
ENDSEC
  0
SECTION
  2
TABLES
  0
TABLE
  2
VPORT
  5
29
330
0
100
AcDbSymbolTable
 70
     1
  0
VPORT
  5
4DD
330
29
100
AcDbSymbolTableRecord
100
AcDbViewportTableRecord
  2
*Active
 70
     0
 10
0.0
 20
0.0
 11
1.0
 21
1.0
 12
-59.07062547374561
 22
-53.37891310710597
 13
0.0
 23
0.0
 14
10.0
 24
10.0
 15
10.0
 25
10.0
 16
0.0
 26
0.0
 36
947.6120155724615
 17
1925.723119634848
 27
-1371.754057754787
 37
0.0
 40
345.7520872748788
 41
1.672936259143155
 42
50.0
 43
0.0
 44
0.0
 50
0.0
 51
0.0
 71
     0
 72
   100
 73
     1
 74
     0
 75
     0
 76
     0
 77
     0
 78
     0
281
     4
 65
     0
110
0.0
120
0.0
130
0.0
111
1.0
121
0.0
131
0.0
112
0.0
122
1.0
132
0.0
 79
     0
146
0.0
  0
ENDTAB
  0
TABLE
  2
LTYPE
  5
24
330
0
100
AcDbSymbolTable
 70
    17
  0
LTYPE
  5
25
330
24
100
AcDbSymbolTableRecord
100
AcDbLinetypeTableRecord
  2
ByBlock
 70
     0
  3

 72
    65
 73
     0
 40
0.0
  0
LTYPE
  5
26
330
24
100
AcDbSymbolTableRecord
100
AcDbLinetypeTableRecord
  2
ByLayer
 70
     0
  3

 72
    65
 73
     0
 40
0.0
  0
LTYPE
  5
13
330
24
100
AcDbSymbolTableRecord
100
AcDbLinetypeTableRecord
  2
Continuous
 70
     0
  3
Solid line
 72
    65
 73
     0
 40
0.0
  0
LTYPE
  5
1B9
330
24
100
AcDbSymbolTableRecord
100
AcDbLinetypeTableRecord
  2
HIDDEN
 70
     0
  3
Hidden __ __ __ __ __ __ __ __ __ __ __ __ __ _
 72
    65
 73
     2
 40
9.524999999999996
 49
6.349999999999997
 74
     0
 49
-3.174999999999998
 74
     0
  0
LTYPE
  5
B4
330
24
100
AcDbSymbolTableRecord
100
AcDbLinetypeTableRecord
  2
AM_ISO08W050
 70
     0
  3
____ . ____ . ____ . ____ . ____ . ____ . ____
 72
    65
 73
     4
 40
18.0
 49
12.0
 74
     0
 49
-1.5
 74
     0
 49
3.0
 74
     0
 49
-1.5
 74
     0
  0
LTYPE
  5
519
330
24
100
AcDbSymbolTableRecord
100
AcDbLinetypeTableRecord
  2
DASHDOT
 70
     0
  3
____ _ ____ _ ____ _ ____ _ ____ _ ____ _ ____
 72
    65
 73
     4
 40
5.5
 49
4.0
 74
     0
 49
-0.6
 74
     0
 49
0.3
 74
     0
 49
-0.6
 74
     0
  0
LTYPE
  5
B28
330
24
100
AcDbSymbolTableRecord
100
AcDbLinetypeTableRecord
  2
PHANTOM2
 70
     0
  3
Phantom (.5x) ___ _ _ ___ _ _ ___ _ _ ___ _ _
 72
    65
 73
     6
 40
31.75
 49
15.875
 74
     0
 49
-3.174999999999998
 74
     0
 49
3.174999999999998
 74
     0
 49
-3.174999999999998
 74
     0
 49
3.174999999999998
 74
     0
 49
-3.174999999999998
 74
     0
  0
LTYPE
  5
B29
330
24
100
AcDbSymbolTableRecord
100
AcDbLinetypeTableRecord
  2
CENTER
 70
     0
  3
Center ____ _ ____ _ ____ _ ____ _ ____ _ ____
 72
    65
 73
     4
 40
50.8
 49
31.75
 74
     0
 49
-6.349999999999997
 74
     0
 49
6.349999999999997
 74
     0
 49
-6.349999999999997
 74
     0
  0
LTYPE
  5
B77
330
24
100
AcDbSymbolTableRecord
100
AcDbLinetypeTableRecord
  2
ASULTYPE
 70
     0
  3
実線
 72
    65
 73
     2
 40
3.0
 49
2.5
 74
     0
 49
0.5
 74
     0
  0
LTYPE
  5
B78
330
24
100
AcDbSymbolTableRecord
100
AcDbLinetypeTableRecord
  2
ASVLTYPE
 70
     0
  3
__ __ __ __ __ __ __ __ __ __ __ __ __ __ __ __ __ __ __ __ __
 72
    65
 73
     2
 40
0.75
 49
0.5
 74
     0
 49
-0.25
 74
     0
  0
LTYPE
  5
BD3
330
24
100
AcDbSymbolTableRecord
100
AcDbLinetypeTableRecord
  2
ACISOWELD
 70
     0
  3
_ _ _ _ _
 72
    65
 73
     2
 40
2.0
 49
2.0
 74
     0
 49
-1.0
 74
     0
  0
LTYPE
  5
BD4
330
24
100
AcDbSymbolTableRecord
100
AcDbLinetypeTableRecord
  2
ACISOTGB
 70
     0
  3
__ . . __ . .
 72
    65
 73
     6
 40
9.0
 49
4.0
 74
     0
 49
-1.0
 74
     0
 49
1.0
 74
     0
 49
-1.0
 74
     0
 49
1.0
 74
     0
 49
-1.0
 74
     0
  0
LTYPE
  5
BD5
330
24
100
AcDbSymbolTableRecord
100
AcDbLinetypeTableRecord
  2
ACISOTGL
 70
     0
  3
_ _ _ _ _
 72
    65
 73
     2
 40
3.0
 49
2.0
 74
     0
 49
-1.0
 74
     0
  0
LTYPE
  5
BEF
330
24
100
AcDbSymbolTableRecord
100
AcDbLinetypeTableRecord
  2
AM_ISO02W050
 70
     0
  3
__ __ __ __ __ __ __ __ __ __ __ __ __ __ __
 72
    65
 73
     2
 40
7.5
 49
6.0
 74
     0
 49
-1.5
 74
     0
  0
LTYPE
  5
BF0
330
24
100
AcDbSymbolTableRecord
100
AcDbLinetypeTableRecord
  2
AM_ISO09W050
 70
     0
  3
_____ . . _____ . . _____ . . ____ .. ____
 72
    65
 73
     6
 40
22.5
 49
12.0
 74
     0
 49
-1.5
 74
     0
 49
3.0
 74
     0
 49
-1.5
 74
     0
 49
3.0
 74
     0
 49
-1.5
 74
     0
  0
LTYPE
  5
BF1
330
24
100
AcDbSymbolTableRecord
100
AcDbLinetypeTableRecord
  2
Amconstr
 70
     0
  3
_______________________
 72
    65
 73
     2
 40
9999.0
 49
9999.0
 74
     0
 49
0.0
 74
     0
  0
LTYPE
  5
BF2
330
24
100
AcDbSymbolTableRecord
100
AcDbLinetypeTableRecord
  2
AM_ISO08W050x2
 70
     0
  3
__ . __ . __ . __ . __ . __
 72
    65
 73
     4
 40
9.0
 49
6.0
 74
     0
 49
-0.75
 74
     0
 49
1.5
 74
     0
 49
-0.75
 74
     0
  0
LTYPE
  5
BF3
330
24
100
AcDbSymbolTableRecord
100
AcDbLinetypeTableRecord
  2
AM_ISO02W050x2
 70
     0
  3
 _ _ _ _ _ _ _ _ _ _ _ _
 72
    65
 73
     2
 40
3.75
 49
3.0
 74
     0
 49
-0.75
 74
     0
  0
LTYPE
  5
BF4
330
24
100
AcDbSymbolTableRecord
100
AcDbLinetypeTableRecord
  2
Amzigzag
 70
     0
  3
/\/-/\/-/\/-/\/-/\/-/\/
 72
    65
 73
     2
 40
11.0001
 49
0.0001
 74
     4
 75
   136
340
BF9
 46
0.04
 50
0.0
 44
0.0
 45
0.0
 49
-11.0
 74
     0
  0
ENDTAB
  0
TABLE
  2
LAYER
  5
1E
102
{ACAD_XDICTIONARY
360
1F
102
}
330
0
100
AcDbSymbolTable
 70
     8
  0
LAYER
  5
6
102
{ACAD_XDICTIONARY
360
408
102
}
330
1E
100
AcDbSymbolTableRecord
100
AcDbLayerTableRecord
  2
0
 70
     0
 62
     7
  6
Continuous
370
    -3
390
7
  0
LAYER
  5
47C
330
1E
100
AcDbSymbolTableRecord
100
AcDbLayerTableRecord
  2
Defpoints
 70
     0
 62
     7
  6
Continuous
290
     0
370
    -3
390
7
  0
LAYER
  5
51A
330
1E
100
AcDbSymbolTableRecord
100
AcDbLayerTableRecord
  2
SIZE
 70
     0
 62
    30
  6
Continuous
370
    -3
390
7
  0
LAYER
  5
51B
330
1E
100
AcDbSymbolTableRecord
100
AcDbLayerTableRecord
  2
OUTLINE
 70
     0
 62
     3
  6
Continuous
370
    -3
390
7
  0
LAYER
  5
51D
330
1E
100
AcDbSymbolTableRecord
100
AcDbLayerTableRecord
  2
BASIS
 70
     0
 62
     6
  6
DASHDOT
370
    -3
390
7
  0
LAYER
  5
51E
330
1E
100
AcDbSymbolTableRecord
100
AcDbLayerTableRecord
  2
NOTE
 70
     0
 62
     4
  6
Continuous
370
    -3
390
7
  0
LAYER
  5
51F
330
1E
100
AcDbSymbolTableRecord
100
AcDbLayerTableRecord
  2
ARRANGE
 70
     0
 62
     1
  6
Continuous
370
    -3
390
7
  0
LAYER
  5
520
330
1E
100
AcDbSymbolTableRecord
100
AcDbLayerTableRecord
  2
ETC
 70
     0
 62
    61
  6
Continuous
370
    -3
390
7
  0
ENDTAB
  0
TABLE
  2
STYLE
  5
21
330
0
100
AcDbSymbolTable
 70
     5
  0
STYLE
  5
22
330
21
100
AcDbSymbolTableRecord
100
AcDbTextStyleTableRecord
  2
Standard
 70
     0
 40
0.0
 41
1.0
 50
0.0
 71
     0
 42
43.66586864911549
  3
romans.shx
  4
bigfont.shx
  0
STYLE
  5
521
330
21
100
AcDbSymbolTableRecord
100
AcDbTextStyleTableRecord
  2
STANDARD1
 70
     0
 40
0.0
 41
1.0
 50
0.0
 71
     0
 42
3.5
  3
MONOTXT
  4
BIGFONT
  0
STYLE
  5
BC3
330
21
100
AcDbSymbolTableRecord
100
AcDbTextStyleTableRecord
  2
ACISOTS
 70
     0
 40
1.0
 41
1.0
 50
0.0
 71
     0
 42
43.66586864911549
  3
isocp.shx
  4
extfont.shx
  0
STYLE
  5
BD2
330
21
100
AcDbSymbolTableRecord
100
AcDbTextStyleTableRecord
  2
ACISOGDT
 70
     0
 40
0.0
 41
1.0
 50
0.0
 71
     0
 42
43.66586864911549
  3
amgdt.shx
  4

  0
STYLE
  5
BF9
330
21
100
AcDbSymbolTableRecord
100
AcDbTextStyleTableRecord
  2

 70
     1
 40
0.0
 41
1.0
 50
0.0
 71
     0
 42
2.5
  3
genltshp.shx
  4

  0
ENDTAB
  0
TABLE
  2
VIEW
  5
27
330
0
100
AcDbSymbolTable
 70
     0
  0
ENDTAB
  0
TABLE
  2
UCS
  5
28
330
0
100
AcDbSymbolTable
 70
     0
  0
ENDTAB
  0
TABLE
  2
APPID
  5
2D
330
0
100
AcDbSymbolTable
 70
    21
  0
APPID
  5
2E
330
2D
100
AcDbSymbolTableRecord
100
AcDbRegAppTableRecord
  2
ACAD
 70
     0
  0
APPID
  5
B5
330
2D
100
AcDbSymbolTableRecord
100
AcDbRegAppTableRecord
  2
AcAecLayerStandard
 70
     0
  0
APPID
  5
1D
330
2D
100
AcDbSymbolTableRecord
100
AcDbRegAppTableRecord
  2
ACAD_PSEXT
 70
     0
  0
APPID
  5
3D0
330
2D
100
AcDbSymbolTableRecord
100
AcDbRegAppTableRecord
  2
ACATTRIBSERVICES
 70
     0
  0
APPID
  5
3FF
330
2D
100
AcDbSymbolTableRecord
100
AcDbRegAppTableRecord
  2
ACAD_MLEADERVER
 70
     0
  0
APPID
  5
406
330
2D
100
AcDbSymbolTableRecord
100
AcDbRegAppTableRecord
  2
ACAD_DSTYLE_DIMJAG
 70
     0
  0
APPID
  5
407
330
2D
100
AcDbSymbolTableRecord
100
AcDbRegAppTableRecord
  2
ACAD_DSTYLE_DIMTALN
 70
     0
  0
APPID
  5
AF4
330
2D
100
AcDbSymbolTableRecord
100
AcDbRegAppTableRecord
  2
GENIUS_GENDIM_13
 70
     0
  0
APPID
  5
AF5
330
2D
100
AcDbSymbolTableRecord
100
AcDbRegAppTableRecord
  2
GENIUS_GENDTOL_13
 70
     0
  0
APPID
  5
AF6
330
2D
100
AcDbSymbolTableRecord
100
AcDbRegAppTableRecord
  2
GENIUS_GE3DTOL_13
 70
     0
  0
APPID
  5
AF9
330
2D
100
AcDbSymbolTableRecord
100
AcDbRegAppTableRecord
  2
MCAD_NO_VIS
 70
     0
  0
APPID
  5
AFA
330
2D
100
AcDbSymbolTableRecord
100
AcDbRegAppTableRecord
  2
ACAD_TEMP_GRAPHIC
 70
     0
  0
APPID
  5
B2B
330
2D
100
AcDbSymbolTableRecord
100
AcDbRegAppTableRecord
  2
AD_DRAW
 70
     0
  0
APPID
  5
B79
330
2D
100
AcDbSymbolTableRecord
100
AcDbRegAppTableRecord
  2
ASURF_PCURVE_APPNAME
 70
     0
  0
APPID
  5
B7E
330
2D
100
AcDbSymbolTableRecord
100
AcDbRegAppTableRecord
  2
AMG_3D2D_5.0
 70
     0
  0
APPID
  5
BAF
330
2D
100
AcDbSymbolTableRecord
100
AcDbRegAppTableRecord
  2
DESIGNERASSEMBLIES
 70
     0
  0
APPID
  5
BBA
330
2D
100
AcDbSymbolTableRecord
100
AcDbRegAppTableRecord
  2
ACADM_DIM_EDIT
 70
     0
  0
APPID
  5
BBB
330
2D
100
AcDbSymbolTableRecord
100
AcDbRegAppTableRecord
  2
AMDT_DM_ADJ
 70
     0
  0
APPID
  5
D7A
330
2D
100
AcDbSymbolTableRecord
100
AcDbRegAppTableRecord
  2
ACAD_DSTYLE_DIMARC_LENGTH_SYMBOL
 70
     0
  0
APPID
  5
E63
330
2D
100
AcDbSymbolTableRecord
100
AcDbRegAppTableRecord
  2
ACAD_DSTYLE_DIMJOGGED_JOGANGLE_SYMBOL
 70
     0
  0
APPID
  5
108B
330
2D
100
AcDbSymbolTableRecord
100
AcDbRegAppTableRecord
  2
ACAD_EXEMPT_FROM_CAD_STANDARDS
 70
     0
  0
ENDTAB
  0
TABLE
  2
DIMSTYLE
  5
2F
330
0
100
AcDbSymbolTable
 70
    13
100
AcDbDimStyleTable
 71
     1
340
30
  0
DIMSTYLE
105
30
102
{ACAD_REACTORS
330
162D
330
163A
330
1647
330
1654
330
1661
102
}
330
2F
100
AcDbSymbolTableRecord
100
AcDbDimStyleTableRecord
  2
ISO-25
 70
     0
 41
2.5
 42
0.625
 43
3.75
 44
1.25
 73
     0
 74
     0
 77
     1
 78
     8
140
2.5
141
2.5
143
0.03937007874016
147
0.625
171
     3
172
     1
271
     2
272
     2
274
     3
283
     0
284
     8
340
22
  0
DIMSTYLE
105
522
330
2F
100
AcDbSymbolTableRecord
100
AcDbDimStyleTableRecord
  2
STANDARD
 70
     0
275
     1
279
     2
284
     8
285
     8
286
     8
340
22
  0
DIMSTYLE
105
BE1
330
2F
100
AcDbSymbolTableRecord
100
AcDbDimStyleTableRecord
  2
AM_ISO
 70
     0
  4
"
 41
2.5
 42
1.0
 43
10.0
 44
1.0
 47
0.1
 48
0.1
 73
     0
 74
     0
 77
     1
 78
     8
 79
     2
140
3.5
141
0.0
143
0.0393701
146
0.71
147
1.5
172
     1
176
   256
177
   256
178
     2
271
     2
272
     3
274
     4
283
     0
284
     8
340
22
371
    -1
372
    -1
1001
ACAD_DSTYLE_DIMARC_LENGTH_SYMBOL
1070
   379
1070
     1
  0
DIMSTYLE
105
BE2
330
2F
100
AcDbSymbolTableRecord
100
AcDbDimStyleTableRecord
  2
AM_ISO$3
 70
     0
  4
"
 41
2.5
 42
1.0
 43
10.0
 44
1.0
 47
0.1
 48
0.1
 73
     0
 77
     1
 78
     8
 79
     2
140
3.5
141
0.0
143
0.0393701
146
0.71
147
1.5
176
   256
177
   256
178
     2
271
     2
272
     3
274
     4
283
     0
284
     8
288
     1
289
     0
340
22
371
    -1
372
    -1
1001
ACAD_DSTYLE_DIMARC_LENGTH_SYMBOL
1070
   379
1070
     1
  0
DIMSTYLE
105
BE3
330
2F
100
AcDbSymbolTableRecord
100
AcDbDimStyleTableRecord
  2
AM_ISO$4
 70
     0
  4
"
 41
2.5
 42
1.0
 43
10.0
 44
1.0
 47
0.1
 48
0.1
 73
     0
 77
     1
 78
     8
 79
     2
140
3.5
141
0.0
143
0.0393701
146
0.71
147
1.5
176
   256
177
   256
178
     2
271
     2
272
     3
274
     4
283
     0
284
     8
288
     1
289
     0
340
22
371
    -1
372
    -1
1001
ACAD_DSTYLE_DIMARC_LENGTH_SYMBOL
1070
   379
1070
     1
  0
DIMSTYLE
105
BE4
330
2F
100
AcDbSymbolTableRecord
100
AcDbDimStyleTableRecord
  2
AM_ISO$6
 70
     0
  4
"
 41
2.5
 42
1.0
 43
10.0
 44
1.0
 47
0.1
 48
0.1
 73
     0
 74
     0
 78
     8
 79
     2
140
3.5
141
0.0
143
0.0393701
146
0.71
147
1.5
172
     1
176
   256
177
   256
178
     2
271
     2
272
     3
274
     4
283
     0
284
     8
340
22
371
    -1
372
    -1
1001
ACAD_DSTYLE_DIMARC_LENGTH_SYMBOL
1070
   379
1070
     1
  0
DIMSTYLE
105
BE5
330
2F
100
AcDbSymbolTableRecord
100
AcDbDimStyleTableRecord
  2
AM_ISO$7
 70
     0
  4
"
 41
2.5
 42
1.0
 43
10.0
 44
1.0
 47
0.1
 48
0.1
 73
     0
 74
     0
 77
     1
 78
     8
 79
     2
140
5.0
141
0.0
143
0.0393701
146
0.71
147
1.5
172
     1
176
   256
177
   256
178
     2
271
     2
272
     3
274
     4
283
     0
284
     8
340
22
371
    -1
372
    -1
1001
ACAD_DSTYLE_DIMARC_LENGTH_SYMBOL
1070
   379
1070
     1
  0
DIMSTYLE
105
BE6
330
2F
100
AcDbSymbolTableRecord
100
AcDbDimStyleTableRecord
  2
AM_ISO$SF
 70
     0
  4
"
 41
2.5
 42
1.0
 43
10.0
 44
1.0
 47
0.1
 48
0.1
 73
     0
 74
     0
 75
     1
 76
     1
 77
     1
 78
     8
 79
     2
140
3.5
141
0.0
143
0.0393701
146
0.71
147
1.5
172
     1
176
   256
177
   256
178
     2
271
     2
272
     3
274
     4
283
     0
284
     8
340
22
371
    -1
372
    -1
1001
ACAD_DSTYLE_DIMARC_LENGTH_SYMBOL
1070
   379
1070
     1
  0
DIMSTYLE
105
BEB
330
2F
100
AcDbSymbolTableRecord
100
AcDbDimStyleTableRecord
  2
AM_ISO$SH
 70
     0
  4
"
 41
2.5
 42
1.0
 43
10.0
 44
1.0
 47
0.1
 48
0.1
 73
     0
 74
     0
 75
     1
 76
     1
 77
     1
 78
     8
 79
     2
140
3.5
141
0.0
143
0.0393701
144
2.0
146
0.71
147
1.5
172
     1
173
     1
176
   256
177
   256
178
     2
271
     2
272
     3
274
     4
283
     0
284
     8
340
22
343
BE7
371
    -1
372
    -1
1001
ACAD_DSTYLE_DIMARC_LENGTH_SYMBOL
1070
   379
1070
     1
  0
DIMSTYLE
105
BFA
330
2F
100
AcDbSymbolTableRecord
100
AcDbDimStyleTableRecord
  2
AM_JIS
 70
     0
  4
"
 41
2.5
 42
1.0
 43
10.0
 44
1.0
 47
0.1
 48
0.1
 73
     0
 74
     0
 77
     3
 78
     8
 79
     2
140
3.5
141
0.0
143
0.0393701
146
0.71
147
1.5
172
     1
176
   256
177
   256
178
     2
271
     2
272
     3
274
     4
283
     0
284
     8
340
22
341
48
342
48
343
48
344
48
371
    -1
372
    -1
1001
ACAD_DSTYLE_DIMARC_LENGTH_SYMBOL
1070
   379
1070
     1
  0
DIMSTYLE
105
E60
330
2F
100
AcDbSymbolTableRecord
100
AcDbDimStyleTableRecord
  2
AM_ANSI
 70
     0
  4
mm
 41
0.1
 42
0.05
 43
0.5
 44
0.1
 47
0.1
 48
0.1
 78
     7
 79
     2
140
0.12
141
0.0
146
0.71
147
0.06
176
   256
177
   256
178
     2
274
     4
284
     7
340
22
371
    -1
372
    -1
1001
ACAD_DSTYLE_DIMJOGGED_JOGANGLE_SYMBOL
1070
   384
1040
0.7853981633974483
1001
ACAD_DSTYLE_DIMARC_LENGTH_SYMBOL
1070
   379
1070
     1
  0
DIMSTYLE
105
E61
330
2F
100
AcDbSymbolTableRecord
100
AcDbDimStyleTableRecord
  2
AM_BSI
 70
     0
  4
"
 41
4.0
 42
1.0
 43
10.0
 44
1.0
 47
0.1
 48
0.1
 73
     0
 74
     0
 77
     1
 78
     8
 79
     2
140
3.5
141
0.0
143
0.0393701
146
0.71
147
1.5
172
     1
176
   256
177
   256
178
     2
271
     2
272
     3
274
     4
283
     0
284
     8
340
22
371
    -1
372
    -1
  0
DIMSTYLE
105
E62
330
2F
100
AcDbSymbolTableRecord
100
AcDbDimStyleTableRecord
  2
AM_DIN
 70
     0
  4
"
 41
2.5
 42
1.0
 43
10.0
 44
1.0
 47
0.1
 48
0.1
 73
     0
 74
     0
 77
     1
 78
     8
 79
     2
140
3.5
141
0.0
143
0.0393701
146
0.71
147
1.5
172
     1
176
   256
177
   256
178
     2
271
     2
272
     3
274
     4
283
     0
284
     8
340
22
371
    -1
372
    -1
  0
ENDTAB
  0
TABLE
  2
BLOCK_RECORD
  5
1
330
0
100
AcDbSymbolTable
 70
    25
  0
BLOCK_RECORD
  5
2
102
{ACAD_XDICTIONARY
360
3
102
}
330
1
100
AcDbSymbolTableRecord
100
AcDbBlockTableRecord
  2
*Model_Space
340
15
  0
BLOCK_RECORD
  5
17
330
1
100
AcDbSymbolTableRecord
100
AcDbBlockTableRecord
  2
*Paper_Space
340
1A
  0
BLOCK_RECORD
  5
48
330
1
100
AcDbSymbolTableRecord
100
AcDbBlockTableRecord
  2
_OPEN30
340
0
102
{BLKREFS
331
ABC
331
ABD
331
AC5
331
AC6
331
ACE
331
ACF
331
AD7
331
AD8
331
D2E
331
D2F
331
D3B
331
D3C
331
D48
331
D49
331
D55
331
D56
331
1099
331
109A
331
10A6
331
10A7
331
126B
331
126C
331
1278
331
1279
331
1285
331
1286
331
1292
331
1293
331
129F
331
12A0
331
1634
331
1635
331
1641
331
1642
331
164E
331
164F
331
165B
331
165C
331
1668
331
1669
102
}
  0
BLOCK_RECORD
  5
4E
330
1
100
AcDbSymbolTableRecord
100
AcDbBlockTableRecord
  2
_DOTSMALL
340
0
  0
BLOCK_RECORD
  5
47D
330
1
100
AcDbSymbolTableRecord
100
AcDbBlockTableRecord
  2
*D2
340
0
  0
BLOCK_RECORD
  5
48A
330
1
100
AcDbSymbolTableRecord
100
AcDbBlockTableRecord
  2
*D3
340
0
  0
BLOCK_RECORD
  5
497
330
1
100
AcDbSymbolTableRecord
100
AcDbBlockTableRecord
  2
*D4
340
0
  0
BLOCK_RECORD
  5
4A4
330
1
100
AcDbSymbolTableRecord
100
AcDbBlockTableRecord
  2
*D5
340
0
  0
BLOCK_RECORD
  5
514
330
1
100
AcDbSymbolTableRecord
100
AcDbBlockTableRecord
  2
_DOTBLANK
340
0
  0
BLOCK_RECORD
  5
BE7
330
1
100
AcDbSymbolTableRecord
100
AcDbBlockTableRecord
  2
GENAXEH
340
0
  0
BLOCK_RECORD
  5
D28
330
1
100
AcDbSymbolTableRecord
100
AcDbBlockTableRecord
  2
*D8
340
0
  0
BLOCK_RECORD
  5
D35
330
1
100
AcDbSymbolTableRecord
100
AcDbBlockTableRecord
  2
*D9
340
0
  0
BLOCK_RECORD
  5
D42
330
1
100
AcDbSymbolTableRecord
100
AcDbBlockTableRecord
  2
*D10
340
0
  0
BLOCK_RECORD
  5
D4F
330
1
100
AcDbSymbolTableRecord
100
AcDbBlockTableRecord
  2
*D11
340
0
  0
BLOCK_RECORD
  5
1093
330
1
100
AcDbSymbolTableRecord
100
AcDbBlockTableRecord
  2
*D12
340
0
  0
BLOCK_RECORD
  5
10A0
330
1
100
AcDbSymbolTableRecord
100
AcDbBlockTableRecord
  2
*D13
340
0
  0
BLOCK_RECORD
  5
1265
330
1
100
AcDbSymbolTableRecord
100
AcDbBlockTableRecord
  2
*D14
340
0
  0
BLOCK_RECORD
  5
1272
330
1
100
AcDbSymbolTableRecord
100
AcDbBlockTableRecord
  2
*D15
340
0
  0
BLOCK_RECORD
  5
127F
330
1
100
AcDbSymbolTableRecord
100
AcDbBlockTableRecord
  2
*D16
340
0
  0
BLOCK_RECORD
  5
128C
330
1
100
AcDbSymbolTableRecord
100
AcDbBlockTableRecord
  2
*D17
340
0
  0
BLOCK_RECORD
  5
1299
330
1
100
AcDbSymbolTableRecord
100
AcDbBlockTableRecord
  2
*D18
340
0
  0
BLOCK_RECORD
  5
162E
330
1
100
AcDbSymbolTableRecord
100
AcDbBlockTableRecord
  2
*D19
340
0
  0
BLOCK_RECORD
  5
163B
330
1
100
AcDbSymbolTableRecord
100
AcDbBlockTableRecord
  2
*D20
340
0
  0
BLOCK_RECORD
  5
1648
330
1
100
AcDbSymbolTableRecord
100
AcDbBlockTableRecord
  2
*D21
340
0
  0
BLOCK_RECORD
  5
1655
330
1
100
AcDbSymbolTableRecord
100
AcDbBlockTableRecord
  2
*D22
340
0
  0
BLOCK_RECORD
  5
1662
330
1
100
AcDbSymbolTableRecord
100
AcDbBlockTableRecord
  2
*D23
340
0
  0
ENDTAB
  0
ENDSEC
  0
SECTION
  2
BLOCKS
  0
BLOCK
  5
5
330
2
100
AcDbEntity
  8
0
100
AcDbBlockBegin
  2
*Model_Space
 70
     0
 10
0.0
 20
0.0
 30
0.0
  3
*Model_Space
  1

  0
ENDBLK
  5
14
330
2
100
AcDbEntity
  8
0
100
AcDbBlockEnd
  0
BLOCK
  5
18
330
17
100
AcDbEntity
 67
     1
  8
0
100
AcDbBlockBegin
  2
*Paper_Space
 70
     0
 10
0.0
 20
0.0
 30
0.0
  3
*Paper_Space
  1

  0
ENDBLK
  5
19
330
17
100
AcDbEntity
 67
     1
  8
0
100
AcDbBlockEnd
  0
BLOCK
  5
49
330
48
100
AcDbEntity
  8
0
100
AcDbBlockBegin
  2
_OPEN30
 70
     0
 10
0.0
 20
0.0
 30
0.0
  3
_OPEN30
  1

  0
LINE
  5
4A
330
48
100
AcDbEntity
  8
0
  6
ByBlock
 62
     0
100
AcDbLine
 10
-1.0
 20
0.26794919
 30
0.0
 11
0.0
 21
0.0
 31
0.0
  0
LINE
  5
4B
330
48
100
AcDbEntity
  8
0
  6
ByBlock
 62
     0
100
AcDbLine
 10
0.0
 20
0.0
 30
0.0
 11
-1.0
 21
-0.26794919
 31
0.0
  0
LINE
  5
4C
330
48
100
AcDbEntity
  8
0
  6
ByBlock
 62
     0
100
AcDbLine
 10
0.0
 20
0.0
 30
0.0
 11
-1.0
 21
0.0
 31
0.0
  0
ENDBLK
  5
4D
330
48
100
AcDbEntity
  8
0
100
AcDbBlockEnd
  0
BLOCK
  5
4F
330
4E
100
AcDbEntity
  8
0
100
AcDbBlockBegin
  2
_DOTSMALL
 70
     0
 10
0.0
 20
0.0
 30
0.0
  3
_DOTSMALL
  1

  0
POLYLINE
  5
50
330
4E
100
AcDbEntity
  8
0
  6
ByBlock
 62
     0
100
AcDb2dPolyline
 66
     1
 10
0.0
 20
0.0
 30
0.0
 70
     1
 40
0.5
 41
0.5
  0
VERTEX
  5
51
330
50
100
AcDbEntity
  8
0
  6
ByBlock
 62
     0
100
AcDbVertex
100
AcDb2dVertex
 10
-0.0625
 20
0.0
 30
0.0
 42
1.0
  0
VERTEX
  5
52
330
50
100
AcDbEntity
  8
0
  6
ByBlock
 62
     0
100
AcDbVertex
100
AcDb2dVertex
 10
0.0625
 20
0.0
 30
0.0
 42
1.0
  0
SEQEND
  5
53
330
50
100
AcDbEntity
  8
0
  6
ByBlock
 62
     0
  0
ENDBLK
  5
54
330
4E
100
AcDbEntity
  8
0
100
AcDbBlockEnd
  0
BLOCK
  5
487
330
47D
100
AcDbEntity
  8
0
100
AcDbBlockBegin
  2
*D2
 70
     1
 10
0.0
 20
0.0
 30
0.0
  3
*D2
  1

  0
LINE
  5
AB9
330
47D
100
AcDbEntity
  8
SIZE
 62
     0
370
    -2
100
AcDbLine
 10
-181.2527293391885
 20
-1504.262937155317
 30
0.0
 11
-181.2527293391885
 21
-1542.23020114622
 31
0.0
  0
LINE
  5
ABA
330
47D
100
AcDbEntity
  8
SIZE
 62
     0
370
    -2
100
AcDbLine
 10
-46.2527293391886
 20
-1504.262937155317
 30
0.0
 11
-46.2527293391886
 21
-1542.23020114622
 31
0.0
  0
LINE
  5
ABB
330
47D
100
AcDbEntity
  8
SIZE
 62
     0
370
    -2
100
AcDbLine
 10
-168.7527293391885
 20
-1535.98020114622
 30
0.0
 11
-58.75272933918861
 21
-1535.98020114622
 31
0.0
  0
INSERT
  5
ABC
330
47D
100
AcDbEntity
  8
SIZE
 62
     0
370
    -2
100
AcDbBlockReference
  2
_OPEN30
 10
-181.2527293391885
 20
-1535.98020114622
 30
0.0
 41
12.5
 42
12.5
 43
12.5
 50
180.0
  0
INSERT
  5
ABD
330
47D
100
AcDbEntity
  8
SIZE
 62
     0
370
    -2
100
AcDbBlockReference
  2
_OPEN30
 10
-46.2527293391886
 20
-1535.98020114622
 30
0.0
 41
12.5
 42
12.5
 43
12.5
  0
MTEXT
  5
ABE
330
47D
100
AcDbEntity
  8
SIZE
 62
     0
100
AcDbMText
 10
-113.7527293391886
 20
-1526.60520114622
 30
0.0
 40
12.5
 41
0.0
 71
     5
 72
     1
  1
135
 73
     1
 44
1.0
1001
ACAD
1000
MTEXTBEGIN
1070
    73
1070
     1
1070
    44
1040
1.0
1070
    74
1070
     0
1000
MTEXTEND
  0
POINT
  5
ABF
330
47D
100
AcDbEntity
  8
Defpoints
 62
     0
100
AcDbPoint
 10
-181.2527293391885
 20
-1501.137937155317
 30
0.0
  0
POINT
  5
AC0
330
47D
100
AcDbEntity
  8
Defpoints
 62
     0
100
AcDbPoint
 10
-46.2527293391886
 20
-1501.137937155317
 30
0.0
  0
POINT
  5
AC1
330
47D
100
AcDbEntity
  8
Defpoints
 62
     0
100
AcDbPoint
 10
-46.2527293391886
 20
-1535.98020114622
 30
0.0
  0
ENDBLK
  5
488
330
47D
100
AcDbEntity
  8
0
100
AcDbBlockEnd
  0
BLOCK
  5
494
330
48A
100
AcDbEntity
  8
0
100
AcDbBlockBegin
  2
*D3
 70
     1
 10
0.0
 20
0.0
 30
0.0
  3
*D3
  1

  0
LINE
  5
AC2
330
48A
100
AcDbEntity
  8
SIZE
 62
     0
370
    -2
100
AcDbLine
 10
-242.0527293391879
 20
-1503.319109340225
 30
0.0
 11
-242.0527293391879
 21
-1577.36611277463
 31
0.0
  0
LINE
  5
AC3
330
48A
100
AcDbEntity
  8
SIZE
 62
     0
370
    -2
100
AcDbLine
 10
14.44727066081395
 20
-1503.319109340225
 30
0.0
 11
14.44727066081394
 21
-1577.36611277463
 31
0.0
  0
LINE
  5
AC4
330
48A
100
AcDbEntity
  8
SIZE
 62
     0
370
    -2
100
AcDbLine
 10
-229.5527293391879
 20
-1571.11611277463
 30
0.0
 11
1.947270660813945
 21
-1571.11611277463
 31
0.0
  0
INSERT
  5
AC5
330
48A
100
AcDbEntity
  8
SIZE
 62
     0
370
    -2
100
AcDbBlockReference
  2
_OPEN30
 10
-242.0527293391879
 20
-1571.11611277463
 30
0.0
 41
12.5
 42
12.5
 43
12.5
 50
180.0
  0
INSERT
  5
AC6
330
48A
100
AcDbEntity
  8
SIZE
 62
     0
370
    -2
100
AcDbBlockReference
  2
_OPEN30
 10
14.44727066081394
 20
-1571.11611277463
 30
0.0
 41
12.5
 42
12.5
 43
12.5
  0
MTEXT
  5
AC7
330
48A
100
AcDbEntity
  8
SIZE
 62
     0
100
AcDbMText
 10
-113.802729339187
 20
-1561.74111277463
 30
0.0
 40
12.5
 41
0.0
 71
     5
 72
     1
  1
256.5
 73
     1
 44
1.0
1001
ACAD
1000
MTEXTBEGIN
1070
    73
1070
     1
1070
    44
1040
1.0
1070
    74
1070
     0
1000
MTEXTEND
  0
POINT
  5
AC8
330
48A
100
AcDbEntity
  8
Defpoints
 62
     0
100
AcDbPoint
 10
-242.0527293391879
 20
-1500.194109340225
 30
0.0
  0
POINT
  5
AC9
330
48A
100
AcDbEntity
  8
Defpoints
 62
     0
100
AcDbPoint
 10
14.44727066081395
 20
-1500.194109340225
 30
0.0
  0
POINT
  5
ACA
330
48A
100
AcDbEntity
  8
Defpoints
 62
     0
100
AcDbPoint
 10
14.44727066081394
 20
-1571.11611277463
 30
0.0
  0
ENDBLK
  5
495
330
48A
100
AcDbEntity
  8
0
100
AcDbBlockEnd
  0
BLOCK
  5
4A1
330
497
100
AcDbEntity
  8
0
100
AcDbBlockBegin
  2
*D4
 70
     1
 10
0.0
 20
0.0
 30
0.0
  3
*D4
  1

  0
LINE
  5
ACB
330
497
100
AcDbEntity
  8
SIZE
 62
     0
370
    -2
100
AcDbLine
 10
-247.5527293391879
 20
-1491.527109340224
 30
0.0
 11
-247.5527293391879
 21
-1610.880661612511
 31
0.0
  0
LINE
  5
ACC
330
497
100
AcDbEntity
  8
SIZE
 62
     0
370
    -2
100
AcDbLine
 10
19.94727066081214
 20
-1491.527109340224
 30
0.0
 11
19.94727066081213
 21
-1610.880661612511
 31
0.0
  0
LINE
  5
ACD
330
497
100
AcDbEntity
  8
SIZE
 62
     0
370
    -2
100
AcDbLine
 10
-235.0527293391879
 20
-1604.630661612511
 30
0.0
 11
7.447270660812132
 21
-1604.630661612511
 31
0.0
  0
INSERT
  5
ACE
330
497
100
AcDbEntity
  8
SIZE
 62
     0
370
    -2
100
AcDbBlockReference
  2
_OPEN30
 10
-247.5527293391879
 20
-1604.630661612511
 30
0.0
 41
12.5
 42
12.5
 43
12.5
 50
180.0
  0
INSERT
  5
ACF
330
497
100
AcDbEntity
  8
SIZE
 62
     0
370
    -2
100
AcDbBlockReference
  2
_OPEN30
 10
19.94727066081213
 20
-1604.630661612511
 30
0.0
 41
12.5
 42
12.5
 43
12.5
  0
MTEXT
  5
AD0
330
497
100
AcDbEntity
  8
SIZE
 62
     0
100
AcDbMText
 10
-113.8027293391878
 20
-1595.255661612512
 30
0.0
 40
12.5
 41
0.0
 71
     5
 72
     1
  1
267.5
 73
     1
 44
1.0
1001
ACAD
1000
MTEXTBEGIN
1070
    73
1070
     1
1070
    44
1040
1.0
1070
    74
1070
     0
1000
MTEXTEND
  0
POINT
  5
AD1
330
497
100
AcDbEntity
  8
Defpoints
 62
     0
100
AcDbPoint
 10
-247.5527293391879
 20
-1488.402109340224
 30
0.0
  0
POINT
  5
AD2
330
497
100
AcDbEntity
  8
Defpoints
 62
     0
100
AcDbPoint
 10
19.94727066081214
 20
-1488.402109340224
 30
0.0
  0
POINT
  5
AD3
330
497
100
AcDbEntity
  8
Defpoints
 62
     0
100
AcDbPoint
 10
19.94727066081213
 20
-1604.630661612511
 30
0.0
  0
ENDBLK
  5
4A2
330
497
100
AcDbEntity
  8
0
100
AcDbBlockEnd
  0
BLOCK
  5
4AE
330
4A4
100
AcDbEntity
  8
0
100
AcDbBlockBegin
  2
*D5
 70
     1
 10
0.0
 20
0.0
 30
0.0
  3
*D5
  1

  0
LINE
  5
AD4
330
4A4
100
AcDbEntity
  8
SIZE
 62
     0
370
    -2
100
AcDbLine
 10
-236.6777293391897
 20
-1186.73608393644
 30
0.0
 11
-308.8938118152208
 21
-1186.73608393644
 31
0.0
  0
LINE
  5
AD5
330
4A4
100
AcDbEntity
  8
SIZE
 62
     0
370
    -2
100
AcDbLine
 10
-236.6777293391897
 20
-1489.345937155317
 30
0.0
 11
-308.8938118152209
 21
-1489.345937155317
 31
0.0
  0
LINE
  5
AD6
330
4A4
100
AcDbEntity
  8
SIZE
 62
     0
370
    -2
100
AcDbLine
 10
-302.6438118152208
 20
-1199.23608393644
 30
0.0
 11
-302.6438118152209
 21
-1476.845937155317
 31
0.0
  0
INSERT
  5
AD7
330
4A4
100
AcDbEntity
  8
SIZE
 62
     0
370
    -2
100
AcDbBlockReference
  2
_OPEN30
 10
-302.6438118152208
 20
-1186.73608393644
 30
0.0
 41
12.5
 42
12.5
 43
12.5
 50
90.0
  0
INSERT
  5
AD8
330
4A4
100
AcDbEntity
  8
SIZE
 62
     0
370
    -2
100
AcDbBlockReference
  2
_OPEN30
 10
-302.6438118152209
 20
-1489.345937155317
 30
0.0
 41
12.5
 42
12.5
 43
12.5
 50
270.0
  0
MTEXT
  5
AD9
330
4A4
100
AcDbEntity
  8
SIZE
 62
     0
100
AcDbMText
 10
-312.0188118152207
 20
-1338.041010545878
 30
0.0
 40
12.5
 41
0.0
 71
     5
 72
     1
  1
302.5
 11
0.0000000000000001
 21
1.0
 31
0.0
 73
     1
 44
1.0
1001
ACAD
1000
MTEXTBEGIN
1070
    73
1070
     1
1070
    44
1040
1.0
1070
    74
1070
     0
1000
MTEXTEND
  0
POINT
  5
ADA
330
4A4
100
AcDbEntity
  8
Defpoints
 62
     0
100
AcDbPoint
 10
-233.5527293391897
 20
-1186.73608393644
 30
0.0
  0
POINT
  5
ADB
330
4A4
100
AcDbEntity
  8
Defpoints
 62
     0
100
AcDbPoint
 10
-233.5527293391897
 20
-1489.345937155317
 30
0.0
  0
POINT
  5
ADC
330
4A4
100
AcDbEntity
  8
Defpoints
 62
     0
100
AcDbPoint
 10
-302.6438118152209
 20
-1489.345937155317
 30
0.0
  0
ENDBLK
  5
4AF
330
4A4
100
AcDbEntity
  8
0
100
AcDbBlockEnd
  0
BLOCK
  5
515
330
514
100
AcDbEntity
  8
0
100
AcDbBlockBegin
  2
_DOTBLANK
 70
     0
 10
0.0
 20
0.0
 30
0.0
  3
_DOTBLANK
  1

  0
CIRCLE
  5
516
330
514
100
AcDbEntity
  8
0
  6
Continuous
 62
     7
100
AcDbCircle
 10
0.0
 20
0.0
 30
0.0
 40
0.5
  0
LINE
  5
517
330
514
100
AcDbEntity
  8
0
  6
Continuous
 62
     7
100
AcDbLine
 10
-0.5
 20
0.0
 30
0.0
 11
-1.0
 21
0.0
 31
0.0
  0
ENDBLK
  5
518
330
514
100
AcDbEntity
  8
0
100
AcDbBlockEnd
  0
BLOCK
  5
BE9
330
BE7
100
AcDbEntity
  8
0
100
AcDbBlockBegin
  2
GENAXEH
 70
     0
 10
0.0
 20
0.0
 30
0.0
  3
GENAXEH
  1

  0
LINE
  5
BE8
330
BE7
100
AcDbEntity
  8
0
100
AcDbLine
 10
-1.0
 20
0.0
 30
0.0
 11
1.0
 21
0.0
 31
0.0
  0
ENDBLK
  5
BEA
330
BE7
100
AcDbEntity
  8
0
100
AcDbBlockEnd
  0
BLOCK
  5
D29
330
D28
100
AcDbEntity
  8
0
100
AcDbBlockBegin
  2
*D8
 70
     1
 10
0.0
 20
0.0
 30
0.0
  3
*D8
  1

  0
LINE
  5
D2B
330
D28
100
AcDbEntity
  8
SIZE
 62
     0
370
    -2
100
AcDbLine
 10
455.3091522769256
 20
-1489.260742527767
 30
0.0
 11
455.3091522769256
 21
-1528.942805184876
 31
0.0
  0
LINE
  5
D2C
330
D28
100
AcDbEntity
  8
SIZE
 62
     0
370
    -2
100
AcDbLine
 10
579.3091522769257
 20
-1489.260742527767
 30
0.0
 11
579.3091522769257
 21
-1528.942805184876
 31
0.0
  0
LINE
  5
D2D
330
D28
100
AcDbEntity
  8
SIZE
 62
     0
370
    -2
100
AcDbLine
 10
467.8091522769256
 20
-1522.692805184876
 30
0.0
 11
566.8091522769257
 21
-1522.692805184876
 31
0.0
  0
INSERT
  5
D2E
330
D28
100
AcDbEntity
  8
SIZE
 62
     0
370
    -2
100
AcDbBlockReference
  2
_OPEN30
 10
455.3091522769256
 20
-1522.692805184876
 30
0.0
 41
12.5
 42
12.5
 43
12.5
 50
180.0
  0
INSERT
  5
D2F
330
D28
100
AcDbEntity
  8
SIZE
 62
     0
370
    -2
100
AcDbBlockReference
  2
_OPEN30
 10
579.3091522769257
 20
-1522.692805184876
 30
0.0
 41
12.5
 42
12.5
 43
12.5
  0
MTEXT
  5
D30
330
D28
100
AcDbEntity
  8
SIZE
 62
     0
100
AcDbMText
 10
517.3091522769257
 20
-1513.317805184876
 30
0.0
 40
12.5
 41
0.0
 71
     5
 72
     1
  1
124
 73
     1
 44
1.0
1001
ACAD
1000
MTEXTBEGIN
1070
    73
1070
     1
1070
    44
1040
1.0
1070
    74
1070
     0
1000
MTEXTEND
  0
POINT
  5
D31
330
D28
100
AcDbEntity
  8
Defpoints
 62
     0
100
AcDbPoint
 10
455.3091522769256
 20
-1486.135742527767
 30
0.0
  0
POINT
  5
D32
330
D28
100
AcDbEntity
  8
Defpoints
 62
     0
100
AcDbPoint
 10
579.3091522769257
 20
-1486.135742527767
 30
0.0
  0
POINT
  5
D33
330
D28
100
AcDbEntity
  8
Defpoints
 62
     0
100
AcDbPoint
 10
579.3091522769257
 20
-1522.692805184876
 30
0.0
  0
ENDBLK
  5
D2A
330
D28
100
AcDbEntity
  8
0
100
AcDbBlockEnd
  0
BLOCK
  5
D36
330
D35
100
AcDbEntity
  8
0
100
AcDbBlockBegin
  2
*D9
 70
     1
 10
0.0
 20
0.0
 30
0.0
  3
*D9
  1

  0
LINE
  5
D38
330
D35
100
AcDbEntity
  8
SIZE
 62
     0
370
    -2
100
AcDbLine
 10
436.8091522769256
 20
-1483.726804941179
 30
0.0
 11
436.8091522769256
 21
-1554.637963792278
 31
0.0
  0
LINE
  5
D39
330
D35
100
AcDbEntity
  8
SIZE
 62
     0
370
    -2
100
AcDbLine
 10
599.8091522769255
 20
-1483.726804941179
 30
0.0
 11
599.8091522769255
 21
-1554.637963792278
 31
0.0
  0
LINE
  5
D3A
330
D35
100
AcDbEntity
  8
SIZE
 62
     0
370
    -2
100
AcDbLine
 10
449.3091522769256
 20
-1548.387963792278
 30
0.0
 11
587.3091522769255
 21
-1548.387963792278
 31
0.0
  0
INSERT
  5
D3B
330
D35
100
AcDbEntity
  8
SIZE
 62
     0
370
    -2
100
AcDbBlockReference
  2
_OPEN30
 10
436.8091522769256
 20
-1548.387963792278
 30
0.0
 41
12.5
 42
12.5
 43
12.5
 50
180.0
  0
INSERT
  5
D3C
330
D35
100
AcDbEntity
  8
SIZE
 62
     0
370
    -2
100
AcDbBlockReference
  2
_OPEN30
 10
599.8091522769255
 20
-1548.387963792278
 30
0.0
 41
12.5
 42
12.5
 43
12.5
  0
MTEXT
  5
D3D
330
D35
100
AcDbEntity
  8
SIZE
 62
     0
100
AcDbMText
 10
518.3091522769257
 20
-1539.012963792278
 30
0.0
 40
12.5
 41
0.0
 71
     5
 72
     1
  1
163
 73
     1
 44
1.0
1001
ACAD
1000
MTEXTBEGIN
1070
    73
1070
     1
1070
    44
1040
1.0
1070
    74
1070
     0
1000
MTEXTEND
  0
POINT
  5
D3E
330
D35
100
AcDbEntity
  8
Defpoints
 62
     0
100
AcDbPoint
 10
436.8091522769256
 20
-1480.601804941179
 30
0.0
  0
POINT
  5
D3F
330
D35
100
AcDbEntity
  8
Defpoints
 62
     0
100
AcDbPoint
 10
599.8091522769255
 20
-1480.601804941179
 30
0.0
  0
POINT
  5
D40
330
D35
100
AcDbEntity
  8
Defpoints
 62
     0
100
AcDbPoint
 10
599.8091522769255
 20
-1548.387963792278
 30
0.0
  0
ENDBLK
  5
D37
330
D35
100
AcDbEntity
  8
0
100
AcDbBlockEnd
  0
BLOCK
  5
D43
330
D42
100
AcDbEntity
  8
0
100
AcDbBlockBegin
  2
*D10
 70
     1
 10
0.0
 20
0.0
 30
0.0
  3
*D10
  1

  0
LINE
  5
D45
330
D42
100
AcDbEntity
  8
SIZE
 62
     0
370
    -2
100
AcDbLine
 10
434.6841522769256
 20
-1320.601804941179
 30
0.0
 11
408.2865401245738
 21
-1320.601804941179
 31
0.0
  0
LINE
  5
D46
330
D42
100
AcDbEntity
  8
SIZE
 62
     0
370
    -2
100
AcDbLine
 10
433.6841522769256
 20
-1480.601804941179
 30
0.0
 11
408.2865401245737
 21
-1480.601804941179
 31
0.0
  0
LINE
  5
D47
330
D42
100
AcDbEntity
  8
SIZE
 62
     0
370
    -2
100
AcDbLine
 10
414.5365401245738
 20
-1333.101804941179
 30
0.0
 11
414.5365401245737
 21
-1468.101804941179
 31
0.0
  0
INSERT
  5
D48
330
D42
100
AcDbEntity
  8
SIZE
 62
     0
370
    -2
100
AcDbBlockReference
  2
_OPEN30
 10
414.5365401245738
 20
-1320.601804941179
 30
0.0
 41
12.5
 42
12.5
 43
12.5
 50
90.0
  0
INSERT
  5
D49
330
D42
100
AcDbEntity
  8
SIZE
 62
     0
370
    -2
100
AcDbBlockReference
  2
_OPEN30
 10
414.5365401245737
 20
-1480.601804941179
 30
0.0
 41
12.5
 42
12.5
 43
12.5
 50
270.0
  0
MTEXT
  5
D4A
330
D42
100
AcDbEntity
  8
SIZE
 62
     0
100
AcDbMText
 10
405.1615401245738
 20
-1400.601804941179
 30
0.0
 40
12.5
 41
0.0
 71
     5
 72
     1
  1
160
 11
0.0000000000000001
 21
1.0
 31
0.0
 73
     1
 44
1.0
1001
ACAD
1000
MTEXTBEGIN
1070
    73
1070
     1
1070
    44
1040
1.0
1070
    74
1070
     0
1000
MTEXTEND
  0
POINT
  5
D4B
330
D42
100
AcDbEntity
  8
Defpoints
 62
     0
100
AcDbPoint
 10
437.8091522769256
 20
-1320.601804941179
 30
0.0
  0
POINT
  5
D4C
330
D42
100
AcDbEntity
  8
Defpoints
 62
     0
100
AcDbPoint
 10
436.8091522769256
 20
-1480.601804941179
 30
0.0
  0
POINT
  5
D4D
330
D42
100
AcDbEntity
  8
Defpoints
 62
     0
100
AcDbPoint
 10
414.5365401245737
 20
-1480.601804941179
 30
0.0
  0
ENDBLK
  5
D44
330
D42
100
AcDbEntity
  8
0
100
AcDbBlockEnd
  0
BLOCK
  5
D50
330
D4F
100
AcDbEntity
  8
0
100
AcDbBlockBegin
  2
*D11
 70
     1
 10
0.0
 20
0.0
 30
0.0
  3
*D11
  1

  0
LINE
  5
D52
330
D4F
100
AcDbEntity
  8
SIZE
 62
     0
370
    -2
100
AcDbLine
 10
461.5841522769255
 20
-1486.601804941179
 30
0.0
 11
379.7795597992019
 21
-1486.601804941179
 31
0.0
  0
LINE
  5
D53
330
D4F
100
AcDbEntity
  8
SIZE
 62
     0
370
    -2
100
AcDbLine
 10
434.6841522769256
 20
-1320.601804941179
 30
0.0
 11
379.7795597992019
 21
-1320.601804941179
 31
0.0
  0
LINE
  5
D54
330
D4F
100
AcDbEntity
  8
SIZE
 62
     0
370
    -2
100
AcDbLine
 10
386.0295597992019
 20
-1474.101804941179
 30
0.0
 11
386.0295597992019
 21
-1333.101804941179
 31
0.0
  0
INSERT
  5
D55
330
D4F
100
AcDbEntity
  8
SIZE
 62
     0
370
    -2
100
AcDbBlockReference
  2
_OPEN30
 10
386.0295597992019
 20
-1486.601804941179
 30
0.0
 41
12.5
 42
12.5
 43
12.5
 50
270.0
  0
INSERT
  5
D56
330
D4F
100
AcDbEntity
  8
SIZE
 62
     0
370
    -2
100
AcDbBlockReference
  2
_OPEN30
 10
386.0295597992019
 20
-1320.601804941179
 30
0.0
 41
12.5
 42
12.5
 43
12.5
 50
90.0
  0
MTEXT
  5
D57
330
D4F
100
AcDbEntity
  8
SIZE
 62
     0
100
AcDbMText
 10
376.6545597992021
 20
-1403.601804941179
 30
0.0
 40
12.5
 41
0.0
 71
     5
 72
     1
  1
166
 11
0.0000000000000001
 21
1.0
 31
0.0
 73
     1
 44
1.0
1001
ACAD
1000
MTEXTBEGIN
1070
    73
1070
     1
1070
    44
1040
1.0
1070
    74
1070
     0
1000
MTEXTEND
  0
POINT
  5
D58
330
D4F
100
AcDbEntity
  8
Defpoints
 62
     0
100
AcDbPoint
 10
464.7091522769255
 20
-1486.601804941179
 30
0.0
  0
POINT
  5
D59
330
D4F
100
AcDbEntity
  8
Defpoints
 62
     0
100
AcDbPoint
 10
437.8091522769256
 20
-1320.601804941179
 30
0.0
  0
POINT
  5
D5A
330
D4F
100
AcDbEntity
  8
Defpoints
 62
     0
100
AcDbPoint
 10
386.0295597992019
 20
-1320.601804941179
 30
0.0
  0
ENDBLK
  5
D51
330
D4F
100
AcDbEntity
  8
0
100
AcDbBlockEnd
  0
BLOCK
  5
1094
330
1093
100
AcDbEntity
  8
0
100
AcDbBlockBegin
  2
*D12
 70
     1
 10
0.0
 20
0.0
 30
0.0
  3
*D12
  1

  0
LINE
  5
1096
330
1093
100
AcDbEntity
  8
SIZE
 62
     0
370
    -2
100
AcDbLine
 10
905.8425462676323
 20
-1485.387142305131
 30
0.0
 11
905.8425462676323
 21
-1535.311417986331
 31
0.0
  0
LINE
  5
1097
330
1093
100
AcDbEntity
  8
SIZE
 62
     0
370
    -2
100
AcDbLine
 10
1040.842546267632
 20
-1485.387142305131
 30
0.0
 11
1040.842546267632
 21
-1535.311417986331
 31
0.0
  0
LINE
  5
1098
330
1093
100
AcDbEntity
  8
SIZE
 62
     0
370
    -2
100
AcDbLine
 10
918.3425462676323
 20
-1529.061417986331
 30
0.0
 11
1028.342546267632
 21
-1529.061417986331
 31
0.0
  0
INSERT
  5
1099
330
1093
100
AcDbEntity
  8
SIZE
 62
     0
370
    -2
100
AcDbBlockReference
  2
_OPEN30
 10
905.8425462676323
 20
-1529.061417986331
 30
0.0
 41
12.5
 42
12.5
 43
12.5
 50
180.0
  0
INSERT
  5
109A
330
1093
100
AcDbEntity
  8
SIZE
 62
     0
370
    -2
100
AcDbBlockReference
  2
_OPEN30
 10
1040.842546267632
 20
-1529.061417986331
 30
0.0
 41
12.5
 42
12.5
 43
12.5
  0
MTEXT
  5
109B
330
1093
100
AcDbEntity
  8
SIZE
 62
     0
100
AcDbMText
 10
973.3425462676322
 20
-1519.686417986331
 30
0.0
 40
12.5
 41
0.0
 71
     5
 72
     1
  1
135
 73
     1
 44
1.0
1001
ACAD
1000
MTEXTBEGIN
1070
    73
1070
     1
1070
    44
1040
1.0
1070
    74
1070
     0
1000
MTEXTEND
  0
POINT
  5
109C
330
1093
100
AcDbEntity
  8
Defpoints
 62
     0
100
AcDbPoint
 10
905.8425462676323
 20
-1482.262142305131
 30
0.0
  0
POINT
  5
109D
330
1093
100
AcDbEntity
  8
Defpoints
 62
     0
100
AcDbPoint
 10
1040.842546267632
 20
-1482.262142305131
 30
0.0
  0
POINT
  5
109E
330
1093
100
AcDbEntity
  8
Defpoints
 62
     0
100
AcDbPoint
 10
1040.842546267632
 20
-1529.061417986331
 30
0.0
  0
ENDBLK
  5
1095
330
1093
100
AcDbEntity
  8
0
100
AcDbBlockEnd
  0
BLOCK
  5
10A1
330
10A0
100
AcDbEntity
  8
0
100
AcDbBlockBegin
  2
*D13
 70
     1
 10
0.0
 20
0.0
 30
0.0
  3
*D13
  1

  0
LINE
  5
10A3
330
10A0
100
AcDbEntity
  8
SIZE
 62
     0
370
    -2
100
AcDbLine
 10
850.092546267631
 20
-1488.387142305131
 30
0.0
 11
850.092546267631
 21
-1561.414191071958
 31
0.0
  0
LINE
  5
10A4
330
10A0
100
AcDbEntity
  8
SIZE
 62
     0
370
    -2
100
AcDbLine
 10
1096.592546267632
 20
-1488.387142305132
 30
0.0
 11
1096.592546267632
 21
-1561.414191071958
 31
0.0
  0
LINE
  5
10A5
330
10A0
100
AcDbEntity
  8
SIZE
 62
     0
370
    -2
100
AcDbLine
 10
862.592546267631
 20
-1555.164191071957
 30
0.0
 11
1084.092546267632
 21
-1555.164191071957
 31
0.0
  0
INSERT
  5
10A6
330
10A0
100
AcDbEntity
  8
SIZE
 62
     0
370
    -2
100
AcDbBlockReference
  2
_OPEN30
 10
850.092546267631
 20
-1555.164191071957
 30
0.0
 41
12.5
 42
12.5
 43
12.5
 50
180.0
  0
INSERT
  5
10A7
330
10A0
100
AcDbEntity
  8
SIZE
 62
     0
370
    -2
100
AcDbBlockReference
  2
_OPEN30
 10
1096.592546267632
 20
-1555.164191071957
 30
0.0
 41
12.5
 42
12.5
 43
12.5
  0
MTEXT
  5
10A8
330
10A0
100
AcDbEntity
  8
SIZE
 62
     0
100
AcDbMText
 10
973.342546267632
 20
-1545.789191071958
 30
0.0
 40
12.5
 41
0.0
 71
     5
 72
     1
  1
246.5
 73
     1
 44
1.0
1001
ACAD
1000
MTEXTBEGIN
1070
    73
1070
     1
1070
    44
1040
1.0
1070
    74
1070
     0
1000
MTEXTEND
  0
POINT
  5
10A9
330
10A0
100
AcDbEntity
  8
Defpoints
 62
     0
100
AcDbPoint
 10
850.092546267631
 20
-1485.262142305131
 30
0.0
  0
POINT
  5
10AA
330
10A0
100
AcDbEntity
  8
Defpoints
 62
     0
100
AcDbPoint
 10
1096.592546267632
 20
-1485.262142305132
 30
0.0
  0
POINT
  5
10AB
330
10A0
100
AcDbEntity
  8
Defpoints
 62
     0
100
AcDbPoint
 10
1096.592546267632
 20
-1555.164191071957
 30
0.0
  0
ENDBLK
  5
10A2
330
10A0
100
AcDbEntity
  8
0
100
AcDbBlockEnd
  0
BLOCK
  5
1266
330
1265
100
AcDbEntity
  8
0
100
AcDbBlockBegin
  2
*D14
 70
     1
 10
0.0
 20
0.0
 30
0.0
  3
*D14
  1

  0
LINE
  5
1268
330
1265
100
AcDbEntity
  8
SIZE
 62
     0
370
    -2
100
AcDbLine
 10
1291.489159486035
 20
-1497.188299585109
 30
0.0
 11
1291.489159486035
 21
-1546.741956644544
 31
0.0
  0
LINE
  5
1269
330
1265
100
AcDbEntity
  8
SIZE
 62
     0
370
    -2
100
AcDbLine
 10
1426.489159486035
 20
-1497.188299585109
 30
0.0
 11
1426.489159486035
 21
-1546.741956644544
 31
0.0
  0
LINE
  5
126A
330
1265
100
AcDbEntity
  8
SIZE
 62
     0
370
    -2
100
AcDbLine
 10
1303.989159486035
 20
-1540.491956644544
 30
0.0
 11
1413.989159486035
 21
-1540.491956644544
 31
0.0
  0
INSERT
  5
126B
330
1265
100
AcDbEntity
  8
SIZE
 62
     0
370
    -2
100
AcDbBlockReference
  2
_OPEN30
 10
1291.489159486035
 20
-1540.491956644544
 30
0.0
 41
12.5
 42
12.5
 43
12.5
 50
180.0
  0
INSERT
  5
126C
330
1265
100
AcDbEntity
  8
SIZE
 62
     0
370
    -2
100
AcDbBlockReference
  2
_OPEN30
 10
1426.489159486035
 20
-1540.491956644544
 30
0.0
 41
12.5
 42
12.5
 43
12.5
  0
MTEXT
  5
126D
330
1265
100
AcDbEntity
  8
SIZE
 62
     0
100
AcDbMText
 10
1358.989159486035
 20
-1531.116956644544
 30
0.0
 40
12.5
 41
0.0
 71
     5
 72
     1
  1
135
 73
     1
 44
1.0
1001
ACAD
1000
MTEXTBEGIN
1070
    73
1070
     1
1070
    44
1040
1.0
1070
    74
1070
     0
1000
MTEXTEND
  0
POINT
  5
126E
330
1265
100
AcDbEntity
  8
Defpoints
 62
     0
100
AcDbPoint
 10
1291.489159486035
 20
-1494.063299585109
 30
0.0
  0
POINT
  5
126F
330
1265
100
AcDbEntity
  8
Defpoints
 62
     0
100
AcDbPoint
 10
1426.489159486035
 20
-1494.063299585109
 30
0.0
  0
POINT
  5
1270
330
1265
100
AcDbEntity
  8
Defpoints
 62
     0
100
AcDbPoint
 10
1426.489159486035
 20
-1540.491956644544
 30
0.0
  0
ENDBLK
  5
1267
330
1265
100
AcDbEntity
  8
0
100
AcDbBlockEnd
  0
BLOCK
  5
1273
330
1272
100
AcDbEntity
  8
0
100
AcDbBlockBegin
  2
*D15
 70
     1
 10
0.0
 20
0.0
 30
0.0
  3
*D15
  1

  0
LINE
  5
1275
330
1272
100
AcDbEntity
  8
SIZE
 62
     0
370
    -2
100
AcDbLine
 10
1235.739159486034
 20
-1500.568264633024
 30
0.0
 11
1235.739159486034
 21
-1570.831272393681
 31
0.0
  0
LINE
  5
1276
330
1272
100
AcDbEntity
  8
SIZE
 62
     0
370
    -2
100
AcDbLine
 10
1482.239159486035
 20
-1500.568264633025
 30
0.0
 11
1482.239159486035
 21
-1570.831272393681
 31
0.0
  0
LINE
  5
1277
330
1272
100
AcDbEntity
  8
SIZE
 62
     0
370
    -2
100
AcDbLine
 10
1248.239159486034
 20
-1564.581272393681
 30
0.0
 11
1469.739159486035
 21
-1564.581272393681
 31
0.0
  0
INSERT
  5
1278
330
1272
100
AcDbEntity
  8
SIZE
 62
     0
370
    -2
100
AcDbBlockReference
  2
_OPEN30
 10
1235.739159486034
 20
-1564.581272393681
 30
0.0
 41
12.5
 42
12.5
 43
12.5
 50
180.0
  0
INSERT
  5
1279
330
1272
100
AcDbEntity
  8
SIZE
 62
     0
370
    -2
100
AcDbBlockReference
  2
_OPEN30
 10
1482.239159486035
 20
-1564.581272393681
 30
0.0
 41
12.5
 42
12.5
 43
12.5
  0
MTEXT
  5
127A
330
1272
100
AcDbEntity
  8
SIZE
 62
     0
100
AcDbMText
 10
1358.989159486035
 20
-1555.206272393681
 30
0.0
 40
12.5
 41
0.0
 71
     5
 72
     1
  1
246.5
 73
     1
 44
1.0
1001
ACAD
1000
MTEXTBEGIN
1070
    73
1070
     1
1070
    44
1040
1.0
1070
    74
1070
     0
1000
MTEXTEND
  0
POINT
  5
127B
330
1272
100
AcDbEntity
  8
Defpoints
 62
     0
100
AcDbPoint
 10
1235.739159486034
 20
-1497.443264633024
 30
0.0
  0
POINT
  5
127C
330
1272
100
AcDbEntity
  8
Defpoints
 62
     0
100
AcDbPoint
 10
1482.239159486035
 20
-1497.443264633025
 30
0.0
  0
POINT
  5
127D
330
1272
100
AcDbEntity
  8
Defpoints
 62
     0
100
AcDbPoint
 10
1482.239159486035
 20
-1564.581272393681
 30
0.0
  0
ENDBLK
  5
1274
330
1272
100
AcDbEntity
  8
0
100
AcDbBlockEnd
  0
BLOCK
  5
1280
330
127F
100
AcDbEntity
  8
0
100
AcDbBlockBegin
  2
*D16
 70
     1
 10
0.0
 20
0.0
 30
0.0
  3
*D16
  1

  0
LINE
  5
1282
330
127F
100
AcDbEntity
  8
SIZE
 62
     0
370
    -2
100
AcDbLine
 10
1228.039159486035
 20
-1497.568264633024
 30
0.0
 11
1228.039159486035
 21
-1596.318190786442
 31
0.0
  0
LINE
  5
1283
330
127F
100
AcDbEntity
  8
SIZE
 62
     0
370
    -2
100
AcDbLine
 10
1489.939159486035
 20
-1497.568264633024
 30
0.0
 11
1489.939159486035
 21
-1596.318190786442
 31
0.0
  0
LINE
  5
1284
330
127F
100
AcDbEntity
  8
SIZE
 62
     0
370
    -2
100
AcDbLine
 10
1240.539159486035
 20
-1590.068190786443
 30
0.0
 11
1477.439159486035
 21
-1590.068190786443
 31
0.0
  0
INSERT
  5
1285
330
127F
100
AcDbEntity
  8
SIZE
 62
     0
370
    -2
100
AcDbBlockReference
  2
_OPEN30
 10
1228.039159486035
 20
-1590.068190786443
 30
0.0
 41
12.5
 42
12.5
 43
12.5
 50
180.0
  0
INSERT
  5
1286
330
127F
100
AcDbEntity
  8
SIZE
 62
     0
370
    -2
100
AcDbBlockReference
  2
_OPEN30
 10
1489.939159486035
 20
-1590.068190786443
 30
0.0
 41
12.5
 42
12.5
 43
12.5
  0
MTEXT
  5
1287
330
127F
100
AcDbEntity
  8
SIZE
 62
     0
100
AcDbMText
 10
1358.989159486035
 20
-1580.693190786442
 30
0.0
 40
12.5
 41
0.0
 71
     5
 72
     1
  1
262
 73
     1
 44
1.0
1001
ACAD
1000
MTEXTBEGIN
1070
    73
1070
     1
1070
    44
1040
1.0
1070
    74
1070
     0
1000
MTEXTEND
  0
POINT
  5
1288
330
127F
100
AcDbEntity
  8
Defpoints
 62
     0
100
AcDbPoint
 10
1228.039159486035
 20
-1494.443264633024
 30
0.0
  0
POINT
  5
1289
330
127F
100
AcDbEntity
  8
Defpoints
 62
     0
100
AcDbPoint
 10
1489.939159486035
 20
-1494.443264633024
 30
0.0
  0
POINT
  5
128A
330
127F
100
AcDbEntity
  8
Defpoints
 62
     0
100
AcDbPoint
 10
1489.939159486035
 20
-1590.068190786443
 30
0.0
  0
ENDBLK
  5
1281
330
127F
100
AcDbEntity
  8
0
100
AcDbBlockEnd
  0
BLOCK
  5
128D
330
128C
100
AcDbEntity
  8
0
100
AcDbBlockBegin
  2
*D17
 70
     1
 10
0.0
 20
0.0
 30
0.0
  3
*D17
  1

  0
LINE
  5
128F
330
128C
100
AcDbEntity
  8
SIZE
 62
     0
370
    -2
100
AcDbLine
 10
1266.114159486035
 20
-1491.063299585109
 30
0.0
 11
1193.13567330549
 21
-1491.063299585109
 31
0.0
  0
LINE
  5
1290
330
128C
100
AcDbEntity
  8
SIZE
 62
     0
370
    -2
100
AcDbLine
 10
1241.114159486035
 20
-1332.997311190952
 30
0.0
 11
1193.13567330549
 21
-1332.997311190952
 31
0.0
  0
LINE
  5
1291
330
128C
100
AcDbEntity
  8
SIZE
 62
     0
370
    -2
100
AcDbLine
 10
1199.38567330549
 20
-1478.563299585109
 30
0.0
 11
1199.38567330549
 21
-1345.497311190952
 31
0.0
  0
INSERT
  5
1292
330
128C
100
AcDbEntity
  8
SIZE
 62
     0
370
    -2
100
AcDbBlockReference
  2
_OPEN30
 10
1199.38567330549
 20
-1491.063299585109
 30
0.0
 41
12.5
 42
12.5
 43
12.5
 50
270.0
  0
INSERT
  5
1293
330
128C
100
AcDbEntity
  8
SIZE
 62
     0
370
    -2
100
AcDbBlockReference
  2
_OPEN30
 10
1199.38567330549
 20
-1332.997311190952
 30
0.0
 41
12.5
 42
12.5
 43
12.5
 50
90.0
  0
MTEXT
  5
1294
330
128C
100
AcDbEntity
  8
SIZE
 62
     0
100
AcDbMText
 10
1190.01067330549
 20
-1412.03030538803
 30
0.0
 40
12.5
 41
0.0
 71
     5
 72
     1
  1
158
 11
0.0000000000000001
 21
1.0
 31
0.0
 73
     1
 44
1.0
1001
ACAD
1000
MTEXTBEGIN
1070
    73
1070
     1
1070
    44
1040
1.0
1070
    74
1070
     0
1000
MTEXTEND
  0
POINT
  5
1295
330
128C
100
AcDbEntity
  8
Defpoints
 62
     0
100
AcDbPoint
 10
1269.239159486035
 20
-1491.063299585109
 30
0.0
  0
POINT
  5
1296
330
128C
100
AcDbEntity
  8
Defpoints
 62
     0
100
AcDbPoint
 10
1244.239159486035
 20
-1332.997311190952
 30
0.0
  0
POINT
  5
1297
330
128C
100
AcDbEntity
  8
Defpoints
 62
     0
100
AcDbPoint
 10
1199.38567330549
 20
-1332.997311190952
 30
0.0
  0
ENDBLK
  5
128E
330
128C
100
AcDbEntity
  8
0
100
AcDbBlockEnd
  0
BLOCK
  5
129A
330
1299
100
AcDbEntity
  8
0
100
AcDbBlockBegin
  2
*D18
 70
     1
 10
0.0
 20
0.0
 30
0.0
  3
*D18
  1

  0
LINE
  5
129C
330
1299
100
AcDbEntity
  8
SIZE
 62
     0
370
    -2
100
AcDbLine
 10
1224.914159486035
 20
-1494.443264633024
 30
0.0
 11
1169.299596616613
 21
-1494.443264633024
 31
0.0
  0
LINE
  5
129D
330
1299
100
AcDbEntity
  8
SIZE
 62
     0
370
    -2
100
AcDbLine
 10
1241.114159486035
 20
-1332.997311190952
 30
0.0
 11
1169.299596616613
 21
-1332.997311190952
 31
0.0
  0
LINE
  5
129E
330
1299
100
AcDbEntity
  8
SIZE
 62
     0
370
    -2
100
AcDbLine
 10
1175.549596616613
 20
-1481.943264633024
 30
0.0
 11
1175.549596616613
 21
-1345.497311190952
 31
0.0
  0
INSERT
  5
129F
330
1299
100
AcDbEntity
  8
SIZE
 62
     0
370
    -2
100
AcDbBlockReference
  2
_OPEN30
 10
1175.549596616613
 20
-1494.443264633024
 30
0.0
 41
12.5
 42
12.5
 43
12.5
 50
270.0
  0
INSERT
  5
12A0
330
1299
100
AcDbEntity
  8
SIZE
 62
     0
370
    -2
100
AcDbBlockReference
  2
_OPEN30
 10
1175.549596616613
 20
-1332.997311190952
 30
0.0
 41
12.5
 42
12.5
 43
12.5
 50
90.0
  0
MTEXT
  5
12A1
330
1299
100
AcDbEntity
  8
SIZE
 62
     0
100
AcDbMText
 10
1166.174596616613
 20
-1413.720287911988
 30
0.0
 40
12.5
 41
0.0
 71
     5
 72
     1
  1
161.5
 11
0.0000000000000001
 21
1.0
 31
0.0
 73
     1
 44
1.0
1001
ACAD
1000
MTEXTBEGIN
1070
    73
1070
     1
1070
    44
1040
1.0
1070
    74
1070
     0
1000
MTEXTEND
  0
POINT
  5
12A2
330
1299
100
AcDbEntity
  8
Defpoints
 62
     0
100
AcDbPoint
 10
1228.039159486035
 20
-1494.443264633024
 30
0.0
  0
POINT
  5
12A3
330
1299
100
AcDbEntity
  8
Defpoints
 62
     0
100
AcDbPoint
 10
1244.239159486035
 20
-1332.997311190952
 30
0.0
  0
POINT
  5
12A4
330
1299
100
AcDbEntity
  8
Defpoints
 62
     0
100
AcDbPoint
 10
1175.549596616613
 20
-1332.997311190952
 30
0.0
  0
ENDBLK
  5
129B
330
1299
100
AcDbEntity
  8
0
100
AcDbBlockEnd
  0
BLOCK
  5
162F
330
162E
100
AcDbEntity
  8
0
100
AcDbBlockBegin
  2
*D19
 70
     1
 10
0.0
 20
0.0
 30
0.0
  3
*D19
  1

  0
LINE
  5
1631
330
162E
100
AcDbEntity
  8
SIZE
 62
     0
370
    -2
100
AcDbLine
 10
1817.97632654937
 20
-1504.167929568807
 30
0.0
 11
1817.97632654937
 21
-1547.81122287918
 31
0.0
  0
LINE
  5
1632
330
162E
100
AcDbEntity
  8
SIZE
 62
     0
370
    -2
100
AcDbLine
 10
1952.976326549369
 20
-1504.167929568807
 30
0.0
 11
1952.976326549369
 21
-1547.81122287918
 31
0.0
  0
LINE
  5
1633
330
162E
100
AcDbEntity
  8
SIZE
 62
     0
370
    -2
100
AcDbLine
 10
1830.476326549369
 20
-1541.56122287918
 30
0.0
 11
1940.476326549369
 21
-1541.56122287918
 31
0.0
  0
INSERT
  5
1634
330
162E
100
AcDbEntity
  8
SIZE
 62
     0
370
    -2
100
AcDbBlockReference
  2
_OPEN30
 10
1817.97632654937
 20
-1541.56122287918
 30
0.0
 41
12.5
 42
12.5
 43
12.5
 50
180.0
  0
INSERT
  5
1635
330
162E
100
AcDbEntity
  8
SIZE
 62
     0
370
    -2
100
AcDbBlockReference
  2
_OPEN30
 10
1952.976326549369
 20
-1541.56122287918
 30
0.0
 41
12.5
 42
12.5
 43
12.5
  0
MTEXT
  5
1636
330
162E
100
AcDbEntity
  8
SIZE
 62
     0
100
AcDbMText
 10
1885.47632654937
 20
-1532.18622287918
 30
0.0
 40
12.5
 41
0.0
 71
     5
 72
     1
  1
135
 73
     1
 44
1.0
1001
ACAD
1000
MTEXTBEGIN
1070
    73
1070
     1
1070
    44
1040
1.0
1070
    74
1070
     0
1000
MTEXTEND
  0
POINT
  5
1637
330
162E
100
AcDbEntity
  8
Defpoints
 62
     0
100
AcDbPoint
 10
1817.97632654937
 20
-1501.042929568807
 30
0.0
  0
POINT
  5
1638
330
162E
100
AcDbEntity
  8
Defpoints
 62
     0
100
AcDbPoint
 10
1952.976326549369
 20
-1501.042929568807
 30
0.0
  0
POINT
  5
1639
330
162E
100
AcDbEntity
  8
Defpoints
 62
     0
100
AcDbPoint
 10
1952.976326549369
 20
-1541.56122287918
 30
0.0
  0
ENDBLK
  5
1630
330
162E
100
AcDbEntity
  8
0
100
AcDbBlockEnd
  0
BLOCK
  5
163C
330
163B
100
AcDbEntity
  8
0
100
AcDbBlockBegin
  2
*D20
 70
     1
 10
0.0
 20
0.0
 30
0.0
  3
*D20
  1

  0
LINE
  5
163E
330
163B
100
AcDbEntity
  8
SIZE
 62
     0
370
    -2
100
AcDbLine
 10
1755.376326549369
 20
-1508.873222466761
 30
0.0
 11
1755.376326549369
 21
-1570.859290987385
 31
0.0
  0
LINE
  5
163F
330
163B
100
AcDbEntity
  8
SIZE
 62
     0
370
    -2
100
AcDbLine
 10
2010.87632654937
 20
-1508.873222466761
 30
0.0
 11
2010.87632654937
 21
-1570.859290987385
 31
0.0
  0
LINE
  5
1640
330
163B
100
AcDbEntity
  8
SIZE
 62
     0
370
    -2
100
AcDbLine
 10
1767.876326549369
 20
-1564.609290987385
 30
0.0
 11
1998.376326549369
 21
-1564.609290987385
 31
0.0
  0
INSERT
  5
1641
330
163B
100
AcDbEntity
  8
SIZE
 62
     0
370
    -2
100
AcDbBlockReference
  2
_OPEN30
 10
1755.376326549369
 20
-1564.609290987385
 30
0.0
 41
12.5
 42
12.5
 43
12.5
 50
180.0
  0
INSERT
  5
1642
330
163B
100
AcDbEntity
  8
SIZE
 62
     0
370
    -2
100
AcDbBlockReference
  2
_OPEN30
 10
2010.87632654937
 20
-1564.609290987385
 30
0.0
 41
12.5
 42
12.5
 43
12.5
  0
MTEXT
  5
1643
330
163B
100
AcDbEntity
  8
SIZE
 62
     0
100
AcDbMText
 10
1883.126326549369
 20
-1555.234290987385
 30
0.0
 40
12.5
 41
0.0
 71
     5
 72
     1
  1
255.5
 73
     1
 44
1.0
1001
ACAD
1000
MTEXTBEGIN
1070
    73
1070
     1
1070
    44
1040
1.0
1070
    74
1070
     0
1000
MTEXTEND
  0
POINT
  5
1644
330
163B
100
AcDbEntity
  8
Defpoints
 62
     0
100
AcDbPoint
 10
1755.376326549369
 20
-1505.748222466761
 30
0.0
  0
POINT
  5
1645
330
163B
100
AcDbEntity
  8
Defpoints
 62
     0
100
AcDbPoint
 10
2010.87632654937
 20
-1505.748222466761
 30
0.0
  0
POINT
  5
1646
330
163B
100
AcDbEntity
  8
Defpoints
 62
     0
100
AcDbPoint
 10
2010.87632654937
 20
-1564.609290987385
 30
0.0
  0
ENDBLK
  5
163D
330
163B
100
AcDbEntity
  8
0
100
AcDbBlockEnd
  0
BLOCK
  5
1649
330
1648
100
AcDbEntity
  8
0
100
AcDbBlockBegin
  2
*D21
 70
     1
 10
0.0
 20
0.0
 30
0.0
  3
*D21
  1

  0
LINE
  5
164B
330
1648
100
AcDbEntity
  8
SIZE
 62
     0
370
    -2
100
AcDbLine
 10
1747.176326549369
 20
-1498.873222466761
 30
0.0
 11
1747.176326549369
 21
-1596.817440138271
 31
0.0
  0
LINE
  5
164C
330
1648
100
AcDbEntity
  8
SIZE
 62
     0
370
    -2
100
AcDbLine
 10
2019.07632654937
 20
-1498.873222466761
 30
0.0
 11
2019.07632654937
 21
-1596.817440138271
 31
0.0
  0
LINE
  5
164D
330
1648
100
AcDbEntity
  8
SIZE
 62
     0
370
    -2
100
AcDbLine
 10
1759.676326549369
 20
-1590.567440138271
 30
0.0
 11
2006.57632654937
 21
-1590.567440138271
 31
0.0
  0
INSERT
  5
164E
330
1648
100
AcDbEntity
  8
SIZE
 62
     0
370
    -2
100
AcDbBlockReference
  2
_OPEN30
 10
1747.176326549369
 20
-1590.567440138271
 30
0.0
 41
12.5
 42
12.5
 43
12.5
 50
180.0
  0
INSERT
  5
164F
330
1648
100
AcDbEntity
  8
SIZE
 62
     0
370
    -2
100
AcDbBlockReference
  2
_OPEN30
 10
2019.07632654937
 20
-1590.567440138271
 30
0.0
 41
12.5
 42
12.5
 43
12.5
  0
MTEXT
  5
1650
330
1648
100
AcDbEntity
  8
SIZE
 62
     0
100
AcDbMText
 10
1883.126326549369
 20
-1581.192440138271
 30
0.0
 40
12.5
 41
0.0
 71
     5
 72
     1
  1
272
 73
     1
 44
1.0
1001
ACAD
1000
MTEXTBEGIN
1070
    73
1070
     1
1070
    44
1040
1.0
1070
    74
1070
     0
1000
MTEXTEND
  0
POINT
  5
1651
330
1648
100
AcDbEntity
  8
Defpoints
 62
     0
100
AcDbPoint
 10
1747.176326549369
 20
-1495.748222466761
 30
0.0
  0
POINT
  5
1652
330
1648
100
AcDbEntity
  8
Defpoints
 62
     0
100
AcDbPoint
 10
2019.07632654937
 20
-1495.748222466761
 30
0.0
  0
POINT
  5
1653
330
1648
100
AcDbEntity
  8
Defpoints
 62
     0
100
AcDbPoint
 10
2019.07632654937
 20
-1590.567440138271
 30
0.0
  0
ENDBLK
  5
164A
330
1648
100
AcDbEntity
  8
0
100
AcDbBlockEnd
  0
BLOCK
  5
1656
330
1655
100
AcDbEntity
  8
0
100
AcDbBlockBegin
  2
*D22
 70
     1
 10
0.0
 20
0.0
 30
0.0
  3
*D22
  1

  0
LINE
  5
1658
330
1655
100
AcDbEntity
  8
SIZE
 62
     0
370
    -2
100
AcDbLine
 10
1760.25132654937
 20
-1335.74822246676
 30
0.0
 11
1715.437260503032
 21
-1335.74822246676
 31
0.0
  0
LINE
  5
1659
330
1655
100
AcDbEntity
  8
SIZE
 62
     0
370
    -2
100
AcDbLine
 10
1792.35132654937
 20
-1491.042929568808
 30
0.0
 11
1715.437260503032
 21
-1491.042929568808
 31
0.0
  0
LINE
  5
165A
330
1655
100
AcDbEntity
  8
SIZE
 62
     0
370
    -2
100
AcDbLine
 10
1721.687260503031
 20
-1348.24822246676
 30
0.0
 11
1721.687260503031
 21
-1478.542929568807
 31
0.0
  0
INSERT
  5
165B
330
1655
100
AcDbEntity
  8
SIZE
 62
     0
370
    -2
100
AcDbBlockReference
  2
_OPEN30
 10
1721.687260503031
 20
-1335.74822246676
 30
0.0
 41
12.5
 42
12.5
 43
12.5
 50
90.0
  0
INSERT
  5
165C
330
1655
100
AcDbEntity
  8
SIZE
 62
     0
370
    -2
100
AcDbBlockReference
  2
_OPEN30
 10
1721.687260503031
 20
-1491.042929568808
 30
0.0
 41
12.5
 42
12.5
 43
12.5
 50
270.0
  0
MTEXT
  5
165D
330
1655
100
AcDbEntity
  8
SIZE
 62
     0
100
AcDbMText
 10
1712.312260503032
 20
-1413.395576017783
 30
0.0
 40
12.5
 41
0.0
 71
     5
 72
     1
  1
155.5
 11
0.0000000000000001
 21
1.0
 31
0.0
 73
     1
 44
1.0
1001
ACAD
1000
MTEXTBEGIN
1070
    73
1070
     1
1070
    44
1040
1.0
1070
    74
1070
     0
1000
MTEXTEND
  0
POINT
  5
165E
330
1655
100
AcDbEntity
  8
Defpoints
 62
     0
100
AcDbPoint
 10
1763.376326549369
 20
-1335.74822246676
 30
0.0
  0
POINT
  5
165F
330
1655
100
AcDbEntity
  8
Defpoints
 62
     0
100
AcDbPoint
 10
1795.47632654937
 20
-1491.042929568808
 30
0.0
  0
POINT
  5
1660
330
1655
100
AcDbEntity
  8
Defpoints
 62
     0
100
AcDbPoint
 10
1721.687260503031
 20
-1491.042929568808
 30
0.0
  0
ENDBLK
  5
1657
330
1655
100
AcDbEntity
  8
0
100
AcDbBlockEnd
  0
BLOCK
  5
1663
330
1662
100
AcDbEntity
  8
0
100
AcDbBlockBegin
  2
*D23
 70
     1
 10
0.0
 20
0.0
 30
0.0
  3
*D23
  1

  0
LINE
  5
1665
330
1662
100
AcDbEntity
  8
SIZE
 62
     0
370
    -2
100
AcDbLine
 10
1744.051326549369
 20
-1495.748222466761
 30
0.0
 11
1688.665342936648
 21
-1495.748222466761
 31
0.0
  0
LINE
  5
1666
330
1662
100
AcDbEntity
  8
SIZE
 62
     0
370
    -2
100
AcDbLine
 10
1760.25132654937
 20
-1335.74822246676
 30
0.0
 11
1688.665342936648
 21
-1335.74822246676
 31
0.0
  0
LINE
  5
1667
330
1662
100
AcDbEntity
  8
SIZE
 62
     0
370
    -2
100
AcDbLine
 10
1694.915342936648
 20
-1483.248222466761
 30
0.0
 11
1694.915342936648
 21
-1348.24822246676
 31
0.0
  0
INSERT
  5
1668
330
1662
100
AcDbEntity
  8
SIZE
 62
     0
370
    -2
100
AcDbBlockReference
  2
_OPEN30
 10
1694.915342936648
 20
-1495.748222466761
 30
0.0
 41
12.5
 42
12.5
 43
12.5
 50
270.0
  0
INSERT
  5
1669
330
1662
100
AcDbEntity
  8
SIZE
 62
     0
370
    -2
100
AcDbBlockReference
  2
_OPEN30
 10
1694.915342936648
 20
-1335.74822246676
 30
0.0
 41
12.5
 42
12.5
 43
12.5
 50
90.0
  0
MTEXT
  5
166A
330
1662
100
AcDbEntity
  8
SIZE
 62
     0
100
AcDbMText
 10
1685.540342936648
 20
-1415.74822246676
 30
0.0
 40
12.5
 41
0.0
 71
     5
 72
     1
  1
160
 11
0.0000000000000001
 21
1.0
 31
0.0
 73
     1
 44
1.0
1001
ACAD
1000
MTEXTBEGIN
1070
    73
1070
     1
1070
    44
1040
1.0
1070
    74
1070
     0
1000
MTEXTEND
  0
POINT
  5
166B
330
1662
100
AcDbEntity
  8
Defpoints
 62
     0
100
AcDbPoint
 10
1747.176326549369
 20
-1495.748222466761
 30
0.0
  0
POINT
  5
166C
330
1662
100
AcDbEntity
  8
Defpoints
 62
     0
100
AcDbPoint
 10
1763.376326549369
 20
-1335.74822246676
 30
0.0
  0
POINT
  5
166D
330
1662
100
AcDbEntity
  8
Defpoints
 62
     0
100
AcDbPoint
 10
1694.915342936648
 20
-1335.74822246676
 30
0.0
  0
ENDBLK
  5
1664
330
1662
100
AcDbEntity
  8
0
100
AcDbBlockEnd
  0
ENDSEC
  0
SECTION
  2
ENTITIES
  0
MTEXT
  5
479
330
2
100
AcDbEntity
  8
ETC
100
AcDbMText
 10
1679.291205412872
 20
-1253.340093597006
 30
0.0
 40
40.0
 41
497.0748786318838
 71
     1
 72
     5
  1
AGJS-13S-6
 73
     1
 44
1.0
1001
ACAD
1000
MTEXTBEGIN
1070
    73
1070
     1
1070
    44
1040
1.0
1070
    74
1070
     0
1000
MTEXTEND
  0
MTEXT
  5
4B4
330
2
100
AcDbEntity
  8
0
100
AcDbMText
 10
-312.1790532015339
 20
-1520.631511937425
 30
0.0
 40
12.5
 41
0.0
 71
     9
 72
     1
  1

 73
     1
 44
1.0
1001
ACAD
1000
MTEXTBEGIN
1070
    73
1070
     1
1070
    44
1040
1.0
1070
    74
1070
     0
1000
MTEXTEND
  0
LINE
  5
14DE
330
2
100
AcDbEntity
  8
NOTE
100
AcDbLine
 10
1817.97632654937
 20
-1480.242929568807
 30
0.0
 11
1817.97632654937
 21
-1501.042929568807
 31
0.0
  0
LINE
  5
14DF
330
2
100
AcDbEntity
  8
NOTE
100
AcDbLine
 10
1952.976326549369
 20
-1480.242929568807
 30
0.0
 11
1952.976326549369
 21
-1501.042929568807
 31
0.0
  0
LINE
  5
14E0
330
2
100
AcDbEntity
  8
NOTE
100
AcDbLine
 10
1755.376326549369
 20
-1484.948222466761
 30
0.0
 11
1755.376326549369
 21
-1505.748222466761
 31
0.0
  0
LINE
  5
14E1
330
2
100
AcDbEntity
  8
NOTE
100
AcDbLine
 10
2010.87632654937
 20
-1484.948222466761
 30
0.0
 11
2010.87632654937
 21
-1505.748222466761
 31
0.0
  0
LINE
  5
14E2
330
2
100
AcDbEntity
  8
OUTLINE
100
AcDbLine
 10
1774.37632654937
 20
-1336.548222466761
 30
0.0
 11
1774.37632654937
 21
-1337.348222466761
 31
0.0
  0
LINE
  5
14E3
330
2
100
AcDbEntity
  8
OUTLINE
100
AcDbLine
 10
1774.37632654937
 20
-1337.348222466761
 30
0.0
 11
1774.37632654937
 21
-1336.548222466761
 31
0.0
  0
LINE
  5
14E4
330
2
100
AcDbEntity
  8
OUTLINE
100
AcDbLine
 10
1769.37632654937
 20
-1337.348222466761
 30
0.0
 11
1769.37632654937
 21
-1336.548222466761
 31
0.0
  0
LINE
  5
14E5
330
2
100
AcDbEntity
  8
OUTLINE
100
AcDbLine
 10
1769.37632654937
 20
-1336.548222466761
 30
0.0
 11
1769.37632654937
 21
-1337.348222466761
 31
0.0
  0
LINE
  5
14E6
330
2
100
AcDbEntity
  8
OUTLINE
100
AcDbLine
 10
1777.376327500881
 20
-1337.348222466761
 30
0.0
 11
1766.376327500881
 21
-1337.348222466761
 31
0.0
  0
LINE
  5
14E7
330
2
100
AcDbEntity
  8
OUTLINE
100
AcDbLine
 10
1766.376327500881
 20
-1336.548222466761
 30
0.0
 11
1777.376327500881
 21
-1336.548222466761
 31
0.0
  0
LINE
  5
14E8
330
2
100
AcDbEntity
  8
OUTLINE
100
AcDbLine
 10
1996.876326549369
 20
-1336.548222466761
 30
0.0
 11
1996.876326549369
 21
-1337.348222466761
 31
0.0
  0
LINE
  5
14E9
330
2
100
AcDbEntity
  8
OUTLINE
100
AcDbLine
 10
1996.876326549369
 20
-1337.348222466761
 30
0.0
 11
1996.876326549369
 21
-1336.548222466761
 31
0.0
  0
LINE
  5
14EA
330
2
100
AcDbEntity
  8
OUTLINE
100
AcDbLine
 10
1991.87632654937
 20
-1337.348222466761
 30
0.0
 11
1991.87632654937
 21
-1336.548222466761
 31
0.0
  0
LINE
  5
14EB
330
2
100
AcDbEntity
  8
OUTLINE
100
AcDbLine
 10
1991.87632654937
 20
-1336.548222466761
 30
0.0
 11
1991.87632654937
 21
-1337.348222466761
 31
0.0
  0
LINE
  5
14EC
330
2
100
AcDbEntity
  8
OUTLINE
100
AcDbLine
 10
1999.876327500881
 20
-1337.348222466761
 30
0.0
 11
1988.876327500881
 21
-1337.348222466761
 31
0.0
  0
LINE
  5
14ED
330
2
100
AcDbEntity
  8
OUTLINE
100
AcDbLine
 10
1988.876327500881
 20
-1336.548222466761
 30
0.0
 11
1999.876327500881
 21
-1336.548222466761
 31
0.0
  0
LINE
  5
14EE
330
2
100
AcDbEntity
  8
OUTLINE
100
AcDbLine
 10
1769.37632654937
 20
-1336.548222466761
 30
0.0
 11
1774.37632654937
 21
-1336.548222466761
 31
0.0
  0
LINE
  5
14EF
330
2
100
AcDbEntity
  8
OUTLINE
100
AcDbLine
 10
1774.37632654937
 20
-1337.348222466761
 30
0.0
 11
1769.37632654937
 21
-1337.348222466761
 31
0.0
  0
LINE
  5
14F0
330
2
100
AcDbEntity
  8
OUTLINE
100
AcDbLine
 10
1991.87632654937
 20
-1336.548222466761
 30
0.0
 11
1996.876326549369
 21
-1336.548222466761
 31
0.0
  0
LINE
  5
14F1
330
2
100
AcDbEntity
  8
OUTLINE
100
AcDbLine
 10
1996.876326549369
 20
-1337.348222466761
 30
0.0
 11
1991.87632654937
 21
-1337.348222466761
 31
0.0
  0
LINE
  5
14F2
330
2
100
AcDbEntity
  8
OUTLINE
100
AcDbLine
 10
1769.37632654937
 20
-1336.548222466761
 30
0.0
 11
1774.37632654937
 21
-1336.548222466761
 31
0.0
  0
LINE
  5
14F3
330
2
100
AcDbEntity
  8
OUTLINE
100
AcDbLine
 10
1991.87632654937
 20
-1336.548222466761
 30
0.0
 11
1996.876326549369
 21
-1336.548222466761
 31
0.0
  0
LINE
  5
14F4
330
2
100
AcDbEntity
  8
OUTLINE
100
AcDbLine
 10
1881.12632654937
 20
-1336.548222466761
 30
0.0
 11
1885.126326549369
 21
-1336.548222466761
 31
0.0
  0
LINE
  5
14F5
330
2
100
AcDbEntity
  8
OUTLINE
100
AcDbLine
 10
2002.87632654937
 20
-1336.548222466761
 30
0.0
 11
1999.87632654937
 21
-1336.548222466761
 31
0.0
  0
LINE
  5
14F6
330
2
100
AcDbEntity
  8
OUTLINE
100
AcDbLine
 10
1999.87632654937
 20
-1336.548222466761
 30
0.0
 11
2002.87632654937
 21
-1336.548222466761
 31
0.0
  0
LINE
  5
14F7
330
2
100
AcDbEntity
  8
OUTLINE
100
AcDbLine
 10
1766.376326549369
 20
-1336.548222466761
 30
0.0
 11
1999.87632654937
 21
-1336.548222466761
 31
0.0
  0
LINE
  5
14F8
330
2
100
AcDbEntity
  8
OUTLINE
100
AcDbLine
 10
1763.376326549369
 20
-1336.548222466761
 30
0.0
 11
1766.376326549369
 21
-1336.548222466761
 31
0.0
  0
LINE
  5
14F9
330
2
100
AcDbEntity
  8
OUTLINE
100
AcDbLine
 10
1766.376326549369
 20
-1336.548222466761
 30
0.0
 11
1763.376326549369
 21
-1336.548222466761
 31
0.0
  0
LINE
  5
14FA
330
2
100
AcDbEntity
  8
OUTLINE
100
AcDbLine
 10
1766.376326549369
 20
-1336.548222466761
 30
0.0
 11
1999.87632654937
 21
-1336.548222466761
 31
0.0
  0
LINE
  5
14FB
330
2
100
AcDbEntity
  8
OUTLINE
100
AcDbLine
 10
1999.87632654937
 20
-1336.548222466761
 30
0.0
 11
1999.87632654937
 21
-1337.348222466761
 31
0.0
  0
LINE
  5
14FC
330
2
100
AcDbEntity
  8
OUTLINE
100
AcDbLine
 10
1999.87632654937
 20
-1337.348222466761
 30
0.0
 11
2002.87632654937
 21
-1337.348222466761
 31
0.0
  0
LINE
  5
14FD
330
2
100
AcDbEntity
  8
OUTLINE
100
AcDbLine
 10
2002.87632654937
 20
-1337.348222466761
 30
0.0
 11
2002.87632654937
 21
-1336.548222466761
 31
0.0
  0
LINE
  5
14FE
330
2
100
AcDbEntity
  8
OUTLINE
100
AcDbLine
 10
1766.376326549369
 20
-1337.348222466761
 30
0.0
 11
1766.376326549369
 21
-1336.548222466761
 31
0.0
  0
LINE
  5
14FF
330
2
100
AcDbEntity
  8
OUTLINE
100
AcDbLine
 10
1766.376326549369
 20
-1337.348222466761
 30
0.0
 11
1780.376326549369
 21
-1337.348222466761
 31
0.0
  0
LINE
  5
1500
330
2
100
AcDbEntity
  8
OUTLINE
100
AcDbLine
 10
1780.376326549369
 20
-1337.348222466761
 30
0.0
 11
1780.376326549369
 21
-1338.148222466761
 31
0.0
  0
LINE
  5
1501
330
2
100
AcDbEntity
  8
OUTLINE
100
AcDbLine
 10
1985.876326549369
 20
-1338.148222466761
 30
0.0
 11
1780.376326549369
 21
-1338.148222466761
 31
0.0
  0
LINE
  5
1502
330
2
100
AcDbEntity
  8
OUTLINE
100
AcDbLine
 10
1985.876326549369
 20
-1338.148222466761
 30
0.0
 11
1985.876326549369
 21
-1337.348222466761
 31
0.0
  0
LINE
  5
1503
330
2
100
AcDbEntity
  8
OUTLINE
100
AcDbLine
 10
1985.876326549369
 20
-1337.348222466761
 30
0.0
 11
1999.87632654937
 21
-1337.348222466761
 31
0.0
  0
LINE
  5
1504
330
2
100
AcDbEntity
  8
OUTLINE
100
AcDbLine
 10
1763.376326549369
 20
-1336.548222466761
 30
0.0
 11
1763.376326549369
 21
-1337.348222466761
 31
0.0
  0
LINE
  5
1505
330
2
100
AcDbEntity
  8
OUTLINE
100
AcDbLine
 10
1763.376326549369
 20
-1337.348222466761
 30
0.0
 11
1766.376326549369
 21
-1337.348222466761
 31
0.0
  0
LINE
  5
1506
330
2
100
AcDbEntity
  8
OUTLINE
100
AcDbLine
 10
1763.376326549369
 20
-1337.348222466761
 30
0.0
 11
1763.376326549369
 21
-1336.548222466761
 31
0.0
  0
LINE
  5
1507
330
2
100
AcDbEntity
  8
OUTLINE
100
AcDbLine
 10
2002.87632654937
 20
-1337.348222466761
 30
0.0
 11
1999.87632654937
 21
-1337.348222466761
 31
0.0
  0
LINE
  5
1508
330
2
100
AcDbEntity
  8
OUTLINE
100
AcDbLine
 10
1999.87632654937
 20
-1337.348222466761
 30
0.0
 11
1999.87632654937
 21
-1336.548222466761
 31
0.0
  0
LINE
  5
1509
330
2
100
AcDbEntity
  8
OUTLINE
100
AcDbLine
 10
2002.87632654937
 20
-1336.548222466761
 30
0.0
 11
2002.87632654937
 21
-1337.348222466761
 31
0.0
  0
LINE
  5
150A
330
2
100
AcDbEntity
  8
OUTLINE
100
AcDbLine
 10
1766.376326549369
 20
-1337.348222466761
 30
0.0
 11
1763.376326549369
 21
-1337.348222466761
 31
0.0
  0
LINE
  5
150B
330
2
100
AcDbEntity
  8
OUTLINE
100
AcDbLine
 10
1766.376326549369
 20
-1336.548222466761
 30
0.0
 11
1766.376326549369
 21
-1337.348222466761
 31
0.0
  0
LINE
  5
150C
330
2
100
AcDbEntity
  8
OUTLINE
100
AcDbLine
 10
1788.37632654937
 20
-1338.148222466761
 30
0.0
 11
1780.376326549369
 21
-1338.148222466761
 31
0.0
  0
LINE
  5
150D
330
2
100
AcDbEntity
  8
OUTLINE
100
AcDbLine
 10
1788.37632654937
 20
-1337.348222466761
 30
0.0
 11
1780.376326549369
 21
-1337.348222466761
 31
0.0
  0
LINE
  5
150E
330
2
100
AcDbEntity
  8
OUTLINE
100
AcDbLine
 10
1788.37632654937
 20
-1337.348222466761
 30
0.0
 11
1788.37632654937
 21
-1338.148222466761
 31
0.0
  0
LINE
  5
150F
330
2
100
AcDbEntity
  8
OUTLINE
100
AcDbLine
 10
1977.87632654937
 20
-1337.348222466761
 30
0.0
 11
1788.37632654937
 21
-1337.348222466761
 31
0.0
  0
LINE
  5
1510
330
2
100
AcDbEntity
  8
OUTLINE
100
AcDbLine
 10
1977.87632654937
 20
-1338.148222466761
 30
0.0
 11
1977.87632654937
 21
-1337.348222466761
 31
0.0
  0
LINE
  5
1511
330
2
100
AcDbEntity
  8
OUTLINE
100
AcDbLine
 10
1788.37632654937
 20
-1338.148222466761
 30
0.0
 11
1977.87632654937
 21
-1338.148222466761
 31
0.0
  0
LINE
  5
1512
330
2
100
AcDbEntity
  8
OUTLINE
100
AcDbLine
 10
1985.876326549369
 20
-1338.148222466761
 30
0.0
 11
1977.87632654937
 21
-1338.148222466761
 31
0.0
  0
LINE
  5
1513
330
2
100
AcDbEntity
  8
OUTLINE
100
AcDbLine
 10
1985.876326549369
 20
-1337.348222466761
 30
0.0
 11
1977.87632654937
 21
-1337.348222466761
 31
0.0
  0
LINE
  5
1514
330
2
100
AcDbEntity
  8
OUTLINE
100
AcDbLine
 10
1774.37632654937
 20
-1337.348222466761
 30
0.0
 11
1769.37632654937
 21
-1337.348222466761
 31
0.0
  0
LINE
  5
1515
330
2
100
AcDbEntity
  8
OUTLINE
100
AcDbLine
 10
1996.876326549369
 20
-1337.348222466761
 30
0.0
 11
1991.87632654937
 21
-1337.348222466761
 31
0.0
  0
LINE
  5
1516
330
2
100
AcDbEntity
  8
OUTLINE
100
AcDbLine
 10
1885.126326549369
 20
-1337.348222466761
 30
0.0
 11
1881.12632654937
 21
-1337.348222466761
 31
0.0
  0
LINE
  5
1517
330
2
100
AcDbEntity
  8
OUTLINE
100
AcDbLine
 10
1766.376326549369
 20
-1337.348222466761
 30
0.0
 11
1999.87632654937
 21
-1337.348222466761
 31
0.0
  0
LINE
  5
1518
330
2
100
AcDbEntity
  8
OUTLINE
100
AcDbLine
 10
1972.97632654937
 20
-1491.042929568808
 30
0.0
 11
1969.976326549369
 21
-1491.042929568808
 31
0.0
  0
LINE
  5
1519
330
2
100
AcDbEntity
  8
OUTLINE
100
AcDbLine
 10
1969.976326549369
 20
-1491.042929568808
 30
0.0
 11
1969.976326549369
 21
-1490.242929568807
 31
0.0
  0
LINE
  5
151A
330
2
100
AcDbEntity
  8
OUTLINE
100
AcDbLine
 10
1969.976326549369
 20
-1490.242929568807
 30
0.0
 11
1972.97632654937
 21
-1490.242929568807
 31
0.0
  0
LINE
  5
151B
330
2
100
AcDbEntity
  8
OUTLINE
100
AcDbLine
 10
1972.976326549369
 20
-1490.242929568807
 30
0.0
 11
1972.976326549369
 21
-1491.042929568808
 31
0.0
  0
LINE
  5
151C
330
2
100
AcDbEntity
  8
OUTLINE
100
AcDbLine
 10
1945.976326549368
 20
-1491.042929568808
 30
0.0
 11
1969.976326549369
 21
-1491.042929568808
 31
0.0
  0
LINE
  5
151D
330
2
100
AcDbEntity
  8
OUTLINE
100
AcDbLine
 10
1945.976326549368
 20
-1490.242929568807
 30
0.0
 11
1945.976326549368
 21
-1491.042929568808
 31
0.0
  0
LINE
  5
151E
330
2
100
AcDbEntity
  8
OUTLINE
100
AcDbLine
 10
1945.976326549368
 20
-1490.242929568807
 30
0.0
 11
1969.976326549369
 21
-1490.242929568807
 31
0.0
  0
LINE
  5
151F
330
2
100
AcDbEntity
  8
OUTLINE
100
AcDbLine
 10
1955.476326549369
 20
-1491.042929568808
 30
0.0
 11
1950.47632654937
 21
-1491.042929568808
 31
0.0
  0
LINE
  5
1520
330
2
100
AcDbEntity
  8
OUTLINE
100
AcDbLine
 10
1820.476326549369
 20
-1491.042929568808
 30
0.0
 11
1815.476326549369
 21
-1491.042929568808
 31
0.0
  0
LINE
  5
1521
330
2
100
AcDbEntity
  8
OUTLINE
100
AcDbLine
 10
1972.976326549369
 20
-1491.042929568808
 30
0.0
 11
1975.47632654937
 21
-1491.042929568808
 31
0.0
  0
LINE
  5
1522
330
2
100
AcDbEntity
  8
OUTLINE
100
AcDbLine
 10
1795.47632654937
 20
-1491.042929568808
 30
0.0
 11
1975.47632654937
 21
-1491.042929568808
 31
0.0
  0
LINE
  5
1523
330
2
100
AcDbEntity
  8
OUTLINE
100
AcDbLine
 10
1795.47632654937
 20
-1491.042929568808
 30
0.0
 11
1797.97632654937
 21
-1491.042929568808
 31
0.0
  0
LINE
  5
1524
330
2
100
AcDbEntity
  8
OUTLINE
100
AcDbLine
 10
1800.97632654937
 20
-1491.042929568808
 30
0.0
 11
1797.97632654937
 21
-1491.042929568808
 31
0.0
  0
LINE
  5
1525
330
2
100
AcDbEntity
  8
OUTLINE
100
AcDbLine
 10
1800.97632654937
 20
-1491.042929568808
 30
0.0
 11
1824.97632654937
 21
-1491.042929568808
 31
0.0
  0
LINE
  5
1526
330
2
100
AcDbEntity
  8
OUTLINE
100
AcDbLine
 10
1827.97632654937
 20
-1491.042929568808
 30
0.0
 11
1824.97632654937
 21
-1491.042929568808
 31
0.0
  0
LINE
  5
1527
330
2
100
AcDbEntity
  8
OUTLINE
100
AcDbLine
 10
1827.97632654937
 20
-1491.042929568808
 30
0.0
 11
1942.97632654937
 21
-1491.042929568808
 31
0.0
  0
LINE
  5
1528
330
2
100
AcDbEntity
  8
OUTLINE
100
AcDbLine
 10
1945.97632654937
 20
-1491.042929568808
 30
0.0
 11
1942.97632654937
 21
-1491.042929568808
 31
0.0
  0
LINE
  5
1529
330
2
100
AcDbEntity
  8
OUTLINE
100
AcDbLine
 10
1942.97632654937
 20
-1490.242929568807
 30
0.0
 11
1945.97632654937
 21
-1490.242929568807
 31
0.0
  0
LINE
  5
152A
330
2
100
AcDbEntity
  8
OUTLINE
100
AcDbLine
 10
1942.97632654937
 20
-1491.042929568808
 30
0.0
 11
1942.97632654937
 21
-1490.242929568807
 31
0.0
  0
LINE
  5
152B
330
2
100
AcDbEntity
  8
OUTLINE
100
AcDbLine
 10
1942.97632654937
 20
-1490.242929568807
 30
0.0
 11
1942.97632654937
 21
-1491.042929568808
 31
0.0
  0
LINE
  5
152C
330
2
100
AcDbEntity
  8
OUTLINE
100
AcDbLine
 10
1824.97632654937
 20
-1491.042929568808
 30
0.0
 11
1824.97632654937
 21
-1490.242929568807
 31
0.0
  0
LINE
  5
152D
330
2
100
AcDbEntity
  8
OUTLINE
100
AcDbLine
 10
1824.97632654937
 20
-1490.242929568807
 30
0.0
 11
1827.97632654937
 21
-1490.242929568807
 31
0.0
  0
LINE
  5
152E
330
2
100
AcDbEntity
  8
OUTLINE
100
AcDbLine
 10
1827.97632654937
 20
-1490.242929568807
 30
0.0
 11
1827.97632654937
 21
-1491.042929568808
 31
0.0
  0
LINE
  5
152F
330
2
100
AcDbEntity
  8
OUTLINE
100
AcDbLine
 10
1800.97632654937
 20
-1490.242929568807
 30
0.0
 11
1800.97632654937
 21
-1491.042929568808
 31
0.0
  0
LINE
  5
1530
330
2
100
AcDbEntity
  8
OUTLINE
100
AcDbLine
 10
1800.97632654937
 20
-1490.242929568807
 30
0.0
 11
1824.97632654937
 21
-1490.242929568807
 31
0.0
  0
LINE
  5
1531
330
2
100
AcDbEntity
  8
OUTLINE
100
AcDbLine
 10
1797.97632654937
 20
-1490.242929568807
 30
0.0
 11
1800.97632654937
 21
-1490.242929568807
 31
0.0
  0
LINE
  5
1532
330
2
100
AcDbEntity
  8
OUTLINE
100
AcDbLine
 10
1797.97632654937
 20
-1491.042929568808
 30
0.0
 11
1797.97632654937
 21
-1490.242929568807
 31
0.0
  0
LINE
  5
1533
330
2
100
AcDbEntity
  8
OUTLINE
100
AcDbLine
 10
1797.97632654937
 20
-1490.242929568807
 30
0.0
 11
1797.97632654937
 21
-1491.042929568808
 31
0.0
  0
LINE
  5
1534
330
2
100
AcDbEntity
  8
OUTLINE
100
AcDbLine
 10
2002.87632654937
 20
-1495.842929568808
 30
0.0
 11
1975.47632654937
 21
-1495.842929568808
 31
0.0
  0
LINE
  5
1535
330
2
100
AcDbEntity
  8
OUTLINE
100
AcDbLine
 10
1975.47632654937
 20
-1495.842929568808
 30
0.0
 11
2002.87632654937
 21
-1495.842929568808
 31
0.0
  0
LINE
  5
1536
330
2
100
AcDbEntity
  8
OUTLINE
100
AcDbLine
 10
1975.47632654937
 20
-1495.842929568808
 30
0.0
 11
1975.47632654937
 21
-1491.042929568808
 31
0.0
  0
LINE
  5
1537
330
2
100
AcDbEntity
  8
OUTLINE
100
AcDbLine
 10
1975.47632654937
 20
-1491.042929568808
 30
0.0
 11
1975.47632654937
 21
-1495.842929568808
 31
0.0
  0
LINE
  5
1538
330
2
100
AcDbEntity
  8
OUTLINE
100
AcDbLine
 10
1795.47632654937
 20
-1495.842929568808
 30
0.0
 11
1763.376326549369
 21
-1495.842929568808
 31
0.0
  0
LINE
  5
1539
330
2
100
AcDbEntity
  8
OUTLINE
100
AcDbLine
 10
1763.376326549369
 20
-1495.842929568808
 30
0.0
 11
1795.47632654937
 21
-1495.842929568808
 31
0.0
  0
LINE
  5
153A
330
2
100
AcDbEntity
  8
OUTLINE
100
AcDbLine
 10
1795.47632654937
 20
-1491.042929568808
 30
0.0
 11
1795.47632654937
 21
-1495.842929568808
 31
0.0
  0
LINE
  5
153B
330
2
100
AcDbEntity
  8
OUTLINE
100
AcDbLine
 10
1795.47632654937
 20
-1495.842929568808
 30
0.0
 11
1795.47632654937
 21
-1491.042929568808
 31
0.0
  0
LINE
  5
153C
330
2
100
AcDbEntity
  8
OUTLINE
100
AcDbLine
 10
1972.976326549369
 20
-1490.242929568807
 30
0.0
 11
1972.976326549369
 21
-1491.042929568808
 31
0.0
  0
LINE
  5
153D
330
2
100
AcDbEntity
  8
OUTLINE
100
AcDbLine
 10
1827.97632654937
 20
-1490.242929568807
 30
0.0
 11
1827.97632654937
 21
-1491.042929568808
 31
0.0
  0
LINE
  5
153E
330
2
100
AcDbEntity
  8
OUTLINE
100
AcDbLine
 10
2002.87632654937
 20
-1495.842929568808
 30
0.0
 11
2002.87632654937
 21
-1469.742929568807
 31
0.0
  0
LINE
  5
153F
330
2
100
AcDbEntity
  8
OUTLINE
100
AcDbLine
 10
2002.87632654937
 20
-1495.842929568808
 30
0.0
 11
2002.87632654937
 21
-1469.742929568807
 31
0.0
  0
LINE
  5
1540
330
2
100
AcDbEntity
  8
OUTLINE
100
AcDbLine
 10
1827.97632654937
 20
-1490.242929568807
 30
0.0
 11
1797.97632654937
 21
-1490.242929568807
 31
0.0
  0
LINE
  5
1541
330
2
100
AcDbEntity
  8
OUTLINE
100
AcDbLine
 10
1815.476326549369
 20
-1490.242929568807
 30
0.0
 11
1820.476326549369
 21
-1490.242929568807
 31
0.0
  0
LINE
  5
1542
330
2
100
AcDbEntity
  8
OUTLINE
100
AcDbLine
 10
1773.376326549369
 20
-1485.242929568808
 30
0.0
 11
1773.376326549369
 21
-1488.242929568807
 31
0.0
  0
LINE
  5
1543
330
2
100
AcDbEntity
  8
OUTLINE
100
AcDbLine
 10
1773.376326549369
 20
-1488.242929568808
 30
0.0
 11
1773.376326549369
 21
-1485.242929568808
 31
0.0
  0
LINE
  5
1544
330
2
100
AcDbEntity
  8
OUTLINE
100
AcDbLine
 10
1773.376326549369
 20
-1488.242929568808
 30
0.0
 11
1770.37632654937
 21
-1488.242929568808
 31
0.0
  0
LINE
  5
1545
330
2
100
AcDbEntity
  8
OUTLINE
100
AcDbLine
 10
1770.37632654937
 20
-1488.242929568808
 30
0.0
 11
1773.376326549369
 21
-1488.242929568808
 31
0.0
  0
LINE
  5
1546
330
2
100
AcDbEntity
  8
OUTLINE
100
AcDbLine
 10
1770.37632654937
 20
-1488.242929568808
 30
0.0
 11
1770.37632654937
 21
-1485.242929568808
 31
0.0
  0
LINE
  5
1547
330
2
100
AcDbEntity
  8
OUTLINE
100
AcDbLine
 10
1770.37632654937
 20
-1485.242929568808
 30
0.0
 11
1770.37632654937
 21
-1488.242929568807
 31
0.0
  0
LINE
  5
1548
330
2
100
AcDbEntity
  8
OUTLINE
100
AcDbLine
 10
1770.37632654937
 20
-1485.242929568808
 30
0.0
 11
1773.376326549369
 21
-1485.242929568808
 31
0.0
  0
LINE
  5
1549
330
2
100
AcDbEntity
  8
OUTLINE
100
AcDbLine
 10
1773.376326549369
 20
-1485.242929568808
 30
0.0
 11
1770.37632654937
 21
-1485.242929568808
 31
0.0
  0
LINE
  5
154A
330
2
100
AcDbEntity
  8
OUTLINE
100
AcDbLine
 10
1995.876326549369
 20
-1485.242929568807
 30
0.0
 11
1995.876326549369
 21
-1488.242929568807
 31
0.0
  0
LINE
  5
154B
330
2
100
AcDbEntity
  8
OUTLINE
100
AcDbLine
 10
1995.876326549369
 20
-1488.242929568807
 30
0.0
 11
1995.876326549369
 21
-1485.242929568807
 31
0.0
  0
LINE
  5
154C
330
2
100
AcDbEntity
  8
OUTLINE
100
AcDbLine
 10
1995.876326549369
 20
-1488.242929568807
 30
0.0
 11
1992.876326549369
 21
-1488.242929568807
 31
0.0
  0
LINE
  5
154D
330
2
100
AcDbEntity
  8
OUTLINE
100
AcDbLine
 10
1992.876326549369
 20
-1488.242929568807
 30
0.0
 11
1995.876326549369
 21
-1488.242929568807
 31
0.0
  0
LINE
  5
154E
330
2
100
AcDbEntity
  8
OUTLINE
100
AcDbLine
 10
1992.876326549369
 20
-1488.242929568807
 30
0.0
 11
1992.876326549369
 21
-1485.242929568807
 31
0.0
  0
LINE
  5
154F
330
2
100
AcDbEntity
  8
OUTLINE
100
AcDbLine
 10
1992.876326549369
 20
-1485.242929568807
 30
0.0
 11
1992.876326549369
 21
-1488.242929568807
 31
0.0
  0
LINE
  5
1550
330
2
100
AcDbEntity
  8
OUTLINE
100
AcDbLine
 10
1992.876326549369
 20
-1485.242929568807
 30
0.0
 11
1995.876326549369
 21
-1485.242929568807
 31
0.0
  0
LINE
  5
1551
330
2
100
AcDbEntity
  8
OUTLINE
100
AcDbLine
 10
1995.876326549369
 20
-1485.242929568807
 30
0.0
 11
1992.876326549369
 21
-1485.242929568807
 31
0.0
  0
LINE
  5
1552
330
2
100
AcDbEntity
  8
OUTLINE
100
AcDbLine
 10
1950.47632654937
 20
-1490.242929568807
 30
0.0
 11
1955.476326549369
 21
-1490.242929568807
 31
0.0
  0
LINE
  5
1553
330
2
100
AcDbEntity
  8
OUTLINE
100
AcDbLine
 10
1972.976326549369
 20
-1490.242929568807
 30
0.0
 11
1942.97632654937
 21
-1490.242929568807
 31
0.0
  0
LINE
  5
1554
330
2
100
AcDbEntity
  8
OUTLINE
100
AcDbLine
 10
1763.376326549369
 20
-1469.742929568807
 30
0.0
 11
1763.376326549369
 21
-1495.842929568808
 31
0.0
  0
LINE
  5
1555
330
2
100
AcDbEntity
  8
OUTLINE
100
AcDbLine
 10
1763.376326549369
 20
-1469.742929568807
 30
0.0
 11
1763.376326549369
 21
-1495.842929568808
 31
0.0
  0
LINE
  5
1556
330
2
100
AcDbEntity
  8
OUTLINE
100
AcDbLine
 10
2002.87632654937
 20
-1469.742929568807
 30
0.0
 11
1763.376326549369
 21
-1469.742929568807
 31
0.0
  0
CIRCLE
  5
1557
330
2
100
AcDbEntity
  8
OUTLINE
100
AcDbCircle
 10
1771.876326549369
 20
-1476.742929568807
 30
0.0
 40
2.5
  0
CIRCLE
  5
1558
330
2
100
AcDbEntity
  8
OUTLINE
100
AcDbCircle
 10
1994.376326549369
 20
-1476.742929568807
 30
0.0
 40
2.5
  0
LINE
  5
1559
330
2
100
AcDbEntity
  8
OUTLINE
100
AcDbLine
 10
1880.12632654937
 20
-1335.748222466761
 30
0.0
 11
1880.12632654937
 21
-1336.548222466761
 31
0.0
  0
LINE
  5
155A
330
2
100
AcDbEntity
  8
OUTLINE
100
AcDbLine
 10
1880.12632654937
 20
-1335.748222466761
 30
0.0
 11
1880.12632654937
 21
-1336.548222466761
 31
0.0
  0
LINE
  5
155B
330
2
100
AcDbEntity
  8
OUTLINE
100
AcDbLine
 10
1886.12632654937
 20
-1336.548222466761
 30
0.0
 11
1880.12632654937
 21
-1336.548222466761
 31
0.0
  0
LINE
  5
155C
330
2
100
AcDbEntity
  8
OUTLINE
100
AcDbLine
 10
1880.12632654937
 20
-1335.748222466761
 30
0.0
 11
1886.12632654937
 21
-1335.748222466761
 31
0.0
  0
LINE
  5
155D
330
2
100
AcDbEntity
  8
OUTLINE
100
AcDbLine
 10
1886.12632654937
 20
-1335.748222466761
 30
0.0
 11
1886.12632654937
 21
-1336.548222466761
 31
0.0
  0
LINE
  5
155E
330
2
100
AcDbEntity
  8
OUTLINE
100
AcDbLine
 10
1886.12632654937
 20
-1335.748222466761
 30
0.0
 11
1886.12632654937
 21
-1336.548222466761
 31
0.0
  0
LINE
  5
155F
330
2
100
AcDbEntity
  8
OUTLINE
100
AcDbLine
 10
1886.12632654937
 20
-1336.548222466761
 30
0.0
 11
1880.12632654937
 21
-1336.548222466761
 31
0.0
  0
LINE
  5
1560
330
2
100
AcDbEntity
  8
OUTLINE
100
AcDbLine
 10
1880.12632654937
 20
-1335.748222466761
 30
0.0
 11
1886.12632654937
 21
-1335.748222466761
 31
0.0
  0
CIRCLE
  5
1561
330
2
100
AcDbEntity
  8
OUTLINE
100
AcDbCircle
 10
1994.376326549369
 20
-1476.742929568807
 30
0.0
 40
2.5
  0
CIRCLE
  5
1562
330
2
100
AcDbEntity
  8
OUTLINE
100
AcDbCircle
 10
1771.876326549369
 20
-1476.742929568807
 30
0.0
 40
2.5
  0
LINE
  5
1563
330
2
100
AcDbEntity
  8
OUTLINE
100
AcDbLine
 10
2002.87632654937
 20
-1335.748222466761
 30
0.0
 11
1999.87632654937
 21
-1335.748222466761
 31
0.0
  0
LINE
  5
1564
330
2
100
AcDbEntity
  8
OUTLINE
100
AcDbLine
 10
1999.87632654937
 20
-1335.748222466761
 30
0.0
 11
1999.87632654937
 21
-1336.548222466761
 31
0.0
  0
LINE
  5
1565
330
2
100
AcDbEntity
  8
OUTLINE
100
AcDbLine
 10
1999.87632654937
 20
-1336.548222466761
 30
0.0
 11
2002.87632654937
 21
-1336.548222466761
 31
0.0
  0
LINE
  5
1566
330
2
100
AcDbEntity
  8
OUTLINE
100
AcDbLine
 10
2002.87632654937
 20
-1336.548222466761
 30
0.0
 11
2002.87632654937
 21
-1335.748222466761
 31
0.0
  0
LINE
  5
1567
330
2
100
AcDbEntity
  8
OUTLINE
100
AcDbLine
 10
1766.376326549369
 20
-1336.548222466761
 30
0.0
 11
1999.87632654937
 21
-1336.548222466761
 31
0.0
  0
LINE
  5
1568
330
2
100
AcDbEntity
  8
OUTLINE
100
AcDbLine
 10
1763.376326549369
 20
-1336.548222466761
 30
0.0
 11
1766.376326549369
 21
-1336.548222466761
 31
0.0
  0
LINE
  5
1569
330
2
100
AcDbEntity
  8
OUTLINE
100
AcDbLine
 10
1763.376326549369
 20
-1336.548222466761
 30
0.0
 11
2002.87632654937
 21
-1336.548222466761
 31
0.0
  0
LINE
  5
156A
330
2
100
AcDbEntity
  8
OUTLINE
100
AcDbLine
 10
1766.376326549369
 20
-1335.748222466761
 30
0.0
 11
1999.87632654937
 21
-1335.748222466761
 31
0.0
  0
LINE
  5
156B
330
2
100
AcDbEntity
  8
OUTLINE
100
AcDbLine
 10
1766.376326549369
 20
-1336.548222466761
 30
0.0
 11
1766.376326549369
 21
-1335.748222466761
 31
0.0
  0
LINE
  5
156C
330
2
100
AcDbEntity
  8
OUTLINE
100
AcDbLine
 10
1766.376326549369
 20
-1335.748222466761
 30
0.0
 11
1763.376326549369
 21
-1335.748222466761
 31
0.0
  0
LINE
  5
156D
330
2
100
AcDbEntity
  8
OUTLINE
100
AcDbLine
 10
1763.376326549369
 20
-1335.748222466761
 30
0.0
 11
1763.376326549369
 21
-1336.548222466761
 31
0.0
  0
ELLIPSE
  5
156E
330
2
100
AcDbEntity
  8
OUTLINE
100
AcDbEllipse
 10
1994.376326549369
 20
-1404.391024284975
 30
0.0
 11
-2.5
 21
-0.0000000000000001
 31
0.0
210
0.0
220
0.0
230
1.0
 40
0.866025403784439
 41
4.712388980384688
 42
10.99557428756427
  0
ELLIPSE
  5
156F
330
2
100
AcDbEntity
  8
OUTLINE
100
AcDbEllipse
 10
1994.376326549369
 20
-1404.791024284975
 30
0.0
 11
-2.5
 21
-0.0000000000000001
 31
0.0
210
0.0
220
0.0
230
1.0
 40
0.8660254037844381
 41
1.570796326794896
 42
7.853981633974482
  0
ELLIPSE
  5
1570
330
2
100
AcDbEntity
  8
OUTLINE
100
AcDbEllipse
 10
1771.876326549369
 20
-1404.391024284975
 30
0.0
 11
-2.5
 21
-0.0000000000000001
 31
0.0
210
0.0
220
0.0
230
1.0
 40
0.866025403784439
 41
4.712388980384688
 42
10.99557428756427
  0
ELLIPSE
  5
1571
330
2
100
AcDbEntity
  8
OUTLINE
100
AcDbEllipse
 10
1771.876326549369
 20
-1404.791024284975
 30
0.0
 11
-2.5
 21
-0.0000000000000001
 31
0.0
210
0.0
220
0.0
230
1.0
 40
0.8660254037844381
 41
1.570796326794896
 42
7.853981633974482
  0
LINE
  5
1572
330
2
100
AcDbEntity
  8
OUTLINE
100
AcDbLine
 10
2002.87632654937
 20
-1335.74822246676
 30
0.0
 11
2002.87632654937
 21
-1336.548222466761
 31
0.0
  0
LINE
  5
1573
330
2
100
AcDbEntity
  8
OUTLINE
100
AcDbLine
 10
1763.376326549369
 20
-1336.548222466761
 30
0.0
 11
1763.376326549369
 21
-1335.74822246676
 31
0.0
  0
LINE
  5
1574
330
2
100
AcDbEntity
  8
OUTLINE
100
AcDbLine
 10
1763.376326549369
 20
-1335.74822246676
 30
0.0
 11
2002.87632654937
 21
-1335.74822246676
 31
0.0
  0
LINE
  5
1575
330
2
100
AcDbEntity
  8
OUTLINE
100
AcDbLine
 10
2002.87632654937
 20
-1469.742929568807
 30
0.0
 11
2002.87632654937
 21
-1336.548222466761
 31
0.0
  0
LINE
  5
1576
330
2
100
AcDbEntity
  8
OUTLINE
100
AcDbLine
 10
1763.376326549369
 20
-1336.548222466761
 30
0.0
 11
1763.376326549369
 21
-1469.742929568807
 31
0.0
  0
LINE
  5
1577
330
2
100
AcDbEntity
  8
OUTLINE
100
AcDbLine
 10
2002.87632654937
 20
-1336.548222466761
 30
0.0
 11
2002.87632654937
 21
-1336.148222466761
 31
0.0
  0
LINE
  5
1578
330
2
100
AcDbEntity
  8
OUTLINE
100
AcDbLine
 10
1763.376326549369
 20
-1336.148222466761
 30
0.0
 11
2002.87632654937
 21
-1336.148222466761
 31
0.0
  0
LINE
  5
1579
330
2
100
AcDbEntity
  8
OUTLINE
100
AcDbLine
 10
1763.376326549369
 20
-1336.148222466761
 30
0.0
 11
1763.376326549369
 21
-1336.548222466761
 31
0.0
  0
LINE
  5
157A
330
2
100
AcDbEntity
  8
OUTLINE
100
AcDbLine
 10
2002.87632654937
 20
-1336.148222466761
 30
0.0
 11
2002.87632654937
 21
-1469.342929568808
 31
0.0
  0
LINE
  5
157B
330
2
100
AcDbEntity
  8
OUTLINE
100
AcDbLine
 10
1763.376326549369
 20
-1469.342929568808
 30
0.0
 11
2002.87632654937
 21
-1469.342929568808
 31
0.0
  0
LINE
  5
157C
330
2
100
AcDbEntity
  8
OUTLINE
100
AcDbLine
 10
1763.376326549369
 20
-1469.342929568808
 30
0.0
 11
1763.376326549369
 21
-1336.148222466761
 31
0.0
  0
LINE
  5
157D
330
2
100
AcDbEntity
  8
OUTLINE
100
AcDbLine
 10
2002.87632654937
 20
-1469.342929568808
 30
0.0
 11
2002.87632654937
 21
-1469.742929568807
 31
0.0
  0
LINE
  5
157E
330
2
100
AcDbEntity
  8
OUTLINE
100
AcDbLine
 10
1763.376326549369
 20
-1469.742929568807
 30
0.0
 11
1763.376326549369
 21
-1469.342929568808
 31
0.0
  0
LINE
  5
157F
330
2
100
AcDbEntity
  8
OUTLINE
100
AcDbLine
 10
2002.87632654937
 20
-1469.742929568807
 30
0.0
 11
1763.376326549369
 21
-1469.742929568807
 31
0.0
  0
LINE
  5
1580
330
2
100
AcDbEntity
  8
OUTLINE
100
AcDbLine
 10
1769.876326549369
 20
-1337.348222466761
 30
0.0
 11
1773.87632654937
 21
-1337.348222466761
 31
0.0
  0
LINE
  5
1581
330
2
100
AcDbEntity
  8
OUTLINE
100
AcDbLine
 10
1773.87632654937
 20
-1338.148222466761
 30
0.0
 11
1769.876326549369
 21
-1338.148222466761
 31
0.0
  0
LINE
  5
1582
330
2
100
AcDbEntity
  8
OUTLINE
100
AcDbLine
 10
1757.87632654937
 20
-1495.748222466761
 30
0.0
 11
1752.87632654937
 21
-1495.748222466761
 31
0.0
  0
LINE
  5
1583
330
2
100
AcDbEntity
  8
OUTLINE
100
AcDbLine
 10
1752.87632654937
 20
-1494.948222466761
 30
0.0
 11
1757.87632654937
 21
-1494.948222466761
 31
0.0
  0
LINE
  5
1584
330
2
100
AcDbEntity
  8
OUTLINE
100
AcDbLine
 10
1762.660436913884
 20
-1338.348222466761
 30
0.0
 11
1765.209659882703
 21
-1337.348222466761
 31
0.0
  0
LINE
  5
1585
330
2
100
AcDbEntity
  8
OUTLINE
100
AcDbLine
 10
1763.200192179118
 20
-1338.348222466761
 30
0.0
 11
1762.660436913884
 21
-1338.348222466761
 31
0.0
  0
LINE
  5
1586
330
2
100
AcDbEntity
  8
OUTLINE
100
AcDbLine
 10
1763.176326549369
 20
-1338.188643102104
 30
0.0
 11
1763.200192179118
 21
-1338.348222466761
 31
0.0
  0
LINE
  5
1587
330
2
100
AcDbEntity
  8
OUTLINE
100
AcDbLine
 10
1763.176326549369
 20
-1338.148222466761
 30
0.0
 11
1763.176326549369
 21
-1338.188643102104
 31
0.0
  0
LINE
  5
1588
330
2
100
AcDbEntity
  8
OUTLINE
100
AcDbLine
 10
1778.376326549369
 20
-1338.148222466761
 30
0.0
 11
1763.176326549369
 21
-1338.148222466761
 31
0.0
  0
LINE
  5
1589
330
2
100
AcDbEntity
  8
OUTLINE
100
AcDbLine
 10
1778.376326549369
 20
-1337.348222466761
 30
0.0
 11
1778.376326549369
 21
-1338.148222466761
 31
0.0
  0
LINE
  5
158A
330
2
100
AcDbEntity
  8
OUTLINE
100
AcDbLine
 10
1765.209659882703
 20
-1337.348222466761
 30
0.0
 11
1778.376326549369
 21
-1337.348222466761
 31
0.0
  0
LINE
  5
158B
330
2
100
AcDbEntity
  8
OUTLINE
100
AcDbLine
 10
1763.976326549369
 20
-1338.348222466761
 30
0.0
 11
1762.660436913884
 21
-1338.348222466761
 31
0.0
  0
LINE
  5
158C
330
2
100
AcDbEntity
  8
OUTLINE
100
AcDbLine
 10
1763.200192179118
 20
-1338.348222466761
 30
0.0
 11
1763.976326549369
 21
-1338.348222466761
 31
0.0
  0
LINE
  5
158D
330
2
100
AcDbEntity
  8
OUTLINE
100
AcDbLine
 10
1769.876326549369
 20
-1337.348222466761
 30
0.0
 11
1773.87632654937
 21
-1337.348222466761
 31
0.0
  0
LINE
  5
158E
330
2
100
AcDbEntity
  8
OUTLINE
100
AcDbLine
 10
1778.376326549369
 20
-1337.348222466761
 30
0.0
 11
1763.176326549369
 21
-1337.348222466761
 31
0.0
  0
LINE
  5
158F
330
2
100
AcDbEntity
  8
OUTLINE
100
AcDbLine
 10
1763.176326549369
 20
-1337.348222466761
 30
0.0
 11
1762.376326549369
 21
-1337.348222466761
 31
0.0
  0
LINE
  5
1590
330
2
100
AcDbEntity
  8
OUTLINE
100
AcDbLine
 10
1765.209659882703
 20
-1337.348222466761
 30
0.0
 11
1762.376326549369
 21
-1337.348222466761
 31
0.0
  0
LINE
  5
1591
330
2
100
AcDbEntity
  8
OUTLINE
100
AcDbLine
 10
1778.376326549369
 20
-1338.148222466761
 30
0.0
 11
1778.376326549369
 21
-1337.348222466761
 31
0.0
  0
LINE
  5
1592
330
2
100
AcDbEntity
  8
OUTLINE
100
AcDbLine
 10
1773.87632654937
 20
-1338.148222466761
 30
0.0
 11
1769.876326549369
 21
-1338.148222466761
 31
0.0
  0
LINE
  5
1593
330
2
100
AcDbEntity
  8
OUTLINE
100
AcDbLine
 10
1763.176326549369
 20
-1338.148222466761
 30
0.0
 11
1778.376326549369
 21
-1338.148222466761
 31
0.0
  0
LINE
  5
1594
330
2
100
AcDbEntity
  8
OUTLINE
100
AcDbLine
 10
1763.176326549369
 20
-1338.188643102104
 30
0.0
 11
1763.176326549369
 21
-1349.446203250175
 31
0.0
  0
LINE
  5
1595
330
2
100
AcDbEntity
  8
OUTLINE
100
AcDbLine
 10
1763.176326549369
 20
-1349.446203250175
 30
0.0
 11
1763.176326549369
 21
-1494.351875070011
 31
0.0
  0
LINE
  5
1596
330
2
100
AcDbEntity
  8
OUTLINE
100
AcDbLine
 10
1763.176326549369
 20
-1494.351875070011
 30
0.0
 11
1763.176326549369
 21
-1494.948222466761
 31
0.0
  0
LINE
  5
1597
330
2
100
AcDbEntity
  8
OUTLINE
100
AcDbLine
 10
1763.176326549369
 20
-1494.948222466761
 30
0.0
 11
1763.176326549369
 21
-1495.748222466761
 31
0.0
  0
LINE
  5
1598
330
2
100
AcDbEntity
  8
OUTLINE
100
AcDbLine
 10
1763.176326549369
 20
-1495.748222466761
 30
0.0
 11
1763.176326549369
 21
-1469.862581820706
 31
0.0
  0
LINE
  5
1599
330
2
100
AcDbEntity
  8
OUTLINE
100
AcDbLine
 10
1763.176326549369
 20
-1469.862581820706
 30
0.0
 11
1763.176326549369
 21
-1338.948222466761
 31
0.0
  0
LINE
  5
159A
330
2
100
AcDbEntity
  8
OUTLINE
100
AcDbLine
 10
1763.176326549369
 20
-1337.348222466761
 30
0.0
 11
1763.176326549369
 21
-1338.948222466761
 31
0.0
  0
LINE
  5
159B
330
2
100
AcDbEntity
  8
OUTLINE
100
AcDbLine
 10
1763.176326549369
 20
-1337.348222466761
 30
0.0
 11
1763.176326549369
 21
-1338.148222466761
 31
0.0
  0
LINE
  5
159C
330
2
100
AcDbEntity
  8
OUTLINE
100
AcDbLine
 10
1763.176326549369
 20
-1487.248222466761
 30
0.0
 11
1763.176326549369
 21
-1484.248222466761
 31
0.0
  0
LINE
  5
159D
330
2
100
AcDbEntity
  8
OUTLINE
100
AcDbLine
 10
1763.176326549369
 20
-1484.248222466761
 30
0.0
 11
1763.176326549369
 21
-1487.248222466761
 31
0.0
  0
CIRCLE
  5
159E
330
2
100
AcDbEntity
  8
OUTLINE
100
AcDbCircle
 10
1771.876326549369
 20
-1486.648222466761
 30
0.0
 40
2.5
  0
CIRCLE
  5
159F
330
2
100
AcDbEntity
  8
OUTLINE
100
AcDbCircle
 10
1771.876326549369
 20
-1486.648222466761
 30
0.0
 40
2.5
  0
LINE
  5
15A0
330
2
100
AcDbEntity
  8
OUTLINE
100
AcDbLine
 10
1762.376326549369
 20
-1487.248222466761
 30
0.0
 11
1762.376326549369
 21
-1484.248222466761
 31
0.0
  0
LINE
  5
15A1
330
2
100
AcDbEntity
  8
OUTLINE
100
AcDbLine
 10
1763.176326549369
 20
-1487.248222466761
 30
0.0
 11
1762.376326549369
 21
-1487.248222466761
 31
0.0
  0
LINE
  5
15A2
330
2
100
AcDbEntity
  8
OUTLINE
100
AcDbLine
 10
1763.176326549369
 20
-1484.248222466761
 30
0.0
 11
1762.376326549369
 21
-1484.248222466761
 31
0.0
  0
LINE
  5
15A3
330
2
100
AcDbEntity
  8
OUTLINE
100
AcDbLine
 10
1763.176326549369
 20
-1484.248222466761
 30
0.0
 11
1762.376326549369
 21
-1484.248222466761
 31
0.0
  0
LINE
  5
15A4
330
2
100
AcDbEntity
  8
OUTLINE
100
AcDbLine
 10
1762.376326549369
 20
-1484.248222466761
 30
0.0
 11
1762.376326549369
 21
-1487.248222466761
 31
0.0
  0
LINE
  5
15A5
330
2
100
AcDbEntity
  8
OUTLINE
100
AcDbLine
 10
1763.176326549369
 20
-1487.248222466761
 30
0.0
 11
1762.376326549369
 21
-1487.248222466761
 31
0.0
  0
LINE
  5
15A6
330
2
100
AcDbEntity
  8
OUTLINE
100
AcDbLine
 10
1747.176326549369
 20
-1495.748222466761
 30
0.0
 11
1750.176326549369
 21
-1495.748222466761
 31
0.0
  0
LINE
  5
15A7
330
2
100
AcDbEntity
  8
OUTLINE
100
AcDbLine
 10
1750.176326549369
 20
-1495.748222466761
 30
0.0
 11
1750.176326549369
 21
-1494.948222466761
 31
0.0
  0
LINE
  5
15A8
330
2
100
AcDbEntity
  8
OUTLINE
100
AcDbLine
 10
1750.176326549369
 20
-1494.948222466761
 30
0.0
 11
1747.176326549369
 21
-1494.948222466761
 31
0.0
  0
LINE
  5
15A9
330
2
100
AcDbEntity
  8
OUTLINE
100
AcDbLine
 10
1747.176326549369
 20
-1494.948222466761
 30
0.0
 11
1747.176326549369
 21
-1495.748222466761
 31
0.0
  0
LINE
  5
15AA
330
2
100
AcDbEntity
  8
OUTLINE
100
AcDbLine
 10
1747.176326549369
 20
-1495.748222466761
 30
0.0
 11
1747.176326549369
 21
-1494.948222466761
 31
0.0
  0
LINE
  5
15AB
330
2
100
AcDbEntity
  8
OUTLINE
100
AcDbLine
 10
1752.87632654937
 20
-1494.948222466761
 30
0.0
 11
1757.87632654937
 21
-1494.948222466761
 31
0.0
  0
LINE
  5
15AC
330
2
100
AcDbEntity
  8
OUTLINE
100
AcDbLine
 10
1752.87632654937
 20
-1494.948222466761
 30
0.0
 11
1757.87632654937
 21
-1494.948222466761
 31
0.0
  0
LINE
  5
15AD
330
2
100
AcDbEntity
  8
OUTLINE
100
AcDbLine
 10
1763.176326549369
 20
-1494.948222466761
 30
0.0
 11
1750.176326549369
 21
-1494.948222466761
 31
0.0
  0
LINE
  5
15AE
330
2
100
AcDbEntity
  8
OUTLINE
100
AcDbLine
 10
1762.376326549369
 20
-1494.948222466761
 30
0.0
 11
1763.176326549369
 21
-1494.948222466761
 31
0.0
  0
LINE
  5
15AF
330
2
100
AcDbEntity
  8
OUTLINE
100
AcDbLine
 10
1762.376326549369
 20
-1494.948222466761
 30
0.0
 11
1750.176326549369
 21
-1494.948222466761
 31
0.0
  0
LINE
  5
15B0
330
2
100
AcDbEntity
  8
OUTLINE
100
AcDbLine
 10
1747.176326549369
 20
-1494.948222466761
 30
0.0
 11
1750.176326549369
 21
-1494.948222466761
 31
0.0
  0
LINE
  5
15B1
330
2
100
AcDbEntity
  8
OUTLINE
100
AcDbLine
 10
1750.176326549369
 20
-1494.948222466761
 30
0.0
 11
1750.176326549369
 21
-1495.748222466761
 31
0.0
  0
LINE
  5
15B2
330
2
100
AcDbEntity
  8
OUTLINE
100
AcDbLine
 10
1750.176326549369
 20
-1495.748222466761
 30
0.0
 11
1747.176326549369
 21
-1495.748222466761
 31
0.0
  0
LINE
  5
15B3
330
2
100
AcDbEntity
  8
OUTLINE
100
AcDbLine
 10
1762.376326549369
 20
-1494.948222466761
 30
0.0
 11
1762.376326549369
 21
-1469.648222466761
 31
0.0
  0
LINE
  5
15B4
330
2
100
AcDbEntity
  8
OUTLINE
100
AcDbLine
 10
1778.376326549369
 20
-1469.648222466761
 30
0.0
 11
1762.376326549369
 21
-1469.648222466761
 31
0.0
  0
LINE
  5
15B5
330
2
100
AcDbEntity
  8
OUTLINE
100
AcDbLine
 10
1778.376326549369
 20
-1495.748222466761
 30
0.0
 11
1778.376326549369
 21
-1469.648222466761
 31
0.0
  0
LINE
  5
15B6
330
2
100
AcDbEntity
  8
OUTLINE
100
AcDbLine
 10
1778.376326549369
 20
-1495.748222466761
 30
0.0
 11
1750.176326549369
 21
-1495.748222466761
 31
0.0
  0
CIRCLE
  5
15B7
330
2
100
AcDbEntity
  8
OUTLINE
100
AcDbCircle
 10
1771.876326549369
 20
-1476.648222466761
 30
0.0
 40
2.0
  0
LINE
  5
15B8
330
2
100
AcDbEntity
  8
OUTLINE
100
AcDbLine
 10
1778.376326549369
 20
-1338.948222466761
 30
0.0
 11
1763.176326549369
 21
-1338.948222466761
 31
0.0
  0
LINE
  5
15B9
330
2
100
AcDbEntity
  8
OUTLINE
100
AcDbLine
 10
1778.376326549369
 20
-1337.348222466761
 30
0.0
 11
1778.376326549369
 21
-1338.948222466761
 31
0.0
  0
LINE
  5
15BA
330
2
100
AcDbEntity
  8
OUTLINE
100
AcDbLine
 10
1778.376326549369
 20
-1337.348222466761
 30
0.0
 11
1763.176326549369
 21
-1337.348222466761
 31
0.0
  0
LINE
  5
15BB
330
2
100
AcDbEntity
  8
OUTLINE
100
AcDbLine
 10
1778.376326549369
 20
-1338.948222466761
 30
0.0
 11
1778.376326549369
 21
-1469.862581820706
 31
0.0
  0
LINE
  5
15BC
330
2
100
AcDbEntity
  8
OUTLINE
100
AcDbLine
 10
1778.376326549369
 20
-1469.862581820706
 30
0.0
 11
1778.376326549369
 21
-1495.748222466761
 31
0.0
  0
LINE
  5
15BD
330
2
100
AcDbEntity
  8
OUTLINE
100
AcDbLine
 10
1778.376326549369
 20
-1469.648222466761
 30
0.0
 11
1778.376326549369
 21
-1337.348222466761
 31
0.0
  0
LINE
  5
15BE
330
2
100
AcDbEntity
  8
OUTLINE
100
AcDbLine
 10
1763.976326549369
 20
-1349.446203250175
 30
0.0
 11
1763.976326549369
 21
-1338.348222466761
 31
0.0
  0
LINE
  5
15BF
330
2
100
AcDbEntity
  8
OUTLINE
100
AcDbLine
 10
1763.176326549369
 20
-1349.446203250175
 30
0.0
 11
1763.976326549369
 21
-1349.446203250175
 31
0.0
  0
LINE
  5
15C0
330
2
100
AcDbEntity
  8
OUTLINE
100
AcDbLine
 10
1763.976326549369
 20
-1349.446203250175
 30
0.0
 11
1763.976326549369
 21
-1494.351875070011
 31
0.0
  0
LINE
  5
15C1
330
2
100
AcDbEntity
  8
OUTLINE
100
AcDbLine
 10
1763.176326549369
 20
-1494.351875070011
 30
0.0
 11
1763.976326549369
 21
-1494.351875070011
 31
0.0
  0
LINE
  5
15C2
330
2
100
AcDbEntity
  8
OUTLINE
100
AcDbLine
 10
1763.976326549369
 20
-1494.948222466761
 30
0.0
 11
1763.976326549369
 21
-1338.348222466761
 31
0.0
  0
LINE
  5
15C3
330
2
100
AcDbEntity
  8
OUTLINE
100
AcDbLine
 10
1763.976326549369
 20
-1494.351875070011
 30
0.0
 11
1763.976326549369
 21
-1494.948222466761
 31
0.0
  0
LINE
  5
15C4
330
2
100
AcDbEntity
  8
OUTLINE
100
AcDbLine
 10
1763.176326549369
 20
-1494.948222466761
 30
0.0
 11
1763.976326549369
 21
-1494.948222466761
 31
0.0
  0
CIRCLE
  5
15C5
330
2
100
AcDbEntity
  8
OUTLINE
100
AcDbCircle
 10
1771.876326549369
 20
-1476.648222466761
 30
0.0
 40
2.0
  0
ELLIPSE
  5
15C6
330
2
100
AcDbEntity
  8
OUTLINE
100
AcDbEllipse
 10
1771.876326549369
 20
-1405.298203961947
 30
0.0
 11
-2.0
 21
0.0
 31
0.0
210
0.0
220
0.0
230
1.0
 40
0.866025403784439
 41
1.570796326794896
 42
7.853981633974482
  0
ELLIPSE
  5
15C7
330
2
100
AcDbEntity
  8
OUTLINE
100
AcDbEllipse
 10
1771.876326549369
 20
-1404.898203961947
 30
0.0
 11
-2.0
 21
0.0
 31
0.0
210
0.0
220
0.0
230
1.0
 40
0.8660254037844389
 41
4.712388980384688
 42
10.99557428756427
  0
LINE
  5
15C8
330
2
100
AcDbEntity
  8
OUTLINE
100
AcDbLine
 10
1757.87632654937
 20
-1495.748222466761
 30
0.0
 11
1752.87632654937
 21
-1495.748222466761
 31
0.0
  0
LINE
  5
15C9
330
2
100
AcDbEntity
  8
OUTLINE
100
AcDbLine
 10
1757.87632654937
 20
-1495.748222466761
 30
0.0
 11
1752.87632654937
 21
-1495.748222466761
 31
0.0
  0
LINE
  5
15CA
330
2
100
AcDbEntity
  8
OUTLINE
100
AcDbLine
 10
1763.176326549369
 20
-1495.748222466761
 30
0.0
 11
1750.176326549369
 21
-1495.748222466761
 31
0.0
  0
LINE
  5
15CB
330
2
100
AcDbEntity
  8
OUTLINE
100
AcDbLine
 10
1762.376326549369
 20
-1337.348222466761
 30
0.0
 11
1762.376326549369
 21
-1494.948222466761
 31
0.0
  0
LINE
  5
15CC
330
2
100
AcDbEntity
  8
OUTLINE
100
AcDbLine
 10
1762.376326549369
 20
-1469.648222466761
 30
0.0
 11
1762.376326549369
 21
-1337.348222466761
 31
0.0
  0
LINE
  5
15CD
330
2
100
AcDbEntity
  8
OUTLINE
100
AcDbLine
 10
1778.376326549369
 20
-1495.748222466761
 30
0.0
 11
1763.176326549369
 21
-1495.748222466761
 31
0.0
  0
LINE
  5
15CE
330
2
100
AcDbEntity
  8
OUTLINE
100
AcDbLine
 10
1778.376326549369
 20
-1469.862581820706
 30
0.0
 11
1763.176326549369
 21
-1469.862581820706
 31
0.0
  0
LINE
  5
15CF
330
2
100
AcDbEntity
  8
OUTLINE
100
AcDbLine
 10
1992.37632654937
 20
-1337.348222466761
 30
0.0
 11
1996.37632654937
 21
-1337.348222466761
 31
0.0
  0
LINE
  5
15D0
330
2
100
AcDbEntity
  8
OUTLINE
100
AcDbLine
 10
1996.37632654937
 20
-1338.148222466761
 30
0.0
 11
1992.37632654937
 21
-1338.148222466761
 31
0.0
  0
LINE
  5
15D1
330
2
100
AcDbEntity
  8
OUTLINE
100
AcDbLine
 10
2013.37632654937
 20
-1495.748222466761
 30
0.0
 11
2008.37632654937
 21
-1495.748222466761
 31
0.0
  0
LINE
  5
15D2
330
2
100
AcDbEntity
  8
OUTLINE
100
AcDbLine
 10
2008.37632654937
 20
-1494.948222466761
 30
0.0
 11
2013.37632654937
 21
-1494.948222466761
 31
0.0
  0
LINE
  5
15D3
330
2
100
AcDbEntity
  8
OUTLINE
100
AcDbLine
 10
2003.154857186575
 20
-1338.164049867716
 30
0.0
 11
2002.276326549369
 21
-1338.164049867716
 31
0.0
  0
LINE
  5
15D4
330
2
100
AcDbEntity
  8
OUTLINE
100
AcDbLine
 10
2003.154857186575
 20
-1338.164049867716
 30
0.0
 11
2003.172585435885
 21
-1338.348222466761
 31
0.0
  0
LINE
  5
15D5
330
2
100
AcDbEntity
  8
OUTLINE
100
AcDbLine
 10
2002.276326549369
 20
-1338.348222466761
 30
0.0
 11
2003.172585435885
 21
-1338.348222466761
 31
0.0
  0
LINE
  5
15D6
330
2
100
AcDbEntity
  8
OUTLINE
100
AcDbLine
 10
2002.276326549369
 20
-1338.164049867716
 30
0.0
 11
2002.276326549369
 21
-1338.348222466761
 31
0.0
  0
LINE
  5
15D7
330
2
100
AcDbEntity
  8
OUTLINE
100
AcDbLine
 10
2003.172585435885
 20
-1338.348222466761
 30
0.0
 11
2003.07632654937
 21
-1338.348222466761
 31
0.0
  0
LINE
  5
15D8
330
2
100
AcDbEntity
  8
OUTLINE
100
AcDbLine
 10
2002.276326549369
 20
-1338.348222466761
 30
0.0
 11
2003.07632654937
 21
-1338.348222466761
 31
0.0
  0
LINE
  5
15D9
330
2
100
AcDbEntity
  8
OUTLINE
100
AcDbLine
 10
2001.156911608141
 20
-1337.348222466761
 30
0.0
 11
2003.154857186575
 21
-1338.164049867716
 31
0.0
  0
LINE
  5
15DA
330
2
100
AcDbEntity
  8
OUTLINE
100
AcDbLine
 10
1987.876326549369
 20
-1337.348222466761
 30
0.0
 11
2001.156911608141
 21
-1337.348222466761
 31
0.0
  0
LINE
  5
15DB
330
2
100
AcDbEntity
  8
OUTLINE
100
AcDbLine
 10
1987.876326549369
 20
-1338.148222466761
 30
0.0
 11
1987.876326549369
 21
-1337.348222466761
 31
0.0
  0
LINE
  5
15DC
330
2
100
AcDbEntity
  8
OUTLINE
100
AcDbLine
 10
2003.07632654937
 20
-1338.148222466761
 30
0.0
 11
1987.876326549369
 21
-1338.148222466761
 31
0.0
  0
LINE
  5
15DD
330
2
100
AcDbEntity
  8
OUTLINE
100
AcDbLine
 10
2003.07632654937
 20
-1338.348222466761
 30
0.0
 11
2003.07632654937
 21
-1338.148222466761
 31
0.0
  0
LINE
  5
15DE
330
2
100
AcDbEntity
  8
OUTLINE
100
AcDbLine
 10
2002.276326549369
 20
-1338.348222466761
 30
0.0
 11
2002.276326549369
 21
-1349.446203250175
 31
0.0
  0
LINE
  5
15DF
330
2
100
AcDbEntity
  8
OUTLINE
100
AcDbLine
 10
2002.276326549369
 20
-1494.351875070011
 30
0.0
 11
2002.276326549369
 21
-1349.446203250175
 31
0.0
  0
LINE
  5
15E0
330
2
100
AcDbEntity
  8
OUTLINE
100
AcDbLine
 10
2002.276326549369
 20
-1494.35187507001
 30
0.0
 11
2002.276326549369
 21
-1494.948222466761
 31
0.0
  0
LINE
  5
15E1
330
2
100
AcDbEntity
  8
OUTLINE
100
AcDbLine
 10
2002.276326549369
 20
-1338.164049867716
 30
0.0
 11
2002.276326549369
 21
-1494.948222466761
 31
0.0
  0
LINE
  5
15E2
330
2
100
AcDbEntity
  8
OUTLINE
100
AcDbLine
 10
2003.07632654937
 20
-1349.446203250175
 30
0.0
 11
2003.07632654937
 21
-1338.348222466761
 31
0.0
  0
LINE
  5
15E3
330
2
100
AcDbEntity
  8
OUTLINE
100
AcDbLine
 10
2002.276326549369
 20
-1349.446203250175
 30
0.0
 11
2003.07632654937
 21
-1349.446203250175
 31
0.0
  0
LINE
  5
15E4
330
2
100
AcDbEntity
  8
OUTLINE
100
AcDbLine
 10
2003.07632654937
 20
-1337.348222466761
 30
0.0
 11
2003.07632654937
 21
-1338.148222466761
 31
0.0
  0
LINE
  5
15E5
330
2
100
AcDbEntity
  8
OUTLINE
100
AcDbLine
 10
2003.07632654937
 20
-1337.348222466761
 30
0.0
 11
2003.07632654937
 21
-1338.948222466761
 31
0.0
  0
LINE
  5
15E6
330
2
100
AcDbEntity
  8
OUTLINE
100
AcDbLine
 10
2003.07632654937
 20
-1338.948222466761
 30
0.0
 11
2003.07632654937
 21
-1469.862581820706
 31
0.0
  0
LINE
  5
15E7
330
2
100
AcDbEntity
  8
OUTLINE
100
AcDbLine
 10
2003.07632654937
 20
-1469.862581820706
 30
0.0
 11
2003.07632654937
 21
-1495.748222466761
 31
0.0
  0
LINE
  5
15E8
330
2
100
AcDbEntity
  8
OUTLINE
100
AcDbLine
 10
2003.07632654937
 20
-1495.748222466761
 30
0.0
 11
2003.07632654937
 21
-1494.948222466761
 31
0.0
  0
LINE
  5
15E9
330
2
100
AcDbEntity
  8
OUTLINE
100
AcDbLine
 10
2003.07632654937
 20
-1494.948222466761
 30
0.0
 11
2003.07632654937
 21
-1494.35187507001
 31
0.0
  0
LINE
  5
15EA
330
2
100
AcDbEntity
  8
OUTLINE
100
AcDbLine
 10
2003.07632654937
 20
-1494.35187507001
 30
0.0
 11
2003.07632654937
 21
-1349.446203250175
 31
0.0
  0
LINE
  5
15EB
330
2
100
AcDbEntity
  8
OUTLINE
100
AcDbLine
 10
2003.07632654937
 20
-1487.248222466761
 30
0.0
 11
2003.07632654937
 21
-1484.248222466761
 31
0.0
  0
LINE
  5
15EC
330
2
100
AcDbEntity
  8
OUTLINE
100
AcDbLine
 10
2003.07632654937
 20
-1484.248222466761
 30
0.0
 11
2003.07632654937
 21
-1487.248222466761
 31
0.0
  0
CIRCLE
  5
15ED
330
2
100
AcDbEntity
  8
OUTLINE
100
AcDbCircle
 10
1994.376326549369
 20
-1486.648222466761
 30
0.0
 40
2.5
  0
CIRCLE
  5
15EE
330
2
100
AcDbEntity
  8
OUTLINE
100
AcDbCircle
 10
1994.376326549369
 20
-1486.648222466761
 30
0.0
 40
2.5
  0
LINE
  5
15EF
330
2
100
AcDbEntity
  8
OUTLINE
100
AcDbLine
 10
2003.87632654937
 20
-1487.248222466761
 30
0.0
 11
2003.87632654937
 21
-1484.248222466761
 31
0.0
  0
LINE
  5
15F0
330
2
100
AcDbEntity
  8
OUTLINE
100
AcDbLine
 10
2003.07632654937
 20
-1487.248222466761
 30
0.0
 11
2003.87632654937
 21
-1487.248222466761
 31
0.0
  0
LINE
  5
15F1
330
2
100
AcDbEntity
  8
OUTLINE
100
AcDbLine
 10
2003.07632654937
 20
-1484.248222466761
 30
0.0
 11
2003.87632654937
 21
-1484.248222466761
 31
0.0
  0
LINE
  5
15F2
330
2
100
AcDbEntity
  8
OUTLINE
100
AcDbLine
 10
2003.07632654937
 20
-1484.248222466761
 30
0.0
 11
2003.87632654937
 21
-1484.248222466761
 31
0.0
  0
LINE
  5
15F3
330
2
100
AcDbEntity
  8
OUTLINE
100
AcDbLine
 10
2003.87632654937
 20
-1484.248222466761
 30
0.0
 11
2003.87632654937
 21
-1487.248222466761
 31
0.0
  0
LINE
  5
15F4
330
2
100
AcDbEntity
  8
OUTLINE
100
AcDbLine
 10
2003.07632654937
 20
-1487.248222466761
 30
0.0
 11
2003.87632654937
 21
-1487.248222466761
 31
0.0
  0
LINE
  5
15F5
330
2
100
AcDbEntity
  8
OUTLINE
100
AcDbLine
 10
2019.07632654937
 20
-1494.948222466761
 30
0.0
 11
2016.07632654937
 21
-1494.948222466761
 31
0.0
  0
LINE
  5
15F6
330
2
100
AcDbEntity
  8
OUTLINE
100
AcDbLine
 10
2016.07632654937
 20
-1494.948222466761
 30
0.0
 11
2016.07632654937
 21
-1495.748222466761
 31
0.0
  0
LINE
  5
15F7
330
2
100
AcDbEntity
  8
OUTLINE
100
AcDbLine
 10
2016.07632654937
 20
-1495.748222466761
 30
0.0
 11
2019.07632654937
 21
-1495.748222466761
 31
0.0
  0
LINE
  5
15F8
330
2
100
AcDbEntity
  8
OUTLINE
100
AcDbLine
 10
2019.07632654937
 20
-1495.748222466761
 30
0.0
 11
2019.07632654937
 21
-1494.948222466761
 31
0.0
  0
LINE
  5
15F9
330
2
100
AcDbEntity
  8
OUTLINE
100
AcDbLine
 10
2008.37632654937
 20
-1494.948222466761
 30
0.0
 11
2013.37632654937
 21
-1494.948222466761
 31
0.0
  0
LINE
  5
15FA
330
2
100
AcDbEntity
  8
OUTLINE
100
AcDbLine
 10
2008.37632654937
 20
-1494.948222466761
 30
0.0
 11
2013.37632654937
 21
-1494.948222466761
 31
0.0
  0
LINE
  5
15FB
330
2
100
AcDbEntity
  8
OUTLINE
100
AcDbLine
 10
2016.07632654937
 20
-1494.948222466761
 30
0.0
 11
2019.07632654937
 21
-1494.948222466761
 31
0.0
  0
LINE
  5
15FC
330
2
100
AcDbEntity
  8
OUTLINE
100
AcDbLine
 10
2003.87632654937
 20
-1494.948222466761
 30
0.0
 11
2016.07632654937
 21
-1494.948222466761
 31
0.0
  0
LINE
  5
15FD
330
2
100
AcDbEntity
  8
OUTLINE
100
AcDbLine
 10
2003.07632654937
 20
-1494.948222466761
 30
0.0
 11
2003.87632654937
 21
-1494.948222466761
 31
0.0
  0
LINE
  5
15FE
330
2
100
AcDbEntity
  8
OUTLINE
100
AcDbLine
 10
2003.07632654937
 20
-1494.948222466761
 30
0.0
 11
2016.07632654937
 21
-1494.948222466761
 31
0.0
  0
LINE
  5
15FF
330
2
100
AcDbEntity
  8
OUTLINE
100
AcDbLine
 10
2019.07632654937
 20
-1494.948222466761
 30
0.0
 11
2019.07632654937
 21
-1495.748222466761
 31
0.0
  0
LINE
  5
1600
330
2
100
AcDbEntity
  8
OUTLINE
100
AcDbLine
 10
2019.07632654937
 20
-1495.748222466761
 30
0.0
 11
2016.07632654937
 21
-1495.748222466761
 31
0.0
  0
LINE
  5
1601
330
2
100
AcDbEntity
  8
OUTLINE
100
AcDbLine
 10
2016.07632654937
 20
-1495.748222466761
 30
0.0
 11
2016.07632654937
 21
-1494.948222466761
 31
0.0
  0
LINE
  5
1602
330
2
100
AcDbEntity
  8
OUTLINE
100
AcDbLine
 10
2003.07632654937
 20
-1338.948222466761
 30
0.0
 11
1987.876326549369
 21
-1338.948222466761
 31
0.0
  0
LINE
  5
1603
330
2
100
AcDbEntity
  8
OUTLINE
100
AcDbLine
 10
2003.07632654937
 20
-1337.348222466761
 30
0.0
 11
1987.876326549369
 21
-1337.348222466761
 31
0.0
  0
LINE
  5
1604
330
2
100
AcDbEntity
  8
OUTLINE
100
AcDbLine
 10
1987.876326549369
 20
-1338.948222466761
 30
0.0
 11
1987.876326549369
 21
-1337.348222466761
 31
0.0
  0
LINE
  5
1605
330
2
100
AcDbEntity
  8
OUTLINE
100
AcDbLine
 10
1987.876326549369
 20
-1338.148222466761
 30
0.0
 11
2003.07632654937
 21
-1338.148222466761
 31
0.0
  0
LINE
  5
1606
330
2
100
AcDbEntity
  8
OUTLINE
100
AcDbLine
 10
1987.876326549369
 20
-1337.348222466761
 30
0.0
 11
1987.876326549369
 21
-1338.148222466761
 31
0.0
  0
LINE
  5
1607
330
2
100
AcDbEntity
  8
OUTLINE
100
AcDbLine
 10
2003.07632654937
 20
-1337.348222466761
 30
0.0
 11
1987.876326549369
 21
-1337.348222466761
 31
0.0
  0
LINE
  5
1608
330
2
100
AcDbEntity
  8
OUTLINE
100
AcDbLine
 10
1987.876326549369
 20
-1469.862581820706
 30
0.0
 11
1987.876326549369
 21
-1338.948222466761
 31
0.0
  0
LINE
  5
1609
330
2
100
AcDbEntity
  8
OUTLINE
100
AcDbLine
 10
1987.876326549369
 20
-1469.862581820706
 30
0.0
 11
2003.07632654937
 21
-1469.862581820706
 31
0.0
  0
ELLIPSE
  5
160A
330
2
100
AcDbEntity
  8
OUTLINE
100
AcDbEllipse
 10
1994.376326549369
 20
-1405.298203961947
 30
0.0
 11
-2.0
 21
0.0
 31
0.0
210
0.0
220
0.0
230
1.0
 40
0.866025403784439
 41
1.570796326794896
 42
7.853981633974482
  0
LINE
  5
160B
330
2
100
AcDbEntity
  8
OUTLINE
100
AcDbLine
 10
1987.876326549369
 20
-1469.648222466761
 30
0.0
 11
1987.876326549369
 21
-1337.348222466761
 31
0.0
  0
LINE
  5
160C
330
2
100
AcDbEntity
  8
OUTLINE
100
AcDbLine
 10
1987.876326549369
 20
-1495.748222466761
 30
0.0
 11
1987.876326549369
 21
-1469.648222466761
 31
0.0
  0
LINE
  5
160D
330
2
100
AcDbEntity
  8
OUTLINE
100
AcDbLine
 10
1987.876326549369
 20
-1495.748222466761
 30
0.0
 11
1987.876326549369
 21
-1469.862581820706
 31
0.0
  0
LINE
  5
160E
330
2
100
AcDbEntity
  8
OUTLINE
100
AcDbLine
 10
2003.07632654937
 20
-1494.948222466761
 30
0.0
 11
2002.276326549369
 21
-1494.948222466761
 31
0.0
  0
LINE
  5
160F
330
2
100
AcDbEntity
  8
OUTLINE
100
AcDbLine
 10
2003.07632654937
 20
-1494.35187507001
 30
0.0
 11
2002.276326549369
 21
-1494.35187507001
 31
0.0
  0
CIRCLE
  5
1610
330
2
100
AcDbEntity
  8
OUTLINE
100
AcDbCircle
 10
1994.376326549369
 20
-1476.648222466761
 30
0.0
 40
2.0
  0
CIRCLE
  5
1611
330
2
100
AcDbEntity
  8
OUTLINE
100
AcDbCircle
 10
1994.376326549369
 20
-1476.648222466761
 30
0.0
 40
2.0
  0
LINE
  5
1612
330
2
100
AcDbEntity
  8
OUTLINE
100
AcDbLine
 10
1996.37632654937
 20
-1338.148222466761
 30
0.0
 11
1992.37632654937
 21
-1338.148222466761
 31
0.0
  0
LINE
  5
1613
330
2
100
AcDbEntity
  8
OUTLINE
100
AcDbLine
 10
1992.37632654937
 20
-1337.348222466761
 30
0.0
 11
1996.37632654937
 21
-1337.348222466761
 31
0.0
  0
ELLIPSE
  5
1614
330
2
100
AcDbEntity
  8
OUTLINE
100
AcDbEllipse
 10
1994.376326549369
 20
-1404.898203961947
 30
0.0
 11
-2.0
 21
0.0
 31
0.0
210
0.0
220
0.0
230
1.0
 40
0.866025403784439
 41
4.712388980384688
 42
10.99557428756427
  0
LINE
  5
1615
330
2
100
AcDbEntity
  8
OUTLINE
100
AcDbLine
 10
2013.37632654937
 20
-1495.748222466761
 30
0.0
 11
2008.37632654937
 21
-1495.748222466761
 31
0.0
  0
LINE
  5
1616
330
2
100
AcDbEntity
  8
OUTLINE
100
AcDbLine
 10
2013.37632654937
 20
-1495.748222466761
 30
0.0
 11
2008.37632654937
 21
-1495.748222466761
 31
0.0
  0
LINE
  5
1617
330
2
100
AcDbEntity
  8
OUTLINE
100
AcDbLine
 10
2016.07632654937
 20
-1495.748222466761
 30
0.0
 11
2003.07632654937
 21
-1495.748222466761
 31
0.0
  0
LINE
  5
1618
330
2
100
AcDbEntity
  8
OUTLINE
100
AcDbLine
 10
2003.87632654937
 20
-1337.348222466761
 30
0.0
 11
2003.87632654937
 21
-1494.948222466761
 31
0.0
  0
LINE
  5
1619
330
2
100
AcDbEntity
  8
OUTLINE
100
AcDbLine
 10
2003.87632654937
 20
-1337.348222466761
 30
0.0
 11
2001.156911608141
 21
-1337.348222466761
 31
0.0
  0
LINE
  5
161A
330
2
100
AcDbEntity
  8
OUTLINE
100
AcDbLine
 10
2003.87632654937
 20
-1494.948222466761
 30
0.0
 11
2003.87632654937
 21
-1469.648222466761
 31
0.0
  0
LINE
  5
161B
330
2
100
AcDbEntity
  8
OUTLINE
100
AcDbLine
 10
2003.87632654937
 20
-1469.648222466761
 30
0.0
 11
2003.87632654937
 21
-1337.348222466761
 31
0.0
  0
LINE
  5
161C
330
2
100
AcDbEntity
  8
OUTLINE
100
AcDbLine
 10
2016.07632654937
 20
-1495.748222466761
 30
0.0
 11
1987.876326549369
 21
-1495.748222466761
 31
0.0
  0
LINE
  5
161D
330
2
100
AcDbEntity
  8
OUTLINE
100
AcDbLine
 10
2003.87632654937
 20
-1469.648222466761
 30
0.0
 11
1987.876326549369
 21
-1469.648222466761
 31
0.0
  0
LINE
  5
161E
330
2
100
AcDbEntity
  8
OUTLINE
100
AcDbLine
 10
2003.07632654937
 20
-1495.748222466761
 30
0.0
 11
1987.876326549369
 21
-1495.748222466761
 31
0.0
  0
LINE
  5
161F
330
2
100
AcDbEntity
  8
OUTLINE
100
AcDbLine
 10
2003.87632654937
 20
-1337.348222466761
 30
0.0
 11
2003.07632654937
 21
-1337.348222466761
 31
0.0
  0
LINE
  5
1629
330
2
100
AcDbEntity
  8
BASIS
  6
DASHDOT
 62
     6
100
AcDbLine
 10
1883.126326549369
 20
-1519.996572570153
 30
0.0
 11
1883.126326549369
 21
-1323.649578527476
 31
0.0
  0
LINE
  5
162A
330
2
100
AcDbEntity
  8
ARRANGE
  6
Continuous
 62
     1
100
AcDbLine
 10
1866.442208984966
 20
-1512.432340031165
 30
0.0
 11
1899.810444113773
 21
-1479.064104902357
 31
0.0
  0
LINE
  5
162B
330
2
100
AcDbEntity
  8
ARRANGE
  6
Continuous
 62
     1
100
AcDbLine
 10
1866.442208984966
 20
-1479.064104902357
 30
0.0
 11
1899.810444113773
 21
-1512.432340031165
 31
0.0
  0
CIRCLE
  5
162C
330
2
100
AcDbEntity
  8
ARRANGE
100
AcDbCircle
 10
1883.126326549369
 20
-1495.748222466761
 30
0.0
 40
15.0
  0
DIMENSION
  5
162D
330
2
100
AcDbEntity
  8
SIZE
100
AcDbDimension
  2
*D19
 10
1952.976326549369
 20
-1541.56122287918
 30
0.0
 11
1885.47632654937
 21
-1532.18622287918
 31
0.0
 70
    32
 71
     5
 42
134.9999999999997
  3
ISO-25
100
AcDbAlignedDimension
 13
1817.97632654937
 23
-1501.042929568807
 33
0.0
 14
1952.976326549369
 24
-1501.042929568807
 34
0.0
100
AcDbRotatedDimension
1001
ACAD
1000
DSTYLE
1002
{
1070
    40
1040
5.0
1070
    45
1040
0.5
1070
    90
1070
     1
1070
   271
1070
     1
1070
   272
1070
     1
1070
   341
1005
4E
1070
   342
1005
48
1002
}
  0
DIMENSION
  5
163A
330
2
100
AcDbEntity
  8
SIZE
100
AcDbDimension
  2
*D20
 10
2010.87632654937
 20
-1564.609290987385
 30
0.0
 11
1883.126326549369
 21
-1555.234290987385
 31
0.0
 70
    32
 71
     5
 42
255.5
  3
ISO-25
100
AcDbAlignedDimension
 13
1755.376326549369
 23
-1505.748222466761
 33
0.0
 14
2010.87632654937
 24
-1505.748222466761
 34
0.0
100
AcDbRotatedDimension
1001
ACAD
1000
DSTYLE
1002
{
1070
    40
1040
5.0
1070
    45
1040
0.5
1070
    90
1070
     1
1070
   271
1070
     1
1070
   272
1070
     1
1070
   341
1005
4E
1070
   342
1005
48
1002
}
  0
DIMENSION
  5
1647
330
2
100
AcDbEntity
  8
SIZE
100
AcDbDimension
  2
*D21
 10
2019.07632654937
 20
-1590.567440138271
 30
0.0
 11
1883.126326549369
 21
-1581.192440138271
 31
0.0
 70
    32
 71
     5
 42
271.9000000000001
  3
ISO-25
100
AcDbAlignedDimension
 13
1747.176326549369
 23
-1495.748222466761
 33
0.0
 14
2019.07632654937
 24
-1495.748222466761
 34
0.0
100
AcDbRotatedDimension
1001
ACAD
1000
DSTYLE
1002
{
1070
    40
1040
5.0
1070
    45
1040
0.5
1070
    90
1070
     1
1070
   271
1070
     1
1070
   272
1070
     1
1070
   341
1005
4E
1070
   342
1005
48
1002
}
  0
DIMENSION
  5
1654
330
2
100
AcDbEntity
  8
SIZE
100
AcDbDimension
  2
*D22
 10
1721.687260503031
 20
-1491.042929568808
 30
0.0
 11
1712.312260503032
 21
-1413.395576017783
 31
0.0
 70
    32
 71
     5
 42
155.294707102048
  3
ISO-25
100
AcDbAlignedDimension
 13
1763.376326549369
 23
-1335.74822246676
 33
0.0
 14
1795.47632654937
 24
-1491.042929568808
 34
0.0
 50
90.0
100
AcDbRotatedDimension
1001
ACAD
1000
DSTYLE
1002
{
1070
    40
1040
5.0
1070
    45
1040
0.5
1070
    90
1070
     1
1070
   271
1070
     1
1070
   272
1070
     1
1070
   341
1005
4E
1070
   342
1005
48
1002
}
  0
DIMENSION
  5
1661
330
2
100
AcDbEntity
  8
SIZE
100
AcDbDimension
  2
*D23
 10
1694.915342936648
 20
-1335.74822246676
 30
0.0
 11
1685.540342936648
 21
-1415.74822246676
 31
0.0
 70
    32
 71
     5
 42
160.0000000000013
  3
ISO-25
100
AcDbAlignedDimension
 13
1747.176326549369
 23
-1495.748222466761
 33
0.0
 14
1763.376326549369
 24
-1335.74822246676
 34
0.0
 50
90.0
100
AcDbRotatedDimension
1001
ACAD
1000
DSTYLE
1002
{
1070
    40
1040
5.0
1070
    45
1040
0.5
1070
    90
1070
     1
1070
   271
1070
     1
1070
   272
1070
     1
1070
   341
1005
4E
1070
   342
1005
48
1002
}
  0
MULTILEADER
  5
166E
330
2
100
AcDbEntity
  8
NOTE
 92
      976
310
D00300001B0000000C00000010000000050000000C00000016000000000000C00C00000013000000112700003C0000000600000002000000A3F9FEDC39D19A4029F97277120298C0000000000000000066EF2739C9CF9A4029F97277120298C000000000000000000C0000001300000001000000880000001D0000009FB378
310
D81E4C21402AD6C496CB0C22C00000000000000000A038BF5B816D9B402AD6C496CB0C22409FB378D81E4C214000000000000000007BC3072EFE5E97C00000000000000000000000000000000000000000000029400000000000000000000000000000000000000000000000000000000000000000000000000000F03F0C00
310
000016000000040000C30C00000017000000FDFFFFFF540000002000000002000000000000000000F0BF498A025C1426D13F000000000000000000000000000000000000000000000000000000000000000000000000000000000000000000000000000000000000F03F0C00000016000000040000C30C00000017000000FD
310
FFFFFF540000002000000002000000000000000000000000000000000000000000000000000000000000000000F0BF498A025C1426D1BF000000000000000000000000000000000000000000000000000000000000F03F0C00000016000000040000C30C00000017000000FDFFFFFF54000000200000000200000000000000
310
0000000000000000000000000000000000000000000000000000F0BF0000000000000000000000000000000000000000000000000000000000000000000000000000F03F080000001F0000000C00000016000000000000C00C00000013000000891300003C000000060000000200000039470E1EE94A9B40274D35C5178397
310
C00000000000000000A3F9FEDC39D19A4029F97277120298C000000000000000000C000000130000009A3A00003C0000000600000002000000A2BE1B76980D9A4029F97277120298C0000000000000000065EF2739C9CF9A4029F97277120298C000000000000000000C00000016000000000000C00C00000012000000FF7F
310
00000C00000017000000FFFFFFFF0C00000016000000000000C00C00000013000000993A0000B00000000B000000109AD2E373069A4029F9727712F897C0000000000000000000000000000000000000000000000000000000000000F03F000000000000F03F0000000000000000000000000000000038817E5C552B323230
310
3535000B000000010000000000000000002940000000000000F03F0000000000000000000000000000F03F0000000000000000000000000000000000000000726F6D616E732E7368780000626967666F6E742E73687800
100
AcDbMLeader
300
CONTEXT_DATA{
 40
1.0
 10
1665.398888047705
 20
-1529.01803378721
 30
0.0
 41
12.5
140
12.5
145
2.0
174
     1
175
     6
176
     2
177
     0
290
     1
304
8×%%C5
 11
0.0
 21
0.0
 31
1.0
340
22
 12
1713.946507095324
 22
-1521.51803378721
 32
0.0
 13
1.0
 23
0.0
 33
0.0
 42
0.0
 43
0.0
 44
0.0
 45
1.0
170
     1
 90
-1073741824
171
     3
172
     5
 91
-1073741824
141
0.0
 92
  6348796
291
     0
292
     0
173
     0
293
     0
142
0.0
143
0.0
294
     0
295
     0
296
     0
110
1755.376326549369
120
-1495.748222466761
130
0.0
111
1.0
121
0.0
131
0.0
112
0.0
122
1.0
132
0.0
297
     0
302
LEADER{
290
     1
291
     1
 10
1716.306507095324
 20
-1536.51803378721
 30
0.0
 11
-1.0
 21
0.0
 31
0.0
 90
        0
 40
0.36
304
LEADER_LINE{
 10
1755.376326549369
 20
-1495.748222466761
 30
0.0
 91
        0
305
}
303
}
301
}
340
3FE
 90
   345344
170
     1
 91
-1056964608
341
25
171
    -2
290
     1
291
     1
 41
0.36
342
48
 42
12.5
172
     2
343
22
173
     1
 95
        6
174
     1
175
     2
 92
-1056964608
292
     0
 93
-1056964608
 10
1.0
 20
1.0
 30
1.0
 43
0.0
176
     0
293
     0
294
     0
178
     0
179
     3
 45
1.0
1001
ACAD_MLEADERVER
1070
     2
  0
ENDSEC
  0
SECTION
  2
OBJECTS
  0
DICTIONARY
  5
9
330
0
100
AcDbDictionary
281
     1
  3
ACAD_2007HEADERVARS_RT
350
175C
  3
ACAD_BACKGROUND
350
403
  3
ACAD_COLOR
350
45
  3
ACAD_GROUP
350
32
  3
ACAD_LAYOUT
350
16
  3
ACAD_MATERIAL
350
B
  3
ACAD_MLEADERSTYLE
350
3FD
  3
ACAD_MLINESTYLE
350
33
  3
ACAD_PLOTSETTINGS
350
34
  3
ACAD_PLOTSTYLENAME
350
8
  3
ACAD_SCALELIST
350
46
  3
ACAD_TABLESTYLE
350
47
  3
ACAD_VISUALSTYLE
350
2C
  3
ACDB_RECOMPOSE_DATA
350
3D3
  3
AcDbVariableDictionary
350
3E6
  3
AcmDictionary
350
BB0
  3
AMG
350
AF1
  3
AMGSNAPSETTINGS
350
C8A
  3
DWGPROPS
350
175B
  3
MAPISURF_MODULE
350
1701
  0
DICTIONARY
  5
1F
330
1E
100
AcDbDictionary
280
     1
281
     1
  3
ACAD_LAYERFILTERS
360
1628
  3
ACAD_LAYERSTATES
360
20
  3
ACLYDICTIONARY
360
1627
  0
DICTIONARY
  5
408
330
6
100
AcDbDictionary
280
     1
281
     1
  3
ADSK_XREC_LAYER_RECONCILED
360
409
  0
DICTIONARY
  5
3
330
2
100
AcDbDictionary
280
     1
281
     1
  3
ACAD_INDEX
360
D5C
  3
ACAD_LAYOUTSELFREF
360
4
  3
ACAD_SORTENTS
360
D1B
  0
DICTIONARY
  5
175C
102
{ACAD_REACTORS
330
9
102
}
330
9
100
AcDbDictionary
281
     1
  3
DIMARCSYM
350
175D
  0
DICTIONARY
  5
403
102
{ACAD_REACTORS
330
9
102
}
330
9
100
AcDbDictionary
281
     1
  0
DICTIONARY
  5
45
102
{ACAD_REACTORS
330
9
102
}
330
9
100
AcDbDictionary
281
     1
  0
DICTIONARY
  5
32
102
{ACAD_REACTORS
330
9
102
}
330
9
100
AcDbDictionary
281
     1
  0
DICTIONARY
  5
16
102
{ACAD_REACTORS
330
9
102
}
330
9
100
AcDbDictionary
281
     1
  3
Model
350
15
  3
レイアウト1
350
1A
  0
DICTIONARY
  5
B
102
{ACAD_REACTORS
330
9
102
}
330
9
100
AcDbDictionary
281
     1
  3
ByBlock
350
3D
  3
ByLayer
350
35
  3
Global
350
A
  0
DICTIONARY
  5
3FD
102
{ACAD_REACTORS
330
9
102
}
330
9
100
AcDbDictionary
281
     1
  3
Standard
350
3FE
  0
DICTIONARY
  5
33
102
{ACAD_REACTORS
330
9
102
}
330
9
100
AcDbDictionary
281
     1
  3
Standard
350
55
  0
DICTIONARY
  5
34
102
{ACAD_REACTORS
330
9
102
}
330
9
100
AcDbDictionary
281
     1
  0
ACDBDICTIONARYWDFLT
  5
8
102
{ACAD_REACTORS
330
9
102
}
330
9
100
AcDbDictionary
281
     1
  3
Normal
350
7
100
AcDbDictionaryWithDefault
340
7
  0
DICTIONARY
  5
46
102
{ACAD_REACTORS
330
9
102
}
330
9
100
AcDbDictionary
281
     1
  3
A0
350
59
  3
A1
350
5A
  3
A2
350
5B
  3
A3
350
5C
  3
A4
350
5D
  3
A5
350
5E
  3
A6
350
5F
  3
A7
350
60
  3
A8
350
61
  3
A9
350
62
  3
B0
350
63
  3
B1
350
64
  3
B2
350
65
  3
B3
350
66
  3
B4
350
67
  3
B5
350
68
  3
B6
350
69
  3
B7
350
6A
  3
B8
350
6B
  3
B9
350
6C
  3
C0
350
6D
  3
C1
350
6E
  3
C2
350
6F
  3
C3
350
70
  3
C4
350
71
  3
C5
350
72
  3
C6
350
73
  3
C7
350
74
  3
C8
350
75
  3
C9
350
76
  3
D0
350
77
  3
D1
350
78
  3
D2
350
79
  0
DICTIONARY
  5
47
102
{ACAD_REACTORS
330
9
102
}
330
9
100
AcDbDictionary
281
     1
  3
Standard
350
56
  0
DICTIONARY
  5
2C
102
{ACAD_REACTORS
330
9
102
}
330
9
100
AcDbDictionary
281
     1
  3
2dWireframe
350
3F4
  3
3D Hidden
350
3F5
  3
3dWireframe
350
58
  3
Basic
350
3F3
  3
Brighten
350
3F8
  3
ColorChange
350
3FC
  3
Conceptual
350
3F6
  3
Dim
350
3F7
  3
Facepattern
350
3FB
  3
Flat
350
3F0
  3
FlatWithEdges
350
3F1
  3
Gouraud
350
2B
  3
GouraudWithEdges
350
3F2
  3
Linepattern
350
3FA
  3
Realistic
350
57
  3
Thicken
350
3F9
  0
XRECORD
  5
3D3
102
{ACAD_REACTORS
330
9
102
}
330
9
100
AcDbXrecord
280
     1
 90
        1
330
56
  0
DICTIONARY
  5
3E6
102
{ACAD_REACTORS
330
9
102
}
330
9
100
AcDbDictionary
281
     1
  3
CANNOSCALE
350
3EA
  3
CMLEADERSTYLE
350
3E8
  3
CTABLESTYLE
350
3E7
  3
DIMASSOC
350
3EE
  3
HIDETEXT
350
3ED
  3
INDEXCTL
350
3EC
  3
LIGHTINGUNITS
350
457
  3
MSLTSCALE
350
3E9
  3
SORTENTS
350
3EB
  0
DICTIONARY
  5
BB0
102
{ACAD_REACTORS
330
9
102
}
330
9
100
AcDbDictionary
281
     1
  3
AcmStdDictionary
350
BC0
  3
AMDTSECTSYM_ARROWCOLOR
350
BD8
  0
DICTIONARY
  5
AF1
102
{ACAD_REACTORS
330
9
102
}
330
9
100
AcDbDictionary
281
     1
  3
AcMgSettings
350
AF2
  0
DICTIONARY
  5
C8A
102
{ACAD_REACTORS
330
9
102
}
330
9
100
AcDbDictionary
281
     1
  3
DIMENSION
350
C8F
  3
FEA
350
C8E
  3
HATCH (1)
350
C8B
  3
HATCH (2)
350
C8C
  3
SIMPLE WELD
350
C90
  3
SYMBOLS
350
C8D
  0
XRECORD
  5
175B
102
{ACAD_REACTORS
330
9
102
}
330
9
100
AcDbXrecord
280
     1
  1
DWGPROPS COOKIE
  2

  3

  4

  6

  7

  8
W000135
  9

300
AmdtFileType=84
301
=
302
=
303
=
304
=
305
=
306
=
307
=
308
=
309
=
 40
1.950238587962962
 41
2451686.550481944
 42
2455888.599572292
  1

 90
        1
  0
DICTIONARY
  5
1628
102
{ACAD_REACTORS
330
1F
102
}
330
1F
100
AcDbDictionary
281
     1
  0
DICTIONARY
  5
20
102
{ACAD_REACTORS
330
1F
102
}
330
1F
100
AcDbDictionary
281
     1
  0
DICTIONARY
  5
1627
102
{ACAD_REACTORS
330
1F
102
}
330
1F
100
AcDbDictionary
281
     1
1001
ACAD
1000
<All
  0
XRECORD
  5
409
102
{ACAD_REACTORS
330
408
102
}
330
408
100
AcDbXrecord
280
     1
290
     1
  0
DICTIONARY
  5
D5C
102
{ACAD_REACTORS
330
3
102
}
330
3
100
AcDbDictionary
281
     1
  3
*A1
350
D5D
  0
XRECORD
  5
4
102
{ACAD_REACTORS
330
3
102
}
330
3
100
AcDbXrecord
280
     1
340
2
  0
SORTENTSTABLE
  5
D1B
102
{ACAD_REACTORS
330
3
102
}
330
3
100
AcDbSortentsTable
330
2
331
479
  5
479
331
4B4
  5
4B4
  0
XRECORD
  5
175D
102
{ACAD_REACTORS
330
175C
102
}
330
175C
100
AcDbXrecord
280
     1
 70
     1
  0
LAYOUT
  5
15
102
{ACAD_XDICTIONARY
360
175E
102
}
102
{ACAD_REACTORS
330
16
102
}
330
16
100
AcDbPlotSettings
  1

  2
\\ENGC3\QUE_LP1
  4

  6

 40
0.0
 41
0.0
 42
0.0
 43
0.0
 44
0.0
 45
0.0
 46
0.0
 47
0.0
 48
0.0
 49
0.0
140
0.0
141
0.0
142
1.0
143
1.0
 70
  1712
 72
     0
 73
     0
 74
     0
  7

 75
     0
147
1.0
148
0.0
149
0.0
100
AcDbLayout
  1
Model
 70
     1
 71
     0
 10
0.0
 20
0.0
 11
12.0
 21
9.0
 12
0.0
 22
0.0
 32
0.0
 14
0.0
 24
0.0
 34
0.0
 15
0.0
 25
0.0
 35
0.0
146
0.0
 13
0.0
 23
0.0
 33
0.0
 16
1.0
 26
0.0
 36
0.0
 17
0.0
 27
1.0
 37
0.0
 76
     0
330
2
331
4DD
  0
LAYOUT
  5
1A
102
{ACAD_XDICTIONARY
360
1B
102
}
102
{ACAD_REACTORS
330
16
102
}
330
16
100
AcDbPlotSettings
  1

  2
Microsoft XPS Document Writer
  4
A4
  6

 40
3.174999952316281
 41
3.174999952316281
 42
3.175003051757812
 43
3.17498779296875
 44
210.0156707763672
 45
297.0106506347656
 46
0.0
 47
0.0
 48
0.0
 49
0.0
140
0.0
141
0.0
142
1.0
143
1.0
 70
   688
 72
     1
 73
     1
 74
     5
  7

 75
    16
147
1.0
148
0.0
149
0.0
100
AcDbLayout
  1
レイアウト1
 70
     1
 71
     1
 10
0.0
 20
0.0
 11
12.0
 21
9.0
 12
0.0
 22
0.0
 32
0.0
 14
-482.5570203788593
 24
-554.5000790420147
 34
0.0
 15
1228.446899927119
 25
810.2670212442529
 35
0.0
146
0.0
 13
0.0
 23
0.0
 33
0.0
 16
1.0
 26
0.0
 36
0.0
 17
0.0
 27
1.0
 37
0.0
 76
     0
330
17
1001
ACAD_PSEXT
1000
Microsoft XPS Document Writer
1000
Microsoft XPS Document Writer
1000
XPSPort:
1000

1070
     0
  0
MATERIAL
  5
3D
102
{ACAD_XDICTIONARY
360
3E
102
}
102
{ACAD_REACTORS
330
B
102
}
330
B
100
AcDbMaterial
  1
ByBlock
 72
     0
 43
0.0008202099737533
 43
0.0
 43
0.0
 43
0.0
 43
0.0
 43
0.0008202099737533
 43
0.0
 43
0.0
 43
0.0
 43
0.0
 43
1.0
 43
0.0
 43
0.0
 43
0.0
 43
0.0
 43
1.0
 77
     0
 47
0.0008202099737533
 47
0.0
 47
0.0
 47
0.0
 47
0.0
 47
0.0008202099737533
 47
0.0
 47
0.0
 47
0.0
 47
0.0
 47
1.0
 47
0.0
 47
0.0
 47
0.0
 47
0.0
 47
1.0
171
     0
 49
0.0008202099737533
 49
0.0
 49
0.0
 49
0.0
 49
0.0
 49
0.0008202099737533
 49
0.0
 49
0.0
 49
0.0
 49
0.0
 49
1.0
 49
0.0
 49
0.0
 49
0.0
 49
0.0
 49
1.0
175
     0
142
0.0008202099737533
142
0.0
142
0.0
142
0.0
142
0.0
142
0.0008202099737533
142
0.0
142
0.0
142
0.0
142
0.0
142
1.0
142
0.0
142
0.0
142
0.0
142
0.0
142
1.0
179
     0
144
0.0008202099737533
144
0.0
144
0.0
144
0.0
144
0.0
144
0.0008202099737533
144
0.0
144
0.0
144
0.0
144
0.0
144
1.0
144
0.0
144
0.0
144
0.0
144
0.0
144
1.0
147
0.0008202099737533
147
0.0
147
0.0
147
0.0
147
0.0
147
0.0008202099737533
147
0.0
147
0.0
147
0.0
147
0.0
147
1.0
147
0.0
147
0.0
147
0.0
147
0.0
147
1.0
  0
MATERIAL
  5
35
102
{ACAD_XDICTIONARY
360
36
102
}
102
{ACAD_REACTORS
330
B
102
}
330
B
100
AcDbMaterial
  1
ByLayer
 72
     0
 43
0.0008202099737533
 43
0.0
 43
0.0
 43
0.0
 43
0.0
 43
0.0008202099737533
 43
0.0
 43
0.0
 43
0.0
 43
0.0
 43
1.0
 43
0.0
 43
0.0
 43
0.0
 43
0.0
 43
1.0
 77
     0
 47
0.0008202099737533
 47
0.0
 47
0.0
 47
0.0
 47
0.0
 47
0.0008202099737533
 47
0.0
 47
0.0
 47
0.0
 47
0.0
 47
1.0
 47
0.0
 47
0.0
 47
0.0
 47
0.0
 47
1.0
171
     0
 49
0.0008202099737533
 49
0.0
 49
0.0
 49
0.0
 49
0.0
 49
0.0008202099737533
 49
0.0
 49
0.0
 49
0.0
 49
0.0
 49
1.0
 49
0.0
 49
0.0
 49
0.0
 49
0.0
 49
1.0
175
     0
142
0.0008202099737533
142
0.0
142
0.0
142
0.0
142
0.0
142
0.0008202099737533
142
0.0
142
0.0
142
0.0
142
0.0
142
1.0
142
0.0
142
0.0
142
0.0
142
0.0
142
1.0
179
     0
144
0.0008202099737533
144
0.0
144
0.0
144
0.0
144
0.0
144
0.0008202099737533
144
0.0
144
0.0
144
0.0
144
0.0
144
1.0
144
0.0
144
0.0
144
0.0
144
0.0
144
1.0
147
0.0008202099737533
147
0.0
147
0.0
147
0.0
147
0.0
147
0.0008202099737533
147
0.0
147
0.0
147
0.0
147
0.0
147
1.0
147
0.0
147
0.0
147
0.0
147
0.0
147
1.0
  0
MATERIAL
  5
A
102
{ACAD_XDICTIONARY
360
C
102
}
102
{ACAD_REACTORS
330
B
102
}
330
B
100
AcDbMaterial
  1
Global
 72
     0
 43
0.0008202099737533
 43
0.0
 43
0.0
 43
0.0
 43
0.0
 43
0.0008202099737533
 43
0.0
 43
0.0
 43
0.0
 43
0.0
 43
1.0
 43
0.0
 43
0.0
 43
0.0
 43
0.0
 43
1.0
 77
     0
 47
0.0008202099737533
 47
0.0
 47
0.0
 47
0.0
 47
0.0
 47
0.0008202099737533
 47
0.0
 47
0.0
 47
0.0
 47
0.0
 47
1.0
 47
0.0
 47
0.0
 47
0.0
 47
0.0
 47
1.0
171
     0
 49
0.0008202099737533
 49
0.0
 49
0.0
 49
0.0
 49
0.0
 49
0.0008202099737533
 49
0.0
 49
0.0
 49
0.0
 49
0.0
 49
1.0
 49
0.0
 49
0.0
 49
0.0
 49
0.0
 49
1.0
175
     0
142
0.0008202099737533
142
0.0
142
0.0
142
0.0
142
0.0
142
0.0008202099737533
142
0.0
142
0.0
142
0.0
142
0.0
142
1.0
142
0.0
142
0.0
142
0.0
142
0.0
142
1.0
179
     0
144
0.0008202099737533
144
0.0
144
0.0
144
0.0
144
0.0
144
0.0008202099737533
144
0.0
144
0.0
144
0.0
144
0.0
144
1.0
144
0.0
144
0.0
144
0.0
144
0.0
144
1.0
147
0.0008202099737533
147
0.0
147
0.0
147
0.0
147
0.0
147
0.0008202099737533
147
0.0
147
0.0
147
0.0
147
0.0
147
1.0
147
0.0
147
0.0
147
0.0
147
0.0
147
1.0
  0
MLEADERSTYLE
  5
3FE
102
{ACAD_REACTORS
330
3FD
330
166E
102
}
330
3FD
100
AcDbMLeaderStyle
170
     2
171
     1
172
     0
 90
        2
 40
0.0
 41
0.0
173
     1
 91
-1056964608
340
25
 92
       -2
290
     1
 42
2.0
291
     1
 43
0.36
  3
Standard
 44
4.0
300

342
22
174
     1
178
     6
175
     1
176
     0
 93
-1056964608
 45
4.0
292
     0
297
     0
 46
4.0
 94
-1056964608
 47
1.0
 49
1.0
140
1.0
293
     1
141
0.0
294
     1
177
     0
142
1.0
295
     0
296
     0
143
0.125
1001
ACAD_MLEADERVER
1070
     2
  0
MLINESTYLE
  5
55
102
{ACAD_REACTORS
330
33
102
}
330
33
100
AcDbMlineStyle
  2
STANDARD
 70
     0
  3

 62
   256
 51
90.0
 52
90.0
 71
     2
 49
0.5
 62
   256
  6
BYLAYER
 49
-0.5
 62
   256
  6
BYLAYER
  0
ACDBPLACEHOLDER
  5
7
102
{ACAD_REACTORS
330
8
102
}
330
8
  0
SCALE
  5
59
102
{ACAD_REACTORS
330
46
102
}
330
46
100
AcDbScale
 70
     0
300
1:1
140
1.0
141
1.0
290
     1
  0
SCALE
  5
5A
102
{ACAD_REACTORS
330
46
102
}
330
46
100
AcDbScale
 70
     0
300
1:2
140
1.0
141
2.0
290
     0
  0
SCALE
  5
5B
102
{ACAD_REACTORS
330
46
102
}
330
46
100
AcDbScale
 70
     0
300
1:4
140
1.0
141
4.0
290
     0
  0
SCALE
  5
5C
102
{ACAD_REACTORS
330
46
102
}
330
46
100
AcDbScale
 70
     0
300
1:5
140
1.0
141
5.0
290
     0
  0
SCALE
  5
5D
102
{ACAD_REACTORS
330
46
102
}
330
46
100
AcDbScale
 70
     0
300
1:8
140
1.0
141
8.0
290
     0
  0
SCALE
  5
5E
102
{ACAD_REACTORS
330
46
102
}
330
46
100
AcDbScale
 70
     0
300
1:10
140
1.0
141
10.0
290
     0
  0
SCALE
  5
5F
102
{ACAD_REACTORS
330
46
102
}
330
46
100
AcDbScale
 70
     0
300
1:16
140
1.0
141
16.0
290
     0
  0
SCALE
  5
60
102
{ACAD_REACTORS
330
46
102
}
330
46
100
AcDbScale
 70
     0
300
1:20
140
1.0
141
20.0
290
     0
  0
SCALE
  5
61
102
{ACAD_REACTORS
330
46
102
}
330
46
100
AcDbScale
 70
     0
300
1:30
140
1.0
141
30.0
290
     0
  0
SCALE
  5
62
102
{ACAD_REACTORS
330
46
102
}
330
46
100
AcDbScale
 70
     0
300
1:40
140
1.0
141
40.0
290
     0
  0
SCALE
  5
63
102
{ACAD_REACTORS
330
46
102
}
330
46
100
AcDbScale
 70
     0
300
1:50
140
1.0
141
50.0
290
     0
  0
SCALE
  5
64
102
{ACAD_REACTORS
330
46
102
}
330
46
100
AcDbScale
 70
     0
300
1:100
140
1.0
141
100.0
290
     0
  0
SCALE
  5
65
102
{ACAD_REACTORS
330
46
102
}
330
46
100
AcDbScale
 70
     0
300
2:1
140
2.0
141
1.0
290
     0
  0
SCALE
  5
66
102
{ACAD_REACTORS
330
46
102
}
330
46
100
AcDbScale
 70
     0
300
4:1
140
4.0
141
1.0
290
     0
  0
SCALE
  5
67
102
{ACAD_REACTORS
330
46
102
}
330
46
100
AcDbScale
 70
     0
300
8:1
140
8.0
141
1.0
290
     0
  0
SCALE
  5
68
102
{ACAD_REACTORS
330
46
102
}
330
46
100
AcDbScale
 70
     0
300
10:1
140
10.0
141
1.0
290
     0
  0
SCALE
  5
69
102
{ACAD_REACTORS
330
46
102
}
330
46
100
AcDbScale
 70
     0
300
100:1
140
100.0
141
1.0
290
     0
  0
SCALE
  5
6A
102
{ACAD_REACTORS
330
46
102
}
330
46
100
AcDbScale
 70
     0
300
1/128" = 1'-0"
140
0.0078125
141
12.0
290
     0
  0
SCALE
  5
6B
102
{ACAD_REACTORS
330
46
102
}
330
46
100
AcDbScale
 70
     0
300
1/64" = 1'-0"
140
0.015625
141
12.0
290
     0
  0
SCALE
  5
6C
102
{ACAD_REACTORS
330
46
102
}
330
46
100
AcDbScale
 70
     0
300
1/32" = 1'-0"
140
0.03125
141
12.0
290
     0
  0
SCALE
  5
6D
102
{ACAD_REACTORS
330
46
102
}
330
46
100
AcDbScale
 70
     0
300
1/16" = 1'-0"
140
0.0625
141
12.0
290
     0
  0
SCALE
  5
6E
102
{ACAD_REACTORS
330
46
102
}
330
46
100
AcDbScale
 70
     0
300
3/32" = 1'-0"
140
0.09375
141
12.0
290
     0
  0
SCALE
  5
6F
102
{ACAD_REACTORS
330
46
102
}
330
46
100
AcDbScale
 70
     0
300
1/8" = 1'-0"
140
0.125
141
12.0
290
     0
  0
SCALE
  5
70
102
{ACAD_REACTORS
330
46
102
}
330
46
100
AcDbScale
 70
     0
300
3/16" = 1'-0"
140
0.1875
141
12.0
290
     0
  0
SCALE
  5
71
102
{ACAD_REACTORS
330
46
102
}
330
46
100
AcDbScale
 70
     0
300
1/4" = 1'-0"
140
0.25
141
12.0
290
     0
  0
SCALE
  5
72
102
{ACAD_REACTORS
330
46
102
}
330
46
100
AcDbScale
 70
     0
300
3/8" = 1'-0"
140
0.375
141
12.0
290
     0
  0
SCALE
  5
73
102
{ACAD_REACTORS
330
46
102
}
330
46
100
AcDbScale
 70
     0
300
1/2" = 1'-0"
140
0.5
141
12.0
290
     0
  0
SCALE
  5
74
102
{ACAD_REACTORS
330
46
102
}
330
46
100
AcDbScale
 70
     0
300
3/4" = 1'-0"
140
0.75
141
12.0
290
     0
  0
SCALE
  5
75
102
{ACAD_REACTORS
330
46
102
}
330
46
100
AcDbScale
 70
     0
300
1" = 1'-0"
140
1.0
141
12.0
290
     0
  0
SCALE
  5
76
102
{ACAD_REACTORS
330
46
102
}
330
46
100
AcDbScale
 70
     0
300
1-1/2" = 1'-0"
140
1.5
141
12.0
290
     0
  0
SCALE
  5
77
102
{ACAD_REACTORS
330
46
102
}
330
46
100
AcDbScale
 70
     0
300
3" = 1'-0"
140
3.0
141
12.0
290
     0
  0
SCALE
  5
78
102
{ACAD_REACTORS
330
46
102
}
330
46
100
AcDbScale
 70
     0
300
6" = 1'-0"
140
6.0
141
12.0
290
     0
  0
SCALE
  5
79
102
{ACAD_REACTORS
330
46
102
}
330
46
100
AcDbScale
 70
     0
300
1'-0" = 1'-0"
140
12.0
141
12.0
290
     0
  0
TABLESTYLE
  5
56
102
{ACAD_XDICTIONARY
360
3D1
102
}
102
{ACAD_REACTORS
330
47
102
}
330
47
100
AcDbTableStyle
  3
Standard
 70
     0
 71
     0
 40
1.5
 41
1.5
280
     0
281
     0
  7
Standard
140
4.5
170
     2
 62
     0
 63
     7
283
     0
274
    -2
284
     1
 64
     0
275
    -2
285
     1
 65
     0
276
    -2
286
     1
 66
     0
277
    -2
287
     1
 67
     0
278
    -2
288
     1
 68
     0
279
    -2
289
     1
 69
     0
  7
Standard
140
6.0
170
     5
 62
     0
 63
     7
283
     0
274
    -2
284
     1
 64
     0
275
    -2
285
     1
 65
     0
276
    -2
286
     1
 66
     0
277
    -2
287
     1
 67
     0
278
    -2
288
     1
 68
     0
279
    -2
289
     1
 69
     0
  7
Standard
140
4.5
170
     5
 62
     0
 63
     7
283
     0
274
    -2
284
     1
 64
     0
275
    -2
285
     1
 65
     0
276
    -2
286
     1
 66
     0
277
    -2
287
     1
 67
     0
278
    -2
288
     1
 68
     0
279
    -2
289
     1
 69
     0
  0
VISUALSTYLE
  5
3F4
102
{ACAD_REACTORS
330
2C
102
}
330
2C
100
AcDbVisualStyle
  2
2dWireframe
 70
     4
 71
     0
 72
     2
 73
     0
 90
        0
 40
-0.6
 41
-30.0
 62
     5
 63
     7
 74
     1
 91
        4
 64
     7
 65
   257
 75
     1
175
     1
 42
1.0
 92
        0
 66
   257
 43
1.0
 76
     1
 77
     6
 78
     2
 67
     7
 79
     5
170
     0
171
     0
290
     0
174
     0
 93
        1
 44
0.0
173
     0
291
     0
 45
0.0
1001
ACAD
1000
AcDbSavedByObjectVersion
1070
     0
1000
AcDbSavedByObjectVersion
1070
     0
1000
AcDbSavedByObjectVersion
1070
     0
1000
AcDbSavedByObjectVersion
1070
     0
1000
AcDbSavedByObjectVersion
1070
     0
1000
AcDbSavedByObjectVersion
1070
     0
1000
AcDbSavedByObjectVersion
1070
     0
1000
AcDbSavedByObjectVersion
1070
     0
1000
AcDbSavedByObjectVersion
1070
     0
  0
VISUALSTYLE
  5
3F5
102
{ACAD_REACTORS
330
2C
102
}
330
2C
100
AcDbVisualStyle
  2
3D Hidden
 70
     6
 71
     1
 72
     2
 73
     2
 90
        0
 40
-0.6
 41
-30.0
 62
     5
 63
     7
 74
     2
 91
        2
 64
     7
 65
   257
 75
     2
175
     1
 42
40.0
 92
        0
 66
   257
 43
1.0
 76
     1
 77
     6
 78
     2
 67
     7
 79
     3
170
     0
171
     0
290
     0
174
     0
 93
        1
 44
0.0
173
     0
291
     0
 45
0.0
1001
ACAD
1000
AcDbSavedByObjectVersion
1070
     0
1000
AcDbSavedByObjectVersion
1070
     0
1000
AcDbSavedByObjectVersion
1070
     0
1000
AcDbSavedByObjectVersion
1070
     0
1000
AcDbSavedByObjectVersion
1070
     0
1000
AcDbSavedByObjectVersion
1070
     0
1000
AcDbSavedByObjectVersion
1070
     0
1000
AcDbSavedByObjectVersion
1070
     0
1000
AcDbSavedByObjectVersion
1070
     0
  0
VISUALSTYLE
  5
58
102
{ACAD_REACTORS
330
2C
102
}
330
2C
100
AcDbVisualStyle
  2
3dWireframe
 70
     5
 71
     0
 72
     2
 73
     0
 90
        0
 40
-0.6
 41
-30.0
 62
     5
 63
     7
 74
     1
 91
        4
 64
     7
 65
   257
 75
     1
175
     1
 42
1.0
 92
        0
 66
   257
 43
1.0
 76
     1
 77
     6
 78
     2
 67
     7
 79
     5
170
     0
171
     0
290
     0
174
     0
 93
        1
 44
0.0
173
     0
291
     0
 45
0.0
1001
ACAD
1000
AcDbSavedByObjectVersion
1070
     0
1000
AcDbSavedByObjectVersion
1070
     0
1000
AcDbSavedByObjectVersion
1070
     0
1000
AcDbSavedByObjectVersion
1070
     0
1000
AcDbSavedByObjectVersion
1070
     0
1000
AcDbSavedByObjectVersion
1070
     0
1000
AcDbSavedByObjectVersion
1070
     0
1000
AcDbSavedByObjectVersion
1070
     0
1000
AcDbSavedByObjectVersion
1070
     0
  0
VISUALSTYLE
  5
3F3
102
{ACAD_REACTORS
330
2C
102
}
330
2C
100
AcDbVisualStyle
  2
Basic
 70
     7
 71
     1
 72
     0
 73
     1
 90
        0
 40
-0.6
 41
-30.0
 62
     5
 63
     7
 74
     0
 91
        4
 64
     7
 65
   257
 75
     1
175
     1
 42
1.0
 92
        8
 66
     7
 43
1.0
 76
     1
 77
     6
 78
     2
 67
     7
 79
     5
170
     0
171
     0
290
     0
174
     0
 93
        1
 44
0.0
173
     0
291
     1
 45
0.0
1001
ACAD
1000
AcDbSavedByObjectVersion
1070
     0
1000
AcDbSavedByObjectVersion
1070
     0
1000
AcDbSavedByObjectVersion
1070
     0
1000
AcDbSavedByObjectVersion
1070
     0
1000
AcDbSavedByObjectVersion
1070
     0
1000
AcDbSavedByObjectVersion
1070
     0
1000
AcDbSavedByObjectVersion
1070
     0
1000
AcDbSavedByObjectVersion
1070
     0
1000
AcDbSavedByObjectVersion
1070
     0
  0
VISUALSTYLE
  5
3F8
102
{ACAD_REACTORS
330
2C
102
}
330
2C
100
AcDbVisualStyle
  2
Brighten
 70
    12
 71
     2
 72
     2
 73
     0
 90
        0
 40
-0.6
 41
-30.0
 62
     5
 63
     7
 74
     1
 91
        4
 64
     7
 65
   257
 75
     1
175
     1
 42
1.0
 92
        8
 66
     7
 43
1.0
 76
     1
 77
     6
 78
     2
 67
     7
 79
     5
170
     0
171
     0
290
     0
174
     0
 93
        1
 44
50.0
173
     0
291
     1
 45
0.0
1001
ACAD
1000
AcDbSavedByObjectVersion
1070
     0
1000
AcDbSavedByObjectVersion
1070
     0
1000
AcDbSavedByObjectVersion
1070
     0
1000
AcDbSavedByObjectVersion
1070
     0
1000
AcDbSavedByObjectVersion
1070
     0
1000
AcDbSavedByObjectVersion
1070
     0
1000
AcDbSavedByObjectVersion
1070
     0
1000
AcDbSavedByObjectVersion
1070
     0
1000
AcDbSavedByObjectVersion
1070
     0
  0
VISUALSTYLE
  5
3FC
102
{ACAD_REACTORS
330
2C
102
}
330
2C
100
AcDbVisualStyle
  2
ColorChange
 70
    16
 71
     2
 72
     2
 73
     3
 90
        0
 40
-0.6
 41
-30.0
 62
     5
 63
     8
 74
     1
 91
        4
 64
     7
 65
   257
 75
     1
175
     1
 42
1.0
 92
        8
 66
     8
 43
1.0
 76
     1
 77
     6
 78
     2
 67
     7
 79
     5
170
     0
171
     0
290
     0
174
     0
 93
        1
 44
0.0
173
     0
291
     1
 45
0.0
1001
ACAD
1000
AcDbSavedByObjectVersion
1070
     0
1000
AcDbSavedByObjectVersion
1070
     0
1000
AcDbSavedByObjectVersion
1070
     0
1000
AcDbSavedByObjectVersion
1070
     0
1000
AcDbSavedByObjectVersion
1070
     0
1000
AcDbSavedByObjectVersion
1070
     0
1000
AcDbSavedByObjectVersion
1070
     0
1000
AcDbSavedByObjectVersion
1070
     0
1000
AcDbSavedByObjectVersion
1070
     0
  0
VISUALSTYLE
  5
3F6
102
{ACAD_REACTORS
330
2C
102
}
330
2C
100
AcDbVisualStyle
  2
Conceptual
 70
     9
 71
     3
 72
     2
 73
     0
 90
        0
 40
-0.6
 41
-30.0
 62
     5
 63
     7
 74
     2
 91
        2
 64
     7
 65
   257
 75
     1
175
     1
 42
40.0
 92
        8
 66
     7
 43
1.0
 76
     1
 77
     6
 78
     2
 67
     7
 79
     3
170
     0
171
     0
290
     0
174
     0
 93
        1
 44
0.0
173
     0
291
     0
 45
0.0
1001
ACAD
1000
AcDbSavedByObjectVersion
1070
     0
1000
AcDbSavedByObjectVersion
1070
     0
1000
AcDbSavedByObjectVersion
1070
     0
1000
AcDbSavedByObjectVersion
1070
     0
1000
AcDbSavedByObjectVersion
1070
     0
1000
AcDbSavedByObjectVersion
1070
     0
1000
AcDbSavedByObjectVersion
1070
     0
1000
AcDbSavedByObjectVersion
1070
     0
1000
AcDbSavedByObjectVersion
1070
     0
  0
VISUALSTYLE
  5
3F7
102
{ACAD_REACTORS
330
2C
102
}
330
2C
100
AcDbVisualStyle
  2
Dim
 70
    11
 71
     2
 72
     2
 73
     0
 90
        0
 40
-0.6
 41
-30.0
 62
     5
 63
     7
 74
     1
 91
        4
 64
     7
 65
   257
 75
     1
175
     1
 42
1.0
 92
        8
 66
     7
 43
1.0
 76
     1
 77
     6
 78
     2
 67
     7
 79
     5
170
     0
171
     0
290
     0
174
     0
 93
        1
 44
-50.0
173
     0
291
     1
 45
0.0
1001
ACAD
1000
AcDbSavedByObjectVersion
1070
     0
1000
AcDbSavedByObjectVersion
1070
     0
1000
AcDbSavedByObjectVersion
1070
     0
1000
AcDbSavedByObjectVersion
1070
     0
1000
AcDbSavedByObjectVersion
1070
     0
1000
AcDbSavedByObjectVersion
1070
     0
1000
AcDbSavedByObjectVersion
1070
     0
1000
AcDbSavedByObjectVersion
1070
     0
1000
AcDbSavedByObjectVersion
1070
     0
  0
VISUALSTYLE
  5
3FB
102
{ACAD_REACTORS
330
2C
102
}
330
2C
100
AcDbVisualStyle
  2
Facepattern
 70
    15
 71
     2
 72
     2
 73
     0
 90
        0
 40
-0.6
 41
-30.0
 62
     5
 63
     7
 74
     1
 91
        4
 64
     7
 65
   257
 75
     1
175
     1
 42
1.0
 92
        8
 66
     7
 43
1.0
 76
     1
 77
     6
 78
     2
 67
     7
 79
     5
170
     0
171
     0
290
     0
174
     0
 93
        1
 44
0.0
173
     0
291
     1
 45
0.0
1001
ACAD
1000
AcDbSavedByObjectVersion
1070
     0
1000
AcDbSavedByObjectVersion
1070
     0
1000
AcDbSavedByObjectVersion
1070
     0
1000
AcDbSavedByObjectVersion
1070
     0
1000
AcDbSavedByObjectVersion
1070
     0
1000
AcDbSavedByObjectVersion
1070
     0
1000
AcDbSavedByObjectVersion
1070
     0
1000
AcDbSavedByObjectVersion
1070
     0
1000
AcDbSavedByObjectVersion
1070
     0
  0
VISUALSTYLE
  5
3F0
102
{ACAD_REACTORS
330
2C
102
}
330
2C
100
AcDbVisualStyle
  2
Flat
 70
     0
 71
     2
 72
     1
 73
     1
 90
        2
 40
-0.6
 41
30.0
 62
     5
 63
     7
 74
     0
 91
        4
 64
     7
 65
   257
 75
     1
175
     1
 42
1.0
 92
        8
 66
     7
 43
1.0
 76
     1
 77
     6
 78
     2
 67
     7
 79
     5
170
     0
171
     0
290
     0
174
     0
 93
       13
 44
0.0
173
     0
291
     1
 45
0.0
1001
ACAD
1000
AcDbSavedByObjectVersion
1070
     0
1000
AcDbSavedByObjectVersion
1070
     0
1000
AcDbSavedByObjectVersion
1070
     0
1000
AcDbSavedByObjectVersion
1070
     0
1000
AcDbSavedByObjectVersion
1070
     0
1000
AcDbSavedByObjectVersion
1070
     0
1000
AcDbSavedByObjectVersion
1070
     0
1000
AcDbSavedByObjectVersion
1070
     0
1000
AcDbSavedByObjectVersion
1070
     0
  0
VISUALSTYLE
  5
3F1
102
{ACAD_REACTORS
330
2C
102
}
330
2C
100
AcDbVisualStyle
  2
FlatWithEdges
 70
     1
 71
     2
 72
     1
 73
     1
 90
        2
 40
-0.6
 41
30.0
 62
     5
 63
     7
 74
     1
 91
        4
 64
     7
 65
   257
 75
     1
175
     1
 42
1.0
 92
        0
 66
   257
 43
1.0
 76
     1
 77
     6
 78
     2
 67
     7
 79
     5
170
     0
171
     0
290
     0
174
     0
 93
       13
 44
0.0
173
     0
291
     1
 45
0.0
1001
ACAD
1000
AcDbSavedByObjectVersion
1070
     0
1000
AcDbSavedByObjectVersion
1070
     0
1000
AcDbSavedByObjectVersion
1070
     0
1000
AcDbSavedByObjectVersion
1070
     0
1000
AcDbSavedByObjectVersion
1070
     0
1000
AcDbSavedByObjectVersion
1070
     0
1000
AcDbSavedByObjectVersion
1070
     0
1000
AcDbSavedByObjectVersion
1070
     0
1000
AcDbSavedByObjectVersion
1070
     0
  0
VISUALSTYLE
  5
2B
102
{ACAD_REACTORS
330
2C
102
}
330
2C
100
AcDbVisualStyle
  2
Gouraud
 70
     2
 71
     2
 72
     2
 73
     1
 90
        2
 40
-0.6
 41
30.0
 62
     5
 63
     7
 74
     0
 91
        4
 64
     7
 65
   257
 75
     1
175
     1
 42
1.0
 92
        0
 66
     7
 43
1.0
 76
     1
 77
     6
 78
     2
 67
     7
 79
     5
170
     0
171
     0
290
     0
174
     0
 93
       13
 44
0.0
173
     0
291
     1
 45
0.0
1001
ACAD
1000
AcDbSavedByObjectVersion
1070
     0
1000
AcDbSavedByObjectVersion
1070
     0
1000
AcDbSavedByObjectVersion
1070
     0
1000
AcDbSavedByObjectVersion
1070
     0
1000
AcDbSavedByObjectVersion
1070
     0
1000
AcDbSavedByObjectVersion
1070
     0
1000
AcDbSavedByObjectVersion
1070
     0
1000
AcDbSavedByObjectVersion
1070
     0
1000
AcDbSavedByObjectVersion
1070
     0
  0
VISUALSTYLE
  5
3F2
102
{ACAD_REACTORS
330
2C
102
}
330
2C
100
AcDbVisualStyle
  2
GouraudWithEdges
 70
     3
 71
     2
 72
     2
 73
     1
 90
        2
 40
-0.6
 41
30.0
 62
     5
 63
     7
 74
     1
 91
        4
 64
     7
 65
   257
 75
     1
175
     1
 42
1.0
 92
        0
 66
   257
 43
1.0
 76
     1
 77
     6
 78
     2
 67
     7
 79
     5
170
     0
171
     0
290
     0
174
     0
 93
       13
 44
0.0
173
     0
291
     1
 45
0.0
1001
ACAD
1000
AcDbSavedByObjectVersion
1070
     0
1000
AcDbSavedByObjectVersion
1070
     0
1000
AcDbSavedByObjectVersion
1070
     0
1000
AcDbSavedByObjectVersion
1070
     0
1000
AcDbSavedByObjectVersion
1070
     0
1000
AcDbSavedByObjectVersion
1070
     0
1000
AcDbSavedByObjectVersion
1070
     0
1000
AcDbSavedByObjectVersion
1070
     0
1000
AcDbSavedByObjectVersion
1070
     0
  0
VISUALSTYLE
  5
3FA
102
{ACAD_REACTORS
330
2C
102
}
330
2C
100
AcDbVisualStyle
  2
Linepattern
 70
    14
 71
     2
 72
     2
 73
     0
 90
        0
 40
-0.6
 41
-30.0
 62
     5
 63
     7
 74
     1
 91
        4
 64
     7
 65
   257
 75
     7
175
     7
 42
1.0
 92
        8
 66
     7
 43
1.0
 76
     1
 77
     6
 78
     2
 67
     7
 79
     5
170
     0
171
     0
290
     0
174
     0
 93
        1
 44
0.0
173
     0
291
     1
 45
0.0
1001
ACAD
1000
AcDbSavedByObjectVersion
1070
     0
1000
AcDbSavedByObjectVersion
1070
     0
1000
AcDbSavedByObjectVersion
1070
     0
1000
AcDbSavedByObjectVersion
1070
     0
1000
AcDbSavedByObjectVersion
1070
     0
1000
AcDbSavedByObjectVersion
1070
     0
1000
AcDbSavedByObjectVersion
1070
     0
1000
AcDbSavedByObjectVersion
1070
     0
1000
AcDbSavedByObjectVersion
1070
     0
  0
VISUALSTYLE
  5
57
102
{ACAD_REACTORS
330
2C
102
}
330
2C
100
AcDbVisualStyle
  2
Realistic
 70
     8
 71
     2
 72
     2
 73
     0
 90
        0
 40
-0.6
 41
-30.0
 62
     5
 63
     7
 74
     1
 91
        0
 64
     7
 65
   257
 75
     1
175
     1
 42
1.0
 92
        8
 66
     8
 43
1.0
 76
     1
 77
     6
 78
     2
 67
     7
 79
     5
170
     0
171
     0
290
     0
174
     0
 93
       13
 44
0.0
173
     0
291
     0
 45
0.0
1001
ACAD
1000
AcDbSavedByObjectVersion
1070
     0
1000
AcDbSavedByObjectVersion
1070
     0
1000
AcDbSavedByObjectVersion
1070
     0
1000
AcDbSavedByObjectVersion
1070
     0
1000
AcDbSavedByObjectVersion
1070
     0
1000
AcDbSavedByObjectVersion
1070
     0
1000
AcDbSavedByObjectVersion
1070
     0
1000
AcDbSavedByObjectVersion
1070
     0
1000
AcDbSavedByObjectVersion
1070
     0
  0
VISUALSTYLE
  5
3F9
102
{ACAD_REACTORS
330
2C
102
}
330
2C
100
AcDbVisualStyle
  2
Thicken
 70
    13
 71
     2
 72
     2
 73
     0
 90
        0
 40
-0.6
 41
-30.0
 62
     5
 63
     7
 74
     1
 91
        4
 64
     7
 65
   257
 75
     1
175
     1
 42
1.0
 92
       12
 66
     7
 43
1.0
 76
     1
 77
     6
 78
     2
 67
     7
 79
     5
170
     0
171
     0
290
     0
174
     0
 93
        1
 44
0.0
173
     0
291
     1
 45
0.0
1001
ACAD
1000
AcDbSavedByObjectVersion
1070
     0
1000
AcDbSavedByObjectVersion
1070
     0
1000
AcDbSavedByObjectVersion
1070
     0
1000
AcDbSavedByObjectVersion
1070
     0
1000
AcDbSavedByObjectVersion
1070
     0
1000
AcDbSavedByObjectVersion
1070
     0
1000
AcDbSavedByObjectVersion
1070
     0
1000
AcDbSavedByObjectVersion
1070
     0
1000
AcDbSavedByObjectVersion
1070
     0
  0
DICTIONARYVAR
  5
3EA
102
{ACAD_REACTORS
330
3E6
102
}
330
3E6
100
DictionaryVariables
280
     0
  1
1:1
  0
DICTIONARYVAR
  5
3E8
102
{ACAD_REACTORS
330
3E6
102
}
330
3E6
100
DictionaryVariables
280
     0
  1
STANDARD
  0
DICTIONARYVAR
  5
3E7
102
{ACAD_REACTORS
330
3E6
102
}
330
3E6
100
DictionaryVariables
280
     0
  1
STANDARD
  0
DICTIONARYVAR
  5
3EE
102
{ACAD_REACTORS
330
3E6
102
}
330
3E6
100
DictionaryVariables
280
     0
  1
1
  0
DICTIONARYVAR
  5
3ED
102
{ACAD_REACTORS
330
3E6
102
}
330
3E6
100
DictionaryVariables
280
     0
  1
1
  0
DICTIONARYVAR
  5
3EC
102
{ACAD_REACTORS
330
3E6
102
}
330
3E6
100
DictionaryVariables
280
     0
  1
1
  0
DICTIONARYVAR
  5
457
102
{ACAD_REACTORS
330
3E6
102
}
330
3E6
100
DictionaryVariables
280
     0
  1
0
  0
DICTIONARYVAR
  5
3E9
102
{ACAD_REACTORS
330
3E6
102
}
330
3E6
100
DictionaryVariables
280
     0
  1
1
  0
DICTIONARYVAR
  5
3EB
102
{ACAD_REACTORS
330
3E6
102
}
330
3E6
100
DictionaryVariables
280
     0
  1
127
  0
DICTIONARY
  5
BC0
102
{ACAD_REACTORS
330
BB0
102
}
330
BB0
100
AcDbDictionary
281
     1
  0
XRECORD
  5
BD8
102
{ACAD_REACTORS
330
BB0
102
}
330
BB0
100
AcDbXrecord
280
     1
 90
-1023410169
  0
DICTIONARY
  5
AF2
102
{ACAD_REACTORS
330
AF1
102
}
330
AF1
100
AcDbDictionary
281
     1
  3
DWGSETTINGS
350
1683
  3
TRANSSETTINGS
350
1684
  0
ACAMGFILTERDAT
  5
C8F
102
{ACAD_REACTORS
330
C8A
102
}
330
C8A
100
AcAmgFilterDat
 70
    15
  1
DIMENSION,AMDT_*_DIM
  2
*
  3
*
  4
*
  5
*
290
     1
  0
ACAMGFILTERDAT
  5
C8E
102
{ACAD_REACTORS
330
C8A
102
}
330
C8A
100
AcAmgFilterDat
 70
    15
  1
*
  2
AM_FEA-AM_*
  3
*
  4
*
  5
*
290
     1
  0
ACAMGFILTERDAT
  5
C8B
102
{ACAD_REACTORS
330
C8A
102
}
330
C8A
100
AcAmgFilterDat
 70
    15
  1
HATCH
  2
*
  3
*
  4
*
  5
*
290
     1
  0
ACAMGFILTERDAT
  5
C8C
102
{ACAD_REACTORS
330
C8A
102
}
330
C8A
100
AcAmgFilterDat
 70
    15
  1
LINE
  2
8,8N,*-8,*-8N,AM_8,AM_8N,*-AM_8,*-AM_8N
  3
*
  4
*
  5
INSERT,STDPART2D
290
     1
  0
ACAMGFILTERDAT
  5
C90
102
{ACAD_REACTORS
330
C8A
102
}
330
C8A
100
AcAmgFilterDat
 70
    15
  1
ARC
  2
AM_5
  3
*
  4
2
  5
INSERT
290
     0
  0
ACAMGFILTERDAT
  5
C8D
102
{ACAD_REACTORS
330
C8A
102
}
330
C8A
100
AcAmgFilterDat
 70
    15
  1
ACMFCFRAME,ACMDATUMTARGET,ACMDATUMID,ACMWELDSYM,ACMSURFSYM,ACMFEATID,ACMPARTREF,ACMBALLOON,AMDTEDGESYM,AMGSCREWCALCTABLE
  2
*
  3
*
  4
*
  5
*
290
     1
  0
LAYER_INDEX
  5
D5D
102
{ACAD_REACTORS
330
D5C
102
}
330
D5C
100
AcDbIndex
 40
2455888.599572292
100
AcDbLayerIndex
  8
0
360
D5E
 90
        1
  8
Defpoints
360
D5F
 90
        0
  8
SIZE
360
D60
 90
        5
  8
OUTLINE
360
D61
 90
      318
  8
BASIS
360
D62
 90
        1
  8
NOTE
360
D63
 90
        5
  8
ARRANGE
360
D64
 90
        3
  8
ETC
360
D65
 90
        1
  0
DICTIONARY
  5
175E
330
15
100
AcDbDictionary
280
     1
281
     1
  3
ACAD_XREC_ROUNDTRIP
360
175F
  0
DICTIONARY
  5
1B
330
1A
100
AcDbDictionary
280
     1
281
     1
  3
ACAD_XREC_ROUNDTRIP
360
1760
  3
ADSK_XREC_LAYOUTTHUMBNAIL
360
1C
  0
DICTIONARY
  5
3E
330
3D
100
AcDbDictionary
280
     1
281
     1
  3
ACAD_XREC_ROUNDTRIP
360
46A
  3
BUMPTILE
360
3F
  3
DIFFUSETILE
360
40
  3
OPACITYTILE
360
41
  3
REFLECTIONTILE
360
42
  3
REFRACTIONTILE
360
43
  3
SPECULARTILE
360
44
  0
DICTIONARY
  5
36
330
35
100
AcDbDictionary
280
     1
281
     1
  3
ACAD_XREC_ROUNDTRIP
360
469
  3
BUMPTILE
360
37
  3
DIFFUSETILE
360
38
  3
OPACITYTILE
360
39
  3
REFLECTIONTILE
360
3A
  3
REFRACTIONTILE
360
3B
  3
SPECULARTILE
360
3C
  0
DICTIONARY
  5
C
330
A
100
AcDbDictionary
280
     1
281
     1
  3
ACAD_XREC_ROUNDTRIP
360
464
  3
BUMPTILE
360
D
  3
DIFFUSETILE
360
E
  3
OPACITYTILE
360
F
  3
REFLECTIONTILE
360
10
  3
REFRACTIONTILE
360
11
  3
SPECULARTILE
360
12
  0
DICTIONARY
  5
3D1
330
56
100
AcDbDictionary
280
     1
281
     1
  3
ACAD_ROUNDTRIP_2008_TABLESTYLE_CELLSTYLEMAP
360
175A
  3
ACAD_XREC_ROUNDTRIP
360
1761
  0
IDBUFFER
  5
D5E
330
0
100
AcDbIdBuffer
330
4B4
  0
IDBUFFER
  5
D5F
330
0
100
AcDbIdBuffer
  0
IDBUFFER
  5
D60
330
0
100
AcDbIdBuffer
330
162D
330
163A
330
1647
330
1654
330
1661
  0
IDBUFFER
  5
D61
330
0
100
AcDbIdBuffer
330
14E2
330
14E3
330
14E4
330
14E5
330
14E6
330
14E7
330
14E8
330
14E9
330
14EA
330
14EB
330
14EC
330
14ED
330
14EE
330
14EF
330
14F0
330
14F1
330
14F2
330
14F3
330
14F4
330
14F5
330
14F6
330
14F7
330
14F8
330
14F9
330
14FA
330
14FB
330
14FC
330
14FD
330
14FE
330
14FF
330
1500
330
1501
330
1502
330
1503
330
1504
330
1505
330
1506
330
1507
330
1508
330
1509
330
150A
330
150B
330
150C
330
150D
330
150E
330
150F
330
1510
330
1511
330
1512
330
1513
330
1514
330
1515
330
1516
330
1517
330
1518
330
1519
330
151A
330
151B
330
151C
330
151D
330
151E
330
151F
330
1520
330
1521
330
1522
330
1523
330
1524
330
1525
330
1526
330
1527
330
1528
330
1529
330
152A
330
152B
330
152C
330
152D
330
152E
330
152F
330
1530
330
1531
330
1532
330
1533
330
1534
330
1535
330
1536
330
1537
330
1538
330
1539
330
153A
330
153B
330
153C
330
153D
330
153E
330
153F
330
1540
330
1541
330
1542
330
1543
330
1544
330
1545
330
1546
330
1547
330
1548
330
1549
330
154A
330
154B
330
154C
330
154D
330
154E
330
154F
330
1550
330
1551
330
1552
330
1553
330
1554
330
1555
330
1556
330
1557
330
1558
330
1559
330
155A
330
155B
330
155C
330
155D
330
155E
330
155F
330
1560
330
1561
330
1562
330
1563
330
1564
330
1565
330
1566
330
1567
330
1568
330
1569
330
156A
330
156B
330
156C
330
156D
330
156E
330
156F
330
1570
330
1571
330
1572
330
1573
330
1574
330
1575
330
1576
330
1577
330
1578
330
1579
330
157A
330
157B
330
157C
330
157D
330
157E
330
157F
330
1580
330
1581
330
1582
330
1583
330
1584
330
1585
330
1586
330
1587
330
1588
330
1589
330
158A
330
158B
330
158C
330
158D
330
158E
330
158F
330
1590
330
1591
330
1592
330
1593
330
1594
330
1595
330
1596
330
1597
330
1598
330
1599
330
159A
330
159B
330
159C
330
159D
330
159E
330
159F
330
15A0
330
15A1
330
15A2
330
15A3
330
15A4
330
15A5
330
15A6
330
15A7
330
15A8
330
15A9
330
15AA
330
15AB
330
15AC
330
15AD
330
15AE
330
15AF
330
15B0
330
15B1
330
15B2
330
15B3
330
15B4
330
15B5
330
15B6
330
15B7
330
15B8
330
15B9
330
15BA
330
15BB
330
15BC
330
15BD
330
15BE
330
15BF
330
15C0
330
15C1
330
15C2
330
15C3
330
15C4
330
15C5
330
15C6
330
15C7
330
15C8
330
15C9
330
15CA
330
15CB
330
15CC
330
15CD
330
15CE
330
15CF
330
15D0
330
15D1
330
15D2
330
15D3
330
15D4
330
15D5
330
15D6
330
15D7
330
15D8
330
15D9
330
15DA
330
15DB
330
15DC
330
15DD
330
15DE
330
15DF
330
15E0
330
15E1
330
15E2
330
15E3
330
15E4
330
15E5
330
15E6
330
15E7
330
15E8
330
15E9
330
15EA
330
15EB
330
15EC
330
15ED
330
15EE
330
15EF
330
15F0
330
15F1
330
15F2
330
15F3
330
15F4
330
15F5
330
15F6
330
15F7
330
15F8
330
15F9
330
15FA
330
15FB
330
15FC
330
15FD
330
15FE
330
15FF
330
1600
330
1601
330
1602
330
1603
330
1604
330
1605
330
1606
330
1607
330
1608
330
1609
330
160A
330
160B
330
160C
330
160D
330
160E
330
160F
330
1610
330
1611
330
1612
330
1613
330
1614
330
1615
330
1616
330
1617
330
1618
330
1619
330
161A
330
161B
330
161C
330
161D
330
161E
330
161F
  0
IDBUFFER
  5
D62
330
0
100
AcDbIdBuffer
330
1629
  0
IDBUFFER
  5
D63
330
0
100
AcDbIdBuffer
330
14DE
330
14DF
330
14E0
330
14E1
330
166E
  0
IDBUFFER
  5
D64
330
0
100
AcDbIdBuffer
330
162A
330
162B
330
162C
  0
IDBUFFER
  5
D65
330
0
100
AcDbIdBuffer
330
479
  0
XRECORD
  5
175F
102
{ACAD_REACTORS
330
175E
102
}
330
175E
100
AcDbXrecord
280
     1
102
SHADEPLOT
 70
     0
102
SHADEPLOTRESLEVEL
 70
     2
102
SHADEPLOTCUSTOMDPI
 70
   300
  0
XRECORD
  5
1760
102
{ACAD_REACTORS
330
1B
102
}
330
1B
100
AcDbXrecord
280
     1
102
SHADEPLOT
 70
     0
102
SHADEPLOTRESLEVEL
 70
     2
102
SHADEPLOTCUSTOMDPI
 70
   300
  0
XRECORD
  5
1C
102
{ACAD_REACTORS
330
1B
102
}
330
1B
100
AcDbXrecord
280
     1
310
28000000B4000000870000000100080000000000EC5E0000000000000000000000010000000000000000000000000000FFFFFF000000000000000000000000000000000000000000000000000000000000000000330000006600000099000000CC000000FF00000000330000333300006633000099330000CC330000FF3300
310
0000660000336600006666000099660000CC660000FF66000000990000339900006699000099990000CC990000FF99000000CC000033CC000066CC000099CC0000CCCC0000FFCC000000FF000033FF000066FF000099FF0000CCFF0000FFFF000000003300330033006600330099003300CC003300FF003300003333003333
310
33006633330099333300CC333300FF33330000663300336633006666330099663300CC663300FF66330000993300339933006699330099993300CC993300FF99330000CC330033CC330066CC330099CC3300CCCC3300FFCC330000FF330033FF330066FF330099FF3300CCFF3300FFFF330000006600330066006600660099
310
006600CC006600FF00660000336600333366006633660099336600CC336600FF33660000666600336666006666660099666600CC666600FF66660000996600339966006699660099996600CC996600FF99660000CC660033CC660066CC660099CC6600CCCC6600FFCC660000FF660033FF660066FF660099FF6600CCFF6600
310
FFFF660000009900330099006600990099009900CC009900FF00990000339900333399006633990099339900CC339900FF33990000669900336699006666990099669900CC669900FF66990000999900339999006699990099999900CC999900FF99990000CC990033CC990066CC990099CC9900CCCC9900FFCC990000FF99
310
0033FF990066FF990099FF9900CCFF9900FFFF99000000CC003300CC006600CC009900CC00CC00CC00FF00CC000033CC003333CC006633CC009933CC00CC33CC00FF33CC000066CC003366CC006666CC009966CC00CC66CC00FF66CC000099CC003399CC006699CC009999CC00CC99CC00FF99CC0000CCCC0033CCCC0066CC
310
CC0099CCCC00CCCCCC00FFCCCC0000FFCC0033FFCC0066FFCC0099FFCC00CCFFCC00FFFFCC000000FF003300FF006600FF009900FF00CC00FF00FF00FF000033FF003333FF006633FF009933FF00CC33FF00FF33FF000066FF003366FF006666FF009966FF00CC66FF00FF66FF000099FF003399FF006699FF009999FF00CC
310
99FF00FF99FF0000CCFF0033CCFF0066CCFF0099CCFF00CCCCFF00FFCCFF0000FFFF0033FFFF0066FFFF0099FFFF00CCFFFF00FFFFFF00000000000D0D0D001A1A1A00282828003535350043434300505050005D5D5D006B6B6B00787878008686860093939300A1A1A100AEAEAE00BBBBBB00C9C9C900D6D6D600E4E4E400
310
F1F1F100FFFFFF0000000000000000000000000000000000000000000000000000000000000000000000000000000000E2E2E2E2E2E2E2E2E2E2E2E2E2E2E2E2E2E2E2E2E2E2E2E2E2E2E2E2E2E2E2E2E2E2E2E2E2E2E2E2E2E2E2E2E2E2E2E2E2E2E2E2E2E2E2E2E2E2E2E2E2E2E2E2E2E2E2E2E2E2E2E2E2E2E2E2E2E2E2
310
E2E2E2E2E2E2E2E2E2E2E2E2E2E2E2E2E2E2E2E2E2E2E2E2E2E2E2E2E2E2E2E2E2E2E2E2E2E2E2E2E2E2E2E2E2E2E2E2E2E2E2E2E2E2E2E2E2E2E2E2E2E2E2E2E2E2E2E2E2E2E2E2E2E2E2E2E2E2E2E2E2E2E2E2E2E2E2E2E2E2E2E2E2E2E2E2E2E2E2E2E2E2E2E2E2E2E2E2E2E2E2E2E2E2E2E2E2E2E2E2E2E2E2E2E2E2E2
310
E2E2E2E2E2E2E2E2E2E2E2E2E2E2E2E2E2E2E2E2E2E2E2E2E2E2E2E2E2E2E2E2E2E2E2E2E2E2E2E2E2E2E2E2E2E2E2E2E2E2E2E2E2E2E2E2E2E2E2E2E2E2E2E2E2E2E2E2E2E2E2E2E2E2E2E2E2E2E2E2E2E2E2E2E2E2E2E2E2E2E2E2E2E2E2E2E2E2E2E2E2E2E2E2E2E2E2E2E2E2E2E2E2E2E2E2E2E2E2E2E2E2E2E2E2E2E2
310
E2E2E2E2E2E2E2E2E2E2E2E2E2E2E2E2E2E2E2E2E2E2E2E2E2E2E2E2E2E2E2E2E2E2E2E2E2E2E2E2E2E2E2E2E2E2E2E2E2E2E2E2E2E2E2E2E2E2E2E2E2E2E2E2E2E2E2E2E2E2E2E2E2E2E2E2E2E2E2E2E2E2E2E2E2E2E2E2E2E2E2E2E2E2E2E2E2E2E2E2E2E2E2E2E2E2E2E2E2E2E2E2E2E2E2E2E2E2E2E2E2E2E2E2E2E2E2
310
E2E2E2E2E2E2E2E2E2E2E2E2E2E2E2E2E2E2E2E2E2E2E2E2E2E2E2E2E2E2E2E2E2E2E2E2E2E2E2E2E2E2E2E2E2E2E2E2E2E2E2E2E2E2E2E2E2E2E2E2E2E2E2E2E2E2E2E2E2E2E2E2E2E2E2E2E2E2E2E2E2E2E2E2E2E2E2E2E2E2E2E2E2E2E2E2E2E2E2E2E2E2E2E2E2E2E2E2E2E2E2E2E2E2E2E2E2E2E2E2E2E2E2E2E2E2E2
310
E2E2E2E2E2E2E2E2E2E2E2E2E2E2E2E2E2E2E2E2E2E2E2E2E2E2E2E2E2E2E2E2E2E2E2E2E2E2E2E2E2E2E2E2E2E2E2E2E2E2E2E2E2E2E2E2E2E2E2E2E2E2E2E2E2E2E2E2E2E2E2E2E2E2E2E2E2E2E2E2E2E2E2E2E2E2E2E2E2E2E2E2E2E2E2E2E2E2E2E2E2E2E2E2E2E2E2E2E2E2E2E2E2E2E2E2E2E2E2E2E2E2E2E2E2E2E2
310
E2E2E2E2E2E2E2E2E2E2E2E2E2E2E2E2E2E2E2E2E2E2E2E2E2E2E2E2E2E2E2E2E2E2E2E2E2E2E2E2E2E2E2E2E2E2E2E2E2E2E2E2E2E2E2E2E2E2E2E2E2E2E2E2E2E2E2E2E2E2E2E2E2E2E2E2E2E2E2E2E2E2E2E2E2E2E2E2E2E2E2E2E2E2E2E2E2E2E2E2E2E2E2E2E2E2E2E2E2E2E2E2E2E2E2E2E2E2E2E2E2E2E2E2E2E2E2
310
E2E2E2E2E2E2E2E2E2E2E2E2E2E2E2E2E2E2E2E2E2E2E2E2E2E2E2E2E2E2E2E2E2E2E2E2E2E2E2E2E2E2E2E2E2E2E2E2E2E2E2E2E2E2E2E2E2E2E2E2E2E2E2E2E2E2E2E2E2E2E2E2E2E2E2E2E2E2E2E2E2E2E2E2E2E2E2E2E2E2E2E2E2E2E2E2E2E2E2E2E2E2E2E2E2E2E2E2E2E2E2E2E2E2E2E2E2E2E2E2E2E2E2E2E2E2E2
310
E2E2E2E2E2E2E2E2E2E2E2E2E2E2E2E2E2E2E2E2E2E2E2E2E2E2E2E2E2E2E2E2E2E2E2E2E2E2E2E2E2E2E2E2E2E2E2E2E2E2E2E2E2E2E2E2E2E2E2E2E2E2E2E2E2E2E2E2E2E2E2E2E2E2E2E2E2E2E2E2E2E2E2E2E2E2E2E2E2E2E2E2E2E2E2E2E2E2E2E2E2E2E2E2E2E2E2E2E2E2E2E2E2E2E2E2E2E2E2E2E2E2E2E2E2E2E2
310
E2E2E2E2E2E2E2E2E2E2E2E2E2E2E2E2E2E2E2E2E2E2E2E2E2E2E2E2E2E2E2E2E2E2E2E2E2E2E2E2E2E2E2E2E2E2E2E2E2E2E2E2E2E2E2E2E2E2E2E2E2E2E2E2E2E2E2E2E2E2E2E2E2E2E2E2E2E2E2E2E2E2E2E2E2E2E2E2E2E2E2E2E2E2E2E2E2E2E2E2E2E2E2E2E2E2E2E2E2E2E2E2E2E2E2E2E2E2E2E2E2E2E2E2E2E2E2
310
E2E2E2E2E2E2E2E2E2E2E2E2E2E2E2E2E2E2E2E2E2E2E2E2E2E2E2E2E2E2E2E2E2E2E2E2E2E2E2E2E2E2E2E2E2E2E2E2E2E2E2E2E2E2E2E2E2E2E2E2E2E2E2E2E2E2E2E2E2E2E2E2E2E2E2E2E2E2E2E2E2E2E2E2E2E2E2E2E2E2E2E2E2E2E2E2E2E2E2E2E2E2E2E2E2E2E2E2E2E2E2E2E2E2E2E2E2E2E2E2E2E2E2E2E2E2E2
310
E2E2E2E2E2E2E2E2E2E2E2E2E2E2E2E2E2E2E2E2E2E2E2E2E2E2E2E2E2E2E2E2E2E2E2E2E2E2E2E2E2E2E2E2E2E2E2E2E2E2E2E2E2E2E2E2E2E2E2E2E2E2E2E2E2E2E2E2E2E2E2E2E2E2E2E2E2E2E2E2E2E2E2E2E2E2E2E2E2E2E2E2E2E2E2E2E2E2E2E2E2E2E2E2E2E2E2E2E2E2E2E2E2E2E2E2E2E2E2E2E2E2E2E2E2E2E2
310
E2E2E2E2E2E2E2E2E2E2E2E2E2E2E2E2E2E2E2E2E2E2E2E2E2E2E2E2E2E2E2E2E2E2E2E2E2E2E2E2E2E2E2E2E2E2E2E2E2E2E2E2E2E2E2E2E2E2E2E2E2E2E2E2E2E2E2E2E2E2E2E2E2E2E2E2E2E2E2E2E2E2E2E2E2E2E2E2E2E2E2E2E2E2E2E2E2E2E2E2E2E2E2E2E2E2E2E2E2E2E2E2E2E2E2E2E2E2E2E2E2E2E2E2E2E2E2
310
E2E2E2E2E2E2E2E2E2E2E2E2E2E2E2E2E2E2E2E2E2E2E2E2E2E2E2E2E2E2E2E2E2E2E2E2E2E2E2E2E2E2E2E2E2E2E2E2E2E2E2E2E2E2E2E2E2E2E2E2E2E2E2E2E2E2E2E2E2E2E2E2E2E2E2E2E2E2E2E2E2E2E2E2E2E2E2E2E2E2E2E2E2E2E2E2E2E2E2E2E2E2E2E2E2E2E2E2E2E2E2E2E2E2E2E2E2E2E2E2E2E2E2E2E2E2E2
310
E2E2E2E2E2E2E2E2E2E2E2E2E2E2E2E2E2E2E2E2E2E2E2E2E2E2E2E2E2E2E2E2E2E2E2E2E2E2E2E2E2E2E2E2E2E2E2E2E2E2E2E2E2E2E2E2E2E2E2E2E2E2E2E2E2E2E2E2E2E2E2E2E2E2E2E2E2E2E2E2E2E2E2E2E2E2E2E2E2E2E2E2E2E2E2E2E2E2E2E2E2E2E2E2E2E2E2E2E2E2E2E2E2E2E2E2E2E2E2E2E2E2E2E2E2E2E2
310
E2E2E2E2E2E2E2E2E2E2E2E2E2E2E2E2E2E2E2E2E2E2E2E2E2E2E2E2E2E2E2E2E2E2E2E2E2E2E2E2E2E2E2E2E2E2E2E2E2E2E2E2E2E2E2E2E2E2E2E2E2E2E2E2E2E2E2E2E2E2E2E2E2E2E2E2E2E2E2E2E2E2E2E2E2E2E2E2E2E2E2E2E2E2E2E2E2E2E2E2E2E2E2E2E2E2E2E2E2E2E2E2E2E2E2E2E2E2E2E2E2E2E2E2E2E2E2
310
E2E2E2E2E2E2E2E2E2E2E2E2E2E2E2E2E2E2E2E2E2E2E2E2E2E2E2E2E2E2E2E2E2E2E2E2E2E2E2E2E2E2E2E2E2E2E2E2E2E2E2E2E2E2E2E2E2E2E2E2E2E2E2E2E2E2E2E2E2E2E2E2E2E2E2E2E2E2E2E2E2E2E2E2E2E2E2E2E2E2E2E2E2E2E2E2E2E2E2E2E2E2E2E2E2E2E2E2E2E2E2E2E2E2E2E2E2E2E2E2E2E2E2E2E2E2E2
310
E2E2E2E2E2E2E2E2E2E2E2E2E2E2E2E2E2E2E2E2E2E2E2E2E2E2E2E2E2E2E2E2E2E2E2E2E2E2E2E2E2E2E2E2E2E2E2E2E2E2E2E2E2E2E2E2E2E2E2E2E2E2E2E2E2E2E2E2E2E2E2E2E2E2E2E2E2E2E2E2E2E2E2E2E2E2E2E2E2E2E2E2E2E2E2E2E2E2E2E2E2E2E2E2E2E2E2E2E2E2E2E2E2E2E2E2E2E2E2E2E2E2E2E2E2E2E2
310
E2E2E2E2E2E2E2E2E2E2E2E2E2E2E2E2E2E2E2E2E2E2E2E2E2E2E2E2E2E2E2E2E2E2E2E2E2E2E2E2E2E2E2E2E2E2E2E2E2E2E2E2E2E2E2E2E2E2E2E2E2E2E2E2E2E2E2E2E2E2E2E2E2E2E2E2E2E2E2E2E2E2E2E2E2E2E2E2E2E2E2E2E2E2E2E2E2E2E2E2E2E2E2E2E2E2E2E2E2E2E2E2E2E2E2E2E2E2E2E2E2E2E2E2E2E2E2
310
E2E2E2E2E2E2E2E2E2E2E2E2E2E2E2E2E2E2E2E2E2E2E2E2E2E2E2E2E2E2E2E2E2E2E2E2E2E2E2E2E2E2E2E2E2E2E2E2E2E2E2E2E2E2E2E2E2E2E2E2E2E2E2E2E2E2E2E2E2E2E2E2E2E2E2E2E2E2E2E2E2E2E2E2E2E2E2E2E2E2E2E2E2E2E2E2E2E2E2E2E2E2E2E2E2E2E2E2E2E2E2E2E2E2E2E2E2E2E2E2E2E2E2E2E2E2E2
310
E2E2E2E2E2E2E2E2E2E2E2E2E2E2E2E2E2E2E2E2E2E2E2E2E2E2E2E2E2E2E2E2E2E2E2E2E2E2E2E2E2E2E2E2E2E2E2E2E2E2E2E2E2E2E2E2E2E2E2E2E2E2E2E2E2E2E2E2E2E2E2E2E2E2E2E2E2E2E2E2E2E2E2E2E2E2E2E2E2E2E2E2E2E2E2E2E2E2E2E2E2E2E2E2E2E2E2E2E2E2E2E2E2E2E2E2E2E2E2E2E2E2E2E2E2E2E2
310
E2E2E2E2E2E2E2E2E2E2E2E2E2E2E2E2E2E2E2E2E2E2E2E2E2E2E2E2E2E2E2E2E2E2E2E2E2E2E2E2E2E2E2E2E2E2E2E2E2E2E2E2E2E2E2E2E2E2E2E2E2E2E2E2E2E2E2E2E2E2E2E2E2E2E2E2E2E2E2E2E2E2E2E2E2E2E2E2E2E2E2E2E2E2E2E2E2E2E2E2E2E2E2E2E2E2E2E2E2E2E2E2E2E2E2E2E2E2E2E2E2E2E2E2E2E2E2
310
E2E2E2E2E2E2E2E2E2E2E2E2E2E2E2E2E2E2E2E2E2E2E2E2E2E2E2E2E2E2E2E2E2E2E2E2E2E2E2E2E2E2E2E2E2E2E2E2E2E2E2E2E2E2E2E2E2E2E2E2E2E2E2E2E2E2E2E2E2E2E2E2E2E2E2E2E2E2E2E2E2E2E2E2E2E2E2E2E2E2E2E2E2E2E2E2E2E2E2E2E2E2E2E2E2E2E2E2E2E2E2E2E2E2E2E2E2E2E2E2E2E2E2E2E2E2E2
310
E2E2E2E2E2E2E2E2E2E2E2E2E2E2E2E2E2E2E2E2E2E2E2E2E2E2E2E2E2E2E2E2E2E2E2E2E2E2E2E2E2E2E2E2E2E2E2E2E2E2E2E2E2E2E2E2E2E2E2E2E2E2E2E2E2E2E2E2E2E2E2E2E2E2E2E2E2E2E2E2E2E2E2E2E2E2E2E2E2E2E2E2E2E2E2E2E2E2E2E2E2E2E2E2E2E2E2E2E2E2E2E2E2E2E2E2E2E2E2E2E2E2E2E2E2E2E2
310
E2E2E2E2E2E2E2E2E2E2E2E2E2E2E2E2E2E2E2E2E2E2E2E2E2E2E2E2E2E2E2E2E2E2E2E2E2E2E2E2E2E2E2E2E2E2E2E2E2E2E2E2E2E2E2E2E2E2E2E2E2E2E2E2E2E2E2E2E2E2E2E2E2E2E2E2E2E2E2E2E2E2E2E2E2E2E2E2E2E2E2E2E2E2E2E2E2E2E2E2E2E2E2E2E2E2E2E2E2E2E2E2E2E2E2E2E2E2E2E2E2E2E2E2E2E2E2
310
E2E2E2E2E2E2E2E2E2E2E2E2E2E2E2E2E2E2E2E2E2E2E2E2E2E2E2E2E2E2E2E2E2E2E2E2E2E2E2E2E2E2E2E2E2E2E2E2E2E2E2E2E2E2E2E2E2E2E2E2E2E2E2E2E2E2E2E2E2E2E2E2E2E2E2E2E2E2E2E2E2E2E2E2E2E2E2E2E2E2E2E2E2E2E2E2E2E2E2E2E2E2E2E2E2E2E2E2E2E2E2E2E2E2E2E2E2E2E2E2E2E2E2E2E2E2E2
310
E2E2E2E2E2E2E2E2E2E2E2E2E2E2E2E2E2E2E2E2E2E2E2E2E2E2E2E2E2E2E2E2E2E2E2E2E2E2E2E2E2E2E2E2E2E2E2E2E2E2E2E2E2E2E2E2E2E2E2E2E2E2E2E2E2E2E2E2E2E2E2E2E2E2E2E2E2E2E2E2E2E2E2E2E2E2E2E2E2E2E2E2E2E2E2E2E2E2E2E2E2E2E2E2E2E2E2E2E2E2E2E2E2E2E2E2E2E2E2E2E2E2E2E2E2E2E2
310
E2E2E2E2E2E2E2E2E2E2E2E2E2E2E2E2E2E2E2E2E2E2E2E2E2E2E2E2E2E2E2E2E2E2E2E2E2E2E2E2E2E2E2E2E2E2E2E2E2E2E2E2E2E2E2E2E2E2E2E2E2E2E2E2E2E2E2E2E2E2E2E2E2E2E2E2E2E2E2E2E2E2E2E2E2E2E2E2E2E2E2E2E2E2E2E2E2E2E2E2E2E2E2E2E2E2E2E2E2E2E2E2E2E2E2E2E2E2E2E2E2E2E2E2E2E2E2
310
E2E2E2E2E2E2E2E2E2E2E2E2E2E2E2E2E2E2E2E2E2E2E2E2E2E2E2E2E2E2E2E2E2E2E2E2E2E2E2E2E2E2E2E2E2E2E2E2E2E2E2E2E2E2E2E2E2E2E2E2E2E2E2E2E2E2E2E2E2E2E2E2E2E2E2E2E2E2E2E2E2E2E2E2E2E2E2E2E2E2E2E2E2E2E2E2E2E2E2E2E2E2E2E2E2E2E2E2E2E2E2E2E2E2E2E2E2E2E2E2E2E2E2E2E2E2E2
310
E2E2E2E2E2E2E2E2E2E2E2E2E2E2E2E2E2E2E2E2E2E2E2E2E2E2E2E2E2E2E2E2E2E2E2E2E2E2E2E2E2E2E2E2E2E2E2E2E2E2E2E2E2E2E2E2E2E2E2E2E2E2E2E2E2E2E2E2E2E2E2E2E2E2E2E2E2E2E2E2E2E2E2E2E2E2E2E2E2E2E2E2E2E2E2E2E2E2E2E2E2E2E2E2E2E2E2E2E2E2E2E2E2E2E2E2E2E2E2E2E2E2E2E2E2E2E2
310
E2E2E2E2E2E2E2E2E2E2E2E2E2E2E2E2E2E2E2E2E2E2E2E2E2E2E2E2E2E2E2E2E2E2E2E2E2E2E2E2E2E2E2E2E2E2E2E2E2E2E2E2E2E2E2E2E2E2E2E2E2E2E2E2E2E2E2E2E2E2E2E2E2E2E2E2E2E2E2E2E2E2E2E2E2E2E2E2E2E2E2E2E2E2E2E2E2E2E2E2E2E2E2E2E2E2E2E2E2E2E2E2E2E2E2E2E2E2E2E2E2E2E2E2E2E2E2
310
E2E2E2E2E2E2E2E2E2E2E2E2E2E2E2E2E2E2E2E2E2E2E2E2E2E2E2E2E2E2E2E2E2E2E2E2E2E2E2E2E2E2E2E2E2E2E2E2E2E2E2E2E2E2E2E2E2E2E2E2E2E2E2E2E2E2E2E2E2E2E2E2E2E2E2E2E2E2E2E2E2E2E2E2E2E2E2E2E2E2E2E2E2E2E2E2E2E2E2E2E2E2E2E2E2E2E2E2E2E2E2E2E2E2E2E2E2E2E2E2E2E2E2E2E2E2E2
310
E2E2E2E2E2E2E2E2E2E2E2E2E2E2E2E2E2E2E2E2E2E2E2E2E2E2E2E2E2E2E2E2E2E2E2E2E2E2E2E2E2E2E2E2E2E2E2E2E2E2E2E2E2E2E2E2E2E2E2E2E2E2E2E2E2E2E2E2E2E2E2E2E2E2E2E2E2E2E2E2E2E2E2E2E2E2E2E2E2E2E2E2E2E2E2E2E2E2E2E2E2E2E2E2E2E2E2E2E2E2E2E2E2E2E2E2E2E2E2E2E2E2E2E2E2E2E2
310
E2E2E2E2E2E2E2E2E2E2E2E2E2E2E2E2E2E2E2E2E2E2E2E2E2E2E2E2E2E2E2E2E2E2E2E2E2E2E2E2E2E2E2E2E2E2E2E2E2E2E2E2E2E2E2E2E2E2E2E2E2E2E2E2E2E2E2E2E2E2E2E2E2E2E2E2E2E2E2E2E2E2E2E2E2E2E2E2E2E2E2E2E2E2E2E2E2E2E2E2E2E2E2E2E2E2E2E2E2E2E2E2E2E2E2E2E2E2E2E2E2E2E2E2E2E2E2
310
E2E2E2E2E2E2E2E2E2E2E2E2E2E2E2E2E2E2E2E2E2E2E2E2E2E2E2E2E2E2E2E2E2E2E2E2E2E2E2E2E2E2E2E2E2E2E2E2E2E2E2E2E2E2E2E2E2E2E2E2E2E2E2E2E2E2E2E2E2E2E2E2E2E2E2E2E2E2E2E2E2E2E2E2E2E2E2E2E2E2E2E2E2E2E2E2E2E2E2E2E2E2E2E2E2E2E2E2E2E2E2E2E2E2E2E2E2E2E2E2E2E2E2E2E2E2E2
310
E2E2E2E2E2E2E2E2E2E2E2E2E2E2E2E2E2E2E2E2E2E2E2E2E2E2E2E2E2E2E2E2E2E2E2E2E2E2E2E2E2E2E2E2E2E2E2E2E2E2E2E2E2E2E2E2E2E2E2E2E2E2E2E2E2E2E2E2E2E2E2E2E2E2E2E2E2E2E2E2E2E2E2E2E2E2E2E2E2E2E2E2E2E2E2E2E2E2E2E2E2E2E2E2E2E2E2E2E2E2E2E2E2E2E2E2E2E2E2E2E2E2E2E2E2E2E2
310
E2E2E2E2E2E2E2E2E2E2E2E2E2E2E2E2E2E2E2E2E2E2E2E2E2E2E2E2E2E2E2E2E2E2E2E2E2E2E2E2E2E2E2E2E2E2E2E2E2E2E2E2E2E2E2E2E2E2E2E2E2E2E2E2E2E2E2E2E2E2E2E2E2E2E2E2E2E2E2E2E2E2E2E2E2E2E2E2E2E2E2E2E2E2E2E2E2E2E2E2E2E2E2E2E2E2E2E2E2E2E2E2E2E2E2E2E2E2E2E2E2E2E2E2E2E2E2
310
E2E2E2E2E2E2E2E2E2E2E2E2E2E2E2E2E2E2E2E2E2E2E2E2E2E2E2E2E2E2E2E2E2E2E2E2E2E2E2E2E2E2E2E2E2E2E2E2E2E2E2E2E2E2E2E2E2E2E2E2E2E2E2E2E2E2E2E2E2E2E2E2E2E2E2E2E2E2E2E2E2E2E2E2E2E2E2E2E2E2E2E2E2E2E2E2E2E2E2E2E2E2E2E2E2E2E2E2E2E2E2E2E2E2E2E2E2E2E2E2E2E2E2E2E2E2E2
310
E2E2E2E2E2E2E2E2E2E2E2E2E2E2E2E2E2E2E2E2E2E2E2E2E2E2E2E2E2E2E2E2E2E2E2E2E2E2E2E2E2E2E2E2E2E2E2E2E2E2E2E2E2E2E2E2E2E2E2E2E2E2E2E2E2E2E2E2E2E2E2E2E2E2E2E2E2E2E2E2E2E2E2E2E2E2E2E2E2E2E2E2E2E2E2E2E2E2E2E2E2E2E2E2E2E2E2E2E2E2E2E2E2E2E2E2E2E2E2E2E2E2E2E2E2E2E2
310
E2E2E2E2E2E2E2E2E2E2E2E2E2E2E2E2E2E2E2E2E2E2E2E2E2E2E2E2E2E2E2E2E2E2E2E2E2E2E2E2E2E2E2E2E2E2E2E2E2E2E2E2E2E2E2E2E2E2E2E2E2E2E2E2E2E2E2E2E2E2E2E2E2E2E2E2E2E2E2E2E2E2E2E2E2E2E2E2E2E2E2E2E2E2E2E2E2E2E2E2E2E2E2E2E2E2E2E2E2E2E2E2E2E2E2E2E2E2E2E2E2E2E2E2E2E2E2
310
E2E2E2E2E2E2E2E2E2E2E2E2E2E2E2E2E2E2E2E2E2E2E2E2E2E2E2E2E2E2E2E2E2E2E2E2E2E2E2E2E2E2E2E2E2E2E2E2E2E2E2E2E2E2E2E2E2E2E2E2E2E2E2E2E2E2E2E2E2E2E2E2E2E2E2E2E2E2E2E2E2E2E2E2E2E2E2E2E2E2E2E2E2E2E2E2E2E2E2E2E2E2E2E2E2E2E2E2E2E2E2E2E2E2E2E2E2E2E2E2E2E2E2E2E2E2E2
310
E2E2E2E2E2E2E2E2E2E2E2E2E2E2E2E2E2E2E2E2E2E2E2E2E2E2E2E2E2E2E2E2E2E2E2E2E2E2E2E2E2E2E2E2E2E2E2E2E2E2E2E2E2E2E2E2E2E2E2E2E2E2E2E2E2E2E2E2E2E2E2E2E2E2E2E2E2E2E2E2E2E2E2E2E2E2E2E2E2E2E2E2E2E2E2E2E2E2E2E2E2E2E2E2E2E2E2E2E2E2E2E2E2E2E2E2E2E2E2E2E2E2E2E2E2E2E2
310
E2E2E2E2E2E2E2E2E2E2E2E2E2E2E2E2E2E2E2E2E2E2E2E2E2E2E2E2E2E2E2E2E2E2E2E2E2E2E2E2E2E2E2E2E2E2E2E2E2E2E2E2E2E2E2E2E2E2E2E2E2E2E2E2E2E2E2E2E2E2E2E2E2E2E2E2E2E2E2E2E2E2E2E2E2E2E2E2E2E2E2E2E2E2E2E2E2E2E2E2E2E2E2E2E2E2E2E2E2E2E2E2E2E2E2E2E2E2E2E2E2E2E2E2E2E2E2
310
E2E2E2E2E2E2E2E2E2E2E2E2E2E2E2E2E2E2E2E2E2E2E2E2E2E2E2E2E2E2E2E2E2E2E2E2E2E2E2E2E2E2E2E2E2E2E2E2E2E2E2E2E2E2E2E2E2E2E2E2E2E2E2E2E2E2E2E2E2E2E2E2E2E2E2E2E2E2E2E2E2E2E2E2E2E2E2E2E2E2E2E2E2E2E2E2E2E2E2E2E2E2E2E2E2E2E2E2E2E2E2E2E2E2E2E2E2E2E2E2E2E2E2E2E2E2E2
310
E2E2E2E2E2E2E2E2E2E2E2E2E2E2E2E2E2E2E2E2E2E2E2E2E2E2E2E2E2E2E2E2E2E2E2E2E2E2E2E2E2E2E2E2E2E2E2E2E2E2E2E2E2E2E2E2E2E2E2E2E2E2E2E2E2E2E2E2E2E2E2E2E2E2E2E2E2E2E2E2E2E2E2E2E2E2E2E2E2E2E2E2E2E2E2E2E2E2E2E2E2E2E2E2E2E2E2E2E2E2E2E2E2E2E2E2E2E2E2E2E2E2E2E2E2E2E2
310
E2E2E2E2E2E2E2E2E2E2E2E2E2E2E2E2E2E2E2E2E2E2E2E2E2E2E2E2E2E2E2E2E2E2E2E2E2E2E2E2E2E2E2E2E2E2E2E2E2E2E2E2E2E2E2E2E2E2E2E2E2E2E2E2E2E2E2E2E2E2E2E2E2E2E2E2E2E2E2E2E2E2E2E2E2E2E2E2E2E2E2E2E2E2E2E2E2E2E2E2E2E2E2E2E2E2E2E2E2E2E2E2E2E2E2E2E2E2E2E2E2E2E2E2E2E2E2
310
E2E2E2E2E2E2E2E2E2E2E2E2E2E2E2E2E2E2E2E2E2E2E2E2E2E2E2E2E2E2E2E2E2E2E2E2E2E2E2E2E2E2E2E2E2E2E2E2E2E2E2E2E2E2E2E2E2E2E2E2E2E2E2E2E2E2E2E2E2E2E2E2E2E2E2E2E2E2E2E2E2E2E2E2E2E2E2E2E2E2E2E2E2E2E2E2E2E2E2E2E2E2E2E2E2E2E2E2E2E2E2E2E2E2E2E2E2E2E2E2E2E2E2E2E2E2E2
310
E2E2E2E2E2E2E2E2E2E2E2E2E2E2E2E2E2E2E2E2E2E2E2E2E2E2E2E2E2E2E2E2E2E2E2E2E2E2E2E2E2E2E2E2E2E2E2E2E2E2E2E2E2E2E2E2E2E2E2E2E2E2E2E2E2E2E2E2E2E2E2E2E2E2E2E2E2E2E2E2E2E2E2E2E2E2E2E2E2E2E2E2E2E2E2E2E2E2E2E2E2E2E2E2E2E2E2E2E2E2E2E2E2E2E2E2E2E2E2E2E2E2E2E2E2E2E2
310
E2E2E2E2E2E2E2E2E2E2E2E2E2E2E2E2E2E2E2E2E2E2E2E2E2E2E2E2E2E2E2E2E2E2E2E2E2E2E2E2E2E2E2E2E2E2E2E2E2E2E2E2E2E2E2E2E2E2E2E2E2E2E2E2E2E2E2E2E2E2E2E2E2E2E2E2E2E2E2E2E2E2E2E2E2E2E2E2E2E2E2E2E2E2E2E2E2E2E2E2E2E2E2E2E2E2E2E2E2E2E2E2E2E2E2E2E2E2E2E2E2E2E2E2E2E2E2
310
E2E2E2E2E2E2E2E2E2E2E2E2E2E2E2E2E2E2E2E2E2E2E2E2E2E2E2E2E2E2E2E2E2E2E2E2E2E2E2E2E2E2E2E2E2E2E2E2E2E2E2E2E2E2E2E2E2E2E2E2E2E2E2E2E2E2E2E2E2E2E2E2E2E2E2E2E2E2E2E2E2E2E2E2E2E2E2E2E2E2E2E2E2E2E2E2E2E2E2E2E2E2E2E2E2E2E2E2E2E2E2E2E2E2E2E2E2E2E2E2E2E2E2E2E2E2E2
310
E2E2E2E2E2E2E2E2E2E2E2E2E2E2E2E2E2E2E2E2E2E2E2E2E2E2E2E2E2E2E2E2E2E2E2E2E2E2E2E2E2E2E2E2E2E2E2E2E2E2E2E2E2E2E2E2E2E2E2E2E2E2E2E2E2E2E2E2E2E2E2E2E2E2E2E2E2E2E2E2E2E2E2E2E2E2E2E2E2E2E2E2E2E2E2E2E2E2E2E2E2E2E2E2E2E2E2E2E2E2E2E2E2E2E2E2E2E2E2E2E2E2E2E2E2E2E2
310
E2E2E2E2E2E2E2E2E2E2E2E2E2E2E2E2E2E2E2E2E2E2E2E2E2E2E2E2E2E2E2E2E2E2E2E2E2E2E2E2E2E2E2E2E2E2E2E2E2E2E2E2E2E2E2E2E2E2E2E2E2E2E2E2E2E2E2E2E2E2E2E2E2E2E2E2E2E2E2E2E2E2E2E2E2E2E2E2E2E2E2E2E2E2E2E2E2E2E2E2E2E2E2E2E2E2E2E2E2E2E2E2E2E2E2E2E2E2E2E2E2E2E2E2E2E2E2
310
E2E2E2E2E2E2E2E2E2E2E2E2E2E2E2E2E2E2E2E2E2E2E2E2E2E2E2E2E2E2E2E2E2E2E2E2E2E2E2E2E2E2E2E2E2E2E2E2E2E2E2E2E2E2E2E2E2E2E2E2E2E2E2E2E2E2E2E2E2E2E2E2E2E2E2E2E2E2E2E2E2E2E2E2E2E2E2E2E2E2E2E2E2E2E2E2E2E2E2E2E2E2E2E2E2E2E2E2E2E2E2E2E2E2E2E2E2E2E2E2E2E2E2E2E2E2E2
310
E2E2E2E2E2E2E2E2E2E2E2E2E2E2E2E2E2E2E2E2E2E2E2E2E2E2E2E2E2E2E2E2E2E2E2E2E2E2E2E2E2E2E2E2E2E2E2E2E2E2E2E2E2E2E2E2E2E2E2E2E2E2E2E2E2E2E2E2E2E2E2E2E2E2E2E2E2E2E2E2E2E2E2E2E2E2E2E2E2E2E2E2E2E2E2E2E2E2E2E2E2E2E2E2E2E2E2E2E2E2E2E2E2E2E2E2E2E2E2E2E2E2E2E2E2E2E2
310
E2E2E2E2E2E2E2E2E2E2E2E2E2E2E2E2E2E2E2E2E2E2E2E2E2E2E2E2E2E2E2E2E2E2E2E2E2E2E2E2E2E2E2E2E2E2E2E2E2E2E2E2E2E2E2E2E2E2E2E2E2E2E2E2E2E2E2E2E2E2E2E2E2E2E2E2E2E2E2E2E2E2E2E2E2E2E2E2E2E2E2E2E2E2E2E2E2E2E2E2E2E2E2E2E2E2E2E2E2E2E2E2E2E2E2E2E2E2E2E2E2E2E2E2E2E2E2
310
E2E2E2E2E2E2E2E2E2E2E2E2E2E2E2E2E2E2E2E2E2E2E2E2E2E2E2E2E2E2E2E2E2E2E2E2E2E2E2E2E2E2E2E2E2E2E2E2E2E2E2E2E2E2E2E2E2E2E2E2E2E2E2E2E2E2E2E2E2E2E2E2E2E2E2E2E2E2E2E2E2E2E2E2E2E2E2E2E2E2E2E2E2E2E2E2E2E2E2E2E2E2E2E2E2E2E2E2E2E2E2E2E2E2E2E2E2E2E2E2E2E2E2E2E2E2E2
310
E2E2E2E2E2E2E2E2E2E2E2E2E2E2E2E2E2E2E2E2E2E2E2E2E2E2E2E2E2E2E2E2E2E2E2E2E2E2E2E2E2E2E2E2E2E2E2E2E2E2E2E2E2E2E2E2E2E2E2E2E2E2E2E2E2E2E2E2E2E2E2E2E2E2E2E2E2E2E2E2E2E2E2E2E2E2E2E2E2E2E2E2E2E2E2E2E2E2E2E2E2E2E2E2E2E2E2E2E2E2E2E2E2E2E2E2E2E2E2E2E2E2E2E2E2E2E2
310
E2E2E2E2E2E2E2E2E2E2E2E2E2E2E2E2E2E2E2E2E2E2E2E2E2E2E2E2E2E2E2E2E2E2E2E2E2E2E2E2E2E2E2E2E2E2E2E2E2E2E2E2E2E2E2E2E2E2E2E2E2E2E2E2E2E2E2E2E2E2E2E2E2E2E2E2E2E2E2E2E2E2E2E2E2E2E2E2E2E2E2E2E2E2E2E2E2E2E2E2E2E2E2E2E2E2E2E2E2E2E2E2E2E2E2E2E2E2E2E2E2E2E2E2E2E2E2
310
E2E2E2E2E2E2E2E2E2E2E2E2E2E2E2E2E2E2E2E2E2E2E2E2E2E2E2E2E2E2E2E2E2E2E2E2E2E2E2E2E2E2E2E2E2E2E2E2E2E2E2E2E2E2E2E2E2E2E2E2E2E2E2E2E2E2E2E2E2E2E2E2E2E2E2E2E2E2E2E2E2E2E2E2E2E2E2E2E2E2E2E2E2E2E2E2E2E2E2E2E2E2E2E2E2E2E2E2E2E2E2E2E2E2E2E2E2E2E2E2E2E2E2E2E2E2E2
310
E2E2E2E2E2E2E2E2E2E2E2E2E2E2E2E2E2E2E2E2E2E2E2E2E2E2E2E2E2E2E2E2E2E2E2E2E2E2E2E2E2E2E2E2E2E2E2E2E2E2E2E2E2E2E2E2E2E2E2E2E2E2E2E2E2E2E2E2E2E2E2E2E2E2E2E2E2E2E2E2E2E2E2E2E2E2E2E2E2E2E2E2E2E2E2E2E2E2E2E2E2E2E2E2E2E2E2E2E2E2E2E2E2E2E2E2E2E2E2E2E2E2E2E2E2E2E2
310
E2E2E2E2E2E2E2E2E2E2E2E2E2E2E2E2E2E2E2E2E2E2E2E2E2E2E2E2E2E2E2E2E2E2E2E2E2E2E2E2E2E2E2E2E2E2E2E2E2E2E2E2E2E2E2E2E2E2E2E2E2E2E2E2E2E2E2E2E2E2E2E2E2E2E2E2E2E2E2E2E2E2E2E2E2E2E2E2E2E2E2E2E2E2E2E2E2E2E2E2E2E2E2E2E2E2E2E2E2E2E2E2E2E2E2E2E2E2E2E2E2E2E2E2E2E2E2
310
E2E2E2E2E2E2E2E2E2E2E2E2E2E2E2E2E2E2E2E2E2E2E2E2E2E2E2E2E2E2E2E2E2E2E2E2E2E2E2E2E2E2E2E2E2E2E2E2E2E2E2E2E2E2E2E2E2E2E2E2E2E2E2E2E2E2E2E2E2E2E2E2E2E2E2E2E2E2E2E2E2E2E2E2E2E2E2E2E2E2E2E2E2E2E2E2E2E2E2E2E2E2E2E2E2E2E2E2E2E2E2E2E2E2E2E2E2E2E2E2E2E2E2E2E2E2E2
310
E2E2E2E2E2E2E2E2E2E2E2E2E2E2E2E2E2E2E2E2E2E2E2E2E2E2E2E2E2E2E2E2E2E2E2E2E2E2E2E2E2E2E2E2E2E2E2E2E2E2E2E2E2E2E2E2E2E2E2E2E2E2E2E2E2E2E2E2E2E2E2E2E2E2E2E2E2E2E2E2E2E2E2E2E2E2E2E2E2E2E2E2E2E2E2E2E2E2E2E2E2E2E2E2E2E2E2E2E2E2E2E2E2E2E2E2E2E2E2E2E2E2E2E2E2E2E2
310
E2E2E2E2E2E2E2E2E2E2E2E2E2E2E2E2E2E2E2E2E2E2E2E2E2E2E2E2E2E2E2E2E2E2E2E2E2E2E2E2E2E2E2E2E2E2E2E2E2E2E2E2E2E2E2E2E2E2E2E2E2E2E2E2E2E2E2E2E2E2E2E2E2E2E2E2E2E2E2E2E2E2E2E2E2E2E2E2E2E2E2E2E2E2E2E2E2E2E2E2E2E2E2E2E2E2E2E2E2E2E2E2E2E2E2E2E2E2E2E2E2E2E2E2E2E2E2
310
E2E2E2E2E2E2E2E2E2E2E2E2E2E2E2E2E2E2E2E2E2E2E2E2E2E2E2E2E2E2E2E2E2E2E2E2E2E2E2E2E2E2E2E2E2E2E2E2E2E2E2E2E2E2E2E2E2E2E2E2E2E2E2E2E2E2E2E2E2E2E2E2E2E2E2E2E2E2E2E2E2E2E2E2E2E2E2E2E2E2E2E2E2E2E2E2E2E2E2E2E2E2E2E2E2E2E2E2E2E2E2E2E2E2E2E2E2E2E2E2E2E2E2E2E2E2E2
310
E2E2E2E2E2E2E2E2E2E2E2E2E2E2E2E2E2E2E2E2E2E2E2E2E2E2E2E2E2E2E2E2E2E2E2E2E2E2E2E2E2E2E2E2E2E2E2E2E2E2E2E2E2E2E2E2E2E2E2E2E2E2E2E2E2E2E2E2E2E2E2E2E2E2E2E2E2E2E2E2E2E2E2E2E2E2E2E2E2E2E2E2E2E2E2E2E2E2E2E2E2E2E2E2E2E2E2E2E2E2E2E2E2E2E2E2E2E2E2E2E2E2E2E2E2E2E2
310
E2E2E2E2E2E2E2E2E2E2E2E2E2E2E2E2E2E2E2E2E2E2E2E2E2E2E2E2E2E2E2E2E2E2E2E2E2E2E2E2E2E2E2E2E2E2E2E2E2E2E2E2E2E2E2E2E2E2E2E2E2E2E2E2E2E2E2E2E2E2E2E2E2E2E2E2E2E2E2E2E2E2E2E2E2E2E2E2E2E2E2E2E2E2E2E2E2E2E2E2E2E2E2E2E2E2E2E2E2E2E2E2E2E2E2E2E2E2E2E2E2E2E2E2E2E2E2
310
E2E2E2E2E2E2E2E2E2E2E2E2E2E2E2E2E2E2E2E2E2E2E2E2E2E2E2E2E2E2E2E2E2E2E2E2E2E2E2E2E2E2E2E2E2E2E2E2E2E2E2E2E2E2E2E2E2E2E2E2E2E2E2E2E2E2E2E2E2E2E2E2E2E2E2E2E2E2E2E2E2E2E2E2E2E2E2E2E2E2E2E2E2E2E2E2E2E2E2E2E2E2E2E2E2E2E2E2E2E2E2E2E2E2E2E2E2E2E2E2E2E2E2E2E2E2E2
310
E2E2E2E2E2E2E2E2E2E2E2E2E2E2E2E2E2E2E2E2E2E2E2E2E2E2E2E2E2E2E2E2E2E2E2E2E2E2E2E2E2E2E2E2E2E2E2E2E2E2E2E2E2E2E2E2E2E2E2E2E2E2E2E2E2E2E2E2E2E2E2E2E2E2E2E2E2E2E2E2E2E2E2E2E2E2E2E2E2E2E2E2E2E2E2E2E2E2E2E2E2E2E2E2E2E2E2E2E2E2E2E2E2E2E2E2E2E2E2E2E2E2E2E2E2E2E2
310
E2E2E2E2E2E2E2E2E2E2E2E2E2E2E2E2E2E2E2E2E2E2E2E2E2E2E2E2E2E2E2E2E2E2E2E2E2E2E2E2E2E2E2E2E2E2E2E2E2E2E2E2E2E2E2E2E2E2E2E2E2E2E2E2E2E2E2E2E2E2E2E2E2E2E2E2E2E2E2E2E2E2E2E2E2E2E2E2E2E2E2E2E2E2E2E2E2E2E2E2E2E2E2E2E2E2E2E2E2E2E2E2E2E2E2E2E2E2E2E2E2E2E2E2E2E2E2
310
E2E2E2E2E2E2E2E2E2E2E2E2E2E2E2E2E2E2E2E2E2E2E2E2E2E2E2E2E2E2E2E2E2E2E2E2E2E2E2E2E2E2E2E2E2E2E2E2E2E2E2E2E2E2E2E2E2E2E2E2E2E2E2E2E2E2E2E2E2E2E2E2E2E2E2E2E2E2E2E2E2E2E2E2E2E2E2E2E2E2E2E2E2E2E2E2E2E2E2E2E2E2E2E2E2E2E2E2E2E2E2E2E2E2E2E2E2E2E2E2E2E2E2E2E2E2E2
310
E2E2E2E2E2E2E2E2E2E2E2E2E2E2E2E2E2E2E2E2E2E2E2E2E2E2E2E2E2E2E2E2E2E2E2E2E2E2E2E2E2E2E2E2E2E2E2E2E2E2E2E2E2E2E2E2E2E2E2E2E2E2E2E2E2E2E2E2E2E2E2E2E2E2E2E2E2E2E2E2E2E2E2E2E2E2E2E2E2E2E2E2E2E2E2E2E2E2E2E2E2E2E2E2E2E2E2E2E2E2E2E2E2E2E2E2E2E2E2E2E2E2E2E2E2E2E2
310
E2E2E2E2E2E2E2E2E2E2E2E2E2E2E2E2E2E2E2E2E2E2E2E2E2E2E2E2E2E2E2E2E2E2E2E2E2E2E2E2E2E2E2E2E2E2E2E2E2E2E2E2E2E2E2E2E2E2E2E2E2E2E2E2E2E2E2E2E2E2E2E2E2E2E2E2E2E2E2E2E2E2E2E2E2E2E2E2E2E2E2E2E2E2E2E2E2E2E2E2E2E2E2E2E2E2E2E2E2E2E2E2E2E2E2E2E2E2E2E2E2E2E2E2E2E2E2
310
E2E2E2E2E2E2E2E2E2E2E2E2E2E2E2E2E2E2E2E2E2E2E2E2E2E2E2E2E2E2E2E2E2E2E2E2E2E2E2E2E2E2E2E2E2E2E2E2E2E2E2E2E2E2E2E2E2E2E2E2E2E2E2E2E2E2E2E2E2E2E2E2E2E2E2E2E2E2E2E2E2E2E2E2E2E2E2E2E2E2E2E2E2E2E2E2E2E2E2E2E2E2E2E2E2E2E2E2E2E2E2E2E2E2E2E2E2E2E2E2E2E2E2E2E2E2E2
310
E2E2E2E2E2E2E2E2E2E2E2E2E2E2E2E2E2E2E2E2E2E2E2E2E2E2E2E2E2E2E2E2E2E2E2E2E2E2E2E2E2E2E2E2E2E2E2E2E2E2E2E2E2E2E2E2E2E2E2E2E2E2E2E2E2E2E2E2E2E2E2E2E2E2E2E2E2E2E2E2E2E2E2E2E2E2E2E2E2E2E2E2E2E2E2E2E2E2E2E2E2E2E2E2E2E2E2E2E2E2E2E2E2E2E2E2E2E2E2E2E2E2E2E2E2E2E2
310
E2E2E2E2E2E2E2E2E2E2E2E2E2E2E2E2E2E2E2E2E2E2E2E2E2E2E2E2E2E2E2E2E2E2E2E2E2E2E2E2E2E2E2E2E2E2E2E2E2E2E2E2E2E2E2E2E2E2E2E2E2E2E2E2E2E2E2E2E2E2E2E2E2E2E2E2E2E2E2E2E2E2E2E2E2E2E2E2E2E2E2E2E2E2E2E2E2E2E2E2E2E2E2E2E2E2E2E2E2E2E2E2E2E2E2E2E2E2E2E2E2E2E2E2E2E2E2
310
E2E2E2E2E2E2E2E2E2E2E2E2E2E2E2E2E2E2E2E2E2E2E2E2E2E2E2E2E2E2E2E2E2E2E2E2E2E2E2E2E2E2E2E2E2E2E2E2E2E2E2E2E2E2E2E2E2E2E2E2E2E2E2E2E2E2E2E2E2E2E2E2E2E2E2E2E2E2E2E2E2E2E2E2E2E2E2E2E2E2E2E2E2E2E2E2E2E2E2E2E2E2E2E2E2E2E2E2E2E2E2E2E2E2E2E2E2E2E2E2E2E2E2E2E2E2E2
310
E2E2E2E2E2E2E2E2E2E2E2E2E2E2E2E2E2E2E2E2E2E2E2E2E2E2E2E2E2E2E2E2E2E2E2E2E2E2E2E2E2E2E2E2E2E2E2E2E2E2E2E2E2E2E2E2E2E2E2E2E2E2E2E2E2E2E2E2E2E2E2E2E2E2E2E2E2E2E2E2E2E2E2E2E2E2E2E2E2E2E2E2E2E2E2E2E2E2E2E2E2E2E2E2E2E2E2E2E2E2E2E2E2E2E2E2E2E2E2E2E2E2E2E2E2E2E2
310
E2E2E2E2E2E2E2E2E2E2E2E2E2E2E2E2E2E2E2E2E2E2E2E2E2E2E2E2E2E2E2E2E2E2E2E2E2E2E2E2E2E2E2E2E2E2E2E2E2E2E2E2E2E2E2E2E2E2E2E2E2E2E2E2E2E2E2E2E2E2E2E2E2E2E2E2E2E2E2E2E2E2E2E2E2E2E2E2E2E2E2E2E2E2E2E2E2E2E2E2E2E2E2E2E2E2E2E2E2E2E2E2E2E2E2E2E2E2E2E2E2E2E2E2E2E2E2
310
E2E2E2E2E2E2E2E2E2E2E2E2E2E2E2E2E2E2E2E2E2E2E2E2E2E2E2E2E2E2E2E2E2E2E2E2E2E2E2E2E2E2E2E2E2E2E2E2E2E2E2E2E2E2E2E2E2E2E2E2E2E2E2E2E2E2E2E2E2E2E2E2E2E2E2E2E2E2E2E2E2E2E2E2E2E2E2E2E2E2E2E2E2E2E2E2E2E2E2E2E2E2E2E2E2E2E2E2E2E2E2E2E2E2E2E2E2E2E2E2E2E2E2E2E2E2E2
310
E2E2E2E2E2E2E2E2E2E2E2E2E2E2E2E2E2E2E2E2E2E2E2E2E2E2E2E2E2E2E2E2E2E2E2E2E2E2E2E2E2E2E2E2E2E2E2E2E2E2E2E2E2E2E2E2E2E2E2E2E2E2E2E2E2E2E2E2E2E2E2E2E2E2E2E2E2E2E2E2E2E2E2E2E2E2E2E2E2E2E2E2E2E2E2E2E2E2E2E2E2E2E2E2E2E2E2E2E2E2E2E2E2E2E2E2E2E2E2E2E2E2E2E2E2E2E2
310
E2E2E2E2E2E2E2E2E2E2E2E2E2E2E2E2E2E2E2E2E2E2E2E2E2E2E2E2E2E2E2E2E2E2E2E2E2E2E2E2E2E2E2E2E2E2E2E2E2E2E2E2E2E2E2E2E2E2E2E2E2E2E2E2E2E2E2E2E2E2E2E2E2E2E2E2E2E2E2E2E2E2E2E2E2E2E2E2E2E2E2E2E2E2E2E2E2E2E2E2E2E2E2E2E2E2E2E2E2E2E2E2E2E2E2E2E2E2E2E2E2E2E2E2E2E2E2
310
E2E2E2E2E2E2E2E2E2E2E2E2E2E2E2E2E2E2E2E2E2E2E2E2E2E2E2E2E2E2E2E2E2E2E2E2E2E2E2E2E2E2E2E2E2E2E2E2E2E2E2E2E2E2E2E2E2E2E2E2E2E2E2E2E2E2E2E2E2E2E2E2E2E2E2E2E2E2E2E2E2E2E2E2E2E2E2E2E2E2E2E2E2E2E2E2E2E2E2E2E2E2E2E2E2E2E2E2E2E2E2E2E2E2E2E2E2E2E2E2E2E2E2E2E2E2E2
310
E2E2E2E2E2E2E2E2E2E2E2E2E2E2E2E2E2E2E2E2E2E2E2E2E2E2E2E2E2E2E2E2E2E2E2E2E2E2E2E2E2E2E2E2E2E2E2E2E2E2E2E2E2E2E2E2E2E2E2E2E2E2E2E2E2E2E2E2E2E2E2E2E2E2E2E2E2E2E2E2E2E2E2E2E2E2E2E2E2E2E2E2E2E2E2E2E2E2E2E2E2E2E2E2E2E2E2E2E2E2E2E2E2E2E2E2E2E2E2E2E2E2E2E2E2E2E2
310
E2E2E2E2E2E2E2E2E2E2E2E2E2E2E2E2E2E2E2E2E2E2E2E2E2E2E2E2E2E2E2E2E2E2E2E2E2E2E2E2E2E2E2E2E2E2E2E2E2E2E2E2E2E2E2E2E2E2E2E2E2E2E2E2E2E2E2E2E2E2E2E2E2E2E2E2E2E2E2E2E2E2E2E2E2E2E2E2E2E2E2E2E2E2E2E2E2E2E2E2E2E2E2E2E2E2E2E2E2E2E2E2E2E2E2E2E2E2E2E2E2E2E2E2E2E2E2
310
E2E2E2E2E2E2E2E2E2E2E2E2E2E2E2E2E2E2E2E2E2E2E2E2E2E2E2E2E2E2E2E2E2E2E2E2E2E2E2E2E2E2E2E2E2E2E2E2E2E2E2E2E2E2E2E2E2E2E2E2E2E2E2E2E2E2E2E2E2E2E2E2E2E2E2E2E2E2E2E2E2E2E2E2E2E2E2E2E2E2E2E2E2E2E2E2E2E2E2E2E2E2E2E2E2E2E2E2E2E2E2E2E2E2E2E2E2E2E2E2E2E2E2E2E2E2E2
310
E2E2E2E2E2E2E2E2E2E2E2E2E2E2E2E2E2E2E2E2E2E2E2E2E2E2E2E2E2E2E2E2E2E2E2E2E2E2E2E2E2E2E2E2E2E2E2E2E2E2E2E2E2E2E2E2E2E2E2E2E2E2E2E2E2E2E2E2E2E2E2E2E2E2E2E2E2E2E2E2E2E2E2E2E2E2E2E2E2E2E2E2E2E2E2E2E2E2E2E2E2E2E2E2E2E2E2E2E2E2E2E2E2E2E2E2E2E2E2E2E2E2E2E2E2E2E2
310
E2E2E2E2E2E2E2E2E2E2E2E2E2E2E2E2E2E2E2E2E2E2E2E2E2E2E2E2E2E2E2E2E2E2E2E2E2E2E2E2E2E2E2E2E2E2E2E2E2E2E2E2E2E2E2E2E2E2E2E2E2E2E2E2E2E2E2E2E2E2E2E2E2E2E2E2E2E2E2E2E2E2E2E2E2E2E2E2E2E2E2E2E2E2E2E2E2E2E2E2E2E2E2E2E2E2E2E2E2E2E2E2E2E2E2E2E2E2E2E2E2E2E2E2E2E2E2
310
E2E2E2E2E2E2E2E2E2E2E2E2E2E2E2E2E2E2E2E2E2E2E2E2E2E2E2E2E2E2E2E2E2E2E2E2E2E2E2E2E2E2E2E2E2E2E2E2E2E2E2E2E2E2E2E2E2E2E2E2E2E2E2E2E2E2E2E2E2E2E2E2E2E2E2E2E2E2E2E2E2E2E2E2E2E2E2E2E2E2E2E2E2E2E2E2E2E2E2E2E2E2E2E2E2E2E2E2E2E2E2E2E2E2E2E2E2E2E2E2E2E2E2E2E2E2E2
310
E2E2E2E2E2E2E2E2E2E2E2E2E2E2E2E2E2E2E2E2E2E2E2E2E2E2E2E2E2E2E2E2E2E2E2E2E2E2E2E2E2E2E2E2E2E2E2E2E2E2E2E2E2E2E2E2E2E2E2E2E2E2E2E2E2E2E2E2E2E2E2E2E2E2E2E2E2E2E2E2E2E2E2E2E2E2E2E2E2E2E2E2E2E2E2E2E2E2E2E2E2E2E2E2E2E2E2E2E2E2E2E2E2E2E2E2E2E2E2E2E2E2E2E2E2E2E2
310
E2E2E2E2E2E2E2E2E2E2E2E2E2E2E2E2E2E2E2E2E2E2E2E2E2E2E2E2E2E2E2E2E2E2E2E2E2E2E2E2E2E2E2E2E2E2E2E2E2E2E2E2E2E2E2E2E2E2E2E2E2E2E2E2E2E2E2E2E2E2E2E2E2E2E2E2E2E2E2E2E2E2E2E2E2E2E2E2E2E2E2E2E2E2E2E2E2E2E2E2E2E2E2E2E2E2E2E2E2E2E2E2E2E2E2E2E2E2E2E2E2E2E2E2E2E2E2
310
E2E2E2E2E2E2E2E2E2E2E2E2E2E2E2E2E2E2E2E2E2E2E2E2E2E2E2E2E2E2E2E2E2E2E2E2E2E2E2E2E2E2E2E2E2E2E2E2E2E2E2E2E2E2E2E2E2E2E2E2E2E2E2E2E2E2E2E2E2E2E2E2E2E2E2E2E2E2E2E2E2E2E2E2E2E2E2E2E2E2E2E2E2E2E2E2E2E2E2E2E2E2E2E2E2E2E2E2E2E2E2E2E2E2E2E2E2E2E2E2E2E2E2E2E2E2E2
310
E2E2E2E2E2E2E2E2E2E2E2E2E2E2E2E2E2E2E2E2E2E2E2E2E2E2E2E2E2E2E2E2E2E2E2E2E2E2E2E2E2E2E2E2E2E2E2E2E2E2E2E2E2E2E2E2E2E2E2E2E2E2E2E2E2E2E2E2E2E2E2E2E2E2E2E2E2E2E2E2E2E2E2E2E2E2E2E2E2E2E2E2E2E2E2E2E2E2E2E2E2E2E2E2E2E2E2E2E2E2E2E2E2E2E2E2E2E2E2E2E2E2E2E2E2E2E2
310
E2E2E2E2E2E2E2E2E2E2E2E2E2E2E2E2E2E2E2E2E2E2E2E2E2E2E2E2E2E2E2E2E2E2E2E2E2E2E2E2E2E2E2E2E2E2E2E2E2E2E2E2E2E2E2E2E2E2E2E2E2E2E2E2E2E2E2E2E2E2E2E2E2E2E2E2E2E2E2E2E2E2E2E2E2E2E2E2E2E2E2E2E2E2E2E2E2E2E2E2E2E2E2E2E2E2E2E2E2E2E2E2E2E2E2E2E2E2E2E2E2E2E2E2E2E2E2
310
E2E2E2E2E2E2E2E2E2E2E2E2E2E2E2E2E2E2E2E2E2E2E2E2E2E2E2E2E2E2E2E2E2E2E2E2E2E2E2E2E2E2E2E2E2E2E2E2E2E2E2E2E2E2E2E2E2E2E2E2E2E2E2E2E2E2E2E2E2E2E2E2E2E2E2E2E2E2E2E2E2E2E2E2E2E2E2E2E2E2E2E2E2E2E2E2E2E2E2E2E2E2E2E2E2E2E2E2E2E2E2E2E2E2E2E2E2E2E2E2E2E2E2E2E2E2E2
310
E2E2E2E2E2E2E2E2E2E2E2E2E2E2E2E2E2E2E2E2E2E2E2E2E2E2E2E2E2E2E2E2E2E2E2E2E2E2E2E2E2E2E2E2E2E2E2E2E2E2E2E2E2E2E2E2E2E2E2E2E2E2E2E2E2E2E2E2E2E2E2E2E2E2E2E2E2E2E2E2E2E2E2E2E2E2E2E2E2E2E2E2E2E2E2E2E2E2E2E2E2E2E2E2E2E2E2E2E2E2E2E2E2E2E2E2E2E2E2E2E2E2E2E2E2E2E2
310
E2E2E2E2E2E2E2E2E2E2E2E2E2E2E2E2E2E2E2E2E2E2E2E2E2E2E2E2E2E2E2E2E2E2E2E2E2E2E2E2E2E2E2E2E2E2E2E2E2E2E2E2E2E2E2E2E2E2E2E2E2E2E2E2E2E2E2E2E2E2E2E2E2E2E2E2E2E2E2E2E2E2E2E2E2E2E2E2E2E2E2E2E2E2E2E2E2E2E2E2E2E2E2E2E2E2E2E2E2E2E2E2E2E2E2E2E2E2E2E2E2E2E2E2E2E2E2
310
E2E2E2E2E2E2E2E2E2E2E2E2E2E2E2E2E2E2E2E2E2E2E2E2E2E2E2E2E2E2E2E2E2E2E2E2E2E2E2E2E2E2E2E2E2E2E2E2E2E2E2E2E2E2E2E2E2E2E2E2E2E2E2E2E2E2E2E2E2E2E2E2E2E2E2E2E2E2E2E2E2E2E2E2E2E2E2E2E2E2E2E2E2E2E2E2E2E2E2E2E2E2E2E2E2E2E2E2E2E2E2E2E2E2E2E2E2E2E2E2E2E2E2E2E2E2E2
310
E2E2E2E2E2E2E2E2E2E2E2E2E2E2E2E2E2E2E2E2E2E2E2E2E2E2E2E2E2E2E2E2E2E2E2E2E2E2E2E2E2E2E2E2E2E2E2E2E2E2E2E2E2E2E2E2E2E2E2E2E2E2E2E2E2E2E2E2E2E2E2E2E2E2E2E2E2E2E2E2E2E2E2E2E2E2E2E2E2E2E2E2E2E2E2E2E2E2E2E2E2E2E2E2E2E2E2E2E2E2E2E2E2E2E2E2E2E2E2E2E2E2E2E2E2E2E2
310
E2E2E2E2E2E2E2E2E2E2E2E2E2E2E2E2E2E2E2E2E2E2E2E2E2E2E2E2E2E2E2E2E2E2E2E2E2E2E2E2E2E2E2E2E2E2E2E2E2E2E2E2E2E2E2E2E2E2E2E2E2E2E2E2E2E2E2E2E2E2E2E2E2E2E2E2E2E2E2E2E2E2E2E2E2E2E2E2E2E2E2E2E2E2E2E2E2E2E2E2E2E2E2E2E2E2E2E2E2E2E2E2E2E2E2E2E2E2E2E2E2E2E2E2E2E2E2
310
E2E2E2E2E2E2E2E2E2E2E2E2E2E2E2E2E2E2E2E2E2E2E2E2E2E2E2E2E2E2E2E2E2E2E2E2E2E2E2E2E2E2E2E2E2E2E2E2E2E2E2E2E2E2E2E2E2E2E2E2E2E2E2E2E2E2E2E2E2E2E2E2E2E2E2E2E2E2E2E2E2E2E2E2E2E2E2E2E2E2E2E2E2E2E2E2E2E2E2E2E2E2E2E2E2E2E2E2E2E2E2E2E2E2E2E2E2E2E2E2E2E2E2E2E2E2E2
310
E2E2E2E2E2E2E2E2E2E2E2E2E2E2E2E2E2E2E2E2E2E2E2E2E2E2E2E2E2E2E2E2E2E2E2E2E2E2E2E2E2E2E2E2E2E2E2E2E2E2E2E2E2E2E2E2E2E2E2E2E2E2E2E2E2E2E2E2E2E2E2E2E2E2E2E2E2E2E2E2E2E2E2E2E2E2E2E2E2E2E2E2E2E2E2E2E2E2E2E2E2E2E2E2E2E2E2E2E2E2E2E2E2E2E2E2E2E2E2E2E2E2E2E2E2E2E2
310
E2E2E2E2E2E2E2E2E2E2E2E2E2E2E2E2E2E2E2E2E2E2E2E2E2E2E2E2E2E2E2E2E2E2E2E2E2E2E2E2E2E2E2E2E2E2E2E2E2E2E2E2E2E2E2E2E2E2E2E2E2E2E2E2E2E2E2E2E2E2E2E2E2E2E2E2E2E2E2E2E2E2E2E2E2E2E2E2E2E2E2E2E2E2E2E2E2E2E2E2E2E2E2E2E2E2E2E2E2E2E2E2E2E2E2E2E2E2E2E2E2E2E2E2E2E2E2
310
E2E2E2E2E2E2E2E2E2E2E2E2E2E2E2E2E2E2E2E2E2E2E2E2E2E2E2E2E2E2E2E2E2E2E2E2E2E2E2E2E2E2E2E2E2E2E2E2E2E2E2E2E2E2E2E2E2E2E2E2E2E2E2E2E2E2E2E2E2E2E2E2E2E2E2E2E2E2E2E2E2E2E2E2E2E2E2E2E2E2E2E2E2E2E2E2E2E2E2E2E2E2E2E2E2E2E2E2E2E2E2E2E2E2E2E2E2E2E2E2E2E2E2E2E2E2E2
310
E2E2E2E2E2E2E2E2E2E2E2E2E2E2E2E2E2E2E2E2E2E2E2E2E2E2E2E2E2E2E2E2E2E2E2E2E2E2E2E2E2E2E2E2E2E2E2E2E2E2E2E2E2E2E2E2E2E2E2E2E2E2E2E2E2E2E2E2E2E2E2E2E2E2E2E2E2E2E2E2E2E2E2E2E2E2E2E2E2E2E2E2E2E2E2E2E2E2E2E2E2E2E2E2E2E2E2E2E2E2E2E2E2E2E2E2E2E2E2E2E2E2E2E2E2E2E2
310
E2E2E2E2E2E2E2E2E2E2E2E2E2E2E2E2E2E2E2E2E2E2E2E2E2E2E2E2E2E2E2E2E2E2E2E2E2E2E2E2E2E2E2E2E2E2E2E2E2E2E2E2E2E2E2E2E2E2E2E2E2E2E2E2E2E2E2E2E2E2E2E2E2E2E2E2E2E2E2E2E2E2E2E2E2E2E2E2E2E2E2E2E2E2E2E2E2E2E2E2E2E2E2E2E2E2E2E2E2E2E2E2E2E2E2E2E2E2E2E2E2E2E2E2E2E2E2
310
E2E2E2E2E2E2E2E2E2E2E2E2E2E2E2E2E2E2E2E2E2E2E2E2E2E2E2E2E2E2E2E2E2E2E2E2E2E2E2E2E2E2E2E2E2E2E2E2E2E2E2E2E2E2E2E2E2E2E2E2E2E2E2E2E2E2E2E2E2E2E2E2E2E2E2E2E2E2E2E2E2E2E2E2E2E2E2E2E2E2E2E2E2E2E2E2E2E2E2E2E2E2E2E2E2E2E2E2E2E2E2E2E2E2E2E2E2E2E2E2E2E2E2E2E2E2E2
310
E2E2E2E2E2E2E2E2E2E2E2E2E2E2E2E2E2E2E2E2E2E2E2E2E2E2E2E2E2E2E2E2E2E2E2E2E2E2E2E2E2E2E2E2E2E2E2E2E2E2E2E2E2E2E2E2E2E2E2E2E2E2E2E2E2E2E2E2E2E2E2E2E2E2E2E2E2E2E2E2E2E2E2E2E2E2E2E2E2E2E2E2E2E2E2E2E2E2E2E2E2E2E2E2E2E2E2E2E2E2E2E2E2E2E2E2E2E2E2E2E2E2E2E2E2E2E2
310
E2E2E2E2E2E2E2E2E2E2E2E2E2E2E2E2E2E2E2E2E2E2E2E2E2E2E2E2E2E2E2E2E2E2E2E2E2E2E2E2E2E2E2E2E2E2E2E2E2E2E2E2E2E2E2E2E2E2E2E2E2E2E2E2E2E2E2E2E2E2E2E2E2E2E2E2E2E2E2E2E2E2E2E2E2E2E2E2E2E2E2E2E2E2E2E2E2E2E2E2E2E2E2E2E2E2E2E2E2E2E2E2E2E2E2E2E2E2E2E2E2E2E2E2E2E2E2
310
E2E2E2E2E2E2E2E2E2E2E2E2E2E2E2E2E2E2E2E2E2E2E2E2E2E2E2E2E2E2E2E2E2E2E2E2E2E2E2E2E2E2E2E2E2E2E2E2E2E2E2E2E2E2E2E2E2E2E2E2E2E2E2E2E2E2E2E2E2E2E2E2E2E2E2E2E2E2E2E2E2E2E2E2E2E2E2E2E2E2E2E2E2E2E2E2E2E2E2E2E2E2E2E2E2E2E2E2E2E2E2E2E2E2E2E2E2E2E2E2E2E2E2E2E2E2E2
310
E2E2E2E2E2E2E2E2E2E2E2E2E2E2E2E2E2E2E2E2E2E2E2E2E2E2E2E2E2E2E2E2E2E2E2E2E2E2E2E2E2E2E2E2E2E2E2E2E2E2E2E2E2E2E2E2E2E2E2E2E2E2E2E2E2E2E2E2E2E2E2E2E2E2E2E2E2E2E2E2E2E2E2E2E2E2E2E2E2E2E2E2E2E2E2E2E2E2E2E2E2E2E2E2E2E2E2E2E2E2E2E2E2E2E2E2E2E2E2E2E2E2E2E2E2E2E2
310
E2E2E2E2E2E2E2E2E2E2E2E2E2E2E2E2E2E2E2E2E2E2E2E2E2E2E2E2E2E2E2E2E2E2E2E2E2E2E2E2E2E2E2E2E2E2E2E2E2E2E2E2E2E2E2E2E2E2E2E2E2E2E2E2E2E2E2E2E2E2E2E2E2E2E2E2E2E2E2E2E2E2E2E2E2E2E2E2E2E2E2E2E2E2E2E2E2E2E2E2E2E2E2E2E2E2E2E2E2E2E2E2E2E2E2E2E2E2E2E2E2E2E2E2E2E2E2
310
E2E2E2E2E2E2E2E2E2E2E2E2E2E2E2E2E2E2E2E2E2E2E2E2E2E2E2E2E2E2E2E2E2E2E2E2E2E2E2E2E2E2E2E2E2E2E2E2E2E2E2E2E2E2E2E2E2E2E2E2E2E2E2E2E2E2E2E2E2E2E2E2E2E2E2E2E2E2E2E2E2E2E2E2E2E2E2E2E2E2E2E2E2E2E2E2E2E2E2E2E2E2E2E2E2E2E2E2E2E2E2E2E2E2E2E2E2E2E2E2E2E2E2E2E2E2E2
310
E2E2E2E2E2E2E2E2E2E2E2E2E2E2E2E2E2E2E2E2E2E2E2E2E2E2E2E2E2E2E2E2E2E2E2E2E2E2E2E2E2E2E2E2E2E2E2E2E2E2E2E2E2E2E2E2E2E2E2E2E2E2E2E2E2E2E2E2E2E2E2E2E2E2E2E2E2E2E2E2E2E2E2E2E2E2E2E2E2E2E2E2E2E2E2E2E2E2E2E2E2E2E2E2E2E2E2E2E2E2E2E2E2E2E2E2E2E2E2E2E2E2E2E2E2E2E2
310
E2E2E2E2E2E2E2E2E2E2E2E2E2E2E2E2E2E2E2E2E2E2E2E2E2E2E2E2E2E2E2E2E2E2E2E2E2E2E2E2E2E2E2E2E2E2E2E2E2E2E2E2E2E2E2E2E2E2E2E2E2E2E2E2E2E2E2E2E2E2E2E2E2E2E2E2E2E2E2E2E2E2E2E2E2E2E2E2E2E2E2E2E2E2E2E2E2E2E2E2E2E2E2E2E2E2E2E2E2E2E2E2E2E2E2E2E2E2E2E2E2E2E2E2E2E2E2
310
E2E2E2E2E2E2E2E2E2E2E2E2E2E2E2E2E2E2E2E2E2E2E2E2E2E2E2E2E2E2E2E2E2E2E2E2E2E2E2E2E2E2E2E2E2E2E2E2E2E2E2E2E2E2E2E2E2E2E2E2E2E2E2E2E2E2E2E2E2E2E2E2E2E2E2E2E2E2E2E2E2E2E2E2E2E2E2E2E2E2E2E2E2E2E2E2E2E2E2E2E2E2E2E2E2E2E2E2E2E2E2E2E2E2E2E2E2E2E2E2E2E2E2E2E2E2E2
310
E2E2E2E2E2E2E2E2E2E2E2E2E2E2E2E2E2E2E2E2E2E2E2E2E2E2E2E2E2E2E2E2E2E2E2E2E2E2E2E2E2E2E2E2E2E2E2E2E2E2E2E2E2E2E2E2E2E2E2E2E2E2E2E2E2E2E2E2E2E2E2E2E2E2E2E2E2E2E2E2E2E2E2E2E2E2E2E2E2E2E2E2E2E2E2E2E2E2E2E2E2E2E2E2E2E2E2E2E2E2E2E2E2E2E2E2E2E2E2E2E2E2E2E2E2E2E2
310
E2E2E2E2E2E2E2E2E2E2E2E2E2E2E2E2E2E2E2E2E2E2E2E2E2E2E2E2E2E2E2E2E2E2E2E2E2E2E2E2E2E2E2E2E2E2E2E2E2E2E2E2E2E2E2E2E2E2E2E2E2E2E2E2E2E2E2E2E2E2E2E2E2E2E2E2E2E2E2E2E2E2E2E2E2E2E2E2E2E2E2E2E2E2E2E2E2E2E2E2E2E2E2E2E2E2E2E2E2E2E2E2E2E2E2E2E2E2E2E2E2E2E2E2E2E2E2
310
E2E2E2E2E2E2E2E2E2E2E2E2E2E2E2E2E2E2E2E2E2E2E2E2E2E2E2E2E2E2E2E2E2E2E2E2E2E2E2E2E2E2E2E2E2E2E2E2E2E2E2E2E2E2E2E2E2E2E2E2E2E2E2E2E2E2E2E2E2E2E2E2E2E2E2E2E2E2E2E2E2E2E2E2E2E2E2E2E2E2E2E2E2E2E2E2E2E2E2E2E2E2E2E2E2E2E2E2E2E2E2E2E2E2E2E2E2E2E2E2E2E2E2E2E2E2E2
310
E2E2E2E2E2E2E2E2E2E2E2E2E2E2E2E2E2E2E2E2E2E2E2E2E2E2E2E2E2E2E2E2E2E2E2E2E2E2E2E2E2E2E2E2E2E2E2E2E2E2E2E2E2E2E2E2E2E2E2E2E2E2E2E2E2E2E2E2E2E2E2E2E2E2E2E2E2E2E2E2E2E2E2E2E2E2E2E2E2E2E2E2E2E2E2E2E2E2E2E2E2E2E2E2E2E2E2E2E2E2E2E2E2E2E2E2E2E2E2E2E2E2E2E2E2E2E2
310
E2E2E2E2E2E2E2E2E2E2E2E2E2E2E2E2E2E2E2E2E2E2E2E2E2E2E2E2E2E2E2E2E2E2E2E2E2E2E2E2E2E2E2E2E2E2E2E2E2E2E2E2E2E2E2E2E2E2E2E2E2E2E2E2E2E2E2E2E2E2E2E2E2E2E2E2E2E2E2E2E2E2E2E2E2E2E2E2E2E2E2E2E2E2E2E2E2E2E2E2E2E2E2E2E2E2E2E2E2E2E2E2E2E2E2E2E2E2E2E2E2E2E2E2E2E2E2
310
E2E2E2E2E2E2E2E2E2E2E2E2E2E2E2E2E2E2E2E2E2E2E2E2E2E2E2E2E2E2E2E2E2E2E2E2E2E2E2E2E2E2E2E2E2E2E2E2E2E2E2E2E2E2E2E2E2E2E2E2E2E2E2E2E2E2E2E2E2E2E2E2E2E2E2E2E2E2E2E2E2E2E2E2E2E2E2E2E2E2E2E2E2E2E2E2E2E2E2E2E2E2E2E2E2E2E2E2E2E2E2E2E2E2E2E2E2E2E2E2E2E2E2E2E2E2E2
310
E2E2E2E2E2E2E2E2E2E2E2E2E2E2E2E2E2E2E2E2E2E2E2E2E2E2E2E2E2E2E2E2E2E2E2E2E2E2E2E2E2E2E2E2E2E2E2E2E2E2E2E2E2E2E2E2E2E2E2E2E2E2E2E2E2E2E2E2E2E2E2E2E2E2E2E2E2E2E2E2E2E2E2E2E2E2E2E2E2E2E2E2E2E2E2E2E2E2E2E2E2E2E2E2E2E2E2E2E2E2E2E2E2E2E2E2E2E2E2E2E2E2E2E2E2E2E2
310
E2E2E2E2E2E2E2E2E2E2E2E2E2E2E2E2E2E2E2E2E2E2E2E2E2E2E2E2E2E2E2E2E2E2E2E2E2E2E2E2E2E2E2E2E2E2E2E2E2E2E2E2E2E2E2E2E2E2E2E2E2E2E2E2E2E2E2E2E2E2E2E2E2E2E2E2E2E2E2E2E2E2E2E2E2E2E2E2E2E2E2E2E2E2E2E2E2E2E2E2E2E2E2E2E2E2E2E2E2E2E2E2E2E2E2E2E2E2E2E2E2E2E2E2E2E2E2
310
E2E2E2E2E2E2E2E2E2E2E2E2E2E2E2E2E2E2E2E2E2E2E2E2E2E2E2E2E2E2E2E2E2E2E2E2E2E2E2E2E2E2E2E2E2E2E2E2E2E2E2E2E2E2E2E2E2E2E2E2E2E2E2E2E2E2E2E2E2E2E2E2E2E2E2E2E2E2E2E2E2E2E2E2E2E2E2E2E2E2E2E2E2E2E2E2E2E2E2E2E2E2E2E2E2E2E2E2E2E2E2E2E2E2E2E2E2E2E2E2E2E2E2E2E2E2E2
310
E2E2E2E2E2E2E2E2E2E2E2E2E2E2E2E2E2E2E2E2E2E2E2E2E2E2E2E2E2E2E2E2E2E2E2E2E2E2E2E2E2E2E2E2E2E2E2E2E2E2E2E2E2E2E2E2E2E2E2E2E2E2E2E2E2E2E2E2E2E2E2E2E2E2E2E2E2E2E2E2E2E2E2E2E2E2E2E2E2E2E2E2E2E2E2E2E2E2E2E2E2E2E2E2E2E2E2E2E2E2E2E2E2E2E2E2E2E2E2E2E2E2E2E2E2E2E2
310
E2E2E2E2E2E2E2E2E2E2E2E2E2E2E2E2E2E2E2E2E2E2E2E2E2E2E2E2E2E2E2E2E2E2E2E2E2E2E2E2E2E2E2E2E2E2E2E2E2E2E2E2E2E2E2E2E2E2E2E2E2E2E2E2E2E2E2E2E2E2E2E2E2E2E2E2E2E2E2E2E2E2E2E2E2E2E2E2E2E2E2E2E2E2E2E2E2E2E2E2E2E2E2E2E2E2E2E2E2E2E2E2E2E2E2E2E2E2E2E2E2E2E2E2E2E2E2
310
E2E2E2E2E2E2E2E2E2E2E2E2E2E2E2E2E2E2E2E2E2E2E2E2E2E2E2E2E2E2E2E2E2E2E2E2E2E2E2E2E2E2E2E2E2E2E2E2E2E2E2E2E2E2E2E2E2E2E2E2E2E2E2E2E2E2E2E2E2E2E2E2E2E2E2E2E2E2E2E2E2E2E2E2E2E2E2E2E2E2E2E2E2E2E2E2E2E2E2E2E2E2E2E2E2E2E2E2E2E2E2E2E2E2E2E2E2E2E2E2E2E2E2E2E2E2E2
310
E2E2E2E2E2E2E2E2E2E2E2E2E2E2E2E2E2E2E2E2E2E2E2E2E2E2E2E2E2E2E2E2E2E2E2E2E2E2E2E2E2E2E2E2E2E2E2E2E2E2E2E2E2E2E2E2E2E2E2E2E2E2E2E2E2E2E2E2E2E2E2E2E2E2E2E2E2E2E2E2E2E2E2E2E2E2E2E2E2E2E2E2E2E2E2E2E2E2E2E2E2E2E2E2E2E2E2E2E2E2E2E2E2E2E2E2E2E2E2E2E2E2E2E2E2E2E2
310
E2E2E2E2E2E2E2E2E2E2E2E2E2E2E2E2E2E2E2E2E2E2E2E2E2E2E2E2E2E2E2E2E2E2E2E2E2E2E2E2E2E2E2E2E2E2E2E2E2E2E2E2E2E2E2E2E2E2E2E2E2E2E2E2E2E2E2E2E2E2E2E2E2E2E2E2E2E2E2E2E2E2E2E2E2E2E2E2E2E2E2E2E2E2E2E2E2E2E2E2E2E2E2E2E2E2E2E2E2E2E2E2E2E2E2E2E2E2E2E2E2E2E2E2E2E2E2
310
E2E2E2E2E2E2E2E2E2E2E2E2E2E2E2E2E2E2E2E2E2E2E2E2E2E2E2E2E2E2E2E2E2E2E2E2E2E2E2E2E2E2E2E2E2E2E2E2E2E2E2E2E2E2E2E2E2E2E2E2E2E2E2E2E2E2E2E2E2E2E2E2E2E2E2E2E2E2E2E2E2E2E2E2E2E2E2E2E2E2E2E2E2E2E2E2E2E2E2E2E2E2E2E2E2E2E2E2E2E2E2E2E2E2E2E2E2E2E2E2E2E2E2E2E2E2E2
310
E2E2E2E2E2E2E2E2E2E2E2E2E2E2E2E2E2E2E2E2E2E2E2E2E2E2E2E2E2E2E2E2E2E2E2E2E2E2E2E2E2E2E2E2E2E2E2E2E2E2E2E2E2E2E2E2E2E2E2E2E2E2E2E2E2E2E2E2E2E2E2E2E2E2E2E2E2E2E2E2E2E2E2E2E2E2E2E2E2E2E2E2E2E2E2E2E2E2E2E2E2E2E2E2E2E2E2E2E2E2E2E2E2E2E2E2E2E2E2E2E2E2E2E2E2E2E2
310
E2E2E2E2E2E2E2E2E2E2E2E2E2E2E2E2E2E2E2E2E2E2E2E2E2E2E2E2E2E2E2E2E2E2E2E2E2E2E2E2E2E2E2E2E2E2E2E2E2E2E2E2E2E2E2E2E2E2E2E2E2E2E2E2E2E2E2E2E2E2E2E2E2E2E2E2E2E2E2E2E2E2E2E2E2E2E2E2E2E2E2E2E2E2E2E2E2E2E2E2E2E2E2E2E2E2E2E2E2E2E2E2E2E2E2E2E2E2E2E2E2E2E2E2E2E2E2
310
E2E2E2E2E2E2E2E2E2E2E2E2E2E2E2E2E2E2E2E2E2E2E2E2E2E2E2E2E2E2E2E2E2E2E2E2E2E2E2E2E2E2E2E2E2E2E2E2E2E2E2E2E2E2E2E2E2E2E2E2E2E2E2E2E2E2E2E2E2E2E2E2E2E2E2E2E2E2E2E2E2E2E2E2E2E2E2E2E2E2E2E2E2E2E2E2E2E2E2E2E2E2E2E2E2E2E2E2E2E2E2E2E2E2E2E2E2E2E2E2E2E2E2E2E2E2E2
310
E2E2E2E2E2E2E2E2E2E2E2E2E2E2E2E2E2E2E2E2E2E2E2E2E2E2E2E2E2E2E2E2E2E2E2E2E2E2E2E2E2E2E2E2E2E2E2E2E2E2E2E2E2E2E2E2E2E2E2E2E2E2E2E2E2E2E2E2E2E2E2E2E2E2E2E2E2E2E2E2E2E2E2E2E2E2E2E2E2E2E2E2E2E2E2E2E2E2E2E2E2E2E2E2E2E2E2E2E2E2E2E2E2E2E2E2E2E2E2E2E2E2E2E2E2E2E2
310
E2E2E2E2E2E2E2E2E2E2E2E2E2E2E2E2E2E2E2E2E2E2E2E2E2E2E2E2E2E2E2E2E2E2E2E2E2E2E2E2E2E2E2E2E2E2E2E2E2E2E2E2E2E2E2E2E2E2E2E2E2E2E2E2E2E2E2E2E2E2E2E2E2E2E2E2E2E2E2E2E2E2E2E2E2E2E2E2E2E2E2E2E2E2E2E2E2E2E2E2E2E2E2E2E2E2E2E2E2E2E2E2E2E2E2E2E2E2E2E2E2E2E2E2E2E2E2
310
E2E2E2E2E2E2E2E2E2E2E2E2E2E2E2E2E2E2E2E2E2E2E2E2E2E2E2E2E2E2E2E2E2E2E2E2E2E2E2E2E2E2E2E2E2E2E2E2E2E2E2E2E2E2E2E2E2E2E2E2E2E2E2E2E2E2E2E2E2E2E2E2E2E2E2E2E2E2E2E2E2E2E2E2E2E2E2E2E2E2E2E2E2E2E2E2E2E2E2E2E2E2E2E2E2E2E2E2E2E2E2E2E2E2E2E2E2E2E2E2E2E2E2E2E2E2E2
310
E2E2E2E2E2E2E2E2E2E2E2E2E2E2E2E2E2E2E2E2E2E2E2E2E2E2E2E2E2E2E2E2E2E2E2E2E2E2E2E2E2E2E2E2E2E2E2E2E2E2E2E2E2E2E2E2E2E2E2E2E2E2E2E2E2E2E2E2E2E2E2E2E2E2E2E2E2E2E2E2E2E2E2E2E2E2E2E2E2E2E2E2E2E2E2E2E2E2E2E2E2E2E2E2E2E2E2E2E2E2E2E2E2E2E2E2E2E2E2E2E2E2E2E2E2E2E2
310
E2E2E2E2E2E2E2E2E2E2E2E2E2E2E2E2E2E2E2E2E2E2E2E2E2E2E2E2E2E2E2E2E2E2E2E2E2E2E2E2E2E2E2E2E2E2E2E2E2E2E2E2E2E2E2E2E2E2E2E2E2E2E2E2E2E2E2E2E2E2E2E2E2E2E2E2E2E2E2E2E2E2E2E2E2E2E2E2E2E2E2E2E2E2E2E2E2E2E2E2E2E2E2E2E2E2E2E2E2E2E2E2E2E2E2E2E2E2E2E2E2E2E2E2E2E2E2
310
E2E2E2E2E2E2E2E2E2E2E2E2E2E2E2E2E2E2E2E2E2E2E2E2E2E2E2E2E2E2E2E2E2E2E2E2E2E2E2E2E2E2E2E2E2E2E2E2E2E2E2E2E2E2E2E2E2E2E2E2E2E2E2E2E2E2E2E2E2E2E2E2E2E2E2E2E2E2E2E2E2E2E2E2E2E2E2E2E2E2E2E2E2E2E2E2E2E2E2E2E2E2E2E2E2E2E2E2E2E2E2E2E2E2E2E2E2E2E2E2E2E2E2E2E2E2E2
310
E2E2E2E2E2E2E2E2E2E2E2E2E2E2E2E2E2E2E2E2E2E2E2E2E2E2E2E2E2E2E2E2E2E2E2E2E2E2E2E2E2E2E2E2E2E2E2E2E2E2E2E2E2E2E2E2E2E2E2E2E2E2E2E2E2E2E2E2E2E2E2E2E2E2E2E2E2E2E2E2E2E2E2E2E2E2E2E2E2E2E2E2E2E2E2E2E2E2E2E2E2E2E2E2E2E2E2E2E2E2E2E2E2E2E2E2E2E2E2E2E2E2E2E2E2E2E2
310
E2E2E2E2E2E2E2E2E2E2E2E2E2E2E2E2E2E2E2E2E2E2E2E2E2E2E2E2E2E2E2E2E2E2E2E2E2E2E2E2E2E2E2E2E2E2E2E2E2E2E2E2E2E2E2E2E2E2E2E2E2E2E2E2E2E2E2E2E2E2E2E2E2E2E2E2E2E2E2E2E2E2E2E2E2E2E2E2E2E2E2E2E2E2E2E2E2E2E2E2E2E2E2E2E2E2E2E2E2E2E2E2E2E2E2E2E2E2E2E2E2E2E2E2E2E2E2
310
E2E2E2E2E2E2E2E2E2E2E2E2E2E2E2E2E2E2E2E2E2E2E2E2E2E2E2E2E2E2E2E2E2E2E2E2E2E2E2E2E2E2E2E2E2E2E2E2E2E2E2E2E2E2E2E2E2E2E2E2E2E2E2E2E2E2E2E2E2E2E2E2E2E2E2E2E2E2E2E2E2E2E2E2E2E2E2E2E2E2E2E2E2E2E2E2E2E2E2E2E2E2E2E2E2E2E2E2E2E2E2E2E2E2E2E2E2E2E2E2E2E2E2E2E2E2E2
310
E2E2E2E2E2E2E2E2E2E2E2E2E2E2E2E2E2E2E2E2E2E2E2E2E2E2E2E2E2E2E2E2E2E2E2E2E2E2E2E2E2E2E2E2E2E2E2E2E2E2E2E2E2E2E2E2E2E2E2E2E2E2E2E2E2E2E2E2E2E2E2E2E2E2E2E2E2E2E2E2E2E2E2E2E2E2E2E2E2E2E2E2E2E2E2E2E2E2E2E2E2E2E2E2E2E2E2E2E2E2E2E2E2E2E2E2E2E2E2E2E2E2E2E2E2E2E2
310
E2E2E2E2E2E2E2E2E2E2E2E2E2E2E2E2E2E2E2E2E2E2E2E2E2E2E2E2E2E2E2E2E2E2E2E2E2E2E2E2E2E2E2E2E2E2E2E2E2E2E2E2E2E2E2E2E2E2E2E2E2E2E2E2E2E2E2E2E2E2E2E2E2E2E2E2E2E2E2E2E2E2E2E2E2E2E2E2E2E2E2E2E2E2E2E2E2E2E2E2E2E2E2E2E2E2E2E2E2E2E2E2E2E2E2E2E2E2E2E2E2E2E2E2E2E2E2
310
E2E2E2E2E2E2E2E2E2E2E2E2E2E2E2E2E2E2E2E2E2E2E2E2E2E2E2E2E2E2E2E2E2E2E2E2E2E2E2E2E2E2E2E2E2E2E2E2E2E2E2E2E2E2E2E2E2E2E2E2E2E2E2E2E2E2E2E2E2E2E2E2E2E2E2E2E2E2E2E2E2E2E2E2E2E2E2E2E2E2E2E2E2E2E2E2E2E2E2E2E2E2E2E2E2E2E2E2E2E2E2E2E2E2E2E2E2E2E2E2E2E2E2E2E2E2E2
310
E2E2E2E2E2E2E2E2E2E2E2E2E2E2E2E2E2E2E2E2E2E2E2E2E2E2E2E2E2E2E2E2E2E2E2E2E2E2E2E2E2E2E2E2E2E2E2E2E2E2E2E2E2E2E2E2E2E2E2E2E2E2E2E2E2E2E2E2E2E2E2E2E2E2E2E2E2E2E2E2E2E2E2E2E2E2E2E2E2E2E2E2E2E2E2E2E2E2E2E2E2E2E2E2E2E2E2E2E2E2E2E2E2E2E2E2E2E2E2E2E2E2E2E2E2E2E2
310
E2E2E2E2E2E2E2E2E2E2E2E2E2E2E2E2E2E2E2E2E2E2E2E2E2E2E2E2E2E2E2E2E2E2E2E2E2E2E2E2E2E2E2E2E2E2E2E2E2E2E2E2E2E2E2E2E2E2E2E2E2E2E2E2E2E2E2E2E2E2E2E2E2E2E2E2E2E2E2E2E2E2E2E2E2E2E2E2E2E2E2E2E2E2E2E2E2E2E2E2E2E2E2E2E2E2E2E2E2E2E2E2E2E2E2E2E2E2E2E2E2E2E2E2E2E2E2
310
E2E2E2E2E2E2E2E2E2E2E2E2E2E2E2E2E2E2E2E2E2E2E2E2E2E2E2E2E2E2E2E2E2E2E2E2E2E2E2E2E2E2E2E2E2E2E2E2E2E2E2E2E2E2E2E2E2E2E2E2E2E2E2E2E2E2E2E2E2E2E2E2E2E2E2E2E2E2E2E2E2E2E2E2E2E2E2E2E2E2E2E2E2E2E2E2E2E2E2E2E2E2E2E2E2E2E2E2E2E2E2E2E2E2E2E2E2E2E2E2E2E2E2E2E2E2E2
310
E2E2E2E2E2E2E2E2E2E2E2E2E2E2E2E2E2E2E2E2E2E2E2E2E2E2E2E2E2E2E2E2E2E2E2E2E2E2E2E2E2E2E2E2E2E2E2E2E2E2E2E2E2E2E2E2E2E2E2E2E2E2E2E2E2E2E2E2E2E2E2E2E2E2E2E2E2E2E2E2E2E2E2E2E2E2E2E2E2E2E2E2E2E2E2E2E2E2E2E2E2E2E2E2E2E2E2E2E2E2E2E2E2E2E2E2E2E2E2E2E2E2E2E2E2E2E2
310
E2E2E2E2E2E2E2E2E2E2E2E2E2E2E2E2E2E2E2E2E2E2E2E2E2E2E2E2E2E2E2E2E2E2E2E2E2E2E2E2E2E2E2E2E2E2E2E2E2E2E2E2E2E2E2E2E2E2E2E2E2E2E2E2E2E2E2E2E2E2E2E2E2E2E2E2E2E2E2E2E2E2E2E2E2E2E2E2E2E2E2E2E2E2E2E2E2E2E2E2E2E2E2E2E2E2E2E2E2E2E2E2E2E2E2E2E2E2E2E2E2E2E2E2E2E2E2
310
E2E2E2E2E2E2E2E2E2E2E2E2E2E2E2E2E2E2E2E2E2E2E2E2E2E2E2E2E2E2E2E2E2E2E2E2E2E2E2E2E2E2E2E2E2E2E2E2E2E2E2E2E2E2E2E2E2E2E2E2E2E2E2E2E2E2E2E2E2E2E2E2E2E2E2E2E2E2E2E2E2E2E2E2E2E2E2E2E2E2E2E2E2E2E2E2E2E2E2E2E2E2E2E2E2E2E2E2E2E2E2E2E2E2E2E2E2E2E2E2E2E2E2E2E2E2E2
310
E2E2E2E2E2E2E2E2E2E2E2E2E2E2E2E2E2E2E2E2E2E2E2E2E2E2E2E2E2E2E2E2E2E2E2E2E2E2E2E2E2E2E2E2E2E2E2E2E2E2E2E2E2E2E2E2E2E2E2E2E2E2E2E2E2E2E2E2E2E2E2E2E2E2E2E2E2E2E2E2E2E2E2E2E2E2E2E2E2E2E2E2E2E2E2E2E2E2E2E2E2E2E2E2E2E2E2E2E2E2E2E2E2E2E2E2E2E2E2E2E2E2E2E2E2E2E2
310
E2E2E2E2E2E2E2E2E2E2E2E2E2E2E2E2E2E2E2E2E2E2E2E2E2E2E2E2E2E2E2E2E2E2E2E2E2E2E2E2E2E2E2E2E2E2E2E2E2E2E2E2E2E2E2E2E2E2E2E2E2E2E2E2E2E2E2E2E2E2E2E2E2E2E2E2E2E2E2E2E2E2E2E2E2E2E2E2E2E2E2E2E2E2E2E2E2E2E2E2E2E2E2E2E2E2E2E2E2E2E2E2E2E2E2E2E2E2E2E2E2E2E2E2E2E2E2
310
E2E2E2E2E2E2E2E2E2E2E2E2E2E2E2E2E2E2E2E2E2E2E2E2E2E2E2E2E2E2E2E2E2E2E2E2E2E2E2E2E2E2E2E2E2E2E2E2E2E2E2E2E2E2E2E2E2E2E2E2E2E2E2E2E2E2E2E2E2E2E2E2E2E2E2E2E2E2E2E2E2E2E2E2E2E2E2E2E2E2E2E2E2E2E2E2E2E2E2E2E2E2E2E2E2E2E2E2E2E2E2E2E2E2E2E2E2E2E2E2E2E2E2E2E2E2E2
310
E2E2E2E2E2E2E2E2E2E2E2E2E2E2E2E2E2E2E2E2E2E2E2E2E2E2E2E2E2E2E2E2E2E2E2E2E2E2E2E2E2E2E2E2E2E2E2E2E2E2E2E2E2E2E2E2E2E2E2E2E2E2E2E2E2E2E2E2E2E2E2E2E2E2E2E2E2E2E2E2E2E2E2E2E2E2E2E2E2E2E2E2E2E2E2E2E2E2E2E2E2E2E2E2E2E2E2E2E2E2E2E2E2E2E2E2E2E2E2E2E2E2E2E2E2E2E2
310
E2E2E2E2E2E2E2E2E2E2E2E2E2E2E2E2E2E2E2E2E2E2E2E2E2E2E2E2E2E2E2E2E2E2E2E2E2E2E2E2E2E2E2E2E2E2E2E2E2E2E2E2E2E2E2E2E2E2E2E2E2E2E2E2E2E2E2E2E2E2E2E2E2E2E2E2E2E2E2E2E2E2E2E2E2E2E2E2E2E2E2E2E2E2E2E2E2E2E2E2E2E2E2E2E2E2E2E2E2E2E2E2E2E2E2E2E2E2E2E2E2E2E2E2E2E2E2
310
E2E2E2E2E2E2E2E2E2E2E2E2E2E2E2E2E2E2E2E2E2E2E2E2E2E2E2E2E2E2E2E2E2E2E2E2E2E2E2E2E2E2E2E2E2E2E2E2E2E2E2E2E2E2E2E2E2E2E2E2E2E2E2E2E2E2E2E2E2E2E2E2E2E2E2E2E2E2E2E2E2E2E2E2E2E2E2E2E2E2E2E2E2E2E2E2E2E2E2E2E2E2E2E2E2E2E2E2E2E2E2E2E2E2E2E2E2E2E2E2E2E2E2E2E2E2E2
310
E2E2E2E2E2E2E2E2E2E2E2E2E2E2E2E2E2E2E2E2E2E2E2E2E2E2E2E2E2E2E2E2E2E2E2E2E2E2E2E2E2E2E2E2E2E2E2E2E2E2E2E2E2E2E2E2E2E2E2E2E2E2E2E2E2E2E2E2E2E2E2E2E2E2E2E2E2E2E2E2E2E2E2E2E2E2E2E2E2E2E2E2E2E2E2E2E2E2E2E2E2E2E2E2E2E2E2E2E2E2E2E2E2E2E2E2E2E2E2E2E2E2E2E2E2E2E2
310
E2E2E2E2E2E2E2E2E2E2E2E2E2E2E2E2E2E2E2E2E2E2E2E2E2E2E2E2E2E2E2E2E2E2E2E2E2E2E2E2E2E2E2E2E2E2E2E2E2E2E2E2E2E2E2E2E2E2E2E2E2E2E2E2E2E2E2E2E2E2E2E2E2E2E2E2E2E2E2E2E2E2E2E2E2E2E2E2E2E2E2E2E2E2E2E2E2E2E2E2E2E2E2E2E2E2E2E2E2E2E2E2E2E2E2E2E2E2E2E2E2E2E2E2E2E2E2
310
E2E2E2E2E2E2E2E2E2E2E2E2E2E2E2E2E2E2E2E2E2E2E2E2E2E2E2E2E2E2E2E2E2E2E2E2E2E2E2E2E2E2E2E2E2E2E2E2E2E2E2E2E2E2E2E2E2E2E2E2E2E2E2E2E2E2E2E2E2E2E2E2E2E2E2E2E2E2E2E2E2E2E2E2E2E2E2E2E2E2E2E2E2E2E2E2E2E2E2E2E2E2E2E2E2E2E2E2E2E2E2E2E2E2E2E2E2E2E2E2E2E2E2E2E2E2E2
310
E2E2E2E2E2E2E2E2E2E2E2E2E2E2E2E2E2E2E2E2E2E2E2E2E2E2E2E2E2E2E2E2E2E2E2E2E2E2E2E2E2E2E2E2E2E2E2E2E2E2E2E2E2E2E2E2E2E2E2E2E2E2E2E2E2E2E2E2E2E2E2E2E2E2E2E2E2E2E2E2E2E2E2E2E2E2E2E2E2E2E2E2E2E2E2E2E2E2E2E2E2E2E2E2E2E2E2E2E2E2E2E2E2E2E2E2E2E2E2E2E2E2E2E2E2E2E2
310
E2E2E2E2E2E2E2E2E2E2E2E2E2E2E2E2E2E2E2E2E2E2E2E2E2E2E2E2E2E2E2E2E2E2E2E2E2E2E2E2E2E2E2E2E2E2E2E2E2E2E2E2E2E2E2E2E2E2E2E2E2E2E2E2E2E2E2E2E2E2E2E2E2E2E2E2E2E2E2E2E2E2E2E2E2E2E2E2E2E2E2E2E2E2E2E2E2E2E2E2E2E2E2E2E2E2E2E2E2E2E2E2E2E2E2E2E2E2E2E2E2E2E2E2E2E2E2
310
E2E2E2E2E2E2E2E2E2E2E2E2E2E2E2E2E2E2E2E2E2E2E2E2E2E2E2E2E2E2E2E2E2E2E2E2E2E2E2E2E2E2E2E2E2E2E2E2E2E2E2E2E2E2E2E2E2E2E2E2E2E2E2E2E2E2E2E2E2E2E2E2E2E2E2E2E2E2E2E2E2E2E2E2E2E2E2E2E2E2E2E2E2E2E2E2E2E2E2E2E2E2E2E2E2E2E2E2E2E2E2E2E2E2E2E2E2E2E2E2E2E2E2E2E2E2E2
310
E2E2E2E2E2E2E2E2E2E2E2E2E2E2E2E2E2E2E2E2E2E2E2E2E2E2E2E2E2E2E2E2E2E2E2E2E2E2E2E2E2E2E2E2E2E2E2E2E2E2E2E2E2E2E2E2E2E2E2E2E2E2E2E2E2E2E2E2E2E2E2E2E2E2E2E2E2E2E2E2E2E2E2E2E2E2E2E2E2E2E2E2E2E2E2E2E2E2E2E2E2E2E2E2E2E2E2E2E2E2E2E2E2E2E2E2E2E2E2E2E2E2E2E2E2E2E2
310
E2E2E2E2E2E2E2E2E2E2E2E2E2E2E2E2E2E2E2E2E2E2E2E2E2E2E2E2E2E2E2E2E2E2E2E2E2E2E2E2E2E2E2E2E2E2E2E2E2E2E2E2E2E2E2E2E2E2E2E2E2E2E2E2E2E2E2E2E2E2E2E2E2E2E2E2E2E2E2E2E2E2E2E2E2E2E2E2E2E2E2E2E2E2E2E2E2E2E2E2E2E2E2E2E2E2E2E2E2E2E2E2E2E2E2E2E2E2E2E2E2E2E2E2E2E2E2
310
E2E2E2E2E2E2E2E2E2E2E2E2E2E2E2E2E2E2E2E2E2E2E2E2E2E2E2E2E2E2E2E2E2E2E2E2E2E2E2E2E2E2E2E2E2E2E2E2E2E2E2E2E2E2E2E2E2E2E2E2E2E2E2E2E2E2E2E2E2E2E2E2E2E2E2E2E2E2E2E2E2E2E2E2E2E2E2E2E2E2E2E2E2E2E2E2E2E2E2E2E2E2E2E2E2E2E2E2E2E2E2E2E2E2E2E2E2E2E2E2E2E2E2E2E2E2E2
310
E2E2E2E2E2E2E2E2E2E2E2E2E2E2E2E2E2E2E2E2E2E2E2E2E2E2E2E2E2E2E2E2E2E2E2E2E2E2E2E2E2E2E2E2E2E2E2E2E2E2E2E2E2E2E2E2E2E2E2E2E2E2E2E2E2E2E2E2E2E2E2E2E2E2E2E2E2E2E2E2E2E2E2E2E2E2E2E2E2E2E2E2E2E2E2E2E2E2E2E2E2E2E2E2E2E2E2E2E2E2E2E2E2E2E2E2E2E2E2E2E2E2E2E2E2E2E2
310
E2E2E2E2E2E2E2E2E2E2E2E2E2E2E2E2E2E2E2E2E2E2E2E2E2E2E2E2E2E2E2E2E2E2E2E2E2E2E2E2E2E2E2E2E2E2E2E2E2E2E2E2E2E2E2E2E2E2E2E2E2E2E2E2E2E2E2E2E2E2E2E2E2E2E2E2E2E2E2E2E2E2E2E2E2E2E2E2E2E2E2E2E2E2E2E2E2E2E2E2E2E2E2E2E2E2E2E2E2E2E2E2E2E2E2E2E2E2E2E2E2E2E2E2E2E2E2
310
E2E2E2E2E2E2E2E2E2E2E2E2E2E2E2E2E2E2E2E2E2E2E2E2E2E2E2E2E2E2E2E2E2E2E2E2E2E2E2E2E2E2E2E2E2E2E2E2E2E2E2E2E2E2E2E2E2E2E2E2E2E2E2E2E2E2E2E2E2E2E2E2E2E2E2E2E2E2E2E2E2E2E2E2E2E2E2E2E2E2E2E2E2E2E2E2E2E2E2E2E2E2E2E2E2E2E2E2E2E2E2E2E2E2E2E2E2E2E2E2E2E2E2E2E2E2E2
310
E2E2E2E2E2E2E2E2E2E2E2E2E2E2E2E2E2E2E2E2E2E2E2E2E2E2E2E2E2E2E2E2E2E2E2E2E2E2E2E2E2E2E2E2E2E2E2E2E2E2E2E2E2E2E2E2E2E2E2E2E2E2E2E2E2E2E2E2E2E2E2E2E2E2E2E2E2E2E2E2E2E2E2E2E2E2E2E2E2E2E2E2E2E2E2E2E2E2E2E2E2E2E2E2E2E2E2E2E2E2E2E2E2E2E2E2E2E2E2E2E2E2E2E2E2E2E2
310
E2E2E2E2E2E2E2E2E2E2E2E2E2E2E2E2E2E2E2E2E2E2E2E2E2E2E2E2E2E2E2E2E2E2E2E2E2E2E2E2E2E2E2E2E2E2E2E2E2E2E2E2E2E2E2E2E2E2E2E2E2E2E2E2E2E2E2E2E2E2E2E2E2E2E2E2E2E2E2E2E2E2E2E2E2E2E2E2E2E2E2E2E2E2E2E2E2E2E2E2E2E2E2E2E2E2E2E2E2E2E2E2E2E2E2E2E2E2E2E2E2E2E2E2E2E2E2
310
E2E2E2E2E2E2E2E2E2E2E2E2E2E2E2E2E2E2E2E2E2E2E2E2E2E2E2E2E2E2E2E2E2E2E2E2E2E2E2E2E2E2E2E2E2E2E2E2E2E2E2E2E2E2E2E2E2E2E2E2E2E2E2E2E2E2E2E2E2E2E2E2E2E2E2E2E2E2E2E2E2E2E2E2E2E2E2E2E2E2E2E2E2E2E2E2E2E2E2E2E2E2E2E2E2E2E2E2E2E2E2E2E2E2E2E2E2E2E2E2E2E2E2E2E2E2E2
310
E2E2E2E2E2E2E2E2E2E2E2E2E2E2E2E2E2E2E2E2E2E2E2E2E2E2E2E2E2E2E2E2E2E2E2E2E2E2E2E2E2E2E2E2E2E2E2E2E2E2E2E2E2E2E2E2E2E2E2E2E2E2E2E2E2E2E2E2E2E2E2E2E2E2E2E2E2E2E2E2E2E2E2E2E2E2E2E2E2E2E2E2E2E2E2E2E2E2E2E2E2E2E2E2E2E2E2E2E2E2E2E2E2E2E2E2E2E2E2E2E2E2E2E2E2E2E2
310
E2E2E2E2E2E2E2E2E2E2E2E2E2E2E2E2E2E2E2E2E2E2E2E2E2E2E2E2E2E2E2E2E2E2E2E2E2E2E2E2E2E2E2E2E2E2E2E2E2E2E2E2E2E2E2E2E2E2E2E2E2E2E2E2E2E2E2E2E2E2E2E2E2E2E2E2E2E2E2E2E2E2E2E2E2E2E2E2E2E2E2E2E2E2E2E2E2E2E2E2E2E2E2E2E2E2E2E2E2E2E2E2E2E2E2E2E2E2E2E2E2E2E2E2E2E2E2
310
E2E2E2E2E2E2E2E2E2E2E2E2E2E2E2E2E2E2E2E2E2E2E2E2E2E2E2E2E2E2E2E2E2E2E2E2E2E2E2E2E2E2E2E2E2E2E2E2E2E2E2E2E2E2E2E2E2E2E2E2E2E2E2E2E2E2E2E2E2E2E2E2E2E2E2E2E2E2E2E2E2E2E2E2E2E2E2E2E2E2E2E2E2E2E2E2E2E2E2E2E2E2E2E2E2E2E2E2E2E2E2E2E2E2E2E2E2E2E2E2E2E2E2E2E2E2E2
310
E2E2E2E2E2E2E2E2E2E2E2E2E2E2E2E2E2E2E2E2E2E2E2E2E2E2E2E2E2E2E2E2E2E2E2E2E2E2E2E2E2E2E2E2E2E2E2E2E2E2E2E2E2E2E2E2E2E2E2E2E2E2E2E2E2E2E2E2E2E2E2E2E2E2E2E2E2E2E2E2E2E2E2E2E2E2E2E2E2E2E2E2E2E2E2E2E2E2E2E2E2E2E2E2E2E2E2E2E2E2E2E2E2E2E2E2E2E2E2E2E2E2E2E2E2E2E2
310
E2E2E2E2E2E2E2E2E2E2E2E2E2E2E2E2E2E2E2E2E2E2E2E2E2E2E2E2E2E2E2E2E2E2E2E2E2E2E2E2E2E2E2E2E2E2E2E2E2E2E2E2E2E2E2E2E2E2E2E2E2E2E2E2E2E2E2E2E2E2E2E2E2E2E2E2E2E2E2E2E2E2E2E2E2E2E2E2E2E2E2E2E2E2E2E2E2E2E2E2E2E2E2E2E2E2E2E2E2E2E2E2E2E2E2E2E2E2E2E2E2E2E2E2E2E2E2
310
E2E2E2E2E2E2E2E2E2E2E2E2E2E2E2E2E2E2E2E2E2E2E2E2E2E2E2E2E2E2E2E2E2E2E2E2E2E2E2E2E2E2E2E2E2E2E2E2E2E2E2E2E2E2E2E2E2E2E2E2E2E2E2E2E2E2E2E2E2E2E2E2E2E2E2E2E2E2E2E2E2E2E2E2E2E2E2E2E2E2E2E2E2E2E2E2E2E2E2E2E2E2E2E2E2E2E2E2E2E2E2E2E2E2E2E2E2E2E2E2E2E2E2E2E2E2E2
310
E2E2E2E2E2E2E2E2E2E2E2E2E2E2E2E2E2E2E2E2E2E2E2E2E2E2E2E2E2E2E2E2E2E2E2E2E2E2E2E2E2E2E2E2E2E2E2E2E2E2E2E2E2E2E2E2E2E2E2E2E2E2E2E2E2E2E2E2E2E2E2E2E2E2E2E2E2E2E2E2E2E2E2E2E2E2E2E2E2E2E2E2E2E2E2E2E2E2E2E2E2E2E2E2E2E2E2E2E2E2E2E2E2E2E2E2E2E2E2E2E2E2E2E2E2E2E2
310
E2E2E2E2E2E2E2E2E2E2E2E2E2E2E2E2E2E2E2E2E2E2E2E2E2E2E2E2E2E2E2E2E2E2E2E2E2E2E2E2E2E2E2E2E2E2E2E2E2E2E2E2E2E2E2E2E2E2E2E2E2E2E2E2E2E2E2E2E2E2E2E2E2E2E2E2E2E2E2E2E2E2E2E2E2E2E2E2E2E2E2E2E2E2E2E2E2E2E2E2E2E2E2E2E2E2E2E2E2E2E2E2E2E2E2E2E2E2E2E2E2E2E2E2E2E2E2
310
E2E2E2E2E2E2E2E2E2E2E2E2E2E2E2E2E2E2E2E2E2E2E2E2E2E2E2E2E2E2E2E2E2E2E2E2E2E2E2E2E2E2E2E2E2E2E2E2E2E2E2E2E2E2E2E2E2E2E2E2E2E2E2E2E2E2E2E2E2E2E2E2E2E2E2E2E2E2E2E2E2E2E2E2E2E2E2E2E2E2E2E2E2E2E2E2E2E2E2E2E2E2E2E2E2E2E2E2E2E2E2E2E2E2E2E2E2E2E2E2E2E2E2E2E2E2E2
310
E2E2E2E2E2E2E2E2E2E2E2E2E2E2E2E2E2E2E2E2E2E2E2E2E2E2E2E2E2E2E2E2E2E2E2E2E2E2E2E2E2E2E2E2E2E2E2E2E2E2E2E2E2E2E2E2E2E2E2E2E2E2E2E2E2E2E2E2E2E2E2E2E2E2E2E2E2E2E2E2E2E2E2E2E2E2E2E2E2E2E2E2E2E2E2E2E2E2E2E2E2E2E2E2E2E2E2E2E2E2E2E2E2E2E2E2E2E2E2E2E2E2E2E2E2E2E2
310
E2E2E2E2E2E2E2E2E2E2E2E2E2E2E2E2E2E2E2E2E2E2E2E2E2E2E2E2E2E2E2E2E2E2E2E2E2E2E2E2E2E2E2E2E2E2E2E2E2E2E2E2E2E2E2E2E2E2E2E2E2E2E2E2E2E2E2E2E2E2E2E2E2E2E2E2E2E2E2E2E2E2E2E2E2E2E2E2E2E2E2E2E2E2E2E2E2E2E2E2E2E2E2E2E2E2E2E2E2E2E2E2E2E2E2E2E2E2E2E2E2E2E2E2E2E2E2
310
E2E2E2E2E2E2E2E2E2E2E2E2E2E2E2E2E2E2E2E2E2E2E2E2E2E2E2E2E2E2E2E2E2E2E2E2E2E2E2E2E2E2E2E2E2E2E2E2E2E2E2E2E2E2E2E2E2E2E2E2E2E2E2E2E2E2E2E2E2E2E2E2E2E2E2E2E2E2E2E2E2E2E2E2E2E2E2E2E2E2E2E2E2E2E2E2E2E2E2E2E2E2E2E2E2E2E2E2E2E2E2E2E2E2E2E2E2E2E2E2E2E2E2E2E2E2E2
310
E2E2E2E2E2E2E2E2E2E2E2E2E2E2E2E2E2E2E2E2E2E2E2E2E2E2E2E2E2E2E2E2E2E2E2E2E2E2E2E2E2E2E2E2E2E2E2E2E2E2E2E2E2E2E2E2E2E2E2E2E2E2E2E2E2E2E2E2E2E2E2E2E2E2E2E2E2E2E2E2E2E2E2E2E2E2E2E2E2E2E2E2E2E2E2E2E2E2E2E2E2E2E2E2E2E2E2E2E2E2E2E2E2E2E2E2E2E2E2E2E2E2E2E2E2E2E2
310
E2E2E2E2E2E2E2E2E2E2E2E2E2E2E2E2E2E2E2E2E2E2E2E2E2E2E2E2E2E2E2E2E2E2E2E2E2E2E2E2E2E2E2E2E2E2E2E2E2E2E2E2E2E2E2E2E2E2E2E2E2E2E2E2E2E2E2E2E2E2E2E2E2E2E2E2E2E2E2E2E2E2E2E2E2E2E2E2E2E2E2E2E2E2E2E2E2E2E2E2E2E2E2E2E2E2E2E2E2E2E2E2E2E2E2E2E2E2E2E2E2E2E2E2E2E2E2
310
E2E2E2E2E2E2E2E2E2E2E2E2E2E2E2E2E2E2E2E2E2E2E2E2E2E2E2E2E2E2E2E2E2E2E2E2E2E2E2E2E2E2E2E2E2E2E2E2E2E2E2E2E2E2E2E2E2E2E2E2E2E2E2E2E2E2E2E2E2E2E2E2E2E2E2E2E2E2E2E2E2E2E2E2E2E2E2E2E2E2E2E2E2E2E2E2E2E2E2E2E2E2E2E2E2E2E2E2E2E2E2E2E2E2E2E2E2E2E2E2E2E2E2E2E2E2E2
310
E2E2E2E2E2E2E2E2E2E2E2E2E2E2E2E2E2E2E2E2E2E2E2E2E2E2E2E2E2E2E2E2E2E2E2E2E2E2E2E2E2E2E2E2E2E2E2E2E2E2E2E2E2E2E2E2E2E2E2E2E2E2E2E2E2E2E2E2E2E2E2E2E2E2E2E2E2E2E2E2E2E2E2E2E2E2E2E2E2E2E2E2E2E2E2E2E2E2E2E2E2E2E2E2E2E2E2E2E2E2E2E2E2E2E2E2E2E2E2E2E2E2E2E2E2E2E2
310
E2E2E2E2E2E2E2E2E2E2E2E2E2E2E2E2E2E2E2E2E2E2E2E2E2E2E2E2E2E2E2E2E2E2E2E2E2E2E2E2E2E2E2E2E2E2E2E2E2E2E2E2E2E2E2E2E2E2E2E2E2E2E2E2E2E2E2E2E2E2E2E2E2E2E2E2E2E2E2E2E2E2E2E2E2E2E2E2E2E2E2E2E2E2E2E2E2E2E2E2E2E2E2E2E2E2E2E2E2E2E2E2E2E2E2E2E2E2E2E2E2E2E2E2E2E2E2
310
E2E2E2E2E2E2E2E2E2E2E2E2E2E2E2E2E2E2E2E2E2E2E2E2E2E2E2E2E2E2E2E2E2E2E2E2E2E2E2E2E2E2E2E2E2E2E2E2E2E2E2E2E2E2E2E2E2E2E2E2E2E2E2E2E2E2E2E2E2E2E2E2E2E2E2E2E2E2E2E2E2E2E2E2E2E2E2E2E2E2E2E2E2E2E2E2E2E2E2E2E2E2E2E2E2E2E2E2E2E2E2E2E2E2E2E2E2E2E2E2E2E2E2E2E2E2E2
310
E2E2E2E2E2E2E2E2E2E2E2E2E2E2E2E2E2E2E2E2E2E2E2E2E2E2E2E2E2E2E2E2E2E2E2E2E2E2E2E2E2E2E2E2E2E2E2E2E2E2E2E2E2E2E2E2E2E2E2E2E2E2E2E2E2E2E2E2E2E2E2E2E2E2E2E2E2E2E2E2E2E2E2E2E2E2E2E2E2E2E2
  0
XRECORD
  5
46A
102
{ACAD_REACTORS
330
3E
102
}
330
3E
100
AcDbXrecord
280
     1
102
MATERIAL
148
0.0
149
0.0
149
0.0
 93
        0
 94
      127
282
     0
 72
     0
 77
     0
171
     0
175
     0
179
     0
273
     0
  0
XRECORD
  5
3F
102
{ACAD_REACTORS
330
3E
102
}
330
3E
100
AcDbXrecord
280
     1
270
     1
271
     1
  0
XRECORD
  5
40
102
{ACAD_REACTORS
330
3E
102
}
330
3E
100
AcDbXrecord
280
     1
270
     1
271
     1
  0
XRECORD
  5
41
102
{ACAD_REACTORS
330
3E
102
}
330
3E
100
AcDbXrecord
280
     1
270
     1
271
     1
  0
XRECORD
  5
42
102
{ACAD_REACTORS
330
3E
102
}
330
3E
100
AcDbXrecord
280
     1
270
     1
271
     1
  0
XRECORD
  5
43
102
{ACAD_REACTORS
330
3E
102
}
330
3E
100
AcDbXrecord
280
     1
270
     1
271
     1
  0
XRECORD
  5
44
102
{ACAD_REACTORS
330
3E
102
}
330
3E
100
AcDbXrecord
280
     1
270
     1
271
     1
  0
XRECORD
  5
469
102
{ACAD_REACTORS
330
36
102
}
330
36
100
AcDbXrecord
280
     1
102
MATERIAL
148
0.0
149
0.0
149
0.0
 93
        0
 94
      127
282
     0
 72
     0
 77
     0
171
     0
175
     0
179
     0
273
     0
  0
XRECORD
  5
37
102
{ACAD_REACTORS
330
36
102
}
330
36
100
AcDbXrecord
280
     1
270
     1
271
     1
  0
XRECORD
  5
38
102
{ACAD_REACTORS
330
36
102
}
330
36
100
AcDbXrecord
280
     1
270
     1
271
     1
  0
XRECORD
  5
39
102
{ACAD_REACTORS
330
36
102
}
330
36
100
AcDbXrecord
280
     1
270
     1
271
     1
  0
XRECORD
  5
3A
102
{ACAD_REACTORS
330
36
102
}
330
36
100
AcDbXrecord
280
     1
270
     1
271
     1
  0
XRECORD
  5
3B
102
{ACAD_REACTORS
330
36
102
}
330
36
100
AcDbXrecord
280
     1
270
     1
271
     1
  0
XRECORD
  5
3C
102
{ACAD_REACTORS
330
36
102
}
330
36
100
AcDbXrecord
280
     1
270
     1
271
     1
  0
XRECORD
  5
464
102
{ACAD_REACTORS
330
C
102
}
330
C
100
AcDbXrecord
280
     1
102
MATERIAL
148
0.0
149
0.0
149
0.0
 93
        0
 94
      127
282
     0
 72
     0
 77
     0
171
     0
175
     0
179
     0
273
     0
  0
XRECORD
  5
D
102
{ACAD_REACTORS
330
C
102
}
330
C
100
AcDbXrecord
280
     1
270
     1
271
     1
  0
XRECORD
  5
E
102
{ACAD_REACTORS
330
C
102
}
330
C
100
AcDbXrecord
280
     1
270
     1
271
     1
  0
XRECORD
  5
F
102
{ACAD_REACTORS
330
C
102
}
330
C
100
AcDbXrecord
280
     1
270
     1
271
     1
  0
XRECORD
  5
10
102
{ACAD_REACTORS
330
C
102
}
330
C
100
AcDbXrecord
280
     1
270
     1
271
     1
  0
XRECORD
  5
11
102
{ACAD_REACTORS
330
C
102
}
330
C
100
AcDbXrecord
280
     1
270
     1
271
     1
  0
XRECORD
  5
12
102
{ACAD_REACTORS
330
C
102
}
330
C
100
AcDbXrecord
280
     1
270
     1
271
     1
  0
CELLSTYLEMAP
  5
175A
102
{ACAD_REACTORS
330
3D1
102
}
330
3D1
100
AcDbCellStyleMap
 90
        3
300
CELLSTYLE
  1
TABLEFORMAT_BEGIN
 90
        5
170
     1
 91
        0
 92
    32768
 62
   257
 93
        1
300
CONTENTFORMAT
  1
CONTENTFORMAT_BEGIN
 90
        0
 91
        0
 92
        4
 93
        0
300

 40
0.0
140
1.0
 94
        5
 62
     0
340
22
144
6.0
309
CONTENTFORMAT_END
171
     1
301
MARGIN
  1
CELLMARGIN_BEGIN
 40
1.5
 40
1.5
 40
1.5
 40
1.5
 40
0.18
 40
0.18
309
CELLMARGIN_END
 94
        6
 95
        1
302
GRIDFORMAT
  1
GRIDFORMAT_BEGIN
 90
        0
 91
        1
 62
     0
 92
       -2
340
0
 93
        0
 40
0.045
309
GRIDFORMAT_END
 95
        2
302
GRIDFORMAT
  1
GRIDFORMAT_BEGIN
 90
        0
 91
        1
 62
     0
 92
       -2
340
0
 93
        0
 40
0.045
309
GRIDFORMAT_END
 95
        4
302
GRIDFORMAT
  1
GRIDFORMAT_BEGIN
 90
        0
 91
        1
 62
     0
 92
       -2
340
0
 93
        0
 40
0.045
309
GRIDFORMAT_END
 95
        8
302
GRIDFORMAT
  1
GRIDFORMAT_BEGIN
 90
        0
 91
        1
 62
     0
 92
       -2
340
0
 93
        0
 40
0.045
309
GRIDFORMAT_END
 95
       16
302
GRIDFORMAT
  1
GRIDFORMAT_BEGIN
 90
        0
 91
        1
 62
     0
 92
       -2
340
0
 93
        0
 40
0.045
309
GRIDFORMAT_END
 95
       32
302
GRIDFORMAT
  1
GRIDFORMAT_BEGIN
 90
        0
 91
        1
 62
     0
 92
       -2
340
0
 93
        0
 40
0.045
309
GRIDFORMAT_END
309
TABLEFORMAT_END
  1
CELLSTYLE_BEGIN
 90
        1
 91
        1
300
_TITLE
309
CELLSTYLE_END
300
CELLSTYLE
  1
TABLEFORMAT_BEGIN
 90
        5
170
     1
 91
        0
 92
        0
 62
   257
 93
        1
300
CONTENTFORMAT
  1
CONTENTFORMAT_BEGIN
 90
        0
 91
        0
 92
        4
 93
        0
300

 40
0.0
140
1.0
 94
        5
 62
     0
340
22
144
4.5
309
CONTENTFORMAT_END
171
     1
301
MARGIN
  1
CELLMARGIN_BEGIN
 40
1.5
 40
1.5
 40
1.5
 40
1.5
 40
0.18
 40
0.18
309
CELLMARGIN_END
 94
        6
 95
        1
302
GRIDFORMAT
  1
GRIDFORMAT_BEGIN
 90
        0
 91
        1
 62
     0
 92
       -2
340
0
 93
        0
 40
0.045
309
GRIDFORMAT_END
 95
        2
302
GRIDFORMAT
  1
GRIDFORMAT_BEGIN
 90
        0
 91
        1
 62
     0
 92
       -2
340
0
 93
        0
 40
0.045
309
GRIDFORMAT_END
 95
        4
302
GRIDFORMAT
  1
GRIDFORMAT_BEGIN
 90
        0
 91
        1
 62
     0
 92
       -2
340
0
 93
        0
 40
0.045
309
GRIDFORMAT_END
 95
        8
302
GRIDFORMAT
  1
GRIDFORMAT_BEGIN
 90
        0
 91
        1
 62
     0
 92
       -2
340
0
 93
        0
 40
0.045
309
GRIDFORMAT_END
 95
       16
302
GRIDFORMAT
  1
GRIDFORMAT_BEGIN
 90
        0
 91
        1
 62
     0
 92
       -2
340
0
 93
        0
 40
0.045
309
GRIDFORMAT_END
 95
       32
302
GRIDFORMAT
  1
GRIDFORMAT_BEGIN
 90
        0
 91
        1
 62
     0
 92
       -2
340
0
 93
        0
 40
0.045
309
GRIDFORMAT_END
309
TABLEFORMAT_END
  1
CELLSTYLE_BEGIN
 90
        2
 91
        1
300
_HEADER
309
CELLSTYLE_END
300
CELLSTYLE
  1
TABLEFORMAT_BEGIN
 90
        5
170
     1
 91
        0
 92
        0
 62
   257
 93
        1
300
CONTENTFORMAT
  1
CONTENTFORMAT_BEGIN
 90
        0
 91
        0
 92
        4
 93
        0
300

 40
0.0
140
1.0
 94
        2
 62
     0
340
22
144
4.5
309
CONTENTFORMAT_END
171
     1
301
MARGIN
  1
CELLMARGIN_BEGIN
 40
1.5
 40
1.5
 40
1.5
 40
1.5
 40
0.18
 40
0.18
309
CELLMARGIN_END
 94
        6
 95
        1
302
GRIDFORMAT
  1
GRIDFORMAT_BEGIN
 90
        0
 91
        1
 62
     0
 92
       -2
340
0
 93
        0
 40
0.045
309
GRIDFORMAT_END
 95
        2
302
GRIDFORMAT
  1
GRIDFORMAT_BEGIN
 90
        0
 91
        1
 62
     0
 92
       -2
340
0
 93
        0
 40
0.045
309
GRIDFORMAT_END
 95
        4
302
GRIDFORMAT
  1
GRIDFORMAT_BEGIN
 90
        0
 91
        1
 62
     0
 92
       -2
340
0
 93
        0
 40
0.045
309
GRIDFORMAT_END
 95
        8
302
GRIDFORMAT
  1
GRIDFORMAT_BEGIN
 90
        0
 91
        1
 62
     0
 92
       -2
340
0
 93
        0
 40
0.045
309
GRIDFORMAT_END
 95
       16
302
GRIDFORMAT
  1
GRIDFORMAT_BEGIN
 90
        0
 91
        1
 62
     0
 92
       -2
340
0
 93
        0
 40
0.045
309
GRIDFORMAT_END
 95
       32
302
GRIDFORMAT
  1
GRIDFORMAT_BEGIN
 90
        0
 91
        1
 62
     0
 92
       -2
340
0
 93
        0
 40
0.045
309
GRIDFORMAT_END
309
TABLEFORMAT_END
  1
CELLSTYLE_BEGIN
 90
        3
 91
        2
300
_DATA
309
CELLSTYLE_END
  0
XRECORD
  5
1761
102
{ACAD_REACTORS
330
3D1
102
}
330
3D1
100
AcDbXrecord
280
     1
102
ACAD_ROUNDTRIP_PRE2007_TABLESTYLE
 90
        4
 91
        0
  1

 92
        4
 93
        0
  2

 94
        4
 95
        0
  3

  0
ENDSEC
  0
EOF
