  0
SECTION
  2
HEADER
  9
$ACADVER
  1
AC1015
  9
$ACADMAINTVER
 70
    20
  9
$DWGCODEPAGE
  3
ANSI_932
  9
$INSBASE
 10
0.0
 20
0.0
 30
0.0
  9
$EXTMIN
 10
-386.8531469200593
 20
-294.5610448934074
 30
-0.000000000000013
  9
$EXTMAX
 10
312.5143836992834
 20
147.3517472688627
 30
0.0000000000000023
  9
$LIMMIN
 10
0.0
 20
0.0
  9
$LIMMAX
 10
420.0
 20
297.0
  9
$ORTHOMODE
 70
     1
  9
$REGENMODE
 70
     1
  9
$FILLMODE
 70
     1
  9
$QTEXTMODE
 70
     0
  9
$MIRRTEXT
 70
     1
  9
$LTSCALE
 40
1.0
  9
$ATTMODE
 70
     1
  9
$TEXTSIZE
 40
43.66586864911549
  9
$TRACEWID
 40
1.0
  9
$TEXTSTYLE
  7
Standard
  9
$CLAYER
  8
SIZE
  9
$CELTYPE
  6
ByLayer
  9
$CECOLOR
 62
   256
  9
$CELTSCALE
 40
1.0
  9
$DISPSILH
 70
     0
  9
$DIMSCALE
 40
1.0
  9
$DIMASZ
 40
3.5
  9
$DIMEXO
 40
1.0
  9
$DIMDLI
 40
10.0
  9
$DIMRND
 40
0.0
  9
$DIMDLE
 40
0.0
  9
$DIMEXE
 40
1.0
  9
$DIMTP
 40
0.1
  9
$DIMTM
 40
0.1
  9
$DIMTXT
 40
3.5
  9
$DIMCEN
 40
0.0
  9
$DIMTSZ
 40
0.0
  9
$DIMTOL
 70
     0
  9
$DIMLIM
 70
     0
  9
$DIMTIH
 70
     0
  9
$DIMTOH
 70
     0
  9
$DIMSE1
 70
     0
  9
$DIMSE2
 70
     0
  9
$DIMTAD
 70
     1
  9
$DIMZIN
 70
     8
  9
$DIMBLK
  1

  9
$DIMASO
 70
     1
  9
$DIMSHO
 70
     1
  9
$DIMPOST
  1

  9
$DIMAPOST
  1
"
  9
$DIMALT
 70
     0
  9
$DIMALTD
 70
     2
  9
$DIMALTF
 40
0.0393701
  9
$DIMLFAC
 40
1.0
  9
$DIMTOFL
 70
     1
  9
$DIMTVP
 40
0.0
  9
$DIMTIX
 70
     0
  9
$DIMSOXD
 70
     0
  9
$DIMSAH
 70
     0
  9
$DIMBLK1
  1

  9
$DIMBLK2
  1

  9
$DIMSTYLE
  2
AM_ISO
  9
$DIMCLRD
 70
   256
  9
$DIMCLRE
 70
   256
  9
$DIMCLRT
 70
     2
  9
$DIMTFAC
 40
0.71
  9
$DIMGAP
 40
1.5
  9
$DIMJUST
 70
     0
  9
$DIMSD1
 70
     0
  9
$DIMSD2
 70
     0
  9
$DIMTOLJ
 70
     0
  9
$DIMTZIN
 70
     8
  9
$DIMALTZ
 70
     0
  9
$DIMALTTZ
 70
     0
  9
$DIMUPT
 70
     0
  9
$DIMDEC
 70
     2
  9
$DIMTDEC
 70
     3
  9
$DIMALTU
 70
     2
  9
$DIMALTTD
 70
     4
  9
$DIMTXSTY
  7
Standard
  9
$DIMAUNIT
 70
     0
  9
$DIMADEC
 70
     0
  9
$DIMALTRND
 40
0.0
  9
$DIMAZIN
 70
     2
  9
$DIMDSEP
 70
    46
  9
$DIMATFIT
 70
     3
  9
$DIMFRAC
 70
     0
  9
$DIMLDRBLK
  1

  9
$DIMLUNIT
 70
     2
  9
$DIMLWD
 70
    -1
  9
$DIMLWE
 70
    -1
  9
$DIMTMOVE
 70
     0
  9
$LUNITS
 70
     2
  9
$LUPREC
 70
     2
  9
$SKETCHINC
 40
1.0
  9
$FILLETRAD
 40
10.0
  9
$AUNITS
 70
     0
  9
$AUPREC
 70
     0
  9
$MENU
  1
.
  9
$ELEVATION
 40
0.0
  9
$PELEVATION
 40
0.0
  9
$THICKNESS
 40
0.0
  9
$LIMCHECK
 70
     0
  9
$CHAMFERA
 40
10.0
  9
$CHAMFERB
 40
10.0
  9
$CHAMFERC
 40
20.0
  9
$CHAMFERD
 40
0.0
  9
$SKPOLY
 70
     0
  9
$TDCREATE
 40
2451686.550481944
  9
$TDUCREATE
 40
2451686.175481945
  9
$TDUPDATE
 40
2456113.652054225
  9
$TDUUPDATE
 40
2456113.277054225
  9
$TDINDWG
 40
2.1783147222
  9
$TDUSRTIMER
 40
2.1783130787
  9
$USRTIMER
 70
     1
  9
$ANGBASE
 50
0.0
  9
$ANGDIR
 70
     0
  9
$PDMODE
 70
     0
  9
$PDSIZE
 40
0.0
  9
$PLINEWID
 40
0.0
  9
$SPLFRAME
 70
     0
  9
$SPLINETYPE
 70
     6
  9
$SPLINESEGS
 70
     8
  9
$HANDSEED
  5
413A
  9
$SURFTAB1
 70
     6
  9
$SURFTAB2
 70
     6
  9
$SURFTYPE
 70
     6
  9
$SURFU
 70
     6
  9
$SURFV
 70
     6
  9
$UCSBASE
  2

  9
$UCSNAME
  2

  9
$UCSORG
 10
0.0
 20
0.0
 30
0.0
  9
$UCSXDIR
 10
1.0
 20
0.0
 30
0.0
  9
$UCSYDIR
 10
0.0
 20
1.0
 30
0.0
  9
$UCSORTHOREF
  2

  9
$UCSORTHOVIEW
 70
     0
  9
$UCSORGTOP
 10
0.0
 20
0.0
 30
0.0
  9
$UCSORGBOTTOM
 10
0.0
 20
0.0
 30
0.0
  9
$UCSORGLEFT
 10
0.0
 20
0.0
 30
0.0
  9
$UCSORGRIGHT
 10
0.0
 20
0.0
 30
0.0
  9
$UCSORGFRONT
 10
0.0
 20
0.0
 30
0.0
  9
$UCSORGBACK
 10
0.0
 20
0.0
 30
0.0
  9
$PUCSBASE
  2

  9
$PUCSNAME
  2

  9
$PUCSORG
 10
0.0
 20
0.0
 30
0.0
  9
$PUCSXDIR
 10
1.0
 20
0.0
 30
0.0
  9
$PUCSYDIR
 10
0.0
 20
1.0
 30
0.0
  9
$PUCSORTHOREF
  2

  9
$PUCSORTHOVIEW
 70
     0
  9
$PUCSORGTOP
 10
0.0
 20
0.0
 30
0.0
  9
$PUCSORGBOTTOM
 10
0.0
 20
0.0
 30
0.0
  9
$PUCSORGLEFT
 10
0.0
 20
0.0
 30
0.0
  9
$PUCSORGRIGHT
 10
0.0
 20
0.0
 30
0.0
  9
$PUCSORGFRONT
 10
0.0
 20
0.0
 30
0.0
  9
$PUCSORGBACK
 10
0.0
 20
0.0
 30
0.0
  9
$USERI1
 70
     0
  9
$USERI2
 70
     0
  9
$USERI3
 70
     0
  9
$USERI4
 70
     0
  9
$USERI5
 70
     0
  9
$USERR1
 40
0.0
  9
$USERR2
 40
0.0
  9
$USERR3
 40
0.0
  9
$USERR4
 40
0.0
  9
$USERR5
 40
0.0
  9
$WORLDVIEW
 70
     1
  9
$SHADEDGE
 70
     3
  9
$SHADEDIF
 70
    70
  9
$TILEMODE
 70
     1
  9
$MAXACTVP
 70
    48
  9
$PINSBASE
 10
0.0
 20
0.0
 30
0.0
  9
$PLIMCHECK
 70
     0
  9
$PEXTMIN
 10
-693.5834714082414
 20
-745.7299662773225
 30
0.0
  9
$PEXTMAX
 10
1776.802995295225
 20
952.4796430743904
 30
0.0
  9
$PLIMMIN
 10
0.0
 20
0.0
  9
$PLIMMAX
 10
12.0
 20
9.0
  9
$UNITMODE
 70
     0
  9
$VISRETAIN
 70
     1
  9
$PLINEGEN
 70
     0
  9
$PSLTSCALE
 70
     1
  9
$TREEDEPTH
 70
  3020
  9
$CMLSTYLE
  2
Standard
  9
$CMLJUST
 70
     0
  9
$CMLSCALE
 40
20.0
  9
$PROXYGRAPHICS
 70
     1
  9
$MEASUREMENT
 70
     1
  9
$CELWEIGHT
370
    -1
  9
$ENDCAPS
280
     0
  9
$JOINSTYLE
280
     0
  9
$LWDISPLAY
290
     0
  9
$INSUNITS
 70
     4
  9
$HYPERLINKBASE
  1

  9
$STYLESHEET
  1

  9
$XEDIT
290
     1
  9
$CEPSNTYPE
380
     0
  9
$PSTYLEMODE
290
     1
  9
$FINGERPRINTGUID
  2
{BC6C713D-A78E-4FC3-8005-28BCACC76324}
  9
$VERSIONGUID
  2
{0C432065-ECDB-4B55-8D9B-7ACAF19772BF}
  9
$EXTNAMES
290
     1
  9
$PSVPSCALE
 40
0.0
  9
$OLESTARTUP
290
     0
  0
ENDSEC
  0
SECTION
  2
CLASSES
  0
CLASS
  1
ACDBDICTIONARYWDFLT
  2
AcDbDictionaryWithDefault
  3
ObjectDBX Classes
 90
        0
280
     0
281
     0
  0
CLASS
  1
ACDBPLACEHOLDER
  2
AcDbPlaceHolder
  3
ObjectDBX Classes
 90
        0
280
     0
281
     0
  0
CLASS
  1
LAYOUT
  2
AcDbLayout
  3
ObjectDBX Classes
 90
        0
280
     0
281
     0
  0
CLASS
  1
ACME_DOCUMENT
  2
AcMeDoc
  3
AcMeServices
 90
    32768
280
     1
281
     0
  0
CLASS
  1
ACMESTATEMGR
  2
AcMeStateMgr
  3
AcMeServices
 90
     1024
280
     0
281
     0
  0
CLASS
  1
ACMESCOPE
  2
AcMeScope
  3
AcMeServices
 90
     1024
280
     0
281
     0
  0
CLASS
  1
ACMECOMMANDHISTORY
  2
AcMeCommandHistory
  3
AcMeServices
 90
     1024
280
     0
281
     0
  0
CLASS
  1
ACRFINSADJUSTERMGR
  2
AcRfInsAdjusterMgr
  3
AcMeServices
 90
     1024
280
     0
281
     0
  0
CLASS
  1
DICTIONARYVAR
  2
AcDbDictionaryVar
  3
ObjectDBX Classes
 90
        0
280
     0
281
     0
  0
CLASS
  1
ACIMSYSVARMAN
  2
AcImSysVarManager
  3
AcMeServices
 90
     1024
280
     0
281
     0
  0
CLASS
  1
ACIMREALSYSVAR
  2
AcImRealSysVar
  3
AcMeServices
 90
     1024
280
     0
281
     0
  0
CLASS
  1
ACIMINTSYSVAR
  2
AcImIntSysVar
  3
AcMeServices
 90
     1024
280
     0
281
     0
  0
CLASS
  1
ACMEDRAWINGMAN
  2
AcMeDrawingMan
  3
AcMeServices
 90
     1024
280
     0
281
     0
  0
CLASS
  1
ACMEVIEW
  2
AcMeView
  3
AcMeServices
 90
     1024
280
     0
281
     0
  0
CLASS
  1
ACDBENTITYCACHE
  2
AcMeEntityCache
  3
AcMeServices
 90
     1024
280
     0
281
     0
  0
CLASS
  1
ACGREFMASTER
  2
AcGrefMaster
  3
AcAttribServices
 90
     1024
280
     0
281
     0
  0
CLASS
  1
AMIMASTER
  2
AmiMaster
  3
AmiServices
 90
     1024
280
     0
281
     0
  0
CLASS
  1
ACASGREFMASTER
  2
AcAsGrefMaster
  3
AutoSurfResolverServices
 90
     1024
280
     0
281
     0
  0
CLASS
  1
ADAPPL
  2
AcAdAppl
  3
DesignerServices
 90
     1024
280
     0
281
     0
  0
CLASS
  1
DEPMGR
  2
AcAdDepMgr
  3
DesignerServices
 90
     1024
280
     0
281
     0
  0
CLASS
  1
PARAMMGR
  2
AcAdParamMgr
  3
DesignerServices
 90
     1024
280
     0
281
     0
  0
CLASS
  1
PARAMSCOPE
  2
AcAdParamScope
  3
DesignerServices
 90
     1024
280
     0
281
     0
  0
CLASS
  1
ACIMSTRSYSVAR
  2
AcImStrSysVar
  3
AcMeServices
 90
     1024
280
     0
281
     0
  0
CLASS
  1
NAMEDAPPL
  2
AcAdNamedAppl
  3
DesignerServices
 90
     1024
280
     0
281
     0
  0
CLASS
  1
ADHNTMPLT
  2
AdHoleNoteTemplateMgr
  3
DesignerServices
 90
    33792
280
     0
281
     0
  0
CLASS
  1
AM_HNTEMPLATE_MGR_NAME
  2
AdHoleNoteTemplateMgrName
  3
DesignerServices
 90
    33792
280
     0
281
     0
  0
CLASS
  1
ACADGREFMODULE
  2
AcAdGrefModule
  3
AdGrefServices
 90
     1024
280
     0
281
     0
  0
CLASS
  1
AM_DRAWING_MGR
  2
AcDmDwgMgr
  3
AcMechDwgViewMgmt
 90
     1024
280
     0
281
     0
  0
CLASS
  1
AM_DWG_DOCUMENT
  2
AcDmDwgDocument
  3
AcMechDwgViewMgmt
 90
     1024
280
     0
281
     0
  0
CLASS
  1
AM_DWG_SHEET
  2
AcDmSheet
  3
AcMechDwgViewMgmt
 90
     1024
280
     0
281
     0
  0
CLASS
  1
AM_VIEWDIMPARMAP
  2
AcDmViewDimParMap
  3
AcMechDwgViewMgmt
 90
     1024
280
     0
281
     0
  0
CLASS
  1
AM_DWGMGR_NAME
  2
AcDmDwgMgrName
  3
AcMechDwgViewMgmt
 90
     1024
280
     0
281
     0
  0
CLASS
  1
ACAMPROJECT
  2
AcAmProject
  3
DesignerAssemblies
 90
     1024
280
     0
281
     0
  0
CLASS
  1
ACAMGRCOMPSET
  2
AcAmGrCompSet
  3
DesignerAssemblies
 90
    32768
280
     1
281
     0
  0
CLASS
  1
ACAMGRCOMPDEFSET
  2
AcAmGrCompDefSet
  3
DesignerAssemblies
 90
     1024
280
     0
281
     0
  0
CLASS
  1
ACAMGRCOMPDEF
  2
AcAmGrCompDef
  3
DesignerAssemblies
 90
     1024
280
     0
281
     0
  0
CLASS
  1
ACCMCONTEXT
  2
AcCmContext
  3
DesignerAssemblies
 90
     1024
280
     0
281
     0
  0
CLASS
  1
ACAMCOMPDEF
  2
AcAmCompDef
  3
DesignerAssemblies
 90
     1024
280
     0
281
     0
  0
CLASS
  1
ACAMCOMPDEFMGR
  2
AcAmCompDefMgr
  3
DesignerAssemblies
 90
     1024
280
     0
281
     0
  0
CLASS
  1
AMCONTEXTMGR
  2
AcAmContextMgr
  3
DesignerAssemblies
 90
     1024
280
     0
281
     0
  0
CLASS
  1
ACAMCONTEXTMODELER
  2
AcAmContextModeler
  3
DesignerAssemblies
 90
     1024
280
     0
281
     0
  0
CLASS
  1
ACMDATADICTIONARY
  2
AcmDataDictionary
  3
"AcmSymBB|Product Description: AutoCAD Mechanical|Company: Autodesk, Inc."
 90
     1024
280
     0
281
     0
  0
CLASS
  1
ACMDATAENTRYBLOCK
  2
AcmDataEntryBlock
  3
AcmSymBB|Product Description: AutoCAD Mechanical|Company: Autodesk, Inc.
 90
     1024
280
     0
281
     0
  0
CLASS
  1
ACDMVIEWGEOM
  2
AcDmViewGeometry
  3
AcMechDwgViewMgmt
 90
    33792
280
     0
281
     1
  0
CLASS
  1
CBROWSERAPPOBJECT
  2
CBrowserAppObject
  3
McadcomServices
 90
     1024
280
     0
281
     0
  0
CLASS
  1
IM_STATIC_MAN
  2
AcImStaticVarManager
  3
AcMeServices
 90
     1024
280
     0
281
     0
  0
CLASS
  1
ASAPP
  2
AcAsAppObject
  3
AutoSurfServices
 90
     1024
280
     0
281
     0
  0
CLASS
  1
ACIMDBLSTATICVAR
  2
AcImDblStaticVar
  3
AcMeServices
 90
     1024
280
     0
281
     0
  0
CLASS
  1
ACIMSTRSTATICVAR
  2
AcImStrStaticVar
  3
AcMeServices
 90
     1024
280
     0
281
     0
  0
CLASS
  1
ACIMINTSTATICVAR
  2
AcImIntStaticVar
  3
AcMeServices
 90
     1024
280
     0
281
     0
  0
CLASS
  1
CATALOGSTATE
  2
AcAmCatalogState
  3
DesignerAssemblies
 90
     1024
280
     0
281
     0
  0
CLASS
  1
DM_PLACEHOLDER
  2
AcDmSelsetPlaceholder
  3
AcMechDwgViewMgmt
 90
     1024
280
     0
281
     0
  0
CLASS
  1
LAYER_INDEX
  2
AcDbLayerIndex
  3
ObjectDBX Classes
 90
        0
280
     0
281
     0
  0
CLASS
  1
IDBUFFER
  2
AcDbIdBuffer
  3
ObjectDBX Classes
 90
        0
280
     0
281
     0
  0
CLASS
  1
ACAMEXTERNALCOMPDEF
  2
AcAmExternalCompDef
  3
DesignerAssemblies
 90
    33792
280
     0
281
     0
  0
CLASS
  1
ACCMBODY
  2
AcCmBody
  3
DesignerAssemblies
 90
    33792
280
     0
281
     0
  0
CLASS
  1
ACAMGRCOMP
  2
AcAmGrComp
  3
DesignerAssemblies
 90
    33792
280
     0
281
     0
  0
CLASS
  1
ACAMCOMPFEEDBACK
  2
AcAmCompFeedback
  3
DesignerAssemblies
 90
    33792
280
     0
281
     0
  0
CLASS
  1
ACAMCOMP
  2
AcAmComp
  3
DesignerAssemblies
 90
    33792
280
     0
281
     0
  0
CLASS
  1
ACAMGRCOMPCLONE
  2
AcAmGrCompClone
  3
DesignerAssemblies
 90
    33792
280
     0
281
     0
  0
CLASS
  1
ACAMCLONEREACTOR
  2
AcAmGrCompCloneReactor
  3
DesignerAssemblies
 90
    33792
280
     0
281
     0
  0
CLASS
  1
AGDICTIONARY
  2
AgDictionary
  3
AccelView
 90
    33793
280
     0
281
     0
  0
CLASS
  1
EDGEID
  2
AcAdEdgeId
  3
DesignerServices
 90
    33792
280
     0
281
     0
  0
CLASS
  1
ACADPARTLINEDGRES
  2
AcAdPartLinEdgRes
  3
AdGrefServices
 90
    33792
280
     0
281
     0
  0
CLASS
  1
ACRFINSADJ
  2
AcRfInsAdjuster
  3
AcMeServices
 90
    33792
280
     0
281
     0
  0
CLASS
  1
STREFID
  2
AcAdStraightRefId
  3
DesignerServices
 90
    33792
280
     0
281
     0
  0
CLASS
  1
ACMEAXIS
  2
AcImAxisDisplay
  3
AcMeServices
 90
    33792
280
     0
281
     1
  0
CLASS
  1
FACEID
  2
AcAdFaceId
  3
DesignerServices
 90
    33792
280
     0
281
     0
  0
CLASS
  1
DEPEDGESECONDARYDEPID
  2
AcAdDepEdgeSecondaryDepId
  3
DesignerServices
 90
    33792
280
     0
281
     0
  0
CLASS
  1
ACADPARTPLANARFACERES
  2
AcAdPartPlanarFaceRes
  3
AdGrefServices
 90
    33792
280
     0
281
     0
  0
CLASS
  1
ACMEPOINT
  2
AcImPointDisplay
  3
AcMeServices
 90
    33792
280
     0
281
     1
  0
CLASS
  1
ACMELINEARARROW
  2
AcImLinearArrowDisplay
  3
AcMeServices
 90
    33792
280
     0
281
     1
  0
CLASS
  1
ACAMEXPR
  2
AcAmExpr
  3
DesignerAssemblies
 90
    33792
280
     0
281
     0
  0
CLASS
  1
ACCMDISTPLPL
  2
AcCmDistPlPl
  3
DesignerAssemblies
 90
    33792
280
     0
281
     0
  0
CLASS
  1
ACCMCONSTREACTOR
  2
AcCmConstraintReactor
  3
DesignerAssemblies
 90
    33792
280
     0
281
     0
  0
CLASS
  1
ACAMVIEWENTITYFILTER
  2
AcAmViewEntityFilter
  3
DesignerAssemblies
 90
    33792
280
     0
281
     0
  0
CLASS
  1
ACAMGRBLOCKRECORD
  2
AcAmGrBlockRecord
  3
DesignerAssemblies
 90
    33792
280
     0
281
     0
  0
CLASS
  1
ACAMVIEWREACTOR
  2
AcAmViewReactor
  3
DesignerAssemblies
 90
    33792
280
     0
281
     0
  0
CLASS
  1
AMVIEW
  2
AcAmView
  3
DesignerAssemblies
 90
    33792
280
     0
281
     0
  0
CLASS
  1
ACAMVIEWCONTEXT
  2
AcAmViewContext
  3
DesignerAssemblies
 90
    33792
280
     0
281
     0
  0
CLASS
  1
ACAMCOMPVIEWREACTOR
  2
AcAmGrCompViewReactor
  3
DesignerAssemblies
 90
    33792
280
     0
281
     0
  0
CLASS
  1
ACAMGRCOMPVIEW
  2
AcAmGrCompView
  3
DesignerAssemblies
 90
    33792
280
     0
281
     0
  0
CLASS
  1
SURFACEID
  2
AcAdSurfaceId
  3
DesignerServices
 90
    33792
280
     0
281
     0
  0
CLASS
  1
AM_GREF_PLANE
  2
AcDmGrefPlnDef
  3
AcMechDwgViewMgmt
 90
    33792
280
     0
281
     0
  0
CLASS
  1
AM_GREF_AXIS
  2
AcDmGrefAxisDef
  3
AcMechDwgViewMgmt
 90
    33792
280
     0
281
     0
  0
CLASS
  1
AM_BASE_VIEW_ORIENT
  2
AcDmBaseViewOr
  3
AcMechDwgViewMgmt
 90
    33792
280
     0
281
     0
  0
CLASS
  1
AM_DWG_VIEWPORT
  2
AcDmViewport
  3
AcMechDwgViewMgmt
 90
    33792
280
     0
281
     0
  0
CLASS
  1
AM_VIEW_DISPLAY
  2
AcDmDwgViewDisplay
  3
AcMechDwgViewMgmt
 90
    33792
280
     0
281
     0
  0
CLASS
  1
AM_BASE_VIEW
  2
AcDmBaseView
  3
AcMechDwgViewMgmt
 90
    33792
280
     0
281
     0
  0
CLASS
  1
ACDMVWEDLINE
  2
AcDmViewEdgeLine
  3
AcMechDwgViewMgmt
 90
    33792
280
     0
281
     1
  0
CLASS
  1
ACDMVWEDARC
  2
AcDmViewEdgeArc
  3
AcMechDwgViewMgmt
 90
    33792
280
     0
281
     1
  0
CLASS
  1
ACDMVWEDCIRC
  2
AcDmViewEdgeCircle
  3
AcMechDwgViewMgmt
 90
    33792
280
     0
281
     1
  0
CLASS
  1
AM_ORTHO_VIEW_ORIENT
  2
AcDmOrthoViewOr
  3
AcMechDwgViewMgmt
 90
    33792
280
     0
281
     0
  0
CLASS
  1
AM_ORTHO_VIEW
  2
AcDmOrthoView
  3
AcMechDwgViewMgmt
 90
    33792
280
     0
281
     0
  0
CLASS
  1
CNRREFID
  2
AcAdCornerId
  3
DesignerServices
 90
    33792
280
     0
281
     0
  0
CLASS
  1
ACADPARTPOINTRES
  2
AcAdPartPointRes
  3
AdGrefServices
 90
    33792
280
     0
281
     0
  0
CLASS
  1
AM_VIEWDIMLINEAR
  2
AcDmViewDimLinear
  3
AcMechDwgViewMgmt
 90
    33792
280
     0
281
     0
  0
CLASS
  1
ACADPARTCIRCEDGRES
  2
AcAdPartCircEdgRes
  3
AdGrefServices
 90
    33792
280
     0
281
     0
  0
CLASS
  1
CIRREFID
  2
AcAdCircleRefId
  3
DesignerServices
 90
    33792
280
     0
281
     0
  0
CLASS
  1
ACADPARTCYLINDERFACERES
  2
AcAdPartCylinderFaceRes
  3
AdGrefServices
 90
    33792
280
     0
281
     0
  0
CLASS
  1
ACCMDISTLNLN
  2
AcCmDistLnLn
  3
DesignerAssemblies
 90
    33792
280
     0
281
     0
  0
CLASS
  1
ACMECIRCARC
  2
AcImCircArcDisplay
  3
AcMeServices
 90
    33792
280
     0
281
     1
  0
CLASS
  1
ACCMDISTPTLN
  2
AcCmDistPtLn
  3
DesignerAssemblies
 90
    33792
280
     0
281
     0
  0
CLASS
  1
ACRFATTGENMGR
  2
AcRfAttGeneralMgr
  3
AcAttribServices
 90
     1024
280
     0
281
     0
  0
CLASS
  1
FEEDBACK
  2
AcAmFeedback
  3
DesignerAssemblies
 90
    33792
280
     0
281
     1
  0
CLASS
  1
ACAMTRIAXISSYMBOL
  2
AcAmTriAxisSymbol
  3
DesignerAssemblies
 90
    33792
280
     0
281
     0
  0
CLASS
  1
ACAMROTAXISSYMBOL
  2
AcAmRotAxisSymbol
  3
DesignerAssemblies
 90
    33792
280
     0
281
     0
  0
CLASS
  1
ACAMTEXTCIRCLESYMBOL
  2
AcAmTextCircleSymbol
  3
DesignerAssemblies
 90
    33792
280
     0
281
     0
  0
CLASS
  1
ACCMTANCLCL
  2
AcCmTanClCl
  3
AcCmServices
 90
    33792
280
     0
281
     0
  0
CLASS
  1
ACCMANGVECVEC
  2
AcCmAngVecVec
  3
DesignerAssemblies
 90
    33792
280
     0
281
     0
  0
CLASS
  1
ACMEROTATIONARROW
  2
AcImRotationArrowDisplay
  3
AcMeServices
 90
    33792
280
     0
281
     1
  0
CLASS
  1
ACDMVWEDSPLINE
  2
AcDmViewEdgeSpline
  3
AcMechDwgViewMgmt
 90
    33792
280
     0
281
     1
  0
CLASS
  1
SILEDGEID
  2
AcAdSilhouetteEdgeId
  3
DesignerServices
 90
    33792
280
     0
281
     0
  0
CLASS
  1
ACAMVECTORSYMBOL
  2
AcAmVectorSymbol
  3
DesignerAssemblies
 90
    33792
280
     0
281
     0
  0
CLASS
  1
ACCMTANCLPL
  2
AcCmTanClPl
  3
AcCmServices
 90
    33792
280
     0
281
     0
  0
CLASS
  1
AM_VIEW_SELECT_FILTER
  2
AcDmSelectViewEntFilter
  3
AcMechDwgViewMgmt
 90
    33792
280
     0
281
     0
  0
CLASS
  1
ACME_DATABASE
  2
AcMeDbDatabase
  3
AcMeServices
 90
     1024
280
     0
281
     0
  0
CLASS
  1
ACME_DOCUMENT
  2
AcMeDbDoc
  3
AcMeServices
 90
     1024
280
     0
281
     0
  0
CLASS
  1
AMGSETTINGSOBJ
  2
AmgSettingsObj
  3
"AcadM|Product Description: AutoCAD Mechanical|Company: Autodesk, Inc."
 90
     1024
280
     0
281
     0
  0
CLASS
  1
GSMANAGER
  2
AcMeGSManager
  3
AcMeServices
 90
     1024
280
     0
281
     0
  0
CLASS
  1
AMDTINTERNALREACTOR
  2
AmdtInternalReactor
  3
AcMeServices
 90
     1024
280
     0
281
     0
  0
CLASS
  1
ACGREFACADMASTER
  2
AcGrefacadMaster
  3
AcGrefServices
 90
     1024
280
     0
281
     0
  0
CLASS
  1
AMDTMENUSTATEMGR
  2
AmdtMenuStateMgr
  3
McadcomServices
 90
     1024
280
     0
281
     0
  0
CLASS
  1
AMDTMCOMMENUSTATE
  2
AmdtMcomMenuState
  3
McadcomServices
 90
     1024
280
     0
281
     0
  0
CLASS
  1
MAPIAMMOUDLE
  2
MApiAmModule
  3
MApiAmServices
 90
     1024
280
     0
281
     0
  0
CLASS
  1
AMDTDMMENUSTATE
  2
AmdtDmMenuState
  3
AcMechDwgViewMgmt
 90
     1024
280
     0
281
     0
  0
CLASS
  1
AMDTADMENUSTATE
  2
AmdtAdMenuState
  3
DesignerServices
 90
     1024
280
     0
281
     0
  0
CLASS
  1
AMDTAMMENUSTATE
  2
AmdtAmMenuState
  3
DesignerAssemblies
 90
     1024
280
     0
281
     0
  0
CLASS
  1
MAPIADMODULE
  2
MApiAdModule
  3
MApiAdServices
 90
     1024
280
     0
281
     0
  0
CLASS
  1
ACAMCOMPENT
  2
AcAmCompEnt
  3
DesignerAssemblies
 90
    33792
280
     0
281
     1
  0
CLASS
  1
ACAMCOMPENTCLONE
  2
AcAmCompEntClone
  3
DesignerAssemblies
 90
    33792
280
     0
281
     1
  0
CLASS
  1
ACAMCOMPENTVIEW
  2
AcAmCompEntView
  3
DesignerAssemblies
 90
    33792
280
     0
281
     1
  0
CLASS
  1
AM_CLDFLTS
  2
AcDmClDflts
  3
AcMechDwgViewMgmt
 90
    33792
280
     0
281
     0
  0
CLASS
  1
AMDTBROWSERDBTAB
  2
AmdtBrowserDbTab
  3
McadcomServices
 90
     1024
280
     0
281
     0
  0
CLASS
  1
AMGOBJPROPCFG
  2
AmgObjPropCfg
  3
"AmgLay|Product Description: AutoCAD Mechanical|Company: Autodesk, Inc."
 90
     1025
280
     0
281
     0
  0
CLASS
  1
ACDMVWEDELLIPSE
  2
AcDmViewEdgeEllipse
  3
AcMechDwgViewMgmt
 90
    33792
280
     0
281
     1
  0
CLASS
  1
ACAMGFILTERDAT
  2
AcAmgFilterDat
  3
"AcadM|Product Description: AutoCAD Mechanical|Company: Autodesk, Inc."
 90
     1024
280
     0
281
     0
  0
CLASS
  1
AMDTMAPISURFMOUDULE
  2
AmdtMApiSurfModule
  3
MApiSurfServices
 90
     1024
280
     0
281
     0
  0
CLASS
  1
ACDMPARTVIEWDATA
  2
AcDmPartViewData
  3
AcMechDwgViewMgmt
 90
    33792
280
     0
281
     0
  0
CLASS
  1
ACDMDISPLAYATTRIBS
  2
AcDmDisplayAttribs
  3
AcMechDwgViewMgmt
 90
    33792
280
     0
281
     0
  0
CLASS
  1
ACDMBODYINSTANCEDATA
  2
AcDmBodyInstanceData
  3
AcMechDwgViewMgmt
 90
    33792
280
     0
281
     0
  0
CLASS
  1
ACMSTANDARDISO
  2
AcmStandardISO
  3
"Amdt_StdImp|Product Description: AutoCAD Mechanical|Company: Autodesk, Inc."
 90
     1024
280
     0
281
     0
  0
CLASS
  1
AMDTEDGESTANDARDISO
  2
AmdtEdgeStdISO
  3
"Amdt_StdImp|Product Description: AutoCAD Mechanical|Company: Autodesk, Inc."
 90
    33792
280
     0
281
     0
  0
CLASS
  1
ACMSURFSTANDARDISO
  2
AcmSurfTextStdISO
  3
"Amdt_StdImp|Product Description: AutoCAD Mechanical|Company: Autodesk, Inc."
 90
    33792
280
     0
281
     0
  0
CLASS
  1
ACMFCFSTANDARDISO
  2
AcmFCFStdISO
  3
"Amdt_StdImp|Product Description: AutoCAD Mechanical|Company: Autodesk, Inc."
 90
     1024
280
     0
281
     0
  0
CLASS
  1
ACMWELDSTANDARDISO
  2
AcmWeldingStdISO
  3
"Amdt_StdImp|Product Description: AutoCAD Mechanical|Company: Autodesk, Inc."
 90
     1024
280
     0
281
     0
  0
CLASS
  1
ACMIDSTANDARDISO
  2
AcmIdStdISO
  3
"Amdt_StdImp|Product Description: AutoCAD Mechanical|Company: Autodesk, Inc."
 90
     1024
280
     0
281
     0
  0
CLASS
  1
ACMDATUMSTANDARDISO
  2
AcmDatumStdISO
  3
"Amdt_StdImp|Product Description: AutoCAD Mechanical|Company: Autodesk, Inc."
 90
     1024
280
     0
281
     0
  0
CLASS
  1
ACMBOMSTANDARDISO
  2
AcmBOMStdISO
  3
"Amdt_StdImp|Product Description: AutoCAD Mechanical|Company: Autodesk, Inc."
 90
     1024
280
     0
281
     0
  0
CLASS
  1
ACMDETAILSTANDARDISO
  2
AmdtDetailSymStdISO
  3
"Amdt_StdImp|Product Description: AutoCAD Mechanical|Company: Autodesk, Inc."
 90
     1024
280
     0
281
     0
  0
CLASS
  1
ACMSECTIONSTANDARDISO
  2
AmdtSectionSymStdISO
  3
"Amdt_StdImp|Product Description: AutoCAD Mechanical|Company: Autodesk, Inc."
 90
    33792
280
     0
281
     0
  0
CLASS
  1
ACMCENTERLINESTANDARDISO
  2
AmdtCenterLineStdISO
  3
"Amdt_StdImp|Product Description: AutoCAD Mechanical|Company: Autodesk, Inc."
 90
     1024
280
     0
281
     0
  0
CLASS
  1
ACMTHREADLINESTANDARDISO
  2
AmdtThreadLineStdISO
  3
"Amdt_StdImp|Product Description: AutoCAD Mechanical|Company: Autodesk, Inc."
 90
     1024
280
     0
281
     0
  0
CLASS
  1
ACAMGLAYSTD
  2
AcAmgLayStd
  3
"AmgLay|Product Description: AutoCAD Mechanical|Company: Autodesk, Inc."
 90
     1024
280
     0
281
     0
  0
CLASS
  1
ACAMGDIMSTD
  2
AcAmgDimStd
  3
"AmgDim|Product Description: AutoCAD Mechanical|Company: Autodesk, Inc."
 90
     1024
280
     0
281
     0
  0
CLASS
  1
ACAMGTITLESTD
  2
AcAmgTitleStd
  3
"AmgTitle|Product Description: AutoCAD Mechanical|Company: Autodesk, Inc."
 90
     4095
280
     0
281
     0
  0
CLASS
  1
AMDTFORMULAUPDATEDISPATCHER
  2
AmdtFormulaUpdateDispatcher
  3
AcMeServices
 90
    33792
280
     0
281
     0
  0
CLASS
  1
PARAM
  2
AcAdParam
  3
DesignerServices
 90
    33792
280
     0
281
     0
  0
CLASS
  1
ACMEPLINE
  2
AcImPlineDisplay
  3
AcMeServices
 90
    33792
280
     0
281
     1
  0
CLASS
  1
ACCMDISTLNPL
  2
AcCmDistLnPl
  3
AcCmServices
 90
    33792
280
     0
281
     0
  0
CLASS
  1
ACCMDISTPTPL
  2
AcCmDistPtPl
  3
DesignerAssemblies
 90
    33792
280
     0
281
     0
  0
CLASS
  1
ACMNOTESTANDARDISO
  2
AmdtNoteStdISO
  3
"Amdt_StdImp|Product Description: AutoCAD Mechanical|Company: Autodesk, Inc."
 90
     1024
280
     0
281
     0
  0
CLASS
  1
AMDTNOTETEMPLATEDB
  2
AmdtNoteTemplateDB
  3
AcmSymBB|Product Description: AutoCAD Mechanical|Company: Autodesk, Inc.
 90
     1024
280
     0
281
     0
  0
CLASS
  1
TABLESTYLE
  2
AcDbTableStyle
  3
ObjectDBX Classes
 90
     4095
280
     0
281
     0
  0
CLASS
  1
AM_ABS_AXIS
  2
AcDmAbsAxisDef
  3
AcMechDwgViewMgmt
 90
    33792
280
     0
281
     0
  0
CLASS
  1
AM_ABS_PLANE
  2
AcDmAbsPlnDef
  3
AcMechDwgViewMgmt
 90
    33792
280
     0
281
     0
  0
CLASS
  1
AM_VIEW_GROUP_FILTER
  2
AcDmGroupViewEntFilter
  3
AcMechDwgViewMgmt
 90
    33792
280
     0
281
     0
  0
CLASS
  1
ACMSTANDARDJIS
  2
AcmStandardJIS
  3
"Amdt_StdImp|Product Description: AutoCAD Mechanical|Company: Autodesk, Inc."
 90
    33792
280
     0
281
     0
  0
CLASS
  1
ACMSURFSTANDARDJIS
  2
AcmSurfTextStdJIS
  3
"Amdt_StdImp|Product Description: AutoCAD Mechanical|Company: Autodesk, Inc."
 90
    33792
280
     0
281
     0
  0
CLASS
  1
ACMFCFSTANDARDJIS
  2
AcmFCFStdJIS
  3
"Amdt_StdImp|Product Description: AutoCAD Mechanical|Company: Autodesk, Inc."
 90
    33792
280
     0
281
     0
  0
CLASS
  1
ACMWELDSTANDARDJIS
  2
AcmWeldingStdJIS
  3
"Amdt_StdImp|Product Description: AutoCAD Mechanical|Company: Autodesk, Inc."
 90
    33792
280
     0
281
     0
  0
CLASS
  1
ACMIDSTANDARDJIS
  2
AcmIdStdJIS
  3
"Amdt_StdImp|Product Description: AutoCAD Mechanical|Company: Autodesk, Inc."
 90
    33792
280
     0
281
     0
  0
CLASS
  1
ACMDATUMSTANDARDJIS
  2
AcmDatumStdJIS
  3
"Amdt_StdImp|Product Description: AutoCAD Mechanical|Company: Autodesk, Inc."
 90
    33792
280
     0
281
     0
  0
CLASS
  1
ACMBOMSTANDARDJIS
  2
AcmBOMStdJIS
  3
"Amdt_StdImp|Product Description: AutoCAD Mechanical|Company: Autodesk, Inc."
 90
    33792
280
     0
281
     0
  0
CLASS
  1
ACMDETAILSTANDARDJIS
  2
AmdtDetailSymStdJIS
  3
"Amdt_StdImp|Product Description: AutoCAD Mechanical|Company: Autodesk, Inc."
 90
    33792
280
     0
281
     0
  0
CLASS
  1
ACMSECTIONSTANDARDJIS
  2
AmdtSectionSymStdJIS
  3
"Amdt_StdImp|Product Description: AutoCAD Mechanical|Company: Autodesk, Inc."
 90
    33792
280
     0
281
     0
  0
CLASS
  1
ACMCENTERLINESTANDARDJIS
  2
AmdtCenterLineStdJIS
  3
"Amdt_StdImp|Product Description: AutoCAD Mechanical|Company: Autodesk, Inc."
 90
    33792
280
     0
281
     0
  0
CLASS
  1
ACMTHREADLINESTANDARDJIS
  2
AmdtThreadLineStdJIS
  3
"Amdt_StdImp|Product Description: AutoCAD Mechanical|Company: Autodesk, Inc."
 90
    33792
280
     0
281
     0
  0
CLASS
  1
ACMNOTESTANDARDJIS
  2
AmdtNoteStdJIS
  3
"Amdt_StdImp|Product Description: AutoCAD Mechanical|Company: Autodesk, Inc."
 90
    33792
280
     0
281
     0
  0
CLASS
  1
MATERIAL
  2
AcDbMaterial
  3
ObjectDBX Classes
 90
     1153
280
     0
281
     0
  0
CLASS
  1
VISUALSTYLE
  2
AcDbVisualStyle
  3
ObjectDBX Classes
 90
     4095
280
     0
281
     0
  0
CLASS
  1
SCALE
  2
AcDbScale
  3
ObjectDBX Classes
 90
     1153
280
     0
281
     0
  0
CLASS
  1
MLEADERSTYLE
  2
AcDbMLeaderStyle
  3
ACDB_MLEADERSTYLE_CLASS
 90
     4095
280
     0
281
     0
  0
CLASS
  1
EXACTERMXREFMAP
  2
ExAcTermXrefMap
  3
EXAC_SERVICE
 90
    33793
280
     0
281
     0
  0
CLASS
  1
NPOCOLLECTION
  2
AcDbImpNonPersistentObjectsCollection
  3
ObjectDBX Classes
 90
     1153
280
     0
281
     0
  0
CLASS
  1
ACMTAPERSTANDARDISO
  2
AcmTaperStdISO
  3
"Amdt_StdImp|Product Description: AutoCAD Mechanical|Company: Autodesk, Inc."
 90
     1024
280
     0
281
     0
  0
CLASS
  1
ACMANOOTATIONVIEWSTANDARDISO
  2
AmdtAnViewStdISO
  3
"Amdt_StdImp|Product Description: AutoCAD Mechanical|Company: Autodesk, Inc."
 90
     1024
280
     0
281
     0
  0
CLASS
  1
ACMTAPERSTANDARDJIS
  2
AcmTaperStdJIS
  3
"Amdt_StdImp|Product Description: AutoCAD Mechanical|Company: Autodesk, Inc."
 90
    33792
280
     0
281
     0
  0
CLASS
  1
ACMANOOTATIONVIEWSTANDARDJIS
  2
AmdtAnViewStdJIS
  3
"Amdt_StdImp|Product Description: AutoCAD Mechanical|Company: Autodesk, Inc."
 90
    33792
280
     0
281
     0
  0
CLASS
  1
SOLID_BACKGROUND
  2
AcDbSolidBackground
  3
SCENEOE
 90
     4095
280
     0
281
     0
  0
CLASS
  1
ACAMXREFCONTEXTMODELER
  2
AcAmXrefContextModeler
  3
DesignerAssemblies
 90
    33792
280
     0
281
     0
  0
CLASS
  1
AM_ADCIRCTRLINE
  2
AcAdBullsEyeCl
  3
DesignerServices
 90
    33792
280
     0
281
     0
  0
CLASS
  1
AM_ADLINCTRLINE
  2
AcAdLineCl
  3
DesignerServices
 90
    33792
280
     0
281
     0
  0
CLASS
  1
CELLSTYLEMAP
  2
AcDbCellStyleMap
  3
ObjectDBX Classes
 90
     1152
280
     0
281
     0
  0
CLASS
  1
MULTILEADER
  2
AcDbMLeader
  3
ACDB_MLEADER_CLASS
 90
     1025
280
     0
281
     1
  0
CLASS
  1
ACRFOBJATTMGR
  2
AcRfObjAttGroupMgr
  3
AcAttribServices
 90
     1024
280
     0
281
     0
  0
CLASS
  1
ACRFMCADAPIATTHOLDER
  2
AcRfMCADAPIAttHolder
  3
AcAttribServices
 90
     1024
280
     0
281
     0
  0
CLASS
  1
AMDTSYSATTR
  2
AmdtSystemAttribute
  3
AcAttribServices
 90
     1024
280
     0
281
     0
  0
CLASS
  1
AMDTEDGESTANDARDISO13715
  2
AmdtEdgeStdISO13715
  3
"Amdt_StdImp|Product Description: AutoCAD Mechanical|Company: Autodesk, Inc."
 90
     1024
280
     0
281
     0
  0
CLASS
  1
ACMSURFSTANDARDISO2002
  2
AcmSurfTextStdISO2002
  3
"Amdt_StdImp|Product Description: AutoCAD Mechanical|Company: Autodesk, Inc."
 90
     1024
280
     0
281
     0
  0
CLASS
  1
ACMSECTIONSTANDARDISO2001
  2
AmdtSectionSymStdISO2001
  3
"Amdt_StdImp|Product Description: AutoCAD Mechanical|Company: Autodesk, Inc."
 90
     1024
280
     0
281
     0
  0
CLASS
  1
ACAMGHOLECHARTSTDISO
  2
AcAmgHoleChartStdISO
  3
AmgDim|Product Description: AutoCAD Mechanical|Company: Autodesk, Inc.
 90
     1024
280
     0
281
     0
  0
CLASS
  1
SORTENTSTABLE
  2
AcDbSortentsTable
  3
ObjectDBX Classes
 90
        0
280
     0
281
     0
  0
ENDSEC
  0
SECTION
  2
TABLES
  0
TABLE
  2
VPORT
  5
2B
330
0
100
AcDbSymbolTable
 70
     1
  0
VPORT
  5
B55
330
2B
100
AcDbSymbolTableRecord
100
AcDbViewportTableRecord
  2
*Active
 70
     0
 10
0.0
 20
0.0
 11
1.0
 21
1.0
 12
311.9772082395935
 22
-118.3936776079576
 13
0.0
 23
0.0
 14
10.0
 24
10.0
 15
10.0
 25
10.0
 16
0.0
 26
0.0
 36
255.0488725293702
 17
-349.1465898499815
 27
44.78902879568527
 37
0.0
 40
556.2430766569256
 41
1.26372443487621
 42
50.0
 43
0.0
 44
0.0
 50
0.0
 51
0.0
 71
     0
 72
   100
 73
     1
 74
     0
 75
     0
 76
     0
 77
     0
 78
     0
281
     4
 65
     0
110
0.0
120
0.0
130
0.0
111
1.0
121
0.0
131
0.0
112
0.0
122
1.0
132
0.0
 79
     0
146
0.0
  0
ENDTAB
  0
TABLE
  2
LTYPE
  5
26
330
0
100
AcDbSymbolTable
 70
    19
  0
LTYPE
  5
27
330
26
100
AcDbSymbolTableRecord
100
AcDbLinetypeTableRecord
  2
ByBlock
 70
     0
  3

 72
    65
 73
     0
 40
0.0
  0
LTYPE
  5
28
330
26
100
AcDbSymbolTableRecord
100
AcDbLinetypeTableRecord
  2
ByLayer
 70
     0
  3

 72
    65
 73
     0
 40
0.0
  0
LTYPE
  5
15
330
26
100
AcDbSymbolTableRecord
100
AcDbLinetypeTableRecord
  2
Continuous
 70
     0
  3
Solid line
 72
    65
 73
     0
 40
0.0
  0
LTYPE
  5
18D
330
26
100
AcDbSymbolTableRecord
100
AcDbLinetypeTableRecord
  2
HIDDEN
 70
     0
  3
Hidden __ __ __ __ __ __ __ __ __ __ __ __ __ _
 72
    65
 73
     2
 40
9.524999999999996
 49
6.349999999999997
 74
     0
 49
-3.174999999999998
 74
     0
  0
LTYPE
  5
80
330
26
100
AcDbSymbolTableRecord
100
AcDbLinetypeTableRecord
  2
AM_ISO08W050
 70
     0
  3
____ . ____ . ____ . ____ . ____ . ____ . ____
 72
    65
 73
     4
 40
18.0
 49
12.0
 74
     0
 49
-1.5
 74
     0
 49
3.0
 74
     0
 49
-1.5
 74
     0
  0
LTYPE
  5
B73
330
26
100
AcDbSymbolTableRecord
100
AcDbLinetypeTableRecord
  2
DASHDOT
 70
     0
  3
____ _ ____ _ ____ _ ____ _ ____ _ ____ _ ____
 72
    65
 73
     4
 40
5.5
 49
4.0
 74
     0
 49
-0.6
 74
     0
 49
0.3
 74
     0
 49
-0.6
 74
     0
  0
LTYPE
  5
23BF
330
26
100
AcDbSymbolTableRecord
100
AcDbLinetypeTableRecord
  2
PHANTOM2
 70
     0
  3
Phantom (.5x) ___ _ _ ___ _ _ ___ _ _ ___ _ _
 72
    65
 73
     6
 40
31.75
 49
15.875
 74
     0
 49
-3.174999999999998
 74
     0
 49
3.174999999999998
 74
     0
 49
-3.174999999999998
 74
     0
 49
3.174999999999998
 74
     0
 49
-3.174999999999998
 74
     0
  0
LTYPE
  5
23C0
330
26
100
AcDbSymbolTableRecord
100
AcDbLinetypeTableRecord
  2
CENTER
 70
     0
  3
Center ____ _ ____ _ ____ _ ____ _ ____ _ ____
 72
    65
 73
     4
 40
50.8
 49
31.75
 74
     0
 49
-6.349999999999997
 74
     0
 49
6.349999999999997
 74
     0
 49
-6.349999999999997
 74
     0
  0
LTYPE
  5
240E
330
26
100
AcDbSymbolTableRecord
100
AcDbLinetypeTableRecord
  2
ASULTYPE
 70
     0
  3
実線
 72
    65
 73
     2
 40
3.0
 49
2.5
 74
     0
 49
0.5
 74
     0
  0
LTYPE
  5
240F
330
26
100
AcDbSymbolTableRecord
100
AcDbLinetypeTableRecord
  2
ASVLTYPE
 70
     0
  3
__ __ __ __ __ __ __ __ __ __ __ __ __ __ __ __ __ __ __ __ __
 72
    65
 73
     2
 40
0.75
 49
0.5
 74
     0
 49
-0.25
 74
     0
  0
LTYPE
  5
246B
330
26
100
AcDbSymbolTableRecord
100
AcDbLinetypeTableRecord
  2
AM_ISO02W050
 70
     0
  3
__ __ __ __ __ __ __ __ __ __ __ __ __ __ __
 72
    65
 73
     2
 40
7.5
 49
6.0
 74
     0
 49
-1.5
 74
     0
  0
LTYPE
  5
246C
330
26
100
AcDbSymbolTableRecord
100
AcDbLinetypeTableRecord
  2
AM_ISO09W050
 70
     0
  3
_____ . . _____ . . _____ . . ____ .. ____
 72
    65
 73
     6
 40
22.5
 49
12.0
 74
     0
 49
-1.5
 74
     0
 49
3.0
 74
     0
 49
-1.5
 74
     0
 49
3.0
 74
     0
 49
-1.5
 74
     0
  0
LTYPE
  5
246D
330
26
100
AcDbSymbolTableRecord
100
AcDbLinetypeTableRecord
  2
Amconstr
 70
     0
  3
_______________________
 72
    65
 73
     2
 40
9999.0
 49
9999.0
 74
     0
 49
0.0
 74
     0
  0
LTYPE
  5
246E
330
26
100
AcDbSymbolTableRecord
100
AcDbLinetypeTableRecord
  2
AM_ISO08W050x2
 70
     0
  3
__ . __ . __ . __ . __ . __
 72
    65
 73
     4
 40
9.0
 49
6.0
 74
     0
 49
-0.75
 74
     0
 49
1.5
 74
     0
 49
-0.75
 74
     0
  0
LTYPE
  5
246F
330
26
100
AcDbSymbolTableRecord
100
AcDbLinetypeTableRecord
  2
AM_ISO02W050x2
 70
     0
  3
 _ _ _ _ _ _ _ _ _ _ _ _
 72
    65
 73
     2
 40
3.75
 49
3.0
 74
     0
 49
-0.75
 74
     0
  0
LTYPE
  5
2472
330
26
100
AcDbSymbolTableRecord
100
AcDbLinetypeTableRecord
  2
Amzigzag
 70
     0
  3
/\/-/\/-/\/-/\/-/\/-/\/
 72
    65
 73
     2
 40
11.0001
 49
0.0001
 74
     4
 75
   136
340
2471
 46
0.04
 50
0.0
 44
0.0
 45
0.0
 49
-11.0
 74
     0
  0
LTYPE
  5
2481
330
26
100
AcDbSymbolTableRecord
100
AcDbLinetypeTableRecord
  2
ACISOWELD
 70
     0
  3
_ _ _ _ _
 72
    65
 73
     2
 40
2.0
 49
2.0
 74
     0
 49
-1.0
 74
     0
  0
LTYPE
  5
2482
330
26
100
AcDbSymbolTableRecord
100
AcDbLinetypeTableRecord
  2
ACISOTGB
 70
     0
  3
__ . . __ . .
 72
    65
 73
     6
 40
9.0
 49
4.0
 74
     0
 49
-1.0
 74
     0
 49
1.0
 74
     0
 49
-1.0
 74
     0
 49
1.0
 74
     0
 49
-1.0
 74
     0
  0
LTYPE
  5
2483
330
26
100
AcDbSymbolTableRecord
100
AcDbLinetypeTableRecord
  2
ACISOTGL
 70
     0
  3
_ _ _ _ _
 72
    65
 73
     2
 40
3.0
 49
2.0
 74
     0
 49
-1.0
 74
     0
  0
LTYPE
  5
29DA
330
26
100
AcDbSymbolTableRecord
100
AcDbLinetypeTableRecord
  2
DASHED2
 70
     0
  3
Dashed (.5x) _ _ _ _ _ _ _ _ _ _ _ _ _ _ _ _ _
 72
    65
 73
     2
 40
9.524999999999996
 49
6.349999999999997
 74
     0
 49
-3.174999999999998
 74
     0
  0
ENDTAB
  0
TABLE
  2
LAYER
  5
20
102
{ACAD_XDICTIONARY
360
21
102
}
330
0
100
AcDbSymbolTable
 70
    10
  0
LAYER
  5
6
102
{ACAD_XDICTIONARY
360
7
102
}
330
20
100
AcDbSymbolTableRecord
100
AcDbLayerTableRecord
  2
0
 70
     0
 62
     7
  6
Continuous
370
    -3
390
9
  0
LAYER
  5
564
330
20
100
AcDbSymbolTableRecord
100
AcDbLayerTableRecord
  2
Defpoints
 70
     0
 62
     7
  6
Continuous
290
     0
370
    -3
390
9
  0
LAYER
  5
B74
330
20
100
AcDbSymbolTableRecord
100
AcDbLayerTableRecord
  2
SIZE
 70
     0
 62
    30
  6
Continuous
370
    -3
390
9
  0
LAYER
  5
B75
330
20
100
AcDbSymbolTableRecord
100
AcDbLayerTableRecord
  2
OUTLINE
 70
     0
 62
     3
  6
Continuous
370
    -3
390
9
  0
LAYER
  5
B77
330
20
100
AcDbSymbolTableRecord
100
AcDbLayerTableRecord
  2
BASIS
 70
     0
 62
     6
  6
DASHDOT
370
    -3
390
9
  0
LAYER
  5
B78
330
20
100
AcDbSymbolTableRecord
100
AcDbLayerTableRecord
  2
NOTE
 70
     0
 62
     4
  6
Continuous
370
    -3
390
9
  0
LAYER
  5
B79
330
20
100
AcDbSymbolTableRecord
100
AcDbLayerTableRecord
  2
ARRANGE
 70
     0
 62
     1
  6
Continuous
370
    -3
390
9
  0
LAYER
  5
B7B
330
20
100
AcDbSymbolTableRecord
100
AcDbLayerTableRecord
  2
ETC
 70
     0
 62
    61
  6
Continuous
370
    -3
390
9
  0
LAYER
  5
3D65
102
{ACAD_XDICTIONARY
360
3D66
102
}
330
20
100
AcDbSymbolTableRecord
100
AcDbLayerTableRecord
  2
AM_VIS
 70
     0
 62
     4
  6
Continuous
370
    25
390
9
1001
AcAecLayerStandard
1000

1000

  0
LAYER
  5
3D67
102
{ACAD_XDICTIONARY
360
3D68
102
}
330
20
100
AcDbSymbolTableRecord
100
AcDbLayerTableRecord
  2
AM_7
 70
     0
 62
     6
  6
AM_ISO08W050
370
    25
390
9
1001
AcAecLayerStandard
1000

1000

  0
ENDTAB
  0
TABLE
  2
STYLE
  5
23
330
0
100
AcDbSymbolTable
 70
     5
  0
STYLE
  5
24
330
23
100
AcDbSymbolTableRecord
100
AcDbTextStyleTableRecord
  2
Standard
 70
     0
 40
0.0
 41
1.0
 50
0.0
 71
     0
 42
43.66586864911549
  3
romans.shx
  4
bigfont.shx
  0
STYLE
  5
B7C
330
23
100
AcDbSymbolTableRecord
100
AcDbTextStyleTableRecord
  2
STANDARD1
 70
     0
 40
0.0
 41
1.0
 50
0.0
 71
     0
 42
3.5
  3
MONOTXT
  4
BIGFONT
  0
STYLE
  5
2471
330
23
100
AcDbSymbolTableRecord
100
AcDbTextStyleTableRecord
  2

 70
     1
 40
0.0
 41
1.0
 50
0.0
 71
     0
 42
43.66586864911549
  3
genltshp.shx
  4

  0
STYLE
  5
247F
330
23
100
AcDbSymbolTableRecord
100
AcDbTextStyleTableRecord
  2
ACISOTS
 70
     0
 40
1.0
 41
1.0
 50
0.0
 71
     0
 42
43.66586864911549
  3
isocp.shx
  4
extfont.shx
  0
STYLE
  5
2480
330
23
100
AcDbSymbolTableRecord
100
AcDbTextStyleTableRecord
  2
ACISOGDT
 70
     0
 40
0.0
 41
1.0
 50
0.0
 71
     0
 42
43.66586864911549
  3
amgdt.shx
  4

  0
ENDTAB
  0
TABLE
  2
VIEW
  5
29
330
0
100
AcDbSymbolTable
 70
     0
  0
ENDTAB
  0
TABLE
  2
UCS
  5
2A
330
0
100
AcDbSymbolTable
 70
     0
  0
ENDTAB
  0
TABLE
  2
APPID
  5
2F
330
0
100
AcDbSymbolTable
 70
    29
  0
APPID
  5
30
330
2F
100
AcDbSymbolTableRecord
100
AcDbRegAppTableRecord
  2
ACAD
 70
     0
  0
APPID
  5
81
330
2F
100
AcDbSymbolTableRecord
100
AcDbRegAppTableRecord
  2
AcAecLayerStandard
 70
     0
  0
APPID
  5
1F
330
2F
100
AcDbSymbolTableRecord
100
AcDbRegAppTableRecord
  2
ACAD_PSEXT
 70
     0
  0
APPID
  5
49C
330
2F
100
AcDbSymbolTableRecord
100
AcDbRegAppTableRecord
  2
ACATTRIBSERVICES
 70
     0
  0
APPID
  5
4C7
330
2F
100
AcDbSymbolTableRecord
100
AcDbRegAppTableRecord
  2
ACAD_MLEADERVER
 70
     0
  0
APPID
  5
4CE
330
2F
100
AcDbSymbolTableRecord
100
AcDbRegAppTableRecord
  2
ACAD_DSTYLE_DIMJAG
 70
     0
  0
APPID
  5
4CF
330
2F
100
AcDbSymbolTableRecord
100
AcDbRegAppTableRecord
  2
ACAD_DSTYLE_DIMTALN
 70
     0
  0
APPID
  5
5CF
330
2F
100
AcDbSymbolTableRecord
100
AcDbRegAppTableRecord
  2
ACAD_DSTYLE_DIMTEXT_FILL
 70
     0
  0
APPID
  5
5D0
330
2F
100
AcDbSymbolTableRecord
100
AcDbRegAppTableRecord
  2
ACAD_DSTYLE_DIMEXT_LENGTH
 70
     0
  0
APPID
  5
5D1
330
2F
100
AcDbSymbolTableRecord
100
AcDbRegAppTableRecord
  2
ACAD_DSTYLE_DIMEXT_ENABLED
 70
     0
  0
APPID
  5
5D2
330
2F
100
AcDbSymbolTableRecord
100
AcDbRegAppTableRecord
  2
ACAD_DSTYLE_DIM_LINETYPE
 70
     0
  0
APPID
  5
5D3
330
2F
100
AcDbSymbolTableRecord
100
AcDbRegAppTableRecord
  2
ACAD_DSTYLE_DIM_EXT1_LINETYPE
 70
     0
  0
APPID
  5
5D4
330
2F
100
AcDbSymbolTableRecord
100
AcDbRegAppTableRecord
  2
ACAD_DSTYLE_DIM_EXT2_LINETYPE
 70
     0
  0
APPID
  5
690
330
2F
100
AcDbSymbolTableRecord
100
AcDbRegAppTableRecord
  2
ACAD_DSTYLE_DIMJOGGED_JOGANGLE_SYMBOL
 70
     0
  0
APPID
  5
784
330
2F
100
AcDbSymbolTableRecord
100
AcDbRegAppTableRecord
  2
ACAD_DSTYLE_DIMARC_LENGTH_SYMBOL
 70
     0
  0
APPID
  5
2323
330
2F
100
AcDbSymbolTableRecord
100
AcDbRegAppTableRecord
  2
ACAD_EXEMPT_FROM_CAD_STANDARDS
 70
     0
  0
APPID
  5
238B
330
2F
100
AcDbSymbolTableRecord
100
AcDbRegAppTableRecord
  2
GENIUS_GENDIM_13
 70
     0
  0
APPID
  5
238C
330
2F
100
AcDbSymbolTableRecord
100
AcDbRegAppTableRecord
  2
GENIUS_GENDTOL_13
 70
     0
  0
APPID
  5
238D
330
2F
100
AcDbSymbolTableRecord
100
AcDbRegAppTableRecord
  2
GENIUS_GE3DTOL_13
 70
     0
  0
APPID
  5
2390
330
2F
100
AcDbSymbolTableRecord
100
AcDbRegAppTableRecord
  2
MCAD_NO_VIS
 70
     0
  0
APPID
  5
2391
330
2F
100
AcDbSymbolTableRecord
100
AcDbRegAppTableRecord
  2
ACAD_TEMP_GRAPHIC
 70
     0
  0
APPID
  5
23C2
330
2F
100
AcDbSymbolTableRecord
100
AcDbRegAppTableRecord
  2
AD_DRAW
 70
     0
  0
APPID
  5
2410
330
2F
100
AcDbSymbolTableRecord
100
AcDbRegAppTableRecord
  2
ASURF_PCURVE_APPNAME
 70
     0
  0
APPID
  5
2415
330
2F
100
AcDbSymbolTableRecord
100
AcDbRegAppTableRecord
  2
AMG_3D2D_5.0
 70
     0
  0
APPID
  5
2446
330
2F
100
AcDbSymbolTableRecord
100
AcDbRegAppTableRecord
  2
DESIGNERASSEMBLIES
 70
     0
  0
APPID
  5
2451
330
2F
100
AcDbSymbolTableRecord
100
AcDbRegAppTableRecord
  2
ACADM_DIM_EDIT
 70
     0
  0
APPID
  5
2452
330
2F
100
AcDbSymbolTableRecord
100
AcDbRegAppTableRecord
  2
AMDT_DM_ADJ
 70
     0
  0
APPID
  5
2988
330
2F
100
AcDbSymbolTableRecord
100
AcDbRegAppTableRecord
  2
ACAD_DSTYLE_DIMRADIAL_EXTENSION
 70
     0
  0
APPID
  5
29C0
330
2F
100
AcDbSymbolTableRecord
100
AcDbRegAppTableRecord
  2
ACAD_DSTYLE_DIMINSPECT
 70
     0
  0
ENDTAB
  0
TABLE
  2
DIMSTYLE
  5
31
330
0
100
AcDbSymbolTable
 70
    14
100
AcDbDimStyleTable
 71
     4
340
2469
340
32
340
261B
340
B7D
  0
DIMSTYLE
105
32
102
{ACAD_REACTORS
330
3E40
330
3E4D
330
3E70
102
}
330
31
100
AcDbSymbolTableRecord
100
AcDbDimStyleTableRecord
  2
ISO-25
 70
     0
 40
5.0
 41
2.5
 42
0.625
 43
3.75
 44
1.25
 45
0.5
 73
     0
 74
     0
 77
     1
 78
     8
140
2.5
141
2.5
143
0.03937007874016
147
0.625
171
     3
172
     1
271
     2
272
     2
274
     3
283
     0
284
     8
340
24
342
4A
1001
ACAD_DSTYLE_DIMJAG
1070
   388
1040
1.5
1001
ACAD_DSTYLE_DIMTALN
1070
   392
1070
     0
  0
DIMSTYLE
105
B7D
330
31
100
AcDbSymbolTableRecord
100
AcDbDimStyleTableRecord
  2
STANDARD
 70
     0
 40
5.0
 41
2.5
 73
     0
 74
     0
 77
     1
140
2.5
147
1.5
271
     0
272
     0
275
     1
279
     2
284
     8
285
     8
286
     8
340
24
341
4A
342
4A
1001
ACAD_DSTYLE_DIMJAG
1070
   388
1040
1.5
1001
ACAD_DSTYLE_DIMTALN
1070
   392
1070
     0
  0
DIMSTYLE
105
2469
330
31
100
AcDbSymbolTableRecord
100
AcDbDimStyleTableRecord
  2
AM_ISO
 70
     0
  4
"
 41
3.5
 42
1.0
 43
10.0
 44
1.0
 47
0.1
 48
0.1
 73
     0
 74
     0
 77
     1
 78
     8
 79
     2
140
3.5
141
0.0
143
0.0393701
146
0.71
147
1.5
172
     1
176
   256
177
   256
178
     2
271
     2
272
     3
274
     4
283
     0
284
     8
340
24
371
    -1
372
    -1
1001
ACAD_DSTYLE_DIMARC_LENGTH_SYMBOL
1070
   379
1070
     1
1001
ACAD_DSTYLE_DIM_LINETYPE
1070
   380
1005
27
1001
ACAD_DSTYLE_DIM_EXT1_LINETYPE
1070
   381
1005
27
1001
ACAD_DSTYLE_DIM_EXT2_LINETYPE
1070
   382
1005
27
  0
DIMSTYLE
105
2473
330
31
100
AcDbSymbolTableRecord
100
AcDbDimStyleTableRecord
  2
AM_ISO$3
 70
     0
  4
"
 41
3.5
 42
1.0
 43
10.0
 44
1.0
 47
0.1
 48
0.1
 73
     0
 77
     1
 78
     8
 79
     2
140
3.5
141
0.0
143
0.0393701
146
0.71
147
1.5
176
   256
177
   256
178
     2
271
     2
272
     3
274
     4
283
     0
284
     8
288
     1
289
     0
340
24
371
    -1
372
    -1
1001
ACAD_DSTYLE_DIMJAG
1070
   388
1040
1.5
1001
ACAD_DSTYLE_DIMTALN
1070
   392
1070
     0
1001
ACAD_DSTYLE_DIMARC_LENGTH_SYMBOL
1070
   379
1070
     1
1001
ACAD_DSTYLE_DIM_LINETYPE
1070
   380
1005
27
1001
ACAD_DSTYLE_DIM_EXT1_LINETYPE
1070
   381
1005
27
1001
ACAD_DSTYLE_DIM_EXT2_LINETYPE
1070
   382
1005
27
  0
DIMSTYLE
105
2474
330
31
100
AcDbSymbolTableRecord
100
AcDbDimStyleTableRecord
  2
AM_ISO$4
 70
     0
  4
"
 41
3.5
 42
1.0
 43
10.0
 44
1.0
 47
0.1
 48
0.1
 73
     0
 74
     0
 77
     1
 78
     8
 79
     2
140
3.5
141
0.0
143
0.0393701
146
0.71
147
1.5
172
     1
176
   256
177
   256
178
     2
271
     2
272
     3
274
     4
283
     0
284
     8
340
24
371
    -1
372
    -1
1001
ACAD_DSTYLE_DIMARC_LENGTH_SYMBOL
1070
   379
1070
     1
1001
ACAD_DSTYLE_DIM_LINETYPE
1070
   380
1005
27
1001
ACAD_DSTYLE_DIM_EXT1_LINETYPE
1070
   381
1005
27
1001
ACAD_DSTYLE_DIM_EXT2_LINETYPE
1070
   382
1005
27
  0
DIMSTYLE
105
2475
330
31
100
AcDbSymbolTableRecord
100
AcDbDimStyleTableRecord
  2
AM_ISO$6
 70
     0
  4
"
 41
3.5
 42
1.0
 43
10.0
 44
1.0
 47
0.1
 48
0.1
 73
     0
 74
     0
 78
     8
 79
     2
140
3.5
141
0.0
143
0.0393701
146
0.71
147
1.5
172
     1
176
   256
177
   256
178
     2
271
     2
272
     3
274
     4
283
     0
284
     8
340
24
371
    -1
372
    -1
1001
ACAD_DSTYLE_DIMARC_LENGTH_SYMBOL
1070
   379
1070
     1
1001
ACAD_DSTYLE_DIM_LINETYPE
1070
   380
1005
27
1001
ACAD_DSTYLE_DIM_EXT1_LINETYPE
1070
   381
1005
27
1001
ACAD_DSTYLE_DIM_EXT2_LINETYPE
1070
   382
1005
27
  0
DIMSTYLE
105
2476
330
31
100
AcDbSymbolTableRecord
100
AcDbDimStyleTableRecord
  2
AM_ISO$7
 70
     0
  4
"
 41
3.5
 42
1.0
 43
10.0
 44
1.0
 47
0.1
 48
0.1
 73
     0
 74
     0
 77
     1
 78
     8
 79
     2
140
3.5
141
0.0
143
0.0393701
146
0.71
147
1.5
172
     1
176
   256
177
   256
178
     2
271
     2
272
     3
274
     4
283
     0
284
     8
340
24
371
    -1
372
    -1
1001
ACAD_DSTYLE_DIMARC_LENGTH_SYMBOL
1070
   379
1070
     1
1001
ACAD_DSTYLE_DIM_LINETYPE
1070
   380
1005
27
1001
ACAD_DSTYLE_DIM_EXT1_LINETYPE
1070
   381
1005
27
1001
ACAD_DSTYLE_DIM_EXT2_LINETYPE
1070
   382
1005
27
  0
DIMSTYLE
105
2477
330
31
100
AcDbSymbolTableRecord
100
AcDbDimStyleTableRecord
  2
AM_ISO$SF
 70
     0
  4
"
 41
3.5
 42
1.0
 43
10.0
 44
1.0
 47
0.1
 48
0.1
 73
     0
 74
     0
 75
     1
 76
     1
 77
     1
 78
     8
 79
     2
140
3.5
141
0.0
143
0.0393701
146
0.71
147
1.5
172
     1
176
   256
177
   256
178
     2
271
     2
272
     3
274
     4
283
     0
284
     8
340
24
371
    -1
372
    -1
1001
ACAD_DSTYLE_DIMARC_LENGTH_SYMBOL
1070
   379
1070
     1
1001
ACAD_DSTYLE_DIM_LINETYPE
1070
   380
1005
27
1001
ACAD_DSTYLE_DIM_EXT1_LINETYPE
1070
   381
1005
27
1001
ACAD_DSTYLE_DIM_EXT2_LINETYPE
1070
   382
1005
27
  0
DIMSTYLE
105
247C
330
31
100
AcDbSymbolTableRecord
100
AcDbDimStyleTableRecord
  2
AM_ISO$SH
 70
     0
  4
"
 41
3.5
 42
1.0
 43
10.0
 44
1.0
 47
0.1
 48
0.1
 73
     0
 74
     0
 75
     1
 76
     1
 77
     1
 78
     8
 79
     2
140
3.5
141
0.0
143
0.0393701
144
2.0
146
0.71
147
1.5
172
     1
173
     1
176
   256
177
   256
178
     2
271
     2
272
     3
274
     4
283
     0
284
     8
340
24
343
2478
371
    -1
372
    -1
1001
ACAD_DSTYLE_DIMARC_LENGTH_SYMBOL
1070
   379
1070
     1
1001
ACAD_DSTYLE_DIM_LINETYPE
1070
   380
1005
27
1001
ACAD_DSTYLE_DIM_EXT1_LINETYPE
1070
   381
1005
27
1001
ACAD_DSTYLE_DIM_EXT2_LINETYPE
1070
   382
1005
27
  0
DIMSTYLE
105
2619
330
31
100
AcDbSymbolTableRecord
100
AcDbDimStyleTableRecord
  2
ISO-5
 70
     0
 41
5.0
 42
1.25
 43
7.5
 44
2.5
 74
     0
 77
     1
 78
     8
140
5.0
141
5.0
143
0.0394
145
2.0
147
1.25
172
     1
340
24
  0
DIMSTYLE
105
261A
330
31
100
AcDbSymbolTableRecord
100
AcDbDimStyleTableRecord
  2
ISO-7
 70
     0
 41
7.0
 42
1.75
 43
10.5
 44
3.5
 74
     0
 77
     1
 78
     8
140
7.0
141
7.0
143
0.0394
145
2.799999999999998
147
1.75
172
     1
340
24
  0
DIMSTYLE
105
261B
330
31
100
AcDbSymbolTableRecord
100
AcDbDimStyleTableRecord
  2
STANDARD1
 70
     0
 40
5.0
 41
2.5
 42
0.625
 43
6.0
 44
1.25
 47
1.0
 48
0.5
 77
     1
 78
     8
140
2.5
141
0.0
146
0.6
147
1.0
173
     1
284
     1
340
24
341
4A
343
4A
344
4A
1001
ACAD_DSTYLE_DIMJAG
1070
   388
1040
1.5
1001
ACAD_DSTYLE_DIMTALN
1070
   392
1070
     0
  0
DIMSTYLE
105
30EE
330
31
100
AcDbSymbolTableRecord
100
AcDbDimStyleTableRecord
  2
AM_JIS
 70
     0
  4
"
 41
2.5
 42
1.0
 43
10.0
 44
1.0
 47
0.1
 48
0.1
 73
     0
 74
     0
 77
     3
 78
     8
 79
     2
140
3.5
141
0.0
143
0.0393701
146
0.71
147
1.5
172
     1
176
   256
177
   256
178
     2
271
     2
272
     3
274
     4
283
     0
284
     8
340
24
341
4A
342
4A
343
4A
344
4A
371
    -1
372
    -1
1001
ACAD_DSTYLE_DIMARC_LENGTH_SYMBOL
1070
   379
1070
     1
  0
DIMSTYLE
105
3E7E
330
31
100
AcDbSymbolTableRecord
100
AcDbDimStyleTableRecord
  2
AM_ISO$0
 70
     0
  4
"
 41
3.5
 42
1.0
 43
10.0
 44
1.0
 47
0.1
 48
0.1
 73
     0
 74
     0
 77
     1
 78
     8
 79
     2
140
3.5
141
0.0
143
0.0393701
146
0.71
147
1.5
172
     1
176
   256
177
   256
178
     2
271
     2
272
     3
274
     4
283
     0
284
     8
340
24
371
    -1
372
    -1
1001
ACAD_DSTYLE_DIMJOGGED_JOGANGLE_SYMBOL
1070
   384
1040
0.7853981633974483
1001
ACAD_DSTYLE_DIMJAG
1070
   388
1040
1.5
1001
ACAD_DSTYLE_DIMTALN
1070
   392
1070
     0
1001
ACAD_DSTYLE_DIMARC_LENGTH_SYMBOL
1070
   379
1070
     1
1001
ACAD_DSTYLE_DIM_LINETYPE
1070
   380
1005
27
1001
ACAD_DSTYLE_DIM_EXT1_LINETYPE
1070
   381
1005
27
1001
ACAD_DSTYLE_DIM_EXT2_LINETYPE
1070
   382
1005
27
  0
ENDTAB
  0
TABLE
  2
BLOCK_RECORD
  5
1
330
0
100
AcDbSymbolTable
 70
    60
  0
BLOCK_RECORD
  5
2
102
{ACAD_XDICTIONARY
360
3
102
}
330
1
100
AcDbSymbolTableRecord
100
AcDbBlockTableRecord
  2
*Model_Space
340
17
  0
BLOCK_RECORD
  5
19
330
1
100
AcDbSymbolTableRecord
100
AcDbBlockTableRecord
  2
*Paper_Space
340
1C
  0
BLOCK_RECORD
  5
4A
330
1
100
AcDbSymbolTableRecord
100
AcDbBlockTableRecord
  2
_OPEN30
340
0
102
{BLKREFS
331
5C7
331
5C8
331
8F9
331
8FA
331
2330
331
2331
331
2339
331
233A
331
2342
331
2343
331
234B
331
234C
331
25EE
331
25EF
331
25FA
331
25FB
331
2606
331
2607
331
2612
331
2613
331
27EE
331
27EF
331
27FB
331
27FC
331
2808
331
2809
331
2982
331
2983
331
29D6
331
2B2B
331
2B2C
331
2B38
331
2B39
331
2C35
331
2C36
331
2C3E
331
2C3F
331
2ED2
331
2F42
331
2FD0
331
2FD1
331
2FD9
331
2FDA
331
2FE2
331
2FE3
331
2FEB
331
2FEC
331
2FF4
331
2FF5
331
325B
331
325C
331
3271
331
3272
331
3371
331
3372
331
337E
331
337F
331
33B4
331
33FD
331
33FE
331
3405
331
3639
331
363A
331
3646
331
3647
331
3653
331
3654
331
3660
331
3661
331
3694
331
38C9
331
3B39
331
3B3A
331
3B46
331
3B47
331
3B53
331
3B54
331
3B60
331
3B61
331
3E32
331
400C
331
400D
331
4015
331
4016
331
401E
331
401F
102
}
  0
BLOCK_RECORD
  5
50
330
1
100
AcDbSymbolTableRecord
100
AcDbBlockTableRecord
  2
_DOTSMALL
340
0
  0
BLOCK_RECORD
  5
5C3
330
1
100
AcDbSymbolTableRecord
100
AcDbBlockTableRecord
  2
*D2
340
0
  0
BLOCK_RECORD
  5
8E3
330
1
100
AcDbSymbolTableRecord
100
AcDbBlockTableRecord
  2
*D3
340
0
  0
BLOCK_RECORD
  5
8F1
330
1
100
AcDbSymbolTableRecord
100
AcDbBlockTableRecord
  2
_DatumFilled
340
0
  0
BLOCK_RECORD
  5
900
330
1
100
AcDbSymbolTableRecord
100
AcDbBlockTableRecord
  2
*D5
340
0
  0
BLOCK_RECORD
  5
90D
330
1
100
AcDbSymbolTableRecord
100
AcDbBlockTableRecord
  2
*D6
340
0
  0
BLOCK_RECORD
  5
91A
330
1
100
AcDbSymbolTableRecord
100
AcDbBlockTableRecord
  2
*D7
340
0
  0
BLOCK_RECORD
  5
B1B
330
1
100
AcDbSymbolTableRecord
100
AcDbBlockTableRecord
  2
*D8
340
0
  0
BLOCK_RECORD
  5
B6E
330
1
100
AcDbSymbolTableRecord
100
AcDbBlockTableRecord
  2
_DOTBLANK
340
0
  0
BLOCK_RECORD
  5
2478
330
1
100
AcDbSymbolTableRecord
100
AcDbBlockTableRecord
  2
GENAXEH
340
0
  0
BLOCK_RECORD
  5
25A9
330
1
100
AcDbSymbolTableRecord
100
AcDbBlockTableRecord
  2
*D11
340
0
  0
BLOCK_RECORD
  5
25B7
330
1
100
AcDbSymbolTableRecord
100
AcDbBlockTableRecord
  2
*D12
340
0
  0
BLOCK_RECORD
  5
25E9
330
1
100
AcDbSymbolTableRecord
100
AcDbBlockTableRecord
  2
*D13
340
0
  0
BLOCK_RECORD
  5
25F5
330
1
100
AcDbSymbolTableRecord
100
AcDbBlockTableRecord
  2
*D14
340
0
  0
BLOCK_RECORD
  5
2601
330
1
100
AcDbSymbolTableRecord
100
AcDbBlockTableRecord
  2
*D15
340
0
  0
BLOCK_RECORD
  5
260D
330
1
100
AcDbSymbolTableRecord
100
AcDbBlockTableRecord
  2
*D16
340
0
  0
BLOCK_RECORD
  5
278B
330
1
100
AcDbSymbolTableRecord
100
AcDbBlockTableRecord
  2
*D17
340
0
  0
BLOCK_RECORD
  5
2798
330
1
100
AcDbSymbolTableRecord
100
AcDbBlockTableRecord
  2
*D18
340
0
  0
BLOCK_RECORD
  5
27A5
330
1
100
AcDbSymbolTableRecord
100
AcDbBlockTableRecord
  2
*D19
340
0
  0
BLOCK_RECORD
  5
27B2
330
1
100
AcDbSymbolTableRecord
100
AcDbBlockTableRecord
  2
*D20
340
0
  0
BLOCK_RECORD
  5
27E8
330
1
100
AcDbSymbolTableRecord
100
AcDbBlockTableRecord
  2
*D21
340
0
  0
BLOCK_RECORD
  5
27F5
330
1
100
AcDbSymbolTableRecord
100
AcDbBlockTableRecord
  2
*D22
340
0
  0
BLOCK_RECORD
  5
2802
330
1
100
AcDbSymbolTableRecord
100
AcDbBlockTableRecord
  2
*D23
340
0
  0
BLOCK_RECORD
  5
290A
330
1
100
AcDbSymbolTableRecord
100
AcDbBlockTableRecord
  2
*D24
340
0
  0
BLOCK_RECORD
  5
293B
330
1
100
AcDbSymbolTableRecord
100
AcDbBlockTableRecord
  2
*D25
340
0
  0
BLOCK_RECORD
  5
298A
330
1
100
AcDbSymbolTableRecord
100
AcDbBlockTableRecord
  2
*D26
340
0
  0
BLOCK_RECORD
  5
2B25
330
1
100
AcDbSymbolTableRecord
100
AcDbBlockTableRecord
  2
*D27
340
0
  0
BLOCK_RECORD
  5
2B32
330
1
100
AcDbSymbolTableRecord
100
AcDbBlockTableRecord
  2
*D28
340
0
  0
BLOCK_RECORD
  5
2C2F
330
1
100
AcDbSymbolTableRecord
100
AcDbBlockTableRecord
  2
*D29
340
0
  0
BLOCK_RECORD
  5
2E7A
330
1
100
AcDbSymbolTableRecord
100
AcDbBlockTableRecord
  2
*D30
340
0
  0
BLOCK_RECORD
  5
2E87
330
1
100
AcDbSymbolTableRecord
100
AcDbBlockTableRecord
  2
*D31
340
0
  0
BLOCK_RECORD
  5
2E94
330
1
100
AcDbSymbolTableRecord
100
AcDbBlockTableRecord
  2
*D32
340
0
  0
BLOCK_RECORD
  5
2ED7
330
1
100
AcDbSymbolTableRecord
100
AcDbBlockTableRecord
  2
*D33
340
0
  0
BLOCK_RECORD
  5
2F14
330
1
100
AcDbSymbolTableRecord
100
AcDbBlockTableRecord
  2
*D34
340
0
  0
BLOCK_RECORD
  5
2F21
330
1
100
AcDbSymbolTableRecord
100
AcDbBlockTableRecord
  2
*D35
340
0
  0
BLOCK_RECORD
  5
2F2E
330
1
100
AcDbSymbolTableRecord
100
AcDbBlockTableRecord
  2
*D36
340
0
  0
BLOCK_RECORD
  5
3255
330
1
100
AcDbSymbolTableRecord
100
AcDbBlockTableRecord
  2
*D37
340
0
  0
BLOCK_RECORD
  5
3262
330
1
100
AcDbSymbolTableRecord
100
AcDbBlockTableRecord
  2
*D38
340
0
  0
BLOCK_RECORD
  5
336B
330
1
100
AcDbSymbolTableRecord
100
AcDbBlockTableRecord
  2
*D39
340
0
  0
BLOCK_RECORD
  5
3378
330
1
100
AcDbSymbolTableRecord
100
AcDbBlockTableRecord
  2
*D40
340
0
  0
BLOCK_RECORD
  5
3385
330
1
100
AcDbSymbolTableRecord
100
AcDbBlockTableRecord
  2
*D41
340
0
  0
BLOCK_RECORD
  5
33B9
330
1
100
AcDbSymbolTableRecord
100
AcDbBlockTableRecord
  2
*D42
340
0
  0
BLOCK_RECORD
  5
33F7
330
1
100
AcDbSymbolTableRecord
100
AcDbBlockTableRecord
  2
*D43
340
0
  0
BLOCK_RECORD
  5
3633
330
1
100
AcDbSymbolTableRecord
100
AcDbBlockTableRecord
  2
*D44
340
0
  0
BLOCK_RECORD
  5
3640
330
1
100
AcDbSymbolTableRecord
100
AcDbBlockTableRecord
  2
*D45
340
0
  0
BLOCK_RECORD
  5
364D
330
1
100
AcDbSymbolTableRecord
100
AcDbBlockTableRecord
  2
*D46
340
0
  0
BLOCK_RECORD
  5
365A
330
1
100
AcDbSymbolTableRecord
100
AcDbBlockTableRecord
  2
*D47
340
0
  0
BLOCK_RECORD
  5
3667
330
1
100
AcDbSymbolTableRecord
100
AcDbBlockTableRecord
  2
*D48
340
0
  0
BLOCK_RECORD
  5
3888
330
1
100
AcDbSymbolTableRecord
100
AcDbBlockTableRecord
  2
*D49
340
0
  0
BLOCK_RECORD
  5
3AFB
330
1
100
AcDbSymbolTableRecord
100
AcDbBlockTableRecord
  2
*D50
340
0
  0
BLOCK_RECORD
  5
3B33
330
1
100
AcDbSymbolTableRecord
100
AcDbBlockTableRecord
  2
*D51
340
0
  0
BLOCK_RECORD
  5
3B40
330
1
100
AcDbSymbolTableRecord
100
AcDbBlockTableRecord
  2
*D52
340
0
  0
BLOCK_RECORD
  5
3B4D
330
1
100
AcDbSymbolTableRecord
100
AcDbBlockTableRecord
  2
*D53
340
0
  0
BLOCK_RECORD
  5
3B5A
330
1
100
AcDbSymbolTableRecord
100
AcDbBlockTableRecord
  2
*D54
340
0
  0
BLOCK_RECORD
  5
3D69
102
{ACAD_XDICTIONARY
360
3DC6
102
}
330
1
100
AcDbSymbolTableRecord
100
AcDbBlockTableRecord
  2
A$C4BB80041
340
0
1001
ACAD
1000
DesignCenter Data
1002
{
1070
     1
1070
     4
1002
}
  0
BLOCK_RECORD
  5
3E41
330
1
100
AcDbSymbolTableRecord
100
AcDbBlockTableRecord
  2
*D56
340
0
  0
BLOCK_RECORD
  5
3E4E
330
1
100
AcDbSymbolTableRecord
100
AcDbBlockTableRecord
  2
*D57
340
0
  0
BLOCK_RECORD
  5
3E71
330
1
100
AcDbSymbolTableRecord
100
AcDbBlockTableRecord
  2
*D58
340
0
  0
ENDTAB
  0
ENDSEC
  0
SECTION
  2
BLOCKS
  0
BLOCK
  5
5
330
2
100
AcDbEntity
  8
0
100
AcDbBlockBegin
  2
*Model_Space
 70
     0
 10
0.0
 20
0.0
 30
0.0
  3
*Model_Space
  1

  0
ENDBLK
  5
16
330
2
100
AcDbEntity
  8
0
100
AcDbBlockEnd
  0
BLOCK
  5
1A
330
19
100
AcDbEntity
 67
     1
  8
0
100
AcDbBlockBegin
  2
*Paper_Space
 70
     0
 10
0.0
 20
0.0
 30
0.0
  3
*Paper_Space
  1

  0
ENDBLK
  5
1B
330
19
100
AcDbEntity
 67
     1
  8
0
100
AcDbBlockEnd
  0
BLOCK
  5
4B
330
4A
100
AcDbEntity
  8
0
100
AcDbBlockBegin
  2
_OPEN30
 70
     0
 10
0.0
 20
0.0
 30
0.0
  3
_OPEN30
  1

  0
LINE
  5
4C
330
4A
100
AcDbEntity
  8
0
  6
ByBlock
 62
     0
100
AcDbLine
 10
-1.0
 20
0.26794919
 30
0.0
 11
0.0
 21
0.0
 31
0.0
  0
LINE
  5
4D
330
4A
100
AcDbEntity
  8
0
  6
ByBlock
 62
     0
100
AcDbLine
 10
0.0
 20
0.0
 30
0.0
 11
-1.0
 21
-0.26794919
 31
0.0
  0
LINE
  5
4E
330
4A
100
AcDbEntity
  8
0
  6
ByBlock
 62
     0
100
AcDbLine
 10
0.0
 20
0.0
 30
0.0
 11
-1.0
 21
0.0
 31
0.0
  0
ENDBLK
  5
4F
330
4A
100
AcDbEntity
  8
0
100
AcDbBlockEnd
  0
BLOCK
  5
51
330
50
100
AcDbEntity
  8
0
100
AcDbBlockBegin
  2
_DOTSMALL
 70
     0
 10
0.0
 20
0.0
 30
0.0
  3
_DOTSMALL
  1

  0
POLYLINE
  5
52
330
50
100
AcDbEntity
  8
0
  6
ByBlock
 62
     0
100
AcDb2dPolyline
 66
     1
 10
0.0
 20
0.0
 30
0.0
 70
     1
 40
0.5
 41
0.5
  0
VERTEX
  5
53
330
52
100
AcDbEntity
  8
0
  6
ByBlock
 62
     0
100
AcDbVertex
100
AcDb2dVertex
 10
-0.0625
 20
0.0
 30
0.0
 42
1.0
  0
VERTEX
  5
54
330
52
100
AcDbEntity
  8
0
  6
ByBlock
 62
     0
100
AcDbVertex
100
AcDb2dVertex
 10
0.0625
 20
0.0
 30
0.0
 42
1.0
  0
SEQEND
  5
55
330
52
100
AcDbEntity
  8
0
  6
ByBlock
 62
     0
  0
ENDBLK
  5
56
330
50
100
AcDbEntity
  8
0
100
AcDbBlockEnd
  0
BLOCK
  5
5CD
330
5C3
100
AcDbEntity
  8
0
100
AcDbBlockBegin
  2
*D2
 70
     1
 10
0.0
 20
0.0
 30
0.0
  3
*D2
  1

  0
LINE
  5
5C4
330
5C3
100
AcDbEntity
  8
0
 62
     0
370
    -2
100
AcDbLine
 10
-1272.579206041146
 20
-297.1190327320837
 30
0.0
 11
-1272.579206041146
 21
-267.3284403790656
 31
0.0
  0
LINE
  5
5C5
330
5C3
100
AcDbEntity
  8
0
 62
     0
370
    -2
100
AcDbLine
 10
-764.5792060411462
 20
-297.1190327320837
 30
0.0
 11
-764.5792060411462
 21
-267.3284403790656
 31
0.0
  0
LINE
  5
5C6
330
5C3
100
AcDbEntity
  8
0
 62
     0
370
    -2
100
AcDbLine
 10
-1270.079206041146
 20
-268.5784403790655
 30
0.0
 11
-767.0792060411462
 21
-268.5784403790655
 31
0.0
  0
INSERT
  5
5C7
330
5C3
100
AcDbEntity
  8
0
 62
     0
370
    -2
100
AcDbBlockReference
  2
_OPEN30
 10
-1272.579206041146
 20
-268.5784403790655
 30
0.0
 41
2.5
 42
2.5
 43
2.5
 50
180.0
  0
INSERT
  5
5C8
330
5C3
100
AcDbEntity
  8
0
 62
     0
370
    -2
100
AcDbBlockReference
  2
_OPEN30
 10
-764.5792060411462
 20
-268.5784403790655
 30
0.0
 41
2.5
 42
2.5
 43
2.5
  0
MTEXT
  5
5C9
330
5C3
100
AcDbEntity
  8
0
 62
     0
100
AcDbMText
 10
-1018.579206041146
 20
-266.7034403790656
 30
0.0
 40
2.5
 41
0.0
 71
     5
 72
     1
  1
508
 73
     1
 44
1.0
1001
ACAD
1000
MTEXTBEGIN
1070
    73
1070
     1
1070
    44
1040
1.0
1070
    74
1070
     0
1000
MTEXTEND
  0
POINT
  5
5CA
330
5C3
100
AcDbEntity
  8
Defpoints
 62
     0
100
AcDbPoint
 10
-1272.579206041146
 20
-297.7440327320837
 30
0.0
  0
POINT
  5
5CB
330
5C3
100
AcDbEntity
  8
Defpoints
 62
     0
100
AcDbPoint
 10
-764.5792060411462
 20
-297.7440327320837
 30
0.0
  0
POINT
  5
5CC
330
5C3
100
AcDbEntity
  8
Defpoints
 62
     0
100
AcDbPoint
 10
-764.5792060411462
 20
-268.5784403790655
 30
0.0
  0
ENDBLK
  5
5CE
330
5C3
100
AcDbEntity
  8
0
100
AcDbBlockEnd
  0
BLOCK
  5
8ED
330
8E3
100
AcDbEntity
  8
0
100
AcDbBlockBegin
  2
*D3
 70
     1
 10
0.0
 20
0.0
 30
0.0
  3
*D3
  1

  0
LINE
  5
8F6
330
8E3
100
AcDbEntity
  8
0
 62
     0
370
    -2
100
AcDbLine
 10
-1272.579206041146
 20
-294.6190327320837
 30
0.0
 11
-1272.579206041146
 21
-116.5550950485606
 31
0.0
  0
LINE
  5
8F7
330
8E3
100
AcDbEntity
  8
0
 62
     0
370
    -2
100
AcDbLine
 10
-764.5792060411462
 20
-294.6190327320837
 30
0.0
 11
-764.5792060411462
 21
-116.5550950485606
 31
0.0
  0
LINE
  5
8F8
330
8E3
100
AcDbEntity
  8
0
 62
     0
370
    -2
100
AcDbLine
 10
-1260.079206041146
 20
-122.8050950485606
 30
0.0
 11
-777.0792060411462
 21
-122.8050950485606
 31
0.0
  0
INSERT
  5
8F9
330
8E3
100
AcDbEntity
  8
0
 62
     0
370
    -2
100
AcDbBlockReference
  2
_OPEN30
 10
-1272.579206041146
 20
-122.8050950485606
 30
0.0
 41
12.5
 42
12.5
 43
12.5
 50
180.0
  0
INSERT
  5
8FA
330
8E3
100
AcDbEntity
  8
0
 62
     0
370
    -2
100
AcDbBlockReference
  2
_OPEN30
 10
-764.5792060411462
 20
-122.8050950485606
 30
0.0
 41
12.5
 42
12.5
 43
12.5
  0
MTEXT
  5
8FB
330
8E3
100
AcDbEntity
  8
0
 62
     0
100
AcDbMText
 10
-1018.777829144545
 20
-113.4300950485606
 30
0.0
 40
12.5
 41
0.0
 71
     5
 72
     1
  1
508
 73
     1
 44
1.0
1001
ACAD
1000
MTEXTBEGIN
1070
    73
1070
     1
1070
    44
1040
1.0
1070
    74
1070
     0
1000
MTEXTEND
  0
POINT
  5
8FC
330
8E3
100
AcDbEntity
  8
Defpoints
 62
     0
100
AcDbPoint
 10
-1272.579206041146
 20
-297.7440327320837
 30
0.0
  0
POINT
  5
8FD
330
8E3
100
AcDbEntity
  8
Defpoints
 62
     0
100
AcDbPoint
 10
-764.5792060411462
 20
-297.7440327320837
 30
0.0
  0
POINT
  5
8FE
330
8E3
100
AcDbEntity
  8
Defpoints
 62
     0
100
AcDbPoint
 10
-764.5792060411462
 20
-122.8050950485606
 30
0.0
  0
ENDBLK
  5
8EE
330
8E3
100
AcDbEntity
  8
0
100
AcDbBlockEnd
  0
BLOCK
  5
8F3
330
8F1
100
AcDbEntity
  8
0
100
AcDbBlockBegin
  2
_DatumFilled
 70
     0
 10
0.0
 20
0.0
 30
0.0
  3
_DatumFilled
  1

  0
SOLID
  5
8F2
330
8F1
100
AcDbEntity
  8
0
  6
ByBlock
 62
     0
100
AcDbTrace
 10
0.0
 20
0.5773502700000001
 30
0.0
 11
-1.0
 21
0.0
 31
0.0
 12
0.0
 22
-0.5773502700000001
 32
0.0
 13
0.0
 23
-0.5773502700000001
 33
0.0
  0
ENDBLK
  5
8F4
330
8F1
100
AcDbEntity
  8
0
100
AcDbBlockEnd
  0
BLOCK
  5
90A
330
900
100
AcDbEntity
  8
0
100
AcDbBlockBegin
  2
*D5
 70
     1
 10
0.0
 20
0.0
 30
0.0
  3
*D5
  1

  0
LINE
  5
2348
330
900
100
AcDbEntity
  8
SIZE
 62
     0
370
    -2
100
AcDbLine
 10
-1170.079206041146
 20
-297.6190327320837
 30
0.0
 11
-1170.079206041146
 21
-203.7869909465801
 31
0.0
  0
LINE
  5
2349
330
900
100
AcDbEntity
  8
SIZE
 62
     0
370
    -2
100
AcDbLine
 10
-867.0792060411461
 20
-297.6190327320837
 30
0.0
 11
-867.0792060411461
 21
-203.7869909465801
 31
0.0
  0
LINE
  5
234A
330
900
100
AcDbEntity
  8
SIZE
 62
     0
370
    -2
100
AcDbLine
 10
-1157.579206041146
 20
-210.0369909465801
 30
0.0
 11
-879.5792060411461
 21
-210.0369909465801
 31
0.0
  0
INSERT
  5
234B
330
900
100
AcDbEntity
  8
SIZE
 62
     0
370
    -2
100
AcDbBlockReference
  2
_OPEN30
 10
-1170.079206041146
 20
-210.0369909465801
 30
0.0
 41
12.5
 42
12.5
 43
12.5
 50
180.0
  0
INSERT
  5
234C
330
900
100
AcDbEntity
  8
SIZE
 62
     0
370
    -2
100
AcDbBlockReference
  2
_OPEN30
 10
-867.0792060411461
 20
-210.0369909465801
 30
0.0
 41
12.5
 42
12.5
 43
12.5
  0
MTEXT
  5
234D
330
900
100
AcDbEntity
  8
SIZE
 62
     0
100
AcDbMText
 10
-1018.579206041146
 20
-200.6619909465801
 30
0.0
 40
12.5
 41
0.0
 71
     5
 72
     1
  1
303
 73
     1
 44
1.0
1001
ACAD
1000
MTEXTBEGIN
1070
    73
1070
     1
1070
    44
1040
1.0
1070
    74
1070
     0
1000
MTEXTEND
  0
POINT
  5
234E
330
900
100
AcDbEntity
  8
Defpoints
 62
     0
100
AcDbPoint
 10
-1170.079206041146
 20
-300.7440327320837
 30
0.0
  0
POINT
  5
234F
330
900
100
AcDbEntity
  8
Defpoints
 62
     0
100
AcDbPoint
 10
-867.0792060411461
 20
-300.7440327320837
 30
0.0
  0
POINT
  5
2350
330
900
100
AcDbEntity
  8
Defpoints
 62
     0
100
AcDbPoint
 10
-867.0792060411461
 20
-210.0369909465801
 30
0.0
  0
ENDBLK
  5
90B
330
900
100
AcDbEntity
  8
0
100
AcDbBlockEnd
  0
BLOCK
  5
917
330
90D
100
AcDbEntity
  8
0
100
AcDbBlockBegin
  2
*D6
 70
     1
 10
0.0
 20
0.0
 30
0.0
  3
*D6
  1

  0
LINE
  5
232D
330
90D
100
AcDbEntity
  8
SIZE
 62
     0
370
    -2
100
AcDbLine
 10
-1272.704206041146
 20
-294.7440327320833
 30
0.0
 11
-1404.999836952427
 21
-294.7440327320833
 31
0.0
  0
LINE
  5
232E
330
90D
100
AcDbEntity
  8
SIZE
 62
     0
370
    -2
100
AcDbLine
 10
-1271.904206041146
 20
-819.7440327320832
 30
0.0
 11
-1404.999836952427
 21
-819.7440327320832
 31
0.0
  0
LINE
  5
232F
330
90D
100
AcDbEntity
  8
SIZE
 62
     0
370
    -2
100
AcDbLine
 10
-1398.749836952427
 20
-307.2440327320833
 30
0.0
 11
-1398.749836952427
 21
-807.2440327320832
 31
0.0
  0
INSERT
  5
2330
330
90D
100
AcDbEntity
  8
SIZE
 62
     0
370
    -2
100
AcDbBlockReference
  2
_OPEN30
 10
-1398.749836952427
 20
-294.7440327320833
 30
0.0
 41
12.5
 42
12.5
 43
12.5
 50
90.0
  0
INSERT
  5
2331
330
90D
100
AcDbEntity
  8
SIZE
 62
     0
370
    -2
100
AcDbBlockReference
  2
_OPEN30
 10
-1398.749836952427
 20
-819.7440327320832
 30
0.0
 41
12.5
 42
12.5
 43
12.5
 50
270.0
  0
MTEXT
  5
2332
330
90D
100
AcDbEntity
  8
SIZE
 62
     0
100
AcDbMText
 10
-1408.124836952427
 20
-557.2440327320832
 30
0.0
 40
12.5
 41
0.0
 71
     5
 72
     1
  1
525
 11
0.0000000000000001
 21
1.0
 31
0.0
 73
     1
 44
1.0
1001
ACAD
1000
MTEXTBEGIN
1070
    73
1070
     1
1070
    44
1040
1.0
1070
    74
1070
     0
1000
MTEXTEND
  0
POINT
  5
2333
330
90D
100
AcDbEntity
  8
Defpoints
 62
     0
100
AcDbPoint
 10
-1269.579206041146
 20
-294.7440327320833
 30
0.0
  0
POINT
  5
2334
330
90D
100
AcDbEntity
  8
Defpoints
 62
     0
100
AcDbPoint
 10
-1268.779206041146
 20
-819.7440327320832
 30
0.0
  0
POINT
  5
2335
330
90D
100
AcDbEntity
  8
Defpoints
 62
     0
100
AcDbPoint
 10
-1398.749836952427
 20
-819.7440327320832
 30
0.0
  0
ENDBLK
  5
918
330
90D
100
AcDbEntity
  8
0
100
AcDbBlockEnd
  0
BLOCK
  5
924
330
91A
100
AcDbEntity
  8
0
100
AcDbBlockBegin
  2
*D7
 70
     1
 10
0.0
 20
0.0
 30
0.0
  3
*D7
  1

  0
LINE
  5
2336
330
91A
100
AcDbEntity
  8
SIZE
 62
     0
370
    -2
100
AcDbLine
 10
-1175.814206041146
 20
-303.2440327320837
 30
0.0
 11
-1344.53589463651
 21
-303.2440327320837
 31
0.0
  0
LINE
  5
2337
330
91A
100
AcDbEntity
  8
SIZE
 62
     0
370
    -2
100
AcDbLine
 10
-1175.704206041146
 20
-811.2440327320832
 30
0.0
 11
-1344.53589463651
 21
-811.2440327320831
 31
0.0
  0
LINE
  5
2338
330
91A
100
AcDbEntity
  8
SIZE
 62
     0
370
    -2
100
AcDbLine
 10
-1338.285894636509
 20
-315.7440327320837
 30
0.0
 11
-1338.28589463651
 21
-798.7440327320832
 31
0.0
  0
INSERT
  5
2339
330
91A
100
AcDbEntity
  8
SIZE
 62
     0
370
    -2
100
AcDbBlockReference
  2
_OPEN30
 10
-1338.285894636509
 20
-303.2440327320837
 30
0.0
 41
12.5
 42
12.5
 43
12.5
 50
90.0
  0
INSERT
  5
233A
330
91A
100
AcDbEntity
  8
SIZE
 62
     0
370
    -2
100
AcDbBlockReference
  2
_OPEN30
 10
-1338.28589463651
 20
-811.2440327320831
 30
0.0
 41
12.5
 42
12.5
 43
12.5
 50
270.0
  0
MTEXT
  5
233B
330
91A
100
AcDbEntity
  8
SIZE
 62
     0
100
AcDbMText
 10
-1347.66089463651
 20
-557.2440327320836
 30
0.0
 40
12.5
 41
0.0
 71
     5
 72
     1
  1
508
 11
0.0000000000000001
 21
1.0
 31
0.0
 73
     1
 44
1.0
1001
ACAD
1000
MTEXTBEGIN
1070
    73
1070
     1
1070
    44
1040
1.0
1070
    74
1070
     0
1000
MTEXTEND
  0
POINT
  5
233C
330
91A
100
AcDbEntity
  8
Defpoints
 62
     0
100
AcDbPoint
 10
-1172.689206041146
 20
-303.2440327320837
 30
0.0
  0
POINT
  5
233D
330
91A
100
AcDbEntity
  8
Defpoints
 62
     0
100
AcDbPoint
 10
-1172.579206041146
 20
-811.2440327320832
 30
0.0
  0
POINT
  5
233E
330
91A
100
AcDbEntity
  8
Defpoints
 62
     0
100
AcDbPoint
 10
-1338.28589463651
 20
-811.2440327320831
 30
0.0
  0
ENDBLK
  5
925
330
91A
100
AcDbEntity
  8
0
100
AcDbBlockEnd
  0
BLOCK
  5
B25
330
B1B
100
AcDbEntity
  8
0
100
AcDbBlockBegin
  2
*D8
 70
     1
 10
0.0
 20
0.0
 30
0.0
  3
*D8
  1

  0
LINE
  5
233F
330
B1B
100
AcDbEntity
  8
SIZE
 62
     0
370
    -2
100
AcDbLine
 10
-1273.579206041146
 20
-308.1190327320833
 30
0.0
 11
-1273.579206041146
 21
-144.2827088357264
 31
0.0
  0
LINE
  5
2340
330
B1B
100
AcDbEntity
  8
SIZE
 62
     0
370
    -2
100
AcDbLine
 10
-763.5792060411459
 20
-308.1190327320833
 30
0.0
 11
-763.5792060411459
 21
-144.2827088357264
 31
0.0
  0
LINE
  5
2341
330
B1B
100
AcDbEntity
  8
SIZE
 62
     0
370
    -2
100
AcDbLine
 10
-1261.079206041146
 20
-150.5327088357264
 30
0.0
 11
-776.0792060411459
 21
-150.5327088357264
 31
0.0
  0
INSERT
  5
2342
330
B1B
100
AcDbEntity
  8
SIZE
 62
     0
370
    -2
100
AcDbBlockReference
  2
_OPEN30
 10
-1273.579206041146
 20
-150.5327088357264
 30
0.0
 41
12.5
 42
12.5
 43
12.5
 50
180.0
  0
INSERT
  5
2343
330
B1B
100
AcDbEntity
  8
SIZE
 62
     0
370
    -2
100
AcDbBlockReference
  2
_OPEN30
 10
-763.5792060411459
 20
-150.5327088357264
 30
0.0
 41
12.5
 42
12.5
 43
12.5
  0
MTEXT
  5
2344
330
B1B
100
AcDbEntity
  8
SIZE
 62
     0
100
AcDbMText
 10
-1018.579206041146
 20
-141.1577088357264
 30
0.0
 40
12.5
 41
0.0
 71
     5
 72
     1
  1
510
 73
     1
 44
1.0
1001
ACAD
1000
MTEXTBEGIN
1070
    73
1070
     1
1070
    44
1040
1.0
1070
    74
1070
     0
1000
MTEXTEND
  0
POINT
  5
2345
330
B1B
100
AcDbEntity
  8
Defpoints
 62
     0
100
AcDbPoint
 10
-1273.579206041146
 20
-311.2440327320833
 30
0.0
  0
POINT
  5
2346
330
B1B
100
AcDbEntity
  8
Defpoints
 62
     0
100
AcDbPoint
 10
-763.5792060411459
 20
-311.2440327320833
 30
0.0
  0
POINT
  5
2347
330
B1B
100
AcDbEntity
  8
Defpoints
 62
     0
100
AcDbPoint
 10
-763.5792060411459
 20
-150.5327088357264
 30
0.0
  0
ENDBLK
  5
B26
330
B1B
100
AcDbEntity
  8
0
100
AcDbBlockEnd
  0
BLOCK
  5
B6F
330
B6E
100
AcDbEntity
  8
0
100
AcDbBlockBegin
  2
_DOTBLANK
 70
     0
 10
0.0
 20
0.0
 30
0.0
  3
_DOTBLANK
  1

  0
CIRCLE
  5
B70
330
B6E
100
AcDbEntity
  8
0
  6
Continuous
 62
     7
100
AcDbCircle
 10
0.0
 20
0.0
 30
0.0
 40
0.5
  0
LINE
  5
B71
330
B6E
100
AcDbEntity
  8
0
  6
Continuous
 62
     7
100
AcDbLine
 10
-0.5
 20
0.0
 30
0.0
 11
-1.0
 21
0.0
 31
0.0
  0
ENDBLK
  5
B72
330
B6E
100
AcDbEntity
  8
0
100
AcDbBlockEnd
  0
BLOCK
  5
247A
330
2478
100
AcDbEntity
  8
0
100
AcDbBlockBegin
  2
GENAXEH
 70
     0
 10
0.0
 20
0.0
 30
0.0
  3
GENAXEH
  1

  0
LINE
  5
2479
330
2478
100
AcDbEntity
  8
0
100
AcDbLine
 10
-1.0
 20
0.0
 30
0.0
 11
1.0
 21
0.0
 31
0.0
  0
ENDBLK
  5
247B
330
2478
100
AcDbEntity
  8
0
100
AcDbBlockEnd
  0
BLOCK
  5
25AA
330
25A9
100
AcDbEntity
  8
0
100
AcDbBlockBegin
  2
*D11
 70
     1
 10
0.0
 20
0.0
 30
0.0
  3
*D11
  1

  0
LINE
  5
25AC
330
25A9
100
AcDbEntity
  8
SIZE
 62
     0
370
    -2
100
AcDbLine
 10
-540.1704328251121
 20
-323.7694457364899
 30
0.0
 11
-540.1704328251121
 21
-275.8235495966764
 31
0.0
  0
LINE
  5
25AD
330
25A9
100
AcDbEntity
  8
SIZE
 62
     0
370
    -2
100
AcDbLine
 10
-529.1704328251121
 20
-328.9479937897473
 30
0.0
 11
-529.1704328251121
 21
-275.8235495966764
 31
0.0
  0
LINE
  5
25AE
330
25A9
100
AcDbEntity
  8
SIZE
 62
     0
370
    -2
100
AcDbLine
 10
-539.9904328251121
 20
-276.0035495966765
 30
0.0
 11
-535.2790042536835
 21
-276.0035495966765
 31
0.0
  0
LINE
  5
25AF
330
25A9
100
AcDbEntity
  8
SIZE
 62
     0
370
    -2
100
AcDbLine
 10
-529.350432825112
 20
-276.0035495966765
 30
0.0
 11
-534.0618613965407
 21
-276.0035495966765
 31
0.0
  0
SOLID
  5
25B0
330
25A9
100
AcDbEntity
  8
SIZE
 62
     0
100
AcDbTrace
 10
-539.9904328251121
 20
-275.9735495966765
 30
0.0
 11
-539.9904328251121
 21
-276.0335495966765
 31
0.0
 12
-540.1704328251121
 22
-276.0035495966765
 32
0.0
 13
-540.1704328251121
 23
-276.0035495966765
 33
0.0
  0
SOLID
  5
25B1
330
25A9
100
AcDbEntity
  8
SIZE
 62
     0
100
AcDbTrace
 10
-529.350432825112
 20
-275.9735495966765
 30
0.0
 11
-529.350432825112
 21
-276.0335495966765
 31
0.0
 12
-529.1704328251121
 22
-276.0035495966765
 32
0.0
 13
-529.1704328251121
 23
-276.0035495966765
 33
0.0
  0
MTEXT
  5
25B2
330
25A9
100
AcDbEntity
  8
SIZE
 62
     0
100
AcDbMText
 10
-534.6704328251121
 20
-276.0035495966765
 30
0.0
 40
0.18
 41
0.0
 71
     5
 72
     1
  1
\A1;11.0000
 73
     1
 44
1.0
1001
ACAD
1000
MTEXTBEGIN
1070
    73
1070
     1
1070
    44
1040
1.0
1070
    74
1070
     0
1000
MTEXTEND
  0
POINT
  5
25B3
330
25A9
100
AcDbEntity
  8
Defpoints
 62
     0
100
AcDbPoint
 10
-540.1704328251121
 20
-323.8319457364899
 30
0.0
  0
POINT
  5
25B4
330
25A9
100
AcDbEntity
  8
Defpoints
 62
     0
100
AcDbPoint
 10
-529.1704328251121
 20
-329.0104937897473
 30
0.0
  0
POINT
  5
25B5
330
25A9
100
AcDbEntity
  8
Defpoints
 62
     0
100
AcDbPoint
 10
-529.1704328251121
 20
-276.0035495966765
 30
0.0
  0
ENDBLK
  5
25AB
330
25A9
100
AcDbEntity
  8
0
100
AcDbBlockEnd
  0
BLOCK
  5
25B8
330
25B7
100
AcDbEntity
  8
0
100
AcDbBlockBegin
  2
*D12
 70
     1
 10
0.0
 20
0.0
 30
0.0
  3
*D12
  1

  0
LINE
  5
25DF
330
25B7
100
AcDbEntity
  8
SIZE
 62
     0
370
    -2
100
AcDbLine
 10
-541.1704328251121
 20
-347.9483557692867
 30
0.0
 11
-541.1704328251121
 21
-224.4915280302375
 31
0.0
  0
LINE
  5
25E0
330
25B7
100
AcDbEntity
  8
SIZE
 62
     0
370
    -2
100
AcDbLine
 10
-86.17043282511213
 20
-347.1966016726593
 30
0.0
 11
-86.17043282511211
 21
-224.4915280302375
 31
0.0
  0
LINE
  5
25E1
330
25B7
100
AcDbEntity
  8
SIZE
 62
     0
370
    -2
100
AcDbLine
 10
-538.6704328251121
 20
-225.7415280302375
 30
0.0
 11
-88.67043282511211
 21
-225.7415280302375
 31
0.0
  0
SOLID
  5
25E2
330
25B7
100
AcDbEntity
  8
SIZE
 62
     0
100
AcDbTrace
 10
-538.6704328251121
 20
-225.3248613635709
 30
0.0
 11
-538.6704328251121
 21
-226.1581946969042
 31
0.0
 12
-541.1704328251121
 22
-225.7415280302375
 32
0.0
 13
-541.1704328251121
 23
-225.7415280302375
 33
0.0
  0
SOLID
  5
25E3
330
25B7
100
AcDbEntity
  8
SIZE
 62
     0
100
AcDbTrace
 10
-88.67043282511211
 20
-225.3248613635709
 30
0.0
 11
-88.67043282511211
 21
-226.1581946969042
 31
0.0
 12
-86.17043282511211
 22
-225.7415280302375
 32
0.0
 13
-86.17043282511211
 23
-225.7415280302375
 33
0.0
  0
MTEXT
  5
25E4
330
25B7
100
AcDbEntity
  8
SIZE
 62
     0
100
AcDbMText
 10
-313.6704328251121
 20
-223.8665280302375
 30
0.0
 40
2.5
 41
0.0
 71
     5
 72
     1
  1
455
  7
STANDARD1
 73
     1
 44
1.0
1001
ACAD
1000
MTEXTBEGIN
1070
    73
1070
     1
1070
    44
1040
1.0
1070
    74
1070
     0
1000
MTEXTEND
  0
POINT
  5
25E5
330
25B7
100
AcDbEntity
  8
Defpoints
 62
     0
100
AcDbPoint
 10
-541.1704328251121
 20
-348.5733557692867
 30
0.0
  0
POINT
  5
25E6
330
25B7
100
AcDbEntity
  8
Defpoints
 62
     0
100
AcDbPoint
 10
-86.17043282511213
 20
-347.8216016726593
 30
0.0
  0
POINT
  5
25E7
330
25B7
100
AcDbEntity
  8
Defpoints
 62
     0
100
AcDbPoint
 10
-86.17043282511211
 20
-225.7415280302375
 30
0.0
  0
ENDBLK
  5
25B9
330
25B7
100
AcDbEntity
  8
0
100
AcDbBlockEnd
  0
BLOCK
  5
25EA
330
25E9
100
AcDbEntity
  8
0
100
AcDbBlockBegin
  2
*D13
 70
     1
 10
0.0
 20
0.0
 30
0.0
  3
*D13
  1

  0
LINE
  5
25EB
330
25E9
100
AcDbEntity
  8
SIZE
 62
     0
370
    -2
100
AcDbLine
 10
2611.597118216469
 20
-510.8595953090659
 30
0.0
 11
2611.597118216469
 21
-597.8030830261838
 31
0.0
  0
LINE
  5
25EC
330
25E9
100
AcDbEntity
  8
SIZE
 62
     0
370
    -2
100
AcDbLine
 10
3903.597118216468
 20
-509.975059226592
 30
0.0
 11
3903.597118216468
 21
-597.8030830261838
 31
0.0
  0
LINE
  5
25ED
330
25E9
100
AcDbEntity
  8
SIZE
 62
     0
370
    -2
100
AcDbLine
 10
2636.597118216469
 20
-585.3030830261838
 30
0.0
 11
3878.597118216468
 21
-585.3030830261838
 31
0.0
  0
INSERT
  5
25EE
330
25E9
100
AcDbEntity
  8
SIZE
 62
     0
370
    -2
100
AcDbBlockReference
  2
_OPEN30
 10
2611.597118216469
 20
-585.3030830261838
 30
0.0
 41
25.0
 42
25.0
 43
25.0
 50
180.0
  0
INSERT
  5
25EF
330
25E9
100
AcDbEntity
  8
SIZE
 62
     0
370
    -2
100
AcDbBlockReference
  2
_OPEN30
 10
3903.597118216468
 20
-585.3030830261838
 30
0.0
 41
25.0
 42
25.0
 43
25.0
  0
MTEXT
  5
25F0
330
25E9
100
AcDbEntity
  8
SIZE
 62
     0
100
AcDbMText
 10
3257.59711821647
 20
-562.8030830261836
 30
0.0
 40
25.0
 41
0.0
 71
     5
 72
     1
  1
\A1;1292
 73
     1
 44
1.0
1001
ACAD
1000
MTEXTBEGIN
1070
    73
1070
     1
1070
    44
1040
1.0
1070
    74
1070
     0
1000
MTEXTEND
  0
POINT
  5
25F1
330
25E9
100
AcDbEntity
  8
Defpoints
 62
     0
100
AcDbPoint
 10
2611.597118216469
 20
-504.6095953090659
 30
0.0
  0
POINT
  5
25F2
330
25E9
100
AcDbEntity
  8
Defpoints
 62
     0
100
AcDbPoint
 10
3903.597118216468
 20
-503.725059226592
 30
0.0
  0
POINT
  5
25F3
330
25E9
100
AcDbEntity
  8
Defpoints
 62
     0
100
AcDbPoint
 10
3903.597118216468
 20
-585.3030830261838
 30
0.0
  0
ENDBLK
  5
25F4
330
25E9
100
AcDbEntity
  8
0
100
AcDbBlockEnd
  0
BLOCK
  5
25F6
330
25F5
100
AcDbEntity
  8
0
100
AcDbBlockBegin
  2
*D14
 70
     1
 10
0.0
 20
0.0
 30
0.0
  3
*D14
  1

  0
LINE
  5
25F7
330
25F5
100
AcDbEntity
  8
SIZE
 62
     0
370
    -2
100
AcDbLine
 10
2609.48564200308
 20
-504.6095953090659
 30
0.0
 11
2413.140234835792
 21
-504.6095953090657
 31
0.0
  0
LINE
  5
25F8
330
25F5
100
AcDbEntity
  8
SIZE
 62
     0
370
    -2
100
AcDbLine
 10
2609.485642003068
 20
613.5785954896266
 30
0.0
 11
2413.140234835792
 21
613.5785954896266
 31
0.0
  0
LINE
  5
25F9
330
25F5
100
AcDbEntity
  8
SIZE
 62
     0
370
    -2
100
AcDbLine
 10
2425.640234835793
 20
-479.6095953090657
 30
0.0
 11
2425.640234835793
 21
588.5785954896266
 31
0.0
  0
INSERT
  5
25FA
330
25F5
100
AcDbEntity
  8
SIZE
 62
     0
370
    -2
100
AcDbBlockReference
  2
_OPEN30
 10
2425.640234835793
 20
-504.6095953090657
 30
0.0
 41
25.0
 42
25.0
 43
25.0
 50
270.0
  0
INSERT
  5
25FB
330
25F5
100
AcDbEntity
  8
SIZE
 62
     0
370
    -2
100
AcDbBlockReference
  2
_OPEN30
 10
2425.640234835793
 20
613.5785954896266
 30
0.0
 41
25.0
 42
25.0
 43
25.0
 50
90.0
  0
MTEXT
  5
25FC
330
25F5
100
AcDbEntity
  8
SIZE
 62
     0
100
AcDbMText
 10
2403.140234835793
 20
48.53228478430661
 30
0.0
 40
25.0
 41
0.0
 71
     5
 72
     1
  1
\A1;1118
 11
0.0000000000000001
 21
1.0
 31
0.0
 73
     1
 44
1.0
1001
ACAD
1000
MTEXTBEGIN
1070
    73
1070
     1
1070
    44
1040
1.0
1070
    74
1070
     0
1000
MTEXTEND
  0
POINT
  5
25FD
330
25F5
100
AcDbEntity
  8
Defpoints
 62
     0
100
AcDbPoint
 10
2615.73564200308
 20
-504.6095953090659
 30
0.0
  0
POINT
  5
25FE
330
25F5
100
AcDbEntity
  8
Defpoints
 62
     0
100
AcDbPoint
 10
2615.735642003068
 20
613.5785954896266
 30
0.0
  0
POINT
  5
25FF
330
25F5
100
AcDbEntity
  8
Defpoints
 62
     0
100
AcDbPoint
 10
2425.640234835793
 20
613.5785954896266
 30
0.0
  0
ENDBLK
  5
2600
330
25F5
100
AcDbEntity
  8
0
100
AcDbBlockEnd
  0
BLOCK
  5
2602
330
2601
100
AcDbEntity
  8
0
100
AcDbBlockBegin
  2
*D15
 70
     1
 10
0.0
 20
0.0
 30
0.0
  3
*D15
  1

  0
LINE
  5
2603
330
2601
100
AcDbEntity
  8
SIZE
 62
     0
370
    -2
100
AcDbLine
 10
2590.347118216469
 20
133.2749407734078
 30
0.0
 11
2473.175883409358
 21
133.2749407734078
 31
0.0
  0
LINE
  5
2604
330
2601
100
AcDbEntity
  8
SIZE
 62
     0
370
    -2
100
AcDbLine
 10
2590.347118216469
 20
-216.7250592265923
 30
0.0
 11
2473.175883409358
 21
-216.7250592265922
 31
0.0
  0
LINE
  5
2605
330
2601
100
AcDbEntity
  8
SIZE
 62
     0
370
    -2
100
AcDbLine
 10
2485.675883409357
 20
108.2749407734078
 30
0.0
 11
2485.675883409357
 21
-191.7250592265921
 31
0.0
  0
INSERT
  5
2606
330
2601
100
AcDbEntity
  8
SIZE
 62
     0
370
    -2
100
AcDbBlockReference
  2
_OPEN30
 10
2485.675883409357
 20
133.2749407734078
 30
0.0
 41
25.0
 42
25.0
 43
25.0
 50
90.0
  0
INSERT
  5
2607
330
2601
100
AcDbEntity
  8
SIZE
 62
     0
370
    -2
100
AcDbBlockReference
  2
_OPEN30
 10
2485.675883409357
 20
-216.7250592265922
 30
0.0
 41
25.0
 42
25.0
 43
25.0
 50
270.0
  0
MTEXT
  5
2608
330
2601
100
AcDbEntity
  8
SIZE
 62
     0
100
AcDbMText
 10
2463.175883409357
 20
-41.72505922659182
 30
0.0
 40
25.0
 41
0.0
 71
     5
 72
     1
  1
\A1;350
 11
0.0000000000000001
 21
1.0
 31
0.0
 73
     1
 44
1.0
1001
ACAD
1000
MTEXTBEGIN
1070
    73
1070
     1
1070
    44
1040
1.0
1070
    74
1070
     0
1000
MTEXTEND
  0
POINT
  5
2609
330
2601
100
AcDbEntity
  8
Defpoints
 62
     0
100
AcDbPoint
 10
2596.597118216469
 20
133.2749407734078
 30
0.0
  0
POINT
  5
260A
330
2601
100
AcDbEntity
  8
Defpoints
 62
     0
100
AcDbPoint
 10
2596.597118216469
 20
-216.7250592265923
 30
0.0
  0
POINT
  5
260B
330
2601
100
AcDbEntity
  8
Defpoints
 62
     0
100
AcDbPoint
 10
2485.675883409357
 20
-216.7250592265922
 30
0.0
  0
ENDBLK
  5
260C
330
2601
100
AcDbEntity
  8
0
100
AcDbBlockEnd
  0
BLOCK
  5
260E
330
260D
100
AcDbEntity
  8
0
100
AcDbBlockBegin
  2
*D16
 70
     1
 10
0.0
 20
0.0
 30
0.0
  3
*D16
  1

  0
LINE
  5
260F
330
260D
100
AcDbEntity
  8
SIZE
 62
     0
370
    -2
100
AcDbLine
 10
2590.347118216469
 20
-216.7250592265923
 30
0.0
 11
2473.175883409358
 21
-216.7250592265922
 31
0.0
  0
LINE
  5
2610
330
260D
100
AcDbEntity
  8
SIZE
 62
     0
370
    -2
100
AcDbLine
 10
2590.347118216469
 20
-482.7250592265921
 30
0.0
 11
2473.175883409358
 21
-482.7250592265921
 31
0.0
  0
LINE
  5
2611
330
260D
100
AcDbEntity
  8
SIZE
 62
     0
370
    -2
100
AcDbLine
 10
2485.675883409357
 20
-241.7250592265922
 30
0.0
 11
2485.675883409357
 21
-457.7250592265921
 31
0.0
  0
INSERT
  5
2612
330
260D
100
AcDbEntity
  8
SIZE
 62
     0
370
    -2
100
AcDbBlockReference
  2
_OPEN30
 10
2485.675883409357
 20
-216.7250592265922
 30
0.0
 41
25.0
 42
25.0
 43
25.0
 50
90.0
  0
INSERT
  5
2613
330
260D
100
AcDbEntity
  8
SIZE
 62
     0
370
    -2
100
AcDbBlockReference
  2
_OPEN30
 10
2485.675883409357
 20
-482.7250592265921
 30
0.0
 41
25.0
 42
25.0
 43
25.0
 50
270.0
  0
MTEXT
  5
2614
330
260D
100
AcDbEntity
  8
SIZE
 62
     0
100
AcDbMText
 10
2463.175883409357
 20
-349.7250592265918
 30
0.0
 40
25.0
 41
0.0
 71
     5
 72
     1
  1
\A1;266
 11
0.0000000000000001
 21
1.0
 31
0.0
 73
     1
 44
1.0
1001
ACAD
1000
MTEXTBEGIN
1070
    73
1070
     1
1070
    44
1040
1.0
1070
    74
1070
     0
1000
MTEXTEND
  0
POINT
  5
2615
330
260D
100
AcDbEntity
  8
Defpoints
 62
     0
100
AcDbPoint
 10
2596.597118216469
 20
-216.7250592265923
 30
0.0
  0
POINT
  5
2616
330
260D
100
AcDbEntity
  8
Defpoints
 62
     0
100
AcDbPoint
 10
2596.597118216469
 20
-482.7250592265921
 30
0.0
  0
POINT
  5
2617
330
260D
100
AcDbEntity
  8
Defpoints
 62
     0
100
AcDbPoint
 10
2485.675883409357
 20
-482.7250592265921
 30
0.0
  0
ENDBLK
  5
2618
330
260D
100
AcDbEntity
  8
0
100
AcDbBlockEnd
  0
BLOCK
  5
278C
330
278B
100
AcDbEntity
  8
0
100
AcDbBlockBegin
  2
*D17
 70
     1
 10
0.0
 20
0.0
 30
0.0
  3
*D17
  1

  0
LINE
  5
27BF
330
278B
100
AcDbEntity
  8
SIZE
 62
     0
370
    -2
100
AcDbLine
 10
748.5596650790227
 20
-756.2569562942736
 30
0.0
 11
748.5596650790227
 21
-837.0679440113914
 31
0.0
  0
LINE
  5
27C0
330
278B
100
AcDbEntity
  8
SIZE
 62
     0
370
    -2
100
AcDbLine
 10
2040.559665079022
 20
-755.3724202117997
 30
0.0
 11
2040.559665079022
 21
-837.0679440113914
 31
0.0
  0
LINE
  5
27C1
330
278B
100
AcDbEntity
  8
SIZE
 62
     0
370
    -2
100
AcDbLine
 10
748.7396650790226
 20
-836.8879440113916
 30
0.0
 11
1393.779665079022
 21
-836.8879440113916
 31
0.0
  0
LINE
  5
27C2
330
278B
100
AcDbEntity
  8
SIZE
 62
     0
370
    -2
100
AcDbLine
 10
2040.379665079022
 20
-836.8879440113916
 30
0.0
 11
1395.339665079022
 21
-836.8879440113916
 31
0.0
  0
SOLID
  5
27C3
330
278B
100
AcDbEntity
  8
SIZE
 62
     0
100
AcDbTrace
 10
748.7396650790226
 20
-836.8579440113913
 30
0.0
 11
748.7396650790226
 21
-836.9179440113914
 31
0.0
 12
748.5596650790227
 22
-836.8879440113916
 32
0.0
 13
748.5596650790227
 23
-836.8879440113916
 33
0.0
  0
SOLID
  5
27C4
330
278B
100
AcDbEntity
  8
SIZE
 62
     0
100
AcDbTrace
 10
2040.379665079022
 20
-836.8579440113913
 30
0.0
 11
2040.379665079022
 21
-836.9179440113914
 31
0.0
 12
2040.559665079022
 22
-836.8879440113916
 32
0.0
 13
2040.559665079022
 23
-836.8879440113916
 33
0.0
  0
MTEXT
  5
27C5
330
278B
100
AcDbEntity
  8
SIZE
 62
     0
100
AcDbMText
 10
1394.559665079022
 20
-836.8879440113916
 30
0.0
 40
0.18
 41
0.0
 71
     5
 72
     1
  1
\A1;1292.0000
 73
     1
 44
1.0
1001
ACAD
1000
MTEXTBEGIN
1070
    73
1070
     1
1070
    44
1040
1.0
1070
    74
1070
     0
1000
MTEXTEND
  0
POINT
  5
27C6
330
278B
100
AcDbEntity
  8
Defpoints
 62
     0
100
AcDbPoint
 10
748.5596650790227
 20
-756.1944562942736
 30
0.0
  0
POINT
  5
27C7
330
278B
100
AcDbEntity
  8
Defpoints
 62
     0
100
AcDbPoint
 10
2040.559665079022
 20
-755.3099202117997
 30
0.0
  0
POINT
  5
27C8
330
278B
100
AcDbEntity
  8
Defpoints
 62
     0
100
AcDbPoint
 10
2040.559665079022
 20
-836.8879440113916
 30
0.0
  0
ENDBLK
  5
278D
330
278B
100
AcDbEntity
  8
0
100
AcDbBlockEnd
  0
BLOCK
  5
2799
330
2798
100
AcDbEntity
  8
0
100
AcDbBlockBegin
  2
*D18
 70
     1
 10
0.0
 20
0.0
 30
0.0
  3
*D18
  1

  0
LINE
  5
27C9
330
2798
100
AcDbEntity
  8
SIZE
 62
     0
370
    -2
100
AcDbLine
 10
752.6356888656337
 20
-756.1944562942736
 30
0.0
 11
562.4227816983467
 21
-756.1944562942736
 31
0.0
  0
LINE
  5
27CA
330
2798
100
AcDbEntity
  8
SIZE
 62
     0
370
    -2
100
AcDbLine
 10
752.6356888656216
 20
361.9937345044188
 30
0.0
 11
562.4227816983472
 21
361.9937345044188
 31
0.0
  0
LINE
  5
27CB
330
2798
100
AcDbEntity
  8
SIZE
 62
     0
370
    -2
100
AcDbLine
 10
562.6027816983468
 20
-756.0144562942737
 30
0.0
 11
562.602781698347
 21
-203.2325762009012
 31
0.0
  0
LINE
  5
27CC
330
2798
100
AcDbEntity
  8
SIZE
 62
     0
370
    -2
100
AcDbLine
 10
562.6027816983471
 20
361.8137345044189
 30
0.0
 11
562.602781698347
 21
-202.8725762009012
 31
0.0
  0
MTEXT
  5
27CD
330
2798
100
AcDbEntity
  8
SIZE
 62
     0
100
AcDbMText
 10
562.6027816983471
 20
-203.0525762009012
 30
0.0
 40
0.18
 41
0.0
 71
     5
 72
     1
  1
\A1;1118.0000
 73
     1
 44
1.0
1001
ACAD
1000
MTEXTBEGIN
1070
    73
1070
     1
1070
    44
1040
1.0
1070
    74
1070
     0
1000
MTEXTEND
  0
SOLID
  5
27CE
330
2798
100
AcDbEntity
  8
SIZE
 62
     0
100
AcDbTrace
 10
562.5727816983468
 20
-756.0144562942737
 30
0.0
 11
562.6327816983469
 21
-756.0144562942737
 31
0.0
 12
562.6027816983468
 22
-756.1944562942736
 32
0.0
 13
562.6027816983468
 23
-756.1944562942736
 33
0.0
  0
SOLID
  5
27CF
330
2798
100
AcDbEntity
  8
SIZE
 62
     0
100
AcDbTrace
 10
562.572781698347
 20
361.8137345044189
 30
0.0
 11
562.632781698347
 21
361.8137345044189
 31
0.0
 12
562.6027816983471
 22
361.9937345044188
 32
0.0
 13
562.6027816983471
 23
361.9937345044188
 33
0.0
  0
POINT
  5
27D0
330
2798
100
AcDbEntity
  8
Defpoints
 62
     0
100
AcDbPoint
 10
752.6981888656337
 20
-756.1944562942736
 30
0.0
  0
POINT
  5
27D1
330
2798
100
AcDbEntity
  8
Defpoints
 62
     0
100
AcDbPoint
 10
752.6981888656216
 20
361.9937345044188
 30
0.0
  0
POINT
  5
27D2
330
2798
100
AcDbEntity
  8
Defpoints
 62
     0
100
AcDbPoint
 10
562.6027816983471
 20
361.9937345044188
 30
0.0
  0
ENDBLK
  5
279A
330
2798
100
AcDbEntity
  8
0
100
AcDbBlockEnd
  0
BLOCK
  5
27A6
330
27A5
100
AcDbEntity
  8
0
100
AcDbBlockBegin
  2
*D19
 70
     1
 10
0.0
 20
0.0
 30
0.0
  3
*D19
  1

  0
LINE
  5
27D3
330
27A5
100
AcDbEntity
  8
SIZE
 62
     0
370
    -2
100
AcDbLine
 10
733.4971650790227
 20
-118.3099202118
 30
0.0
 11
622.4584302719111
 21
-118.3099202117999
 31
0.0
  0
LINE
  5
27D4
330
27A5
100
AcDbEntity
  8
SIZE
 62
     0
370
    -2
100
AcDbLine
 10
733.4971650790227
 20
-468.3099202118
 30
0.0
 11
622.4584302719107
 21
-468.3099202118
 31
0.0
  0
LINE
  5
27D5
330
27A5
100
AcDbEntity
  8
SIZE
 62
     0
370
    -2
100
AcDbLine
 10
622.638430271911
 20
-118.4899202118
 30
0.0
 11
622.6384302719107
 21
-293.1299202118
 31
0.0
  0
LINE
  5
27D6
330
27A5
100
AcDbEntity
  8
SIZE
 62
     0
370
    -2
100
AcDbLine
 10
622.6384302719107
 20
-468.1299202118
 30
0.0
 11
622.6384302719107
 21
-293.4899202118
 31
0.0
  0
SOLID
  5
27D7
330
27A5
100
AcDbEntity
  8
SIZE
 62
     0
100
AcDbTrace
 10
622.608430271911
 20
-118.4899202118
 30
0.0
 11
622.6684302719108
 21
-118.4899202118
 31
0.0
 12
622.638430271911
 22
-118.3099202117999
 32
0.0
 13
622.638430271911
 23
-118.3099202117999
 33
0.0
  0
SOLID
  5
27D8
330
27A5
100
AcDbEntity
  8
SIZE
 62
     0
100
AcDbTrace
 10
622.6084302719108
 20
-468.1299202118
 30
0.0
 11
622.6684302719108
 21
-468.1299202118
 31
0.0
 12
622.6384302719107
 22
-468.3099202118
 32
0.0
 13
622.6384302719107
 23
-468.3099202118
 33
0.0
  0
MTEXT
  5
27D9
330
27A5
100
AcDbEntity
  8
SIZE
 62
     0
100
AcDbMText
 10
622.638430271911
 20
-293.3099202117999
 30
0.0
 40
0.18
 41
0.0
 71
     5
 72
     1
  1
\A1;350.0000
 73
     1
 44
1.0
1001
ACAD
1000
MTEXTBEGIN
1070
    73
1070
     1
1070
    44
1040
1.0
1070
    74
1070
     0
1000
MTEXTEND
  0
POINT
  5
27DA
330
27A5
100
AcDbEntity
  8
Defpoints
 62
     0
100
AcDbPoint
 10
733.5596650790226
 20
-118.3099202118
 30
0.0
  0
POINT
  5
27DB
330
27A5
100
AcDbEntity
  8
Defpoints
 62
     0
100
AcDbPoint
 10
733.5596650790226
 20
-468.3099202118
 30
0.0
  0
POINT
  5
27DC
330
27A5
100
AcDbEntity
  8
Defpoints
 62
     0
100
AcDbPoint
 10
622.6384302719107
 20
-468.3099202118
 30
0.0
  0
ENDBLK
  5
27A7
330
27A5
100
AcDbEntity
  8
0
100
AcDbBlockEnd
  0
BLOCK
  5
27B3
330
27B2
100
AcDbEntity
  8
0
100
AcDbBlockBegin
  2
*D20
 70
     1
 10
0.0
 20
0.0
 30
0.0
  3
*D20
  1

  0
LINE
  5
27DD
330
27B2
100
AcDbEntity
  8
SIZE
 62
     0
370
    -2
100
AcDbLine
 10
733.4971650790227
 20
-468.3099202118
 30
0.0
 11
622.4584302719107
 21
-468.3099202118
 31
0.0
  0
LINE
  5
27DE
330
27B2
100
AcDbEntity
  8
SIZE
 62
     0
370
    -2
100
AcDbLine
 10
733.4971650790227
 20
-734.3099202117997
 30
0.0
 11
622.4584302719107
 21
-734.3099202117997
 31
0.0
  0
LINE
  5
27DF
330
27B2
100
AcDbEntity
  8
SIZE
 62
     0
370
    -2
100
AcDbLine
 10
622.6384302719107
 20
-468.4899202118
 30
0.0
 11
622.6384302719107
 21
-601.1299202118
 31
0.0
  0
LINE
  5
27E0
330
27B2
100
AcDbEntity
  8
SIZE
 62
     0
370
    -2
100
AcDbLine
 10
622.6384302719107
 20
-734.1299202117999
 30
0.0
 11
622.6384302719107
 21
-601.4899202117998
 31
0.0
  0
SOLID
  5
27E1
330
27B2
100
AcDbEntity
  8
SIZE
 62
     0
100
AcDbTrace
 10
622.6084302719108
 20
-468.4899202118
 30
0.0
 11
622.6684302719108
 21
-468.4899202118
 31
0.0
 12
622.6384302719107
 22
-468.3099202118
 32
0.0
 13
622.6384302719107
 23
-468.3099202118
 33
0.0
  0
SOLID
  5
27E2
330
27B2
100
AcDbEntity
  8
SIZE
 62
     0
100
AcDbTrace
 10
622.6084302719108
 20
-734.1299202117999
 30
0.0
 11
622.6684302719108
 21
-734.1299202117999
 31
0.0
 12
622.6384302719107
 22
-734.3099202117997
 32
0.0
 13
622.6384302719107
 23
-734.3099202117997
 33
0.0
  0
MTEXT
  5
27E3
330
27B2
100
AcDbEntity
  8
SIZE
 62
     0
100
AcDbMText
 10
622.638430271911
 20
-601.3099202117999
 30
0.0
 40
0.18
 41
0.0
 71
     5
 72
     1
  1
\A1;266.0000
 73
     1
 44
1.0
1001
ACAD
1000
MTEXTBEGIN
1070
    73
1070
     1
1070
    44
1040
1.0
1070
    74
1070
     0
1000
MTEXTEND
  0
POINT
  5
27E4
330
27B2
100
AcDbEntity
  8
Defpoints
 62
     0
100
AcDbPoint
 10
733.5596650790226
 20
-468.3099202118
 30
0.0
  0
POINT
  5
27E5
330
27B2
100
AcDbEntity
  8
Defpoints
 62
     0
100
AcDbPoint
 10
733.5596650790226
 20
-734.3099202117997
 30
0.0
  0
POINT
  5
27E6
330
27B2
100
AcDbEntity
  8
Defpoints
 62
     0
100
AcDbPoint
 10
622.6384302719107
 20
-734.3099202117997
 30
0.0
  0
ENDBLK
  5
27B4
330
27B2
100
AcDbEntity
  8
0
100
AcDbBlockEnd
  0
BLOCK
  5
27E9
330
27E8
100
AcDbEntity
  8
0
100
AcDbBlockBegin
  2
*D21
 70
     1
 10
0.0
 20
0.0
 30
0.0
  3
*D21
  1

  0
LINE
  5
27EB
330
27E8
100
AcDbEntity
  8
SIZE
 62
     0
370
    -2
100
AcDbLine
 10
-541.1704328251121
 20
-324.5694457364899
 30
0.0
 11
-541.1704328251121
 21
-161.0482133336257
 31
0.0
  0
LINE
  5
27EC
330
27E8
100
AcDbEntity
  8
SIZE
 62
     0
370
    -2
100
AcDbLine
 10
-85.17043282511213
 20
-324.56944573649
 30
0.0
 11
-85.17043282511211
 21
-161.0482133336257
 31
0.0
  0
LINE
  5
27ED
330
27E8
100
AcDbEntity
  8
SIZE
 62
     0
370
    -2
100
AcDbLine
 10
-538.6704328251121
 20
-161.2282133336257
 30
0.0
 11
-87.67043282511211
 21
-161.2282133336257
 31
0.0
  0
INSERT
  5
27EE
330
27E8
100
AcDbEntity
  8
SIZE
 62
     0
370
    -2
100
AcDbBlockReference
  2
_OPEN30
 10
-541.1704328251121
 20
-161.2282133336257
 30
0.0
 41
2.5
 42
2.5
 43
2.5
 50
180.0
  0
INSERT
  5
27EF
330
27E8
100
AcDbEntity
  8
SIZE
 62
     0
370
    -2
100
AcDbBlockReference
  2
_OPEN30
 10
-85.17043282511211
 20
-161.2282133336257
 30
0.0
 41
2.5
 42
2.5
 43
2.5
  0
MTEXT
  5
27F0
330
27E8
100
AcDbEntity
  8
SIZE
 62
     0
100
AcDbMText
 10
-313.1704328251121
 20
-158.4782133336257
 30
0.0
 40
2.5
 41
0.0
 71
     5
 72
     1
  1
\A1;456.0000
 73
     1
 44
1.0
1001
ACAD
1000
MTEXTBEGIN
1070
    73
1070
     1
1070
    44
1040
1.0
1070
    74
1070
     0
1000
MTEXTEND
  0
POINT
  5
27F1
330
27E8
100
AcDbEntity
  8
Defpoints
 62
     0
100
AcDbPoint
 10
-541.1704328251121
 20
-324.6319457364899
 30
0.0
  0
POINT
  5
27F2
330
27E8
100
AcDbEntity
  8
Defpoints
 62
     0
100
AcDbPoint
 10
-85.17043282511213
 20
-324.63194573649
 30
0.0
  0
POINT
  5
27F3
330
27E8
100
AcDbEntity
  8
Defpoints
 62
     0
100
AcDbPoint
 10
-85.17043282511211
 20
-161.2282133336257
 30
0.0
  0
ENDBLK
  5
27EA
330
27E8
100
AcDbEntity
  8
0
100
AcDbBlockEnd
  0
BLOCK
  5
27F6
330
27F5
100
AcDbEntity
  8
0
100
AcDbBlockBegin
  2
*D22
 70
     1
 10
0.0
 20
0.0
 30
0.0
  3
*D22
  1

  0
LINE
  5
27F8
330
27F5
100
AcDbEntity
  8
SIZE
 62
     0
370
    -2
100
AcDbLine
 10
-540.1704328251121
 20
-323.5194457364898
 30
0.0
 11
-540.1704328251121
 21
-270.4265233344762
 31
0.0
  0
LINE
  5
27F9
330
27F5
100
AcDbEntity
  8
SIZE
 62
     0
370
    -2
100
AcDbLine
 10
-86.17043282511213
 20
-323.5676916398625
 30
0.0
 11
-86.17043282511213
 21
-270.4265233344762
 31
0.0
  0
LINE
  5
27FA
330
27F5
100
AcDbEntity
  8
SIZE
 62
     0
370
    -2
100
AcDbLine
 10
-527.6704328251121
 20
-271.3265233344762
 30
0.0
 11
-98.67043282511213
 21
-271.3265233344762
 31
0.0
  0
INSERT
  5
27FB
330
27F5
100
AcDbEntity
  8
SIZE
 62
     0
370
    -2
100
AcDbBlockReference
  2
_OPEN30
 10
-540.1704328251121
 20
-271.3265233344762
 30
0.0
 41
12.5
 42
12.5
 43
12.5
 50
180.0
  0
INSERT
  5
27FC
330
27F5
100
AcDbEntity
  8
SIZE
 62
     0
370
    -2
100
AcDbBlockReference
  2
_OPEN30
 10
-86.17043282511213
 20
-271.3265233344762
 30
0.0
 41
12.5
 42
12.5
 43
12.5
  0
MTEXT
  5
27FD
330
27F5
100
AcDbEntity
  8
SIZE
 62
     0
100
AcDbMText
 10
-313.1704328251121
 20
-257.5765233344762
 30
0.0
 40
12.5
 41
0.0
 71
     5
 72
     1
  1
\A1;454.0000
 73
     1
 44
1.0
1001
ACAD
1000
MTEXTBEGIN
1070
    73
1070
     1
1070
    44
1040
1.0
1070
    74
1070
     0
1000
MTEXTEND
  0
POINT
  5
27FE
330
27F5
100
AcDbEntity
  8
Defpoints
 62
     0
100
AcDbPoint
 10
-540.1704328251121
 20
-323.8319457364899
 30
0.0
  0
POINT
  5
27FF
330
27F5
100
AcDbEntity
  8
Defpoints
 62
     0
100
AcDbPoint
 10
-86.17043282511213
 20
-323.8801916398625
 30
0.0
  0
POINT
  5
2800
330
27F5
100
AcDbEntity
  8
Defpoints
 62
     0
100
AcDbPoint
 10
-86.17043282511213
 20
-271.3265233344762
 30
0.0
  0
ENDBLK
  5
27F7
330
27F5
100
AcDbEntity
  8
0
100
AcDbBlockEnd
  0
BLOCK
  5
2803
330
2802
100
AcDbEntity
  8
0
100
AcDbBlockBegin
  2
*D23
 70
     1
 10
0.0
 20
0.0
 30
0.0
  3
*D23
  1

  0
LINE
  5
2805
330
2802
100
AcDbEntity
  8
SIZE
 62
     0
370
    -2
100
AcDbLine
 10
-541.1704328251121
 20
-324.3194457364899
 30
0.0
 11
-541.1704328251121
 21
-178.9177578401041
 31
0.0
  0
LINE
  5
2806
330
2802
100
AcDbEntity
  8
SIZE
 62
     0
370
    -2
100
AcDbLine
 10
-85.17043282511213
 20
-324.31944573649
 30
0.0
 11
-85.17043282511211
 21
-178.9177578401041
 31
0.0
  0
LINE
  5
2807
330
2802
100
AcDbEntity
  8
SIZE
 62
     0
370
    -2
100
AcDbLine
 10
-528.6704328251121
 20
-179.8177578401041
 30
0.0
 11
-97.67043282511213
 21
-179.8177578401041
 31
0.0
  0
INSERT
  5
2808
330
2802
100
AcDbEntity
  8
SIZE
 62
     0
370
    -2
100
AcDbBlockReference
  2
_OPEN30
 10
-541.1704328251121
 20
-179.8177578401041
 30
0.0
 41
12.5
 42
12.5
 43
12.5
 50
180.0
  0
INSERT
  5
2809
330
2802
100
AcDbEntity
  8
SIZE
 62
     0
370
    -2
100
AcDbBlockReference
  2
_OPEN30
 10
-85.17043282511211
 20
-179.8177578401041
 30
0.0
 41
12.5
 42
12.5
 43
12.5
  0
MTEXT
  5
280A
330
2802
100
AcDbEntity
  8
SIZE
 62
     0
100
AcDbMText
 10
-313.1704328251121
 20
-166.0677578401041
 30
0.0
 40
12.5
 41
0.0
 71
     5
 72
     1
  1
\A1;456
 73
     1
 44
1.0
1001
ACAD
1000
MTEXTBEGIN
1070
    73
1070
     1
1070
    44
1040
1.0
1070
    74
1070
     0
1000
MTEXTEND
  0
POINT
  5
280B
330
2802
100
AcDbEntity
  8
Defpoints
 62
     0
100
AcDbPoint
 10
-541.1704328251121
 20
-324.6319457364899
 30
0.0
  0
POINT
  5
280C
330
2802
100
AcDbEntity
  8
Defpoints
 62
     0
100
AcDbPoint
 10
-85.17043282511213
 20
-324.63194573649
 30
0.0
  0
POINT
  5
280D
330
2802
100
AcDbEntity
  8
Defpoints
 62
     0
100
AcDbPoint
 10
-85.17043282511211
 20
-179.8177578401041
 30
0.0
  0
ENDBLK
  5
2804
330
2802
100
AcDbEntity
  8
0
100
AcDbBlockEnd
  0
BLOCK
  5
290B
330
290A
100
AcDbEntity
  8
0
100
AcDbBlockBegin
  2
*D24
 70
     1
 10
0.0
 20
0.0
 30
0.0
  3
*D24
  1

  0
LINE
  5
2C3B
330
290A
100
AcDbEntity
  8
SIZE
 62
     0
370
    -2
100
AcDbLine
 10
-541.1704328251121
 20
-321.5069457364899
 30
0.0
 11
-541.1704328251121
 21
-251.963474220373
 31
0.0
  0
LINE
  5
2C3C
330
290A
100
AcDbEntity
  8
SIZE
 62
     0
370
    -2
100
AcDbLine
 10
-85.17043282511213
 20
-321.50694573649
 30
0.0
 11
-85.17043282511213
 21
-251.963474220373
 31
0.0
  0
LINE
  5
2C3D
330
290A
100
AcDbEntity
  8
SIZE
 62
     0
370
    -2
100
AcDbLine
 10
-528.6704328251121
 20
-258.213474220373
 30
0.0
 11
-97.67043282511213
 21
-258.213474220373
 31
0.0
  0
INSERT
  5
2C3E
330
290A
100
AcDbEntity
  8
SIZE
 62
     0
370
    -2
100
AcDbBlockReference
  2
_OPEN30
 10
-541.1704328251121
 20
-258.213474220373
 30
0.0
 41
12.5
 42
12.5
 43
12.5
 50
180.0
  0
INSERT
  5
2C3F
330
290A
100
AcDbEntity
  8
SIZE
 62
     0
370
    -2
100
AcDbBlockReference
  2
_OPEN30
 10
-85.17043282511213
 20
-258.213474220373
 30
0.0
 41
12.5
 42
12.5
 43
12.5
  0
MTEXT
  5
2C40
330
290A
100
AcDbEntity
  8
SIZE
 62
     0
100
AcDbMText
 10
-313.1704328251121
 20
-246.963474220373
 30
0.0
 40
12.5
 41
0.0
 71
     5
 72
     1
  1
\A1;456
 73
     1
 44
1.0
1001
ACAD
1000
MTEXTBEGIN
1070
    73
1070
     1
1070
    44
1040
1.0
1070
    74
1070
     0
1000
MTEXTEND
  0
POINT
  5
2C41
330
290A
100
AcDbEntity
  8
Defpoints
 62
     0
100
AcDbPoint
 10
-541.1704328251121
 20
-324.6319457364899
 30
0.0
  0
POINT
  5
2C42
330
290A
100
AcDbEntity
  8
Defpoints
 62
     0
100
AcDbPoint
 10
-85.17043282511213
 20
-324.63194573649
 30
0.0
  0
POINT
  5
2C43
330
290A
100
AcDbEntity
  8
Defpoints
 62
     0
100
AcDbPoint
 10
-85.17043282511213
 20
-258.213474220373
 30
0.0
  0
ENDBLK
  5
290C
330
290A
100
AcDbEntity
  8
0
100
AcDbBlockEnd
  0
BLOCK
  5
293C
330
293B
100
AcDbEntity
  8
0
100
AcDbBlockBegin
  2
*D25
 70
     1
 10
0.0
 20
0.0
 30
0.0
  3
*D25
  1

  0
LINE
  5
297F
330
293B
100
AcDbEntity
  8
SIZE
  6
ByBlock
 62
     0
370
    -2
100
AcDbLine
 10
-507.0704328251121
 20
-792.2444457364895
 30
0.0
 11
-507.0704328251121
 21
-876.0583632767902
 31
0.0
  0
LINE
  5
2980
330
293B
100
AcDbEntity
  8
SIZE
  6
ByBlock
 62
     0
370
    -2
100
AcDbLine
 10
-119.270432825112
 20
-792.24444573649
 30
0.0
 11
-119.270432825112
 21
-876.0583632767902
 31
0.0
  0
LINE
  5
2981
330
293B
100
AcDbEntity
  8
SIZE
  6
ByBlock
 62
     0
370
    -2
100
AcDbLine
 10
-494.5704328251121
 20
-875.1583632767905
 30
0.0
 11
-131.770432825112
 21
-875.1583632767905
 31
0.0
  0
INSERT
  5
2982
330
293B
100
AcDbEntity
  8
SIZE
 62
     0
370
    -2
100
AcDbBlockReference
  2
_OPEN30
 10
-507.0704328251121
 20
-875.1583632767905
 30
0.0
 41
12.5
 42
12.5
 43
12.5
 50
180.0
  0
INSERT
  5
2983
330
293B
100
AcDbEntity
  8
SIZE
 62
     0
370
    -2
100
AcDbBlockReference
  2
_OPEN30
 10
-119.270432825112
 20
-875.1583632767905
 30
0.0
 41
12.5
 42
12.5
 43
12.5
  0
MTEXT
  5
2984
330
293B
100
AcDbEntity
  8
SIZE
 62
     0
100
AcDbMText
 10
-313.1704328251121
 20
-861.4083632767902
 30
0.0
 40
12.5
 41
0.0
 71
     5
 72
     1
  1
\A1;388
 73
     1
 44
1.0
1001
ACAD
1000
MTEXTBEGIN
1070
    73
1070
     1
1070
    44
1040
1.0
1070
    74
1070
     0
1000
MTEXTEND
  0
POINT
  5
2985
330
293B
100
AcDbEntity
  8
Defpoints
 62
     0
100
AcDbPoint
 10
-507.0704328251121
 20
-791.9319457364895
 30
0.0
  0
POINT
  5
2986
330
293B
100
AcDbEntity
  8
Defpoints
 62
     0
100
AcDbPoint
 10
-119.270432825112
 20
-791.93194573649
 30
0.0
  0
POINT
  5
2987
330
293B
100
AcDbEntity
  8
Defpoints
 62
     0
100
AcDbPoint
 10
-119.270432825112
 20
-875.1583632767905
 30
0.0
  0
ENDBLK
  5
293D
330
293B
100
AcDbEntity
  8
0
100
AcDbBlockEnd
  0
BLOCK
  5
298B
330
298A
100
AcDbEntity
  8
0
100
AcDbBlockBegin
  2
*D26
 70
     1
 10
0.0
 20
0.0
 30
0.0
  3
*D26
  1

  0
LINE
  5
29D3
330
298A
100
AcDbEntity
  8
NOTE
 62
     0
370
    -2
100
AcDbLine
 10
-610.7390605002786
 20
-852.562575506
 30
0.0
 11
-559.1914414526582
 21
-852.562575506
 31
0.0
  0
LINE
  5
29D4
330
298A
100
AcDbEntity
  8
NOTE
 62
     0
370
    -2
100
AcDbLine
 10
-559.1914414526582
 20
-852.562575506
 30
0.0
 11
-516.6204037638221
 21
-798.1404696058932
 31
0.0
  0
MTEXT
  5
29D5
102
{ACAD_XDICTIONARY
360
412C
102
}
330
298A
100
AcDbEntity
  8
NOTE
 62
     0
100
AcDbMText
 10
-587.4652509764691
 20
-841.3125755060004
 30
0.0
 40
12.5
 41
0.0
 71
     5
 72
     1
  1
\A1;4×\U+22056
 73
     1
 44
1.0
1001
ACAD
1000
MTEXTBEGIN
1070
    73
1070
     1
1070
    44
1040
1.0
1070
    74
1070
     0
1000
MTEXTEND
  0
INSERT
  5
29D6
330
298A
100
AcDbEntity
  8
NOTE
 62
     0
370
    -2
100
AcDbBlockReference
  2
_OPEN30
 10
-508.9188142971202
 20
-788.2948858402452
 30
0.0
 41
12.5
 42
12.5
 43
12.5
 50
51.96613272391616
  0
POINT
  5
29D7
330
298A
100
AcDbEntity
  8
Defpoints
 62
     0
100
AcDbPoint
 10
-508.9188142971202
 20
-788.2948858402452
 30
0.0
  0
POINT
  5
29D8
330
298A
100
AcDbEntity
  8
Defpoints
 62
     0
100
AcDbPoint
 10
-505.2220513531039
 20
-783.5690056327347
 30
0.0
  0
ENDBLK
  5
298C
330
298A
100
AcDbEntity
  8
0
100
AcDbBlockEnd
  0
BLOCK
  5
2B26
330
2B25
100
AcDbEntity
  8
0
100
AcDbBlockBegin
  2
*D27
 70
     1
 10
0.0
 20
0.0
 30
0.0
  3
*D27
  1

  0
LINE
  5
2B28
330
2B25
100
AcDbEntity
  8
SIZE
  6
ByBlock
 62
     0
370
    -2
100
AcDbLine
 10
-526.4829328251121
 20
-334.6319457364899
 30
0.0
 11
-581.2773491163735
 21
-334.6319457364899
 31
0.0
  0
LINE
  5
2B29
330
2B25
100
AcDbEntity
  8
SIZE
  6
ByBlock
 62
     0
370
    -2
100
AcDbLine
 10
-513.382932825112
 20
-785.9319457364895
 30
0.0
 11
-581.2773491163738
 21
-785.9319457364895
 31
0.0
  0
LINE
  5
2B2A
330
2B25
100
AcDbEntity
  8
SIZE
  6
ByBlock
 62
     0
370
    -2
100
AcDbLine
 10
-580.3773491163735
 20
-347.1319457364899
 30
0.0
 11
-580.3773491163735
 21
-773.4319457364895
 31
0.0
  0
INSERT
  5
2B2B
330
2B25
100
AcDbEntity
  8
SIZE
 62
     0
370
    -2
100
AcDbBlockReference
  2
_OPEN30
 10
-580.3773491163735
 20
-334.6319457364899
 30
0.0
 41
12.5
 42
12.5
 43
12.5
 50
90.0
  0
INSERT
  5
2B2C
330
2B25
100
AcDbEntity
  8
SIZE
 62
     0
370
    -2
100
AcDbBlockReference
  2
_OPEN30
 10
-580.3773491163735
 20
-785.9319457364895
 30
0.0
 41
12.5
 42
12.5
 43
12.5
 50
270.0
  0
MTEXT
  5
2B2D
330
2B25
100
AcDbEntity
  8
SIZE
 62
     0
100
AcDbMText
 10
-594.1273491163732
 20
-560.2819457364899
 30
0.0
 40
12.5
 41
0.0
 71
     5
 72
     1
  1
\A1;451
 11
0.0000000000000001
 21
1.0
 31
0.0
 73
     1
 44
1.0
1001
ACAD
1000
MTEXTBEGIN
1070
    73
1070
     1
1070
    44
1040
1.0
1070
    74
1070
     0
1000
MTEXTEND
  0
POINT
  5
2B2E
330
2B25
100
AcDbEntity
  8
Defpoints
 62
     0
100
AcDbPoint
 10
-526.1704328251121
 20
-334.6319457364899
 30
0.0
  0
POINT
  5
2B2F
330
2B25
100
AcDbEntity
  8
Defpoints
 62
     0
100
AcDbPoint
 10
-513.0704328251121
 20
-785.9319457364895
 30
0.0
  0
POINT
  5
2B30
330
2B25
100
AcDbEntity
  8
Defpoints
 62
     0
100
AcDbPoint
 10
-580.3773491163735
 20
-785.9319457364895
 30
0.0
  0
ENDBLK
  5
2B27
330
2B25
100
AcDbEntity
  8
0
100
AcDbBlockEnd
  0
BLOCK
  5
2B33
330
2B32
100
AcDbEntity
  8
0
100
AcDbBlockBegin
  2
*D28
 70
     1
 10
0.0
 20
0.0
 30
0.0
  3
*D28
  1

  0
LINE
  5
2B35
330
2B32
100
AcDbEntity
  8
SIZE
  6
ByBlock
 62
     0
370
    -2
100
AcDbLine
 10
-540.4829328251121
 20
-323.8319457364899
 30
0.0
 11
-615.1847595533887
 21
-323.8319457364899
 31
0.0
  0
LINE
  5
2B36
330
2B32
100
AcDbEntity
  8
SIZE
  6
ByBlock
 62
     0
370
    -2
100
AcDbLine
 10
-541.4829328251121
 20
-809.6319457364897
 30
0.0
 11
-615.1847595533893
 21
-809.6319457364897
 31
0.0
  0
LINE
  5
2B37
330
2B32
100
AcDbEntity
  8
SIZE
  6
ByBlock
 62
     0
370
    -2
100
AcDbLine
 10
-614.2847595533891
 20
-336.3319457364899
 30
0.0
 11
-614.2847595533893
 21
-797.1319457364897
 31
0.0
  0
INSERT
  5
2B38
330
2B32
100
AcDbEntity
  8
SIZE
 62
     0
370
    -2
100
AcDbBlockReference
  2
_OPEN30
 10
-614.2847595533891
 20
-323.8319457364899
 30
0.0
 41
12.5
 42
12.5
 43
12.5
 50
90.0
  0
INSERT
  5
2B39
330
2B32
100
AcDbEntity
  8
SIZE
 62
     0
370
    -2
100
AcDbBlockReference
  2
_OPEN30
 10
-614.2847595533893
 20
-809.6319457364897
 30
0.0
 41
12.5
 42
12.5
 43
12.5
 50
270.0
  0
MTEXT
  5
2B3A
330
2B32
100
AcDbEntity
  8
SIZE
 62
     0
100
AcDbMText
 10
-628.0347595533887
 20
-566.7319457364897
 30
0.0
 40
12.5
 41
0.0
 71
     5
 72
     1
  1
\A1;486
 11
0.0000000000000001
 21
1.0
 31
0.0
 73
     1
 44
1.0
1001
ACAD
1000
MTEXTBEGIN
1070
    73
1070
     1
1070
    44
1040
1.0
1070
    74
1070
     0
1000
MTEXTEND
  0
POINT
  5
2B3B
330
2B32
100
AcDbEntity
  8
Defpoints
 62
     0
100
AcDbPoint
 10
-540.1704328251121
 20
-323.8319457364899
 30
0.0
  0
POINT
  5
2B3C
330
2B32
100
AcDbEntity
  8
Defpoints
 62
     0
100
AcDbPoint
 10
-541.1704328251121
 20
-809.6319457364897
 30
0.0
  0
POINT
  5
2B3D
330
2B32
100
AcDbEntity
  8
Defpoints
 62
     0
100
AcDbPoint
 10
-614.2847595533893
 20
-809.6319457364897
 30
0.0
  0
ENDBLK
  5
2B34
330
2B32
100
AcDbEntity
  8
0
100
AcDbBlockEnd
  0
BLOCK
  5
2C30
330
2C2F
100
AcDbEntity
  8
0
100
AcDbBlockBegin
  2
*D29
 70
     1
 10
0.0
 20
0.0
 30
0.0
  3
*D29
  1

  0
LINE
  5
2C32
330
2C2F
100
AcDbEntity
  8
SIZE
  6
ByBlock
 62
     0
370
    -2
100
AcDbLine
 10
-520.1704328251121
 20
-328.3194457364899
 30
0.0
 11
-520.1704328251121
 21
-290.1970666099064
 31
0.0
  0
LINE
  5
2C33
330
2C2F
100
AcDbEntity
  8
SIZE
  6
ByBlock
 62
     0
370
    -2
100
AcDbLine
 10
-106.1704328251121
 20
-328.3194457364899
 30
0.0
 11
-106.1704328251121
 21
-290.1970666099064
 31
0.0
  0
LINE
  5
2C34
330
2C2F
100
AcDbEntity
  8
SIZE
  6
ByBlock
 62
     0
370
    -2
100
AcDbLine
 10
-507.6704328251121
 20
-291.0970666099064
 30
0.0
 11
-118.6704328251121
 21
-291.0970666099064
 31
0.0
  0
INSERT
  5
2C35
330
2C2F
100
AcDbEntity
  8
SIZE
 62
     0
370
    -2
100
AcDbBlockReference
  2
_OPEN30
 10
-520.1704328251121
 20
-291.0970666099064
 30
0.0
 41
12.5
 42
12.5
 43
12.5
 50
180.0
  0
INSERT
  5
2C36
330
2C2F
100
AcDbEntity
  8
SIZE
 62
     0
370
    -2
100
AcDbBlockReference
  2
_OPEN30
 10
-106.1704328251121
 20
-291.0970666099064
 30
0.0
 41
12.5
 42
12.5
 43
12.5
  0
MTEXT
  5
2C37
330
2C2F
100
AcDbEntity
  8
SIZE
 62
     0
100
AcDbMText
 10
-313.1704328251121
 20
-277.3470666099064
 30
0.0
 40
12.5
 41
0.0
 71
     5
 72
     1
  1
\A1;414
 73
     1
 44
1.0
1001
ACAD
1000
MTEXTBEGIN
1070
    73
1070
     1
1070
    44
1040
1.0
1070
    74
1070
     0
1000
MTEXTEND
  0
POINT
  5
2C38
330
2C2F
100
AcDbEntity
  8
Defpoints
 62
     0
100
AcDbPoint
 10
-520.1704328251121
 20
-328.6319457364899
 30
0.0
  0
POINT
  5
2C39
330
2C2F
100
AcDbEntity
  8
Defpoints
 62
     0
100
AcDbPoint
 10
-106.1704328251121
 20
-328.6319457364899
 30
0.0
  0
POINT
  5
2C3A
330
2C2F
100
AcDbEntity
  8
Defpoints
 62
     0
100
AcDbPoint
 10
-106.1704328251121
 20
-291.0970666099064
 30
0.0
  0
ENDBLK
  5
2C31
330
2C2F
100
AcDbEntity
  8
0
100
AcDbBlockEnd
  0
BLOCK
  5
2E7B
330
2E7A
100
AcDbEntity
  8
0
100
AcDbBlockBegin
  2
*D30
 70
     1
 10
0.0
 20
0.0
 30
0.0
  3
*D30
  1

  0
LINE
  5
2FD6
330
2E7A
100
AcDbEntity
  8
SIZE
 62
     0
370
    -2
100
AcDbLine
 10
307.0427485785242
 20
-296.8515773997371
 30
0.0
 11
307.0427485785242
 21
-272.6442210052874
 31
0.0
  0
LINE
  5
2FD7
330
2E7A
100
AcDbEntity
  8
SIZE
 62
     0
370
    -2
100
AcDbLine
 10
640.0427485785241
 20
-296.8515773997374
 30
0.0
 11
640.0427485785241
 21
-272.6442210052874
 31
0.0
  0
LINE
  5
2FD8
330
2E7A
100
AcDbEntity
  8
SIZE
 62
     0
370
    -2
100
AcDbLine
 10
319.5427485785242
 20
-278.8942210052874
 30
0.0
 11
627.5427485785241
 21
-278.8942210052874
 31
0.0
  0
INSERT
  5
2FD9
330
2E7A
100
AcDbEntity
  8
SIZE
 62
     0
370
    -2
100
AcDbBlockReference
  2
_OPEN30
 10
307.0427485785242
 20
-278.8942210052874
 30
0.0
 41
12.5
 42
12.5
 43
12.5
 50
180.0
  0
INSERT
  5
2FDA
330
2E7A
100
AcDbEntity
  8
SIZE
 62
     0
370
    -2
100
AcDbBlockReference
  2
_OPEN30
 10
640.0427485785241
 20
-278.8942210052874
 30
0.0
 41
12.5
 42
12.5
 43
12.5
  0
MTEXT
  5
2FDB
330
2E7A
100
AcDbEntity
  8
SIZE
 62
     0
100
AcDbMText
 10
473.542748578524
 20
-269.5192210052874
 30
0.0
 40
12.5
 41
0.0
 71
     5
 72
     1
  1
333
 73
     1
 44
1.0
1001
ACAD
1000
MTEXTBEGIN
1070
    73
1070
     1
1070
    44
1040
1.0
1070
    74
1070
     0
1000
MTEXTEND
  0
POINT
  5
2FDC
330
2E7A
100
AcDbEntity
  8
Defpoints
 62
     0
100
AcDbPoint
 10
307.0427485785242
 20
-299.9765773997371
 30
0.0
  0
POINT
  5
2FDD
330
2E7A
100
AcDbEntity
  8
Defpoints
 62
     0
100
AcDbPoint
 10
640.0427485785241
 20
-299.9765773997374
 30
0.0
  0
POINT
  5
2FDE
330
2E7A
100
AcDbEntity
  8
Defpoints
 62
     0
100
AcDbPoint
 10
640.0427485785241
 20
-278.8942210052874
 30
0.0
  0
ENDBLK
  5
2E7C
330
2E7A
100
AcDbEntity
  8
0
100
AcDbBlockEnd
  0
BLOCK
  5
2E88
330
2E87
100
AcDbEntity
  8
0
100
AcDbBlockBegin
  2
*D31
 70
     1
 10
0.0
 20
0.0
 30
0.0
  3
*D31
  1

  0
LINE
  5
2FF1
330
2E87
100
AcDbEntity
  8
SIZE
 62
     0
370
    -2
100
AcDbLine
 10
248.5427485785235
 20
-805.1015773997381
 30
0.0
 11
248.5427485785235
 21
-857.1699034545391
 31
0.0
  0
LINE
  5
2FF2
330
2E87
100
AcDbEntity
  8
SIZE
 62
     0
370
    -2
100
AcDbLine
 10
713.5427485785235
 20
-805.1015773997381
 30
0.0
 11
713.5427485785235
 21
-857.1699034545391
 31
0.0
  0
LINE
  5
2FF3
330
2E87
100
AcDbEntity
  8
SIZE
 62
     0
370
    -2
100
AcDbLine
 10
261.0427485785235
 20
-850.9199034545391
 30
0.0
 11
701.0427485785235
 21
-850.9199034545391
 31
0.0
  0
INSERT
  5
2FF4
330
2E87
100
AcDbEntity
  8
SIZE
 62
     0
370
    -2
100
AcDbBlockReference
  2
_OPEN30
 10
248.5427485785235
 20
-850.9199034545391
 30
0.0
 41
12.5
 42
12.5
 43
12.5
 50
180.0
  0
INSERT
  5
2FF5
330
2E87
100
AcDbEntity
  8
SIZE
 62
     0
370
    -2
100
AcDbBlockReference
  2
_OPEN30
 10
713.5427485785235
 20
-850.9199034545391
 30
0.0
 41
12.5
 42
12.5
 43
12.5
  0
MTEXT
  5
2FF6
330
2E87
100
AcDbEntity
  8
SIZE
 62
     0
100
AcDbMText
 10
481.0427485785234
 20
-841.5449034545391
 30
0.0
 40
12.5
 41
0.0
 71
     5
 72
     1
  1
465
 73
     1
 44
1.0
1001
ACAD
1000
MTEXTBEGIN
1070
    73
1070
     1
1070
    44
1040
1.0
1070
    74
1070
     0
1000
MTEXTEND
  0
POINT
  5
2FF7
330
2E87
100
AcDbEntity
  8
Defpoints
 62
     0
100
AcDbPoint
 10
248.5427485785235
 20
-801.9765773997381
 30
0.0
  0
POINT
  5
2FF8
330
2E87
100
AcDbEntity
  8
Defpoints
 62
     0
100
AcDbPoint
 10
713.5427485785235
 20
-801.9765773997381
 30
0.0
  0
POINT
  5
2FF9
330
2E87
100
AcDbEntity
  8
Defpoints
 62
     0
100
AcDbPoint
 10
713.5427485785235
 20
-850.9199034545391
 30
0.0
  0
ENDBLK
  5
2E89
330
2E87
100
AcDbEntity
  8
0
100
AcDbBlockEnd
  0
BLOCK
  5
2E95
330
2E94
100
AcDbEntity
  8
0
100
AcDbBlockBegin
  2
*D32
 70
     1
 10
0.0
 20
0.0
 30
0.0
  3
*D32
  1

  0
LINE
  5
2ED0
330
2E94
100
AcDbEntity
  8
NOTE
  6
ByBlock
100
AcDbLine
 10
239.6133471694137
 20
-799.5292032744181
 30
0.0
 11
205.8768175351007
 21
-845.0657125389223
 31
0.0
  0
LINE
  5
2ED1
330
2E94
100
AcDbEntity
  8
NOTE
  6
ByBlock
100
AcDbLine
 10
205.8768175351007
 20
-845.0657125389223
 30
0.0
 11
154.3291984874817
 21
-845.0657125389223
 31
0.0
  0
INSERT
  5
2ED2
330
2E94
100
AcDbEntity
  8
NOTE
100
AcDbBlockReference
  2
_OPEN30
 10
247.0545150103386
 20
-789.4853483788522
 30
0.0
 41
12.5
 42
12.5
 43
12.5
 50
53.46644730896504
  0
MTEXT
  5
2ED3
102
{ACAD_XDICTIONARY
360
412E
102
}
330
2E94
100
AcDbEntity
  8
NOTE
100
AcDbMText
 10
177.603008011291
 20
-833.8157125389223
 30
0.0
 40
12.5
 41
0.0
 71
     5
 72
     1
  1
2×\U+22055
 73
     1
 44
1.0
1001
ACAD
1000
MTEXTBEGIN
1070
    73
1070
     1
1070
    44
1040
1.0
1070
    74
1070
     0
1000
MTEXTEND
  0
POINT
  5
2ED4
330
2E94
100
AcDbEntity
  8
Defpoints
 62
     0
100
AcDbPoint
 10
247.0545150103386
 20
-789.4853483788522
 30
0.0
  0
POINT
  5
2ED5
330
2E94
100
AcDbEntity
  8
Defpoints
 62
     0
100
AcDbPoint
 10
250.0309821467086
 20
-785.4678064206256
 30
0.0
  0
ENDBLK
  5
2E96
330
2E94
100
AcDbEntity
  8
0
100
AcDbBlockEnd
  0
BLOCK
  5
2ED8
330
2ED7
100
AcDbEntity
  8
0
100
AcDbBlockBegin
  2
*D33
 70
     1
 10
0.0
 20
0.0
 30
0.0
  3
*D33
  1

  0
LINE
  5
2F40
330
2ED7
100
AcDbEntity
  8
NOTE
  6
ByBlock
100
AcDbLine
 10
300.4241118423845
 20
-301.0157584144366
 30
0.0
 11
269.721601743545
 21
-238.5737560337574
 31
0.0
  0
LINE
  5
2F41
330
2ED7
100
AcDbEntity
  8
NOTE
  6
ByBlock
100
AcDbLine
 10
269.721601743545
 20
-238.5737560337574
 30
0.0
 11
218.1739826959259
 21
-238.5737560337574
 31
0.0
  0
INSERT
  5
2F42
330
2ED7
100
AcDbEntity
  8
NOTE
100
AcDbBlockReference
  2
_OPEN30
 10
305.9396424558338
 20
-312.2331075688538
 30
0.0
 41
12.5
 42
12.5
 43
12.5
 50
296.1831811749218
  0
MTEXT
  5
2F43
102
{ACAD_XDICTIONARY
360
4130
102
}
330
2ED7
100
AcDbEntity
  8
NOTE
100
AcDbMText
 10
241.4477922197352
 20
-227.3237560337575
 30
0.0
 40
12.5
 41
0.0
 71
     5
 72
     1
  1
4×\U+22055
 73
     1
 44
1.0
1001
ACAD
1000
MTEXTBEGIN
1070
    73
1070
     1
1070
    44
1040
1.0
1070
    74
1070
     0
1000
MTEXTEND
  0
POINT
  5
2F44
330
2ED7
100
AcDbEntity
  8
Defpoints
 62
     0
100
AcDbPoint
 10
305.9396424558338
 20
-312.2331075688538
 30
0.0
  0
POINT
  5
2F45
330
2ED7
100
AcDbEntity
  8
Defpoints
 62
     0
100
AcDbPoint
 10
308.1458547012137
 20
-316.7200472306212
 30
0.0
  0
ENDBLK
  5
2ED9
330
2ED7
100
AcDbEntity
  8
0
100
AcDbBlockEnd
  0
BLOCK
  5
2F15
330
2F14
100
AcDbEntity
  8
0
100
AcDbBlockBegin
  2
*D34
 70
     1
 10
0.0
 20
0.0
 30
0.0
  3
*D34
  1

  0
LINE
  5
2FCD
330
2F14
100
AcDbEntity
  8
SIZE
 62
     0
370
    -2
100
AcDbLine
 10
203.5427485785236
 20
-319.351577399738
 30
0.0
 11
203.5427485785236
 21
-245.1039305407713
 31
0.0
  0
LINE
  5
2FCE
330
2F14
100
AcDbEntity
  8
SIZE
 62
     0
370
    -2
100
AcDbLine
 10
743.5427485785234
 20
-319.3515773997384
 30
0.0
 11
743.5427485785234
 21
-245.1039305407713
 31
0.0
  0
LINE
  5
2FCF
330
2F14
100
AcDbEntity
  8
SIZE
 62
     0
370
    -2
100
AcDbLine
 10
216.0427485785236
 20
-251.3539305407713
 30
0.0
 11
731.0427485785234
 21
-251.3539305407713
 31
0.0
  0
INSERT
  5
2FD0
330
2F14
100
AcDbEntity
  8
SIZE
 62
     0
370
    -2
100
AcDbBlockReference
  2
_OPEN30
 10
203.5427485785236
 20
-251.3539305407713
 30
0.0
 41
12.5
 42
12.5
 43
12.5
 50
180.0
  0
INSERT
  5
2FD1
330
2F14
100
AcDbEntity
  8
SIZE
 62
     0
370
    -2
100
AcDbBlockReference
  2
_OPEN30
 10
743.5427485785234
 20
-251.3539305407713
 30
0.0
 41
12.5
 42
12.5
 43
12.5
  0
MTEXT
  5
2FD2
330
2F14
100
AcDbEntity
  8
SIZE
 62
     0
100
AcDbMText
 10
473.5427485785233
 20
-241.9789305407713
 30
0.0
 40
12.5
 41
0.0
 71
     5
 72
     1
  1
540
 73
     1
 44
1.0
1001
ACAD
1000
MTEXTBEGIN
1070
    73
1070
     1
1070
    44
1040
1.0
1070
    74
1070
     0
1000
MTEXTEND
  0
POINT
  5
2FD3
330
2F14
100
AcDbEntity
  8
Defpoints
 62
     0
100
AcDbPoint
 10
203.5427485785236
 20
-322.476577399738
 30
0.0
  0
POINT
  5
2FD4
330
2F14
100
AcDbEntity
  8
Defpoints
 62
     0
100
AcDbPoint
 10
743.5427485785234
 20
-322.4765773997384
 30
0.0
  0
POINT
  5
2FD5
330
2F14
100
AcDbEntity
  8
Defpoints
 62
     0
100
AcDbPoint
 10
743.5427485785234
 20
-251.3539305407713
 30
0.0
  0
ENDBLK
  5
2F16
330
2F14
100
AcDbEntity
  8
0
100
AcDbBlockEnd
  0
BLOCK
  5
2F22
330
2F21
100
AcDbEntity
  8
0
100
AcDbBlockBegin
  2
*D35
 70
     1
 10
0.0
 20
0.0
 30
0.0
  3
*D35
  1

  0
LINE
  5
2FE8
330
2F21
100
AcDbEntity
  8
SIZE
 62
     0
370
    -2
100
AcDbLine
 10
204.4177485785239
 20
-305.9765773997372
 30
0.0
 11
122.176204702311
 21
-305.9765773997372
 31
0.0
  0
LINE
  5
2FE9
330
2F21
100
AcDbEntity
  8
SIZE
 62
     0
370
    -2
100
AcDbLine
 10
205.9177485785233
 20
-795.976577399738
 30
0.0
 11
122.1762047023109
 21
-795.976577399738
 31
0.0
  0
LINE
  5
2FEA
330
2F21
100
AcDbEntity
  8
SIZE
 62
     0
370
    -2
100
AcDbLine
 10
128.426204702311
 20
-318.4765773997372
 30
0.0
 11
128.4262047023109
 21
-783.476577399738
 31
0.0
  0
INSERT
  5
2FEB
330
2F21
100
AcDbEntity
  8
SIZE
 62
     0
370
    -2
100
AcDbBlockReference
  2
_OPEN30
 10
128.426204702311
 20
-305.9765773997372
 30
0.0
 41
12.5
 42
12.5
 43
12.5
 50
90.0
  0
INSERT
  5
2FEC
330
2F21
100
AcDbEntity
  8
SIZE
 62
     0
370
    -2
100
AcDbBlockReference
  2
_OPEN30
 10
128.4262047023109
 20
-795.976577399738
 30
0.0
 41
12.5
 42
12.5
 43
12.5
 50
270.0
  0
MTEXT
  5
2FED
330
2F21
100
AcDbEntity
  8
SIZE
 62
     0
100
AcDbMText
 10
119.0512047023111
 20
-550.9765773997376
 30
0.0
 40
12.5
 41
0.0
 71
     5
 72
     1
  1
490
 11
0.0000000000000001
 21
1.0
 31
0.0
 73
     1
 44
1.0
1001
ACAD
1000
MTEXTBEGIN
1070
    73
1070
     1
1070
    44
1040
1.0
1070
    74
1070
     0
1000
MTEXTEND
  0
POINT
  5
2FEE
330
2F21
100
AcDbEntity
  8
Defpoints
 62
     0
100
AcDbPoint
 10
207.5427485785239
 20
-305.9765773997372
 30
0.0
  0
POINT
  5
2FEF
330
2F21
100
AcDbEntity
  8
Defpoints
 62
     0
100
AcDbPoint
 10
209.0427485785233
 20
-795.976577399738
 30
0.0
  0
POINT
  5
2FF0
330
2F21
100
AcDbEntity
  8
Defpoints
 62
     0
100
AcDbPoint
 10
128.4262047023109
 20
-795.976577399738
 30
0.0
  0
ENDBLK
  5
2F23
330
2F21
100
AcDbEntity
  8
0
100
AcDbBlockEnd
  0
BLOCK
  5
2F2F
330
2F2E
100
AcDbEntity
  8
0
100
AcDbBlockBegin
  2
*D36
 70
     1
 10
0.0
 20
0.0
 30
0.0
  3
*D36
  1

  0
LINE
  5
2FDF
330
2F2E
100
AcDbEntity
  8
SIZE
 62
     0
370
    -2
100
AcDbLine
 10
289.4177485785242
 20
-314.4765773997372
 30
0.0
 11
152.0312925863527
 21
-314.4765773997372
 31
0.0
  0
LINE
  5
2FE0
330
2F2E
100
AcDbEntity
  8
SIZE
 62
     0
370
    -2
100
AcDbLine
 10
230.9177485785233
 20
-787.476577399738
 30
0.0
 11
152.0312925863525
 21
-787.476577399738
 31
0.0
  0
LINE
  5
2FE1
330
2F2E
100
AcDbEntity
  8
SIZE
 62
     0
370
    -2
100
AcDbLine
 10
158.2812925863526
 20
-326.9765773997372
 30
0.0
 11
158.2812925863525
 21
-774.976577399738
 31
0.0
  0
INSERT
  5
2FE2
330
2F2E
100
AcDbEntity
  8
SIZE
 62
     0
370
    -2
100
AcDbBlockReference
  2
_OPEN30
 10
158.2812925863527
 20
-314.4765773997372
 30
0.0
 41
12.5
 42
12.5
 43
12.5
 50
90.0
  0
INSERT
  5
2FE3
330
2F2E
100
AcDbEntity
  8
SIZE
 62
     0
370
    -2
100
AcDbBlockReference
  2
_OPEN30
 10
158.2812925863525
 20
-787.476577399738
 30
0.0
 41
12.5
 42
12.5
 43
12.5
 50
270.0
  0
MTEXT
  5
2FE4
330
2F2E
100
AcDbEntity
  8
SIZE
 62
     0
100
AcDbMText
 10
148.9062925863527
 20
-550.9765773997375
 30
0.0
 40
12.5
 41
0.0
 71
     5
 72
     1
  1
473
 11
0.0000000000000001
 21
1.0
 31
0.0
 73
     1
 44
1.0
1001
ACAD
1000
MTEXTBEGIN
1070
    73
1070
     1
1070
    44
1040
1.0
1070
    74
1070
     0
1000
MTEXTEND
  0
POINT
  5
2FE5
330
2F2E
100
AcDbEntity
  8
Defpoints
 62
     0
100
AcDbPoint
 10
292.5427485785242
 20
-314.4765773997372
 30
0.0
  0
POINT
  5
2FE6
330
2F2E
100
AcDbEntity
  8
Defpoints
 62
     0
100
AcDbPoint
 10
234.0427485785233
 20
-787.476577399738
 30
0.0
  0
POINT
  5
2FE7
330
2F2E
100
AcDbEntity
  8
Defpoints
 62
     0
100
AcDbPoint
 10
158.2812925863525
 20
-787.476577399738
 30
0.0
  0
ENDBLK
  5
2F30
330
2F2E
100
AcDbEntity
  8
0
100
AcDbBlockEnd
  0
BLOCK
  5
3256
330
3255
100
AcDbEntity
  8
0
100
AcDbBlockBegin
  2
*D37
 70
     1
 10
0.0
 20
0.0
 30
0.0
  3
*D37
  1

  0
LINE
  5
3258
330
3255
100
AcDbEntity
  8
SIZE
  6
ByBlock
 62
     0
370
    -2
100
AcDbLine
 10
1061.054671121954
 20
-283.069635253661
 30
0.0
 11
1061.054671121954
 21
-249.6630958658954
 31
0.0
  0
LINE
  5
3259
330
3255
100
AcDbEntity
  8
SIZE
  6
ByBlock
 62
     0
370
    -2
100
AcDbLine
 10
1526.054671121954
 20
-283.0696352536613
 30
0.0
 11
1526.054671121954
 21
-249.6630958658954
 31
0.0
  0
LINE
  5
325A
330
3255
100
AcDbEntity
  8
SIZE
  6
ByBlock
 62
     0
370
    -2
100
AcDbLine
 10
1073.554671121954
 20
-255.9130958658954
 30
0.0
 11
1513.554671121954
 21
-255.9130958658954
 31
0.0
  0
INSERT
  5
325B
330
3255
100
AcDbEntity
  8
SIZE
 62
     0
370
    -2
100
AcDbBlockReference
  2
_OPEN30
 10
1061.054671121954
 20
-255.9130958658954
 30
0.0
 41
12.5
 42
12.5
 43
12.5
 50
180.0
  0
INSERT
  5
325C
330
3255
100
AcDbEntity
  8
SIZE
 62
     0
370
    -2
100
AcDbBlockReference
  2
_OPEN30
 10
1526.054671121954
 20
-255.9130958658954
 30
0.0
 41
12.5
 42
12.5
 43
12.5
  0
MTEXT
  5
325D
330
3255
100
AcDbEntity
  8
SIZE
 62
     0
100
AcDbMText
 10
1293.554671121954
 20
-246.5380958658954
 30
0.0
 40
12.5
 41
0.0
 71
     5
 72
     1
  1
465
 73
     1
 44
1.0
1001
ACAD
1000
MTEXTBEGIN
1070
    73
1070
     1
1070
    44
1040
1.0
1070
    74
1070
     0
1000
MTEXTEND
  0
POINT
  5
325E
330
3255
100
AcDbEntity
  8
Defpoints
 62
     0
100
AcDbPoint
 10
1061.054671121954
 20
-286.194635253661
 30
0.0
  0
POINT
  5
325F
330
3255
100
AcDbEntity
  8
Defpoints
 62
     0
100
AcDbPoint
 10
1526.054671121954
 20
-286.1946352536613
 30
0.0
  0
POINT
  5
3260
330
3255
100
AcDbEntity
  8
Defpoints
 62
     0
100
AcDbPoint
 10
1526.054671121954
 20
-255.9130958658954
 30
0.0
  0
ENDBLK
  5
3257
330
3255
100
AcDbEntity
  8
0
100
AcDbBlockEnd
  0
BLOCK
  5
3263
330
3262
100
AcDbEntity
  8
0
100
AcDbBlockBegin
  2
*D38
 70
     1
 10
0.0
 20
0.0
 30
0.0
  3
*D38
  1

  0
LINE
  5
326E
330
3262
100
AcDbEntity
  8
SIZE
  6
ByBlock
 62
     0
370
    -2
100
AcDbLine
 10
1060.354671121953
 20
-862.069635253662
 30
0.0
 11
1060.354671121953
 21
-180.1358997779626
 31
0.0
  0
LINE
  5
326F
330
3262
100
AcDbEntity
  8
SIZE
  6
ByBlock
 62
     0
370
    -2
100
AcDbLine
 10
1525.354671121952
 20
-862.069635253662
 30
0.0
 11
1525.354671121952
 21
-180.1358997779626
 31
0.0
  0
LINE
  5
3270
330
3262
100
AcDbEntity
  8
SIZE
  6
ByBlock
 62
     0
370
    -2
100
AcDbLine
 10
1072.854671121953
 20
-186.3858997779626
 30
0.0
 11
1512.854671121953
 21
-186.3858997779626
 31
0.0
  0
INSERT
  5
3271
330
3262
100
AcDbEntity
  8
SIZE
 62
     0
370
    -2
100
AcDbBlockReference
  2
_OPEN30
 10
1060.354671121953
 20
-186.3858997779626
 30
0.0
 41
12.5
 42
12.5
 43
12.5
 50
180.0
  0
INSERT
  5
3272
330
3262
100
AcDbEntity
  8
SIZE
 62
     0
370
    -2
100
AcDbBlockReference
  2
_OPEN30
 10
1525.354671121952
 20
-186.3858997779626
 30
0.0
 41
12.5
 42
12.5
 43
12.5
  0
MTEXT
  5
3273
330
3262
100
AcDbEntity
  8
SIZE
 62
     0
100
AcDbMText
 10
1292.854671121953
 20
-177.0108997779626
 30
0.0
 40
12.5
 41
0.0
 71
     5
 72
     1
  1
465
 73
     1
 44
1.0
1001
ACAD
1000
MTEXTBEGIN
1070
    73
1070
     1
1070
    44
1040
1.0
1070
    74
1070
     0
1000
MTEXTEND
  0
POINT
  5
3274
330
3262
100
AcDbEntity
  8
Defpoints
 62
     0
100
AcDbPoint
 10
1060.354671121953
 20
-865.194635253662
 30
0.0
  0
POINT
  5
3275
330
3262
100
AcDbEntity
  8
Defpoints
 62
     0
100
AcDbPoint
 10
1525.354671121952
 20
-865.194635253662
 30
0.0
  0
POINT
  5
3276
330
3262
100
AcDbEntity
  8
Defpoints
 62
     0
100
AcDbPoint
 10
1525.354671121952
 20
-186.3858997779626
 30
0.0
  0
ENDBLK
  5
3264
330
3262
100
AcDbEntity
  8
0
100
AcDbBlockEnd
  0
BLOCK
  5
336C
330
336B
100
AcDbEntity
  8
0
100
AcDbBlockBegin
  2
*D39
 70
     1
 10
0.0
 20
0.0
 30
0.0
  3
*D39
  1

  0
LINE
  5
336E
330
336B
100
AcDbEntity
  8
SIZE
  6
ByBlock
 62
     0
370
    -2
100
AcDbLine
 10
1045.429671121954
 20
-298.694635253661
 30
0.0
 11
973.0342610974616
 21
-298.694635253661
 31
0.0
  0
LINE
  5
336F
330
336B
100
AcDbEntity
  8
SIZE
  6
ByBlock
 62
     0
370
    -2
100
AcDbLine
 10
1045.429671121954
 20
-852.694635253662
 30
0.0
 11
973.0342610974613
 21
-852.694635253662
 31
0.0
  0
LINE
  5
3370
330
336B
100
AcDbEntity
  8
SIZE
  6
ByBlock
 62
     0
370
    -2
100
AcDbLine
 10
979.2842610974616
 20
-311.194635253661
 30
0.0
 11
979.2842610974613
 21
-840.194635253662
 31
0.0
  0
INSERT
  5
3371
330
336B
100
AcDbEntity
  8
SIZE
 62
     0
370
    -2
100
AcDbBlockReference
  2
_OPEN30
 10
979.2842610974616
 20
-298.694635253661
 30
0.0
 41
12.5
 42
12.5
 43
12.5
 50
90.0
  0
INSERT
  5
3372
330
336B
100
AcDbEntity
  8
SIZE
 62
     0
370
    -2
100
AcDbBlockReference
  2
_OPEN30
 10
979.2842610974613
 20
-852.694635253662
 30
0.0
 41
12.5
 42
12.5
 43
12.5
 50
270.0
  0
MTEXT
  5
3373
330
336B
100
AcDbEntity
  8
SIZE
 62
     0
100
AcDbMText
 10
969.9092610974616
 20
-575.6946352536613
 30
0.0
 40
12.5
 41
0.0
 71
     5
 72
     1
  1
554
 11
0.0000000000000001
 21
1.0
 31
0.0
 73
     1
 44
1.0
1001
ACAD
1000
MTEXTBEGIN
1070
    73
1070
     1
1070
    44
1040
1.0
1070
    74
1070
     0
1000
MTEXTEND
  0
POINT
  5
3374
330
336B
100
AcDbEntity
  8
Defpoints
 62
     0
100
AcDbPoint
 10
1048.554671121954
 20
-298.694635253661
 30
0.0
  0
POINT
  5
3375
330
336B
100
AcDbEntity
  8
Defpoints
 62
     0
100
AcDbPoint
 10
1048.554671121954
 20
-852.694635253662
 30
0.0
  0
POINT
  5
3376
330
336B
100
AcDbEntity
  8
Defpoints
 62
     0
100
AcDbPoint
 10
979.2842610974613
 20
-852.694635253662
 30
0.0
  0
ENDBLK
  5
336D
330
336B
100
AcDbEntity
  8
0
100
AcDbBlockEnd
  0
BLOCK
  5
3379
330
3378
100
AcDbEntity
  8
0
100
AcDbBlockBegin
  2
*D40
 70
     1
 10
0.0
 20
0.0
 30
0.0
  3
*D40
  1

  0
LINE
  5
337B
330
3378
100
AcDbEntity
  8
SIZE
  6
ByBlock
 62
     0
370
    -2
100
AcDbLine
 10
1024.429671121953
 20
-290.1946352536613
 30
0.0
 11
940.2952961643558
 21
-290.1946352536613
 31
0.0
  0
LINE
  5
337C
330
3378
100
AcDbEntity
  8
SIZE
  6
ByBlock
 62
     0
370
    -2
100
AcDbLine
 10
1025.929671121952
 20
-861.1946352536621
 30
0.0
 11
940.2952961643556
 21
-861.1946352536621
 31
0.0
  0
LINE
  5
337D
330
3378
100
AcDbEntity
  8
SIZE
  6
ByBlock
 62
     0
370
    -2
100
AcDbLine
 10
946.5452961643558
 20
-302.6946352536613
 30
0.0
 11
946.5452961643556
 21
-848.6946352536621
 31
0.0
  0
INSERT
  5
337E
330
3378
100
AcDbEntity
  8
SIZE
 62
     0
370
    -2
100
AcDbBlockReference
  2
_OPEN30
 10
946.5452961643558
 20
-290.1946352536613
 30
0.0
 41
12.5
 42
12.5
 43
12.5
 50
90.0
  0
INSERT
  5
337F
330
3378
100
AcDbEntity
  8
SIZE
 62
     0
370
    -2
100
AcDbBlockReference
  2
_OPEN30
 10
946.5452961643556
 20
-861.1946352536621
 30
0.0
 41
12.5
 42
12.5
 43
12.5
 50
270.0
  0
MTEXT
  5
3380
330
3378
100
AcDbEntity
  8
SIZE
 62
     0
100
AcDbMText
 10
937.170296164356
 20
-575.6946352536616
 30
0.0
 40
12.5
 41
0.0
 71
     5
 72
     1
  1
571
 11
0.0000000000000001
 21
1.0
 31
0.0
 73
     1
 44
1.0
1001
ACAD
1000
MTEXTBEGIN
1070
    73
1070
     1
1070
    44
1040
1.0
1070
    74
1070
     0
1000
MTEXTEND
  0
POINT
  5
3381
330
3378
100
AcDbEntity
  8
Defpoints
 62
     0
100
AcDbPoint
 10
1027.554671121953
 20
-290.1946352536613
 30
0.0
  0
POINT
  5
3382
330
3378
100
AcDbEntity
  8
Defpoints
 62
     0
100
AcDbPoint
 10
1029.054671121952
 20
-861.1946352536621
 30
0.0
  0
POINT
  5
3383
330
3378
100
AcDbEntity
  8
Defpoints
 62
     0
100
AcDbPoint
 10
946.5452961643556
 20
-861.1946352536621
 30
0.0
  0
ENDBLK
  5
337A
330
3378
100
AcDbEntity
  8
0
100
AcDbBlockEnd
  0
BLOCK
  5
3386
330
3385
100
AcDbEntity
  8
0
100
AcDbBlockBegin
  2
*D41
 70
     1
 10
0.0
 20
0.0
 30
0.0
  3
*D41
  1

  0
LINE
  5
33B2
330
3385
100
AcDbEntity
  8
NOTE
  6
ByBlock
100
AcDbLine
 10
1055.89636384677
 20
-284.6094705029452
 30
0.0
 11
1033.257333810785
 21
-222.79181388768
 31
0.0
  0
LINE
  5
33B3
330
3385
100
AcDbEntity
  8
NOTE
  6
ByBlock
100
AcDbLine
 10
1033.257333810785
 20
-222.79181388768
 30
0.0
 11
962.6620957155465
 21
-222.7918138876801
 31
0.0
  0
INSERT
  5
33B4
330
3385
100
AcDbEntity
  8
NOTE
100
AcDbBlockReference
  2
_OPEN30
 10
1060.194953242755
 20
-296.3471077952082
 30
0.0
 41
12.5
 42
12.5
 43
12.5
 50
290.113878169499
  0
MTEXT
  5
33B5
330
3385
100
AcDbEntity
  8
NOTE
100
AcDbMText
 10
995.4597147631627
 20
-211.5418138876812
 30
0.0
 40
12.5
 41
0.0
 71
     5
 72
     1
  1
2×R2.5
 73
     1
 44
1.0
1001
ACAD
1000
MTEXTBEGIN
1070
    73
1070
     1
1070
    44
1040
1.0
1070
    74
1070
     0
1000
MTEXTEND
  0
POINT
  5
33B6
330
3385
100
AcDbEntity
  8
Defpoints
 62
     0
100
AcDbPoint
 10
1060.194953242755
 20
-296.3471077952082
 30
0.0
  0
POINT
  5
33B7
330
3385
100
AcDbEntity
  8
Defpoints
 62
     0
100
AcDbPoint
 10
1061.91438900115
 20
-301.0421627121143
 30
0.0
  0
ENDBLK
  5
3387
330
3385
100
AcDbEntity
  8
0
100
AcDbBlockEnd
  0
BLOCK
  5
33BA
330
33B9
100
AcDbEntity
  8
0
100
AcDbBlockBegin
  2
*D42
 70
     1
 10
0.0
 20
0.0
 30
0.0
  3
*D42
  1

  0
LINE
  5
3403
330
33B9
100
AcDbEntity
  8
NOTE
  6
ByBlock
100
AcDbLine
 10
1053.654298829558
 20
-865.7420292438017
 30
0.0
 11
1033.618854826501
 21
-901.0659726005419
 31
0.0
  0
LINE
  5
3404
330
33B9
100
AcDbEntity
  8
NOTE
  6
ByBlock
100
AcDbLine
 10
1033.618854826501
 20
-901.0659726005419
 30
0.0
 11
982.0712357788822
 21
-901.0659726005419
 31
0.0
  0
INSERT
  5
3405
330
33B9
100
AcDbEntity
  8
NOTE
100
AcDbBlockReference
  2
_OPEN30
 10
1059.821275739886
 20
-854.8692009186837
 30
0.0
 41
12.5
 42
12.5
 43
12.5
 50
60.43845676532605
  0
MTEXT
  5
3406
102
{ACAD_XDICTIONARY
360
4132
102
}
330
33B9
100
AcDbEntity
  8
NOTE
100
AcDbMText
 10
1005.345045302693
 20
-889.8159726005429
 30
0.0
 40
12.5
 41
0.0
 71
     5
 72
     1
  1
2×\U+22055
 73
     1
 44
1.0
1001
ACAD
1000
MTEXTBEGIN
1070
    73
1070
     1
1070
    44
1040
1.0
1070
    74
1070
     0
1000
MTEXTEND
  0
POINT
  5
3407
330
33B9
100
AcDbEntity
  8
Defpoints
 62
     0
100
AcDbPoint
 10
1059.821275739886
 20
-854.8692009186837
 30
0.0
  0
POINT
  5
3408
330
33B9
100
AcDbEntity
  8
Defpoints
 62
     0
100
AcDbPoint
 10
1062.288066504018
 20
-850.5200695886365
 30
0.0
  0
ENDBLK
  5
33BB
330
33B9
100
AcDbEntity
  8
0
100
AcDbBlockEnd
  0
BLOCK
  5
33F8
330
33F7
100
AcDbEntity
  8
0
100
AcDbBlockBegin
  2
*D43
 70
     1
 10
0.0
 20
0.0
 30
0.0
  3
*D43
  1

  0
LINE
  5
33FA
330
33F7
100
AcDbEntity
  8
SIZE
  6
ByBlock
 62
     0
370
    -2
100
AcDbLine
 10
1023.554671121953
 20
-303.5696352536618
 30
0.0
 11
1023.554671121953
 21
-224.8085754807251
 31
0.0
  0
LINE
  5
33FB
330
33F7
100
AcDbEntity
  8
SIZE
  6
ByBlock
 62
     0
370
    -2
100
AcDbLine
 10
1563.554671121952
 20
-303.5696352536624
 30
0.0
 11
1563.554671121952
 21
-224.8085754807251
 31
0.0
  0
LINE
  5
33FC
330
33F7
100
AcDbEntity
  8
SIZE
  6
ByBlock
 62
     0
370
    -2
100
AcDbLine
 10
1036.054671121953
 20
-231.0585754807251
 30
0.0
 11
1551.054671121952
 21
-231.0585754807251
 31
0.0
  0
INSERT
  5
33FD
330
33F7
100
AcDbEntity
  8
SIZE
 62
     0
370
    -2
100
AcDbBlockReference
  2
_OPEN30
 10
1023.554671121953
 20
-231.0585754807251
 30
0.0
 41
12.5
 42
12.5
 43
12.5
 50
180.0
  0
INSERT
  5
33FE
330
33F7
100
AcDbEntity
  8
SIZE
 62
     0
370
    -2
100
AcDbBlockReference
  2
_OPEN30
 10
1563.554671121952
 20
-231.0585754807251
 30
0.0
 41
12.5
 42
12.5
 43
12.5
  0
MTEXT
  5
33FF
330
33F7
100
AcDbEntity
  8
SIZE
 62
     0
100
AcDbMText
 10
1293.554671121952
 20
-221.6835754807251
 30
0.0
 40
12.5
 41
0.0
 71
     5
 72
     1
  1
540
 73
     1
 44
1.0
1001
ACAD
1000
MTEXTBEGIN
1070
    73
1070
     1
1070
    44
1040
1.0
1070
    74
1070
     0
1000
MTEXTEND
  0
POINT
  5
3400
330
33F7
100
AcDbEntity
  8
Defpoints
 62
     0
100
AcDbPoint
 10
1023.554671121953
 20
-306.6946352536618
 30
0.0
  0
POINT
  5
3401
330
33F7
100
AcDbEntity
  8
Defpoints
 62
     0
100
AcDbPoint
 10
1563.554671121952
 20
-306.6946352536624
 30
0.0
  0
POINT
  5
3402
330
33F7
100
AcDbEntity
  8
Defpoints
 62
     0
100
AcDbPoint
 10
1563.554671121952
 20
-231.0585754807251
 30
0.0
  0
ENDBLK
  5
33F9
330
33F7
100
AcDbEntity
  8
0
100
AcDbBlockEnd
  0
BLOCK
  5
3634
330
3633
100
AcDbEntity
  8
0
100
AcDbBlockBegin
  2
*D44
 70
     1
 10
0.0
 20
0.0
 30
0.0
  3
*D44
  1

  0
LINE
  5
3636
330
3633
100
AcDbEntity
  8
SIZE
  6
ByBlock
 62
     0
370
    -2
100
AcDbLine
 10
1949.967191469633
 20
-300.5006966460678
 30
0.0
 11
1949.967191469633
 21
-246.8132482556101
 31
0.0
  0
LINE
  5
3637
330
3633
100
AcDbEntity
  8
SIZE
  6
ByBlock
 62
     0
370
    -2
100
AcDbLine
 10
2489.967191469634
 20
-300.5006966460678
 30
0.0
 11
2489.967191469634
 21
-246.8132482556101
 31
0.0
  0
LINE
  5
3638
330
3633
100
AcDbEntity
  8
SIZE
  6
ByBlock
 62
     0
370
    -2
100
AcDbLine
 10
1962.467191469633
 20
-253.0632482556101
 30
0.0
 11
2477.467191469634
 21
-253.0632482556101
 31
0.0
  0
INSERT
  5
3639
330
3633
100
AcDbEntity
  8
SIZE
 62
     0
370
    -2
100
AcDbBlockReference
  2
_OPEN30
 10
1949.967191469633
 20
-253.0632482556101
 30
0.0
 41
12.5
 42
12.5
 43
12.5
 50
180.0
  0
INSERT
  5
363A
330
3633
100
AcDbEntity
  8
SIZE
 62
     0
370
    -2
100
AcDbBlockReference
  2
_OPEN30
 10
2489.967191469634
 20
-253.0632482556101
 30
0.0
 41
12.5
 42
12.5
 43
12.5
  0
MTEXT
  5
363B
330
3633
100
AcDbEntity
  8
SIZE
 62
     0
100
AcDbMText
 10
2219.967191469634
 20
-243.6882482556101
 30
0.0
 40
12.5
 41
0.0
 71
     5
 72
     1
  1
540
 73
     1
 44
1.0
1001
ACAD
1000
MTEXTBEGIN
1070
    73
1070
     1
1070
    44
1040
1.0
1070
    74
1070
     0
1000
MTEXTEND
  0
POINT
  5
363C
330
3633
100
AcDbEntity
  8
Defpoints
 62
     0
100
AcDbPoint
 10
1949.967191469633
 20
-303.6256966460678
 30
0.0
  0
POINT
  5
363D
330
3633
100
AcDbEntity
  8
Defpoints
 62
     0
100
AcDbPoint
 10
2489.967191469634
 20
-303.6256966460678
 30
0.0
  0
POINT
  5
363E
330
3633
100
AcDbEntity
  8
Defpoints
 62
     0
100
AcDbPoint
 10
2489.967191469634
 20
-253.0632482556101
 30
0.0
  0
ENDBLK
  5
3635
330
3633
100
AcDbEntity
  8
0
100
AcDbBlockEnd
  0
BLOCK
  5
3641
330
3640
100
AcDbEntity
  8
0
100
AcDbBlockBegin
  2
*D45
 70
     1
 10
0.0
 20
0.0
 30
0.0
  3
*D45
  1

  0
LINE
  5
3643
330
3640
100
AcDbEntity
  8
SIZE
  6
ByBlock
 62
     0
370
    -2
100
AcDbLine
 10
1943.767191469634
 20
-286.5006966460679
 30
0.0
 11
1943.767191469634
 21
-219.6031979163514
 31
0.0
  0
LINE
  5
3644
330
3640
100
AcDbEntity
  8
SIZE
  6
ByBlock
 62
     0
370
    -2
100
AcDbLine
 10
2496.167191469634
 20
-286.5006966460679
 30
0.0
 11
2496.167191469634
 21
-219.6031979163514
 31
0.0
  0
LINE
  5
3645
330
3640
100
AcDbEntity
  8
SIZE
  6
ByBlock
 62
     0
370
    -2
100
AcDbLine
 10
1956.267191469634
 20
-225.8531979163514
 30
0.0
 11
2483.667191469633
 21
-225.8531979163514
 31
0.0
  0
INSERT
  5
3646
330
3640
100
AcDbEntity
  8
SIZE
 62
     0
370
    -2
100
AcDbBlockReference
  2
_OPEN30
 10
1943.767191469634
 20
-225.8531979163514
 30
0.0
 41
12.5
 42
12.5
 43
12.5
 50
180.0
  0
INSERT
  5
3647
330
3640
100
AcDbEntity
  8
SIZE
 62
     0
370
    -2
100
AcDbBlockReference
  2
_OPEN30
 10
2496.167191469634
 20
-225.8531979163514
 30
0.0
 41
12.5
 42
12.5
 43
12.5
  0
MTEXT
  5
3648
330
3640
100
AcDbEntity
  8
SIZE
 62
     0
100
AcDbMText
 10
2219.967191469634
 20
-216.4781979163514
 30
0.0
 40
12.5
 41
0.0
 71
     5
 72
     1
  1
552.5
 73
     1
 44
1.0
1001
ACAD
1000
MTEXTBEGIN
1070
    73
1070
     1
1070
    44
1040
1.0
1070
    74
1070
     0
1000
MTEXTEND
  0
POINT
  5
3649
330
3640
100
AcDbEntity
  8
Defpoints
 62
     0
100
AcDbPoint
 10
1943.767191469634
 20
-289.6256966460679
 30
0.0
  0
POINT
  5
364A
330
3640
100
AcDbEntity
  8
Defpoints
 62
     0
100
AcDbPoint
 10
2496.167191469634
 20
-289.6256966460679
 30
0.0
  0
POINT
  5
364B
330
3640
100
AcDbEntity
  8
Defpoints
 62
     0
100
AcDbPoint
 10
2496.167191469634
 20
-225.8531979163514
 30
0.0
  0
ENDBLK
  5
3642
330
3640
100
AcDbEntity
  8
0
100
AcDbBlockEnd
  0
BLOCK
  5
364E
330
364D
100
AcDbEntity
  8
0
100
AcDbBlockBegin
  2
*D46
 70
     1
 10
0.0
 20
0.0
 30
0.0
  3
*D46
  1

  0
LINE
  5
3650
330
364D
100
AcDbEntity
  8
SIZE
  6
ByBlock
 62
     0
370
    -2
100
AcDbLine
 10
1933.842191469634
 20
-316.6256966460678
 30
0.0
 11
1882.96259898567
 21
-316.6256966460677
 31
0.0
  0
LINE
  5
3651
330
364D
100
AcDbEntity
  8
SIZE
  6
ByBlock
 62
     0
370
    -2
100
AcDbLine
 10
1933.842191469634
 20
-876.6256966460678
 30
0.0
 11
1882.962598985669
 21
-876.6256966460678
 31
0.0
  0
LINE
  5
3652
330
364D
100
AcDbEntity
  8
SIZE
  6
ByBlock
 62
     0
370
    -2
100
AcDbLine
 10
1889.21259898567
 20
-329.1256966460677
 30
0.0
 11
1889.212598985669
 21
-864.1256966460678
 31
0.0
  0
INSERT
  5
3653
330
364D
100
AcDbEntity
  8
SIZE
 62
     0
370
    -2
100
AcDbBlockReference
  2
_OPEN30
 10
1889.21259898567
 20
-316.6256966460677
 30
0.0
 41
12.5
 42
12.5
 43
12.5
 50
90.0
  0
INSERT
  5
3654
330
364D
100
AcDbEntity
  8
SIZE
 62
     0
370
    -2
100
AcDbBlockReference
  2
_OPEN30
 10
1889.212598985669
 20
-876.6256966460678
 30
0.0
 41
12.5
 42
12.5
 43
12.5
 50
270.0
  0
MTEXT
  5
3655
330
364D
100
AcDbEntity
  8
SIZE
 62
     0
100
AcDbMText
 10
1879.83759898567
 20
-596.6256966460672
 30
0.0
 40
12.5
 41
0.0
 71
     5
 72
     1
  1
560
 11
0.0000000000000001
 21
1.0
 31
0.0
 73
     1
 44
1.0
1001
ACAD
1000
MTEXTBEGIN
1070
    73
1070
     1
1070
    44
1040
1.0
1070
    74
1070
     0
1000
MTEXTEND
  0
POINT
  5
3656
330
364D
100
AcDbEntity
  8
Defpoints
 62
     0
100
AcDbPoint
 10
1936.967191469634
 20
-316.6256966460678
 30
0.0
  0
POINT
  5
3657
330
364D
100
AcDbEntity
  8
Defpoints
 62
     0
100
AcDbPoint
 10
1936.967191469634
 20
-876.6256966460678
 30
0.0
  0
POINT
  5
3658
330
364D
100
AcDbEntity
  8
Defpoints
 62
     0
100
AcDbPoint
 10
1889.212598985669
 20
-876.6256966460678
 30
0.0
  0
ENDBLK
  5
364F
330
364D
100
AcDbEntity
  8
0
100
AcDbBlockEnd
  0
BLOCK
  5
365B
330
365A
100
AcDbEntity
  8
0
100
AcDbBlockBegin
  2
*D47
 70
     1
 10
0.0
 20
0.0
 30
0.0
  3
*D47
  1

  0
LINE
  5
365D
330
365A
100
AcDbEntity
  8
SIZE
  6
ByBlock
 62
     0
370
    -2
100
AcDbLine
 10
1943.642191469633
 20
-896.6256966460678
 30
0.0
 11
1850.243938832383
 21
-896.6256966460678
 31
0.0
  0
LINE
  5
365E
330
365A
100
AcDbEntity
  8
SIZE
  6
ByBlock
 62
     0
370
    -2
100
AcDbLine
 10
1957.842191469634
 20
-285.8256966460682
 30
0.0
 11
1850.243938832383
 21
-285.825696646068
 31
0.0
  0
LINE
  5
365F
330
365A
100
AcDbEntity
  8
SIZE
  6
ByBlock
 62
     0
370
    -2
100
AcDbLine
 10
1856.493938832383
 20
-884.1256966460678
 30
0.0
 11
1856.493938832383
 21
-298.325696646068
 31
0.0
  0
INSERT
  5
3660
330
365A
100
AcDbEntity
  8
SIZE
 62
     0
370
    -2
100
AcDbBlockReference
  2
_OPEN30
 10
1856.493938832383
 20
-896.6256966460678
 30
0.0
 41
12.5
 42
12.5
 43
12.5
 50
270.0
  0
INSERT
  5
3661
330
365A
100
AcDbEntity
  8
SIZE
 62
     0
370
    -2
100
AcDbBlockReference
  2
_OPEN30
 10
1856.493938832383
 20
-285.825696646068
 30
0.0
 41
12.5
 42
12.5
 43
12.5
 50
90.0
  0
MTEXT
  5
3662
330
365A
100
AcDbEntity
  8
SIZE
 62
     0
100
AcDbMText
 10
1847.118938832383
 20
-591.2256966460676
 30
0.0
 40
12.5
 41
0.0
 71
     5
 72
     1
  1
611
 11
0.0000000000000001
 21
1.0
 31
0.0
 73
     1
 44
1.0
1001
ACAD
1000
MTEXTBEGIN
1070
    73
1070
     1
1070
    44
1040
1.0
1070
    74
1070
     0
1000
MTEXTEND
  0
POINT
  5
3663
330
365A
100
AcDbEntity
  8
Defpoints
 62
     0
100
AcDbPoint
 10
1946.767191469633
 20
-896.6256966460678
 30
0.0
  0
POINT
  5
3664
330
365A
100
AcDbEntity
  8
Defpoints
 62
     0
100
AcDbPoint
 10
1960.967191469634
 20
-285.8256966460682
 30
0.0
  0
POINT
  5
3665
330
365A
100
AcDbEntity
  8
Defpoints
 62
     0
100
AcDbPoint
 10
1856.493938832383
 20
-285.825696646068
 30
0.0
  0
ENDBLK
  5
365C
330
365A
100
AcDbEntity
  8
0
100
AcDbBlockEnd
  0
BLOCK
  5
3668
330
3667
100
AcDbEntity
  8
0
100
AcDbBlockBegin
  2
*D48
 70
     1
 10
0.0
 20
0.0
 30
0.0
  3
*D48
  1

  0
LINE
  5
3692
330
3667
100
AcDbEntity
  8
NOTE
  6
ByBlock
100
AcDbLine
 10
1943.450624105928
 20
-890.1362240152833
 30
0.0
 11
1920.50487438742
 21
-937.7086900509626
 31
0.0
  0
LINE
  5
3693
330
3667
100
AcDbEntity
  8
NOTE
  6
ByBlock
100
AcDbLine
 10
1920.50487438742
 20
-937.7086900509626
 30
0.0
 11
1868.957255339801
 21
-937.7086900509626
 31
0.0
  0
INSERT
  5
3694
330
3667
100
AcDbEntity
  8
NOTE
100
AcDbBlockReference
  2
_OPEN30
 10
1948.881096909015
 20
-878.8774512076042
 30
0.0
 41
12.5
 42
12.5
 43
12.5
 50
64.25047284171752
  0
MTEXT
  5
3695
102
{ACAD_XDICTIONARY
360
4134
102
}
330
3667
100
AcDbEntity
  8
NOTE
100
AcDbMText
 10
1892.231064863609
 20
-926.4586900509623
 30
0.0
 40
12.5
 41
0.0
 71
     5
 72
     1
  1
4×\U+22055
 73
     1
 44
1.0
1001
ACAD
1000
MTEXTBEGIN
1070
    73
1070
     1
1070
    44
1040
1.0
1070
    74
1070
     0
1000
MTEXTEND
  0
POINT
  5
3696
330
3667
100
AcDbEntity
  8
Defpoints
 62
     0
100
AcDbPoint
 10
1948.881096909015
 20
-878.8774512076042
 30
0.0
  0
POINT
  5
3697
330
3667
100
AcDbEntity
  8
Defpoints
 62
     0
100
AcDbPoint
 10
1951.05328603025
 20
-874.3739420845324
 30
0.0
  0
ENDBLK
  5
3669
330
3667
100
AcDbEntity
  8
0
100
AcDbBlockEnd
  0
BLOCK
  5
3889
330
3888
100
AcDbEntity
  8
0
100
AcDbBlockBegin
  2
*D49
 70
     1
 10
0.0
 20
0.0
 30
0.0
  3
*D49
  1

  0
LINE
  5
38C7
330
3888
100
AcDbEntity
  8
NOTE
  6
ByBlock
100
AcDbLine
 10
1942.267538486241
 20
-890.0780326489835
 30
0.0
 11
1915.559831935765
 21
-936.7400112029724
 31
0.0
  0
LINE
  5
38C8
330
3888
100
AcDbEntity
  8
NOTE
  6
ByBlock
100
AcDbLine
 10
1915.559831935765
 20
-936.7400112029724
 30
0.0
 11
1864.012212888146
 21
-936.7400112029722
 31
0.0
  0
INSERT
  5
38C9
330
3888
100
AcDbEntity
  8
NOTE
100
AcDbBlockReference
  2
_OPEN30
 10
1948.476936053493
 20
-879.2293745821167
 30
0.0
 41
12.5
 42
12.5
 43
12.5
 50
60.21466715239355
  0
MTEXT
  5
38CA
102
{ACAD_XDICTIONARY
360
4136
102
}
330
3888
100
AcDbEntity
  8
NOTE
100
AcDbMText
 10
1887.286022411957
 20
-925.4900112029732
 30
0.0
 40
12.5
 41
0.0
 71
     5
 72
     1
  1
4×\U+22056
 73
     1
 44
1.0
1001
ACAD
1000
MTEXTBEGIN
1070
    73
1070
     1
1070
    44
1040
1.0
1070
    74
1070
     0
1000
MTEXTEND
  0
POINT
  5
38CB
330
3888
100
AcDbEntity
  8
Defpoints
 62
     0
100
AcDbPoint
 10
1948.476936053493
 20
-879.2293745821167
 30
0.0
  0
POINT
  5
38CC
330
3888
100
AcDbEntity
  8
Defpoints
 62
     0
100
AcDbPoint
 10
1951.457446885775
 20
-874.0220187100206
 30
0.0
  0
ENDBLK
  5
388A
330
3888
100
AcDbEntity
  8
0
100
AcDbBlockEnd
  0
BLOCK
  5
3AFC
330
3AFB
100
AcDbEntity
  8
0
100
AcDbBlockBegin
  2
*D50
 70
     1
 10
0.0
 20
0.0
 30
0.0
  3
*D50
  1

  0
LINE
  5
3E2F
330
3AFB
100
AcDbEntity
  8
NOTE
 62
     0
370
    -2
100
AcDbLine
 10
2823.319789379997
 20
-934.1889587532419
 30
0.0
 11
2874.867408427616
 21
-934.1889587532419
 31
0.0
  0
LINE
  5
3E30
330
3AFB
100
AcDbEntity
  8
NOTE
 62
     0
370
    -2
100
AcDbLine
 10
2874.867408427616
 20
-934.1889587532419
 30
0.0
 11
2928.393469863421
 21
-867.8472038329799
 31
0.0
  0
MTEXT
  5
3E31
102
{ACAD_XDICTIONARY
360
4138
102
}
330
3AFB
100
AcDbEntity
  8
NOTE
 62
     0
100
AcDbMText
 10
2846.593598903806
 20
-922.9389587532422
 30
0.0
 40
12.5
 41
0.0
 71
     5
 72
     1
  1
\A1;4×\U+22055
 73
     1
 44
1.0
1001
ACAD
1000
MTEXTBEGIN
1070
    73
1070
     1
1070
    44
1040
1.0
1070
    74
1070
     0
1000
MTEXTEND
  0
INSERT
  5
3E32
330
3AFB
100
AcDbEntity
  8
NOTE
 62
     0
370
    -2
100
AcDbBlockReference
  2
_OPEN30
 10
2936.242565203598
 20
-858.1188071335837
 30
0.0
 41
12.5
 42
12.5
 43
12.5
 50
51.10260840988345
  0
POINT
  5
3E33
330
3AFB
100
AcDbEntity
  8
Defpoints
 62
     0
100
AcDbPoint
 10
2936.242565203598
 20
-858.1188071335837
 30
0.0
  0
POINT
  5
3E34
330
3AFB
100
AcDbEntity
  8
Defpoints
 62
     0
100
AcDbPoint
 10
2939.382203339667
 20
-854.227448453826
 30
0.0
  0
ENDBLK
  5
3AFD
330
3AFB
100
AcDbEntity
  8
0
100
AcDbBlockEnd
  0
BLOCK
  5
3B34
330
3B33
100
AcDbEntity
  8
0
100
AcDbBlockBegin
  2
*D51
 70
     1
 10
0.0
 20
0.0
 30
0.0
  3
*D51
  1

  0
LINE
  5
3B36
330
3B33
100
AcDbEntity
  8
SIZE
  6
ByBlock
 62
     0
370
    -2
100
AcDbLine
 10
2937.812384271632
 20
-281.5481277937042
 30
0.0
 11
2937.812384271632
 21
-219.8573394889404
 31
0.0
  0
LINE
  5
3B37
330
3B33
100
AcDbEntity
  8
SIZE
  6
ByBlock
 62
     0
370
    -2
100
AcDbLine
 10
3496.812384271632
 20
-281.5481277937043
 30
0.0
 11
3496.812384271632
 21
-219.8573394889404
 31
0.0
  0
LINE
  5
3B38
330
3B33
100
AcDbEntity
  8
SIZE
  6
ByBlock
 62
     0
370
    -2
100
AcDbLine
 10
2950.312384271633
 20
-226.1073394889404
 30
0.0
 11
3484.312384271632
 21
-226.1073394889404
 31
0.0
  0
INSERT
  5
3B39
330
3B33
100
AcDbEntity
  8
SIZE
 62
     0
370
    -2
100
AcDbBlockReference
  2
_OPEN30
 10
2937.812384271632
 20
-226.1073394889404
 30
0.0
 41
12.5
 42
12.5
 43
12.5
 50
180.0
  0
INSERT
  5
3B3A
330
3B33
100
AcDbEntity
  8
SIZE
 62
     0
370
    -2
100
AcDbBlockReference
  2
_OPEN30
 10
3496.812384271632
 20
-226.1073394889404
 30
0.0
 41
12.5
 42
12.5
 43
12.5
  0
MTEXT
  5
3B3B
330
3B33
100
AcDbEntity
  8
SIZE
 62
     0
100
AcDbMText
 10
3217.312384271632
 20
-216.7323394889404
 30
0.0
 40
12.5
 41
0.0
 71
     5
 72
     1
  1
559
 73
     1
 44
1.0
1001
ACAD
1000
MTEXTBEGIN
1070
    73
1070
     1
1070
    44
1040
1.0
1070
    74
1070
     0
1000
MTEXTEND
  0
POINT
  5
3B3C
330
3B33
100
AcDbEntity
  8
Defpoints
 62
     0
100
AcDbPoint
 10
2937.812384271632
 20
-284.6731277937042
 30
0.0
  0
POINT
  5
3B3D
330
3B33
100
AcDbEntity
  8
Defpoints
 62
     0
100
AcDbPoint
 10
3496.812384271632
 20
-284.6731277937043
 30
0.0
  0
POINT
  5
3B3E
330
3B33
100
AcDbEntity
  8
Defpoints
 62
     0
100
AcDbPoint
 10
3496.812384271632
 20
-226.1073394889404
 30
0.0
  0
ENDBLK
  5
3B35
330
3B33
100
AcDbEntity
  8
0
100
AcDbBlockEnd
  0
BLOCK
  5
3B41
330
3B40
100
AcDbEntity
  8
0
100
AcDbBlockBegin
  2
*D52
 70
     1
 10
0.0
 20
0.0
 30
0.0
  3
*D52
  1

  0
LINE
  5
3B43
330
3B40
100
AcDbEntity
  8
SIZE
  6
ByBlock
 62
     0
370
    -2
100
AcDbLine
 10
2917.312384271632
 20
-254.0481277937042
 30
0.0
 11
2917.312384271632
 21
-192.311551686952
 31
0.0
  0
LINE
  5
3B44
330
3B40
100
AcDbEntity
  8
SIZE
  6
ByBlock
 62
     0
370
    -2
100
AcDbLine
 10
3517.312384271632
 20
-254.0481277937045
 30
0.0
 11
3517.312384271632
 21
-192.311551686952
 31
0.0
  0
LINE
  5
3B45
330
3B40
100
AcDbEntity
  8
SIZE
  6
ByBlock
 62
     0
370
    -2
100
AcDbLine
 10
2929.812384271632
 20
-198.561551686952
 30
0.0
 11
3504.812384271632
 21
-198.561551686952
 31
0.0
  0
INSERT
  5
3B46
330
3B40
100
AcDbEntity
  8
SIZE
 62
     0
370
    -2
100
AcDbBlockReference
  2
_OPEN30
 10
2917.312384271632
 20
-198.561551686952
 30
0.0
 41
12.5
 42
12.5
 43
12.5
 50
180.0
  0
INSERT
  5
3B47
330
3B40
100
AcDbEntity
  8
SIZE
 62
     0
370
    -2
100
AcDbBlockReference
  2
_OPEN30
 10
3517.312384271632
 20
-198.561551686952
 30
0.0
 41
12.5
 42
12.5
 43
12.5
  0
MTEXT
  5
3B48
330
3B40
100
AcDbEntity
  8
SIZE
 62
     0
100
AcDbMText
 10
3217.312384271632
 20
-189.186551686952
 30
0.0
 40
12.5
 41
0.0
 71
     5
 72
     1
  1
600
 73
     1
 44
1.0
1001
ACAD
1000
MTEXTBEGIN
1070
    73
1070
     1
1070
    44
1040
1.0
1070
    74
1070
     0
1000
MTEXTEND
  0
POINT
  5
3B49
330
3B40
100
AcDbEntity
  8
Defpoints
 62
     0
100
AcDbPoint
 10
2917.312384271632
 20
-257.1731277937042
 30
0.0
  0
POINT
  5
3B4A
330
3B40
100
AcDbEntity
  8
Defpoints
 62
     0
100
AcDbPoint
 10
3517.312384271632
 20
-257.1731277937045
 30
0.0
  0
POINT
  5
3B4B
330
3B40
100
AcDbEntity
  8
Defpoints
 62
     0
100
AcDbPoint
 10
3517.312384271632
 20
-198.561551686952
 30
0.0
  0
ENDBLK
  5
3B42
330
3B40
100
AcDbEntity
  8
0
100
AcDbBlockEnd
  0
BLOCK
  5
3B4E
330
3B4D
100
AcDbEntity
  8
0
100
AcDbBlockBegin
  2
*D53
 70
     1
 10
0.0
 20
0.0
 30
0.0
  3
*D53
  1

  0
LINE
  5
3B50
330
3B4D
100
AcDbEntity
  8
SIZE
  6
ByBlock
 62
     0
370
    -2
100
AcDbLine
 10
2922.187384271632
 20
-856.173127793704
 30
0.0
 11
2854.501022871787
 21
-856.173127793704
 31
0.0
  0
LINE
  5
3B51
330
3B4D
100
AcDbEntity
  8
SIZE
  6
ByBlock
 62
     0
370
    -2
100
AcDbLine
 10
2922.187384271632
 20
-297.1731277937042
 30
0.0
 11
2854.501022871787
 21
-297.1731277937042
 31
0.0
  0
LINE
  5
3B52
330
3B4D
100
AcDbEntity
  8
SIZE
  6
ByBlock
 62
     0
370
    -2
100
AcDbLine
 10
2860.751022871787
 20
-843.673127793704
 30
0.0
 11
2860.751022871787
 21
-309.6731277937042
 31
0.0
  0
INSERT
  5
3B53
330
3B4D
100
AcDbEntity
  8
SIZE
 62
     0
370
    -2
100
AcDbBlockReference
  2
_OPEN30
 10
2860.751022871787
 20
-856.173127793704
 30
0.0
 41
12.5
 42
12.5
 43
12.5
 50
270.0
  0
INSERT
  5
3B54
330
3B4D
100
AcDbEntity
  8
SIZE
 62
     0
370
    -2
100
AcDbBlockReference
  2
_OPEN30
 10
2860.751022871787
 20
-297.1731277937042
 30
0.0
 41
12.5
 42
12.5
 43
12.5
 50
90.0
  0
MTEXT
  5
3B55
330
3B4D
100
AcDbEntity
  8
SIZE
 62
     0
100
AcDbMText
 10
2851.376022871787
 20
-576.6731277937036
 30
0.0
 40
12.5
 41
0.0
 71
     5
 72
     1
  1
559
 11
0.0000000000000001
 21
1.0
 31
0.0
 73
     1
 44
1.0
1001
ACAD
1000
MTEXTBEGIN
1070
    73
1070
     1
1070
    44
1040
1.0
1070
    74
1070
     0
1000
MTEXTEND
  0
POINT
  5
3B56
330
3B4D
100
AcDbEntity
  8
Defpoints
 62
     0
100
AcDbPoint
 10
2925.312384271633
 20
-856.173127793704
 30
0.0
  0
POINT
  5
3B57
330
3B4D
100
AcDbEntity
  8
Defpoints
 62
     0
100
AcDbPoint
 10
2925.312384271633
 20
-297.1731277937042
 30
0.0
  0
POINT
  5
3B58
330
3B4D
100
AcDbEntity
  8
Defpoints
 62
     0
100
AcDbPoint
 10
2860.751022871787
 20
-297.1731277937042
 30
0.0
  0
ENDBLK
  5
3B4F
330
3B4D
100
AcDbEntity
  8
0
100
AcDbBlockEnd
  0
BLOCK
  5
3B5B
330
3B5A
100
AcDbEntity
  8
0
100
AcDbBlockBegin
  2
*D54
 70
     1
 10
0.0
 20
0.0
 30
0.0
  3
*D54
  1

  0
LINE
  5
3B5D
330
3B5A
100
AcDbEntity
  8
SIZE
  6
ByBlock
 62
     0
370
    -2
100
AcDbLine
 10
2915.187384271633
 20
-256.3731277937045
 30
0.0
 11
2825.994846902931
 21
-256.3731277937045
 31
0.0
  0
LINE
  5
3B5E
330
3B5A
100
AcDbEntity
  8
SIZE
  6
ByBlock
 62
     0
370
    -2
100
AcDbLine
 10
2914.187384271632
 20
-897.1731277937042
 30
0.0
 11
2825.994846902931
 21
-897.1731277937042
 31
0.0
  0
LINE
  5
3B5F
330
3B5A
100
AcDbEntity
  8
SIZE
  6
ByBlock
 62
     0
370
    -2
100
AcDbLine
 10
2832.244846902931
 20
-268.8731277937045
 30
0.0
 11
2832.244846902931
 21
-884.6731277937042
 31
0.0
  0
INSERT
  5
3B60
330
3B5A
100
AcDbEntity
  8
SIZE
 62
     0
370
    -2
100
AcDbBlockReference
  2
_OPEN30
 10
2832.244846902931
 20
-256.3731277937045
 30
0.0
 41
12.5
 42
12.5
 43
12.5
 50
90.0
  0
INSERT
  5
3B61
330
3B5A
100
AcDbEntity
  8
SIZE
 62
     0
370
    -2
100
AcDbBlockReference
  2
_OPEN30
 10
2832.244846902931
 20
-897.1731277937042
 30
0.0
 41
12.5
 42
12.5
 43
12.5
 50
270.0
  0
MTEXT
  5
3B62
330
3B5A
100
AcDbEntity
  8
SIZE
 62
     0
100
AcDbMText
 10
2822.869846902931
 20
-576.7731277937038
 30
0.0
 40
12.5
 41
0.0
 71
     5
 72
     1
  1
641
 11
0.0000000000000001
 21
1.0
 31
0.0
 73
     1
 44
1.0
1001
ACAD
1000
MTEXTBEGIN
1070
    73
1070
     1
1070
    44
1040
1.0
1070
    74
1070
     0
1000
MTEXTEND
  0
POINT
  5
3B63
330
3B5A
100
AcDbEntity
  8
Defpoints
 62
     0
100
AcDbPoint
 10
2918.312384271633
 20
-256.3731277937045
 30
0.0
  0
POINT
  5
3B64
330
3B5A
100
AcDbEntity
  8
Defpoints
 62
     0
100
AcDbPoint
 10
2917.312384271632
 20
-897.1731277937042
 30
0.0
  0
POINT
  5
3B65
330
3B5A
100
AcDbEntity
  8
Defpoints
 62
     0
100
AcDbPoint
 10
2832.244846902931
 20
-897.1731277937042
 30
0.0
  0
ENDBLK
  5
3B5C
330
3B5A
100
AcDbEntity
  8
0
100
AcDbBlockEnd
  0
BLOCK
  5
3DC7
330
3D69
100
AcDbEntity
  8
0
100
AcDbBlockBegin
  2
A$C4BB80041
 70
     0
 10
0.0
 20
0.0
 30
0.0
  3
A$C4BB80041
  1

  0
LINE
  5
3D6A
330
3D69
100
AcDbEntity
  8
AM_VIS
100
AcDbLine
 10
624.0000051897817
 20
1.408413011369701
 30
0.0
 11
624.0000051897817
 21
114.5510596427695
 31
0.0
  0
LINE
  5
3D6B
330
3D69
100
AcDbEntity
  8
AM_VIS
100
AcDbLine
 10
1.000005189781859
 20
114.5510596427695
 30
0.0
 11
1.00000518978183
 21
1.408413011369701
 31
0.0
  0
LINE
  5
3D6C
330
3D69
100
AcDbEntity
  8
AM_VIS
100
AcDbLine
 10
1.000005189781859
 20
114.9838016023961
 30
0.0
 11
624.0000051897817
 21
114.9838016023961
 31
0.0
  0
LINE
  5
3D6D
330
3D69
100
AcDbEntity
  8
AM_VIS
100
AcDbLine
 10
624.0000051897817
 20
114.9838016023961
 30
0.0
 11
624.0000051897817
 21
246.5407685124235
 31
0.0
  0
LINE
  5
3D6E
330
3D69
100
AcDbEntity
  8
AM_VIS
100
AcDbLine
 10
1.000005189781859
 20
246.5407685124233
 30
0.0
 11
624.0000051897817
 21
246.5407685124233
 31
0.0
  0
LINE
  5
3D6F
330
3D69
100
AcDbEntity
  8
AM_VIS
100
AcDbLine
 10
1.000005189781859
 20
246.5407685124233
 30
0.0
 11
1.000005189781859
 21
114.983801602396
 31
0.0
  0
LINE
  5
3D70
330
3D69
100
AcDbEntity
  8
AM_VIS
100
AcDbLine
 10
624.0000051897817
 20
246.5407685124233
 30
0.0
 11
624.0000051897817
 21
246.8143846270839
 31
0.0
  0
LINE
  5
3D71
330
3D69
100
AcDbEntity
  8
AM_VIS
100
AcDbLine
 10
1.000005189781859
 20
246.8143846270839
 30
0.0
 11
1.000005189781859
 21
246.5407685124233
 31
0.0
  0
LINE
  5
3D72
330
3D69
100
AcDbEntity
  8
AM_VIS
100
AcDbLine
 10
624.0000051897817
 20
246.8143846270839
 30
0.0
 11
1.000005189781859
 21
246.8143846270839
 31
0.0
  0
LINE
  5
3D73
330
3D69
100
AcDbEntity
  8
AM_VIS
100
AcDbLine
 10
1.000005189781859
 20
246.8143846270839
 30
0.0
 11
1.000005189781859
 21
276.8143846270839
 31
0.0
  0
LINE
  5
3D74
330
3D69
100
AcDbEntity
  8
AM_VIS
100
AcDbLine
 10
624.0000051897817
 20
276.8143846270839
 30
0.0
 11
624.0000051897817
 21
246.8143846270839
 31
0.0
  0
LINE
  5
3D75
330
3D69
100
AcDbEntity
  8
AM_7
100
AcDbLine
 10
615.5000051897817
 20
289.8143846270839
 30
0.0
 11
615.5000051897817
 21
269.0143846270842
 31
0.0
  0
LINE
  5
3D76
330
3D69
100
AcDbEntity
  8
AM_7
100
AcDbLine
 10
9.500005189781859
 20
269.0143846270846
 30
0.0
 11
9.500005189781859
 21
289.8143846270843
 31
0.0
  0
ELLIPSE
  5
3D77
330
3D69
100
AcDbEntity
  8
AM_VIS
100
AcDbEllipse
 10
615.5000051897817
 20
91.78383957776235
 30
0.0
 11
2.0
 21
0.0000000000000001
 31
0.0
210
0.0
220
0.0
230
1.0
 40
0.469471562785891
 41
3.143879754515676
 42
6.280898206253702
  0
ELLIPSE
  5
3D78
330
3D69
100
AcDbEntity
  8
AM_VIS
100
AcDbEllipse
 10
615.5000051897817
 20
24.17993453659403
 30
0.0
 11
2.0
 21
0.0000000000000001
 31
0.0
210
0.0
220
0.0
230
1.0
 40
0.469471562785891
 41
3.143879754515028
 42
6.28089820625435
  0
ELLIPSE
  5
3D79
330
3D69
100
AcDbEntity
  8
AM_VIS
100
AcDbEllipse
 10
615.5000051897817
 20
232.992611429956
 30
0.0
 11
2.0
 21
0.0000000000000001
 31
0.0
210
0.0
220
0.0
230
1.0
 40
0.9396926207859085
 41
3.214451143179017
 42
6.210326817590366
  0
ELLIPSE
  5
3D7A
330
3D69
100
AcDbEntity
  8
AM_VIS
100
AcDbEllipse
 10
615.5000051897817
 20
232.7189953152956
 30
0.0
 11
2.0
 21
0.0000000000000001
 31
0.0
210
0.0
220
0.0
230
1.0
 40
0.9396926207859086
 41
4.712388980384688
 42
10.99557428756427
  0
ELLIPSE
  5
3D7B
330
3D69
100
AcDbEntity
  8
AM_VIS
100
AcDbEllipse
 10
615.5000051897817
 20
24.88629261088124
 30
0.0
 11
2.0
 21
0.0000000000000001
 31
0.0
210
0.0
220
0.0
230
1.0
 40
0.4694715627858905
 41
3.742464093218991
 42
5.682313867550392
  0
ELLIPSE
  5
3D7C
330
3D69
100
AcDbEntity
  8
AM_VIS
100
AcDbEllipse
 10
615.5000051897817
 20
92.49019765204948
 30
0.0
 11
2.0
 21
0.0000000000000001
 31
0.0
210
0.0
220
0.0
230
1.0
 40
0.4694715627858905
 41
3.742464093219405
 42
5.68231386754998
  0
ELLIPSE
  5
3D7D
330
3D69
100
AcDbEntity
  8
AM_VIS
100
AcDbEllipse
 10
615.5000051897817
 20
134.3248862474356
 30
0.0
 11
2.0
 21
0.0000000000000001
 31
0.0
210
0.0
220
0.0
230
1.0
 40
0.9396926207859085
 41
3.214451143179011
 42
6.210326817590366
  0
ELLIPSE
  5
3D7E
330
3D69
100
AcDbEntity
  8
AM_VIS
100
AcDbEllipse
 10
615.5000051897817
 20
134.051270132775
 30
0.0
 11
2.0
 21
0.0000000000000001
 31
0.0
210
0.0
220
0.0
230
1.0
 40
0.9396926207859086
 41
4.712388980384688
 42
10.99557428756427
  0
LINE
  5
3D7F
330
3D69
100
AcDbEntity
  8
AM_VIS
100
AcDbLine
 10
621.0000051897817
 20
279.8143846270841
 30
0.0
 11
625.0000051897817
 21
279.8143846270841
 31
0.0
  0
LINE
  5
3D80
330
3D69
100
AcDbEntity
  8
AM_VIS
100
AcDbLine
 10
622.5045863620594
 20
0.7063563972994871
 30
0.0
 11
625.0000051897817
 21
0.7063563972994871
 31
0.0
  0
LINE
  5
3D81
330
3D69
100
AcDbEntity
  8
AM_VIS
100
AcDbLine
 10
625.0000051897817
 20
115.2574177170569
 30
0.0
 11
625.0000051897817
 21
0.7063563972996008
 31
0.0
  0
LINE
  5
3D82
330
3D69
100
AcDbEntity
  8
AM_VIS
100
AcDbLine
 10
624.0000051897817
 20
115.2574177170569
 30
0.0
 11
625.0000051897817
 21
115.2574177170569
 31
0.0
  0
LINE
  5
3D83
330
3D69
100
AcDbEntity
  8
AM_VIS
100
AcDbLine
 10
625.0000051897817
 20
246.8143846270841
 30
0.0
 11
625.0000051897817
 21
115.2574177170568
 31
0.0
  0
LINE
  5
3D84
330
3D69
100
AcDbEntity
  8
AM_VIS
100
AcDbLine
 10
624.0000051897817
 20
246.8143846270841
 30
0.0
 11
625.0000051897817
 21
246.8143846270841
 31
0.0
  0
LINE
  5
3D85
330
3D69
100
AcDbEntity
  8
AM_VIS
100
AcDbLine
 10
625.0000051897817
 20
279.8143846270841
 30
0.0
 11
625.0000051897817
 21
246.8143846270841
 31
0.0
  0
ELLIPSE
  5
3D86
330
3D69
100
AcDbEntity
  8
AM_VIS
100
AcDbEllipse
 10
9.500005189781873
 20
92.49019765204979
 30
0.0
 11
2.0
 21
0.0
 31
0.0
210
0.0
220
0.0
230
1.0
 40
0.4694715627858905
 41
3.7424640932197
 42
5.68231386754967
  0
ELLIPSE
  5
3D87
330
3D69
100
AcDbEntity
  8
AM_VIS
100
AcDbEllipse
 10
9.500005189781886
 20
24.88629261088159
 30
0.0
 11
2.0
 21
0.0
 31
0.0
210
0.0
220
0.0
230
1.0
 40
0.4694715627858905
 41
3.742464093219207
 42
5.682313867550162
  0
ELLIPSE
  5
3D88
330
3D69
100
AcDbEntity
  8
AM_VIS
100
AcDbEllipse
 10
9.500005189781873
 20
91.7838395777627
 30
0.0
 11
2.0
 21
0.0
 31
0.0
210
0.0
220
0.0
230
1.0
 40
0.4694715627858911
 41
3.143879754516058
 42
6.280898206253312
  0
ELLIPSE
  5
3D89
330
3D69
100
AcDbEntity
  8
AM_VIS
100
AcDbEllipse
 10
9.500005189781886
 20
24.17993453659438
 30
0.0
 11
2.0
 21
0.0
 31
0.0
210
0.0
220
0.0
230
1.0
 40
0.4694715627858911
 41
3.143879754515376
 42
6.280898206253962
  0
ELLIPSE
  5
3D8A
330
3D69
100
AcDbEntity
  8
AM_VIS
100
AcDbEllipse
 10
9.500005189781859
 20
232.7189953152958
 30
0.0
 11
2.0
 21
0.0
 31
0.0
210
0.0
220
0.0
230
1.0
 40
0.9396926207859086
 41
1.570796326794896
 42
7.853981633974482
  0
ELLIPSE
  5
3D8B
330
3D69
100
AcDbEntity
  8
AM_VIS
100
AcDbEllipse
 10
9.500005189781859
 20
232.9926114299565
 30
0.0
 11
2.0
 21
0.0
 31
0.0
210
0.0
220
0.0
230
1.0
 40
0.9396926207859086
 41
3.214451143179004
 42
6.210326817590372
  0
ELLIPSE
  5
3D8C
330
3D69
100
AcDbEntity
  8
AM_VIS
100
AcDbEllipse
 10
9.500005189781859
 20
134.3248862474359
 30
0.0
 11
2.0
 21
0.0
 31
0.0
210
0.0
220
0.0
230
1.0
 40
0.9396926207859086
 41
3.214451143179012
 42
6.210326817590366
  0
ELLIPSE
  5
3D8D
330
3D69
100
AcDbEntity
  8
AM_VIS
100
AcDbEllipse
 10
9.500005189781859
 20
134.0512701327754
 30
0.0
 11
2.0
 21
0.0
 31
0.0
210
0.0
220
0.0
230
1.0
 40
0.9396926207859086
 41
1.570796326794896
 42
7.853981633974482
  0
LINE
  5
3D8E
330
3D69
100
AcDbEntity
  8
AM_VIS
100
AcDbLine
 10
0.8000051897818849
 20
1.145103708824763
 30
0.0
 11
1.560868346183568
 21
1.145103708824763
 31
0.0
  0
LINE
  5
3D8F
330
3D69
100
AcDbEntity
  8
AM_VIS
100
AcDbLine
 10
0.8000051897818778
 20
0.7063563972997145
 30
0.0
 11
0.8000051897818778
 21
1.145103708824763
 31
0.0
  0
LINE
  5
3D90
330
3D69
100
AcDbEntity
  8
AM_VIS
100
AcDbLine
 10
0.8000051897818849
 20
0.7063563972998283
 30
0.0
 11
0.0000051897818594
 21
0.7063563972998283
 31
0.0
  0
LINE
  5
3D91
330
3D69
100
AcDbEntity
  8
AM_VIS
100
AcDbLine
 10
1.000005189781859
 20
115.2574177170572
 30
0.0
 11
0.0000051897818594
 21
115.2574177170572
 31
0.0
  0
LINE
  5
3D92
330
3D69
100
AcDbEntity
  8
AM_VIS
100
AcDbLine
 10
0.0000051897818523
 20
115.2574177170572
 30
0.0
 11
0.0000051897818523
 21
0.7063563972998283
 31
0.0
  0
LINE
  5
3D93
330
3D69
100
AcDbEntity
  8
AM_VIS
100
AcDbLine
 10
1.000005189781859
 20
246.8143846270844
 30
0.0
 11
0.0000051897818523
 21
246.8143846270844
 31
0.0
  0
LINE
  5
3D94
330
3D69
100
AcDbEntity
  8
AM_VIS
100
AcDbLine
 10
0.0000051897818523
 20
246.8143846270846
 30
0.0
 11
0.0000051897818523
 21
115.2574177170572
 31
0.0
  0
LINE
  5
3D95
330
3D69
100
AcDbEntity
  8
AM_VIS
100
AcDbLine
 10
4.000005189781916
 20
279.8143846270843
 30
0.0
 11
0.0000051897818523
 21
279.8143846270843
 31
0.0
  0
LINE
  5
3D96
330
3D69
100
AcDbEntity
  8
AM_VIS
100
AcDbLine
 10
0.0000051897818523
 20
279.8143846270843
 30
0.0
 11
0.0000051897818523
 21
246.8143846270844
 31
0.0
  0
ELLIPSE
  5
3D97
330
3D69
100
AcDbEntity
  8
AM_VIS
100
AcDbEllipse
 10
9.500005189781859
 20
144.38788896142
 30
0.0
 11
5.499999999999999
 21
0.0000000000000002
 31
0.0
210
0.0
220
0.0
230
1.0
 40
0.9396926207859086
 41
3.168066308336408
 42
4.240527337331537
  0
ELLIPSE
  5
3D98
330
3D69
100
AcDbEntity
  8
AM_VIS
100
AcDbEllipse
 10
9.500005189781859
 20
144.38788896142
 30
0.0
 11
5.499999999999999
 21
0.0000000000000002
 31
0.0
210
0.0
220
0.0
230
1.0
 40
0.9396926207859086
 41
5.18425101189084
 42
6.256711652432971
  0
ELLIPSE
  5
3D99
330
3D69
100
AcDbEntity
  8
AM_VIS
100
AcDbEllipse
 10
9.500005189781859
 20
144.1142728467593
 30
0.0
 11
5.499999999999999
 21
0.0000000000000002
 31
0.0
210
0.0
220
0.0
230
1.0
 40
0.9396926207859086
 41
5.184251011890841
 42
10.52371264451112
  0
ELLIPSE
  5
3D9A
330
3D69
100
AcDbEntity
  8
AM_VIS
100
AcDbEllipse
 10
615.5000061412935
 20
144.38788896142
 30
0.0
 11
5.499999999999999
 21
0.0000000000000002
 31
0.0
210
0.0
220
0.0
230
1.0
 40
0.9396926207859086
 41
3.168066308336404
 42
4.240526948878536
  0
ELLIPSE
  5
3D9B
330
3D69
100
AcDbEntity
  8
AM_VIS
100
AcDbEllipse
 10
615.5000061412935
 20
144.38788896142
 30
0.0
 11
5.499999999999999
 21
0.0000000000000002
 31
0.0
210
0.0
220
0.0
230
1.0
 40
0.9396926207859086
 41
5.184250623437837
 42
6.256711652432971
  0
ELLIPSE
  5
3D9C
330
3D69
100
AcDbEntity
  8
AM_VIS
100
AcDbEllipse
 10
615.5000061412935
 20
144.1142728467593
 30
0.0
 11
5.499999999999999
 21
0.0000000000000002
 31
0.0
210
0.0
220
0.0
230
1.0
 40
0.9396926207859086
 41
5.184250623437837
 42
10.52371225605812
  0
ELLIPSE
  5
3D9D
330
3D69
100
AcDbEntity
  8
AM_VIS
100
AcDbEllipse
 10
9.500005189781859
 20
134.051270132775
 30
0.0
 11
2.5
 21
0.0000000000000001
 31
0.0
210
0.0
220
0.0
230
1.0
 40
0.9396926207859086
 41
3.141592653589792
 42
6.283185307179584
  0
ELLIPSE
  5
3D9E
330
3D69
100
AcDbEntity
  8
AM_VIS
100
AcDbEllipse
 10
9.500005189781859
 20
133.7776540181144
 30
0.0
 11
2.5
 21
0.0000000000000001
 31
0.0
210
0.0
220
0.0
230
1.0
 40
0.9396926207859086
 41
3.141592653589792
 42
6.283185307179584
  0
ELLIPSE
  5
3D9F
330
3D69
100
AcDbEntity
  8
AM_VIS
100
AcDbEllipse
 10
615.5000051897817
 20
232.7189953152954
 30
0.0
 11
2.5
 21
0.0000000000000001
 31
0.0
210
0.0
220
0.0
230
1.0
 40
0.9396926207859086
 41
3.199860857350246
 42
6.224917103419132
  0
ELLIPSE
  5
3DA0
330
3D69
100
AcDbEntity
  8
AM_VIS
100
AcDbEllipse
 10
9.500005189781859
 20
232.7189953152954
 30
0.0
 11
2.5
 21
0.0000000000000001
 31
0.0
210
0.0
220
0.0
230
1.0
 40
0.9396926207859086
 41
3.199860857350245
 42
6.224917103419132
  0
ELLIPSE
  5
3DA1
330
3D69
100
AcDbEntity
  8
AM_VIS
100
AcDbEllipse
 10
615.5000051897817
 20
134.051270132775
 30
0.0
 11
2.5
 21
0.0000000000000001
 31
0.0
210
0.0
220
0.0
230
1.0
 40
0.9396926207859086
 41
3.141592653589792
 42
6.283185307179584
  0
ELLIPSE
  5
3DA2
330
3D69
100
AcDbEntity
  8
AM_VIS
100
AcDbEllipse
 10
615.5000051897817
 20
133.7776540181144
 30
0.0
 11
2.5
 21
0.0000000000000001
 31
0.0
210
0.0
220
0.0
230
1.0
 40
0.9396926207859086
 41
3.141592653589792
 42
6.283185307179584
  0
ELLIPSE
  5
3DA3
330
3D69
100
AcDbEntity
  8
AM_VIS
100
AcDbEllipse
 10
615.5000051897817
 20
232.4453792006348
 30
0.0
 11
2.5
 21
0.0000000000000001
 31
0.0
210
0.0
220
0.0
230
1.0
 40
0.9396926207859086
 41
1.570796326794896
 42
7.853981633974482
  0
ELLIPSE
  5
3DA4
330
3D69
100
AcDbEntity
  8
AM_VIS
100
AcDbEllipse
 10
9.500005189781859
 20
232.4453792006348
 30
0.0
 11
2.5
 21
0.0000000000000001
 31
0.0
210
0.0
220
0.0
230
1.0
 40
0.9396926207859086
 41
1.570796326794896
 42
7.853981633974482
  0
ELLIPSE
  5
3DA5
330
3D69
100
AcDbEntity
  8
AM_VIS
100
AcDbEllipse
 10
615.5000051897817
 20
24.17993453659438
 30
0.0
 11
2.5
 21
0.0000000000000001
 31
0.0
210
0.0
220
0.0
230
1.0
 40
0.4694715627858911
 41
3.447245927541318
 42
5.977532033228057
  0
ELLIPSE
  5
3DA6
330
3D69
100
AcDbEntity
  8
AM_VIS
100
AcDbEllipse
 10
615.5000051897817
 20
23.47357646230785
 30
0.0
 11
2.5
 21
0.0000000000000001
 31
0.0
210
0.0
220
0.0
230
1.0
 40
0.469471562785891
 41
1.570796326794896
 42
7.853981633974482
  0
ELLIPSE
  5
3DA7
330
3D69
100
AcDbEntity
  8
AM_VIS
100
AcDbEllipse
 10
615.5000051897817
 20
91.78383957776217
 30
0.0
 11
2.5
 21
0.0000000000000001
 31
0.0
210
0.0
220
0.0
230
1.0
 40
0.4694715627858911
 41
3.447245927541318
 42
5.977532033228061
  0
ELLIPSE
  5
3DA8
330
3D69
100
AcDbEntity
  8
AM_VIS
100
AcDbEllipse
 10
615.5000051897817
 20
91.0774815034755
 30
0.0
 11
2.5
 21
0.0000000000000001
 31
0.0
210
0.0
220
0.0
230
1.0
 40
0.469471562785891
 41
1.570796326794896
 42
7.853981633974482
  0
ELLIPSE
  5
3DA9
330
3D69
100
AcDbEntity
  8
AM_VIS
100
AcDbEllipse
 10
9.500005189781859
 20
24.17993453659438
 30
0.0
 11
2.5
 21
0.0000000000000001
 31
0.0
210
0.0
220
0.0
230
1.0
 40
0.4694715627858911
 41
3.447245927541301
 42
5.977532033228075
  0
ELLIPSE
  5
3DAA
330
3D69
100
AcDbEntity
  8
AM_VIS
100
AcDbEllipse
 10
9.500005189781859
 20
23.47357646230785
 30
0.0
 11
2.5
 21
0.0000000000000001
 31
0.0
210
0.0
220
0.0
230
1.0
 40
0.469471562785891
 41
1.570796326794896
 42
7.853981633974482
  0
ELLIPSE
  5
3DAB
330
3D69
100
AcDbEntity
  8
AM_VIS
100
AcDbEllipse
 10
9.500005189781859
 20
91.78383957776217
 30
0.0
 11
2.5
 21
0.0000000000000001
 31
0.0
210
0.0
220
0.0
230
1.0
 40
0.4694715627858911
 41
3.447245927541308
 42
5.977532033228062
  0
ELLIPSE
  5
3DAC
330
3D69
100
AcDbEntity
  8
AM_VIS
100
AcDbEllipse
 10
9.500005189781859
 20
91.0774815034755
 30
0.0
 11
2.5
 21
0.0000000000000001
 31
0.0
210
0.0
220
0.0
230
1.0
 40
0.469471562785891
 41
1.570796326794896
 42
7.853981633974482
  0
LINE
  5
3DAD
330
3D69
100
AcDbEntity
  8
AM_VIS
100
AcDbLine
 10
621.0000051897817
 20
279.8143846270839
 30
0.0
 11
624.0000051897817
 21
276.8143846270839
 31
0.0
  0
LINE
  5
3DAE
330
3D69
100
AcDbEntity
  8
AM_VIS
100
AcDbLine
 10
4.000005189781857
 20
279.8143846270839
 30
0.0
 11
621.0000051897817
 21
279.8143846270839
 31
0.0
  0
LINE
  5
3DAF
330
3D69
100
AcDbEntity
  8
AM_VIS
100
AcDbLine
 10
1.000005189781814
 20
276.8143846270839
 30
0.0
 11
4.000005189781873
 21
279.8143846270839
 31
0.0
  0
LINE
  5
3DB0
330
3D69
100
AcDbEntity
  8
AM_VIS
100
AcDbLine
 10
12.00000614129351
 20
139.5107384310743
 30
0.0
 11
12.00000614129351
 21
139.7843545457348
 31
0.0
  0
LINE
  5
3DB1
330
3D69
100
AcDbEntity
  8
AM_VIS
100
AcDbLine
 10
7.000006141293511
 20
139.5107375185082
 30
0.0
 11
7.000006141293511
 21
139.7843536331687
 31
0.0
  0
LINE
  5
3DB2
330
3D69
100
AcDbEntity
  8
AM_VIS
100
AcDbLine
 10
7.000006141293511
 20
133.7776540181144
 30
0.0
 11
7.000006141293511
 21
139.5107375185082
 31
0.0
  0
LINE
  5
3DB3
330
3D69
100
AcDbEntity
  8
AM_VIS
100
AcDbLine
 10
12.00000614129351
 20
139.5107384310743
 30
0.0
 11
12.00000614129351
 21
133.7776540181144
 31
0.0
  0
LINE
  5
3DB4
330
3D69
100
AcDbEntity
  8
AM_VIS
100
AcDbLine
 10
618.0000051897819
 20
139.5107375185082
 30
0.0
 11
618.0000051897819
 21
139.7843536331687
 31
0.0
  0
LINE
  5
3DB5
330
3D69
100
AcDbEntity
  8
AM_VIS
100
AcDbLine
 10
613.0000051897817
 20
139.5107384310743
 30
0.0
 11
613.0000051897817
 21
139.7843545457348
 31
0.0
  0
LINE
  5
3DB6
330
3D69
100
AcDbEntity
  8
AM_VIS
100
AcDbLine
 10
613.0000051897817
 20
133.7776540181144
 30
0.0
 11
613.0000051897817
 21
139.5107384310743
 31
0.0
  0
LINE
  5
3DB7
330
3D69
100
AcDbEntity
  8
AM_VIS
100
AcDbLine
 10
618.0000051897819
 20
139.5107375185082
 30
0.0
 11
618.0000051897819
 21
133.7776540181144
 31
0.0
  0
LINE
  5
3DB8
330
3D69
100
AcDbEntity
  8
AM_VIS
100
AcDbLine
 10
11.00000518978186
 20
263.3143846270839
 30
0.0
 11
8.000005189781859
 21
263.3143846270839
 31
0.0
  0
LINE
  5
3DB9
330
3D69
100
AcDbEntity
  8
AM_VIS
100
AcDbLine
 10
11.00000518978186
 20
266.3143846270839
 30
0.0
 11
11.00000518978186
 21
263.3143846270839
 31
0.0
  0
LINE
  5
3DBA
330
3D69
100
AcDbEntity
  8
AM_VIS
100
AcDbLine
 10
8.000005189781859
 20
266.3143846270839
 30
0.0
 11
11.00000518978186
 21
266.3143846270839
 31
0.0
  0
LINE
  5
3DBB
330
3D69
100
AcDbEntity
  8
AM_VIS
100
AcDbLine
 10
8.000005189781859
 20
263.3143846270839
 30
0.0
 11
8.000005189781859
 21
266.3143846270839
 31
0.0
  0
LINE
  5
3DBC
330
3D69
100
AcDbEntity
  8
AM_VIS
100
AcDbLine
 10
614.0000051897819
 20
266.3143846270839
 30
0.0
 11
617.0000051897817
 21
266.3143846270839
 31
0.0
  0
LINE
  5
3DBD
330
3D69
100
AcDbEntity
  8
AM_VIS
100
AcDbLine
 10
614.0000051897819
 20
263.3143846270839
 30
0.0
 11
614.0000051897819
 21
266.3143846270839
 31
0.0
  0
LINE
  5
3DBE
330
3D69
100
AcDbEntity
  8
AM_VIS
100
AcDbLine
 10
617.0000051897817
 20
263.3143846270839
 30
0.0
 11
614.0000051897819
 21
263.3143846270839
 31
0.0
  0
LINE
  5
3DBF
330
3D69
100
AcDbEntity
  8
AM_VIS
100
AcDbLine
 10
617.0000051897817
 20
266.3143846270839
 30
0.0
 11
617.0000051897817
 21
263.3143846270839
 31
0.0
  0
LINE
  5
3DC0
330
3D69
100
AcDbEntity
  8
AM_VIS
100
AcDbLine
 10
624.0000051897817
 20
1.408413011369701
 30
0.0
 11
621.0000051897817
 21
-0.0000016769878357
 31
0.0
  0
LINE
  5
3DC1
330
3D69
100
AcDbEntity
  8
AM_VIS
100
AcDbLine
 10
4.0000051897818
 20
-0.0000016769878357
 30
0.0
 11
621.0000051897817
 21
-0.0000016769878357
 31
0.0
  0
LINE
  5
3DC2
330
3D69
100
AcDbEntity
  8
AM_VIS
100
AcDbLine
 10
4.000005189781788
 20
-0.0000016769879494
 30
0.0
 11
1.000005189781872
 21
1.408413011369701
 31
0.0
  0
LINE
  5
3DC3
330
3D69
100
AcDbEntity
  8
AM_VIS
100
AcDbLine
 10
624.0000051897817
 20
114.5510596427695
 30
0.0
 11
624.0000051897817
 21
114.9838016023961
 31
0.0
  0
LINE
  5
3DC4
330
3D69
100
AcDbEntity
  8
AM_VIS
100
AcDbLine
 10
1.000005189781859
 20
114.9838016023961
 30
0.0
 11
1.000005189781859
 21
114.5510596427695
 31
0.0
  0
LINE
  5
3DC5
330
3D69
100
AcDbEntity
  8
AM_VIS
100
AcDbLine
 10
1.000005189781859
 20
114.5510596427695
 30
0.0
 11
624.0000051897817
 21
114.5510596427695
 31
0.0
  0
ENDBLK
  5
3DC8
330
3D69
100
AcDbEntity
  8
0
100
AcDbBlockEnd
  0
BLOCK
  5
3E42
330
3E41
100
AcDbEntity
  8
0
100
AcDbBlockBegin
  2
*D56
 70
     1
 10
0.0
 20
0.0
 30
0.0
  3
*D56
  1

  0
LINE
  5
4009
330
3E41
100
AcDbEntity
  8
SIZE
 62
     0
370
    -2
100
AcDbLine
 10
-303.0
 20
13.12500000000034
 30
0.0
 11
-303.0
 21
50.40017372534146
 31
0.0
  0
LINE
  5
400A
330
3E41
100
AcDbEntity
  8
SIZE
 62
     0
370
    -2
100
AcDbLine
 10
302.9999999999991
 20
13.12500000000034
 30
0.0
 11
302.9999999999991
 21
50.40017372534146
 31
0.0
  0
LINE
  5
400B
330
3E41
100
AcDbEntity
  8
SIZE
 62
     0
370
    -2
100
AcDbLine
 10
-290.5
 20
44.15017372534146
 30
0.0
 11
290.4999999999991
 21
44.15017372534146
 31
0.0
  0
INSERT
  5
400C
330
3E41
100
AcDbEntity
  8
SIZE
 62
     0
370
    -2
100
AcDbBlockReference
  2
_OPEN30
 10
-303.0
 20
44.15017372534146
 30
0.0
 41
12.5
 42
12.5
 43
12.5
 50
180.0
  0
INSERT
  5
400D
330
3E41
100
AcDbEntity
  8
SIZE
 62
     0
370
    -2
100
AcDbBlockReference
  2
_OPEN30
 10
302.9999999999991
 20
44.15017372534146
 30
0.0
 41
12.5
 42
12.5
 43
12.5
  0
MTEXT
  5
400E
330
3E41
100
AcDbEntity
  8
SIZE
 62
     0
100
AcDbMText
 10
-0.0000000000004542
 20
53.52517372534146
 30
0.0
 40
12.5
 41
0.0
 71
     5
 72
     1
  1
606
 73
     1
 44
1.0
1001
ACAD
1000
MTEXTBEGIN
1070
    73
1070
     1
1070
    44
1040
1.0
1070
    74
1070
     0
1000
MTEXTEND
  0
POINT
  5
400F
330
3E41
100
AcDbEntity
  8
Defpoints
 62
     0
100
AcDbPoint
 10
-303.0
 20
10.00000000000034
 30
0.0
  0
POINT
  5
4010
330
3E41
100
AcDbEntity
  8
Defpoints
 62
     0
100
AcDbPoint
 10
302.9999999999991
 20
10.00000000000034
 30
0.0
  0
POINT
  5
4011
330
3E41
100
AcDbEntity
  8
Defpoints
 62
     0
100
AcDbPoint
 10
302.9999999999991
 20
44.15017372534146
 30
0.0
  0
ENDBLK
  5
3E43
330
3E41
100
AcDbEntity
  8
0
100
AcDbBlockEnd
  0
BLOCK
  5
3E4F
330
3E4E
100
AcDbEntity
  8
0
100
AcDbBlockBegin
  2
*D57
 70
     1
 10
0.0
 20
0.0
 30
0.0
  3
*D57
  1

  0
LINE
  5
4012
330
3E4E
100
AcDbEntity
  8
SIZE
 62
     0
370
    -2
100
AcDbLine
 10
-312.5
 20
3.125000000000453
 30
0.0
 11
-312.5
 21
73.61978687390443
 31
0.0
  0
LINE
  5
4013
330
3E4E
100
AcDbEntity
  8
SIZE
 62
     0
370
    -2
100
AcDbLine
 10
312.4999999999992
 20
3.125000000000453
 30
0.0
 11
312.4999999999992
 21
73.61978687390443
 31
0.0
  0
LINE
  5
4014
330
3E4E
100
AcDbEntity
  8
SIZE
 62
     0
370
    -2
100
AcDbLine
 10
-300.0
 20
67.36978687390443
 30
0.0
 11
299.9999999999992
 21
67.36978687390443
 31
0.0
  0
INSERT
  5
4015
330
3E4E
100
AcDbEntity
  8
SIZE
 62
     0
370
    -2
100
AcDbBlockReference
  2
_OPEN30
 10
-312.5
 20
67.36978687390443
 30
0.0
 41
12.5
 42
12.5
 43
12.5
 50
180.0
  0
INSERT
  5
4016
330
3E4E
100
AcDbEntity
  8
SIZE
 62
     0
370
    -2
100
AcDbBlockReference
  2
_OPEN30
 10
312.4999999999992
 20
67.36978687390443
 30
0.0
 41
12.5
 42
12.5
 43
12.5
  0
MTEXT
  5
4017
330
3E4E
100
AcDbEntity
  8
SIZE
 62
     0
100
AcDbMText
 10
-0.0000000000004542
 20
76.74478687390443
 30
0.0
 40
12.5
 41
0.0
 71
     5
 72
     1
  1
625
 73
     1
 44
1.0
1001
ACAD
1000
MTEXTBEGIN
1070
    73
1070
     1
1070
    44
1040
1.0
1070
    74
1070
     0
1000
MTEXTEND
  0
POINT
  5
4018
330
3E4E
100
AcDbEntity
  8
Defpoints
 62
     0
100
AcDbPoint
 10
-312.5
 20
0.0000000000004547
 30
0.0
  0
POINT
  5
4019
330
3E4E
100
AcDbEntity
  8
Defpoints
 62
     0
100
AcDbPoint
 10
312.4999999999992
 20
0.0000000000004547
 30
0.0
  0
POINT
  5
401A
330
3E4E
100
AcDbEntity
  8
Defpoints
 62
     0
100
AcDbPoint
 10
312.4999999999992
 20
67.36978687390443
 30
0.0
  0
ENDBLK
  5
3E50
330
3E4E
100
AcDbEntity
  8
0
100
AcDbBlockEnd
  0
BLOCK
  5
3E72
330
3E71
100
AcDbEntity
  8
0
100
AcDbBlockBegin
  2
*D58
 70
     1
 10
0.0
 20
0.0
 30
0.0
  3
*D58
  1

  0
LINE
  5
401B
330
3E71
100
AcDbEntity
  8
SIZE
 62
     0
370
    -2
100
AcDbLine
 10
-315.625
 20
0.0000000000004556
 30
0.0
 11
-357.7755206863689
 21
0.0000000000004676
 31
0.0
  0
LINE
  5
401C
330
3E71
100
AcDbEntity
  8
SIZE
 62
     0
370
    -2
100
AcDbLine
 10
-311.625
 20
-279.8143863040718
 30
0.0
 11
-357.7755206863689
 21
-279.8143863040718
 31
0.0
  0
LINE
  5
401D
330
3E71
100
AcDbEntity
  8
SIZE
 62
     0
370
    -2
100
AcDbLine
 10
-351.5255206863689
 20
-12.49999999999953
 30
0.0
 11
-351.5255206863689
 21
-267.3143863040718
 31
0.0
  0
INSERT
  5
401E
330
3E71
100
AcDbEntity
  8
SIZE
 62
     0
370
    -2
100
AcDbBlockReference
  2
_OPEN30
 10
-351.5255206863689
 20
0.0000000000004658
 30
0.0
 41
12.5
 42
12.5
 43
12.5
 50
90.0
  0
INSERT
  5
401F
330
3E71
100
AcDbEntity
  8
SIZE
 62
     0
370
    -2
100
AcDbBlockReference
  2
_OPEN30
 10
-351.5255206863689
 20
-279.8143863040718
 30
0.0
 41
12.5
 42
12.5
 43
12.5
 50
270.0
  0
MTEXT
  5
4020
330
3E71
100
AcDbEntity
  8
SIZE
 62
     0
100
AcDbMText
 10
-360.9005206863689
 20
-139.9071931520357
 30
0.0
 40
12.5
 41
0.0
 71
     5
 72
     1
  1
280
 11
0.0000000000000001
 21
1.0
 31
0.0
 73
     1
 44
1.0
1001
ACAD
1000
MTEXTBEGIN
1070
    73
1070
     1
1070
    44
1040
1.0
1070
    74
1070
     0
1000
MTEXTEND
  0
POINT
  5
4021
330
3E71
100
AcDbEntity
  8
Defpoints
 62
     0
100
AcDbPoint
 10
-312.5
 20
0.0000000000004547
 30
0.0
  0
POINT
  5
4022
330
3E71
100
AcDbEntity
  8
Defpoints
 62
     0
100
AcDbPoint
 10
-308.5
 20
-279.8143863040718
 30
0.0
  0
POINT
  5
4023
330
3E71
100
AcDbEntity
  8
Defpoints
 62
     0
100
AcDbPoint
 10
-351.5255206863689
 20
-279.8143863040718
 30
0.0
  0
ENDBLK
  5
3E73
330
3E71
100
AcDbEntity
  8
0
100
AcDbBlockEnd
  0
ENDSEC
  0
SECTION
  2
ENTITIES
  0
MTEXT
  5
B2D
330
2
100
AcDbEntity
  8
ETC
100
AcDbMText
 10
-196.4564979527686
 20
147.3133857274133
 30
0.0
 40
43.66586864911549
 41
572.4741700690401
 71
     1
 72
     5
  1
AGJS-16F_1
 73
     1
 44
1.0
1001
ACAD
1000
MTEXTBEGIN
1070
    73
1070
     1
1070
    44
1040
1.0
1070
    74
1070
     0
1000
MTEXTEND
1000
ACAD_MTEXT_DEFINED_HEIGHT_BEGIN
1070
    46
1040
56.63062755791816
1000
ACAD_MTEXT_DEFINED_HEIGHT_END
  0
LINE
  5
3DCB
330
2
100
AcDbEntity
  8
OUTLINE
100
AcDbLine
 10
311.5
 20
-278.4059716157142
 30
0.0
 11
311.5
 21
-165.2633249843144
 31
0.0
  0
LINE
  5
3DCC
330
2
100
AcDbEntity
  8
OUTLINE
100
AcDbLine
 10
-311.4999999999991
 20
-165.2633249843144
 30
0.0
 11
-311.4999999999991
 21
-278.4059716157142
 31
0.0
  0
LINE
  5
3DCD
330
2
100
AcDbEntity
  8
OUTLINE
100
AcDbLine
 10
-311.4999999999991
 20
-164.8305830246878
 30
0.0
 11
311.5
 21
-164.8305830246878
 31
0.0
  0
LINE
  5
3DCE
330
2
100
AcDbEntity
  8
OUTLINE
100
AcDbLine
 10
311.5
 20
-164.8305830246878
 30
0.0
 11
311.5
 21
-33.27361611466046
 31
0.0
  0
LINE
  5
3DCF
330
2
100
AcDbEntity
  8
OUTLINE
100
AcDbLine
 10
-311.4999999999991
 20
-33.27361611466069
 30
0.0
 11
311.5
 21
-33.27361611466069
 31
0.0
  0
LINE
  5
3DD0
330
2
100
AcDbEntity
  8
OUTLINE
100
AcDbLine
 10
-311.4999999999991
 20
-33.27361611466069
 30
0.0
 11
-311.4999999999991
 21
-164.8305830246878
 31
0.0
  0
LINE
  5
3DD1
330
2
100
AcDbEntity
  8
OUTLINE
100
AcDbLine
 10
311.5
 20
-33.27361611466069
 30
0.0
 11
311.5
 21
-33.0
 31
0.0
  0
LINE
  5
3DD2
330
2
100
AcDbEntity
  8
OUTLINE
100
AcDbLine
 10
-311.4999999999991
 20
-33.0
 30
0.0
 11
-311.4999999999991
 21
-33.27361611466069
 31
0.0
  0
LINE
  5
3DD3
330
2
100
AcDbEntity
  8
OUTLINE
100
AcDbLine
 10
311.5
 20
-33.0
 30
0.0
 11
-311.4999999999991
 21
-33.0
 31
0.0
  0
LINE
  5
3DD4
330
2
100
AcDbEntity
  8
OUTLINE
100
AcDbLine
 10
-311.4999999999991
 20
-33.0
 30
0.0
 11
-311.4999999999991
 21
-3.0
 31
0.0
  0
LINE
  5
3DD5
330
2
100
AcDbEntity
  8
OUTLINE
100
AcDbLine
 10
311.5
 20
-3.0
 30
0.0
 11
311.5
 21
-33.0
 31
0.0
  0
LINE
  5
3DD6
330
2
100
AcDbEntity
  8
NOTE
100
AcDbLine
 10
302.9999999999991
 20
9.999999999999943
 30
0.0
 11
302.9999999999991
 21
-10.79999999999972
 31
0.0
  0
LINE
  5
3DD7
330
2
100
AcDbEntity
  8
NOTE
100
AcDbLine
 10
-303.0
 20
-10.79999999999933
 30
0.0
 11
-303.0
 21
10.00000000000034
 31
0.0
  0
ELLIPSE
  5
3DD8
330
2
100
AcDbEntity
  8
OUTLINE
100
AcDbEllipse
 10
302.9999999999991
 20
-188.0305450493215
 30
0.0
 11
2.0
 21
0.0000000000000001
 31
0.0
210
0.0
220
0.0
230
1.0
 40
0.469471562785891
 41
3.143879754515676
 42
6.280898206253702
  0
ELLIPSE
  5
3DD9
330
2
100
AcDbEntity
  8
OUTLINE
100
AcDbEllipse
 10
302.9999999999991
 20
-255.6344500904899
 30
0.0
 11
2.0
 21
0.0000000000000001
 31
0.0
210
0.0
220
0.0
230
1.0
 40
0.469471562785891
 41
3.143879754515028
 42
6.28089820625435
  0
ELLIPSE
  5
3DDA
330
2
100
AcDbEntity
  8
OUTLINE
100
AcDbEllipse
 10
302.9999999999991
 20
-46.82177319712792
 30
0.0
 11
2.0
 21
0.0000000000000001
 31
0.0
210
0.0
220
0.0
230
1.0
 40
0.9396926207859085
 41
3.214451143179017
 42
6.210326817590366
  0
ELLIPSE
  5
3DDB
330
2
100
AcDbEntity
  8
OUTLINE
100
AcDbEllipse
 10
302.9999999999991
 20
-47.09538931178832
 30
0.0
 11
2.0
 21
0.0000000000000001
 31
0.0
210
0.0
220
0.0
230
1.0
 40
0.9396926207859086
 41
4.712388980384688
 42
10.99557428756427
  0
ELLIPSE
  5
3DDC
330
2
100
AcDbEntity
  8
OUTLINE
100
AcDbEllipse
 10
302.9999999999991
 20
-254.9280920162026
 30
0.0
 11
2.0
 21
0.0000000000000001
 31
0.0
210
0.0
220
0.0
230
1.0
 40
0.4694715627858905
 41
3.742464093218991
 42
5.682313867550392
  0
ELLIPSE
  5
3DDD
330
2
100
AcDbEntity
  8
OUTLINE
100
AcDbEllipse
 10
302.9999999999991
 20
-187.3241869750344
 30
0.0
 11
2.0
 21
0.0000000000000001
 31
0.0
210
0.0
220
0.0
230
1.0
 40
0.4694715627858905
 41
3.742464093219405
 42
5.68231386754998
  0
ELLIPSE
  5
3DDE
330
2
100
AcDbEntity
  8
OUTLINE
100
AcDbEllipse
 10
302.9999999999991
 20
-145.4894983796481
 30
0.0
 11
2.0
 21
0.0000000000000001
 31
0.0
210
0.0
220
0.0
230
1.0
 40
0.9396926207859085
 41
3.214451143179011
 42
6.210326817590366
  0
ELLIPSE
  5
3DDF
330
2
100
AcDbEntity
  8
OUTLINE
100
AcDbEllipse
 10
302.9999999999991
 20
-145.7631144943088
 30
0.0
 11
2.0
 21
0.0000000000000001
 31
0.0
210
0.0
220
0.0
230
1.0
 40
0.9396926207859086
 41
4.712388980384688
 42
10.99557428756427
  0
LINE
  5
3DE0
330
2
100
AcDbEntity
  8
OUTLINE
100
AcDbLine
 10
308.5
 20
0.0000000000001137
 30
0.0
 11
312.4999999999992
 21
0.0000000000001137
 31
0.0
  0
LINE
  5
3DE1
330
2
100
AcDbEntity
  8
OUTLINE
100
AcDbLine
 10
310.0045811722785
 20
-279.1080282297845
 30
0.0
 11
312.4999999999992
 21
-279.1080282297845
 31
0.0
  0
LINE
  5
3DE2
330
2
100
AcDbEntity
  8
OUTLINE
100
AcDbLine
 10
312.4999999999992
 20
-164.556966910027
 30
0.0
 11
312.4999999999992
 21
-279.1080282297843
 31
0.0
  0
LINE
  5
3DE3
330
2
100
AcDbEntity
  8
OUTLINE
100
AcDbLine
 10
311.5
 20
-164.556966910027
 30
0.0
 11
312.4999999999992
 21
-164.556966910027
 31
0.0
  0
LINE
  5
3DE4
330
2
100
AcDbEntity
  8
OUTLINE
100
AcDbLine
 10
312.4999999999992
 20
-32.9999999999999
 30
0.0
 11
312.4999999999992
 21
-164.5569669100271
 31
0.0
  0
LINE
  5
3DE5
330
2
100
AcDbEntity
  8
OUTLINE
100
AcDbLine
 10
311.5
 20
-32.9999999999999
 30
0.0
 11
312.4999999999992
 21
-32.9999999999999
 31
0.0
  0
LINE
  5
3DE6
330
2
100
AcDbEntity
  8
OUTLINE
100
AcDbLine
 10
312.4999999999992
 20
0.0000000000001137
 30
0.0
 11
312.4999999999992
 21
-32.9999999999999
 31
0.0
  0
ELLIPSE
  5
3DE7
330
2
100
AcDbEntity
  8
OUTLINE
100
AcDbEllipse
 10
-303.0
 20
-187.3241869750341
 30
0.0
 11
2.0
 21
0.0
 31
0.0
210
0.0
220
0.0
230
1.0
 40
0.4694715627858905
 41
3.7424640932197
 42
5.68231386754967
  0
ELLIPSE
  5
3DE8
330
2
100
AcDbEntity
  8
OUTLINE
100
AcDbEllipse
 10
-303.0
 20
-254.9280920162023
 30
0.0
 11
2.0
 21
0.0
 31
0.0
210
0.0
220
0.0
230
1.0
 40
0.4694715627858905
 41
3.742464093219207
 42
5.682313867550162
  0
ELLIPSE
  5
3DE9
330
2
100
AcDbEntity
  8
OUTLINE
100
AcDbEllipse
 10
-303.0
 20
-188.0305450493212
 30
0.0
 11
2.0
 21
0.0
 31
0.0
210
0.0
220
0.0
230
1.0
 40
0.4694715627858911
 41
3.143879754516058
 42
6.280898206253312
  0
ELLIPSE
  5
3DEA
330
2
100
AcDbEntity
  8
OUTLINE
100
AcDbEllipse
 10
-303.0
 20
-255.6344500904895
 30
0.0
 11
2.0
 21
0.0
 31
0.0
210
0.0
220
0.0
230
1.0
 40
0.4694715627858911
 41
3.143879754515376
 42
6.280898206253962
  0
ELLIPSE
  5
3DEB
330
2
100
AcDbEntity
  8
OUTLINE
100
AcDbEllipse
 10
-303.0
 20
-47.09538931178822
 30
0.0
 11
2.0
 21
0.0
 31
0.0
210
0.0
220
0.0
230
1.0
 40
0.9396926207859086
 41
1.570796326794896
 42
7.853981633974482
  0
ELLIPSE
  5
3DEC
330
2
100
AcDbEntity
  8
OUTLINE
100
AcDbEllipse
 10
-303.0
 20
-46.8217731971274
 30
0.0
 11
2.0
 21
0.0
 31
0.0
210
0.0
220
0.0
230
1.0
 40
0.9396926207859086
 41
3.214451143179004
 42
6.210326817590372
  0
ELLIPSE
  5
3DED
330
2
100
AcDbEntity
  8
OUTLINE
100
AcDbEllipse
 10
-303.0
 20
-145.489498379648
 30
0.0
 11
2.0
 21
0.0
 31
0.0
210
0.0
220
0.0
230
1.0
 40
0.9396926207859086
 41
3.214451143179012
 42
6.210326817590366
  0
ELLIPSE
  5
3DEE
330
2
100
AcDbEntity
  8
OUTLINE
100
AcDbEllipse
 10
-303.0
 20
-145.7631144943084
 30
0.0
 11
2.0
 21
0.0
 31
0.0
210
0.0
220
0.0
230
1.0
 40
0.9396926207859086
 41
1.570796326794896
 42
7.853981633974482
  0
LINE
  5
3DEF
330
2
100
AcDbEntity
  8
OUTLINE
100
AcDbLine
 10
-311.7000000000003
 20
-278.6692809182592
 30
0.0
 11
-310.9391368435981
 21
-278.6692809182592
 31
0.0
  0
LINE
  5
3DF0
330
2
100
AcDbEntity
  8
OUTLINE
100
AcDbLine
 10
-311.7000000000003
 20
-279.1080282297842
 30
0.0
 11
-311.7000000000003
 21
-278.6692809182592
 31
0.0
  0
LINE
  5
3DF1
330
2
100
AcDbEntity
  8
OUTLINE
100
AcDbLine
 10
-311.7000000000003
 20
-279.1080282297842
 30
0.0
 11
-312.5
 21
-279.1080282297842
 31
0.0
  0
LINE
  5
3DF2
330
2
100
AcDbEntity
  8
OUTLINE
100
AcDbLine
 10
-311.4999999999991
 20
-164.5569669100266
 30
0.0
 11
-312.5
 21
-164.5569669100266
 31
0.0
  0
LINE
  5
3DF3
330
2
100
AcDbEntity
  8
OUTLINE
100
AcDbLine
 10
-312.5
 20
-164.5569669100266
 30
0.0
 11
-312.5
 21
-279.1080282297842
 31
0.0
  0
LINE
  5
3DF4
330
2
100
AcDbEntity
  8
OUTLINE
100
AcDbLine
 10
-311.4999999999991
 20
-32.99999999999966
 30
0.0
 11
-312.5
 21
-32.99999999999966
 31
0.0
  0
LINE
  5
3DF5
330
2
100
AcDbEntity
  8
OUTLINE
100
AcDbLine
 10
-312.5
 20
-32.99999999999932
 30
0.0
 11
-312.5
 21
-164.5569669100266
 31
0.0
  0
LINE
  5
3DF6
330
2
100
AcDbEntity
  8
OUTLINE
100
AcDbLine
 10
-308.5
 20
0.0000000000004547
 30
0.0
 11
-312.5
 21
0.0000000000004547
 31
0.0
  0
LINE
  5
3DF7
330
2
100
AcDbEntity
  8
OUTLINE
100
AcDbLine
 10
-312.5
 20
0.0000000000004547
 30
0.0
 11
-312.5
 21
-32.99999999999966
 31
0.0
  0
ELLIPSE
  5
3DF8
330
2
100
AcDbEntity
  8
OUTLINE
100
AcDbEllipse
 10
-303.0
 20
-135.4264956656638
 30
0.0
 11
5.499999999999999
 21
0.0000000000000002
 31
0.0
210
0.0
220
0.0
230
1.0
 40
0.9396926207859086
 41
3.168066308336408
 42
4.240527337331537
  0
ELLIPSE
  5
3DF9
330
2
100
AcDbEntity
  8
OUTLINE
100
AcDbEllipse
 10
-303.0
 20
-135.4264956656638
 30
0.0
 11
5.499999999999999
 21
0.0000000000000002
 31
0.0
210
0.0
220
0.0
230
1.0
 40
0.9396926207859086
 41
5.18425101189084
 42
6.256711652432971
  0
ELLIPSE
  5
3DFA
330
2
100
AcDbEntity
  8
OUTLINE
100
AcDbEllipse
 10
-303.0
 20
-135.7001117803245
 30
0.0
 11
5.499999999999999
 21
0.0000000000000002
 31
0.0
210
0.0
220
0.0
230
1.0
 40
0.9396926207859086
 41
5.184251011890841
 42
10.52371264451112
  0
ELLIPSE
  5
3DFB
330
2
100
AcDbEntity
  8
OUTLINE
100
AcDbEllipse
 10
303.0000009515124
 20
-135.4264956656638
 30
0.0
 11
5.499999999999999
 21
0.0000000000000002
 31
0.0
210
0.0
220
0.0
230
1.0
 40
0.9396926207859086
 41
3.168066308336404
 42
4.240526948878536
  0
ELLIPSE
  5
3DFC
330
2
100
AcDbEntity
  8
OUTLINE
100
AcDbEllipse
 10
303.0000009515124
 20
-135.4264956656638
 30
0.0
 11
5.499999999999999
 21
0.0000000000000002
 31
0.0
210
0.0
220
0.0
230
1.0
 40
0.9396926207859086
 41
5.184250623437837
 42
6.256711652432971
  0
ELLIPSE
  5
3DFD
330
2
100
AcDbEntity
  8
OUTLINE
100
AcDbEllipse
 10
303.0000009515124
 20
-135.7001117803245
 30
0.0
 11
5.499999999999999
 21
0.0000000000000002
 31
0.0
210
0.0
220
0.0
230
1.0
 40
0.9396926207859086
 41
5.184250623437837
 42
10.52371225605812
  0
ELLIPSE
  5
3DFE
330
2
100
AcDbEntity
  8
OUTLINE
100
AcDbEllipse
 10
-303.0
 20
-145.7631144943088
 30
0.0
 11
2.5
 21
0.0000000000000001
 31
0.0
210
0.0
220
0.0
230
1.0
 40
0.9396926207859086
 41
3.141592653589792
 42
6.283185307179584
  0
ELLIPSE
  5
3DFF
330
2
100
AcDbEntity
  8
OUTLINE
100
AcDbEllipse
 10
-303.0
 20
-146.0367306089695
 30
0.0
 11
2.5
 21
0.0000000000000001
 31
0.0
210
0.0
220
0.0
230
1.0
 40
0.9396926207859086
 41
3.141592653589792
 42
6.283185307179584
  0
ELLIPSE
  5
3E00
330
2
100
AcDbEntity
  8
OUTLINE
100
AcDbEllipse
 10
302.9999999999991
 20
-47.09538931178855
 30
0.0
 11
2.5
 21
0.0000000000000001
 31
0.0
210
0.0
220
0.0
230
1.0
 40
0.9396926207859086
 41
3.199860857350246
 42
6.224917103419132
  0
ELLIPSE
  5
3E01
330
2
100
AcDbEntity
  8
OUTLINE
100
AcDbEllipse
 10
-303.0
 20
-47.09538931178855
 30
0.0
 11
2.5
 21
0.0000000000000001
 31
0.0
210
0.0
220
0.0
230
1.0
 40
0.9396926207859086
 41
3.199860857350245
 42
6.224917103419132
  0
ELLIPSE
  5
3E02
330
2
100
AcDbEntity
  8
OUTLINE
100
AcDbEllipse
 10
302.9999999999991
 20
-145.7631144943088
 30
0.0
 11
2.5
 21
0.0000000000000001
 31
0.0
210
0.0
220
0.0
230
1.0
 40
0.9396926207859086
 41
3.141592653589792
 42
6.283185307179584
  0
ELLIPSE
  5
3E03
330
2
100
AcDbEntity
  8
OUTLINE
100
AcDbEllipse
 10
302.9999999999991
 20
-146.0367306089695
 30
0.0
 11
2.5
 21
0.0000000000000001
 31
0.0
210
0.0
220
0.0
230
1.0
 40
0.9396926207859086
 41
3.141592653589792
 42
6.283185307179584
  0
ELLIPSE
  5
3E04
330
2
100
AcDbEntity
  8
OUTLINE
100
AcDbEllipse
 10
302.9999999999991
 20
-47.36900542644912
 30
0.0
 11
2.5
 21
0.0000000000000001
 31
0.0
210
0.0
220
0.0
230
1.0
 40
0.9396926207859086
 41
1.570796326794896
 42
7.853981633974482
  0
ELLIPSE
  5
3E05
330
2
100
AcDbEntity
  8
OUTLINE
100
AcDbEllipse
 10
-303.0
 20
-47.36900542644912
 30
0.0
 11
2.5
 21
0.0000000000000001
 31
0.0
210
0.0
220
0.0
230
1.0
 40
0.9396926207859086
 41
1.570796326794896
 42
7.853981633974482
  0
ELLIPSE
  5
3E06
330
2
100
AcDbEntity
  8
OUTLINE
100
AcDbEllipse
 10
302.9999999999991
 20
-255.6344500904895
 30
0.0
 11
2.5
 21
0.0000000000000001
 31
0.0
210
0.0
220
0.0
230
1.0
 40
0.4694715627858911
 41
3.447245927541318
 42
5.977532033228057
  0
ELLIPSE
  5
3E07
330
2
100
AcDbEntity
  8
OUTLINE
100
AcDbEllipse
 10
302.9999999999991
 20
-256.340808164776
 30
0.0
 11
2.5
 21
0.0000000000000001
 31
0.0
210
0.0
220
0.0
230
1.0
 40
0.469471562785891
 41
1.570796326794896
 42
7.853981633974482
  0
ELLIPSE
  5
3E08
330
2
100
AcDbEntity
  8
OUTLINE
100
AcDbEllipse
 10
302.9999999999991
 20
-188.0305450493218
 30
0.0
 11
2.5
 21
0.0000000000000001
 31
0.0
210
0.0
220
0.0
230
1.0
 40
0.4694715627858911
 41
3.447245927541318
 42
5.977532033228061
  0
ELLIPSE
  5
3E09
330
2
100
AcDbEntity
  8
OUTLINE
100
AcDbEllipse
 10
302.9999999999991
 20
-188.7369031236083
 30
0.0
 11
2.5
 21
0.0000000000000001
 31
0.0
210
0.0
220
0.0
230
1.0
 40
0.469471562785891
 41
1.570796326794896
 42
7.853981633974482
  0
ELLIPSE
  5
3E0A
330
2
100
AcDbEntity
  8
OUTLINE
100
AcDbEllipse
 10
-303.0
 20
-255.6344500904895
 30
0.0
 11
2.5
 21
0.0000000000000001
 31
0.0
210
0.0
220
0.0
230
1.0
 40
0.4694715627858911
 41
3.447245927541301
 42
5.977532033228075
  0
ELLIPSE
  5
3E0B
330
2
100
AcDbEntity
  8
OUTLINE
100
AcDbEllipse
 10
-303.0
 20
-256.340808164776
 30
0.0
 11
2.5
 21
0.0000000000000001
 31
0.0
210
0.0
220
0.0
230
1.0
 40
0.469471562785891
 41
1.570796326794896
 42
7.853981633974482
  0
ELLIPSE
  5
3E0C
330
2
100
AcDbEntity
  8
OUTLINE
100
AcDbEllipse
 10
-303.0
 20
-188.0305450493218
 30
0.0
 11
2.5
 21
0.0000000000000001
 31
0.0
210
0.0
220
0.0
230
1.0
 40
0.4694715627858911
 41
3.447245927541308
 42
5.977532033228062
  0
ELLIPSE
  5
3E0D
330
2
100
AcDbEntity
  8
OUTLINE
100
AcDbEllipse
 10
-303.0
 20
-188.7369031236083
 30
0.0
 11
2.5
 21
0.0000000000000001
 31
0.0
210
0.0
220
0.0
230
1.0
 40
0.469471562785891
 41
1.570796326794896
 42
7.853981633974482
  0
LINE
  5
3E0E
330
2
100
AcDbEntity
  8
OUTLINE
100
AcDbLine
 10
308.5
 20
0.0
 30
0.0
 11
311.5
 21
-3.0
 31
0.0
  0
LINE
  5
3E0F
330
2
100
AcDbEntity
  8
OUTLINE
100
AcDbLine
 10
-308.5
 20
0.0
 30
0.0
 11
308.5
 21
0.0
 31
0.0
  0
LINE
  5
3E10
330
2
100
AcDbEntity
  8
OUTLINE
100
AcDbLine
 10
-311.4999999999991
 20
-3.0
 30
0.0
 11
-308.5
 21
0.0
 31
0.0
  0
LINE
  5
3E11
330
2
100
AcDbEntity
  8
OUTLINE
100
AcDbLine
 10
-300.4999990484888
 20
-140.3036461960097
 30
0.0
 11
-300.4999990484888
 21
-140.0300300813492
 31
0.0
  0
LINE
  5
3E12
330
2
100
AcDbEntity
  8
OUTLINE
100
AcDbLine
 10
-305.4999990484875
 20
-140.3036471085757
 30
0.0
 11
-305.4999990484875
 21
-140.0300309939152
 31
0.0
  0
LINE
  5
3E13
330
2
100
AcDbEntity
  8
OUTLINE
100
AcDbLine
 10
-305.4999990484875
 20
-146.0367306089695
 30
0.0
 11
-305.4999990484875
 21
-140.3036471085757
 31
0.0
  0
LINE
  5
3E14
330
2
100
AcDbEntity
  8
OUTLINE
100
AcDbLine
 10
-300.4999990484888
 20
-140.3036461960097
 30
0.0
 11
-300.4999990484888
 21
-146.0367306089695
 31
0.0
  0
LINE
  5
3E15
330
2
100
AcDbEntity
  8
OUTLINE
100
AcDbLine
 10
305.5
 20
-140.3036471085757
 30
0.0
 11
305.5
 21
-140.0300309939152
 31
0.0
  0
LINE
  5
3E16
330
2
100
AcDbEntity
  8
OUTLINE
100
AcDbLine
 10
300.5
 20
-140.3036461960097
 30
0.0
 11
300.5
 21
-140.0300300813492
 31
0.0
  0
LINE
  5
3E17
330
2
100
AcDbEntity
  8
OUTLINE
100
AcDbLine
 10
300.5
 20
-146.0367306089695
 30
0.0
 11
300.5
 21
-140.3036461960097
 31
0.0
  0
LINE
  5
3E18
330
2
100
AcDbEntity
  8
OUTLINE
100
AcDbLine
 10
305.5
 20
-140.3036471085757
 30
0.0
 11
305.5
 21
-146.0367306089695
 31
0.0
  0
LINE
  5
3E19
330
2
100
AcDbEntity
  8
OUTLINE
100
AcDbLine
 10
-301.5
 20
-16.5
 30
0.0
 11
-304.4999999999991
 21
-16.5
 31
0.0
  0
LINE
  5
3E1A
330
2
100
AcDbEntity
  8
OUTLINE
100
AcDbLine
 10
-301.5
 20
-13.5
 30
0.0
 11
-301.5
 21
-16.5
 31
0.0
  0
LINE
  5
3E1B
330
2
100
AcDbEntity
  8
OUTLINE
100
AcDbLine
 10
-304.4999999999991
 20
-13.5
 30
0.0
 11
-301.5
 21
-13.5
 31
0.0
  0
LINE
  5
3E1C
330
2
100
AcDbEntity
  8
OUTLINE
100
AcDbLine
 10
-304.4999999999991
 20
-16.5
 30
0.0
 11
-304.4999999999991
 21
-13.5
 31
0.0
  0
LINE
  5
3E1D
330
2
100
AcDbEntity
  8
OUTLINE
100
AcDbLine
 10
301.4999999999992
 20
-13.5
 30
0.0
 11
304.4999999999991
 21
-13.5
 31
0.0
  0
LINE
  5
3E1E
330
2
100
AcDbEntity
  8
OUTLINE
100
AcDbLine
 10
301.4999999999992
 20
-16.5
 30
0.0
 11
301.4999999999992
 21
-13.5
 31
0.0
  0
LINE
  5
3E1F
330
2
100
AcDbEntity
  8
OUTLINE
100
AcDbLine
 10
304.4999999999991
 20
-16.5
 30
0.0
 11
301.4999999999992
 21
-16.5
 31
0.0
  0
LINE
  5
3E20
330
2
100
AcDbEntity
  8
OUTLINE
100
AcDbLine
 10
304.4999999999991
 20
-13.5
 30
0.0
 11
304.4999999999991
 21
-16.5
 31
0.0
  0
LINE
  5
3E21
330
2
100
AcDbEntity
  8
OUTLINE
100
AcDbLine
 10
311.5
 20
-278.4059716157142
 30
0.0
 11
308.5
 21
-279.8143863040718
 31
0.0
  0
LINE
  5
3E22
330
2
100
AcDbEntity
  8
OUTLINE
100
AcDbLine
 10
-308.5
 20
-279.8143863040718
 30
0.0
 11
308.5
 21
-279.8143863040718
 31
0.0
  0
LINE
  5
3E23
330
2
100
AcDbEntity
  8
OUTLINE
100
AcDbLine
 10
-308.5
 20
-279.8143863040718
 30
0.0
 11
-311.4999999999991
 21
-278.4059716157142
 31
0.0
  0
LINE
  5
3E24
330
2
100
AcDbEntity
  8
OUTLINE
100
AcDbLine
 10
311.5
 20
-165.2633249843144
 30
0.0
 11
311.5
 21
-164.8305830246878
 31
0.0
  0
LINE
  5
3E25
330
2
100
AcDbEntity
  8
OUTLINE
100
AcDbLine
 10
-311.4999999999991
 20
-164.8305830246878
 30
0.0
 11
-311.4999999999991
 21
-165.2633249843144
 31
0.0
  0
LINE
  5
3E26
330
2
100
AcDbEntity
  8
OUTLINE
100
AcDbLine
 10
-311.4999999999991
 20
-165.2633249843144
 30
0.0
 11
311.5
 21
-165.2633249843144
 31
0.0
  0
LINE
  5
3E36
330
2
100
AcDbEntity
  8
BASIS
100
AcDbLine
 10
-0.0000000000009095
 20
-294.5462864090556
 30
0.0
 11
-0.0000000000009095
 21
30.40449304948879
 31
0.0
  0
LINE
  5
3E37
330
2
100
AcDbEntity
  8
ARRANGE
  6
Continuous
 62
     1
100
AcDbLine
 10
-16.684117564404
 20
-16.68411756440332
 30
0.0
 11
16.68411756440309
 21
16.68411756440361
 31
0.0
  0
LINE
  5
3E38
330
2
100
AcDbEntity
  8
ARRANGE
  6
Continuous
 62
     1
100
AcDbLine
 10
-16.684117564404
 20
16.68411756440361
 30
0.0
 11
16.68411756440309
 21
-16.68411756440332
 31
0.0
  0
CIRCLE
  5
3E39
330
2
100
AcDbEntity
  8
ARRANGE
100
AcDbCircle
 10
-0.0000000000009095
 20
0.0000000000001137
 30
0.0
 40
15.0
  0
DIMENSION
  5
3E40
330
2
100
AcDbEntity
  8
SIZE
100
AcDbDimension
  2
*D56
 10
302.9999999999991
 20
44.15017372534146
 30
0.0
 11
-0.0000000000004542
 21
53.52517372534146
 31
0.0
 70
    32
 71
     5
 42
605.9999999999989
  3
ISO-25
100
AcDbAlignedDimension
 13
-303.0
 23
10.00000000000034
 33
0.0
 14
302.9999999999991
 24
10.00000000000034
 34
0.0
100
AcDbRotatedDimension
1001
ACAD
1000
DSTYLE
1002
{
1070
   343
1005
4A
1070
   342
1005
0
1070
   173
1070
     1
1070
   344
1005
4A
1002
}
  0
DIMENSION
  5
3E4D
330
2
100
AcDbEntity
  8
SIZE
100
AcDbDimension
  2
*D57
 10
312.4999999999992
 20
67.36978687390443
 30
0.0
 11
-0.0000000000004542
 21
76.74478687390443
 31
0.0
 70
    32
 71
     5
 42
624.9999999999992
  3
ISO-25
100
AcDbAlignedDimension
 13
-312.5
 23
0.0000000000004547
 33
0.0
 14
312.4999999999992
 24
0.0000000000004547
 34
0.0
100
AcDbRotatedDimension
  0
DIMENSION
  5
3E70
330
2
100
AcDbEntity
  8
SIZE
100
AcDbDimension
  2
*D58
 10
-351.5255206863689
 20
-279.8143863040718
 30
0.0
 11
-360.9005206863689
 21
-139.9071931520357
 31
0.0
 70
    32
 71
     5
 42
279.8143863040722
  3
ISO-25
100
AcDbAlignedDimension
 13
-312.5
 23
0.0000000000004547
 33
0.0
 14
-308.5
 24
-279.8143863040718
 34
0.0
 50
90.0
100
AcDbRotatedDimension
  0
MULTILEADER
  5
3E9E
330
2
100
AcDbEntity
  8
NOTE
 92
      972
310
CC0300001B0000000C00000010000000050000000C00000016000000000000C00C00000013000000112700003C000000060000000200000068D78F84580375C047409E97609C404000000000000000005E00EC131B0975C047409E97609C404000000000000000000C0000001300000001000000880000001D0000001733EA
310
37A0AC214056D7963D57AE214000000000000000000000000000F072C056D7963D57AE21C01733EA37A0AC2140000000000000000000000000000000000000000000000000000000000000000000000000000029400000000000000000000000000000000000000000000000000000000000000000000000000000F03F0C00
310
000016000000040000C30C00000017000000FDFFFFFF540000002000000002000000000000000000F0BF498A025C1426D13F000000000000000000000000000000000000000000000000000000000000000000000000000000000000000000000000000000000000F03F0C00000016000000040000C30C00000017000000FD
310
FFFFFF540000002000000002000000000000000000000000000000000000000000000000000000000000000000F0BF498A025C1426D1BF000000000000000000000000000000000000000000000000000000000000F03F0C00000016000000040000C30C00000017000000FDFFFFFF54000000200000000200000000000000
310
0000000000000000000000000000000000000000000000000000F0BF0000000000000000000000000000000000000000000000000000000000000000000000000000F03F080000001F0000000C00000016000000000000C00C00000013000000891300003C00000006000000020000009951BF01657D73C052D7963D57AE21
310
40000000000000000068D78F84580375C047409E97609C404000000000000000000C000000130000009A3A00003C000000060000000200000098A86F4EC32C78C047409E97609C404000000000000000005E00EC131B0975C047409E97609C404000000000000000000C00000016000000000000C00C00000012000000FF7F
310
00000C00000017000000FFFFFFFF0C00000016000000000000C00C00000013000000993A0000AC0000000B0000004F164B05314878C07B73D1CA93CF4140000000000000000000000000000000000000000000000000000000000000F03F000000000000F03F0000000000000000000000000000000034817E83D335000006
310
000000010000000000000000002840000000000000F03F0000000000000000000000000000F03F0000000000000000000000000000000000000000726F6D616E732E7368780000626967666F6E742E73687800
100
AcDbMLeader
300
CONTEXT_DATA{
 40
1.0
 10
-388.7976822244323
 20
40.42169776179412
 30
0.0
 41
12.0
140
12.5
145
2.0
174
     1
175
     6
176
     2
177
     0
290
     1
304
4×φ5
 11
0.0
 21
0.0
 31
1.0
340
24
 12
-338.5691107958609
 22
47.62169776179413
 32
0.0
 13
1.0
 23
0.0
 33
0.0
 42
0.0
 43
0.0
 44
0.0
 45
1.0
170
     1
 90
-1073741824
171
     3
172
     5
 91
-1073741824
141
0.0
 92
  9625596
291
     0
292
     0
173
     0
293
     0
142
0.0
143
0.0
294
     0
295
     0
296
     0
110
-303.0
120
-0.3999999999994088
130
0.0
111
1.0
121
0.0
131
0.0
112
0.0
122
1.0
132
0.0
297
     0
302
LEADER{
290
     1
291
     1
 10
-336.2091107958609
 20
33.22169776179413
 30
0.0
 11
-1.0
 21
0.0
 31
0.0
 90
        0
 40
0.36
304
LEADER_LINE{
 10
-303.0
 20
0.0
 30
0.0
 91
        0
305
}
303
}
301
}
340
4C6
 90
   345344
170
     1
 91
-1056964608
341
27
171
    -2
290
     1
291
     1
 41
0.36
342
4A
 42
12.5
172
     2
343
24
173
     1
 95
        6
174
     1
175
     2
 92
-1056964608
292
     0
 93
-1056964608
 10
1.0
 20
1.0
 30
1.0
 43
0.0
176
     0
293
     0
294
     0
178
     0
179
     3
 45
1.0
1001
ACAD_MLEADERVER
1070
     2
  0
ENDSEC
  0
SECTION
  2
OBJECTS
  0
DICTIONARY
  5
B
330
0
100
AcDbDictionary
281
     1
  3
ACAD_2007HEADERVARS_RT
350
4123
  3
ACAD_BACKGROUND
350
4CB
  3
ACAD_COLOR
350
47
  3
ACAD_GROUP
350
34
  3
ACAD_LAYOUT
350
18
  3
ACAD_MATERIAL
350
D
  3
ACAD_MLEADERSTYLE
350
4C5
  3
ACAD_MLINESTYLE
350
35
  3
ACAD_PLOTSETTINGS
350
36
  3
ACAD_PLOTSTYLENAME
350
A
  3
ACAD_SCALELIST
350
48
  3
ACAD_TABLESTYLE
350
49
  3
ACAD_VISUALSTYLE
350
2E
  3
AcadDim
350
B11
  3
ACDB_RECOMPOSE_DATA
350
49F
  3
AcDbVariableDictionary
350
4AE
  3
AcmDictionary
350
2447
  3
AMG
350
2388
  3
AMGSNAPSETTINGS
350
248A
  3
DWGPROPS
350
4122
  3
MAPISURF_MODULE
350
40C7
  0
DICTIONARY
  5
21
330
20
100
AcDbDictionary
280
     1
281
     1
  3
ACAD_LAYERFILTERS
360
3E28
  3
ACAD_LAYERSTATES
360
22
  3
ACLYDICTIONARY
360
3E27
  0
DICTIONARY
  5
7
330
6
100
AcDbDictionary
280
     1
281
     1
  3
ADSK_XREC_LAYER_RECONCILED
360
8
  0
DICTIONARY
  5
3D66
330
3D65
100
AcDbDictionary
280
     1
281
     1
  0
DICTIONARY
  5
3D68
330
3D67
100
AcDbDictionary
280
     1
281
     1
  0
DICTIONARY
  5
3
330
2
100
AcDbDictionary
280
     1
281
     1
  3
ACAD_INDEX
360
258F
  3
ACAD_LAYOUTSELFREF
360
4
  3
ACAD_SORTENTS
360
3886
  0
DICTIONARY
  5
3DC6
330
3D69
100
AcDbDictionary
280
     1
281
     1
  0
DICTIONARY
  5
412C
330
29D5
100
AcDbDictionary
280
     1
281
     1
  3
ACAD_MTEXT_RT
360
412D
  0
DICTIONARY
  5
412E
330
2ED3
100
AcDbDictionary
280
     1
281
     1
  3
ACAD_MTEXT_RT
360
412F
  0
DICTIONARY
  5
4130
330
2F43
100
AcDbDictionary
280
     1
281
     1
  3
ACAD_MTEXT_RT
360
4131
  0
DICTIONARY
  5
4132
330
3406
100
AcDbDictionary
280
     1
281
     1
  3
ACAD_MTEXT_RT
360
4133
  0
DICTIONARY
  5
4134
330
3695
100
AcDbDictionary
280
     1
281
     1
  3
ACAD_MTEXT_RT
360
4135
  0
DICTIONARY
  5
4136
330
38CA
100
AcDbDictionary
280
     1
281
     1
  3
ACAD_MTEXT_RT
360
4137
  0
DICTIONARY
  5
4138
330
3E31
100
AcDbDictionary
280
     1
281
     1
  3
ACAD_MTEXT_RT
360
4139
  0
DICTIONARY
  5
4123
102
{ACAD_REACTORS
330
B
102
}
330
B
100
AcDbDictionary
281
     1
  3
DIMARCSYM
350
4124
  3
DIMLTEX1
350
4126
  3
DIMLTEX2
350
4127
  3
DIMLTYPE
350
4125
  0
DICTIONARY
  5
4CB
102
{ACAD_REACTORS
330
B
102
}
330
B
100
AcDbDictionary
281
     1
  0
DICTIONARY
  5
47
102
{ACAD_REACTORS
330
B
102
}
330
B
100
AcDbDictionary
281
     1
  0
DICTIONARY
  5
34
102
{ACAD_REACTORS
330
B
102
}
330
B
100
AcDbDictionary
281
     1
  0
DICTIONARY
  5
18
102
{ACAD_REACTORS
330
B
102
}
330
B
100
AcDbDictionary
281
     1
  3
Model
350
17
  3
レイアウト1
350
1C
  0
DICTIONARY
  5
D
102
{ACAD_REACTORS
330
B
102
}
330
B
100
AcDbDictionary
281
     1
  3
ByBlock
350
3F
  3
ByLayer
350
37
  3
Global
350
C
  0
DICTIONARY
  5
4C5
102
{ACAD_REACTORS
330
B
102
}
330
B
100
AcDbDictionary
281
     1
  3
Standard
350
4C6
  0
DICTIONARY
  5
35
102
{ACAD_REACTORS
330
B
102
}
330
B
100
AcDbDictionary
281
     1
  3
Standard
350
57
  0
DICTIONARY
  5
36
102
{ACAD_REACTORS
330
B
102
}
330
B
100
AcDbDictionary
281
     1
  0
ACDBDICTIONARYWDFLT
  5
A
102
{ACAD_REACTORS
330
B
102
}
330
B
100
AcDbDictionary
281
     1
  3
Normal
350
9
100
AcDbDictionaryWithDefault
340
9
  0
DICTIONARY
  5
48
102
{ACAD_REACTORS
330
B
102
}
330
B
100
AcDbDictionary
281
     1
  3
A0
350
5B
  3
A1
350
5C
  3
A2
350
5D
  3
A3
350
5E
  3
A4
350
5F
  3
A5
350
60
  3
A6
350
61
  3
A7
350
62
  3
A8
350
63
  3
A9
350
64
  3
B0
350
65
  3
B1
350
66
  3
B2
350
67
  3
B3
350
68
  3
B4
350
69
  3
B5
350
6A
  3
B6
350
6B
  3
B7
350
6C
  3
B8
350
6D
  3
B9
350
6E
  3
C0
350
6F
  3
C1
350
70
  3
C2
350
71
  3
C3
350
72
  3
C4
350
73
  3
C5
350
74
  3
C6
350
75
  3
C7
350
76
  3
C8
350
77
  3
C9
350
78
  3
D0
350
79
  3
D1
350
7A
  3
D2
350
7B
  0
DICTIONARY
  5
49
102
{ACAD_REACTORS
330
B
102
}
330
B
100
AcDbDictionary
281
     1
  3
Standard
350
58
  0
DICTIONARY
  5
2E
102
{ACAD_REACTORS
330
B
102
}
330
B
100
AcDbDictionary
281
     1
  3
2dWireframe
350
4BC
  3
3D Hidden
350
4BD
  3
3dWireframe
350
5A
  3
Basic
350
4BB
  3
Brighten
350
4C0
  3
ColorChange
350
4C4
  3
Conceptual
350
4BE
  3
Dim
350
4BF
  3
Facepattern
350
4C3
  3
Flat
350
4B8
  3
FlatWithEdges
350
4B9
  3
Gouraud
350
2D
  3
GouraudWithEdges
350
4BA
  3
Linepattern
350
4C2
  3
Realistic
350
59
  3
Thicken
350
4C1
  0
XRECORD
  5
B11
102
{ACAD_REACTORS
330
B
102
}
330
B
100
AcDbXrecord
280
     1
 90
   990106
  3

 60
     0
 61
     0
 62
     1
 63
     3
 64
     0
 65
     0
 66
     0
 67
     3
 68
     1
 69
     0
 70
     0
 71
     0
 72
     0
 40
0.0
170
     0
340
B14
  0
XRECORD
  5
49F
102
{ACAD_REACTORS
330
B
102
}
330
B
100
AcDbXrecord
280
     1
 90
        1
330
58
  0
DICTIONARY
  5
4AE
102
{ACAD_REACTORS
330
B
102
}
330
B
100
AcDbDictionary
281
     1
  3
CANNOSCALE
350
4B2
  3
CMLEADERSTYLE
350
4B0
  3
CTABLESTYLE
350
4AF
  3
DIMASSOC
350
4B6
  3
HIDETEXT
350
4B5
  3
INDEXCTL
350
4B4
  3
LIGHTINGUNITS
350
572
  3
MSLTSCALE
350
4B1
  3
SORTENTS
350
4B3
  0
DICTIONARY
  5
2447
102
{ACAD_REACTORS
330
B
102
}
330
B
100
AcDbDictionary
281
     1
  3
AcmStdDictionary
350
2457
  3
AMDTSECTSYM_ARROWCOLOR
350
28FE
  0
DICTIONARY
  5
2388
102
{ACAD_REACTORS
330
B
102
}
330
B
100
AcDbDictionary
281
     1
  3
AcMgSettings
350
2389
  0
DICTIONARY
  5
248A
102
{ACAD_REACTORS
330
B
102
}
330
B
100
AcDbDictionary
281
     1
  3
DIMENSION
350
248F
  3
FEA
350
248E
  3
HATCH (1)
350
248B
  3
HATCH (2)
350
248C
  3
SIMPLE WELD
350
2490
  3
SYMBOLS
350
248D
  0
XRECORD
  5
4122
102
{ACAD_REACTORS
330
B
102
}
330
B
100
AcDbXrecord
280
     1
  1
DWGPROPS COOKIE
  2

  3

  4

  6

  7

  8
WM109WK
  9

300
AmdtFileType=84
301
=
302
=
303
=
304
=
305
=
306
=
307
=
308
=
309
=
 40
2.178314606481481
 41
2451686.550481944
 42
2456113.652054225
  1

 90
        1
  0
DICTIONARY
  5
3E28
102
{ACAD_REACTORS
330
21
102
}
330
21
100
AcDbDictionary
281
     1
  0
DICTIONARY
  5
22
102
{ACAD_REACTORS
330
21
102
}
330
21
100
AcDbDictionary
281
     1
  0
DICTIONARY
  5
3E27
102
{ACAD_REACTORS
330
21
102
}
330
21
100
AcDbDictionary
281
     1
1001
ACAD
1000
<All
  0
XRECORD
  5
8
102
{ACAD_REACTORS
330
7
102
}
330
7
100
AcDbXrecord
280
     1
290
     1
  0
DICTIONARY
  5
258F
102
{ACAD_REACTORS
330
3
102
}
330
3
100
AcDbDictionary
281
     1
  3
*A1
350
2590
  0
XRECORD
  5
4
102
{ACAD_REACTORS
330
3
102
}
330
3
100
AcDbXrecord
280
     1
340
2
  0
SORTENTSTABLE
  5
3886
102
{ACAD_REACTORS
330
3
102
}
330
3
100
AcDbSortentsTable
330
2
331
B2D
  5
B2D
  0
XRECORD
  5
412D
102
{ACAD_REACTORS
330
412C
102
}
330
412C
100
AcDbXrecord
280
     1
 40
6242.0
  1
\A1;4×\U+22056
  0
XRECORD
  5
412F
102
{ACAD_REACTORS
330
412E
102
}
330
412E
100
AcDbXrecord
280
     1
 40
3520.0
  1
2×\U+22055
  0
XRECORD
  5
4131
102
{ACAD_REACTORS
330
4130
102
}
330
4130
100
AcDbXrecord
280
     1
 40
3522.0
  1
4×\U+22055
  0
XRECORD
  5
4133
102
{ACAD_REACTORS
330
4132
102
}
330
4132
100
AcDbXrecord
280
     1
 40
3520.0
  1
2×\U+22055
  0
XRECORD
  5
4135
102
{ACAD_REACTORS
330
4134
102
}
330
4134
100
AcDbXrecord
280
     1
 40
3522.0
  1
4×\U+22055
  0
XRECORD
  5
4137
102
{ACAD_REACTORS
330
4136
102
}
330
4136
100
AcDbXrecord
280
     1
 40
3533.0
  1
4×\U+22056
  0
XRECORD
  5
4139
102
{ACAD_REACTORS
330
4138
102
}
330
4138
100
AcDbXrecord
280
     1
 40
6227.0
  1
\A1;4×\U+22055
  0
XRECORD
  5
4124
102
{ACAD_REACTORS
330
4123
102
}
330
4123
100
AcDbXrecord
280
     1
 70
     1
  0
XRECORD
  5
4126
102
{ACAD_REACTORS
330
4123
102
}
330
4123
100
AcDbXrecord
280
     1
340
27
  0
XRECORD
  5
4127
102
{ACAD_REACTORS
330
4123
102
}
330
4123
100
AcDbXrecord
280
     1
340
27
  0
XRECORD
  5
4125
102
{ACAD_REACTORS
330
4123
102
}
330
4123
100
AcDbXrecord
280
     1
340
27
  0
LAYOUT
  5
17
102
{ACAD_XDICTIONARY
360
4128
102
}
102
{ACAD_REACTORS
330
18
102
}
330
18
100
AcDbPlotSettings
  1

  2
\\ENGC3\QUE_LP1
  4

  6

 40
0.0
 41
0.0
 42
0.0
 43
0.0
 44
0.0
 45
0.0
 46
0.0
 47
0.0
 48
0.0
 49
0.0
140
0.0
141
0.0
142
1.0
143
1.0
 70
  1712
 72
     0
 73
     0
 74
     0
  7

 75
     0
147
1.0
148
0.0
149
0.0
100
AcDbLayout
  1
Model
 70
     1
 71
     0
 10
0.0
 20
0.0
 11
12.0
 21
9.0
 12
0.0
 22
0.0
 32
0.0
 14
0.0
 24
0.0
 34
0.0
 15
0.0
 25
0.0
 35
0.0
146
0.0
 13
0.0
 23
0.0
 33
0.0
 16
1.0
 26
0.0
 36
0.0
 17
0.0
 27
1.0
 37
0.0
 76
     0
330
2
331
B55
  0
LAYOUT
  5
1C
102
{ACAD_XDICTIONARY
360
1D
102
}
102
{ACAD_REACTORS
330
18
102
}
330
18
100
AcDbPlotSettings
  1

  2
Microsoft XPS Document Writer
  4
A4
  6

 40
3.174999952316281
 41
3.174999952316281
 42
3.175003051757812
 43
3.17498779296875
 44
210.0156707763672
 45
297.0106506347656
 46
0.0
 47
0.0
 48
0.0
 49
0.0
140
0.0
141
0.0
142
1.0
143
1.0
 70
   688
 72
     1
 73
     1
 74
     5
  7

 75
    16
147
1.0
148
0.0
149
0.0
100
AcDbLayout
  1
レイアウト1
 70
     1
 71
     1
 10
0.0
 20
0.0
 11
12.0
 21
9.0
 12
0.0
 22
0.0
 32
0.0
 14
-693.5834714082414
 24
-745.7299662773225
 34
0.0
 15
1776.802995295225
 25
952.4796430743904
 35
0.0
146
0.0
 13
0.0
 23
0.0
 33
0.0
 16
1.0
 26
0.0
 36
0.0
 17
0.0
 27
1.0
 37
0.0
 76
     0
330
19
1001
ACAD_PSEXT
1000
Microsoft XPS Document Writer
1000
Microsoft XPS Document Writer
1000
XPSPort:
1000

1070
     0
  0
MATERIAL
  5
3F
102
{ACAD_XDICTIONARY
360
40
102
}
102
{ACAD_REACTORS
330
D
102
}
330
D
100
AcDbMaterial
  1
ByBlock
 72
     0
 43
0.0008202099737533
 43
0.0
 43
0.0
 43
0.0
 43
0.0
 43
0.0008202099737533
 43
0.0
 43
0.0
 43
0.0
 43
0.0
 43
1.0
 43
0.0
 43
0.0
 43
0.0
 43
0.0
 43
1.0
 77
     0
 47
0.0008202099737533
 47
0.0
 47
0.0
 47
0.0
 47
0.0
 47
0.0008202099737533
 47
0.0
 47
0.0
 47
0.0
 47
0.0
 47
1.0
 47
0.0
 47
0.0
 47
0.0
 47
0.0
 47
1.0
171
     0
 49
0.0008202099737533
 49
0.0
 49
0.0
 49
0.0
 49
0.0
 49
0.0008202099737533
 49
0.0
 49
0.0
 49
0.0
 49
0.0
 49
1.0
 49
0.0
 49
0.0
 49
0.0
 49
0.0
 49
1.0
175
     0
142
0.0008202099737533
142
0.0
142
0.0
142
0.0
142
0.0
142
0.0008202099737533
142
0.0
142
0.0
142
0.0
142
0.0
142
1.0
142
0.0
142
0.0
142
0.0
142
0.0
142
1.0
179
     0
144
0.0008202099737533
144
0.0
144
0.0
144
0.0
144
0.0
144
0.0008202099737533
144
0.0
144
0.0
144
0.0
144
0.0
144
1.0
144
0.0
144
0.0
144
0.0
144
0.0
144
1.0
147
0.0008202099737533
147
0.0
147
0.0
147
0.0
147
0.0
147
0.0008202099737533
147
0.0
147
0.0
147
0.0
147
0.0
147
1.0
147
0.0
147
0.0
147
0.0
147
0.0
147
1.0
  0
MATERIAL
  5
37
102
{ACAD_XDICTIONARY
360
38
102
}
102
{ACAD_REACTORS
330
D
102
}
330
D
100
AcDbMaterial
  1
ByLayer
 72
     0
 43
0.0008202099737533
 43
0.0
 43
0.0
 43
0.0
 43
0.0
 43
0.0008202099737533
 43
0.0
 43
0.0
 43
0.0
 43
0.0
 43
1.0
 43
0.0
 43
0.0
 43
0.0
 43
0.0
 43
1.0
 77
     0
 47
0.0008202099737533
 47
0.0
 47
0.0
 47
0.0
 47
0.0
 47
0.0008202099737533
 47
0.0
 47
0.0
 47
0.0
 47
0.0
 47
1.0
 47
0.0
 47
0.0
 47
0.0
 47
0.0
 47
1.0
171
     0
 49
0.0008202099737533
 49
0.0
 49
0.0
 49
0.0
 49
0.0
 49
0.0008202099737533
 49
0.0
 49
0.0
 49
0.0
 49
0.0
 49
1.0
 49
0.0
 49
0.0
 49
0.0
 49
0.0
 49
1.0
175
     0
142
0.0008202099737533
142
0.0
142
0.0
142
0.0
142
0.0
142
0.0008202099737533
142
0.0
142
0.0
142
0.0
142
0.0
142
1.0
142
0.0
142
0.0
142
0.0
142
0.0
142
1.0
179
     0
144
0.0008202099737533
144
0.0
144
0.0
144
0.0
144
0.0
144
0.0008202099737533
144
0.0
144
0.0
144
0.0
144
0.0
144
1.0
144
0.0
144
0.0
144
0.0
144
0.0
144
1.0
147
0.0008202099737533
147
0.0
147
0.0
147
0.0
147
0.0
147
0.0008202099737533
147
0.0
147
0.0
147
0.0
147
0.0
147
1.0
147
0.0
147
0.0
147
0.0
147
0.0
147
1.0
  0
MATERIAL
  5
C
102
{ACAD_XDICTIONARY
360
E
102
}
102
{ACAD_REACTORS
330
D
102
}
330
D
100
AcDbMaterial
  1
Global
 72
     0
 43
0.0008202099737533
 43
0.0
 43
0.0
 43
0.0
 43
0.0
 43
0.0008202099737533
 43
0.0
 43
0.0
 43
0.0
 43
0.0
 43
1.0
 43
0.0
 43
0.0
 43
0.0
 43
0.0
 43
1.0
 77
     0
 47
0.0008202099737533
 47
0.0
 47
0.0
 47
0.0
 47
0.0
 47
0.0008202099737533
 47
0.0
 47
0.0
 47
0.0
 47
0.0
 47
1.0
 47
0.0
 47
0.0
 47
0.0
 47
0.0
 47
1.0
171
     0
 49
0.0008202099737533
 49
0.0
 49
0.0
 49
0.0
 49
0.0
 49
0.0008202099737533
 49
0.0
 49
0.0
 49
0.0
 49
0.0
 49
1.0
 49
0.0
 49
0.0
 49
0.0
 49
0.0
 49
1.0
175
     0
142
0.0008202099737533
142
0.0
142
0.0
142
0.0
142
0.0
142
0.0008202099737533
142
0.0
142
0.0
142
0.0
142
0.0
142
1.0
142
0.0
142
0.0
142
0.0
142
0.0
142
1.0
179
     0
144
0.0008202099737533
144
0.0
144
0.0
144
0.0
144
0.0
144
0.0008202099737533
144
0.0
144
0.0
144
0.0
144
0.0
144
1.0
144
0.0
144
0.0
144
0.0
144
0.0
144
1.0
147
0.0008202099737533
147
0.0
147
0.0
147
0.0
147
0.0
147
0.0008202099737533
147
0.0
147
0.0
147
0.0
147
0.0
147
1.0
147
0.0
147
0.0
147
0.0
147
0.0
147
1.0
  0
MLEADERSTYLE
  5
4C6
102
{ACAD_REACTORS
330
4C5
330
3E9E
102
}
330
4C5
100
AcDbMLeaderStyle
170
     2
171
     1
172
     0
 90
        2
 40
0.0
 41
0.0
173
     1
 91
-1056964608
340
27
 92
       -2
290
     1
 42
2.0
291
     1
 43
0.36
  3
Standard
 44
4.0
300

342
24
174
     1
178
     6
175
     1
176
     0
 93
-1056964608
 45
4.0
292
     0
297
     0
 46
4.0
 94
-1056964608
 47
1.0
 49
1.0
140
1.0
293
     1
141
0.0
294
     1
177
     0
142
1.0
295
     0
296
     0
143
0.125
1001
ACAD_MLEADERVER
1070
     2
  0
MLINESTYLE
  5
57
102
{ACAD_REACTORS
330
35
102
}
330
35
100
AcDbMlineStyle
  2
STANDARD
 70
     0
  3

 62
   256
 51
90.0
 52
90.0
 71
     2
 49
0.5
 62
   256
  6
BYLAYER
 49
-0.5
 62
   256
  6
BYLAYER
  0
ACDBPLACEHOLDER
  5
9
102
{ACAD_REACTORS
330
A
102
}
330
A
  0
SCALE
  5
5B
102
{ACAD_REACTORS
330
48
102
}
330
48
100
AcDbScale
 70
     0
300
1:1
140
1.0
141
1.0
290
     1
  0
SCALE
  5
5C
102
{ACAD_REACTORS
330
48
102
}
330
48
100
AcDbScale
 70
     0
300
1:2
140
1.0
141
2.0
290
     0
  0
SCALE
  5
5D
102
{ACAD_REACTORS
330
48
102
}
330
48
100
AcDbScale
 70
     0
300
1:4
140
1.0
141
4.0
290
     0
  0
SCALE
  5
5E
102
{ACAD_REACTORS
330
48
102
}
330
48
100
AcDbScale
 70
     0
300
1:5
140
1.0
141
5.0
290
     0
  0
SCALE
  5
5F
102
{ACAD_REACTORS
330
48
102
}
330
48
100
AcDbScale
 70
     0
300
1:8
140
1.0
141
8.0
290
     0
  0
SCALE
  5
60
102
{ACAD_REACTORS
330
48
102
}
330
48
100
AcDbScale
 70
     0
300
1:10
140
1.0
141
10.0
290
     0
  0
SCALE
  5
61
102
{ACAD_REACTORS
330
48
102
}
330
48
100
AcDbScale
 70
     0
300
1:16
140
1.0
141
16.0
290
     0
  0
SCALE
  5
62
102
{ACAD_REACTORS
330
48
102
}
330
48
100
AcDbScale
 70
     0
300
1:20
140
1.0
141
20.0
290
     0
  0
SCALE
  5
63
102
{ACAD_REACTORS
330
48
102
}
330
48
100
AcDbScale
 70
     0
300
1:30
140
1.0
141
30.0
290
     0
  0
SCALE
  5
64
102
{ACAD_REACTORS
330
48
102
}
330
48
100
AcDbScale
 70
     0
300
1:40
140
1.0
141
40.0
290
     0
  0
SCALE
  5
65
102
{ACAD_REACTORS
330
48
102
}
330
48
100
AcDbScale
 70
     0
300
1:50
140
1.0
141
50.0
290
     0
  0
SCALE
  5
66
102
{ACAD_REACTORS
330
48
102
}
330
48
100
AcDbScale
 70
     0
300
1:100
140
1.0
141
100.0
290
     0
  0
SCALE
  5
67
102
{ACAD_REACTORS
330
48
102
}
330
48
100
AcDbScale
 70
     0
300
2:1
140
2.0
141
1.0
290
     0
  0
SCALE
  5
68
102
{ACAD_REACTORS
330
48
102
}
330
48
100
AcDbScale
 70
     0
300
4:1
140
4.0
141
1.0
290
     0
  0
SCALE
  5
69
102
{ACAD_REACTORS
330
48
102
}
330
48
100
AcDbScale
 70
     0
300
8:1
140
8.0
141
1.0
290
     0
  0
SCALE
  5
6A
102
{ACAD_REACTORS
330
48
102
}
330
48
100
AcDbScale
 70
     0
300
10:1
140
10.0
141
1.0
290
     0
  0
SCALE
  5
6B
102
{ACAD_REACTORS
330
48
102
}
330
48
100
AcDbScale
 70
     0
300
100:1
140
100.0
141
1.0
290
     0
  0
SCALE
  5
6C
102
{ACAD_REACTORS
330
48
102
}
330
48
100
AcDbScale
 70
     0
300
1/128" = 1'-0"
140
0.0078125
141
12.0
290
     0
  0
SCALE
  5
6D
102
{ACAD_REACTORS
330
48
102
}
330
48
100
AcDbScale
 70
     0
300
1/64" = 1'-0"
140
0.015625
141
12.0
290
     0
  0
SCALE
  5
6E
102
{ACAD_REACTORS
330
48
102
}
330
48
100
AcDbScale
 70
     0
300
1/32" = 1'-0"
140
0.03125
141
12.0
290
     0
  0
SCALE
  5
6F
102
{ACAD_REACTORS
330
48
102
}
330
48
100
AcDbScale
 70
     0
300
1/16" = 1'-0"
140
0.0625
141
12.0
290
     0
  0
SCALE
  5
70
102
{ACAD_REACTORS
330
48
102
}
330
48
100
AcDbScale
 70
     0
300
3/32" = 1'-0"
140
0.09375
141
12.0
290
     0
  0
SCALE
  5
71
102
{ACAD_REACTORS
330
48
102
}
330
48
100
AcDbScale
 70
     0
300
1/8" = 1'-0"
140
0.125
141
12.0
290
     0
  0
SCALE
  5
72
102
{ACAD_REACTORS
330
48
102
}
330
48
100
AcDbScale
 70
     0
300
3/16" = 1'-0"
140
0.1875
141
12.0
290
     0
  0
SCALE
  5
73
102
{ACAD_REACTORS
330
48
102
}
330
48
100
AcDbScale
 70
     0
300
1/4" = 1'-0"
140
0.25
141
12.0
290
     0
  0
SCALE
  5
74
102
{ACAD_REACTORS
330
48
102
}
330
48
100
AcDbScale
 70
     0
300
3/8" = 1'-0"
140
0.375
141
12.0
290
     0
  0
SCALE
  5
75
102
{ACAD_REACTORS
330
48
102
}
330
48
100
AcDbScale
 70
     0
300
1/2" = 1'-0"
140
0.5
141
12.0
290
     0
  0
SCALE
  5
76
102
{ACAD_REACTORS
330
48
102
}
330
48
100
AcDbScale
 70
     0
300
3/4" = 1'-0"
140
0.75
141
12.0
290
     0
  0
SCALE
  5
77
102
{ACAD_REACTORS
330
48
102
}
330
48
100
AcDbScale
 70
     0
300
1" = 1'-0"
140
1.0
141
12.0
290
     0
  0
SCALE
  5
78
102
{ACAD_REACTORS
330
48
102
}
330
48
100
AcDbScale
 70
     0
300
1-1/2" = 1'-0"
140
1.5
141
12.0
290
     0
  0
SCALE
  5
79
102
{ACAD_REACTORS
330
48
102
}
330
48
100
AcDbScale
 70
     0
300
3" = 1'-0"
140
3.0
141
12.0
290
     0
  0
SCALE
  5
7A
102
{ACAD_REACTORS
330
48
102
}
330
48
100
AcDbScale
 70
     0
300
6" = 1'-0"
140
6.0
141
12.0
290
     0
  0
SCALE
  5
7B
102
{ACAD_REACTORS
330
48
102
}
330
48
100
AcDbScale
 70
     0
300
1'-0" = 1'-0"
140
12.0
141
12.0
290
     0
  0
TABLESTYLE
  5
58
102
{ACAD_XDICTIONARY
360
49D
102
}
102
{ACAD_REACTORS
330
49
102
}
330
49
100
AcDbTableStyle
  3
Standard
 70
     0
 71
     0
 40
1.5
 41
1.5
280
     0
281
     0
  7
Standard
140
4.5
170
     2
 62
     0
 63
     7
283
     0
274
    -2
284
     1
 64
     0
275
    -2
285
     1
 65
     0
276
    -2
286
     1
 66
     0
277
    -2
287
     1
 67
     0
278
    -2
288
     1
 68
     0
279
    -2
289
     1
 69
     0
  7
Standard
140
6.0
170
     5
 62
     0
 63
     7
283
     0
274
    -2
284
     1
 64
     0
275
    -2
285
     1
 65
     0
276
    -2
286
     1
 66
     0
277
    -2
287
     1
 67
     0
278
    -2
288
     1
 68
     0
279
    -2
289
     1
 69
     0
  7
Standard
140
4.5
170
     5
 62
     0
 63
     7
283
     0
274
    -2
284
     1
 64
     0
275
    -2
285
     1
 65
     0
276
    -2
286
     1
 66
     0
277
    -2
287
     1
 67
     0
278
    -2
288
     1
 68
     0
279
    -2
289
     1
 69
     0
  0
VISUALSTYLE
  5
4BC
102
{ACAD_REACTORS
330
2E
102
}
330
2E
100
AcDbVisualStyle
  2
2dWireframe
 70
     4
 71
     0
 72
     2
 73
     0
 90
        0
 40
-0.6
 41
-30.0
 62
     5
 63
     7
 74
     1
 91
        4
 64
     7
 65
   257
 75
     1
175
     1
 42
1.0
 92
        0
 66
   257
 43
1.0
 76
     1
 77
     6
 78
     2
 67
     7
 79
     5
170
     0
171
     0
290
     0
174
     0
 93
        1
 44
0.0
173
     0
291
     0
 45
0.0
1001
ACAD
1000
AcDbSavedByObjectVersion
1070
     0
1000
AcDbSavedByObjectVersion
1070
     0
1000
AcDbSavedByObjectVersion
1070
     0
1000
AcDbSavedByObjectVersion
1070
     0
1000
AcDbSavedByObjectVersion
1070
     0
1000
AcDbSavedByObjectVersion
1070
     0
1000
AcDbSavedByObjectVersion
1070
     0
1000
AcDbSavedByObjectVersion
1070
     0
1000
AcDbSavedByObjectVersion
1070
     0
1000
AcDbSavedByObjectVersion
1070
     0
1000
AcDbSavedByObjectVersion
1070
     0
1000
AcDbSavedByObjectVersion
1070
     0
1000
AcDbSavedByObjectVersion
1070
     0
1000
AcDbSavedByObjectVersion
1070
     0
1000
AcDbSavedByObjectVersion
1070
     0
1000
AcDbSavedByObjectVersion
1070
     0
1000
AcDbSavedByObjectVersion
1070
     0
1000
AcDbSavedByObjectVersion
1070
     0
  0
VISUALSTYLE
  5
4BD
102
{ACAD_REACTORS
330
2E
102
}
330
2E
100
AcDbVisualStyle
  2
3D Hidden
 70
     6
 71
     1
 72
     2
 73
     2
 90
        0
 40
-0.6
 41
-30.0
 62
     5
 63
     7
 74
     2
 91
        2
 64
     7
 65
   257
 75
     2
175
     1
 42
40.0
 92
        0
 66
   257
 43
1.0
 76
     1
 77
     6
 78
     2
 67
     7
 79
     3
170
     0
171
     0
290
     0
174
     0
 93
        1
 44
0.0
173
     0
291
     0
 45
0.0
1001
ACAD
1000
AcDbSavedByObjectVersion
1070
     0
1000
AcDbSavedByObjectVersion
1070
     0
1000
AcDbSavedByObjectVersion
1070
     0
1000
AcDbSavedByObjectVersion
1070
     0
1000
AcDbSavedByObjectVersion
1070
     0
1000
AcDbSavedByObjectVersion
1070
     0
1000
AcDbSavedByObjectVersion
1070
     0
1000
AcDbSavedByObjectVersion
1070
     0
1000
AcDbSavedByObjectVersion
1070
     0
1000
AcDbSavedByObjectVersion
1070
     0
1000
AcDbSavedByObjectVersion
1070
     0
1000
AcDbSavedByObjectVersion
1070
     0
1000
AcDbSavedByObjectVersion
1070
     0
1000
AcDbSavedByObjectVersion
1070
     0
1000
AcDbSavedByObjectVersion
1070
     0
1000
AcDbSavedByObjectVersion
1070
     0
1000
AcDbSavedByObjectVersion
1070
     0
1000
AcDbSavedByObjectVersion
1070
     0
  0
VISUALSTYLE
  5
5A
102
{ACAD_REACTORS
330
2E
102
}
330
2E
100
AcDbVisualStyle
  2
3dWireframe
 70
     5
 71
     0
 72
     2
 73
     0
 90
        0
 40
-0.6
 41
-30.0
 62
     5
 63
     7
 74
     1
 91
        4
 64
     7
 65
   257
 75
     1
175
     1
 42
1.0
 92
        0
 66
   257
 43
1.0
 76
     1
 77
     6
 78
     2
 67
     7
 79
     5
170
     0
171
     0
290
     0
174
     0
 93
        1
 44
0.0
173
     0
291
     0
 45
0.0
1001
ACAD
1000
AcDbSavedByObjectVersion
1070
     0
1000
AcDbSavedByObjectVersion
1070
     0
1000
AcDbSavedByObjectVersion
1070
     0
1000
AcDbSavedByObjectVersion
1070
     0
1000
AcDbSavedByObjectVersion
1070
     0
1000
AcDbSavedByObjectVersion
1070
     0
1000
AcDbSavedByObjectVersion
1070
     0
1000
AcDbSavedByObjectVersion
1070
     0
1000
AcDbSavedByObjectVersion
1070
     0
1000
AcDbSavedByObjectVersion
1070
     0
1000
AcDbSavedByObjectVersion
1070
     0
1000
AcDbSavedByObjectVersion
1070
     0
1000
AcDbSavedByObjectVersion
1070
     0
1000
AcDbSavedByObjectVersion
1070
     0
1000
AcDbSavedByObjectVersion
1070
     0
1000
AcDbSavedByObjectVersion
1070
     0
1000
AcDbSavedByObjectVersion
1070
     0
1000
AcDbSavedByObjectVersion
1070
     0
  0
VISUALSTYLE
  5
4BB
102
{ACAD_REACTORS
330
2E
102
}
330
2E
100
AcDbVisualStyle
  2
Basic
 70
     7
 71
     1
 72
     0
 73
     1
 90
        0
 40
-0.6
 41
-30.0
 62
     5
 63
     7
 74
     0
 91
        4
 64
     7
 65
   257
 75
     1
175
     1
 42
1.0
 92
        8
 66
     7
 43
1.0
 76
     1
 77
     6
 78
     2
 67
     7
 79
     5
170
     0
171
     0
290
     0
174
     0
 93
        1
 44
0.0
173
     0
291
     1
 45
0.0
1001
ACAD
1000
AcDbSavedByObjectVersion
1070
     0
1000
AcDbSavedByObjectVersion
1070
     0
1000
AcDbSavedByObjectVersion
1070
     0
1000
AcDbSavedByObjectVersion
1070
     0
1000
AcDbSavedByObjectVersion
1070
     0
1000
AcDbSavedByObjectVersion
1070
     0
1000
AcDbSavedByObjectVersion
1070
     0
1000
AcDbSavedByObjectVersion
1070
     0
1000
AcDbSavedByObjectVersion
1070
     0
1000
AcDbSavedByObjectVersion
1070
     0
1000
AcDbSavedByObjectVersion
1070
     0
1000
AcDbSavedByObjectVersion
1070
     0
1000
AcDbSavedByObjectVersion
1070
     0
1000
AcDbSavedByObjectVersion
1070
     0
1000
AcDbSavedByObjectVersion
1070
     0
1000
AcDbSavedByObjectVersion
1070
     0
1000
AcDbSavedByObjectVersion
1070
     0
1000
AcDbSavedByObjectVersion
1070
     0
  0
VISUALSTYLE
  5
4C0
102
{ACAD_REACTORS
330
2E
102
}
330
2E
100
AcDbVisualStyle
  2
Brighten
 70
    12
 71
     2
 72
     2
 73
     0
 90
        0
 40
-0.6
 41
-30.0
 62
     5
 63
     7
 74
     1
 91
        4
 64
     7
 65
   257
 75
     1
175
     1
 42
1.0
 92
        8
 66
     7
 43
1.0
 76
     1
 77
     6
 78
     2
 67
     7
 79
     5
170
     0
171
     0
290
     0
174
     0
 93
        1
 44
50.0
173
     0
291
     1
 45
0.0
1001
ACAD
1000
AcDbSavedByObjectVersion
1070
     0
1000
AcDbSavedByObjectVersion
1070
     0
1000
AcDbSavedByObjectVersion
1070
     0
1000
AcDbSavedByObjectVersion
1070
     0
1000
AcDbSavedByObjectVersion
1070
     0
1000
AcDbSavedByObjectVersion
1070
     0
1000
AcDbSavedByObjectVersion
1070
     0
1000
AcDbSavedByObjectVersion
1070
     0
1000
AcDbSavedByObjectVersion
1070
     0
1000
AcDbSavedByObjectVersion
1070
     0
1000
AcDbSavedByObjectVersion
1070
     0
1000
AcDbSavedByObjectVersion
1070
     0
1000
AcDbSavedByObjectVersion
1070
     0
1000
AcDbSavedByObjectVersion
1070
     0
1000
AcDbSavedByObjectVersion
1070
     0
1000
AcDbSavedByObjectVersion
1070
     0
1000
AcDbSavedByObjectVersion
1070
     0
1000
AcDbSavedByObjectVersion
1070
     0
  0
VISUALSTYLE
  5
4C4
102
{ACAD_REACTORS
330
2E
102
}
330
2E
100
AcDbVisualStyle
  2
ColorChange
 70
    16
 71
     2
 72
     2
 73
     3
 90
        0
 40
-0.6
 41
-30.0
 62
     5
 63
     8
 74
     1
 91
        4
 64
     7
 65
   257
 75
     1
175
     1
 42
1.0
 92
        8
 66
     8
 43
1.0
 76
     1
 77
     6
 78
     2
 67
     7
 79
     5
170
     0
171
     0
290
     0
174
     0
 93
        1
 44
0.0
173
     0
291
     1
 45
0.0
1001
ACAD
1000
AcDbSavedByObjectVersion
1070
     0
1000
AcDbSavedByObjectVersion
1070
     0
1000
AcDbSavedByObjectVersion
1070
     0
1000
AcDbSavedByObjectVersion
1070
     0
1000
AcDbSavedByObjectVersion
1070
     0
1000
AcDbSavedByObjectVersion
1070
     0
1000
AcDbSavedByObjectVersion
1070
     0
1000
AcDbSavedByObjectVersion
1070
     0
1000
AcDbSavedByObjectVersion
1070
     0
1000
AcDbSavedByObjectVersion
1070
     0
1000
AcDbSavedByObjectVersion
1070
     0
1000
AcDbSavedByObjectVersion
1070
     0
1000
AcDbSavedByObjectVersion
1070
     0
1000
AcDbSavedByObjectVersion
1070
     0
1000
AcDbSavedByObjectVersion
1070
     0
1000
AcDbSavedByObjectVersion
1070
     0
1000
AcDbSavedByObjectVersion
1070
     0
1000
AcDbSavedByObjectVersion
1070
     0
  0
VISUALSTYLE
  5
4BE
102
{ACAD_REACTORS
330
2E
102
}
330
2E
100
AcDbVisualStyle
  2
Conceptual
 70
     9
 71
     3
 72
     2
 73
     0
 90
        0
 40
-0.6
 41
-30.0
 62
     5
 63
     7
 74
     2
 91
        2
 64
     7
 65
   257
 75
     1
175
     1
 42
40.0
 92
        8
 66
     7
 43
1.0
 76
     1
 77
     6
 78
     2
 67
     7
 79
     3
170
     0
171
     0
290
     0
174
     0
 93
        1
 44
0.0
173
     0
291
     0
 45
0.0
1001
ACAD
1000
AcDbSavedByObjectVersion
1070
     0
1000
AcDbSavedByObjectVersion
1070
     0
1000
AcDbSavedByObjectVersion
1070
     0
1000
AcDbSavedByObjectVersion
1070
     0
1000
AcDbSavedByObjectVersion
1070
     0
1000
AcDbSavedByObjectVersion
1070
     0
1000
AcDbSavedByObjectVersion
1070
     0
1000
AcDbSavedByObjectVersion
1070
     0
1000
AcDbSavedByObjectVersion
1070
     0
1000
AcDbSavedByObjectVersion
1070
     0
1000
AcDbSavedByObjectVersion
1070
     0
1000
AcDbSavedByObjectVersion
1070
     0
1000
AcDbSavedByObjectVersion
1070
     0
1000
AcDbSavedByObjectVersion
1070
     0
1000
AcDbSavedByObjectVersion
1070
     0
1000
AcDbSavedByObjectVersion
1070
     0
1000
AcDbSavedByObjectVersion
1070
     0
1000
AcDbSavedByObjectVersion
1070
     0
  0
VISUALSTYLE
  5
4BF
102
{ACAD_REACTORS
330
2E
102
}
330
2E
100
AcDbVisualStyle
  2
Dim
 70
    11
 71
     2
 72
     2
 73
     0
 90
        0
 40
-0.6
 41
-30.0
 62
     5
 63
     7
 74
     1
 91
        4
 64
     7
 65
   257
 75
     1
175
     1
 42
1.0
 92
        8
 66
     7
 43
1.0
 76
     1
 77
     6
 78
     2
 67
     7
 79
     5
170
     0
171
     0
290
     0
174
     0
 93
        1
 44
-50.0
173
     0
291
     1
 45
0.0
1001
ACAD
1000
AcDbSavedByObjectVersion
1070
     0
1000
AcDbSavedByObjectVersion
1070
     0
1000
AcDbSavedByObjectVersion
1070
     0
1000
AcDbSavedByObjectVersion
1070
     0
1000
AcDbSavedByObjectVersion
1070
     0
1000
AcDbSavedByObjectVersion
1070
     0
1000
AcDbSavedByObjectVersion
1070
     0
1000
AcDbSavedByObjectVersion
1070
     0
1000
AcDbSavedByObjectVersion
1070
     0
1000
AcDbSavedByObjectVersion
1070
     0
1000
AcDbSavedByObjectVersion
1070
     0
1000
AcDbSavedByObjectVersion
1070
     0
1000
AcDbSavedByObjectVersion
1070
     0
1000
AcDbSavedByObjectVersion
1070
     0
1000
AcDbSavedByObjectVersion
1070
     0
1000
AcDbSavedByObjectVersion
1070
     0
1000
AcDbSavedByObjectVersion
1070
     0
1000
AcDbSavedByObjectVersion
1070
     0
  0
VISUALSTYLE
  5
4C3
102
{ACAD_REACTORS
330
2E
102
}
330
2E
100
AcDbVisualStyle
  2
Facepattern
 70
    15
 71
     2
 72
     2
 73
     0
 90
        0
 40
-0.6
 41
-30.0
 62
     5
 63
     7
 74
     1
 91
        4
 64
     7
 65
   257
 75
     1
175
     1
 42
1.0
 92
        8
 66
     7
 43
1.0
 76
     1
 77
     6
 78
     2
 67
     7
 79
     5
170
     0
171
     0
290
     0
174
     0
 93
        1
 44
0.0
173
     0
291
     1
 45
0.0
1001
ACAD
1000
AcDbSavedByObjectVersion
1070
     0
1000
AcDbSavedByObjectVersion
1070
     0
1000
AcDbSavedByObjectVersion
1070
     0
1000
AcDbSavedByObjectVersion
1070
     0
1000
AcDbSavedByObjectVersion
1070
     0
1000
AcDbSavedByObjectVersion
1070
     0
1000
AcDbSavedByObjectVersion
1070
     0
1000
AcDbSavedByObjectVersion
1070
     0
1000
AcDbSavedByObjectVersion
1070
     0
1000
AcDbSavedByObjectVersion
1070
     0
1000
AcDbSavedByObjectVersion
1070
     0
1000
AcDbSavedByObjectVersion
1070
     0
1000
AcDbSavedByObjectVersion
1070
     0
1000
AcDbSavedByObjectVersion
1070
     0
1000
AcDbSavedByObjectVersion
1070
     0
1000
AcDbSavedByObjectVersion
1070
     0
1000
AcDbSavedByObjectVersion
1070
     0
1000
AcDbSavedByObjectVersion
1070
     0
  0
VISUALSTYLE
  5
4B8
102
{ACAD_REACTORS
330
2E
102
}
330
2E
100
AcDbVisualStyle
  2
Flat
 70
     0
 71
     2
 72
     1
 73
     1
 90
        2
 40
-0.6
 41
30.0
 62
     5
 63
     7
 74
     0
 91
        4
 64
     7
 65
   257
 75
     1
175
     1
 42
1.0
 92
        8
 66
     7
 43
1.0
 76
     1
 77
     6
 78
     2
 67
     7
 79
     5
170
     0
171
     0
290
     0
174
     0
 93
       13
 44
0.0
173
     0
291
     1
 45
0.0
1001
ACAD
1000
AcDbSavedByObjectVersion
1070
     0
1000
AcDbSavedByObjectVersion
1070
     0
1000
AcDbSavedByObjectVersion
1070
     0
1000
AcDbSavedByObjectVersion
1070
     0
1000
AcDbSavedByObjectVersion
1070
     0
1000
AcDbSavedByObjectVersion
1070
     0
1000
AcDbSavedByObjectVersion
1070
     0
1000
AcDbSavedByObjectVersion
1070
     0
1000
AcDbSavedByObjectVersion
1070
     0
1000
AcDbSavedByObjectVersion
1070
     0
1000
AcDbSavedByObjectVersion
1070
     0
1000
AcDbSavedByObjectVersion
1070
     0
1000
AcDbSavedByObjectVersion
1070
     0
1000
AcDbSavedByObjectVersion
1070
     0
1000
AcDbSavedByObjectVersion
1070
     0
1000
AcDbSavedByObjectVersion
1070
     0
1000
AcDbSavedByObjectVersion
1070
     0
1000
AcDbSavedByObjectVersion
1070
     0
  0
VISUALSTYLE
  5
4B9
102
{ACAD_REACTORS
330
2E
102
}
330
2E
100
AcDbVisualStyle
  2
FlatWithEdges
 70
     1
 71
     2
 72
     1
 73
     1
 90
        2
 40
-0.6
 41
30.0
 62
     5
 63
     7
 74
     1
 91
        4
 64
     7
 65
   257
 75
     1
175
     1
 42
1.0
 92
        0
 66
   257
 43
1.0
 76
     1
 77
     6
 78
     2
 67
     7
 79
     5
170
     0
171
     0
290
     0
174
     0
 93
       13
 44
0.0
173
     0
291
     1
 45
0.0
1001
ACAD
1000
AcDbSavedByObjectVersion
1070
     0
1000
AcDbSavedByObjectVersion
1070
     0
1000
AcDbSavedByObjectVersion
1070
     0
1000
AcDbSavedByObjectVersion
1070
     0
1000
AcDbSavedByObjectVersion
1070
     0
1000
AcDbSavedByObjectVersion
1070
     0
1000
AcDbSavedByObjectVersion
1070
     0
1000
AcDbSavedByObjectVersion
1070
     0
1000
AcDbSavedByObjectVersion
1070
     0
1000
AcDbSavedByObjectVersion
1070
     0
1000
AcDbSavedByObjectVersion
1070
     0
1000
AcDbSavedByObjectVersion
1070
     0
1000
AcDbSavedByObjectVersion
1070
     0
1000
AcDbSavedByObjectVersion
1070
     0
1000
AcDbSavedByObjectVersion
1070
     0
1000
AcDbSavedByObjectVersion
1070
     0
1000
AcDbSavedByObjectVersion
1070
     0
1000
AcDbSavedByObjectVersion
1070
     0
  0
VISUALSTYLE
  5
2D
102
{ACAD_REACTORS
330
2E
102
}
330
2E
100
AcDbVisualStyle
  2
Gouraud
 70
     2
 71
     2
 72
     2
 73
     1
 90
        2
 40
-0.6
 41
30.0
 62
     5
 63
     7
 74
     0
 91
        4
 64
     7
 65
   257
 75
     1
175
     1
 42
1.0
 92
        0
 66
     7
 43
1.0
 76
     1
 77
     6
 78
     2
 67
     7
 79
     5
170
     0
171
     0
290
     0
174
     0
 93
       13
 44
0.0
173
     0
291
     1
 45
0.0
1001
ACAD
1000
AcDbSavedByObjectVersion
1070
     0
1000
AcDbSavedByObjectVersion
1070
     0
1000
AcDbSavedByObjectVersion
1070
     0
1000
AcDbSavedByObjectVersion
1070
     0
1000
AcDbSavedByObjectVersion
1070
     0
1000
AcDbSavedByObjectVersion
1070
     0
1000
AcDbSavedByObjectVersion
1070
     0
1000
AcDbSavedByObjectVersion
1070
     0
1000
AcDbSavedByObjectVersion
1070
     0
1000
AcDbSavedByObjectVersion
1070
     0
1000
AcDbSavedByObjectVersion
1070
     0
1000
AcDbSavedByObjectVersion
1070
     0
1000
AcDbSavedByObjectVersion
1070
     0
1000
AcDbSavedByObjectVersion
1070
     0
1000
AcDbSavedByObjectVersion
1070
     0
1000
AcDbSavedByObjectVersion
1070
     0
1000
AcDbSavedByObjectVersion
1070
     0
1000
AcDbSavedByObjectVersion
1070
     0
  0
VISUALSTYLE
  5
4BA
102
{ACAD_REACTORS
330
2E
102
}
330
2E
100
AcDbVisualStyle
  2
GouraudWithEdges
 70
     3
 71
     2
 72
     2
 73
     1
 90
        2
 40
-0.6
 41
30.0
 62
     5
 63
     7
 74
     1
 91
        4
 64
     7
 65
   257
 75
     1
175
     1
 42
1.0
 92
        0
 66
   257
 43
1.0
 76
     1
 77
     6
 78
     2
 67
     7
 79
     5
170
     0
171
     0
290
     0
174
     0
 93
       13
 44
0.0
173
     0
291
     1
 45
0.0
1001
ACAD
1000
AcDbSavedByObjectVersion
1070
     0
1000
AcDbSavedByObjectVersion
1070
     0
1000
AcDbSavedByObjectVersion
1070
     0
1000
AcDbSavedByObjectVersion
1070
     0
1000
AcDbSavedByObjectVersion
1070
     0
1000
AcDbSavedByObjectVersion
1070
     0
1000
AcDbSavedByObjectVersion
1070
     0
1000
AcDbSavedByObjectVersion
1070
     0
1000
AcDbSavedByObjectVersion
1070
     0
1000
AcDbSavedByObjectVersion
1070
     0
1000
AcDbSavedByObjectVersion
1070
     0
1000
AcDbSavedByObjectVersion
1070
     0
1000
AcDbSavedByObjectVersion
1070
     0
1000
AcDbSavedByObjectVersion
1070
     0
1000
AcDbSavedByObjectVersion
1070
     0
1000
AcDbSavedByObjectVersion
1070
     0
1000
AcDbSavedByObjectVersion
1070
     0
1000
AcDbSavedByObjectVersion
1070
     0
  0
VISUALSTYLE
  5
4C2
102
{ACAD_REACTORS
330
2E
102
}
330
2E
100
AcDbVisualStyle
  2
Linepattern
 70
    14
 71
     2
 72
     2
 73
     0
 90
        0
 40
-0.6
 41
-30.0
 62
     5
 63
     7
 74
     1
 91
        4
 64
     7
 65
   257
 75
     7
175
     7
 42
1.0
 92
        8
 66
     7
 43
1.0
 76
     1
 77
     6
 78
     2
 67
     7
 79
     5
170
     0
171
     0
290
     0
174
     0
 93
        1
 44
0.0
173
     0
291
     1
 45
0.0
1001
ACAD
1000
AcDbSavedByObjectVersion
1070
     0
1000
AcDbSavedByObjectVersion
1070
     0
1000
AcDbSavedByObjectVersion
1070
     0
1000
AcDbSavedByObjectVersion
1070
     0
1000
AcDbSavedByObjectVersion
1070
     0
1000
AcDbSavedByObjectVersion
1070
     0
1000
AcDbSavedByObjectVersion
1070
     0
1000
AcDbSavedByObjectVersion
1070
     0
1000
AcDbSavedByObjectVersion
1070
     0
1000
AcDbSavedByObjectVersion
1070
     0
1000
AcDbSavedByObjectVersion
1070
     0
1000
AcDbSavedByObjectVersion
1070
     0
1000
AcDbSavedByObjectVersion
1070
     0
1000
AcDbSavedByObjectVersion
1070
     0
1000
AcDbSavedByObjectVersion
1070
     0
1000
AcDbSavedByObjectVersion
1070
     0
1000
AcDbSavedByObjectVersion
1070
     0
1000
AcDbSavedByObjectVersion
1070
     0
  0
VISUALSTYLE
  5
59
102
{ACAD_REACTORS
330
2E
102
}
330
2E
100
AcDbVisualStyle
  2
Realistic
 70
     8
 71
     2
 72
     2
 73
     0
 90
        0
 40
-0.6
 41
-30.0
 62
     5
 63
     7
 74
     1
 91
        0
 64
     7
 65
   257
 75
     1
175
     1
 42
1.0
 92
        8
 66
     8
 43
1.0
 76
     1
 77
     6
 78
     2
 67
     7
 79
     5
170
     0
171
     0
290
     0
174
     0
 93
       13
 44
0.0
173
     0
291
     0
 45
0.0
1001
ACAD
1000
AcDbSavedByObjectVersion
1070
     0
1000
AcDbSavedByObjectVersion
1070
     0
1000
AcDbSavedByObjectVersion
1070
     0
1000
AcDbSavedByObjectVersion
1070
     0
1000
AcDbSavedByObjectVersion
1070
     0
1000
AcDbSavedByObjectVersion
1070
     0
1000
AcDbSavedByObjectVersion
1070
     0
1000
AcDbSavedByObjectVersion
1070
     0
1000
AcDbSavedByObjectVersion
1070
     0
1000
AcDbSavedByObjectVersion
1070
     0
1000
AcDbSavedByObjectVersion
1070
     0
1000
AcDbSavedByObjectVersion
1070
     0
1000
AcDbSavedByObjectVersion
1070
     0
1000
AcDbSavedByObjectVersion
1070
     0
1000
AcDbSavedByObjectVersion
1070
     0
1000
AcDbSavedByObjectVersion
1070
     0
1000
AcDbSavedByObjectVersion
1070
     0
1000
AcDbSavedByObjectVersion
1070
     0
  0
VISUALSTYLE
  5
4C1
102
{ACAD_REACTORS
330
2E
102
}
330
2E
100
AcDbVisualStyle
  2
Thicken
 70
    13
 71
     2
 72
     2
 73
     0
 90
        0
 40
-0.6
 41
-30.0
 62
     5
 63
     7
 74
     1
 91
        4
 64
     7
 65
   257
 75
     1
175
     1
 42
1.0
 92
       12
 66
     7
 43
1.0
 76
     1
 77
     6
 78
     2
 67
     7
 79
     5
170
     0
171
     0
290
     0
174
     0
 93
        1
 44
0.0
173
     0
291
     1
 45
0.0
1001
ACAD
1000
AcDbSavedByObjectVersion
1070
     0
1000
AcDbSavedByObjectVersion
1070
     0
1000
AcDbSavedByObjectVersion
1070
     0
1000
AcDbSavedByObjectVersion
1070
     0
1000
AcDbSavedByObjectVersion
1070
     0
1000
AcDbSavedByObjectVersion
1070
     0
1000
AcDbSavedByObjectVersion
1070
     0
1000
AcDbSavedByObjectVersion
1070
     0
1000
AcDbSavedByObjectVersion
1070
     0
1000
AcDbSavedByObjectVersion
1070
     0
1000
AcDbSavedByObjectVersion
1070
     0
1000
AcDbSavedByObjectVersion
1070
     0
1000
AcDbSavedByObjectVersion
1070
     0
1000
AcDbSavedByObjectVersion
1070
     0
1000
AcDbSavedByObjectVersion
1070
     0
1000
AcDbSavedByObjectVersion
1070
     0
1000
AcDbSavedByObjectVersion
1070
     0
1000
AcDbSavedByObjectVersion
1070
     0
  0
DICTIONARYVAR
  5
4B2
102
{ACAD_REACTORS
330
4AE
102
}
330
4AE
100
DictionaryVariables
280
     0
  1
1:1
  0
DICTIONARYVAR
  5
4B0
102
{ACAD_REACTORS
330
4AE
102
}
330
4AE
100
DictionaryVariables
280
     0
  1
STANDARD
  0
DICTIONARYVAR
  5
4AF
102
{ACAD_REACTORS
330
4AE
102
}
330
4AE
100
DictionaryVariables
280
     0
  1
STANDARD
  0
DICTIONARYVAR
  5
4B6
102
{ACAD_REACTORS
330
4AE
102
}
330
4AE
100
DictionaryVariables
280
     0
  1
1
  0
DICTIONARYVAR
  5
4B5
102
{ACAD_REACTORS
330
4AE
102
}
330
4AE
100
DictionaryVariables
280
     0
  1
1
  0
DICTIONARYVAR
  5
4B4
102
{ACAD_REACTORS
330
4AE
102
}
330
4AE
100
DictionaryVariables
280
     0
  1
1
  0
DICTIONARYVAR
  5
572
102
{ACAD_REACTORS
330
4AE
102
}
330
4AE
100
DictionaryVariables
280
     0
  1
0
  0
DICTIONARYVAR
  5
4B1
102
{ACAD_REACTORS
330
4AE
102
}
330
4AE
100
DictionaryVariables
280
     0
  1
1
  0
DICTIONARYVAR
  5
4B3
102
{ACAD_REACTORS
330
4AE
102
}
330
4AE
100
DictionaryVariables
280
     0
  1
127
  0
DICTIONARY
  5
2457
102
{ACAD_REACTORS
330
2447
102
}
330
2447
100
AcDbDictionary
281
     1
  0
XRECORD
  5
28FE
102
{ACAD_REACTORS
330
2447
102
}
330
2447
100
AcDbXrecord
280
     1
 90
-1023410169
  0
DICTIONARY
  5
2389
102
{ACAD_REACTORS
330
2388
102
}
330
2388
100
AcDbDictionary
281
     1
  3
DWGSETTINGS
350
4049
  3
TRANSSETTINGS
350
404A
  0
ACAMGFILTERDAT
  5
248F
102
{ACAD_REACTORS
330
248A
102
}
330
248A
100
AcAmgFilterDat
 70
    15
  1
DIMENSION,AMDT_*_DIM
  2
*
  3
*
  4
*
  5
*
290
     1
  0
ACAMGFILTERDAT
  5
248E
102
{ACAD_REACTORS
330
248A
102
}
330
248A
100
AcAmgFilterDat
 70
    15
  1
*
  2
AM_FEA-AM_*
  3
*
  4
*
  5
*
290
     1
  0
ACAMGFILTERDAT
  5
248B
102
{ACAD_REACTORS
330
248A
102
}
330
248A
100
AcAmgFilterDat
 70
    15
  1
HATCH
  2
*
  3
*
  4
*
  5
*
290
     1
  0
ACAMGFILTERDAT
  5
248C
102
{ACAD_REACTORS
330
248A
102
}
330
248A
100
AcAmgFilterDat
 70
    15
  1
LINE
  2
8,8N,*-8,*-8N,AM_8,AM_8N,*-AM_8,*-AM_8N
  3
*
  4
*
  5
INSERT,STDPART2D
290
     1
  0
ACAMGFILTERDAT
  5
2490
102
{ACAD_REACTORS
330
248A
102
}
330
248A
100
AcAmgFilterDat
 70
    15
  1
ARC
  2
AM_5
  3
*
  4
2
  5
INSERT
290
     0
  0
ACAMGFILTERDAT
  5
248D
102
{ACAD_REACTORS
330
248A
102
}
330
248A
100
AcAmgFilterDat
 70
    15
  1
ACMFCFRAME,ACMDATUMTARGET,ACMDATUMID,ACMWELDSYM,ACMSURFSYM,ACMFEATID,ACMPARTREF,ACMBALLOON,AMDTEDGESYM,AMGSCREWCALCTABLE,ACMMARKSTAMP
  2
*
  3
*
  4
*
  5
*
290
     1
  0
LAYER_INDEX
  5
2590
102
{ACAD_REACTORS
330
258F
102
}
330
258F
100
AcDbIndex
 40
2456113.652054225
100
AcDbLayerIndex
  8
0
360
2591
 90
        0
  8
Defpoints
360
2592
 90
        0
  8
SIZE
360
2593
 90
        3
  8
OUTLINE
360
2594
 90
       90
  8
BASIS
360
2595
 90
        1
  8
NOTE
360
2596
 90
        3
  8
ARRANGE
360
2597
 90
        3
  8
ETC
360
2598
 90
        1
  8
AM_VIS
360
3E5A
 90
        0
  8
AM_7
360
3E5B
 90
        0
  0
DICTIONARY
  5
4128
330
17
100
AcDbDictionary
280
     1
281
     1
  3
ACAD_XREC_ROUNDTRIP
360
4129
  0
DICTIONARY
  5
1D
330
1C
100
AcDbDictionary
280
     1
281
     1
  3
ACAD_XREC_ROUNDTRIP
360
412A
  3
ADSK_XREC_LAYOUTTHUMBNAIL
360
1E
  0
DICTIONARY
  5
40
330
3F
100
AcDbDictionary
280
     1
281
     1
  3
ACAD_XREC_ROUNDTRIP
360
5B7
  3
BUMPTILE
360
41
  3
DIFFUSETILE
360
42
  3
OPACITYTILE
360
43
  3
REFLECTIONTILE
360
44
  3
REFRACTIONTILE
360
45
  3
SPECULARTILE
360
46
  0
DICTIONARY
  5
38
330
37
100
AcDbDictionary
280
     1
281
     1
  3
ACAD_XREC_ROUNDTRIP
360
5B6
  3
BUMPTILE
360
39
  3
DIFFUSETILE
360
3A
  3
OPACITYTILE
360
3B
  3
REFLECTIONTILE
360
3C
  3
REFRACTIONTILE
360
3D
  3
SPECULARTILE
360
3E
  0
DICTIONARY
  5
E
330
C
100
AcDbDictionary
280
     1
281
     1
  3
ACAD_XREC_ROUNDTRIP
360
5B1
  3
BUMPTILE
360
F
  3
DIFFUSETILE
360
10
  3
OPACITYTILE
360
11
  3
REFLECTIONTILE
360
12
  3
REFRACTIONTILE
360
13
  3
SPECULARTILE
360
14
  0
DICTIONARY
  5
49D
330
58
100
AcDbDictionary
280
     1
281
     1
  3
ACAD_ROUNDTRIP_2008_TABLESTYLE_CELLSTYLEMAP
360
4121
  3
ACAD_XREC_ROUNDTRIP
360
412B
  0
IDBUFFER
  5
2591
330
0
100
AcDbIdBuffer
  0
IDBUFFER
  5
2592
330
0
100
AcDbIdBuffer
  0
IDBUFFER
  5
2593
330
0
100
AcDbIdBuffer
330
3E40
330
3E4D
330
3E70
  0
IDBUFFER
  5
2594
330
0
100
AcDbIdBuffer
330
3DCB
330
3DCC
330
3DCD
330
3DCE
330
3DCF
330
3DD0
330
3DD1
330
3DD2
330
3DD3
330
3DD4
330
3DD5
330
3DD8
330
3DD9
330
3DDA
330
3DDB
330
3DDC
330
3DDD
330
3DDE
330
3DDF
330
3DE0
330
3DE1
330
3DE2
330
3DE3
330
3DE4
330
3DE5
330
3DE6
330
3DE7
330
3DE8
330
3DE9
330
3DEA
330
3DEB
330
3DEC
330
3DED
330
3DEE
330
3DEF
330
3DF0
330
3DF1
330
3DF2
330
3DF3
330
3DF4
330
3DF5
330
3DF6
330
3DF7
330
3DF8
330
3DF9
330
3DFA
330
3DFB
330
3DFC
330
3DFD
330
3DFE
330
3DFF
330
3E00
330
3E01
330
3E02
330
3E03
330
3E04
330
3E05
330
3E06
330
3E07
330
3E08
330
3E09
330
3E0A
330
3E0B
330
3E0C
330
3E0D
330
3E0E
330
3E0F
330
3E10
330
3E11
330
3E12
330
3E13
330
3E14
330
3E15
330
3E16
330
3E17
330
3E18
330
3E19
330
3E1A
330
3E1B
330
3E1C
330
3E1D
330
3E1E
330
3E1F
330
3E20
330
3E21
330
3E22
330
3E23
330
3E24
330
3E25
330
3E26
  0
IDBUFFER
  5
2595
330
0
100
AcDbIdBuffer
330
3E36
  0
IDBUFFER
  5
2596
330
0
100
AcDbIdBuffer
330
3DD6
330
3DD7
330
3E9E
  0
IDBUFFER
  5
2597
330
0
100
AcDbIdBuffer
330
3E37
330
3E38
330
3E39
  0
IDBUFFER
  5
2598
330
0
100
AcDbIdBuffer
330
B2D
  0
IDBUFFER
  5
3E5A
330
0
100
AcDbIdBuffer
  0
IDBUFFER
  5
3E5B
330
0
100
AcDbIdBuffer
  0
XRECORD
  5
4129
102
{ACAD_REACTORS
330
4128
102
}
330
4128
100
AcDbXrecord
280
     1
102
SHADEPLOT
 70
     0
102
SHADEPLOTRESLEVEL
 70
     2
102
SHADEPLOTCUSTOMDPI
 70
   300
  0
XRECORD
  5
412A
102
{ACAD_REACTORS
330
1D
102
}
330
1D
100
AcDbXrecord
280
     1
102
SHADEPLOT
 70
     0
102
SHADEPLOTRESLEVEL
 70
     2
102
SHADEPLOTCUSTOMDPI
 70
   300
  0
XRECORD
  5
1E
102
{ACAD_REACTORS
330
1D
102
}
330
1D
100
AcDbXrecord
280
     1
310
28000000B4000000870000000100080000000000EC5E0000000000000000000000010000000000000000000000000000FFFFFF000000000000000000000000000000000000000000000000000000000000000000330000006600000099000000CC000000FF00000000330000333300006633000099330000CC330000FF3300
310
0000660000336600006666000099660000CC660000FF66000000990000339900006699000099990000CC990000FF99000000CC000033CC000066CC000099CC0000CCCC0000FFCC000000FF000033FF000066FF000099FF0000CCFF0000FFFF000000003300330033006600330099003300CC003300FF003300003333003333
310
33006633330099333300CC333300FF33330000663300336633006666330099663300CC663300FF66330000993300339933006699330099993300CC993300FF99330000CC330033CC330066CC330099CC3300CCCC3300FFCC330000FF330033FF330066FF330099FF3300CCFF3300FFFF330000006600330066006600660099
310
006600CC006600FF00660000336600333366006633660099336600CC336600FF33660000666600336666006666660099666600CC666600FF66660000996600339966006699660099996600CC996600FF99660000CC660033CC660066CC660099CC6600CCCC6600FFCC660000FF660033FF660066FF660099FF6600CCFF6600
310
FFFF660000009900330099006600990099009900CC009900FF00990000339900333399006633990099339900CC339900FF33990000669900336699006666990099669900CC669900FF66990000999900339999006699990099999900CC999900FF99990000CC990033CC990066CC990099CC9900CCCC9900FFCC990000FF99
310
0033FF990066FF990099FF9900CCFF9900FFFF99000000CC003300CC006600CC009900CC00CC00CC00FF00CC000033CC003333CC006633CC009933CC00CC33CC00FF33CC000066CC003366CC006666CC009966CC00CC66CC00FF66CC000099CC003399CC006699CC009999CC00CC99CC00FF99CC0000CCCC0033CCCC0066CC
310
CC0099CCCC00CCCCCC00FFCCCC0000FFCC0033FFCC0066FFCC0099FFCC00CCFFCC00FFFFCC000000FF003300FF006600FF009900FF00CC00FF00FF00FF000033FF003333FF006633FF009933FF00CC33FF00FF33FF000066FF003366FF006666FF009966FF00CC66FF00FF66FF000099FF003399FF006699FF009999FF00CC
310
99FF00FF99FF0000CCFF0033CCFF0066CCFF0099CCFF00CCCCFF00FFCCFF0000FFFF0033FFFF0066FFFF0099FFFF00CCFFFF00FFFFFF00000000000D0D0D001A1A1A00282828003535350043434300505050005D5D5D006B6B6B00787878008686860093939300A1A1A100AEAEAE00BBBBBB00C9C9C900D6D6D600E4E4E400
310
F1F1F100FFFFFF0000000000000000000000000000000000000000000000000000000000000000000000000000000000E2E2E2E2E2E2E2E2E2E2E2E2E2E2E2E2E2E2E2E2E2E2E2E2E2E2E2E2E2E2E2E2E2E2E2E2E2E2E2E2E2E2E2E2E2E2E2E2E2E2E2E2E2E2E2E2E2E2E2E2E2E2E2E2E2E2E2E2E2E2E2E2E2E2E2E2E2E2E2
310
E2E2E2E2E2E2E2E2E2E2E2E2E2E2E2E2E2E2E2E2E2E2E2E2E2E2E2E2E2E2E2E2E2E2E2E2E2E2E2E2E2E2E2E2E2E2E2E2E2E2E2E2E2E2E2E2E2E2E2E2E2E2E2E2E2E2E2E2E2E2E2E2E2E2E2E2E2E2E2E2E2E2E2E2E2E2E2E2E2E2E2E2E2E2E2E2E2E2E2E2E2E2E2E2E2E2E2E2E2E2E2E2E2E2E2E2E2E2E2E2E2E2E2E2E2E2E2
310
E2E2E2E2E2E2E2E2E2E2E2E2E2E2E2E2E2E2E2E2E2E2E2E2E2E2E2E2E2E2E2E2E2E2E2E2E2E2E2E2E2E2E2E2E2E2E2E2E2E2E2E2E2E2E2E2E2E2E2E2E2E2E2E2E2E2E2E2E2E2E2E2E2E2E2E2E2E2E2E2E2E2E2E2E2E2E2E2E2E2E2E2E2E2E2E2E2E2E2E2E2E2E2E2E2E2E2E2E2E2E2E2E2E2E2E2E2E2E2E2E2E2E2E2E2E2E2
310
E2E2E2E2E2E2E2E2E2E2E2E2E2E2E2E2E2E2E2E2E2E2E2E2E2E2E2E2E2E2E2E2E2E2E2E2E2E2E2E2E2E2E2E2E2E2E2E2E2E2E2E2E2E2E2E2E2E2E2E2E2E2E2E2E2E2E2E2E2E2E2E2E2E2E2E2E2E2E2E2E2E2E2E2E2E2E2E2E2E2E2E2E2E2E2E2E2E2E2E2E2E2E2E2E2E2E2E2E2E2E2E2E2E2E2E2E2E2E2E2E2E2E2E2E2E2E2
310
E2E2E2E2E2E2E2E2E2E2E2E2E2E2E2E2E2E2E2E2E2E2E2E2E2E2E2E2E2E2E2E2E2E2E2E2E2E2E2E2E2E2E2E2E2E2E2E2E2E2E2E2E2E2E2E2E2E2E2E2E2E2E2E2E2E2E2E2E2E2E2E2E2E2E2E2E2E2E2E2E2E2E2E2E2E2E2E2E2E2E2E2E2E2E2E2E2E2E2E2E2E2E2E2E2E2E2E2E2E2E2E2E2E2E2E2E2E2E2E2E2E2E2E2E2E2E2
310
E2E2E2E2E2E2E2E2E2E2E2E2E2E2E2E2E2E2E2E2E2E2E2E2E2E2E2E2E2E2E2E2E2E2E2E2E2E2E2E2E2E2E2E2E2E2E2E2E2E2E2E2E2E2E2E2E2E2E2E2E2E2E2E2E2E2E2E2E2E2E2E2E2E2E2E2E2E2E2E2E2E2E2E2E2E2E2E2E2E2E2E2E2E2E2E2E2E2E2E2E2E2E2E2E2E2E2E2E2E2E2E2E2E2E2E2E2E2E2E2E2E2E2E2E2E2E2
310
E2E2E2E2E2E2E2E2E2E2E2E2E2E2E2E2E2E2E2E2E2E2E2E2E2E2E2E2E2E2E2E2E2E2E2E2E2E2E2E2E2E2E2E2E2E2E2E2E2E2E2E2E2E2E2E2E2E2E2E2E2E2E2E2E2E2E2E2E2E2E2E2E2E2E2E2E2E2E2E2E2E2E2E2E2E2E2E2E2E2E2E2E2E2E2E2E2E2E2E2E2E2E2E2E2E2E2E2E2E2E2E2E2E2E2E2E2E2E2E2E2E2E2E2E2E2E2
310
E2E2E2E2E2E2E2E2E2E2E2E2E2E2E2E2E2E2E2E2E2E2E2E2E2E2E2E2E2E2E2E2E2E2E2E2E2E2E2E2E2E2E2E2E2E2E2E2E2E2E2E2E2E2E2E2E2E2E2E2E2E2E2E2E2E2E2E2E2E2E2E2E2E2E2E2E2E2E2E2E2E2E2E2E2E2E2E2E2E2E2E2E2E2E2E2E2E2E2E2E2E2E2E2E2E2E2E2E2E2E2E2E2E2E2E2E2E2E2E2E2E2E2E2E2E2E2
310
E2E2E2E2E2E2E2E2E2E2E2E2E2E2E2E2E2E2E2E2E2E2E2E2E2E2E2E2E2E2E2E2E2E2E2E2E2E2E2E2E2E2E2E2E2E2E2E2E2E2E2E2E2E2E2E2E2E2E2E2E2E2E2E2E2E2E2E2E2E2E2E2E2E2E2E2E2E2E2E2E2E2E2E2E2E2E2E2E2E2E2E2E2E2E2E2E2E2E2E2E2E2E2E2E2E2E2E2E2E2E2E2E2E2E2E2E2E2E2E2E2E2E2E2E2E2E2
310
E2E2E2E2E2E2E2E2E2E2E2E2E2E2E2E2E2E2E2E2E2E2E2E2E2E2E2E2E2E2E2E2E2E2E2E2E2E2E2E2E2E2E2E2E2E2E2E2E2E2E2E2E2E2E2E2E2E2E2E2E2E2E2E2E2E2E2E2E2E2E2E2E2E2E2E2E2E2E2E2E2E2E2E2E2E2E2E2E2E2E2E2E2E2E2E2E2E2E2E2E2E2E2E2E2E2E2E2E2E2E2E2E2E2E2E2E2E2E2E2E2E2E2E2E2E2E2
310
E2E2E2E2E2E2E2E2E2E2E2E2E2E2E2E2E2E2E2E2E2E2E2E2E2E2E2E2E2E2E2E2E2E2E2E2E2E2E2E2E2E2E2E2E2E2E2E2E2E2E2E2E2E2E2E2E2E2E2E2E2E2E2E2E2E2E2E2E2E2E2E2E2E2E2E2E2E2E2E2E2E2E2E2E2E2E2E2E2E2E2E2E2E2E2E2E2E2E2E2E2E2E2E2E2E2E2E2E2E2E2E2E2E2E2E2E2E2E2E2E2E2E2E2E2E2E2
310
E2E2E2E2E2E2E2E2E2E2E2E2E2E2E2E2E2E2E2E2E2E2E2E2E2E2E2E2E2E2E2E2E2E2E2E2E2E2E2E2E2E2E2E2E2E2E2E2E2E2E2E2E2E2E2E2E2E2E2E2E2E2E2E2E2E2E2E2E2E2E2E2E2E2E2E2E2E2E2E2E2E2E2E2E2E2E2E2E2E2E2E2E2E2E2E2E2E2E2E2E2E2E2E2E2E2E2E2E2E2E2E2E2E2E2E2E2E2E2E2E2E2E2E2E2E2E2
310
E2E2E2E2E2E2E2E2E2E2E2E2E2E2E2E2E2E2E2E2E2E2E2E2E2E2E2E2E2E2E2E2E2E2E2E2E2E2E2E2E2E2E2E2E2E2E2E2E2E2E2E2E2E2E2E2E2E2E2E2E2E2E2E2E2E2E2E2E2E2E2E2E2E2E2E2E2E2E2E2E2E2E2E2E2E2E2E2E2E2E2E2E2E2E2E2E2E2E2E2E2E2E2E2E2E2E2E2E2E2E2E2E2E2E2E2E2E2E2E2E2E2E2E2E2E2E2
310
E2E2E2E2E2E2E2E2E2E2E2E2E2E2E2E2E2E2E2E2E2E2E2E2E2E2E2E2E2E2E2E2E2E2E2E2E2E2E2E2E2E2E2E2E2E2E2E2E2E2E2E2E2E2E2E2E2E2E2E2E2E2E2E2E2E2E2E2E2E2E2E2E2E2E2E2E2E2E2E2E2E2E2E2E2E2E2E2E2E2E2E2E2E2E2E2E2E2E2E2E2E2E2E2E2E2E2E2E2E2E2E2E2E2E2E2E2E2E2E2E2E2E2E2E2E2E2
310
E2E2E2E2E2E2E2E2E2E2E2E2E2E2E2E2E2E2E2E2E2E2E2E2E2E2E2E2E2E2E2E2E2E2E2E2E2E2E2E2E2E2E2E2E2E2E2E2E2E2E2E2E2E2E2E2E2E2E2E2E2E2E2E2E2E2E2E2E2E2E2E2E2E2E2E2E2E2E2E2E2E2E2E2E2E2E2E2E2E2E2E2E2E2E2E2E2E2E2E2E2E2E2E2E2E2E2E2E2E2E2E2E2E2E2E2E2E2E2E2E2E2E2E2E2E2E2
310
E2E2E2E2E2E2E2E2E2E2E2E2E2E2E2E2E2E2E2E2E2E2E2E2E2E2E2E2E2E2E2E2E2E2E2E2E2E2E2E2E2E2E2E2E2E2E2E2E2E2E2E2E2E2E2E2E2E2E2E2E2E2E2E2E2E2E2E2E2E2E2E2E2E2E2E2E2E2E2E2E2E2E2E2E2E2E2E2E2E2E2E2E2E2E2E2E2E2E2E2E2E2E2E2E2E2E2E2E2E2E2E2E2E2E2E2E2E2E2E2E2E2E2E2E2E2E2
310
E2E2E2E2E2E2E2E2E2E2E2E2E2E2E2E2E2E2E2E2E2E2E2E2E2E2E2E2E2E2E2E2E2E2E2E2E2E2E2E2E2E2E2E2E2E2E2E2E2E2E2E2E2E2E2E2E2E2E2E2E2E2E2E2E2E2E2E2E2E2E2E2E2E2E2E2E2E2E2E2E2E2E2E2E2E2E2E2E2E2E2E2E2E2E2E2E2E2E2E2E2E2E2E2E2E2E2E2E2E2E2E2E2E2E2E2E2E2E2E2E2E2E2E2E2E2E2
310
E2E2E2E2E2E2E2E2E2E2E2E2E2E2E2E2E2E2E2E2E2E2E2E2E2E2E2E2E2E2E2E2E2E2E2E2E2E2E2E2E2E2E2E2E2E2E2E2E2E2E2E2E2E2E2E2E2E2E2E2E2E2E2E2E2E2E2E2E2E2E2E2E2E2E2E2E2E2E2E2E2E2E2E2E2E2E2E2E2E2E2E2E2E2E2E2E2E2E2E2E2E2E2E2E2E2E2E2E2E2E2E2E2E2E2E2E2E2E2E2E2E2E2E2E2E2E2
310
E2E2E2E2E2E2E2E2E2E2E2E2E2E2E2E2E2E2E2E2E2E2E2E2E2E2E2E2E2E2E2E2E2E2E2E2E2E2E2E2E2E2E2E2E2E2E2E2E2E2E2E2E2E2E2E2E2E2E2E2E2E2E2E2E2E2E2E2E2E2E2E2E2E2E2E2E2E2E2E2E2E2E2E2E2E2E2E2E2E2E2E2E2E2E2E2E2E2E2E2E2E2E2E2E2E2E2E2E2E2E2E2E2E2E2E2E2E2E2E2E2E2E2E2E2E2E2
310
E2E2E2E2E2E2E2E2E2E2E2E2E2E2E2E2E2E2E2E2E2E2E2E2E2E2E2E2E2E2E2E2E2E2E2E2E2E2E2E2E2E2E2E2E2E2E2E2E2E2E2E2E2E2E2E2E2E2E2E2E2E2E2E2E2E2E2E2E2E2E2E2E2E2E2E2E2E2E2E2E2E2E2E2E2E2E2E2E2E2E2E2E2E2E2E2E2E2E2E2E2E2E2E2E2E2E2E2E2E2E2E2E2E2E2E2E2E2E2E2E2E2E2E2E2E2E2
310
E2E2E2E2E2E2E2E2E2E2E2E2E2E2E2E2E2E2E2E2E2E2E2E2E2E2E2E2E2E2E2E2E2E2E2E2E2E2E2E2E2E2E2E2E2E2E2E2E2E2E2E2E2E2E2E2E2E2E2E2E2E2E2E2E2E2E2E2E2E2E2E2E2E2E2E2E2E2E2E2E2E2E2E2E2E2E2E2E2E2E2E2E2E2E2E2E2E2E2E2E2E2E2E2E2E2E2E2E2E2E2E2E2E2E2E2E2E2E2E2E2E2E2E2E2E2E2
310
E2E2E2E2E2E2E2E2E2E2E2E2E2E2E2E2E2E2E2E2E2E2E2E2E2E2E2E2E2E2E2E2E2E2E2E2E2E2E2E2E2E2E2E2E2E2E2E2E2E2E2E2E2E2E2E2E2E2E2E2E2E2E2E2E2E2E2E2E2E2E2E2E2E2E2E2E2E2E2E2E2E2E2E2E2E2E2E2E2E2E2E2E2E2E2E2E2E2E2E2E2E2E2E2E2E2E2E2E2E2E2E2E2E2E2E2E2E2E2E2E2E2E2E2E2E2E2
310
E2E2E2E2E2E2E2E2E2E2E2E2E2E2E2E2E2E2E2E2E2E2E2E2E2E2E2E2E2E2E2E2E2E2E2E2E2E2E2E2E2E2E2E2E2E2E2E2E2E2E2E2E2E2E2E2E2E2E2E2E2E2E2E2E2E2E2E2E2E2E2E2E2E2E2E2E2E2E2E2E2E2E2E2E2E2E2E2E2E2E2E2E2E2E2E2E2E2E2E2E2E2E2E2E2E2E2E2E2E2E2E2E2E2E2E2E2E2E2E2E2E2E2E2E2E2E2
310
E2E2E2E2E2E2E2E2E2E2E2E2E2E2E2E2E2E2E2E2E2E2E2E2E2E2E2E2E2E2E2E2E2E2E2E2E2E2E2E2E2E2E2E2E2E2E2E2E2E2E2E2E2E2E2E2E2E2E2E2E2E2E2E2E2E2E2E2E2E2E2E2E2E2E2E2E2E2E2E2E2E2E2E2E2E2E2E2E2E2E2E2E2E2E2E2E2E2E2E2E2E2E2E2E2E2E2E2E2E2E2E2E2E2E2E2E2E2E2E2E2E2E2E2E2E2E2
310
E2E2E2E2E2E2E2E2E2E2E2E2E2E2E2E2E2E2E2E2E2E2E2E2E2E2E2E2E2E2E2E2E2E2E2E2E2E2E2E2E2E2E2E2E2E2E2E2E2E2E2E2E2E2E2E2E2E2E2E2E2E2E2E2E2E2E2E2E2E2E2E2E2E2E2E2E2E2E2E2E2E2E2E2E2E2E2E2E2E2E2E2E2E2E2E2E2E2E2E2E2E2E2E2E2E2E2E2E2E2E2E2E2E2E2E2E2E2E2E2E2E2E2E2E2E2E2
310
E2E2E2E2E2E2E2E2E2E2E2E2E2E2E2E2E2E2E2E2E2E2E2E2E2E2E2E2E2E2E2E2E2E2E2E2E2E2E2E2E2E2E2E2E2E2E2E2E2E2E2E2E2E2E2E2E2E2E2E2E2E2E2E2E2E2E2E2E2E2E2E2E2E2E2E2E2E2E2E2E2E2E2E2E2E2E2E2E2E2E2E2E2E2E2E2E2E2E2E2E2E2E2E2E2E2E2E2E2E2E2E2E2E2E2E2E2E2E2E2E2E2E2E2E2E2E2
310
E2E2E2E2E2E2E2E2E2E2E2E2E2E2E2E2E2E2E2E2E2E2E2E2E2E2E2E2E2E2E2E2E2E2E2E2E2E2E2E2E2E2E2E2E2E2E2E2E2E2E2E2E2E2E2E2E2E2E2E2E2E2E2E2E2E2E2E2E2E2E2E2E2E2E2E2E2E2E2E2E2E2E2E2E2E2E2E2E2E2E2E2E2E2E2E2E2E2E2E2E2E2E2E2E2E2E2E2E2E2E2E2E2E2E2E2E2E2E2E2E2E2E2E2E2E2E2
310
E2E2E2E2E2E2E2E2E2E2E2E2E2E2E2E2E2E2E2E2E2E2E2E2E2E2E2E2E2E2E2E2E2E2E2E2E2E2E2E2E2E2E2E2E2E2E2E2E2E2E2E2E2E2E2E2E2E2E2E2E2E2E2E2E2E2E2E2E2E2E2E2E2E2E2E2E2E2E2E2E2E2E2E2E2E2E2E2E2E2E2E2E2E2E2E2E2E2E2E2E2E2E2E2E2E2E2E2E2E2E2E2E2E2E2E2E2E2E2E2E2E2E2E2E2E2E2
310
E2E2E2E2E2E2E2E2E2E2E2E2E2E2E2E2E2E2E2E2E2E2E2E2E2E2E2E2E2E2E2E2E2E2E2E2E2E2E2E2E2E2E2E2E2E2E2E2E2E2E2E2E2E2E2E2E2E2E2E2E2E2E2E2E2E2E2E2E2E2E2E2E2E2E2E2E2E2E2E2E2E2E2E2E2E2E2E2E2E2E2E2E2E2E2E2E2E2E2E2E2E2E2E2E2E2E2E2E2E2E2E2E2E2E2E2E2E2E2E2E2E2E2E2E2E2E2
310
E2E2E2E2E2E2E2E2E2E2E2E2E2E2E2E2E2E2E2E2E2E2E2E2E2E2E2E2E2E2E2E2E2E2E2E2E2E2E2E2E2E2E2E2E2E2E2E2E2E2E2E2E2E2E2E2E2E2E2E2E2E2E2E2E2E2E2E2E2E2E2E2E2E2E2E2E2E2E2E2E2E2E2E2E2E2E2E2E2E2E2E2E2E2E2E2E2E2E2E2E2E2E2E2E2E2E2E2E2E2E2E2E2E2E2E2E2E2E2E2E2E2E2E2E2E2E2
310
E2E2E2E2E2E2E2E2E2E2E2E2E2E2E2E2E2E2E2E2E2E2E2E2E2E2E2E2E2E2E2E2E2E2E2E2E2E2E2E2E2E2E2E2E2E2E2E2E2E2E2E2E2E2E2E2E2E2E2E2E2E2E2E2E2E2E2E2E2E2E2E2E2E2E2E2E2E2E2E2E2E2E2E2E2E2E2E2E2E2E2E2E2E2E2E2E2E2E2E2E2E2E2E2E2E2E2E2E2E2E2E2E2E2E2E2E2E2E2E2E2E2E2E2E2E2E2
310
E2E2E2E2E2E2E2E2E2E2E2E2E2E2E2E2E2E2E2E2E2E2E2E2E2E2E2E2E2E2E2E2E2E2E2E2E2E2E2E2E2E2E2E2E2E2E2E2E2E2E2E2E2E2E2E2E2E2E2E2E2E2E2E2E2E2E2E2E2E2E2E2E2E2E2E2E2E2E2E2E2E2E2E2E2E2E2E2E2E2E2E2E2E2E2E2E2E2E2E2E2E2E2E2E2E2E2E2E2E2E2E2E2E2E2E2E2E2E2E2E2E2E2E2E2E2E2
310
E2E2E2E2E2E2E2E2E2E2E2E2E2E2E2E2E2E2E2E2E2E2E2E2E2E2E2E2E2E2E2E2E2E2E2E2E2E2E2E2E2E2E2E2E2E2E2E2E2E2E2E2E2E2E2E2E2E2E2E2E2E2E2E2E2E2E2E2E2E2E2E2E2E2E2E2E2E2E2E2E2E2E2E2E2E2E2E2E2E2E2E2E2E2E2E2E2E2E2E2E2E2E2E2E2E2E2E2E2E2E2E2E2E2E2E2E2E2E2E2E2E2E2E2E2E2E2
310
E2E2E2E2E2E2E2E2E2E2E2E2E2E2E2E2E2E2E2E2E2E2E2E2E2E2E2E2E2E2E2E2E2E2E2E2E2E2E2E2E2E2E2E2E2E2E2E2E2E2E2E2E2E2E2E2E2E2E2E2E2E2E2E2E2E2E2E2E2E2E2E2E2E2E2E2E2E2E2E2E2E2E2E2E2E2E2E2E2E2E2E2E2E2E2E2E2E2E2E2E2E2E2E2E2E2E2E2E2E2E2E2E2E2E2E2E2E2E2E2E2E2E2E2E2E2E2
310
E2E2E2E2E2E2E2E2E2E2E2E2E2E2E2E2E2E2E2E2E2E2E2E2E2E2E2E2E2E2E2E2E2E2E2E2E2E2E2E2E2E2E2E2E2E2E2E2E2E2E2E2E2E2E2E2E2E2E2E2E2E2E2E2E2E2E2E2E2E2E2E2E2E2E2E2E2E2E2E2E2E2E2E2E2E2E2E2E2E2E2E2E2E2E2E2E2E2E2E2E2E2E2E2E2E2E2E2E2E2E2E2E2E2E2E2E2E2E2E2E2E2E2E2E2E2E2
310
E2E2E2E2E2E2E2E2E2E2E2E2E2E2E2E2E2E2E2E2E2E2E2E2E2E2E2E2E2E2E2E2E2E2E2E2E2E2E2E2E2E2E2E2E2E2E2E2E2E2E2E2E2E2E2E2E2E2E2E2E2E2E2E2E2E2E2E2E2E2E2E2E2E2E2E2E2E2E2E2E2E2E2E2E2E2E2E2E2E2E2E2E2E2E2E2E2E2E2E2E2E2E2E2E2E2E2E2E2E2E2E2E2E2E2E2E2E2E2E2E2E2E2E2E2E2E2
310
E2E2E2E2E2E2E2E2E2E2E2E2E2E2E2E2E2E2E2E2E2E2E2E2E2E2E2E2E2E2E2E2E2E2E2E2E2E2E2E2E2E2E2E2E2E2E2E2E2E2E2E2E2E2E2E2E2E2E2E2E2E2E2E2E2E2E2E2E2E2E2E2E2E2E2E2E2E2E2E2E2E2E2E2E2E2E2E2E2E2E2E2E2E2E2E2E2E2E2E2E2E2E2E2E2E2E2E2E2E2E2E2E2E2E2E2E2E2E2E2E2E2E2E2E2E2E2
310
E2E2E2E2E2E2E2E2E2E2E2E2E2E2E2E2E2E2E2E2E2E2E2E2E2E2E2E2E2E2E2E2E2E2E2E2E2E2E2E2E2E2E2E2E2E2E2E2E2E2E2E2E2E2E2E2E2E2E2E2E2E2E2E2E2E2E2E2E2E2E2E2E2E2E2E2E2E2E2E2E2E2E2E2E2E2E2E2E2E2E2E2E2E2E2E2E2E2E2E2E2E2E2E2E2E2E2E2E2E2E2E2E2E2E2E2E2E2E2E2E2E2E2E2E2E2E2
310
E2E2E2E2E2E2E2E2E2E2E2E2E2E2E2E2E2E2E2E2E2E2E2E2E2E2E2E2E2E2E2E2E2E2E2E2E2E2E2E2E2E2E2E2E2E2E2E2E2E2E2E2E2E2E2E2E2E2E2E2E2E2E2E2E2E2E2E2E2E2E2E2E2E2E2E2E2E2E2E2E2E2E2E2E2E2E2E2E2E2E2E2E2E2E2E2E2E2E2E2E2E2E2E2E2E2E2E2E2E2E2E2E2E2E2E2E2E2E2E2E2E2E2E2E2E2E2
310
E2E2E2E2E2E2E2E2E2E2E2E2E2E2E2E2E2E2E2E2E2E2E2E2E2E2E2E2E2E2E2E2E2E2E2E2E2E2E2E2E2E2E2E2E2E2E2E2E2E2E2E2E2E2E2E2E2E2E2E2E2E2E2E2E2E2E2E2E2E2E2E2E2E2E2E2E2E2E2E2E2E2E2E2E2E2E2E2E2E2E2E2E2E2E2E2E2E2E2E2E2E2E2E2E2E2E2E2E2E2E2E2E2E2E2E2E2E2E2E2E2E2E2E2E2E2E2
310
E2E2E2E2E2E2E2E2E2E2E2E2E2E2E2E2E2E2E2E2E2E2E2E2E2E2E2E2E2E2E2E2E2E2E2E2E2E2E2E2E2E2E2E2E2E2E2E2E2E2E2E2E2E2E2E2E2E2E2E2E2E2E2E2E2E2E2E2E2E2E2E2E2E2E2E2E2E2E2E2E2E2E2E2E2E2E2E2E2E2E2E2E2E2E2E2E2E2E2E2E2E2E2E2E2E2E2E2E2E2E2E2E2E2E2E2E2E2E2E2E2E2E2E2E2E2E2
310
E2E2E2E2E2E2E2E2E2E2E2E2E2E2E2E2E2E2E2E2E2E2E2E2E2E2E2E2E2E2E2E2E2E2E2E2E2E2E2E2E2E2E2E2E2E2E2E2E2E2E2E2E2E2E2E2E2E2E2E2E2E2E2E2E2E2E2E2E2E2E2E2E2E2E2E2E2E2E2E2E2E2E2E2E2E2E2E2E2E2E2E2E2E2E2E2E2E2E2E2E2E2E2E2E2E2E2E2E2E2E2E2E2E2E2E2E2E2E2E2E2E2E2E2E2E2E2
310
E2E2E2E2E2E2E2E2E2E2E2E2E2E2E2E2E2E2E2E2E2E2E2E2E2E2E2E2E2E2E2E2E2E2E2E2E2E2E2E2E2E2E2E2E2E2E2E2E2E2E2E2E2E2E2E2E2E2E2E2E2E2E2E2E2E2E2E2E2E2E2E2E2E2E2E2E2E2E2E2E2E2E2E2E2E2E2E2E2E2E2E2E2E2E2E2E2E2E2E2E2E2E2E2E2E2E2E2E2E2E2E2E2E2E2E2E2E2E2E2E2E2E2E2E2E2E2
310
E2E2E2E2E2E2E2E2E2E2E2E2E2E2E2E2E2E2E2E2E2E2E2E2E2E2E2E2E2E2E2E2E2E2E2E2E2E2E2E2E2E2E2E2E2E2E2E2E2E2E2E2E2E2E2E2E2E2E2E2E2E2E2E2E2E2E2E2E2E2E2E2E2E2E2E2E2E2E2E2E2E2E2E2E2E2E2E2E2E2E2E2E2E2E2E2E2E2E2E2E2E2E2E2E2E2E2E2E2E2E2E2E2E2E2E2E2E2E2E2E2E2E2E2E2E2E2
310
E2E2E2E2E2E2E2E2E2E2E2E2E2E2E2E2E2E2E2E2E2E2E2E2E2E2E2E2E2E2E2E2E2E2E2E2E2E2E2E2E2E2E2E2E2E2E2E2E2E2E2E2E2E2E2E2E2E2E2E2E2E2E2E2E2E2E2E2E2E2E2E2E2E2E2E2E2E2E2E2E2E2E2E2E2E2E2E2E2E2E2E2E2E2E2E2E2E2E2E2E2E2E2E2E2E2E2E2E2E2E2E2E2E2E2E2E2E2E2E2E2E2E2E2E2E2E2
310
E2E2E2E2E2E2E2E2E2E2E2E2E2E2E2E2E2E2E2E2E2E2E2E2E2E2E2E2E2E2E2E2E2E2E2E2E2E2E2E2E2E2E2E2E2E2E2E2E2E2E2E2E2E2E2E2E2E2E2E2E2E2E2E2E2E2E2E2E2E2E2E2E2E2E2E2E2E2E2E2E2E2E2E2E2E2E2E2E2E2E2E2E2E2E2E2E2E2E2E2E2E2E2E2E2E2E2E2E2E2E2E2E2E2E2E2E2E2E2E2E2E2E2E2E2E2E2
310
E2E2E2E2E2E2E2E2E2E2E2E2E2E2E2E2E2E2E2E2E2E2E2E2E2E2E2E2E2E2E2E2E2E2E2E2E2E2E2E2E2E2E2E2E2E2E2E2E2E2E2E2E2E2E2E2E2E2E2E2E2E2E2E2E2E2E2E2E2E2E2E2E2E2E2E2E2E2E2E2E2E2E2E2E2E2E2E2E2E2E2E2E2E2E2E2E2E2E2E2E2E2E2E2E2E2E2E2E2E2E2E2E2E2E2E2E2E2E2E2E2E2E2E2E2E2E2
310
E2E2E2E2E2E2E2E2E2E2E2E2E2E2E2E2E2E2E2E2E2E2E2E2E2E2E2E2E2E2E2E2E2E2E2E2E2E2E2E2E2E2E2E2E2E2E2E2E2E2E2E2E2E2E2E2E2E2E2E2E2E2E2E2E2E2E2E2E2E2E2E2E2E2E2E2E2E2E2E2E2E2E2E2E2E2E2E2E2E2E2E2E2E2E2E2E2E2E2E2E2E2E2E2E2E2E2E2E2E2E2E2E2E2E2E2E2E2E2E2E2E2E2E2E2E2E2
310
E2E2E2E2E2E2E2E2E2E2E2E2E2E2E2E2E2E2E2E2E2E2E2E2E2E2E2E2E2E2E2E2E2E2E2E2E2E2E2E2E2E2E2E2E2E2E2E2E2E2E2E2E2E2E2E2E2E2E2E2E2E2E2E2E2E2E2E2E2E2E2E2E2E2E2E2E2E2E2E2E2E2E2E2E2E2E2E2E2E2E2E2E2E2E2E2E2E2E2E2E2E2E2E2E2E2E2E2E2E2E2E2E2E2E2E2E2E2E2E2E2E2E2E2E2E2E2
310
E2E2E2E2E2E2E2E2E2E2E2E2E2E2E2E2E2E2E2E2E2E2E2E2E2E2E2E2E2E2E2E2E2E2E2E2E2E2E2E2E2E2E2E2E2E2E2E2E2E2E2E2E2E2E2E2E2E2E2E2E2E2E2E2E2E2E2E2E2E2E2E2E2E2E2E2E2E2E2E2E2E2E2E2E2E2E2E2E2E2E2E2E2E2E2E2E2E2E2E2E2E2E2E2E2E2E2E2E2E2E2E2E2E2E2E2E2E2E2E2E2E2E2E2E2E2E2
310
E2E2E2E2E2E2E2E2E2E2E2E2E2E2E2E2E2E2E2E2E2E2E2E2E2E2E2E2E2E2E2E2E2E2E2E2E2E2E2E2E2E2E2E2E2E2E2E2E2E2E2E2E2E2E2E2E2E2E2E2E2E2E2E2E2E2E2E2E2E2E2E2E2E2E2E2E2E2E2E2E2E2E2E2E2E2E2E2E2E2E2E2E2E2E2E2E2E2E2E2E2E2E2E2E2E2E2E2E2E2E2E2E2E2E2E2E2E2E2E2E2E2E2E2E2E2E2
310
E2E2E2E2E2E2E2E2E2E2E2E2E2E2E2E2E2E2E2E2E2E2E2E2E2E2E2E2E2E2E2E2E2E2E2E2E2E2E2E2E2E2E2E2E2E2E2E2E2E2E2E2E2E2E2E2E2E2E2E2E2E2E2E2E2E2E2E2E2E2E2E2E2E2E2E2E2E2E2E2E2E2E2E2E2E2E2E2E2E2E2E2E2E2E2E2E2E2E2E2E2E2E2E2E2E2E2E2E2E2E2E2E2E2E2E2E2E2E2E2E2E2E2E2E2E2E2
310
E2E2E2E2E2E2E2E2E2E2E2E2E2E2E2E2E2E2E2E2E2E2E2E2E2E2E2E2E2E2E2E2E2E2E2E2E2E2E2E2E2E2E2E2E2E2E2E2E2E2E2E2E2E2E2E2E2E2E2E2E2E2E2E2E2E2E2E2E2E2E2E2E2E2E2E2E2E2E2E2E2E2E2E2E2E2E2E2E2E2E2E2E2E2E2E2E2E2E2E2E2E2E2E2E2E2E2E2E2E2E2E2E2E2E2E2E2E2E2E2E2E2E2E2E2E2E2
310
E2E2E2E2E2E2E2E2E2E2E2E2E2E2E2E2E2E2E2E2E2E2E2E2E2E2E2E2E2E2E2E2E2E2E2E2E2E2E2E2E2E2E2E2E2E2E2E2E2E2E2E2E2E2E2E2E2E2E2E2E2E2E2E2E2E2E2E2E2E2E2E2E2E2E2E2E2E2E2E2E2E2E2E2E2E2E2E2E2E2E2E2E2E2E2E2E2E2E2E2E2E2E2E2E2E2E2E2E2E2E2E2E2E2E2E2E2E2E2E2E2E2E2E2E2E2E2
310
E2E2E2E2E2E2E2E2E2E2E2E2E2E2E2E2E2E2E2E2E2E2E2E2E2E2E2E2E2E2E2E2E2E2E2E2E2E2E2E2E2E2E2E2E2E2E2E2E2E2E2E2E2E2E2E2E2E2E2E2E2E2E2E2E2E2E2E2E2E2E2E2E2E2E2E2E2E2E2E2E2E2E2E2E2E2E2E2E2E2E2E2E2E2E2E2E2E2E2E2E2E2E2E2E2E2E2E2E2E2E2E2E2E2E2E2E2E2E2E2E2E2E2E2E2E2E2
310
E2E2E2E2E2E2E2E2E2E2E2E2E2E2E2E2E2E2E2E2E2E2E2E2E2E2E2E2E2E2E2E2E2E2E2E2E2E2E2E2E2E2E2E2E2E2E2E2E2E2E2E2E2E2E2E2E2E2E2E2E2E2E2E2E2E2E2E2E2E2E2E2E2E2E2E2E2E2E2E2E2E2E2E2E2E2E2E2E2E2E2E2E2E2E2E2E2E2E2E2E2E2E2E2E2E2E2E2E2E2E2E2E2E2E2E2E2E2E2E2E2E2E2E2E2E2E2
310
E2E2E2E2E2E2E2E2E2E2E2E2E2E2E2E2E2E2E2E2E2E2E2E2E2E2E2E2E2E2E2E2E2E2E2E2E2E2E2E2E2E2E2E2E2E2E2E2E2E2E2E2E2E2E2E2E2E2E2E2E2E2E2E2E2E2E2E2E2E2E2E2E2E2E2E2E2E2E2E2E2E2E2E2E2E2E2E2E2E2E2E2E2E2E2E2E2E2E2E2E2E2E2E2E2E2E2E2E2E2E2E2E2E2E2E2E2E2E2E2E2E2E2E2E2E2E2
310
E2E2E2E2E2E2E2E2E2E2E2E2E2E2E2E2E2E2E2E2E2E2E2E2E2E2E2E2E2E2E2E2E2E2E2E2E2E2E2E2E2E2E2E2E2E2E2E2E2E2E2E2E2E2E2E2E2E2E2E2E2E2E2E2E2E2E2E2E2E2E2E2E2E2E2E2E2E2E2E2E2E2E2E2E2E2E2E2E2E2E2E2E2E2E2E2E2E2E2E2E2E2E2E2E2E2E2E2E2E2E2E2E2E2E2E2E2E2E2E2E2E2E2E2E2E2E2
310
E2E2E2E2E2E2E2E2E2E2E2E2E2E2E2E2E2E2E2E2E2E2E2E2E2E2E2E2E2E2E2E2E2E2E2E2E2E2E2E2E2E2E2E2E2E2E2E2E2E2E2E2E2E2E2E2E2E2E2E2E2E2E2E2E2E2E2E2E2E2E2E2E2E2E2E2E2E2E2E2E2E2E2E2E2E2E2E2E2E2E2E2E2E2E2E2E2E2E2E2E2E2E2E2E2E2E2E2E2E2E2E2E2E2E2E2E2E2E2E2E2E2E2E2E2E2E2
310
E2E2E2E2E2E2E2E2E2E2E2E2E2E2E2E2E2E2E2E2E2E2E2E2E2E2E2E2E2E2E2E2E2E2E2E2E2E2E2E2E2E2E2E2E2E2E2E2E2E2E2E2E2E2E2E2E2E2E2E2E2E2E2E2E2E2E2E2E2E2E2E2E2E2E2E2E2E2E2E2E2E2E2E2E2E2E2E2E2E2E2E2E2E2E2E2E2E2E2E2E2E2E2E2E2E2E2E2E2E2E2E2E2E2E2E2E2E2E2E2E2E2E2E2E2E2E2
310
E2E2E2E2E2E2E2E2E2E2E2E2E2E2E2E2E2E2E2E2E2E2E2E2E2E2E2E2E2E2E2E2E2E2E2E2E2E2E2E2E2E2E2E2E2E2E2E2E2E2E2E2E2E2E2E2E2E2E2E2E2E2E2E2E2E2E2E2E2E2E2E2E2E2E2E2E2E2E2E2E2E2E2E2E2E2E2E2E2E2E2E2E2E2E2E2E2E2E2E2E2E2E2E2E2E2E2E2E2E2E2E2E2E2E2E2E2E2E2E2E2E2E2E2E2E2E2
310
E2E2E2E2E2E2E2E2E2E2E2E2E2E2E2E2E2E2E2E2E2E2E2E2E2E2E2E2E2E2E2E2E2E2E2E2E2E2E2E2E2E2E2E2E2E2E2E2E2E2E2E2E2E2E2E2E2E2E2E2E2E2E2E2E2E2E2E2E2E2E2E2E2E2E2E2E2E2E2E2E2E2E2E2E2E2E2E2E2E2E2E2E2E2E2E2E2E2E2E2E2E2E2E2E2E2E2E2E2E2E2E2E2E2E2E2E2E2E2E2E2E2E2E2E2E2E2
310
E2E2E2E2E2E2E2E2E2E2E2E2E2E2E2E2E2E2E2E2E2E2E2E2E2E2E2E2E2E2E2E2E2E2E2E2E2E2E2E2E2E2E2E2E2E2E2E2E2E2E2E2E2E2E2E2E2E2E2E2E2E2E2E2E2E2E2E2E2E2E2E2E2E2E2E2E2E2E2E2E2E2E2E2E2E2E2E2E2E2E2E2E2E2E2E2E2E2E2E2E2E2E2E2E2E2E2E2E2E2E2E2E2E2E2E2E2E2E2E2E2E2E2E2E2E2E2
310
E2E2E2E2E2E2E2E2E2E2E2E2E2E2E2E2E2E2E2E2E2E2E2E2E2E2E2E2E2E2E2E2E2E2E2E2E2E2E2E2E2E2E2E2E2E2E2E2E2E2E2E2E2E2E2E2E2E2E2E2E2E2E2E2E2E2E2E2E2E2E2E2E2E2E2E2E2E2E2E2E2E2E2E2E2E2E2E2E2E2E2E2E2E2E2E2E2E2E2E2E2E2E2E2E2E2E2E2E2E2E2E2E2E2E2E2E2E2E2E2E2E2E2E2E2E2E2
310
E2E2E2E2E2E2E2E2E2E2E2E2E2E2E2E2E2E2E2E2E2E2E2E2E2E2E2E2E2E2E2E2E2E2E2E2E2E2E2E2E2E2E2E2E2E2E2E2E2E2E2E2E2E2E2E2E2E2E2E2E2E2E2E2E2E2E2E2E2E2E2E2E2E2E2E2E2E2E2E2E2E2E2E2E2E2E2E2E2E2E2E2E2E2E2E2E2E2E2E2E2E2E2E2E2E2E2E2E2E2E2E2E2E2E2E2E2E2E2E2E2E2E2E2E2E2E2
310
E2E2E2E2E2E2E2E2E2E2E2E2E2E2E2E2E2E2E2E2E2E2E2E2E2E2E2E2E2E2E2E2E2E2E2E2E2E2E2E2E2E2E2E2E2E2E2E2E2E2E2E2E2E2E2E2E2E2E2E2E2E2E2E2E2E2E2E2E2E2E2E2E2E2E2E2E2E2E2E2E2E2E2E2E2E2E2E2E2E2E2E2E2E2E2E2E2E2E2E2E2E2E2E2E2E2E2E2E2E2E2E2E2E2E2E2E2E2E2E2E2E2E2E2E2E2E2
310
E2E2E2E2E2E2E2E2E2E2E2E2E2E2E2E2E2E2E2E2E2E2E2E2E2E2E2E2E2E2E2E2E2E2E2E2E2E2E2E2E2E2E2E2E2E2E2E2E2E2E2E2E2E2E2E2E2E2E2E2E2E2E2E2E2E2E2E2E2E2E2E2E2E2E2E2E2E2E2E2E2E2E2E2E2E2E2E2E2E2E2E2E2E2E2E2E2E2E2E2E2E2E2E2E2E2E2E2E2E2E2E2E2E2E2E2E2E2E2E2E2E2E2E2E2E2E2
310
E2E2E2E2E2E2E2E2E2E2E2E2E2E2E2E2E2E2E2E2E2E2E2E2E2E2E2E2E2E2E2E2E2E2E2E2E2E2E2E2E2E2E2E2E2E2E2E2E2E2E2E2E2E2E2E2E2E2E2E2E2E2E2E2E2E2E2E2E2E2E2E2E2E2E2E2E2E2E2E2E2E2E2E2E2E2E2E2E2E2E2E2E2E2E2E2E2E2E2E2E2E2E2E2E2E2E2E2E2E2E2E2E2E2E2E2E2E2E2E2E2E2E2E2E2E2E2
310
E2E2E2E2E2E2E2E2E2E2E2E2E2E2E2E2E2E2E2E2E2E2E2E2E2E2E2E2E2E2E2E2E2E2E2E2E2E2E2E2E2E2E2E2E2E2E2E2E2E2E2E2E2E2E2E2E2E2E2E2E2E2E2E2E2E2E2E2E2E2E2E2E2E2E2E2E2E2E2E2E2E2E2E2E2E2E2E2E2E2E2E2E2E2E2E2E2E2E2E2E2E2E2E2E2E2E2E2E2E2E2E2E2E2E2E2E2E2E2E2E2E2E2E2E2E2E2
310
E2E2E2E2E2E2E2E2E2E2E2E2E2E2E2E2E2E2E2E2E2E2E2E2E2E2E2E2E2E2E2E2E2E2E2E2E2E2E2E2E2E2E2E2E2E2E2E2E2E2E2E2E2E2E2E2E2E2E2E2E2E2E2E2E2E2E2E2E2E2E2E2E2E2E2E2E2E2E2E2E2E2E2E2E2E2E2E2E2E2E2E2E2E2E2E2E2E2E2E2E2E2E2E2E2E2E2E2E2E2E2E2E2E2E2E2E2E2E2E2E2E2E2E2E2E2E2
310
E2E2E2E2E2E2E2E2E2E2E2E2E2E2E2E2E2E2E2E2E2E2E2E2E2E2E2E2E2E2E2E2E2E2E2E2E2E2E2E2E2E2E2E2E2E2E2E2E2E2E2E2E2E2E2E2E2E2E2E2E2E2E2E2E2E2E2E2E2E2E2E2E2E2E2E2E2E2E2E2E2E2E2E2E2E2E2E2E2E2E2E2E2E2E2E2E2E2E2E2E2E2E2E2E2E2E2E2E2E2E2E2E2E2E2E2E2E2E2E2E2E2E2E2E2E2E2
310
E2E2E2E2E2E2E2E2E2E2E2E2E2E2E2E2E2E2E2E2E2E2E2E2E2E2E2E2E2E2E2E2E2E2E2E2E2E2E2E2E2E2E2E2E2E2E2E2E2E2E2E2E2E2E2E2E2E2E2E2E2E2E2E2E2E2E2E2E2E2E2E2E2E2E2E2E2E2E2E2E2E2E2E2E2E2E2E2E2E2E2E2E2E2E2E2E2E2E2E2E2E2E2E2E2E2E2E2E2E2E2E2E2E2E2E2E2E2E2E2E2E2E2E2E2E2E2
310
E2E2E2E2E2E2E2E2E2E2E2E2E2E2E2E2E2E2E2E2E2E2E2E2E2E2E2E2E2E2E2E2E2E2E2E2E2E2E2E2E2E2E2E2E2E2E2E2E2E2E2E2E2E2E2E2E2E2E2E2E2E2E2E2E2E2E2E2E2E2E2E2E2E2E2E2E2E2E2E2E2E2E2E2E2E2E2E2E2E2E2E2E2E2E2E2E2E2E2E2E2E2E2E2E2E2E2E2E2E2E2E2E2E2E2E2E2E2E2E2E2E2E2E2E2E2E2
310
E2E2E2E2E2E2E2E2E2E2E2E2E2E2E2E2E2E2E2E2E2E2E2E2E2E2E2E2E2E2E2E2E2E2E2E2E2E2E2E2E2E2E2E2E2E2E2E2E2E2E2E2E2E2E2E2E2E2E2E2E2E2E2E2E2E2E2E2E2E2E2E2E2E2E2E2E2E2E2E2E2E2E2E2E2E2E2E2E2E2E2E2E2E2E2E2E2E2E2E2E2E2E2E2E2E2E2E2E2E2E2E2E2E2E2E2E2E2E2E2E2E2E2E2E2E2E2
310
E2E2E2E2E2E2E2E2E2E2E2E2E2E2E2E2E2E2E2E2E2E2E2E2E2E2E2E2E2E2E2E2E2E2E2E2E2E2E2E2E2E2E2E2E2E2E2E2E2E2E2E2E2E2E2E2E2E2E2E2E2E2E2E2E2E2E2E2E2E2E2E2E2E2E2E2E2E2E2E2E2E2E2E2E2E2E2E2E2E2E2E2E2E2E2E2E2E2E2E2E2E2E2E2E2E2E2E2E2E2E2E2E2E2E2E2E2E2E2E2E2E2E2E2E2E2E2
310
E2E2E2E2E2E2E2E2E2E2E2E2E2E2E2E2E2E2E2E2E2E2E2E2E2E2E2E2E2E2E2E2E2E2E2E2E2E2E2E2E2E2E2E2E2E2E2E2E2E2E2E2E2E2E2E2E2E2E2E2E2E2E2E2E2E2E2E2E2E2E2E2E2E2E2E2E2E2E2E2E2E2E2E2E2E2E2E2E2E2E2E2E2E2E2E2E2E2E2E2E2E2E2E2E2E2E2E2E2E2E2E2E2E2E2E2E2E2E2E2E2E2E2E2E2E2E2
310
E2E2E2E2E2E2E2E2E2E2E2E2E2E2E2E2E2E2E2E2E2E2E2E2E2E2E2E2E2E2E2E2E2E2E2E2E2E2E2E2E2E2E2E2E2E2E2E2E2E2E2E2E2E2E2E2E2E2E2E2E2E2E2E2E2E2E2E2E2E2E2E2E2E2E2E2E2E2E2E2E2E2E2E2E2E2E2E2E2E2E2E2E2E2E2E2E2E2E2E2E2E2E2E2E2E2E2E2E2E2E2E2E2E2E2E2E2E2E2E2E2E2E2E2E2E2E2
310
E2E2E2E2E2E2E2E2E2E2E2E2E2E2E2E2E2E2E2E2E2E2E2E2E2E2E2E2E2E2E2E2E2E2E2E2E2E2E2E2E2E2E2E2E2E2E2E2E2E2E2E2E2E2E2E2E2E2E2E2E2E2E2E2E2E2E2E2E2E2E2E2E2E2E2E2E2E2E2E2E2E2E2E2E2E2E2E2E2E2E2E2E2E2E2E2E2E2E2E2E2E2E2E2E2E2E2E2E2E2E2E2E2E2E2E2E2E2E2E2E2E2E2E2E2E2E2
310
E2E2E2E2E2E2E2E2E2E2E2E2E2E2E2E2E2E2E2E2E2E2E2E2E2E2E2E2E2E2E2E2E2E2E2E2E2E2E2E2E2E2E2E2E2E2E2E2E2E2E2E2E2E2E2E2E2E2E2E2E2E2E2E2E2E2E2E2E2E2E2E2E2E2E2E2E2E2E2E2E2E2E2E2E2E2E2E2E2E2E2E2E2E2E2E2E2E2E2E2E2E2E2E2E2E2E2E2E2E2E2E2E2E2E2E2E2E2E2E2E2E2E2E2E2E2E2
310
E2E2E2E2E2E2E2E2E2E2E2E2E2E2E2E2E2E2E2E2E2E2E2E2E2E2E2E2E2E2E2E2E2E2E2E2E2E2E2E2E2E2E2E2E2E2E2E2E2E2E2E2E2E2E2E2E2E2E2E2E2E2E2E2E2E2E2E2E2E2E2E2E2E2E2E2E2E2E2E2E2E2E2E2E2E2E2E2E2E2E2E2E2E2E2E2E2E2E2E2E2E2E2E2E2E2E2E2E2E2E2E2E2E2E2E2E2E2E2E2E2E2E2E2E2E2E2
310
E2E2E2E2E2E2E2E2E2E2E2E2E2E2E2E2E2E2E2E2E2E2E2E2E2E2E2E2E2E2E2E2E2E2E2E2E2E2E2E2E2E2E2E2E2E2E2E2E2E2E2E2E2E2E2E2E2E2E2E2E2E2E2E2E2E2E2E2E2E2E2E2E2E2E2E2E2E2E2E2E2E2E2E2E2E2E2E2E2E2E2E2E2E2E2E2E2E2E2E2E2E2E2E2E2E2E2E2E2E2E2E2E2E2E2E2E2E2E2E2E2E2E2E2E2E2E2
310
E2E2E2E2E2E2E2E2E2E2E2E2E2E2E2E2E2E2E2E2E2E2E2E2E2E2E2E2E2E2E2E2E2E2E2E2E2E2E2E2E2E2E2E2E2E2E2E2E2E2E2E2E2E2E2E2E2E2E2E2E2E2E2E2E2E2E2E2E2E2E2E2E2E2E2E2E2E2E2E2E2E2E2E2E2E2E2E2E2E2E2E2E2E2E2E2E2E2E2E2E2E2E2E2E2E2E2E2E2E2E2E2E2E2E2E2E2E2E2E2E2E2E2E2E2E2E2
310
E2E2E2E2E2E2E2E2E2E2E2E2E2E2E2E2E2E2E2E2E2E2E2E2E2E2E2E2E2E2E2E2E2E2E2E2E2E2E2E2E2E2E2E2E2E2E2E2E2E2E2E2E2E2E2E2E2E2E2E2E2E2E2E2E2E2E2E2E2E2E2E2E2E2E2E2E2E2E2E2E2E2E2E2E2E2E2E2E2E2E2E2E2E2E2E2E2E2E2E2E2E2E2E2E2E2E2E2E2E2E2E2E2E2E2E2E2E2E2E2E2E2E2E2E2E2E2
310
E2E2E2E2E2E2E2E2E2E2E2E2E2E2E2E2E2E2E2E2E2E2E2E2E2E2E2E2E2E2E2E2E2E2E2E2E2E2E2E2E2E2E2E2E2E2E2E2E2E2E2E2E2E2E2E2E2E2E2E2E2E2E2E2E2E2E2E2E2E2E2E2E2E2E2E2E2E2E2E2E2E2E2E2E2E2E2E2E2E2E2E2E2E2E2E2E2E2E2E2E2E2E2E2E2E2E2E2E2E2E2E2E2E2E2E2E2E2E2E2E2E2E2E2E2E2E2
310
E2E2E2E2E2E2E2E2E2E2E2E2E2E2E2E2E2E2E2E2E2E2E2E2E2E2E2E2E2E2E2E2E2E2E2E2E2E2E2E2E2E2E2E2E2E2E2E2E2E2E2E2E2E2E2E2E2E2E2E2E2E2E2E2E2E2E2E2E2E2E2E2E2E2E2E2E2E2E2E2E2E2E2E2E2E2E2E2E2E2E2E2E2E2E2E2E2E2E2E2E2E2E2E2E2E2E2E2E2E2E2E2E2E2E2E2E2E2E2E2E2E2E2E2E2E2E2
310
E2E2E2E2E2E2E2E2E2E2E2E2E2E2E2E2E2E2E2E2E2E2E2E2E2E2E2E2E2E2E2E2E2E2E2E2E2E2E2E2E2E2E2E2E2E2E2E2E2E2E2E2E2E2E2E2E2E2E2E2E2E2E2E2E2E2E2E2E2E2E2E2E2E2E2E2E2E2E2E2E2E2E2E2E2E2E2E2E2E2E2E2E2E2E2E2E2E2E2E2E2E2E2E2E2E2E2E2E2E2E2E2E2E2E2E2E2E2E2E2E2E2E2E2E2E2E2
310
E2E2E2E2E2E2E2E2E2E2E2E2E2E2E2E2E2E2E2E2E2E2E2E2E2E2E2E2E2E2E2E2E2E2E2E2E2E2E2E2E2E2E2E2E2E2E2E2E2E2E2E2E2E2E2E2E2E2E2E2E2E2E2E2E2E2E2E2E2E2E2E2E2E2E2E2E2E2E2E2E2E2E2E2E2E2E2E2E2E2E2E2E2E2E2E2E2E2E2E2E2E2E2E2E2E2E2E2E2E2E2E2E2E2E2E2E2E2E2E2E2E2E2E2E2E2E2
310
E2E2E2E2E2E2E2E2E2E2E2E2E2E2E2E2E2E2E2E2E2E2E2E2E2E2E2E2E2E2E2E2E2E2E2E2E2E2E2E2E2E2E2E2E2E2E2E2E2E2E2E2E2E2E2E2E2E2E2E2E2E2E2E2E2E2E2E2E2E2E2E2E2E2E2E2E2E2E2E2E2E2E2E2E2E2E2E2E2E2E2E2E2E2E2E2E2E2E2E2E2E2E2E2E2E2E2E2E2E2E2E2E2E2E2E2E2E2E2E2E2E2E2E2E2E2E2
310
E2E2E2E2E2E2E2E2E2E2E2E2E2E2E2E2E2E2E2E2E2E2E2E2E2E2E2E2E2E2E2E2E2E2E2E2E2E2E2E2E2E2E2E2E2E2E2E2E2E2E2E2E2E2E2E2E2E2E2E2E2E2E2E2E2E2E2E2E2E2E2E2E2E2E2E2E2E2E2E2E2E2E2E2E2E2E2E2E2E2E2E2E2E2E2E2E2E2E2E2E2E2E2E2E2E2E2E2E2E2E2E2E2E2E2E2E2E2E2E2E2E2E2E2E2E2E2
310
E2E2E2E2E2E2E2E2E2E2E2E2E2E2E2E2E2E2E2E2E2E2E2E2E2E2E2E2E2E2E2E2E2E2E2E2E2E2E2E2E2E2E2E2E2E2E2E2E2E2E2E2E2E2E2E2E2E2E2E2E2E2E2E2E2E2E2E2E2E2E2E2E2E2E2E2E2E2E2E2E2E2E2E2E2E2E2E2E2E2E2E2E2E2E2E2E2E2E2E2E2E2E2E2E2E2E2E2E2E2E2E2E2E2E2E2E2E2E2E2E2E2E2E2E2E2E2
310
E2E2E2E2E2E2E2E2E2E2E2E2E2E2E2E2E2E2E2E2E2E2E2E2E2E2E2E2E2E2E2E2E2E2E2E2E2E2E2E2E2E2E2E2E2E2E2E2E2E2E2E2E2E2E2E2E2E2E2E2E2E2E2E2E2E2E2E2E2E2E2E2E2E2E2E2E2E2E2E2E2E2E2E2E2E2E2E2E2E2E2E2E2E2E2E2E2E2E2E2E2E2E2E2E2E2E2E2E2E2E2E2E2E2E2E2E2E2E2E2E2E2E2E2E2E2E2
310
E2E2E2E2E2E2E2E2E2E2E2E2E2E2E2E2E2E2E2E2E2E2E2E2E2E2E2E2E2E2E2E2E2E2E2E2E2E2E2E2E2E2E2E2E2E2E2E2E2E2E2E2E2E2E2E2E2E2E2E2E2E2E2E2E2E2E2E2E2E2E2E2E2E2E2E2E2E2E2E2E2E2E2E2E2E2E2E2E2E2E2E2E2E2E2E2E2E2E2E2E2E2E2E2E2E2E2E2E2E2E2E2E2E2E2E2E2E2E2E2E2E2E2E2E2E2E2
310
E2E2E2E2E2E2E2E2E2E2E2E2E2E2E2E2E2E2E2E2E2E2E2E2E2E2E2E2E2E2E2E2E2E2E2E2E2E2E2E2E2E2E2E2E2E2E2E2E2E2E2E2E2E2E2E2E2E2E2E2E2E2E2E2E2E2E2E2E2E2E2E2E2E2E2E2E2E2E2E2E2E2E2E2E2E2E2E2E2E2E2E2E2E2E2E2E2E2E2E2E2E2E2E2E2E2E2E2E2E2E2E2E2E2E2E2E2E2E2E2E2E2E2E2E2E2E2
310
E2E2E2E2E2E2E2E2E2E2E2E2E2E2E2E2E2E2E2E2E2E2E2E2E2E2E2E2E2E2E2E2E2E2E2E2E2E2E2E2E2E2E2E2E2E2E2E2E2E2E2E2E2E2E2E2E2E2E2E2E2E2E2E2E2E2E2E2E2E2E2E2E2E2E2E2E2E2E2E2E2E2E2E2E2E2E2E2E2E2E2E2E2E2E2E2E2E2E2E2E2E2E2E2E2E2E2E2E2E2E2E2E2E2E2E2E2E2E2E2E2E2E2E2E2E2E2
310
E2E2E2E2E2E2E2E2E2E2E2E2E2E2E2E2E2E2E2E2E2E2E2E2E2E2E2E2E2E2E2E2E2E2E2E2E2E2E2E2E2E2E2E2E2E2E2E2E2E2E2E2E2E2E2E2E2E2E2E2E2E2E2E2E2E2E2E2E2E2E2E2E2E2E2E2E2E2E2E2E2E2E2E2E2E2E2E2E2E2E2E2E2E2E2E2E2E2E2E2E2E2E2E2E2E2E2E2E2E2E2E2E2E2E2E2E2E2E2E2E2E2E2E2E2E2E2
310
E2E2E2E2E2E2E2E2E2E2E2E2E2E2E2E2E2E2E2E2E2E2E2E2E2E2E2E2E2E2E2E2E2E2E2E2E2E2E2E2E2E2E2E2E2E2E2E2E2E2E2E2E2E2E2E2E2E2E2E2E2E2E2E2E2E2E2E2E2E2E2E2E2E2E2E2E2E2E2E2E2E2E2E2E2E2E2E2E2E2E2E2E2E2E2E2E2E2E2E2E2E2E2E2E2E2E2E2E2E2E2E2E2E2E2E2E2E2E2E2E2E2E2E2E2E2E2
310
E2E2E2E2E2E2E2E2E2E2E2E2E2E2E2E2E2E2E2E2E2E2E2E2E2E2E2E2E2E2E2E2E2E2E2E2E2E2E2E2E2E2E2E2E2E2E2E2E2E2E2E2E2E2E2E2E2E2E2E2E2E2E2E2E2E2E2E2E2E2E2E2E2E2E2E2E2E2E2E2E2E2E2E2E2E2E2E2E2E2E2E2E2E2E2E2E2E2E2E2E2E2E2E2E2E2E2E2E2E2E2E2E2E2E2E2E2E2E2E2E2E2E2E2E2E2E2
310
E2E2E2E2E2E2E2E2E2E2E2E2E2E2E2E2E2E2E2E2E2E2E2E2E2E2E2E2E2E2E2E2E2E2E2E2E2E2E2E2E2E2E2E2E2E2E2E2E2E2E2E2E2E2E2E2E2E2E2E2E2E2E2E2E2E2E2E2E2E2E2E2E2E2E2E2E2E2E2E2E2E2E2E2E2E2E2E2E2E2E2E2E2E2E2E2E2E2E2E2E2E2E2E2E2E2E2E2E2E2E2E2E2E2E2E2E2E2E2E2E2E2E2E2E2E2E2
310
E2E2E2E2E2E2E2E2E2E2E2E2E2E2E2E2E2E2E2E2E2E2E2E2E2E2E2E2E2E2E2E2E2E2E2E2E2E2E2E2E2E2E2E2E2E2E2E2E2E2E2E2E2E2E2E2E2E2E2E2E2E2E2E2E2E2E2E2E2E2E2E2E2E2E2E2E2E2E2E2E2E2E2E2E2E2E2E2E2E2E2E2E2E2E2E2E2E2E2E2E2E2E2E2E2E2E2E2E2E2E2E2E2E2E2E2E2E2E2E2E2E2E2E2E2E2E2
310
E2E2E2E2E2E2E2E2E2E2E2E2E2E2E2E2E2E2E2E2E2E2E2E2E2E2E2E2E2E2E2E2E2E2E2E2E2E2E2E2E2E2E2E2E2E2E2E2E2E2E2E2E2E2E2E2E2E2E2E2E2E2E2E2E2E2E2E2E2E2E2E2E2E2E2E2E2E2E2E2E2E2E2E2E2E2E2E2E2E2E2E2E2E2E2E2E2E2E2E2E2E2E2E2E2E2E2E2E2E2E2E2E2E2E2E2E2E2E2E2E2E2E2E2E2E2E2
310
E2E2E2E2E2E2E2E2E2E2E2E2E2E2E2E2E2E2E2E2E2E2E2E2E2E2E2E2E2E2E2E2E2E2E2E2E2E2E2E2E2E2E2E2E2E2E2E2E2E2E2E2E2E2E2E2E2E2E2E2E2E2E2E2E2E2E2E2E2E2E2E2E2E2E2E2E2E2E2E2E2E2E2E2E2E2E2E2E2E2E2E2E2E2E2E2E2E2E2E2E2E2E2E2E2E2E2E2E2E2E2E2E2E2E2E2E2E2E2E2E2E2E2E2E2E2E2
310
E2E2E2E2E2E2E2E2E2E2E2E2E2E2E2E2E2E2E2E2E2E2E2E2E2E2E2E2E2E2E2E2E2E2E2E2E2E2E2E2E2E2E2E2E2E2E2E2E2E2E2E2E2E2E2E2E2E2E2E2E2E2E2E2E2E2E2E2E2E2E2E2E2E2E2E2E2E2E2E2E2E2E2E2E2E2E2E2E2E2E2E2E2E2E2E2E2E2E2E2E2E2E2E2E2E2E2E2E2E2E2E2E2E2E2E2E2E2E2E2E2E2E2E2E2E2E2
310
E2E2E2E2E2E2E2E2E2E2E2E2E2E2E2E2E2E2E2E2E2E2E2E2E2E2E2E2E2E2E2E2E2E2E2E2E2E2E2E2E2E2E2E2E2E2E2E2E2E2E2E2E2E2E2E2E2E2E2E2E2E2E2E2E2E2E2E2E2E2E2E2E2E2E2E2E2E2E2E2E2E2E2E2E2E2E2E2E2E2E2E2E2E2E2E2E2E2E2E2E2E2E2E2E2E2E2E2E2E2E2E2E2E2E2E2E2E2E2E2E2E2E2E2E2E2E2
310
E2E2E2E2E2E2E2E2E2E2E2E2E2E2E2E2E2E2E2E2E2E2E2E2E2E2E2E2E2E2E2E2E2E2E2E2E2E2E2E2E2E2E2E2E2E2E2E2E2E2E2E2E2E2E2E2E2E2E2E2E2E2E2E2E2E2E2E2E2E2E2E2E2E2E2E2E2E2E2E2E2E2E2E2E2E2E2E2E2E2E2E2E2E2E2E2E2E2E2E2E2E2E2E2E2E2E2E2E2E2E2E2E2E2E2E2E2E2E2E2E2E2E2E2E2E2E2
310
E2E2E2E2E2E2E2E2E2E2E2E2E2E2E2E2E2E2E2E2E2E2E2E2E2E2E2E2E2E2E2E2E2E2E2E2E2E2E2E2E2E2E2E2E2E2E2E2E2E2E2E2E2E2E2E2E2E2E2E2E2E2E2E2E2E2E2E2E2E2E2E2E2E2E2E2E2E2E2E2E2E2E2E2E2E2E2E2E2E2E2E2E2E2E2E2E2E2E2E2E2E2E2E2E2E2E2E2E2E2E2E2E2E2E2E2E2E2E2E2E2E2E2E2E2E2E2
310
E2E2E2E2E2E2E2E2E2E2E2E2E2E2E2E2E2E2E2E2E2E2E2E2E2E2E2E2E2E2E2E2E2E2E2E2E2E2E2E2E2E2E2E2E2E2E2E2E2E2E2E2E2E2E2E2E2E2E2E2E2E2E2E2E2E2E2E2E2E2E2E2E2E2E2E2E2E2E2E2E2E2E2E2E2E2E2E2E2E2E2E2E2E2E2E2E2E2E2E2E2E2E2E2E2E2E2E2E2E2E2E2E2E2E2E2E2E2E2E2E2E2E2E2E2E2E2
310
E2E2E2E2E2E2E2E2E2E2E2E2E2E2E2E2E2E2E2E2E2E2E2E2E2E2E2E2E2E2E2E2E2E2E2E2E2E2E2E2E2E2E2E2E2E2E2E2E2E2E2E2E2E2E2E2E2E2E2E2E2E2E2E2E2E2E2E2E2E2E2E2E2E2E2E2E2E2E2E2E2E2E2E2E2E2E2E2E2E2E2E2E2E2E2E2E2E2E2E2E2E2E2E2E2E2E2E2E2E2E2E2E2E2E2E2E2E2E2E2E2E2E2E2E2E2E2
310
E2E2E2E2E2E2E2E2E2E2E2E2E2E2E2E2E2E2E2E2E2E2E2E2E2E2E2E2E2E2E2E2E2E2E2E2E2E2E2E2E2E2E2E2E2E2E2E2E2E2E2E2E2E2E2E2E2E2E2E2E2E2E2E2E2E2E2E2E2E2E2E2E2E2E2E2E2E2E2E2E2E2E2E2E2E2E2E2E2E2E2E2E2E2E2E2E2E2E2E2E2E2E2E2E2E2E2E2E2E2E2E2E2E2E2E2E2E2E2E2E2E2E2E2E2E2E2
310
E2E2E2E2E2E2E2E2E2E2E2E2E2E2E2E2E2E2E2E2E2E2E2E2E2E2E2E2E2E2E2E2E2E2E2E2E2E2E2E2E2E2E2E2E2E2E2E2E2E2E2E2E2E2E2E2E2E2E2E2E2E2E2E2E2E2E2E2E2E2E2E2E2E2E2E2E2E2E2E2E2E2E2E2E2E2E2E2E2E2E2E2E2E2E2E2E2E2E2E2E2E2E2E2E2E2E2E2E2E2E2E2E2E2E2E2E2E2E2E2E2E2E2E2E2E2E2
310
E2E2E2E2E2E2E2E2E2E2E2E2E2E2E2E2E2E2E2E2E2E2E2E2E2E2E2E2E2E2E2E2E2E2E2E2E2E2E2E2E2E2E2E2E2E2E2E2E2E2E2E2E2E2E2E2E2E2E2E2E2E2E2E2E2E2E2E2E2E2E2E2E2E2E2E2E2E2E2E2E2E2E2E2E2E2E2E2E2E2E2E2E2E2E2E2E2E2E2E2E2E2E2E2E2E2E2E2E2E2E2E2E2E2E2E2E2E2E2E2E2E2E2E2E2E2E2
310
E2E2E2E2E2E2E2E2E2E2E2E2E2E2E2E2E2E2E2E2E2E2E2E2E2E2E2E2E2E2E2E2E2E2E2E2E2E2E2E2E2E2E2E2E2E2E2E2E2E2E2E2E2E2E2E2E2E2E2E2E2E2E2E2E2E2E2E2E2E2E2E2E2E2E2E2E2E2E2E2E2E2E2E2E2E2E2E2E2E2E2E2E2E2E2E2E2E2E2E2E2E2E2E2E2E2E2E2E2E2E2E2E2E2E2E2E2E2E2E2E2E2E2E2E2E2E2
310
E2E2E2E2E2E2E2E2E2E2E2E2E2E2E2E2E2E2E2E2E2E2E2E2E2E2E2E2E2E2E2E2E2E2E2E2E2E2E2E2E2E2E2E2E2E2E2E2E2E2E2E2E2E2E2E2E2E2E2E2E2E2E2E2E2E2E2E2E2E2E2E2E2E2E2E2E2E2E2E2E2E2E2E2E2E2E2E2E2E2E2E2E2E2E2E2E2E2E2E2E2E2E2E2E2E2E2E2E2E2E2E2E2E2E2E2E2E2E2E2E2E2E2E2E2E2E2
310
E2E2E2E2E2E2E2E2E2E2E2E2E2E2E2E2E2E2E2E2E2E2E2E2E2E2E2E2E2E2E2E2E2E2E2E2E2E2E2E2E2E2E2E2E2E2E2E2E2E2E2E2E2E2E2E2E2E2E2E2E2E2E2E2E2E2E2E2E2E2E2E2E2E2E2E2E2E2E2E2E2E2E2E2E2E2E2E2E2E2E2E2E2E2E2E2E2E2E2E2E2E2E2E2E2E2E2E2E2E2E2E2E2E2E2E2E2E2E2E2E2E2E2E2E2E2E2
310
E2E2E2E2E2E2E2E2E2E2E2E2E2E2E2E2E2E2E2E2E2E2E2E2E2E2E2E2E2E2E2E2E2E2E2E2E2E2E2E2E2E2E2E2E2E2E2E2E2E2E2E2E2E2E2E2E2E2E2E2E2E2E2E2E2E2E2E2E2E2E2E2E2E2E2E2E2E2E2E2E2E2E2E2E2E2E2E2E2E2E2E2E2E2E2E2E2E2E2E2E2E2E2E2E2E2E2E2E2E2E2E2E2E2E2E2E2E2E2E2E2E2E2E2E2E2E2
310
E2E2E2E2E2E2E2E2E2E2E2E2E2E2E2E2E2E2E2E2E2E2E2E2E2E2E2E2E2E2E2E2E2E2E2E2E2E2E2E2E2E2E2E2E2E2E2E2E2E2E2E2E2E2E2E2E2E2E2E2E2E2E2E2E2E2E2E2E2E2E2E2E2E2E2E2E2E2E2E2E2E2E2E2E2E2E2E2E2E2E2E2E2E2E2E2E2E2E2E2E2E2E2E2E2E2E2E2E2E2E2E2E2E2E2E2E2E2E2E2E2E2E2E2E2E2E2
310
E2E2E2E2E2E2E2E2E2E2E2E2E2E2E2E2E2E2E2E2E2E2E2E2E2E2E2E2E2E2E2E2E2E2E2E2E2E2E2E2E2E2E2E2E2E2E2E2E2E2E2E2E2E2E2E2E2E2E2E2E2E2E2E2E2E2E2E2E2E2E2E2E2E2E2E2E2E2E2E2E2E2E2E2E2E2E2E2E2E2E2E2E2E2E2E2E2E2E2E2E2E2E2E2E2E2E2E2E2E2E2E2E2E2E2E2E2E2E2E2E2E2E2E2E2E2E2
310
E2E2E2E2E2E2E2E2E2E2E2E2E2E2E2E2E2E2E2E2E2E2E2E2E2E2E2E2E2E2E2E2E2E2E2E2E2E2E2E2E2E2E2E2E2E2E2E2E2E2E2E2E2E2E2E2E2E2E2E2E2E2E2E2E2E2E2E2E2E2E2E2E2E2E2E2E2E2E2E2E2E2E2E2E2E2E2E2E2E2E2E2E2E2E2E2E2E2E2E2E2E2E2E2E2E2E2E2E2E2E2E2E2E2E2E2E2E2E2E2E2E2E2E2E2E2E2
310
E2E2E2E2E2E2E2E2E2E2E2E2E2E2E2E2E2E2E2E2E2E2E2E2E2E2E2E2E2E2E2E2E2E2E2E2E2E2E2E2E2E2E2E2E2E2E2E2E2E2E2E2E2E2E2E2E2E2E2E2E2E2E2E2E2E2E2E2E2E2E2E2E2E2E2E2E2E2E2E2E2E2E2E2E2E2E2E2E2E2E2E2E2E2E2E2E2E2E2E2E2E2E2E2E2E2E2E2E2E2E2E2E2E2E2E2E2E2E2E2E2E2E2E2E2E2E2
310
E2E2E2E2E2E2E2E2E2E2E2E2E2E2E2E2E2E2E2E2E2E2E2E2E2E2E2E2E2E2E2E2E2E2E2E2E2E2E2E2E2E2E2E2E2E2E2E2E2E2E2E2E2E2E2E2E2E2E2E2E2E2E2E2E2E2E2E2E2E2E2E2E2E2E2E2E2E2E2E2E2E2E2E2E2E2E2E2E2E2E2E2E2E2E2E2E2E2E2E2E2E2E2E2E2E2E2E2E2E2E2E2E2E2E2E2E2E2E2E2E2E2E2E2E2E2E2
310
E2E2E2E2E2E2E2E2E2E2E2E2E2E2E2E2E2E2E2E2E2E2E2E2E2E2E2E2E2E2E2E2E2E2E2E2E2E2E2E2E2E2E2E2E2E2E2E2E2E2E2E2E2E2E2E2E2E2E2E2E2E2E2E2E2E2E2E2E2E2E2E2E2E2E2E2E2E2E2E2E2E2E2E2E2E2E2E2E2E2E2E2E2E2E2E2E2E2E2E2E2E2E2E2E2E2E2E2E2E2E2E2E2E2E2E2E2E2E2E2E2E2E2E2E2E2E2
310
E2E2E2E2E2E2E2E2E2E2E2E2E2E2E2E2E2E2E2E2E2E2E2E2E2E2E2E2E2E2E2E2E2E2E2E2E2E2E2E2E2E2E2E2E2E2E2E2E2E2E2E2E2E2E2E2E2E2E2E2E2E2E2E2E2E2E2E2E2E2E2E2E2E2E2E2E2E2E2E2E2E2E2E2E2E2E2E2E2E2E2E2E2E2E2E2E2E2E2E2E2E2E2E2E2E2E2E2E2E2E2E2E2E2E2E2E2E2E2E2E2E2E2E2E2E2E2
310
E2E2E2E2E2E2E2E2E2E2E2E2E2E2E2E2E2E2E2E2E2E2E2E2E2E2E2E2E2E2E2E2E2E2E2E2E2E2E2E2E2E2E2E2E2E2E2E2E2E2E2E2E2E2E2E2E2E2E2E2E2E2E2E2E2E2E2E2E2E2E2E2E2E2E2E2E2E2E2E2E2E2E2E2E2E2E2E2E2E2E2E2E2E2E2E2E2E2E2E2E2E2E2E2E2E2E2E2E2E2E2E2E2E2E2E2E2E2E2E2E2E2E2E2E2E2E2
310
E2E2E2E2E2E2E2E2E2E2E2E2E2E2E2E2E2E2E2E2E2E2E2E2E2E2E2E2E2E2E2E2E2E2E2E2E2E2E2E2E2E2E2E2E2E2E2E2E2E2E2E2E2E2E2E2E2E2E2E2E2E2E2E2E2E2E2E2E2E2E2E2E2E2E2E2E2E2E2E2E2E2E2E2E2E2E2E2E2E2E2E2E2E2E2E2E2E2E2E2E2E2E2E2E2E2E2E2E2E2E2E2E2E2E2E2E2E2E2E2E2E2E2E2E2E2E2
310
E2E2E2E2E2E2E2E2E2E2E2E2E2E2E2E2E2E2E2E2E2E2E2E2E2E2E2E2E2E2E2E2E2E2E2E2E2E2E2E2E2E2E2E2E2E2E2E2E2E2E2E2E2E2E2E2E2E2E2E2E2E2E2E2E2E2E2E2E2E2E2E2E2E2E2E2E2E2E2E2E2E2E2E2E2E2E2E2E2E2E2E2E2E2E2E2E2E2E2E2E2E2E2E2E2E2E2E2E2E2E2E2E2E2E2E2E2E2E2E2E2E2E2E2E2E2E2
310
E2E2E2E2E2E2E2E2E2E2E2E2E2E2E2E2E2E2E2E2E2E2E2E2E2E2E2E2E2E2E2E2E2E2E2E2E2E2E2E2E2E2E2E2E2E2E2E2E2E2E2E2E2E2E2E2E2E2E2E2E2E2E2E2E2E2E2E2E2E2E2E2E2E2E2E2E2E2E2E2E2E2E2E2E2E2E2E2E2E2E2E2E2E2E2E2E2E2E2E2E2E2E2E2E2E2E2E2E2E2E2E2E2E2E2E2E2E2E2E2E2E2E2E2E2E2E2
310
E2E2E2E2E2E2E2E2E2E2E2E2E2E2E2E2E2E2E2E2E2E2E2E2E2E2E2E2E2E2E2E2E2E2E2E2E2E2E2E2E2E2E2E2E2E2E2E2E2E2E2E2E2E2E2E2E2E2E2E2E2E2E2E2E2E2E2E2E2E2E2E2E2E2E2E2E2E2E2E2E2E2E2E2E2E2E2E2E2E2E2E2E2E2E2E2E2E2E2E2E2E2E2E2E2E2E2E2E2E2E2E2E2E2E2E2E2E2E2E2E2E2E2E2E2E2E2
310
E2E2E2E2E2E2E2E2E2E2E2E2E2E2E2E2E2E2E2E2E2E2E2E2E2E2E2E2E2E2E2E2E2E2E2E2E2E2E2E2E2E2E2E2E2E2E2E2E2E2E2E2E2E2E2E2E2E2E2E2E2E2E2E2E2E2E2E2E2E2E2E2E2E2E2E2E2E2E2E2E2E2E2E2E2E2E2E2E2E2E2E2E2E2E2E2E2E2E2E2E2E2E2E2E2E2E2E2E2E2E2E2E2E2E2E2E2E2E2E2E2E2E2E2E2E2E2
310
E2E2E2E2E2E2E2E2E2E2E2E2E2E2E2E2E2E2E2E2E2E2E2E2E2E2E2E2E2E2E2E2E2E2E2E2E2E2E2E2E2E2E2E2E2E2E2E2E2E2E2E2E2E2E2E2E2E2E2E2E2E2E2E2E2E2E2E2E2E2E2E2E2E2E2E2E2E2E2E2E2E2E2E2E2E2E2E2E2E2E2E2E2E2E2E2E2E2E2E2E2E2E2E2E2E2E2E2E2E2E2E2E2E2E2E2E2E2E2E2E2E2E2E2E2E2E2
310
E2E2E2E2E2E2E2E2E2E2E2E2E2E2E2E2E2E2E2E2E2E2E2E2E2E2E2E2E2E2E2E2E2E2E2E2E2E2E2E2E2E2E2E2E2E2E2E2E2E2E2E2E2E2E2E2E2E2E2E2E2E2E2E2E2E2E2E2E2E2E2E2E2E2E2E2E2E2E2E2E2E2E2E2E2E2E2E2E2E2E2E2E2E2E2E2E2E2E2E2E2E2E2E2E2E2E2E2E2E2E2E2E2E2E2E2E2E2E2E2E2E2E2E2E2E2E2
310
E2E2E2E2E2E2E2E2E2E2E2E2E2E2E2E2E2E2E2E2E2E2E2E2E2E2E2E2E2E2E2E2E2E2E2E2E2E2E2E2E2E2E2E2E2E2E2E2E2E2E2E2E2E2E2E2E2E2E2E2E2E2E2E2E2E2E2E2E2E2E2E2E2E2E2E2E2E2E2E2E2E2E2E2E2E2E2E2E2E2E2E2E2E2E2E2E2E2E2E2E2E2E2E2E2E2E2E2E2E2E2E2E2E2E2E2E2E2E2E2E2E2E2E2E2E2E2
310
E2E2E2E2E2E2E2E2E2E2E2E2E2E2E2E2E2E2E2E2E2E2E2E2E2E2E2E2E2E2E2E2E2E2E2E2E2E2E2E2E2E2E2E2E2E2E2E2E2E2E2E2E2E2E2E2E2E2E2E2E2E2E2E2E2E2E2E2E2E2E2E2E2E2E2E2E2E2E2E2E2E2E2E2E2E2E2E2E2E2E2E2E2E2E2E2E2E2E2E2E2E2E2E2E2E2E2E2E2E2E2E2E2E2E2E2E2E2E2E2E2E2E2E2E2E2E2
310
E2E2E2E2E2E2E2E2E2E2E2E2E2E2E2E2E2E2E2E2E2E2E2E2E2E2E2E2E2E2E2E2E2E2E2E2E2E2E2E2E2E2E2E2E2E2E2E2E2E2E2E2E2E2E2E2E2E2E2E2E2E2E2E2E2E2E2E2E2E2E2E2E2E2E2E2E2E2E2E2E2E2E2E2E2E2E2E2E2E2E2E2E2E2E2E2E2E2E2E2E2E2E2E2E2E2E2E2E2E2E2E2E2E2E2E2E2E2E2E2E2E2E2E2E2E2E2
310
E2E2E2E2E2E2E2E2E2E2E2E2E2E2E2E2E2E2E2E2E2E2E2E2E2E2E2E2E2E2E2E2E2E2E2E2E2E2E2E2E2E2E2E2E2E2E2E2E2E2E2E2E2E2E2E2E2E2E2E2E2E2E2E2E2E2E2E2E2E2E2E2E2E2E2E2E2E2E2E2E2E2E2E2E2E2E2E2E2E2E2E2E2E2E2E2E2E2E2E2E2E2E2E2E2E2E2E2E2E2E2E2E2E2E2E2E2E2E2E2E2E2E2E2E2E2E2
310
E2E2E2E2E2E2E2E2E2E2E2E2E2E2E2E2E2E2E2E2E2E2E2E2E2E2E2E2E2E2E2E2E2E2E2E2E2E2E2E2E2E2E2E2E2E2E2E2E2E2E2E2E2E2E2E2E2E2E2E2E2E2E2E2E2E2E2E2E2E2E2E2E2E2E2E2E2E2E2E2E2E2E2E2E2E2E2E2E2E2E2E2E2E2E2E2E2E2E2E2E2E2E2E2E2E2E2E2E2E2E2E2E2E2E2E2E2E2E2E2E2E2E2E2E2E2E2
310
E2E2E2E2E2E2E2E2E2E2E2E2E2E2E2E2E2E2E2E2E2E2E2E2E2E2E2E2E2E2E2E2E2E2E2E2E2E2E2E2E2E2E2E2E2E2E2E2E2E2E2E2E2E2E2E2E2E2E2E2E2E2E2E2E2E2E2E2E2E2E2E2E2E2E2E2E2E2E2E2E2E2E2E2E2E2E2E2E2E2E2E2E2E2E2E2E2E2E2E2E2E2E2E2E2E2E2E2E2E2E2E2E2E2E2E2E2E2E2E2E2E2E2E2E2E2E2
310
E2E2E2E2E2E2E2E2E2E2E2E2E2E2E2E2E2E2E2E2E2E2E2E2E2E2E2E2E2E2E2E2E2E2E2E2E2E2E2E2E2E2E2E2E2E2E2E2E2E2E2E2E2E2E2E2E2E2E2E2E2E2E2E2E2E2E2E2E2E2E2E2E2E2E2E2E2E2E2E2E2E2E2E2E2E2E2E2E2E2E2E2E2E2E2E2E2E2E2E2E2E2E2E2E2E2E2E2E2E2E2E2E2E2E2E2E2E2E2E2E2E2E2E2E2E2E2
310
E2E2E2E2E2E2E2E2E2E2E2E2E2E2E2E2E2E2E2E2E2E2E2E2E2E2E2E2E2E2E2E2E2E2E2E2E2E2E2E2E2E2E2E2E2E2E2E2E2E2E2E2E2E2E2E2E2E2E2E2E2E2E2E2E2E2E2E2E2E2E2E2E2E2E2E2E2E2E2E2E2E2E2E2E2E2E2E2E2E2E2E2E2E2E2E2E2E2E2E2E2E2E2E2E2E2E2E2E2E2E2E2E2E2E2E2E2E2E2E2E2E2E2E2E2E2E2
310
E2E2E2E2E2E2E2E2E2E2E2E2E2E2E2E2E2E2E2E2E2E2E2E2E2E2E2E2E2E2E2E2E2E2E2E2E2E2E2E2E2E2E2E2E2E2E2E2E2E2E2E2E2E2E2E2E2E2E2E2E2E2E2E2E2E2E2E2E2E2E2E2E2E2E2E2E2E2E2E2E2E2E2E2E2E2E2E2E2E2E2E2E2E2E2E2E2E2E2E2E2E2E2E2E2E2E2E2E2E2E2E2E2E2E2E2E2E2E2E2E2E2E2E2E2E2E2
310
E2E2E2E2E2E2E2E2E2E2E2E2E2E2E2E2E2E2E2E2E2E2E2E2E2E2E2E2E2E2E2E2E2E2E2E2E2E2E2E2E2E2E2E2E2E2E2E2E2E2E2E2E2E2E2E2E2E2E2E2E2E2E2E2E2E2E2E2E2E2E2E2E2E2E2E2E2E2E2E2E2E2E2E2E2E2E2E2E2E2E2E2E2E2E2E2E2E2E2E2E2E2E2E2E2E2E2E2E2E2E2E2E2E2E2E2E2E2E2E2E2E2E2E2E2E2E2
310
E2E2E2E2E2E2E2E2E2E2E2E2E2E2E2E2E2E2E2E2E2E2E2E2E2E2E2E2E2E2E2E2E2E2E2E2E2E2E2E2E2E2E2E2E2E2E2E2E2E2E2E2E2E2E2E2E2E2E2E2E2E2E2E2E2E2E2E2E2E2E2E2E2E2E2E2E2E2E2E2E2E2E2E2E2E2E2E2E2E2E2E2E2E2E2E2E2E2E2E2E2E2E2E2E2E2E2E2E2E2E2E2E2E2E2E2E2E2E2E2E2E2E2E2E2E2E2
310
E2E2E2E2E2E2E2E2E2E2E2E2E2E2E2E2E2E2E2E2E2E2E2E2E2E2E2E2E2E2E2E2E2E2E2E2E2E2E2E2E2E2E2E2E2E2E2E2E2E2E2E2E2E2E2E2E2E2E2E2E2E2E2E2E2E2E2E2E2E2E2E2E2E2E2E2E2E2E2E2E2E2E2E2E2E2E2E2E2E2E2E2E2E2E2E2E2E2E2E2E2E2E2E2E2E2E2E2E2E2E2E2E2E2E2E2E2E2E2E2E2E2E2E2E2E2E2
310
E2E2E2E2E2E2E2E2E2E2E2E2E2E2E2E2E2E2E2E2E2E2E2E2E2E2E2E2E2E2E2E2E2E2E2E2E2E2E2E2E2E2E2E2E2E2E2E2E2E2E2E2E2E2E2E2E2E2E2E2E2E2E2E2E2E2E2E2E2E2E2E2E2E2E2E2E2E2E2E2E2E2E2E2E2E2E2E2E2E2E2E2E2E2E2E2E2E2E2E2E2E2E2E2E2E2E2E2E2E2E2E2E2E2E2E2E2E2E2E2E2E2E2E2E2E2E2
310
E2E2E2E2E2E2E2E2E2E2E2E2E2E2E2E2E2E2E2E2E2E2E2E2E2E2E2E2E2E2E2E2E2E2E2E2E2E2E2E2E2E2E2E2E2E2E2E2E2E2E2E2E2E2E2E2E2E2E2E2E2E2E2E2E2E2E2E2E2E2E2E2E2E2E2E2E2E2E2E2E2E2E2E2E2E2E2E2E2E2E2E2E2E2E2E2E2E2E2E2E2E2E2E2E2E2E2E2E2E2E2E2E2E2E2E2E2E2E2E2E2E2E2E2E2E2E2
310
E2E2E2E2E2E2E2E2E2E2E2E2E2E2E2E2E2E2E2E2E2E2E2E2E2E2E2E2E2E2E2E2E2E2E2E2E2E2E2E2E2E2E2E2E2E2E2E2E2E2E2E2E2E2E2E2E2E2E2E2E2E2E2E2E2E2E2E2E2E2E2E2E2E2E2E2E2E2E2E2E2E2E2E2E2E2E2E2E2E2E2E2E2E2E2E2E2E2E2E2E2E2E2E2E2E2E2E2E2E2E2E2E2E2E2E2E2E2E2E2E2E2E2E2E2E2E2
310
E2E2E2E2E2E2E2E2E2E2E2E2E2E2E2E2E2E2E2E2E2E2E2E2E2E2E2E2E2E2E2E2E2E2E2E2E2E2E2E2E2E2E2E2E2E2E2E2E2E2E2E2E2E2E2E2E2E2E2E2E2E2E2E2E2E2E2E2E2E2E2E2E2E2E2E2E2E2E2E2E2E2E2E2E2E2E2E2E2E2E2E2E2E2E2E2E2E2E2E2E2E2E2E2E2E2E2E2E2E2E2E2E2E2E2E2E2E2E2E2E2E2E2E2E2E2E2
310
E2E2E2E2E2E2E2E2E2E2E2E2E2E2E2E2E2E2E2E2E2E2E2E2E2E2E2E2E2E2E2E2E2E2E2E2E2E2E2E2E2E2E2E2E2E2E2E2E2E2E2E2E2E2E2E2E2E2E2E2E2E2E2E2E2E2E2E2E2E2E2E2E2E2E2E2E2E2E2E2E2E2E2E2E2E2E2E2E2E2E2E2E2E2E2E2E2E2E2E2E2E2E2E2E2E2E2E2E2E2E2E2E2E2E2E2E2E2E2E2E2E2E2E2E2E2E2
310
E2E2E2E2E2E2E2E2E2E2E2E2E2E2E2E2E2E2E2E2E2E2E2E2E2E2E2E2E2E2E2E2E2E2E2E2E2E2E2E2E2E2E2E2E2E2E2E2E2E2E2E2E2E2E2E2E2E2E2E2E2E2E2E2E2E2E2E2E2E2E2E2E2E2E2E2E2E2E2E2E2E2E2E2E2E2E2E2E2E2E2E2E2E2E2E2E2E2E2E2E2E2E2E2E2E2E2E2E2E2E2E2E2E2E2E2E2E2E2E2E2E2E2E2E2E2E2
310
E2E2E2E2E2E2E2E2E2E2E2E2E2E2E2E2E2E2E2E2E2E2E2E2E2E2E2E2E2E2E2E2E2E2E2E2E2E2E2E2E2E2E2E2E2E2E2E2E2E2E2E2E2E2E2E2E2E2E2E2E2E2E2E2E2E2E2E2E2E2E2E2E2E2E2E2E2E2E2E2E2E2E2E2E2E2E2E2E2E2E2E2E2E2E2E2E2E2E2E2E2E2E2E2E2E2E2E2E2E2E2E2E2E2E2E2E2E2E2E2E2E2E2E2E2E2E2
310
E2E2E2E2E2E2E2E2E2E2E2E2E2E2E2E2E2E2E2E2E2E2E2E2E2E2E2E2E2E2E2E2E2E2E2E2E2E2E2E2E2E2E2E2E2E2E2E2E2E2E2E2E2E2E2E2E2E2E2E2E2E2E2E2E2E2E2E2E2E2E2E2E2E2E2E2E2E2E2E2E2E2E2E2E2E2E2E2E2E2E2E2E2E2E2E2E2E2E2E2E2E2E2E2E2E2E2E2E2E2E2E2E2E2E2E2E2E2E2E2E2E2E2E2E2E2E2
310
E2E2E2E2E2E2E2E2E2E2E2E2E2E2E2E2E2E2E2E2E2E2E2E2E2E2E2E2E2E2E2E2E2E2E2E2E2E2E2E2E2E2E2E2E2E2E2E2E2E2E2E2E2E2E2E2E2E2E2E2E2E2E2E2E2E2E2E2E2E2E2E2E2E2E2E2E2E2E2E2E2E2E2E2E2E2E2E2E2E2E2E2E2E2E2E2E2E2E2E2E2E2E2E2E2E2E2E2E2E2E2E2E2E2E2E2E2E2E2E2E2E2E2E2E2E2E2
310
E2E2E2E2E2E2E2E2E2E2E2E2E2E2E2E2E2E2E2E2E2E2E2E2E2E2E2E2E2E2E2E2E2E2E2E2E2E2E2E2E2E2E2E2E2E2E2E2E2E2E2E2E2E2E2E2E2E2E2E2E2E2E2E2E2E2E2E2E2E2E2E2E2E2E2E2E2E2E2E2E2E2E2E2E2E2E2E2E2E2E2E2E2E2E2E2E2E2E2E2E2E2E2E2E2E2E2E2E2E2E2E2E2E2E2E2E2E2E2E2E2E2E2E2E2E2E2
310
E2E2E2E2E2E2E2E2E2E2E2E2E2E2E2E2E2E2E2E2E2E2E2E2E2E2E2E2E2E2E2E2E2E2E2E2E2E2E2E2E2E2E2E2E2E2E2E2E2E2E2E2E2E2E2E2E2E2E2E2E2E2E2E2E2E2E2E2E2E2E2E2E2E2E2E2E2E2E2E2E2E2E2E2E2E2E2E2E2E2E2E2E2E2E2E2E2E2E2E2E2E2E2E2E2E2E2E2E2E2E2E2E2E2E2E2E2E2E2E2E2E2E2E2E2E2E2
310
E2E2E2E2E2E2E2E2E2E2E2E2E2E2E2E2E2E2E2E2E2E2E2E2E2E2E2E2E2E2E2E2E2E2E2E2E2E2E2E2E2E2E2E2E2E2E2E2E2E2E2E2E2E2E2E2E2E2E2E2E2E2E2E2E2E2E2E2E2E2E2E2E2E2E2E2E2E2E2E2E2E2E2E2E2E2E2E2E2E2E2E2E2E2E2E2E2E2E2E2E2E2E2E2E2E2E2E2E2E2E2E2E2E2E2E2E2E2E2E2E2E2E2E2E2E2E2
310
E2E2E2E2E2E2E2E2E2E2E2E2E2E2E2E2E2E2E2E2E2E2E2E2E2E2E2E2E2E2E2E2E2E2E2E2E2E2E2E2E2E2E2E2E2E2E2E2E2E2E2E2E2E2E2E2E2E2E2E2E2E2E2E2E2E2E2E2E2E2E2E2E2E2E2E2E2E2E2E2E2E2E2E2E2E2E2E2E2E2E2E2E2E2E2E2E2E2E2E2E2E2E2E2E2E2E2E2E2E2E2E2E2E2E2E2E2E2E2E2E2E2E2E2E2E2E2
310
E2E2E2E2E2E2E2E2E2E2E2E2E2E2E2E2E2E2E2E2E2E2E2E2E2E2E2E2E2E2E2E2E2E2E2E2E2E2E2E2E2E2E2E2E2E2E2E2E2E2E2E2E2E2E2E2E2E2E2E2E2E2E2E2E2E2E2E2E2E2E2E2E2E2E2E2E2E2E2E2E2E2E2E2E2E2E2E2E2E2E2E2E2E2E2E2E2E2E2E2E2E2E2E2E2E2E2E2E2E2E2E2E2E2E2E2E2E2E2E2E2E2E2E2E2E2E2
310
E2E2E2E2E2E2E2E2E2E2E2E2E2E2E2E2E2E2E2E2E2E2E2E2E2E2E2E2E2E2E2E2E2E2E2E2E2E2E2E2E2E2E2E2E2E2E2E2E2E2E2E2E2E2E2E2E2E2E2E2E2E2E2E2E2E2E2E2E2E2E2E2E2E2E2E2E2E2E2E2E2E2E2E2E2E2E2E2E2E2E2E2E2E2E2E2E2E2E2E2E2E2E2E2E2E2E2E2E2E2E2E2E2E2E2E2E2E2E2E2E2E2E2E2E2E2E2
310
E2E2E2E2E2E2E2E2E2E2E2E2E2E2E2E2E2E2E2E2E2E2E2E2E2E2E2E2E2E2E2E2E2E2E2E2E2E2E2E2E2E2E2E2E2E2E2E2E2E2E2E2E2E2E2E2E2E2E2E2E2E2E2E2E2E2E2E2E2E2E2E2E2E2E2E2E2E2E2E2E2E2E2E2E2E2E2E2E2E2E2E2E2E2E2E2E2E2E2E2E2E2E2E2E2E2E2E2E2E2E2E2E2E2E2E2E2E2E2E2E2E2E2E2E2E2E2
310
E2E2E2E2E2E2E2E2E2E2E2E2E2E2E2E2E2E2E2E2E2E2E2E2E2E2E2E2E2E2E2E2E2E2E2E2E2E2E2E2E2E2E2E2E2E2E2E2E2E2E2E2E2E2E2E2E2E2E2E2E2E2E2E2E2E2E2E2E2E2E2E2E2E2E2E2E2E2E2E2E2E2E2E2E2E2E2E2E2E2E2E2E2E2E2E2E2E2E2E2E2E2E2E2E2E2E2E2E2E2E2E2E2E2E2E2E2E2E2E2E2E2E2E2E2E2E2
310
E2E2E2E2E2E2E2E2E2E2E2E2E2E2E2E2E2E2E2E2E2E2E2E2E2E2E2E2E2E2E2E2E2E2E2E2E2E2E2E2E2E2E2E2E2E2E2E2E2E2E2E2E2E2E2E2E2E2E2E2E2E2E2E2E2E2E2E2E2E2E2E2E2E2E2E2E2E2E2E2E2E2E2E2E2E2E2E2E2E2E2E2E2E2E2E2E2E2E2E2E2E2E2E2E2E2E2E2E2E2E2E2E2E2E2E2E2E2E2E2E2E2E2E2E2E2E2
310
E2E2E2E2E2E2E2E2E2E2E2E2E2E2E2E2E2E2E2E2E2E2E2E2E2E2E2E2E2E2E2E2E2E2E2E2E2E2E2E2E2E2E2E2E2E2E2E2E2E2E2E2E2E2E2E2E2E2E2E2E2E2E2E2E2E2E2E2E2E2E2E2E2E2E2E2E2E2E2E2E2E2E2E2E2E2E2E2E2E2E2E2E2E2E2E2E2E2E2E2E2E2E2E2E2E2E2E2E2E2E2E2E2E2E2E2E2E2E2E2E2E2E2E2E2E2E2
310
E2E2E2E2E2E2E2E2E2E2E2E2E2E2E2E2E2E2E2E2E2E2E2E2E2E2E2E2E2E2E2E2E2E2E2E2E2E2E2E2E2E2E2E2E2E2E2E2E2E2E2E2E2E2E2E2E2E2E2E2E2E2E2E2E2E2E2E2E2E2E2E2E2E2E2E2E2E2E2E2E2E2E2E2E2E2E2E2E2E2E2E2E2E2E2E2E2E2E2E2E2E2E2E2E2E2E2E2E2E2E2E2E2E2E2E2E2E2E2E2E2E2E2E2E2E2E2
310
E2E2E2E2E2E2E2E2E2E2E2E2E2E2E2E2E2E2E2E2E2E2E2E2E2E2E2E2E2E2E2E2E2E2E2E2E2E2E2E2E2E2E2E2E2E2E2E2E2E2E2E2E2E2E2E2E2E2E2E2E2E2E2E2E2E2E2E2E2E2E2E2E2E2E2E2E2E2E2E2E2E2E2E2E2E2E2E2E2E2E2E2E2E2E2E2E2E2E2E2E2E2E2E2E2E2E2E2E2E2E2E2E2E2E2E2E2E2E2E2E2E2E2E2E2E2E2
310
E2E2E2E2E2E2E2E2E2E2E2E2E2E2E2E2E2E2E2E2E2E2E2E2E2E2E2E2E2E2E2E2E2E2E2E2E2E2E2E2E2E2E2E2E2E2E2E2E2E2E2E2E2E2E2E2E2E2E2E2E2E2E2E2E2E2E2E2E2E2E2E2E2E2E2E2E2E2E2E2E2E2E2E2E2E2E2E2E2E2E2E2E2E2E2E2E2E2E2E2E2E2E2E2E2E2E2E2E2E2E2E2E2E2E2E2E2E2E2E2E2E2E2E2E2E2E2
310
E2E2E2E2E2E2E2E2E2E2E2E2E2E2E2E2E2E2E2E2E2E2E2E2E2E2E2E2E2E2E2E2E2E2E2E2E2E2E2E2E2E2E2E2E2E2E2E2E2E2E2E2E2E2E2E2E2E2E2E2E2E2E2E2E2E2E2E2E2E2E2E2E2E2E2E2E2E2E2E2E2E2E2E2E2E2E2E2E2E2E2E2E2E2E2E2E2E2E2E2E2E2E2E2E2E2E2E2E2E2E2E2E2E2E2E2E2E2E2E2E2E2E2E2E2E2E2
310
E2E2E2E2E2E2E2E2E2E2E2E2E2E2E2E2E2E2E2E2E2E2E2E2E2E2E2E2E2E2E2E2E2E2E2E2E2E2E2E2E2E2E2E2E2E2E2E2E2E2E2E2E2E2E2E2E2E2E2E2E2E2E2E2E2E2E2E2E2E2E2E2E2E2E2E2E2E2E2E2E2E2E2E2E2E2E2E2E2E2E2E2E2E2E2E2E2E2E2E2E2E2E2E2E2E2E2E2E2E2E2E2E2E2E2E2E2E2E2E2E2E2E2E2E2E2E2
310
E2E2E2E2E2E2E2E2E2E2E2E2E2E2E2E2E2E2E2E2E2E2E2E2E2E2E2E2E2E2E2E2E2E2E2E2E2E2E2E2E2E2E2E2E2E2E2E2E2E2E2E2E2E2E2E2E2E2E2E2E2E2E2E2E2E2E2E2E2E2E2E2E2E2E2E2E2E2E2E2E2E2E2E2E2E2E2E2E2E2E2E2E2E2E2E2E2E2E2E2E2E2E2E2E2E2E2E2E2E2E2E2E2E2E2E2E2E2E2E2E2E2E2E2E2E2E2
310
E2E2E2E2E2E2E2E2E2E2E2E2E2E2E2E2E2E2E2E2E2E2E2E2E2E2E2E2E2E2E2E2E2E2E2E2E2E2E2E2E2E2E2E2E2E2E2E2E2E2E2E2E2E2E2E2E2E2E2E2E2E2E2E2E2E2E2E2E2E2E2E2E2E2E2E2E2E2E2E2E2E2E2E2E2E2E2E2E2E2E2E2E2E2E2E2E2E2E2E2E2E2E2E2E2E2E2E2E2E2E2E2E2E2E2E2E2E2E2E2E2E2E2E2E2E2E2
310
E2E2E2E2E2E2E2E2E2E2E2E2E2E2E2E2E2E2E2E2E2E2E2E2E2E2E2E2E2E2E2E2E2E2E2E2E2E2E2E2E2E2E2E2E2E2E2E2E2E2E2E2E2E2E2E2E2E2E2E2E2E2E2E2E2E2E2E2E2E2E2E2E2E2E2E2E2E2E2E2E2E2E2E2E2E2E2E2E2E2E2E2E2E2E2E2E2E2E2E2E2E2E2E2E2E2E2E2E2E2E2E2E2E2E2E2E2E2E2E2E2E2E2E2E2E2E2
310
E2E2E2E2E2E2E2E2E2E2E2E2E2E2E2E2E2E2E2E2E2E2E2E2E2E2E2E2E2E2E2E2E2E2E2E2E2E2E2E2E2E2E2E2E2E2E2E2E2E2E2E2E2E2E2E2E2E2E2E2E2E2E2E2E2E2E2E2E2E2E2E2E2E2E2E2E2E2E2E2E2E2E2E2E2E2E2E2E2E2E2E2E2E2E2E2E2E2E2E2E2E2E2E2E2E2E2E2E2E2E2E2E2E2E2E2E2E2E2E2E2E2E2E2E2E2E2
310
E2E2E2E2E2E2E2E2E2E2E2E2E2E2E2E2E2E2E2E2E2E2E2E2E2E2E2E2E2E2E2E2E2E2E2E2E2E2E2E2E2E2E2E2E2E2E2E2E2E2E2E2E2E2E2E2E2E2E2E2E2E2E2E2E2E2E2E2E2E2E2E2E2E2E2E2E2E2E2E2E2E2E2E2E2E2E2E2E2E2E2E2E2E2E2E2E2E2E2E2E2E2E2E2E2E2E2E2E2E2E2E2E2E2E2E2E2E2E2E2E2E2E2E2E2E2E2
310
E2E2E2E2E2E2E2E2E2E2E2E2E2E2E2E2E2E2E2E2E2E2E2E2E2E2E2E2E2E2E2E2E2E2E2E2E2E2E2E2E2E2E2E2E2E2E2E2E2E2E2E2E2E2E2E2E2E2E2E2E2E2E2E2E2E2E2E2E2E2E2E2E2E2E2E2E2E2E2E2E2E2E2E2E2E2E2E2E2E2E2E2E2E2E2E2E2E2E2E2E2E2E2E2E2E2E2E2E2E2E2E2E2E2E2E2E2E2E2E2E2E2E2E2E2E2E2
310
E2E2E2E2E2E2E2E2E2E2E2E2E2E2E2E2E2E2E2E2E2E2E2E2E2E2E2E2E2E2E2E2E2E2E2E2E2E2E2E2E2E2E2E2E2E2E2E2E2E2E2E2E2E2E2E2E2E2E2E2E2E2E2E2E2E2E2E2E2E2E2E2E2E2E2E2E2E2E2E2E2E2E2E2E2E2E2E2E2E2E2E2E2E2E2E2E2E2E2E2E2E2E2E2E2E2E2E2E2E2E2E2E2E2E2E2E2E2E2E2E2E2E2E2E2E2E2
310
E2E2E2E2E2E2E2E2E2E2E2E2E2E2E2E2E2E2E2E2E2E2E2E2E2E2E2E2E2E2E2E2E2E2E2E2E2E2E2E2E2E2E2E2E2E2E2E2E2E2E2E2E2E2E2E2E2E2E2E2E2E2E2E2E2E2E2E2E2E2E2E2E2E2E2E2E2E2E2E2E2E2E2E2E2E2E2E2E2E2E2E2E2E2E2E2E2E2E2E2E2E2E2E2E2E2E2E2E2E2E2E2E2E2E2E2E2E2E2E2E2E2E2E2E2E2E2
310
E2E2E2E2E2E2E2E2E2E2E2E2E2E2E2E2E2E2E2E2E2E2E2E2E2E2E2E2E2E2E2E2E2E2E2E2E2E2E2E2E2E2E2E2E2E2E2E2E2E2E2E2E2E2E2E2E2E2E2E2E2E2E2E2E2E2E2E2E2E2E2E2E2E2E2E2E2E2E2E2E2E2E2E2E2E2E2E2E2E2E2E2E2E2E2E2E2E2E2E2E2E2E2E2E2E2E2E2E2E2E2E2E2E2E2E2E2E2E2E2E2E2E2E2E2E2E2
310
E2E2E2E2E2E2E2E2E2E2E2E2E2E2E2E2E2E2E2E2E2E2E2E2E2E2E2E2E2E2E2E2E2E2E2E2E2E2E2E2E2E2E2E2E2E2E2E2E2E2E2E2E2E2E2E2E2E2E2E2E2E2E2E2E2E2E2E2E2E2E2E2E2E2E2E2E2E2E2E2E2E2E2E2E2E2E2E2E2E2E2E2E2E2E2E2E2E2E2E2E2E2E2E2E2E2E2E2E2E2E2E2E2E2E2E2E2E2E2E2E2E2E2E2E2E2E2
310
E2E2E2E2E2E2E2E2E2E2E2E2E2E2E2E2E2E2E2E2E2E2E2E2E2E2E2E2E2E2E2E2E2E2E2E2E2E2E2E2E2E2E2E2E2E2E2E2E2E2E2E2E2E2E2E2E2E2E2E2E2E2E2E2E2E2E2E2E2E2E2E2E2E2E2E2E2E2E2E2E2E2E2E2E2E2E2E2E2E2E2E2E2E2E2E2E2E2E2E2E2E2E2E2E2E2E2E2E2E2E2E2E2E2E2E2E2E2E2E2E2E2E2E2E2E2E2
310
E2E2E2E2E2E2E2E2E2E2E2E2E2E2E2E2E2E2E2E2E2E2E2E2E2E2E2E2E2E2E2E2E2E2E2E2E2E2E2E2E2E2E2E2E2E2E2E2E2E2E2E2E2E2E2E2E2E2E2E2E2E2E2E2E2E2E2E2E2E2E2E2E2E2E2E2E2E2E2E2E2E2E2E2E2E2E2E2E2E2E2E2E2E2E2E2E2E2E2E2E2E2E2E2E2E2E2E2E2E2E2E2E2E2E2E2E2E2E2E2E2E2E2E2E2E2E2
310
E2E2E2E2E2E2E2E2E2E2E2E2E2E2E2E2E2E2E2E2E2E2E2E2E2E2E2E2E2E2E2E2E2E2E2E2E2E2E2E2E2E2E2E2E2E2E2E2E2E2E2E2E2E2E2E2E2E2E2E2E2E2E2E2E2E2E2E2E2E2E2E2E2E2E2E2E2E2E2E2E2E2E2E2E2E2E2E2E2E2E2E2E2E2E2E2E2E2E2E2E2E2E2E2E2E2E2E2E2E2E2E2E2E2E2E2E2E2E2E2E2E2E2E2E2E2E2
310
E2E2E2E2E2E2E2E2E2E2E2E2E2E2E2E2E2E2E2E2E2E2E2E2E2E2E2E2E2E2E2E2E2E2E2E2E2E2E2E2E2E2E2E2E2E2E2E2E2E2E2E2E2E2E2E2E2E2E2E2E2E2E2E2E2E2E2E2E2E2E2E2E2E2E2E2E2E2E2E2E2E2E2E2E2E2E2E2E2E2E2E2E2E2E2E2E2E2E2E2E2E2E2E2E2E2E2E2E2E2E2E2E2E2E2E2E2E2E2E2E2E2E2E2E2E2E2
310
E2E2E2E2E2E2E2E2E2E2E2E2E2E2E2E2E2E2E2E2E2E2E2E2E2E2E2E2E2E2E2E2E2E2E2E2E2E2E2E2E2E2E2E2E2E2E2E2E2E2E2E2E2E2E2E2E2E2E2E2E2E2E2E2E2E2E2E2E2E2E2E2E2E2E2E2E2E2E2E2E2E2E2E2E2E2E2E2E2E2E2E2E2E2E2E2E2E2E2E2E2E2E2E2E2E2E2E2E2E2E2E2E2E2E2E2E2E2E2E2E2E2E2E2E2E2E2
310
E2E2E2E2E2E2E2E2E2E2E2E2E2E2E2E2E2E2E2E2E2E2E2E2E2E2E2E2E2E2E2E2E2E2E2E2E2E2E2E2E2E2E2E2E2E2E2E2E2E2E2E2E2E2E2E2E2E2E2E2E2E2E2E2E2E2E2E2E2E2E2E2E2E2E2E2E2E2E2E2E2E2E2E2E2E2E2E2E2E2E2E2E2E2E2E2E2E2E2E2E2E2E2E2E2E2E2E2E2E2E2E2E2E2E2E2E2E2E2E2E2E2E2E2E2E2E2
310
E2E2E2E2E2E2E2E2E2E2E2E2E2E2E2E2E2E2E2E2E2E2E2E2E2E2E2E2E2E2E2E2E2E2E2E2E2E2E2E2E2E2E2E2E2E2E2E2E2E2E2E2E2E2E2E2E2E2E2E2E2E2E2E2E2E2E2E2E2E2E2E2E2E2E2E2E2E2E2E2E2E2E2E2E2E2E2E2E2E2E2E2E2E2E2E2E2E2E2E2E2E2E2E2E2E2E2E2E2E2E2E2E2E2E2E2E2E2E2E2E2E2E2E2E2E2E2
310
E2E2E2E2E2E2E2E2E2E2E2E2E2E2E2E2E2E2E2E2E2E2E2E2E2E2E2E2E2E2E2E2E2E2E2E2E2E2E2E2E2E2E2E2E2E2E2E2E2E2E2E2E2E2E2E2E2E2E2E2E2E2E2E2E2E2E2E2E2E2E2E2E2E2E2E2E2E2E2E2E2E2E2E2E2E2E2E2E2E2E2E2E2E2E2E2E2E2E2E2E2E2E2E2E2E2E2E2E2E2E2E2E2E2E2E2E2E2E2E2E2E2E2E2E2E2E2
310
E2E2E2E2E2E2E2E2E2E2E2E2E2E2E2E2E2E2E2E2E2E2E2E2E2E2E2E2E2E2E2E2E2E2E2E2E2E2E2E2E2E2E2E2E2E2E2E2E2E2E2E2E2E2E2E2E2E2E2E2E2E2E2E2E2E2E2E2E2E2E2E2E2E2E2E2E2E2E2E2E2E2E2E2E2E2E2E2E2E2E2E2E2E2E2E2E2E2E2E2E2E2E2E2E2E2E2E2E2E2E2E2E2E2E2E2E2E2E2E2E2E2E2E2E2E2E2
310
E2E2E2E2E2E2E2E2E2E2E2E2E2E2E2E2E2E2E2E2E2E2E2E2E2E2E2E2E2E2E2E2E2E2E2E2E2E2E2E2E2E2E2E2E2E2E2E2E2E2E2E2E2E2E2E2E2E2E2E2E2E2E2E2E2E2E2E2E2E2E2E2E2E2E2E2E2E2E2E2E2E2E2E2E2E2E2E2E2E2E2E2E2E2E2E2E2E2E2E2E2E2E2E2E2E2E2E2E2E2E2E2E2E2E2E2E2E2E2E2E2E2E2E2E2E2E2
310
E2E2E2E2E2E2E2E2E2E2E2E2E2E2E2E2E2E2E2E2E2E2E2E2E2E2E2E2E2E2E2E2E2E2E2E2E2E2E2E2E2E2E2E2E2E2E2E2E2E2E2E2E2E2E2E2E2E2E2E2E2E2E2E2E2E2E2E2E2E2E2E2E2E2E2E2E2E2E2E2E2E2E2E2E2E2E2E2E2E2E2E2E2E2E2E2E2E2E2E2E2E2E2E2E2E2E2E2E2E2E2E2E2E2E2E2E2E2E2E2E2E2E2E2E2E2E2
310
E2E2E2E2E2E2E2E2E2E2E2E2E2E2E2E2E2E2E2E2E2E2E2E2E2E2E2E2E2E2E2E2E2E2E2E2E2E2E2E2E2E2E2E2E2E2E2E2E2E2E2E2E2E2E2E2E2E2E2E2E2E2E2E2E2E2E2E2E2E2E2E2E2E2E2E2E2E2E2E2E2E2E2E2E2E2E2E2E2E2E2E2E2E2E2E2E2E2E2E2E2E2E2E2E2E2E2E2E2E2E2E2E2E2E2E2E2E2E2E2E2E2E2E2E2E2E2
310
E2E2E2E2E2E2E2E2E2E2E2E2E2E2E2E2E2E2E2E2E2E2E2E2E2E2E2E2E2E2E2E2E2E2E2E2E2E2E2E2E2E2E2E2E2E2E2E2E2E2E2E2E2E2E2E2E2E2E2E2E2E2E2E2E2E2E2E2E2E2E2E2E2E2E2E2E2E2E2E2E2E2E2E2E2E2E2E2E2E2E2E2E2E2E2E2E2E2E2E2E2E2E2E2E2E2E2E2E2E2E2E2E2E2E2E2E2E2E2E2E2E2E2E2E2E2E2
310
E2E2E2E2E2E2E2E2E2E2E2E2E2E2E2E2E2E2E2E2E2E2E2E2E2E2E2E2E2E2E2E2E2E2E2E2E2E2E2E2E2E2E2E2E2E2E2E2E2E2E2E2E2E2E2E2E2E2E2E2E2E2E2E2E2E2E2E2E2E2E2E2E2E2E2E2E2E2E2E2E2E2E2E2E2E2E2E2E2E2E2E2E2E2E2E2E2E2E2E2E2E2E2E2E2E2E2E2E2E2E2E2E2E2E2E2E2E2E2E2E2E2E2E2E2E2E2
310
E2E2E2E2E2E2E2E2E2E2E2E2E2E2E2E2E2E2E2E2E2E2E2E2E2E2E2E2E2E2E2E2E2E2E2E2E2E2E2E2E2E2E2E2E2E2E2E2E2E2E2E2E2E2E2E2E2E2E2E2E2E2E2E2E2E2E2E2E2E2E2E2E2E2E2E2E2E2E2E2E2E2E2E2E2E2E2E2E2E2E2E2E2E2E2E2E2E2E2E2E2E2E2E2E2E2E2E2E2E2E2E2E2E2E2E2E2E2E2E2E2E2E2E2E2E2E2
310
E2E2E2E2E2E2E2E2E2E2E2E2E2E2E2E2E2E2E2E2E2E2E2E2E2E2E2E2E2E2E2E2E2E2E2E2E2E2E2E2E2E2E2E2E2E2E2E2E2E2E2E2E2E2E2E2E2E2E2E2E2E2E2E2E2E2E2E2E2E2E2E2E2E2E2E2E2E2E2E2E2E2E2E2E2E2E2E2E2E2E2E2E2E2E2E2E2E2E2E2E2E2E2E2E2E2E2E2E2E2E2E2E2E2E2E2E2E2E2E2E2E2E2E2E2E2E2
310
E2E2E2E2E2E2E2E2E2E2E2E2E2E2E2E2E2E2E2E2E2E2E2E2E2E2E2E2E2E2E2E2E2E2E2E2E2E2E2E2E2E2E2E2E2E2E2E2E2E2E2E2E2E2E2E2E2E2E2E2E2E2E2E2E2E2E2E2E2E2E2E2E2E2E2E2E2E2E2E2E2E2E2E2E2E2E2E2E2E2E2
  0
XRECORD
  5
5B7
102
{ACAD_REACTORS
330
40
102
}
330
40
100
AcDbXrecord
280
     1
102
MATERIAL
148
0.0
149
0.0
149
0.0
 93
        0
 94
      127
282
     0
 72
     0
 77
     0
171
     0
175
     0
179
     0
273
     0
  0
XRECORD
  5
41
102
{ACAD_REACTORS
330
40
102
}
330
40
100
AcDbXrecord
280
     1
270
     1
271
     1
  0
XRECORD
  5
42
102
{ACAD_REACTORS
330
40
102
}
330
40
100
AcDbXrecord
280
     1
270
     1
271
     1
  0
XRECORD
  5
43
102
{ACAD_REACTORS
330
40
102
}
330
40
100
AcDbXrecord
280
     1
270
     1
271
     1
  0
XRECORD
  5
44
102
{ACAD_REACTORS
330
40
102
}
330
40
100
AcDbXrecord
280
     1
270
     1
271
     1
  0
XRECORD
  5
45
102
{ACAD_REACTORS
330
40
102
}
330
40
100
AcDbXrecord
280
     1
270
     1
271
     1
  0
XRECORD
  5
46
102
{ACAD_REACTORS
330
40
102
}
330
40
100
AcDbXrecord
280
     1
270
     1
271
     1
  0
XRECORD
  5
5B6
102
{ACAD_REACTORS
330
38
102
}
330
38
100
AcDbXrecord
280
     1
102
MATERIAL
148
0.0
149
0.0
149
0.0
 93
        0
 94
      127
282
     0
 72
     0
 77
     0
171
     0
175
     0
179
     0
273
     0
  0
XRECORD
  5
39
102
{ACAD_REACTORS
330
38
102
}
330
38
100
AcDbXrecord
280
     1
270
     1
271
     1
  0
XRECORD
  5
3A
102
{ACAD_REACTORS
330
38
102
}
330
38
100
AcDbXrecord
280
     1
270
     1
271
     1
  0
XRECORD
  5
3B
102
{ACAD_REACTORS
330
38
102
}
330
38
100
AcDbXrecord
280
     1
270
     1
271
     1
  0
XRECORD
  5
3C
102
{ACAD_REACTORS
330
38
102
}
330
38
100
AcDbXrecord
280
     1
270
     1
271
     1
  0
XRECORD
  5
3D
102
{ACAD_REACTORS
330
38
102
}
330
38
100
AcDbXrecord
280
     1
270
     1
271
     1
  0
XRECORD
  5
3E
102
{ACAD_REACTORS
330
38
102
}
330
38
100
AcDbXrecord
280
     1
270
     1
271
     1
  0
XRECORD
  5
5B1
102
{ACAD_REACTORS
330
E
102
}
330
E
100
AcDbXrecord
280
     1
102
MATERIAL
148
0.0
149
0.0
149
0.0
 93
        0
 94
      127
282
     0
 72
     0
 77
     0
171
     0
175
     0
179
     0
273
     0
  0
XRECORD
  5
F
102
{ACAD_REACTORS
330
E
102
}
330
E
100
AcDbXrecord
280
     1
270
     1
271
     1
  0
XRECORD
  5
10
102
{ACAD_REACTORS
330
E
102
}
330
E
100
AcDbXrecord
280
     1
270
     1
271
     1
  0
XRECORD
  5
11
102
{ACAD_REACTORS
330
E
102
}
330
E
100
AcDbXrecord
280
     1
270
     1
271
     1
  0
XRECORD
  5
12
102
{ACAD_REACTORS
330
E
102
}
330
E
100
AcDbXrecord
280
     1
270
     1
271
     1
  0
XRECORD
  5
13
102
{ACAD_REACTORS
330
E
102
}
330
E
100
AcDbXrecord
280
     1
270
     1
271
     1
  0
XRECORD
  5
14
102
{ACAD_REACTORS
330
E
102
}
330
E
100
AcDbXrecord
280
     1
270
     1
271
     1
  0
CELLSTYLEMAP
  5
4121
102
{ACAD_REACTORS
330
49D
102
}
330
49D
100
AcDbCellStyleMap
 90
        3
300
CELLSTYLE
  1
TABLEFORMAT_BEGIN
 90
        5
170
     1
 91
        0
 92
    32768
 62
   257
 93
        1
300
CONTENTFORMAT
  1
CONTENTFORMAT_BEGIN
 90
        0
 91
        0
 92
        4
 93
        0
300

 40
0.0
140
1.0
 94
        5
 62
     0
340
24
144
6.0
309
CONTENTFORMAT_END
171
     1
301
MARGIN
  1
CELLMARGIN_BEGIN
 40
1.5
 40
1.5
 40
1.5
 40
1.5
 40
0.18
 40
0.18
309
CELLMARGIN_END
 94
        6
 95
        1
302
GRIDFORMAT
  1
GRIDFORMAT_BEGIN
 90
        0
 91
        1
 62
     0
 92
       -2
340
0
 93
        0
 40
0.045
309
GRIDFORMAT_END
 95
        2
302
GRIDFORMAT
  1
GRIDFORMAT_BEGIN
 90
        0
 91
        1
 62
     0
 92
       -2
340
0
 93
        0
 40
0.045
309
GRIDFORMAT_END
 95
        4
302
GRIDFORMAT
  1
GRIDFORMAT_BEGIN
 90
        0
 91
        1
 62
     0
 92
       -2
340
0
 93
        0
 40
0.045
309
GRIDFORMAT_END
 95
        8
302
GRIDFORMAT
  1
GRIDFORMAT_BEGIN
 90
        0
 91
        1
 62
     0
 92
       -2
340
0
 93
        0
 40
0.045
309
GRIDFORMAT_END
 95
       16
302
GRIDFORMAT
  1
GRIDFORMAT_BEGIN
 90
        0
 91
        1
 62
     0
 92
       -2
340
0
 93
        0
 40
0.045
309
GRIDFORMAT_END
 95
       32
302
GRIDFORMAT
  1
GRIDFORMAT_BEGIN
 90
        0
 91
        1
 62
     0
 92
       -2
340
0
 93
        0
 40
0.045
309
GRIDFORMAT_END
309
TABLEFORMAT_END
  1
CELLSTYLE_BEGIN
 90
        1
 91
        1
300
_TITLE
309
CELLSTYLE_END
300
CELLSTYLE
  1
TABLEFORMAT_BEGIN
 90
        5
170
     1
 91
        0
 92
        0
 62
   257
 93
        1
300
CONTENTFORMAT
  1
CONTENTFORMAT_BEGIN
 90
        0
 91
        0
 92
        4
 93
        0
300

 40
0.0
140
1.0
 94
        5
 62
     0
340
24
144
4.5
309
CONTENTFORMAT_END
171
     1
301
MARGIN
  1
CELLMARGIN_BEGIN
 40
1.5
 40
1.5
 40
1.5
 40
1.5
 40
0.18
 40
0.18
309
CELLMARGIN_END
 94
        6
 95
        1
302
GRIDFORMAT
  1
GRIDFORMAT_BEGIN
 90
        0
 91
        1
 62
     0
 92
       -2
340
0
 93
        0
 40
0.045
309
GRIDFORMAT_END
 95
        2
302
GRIDFORMAT
  1
GRIDFORMAT_BEGIN
 90
        0
 91
        1
 62
     0
 92
       -2
340
0
 93
        0
 40
0.045
309
GRIDFORMAT_END
 95
        4
302
GRIDFORMAT
  1
GRIDFORMAT_BEGIN
 90
        0
 91
        1
 62
     0
 92
       -2
340
0
 93
        0
 40
0.045
309
GRIDFORMAT_END
 95
        8
302
GRIDFORMAT
  1
GRIDFORMAT_BEGIN
 90
        0
 91
        1
 62
     0
 92
       -2
340
0
 93
        0
 40
0.045
309
GRIDFORMAT_END
 95
       16
302
GRIDFORMAT
  1
GRIDFORMAT_BEGIN
 90
        0
 91
        1
 62
     0
 92
       -2
340
0
 93
        0
 40
0.045
309
GRIDFORMAT_END
 95
       32
302
GRIDFORMAT
  1
GRIDFORMAT_BEGIN
 90
        0
 91
        1
 62
     0
 92
       -2
340
0
 93
        0
 40
0.045
309
GRIDFORMAT_END
309
TABLEFORMAT_END
  1
CELLSTYLE_BEGIN
 90
        2
 91
        1
300
_HEADER
309
CELLSTYLE_END
300
CELLSTYLE
  1
TABLEFORMAT_BEGIN
 90
        5
170
     1
 91
        0
 92
        0
 62
   257
 93
        1
300
CONTENTFORMAT
  1
CONTENTFORMAT_BEGIN
 90
        0
 91
        0
 92
        4
 93
        0
300

 40
0.0
140
1.0
 94
        2
 62
     0
340
24
144
4.5
309
CONTENTFORMAT_END
171
     1
301
MARGIN
  1
CELLMARGIN_BEGIN
 40
1.5
 40
1.5
 40
1.5
 40
1.5
 40
0.18
 40
0.18
309
CELLMARGIN_END
 94
        6
 95
        1
302
GRIDFORMAT
  1
GRIDFORMAT_BEGIN
 90
        0
 91
        1
 62
     0
 92
       -2
340
0
 93
        0
 40
0.045
309
GRIDFORMAT_END
 95
        2
302
GRIDFORMAT
  1
GRIDFORMAT_BEGIN
 90
        0
 91
        1
 62
     0
 92
       -2
340
0
 93
        0
 40
0.045
309
GRIDFORMAT_END
 95
        4
302
GRIDFORMAT
  1
GRIDFORMAT_BEGIN
 90
        0
 91
        1
 62
     0
 92
       -2
340
0
 93
        0
 40
0.045
309
GRIDFORMAT_END
 95
        8
302
GRIDFORMAT
  1
GRIDFORMAT_BEGIN
 90
        0
 91
        1
 62
     0
 92
       -2
340
0
 93
        0
 40
0.045
309
GRIDFORMAT_END
 95
       16
302
GRIDFORMAT
  1
GRIDFORMAT_BEGIN
 90
        0
 91
        1
 62
     0
 92
       -2
340
0
 93
        0
 40
0.045
309
GRIDFORMAT_END
 95
       32
302
GRIDFORMAT
  1
GRIDFORMAT_BEGIN
 90
        0
 91
        1
 62
     0
 92
       -2
340
0
 93
        0
 40
0.045
309
GRIDFORMAT_END
309
TABLEFORMAT_END
  1
CELLSTYLE_BEGIN
 90
        3
 91
        2
300
_DATA
309
CELLSTYLE_END
  0
XRECORD
  5
412B
102
{ACAD_REACTORS
330
49D
102
}
330
49D
100
AcDbXrecord
280
     1
102
ACAD_ROUNDTRIP_PRE2007_TABLESTYLE
 90
        4
 91
        0
  1

 92
        4
 93
        0
  2

 94
        4
 95
        0
  3

  0
ENDSEC
  0
EOF
