  0
SECTION
  2
HEADER
  9
$ACADVER
  1
AC1015
  9
$ACADMAINTVER
 70
    20
  9
$DWGCODEPAGE
  3
ANSI_932
  9
$INSBASE
 10
0.0
 20
0.0
 30
0.0
  9
$EXTMIN
 10
5214.603334529176
 20
-474.8620781764306
 30
0.0
  9
$EXTMAX
 10
6032.702047900396
 20
554.7305933356455
 30
0.0
  9
$LIMMIN
 10
0.0
 20
0.0
  9
$LIMMAX
 10
420.0
 20
297.0
  9
$ORTHOMODE
 70
     0
  9
$REGENMODE
 70
     1
  9
$FILLMODE
 70
     1
  9
$QTEXTMODE
 70
     0
  9
$MIRRTEXT
 70
     1
  9
$LTSCALE
 40
1.0
  9
$ATTMODE
 70
     1
  9
$TEXTSIZE
 40
43.66586864911549
  9
$TRACEWID
 40
1.0
  9
$TEXTSTYLE
  7
Standard
  9
$CLAYER
  8
SIZE
  9
$CELTYPE
  6
ByLayer
  9
$CECOLOR
 62
   256
  9
$CELTSCALE
 40
1.0
  9
$DISPSILH
 70
     0
  9
$DIMSCALE
 40
5.0
  9
$DIMASZ
 40
2.5
  9
$DIMEXO
 40
0.625
  9
$DIMDLI
 40
3.75
  9
$DIMRND
 40
0.5
  9
$DIMDLE
 40
0.0
  9
$DIMEXE
 40
1.25
  9
$DIMTP
 40
0.0
  9
$DIMTM
 40
0.0
  9
$DIMTXT
 40
2.5
  9
$DIMCEN
 40
2.5
  9
$DIMTSZ
 40
0.0
  9
$DIMTOL
 70
     0
  9
$DIMLIM
 70
     0
  9
$DIMTIH
 70
     0
  9
$DIMTOH
 70
     0
  9
$DIMSE1
 70
     0
  9
$DIMSE2
 70
     0
  9
$DIMTAD
 70
     1
  9
$DIMZIN
 70
     8
  9
$DIMBLK
  1
OPEN30
  9
$DIMASO
 70
     1
  9
$DIMSHO
 70
     1
  9
$DIMPOST
  1

  9
$DIMAPOST
  1

  9
$DIMALT
 70
     0
  9
$DIMALTD
 70
     3
  9
$DIMALTF
 40
0.03937007874016
  9
$DIMLFAC
 40
1.0
  9
$DIMTOFL
 70
     1
  9
$DIMTVP
 40
0.0
  9
$DIMTIX
 70
     0
  9
$DIMSOXD
 70
     0
  9
$DIMSAH
 70
     0
  9
$DIMBLK1
  1

  9
$DIMBLK2
  1

  9
$DIMSTYLE
  2
ISO-25
  9
$DIMCLRD
 70
     0
  9
$DIMCLRE
 70
     0
  9
$DIMCLRT
 70
     0
  9
$DIMTFAC
 40
1.0
  9
$DIMGAP
 40
0.625
  9
$DIMJUST
 70
     0
  9
$DIMSD1
 70
     0
  9
$DIMSD2
 70
     0
  9
$DIMTOLJ
 70
     0
  9
$DIMTZIN
 70
     8
  9
$DIMALTZ
 70
     0
  9
$DIMALTTZ
 70
     0
  9
$DIMUPT
 70
     0
  9
$DIMDEC
 70
     1
  9
$DIMTDEC
 70
     1
  9
$DIMALTU
 70
     2
  9
$DIMALTTD
 70
     3
  9
$DIMTXSTY
  7
Standard
  9
$DIMAUNIT
 70
     0
  9
$DIMADEC
 70
     0
  9
$DIMALTRND
 40
0.0
  9
$DIMAZIN
 70
     0
  9
$DIMDSEP
 70
    46
  9
$DIMATFIT
 70
     3
  9
$DIMFRAC
 70
     0
  9
$DIMLDRBLK
  1
DOTSMALL
  9
$DIMLUNIT
 70
     2
  9
$DIMLWD
 70
    -2
  9
$DIMLWE
 70
    -2
  9
$DIMTMOVE
 70
     0
  9
$LUNITS
 70
     2
  9
$LUPREC
 70
     2
  9
$SKETCHINC
 40
1.0
  9
$FILLETRAD
 40
10.0
  9
$AUNITS
 70
     0
  9
$AUPREC
 70
     0
  9
$MENU
  1
.
  9
$ELEVATION
 40
0.0
  9
$PELEVATION
 40
0.0
  9
$THICKNESS
 40
0.0
  9
$LIMCHECK
 70
     0
  9
$CHAMFERA
 40
10.0
  9
$CHAMFERB
 40
10.0
  9
$CHAMFERC
 40
20.0
  9
$CHAMFERD
 40
0.0
  9
$SKPOLY
 70
     0
  9
$TDCREATE
 40
2451686.550481944
  9
$TDUCREATE
 40
2451686.175481945
  9
$TDUPDATE
 40
2455888.671525544
  9
$TDUUPDATE
 40
2455888.296525544
  9
$TDINDWG
 40
2.0383945255
  9
$TDUSRTIMER
 40
2.0383903819
  9
$USRTIMER
 70
     1
  9
$ANGBASE
 50
0.0
  9
$ANGDIR
 70
     0
  9
$PDMODE
 70
     0
  9
$PDSIZE
 40
0.0
  9
$PLINEWID
 40
0.0
  9
$SPLFRAME
 70
     0
  9
$SPLINETYPE
 70
     6
  9
$SPLINESEGS
 70
     8
  9
$HANDSEED
  5
2127
  9
$SURFTAB1
 70
     6
  9
$SURFTAB2
 70
     6
  9
$SURFTYPE
 70
     6
  9
$SURFU
 70
     6
  9
$SURFV
 70
     6
  9
$UCSBASE
  2

  9
$UCSNAME
  2

  9
$UCSORG
 10
0.0
 20
0.0
 30
0.0
  9
$UCSXDIR
 10
1.0
 20
0.0
 30
0.0
  9
$UCSYDIR
 10
0.0
 20
1.0
 30
0.0
  9
$UCSORTHOREF
  2

  9
$UCSORTHOVIEW
 70
     0
  9
$UCSORGTOP
 10
0.0
 20
0.0
 30
0.0
  9
$UCSORGBOTTOM
 10
0.0
 20
0.0
 30
0.0
  9
$UCSORGLEFT
 10
0.0
 20
0.0
 30
0.0
  9
$UCSORGRIGHT
 10
0.0
 20
0.0
 30
0.0
  9
$UCSORGFRONT
 10
0.0
 20
0.0
 30
0.0
  9
$UCSORGBACK
 10
0.0
 20
0.0
 30
0.0
  9
$PUCSBASE
  2

  9
$PUCSNAME
  2

  9
$PUCSORG
 10
0.0
 20
0.0
 30
0.0
  9
$PUCSXDIR
 10
1.0
 20
0.0
 30
0.0
  9
$PUCSYDIR
 10
0.0
 20
1.0
 30
0.0
  9
$PUCSORTHOREF
  2

  9
$PUCSORTHOVIEW
 70
     0
  9
$PUCSORGTOP
 10
0.0
 20
0.0
 30
0.0
  9
$PUCSORGBOTTOM
 10
0.0
 20
0.0
 30
0.0
  9
$PUCSORGLEFT
 10
0.0
 20
0.0
 30
0.0
  9
$PUCSORGRIGHT
 10
0.0
 20
0.0
 30
0.0
  9
$PUCSORGFRONT
 10
0.0
 20
0.0
 30
0.0
  9
$PUCSORGBACK
 10
0.0
 20
0.0
 30
0.0
  9
$USERI1
 70
     0
  9
$USERI2
 70
     0
  9
$USERI3
 70
     0
  9
$USERI4
 70
     0
  9
$USERI5
 70
     0
  9
$USERR1
 40
0.0
  9
$USERR2
 40
0.0
  9
$USERR3
 40
0.0
  9
$USERR4
 40
0.0
  9
$USERR5
 40
0.0
  9
$WORLDVIEW
 70
     1
  9
$SHADEDGE
 70
     3
  9
$SHADEDIF
 70
    70
  9
$TILEMODE
 70
     1
  9
$MAXACTVP
 70
    48
  9
$PINSBASE
 10
0.0
 20
0.0
 30
0.0
  9
$PLIMCHECK
 70
     0
  9
$PEXTMIN
 10
-768.9287376092372
 20
-691.6169972801593
 30
0.0
  9
$PEXTMAX
 10
1872.728159421697
 20
834.5632593950229
 30
0.0
  9
$PLIMMIN
 10
0.0
 20
0.0
  9
$PLIMMAX
 10
12.0
 20
9.0
  9
$UNITMODE
 70
     0
  9
$VISRETAIN
 70
     1
  9
$PLINEGEN
 70
     0
  9
$PSLTSCALE
 70
     1
  9
$TREEDEPTH
 70
  3020
  9
$CMLSTYLE
  2
Standard
  9
$CMLJUST
 70
     0
  9
$CMLSCALE
 40
20.0
  9
$PROXYGRAPHICS
 70
     1
  9
$MEASUREMENT
 70
     1
  9
$CELWEIGHT
370
    -1
  9
$ENDCAPS
280
     0
  9
$JOINSTYLE
280
     0
  9
$LWDISPLAY
290
     0
  9
$INSUNITS
 70
     4
  9
$HYPERLINKBASE
  1

  9
$STYLESHEET
  1

  9
$XEDIT
290
     1
  9
$CEPSNTYPE
380
     0
  9
$PSTYLEMODE
290
     1
  9
$FINGERPRINTGUID
  2
{3A3755FB-18B8-452A-B789-DE01AA3EFE38}
  9
$VERSIONGUID
  2
{B97A1364-F9F9-45E9-8914-11AA9B80BBC1}
  9
$EXTNAMES
290
     1
  9
$PSVPSCALE
 40
0.0
  9
$OLESTARTUP
290
     0
  0
ENDSEC
  0
SECTION
  2
CLASSES
  0
CLASS
  1
ACDBDICTIONARYWDFLT
  2
AcDbDictionaryWithDefault
  3
ObjectDBX Classes
 90
        0
280
     0
281
     0
  0
CLASS
  1
ACDBPLACEHOLDER
  2
AcDbPlaceHolder
  3
ObjectDBX Classes
 90
        0
280
     0
281
     0
  0
CLASS
  1
LAYOUT
  2
AcDbLayout
  3
ObjectDBX Classes
 90
        0
280
     0
281
     0
  0
CLASS
  1
ACME_DOCUMENT
  2
AcMeDoc
  3
AcMeServices
 90
    32768
280
     1
281
     0
  0
CLASS
  1
ACMESTATEMGR
  2
AcMeStateMgr
  3
AcMeServices
 90
     1024
280
     0
281
     0
  0
CLASS
  1
ACMESCOPE
  2
AcMeScope
  3
AcMeServices
 90
     1024
280
     0
281
     0
  0
CLASS
  1
ACMECOMMANDHISTORY
  2
AcMeCommandHistory
  3
AcMeServices
 90
     1024
280
     0
281
     0
  0
CLASS
  1
ACRFINSADJUSTERMGR
  2
AcRfInsAdjusterMgr
  3
AcMeServices
 90
     1024
280
     0
281
     0
  0
CLASS
  1
DICTIONARYVAR
  2
AcDbDictionaryVar
  3
ObjectDBX Classes
 90
        0
280
     0
281
     0
  0
CLASS
  1
ACIMSYSVARMAN
  2
AcImSysVarManager
  3
AcMeServices
 90
     1024
280
     0
281
     0
  0
CLASS
  1
ACIMREALSYSVAR
  2
AcImRealSysVar
  3
AcMeServices
 90
     1024
280
     0
281
     0
  0
CLASS
  1
ACIMINTSYSVAR
  2
AcImIntSysVar
  3
AcMeServices
 90
     1024
280
     0
281
     0
  0
CLASS
  1
ACMEDRAWINGMAN
  2
AcMeDrawingMan
  3
AcMeServices
 90
     1024
280
     0
281
     0
  0
CLASS
  1
ACMEVIEW
  2
AcMeView
  3
AcMeServices
 90
     1024
280
     0
281
     0
  0
CLASS
  1
ACDBENTITYCACHE
  2
AcMeEntityCache
  3
AcMeServices
 90
     1024
280
     0
281
     0
  0
CLASS
  1
ACGREFMASTER
  2
AcGrefMaster
  3
AcAttribServices
 90
     1024
280
     0
281
     0
  0
CLASS
  1
AMIMASTER
  2
AmiMaster
  3
AmiServices
 90
     1024
280
     0
281
     0
  0
CLASS
  1
ACASGREFMASTER
  2
AcAsGrefMaster
  3
AutoSurfResolverServices
 90
     1024
280
     0
281
     0
  0
CLASS
  1
ADAPPL
  2
AcAdAppl
  3
DesignerServices
 90
     1024
280
     0
281
     0
  0
CLASS
  1
DEPMGR
  2
AcAdDepMgr
  3
DesignerServices
 90
     1024
280
     0
281
     0
  0
CLASS
  1
PARAMMGR
  2
AcAdParamMgr
  3
DesignerServices
 90
     1024
280
     0
281
     0
  0
CLASS
  1
PARAMSCOPE
  2
AcAdParamScope
  3
DesignerServices
 90
     1024
280
     0
281
     0
  0
CLASS
  1
ACIMSTRSYSVAR
  2
AcImStrSysVar
  3
AcMeServices
 90
     1024
280
     0
281
     0
  0
CLASS
  1
NAMEDAPPL
  2
AcAdNamedAppl
  3
DesignerServices
 90
     1024
280
     0
281
     0
  0
CLASS
  1
ADHNTMPLT
  2
AdHoleNoteTemplateMgr
  3
DesignerServices
 90
    33792
280
     0
281
     0
  0
CLASS
  1
AM_HNTEMPLATE_MGR_NAME
  2
AdHoleNoteTemplateMgrName
  3
DesignerServices
 90
    33792
280
     0
281
     0
  0
CLASS
  1
ACADGREFMODULE
  2
AcAdGrefModule
  3
AdGrefServices
 90
     1024
280
     0
281
     0
  0
CLASS
  1
AM_DRAWING_MGR
  2
AcDmDwgMgr
  3
AcMechDwgViewMgmt
 90
     1024
280
     0
281
     0
  0
CLASS
  1
AM_DWG_DOCUMENT
  2
AcDmDwgDocument
  3
AcMechDwgViewMgmt
 90
     1024
280
     0
281
     0
  0
CLASS
  1
AM_DWG_SHEET
  2
AcDmSheet
  3
AcMechDwgViewMgmt
 90
     1024
280
     0
281
     0
  0
CLASS
  1
AM_VIEWDIMPARMAP
  2
AcDmViewDimParMap
  3
AcMechDwgViewMgmt
 90
     1024
280
     0
281
     0
  0
CLASS
  1
AM_DWGMGR_NAME
  2
AcDmDwgMgrName
  3
AcMechDwgViewMgmt
 90
     1024
280
     0
281
     0
  0
CLASS
  1
ACAMPROJECT
  2
AcAmProject
  3
DesignerAssemblies
 90
     1024
280
     0
281
     0
  0
CLASS
  1
ACAMGRCOMPSET
  2
AcAmGrCompSet
  3
DesignerAssemblies
 90
    32768
280
     1
281
     0
  0
CLASS
  1
ACAMGRCOMPDEFSET
  2
AcAmGrCompDefSet
  3
DesignerAssemblies
 90
     1024
280
     0
281
     0
  0
CLASS
  1
ACAMGRCOMPDEF
  2
AcAmGrCompDef
  3
DesignerAssemblies
 90
     1024
280
     0
281
     0
  0
CLASS
  1
ACCMCONTEXT
  2
AcCmContext
  3
DesignerAssemblies
 90
     1024
280
     0
281
     0
  0
CLASS
  1
ACAMCOMPDEF
  2
AcAmCompDef
  3
DesignerAssemblies
 90
     1024
280
     0
281
     0
  0
CLASS
  1
ACAMCOMPDEFMGR
  2
AcAmCompDefMgr
  3
DesignerAssemblies
 90
     1024
280
     0
281
     0
  0
CLASS
  1
AMCONTEXTMGR
  2
AcAmContextMgr
  3
DesignerAssemblies
 90
     1024
280
     0
281
     0
  0
CLASS
  1
ACAMCONTEXTMODELER
  2
AcAmContextModeler
  3
DesignerAssemblies
 90
     1024
280
     0
281
     0
  0
CLASS
  1
ACMDATADICTIONARY
  2
AcmDataDictionary
  3
"AcmSymBB|Product Description: AutoCAD Mechanical|Company: Autodesk, Inc."
 90
     1024
280
     0
281
     0
  0
CLASS
  1
ACMDATAENTRYBLOCK
  2
AcmDataEntryBlock
  3
AcmSymBB|Product Description: AutoCAD Mechanical|Company: Autodesk, Inc.
 90
     1024
280
     0
281
     0
  0
CLASS
  1
ACDMVIEWGEOM
  2
AcDmViewGeometry
  3
AcMechDwgViewMgmt
 90
    33792
280
     0
281
     1
  0
CLASS
  1
CBROWSERAPPOBJECT
  2
CBrowserAppObject
  3
McadcomServices
 90
     1024
280
     0
281
     0
  0
CLASS
  1
IM_STATIC_MAN
  2
AcImStaticVarManager
  3
AcMeServices
 90
     1024
280
     0
281
     0
  0
CLASS
  1
ASAPP
  2
AcAsAppObject
  3
AutoSurfServices
 90
     1024
280
     0
281
     0
  0
CLASS
  1
ACIMDBLSTATICVAR
  2
AcImDblStaticVar
  3
AcMeServices
 90
     1024
280
     0
281
     0
  0
CLASS
  1
ACIMSTRSTATICVAR
  2
AcImStrStaticVar
  3
AcMeServices
 90
     1024
280
     0
281
     0
  0
CLASS
  1
ACIMINTSTATICVAR
  2
AcImIntStaticVar
  3
AcMeServices
 90
     1024
280
     0
281
     0
  0
CLASS
  1
CATALOGSTATE
  2
AcAmCatalogState
  3
DesignerAssemblies
 90
     1024
280
     0
281
     0
  0
CLASS
  1
DM_PLACEHOLDER
  2
AcDmSelsetPlaceholder
  3
AcMechDwgViewMgmt
 90
     1024
280
     0
281
     0
  0
CLASS
  1
LAYER_INDEX
  2
AcDbLayerIndex
  3
ObjectDBX Classes
 90
        0
280
     0
281
     0
  0
CLASS
  1
IDBUFFER
  2
AcDbIdBuffer
  3
ObjectDBX Classes
 90
        0
280
     0
281
     0
  0
CLASS
  1
ACAMEXTERNALCOMPDEF
  2
AcAmExternalCompDef
  3
DesignerAssemblies
 90
    33792
280
     0
281
     0
  0
CLASS
  1
ACCMBODY
  2
AcCmBody
  3
DesignerAssemblies
 90
    33792
280
     0
281
     0
  0
CLASS
  1
ACAMGRCOMP
  2
AcAmGrComp
  3
DesignerAssemblies
 90
    33792
280
     0
281
     0
  0
CLASS
  1
ACAMCOMPFEEDBACK
  2
AcAmCompFeedback
  3
DesignerAssemblies
 90
    33792
280
     0
281
     0
  0
CLASS
  1
ACAMCOMP
  2
AcAmComp
  3
DesignerAssemblies
 90
    33792
280
     0
281
     0
  0
CLASS
  1
ACAMGRCOMPCLONE
  2
AcAmGrCompClone
  3
DesignerAssemblies
 90
    33792
280
     0
281
     0
  0
CLASS
  1
ACAMCLONEREACTOR
  2
AcAmGrCompCloneReactor
  3
DesignerAssemblies
 90
    33792
280
     0
281
     0
  0
CLASS
  1
AGDICTIONARY
  2
AgDictionary
  3
AccelView
 90
    33793
280
     0
281
     0
  0
CLASS
  1
EDGEID
  2
AcAdEdgeId
  3
DesignerServices
 90
    33792
280
     0
281
     0
  0
CLASS
  1
ACADPARTLINEDGRES
  2
AcAdPartLinEdgRes
  3
AdGrefServices
 90
    33792
280
     0
281
     0
  0
CLASS
  1
ACRFINSADJ
  2
AcRfInsAdjuster
  3
AcMeServices
 90
    33792
280
     0
281
     0
  0
CLASS
  1
STREFID
  2
AcAdStraightRefId
  3
DesignerServices
 90
    33792
280
     0
281
     0
  0
CLASS
  1
ACMEAXIS
  2
AcImAxisDisplay
  3
AcMeServices
 90
    33792
280
     0
281
     1
  0
CLASS
  1
FACEID
  2
AcAdFaceId
  3
DesignerServices
 90
    33792
280
     0
281
     0
  0
CLASS
  1
DEPEDGESECONDARYDEPID
  2
AcAdDepEdgeSecondaryDepId
  3
DesignerServices
 90
    33792
280
     0
281
     0
  0
CLASS
  1
ACADPARTPLANARFACERES
  2
AcAdPartPlanarFaceRes
  3
AdGrefServices
 90
    33792
280
     0
281
     0
  0
CLASS
  1
ACMEPOINT
  2
AcImPointDisplay
  3
AcMeServices
 90
    33792
280
     0
281
     1
  0
CLASS
  1
ACMELINEARARROW
  2
AcImLinearArrowDisplay
  3
AcMeServices
 90
    33792
280
     0
281
     1
  0
CLASS
  1
ACAMEXPR
  2
AcAmExpr
  3
DesignerAssemblies
 90
    33792
280
     0
281
     0
  0
CLASS
  1
ACCMDISTPLPL
  2
AcCmDistPlPl
  3
DesignerAssemblies
 90
    33792
280
     0
281
     0
  0
CLASS
  1
ACCMCONSTREACTOR
  2
AcCmConstraintReactor
  3
DesignerAssemblies
 90
    33792
280
     0
281
     0
  0
CLASS
  1
ACAMVIEWENTITYFILTER
  2
AcAmViewEntityFilter
  3
DesignerAssemblies
 90
    33792
280
     0
281
     0
  0
CLASS
  1
ACAMGRBLOCKRECORD
  2
AcAmGrBlockRecord
  3
DesignerAssemblies
 90
    33792
280
     0
281
     0
  0
CLASS
  1
ACAMVIEWREACTOR
  2
AcAmViewReactor
  3
DesignerAssemblies
 90
    33792
280
     0
281
     0
  0
CLASS
  1
AMVIEW
  2
AcAmView
  3
DesignerAssemblies
 90
    33792
280
     0
281
     0
  0
CLASS
  1
ACAMVIEWCONTEXT
  2
AcAmViewContext
  3
DesignerAssemblies
 90
    33792
280
     0
281
     0
  0
CLASS
  1
ACAMCOMPVIEWREACTOR
  2
AcAmGrCompViewReactor
  3
DesignerAssemblies
 90
    33792
280
     0
281
     0
  0
CLASS
  1
ACAMGRCOMPVIEW
  2
AcAmGrCompView
  3
DesignerAssemblies
 90
    33792
280
     0
281
     0
  0
CLASS
  1
SURFACEID
  2
AcAdSurfaceId
  3
DesignerServices
 90
    33792
280
     0
281
     0
  0
CLASS
  1
AM_GREF_PLANE
  2
AcDmGrefPlnDef
  3
AcMechDwgViewMgmt
 90
    33792
280
     0
281
     0
  0
CLASS
  1
AM_GREF_AXIS
  2
AcDmGrefAxisDef
  3
AcMechDwgViewMgmt
 90
    33792
280
     0
281
     0
  0
CLASS
  1
AM_BASE_VIEW_ORIENT
  2
AcDmBaseViewOr
  3
AcMechDwgViewMgmt
 90
    33792
280
     0
281
     0
  0
CLASS
  1
AM_DWG_VIEWPORT
  2
AcDmViewport
  3
AcMechDwgViewMgmt
 90
    33792
280
     0
281
     0
  0
CLASS
  1
AM_VIEW_DISPLAY
  2
AcDmDwgViewDisplay
  3
AcMechDwgViewMgmt
 90
    33792
280
     0
281
     0
  0
CLASS
  1
AM_BASE_VIEW
  2
AcDmBaseView
  3
AcMechDwgViewMgmt
 90
    33792
280
     0
281
     0
  0
CLASS
  1
ACDMVWEDLINE
  2
AcDmViewEdgeLine
  3
AcMechDwgViewMgmt
 90
    33792
280
     0
281
     1
  0
CLASS
  1
ACDMVWEDARC
  2
AcDmViewEdgeArc
  3
AcMechDwgViewMgmt
 90
    33792
280
     0
281
     1
  0
CLASS
  1
ACDMVWEDCIRC
  2
AcDmViewEdgeCircle
  3
AcMechDwgViewMgmt
 90
    33792
280
     0
281
     1
  0
CLASS
  1
AM_ORTHO_VIEW_ORIENT
  2
AcDmOrthoViewOr
  3
AcMechDwgViewMgmt
 90
    33792
280
     0
281
     0
  0
CLASS
  1
AM_ORTHO_VIEW
  2
AcDmOrthoView
  3
AcMechDwgViewMgmt
 90
    33792
280
     0
281
     0
  0
CLASS
  1
CNRREFID
  2
AcAdCornerId
  3
DesignerServices
 90
    33792
280
     0
281
     0
  0
CLASS
  1
ACADPARTPOINTRES
  2
AcAdPartPointRes
  3
AdGrefServices
 90
    33792
280
     0
281
     0
  0
CLASS
  1
AM_VIEWDIMLINEAR
  2
AcDmViewDimLinear
  3
AcMechDwgViewMgmt
 90
    33792
280
     0
281
     0
  0
CLASS
  1
ACADPARTCIRCEDGRES
  2
AcAdPartCircEdgRes
  3
AdGrefServices
 90
    33792
280
     0
281
     0
  0
CLASS
  1
CIRREFID
  2
AcAdCircleRefId
  3
DesignerServices
 90
    33792
280
     0
281
     0
  0
CLASS
  1
ACADPARTCYLINDERFACERES
  2
AcAdPartCylinderFaceRes
  3
AdGrefServices
 90
    33792
280
     0
281
     0
  0
CLASS
  1
ACCMDISTLNLN
  2
AcCmDistLnLn
  3
DesignerAssemblies
 90
    33792
280
     0
281
     0
  0
CLASS
  1
ACMECIRCARC
  2
AcImCircArcDisplay
  3
AcMeServices
 90
    33792
280
     0
281
     1
  0
CLASS
  1
ACCMDISTPTLN
  2
AcCmDistPtLn
  3
DesignerAssemblies
 90
    33792
280
     0
281
     0
  0
CLASS
  1
ACRFATTGENMGR
  2
AcRfAttGeneralMgr
  3
AcAttribServices
 90
     1024
280
     0
281
     0
  0
CLASS
  1
FEEDBACK
  2
AcAmFeedback
  3
DesignerAssemblies
 90
    33792
280
     0
281
     1
  0
CLASS
  1
ACAMTRIAXISSYMBOL
  2
AcAmTriAxisSymbol
  3
DesignerAssemblies
 90
    33792
280
     0
281
     0
  0
CLASS
  1
ACAMROTAXISSYMBOL
  2
AcAmRotAxisSymbol
  3
DesignerAssemblies
 90
    33792
280
     0
281
     0
  0
CLASS
  1
ACAMTEXTCIRCLESYMBOL
  2
AcAmTextCircleSymbol
  3
DesignerAssemblies
 90
    33792
280
     0
281
     0
  0
CLASS
  1
ACCMTANCLCL
  2
AcCmTanClCl
  3
AcCmServices
 90
    33792
280
     0
281
     0
  0
CLASS
  1
ACCMANGVECVEC
  2
AcCmAngVecVec
  3
DesignerAssemblies
 90
    33792
280
     0
281
     0
  0
CLASS
  1
ACMEROTATIONARROW
  2
AcImRotationArrowDisplay
  3
AcMeServices
 90
    33792
280
     0
281
     1
  0
CLASS
  1
ACDMVWEDSPLINE
  2
AcDmViewEdgeSpline
  3
AcMechDwgViewMgmt
 90
    33792
280
     0
281
     1
  0
CLASS
  1
SILEDGEID
  2
AcAdSilhouetteEdgeId
  3
DesignerServices
 90
    33792
280
     0
281
     0
  0
CLASS
  1
ACAMVECTORSYMBOL
  2
AcAmVectorSymbol
  3
DesignerAssemblies
 90
    33792
280
     0
281
     0
  0
CLASS
  1
ACCMTANCLPL
  2
AcCmTanClPl
  3
AcCmServices
 90
    33792
280
     0
281
     0
  0
CLASS
  1
AM_VIEW_SELECT_FILTER
  2
AcDmSelectViewEntFilter
  3
AcMechDwgViewMgmt
 90
    33792
280
     0
281
     0
  0
CLASS
  1
ACME_DATABASE
  2
AcMeDbDatabase
  3
AcMeServices
 90
     1024
280
     0
281
     0
  0
CLASS
  1
ACME_DOCUMENT
  2
AcMeDbDoc
  3
AcMeServices
 90
     1024
280
     0
281
     0
  0
CLASS
  1
AMGSETTINGSOBJ
  2
AmgSettingsObj
  3
"AcadM|Product Description: AutoCAD Mechanical|Company: Autodesk, Inc."
 90
     1024
280
     0
281
     0
  0
CLASS
  1
GSMANAGER
  2
AcMeGSManager
  3
AcMeServices
 90
     1024
280
     0
281
     0
  0
CLASS
  1
AMDTINTERNALREACTOR
  2
AmdtInternalReactor
  3
AcMeServices
 90
     1024
280
     0
281
     0
  0
CLASS
  1
ACGREFACADMASTER
  2
AcGrefacadMaster
  3
AcGrefServices
 90
     1024
280
     0
281
     0
  0
CLASS
  1
AMDTMENUSTATEMGR
  2
AmdtMenuStateMgr
  3
McadcomServices
 90
     1024
280
     0
281
     0
  0
CLASS
  1
AMDTMCOMMENUSTATE
  2
AmdtMcomMenuState
  3
McadcomServices
 90
     1024
280
     0
281
     0
  0
CLASS
  1
MAPIAMMOUDLE
  2
MApiAmModule
  3
MApiAmServices
 90
     1024
280
     0
281
     0
  0
CLASS
  1
AMDTDMMENUSTATE
  2
AmdtDmMenuState
  3
AcMechDwgViewMgmt
 90
     1024
280
     0
281
     0
  0
CLASS
  1
AMDTADMENUSTATE
  2
AmdtAdMenuState
  3
DesignerServices
 90
     1024
280
     0
281
     0
  0
CLASS
  1
AMDTAMMENUSTATE
  2
AmdtAmMenuState
  3
DesignerAssemblies
 90
     1024
280
     0
281
     0
  0
CLASS
  1
MAPIADMODULE
  2
MApiAdModule
  3
MApiAdServices
 90
     1024
280
     0
281
     0
  0
CLASS
  1
ACAMCOMPENT
  2
AcAmCompEnt
  3
DesignerAssemblies
 90
    33792
280
     0
281
     1
  0
CLASS
  1
ACAMCOMPENTCLONE
  2
AcAmCompEntClone
  3
DesignerAssemblies
 90
    33792
280
     0
281
     1
  0
CLASS
  1
ACAMCOMPENTVIEW
  2
AcAmCompEntView
  3
DesignerAssemblies
 90
    33792
280
     0
281
     1
  0
CLASS
  1
AM_CLDFLTS
  2
AcDmClDflts
  3
AcMechDwgViewMgmt
 90
    33792
280
     0
281
     0
  0
CLASS
  1
AMDTBROWSERDBTAB
  2
AmdtBrowserDbTab
  3
McadcomServices
 90
     1024
280
     0
281
     0
  0
CLASS
  1
AMGOBJPROPCFG
  2
AmgObjPropCfg
  3
"AmgLay|Product Description: AutoCAD Mechanical|Company: Autodesk, Inc."
 90
     1025
280
     0
281
     0
  0
CLASS
  1
ACDMVWEDELLIPSE
  2
AcDmViewEdgeEllipse
  3
AcMechDwgViewMgmt
 90
    33792
280
     0
281
     1
  0
CLASS
  1
ACAMGFILTERDAT
  2
AcAmgFilterDat
  3
"AcadM|Product Description: AutoCAD Mechanical|Company: Autodesk, Inc."
 90
     1024
280
     0
281
     0
  0
CLASS
  1
AMDTMAPISURFMOUDULE
  2
AmdtMApiSurfModule
  3
MApiSurfServices
 90
    33792
280
     0
281
     0
  0
CLASS
  1
ACDMPARTVIEWDATA
  2
AcDmPartViewData
  3
AcMechDwgViewMgmt
 90
    33792
280
     0
281
     0
  0
CLASS
  1
ACDMDISPLAYATTRIBS
  2
AcDmDisplayAttribs
  3
AcMechDwgViewMgmt
 90
    33792
280
     0
281
     0
  0
CLASS
  1
ACDMBODYINSTANCEDATA
  2
AcDmBodyInstanceData
  3
AcMechDwgViewMgmt
 90
    33792
280
     0
281
     0
  0
CLASS
  1
ACMSTANDARDISO
  2
AcmStandardISO
  3
"Amdt_StdImp|Product Description: AutoCAD Mechanical|Company: Autodesk, Inc."
 90
     1024
280
     0
281
     0
  0
CLASS
  1
AMDTEDGESTANDARDISO
  2
AmdtEdgeStdISO
  3
"Amdt_StdImp|Product Description: AutoCAD Mechanical|Company: Autodesk, Inc."
 90
    33792
280
     0
281
     0
  0
CLASS
  1
ACMSURFSTANDARDISO
  2
AcmSurfTextStdISO
  3
"Amdt_StdImp|Product Description: AutoCAD Mechanical|Company: Autodesk, Inc."
 90
    33792
280
     0
281
     0
  0
CLASS
  1
ACMFCFSTANDARDISO
  2
AcmFCFStdISO
  3
"Amdt_StdImp|Product Description: AutoCAD Mechanical|Company: Autodesk, Inc."
 90
     1024
280
     0
281
     0
  0
CLASS
  1
ACMWELDSTANDARDISO
  2
AcmWeldingStdISO
  3
"Amdt_StdImp|Product Description: AutoCAD Mechanical|Company: Autodesk, Inc."
 90
     1024
280
     0
281
     0
  0
CLASS
  1
ACMIDSTANDARDISO
  2
AcmIdStdISO
  3
"Amdt_StdImp|Product Description: AutoCAD Mechanical|Company: Autodesk, Inc."
 90
     1024
280
     0
281
     0
  0
CLASS
  1
ACMDATUMSTANDARDISO
  2
AcmDatumStdISO
  3
"Amdt_StdImp|Product Description: AutoCAD Mechanical|Company: Autodesk, Inc."
 90
     1024
280
     0
281
     0
  0
CLASS
  1
ACMBOMSTANDARDISO
  2
AcmBOMStdISO
  3
"Amdt_StdImp|Product Description: AutoCAD Mechanical|Company: Autodesk, Inc."
 90
     1024
280
     0
281
     0
  0
CLASS
  1
ACMDETAILSTANDARDISO
  2
AmdtDetailSymStdISO
  3
"Amdt_StdImp|Product Description: AutoCAD Mechanical|Company: Autodesk, Inc."
 90
     1024
280
     0
281
     0
  0
CLASS
  1
ACMSECTIONSTANDARDISO
  2
AmdtSectionSymStdISO
  3
"Amdt_StdImp|Product Description: AutoCAD Mechanical|Company: Autodesk, Inc."
 90
    33792
280
     0
281
     0
  0
CLASS
  1
ACMCENTERLINESTANDARDISO
  2
AmdtCenterLineStdISO
  3
"Amdt_StdImp|Product Description: AutoCAD Mechanical|Company: Autodesk, Inc."
 90
     1024
280
     0
281
     0
  0
CLASS
  1
ACMTHREADLINESTANDARDISO
  2
AmdtThreadLineStdISO
  3
"Amdt_StdImp|Product Description: AutoCAD Mechanical|Company: Autodesk, Inc."
 90
     1024
280
     0
281
     0
  0
CLASS
  1
ACAMGLAYSTD
  2
AcAmgLayStd
  3
"AmgLay|Product Description: AutoCAD Mechanical|Company: Autodesk, Inc."
 90
     1024
280
     0
281
     0
  0
CLASS
  1
ACAMGDIMSTD
  2
AcAmgDimStd
  3
"AmgDim|Product Description: AutoCAD Mechanical|Company: Autodesk, Inc."
 90
     1024
280
     0
281
     0
  0
CLASS
  1
ACAMGTITLESTD
  2
AcAmgTitleStd
  3
"AmgTitle|Product Description: AutoCAD Mechanical|Company: Autodesk, Inc."
 90
     4095
280
     0
281
     0
  0
CLASS
  1
AMDTFORMULAUPDATEDISPATCHER
  2
AmdtFormulaUpdateDispatcher
  3
AcMeServices
 90
    33792
280
     0
281
     0
  0
CLASS
  1
PARAM
  2
AcAdParam
  3
DesignerServices
 90
    33792
280
     0
281
     0
  0
CLASS
  1
ACMEPLINE
  2
AcImPlineDisplay
  3
AcMeServices
 90
    33792
280
     0
281
     1
  0
CLASS
  1
ACCMDISTLNPL
  2
AcCmDistLnPl
  3
AcCmServices
 90
    33792
280
     0
281
     0
  0
CLASS
  1
ACCMDISTPTPL
  2
AcCmDistPtPl
  3
DesignerAssemblies
 90
    33792
280
     0
281
     0
  0
CLASS
  1
ACMNOTESTANDARDISO
  2
AmdtNoteStdISO
  3
"Amdt_StdImp|Product Description: AutoCAD Mechanical|Company: Autodesk, Inc."
 90
     1024
280
     0
281
     0
  0
CLASS
  1
AMDTNOTETEMPLATEDB
  2
AmdtNoteTemplateDB
  3
AcmSymBB|Product Description: AutoCAD Mechanical|Company: Autodesk, Inc.
 90
     1024
280
     0
281
     0
  0
CLASS
  1
TABLESTYLE
  2
AcDbTableStyle
  3
ObjectDBX Classes
 90
     4095
280
     0
281
     0
  0
CLASS
  1
AM_ABS_AXIS
  2
AcDmAbsAxisDef
  3
AcMechDwgViewMgmt
 90
    33792
280
     0
281
     0
  0
CLASS
  1
AM_ABS_PLANE
  2
AcDmAbsPlnDef
  3
AcMechDwgViewMgmt
 90
    33792
280
     0
281
     0
  0
CLASS
  1
AM_VIEW_GROUP_FILTER
  2
AcDmGroupViewEntFilter
  3
AcMechDwgViewMgmt
 90
    33792
280
     0
281
     0
  0
CLASS
  1
ACMSTANDARDJIS
  2
AcmStandardJIS
  3
"Amdt_StdImp|Product Description: AutoCAD Mechanical|Company: Autodesk, Inc."
 90
    33792
280
     0
281
     0
  0
CLASS
  1
ACMSURFSTANDARDJIS
  2
AcmSurfTextStdJIS
  3
"Amdt_StdImp|Product Description: AutoCAD Mechanical|Company: Autodesk, Inc."
 90
    33792
280
     0
281
     0
  0
CLASS
  1
ACMFCFSTANDARDJIS
  2
AcmFCFStdJIS
  3
"Amdt_StdImp|Product Description: AutoCAD Mechanical|Company: Autodesk, Inc."
 90
    33792
280
     0
281
     0
  0
CLASS
  1
ACMWELDSTANDARDJIS
  2
AcmWeldingStdJIS
  3
"Amdt_StdImp|Product Description: AutoCAD Mechanical|Company: Autodesk, Inc."
 90
    33792
280
     0
281
     0
  0
CLASS
  1
ACMIDSTANDARDJIS
  2
AcmIdStdJIS
  3
"Amdt_StdImp|Product Description: AutoCAD Mechanical|Company: Autodesk, Inc."
 90
    33792
280
     0
281
     0
  0
CLASS
  1
ACMDATUMSTANDARDJIS
  2
AcmDatumStdJIS
  3
"Amdt_StdImp|Product Description: AutoCAD Mechanical|Company: Autodesk, Inc."
 90
    33792
280
     0
281
     0
  0
CLASS
  1
ACMBOMSTANDARDJIS
  2
AcmBOMStdJIS
  3
"Amdt_StdImp|Product Description: AutoCAD Mechanical|Company: Autodesk, Inc."
 90
    33792
280
     0
281
     0
  0
CLASS
  1
ACMDETAILSTANDARDJIS
  2
AmdtDetailSymStdJIS
  3
"Amdt_StdImp|Product Description: AutoCAD Mechanical|Company: Autodesk, Inc."
 90
    33792
280
     0
281
     0
  0
CLASS
  1
ACMSECTIONSTANDARDJIS
  2
AmdtSectionSymStdJIS
  3
"Amdt_StdImp|Product Description: AutoCAD Mechanical|Company: Autodesk, Inc."
 90
    33792
280
     0
281
     0
  0
CLASS
  1
ACMCENTERLINESTANDARDJIS
  2
AmdtCenterLineStdJIS
  3
"Amdt_StdImp|Product Description: AutoCAD Mechanical|Company: Autodesk, Inc."
 90
    33792
280
     0
281
     0
  0
CLASS
  1
ACMTHREADLINESTANDARDJIS
  2
AmdtThreadLineStdJIS
  3
"Amdt_StdImp|Product Description: AutoCAD Mechanical|Company: Autodesk, Inc."
 90
    33792
280
     0
281
     0
  0
CLASS
  1
ACMNOTESTANDARDJIS
  2
AmdtNoteStdJIS
  3
"Amdt_StdImp|Product Description: AutoCAD Mechanical|Company: Autodesk, Inc."
 90
    33792
280
     0
281
     0
  0
CLASS
  1
MATERIAL
  2
AcDbMaterial
  3
ObjectDBX Classes
 90
     1153
280
     0
281
     0
  0
CLASS
  1
VISUALSTYLE
  2
AcDbVisualStyle
  3
ObjectDBX Classes
 90
     4095
280
     0
281
     0
  0
CLASS
  1
SCALE
  2
AcDbScale
  3
ObjectDBX Classes
 90
     1153
280
     0
281
     0
  0
CLASS
  1
MLEADERSTYLE
  2
AcDbMLeaderStyle
  3
ACDB_MLEADERSTYLE_CLASS
 90
     4095
280
     0
281
     0
  0
CLASS
  1
EXACTERMXREFMAP
  2
ExAcTermXrefMap
  3
EXAC_SERVICE
 90
    33793
280
     0
281
     0
  0
CLASS
  1
NPOCOLLECTION
  2
AcDbImpNonPersistentObjectsCollection
  3
ObjectDBX Classes
 90
     1153
280
     0
281
     0
  0
CLASS
  1
ACMTAPERSTANDARDISO
  2
AcmTaperStdISO
  3
"Amdt_StdImp|Product Description: AutoCAD Mechanical|Company: Autodesk, Inc."
 90
     1024
280
     0
281
     0
  0
CLASS
  1
ACMANOOTATIONVIEWSTANDARDISO
  2
AmdtAnViewStdISO
  3
"Amdt_StdImp|Product Description: AutoCAD Mechanical|Company: Autodesk, Inc."
 90
     1024
280
     0
281
     0
  0
CLASS
  1
ACMTAPERSTANDARDJIS
  2
AcmTaperStdJIS
  3
"Amdt_StdImp|Product Description: AutoCAD Mechanical|Company: Autodesk, Inc."
 90
    33792
280
     0
281
     0
  0
CLASS
  1
ACMANOOTATIONVIEWSTANDARDJIS
  2
AmdtAnViewStdJIS
  3
"Amdt_StdImp|Product Description: AutoCAD Mechanical|Company: Autodesk, Inc."
 90
    33792
280
     0
281
     0
  0
CLASS
  1
SOLID_BACKGROUND
  2
AcDbSolidBackground
  3
SCENEOE
 90
     4095
280
     0
281
     0
  0
CLASS
  1
AM_ADCIRCTRLINE
  2
AcAdBullsEyeCl
  3
DesignerServices
 90
    33792
280
     0
281
     0
  0
CLASS
  1
AM_ADLINCTRLINE
  2
AcAdLineCl
  3
DesignerServices
 90
    33792
280
     0
281
     0
  0
CLASS
  1
CELLSTYLEMAP
  2
AcDbCellStyleMap
  3
ObjectDBX Classes
 90
     1152
280
     0
281
     0
  0
CLASS
  1
MULTILEADER
  2
AcDbMLeader
  3
ACDB_MLEADER_CLASS
 90
    33793
280
     0
281
     1
  0
CLASS
  1
ACRFOBJATTMGR
  2
AcRfObjAttGroupMgr
  3
AcAttribServices
 90
     1024
280
     0
281
     0
  0
CLASS
  1
ACRFMCADAPIATTHOLDER
  2
AcRfMCADAPIAttHolder
  3
AcAttribServices
 90
     1024
280
     0
281
     0
  0
CLASS
  1
AMDTSYSATTR
  2
AmdtSystemAttribute
  3
AcAttribServices
 90
     1024
280
     0
281
     0
  0
CLASS
  1
AMDTEDGESTANDARDISO13715
  2
AmdtEdgeStdISO13715
  3
"Amdt_StdImp|Product Description: AutoCAD Mechanical|Company: Autodesk, Inc."
 90
     1024
280
     0
281
     0
  0
CLASS
  1
ACMSURFSTANDARDISO2002
  2
AcmSurfTextStdISO2002
  3
"Amdt_StdImp|Product Description: AutoCAD Mechanical|Company: Autodesk, Inc."
 90
     1024
280
     0
281
     0
  0
CLASS
  1
ACMSECTIONSTANDARDISO2001
  2
AmdtSectionSymStdISO2001
  3
"Amdt_StdImp|Product Description: AutoCAD Mechanical|Company: Autodesk, Inc."
 90
     1024
280
     0
281
     0
  0
CLASS
  1
ACAMGHOLECHARTSTDISO
  2
AcAmgHoleChartStdISO
  3
AmgDim|Product Description: AutoCAD Mechanical|Company: Autodesk, Inc.
 90
     1024
280
     0
281
     0
  0
CLASS
  1
SORTENTSTABLE
  2
AcDbSortentsTable
  3
ObjectDBX Classes
 90
        0
280
     0
281
     0
  0
ENDSEC
  0
SECTION
  2
TABLES
  0
TABLE
  2
VPORT
  5
29
102
{ACAD_XDICTIONARY
360
472
102
}
330
0
100
AcDbSymbolTable
 70
     1
  0
VPORT
  5
5BC
330
29
100
AcDbSymbolTableRecord
100
AcDbViewportTableRecord
  2
*Active
 70
     0
 10
0.0
 20
0.0
 11
1.0
 21
1.0
 12
0.0
 22
0.0
 13
0.0
 23
0.0
 14
10.0
 24
10.0
 15
10.0
 25
10.0
 16
0.0
 26
0.0
 36
1547.192960093979
 17
5592.731874087673
 27
398.6729847865556
 37
0.0
 40
1066.904021113578
 41
1.672936259143155
 42
50.0
 43
0.0
 44
0.0
 50
0.0
 51
0.0
 71
     0
 72
   100
 73
     1
 74
     2
 75
     0
 76
     0
 77
     0
 78
     0
281
     4
 65
     0
110
0.0
120
0.0
130
0.0
111
1.0
121
0.0
131
0.0
112
0.0
122
1.0
132
0.0
 79
     0
146
0.0
  0
ENDTAB
  0
TABLE
  2
LTYPE
  5
24
330
0
100
AcDbSymbolTable
 70
    19
  0
LTYPE
  5
25
330
24
100
AcDbSymbolTableRecord
100
AcDbLinetypeTableRecord
  2
ByBlock
 70
     0
  3

 72
    65
 73
     0
 40
0.0
  0
LTYPE
  5
26
330
24
100
AcDbSymbolTableRecord
100
AcDbLinetypeTableRecord
  2
ByLayer
 70
     0
  3

 72
    65
 73
     0
 40
0.0
  0
LTYPE
  5
13
330
24
100
AcDbSymbolTableRecord
100
AcDbLinetypeTableRecord
  2
Continuous
 70
     0
  3
Solid line
 72
    65
 73
     0
 40
0.0
  0
LTYPE
  5
1B8
330
24
100
AcDbSymbolTableRecord
100
AcDbLinetypeTableRecord
  2
HIDDEN
 70
     0
  3
Hidden __ __ __ __ __ __ __ __ __ __ __ __ __ _
 72
    65
 73
     2
 40
9.524999999999996
 49
6.349999999999997
 74
     0
 49
-3.174999999999998
 74
     0
  0
LTYPE
  5
7C
330
24
100
AcDbSymbolTableRecord
100
AcDbLinetypeTableRecord
  2
AM_ISO08W050
 70
     0
  3
____ . ____ . ____ . ____ . ____ . ____ . ____
 72
    65
 73
     4
 40
18.0
 49
12.0
 74
     0
 49
-1.5
 74
     0
 49
3.0
 74
     0
 49
-1.5
 74
     0
  0
LTYPE
  5
5F9
330
24
100
AcDbSymbolTableRecord
100
AcDbLinetypeTableRecord
  2
DASHDOT
 70
     0
  3
____ _ ____ _ ____ _ ____ _ ____ _ ____ _ ____
 72
    65
 73
     4
 40
5.5
 49
4.0
 74
     0
 49
-0.6
 74
     0
 49
0.3
 74
     0
 49
-0.6
 74
     0
  0
LTYPE
  5
BEA
330
24
100
AcDbSymbolTableRecord
100
AcDbLinetypeTableRecord
  2
PHANTOM2
 70
     0
  3
Phantom (.5x) ___ _ _ ___ _ _ ___ _ _ ___ _ _
 72
    65
 73
     6
 40
31.75
 49
15.875
 74
     0
 49
-3.174999999999998
 74
     0
 49
3.174999999999998
 74
     0
 49
-3.174999999999998
 74
     0
 49
3.174999999999998
 74
     0
 49
-3.174999999999998
 74
     0
  0
LTYPE
  5
BEB
330
24
100
AcDbSymbolTableRecord
100
AcDbLinetypeTableRecord
  2
CENTER
 70
     0
  3
Center ____ _ ____ _ ____ _ ____ _ ____ _ ____
 72
    65
 73
     4
 40
50.8
 49
31.75
 74
     0
 49
-6.349999999999997
 74
     0
 49
6.349999999999997
 74
     0
 49
-6.349999999999997
 74
     0
  0
LTYPE
  5
C39
330
24
100
AcDbSymbolTableRecord
100
AcDbLinetypeTableRecord
  2
ASULTYPE
 70
     0
  3
実線
 72
    65
 73
     2
 40
3.0
 49
2.5
 74
     0
 49
0.5
 74
     0
  0
LTYPE
  5
C3A
330
24
100
AcDbSymbolTableRecord
100
AcDbLinetypeTableRecord
  2
ASVLTYPE
 70
     0
  3
__ __ __ __ __ __ __ __ __ __ __ __ __ __ __ __ __ __ __ __ __
 72
    65
 73
     2
 40
0.75
 49
0.5
 74
     0
 49
-0.25
 74
     0
  0
LTYPE
  5
C95
330
24
100
AcDbSymbolTableRecord
100
AcDbLinetypeTableRecord
  2
ACISOWELD
 70
     0
  3
_ _ _ _ _
 72
    65
 73
     2
 40
2.0
 49
2.0
 74
     0
 49
-1.0
 74
     0
  0
LTYPE
  5
C96
330
24
100
AcDbSymbolTableRecord
100
AcDbLinetypeTableRecord
  2
ACISOTGB
 70
     0
  3
__ . . __ . .
 72
    65
 73
     6
 40
9.0
 49
4.0
 74
     0
 49
-1.0
 74
     0
 49
1.0
 74
     0
 49
-1.0
 74
     0
 49
1.0
 74
     0
 49
-1.0
 74
     0
  0
LTYPE
  5
C97
330
24
100
AcDbSymbolTableRecord
100
AcDbLinetypeTableRecord
  2
ACISOTGL
 70
     0
  3
_ _ _ _ _
 72
    65
 73
     2
 40
3.0
 49
2.0
 74
     0
 49
-1.0
 74
     0
  0
LTYPE
  5
CB1
330
24
100
AcDbSymbolTableRecord
100
AcDbLinetypeTableRecord
  2
DASHED2
 70
     0
  3
Dashed (.5x) _ _ _ _ _ _ _ _ _ _ _ _ _ _ _ _ _
 72
    65
 73
     2
 40
9.524999999999996
 49
6.349999999999997
 74
     0
 49
-3.174999999999998
 74
     0
  0
LTYPE
  5
CB2
330
24
100
AcDbSymbolTableRecord
100
AcDbLinetypeTableRecord
  2
AM_ISO02W050
 70
     0
  3
__ __ __ __ __ __ __ __ __ __ __ __ __ __ __
 72
    65
 73
     2
 40
7.5
 49
6.0
 74
     0
 49
-1.5
 74
     0
  0
LTYPE
  5
CB3
330
24
100
AcDbSymbolTableRecord
100
AcDbLinetypeTableRecord
  2
AM_ISO09W050
 70
     0
  3
_____ . . _____ . . _____ . . ____ .. ____
 72
    65
 73
     6
 40
22.5
 49
12.0
 74
     0
 49
-1.5
 74
     0
 49
3.0
 74
     0
 49
-1.5
 74
     0
 49
3.0
 74
     0
 49
-1.5
 74
     0
  0
LTYPE
  5
CB4
330
24
100
AcDbSymbolTableRecord
100
AcDbLinetypeTableRecord
  2
Amconstr
 70
     0
  3
_______________________
 72
    65
 73
     2
 40
9999.0
 49
9999.0
 74
     0
 49
0.0
 74
     0
  0
LTYPE
  5
CB5
330
24
100
AcDbSymbolTableRecord
100
AcDbLinetypeTableRecord
  2
AM_ISO08W050x2
 70
     0
  3
__ . __ . __ . __ . __ . __
 72
    65
 73
     4
 40
9.0
 49
6.0
 74
     0
 49
-0.75
 74
     0
 49
1.5
 74
     0
 49
-0.75
 74
     0
  0
LTYPE
  5
CB6
330
24
100
AcDbSymbolTableRecord
100
AcDbLinetypeTableRecord
  2
AM_ISO02W050x2
 70
     0
  3
 _ _ _ _ _ _ _ _ _ _ _ _
 72
    65
 73
     2
 40
3.75
 49
3.0
 74
     0
 49
-0.75
 74
     0
  0
LTYPE
  5
CB7
330
24
100
AcDbSymbolTableRecord
100
AcDbLinetypeTableRecord
  2
Amzigzag
 70
     0
  3
/\/-/\/-/\/-/\/-/\/-/\/
 72
    65
 73
     2
 40
11.0001
 49
0.0001
 74
     4
 75
   136
340
CBC
 46
0.04
 50
0.0
 44
0.0
 45
0.0
 49
-11.0
 74
     0
  0
LTYPE
  5
1747
330
24
100
AcDbSymbolTableRecord
100
AcDbLinetypeTableRecord
  2
DASHEDX2
 70
     0
  3
____  ____  ____  ____  ____  ____  ____  ____ 
 72
    65
 73
     2
 40
1.5
 49
1.0
 74
     0
 49
-0.5
 74
     0
  0
ENDTAB
  0
TABLE
  2
LAYER
  5
1E
102
{ACAD_XDICTIONARY
360
1F
102
}
330
0
100
AcDbSymbolTable
 70
     8
  0
LAYER
  5
6
102
{ACAD_XDICTIONARY
360
461
102
}
330
1E
100
AcDbSymbolTableRecord
100
AcDbLayerTableRecord
  2
0
 70
     0
 62
     7
  6
Continuous
370
    -3
390
7
  0
LAYER
  5
4A7
330
1E
100
AcDbSymbolTableRecord
100
AcDbLayerTableRecord
  2
Defpoints
 70
     0
 62
     7
  6
Continuous
290
     0
370
    -3
390
7
  0
LAYER
  5
5FA
330
1E
100
AcDbSymbolTableRecord
100
AcDbLayerTableRecord
  2
SIZE
 70
     0
 62
    30
  6
Continuous
370
    -3
390
7
  0
LAYER
  5
5FB
330
1E
100
AcDbSymbolTableRecord
100
AcDbLayerTableRecord
  2
OUTLINE
 70
     0
 62
     3
  6
Continuous
370
    -3
390
7
  0
LAYER
  5
5FD
330
1E
100
AcDbSymbolTableRecord
100
AcDbLayerTableRecord
  2
BASIS
 70
     0
 62
     6
  6
DASHDOT
370
    -3
390
7
  0
LAYER
  5
5FE
330
1E
100
AcDbSymbolTableRecord
100
AcDbLayerTableRecord
  2
NOTE
 70
     0
 62
     4
  6
Continuous
370
    -3
390
7
  0
LAYER
  5
5FF
330
1E
100
AcDbSymbolTableRecord
100
AcDbLayerTableRecord
  2
ARRANGE
 70
     0
 62
     1
  6
Continuous
370
    -3
390
7
  0
LAYER
  5
600
330
1E
100
AcDbSymbolTableRecord
100
AcDbLayerTableRecord
  2
ETC
 70
     0
 62
    61
  6
Continuous
370
    -3
390
7
  0
ENDTAB
  0
TABLE
  2
STYLE
  5
21
330
0
100
AcDbSymbolTable
 70
     5
  0
STYLE
  5
22
330
21
100
AcDbSymbolTableRecord
100
AcDbTextStyleTableRecord
  2
Standard
 70
     0
 40
0.0
 41
1.0
 50
0.0
 71
     0
 42
43.66586864911549
  3
romans.shx
  4
bigfont.shx
  0
STYLE
  5
601
330
21
100
AcDbSymbolTableRecord
100
AcDbTextStyleTableRecord
  2
STANDARD1
 70
     0
 40
0.0
 41
1.0
 50
0.0
 71
     0
 42
3.5
  3
MONOTXT
  4
BIGFONT
  0
STYLE
  5
C85
330
21
100
AcDbSymbolTableRecord
100
AcDbTextStyleTableRecord
  2
ACISOTS
 70
     0
 40
1.0
 41
1.0
 50
0.0
 71
     0
 42
43.66586864911549
  3
isocp.shx
  4
extfont.shx
  0
STYLE
  5
C94
330
21
100
AcDbSymbolTableRecord
100
AcDbTextStyleTableRecord
  2
ACISOGDT
 70
     0
 40
0.0
 41
1.0
 50
0.0
 71
     0
 42
43.66586864911549
  3
amgdt.shx
  4

  0
STYLE
  5
CBC
330
21
100
AcDbSymbolTableRecord
100
AcDbTextStyleTableRecord
  2

 70
     1
 40
0.0
 41
1.0
 50
0.0
 71
     0
 42
2.5
  3
genltshp.shx
  4

  0
ENDTAB
  0
TABLE
  2
VIEW
  5
27
330
0
100
AcDbSymbolTable
 70
     0
  0
ENDTAB
  0
TABLE
  2
UCS
  5
28
330
0
100
AcDbSymbolTable
 70
     0
  0
ENDTAB
  0
TABLE
  2
APPID
  5
2D
330
0
100
AcDbSymbolTable
 70
    22
  0
APPID
  5
2E
330
2D
100
AcDbSymbolTableRecord
100
AcDbRegAppTableRecord
  2
ACAD
 70
     0
  0
APPID
  5
7D
330
2D
100
AcDbSymbolTableRecord
100
AcDbRegAppTableRecord
  2
AcAecLayerStandard
 70
     0
  0
APPID
  5
1D
330
2D
100
AcDbSymbolTableRecord
100
AcDbRegAppTableRecord
  2
ACAD_PSEXT
 70
     0
  0
APPID
  5
43D
330
2D
100
AcDbSymbolTableRecord
100
AcDbRegAppTableRecord
  2
ACATTRIBSERVICES
 70
     0
  0
APPID
  5
456
330
2D
100
AcDbSymbolTableRecord
100
AcDbRegAppTableRecord
  2
ACAD_MLEADERVER
 70
     0
  0
APPID
  5
45E
330
2D
100
AcDbSymbolTableRecord
100
AcDbRegAppTableRecord
  2
ACAD_DSTYLE_DIMJAG
 70
     0
  0
APPID
  5
45F
330
2D
100
AcDbSymbolTableRecord
100
AcDbRegAppTableRecord
  2
ACAD_DSTYLE_DIMTALN
 70
     0
  0
APPID
  5
B4F
330
2D
100
AcDbSymbolTableRecord
100
AcDbRegAppTableRecord
  2
ACAD_EXEMPT_FROM_CAD_STANDARDS
 70
     0
  0
APPID
  5
BB6
330
2D
100
AcDbSymbolTableRecord
100
AcDbRegAppTableRecord
  2
GENIUS_GENDIM_13
 70
     0
  0
APPID
  5
BB7
330
2D
100
AcDbSymbolTableRecord
100
AcDbRegAppTableRecord
  2
GENIUS_GENDTOL_13
 70
     0
  0
APPID
  5
BB8
330
2D
100
AcDbSymbolTableRecord
100
AcDbRegAppTableRecord
  2
GENIUS_GE3DTOL_13
 70
     0
  0
APPID
  5
BBB
330
2D
100
AcDbSymbolTableRecord
100
AcDbRegAppTableRecord
  2
MCAD_NO_VIS
 70
     0
  0
APPID
  5
BBC
330
2D
100
AcDbSymbolTableRecord
100
AcDbRegAppTableRecord
  2
ACAD_TEMP_GRAPHIC
 70
     0
  0
APPID
  5
BED
330
2D
100
AcDbSymbolTableRecord
100
AcDbRegAppTableRecord
  2
AD_DRAW
 70
     0
  0
APPID
  5
C3B
330
2D
100
AcDbSymbolTableRecord
100
AcDbRegAppTableRecord
  2
ASURF_PCURVE_APPNAME
 70
     0
  0
APPID
  5
C40
330
2D
100
AcDbSymbolTableRecord
100
AcDbRegAppTableRecord
  2
AMG_3D2D_5.0
 70
     0
  0
APPID
  5
C71
330
2D
100
AcDbSymbolTableRecord
100
AcDbRegAppTableRecord
  2
DESIGNERASSEMBLIES
 70
     0
  0
APPID
  5
C7C
330
2D
100
AcDbSymbolTableRecord
100
AcDbRegAppTableRecord
  2
ACADM_DIM_EDIT
 70
     0
  0
APPID
  5
C7D
330
2D
100
AcDbSymbolTableRecord
100
AcDbRegAppTableRecord
  2
AMDT_DM_ADJ
 70
     0
  0
APPID
  5
E6C
330
2D
100
AcDbSymbolTableRecord
100
AcDbRegAppTableRecord
  2
ACAD_DSTYLE_DIMRADIAL_EXTENSION
 70
     0
  0
APPID
  5
EF7
330
2D
100
AcDbSymbolTableRecord
100
AcDbRegAppTableRecord
  2
ACAD_DSTYLE_DIMINSPECT
 70
     0
  0
APPID
  5
F8D
330
2D
100
AcDbSymbolTableRecord
100
AcDbRegAppTableRecord
  2
ACAD_DSTYLE_DIMARC_LENGTH_SYMBOL
 70
     0
  0
ENDTAB
  0
TABLE
  2
DIMSTYLE
  5
2F
330
0
100
AcDbSymbolTable
 70
    10
100
AcDbDimStyleTable
 71
     4
340
30
340
CA3
340
CBD
340
602
  0
DIMSTYLE
105
30
102
{ACAD_REACTORS
330
1E65
330
1E72
330
1E7F
330
1E8C
330
1E99
330
1EA6
330
1ED4
330
1EE1
330
1EEE
330
1F0D
102
}
330
2F
100
AcDbSymbolTableRecord
100
AcDbDimStyleTableRecord
  2
ISO-25
 70
     0
 41
2.5
 42
0.625
 43
3.75
 44
1.25
 73
     0
 74
     0
 77
     1
 78
     8
140
2.5
141
2.5
143
0.03937007874016
147
0.625
171
     3
172
     1
271
     2
272
     2
274
     3
283
     0
284
     8
340
22
  0
DIMSTYLE
105
602
330
2F
100
AcDbSymbolTableRecord
100
AcDbDimStyleTableRecord
  2
STANDARD
 70
     0
275
     1
279
     2
284
     8
285
     8
286
     8
340
22
  0
DIMSTYLE
105
CA3
330
2F
100
AcDbSymbolTableRecord
100
AcDbDimStyleTableRecord
  2
AM_ISO
 70
     0
  4
"
 41
2.5
 42
1.0
 43
10.0
 44
1.0
 47
0.1
 48
0.1
 73
     0
 74
     0
 77
     1
 78
     8
 79
     2
140
3.5
141
0.0
143
0.0393701
146
0.71
147
1.5
172
     1
176
   256
177
   256
178
     2
271
     2
272
     3
274
     4
283
     0
284
     8
340
22
371
    -1
372
    -1
1001
ACAD_DSTYLE_DIMARC_LENGTH_SYMBOL
1070
   379
1070
     1
  0
DIMSTYLE
105
CA4
102
{ACAD_REACTORS
330
1E29
102
}
330
2F
100
AcDbSymbolTableRecord
100
AcDbDimStyleTableRecord
  2
AM_ISO$3
 70
     0
  4
"
 40
5.0
 41
2.5
 42
1.0
 43
10.0
 44
1.0
 47
0.1
 48
0.1
 73
     0
 77
     1
 78
     8
 79
     2
140
2.5
141
0.0
143
0.0393701
146
0.71
147
1.0
176
   256
177
   256
178
   256
271
     2
272
     2
283
     0
284
     8
288
     1
289
     0
340
22
342
48
371
    -1
372
    -1
1001
ACAD_DSTYLE_DIMJAG
1070
   388
1040
1.5
1001
ACAD_DSTYLE_DIMTALN
1070
   392
1070
     0
1001
ACAD_DSTYLE_DIMARC_LENGTH_SYMBOL
1070
   379
1070
     1
  0
DIMSTYLE
105
CA5
330
2F
100
AcDbSymbolTableRecord
100
AcDbDimStyleTableRecord
  2
AM_ISO$4
 70
     0
  4
"
 41
2.5
 42
1.0
 43
10.0
 44
1.0
 47
0.1
 48
0.1
 73
     0
 77
     1
 78
     8
 79
     2
140
3.5
141
0.0
143
0.0393701
146
0.71
147
1.5
176
   256
177
   256
178
     2
271
     2
272
     3
274
     4
283
     0
284
     8
288
     1
289
     0
340
22
371
    -1
372
    -1
1001
ACAD_DSTYLE_DIMARC_LENGTH_SYMBOL
1070
   379
1070
     1
  0
DIMSTYLE
105
CA6
330
2F
100
AcDbSymbolTableRecord
100
AcDbDimStyleTableRecord
  2
AM_ISO$6
 70
     0
  4
"
 41
2.5
 42
1.0
 43
10.0
 44
1.0
 47
0.1
 48
0.1
 73
     0
 74
     0
 78
     8
 79
     2
140
3.5
141
0.0
143
0.0393701
146
0.71
147
1.5
172
     1
176
   256
177
   256
178
     2
271
     2
272
     3
274
     4
283
     0
284
     8
340
22
371
    -1
372
    -1
1001
ACAD_DSTYLE_DIMARC_LENGTH_SYMBOL
1070
   379
1070
     1
  0
DIMSTYLE
105
CA7
330
2F
100
AcDbSymbolTableRecord
100
AcDbDimStyleTableRecord
  2
AM_ISO$7
 70
     0
  4
"
 41
2.5
 42
1.0
 43
10.0
 44
1.0
 47
0.1
 48
0.1
 73
     0
 74
     0
 77
     1
 78
     8
 79
     2
140
5.0
141
0.0
143
0.0393701
146
0.71
147
1.5
172
     1
176
   256
177
   256
178
     2
271
     2
272
     3
274
     4
283
     0
284
     8
340
22
371
    -1
372
    -1
1001
ACAD_DSTYLE_DIMARC_LENGTH_SYMBOL
1070
   379
1070
     1
  0
DIMSTYLE
105
CA8
330
2F
100
AcDbSymbolTableRecord
100
AcDbDimStyleTableRecord
  2
AM_ISO$SF
 70
     0
  4
"
 41
2.5
 42
1.0
 43
10.0
 44
1.0
 47
0.1
 48
0.1
 73
     0
 74
     0
 75
     1
 76
     1
 77
     1
 78
     8
 79
     2
140
3.5
141
0.0
143
0.0393701
146
0.71
147
1.5
172
     1
176
   256
177
   256
178
     2
271
     2
272
     3
274
     4
283
     0
284
     8
340
22
371
    -1
372
    -1
1001
ACAD_DSTYLE_DIMARC_LENGTH_SYMBOL
1070
   379
1070
     1
  0
DIMSTYLE
105
CAD
330
2F
100
AcDbSymbolTableRecord
100
AcDbDimStyleTableRecord
  2
AM_ISO$SH
 70
     0
  4
"
 41
2.5
 42
1.0
 43
10.0
 44
1.0
 47
0.1
 48
0.1
 73
     0
 74
     0
 75
     1
 76
     1
 77
     1
 78
     8
 79
     2
140
3.5
141
0.0
143
0.0393701
144
2.0
146
0.71
147
1.5
172
     1
173
     1
176
   256
177
   256
178
     2
271
     2
272
     3
274
     4
283
     0
284
     8
340
22
343
CA9
371
    -1
372
    -1
1001
ACAD_DSTYLE_DIMARC_LENGTH_SYMBOL
1070
   379
1070
     1
  0
DIMSTYLE
105
CBD
330
2F
100
AcDbSymbolTableRecord
100
AcDbDimStyleTableRecord
  2
AM_JIS
 70
     0
  4
"
 41
2.5
 42
1.0
 43
10.0
 44
1.0
 47
0.1
 48
0.1
 73
     0
 74
     0
 77
     3
 78
     8
 79
     2
140
3.5
141
0.0
143
0.0393701
146
0.71
147
1.5
172
     1
176
   256
177
   256
178
     2
271
     2
272
     3
274
     4
283
     0
284
     8
340
22
341
48
342
48
343
48
344
48
371
    -1
372
    -1
1001
ACAD_DSTYLE_DIMARC_LENGTH_SYMBOL
1070
   379
1070
     1
  0
ENDTAB
  0
TABLE
  2
BLOCK_RECORD
  5
1
330
0
100
AcDbSymbolTable
 70
    71
  0
BLOCK_RECORD
  5
2
102
{ACAD_XDICTIONARY
360
3
102
}
330
1
100
AcDbSymbolTableRecord
100
AcDbBlockTableRecord
  2
*Model_Space
340
15
  0
BLOCK_RECORD
  5
17
330
1
100
AcDbSymbolTableRecord
100
AcDbBlockTableRecord
  2
*Paper_Space
340
1A
  0
BLOCK_RECORD
  5
48
330
1
100
AcDbSymbolTableRecord
100
AcDbBlockTableRecord
  2
_OPEN30
340
0
102
{BLKREFS
331
4AE
331
4AF
331
4BB
331
4BC
331
4C8
331
4C9
331
4D5
331
4D6
331
4EF
331
4F0
331
4FC
331
4FD
331
509
331
50A
331
5AC
331
5AD
331
B58
331
B59
331
B61
331
B62
331
B6A
331
B6B
331
B73
331
B74
331
B7C
331
B7D
331
B85
331
B86
331
B8E
331
B8F
331
B97
331
B98
331
E1C
331
E1D
331
E29
331
E2A
331
E43
331
E44
331
E4C
331
E4D
331
E59
331
E5A
331
E66
331
E67
331
E81
331
E82
331
F36
331
F72
331
11A9
331
11AA
331
11BF
331
11C0
331
11CC
331
11CD
331
11D9
331
11DA
331
11EF
331
11F0
331
11FC
331
11FD
331
1331
331
1372
331
1373
331
139A
331
139B
331
15DE
331
15E9
331
15EA
331
15FF
331
1600
331
160C
331
160D
331
1619
331
161A
331
162F
331
1630
331
163C
331
163D
331
1649
331
164A
331
1A18
331
1A23
331
1A24
331
1A39
331
1A3A
331
1A46
331
1A47
331
1A53
331
1A54
331
1A62
331
1A63
331
1A6F
331
1A70
331
1A92
331
1A93
331
1A9B
331
1A9C
331
1AA8
331
1AA9
331
1ABE
331
1ABF
331
1BC4
331
1BC5
331
1BE7
331
1BE8
331
1E61
331
1E6C
331
1E6D
331
1E79
331
1E7A
331
1E86
331
1E87
331
1EA0
331
1EA1
331
1EC3
331
1EC4
331
1ECE
331
1ECF
331
1EDB
331
1EDC
331
1EFE
331
1EFF
331
1F07
331
1F08
331
1F14
331
1F15
102
}
  0
BLOCK_RECORD
  5
4E
330
1
100
AcDbSymbolTableRecord
100
AcDbBlockTableRecord
  2
_DOTSMALL
340
0
  0
BLOCK_RECORD
  5
4A8
330
1
100
AcDbSymbolTableRecord
100
AcDbBlockTableRecord
  2
*D2
340
0
  0
BLOCK_RECORD
  5
4B5
330
1
100
AcDbSymbolTableRecord
100
AcDbBlockTableRecord
  2
*D3
340
0
  0
BLOCK_RECORD
  5
4C2
330
1
100
AcDbSymbolTableRecord
100
AcDbBlockTableRecord
  2
*D4
340
0
  0
BLOCK_RECORD
  5
4CF
330
1
100
AcDbSymbolTableRecord
100
AcDbBlockTableRecord
  2
*D5
340
0
  0
BLOCK_RECORD
  5
4E9
330
1
100
AcDbSymbolTableRecord
100
AcDbBlockTableRecord
  2
*D6
340
0
  0
BLOCK_RECORD
  5
4F6
330
1
100
AcDbSymbolTableRecord
100
AcDbBlockTableRecord
  2
*D7
340
0
  0
BLOCK_RECORD
  5
503
330
1
100
AcDbSymbolTableRecord
100
AcDbBlockTableRecord
  2
*D8
340
0
  0
BLOCK_RECORD
  5
510
330
1
100
AcDbSymbolTableRecord
100
AcDbBlockTableRecord
  2
*D9
340
0
  0
BLOCK_RECORD
  5
51D
330
1
100
AcDbSymbolTableRecord
100
AcDbBlockTableRecord
  2
*D10
340
0
  0
BLOCK_RECORD
  5
52A
330
1
100
AcDbSymbolTableRecord
100
AcDbBlockTableRecord
  2
*D11
340
0
  0
BLOCK_RECORD
  5
550
330
1
100
AcDbSymbolTableRecord
100
AcDbBlockTableRecord
  2
*D12
340
0
  0
BLOCK_RECORD
  5
55D
330
1
100
AcDbSymbolTableRecord
100
AcDbBlockTableRecord
  2
*D13
340
0
  0
BLOCK_RECORD
  5
56A
330
1
100
AcDbSymbolTableRecord
100
AcDbBlockTableRecord
  2
*D14
340
0
  0
BLOCK_RECORD
  5
577
330
1
100
AcDbSymbolTableRecord
100
AcDbBlockTableRecord
  2
*D15
340
0
  0
BLOCK_RECORD
  5
584
330
1
100
AcDbSymbolTableRecord
100
AcDbBlockTableRecord
  2
*D16
340
0
  0
BLOCK_RECORD
  5
5A7
330
1
100
AcDbSymbolTableRecord
100
AcDbBlockTableRecord
  2
*D17
340
0
  0
BLOCK_RECORD
  5
5F4
330
1
100
AcDbSymbolTableRecord
100
AcDbBlockTableRecord
  2
_DOTBLANK
340
0
  0
BLOCK_RECORD
  5
CA9
330
1
100
AcDbSymbolTableRecord
100
AcDbBlockTableRecord
  2
GENAXEH
340
0
  0
BLOCK_RECORD
  5
E04
330
1
100
AcDbSymbolTableRecord
100
AcDbBlockTableRecord
  2
*D20
340
0
  0
BLOCK_RECORD
  5
E23
330
1
100
AcDbSymbolTableRecord
100
AcDbBlockTableRecord
  2
*D21
340
0
  0
BLOCK_RECORD
  5
E30
330
1
100
AcDbSymbolTableRecord
100
AcDbBlockTableRecord
  2
*D22
340
0
  0
BLOCK_RECORD
  5
E3D
330
1
100
AcDbSymbolTableRecord
100
AcDbBlockTableRecord
  2
*D23
340
0
  0
BLOCK_RECORD
  5
E53
330
1
100
AcDbSymbolTableRecord
100
AcDbBlockTableRecord
  2
*D24
340
0
  0
BLOCK_RECORD
  5
E60
330
1
100
AcDbSymbolTableRecord
100
AcDbBlockTableRecord
  2
*D25
340
0
  0
BLOCK_RECORD
  5
E6E
330
1
100
AcDbSymbolTableRecord
100
AcDbBlockTableRecord
  2
*D26
340
0
  0
BLOCK_RECORD
  5
E7A
330
1
100
AcDbSymbolTableRecord
100
AcDbBlockTableRecord
  2
*D27
340
0
  0
BLOCK_RECORD
  5
F3B
330
1
100
AcDbSymbolTableRecord
100
AcDbBlockTableRecord
  2
*D28
340
0
  0
BLOCK_RECORD
  5
11A3
330
1
100
AcDbSymbolTableRecord
100
AcDbBlockTableRecord
  2
*D29
340
0
  0
BLOCK_RECORD
  5
11B0
330
1
100
AcDbSymbolTableRecord
100
AcDbBlockTableRecord
  2
*D30
340
0
  0
BLOCK_RECORD
  5
11C6
330
1
100
AcDbSymbolTableRecord
100
AcDbBlockTableRecord
  2
*D31
340
0
  0
BLOCK_RECORD
  5
11D3
330
1
100
AcDbSymbolTableRecord
100
AcDbBlockTableRecord
  2
*D32
340
0
  0
BLOCK_RECORD
  5
11E0
330
1
100
AcDbSymbolTableRecord
100
AcDbBlockTableRecord
  2
*D33
340
0
  0
BLOCK_RECORD
  5
11F6
330
1
100
AcDbSymbolTableRecord
100
AcDbBlockTableRecord
  2
*D34
340
0
  0
BLOCK_RECORD
  5
12FA
330
1
100
AcDbSymbolTableRecord
100
AcDbBlockTableRecord
  2
*D35
340
0
  0
BLOCK_RECORD
  5
135A
330
1
100
AcDbSymbolTableRecord
100
AcDbBlockTableRecord
  2
*D36
340
0
  0
BLOCK_RECORD
  5
138B
330
1
100
AcDbSymbolTableRecord
100
AcDbBlockTableRecord
  2
*D37
340
0
  0
BLOCK_RECORD
  5
15D3
330
1
100
AcDbSymbolTableRecord
100
AcDbBlockTableRecord
  2
*D38
340
0
  0
BLOCK_RECORD
  5
15E3
330
1
100
AcDbSymbolTableRecord
100
AcDbBlockTableRecord
  2
*D39
340
0
  0
BLOCK_RECORD
  5
15F0
330
1
100
AcDbSymbolTableRecord
100
AcDbBlockTableRecord
  2
*D40
340
0
  0
BLOCK_RECORD
  5
1606
330
1
100
AcDbSymbolTableRecord
100
AcDbBlockTableRecord
  2
*D41
340
0
  0
BLOCK_RECORD
  5
1613
330
1
100
AcDbSymbolTableRecord
100
AcDbBlockTableRecord
  2
*D42
340
0
  0
BLOCK_RECORD
  5
1620
330
1
100
AcDbSymbolTableRecord
100
AcDbBlockTableRecord
  2
*D43
340
0
  0
BLOCK_RECORD
  5
1636
330
1
100
AcDbSymbolTableRecord
100
AcDbBlockTableRecord
  2
*D44
340
0
  0
BLOCK_RECORD
  5
1643
330
1
100
AcDbSymbolTableRecord
100
AcDbBlockTableRecord
  2
*D45
340
0
  0
BLOCK_RECORD
  5
19DF
330
1
100
AcDbSymbolTableRecord
100
AcDbBlockTableRecord
  2
*D46
340
0
  0
BLOCK_RECORD
  5
1A1D
330
1
100
AcDbSymbolTableRecord
100
AcDbBlockTableRecord
  2
*D47
340
0
  0
BLOCK_RECORD
  5
1A2A
330
1
100
AcDbSymbolTableRecord
100
AcDbBlockTableRecord
  2
*D48
340
0
  0
BLOCK_RECORD
  5
1A40
330
1
100
AcDbSymbolTableRecord
100
AcDbBlockTableRecord
  2
*D49
340
0
  0
BLOCK_RECORD
  5
1A4D
330
1
100
AcDbSymbolTableRecord
100
AcDbBlockTableRecord
  2
*D50
340
0
  0
BLOCK_RECORD
  5
1A5A
330
1
100
AcDbSymbolTableRecord
100
AcDbBlockTableRecord
  2
*D51
340
0
  0
BLOCK_RECORD
  5
1A69
330
1
100
AcDbSymbolTableRecord
100
AcDbBlockTableRecord
  2
*D52
340
0
  0
BLOCK_RECORD
  5
1A76
330
1
100
AcDbSymbolTableRecord
100
AcDbBlockTableRecord
  2
*D53
340
0
  0
BLOCK_RECORD
  5
1A83
330
1
100
AcDbSymbolTableRecord
100
AcDbBlockTableRecord
  2
*D54
340
0
  0
BLOCK_RECORD
  5
1AA2
330
1
100
AcDbSymbolTableRecord
100
AcDbBlockTableRecord
  2
*D55
340
0
  0
BLOCK_RECORD
  5
1AAF
330
1
100
AcDbSymbolTableRecord
100
AcDbBlockTableRecord
  2
*D56
340
0
  0
BLOCK_RECORD
  5
1BBE
330
1
100
AcDbSymbolTableRecord
100
AcDbBlockTableRecord
  2
*D57
340
0
  0
BLOCK_RECORD
  5
1BE1
330
1
100
AcDbSymbolTableRecord
100
AcDbBlockTableRecord
  2
*D58
340
0
  0
BLOCK_RECORD
  5
1E2A
330
1
100
AcDbSymbolTableRecord
100
AcDbBlockTableRecord
  2
*D59
340
0
  0
BLOCK_RECORD
  5
1E66
330
1
100
AcDbSymbolTableRecord
100
AcDbBlockTableRecord
  2
*D60
340
0
  0
BLOCK_RECORD
  5
1E73
330
1
100
AcDbSymbolTableRecord
100
AcDbBlockTableRecord
  2
*D61
340
0
  0
BLOCK_RECORD
  5
1E80
330
1
100
AcDbSymbolTableRecord
100
AcDbBlockTableRecord
  2
*D62
340
0
  0
BLOCK_RECORD
  5
1E8D
330
1
100
AcDbSymbolTableRecord
100
AcDbBlockTableRecord
  2
*D63
340
0
  0
BLOCK_RECORD
  5
1E9A
330
1
100
AcDbSymbolTableRecord
100
AcDbBlockTableRecord
  2
*D64
340
0
  0
BLOCK_RECORD
  5
1EA7
330
1
100
AcDbSymbolTableRecord
100
AcDbBlockTableRecord
  2
*D65
340
0
  0
BLOCK_RECORD
  5
1ED5
330
1
100
AcDbSymbolTableRecord
100
AcDbBlockTableRecord
  2
*D66
340
0
  0
BLOCK_RECORD
  5
1EE2
330
1
100
AcDbSymbolTableRecord
100
AcDbBlockTableRecord
  2
*D67
340
0
  0
BLOCK_RECORD
  5
1EEF
330
1
100
AcDbSymbolTableRecord
100
AcDbBlockTableRecord
  2
*D68
340
0
  0
BLOCK_RECORD
  5
1F0E
330
1
100
AcDbSymbolTableRecord
100
AcDbBlockTableRecord
  2
*D69
340
0
  0
ENDTAB
  0
ENDSEC
  0
SECTION
  2
BLOCKS
  0
BLOCK
  5
5
330
2
100
AcDbEntity
  8
0
100
AcDbBlockBegin
  2
*Model_Space
 70
     0
 10
0.0
 20
0.0
 30
0.0
  3
*Model_Space
  1

  0
ENDBLK
  5
14
330
2
100
AcDbEntity
  8
0
100
AcDbBlockEnd
  0
BLOCK
  5
18
330
17
100
AcDbEntity
 67
     1
  8
0
100
AcDbBlockBegin
  2
*Paper_Space
 70
     0
 10
0.0
 20
0.0
 30
0.0
  3
*Paper_Space
  1

  0
ENDBLK
  5
19
330
17
100
AcDbEntity
 67
     1
  8
0
100
AcDbBlockEnd
  0
BLOCK
  5
49
330
48
100
AcDbEntity
  8
0
100
AcDbBlockBegin
  2
_OPEN30
 70
     0
 10
0.0
 20
0.0
 30
0.0
  3
_OPEN30
  1

  0
LINE
  5
4A
330
48
100
AcDbEntity
  8
0
  6
ByBlock
 62
     0
100
AcDbLine
 10
-1.0
 20
0.26794919
 30
0.0
 11
0.0
 21
0.0
 31
0.0
  0
LINE
  5
4B
330
48
100
AcDbEntity
  8
0
  6
ByBlock
 62
     0
100
AcDbLine
 10
0.0
 20
0.0
 30
0.0
 11
-1.0
 21
-0.26794919
 31
0.0
  0
LINE
  5
4C
330
48
100
AcDbEntity
  8
0
  6
ByBlock
 62
     0
100
AcDbLine
 10
0.0
 20
0.0
 30
0.0
 11
-1.0
 21
0.0
 31
0.0
  0
ENDBLK
  5
4D
330
48
100
AcDbEntity
  8
0
100
AcDbBlockEnd
  0
BLOCK
  5
4F
330
4E
100
AcDbEntity
  8
0
100
AcDbBlockBegin
  2
_DOTSMALL
 70
     0
 10
0.0
 20
0.0
 30
0.0
  3
_DOTSMALL
  1

  0
POLYLINE
  5
50
330
4E
100
AcDbEntity
  8
0
  6
ByBlock
 62
     0
100
AcDb2dPolyline
 66
     1
 10
0.0
 20
0.0
 30
0.0
 70
     1
 40
0.5
 41
0.5
  0
VERTEX
  5
51
330
50
100
AcDbEntity
  8
0
  6
ByBlock
 62
     0
100
AcDbVertex
100
AcDb2dVertex
 10
-0.0625
 20
0.0
 30
0.0
 42
1.0
  0
VERTEX
  5
52
330
50
100
AcDbEntity
  8
0
  6
ByBlock
 62
     0
100
AcDbVertex
100
AcDb2dVertex
 10
0.0625
 20
0.0
 30
0.0
 42
1.0
  0
SEQEND
  5
53
330
50
100
AcDbEntity
  8
0
  6
ByBlock
 62
     0
  0
ENDBLK
  5
54
330
4E
100
AcDbEntity
  8
0
100
AcDbBlockEnd
  0
BLOCK
  5
4A9
330
4A8
100
AcDbEntity
  8
0
100
AcDbBlockBegin
  2
*D2
 70
     1
 10
0.0
 20
0.0
 30
0.0
  3
*D2
  1

  0
LINE
  5
4AB
330
4A8
100
AcDbEntity
  8
0
 62
     0
370
    -2
100
AcDbLine
 10
-194.8675214458474
 20
290.6819346384409
 30
0.0
 11
-194.8675214458474
 21
428.0809476825971
 31
0.0
  0
LINE
  5
4AC
330
4A8
100
AcDbEntity
  8
0
 62
     0
370
    -2
100
AcDbLine
 10
451.7324785541525
 20
290.6819346384409
 30
0.0
 11
451.7324785541525
 21
428.0809476825971
 31
0.0
  0
LINE
  5
4AD
330
4A8
100
AcDbEntity
  8
0
 62
     0
370
    -2
100
AcDbLine
 10
-182.3675214458473
 20
421.8309476825971
 30
0.0
 11
439.2324785541525
 21
421.8309476825971
 31
0.0
  0
INSERT
  5
4AE
330
4A8
100
AcDbEntity
  8
0
 62
     0
370
    -2
100
AcDbBlockReference
  2
_OPEN30
 10
-194.8675214458474
 20
421.8309476825971
 30
0.0
 41
12.5
 42
12.5
 43
12.5
 50
180.0
  0
INSERT
  5
4AF
330
4A8
100
AcDbEntity
  8
0
 62
     0
370
    -2
100
AcDbBlockReference
  2
_OPEN30
 10
451.7324785541525
 20
421.8309476825971
 30
0.0
 41
12.5
 42
12.5
 43
12.5
  0
MTEXT
  5
4B0
330
4A8
100
AcDbEntity
  8
0
 62
     0
100
AcDbMText
 10
128.4324785541526
 20
431.2059476825971
 30
0.0
 40
12.5
 41
0.0
 71
     5
 72
     1
  1
646.6
 73
     1
 44
1.0
1001
ACAD
1000
MTEXTBEGIN
1070
    73
1070
     1
1070
    44
1040
1.0
1070
    74
1070
     0
1000
MTEXTEND
  0
POINT
  5
4B1
330
4A8
100
AcDbEntity
  8
Defpoints
 62
     0
100
AcDbPoint
 10
-194.8675214458474
 20
287.5569346384409
 30
0.0
  0
POINT
  5
4B2
330
4A8
100
AcDbEntity
  8
Defpoints
 62
     0
100
AcDbPoint
 10
451.7324785541525
 20
287.5569346384409
 30
0.0
  0
POINT
  5
4B3
330
4A8
100
AcDbEntity
  8
Defpoints
 62
     0
100
AcDbPoint
 10
451.7324785541525
 20
421.8309476825971
 30
0.0
  0
ENDBLK
  5
4AA
330
4A8
100
AcDbEntity
  8
0
100
AcDbBlockEnd
  0
BLOCK
  5
4B6
330
4B5
100
AcDbEntity
  8
0
100
AcDbBlockBegin
  2
*D3
 70
     1
 10
0.0
 20
0.0
 30
0.0
  3
*D3
  1

  0
LINE
  5
4B8
330
4B5
100
AcDbEntity
  8
0
 62
     0
370
    -2
100
AcDbLine
 10
-189.3675214458475
 20
176.1819346384408
 30
0.0
 11
-189.3675214458475
 21
401.6377238746851
 31
0.0
  0
LINE
  5
4B9
330
4B5
100
AcDbEntity
  8
0
 62
     0
370
    -2
100
AcDbLine
 10
446.2324785541524
 20
176.2919346384408
 30
0.0
 11
446.2324785541524
 21
401.6377238746851
 31
0.0
  0
LINE
  5
4BA
330
4B5
100
AcDbEntity
  8
0
 62
     0
370
    -2
100
AcDbLine
 10
-176.8675214458475
 20
395.3877238746855
 30
0.0
 11
433.7324785541524
 21
395.3877238746855
 31
0.0
  0
INSERT
  5
4BB
330
4B5
100
AcDbEntity
  8
0
 62
     0
370
    -2
100
AcDbBlockReference
  2
_OPEN30
 10
-189.3675214458475
 20
395.3877238746855
 30
0.0
 41
12.5
 42
12.5
 43
12.5
 50
180.0
  0
INSERT
  5
4BC
330
4B5
100
AcDbEntity
  8
0
 62
     0
370
    -2
100
AcDbBlockReference
  2
_OPEN30
 10
446.2324785541524
 20
395.3877238746855
 30
0.0
 41
12.5
 42
12.5
 43
12.5
  0
MTEXT
  5
4BD
330
4B5
100
AcDbEntity
  8
0
 62
     0
100
AcDbMText
 10
128.4324785541525
 20
404.7627238746851
 30
0.0
 40
12.5
 41
0.0
 71
     5
 72
     1
  1
635.6
 73
     1
 44
1.0
1001
ACAD
1000
MTEXTBEGIN
1070
    73
1070
     1
1070
    44
1040
1.0
1070
    74
1070
     0
1000
MTEXTEND
  0
POINT
  5
4BE
330
4B5
100
AcDbEntity
  8
Defpoints
 62
     0
100
AcDbPoint
 10
-189.3675214458475
 20
173.0569346384408
 30
0.0
  0
POINT
  5
4BF
330
4B5
100
AcDbEntity
  8
Defpoints
 62
     0
100
AcDbPoint
 10
446.2324785541524
 20
173.1669346384408
 30
0.0
  0
POINT
  5
4C0
330
4B5
100
AcDbEntity
  8
Defpoints
 62
     0
100
AcDbPoint
 10
446.2324785541524
 20
395.3877238746855
 30
0.0
  0
ENDBLK
  5
4B7
330
4B5
100
AcDbEntity
  8
0
100
AcDbBlockEnd
  0
BLOCK
  5
4C3
330
4C2
100
AcDbEntity
  8
0
100
AcDbBlockBegin
  2
*D4
 70
     1
 10
0.0
 20
0.0
 30
0.0
  3
*D4
  1

  0
LINE
  5
4C5
330
4C2
100
AcDbEntity
  8
0
 62
     0
370
    -2
100
AcDbLine
 10
-181.8675214458474
 20
293.6819346384409
 30
0.0
 11
-181.8675214458474
 21
377.4083313595618
 31
0.0
  0
LINE
  5
4C6
330
4C2
100
AcDbEntity
  8
0
 62
     0
370
    -2
100
AcDbLine
 10
438.7324785541525
 20
293.6819346384409
 30
0.0
 11
438.7324785541525
 21
377.4083313595618
 31
0.0
  0
LINE
  5
4C7
330
4C2
100
AcDbEntity
  8
0
 62
     0
370
    -2
100
AcDbLine
 10
-169.3675214458474
 20
371.1583313595618
 30
0.0
 11
426.2324785541525
 21
371.1583313595618
 31
0.0
  0
INSERT
  5
4C8
330
4C2
100
AcDbEntity
  8
0
 62
     0
370
    -2
100
AcDbBlockReference
  2
_OPEN30
 10
-181.8675214458474
 20
371.1583313595618
 30
0.0
 41
12.5
 42
12.5
 43
12.5
 50
180.0
  0
INSERT
  5
4C9
330
4C2
100
AcDbEntity
  8
0
 62
     0
370
    -2
100
AcDbBlockReference
  2
_OPEN30
 10
438.7324785541525
 20
371.1583313595618
 30
0.0
 41
12.5
 42
12.5
 43
12.5
  0
MTEXT
  5
4CA
330
4C2
100
AcDbEntity
  8
0
 62
     0
100
AcDbMText
 10
128.4324785541526
 20
380.5333313595618
 30
0.0
 40
12.5
 41
0.0
 71
     5
 72
     1
  1
620.6
 73
     1
 44
1.0
1001
ACAD
1000
MTEXTBEGIN
1070
    73
1070
     1
1070
    44
1040
1.0
1070
    74
1070
     0
1000
MTEXTEND
  0
POINT
  5
4CB
330
4C2
100
AcDbEntity
  8
Defpoints
 62
     0
100
AcDbPoint
 10
-181.8675214458474
 20
290.5569346384409
 30
0.0
  0
POINT
  5
4CC
330
4C2
100
AcDbEntity
  8
Defpoints
 62
     0
100
AcDbPoint
 10
438.7324785541525
 20
290.5569346384409
 30
0.0
  0
POINT
  5
4CD
330
4C2
100
AcDbEntity
  8
Defpoints
 62
     0
100
AcDbPoint
 10
438.7324785541525
 20
371.1583313595618
 30
0.0
  0
ENDBLK
  5
4C4
330
4C2
100
AcDbEntity
  8
0
100
AcDbBlockEnd
  0
BLOCK
  5
4D0
330
4CF
100
AcDbEntity
  8
0
100
AcDbBlockBegin
  2
*D5
 70
     1
 10
0.0
 20
0.0
 30
0.0
  3
*D5
  1

  0
LINE
  5
4D2
330
4CF
100
AcDbEntity
  8
0
 62
     0
370
    -2
100
AcDbLine
 10
-180.8675214458474
 20
294.4196742045807
 30
0.0
 11
-180.8675214458474
 21
340.2229688714728
 31
0.0
  0
LINE
  5
4D3
330
4CF
100
AcDbEntity
  8
0
 62
     0
370
    -2
100
AcDbLine
 10
437.6324785541525
 20
294.4196742045807
 30
0.0
 11
437.6324785541525
 21
340.2229688714728
 31
0.0
  0
LINE
  5
4D4
330
4CF
100
AcDbEntity
  8
0
 62
     0
370
    -2
100
AcDbLine
 10
-168.3675214458474
 20
333.9729688714728
 30
0.0
 11
425.1324785541525
 21
333.9729688714728
 31
0.0
  0
INSERT
  5
4D5
330
4CF
100
AcDbEntity
  8
0
 62
     0
370
    -2
100
AcDbBlockReference
  2
_OPEN30
 10
-180.8675214458474
 20
333.9729688714728
 30
0.0
 41
12.5
 42
12.5
 43
12.5
 50
180.0
  0
INSERT
  5
4D6
330
4CF
100
AcDbEntity
  8
0
 62
     0
370
    -2
100
AcDbBlockReference
  2
_OPEN30
 10
437.6324785541525
 20
333.9729688714728
 30
0.0
 41
12.5
 42
12.5
 43
12.5
  0
MTEXT
  5
4D7
330
4CF
100
AcDbEntity
  8
0
 62
     0
100
AcDbMText
 10
128.3824785541526
 20
343.3479688714728
 30
0.0
 40
12.5
 41
0.0
 71
     5
 72
     1
  1
618.5
 73
     1
 44
1.0
1001
ACAD
1000
MTEXTBEGIN
1070
    73
1070
     1
1070
    44
1040
1.0
1070
    74
1070
     0
1000
MTEXTEND
  0
POINT
  5
4D8
330
4CF
100
AcDbEntity
  8
Defpoints
 62
     0
100
AcDbPoint
 10
-180.8675214458474
 20
291.2946742045807
 30
0.0
  0
POINT
  5
4D9
330
4CF
100
AcDbEntity
  8
Defpoints
 62
     0
100
AcDbPoint
 10
437.6324785541525
 20
291.2946742045807
 30
0.0
  0
POINT
  5
4DA
330
4CF
100
AcDbEntity
  8
Defpoints
 62
     0
100
AcDbPoint
 10
437.6324785541525
 20
333.9729688714728
 30
0.0
  0
ENDBLK
  5
4D1
330
4CF
100
AcDbEntity
  8
0
100
AcDbBlockEnd
  0
BLOCK
  5
4EA
330
4E9
100
AcDbEntity
  8
0
100
AcDbBlockBegin
  2
*D6
 70
     1
 10
0.0
 20
0.0
 30
0.0
  3
*D6
  1

  0
LINE
  5
4EC
330
4E9
100
AcDbEntity
  8
0
 62
     0
370
    -2
100
AcDbLine
 10
-90.86752144584741
 20
304.3368538815535
 30
0.0
 11
-90.86752144584741
 21
350.3726550943938
 31
0.0
  0
LINE
  5
4ED
330
4E9
100
AcDbEntity
  8
0
 62
     0
370
    -2
100
AcDbLine
 10
128.3824785541525
 20
302.4378538815535
 30
0.0
 11
128.3824785541525
 21
350.3726550943938
 31
0.0
  0
LINE
  5
4EE
330
4E9
100
AcDbEntity
  8
0
 62
     0
370
    -2
100
AcDbLine
 10
-78.36752144584739
 20
344.1226550943938
 30
0.0
 11
115.8824785541525
 21
344.1226550943938
 31
0.0
  0
INSERT
  5
4EF
330
4E9
100
AcDbEntity
  8
0
 62
     0
370
    -2
100
AcDbBlockReference
  2
_OPEN30
 10
-90.86752144584741
 20
344.1226550943938
 30
0.0
 41
12.5
 42
12.5
 43
12.5
 50
180.0
  0
INSERT
  5
4F0
330
4E9
100
AcDbEntity
  8
0
 62
     0
370
    -2
100
AcDbBlockReference
  2
_OPEN30
 10
128.3824785541525
 20
344.1226550943938
 30
0.0
 41
12.5
 42
12.5
 43
12.5
  0
MTEXT
  5
4F1
330
4E9
100
AcDbEntity
  8
0
 62
     0
100
AcDbMText
 10
18.75747855415258
 20
353.4976550943938
 30
0.0
 40
12.5
 41
0.0
 71
     5
 72
     1
  1
219.25
 73
     1
 44
1.0
1001
ACAD
1000
MTEXTBEGIN
1070
    73
1070
     1
1070
    44
1040
1.0
1070
    74
1070
     0
1000
MTEXTEND
  0
POINT
  5
4F2
330
4E9
100
AcDbEntity
  8
Defpoints
 62
     0
100
AcDbPoint
 10
-90.86752144584741
 20
301.2118538815535
 30
0.0
  0
POINT
  5
4F3
330
4E9
100
AcDbEntity
  8
Defpoints
 62
     0
100
AcDbPoint
 10
128.3824785541525
 20
299.3128538815535
 30
0.0
  0
POINT
  5
4F4
330
4E9
100
AcDbEntity
  8
Defpoints
 62
     0
100
AcDbPoint
 10
128.3824785541525
 20
344.1226550943938
 30
0.0
  0
ENDBLK
  5
4EB
330
4E9
100
AcDbEntity
  8
0
100
AcDbBlockEnd
  0
BLOCK
  5
4F7
330
4F6
100
AcDbEntity
  8
0
100
AcDbBlockBegin
  2
*D7
 70
     1
 10
0.0
 20
0.0
 30
0.0
  3
*D7
  1

  0
LINE
  5
4F9
330
4F6
100
AcDbEntity
  8
0
 62
     0
370
    -2
100
AcDbLine
 10
-90.86752144584741
 20
302.4378538815535
 30
0.0
 11
-90.86752144584741
 21
350.2184002496524
 31
0.0
  0
LINE
  5
4FA
330
4F6
100
AcDbEntity
  8
0
 62
     0
370
    -2
100
AcDbLine
 10
128.3824785541525
 20
302.4378538815535
 30
0.0
 11
128.3824785541525
 21
350.2184002496524
 31
0.0
  0
LINE
  5
4FB
330
4F6
100
AcDbEntity
  8
0
 62
     0
370
    -2
100
AcDbLine
 10
-78.36752144584739
 20
343.9684002496524
 30
0.0
 11
115.8824785541525
 21
343.9684002496524
 31
0.0
  0
INSERT
  5
4FC
330
4F6
100
AcDbEntity
  8
0
 62
     0
370
    -2
100
AcDbBlockReference
  2
_OPEN30
 10
-90.86752144584741
 20
343.9684002496524
 30
0.0
 41
12.5
 42
12.5
 43
12.5
 50
180.0
  0
INSERT
  5
4FD
330
4F6
100
AcDbEntity
  8
0
 62
     0
370
    -2
100
AcDbBlockReference
  2
_OPEN30
 10
128.3824785541525
 20
343.9684002496524
 30
0.0
 41
12.5
 42
12.5
 43
12.5
  0
MTEXT
  5
4FE
330
4F6
100
AcDbEntity
  8
0
 62
     0
100
AcDbMText
 10
18.75747855415258
 20
353.3434002496524
 30
0.0
 40
12.5
 41
0.0
 71
     5
 72
     1
  1
219.3
 73
     1
 44
1.0
1001
ACAD
1000
MTEXTBEGIN
1070
    73
1070
     1
1070
    44
1040
1.0
1070
    74
1070
     0
1000
MTEXTEND
  0
POINT
  5
4FF
330
4F6
100
AcDbEntity
  8
Defpoints
 62
     0
100
AcDbPoint
 10
-90.86752144584741
 20
299.3128538815535
 30
0.0
  0
POINT
  5
500
330
4F6
100
AcDbEntity
  8
Defpoints
 62
     0
100
AcDbPoint
 10
128.3824785541525
 20
299.3128538815535
 30
0.0
  0
POINT
  5
501
330
4F6
100
AcDbEntity
  8
Defpoints
 62
     0
100
AcDbPoint
 10
128.3824785541525
 20
343.9684002496524
 30
0.0
  0
ENDBLK
  5
4F8
330
4F6
100
AcDbEntity
  8
0
100
AcDbBlockEnd
  0
BLOCK
  5
504
330
503
100
AcDbEntity
  8
0
100
AcDbBlockBegin
  2
*D8
 70
     1
 10
0.0
 20
0.0
 30
0.0
  3
*D8
  1

  0
LINE
  5
506
330
503
100
AcDbEntity
  8
0
 62
     0
370
    -2
100
AcDbLine
 10
128.3824785541525
 20
304.3368538815535
 30
0.0
 11
128.3824785541525
 21
350.2184002496524
 31
0.0
  0
LINE
  5
507
330
503
100
AcDbEntity
  8
0
 62
     0
370
    -2
100
AcDbLine
 10
347.6324785541526
 20
304.3368538815535
 30
0.0
 11
347.6324785541526
 21
350.2184002496524
 31
0.0
  0
LINE
  5
508
330
503
100
AcDbEntity
  8
0
 62
     0
370
    -2
100
AcDbLine
 10
140.8824785541525
 20
343.9684002496524
 30
0.0
 11
335.1324785541527
 21
343.9684002496524
 31
0.0
  0
INSERT
  5
509
330
503
100
AcDbEntity
  8
0
 62
     0
370
    -2
100
AcDbBlockReference
  2
_OPEN30
 10
128.3824785541525
 20
343.9684002496524
 30
0.0
 41
12.5
 42
12.5
 43
12.5
 50
180.0
  0
INSERT
  5
50A
330
503
100
AcDbEntity
  8
0
 62
     0
370
    -2
100
AcDbBlockReference
  2
_OPEN30
 10
347.6324785541526
 20
343.9684002496524
 30
0.0
 41
12.5
 42
12.5
 43
12.5
  0
MTEXT
  5
50B
330
503
100
AcDbEntity
  8
0
 62
     0
100
AcDbMText
 10
238.0074785541526
 20
353.3434002496524
 30
0.0
 40
12.5
 41
0.0
 71
     5
 72
     1
  1
219.3
 73
     1
 44
1.0
1001
ACAD
1000
MTEXTBEGIN
1070
    73
1070
     1
1070
    44
1040
1.0
1070
    74
1070
     0
1000
MTEXTEND
  0
POINT
  5
50C
330
503
100
AcDbEntity
  8
Defpoints
 62
     0
100
AcDbPoint
 10
128.3824785541525
 20
301.2118538815535
 30
0.0
  0
POINT
  5
50D
330
503
100
AcDbEntity
  8
Defpoints
 62
     0
100
AcDbPoint
 10
347.6324785541526
 20
301.2118538815535
 30
0.0
  0
POINT
  5
50E
330
503
100
AcDbEntity
  8
Defpoints
 62
     0
100
AcDbPoint
 10
347.6324785541526
 20
343.9684002496524
 30
0.0
  0
ENDBLK
  5
505
330
503
100
AcDbEntity
  8
0
100
AcDbBlockEnd
  0
BLOCK
  5
511
330
510
100
AcDbEntity
  8
0
100
AcDbBlockBegin
  2
*D9
 70
     1
 10
0.0
 20
0.0
 30
0.0
  3
*D9
  1

  0
LINE
  5
B94
330
510
100
AcDbEntity
  8
SIZE
 62
     0
370
    -2
100
AcDbLine
 10
-180.9925214458474
 20
304.1018538815534
 30
0.0
 11
-327.2745605746778
 21
304.1018538815534
 31
0.0
  0
LINE
  5
B95
330
510
100
AcDbEntity
  8
SIZE
 62
     0
370
    -2
100
AcDbLine
 10
-180.9925214458473
 20
-94.94306536155916
 30
0.0
 11
-327.2745605746779
 21
-94.94306536155912
 31
0.0
  0
LINE
  5
B96
330
510
100
AcDbEntity
  8
SIZE
 62
     0
370
    -2
100
AcDbLine
 10
-321.0245605746778
 20
291.6018538815534
 30
0.0
 11
-321.0245605746779
 21
-82.44306536155912
 31
0.0
  0
INSERT
  5
B97
330
510
100
AcDbEntity
  8
SIZE
 62
     0
370
    -2
100
AcDbBlockReference
  2
_OPEN30
 10
-321.0245605746778
 20
304.1018538815534
 30
0.0
 41
12.5
 42
12.5
 43
12.5
 50
90.0
  0
INSERT
  5
B98
330
510
100
AcDbEntity
  8
SIZE
 62
     0
370
    -2
100
AcDbBlockReference
  2
_OPEN30
 10
-321.0245605746779
 20
-94.94306536155912
 30
0.0
 41
12.5
 42
12.5
 43
12.5
 50
270.0
  0
MTEXT
  5
B99
330
510
100
AcDbEntity
  8
SIZE
 62
     0
100
AcDbMText
 10
-330.3995605746779
 20
104.579394259997
 30
0.0
 40
12.5
 41
0.0
 71
     5
 72
     1
  1
399
 11
0.0000000000000001
 21
1.0
 31
0.0
 73
     1
 44
1.0
1001
ACAD
1000
MTEXTBEGIN
1070
    73
1070
     1
1070
    44
1040
1.0
1070
    74
1070
     0
1000
MTEXTEND
  0
POINT
  5
B9A
330
510
100
AcDbEntity
  8
Defpoints
 62
     0
100
AcDbPoint
 10
-177.8675214458474
 20
304.1018538815534
 30
0.0
  0
POINT
  5
B9B
330
510
100
AcDbEntity
  8
Defpoints
 62
     0
100
AcDbPoint
 10
-177.8675214458473
 20
-94.94306536155916
 30
0.0
  0
POINT
  5
B9C
330
510
100
AcDbEntity
  8
Defpoints
 62
     0
100
AcDbPoint
 10
-321.0245605746779
 20
-94.94306536155912
 30
0.0
  0
ENDBLK
  5
512
330
510
100
AcDbEntity
  8
0
100
AcDbBlockEnd
  0
BLOCK
  5
51E
330
51D
100
AcDbEntity
  8
0
100
AcDbBlockBegin
  2
*D10
 70
     1
 10
0.0
 20
0.0
 30
0.0
  3
*D10
  1

  0
LINE
  5
B82
330
51D
100
AcDbEntity
  8
SIZE
 62
     0
370
    -2
100
AcDbLine
 10
-96.10252144584741
 20
299.1018538815535
 30
0.0
 11
-296.5943416329831
 21
299.1018538815536
 31
0.0
  0
LINE
  5
B83
330
51D
100
AcDbEntity
  8
SIZE
 62
     0
370
    -2
100
AcDbLine
 10
-195.1025214458475
 20
170.5569346384408
 30
0.0
 11
-296.5943416329831
 21
170.5569346384408
 31
0.0
  0
LINE
  5
B84
330
51D
100
AcDbEntity
  8
SIZE
 62
     0
370
    -2
100
AcDbLine
 10
-290.3443416329831
 20
286.6018538815536
 30
0.0
 11
-290.3443416329831
 21
183.0569346384408
 31
0.0
  0
INSERT
  5
B85
330
51D
100
AcDbEntity
  8
SIZE
 62
     0
370
    -2
100
AcDbBlockReference
  2
_OPEN30
 10
-290.3443416329831
 20
299.1018538815536
 30
0.0
 41
12.5
 42
12.5
 43
12.5
 50
90.0
  0
INSERT
  5
B86
330
51D
100
AcDbEntity
  8
SIZE
 62
     0
370
    -2
100
AcDbBlockReference
  2
_OPEN30
 10
-290.3443416329831
 20
170.5569346384408
 30
0.0
 41
12.5
 42
12.5
 43
12.5
 50
270.0
  0
MTEXT
  5
B87
330
51D
100
AcDbEntity
  8
SIZE
 62
     0
100
AcDbMText
 10
-299.7193416329832
 20
234.8293942599972
 30
0.0
 40
12.5
 41
0.0
 71
     5
 72
     1
  1
128.5
 11
0.0000000000000001
 21
1.0
 31
0.0
 73
     1
 44
1.0
1001
ACAD
1000
MTEXTBEGIN
1070
    73
1070
     1
1070
    44
1040
1.0
1070
    74
1070
     0
1000
MTEXTEND
  0
POINT
  5
B88
330
51D
100
AcDbEntity
  8
Defpoints
 62
     0
100
AcDbPoint
 10
-92.97752144584739
 20
299.1018538815535
 30
0.0
  0
POINT
  5
B89
330
51D
100
AcDbEntity
  8
Defpoints
 62
     0
100
AcDbPoint
 10
-191.9775214458475
 20
170.5569346384408
 30
0.0
  0
POINT
  5
B8A
330
51D
100
AcDbEntity
  8
Defpoints
 62
     0
100
AcDbPoint
 10
-290.3443416329831
 20
170.5569346384408
 30
0.0
  0
ENDBLK
  5
51F
330
51D
100
AcDbEntity
  8
0
100
AcDbBlockEnd
  0
BLOCK
  5
52B
330
52A
100
AcDbEntity
  8
0
100
AcDbBlockBegin
  2
*D11
 70
     1
 10
0.0
 20
0.0
 30
0.0
  3
*D11
  1

  0
LINE
  5
B8B
330
52A
100
AcDbEntity
  8
SIZE
 62
     0
370
    -2
100
AcDbLine
 10
-194.9925214458474
 20
170.5569346384408
 30
0.0
 11
-296.5943416329831
 21
170.5569346384408
 31
0.0
  0
LINE
  5
B8C
330
52A
100
AcDbEntity
  8
SIZE
 62
     0
370
    -2
100
AcDbLine
 10
-195.1025214458475
 20
-81.44306536155914
 30
0.0
 11
-296.5943416329831
 21
-81.44306536155912
 31
0.0
  0
LINE
  5
B8D
330
52A
100
AcDbEntity
  8
SIZE
 62
     0
370
    -2
100
AcDbLine
 10
-290.3443416329831
 20
158.0569346384408
 30
0.0
 11
-290.3443416329831
 21
-68.94306536155912
 31
0.0
  0
INSERT
  5
B8E
330
52A
100
AcDbEntity
  8
SIZE
 62
     0
370
    -2
100
AcDbBlockReference
  2
_OPEN30
 10
-290.3443416329831
 20
170.5569346384408
 30
0.0
 41
12.5
 42
12.5
 43
12.5
 50
90.0
  0
INSERT
  5
B8F
330
52A
100
AcDbEntity
  8
SIZE
 62
     0
370
    -2
100
AcDbBlockReference
  2
_OPEN30
 10
-290.3443416329831
 20
-81.44306536155912
 30
0.0
 41
12.5
 42
12.5
 43
12.5
 50
270.0
  0
MTEXT
  5
B90
330
52A
100
AcDbEntity
  8
SIZE
 62
     0
100
AcDbMText
 10
-299.7193416329831
 20
44.55693463844082
 30
0.0
 40
12.5
 41
0.0
 71
     5
 72
     1
  1
252
 11
0.0000000000000001
 21
1.0
 31
0.0
 73
     1
 44
1.0
1001
ACAD
1000
MTEXTBEGIN
1070
    73
1070
     1
1070
    44
1040
1.0
1070
    74
1070
     0
1000
MTEXTEND
  0
POINT
  5
B91
330
52A
100
AcDbEntity
  8
Defpoints
 62
     0
100
AcDbPoint
 10
-191.8675214458474
 20
170.5569346384408
 30
0.0
  0
POINT
  5
B92
330
52A
100
AcDbEntity
  8
Defpoints
 62
     0
100
AcDbPoint
 10
-191.9775214458475
 20
-81.44306536155914
 30
0.0
  0
POINT
  5
B93
330
52A
100
AcDbEntity
  8
Defpoints
 62
     0
100
AcDbPoint
 10
-290.3443416329831
 20
-81.44306536155912
 30
0.0
  0
ENDBLK
  5
52C
330
52A
100
AcDbEntity
  8
0
100
AcDbBlockEnd
  0
BLOCK
  5
551
330
550
100
AcDbEntity
  8
0
100
AcDbBlockBegin
  2
*D12
 70
     1
 10
0.0
 20
0.0
 30
0.0
  3
*D12
  1

  0
LINE
  5
B79
330
550
100
AcDbEntity
  8
SIZE
 62
     0
370
    -2
100
AcDbLine
 10
-189.3675214458475
 20
176.2919346384408
 30
0.0
 11
-189.3675214458475
 21
367.1461699485448
 31
0.0
  0
LINE
  5
B7A
330
550
100
AcDbEntity
  8
SIZE
 62
     0
370
    -2
100
AcDbLine
 10
-90.86752144584741
 20
304.3368538815535
 30
0.0
 11
-90.86752144584741
 21
367.1461699485448
 31
0.0
  0
LINE
  5
B7B
330
550
100
AcDbEntity
  8
SIZE
 62
     0
370
    -2
100
AcDbLine
 10
-176.8675214458475
 20
360.8961699485448
 30
0.0
 11
-103.3675214458474
 21
360.8961699485448
 31
0.0
  0
INSERT
  5
B7C
330
550
100
AcDbEntity
  8
SIZE
 62
     0
370
    -2
100
AcDbBlockReference
  2
_OPEN30
 10
-189.3675214458475
 20
360.8961699485448
 30
0.0
 41
12.5
 42
12.5
 43
12.5
 50
180.0
  0
INSERT
  5
B7D
330
550
100
AcDbEntity
  8
SIZE
 62
     0
370
    -2
100
AcDbBlockReference
  2
_OPEN30
 10
-90.86752144584741
 20
360.8961699485448
 30
0.0
 41
12.5
 42
12.5
 43
12.5
  0
MTEXT
  5
B7E
330
550
100
AcDbEntity
  8
SIZE
 62
     0
100
AcDbMText
 10
-140.1175214458474
 20
370.2711699485448
 30
0.0
 40
12.5
 41
0.0
 71
     5
 72
     1
  1
98.5
 73
     1
 44
1.0
1001
ACAD
1000
MTEXTBEGIN
1070
    73
1070
     1
1070
    44
1040
1.0
1070
    74
1070
     0
1000
MTEXTEND
  0
POINT
  5
B7F
330
550
100
AcDbEntity
  8
Defpoints
 62
     0
100
AcDbPoint
 10
-189.3675214458475
 20
173.1669346384408
 30
0.0
  0
POINT
  5
B80
330
550
100
AcDbEntity
  8
Defpoints
 62
     0
100
AcDbPoint
 10
-90.86752144584741
 20
301.2118538815535
 30
0.0
  0
POINT
  5
B81
330
550
100
AcDbEntity
  8
Defpoints
 62
     0
100
AcDbPoint
 10
-90.86752144584741
 20
360.8961699485448
 30
0.0
  0
ENDBLK
  5
552
330
550
100
AcDbEntity
  8
0
100
AcDbBlockEnd
  0
BLOCK
  5
55E
330
55D
100
AcDbEntity
  8
0
100
AcDbBlockBegin
  2
*D13
 70
     1
 10
0.0
 20
0.0
 30
0.0
  3
*D13
  1

  0
LINE
  5
B70
330
55D
100
AcDbEntity
  8
SIZE
 62
     0
370
    -2
100
AcDbLine
 10
-90.86752144584741
 20
304.3368538815535
 30
0.0
 11
-90.86752144584741
 21
367.1461699485448
 31
0.0
  0
LINE
  5
B71
330
55D
100
AcDbEntity
  8
SIZE
 62
     0
370
    -2
100
AcDbLine
 10
128.3824785541525
 20
304.3368538815535
 30
0.0
 11
128.3824785541525
 21
367.1461699485448
 31
0.0
  0
LINE
  5
B72
330
55D
100
AcDbEntity
  8
SIZE
 62
     0
370
    -2
100
AcDbLine
 10
-78.3675214458474
 20
360.8961699485448
 30
0.0
 11
115.8824785541525
 21
360.8961699485448
 31
0.0
  0
INSERT
  5
B73
330
55D
100
AcDbEntity
  8
SIZE
 62
     0
370
    -2
100
AcDbBlockReference
  2
_OPEN30
 10
-90.86752144584741
 20
360.8961699485448
 30
0.0
 41
12.5
 42
12.5
 43
12.5
 50
180.0
  0
INSERT
  5
B74
330
55D
100
AcDbEntity
  8
SIZE
 62
     0
370
    -2
100
AcDbBlockReference
  2
_OPEN30
 10
128.3824785541525
 20
360.8961699485448
 30
0.0
 41
12.5
 42
12.5
 43
12.5
  0
MTEXT
  5
B75
330
55D
100
AcDbEntity
  8
SIZE
 62
     0
100
AcDbMText
 10
18.75747855415255
 20
370.2711699485448
 30
0.0
 40
12.5
 41
0.0
 71
     5
 72
     1
  1
219
 73
     1
 44
1.0
1001
ACAD
1000
MTEXTBEGIN
1070
    73
1070
     1
1070
    44
1040
1.0
1070
    74
1070
     0
1000
MTEXTEND
  0
POINT
  5
B76
330
55D
100
AcDbEntity
  8
Defpoints
 62
     0
100
AcDbPoint
 10
-90.86752144584741
 20
301.2118538815535
 30
0.0
  0
POINT
  5
B77
330
55D
100
AcDbEntity
  8
Defpoints
 62
     0
100
AcDbPoint
 10
128.3824785541525
 20
301.2118538815535
 30
0.0
  0
POINT
  5
B78
330
55D
100
AcDbEntity
  8
Defpoints
 62
     0
100
AcDbPoint
 10
128.3824785541525
 20
360.8961699485448
 30
0.0
  0
ENDBLK
  5
55F
330
55D
100
AcDbEntity
  8
0
100
AcDbBlockEnd
  0
BLOCK
  5
56B
330
56A
100
AcDbEntity
  8
0
100
AcDbBlockBegin
  2
*D14
 70
     1
 10
0.0
 20
0.0
 30
0.0
  3
*D14
  1

  0
LINE
  5
B67
330
56A
100
AcDbEntity
  8
SIZE
 62
     0
370
    -2
100
AcDbLine
 10
128.3824785541525
 20
304.3368538815535
 30
0.0
 11
128.3824785541525
 21
367.1461699485448
 31
0.0
  0
LINE
  5
B68
330
56A
100
AcDbEntity
  8
SIZE
 62
     0
370
    -2
100
AcDbLine
 10
347.6324785541526
 20
304.3368538815535
 30
0.0
 11
347.6324785541526
 21
367.1461699485448
 31
0.0
  0
LINE
  5
B69
330
56A
100
AcDbEntity
  8
SIZE
 62
     0
370
    -2
100
AcDbLine
 10
140.8824785541525
 20
360.8961699485448
 30
0.0
 11
335.1324785541527
 21
360.8961699485448
 31
0.0
  0
INSERT
  5
B6A
330
56A
100
AcDbEntity
  8
SIZE
 62
     0
370
    -2
100
AcDbBlockReference
  2
_OPEN30
 10
128.3824785541525
 20
360.8961699485448
 30
0.0
 41
12.5
 42
12.5
 43
12.5
 50
180.0
  0
INSERT
  5
B6B
330
56A
100
AcDbEntity
  8
SIZE
 62
     0
370
    -2
100
AcDbBlockReference
  2
_OPEN30
 10
347.6324785541526
 20
360.8961699485448
 30
0.0
 41
12.5
 42
12.5
 43
12.5
  0
MTEXT
  5
B6C
330
56A
100
AcDbEntity
  8
SIZE
 62
     0
100
AcDbMText
 10
238.0074785541526
 20
370.2711699485448
 30
0.0
 40
12.5
 41
0.0
 71
     5
 72
     1
  1
219
 73
     1
 44
1.0
1001
ACAD
1000
MTEXTBEGIN
1070
    73
1070
     1
1070
    44
1040
1.0
1070
    74
1070
     0
1000
MTEXTEND
  0
POINT
  5
B6D
330
56A
100
AcDbEntity
  8
Defpoints
 62
     0
100
AcDbPoint
 10
128.3824785541525
 20
301.2118538815535
 30
0.0
  0
POINT
  5
B6E
330
56A
100
AcDbEntity
  8
Defpoints
 62
     0
100
AcDbPoint
 10
347.6324785541526
 20
301.2118538815535
 30
0.0
  0
POINT
  5
B6F
330
56A
100
AcDbEntity
  8
Defpoints
 62
     0
100
AcDbPoint
 10
347.6324785541526
 20
360.8961699485448
 30
0.0
  0
ENDBLK
  5
56C
330
56A
100
AcDbEntity
  8
0
100
AcDbBlockEnd
  0
BLOCK
  5
578
330
577
100
AcDbEntity
  8
0
100
AcDbBlockBegin
  2
*D15
 70
     1
 10
0.0
 20
0.0
 30
0.0
  3
*D15
  1

  0
LINE
  5
B5E
330
577
100
AcDbEntity
  8
SIZE
 62
     0
370
    -2
100
AcDbLine
 10
347.6324785541526
 20
304.3368538815535
 30
0.0
 11
347.6324785541526
 21
367.1461699485448
 31
0.0
  0
LINE
  5
B5F
330
577
100
AcDbEntity
  8
SIZE
 62
     0
370
    -2
100
AcDbLine
 10
446.2324785541524
 20
176.2919346384408
 30
0.0
 11
446.2324785541524
 21
367.1461699485448
 31
0.0
  0
LINE
  5
B60
330
577
100
AcDbEntity
  8
SIZE
 62
     0
370
    -2
100
AcDbLine
 10
360.1324785541526
 20
360.8961699485448
 30
0.0
 11
433.7324785541524
 21
360.8961699485448
 31
0.0
  0
INSERT
  5
B61
330
577
100
AcDbEntity
  8
SIZE
 62
     0
370
    -2
100
AcDbBlockReference
  2
_OPEN30
 10
347.6324785541526
 20
360.8961699485448
 30
0.0
 41
12.5
 42
12.5
 43
12.5
 50
180.0
  0
INSERT
  5
B62
330
577
100
AcDbEntity
  8
SIZE
 62
     0
370
    -2
100
AcDbBlockReference
  2
_OPEN30
 10
446.2324785541524
 20
360.8961699485448
 30
0.0
 41
12.5
 42
12.5
 43
12.5
  0
MTEXT
  5
B63
330
577
100
AcDbEntity
  8
SIZE
 62
     0
100
AcDbMText
 10
396.9324785541525
 20
370.2711699485448
 30
0.0
 40
12.5
 41
0.0
 71
     5
 72
     1
  1
98.5
 73
     1
 44
1.0
1001
ACAD
1000
MTEXTBEGIN
1070
    73
1070
     1
1070
    44
1040
1.0
1070
    74
1070
     0
1000
MTEXTEND
  0
POINT
  5
B64
330
577
100
AcDbEntity
  8
Defpoints
 62
     0
100
AcDbPoint
 10
347.6324785541526
 20
301.2118538815535
 30
0.0
  0
POINT
  5
B65
330
577
100
AcDbEntity
  8
Defpoints
 62
     0
100
AcDbPoint
 10
446.2324785541524
 20
173.1669346384408
 30
0.0
  0
POINT
  5
B66
330
577
100
AcDbEntity
  8
Defpoints
 62
     0
100
AcDbPoint
 10
446.2324785541524
 20
360.8961699485448
 30
0.0
  0
ENDBLK
  5
579
330
577
100
AcDbEntity
  8
0
100
AcDbBlockEnd
  0
BLOCK
  5
585
330
584
100
AcDbEntity
  8
0
100
AcDbBlockBegin
  2
*D16
 70
     1
 10
0.0
 20
0.0
 30
0.0
  3
*D16
  1

  0
LINE
  5
B55
330
584
100
AcDbEntity
  8
SIZE
 62
     0
370
    -2
100
AcDbLine
 10
-194.8675214458474
 20
290.6819346384409
 30
0.0
 11
-194.8675214458474
 21
393.1049466339927
 31
0.0
  0
LINE
  5
B56
330
584
100
AcDbEntity
  8
SIZE
 62
     0
370
    -2
100
AcDbLine
 10
451.7324785541525
 20
290.6819346384409
 30
0.0
 11
451.7324785541525
 21
393.1049466339927
 31
0.0
  0
LINE
  5
B57
330
584
100
AcDbEntity
  8
SIZE
 62
     0
370
    -2
100
AcDbLine
 10
-182.3675214458473
 20
386.8549466339927
 30
0.0
 11
439.2324785541525
 21
386.8549466339927
 31
0.0
  0
INSERT
  5
B58
330
584
100
AcDbEntity
  8
SIZE
 62
     0
370
    -2
100
AcDbBlockReference
  2
_OPEN30
 10
-194.8675214458474
 20
386.8549466339927
 30
0.0
 41
12.5
 42
12.5
 43
12.5
 50
180.0
  0
INSERT
  5
B59
330
584
100
AcDbEntity
  8
SIZE
 62
     0
370
    -2
100
AcDbBlockReference
  2
_OPEN30
 10
451.7324785541525
 20
386.8549466339927
 30
0.0
 41
12.5
 42
12.5
 43
12.5
  0
MTEXT
  5
B5A
330
584
100
AcDbEntity
  8
SIZE
 62
     0
100
AcDbMText
 10
128.4324785541525
 20
396.2299466339927
 30
0.0
 40
12.5
 41
0.0
 71
     5
 72
     1
  1
646.5
 73
     1
 44
1.0
1001
ACAD
1000
MTEXTBEGIN
1070
    73
1070
     1
1070
    44
1040
1.0
1070
    74
1070
     0
1000
MTEXTEND
  0
POINT
  5
B5B
330
584
100
AcDbEntity
  8
Defpoints
 62
     0
100
AcDbPoint
 10
-194.8675214458474
 20
287.5569346384409
 30
0.0
  0
POINT
  5
B5C
330
584
100
AcDbEntity
  8
Defpoints
 62
     0
100
AcDbPoint
 10
451.7324785541525
 20
287.5569346384409
 30
0.0
  0
POINT
  5
B5D
330
584
100
AcDbEntity
  8
Defpoints
 62
     0
100
AcDbPoint
 10
451.7324785541525
 20
386.8549466339927
 30
0.0
  0
ENDBLK
  5
586
330
584
100
AcDbEntity
  8
0
100
AcDbBlockEnd
  0
BLOCK
  5
5B0
330
5A7
100
AcDbEntity
  8
0
100
AcDbBlockBegin
  2
*D17
 70
     1
 10
0.0
 20
0.0
 30
0.0
  3
*D17
  1

  0
LINE
  5
5A8
330
5A7
100
AcDbEntity
  8
0
 62
     0
370
    -2
100
AcDbLine
 10
332.1772444865731
 20
476.1848315140488
 30
0.0
 11
139.3277113869145
 21
308.6124731167362
 31
0.0
  0
LINE
  5
5A9
330
5A7
100
AcDbEntity
  8
0
 62
     0
370
    -2
100
AcDbLine
 10
117.4372457213904
 20
289.5912346463706
 30
0.0
 11
108.001700175906
 21
281.3924249608682
 31
0.0
  0
MTEXT
  5
5AA
102
{ACAD_XDICTIONARY
360
2117
102
}
330
5A7
100
AcDbEntity
  8
0
 62
     0
100
AcDbMText
 10
316.0309520611591
 20
474.5746566016179
 30
0.0
 40
12.5
 41
0.0
 71
     5
 72
     1
  1
\U+22054
 11
0.7548436436387595
 21
0.6559047748401909
 31
0.0
 73
     1
 44
1.0
1001
ACAD
1000
MTEXTBEGIN
1070
    73
1070
     1
1070
    44
1040
1.0
1070
    74
1070
     0
1000
MTEXTEND
  0
LINE
  5
5AB
330
5A7
100
AcDbEntity
  8
0
 62
     0
370
    -2
100
AcDbLine
 10
126.8727912668749
 20
297.790044331873
 30
0.0
 11
129.89216584143
 21
300.4136634312339
 31
0.0
  0
INSERT
  5
5AC
330
5A7
100
AcDbEntity
  8
0
 62
     0
370
    -2
100
AcDbBlockReference
  2
_OPEN30
 10
126.8727912668749
 20
297.790044331873
 30
0.0
 41
12.5
 42
12.5
 43
12.5
 50
40.98829042710781
  0
INSERT
  5
5AD
330
5A7
100
AcDbEntity
  8
0
 62
     0
370
    -2
100
AcDbBlockReference
  2
_OPEN30
 10
129.89216584143
 20
300.4136634312339
 30
0.0
 41
12.5
 42
12.5
 43
12.5
 50
220.9882904271078
  0
POINT
  5
5AE
330
5A7
100
AcDbEntity
  8
Defpoints
 62
     0
100
AcDbPoint
 10
129.89216584143
 20
300.4136634312339
 30
0.0
  0
POINT
  5
5AF
330
5A7
100
AcDbEntity
  8
Defpoints
 62
     0
100
AcDbPoint
 10
126.8727912668749
 20
297.790044331873
 30
0.0
  0
ENDBLK
  5
5B1
330
5A7
100
AcDbEntity
  8
0
100
AcDbBlockEnd
  0
BLOCK
  5
5F5
330
5F4
100
AcDbEntity
  8
0
100
AcDbBlockBegin
  2
_DOTBLANK
 70
     0
 10
0.0
 20
0.0
 30
0.0
  3
_DOTBLANK
  1

  0
CIRCLE
  5
5F6
330
5F4
100
AcDbEntity
  8
0
  6
Continuous
 62
     7
100
AcDbCircle
 10
0.0
 20
0.0
 30
0.0
 40
0.5
  0
LINE
  5
5F7
330
5F4
100
AcDbEntity
  8
0
  6
Continuous
 62
     7
100
AcDbLine
 10
-0.5
 20
0.0
 30
0.0
 11
-1.0
 21
0.0
 31
0.0
  0
ENDBLK
  5
5F8
330
5F4
100
AcDbEntity
  8
0
100
AcDbBlockEnd
  0
BLOCK
  5
CAB
330
CA9
100
AcDbEntity
  8
0
100
AcDbBlockBegin
  2
GENAXEH
 70
     0
 10
0.0
 20
0.0
 30
0.0
  3
GENAXEH
  1

  0
LINE
  5
CAA
330
CA9
100
AcDbEntity
  8
0
100
AcDbLine
 10
-1.0
 20
0.0
 30
0.0
 11
1.0
 21
0.0
 31
0.0
  0
ENDBLK
  5
CAC
330
CA9
100
AcDbEntity
  8
0
100
AcDbBlockEnd
  0
BLOCK
  5
E05
330
E04
100
AcDbEntity
  8
0
100
AcDbBlockBegin
  2
*D20
 70
     1
 10
0.0
 20
0.0
 30
0.0
  3
*D20
  1

  0
LINE
  5
E19
330
E04
100
AcDbEntity
  8
SIZE
 62
     0
370
    -2
100
AcDbLine
 10
942.7301558382891
 20
273.1551271195978
 30
0.0
 11
942.7301558382891
 21
400.4089853018022
 31
0.0
  0
LINE
  5
E1A
330
E04
100
AcDbEntity
  8
SIZE
 62
     0
370
    -2
100
AcDbLine
 10
1523.730155838289
 20
299.1551271195979
 30
0.0
 11
1523.730155838289
 21
400.4089853018022
 31
0.0
  0
LINE
  5
E1B
330
E04
100
AcDbEntity
  8
SIZE
 62
     0
370
    -2
100
AcDbLine
 10
955.2301558382891
 20
394.1589853018022
 30
0.0
 11
1511.230155838289
 21
394.1589853018022
 31
0.0
  0
INSERT
  5
E1C
330
E04
100
AcDbEntity
  8
SIZE
 62
     0
370
    -2
100
AcDbBlockReference
  2
_OPEN30
 10
942.7301558382891
 20
394.1589853018022
 30
0.0
 41
12.5
 42
12.5
 43
12.5
 50
180.0
  0
INSERT
  5
E1D
330
E04
100
AcDbEntity
  8
SIZE
 62
     0
370
    -2
100
AcDbBlockReference
  2
_OPEN30
 10
1523.730155838289
 20
394.1589853018022
 30
0.0
 41
12.5
 42
12.5
 43
12.5
  0
MTEXT
  5
E1E
330
E04
100
AcDbEntity
  8
SIZE
 62
     0
100
AcDbMText
 10
1233.230155838289
 20
403.5339853018022
 30
0.0
 40
12.5
 41
0.0
 71
     5
 72
     1
  1
581
 73
     1
 44
1.0
1001
ACAD
1000
MTEXTBEGIN
1070
    73
1070
     1
1070
    44
1040
1.0
1070
    74
1070
     0
1000
MTEXTEND
  0
POINT
  5
E1F
330
E04
100
AcDbEntity
  8
Defpoints
 62
     0
100
AcDbPoint
 10
942.7301558382891
 20
270.0301271195978
 30
0.0
  0
POINT
  5
E20
330
E04
100
AcDbEntity
  8
Defpoints
 62
     0
100
AcDbPoint
 10
1523.730155838289
 20
296.0301271195979
 30
0.0
  0
POINT
  5
E21
330
E04
100
AcDbEntity
  8
Defpoints
 62
     0
100
AcDbPoint
 10
1523.730155838289
 20
394.1589853018022
 30
0.0
  0
ENDBLK
  5
E06
330
E04
100
AcDbEntity
  8
0
100
AcDbBlockEnd
  0
BLOCK
  5
E24
330
E23
100
AcDbEntity
  8
0
100
AcDbBlockBegin
  2
*D21
 70
     1
 10
0.0
 20
0.0
 30
0.0
  3
*D21
  1

  0
LINE
  5
E26
330
E23
100
AcDbEntity
  8
SIZE
 62
     0
370
    -2
100
AcDbLine
 10
932.1051558382892
 20
262.5301271195978
 30
0.0
 11
884.3233845579055
 21
262.5301271195979
 31
0.0
  0
LINE
  5
E27
330
E23
100
AcDbEntity
  8
SIZE
 62
     0
370
    -2
100
AcDbLine
 10
932.1051558382892
 20
-115.4698728804023
 30
0.0
 11
884.3233845579055
 21
-115.4698728804023
 31
0.0
  0
LINE
  5
E28
330
E23
100
AcDbEntity
  8
SIZE
 62
     0
370
    -2
100
AcDbLine
 10
890.5733845579055
 20
250.0301271195978
 30
0.0
 11
890.5733845579055
 21
-102.9698728804023
 31
0.0
  0
INSERT
  5
E29
330
E23
100
AcDbEntity
  8
SIZE
 62
     0
370
    -2
100
AcDbBlockReference
  2
_OPEN30
 10
890.5733845579055
 20
262.5301271195979
 30
0.0
 41
12.5
 42
12.5
 43
12.5
 50
90.0
  0
INSERT
  5
E2A
330
E23
100
AcDbEntity
  8
SIZE
 62
     0
370
    -2
100
AcDbBlockReference
  2
_OPEN30
 10
890.5733845579055
 20
-115.4698728804023
 30
0.0
 41
12.5
 42
12.5
 43
12.5
 50
270.0
  0
MTEXT
  5
E2B
330
E23
100
AcDbEntity
  8
SIZE
 62
     0
100
AcDbMText
 10
881.1983845579055
 20
73.53012711959792
 30
0.0
 40
12.5
 41
0.0
 71
     5
 72
     1
  1
378
 11
0.0000000000000001
 21
1.0
 31
0.0
 73
     1
 44
1.0
1001
ACAD
1000
MTEXTBEGIN
1070
    73
1070
     1
1070
    44
1040
1.0
1070
    74
1070
     0
1000
MTEXTEND
  0
POINT
  5
E2C
330
E23
100
AcDbEntity
  8
Defpoints
 62
     0
100
AcDbPoint
 10
935.2301558382892
 20
262.5301271195978
 30
0.0
  0
POINT
  5
E2D
330
E23
100
AcDbEntity
  8
Defpoints
 62
     0
100
AcDbPoint
 10
935.2301558382892
 20
-115.4698728804023
 30
0.0
  0
POINT
  5
E2E
330
E23
100
AcDbEntity
  8
Defpoints
 62
     0
100
AcDbPoint
 10
890.5733845579055
 20
-115.4698728804023
 30
0.0
  0
ENDBLK
  5
E25
330
E23
100
AcDbEntity
  8
0
100
AcDbBlockEnd
  0
BLOCK
  5
E31
330
E30
100
AcDbEntity
  8
0
100
AcDbBlockBegin
  2
*D22
 70
     1
 10
0.0
 20
0.0
 30
0.0
  3
*D22
  1

  0
LINE
  5
E49
330
E30
100
AcDbEntity
  8
SIZE
 62
     0
370
    -2
100
AcDbLine
 10
1534.355155838289
 20
-91.46987288040206
 30
0.0
 11
1580.755539420778
 21
-91.46987288040206
 31
0.0
  0
LINE
  5
E4A
330
E30
100
AcDbEntity
  8
SIZE
 62
     0
370
    -2
100
AcDbLine
 10
1534.355155838289
 20
98.53012711959793
 30
0.0
 11
1580.755539420778
 21
98.53012711959793
 31
0.0
  0
LINE
  5
E4B
330
E30
100
AcDbEntity
  8
SIZE
 62
     0
370
    -2
100
AcDbLine
 10
1574.505539420778
 20
-78.96987288040209
 30
0.0
 11
1574.505539420778
 21
86.0301271195979
 31
0.0
  0
INSERT
  5
E4C
330
E30
100
AcDbEntity
  8
SIZE
 62
     0
370
    -2
100
AcDbBlockReference
  2
_OPEN30
 10
1574.505539420778
 20
-91.46987288040206
 30
0.0
 41
12.5
 42
12.5
 43
12.5
 50
270.0
  0
INSERT
  5
E4D
330
E30
100
AcDbEntity
  8
SIZE
 62
     0
370
    -2
100
AcDbBlockReference
  2
_OPEN30
 10
1574.505539420778
 20
98.53012711959793
 30
0.0
 41
12.5
 42
12.5
 43
12.5
 50
90.0
  0
MTEXT
  5
E4E
330
E30
100
AcDbEntity
  8
SIZE
 62
     0
100
AcDbMText
 10
1565.130539420778
 20
3.530127119598163
 30
0.0
 40
12.5
 41
0.0
 71
     5
 72
     1
  1
190
 11
0.0000000000000001
 21
1.0
 31
0.0
 73
     1
 44
1.0
1001
ACAD
1000
MTEXTBEGIN
1070
    73
1070
     1
1070
    44
1040
1.0
1070
    74
1070
     0
1000
MTEXTEND
  0
POINT
  5
E4F
330
E30
100
AcDbEntity
  8
Defpoints
 62
     0
100
AcDbPoint
 10
1531.230155838289
 20
-91.46987288040206
 30
0.0
  0
POINT
  5
E50
330
E30
100
AcDbEntity
  8
Defpoints
 62
     0
100
AcDbPoint
 10
1531.230155838289
 20
98.53012711959793
 30
0.0
  0
POINT
  5
E51
330
E30
100
AcDbEntity
  8
Defpoints
 62
     0
100
AcDbPoint
 10
1574.505539420778
 20
98.53012711959793
 30
0.0
  0
ENDBLK
  5
E32
330
E30
100
AcDbEntity
  8
0
100
AcDbBlockEnd
  0
BLOCK
  5
E3E
330
E3D
100
AcDbEntity
  8
0
100
AcDbBlockBegin
  2
*D23
 70
     1
 10
0.0
 20
0.0
 30
0.0
  3
*D23
  1

  0
LINE
  5
E40
330
E3D
100
AcDbEntity
  8
SIZE
 62
     0
370
    -2
100
AcDbLine
 10
1534.355155838289
 20
98.53012711959793
 30
0.0
 11
1580.755539420778
 21
98.53012711959793
 31
0.0
  0
LINE
  5
E41
330
E3D
100
AcDbEntity
  8
SIZE
 62
     0
370
    -2
100
AcDbLine
 10
1534.355155838289
 20
288.5301271195979
 30
0.0
 11
1580.755539420778
 21
288.5301271195979
 31
0.0
  0
LINE
  5
E42
330
E3D
100
AcDbEntity
  8
SIZE
 62
     0
370
    -2
100
AcDbLine
 10
1574.505539420778
 20
111.0301271195979
 30
0.0
 11
1574.505539420778
 21
276.0301271195979
 31
0.0
  0
INSERT
  5
E43
330
E3D
100
AcDbEntity
  8
SIZE
 62
     0
370
    -2
100
AcDbBlockReference
  2
_OPEN30
 10
1574.505539420778
 20
98.53012711959793
 30
0.0
 41
12.5
 42
12.5
 43
12.5
 50
270.0
  0
INSERT
  5
E44
330
E3D
100
AcDbEntity
  8
SIZE
 62
     0
370
    -2
100
AcDbBlockReference
  2
_OPEN30
 10
1574.505539420778
 20
288.5301271195979
 30
0.0
 41
12.5
 42
12.5
 43
12.5
 50
90.0
  0
MTEXT
  5
E45
330
E3D
100
AcDbEntity
  8
SIZE
 62
     0
100
AcDbMText
 10
1565.130539420778
 20
193.5301271195982
 30
0.0
 40
12.5
 41
0.0
 71
     5
 72
     1
  1
190
 11
0.0000000000000001
 21
1.0
 31
0.0
 73
     1
 44
1.0
1001
ACAD
1000
MTEXTBEGIN
1070
    73
1070
     1
1070
    44
1040
1.0
1070
    74
1070
     0
1000
MTEXTEND
  0
POINT
  5
E46
330
E3D
100
AcDbEntity
  8
Defpoints
 62
     0
100
AcDbPoint
 10
1531.230155838289
 20
98.53012711959793
 30
0.0
  0
POINT
  5
E47
330
E3D
100
AcDbEntity
  8
Defpoints
 62
     0
100
AcDbPoint
 10
1531.230155838289
 20
288.5301271195979
 30
0.0
  0
POINT
  5
E48
330
E3D
100
AcDbEntity
  8
Defpoints
 62
     0
100
AcDbPoint
 10
1574.505539420778
 20
288.5301271195979
 30
0.0
  0
ENDBLK
  5
E3F
330
E3D
100
AcDbEntity
  8
0
100
AcDbBlockEnd
  0
BLOCK
  5
E54
330
E53
100
AcDbEntity
  8
0
100
AcDbBlockBegin
  2
*D24
 70
     1
 10
0.0
 20
0.0
 30
0.0
  3
*D24
  1

  0
LINE
  5
E56
330
E53
100
AcDbEntity
  8
SIZE
 62
     0
370
    -2
100
AcDbLine
 10
937.2301558382892
 20
308.6551271195978
 30
0.0
 11
937.2301558382892
 21
426.3663799969978
 31
0.0
  0
LINE
  5
E57
330
E53
100
AcDbEntity
  8
SIZE
 62
     0
370
    -2
100
AcDbLine
 10
1531.430155838289
 20
308.6551271195978
 30
0.0
 11
1531.430155838289
 21
426.3663799969978
 31
0.0
  0
LINE
  5
E58
330
E53
100
AcDbEntity
  8
SIZE
 62
     0
370
    -2
100
AcDbLine
 10
949.7301558382892
 20
420.1163799969978
 30
0.0
 11
1518.930155838289
 21
420.1163799969978
 31
0.0
  0
INSERT
  5
E59
330
E53
100
AcDbEntity
  8
SIZE
 62
     0
370
    -2
100
AcDbBlockReference
  2
_OPEN30
 10
937.2301558382892
 20
420.1163799969978
 30
0.0
 41
12.5
 42
12.5
 43
12.5
 50
180.0
  0
INSERT
  5
E5A
330
E53
100
AcDbEntity
  8
SIZE
 62
     0
370
    -2
100
AcDbBlockReference
  2
_OPEN30
 10
1531.430155838289
 20
420.1163799969978
 30
0.0
 41
12.5
 42
12.5
 43
12.5
  0
MTEXT
  5
E5B
330
E53
100
AcDbEntity
  8
SIZE
 62
     0
100
AcDbMText
 10
1234.330155838289
 20
429.4913799969978
 30
0.0
 40
12.5
 41
0.0
 71
     5
 72
     1
  1
594
 73
     1
 44
1.0
1001
ACAD
1000
MTEXTBEGIN
1070
    73
1070
     1
1070
    44
1040
1.0
1070
    74
1070
     0
1000
MTEXTEND
  0
POINT
  5
E5C
330
E53
100
AcDbEntity
  8
Defpoints
 62
     0
100
AcDbPoint
 10
937.2301558382892
 20
305.5301271195978
 30
0.0
  0
POINT
  5
E5D
330
E53
100
AcDbEntity
  8
Defpoints
 62
     0
100
AcDbPoint
 10
1531.430155838289
 20
305.5301271195978
 30
0.0
  0
POINT
  5
E5E
330
E53
100
AcDbEntity
  8
Defpoints
 62
     0
100
AcDbPoint
 10
1531.430155838289
 20
420.1163799969978
 30
0.0
  0
ENDBLK
  5
E55
330
E53
100
AcDbEntity
  8
0
100
AcDbBlockEnd
  0
BLOCK
  5
E61
330
E60
100
AcDbEntity
  8
0
100
AcDbBlockBegin
  2
*D25
 70
     1
 10
0.0
 20
0.0
 30
0.0
  3
*D25
  1

  0
LINE
  5
E63
330
E60
100
AcDbEntity
  8
SIZE
 62
     0
370
    -2
100
AcDbLine
 10
948.1051558382892
 20
344.3878407789989
 30
0.0
 11
852.1332673249457
 21
344.3878407789989
 31
0.0
  0
LINE
  5
E64
330
E60
100
AcDbEntity
  8
SIZE
 62
     0
370
    -2
100
AcDbLine
 10
937.1051558382891
 20
-122.4698728804023
 30
0.0
 11
852.1332673249455
 21
-122.4698728804022
 31
0.0
  0
LINE
  5
E65
330
E60
100
AcDbEntity
  8
SIZE
 62
     0
370
    -2
100
AcDbLine
 10
858.3832673249457
 20
331.8878407789989
 30
0.0
 11
858.3832673249455
 21
-109.9698728804022
 31
0.0
  0
INSERT
  5
E66
330
E60
100
AcDbEntity
  8
SIZE
 62
     0
370
    -2
100
AcDbBlockReference
  2
_OPEN30
 10
858.3832673249457
 20
344.3878407789989
 30
0.0
 41
12.5
 42
12.5
 43
12.5
 50
90.0
  0
INSERT
  5
E67
330
E60
100
AcDbEntity
  8
SIZE
 62
     0
370
    -2
100
AcDbBlockReference
  2
_OPEN30
 10
858.3832673249455
 20
-122.4698728804022
 30
0.0
 41
12.5
 42
12.5
 43
12.5
 50
270.0
  0
MTEXT
  5
E68
330
E60
100
AcDbEntity
  8
SIZE
 62
     0
100
AcDbMText
 10
849.0082673249455
 20
110.9589839492984
 30
0.0
 40
12.5
 41
0.0
 71
     5
 72
     1
  1
467
 11
0.0000000000000001
 21
1.0
 31
0.0
 73
     1
 44
1.0
1001
ACAD
1000
MTEXTBEGIN
1070
    73
1070
     1
1070
    44
1040
1.0
1070
    74
1070
     0
1000
MTEXTEND
  0
POINT
  5
E69
330
E60
100
AcDbEntity
  8
Defpoints
 62
     0
100
AcDbPoint
 10
951.2301558382892
 20
344.3878407789989
 30
0.0
  0
POINT
  5
E6A
330
E60
100
AcDbEntity
  8
Defpoints
 62
     0
100
AcDbPoint
 10
940.2301558382891
 20
-122.4698728804023
 30
0.0
  0
POINT
  5
E6B
330
E60
100
AcDbEntity
  8
Defpoints
 62
     0
100
AcDbPoint
 10
858.3832673249455
 20
-122.4698728804022
 30
0.0
  0
ENDBLK
  5
E62
330
E60
100
AcDbEntity
  8
0
100
AcDbBlockEnd
  0
BLOCK
  5
E6F
330
E6E
100
AcDbEntity
  8
0
100
AcDbBlockBegin
  2
*D26
 70
     1
 10
0.0
 20
0.0
 30
0.0
  3
*D26
  1

  0
LINE
  5
F34
330
E6E
100
AcDbEntity
  8
NOTE
100
AcDbLine
 10
935.4800947925916
 20
-128.6013851632141
 30
0.0
 11
911.1040675652548
 21
-172.7519238861719
 31
0.0
  0
LINE
  5
F35
330
E6E
100
AcDbEntity
  8
NOTE
100
AcDbLine
 10
911.1040675652548
 20
-172.7519238861719
 30
0.0
 11
859.5564485176357
 21
-172.7519238861719
 31
0.0
  0
INSERT
  5
F36
330
E6E
100
AcDbEntity
  8
NOTE
100
AcDbBlockReference
  2
_OPEN30
 10
941.521812330674
 20
-117.6584582608708
 30
0.0
 41
12.5
 42
12.5
 43
12.5
 50
61.09639910420424
  0
MTEXT
  5
F37
102
{ACAD_XDICTIONARY
360
211B
102
}
330
E6E
100
AcDbEntity
  8
NOTE
100
AcDbMText
 10
882.8302580414447
 20
-161.5019238861717
 30
0.0
 40
12.5
 41
0.0
 71
     5
 72
     1
  1
2×\U+22055
 73
     1
 44
1.0
1001
ACAD
1000
MTEXTBEGIN
1070
    73
1070
     1
1070
    44
1040
1.0
1070
    74
1070
     0
1000
MTEXTEND
  0
POINT
  5
F38
330
E6E
100
AcDbEntity
  8
Defpoints
 62
     0
100
AcDbPoint
 10
941.521812330674
 20
-117.6584582608708
 30
0.0
  0
POINT
  5
F39
330
E6E
100
AcDbEntity
  8
Defpoints
 62
     0
100
AcDbPoint
 10
943.9384993459066
 20
-113.2812874999337
 30
0.0
  0
ENDBLK
  5
E70
330
E6E
100
AcDbEntity
  8
0
100
AcDbBlockEnd
  0
BLOCK
  5
E7B
330
E7A
100
AcDbEntity
  8
0
100
AcDbBlockBegin
  2
*D27
 70
     1
 10
0.0
 20
0.0
 30
0.0
  3
*D27
  1

  0
LINE
  5
E7D
330
E7A
100
AcDbEntity
  8
SIZE
 62
     0
370
    -2
100
AcDbLine
 10
1575.595814354261
 20
-169.6871278360012
 30
0.0
 11
1532.019742186388
 21
-103.9711831388275
 31
0.0
  0
LINE
  5
E7E
330
E7A
100
AcDbEntity
  8
SIZE
 62
     0
370
    -2
100
AcDbLine
 10
1515.44056949019
 20
-78.96856262197663
 30
0.0
 11
1508.532580866775
 21
-68.55080407328876
 31
0.0
  0
MTEXT
  5
E7F
102
{ACAD_XDICTIONARY
360
2119
102
}
330
E7A
100
AcDbEntity
  8
SIZE
 62
     0
100
AcDbMText
 10
1576.254430762953
 20
-153.7163150144412
 30
0.0
 40
12.5
 41
0.0
 71
     5
 72
     1
  1
\U+22055
 11
0.5526390898732614
 21
-0.8334206838950263
 31
0.0
 73
     1
 44
1.0
1001
ACAD
1000
MTEXTBEGIN
1070
    73
1070
     1
1070
    44
1040
1.0
1070
    74
1070
     0
1000
MTEXTEND
  0
LINE
  5
E80
330
E7A
100
AcDbEntity
  8
SIZE
 62
     0
370
    -2
100
AcDbLine
 10
1522.348558113606
 20
-89.38632117066438
 30
0.0
 11
1525.111753562972
 21
-93.5534245901397
 31
0.0
  0
INSERT
  5
E81
330
E7A
100
AcDbEntity
  8
SIZE
 62
     0
370
    -2
100
AcDbBlockReference
  2
_OPEN30
 10
1522.348558113606
 20
-89.38632117066438
 30
0.0
 41
12.5
 42
12.5
 43
12.5
 50
303.5482546257838
  0
INSERT
  5
E82
330
E7A
100
AcDbEntity
  8
SIZE
 62
     0
370
    -2
100
AcDbBlockReference
  2
_OPEN30
 10
1525.111753562972
 20
-93.5534245901397
 30
0.0
 41
12.5
 42
12.5
 43
12.5
 50
123.5482546257838
  0
POINT
  5
E83
330
E7A
100
AcDbEntity
  8
Defpoints
 62
     0
100
AcDbPoint
 10
1525.111753562972
 20
-93.5534245901397
 30
0.0
  0
POINT
  5
E84
330
E7A
100
AcDbEntity
  8
Defpoints
 62
     0
100
AcDbPoint
 10
1522.348558113606
 20
-89.38632117066438
 30
0.0
  0
ENDBLK
  5
E7C
330
E7A
100
AcDbEntity
  8
0
100
AcDbBlockEnd
  0
BLOCK
  5
F3C
330
F3B
100
AcDbEntity
  8
0
100
AcDbBlockBegin
  2
*D28
 70
     1
 10
0.0
 20
0.0
 30
0.0
  3
*D28
  1

  0
LINE
  5
F70
330
F3B
100
AcDbEntity
  8
NOTE
100
AcDbLine
 10
1529.232359560419
 20
-105.4242898943861
 30
0.0
 11
1551.223476034805
 21
-161.197072107522
 31
0.0
  0
LINE
  5
F71
330
F3B
100
AcDbEntity
  8
NOTE
100
AcDbLine
 10
1551.223476034805
 20
-161.197072107522
 30
0.0
 11
1602.771095082425
 21
-161.1970721075218
 31
0.0
  0
INSERT
  5
F72
330
F3B
100
AcDbEntity
  8
NOTE
100
AcDbBlockReference
  2
_OPEN30
 10
1524.647189791977
 20
-93.7956090493992
 30
0.0
 41
12.5
 42
12.5
 43
12.5
 50
111.5192363014122
  0
MTEXT
  5
F73
102
{ACAD_XDICTIONARY
360
211D
102
}
330
F3B
100
AcDbEntity
  8
NOTE
100
AcDbMText
 10
1579.497285558616
 20
-149.9470721075213
 30
0.0
 40
12.5
 41
0.0
 71
     5
 72
     1
  1
3×\U+22055
 73
     1
 44
1.0
1001
ACAD
1000
MTEXTBEGIN
1070
    73
1070
     1
1070
    44
1040
1.0
1070
    74
1070
     0
1000
MTEXTEND
  0
POINT
  5
F74
330
F3B
100
AcDbEntity
  8
Defpoints
 62
     0
100
AcDbPoint
 10
1524.647189791977
 20
-93.7956090493992
 30
0.0
  0
POINT
  5
F75
330
F3B
100
AcDbEntity
  8
Defpoints
 62
     0
100
AcDbPoint
 10
1522.8131218846
 20
-89.1441367114047
 30
0.0
  0
ENDBLK
  5
F3D
330
F3B
100
AcDbEntity
  8
0
100
AcDbBlockEnd
  0
BLOCK
  5
11A4
330
11A3
100
AcDbEntity
  8
0
100
AcDbBlockBegin
  2
*D29
 70
     1
 10
0.0
 20
0.0
 30
0.0
  3
*D29
  1

  0
LINE
  5
11A6
330
11A3
100
AcDbEntity
  8
SIZE
 62
     0
370
    -2
100
AcDbLine
 10
1844.057454288908
 20
206.8920379782694
 30
0.0
 11
1799.356000948041
 21
206.8920379782694
 31
0.0
  0
LINE
  5
11A7
330
11A3
100
AcDbEntity
  8
SIZE
 62
     0
370
    -2
100
AcDbLine
 10
1844.057454288908
 20
-45.10796202173064
 30
0.0
 11
1799.356000948041
 21
-45.10796202173064
 31
0.0
  0
LINE
  5
11A8
330
11A3
100
AcDbEntity
  8
SIZE
 62
     0
370
    -2
100
AcDbLine
 10
1805.606000948041
 20
194.3920379782693
 30
0.0
 11
1805.606000948041
 21
-32.60796202173064
 31
0.0
  0
INSERT
  5
11A9
330
11A3
100
AcDbEntity
  8
SIZE
 62
     0
370
    -2
100
AcDbBlockReference
  2
_OPEN30
 10
1805.606000948041
 20
206.8920379782694
 30
0.0
 41
12.5
 42
12.5
 43
12.5
 50
90.0
  0
INSERT
  5
11AA
330
11A3
100
AcDbEntity
  8
SIZE
 62
     0
370
    -2
100
AcDbBlockReference
  2
_OPEN30
 10
1805.606000948041
 20
-45.10796202173064
 30
0.0
 41
12.5
 42
12.5
 43
12.5
 50
270.0
  0
MTEXT
  5
11AB
330
11A3
100
AcDbEntity
  8
SIZE
 62
     0
100
AcDbMText
 10
1796.231000948041
 20
80.89203797826963
 30
0.0
 40
12.5
 41
0.0
 71
     5
 72
     1
  1
252
 11
0.0000000000000001
 21
1.0
 31
0.0
 73
     1
 44
1.0
1001
ACAD
1000
MTEXTBEGIN
1070
    73
1070
     1
1070
    44
1040
1.0
1070
    74
1070
     0
1000
MTEXTEND
  0
POINT
  5
11AC
330
11A3
100
AcDbEntity
  8
Defpoints
 62
     0
100
AcDbPoint
 10
1847.182454288908
 20
206.8920379782694
 30
0.0
  0
POINT
  5
11AD
330
11A3
100
AcDbEntity
  8
Defpoints
 62
     0
100
AcDbPoint
 10
1847.182454288908
 20
-45.10796202173064
 30
0.0
  0
POINT
  5
11AE
330
11A3
100
AcDbEntity
  8
Defpoints
 62
     0
100
AcDbPoint
 10
1805.606000948041
 20
-45.10796202173064
 30
0.0
  0
ENDBLK
  5
11A5
330
11A3
100
AcDbEntity
  8
0
100
AcDbBlockEnd
  0
BLOCK
  5
11B1
330
11B0
100
AcDbEntity
  8
0
100
AcDbBlockBegin
  2
*D30
 70
     1
 10
0.0
 20
0.0
 30
0.0
  3
*D30
  1

  0
LINE
  5
11BC
330
11B0
100
AcDbEntity
  8
SIZE
 62
     0
370
    -2
100
AcDbLine
 10
1943.057454288908
 20
335.3920379782696
 30
0.0
 11
1799.356000948041
 21
335.3920379782696
 31
0.0
  0
LINE
  5
11BD
330
11B0
100
AcDbEntity
  8
SIZE
 62
     0
370
    -2
100
AcDbLine
 10
1844.057454288908
 20
206.8920379782694
 30
0.0
 11
1799.356000948041
 21
206.8920379782694
 31
0.0
  0
LINE
  5
11BE
330
11B0
100
AcDbEntity
  8
SIZE
 62
     0
370
    -2
100
AcDbLine
 10
1805.606000948041
 20
322.8920379782696
 30
0.0
 11
1805.606000948041
 21
219.3920379782694
 31
0.0
  0
INSERT
  5
11BF
330
11B0
100
AcDbEntity
  8
SIZE
 62
     0
370
    -2
100
AcDbBlockReference
  2
_OPEN30
 10
1805.606000948041
 20
335.3920379782696
 30
0.0
 41
12.5
 42
12.5
 43
12.5
 50
90.0
  0
INSERT
  5
11C0
330
11B0
100
AcDbEntity
  8
SIZE
 62
     0
370
    -2
100
AcDbBlockReference
  2
_OPEN30
 10
1805.606000948041
 20
206.8920379782694
 30
0.0
 41
12.5
 42
12.5
 43
12.5
 50
270.0
  0
MTEXT
  5
11C1
330
11B0
100
AcDbEntity
  8
SIZE
 62
     0
100
AcDbMText
 10
1796.231000948041
 20
271.1420379782698
 30
0.0
 40
12.5
 41
0.0
 71
     5
 72
     1
  1
129
 11
0.0000000000000001
 21
1.0
 31
0.0
 73
     1
 44
1.0
1001
ACAD
1000
MTEXTBEGIN
1070
    73
1070
     1
1070
    44
1040
1.0
1070
    74
1070
     0
1000
MTEXTEND
  0
POINT
  5
11C2
330
11B0
100
AcDbEntity
  8
Defpoints
 62
     0
100
AcDbPoint
 10
1946.182454288908
 20
335.3920379782696
 30
0.0
  0
POINT
  5
11C3
330
11B0
100
AcDbEntity
  8
Defpoints
 62
     0
100
AcDbPoint
 10
1847.182454288908
 20
206.8920379782694
 30
0.0
  0
POINT
  5
11C4
330
11B0
100
AcDbEntity
  8
Defpoints
 62
     0
100
AcDbPoint
 10
1805.606000948041
 20
206.8920379782694
 30
0.0
  0
ENDBLK
  5
11B2
330
11B0
100
AcDbEntity
  8
0
100
AcDbBlockEnd
  0
BLOCK
  5
11C7
330
11C6
100
AcDbEntity
  8
0
100
AcDbBlockBegin
  2
*D31
 70
     1
 10
0.0
 20
0.0
 30
0.0
  3
*D31
  1

  0
LINE
  5
11C9
330
11C6
100
AcDbEntity
  8
SIZE
 62
     0
370
    -2
100
AcDbLine
 10
1911.057454288907
 20
340.3920379782696
 30
0.0
 11
1772.739404003297
 21
340.3920379782696
 31
0.0
  0
LINE
  5
11CA
330
11C6
100
AcDbEntity
  8
SIZE
 62
     0
370
    -2
100
AcDbLine
 10
1844.857454288908
 20
-58.60796202173087
 30
0.0
 11
1772.739404003297
 21
-58.60796202173085
 31
0.0
  0
LINE
  5
11CB
330
11C6
100
AcDbEntity
  8
SIZE
 62
     0
370
    -2
100
AcDbLine
 10
1778.989404003297
 20
327.8920379782696
 30
0.0
 11
1778.989404003297
 21
-46.10796202173086
 31
0.0
  0
INSERT
  5
11CC
330
11C6
100
AcDbEntity
  8
SIZE
 62
     0
370
    -2
100
AcDbBlockReference
  2
_OPEN30
 10
1778.989404003297
 20
340.3920379782696
 30
0.0
 41
12.5
 42
12.5
 43
12.5
 50
90.0
  0
INSERT
  5
11CD
330
11C6
100
AcDbEntity
  8
SIZE
 62
     0
370
    -2
100
AcDbBlockReference
  2
_OPEN30
 10
1778.989404003297
 20
-58.60796202173086
 30
0.0
 41
12.5
 42
12.5
 43
12.5
 50
270.0
  0
MTEXT
  5
11CE
330
11C6
100
AcDbEntity
  8
SIZE
 62
     0
100
AcDbMText
 10
1769.614404003297
 20
140.8920379782696
 30
0.0
 40
12.5
 41
0.0
 71
     5
 72
     1
  1
399
 11
0.0000000000000001
 21
1.0
 31
0.0
 73
     1
 44
1.0
1001
ACAD
1000
MTEXTBEGIN
1070
    73
1070
     1
1070
    44
1040
1.0
1070
    74
1070
     0
1000
MTEXTEND
  0
POINT
  5
11CF
330
11C6
100
AcDbEntity
  8
Defpoints
 62
     0
100
AcDbPoint
 10
1914.182454288907
 20
340.3920379782696
 30
0.0
  0
POINT
  5
11D0
330
11C6
100
AcDbEntity
  8
Defpoints
 62
     0
100
AcDbPoint
 10
1847.982454288908
 20
-58.60796202173087
 30
0.0
  0
POINT
  5
11D1
330
11C6
100
AcDbEntity
  8
Defpoints
 62
     0
100
AcDbPoint
 10
1778.989404003297
 20
-58.60796202173086
 30
0.0
  0
ENDBLK
  5
11C8
330
11C6
100
AcDbEntity
  8
0
100
AcDbBlockEnd
  0
BLOCK
  5
11D4
330
11D3
100
AcDbEntity
  8
0
100
AcDbBlockBegin
  2
*D32
 70
     1
 10
0.0
 20
0.0
 30
0.0
  3
*D32
  1

  0
LINE
  5
11D6
330
11D3
100
AcDbEntity
  8
SIZE
 62
     0
370
    -2
100
AcDbLine
 10
1951.182454288908
 20
343.5170379782696
 30
0.0
 11
1951.182454288908
 21
374.7705869108813
 31
0.0
  0
LINE
  5
11D7
330
11D3
100
AcDbEntity
  8
SIZE
 62
     0
370
    -2
100
AcDbLine
 10
2191.932454288907
 20
358.2617727666653
 30
0.0
 11
2191.932454288907
 21
374.7705869108813
 31
0.0
  0
LINE
  5
11D8
330
11D3
100
AcDbEntity
  8
SIZE
 62
     0
370
    -2
100
AcDbLine
 10
1963.682454288908
 20
368.5205869108813
 30
0.0
 11
2179.432454288907
 21
368.5205869108813
 31
0.0
  0
INSERT
  5
11D9
330
11D3
100
AcDbEntity
  8
SIZE
 62
     0
370
    -2
100
AcDbBlockReference
  2
_OPEN30
 10
1951.182454288908
 20
368.5205869108813
 30
0.0
 41
12.5
 42
12.5
 43
12.5
 50
180.0
  0
INSERT
  5
11DA
330
11D3
100
AcDbEntity
  8
SIZE
 62
     0
370
    -2
100
AcDbBlockReference
  2
_OPEN30
 10
2191.932454288907
 20
368.5205869108813
 30
0.0
 41
12.5
 42
12.5
 43
12.5
  0
MTEXT
  5
11DB
330
11D3
100
AcDbEntity
  8
SIZE
 62
     0
100
AcDbMText
 10
2071.557454288908
 20
377.8955869108813
 30
0.0
 40
12.5
 41
0.0
 71
     5
 72
     1
  1
241
 73
     1
 44
1.0
1001
ACAD
1000
MTEXTBEGIN
1070
    73
1070
     1
1070
    44
1040
1.0
1070
    74
1070
     0
1000
MTEXTEND
  0
POINT
  5
11DC
330
11D3
100
AcDbEntity
  8
Defpoints
 62
     0
100
AcDbPoint
 10
1951.182454288908
 20
340.3920379782696
 30
0.0
  0
POINT
  5
11DD
330
11D3
100
AcDbEntity
  8
Defpoints
 62
     0
100
AcDbPoint
 10
2191.932454288907
 20
355.1367727666653
 30
0.0
  0
POINT
  5
11DE
330
11D3
100
AcDbEntity
  8
Defpoints
 62
     0
100
AcDbPoint
 10
2191.932454288907
 20
368.5205869108813
 30
0.0
  0
ENDBLK
  5
11D5
330
11D3
100
AcDbEntity
  8
0
100
AcDbBlockEnd
  0
BLOCK
  5
11E1
330
11E0
100
AcDbEntity
  8
0
100
AcDbBlockBegin
  2
*D33
 70
     1
 10
0.0
 20
0.0
 30
0.0
  3
*D33
  1

  0
LINE
  5
11EC
330
11E0
100
AcDbEntity
  8
SIZE
 62
     0
370
    -2
100
AcDbLine
 10
2191.932454288907
 20
358.2617727666653
 30
0.0
 11
2191.932454288907
 21
374.7705869108813
 31
0.0
  0
LINE
  5
11ED
330
11E0
100
AcDbEntity
  8
SIZE
 62
     0
370
    -2
100
AcDbLine
 10
2432.682454288908
 20
343.5170379782696
 30
0.0
 11
2432.682454288908
 21
374.7705869108813
 31
0.0
  0
LINE
  5
11EE
330
11E0
100
AcDbEntity
  8
SIZE
 62
     0
370
    -2
100
AcDbLine
 10
2204.432454288907
 20
368.5205869108813
 30
0.0
 11
2420.182454288908
 21
368.5205869108813
 31
0.0
  0
INSERT
  5
11EF
330
11E0
100
AcDbEntity
  8
SIZE
 62
     0
370
    -2
100
AcDbBlockReference
  2
_OPEN30
 10
2191.932454288907
 20
368.5205869108813
 30
0.0
 41
12.5
 42
12.5
 43
12.5
 50
180.0
  0
INSERT
  5
11F0
330
11E0
100
AcDbEntity
  8
SIZE
 62
     0
370
    -2
100
AcDbBlockReference
  2
_OPEN30
 10
2432.682454288908
 20
368.5205869108813
 30
0.0
 41
12.5
 42
12.5
 43
12.5
  0
MTEXT
  5
11F1
330
11E0
100
AcDbEntity
  8
SIZE
 62
     0
100
AcDbMText
 10
2312.307454288907
 20
377.8955869108813
 30
0.0
 40
12.5
 41
0.0
 71
     5
 72
     1
  1
241
 73
     1
 44
1.0
1001
ACAD
1000
MTEXTBEGIN
1070
    73
1070
     1
1070
    44
1040
1.0
1070
    74
1070
     0
1000
MTEXTEND
  0
POINT
  5
11F2
330
11E0
100
AcDbEntity
  8
Defpoints
 62
     0
100
AcDbPoint
 10
2191.932454288907
 20
355.1367727666653
 30
0.0
  0
POINT
  5
11F3
330
11E0
100
AcDbEntity
  8
Defpoints
 62
     0
100
AcDbPoint
 10
2432.682454288908
 20
340.3920379782696
 30
0.0
  0
POINT
  5
11F4
330
11E0
100
AcDbEntity
  8
Defpoints
 62
     0
100
AcDbPoint
 10
2432.682454288908
 20
368.5205869108813
 30
0.0
  0
ENDBLK
  5
11E2
330
11E0
100
AcDbEntity
  8
0
100
AcDbBlockEnd
  0
BLOCK
  5
11F7
330
11F6
100
AcDbEntity
  8
0
100
AcDbBlockBegin
  2
*D34
 70
     1
 10
0.0
 20
0.0
 30
0.0
  3
*D34
  1

  0
LINE
  5
11F9
330
11F6
100
AcDbEntity
  8
SIZE
 62
     0
370
    -2
100
AcDbLine
 10
1844.982454288908
 20
327.0170379782692
 30
0.0
 11
1844.982454288908
 21
399.9207393551934
 31
0.0
  0
LINE
  5
11FA
330
11F6
100
AcDbEntity
  8
SIZE
 62
     0
370
    -2
100
AcDbLine
 10
2538.882454288908
 20
327.0170379782691
 30
0.0
 11
2538.882454288908
 21
399.9207393551934
 31
0.0
  0
LINE
  5
11FB
330
11F6
100
AcDbEntity
  8
SIZE
 62
     0
370
    -2
100
AcDbLine
 10
1857.482454288908
 20
393.6707393551934
 30
0.0
 11
2526.382454288908
 21
393.6707393551934
 31
0.0
  0
INSERT
  5
11FC
330
11F6
100
AcDbEntity
  8
SIZE
 62
     0
370
    -2
100
AcDbBlockReference
  2
_OPEN30
 10
1844.982454288908
 20
393.6707393551934
 30
0.0
 41
12.5
 42
12.5
 43
12.5
 50
180.0
  0
INSERT
  5
11FD
330
11F6
100
AcDbEntity
  8
SIZE
 62
     0
370
    -2
100
AcDbBlockReference
  2
_OPEN30
 10
2538.882454288908
 20
393.6707393551934
 30
0.0
 41
12.5
 42
12.5
 43
12.5
  0
MTEXT
  5
11FE
330
11F6
100
AcDbEntity
  8
SIZE
 62
     0
100
AcDbMText
 10
2191.932454288908
 20
403.0457393551934
 30
0.0
 40
12.5
 41
0.0
 71
     5
 72
     1
  1
694
 73
     1
 44
1.0
1001
ACAD
1000
MTEXTBEGIN
1070
    73
1070
     1
1070
    44
1040
1.0
1070
    74
1070
     0
1000
MTEXTEND
  0
POINT
  5
11FF
330
11F6
100
AcDbEntity
  8
Defpoints
 62
     0
100
AcDbPoint
 10
1844.982454288908
 20
323.8920379782692
 30
0.0
  0
POINT
  5
1200
330
11F6
100
AcDbEntity
  8
Defpoints
 62
     0
100
AcDbPoint
 10
2538.882454288908
 20
323.8920379782691
 30
0.0
  0
POINT
  5
1201
330
11F6
100
AcDbEntity
  8
Defpoints
 62
     0
100
AcDbPoint
 10
2538.882454288908
 20
393.6707393551934
 30
0.0
  0
ENDBLK
  5
11F8
330
11F6
100
AcDbEntity
  8
0
100
AcDbBlockEnd
  0
BLOCK
  5
12FB
330
12FA
100
AcDbEntity
  8
0
100
AcDbBlockBegin
  2
*D35
 70
     1
 10
0.0
 20
0.0
 30
0.0
  3
*D35
  1

  0
LINE
  5
132F
330
12FA
100
AcDbEntity
  8
NOTE
100
AcDbLine
 10
1944.154369384846
 20
348.643680238054
 30
0.0
 11
1910.102012719622
 21
412.8503104637847
 31
0.0
  0
LINE
  5
1330
330
12FA
100
AcDbEntity
  8
NOTE
100
AcDbLine
 10
1910.102012719622
 20
412.8503104637847
 30
0.0
 11
1858.554393672002
 21
412.8503104637846
 31
0.0
  0
INSERT
  5
1331
330
12FA
100
AcDbEntity
  8
NOTE
100
AcDbBlockReference
  2
_OPEN30
 10
1950.011106804898
 20
337.6006450215671
 30
0.0
 41
12.5
 42
12.5
 43
12.5
 50
297.9395011737529
  0
MTEXT
  5
1332
102
{ACAD_XDICTIONARY
360
211F
102
}
330
12FA
100
AcDbEntity
  8
NOTE
100
AcDbMText
 10
1881.828203195813
 20
424.1003104637853
 30
0.0
 40
12.5
 41
0.0
 71
     5
 72
     1
  1
7×\U+22055
 73
     1
 44
1.0
1001
ACAD
1000
MTEXTBEGIN
1070
    73
1070
     1
1070
    44
1040
1.0
1070
    74
1070
     0
1000
MTEXTEND
  0
POINT
  5
1333
330
12FA
100
AcDbEntity
  8
Defpoints
 62
     0
100
AcDbPoint
 10
1950.011106804898
 20
337.6006450215671
 30
0.0
  0
POINT
  5
1334
330
12FA
100
AcDbEntity
  8
Defpoints
 62
     0
100
AcDbPoint
 10
1952.353801772918
 20
333.1834309349726
 30
0.0
  0
ENDBLK
  5
12FC
330
12FA
100
AcDbEntity
  8
0
100
AcDbBlockEnd
  0
BLOCK
  5
135B
330
135A
100
AcDbEntity
  8
0
100
AcDbBlockBegin
  2
*D36
 70
     1
 10
0.0
 20
0.0
 30
0.0
  3
*D36
  1

  0
LINE
  5
136F
330
135A
100
AcDbEntity
  8
SIZE
 62
     0
370
    -2
100
AcDbLine
 10
1943.057454288908
 20
335.3920379782696
 30
0.0
 11
1799.356000948041
 21
335.3920379782697
 31
0.0
  0
LINE
  5
1370
330
135A
100
AcDbEntity
  8
SIZE
 62
     0
370
    -2
100
AcDbLine
 10
1844.057454288908
 20
206.8920379782694
 30
0.0
 11
1799.356000948041
 21
206.8920379782694
 31
0.0
  0
LINE
  5
1371
330
135A
100
AcDbEntity
  8
SIZE
 62
     0
370
    -2
100
AcDbLine
 10
1805.606000948041
 20
322.8920379782697
 30
0.0
 11
1805.606000948041
 21
219.3920379782694
 31
0.0
  0
INSERT
  5
1372
330
135A
100
AcDbEntity
  8
SIZE
 62
     0
370
    -2
100
AcDbBlockReference
  2
_OPEN30
 10
1805.606000948041
 20
335.3920379782697
 30
0.0
 41
12.5
 42
12.5
 43
12.5
 50
90.0
  0
INSERT
  5
1373
330
135A
100
AcDbEntity
  8
SIZE
 62
     0
370
    -2
100
AcDbBlockReference
  2
_OPEN30
 10
1805.606000948041
 20
206.8920379782694
 30
0.0
 41
12.5
 42
12.5
 43
12.5
 50
270.0
  0
MTEXT
  5
1374
330
135A
100
AcDbEntity
  8
SIZE
 62
     0
100
AcDbMText
 10
1796.231000948041
 20
271.1420379782699
 30
0.0
 40
12.5
 41
0.0
 71
     5
 72
     1
  1
128.5
 11
0.0000000000000001
 21
1.0
 31
0.0
 73
     1
 44
1.0
1001
ACAD
1000
MTEXTBEGIN
1070
    73
1070
     1
1070
    44
1040
1.0
1070
    74
1070
     0
1000
MTEXTEND
  0
POINT
  5
1375
330
135A
100
AcDbEntity
  8
Defpoints
 62
     0
100
AcDbPoint
 10
1946.182454288908
 20
335.3920379782696
 30
0.0
  0
POINT
  5
1376
330
135A
100
AcDbEntity
  8
Defpoints
 62
     0
100
AcDbPoint
 10
1847.182454288908
 20
206.8920379782694
 30
0.0
  0
POINT
  5
1377
330
135A
100
AcDbEntity
  8
Defpoints
 62
     0
100
AcDbPoint
 10
1805.606000948041
 20
206.8920379782694
 30
0.0
  0
ENDBLK
  5
135C
330
135A
100
AcDbEntity
  8
0
100
AcDbBlockEnd
  0
BLOCK
  5
138C
330
138B
100
AcDbEntity
  8
0
100
AcDbBlockBegin
  2
*D37
 70
     1
 10
0.0
 20
0.0
 30
0.0
  3
*D37
  1

  0
LINE
  5
1397
330
138B
100
AcDbEntity
  8
SIZE
 62
     0
370
    -2
100
AcDbLine
 10
1852.682454288908
 20
-53.73296202173065
 30
0.0
 11
1852.682454288908
 21
-122.3236644075512
 31
0.0
  0
LINE
  5
1398
330
138B
100
AcDbEntity
  8
SIZE
 62
     0
370
    -2
100
AcDbLine
 10
2531.182454288908
 20
-53.73296202173065
 30
0.0
 11
2531.182454288908
 21
-122.3236644075512
 31
0.0
  0
LINE
  5
1399
330
138B
100
AcDbEntity
  8
SIZE
 62
     0
370
    -2
100
AcDbLine
 10
1865.182454288908
 20
-116.0736644075512
 30
0.0
 11
2518.682454288908
 21
-116.0736644075512
 31
0.0
  0
INSERT
  5
139A
330
138B
100
AcDbEntity
  8
SIZE
 62
     0
370
    -2
100
AcDbBlockReference
  2
_OPEN30
 10
1852.682454288908
 20
-116.0736644075512
 30
0.0
 41
12.5
 42
12.5
 43
12.5
 50
180.0
  0
INSERT
  5
139B
330
138B
100
AcDbEntity
  8
SIZE
 62
     0
370
    -2
100
AcDbBlockReference
  2
_OPEN30
 10
2531.182454288908
 20
-116.0736644075512
 30
0.0
 41
12.5
 42
12.5
 43
12.5
  0
MTEXT
  5
139C
330
138B
100
AcDbEntity
  8
SIZE
 62
     0
100
AcDbMText
 10
2191.932454288908
 20
-106.6986644075512
 30
0.0
 40
12.5
 41
0.0
 71
     5
 72
     1
  1
678.5
 73
     1
 44
1.0
1001
ACAD
1000
MTEXTBEGIN
1070
    73
1070
     1
1070
    44
1040
1.0
1070
    74
1070
     0
1000
MTEXTEND
  0
POINT
  5
139D
330
138B
100
AcDbEntity
  8
Defpoints
 62
     0
100
AcDbPoint
 10
1852.682454288908
 20
-50.60796202173065
 30
0.0
  0
POINT
  5
139E
330
138B
100
AcDbEntity
  8
Defpoints
 62
     0
100
AcDbPoint
 10
2531.182454288908
 20
-50.60796202173065
 30
0.0
  0
POINT
  5
139F
330
138B
100
AcDbEntity
  8
Defpoints
 62
     0
100
AcDbPoint
 10
2531.182454288908
 20
-116.0736644075512
 30
0.0
  0
ENDBLK
  5
138D
330
138B
100
AcDbEntity
  8
0
100
AcDbBlockEnd
  0
BLOCK
  5
15D4
330
15D3
100
AcDbEntity
  8
0
100
AcDbBlockBegin
  2
*D38
 70
     1
 10
0.0
 20
0.0
 30
0.0
  3
*D38
  1

  0
LINE
  5
15DC
330
15D3
100
AcDbEntity
  8
NOTE
100
AcDbLine
 10
2923.372038606139
 20
342.5455345972192
 30
0.0
 11
2889.319681940919
 21
406.7521648229526
 31
0.0
  0
LINE
  5
15DD
330
15D3
100
AcDbEntity
  8
NOTE
100
AcDbLine
 10
2889.319681940919
 20
406.7521648229526
 30
0.0
 11
2837.7720628933
 21
406.7521648229525
 31
0.0
  0
INSERT
  5
15DE
330
15D3
100
AcDbEntity
  8
NOTE
100
AcDbBlockReference
  2
_OPEN30
 10
2929.228776026189
 20
331.5024993807318
 30
0.0
 41
12.5
 42
12.5
 43
12.5
 50
297.939501173748
  0
MTEXT
  5
15DF
102
{ACAD_XDICTIONARY
360
2121
102
}
330
15D3
100
AcDbEntity
  8
NOTE
100
AcDbMText
 10
2861.045872417106
 20
418.0021648229501
 30
0.0
 40
12.5
 41
0.0
 71
     5
 72
     1
  1
7×\U+22055
 73
     1
 44
1.0
1001
ACAD
1000
MTEXTBEGIN
1070
    73
1070
     1
1070
    44
1040
1.0
1070
    74
1070
     0
1000
MTEXTEND
  0
POINT
  5
15E0
330
15D3
100
AcDbEntity
  8
Defpoints
 62
     0
100
AcDbPoint
 10
2929.228776026189
 20
331.5024993807318
 30
0.0
  0
POINT
  5
15E1
330
15D3
100
AcDbEntity
  8
Defpoints
 62
     0
100
AcDbPoint
 10
2931.571470994209
 20
327.0852852941378
 30
0.0
  0
ENDBLK
  5
15D5
330
15D3
100
AcDbEntity
  8
0
100
AcDbBlockEnd
  0
BLOCK
  5
15E4
330
15E3
100
AcDbEntity
  8
0
100
AcDbBlockBegin
  2
*D39
 70
     1
 10
0.0
 20
0.0
 30
0.0
  3
*D39
  1

  0
LINE
  5
15E6
330
15E3
100
AcDbEntity
  8
SIZE
 62
     0
370
    -2
100
AcDbLine
 10
2930.4001235102
 20
339.9188923374343
 30
0.0
 11
2930.4001235102
 21
363.1896323746357
 31
0.0
  0
LINE
  5
15E7
330
15E3
100
AcDbEntity
  8
SIZE
 62
     0
370
    -2
100
AcDbLine
 10
3179.4001235102
 20
346.9044512134364
 30
0.0
 11
3179.4001235102
 21
363.1896323746357
 31
0.0
  0
LINE
  5
15E8
330
15E3
100
AcDbEntity
  8
SIZE
 62
     0
370
    -2
100
AcDbLine
 10
2942.9001235102
 20
356.9396323746357
 30
0.0
 11
3166.9001235102
 21
356.9396323746357
 31
0.0
  0
INSERT
  5
15E9
330
15E3
100
AcDbEntity
  8
SIZE
 62
     0
370
    -2
100
AcDbBlockReference
  2
_OPEN30
 10
2930.4001235102
 20
356.9396323746357
 30
0.0
 41
12.5
 42
12.5
 43
12.5
 50
180.0
  0
INSERT
  5
15EA
330
15E3
100
AcDbEntity
  8
SIZE
 62
     0
370
    -2
100
AcDbBlockReference
  2
_OPEN30
 10
3179.4001235102
 20
356.9396323746357
 30
0.0
 41
12.5
 42
12.5
 43
12.5
  0
MTEXT
  5
15EB
330
15E3
100
AcDbEntity
  8
SIZE
 62
     0
100
AcDbMText
 10
3054.9001235102
 20
366.3146323746357
 30
0.0
 40
12.5
 41
0.0
 71
     5
 72
     1
  1
249
 73
     1
 44
1.0
1001
ACAD
1000
MTEXTBEGIN
1070
    73
1070
     1
1070
    44
1040
1.0
1070
    74
1070
     0
1000
MTEXTEND
  0
POINT
  5
15EC
330
15E3
100
AcDbEntity
  8
Defpoints
 62
     0
100
AcDbPoint
 10
2930.4001235102
 20
336.7938923374343
 30
0.0
  0
POINT
  5
15ED
330
15E3
100
AcDbEntity
  8
Defpoints
 62
     0
100
AcDbPoint
 10
3179.4001235102
 20
343.7794512134364
 30
0.0
  0
POINT
  5
15EE
330
15E3
100
AcDbEntity
  8
Defpoints
 62
     0
100
AcDbPoint
 10
3179.4001235102
 20
356.9396323746357
 30
0.0
  0
ENDBLK
  5
15E5
330
15E3
100
AcDbEntity
  8
0
100
AcDbBlockEnd
  0
BLOCK
  5
15F1
330
15F0
100
AcDbEntity
  8
0
100
AcDbBlockBegin
  2
*D40
 70
     1
 10
0.0
 20
0.0
 30
0.0
  3
*D40
  1

  0
LINE
  5
15FC
330
15F0
100
AcDbEntity
  8
SIZE
 62
     0
370
    -2
100
AcDbLine
 10
3179.4001235102
 20
346.9044512134364
 30
0.0
 11
3179.4001235102
 21
363.1896323746357
 31
0.0
  0
LINE
  5
15FD
330
15F0
100
AcDbEntity
  8
SIZE
 62
     0
370
    -2
100
AcDbLine
 10
3428.400123510199
 20
339.9188923374343
 30
0.0
 11
3428.400123510199
 21
363.1896323746357
 31
0.0
  0
LINE
  5
15FE
330
15F0
100
AcDbEntity
  8
SIZE
 62
     0
370
    -2
100
AcDbLine
 10
3191.9001235102
 20
356.9396323746357
 30
0.0
 11
3415.900123510199
 21
356.9396323746357
 31
0.0
  0
INSERT
  5
15FF
330
15F0
100
AcDbEntity
  8
SIZE
 62
     0
370
    -2
100
AcDbBlockReference
  2
_OPEN30
 10
3179.4001235102
 20
356.9396323746357
 30
0.0
 41
12.5
 42
12.5
 43
12.5
 50
180.0
  0
INSERT
  5
1600
330
15F0
100
AcDbEntity
  8
SIZE
 62
     0
370
    -2
100
AcDbBlockReference
  2
_OPEN30
 10
3428.400123510199
 20
356.9396323746357
 30
0.0
 41
12.5
 42
12.5
 43
12.5
  0
MTEXT
  5
1601
330
15F0
100
AcDbEntity
  8
SIZE
 62
     0
100
AcDbMText
 10
3303.9001235102
 20
366.3146323746357
 30
0.0
 40
12.5
 41
0.0
 71
     5
 72
     1
  1
249
 73
     1
 44
1.0
1001
ACAD
1000
MTEXTBEGIN
1070
    73
1070
     1
1070
    44
1040
1.0
1070
    74
1070
     0
1000
MTEXTEND
  0
POINT
  5
1602
330
15F0
100
AcDbEntity
  8
Defpoints
 62
     0
100
AcDbPoint
 10
3179.4001235102
 20
343.7794512134364
 30
0.0
  0
POINT
  5
1603
330
15F0
100
AcDbEntity
  8
Defpoints
 62
     0
100
AcDbPoint
 10
3428.400123510199
 20
336.7938923374343
 30
0.0
  0
POINT
  5
1604
330
15F0
100
AcDbEntity
  8
Defpoints
 62
     0
100
AcDbPoint
 10
3428.400123510199
 20
356.9396323746357
 30
0.0
  0
ENDBLK
  5
15F2
330
15F0
100
AcDbEntity
  8
0
100
AcDbBlockEnd
  0
BLOCK
  5
1607
330
1606
100
AcDbEntity
  8
0
100
AcDbBlockBegin
  2
*D41
 70
     1
 10
0.0
 20
0.0
 30
0.0
  3
*D41
  1

  0
LINE
  5
1609
330
1606
100
AcDbEntity
  8
SIZE
 62
     0
370
    -2
100
AcDbLine
 10
2831.9001235102
 20
-81.83110766256623
 30
0.0
 11
2831.9001235102
 21
-149.9659665216107
 31
0.0
  0
LINE
  5
160A
330
1606
100
AcDbEntity
  8
SIZE
 62
     0
370
    -2
100
AcDbLine
 10
3526.900123510201
 20
-81.83110766256602
 30
0.0
 11
3526.900123510201
 21
-149.9659665216107
 31
0.0
  0
LINE
  5
160B
330
1606
100
AcDbEntity
  8
SIZE
 62
     0
370
    -2
100
AcDbLine
 10
2844.4001235102
 20
-143.7159665216107
 30
0.0
 11
3514.4001235102
 21
-143.7159665216107
 31
0.0
  0
INSERT
  5
160C
330
1606
100
AcDbEntity
  8
SIZE
 62
     0
370
    -2
100
AcDbBlockReference
  2
_OPEN30
 10
2831.9001235102
 20
-143.7159665216107
 30
0.0
 41
12.5
 42
12.5
 43
12.5
 50
180.0
  0
INSERT
  5
160D
330
1606
100
AcDbEntity
  8
SIZE
 62
     0
370
    -2
100
AcDbBlockReference
  2
_OPEN30
 10
3526.900123510201
 20
-143.7159665216107
 30
0.0
 41
12.5
 42
12.5
 43
12.5
  0
MTEXT
  5
160E
330
1606
100
AcDbEntity
  8
SIZE
 62
     0
100
AcDbMText
 10
3179.4001235102
 20
-134.3409665216107
 30
0.0
 40
12.5
 41
0.0
 71
     5
 72
     1
  1
695
 73
     1
 44
1.0
1001
ACAD
1000
MTEXTBEGIN
1070
    73
1070
     1
1070
    44
1040
1.0
1070
    74
1070
     0
1000
MTEXTEND
  0
POINT
  5
160F
330
1606
100
AcDbEntity
  8
Defpoints
 62
     0
100
AcDbPoint
 10
2831.9001235102
 20
-78.70610766256624
 30
0.0
  0
POINT
  5
1610
330
1606
100
AcDbEntity
  8
Defpoints
 62
     0
100
AcDbPoint
 10
3526.900123510201
 20
-78.70610766256601
 30
0.0
  0
POINT
  5
1611
330
1606
100
AcDbEntity
  8
Defpoints
 62
     0
100
AcDbPoint
 10
3526.900123510201
 20
-143.7159665216107
 30
0.0
  0
ENDBLK
  5
1608
330
1606
100
AcDbEntity
  8
0
100
AcDbBlockEnd
  0
BLOCK
  5
1614
330
1613
100
AcDbEntity
  8
0
100
AcDbBlockBegin
  2
*D42
 70
     1
 10
0.0
 20
0.0
 30
0.0
  3
*D42
  1

  0
LINE
  5
1616
330
1613
100
AcDbEntity
  8
SIZE
 62
     0
370
    -2
100
AcDbLine
 10
2821.2751235102
 20
-71.20610766256624
 30
0.0
 11
2776.040799313868
 21
-71.20610766256622
 31
0.0
  0
LINE
  5
1617
330
1613
100
AcDbEntity
  8
SIZE
 62
     0
370
    -2
100
AcDbLine
 10
2821.2751235102
 20
138.7938923374338
 30
0.0
 11
2776.040799313868
 21
138.7938923374338
 31
0.0
  0
LINE
  5
1618
330
1613
100
AcDbEntity
  8
SIZE
 62
     0
370
    -2
100
AcDbLine
 10
2782.290799313868
 20
-58.70610766256622
 30
0.0
 11
2782.290799313868
 21
126.2938923374338
 31
0.0
  0
INSERT
  5
1619
330
1613
100
AcDbEntity
  8
SIZE
 62
     0
370
    -2
100
AcDbBlockReference
  2
_OPEN30
 10
2782.290799313868
 20
-71.20610766256622
 30
0.0
 41
12.5
 42
12.5
 43
12.5
 50
270.0
  0
INSERT
  5
161A
330
1613
100
AcDbEntity
  8
SIZE
 62
     0
370
    -2
100
AcDbBlockReference
  2
_OPEN30
 10
2782.290799313868
 20
138.7938923374338
 30
0.0
 41
12.5
 42
12.5
 43
12.5
 50
90.0
  0
MTEXT
  5
161B
330
1613
100
AcDbEntity
  8
SIZE
 62
     0
100
AcDbMText
 10
2772.915799313868
 20
33.79389233743424
 30
0.0
 40
12.5
 41
0.0
 71
     5
 72
     1
  1
210
 11
0.0000000000000001
 21
1.0
 31
0.0
 73
     1
 44
1.0
1001
ACAD
1000
MTEXTBEGIN
1070
    73
1070
     1
1070
    44
1040
1.0
1070
    74
1070
     0
1000
MTEXTEND
  0
POINT
  5
161C
330
1613
100
AcDbEntity
  8
Defpoints
 62
     0
100
AcDbPoint
 10
2824.4001235102
 20
-71.20610766256624
 30
0.0
  0
POINT
  5
161D
330
1613
100
AcDbEntity
  8
Defpoints
 62
     0
100
AcDbPoint
 10
2824.4001235102
 20
138.7938923374338
 30
0.0
  0
POINT
  5
161E
330
1613
100
AcDbEntity
  8
Defpoints
 62
     0
100
AcDbPoint
 10
2782.290799313868
 20
138.7938923374338
 30
0.0
  0
ENDBLK
  5
1615
330
1613
100
AcDbEntity
  8
0
100
AcDbBlockEnd
  0
BLOCK
  5
1621
330
1620
100
AcDbEntity
  8
0
100
AcDbBlockBegin
  2
*D43
 70
     1
 10
0.0
 20
0.0
 30
0.0
  3
*D43
  1

  0
LINE
  5
162C
330
1620
100
AcDbEntity
  8
SIZE
 62
     0
370
    -2
100
AcDbLine
 10
2821.2751235102
 20
138.7938923374338
 30
0.0
 11
2776.040799313868
 21
138.7938923374338
 31
0.0
  0
LINE
  5
162D
330
1620
100
AcDbEntity
  8
SIZE
 62
     0
370
    -2
100
AcDbLine
 10
2919.7751235102
 20
329.2938923374344
 30
0.0
 11
2776.040799313868
 21
329.2938923374344
 31
0.0
  0
LINE
  5
162E
330
1620
100
AcDbEntity
  8
SIZE
 62
     0
370
    -2
100
AcDbLine
 10
2782.290799313868
 20
151.2938923374338
 30
0.0
 11
2782.290799313868
 21
316.7938923374344
 31
0.0
  0
INSERT
  5
162F
330
1620
100
AcDbEntity
  8
SIZE
 62
     0
370
    -2
100
AcDbBlockReference
  2
_OPEN30
 10
2782.290799313868
 20
138.7938923374338
 30
0.0
 41
12.5
 42
12.5
 43
12.5
 50
270.0
  0
INSERT
  5
1630
330
1620
100
AcDbEntity
  8
SIZE
 62
     0
370
    -2
100
AcDbBlockReference
  2
_OPEN30
 10
2782.290799313868
 20
329.2938923374344
 30
0.0
 41
12.5
 42
12.5
 43
12.5
 50
90.0
  0
MTEXT
  5
1631
330
1620
100
AcDbEntity
  8
SIZE
 62
     0
100
AcDbMText
 10
2772.915799313868
 20
234.0438923374345
 30
0.0
 40
12.5
 41
0.0
 71
     5
 72
     1
  1
190.5
 11
0.0000000000000001
 21
1.0
 31
0.0
 73
     1
 44
1.0
1001
ACAD
1000
MTEXTBEGIN
1070
    73
1070
     1
1070
    44
1040
1.0
1070
    74
1070
     0
1000
MTEXTEND
  0
POINT
  5
1632
330
1620
100
AcDbEntity
  8
Defpoints
 62
     0
100
AcDbPoint
 10
2824.4001235102
 20
138.7938923374338
 30
0.0
  0
POINT
  5
1633
330
1620
100
AcDbEntity
  8
Defpoints
 62
     0
100
AcDbPoint
 10
2922.9001235102
 20
329.2938923374344
 30
0.0
  0
POINT
  5
1634
330
1620
100
AcDbEntity
  8
Defpoints
 62
     0
100
AcDbPoint
 10
2782.290799313868
 20
329.2938923374344
 30
0.0
  0
ENDBLK
  5
1622
330
1620
100
AcDbEntity
  8
0
100
AcDbBlockEnd
  0
BLOCK
  5
1637
330
1636
100
AcDbEntity
  8
0
100
AcDbBlockBegin
  2
*D44
 70
     1
 10
0.0
 20
0.0
 30
0.0
  3
*D44
  1

  0
LINE
  5
1639
330
1636
100
AcDbEntity
  8
SIZE
 62
     0
370
    -2
100
AcDbLine
 10
2890.275123510199
 20
334.2938923374337
 30
0.0
 11
2748.296706126589
 21
334.2938923374337
 31
0.0
  0
LINE
  5
163A
330
1636
100
AcDbEntity
  8
SIZE
 62
     0
370
    -2
100
AcDbLine
 10
2824.0751235102
 20
-84.70610766256625
 30
0.0
 11
2748.296706126589
 21
-84.70610766256625
 31
0.0
  0
LINE
  5
163B
330
1636
100
AcDbEntity
  8
SIZE
 62
     0
370
    -2
100
AcDbLine
 10
2754.546706126589
 20
321.7938923374337
 30
0.0
 11
2754.546706126589
 21
-72.20610766256624
 31
0.0
  0
INSERT
  5
163C
330
1636
100
AcDbEntity
  8
SIZE
 62
     0
370
    -2
100
AcDbBlockReference
  2
_OPEN30
 10
2754.546706126589
 20
334.2938923374337
 30
0.0
 41
12.5
 42
12.5
 43
12.5
 50
90.0
  0
INSERT
  5
163D
330
1636
100
AcDbEntity
  8
SIZE
 62
     0
370
    -2
100
AcDbBlockReference
  2
_OPEN30
 10
2754.546706126589
 20
-84.70610766256625
 30
0.0
 41
12.5
 42
12.5
 43
12.5
 50
270.0
  0
MTEXT
  5
163E
330
1636
100
AcDbEntity
  8
SIZE
 62
     0
100
AcDbMText
 10
2745.171706126589
 20
124.7938923374341
 30
0.0
 40
12.5
 41
0.0
 71
     5
 72
     1
  1
419
 11
0.0000000000000001
 21
1.0
 31
0.0
 73
     1
 44
1.0
1001
ACAD
1000
MTEXTBEGIN
1070
    73
1070
     1
1070
    44
1040
1.0
1070
    74
1070
     0
1000
MTEXTEND
  0
POINT
  5
163F
330
1636
100
AcDbEntity
  8
Defpoints
 62
     0
100
AcDbPoint
 10
2893.400123510199
 20
334.2938923374337
 30
0.0
  0
POINT
  5
1640
330
1636
100
AcDbEntity
  8
Defpoints
 62
     0
100
AcDbPoint
 10
2827.200123510201
 20
-84.70610766256625
 30
0.0
  0
POINT
  5
1641
330
1636
100
AcDbEntity
  8
Defpoints
 62
     0
100
AcDbPoint
 10
2754.546706126589
 20
-84.70610766256625
 30
0.0
  0
ENDBLK
  5
1638
330
1636
100
AcDbEntity
  8
0
100
AcDbBlockEnd
  0
BLOCK
  5
1644
330
1643
100
AcDbEntity
  8
0
100
AcDbBlockBegin
  2
*D45
 70
     1
 10
0.0
 20
0.0
 30
0.0
  3
*D45
  1

  0
LINE
  5
1646
330
1643
100
AcDbEntity
  8
SIZE
 62
     0
370
    -2
100
AcDbLine
 10
2824.2001235102
 20
320.9188923374338
 30
0.0
 11
2824.2001235102
 21
386.5064948998107
 31
0.0
  0
LINE
  5
1647
330
1643
100
AcDbEntity
  8
SIZE
 62
     0
370
    -2
100
AcDbLine
 10
3534.6001235102
 20
320.9188923374339
 30
0.0
 11
3534.6001235102
 21
386.5064948998107
 31
0.0
  0
LINE
  5
1648
330
1643
100
AcDbEntity
  8
SIZE
 62
     0
370
    -2
100
AcDbLine
 10
2836.7001235102
 20
380.2564948998107
 30
0.0
 11
3522.1001235102
 21
380.2564948998107
 31
0.0
  0
INSERT
  5
1649
330
1643
100
AcDbEntity
  8
SIZE
 62
     0
370
    -2
100
AcDbBlockReference
  2
_OPEN30
 10
2824.2001235102
 20
380.2564948998107
 30
0.0
 41
12.5
 42
12.5
 43
12.5
 50
180.0
  0
INSERT
  5
164A
330
1643
100
AcDbEntity
  8
SIZE
 62
     0
370
    -2
100
AcDbBlockReference
  2
_OPEN30
 10
3534.6001235102
 20
380.2564948998107
 30
0.0
 41
12.5
 42
12.5
 43
12.5
  0
MTEXT
  5
164B
330
1643
100
AcDbEntity
  8
SIZE
 62
     0
100
AcDbMText
 10
3179.4001235102
 20
389.6314948998107
 30
0.0
 40
12.5
 41
0.0
 71
     5
 72
     1
  1
710.5
 73
     1
 44
1.0
1001
ACAD
1000
MTEXTBEGIN
1070
    73
1070
     1
1070
    44
1040
1.0
1070
    74
1070
     0
1000
MTEXTEND
  0
POINT
  5
164C
330
1643
100
AcDbEntity
  8
Defpoints
 62
     0
100
AcDbPoint
 10
2824.2001235102
 20
317.7938923374338
 30
0.0
  0
POINT
  5
164D
330
1643
100
AcDbEntity
  8
Defpoints
 62
     0
100
AcDbPoint
 10
3534.6001235102
 20
317.7938923374339
 30
0.0
  0
POINT
  5
164E
330
1643
100
AcDbEntity
  8
Defpoints
 62
     0
100
AcDbPoint
 10
3534.6001235102
 20
380.2564948998107
 30
0.0
  0
ENDBLK
  5
1645
330
1643
100
AcDbEntity
  8
0
100
AcDbBlockEnd
  0
BLOCK
  5
19E0
330
19DF
100
AcDbEntity
  8
0
100
AcDbBlockBegin
  2
*D46
 70
     1
 10
0.0
 20
0.0
 30
0.0
  3
*D46
  1

  0
LINE
  5
1A16
330
19DF
100
AcDbEntity
  8
NOTE
100
AcDbLine
 10
4198.75719541385
 20
368.8522175227913
 30
0.0
 11
4183.610067536688
 21
395.4774268813601
 31
0.0
  0
LINE
  5
1A17
330
19DF
100
AcDbEntity
  8
NOTE
100
AcDbLine
 10
4183.610067536688
 20
395.4774268813601
 30
0.0
 11
4121.943400870022
 21
395.4774268813599
 31
0.0
  0
INSERT
  5
1A18
330
19DF
100
AcDbEntity
  8
NOTE
100
AcDbBlockReference
  2
_OPEN30
 10
4204.938225034519
 20
357.987371788571
 30
0.0
 41
12.5
 42
12.5
 43
12.5
 50
299.6356229985842
  0
MTEXT
  5
1A19
102
{ACAD_XDICTIONARY
360
2123
102
}
330
19DF
100
AcDbEntity
  8
NOTE
100
AcDbMText
 10
4150.276734203358
 20
406.7274268813614
 30
0.0
 40
12.5
 41
0.0
 71
     5
 72
     1
  1
10×\U+22055
 73
     1
 44
1.0
1001
ACAD
1000
MTEXTBEGIN
1070
    73
1070
     1
1070
    44
1040
1.0
1070
    74
1070
     0
1000
MTEXTEND
  0
POINT
  5
1A1A
330
19DF
100
AcDbEntity
  8
Defpoints
 62
     0
100
AcDbPoint
 10
4204.938225034519
 20
357.987371788571
 30
0.0
  0
POINT
  5
1A1B
330
19DF
100
AcDbEntity
  8
Defpoints
 62
     0
100
AcDbPoint
 10
4207.410636882786
 20
353.6414334948827
 30
0.0
  0
ENDBLK
  5
19E1
330
19DF
100
AcDbEntity
  8
0
100
AcDbBlockEnd
  0
BLOCK
  5
1A1E
330
1A1D
100
AcDbEntity
  8
0
100
AcDbBlockBegin
  2
*D47
 70
     1
 10
0.0
 20
0.0
 30
0.0
  3
*D47
  1

  0
LINE
  5
1A20
330
1A1D
100
AcDbEntity
  8
SIZE
 62
     0
370
    -2
100
AcDbLine
 10
4206.174430958652
 20
371.9394026417272
 30
0.0
 11
4206.174430958652
 21
408.9288146854188
 31
0.0
  0
LINE
  5
1A21
330
1A1D
100
AcDbEntity
  8
SIZE
 62
     0
370
    -2
100
AcDbLine
 10
4426.174430958651
 20
380.8489492331169
 30
0.0
 11
4426.174430958651
 21
408.9288146854188
 31
0.0
  0
LINE
  5
1A22
330
1A1D
100
AcDbEntity
  8
SIZE
 62
     0
370
    -2
100
AcDbLine
 10
4218.674430958652
 20
402.6788146854188
 30
0.0
 11
4413.674430958651
 21
402.6788146854188
 31
0.0
  0
INSERT
  5
1A23
330
1A1D
100
AcDbEntity
  8
SIZE
 62
     0
370
    -2
100
AcDbBlockReference
  2
_OPEN30
 10
4206.174430958652
 20
402.6788146854188
 30
0.0
 41
12.5
 42
12.5
 43
12.5
 50
180.0
  0
INSERT
  5
1A24
330
1A1D
100
AcDbEntity
  8
SIZE
 62
     0
370
    -2
100
AcDbBlockReference
  2
_OPEN30
 10
4426.174430958651
 20
402.6788146854188
 30
0.0
 41
12.5
 42
12.5
 43
12.5
  0
MTEXT
  5
1A25
330
1A1D
100
AcDbEntity
  8
SIZE
 62
     0
100
AcDbMText
 10
4316.174430958652
 20
412.0538146854188
 30
0.0
 40
12.5
 41
0.0
 71
     5
 72
     1
  1
220
 73
     1
 44
1.0
1001
ACAD
1000
MTEXTBEGIN
1070
    73
1070
     1
1070
    44
1040
1.0
1070
    74
1070
     0
1000
MTEXTEND
  0
POINT
  5
1A26
330
1A1D
100
AcDbEntity
  8
Defpoints
 62
     0
100
AcDbPoint
 10
4206.174430958652
 20
368.8144026417272
 30
0.0
  0
POINT
  5
1A27
330
1A1D
100
AcDbEntity
  8
Defpoints
 62
     0
100
AcDbPoint
 10
4426.174430958651
 20
377.7239492331168
 30
0.0
  0
POINT
  5
1A28
330
1A1D
100
AcDbEntity
  8
Defpoints
 62
     0
100
AcDbPoint
 10
4426.174430958651
 20
402.6788146854188
 30
0.0
  0
ENDBLK
  5
1A1F
330
1A1D
100
AcDbEntity
  8
0
100
AcDbBlockEnd
  0
BLOCK
  5
1A2B
330
1A2A
100
AcDbEntity
  8
0
100
AcDbBlockBegin
  2
*D48
 70
     1
 10
0.0
 20
0.0
 30
0.0
  3
*D48
  1

  0
LINE
  5
1A36
330
1A2A
100
AcDbEntity
  8
SIZE
 62
     0
370
    -2
100
AcDbLine
 10
4426.174430958651
 20
380.8489492331169
 30
0.0
 11
4426.174430958651
 21
408.9288146854188
 31
0.0
  0
LINE
  5
1A37
330
1A2A
100
AcDbEntity
  8
SIZE
 62
     0
370
    -2
100
AcDbLine
 10
4646.174430958652
 20
371.9394026417272
 30
0.0
 11
4646.174430958652
 21
408.9288146854188
 31
0.0
  0
LINE
  5
1A38
330
1A2A
100
AcDbEntity
  8
SIZE
 62
     0
370
    -2
100
AcDbLine
 10
4438.674430958651
 20
402.6788146854188
 30
0.0
 11
4633.674430958651
 21
402.6788146854188
 31
0.0
  0
INSERT
  5
1A39
330
1A2A
100
AcDbEntity
  8
SIZE
 62
     0
370
    -2
100
AcDbBlockReference
  2
_OPEN30
 10
4426.174430958651
 20
402.6788146854188
 30
0.0
 41
12.5
 42
12.5
 43
12.5
 50
180.0
  0
INSERT
  5
1A3A
330
1A2A
100
AcDbEntity
  8
SIZE
 62
     0
370
    -2
100
AcDbBlockReference
  2
_OPEN30
 10
4646.174430958652
 20
402.6788146854188
 30
0.0
 41
12.5
 42
12.5
 43
12.5
  0
MTEXT
  5
1A3B
330
1A2A
100
AcDbEntity
  8
SIZE
 62
     0
100
AcDbMText
 10
4536.174430958651
 20
412.0538146854188
 30
0.0
 40
12.5
 41
0.0
 71
     5
 72
     1
  1
220
 73
     1
 44
1.0
1001
ACAD
1000
MTEXTBEGIN
1070
    73
1070
     1
1070
    44
1040
1.0
1070
    74
1070
     0
1000
MTEXTEND
  0
POINT
  5
1A3C
330
1A2A
100
AcDbEntity
  8
Defpoints
 62
     0
100
AcDbPoint
 10
4426.174430958651
 20
377.7239492331168
 30
0.0
  0
POINT
  5
1A3D
330
1A2A
100
AcDbEntity
  8
Defpoints
 62
     0
100
AcDbPoint
 10
4646.174430958652
 20
368.8144026417272
 30
0.0
  0
POINT
  5
1A3E
330
1A2A
100
AcDbEntity
  8
Defpoints
 62
     0
100
AcDbPoint
 10
4646.174430958652
 20
402.6788146854188
 30
0.0
  0
ENDBLK
  5
1A2C
330
1A2A
100
AcDbEntity
  8
0
100
AcDbBlockEnd
  0
BLOCK
  5
1A41
330
1A40
100
AcDbEntity
  8
0
100
AcDbBlockBegin
  2
*D49
 70
     1
 10
0.0
 20
0.0
 30
0.0
  3
*D49
  1

  0
LINE
  5
1A43
330
1A40
100
AcDbEntity
  8
SIZE
 62
     0
370
    -2
100
AcDbLine
 10
4089.174430958651
 20
333.4394026417274
 30
0.0
 11
4089.174430958651
 21
436.0376275134391
 31
0.0
  0
LINE
  5
1A44
330
1A40
100
AcDbEntity
  8
SIZE
 62
     0
370
    -2
100
AcDbLine
 10
4763.174430958652
 20
333.4394026417272
 30
0.0
 11
4763.174430958652
 21
436.0376275134391
 31
0.0
  0
LINE
  5
1A45
330
1A40
100
AcDbEntity
  8
SIZE
 62
     0
370
    -2
100
AcDbLine
 10
4101.674430958651
 20
429.7876275134391
 30
0.0
 11
4750.674430958652
 21
429.7876275134391
 31
0.0
  0
INSERT
  5
1A46
330
1A40
100
AcDbEntity
  8
SIZE
 62
     0
370
    -2
100
AcDbBlockReference
  2
_OPEN30
 10
4089.174430958651
 20
429.7876275134391
 30
0.0
 41
12.5
 42
12.5
 43
12.5
 50
180.0
  0
INSERT
  5
1A47
330
1A40
100
AcDbEntity
  8
SIZE
 62
     0
370
    -2
100
AcDbBlockReference
  2
_OPEN30
 10
4763.174430958652
 20
429.7876275134391
 30
0.0
 41
12.5
 42
12.5
 43
12.5
  0
MTEXT
  5
1A48
330
1A40
100
AcDbEntity
  8
SIZE
 62
     0
100
AcDbMText
 10
4426.174430958652
 20
439.1626275134391
 30
0.0
 40
12.5
 41
0.0
 71
     5
 72
     1
  1
674
 73
     1
 44
1.0
1001
ACAD
1000
MTEXTBEGIN
1070
    73
1070
     1
1070
    44
1040
1.0
1070
    74
1070
     0
1000
MTEXTEND
  0
POINT
  5
1A49
330
1A40
100
AcDbEntity
  8
Defpoints
 62
     0
100
AcDbPoint
 10
4089.174430958651
 20
330.3144026417274
 30
0.0
  0
POINT
  5
1A4A
330
1A40
100
AcDbEntity
  8
Defpoints
 62
     0
100
AcDbPoint
 10
4763.174430958652
 20
330.3144026417272
 30
0.0
  0
POINT
  5
1A4B
330
1A40
100
AcDbEntity
  8
Defpoints
 62
     0
100
AcDbPoint
 10
4763.174430958652
 20
429.7876275134391
 30
0.0
  0
ENDBLK
  5
1A42
330
1A40
100
AcDbEntity
  8
0
100
AcDbBlockEnd
  0
BLOCK
  5
1A4E
330
1A4D
100
AcDbEntity
  8
0
100
AcDbBlockBegin
  2
*D50
 70
     1
 10
0.0
 20
0.0
 30
0.0
  3
*D50
  1

  0
LINE
  5
1A50
330
1A4D
100
AcDbEntity
  8
SIZE
 62
     0
370
    -2
100
AcDbLine
 10
4080.974430958652
 20
346.9394026417274
 30
0.0
 11
4080.974430958652
 21
467.4332405668798
 31
0.0
  0
LINE
  5
1A51
330
1A4D
100
AcDbEntity
  8
SIZE
 62
     0
370
    -2
100
AcDbLine
 10
4771.37443095865
 20
346.9394026417274
 30
0.0
 11
4771.37443095865
 21
467.4332405668798
 31
0.0
  0
LINE
  5
1A52
330
1A4D
100
AcDbEntity
  8
SIZE
 62
     0
370
    -2
100
AcDbLine
 10
4093.474430958652
 20
461.1832405668798
 30
0.0
 11
4758.87443095865
 21
461.1832405668798
 31
0.0
  0
INSERT
  5
1A53
330
1A4D
100
AcDbEntity
  8
SIZE
 62
     0
370
    -2
100
AcDbBlockReference
  2
_OPEN30
 10
4080.974430958652
 20
461.1832405668798
 30
0.0
 41
12.5
 42
12.5
 43
12.5
 50
180.0
  0
INSERT
  5
1A54
330
1A4D
100
AcDbEntity
  8
SIZE
 62
     0
370
    -2
100
AcDbBlockReference
  2
_OPEN30
 10
4771.37443095865
 20
461.1832405668798
 30
0.0
 41
12.5
 42
12.5
 43
12.5
  0
MTEXT
  5
1A55
330
1A4D
100
AcDbEntity
  8
SIZE
 62
     0
100
AcDbMText
 10
4426.174430958651
 20
470.5582405668798
 30
0.0
 40
12.5
 41
0.0
 71
     5
 72
     1
  1
690.5
 73
     1
 44
1.0
1001
ACAD
1000
MTEXTBEGIN
1070
    73
1070
     1
1070
    44
1040
1.0
1070
    74
1070
     0
1000
MTEXTEND
  0
POINT
  5
1A56
330
1A4D
100
AcDbEntity
  8
Defpoints
 62
     0
100
AcDbPoint
 10
4080.974430958652
 20
343.8144026417274
 30
0.0
  0
POINT
  5
1A57
330
1A4D
100
AcDbEntity
  8
Defpoints
 62
     0
100
AcDbPoint
 10
4771.37443095865
 20
343.8144026417274
 30
0.0
  0
POINT
  5
1A58
330
1A4D
100
AcDbEntity
  8
Defpoints
 62
     0
100
AcDbPoint
 10
4771.37443095865
 20
461.1832405668798
 30
0.0
  0
ENDBLK
  5
1A4F
330
1A4D
100
AcDbEntity
  8
0
100
AcDbBlockEnd
  0
BLOCK
  5
1A5B
330
1A5A
100
AcDbEntity
  8
0
100
AcDbBlockBegin
  2
*D51
 70
     1
 10
0.0
 20
0.0
 30
0.0
  3
*D51
  1

  0
LINE
  5
1A5D
330
1A5A
100
AcDbEntity
  8
SIZE
 62
     0
370
    -2
100
AcDbLine
 10
4112.074430958652
 20
-165.0105973582727
 30
0.0
 11
4112.074430958652
 21
-347.7895672248999
 31
0.0
  0
LINE
  5
1A5E
330
1A5A
100
AcDbEntity
  8
SIZE
 62
     0
370
    -2
100
AcDbLine
 10
4089.174430958651
 20
-317.8105973582725
 30
0.0
 11
4089.174430958651
 21
-347.7895672248999
 31
0.0
  0
LINE
  5
1A5F
330
1A5A
100
AcDbEntity
  8
SIZE
 62
     0
370
    -2
100
AcDbLine
 10
4124.57443095865
 20
-341.5395672248999
 30
0.0
 11
4137.074430958652
 21
-341.5395672248999
 31
0.0
  0
LINE
  5
1A60
330
1A5A
100
AcDbEntity
  8
SIZE
 62
     0
370
    -2
100
AcDbLine
 10
4076.674430958651
 20
-341.5395672248999
 30
0.0
 11
4037.686335720557
 21
-341.5395672248999
 31
0.0
  0
LINE
  5
1A61
330
1A5A
100
AcDbEntity
  8
SIZE
 62
     0
370
    -2
100
AcDbLine
 10
4112.074430958652
 20
-341.5395672248999
 30
0.0
 11
4089.174430958651
 21
-341.5395672248999
 31
0.0
  0
INSERT
  5
1A62
330
1A5A
100
AcDbEntity
  8
SIZE
 62
     0
370
    -2
100
AcDbBlockReference
  2
_OPEN30
 10
4112.074430958652
 20
-341.5395672248999
 30
0.0
 41
12.5
 42
12.5
 43
12.5
 50
180.0
  0
INSERT
  5
1A63
330
1A5A
100
AcDbEntity
  8
SIZE
 62
     0
370
    -2
100
AcDbBlockReference
  2
_OPEN30
 10
4089.174430958651
 20
-341.5395672248999
 30
0.0
 41
12.5
 42
12.5
 43
12.5
  0
MTEXT
  5
1A64
330
1A5A
100
AcDbEntity
  8
SIZE
 62
     0
100
AcDbMText
 10
4050.930383339603
 20
-332.1645672248999
 30
0.0
 40
12.5
 41
0.0
 71
     5
 72
     1
  1
23
 73
     1
 44
1.0
1001
ACAD
1000
MTEXTBEGIN
1070
    73
1070
     1
1070
    44
1040
1.0
1070
    74
1070
     0
1000
MTEXTEND
  0
POINT
  5
1A65
330
1A5A
100
AcDbEntity
  8
Defpoints
 62
     0
100
AcDbPoint
 10
4112.074430958652
 20
-161.8855973582727
 30
0.0
  0
POINT
  5
1A66
330
1A5A
100
AcDbEntity
  8
Defpoints
 62
     0
100
AcDbPoint
 10
4089.174430958651
 20
-314.6855973582725
 30
0.0
  0
POINT
  5
1A67
330
1A5A
100
AcDbEntity
  8
Defpoints
 62
     0
100
AcDbPoint
 10
4089.174430958651
 20
-341.5395672248999
 30
0.0
  0
ENDBLK
  5
1A5C
330
1A5A
100
AcDbEntity
  8
0
100
AcDbBlockEnd
  0
BLOCK
  5
1A6A
330
1A69
100
AcDbEntity
  8
0
100
AcDbBlockBegin
  2
*D52
 70
     1
 10
0.0
 20
0.0
 30
0.0
  3
*D52
  1

  0
LINE
  5
1A6C
330
1A69
100
AcDbEntity
  8
SIZE
 62
     0
370
    -2
100
AcDbLine
 10
4073.549430958651
 20
-302.1855973582725
 30
0.0
 11
4023.594555494685
 21
-302.1855973582725
 31
0.0
  0
LINE
  5
1A6D
330
1A69
100
AcDbEntity
  8
SIZE
 62
     0
370
    -2
100
AcDbLine
 10
4073.549430958651
 20
7.814402641727324
 30
0.0
 11
4023.594555494685
 21
7.81440264172734
 31
0.0
  0
LINE
  5
1A6E
330
1A69
100
AcDbEntity
  8
SIZE
 62
     0
370
    -2
100
AcDbLine
 10
4029.844555494685
 20
-289.6855973582725
 30
0.0
 11
4029.844555494685
 21
-4.685597358272659
 31
0.0
  0
INSERT
  5
1A6F
330
1A69
100
AcDbEntity
  8
SIZE
 62
     0
370
    -2
100
AcDbBlockReference
  2
_OPEN30
 10
4029.844555494685
 20
-302.1855973582725
 30
0.0
 41
12.5
 42
12.5
 43
12.5
 50
270.0
  0
INSERT
  5
1A70
330
1A69
100
AcDbEntity
  8
SIZE
 62
     0
370
    -2
100
AcDbBlockReference
  2
_OPEN30
 10
4029.844555494685
 20
7.814402641727339
 30
0.0
 41
12.5
 42
12.5
 43
12.5
 50
90.0
  0
MTEXT
  5
1A71
330
1A69
100
AcDbEntity
  8
SIZE
 62
     0
100
AcDbMText
 10
4020.469555494685
 20
-147.1855973582719
 30
0.0
 40
12.5
 41
0.0
 71
     5
 72
     1
  1
310
 11
0.0000000000000001
 21
1.0
 31
0.0
 73
     1
 44
1.0
1001
ACAD
1000
MTEXTBEGIN
1070
    73
1070
     1
1070
    44
1040
1.0
1070
    74
1070
     0
1000
MTEXTEND
  0
POINT
  5
1A72
330
1A69
100
AcDbEntity
  8
Defpoints
 62
     0
100
AcDbPoint
 10
4076.674430958651
 20
-302.1855973582725
 30
0.0
  0
POINT
  5
1A73
330
1A69
100
AcDbEntity
  8
Defpoints
 62
     0
100
AcDbPoint
 10
4076.674430958651
 20
7.814402641727324
 30
0.0
  0
POINT
  5
1A74
330
1A69
100
AcDbEntity
  8
Defpoints
 62
     0
100
AcDbPoint
 10
4029.844555494685
 20
7.814402641727339
 30
0.0
  0
ENDBLK
  5
1A6B
330
1A69
100
AcDbEntity
  8
0
100
AcDbBlockEnd
  0
BLOCK
  5
1A77
330
1A76
100
AcDbEntity
  8
0
100
AcDbBlockBegin
  2
*D53
 70
     1
 10
0.0
 20
0.0
 30
0.0
  3
*D53
  1

  0
LINE
  5
1A8F
330
1A76
100
AcDbEntity
  8
SIZE
 62
     0
370
    -2
100
AcDbLine
 10
4073.549430958651
 20
7.814402641727324
 30
0.0
 11
4023.594555494685
 21
7.81440264172734
 31
0.0
  0
LINE
  5
1A90
330
1A76
100
AcDbEntity
  8
SIZE
 62
     0
370
    -2
100
AcDbLine
 10
4073.549430958651
 20
317.8144026417274
 30
0.0
 11
4023.594555494685
 21
317.8144026417274
 31
0.0
  0
LINE
  5
1A91
330
1A76
100
AcDbEntity
  8
SIZE
 62
     0
370
    -2
100
AcDbLine
 10
4029.844555494685
 20
20.31440264172734
 30
0.0
 11
4029.844555494685
 21
305.3144026417274
 31
0.0
  0
INSERT
  5
1A92
330
1A76
100
AcDbEntity
  8
SIZE
 62
     0
370
    -2
100
AcDbBlockReference
  2
_OPEN30
 10
4029.844555494685
 20
7.814402641727339
 30
0.0
 41
12.5
 42
12.5
 43
12.5
 50
270.0
  0
INSERT
  5
1A93
330
1A76
100
AcDbEntity
  8
SIZE
 62
     0
370
    -2
100
AcDbBlockReference
  2
_OPEN30
 10
4029.844555494685
 20
317.8144026417274
 30
0.0
 41
12.5
 42
12.5
 43
12.5
 50
90.0
  0
MTEXT
  5
1A94
330
1A76
100
AcDbEntity
  8
SIZE
 62
     0
100
AcDbMText
 10
4020.469555494685
 20
162.814402641728
 30
0.0
 40
12.5
 41
0.0
 71
     5
 72
     1
  1
310
 11
0.0000000000000001
 21
1.0
 31
0.0
 73
     1
 44
1.0
1001
ACAD
1000
MTEXTBEGIN
1070
    73
1070
     1
1070
    44
1040
1.0
1070
    74
1070
     0
1000
MTEXTEND
  0
POINT
  5
1A95
330
1A76
100
AcDbEntity
  8
Defpoints
 62
     0
100
AcDbPoint
 10
4076.674430958651
 20
7.814402641727324
 30
0.0
  0
POINT
  5
1A96
330
1A76
100
AcDbEntity
  8
Defpoints
 62
     0
100
AcDbPoint
 10
4076.674430958651
 20
317.8144026417274
 30
0.0
  0
POINT
  5
1A97
330
1A76
100
AcDbEntity
  8
Defpoints
 62
     0
100
AcDbPoint
 10
4029.844555494685
 20
317.8144026417274
 30
0.0
  0
ENDBLK
  5
1A78
330
1A76
100
AcDbEntity
  8
0
100
AcDbBlockEnd
  0
BLOCK
  5
1A84
330
1A83
100
AcDbEntity
  8
0
100
AcDbBlockBegin
  2
*D54
 70
     1
 10
0.0
 20
0.0
 30
0.0
  3
*D54
  1

  0
LINE
  5
1A98
330
1A83
100
AcDbEntity
  8
SIZE
 62
     0
370
    -2
100
AcDbLine
 10
4073.549430958651
 20
317.8144026417274
 30
0.0
 11
4023.594555494685
 21
317.8144026417274
 31
0.0
  0
LINE
  5
1A99
330
1A83
100
AcDbEntity
  8
SIZE
 62
     0
370
    -2
100
AcDbLine
 10
4190.049430958651
 20
355.8144026417271
 30
0.0
 11
4023.594555494685
 21
355.8144026417271
 31
0.0
  0
LINE
  5
1A9A
330
1A83
100
AcDbEntity
  8
SIZE
 62
     0
370
    -2
100
AcDbLine
 10
4029.844555494685
 20
330.3144026417274
 30
0.0
 11
4029.844555494685
 21
343.3144026417271
 31
0.0
  0
INSERT
  5
1A9B
330
1A83
100
AcDbEntity
  8
SIZE
 62
     0
370
    -2
100
AcDbBlockReference
  2
_OPEN30
 10
4029.844555494685
 20
317.8144026417274
 30
0.0
 41
12.5
 42
12.5
 43
12.5
 50
270.0
  0
INSERT
  5
1A9C
330
1A83
100
AcDbEntity
  8
SIZE
 62
     0
370
    -2
100
AcDbBlockReference
  2
_OPEN30
 10
4029.844555494685
 20
355.8144026417271
 30
0.0
 41
12.5
 42
12.5
 43
12.5
 50
90.0
  0
MTEXT
  5
1A9D
330
1A83
100
AcDbEntity
  8
SIZE
 62
     0
100
AcDbMText
 10
4020.469555494685
 20
336.8144026417279
 30
0.0
 40
12.5
 41
0.0
 71
     5
 72
     1
  1
38
 11
0.0000000000000001
 21
1.0
 31
0.0
 73
     1
 44
1.0
1001
ACAD
1000
MTEXTBEGIN
1070
    73
1070
     1
1070
    44
1040
1.0
1070
    74
1070
     0
1000
MTEXTEND
  0
POINT
  5
1A9E
330
1A83
100
AcDbEntity
  8
Defpoints
 62
     0
100
AcDbPoint
 10
4076.674430958651
 20
317.8144026417274
 30
0.0
  0
POINT
  5
1A9F
330
1A83
100
AcDbEntity
  8
Defpoints
 62
     0
100
AcDbPoint
 10
4193.174430958651
 20
355.8144026417271
 30
0.0
  0
POINT
  5
1AA0
330
1A83
100
AcDbEntity
  8
Defpoints
 62
     0
100
AcDbPoint
 10
4029.844555494685
 20
355.8144026417271
 30
0.0
  0
ENDBLK
  5
1A85
330
1A83
100
AcDbEntity
  8
0
100
AcDbBlockEnd
  0
BLOCK
  5
1AA3
330
1AA2
100
AcDbEntity
  8
0
100
AcDbBlockBegin
  2
*D55
 70
     1
 10
0.0
 20
0.0
 30
0.0
  3
*D55
  1

  0
LINE
  5
1AA5
330
1AA2
100
AcDbEntity
  8
SIZE
 62
     0
370
    -2
100
AcDbLine
 10
4127.699430958648
 20
186.7144026417271
 30
0.0
 11
4198.605544569473
 21
186.7144026417271
 31
0.0
  0
LINE
  5
1AA6
330
1AA2
100
AcDbEntity
  8
SIZE
 62
     0
370
    -2
100
AcDbLine
 10
4127.699430958648
 20
-149.3855973582727
 30
0.0
 11
4198.605544569473
 21
-149.3855973582727
 31
0.0
  0
LINE
  5
1AA7
330
1AA2
100
AcDbEntity
  8
SIZE
 62
     0
370
    -2
100
AcDbLine
 10
4192.355544569474
 20
174.2144026417271
 30
0.0
 11
4192.355544569474
 21
-136.8855973582727
 31
0.0
  0
INSERT
  5
1AA8
330
1AA2
100
AcDbEntity
  8
SIZE
 62
     0
370
    -2
100
AcDbBlockReference
  2
_OPEN30
 10
4192.355544569474
 20
186.7144026417271
 30
0.0
 41
12.5
 42
12.5
 43
12.5
 50
90.0
  0
INSERT
  5
1AA9
330
1AA2
100
AcDbEntity
  8
SIZE
 62
     0
370
    -2
100
AcDbBlockReference
  2
_OPEN30
 10
4192.355544569474
 20
-149.3855973582727
 30
0.0
 41
12.5
 42
12.5
 43
12.5
 50
270.0
  0
MTEXT
  5
1AAA
330
1AA2
100
AcDbEntity
  8
SIZE
 62
     0
100
AcDbMText
 10
4182.980544569473
 20
18.6644026417279
 30
0.0
 40
12.5
 41
0.0
 71
     5
 72
     1
  1
336
 11
0.0000000000000001
 21
1.0
 31
0.0
 73
     1
 44
1.0
1001
ACAD
1000
MTEXTBEGIN
1070
    73
1070
     1
1070
    44
1040
1.0
1070
    74
1070
     0
1000
MTEXTEND
  0
POINT
  5
1AAB
330
1AA2
100
AcDbEntity
  8
Defpoints
 62
     0
100
AcDbPoint
 10
4124.57443095865
 20
186.7144026417271
 30
0.0
  0
POINT
  5
1AAC
330
1AA2
100
AcDbEntity
  8
Defpoints
 62
     0
100
AcDbPoint
 10
4124.57443095865
 20
-149.3855973582727
 30
0.0
  0
POINT
  5
1AAD
330
1AA2
100
AcDbEntity
  8
Defpoints
 62
     0
100
AcDbPoint
 10
4192.355544569474
 20
-149.3855973582727
 30
0.0
  0
ENDBLK
  5
1AA4
330
1AA2
100
AcDbEntity
  8
0
100
AcDbBlockEnd
  0
BLOCK
  5
1AB0
330
1AAF
100
AcDbEntity
  8
0
100
AcDbBlockBegin
  2
*D56
 70
     1
 10
0.0
 20
0.0
 30
0.0
  3
*D56
  1

  0
LINE
  5
1ABB
330
1AAF
100
AcDbEntity
  8
SIZE
 62
     0
370
    -2
100
AcDbLine
 10
4127.699430958648
 20
-149.3855973582727
 30
0.0
 11
4198.605544569473
 21
-149.3855973582727
 31
0.0
  0
LINE
  5
1ABC
330
1AAF
100
AcDbEntity
  8
SIZE
 62
     0
370
    -2
100
AcDbLine
 10
4104.799430958651
 20
-302.1855973582725
 30
0.0
 11
4198.605544569473
 21
-302.1855973582725
 31
0.0
  0
LINE
  5
1ABD
330
1AAF
100
AcDbEntity
  8
SIZE
 62
     0
370
    -2
100
AcDbLine
 10
4192.355544569474
 20
-161.8855973582727
 30
0.0
 11
4192.355544569474
 21
-289.6855973582725
 31
0.0
  0
INSERT
  5
1ABE
330
1AAF
100
AcDbEntity
  8
SIZE
 62
     0
370
    -2
100
AcDbBlockReference
  2
_OPEN30
 10
4192.355544569474
 20
-149.3855973582727
 30
0.0
 41
12.5
 42
12.5
 43
12.5
 50
90.0
  0
INSERT
  5
1ABF
330
1AAF
100
AcDbEntity
  8
SIZE
 62
     0
370
    -2
100
AcDbBlockReference
  2
_OPEN30
 10
4192.355544569474
 20
-302.1855973582725
 30
0.0
 41
12.5
 42
12.5
 43
12.5
 50
270.0
  0
MTEXT
  5
1AC0
330
1AAF
100
AcDbEntity
  8
SIZE
 62
     0
100
AcDbMText
 10
4182.980544569473
 20
-225.7855973582719
 30
0.0
 40
12.5
 41
0.0
 71
     5
 72
     1
  1
153
 11
0.0000000000000001
 21
1.0
 31
0.0
 73
     1
 44
1.0
1001
ACAD
1000
MTEXTBEGIN
1070
    73
1070
     1
1070
    44
1040
1.0
1070
    74
1070
     0
1000
MTEXTEND
  0
POINT
  5
1AC1
330
1AAF
100
AcDbEntity
  8
Defpoints
 62
     0
100
AcDbPoint
 10
4124.57443095865
 20
-149.3855973582727
 30
0.0
  0
POINT
  5
1AC2
330
1AAF
100
AcDbEntity
  8
Defpoints
 62
     0
100
AcDbPoint
 10
4101.674430958651
 20
-302.1855973582725
 30
0.0
  0
POINT
  5
1AC3
330
1AAF
100
AcDbEntity
  8
Defpoints
 62
     0
100
AcDbPoint
 10
4192.355544569474
 20
-302.1855973582725
 30
0.0
  0
ENDBLK
  5
1AB1
330
1AAF
100
AcDbEntity
  8
0
100
AcDbBlockEnd
  0
BLOCK
  5
1BBF
330
1BBE
100
AcDbEntity
  8
0
100
AcDbBlockBegin
  2
*D57
 70
     1
 10
0.0
 20
0.0
 30
0.0
  3
*D57
  1

  0
LINE
  5
1BC1
330
1BBE
100
AcDbEntity
  8
SIZE
 62
     0
370
    -2
100
AcDbLine
 10
4097.049430958651
 20
361.8144026417271
 30
0.0
 11
3995.167524776415
 21
361.8144026417271
 31
0.0
  0
LINE
  5
1BC2
330
1BBE
100
AcDbEntity
  8
SIZE
 62
     0
370
    -2
100
AcDbLine
 10
4080.849430958652
 20
-313.1855973582727
 30
0.0
 11
3995.167524776415
 21
-313.1855973582727
 31
0.0
  0
LINE
  5
1BC3
330
1BBE
100
AcDbEntity
  8
SIZE
 62
     0
370
    -2
100
AcDbLine
 10
4001.417524776413
 20
349.3144026417271
 30
0.0
 11
4001.417524776413
 21
-300.6855973582727
 31
0.0
  0
INSERT
  5
1BC4
330
1BBE
100
AcDbEntity
  8
SIZE
 62
     0
370
    -2
100
AcDbBlockReference
  2
_OPEN30
 10
4001.417524776413
 20
361.8144026417271
 30
0.0
 41
12.5
 42
12.5
 43
12.5
 50
90.0
  0
INSERT
  5
1BC5
330
1BBE
100
AcDbEntity
  8
SIZE
 62
     0
370
    -2
100
AcDbBlockReference
  2
_OPEN30
 10
4001.417524776413
 20
-313.1855973582727
 30
0.0
 41
12.5
 42
12.5
 43
12.5
 50
270.0
  0
MTEXT
  5
1BC6
330
1BBE
100
AcDbEntity
  8
SIZE
 62
     0
100
AcDbMText
 10
3992.042524776414
 20
24.31440264172788
 30
0.0
 40
12.5
 41
0.0
 71
     5
 72
     1
  1
675
 11
0.0000000000000001
 21
1.0
 31
0.0
 73
     1
 44
1.0
1001
ACAD
1000
MTEXTBEGIN
1070
    73
1070
     1
1070
    44
1040
1.0
1070
    74
1070
     0
1000
MTEXTEND
  0
POINT
  5
1BC7
330
1BBE
100
AcDbEntity
  8
Defpoints
 62
     0
100
AcDbPoint
 10
4100.174430958651
 20
361.8144026417271
 30
0.0
  0
POINT
  5
1BC8
330
1BBE
100
AcDbEntity
  8
Defpoints
 62
     0
100
AcDbPoint
 10
4083.974430958652
 20
-313.1855973582727
 30
0.0
  0
POINT
  5
1BC9
330
1BBE
100
AcDbEntity
  8
Defpoints
 62
     0
100
AcDbPoint
 10
4001.417524776413
 20
-313.1855973582727
 30
0.0
  0
ENDBLK
  5
1BC0
330
1BBE
100
AcDbEntity
  8
0
100
AcDbBlockEnd
  0
BLOCK
  5
1BE2
330
1BE1
100
AcDbEntity
  8
0
100
AcDbBlockBegin
  2
*D58
 70
     1
 10
0.0
 20
0.0
 30
0.0
  3
*D58
  1

  0
LINE
  5
1BE4
330
1BE1
100
AcDbEntity
  8
SIZE
 62
     0
370
    -2
100
AcDbLine
 10
4206.174430958652
 20
371.9394026417272
 30
0.0
 11
4206.174430958652
 21
408.5363838871232
 31
0.0
  0
LINE
  5
1BE5
330
1BE1
100
AcDbEntity
  8
SIZE
 62
     0
370
    -2
100
AcDbLine
 10
4646.174430958652
 20
371.9394026417272
 30
0.0
 11
4646.174430958652
 21
408.5363838871232
 31
0.0
  0
LINE
  5
1BE6
330
1BE1
100
AcDbEntity
  8
SIZE
 62
     0
370
    -2
100
AcDbLine
 10
4218.674430958652
 20
402.2863838871232
 30
0.0
 11
4633.674430958651
 21
402.2863838871232
 31
0.0
  0
INSERT
  5
1BE7
330
1BE1
100
AcDbEntity
  8
SIZE
 62
     0
370
    -2
100
AcDbBlockReference
  2
_OPEN30
 10
4206.174430958652
 20
402.2863838871232
 30
0.0
 41
12.5
 42
12.5
 43
12.5
 50
180.0
  0
INSERT
  5
1BE8
330
1BE1
100
AcDbEntity
  8
SIZE
 62
     0
370
    -2
100
AcDbBlockReference
  2
_OPEN30
 10
4646.174430958652
 20
402.2863838871232
 30
0.0
 41
12.5
 42
12.5
 43
12.5
  0
MTEXT
  5
1BE9
330
1BE1
100
AcDbEntity
  8
SIZE
 62
     0
100
AcDbMText
 10
4426.174430958652
 20
411.6613838871232
 30
0.0
 40
12.5
 41
0.0
 71
     5
 72
     1
  1
440
 73
     1
 44
1.0
1001
ACAD
1000
MTEXTBEGIN
1070
    73
1070
     1
1070
    44
1040
1.0
1070
    74
1070
     0
1000
MTEXTEND
  0
POINT
  5
1BEA
330
1BE1
100
AcDbEntity
  8
Defpoints
 62
     0
100
AcDbPoint
 10
4206.174430958652
 20
368.8144026417272
 30
0.0
  0
POINT
  5
1BEB
330
1BE1
100
AcDbEntity
  8
Defpoints
 62
     0
100
AcDbPoint
 10
4646.174430958652
 20
368.8144026417272
 30
0.0
  0
POINT
  5
1BEC
330
1BE1
100
AcDbEntity
  8
Defpoints
 62
     0
100
AcDbPoint
 10
4646.174430958652
 20
402.2863838871232
 30
0.0
  0
ENDBLK
  5
1BE3
330
1BE1
100
AcDbEntity
  8
0
100
AcDbBlockEnd
  0
BLOCK
  5
1E2B
330
1E2A
100
AcDbEntity
  8
0
100
AcDbBlockBegin
  2
*D59
 70
     1
 10
0.0
 20
0.0
 30
0.0
  3
*D59
  1

  0
LINE
  5
1E5F
330
1E2A
100
AcDbEntity
  8
NOTE
100
AcDbLine
 10
5477.044264139156
 20
371.8012734086745
 30
0.0
 11
5464.866415146898
 21
394.8848187957024
 31
0.0
  0
LINE
  5
1E60
330
1E2A
100
AcDbEntity
  8
NOTE
100
AcDbLine
 10
5464.866415146898
 20
394.8848187957024
 30
0.0
 11
5413.31879609928
 21
394.8848187957026
 31
0.0
  0
INSERT
  5
1E61
330
1E2A
100
AcDbEntity
  8
NOTE
100
AcDbBlockReference
  2
_OPEN30
 10
5482.876823848187
 20
360.7454492765453
 30
0.0
 41
12.5
 42
12.5
 43
12.5
 50
297.8141299747186
  0
MTEXT
  5
1E62
102
{ACAD_XDICTIONARY
360
2125
102
}
330
1E2A
100
AcDbEntity
  8
NOTE
100
AcDbMText
 10
5436.592605623091
 20
406.1348187957035
 30
0.0
 40
12.5
 41
0.0
 71
     5
 72
     1
  1
8×\U+22055
 73
     1
 44
1.0
1001
ACAD
1000
MTEXTBEGIN
1070
    73
1070
     1
1070
    44
1040
1.0
1070
    74
1070
     0
1000
MTEXTEND
  0
POINT
  5
1E63
330
1E2A
100
AcDbEntity
  8
Defpoints
 62
     0
100
AcDbPoint
 10
5482.876823848187
 20
360.7454492765453
 30
0.0
  0
POINT
  5
1E64
330
1E2A
100
AcDbEntity
  8
Defpoints
 62
     0
100
AcDbPoint
 10
5485.209847731802
 20
356.3231196236936
 30
0.0
  0
ENDBLK
  5
1E2C
330
1E2A
100
AcDbEntity
  8
0
100
AcDbBlockEnd
  0
BLOCK
  5
1E67
330
1E66
100
AcDbEntity
  8
0
100
AcDbBlockBegin
  2
*D60
 70
     1
 10
0.0
 20
0.0
 30
0.0
  3
*D60
  1

  0
LINE
  5
1E69
330
1E66
100
AcDbEntity
  8
SIZE
 62
     0
370
    -2
100
AcDbLine
 10
5484.043335790001
 20
374.1592844501208
 30
0.0
 11
5484.043335790001
 21
405.1029000419623
 31
0.0
  0
LINE
  5
1E6A
330
1E66
100
AcDbEntity
  8
SIZE
 62
     0
370
    -2
100
AcDbLine
 10
5924.043335790001
 20
374.1592844501208
 30
0.0
 11
5924.043335790001
 21
405.1029000419623
 31
0.0
  0
LINE
  5
1E6B
330
1E66
100
AcDbEntity
  8
SIZE
 62
     0
370
    -2
100
AcDbLine
 10
5496.543335790001
 20
398.8529000419625
 30
0.0
 11
5911.543335790001
 21
398.8529000419625
 31
0.0
  0
INSERT
  5
1E6C
330
1E66
100
AcDbEntity
  8
SIZE
 62
     0
370
    -2
100
AcDbBlockReference
  2
_OPEN30
 10
5484.043335790001
 20
398.8529000419625
 30
0.0
 41
12.5
 42
12.5
 43
12.5
 50
180.0
  0
INSERT
  5
1E6D
330
1E66
100
AcDbEntity
  8
SIZE
 62
     0
370
    -2
100
AcDbBlockReference
  2
_OPEN30
 10
5924.043335790001
 20
398.8529000419625
 30
0.0
 41
12.5
 42
12.5
 43
12.5
  0
MTEXT
  5
1E6E
330
1E66
100
AcDbEntity
  8
SIZE
 62
     0
100
AcDbMText
 10
5704.043335790003
 20
408.2279000419623
 30
0.0
 40
12.5
 41
0.0
 71
     5
 72
     1
  1
440
 73
     1
 44
1.0
1001
ACAD
1000
MTEXTBEGIN
1070
    73
1070
     1
1070
    44
1040
1.0
1070
    74
1070
     0
1000
MTEXTEND
  0
POINT
  5
1E6F
330
1E66
100
AcDbEntity
  8
Defpoints
 62
     0
100
AcDbPoint
 10
5484.043335790001
 20
371.0342844501208
 30
0.0
  0
POINT
  5
1E70
330
1E66
100
AcDbEntity
  8
Defpoints
 62
     0
100
AcDbPoint
 10
5924.043335790001
 20
371.0342844501208
 30
0.0
  0
POINT
  5
1E71
330
1E66
100
AcDbEntity
  8
Defpoints
 62
     0
100
AcDbPoint
 10
5924.043335790001
 20
398.8529000419625
 30
0.0
  0
ENDBLK
  5
1E68
330
1E66
100
AcDbEntity
  8
0
100
AcDbBlockEnd
  0
BLOCK
  5
1E74
330
1E73
100
AcDbEntity
  8
0
100
AcDbBlockBegin
  2
*D61
 70
     1
 10
0.0
 20
0.0
 30
0.0
  3
*D61
  1

  0
LINE
  5
1E76
330
1E73
100
AcDbEntity
  8
SIZE
 62
     0
370
    -2
100
AcDbLine
 10
5963.043335790001
 20
315.9592844501212
 30
0.0
 11
5963.043335790001
 21
430.5156634590293
 31
0.0
  0
LINE
  5
1E77
330
1E73
100
AcDbEntity
  8
SIZE
 62
     0
370
    -2
100
AcDbLine
 10
5322.043335790001
 20
349.059284450121
 30
0.0
 11
5322.043335790001
 21
430.5156634590293
 31
0.0
  0
LINE
  5
1E78
330
1E73
100
AcDbEntity
  8
SIZE
 62
     0
370
    -2
100
AcDbLine
 10
5950.543335790001
 20
424.2656634590293
 30
0.0
 11
5334.543335790002
 21
424.2656634590293
 31
0.0
  0
INSERT
  5
1E79
330
1E73
100
AcDbEntity
  8
SIZE
 62
     0
370
    -2
100
AcDbBlockReference
  2
_OPEN30
 10
5963.043335790001
 20
424.2656634590293
 30
0.0
 41
12.5
 42
12.5
 43
12.5
  0
INSERT
  5
1E7A
330
1E73
100
AcDbEntity
  8
SIZE
 62
     0
370
    -2
100
AcDbBlockReference
  2
_OPEN30
 10
5322.043335790001
 20
424.2656634590293
 30
0.0
 41
12.5
 42
12.5
 43
12.5
 50
180.0
  0
MTEXT
  5
1E7B
330
1E73
100
AcDbEntity
  8
SIZE
 62
     0
100
AcDbMText
 10
5642.543335790001
 20
433.6406634590293
 30
0.0
 40
12.5
 41
0.0
 71
     5
 72
     1
  1
641
 73
     1
 44
1.0
1001
ACAD
1000
MTEXTBEGIN
1070
    73
1070
     1
1070
    44
1040
1.0
1070
    74
1070
     0
1000
MTEXTEND
  0
POINT
  5
1E7C
330
1E73
100
AcDbEntity
  8
Defpoints
 62
     0
100
AcDbPoint
 10
5963.043335790001
 20
312.8342844501212
 30
0.0
  0
POINT
  5
1E7D
330
1E73
100
AcDbEntity
  8
Defpoints
 62
     0
100
AcDbPoint
 10
5322.043335790001
 20
345.934284450121
 30
0.0
  0
POINT
  5
1E7E
330
1E73
100
AcDbEntity
  8
Defpoints
 62
     0
100
AcDbPoint
 10
5322.043335790001
 20
424.2656634590293
 30
0.0
  0
ENDBLK
  5
1E75
330
1E73
100
AcDbEntity
  8
0
100
AcDbBlockEnd
  0
BLOCK
  5
1E81
330
1E80
100
AcDbEntity
  8
0
100
AcDbBlockBegin
  2
*D62
 70
     1
 10
0.0
 20
0.0
 30
0.0
  3
*D62
  1

  0
LINE
  5
1E83
330
1E80
100
AcDbEntity
  8
SIZE
 62
     0
370
    -2
100
AcDbLine
 10
5307.043335790002
 20
353.459284450121
 30
0.0
 11
5307.043335790002
 21
456.596223918887
 31
0.0
  0
LINE
  5
1E84
330
1E80
100
AcDbEntity
  8
SIZE
 62
     0
370
    -2
100
AcDbLine
 10
5971.243335790001
 20
350.4592844501212
 30
0.0
 11
5971.243335790001
 21
456.596223918887
 31
0.0
  0
LINE
  5
1E85
330
1E80
100
AcDbEntity
  8
SIZE
 62
     0
370
    -2
100
AcDbLine
 10
5319.543335790001
 20
450.346223918887
 30
0.0
 11
5958.743335790001
 21
450.346223918887
 31
0.0
  0
INSERT
  5
1E86
330
1E80
100
AcDbEntity
  8
SIZE
 62
     0
370
    -2
100
AcDbBlockReference
  2
_OPEN30
 10
5307.043335790002
 20
450.346223918887
 30
0.0
 41
12.5
 42
12.5
 43
12.5
 50
180.0
  0
INSERT
  5
1E87
330
1E80
100
AcDbEntity
  8
SIZE
 62
     0
370
    -2
100
AcDbBlockReference
  2
_OPEN30
 10
5971.243335790001
 20
450.346223918887
 30
0.0
 41
12.5
 42
12.5
 43
12.5
  0
MTEXT
  5
1E88
330
1E80
100
AcDbEntity
  8
SIZE
 62
     0
100
AcDbMText
 10
5639.14333579
 20
459.721223918887
 30
0.0
 40
12.5
 41
0.0
 71
     5
 72
     1
  1
664
 73
     1
 44
1.0
1001
ACAD
1000
MTEXTBEGIN
1070
    73
1070
     1
1070
    44
1040
1.0
1070
    74
1070
     0
1000
MTEXTEND
  0
POINT
  5
1E89
330
1E80
100
AcDbEntity
  8
Defpoints
 62
     0
100
AcDbPoint
 10
5307.043335790002
 20
350.334284450121
 30
0.0
  0
POINT
  5
1E8A
330
1E80
100
AcDbEntity
  8
Defpoints
 62
     0
100
AcDbPoint
 10
5971.243335790001
 20
347.3342844501212
 30
0.0
  0
POINT
  5
1E8B
330
1E80
100
AcDbEntity
  8
Defpoints
 62
     0
100
AcDbPoint
 10
5971.243335790001
 20
450.346223918887
 30
0.0
  0
ENDBLK
  5
1E82
330
1E80
100
AcDbEntity
  8
0
100
AcDbBlockEnd
  0
BLOCK
  5
1E8E
330
1E8D
100
AcDbEntity
  8
0
100
AcDbBlockBegin
  2
*D63
 70
     1
 10
0.0
 20
0.0
 30
0.0
  3
*D63
  1

  0
LINE
  5
1EC0
330
1E8D
100
AcDbEntity
  8
SIZE
 62
     0
370
    -2
100
AcDbLine
 10
5306.418335790001
 20
-428.3657155498788
 30
0.0
 11
5257.973639694484
 21
-428.3657155498788
 31
0.0
  0
LINE
  5
1EC1
330
1E8D
100
AcDbEntity
  8
SIZE
 62
     0
370
    -2
100
AcDbLine
 10
5306.418335790001
 20
-47.36571554987892
 30
0.0
 11
5257.973639694484
 21
-47.36571554987889
 31
0.0
  0
LINE
  5
1EC2
330
1E8D
100
AcDbEntity
  8
SIZE
 62
     0
370
    -2
100
AcDbLine
 10
5264.223639694485
 20
-415.8657155498788
 30
0.0
 11
5264.223639694485
 21
-59.86571554987892
 31
0.0
  0
INSERT
  5
1EC3
330
1E8D
100
AcDbEntity
  8
SIZE
 62
     0
370
    -2
100
AcDbBlockReference
  2
_OPEN30
 10
5264.223639694485
 20
-428.3657155498788
 30
0.0
 41
12.5
 42
12.5
 43
12.5
 50
270.0
  0
INSERT
  5
1EC4
330
1E8D
100
AcDbEntity
  8
SIZE
 62
     0
370
    -2
100
AcDbBlockReference
  2
_OPEN30
 10
5264.223639694485
 20
-47.36571554987892
 30
0.0
 41
12.5
 42
12.5
 43
12.5
 50
90.0
  0
MTEXT
  5
1EC5
330
1E8D
100
AcDbEntity
  8
SIZE
 62
     0
100
AcDbMText
 10
5254.848639694484
 20
-237.865715549878
 30
0.0
 40
12.5
 41
0.0
 71
     5
 72
     1
  1
381
 11
0.0000000000000001
 21
1.0
 31
0.0
 73
     1
 44
1.0
1001
ACAD
1000
MTEXTBEGIN
1070
    73
1070
     1
1070
    44
1040
1.0
1070
    74
1070
     0
1000
MTEXTEND
  0
POINT
  5
1EC6
330
1E8D
100
AcDbEntity
  8
Defpoints
 62
     0
100
AcDbPoint
 10
5309.543335790001
 20
-428.3657155498788
 30
0.0
  0
POINT
  5
1EC7
330
1E8D
100
AcDbEntity
  8
Defpoints
 62
     0
100
AcDbPoint
 10
5309.543335790001
 20
-47.36571554987892
 30
0.0
  0
POINT
  5
1EC8
330
1E8D
100
AcDbEntity
  8
Defpoints
 62
     0
100
AcDbPoint
 10
5264.223639694485
 20
-47.36571554987892
 30
0.0
  0
ENDBLK
  5
1E8F
330
1E8D
100
AcDbEntity
  8
0
100
AcDbBlockEnd
  0
BLOCK
  5
1E9B
330
1E9A
100
AcDbEntity
  8
0
100
AcDbBlockBegin
  2
*D64
 70
     1
 10
0.0
 20
0.0
 30
0.0
  3
*D64
  1

  0
LINE
  5
1E9D
330
1E9A
100
AcDbEntity
  8
SIZE
 62
     0
370
    -2
100
AcDbLine
 10
5306.418335790001
 20
-47.36571554987892
 30
0.0
 11
5257.973639694484
 21
-47.36571554987889
 31
0.0
  0
LINE
  5
1E9E
330
1E9A
100
AcDbEntity
  8
SIZE
 62
     0
370
    -2
100
AcDbLine
 10
5306.418335790001
 20
333.434284450121
 30
0.0
 11
5257.973639694484
 21
333.434284450121
 31
0.0
  0
LINE
  5
1E9F
330
1E9A
100
AcDbEntity
  8
SIZE
 62
     0
370
    -2
100
AcDbLine
 10
5264.223639694485
 20
-34.86571554987892
 30
0.0
 11
5264.223639694485
 21
320.934284450121
 31
0.0
  0
INSERT
  5
1EA0
330
1E9A
100
AcDbEntity
  8
SIZE
 62
     0
370
    -2
100
AcDbBlockReference
  2
_OPEN30
 10
5264.223639694485
 20
-47.36571554987892
 30
0.0
 41
12.5
 42
12.5
 43
12.5
 50
270.0
  0
INSERT
  5
1EA1
330
1E9A
100
AcDbEntity
  8
SIZE
 62
     0
370
    -2
100
AcDbBlockReference
  2
_OPEN30
 10
5264.223639694485
 20
333.434284450121
 30
0.0
 41
12.5
 42
12.5
 43
12.5
 50
90.0
  0
MTEXT
  5
1EA2
330
1E9A
100
AcDbEntity
  8
SIZE
 62
     0
100
AcDbMText
 10
5254.848639694484
 20
143.0342844501219
 30
0.0
 40
12.5
 41
0.0
 71
     5
 72
     1
  1
381
 11
0.0000000000000001
 21
1.0
 31
0.0
 73
     1
 44
1.0
1001
ACAD
1000
MTEXTBEGIN
1070
    73
1070
     1
1070
    44
1040
1.0
1070
    74
1070
     0
1000
MTEXTEND
  0
POINT
  5
1EA3
330
1E9A
100
AcDbEntity
  8
Defpoints
 62
     0
100
AcDbPoint
 10
5309.543335790001
 20
-47.36571554987892
 30
0.0
  0
POINT
  5
1EA4
330
1E9A
100
AcDbEntity
  8
Defpoints
 62
     0
100
AcDbPoint
 10
5309.543335790001
 20
333.434284450121
 30
0.0
  0
POINT
  5
1EA5
330
1E9A
100
AcDbEntity
  8
Defpoints
 62
     0
100
AcDbPoint
 10
5264.223639694485
 20
333.434284450121
 30
0.0
  0
ENDBLK
  5
1E9C
330
1E9A
100
AcDbEntity
  8
0
100
AcDbBlockEnd
  0
BLOCK
  5
1EA8
330
1EA7
100
AcDbEntity
  8
0
100
AcDbBlockBegin
  2
*D65
 70
     1
 10
0.0
 20
0.0
 30
0.0
  3
*D65
  1

  0
LINE
  5
1EC9
330
1EA7
100
AcDbEntity
  8
SIZE
 62
     0
370
    -2
100
AcDbLine
 10
5468.418335790001
 20
358.5342844501208
 30
0.0
 11
5257.973639694484
 21
358.5342844501208
 31
0.0
  0
LINE
  5
1ECA
330
1EA7
100
AcDbEntity
  8
SIZE
 62
     0
370
    -2
100
AcDbLine
 10
5306.418335790001
 20
333.434284450121
 30
0.0
 11
5257.973639694484
 21
333.434284450121
 31
0.0
  0
LINE
  5
1ECB
330
1EA7
100
AcDbEntity
  8
SIZE
 62
     0
370
    -2
100
AcDbLine
 10
5264.223639694485
 20
371.0342844501208
 30
0.0
 11
5264.223639694485
 21
383.5342844501208
 31
0.0
  0
LINE
  5
1ECC
330
1EA7
100
AcDbEntity
  8
SIZE
 62
     0
370
    -2
100
AcDbLine
 10
5264.223639694485
 20
320.934284450121
 30
0.0
 11
5264.223639694485
 21
308.434284450121
 31
0.0
  0
LINE
  5
1ECD
330
1EA7
100
AcDbEntity
  8
SIZE
 62
     0
370
    -2
100
AcDbLine
 10
5264.223639694485
 20
358.5342844501208
 30
0.0
 11
5264.223639694485
 21
333.434284450121
 31
0.0
  0
INSERT
  5
1ECE
330
1EA7
100
AcDbEntity
  8
SIZE
 62
     0
370
    -2
100
AcDbBlockReference
  2
_OPEN30
 10
5264.223639694485
 20
358.5342844501208
 30
0.0
 41
12.5
 42
12.5
 43
12.5
 50
270.0
  0
INSERT
  5
1ECF
330
1EA7
100
AcDbEntity
  8
SIZE
 62
     0
370
    -2
100
AcDbBlockReference
  2
_OPEN30
 10
5264.223639694485
 20
333.434284450121
 30
0.0
 41
12.5
 42
12.5
 43
12.5
 50
90.0
  0
MTEXT
  5
1ED0
330
1EA7
100
AcDbEntity
  8
SIZE
 62
     0
100
AcDbMText
 10
5254.848639694484
 20
345.9842844501218
 30
0.0
 40
12.5
 41
0.0
 71
     5
 72
     1
  1
25
 11
0.0000000000000001
 21
1.0
 31
0.0
 73
     1
 44
1.0
1001
ACAD
1000
MTEXTBEGIN
1070
    73
1070
     1
1070
    44
1040
1.0
1070
    74
1070
     0
1000
MTEXTEND
  0
POINT
  5
1ED1
330
1EA7
100
AcDbEntity
  8
Defpoints
 62
     0
100
AcDbPoint
 10
5471.543335790002
 20
358.5342844501208
 30
0.0
  0
POINT
  5
1ED2
330
1EA7
100
AcDbEntity
  8
Defpoints
 62
     0
100
AcDbPoint
 10
5309.543335790001
 20
333.434284450121
 30
0.0
  0
POINT
  5
1ED3
330
1EA7
100
AcDbEntity
  8
Defpoints
 62
     0
100
AcDbPoint
 10
5264.223639694485
 20
333.434284450121
 30
0.0
  0
ENDBLK
  5
1EA9
330
1EA7
100
AcDbEntity
  8
0
100
AcDbBlockEnd
  0
BLOCK
  5
1ED6
330
1ED5
100
AcDbEntity
  8
0
100
AcDbBlockBegin
  2
*D66
 70
     1
 10
0.0
 20
0.0
 30
0.0
  3
*D66
  1

  0
LINE
  5
1ED8
330
1ED5
100
AcDbEntity
  8
SIZE
 62
     0
370
    -2
100
AcDbLine
 10
5978.668335790001
 20
-399.6657155498787
 30
0.0
 11
6032.702047900396
 21
-399.6657155498788
 31
0.0
  0
LINE
  5
1ED9
330
1ED5
100
AcDbEntity
  8
SIZE
 62
     0
370
    -2
100
AcDbLine
 10
5978.668335790001
 20
-49.66571554987871
 30
0.0
 11
6032.702047900396
 21
-49.66571554987872
 31
0.0
  0
LINE
  5
1EDA
330
1ED5
100
AcDbEntity
  8
SIZE
 62
     0
370
    -2
100
AcDbLine
 10
6026.452047900397
 20
-387.1657155498788
 30
0.0
 11
6026.452047900397
 21
-62.16571554987872
 31
0.0
  0
INSERT
  5
1EDB
330
1ED5
100
AcDbEntity
  8
SIZE
 62
     0
370
    -2
100
AcDbBlockReference
  2
_OPEN30
 10
6026.452047900397
 20
-399.6657155498788
 30
0.0
 41
12.5
 42
12.5
 43
12.5
 50
270.0
  0
INSERT
  5
1EDC
330
1ED5
100
AcDbEntity
  8
SIZE
 62
     0
370
    -2
100
AcDbBlockReference
  2
_OPEN30
 10
6026.452047900397
 20
-49.66571554987872
 30
0.0
 41
12.5
 42
12.5
 43
12.5
 50
90.0
  0
MTEXT
  5
1EDD
330
1ED5
100
AcDbEntity
  8
SIZE
 62
     0
100
AcDbMText
 10
6017.077047900396
 20
-224.6657155498778
 30
0.0
 40
12.5
 41
0.0
 71
     5
 72
     1
  1
350
 11
0.0000000000000001
 21
1.0
 31
0.0
 73
     1
 44
1.0
1001
ACAD
1000
MTEXTBEGIN
1070
    73
1070
     1
1070
    44
1040
1.0
1070
    74
1070
     0
1000
MTEXTEND
  0
POINT
  5
1EDE
330
1ED5
100
AcDbEntity
  8
Defpoints
 62
     0
100
AcDbPoint
 10
5975.543335790001
 20
-399.6657155498787
 30
0.0
  0
POINT
  5
1EDF
330
1ED5
100
AcDbEntity
  8
Defpoints
 62
     0
100
AcDbPoint
 10
5975.543335790001
 20
-49.66571554987871
 30
0.0
  0
POINT
  5
1EE0
330
1ED5
100
AcDbEntity
  8
Defpoints
 62
     0
100
AcDbPoint
 10
6026.452047900397
 20
-49.66571554987872
 30
0.0
  0
ENDBLK
  5
1ED7
330
1ED5
100
AcDbEntity
  8
0
100
AcDbBlockEnd
  0
BLOCK
  5
1EE3
330
1EE2
100
AcDbEntity
  8
0
100
AcDbBlockBegin
  2
*D67
 70
     1
 10
0.0
 20
0.0
 30
0.0
  3
*D67
  1

  0
LINE
  5
1EFB
330
1EE2
100
AcDbEntity
  8
SIZE
 62
     0
370
    -2
100
AcDbLine
 10
5978.668335790001
 20
-49.66571554987871
 30
0.0
 11
6032.702047900396
 21
-49.66571554987872
 31
0.0
  0
LINE
  5
1EFC
330
1EE2
100
AcDbEntity
  8
SIZE
 62
     0
370
    -2
100
AcDbLine
 10
5978.668335790001
 20
300.3342844501212
 30
0.0
 11
6032.702047900396
 21
300.3342844501212
 31
0.0
  0
LINE
  5
1EFD
330
1EE2
100
AcDbEntity
  8
SIZE
 62
     0
370
    -2
100
AcDbLine
 10
6026.452047900397
 20
-37.16571554987872
 30
0.0
 11
6026.452047900397
 21
287.8342844501212
 31
0.0
  0
INSERT
  5
1EFE
330
1EE2
100
AcDbEntity
  8
SIZE
 62
     0
370
    -2
100
AcDbBlockReference
  2
_OPEN30
 10
6026.452047900397
 20
-49.66571554987872
 30
0.0
 41
12.5
 42
12.5
 43
12.5
 50
270.0
  0
INSERT
  5
1EFF
330
1EE2
100
AcDbEntity
  8
SIZE
 62
     0
370
    -2
100
AcDbBlockReference
  2
_OPEN30
 10
6026.452047900397
 20
300.3342844501212
 30
0.0
 41
12.5
 42
12.5
 43
12.5
 50
90.0
  0
MTEXT
  5
1F00
330
1EE2
100
AcDbEntity
  8
SIZE
 62
     0
100
AcDbMText
 10
6017.077047900396
 20
125.3342844501222
 30
0.0
 40
12.5
 41
0.0
 71
     5
 72
     1
  1
350
 11
0.0000000000000001
 21
1.0
 31
0.0
 73
     1
 44
1.0
1001
ACAD
1000
MTEXTBEGIN
1070
    73
1070
     1
1070
    44
1040
1.0
1070
    74
1070
     0
1000
MTEXTEND
  0
POINT
  5
1F01
330
1EE2
100
AcDbEntity
  8
Defpoints
 62
     0
100
AcDbPoint
 10
5975.543335790001
 20
-49.66571554987871
 30
0.0
  0
POINT
  5
1F02
330
1EE2
100
AcDbEntity
  8
Defpoints
 62
     0
100
AcDbPoint
 10
5975.543335790001
 20
300.3342844501212
 30
0.0
  0
POINT
  5
1F03
330
1EE2
100
AcDbEntity
  8
Defpoints
 62
     0
100
AcDbPoint
 10
6026.452047900397
 20
300.3342844501212
 30
0.0
  0
ENDBLK
  5
1EE4
330
1EE2
100
AcDbEntity
  8
0
100
AcDbBlockEnd
  0
BLOCK
  5
1EF0
330
1EEF
100
AcDbEntity
  8
0
100
AcDbBlockBegin
  2
*D68
 70
     1
 10
0.0
 20
0.0
 30
0.0
  3
*D68
  1

  0
LINE
  5
1F04
330
1EEF
100
AcDbEntity
  8
SIZE
 62
     0
370
    -2
100
AcDbLine
 10
5978.668335790001
 20
300.3342844501212
 30
0.0
 11
6032.702047900396
 21
300.3342844501212
 31
0.0
  0
LINE
  5
1F05
330
1EEF
100
AcDbEntity
  8
SIZE
 62
     0
370
    -2
100
AcDbLine
 10
5939.668335790003
 20
358.5342844501208
 30
0.0
 11
6032.702047900396
 21
358.5342844501208
 31
0.0
  0
LINE
  5
1F06
330
1EEF
100
AcDbEntity
  8
SIZE
 62
     0
370
    -2
100
AcDbLine
 10
6026.452047900397
 20
312.8342844501212
 30
0.0
 11
6026.452047900397
 21
346.0342844501208
 31
0.0
  0
INSERT
  5
1F07
330
1EEF
100
AcDbEntity
  8
SIZE
 62
     0
370
    -2
100
AcDbBlockReference
  2
_OPEN30
 10
6026.452047900397
 20
300.3342844501212
 30
0.0
 41
12.5
 42
12.5
 43
12.5
 50
270.0
  0
INSERT
  5
1F08
330
1EEF
100
AcDbEntity
  8
SIZE
 62
     0
370
    -2
100
AcDbBlockReference
  2
_OPEN30
 10
6026.452047900397
 20
358.5342844501208
 30
0.0
 41
12.5
 42
12.5
 43
12.5
 50
90.0
  0
MTEXT
  5
1F09
330
1EEF
100
AcDbEntity
  8
SIZE
 62
     0
100
AcDbMText
 10
6017.077047900396
 20
329.434284450122
 30
0.0
 40
12.5
 41
0.0
 71
     5
 72
     1
  1
58
 11
0.0000000000000001
 21
1.0
 31
0.0
 73
     1
 44
1.0
1001
ACAD
1000
MTEXTBEGIN
1070
    73
1070
     1
1070
    44
1040
1.0
1070
    74
1070
     0
1000
MTEXTEND
  0
POINT
  5
1F0A
330
1EEF
100
AcDbEntity
  8
Defpoints
 62
     0
100
AcDbPoint
 10
5975.543335790001
 20
300.3342844501212
 30
0.0
  0
POINT
  5
1F0B
330
1EEF
100
AcDbEntity
  8
Defpoints
 62
     0
100
AcDbPoint
 10
5936.543335790003
 20
358.5342844501208
 30
0.0
  0
POINT
  5
1F0C
330
1EEF
100
AcDbEntity
  8
Defpoints
 62
     0
100
AcDbPoint
 10
6026.452047900397
 20
358.5342844501208
 30
0.0
  0
ENDBLK
  5
1EF1
330
1EEF
100
AcDbEntity
  8
0
100
AcDbBlockEnd
  0
BLOCK
  5
1F0F
330
1F0E
100
AcDbEntity
  8
0
100
AcDbBlockBegin
  2
*D69
 70
     1
 10
0.0
 20
0.0
 30
0.0
  3
*D69
  1

  0
LINE
  5
1F11
330
1F0E
100
AcDbEntity
  8
SIZE
 62
     0
370
    -2
100
AcDbLine
 10
5307.918335790001
 20
365.3342844501212
 30
0.0
 11
5223.978334529176
 21
365.3342844501212
 31
0.0
  0
LINE
  5
1F12
330
1F0E
100
AcDbEntity
  8
SIZE
 62
     0
370
    -2
100
AcDbLine
 10
5303.918335790001
 20
-444.6657155498788
 30
0.0
 11
5223.978334529176
 21
-444.6657155498788
 31
0.0
  0
LINE
  5
1F13
330
1F0E
100
AcDbEntity
  8
SIZE
 62
     0
370
    -2
100
AcDbLine
 10
5230.228334529176
 20
352.8342844501212
 30
0.0
 11
5230.228334529176
 21
-432.1657155498788
 31
0.0
  0
INSERT
  5
1F14
330
1F0E
100
AcDbEntity
  8
SIZE
 62
     0
370
    -2
100
AcDbBlockReference
  2
_OPEN30
 10
5230.228334529176
 20
365.3342844501212
 30
0.0
 41
12.5
 42
12.5
 43
12.5
 50
90.0
  0
INSERT
  5
1F15
330
1F0E
100
AcDbEntity
  8
SIZE
 62
     0
370
    -2
100
AcDbBlockReference
  2
_OPEN30
 10
5230.228334529176
 20
-444.6657155498788
 30
0.0
 41
12.5
 42
12.5
 43
12.5
 50
270.0
  0
MTEXT
  5
1F16
330
1F0E
100
AcDbEntity
  8
SIZE
 62
     0
100
AcDbMText
 10
5220.853334529176
 20
-39.66571554987804
 30
0.0
 40
12.5
 41
0.0
 71
     5
 72
     1
  1
810
 11
0.0000000000000001
 21
1.0
 31
0.0
 73
     1
 44
1.0
1001
ACAD
1000
MTEXTBEGIN
1070
    73
1070
     1
1070
    44
1040
1.0
1070
    74
1070
     0
1000
MTEXTEND
  0
POINT
  5
1F17
330
1F0E
100
AcDbEntity
  8
Defpoints
 62
     0
100
AcDbPoint
 10
5311.043335790001
 20
365.3342844501212
 30
0.0
  0
POINT
  5
1F18
330
1F0E
100
AcDbEntity
  8
Defpoints
 62
     0
100
AcDbPoint
 10
5307.043335790002
 20
-444.6657155498788
 30
0.0
  0
POINT
  5
1F19
330
1F0E
100
AcDbEntity
  8
Defpoints
 62
     0
100
AcDbPoint
 10
5230.228334529176
 20
-444.6657155498788
 30
0.0
  0
ENDBLK
  5
1F10
330
1F0E
100
AcDbEntity
  8
0
100
AcDbBlockEnd
  0
ENDSEC
  0
SECTION
  2
ENTITIES
  0
MTEXT
  5
460
330
2
100
AcDbEntity
  8
ETC
100
AcDbMText
 10
5435.461142697237
 20
554.7305933356454
 30
0.0
 40
40.0
 41
1008.080967812284
 71
     1
 72
     5
  1
AGJT-15B-3
 73
     1
 44
1.0
1001
ACAD
1000
MTEXTBEGIN
1070
    73
1070
     1
1070
    44
1040
1.0
1070
    74
1070
     0
1000
MTEXTEND
  0
LINE
  5
1D84
330
2
100
AcDbEntity
  8
NOTE
100
AcDbLine
 10
5483.543335790002
 20
358.5342844501208
 30
0.0
 11
5484.543335790002
 21
358.5342844501208
 31
0.0
  0
LINE
  5
1D85
330
2
100
AcDbEntity
  8
NOTE
100
AcDbLine
 10
5484.043335790001
 20
358.0342844501208
 30
0.0
 11
5484.043335790001
 21
359.0342844501208
 31
0.0
  0
LINE
  5
1D86
330
2
100
AcDbEntity
  8
NOTE
100
AcDbLine
 10
5471.543335790002
 20
358.5342844501208
 30
0.0
 11
5482.543335790001
 21
358.5342844501208
 31
0.0
  0
LINE
  5
1D87
330
2
100
AcDbEntity
  8
NOTE
100
AcDbLine
 10
5485.543335790001
 20
358.5342844501208
 30
0.0
 11
5496.543335790001
 21
358.5342844501208
 31
0.0
  0
LINE
  5
1D88
330
2
100
AcDbEntity
  8
NOTE
100
AcDbLine
 10
5484.043335790001
 20
346.0342844501208
 30
0.0
 11
5484.043335790001
 21
357.0342844501208
 31
0.0
  0
LINE
  5
1D89
330
2
100
AcDbEntity
  8
NOTE
100
AcDbLine
 10
5484.043335790001
 20
360.0342844501208
 30
0.0
 11
5484.043335790001
 21
371.0342844501208
 31
0.0
  0
LINE
  5
1D8A
330
2
100
AcDbEntity
  8
NOTE
100
AcDbLine
 10
5321.543335790001
 20
-428.3657155498788
 30
0.0
 11
5322.543335790001
 21
-428.3657155498788
 31
0.0
  0
LINE
  5
1D8B
330
2
100
AcDbEntity
  8
NOTE
100
AcDbLine
 10
5322.043335790001
 20
-428.8657155498788
 30
0.0
 11
5322.043335790001
 21
-427.8657155498788
 31
0.0
  0
LINE
  5
1D8C
330
2
100
AcDbEntity
  8
NOTE
100
AcDbLine
 10
5309.543335790001
 20
-428.3657155498788
 30
0.0
 11
5320.543335790001
 21
-428.3657155498788
 31
0.0
  0
LINE
  5
1D8D
330
2
100
AcDbEntity
  8
NOTE
100
AcDbLine
 10
5323.543335790001
 20
-428.3657155498788
 30
0.0
 11
5334.543335790002
 21
-428.3657155498788
 31
0.0
  0
LINE
  5
1D8E
330
2
100
AcDbEntity
  8
NOTE
100
AcDbLine
 10
5322.043335790001
 20
-440.8657155498788
 30
0.0
 11
5322.043335790001
 21
-429.8657155498788
 31
0.0
  0
LINE
  5
1D8F
330
2
100
AcDbEntity
  8
NOTE
100
AcDbLine
 10
5322.043335790001
 20
-426.8657155498789
 30
0.0
 11
5322.043335790001
 21
-415.8657155498788
 31
0.0
  0
LINE
  5
1D90
330
2
100
AcDbEntity
  8
NOTE
100
AcDbLine
 10
5321.543335790001
 20
-47.36571554987892
 30
0.0
 11
5322.543335790001
 21
-47.36571554987892
 31
0.0
  0
LINE
  5
1D91
330
2
100
AcDbEntity
  8
NOTE
100
AcDbLine
 10
5322.043335790001
 20
-47.86571554987893
 30
0.0
 11
5322.043335790001
 21
-46.8657155498789
 31
0.0
  0
LINE
  5
1D92
330
2
100
AcDbEntity
  8
NOTE
100
AcDbLine
 10
5309.543335790001
 20
-47.36571554987892
 30
0.0
 11
5320.543335790001
 21
-47.36571554987892
 31
0.0
  0
LINE
  5
1D93
330
2
100
AcDbEntity
  8
NOTE
100
AcDbLine
 10
5323.543335790001
 20
-47.36571554987892
 30
0.0
 11
5334.543335790002
 21
-47.36571554987892
 31
0.0
  0
LINE
  5
1D94
330
2
100
AcDbEntity
  8
NOTE
100
AcDbLine
 10
5322.043335790001
 20
-59.86571554987886
 30
0.0
 11
5322.043335790001
 21
-48.86571554987892
 31
0.0
  0
LINE
  5
1D95
330
2
100
AcDbEntity
  8
NOTE
100
AcDbLine
 10
5322.043335790001
 20
-45.86571554987893
 30
0.0
 11
5322.043335790001
 21
-34.86571554987893
 31
0.0
  0
LINE
  5
1D96
330
2
100
AcDbEntity
  8
NOTE
100
AcDbLine
 10
5321.543335790001
 20
333.434284450121
 30
0.0
 11
5322.543335790001
 21
333.434284450121
 31
0.0
  0
LINE
  5
1D97
330
2
100
AcDbEntity
  8
NOTE
100
AcDbLine
 10
5322.043335790001
 20
332.934284450121
 30
0.0
 11
5322.043335790001
 21
333.934284450121
 31
0.0
  0
LINE
  5
1D98
330
2
100
AcDbEntity
  8
NOTE
100
AcDbLine
 10
5309.543335790001
 20
333.434284450121
 30
0.0
 11
5320.543335790001
 21
333.434284450121
 31
0.0
  0
LINE
  5
1D99
330
2
100
AcDbEntity
  8
NOTE
100
AcDbLine
 10
5323.543335790001
 20
333.434284450121
 30
0.0
 11
5334.543335790002
 21
333.434284450121
 31
0.0
  0
LINE
  5
1D9A
330
2
100
AcDbEntity
  8
NOTE
100
AcDbLine
 10
5322.043335790001
 20
320.934284450121
 30
0.0
 11
5322.043335790001
 21
331.934284450121
 31
0.0
  0
LINE
  5
1D9B
330
2
100
AcDbEntity
  8
NOTE
100
AcDbLine
 10
5322.043335790001
 20
334.934284450121
 30
0.0
 11
5322.043335790001
 21
345.934284450121
 31
0.0
  0
LINE
  5
1D9C
330
2
100
AcDbEntity
  8
NOTE
100
AcDbLine
 10
5923.543335790001
 20
358.5342844501208
 30
0.0
 11
5924.543335790001
 21
358.5342844501208
 31
0.0
  0
LINE
  5
1D9D
330
2
100
AcDbEntity
  8
NOTE
100
AcDbLine
 10
5924.043335790001
 20
358.0342844501208
 30
0.0
 11
5924.043335790001
 21
359.0342844501208
 31
0.0
  0
LINE
  5
1D9E
330
2
100
AcDbEntity
  8
NOTE
100
AcDbLine
 10
5911.543335790001
 20
358.5342844501208
 30
0.0
 11
5922.543335790001
 21
358.5342844501208
 31
0.0
  0
LINE
  5
1D9F
330
2
100
AcDbEntity
  8
NOTE
100
AcDbLine
 10
5925.543335790001
 20
358.5342844501208
 30
0.0
 11
5936.543335790003
 21
358.5342844501208
 31
0.0
  0
LINE
  5
1DA0
330
2
100
AcDbEntity
  8
NOTE
100
AcDbLine
 10
5924.043335790001
 20
346.0342844501208
 30
0.0
 11
5924.043335790001
 21
357.0342844501208
 31
0.0
  0
LINE
  5
1DA1
330
2
100
AcDbEntity
  8
NOTE
100
AcDbLine
 10
5924.043335790001
 20
360.0342844501208
 30
0.0
 11
5924.043335790001
 21
371.0342844501208
 31
0.0
  0
LINE
  5
1DA2
330
2
100
AcDbEntity
  8
NOTE
100
AcDbLine
 10
5962.543335790003
 20
300.3342844501212
 30
0.0
 11
5963.543335790001
 21
300.3342844501212
 31
0.0
  0
LINE
  5
1DA3
330
2
100
AcDbEntity
  8
NOTE
100
AcDbLine
 10
5963.043335790001
 20
299.8342844501213
 30
0.0
 11
5963.043335790001
 21
300.8342844501212
 31
0.0
  0
LINE
  5
1DA4
330
2
100
AcDbEntity
  8
NOTE
100
AcDbLine
 10
5950.543335790001
 20
300.3342844501212
 30
0.0
 11
5961.54333579
 21
300.3342844501212
 31
0.0
  0
LINE
  5
1DA5
330
2
100
AcDbEntity
  8
NOTE
100
AcDbLine
 10
5964.543335790001
 20
300.3342844501212
 30
0.0
 11
5975.543335790001
 21
300.3342844501212
 31
0.0
  0
LINE
  5
1DA6
330
2
100
AcDbEntity
  8
NOTE
100
AcDbLine
 10
5963.043335790001
 20
287.8342844501212
 30
0.0
 11
5963.043335790001
 21
298.8342844501212
 31
0.0
  0
LINE
  5
1DA7
330
2
100
AcDbEntity
  8
NOTE
100
AcDbLine
 10
5963.043335790001
 20
301.8342844501213
 30
0.0
 11
5963.043335790001
 21
312.8342844501212
 31
0.0
  0
LINE
  5
1DA8
330
2
100
AcDbEntity
  8
NOTE
100
AcDbLine
 10
5962.543335790003
 20
-49.66571554987871
 30
0.0
 11
5963.543335790001
 21
-49.66571554987871
 31
0.0
  0
LINE
  5
1DA9
330
2
100
AcDbEntity
  8
NOTE
100
AcDbLine
 10
5963.043335790001
 20
-50.16571554987871
 30
0.0
 11
5963.043335790001
 21
-49.16571554987871
 31
0.0
  0
LINE
  5
1DAA
330
2
100
AcDbEntity
  8
NOTE
100
AcDbLine
 10
5950.543335790001
 20
-49.66571554987871
 30
0.0
 11
5961.54333579
 21
-49.66571554987871
 31
0.0
  0
LINE
  5
1DAB
330
2
100
AcDbEntity
  8
NOTE
100
AcDbLine
 10
5964.543335790001
 20
-49.66571554987871
 30
0.0
 11
5975.543335790001
 21
-49.66571554987871
 31
0.0
  0
LINE
  5
1DAC
330
2
100
AcDbEntity
  8
NOTE
100
AcDbLine
 10
5963.043335790001
 20
-62.16571554987871
 30
0.0
 11
5963.043335790001
 21
-51.16571554987871
 31
0.0
  0
LINE
  5
1DAD
330
2
100
AcDbEntity
  8
NOTE
100
AcDbLine
 10
5963.043335790001
 20
-48.16571554987871
 30
0.0
 11
5963.043335790001
 21
-37.16571554987871
 31
0.0
  0
LINE
  5
1DAE
330
2
100
AcDbEntity
  8
NOTE
100
AcDbLine
 10
5962.543335790003
 20
-399.6657155498787
 30
0.0
 11
5963.543335790001
 21
-399.6657155498787
 31
0.0
  0
LINE
  5
1DAF
330
2
100
AcDbEntity
  8
NOTE
100
AcDbLine
 10
5963.043335790001
 20
-400.1657155498786
 30
0.0
 11
5963.043335790001
 21
-399.1657155498787
 31
0.0
  0
LINE
  5
1DB0
330
2
100
AcDbEntity
  8
NOTE
100
AcDbLine
 10
5950.543335790001
 20
-399.6657155498787
 30
0.0
 11
5961.54333579
 21
-399.6657155498787
 31
0.0
  0
LINE
  5
1DB1
330
2
100
AcDbEntity
  8
NOTE
100
AcDbLine
 10
5964.543335790001
 20
-399.6657155498787
 30
0.0
 11
5975.543335790001
 21
-399.6657155498787
 31
0.0
  0
LINE
  5
1DB2
330
2
100
AcDbEntity
  8
NOTE
100
AcDbLine
 10
5963.043335790001
 20
-412.1657155498787
 30
0.0
 11
5963.043335790001
 21
-401.1657155498784
 31
0.0
  0
LINE
  5
1DB3
330
2
100
AcDbEntity
  8
NOTE
100
AcDbLine
 10
5963.043335790001
 20
-398.1657155498787
 30
0.0
 11
5963.043335790001
 21
-387.1657155498787
 31
0.0
  0
LINE
  5
1DB4
330
2
100
AcDbEntity
  8
OUTLINE
100
AcDbLine
 10
5311.043335790001
 20
-302.684241459775
 30
0.0
 11
5952.043335790001
 21
-302.6842414597747
 31
0.0
  0
LINE
  5
1DB5
330
2
100
AcDbEntity
  8
OUTLINE
100
AcDbLine
 10
5311.043335790001
 20
-302.6842414597751
 30
0.0
 11
5308.043335790001
 21
-299.6842414597751
 31
0.0
  0
LINE
  5
1DB6
330
2
100
AcDbEntity
  8
OUTLINE
100
AcDbLine
 10
5308.043335790001
 20
-299.684241459775
 30
0.0
 11
5308.043335790001
 21
255.8342844501211
 31
0.0
  0
LINE
  5
1DB7
330
2
100
AcDbEntity
  8
OUTLINE
100
AcDbLine
 10
5955.043335790001
 20
-299.6842414597749
 30
0.0
 11
5955.043335790001
 21
255.8342844501211
 31
0.0
  0
LINE
  5
1DB8
330
2
100
AcDbEntity
  8
OUTLINE
100
AcDbLine
 10
5955.043335790001
 20
-299.6842414597749
 30
0.0
 11
5952.043335790001
 21
-302.6842414597747
 31
0.0
  0
LINE
  5
1DB9
330
2
100
AcDbEntity
  8
OUTLINE
100
AcDbLine
 10
5944.043335790001
 20
227.2147375402251
 30
0.0
 11
5944.043335790001
 21
233.3157585402251
 31
0.0
  0
LINE
  5
1DBA
330
2
100
AcDbEntity
  8
OUTLINE
100
AcDbLine
 10
5949.043335790001
 20
233.3157595113579
 30
0.0
 11
5949.043335790001
 21
227.2147385113577
 31
0.0
  0
LINE
  5
1DBB
330
2
100
AcDbEntity
  8
OUTLINE
100
AcDbLine
 10
5314.04333579
 20
227.214737540225
 30
0.0
 11
5314.04333579
 21
233.3157585402249
 31
0.0
  0
LINE
  5
1DBC
330
2
100
AcDbEntity
  8
OUTLINE
100
AcDbLine
 10
5319.043335790001
 20
233.3157595113576
 30
0.0
 11
5319.043335790001
 21
227.2147385113576
 31
0.0
  0
CIRCLE
  5
1DBD
330
2
100
AcDbEntity
  8
OUTLINE
100
AcDbCircle
 10
5631.543335790001
 20
262.3157585402249
 30
0.0
 40
2.0
  0
CIRCLE
  5
1DBE
330
2
100
AcDbEntity
  8
OUTLINE
100
AcDbCircle
 10
5946.543335790001
 20
-272.6842414597749
 30
0.0
 40
2.5
  0
CIRCLE
  5
1DBF
330
2
100
AcDbEntity
  8
OUTLINE
100
AcDbCircle
 10
5316.543335790001
 20
-272.684241459775
 30
0.0
 40
2.5
  0
ARC
  5
1DC0
330
2
100
AcDbEntity
  8
OUTLINE
100
AcDbCircle
 10
5946.543335790001
 20
233.3157585402251
 30
0.0
 40
2.5
100
AcDbArc
 50
0.0000222567192451
 51
180.0
  0
ARC
  5
1DC1
330
2
100
AcDbEntity
  8
OUTLINE
100
AcDbCircle
 10
5316.543335790001
 20
233.3157585402249
 30
0.0
 40
2.5
100
AcDbArc
 50
0.0000222567192451
 51
180.0
  0
ARC
  5
1DC2
330
2
100
AcDbEntity
  8
OUTLINE
100
AcDbCircle
 10
5946.543336741513
 20
222.3157585402252
 30
0.0
 40
5.5
100
AcDbArc
 50
117.0357029177587
 51
62.96431933892832
  0
ARC
  5
1DC3
330
2
100
AcDbEntity
  8
OUTLINE
100
AcDbCircle
 10
5316.543336741514
 20
222.3157585402249
 30
0.0
 40
5.5
100
AcDbArc
 50
117.0357029177587
 51
62.96431933892832
  0
CIRCLE
  5
1DC4
330
2
100
AcDbEntity
  8
OUTLINE
100
AcDbCircle
 10
5946.543335790001
 20
0.315758540225147
 30
0.0
 40
2.5
  0
CIRCLE
  5
1DC5
330
2
100
AcDbEntity
  8
OUTLINE
100
AcDbCircle
 10
5316.543335790001
 20
0.3157585402249197
 30
0.0
 40
2.5
  0
LINE
  5
1DC6
330
2
100
AcDbEntity
  8
OUTLINE
100
AcDbLine
 10
5955.043335790001
 20
351.0271047731487
 30
0.0
 11
5955.043335790001
 21
351.1342844501211
 31
0.0
  0
LINE
  5
1DC7
330
2
100
AcDbEntity
  8
OUTLINE
100
AcDbLine
 10
5308.043335790001
 20
351.0271047731487
 30
0.0
 11
5308.043335790001
 21
351.1342844501211
 31
0.0
  0
LINE
  5
1DC8
330
2
100
AcDbEntity
  8
OUTLINE
100
AcDbLine
 10
5308.043335790001
 20
351.0271047731487
 30
0.0
 11
5308.043335790001
 21
273.5271047731487
 31
0.0
  0
LINE
  5
1DC9
330
2
100
AcDbEntity
  8
OUTLINE
100
AcDbLine
 10
5308.043335790001
 20
351.0271047731487
 30
0.0
 11
5955.043335790001
 21
351.0271047731487
 31
0.0
  0
LINE
  5
1DCA
330
2
100
AcDbEntity
  8
OUTLINE
100
AcDbLine
 10
5955.043335790001
 20
273.5271047731487
 30
0.0
 11
5955.043335790001
 21
351.0271047731487
 31
0.0
  0
LINE
  5
1DCB
330
2
100
AcDbEntity
  8
OUTLINE
100
AcDbLine
 10
5308.043335790001
 20
273.5271047731487
 30
0.0
 11
5308.043335790001
 21
272.8342844501213
 31
0.0
  0
LINE
  5
1DCC
330
2
100
AcDbEntity
  8
OUTLINE
100
AcDbLine
 10
5308.043335790001
 20
273.5271047731487
 30
0.0
 11
5955.043335790001
 21
273.5271047731487
 31
0.0
  0
LINE
  5
1DCD
330
2
100
AcDbEntity
  8
OUTLINE
100
AcDbLine
 10
5308.043335790001
 20
272.8342844501211
 30
0.0
 11
5308.043335790001
 21
255.8342844501211
 31
0.0
  0
LINE
  5
1DCE
330
2
100
AcDbEntity
  8
OUTLINE
100
AcDbLine
 10
5955.043335790001
 20
255.8342844501211
 30
0.0
 11
5955.043335790001
 21
272.8342844501211
 31
0.0
  0
LINE
  5
1DCF
330
2
100
AcDbEntity
  8
OUTLINE
100
AcDbLine
 10
5308.043335790001
 20
272.8342844501211
 30
0.0
 11
5955.043335790001
 21
272.8342844501211
 31
0.0
  0
LINE
  5
1DD0
330
2
100
AcDbEntity
  8
OUTLINE
100
AcDbLine
 10
5311.043335790001
 20
252.8342844501211
 30
0.0
 11
5308.043335790001
 21
255.8342844501211
 31
0.0
  0
LINE
  5
1DD1
330
2
100
AcDbEntity
  8
OUTLINE
100
AcDbLine
 10
5311.043335790001
 20
252.8342844501211
 30
0.0
 11
5952.043335790001
 21
252.8342844501211
 31
0.0
  0
LINE
  5
1DD2
330
2
100
AcDbEntity
  8
OUTLINE
100
AcDbLine
 10
5955.043335790001
 20
255.8342844501211
 30
0.0
 11
5952.043335790001
 21
252.8342844501211
 31
0.0
  0
LINE
  5
1DD3
330
2
100
AcDbEntity
  8
OUTLINE
100
AcDbLine
 10
5634.543335790001
 20
263.8342844501212
 30
0.0
 11
5634.543335790001
 21
261.8342844501212
 31
0.0
  0
LINE
  5
1DD4
330
2
100
AcDbEntity
  8
OUTLINE
100
AcDbLine
 10
5628.543335790001
 20
261.8342844501212
 30
0.0
 11
5628.543335790001
 21
263.8342844501212
 31
0.0
  0
LINE
  5
1DD5
330
2
100
AcDbEntity
  8
OUTLINE
100
AcDbLine
 10
5955.043335790001
 20
351.1342844501211
 30
0.0
 11
5308.043335790001
 21
351.1342844501211
 31
0.0
  0
LINE
  5
1DD6
330
2
100
AcDbEntity
  8
OUTLINE
  6
HIDDEN
100
AcDbLine
 10
5329.043335790001
 20
350.334284450121
 30
0.0
 11
5308.043335790001
 21
350.334284450121
 31
0.0
  0
LINE
  5
1DD7
330
2
100
AcDbEntity
  8
OUTLINE
100
AcDbLine
 10
5936.043335790001
 20
351.1342844501211
 30
0.0
 11
5936.043335790001
 21
362.334284450121
 31
0.0
  0
LINE
  5
1DD8
330
2
100
AcDbEntity
  8
OUTLINE
100
AcDbLine
 10
5308.043335790001
 20
351.1342844501211
 30
0.0
 11
5308.043335790001
 21
362.334284450121
 31
0.0
  0
LINE
  5
1DD9
330
2
100
AcDbEntity
  8
OUTLINE
100
AcDbLine
 10
5308.043335790001
 20
362.334284450121
 30
0.0
 11
5311.043335790001
 21
365.3342844501212
 31
0.0
  0
LINE
  5
1DDA
330
2
100
AcDbEntity
  8
OUTLINE
100
AcDbLine
 10
5311.043335790001
 20
365.3342844501212
 30
0.0
 11
5933.043335790001
 21
365.3342844501212
 31
0.0
  0
LINE
  5
1DDB
330
2
100
AcDbEntity
  8
OUTLINE
100
AcDbLine
 10
5933.043335790001
 20
365.3342844501212
 30
0.0
 11
5936.043335790001
 21
362.334284450121
 31
0.0
  0
ARC
  5
1DDC
330
2
100
AcDbEntity
  8
OUTLINE
100
AcDbCircle
 10
5631.543335790001
 20
261.8342844501212
 30
0.0
 40
3.0
100
AcDbArc
 50
180.0
 51
0.0
  0
ARC
  5
1DDD
330
2
100
AcDbEntity
  8
OUTLINE
100
AcDbCircle
 10
5631.543335790001
 20
263.8342844501212
 30
0.0
 40
3.0
100
AcDbArc
 50
0.0
 51
180.0
  0
CIRCLE
  5
1DDE
330
2
100
AcDbEntity
  8
OUTLINE
100
AcDbCircle
 10
5484.043335790001
 20
358.5342844501208
 30
0.0
 40
2.5
  0
ELLIPSE
  5
1DDF
330
2
100
AcDbEntity
  8
OUTLINE
100
AcDbEllipse
 10
5316.543335790001
 20
313.5271047731488
 30
0.0
 11
-2.5
 21
-0.0000000000000001
 31
0.0
210
0.0
220
0.0
230
1.0
 40
0.5
 41
1.570796326794896
 42
7.853981633974482
  0
ELLIPSE
  5
1DE0
330
2
100
AcDbEntity
  8
OUTLINE
100
AcDbEllipse
 10
5316.543335790001
 20
312.8342844501209
 30
0.0
 11
-2.5
 21
-0.0000000000000001
 31
0.0
210
0.0
220
0.0
230
1.0
 40
0.5
 41
3.422396530236681
 42
6.002381430532692
  0
ELLIPSE
  5
1DE1
330
2
100
AcDbEntity
  8
OUTLINE
100
AcDbEllipse
 10
5946.543335790001
 20
313.5271047731488
 30
0.0
 11
-2.5
 21
-0.0000000000000001
 31
0.0
210
0.0
220
0.0
230
1.0
 40
0.5
 41
1.570796326794896
 42
7.853981633974482
  0
ELLIPSE
  5
1DE2
330
2
100
AcDbEntity
  8
OUTLINE
100
AcDbEllipse
 10
5946.543335790001
 20
312.8342844501209
 30
0.0
 11
-2.5
 21
-0.0000000000000001
 31
0.0
210
0.0
220
0.0
230
1.0
 40
0.5
 41
3.422396530236663
 42
6.002381430532713
  0
CIRCLE
  5
1DE3
330
2
100
AcDbEntity
  8
OUTLINE
100
AcDbCircle
 10
5924.043335790001
 20
358.5342844501208
 30
0.0
 40
2.5
  0
LINE
  5
1DE4
330
2
100
AcDbEntity
  8
OUTLINE
100
AcDbLine
 10
5307.043335790002
 20
350.334284450121
 30
0.0
 11
5307.043335790002
 21
273.3157585402251
 31
0.0
  0
LINE
  5
1DE5
330
2
100
AcDbEntity
  8
OUTLINE
100
AcDbLine
 10
5312.043335790001
 20
350.334284450121
 30
0.0
 11
5308.043335790001
 21
350.334284450121
 31
0.0
  0
LINE
  5
1DE6
330
2
100
AcDbEntity
  8
OUTLINE
100
AcDbLine
 10
5308.043335790001
 20
350.334284450121
 30
0.0
 11
5307.043335790002
 21
350.334284450121
 31
0.0
  0
LINE
  5
1DE7
330
2
100
AcDbEntity
  8
OUTLINE
100
AcDbLine
 10
5307.043335790002
 20
-302.6842414597747
 30
0.0
 11
5307.043335790002
 21
-444.6657155498788
 31
0.0
  0
LINE
  5
1DE8
330
2
100
AcDbEntity
  8
OUTLINE
100
AcDbLine
 10
5329.043335790001
 20
-443.9486373979088
 30
0.0
 11
5307.843335790001
 21
-443.9486373979088
 31
0.0
  0
LINE
  5
1DE9
330
2
100
AcDbEntity
  8
OUTLINE
100
AcDbLine
 10
5307.843335790001
 20
-303.3517022420739
 30
0.0
 11
5307.843335790001
 21
-302.6842414597747
 31
0.0
  0
LINE
  5
1DEA
330
2
100
AcDbEntity
  8
OUTLINE
100
AcDbLine
 10
5307.843335790001
 20
-443.9486373979088
 30
0.0
 11
5307.843335790001
 21
-443.2811766156095
 31
0.0
  0
LINE
  5
1DEB
330
2
100
AcDbEntity
  8
OUTLINE
100
AcDbLine
 10
5308.643335790002
 20
-443.2811766156095
 30
0.0
 11
5308.643335790002
 21
-303.3517022420738
 31
0.0
  0
LINE
  5
1DEC
330
2
100
AcDbEntity
  8
OUTLINE
100
AcDbLine
 10
5307.843335790001
 20
-303.3517022420738
 30
0.0
 11
5308.643335790002
 21
-303.3517022420738
 31
0.0
  0
LINE
  5
1DED
330
2
100
AcDbEntity
  8
OUTLINE
100
AcDbLine
 10
5307.843335790001
 20
-443.2811766156095
 30
0.0
 11
5308.643335790002
 21
-443.2811766156095
 31
0.0
  0
LINE
  5
1DEE
330
2
100
AcDbEntity
  8
OUTLINE
  6
HIDDEN
100
AcDbLine
 10
5329.043335790001
 20
350.334284450121
 30
0.0
 11
5332.043335790001
 21
347.3342844501212
 31
0.0
  0
LINE
  5
1DEF
330
2
100
AcDbEntity
  8
OUTLINE
100
AcDbLine
 10
5307.843335790001
 20
-302.6842414597747
 30
0.0
 11
5307.043335790002
 21
-302.6842414597747
 31
0.0
  0
LINE
  5
1DF0
330
2
100
AcDbEntity
  8
OUTLINE
100
AcDbLine
 10
5307.043335790002
 20
273.3157585402249
 30
0.0
 11
5307.043335790002
 21
-302.6842414597747
 31
0.0
  0
LINE
  5
1DF1
330
2
100
AcDbEntity
  8
OUTLINE
100
AcDbLine
 10
5308.043335790001
 20
273.3157585402249
 30
0.0
 11
5307.043335790002
 21
273.3157585402249
 31
0.0
  0
LINE
  5
1DF2
330
2
100
AcDbEntity
  8
OUTLINE
100
AcDbLine
 10
5311.043335790001
 20
-302.6842414597747
 30
0.0
 11
5307.843335790001
 21
-302.6842414597747
 31
0.0
  0
LINE
  5
1DF3
330
2
100
AcDbEntity
  8
OUTLINE
100
AcDbLine
 10
5307.043335790002
 20
-444.6657155498788
 30
0.0
 11
5329.043335790001
 21
-444.6657155498788
 31
0.0
  0
LINE
  5
1DF4
330
2
100
AcDbEntity
  8
OUTLINE
100
AcDbLine
 10
5332.043335790001
 20
-439.9198717517442
 30
0.0
 11
5332.043335790001
 21
-302.6842414597751
 31
0.0
  0
LINE
  5
1DF5
330
2
100
AcDbEntity
  8
OUTLINE
  6
HIDDEN
100
AcDbLine
 10
5332.043335790001
 20
-302.684241459775
 30
0.0
 11
5332.043335790001
 21
347.3342844501212
 31
0.0
  0
LINE
  5
1DF6
330
2
100
AcDbEntity
  8
OUTLINE
100
AcDbLine
 10
5332.043335790001
 20
-440.6369499037142
 30
0.0
 11
5332.043335790001
 21
-439.9198717517442
 31
0.0
  0
LINE
  5
1DF7
330
2
100
AcDbEntity
  8
OUTLINE
100
AcDbLine
 10
5329.043335790001
 20
-444.6657155498788
 30
0.0
 11
5332.043335790001
 21
-440.6369499037142
 31
0.0
  0
LINE
  5
1DF8
330
2
100
AcDbEntity
  8
OUTLINE
100
AcDbLine
 10
5329.043335790001
 20
-443.9486373979088
 30
0.0
 11
5329.043335790001
 21
-444.6657155498788
 31
0.0
  0
LINE
  5
1DF9
330
2
100
AcDbEntity
  8
OUTLINE
100
AcDbLine
 10
5332.043335790001
 20
-439.9198717517442
 30
0.0
 11
5329.043335790001
 21
-443.9486373979088
 31
0.0
  0
CIRCLE
  5
1DFA
330
2
100
AcDbEntity
  8
OUTLINE
100
AcDbCircle
 10
5322.043335790001
 20
-428.3657155498788
 30
0.0
 40
2.5
  0
CIRCLE
  5
1DFB
330
2
100
AcDbEntity
  8
OUTLINE
  6
HIDDEN
100
AcDbCircle
 10
5322.043335790001
 20
-47.36571554987892
 30
0.0
 40
2.5
  0
CIRCLE
  5
1DFC
330
2
100
AcDbEntity
  8
OUTLINE
  6
HIDDEN
100
AcDbCircle
 10
5322.043335790001
 20
333.434284450121
 30
0.0
 40
2.5
  0
ELLIPSE
  5
1DFD
330
2
100
AcDbEntity
  8
OUTLINE
100
AcDbEllipse
 10
5316.543335790001
 20
312.1229382171974
 30
0.0
 11
-2.0
 21
0.0000000000000001
 31
0.0
210
0.0
220
0.0
230
1.0
 40
0.4999999999999995
 41
3.667255563451801
 42
5.75752239731748
  0
ELLIPSE
  5
1DFE
330
2
100
AcDbEntity
  8
OUTLINE
100
AcDbEllipse
 10
5316.543335790001
 20
312.8157585402249
 30
0.0
 11
-2.0
 21
0.0000000000000001
 31
0.0
210
0.0
220
0.0
230
1.0
 40
0.4999999999999995
 41
3.101878246053556
 42
6.322899714715691
  0
CIRCLE
  5
1DFF
330
2
100
AcDbEntity
  8
OUTLINE
100
AcDbCircle
 10
5316.543335790001
 20
-272.6842414597749
 30
0.0
 40
2.0
  0
CIRCLE
  5
1E00
330
2
100
AcDbEntity
  8
OUTLINE
100
AcDbCircle
 10
5316.543335790001
 20
0.3157585402250334
 30
0.0
 40
2.0
  0
CIRCLE
  5
1E01
330
2
100
AcDbEntity
  8
OUTLINE
100
AcDbCircle
 10
5316.543335790001
 20
233.3157585402249
 30
0.0
 40
2.0
  0
LINE
  5
1E02
330
2
100
AcDbEntity
  8
OUTLINE
100
AcDbLine
 10
5956.043335790001
 20
273.3157585402251
 30
0.0
 11
5956.043335790001
 21
350.334284450121
 31
0.0
  0
LINE
  5
1E03
330
2
100
AcDbEntity
  8
OUTLINE
100
AcDbLine
 10
5956.043335790001
 20
-444.6657155498788
 30
0.0
 11
5956.043335790001
 21
-302.6842414597747
 31
0.0
  0
LINE
  5
1E04
330
2
100
AcDbEntity
  8
OUTLINE
100
AcDbLine
 10
5954.443335789999
 20
-303.3517022420739
 30
0.0
 11
5954.443335789999
 21
-443.4642861417407
 31
0.0
  0
LINE
  5
1E05
330
2
100
AcDbEntity
  8
OUTLINE
100
AcDbLine
 10
5955.243335790001
 20
-303.3517022420739
 30
0.0
 11
5954.443335789999
 21
-303.3517022420739
 31
0.0
  0
LINE
  5
1E06
330
2
100
AcDbEntity
  8
OUTLINE
100
AcDbLine
 10
5955.243335790001
 20
-443.4642861417407
 30
0.0
 11
5954.443335789999
 21
-443.4642861417407
 31
0.0
  0
LINE
  5
1E07
330
2
100
AcDbEntity
  8
OUTLINE
100
AcDbLine
 10
5956.043335790001
 20
350.334284450121
 30
0.0
 11
5955.043335790001
 21
350.334284450121
 31
0.0
  0
LINE
  5
1E08
330
2
100
AcDbEntity
  8
OUTLINE
100
AcDbLine
 10
5956.043335790001
 20
-444.6657155498788
 30
0.0
 11
5955.243335790001
 21
-444.6657155498788
 31
0.0
  0
LINE
  5
1E09
330
2
100
AcDbEntity
  8
OUTLINE
100
AcDbLine
 10
5955.243335790001
 20
-302.6842414597752
 30
0.0
 11
5955.243335790001
 21
-303.3517022420739
 31
0.0
  0
LINE
  5
1E0A
330
2
100
AcDbEntity
  8
OUTLINE
100
AcDbLine
 10
5955.243335790001
 20
-443.4642861417407
 30
0.0
 11
5955.243335790001
 21
-444.6657155498788
 31
0.0
  0
LINE
  5
1E0B
330
2
100
AcDbEntity
  8
OUTLINE
100
AcDbLine
 10
5956.043335790001
 20
-444.6657155498788
 30
0.0
 11
5968.243335790001
 21
-444.6657155498788
 31
0.0
  0
LINE
  5
1E0C
330
2
100
AcDbEntity
  8
OUTLINE
100
AcDbLine
 10
5956.043335790001
 20
350.334284450121
 30
0.0
 11
5968.243335790001
 21
350.334284450121
 31
0.0
  0
LINE
  5
1E0D
330
2
100
AcDbEntity
  8
OUTLINE
100
AcDbLine
 10
5968.243335790001
 20
350.3342844501212
 30
0.0
 11
5971.243335790001
 21
347.3342844501212
 31
0.0
  0
LINE
  5
1E0E
330
2
100
AcDbEntity
  8
OUTLINE
100
AcDbLine
 10
5971.243335790001
 20
-441.6657155498788
 30
0.0
 11
5971.243335790001
 21
347.3342844501212
 31
0.0
  0
LINE
  5
1E0F
330
2
100
AcDbEntity
  8
OUTLINE
100
AcDbLine
 10
5971.243335790001
 20
-441.6657155498788
 30
0.0
 11
5968.243335790001
 21
-444.6657155498788
 31
0.0
  0
LINE
  5
1E10
330
2
100
AcDbEntity
  8
OUTLINE
100
AcDbLine
 10
5956.043335790001
 20
273.3157585402251
 30
0.0
 11
5955.043335790001
 21
273.3157585402251
 31
0.0
  0
LINE
  5
1E11
330
2
100
AcDbEntity
  8
OUTLINE
100
AcDbLine
 10
5956.043335790001
 20
-302.6842414597747
 30
0.0
 11
5956.043335790001
 21
273.3157585402251
 31
0.0
  0
LINE
  5
1E12
330
2
100
AcDbEntity
  8
OUTLINE
100
AcDbLine
 10
5956.043335790001
 20
-302.6842414597747
 30
0.0
 11
5955.243335790001
 21
-302.6842414597747
 31
0.0
  0
LINE
  5
1E13
330
2
100
AcDbEntity
  8
OUTLINE
100
AcDbLine
 10
5955.243335790001
 20
-302.6842414597747
 30
0.0
 11
5952.043335790001
 21
-302.6842414597747
 31
0.0
  0
ELLIPSE
  5
1E14
330
2
100
AcDbEntity
  8
OUTLINE
100
AcDbEllipse
 10
5946.543335790001
 20
312.8157585402251
 30
0.0
 11
-2.0
 21
0.0
 31
0.0
210
0.0
220
0.0
230
1.0
 40
0.4999999999999999
 41
3.101878246053543
 42
6.322899714715795
  0
ELLIPSE
  5
1E15
330
2
100
AcDbEntity
  8
OUTLINE
100
AcDbEllipse
 10
5946.543335790001
 20
312.1229382171974
 30
0.0
 11
-2.0
 21
0.0
 31
0.0
210
0.0
220
0.0
230
1.0
 40
0.4999999999999995
 41
3.667255563451842
 42
5.757522397317536
  0
CIRCLE
  5
1E16
330
2
100
AcDbEntity
  8
OUTLINE
100
AcDbCircle
 10
5963.043335790001
 20
300.3342844501212
 30
0.0
 40
2.5
  0
CIRCLE
  5
1E17
330
2
100
AcDbEntity
  8
OUTLINE
100
AcDbCircle
 10
5963.043335790001
 20
-49.66571554987883
 30
0.0
 40
2.5
  0
CIRCLE
  5
1E18
330
2
100
AcDbEntity
  8
OUTLINE
100
AcDbCircle
 10
5963.043335790001
 20
-399.6657155498788
 30
0.0
 40
2.5
  0
CIRCLE
  5
1E19
330
2
100
AcDbEntity
  8
OUTLINE
100
AcDbCircle
 10
5946.543335790001
 20
-272.6842414597747
 30
0.0
 40
2.0
  0
CIRCLE
  5
1E1A
330
2
100
AcDbEntity
  8
OUTLINE
100
AcDbCircle
 10
5946.543335790001
 20
0.315758540225147
 30
0.0
 40
2.0
  0
CIRCLE
  5
1E1B
330
2
100
AcDbEntity
  8
OUTLINE
100
AcDbCircle
 10
5946.543335790001
 20
233.3157585402251
 30
0.0
 40
2.0
  0
LINE
  5
1E25
330
2
100
AcDbEntity
  8
BASIS
  6
DASHDOT
 62
     6
100
AcDbLine
 10
5639.14333579
 20
-474.8620781764306
 30
0.0
 11
5639.14333579
 21
390.3231114120559
 31
0.0
  0
LINE
  5
1E26
330
2
100
AcDbEntity
  8
ARRANGE
  6
Continuous
 62
     1
100
AcDbLine
 10
5622.459218225595
 20
-461.3498331142818
 30
0.0
 11
5655.827453354405
 21
-427.9815979854747
 31
0.0
  0
LINE
  5
1E27
330
2
100
AcDbEntity
  8
ARRANGE
  6
Continuous
 62
     1
100
AcDbLine
 10
5622.459218225595
 20
-427.9815979854747
 30
0.0
 11
5655.827453354405
 21
-461.3498331142818
 31
0.0
  0
CIRCLE
  5
1E28
330
2
100
AcDbEntity
  8
ARRANGE
100
AcDbCircle
 10
5639.14333579
 20
-444.6657155498782
 30
0.0
 40
15.0
  0
DIMENSION
  5
1E29
330
2
100
AcDbEntity
  8
NOTE
100
AcDbDimension
  2
*D59
 10
5485.209847731802
 20
356.3231196236936
 30
0.0
 11
5436.592605623091
 21
394.8848187957035
 31
0.0
 70
   163
  1
8×<>
 71
     5
 42
5.000000000000452
  3
AM_ISO$3
100
AcDbDiametricDimension
 15
5482.876823848187
 25
360.7454492765453
 35
0.0
 40
0.0
1001
ACAD_DSTYLE_DIMRADIAL_EXTENSION
1070
   387
1070
     1
1070
   388
1040
0.0
1070
   390
1040
0.0
1001
ACAD_DSTYLE_DIMINSPECT
1070
   396
1000
100%
1070
   395
1000

1070
   394
1070
    33
1070
   393
1070
     0
  0
DIMENSION
  5
1E65
330
2
100
AcDbEntity
  8
SIZE
100
AcDbDimension
  2
*D60
 10
5924.043335790001
 20
398.8529000419625
 30
0.0
 11
5704.043335790003
 21
408.2279000419623
 31
0.0
 70
    32
 71
     5
 42
439.999999999999
  3
ISO-25
100
AcDbAlignedDimension
 13
5484.043335790001
 23
371.0342844501208
 33
0.0
 14
5924.043335790001
 24
371.0342844501208
 34
0.0
100
AcDbRotatedDimension
1001
ACAD
1000
DSTYLE
1002
{
1070
    40
1040
5.0
1070
    45
1040
0.5
1070
    90
1070
     1
1070
   271
1070
     1
1070
   272
1070
     1
1070
   341
1005
4E
1070
   342
1005
48
1002
}
  0
DIMENSION
  5
1E72
330
2
100
AcDbEntity
  8
SIZE
100
AcDbDimension
  2
*D61
 10
5322.043335790001
 20
424.2656634590293
 30
0.0
 11
5642.543335790001
 21
433.6406634590293
 31
0.0
 70
    32
 71
     5
 42
641.0
  3
ISO-25
100
AcDbAlignedDimension
 13
5963.043335790001
 23
312.8342844501212
 33
0.0
 14
5322.043335790001
 24
345.934284450121
 34
0.0
100
AcDbRotatedDimension
1001
ACAD
1000
DSTYLE
1002
{
1070
    40
1040
5.0
1070
    45
1040
0.5
1070
    90
1070
     1
1070
   271
1070
     1
1070
   272
1070
     1
1070
   341
1005
4E
1070
   342
1005
48
1002
}
  0
DIMENSION
  5
1E7F
330
2
100
AcDbEntity
  8
SIZE
100
AcDbDimension
  2
*D62
 10
5971.243335790001
 20
450.346223918887
 30
0.0
 11
5639.14333579
 21
459.721223918887
 31
0.0
 70
    32
 71
     5
 42
664.1999999999998
  3
ISO-25
100
AcDbAlignedDimension
 13
5307.043335790002
 23
350.334284450121
 33
0.0
 14
5971.243335790001
 24
347.3342844501212
 34
0.0
100
AcDbRotatedDimension
1001
ACAD
1000
DSTYLE
1002
{
1070
    40
1040
5.0
1070
    45
1040
0.5
1070
    90
1070
     1
1070
   271
1070
     1
1070
   272
1070
     1
1070
   341
1005
4E
1070
   342
1005
48
1002
}
  0
DIMENSION
  5
1E8C
330
2
100
AcDbEntity
  8
SIZE
100
AcDbDimension
  2
*D63
 10
5264.223639694485
 20
-47.36571554987892
 30
0.0
 11
5254.848639694484
 21
-237.865715549878
 31
0.0
 70
    32
 71
     5
 42
381.0
  3
ISO-25
100
AcDbAlignedDimension
 13
5309.543335790001
 23
-428.3657155498788
 33
0.0
 14
5309.543335790001
 24
-47.36571554987892
 34
0.0
 50
90.0
100
AcDbRotatedDimension
1001
ACAD
1000
DSTYLE
1002
{
1070
    40
1040
5.0
1070
    45
1040
0.5
1070
    90
1070
     1
1070
   271
1070
     1
1070
   272
1070
     1
1070
   341
1005
4E
1070
   342
1005
48
1002
}
  0
DIMENSION
  5
1E99
330
2
100
AcDbEntity
  8
SIZE
100
AcDbDimension
  2
*D64
 10
5264.223639694485
 20
333.434284450121
 30
0.0
 11
5254.848639694484
 21
143.0342844501219
 31
0.0
 70
    32
 71
     5
 42
380.8
  3
ISO-25
100
AcDbAlignedDimension
 13
5309.543335790001
 23
-47.36571554987892
 33
0.0
 14
5309.543335790001
 24
333.434284450121
 34
0.0
 50
90.0
100
AcDbRotatedDimension
1001
ACAD
1000
DSTYLE
1002
{
1070
    40
1040
5.0
1070
    45
1040
0.5
1070
    90
1070
     1
1070
   271
1070
     1
1070
   272
1070
     1
1070
   341
1005
4E
1070
   342
1005
48
1002
}
  0
DIMENSION
  5
1EA6
330
2
100
AcDbEntity
  8
SIZE
100
AcDbDimension
  2
*D65
 10
5264.223639694485
 20
333.434284450121
 30
0.0
 11
5264.223639694485
 21
345.9842844501218
 31
0.0
 70
   160
 71
     5
 42
25.09999999999991
  3
ISO-25
100
AcDbAlignedDimension
 13
5471.543335790002
 23
358.5342844501208
 33
0.0
 14
5309.543335790001
 24
333.434284450121
 34
0.0
 50
90.0
100
AcDbRotatedDimension
1001
ACAD
1000
DSTYLE
1002
{
1070
    40
1040
5.0
1070
    45
1040
0.5
1070
    90
1070
     1
1070
   271
1070
     1
1070
   272
1070
     1
1070
   341
1005
4E
1070
   342
1005
48
1002
}
  0
DIMENSION
  5
1ED4
330
2
100
AcDbEntity
  8
SIZE
100
AcDbDimension
  2
*D66
 10
6026.452047900397
 20
-49.66571554987872
 30
0.0
 11
6017.077047900396
 21
-224.6657155498778
 31
0.0
 70
    32
 71
     5
 42
350.0
  3
ISO-25
100
AcDbAlignedDimension
 13
5975.543335790001
 23
-399.6657155498787
 33
0.0
 14
5975.543335790001
 24
-49.66571554987871
 34
0.0
 50
90.0
100
AcDbRotatedDimension
1001
ACAD
1000
DSTYLE
1002
{
1070
    40
1040
5.0
1070
    45
1040
0.5
1070
    90
1070
     1
1070
   271
1070
     1
1070
   272
1070
     1
1070
   341
1005
4E
1070
   342
1005
48
1002
}
  0
DIMENSION
  5
1EE1
330
2
100
AcDbEntity
  8
SIZE
100
AcDbDimension
  2
*D67
 10
6026.452047900397
 20
300.3342844501212
 30
0.0
 11
6017.077047900396
 21
125.3342844501222
 31
0.0
 70
    32
 71
     5
 42
350.0
  3
ISO-25
100
AcDbAlignedDimension
 13
5975.543335790001
 23
-49.66571554987871
 33
0.0
 14
5975.543335790001
 24
300.3342844501212
 34
0.0
 50
90.0
100
AcDbRotatedDimension
1001
ACAD
1000
DSTYLE
1002
{
1070
    40
1040
5.0
1070
    45
1040
0.5
1070
    90
1070
     1
1070
   271
1070
     1
1070
   272
1070
     1
1070
   341
1005
4E
1070
   342
1005
48
1002
}
  0
DIMENSION
  5
1EEE
330
2
100
AcDbEntity
  8
SIZE
100
AcDbDimension
  2
*D68
 10
6026.452047900397
 20
358.5342844501208
 30
0.0
 11
6017.077047900396
 21
329.434284450122
 31
0.0
 70
    32
 71
     5
 42
58.1999999999997
  3
ISO-25
100
AcDbAlignedDimension
 13
5975.543335790001
 23
300.3342844501212
 33
0.0
 14
5936.543335790003
 24
358.5342844501208
 34
0.0
 50
90.0
100
AcDbRotatedDimension
1001
ACAD
1000
DSTYLE
1002
{
1070
    40
1040
5.0
1070
    45
1040
0.5
1070
    90
1070
     1
1070
   271
1070
     1
1070
   272
1070
     1
1070
   341
1005
4E
1070
   342
1005
48
1002
}
  0
DIMENSION
  5
1F0D
330
2
100
AcDbEntity
  8
SIZE
100
AcDbDimension
  2
*D69
 10
5230.228334529176
 20
-444.6657155498788
 30
0.0
 11
5220.853334529176
 21
-39.66571554987804
 31
0.0
 70
    32
 71
     5
 42
810.0
  3
ISO-25
100
AcDbAlignedDimension
 13
5311.043335790001
 23
365.3342844501212
 33
0.0
 14
5307.043335790002
 24
-444.6657155498788
 34
0.0
 50
90.0
100
AcDbRotatedDimension
1001
ACAD
1000
DSTYLE
1002
{
1070
    40
1040
5.0
1070
    45
1040
0.5
1070
    90
1070
     1
1070
   271
1070
     1
1070
   272
1070
     1
1070
   341
1005
4E
1070
   342
1005
48
1002
}
  0
ENDSEC
  0
SECTION
  2
OBJECTS
  0
DICTIONARY
  5
9
330
0
100
AcDbDictionary
281
     1
  3
ACAD_2007HEADERVARS_RT
350
2111
  3
ACAD_BACKGROUND
350
45B
  3
ACAD_COLOR
350
45
  3
ACAD_GROUP
350
32
  3
ACAD_LAYOUT
350
16
  3
ACAD_MATERIAL
350
B
  3
ACAD_MLEADERSTYLE
350
454
  3
ACAD_MLINESTYLE
350
33
  3
ACAD_PLOTSETTINGS
350
34
  3
ACAD_PLOTSTYLENAME
350
8
  3
ACAD_SCALELIST
350
46
  3
ACAD_TABLESTYLE
350
47
  3
ACAD_VISUALSTYLE
350
2C
  3
ACDB_RECOMPOSE_DATA
350
440
  3
AcDbVariableDictionary
350
441
  3
AcmDictionary
350
C72
  3
AMG
350
BB3
  3
AMGSNAPSETTINGS
350
D5C
  3
DWGPROPS
350
2110
  0
DICTIONARY
  5
472
330
29
100
AcDbDictionary
280
     1
281
     1
  0
DICTIONARY
  5
1F
330
1E
100
AcDbDictionary
280
     1
281
     1
  3
ACAD_LAYERFILTERS
360
1E1D
  3
ACAD_LAYERSTATES
360
20
  3
ACLYDICTIONARY
360
1E1C
  0
DICTIONARY
  5
461
330
6
100
AcDbDictionary
280
     1
281
     1
  3
ADSK_XREC_LAYER_RECONCILED
360
462
  0
DICTIONARY
  5
3
330
2
100
AcDbDictionary
280
     1
281
     1
  3
ACAD_INDEX
360
F76
  3
ACAD_LAYOUTSELFREF
360
4
  3
ACAD_SORTENTS
360
12F6
  0
DICTIONARY
  5
2117
330
5AA
100
AcDbDictionary
280
     1
281
     1
  3
ACAD_MTEXT_RT
360
2118
  0
DICTIONARY
  5
211B
330
F37
100
AcDbDictionary
280
     1
281
     1
  3
ACAD_MTEXT_RT
360
211C
  0
DICTIONARY
  5
2119
330
E7F
100
AcDbDictionary
280
     1
281
     1
  3
ACAD_MTEXT_RT
360
211A
  0
DICTIONARY
  5
211D
330
F73
100
AcDbDictionary
280
     1
281
     1
  3
ACAD_MTEXT_RT
360
211E
  0
DICTIONARY
  5
211F
330
1332
100
AcDbDictionary
280
     1
281
     1
  3
ACAD_MTEXT_RT
360
2120
  0
DICTIONARY
  5
2121
330
15DF
100
AcDbDictionary
280
     1
281
     1
  3
ACAD_MTEXT_RT
360
2122
  0
DICTIONARY
  5
2123
330
1A19
100
AcDbDictionary
280
     1
281
     1
  3
ACAD_MTEXT_RT
360
2124
  0
DICTIONARY
  5
2125
330
1E62
100
AcDbDictionary
280
     1
281
     1
  3
ACAD_MTEXT_RT
360
2126
  0
DICTIONARY
  5
2111
102
{ACAD_REACTORS
330
9
102
}
330
9
100
AcDbDictionary
281
     1
  3
DIMARCSYM
350
2112
  0
DICTIONARY
  5
45B
102
{ACAD_REACTORS
330
9
102
}
330
9
100
AcDbDictionary
281
     1
  0
DICTIONARY
  5
45
102
{ACAD_REACTORS
330
9
102
}
330
9
100
AcDbDictionary
281
     1
  0
DICTIONARY
  5
32
102
{ACAD_REACTORS
330
9
102
}
330
9
100
AcDbDictionary
281
     1
  0
DICTIONARY
  5
16
102
{ACAD_REACTORS
330
9
102
}
330
9
100
AcDbDictionary
281
     1
  3
Model
350
15
  3
レイアウト1
350
1A
  0
DICTIONARY
  5
B
102
{ACAD_REACTORS
330
9
102
}
330
9
100
AcDbDictionary
281
     1
  3
ByBlock
350
3D
  3
ByLayer
350
35
  3
Global
350
A
  0
DICTIONARY
  5
454
102
{ACAD_REACTORS
330
9
102
}
330
9
100
AcDbDictionary
281
     1
  3
Standard
350
455
  0
DICTIONARY
  5
33
102
{ACAD_REACTORS
330
9
102
}
330
9
100
AcDbDictionary
281
     1
  3
Standard
350
55
  0
DICTIONARY
  5
34
102
{ACAD_REACTORS
330
9
102
}
330
9
100
AcDbDictionary
281
     1
  0
ACDBDICTIONARYWDFLT
  5
8
102
{ACAD_REACTORS
330
9
102
}
330
9
100
AcDbDictionary
281
     1
  3
Normal
350
7
100
AcDbDictionaryWithDefault
340
7
  0
DICTIONARY
  5
46
102
{ACAD_REACTORS
330
9
102
}
330
9
100
AcDbDictionary
281
     1
  3
A0
350
59
  3
A1
350
5A
  3
A2
350
5B
  3
A3
350
5C
  3
A4
350
5D
  3
A5
350
5E
  3
A6
350
5F
  3
A7
350
60
  3
A8
350
61
  3
A9
350
62
  3
B0
350
63
  3
B1
350
64
  3
B2
350
65
  3
B3
350
66
  3
B4
350
67
  3
B5
350
68
  3
B6
350
69
  3
B7
350
6A
  3
B8
350
6B
  3
B9
350
6C
  3
C0
350
6D
  3
C1
350
6E
  3
C2
350
6F
  3
C3
350
70
  3
C4
350
71
  3
C5
350
72
  3
C6
350
73
  3
C7
350
74
  3
C8
350
75
  3
C9
350
76
  3
D0
350
77
  3
D1
350
78
  3
D2
350
79
  0
DICTIONARY
  5
47
102
{ACAD_REACTORS
330
9
102
}
330
9
100
AcDbDictionary
281
     1
  3
Standard
350
56
  0
DICTIONARY
  5
2C
102
{ACAD_REACTORS
330
9
102
}
330
9
100
AcDbDictionary
281
     1
  3
2dWireframe
350
44B
  3
3D Hidden
350
44C
  3
3dWireframe
350
58
  3
Basic
350
44A
  3
Brighten
350
44F
  3
ColorChange
350
453
  3
Conceptual
350
44D
  3
Dim
350
44E
  3
Facepattern
350
452
  3
Flat
350
447
  3
FlatWithEdges
350
448
  3
Gouraud
350
2B
  3
GouraudWithEdges
350
449
  3
Linepattern
350
451
  3
Realistic
350
57
  3
Thicken
350
450
  0
XRECORD
  5
440
102
{ACAD_REACTORS
330
9
102
}
330
9
100
AcDbXrecord
280
     1
 90
        1
330
56
  0
DICTIONARY
  5
441
102
{ACAD_REACTORS
330
9
102
}
330
9
100
AcDbDictionary
281
     1
  3
CANNOSCALE
350
444
  3
CMLEADERSTYLE
350
443
  3
CTABLESTYLE
350
442
  3
DIMASSOC
350
47E
  3
HIDETEXT
350
47D
  3
INDEXCTL
350
47C
  3
LIGHTINGUNITS
350
445
  3
MSLTSCALE
350
47A
  3
SORTENTS
350
47B
  0
DICTIONARY
  5
C72
102
{ACAD_REACTORS
330
9
102
}
330
9
100
AcDbDictionary
281
     1
  3
AcmStdDictionary
350
C82
  3
AMDTSECTSYM_ARROWCOLOR
350
C9A
  0
DICTIONARY
  5
BB3
102
{ACAD_REACTORS
330
9
102
}
330
9
100
AcDbDictionary
281
     1
  3
AcMgSettings
350
BB4
  0
DICTIONARY
  5
D5C
102
{ACAD_REACTORS
330
9
102
}
330
9
100
AcDbDictionary
281
     1
  3
DIMENSION
350
D61
  3
FEA
350
D60
  3
HATCH (1)
350
D5D
  3
HATCH (2)
350
D5E
  3
SIMPLE WELD
350
D62
  3
SYMBOLS
350
D5F
  0
XRECORD
  5
2110
102
{ACAD_REACTORS
330
9
102
}
330
9
100
AcDbXrecord
280
     1
  1
DWGPROPS COOKIE
  2

  3

  4

  6

  7

  8
W000135
  9

300
AmdtFileType=84
301
=
302
=
303
=
304
=
305
=
306
=
307
=
308
=
309
=
 40
2.038394409722222
 41
2451686.550481944
 42
2455888.671525544
  1

 90
        1
  0
DICTIONARY
  5
1E1D
102
{ACAD_REACTORS
330
1F
102
}
330
1F
100
AcDbDictionary
281
     1
  0
DICTIONARY
  5
20
102
{ACAD_REACTORS
330
1F
102
}
330
1F
100
AcDbDictionary
281
     1
  0
DICTIONARY
  5
1E1C
102
{ACAD_REACTORS
330
1F
102
}
330
1F
100
AcDbDictionary
281
     1
1001
ACAD
1000
<All
  0
XRECORD
  5
462
102
{ACAD_REACTORS
330
461
102
}
330
461
100
AcDbXrecord
280
     1
290
     1
  0
DICTIONARY
  5
F76
102
{ACAD_REACTORS
330
3
102
}
330
3
100
AcDbDictionary
281
     1
  3
*A1
350
F77
  0
XRECORD
  5
4
102
{ACAD_REACTORS
330
3
102
}
330
3
100
AcDbXrecord
280
     1
340
2
  0
SORTENTSTABLE
  5
12F6
102
{ACAD_REACTORS
330
3
102
}
330
3
100
AcDbSortentsTable
330
2
331
460
  5
460
  0
XRECORD
  5
2118
102
{ACAD_REACTORS
330
2117
102
}
330
2117
100
AcDbXrecord
280
     1
 40
1916.0
  1
\U+22054
  0
XRECORD
  5
211C
102
{ACAD_REACTORS
330
211B
102
}
330
211B
100
AcDbXrecord
280
     1
 40
3520.0
  1
2×\U+22055
  0
XRECORD
  5
211A
102
{ACAD_REACTORS
330
2119
102
}
330
2119
100
AcDbXrecord
280
     1
 40
1924.0
  1
\U+22055
  0
XRECORD
  5
211E
102
{ACAD_REACTORS
330
211D
102
}
330
211D
100
AcDbXrecord
280
     1
 40
3521.0
  1
3×\U+22055
  0
XRECORD
  5
2120
102
{ACAD_REACTORS
330
211F
102
}
330
211F
100
AcDbXrecord
280
     1
 40
3525.0
  1
7×\U+22055
  0
XRECORD
  5
2122
102
{ACAD_REACTORS
330
2121
102
}
330
2121
100
AcDbXrecord
280
     1
 40
3525.0
  1
7×\U+22055
  0
XRECORD
  5
2124
102
{ACAD_REACTORS
330
2123
102
}
330
2123
100
AcDbXrecord
280
     1
 40
4088.0
  1
10×\U+22055
  0
XRECORD
  5
2126
102
{ACAD_REACTORS
330
2125
102
}
330
2125
100
AcDbXrecord
280
     1
 40
3526.0
  1
8×\U+22055
  0
XRECORD
  5
2112
102
{ACAD_REACTORS
330
2111
102
}
330
2111
100
AcDbXrecord
280
     1
 70
     1
  0
LAYOUT
  5
15
102
{ACAD_XDICTIONARY
360
2113
102
}
102
{ACAD_REACTORS
330
16
102
}
330
16
100
AcDbPlotSettings
  1

  2
\\ENGC3\QUE_LP1
  4

  6

 40
0.0
 41
0.0
 42
0.0
 43
0.0
 44
0.0
 45
0.0
 46
0.0
 47
0.0
 48
0.0
 49
0.0
140
0.0
141
0.0
142
1.0
143
1.0
 70
  1712
 72
     0
 73
     0
 74
     0
  7

 75
     0
147
1.0
148
0.0
149
0.0
100
AcDbLayout
  1
Model
 70
     1
 71
     0
 10
0.0
 20
0.0
 11
12.0
 21
9.0
 12
0.0
 22
0.0
 32
0.0
 14
0.0
 24
0.0
 34
0.0
 15
0.0
 25
0.0
 35
0.0
146
0.0
 13
0.0
 23
0.0
 33
0.0
 16
1.0
 26
0.0
 36
0.0
 17
0.0
 27
1.0
 37
0.0
 76
     0
330
2
331
5BC
  0
LAYOUT
  5
1A
102
{ACAD_XDICTIONARY
360
1B
102
}
102
{ACAD_REACTORS
330
16
102
}
330
16
100
AcDbPlotSettings
  1

  2
Microsoft XPS Document Writer
  4
A4
  6

 40
3.174999952316281
 41
3.174999952316281
 42
3.175003051757812
 43
3.17498779296875
 44
210.0156707763672
 45
297.0106506347656
 46
0.0
 47
0.0
 48
0.0
 49
0.0
140
0.0
141
0.0
142
1.0
143
1.0
 70
   688
 72
     1
 73
     1
 74
     5
  7

 75
    16
147
1.0
148
0.0
149
0.0
100
AcDbLayout
  1
レイアウト1
 70
     1
 71
     1
 10
0.0
 20
0.0
 11
12.0
 21
9.0
 12
0.0
 22
0.0
 32
0.0
 14
-768.9287376092372
 24
-691.6169972801593
 34
0.0
 15
1872.728159421697
 25
834.5632593950229
 35
0.0
146
0.0
 13
0.0
 23
0.0
 33
0.0
 16
1.0
 26
0.0
 36
0.0
 17
0.0
 27
1.0
 37
0.0
 76
     0
330
17
1001
ACAD_PSEXT
1000
Microsoft XPS Document Writer
1000
Microsoft XPS Document Writer
1000
XPSPort:
1000

1070
     0
  0
MATERIAL
  5
3D
102
{ACAD_XDICTIONARY
360
3E
102
}
102
{ACAD_REACTORS
330
B
102
}
330
B
100
AcDbMaterial
  1
ByBlock
 72
     0
 43
0.0008202099737533
 43
0.0
 43
0.0
 43
0.0
 43
0.0
 43
0.0008202099737533
 43
0.0
 43
0.0
 43
0.0
 43
0.0
 43
1.0
 43
0.0
 43
0.0
 43
0.0
 43
0.0
 43
1.0
 77
     0
 47
0.0008202099737533
 47
0.0
 47
0.0
 47
0.0
 47
0.0
 47
0.0008202099737533
 47
0.0
 47
0.0
 47
0.0
 47
0.0
 47
1.0
 47
0.0
 47
0.0
 47
0.0
 47
0.0
 47
1.0
171
     0
 49
0.0008202099737533
 49
0.0
 49
0.0
 49
0.0
 49
0.0
 49
0.0008202099737533
 49
0.0
 49
0.0
 49
0.0
 49
0.0
 49
1.0
 49
0.0
 49
0.0
 49
0.0
 49
0.0
 49
1.0
175
     0
142
0.0008202099737533
142
0.0
142
0.0
142
0.0
142
0.0
142
0.0008202099737533
142
0.0
142
0.0
142
0.0
142
0.0
142
1.0
142
0.0
142
0.0
142
0.0
142
0.0
142
1.0
179
     0
144
0.0008202099737533
144
0.0
144
0.0
144
0.0
144
0.0
144
0.0008202099737533
144
0.0
144
0.0
144
0.0
144
0.0
144
1.0
144
0.0
144
0.0
144
0.0
144
0.0
144
1.0
147
0.0008202099737533
147
0.0
147
0.0
147
0.0
147
0.0
147
0.0008202099737533
147
0.0
147
0.0
147
0.0
147
0.0
147
1.0
147
0.0
147
0.0
147
0.0
147
0.0
147
1.0
  0
MATERIAL
  5
35
102
{ACAD_XDICTIONARY
360
36
102
}
102
{ACAD_REACTORS
330
B
102
}
330
B
100
AcDbMaterial
  1
ByLayer
 72
     0
 43
0.0008202099737533
 43
0.0
 43
0.0
 43
0.0
 43
0.0
 43
0.0008202099737533
 43
0.0
 43
0.0
 43
0.0
 43
0.0
 43
1.0
 43
0.0
 43
0.0
 43
0.0
 43
0.0
 43
1.0
 77
     0
 47
0.0008202099737533
 47
0.0
 47
0.0
 47
0.0
 47
0.0
 47
0.0008202099737533
 47
0.0
 47
0.0
 47
0.0
 47
0.0
 47
1.0
 47
0.0
 47
0.0
 47
0.0
 47
0.0
 47
1.0
171
     0
 49
0.0008202099737533
 49
0.0
 49
0.0
 49
0.0
 49
0.0
 49
0.0008202099737533
 49
0.0
 49
0.0
 49
0.0
 49
0.0
 49
1.0
 49
0.0
 49
0.0
 49
0.0
 49
0.0
 49
1.0
175
     0
142
0.0008202099737533
142
0.0
142
0.0
142
0.0
142
0.0
142
0.0008202099737533
142
0.0
142
0.0
142
0.0
142
0.0
142
1.0
142
0.0
142
0.0
142
0.0
142
0.0
142
1.0
179
     0
144
0.0008202099737533
144
0.0
144
0.0
144
0.0
144
0.0
144
0.0008202099737533
144
0.0
144
0.0
144
0.0
144
0.0
144
1.0
144
0.0
144
0.0
144
0.0
144
0.0
144
1.0
147
0.0008202099737533
147
0.0
147
0.0
147
0.0
147
0.0
147
0.0008202099737533
147
0.0
147
0.0
147
0.0
147
0.0
147
1.0
147
0.0
147
0.0
147
0.0
147
0.0
147
1.0
  0
MATERIAL
  5
A
102
{ACAD_XDICTIONARY
360
C
102
}
102
{ACAD_REACTORS
330
B
102
}
330
B
100
AcDbMaterial
  1
Global
 72
     0
 43
0.0008202099737533
 43
0.0
 43
0.0
 43
0.0
 43
0.0
 43
0.0008202099737533
 43
0.0
 43
0.0
 43
0.0
 43
0.0
 43
1.0
 43
0.0
 43
0.0
 43
0.0
 43
0.0
 43
1.0
 77
     0
 47
0.0008202099737533
 47
0.0
 47
0.0
 47
0.0
 47
0.0
 47
0.0008202099737533
 47
0.0
 47
0.0
 47
0.0
 47
0.0
 47
1.0
 47
0.0
 47
0.0
 47
0.0
 47
0.0
 47
1.0
171
     0
 49
0.0008202099737533
 49
0.0
 49
0.0
 49
0.0
 49
0.0
 49
0.0008202099737533
 49
0.0
 49
0.0
 49
0.0
 49
0.0
 49
1.0
 49
0.0
 49
0.0
 49
0.0
 49
0.0
 49
1.0
175
     0
142
0.0008202099737533
142
0.0
142
0.0
142
0.0
142
0.0
142
0.0008202099737533
142
0.0
142
0.0
142
0.0
142
0.0
142
1.0
142
0.0
142
0.0
142
0.0
142
0.0
142
1.0
179
     0
144
0.0008202099737533
144
0.0
144
0.0
144
0.0
144
0.0
144
0.0008202099737533
144
0.0
144
0.0
144
0.0
144
0.0
144
1.0
144
0.0
144
0.0
144
0.0
144
0.0
144
1.0
147
0.0008202099737533
147
0.0
147
0.0
147
0.0
147
0.0
147
0.0008202099737533
147
0.0
147
0.0
147
0.0
147
0.0
147
1.0
147
0.0
147
0.0
147
0.0
147
0.0
147
1.0
  0
MLEADERSTYLE
  5
455
102
{ACAD_REACTORS
330
454
102
}
330
454
100
AcDbMLeaderStyle
170
     2
171
     1
172
     0
 90
        2
 40
0.0
 41
0.0
173
     1
 91
-1056964608
340
25
 92
       -2
290
     1
 42
2.0
291
     1
 43
0.36
  3
Standard
 44
4.0
300

342
22
174
     1
178
     6
175
     1
176
     0
 93
-1056964608
 45
4.0
292
     0
297
     0
 46
4.0
 94
-1056964608
 47
1.0
 49
1.0
140
1.0
293
     1
141
0.0
294
     1
177
     0
142
1.0
295
     0
296
     0
143
0.125
1001
ACAD_MLEADERVER
1070
     2
  0
MLINESTYLE
  5
55
102
{ACAD_REACTORS
330
33
102
}
330
33
100
AcDbMlineStyle
  2
STANDARD
 70
     0
  3

 62
   256
 51
90.0
 52
90.0
 71
     2
 49
0.5
 62
   256
  6
BYLAYER
 49
-0.5
 62
   256
  6
BYLAYER
  0
ACDBPLACEHOLDER
  5
7
102
{ACAD_REACTORS
330
8
102
}
330
8
  0
SCALE
  5
59
102
{ACAD_REACTORS
330
46
102
}
330
46
100
AcDbScale
 70
     0
300
1:1
140
1.0
141
1.0
290
     1
  0
SCALE
  5
5A
102
{ACAD_REACTORS
330
46
102
}
330
46
100
AcDbScale
 70
     0
300
1:2
140
1.0
141
2.0
290
     0
  0
SCALE
  5
5B
102
{ACAD_REACTORS
330
46
102
}
330
46
100
AcDbScale
 70
     0
300
1:4
140
1.0
141
4.0
290
     0
  0
SCALE
  5
5C
102
{ACAD_REACTORS
330
46
102
}
330
46
100
AcDbScale
 70
     0
300
1:5
140
1.0
141
5.0
290
     0
  0
SCALE
  5
5D
102
{ACAD_REACTORS
330
46
102
}
330
46
100
AcDbScale
 70
     0
300
1:8
140
1.0
141
8.0
290
     0
  0
SCALE
  5
5E
102
{ACAD_REACTORS
330
46
102
}
330
46
100
AcDbScale
 70
     0
300
1:10
140
1.0
141
10.0
290
     0
  0
SCALE
  5
5F
102
{ACAD_REACTORS
330
46
102
}
330
46
100
AcDbScale
 70
     0
300
1:16
140
1.0
141
16.0
290
     0
  0
SCALE
  5
60
102
{ACAD_REACTORS
330
46
102
}
330
46
100
AcDbScale
 70
     0
300
1:20
140
1.0
141
20.0
290
     0
  0
SCALE
  5
61
102
{ACAD_REACTORS
330
46
102
}
330
46
100
AcDbScale
 70
     0
300
1:30
140
1.0
141
30.0
290
     0
  0
SCALE
  5
62
102
{ACAD_REACTORS
330
46
102
}
330
46
100
AcDbScale
 70
     0
300
1:40
140
1.0
141
40.0
290
     0
  0
SCALE
  5
63
102
{ACAD_REACTORS
330
46
102
}
330
46
100
AcDbScale
 70
     0
300
1:50
140
1.0
141
50.0
290
     0
  0
SCALE
  5
64
102
{ACAD_REACTORS
330
46
102
}
330
46
100
AcDbScale
 70
     0
300
1:100
140
1.0
141
100.0
290
     0
  0
SCALE
  5
65
102
{ACAD_REACTORS
330
46
102
}
330
46
100
AcDbScale
 70
     0
300
2:1
140
2.0
141
1.0
290
     0
  0
SCALE
  5
66
102
{ACAD_REACTORS
330
46
102
}
330
46
100
AcDbScale
 70
     0
300
4:1
140
4.0
141
1.0
290
     0
  0
SCALE
  5
67
102
{ACAD_REACTORS
330
46
102
}
330
46
100
AcDbScale
 70
     0
300
8:1
140
8.0
141
1.0
290
     0
  0
SCALE
  5
68
102
{ACAD_REACTORS
330
46
102
}
330
46
100
AcDbScale
 70
     0
300
10:1
140
10.0
141
1.0
290
     0
  0
SCALE
  5
69
102
{ACAD_REACTORS
330
46
102
}
330
46
100
AcDbScale
 70
     0
300
100:1
140
100.0
141
1.0
290
     0
  0
SCALE
  5
6A
102
{ACAD_REACTORS
330
46
102
}
330
46
100
AcDbScale
 70
     0
300
1/128" = 1'-0"
140
0.0078125
141
12.0
290
     0
  0
SCALE
  5
6B
102
{ACAD_REACTORS
330
46
102
}
330
46
100
AcDbScale
 70
     0
300
1/64" = 1'-0"
140
0.015625
141
12.0
290
     0
  0
SCALE
  5
6C
102
{ACAD_REACTORS
330
46
102
}
330
46
100
AcDbScale
 70
     0
300
1/32" = 1'-0"
140
0.03125
141
12.0
290
     0
  0
SCALE
  5
6D
102
{ACAD_REACTORS
330
46
102
}
330
46
100
AcDbScale
 70
     0
300
1/16" = 1'-0"
140
0.0625
141
12.0
290
     0
  0
SCALE
  5
6E
102
{ACAD_REACTORS
330
46
102
}
330
46
100
AcDbScale
 70
     0
300
3/32" = 1'-0"
140
0.09375
141
12.0
290
     0
  0
SCALE
  5
6F
102
{ACAD_REACTORS
330
46
102
}
330
46
100
AcDbScale
 70
     0
300
1/8" = 1'-0"
140
0.125
141
12.0
290
     0
  0
SCALE
  5
70
102
{ACAD_REACTORS
330
46
102
}
330
46
100
AcDbScale
 70
     0
300
3/16" = 1'-0"
140
0.1875
141
12.0
290
     0
  0
SCALE
  5
71
102
{ACAD_REACTORS
330
46
102
}
330
46
100
AcDbScale
 70
     0
300
1/4" = 1'-0"
140
0.25
141
12.0
290
     0
  0
SCALE
  5
72
102
{ACAD_REACTORS
330
46
102
}
330
46
100
AcDbScale
 70
     0
300
3/8" = 1'-0"
140
0.375
141
12.0
290
     0
  0
SCALE
  5
73
102
{ACAD_REACTORS
330
46
102
}
330
46
100
AcDbScale
 70
     0
300
1/2" = 1'-0"
140
0.5
141
12.0
290
     0
  0
SCALE
  5
74
102
{ACAD_REACTORS
330
46
102
}
330
46
100
AcDbScale
 70
     0
300
3/4" = 1'-0"
140
0.75
141
12.0
290
     0
  0
SCALE
  5
75
102
{ACAD_REACTORS
330
46
102
}
330
46
100
AcDbScale
 70
     0
300
1" = 1'-0"
140
1.0
141
12.0
290
     0
  0
SCALE
  5
76
102
{ACAD_REACTORS
330
46
102
}
330
46
100
AcDbScale
 70
     0
300
1-1/2" = 1'-0"
140
1.5
141
12.0
290
     0
  0
SCALE
  5
77
102
{ACAD_REACTORS
330
46
102
}
330
46
100
AcDbScale
 70
     0
300
3" = 1'-0"
140
3.0
141
12.0
290
     0
  0
SCALE
  5
78
102
{ACAD_REACTORS
330
46
102
}
330
46
100
AcDbScale
 70
     0
300
6" = 1'-0"
140
6.0
141
12.0
290
     0
  0
SCALE
  5
79
102
{ACAD_REACTORS
330
46
102
}
330
46
100
AcDbScale
 70
     0
300
1'-0" = 1'-0"
140
12.0
141
12.0
290
     0
  0
TABLESTYLE
  5
56
102
{ACAD_XDICTIONARY
360
43E
102
}
102
{ACAD_REACTORS
330
47
102
}
330
47
100
AcDbTableStyle
  3
Standard
 70
     0
 71
     0
 40
1.5
 41
1.5
280
     0
281
     0
  7
Standard
140
4.5
170
     2
 62
     0
 63
     7
283
     0
274
    -2
284
     1
 64
     0
275
    -2
285
     1
 65
     0
276
    -2
286
     1
 66
     0
277
    -2
287
     1
 67
     0
278
    -2
288
     1
 68
     0
279
    -2
289
     1
 69
     0
  7
Standard
140
6.0
170
     5
 62
     0
 63
     7
283
     0
274
    -2
284
     1
 64
     0
275
    -2
285
     1
 65
     0
276
    -2
286
     1
 66
     0
277
    -2
287
     1
 67
     0
278
    -2
288
     1
 68
     0
279
    -2
289
     1
 69
     0
  7
Standard
140
4.5
170
     5
 62
     0
 63
     7
283
     0
274
    -2
284
     1
 64
     0
275
    -2
285
     1
 65
     0
276
    -2
286
     1
 66
     0
277
    -2
287
     1
 67
     0
278
    -2
288
     1
 68
     0
279
    -2
289
     1
 69
     0
  0
VISUALSTYLE
  5
44B
102
{ACAD_REACTORS
330
2C
102
}
330
2C
100
AcDbVisualStyle
  2
2dWireframe
 70
     4
 71
     0
 72
     2
 73
     0
 90
        0
 40
-0.6
 41
-30.0
 62
     5
 63
     7
 74
     1
 91
        4
 64
     7
 65
   257
 75
     1
175
     1
 42
1.0
 92
        0
 66
   257
 43
1.0
 76
     1
 77
     6
 78
     2
 67
     7
 79
     5
170
     0
171
     0
290
     0
174
     0
 93
        1
 44
0.0
173
     0
291
     0
 45
0.0
1001
ACAD
1000
AcDbSavedByObjectVersion
1070
     0
1000
AcDbSavedByObjectVersion
1070
     0
1000
AcDbSavedByObjectVersion
1070
     0
1000
AcDbSavedByObjectVersion
1070
     0
1000
AcDbSavedByObjectVersion
1070
     0
1000
AcDbSavedByObjectVersion
1070
     0
1000
AcDbSavedByObjectVersion
1070
     0
1000
AcDbSavedByObjectVersion
1070
     0
1000
AcDbSavedByObjectVersion
1070
     0
1000
AcDbSavedByObjectVersion
1070
     0
1000
AcDbSavedByObjectVersion
1070
     0
1000
AcDbSavedByObjectVersion
1070
     0
1000
AcDbSavedByObjectVersion
1070
     0
1000
AcDbSavedByObjectVersion
1070
     0
1000
AcDbSavedByObjectVersion
1070
     0
  0
VISUALSTYLE
  5
44C
102
{ACAD_REACTORS
330
2C
102
}
330
2C
100
AcDbVisualStyle
  2
3D Hidden
 70
     6
 71
     1
 72
     2
 73
     2
 90
        0
 40
-0.6
 41
-30.0
 62
     5
 63
     7
 74
     2
 91
        2
 64
     7
 65
   257
 75
     2
175
     1
 42
40.0
 92
        0
 66
   257
 43
1.0
 76
     1
 77
     6
 78
     2
 67
     7
 79
     3
170
     0
171
     0
290
     0
174
     0
 93
        1
 44
0.0
173
     0
291
     0
 45
0.0
1001
ACAD
1000
AcDbSavedByObjectVersion
1070
     0
1000
AcDbSavedByObjectVersion
1070
     0
1000
AcDbSavedByObjectVersion
1070
     0
1000
AcDbSavedByObjectVersion
1070
     0
1000
AcDbSavedByObjectVersion
1070
     0
1000
AcDbSavedByObjectVersion
1070
     0
1000
AcDbSavedByObjectVersion
1070
     0
1000
AcDbSavedByObjectVersion
1070
     0
1000
AcDbSavedByObjectVersion
1070
     0
1000
AcDbSavedByObjectVersion
1070
     0
1000
AcDbSavedByObjectVersion
1070
     0
1000
AcDbSavedByObjectVersion
1070
     0
1000
AcDbSavedByObjectVersion
1070
     0
1000
AcDbSavedByObjectVersion
1070
     0
1000
AcDbSavedByObjectVersion
1070
     0
  0
VISUALSTYLE
  5
58
102
{ACAD_REACTORS
330
2C
102
}
330
2C
100
AcDbVisualStyle
  2
3dWireframe
 70
     5
 71
     0
 72
     2
 73
     0
 90
        0
 40
-0.6
 41
-30.0
 62
     5
 63
     7
 74
     1
 91
        4
 64
     7
 65
   257
 75
     1
175
     1
 42
1.0
 92
        0
 66
   257
 43
1.0
 76
     1
 77
     6
 78
     2
 67
     7
 79
     5
170
     0
171
     0
290
     0
174
     0
 93
        1
 44
0.0
173
     0
291
     0
 45
0.0
1001
ACAD
1000
AcDbSavedByObjectVersion
1070
     0
1000
AcDbSavedByObjectVersion
1070
     0
1000
AcDbSavedByObjectVersion
1070
     0
1000
AcDbSavedByObjectVersion
1070
     0
1000
AcDbSavedByObjectVersion
1070
     0
1000
AcDbSavedByObjectVersion
1070
     0
1000
AcDbSavedByObjectVersion
1070
     0
1000
AcDbSavedByObjectVersion
1070
     0
1000
AcDbSavedByObjectVersion
1070
     0
1000
AcDbSavedByObjectVersion
1070
     0
1000
AcDbSavedByObjectVersion
1070
     0
1000
AcDbSavedByObjectVersion
1070
     0
1000
AcDbSavedByObjectVersion
1070
     0
1000
AcDbSavedByObjectVersion
1070
     0
1000
AcDbSavedByObjectVersion
1070
     0
  0
VISUALSTYLE
  5
44A
102
{ACAD_REACTORS
330
2C
102
}
330
2C
100
AcDbVisualStyle
  2
Basic
 70
     7
 71
     1
 72
     0
 73
     1
 90
        0
 40
-0.6
 41
-30.0
 62
     5
 63
     7
 74
     0
 91
        4
 64
     7
 65
   257
 75
     1
175
     1
 42
1.0
 92
        8
 66
     7
 43
1.0
 76
     1
 77
     6
 78
     2
 67
     7
 79
     5
170
     0
171
     0
290
     0
174
     0
 93
        1
 44
0.0
173
     0
291
     1
 45
0.0
1001
ACAD
1000
AcDbSavedByObjectVersion
1070
     0
1000
AcDbSavedByObjectVersion
1070
     0
1000
AcDbSavedByObjectVersion
1070
     0
1000
AcDbSavedByObjectVersion
1070
     0
1000
AcDbSavedByObjectVersion
1070
     0
1000
AcDbSavedByObjectVersion
1070
     0
1000
AcDbSavedByObjectVersion
1070
     0
1000
AcDbSavedByObjectVersion
1070
     0
1000
AcDbSavedByObjectVersion
1070
     0
1000
AcDbSavedByObjectVersion
1070
     0
1000
AcDbSavedByObjectVersion
1070
     0
1000
AcDbSavedByObjectVersion
1070
     0
1000
AcDbSavedByObjectVersion
1070
     0
1000
AcDbSavedByObjectVersion
1070
     0
1000
AcDbSavedByObjectVersion
1070
     0
  0
VISUALSTYLE
  5
44F
102
{ACAD_REACTORS
330
2C
102
}
330
2C
100
AcDbVisualStyle
  2
Brighten
 70
    12
 71
     2
 72
     2
 73
     0
 90
        0
 40
-0.6
 41
-30.0
 62
     5
 63
     7
 74
     1
 91
        4
 64
     7
 65
   257
 75
     1
175
     1
 42
1.0
 92
        8
 66
     7
 43
1.0
 76
     1
 77
     6
 78
     2
 67
     7
 79
     5
170
     0
171
     0
290
     0
174
     0
 93
        1
 44
50.0
173
     0
291
     1
 45
0.0
1001
ACAD
1000
AcDbSavedByObjectVersion
1070
     0
1000
AcDbSavedByObjectVersion
1070
     0
1000
AcDbSavedByObjectVersion
1070
     0
1000
AcDbSavedByObjectVersion
1070
     0
1000
AcDbSavedByObjectVersion
1070
     0
1000
AcDbSavedByObjectVersion
1070
     0
1000
AcDbSavedByObjectVersion
1070
     0
1000
AcDbSavedByObjectVersion
1070
     0
1000
AcDbSavedByObjectVersion
1070
     0
1000
AcDbSavedByObjectVersion
1070
     0
1000
AcDbSavedByObjectVersion
1070
     0
1000
AcDbSavedByObjectVersion
1070
     0
1000
AcDbSavedByObjectVersion
1070
     0
1000
AcDbSavedByObjectVersion
1070
     0
1000
AcDbSavedByObjectVersion
1070
     0
  0
VISUALSTYLE
  5
453
102
{ACAD_REACTORS
330
2C
102
}
330
2C
100
AcDbVisualStyle
  2
ColorChange
 70
    16
 71
     2
 72
     2
 73
     3
 90
        0
 40
-0.6
 41
-30.0
 62
     5
 63
     8
 74
     1
 91
        4
 64
     7
 65
   257
 75
     1
175
     1
 42
1.0
 92
        8
 66
     8
 43
1.0
 76
     1
 77
     6
 78
     2
 67
     7
 79
     5
170
     0
171
     0
290
     0
174
     0
 93
        1
 44
0.0
173
     0
291
     1
 45
0.0
1001
ACAD
1000
AcDbSavedByObjectVersion
1070
     0
1000
AcDbSavedByObjectVersion
1070
     0
1000
AcDbSavedByObjectVersion
1070
     0
1000
AcDbSavedByObjectVersion
1070
     0
1000
AcDbSavedByObjectVersion
1070
     0
1000
AcDbSavedByObjectVersion
1070
     0
1000
AcDbSavedByObjectVersion
1070
     0
1000
AcDbSavedByObjectVersion
1070
     0
1000
AcDbSavedByObjectVersion
1070
     0
1000
AcDbSavedByObjectVersion
1070
     0
1000
AcDbSavedByObjectVersion
1070
     0
1000
AcDbSavedByObjectVersion
1070
     0
1000
AcDbSavedByObjectVersion
1070
     0
1000
AcDbSavedByObjectVersion
1070
     0
1000
AcDbSavedByObjectVersion
1070
     0
  0
VISUALSTYLE
  5
44D
102
{ACAD_REACTORS
330
2C
102
}
330
2C
100
AcDbVisualStyle
  2
Conceptual
 70
     9
 71
     3
 72
     2
 73
     0
 90
        0
 40
-0.6
 41
-30.0
 62
     5
 63
     7
 74
     2
 91
        2
 64
     7
 65
   257
 75
     1
175
     1
 42
40.0
 92
        8
 66
     7
 43
1.0
 76
     1
 77
     6
 78
     2
 67
     7
 79
     3
170
     0
171
     0
290
     0
174
     0
 93
        1
 44
0.0
173
     0
291
     0
 45
0.0
1001
ACAD
1000
AcDbSavedByObjectVersion
1070
     0
1000
AcDbSavedByObjectVersion
1070
     0
1000
AcDbSavedByObjectVersion
1070
     0
1000
AcDbSavedByObjectVersion
1070
     0
1000
AcDbSavedByObjectVersion
1070
     0
1000
AcDbSavedByObjectVersion
1070
     0
1000
AcDbSavedByObjectVersion
1070
     0
1000
AcDbSavedByObjectVersion
1070
     0
1000
AcDbSavedByObjectVersion
1070
     0
1000
AcDbSavedByObjectVersion
1070
     0
1000
AcDbSavedByObjectVersion
1070
     0
1000
AcDbSavedByObjectVersion
1070
     0
1000
AcDbSavedByObjectVersion
1070
     0
1000
AcDbSavedByObjectVersion
1070
     0
1000
AcDbSavedByObjectVersion
1070
     0
  0
VISUALSTYLE
  5
44E
102
{ACAD_REACTORS
330
2C
102
}
330
2C
100
AcDbVisualStyle
  2
Dim
 70
    11
 71
     2
 72
     2
 73
     0
 90
        0
 40
-0.6
 41
-30.0
 62
     5
 63
     7
 74
     1
 91
        4
 64
     7
 65
   257
 75
     1
175
     1
 42
1.0
 92
        8
 66
     7
 43
1.0
 76
     1
 77
     6
 78
     2
 67
     7
 79
     5
170
     0
171
     0
290
     0
174
     0
 93
        1
 44
-50.0
173
     0
291
     1
 45
0.0
1001
ACAD
1000
AcDbSavedByObjectVersion
1070
     0
1000
AcDbSavedByObjectVersion
1070
     0
1000
AcDbSavedByObjectVersion
1070
     0
1000
AcDbSavedByObjectVersion
1070
     0
1000
AcDbSavedByObjectVersion
1070
     0
1000
AcDbSavedByObjectVersion
1070
     0
1000
AcDbSavedByObjectVersion
1070
     0
1000
AcDbSavedByObjectVersion
1070
     0
1000
AcDbSavedByObjectVersion
1070
     0
1000
AcDbSavedByObjectVersion
1070
     0
1000
AcDbSavedByObjectVersion
1070
     0
1000
AcDbSavedByObjectVersion
1070
     0
1000
AcDbSavedByObjectVersion
1070
     0
1000
AcDbSavedByObjectVersion
1070
     0
1000
AcDbSavedByObjectVersion
1070
     0
  0
VISUALSTYLE
  5
452
102
{ACAD_REACTORS
330
2C
102
}
330
2C
100
AcDbVisualStyle
  2
Facepattern
 70
    15
 71
     2
 72
     2
 73
     0
 90
        0
 40
-0.6
 41
-30.0
 62
     5
 63
     7
 74
     1
 91
        4
 64
     7
 65
   257
 75
     1
175
     1
 42
1.0
 92
        8
 66
     7
 43
1.0
 76
     1
 77
     6
 78
     2
 67
     7
 79
     5
170
     0
171
     0
290
     0
174
     0
 93
        1
 44
0.0
173
     0
291
     1
 45
0.0
1001
ACAD
1000
AcDbSavedByObjectVersion
1070
     0
1000
AcDbSavedByObjectVersion
1070
     0
1000
AcDbSavedByObjectVersion
1070
     0
1000
AcDbSavedByObjectVersion
1070
     0
1000
AcDbSavedByObjectVersion
1070
     0
1000
AcDbSavedByObjectVersion
1070
     0
1000
AcDbSavedByObjectVersion
1070
     0
1000
AcDbSavedByObjectVersion
1070
     0
1000
AcDbSavedByObjectVersion
1070
     0
1000
AcDbSavedByObjectVersion
1070
     0
1000
AcDbSavedByObjectVersion
1070
     0
1000
AcDbSavedByObjectVersion
1070
     0
1000
AcDbSavedByObjectVersion
1070
     0
1000
AcDbSavedByObjectVersion
1070
     0
1000
AcDbSavedByObjectVersion
1070
     0
  0
VISUALSTYLE
  5
447
102
{ACAD_REACTORS
330
2C
102
}
330
2C
100
AcDbVisualStyle
  2
Flat
 70
     0
 71
     2
 72
     1
 73
     1
 90
        2
 40
-0.6
 41
30.0
 62
     5
 63
     7
 74
     0
 91
        4
 64
     7
 65
   257
 75
     1
175
     1
 42
1.0
 92
        8
 66
     7
 43
1.0
 76
     1
 77
     6
 78
     2
 67
     7
 79
     5
170
     0
171
     0
290
     0
174
     0
 93
       13
 44
0.0
173
     0
291
     1
 45
0.0
1001
ACAD
1000
AcDbSavedByObjectVersion
1070
     0
1000
AcDbSavedByObjectVersion
1070
     0
1000
AcDbSavedByObjectVersion
1070
     0
1000
AcDbSavedByObjectVersion
1070
     0
1000
AcDbSavedByObjectVersion
1070
     0
1000
AcDbSavedByObjectVersion
1070
     0
1000
AcDbSavedByObjectVersion
1070
     0
1000
AcDbSavedByObjectVersion
1070
     0
1000
AcDbSavedByObjectVersion
1070
     0
1000
AcDbSavedByObjectVersion
1070
     0
1000
AcDbSavedByObjectVersion
1070
     0
1000
AcDbSavedByObjectVersion
1070
     0
1000
AcDbSavedByObjectVersion
1070
     0
1000
AcDbSavedByObjectVersion
1070
     0
1000
AcDbSavedByObjectVersion
1070
     0
  0
VISUALSTYLE
  5
448
102
{ACAD_REACTORS
330
2C
102
}
330
2C
100
AcDbVisualStyle
  2
FlatWithEdges
 70
     1
 71
     2
 72
     1
 73
     1
 90
        2
 40
-0.6
 41
30.0
 62
     5
 63
     7
 74
     1
 91
        4
 64
     7
 65
   257
 75
     1
175
     1
 42
1.0
 92
        0
 66
   257
 43
1.0
 76
     1
 77
     6
 78
     2
 67
     7
 79
     5
170
     0
171
     0
290
     0
174
     0
 93
       13
 44
0.0
173
     0
291
     1
 45
0.0
1001
ACAD
1000
AcDbSavedByObjectVersion
1070
     0
1000
AcDbSavedByObjectVersion
1070
     0
1000
AcDbSavedByObjectVersion
1070
     0
1000
AcDbSavedByObjectVersion
1070
     0
1000
AcDbSavedByObjectVersion
1070
     0
1000
AcDbSavedByObjectVersion
1070
     0
1000
AcDbSavedByObjectVersion
1070
     0
1000
AcDbSavedByObjectVersion
1070
     0
1000
AcDbSavedByObjectVersion
1070
     0
1000
AcDbSavedByObjectVersion
1070
     0
1000
AcDbSavedByObjectVersion
1070
     0
1000
AcDbSavedByObjectVersion
1070
     0
1000
AcDbSavedByObjectVersion
1070
     0
1000
AcDbSavedByObjectVersion
1070
     0
1000
AcDbSavedByObjectVersion
1070
     0
  0
VISUALSTYLE
  5
2B
102
{ACAD_REACTORS
330
2C
102
}
330
2C
100
AcDbVisualStyle
  2
Gouraud
 70
     2
 71
     2
 72
     2
 73
     1
 90
        2
 40
-0.6
 41
30.0
 62
     5
 63
     7
 74
     0
 91
        4
 64
     7
 65
   257
 75
     1
175
     1
 42
1.0
 92
        0
 66
     7
 43
1.0
 76
     1
 77
     6
 78
     2
 67
     7
 79
     5
170
     0
171
     0
290
     0
174
     0
 93
       13
 44
0.0
173
     0
291
     1
 45
0.0
1001
ACAD
1000
AcDbSavedByObjectVersion
1070
     0
1000
AcDbSavedByObjectVersion
1070
     0
1000
AcDbSavedByObjectVersion
1070
     0
1000
AcDbSavedByObjectVersion
1070
     0
1000
AcDbSavedByObjectVersion
1070
     0
1000
AcDbSavedByObjectVersion
1070
     0
1000
AcDbSavedByObjectVersion
1070
     0
1000
AcDbSavedByObjectVersion
1070
     0
1000
AcDbSavedByObjectVersion
1070
     0
1000
AcDbSavedByObjectVersion
1070
     0
1000
AcDbSavedByObjectVersion
1070
     0
1000
AcDbSavedByObjectVersion
1070
     0
1000
AcDbSavedByObjectVersion
1070
     0
1000
AcDbSavedByObjectVersion
1070
     0
1000
AcDbSavedByObjectVersion
1070
     0
  0
VISUALSTYLE
  5
449
102
{ACAD_REACTORS
330
2C
102
}
330
2C
100
AcDbVisualStyle
  2
GouraudWithEdges
 70
     3
 71
     2
 72
     2
 73
     1
 90
        2
 40
-0.6
 41
30.0
 62
     5
 63
     7
 74
     1
 91
        4
 64
     7
 65
   257
 75
     1
175
     1
 42
1.0
 92
        0
 66
   257
 43
1.0
 76
     1
 77
     6
 78
     2
 67
     7
 79
     5
170
     0
171
     0
290
     0
174
     0
 93
       13
 44
0.0
173
     0
291
     1
 45
0.0
1001
ACAD
1000
AcDbSavedByObjectVersion
1070
     0
1000
AcDbSavedByObjectVersion
1070
     0
1000
AcDbSavedByObjectVersion
1070
     0
1000
AcDbSavedByObjectVersion
1070
     0
1000
AcDbSavedByObjectVersion
1070
     0
1000
AcDbSavedByObjectVersion
1070
     0
1000
AcDbSavedByObjectVersion
1070
     0
1000
AcDbSavedByObjectVersion
1070
     0
1000
AcDbSavedByObjectVersion
1070
     0
1000
AcDbSavedByObjectVersion
1070
     0
1000
AcDbSavedByObjectVersion
1070
     0
1000
AcDbSavedByObjectVersion
1070
     0
1000
AcDbSavedByObjectVersion
1070
     0
1000
AcDbSavedByObjectVersion
1070
     0
1000
AcDbSavedByObjectVersion
1070
     0
  0
VISUALSTYLE
  5
451
102
{ACAD_REACTORS
330
2C
102
}
330
2C
100
AcDbVisualStyle
  2
Linepattern
 70
    14
 71
     2
 72
     2
 73
     0
 90
        0
 40
-0.6
 41
-30.0
 62
     5
 63
     7
 74
     1
 91
        4
 64
     7
 65
   257
 75
     7
175
     7
 42
1.0
 92
        8
 66
     7
 43
1.0
 76
     1
 77
     6
 78
     2
 67
     7
 79
     5
170
     0
171
     0
290
     0
174
     0
 93
        1
 44
0.0
173
     0
291
     1
 45
0.0
1001
ACAD
1000
AcDbSavedByObjectVersion
1070
     0
1000
AcDbSavedByObjectVersion
1070
     0
1000
AcDbSavedByObjectVersion
1070
     0
1000
AcDbSavedByObjectVersion
1070
     0
1000
AcDbSavedByObjectVersion
1070
     0
1000
AcDbSavedByObjectVersion
1070
     0
1000
AcDbSavedByObjectVersion
1070
     0
1000
AcDbSavedByObjectVersion
1070
     0
1000
AcDbSavedByObjectVersion
1070
     0
1000
AcDbSavedByObjectVersion
1070
     0
1000
AcDbSavedByObjectVersion
1070
     0
1000
AcDbSavedByObjectVersion
1070
     0
1000
AcDbSavedByObjectVersion
1070
     0
1000
AcDbSavedByObjectVersion
1070
     0
1000
AcDbSavedByObjectVersion
1070
     0
  0
VISUALSTYLE
  5
57
102
{ACAD_REACTORS
330
2C
102
}
330
2C
100
AcDbVisualStyle
  2
Realistic
 70
     8
 71
     2
 72
     2
 73
     0
 90
        0
 40
-0.6
 41
-30.0
 62
     5
 63
     7
 74
     1
 91
        0
 64
     7
 65
   257
 75
     1
175
     1
 42
1.0
 92
        8
 66
     8
 43
1.0
 76
     1
 77
     6
 78
     2
 67
     7
 79
     5
170
     0
171
     0
290
     0
174
     0
 93
       13
 44
0.0
173
     0
291
     0
 45
0.0
1001
ACAD
1000
AcDbSavedByObjectVersion
1070
     0
1000
AcDbSavedByObjectVersion
1070
     0
1000
AcDbSavedByObjectVersion
1070
     0
1000
AcDbSavedByObjectVersion
1070
     0
1000
AcDbSavedByObjectVersion
1070
     0
1000
AcDbSavedByObjectVersion
1070
     0
1000
AcDbSavedByObjectVersion
1070
     0
1000
AcDbSavedByObjectVersion
1070
     0
1000
AcDbSavedByObjectVersion
1070
     0
1000
AcDbSavedByObjectVersion
1070
     0
1000
AcDbSavedByObjectVersion
1070
     0
1000
AcDbSavedByObjectVersion
1070
     0
1000
AcDbSavedByObjectVersion
1070
     0
1000
AcDbSavedByObjectVersion
1070
     0
1000
AcDbSavedByObjectVersion
1070
     0
  0
VISUALSTYLE
  5
450
102
{ACAD_REACTORS
330
2C
102
}
330
2C
100
AcDbVisualStyle
  2
Thicken
 70
    13
 71
     2
 72
     2
 73
     0
 90
        0
 40
-0.6
 41
-30.0
 62
     5
 63
     7
 74
     1
 91
        4
 64
     7
 65
   257
 75
     1
175
     1
 42
1.0
 92
       12
 66
     7
 43
1.0
 76
     1
 77
     6
 78
     2
 67
     7
 79
     5
170
     0
171
     0
290
     0
174
     0
 93
        1
 44
0.0
173
     0
291
     1
 45
0.0
1001
ACAD
1000
AcDbSavedByObjectVersion
1070
     0
1000
AcDbSavedByObjectVersion
1070
     0
1000
AcDbSavedByObjectVersion
1070
     0
1000
AcDbSavedByObjectVersion
1070
     0
1000
AcDbSavedByObjectVersion
1070
     0
1000
AcDbSavedByObjectVersion
1070
     0
1000
AcDbSavedByObjectVersion
1070
     0
1000
AcDbSavedByObjectVersion
1070
     0
1000
AcDbSavedByObjectVersion
1070
     0
1000
AcDbSavedByObjectVersion
1070
     0
1000
AcDbSavedByObjectVersion
1070
     0
1000
AcDbSavedByObjectVersion
1070
     0
1000
AcDbSavedByObjectVersion
1070
     0
1000
AcDbSavedByObjectVersion
1070
     0
1000
AcDbSavedByObjectVersion
1070
     0
  0
DICTIONARYVAR
  5
444
102
{ACAD_REACTORS
330
441
102
}
330
441
100
DictionaryVariables
280
     0
  1
1:1
  0
DICTIONARYVAR
  5
443
102
{ACAD_REACTORS
330
441
102
}
330
441
100
DictionaryVariables
280
     0
  1
STANDARD
  0
DICTIONARYVAR
  5
442
102
{ACAD_REACTORS
330
441
102
}
330
441
100
DictionaryVariables
280
     0
  1
STANDARD
  0
DICTIONARYVAR
  5
47E
102
{ACAD_REACTORS
330
441
102
}
330
441
100
DictionaryVariables
280
     0
  1
1
  0
DICTIONARYVAR
  5
47D
102
{ACAD_REACTORS
330
441
102
}
330
441
100
DictionaryVariables
280
     0
  1
1
  0
DICTIONARYVAR
  5
47C
102
{ACAD_REACTORS
330
441
102
}
330
441
100
DictionaryVariables
280
     0
  1
1
  0
DICTIONARYVAR
  5
445
102
{ACAD_REACTORS
330
441
102
}
330
441
100
DictionaryVariables
280
     0
  1
0
  0
DICTIONARYVAR
  5
47A
102
{ACAD_REACTORS
330
441
102
}
330
441
100
DictionaryVariables
280
     0
  1
1
  0
DICTIONARYVAR
  5
47B
102
{ACAD_REACTORS
330
441
102
}
330
441
100
DictionaryVariables
280
     0
  1
127
  0
DICTIONARY
  5
C82
102
{ACAD_REACTORS
330
C72
102
}
330
C72
100
AcDbDictionary
281
     1
  0
XRECORD
  5
C9A
102
{ACAD_REACTORS
330
C72
102
}
330
C72
100
AcDbXrecord
280
     1
 90
-1023410169
  0
DICTIONARY
  5
BB4
102
{ACAD_REACTORS
330
BB3
102
}
330
BB3
100
AcDbDictionary
281
     1
  3
DWGSETTINGS
350
2039
  3
TRANSSETTINGS
350
203A
  0
ACAMGFILTERDAT
  5
D61
102
{ACAD_REACTORS
330
D5C
102
}
330
D5C
100
AcAmgFilterDat
 70
    15
  1
DIMENSION,AMDT_*_DIM
  2
*
  3
*
  4
*
  5
*
290
     1
  0
ACAMGFILTERDAT
  5
D60
102
{ACAD_REACTORS
330
D5C
102
}
330
D5C
100
AcAmgFilterDat
 70
    15
  1
*
  2
AM_FEA-AM_*
  3
*
  4
*
  5
*
290
     1
  0
ACAMGFILTERDAT
  5
D5D
102
{ACAD_REACTORS
330
D5C
102
}
330
D5C
100
AcAmgFilterDat
 70
    15
  1
HATCH
  2
*
  3
*
  4
*
  5
*
290
     1
  0
ACAMGFILTERDAT
  5
D5E
102
{ACAD_REACTORS
330
D5C
102
}
330
D5C
100
AcAmgFilterDat
 70
    15
  1
LINE
  2
8,8N,*-8,*-8N,AM_8,AM_8N,*-AM_8,*-AM_8N
  3
*
  4
*
  5
INSERT,STDPART2D
290
     1
  0
ACAMGFILTERDAT
  5
D62
102
{ACAD_REACTORS
330
D5C
102
}
330
D5C
100
AcAmgFilterDat
 70
    15
  1
ARC
  2
AM_5
  3
*
  4
2
  5
INSERT
290
     0
  0
ACAMGFILTERDAT
  5
D5F
102
{ACAD_REACTORS
330
D5C
102
}
330
D5C
100
AcAmgFilterDat
 70
    15
  1
ACMFCFRAME,ACMDATUMTARGET,ACMDATUMID,ACMWELDSYM,ACMSURFSYM,ACMFEATID,ACMPARTREF,ACMBALLOON,AMDTEDGESYM,AMGSCREWCALCTABLE
  2
*
  3
*
  4
*
  5
*
290
     1
  0
LAYER_INDEX
  5
F77
102
{ACAD_REACTORS
330
F76
102
}
330
F76
100
AcDbIndex
 40
2455888.671525544
100
AcDbLayerIndex
  8
0
360
F78
 90
        0
  8
Defpoints
360
F79
 90
        0
  8
SIZE
360
F7A
 90
       10
  8
OUTLINE
360
F7B
 90
      104
  8
BASIS
360
F7C
 90
        1
  8
NOTE
360
F7D
 90
       49
  8
ARRANGE
360
F7E
 90
        3
  8
ETC
360
F7F
 90
        1
  0
DICTIONARY
  5
2113
330
15
100
AcDbDictionary
280
     1
281
     1
  3
ACAD_XREC_ROUNDTRIP
360
2114
  0
DICTIONARY
  5
1B
330
1A
100
AcDbDictionary
280
     1
281
     1
  3
ACAD_XREC_ROUNDTRIP
360
2115
  3
ADSK_XREC_LAYOUTTHUMBNAIL
360
1C
  0
DICTIONARY
  5
3E
330
3D
100
AcDbDictionary
280
     1
281
     1
  3
ACAD_XREC_ROUNDTRIP
360
546
  3
BUMPTILE
360
3F
  3
DIFFUSETILE
360
40
  3
OPACITYTILE
360
41
  3
REFLECTIONTILE
360
42
  3
REFRACTIONTILE
360
43
  3
SPECULARTILE
360
44
  0
DICTIONARY
  5
36
330
35
100
AcDbDictionary
280
     1
281
     1
  3
ACAD_XREC_ROUNDTRIP
360
545
  3
BUMPTILE
360
37
  3
DIFFUSETILE
360
38
  3
OPACITYTILE
360
39
  3
REFLECTIONTILE
360
3A
  3
REFRACTIONTILE
360
3B
  3
SPECULARTILE
360
3C
  0
DICTIONARY
  5
C
330
A
100
AcDbDictionary
280
     1
281
     1
  3
ACAD_XREC_ROUNDTRIP
360
541
  3
BUMPTILE
360
D
  3
DIFFUSETILE
360
E
  3
OPACITYTILE
360
F
  3
REFLECTIONTILE
360
10
  3
REFRACTIONTILE
360
11
  3
SPECULARTILE
360
12
  0
DICTIONARY
  5
43E
330
56
100
AcDbDictionary
280
     1
281
     1
  3
ACAD_ROUNDTRIP_2008_TABLESTYLE_CELLSTYLEMAP
360
210F
  3
ACAD_XREC_ROUNDTRIP
360
2116
  0
IDBUFFER
  5
F78
330
0
100
AcDbIdBuffer
  0
IDBUFFER
  5
F79
330
0
100
AcDbIdBuffer
  0
IDBUFFER
  5
F7A
330
0
100
AcDbIdBuffer
330
1E65
330
1E72
330
1E7F
330
1E8C
330
1E99
330
1EA6
330
1ED4
330
1EE1
330
1EEE
330
1F0D
  0
IDBUFFER
  5
F7B
330
0
100
AcDbIdBuffer
330
1DB4
330
1DB5
330
1DB6
330
1DB7
330
1DB8
330
1DB9
330
1DBA
330
1DBB
330
1DBC
330
1DBD
330
1DBE
330
1DBF
330
1DC0
330
1DC1
330
1DC2
330
1DC3
330
1DC4
330
1DC5
330
1DC6
330
1DC7
330
1DC8
330
1DC9
330
1DCA
330
1DCB
330
1DCC
330
1DCD
330
1DCE
330
1DCF
330
1DD0
330
1DD1
330
1DD2
330
1DD3
330
1DD4
330
1DD5
330
1DD6
330
1DD7
330
1DD8
330
1DD9
330
1DDA
330
1DDB
330
1DDC
330
1DDD
330
1DDE
330
1DDF
330
1DE0
330
1DE1
330
1DE2
330
1DE3
330
1DE4
330
1DE5
330
1DE6
330
1DE7
330
1DE8
330
1DE9
330
1DEA
330
1DEB
330
1DEC
330
1DED
330
1DEE
330
1DEF
330
1DF0
330
1DF1
330
1DF2
330
1DF3
330
1DF4
330
1DF5
330
1DF6
330
1DF7
330
1DF8
330
1DF9
330
1DFA
330
1DFB
330
1DFC
330
1DFD
330
1DFE
330
1DFF
330
1E00
330
1E01
330
1E02
330
1E03
330
1E04
330
1E05
330
1E06
330
1E07
330
1E08
330
1E09
330
1E0A
330
1E0B
330
1E0C
330
1E0D
330
1E0E
330
1E0F
330
1E10
330
1E11
330
1E12
330
1E13
330
1E14
330
1E15
330
1E16
330
1E17
330
1E18
330
1E19
330
1E1A
330
1E1B
  0
IDBUFFER
  5
F7C
330
0
100
AcDbIdBuffer
330
1E25
  0
IDBUFFER
  5
F7D
330
0
100
AcDbIdBuffer
330
1D84
330
1D85
330
1D86
330
1D87
330
1D88
330
1D89
330
1D8A
330
1D8B
330
1D8C
330
1D8D
330
1D8E
330
1D8F
330
1D90
330
1D91
330
1D92
330
1D93
330
1D94
330
1D95
330
1D96
330
1D97
330
1D98
330
1D99
330
1D9A
330
1D9B
330
1D9C
330
1D9D
330
1D9E
330
1D9F
330
1DA0
330
1DA1
330
1DA2
330
1DA3
330
1DA4
330
1DA5
330
1DA6
330
1DA7
330
1DA8
330
1DA9
330
1DAA
330
1DAB
330
1DAC
330
1DAD
330
1DAE
330
1DAF
330
1DB0
330
1DB1
330
1DB2
330
1DB3
330
1E29
  0
IDBUFFER
  5
F7E
330
0
100
AcDbIdBuffer
330
1E26
330
1E27
330
1E28
  0
IDBUFFER
  5
F7F
330
0
100
AcDbIdBuffer
330
460
  0
XRECORD
  5
2114
102
{ACAD_REACTORS
330
2113
102
}
330
2113
100
AcDbXrecord
280
     1
102
SHADEPLOT
 70
     0
102
SHADEPLOTRESLEVEL
 70
     2
102
SHADEPLOTCUSTOMDPI
 70
   300
  0
XRECORD
  5
2115
102
{ACAD_REACTORS
330
1B
102
}
330
1B
100
AcDbXrecord
280
     1
102
SHADEPLOT
 70
     0
102
SHADEPLOTRESLEVEL
 70
     2
102
SHADEPLOTCUSTOMDPI
 70
   300
  0
XRECORD
  5
1C
102
{ACAD_REACTORS
330
1B
102
}
330
1B
100
AcDbXrecord
280
     1
310
28000000B4000000870000000100080000000000EC5E0000000000000000000000010000000000000000000000000000FFFFFF000000000000000000000000000000000000000000000000000000000000000000330000006600000099000000CC000000FF00000000330000333300006633000099330000CC330000FF3300
310
0000660000336600006666000099660000CC660000FF66000000990000339900006699000099990000CC990000FF99000000CC000033CC000066CC000099CC0000CCCC0000FFCC000000FF000033FF000066FF000099FF0000CCFF0000FFFF000000003300330033006600330099003300CC003300FF003300003333003333
310
33006633330099333300CC333300FF33330000663300336633006666330099663300CC663300FF66330000993300339933006699330099993300CC993300FF99330000CC330033CC330066CC330099CC3300CCCC3300FFCC330000FF330033FF330066FF330099FF3300CCFF3300FFFF330000006600330066006600660099
310
006600CC006600FF00660000336600333366006633660099336600CC336600FF33660000666600336666006666660099666600CC666600FF66660000996600339966006699660099996600CC996600FF99660000CC660033CC660066CC660099CC6600CCCC6600FFCC660000FF660033FF660066FF660099FF6600CCFF6600
310
FFFF660000009900330099006600990099009900CC009900FF00990000339900333399006633990099339900CC339900FF33990000669900336699006666990099669900CC669900FF66990000999900339999006699990099999900CC999900FF99990000CC990033CC990066CC990099CC9900CCCC9900FFCC990000FF99
310
0033FF990066FF990099FF9900CCFF9900FFFF99000000CC003300CC006600CC009900CC00CC00CC00FF00CC000033CC003333CC006633CC009933CC00CC33CC00FF33CC000066CC003366CC006666CC009966CC00CC66CC00FF66CC000099CC003399CC006699CC009999CC00CC99CC00FF99CC0000CCCC0033CCCC0066CC
310
CC0099CCCC00CCCCCC00FFCCCC0000FFCC0033FFCC0066FFCC0099FFCC00CCFFCC00FFFFCC000000FF003300FF006600FF009900FF00CC00FF00FF00FF000033FF003333FF006633FF009933FF00CC33FF00FF33FF000066FF003366FF006666FF009966FF00CC66FF00FF66FF000099FF003399FF006699FF009999FF00CC
310
99FF00FF99FF0000CCFF0033CCFF0066CCFF0099CCFF00CCCCFF00FFCCFF0000FFFF0033FFFF0066FFFF0099FFFF00CCFFFF00FFFFFF00000000000D0D0D001A1A1A00282828003535350043434300505050005D5D5D006B6B6B00787878008686860093939300A1A1A100AEAEAE00BBBBBB00C9C9C900D6D6D600E4E4E400
310
F1F1F100FFFFFF0000000000000000000000000000000000000000000000000000000000000000000000000000000000E2E2E2E2E2E2E2E2E2E2E2E2E2E2E2E2E2E2E2E2E2E2E2E2E2E2E2E2E2E2E2E2E2E2E2E2E2E2E2E2E2E2E2E2E2E2E2E2E2E2E2E2E2E2E2E2E2E2E2E2E2E2E2E2E2E2E2E2E2E2E2E2E2E2E2E2E2E2E2
310
E2E2E2E2E2E2E2E2E2E2E2E2E2E2E2E2E2E2E2E2E2E2E2E2E2E2E2E2E2E2E2E2E2E2E2E2E2E2E2E2E2E2E2E2E2E2E2E2E2E2E2E2E2E2E2E2E2E2E2E2E2E2E2E2E2E2E2E2E2E2E2E2E2E2E2E2E2E2E2E2E2E2E2E2E2E2E2E2E2E2E2E2E2E2E2E2E2E2E2E2E2E2E2E2E2E2E2E2E2E2E2E2E2E2E2E2E2E2E2E2E2E2E2E2E2E2E2
310
E2E2E2E2E2E2E2E2E2E2E2E2E2E2E2E2E2E2E2E2E2E2E2E2E2E2E2E2E2E2E2E2E2E2E2E2E2E2E2E2E2E2E2E2E2E2E2E2E2E2E2E2E2E2E2E2E2E2E2E2E2E2E2E2E2E2E2E2E2E2E2E2E2E2E2E2E2E2E2E2E2E2E2E2E2E2E2E2E2E2E2E2E2E2E2E2E2E2E2E2E2E2E2E2E2E2E2E2E2E2E2E2E2E2E2E2E2E2E2E2E2E2E2E2E2E2E2
310
E2E2E2E2E2E2E2E2E2E2E2E2E2E2E2E2E2E2E2E2E2E2E2E2E2E2E2E2E2E2E2E2E2E2E2E2E2E2E2E2E2E2E2E2E2E2E2E2E2E2E2E2E2E2E2E2E2E2E2E2E2E2E2E2E2E2E2E2E2E2E2E2E2E2E2E2E2E2E2E2E2E2E2E2E2E2E2E2E2E2E2E2E2E2E2E2E2E2E2E2E2E2E2E2E2E2E2E2E2E2E2E2E2E2E2E2E2E2E2E2E2E2E2E2E2E2E2
310
E2E2E2E2E2E2E2E2E2E2E2E2E2E2E2E2E2E2E2E2E2E2E2E2E2E2E2E2E2E2E2E2E2E2E2E2E2E2E2E2E2E2E2E2E2E2E2E2E2E2E2E2E2E2E2E2E2E2E2E2E2E2E2E2E2E2E2E2E2E2E2E2E2E2E2E2E2E2E2E2E2E2E2E2E2E2E2E2E2E2E2E2E2E2E2E2E2E2E2E2E2E2E2E2E2E2E2E2E2E2E2E2E2E2E2E2E2E2E2E2E2E2E2E2E2E2E2
310
E2E2E2E2E2E2E2E2E2E2E2E2E2E2E2E2E2E2E2E2E2E2E2E2E2E2E2E2E2E2E2E2E2E2E2E2E2E2E2E2E2E2E2E2E2E2E2E2E2E2E2E2E2E2E2E2E2E2E2E2E2E2E2E2E2E2E2E2E2E2E2E2E2E2E2E2E2E2E2E2E2E2E2E2E2E2E2E2E2E2E2E2E2E2E2E2E2E2E2E2E2E2E2E2E2E2E2E2E2E2E2E2E2E2E2E2E2E2E2E2E2E2E2E2E2E2E2
310
E2E2E2E2E2E2E2E2E2E2E2E2E2E2E2E2E2E2E2E2E2E2E2E2E2E2E2E2E2E2E2E2E2E2E2E2E2E2E2E2E2E2E2E2E2E2E2E2E2E2E2E2E2E2E2E2E2E2E2E2E2E2E2E2E2E2E2E2E2E2E2E2E2E2E2E2E2E2E2E2E2E2E2E2E2E2E2E2E2E2E2E2E2E2E2E2E2E2E2E2E2E2E2E2E2E2E2E2E2E2E2E2E2E2E2E2E2E2E2E2E2E2E2E2E2E2E2
310
E2E2E2E2E2E2E2E2E2E2E2E2E2E2E2E2E2E2E2E2E2E2E2E2E2E2E2E2E2E2E2E2E2E2E2E2E2E2E2E2E2E2E2E2E2E2E2E2E2E2E2E2E2E2E2E2E2E2E2E2E2E2E2E2E2E2E2E2E2E2E2E2E2E2E2E2E2E2E2E2E2E2E2E2E2E2E2E2E2E2E2E2E2E2E2E2E2E2E2E2E2E2E2E2E2E2E2E2E2E2E2E2E2E2E2E2E2E2E2E2E2E2E2E2E2E2E2
310
E2E2E2E2E2E2E2E2E2E2E2E2E2E2E2E2E2E2E2E2E2E2E2E2E2E2E2E2E2E2E2E2E2E2E2E2E2E2E2E2E2E2E2E2E2E2E2E2E2E2E2E2E2E2E2E2E2E2E2E2E2E2E2E2E2E2E2E2E2E2E2E2E2E2E2E2E2E2E2E2E2E2E2E2E2E2E2E2E2E2E2E2E2E2E2E2E2E2E2E2E2E2E2E2E2E2E2E2E2E2E2E2E2E2E2E2E2E2E2E2E2E2E2E2E2E2E2
310
E2E2E2E2E2E2E2E2E2E2E2E2E2E2E2E2E2E2E2E2E2E2E2E2E2E2E2E2E2E2E2E2E2E2E2E2E2E2E2E2E2E2E2E2E2E2E2E2E2E2E2E2E2E2E2E2E2E2E2E2E2E2E2E2E2E2E2E2E2E2E2E2E2E2E2E2E2E2E2E2E2E2E2E2E2E2E2E2E2E2E2E2E2E2E2E2E2E2E2E2E2E2E2E2E2E2E2E2E2E2E2E2E2E2E2E2E2E2E2E2E2E2E2E2E2E2E2
310
E2E2E2E2E2E2E2E2E2E2E2E2E2E2E2E2E2E2E2E2E2E2E2E2E2E2E2E2E2E2E2E2E2E2E2E2E2E2E2E2E2E2E2E2E2E2E2E2E2E2E2E2E2E2E2E2E2E2E2E2E2E2E2E2E2E2E2E2E2E2E2E2E2E2E2E2E2E2E2E2E2E2E2E2E2E2E2E2E2E2E2E2E2E2E2E2E2E2E2E2E2E2E2E2E2E2E2E2E2E2E2E2E2E2E2E2E2E2E2E2E2E2E2E2E2E2E2
310
E2E2E2E2E2E2E2E2E2E2E2E2E2E2E2E2E2E2E2E2E2E2E2E2E2E2E2E2E2E2E2E2E2E2E2E2E2E2E2E2E2E2E2E2E2E2E2E2E2E2E2E2E2E2E2E2E2E2E2E2E2E2E2E2E2E2E2E2E2E2E2E2E2E2E2E2E2E2E2E2E2E2E2E2E2E2E2E2E2E2E2E2E2E2E2E2E2E2E2E2E2E2E2E2E2E2E2E2E2E2E2E2E2E2E2E2E2E2E2E2E2E2E2E2E2E2E2
310
E2E2E2E2E2E2E2E2E2E2E2E2E2E2E2E2E2E2E2E2E2E2E2E2E2E2E2E2E2E2E2E2E2E2E2E2E2E2E2E2E2E2E2E2E2E2E2E2E2E2E2E2E2E2E2E2E2E2E2E2E2E2E2E2E2E2E2E2E2E2E2E2E2E2E2E2E2E2E2E2E2E2E2E2E2E2E2E2E2E2E2E2E2E2E2E2E2E2E2E2E2E2E2E2E2E2E2E2E2E2E2E2E2E2E2E2E2E2E2E2E2E2E2E2E2E2E2
310
E2E2E2E2E2E2E2E2E2E2E2E2E2E2E2E2E2E2E2E2E2E2E2E2E2E2E2E2E2E2E2E2E2E2E2E2E2E2E2E2E2E2E2E2E2E2E2E2E2E2E2E2E2E2E2E2E2E2E2E2E2E2E2E2E2E2E2E2E2E2E2E2E2E2E2E2E2E2E2E2E2E2E2E2E2E2E2E2E2E2E2E2E2E2E2E2E2E2E2E2E2E2E2E2E2E2E2E2E2E2E2E2E2E2E2E2E2E2E2E2E2E2E2E2E2E2E2
310
E2E2E2E2E2E2E2E2E2E2E2E2E2E2E2E2E2E2E2E2E2E2E2E2E2E2E2E2E2E2E2E2E2E2E2E2E2E2E2E2E2E2E2E2E2E2E2E2E2E2E2E2E2E2E2E2E2E2E2E2E2E2E2E2E2E2E2E2E2E2E2E2E2E2E2E2E2E2E2E2E2E2E2E2E2E2E2E2E2E2E2E2E2E2E2E2E2E2E2E2E2E2E2E2E2E2E2E2E2E2E2E2E2E2E2E2E2E2E2E2E2E2E2E2E2E2E2
310
E2E2E2E2E2E2E2E2E2E2E2E2E2E2E2E2E2E2E2E2E2E2E2E2E2E2E2E2E2E2E2E2E2E2E2E2E2E2E2E2E2E2E2E2E2E2E2E2E2E2E2E2E2E2E2E2E2E2E2E2E2E2E2E2E2E2E2E2E2E2E2E2E2E2E2E2E2E2E2E2E2E2E2E2E2E2E2E2E2E2E2E2E2E2E2E2E2E2E2E2E2E2E2E2E2E2E2E2E2E2E2E2E2E2E2E2E2E2E2E2E2E2E2E2E2E2E2
310
E2E2E2E2E2E2E2E2E2E2E2E2E2E2E2E2E2E2E2E2E2E2E2E2E2E2E2E2E2E2E2E2E2E2E2E2E2E2E2E2E2E2E2E2E2E2E2E2E2E2E2E2E2E2E2E2E2E2E2E2E2E2E2E2E2E2E2E2E2E2E2E2E2E2E2E2E2E2E2E2E2E2E2E2E2E2E2E2E2E2E2E2E2E2E2E2E2E2E2E2E2E2E2E2E2E2E2E2E2E2E2E2E2E2E2E2E2E2E2E2E2E2E2E2E2E2E2
310
E2E2E2E2E2E2E2E2E2E2E2E2E2E2E2E2E2E2E2E2E2E2E2E2E2E2E2E2E2E2E2E2E2E2E2E2E2E2E2E2E2E2E2E2E2E2E2E2E2E2E2E2E2E2E2E2E2E2E2E2E2E2E2E2E2E2E2E2E2E2E2E2E2E2E2E2E2E2E2E2E2E2E2E2E2E2E2E2E2E2E2E2E2E2E2E2E2E2E2E2E2E2E2E2E2E2E2E2E2E2E2E2E2E2E2E2E2E2E2E2E2E2E2E2E2E2E2
310
E2E2E2E2E2E2E2E2E2E2E2E2E2E2E2E2E2E2E2E2E2E2E2E2E2E2E2E2E2E2E2E2E2E2E2E2E2E2E2E2E2E2E2E2E2E2E2E2E2E2E2E2E2E2E2E2E2E2E2E2E2E2E2E2E2E2E2E2E2E2E2E2E2E2E2E2E2E2E2E2E2E2E2E2E2E2E2E2E2E2E2E2E2E2E2E2E2E2E2E2E2E2E2E2E2E2E2E2E2E2E2E2E2E2E2E2E2E2E2E2E2E2E2E2E2E2E2
310
E2E2E2E2E2E2E2E2E2E2E2E2E2E2E2E2E2E2E2E2E2E2E2E2E2E2E2E2E2E2E2E2E2E2E2E2E2E2E2E2E2E2E2E2E2E2E2E2E2E2E2E2E2E2E2E2E2E2E2E2E2E2E2E2E2E2E2E2E2E2E2E2E2E2E2E2E2E2E2E2E2E2E2E2E2E2E2E2E2E2E2E2E2E2E2E2E2E2E2E2E2E2E2E2E2E2E2E2E2E2E2E2E2E2E2E2E2E2E2E2E2E2E2E2E2E2E2
310
E2E2E2E2E2E2E2E2E2E2E2E2E2E2E2E2E2E2E2E2E2E2E2E2E2E2E2E2E2E2E2E2E2E2E2E2E2E2E2E2E2E2E2E2E2E2E2E2E2E2E2E2E2E2E2E2E2E2E2E2E2E2E2E2E2E2E2E2E2E2E2E2E2E2E2E2E2E2E2E2E2E2E2E2E2E2E2E2E2E2E2E2E2E2E2E2E2E2E2E2E2E2E2E2E2E2E2E2E2E2E2E2E2E2E2E2E2E2E2E2E2E2E2E2E2E2E2
310
E2E2E2E2E2E2E2E2E2E2E2E2E2E2E2E2E2E2E2E2E2E2E2E2E2E2E2E2E2E2E2E2E2E2E2E2E2E2E2E2E2E2E2E2E2E2E2E2E2E2E2E2E2E2E2E2E2E2E2E2E2E2E2E2E2E2E2E2E2E2E2E2E2E2E2E2E2E2E2E2E2E2E2E2E2E2E2E2E2E2E2E2E2E2E2E2E2E2E2E2E2E2E2E2E2E2E2E2E2E2E2E2E2E2E2E2E2E2E2E2E2E2E2E2E2E2E2
310
E2E2E2E2E2E2E2E2E2E2E2E2E2E2E2E2E2E2E2E2E2E2E2E2E2E2E2E2E2E2E2E2E2E2E2E2E2E2E2E2E2E2E2E2E2E2E2E2E2E2E2E2E2E2E2E2E2E2E2E2E2E2E2E2E2E2E2E2E2E2E2E2E2E2E2E2E2E2E2E2E2E2E2E2E2E2E2E2E2E2E2E2E2E2E2E2E2E2E2E2E2E2E2E2E2E2E2E2E2E2E2E2E2E2E2E2E2E2E2E2E2E2E2E2E2E2E2
310
E2E2E2E2E2E2E2E2E2E2E2E2E2E2E2E2E2E2E2E2E2E2E2E2E2E2E2E2E2E2E2E2E2E2E2E2E2E2E2E2E2E2E2E2E2E2E2E2E2E2E2E2E2E2E2E2E2E2E2E2E2E2E2E2E2E2E2E2E2E2E2E2E2E2E2E2E2E2E2E2E2E2E2E2E2E2E2E2E2E2E2E2E2E2E2E2E2E2E2E2E2E2E2E2E2E2E2E2E2E2E2E2E2E2E2E2E2E2E2E2E2E2E2E2E2E2E2
310
E2E2E2E2E2E2E2E2E2E2E2E2E2E2E2E2E2E2E2E2E2E2E2E2E2E2E2E2E2E2E2E2E2E2E2E2E2E2E2E2E2E2E2E2E2E2E2E2E2E2E2E2E2E2E2E2E2E2E2E2E2E2E2E2E2E2E2E2E2E2E2E2E2E2E2E2E2E2E2E2E2E2E2E2E2E2E2E2E2E2E2E2E2E2E2E2E2E2E2E2E2E2E2E2E2E2E2E2E2E2E2E2E2E2E2E2E2E2E2E2E2E2E2E2E2E2E2
310
E2E2E2E2E2E2E2E2E2E2E2E2E2E2E2E2E2E2E2E2E2E2E2E2E2E2E2E2E2E2E2E2E2E2E2E2E2E2E2E2E2E2E2E2E2E2E2E2E2E2E2E2E2E2E2E2E2E2E2E2E2E2E2E2E2E2E2E2E2E2E2E2E2E2E2E2E2E2E2E2E2E2E2E2E2E2E2E2E2E2E2E2E2E2E2E2E2E2E2E2E2E2E2E2E2E2E2E2E2E2E2E2E2E2E2E2E2E2E2E2E2E2E2E2E2E2E2
310
E2E2E2E2E2E2E2E2E2E2E2E2E2E2E2E2E2E2E2E2E2E2E2E2E2E2E2E2E2E2E2E2E2E2E2E2E2E2E2E2E2E2E2E2E2E2E2E2E2E2E2E2E2E2E2E2E2E2E2E2E2E2E2E2E2E2E2E2E2E2E2E2E2E2E2E2E2E2E2E2E2E2E2E2E2E2E2E2E2E2E2E2E2E2E2E2E2E2E2E2E2E2E2E2E2E2E2E2E2E2E2E2E2E2E2E2E2E2E2E2E2E2E2E2E2E2E2
310
E2E2E2E2E2E2E2E2E2E2E2E2E2E2E2E2E2E2E2E2E2E2E2E2E2E2E2E2E2E2E2E2E2E2E2E2E2E2E2E2E2E2E2E2E2E2E2E2E2E2E2E2E2E2E2E2E2E2E2E2E2E2E2E2E2E2E2E2E2E2E2E2E2E2E2E2E2E2E2E2E2E2E2E2E2E2E2E2E2E2E2E2E2E2E2E2E2E2E2E2E2E2E2E2E2E2E2E2E2E2E2E2E2E2E2E2E2E2E2E2E2E2E2E2E2E2E2
310
E2E2E2E2E2E2E2E2E2E2E2E2E2E2E2E2E2E2E2E2E2E2E2E2E2E2E2E2E2E2E2E2E2E2E2E2E2E2E2E2E2E2E2E2E2E2E2E2E2E2E2E2E2E2E2E2E2E2E2E2E2E2E2E2E2E2E2E2E2E2E2E2E2E2E2E2E2E2E2E2E2E2E2E2E2E2E2E2E2E2E2E2E2E2E2E2E2E2E2E2E2E2E2E2E2E2E2E2E2E2E2E2E2E2E2E2E2E2E2E2E2E2E2E2E2E2E2
310
E2E2E2E2E2E2E2E2E2E2E2E2E2E2E2E2E2E2E2E2E2E2E2E2E2E2E2E2E2E2E2E2E2E2E2E2E2E2E2E2E2E2E2E2E2E2E2E2E2E2E2E2E2E2E2E2E2E2E2E2E2E2E2E2E2E2E2E2E2E2E2E2E2E2E2E2E2E2E2E2E2E2E2E2E2E2E2E2E2E2E2E2E2E2E2E2E2E2E2E2E2E2E2E2E2E2E2E2E2E2E2E2E2E2E2E2E2E2E2E2E2E2E2E2E2E2E2
310
E2E2E2E2E2E2E2E2E2E2E2E2E2E2E2E2E2E2E2E2E2E2E2E2E2E2E2E2E2E2E2E2E2E2E2E2E2E2E2E2E2E2E2E2E2E2E2E2E2E2E2E2E2E2E2E2E2E2E2E2E2E2E2E2E2E2E2E2E2E2E2E2E2E2E2E2E2E2E2E2E2E2E2E2E2E2E2E2E2E2E2E2E2E2E2E2E2E2E2E2E2E2E2E2E2E2E2E2E2E2E2E2E2E2E2E2E2E2E2E2E2E2E2E2E2E2E2
310
E2E2E2E2E2E2E2E2E2E2E2E2E2E2E2E2E2E2E2E2E2E2E2E2E2E2E2E2E2E2E2E2E2E2E2E2E2E2E2E2E2E2E2E2E2E2E2E2E2E2E2E2E2E2E2E2E2E2E2E2E2E2E2E2E2E2E2E2E2E2E2E2E2E2E2E2E2E2E2E2E2E2E2E2E2E2E2E2E2E2E2E2E2E2E2E2E2E2E2E2E2E2E2E2E2E2E2E2E2E2E2E2E2E2E2E2E2E2E2E2E2E2E2E2E2E2E2
310
E2E2E2E2E2E2E2E2E2E2E2E2E2E2E2E2E2E2E2E2E2E2E2E2E2E2E2E2E2E2E2E2E2E2E2E2E2E2E2E2E2E2E2E2E2E2E2E2E2E2E2E2E2E2E2E2E2E2E2E2E2E2E2E2E2E2E2E2E2E2E2E2E2E2E2E2E2E2E2E2E2E2E2E2E2E2E2E2E2E2E2E2E2E2E2E2E2E2E2E2E2E2E2E2E2E2E2E2E2E2E2E2E2E2E2E2E2E2E2E2E2E2E2E2E2E2E2
310
E2E2E2E2E2E2E2E2E2E2E2E2E2E2E2E2E2E2E2E2E2E2E2E2E2E2E2E2E2E2E2E2E2E2E2E2E2E2E2E2E2E2E2E2E2E2E2E2E2E2E2E2E2E2E2E2E2E2E2E2E2E2E2E2E2E2E2E2E2E2E2E2E2E2E2E2E2E2E2E2E2E2E2E2E2E2E2E2E2E2E2E2E2E2E2E2E2E2E2E2E2E2E2E2E2E2E2E2E2E2E2E2E2E2E2E2E2E2E2E2E2E2E2E2E2E2E2
310
E2E2E2E2E2E2E2E2E2E2E2E2E2E2E2E2E2E2E2E2E2E2E2E2E2E2E2E2E2E2E2E2E2E2E2E2E2E2E2E2E2E2E2E2E2E2E2E2E2E2E2E2E2E2E2E2E2E2E2E2E2E2E2E2E2E2E2E2E2E2E2E2E2E2E2E2E2E2E2E2E2E2E2E2E2E2E2E2E2E2E2E2E2E2E2E2E2E2E2E2E2E2E2E2E2E2E2E2E2E2E2E2E2E2E2E2E2E2E2E2E2E2E2E2E2E2E2
310
E2E2E2E2E2E2E2E2E2E2E2E2E2E2E2E2E2E2E2E2E2E2E2E2E2E2E2E2E2E2E2E2E2E2E2E2E2E2E2E2E2E2E2E2E2E2E2E2E2E2E2E2E2E2E2E2E2E2E2E2E2E2E2E2E2E2E2E2E2E2E2E2E2E2E2E2E2E2E2E2E2E2E2E2E2E2E2E2E2E2E2E2E2E2E2E2E2E2E2E2E2E2E2E2E2E2E2E2E2E2E2E2E2E2E2E2E2E2E2E2E2E2E2E2E2E2E2
310
E2E2E2E2E2E2E2E2E2E2E2E2E2E2E2E2E2E2E2E2E2E2E2E2E2E2E2E2E2E2E2E2E2E2E2E2E2E2E2E2E2E2E2E2E2E2E2E2E2E2E2E2E2E2E2E2E2E2E2E2E2E2E2E2E2E2E2E2E2E2E2E2E2E2E2E2E2E2E2E2E2E2E2E2E2E2E2E2E2E2E2E2E2E2E2E2E2E2E2E2E2E2E2E2E2E2E2E2E2E2E2E2E2E2E2E2E2E2E2E2E2E2E2E2E2E2E2
310
E2E2E2E2E2E2E2E2E2E2E2E2E2E2E2E2E2E2E2E2E2E2E2E2E2E2E2E2E2E2E2E2E2E2E2E2E2E2E2E2E2E2E2E2E2E2E2E2E2E2E2E2E2E2E2E2E2E2E2E2E2E2E2E2E2E2E2E2E2E2E2E2E2E2E2E2E2E2E2E2E2E2E2E2E2E2E2E2E2E2E2E2E2E2E2E2E2E2E2E2E2E2E2E2E2E2E2E2E2E2E2E2E2E2E2E2E2E2E2E2E2E2E2E2E2E2E2
310
E2E2E2E2E2E2E2E2E2E2E2E2E2E2E2E2E2E2E2E2E2E2E2E2E2E2E2E2E2E2E2E2E2E2E2E2E2E2E2E2E2E2E2E2E2E2E2E2E2E2E2E2E2E2E2E2E2E2E2E2E2E2E2E2E2E2E2E2E2E2E2E2E2E2E2E2E2E2E2E2E2E2E2E2E2E2E2E2E2E2E2E2E2E2E2E2E2E2E2E2E2E2E2E2E2E2E2E2E2E2E2E2E2E2E2E2E2E2E2E2E2E2E2E2E2E2E2
310
E2E2E2E2E2E2E2E2E2E2E2E2E2E2E2E2E2E2E2E2E2E2E2E2E2E2E2E2E2E2E2E2E2E2E2E2E2E2E2E2E2E2E2E2E2E2E2E2E2E2E2E2E2E2E2E2E2E2E2E2E2E2E2E2E2E2E2E2E2E2E2E2E2E2E2E2E2E2E2E2E2E2E2E2E2E2E2E2E2E2E2E2E2E2E2E2E2E2E2E2E2E2E2E2E2E2E2E2E2E2E2E2E2E2E2E2E2E2E2E2E2E2E2E2E2E2E2
310
E2E2E2E2E2E2E2E2E2E2E2E2E2E2E2E2E2E2E2E2E2E2E2E2E2E2E2E2E2E2E2E2E2E2E2E2E2E2E2E2E2E2E2E2E2E2E2E2E2E2E2E2E2E2E2E2E2E2E2E2E2E2E2E2E2E2E2E2E2E2E2E2E2E2E2E2E2E2E2E2E2E2E2E2E2E2E2E2E2E2E2E2E2E2E2E2E2E2E2E2E2E2E2E2E2E2E2E2E2E2E2E2E2E2E2E2E2E2E2E2E2E2E2E2E2E2E2
310
E2E2E2E2E2E2E2E2E2E2E2E2E2E2E2E2E2E2E2E2E2E2E2E2E2E2E2E2E2E2E2E2E2E2E2E2E2E2E2E2E2E2E2E2E2E2E2E2E2E2E2E2E2E2E2E2E2E2E2E2E2E2E2E2E2E2E2E2E2E2E2E2E2E2E2E2E2E2E2E2E2E2E2E2E2E2E2E2E2E2E2E2E2E2E2E2E2E2E2E2E2E2E2E2E2E2E2E2E2E2E2E2E2E2E2E2E2E2E2E2E2E2E2E2E2E2E2
310
E2E2E2E2E2E2E2E2E2E2E2E2E2E2E2E2E2E2E2E2E2E2E2E2E2E2E2E2E2E2E2E2E2E2E2E2E2E2E2E2E2E2E2E2E2E2E2E2E2E2E2E2E2E2E2E2E2E2E2E2E2E2E2E2E2E2E2E2E2E2E2E2E2E2E2E2E2E2E2E2E2E2E2E2E2E2E2E2E2E2E2E2E2E2E2E2E2E2E2E2E2E2E2E2E2E2E2E2E2E2E2E2E2E2E2E2E2E2E2E2E2E2E2E2E2E2E2
310
E2E2E2E2E2E2E2E2E2E2E2E2E2E2E2E2E2E2E2E2E2E2E2E2E2E2E2E2E2E2E2E2E2E2E2E2E2E2E2E2E2E2E2E2E2E2E2E2E2E2E2E2E2E2E2E2E2E2E2E2E2E2E2E2E2E2E2E2E2E2E2E2E2E2E2E2E2E2E2E2E2E2E2E2E2E2E2E2E2E2E2E2E2E2E2E2E2E2E2E2E2E2E2E2E2E2E2E2E2E2E2E2E2E2E2E2E2E2E2E2E2E2E2E2E2E2E2
310
E2E2E2E2E2E2E2E2E2E2E2E2E2E2E2E2E2E2E2E2E2E2E2E2E2E2E2E2E2E2E2E2E2E2E2E2E2E2E2E2E2E2E2E2E2E2E2E2E2E2E2E2E2E2E2E2E2E2E2E2E2E2E2E2E2E2E2E2E2E2E2E2E2E2E2E2E2E2E2E2E2E2E2E2E2E2E2E2E2E2E2E2E2E2E2E2E2E2E2E2E2E2E2E2E2E2E2E2E2E2E2E2E2E2E2E2E2E2E2E2E2E2E2E2E2E2E2
310
E2E2E2E2E2E2E2E2E2E2E2E2E2E2E2E2E2E2E2E2E2E2E2E2E2E2E2E2E2E2E2E2E2E2E2E2E2E2E2E2E2E2E2E2E2E2E2E2E2E2E2E2E2E2E2E2E2E2E2E2E2E2E2E2E2E2E2E2E2E2E2E2E2E2E2E2E2E2E2E2E2E2E2E2E2E2E2E2E2E2E2E2E2E2E2E2E2E2E2E2E2E2E2E2E2E2E2E2E2E2E2E2E2E2E2E2E2E2E2E2E2E2E2E2E2E2E2
310
E2E2E2E2E2E2E2E2E2E2E2E2E2E2E2E2E2E2E2E2E2E2E2E2E2E2E2E2E2E2E2E2E2E2E2E2E2E2E2E2E2E2E2E2E2E2E2E2E2E2E2E2E2E2E2E2E2E2E2E2E2E2E2E2E2E2E2E2E2E2E2E2E2E2E2E2E2E2E2E2E2E2E2E2E2E2E2E2E2E2E2E2E2E2E2E2E2E2E2E2E2E2E2E2E2E2E2E2E2E2E2E2E2E2E2E2E2E2E2E2E2E2E2E2E2E2E2
310
E2E2E2E2E2E2E2E2E2E2E2E2E2E2E2E2E2E2E2E2E2E2E2E2E2E2E2E2E2E2E2E2E2E2E2E2E2E2E2E2E2E2E2E2E2E2E2E2E2E2E2E2E2E2E2E2E2E2E2E2E2E2E2E2E2E2E2E2E2E2E2E2E2E2E2E2E2E2E2E2E2E2E2E2E2E2E2E2E2E2E2E2E2E2E2E2E2E2E2E2E2E2E2E2E2E2E2E2E2E2E2E2E2E2E2E2E2E2E2E2E2E2E2E2E2E2E2
310
E2E2E2E2E2E2E2E2E2E2E2E2E2E2E2E2E2E2E2E2E2E2E2E2E2E2E2E2E2E2E2E2E2E2E2E2E2E2E2E2E2E2E2E2E2E2E2E2E2E2E2E2E2E2E2E2E2E2E2E2E2E2E2E2E2E2E2E2E2E2E2E2E2E2E2E2E2E2E2E2E2E2E2E2E2E2E2E2E2E2E2E2E2E2E2E2E2E2E2E2E2E2E2E2E2E2E2E2E2E2E2E2E2E2E2E2E2E2E2E2E2E2E2E2E2E2E2
310
E2E2E2E2E2E2E2E2E2E2E2E2E2E2E2E2E2E2E2E2E2E2E2E2E2E2E2E2E2E2E2E2E2E2E2E2E2E2E2E2E2E2E2E2E2E2E2E2E2E2E2E2E2E2E2E2E2E2E2E2E2E2E2E2E2E2E2E2E2E2E2E2E2E2E2E2E2E2E2E2E2E2E2E2E2E2E2E2E2E2E2E2E2E2E2E2E2E2E2E2E2E2E2E2E2E2E2E2E2E2E2E2E2E2E2E2E2E2E2E2E2E2E2E2E2E2E2
310
E2E2E2E2E2E2E2E2E2E2E2E2E2E2E2E2E2E2E2E2E2E2E2E2E2E2E2E2E2E2E2E2E2E2E2E2E2E2E2E2E2E2E2E2E2E2E2E2E2E2E2E2E2E2E2E2E2E2E2E2E2E2E2E2E2E2E2E2E2E2E2E2E2E2E2E2E2E2E2E2E2E2E2E2E2E2E2E2E2E2E2E2E2E2E2E2E2E2E2E2E2E2E2E2E2E2E2E2E2E2E2E2E2E2E2E2E2E2E2E2E2E2E2E2E2E2E2
310
E2E2E2E2E2E2E2E2E2E2E2E2E2E2E2E2E2E2E2E2E2E2E2E2E2E2E2E2E2E2E2E2E2E2E2E2E2E2E2E2E2E2E2E2E2E2E2E2E2E2E2E2E2E2E2E2E2E2E2E2E2E2E2E2E2E2E2E2E2E2E2E2E2E2E2E2E2E2E2E2E2E2E2E2E2E2E2E2E2E2E2E2E2E2E2E2E2E2E2E2E2E2E2E2E2E2E2E2E2E2E2E2E2E2E2E2E2E2E2E2E2E2E2E2E2E2E2
310
E2E2E2E2E2E2E2E2E2E2E2E2E2E2E2E2E2E2E2E2E2E2E2E2E2E2E2E2E2E2E2E2E2E2E2E2E2E2E2E2E2E2E2E2E2E2E2E2E2E2E2E2E2E2E2E2E2E2E2E2E2E2E2E2E2E2E2E2E2E2E2E2E2E2E2E2E2E2E2E2E2E2E2E2E2E2E2E2E2E2E2E2E2E2E2E2E2E2E2E2E2E2E2E2E2E2E2E2E2E2E2E2E2E2E2E2E2E2E2E2E2E2E2E2E2E2E2
310
E2E2E2E2E2E2E2E2E2E2E2E2E2E2E2E2E2E2E2E2E2E2E2E2E2E2E2E2E2E2E2E2E2E2E2E2E2E2E2E2E2E2E2E2E2E2E2E2E2E2E2E2E2E2E2E2E2E2E2E2E2E2E2E2E2E2E2E2E2E2E2E2E2E2E2E2E2E2E2E2E2E2E2E2E2E2E2E2E2E2E2E2E2E2E2E2E2E2E2E2E2E2E2E2E2E2E2E2E2E2E2E2E2E2E2E2E2E2E2E2E2E2E2E2E2E2E2
310
E2E2E2E2E2E2E2E2E2E2E2E2E2E2E2E2E2E2E2E2E2E2E2E2E2E2E2E2E2E2E2E2E2E2E2E2E2E2E2E2E2E2E2E2E2E2E2E2E2E2E2E2E2E2E2E2E2E2E2E2E2E2E2E2E2E2E2E2E2E2E2E2E2E2E2E2E2E2E2E2E2E2E2E2E2E2E2E2E2E2E2E2E2E2E2E2E2E2E2E2E2E2E2E2E2E2E2E2E2E2E2E2E2E2E2E2E2E2E2E2E2E2E2E2E2E2E2
310
E2E2E2E2E2E2E2E2E2E2E2E2E2E2E2E2E2E2E2E2E2E2E2E2E2E2E2E2E2E2E2E2E2E2E2E2E2E2E2E2E2E2E2E2E2E2E2E2E2E2E2E2E2E2E2E2E2E2E2E2E2E2E2E2E2E2E2E2E2E2E2E2E2E2E2E2E2E2E2E2E2E2E2E2E2E2E2E2E2E2E2E2E2E2E2E2E2E2E2E2E2E2E2E2E2E2E2E2E2E2E2E2E2E2E2E2E2E2E2E2E2E2E2E2E2E2E2
310
E2E2E2E2E2E2E2E2E2E2E2E2E2E2E2E2E2E2E2E2E2E2E2E2E2E2E2E2E2E2E2E2E2E2E2E2E2E2E2E2E2E2E2E2E2E2E2E2E2E2E2E2E2E2E2E2E2E2E2E2E2E2E2E2E2E2E2E2E2E2E2E2E2E2E2E2E2E2E2E2E2E2E2E2E2E2E2E2E2E2E2E2E2E2E2E2E2E2E2E2E2E2E2E2E2E2E2E2E2E2E2E2E2E2E2E2E2E2E2E2E2E2E2E2E2E2E2
310
E2E2E2E2E2E2E2E2E2E2E2E2E2E2E2E2E2E2E2E2E2E2E2E2E2E2E2E2E2E2E2E2E2E2E2E2E2E2E2E2E2E2E2E2E2E2E2E2E2E2E2E2E2E2E2E2E2E2E2E2E2E2E2E2E2E2E2E2E2E2E2E2E2E2E2E2E2E2E2E2E2E2E2E2E2E2E2E2E2E2E2E2E2E2E2E2E2E2E2E2E2E2E2E2E2E2E2E2E2E2E2E2E2E2E2E2E2E2E2E2E2E2E2E2E2E2E2
310
E2E2E2E2E2E2E2E2E2E2E2E2E2E2E2E2E2E2E2E2E2E2E2E2E2E2E2E2E2E2E2E2E2E2E2E2E2E2E2E2E2E2E2E2E2E2E2E2E2E2E2E2E2E2E2E2E2E2E2E2E2E2E2E2E2E2E2E2E2E2E2E2E2E2E2E2E2E2E2E2E2E2E2E2E2E2E2E2E2E2E2E2E2E2E2E2E2E2E2E2E2E2E2E2E2E2E2E2E2E2E2E2E2E2E2E2E2E2E2E2E2E2E2E2E2E2E2
310
E2E2E2E2E2E2E2E2E2E2E2E2E2E2E2E2E2E2E2E2E2E2E2E2E2E2E2E2E2E2E2E2E2E2E2E2E2E2E2E2E2E2E2E2E2E2E2E2E2E2E2E2E2E2E2E2E2E2E2E2E2E2E2E2E2E2E2E2E2E2E2E2E2E2E2E2E2E2E2E2E2E2E2E2E2E2E2E2E2E2E2E2E2E2E2E2E2E2E2E2E2E2E2E2E2E2E2E2E2E2E2E2E2E2E2E2E2E2E2E2E2E2E2E2E2E2E2
310
E2E2E2E2E2E2E2E2E2E2E2E2E2E2E2E2E2E2E2E2E2E2E2E2E2E2E2E2E2E2E2E2E2E2E2E2E2E2E2E2E2E2E2E2E2E2E2E2E2E2E2E2E2E2E2E2E2E2E2E2E2E2E2E2E2E2E2E2E2E2E2E2E2E2E2E2E2E2E2E2E2E2E2E2E2E2E2E2E2E2E2E2E2E2E2E2E2E2E2E2E2E2E2E2E2E2E2E2E2E2E2E2E2E2E2E2E2E2E2E2E2E2E2E2E2E2E2
310
E2E2E2E2E2E2E2E2E2E2E2E2E2E2E2E2E2E2E2E2E2E2E2E2E2E2E2E2E2E2E2E2E2E2E2E2E2E2E2E2E2E2E2E2E2E2E2E2E2E2E2E2E2E2E2E2E2E2E2E2E2E2E2E2E2E2E2E2E2E2E2E2E2E2E2E2E2E2E2E2E2E2E2E2E2E2E2E2E2E2E2E2E2E2E2E2E2E2E2E2E2E2E2E2E2E2E2E2E2E2E2E2E2E2E2E2E2E2E2E2E2E2E2E2E2E2E2
310
E2E2E2E2E2E2E2E2E2E2E2E2E2E2E2E2E2E2E2E2E2E2E2E2E2E2E2E2E2E2E2E2E2E2E2E2E2E2E2E2E2E2E2E2E2E2E2E2E2E2E2E2E2E2E2E2E2E2E2E2E2E2E2E2E2E2E2E2E2E2E2E2E2E2E2E2E2E2E2E2E2E2E2E2E2E2E2E2E2E2E2E2E2E2E2E2E2E2E2E2E2E2E2E2E2E2E2E2E2E2E2E2E2E2E2E2E2E2E2E2E2E2E2E2E2E2E2
310
E2E2E2E2E2E2E2E2E2E2E2E2E2E2E2E2E2E2E2E2E2E2E2E2E2E2E2E2E2E2E2E2E2E2E2E2E2E2E2E2E2E2E2E2E2E2E2E2E2E2E2E2E2E2E2E2E2E2E2E2E2E2E2E2E2E2E2E2E2E2E2E2E2E2E2E2E2E2E2E2E2E2E2E2E2E2E2E2E2E2E2E2E2E2E2E2E2E2E2E2E2E2E2E2E2E2E2E2E2E2E2E2E2E2E2E2E2E2E2E2E2E2E2E2E2E2E2
310
E2E2E2E2E2E2E2E2E2E2E2E2E2E2E2E2E2E2E2E2E2E2E2E2E2E2E2E2E2E2E2E2E2E2E2E2E2E2E2E2E2E2E2E2E2E2E2E2E2E2E2E2E2E2E2E2E2E2E2E2E2E2E2E2E2E2E2E2E2E2E2E2E2E2E2E2E2E2E2E2E2E2E2E2E2E2E2E2E2E2E2E2E2E2E2E2E2E2E2E2E2E2E2E2E2E2E2E2E2E2E2E2E2E2E2E2E2E2E2E2E2E2E2E2E2E2E2
310
E2E2E2E2E2E2E2E2E2E2E2E2E2E2E2E2E2E2E2E2E2E2E2E2E2E2E2E2E2E2E2E2E2E2E2E2E2E2E2E2E2E2E2E2E2E2E2E2E2E2E2E2E2E2E2E2E2E2E2E2E2E2E2E2E2E2E2E2E2E2E2E2E2E2E2E2E2E2E2E2E2E2E2E2E2E2E2E2E2E2E2E2E2E2E2E2E2E2E2E2E2E2E2E2E2E2E2E2E2E2E2E2E2E2E2E2E2E2E2E2E2E2E2E2E2E2E2
310
E2E2E2E2E2E2E2E2E2E2E2E2E2E2E2E2E2E2E2E2E2E2E2E2E2E2E2E2E2E2E2E2E2E2E2E2E2E2E2E2E2E2E2E2E2E2E2E2E2E2E2E2E2E2E2E2E2E2E2E2E2E2E2E2E2E2E2E2E2E2E2E2E2E2E2E2E2E2E2E2E2E2E2E2E2E2E2E2E2E2E2E2E2E2E2E2E2E2E2E2E2E2E2E2E2E2E2E2E2E2E2E2E2E2E2E2E2E2E2E2E2E2E2E2E2E2E2
310
E2E2E2E2E2E2E2E2E2E2E2E2E2E2E2E2E2E2E2E2E2E2E2E2E2E2E2E2E2E2E2E2E2E2E2E2E2E2E2E2E2E2E2E2E2E2E2E2E2E2E2E2E2E2E2E2E2E2E2E2E2E2E2E2E2E2E2E2E2E2E2E2E2E2E2E2E2E2E2E2E2E2E2E2E2E2E2E2E2E2E2E2E2E2E2E2E2E2E2E2E2E2E2E2E2E2E2E2E2E2E2E2E2E2E2E2E2E2E2E2E2E2E2E2E2E2E2
310
E2E2E2E2E2E2E2E2E2E2E2E2E2E2E2E2E2E2E2E2E2E2E2E2E2E2E2E2E2E2E2E2E2E2E2E2E2E2E2E2E2E2E2E2E2E2E2E2E2E2E2E2E2E2E2E2E2E2E2E2E2E2E2E2E2E2E2E2E2E2E2E2E2E2E2E2E2E2E2E2E2E2E2E2E2E2E2E2E2E2E2E2E2E2E2E2E2E2E2E2E2E2E2E2E2E2E2E2E2E2E2E2E2E2E2E2E2E2E2E2E2E2E2E2E2E2E2
310
E2E2E2E2E2E2E2E2E2E2E2E2E2E2E2E2E2E2E2E2E2E2E2E2E2E2E2E2E2E2E2E2E2E2E2E2E2E2E2E2E2E2E2E2E2E2E2E2E2E2E2E2E2E2E2E2E2E2E2E2E2E2E2E2E2E2E2E2E2E2E2E2E2E2E2E2E2E2E2E2E2E2E2E2E2E2E2E2E2E2E2E2E2E2E2E2E2E2E2E2E2E2E2E2E2E2E2E2E2E2E2E2E2E2E2E2E2E2E2E2E2E2E2E2E2E2E2
310
E2E2E2E2E2E2E2E2E2E2E2E2E2E2E2E2E2E2E2E2E2E2E2E2E2E2E2E2E2E2E2E2E2E2E2E2E2E2E2E2E2E2E2E2E2E2E2E2E2E2E2E2E2E2E2E2E2E2E2E2E2E2E2E2E2E2E2E2E2E2E2E2E2E2E2E2E2E2E2E2E2E2E2E2E2E2E2E2E2E2E2E2E2E2E2E2E2E2E2E2E2E2E2E2E2E2E2E2E2E2E2E2E2E2E2E2E2E2E2E2E2E2E2E2E2E2E2
310
E2E2E2E2E2E2E2E2E2E2E2E2E2E2E2E2E2E2E2E2E2E2E2E2E2E2E2E2E2E2E2E2E2E2E2E2E2E2E2E2E2E2E2E2E2E2E2E2E2E2E2E2E2E2E2E2E2E2E2E2E2E2E2E2E2E2E2E2E2E2E2E2E2E2E2E2E2E2E2E2E2E2E2E2E2E2E2E2E2E2E2E2E2E2E2E2E2E2E2E2E2E2E2E2E2E2E2E2E2E2E2E2E2E2E2E2E2E2E2E2E2E2E2E2E2E2E2
310
E2E2E2E2E2E2E2E2E2E2E2E2E2E2E2E2E2E2E2E2E2E2E2E2E2E2E2E2E2E2E2E2E2E2E2E2E2E2E2E2E2E2E2E2E2E2E2E2E2E2E2E2E2E2E2E2E2E2E2E2E2E2E2E2E2E2E2E2E2E2E2E2E2E2E2E2E2E2E2E2E2E2E2E2E2E2E2E2E2E2E2E2E2E2E2E2E2E2E2E2E2E2E2E2E2E2E2E2E2E2E2E2E2E2E2E2E2E2E2E2E2E2E2E2E2E2E2
310
E2E2E2E2E2E2E2E2E2E2E2E2E2E2E2E2E2E2E2E2E2E2E2E2E2E2E2E2E2E2E2E2E2E2E2E2E2E2E2E2E2E2E2E2E2E2E2E2E2E2E2E2E2E2E2E2E2E2E2E2E2E2E2E2E2E2E2E2E2E2E2E2E2E2E2E2E2E2E2E2E2E2E2E2E2E2E2E2E2E2E2E2E2E2E2E2E2E2E2E2E2E2E2E2E2E2E2E2E2E2E2E2E2E2E2E2E2E2E2E2E2E2E2E2E2E2E2
310
E2E2E2E2E2E2E2E2E2E2E2E2E2E2E2E2E2E2E2E2E2E2E2E2E2E2E2E2E2E2E2E2E2E2E2E2E2E2E2E2E2E2E2E2E2E2E2E2E2E2E2E2E2E2E2E2E2E2E2E2E2E2E2E2E2E2E2E2E2E2E2E2E2E2E2E2E2E2E2E2E2E2E2E2E2E2E2E2E2E2E2E2E2E2E2E2E2E2E2E2E2E2E2E2E2E2E2E2E2E2E2E2E2E2E2E2E2E2E2E2E2E2E2E2E2E2E2
310
E2E2E2E2E2E2E2E2E2E2E2E2E2E2E2E2E2E2E2E2E2E2E2E2E2E2E2E2E2E2E2E2E2E2E2E2E2E2E2E2E2E2E2E2E2E2E2E2E2E2E2E2E2E2E2E2E2E2E2E2E2E2E2E2E2E2E2E2E2E2E2E2E2E2E2E2E2E2E2E2E2E2E2E2E2E2E2E2E2E2E2E2E2E2E2E2E2E2E2E2E2E2E2E2E2E2E2E2E2E2E2E2E2E2E2E2E2E2E2E2E2E2E2E2E2E2E2
310
E2E2E2E2E2E2E2E2E2E2E2E2E2E2E2E2E2E2E2E2E2E2E2E2E2E2E2E2E2E2E2E2E2E2E2E2E2E2E2E2E2E2E2E2E2E2E2E2E2E2E2E2E2E2E2E2E2E2E2E2E2E2E2E2E2E2E2E2E2E2E2E2E2E2E2E2E2E2E2E2E2E2E2E2E2E2E2E2E2E2E2E2E2E2E2E2E2E2E2E2E2E2E2E2E2E2E2E2E2E2E2E2E2E2E2E2E2E2E2E2E2E2E2E2E2E2E2
310
E2E2E2E2E2E2E2E2E2E2E2E2E2E2E2E2E2E2E2E2E2E2E2E2E2E2E2E2E2E2E2E2E2E2E2E2E2E2E2E2E2E2E2E2E2E2E2E2E2E2E2E2E2E2E2E2E2E2E2E2E2E2E2E2E2E2E2E2E2E2E2E2E2E2E2E2E2E2E2E2E2E2E2E2E2E2E2E2E2E2E2E2E2E2E2E2E2E2E2E2E2E2E2E2E2E2E2E2E2E2E2E2E2E2E2E2E2E2E2E2E2E2E2E2E2E2E2
310
E2E2E2E2E2E2E2E2E2E2E2E2E2E2E2E2E2E2E2E2E2E2E2E2E2E2E2E2E2E2E2E2E2E2E2E2E2E2E2E2E2E2E2E2E2E2E2E2E2E2E2E2E2E2E2E2E2E2E2E2E2E2E2E2E2E2E2E2E2E2E2E2E2E2E2E2E2E2E2E2E2E2E2E2E2E2E2E2E2E2E2E2E2E2E2E2E2E2E2E2E2E2E2E2E2E2E2E2E2E2E2E2E2E2E2E2E2E2E2E2E2E2E2E2E2E2E2
310
E2E2E2E2E2E2E2E2E2E2E2E2E2E2E2E2E2E2E2E2E2E2E2E2E2E2E2E2E2E2E2E2E2E2E2E2E2E2E2E2E2E2E2E2E2E2E2E2E2E2E2E2E2E2E2E2E2E2E2E2E2E2E2E2E2E2E2E2E2E2E2E2E2E2E2E2E2E2E2E2E2E2E2E2E2E2E2E2E2E2E2E2E2E2E2E2E2E2E2E2E2E2E2E2E2E2E2E2E2E2E2E2E2E2E2E2E2E2E2E2E2E2E2E2E2E2E2
310
E2E2E2E2E2E2E2E2E2E2E2E2E2E2E2E2E2E2E2E2E2E2E2E2E2E2E2E2E2E2E2E2E2E2E2E2E2E2E2E2E2E2E2E2E2E2E2E2E2E2E2E2E2E2E2E2E2E2E2E2E2E2E2E2E2E2E2E2E2E2E2E2E2E2E2E2E2E2E2E2E2E2E2E2E2E2E2E2E2E2E2E2E2E2E2E2E2E2E2E2E2E2E2E2E2E2E2E2E2E2E2E2E2E2E2E2E2E2E2E2E2E2E2E2E2E2E2
310
E2E2E2E2E2E2E2E2E2E2E2E2E2E2E2E2E2E2E2E2E2E2E2E2E2E2E2E2E2E2E2E2E2E2E2E2E2E2E2E2E2E2E2E2E2E2E2E2E2E2E2E2E2E2E2E2E2E2E2E2E2E2E2E2E2E2E2E2E2E2E2E2E2E2E2E2E2E2E2E2E2E2E2E2E2E2E2E2E2E2E2E2E2E2E2E2E2E2E2E2E2E2E2E2E2E2E2E2E2E2E2E2E2E2E2E2E2E2E2E2E2E2E2E2E2E2E2
310
E2E2E2E2E2E2E2E2E2E2E2E2E2E2E2E2E2E2E2E2E2E2E2E2E2E2E2E2E2E2E2E2E2E2E2E2E2E2E2E2E2E2E2E2E2E2E2E2E2E2E2E2E2E2E2E2E2E2E2E2E2E2E2E2E2E2E2E2E2E2E2E2E2E2E2E2E2E2E2E2E2E2E2E2E2E2E2E2E2E2E2E2E2E2E2E2E2E2E2E2E2E2E2E2E2E2E2E2E2E2E2E2E2E2E2E2E2E2E2E2E2E2E2E2E2E2E2
310
E2E2E2E2E2E2E2E2E2E2E2E2E2E2E2E2E2E2E2E2E2E2E2E2E2E2E2E2E2E2E2E2E2E2E2E2E2E2E2E2E2E2E2E2E2E2E2E2E2E2E2E2E2E2E2E2E2E2E2E2E2E2E2E2E2E2E2E2E2E2E2E2E2E2E2E2E2E2E2E2E2E2E2E2E2E2E2E2E2E2E2E2E2E2E2E2E2E2E2E2E2E2E2E2E2E2E2E2E2E2E2E2E2E2E2E2E2E2E2E2E2E2E2E2E2E2E2
310
E2E2E2E2E2E2E2E2E2E2E2E2E2E2E2E2E2E2E2E2E2E2E2E2E2E2E2E2E2E2E2E2E2E2E2E2E2E2E2E2E2E2E2E2E2E2E2E2E2E2E2E2E2E2E2E2E2E2E2E2E2E2E2E2E2E2E2E2E2E2E2E2E2E2E2E2E2E2E2E2E2E2E2E2E2E2E2E2E2E2E2E2E2E2E2E2E2E2E2E2E2E2E2E2E2E2E2E2E2E2E2E2E2E2E2E2E2E2E2E2E2E2E2E2E2E2E2
310
E2E2E2E2E2E2E2E2E2E2E2E2E2E2E2E2E2E2E2E2E2E2E2E2E2E2E2E2E2E2E2E2E2E2E2E2E2E2E2E2E2E2E2E2E2E2E2E2E2E2E2E2E2E2E2E2E2E2E2E2E2E2E2E2E2E2E2E2E2E2E2E2E2E2E2E2E2E2E2E2E2E2E2E2E2E2E2E2E2E2E2E2E2E2E2E2E2E2E2E2E2E2E2E2E2E2E2E2E2E2E2E2E2E2E2E2E2E2E2E2E2E2E2E2E2E2E2
310
E2E2E2E2E2E2E2E2E2E2E2E2E2E2E2E2E2E2E2E2E2E2E2E2E2E2E2E2E2E2E2E2E2E2E2E2E2E2E2E2E2E2E2E2E2E2E2E2E2E2E2E2E2E2E2E2E2E2E2E2E2E2E2E2E2E2E2E2E2E2E2E2E2E2E2E2E2E2E2E2E2E2E2E2E2E2E2E2E2E2E2E2E2E2E2E2E2E2E2E2E2E2E2E2E2E2E2E2E2E2E2E2E2E2E2E2E2E2E2E2E2E2E2E2E2E2E2
310
E2E2E2E2E2E2E2E2E2E2E2E2E2E2E2E2E2E2E2E2E2E2E2E2E2E2E2E2E2E2E2E2E2E2E2E2E2E2E2E2E2E2E2E2E2E2E2E2E2E2E2E2E2E2E2E2E2E2E2E2E2E2E2E2E2E2E2E2E2E2E2E2E2E2E2E2E2E2E2E2E2E2E2E2E2E2E2E2E2E2E2E2E2E2E2E2E2E2E2E2E2E2E2E2E2E2E2E2E2E2E2E2E2E2E2E2E2E2E2E2E2E2E2E2E2E2E2
310
E2E2E2E2E2E2E2E2E2E2E2E2E2E2E2E2E2E2E2E2E2E2E2E2E2E2E2E2E2E2E2E2E2E2E2E2E2E2E2E2E2E2E2E2E2E2E2E2E2E2E2E2E2E2E2E2E2E2E2E2E2E2E2E2E2E2E2E2E2E2E2E2E2E2E2E2E2E2E2E2E2E2E2E2E2E2E2E2E2E2E2E2E2E2E2E2E2E2E2E2E2E2E2E2E2E2E2E2E2E2E2E2E2E2E2E2E2E2E2E2E2E2E2E2E2E2E2
310
E2E2E2E2E2E2E2E2E2E2E2E2E2E2E2E2E2E2E2E2E2E2E2E2E2E2E2E2E2E2E2E2E2E2E2E2E2E2E2E2E2E2E2E2E2E2E2E2E2E2E2E2E2E2E2E2E2E2E2E2E2E2E2E2E2E2E2E2E2E2E2E2E2E2E2E2E2E2E2E2E2E2E2E2E2E2E2E2E2E2E2E2E2E2E2E2E2E2E2E2E2E2E2E2E2E2E2E2E2E2E2E2E2E2E2E2E2E2E2E2E2E2E2E2E2E2E2
310
E2E2E2E2E2E2E2E2E2E2E2E2E2E2E2E2E2E2E2E2E2E2E2E2E2E2E2E2E2E2E2E2E2E2E2E2E2E2E2E2E2E2E2E2E2E2E2E2E2E2E2E2E2E2E2E2E2E2E2E2E2E2E2E2E2E2E2E2E2E2E2E2E2E2E2E2E2E2E2E2E2E2E2E2E2E2E2E2E2E2E2E2E2E2E2E2E2E2E2E2E2E2E2E2E2E2E2E2E2E2E2E2E2E2E2E2E2E2E2E2E2E2E2E2E2E2E2
310
E2E2E2E2E2E2E2E2E2E2E2E2E2E2E2E2E2E2E2E2E2E2E2E2E2E2E2E2E2E2E2E2E2E2E2E2E2E2E2E2E2E2E2E2E2E2E2E2E2E2E2E2E2E2E2E2E2E2E2E2E2E2E2E2E2E2E2E2E2E2E2E2E2E2E2E2E2E2E2E2E2E2E2E2E2E2E2E2E2E2E2E2E2E2E2E2E2E2E2E2E2E2E2E2E2E2E2E2E2E2E2E2E2E2E2E2E2E2E2E2E2E2E2E2E2E2E2
310
E2E2E2E2E2E2E2E2E2E2E2E2E2E2E2E2E2E2E2E2E2E2E2E2E2E2E2E2E2E2E2E2E2E2E2E2E2E2E2E2E2E2E2E2E2E2E2E2E2E2E2E2E2E2E2E2E2E2E2E2E2E2E2E2E2E2E2E2E2E2E2E2E2E2E2E2E2E2E2E2E2E2E2E2E2E2E2E2E2E2E2E2E2E2E2E2E2E2E2E2E2E2E2E2E2E2E2E2E2E2E2E2E2E2E2E2E2E2E2E2E2E2E2E2E2E2E2
310
E2E2E2E2E2E2E2E2E2E2E2E2E2E2E2E2E2E2E2E2E2E2E2E2E2E2E2E2E2E2E2E2E2E2E2E2E2E2E2E2E2E2E2E2E2E2E2E2E2E2E2E2E2E2E2E2E2E2E2E2E2E2E2E2E2E2E2E2E2E2E2E2E2E2E2E2E2E2E2E2E2E2E2E2E2E2E2E2E2E2E2E2E2E2E2E2E2E2E2E2E2E2E2E2E2E2E2E2E2E2E2E2E2E2E2E2E2E2E2E2E2E2E2E2E2E2E2
310
E2E2E2E2E2E2E2E2E2E2E2E2E2E2E2E2E2E2E2E2E2E2E2E2E2E2E2E2E2E2E2E2E2E2E2E2E2E2E2E2E2E2E2E2E2E2E2E2E2E2E2E2E2E2E2E2E2E2E2E2E2E2E2E2E2E2E2E2E2E2E2E2E2E2E2E2E2E2E2E2E2E2E2E2E2E2E2E2E2E2E2E2E2E2E2E2E2E2E2E2E2E2E2E2E2E2E2E2E2E2E2E2E2E2E2E2E2E2E2E2E2E2E2E2E2E2E2
310
E2E2E2E2E2E2E2E2E2E2E2E2E2E2E2E2E2E2E2E2E2E2E2E2E2E2E2E2E2E2E2E2E2E2E2E2E2E2E2E2E2E2E2E2E2E2E2E2E2E2E2E2E2E2E2E2E2E2E2E2E2E2E2E2E2E2E2E2E2E2E2E2E2E2E2E2E2E2E2E2E2E2E2E2E2E2E2E2E2E2E2E2E2E2E2E2E2E2E2E2E2E2E2E2E2E2E2E2E2E2E2E2E2E2E2E2E2E2E2E2E2E2E2E2E2E2E2
310
E2E2E2E2E2E2E2E2E2E2E2E2E2E2E2E2E2E2E2E2E2E2E2E2E2E2E2E2E2E2E2E2E2E2E2E2E2E2E2E2E2E2E2E2E2E2E2E2E2E2E2E2E2E2E2E2E2E2E2E2E2E2E2E2E2E2E2E2E2E2E2E2E2E2E2E2E2E2E2E2E2E2E2E2E2E2E2E2E2E2E2E2E2E2E2E2E2E2E2E2E2E2E2E2E2E2E2E2E2E2E2E2E2E2E2E2E2E2E2E2E2E2E2E2E2E2E2
310
E2E2E2E2E2E2E2E2E2E2E2E2E2E2E2E2E2E2E2E2E2E2E2E2E2E2E2E2E2E2E2E2E2E2E2E2E2E2E2E2E2E2E2E2E2E2E2E2E2E2E2E2E2E2E2E2E2E2E2E2E2E2E2E2E2E2E2E2E2E2E2E2E2E2E2E2E2E2E2E2E2E2E2E2E2E2E2E2E2E2E2E2E2E2E2E2E2E2E2E2E2E2E2E2E2E2E2E2E2E2E2E2E2E2E2E2E2E2E2E2E2E2E2E2E2E2E2
310
E2E2E2E2E2E2E2E2E2E2E2E2E2E2E2E2E2E2E2E2E2E2E2E2E2E2E2E2E2E2E2E2E2E2E2E2E2E2E2E2E2E2E2E2E2E2E2E2E2E2E2E2E2E2E2E2E2E2E2E2E2E2E2E2E2E2E2E2E2E2E2E2E2E2E2E2E2E2E2E2E2E2E2E2E2E2E2E2E2E2E2E2E2E2E2E2E2E2E2E2E2E2E2E2E2E2E2E2E2E2E2E2E2E2E2E2E2E2E2E2E2E2E2E2E2E2E2
310
E2E2E2E2E2E2E2E2E2E2E2E2E2E2E2E2E2E2E2E2E2E2E2E2E2E2E2E2E2E2E2E2E2E2E2E2E2E2E2E2E2E2E2E2E2E2E2E2E2E2E2E2E2E2E2E2E2E2E2E2E2E2E2E2E2E2E2E2E2E2E2E2E2E2E2E2E2E2E2E2E2E2E2E2E2E2E2E2E2E2E2E2E2E2E2E2E2E2E2E2E2E2E2E2E2E2E2E2E2E2E2E2E2E2E2E2E2E2E2E2E2E2E2E2E2E2E2
310
E2E2E2E2E2E2E2E2E2E2E2E2E2E2E2E2E2E2E2E2E2E2E2E2E2E2E2E2E2E2E2E2E2E2E2E2E2E2E2E2E2E2E2E2E2E2E2E2E2E2E2E2E2E2E2E2E2E2E2E2E2E2E2E2E2E2E2E2E2E2E2E2E2E2E2E2E2E2E2E2E2E2E2E2E2E2E2E2E2E2E2E2E2E2E2E2E2E2E2E2E2E2E2E2E2E2E2E2E2E2E2E2E2E2E2E2E2E2E2E2E2E2E2E2E2E2E2
310
E2E2E2E2E2E2E2E2E2E2E2E2E2E2E2E2E2E2E2E2E2E2E2E2E2E2E2E2E2E2E2E2E2E2E2E2E2E2E2E2E2E2E2E2E2E2E2E2E2E2E2E2E2E2E2E2E2E2E2E2E2E2E2E2E2E2E2E2E2E2E2E2E2E2E2E2E2E2E2E2E2E2E2E2E2E2E2E2E2E2E2E2E2E2E2E2E2E2E2E2E2E2E2E2E2E2E2E2E2E2E2E2E2E2E2E2E2E2E2E2E2E2E2E2E2E2E2
310
E2E2E2E2E2E2E2E2E2E2E2E2E2E2E2E2E2E2E2E2E2E2E2E2E2E2E2E2E2E2E2E2E2E2E2E2E2E2E2E2E2E2E2E2E2E2E2E2E2E2E2E2E2E2E2E2E2E2E2E2E2E2E2E2E2E2E2E2E2E2E2E2E2E2E2E2E2E2E2E2E2E2E2E2E2E2E2E2E2E2E2E2E2E2E2E2E2E2E2E2E2E2E2E2E2E2E2E2E2E2E2E2E2E2E2E2E2E2E2E2E2E2E2E2E2E2E2
310
E2E2E2E2E2E2E2E2E2E2E2E2E2E2E2E2E2E2E2E2E2E2E2E2E2E2E2E2E2E2E2E2E2E2E2E2E2E2E2E2E2E2E2E2E2E2E2E2E2E2E2E2E2E2E2E2E2E2E2E2E2E2E2E2E2E2E2E2E2E2E2E2E2E2E2E2E2E2E2E2E2E2E2E2E2E2E2E2E2E2E2E2E2E2E2E2E2E2E2E2E2E2E2E2E2E2E2E2E2E2E2E2E2E2E2E2E2E2E2E2E2E2E2E2E2E2E2
310
E2E2E2E2E2E2E2E2E2E2E2E2E2E2E2E2E2E2E2E2E2E2E2E2E2E2E2E2E2E2E2E2E2E2E2E2E2E2E2E2E2E2E2E2E2E2E2E2E2E2E2E2E2E2E2E2E2E2E2E2E2E2E2E2E2E2E2E2E2E2E2E2E2E2E2E2E2E2E2E2E2E2E2E2E2E2E2E2E2E2E2E2E2E2E2E2E2E2E2E2E2E2E2E2E2E2E2E2E2E2E2E2E2E2E2E2E2E2E2E2E2E2E2E2E2E2E2
310
E2E2E2E2E2E2E2E2E2E2E2E2E2E2E2E2E2E2E2E2E2E2E2E2E2E2E2E2E2E2E2E2E2E2E2E2E2E2E2E2E2E2E2E2E2E2E2E2E2E2E2E2E2E2E2E2E2E2E2E2E2E2E2E2E2E2E2E2E2E2E2E2E2E2E2E2E2E2E2E2E2E2E2E2E2E2E2E2E2E2E2E2E2E2E2E2E2E2E2E2E2E2E2E2E2E2E2E2E2E2E2E2E2E2E2E2E2E2E2E2E2E2E2E2E2E2E2
310
E2E2E2E2E2E2E2E2E2E2E2E2E2E2E2E2E2E2E2E2E2E2E2E2E2E2E2E2E2E2E2E2E2E2E2E2E2E2E2E2E2E2E2E2E2E2E2E2E2E2E2E2E2E2E2E2E2E2E2E2E2E2E2E2E2E2E2E2E2E2E2E2E2E2E2E2E2E2E2E2E2E2E2E2E2E2E2E2E2E2E2E2E2E2E2E2E2E2E2E2E2E2E2E2E2E2E2E2E2E2E2E2E2E2E2E2E2E2E2E2E2E2E2E2E2E2E2
310
E2E2E2E2E2E2E2E2E2E2E2E2E2E2E2E2E2E2E2E2E2E2E2E2E2E2E2E2E2E2E2E2E2E2E2E2E2E2E2E2E2E2E2E2E2E2E2E2E2E2E2E2E2E2E2E2E2E2E2E2E2E2E2E2E2E2E2E2E2E2E2E2E2E2E2E2E2E2E2E2E2E2E2E2E2E2E2E2E2E2E2E2E2E2E2E2E2E2E2E2E2E2E2E2E2E2E2E2E2E2E2E2E2E2E2E2E2E2E2E2E2E2E2E2E2E2E2
310
E2E2E2E2E2E2E2E2E2E2E2E2E2E2E2E2E2E2E2E2E2E2E2E2E2E2E2E2E2E2E2E2E2E2E2E2E2E2E2E2E2E2E2E2E2E2E2E2E2E2E2E2E2E2E2E2E2E2E2E2E2E2E2E2E2E2E2E2E2E2E2E2E2E2E2E2E2E2E2E2E2E2E2E2E2E2E2E2E2E2E2E2E2E2E2E2E2E2E2E2E2E2E2E2E2E2E2E2E2E2E2E2E2E2E2E2E2E2E2E2E2E2E2E2E2E2E2
310
E2E2E2E2E2E2E2E2E2E2E2E2E2E2E2E2E2E2E2E2E2E2E2E2E2E2E2E2E2E2E2E2E2E2E2E2E2E2E2E2E2E2E2E2E2E2E2E2E2E2E2E2E2E2E2E2E2E2E2E2E2E2E2E2E2E2E2E2E2E2E2E2E2E2E2E2E2E2E2E2E2E2E2E2E2E2E2E2E2E2E2E2E2E2E2E2E2E2E2E2E2E2E2E2E2E2E2E2E2E2E2E2E2E2E2E2E2E2E2E2E2E2E2E2E2E2E2
310
E2E2E2E2E2E2E2E2E2E2E2E2E2E2E2E2E2E2E2E2E2E2E2E2E2E2E2E2E2E2E2E2E2E2E2E2E2E2E2E2E2E2E2E2E2E2E2E2E2E2E2E2E2E2E2E2E2E2E2E2E2E2E2E2E2E2E2E2E2E2E2E2E2E2E2E2E2E2E2E2E2E2E2E2E2E2E2E2E2E2E2E2E2E2E2E2E2E2E2E2E2E2E2E2E2E2E2E2E2E2E2E2E2E2E2E2E2E2E2E2E2E2E2E2E2E2E2
310
E2E2E2E2E2E2E2E2E2E2E2E2E2E2E2E2E2E2E2E2E2E2E2E2E2E2E2E2E2E2E2E2E2E2E2E2E2E2E2E2E2E2E2E2E2E2E2E2E2E2E2E2E2E2E2E2E2E2E2E2E2E2E2E2E2E2E2E2E2E2E2E2E2E2E2E2E2E2E2E2E2E2E2E2E2E2E2E2E2E2E2E2E2E2E2E2E2E2E2E2E2E2E2E2E2E2E2E2E2E2E2E2E2E2E2E2E2E2E2E2E2E2E2E2E2E2E2
310
E2E2E2E2E2E2E2E2E2E2E2E2E2E2E2E2E2E2E2E2E2E2E2E2E2E2E2E2E2E2E2E2E2E2E2E2E2E2E2E2E2E2E2E2E2E2E2E2E2E2E2E2E2E2E2E2E2E2E2E2E2E2E2E2E2E2E2E2E2E2E2E2E2E2E2E2E2E2E2E2E2E2E2E2E2E2E2E2E2E2E2E2E2E2E2E2E2E2E2E2E2E2E2E2E2E2E2E2E2E2E2E2E2E2E2E2E2E2E2E2E2E2E2E2E2E2E2
310
E2E2E2E2E2E2E2E2E2E2E2E2E2E2E2E2E2E2E2E2E2E2E2E2E2E2E2E2E2E2E2E2E2E2E2E2E2E2E2E2E2E2E2E2E2E2E2E2E2E2E2E2E2E2E2E2E2E2E2E2E2E2E2E2E2E2E2E2E2E2E2E2E2E2E2E2E2E2E2E2E2E2E2E2E2E2E2E2E2E2E2E2E2E2E2E2E2E2E2E2E2E2E2E2E2E2E2E2E2E2E2E2E2E2E2E2E2E2E2E2E2E2E2E2E2E2E2
310
E2E2E2E2E2E2E2E2E2E2E2E2E2E2E2E2E2E2E2E2E2E2E2E2E2E2E2E2E2E2E2E2E2E2E2E2E2E2E2E2E2E2E2E2E2E2E2E2E2E2E2E2E2E2E2E2E2E2E2E2E2E2E2E2E2E2E2E2E2E2E2E2E2E2E2E2E2E2E2E2E2E2E2E2E2E2E2E2E2E2E2E2E2E2E2E2E2E2E2E2E2E2E2E2E2E2E2E2E2E2E2E2E2E2E2E2E2E2E2E2E2E2E2E2E2E2E2
310
E2E2E2E2E2E2E2E2E2E2E2E2E2E2E2E2E2E2E2E2E2E2E2E2E2E2E2E2E2E2E2E2E2E2E2E2E2E2E2E2E2E2E2E2E2E2E2E2E2E2E2E2E2E2E2E2E2E2E2E2E2E2E2E2E2E2E2E2E2E2E2E2E2E2E2E2E2E2E2E2E2E2E2E2E2E2E2E2E2E2E2E2E2E2E2E2E2E2E2E2E2E2E2E2E2E2E2E2E2E2E2E2E2E2E2E2E2E2E2E2E2E2E2E2E2E2E2
310
E2E2E2E2E2E2E2E2E2E2E2E2E2E2E2E2E2E2E2E2E2E2E2E2E2E2E2E2E2E2E2E2E2E2E2E2E2E2E2E2E2E2E2E2E2E2E2E2E2E2E2E2E2E2E2E2E2E2E2E2E2E2E2E2E2E2E2E2E2E2E2E2E2E2E2E2E2E2E2E2E2E2E2E2E2E2E2E2E2E2E2E2E2E2E2E2E2E2E2E2E2E2E2E2E2E2E2E2E2E2E2E2E2E2E2E2E2E2E2E2E2E2E2E2E2E2E2
310
E2E2E2E2E2E2E2E2E2E2E2E2E2E2E2E2E2E2E2E2E2E2E2E2E2E2E2E2E2E2E2E2E2E2E2E2E2E2E2E2E2E2E2E2E2E2E2E2E2E2E2E2E2E2E2E2E2E2E2E2E2E2E2E2E2E2E2E2E2E2E2E2E2E2E2E2E2E2E2E2E2E2E2E2E2E2E2E2E2E2E2E2E2E2E2E2E2E2E2E2E2E2E2E2E2E2E2E2E2E2E2E2E2E2E2E2E2E2E2E2E2E2E2E2E2E2E2
310
E2E2E2E2E2E2E2E2E2E2E2E2E2E2E2E2E2E2E2E2E2E2E2E2E2E2E2E2E2E2E2E2E2E2E2E2E2E2E2E2E2E2E2E2E2E2E2E2E2E2E2E2E2E2E2E2E2E2E2E2E2E2E2E2E2E2E2E2E2E2E2E2E2E2E2E2E2E2E2E2E2E2E2E2E2E2E2E2E2E2E2E2E2E2E2E2E2E2E2E2E2E2E2E2E2E2E2E2E2E2E2E2E2E2E2E2E2E2E2E2E2E2E2E2E2E2E2
310
E2E2E2E2E2E2E2E2E2E2E2E2E2E2E2E2E2E2E2E2E2E2E2E2E2E2E2E2E2E2E2E2E2E2E2E2E2E2E2E2E2E2E2E2E2E2E2E2E2E2E2E2E2E2E2E2E2E2E2E2E2E2E2E2E2E2E2E2E2E2E2E2E2E2E2E2E2E2E2E2E2E2E2E2E2E2E2E2E2E2E2E2E2E2E2E2E2E2E2E2E2E2E2E2E2E2E2E2E2E2E2E2E2E2E2E2E2E2E2E2E2E2E2E2E2E2E2
310
E2E2E2E2E2E2E2E2E2E2E2E2E2E2E2E2E2E2E2E2E2E2E2E2E2E2E2E2E2E2E2E2E2E2E2E2E2E2E2E2E2E2E2E2E2E2E2E2E2E2E2E2E2E2E2E2E2E2E2E2E2E2E2E2E2E2E2E2E2E2E2E2E2E2E2E2E2E2E2E2E2E2E2E2E2E2E2E2E2E2E2E2E2E2E2E2E2E2E2E2E2E2E2E2E2E2E2E2E2E2E2E2E2E2E2E2E2E2E2E2E2E2E2E2E2E2E2
310
E2E2E2E2E2E2E2E2E2E2E2E2E2E2E2E2E2E2E2E2E2E2E2E2E2E2E2E2E2E2E2E2E2E2E2E2E2E2E2E2E2E2E2E2E2E2E2E2E2E2E2E2E2E2E2E2E2E2E2E2E2E2E2E2E2E2E2E2E2E2E2E2E2E2E2E2E2E2E2E2E2E2E2E2E2E2E2E2E2E2E2E2E2E2E2E2E2E2E2E2E2E2E2E2E2E2E2E2E2E2E2E2E2E2E2E2E2E2E2E2E2E2E2E2E2E2E2
310
E2E2E2E2E2E2E2E2E2E2E2E2E2E2E2E2E2E2E2E2E2E2E2E2E2E2E2E2E2E2E2E2E2E2E2E2E2E2E2E2E2E2E2E2E2E2E2E2E2E2E2E2E2E2E2E2E2E2E2E2E2E2E2E2E2E2E2E2E2E2E2E2E2E2E2E2E2E2E2E2E2E2E2E2E2E2E2E2E2E2E2E2E2E2E2E2E2E2E2E2E2E2E2E2E2E2E2E2E2E2E2E2E2E2E2E2E2E2E2E2E2E2E2E2E2E2E2
310
E2E2E2E2E2E2E2E2E2E2E2E2E2E2E2E2E2E2E2E2E2E2E2E2E2E2E2E2E2E2E2E2E2E2E2E2E2E2E2E2E2E2E2E2E2E2E2E2E2E2E2E2E2E2E2E2E2E2E2E2E2E2E2E2E2E2E2E2E2E2E2E2E2E2E2E2E2E2E2E2E2E2E2E2E2E2E2E2E2E2E2E2E2E2E2E2E2E2E2E2E2E2E2E2E2E2E2E2E2E2E2E2E2E2E2E2E2E2E2E2E2E2E2E2E2E2E2
310
E2E2E2E2E2E2E2E2E2E2E2E2E2E2E2E2E2E2E2E2E2E2E2E2E2E2E2E2E2E2E2E2E2E2E2E2E2E2E2E2E2E2E2E2E2E2E2E2E2E2E2E2E2E2E2E2E2E2E2E2E2E2E2E2E2E2E2E2E2E2E2E2E2E2E2E2E2E2E2E2E2E2E2E2E2E2E2E2E2E2E2E2E2E2E2E2E2E2E2E2E2E2E2E2E2E2E2E2E2E2E2E2E2E2E2E2E2E2E2E2E2E2E2E2E2E2E2
310
E2E2E2E2E2E2E2E2E2E2E2E2E2E2E2E2E2E2E2E2E2E2E2E2E2E2E2E2E2E2E2E2E2E2E2E2E2E2E2E2E2E2E2E2E2E2E2E2E2E2E2E2E2E2E2E2E2E2E2E2E2E2E2E2E2E2E2E2E2E2E2E2E2E2E2E2E2E2E2E2E2E2E2E2E2E2E2E2E2E2E2E2E2E2E2E2E2E2E2E2E2E2E2E2E2E2E2E2E2E2E2E2E2E2E2E2E2E2E2E2E2E2E2E2E2E2E2
310
E2E2E2E2E2E2E2E2E2E2E2E2E2E2E2E2E2E2E2E2E2E2E2E2E2E2E2E2E2E2E2E2E2E2E2E2E2E2E2E2E2E2E2E2E2E2E2E2E2E2E2E2E2E2E2E2E2E2E2E2E2E2E2E2E2E2E2E2E2E2E2E2E2E2E2E2E2E2E2E2E2E2E2E2E2E2E2E2E2E2E2E2E2E2E2E2E2E2E2E2E2E2E2E2E2E2E2E2E2E2E2E2E2E2E2E2E2E2E2E2E2E2E2E2E2E2E2
310
E2E2E2E2E2E2E2E2E2E2E2E2E2E2E2E2E2E2E2E2E2E2E2E2E2E2E2E2E2E2E2E2E2E2E2E2E2E2E2E2E2E2E2E2E2E2E2E2E2E2E2E2E2E2E2E2E2E2E2E2E2E2E2E2E2E2E2E2E2E2E2E2E2E2E2E2E2E2E2E2E2E2E2E2E2E2E2E2E2E2E2E2E2E2E2E2E2E2E2E2E2E2E2E2E2E2E2E2E2E2E2E2E2E2E2E2E2E2E2E2E2E2E2E2E2E2E2
310
E2E2E2E2E2E2E2E2E2E2E2E2E2E2E2E2E2E2E2E2E2E2E2E2E2E2E2E2E2E2E2E2E2E2E2E2E2E2E2E2E2E2E2E2E2E2E2E2E2E2E2E2E2E2E2E2E2E2E2E2E2E2E2E2E2E2E2E2E2E2E2E2E2E2E2E2E2E2E2E2E2E2E2E2E2E2E2E2E2E2E2E2E2E2E2E2E2E2E2E2E2E2E2E2E2E2E2E2E2E2E2E2E2E2E2E2E2E2E2E2E2E2E2E2E2E2E2
310
E2E2E2E2E2E2E2E2E2E2E2E2E2E2E2E2E2E2E2E2E2E2E2E2E2E2E2E2E2E2E2E2E2E2E2E2E2E2E2E2E2E2E2E2E2E2E2E2E2E2E2E2E2E2E2E2E2E2E2E2E2E2E2E2E2E2E2E2E2E2E2E2E2E2E2E2E2E2E2E2E2E2E2E2E2E2E2E2E2E2E2E2E2E2E2E2E2E2E2E2E2E2E2E2E2E2E2E2E2E2E2E2E2E2E2E2E2E2E2E2E2E2E2E2E2E2E2
310
E2E2E2E2E2E2E2E2E2E2E2E2E2E2E2E2E2E2E2E2E2E2E2E2E2E2E2E2E2E2E2E2E2E2E2E2E2E2E2E2E2E2E2E2E2E2E2E2E2E2E2E2E2E2E2E2E2E2E2E2E2E2E2E2E2E2E2E2E2E2E2E2E2E2E2E2E2E2E2E2E2E2E2E2E2E2E2E2E2E2E2E2E2E2E2E2E2E2E2E2E2E2E2E2E2E2E2E2E2E2E2E2E2E2E2E2E2E2E2E2E2E2E2E2E2E2E2
310
E2E2E2E2E2E2E2E2E2E2E2E2E2E2E2E2E2E2E2E2E2E2E2E2E2E2E2E2E2E2E2E2E2E2E2E2E2E2E2E2E2E2E2E2E2E2E2E2E2E2E2E2E2E2E2E2E2E2E2E2E2E2E2E2E2E2E2E2E2E2E2E2E2E2E2E2E2E2E2E2E2E2E2E2E2E2E2E2E2E2E2E2E2E2E2E2E2E2E2E2E2E2E2E2E2E2E2E2E2E2E2E2E2E2E2E2E2E2E2E2E2E2E2E2E2E2E2
310
E2E2E2E2E2E2E2E2E2E2E2E2E2E2E2E2E2E2E2E2E2E2E2E2E2E2E2E2E2E2E2E2E2E2E2E2E2E2E2E2E2E2E2E2E2E2E2E2E2E2E2E2E2E2E2E2E2E2E2E2E2E2E2E2E2E2E2E2E2E2E2E2E2E2E2E2E2E2E2E2E2E2E2E2E2E2E2E2E2E2E2E2E2E2E2E2E2E2E2E2E2E2E2E2E2E2E2E2E2E2E2E2E2E2E2E2E2E2E2E2E2E2E2E2E2E2E2
310
E2E2E2E2E2E2E2E2E2E2E2E2E2E2E2E2E2E2E2E2E2E2E2E2E2E2E2E2E2E2E2E2E2E2E2E2E2E2E2E2E2E2E2E2E2E2E2E2E2E2E2E2E2E2E2E2E2E2E2E2E2E2E2E2E2E2E2E2E2E2E2E2E2E2E2E2E2E2E2E2E2E2E2E2E2E2E2E2E2E2E2E2E2E2E2E2E2E2E2E2E2E2E2E2E2E2E2E2E2E2E2E2E2E2E2E2E2E2E2E2E2E2E2E2E2E2E2
310
E2E2E2E2E2E2E2E2E2E2E2E2E2E2E2E2E2E2E2E2E2E2E2E2E2E2E2E2E2E2E2E2E2E2E2E2E2E2E2E2E2E2E2E2E2E2E2E2E2E2E2E2E2E2E2E2E2E2E2E2E2E2E2E2E2E2E2E2E2E2E2E2E2E2E2E2E2E2E2E2E2E2E2E2E2E2E2E2E2E2E2E2E2E2E2E2E2E2E2E2E2E2E2E2E2E2E2E2E2E2E2E2E2E2E2E2E2E2E2E2E2E2E2E2E2E2E2
310
E2E2E2E2E2E2E2E2E2E2E2E2E2E2E2E2E2E2E2E2E2E2E2E2E2E2E2E2E2E2E2E2E2E2E2E2E2E2E2E2E2E2E2E2E2E2E2E2E2E2E2E2E2E2E2E2E2E2E2E2E2E2E2E2E2E2E2E2E2E2E2E2E2E2E2E2E2E2E2E2E2E2E2E2E2E2E2E2E2E2E2E2E2E2E2E2E2E2E2E2E2E2E2E2E2E2E2E2E2E2E2E2E2E2E2E2E2E2E2E2E2E2E2E2E2E2E2
310
E2E2E2E2E2E2E2E2E2E2E2E2E2E2E2E2E2E2E2E2E2E2E2E2E2E2E2E2E2E2E2E2E2E2E2E2E2E2E2E2E2E2E2E2E2E2E2E2E2E2E2E2E2E2E2E2E2E2E2E2E2E2E2E2E2E2E2E2E2E2E2E2E2E2E2E2E2E2E2E2E2E2E2E2E2E2E2E2E2E2E2E2E2E2E2E2E2E2E2E2E2E2E2E2E2E2E2E2E2E2E2E2E2E2E2E2E2E2E2E2E2E2E2E2E2E2E2
310
E2E2E2E2E2E2E2E2E2E2E2E2E2E2E2E2E2E2E2E2E2E2E2E2E2E2E2E2E2E2E2E2E2E2E2E2E2E2E2E2E2E2E2E2E2E2E2E2E2E2E2E2E2E2E2E2E2E2E2E2E2E2E2E2E2E2E2E2E2E2E2E2E2E2E2E2E2E2E2E2E2E2E2E2E2E2E2E2E2E2E2E2E2E2E2E2E2E2E2E2E2E2E2E2E2E2E2E2E2E2E2E2E2E2E2E2E2E2E2E2E2E2E2E2E2E2E2
310
E2E2E2E2E2E2E2E2E2E2E2E2E2E2E2E2E2E2E2E2E2E2E2E2E2E2E2E2E2E2E2E2E2E2E2E2E2E2E2E2E2E2E2E2E2E2E2E2E2E2E2E2E2E2E2E2E2E2E2E2E2E2E2E2E2E2E2E2E2E2E2E2E2E2E2E2E2E2E2E2E2E2E2E2E2E2E2E2E2E2E2E2E2E2E2E2E2E2E2E2E2E2E2E2E2E2E2E2E2E2E2E2E2E2E2E2E2E2E2E2E2E2E2E2E2E2E2
310
E2E2E2E2E2E2E2E2E2E2E2E2E2E2E2E2E2E2E2E2E2E2E2E2E2E2E2E2E2E2E2E2E2E2E2E2E2E2E2E2E2E2E2E2E2E2E2E2E2E2E2E2E2E2E2E2E2E2E2E2E2E2E2E2E2E2E2E2E2E2E2E2E2E2E2E2E2E2E2E2E2E2E2E2E2E2E2E2E2E2E2E2E2E2E2E2E2E2E2E2E2E2E2E2E2E2E2E2E2E2E2E2E2E2E2E2E2E2E2E2E2E2E2E2E2E2E2
310
E2E2E2E2E2E2E2E2E2E2E2E2E2E2E2E2E2E2E2E2E2E2E2E2E2E2E2E2E2E2E2E2E2E2E2E2E2E2E2E2E2E2E2E2E2E2E2E2E2E2E2E2E2E2E2E2E2E2E2E2E2E2E2E2E2E2E2E2E2E2E2E2E2E2E2E2E2E2E2E2E2E2E2E2E2E2E2E2E2E2E2E2E2E2E2E2E2E2E2E2E2E2E2E2E2E2E2E2E2E2E2E2E2E2E2E2E2E2E2E2E2E2E2E2E2E2E2
310
E2E2E2E2E2E2E2E2E2E2E2E2E2E2E2E2E2E2E2E2E2E2E2E2E2E2E2E2E2E2E2E2E2E2E2E2E2E2E2E2E2E2E2E2E2E2E2E2E2E2E2E2E2E2E2E2E2E2E2E2E2E2E2E2E2E2E2E2E2E2E2E2E2E2E2E2E2E2E2E2E2E2E2E2E2E2E2E2E2E2E2E2E2E2E2E2E2E2E2E2E2E2E2E2E2E2E2E2E2E2E2E2E2E2E2E2E2E2E2E2E2E2E2E2E2E2E2
310
E2E2E2E2E2E2E2E2E2E2E2E2E2E2E2E2E2E2E2E2E2E2E2E2E2E2E2E2E2E2E2E2E2E2E2E2E2E2E2E2E2E2E2E2E2E2E2E2E2E2E2E2E2E2E2E2E2E2E2E2E2E2E2E2E2E2E2E2E2E2E2E2E2E2E2E2E2E2E2E2E2E2E2E2E2E2E2E2E2E2E2E2E2E2E2E2E2E2E2E2E2E2E2E2E2E2E2E2E2E2E2E2E2E2E2E2E2E2E2E2E2E2E2E2E2E2E2
310
E2E2E2E2E2E2E2E2E2E2E2E2E2E2E2E2E2E2E2E2E2E2E2E2E2E2E2E2E2E2E2E2E2E2E2E2E2E2E2E2E2E2E2E2E2E2E2E2E2E2E2E2E2E2E2E2E2E2E2E2E2E2E2E2E2E2E2E2E2E2E2E2E2E2E2E2E2E2E2E2E2E2E2E2E2E2E2E2E2E2E2E2E2E2E2E2E2E2E2E2E2E2E2E2E2E2E2E2E2E2E2E2E2E2E2E2E2E2E2E2E2E2E2E2E2E2E2
310
E2E2E2E2E2E2E2E2E2E2E2E2E2E2E2E2E2E2E2E2E2E2E2E2E2E2E2E2E2E2E2E2E2E2E2E2E2E2E2E2E2E2E2E2E2E2E2E2E2E2E2E2E2E2E2E2E2E2E2E2E2E2E2E2E2E2E2E2E2E2E2E2E2E2E2E2E2E2E2E2E2E2E2E2E2E2E2E2E2E2E2E2E2E2E2E2E2E2E2E2E2E2E2E2E2E2E2E2E2E2E2E2E2E2E2E2E2E2E2E2E2E2E2E2E2E2E2
310
E2E2E2E2E2E2E2E2E2E2E2E2E2E2E2E2E2E2E2E2E2E2E2E2E2E2E2E2E2E2E2E2E2E2E2E2E2E2E2E2E2E2E2E2E2E2E2E2E2E2E2E2E2E2E2E2E2E2E2E2E2E2E2E2E2E2E2E2E2E2E2E2E2E2E2E2E2E2E2E2E2E2E2E2E2E2E2E2E2E2E2E2E2E2E2E2E2E2E2E2E2E2E2E2E2E2E2E2E2E2E2E2E2E2E2E2E2E2E2E2E2E2E2E2E2E2E2
310
E2E2E2E2E2E2E2E2E2E2E2E2E2E2E2E2E2E2E2E2E2E2E2E2E2E2E2E2E2E2E2E2E2E2E2E2E2E2E2E2E2E2E2E2E2E2E2E2E2E2E2E2E2E2E2E2E2E2E2E2E2E2E2E2E2E2E2E2E2E2E2E2E2E2E2E2E2E2E2E2E2E2E2E2E2E2E2E2E2E2E2E2E2E2E2E2E2E2E2E2E2E2E2E2E2E2E2E2E2E2E2E2E2E2E2E2E2E2E2E2E2E2E2E2E2E2E2
310
E2E2E2E2E2E2E2E2E2E2E2E2E2E2E2E2E2E2E2E2E2E2E2E2E2E2E2E2E2E2E2E2E2E2E2E2E2E2E2E2E2E2E2E2E2E2E2E2E2E2E2E2E2E2E2E2E2E2E2E2E2E2E2E2E2E2E2E2E2E2E2E2E2E2E2E2E2E2E2E2E2E2E2E2E2E2E2E2E2E2E2E2E2E2E2E2E2E2E2E2E2E2E2E2E2E2E2E2E2E2E2E2E2E2E2E2E2E2E2E2E2E2E2E2E2E2E2
310
E2E2E2E2E2E2E2E2E2E2E2E2E2E2E2E2E2E2E2E2E2E2E2E2E2E2E2E2E2E2E2E2E2E2E2E2E2E2E2E2E2E2E2E2E2E2E2E2E2E2E2E2E2E2E2E2E2E2E2E2E2E2E2E2E2E2E2E2E2E2E2E2E2E2E2E2E2E2E2E2E2E2E2E2E2E2E2E2E2E2E2E2E2E2E2E2E2E2E2E2E2E2E2E2E2E2E2E2E2E2E2E2E2E2E2E2E2E2E2E2E2E2E2E2E2E2E2
310
E2E2E2E2E2E2E2E2E2E2E2E2E2E2E2E2E2E2E2E2E2E2E2E2E2E2E2E2E2E2E2E2E2E2E2E2E2E2E2E2E2E2E2E2E2E2E2E2E2E2E2E2E2E2E2E2E2E2E2E2E2E2E2E2E2E2E2E2E2E2E2E2E2E2E2E2E2E2E2E2E2E2E2E2E2E2E2E2E2E2E2E2E2E2E2E2E2E2E2E2E2E2E2E2E2E2E2E2E2E2E2E2E2E2E2E2E2E2E2E2E2E2E2E2E2E2E2
310
E2E2E2E2E2E2E2E2E2E2E2E2E2E2E2E2E2E2E2E2E2E2E2E2E2E2E2E2E2E2E2E2E2E2E2E2E2E2E2E2E2E2E2E2E2E2E2E2E2E2E2E2E2E2E2E2E2E2E2E2E2E2E2E2E2E2E2E2E2E2E2E2E2E2E2E2E2E2E2E2E2E2E2E2E2E2E2E2E2E2E2E2E2E2E2E2E2E2E2E2E2E2E2E2E2E2E2E2E2E2E2E2E2E2E2E2E2E2E2E2E2E2E2E2E2E2E2
310
E2E2E2E2E2E2E2E2E2E2E2E2E2E2E2E2E2E2E2E2E2E2E2E2E2E2E2E2E2E2E2E2E2E2E2E2E2E2E2E2E2E2E2E2E2E2E2E2E2E2E2E2E2E2E2E2E2E2E2E2E2E2E2E2E2E2E2E2E2E2E2E2E2E2E2E2E2E2E2E2E2E2E2E2E2E2E2E2E2E2E2E2E2E2E2E2E2E2E2E2E2E2E2E2E2E2E2E2E2E2E2E2E2E2E2E2E2E2E2E2E2E2E2E2E2E2E2
310
E2E2E2E2E2E2E2E2E2E2E2E2E2E2E2E2E2E2E2E2E2E2E2E2E2E2E2E2E2E2E2E2E2E2E2E2E2E2E2E2E2E2E2E2E2E2E2E2E2E2E2E2E2E2E2E2E2E2E2E2E2E2E2E2E2E2E2E2E2E2E2E2E2E2E2E2E2E2E2E2E2E2E2E2E2E2E2E2E2E2E2E2E2E2E2E2E2E2E2E2E2E2E2E2E2E2E2E2E2E2E2E2E2E2E2E2E2E2E2E2E2E2E2E2E2E2E2
310
E2E2E2E2E2E2E2E2E2E2E2E2E2E2E2E2E2E2E2E2E2E2E2E2E2E2E2E2E2E2E2E2E2E2E2E2E2E2E2E2E2E2E2E2E2E2E2E2E2E2E2E2E2E2E2E2E2E2E2E2E2E2E2E2E2E2E2E2E2E2E2E2E2E2E2E2E2E2E2E2E2E2E2E2E2E2E2E2E2E2E2E2E2E2E2E2E2E2E2E2E2E2E2E2E2E2E2E2E2E2E2E2E2E2E2E2E2E2E2E2E2E2E2E2E2E2E2
310
E2E2E2E2E2E2E2E2E2E2E2E2E2E2E2E2E2E2E2E2E2E2E2E2E2E2E2E2E2E2E2E2E2E2E2E2E2E2E2E2E2E2E2E2E2E2E2E2E2E2E2E2E2E2E2E2E2E2E2E2E2E2E2E2E2E2E2E2E2E2E2E2E2E2E2E2E2E2E2E2E2E2E2E2E2E2E2E2E2E2E2E2E2E2E2E2E2E2E2E2E2E2E2E2E2E2E2E2E2E2E2E2E2E2E2E2E2E2E2E2E2E2E2E2E2E2E2
310
E2E2E2E2E2E2E2E2E2E2E2E2E2E2E2E2E2E2E2E2E2E2E2E2E2E2E2E2E2E2E2E2E2E2E2E2E2E2E2E2E2E2E2E2E2E2E2E2E2E2E2E2E2E2E2E2E2E2E2E2E2E2E2E2E2E2E2E2E2E2E2E2E2E2E2E2E2E2E2E2E2E2E2E2E2E2E2E2E2E2E2E2E2E2E2E2E2E2E2E2E2E2E2E2E2E2E2E2E2E2E2E2E2E2E2E2E2E2E2E2E2E2E2E2E2E2E2
310
E2E2E2E2E2E2E2E2E2E2E2E2E2E2E2E2E2E2E2E2E2E2E2E2E2E2E2E2E2E2E2E2E2E2E2E2E2E2E2E2E2E2E2E2E2E2E2E2E2E2E2E2E2E2E2E2E2E2E2E2E2E2E2E2E2E2E2E2E2E2E2E2E2E2E2E2E2E2E2E2E2E2E2E2E2E2E2E2E2E2E2E2E2E2E2E2E2E2E2E2E2E2E2E2E2E2E2E2E2E2E2E2E2E2E2E2E2E2E2E2E2E2E2E2E2E2E2
310
E2E2E2E2E2E2E2E2E2E2E2E2E2E2E2E2E2E2E2E2E2E2E2E2E2E2E2E2E2E2E2E2E2E2E2E2E2E2E2E2E2E2E2E2E2E2E2E2E2E2E2E2E2E2E2E2E2E2E2E2E2E2E2E2E2E2E2E2E2E2E2E2E2E2E2E2E2E2E2E2E2E2E2E2E2E2E2E2E2E2E2E2E2E2E2E2E2E2E2E2E2E2E2E2E2E2E2E2E2E2E2E2E2E2E2E2E2E2E2E2E2E2E2E2E2E2E2
310
E2E2E2E2E2E2E2E2E2E2E2E2E2E2E2E2E2E2E2E2E2E2E2E2E2E2E2E2E2E2E2E2E2E2E2E2E2E2E2E2E2E2E2E2E2E2E2E2E2E2E2E2E2E2E2E2E2E2E2E2E2E2E2E2E2E2E2E2E2E2E2E2E2E2E2E2E2E2E2E2E2E2E2E2E2E2E2E2E2E2E2E2E2E2E2E2E2E2E2E2E2E2E2E2E2E2E2E2E2E2E2E2E2E2E2E2E2E2E2E2E2E2E2E2E2E2E2
310
E2E2E2E2E2E2E2E2E2E2E2E2E2E2E2E2E2E2E2E2E2E2E2E2E2E2E2E2E2E2E2E2E2E2E2E2E2E2E2E2E2E2E2E2E2E2E2E2E2E2E2E2E2E2E2E2E2E2E2E2E2E2E2E2E2E2E2E2E2E2E2E2E2E2E2E2E2E2E2E2E2E2E2E2E2E2E2E2E2E2E2E2E2E2E2E2E2E2E2E2E2E2E2E2E2E2E2E2E2E2E2E2E2E2E2E2E2E2E2E2E2E2E2E2E2E2E2
310
E2E2E2E2E2E2E2E2E2E2E2E2E2E2E2E2E2E2E2E2E2E2E2E2E2E2E2E2E2E2E2E2E2E2E2E2E2E2E2E2E2E2E2E2E2E2E2E2E2E2E2E2E2E2E2E2E2E2E2E2E2E2E2E2E2E2E2E2E2E2E2E2E2E2E2E2E2E2E2E2E2E2E2E2E2E2E2E2E2E2E2E2E2E2E2E2E2E2E2E2E2E2E2E2E2E2E2E2E2E2E2E2E2E2E2E2E2E2E2E2E2E2E2E2E2E2E2
310
E2E2E2E2E2E2E2E2E2E2E2E2E2E2E2E2E2E2E2E2E2E2E2E2E2E2E2E2E2E2E2E2E2E2E2E2E2E2E2E2E2E2E2E2E2E2E2E2E2E2E2E2E2E2E2E2E2E2E2E2E2E2E2E2E2E2E2E2E2E2E2E2E2E2E2E2E2E2E2E2E2E2E2E2E2E2E2E2E2E2E2E2E2E2E2E2E2E2E2E2E2E2E2E2E2E2E2E2E2E2E2E2E2E2E2E2E2E2E2E2E2E2E2E2E2E2E2
310
E2E2E2E2E2E2E2E2E2E2E2E2E2E2E2E2E2E2E2E2E2E2E2E2E2E2E2E2E2E2E2E2E2E2E2E2E2E2E2E2E2E2E2E2E2E2E2E2E2E2E2E2E2E2E2E2E2E2E2E2E2E2E2E2E2E2E2E2E2E2E2E2E2E2E2E2E2E2E2E2E2E2E2E2E2E2E2E2E2E2E2E2E2E2E2E2E2E2E2E2E2E2E2E2E2E2E2E2E2E2E2E2E2E2E2E2E2E2E2E2E2E2E2E2E2E2E2
310
E2E2E2E2E2E2E2E2E2E2E2E2E2E2E2E2E2E2E2E2E2E2E2E2E2E2E2E2E2E2E2E2E2E2E2E2E2E2E2E2E2E2E2E2E2E2E2E2E2E2E2E2E2E2E2E2E2E2E2E2E2E2E2E2E2E2E2E2E2E2E2E2E2E2E2E2E2E2E2E2E2E2E2E2E2E2E2E2E2E2E2E2E2E2E2E2E2E2E2E2E2E2E2E2E2E2E2E2E2E2E2E2E2E2E2E2E2E2E2E2E2E2E2E2E2E2E2
310
E2E2E2E2E2E2E2E2E2E2E2E2E2E2E2E2E2E2E2E2E2E2E2E2E2E2E2E2E2E2E2E2E2E2E2E2E2E2E2E2E2E2E2E2E2E2E2E2E2E2E2E2E2E2E2E2E2E2E2E2E2E2E2E2E2E2E2E2E2E2E2E2E2E2E2E2E2E2E2E2E2E2E2E2E2E2E2E2E2E2E2E2E2E2E2E2E2E2E2E2E2E2E2E2E2E2E2E2E2E2E2E2E2E2E2E2E2E2E2E2E2E2E2E2E2E2E2
310
E2E2E2E2E2E2E2E2E2E2E2E2E2E2E2E2E2E2E2E2E2E2E2E2E2E2E2E2E2E2E2E2E2E2E2E2E2E2E2E2E2E2E2E2E2E2E2E2E2E2E2E2E2E2E2E2E2E2E2E2E2E2E2E2E2E2E2E2E2E2E2E2E2E2E2E2E2E2E2E2E2E2E2E2E2E2E2E2E2E2E2E2E2E2E2E2E2E2E2E2E2E2E2E2E2E2E2E2E2E2E2E2E2E2E2E2E2E2E2E2E2E2E2E2E2E2E2
310
E2E2E2E2E2E2E2E2E2E2E2E2E2E2E2E2E2E2E2E2E2E2E2E2E2E2E2E2E2E2E2E2E2E2E2E2E2E2E2E2E2E2E2E2E2E2E2E2E2E2E2E2E2E2E2E2E2E2E2E2E2E2E2E2E2E2E2E2E2E2E2E2E2E2E2E2E2E2E2E2E2E2E2E2E2E2E2E2E2E2E2E2E2E2E2E2E2E2E2E2E2E2E2E2E2E2E2E2E2E2E2E2E2E2E2E2E2E2E2E2E2E2E2E2E2E2E2
310
E2E2E2E2E2E2E2E2E2E2E2E2E2E2E2E2E2E2E2E2E2E2E2E2E2E2E2E2E2E2E2E2E2E2E2E2E2E2E2E2E2E2E2E2E2E2E2E2E2E2E2E2E2E2E2E2E2E2E2E2E2E2E2E2E2E2E2E2E2E2E2E2E2E2E2E2E2E2E2E2E2E2E2E2E2E2E2E2E2E2E2E2E2E2E2E2E2E2E2E2E2E2E2E2E2E2E2E2E2E2E2E2E2E2E2E2E2E2E2E2E2E2E2E2E2E2E2
310
E2E2E2E2E2E2E2E2E2E2E2E2E2E2E2E2E2E2E2E2E2E2E2E2E2E2E2E2E2E2E2E2E2E2E2E2E2E2E2E2E2E2E2E2E2E2E2E2E2E2E2E2E2E2E2E2E2E2E2E2E2E2E2E2E2E2E2E2E2E2E2E2E2E2E2E2E2E2E2E2E2E2E2E2E2E2E2E2E2E2E2E2E2E2E2E2E2E2E2E2E2E2E2E2E2E2E2E2E2E2E2E2E2E2E2E2E2E2E2E2E2E2E2E2E2E2E2
310
E2E2E2E2E2E2E2E2E2E2E2E2E2E2E2E2E2E2E2E2E2E2E2E2E2E2E2E2E2E2E2E2E2E2E2E2E2E2E2E2E2E2E2E2E2E2E2E2E2E2E2E2E2E2E2E2E2E2E2E2E2E2E2E2E2E2E2E2E2E2E2E2E2E2E2E2E2E2E2E2E2E2E2E2E2E2E2E2E2E2E2E2E2E2E2E2E2E2E2E2E2E2E2E2E2E2E2E2E2E2E2E2E2E2E2E2E2E2E2E2E2E2E2E2E2E2E2
310
E2E2E2E2E2E2E2E2E2E2E2E2E2E2E2E2E2E2E2E2E2E2E2E2E2E2E2E2E2E2E2E2E2E2E2E2E2E2E2E2E2E2E2E2E2E2E2E2E2E2E2E2E2E2E2E2E2E2E2E2E2E2E2E2E2E2E2E2E2E2E2E2E2E2E2E2E2E2E2E2E2E2E2E2E2E2E2E2E2E2E2E2E2E2E2E2E2E2E2E2E2E2E2E2E2E2E2E2E2E2E2E2E2E2E2E2E2E2E2E2E2E2E2E2E2E2E2
310
E2E2E2E2E2E2E2E2E2E2E2E2E2E2E2E2E2E2E2E2E2E2E2E2E2E2E2E2E2E2E2E2E2E2E2E2E2E2E2E2E2E2E2E2E2E2E2E2E2E2E2E2E2E2E2E2E2E2E2E2E2E2E2E2E2E2E2E2E2E2E2E2E2E2E2E2E2E2E2E2E2E2E2E2E2E2E2E2E2E2E2E2E2E2E2E2E2E2E2E2E2E2E2E2E2E2E2E2E2E2E2E2E2E2E2E2E2E2E2E2E2E2E2E2E2E2E2
310
E2E2E2E2E2E2E2E2E2E2E2E2E2E2E2E2E2E2E2E2E2E2E2E2E2E2E2E2E2E2E2E2E2E2E2E2E2E2E2E2E2E2E2E2E2E2E2E2E2E2E2E2E2E2E2E2E2E2E2E2E2E2E2E2E2E2E2E2E2E2E2E2E2E2E2E2E2E2E2E2E2E2E2E2E2E2E2E2E2E2E2E2E2E2E2E2E2E2E2E2E2E2E2E2E2E2E2E2E2E2E2E2E2E2E2E2E2E2E2E2E2E2E2E2E2E2E2
310
E2E2E2E2E2E2E2E2E2E2E2E2E2E2E2E2E2E2E2E2E2E2E2E2E2E2E2E2E2E2E2E2E2E2E2E2E2E2E2E2E2E2E2E2E2E2E2E2E2E2E2E2E2E2E2E2E2E2E2E2E2E2E2E2E2E2E2E2E2E2E2E2E2E2E2E2E2E2E2E2E2E2E2E2E2E2E2E2E2E2E2E2E2E2E2E2E2E2E2E2E2E2E2E2E2E2E2E2E2E2E2E2E2E2E2E2E2E2E2E2E2E2E2E2E2E2E2
310
E2E2E2E2E2E2E2E2E2E2E2E2E2E2E2E2E2E2E2E2E2E2E2E2E2E2E2E2E2E2E2E2E2E2E2E2E2E2E2E2E2E2E2E2E2E2E2E2E2E2E2E2E2E2E2E2E2E2E2E2E2E2E2E2E2E2E2E2E2E2E2E2E2E2E2E2E2E2E2E2E2E2E2E2E2E2E2E2E2E2E2E2E2E2E2E2E2E2E2E2E2E2E2E2E2E2E2E2E2E2E2E2E2E2E2E2E2E2E2E2E2E2E2E2E2E2E2
310
E2E2E2E2E2E2E2E2E2E2E2E2E2E2E2E2E2E2E2E2E2E2E2E2E2E2E2E2E2E2E2E2E2E2E2E2E2E2E2E2E2E2E2E2E2E2E2E2E2E2E2E2E2E2E2E2E2E2E2E2E2E2E2E2E2E2E2E2E2E2E2E2E2E2E2E2E2E2E2E2E2E2E2E2E2E2E2E2E2E2E2E2E2E2E2E2E2E2E2E2E2E2E2E2E2E2E2E2E2E2E2E2E2E2E2E2E2E2E2E2E2E2E2E2E2E2E2
310
E2E2E2E2E2E2E2E2E2E2E2E2E2E2E2E2E2E2E2E2E2E2E2E2E2E2E2E2E2E2E2E2E2E2E2E2E2E2E2E2E2E2E2E2E2E2E2E2E2E2E2E2E2E2E2E2E2E2E2E2E2E2E2E2E2E2E2E2E2E2E2E2E2E2E2E2E2E2E2E2E2E2E2E2E2E2E2E2E2E2E2E2E2E2E2E2E2E2E2E2E2E2E2E2E2E2E2E2E2E2E2E2E2E2E2E2E2E2E2E2E2E2E2E2E2E2E2
310
E2E2E2E2E2E2E2E2E2E2E2E2E2E2E2E2E2E2E2E2E2E2E2E2E2E2E2E2E2E2E2E2E2E2E2E2E2E2E2E2E2E2E2E2E2E2E2E2E2E2E2E2E2E2E2E2E2E2E2E2E2E2E2E2E2E2E2E2E2E2E2E2E2E2E2E2E2E2E2E2E2E2E2E2E2E2E2E2E2E2E2E2E2E2E2E2E2E2E2E2E2E2E2E2E2E2E2E2E2E2E2E2E2E2E2E2E2E2E2E2E2E2E2E2E2E2E2
310
E2E2E2E2E2E2E2E2E2E2E2E2E2E2E2E2E2E2E2E2E2E2E2E2E2E2E2E2E2E2E2E2E2E2E2E2E2E2E2E2E2E2E2E2E2E2E2E2E2E2E2E2E2E2E2E2E2E2E2E2E2E2E2E2E2E2E2E2E2E2E2E2E2E2E2E2E2E2E2E2E2E2E2E2E2E2E2E2E2E2E2E2E2E2E2E2E2E2E2E2E2E2E2E2E2E2E2E2E2E2E2E2E2E2E2E2E2E2E2E2E2E2E2E2E2E2E2
310
E2E2E2E2E2E2E2E2E2E2E2E2E2E2E2E2E2E2E2E2E2E2E2E2E2E2E2E2E2E2E2E2E2E2E2E2E2E2E2E2E2E2E2E2E2E2E2E2E2E2E2E2E2E2E2E2E2E2E2E2E2E2E2E2E2E2E2E2E2E2E2E2E2E2E2E2E2E2E2E2E2E2E2E2E2E2E2E2E2E2E2E2E2E2E2E2E2E2E2E2E2E2E2E2E2E2E2E2E2E2E2E2E2E2E2E2E2E2E2E2E2E2E2E2E2E2E2
310
E2E2E2E2E2E2E2E2E2E2E2E2E2E2E2E2E2E2E2E2E2E2E2E2E2E2E2E2E2E2E2E2E2E2E2E2E2E2E2E2E2E2E2E2E2E2E2E2E2E2E2E2E2E2E2E2E2E2E2E2E2E2E2E2E2E2E2E2E2E2E2E2E2E2E2E2E2E2E2E2E2E2E2E2E2E2E2E2E2E2E2E2E2E2E2E2E2E2E2E2E2E2E2E2E2E2E2E2E2E2E2E2E2E2E2E2E2E2E2E2E2E2E2E2E2E2E2
310
E2E2E2E2E2E2E2E2E2E2E2E2E2E2E2E2E2E2E2E2E2E2E2E2E2E2E2E2E2E2E2E2E2E2E2E2E2E2E2E2E2E2E2E2E2E2E2E2E2E2E2E2E2E2E2E2E2E2E2E2E2E2E2E2E2E2E2E2E2E2E2E2E2E2E2E2E2E2E2E2E2E2E2E2E2E2E2E2E2E2E2E2E2E2E2E2E2E2E2E2E2E2E2E2E2E2E2E2E2E2E2E2E2E2E2E2E2E2E2E2E2E2E2E2E2E2E2
310
E2E2E2E2E2E2E2E2E2E2E2E2E2E2E2E2E2E2E2E2E2E2E2E2E2E2E2E2E2E2E2E2E2E2E2E2E2E2E2E2E2E2E2E2E2E2E2E2E2E2E2E2E2E2E2E2E2E2E2E2E2E2E2E2E2E2E2E2E2E2E2E2E2E2E2E2E2E2E2E2E2E2E2E2E2E2E2E2E2E2E2E2E2E2E2E2E2E2E2E2E2E2E2E2E2E2E2E2E2E2E2E2E2E2E2E2E2E2E2E2E2E2E2E2E2E2E2
310
E2E2E2E2E2E2E2E2E2E2E2E2E2E2E2E2E2E2E2E2E2E2E2E2E2E2E2E2E2E2E2E2E2E2E2E2E2E2E2E2E2E2E2E2E2E2E2E2E2E2E2E2E2E2E2E2E2E2E2E2E2E2E2E2E2E2E2E2E2E2E2E2E2E2E2E2E2E2E2E2E2E2E2E2E2E2E2E2E2E2E2E2E2E2E2E2E2E2E2E2E2E2E2E2E2E2E2E2E2E2E2E2E2E2E2E2E2E2E2E2E2E2E2E2E2E2E2
310
E2E2E2E2E2E2E2E2E2E2E2E2E2E2E2E2E2E2E2E2E2E2E2E2E2E2E2E2E2E2E2E2E2E2E2E2E2E2E2E2E2E2E2E2E2E2E2E2E2E2E2E2E2E2E2E2E2E2E2E2E2E2E2E2E2E2E2E2E2E2E2E2E2E2E2E2E2E2E2E2E2E2E2E2E2E2E2E2E2E2E2E2E2E2E2E2E2E2E2E2E2E2E2E2E2E2E2E2E2E2E2E2E2E2E2E2E2E2E2E2E2E2E2E2E2E2E2
310
E2E2E2E2E2E2E2E2E2E2E2E2E2E2E2E2E2E2E2E2E2E2E2E2E2E2E2E2E2E2E2E2E2E2E2E2E2E2E2E2E2E2E2E2E2E2E2E2E2E2E2E2E2E2E2E2E2E2E2E2E2E2E2E2E2E2E2E2E2E2E2E2E2E2E2E2E2E2E2E2E2E2E2E2E2E2E2E2E2E2E2E2E2E2E2E2E2E2E2E2E2E2E2E2E2E2E2E2E2E2E2E2E2E2E2E2E2E2E2E2E2E2E2E2E2E2E2
310
E2E2E2E2E2E2E2E2E2E2E2E2E2E2E2E2E2E2E2E2E2E2E2E2E2E2E2E2E2E2E2E2E2E2E2E2E2E2E2E2E2E2E2E2E2E2E2E2E2E2E2E2E2E2E2E2E2E2E2E2E2E2E2E2E2E2E2E2E2E2E2E2E2E2E2E2E2E2E2E2E2E2E2E2E2E2E2E2E2E2E2E2E2E2E2E2E2E2E2E2E2E2E2E2E2E2E2E2E2E2E2E2E2E2E2E2E2E2E2E2E2E2E2E2E2E2E2
310
E2E2E2E2E2E2E2E2E2E2E2E2E2E2E2E2E2E2E2E2E2E2E2E2E2E2E2E2E2E2E2E2E2E2E2E2E2E2E2E2E2E2E2E2E2E2E2E2E2E2E2E2E2E2E2E2E2E2E2E2E2E2E2E2E2E2E2E2E2E2E2E2E2E2E2E2E2E2E2E2E2E2E2E2E2E2E2E2E2E2E2E2E2E2E2E2E2E2E2E2E2E2E2E2E2E2E2E2E2E2E2E2E2E2E2E2E2E2E2E2E2E2E2E2E2E2E2
310
E2E2E2E2E2E2E2E2E2E2E2E2E2E2E2E2E2E2E2E2E2E2E2E2E2E2E2E2E2E2E2E2E2E2E2E2E2E2E2E2E2E2E2E2E2E2E2E2E2E2E2E2E2E2E2E2E2E2E2E2E2E2E2E2E2E2E2E2E2E2E2E2E2E2E2E2E2E2E2E2E2E2E2E2E2E2E2E2E2E2E2E2E2E2E2E2E2E2E2E2E2E2E2E2E2E2E2E2E2E2E2E2E2E2E2E2E2E2E2E2E2E2E2E2E2E2E2
310
E2E2E2E2E2E2E2E2E2E2E2E2E2E2E2E2E2E2E2E2E2E2E2E2E2E2E2E2E2E2E2E2E2E2E2E2E2E2E2E2E2E2E2E2E2E2E2E2E2E2E2E2E2E2E2E2E2E2E2E2E2E2E2E2E2E2E2E2E2E2E2E2E2E2E2E2E2E2E2E2E2E2E2E2E2E2E2E2E2E2E2E2E2E2E2E2E2E2E2E2E2E2E2E2E2E2E2E2E2E2E2E2E2E2E2E2E2E2E2E2E2E2E2E2E2E2E2
310
E2E2E2E2E2E2E2E2E2E2E2E2E2E2E2E2E2E2E2E2E2E2E2E2E2E2E2E2E2E2E2E2E2E2E2E2E2E2E2E2E2E2E2E2E2E2E2E2E2E2E2E2E2E2E2E2E2E2E2E2E2E2E2E2E2E2E2E2E2E2E2E2E2E2E2E2E2E2E2E2E2E2E2E2E2E2E2E2E2E2E2E2E2E2E2E2E2E2E2E2E2E2E2E2E2E2E2E2E2E2E2E2E2E2E2E2E2E2E2E2E2E2E2E2E2E2E2
310
E2E2E2E2E2E2E2E2E2E2E2E2E2E2E2E2E2E2E2E2E2E2E2E2E2E2E2E2E2E2E2E2E2E2E2E2E2E2E2E2E2E2E2E2E2E2E2E2E2E2E2E2E2E2E2E2E2E2E2E2E2E2E2E2E2E2E2E2E2E2E2E2E2E2E2E2E2E2E2E2E2E2E2E2E2E2E2E2E2E2E2
  0
XRECORD
  5
546
102
{ACAD_REACTORS
330
3E
102
}
330
3E
100
AcDbXrecord
280
     1
102
MATERIAL
148
0.0
149
0.0
149
0.0
 93
        0
 94
      127
282
     0
 72
     0
 77
     0
171
     0
175
     0
179
     0
273
     0
  0
XRECORD
  5
3F
102
{ACAD_REACTORS
330
3E
102
}
330
3E
100
AcDbXrecord
280
     1
270
     1
271
     1
  0
XRECORD
  5
40
102
{ACAD_REACTORS
330
3E
102
}
330
3E
100
AcDbXrecord
280
     1
270
     1
271
     1
  0
XRECORD
  5
41
102
{ACAD_REACTORS
330
3E
102
}
330
3E
100
AcDbXrecord
280
     1
270
     1
271
     1
  0
XRECORD
  5
42
102
{ACAD_REACTORS
330
3E
102
}
330
3E
100
AcDbXrecord
280
     1
270
     1
271
     1
  0
XRECORD
  5
43
102
{ACAD_REACTORS
330
3E
102
}
330
3E
100
AcDbXrecord
280
     1
270
     1
271
     1
  0
XRECORD
  5
44
102
{ACAD_REACTORS
330
3E
102
}
330
3E
100
AcDbXrecord
280
     1
270
     1
271
     1
  0
XRECORD
  5
545
102
{ACAD_REACTORS
330
36
102
}
330
36
100
AcDbXrecord
280
     1
102
MATERIAL
148
0.0
149
0.0
149
0.0
 93
        0
 94
      127
282
     0
 72
     0
 77
     0
171
     0
175
     0
179
     0
273
     0
  0
XRECORD
  5
37
102
{ACAD_REACTORS
330
36
102
}
330
36
100
AcDbXrecord
280
     1
270
     1
271
     1
  0
XRECORD
  5
38
102
{ACAD_REACTORS
330
36
102
}
330
36
100
AcDbXrecord
280
     1
270
     1
271
     1
  0
XRECORD
  5
39
102
{ACAD_REACTORS
330
36
102
}
330
36
100
AcDbXrecord
280
     1
270
     1
271
     1
  0
XRECORD
  5
3A
102
{ACAD_REACTORS
330
36
102
}
330
36
100
AcDbXrecord
280
     1
270
     1
271
     1
  0
XRECORD
  5
3B
102
{ACAD_REACTORS
330
36
102
}
330
36
100
AcDbXrecord
280
     1
270
     1
271
     1
  0
XRECORD
  5
3C
102
{ACAD_REACTORS
330
36
102
}
330
36
100
AcDbXrecord
280
     1
270
     1
271
     1
  0
XRECORD
  5
541
102
{ACAD_REACTORS
330
C
102
}
330
C
100
AcDbXrecord
280
     1
102
MATERIAL
148
0.0
149
0.0
149
0.0
 93
        0
 94
      127
282
     0
 72
     0
 77
     0
171
     0
175
     0
179
     0
273
     0
  0
XRECORD
  5
D
102
{ACAD_REACTORS
330
C
102
}
330
C
100
AcDbXrecord
280
     1
270
     1
271
     1
  0
XRECORD
  5
E
102
{ACAD_REACTORS
330
C
102
}
330
C
100
AcDbXrecord
280
     1
270
     1
271
     1
  0
XRECORD
  5
F
102
{ACAD_REACTORS
330
C
102
}
330
C
100
AcDbXrecord
280
     1
270
     1
271
     1
  0
XRECORD
  5
10
102
{ACAD_REACTORS
330
C
102
}
330
C
100
AcDbXrecord
280
     1
270
     1
271
     1
  0
XRECORD
  5
11
102
{ACAD_REACTORS
330
C
102
}
330
C
100
AcDbXrecord
280
     1
270
     1
271
     1
  0
XRECORD
  5
12
102
{ACAD_REACTORS
330
C
102
}
330
C
100
AcDbXrecord
280
     1
270
     1
271
     1
  0
CELLSTYLEMAP
  5
210F
102
{ACAD_REACTORS
330
43E
102
}
330
43E
100
AcDbCellStyleMap
 90
        3
300
CELLSTYLE
  1
TABLEFORMAT_BEGIN
 90
        5
170
     1
 91
        0
 92
    32768
 62
   257
 93
        1
300
CONTENTFORMAT
  1
CONTENTFORMAT_BEGIN
 90
        0
 91
        0
 92
        4
 93
        0
300

 40
0.0
140
1.0
 94
        5
 62
     0
340
22
144
6.0
309
CONTENTFORMAT_END
171
     1
301
MARGIN
  1
CELLMARGIN_BEGIN
 40
1.5
 40
1.5
 40
1.5
 40
1.5
 40
0.18
 40
0.18
309
CELLMARGIN_END
 94
        6
 95
        1
302
GRIDFORMAT
  1
GRIDFORMAT_BEGIN
 90
        0
 91
        1
 62
     0
 92
       -2
340
0
 93
        0
 40
0.045
309
GRIDFORMAT_END
 95
        2
302
GRIDFORMAT
  1
GRIDFORMAT_BEGIN
 90
        0
 91
        1
 62
     0
 92
       -2
340
0
 93
        0
 40
0.045
309
GRIDFORMAT_END
 95
        4
302
GRIDFORMAT
  1
GRIDFORMAT_BEGIN
 90
        0
 91
        1
 62
     0
 92
       -2
340
0
 93
        0
 40
0.045
309
GRIDFORMAT_END
 95
        8
302
GRIDFORMAT
  1
GRIDFORMAT_BEGIN
 90
        0
 91
        1
 62
     0
 92
       -2
340
0
 93
        0
 40
0.045
309
GRIDFORMAT_END
 95
       16
302
GRIDFORMAT
  1
GRIDFORMAT_BEGIN
 90
        0
 91
        1
 62
     0
 92
       -2
340
0
 93
        0
 40
0.045
309
GRIDFORMAT_END
 95
       32
302
GRIDFORMAT
  1
GRIDFORMAT_BEGIN
 90
        0
 91
        1
 62
     0
 92
       -2
340
0
 93
        0
 40
0.045
309
GRIDFORMAT_END
309
TABLEFORMAT_END
  1
CELLSTYLE_BEGIN
 90
        1
 91
        1
300
_TITLE
309
CELLSTYLE_END
300
CELLSTYLE
  1
TABLEFORMAT_BEGIN
 90
        5
170
     1
 91
        0
 92
        0
 62
   257
 93
        1
300
CONTENTFORMAT
  1
CONTENTFORMAT_BEGIN
 90
        0
 91
        0
 92
        4
 93
        0
300

 40
0.0
140
1.0
 94
        5
 62
     0
340
22
144
4.5
309
CONTENTFORMAT_END
171
     1
301
MARGIN
  1
CELLMARGIN_BEGIN
 40
1.5
 40
1.5
 40
1.5
 40
1.5
 40
0.18
 40
0.18
309
CELLMARGIN_END
 94
        6
 95
        1
302
GRIDFORMAT
  1
GRIDFORMAT_BEGIN
 90
        0
 91
        1
 62
     0
 92
       -2
340
0
 93
        0
 40
0.045
309
GRIDFORMAT_END
 95
        2
302
GRIDFORMAT
  1
GRIDFORMAT_BEGIN
 90
        0
 91
        1
 62
     0
 92
       -2
340
0
 93
        0
 40
0.045
309
GRIDFORMAT_END
 95
        4
302
GRIDFORMAT
  1
GRIDFORMAT_BEGIN
 90
        0
 91
        1
 62
     0
 92
       -2
340
0
 93
        0
 40
0.045
309
GRIDFORMAT_END
 95
        8
302
GRIDFORMAT
  1
GRIDFORMAT_BEGIN
 90
        0
 91
        1
 62
     0
 92
       -2
340
0
 93
        0
 40
0.045
309
GRIDFORMAT_END
 95
       16
302
GRIDFORMAT
  1
GRIDFORMAT_BEGIN
 90
        0
 91
        1
 62
     0
 92
       -2
340
0
 93
        0
 40
0.045
309
GRIDFORMAT_END
 95
       32
302
GRIDFORMAT
  1
GRIDFORMAT_BEGIN
 90
        0
 91
        1
 62
     0
 92
       -2
340
0
 93
        0
 40
0.045
309
GRIDFORMAT_END
309
TABLEFORMAT_END
  1
CELLSTYLE_BEGIN
 90
        2
 91
        1
300
_HEADER
309
CELLSTYLE_END
300
CELLSTYLE
  1
TABLEFORMAT_BEGIN
 90
        5
170
     1
 91
        0
 92
        0
 62
   257
 93
        1
300
CONTENTFORMAT
  1
CONTENTFORMAT_BEGIN
 90
        0
 91
        0
 92
        4
 93
        0
300

 40
0.0
140
1.0
 94
        2
 62
     0
340
22
144
4.5
309
CONTENTFORMAT_END
171
     1
301
MARGIN
  1
CELLMARGIN_BEGIN
 40
1.5
 40
1.5
 40
1.5
 40
1.5
 40
0.18
 40
0.18
309
CELLMARGIN_END
 94
        6
 95
        1
302
GRIDFORMAT
  1
GRIDFORMAT_BEGIN
 90
        0
 91
        1
 62
     0
 92
       -2
340
0
 93
        0
 40
0.045
309
GRIDFORMAT_END
 95
        2
302
GRIDFORMAT
  1
GRIDFORMAT_BEGIN
 90
        0
 91
        1
 62
     0
 92
       -2
340
0
 93
        0
 40
0.045
309
GRIDFORMAT_END
 95
        4
302
GRIDFORMAT
  1
GRIDFORMAT_BEGIN
 90
        0
 91
        1
 62
     0
 92
       -2
340
0
 93
        0
 40
0.045
309
GRIDFORMAT_END
 95
        8
302
GRIDFORMAT
  1
GRIDFORMAT_BEGIN
 90
        0
 91
        1
 62
     0
 92
       -2
340
0
 93
        0
 40
0.045
309
GRIDFORMAT_END
 95
       16
302
GRIDFORMAT
  1
GRIDFORMAT_BEGIN
 90
        0
 91
        1
 62
     0
 92
       -2
340
0
 93
        0
 40
0.045
309
GRIDFORMAT_END
 95
       32
302
GRIDFORMAT
  1
GRIDFORMAT_BEGIN
 90
        0
 91
        1
 62
     0
 92
       -2
340
0
 93
        0
 40
0.045
309
GRIDFORMAT_END
309
TABLEFORMAT_END
  1
CELLSTYLE_BEGIN
 90
        3
 91
        2
300
_DATA
309
CELLSTYLE_END
  0
XRECORD
  5
2116
102
{ACAD_REACTORS
330
43E
102
}
330
43E
100
AcDbXrecord
280
     1
102
ACAD_ROUNDTRIP_PRE2007_TABLESTYLE
 90
        4
 91
        0
  1

 92
        4
 93
        0
  2

 94
        4
 95
        0
  3

  0
ENDSEC
  0
EOF
